  0
SECTION
  2
HEADER
  9
$ACADVER
  1
AC1018
  9
$ACADMAINTVER
 70
    76
  9
$DWGCODEPAGE
  3
ANSI_1252
  9
$INSBASE
 10
0.0
 20
0.0
 30
0.0
  9
$EXTMIN
 10
-0.0003356677483914
 20
-0.0002593796237598
 30
-0.0015258207003583
  9
$EXTMAX
 10
11.00033571897113
 20
8.500259419204969
 30
0.0000000349246037
  9
$LIMMIN
 10
0.0
 20
0.0
  9
$LIMMAX
 10
11.0
 20
8.5
  9
$ORTHOMODE
 70
     0
  9
$REGENMODE
 70
     1
  9
$FILLMODE
 70
     1
  9
$QTEXTMODE
 70
     0
  9
$MIRRTEXT
 70
     0
  9
$LTSCALE
 40
0.605
  9
$ATTMODE
 70
     1
  9
$TEXTSIZE
 40
0.2
  9
$TRACEWID
 40
0.05
  9
$TEXTSTYLE
  7
STANDARD
  9
$CLAYER
  8
0
  9
$CELTYPE
  6
BYLAYER
  9
$CECOLOR
 62
   256
  9
$CELTSCALE
 40
1.0
  9
$DISPSILH
 70
     0
  9
$DIMSCALE
 40
1.0
  9
$DIMASZ
 40
0.1875
  9
$DIMEXO
 40
0.06875
  9
$DIMDLI
 40
0.418
  9
$DIMRND
 40
0.0
  9
$DIMDLE
 40
0.0
  9
$DIMEXE
 40
0.198
  9
$DIMTP
 40
0.0
  9
$DIMTM
 40
0.0
  9
$DIMTXT
 40
0.15625
  9
$DIMCEN
 40
0.099
  9
$DIMTSZ
 40
0.0
  9
$DIMTOL
 70
     0
  9
$DIMLIM
 70
     0
  9
$DIMTIH
 70
     1
  9
$DIMTOH
 70
     1
  9
$DIMSE1
 70
     0
  9
$DIMSE2
 70
     0
  9
$DIMTAD
 70
     0
  9
$DIMZIN
 70
     0
  9
$DIMBLK
  1

  9
$DIMASO
 70
     1
  9
$DIMSHO
 70
     1
  9
$DIMPOST
  1

  9
$DIMAPOST
  1

  9
$DIMALT
 70
     0
  9
$DIMALTD
 70
     2
  9
$DIMALTF
 40
25.4
  9
$DIMLFAC
 40
1.0
  9
$DIMTOFL
 70
     0
  9
$DIMTVP
 40
0.0
  9
$DIMTIX
 70
     0
  9
$DIMSOXD
 70
     0
  9
$DIMSAH
 70
     0
  9
$DIMBLK1
  1

  9
$DIMBLK2
  1

  9
$DIMSTYLE
  2
STANDARD
  9
$DIMCLRD
 70
     0
  9
$DIMCLRE
 70
     0
  9
$DIMCLRT
 70
     0
  9
$DIMTFAC
 40
1.0
  9
$DIMGAP
 40
0.09
  9
$DIMJUST
 70
     0
  9
$DIMSD1
 70
     0
  9
$DIMSD2
 70
     0
  9
$DIMTOLJ
 70
     1
  9
$DIMTZIN
 70
     0
  9
$DIMALTZ
 70
     0
  9
$DIMALTTZ
 70
     0
  9
$DIMUPT
 70
     0
  9
$DIMDEC
 70
     2
  9
$DIMTDEC
 70
     4
  9
$DIMALTU
 70
     2
  9
$DIMALTTD
 70
     2
  9
$DIMTXSTY
  7
STANDARD
  9
$DIMAUNIT
 70
     0
  9
$DIMADEC
 70
     0
  9
$DIMALTRND
 40
0.0
  9
$DIMAZIN
 70
     0
  9
$DIMDSEP
 70
    46
  9
$DIMATFIT
 70
     3
  9
$DIMFRAC
 70
     0
  9
$DIMLDRBLK
  1

  9
$DIMLUNIT
 70
     2
  9
$DIMLWD
 70
    -2
  9
$DIMLWE
 70
    -2
  9
$DIMTMOVE
 70
     0
  9
$LUNITS
 70
     2
  9
$LUPREC
 70
     4
  9
$SKETCHINC
 40
0.1
  9
$FILLETRAD
 40
0.0
  9
$AUNITS
 70
     0
  9
$AUPREC
 70
     0
  9
$MENU
  1
.
  9
$ELEVATION
 40
0.0
  9
$PELEVATION
 40
0.0
  9
$THICKNESS
 40
0.0
  9
$LIMCHECK
 70
     0
  9
$CHAMFERA
 40
0.0
  9
$CHAMFERB
 40
0.0
  9
$CHAMFERC
 40
0.0
  9
$CHAMFERD
 40
0.0
  9
$SKPOLY
 70
     0
  9
$TDCREATE
 40
2456541.637907593
  9
$TDUCREATE
 40
2456541.846240926
  9
$TDUPDATE
 40
2456541.639307662
  9
$TDUUPDATE
 40
2456541.847640995
  9
$TDINDWG
 40
0.0014011458
  9
$TDUSRTIMER
 40
0.0014011458
  9
$USRTIMER
 70
     1
  9
$ANGBASE
 50
0.0
  9
$ANGDIR
 70
     0
  9
$PDMODE
 70
     3
  9
$PDSIZE
 40
0.3125
  9
$PLINEWID
 40
0.0
  9
$SPLFRAME
 70
     0
  9
$SPLINETYPE
 70
     6
  9
$SPLINESEGS
 70
     8
  9
$HANDSEED
  5
67A
  9
$SURFTAB1
 70
     6
  9
$SURFTAB2
 70
     6
  9
$SURFTYPE
 70
     6
  9
$SURFU
 70
     6
  9
$SURFV
 70
     6
  9
$UCSBASE
  2

  9
$UCSNAME
  2

  9
$UCSORG
 10
0.0
 20
0.0
 30
0.0
  9
$UCSXDIR
 10
1.0
 20
0.0
 30
0.0
  9
$UCSYDIR
 10
0.0
 20
1.0
 30
0.0
  9
$UCSORTHOREF
  2

  9
$UCSORTHOVIEW
 70
     0
  9
$UCSORGTOP
 10
0.0
 20
0.0
 30
0.0
  9
$UCSORGBOTTOM
 10
0.0
 20
0.0
 30
0.0
  9
$UCSORGLEFT
 10
0.0
 20
0.0
 30
0.0
  9
$UCSORGRIGHT
 10
0.0
 20
0.0
 30
0.0
  9
$UCSORGFRONT
 10
0.0
 20
0.0
 30
0.0
  9
$UCSORGBACK
 10
0.0
 20
0.0
 30
0.0
  9
$PUCSBASE
  2

  9
$PUCSNAME
  2

  9
$PUCSORG
 10
0.0
 20
0.0
 30
0.0
  9
$PUCSXDIR
 10
1.0
 20
0.0
 30
0.0
  9
$PUCSYDIR
 10
0.0
 20
1.0
 30
0.0
  9
$PUCSORTHOREF
  2

  9
$PUCSORTHOVIEW
 70
     0
  9
$PUCSORGTOP
 10
0.0
 20
0.0
 30
0.0
  9
$PUCSORGBOTTOM
 10
0.0
 20
0.0
 30
0.0
  9
$PUCSORGLEFT
 10
0.0
 20
0.0
 30
0.0
  9
$PUCSORGRIGHT
 10
0.0
 20
0.0
 30
0.0
  9
$PUCSORGFRONT
 10
0.0
 20
0.0
 30
0.0
  9
$PUCSORGBACK
 10
0.0
 20
0.0
 30
0.0
  9
$USERI1
 70
     0
  9
$USERI2
 70
     0
  9
$USERI3
 70
     0
  9
$USERI4
 70
     0
  9
$USERI5
 70
     0
  9
$USERR1
 40
0.0
  9
$USERR2
 40
0.0
  9
$USERR3
 40
0.0
  9
$USERR4
 40
0.0
  9
$USERR5
 40
0.0
  9
$WORLDVIEW
 70
     1
  9
$SHADEDGE
 70
     3
  9
$SHADEDIF
 70
    70
  9
$TILEMODE
 70
     1
  9
$MAXACTVP
 70
    64
  9
$PINSBASE
 10
0.0
 20
0.0
 30
0.0
  9
$PLIMCHECK
 70
     0
  9
$PEXTMIN
 10
1.000000000000000E+20
 20
1.000000000000000E+20
 30
1.000000000000000E+20
  9
$PEXTMAX
 10
-1.000000000000000E+20
 20
-1.000000000000000E+20
 30
-1.000000000000000E+20
  9
$PLIMMIN
 10
0.0
 20
0.0
  9
$PLIMMAX
 10
12.0
 20
9.0
  9
$UNITMODE
 70
     0
  9
$VISRETAIN
 70
     1
  9
$PLINEGEN
 70
     0
  9
$PSLTSCALE
 70
     1
  9
$TREEDEPTH
 70
  3020
  9
$CMLSTYLE
  2
Standard
  9
$CMLJUST
 70
     0
  9
$CMLSCALE
 40
1.0
  9
$PROXYGRAPHICS
 70
     1
  9
$MEASUREMENT
 70
     0
  9
$CELWEIGHT
370
    -1
  9
$ENDCAPS
280
     0
  9
$JOINSTYLE
280
     0
  9
$LWDISPLAY
290
     0
  9
$INSUNITS
 70
     1
  9
$HYPERLINKBASE
  1

  9
$STYLESHEET
  1

  9
$XEDIT
290
     1
  9
$CEPSNTYPE
380
     0
  9
$PSTYLEMODE
290
     1
  9
$FINGERPRINTGUID
  2
{C976D4A5-1C3A-4ADF-B18C-57725279D1EC}
  9
$VERSIONGUID
  2
{70B5DF1E-16C1-4FB4-80F9-E0C6D4ABFE6C}
  9
$EXTNAMES
290
     1
  9
$PSVPSCALE
 40
0.0
  9
$OLESTARTUP
290
     0
  9
$SORTENTS
280
   127
  9
$INDEXCTL
280
     0
  9
$HIDETEXT
280
     1
  9
$XCLIPFRAME
290
     0
  9
$HALOGAP
280
     0
  9
$OBSCOLOR
 70
   257
  9
$OBSLTYPE
280
     0
  9
$INTERSECTIONDISPLAY
280
     0
  9
$INTERSECTIONCOLOR
 70
   257
  9
$DIMASSOC
280
     2
  9
$PROJECTNAME
  1

  0
ENDSEC
  0
SECTION
  2
CLASSES
  0
CLASS
  1
ACDBDICTIONARYWDFLT
  2
AcDbDictionaryWithDefault
  3
ObjectDBX Classes
 90
        0
 91
        1
280
     0
281
     0
  0
CLASS
  1
TABLESTYLE
  2
AcDbTableStyle
  3
ObjectDBX Classes
 90
     2047
 91
        1
280
     0
281
     0
  0
CLASS
  1
AMGSETTINGSOBJ
  2
AmgSettingsObj
  3
"AcadM|Product Description: AutoCAD Mechanical 2000|Company: Autodesk"
 90
        0
 91
        2
280
     0
281
     0
  0
CLASS
  1
ACME_DOCUMENT
  2
AcMeDbDoc
  3
AcMeServices
 90
        0
 91
        1
280
     0
281
     0
  0
CLASS
  1
ACMESCOPE
  2
AcMeScope
  3
AcMeServices
 90
        0
 91
        1
280
     0
281
     0
  0
CLASS
  1
ACMECOMMANDHISTORY
  2
AcMeCommandHistory
  3
AcMeServices
 90
        0
 91
        1
280
     0
281
     0
  0
CLASS
  1
ACIMSYSVARMAN
  2
AcImSysVarManager
  3
AcMeServices
 90
        0
 91
        5
280
     0
281
     0
  0
CLASS
  1
ACIMINTSYSVAR
  2
AcImIntSysVar
  3
AcMeServices
 90
        0
 91
       26
280
     0
281
     0
  0
CLASS
  1
ACMEDRAWINGMAN
  2
AcMeDrawingMan
  3
AcMeServices
 90
        0
 91
        1
280
     0
281
     0
  0
CLASS
  1
ACMEVIEW
  2
AcMeView
  3
AcMeServices
 90
        0
 91
        1
280
     0
281
     0
  0
CLASS
  1
ACDBENTITYCACHE
  2
AcMeEntityCache
  3
AcMeServices
 90
        0
 91
        1
280
     0
281
     0
  0
CLASS
  1
GSMANAGER
  2
AcMeGSManager
  3
AcMeServices
 90
        0
 91
        1
280
     0
281
     0
  0
CLASS
  1
AMDTINTERNALREACTOR
  2
AmdtInternalReactor
  3
AcMeServices
 90
        0
 91
        2
280
     0
281
     0
  0
CLASS
  1
ACMESTATEMGR
  2
AcMeStateMgr
  3
AcMeServices
 90
        0
 91
        1
280
     0
281
     0
  0
CLASS
  1
ACGREFMASTER
  2
AcGrefMaster
  3
AcAttribServices
 90
        0
 91
        1
280
     0
281
     0
  0
CLASS
  1
AM_DRAWING_MGR
  2
AcDmDwgMgr
  3
AcMechDwgViewMgmt
 90
        0
 91
        1
280
     0
281
     0
  0
CLASS
  1
AM_DWG_DOCUMENT
  2
AcDmDwgDocument
  3
AcMechDwgViewMgmt
 90
        0
 91
        1
280
     0
281
     0
  0
CLASS
  1
AM_DWG_SHEET
  2
AcDmSheet
  3
AcMechDwgViewMgmt
 90
        0
 91
        1
280
     0
281
     0
  0
CLASS
  1
AM_VIEWDIMPARMAP
  2
AcDmViewDimParMap
  3
AcMechDwgViewMgmt
 90
        0
 91
        1
280
     0
281
     0
  0
CLASS
  1
ACIMREALSYSVAR
  2
AcImRealSysVar
  3
AcMeServices
 90
        0
 91
        1
280
     0
281
     0
  0
CLASS
  1
AM_DWGMGR_NAME
  2
AcDmDwgMgrName
  3
AcMechDwgViewMgmt
 90
        0
 91
        1
280
     0
281
     0
  0
CLASS
  1
ACME_DATABASE
  2
AcMeDbDatabase
  3
AcMeServices
 90
        0
 91
        1
280
     0
281
     0
  0
CLASS
  1
ACRFINSADJUSTERMGR
  2
AcRfInsAdjusterMgr
  3
AcMeServices
 90
        0
 91
        1
280
     0
281
     0
  0
CLASS
  1
ACGREFACADMASTER
  2
AcGrefacadMaster
  3
AcGrefServices
 90
        0
 91
        1
280
     0
281
     0
  0
CLASS
  1
AMDTMENUSTATEMGR
  2
AmdtMenuStateMgr
  3
McadcomServices
 90
        0
 91
        1
280
     0
281
     0
  0
CLASS
  1
AMDTMCOMMENUSTATE
  2
AmdtMcomMenuState
  3
McadcomServices
 90
        0
 91
        1
280
     0
281
     0
  0
CLASS
  1
AMIMASTER
  2
AmiMaster
  3
AmiServices
 90
        0
 91
        1
280
     0
281
     0
  0
CLASS
  1
MAPIAMMOUDLE
  2
MApiAmModule
  3
MApiAmServices
 90
        0
 91
        1
280
     0
281
     0
  0
CLASS
  1
ACIMSTRSYSVAR
  2
AcImStrSysVar
  3
AcMeServices
 90
        0
 91
        5
280
     0
281
     0
  0
CLASS
  1
AMDTADMENUSTATE
  2
AmdtAdMenuState
  3
DesignerServices
 90
        0
 91
        1
280
     0
281
     0
  0
CLASS
  1
ADAPPL
  2
AcAdAppl
  3
DesignerServices
 90
        0
 91
        1
280
     0
281
     0
  0
CLASS
  1
DEPMGR
  2
AcAdDepMgr
  3
DesignerServices
 90
        0
 91
        1
280
     0
281
     0
  0
CLASS
  1
PARAMMGR
  2
AcAdParamMgr
  3
DesignerServices
 90
        0
 91
        1
280
     0
281
     0
  0
CLASS
  1
PARAMSCOPE
  2
AcAdParamScope
  3
DesignerServices
 90
        0
 91
        1
280
     0
281
     0
  0
CLASS
  1
NAMEDAPPL
  2
AcAdNamedAppl
  3
DesignerServices
 90
        0
 91
        1
280
     0
281
     0
  0
CLASS
  1
AMDTDMMENUSTATE
  2
AmdtDmMenuState
  3
AcMechDwgViewMgmt
 90
        0
 91
        1
280
     0
281
     0
  0
CLASS
  1
AMDTAMMENUSTATE
  2
AmdtAmMenuState
  3
DesignerAssemblies
 90
        0
 91
        1
280
     0
281
     0
  0
CLASS
  1
ACAMPROJECT
  2
AcAmProject
  3
DesignerAssemblies
 90
        0
 91
        1
280
     0
281
     0
  0
CLASS
  1
ACAMGRCOMPDEF
  2
AcAmGrCompDef
  3
DesignerAssemblies
 90
        0
 91
        1
280
     0
281
     0
  0
CLASS
  1
ACCMCONTEXT
  2
AcCmContext
  3
DesignerAssemblies
 90
        0
 91
        1
280
     0
281
     0
  0
CLASS
  1
ACAMCOMPDEF
  2
AcAmCompDef
  3
DesignerAssemblies
 90
        0
 91
        1
280
     0
281
     0
  0
CLASS
  1
ACAMCOMPDEFMGR
  2
AcAmCompDefMgr
  3
DesignerAssemblies
 90
        0
 91
        1
280
     0
281
     0
  0
CLASS
  1
AMCONTEXTMGR
  2
AcAmContextMgr
  3
DesignerAssemblies
 90
        0
 91
        1
280
     0
281
     0
  0
CLASS
  1
ACAMCONTEXTMODELER
  2
AcAmContextModeler
  3
DesignerAssemblies
 90
        0
 91
        1
280
     0
281
     0
  0
CLASS
  1
ACMDATADICTIONARY
  2
AcmDataDictionary
  3
"AcmSymBB|Product Description: AutoCAD Mechanical 2004 DX|Company: Autodesk"
 90
        0
 91
        1
280
     0
281
     0
  0
CLASS
  1
CATALOGSTATE
  2
AcAmCatalogState
  3
DesignerAssemblies
 90
        0
 91
        1
280
     0
281
     0
  0
CLASS
  1
ACAMGRCOMPDEFSET
  2
AcAmGrCompDefSet
  3
DesignerAssemblies
 90
        0
 91
        1
280
     0
281
     0
  0
CLASS
  1
AMDTBROWSERDBTAB
  2
AmdtBrowserDbTab
  3
McadcomServices
 90
        0
 91
        1
280
     0
281
     0
  0
CLASS
  1
CBROWSERAPPOBJECT
  2
CBrowserAppObject
  3
McadcomServices
 90
        0
 91
        3
280
     0
281
     0
  0
CLASS
  1
DM_PLACEHOLDER
  2
AcDmSelsetPlaceholder
  3
AcMechDwgViewMgmt
 90
        0
 91
        1
280
     0
281
     0
  0
CLASS
  1
ACMSTANDARDANSI
  2
AcmStandardANSI
  3
"Amdt_StdImp|Product Description: AutoCAD Mechanical 2004 DX|Company: Autodesk"
 90
        0
 91
        1
280
     0
281
     0
  0
CLASS
  1
AMGOBJPROPCFG
  2
AmgObjPropCfg
  3
"AmgLay|Product Description: AutoCAD Mechanical 2000|Company: Autodesk"
 90
        1
 91
        1
280
     0
281
     0
  0
CLASS
  1
ACMSURFSTANDARDANSI
  2
AcmSurfTextStdANSI
  3
"Amdt_StdImp|Product Description: AutoCAD Mechanical 2004 DX|Company: Autodesk"
 90
        0
 91
        1
280
     0
281
     0
  0
CLASS
  1
ACMFCFSTANDARDANSI
  2
AcmFCFStdANSI
  3
"Amdt_StdImp|Product Description: AutoCAD Mechanical 2004 DX|Company: Autodesk"
 90
        0
 91
        1
280
     0
281
     0
  0
CLASS
  1
ACMWELDSTANDARDANSI
  2
AcmWeldingStdANSI
  3
"Amdt_StdImp|Product Description: AutoCAD Mechanical 2004 DX|Company: Autodesk"
 90
        0
 91
        1
280
     0
281
     0
  0
CLASS
  1
ACMIDSTANDARDANSI
  2
AcmIdStdANSI
  3
"Amdt_StdImp|Product Description: AutoCAD Mechanical 2004 DX|Company: Autodesk"
 90
        0
 91
        1
280
     0
281
     0
  0
CLASS
  1
ACMDATUMSTANDARDANSI
  2
AcmDatumStdANSI
  3
"Amdt_StdImp|Product Description: AutoCAD Mechanical 2004 DX|Company: Autodesk"
 90
        0
 91
        1
280
     0
281
     0
  0
CLASS
  1
ACMBOMSTANDARDANSI
  2
AcmBOMStdANSI
  3
"Amdt_StdImp|Product Description: AutoCAD Mechanical 2004 DX|Company: Autodesk"
 90
        0
 91
        1
280
     0
281
     0
  0
CLASS
  1
ACMDETAILSTANDARDANSI
  2
AmdtDetailSymStdANSI
  3
"Amdt_StdImp|Product Description: AutoCAD Mechanical 2004 DX|Company: Autodesk"
 90
        0
 91
        1
280
     0
281
     0
  0
CLASS
  1
ACMSECTIONSTANDARDANSI
  2
AmdtSectionSymStdANSI
  3
"Amdt_StdImp|Product Description: AutoCAD Mechanical 2004 DX|Company: Autodesk"
 90
        0
 91
        1
280
     0
281
     0
  0
CLASS
  1
ACMCENTERLINESTANDARDANSI
  2
AmdtCenterLineStdANSI
  3
"Amdt_StdImp|Product Description: AutoCAD Mechanical 2004 DX|Company: Autodesk"
 90
        0
 91
        1
280
     0
281
     0
  0
CLASS
  1
ACMTHREADLINESTANDARDANSI
  2
AmdtThreadLineStdANSI
  3
"Amdt_StdImp|Product Description: AutoCAD Mechanical 2004 DX|Company: Autodesk"
 90
        0
 91
        1
280
     0
281
     0
  0
CLASS
  1
ACMNOTESTANDARDANSI
  2
AmdtNoteStdANSI
  3
"Amdt_StdImp|Product Description: AutoCAD Mechanical 2004 DX|Company: Autodesk"
 90
        0
 91
        1
280
     0
281
     0
  0
CLASS
  1
AMDTNOTETEMPLATEDB
  2
AmdtNoteTemplateDB
  3
AMDT_STDIMP_MODULE_NAME
 90
        0
 91
        6
280
     0
281
     0
  0
CLASS
  1
ACAMGLAYSTD
  2
AcAmgLayStd
  3
"AcAmgLayStd|Product Description: AutoCAD Mechanical 2000|Company: Autodesk"
 90
        0
 91
        1
280
     0
281
     0
  0
CLASS
  1
ACAMGDIMSTD
  2
AcAmgDimStd
  3
"AcAmgDimStd|Product Description: AutoCAD Mechanical 2000|Company: Autodesk"
 90
        0
 91
        1
280
     0
281
     0
  0
CLASS
  1
ACAMGHOLECHARTSTDANSI
  2
AcAmgHoleChartStdANSI
  3
ACMSYMBB_MODULE_NAME
 90
        0
 91
        1
280
     0
281
     0
  0
CLASS
  1
ACAMGTITLESTD
  2
AcAmgTitleStd
  3
"TITLEAPP"
 90
        0
 91
        1
280
     0
281
     0
  0
CLASS
  1
ACAMGFILTERDAT
  2
AcAmgFilterDat
  3
"AcadM|Product Description: AutoCAD Mechanical 2000|Company: Autodesk"
 90
        0
 91
        6
280
     0
281
     0
  0
CLASS
  1
DIMASSOC
  2
AcDbDimAssoc
  3
"AcDbDimAssoc|Product Desc:     AcDim ARX App For Dimension|Company:          Autodesk, Inc.|WEB Address:      www.autodesk.com"
 90
        0
 91
        3
280
     0
281
     0
  0
CLASS
  1
DICTIONARYVAR
  2
AcDbDictionaryVar
  3
ObjectDBX Classes
 90
        0
 91
        1
280
     0
281
     0
  0
ENDSEC
  0
SECTION
  2
TABLES
  0
TABLE
  2
VPORT
  5
8
330
0
100
AcDbSymbolTable
 70
    53
  0
VPORT
  5
679
330
8
100
AcDbSymbolTableRecord
100
AcDbViewportTableRecord
  2
*Active
 70
     0
 10
0.0
 20
0.0
 11
1.0
 21
1.0
 12
5.500000025611372
 22
4.250000019790604
 13
0.0
 23
0.0
 14
1.0
 24
1.0
 15
0.0
 25
0.0
 16
0.0
 26
0.0
 36
1.0
 17
0.0
 27
0.0
 37
0.0
 40
8.581993419903763
 41
1.735999999999999
 42
50.0
 43
0.0
 44
0.0
 50
0.0
 51
0.0
 71
     0
 72
   100
 73
     1
 74
     1
 75
     0
 76
     0
 77
     0
 78
     0
281
     0
 65
     0
110
0.0
120
0.0
130
0.0
111
1.0
121
0.0
131
0.0
112
0.0
122
1.0
132
0.0
 79
     0
146
0.0
  0
ENDTAB
  0
TABLE
  2
LTYPE
  5
5
330
0
100
AcDbSymbolTable
 70
    19
  0
LTYPE
  5
14
330
5
100
AcDbSymbolTableRecord
100
AcDbLinetypeTableRecord
  2
BYBLOCK
 70
     0
  3

 72
    65
 73
     0
 40
0.0
  0
LTYPE
  5
15
330
5
100
AcDbSymbolTableRecord
100
AcDbLinetypeTableRecord
  2
BYLAYER
 70
     0
  3

 72
    65
 73
     0
 40
0.0
  0
LTYPE
  5
16
330
5
100
AcDbSymbolTableRecord
100
AcDbLinetypeTableRecord
  2
CONTINUOUS
 70
     0
  3
Solid line
 72
    65
 73
     0
 40
0.0
  0
LTYPE
  5
1F5
330
5
100
AcDbSymbolTableRecord
100
AcDbLinetypeTableRecord
  2
CENTER
 70
     0
  3
____ _ ____ _ ____ _ ____ _ ____ _ ____ _ ____
 72
    65
 73
     4
 40
0.6
 49
0.375
 74
     0
 49
-0.075
 74
     0
 49
0.075
 74
     0
 49
-0.075
 74
     0
  0
LTYPE
  5
1F6
330
5
100
AcDbSymbolTableRecord
100
AcDbLinetypeTableRecord
  2
HIDDEN
 70
     0
  3
- - - - - - - - - - - - - - - - - - - -
 72
    65
 73
     2
 40
0.2
 49
0.1
 74
     0
 49
-0.1
 74
     0
  0
LTYPE
  5
51E
330
5
100
AcDbSymbolTableRecord
100
AcDbLinetypeTableRecord
  2
PHANTOM2
 70
     0
  3
Phantom (.5x) ___ _ _ ___ _ _ ___ _ _ ___ _ _
 72
    65
 73
     6
 40
1.25
 49
0.625
 74
     0
 49
-0.125
 74
     0
 49
0.125
 74
     0
 49
-0.125
 74
     0
 49
0.125
 74
     0
 49
-0.125
 74
     0
  0
LTYPE
  5
555
330
5
100
AcDbSymbolTableRecord
100
AcDbLinetypeTableRecord
  2
Amconstr
 70
     0
  3
_______________________
 72
    65
 73
     2
 40
9999.0
 49
9999.0
 74
     0
 49
0.0
 74
     0
  0
LTYPE
  5
55B
330
5
100
AcDbSymbolTableRecord
100
AcDbLinetypeTableRecord
  2
CENTER2
 70
     0
  3
Center (.5x) ___ _ ___ _ ___ _ ___ _ ___ _ ___
 72
    65
 73
     4
 40
1.125
 49
0.75
 74
     0
 49
-0.125
 74
     0
 49
0.125
 74
     0
 49
-0.125
 74
     0
  0
LTYPE
  5
55C
330
5
100
AcDbSymbolTableRecord
100
AcDbLinetypeTableRecord
  2
HIDDEN2
 70
     0
  3
Hidden (.5x) _ _ _ _ _ _ _ _ _ _ _ _ _ _ _ _ _
 72
    65
 73
     2
 40
0.1875
 49
0.125
 74
     0
 49
-0.0625
 74
     0
  0
LTYPE
  5
55D
330
5
100
AcDbSymbolTableRecord
100
AcDbLinetypeTableRecord
  2
Amzigzag2
 70
     0
  3
/\/-/\/-/\/-/\/-/\/-/\/
 72
    65
 73
     2
 40
0.4401
 49
0.0001
 74
     4
 75
   136
340
559
 46
0.0016
 50
0.0
 44
0.0
 45
0.0
 49
-0.4400000000000001
 74
     0
  0
LTYPE
  5
56B
330
5
100
AcDbSymbolTableRecord
100
AcDbLinetypeTableRecord
  2
ACANSTGB
 70
     0
  3
__ . . __ . .
 72
    65
 73
     6
 40
0.35433070866
 49
0.15748031496
 74
     0
 49
-0.03937007874
 74
     0
 49
0.03937007874
 74
     0
 49
-0.03937007874
 74
     0
 49
0.03937007874
 74
     0
 49
-0.03937007874
 74
     0
  0
LTYPE
  5
56C
330
5
100
AcDbSymbolTableRecord
100
AcDbLinetypeTableRecord
  2
ACANSTGL
 70
     0
  3
_ _ _ _ _
 72
    65
 73
     2
 40
0.11811023622
 49
0.07874015748
 74
     0
 49
-0.03937007874
 74
     0
  0
ENDTAB
  0
TABLE
  2
LAYER
  5
2
330
0
100
AcDbSymbolTable
 70
    18
  0
LAYER
  5
10
330
2
100
AcDbSymbolTableRecord
100
AcDbLayerTableRecord
  2
0
 70
     0
 62
     7
  6
CONTINUOUS
370
    -3
390
F
  0
LAYER
  5
5A1
330
2
100
AcDbSymbolTableRecord
100
AcDbLayerTableRecord
  2
AM_5
 70
     0
 62
     3
  6
CONTINUOUS
370
    15
390
F
1001
AcAecLayerStandard
1000

1000

  0
LAYER
  5
5B3
330
2
100
AcDbSymbolTableRecord
100
AcDbLayerTableRecord
  2
Defpoints
 70
     0
 62
     7
  6
CONTINUOUS
290
     0
370
    -3
390
F
  0
ENDTAB
  0
TABLE
  2
STYLE
  5
3
330
0
100
AcDbSymbolTable
 70
     5
  0
STYLE
  5
11
330
3
100
AcDbSymbolTableRecord
100
AcDbTextStyleTableRecord
  2
STANDARD
 70
     0
 40
0.0
 41
0.8
 50
0.0
 71
     0
 42
0.2
  3
txt
  4

  0
STYLE
  5
559
330
3
100
AcDbSymbolTableRecord
100
AcDbTextStyleTableRecord
  2

 70
     1
 40
0.0
 41
1.0
 50
0.0
 71
     0
 42
0.2
  3
genltshp.shx
  4

  0
STYLE
  5
55E
330
3
100
AcDbSymbolTableRecord
100
AcDbTextStyleTableRecord
  2
ACANSTS
 70
     0
 40
1.0
 41
1.0
 50
0.0
 71
     0
 42
0.2
  3
romans.shx
  4

  0
STYLE
  5
56A
330
3
100
AcDbSymbolTableRecord
100
AcDbTextStyleTableRecord
  2
ACANSGDT
 70
     0
 40
0.0
 41
1.0
 50
0.0
 71
     0
 42
0.2
  3
AMGDT
  4

  0
ENDTAB
  0
TABLE
  2
VIEW
  5
6
330
0
100
AcDbSymbolTable
 70
     3
  0
ENDTAB
  0
TABLE
  2
UCS
  5
7
330
0
100
AcDbSymbolTable
 70
     0
  0
ENDTAB
  0
TABLE
  2
APPID
  5
9
330
0
100
AcDbSymbolTable
 70
    12
  0
APPID
  5
20A
330
9
100
AcDbSymbolTableRecord
100
AcDbRegAppTableRecord
  2
ACAD
 70
     0
  0
APPID
  5
4F1
330
9
100
AcDbSymbolTableRecord
100
AcDbRegAppTableRecord
  2
MCAD_NO_VIS
 70
     0
  0
APPID
  5
4F2
330
9
100
AcDbSymbolTableRecord
100
AcDbRegAppTableRecord
  2
ACAD_TEMP_GRAPHIC
 70
     0
  0
APPID
  5
520
330
9
100
AcDbSymbolTableRecord
100
AcDbRegAppTableRecord
  2
AD_DRAW
 70
     0
  0
APPID
  5
523
330
9
100
AcDbSymbolTableRecord
100
AcDbRegAppTableRecord
  2
ACATTRIBSERVICES
 70
     0
  0
APPID
  5
543
330
9
100
AcDbSymbolTableRecord
100
AcDbRegAppTableRecord
  2
DESIGNERASSEMBLIES
 70
     0
  0
APPID
  5
549
330
9
100
AcDbSymbolTableRecord
100
AcDbRegAppTableRecord
  2
ACADM_DIM_EDIT
 70
     0
  0
APPID
  5
54A
330
9
100
AcDbSymbolTableRecord
100
AcDbRegAppTableRecord
  2
AMDT_DM_ADJ
 70
     0
  0
APPID
  5
578
330
9
100
AcDbSymbolTableRecord
100
AcDbRegAppTableRecord
  2
ACAD_DSTYLE_DIMARC_LENGTH_SYMBOL
 70
     0
  0
APPID
  5
579
330
9
100
AcDbSymbolTableRecord
100
AcDbRegAppTableRecord
  2
ACAD_DSTYLE_DIMJOGGED_JOGANGLE_SYMBOL
 70
     0
  0
APPID
  5
5A2
330
9
100
AcDbSymbolTableRecord
100
AcDbRegAppTableRecord
  2
AcAecLayerStandard
 70
     0
  0
APPID
  5
620
330
9
100
AcDbSymbolTableRecord
100
AcDbRegAppTableRecord
  2
GENIUS_GENDTOL_13
 70
     0
  0
ENDTAB
  0
TABLE
  2
DIMSTYLE
  5
A
330
0
100
AcDbSymbolTable
 70
     8
100
AcDbDimStyleTable
 71
     1
340
20D
  0
DIMSTYLE
105
20D
330
A
100
AcDbSymbolTableRecord
100
AcDbDimStyleTableRecord
  2
STANDARD
 70
     0
 41
0.1875
 47
0.05
 48
0.05
 78
     4
140
0.15625
271
     2
272
     2
284
     4
340
11
  0
DIMSTYLE
105
577
330
A
100
AcDbSymbolTableRecord
100
AcDbDimStyleTableRecord
  2
AM_ANSI
 70
     0
  4
mm
 41
0.1
 42
0.05
 43
0.5
 44
0.1
 47
0.1
 48
0.1
 78
     7
 79
     2
140
0.12
141
0.0
146
0.71
147
0.06
176
   256
177
   256
178
     2
274
     4
284
     7
340
11
371
    -1
372
    -1
1001
ACAD_DSTYLE_DIMARC_LENGTH_SYMBOL
1070
   379
1070
     1
1001
ACAD_DSTYLE_DIMJOGGED_JOGANGLE_SYMBOL
1070
   384
1040
0.7853981633974483
  0
DIMSTYLE
105
580
330
A
100
AcDbSymbolTableRecord
100
AcDbDimStyleTableRecord
  2
AM_ANSI$3
 70
     0
  4
mm
 41
0.1
 42
0.05
 43
0.5
 44
0.1
 47
0.1
 48
0.1
 78
     7
 79
     2
140
0.12
141
0.0
146
0.71
147
0.06
176
   256
177
   256
178
     2
274
     4
284
     7
288
     1
289
     0
340
11
371
    -1
372
    -1
1001
ACAD_DSTYLE_DIMARC_LENGTH_SYMBOL
1070
   379
1070
     1
1001
ACAD_DSTYLE_DIMJOGGED_JOGANGLE_SYMBOL
1070
   384
1040
0.7853981633974483
  0
DIMSTYLE
105
583
330
A
100
AcDbSymbolTableRecord
100
AcDbDimStyleTableRecord
  2
AM_ANSI$4
 70
     0
  4
mm
 41
0.1
 42
0.05
 43
0.5
 44
0.1
 47
0.1
 48
0.1
 78
     7
 79
     2
140
0.12
141
0.0
146
0.71
147
0.06
176
   256
177
   256
178
     2
274
     4
284
     7
288
     1
289
     0
340
11
371
    -1
372
    -1
1001
ACAD_DSTYLE_DIMARC_LENGTH_SYMBOL
1070
   379
1070
     1
1001
ACAD_DSTYLE_DIMJOGGED_JOGANGLE_SYMBOL
1070
   384
1040
0.7853981633974483
  0
DIMSTYLE
105
588
330
A
100
AcDbSymbolTableRecord
100
AcDbDimStyleTableRecord
  2
AM_ANSI$7
 70
     0
  4
mm
 41
0.1
 42
0.05
 43
0.5
 44
0.1
 47
0.1
 48
0.1
 78
     7
 79
     2
140
0.24
141
0.0
146
0.71
147
0.06
176
   256
177
   256
178
     2
274
     4
284
     7
340
11
371
    -1
372
    -1
1001
ACAD_DSTYLE_DIMARC_LENGTH_SYMBOL
1070
   379
1070
     1
1001
ACAD_DSTYLE_DIMJOGGED_JOGANGLE_SYMBOL
1070
   384
1040
0.7853981633974483
  0
DIMSTYLE
105
58B
330
A
100
AcDbSymbolTableRecord
100
AcDbDimStyleTableRecord
  2
AM_ANSI$SF
 70
     0
  4
mm
 41
0.1
 42
0.05
 43
0.5
 44
0.1
 47
0.1
 48
0.1
 75
     1
 76
     1
 78
     7
 79
     2
140
0.12
141
0.0
146
0.71
147
0.06
176
   256
177
   256
178
     2
274
     4
284
     7
340
11
371
    -1
372
    -1
1001
ACAD_DSTYLE_DIMARC_LENGTH_SYMBOL
1070
   379
1070
     1
1001
ACAD_DSTYLE_DIMJOGGED_JOGANGLE_SYMBOL
1070
   384
1040
0.7853981633974483
  0
DIMSTYLE
105
592
330
A
100
AcDbSymbolTableRecord
100
AcDbDimStyleTableRecord
  2
AM_ANSI$SH
 70
     0
  4
mm
 41
0.1
 42
0.05
 43
0.5
 44
0.1
 47
0.1
 48
0.1
 75
     1
 76
     1
 78
     7
 79
     2
140
0.12
141
0.0
146
0.71
147
0.06
173
     1
176
   256
177
   256
178
     2
274
     4
284
     7
340
11
343
58C
371
    -1
372
    -1
1001
ACAD_DSTYLE_DIMARC_LENGTH_SYMBOL
1070
   379
1070
     1
1001
ACAD_DSTYLE_DIMJOGGED_JOGANGLE_SYMBOL
1070
   384
1040
0.7853981633974483
  0
DIMSTYLE
105
5AE
102
{ACAD_REACTORS
330
5B2
330
5F9
330
63B
102
}
330
A
100
AcDbSymbolTableRecord
100
AcDbDimStyleTableRecord
  2
STANDARD$0
 70
     0
 41
0.1875
 47
0.05
 48
0.05
 78
     4
140
0.15625
271
     2
272
     2
284
     4
340
11
  0
ENDTAB
  0
TABLE
  2
BLOCK_RECORD
  5
1
330
0
100
AcDbSymbolTable
 70
     5
  0
BLOCK_RECORD
  5
20B
330
1
100
AcDbSymbolTableRecord
100
AcDbBlockTableRecord
  2
*Model_Space
340
4E1
  0
BLOCK_RECORD
  5
20C
330
1
100
AcDbSymbolTableRecord
100
AcDbBlockTableRecord
  2
*Paper_Space
340
4E2
  0
BLOCK_RECORD
  5
58C
330
1
100
AcDbSymbolTableRecord
100
AcDbBlockTableRecord
  2
GENAXEH
340
0
  0
BLOCK_RECORD
  5
5B4
330
1
100
AcDbSymbolTableRecord
100
AcDbBlockTableRecord
  2
*D2
340
0
  0
BLOCK_RECORD
  5
5FA
330
1
100
AcDbSymbolTableRecord
100
AcDbBlockTableRecord
  2
*D3
340
0
  0
BLOCK_RECORD
  5
63C
330
1
100
AcDbSymbolTableRecord
100
AcDbBlockTableRecord
  2
*D4
340
0
  0
ENDTAB
  0
ENDSEC
  0
SECTION
  2
BLOCKS
  0
BLOCK
  5
20
330
20B
100
AcDbEntity
  8
0
100
AcDbBlockBegin
  2
*Model_Space
 70
     0
 10
0.0
 20
0.0
 30
0.0
  3
*Model_Space
  1

  0
ENDBLK
  5
21
330
20B
100
AcDbEntity
  8
0
100
AcDbBlockEnd
  0
BLOCK
  5
1C
330
20C
100
AcDbEntity
 67
     1
  8
0
100
AcDbBlockBegin
  2
*Paper_Space
 70
     0
 10
0.0
 20
0.0
 30
0.0
  3
*Paper_Space
  1

  0
ENDBLK
  5
1D
330
20C
100
AcDbEntity
 67
     1
  8
0
100
AcDbBlockEnd
  0
BLOCK
  5
58E
330
58C
100
AcDbEntity
  8
0
100
AcDbBlockBegin
  2
GENAXEH
 70
     0
 10
0.0
 20
0.0
 30
0.0
  3
GENAXEH
  1

  0
LINE
  5
58D
330
58C
100
AcDbEntity
  8
0
100
AcDbLine
 10
-1.0
 20
0.0
 30
0.0
 11
1.0
 21
0.0
 31
0.0
  0
ENDBLK
  5
58F
330
58C
100
AcDbEntity
  8
0
100
AcDbBlockEnd
  0
BLOCK
  5
5BF
330
5B4
100
AcDbEntity
  8
0
100
AcDbBlockBegin
  2
*D2
 70
     1
 10
0.0
 20
0.0
 30
0.0
  3
*D2
  1

  0
LINE
  5
5E1
330
5B4
100
AcDbEntity
  8
AM_5
 62
     0
370
    -2
100
AcDbLine
 10
3.1846009743
 20
7.4522022638
 30
0.0
 11
4.138092852684831
 21
7.4522022638
 31
0.0
  0
LINE
  5
5E2
330
5B4
100
AcDbEntity
  8
AM_5
 62
     0
370
    -2
100
AcDbLine
 10
3.1846009743
 20
5.688422736199999
 30
0.0
 11
4.13809285268483
 21
5.688422736199999
 31
0.0
  0
LINE
  5
5E3
330
5B4
100
AcDbEntity
  8
AM_5
 62
     0
370
    -2
100
AcDbLine
 10
3.940092852684831
 20
7.2647022638
 30
0.0
 11
3.940092852684831
 21
6.868645833333332
 31
0.0
  0
LINE
  5
5E4
330
5B4
100
AcDbEntity
  8
AM_5
 62
     0
370
    -2
100
AcDbLine
 10
3.940092852684831
 20
5.875922736199999
 30
0.0
 11
3.940092852684831
 21
6.271979166666667
 31
0.0
  0
SOLID
  5
5E5
330
5B4
100
AcDbEntity
  8
AM_5
 62
     0
100
AcDbTrace
 10
3.908842852684831
 20
7.2647022638
 30
0.0
 11
3.971342852684831
 21
7.2647022638
 31
0.0
 12
3.940092852684831
 22
7.4522022638
 32
0.0
 13
3.940092852684831
 23
7.4522022638
 33
0.0
  0
SOLID
  5
5E6
330
5B4
100
AcDbEntity
  8
AM_5
 62
     0
100
AcDbTrace
 10
3.908842852684831
 20
5.875922736199999
 30
0.0
 11
3.971342852684831
 21
5.875922736199999
 31
0.0
 12
3.940092852684831
 22
5.688422736199999
 32
0.0
 13
3.940092852684831
 23
5.688422736199999
 33
0.0
  0
MTEXT
  5
5E7
330
5B4
100
AcDbEntity
  8
AM_5
 62
     0
100
AcDbMText
 10
3.94009285268483
 20
6.5703125
 30
0.0
 40
0.15625
 41
0.0
 71
     5
 72
     1
  1
\A1;1.76\P [44.80]
 73
     1
 44
1.0
  0
POINT
  5
5E8
330
5B4
100
AcDbEntity
  8
Defpoints
 62
     0
100
AcDbPoint
 10
3.1158509743
 20
7.4522022638
 30
0.0
  0
POINT
  5
5E9
330
5B4
100
AcDbEntity
  8
Defpoints
 62
     0
100
AcDbPoint
 10
3.1158509743
 20
5.688422736199999
 30
0.0
  0
POINT
  5
5EA
330
5B4
100
AcDbEntity
  8
Defpoints
 62
     0
100
AcDbPoint
 10
3.940092852684831
 20
5.688422736199999
 30
0.0
  0
ENDBLK
  5
5C0
330
5B4
100
AcDbEntity
  8
0
100
AcDbBlockEnd
  0
BLOCK
  5
605
330
5FA
100
AcDbEntity
  8
0
100
AcDbBlockBegin
  2
*D3
 70
     1
 10
0.0
 20
0.0
 30
0.0
  3
*D3
  1

  0
LINE
  5
621
330
5FA
100
AcDbEntity
  8
AM_5
 62
     0
370
    -2
100
AcDbLine
 10
0.9111265648000001
 20
7.520952263799999
 30
0.0
 11
0.9111265648000001
 21
8.150203263800001
 31
0.0
  0
LINE
  5
622
330
5FA
100
AcDbEntity
  8
AM_5
 62
     0
370
    -2
100
AcDbLine
 10
3.1158509743
 20
7.520952263799999
 30
0.0
 11
3.1158509743
 21
8.150203263800001
 31
0.0
  0
LINE
  5
623
330
5FA
100
AcDbEntity
  8
AM_5
 62
     0
370
    -2
100
AcDbLine
 10
1.098626564799999
 20
7.952203263800001
 30
0.0
 11
1.350572102883333
 21
7.952203263800001
 31
0.0
  0
LINE
  5
624
330
5FA
100
AcDbEntity
  8
AM_5
 62
     0
370
    -2
100
AcDbLine
 10
2.9283509743
 20
7.952203263800001
 30
0.0
 11
2.676405436216667
 21
7.952203263800001
 31
0.0
  0
SOLID
  5
625
330
5FA
100
AcDbEntity
  8
AM_5
 62
     0
100
AcDbTrace
 10
1.098626564799999
 20
7.983453263800001
 30
0.0
 11
1.098626564799999
 21
7.920953263800001
 31
0.0
 12
0.9111265648000001
 22
7.952203263800001
 32
0.0
 13
0.9111265648000001
 23
7.952203263800001
 33
0.0
  0
SOLID
  5
626
330
5FA
100
AcDbEntity
  8
AM_5
 62
     0
100
AcDbTrace
 10
2.9283509743
 20
7.983453263800001
 30
0.0
 11
2.9283509743
 21
7.920953263800001
 31
0.0
 12
3.1158509743
 22
7.952203263800001
 32
0.0
 13
3.1158509743
 23
7.952203263800001
 33
0.0
  0
MTEXT
  5
627
330
5FA
100
AcDbEntity
  8
AM_5
 62
     0
100
AcDbMText
 10
2.01348876955
 20
7.952203263800001
 30
0.0
 40
0.15625
 41
0.0
 71
     5
 72
     1
  1
\A1;2.20 [56.00]
 73
     1
 44
1.0
  0
POINT
  5
628
330
5FA
100
AcDbEntity
  8
Defpoints
 62
     0
100
AcDbPoint
 10
0.9111265648000001
 20
7.4522022638
 30
0.0
  0
POINT
  5
629
330
5FA
100
AcDbEntity
  8
Defpoints
 62
     0
100
AcDbPoint
 10
3.1158509743
 20
7.4522022638
 30
0.0
  0
POINT
  5
62A
330
5FA
100
AcDbEntity
  8
Defpoints
 62
     0
100
AcDbPoint
 10
3.1158509743
 20
7.952203263800001
 30
0.0
  0
ENDBLK
  5
606
330
5FA
100
AcDbEntity
  8
0
100
AcDbBlockEnd
  0
BLOCK
  5
647
330
63C
100
AcDbEntity
  8
0
100
AcDbBlockBegin
  2
*D4
 70
     1
 10
0.0
 20
0.0
 30
0.0
  3
*D4
  1

  0
LINE
  5
669
330
63C
100
AcDbEntity
  8
AM_5
 62
     0
370
    -2
100
AcDbLine
 10
3.208213953096925
 20
5.0999477116
 30
0.0
 11
4.138092852684834
 21
5.0999477116
 31
0.0
  0
LINE
  5
66A
330
63C
100
AcDbEntity
  8
AM_5
 62
     0
370
    -2
100
AcDbLine
 10
3.1846009743
 20
3.013333538399999
 30
0.0
 11
4.138092852684834
 21
3.013333538399999
 31
0.0
  0
LINE
  5
66B
330
63C
100
AcDbEntity
  8
AM_5
 62
     0
370
    -2
100
AcDbLine
 10
3.940092852684834
 20
4.9124477116
 30
0.0
 11
3.940092852684834
 21
4.354973958333332
 31
0.0
  0
LINE
  5
66C
330
63C
100
AcDbEntity
  8
AM_5
 62
     0
370
    -2
100
AcDbLine
 10
3.940092852684834
 20
3.200833538399999
 30
0.0
 11
3.940092852684834
 21
3.758307291666666
 31
0.0
  0
SOLID
  5
66D
330
63C
100
AcDbEntity
  8
AM_5
 62
     0
100
AcDbTrace
 10
3.908842852684834
 20
4.9124477116
 30
0.0
 11
3.971342852684834
 21
4.9124477116
 31
0.0
 12
3.940092852684834
 22
5.0999477116
 32
0.0
 13
3.940092852684834
 23
5.0999477116
 33
0.0
  0
SOLID
  5
66E
330
63C
100
AcDbEntity
  8
AM_5
 62
     0
100
AcDbTrace
 10
3.908842852684834
 20
3.200833538399999
 30
0.0
 11
3.971342852684834
 21
3.200833538399999
 31
0.0
 12
3.940092852684834
 22
3.013333538399999
 32
0.0
 13
3.940092852684834
 23
3.013333538399999
 33
0.0
  0
MTEXT
  5
66F
330
63C
100
AcDbEntity
  8
AM_5
 62
     0
100
AcDbMText
 10
3.940092852684833
 20
4.056640625
 30
0.0
 40
0.15625
 41
0.0
 71
     5
 72
     1
  1
\A1;2.09\P [53.00]
 73
     1
 44
1.0
  0
POINT
  5
670
330
63C
100
AcDbEntity
  8
Defpoints
 62
     0
100
AcDbPoint
 10
3.139463953096925
 20
5.0999477116
 30
0.0
  0
POINT
  5
671
330
63C
100
AcDbEntity
  8
Defpoints
 62
     0
100
AcDbPoint
 10
3.1158509743
 20
3.013333538399999
 30
0.0
  0
POINT
  5
672
330
63C
100
AcDbEntity
  8
Defpoints
 62
     0
100
AcDbPoint
 10
3.940092852684834
 20
3.013333538399999
 30
0.0
  0
ENDBLK
  5
648
330
63C
100
AcDbEntity
  8
0
100
AcDbBlockEnd
  0
ENDSEC
  0
SECTION
  2
ENTITIES
  0
LINE
  5
20E
330
20B
100
AcDbEntity
  8
0
  6
Continuous
 62
     7
100
AcDbLine
 10
0.0
 20
0.0
 30
0.0
 11
0.0
 21
8.5
 31
0.0
  0
LINE
  5
20F
330
20B
100
AcDbEntity
  8
0
  6
Continuous
 62
     7
100
AcDbLine
 10
0.0
 20
0.0
 30
0.0
 11
11.0
 21
0.0
 31
0.0
  0
LINE
  5
210
330
20B
100
AcDbEntity
  8
0
  6
Continuous
 62
     7
100
AcDbLine
 10
0.0
 20
8.5
 30
0.0
 11
11.0
 21
8.5
 31
0.0
  0
LINE
  5
211
330
20B
100
AcDbEntity
  8
0
  6
Continuous
 62
     7
100
AcDbLine
 10
11.0
 20
0.0
 30
0.0
 11
11.0
 21
8.5
 31
0.0
  0
LINE
  5
212
330
20B
100
AcDbEntity
  8
0
  6
Continuous
 62
     7
100
AcDbLine
 10
0.9111265648000001
 20
3.2219949557
 30
0.0
 11
0.9111265648000001
 21
3.013333538399999
 31
0.0
  0
LINE
  5
213
330
20B
100
AcDbEntity
  8
0
  6
Continuous
 62
     7
100
AcDbLine
 10
0.9504966435
 20
4.068447750999999
 30
0.0
 11
0.9504966435
 21
4.981837475399999
 31
0.0
  0
LINE
  5
214
330
20B
100
AcDbEntity
  8
0
  6
Continuous
 62
     7
100
AcDbLine
 10
2.7107171272
 20
3.1275034683
 30
0.0
 11
2.6737524856
 21
3.117703396
 31
0.0
  0
LINE
  5
215
330
20B
100
AcDbEntity
  8
0
  6
Continuous
 62
     7
100
AcDbLine
 10
0.9111265648000001
 20
3.013333538399999
 30
0.0
 11
1.235929714399999
 21
3.013333538399999
 31
0.0
  0
LINE
  5
216
330
20B
100
AcDbEntity
  8
0
  6
Continuous
 62
     7
100
AcDbLine
 10
2.791047824599999
 20
3.013333538399999
 30
0.0
 11
3.1158509743
 21
3.013333538399999
 31
0.0
  0
LINE
  5
217
330
20B
100
AcDbEntity
  8
0
  6
Continuous
 62
     7
100
AcDbLine
 10
1.2379930128
 20
3.052703617099999
 30
0.0
 11
1.3891886381
 21
3.052703617099999
 31
0.0
  0
LINE
  5
218
330
20B
100
AcDbEntity
  8
0
  6
Continuous
 62
     7
100
AcDbLine
 10
2.708504630699999
 20
3.052703617099999
 30
0.0
 11
2.7889845263
 21
3.052703617099999
 31
0.0
  0
LINE
  5
219
330
20B
100
AcDbEntity
  8
0
  6
Continuous
 62
     7
100
AcDbLine
 10
1.3919116712
 20
3.104662183
 30
0.0
 11
1.2772682971
 21
3.135380782499999
 31
0.0
  0
LINE
  5
21A
330
20B
100
AcDbEntity
  8
0
  6
Continuous
 62
     7
100
AcDbLine
 10
1.296953336899999
 20
3.190502040899999
 30
0.0
 11
1.3953785333
 21
3.170813853299999
 31
0.0
  0
LINE
  5
21B
330
20B
100
AcDbEntity
  8
0
  6
Continuous
 62
     7
100
AcDbLine
 10
1.12774061
 20
3.9779004372
 30
0.0
 11
1.12774061
 21
4.068447750999999
 31
0.0
  0
LINE
  5
21C
330
20B
100
AcDbEntity
  8
0
  6
Continuous
 62
     7
100
AcDbLine
 10
1.1564312122
 20
4.9857744833
 30
0.0
 11
1.1564312122
 21
5.0999477116
 31
0.0
  0
LINE
  5
21D
330
20B
100
AcDbEntity
  8
0
  6
Continuous
 62
     7
100
AcDbLine
 10
1.157189556899999
 20
3.977900467499999
 30
0.0
 11
1.157189556899999
 21
3.2219949557
 31
0.0
  0
LINE
  5
21E
330
20B
100
AcDbEntity
  8
0
  6
Continuous
 62
     7
100
AcDbLine
 10
1.3953785333
 20
3.170813853299999
 30
0.0
 11
2.7107171272
 21
3.1708171518
 31
0.0
  0
LINE
  5
21F
330
20B
100
AcDbEntity
  8
0
  6
Continuous
 62
     7
100
AcDbLine
 10
1.2772682971
 20
3.190502040899999
 30
0.0
 11
1.296953336899999
 21
3.190502040899999
 31
0.0
  0
LINE
  5
220
330
20B
100
AcDbEntity
  8
0
  6
Continuous
 62
     7
100
AcDbLine
 10
3.1158509743
 20
3.2219949557
 30
0.0
 11
2.869787982099999
 21
3.2219949557
 31
0.0
  0
LINE
  5
221
330
20B
100
AcDbEntity
  8
0
  6
Continuous
 62
     7
100
AcDbLine
 10
1.157189556899999
 20
3.2219949557
 30
0.0
 11
0.9111265648000001
 21
3.2219949557
 31
0.0
  0
LINE
  5
222
330
20B
100
AcDbEntity
  8
0
  6
Continuous
 62
     7
100
AcDbLine
 10
1.2772682971
 20
3.135380782499999
 30
0.0
 11
1.2772682971
 21
3.190502040899999
 31
0.0
  0
LINE
  5
223
330
20B
100
AcDbEntity
  8
0
  6
Continuous
 62
     7
100
AcDbLine
 10
1.235929714399999
 20
3.013333538399999
 30
0.0
 11
1.2379930128
 21
3.052703617099999
 31
0.0
  0
LINE
  5
224
330
20B
100
AcDbEntity
  8
0
  6
Continuous
 62
     7
100
AcDbLine
 10
1.3891886381
 20
3.052703617099999
 30
0.0
 11
1.3919116712
 21
3.104662183
 31
0.0
  0
LINE
  5
225
330
20B
100
AcDbEntity
  8
0
  6
Continuous
 62
     7
100
AcDbLine
 10
1.585024887299999
 20
4.981837475399999
 30
0.0
 11
1.585059245099999
 21
4.9857744833
 31
0.0
  0
LINE
  5
226
330
20B
100
AcDbEntity
  8
0
  6
Continuous
 62
     7
100
AcDbLine
 10
1.623724989999999
 20
4.9109713337
 30
0.0
 11
1.619804723
 21
4.9857744833
 31
0.0
  0
LINE
  5
227
330
20B
100
AcDbEntity
  8
0
  6
Continuous
 62
     7
100
AcDbLine
 10
1.6591580609
 20
4.9857744833
 30
0.0
 11
1.6591580609
 21
4.9109713337
 31
0.0
  0
LINE
  5
228
330
20B
100
AcDbEntity
  8
0
  6
Continuous
 62
     7
100
AcDbLine
 10
2.6757171383
 20
3.080215589899999
 30
0.0
 11
2.708504630699999
 21
3.052703617099999
 31
0.0
  0
LINE
  5
229
330
20B
100
AcDbEntity
  8
0
  6
Continuous
 62
     7
100
AcDbLine
 10
1.7403128638
 20
4.9109713337
 30
0.0
 11
1.7403128638
 21
4.9857744833
 31
0.0
  0
LINE
  5
22A
330
20B
100
AcDbEntity
  8
0
  6
Continuous
 62
     7
100
AcDbLine
 10
2.8993155412
 20
3.977900467499999
 30
0.0
 11
2.869787982099999
 21
3.977900466999999
 31
0.0
  0
LINE
  5
22B
330
20B
100
AcDbEntity
  8
0
  6
Continuous
 62
     7
100
AcDbLine
 10
1.157189556899999
 20
3.977900437699999
 30
0.0
 11
1.12774061
 21
3.9779004372
 31
0.0
  0
LINE
  5
22C
330
20B
100
AcDbEntity
  8
0
  6
Continuous
 62
     7
100
AcDbLine
 10
3.0764808955
 20
4.068447750999999
 30
0.0
 11
2.8993155412
 21
4.068447750999999
 31
0.0
  0
LINE
  5
22D
330
20B
100
AcDbEntity
  8
0
  6
Continuous
 62
     7
100
AcDbLine
 10
1.12774061
 20
4.068447750999999
 30
0.0
 11
0.9504966435
 21
4.068447750999999
 31
0.0
  0
LINE
  5
22E
330
20B
100
AcDbEntity
  8
0
  6
Continuous
 62
     7
100
AcDbLine
 10
2.4072121221
 20
4.9857744833
 30
0.0
 11
2.403291855099999
 21
4.9109713337
 31
0.0
  0
LINE
  5
22F
330
20B
100
AcDbEntity
  8
0
  6
Continuous
 62
     7
100
AcDbLine
 10
2.441918294
 20
4.9857744833
 30
0.0
 11
2.441952651699999
 21
4.981837475399999
 31
0.0
  0
LINE
  5
230
330
20B
100
AcDbEntity
  8
0
  6
Continuous
 62
     7
100
AcDbLine
 10
2.6737524856
 20
3.117703396
 30
0.0
 11
2.6757171383
 21
3.080215589899999
 31
0.0
  0
LINE
  5
231
330
20B
100
AcDbEntity
  8
0
  6
Continuous
 62
     7
100
AcDbLine
 10
2.7107171272
 20
3.1708171518
 30
0.0
 11
2.7107171272
 21
3.1275034683
 31
0.0
  0
LINE
  5
232
330
20B
100
AcDbEntity
  8
0
  6
Continuous
 62
     7
100
AcDbLine
 10
2.7889845263
 20
3.052703617099999
 30
0.0
 11
2.791047824599999
 21
3.013333538399999
 31
0.0
  0
LINE
  5
233
330
20B
100
AcDbEntity
  8
0
  6
Continuous
 62
     7
100
AcDbLine
 10
2.869787982099999
 20
3.2219949557
 30
0.0
 11
2.869787982099999
 21
3.977900467299999
 31
0.0
  0
LINE
  5
234
330
20B
100
AcDbEntity
  8
0
  6
Continuous
 62
     7
100
AcDbLine
 10
2.870546326899999
 20
5.0999477116
 30
0.0
 11
2.870546326899999
 21
4.9857744833
 31
0.0
  0
LINE
  5
235
330
20B
100
AcDbEntity
  8
0
  6
Continuous
 62
     7
100
AcDbLine
 10
2.8993155412
 20
4.068447750999999
 30
0.0
 11
2.8993155412
 21
3.977900467499999
 31
0.0
  0
LINE
  5
236
330
20B
100
AcDbEntity
  8
0
  6
Continuous
 62
     7
100
AcDbLine
 10
1.623724989999999
 20
4.9109713337
 30
0.0
 11
2.403291855099999
 21
4.9109713337
 31
0.0
  0
LINE
  5
237
330
20B
100
AcDbEntity
  8
0
  6
Continuous
 62
     7
100
AcDbLine
 10
0.9504966435
 20
4.981837475399999
 30
0.0
 11
1.585024887299999
 21
4.981837475399999
 31
0.0
  0
LINE
  5
238
330
20B
100
AcDbEntity
  8
0
  6
Continuous
 62
     7
100
AcDbLine
 10
2.441952651699999
 20
4.981837475399999
 30
0.0
 11
3.0764808955
 21
4.981837475399999
 31
0.0
  0
LINE
  5
239
330
20B
100
AcDbEntity
  8
0
  6
Continuous
 62
     7
100
AcDbLine
 10
2.870546326899999
 20
4.9857744833
 30
0.0
 11
2.441918294
 21
4.9857744833
 31
0.0
  0
LINE
  5
23A
330
20B
100
AcDbEntity
  8
0
  6
Continuous
 62
     7
100
AcDbLine
 10
2.4072121221
 20
4.9857744833
 30
0.0
 11
1.619804723
 21
4.9857744833
 31
0.0
  0
LINE
  5
23B
330
20B
100
AcDbEntity
  8
0
  6
Continuous
 62
     7
100
AcDbLine
 10
1.585059245099999
 20
4.9857744833
 30
0.0
 11
1.1564312122
 21
4.9857744833
 31
0.0
  0
LINE
  5
23C
330
20B
100
AcDbEntity
  8
0
  6
Continuous
 62
     7
100
AcDbLine
 10
3.0764808955
 20
4.981837475399999
 30
0.0
 11
3.0764808955
 21
4.068447750999999
 31
0.0
  0
LINE
  5
23D
102
{ACAD_REACTORS
330
64A
102
}
330
20B
100
AcDbEntity
  8
0
  6
Continuous
 62
     7
100
AcDbLine
 10
3.1158509743
 20
3.013333538399999
 30
0.0
 11
3.1158509743
 21
3.2219949557
 31
0.0
  0
LINE
  5
23E
330
20B
100
AcDbEntity
  8
0
  6
Continuous
 62
     7
100
AcDbLine
 10
1.1564312122
 20
5.0999477116
 30
0.0
 11
2.870546326899999
 21
5.0999477116
 31
0.0
  0
LINE
  5
23F
330
20B
100
AcDbEntity
  8
0
  6
Continuous
 62
     7
100
AcDbLine
 10
0.9111265648000001
 20
7.4522022638
 30
0.0
 11
0.9111265648000001
 21
5.688422736199999
 31
0.0
  0
LINE
  5
240
330
20B
100
AcDbEntity
  8
0
  6
Continuous
 62
     7
100
AcDbLine
 10
0.9504966435
 20
7.4522022638
 30
0.0
 11
0.9504966435
 21
7.410795565299999
 31
0.0
  0
LINE
  5
241
330
20B
100
AcDbEntity
  8
0
  6
Continuous
 62
     7
100
AcDbLine
 10
0.9504966435
 20
7.404958169299999
 30
0.0
 11
0.9504966435
 21
7.299870626199999
 31
0.0
  0
LINE
  5
242
330
20B
100
AcDbEntity
  8
0
  6
Continuous
 62
     7
100
AcDbLine
 10
0.9504966435
 20
7.0999422328
 30
0.0
 11
0.9504966435
 21
7.068275880199999
 31
0.0
  0
LINE
  5
243
330
20B
100
AcDbEntity
  8
0
  6
Continuous
 62
     7
100
AcDbLine
 10
0.9504966435
 20
6.7574225478
 30
0.0
 11
0.9504966435
 21
6.725756195199999
 31
0.0
  0
LINE
  5
244
330
20B
100
AcDbEntity
  8
0
  6
Continuous
 62
     7
100
AcDbLine
 10
0.9504966435
 20
6.414902862699999
 30
0.0
 11
0.9504966435
 21
6.383236510099999
 31
0.0
  0
LINE
  5
245
330
20B
100
AcDbEntity
  8
0
  6
Continuous
 62
     7
100
AcDbLine
 10
0.9504966435
 20
6.072383177699999
 30
0.0
 11
0.9504966435
 21
6.040716825099999
 31
0.0
  0
LINE
  5
246
330
20B
100
AcDbEntity
  8
0
  6
Continuous
 62
     7
100
AcDbLine
 10
0.9504966435
 20
5.8407543738
 30
0.0
 11
0.9504966435
 21
5.7356668307
 31
0.0
  0
LINE
  5
247
330
20B
100
AcDbEntity
  8
0
  6
Continuous
 62
     7
100
AcDbLine
 10
0.9504966435
 20
5.729863492699999
 30
0.0
 11
0.9504966435
 21
5.688422736199999
 31
0.0
  0
LINE
  5
248
330
20B
100
AcDbEntity
  8
0
  6
Continuous
 62
     7
100
AcDbLine
 10
1.056795856099999
 20
5.7356668307
 30
0.0
 11
1.056795856099999
 21
5.797149489099999
 31
0.0
  0
LINE
  5
249
330
20B
100
AcDbEntity
  8
0
  6
Continuous
 62
     7
100
AcDbLine
 10
1.056795856099999
 20
7.3434755109
 30
0.0
 11
1.056795856099999
 21
7.404958169299999
 31
0.0
  0
LINE
  5
24A
330
20B
100
AcDbEntity
  8
0
  6
Continuous
 62
     7
100
AcDbLine
 10
1.12774061
 20
7.410795565299999
 30
0.0
 11
1.12774061
 21
7.0999422328
 31
0.0
  0
LINE
  5
24B
330
20B
100
AcDbEntity
  8
0
  6
Continuous
 62
     7
100
AcDbLine
 10
1.12774061
 20
7.068275880199999
 30
0.0
 11
1.12774061
 21
6.7574225478
 31
0.0
  0
LINE
  5
24C
330
20B
100
AcDbEntity
  8
0
  6
Continuous
 62
     7
100
AcDbLine
 10
1.12774061
 20
6.725756195199999
 30
0.0
 11
1.12774061
 21
6.414902862699999
 31
0.0
  0
LINE
  5
24D
330
20B
100
AcDbEntity
  8
0
  6
Continuous
 62
     7
100
AcDbLine
 10
1.12774061
 20
6.383236510099999
 30
0.0
 11
1.12774061
 21
6.072383177699999
 31
0.0
  0
LINE
  5
24E
330
20B
100
AcDbEntity
  8
0
  6
Continuous
 62
     7
100
AcDbLine
 10
1.12774061
 20
6.040716825099999
 30
0.0
 11
1.12774061
 21
5.729863492699999
 31
0.0
  0
LINE
  5
24F
330
20B
100
AcDbEntity
  8
0
  6
Continuous
 62
     7
100
AcDbLine
 10
1.1564312122
 20
7.4522022638
 30
0.0
 11
1.1564312122
 21
5.688422736199999
 31
0.0
  0
LINE
  5
250
330
20B
100
AcDbEntity
  8
0
  6
Continuous
 62
     7
100
AcDbLine
 10
0.9111265648000001
 20
5.688422736199999
 30
0.0
 11
3.1158509743
 21
5.688422736199999
 31
0.0
  0
LINE
  5
251
330
20B
100
AcDbEntity
  8
0
  6
Continuous
 62
     7
100
AcDbLine
 10
0.9504966435
 20
5.729863492699999
 30
0.0
 11
1.12774061
 21
5.729863492699999
 31
0.0
  0
LINE
  5
252
330
20B
100
AcDbEntity
  8
0
  6
Continuous
 62
     7
100
AcDbLine
 10
2.8993155412
 20
5.729863492699999
 30
0.0
 11
3.0764808955
 21
5.729863492699999
 31
0.0
  0
LINE
  5
253
330
20B
100
AcDbEntity
  8
0
  6
Continuous
 62
     7
100
AcDbLine
 10
0.9504966435
 20
5.7356668307
 30
0.0
 11
1.056795856099999
 21
5.7356668307
 31
0.0
  0
LINE
  5
254
330
20B
100
AcDbEntity
  8
0
  6
Continuous
 62
     7
100
AcDbLine
 10
2.9701816829
 20
5.7356668307
 30
0.0
 11
3.0764808955
 21
5.7356668307
 31
0.0
  0
LINE
  5
255
330
20B
100
AcDbEntity
  8
0
  6
Continuous
 62
     7
100
AcDbLine
 10
1.340652227499999
 20
5.7574225478
 30
0.0
 11
1.473846580999999
 21
5.7574225478
 31
0.0
  0
LINE
  5
256
330
20B
100
AcDbEntity
  8
0
  6
Continuous
 62
     7
100
AcDbLine
 10
2.5532506527
 20
5.7574225478
 30
0.0
 11
2.6864450062
 21
5.7574225478
 31
0.0
  0
LINE
  5
257
330
20B
100
AcDbEntity
  8
0
  6
Continuous
 62
     7
100
AcDbLine
 10
1.407189556899999
 20
5.8045644685
 30
0.0
 11
1.4386856199
 21
5.8045644685
 31
0.0
  0
LINE
  5
258
330
20B
100
AcDbEntity
  8
0
  6
Continuous
 62
     7
100
AcDbLine
 10
2.5882919191
 20
5.8045644685
 30
0.0
 11
2.6197879821
 21
5.8045644685
 31
0.0
  0
LINE
  5
259
330
20B
100
AcDbEntity
  8
0
  6
Continuous
 62
     7
100
AcDbLine
 10
1.308970514899999
 20
5.8695250984
 30
0.0
 11
1.407189556899999
 21
5.8695250984
 31
0.0
  0
LINE
  5
25A
330
20B
100
AcDbEntity
  8
0
  6
Continuous
 62
     7
100
AcDbLine
 10
1.4386856199
 20
5.8695250984
 30
0.0
 11
1.536904661899999
 21
5.8695250984
 31
0.0
  0
LINE
  5
25B
330
20B
100
AcDbEntity
  8
0
  6
Continuous
 62
     7
100
AcDbLine
 10
2.4900728771
 20
5.8695250984
 30
0.0
 11
2.5882919191
 21
5.8695250984
 31
0.0
  0
LINE
  5
25C
330
20B
100
AcDbEntity
  8
0
  6
Continuous
 62
     7
100
AcDbLine
 10
2.6197879821
 20
5.8695250984
 30
0.0
 11
2.7180070241
 21
5.8695250984
 31
0.0
  0
LINE
  5
25D
330
20B
100
AcDbEntity
  8
0
  6
Continuous
 62
     7
100
AcDbLine
 10
2.7180070241
 20
5.9010211614
 30
0.0
 11
2.6197879821
 21
5.9010211614
 31
0.0
  0
LINE
  5
25E
330
20B
100
AcDbEntity
  8
0
  6
Continuous
 62
     7
100
AcDbLine
 10
2.5882919191
 20
5.9010211614
 30
0.0
 11
2.4900728771
 21
5.9010211614
 31
0.0
  0
LINE
  5
25F
330
20B
100
AcDbEntity
  8
0
  6
Continuous
 62
     7
100
AcDbLine
 10
1.536904661899999
 20
5.9010211614
 30
0.0
 11
1.4386856199
 21
5.9010211614
 31
0.0
  0
LINE
  5
260
330
20B
100
AcDbEntity
  8
0
  6
Continuous
 62
     7
100
AcDbLine
 10
1.407189556899999
 20
5.9010211614
 30
0.0
 11
1.308970514899999
 21
5.9010211614
 31
0.0
  0
LINE
  5
261
330
20B
100
AcDbEntity
  8
0
  6
Continuous
 62
     7
100
AcDbLine
 10
1.407189556899999
 20
7.336060531499999
 30
0.0
 11
1.407189556899999
 21
7.271099901599999
 31
0.0
  0
LINE
  5
262
330
20B
100
AcDbEntity
  8
0
  6
Continuous
 62
     7
100
AcDbLine
 10
1.407189556899999
 20
7.239603838599999
 30
0.0
 11
1.407189556899999
 21
7.1746432087
 31
0.0
  0
LINE
  5
263
330
20B
100
AcDbEntity
  8
0
  6
Continuous
 62
     7
100
AcDbLine
 10
1.407189556899999
 20
6.9935408465
 30
0.0
 11
1.407189556899999
 21
6.928580216499999
 31
0.0
  0
LINE
  5
264
330
20B
100
AcDbEntity
  8
0
  6
Continuous
 62
     7
100
AcDbLine
 10
1.407189556899999
 20
6.897084153499999
 30
0.0
 11
1.407189556899999
 21
6.832123523599999
 31
0.0
  0
LINE
  5
265
330
20B
100
AcDbEntity
  8
0
  6
Continuous
 62
     7
100
AcDbLine
 10
1.407189556899999
 20
6.6510211614
 30
0.0
 11
1.407189556899999
 21
6.586060531499999
 31
0.0
  0
LINE
  5
266
330
20B
100
AcDbEntity
  8
0
  6
Continuous
 62
     7
100
AcDbLine
 10
1.407189556899999
 20
6.5545644685
 30
0.0
 11
1.407189556899999
 21
6.489603838599999
 31
0.0
  0
LINE
  5
267
330
20B
100
AcDbEntity
  8
0
  6
Continuous
 62
     7
100
AcDbLine
 10
1.407189556899999
 20
6.3085014764
 30
0.0
 11
1.407189556899999
 21
6.2435408465
 31
0.0
  0
LINE
  5
268
330
20B
100
AcDbEntity
  8
0
  6
Continuous
 62
     7
100
AcDbLine
 10
1.407189556899999
 20
6.2120447835
 30
0.0
 11
1.407189556899999
 21
6.147084153499999
 31
0.0
  0
LINE
  5
269
330
20B
100
AcDbEntity
  8
0
  6
Continuous
 62
     7
100
AcDbLine
 10
1.407189556899999
 20
5.965981791299999
 30
0.0
 11
1.407189556899999
 21
5.9010211614
 31
0.0
  0
LINE
  5
26A
330
20B
100
AcDbEntity
  8
0
  6
Continuous
 62
     7
100
AcDbLine
 10
1.407189556899999
 20
5.8695250984
 30
0.0
 11
1.407189556899999
 21
5.8045644685
 31
0.0
  0
LINE
  5
26B
330
20B
100
AcDbEntity
  8
0
  6
Continuous
 62
     7
100
AcDbLine
 10
1.4386856199
 20
5.8045644685
 30
0.0
 11
1.4386856199
 21
5.8695250984
 31
0.0
  0
LINE
  5
26C
330
20B
100
AcDbEntity
  8
0
  6
Continuous
 62
     7
100
AcDbLine
 10
1.4386856199
 20
5.9010211614
 30
0.0
 11
1.4386856199
 21
5.965981791299999
 31
0.0
  0
LINE
  5
26D
330
20B
100
AcDbEntity
  8
0
  6
Continuous
 62
     7
100
AcDbLine
 10
1.4386856199
 20
6.147084153499999
 30
0.0
 11
1.4386856199
 21
6.2120447835
 31
0.0
  0
LINE
  5
26E
330
20B
100
AcDbEntity
  8
0
  6
Continuous
 62
     7
100
AcDbLine
 10
1.4386856199
 20
6.2435408465
 30
0.0
 11
1.4386856199
 21
6.3085014764
 31
0.0
  0
LINE
  5
26F
330
20B
100
AcDbEntity
  8
0
  6
Continuous
 62
     7
100
AcDbLine
 10
1.4386856199
 20
6.489603838599999
 30
0.0
 11
1.4386856199
 21
6.5545644685
 31
0.0
  0
LINE
  5
270
330
20B
100
AcDbEntity
  8
0
  6
Continuous
 62
     7
100
AcDbLine
 10
1.4386856199
 20
6.586060531499999
 30
0.0
 11
1.4386856199
 21
6.6510211614
 31
0.0
  0
LINE
  5
271
330
20B
100
AcDbEntity
  8
0
  6
Continuous
 62
     7
100
AcDbLine
 10
1.4386856199
 20
6.832123523599999
 30
0.0
 11
1.4386856199
 21
6.897084153499999
 31
0.0
  0
LINE
  5
272
330
20B
100
AcDbEntity
  8
0
  6
Continuous
 62
     7
100
AcDbLine
 10
1.4386856199
 20
6.928580216499999
 30
0.0
 11
1.4386856199
 21
6.9935408465
 31
0.0
  0
LINE
  5
273
330
20B
100
AcDbEntity
  8
0
  6
Continuous
 62
     7
100
AcDbLine
 10
1.4386856199
 20
7.1746432087
 30
0.0
 11
1.4386856199
 21
7.239603838599999
 31
0.0
  0
LINE
  5
274
330
20B
100
AcDbEntity
  8
0
  6
Continuous
 62
     7
100
AcDbLine
 10
1.4386856199
 20
7.271099901599999
 30
0.0
 11
1.4386856199
 21
7.336060531499999
 31
0.0
  0
LINE
  5
275
330
20B
100
AcDbEntity
  8
0
  6
Continuous
 62
     7
100
AcDbLine
 10
2.6197879821
 20
5.965981791299999
 30
0.0
 11
2.5882919191
 21
5.965981791299999
 31
0.0
  0
LINE
  5
276
330
20B
100
AcDbEntity
  8
0
  6
Continuous
 62
     7
100
AcDbLine
 10
1.4386856199
 20
5.965981791299999
 30
0.0
 11
1.407189556899999
 21
5.965981791299999
 31
0.0
  0
LINE
  5
277
330
20B
100
AcDbEntity
  8
0
  6
Continuous
 62
     7
100
AcDbLine
 10
2.686270747
 20
6.01315777
 30
0.0
 11
2.553184869299999
 21
6.01315777
 31
0.0
  0
LINE
  5
278
330
20B
100
AcDbEntity
  8
0
  6
Continuous
 62
     7
100
AcDbLine
 10
1.4736723219
 20
6.01315777
 30
0.0
 11
1.340586444099999
 21
6.01315777
 31
0.0
  0
LINE
  5
279
330
20B
100
AcDbEntity
  8
0
  6
Continuous
 62
     7
100
AcDbLine
 10
1.5016777459
 20
5.7765198058
 30
0.0
 11
1.5016777459
 21
5.7920963473
 31
0.0
  0
LINE
  5
27A
330
20B
100
AcDbEntity
  8
0
  6
Continuous
 62
     7
100
AcDbLine
 10
1.5016777459
 20
5.9784486044
 30
0.0
 11
1.5016777459
 21
5.9947243187
 31
0.0
  0
LINE
  5
27B
330
20B
100
AcDbEntity
  8
0
  6
Continuous
 62
     7
100
AcDbLine
 10
1.5016777459
 20
6.106514289999999
 30
0.0
 11
1.5016777459
 21
6.1346160324
 31
0.0
  0
LINE
  5
27C
330
20B
100
AcDbEntity
  8
0
  6
Continuous
 62
     7
100
AcDbLine
 10
1.5016777459
 20
6.3209682894
 30
0.0
 11
1.5016777459
 21
6.349067578099999
 31
0.0
  0
LINE
  5
27D
330
20B
100
AcDbEntity
  8
0
  6
Continuous
 62
     7
100
AcDbLine
 10
1.5016777459
 20
6.449033974999999
 30
0.0
 11
1.5016777459
 21
6.4771357174
 31
0.0
  0
LINE
  5
27E
330
20B
100
AcDbEntity
  8
0
  6
Continuous
 62
     7
100
AcDbLine
 10
1.5016777459
 20
6.6634879745
 30
0.0
 11
1.5016777459
 21
6.6915872632
 31
0.0
  0
LINE
  5
27F
330
20B
100
AcDbEntity
  8
0
  6
Continuous
 62
     7
100
AcDbLine
 10
1.5016777459
 20
6.791553660099999
 30
0.0
 11
1.5016777459
 21
6.8196554024
 31
0.0
  0
LINE
  5
280
330
20B
100
AcDbEntity
  8
0
  6
Continuous
 62
     7
100
AcDbLine
 10
1.5016777459
 20
7.0060076595
 30
0.0
 11
1.5016777459
 21
7.0341069482
 31
0.0
  0
LINE
  5
281
330
20B
100
AcDbEntity
  8
0
  6
Continuous
 62
     7
100
AcDbLine
 10
1.5016777459
 20
7.1340748723
 30
0.0
 11
1.5016777459
 21
7.162175087499999
 31
0.0
  0
LINE
  5
282
330
20B
100
AcDbEntity
  8
0
  6
Continuous
 62
     7
100
AcDbLine
 10
1.5016777459
 20
7.3485273445
 30
0.0
 11
1.5016777459
 21
7.3766266333
 31
0.0
  0
LINE
  5
283
330
20B
100
AcDbEntity
  8
0
  6
Continuous
 62
     7
100
AcDbLine
 10
3.0764808955
 20
6.040716825099999
 30
0.0
 11
2.8993155412
 21
6.040716825099999
 31
0.0
  0
LINE
  5
284
330
20B
100
AcDbEntity
  8
0
  6
Continuous
 62
     7
100
AcDbLine
 10
1.12774061
 20
6.040716825099999
 30
0.0
 11
0.9504966435
 21
6.040716825099999
 31
0.0
  0
LINE
  5
285
330
20B
100
AcDbEntity
  8
0
  6
Continuous
 62
     7
100
AcDbLine
 10
0.9504966435
 20
6.072383177699999
 30
0.0
 11
1.12774061
 21
6.072383177699999
 31
0.0
  0
LINE
  5
286
330
20B
100
AcDbEntity
  8
0
  6
Continuous
 62
     7
100
AcDbLine
 10
2.8993155412
 20
6.072383177699999
 30
0.0
 11
3.0764808955
 21
6.072383177699999
 31
0.0
  0
LINE
  5
287
330
20B
100
AcDbEntity
  8
0
  6
Continuous
 62
     7
100
AcDbLine
 10
1.3563323269
 20
6.0999422328
 30
0.0
 11
1.489593307099999
 21
6.0999422328
 31
0.0
  0
LINE
  5
288
330
20B
100
AcDbEntity
  8
0
  6
Continuous
 62
     7
100
AcDbLine
 10
2.537434689099999
 20
6.0999422328
 30
0.0
 11
2.6706956693
 21
6.0999422328
 31
0.0
  0
LINE
  5
289
330
20B
100
AcDbEntity
  8
0
  6
Continuous
 62
     7
100
AcDbLine
 10
1.407189556899999
 20
6.147084153499999
 30
0.0
 11
1.4386856199
 21
6.147084153499999
 31
0.0
  0
LINE
  5
28A
330
20B
100
AcDbEntity
  8
0
  6
Continuous
 62
     7
100
AcDbLine
 10
2.5882919191
 20
6.147084153499999
 30
0.0
 11
2.6197879821
 21
6.147084153499999
 31
0.0
  0
LINE
  5
28B
330
20B
100
AcDbEntity
  8
0
  6
Continuous
 62
     7
100
AcDbLine
 10
1.308970514899999
 20
6.2120447835
 30
0.0
 11
1.407189556899999
 21
6.2120447835
 31
0.0
  0
LINE
  5
28C
330
20B
100
AcDbEntity
  8
0
  6
Continuous
 62
     7
100
AcDbLine
 10
1.4386856199
 20
6.2120447835
 30
0.0
 11
1.536904661899999
 21
6.2120447835
 31
0.0
  0
LINE
  5
28D
330
20B
100
AcDbEntity
  8
0
  6
Continuous
 62
     7
100
AcDbLine
 10
2.4900728771
 20
6.2120447835
 30
0.0
 11
2.5882919191
 21
6.2120447835
 31
0.0
  0
LINE
  5
28E
330
20B
100
AcDbEntity
  8
0
  6
Continuous
 62
     7
100
AcDbLine
 10
2.6197879821
 20
6.2120447835
 30
0.0
 11
2.7180070241
 21
6.2120447835
 31
0.0
  0
LINE
  5
28F
330
20B
100
AcDbEntity
  8
0
  6
Continuous
 62
     7
100
AcDbLine
 10
2.7180070241
 20
6.2435408465
 30
0.0
 11
2.6197879821
 21
6.2435408465
 31
0.0
  0
LINE
  5
290
330
20B
100
AcDbEntity
  8
0
  6
Continuous
 62
     7
100
AcDbLine
 10
2.5882919191
 20
6.2435408465
 30
0.0
 11
2.4900728771
 21
6.2435408465
 31
0.0
  0
LINE
  5
291
330
20B
100
AcDbEntity
  8
0
  6
Continuous
 62
     7
100
AcDbLine
 10
1.536904661899999
 20
6.2435408465
 30
0.0
 11
1.4386856199
 21
6.2435408465
 31
0.0
  0
LINE
  5
292
330
20B
100
AcDbEntity
  8
0
  6
Continuous
 62
     7
100
AcDbLine
 10
1.407189556899999
 20
6.2435408465
 30
0.0
 11
1.308970514899999
 21
6.2435408465
 31
0.0
  0
LINE
  5
293
330
20B
100
AcDbEntity
  8
0
  6
Continuous
 62
     7
100
AcDbLine
 10
2.6197879821
 20
6.3085014764
 30
0.0
 11
2.5882919191
 21
6.3085014764
 31
0.0
  0
LINE
  5
294
330
20B
100
AcDbEntity
  8
0
  6
Continuous
 62
     7
100
AcDbLine
 10
1.4386856199
 20
6.3085014764
 30
0.0
 11
1.407189556899999
 21
6.3085014764
 31
0.0
  0
LINE
  5
295
330
20B
100
AcDbEntity
  8
0
  6
Continuous
 62
     7
100
AcDbLine
 10
2.670591026299999
 20
6.355677455
 30
0.0
 11
2.537438010099999
 21
6.355677455
 31
0.0
  0
LINE
  5
296
330
20B
100
AcDbEntity
  8
0
  6
Continuous
 62
     7
100
AcDbLine
 10
1.4894886641
 20
6.355677455
 30
0.0
 11
1.356335647899999
 21
6.355677455
 31
0.0
  0
LINE
  5
297
330
20B
100
AcDbEntity
  8
0
  6
Continuous
 62
     7
100
AcDbLine
 10
3.0764808955
 20
6.383236510099999
 30
0.0
 11
2.8993155412
 21
6.383236510099999
 31
0.0
  0
LINE
  5
298
330
20B
100
AcDbEntity
  8
0
  6
Continuous
 62
     7
100
AcDbLine
 10
1.12774061
 20
6.383236510099999
 30
0.0
 11
0.9504966435
 21
6.383236510099999
 31
0.0
  0
LINE
  5
299
330
20B
100
AcDbEntity
  8
0
  6
Continuous
 62
     7
100
AcDbLine
 10
0.9504966435
 20
6.414902862699999
 30
0.0
 11
1.12774061
 21
6.414902862699999
 31
0.0
  0
LINE
  5
29A
330
20B
100
AcDbEntity
  8
0
  6
Continuous
 62
     7
100
AcDbLine
 10
2.8993155412
 20
6.414902862699999
 30
0.0
 11
3.0764808955
 21
6.414902862699999
 31
0.0
  0
LINE
  5
29B
330
20B
100
AcDbEntity
  8
0
  6
Continuous
 62
     7
100
AcDbLine
 10
1.3563323269
 20
6.442461917899999
 30
0.0
 11
1.489593307099999
 21
6.442461917899999
 31
0.0
  0
LINE
  5
29C
330
20B
100
AcDbEntity
  8
0
  6
Continuous
 62
     7
100
AcDbLine
 10
2.537434689099999
 20
6.442461917899999
 30
0.0
 11
2.6706956693
 21
6.442461917899999
 31
0.0
  0
LINE
  5
29D
330
20B
100
AcDbEntity
  8
0
  6
Continuous
 62
     7
100
AcDbLine
 10
1.407189556899999
 20
6.489603838599999
 30
0.0
 11
1.4386856199
 21
6.489603838599999
 31
0.0
  0
LINE
  5
29E
330
20B
100
AcDbEntity
  8
0
  6
Continuous
 62
     7
100
AcDbLine
 10
2.5882919191
 20
6.489603838599999
 30
0.0
 11
2.6197879821
 21
6.489603838599999
 31
0.0
  0
LINE
  5
29F
330
20B
100
AcDbEntity
  8
0
  6
Continuous
 62
     7
100
AcDbLine
 10
1.308970514899999
 20
6.5545644685
 30
0.0
 11
1.407189556899999
 21
6.5545644685
 31
0.0
  0
LINE
  5
2A0
330
20B
100
AcDbEntity
  8
0
  6
Continuous
 62
     7
100
AcDbLine
 10
1.4386856199
 20
6.5545644685
 30
0.0
 11
1.536904661899999
 21
6.5545644685
 31
0.0
  0
LINE
  5
2A1
330
20B
100
AcDbEntity
  8
0
  6
Continuous
 62
     7
100
AcDbLine
 10
2.4900728771
 20
6.5545644685
 30
0.0
 11
2.5882919191
 21
6.5545644685
 31
0.0
  0
LINE
  5
2A2
330
20B
100
AcDbEntity
  8
0
  6
Continuous
 62
     7
100
AcDbLine
 10
2.6197879821
 20
6.5545644685
 30
0.0
 11
2.7180070241
 21
6.5545644685
 31
0.0
  0
LINE
  5
2A3
330
20B
100
AcDbEntity
  8
0
  6
Continuous
 62
     7
100
AcDbLine
 10
2.7180070241
 20
6.586060531499999
 30
0.0
 11
2.6197879821
 21
6.586060531499999
 31
0.0
  0
LINE
  5
2A4
330
20B
100
AcDbEntity
  8
0
  6
Continuous
 62
     7
100
AcDbLine
 10
2.5882919191
 20
6.586060531499999
 30
0.0
 11
2.4900728771
 21
6.586060531499999
 31
0.0
  0
LINE
  5
2A5
330
20B
100
AcDbEntity
  8
0
  6
Continuous
 62
     7
100
AcDbLine
 10
1.536904661899999
 20
6.586060531499999
 30
0.0
 11
1.4386856199
 21
6.586060531499999
 31
0.0
  0
LINE
  5
2A6
330
20B
100
AcDbEntity
  8
0
  6
Continuous
 62
     7
100
AcDbLine
 10
1.407189556899999
 20
6.586060531499999
 30
0.0
 11
1.308970514899999
 21
6.586060531499999
 31
0.0
  0
LINE
  5
2A7
330
20B
100
AcDbEntity
  8
0
  6
Continuous
 62
     7
100
AcDbLine
 10
2.6197879821
 20
6.6510211614
 30
0.0
 11
2.5882919191
 21
6.6510211614
 31
0.0
  0
LINE
  5
2A8
330
20B
100
AcDbEntity
  8
0
  6
Continuous
 62
     7
100
AcDbLine
 10
1.4386856199
 20
6.6510211614
 30
0.0
 11
1.407189556899999
 21
6.6510211614
 31
0.0
  0
LINE
  5
2A9
330
20B
100
AcDbEntity
  8
0
  6
Continuous
 62
     7
100
AcDbLine
 10
2.670591026299999
 20
6.698197140099999
 30
0.0
 11
2.537438010099999
 21
6.698197140099999
 31
0.0
  0
LINE
  5
2AA
330
20B
100
AcDbEntity
  8
0
  6
Continuous
 62
     7
100
AcDbLine
 10
1.4894886641
 20
6.698197140099999
 30
0.0
 11
1.356335647899999
 21
6.698197140099999
 31
0.0
  0
LINE
  5
2AB
330
20B
100
AcDbEntity
  8
0
  6
Continuous
 62
     7
100
AcDbLine
 10
3.0764808955
 20
6.725756195199999
 30
0.0
 11
2.8993155412
 21
6.725756195199999
 31
0.0
  0
LINE
  5
2AC
330
20B
100
AcDbEntity
  8
0
  6
Continuous
 62
     7
100
AcDbLine
 10
1.12774061
 20
6.725756195199999
 30
0.0
 11
0.9504966435
 21
6.725756195199999
 31
0.0
  0
LINE
  5
2AD
330
20B
100
AcDbEntity
  8
0
  6
Continuous
 62
     7
100
AcDbLine
 10
0.9504966435
 20
6.7574225478
 30
0.0
 11
1.12774061
 21
6.7574225478
 31
0.0
  0
LINE
  5
2AE
330
20B
100
AcDbEntity
  8
0
  6
Continuous
 62
     7
100
AcDbLine
 10
2.8993155412
 20
6.7574225478
 30
0.0
 11
3.0764808955
 21
6.7574225478
 31
0.0
  0
LINE
  5
2AF
330
20B
100
AcDbEntity
  8
0
  6
Continuous
 62
     7
100
AcDbLine
 10
1.3563323269
 20
6.784981602899999
 30
0.0
 11
1.489593307099999
 21
6.784981602899999
 31
0.0
  0
LINE
  5
2B0
330
20B
100
AcDbEntity
  8
0
  6
Continuous
 62
     7
100
AcDbLine
 10
2.537434689099999
 20
6.784981602899999
 30
0.0
 11
2.6706956693
 21
6.784981602899999
 31
0.0
  0
LINE
  5
2B1
330
20B
100
AcDbEntity
  8
0
  6
Continuous
 62
     7
100
AcDbLine
 10
1.407189556899999
 20
6.832123523599999
 30
0.0
 11
1.4386856199
 21
6.832123523599999
 31
0.0
  0
LINE
  5
2B2
330
20B
100
AcDbEntity
  8
0
  6
Continuous
 62
     7
100
AcDbLine
 10
2.5882919191
 20
6.832123523599999
 30
0.0
 11
2.6197879821
 21
6.832123523599999
 31
0.0
  0
LINE
  5
2B3
330
20B
100
AcDbEntity
  8
0
  6
Continuous
 62
     7
100
AcDbLine
 10
1.308970514899999
 20
6.897084153499999
 30
0.0
 11
1.407189556899999
 21
6.897084153499999
 31
0.0
  0
LINE
  5
2B4
330
20B
100
AcDbEntity
  8
0
  6
Continuous
 62
     7
100
AcDbLine
 10
1.4386856199
 20
6.897084153499999
 30
0.0
 11
1.536904661899999
 21
6.897084153499999
 31
0.0
  0
LINE
  5
2B5
330
20B
100
AcDbEntity
  8
0
  6
Continuous
 62
     7
100
AcDbLine
 10
2.4900728771
 20
6.897084153499999
 30
0.0
 11
2.5882919191
 21
6.897084153499999
 31
0.0
  0
LINE
  5
2B6
330
20B
100
AcDbEntity
  8
0
  6
Continuous
 62
     7
100
AcDbLine
 10
2.6197879821
 20
6.897084153499999
 30
0.0
 11
2.7180070241
 21
6.897084153499999
 31
0.0
  0
LINE
  5
2B7
330
20B
100
AcDbEntity
  8
0
  6
Continuous
 62
     7
100
AcDbLine
 10
2.7180070241
 20
6.928580216499999
 30
0.0
 11
2.6197879821
 21
6.928580216499999
 31
0.0
  0
LINE
  5
2B8
330
20B
100
AcDbEntity
  8
0
  6
Continuous
 62
     7
100
AcDbLine
 10
2.5882919191
 20
6.928580216499999
 30
0.0
 11
2.4900728771
 21
6.928580216499999
 31
0.0
  0
LINE
  5
2B9
330
20B
100
AcDbEntity
  8
0
  6
Continuous
 62
     7
100
AcDbLine
 10
1.536904661899999
 20
6.928580216499999
 30
0.0
 11
1.4386856199
 21
6.928580216499999
 31
0.0
  0
LINE
  5
2BA
330
20B
100
AcDbEntity
  8
0
  6
Continuous
 62
     7
100
AcDbLine
 10
1.407189556899999
 20
6.928580216499999
 30
0.0
 11
1.308970514899999
 21
6.928580216499999
 31
0.0
  0
LINE
  5
2BB
330
20B
100
AcDbEntity
  8
0
  6
Continuous
 62
     7
100
AcDbLine
 10
2.6197879821
 20
6.9935408465
 30
0.0
 11
2.5882919191
 21
6.9935408465
 31
0.0
  0
LINE
  5
2BC
330
20B
100
AcDbEntity
  8
0
  6
Continuous
 62
     7
100
AcDbLine
 10
1.4386856199
 20
6.9935408465
 30
0.0
 11
1.407189556899999
 21
6.9935408465
 31
0.0
  0
LINE
  5
2BD
330
20B
100
AcDbEntity
  8
0
  6
Continuous
 62
     7
100
AcDbLine
 10
2.670591026299999
 20
7.040716825099999
 30
0.0
 11
2.537438010099999
 21
7.040716825099999
 31
0.0
  0
LINE
  5
2BE
330
20B
100
AcDbEntity
  8
0
  6
Continuous
 62
     7
100
AcDbLine
 10
1.4894886641
 20
7.040716825099999
 30
0.0
 11
1.356335647899999
 21
7.040716825099999
 31
0.0
  0
LINE
  5
2BF
330
20B
100
AcDbEntity
  8
0
  6
Continuous
 62
     7
100
AcDbLine
 10
2.525299793199999
 20
7.3766269275
 30
0.0
 11
2.525299793199999
 21
7.348523442699999
 31
0.0
  0
LINE
  5
2C0
330
20B
100
AcDbEntity
  8
0
  6
Continuous
 62
     7
100
AcDbLine
 10
2.525299793199999
 20
7.162181513999999
 30
0.0
 11
2.525299793199999
 21
7.1340771069
 31
0.0
  0
LINE
  5
2C1
330
20B
100
AcDbEntity
  8
0
  6
Continuous
 62
     7
100
AcDbLine
 10
2.525299793199999
 20
7.0341069482
 30
0.0
 11
2.525299793199999
 21
7.006003757699999
 31
0.0
  0
LINE
  5
2C2
330
20B
100
AcDbEntity
  8
0
  6
Continuous
 62
     7
100
AcDbLine
 10
2.525299793199999
 20
6.8196618289
 30
0.0
 11
2.525299793199999
 21
6.7915574219
 31
0.0
  0
LINE
  5
2C3
330
20B
100
AcDbEntity
  8
0
  6
Continuous
 62
     7
100
AcDbLine
 10
2.525299793199999
 20
6.6915872632
 30
0.0
 11
2.525299793199999
 21
6.6634840727
 31
0.0
  0
LINE
  5
2C4
330
20B
100
AcDbEntity
  8
0
  6
Continuous
 62
     7
100
AcDbLine
 10
2.525299793199999
 20
6.4771421439
 30
0.0
 11
2.525299793199999
 21
6.449037736799999
 31
0.0
  0
LINE
  5
2C5
330
20B
100
AcDbEntity
  8
0
  6
Continuous
 62
     7
100
AcDbLine
 10
2.525299793199999
 20
6.349067578099999
 30
0.0
 11
2.525299793199999
 21
6.3209643876
 31
0.0
  0
LINE
  5
2C6
330
20B
100
AcDbEntity
  8
0
  6
Continuous
 62
     7
100
AcDbLine
 10
2.525299793199999
 20
6.1346224588
 30
0.0
 11
2.525299793199999
 21
6.106518051799999
 31
0.0
  0
LINE
  5
2C7
330
20B
100
AcDbEntity
  8
0
  6
Continuous
 62
     7
100
AcDbLine
 10
2.525299793199999
 20
5.994026454099999
 30
0.0
 11
2.525299793199999
 21
5.9784447026
 31
0.0
  0
LINE
  5
2C8
330
20B
100
AcDbEntity
  8
0
  6
Continuous
 62
     7
100
AcDbLine
 10
2.525299793199999
 20
5.792102773799999
 30
0.0
 11
2.525299793199999
 21
5.7758219411
 31
0.0
  0
LINE
  5
2C9
330
20B
100
AcDbEntity
  8
0
  6
Continuous
 62
     7
100
AcDbLine
 10
2.5882919191
 20
7.336060531499999
 30
0.0
 11
2.5882919191
 21
7.271099901599999
 31
0.0
  0
LINE
  5
2CA
330
20B
100
AcDbEntity
  8
0
  6
Continuous
 62
     7
100
AcDbLine
 10
2.5882919191
 20
7.239603838599999
 30
0.0
 11
2.5882919191
 21
7.1746432087
 31
0.0
  0
LINE
  5
2CB
330
20B
100
AcDbEntity
  8
0
  6
Continuous
 62
     7
100
AcDbLine
 10
2.5882919191
 20
6.9935408465
 30
0.0
 11
2.5882919191
 21
6.928580216499999
 31
0.0
  0
LINE
  5
2CC
330
20B
100
AcDbEntity
  8
0
  6
Continuous
 62
     7
100
AcDbLine
 10
2.5882919191
 20
6.897084153499999
 30
0.0
 11
2.5882919191
 21
6.832123523599999
 31
0.0
  0
LINE
  5
2CD
330
20B
100
AcDbEntity
  8
0
  6
Continuous
 62
     7
100
AcDbLine
 10
2.5882919191
 20
6.6510211614
 30
0.0
 11
2.5882919191
 21
6.586060531499999
 31
0.0
  0
LINE
  5
2CE
330
20B
100
AcDbEntity
  8
0
  6
Continuous
 62
     7
100
AcDbLine
 10
2.5882919191
 20
6.5545644685
 30
0.0
 11
2.5882919191
 21
6.489603838599999
 31
0.0
  0
LINE
  5
2CF
330
20B
100
AcDbEntity
  8
0
  6
Continuous
 62
     7
100
AcDbLine
 10
2.5882919191
 20
6.3085014764
 30
0.0
 11
2.5882919191
 21
6.2435408465
 31
0.0
  0
LINE
  5
2D0
330
20B
100
AcDbEntity
  8
0
  6
Continuous
 62
     7
100
AcDbLine
 10
2.5882919191
 20
6.2120447835
 30
0.0
 11
2.5882919191
 21
6.147084153499999
 31
0.0
  0
LINE
  5
2D1
330
20B
100
AcDbEntity
  8
0
  6
Continuous
 62
     7
100
AcDbLine
 10
2.5882919191
 20
5.965981791299999
 30
0.0
 11
2.5882919191
 21
5.9010211614
 31
0.0
  0
LINE
  5
2D2
330
20B
100
AcDbEntity
  8
0
  6
Continuous
 62
     7
100
AcDbLine
 10
2.5882919191
 20
5.8695250984
 30
0.0
 11
2.5882919191
 21
5.8045644685
 31
0.0
  0
LINE
  5
2D3
330
20B
100
AcDbEntity
  8
0
  6
Continuous
 62
     7
100
AcDbLine
 10
3.0764808955
 20
7.068275880199999
 30
0.0
 11
2.8993155412
 21
7.068275880199999
 31
0.0
  0
LINE
  5
2D4
330
20B
100
AcDbEntity
  8
0
  6
Continuous
 62
     7
100
AcDbLine
 10
1.12774061
 20
7.068275880199999
 30
0.0
 11
0.9504966435
 21
7.068275880199999
 31
0.0
  0
LINE
  5
2D5
330
20B
100
AcDbEntity
  8
0
  6
Continuous
 62
     7
100
AcDbLine
 10
0.9504966435
 20
7.0999422328
 30
0.0
 11
1.12774061
 21
7.0999422328
 31
0.0
  0
LINE
  5
2D6
330
20B
100
AcDbEntity
  8
0
  6
Continuous
 62
     7
100
AcDbLine
 10
2.8993155412
 20
7.0999422328
 30
0.0
 11
3.0764808955
 21
7.0999422328
 31
0.0
  0
LINE
  5
2D7
330
20B
100
AcDbEntity
  8
0
  6
Continuous
 62
     7
100
AcDbLine
 10
1.356400259
 20
7.127501287899999
 30
0.0
 11
1.4895946124
 21
7.127501287899999
 31
0.0
  0
LINE
  5
2D8
330
20B
100
AcDbEntity
  8
0
  6
Continuous
 62
     7
100
AcDbLine
 10
2.5375026212
 20
7.127501287899999
 30
0.0
 11
2.670696974699999
 21
7.127501287899999
 31
0.0
  0
LINE
  5
2D9
330
20B
100
AcDbEntity
  8
0
  6
Continuous
 62
     7
100
AcDbLine
 10
2.6197879821
 20
5.8045644685
 30
0.0
 11
2.6197879821
 21
5.8695250984
 31
0.0
  0
LINE
  5
2DA
330
20B
100
AcDbEntity
  8
0
  6
Continuous
 62
     7
100
AcDbLine
 10
2.6197879821
 20
5.9010211614
 30
0.0
 11
2.6197879821
 21
5.965981791299999
 31
0.0
  0
LINE
  5
2DB
330
20B
100
AcDbEntity
  8
0
  6
Continuous
 62
     7
100
AcDbLine
 10
2.6197879821
 20
6.147084153499999
 30
0.0
 11
2.6197879821
 21
6.2120447835
 31
0.0
  0
LINE
  5
2DC
330
20B
100
AcDbEntity
  8
0
  6
Continuous
 62
     7
100
AcDbLine
 10
2.6197879821
 20
6.2435408465
 30
0.0
 11
2.6197879821
 21
6.3085014764
 31
0.0
  0
LINE
  5
2DD
330
20B
100
AcDbEntity
  8
0
  6
Continuous
 62
     7
100
AcDbLine
 10
2.6197879821
 20
6.489603838599999
 30
0.0
 11
2.6197879821
 21
6.5545644685
 31
0.0
  0
LINE
  5
2DE
330
20B
100
AcDbEntity
  8
0
  6
Continuous
 62
     7
100
AcDbLine
 10
2.6197879821
 20
6.586060531499999
 30
0.0
 11
2.6197879821
 21
6.6510211614
 31
0.0
  0
LINE
  5
2DF
330
20B
100
AcDbEntity
  8
0
  6
Continuous
 62
     7
100
AcDbLine
 10
2.6197879821
 20
6.832123523599999
 30
0.0
 11
2.6197879821
 21
6.897084153499999
 31
0.0
  0
LINE
  5
2E0
330
20B
100
AcDbEntity
  8
0
  6
Continuous
 62
     7
100
AcDbLine
 10
2.6197879821
 20
6.928580216499999
 30
0.0
 11
2.6197879821
 21
6.9935408465
 31
0.0
  0
LINE
  5
2E1
330
20B
100
AcDbEntity
  8
0
  6
Continuous
 62
     7
100
AcDbLine
 10
2.6197879821
 20
7.1746432087
 30
0.0
 11
2.6197879821
 21
7.239603838599999
 31
0.0
  0
LINE
  5
2E2
330
20B
100
AcDbEntity
  8
0
  6
Continuous
 62
     7
100
AcDbLine
 10
2.6197879821
 20
7.271099901599999
 30
0.0
 11
2.6197879821
 21
7.336060531499999
 31
0.0
  0
LINE
  5
2E3
330
20B
100
AcDbEntity
  8
0
  6
Continuous
 62
     7
100
AcDbLine
 10
1.407189556899999
 20
7.1746432087
 30
0.0
 11
1.4386856199
 21
7.1746432087
 31
0.0
  0
LINE
  5
2E4
330
20B
100
AcDbEntity
  8
0
  6
Continuous
 62
     7
100
AcDbLine
 10
2.5882919191
 20
7.1746432087
 30
0.0
 11
2.6197879821
 21
7.1746432087
 31
0.0
  0
LINE
  5
2E5
330
20B
100
AcDbEntity
  8
0
  6
Continuous
 62
     7
100
AcDbLine
 10
1.308970514899999
 20
7.239603838599999
 30
0.0
 11
1.407189556899999
 21
7.239603838599999
 31
0.0
  0
LINE
  5
2E6
330
20B
100
AcDbEntity
  8
0
  6
Continuous
 62
     7
100
AcDbLine
 10
1.4386856199
 20
7.239603838599999
 30
0.0
 11
1.536904661899999
 21
7.239603838599999
 31
0.0
  0
LINE
  5
2E7
330
20B
100
AcDbEntity
  8
0
  6
Continuous
 62
     7
100
AcDbLine
 10
2.4900728771
 20
7.239603838599999
 30
0.0
 11
2.5882919191
 21
7.239603838599999
 31
0.0
  0
LINE
  5
2E8
330
20B
100
AcDbEntity
  8
0
  6
Continuous
 62
     7
100
AcDbLine
 10
2.6197879821
 20
7.239603838599999
 30
0.0
 11
2.7180070241
 21
7.239603838599999
 31
0.0
  0
LINE
  5
2E9
330
20B
100
AcDbEntity
  8
0
  6
Continuous
 62
     7
100
AcDbLine
 10
2.7180070241
 20
7.271099901599999
 30
0.0
 11
2.6197879821
 21
7.271099901599999
 31
0.0
  0
LINE
  5
2EA
330
20B
100
AcDbEntity
  8
0
  6
Continuous
 62
     7
100
AcDbLine
 10
2.5882919191
 20
7.271099901599999
 30
0.0
 11
2.4900728771
 21
7.271099901599999
 31
0.0
  0
LINE
  5
2EB
330
20B
100
AcDbEntity
  8
0
  6
Continuous
 62
     7
100
AcDbLine
 10
1.536904661899999
 20
7.271099901599999
 30
0.0
 11
1.4386856199
 21
7.271099901599999
 31
0.0
  0
LINE
  5
2EC
330
20B
100
AcDbEntity
  8
0
  6
Continuous
 62
     7
100
AcDbLine
 10
1.407189556899999
 20
7.271099901599999
 30
0.0
 11
1.308970514899999
 21
7.271099901599999
 31
0.0
  0
LINE
  5
2ED
330
20B
100
AcDbEntity
  8
0
  6
Continuous
 62
     7
100
AcDbLine
 10
2.870546326899999
 20
7.4522022638
 30
0.0
 11
2.870546326899999
 21
5.688422736199999
 31
0.0
  0
LINE
  5
2EE
330
20B
100
AcDbEntity
  8
0
  6
Continuous
 62
     7
100
AcDbLine
 10
2.6197879821
 20
7.336060531499999
 30
0.0
 11
2.5882919191
 21
7.336060531499999
 31
0.0
  0
LINE
  5
2EF
330
20B
100
AcDbEntity
  8
0
  6
Continuous
 62
     7
100
AcDbLine
 10
1.4386856199
 20
7.336060531499999
 30
0.0
 11
1.407189556899999
 21
7.336060531499999
 31
0.0
  0
LINE
  5
2F0
330
20B
100
AcDbEntity
  8
0
  6
Continuous
 62
     7
100
AcDbLine
 10
2.6705227156
 20
7.383236510099999
 30
0.0
 11
2.5374368378
 21
7.383236510099999
 31
0.0
  0
LINE
  5
2F1
330
20B
100
AcDbEntity
  8
0
  6
Continuous
 62
     7
100
AcDbLine
 10
1.4894203533
 20
7.383236510099999
 30
0.0
 11
1.356334475599999
 21
7.383236510099999
 31
0.0
  0
LINE
  5
2F2
330
20B
100
AcDbEntity
  8
0
  6
Continuous
 62
     7
100
AcDbLine
 10
3.0764808955
 20
7.404958169299999
 30
0.0
 11
2.9701816829
 21
7.404958169299999
 31
0.0
  0
LINE
  5
2F3
330
20B
100
AcDbEntity
  8
0
  6
Continuous
 62
     7
100
AcDbLine
 10
1.056795856099999
 20
7.404958169299999
 30
0.0
 11
0.9504966435
 21
7.404958169299999
 31
0.0
  0
LINE
  5
2F4
330
20B
100
AcDbEntity
  8
0
  6
Continuous
 62
     7
100
AcDbLine
 10
3.0764808955
 20
7.410795565299999
 30
0.0
 11
2.8993155412
 21
7.410795565299999
 31
0.0
  0
LINE
  5
2F5
330
20B
100
AcDbEntity
  8
0
  6
Continuous
 62
     7
100
AcDbLine
 10
1.12774061
 20
7.410795565299999
 30
0.0
 11
0.9504966435
 21
7.410795565299999
 31
0.0
  0
LINE
  5
2F6
330
20B
100
AcDbEntity
  8
0
  6
Continuous
 62
     7
100
AcDbLine
 10
2.8993155412
 20
7.410795565299999
 30
0.0
 11
2.8993155412
 21
7.0999422328
 31
0.0
  0
LINE
  5
2F7
330
20B
100
AcDbEntity
  8
0
  6
Continuous
 62
     7
100
AcDbLine
 10
2.8993155412
 20
7.068275880199999
 30
0.0
 11
2.8993155412
 21
6.7574225478
 31
0.0
  0
LINE
  5
2F8
330
20B
100
AcDbEntity
  8
0
  6
Continuous
 62
     7
100
AcDbLine
 10
2.8993155412
 20
6.725756195199999
 30
0.0
 11
2.8993155412
 21
6.414902862699999
 31
0.0
  0
LINE
  5
2F9
330
20B
100
AcDbEntity
  8
0
  6
Continuous
 62
     7
100
AcDbLine
 10
2.8993155412
 20
6.383236510099999
 30
0.0
 11
2.8993155412
 21
6.072383177699999
 31
0.0
  0
LINE
  5
2FA
330
20B
100
AcDbEntity
  8
0
  6
Continuous
 62
     7
100
AcDbLine
 10
2.8993155412
 20
6.040716825099999
 30
0.0
 11
2.8993155412
 21
5.729863492699999
 31
0.0
  0
LINE
  5
2FB
102
{ACAD_REACTORS
330
608
102
}
330
20B
100
AcDbEntity
  8
0
  6
Continuous
 62
     7
100
AcDbLine
 10
0.9111265648000001
 20
7.4522022638
 30
0.0
 11
3.1158509743
 21
7.4522022638
 31
0.0
  0
LINE
  5
2FC
330
20B
100
AcDbEntity
  8
0
  6
Continuous
 62
     7
100
AcDbLine
 10
2.9701816829
 20
7.404958169299999
 30
0.0
 11
2.9701816829
 21
7.3434755109
 31
0.0
  0
LINE
  5
2FD
330
20B
100
AcDbEntity
  8
0
  6
Continuous
 62
     7
100
AcDbLine
 10
2.9701816829
 20
5.797149489099999
 30
0.0
 11
2.9701816829
 21
5.7356668307
 31
0.0
  0
LINE
  5
2FE
330
20B
100
AcDbEntity
  8
0
  6
Continuous
 62
     7
100
AcDbLine
 10
3.0764808955
 20
7.4522022638
 30
0.0
 11
3.0764808955
 21
7.410795565299999
 31
0.0
  0
LINE
  5
2FF
330
20B
100
AcDbEntity
  8
0
  6
Continuous
 62
     7
100
AcDbLine
 10
3.0764808955
 20
7.0999422328
 30
0.0
 11
3.0764808955
 21
7.068275880199999
 31
0.0
  0
LINE
  5
300
330
20B
100
AcDbEntity
  8
0
  6
Continuous
 62
     7
100
AcDbLine
 10
3.0764808955
 20
6.7574225478
 30
0.0
 11
3.0764808955
 21
6.725756195199999
 31
0.0
  0
LINE
  5
301
330
20B
100
AcDbEntity
  8
0
  6
Continuous
 62
     7
100
AcDbLine
 10
3.0764808955
 20
6.414902862699999
 30
0.0
 11
3.0764808955
 21
6.383236510099999
 31
0.0
  0
LINE
  5
302
330
20B
100
AcDbEntity
  8
0
  6
Continuous
 62
     7
100
AcDbLine
 10
3.0764808955
 20
6.072383177699999
 30
0.0
 11
3.0764808955
 21
6.040716825099999
 31
0.0
  0
LINE
  5
303
330
20B
100
AcDbEntity
  8
0
  6
Continuous
 62
     7
100
AcDbLine
 10
3.0764808955
 20
5.729863492699999
 30
0.0
 11
3.0764808955
 21
5.688422736199999
 31
0.0
  0
LINE
  5
304
330
20B
100
AcDbEntity
  8
0
  6
Continuous
 62
     7
100
AcDbLine
 10
3.0764808955
 20
5.7356668307
 30
0.0
 11
3.0764808955
 21
5.8407543738
 31
0.0
  0
LINE
  5
305
330
20B
100
AcDbEntity
  8
0
  6
Continuous
 62
     7
100
AcDbLine
 10
3.0764808955
 20
7.299870626199999
 30
0.0
 11
3.0764808955
 21
7.404958169299999
 31
0.0
  0
LINE
  5
306
102
{ACAD_REACTORS
330
5C2
330
608
102
}
330
20B
100
AcDbEntity
  8
0
  6
Continuous
 62
     7
100
AcDbLine
 10
3.1158509743
 20
7.4522022638
 30
0.0
 11
3.1158509743
 21
5.688422736199999
 31
0.0
  0
LINE
  5
307
330
20B
100
AcDbEntity
  8
0
  6
Continuous
 62
     7
100
AcDbLine
 10
0.9111265648000001
 20
0.3347850409
 30
0.0
 11
0.9111265648000001
 21
2.0985645685
 31
0.0
  0
LINE
  5
308
330
20B
100
AcDbEntity
  8
0
  6
Continuous
 62
     7
100
AcDbLine
 10
0.9504966435
 20
2.051320474
 30
0.0
 11
0.9504966435
 21
1.946232930899999
 31
0.0
  0
LINE
  5
309
330
20B
100
AcDbEntity
  8
0
  6
Continuous
 62
     7
100
AcDbLine
 10
0.9504966435
 20
0.4871166785
 30
0.0
 11
0.9504966435
 21
0.3820291354
 31
0.0
  0
LINE
  5
30A
330
20B
100
AcDbEntity
  8
0
  6
Continuous
 62
     7
100
AcDbLine
 10
1.056795856099999
 20
0.3820291354
 30
0.0
 11
1.056795856099999
 21
0.4435117937000001
 31
0.0
  0
LINE
  5
30B
330
20B
100
AcDbEntity
  8
0
  6
Continuous
 62
     7
100
AcDbLine
 10
1.056795856099999
 20
1.989837815599999
 30
0.0
 11
1.056795856099999
 21
2.051320474
 31
0.0
  0
LINE
  5
30C
330
20B
100
AcDbEntity
  8
0
  6
Continuous
 62
     7
100
AcDbLine
 10
3.1158509743
 20
0.3347850409
 30
0.0
 11
0.9111265648000001
 21
0.3347850409
 31
0.0
  0
LINE
  5
30D
330
20B
100
AcDbEntity
  8
0
  6
Continuous
 62
     7
100
AcDbLine
 10
0.9504966435
 20
0.3820291354
 30
0.0
 11
1.056795856099999
 21
0.3820291354
 31
0.0
  0
LINE
  5
30E
330
20B
100
AcDbEntity
  8
0
  6
Continuous
 62
     7
100
AcDbLine
 10
2.9701816829
 20
0.3820291354
 30
0.0
 11
3.0764808955
 21
0.3820291354
 31
0.0
  0
LINE
  5
30F
330
20B
100
AcDbEntity
  8
0
  6
Continuous
 62
     7
100
AcDbLine
 10
1.235929714399999
 20
0.3347850409
 30
0.0
 11
1.235929714399999
 21
2.0985645685
 31
0.0
  0
LINE
  5
310
330
20B
100
AcDbEntity
  8
0
  6
Continuous
 62
     7
100
AcDbLine
 10
1.2379930128
 20
0.3347850409
 30
0.0
 11
1.2379930128
 21
2.0985645685
 31
0.0
  0
LINE
  5
311
330
20B
100
AcDbEntity
  8
0
  6
Continuous
 62
     7
100
AcDbLine
 10
1.3891886381
 20
0.3347850409
 30
0.0
 11
1.3891886381
 21
2.0985645685
 31
0.0
  0
LINE
  5
312
330
20B
100
AcDbEntity
  8
0
  6
Continuous
 62
     7
100
AcDbLine
 10
1.3919116712
 20
0.3347850409
 30
0.0
 11
1.3919116712
 21
2.0985645685
 31
0.0
  0
LINE
  5
313
330
20B
100
AcDbEntity
  8
0
  6
Continuous
 62
     7
100
AcDbLine
 10
1.3953785333
 20
0.3347850409
 30
0.0
 11
1.3953785333
 21
2.0985645685
 31
0.0
  0
LINE
  5
314
330
20B
100
AcDbEntity
  8
0
  6
Continuous
 62
     7
100
AcDbLine
 10
2.6737524856
 20
0.3347850409
 30
0.0
 11
2.6737524856
 21
2.0985645685
 31
0.0
  0
LINE
  5
315
330
20B
100
AcDbEntity
  8
0
  6
Continuous
 62
     7
100
AcDbLine
 10
2.6757171383
 20
0.3347850409
 30
0.0
 11
2.6757171383
 21
2.0985645685
 31
0.0
  0
LINE
  5
316
330
20B
100
AcDbEntity
  8
0
  6
Continuous
 62
     7
100
AcDbLine
 10
2.708504630699999
 20
0.3347850409
 30
0.0
 11
2.708504630699999
 21
2.0985645685
 31
0.0
  0
LINE
  5
317
330
20B
100
AcDbEntity
  8
0
  6
Continuous
 62
     7
100
AcDbLine
 10
2.7889845263
 20
2.0985645685
 30
0.0
 11
2.7889845263
 21
0.3347850409
 31
0.0
  0
LINE
  5
318
330
20B
100
AcDbEntity
  8
0
  6
Continuous
 62
     7
100
AcDbLine
 10
2.791047824599999
 20
0.3347850409
 30
0.0
 11
2.791047824599999
 21
2.0985645685
 31
0.0
  0
LINE
  5
319
330
20B
100
AcDbEntity
  8
0
  6
Continuous
 62
     7
100
AcDbLine
 10
3.0764808955
 20
2.051320474
 30
0.0
 11
2.9701816829
 21
2.051320474
 31
0.0
  0
LINE
  5
31A
330
20B
100
AcDbEntity
  8
0
  6
Continuous
 62
     7
100
AcDbLine
 10
1.056795856099999
 20
2.051320474
 30
0.0
 11
0.9504966435
 21
2.051320474
 31
0.0
  0
LINE
  5
31B
330
20B
100
AcDbEntity
  8
0
  6
Continuous
 62
     7
100
AcDbLine
 10
0.9111265648000001
 20
2.0985645685
 30
0.0
 11
3.1158509743
 21
2.0985645685
 31
0.0
  0
LINE
  5
31C
330
20B
100
AcDbEntity
  8
0
  6
Continuous
 62
     7
100
AcDbLine
 10
2.9701816829
 20
2.051320474
 30
0.0
 11
2.9701816829
 21
1.989837815599999
 31
0.0
  0
LINE
  5
31D
330
20B
100
AcDbEntity
  8
0
  6
Continuous
 62
     7
100
AcDbLine
 10
2.9701816829
 20
0.4435117937000001
 30
0.0
 11
2.9701816829
 21
0.3820291354
 31
0.0
  0
LINE
  5
31E
330
20B
100
AcDbEntity
  8
0
  6
Continuous
 62
     7
100
AcDbLine
 10
3.0764808955
 20
0.3820291354
 30
0.0
 11
3.0764808955
 21
0.4871166785
 31
0.0
  0
LINE
  5
31F
330
20B
100
AcDbEntity
  8
0
  6
Continuous
 62
     7
100
AcDbLine
 10
3.0764808955
 20
1.946232930899999
 30
0.0
 11
3.0764808955
 21
2.051320474
 31
0.0
  0
LINE
  5
320
330
20B
100
AcDbEntity
  8
0
  6
Continuous
 62
     7
100
AcDbLine
 10
3.1158509743
 20
0.3347850409
 30
0.0
 11
3.1158509743
 21
2.0985645685
 31
0.0
  0
LINE
  5
321
330
20B
100
AcDbEntity
  8
0
  6
Continuous
 62
     7
100
AcDbLine
 10
6.49083027050491
 20
3.013333538399999
 30
0.0
 11
4.72705074290491
 21
3.013333538399999
 31
0.0
  0
LINE
  5
322
330
20B
100
AcDbEntity
  8
0
  6
Continuous
 62
     7
100
AcDbLine
 10
4.72705074290491
 20
3.013333538399999
 30
0.0
 11
4.72705074290491
 21
5.0999477116
 31
0.0
  0
LINE
  5
323
330
20B
100
AcDbEntity
  8
0
  6
Continuous
 62
     7
100
AcDbLine
 10
4.76849149930491
 20
4.981837475399999
 30
0.0
 11
4.76849149930491
 21
4.068447750999999
 31
0.0
  0
LINE
  5
324
330
20B
100
AcDbEntity
  8
0
  6
Continuous
 62
     7
100
AcDbLine
 10
4.79605055450491
 20
4.6786256648
 30
0.0
 11
4.79605055450491
 21
4.556640625
 31
0.0
  0
LINE
  5
325
330
20B
100
AcDbEntity
  8
0
  6
Continuous
 62
     7
100
AcDbLine
 10
4.79605055450491
 20
4.6786256648
 30
0.0
 11
4.90076797980491
 21
4.7108370686
 31
0.0
  0
LINE
  5
326
330
20B
100
AcDbEntity
  8
0
  6
Continuous
 62
     7
100
AcDbLine
 10
6.49083027050491
 20
3.2219949557
 30
0.0
 11
4.72705074290491
 21
3.2219949557
 31
0.0
  0
LINE
  5
327
330
20B
100
AcDbEntity
  8
0
  6
Continuous
 62
     7
100
AcDbLine
 10
4.814449947804909
 20
4.670813853299999
 30
0.0
 11
4.814449947804909
 21
4.684285375099999
 31
0.0
  0
LINE
  5
328
330
20B
100
AcDbEntity
  8
0
  6
Continuous
 62
     7
100
AcDbLine
 10
5.13857023950491
 20
4.6786256648
 30
0.0
 11
5.243287509604909
 21
4.7108371865
 31
0.0
  0
LINE
  5
329
330
20B
100
AcDbEntity
  8
0
  6
Continuous
 62
     7
100
AcDbLine
 10
5.48108992450491
 20
4.6786256648
 30
0.0
 11
5.585807194604909
 21
4.7108371865
 31
0.0
  0
LINE
  5
32A
330
20B
100
AcDbEntity
  8
0
  6
Continuous
 62
     7
100
AcDbLine
 10
5.033352325404909
 20
4.684295856399999
 30
0.0
 11
5.03335181250491
 21
4.670813853299999
 31
0.0
  0
LINE
  5
32B
330
20B
100
AcDbEntity
  8
0
  6
Continuous
 62
     7
100
AcDbLine
 10
5.051785776704909
 20
4.556640625
 30
0.0
 11
5.051785776704909
 21
4.6786256648
 31
0.0
  0
LINE
  5
32C
330
20B
100
AcDbEntity
  8
0
  6
Continuous
 62
     7
100
AcDbLine
 10
5.07934483180491
 20
4.068447750999999
 30
0.0
 11
5.07934483180491
 21
4.981837475399999
 31
0.0
  0
LINE
  5
32D
330
20B
100
AcDbEntity
  8
0
  6
Continuous
 62
     7
100
AcDbLine
 10
5.11101118440491
 20
4.981837475399999
 30
0.0
 11
5.11101118440491
 21
4.068447750999999
 31
0.0
  0
LINE
  5
32E
330
20B
100
AcDbEntity
  8
0
  6
Continuous
 62
     7
100
AcDbLine
 10
5.13857023950491
 20
4.6786256648
 30
0.0
 11
5.13857023950491
 21
4.556640625
 31
0.0
  0
LINE
  5
32F
330
20B
100
AcDbEntity
  8
0
  6
Continuous
 62
     7
100
AcDbLine
 10
5.145146058504909
 20
4.670813853299999
 30
0.0
 11
5.145146058504909
 21
4.6806484174
 31
0.0
  0
LINE
  5
330
330
20B
100
AcDbEntity
  8
0
  6
Continuous
 62
     7
100
AcDbLine
 10
5.823609609604909
 20
4.6786256648
 30
0.0
 11
5.92832687970491
 21
4.7108371865
 31
0.0
  0
LINE
  5
331
330
20B
100
AcDbEntity
  8
0
  6
Continuous
 62
     7
100
AcDbLine
 10
6.166129294604909
 20
4.6786256648
 30
0.0
 11
6.270975512704909
 21
4.7106803699
 31
0.0
  0
LINE
  5
332
330
20B
100
AcDbEntity
  8
0
  6
Continuous
 62
     7
100
AcDbLine
 10
5.38769558480491
 20
4.680658893799999
 30
0.0
 11
5.38769558480491
 21
4.670813853299999
 31
0.0
  0
LINE
  5
333
330
20B
100
AcDbEntity
  8
0
  6
Continuous
 62
     7
100
AcDbLine
 10
5.394305461704909
 20
4.556640625
 30
0.0
 11
5.394305461704909
 21
4.6786256648
 31
0.0
  0
LINE
  5
334
330
20B
100
AcDbEntity
  8
0
  6
Continuous
 62
     7
100
AcDbLine
 10
5.42186451680491
 20
4.068447750999999
 30
0.0
 11
5.42186451680491
 21
4.981837475399999
 31
0.0
  0
LINE
  5
335
330
20B
100
AcDbEntity
  8
0
  6
Continuous
 62
     7
100
AcDbLine
 10
5.45353086940491
 20
4.981837475399999
 30
0.0
 11
5.45353086940491
 21
4.068447750999999
 31
0.0
  0
LINE
  5
336
330
20B
100
AcDbEntity
  8
0
  6
Continuous
 62
     7
100
AcDbLine
 10
5.48108992450491
 20
4.6786256648
 30
0.0
 11
5.48108992450491
 21
4.556640625
 31
0.0
  0
LINE
  5
337
330
20B
100
AcDbEntity
  8
0
  6
Continuous
 62
     7
100
AcDbLine
 10
5.487665743504909
 20
4.670813853299999
 30
0.0
 11
5.487665743504909
 21
4.6806484174
 31
0.0
  0
LINE
  5
338
330
20B
100
AcDbEntity
  8
0
  6
Continuous
 62
     7
100
AcDbLine
 10
6.49083027050491
 20
3.977900467499999
 30
0.0
 11
4.72705074290491
 21
3.977900467499999
 31
0.0
  0
LINE
  5
339
330
20B
100
AcDbEntity
  8
0
  6
Continuous
 62
     7
100
AcDbLine
 10
6.49083027050491
 20
4.068447750999999
 30
0.0
 11
6.44942357190491
 21
4.068447750999999
 31
0.0
  0
LINE
  5
33A
330
20B
100
AcDbEntity
  8
0
  6
Continuous
 62
     7
100
AcDbLine
 10
6.13857023950491
 20
4.068447750999999
 30
0.0
 11
6.10690388690491
 21
4.068447750999999
 31
0.0
  0
LINE
  5
33B
330
20B
100
AcDbEntity
  8
0
  6
Continuous
 62
     7
100
AcDbLine
 10
5.79605055450491
 20
4.068447750999999
 30
0.0
 11
5.76438420190491
 21
4.068447750999999
 31
0.0
  0
LINE
  5
33C
330
20B
100
AcDbEntity
  8
0
  6
Continuous
 62
     7
100
AcDbLine
 10
5.45353086940491
 20
4.068447750999999
 30
0.0
 11
5.42186451680491
 21
4.068447750999999
 31
0.0
  0
LINE
  5
33D
330
20B
100
AcDbEntity
  8
0
  6
Continuous
 62
     7
100
AcDbLine
 10
5.11101118440491
 20
4.068447750999999
 30
0.0
 11
5.07934483180491
 21
4.068447750999999
 31
0.0
  0
LINE
  5
33E
330
20B
100
AcDbEntity
  8
0
  6
Continuous
 62
     7
100
AcDbLine
 10
4.76849149930491
 20
4.068447750999999
 30
0.0
 11
4.72705074290491
 21
4.068447750999999
 31
0.0
  0
LINE
  5
33F
330
20B
100
AcDbEntity
  8
0
  6
Continuous
 62
     7
100
AcDbLine
 10
5.73021526990491
 20
4.680658893799999
 30
0.0
 11
5.73021526990491
 21
4.670813853299999
 31
0.0
  0
LINE
  5
340
330
20B
100
AcDbEntity
  8
0
  6
Continuous
 62
     7
100
AcDbLine
 10
5.73682514670491
 20
4.556640625
 30
0.0
 11
5.73682514670491
 21
4.6786256648
 31
0.0
  0
LINE
  5
341
330
20B
100
AcDbEntity
  8
0
  6
Continuous
 62
     7
100
AcDbLine
 10
5.76438420190491
 20
4.068447750999999
 30
0.0
 11
5.76438420190491
 21
4.981837475399999
 31
0.0
  0
LINE
  5
342
330
20B
100
AcDbEntity
  8
0
  6
Continuous
 62
     7
100
AcDbLine
 10
5.79605055450491
 20
4.981837475399999
 30
0.0
 11
5.79605055450491
 21
4.068447750999999
 31
0.0
  0
LINE
  5
343
330
20B
100
AcDbEntity
  8
0
  6
Continuous
 62
     7
100
AcDbLine
 10
5.823609609604909
 20
4.6786256648
 30
0.0
 11
5.823609609604909
 21
4.556640625
 31
0.0
  0
LINE
  5
344
330
20B
100
AcDbEntity
  8
0
  6
Continuous
 62
     7
100
AcDbLine
 10
5.830185428504909
 20
4.670813853299999
 30
0.0
 11
5.830185428504909
 21
4.6806484174
 31
0.0
  0
LINE
  5
345
330
20B
100
AcDbEntity
  8
0
  6
Continuous
 62
     7
100
AcDbLine
 10
6.07273495490491
 20
4.680658893799999
 30
0.0
 11
6.07273495490491
 21
4.670813853299999
 31
0.0
  0
LINE
  5
346
330
20B
100
AcDbEntity
  8
0
  6
Continuous
 62
     7
100
AcDbLine
 10
4.94706846310491
 20
4.710837062799999
 30
0.0
 11
5.051785776704909
 21
4.6786256648
 31
0.0
  0
LINE
  5
347
330
20B
100
AcDbEntity
  8
0
  6
Continuous
 62
     7
100
AcDbLine
 10
6.07934483180491
 20
4.556640625
 30
0.0
 11
6.07934483180491
 21
4.6786256648
 31
0.0
  0
LINE
  5
348
330
20B
100
AcDbEntity
  8
0
  6
Continuous
 62
     7
100
AcDbLine
 10
6.10690388690491
 20
4.068447750999999
 30
0.0
 11
6.10690388690491
 21
4.981837475399999
 31
0.0
  0
LINE
  5
349
330
20B
100
AcDbEntity
  8
0
  6
Continuous
 62
     7
100
AcDbLine
 10
6.13857023950491
 20
4.981837475399999
 30
0.0
 11
6.13857023950491
 21
4.068447750999999
 31
0.0
  0
LINE
  5
34A
330
20B
100
AcDbEntity
  8
0
  6
Continuous
 62
     7
100
AcDbLine
 10
6.166129294604909
 20
4.6786256648
 30
0.0
 11
6.166129294604909
 21
4.556640625
 31
0.0
  0
LINE
  5
34B
330
20B
100
AcDbEntity
  8
0
  6
Continuous
 62
     7
100
AcDbLine
 10
4.79605055450491
 20
4.556640625
 30
0.0
 11
5.051785776704909
 21
4.556640625
 31
0.0
  0
LINE
  5
34C
330
20B
100
AcDbEntity
  8
0
  6
Continuous
 62
     7
100
AcDbLine
 10
5.13857023950491
 20
4.556640625
 30
0.0
 11
5.394305461704909
 21
4.556640625
 31
0.0
  0
LINE
  5
34D
330
20B
100
AcDbEntity
  8
0
  6
Continuous
 62
     7
100
AcDbLine
 10
5.48108992450491
 20
4.556640625
 30
0.0
 11
5.73682514670491
 21
4.556640625
 31
0.0
  0
LINE
  5
34E
330
20B
100
AcDbEntity
  8
0
  6
Continuous
 62
     7
100
AcDbLine
 10
5.823609609604909
 20
4.556640625
 30
0.0
 11
6.07934483180491
 21
4.556640625
 31
0.0
  0
LINE
  5
34F
330
20B
100
AcDbEntity
  8
0
  6
Continuous
 62
     7
100
AcDbLine
 10
6.166129294604909
 20
4.556640625
 30
0.0
 11
6.42186451680491
 21
4.556640625
 31
0.0
  0
LINE
  5
350
330
20B
100
AcDbEntity
  8
0
  6
Continuous
 62
     7
100
AcDbLine
 10
5.289588191604909
 20
4.7108371865
 30
0.0
 11
5.394305461704909
 21
4.6786256648
 31
0.0
  0
LINE
  5
351
330
20B
100
AcDbEntity
  8
0
  6
Continuous
 62
     7
100
AcDbLine
 10
6.17270511360491
 20
4.670813853299999
 30
0.0
 11
6.17270511360491
 21
4.680636094399999
 31
0.0
  0
LINE
  5
352
330
20B
100
AcDbEntity
  8
0
  6
Continuous
 62
     7
100
AcDbLine
 10
6.41525493420491
 20
4.670813853299999
 30
0.0
 11
6.17270511360491
 21
4.670813853299999
 31
0.0
  0
LINE
  5
353
330
20B
100
AcDbEntity
  8
0
  6
Continuous
 62
     7
100
AcDbLine
 10
6.07273495490491
 20
4.670813853299999
 30
0.0
 11
5.830185428504909
 21
4.670813853299999
 31
0.0
  0
LINE
  5
354
330
20B
100
AcDbEntity
  8
0
  6
Continuous
 62
     7
100
AcDbLine
 10
5.73021526990491
 20
4.670813853299999
 30
0.0
 11
5.487665743504909
 21
4.670813853299999
 31
0.0
  0
LINE
  5
355
330
20B
100
AcDbEntity
  8
0
  6
Continuous
 62
     7
100
AcDbLine
 10
5.38769558480491
 20
4.670813853299999
 30
0.0
 11
5.145146058504909
 21
4.670813853299999
 31
0.0
  0
LINE
  5
356
330
20B
100
AcDbEntity
  8
0
  6
Continuous
 62
     7
100
AcDbLine
 10
5.03335181250491
 20
4.670813853299999
 30
0.0
 11
4.814449947804909
 21
4.670813853299999
 31
0.0
  0
LINE
  5
357
330
20B
100
AcDbEntity
  8
0
  6
Continuous
 62
     7
100
AcDbLine
 10
5.632107876704909
 20
4.7108371865
 30
0.0
 11
5.73682514670491
 21
4.6786256648
 31
0.0
  0
LINE
  5
358
330
20B
100
AcDbEntity
  8
0
  6
Continuous
 62
     7
100
AcDbLine
 10
5.97462756170491
 20
4.7108371865
 30
0.0
 11
6.07934483180491
 21
4.6786256648
 31
0.0
  0
LINE
  5
359
330
20B
100
AcDbEntity
  8
0
  6
Continuous
 62
     7
100
AcDbLine
 10
6.415254639904909
 20
4.680646505799999
 30
0.0
 11
6.41525493420491
 21
4.670813853299999
 31
0.0
  0
LINE
  5
35A
330
20B
100
AcDbEntity
  8
0
  6
Continuous
 62
     7
100
AcDbLine
 10
6.42186451680491
 20
4.556640625
 30
0.0
 11
6.42186451680491
 21
4.6786256636
 31
0.0
  0
LINE
  5
35B
330
20B
100
AcDbEntity
  8
0
  6
Continuous
 62
     7
100
AcDbLine
 10
6.44942357190491
 20
4.068447750999999
 30
0.0
 11
6.44942357190491
 21
4.981837475399999
 31
0.0
  0
LINE
  5
35C
330
20B
100
AcDbEntity
  8
0
  6
Continuous
 62
     7
100
AcDbLine
 10
6.49083027050491
 20
3.013333538399999
 30
0.0
 11
6.49083027050491
 21
5.0999477116
 31
0.0
  0
LINE
  5
35D
330
20B
100
AcDbEntity
  8
0
  6
Continuous
 62
     7
100
AcDbLine
 10
6.317018300204909
 20
4.7106803694
 30
0.0
 11
6.42186451680491
 21
4.6786256636
 31
0.0
  0
LINE
  5
35E
330
20B
100
AcDbEntity
  8
0
  6
Continuous
 62
     7
100
AcDbLine
 10
6.49083027050491
 20
4.981837475399999
 30
0.0
 11
4.72705074290491
 21
4.981837475399999
 31
0.0
  0
LINE
  5
35F
330
20B
100
AcDbEntity
  8
0
  6
Continuous
 62
     7
100
AcDbLine
 10
6.49083027050491
 20
4.9857744833
 30
0.0
 11
4.72705074290491
 21
4.9857744833
 31
0.0
  0
LINE
  5
360
330
20B
100
AcDbEntity
  8
0
  6
Continuous
 62
     7
100
AcDbLine
 10
6.49083027050491
 20
5.0999477116
 30
0.0
 11
4.72705074290491
 21
5.0999477116
 31
0.0
  0
LINE
  5
361
330
20B
100
AcDbEntity
  8
0
  6
Continuous
 62
     7
100
AcDbLine
 10
8.810106952599999
 20
7.3117604633
 30
0.0
 11
8.7808281172
 21
7.294856420599999
 31
0.0
  0
LINE
  5
362
330
20B
100
AcDbEntity
  8
0
  6
Continuous
 62
     7
100
AcDbLine
 10
8.561022533099999
 20
7.167952364999999
 30
0.0
 11
8.5386311336
 21
7.1550247616
 31
0.0
  0
LINE
  5
363
330
20B
100
AcDbEntity
  8
0
  6
Continuous
 62
     7
100
AcDbLine
 10
8.318825549499999
 20
7.028120706
 30
0.0
 11
8.296434149999999
 21
7.015193102599999
 31
0.0
  0
LINE
  5
364
330
20B
100
AcDbEntity
  8
0
  6
Continuous
 62
     7
100
AcDbLine
 10
8.0766285658
 20
6.888289047
 30
0.0
 11
8.0542371664
 21
6.8753614436
 31
0.0
  0
LINE
  5
365
330
20B
100
AcDbEntity
  8
0
  6
Continuous
 62
     7
100
AcDbLine
 10
7.8344315822
 20
6.748457387999999
 30
0.0
 11
7.812040182799999
 21
6.7355297846
 31
0.0
  0
LINE
  5
366
330
20B
100
AcDbEntity
  8
0
  6
Continuous
 62
     7
100
AcDbLine
 10
7.5922345986
 20
6.608625728999999
 30
0.0
 11
7.5629316807
 21
6.5917077824
 31
0.0
  0
LINE
  5
367
330
20B
100
AcDbEntity
  8
0
  6
Continuous
 62
     7
100
AcDbLine
 10
7.5350927152
 20
5.170864582
 30
0.0
 11
7.5350927152
 21
5.0004920304
 31
0.0
  0
LINE
  5
368
330
20B
100
AcDbEntity
  8
0
  6
Continuous
 62
     7
100
AcDbLine
 10
7.5629316807
 20
5.8459228647
 30
0.0
 11
7.5629316807
 21
6.5917077824
 31
0.0
  0
LINE
  5
369
330
20B
100
AcDbEntity
  8
0
  6
Continuous
 62
     7
100
AcDbLine
 10
7.6706459661
 20
5.2169806118
 30
0.0
 11
7.6706459661
 21
5.131178576099999
 31
0.0
  0
LINE
  5
36A
330
20B
100
AcDbEntity
  8
0
  6
Continuous
 62
     7
100
AcDbLine
 10
8.9557252889
 20
7.324126872899999
 30
0.0
 11
7.7085500169
 21
6.6040741921
 31
0.0
  0
LINE
  5
36B
330
20B
100
AcDbEntity
  8
0
  6
Continuous
 62
     7
100
AcDbLine
 10
8.807600703099998
 20
4.359045845099999
 30
0.0
 11
8.781462645599999
 21
4.3661345355
 31
0.0
  0
LINE
  5
36C
330
20B
100
AcDbEntity
  8
0
  6
Continuous
 62
     7
100
AcDbLine
 10
7.5350927152
 20
5.0004920304
 30
0.0
 11
7.764764181
 21
4.8678941475
 31
0.0
  0
LINE
  5
36D
330
20B
100
AcDbEntity
  8
0
  6
Continuous
 62
     7
100
AcDbLine
 10
8.864403320499999
 20
4.2330315568
 30
0.0
 11
9.0940747863
 21
4.100433673899999
 31
0.0
  0
LINE
  5
36E
330
20B
100
AcDbEntity
  8
0
  6
Continuous
 62
     7
100
AcDbLine
 10
7.7662231594
 20
4.899197589499999
 30
0.0
 11
7.873135056399999
 21
4.837473373299999
 31
0.0
  0
LINE
  5
36F
330
20B
100
AcDbEntity
  8
0
  6
Continuous
 62
     7
100
AcDbLine
 10
8.806036225299999
 20
4.298874816999999
 30
0.0
 11
8.8629443421
 21
4.266019643799999
 31
0.0
  0
LINE
  5
370
330
20B
100
AcDbEntity
  8
0
  6
Continuous
 62
     7
100
AcDbLine
 10
7.807914577899999
 20
4.987640328399999
 30
0.0
 11
7.877511991499999
 21
4.9313836992
 31
0.0
  0
LINE
  5
371
330
20B
100
AcDbEntity
  8
0
  6
Continuous
 62
     7
100
AcDbLine
 10
7.8750605396
 20
4.8787860148
 30
0.0
 11
7.7939950948
 21
4.9506699231
 31
0.0
  0
LINE
  5
372
330
20B
100
AcDbEntity
  8
0
  6
Continuous
 62
     7
100
AcDbLine
 10
7.688262613099999
 20
5.699632553499999
 30
0.0
 11
7.688262613099999
 21
5.773564654099999
 31
0.0
  0
LINE
  5
373
330
20B
100
AcDbEntity
  8
0
  6
Continuous
 62
     7
100
AcDbLine
 10
7.7085500169
 20
6.510851475199999
 30
0.0
 11
7.7085500169
 21
6.6040741921
 31
0.0
  0
LINE
  5
374
330
20B
100
AcDbEntity
  8
0
  6
Continuous
 62
     7
100
AcDbLine
 10
7.7090862499
 20
5.687610317899999
 30
0.0
 11
7.7090862499
 21
5.0704116404
 31
0.0
  0
LINE
  5
375
330
20B
100
AcDbEntity
  8
0
  6
Continuous
 62
     7
100
AcDbLine
 10
7.7939950948
 20
4.9506699231
 30
0.0
 11
7.7939950948
 21
4.9956765639
 31
0.0
  0
LINE
  5
376
330
20B
100
AcDbEntity
  8
0
  6
Continuous
 62
     7
100
AcDbLine
 10
7.812040182799999
 20
6.7355297846
 30
0.0
 11
7.812040182799999
 21
6.663823910499999
 31
0.0
  0
LINE
  5
377
330
20B
100
AcDbEntity
  8
0
  6
Continuous
 62
     7
100
AcDbLine
 10
7.764764181
 20
4.8678941475
 30
0.0
 11
7.7662231594
 21
4.899197589499999
 31
0.0
  0
LINE
  5
378
330
20B
100
AcDbEntity
  8
0
  6
Continuous
 62
     7
100
AcDbLine
 10
7.877511991499999
 20
4.9313836992
 30
0.0
 11
8.807600703099998
 21
4.3944115723
 31
0.0
  0
LINE
  5
379
330
20B
100
AcDbEntity
  8
0
  6
Continuous
 62
     7
100
AcDbLine
 10
7.7939950948
 20
4.9956765639
 30
0.0
 11
7.807914577899999
 21
4.987640328399999
 31
0.0
  0
LINE
  5
37A
330
20B
100
AcDbEntity
  8
0
  6
Continuous
 62
     7
100
AcDbLine
 10
9.0940747863
 20
4.2708062255
 30
0.0
 11
8.920081251599999
 21
4.371259167099999
 31
0.0
  0
LINE
  5
37B
330
20B
100
AcDbEntity
  8
0
  6
Continuous
 62
     7
100
AcDbLine
 10
7.7090862499
 20
5.0704116404
 30
0.0
 11
7.5350927152
 21
5.170864582
 31
0.0
  0
LINE
  5
37C
330
20B
100
AcDbEntity
  8
0
  6
Continuous
 62
     7
100
AcDbLine
 10
7.5963381612
 20
5.174079236699999
 30
0.0
 11
7.6715033682
 21
5.1306835659
 31
0.0
  0
LINE
  5
37D
330
20B
100
AcDbEntity
  8
0
  6
Continuous
 62
     7
100
AcDbLine
 10
9.024477094299999
 20
4.3495614923
 30
0.0
 11
9.099642301299999
 21
4.3061658216
 31
0.0
  0
LINE
  5
37E
330
20B
100
AcDbEntity
  8
0
  6
Continuous
 62
     7
100
AcDbLine
 10
7.873135056399999
 20
4.837473373299999
 30
0.0
 11
7.8750605396
 21
4.8787860148
 31
0.0
  0
LINE
  5
37F
330
20B
100
AcDbEntity
  8
0
  6
Continuous
 62
     7
100
AcDbLine
 10
8.038977991699999
 20
6.2590061583
 30
0.0
 11
8.036205932799999
 21
6.321683523499999
 31
0.0
  0
LINE
  5
380
330
20B
100
AcDbEntity
  8
0
  6
Continuous
 62
     7
100
AcDbLine
 10
8.0542371664
 20
6.8753614436
 30
0.0
 11
8.0542371664
 21
6.8036555696
 31
0.0
  0
LINE
  5
381
330
20B
100
AcDbEntity
  8
0
  6
Continuous
 62
     7
100
AcDbLine
 10
8.011612772799999
 20
6.3326674934
 30
0.0
 11
8.0116370675
 21
6.3358680436
 31
0.0
  0
LINE
  5
382
330
20B
100
AcDbEntity
  8
0
  6
Continuous
 62
     7
100
AcDbLine
 10
8.0918729403
 20
6.2895448888
 30
0.0
 11
8.038977991699999
 21
6.2590061583
 31
0.0
  0
LINE
  5
383
330
20B
100
AcDbEntity
  8
0
  6
Continuous
 62
     7
100
AcDbLine
 10
8.7828518706
 20
4.334723599999999
 30
0.0
 11
8.806036225299999
 21
4.298874816999999
 31
0.0
  0
LINE
  5
384
330
20B
100
AcDbEntity
  8
0
  6
Continuous
 62
     7
100
AcDbLine
 10
8.296434149999999
 20
7.015193102599999
 30
0.0
 11
8.296434149999999
 21
6.9434872286
 31
0.0
  0
LINE
  5
385
330
20B
100
AcDbEntity
  8
0
  6
Continuous
 62
     7
100
AcDbLine
 10
8.9409604758
 20
4.9764034916
 30
0.0
 11
8.920081251599999
 21
4.9884578442
 31
0.0
  0
LINE
  5
386
330
20B
100
AcDbEntity
  8
0
  6
Continuous
 62
     7
100
AcDbLine
 10
7.7090862499
 20
5.6876102935
 30
0.0
 11
7.688262613099999
 21
5.699632553499999
 31
0.0
  0
LINE
  5
387
330
20B
100
AcDbEntity
  8
0
  6
Continuous
 62
     7
100
AcDbLine
 10
9.066235820800001
 20
4.9780094496
 30
0.0
 11
8.9409604758
 21
5.0503355675
 31
0.0
  0
LINE
  5
388
330
20B
100
AcDbEntity
  8
0
  6
Continuous
 62
     7
100
AcDbLine
 10
7.688262613099999
 20
5.773564654099999
 30
0.0
 11
7.5629316807
 21
5.8459228647
 31
0.0
  0
LINE
  5
389
330
20B
100
AcDbEntity
  8
0
  6
Continuous
 62
     7
100
AcDbLine
 10
8.617530433999998
 20
5.986063258999999
 30
0.0
 11
8.6175547287
 21
5.982834656299999
 31
0.0
  0
LINE
  5
38A
330
20B
100
AcDbEntity
  8
0
  6
Continuous
 62
     7
100
AcDbLine
 10
8.5386311336
 20
7.1550247616
 30
0.0
 11
8.5386311336
 21
7.083318887599999
 31
0.0
  0
LINE
  5
38B
330
20B
100
AcDbEntity
  8
0
  6
Continuous
 62
     7
100
AcDbLine
 10
8.5929893623
 20
6.000231732799999
 30
0.0
 11
8.590217303500001
 21
5.940755193099999
 31
0.0
  0
LINE
  5
38C
330
20B
100
AcDbEntity
  8
0
  6
Continuous
 62
     7
100
AcDbLine
 10
8.6203386734
 20
5.984441957899999
 30
0.0
 11
8.6175547287
 21
5.982834656299999
 31
0.0
  0
LINE
  5
38D
330
20B
100
AcDbEntity
  8
0
  6
Continuous
 62
     7
100
AcDbLine
 10
9.190068977899999
 20
5.1941575697
 30
0.0
 11
9.315344322899999
 21
5.1218314518
 31
0.0
  0
LINE
  5
38E
330
20B
100
AcDbEntity
  8
0
  6
Continuous
 62
     7
100
AcDbLine
 10
8.781462645599999
 20
4.3661345355
 30
0.0
 11
8.7828518706
 21
4.334723599999999
 31
0.0
  0
LINE
  5
38F
330
20B
100
AcDbEntity
  8
0
  6
Continuous
 62
     7
100
AcDbLine
 10
8.8629443421
 20
4.266019643799999
 30
0.0
 11
8.864403320499999
 21
4.2330315568
 31
0.0
  0
LINE
  5
390
330
20B
100
AcDbEntity
  8
0
  6
Continuous
 62
     7
100
AcDbLine
 10
8.7808281172
 20
7.294856420599999
 30
0.0
 11
8.7808281172
 21
7.223150546599999
 31
0.0
  0
LINE
  5
391
330
20B
100
AcDbEntity
  8
0
  6
Continuous
 62
     7
100
AcDbLine
 10
8.807600703099998
 20
4.3944115723
 30
0.0
 11
8.807600703099998
 21
4.359045845099999
 31
0.0
  0
LINE
  5
392
330
20B
100
AcDbEntity
  8
0
  6
Continuous
 62
     7
100
AcDbLine
 10
7.7090862499
 20
5.271319196399999
 30
0.0
 11
7.5350927152
 21
5.170864582
 31
0.0
  0
LINE
  5
393
330
20B
100
AcDbEntity
  8
0
  6
Continuous
 62
     7
100
AcDbLine
 10
7.6706459661
 20
5.2169806118
 30
0.0
 11
7.5963381612
 21
5.174079236699999
 31
0.0
  0
LINE
  5
394
330
20B
100
AcDbEntity
  8
0
  6
Continuous
 62
     7
100
AcDbLine
 10
10.1677927565
 20
6.624355225199999
 30
0.0
 11
8.920617484600001
 21
5.904302544299999
 31
0.0
  0
LINE
  5
395
330
20B
100
AcDbEntity
  8
0
  6
Continuous
 62
     7
100
AcDbLine
 10
7.6715033682
 20
5.1306835659
 30
0.0
 11
7.7090862499
 21
5.1523819233
 31
0.0
  0
LINE
  5
396
330
20B
100
AcDbEntity
  8
0
  6
Continuous
 62
     7
100
AcDbLine
 10
8.920081251599999
 20
4.371259167099999
 30
0.0
 11
8.920081251599999
 21
4.9884578444
 31
0.0
  0
LINE
  5
397
330
20B
100
AcDbEntity
  8
0
  6
Continuous
 62
     7
100
AcDbLine
 10
8.920617484600001
 20
5.904302544299999
 30
0.0
 11
8.920617484600001
 21
5.8110798274
 31
0.0
  0
LINE
  5
398
330
20B
100
AcDbEntity
  8
0
  6
Continuous
 62
     7
100
AcDbLine
 10
8.9409604758
 20
5.0503355675
 30
0.0
 11
8.9409604758
 21
4.9764034916
 31
0.0
  0
LINE
  5
399
330
20B
100
AcDbEntity
  8
0
  6
Continuous
 62
     7
100
AcDbLine
 10
10.1677927565
 20
6.5311325083
 30
0.0
 11
8.920617484600001
 21
5.8110798274
 31
0.0
  0
LINE
  5
39A
330
20B
100
AcDbEntity
  8
0
  6
Continuous
 62
     7
100
AcDbLine
 10
10.1588569123
 20
6.4992691235
 30
0.0
 11
9.939051328099999
 21
6.372365067799999
 31
0.0
  0
LINE
  5
39B
330
20B
100
AcDbEntity
  8
0
  6
Continuous
 62
     7
100
AcDbLine
 10
9.916659928699999
 20
6.3594374644
 30
0.0
 11
9.6968543445
 21
6.2325334088
 31
0.0
  0
LINE
  5
39C
330
20B
100
AcDbEntity
  8
0
  6
Continuous
 62
     7
100
AcDbLine
 10
9.6744629451
 20
6.219605805399999
 30
0.0
 11
9.4546573609
 21
6.092701749799999
 31
0.0
  0
LINE
  5
39D
330
20B
100
AcDbEntity
  8
0
  6
Continuous
 62
     7
100
AcDbLine
 10
9.4322659615
 20
6.0797741464
 30
0.0
 11
9.212460377299999
 21
5.9528700908
 31
0.0
  0
LINE
  5
39E
330
20B
100
AcDbEntity
  8
0
  6
Continuous
 62
     7
100
AcDbLine
 10
9.190068977899999
 20
5.939942487399999
 30
0.0
 11
8.970263393699999
 21
5.813038431799999
 31
0.0
  0
LINE
  5
39F
330
20B
100
AcDbEntity
  8
0
  6
Continuous
 62
     7
100
AcDbLine
 10
9.09653585
 20
5.664668941299999
 30
0.0
 11
9.170581864199998
 21
5.681118488099999
 31
0.0
  0
LINE
  5
3A0
330
20B
100
AcDbEntity
  8
0
  6
Continuous
 62
     7
100
AcDbLine
 10
9.338732864299998
 20
5.804500718999999
 30
0.0
 11
9.4127788478
 21
5.8209501471
 31
0.0
  0
LINE
  5
3A1
330
20B
100
AcDbEntity
  8
0
  6
Continuous
 62
     7
100
AcDbLine
 10
9.4322659615
 20
5.3339892287
 30
0.0
 11
9.557541306499999
 21
5.261663110799999
 31
0.0
  0
LINE
  5
3A2
330
20B
100
AcDbEntity
  8
0
  6
Continuous
 62
     7
100
AcDbLine
 10
9.170581864199998
 20
5.5815174082
 30
0.0
 11
9.0955387387
 21
5.624842596799999
 31
0.0
  0
LINE
  5
3A3
330
20B
100
AcDbEntity
  8
0
  6
Continuous
 62
     7
100
AcDbLine
 10
9.066235820800001
 20
5.7237943673
 30
0.0
 11
9.066235820800001
 21
4.9780094496
 31
0.0
  0
LINE
  5
3A4
330
20B
100
AcDbEntity
  8
0
  6
Continuous
 62
     7
100
AcDbLine
 10
9.067951717899999
 20
4.374661428199999
 30
0.0
 11
9.067951717899999
 21
4.3244619745
 31
0.0
  0
LINE
  5
3A5
330
20B
100
AcDbEntity
  8
0
  6
Continuous
 62
     7
100
AcDbLine
 10
9.0940747863
 20
4.100433673899999
 30
0.0
 11
9.0940747863
 21
4.2708062255
 31
0.0
  0
LINE
  5
3A6
330
20B
100
AcDbEntity
  8
0
  6
Continuous
 62
     7
100
AcDbLine
 10
9.0955387387
 20
5.740712313799999
 30
0.0
 11
9.0955387387
 21
4.9949273961
 31
0.0
  0
LINE
  5
3A7
330
20B
100
AcDbEntity
  8
0
  6
Continuous
 62
     7
100
AcDbLine
 10
10.3134110927
 20
6.443847048099999
 30
0.0
 11
10.2841322573
 21
6.426943005499999
 31
0.0
  0
LINE
  5
3A8
330
20B
100
AcDbEntity
  8
0
  6
Continuous
 62
     7
100
AcDbLine
 10
10.0643266731
 20
6.3000389498
 30
0.0
 11
10.0419352737
 21
6.287111346499999
 31
0.0
  0
LINE
  5
3A9
330
20B
100
AcDbEntity
  8
0
  6
Continuous
 62
     7
100
AcDbLine
 10
9.8221296895
 20
6.1602072908
 30
0.0
 11
9.7997382901
 21
6.1472796875
 31
0.0
  0
LINE
  5
3AA
330
20B
100
AcDbEntity
  8
0
  6
Continuous
 62
     7
100
AcDbLine
 10
9.579932705900001
 20
6.020375631799999
 30
0.0
 11
9.557541306499999
 21
6.007448028499999
 31
0.0
  0
LINE
  5
3AB
330
20B
100
AcDbEntity
  8
0
  6
Continuous
 62
     7
100
AcDbLine
 10
9.337735722299999
 20
5.880543972799999
 30
0.0
 11
9.315344322899999
 21
5.8676163695
 31
0.0
  0
LINE
  5
3AC
330
20B
100
AcDbEntity
  8
0
  6
Continuous
 62
     7
100
AcDbLine
 10
9.0955387387
 20
5.740712313799999
 30
0.0
 11
9.066235820800001
 21
5.7237943673
 31
0.0
  0
LINE
  5
3AD
330
20B
100
AcDbEntity
  8
0
  6
Continuous
 62
     7
100
AcDbLine
 10
7.828795601499999
 20
4.970761885099999
 30
0.0
 11
7.7939950948
 21
4.9506699231
 31
0.0
  0
LINE
  5
3AE
330
20B
100
AcDbEntity
  8
0
  6
Continuous
 62
     7
100
AcDbLine
 10
7.7926036276
 20
4.8839671636
 30
0.0
 11
7.764764181
 21
4.8678941475
 31
0.0
  0
LINE
  5
3AF
330
20B
100
AcDbEntity
  8
0
  6
Continuous
 62
     7
100
AcDbLine
 10
9.580929848
 20
5.944332377999999
 30
0.0
 11
9.654975831499999
 21
5.960781806099999
 31
0.0
  0
LINE
  5
3B0
330
20B
100
AcDbEntity
  8
0
  6
Continuous
 62
     7
100
AcDbLine
 10
8.038977991699999
 20
6.2590061583
 30
0.0
 11
8.590217303500001
 21
5.940755193099999
 31
0.0
  0
LINE
  5
3B1
330
20B
100
AcDbEntity
  8
0
  6
Continuous
 62
     7
100
AcDbLine
 10
10.2800046122
 20
4.987644251699999
 30
0.0
 11
10.2048394052
 21
5.031039922399999
 31
0.0
  0
LINE
  5
3B2
330
20B
100
AcDbEntity
  8
0
  6
Continuous
 62
     7
100
AcDbLine
 10
7.5629316807
 20
6.5917077824
 30
0.0
 11
8.011612772799999
 21
6.3326674934
 31
0.0
  0
LINE
  5
3B3
330
20B
100
AcDbEntity
  8
0
  6
Continuous
 62
     7
100
AcDbLine
 10
8.6175547287
 20
5.982834656299999
 30
0.0
 11
9.066235820800001
 21
5.7237943673
 31
0.0
  0
LINE
  5
3B4
330
20B
100
AcDbEntity
  8
0
  6
Continuous
 62
     7
100
AcDbLine
 10
10.1672565236
 20
5.091311848
 30
0.0
 11
10.3412500583
 21
4.990858906399999
 31
0.0
  0
LINE
  5
3B5
330
20B
100
AcDbEntity
  8
0
  6
Continuous
 62
     7
100
AcDbLine
 10
8.920617484600001
 20
5.8110798274
 30
0.0
 11
8.617530433999998
 21
5.986063258999999
 31
0.0
  0
LINE
  5
3B6
330
20B
100
AcDbEntity
  8
0
  6
Continuous
 62
     7
100
AcDbLine
 10
8.5929893623
 20
6.000231732799999
 30
0.0
 11
8.036205932799999
 21
6.321683523499999
 31
0.0
  0
LINE
  5
3B7
330
20B
100
AcDbEntity
  8
0
  6
Continuous
 62
     7
100
AcDbLine
 10
8.0116370675
 20
6.3358680436
 30
0.0
 11
7.7085500169
 21
6.510851475199999
 31
0.0
  0
LINE
  5
3B8
330
20B
100
AcDbEntity
  8
0
  6
Continuous
 62
     7
100
AcDbLine
 10
7.5922345986
 20
6.608625728999999
 30
0.0
 11
7.7085500169
 21
6.5414725101
 31
0.0
  0
LINE
  5
3B9
330
20B
100
AcDbEntity
  8
0
  6
Continuous
 62
     7
100
AcDbLine
 10
8.970263393699999
 20
5.813038431799999
 30
0.0
 11
9.0955387387
 21
5.740712313799999
 31
0.0
  0
LINE
  5
3BA
330
20B
100
AcDbEntity
  8
0
  6
Continuous
 62
     7
100
AcDbLine
 10
7.7085500169
 20
6.6040741921
 30
0.0
 11
8.920617484600001
 21
5.904302544299999
 31
0.0
  0
LINE
  5
3BB
330
20B
100
AcDbEntity
  8
0
  6
Continuous
 62
     7
100
AcDbLine
 10
9.170581864199998
 20
5.5815174082
 30
0.0
 11
9.170581864199998
 21
5.681118488099999
 31
0.0
  0
LINE
  5
3BC
330
20B
100
AcDbEntity
  8
0
  6
Continuous
 62
     7
100
AcDbLine
 10
9.190068977899999
 20
5.939942487399999
 30
0.0
 11
9.190068977899999
 21
5.1941575697
 31
0.0
  0
LINE
  5
3BD
330
20B
100
AcDbEntity
  8
0
  6
Continuous
 62
     7
100
AcDbLine
 10
7.9218379485
 20
4.905792803299999
 30
0.0
 11
7.8750605396
 21
4.8787860148
 31
0.0
  0
LINE
  5
3BE
330
20B
100
AcDbEntity
  8
0
  6
Continuous
 62
     7
100
AcDbLine
 10
7.9566535948
 20
4.8856925361
 30
0.0
 11
7.873135056399999
 21
4.837473373299999
 31
0.0
  0
LINE
  5
3BF
330
20B
100
AcDbEntity
  8
0
  6
Continuous
 62
     7
100
AcDbLine
 10
9.0955387387
 20
5.538191498099999
 30
0.0
 11
9.170581864199998
 21
5.5815174082
 31
0.0
  0
LINE
  5
3C0
330
20B
100
AcDbEntity
  8
0
  6
Continuous
 62
     7
100
AcDbLine
 10
9.337735722299999
 20
5.6780231571
 30
0.0
 11
9.4127788478
 21
5.7213490672
 31
0.0
  0
LINE
  5
3C1
330
20B
100
AcDbEntity
  8
0
  6
Continuous
 62
     7
100
AcDbLine
 10
9.579932705900001
 20
5.8178548161
 30
0.0
 11
9.654975831499999
 21
5.861180726199999
 31
0.0
  0
LINE
  5
3C2
330
20B
100
AcDbEntity
  8
0
  6
Continuous
 62
     7
100
AcDbLine
 10
9.8221296895
 20
5.9576864751
 30
0.0
 11
9.897172815099999
 21
6.0010123852
 31
0.0
  0
LINE
  5
3C3
330
20B
100
AcDbEntity
  8
0
  6
Continuous
 62
     7
100
AcDbLine
 10
10.0643266731
 20
6.097518134099999
 30
0.0
 11
10.1393697987
 21
6.140844044199999
 31
0.0
  0
LINE
  5
3C4
330
20B
100
AcDbEntity
  8
0
  6
Continuous
 62
     7
100
AcDbLine
 10
10.0652326366
 20
6.223815012899999
 30
0.0
 11
10.1393697987
 21
6.240445122999999
 31
0.0
  0
LINE
  5
3C5
330
20B
100
AcDbEntity
  8
0
  6
Continuous
 62
     7
100
AcDbLine
 10
9.823126831599999
 20
6.084164037
 30
0.0
 11
9.897172815099999
 21
6.100613465099999
 31
0.0
  0
LINE
  5
3C6
330
20B
100
AcDbEntity
  8
0
  6
Continuous
 62
     7
100
AcDbLine
 10
9.6744629451
 20
5.473820887699999
 30
0.0
 11
9.7997382901
 21
5.4014947698
 31
0.0
  0
LINE
  5
3C7
330
20B
100
AcDbEntity
  8
0
  6
Continuous
 62
     7
100
AcDbLine
 10
9.4127788478
 20
5.7213490672
 30
0.0
 11
9.337735722299999
 21
5.7646742558
 31
0.0
  0
LINE
  5
3C8
330
20B
100
AcDbEntity
  8
0
  6
Continuous
 62
     7
100
AcDbLine
 10
9.315344322899999
 20
5.1218314518
 30
0.0
 11
9.315344322899999
 21
5.8676163695
 31
0.0
  0
LINE
  5
3C9
330
20B
100
AcDbEntity
  8
0
  6
Continuous
 62
     7
100
AcDbLine
 10
9.337735722299999
 20
5.880543972799999
 30
0.0
 11
9.337735722299999
 21
5.134759055099999
 31
0.0
  0
LINE
  5
3CA
330
20B
100
AcDbEntity
  8
0
  6
Continuous
 62
     7
100
AcDbLine
 10
9.315344322899999
 20
5.8676163695
 30
0.0
 11
9.190068977899999
 21
5.939942487399999
 31
0.0
  0
LINE
  5
3CB
330
20B
100
AcDbEntity
  8
0
  6
Continuous
 62
     7
100
AcDbLine
 10
7.874140179099999
 20
6.699677146099999
 30
0.0
 11
7.812040182799999
 21
6.7355297846
 31
0.0
  0
LINE
  5
3CC
330
20B
100
AcDbEntity
  8
0
  6
Continuous
 62
     7
100
AcDbLine
 10
7.8344315822
 20
6.748457387999999
 30
0.0
 11
7.8965315786
 21
6.7126047495
 31
0.0
  0
LINE
  5
3CD
330
20B
100
AcDbEntity
  8
0
  6
Continuous
 62
     7
100
AcDbLine
 10
9.212460377299999
 20
5.9528700908
 30
0.0
 11
9.337735722299999
 21
5.880543972799999
 31
0.0
  0
LINE
  5
3CE
330
20B
100
AcDbEntity
  8
0
  6
Continuous
 62
     7
100
AcDbLine
 10
9.916659928699999
 20
5.613652546699999
 30
0.0
 11
10.0419352737
 21
5.541326428799999
 31
0.0
  0
LINE
  5
3CF
330
20B
100
AcDbEntity
  8
0
  6
Continuous
 62
     7
100
AcDbLine
 10
9.4127788478
 20
5.7213490672
 30
0.0
 11
9.4127788478
 21
5.8209501471
 31
0.0
  0
LINE
  5
3D0
330
20B
100
AcDbEntity
  8
0
  6
Continuous
 62
     7
100
AcDbLine
 10
9.4322659615
 20
6.0797741464
 30
0.0
 11
9.4322659615
 21
5.3339892287
 31
0.0
  0
LINE
  5
3D1
330
20B
100
AcDbEntity
  8
0
  6
Continuous
 62
     7
100
AcDbLine
 10
9.654975831499999
 20
5.861180726199999
 30
0.0
 11
9.579932705900001
 21
5.9045059148
 31
0.0
  0
LINE
  5
3D2
330
20B
100
AcDbEntity
  8
0
  6
Continuous
 62
     7
100
AcDbLine
 10
9.557541306499999
 20
6.007448028499999
 30
0.0
 11
9.4322659615
 21
6.0797741464
 31
0.0
  0
LINE
  5
3D3
330
20B
100
AcDbEntity
  8
0
  6
Continuous
 62
     7
100
AcDbLine
 10
8.116337162699998
 20
6.839508805099999
 30
0.0
 11
8.0542371664
 21
6.8753614436
 31
0.0
  0
LINE
  5
3D4
330
20B
100
AcDbEntity
  8
0
  6
Continuous
 62
     7
100
AcDbLine
 10
8.0766285658
 20
6.888289047
 30
0.0
 11
8.1387285622
 21
6.8524364085
 31
0.0
  0
LINE
  5
3D5
330
20B
100
AcDbEntity
  8
0
  6
Continuous
 62
     7
100
AcDbLine
 10
9.4546573609
 20
6.092701749799999
 30
0.0
 11
9.579932705900001
 21
6.020375631799999
 31
0.0
  0
LINE
  5
3D6
330
20B
100
AcDbEntity
  8
0
  6
Continuous
 62
     7
100
AcDbLine
 10
9.557541306499999
 20
5.261663110799999
 30
0.0
 11
9.557541306499999
 21
6.007448028499999
 31
0.0
  0
LINE
  5
3D7
330
20B
100
AcDbEntity
  8
0
  6
Continuous
 62
     7
100
AcDbLine
 10
9.579932705900001
 20
6.020375631799999
 30
0.0
 11
9.579932705900001
 21
5.2745907141
 31
0.0
  0
LINE
  5
3D8
330
20B
100
AcDbEntity
  8
0
  6
Continuous
 62
     7
100
AcDbLine
 10
9.654975831499999
 20
5.861180726199999
 30
0.0
 11
9.654975831499999
 21
5.960781806099999
 31
0.0
  0
LINE
  5
3D9
330
20B
100
AcDbEntity
  8
0
  6
Continuous
 62
     7
100
AcDbLine
 10
10.1881357477
 20
5.696456172499999
 30
0.0
 11
10.0643266731
 21
5.6249753966
 31
0.0
  0
LINE
  5
3DA
330
20B
100
AcDbEntity
  8
0
  6
Continuous
 62
     7
100
AcDbLine
 10
9.980687899899999
 20
5.576686816599999
 30
0.0
 11
9.8221296895
 21
5.485143737599999
 31
0.0
  0
LINE
  5
3DB
330
20B
100
AcDbEntity
  8
0
  6
Continuous
 62
     7
100
AcDbLine
 10
9.738490916299999
 20
5.4368551576
 30
0.0
 11
9.579932705900001
 21
5.3453120786
 31
0.0
  0
LINE
  5
3DC
330
20B
100
AcDbEntity
  8
0
  6
Continuous
 62
     7
100
AcDbLine
 10
9.4962939326
 20
5.297023498599999
 30
0.0
 11
9.337735722299999
 21
5.205480419599999
 31
0.0
  0
LINE
  5
3DD
330
20B
100
AcDbEntity
  8
0
  6
Continuous
 62
     7
100
AcDbLine
 10
9.254096948999999
 20
5.157191839599999
 30
0.0
 11
9.0955387387
 21
5.0656487606
 31
0.0
  0
LINE
  5
3DE
330
20B
100
AcDbEntity
  8
0
  6
Continuous
 62
     7
100
AcDbLine
 10
9.004988447
 20
5.013369837399999
 30
0.0
 11
8.9409604758
 21
4.9764034916
 31
0.0
  0
LINE
  5
3DF
330
20B
100
AcDbEntity
  8
0
  6
Continuous
 62
     7
100
AcDbLine
 10
10.3134110927
 20
5.698062130399999
 30
0.0
 11
10.2841322573
 21
5.6811580878
 31
0.0
  0
LINE
  5
3E0
330
20B
100
AcDbEntity
  8
0
  6
Continuous
 62
     7
100
AcDbLine
 10
10.0643266731
 20
5.5542540321
 30
0.0
 11
10.0419352737
 21
5.541326428799999
 31
0.0
  0
LINE
  5
3E1
330
20B
100
AcDbEntity
  8
0
  6
Continuous
 62
     7
100
AcDbLine
 10
9.8221296895
 20
5.414422373099999
 30
0.0
 11
9.7997382901
 21
5.4014947698
 31
0.0
  0
LINE
  5
3E2
330
20B
100
AcDbEntity
  8
0
  6
Continuous
 62
     7
100
AcDbLine
 10
9.579932705900001
 20
5.2745907141
 30
0.0
 11
9.557541306499999
 21
5.261663110799999
 31
0.0
  0
LINE
  5
3E3
330
20B
100
AcDbEntity
  8
0
  6
Continuous
 62
     7
100
AcDbLine
 10
9.337735722299999
 20
5.134759055099999
 30
0.0
 11
9.315344322899999
 21
5.1218314518
 31
0.0
  0
LINE
  5
3E4
330
20B
100
AcDbEntity
  8
0
  6
Continuous
 62
     7
100
AcDbLine
 10
9.0955387387
 20
4.9949273961
 30
0.0
 11
9.066235820800001
 21
4.9780094496
 31
0.0
  0
LINE
  5
3E5
330
20B
100
AcDbEntity
  8
0
  6
Continuous
 62
     7
100
AcDbLine
 10
10.1588569123
 20
5.7534842057
 30
0.0
 11
10.2841322573
 21
5.6811580878
 31
0.0
  0
LINE
  5
3E6
330
20B
100
AcDbEntity
  8
0
  6
Continuous
 62
     7
100
AcDbLine
 10
9.897172815099999
 20
6.0010123852
 30
0.0
 11
9.8221296895
 21
6.0443375738
 31
0.0
  0
LINE
  5
3E7
330
20B
100
AcDbEntity
  8
0
  6
Continuous
 62
     7
100
AcDbLine
 10
9.6744629451
 20
6.219605805399999
 30
0.0
 11
9.6744629451
 21
5.473820887699999
 31
0.0
  0
LINE
  5
3E8
330
20B
100
AcDbEntity
  8
0
  6
Continuous
 62
     7
100
AcDbLine
 10
9.7997382901
 20
5.4014947698
 30
0.0
 11
9.7997382901
 21
6.1472796875
 31
0.0
  0
LINE
  5
3E9
330
20B
100
AcDbEntity
  8
0
  6
Continuous
 62
     7
100
AcDbLine
 10
9.7997382901
 20
6.1472796875
 30
0.0
 11
9.6744629451
 21
6.219605805399999
 31
0.0
  0
LINE
  5
3EA
330
20B
100
AcDbEntity
  8
0
  6
Continuous
 62
     7
100
AcDbLine
 10
8.3585341463
 20
6.979340464099999
 30
0.0
 11
8.296434149999999
 21
7.015193102599999
 31
0.0
  0
LINE
  5
3EB
330
20B
100
AcDbEntity
  8
0
  6
Continuous
 62
     7
100
AcDbLine
 10
8.318825549499999
 20
7.028120706
 30
0.0
 11
8.3809255458
 21
6.9922680675
 31
0.0
  0
LINE
  5
3EC
330
20B
100
AcDbEntity
  8
0
  6
Continuous
 62
     7
100
AcDbLine
 10
9.6968543445
 20
6.2325334088
 30
0.0
 11
9.8221296895
 21
6.1602072908
 31
0.0
  0
LINE
  5
3ED
330
20B
100
AcDbEntity
  8
0
  6
Continuous
 62
     7
100
AcDbLine
 10
9.8221296895
 20
6.1602072908
 30
0.0
 11
9.8221296895
 21
5.414422373099999
 31
0.0
  0
LINE
  5
3EE
330
20B
100
AcDbEntity
  8
0
  6
Continuous
 62
     7
100
AcDbLine
 10
9.897172815099999
 20
6.0010123852
 30
0.0
 11
9.897172815099999
 21
6.100613465099999
 31
0.0
  0
LINE
  5
3EF
330
20B
100
AcDbEntity
  8
0
  6
Continuous
 62
     7
100
AcDbLine
 10
9.916659928699999
 20
6.3594374644
 30
0.0
 11
9.916659928699999
 21
5.613652546699999
 31
0.0
  0
LINE
  5
3F0
330
20B
100
AcDbEntity
  8
0
  6
Continuous
 62
     7
100
AcDbLine
 10
10.1393697987
 20
6.140844044199999
 30
0.0
 11
10.0643266731
 21
6.184169232799999
 31
0.0
  0
LINE
  5
3F1
330
20B
100
AcDbEntity
  8
0
  6
Continuous
 62
     7
100
AcDbLine
 10
10.0419352737
 20
5.541326428799999
 30
0.0
 11
10.0419352737
 21
6.287111346499999
 31
0.0
  0
LINE
  5
3F2
330
20B
100
AcDbEntity
  8
0
  6
Continuous
 62
     7
100
AcDbLine
 10
10.0643266731
 20
6.3000389498
 30
0.0
 11
10.0643266731
 21
5.5542540321
 31
0.0
  0
LINE
  5
3F3
330
20B
100
AcDbEntity
  8
0
  6
Continuous
 62
     7
100
AcDbLine
 10
8.807600703099998
 20
4.381225259999999
 30
0.0
 11
8.781462645599999
 21
4.3661345355
 31
0.0
  0
LINE
  5
3F4
330
20B
100
AcDbEntity
  8
0
  6
Continuous
 62
     7
100
AcDbLine
 10
10.1672565236
 20
5.091311848
 30
0.0
 11
8.920081251599999
 21
4.371259167099999
 31
0.0
  0
LINE
  5
3F5
330
20B
100
AcDbEntity
  8
0
  6
Continuous
 62
     7
100
AcDbLine
 10
10.0419352737
 20
6.287111346499999
 30
0.0
 11
9.916659928699999
 21
6.3594374644
 31
0.0
  0
LINE
  5
3F6
330
20B
100
AcDbEntity
  8
0
  6
Continuous
 62
     7
100
AcDbLine
 10
8.600731129999999
 20
7.119172123099999
 30
0.0
 11
8.5386311336
 21
7.1550247616
 31
0.0
  0
LINE
  5
3F7
330
20B
100
AcDbEntity
  8
0
  6
Continuous
 62
     7
100
AcDbLine
 10
8.561022533099999
 20
7.167952364999999
 30
0.0
 11
8.623122529399999
 21
7.132099726499999
 31
0.0
  0
LINE
  5
3F8
330
20B
100
AcDbEntity
  8
0
  6
Continuous
 62
     7
100
AcDbLine
 10
9.939051328099999
 20
6.372365067799999
 30
0.0
 11
10.0643266731
 21
6.3000389498
 31
0.0
  0
LINE
  5
3F9
330
20B
100
AcDbEntity
  8
0
  6
Continuous
 62
     7
100
AcDbLine
 10
10.1393697987
 20
6.140844044199999
 30
0.0
 11
10.1393697987
 21
6.240445122999999
 31
0.0
  0
LINE
  5
3FA
330
20B
100
AcDbEntity
  8
0
  6
Continuous
 62
     7
100
AcDbLine
 10
10.1588569123
 20
6.4992691235
 30
0.0
 11
10.1588569123
 21
5.7534842057
 31
0.0
  0
LINE
  5
3FB
330
20B
100
AcDbEntity
  8
0
  6
Continuous
 62
     7
100
AcDbLine
 10
10.1613647816
 20
5.0059399866
 30
0.0
 11
10.1613647816
 21
4.914849877199999
 31
0.0
  0
LINE
  5
3FC
330
20B
100
AcDbEntity
  8
0
  6
Continuous
 62
     7
100
AcDbLine
 10
10.1672565236
 20
5.684401618699999
 30
0.0
 11
10.1672565236
 21
5.091311848
 31
0.0
  0
LINE
  5
3FD
330
20B
100
AcDbEntity
  8
0
  6
Continuous
 62
     7
100
AcDbLine
 10
10.1677927565
 20
6.5311325083
 30
0.0
 11
10.1677927565
 21
6.624355225199999
 31
0.0
  0
LINE
  5
3FE
330
20B
100
AcDbEntity
  8
0
  6
Continuous
 62
     7
100
AcDbLine
 10
10.1881357477
 20
5.696456172499999
 30
0.0
 11
10.1881357477
 21
5.7365804446
 31
0.0
  0
LINE
  5
3FF
330
20B
100
AcDbEntity
  8
0
  6
Continuous
 62
     7
100
AcDbLine
 10
10.2048394052
 20
4.9436862018
 30
0.0
 11
10.2048394052
 21
5.031039922399999
 31
0.0
  0
LINE
  5
400
330
20B
100
AcDbEntity
  8
0
  6
Continuous
 62
     7
100
AcDbLine
 10
10.2048394052
 20
5.031039922399999
 30
0.0
 11
10.1613647816
 21
5.0059399866
 31
0.0
  0
LINE
  5
401
330
20B
100
AcDbEntity
  8
0
  6
Continuous
 62
     7
100
AcDbLine
 10
9.067951717899999
 20
4.374661428199999
 30
0.0
 11
9.024477094299999
 21
4.3495614923
 31
0.0
  0
LINE
  5
402
330
20B
100
AcDbEntity
  8
0
  6
Continuous
 62
     7
100
AcDbLine
 10
9.099642301299999
 20
4.3061658216
 30
0.0
 11
9.173950106199999
 21
4.3490671967
 31
0.0
  0
LINE
  5
403
330
20B
100
AcDbEntity
  8
0
  6
Continuous
 62
     7
100
AcDbLine
 10
10.2056968073
 20
4.9447428766
 30
0.0
 11
10.2800046122
 21
4.987644251699999
 31
0.0
  0
LINE
  5
404
330
20B
100
AcDbEntity
  8
0
  6
Continuous
 62
     7
100
AcDbLine
 10
10.2841322573
 20
6.426943005499999
 30
0.0
 11
10.1588569123
 21
6.4992691235
 31
0.0
  0
LINE
  5
405
330
20B
100
AcDbEntity
  8
0
  6
Continuous
 62
     7
100
AcDbLine
 10
8.842928113599999
 20
7.2590037821
 30
0.0
 11
8.7808281172
 21
7.294856420599999
 31
0.0
  0
LINE
  5
406
330
20B
100
AcDbEntity
  8
0
  6
Continuous
 62
     7
100
AcDbLine
 10
10.2841322573
 20
5.6811580878
 30
0.0
 11
10.2841322573
 21
6.426943005499999
 31
0.0
  0
LINE
  5
407
330
20B
100
AcDbEntity
  8
0
  6
Continuous
 62
     7
100
AcDbLine
 10
10.3134110927
 20
5.698062130399999
 30
0.0
 11
10.3134110927
 21
6.443847048099999
 31
0.0
  0
LINE
  5
408
330
20B
100
AcDbEntity
  8
0
  6
Continuous
 62
     7
100
AcDbLine
 10
10.3412500583
 20
4.990858906399999
 30
0.0
 11
10.3412500583
 21
4.820486354799999
 31
0.0
  0
LINE
  5
409
330
20B
100
AcDbEntity
  8
0
  6
Continuous
 62
     7
100
AcDbLine
 10
10.3412500583
 20
4.990858906399999
 30
0.0
 11
9.0940747863
 21
4.2708062255
 31
0.0
  0
LINE
  5
40A
330
20B
100
AcDbEntity
  8
0
  6
Continuous
 62
     7
100
AcDbLine
 10
10.3134110927
 20
6.443847048099999
 30
0.0
 11
10.1650088118
 21
6.529525206599999
 31
0.0
  0
LINE
  5
40B
330
20B
100
AcDbEntity
  8
0
  6
Continuous
 62
     7
100
AcDbLine
 10
8.872206949
 20
7.275907824699999
 30
0.0
 11
8.810106952599999
 21
7.3117604633
 31
0.0
  0
LINE
  5
40C
330
20B
100
AcDbEntity
  8
0
  6
Continuous
 62
     7
100
AcDbLine
 10
10.1677927565
 20
6.624355225199999
 30
0.0
 11
8.9557252889
 21
7.324126872899999
 31
0.0
  0
LINE
  5
40D
330
20B
100
AcDbEntity
  8
0
  6
Continuous
 62
     7
100
AcDbLine
 10
10.3412500583
 20
4.820486354799999
 30
0.0
 11
9.0940747863
 21
4.100433673899999
 31
0.0
  0
CIRCLE
  5
40E
330
20B
100
AcDbEntity
  8
0
  6
Continuous
 62
     7
100
AcDbCircle
 10
1.407189556899999
 20
5.885273129899999
 30
0.0
 40
0.1445945386
  0
CIRCLE
  5
40F
330
20B
100
AcDbEntity
  8
0
  6
Continuous
 62
     7
100
AcDbCircle
 10
1.422937588399999
 20
6.227792814999999
 30
0.0
 40
0.1445945386
  0
ARC
  5
410
330
20B
100
AcDbEntity
  8
0
  6
Continuous
 62
     7
100
AcDbCircle
 10
1.4229373728
 20
6.5703118947
 30
0.0
 40
0.1220471917
100
AcDbArc
 50
0.0002841512
 51
179.9997158478
  0
CIRCLE
  5
411
330
20B
100
AcDbEntity
  8
0
  6
Continuous
 62
     7
100
AcDbCircle
 10
1.422937381299999
 20
6.2277933859
 30
0.0
 40
0.1220471654
  0
CIRCLE
  5
412
330
20B
100
AcDbEntity
  8
0
  6
Continuous
 62
     7
100
AcDbCircle
 10
1.422937381299999
 20
5.8852737009
 30
0.0
 40
0.1220471654
  0
ARC
  5
413
330
20B
100
AcDbEntity
  8
0
  6
Continuous
 62
     7
100
AcDbCircle
 10
1.422936043899999
 20
6.5703123938
 30
0.0
 40
0.1150515102
100
AcDbArc
 50
0.0000528924
 51
7.867288443999999
  0
ARC
  5
414
330
20B
100
AcDbEntity
  8
0
  6
Continuous
 62
     7
100
AcDbCircle
 10
1.4229391327
 20
6.5703123938
 30
0.0
 40
0.1150515099
100
AcDbArc
 50
172.1327115455
 51
179.9999471181
  0
ARC
  5
415
330
20B
100
AcDbEntity
  8
0
  6
Continuous
 62
     7
100
AcDbCircle
 10
1.422936044199999
 20
6.227792921099999
 30
0.0
 40
0.1150515099
100
AcDbArc
 50
352.1327115455
 51
7.867288443999999
  0
ARC
  5
416
330
20B
100
AcDbEntity
  8
0
  6
Continuous
 62
     7
100
AcDbCircle
 10
1.422936044199999
 20
5.885273236099999
 30
0.0
 40
0.1150515099
100
AcDbArc
 50
352.1327115455
 51
7.867288443999999
  0
ARC
  5
417
330
20B
100
AcDbEntity
  8
0
  6
Continuous
 62
     7
100
AcDbCircle
 10
1.4229389874
 20
6.2277929196
 30
0.0
 40
0.1150513646
100
AcDbArc
 50
172.1327115455
 51
187.8672976845
  0
ARC
  5
418
330
20B
100
AcDbEntity
  8
0
  6
Continuous
 62
     7
100
AcDbCircle
 10
1.4229389874
 20
5.8852732346
 30
0.0
 40
0.1150513646
100
AcDbArc
 50
172.1327115455
 51
187.8672976845
  0
ARC
  5
419
330
20B
100
AcDbEntity
  8
0
  6
Continuous
 62
     7
100
AcDbCircle
 10
1.422937588399999
 20
6.227792814999999
 30
0.0
 40
0.1111511045
100
AcDbArc
 50
188.1445657498
 51
351.8539179933
  0
ARC
  5
41A
330
20B
100
AcDbEntity
  8
0
  6
Continuous
 62
     7
100
AcDbCircle
 10
1.422937588399999
 20
5.885273129899999
 30
0.0
 40
0.1111511045
100
AcDbArc
 50
188.1445657498
 51
351.8539179933
  0
ARC
  5
41B
330
20B
100
AcDbEntity
  8
0
  6
Continuous
 62
     7
100
AcDbCircle
 10
1.422937588399999
 20
6.227792814999999
 30
0.0
 40
0.1111511035
100
AcDbArc
 50
8.1460820067
 51
171.8554342502
  0
ARC
  5
41C
330
20B
100
AcDbEntity
  8
0
  6
Continuous
 62
     7
100
AcDbCircle
 10
1.422937588399999
 20
5.885273129899999
 30
0.0
 40
0.1111511035
100
AcDbArc
 50
8.1460820067
 51
171.8554342502
  0
ARC
  5
41D
330
20B
100
AcDbEntity
  8
0
  6
Continuous
 62
     7
100
AcDbCircle
 10
1.422937588399999
 20
6.227792814999999
 30
0.0
 40
0.0955364293
100
AcDbArc
 50
9.487682161799998
 51
170.5123178382
  0
ARC
  5
41E
330
20B
100
AcDbEntity
  8
0
  6
Continuous
 62
     7
100
AcDbCircle
 10
1.422937588399999
 20
5.885273129899999
 30
0.0
 40
0.0955364293
100
AcDbArc
 50
9.487682161799998
 51
170.5123178382
  0
ARC
  5
41F
330
20B
100
AcDbEntity
  8
0
  6
Continuous
 62
     7
100
AcDbCircle
 10
1.422937588399999
 20
6.227792814999999
 30
0.0
 40
0.0955364249
100
AcDbArc
 50
189.4876821618
 51
350.5123178382
  0
ARC
  5
420
330
20B
100
AcDbEntity
  8
0
  6
Continuous
 62
     7
100
AcDbCircle
 10
1.422937588399999
 20
5.885273129899999
 30
0.0
 40
0.0955364249
100
AcDbArc
 50
189.4876821618
 51
350.5123178382
  0
ARC
  5
421
330
20B
100
AcDbEntity
  8
0
  6
Continuous
 62
     7
100
AcDbCircle
 10
1.029236800999999
 20
5.881336122
 30
0.0
 40
0.0885826772
100
AcDbArc
 50
288.1262039606
 51
207.2660444507
  0
CIRCLE
  5
422
330
20B
100
AcDbEntity
  8
0
  6
Continuous
 62
     7
100
AcDbCircle
 10
1.422937588399999
 20
6.5703125
 30
0.0
 40
0.1445945386
  0
CIRCLE
  5
423
330
20B
100
AcDbEntity
  8
0
  6
Continuous
 62
     7
100
AcDbCircle
 10
1.422937588399999
 20
6.912832185
 30
0.0
 40
0.1445945386
  0
CIRCLE
  5
424
330
20B
100
AcDbEntity
  8
0
  6
Continuous
 62
     7
100
AcDbCircle
 10
1.422937588399999
 20
7.2553518701
 30
0.0
 40
0.1445945386
  0
ARC
  5
425
330
20B
100
AcDbEntity
  8
0
  6
Continuous
 62
     7
100
AcDbCircle
 10
1.422937381299999
 20
6.570313071
 30
0.0
 40
0.1220471654
100
AcDbArc
 50
180.0002680394
 51
359.9997319616001
  0
CIRCLE
  5
426
330
20B
100
AcDbEntity
  8
0
  6
Continuous
 62
     7
100
AcDbCircle
 10
1.422937381299999
 20
6.912832756
 30
0.0
 40
0.1220471654
  0
CIRCLE
  5
427
330
20B
100
AcDbEntity
  8
0
  6
Continuous
 62
     7
100
AcDbCircle
 10
1.422937381299999
 20
7.255352441
 30
0.0
 40
0.1220471654
  0
ARC
  5
428
330
20B
100
AcDbEntity
  8
0
  6
Continuous
 62
     7
100
AcDbCircle
 10
1.422936044199999
 20
6.570312606199999
 30
0.0
 40
0.1150515099
100
AcDbArc
 50
352.1327115455
 51
359.9999471180999
  0
ARC
  5
429
330
20B
100
AcDbEntity
  8
0
  6
Continuous
 62
     7
100
AcDbCircle
 10
1.422936044199999
 20
6.912832291199999
 30
0.0
 40
0.1150515099
100
AcDbArc
 50
352.1327115455
 51
7.867288443999999
  0
ARC
  5
42A
330
20B
100
AcDbEntity
  8
0
  6
Continuous
 62
     7
100
AcDbCircle
 10
1.422936044199999
 20
7.2553519763
 30
0.0
 40
0.1150515099
100
AcDbArc
 50
352.1327115455
 51
7.867288443999999
  0
ARC
  5
42B
330
20B
100
AcDbEntity
  8
0
  6
Continuous
 62
     7
100
AcDbCircle
 10
1.4229389874
 20
6.5703126047
 30
0.0
 40
0.1150513646
100
AcDbArc
 50
180.0000521197
 51
187.8672976845
  0
ARC
  5
42C
330
20B
100
AcDbEntity
  8
0
  6
Continuous
 62
     7
100
AcDbCircle
 10
1.4229389874
 20
6.912832289699999
 30
0.0
 40
0.1150513646
100
AcDbArc
 50
172.1327115455
 51
187.8672976845
  0
ARC
  5
42D
330
20B
100
AcDbEntity
  8
0
  6
Continuous
 62
     7
100
AcDbCircle
 10
1.4229389874
 20
7.255351974699999
 30
0.0
 40
0.1150513646
100
AcDbArc
 50
172.1327115455
 51
187.8672976845
  0
ARC
  5
42E
330
20B
100
AcDbEntity
  8
0
  6
Continuous
 62
     7
100
AcDbCircle
 10
1.422937588399999
 20
6.5703125
 30
0.0
 40
0.1111511045
100
AcDbArc
 50
188.1445657498
 51
351.8539179933
  0
ARC
  5
42F
330
20B
100
AcDbEntity
  8
0
  6
Continuous
 62
     7
100
AcDbCircle
 10
1.422937588399999
 20
6.912832185
 30
0.0
 40
0.1111511045
100
AcDbArc
 50
188.1445657498
 51
351.8539179933
  0
ARC
  5
430
330
20B
100
AcDbEntity
  8
0
  6
Continuous
 62
     7
100
AcDbCircle
 10
1.422937588399999
 20
7.2553518701
 30
0.0
 40
0.1111511045
100
AcDbArc
 50
188.1445657498
 51
351.8539179933
  0
ARC
  5
431
330
20B
100
AcDbEntity
  8
0
  6
Continuous
 62
     7
100
AcDbCircle
 10
1.422937588399999
 20
6.5703125
 30
0.0
 40
0.1111511035
100
AcDbArc
 50
8.1460820067
 51
171.8554342502
  0
ARC
  5
432
330
20B
100
AcDbEntity
  8
0
  6
Continuous
 62
     7
100
AcDbCircle
 10
1.422937588399999
 20
6.912832185
 30
0.0
 40
0.1111511035
100
AcDbArc
 50
8.1460820067
 51
171.8554342502
  0
ARC
  5
433
330
20B
100
AcDbEntity
  8
0
  6
Continuous
 62
     7
100
AcDbCircle
 10
1.422937588399999
 20
7.2553518701
 30
0.0
 40
0.1111511035
100
AcDbArc
 50
8.1460820067
 51
171.8554342502
  0
ARC
  5
434
330
20B
100
AcDbEntity
  8
0
  6
Continuous
 62
     7
100
AcDbCircle
 10
1.422937588399999
 20
6.5703125
 30
0.0
 40
0.0955364293
100
AcDbArc
 50
9.487682161799998
 51
170.5123178382
  0
ARC
  5
435
330
20B
100
AcDbEntity
  8
0
  6
Continuous
 62
     7
100
AcDbCircle
 10
1.422937588399999
 20
6.912832185
 30
0.0
 40
0.0955364293
100
AcDbArc
 50
9.487682161799998
 51
170.5123178382
  0
ARC
  5
436
330
20B
100
AcDbEntity
  8
0
  6
Continuous
 62
     7
100
AcDbCircle
 10
1.422937588399999
 20
7.2553518701
 30
0.0
 40
0.0955364293
100
AcDbArc
 50
9.487682161799998
 51
170.5123178382
  0
ARC
  5
437
330
20B
100
AcDbEntity
  8
0
  6
Continuous
 62
     7
100
AcDbCircle
 10
1.422937588399999
 20
6.5703125
 30
0.0
 40
0.0955364249
100
AcDbArc
 50
189.4876821618
 51
350.5123178382
  0
ARC
  5
438
330
20B
100
AcDbEntity
  8
0
  6
Continuous
 62
     7
100
AcDbCircle
 10
1.422937588399999
 20
6.912832185
 30
0.0
 40
0.0955364249
100
AcDbArc
 50
189.4876821618
 51
350.5123178382
  0
ARC
  5
439
330
20B
100
AcDbEntity
  8
0
  6
Continuous
 62
     7
100
AcDbCircle
 10
1.422937588399999
 20
7.2553518701
 30
0.0
 40
0.0955364249
100
AcDbArc
 50
189.4876821618
 51
350.5123178382
  0
ARC
  5
43A
330
20B
100
AcDbEntity
  8
0
  6
Continuous
 62
     7
100
AcDbCircle
 10
1.029236800999999
 20
7.259288877999999
 30
0.0
 40
0.0885826772
100
AcDbArc
 50
152.7339555493
 51
71.87379603939999
  0
CIRCLE
  5
43B
330
20B
100
AcDbEntity
  8
0
  6
Continuous
 62
     7
100
AcDbCircle
 10
2.604039950599999
 20
6.227792814999999
 30
0.0
 40
0.1445945386
  0
CIRCLE
  5
43C
330
20B
100
AcDbEntity
  8
0
  6
Continuous
 62
     7
100
AcDbCircle
 10
2.6197879821
 20
5.885273129899999
 30
0.0
 40
0.1445945386
  0
ARC
  5
43D
330
20B
100
AcDbEntity
  8
0
  6
Continuous
 62
     7
100
AcDbCircle
 10
2.604039735
 20
6.5703118947
 30
0.0
 40
0.1220471917
100
AcDbArc
 50
0.0002841512
 51
179.9997158478
  0
CIRCLE
  5
43E
330
20B
100
AcDbEntity
  8
0
  6
Continuous
 62
     7
100
AcDbCircle
 10
2.6040397435
 20
6.2277933859
 30
0.0
 40
0.1220471654
  0
CIRCLE
  5
43F
330
20B
100
AcDbEntity
  8
0
  6
Continuous
 62
     7
100
AcDbCircle
 10
2.6040397435
 20
5.8852737009
 30
0.0
 40
0.1220471654
  0
ARC
  5
440
330
20B
100
AcDbEntity
  8
0
  6
Continuous
 62
     7
100
AcDbCircle
 10
2.604038406099999
 20
6.5703123938
 30
0.0
 40
0.1150515102
100
AcDbArc
 50
0.0000528924
 51
7.867288443999999
  0
ARC
  5
441
330
20B
100
AcDbEntity
  8
0
  6
Continuous
 62
     7
100
AcDbCircle
 10
2.6040414949
 20
6.5703123938
 30
0.0
 40
0.1150515099
100
AcDbArc
 50
172.1327115455
 51
179.9999471181
  0
ARC
  5
442
330
20B
100
AcDbEntity
  8
0
  6
Continuous
 62
     7
100
AcDbCircle
 10
2.604038406399999
 20
6.227792921099999
 30
0.0
 40
0.1150515099
100
AcDbArc
 50
352.1327115455
 51
7.867288443999999
  0
ARC
  5
443
330
20B
100
AcDbEntity
  8
0
  6
Continuous
 62
     7
100
AcDbCircle
 10
2.604038406399999
 20
5.885273236099999
 30
0.0
 40
0.1150515099
100
AcDbArc
 50
352.1327115455
 51
7.867288443999999
  0
ARC
  5
444
330
20B
100
AcDbEntity
  8
0
  6
Continuous
 62
     7
100
AcDbCircle
 10
2.6040413496
 20
6.2277929196
 30
0.0
 40
0.1150513646
100
AcDbArc
 50
172.1327115455
 51
187.8672976845
  0
ARC
  5
445
330
20B
100
AcDbEntity
  8
0
  6
Continuous
 62
     7
100
AcDbCircle
 10
2.6040413496
 20
5.8852732346
 30
0.0
 40
0.1150513646
100
AcDbArc
 50
172.1327115455
 51
187.8672976845
  0
ARC
  5
446
330
20B
100
AcDbEntity
  8
0
  6
Continuous
 62
     7
100
AcDbCircle
 10
2.604039950599999
 20
6.227792814999999
 30
0.0
 40
0.1111511045
100
AcDbArc
 50
188.1445657498
 51
351.8539179933
  0
ARC
  5
447
330
20B
100
AcDbEntity
  8
0
  6
Continuous
 62
     7
100
AcDbCircle
 10
2.604039950599999
 20
5.885273129899999
 30
0.0
 40
0.1111511045
100
AcDbArc
 50
188.1445657498
 51
351.8539179933
  0
ARC
  5
448
330
20B
100
AcDbEntity
  8
0
  6
Continuous
 62
     7
100
AcDbCircle
 10
2.604039950599999
 20
6.227792814999999
 30
0.0
 40
0.1111511035
100
AcDbArc
 50
8.1460820067
 51
171.8554342502
  0
ARC
  5
449
330
20B
100
AcDbEntity
  8
0
  6
Continuous
 62
     7
100
AcDbCircle
 10
2.604039950599999
 20
5.885273129899999
 30
0.0
 40
0.1111511035
100
AcDbArc
 50
8.1460820067
 51
171.8554342502
  0
ARC
  5
44A
330
20B
100
AcDbEntity
  8
0
  6
Continuous
 62
     7
100
AcDbCircle
 10
2.604039950599999
 20
6.227792814999999
 30
0.0
 40
0.0955364293
100
AcDbArc
 50
9.487682161799998
 51
170.5123178382
  0
ARC
  5
44B
330
20B
100
AcDbEntity
  8
0
  6
Continuous
 62
     7
100
AcDbCircle
 10
2.604039950599999
 20
5.885273129899999
 30
0.0
 40
0.0955364293
100
AcDbArc
 50
9.487682161799998
 51
170.5123178382
  0
ARC
  5
44C
330
20B
100
AcDbEntity
  8
0
  6
Continuous
 62
     7
100
AcDbCircle
 10
2.604039950599999
 20
6.227792814999999
 30
0.0
 40
0.0955364249
100
AcDbArc
 50
189.4876821618
 51
350.5123178382
  0
ARC
  5
44D
330
20B
100
AcDbEntity
  8
0
  6
Continuous
 62
     7
100
AcDbCircle
 10
2.604039950599999
 20
5.885273129899999
 30
0.0
 40
0.0955364249
100
AcDbArc
 50
189.4876821618
 51
350.5123178382
  0
ARC
  5
44E
330
20B
100
AcDbEntity
  8
0
  6
Continuous
 62
     7
100
AcDbCircle
 10
2.997740738
 20
5.881336122
 30
0.0
 40
0.0885826772
100
AcDbArc
 50
332.7339555493
 51
251.8737960395
  0
CIRCLE
  5
44F
330
20B
100
AcDbEntity
  8
0
  6
Continuous
 62
     7
100
AcDbCircle
 10
2.604039950599999
 20
7.2553518701
 30
0.0
 40
0.1445945386
  0
CIRCLE
  5
450
330
20B
100
AcDbEntity
  8
0
  6
Continuous
 62
     7
100
AcDbCircle
 10
2.604039950599999
 20
6.912832185
 30
0.0
 40
0.1445945386
  0
CIRCLE
  5
451
330
20B
100
AcDbEntity
  8
0
  6
Continuous
 62
     7
100
AcDbCircle
 10
2.604039950599999
 20
6.5703125
 30
0.0
 40
0.1445945386
  0
ARC
  5
452
330
20B
100
AcDbEntity
  8
0
  6
Continuous
 62
     7
100
AcDbCircle
 10
2.6040397435
 20
6.570313071
 30
0.0
 40
0.1220471654
100
AcDbArc
 50
180.0002680394
 51
359.9997319616001
  0
CIRCLE
  5
453
330
20B
100
AcDbEntity
  8
0
  6
Continuous
 62
     7
100
AcDbCircle
 10
2.6040397435
 20
6.912832756
 30
0.0
 40
0.1220471654
  0
CIRCLE
  5
454
330
20B
100
AcDbEntity
  8
0
  6
Continuous
 62
     7
100
AcDbCircle
 10
2.6040397435
 20
7.255352441
 30
0.0
 40
0.1220471654
  0
ARC
  5
455
330
20B
100
AcDbEntity
  8
0
  6
Continuous
 62
     7
100
AcDbCircle
 10
2.604038406399999
 20
6.570312606199999
 30
0.0
 40
0.1150515099
100
AcDbArc
 50
352.1327115455
 51
359.9999471180999
  0
ARC
  5
456
330
20B
100
AcDbEntity
  8
0
  6
Continuous
 62
     7
100
AcDbCircle
 10
2.604038406399999
 20
6.912832291199999
 30
0.0
 40
0.1150515099
100
AcDbArc
 50
352.1327115455
 51
7.867288443999999
  0
ARC
  5
457
330
20B
100
AcDbEntity
  8
0
  6
Continuous
 62
     7
100
AcDbCircle
 10
2.604038406399999
 20
7.2553519763
 30
0.0
 40
0.1150515099
100
AcDbArc
 50
352.1327115455
 51
7.867288443999999
  0
ARC
  5
458
330
20B
100
AcDbEntity
  8
0
  6
Continuous
 62
     7
100
AcDbCircle
 10
2.6040413496
 20
6.5703126047
 30
0.0
 40
0.1150513646
100
AcDbArc
 50
180.0000521197
 51
187.8672976845
  0
ARC
  5
459
330
20B
100
AcDbEntity
  8
0
  6
Continuous
 62
     7
100
AcDbCircle
 10
2.6040413496
 20
6.912832289699999
 30
0.0
 40
0.1150513646
100
AcDbArc
 50
172.1327115455
 51
187.8672976845
  0
ARC
  5
45A
330
20B
100
AcDbEntity
  8
0
  6
Continuous
 62
     7
100
AcDbCircle
 10
2.6040413496
 20
7.255351974699999
 30
0.0
 40
0.1150513646
100
AcDbArc
 50
172.1327115455
 51
187.8672976845
  0
ARC
  5
45B
330
20B
100
AcDbEntity
  8
0
  6
Continuous
 62
     7
100
AcDbCircle
 10
2.604039950599999
 20
6.5703125
 30
0.0
 40
0.1111511045
100
AcDbArc
 50
188.1445657498
 51
351.8539179933
  0
ARC
  5
45C
330
20B
100
AcDbEntity
  8
0
  6
Continuous
 62
     7
100
AcDbCircle
 10
2.604039950599999
 20
6.912832185
 30
0.0
 40
0.1111511045
100
AcDbArc
 50
188.1445657498
 51
351.8539179933
  0
ARC
  5
45D
330
20B
100
AcDbEntity
  8
0
  6
Continuous
 62
     7
100
AcDbCircle
 10
2.604039950599999
 20
7.2553518701
 30
0.0
 40
0.1111511045
100
AcDbArc
 50
188.1445657498
 51
351.8539179933
  0
ARC
  5
45E
330
20B
100
AcDbEntity
  8
0
  6
Continuous
 62
     7
100
AcDbCircle
 10
2.604039950599999
 20
6.5703125
 30
0.0
 40
0.1111511035
100
AcDbArc
 50
8.1460820067
 51
171.8554342502
  0
ARC
  5
45F
330
20B
100
AcDbEntity
  8
0
  6
Continuous
 62
     7
100
AcDbCircle
 10
2.604039950599999
 20
6.912832185
 30
0.0
 40
0.1111511035
100
AcDbArc
 50
8.1460820067
 51
171.8554342502
  0
ARC
  5
460
330
20B
100
AcDbEntity
  8
0
  6
Continuous
 62
     7
100
AcDbCircle
 10
2.604039950599999
 20
7.2553518701
 30
0.0
 40
0.1111511035
100
AcDbArc
 50
8.1460820067
 51
171.8554342502
  0
ARC
  5
461
330
20B
100
AcDbEntity
  8
0
  6
Continuous
 62
     7
100
AcDbCircle
 10
2.604039950599999
 20
6.5703125
 30
0.0
 40
0.0955364293
100
AcDbArc
 50
9.487682161799998
 51
170.5123178382
  0
ARC
  5
462
330
20B
100
AcDbEntity
  8
0
  6
Continuous
 62
     7
100
AcDbCircle
 10
2.604039950599999
 20
6.912832185
 30
0.0
 40
0.0955364293
100
AcDbArc
 50
9.487682161799998
 51
170.5123178382
  0
ARC
  5
463
330
20B
100
AcDbEntity
  8
0
  6
Continuous
 62
     7
100
AcDbCircle
 10
2.604039950599999
 20
7.2553518701
 30
0.0
 40
0.0955364293
100
AcDbArc
 50
9.487682161799998
 51
170.5123178382
  0
ARC
  5
464
330
20B
100
AcDbEntity
  8
0
  6
Continuous
 62
     7
100
AcDbCircle
 10
2.604039950599999
 20
6.5703125
 30
0.0
 40
0.0955364249
100
AcDbArc
 50
189.4876821618
 51
350.5123178382
  0
ARC
  5
465
330
20B
100
AcDbEntity
  8
0
  6
Continuous
 62
     7
100
AcDbCircle
 10
2.604039950599999
 20
6.912832185
 30
0.0
 40
0.0955364249
100
AcDbArc
 50
189.4876821618
 51
350.5123178382
  0
ARC
  5
466
330
20B
100
AcDbEntity
  8
0
  6
Continuous
 62
     7
100
AcDbCircle
 10
2.604039950599999
 20
7.2553518701
 30
0.0
 40
0.0955364249
100
AcDbArc
 50
189.4876821618
 51
350.5123178382
  0
ARC
  5
467
330
20B
100
AcDbEntity
  8
0
  6
Continuous
 62
     7
100
AcDbCircle
 10
2.997740738
 20
7.259288877999999
 30
0.0
 40
0.0885826772
100
AcDbArc
 50
108.1262039606
 51
27.2660444507
  0
ARC
  5
468
330
20B
100
AcDbEntity
  8
0
  6
Continuous
 62
     7
100
AcDbCircle
 10
2.997740738
 20
1.905651182599999
 30
0.0
 40
0.0885826772
100
AcDbArc
 50
108.1262039606
 51
27.2660444507
  0
ARC
  5
469
330
20B
100
AcDbEntity
  8
0
  6
Continuous
 62
     7
100
AcDbCircle
 10
2.997740738
 20
0.5276984267
 30
0.0
 40
0.0885826772
100
AcDbArc
 50
332.7339555493
 51
251.8737960394
  0
ARC
  5
46A
330
20B
100
AcDbEntity
  8
0
  6
Continuous
 62
     7
100
AcDbCircle
 10
1.029236800999999
 20
1.905651182599999
 30
0.0
 40
0.0885826772
100
AcDbArc
 50
152.7339555493
 51
71.87379603939999
  0
ARC
  5
46B
330
20B
100
AcDbEntity
  8
0
  6
Continuous
 62
     7
100
AcDbCircle
 10
1.029236800999999
 20
0.5276984267
 30
0.0
 40
0.0885826772
100
AcDbArc
 50
288.1262039606
 51
207.2660444507
  0
ARC
  5
46C
330
20B
100
AcDbEntity
  8
0
  6
Continuous
 62
     7
100
AcDbCircle
 10
4.92391821210491
 20
4.635576991899999
 30
0.0
 40
0.0787401575
100
AcDbArc
 50
72.90192646930001
 51
107.0980592272
  0
ARC
  5
46D
330
20B
100
AcDbEntity
  8
0
  6
Continuous
 62
     7
100
AcDbCircle
 10
5.26643785060491
 20
4.635577143199999
 30
0.0
 40
0.0787401575
100
AcDbArc
 50
72.90185797560001
 51
107.0981420244
  0
ARC
  5
46E
330
20B
100
AcDbEntity
  8
0
  6
Continuous
 62
     7
100
AcDbCircle
 10
5.60895753560491
 20
4.635577143199999
 30
0.0
 40
0.0787401575
100
AcDbArc
 50
72.90185797560001
 51
107.0981420244
  0
ARC
  5
46F
330
20B
100
AcDbEntity
  8
0
  6
Continuous
 62
     7
100
AcDbCircle
 10
5.95147722070491
 20
4.635577143199999
 30
0.0
 40
0.0787401575
100
AcDbArc
 50
72.90185797550001
 51
107.0981420245
  0
ARC
  5
470
330
20B
100
AcDbEntity
  8
0
  6
Continuous
 62
     7
100
AcDbCircle
 10
6.29399690570491
 20
4.6353807825
 30
0.0
 40
0.0787401575
100
AcDbArc
 50
72.99999968749999
 51
106.9999991757
  0
ARC
  5
471
330
20B
100
AcDbEntity
  8
0
  6
Continuous
 62
     7
100
AcDbCircle
 10
8.9707487138
 20
6.9797520196
 30
0.0
 40
0.1360282824
100
AcDbArc
 50
119.4633457599
 51
119.9989817615
  0
ARC
  5
472
330
20B
100
AcDbEntity
  8
0
  6
Continuous
 62
     7
100
AcDbCircle
 10
7.990825193099999
 20
6.4268543719
 30
0.0
 40
0.1360282824
100
AcDbArc
 50
119.4633457598
 51
119.9989817615
  0
ARC
  5
473
330
20B
100
AcDbEntity
  8
0
  6
Continuous
 62
     7
100
AcDbCircle
 10
8.8482653323
 20
5.9318222759
 30
0.0
 40
0.1360282824
100
AcDbArc
 50
119.4633457596999
 51
119.9989817615
  0
ARC
  5
474
330
20B
100
AcDbEntity
  8
0
  6
Continuous
 62
     7
100
AcDbCircle
 10
9.8059176805
 20
6.497577900199999
 30
0.0
 40
0.1360282824
100
AcDbArc
 50
119.4633457596999
 51
119.9989817615
  0
ARC
  5
475
330
20B
100
AcDbEntity
  8
0
  6
Continuous
 62
     7
100
AcDbCircle
 10
9.390410894
 20
6.218646789099999
 30
0.0
 40
0.135182739
100
AcDbArc
 50
60.0014879499
 51
60.53991592430001
  0
ARC
  5
476
330
20B
100
AcDbEntity
  8
0
  6
Continuous
 62
     7
100
AcDbCircle
 10
8.313044943599999
 20
6.5609892497
 30
0.0
 40
0.135182739
100
AcDbArc
 50
60.0014879501
 51
60.53991592439999
  0
ARC
  5
477
330
20B
100
AcDbEntity
  8
0
  6
Continuous
 62
     7
100
AcDbCircle
 10
9.148213910399999
 20
6.078815130199999
 30
0.0
 40
0.1351827389
100
AcDbArc
 50
60.00148794979999
 51
60.5399159246
  0
ARC
  5
478
330
20B
100
AcDbEntity
  8
0
  6
Continuous
 62
     7
100
AcDbCircle
 10
8.7974389109
 20
6.840652567799999
 30
0.0
 40
0.1351827389
100
AcDbArc
 50
60.0014879497
 51
60.5399159246
  0
ARC
  5
479
330
20B
100
AcDbEntity
  8
0
  6
Continuous
 62
     7
100
AcDbCircle
 10
9.632607877599999
 20
6.3584784483
 30
0.0
 40
0.1351827389
100
AcDbArc
 50
60.0014879497
 51
60.5399159246
  0
ARC
  5
47A
330
20B
100
AcDbEntity
  8
0
  6
Continuous
 62
     7
100
AcDbCircle
 10
8.5552419273
 20
6.700820908799999
 30
0.0
 40
0.1351827389
100
AcDbArc
 50
60.0014879497
 51
60.5399159246
  0
ARC
  5
47B
330
20B
100
AcDbEntity
  8
0
  6
Continuous
 62
     7
100
AcDbCircle
 10
7.9894735766
 20
6.4324073286
 30
0.0
 40
0.1333273775
100
AcDbArc
 50
119.9983835042
 51
120.8504959622
  0
ARC
  5
47C
330
20B
100
AcDbEntity
  8
0
  6
Continuous
 62
     7
100
AcDbCircle
 10
9.804566063899999
 20
6.503130856799999
 30
0.0
 40
0.1333273775
100
AcDbArc
 50
119.9983835041
 51
120.8504959622
  0
ARC
  5
47D
330
20B
100
AcDbEntity
  8
0
  6
Continuous
 62
     7
100
AcDbCircle
 10
8.969397097199999
 20
6.9853049764
 30
0.0
 40
0.1333273775
100
AcDbArc
 50
119.9983835041
 51
120.8504959623
  0
ARC
  5
47E
330
20B
100
AcDbEntity
  8
0
  6
Continuous
 62
     7
100
AcDbCircle
 10
8.846913715700001
 20
5.937375232599999
 30
0.0
 40
0.1333273775
100
AcDbArc
 50
119.9983835041
 51
120.8504959623
  0
ARC
  5
47F
330
20B
100
AcDbEntity
  8
0
  6
Continuous
 62
     7
100
AcDbCircle
 10
8.556574254199999
 20
6.706341202999999
 30
0.0
 40
0.1325197653
100
AcDbArc
 50
59.14393748840001
 51
60.00193725829999
  0
ARC
  5
480
330
20B
100
AcDbEntity
  8
0
  6
Continuous
 62
     7
100
AcDbCircle
 10
8.314377270599999
 20
6.566509543999999
 30
0.0
 40
0.1325197653
100
AcDbArc
 50
59.14393748840001
 51
60.00193725819999
  0
ARC
  5
481
330
20B
100
AcDbEntity
  8
0
  6
Continuous
 62
     7
100
AcDbCircle
 10
9.1495462373
 20
6.0843354245
 30
0.0
 40
0.1325197653
100
AcDbArc
 50
59.14393748840001
 51
60.00193725829999
  0
ARC
  5
482
330
20B
100
AcDbEntity
  8
0
  6
Continuous
 62
     7
100
AcDbCircle
 10
9.3917432209
 20
6.2241670835
 30
0.0
 40
0.1325197653
100
AcDbArc
 50
59.14393748840001
 51
60.00193725829999
  0
ARC
  5
483
330
20B
100
AcDbEntity
  8
0
  6
Continuous
 62
     7
100
AcDbCircle
 10
8.7987712378
 20
6.846172862
 30
0.0
 40
0.1325197653
100
AcDbArc
 50
59.1439374883
 51
60.00193725829999
  0
ARC
  5
484
330
20B
100
AcDbEntity
  8
0
  6
Continuous
 62
     7
100
AcDbCircle
 10
9.633940204499999
 20
6.363998742499999
 30
0.0
 40
0.1325197653
100
AcDbArc
 50
59.1439374882
 51
60.00193725829999
  0
ARC
  5
485
330
20B
100
AcDbEntity
  8
0
  6
Continuous
 62
     7
100
AcDbCircle
 10
10.0752570158
 20
6.1791372719
 30
0.0
 40
0.0457885217
100
AcDbArc
 50
102.6460639427
 51
103.7808580965
  0
ARC
  5
486
330
20B
100
AcDbEntity
  8
0
  6
Continuous
 62
     7
100
AcDbCircle
 10
9.106454493200001
 20
5.6200346232
 30
0.0
 40
0.0457230995
100
AcDbArc
 50
102.5286924819
 51
103.7792296349
  0
ARC
  5
487
330
20B
100
AcDbEntity
  8
0
  6
Continuous
 62
     7
100
AcDbCircle
 10
9.3486514277
 20
5.7598664572
 30
0.0
 40
0.0457230273
100
AcDbArc
 50
102.5286102112
 51
103.7791874292
  0
ARC
  5
488
330
20B
100
AcDbEntity
  8
0
  6
Continuous
 62
     7
100
AcDbCircle
 10
9.590848411299999
 20
5.899698116299999
 30
0.0
 40
0.0457230273
100
AcDbArc
 50
102.528610211
 51
103.7791874294
  0
ARC
  5
489
330
20B
100
AcDbEntity
  8
0
  6
Continuous
 62
     7
100
AcDbCircle
 10
9.833045394999999
 20
6.0395297753
 30
0.0
 40
0.0457230273
100
AcDbArc
 50
102.5286102111
 51
103.7791874293
  0
LINE
  5
48A
330
20B
100
AcDbEntity
  8
0
  6
Continuous
 62
     7
100
AcDbLine
 10
9.0256141221
 20
6.0764365808
 30
0.0
 11
9.022997844299998
 21
6.0724572927
 31
0.0
  0
SPLINE
  5
48B
330
20B
100
AcDbEntity
  8
0
  6
Continuous
 62
     7
100
AcDbSpline
210
0.0
220
0.0
230
1.0
 70
     8
 71
     3
 72
    13
 73
     9
 74
     0
 42
0.0000000001
 43
0.0000000001
 40
0.0
 40
0.0
 40
0.0
 40
0.0
 40
0.0960365348
 40
0.1965730055
 40
0.3051701566
 40
0.4239861708000001
 40
0.6934555143000001
 40
1.0
 40
1.0
 40
1.0
 40
1.0
 10
9.2355500526
 20
4.3977873873
 30
0.0
 10
9.2355504146
 20
4.395085493699999
 30
0.0
 10
9.2347726523
 20
4.3895284954
 30
0.0
 10
9.2313669098
 20
4.381556201499999
 30
0.0
 10
9.225866421900001
 20
4.374062015699999
 30
0.0
 10
9.2155370571
 20
4.364540784399999
 30
0.0
 10
9.198147889899999
 20
4.355032291299999
 30
0.0
 10
9.182431090199999
 20
4.3506330667
 30
0.0
 10
9.173950106199999
 20
4.3490671967
 30
0.0
  0
SPLINE
  5
48C
330
20B
100
AcDbEntity
  8
0
  6
Continuous
 62
     7
100
AcDbSpline
210
0.0
220
0.0
230
1.0
 70
     8
 71
     3
 72
     9
 73
     5
 74
     0
 42
0.0000000001
 43
0.0000000001
 40
0.0
 40
0.0
 40
0.0
 40
0.0
 40
0.2597024758
 40
1.0
 40
1.0
 40
1.0
 40
1.0
 10
8.901026860099999
 20
7.0997676351
 30
0.0
 10
8.899580541799998
 20
7.0989036772
 30
0.0
 10
8.894076251399999
 20
7.095470806199999
 30
0.0
 10
8.888834995899999
 20
7.0916069187
 30
0.0
 10
8.8851827263
 20
7.0884886253
 30
0.0
  0
SPLINE
  5
48D
330
20B
100
AcDbEntity
  8
0
  6
Continuous
 62
     7
100
AcDbSpline
210
0.0
220
0.0
230
1.0
 70
     8
 71
     3
 72
    15
 73
    11
 74
     0
 42
0.0000000001
 43
0.0000000001
 40
0.0
 40
0.0
 40
0.0
 40
0.0
 40
0.0989092178
 40
0.2153656776
 40
0.3477144746
 40
0.4903466587
 40
0.6350468588
 40
0.7726372921
 40
0.895599679
 40
1.0
 40
1.0
 40
1.0
 40
1.0
 10
8.865027239999999
 20
6.960940585499999
 30
0.0
 10
8.8583532471
 20
6.96479373
 30
0.0
 10
8.843099976499999
 20
6.971960861599999
 30
0.0
 10
8.8171275969
 20
6.9799432597
 30
0.0
 10
8.786945218799999
 20
6.9849236871
 30
0.0
 10
8.7541686909
 20
6.9859900782
 30
0.0
 10
8.7211259025
 20
6.9826464019
 30
0.0
 10
8.690361086199999
 20
6.9750151245
 30
0.0
 10
8.664073402399999
 20
6.963848139099999
 30
0.0
 10
8.6491987764
 20
6.953959165299999
 30
0.0
 10
8.643011443099998
 20
6.948678730399999
 30
0.0
  0
SPLINE
  5
48E
330
20B
100
AcDbEntity
  8
0
  6
Continuous
 62
     7
100
AcDbSpline
210
0.0
220
0.0
230
1.0
 70
     8
 71
     3
 72
    15
 73
    11
 74
     0
 42
0.0000000001
 43
0.0000000001
 40
0.0
 40
0.0
 40
0.0
 40
0.0
 40
0.0989092178
 40
0.2153656776
 40
0.3477144746
 40
0.4903466587
 40
0.6350468588
 40
0.7726372921
 40
0.895599679
 40
1.0
 40
1.0
 40
1.0
 40
1.0
 10
8.6228302564
 20
6.8211089265
 30
0.0
 10
8.6161562635
 20
6.824962070999999
 30
0.0
 10
8.6009029929
 20
6.8321292026
 30
0.0
 10
8.574930613300001
 20
6.8401116007
 30
0.0
 10
8.5447482352
 20
6.845092028099999
 30
0.0
 10
8.5119717073
 20
6.8461584192
 30
0.0
 10
8.478928918799999
 20
6.842814742899999
 30
0.0
 10
8.448164102599999
 20
6.835183465499999
 30
0.0
 10
8.4218764188
 20
6.8240164801
 30
0.0
 10
8.407001792799999
 20
6.8141275063
 30
0.0
 10
8.400814459500001
 20
6.808847071399999
 30
0.0
  0
SPLINE
  5
48F
330
20B
100
AcDbEntity
  8
0
  6
Continuous
 62
     7
100
AcDbSpline
210
0.0
220
0.0
230
1.0
 70
     8
 71
     3
 72
    15
 73
    11
 74
     0
 42
0.0000000001
 43
0.0000000001
 40
0.0
 40
0.0
 40
0.0
 40
0.0
 40
0.0989092178
 40
0.2153656776
 40
0.3477144746
 40
0.4903466587
 40
0.6350468588
 40
0.7726372921
 40
0.895599679
 40
1.0
 40
1.0
 40
1.0
 40
1.0
 10
8.380633272799999
 20
6.681277267499999
 30
0.0
 10
8.373959279899999
 20
6.685130412
 30
0.0
 10
8.358706009299998
 20
6.6922975436
 30
0.0
 10
8.332733629699999
 20
6.700279941699999
 30
0.0
 10
8.302551251599998
 20
6.705260369099999
 30
0.0
 10
8.269774723699999
 20
6.706326760199999
 30
0.0
 10
8.236731935199999
 20
6.702983083899999
 30
0.0
 10
8.205967119
 20
6.695351806499999
 30
0.0
 10
8.1796794352
 20
6.6841848211
 30
0.0
 10
8.164804809099999
 20
6.674295847299999
 30
0.0
 10
8.158617475899999
 20
6.6690154124
 30
0.0
  0
SPLINE
  5
490
330
20B
100
AcDbEntity
  8
0
  6
Continuous
 62
     7
100
AcDbSpline
210
0.0
220
0.0
230
1.0
 70
     8
 71
     3
 72
     9
 73
     5
 74
     0
 42
0.0000000001
 43
0.0000000001
 40
0.0
 40
0.0
 40
0.0
 40
0.0
 40
0.2597024758
 40
1.0
 40
1.0
 40
1.0
 40
1.0
 10
7.9211033394
 20
6.5468699874
 30
0.0
 10
7.919657021199999
 20
6.5460060294
 30
0.0
 10
7.9141527308
 20
6.5425731585
 30
0.0
 10
7.9089114752
 20
6.538709271
 30
0.0
 10
7.905259205599999
 20
6.5355909776
 30
0.0
  0
SPLINE
  5
491
330
20B
100
AcDbEntity
  8
0
  6
Continuous
 62
     7
100
AcDbSpline
210
0.0
220
0.0
230
1.0
 70
     8
 71
     3
 72
    12
 73
     8
 74
     0
 42
0.0000000001
 43
0.0000000001
 40
0.0
 40
0.0
 40
0.0
 40
0.0
 40
0.1197169014
 40
0.2397358572
 40
0.4850348738
 40
0.7398631381000001
 40
1.0
 40
1.0
 40
1.0
 40
1.0
 10
9.0270914111
 20
6.0870353425
 30
0.0
 10
9.0270926723
 20
6.0840054783
 30
0.0
 10
9.026509453500001
 20
6.0779230232
 30
0.0
 10
9.0231248304
 20
6.066064583999999
 30
0.0
 10
9.0150318787
 20
6.052309688899999
 30
0.0
 10
9.001283933599999
 20
6.0386532699
 30
0.0
 10
8.990443348200001
 20
6.0312977913
 30
0.0
 10
8.9847416935
 20
6.028005959099999
 30
0.0
  0
SPLINE
  5
492
330
20B
100
AcDbEntity
  8
0
  6
Continuous
 62
     7
100
AcDbSpline
210
0.0
220
0.0
230
1.0
 70
     8
 71
     3
 72
     9
 73
     5
 74
     0
 42
0.0000000001
 43
0.0000000001
 40
0.0
 40
0.0
 40
0.0
 40
0.0
 40
0.2597024758
 40
1.0
 40
1.0
 40
1.0
 40
1.0
 10
8.778543478499999
 20
6.051837891299999
 30
0.0
 10
8.7770971603
 20
6.050973933399999
 30
0.0
 10
8.7715928699
 20
6.047541062399999
 30
0.0
 10
8.766351614400001
 20
6.043677175
 30
0.0
 10
8.762699344799999
 20
6.040558881499999
 30
0.0
  0
SPLINE
  5
493
330
20B
100
AcDbEntity
  8
0
  6
Continuous
 62
     7
100
AcDbSpline
210
0.0
220
0.0
230
1.0
 70
     8
 71
     3
 72
    15
 73
    11
 74
     0
 42
0.0000000001
 43
0.0000000001
 40
0.0
 40
0.0
 40
0.0
 40
0.0
 40
0.0989092178
 40
0.2153656776
 40
0.3477144746
 40
0.4903466587
 40
0.6350468588
 40
0.7726372921
 40
0.895599679
 40
1.0
 40
1.0
 40
1.0
 40
1.0
 10
9.2158022395
 20
6.199103147999999
 30
0.0
 10
9.209128246599998
 20
6.202956292499999
 30
0.0
 10
9.193874976
 20
6.210123424099999
 30
0.0
 10
9.167902596399999
 20
6.2181058222
 30
0.0
 10
9.1377202183
 20
6.2230862495
 30
0.0
 10
9.104943690399998
 20
6.224152640599999
 30
0.0
 10
9.071900901900001
 20
6.2208089644
 30
0.0
 10
9.041136085699999
 20
6.213177687
 30
0.0
 10
9.0148484019
 20
6.202010701499999
 30
0.0
 10
8.9999737758
 20
6.1921217278
 30
0.0
 10
8.993786442599999
 20
6.186841292899999
 30
0.0
  0
SPLINE
  5
494
330
20B
100
AcDbEntity
  8
0
  6
Continuous
 62
     7
100
AcDbSpline
210
0.0
220
0.0
230
1.0
 70
     8
 71
     3
 72
    15
 73
    11
 74
     0
 42
0.0000000001
 43
0.0000000001
 40
0.0
 40
0.0
 40
0.0
 40
0.0
 40
0.1135573906
 40
0.23208923
 40
0.3490564122999999
 40
0.4647055235
 40
0.5931370882
 40
0.7304166712000001
 40
0.8690435734000001
 40
1.0
 40
1.0
 40
1.0
 40
1.0
 10
9.002272474299999
 20
6.0405786796
 30
0.0
 10
8.9955447875
 20
6.046324758899999
 30
0.0
 10
8.9802371428
 20
6.056277041699999
 30
0.0
 10
8.9550200096
 20
6.066724385499999
 30
0.0
 10
8.9284369739
 20
6.073521112
 30
0.0
 10
8.9004892366
 20
6.0771892022
 30
0.0
 10
8.870710176099999
 20
6.077661926499999
 30
0.0
 10
8.8392989541
 20
6.0742416263
 30
0.0
 10
8.808462056699999
 20
6.066444935299999
 30
0.0
 10
8.7890894915
 20
6.057943565099999
 30
0.0
 10
8.7802532846
 20
6.052842009199999
 30
0.0
  0
SPLINE
  5
495
330
20B
100
AcDbEntity
  8
0
  6
Continuous
 62
     7
100
AcDbSpline
210
0.0
220
0.0
230
1.0
 70
     8
 71
     3
 72
    15
 73
    11
 74
     0
 42
0.0000000001
 43
0.0000000001
 40
0.0
 40
0.0
 40
0.0
 40
0.0
 40
0.0989092178
 40
0.2153656776
 40
0.3477144746
 40
0.4903466587
 40
0.6350468588
 40
0.7726372921
 40
0.895599679
 40
1.0
 40
1.0
 40
1.0
 40
1.0
 10
9.457999223099999
 20
6.338934807
 30
0.0
 10
9.4513252302
 20
6.3427879515
 30
0.0
 10
9.436071959599999
 20
6.349955083099999
 30
0.0
 10
9.41009958
 20
6.3579374812
 30
0.0
 10
9.379917201900001
 20
6.3629179086
 30
0.0
 10
9.347140674
 20
6.3639842996
 30
0.0
 10
9.314097885599998
 20
6.3606406234
 30
0.0
 10
9.283333069299999
 20
6.353009346
 30
0.0
 10
9.257045385499999
 20
6.341842360499999
 30
0.0
 10
9.2421707595
 20
6.331953386799999
 30
0.0
 10
9.2359834262
 20
6.3266729519
 30
0.0
  0
SPLINE
  5
496
330
20B
100
AcDbEntity
  8
0
  6
Continuous
 62
     7
100
AcDbSpline
210
0.0
220
0.0
230
1.0
 70
     8
 71
     3
 72
    15
 73
    11
 74
     0
 42
0.0000000001
 43
0.0000000001
 40
0.0
 40
0.0
 40
0.0
 40
0.0
 40
0.0989092178
 40
0.2153656776
 40
0.3477144746
 40
0.4903466587
 40
0.6350468588
 40
0.7726372921
 40
0.895599679
 40
1.0
 40
1.0
 40
1.0
 40
1.0
 10
9.700196206799999
 20
6.478766466
 30
0.0
 10
9.693522213799999
 20
6.482619610499999
 30
0.0
 10
9.6782689432
 20
6.4897867421
 30
0.0
 10
9.6522965636
 20
6.497769140199999
 30
0.0
 10
9.622114185499999
 20
6.502749567599999
 30
0.0
 10
9.589337657599999
 20
6.503815958599999
 30
0.0
 10
9.5562948692
 20
6.5004722824
 30
0.0
 10
9.525530052899998
 20
6.492841004999999
 30
0.0
 10
9.499242369099999
 20
6.4816740195
 30
0.0
 10
9.484367743099999
 20
6.4717850458
 30
0.0
 10
9.4781804098
 20
6.4665046109
 30
0.0
  0
SPLINE
  5
497
330
20B
100
AcDbEntity
  8
0
  6
Continuous
 62
     7
100
AcDbSpline
210
0.0
220
0.0
230
1.0
 70
     8
 71
     3
 72
    18
 73
    14
 74
     0
 42
0.0000000001
 43
0.0000000001
 40
0.0
 40
0.0
 40
0.0
 40
0.0
 40
0.0464099873
 40
0.0954576361
 40
0.1482887748
 40
0.2051334267
 40
0.2653257833
 40
0.3276037367
 40
0.4523871881
 40
0.5750023572999999
 40
0.7133816440000001
 40
0.8601115851999999
 40
1.0
 40
1.0
 40
1.0
 40
1.0
 10
9.2581528082
 20
6.2332959901
 30
0.0
 10
9.258150952299999
 20
6.2288376123
 30
0.0
 10
9.2568485856
 20
6.2196225558
 30
0.0
 10
9.251116367999999
 20
6.206423435599999
 30
0.0
 10
9.2419230099
 20
6.194115027699999
 30
0.0
 10
9.229790477699999
 20
6.183082810599999
 30
0.0
 10
9.215356076
 20
6.173576738899999
 30
0.0
 10
9.193972402099999
 20
6.1631240944
 30
0.0
 10
9.1653396799
 20
6.154373680399999
 30
0.0
 10
9.128507977099999
 20
6.1493182284
 30
0.0
 10
9.089170820799999
 20
6.149863955399999
 30
0.0
 10
9.048815035499998
 20
6.1572088572
 30
0.0
 10
9.022953585499999
 20
6.167547034299999
 30
0.0
 10
9.011315533399999
 20
6.174266114799999
 30
0.0
  0
SPLINE
  5
498
330
20B
100
AcDbEntity
  8
0
  6
Continuous
 62
     7
100
AcDbSpline
210
0.0
220
0.0
230
1.0
 70
     8
 71
     3
 72
     9
 73
     5
 74
     0
 42
0.0000000001
 43
0.0000000001
 40
0.0
 40
0.0
 40
0.0
 40
0.0
 40
0.2597024758
 40
1.0
 40
1.0
 40
1.0
 40
1.0
 10
9.736195826799999
 20
6.617593515599999
 30
0.0
 10
9.7347495085
 20
6.616729557699999
 30
0.0
 10
9.729245218099999
 20
6.613296686699999
 30
0.0
 10
9.724003962599999
 20
6.609432799199999
 30
0.0
 10
9.720351692999999
 20
6.6063145058
 30
0.0
  0
SPLINE
  5
499
330
20B
100
AcDbEntity
  8
0
  6
Continuous
 62
     7
100
AcDbSpline
210
0.0
220
0.0
230
1.0
 70
     8
 71
     3
 72
    19
 73
    15
 74
     0
 42
0.0000000001
 43
0.0000000001
 40
0.0
 40
0.0
 40
0.0
 40
0.0
 40
0.1149359731
 40
0.2564541477
 40
0.4160947576
 40
0.5765825272999999
 40
0.6512311881000001
 40
0.7195990745000001
 40
0.7807244412000001
 40
0.8344230251999999
 40
0.8811678466
 40
0.9219490976000001
 40
0.9602856961
 40
1.0
 40
1.0
 40
1.0
 40
1.0
 10
8.127301554299998
 20
6.523038055099999
 30
0.0
 10
8.117737826699999
 20
6.5175164673
 30
0.0
 10
8.094903113999999
 20
6.507738474599999
 30
0.0
 10
8.055637817799999
 20
6.499161717699999
 30
0.0
 10
8.011074891299999
 20
6.4975666888
 30
0.0
 10
7.973281393899999
 20
6.5031547923
 30
0.0
 10
7.945426701699999
 20
6.5119625584
 30
0.0
 10
7.927485044199999
 20
6.5200093644
 30
0.0
 10
7.9124283196
 20
6.5292280241
 30
0.0
 10
7.900437888999999
 20
6.5391828936
 30
0.0
 10
7.891483253099999
 20
6.549463013099999
 30
0.0
 10
7.8852339638
 20
6.5598985575
 30
0.0
 10
7.881381141499999
 20
6.5707258369
 30
0.0
 10
7.880462650499999
 20
6.5782516273
 30
0.0
 10
7.880461684199999
 20
6.5820674386
 30
0.0
  0
SPLINE
  5
49A
330
20B
100
AcDbEntity
  8
0
  6
Continuous
 62
     7
100
AcDbSpline
210
0.0
220
0.0
230
1.0
 70
     8
 71
     3
 72
    11
 73
     7
 74
     0
 42
0.0000000001
 43
0.0000000001
 40
0.0
 40
0.0
 40
0.0
 40
0.0
 40
0.3037082844
 40
0.5685059980000001
 40
0.7973072111000001
 40
1.0
 40
1.0
 40
1.0
 40
1.0
 10
8.176146566699999
 20
6.656440234299999
 30
0.0
 10
8.169494660999999
 20
6.660280627
 30
0.0
 10
8.1575942086
 20
6.6685367824
 30
0.0
 10
8.143777699799999
 20
6.6834941785
 30
0.0
 10
8.135598850900001
 20
6.6993662159
 30
0.0
 10
8.1337929557
 20
6.710343920099999
 30
0.0
 10
8.133794254199999
 20
6.7154701094
 30
0.0
  0
SPLINE
  5
49B
330
20B
100
AcDbEntity
  8
0
  6
Continuous
 62
     7
100
AcDbSpline
210
0.0
220
0.0
230
1.0
 70
     8
 71
     3
 72
    11
 73
     7
 74
     0
 42
0.0000000001
 43
0.0000000001
 40
0.0
 40
0.0
 40
0.0
 40
0.0
 40
0.3037082844
 40
0.5685059980000001
 40
0.7973072111000001
 40
1.0
 40
1.0
 40
1.0
 40
1.0
 10
8.418343550299999
 20
6.7962718933
 30
0.0
 10
8.411691644600001
 20
6.800112286
 30
0.0
 10
8.3997911922
 20
6.808368441399999
 30
0.0
 10
8.3859746835
 20
6.823325837499999
 30
0.0
 10
8.3777958346
 20
6.839197874899999
 30
0.0
 10
8.3759899393
 20
6.8501755791
 30
0.0
 10
8.375991237799999
 20
6.8553017684
 30
0.0
  0
SPLINE
  5
49C
330
20B
100
AcDbEntity
  8
0
  6
Continuous
 62
     7
100
AcDbSpline
210
0.0
220
0.0
230
1.0
 70
     8
 71
     3
 72
    11
 73
     7
 74
     0
 42
0.0000000001
 43
0.0000000001
 40
0.0
 40
0.0
 40
0.0
 40
0.0
 40
0.3037082844
 40
0.5685059980000001
 40
0.7973072111000001
 40
1.0
 40
1.0
 40
1.0
 40
1.0
 10
8.660540533899999
 20
6.9361035523
 30
0.0
 10
8.6538886282
 20
6.939943944999999
 30
0.0
 10
8.641988175799999
 20
6.948200100399999
 30
0.0
 10
8.6281716671
 20
6.9631574965
 30
0.0
 10
8.6199928182
 20
6.979029533899999
 30
0.0
 10
8.618186922899999
 20
6.990007238099999
 30
0.0
 10
8.6181882215
 20
6.995133427399999
 30
0.0
  0
SPLINE
  5
49D
330
20B
100
AcDbEntity
  8
0
  6
Continuous
 62
     7
100
AcDbSpline
210
0.0
220
0.0
230
1.0
 70
     8
 71
     3
 72
    19
 73
    15
 74
     0
 42
0.0000000001
 43
0.0000000001
 40
0.0
 40
0.0
 40
0.0
 40
0.0
 40
0.1149359731
 40
0.2564541477
 40
0.4160947576
 40
0.5765825272999999
 40
0.6512311881000001
 40
0.7195990745000001
 40
0.7807244412000001
 40
0.8344230251999999
 40
0.8811678466
 40
0.9219490976000001
 40
0.9602856961
 40
1.0
 40
1.0
 40
1.0
 40
1.0
 10
9.107225075
 20
7.075935702899999
 30
0.0
 10
9.0976613474
 20
7.0704141151
 30
0.0
 10
9.0748266347
 20
7.0606361223
 30
0.0
 10
9.0355613385
 20
7.052059365399999
 30
0.0
 10
8.990998411999999
 20
7.0504643365
 30
0.0
 10
8.9532049146
 20
7.05605244
 30
0.0
 10
8.9253502224
 20
7.064860206199999
 30
0.0
 10
8.9074085649
 20
7.072907012199999
 30
0.0
 10
8.892351840299999
 20
7.082125671799999
 30
0.0
 10
8.8803614096
 20
7.092080541399999
 30
0.0
 10
8.8714067738
 20
7.1023606609
 30
0.0
 10
8.8651574845
 20
7.112796205199999
 30
0.0
 10
8.8613046621
 20
7.1236234846
 30
0.0
 10
8.8603861712
 20
7.1311492751
 30
0.0
 10
8.8603852049
 20
7.1349650863
 30
0.0
  0
SPLINE
  5
49E
330
20B
100
AcDbEntity
  8
0
  6
Continuous
 62
     7
100
AcDbSpline
210
0.0
220
0.0
230
1.0
 70
     8
 71
     3
 72
    19
 73
    15
 74
     0
 42
0.0000000001
 43
0.0000000001
 40
0.0
 40
0.0
 40
0.0
 40
0.0
 40
0.1149359731
 40
0.2564541477
 40
0.4160947576
 40
0.5765825272999999
 40
0.6512311881000001
 40
0.7195990745000001
 40
0.7807244412000001
 40
0.8344230251999999
 40
0.8811678466
 40
0.9219490976000001
 40
0.9602856961
 40
1.0
 40
1.0
 40
1.0
 40
1.0
 10
9.9423940417
 20
6.5937615834
 30
0.0
 10
9.9328303141
 20
6.588239995599999
 30
0.0
 10
9.9099956014
 20
6.578462002799999
 30
0.0
 10
9.8707303052
 20
6.5698852459
 30
0.0
 10
9.826167378699999
 20
6.568290217
 30
0.0
 10
9.7883738813
 20
6.573878320499999
 30
0.0
 10
9.7605191891
 20
6.582686086699999
 30
0.0
 10
9.7425775316
 20
6.5907328927
 30
0.0
 10
9.727520807000001
 20
6.5999515523
 30
0.0
 10
9.7155303763
 20
6.6099064219
 30
0.0
 10
9.706575740499999
 20
6.620186541399999
 30
0.0
 10
9.7003264512
 20
6.6306220857
 30
0.0
 10
9.696473628799999
 20
6.641449365099999
 30
0.0
 10
9.695555137899999
 20
6.648975155599999
 30
0.0
 10
9.695554171599999
 20
6.652790966799999
 30
0.0
  0
SPLINE
  5
49F
330
20B
100
AcDbEntity
  8
0
  6
Continuous
 62
     7
100
AcDbSpline
210
0.0
220
0.0
230
1.0
 70
     8
 71
     3
 72
    11
 73
     7
 74
     0
 42
0.0000000001
 43
0.0000000001
 40
0.0
 40
0.0
 40
0.0
 40
0.0
 40
0.3037082844
 40
0.5685059980000001
 40
0.7973072111000001
 40
1.0
 40
1.0
 40
1.0
 40
1.0
 10
9.4957095006
 20
6.453929432799999
 30
0.0
 10
9.489057595
 20
6.457769825499999
 30
0.0
 10
9.477157142499999
 20
6.4660259809
 30
0.0
 10
9.463340633799999
 20
6.480983377
 30
0.0
 10
9.455161784899999
 20
6.4968554144
 30
0.0
 10
9.4533558897
 20
6.507833118599999
 30
0.0
 10
9.4533571882
 20
6.512959307899999
 30
0.0
  0
SPLINE
  5
4A0
330
20B
100
AcDbEntity
  8
0
  6
Continuous
 62
     7
100
AcDbSpline
210
0.0
220
0.0
230
1.0
 70
     8
 71
     3
 72
    11
 73
     7
 74
     0
 42
0.0000000001
 43
0.0000000001
 40
0.0
 40
0.0
 40
0.0
 40
0.0
 40
0.3037082844
 40
0.5685059980000001
 40
0.7973072111000001
 40
1.0
 40
1.0
 40
1.0
 40
1.0
 10
9.253512517
 20
6.3140977738
 30
0.0
 10
9.2468606113
 20
6.317938166499999
 30
0.0
 10
9.234960158899999
 20
6.3261943219
 30
0.0
 10
9.2211436502
 20
6.341151717999999
 30
0.0
 10
9.2129648013
 20
6.357023755399999
 30
0.0
 10
9.211158905999999
 20
6.3680014596
 30
0.0
 10
9.2111602045
 20
6.373127648899999
 30
0.0
  0
SPLINE
  5
4A1
330
20B
100
AcDbEntity
  8
0
  6
Continuous
 62
     7
100
AcDbSpline
210
0.0
220
0.0
230
1.0
 70
     8
 71
     3
 72
    11
 73
     7
 74
     0
 42
0.0000000001
 43
0.0000000001
 40
0.0
 40
0.0
 40
0.0
 40
0.0
 40
0.3037082844
 40
0.5685059980000001
 40
0.7973072111000001
 40
1.0
 40
1.0
 40
1.0
 40
1.0
 10
9.011315533399999
 20
6.174266114799999
 30
0.0
 10
9.004663627699999
 20
6.178106507499999
 30
0.0
 10
8.9927631753
 20
6.186362662899999
 30
0.0
 10
8.9789466665
 20
6.201320058999999
 30
0.0
 10
8.9707678177
 20
6.217192096399999
 30
0.0
 10
8.9689619224
 20
6.228169800599999
 30
0.0
 10
8.9689632209
 20
6.2332959899
 30
0.0
  0
SPLINE
  5
4A2
330
20B
100
AcDbEntity
  8
0
  6
Continuous
 62
     7
100
AcDbSpline
210
0.0
220
0.0
230
1.0
 70
     8
 71
     3
 72
    19
 73
    15
 74
     0
 42
0.0000000001
 43
0.0000000001
 40
0.0
 40
0.0
 40
0.0
 40
0.0
 40
0.1149359731
 40
0.2564541477
 40
0.4160947576
 40
0.5765825272999999
 40
0.6512311881000001
 40
0.7195990745000001
 40
0.7807244412000001
 40
0.8344230251999999
 40
0.8811678466
 40
0.9219490976000001
 40
0.9602856961
 40
1.0
 40
1.0
 40
1.0
 40
1.0
 10
8.9847416935
 20
6.028005959099999
 30
0.0
 10
8.9751779658
 20
6.0224843713
 30
0.0
 10
8.9523432532
 20
6.012706378599999
 30
0.0
 10
8.9130779569
 20
6.004129621599999
 30
0.0
 10
8.868515030399999
 20
6.0025345927
 30
0.0
 10
8.830721533
 20
6.0081226962
 30
0.0
 10
8.8028668409
 20
6.0169304624
 30
0.0
 10
8.7849251834
 20
6.0249772684
 30
0.0
 10
8.769868458699999
 20
6.034195927999999
 30
0.0
 10
8.757878028099998
 20
6.044150797599999
 30
0.0
 10
8.7489233923
 20
6.0544309171
 30
0.0
 10
8.742674102999998
 20
6.0648664614
 30
0.0
 10
8.738821280599999
 20
6.0756937408
 30
0.0
 10
8.737902789699999
 20
6.0832195313
 30
0.0
 10
8.737901823399999
 20
6.0870353425
 30
0.0
  0
SPLINE
  5
4A3
330
20B
100
AcDbEntity
  8
0
  6
Continuous
 62
     7
100
AcDbSpline
210
0.0
220
0.0
230
1.0
 70
     8
 71
     3
 72
     9
 73
     5
 74
     0
 42
0.0000000001
 43
0.0000000001
 40
0.0
 40
0.0
 40
0.0
 40
0.0
 40
0.2491544237
 40
1.0
 40
1.0
 40
1.0
 40
1.0
 10
9.2333212422
 20
6.186843347599999
 30
0.0
 10
9.232094361299999
 20
6.187890080199999
 30
0.0
 10
9.227069441099999
 20
6.1919726594
 30
0.0
 10
9.2216854934
 20
6.195605388999999
 30
0.0
 10
9.2175133841
 20
6.198098138699999
 30
0.0
  0
SPLINE
  5
4A4
330
20B
100
AcDbEntity
  8
0
  6
Continuous
 62
     7
100
AcDbSpline
210
0.0
220
0.0
230
1.0
 70
     8
 71
     3
 72
    18
 73
    14
 74
     0
 42
0.0000000001
 43
0.0000000001
 40
0.0
 40
0.0
 40
0.0
 40
0.0
 40
0.0464099873
 40
0.0954576361
 40
0.1482887748
 40
0.2051334267
 40
0.2653257833
 40
0.3276037367
 40
0.4523871881
 40
0.5750023572999999
 40
0.7133816440000001
 40
0.8601115851999999
 40
1.0
 40
1.0
 40
1.0
 40
1.0
 10
9.500349791899999
 20
6.373127649099999
 30
0.0
 10
9.5003479359
 20
6.368669271299999
 30
0.0
 10
9.499045569199999
 20
6.3594542148
 30
0.0
 10
9.493313351599999
 20
6.3462550946
 30
0.0
 10
9.4841199936
 20
6.333946686699999
 30
0.0
 10
9.471987461299999
 20
6.3229144696
 30
0.0
 10
9.4575530596
 20
6.313408397899999
 30
0.0
 10
9.436169385700001
 20
6.3029557534
 30
0.0
 10
9.4075366635
 20
6.2942053394
 30
0.0
 10
9.370704960800001
 20
6.289149887399999
 30
0.0
 10
9.331367804400001
 20
6.2896956144
 30
0.0
 10
9.2910120191
 20
6.2970405162
 30
0.0
 10
9.265150569099999
 20
6.3073786933
 30
0.0
 10
9.253512517
 20
6.3140977738
 30
0.0
  0
SPLINE
  5
4A5
330
20B
100
AcDbEntity
  8
0
  6
Continuous
 62
     7
100
AcDbSpline
210
0.0
220
0.0
230
1.0
 70
     8
 71
     3
 72
     9
 73
     5
 74
     0
 42
0.0000000001
 43
0.0000000001
 40
0.0
 40
0.0
 40
0.0
 40
0.0
 40
0.2491544237
 40
1.0
 40
1.0
 40
1.0
 40
1.0
 10
9.4755182258
 20
6.326675006599999
 30
0.0
 10
9.474291344899999
 20
6.327721739299999
 30
0.0
 10
9.4692664247
 20
6.3318043184
 30
0.0
 10
9.4638824771
 20
6.335437047999999
 30
0.0
 10
9.459710367699999
 20
6.3379297977
 30
0.0
  0
SPLINE
  5
4A6
330
20B
100
AcDbEntity
  8
0
  6
Continuous
 62
     7
100
AcDbSpline
210
0.0
220
0.0
230
1.0
 70
     8
 71
     3
 72
    10
 73
     6
 74
     0
 42
0.0000000001
 43
0.0000000001
 40
0.0
 40
0.0
 40
0.0
 40
0.0
 40
0.5219792904000001
 40
0.7641995040000001
 40
1.0
 40
1.0
 40
1.0
 40
1.0
 10
9.067951717899999
 20
4.374661428199999
 30
0.0
 10
9.065023398699999
 20
4.377997611299999
 30
0.0
 10
9.061345004199999
 20
4.3835486762
 30
0.0
 10
9.0588028233
 20
4.3917091679
 30
0.0
 10
9.058384140999999
 20
4.395787005399999
 30
0.0
 10
9.0583849636
 20
4.3977923154
 30
0.0
  0
SPLINE
  5
4A7
330
20B
100
AcDbEntity
  8
0
  6
Continuous
 62
     7
100
AcDbSpline
210
0.0
220
0.0
230
1.0
 70
     8
 71
     3
 72
    19
 73
    15
 74
     0
 42
0.0000000001
 43
0.0000000001
 40
0.0
 40
0.0
 40
0.0
 40
0.0
 40
0.1045017238
 40
0.1653243694
 40
0.2314363544
 40
0.3754488768
 40
0.5264066407
 40
0.6719471842
 40
0.7392657655
 40
0.8014838384
 40
0.8580971039000001
 40
0.9092436190999999
 40
0.9559089904
 40
1.0
 40
1.0
 40
1.0
 40
1.0
 10
10.2056968073
 20
4.9447428766
 30
0.0
 10
10.2022092537
 20
4.938446507
 30
0.0
 10
10.19387243
 20
4.9300413886
 30
0.0
 10
10.1802411296
 20
4.921780682799999
 30
0.0
 10
10.163006766
 20
4.9144434086
 30
0.0
 10
10.1384839458
 20
4.9091097324
 30
0.0
 10
10.1079694846
 20
4.9087319967
 30
0.0
 10
10.0831285794
 20
4.913450191499999
 30
0.0
 10
10.065417478
 20
4.9203103582
 30
0.0
 10
10.0541692912
 20
4.9265643197
 30
0.0
 10
10.0449522957
 20
4.933884751099999
 30
0.0
 10
10.0380545902
 20
4.942098033199999
 30
0.0
 10
10.0337386657
 20
4.950994432199999
 30
0.0
 10
10.032741261
 20
4.957281452799999
 30
0.0
 10
10.0327411197
 20
4.960318293899999
 30
0.0
  0
SPLINE
  5
4A8
330
20B
100
AcDbEntity
  8
0
  6
Continuous
 62
     7
100
AcDbSpline
210
0.0
220
0.0
230
1.0
 70
     8
 71
     3
 72
    18
 73
    14
 74
     0
 42
0.0000000001
 43
0.0000000001
 40
0.0
 40
0.0
 40
0.0
 40
0.0
 40
0.0464099873
 40
0.0954576361
 40
0.1482887748
 40
0.2051334267
 40
0.2653257833
 40
0.3276037367
 40
0.4523871881
 40
0.5750023572999999
 40
0.7133816440000001
 40
0.8601115851999999
 40
1.0
 40
1.0
 40
1.0
 40
1.0
 10
9.742546775499999
 20
6.512959308099999
 30
0.0
 10
9.7425449195
 20
6.508500930299999
 30
0.0
 10
9.741242552799999
 20
6.499285873799999
 30
0.0
 10
9.735510335199998
 20
6.4860867536
 30
0.0
 10
9.726316977199999
 20
6.4737783457
 30
0.0
 10
9.7141844449
 20
6.4627461286
 30
0.0
 10
9.699750043199999
 20
6.4532400569
 30
0.0
 10
9.6783663694
 20
6.4427874124
 30
0.0
 10
9.649733647099999
 20
6.4340369984
 30
0.0
 10
9.6129019444
 20
6.4289815464
 30
0.0
 10
9.573564787999998
 20
6.4295272734
 30
0.0
 10
9.533209002699999
 20
6.436872175199999
 30
0.0
 10
9.5073475527
 20
6.447210352299999
 30
0.0
 10
9.4957095006
 20
6.453929432799999
 30
0.0
  0
SPLINE
  5
4A9
330
20B
100
AcDbEntity
  8
0
  6
Continuous
 62
     7
100
AcDbSpline
210
0.0
220
0.0
230
1.0
 70
     8
 71
     3
 72
     9
 73
     5
 74
     0
 42
0.0000000001
 43
0.0000000001
 40
0.0
 40
0.0
 40
0.0
 40
0.0
 40
0.2491544237
 40
1.0
 40
1.0
 40
1.0
 40
1.0
 10
9.717715209400001
 20
6.466506665599999
 30
0.0
 10
9.7164883286
 20
6.4675533983
 30
0.0
 10
9.7114634083
 20
6.4716359774
 30
0.0
 10
9.706079460699999
 20
6.475268707
 30
0.0
 10
9.701907351399999
 20
6.477761456699999
 30
0.0
  0
SPLINE
  5
4AA
330
20B
100
AcDbEntity
  8
0
  6
Continuous
 62
     7
100
AcDbSpline
210
0.0
220
0.0
230
1.0
 70
     8
 71
     3
 72
    12
 73
     8
 74
     0
 42
0.0000000001
 43
0.0000000001
 40
0.0
 40
0.0
 40
0.0
 40
0.0
 40
0.1197169014
 40
0.2397358572
 40
0.4850348738
 40
0.7398631381000001
 40
1.0
 40
1.0
 40
1.0
 40
1.0
 10
9.9847437594
 20
6.652790966799999
 30
0.0
 10
9.9847450205
 20
6.6497611026
 30
0.0
 10
9.984161801799999
 20
6.643678647499999
 30
0.0
 10
9.9807771787
 20
6.6318202083
 30
0.0
 10
9.972684227
 20
6.6180653132
 30
0.0
 10
9.958936281799999
 20
6.604408894199999
 30
0.0
 10
9.948095696499999
 20
6.597053415599999
 30
0.0
 10
9.9423940417
 20
6.5937615834
 30
0.0
  0
SPLINE
  5
4AB
330
20B
100
AcDbEntity
  8
0
  6
Continuous
 62
     7
100
AcDbSpline
210
0.0
220
0.0
230
1.0
 70
     8
 71
     3
 72
    15
 73
    11
 74
     0
 42
0.0000000001
 43
0.0000000001
 40
0.0
 40
0.0
 40
0.0
 40
0.0
 40
0.1135573906
 40
0.23208923
 40
0.3490564122999999
 40
0.4647055235
 40
0.5931370882
 40
0.7304166712000001
 40
0.8690435734000001
 40
1.0
 40
1.0
 40
1.0
 40
1.0
 10
9.959924822499999
 20
6.606334303799999
 30
0.0
 10
9.953197135799999
 20
6.6120803832
 30
0.0
 10
9.937889490999999
 20
6.622032665899999
 30
0.0
 10
9.9126723579
 20
6.6324800098
 30
0.0
 10
9.8860893221
 20
6.6392767363
 30
0.0
 10
9.8581415848
 20
6.642944826499999
 30
0.0
 10
9.828362524400001
 20
6.6434175507
 30
0.0
 10
9.7969513023
 20
6.639997250599999
 30
0.0
 10
9.766114404899999
 20
6.6322005596
 30
0.0
 10
9.7467418397
 20
6.6236991894
 30
0.0
 10
9.7379056329
 20
6.6185976335
 30
0.0
  0
SPLINE
  5
4AC
330
20B
100
AcDbEntity
  8
0
  6
Continuous
 62
     7
100
AcDbSpline
210
0.0
220
0.0
230
1.0
 70
     8
 71
     3
 72
    12
 73
     8
 74
     0
 42
0.0000000001
 43
0.0000000001
 40
0.0
 40
0.0
 40
0.0
 40
0.0
 40
0.1197169014
 40
0.2397358572
 40
0.4850348738
 40
0.7398631381000001
 40
1.0
 40
1.0
 40
1.0
 40
1.0
 10
9.149574792699999
 20
7.1349650863
 30
0.0
 10
9.1495760538
 20
7.1319352221
 30
0.0
 10
9.148992835099999
 20
7.125852767
 30
0.0
 10
9.1456082119
 20
7.113994327799999
 30
0.0
 10
9.137515260299998
 20
7.100239432699999
 30
0.0
 10
9.1237673151
 20
7.0865830137
 30
0.0
 10
9.112926729799999
 20
7.0792275351
 30
0.0
 10
9.107225075
 20
7.075935702899999
 30
0.0
  0
SPLINE
  5
4AD
330
20B
100
AcDbEntity
  8
0
  6
Continuous
 62
     7
100
AcDbSpline
210
0.0
220
0.0
230
1.0
 70
     8
 71
     3
 72
    15
 73
    11
 74
     0
 42
0.0000000001
 43
0.0000000001
 40
0.0
 40
0.0
 40
0.0
 40
0.0
 40
0.1135573906
 40
0.23208923
 40
0.3490564122999999
 40
0.4647055235
 40
0.5931370882
 40
0.7304166712000001
 40
0.8690435734000001
 40
1.0
 40
1.0
 40
1.0
 40
1.0
 10
9.1247558558
 20
7.0885084233
 30
0.0
 10
9.1180281691
 20
7.0942545027
 30
0.0
 10
9.102720524299998
 20
7.104206785499999
 30
0.0
 10
9.0775033912
 20
7.114654129299999
 30
0.0
 10
9.050920355399998
 20
7.1214508558
 30
0.0
 10
9.022972618099998
 20
7.125118946
 30
0.0
 10
8.993193557699999
 20
7.125591670199999
 30
0.0
 10
8.961782335599998
 20
7.1221713701
 30
0.0
 10
8.9309454382
 20
7.114374679099999
 30
0.0
 10
8.911572872999999
 20
7.105873308899999
 30
0.0
 10
8.9027366662
 20
7.100771752999999
 30
0.0
  0
SPLINE
  5
4AE
330
20B
100
AcDbEntity
  8
0
  6
Continuous
 62
     7
100
AcDbSpline
210
0.0
220
0.0
230
1.0
 70
     8
 71
     3
 72
    18
 73
    14
 74
     0
 42
0.0000000001
 43
0.0000000001
 40
0.0
 40
0.0
 40
0.0
 40
0.0
 40
0.0464099873
 40
0.0954576361
 40
0.1482887748
 40
0.2051334267
 40
0.2653257833
 40
0.3276037367
 40
0.4523871881
 40
0.5750023572999999
 40
0.7133816440000001
 40
0.8601115851999999
 40
1.0
 40
1.0
 40
1.0
 40
1.0
 10
8.907377808799999
 20
6.995133427599999
 30
0.0
 10
8.907375952799998
 20
6.9906750498
 30
0.0
 10
8.906073586099999
 20
6.9814599933
 30
0.0
 10
8.900341368499999
 20
6.968260873099999
 30
0.0
 10
8.8911480105
 20
6.9559524652
 30
0.0
 10
8.879015478200001
 20
6.944920248099999
 30
0.0
 10
8.8645810765
 20
6.9354141764
 30
0.0
 10
8.843197402599999
 20
6.9249615319
 30
0.0
 10
8.8145646804
 20
6.916211117899999
 30
0.0
 10
8.777732977699999
 20
6.911155665999999
 30
0.0
 10
8.738395821299999
 20
6.911701392899999
 30
0.0
 10
8.698040036
 20
6.9190462948
 30
0.0
 10
8.672178585999999
 20
6.929384471799999
 30
0.0
 10
8.660540533899999
 20
6.9361035523
 30
0.0
  0
SPLINE
  5
4AF
330
20B
100
AcDbEntity
  8
0
  6
Continuous
 62
     7
100
AcDbSpline
210
0.0
220
0.0
230
1.0
 70
     8
 71
     3
 72
     9
 73
     5
 74
     0
 42
0.0000000001
 43
0.0000000001
 40
0.0
 40
0.0
 40
0.0
 40
0.0
 40
0.2491544237
 40
1.0
 40
1.0
 40
1.0
 40
1.0
 10
8.8825462427
 20
6.948680785099999
 30
0.0
 10
8.881319361900001
 20
6.949727517799999
 30
0.0
 10
8.876294441599998
 20
6.9538100969
 30
0.0
 10
8.870910494
 20
6.957442826499999
 30
0.0
 10
8.866738384599999
 20
6.9599355762
 30
0.0
  0
SPLINE
  5
4B0
330
20B
100
AcDbEntity
  8
0
  6
Continuous
 62
     7
100
AcDbSpline
210
0.0
220
0.0
230
1.0
 70
     8
 71
     3
 72
    18
 73
    14
 74
     0
 42
0.0000000001
 43
0.0000000001
 40
0.0
 40
0.0
 40
0.0
 40
0.0
 40
0.0464099873
 40
0.0954576361
 40
0.1482887748
 40
0.2051334267
 40
0.2653257833
 40
0.3276037367
 40
0.4523871881
 40
0.5750023572999999
 40
0.7133816440000001
 40
0.8601115851999999
 40
1.0
 40
1.0
 40
1.0
 40
1.0
 10
8.6651808252
 20
6.8553017686
 30
0.0
 10
8.665178969199999
 20
6.8508433908
 30
0.0
 10
8.6638766025
 20
6.841628334299999
 30
0.0
 10
8.658144384899999
 20
6.828429214099999
 30
0.0
 10
8.648951026799998
 20
6.816120806199999
 30
0.0
 10
8.636818494599999
 20
6.805088589099999
 30
0.0
 10
8.622384092899999
 20
6.795582517399999
 30
0.0
 10
8.601000419
 20
6.785129872899999
 30
0.0
 10
8.572367696799998
 20
6.7763794589
 30
0.0
 10
8.535535993999999
 20
6.7713240069
 30
0.0
 10
8.496198837699999
 20
6.7718697339
 30
0.0
 10
8.4558430524
 20
6.7792146358
 30
0.0
 10
8.429981602399999
 20
6.789552812799999
 30
0.0
 10
8.418343550299999
 20
6.7962718933
 30
0.0
  0
SPLINE
  5
4B1
330
20B
100
AcDbEntity
  8
0
  6
Continuous
 62
     7
100
AcDbSpline
210
0.0
220
0.0
230
1.0
 70
     8
 71
     3
 72
     9
 73
     5
 74
     0
 42
0.0000000001
 43
0.0000000001
 40
0.0
 40
0.0
 40
0.0
 40
0.0
 40
0.2491544237
 40
1.0
 40
1.0
 40
1.0
 40
1.0
 10
8.640349259099998
 20
6.8088491261
 30
0.0
 10
8.639122378199999
 20
6.8098958588
 30
0.0
 10
8.634097457999999
 20
6.813978437899999
 30
0.0
 10
8.628713510399999
 20
6.817611167499999
 30
0.0
 10
8.624541401
 20
6.820103917199999
 30
0.0
  0
SPLINE
  5
4B2
330
20B
100
AcDbEntity
  8
0
  6
Continuous
 62
     7
100
AcDbSpline
210
0.0
220
0.0
230
1.0
 70
     8
 71
     3
 72
    18
 73
    14
 74
     0
 42
0.0000000001
 43
0.0000000001
 40
0.0
 40
0.0
 40
0.0
 40
0.0
 40
0.0464099873
 40
0.0954576361
 40
0.1482887748
 40
0.2051334267
 40
0.2653257833
 40
0.3276037367
 40
0.4523871881
 40
0.5750023572999999
 40
0.7133816440000001
 40
0.8601115851999999
 40
1.0
 40
1.0
 40
1.0
 40
1.0
 10
8.422983841499998
 20
6.7154701096
 30
0.0
 10
8.422981985599999
 20
6.711011731799999
 30
0.0
 10
8.4216796189
 20
6.701796675299999
 30
0.0
 10
8.4159474013
 20
6.6885975551
 30
0.0
 10
8.406754043200001
 20
6.6762891472
 30
0.0
 10
8.394621511
 20
6.665256930099999
 30
0.0
 10
8.380187109299999
 20
6.6557508584
 30
0.0
 10
8.3588034354
 20
6.645298213899999
 30
0.0
 10
8.330170713099999
 20
6.636547799899999
 30
0.0
 10
8.2933390104
 20
6.631492347899999
 30
0.0
 10
8.2540018541
 20
6.6320380749
 30
0.0
 10
8.213646068799999
 20
6.639382976699999
 30
0.0
 10
8.1877846188
 20
6.649721153799999
 30
0.0
 10
8.176146566699999
 20
6.656440234299999
 30
0.0
  0
SPLINE
  5
4B3
330
20B
100
AcDbEntity
  8
0
  6
Continuous
 62
     7
100
AcDbSpline
210
0.0
220
0.0
230
1.0
 70
     8
 71
     3
 72
     9
 73
     5
 74
     0
 42
0.0000000001
 43
0.0000000001
 40
0.0
 40
0.0
 40
0.0
 40
0.0
 40
0.2491544237
 40
1.0
 40
1.0
 40
1.0
 40
1.0
 10
8.398152275499999
 20
6.6690174671
 30
0.0
 10
8.3969253946
 20
6.6700641998
 30
0.0
 10
8.391900474299999
 20
6.674146778899999
 30
0.0
 10
8.386516526699999
 20
6.6777795085
 30
0.0
 10
8.3823444174
 20
6.6802722582
 30
0.0
  0
SPLINE
  5
4B4
330
20B
100
AcDbEntity
  8
0
  6
Continuous
 62
     7
100
AcDbSpline
210
0.0
220
0.0
230
1.0
 70
     8
 71
     3
 72
    12
 73
     8
 74
     0
 42
0.0000000001
 43
0.0000000001
 40
0.0
 40
0.0
 40
0.0
 40
0.0
 40
0.1197169014
 40
0.2397358572
 40
0.4850348738
 40
0.7398631381000001
 40
1.0
 40
1.0
 40
1.0
 40
1.0
 10
8.169651272000001
 20
6.5820674386
 30
0.0
 10
8.169652533099998
 20
6.579037574299999
 30
0.0
 10
8.169069314399999
 20
6.572955119199999
 30
0.0
 10
8.165684691299999
 20
6.561096680099999
 30
0.0
 10
8.1575917396
 20
6.547341785
 30
0.0
 10
8.1438437944
 20
6.533685366
 30
0.0
 10
8.133003209099999
 20
6.5263298874
 30
0.0
 10
8.127301554299998
 20
6.523038055099999
 30
0.0
  0
SPLINE
  5
4B5
330
20B
100
AcDbEntity
  8
0
  6
Continuous
 62
     7
100
AcDbSpline
210
0.0
220
0.0
230
1.0
 70
     8
 71
     3
 72
    15
 73
    11
 74
     0
 42
0.0000000001
 43
0.0000000001
 40
0.0
 40
0.0
 40
0.0
 40
0.0
 40
0.1135573906
 40
0.23208923
 40
0.3490564122999999
 40
0.4647055235
 40
0.5931370882
 40
0.7304166712000001
 40
0.8690435734000001
 40
1.0
 40
1.0
 40
1.0
 40
1.0
 10
8.1448323351
 20
6.535610775599999
 30
0.0
 10
8.1381046484
 20
6.5413568549
 30
0.0
 10
8.1227970036
 20
6.551309137699999
 30
0.0
 10
8.097579870499998
 20
6.561756481499999
 30
0.0
 10
8.0709968347
 20
6.568553208099999
 30
0.0
 10
8.0430490974
 20
6.5722212983
 30
0.0
 10
8.013270036999999
 20
6.5726940225
 30
0.0
 10
7.981858814999999
 20
6.5692737224
 30
0.0
 10
7.9510219176
 20
6.561477031299999
 30
0.0
 10
7.9316493523
 20
6.552975661199999
 30
0.0
 10
7.922813145499999
 20
6.5478741053
 30
0.0
  0
SPLINE
  5
4B6
330
20B
100
AcDbEntity
  8
0
  6
Continuous
 62
     7
100
AcDbSpline
210
0.0
220
0.0
230
1.0
 70
     8
 71
     3
 72
    12
 73
     8
 74
     0
 42
0.0000000001
 43
0.0000000001
 40
0.0
 40
0.0
 40
0.0
 40
0.0
 40
0.2601371296
 40
0.5149656216
 40
0.7602645725000001
 40
0.8802833506
 40
1.0
 40
1.0
 40
1.0
 40
1.0
 10
8.865027239999999
 20
7.0541633024
 30
0.0
 10
8.870728997899998
 20
7.050871465499999
 30
0.0
 10
8.881569786
 20
7.043515962199999
 30
0.0
 10
8.8953180082
 20
7.0298594508
 30
0.0
 10
8.903411139299999
 20
7.0161044184
 30
0.0
 10
8.906795838899999
 20
7.0042458475
 30
0.0
 10
8.907379070099999
 20
6.9981633245
 30
0.0
 10
8.907377808799999
 20
6.995133427599999
 30
0.0
  0
SPLINE
  5
4B7
330
20B
100
AcDbEntity
  8
0
  6
Continuous
 62
     7
100
AcDbSpline
210
0.0
220
0.0
230
1.0
 70
     8
 71
     3
 72
    15
 73
    11
 74
     0
 42
0.0000000001
 43
0.0000000001
 40
0.0
 40
0.0
 40
0.0
 40
0.0
 40
0.1311594574
 40
0.2696232534
 40
0.4067020355
 40
0.5351734675000001
 40
0.6509080463
 40
0.767422536
 40
0.8858784289
 40
1.0
 40
1.0
 40
1.0
 40
1.0
 10
8.903840936799999
 20
7.098187837699999
 30
0.0
 10
8.9125894275
 20
7.1031302847
 30
0.0
 10
8.931682504099999
 20
7.111375324599999
 30
0.0
 10
8.9620052845
 20
7.1189690449
 30
0.0
 10
8.9928619936
 20
7.122339485399999
 30
0.0
 10
9.022136040700001
 20
7.1219449795
 30
0.0
 10
9.0496051772
 20
7.118463079999999
 30
0.0
 10
9.0757537455
 20
7.111978847599999
 30
0.0
 10
9.1006656152
 20
7.1020011433
 30
0.0
 10
9.1159204038
 20
7.092493599299999
 30
0.0
 10
9.122714641099999
 20
7.086991318099999
 30
0.0
  0
SPLINE
  5
4B8
330
20B
100
AcDbEntity
  8
0
  6
Continuous
 62
     7
100
AcDbSpline
210
0.0
220
0.0
230
1.0
 70
     8
 71
     3
 72
     8
 73
     4
 74
     0
 42
0.0000000001
 43
0.0000000001
 40
0.0
 40
0.0
 40
0.0
 40
0.0
 40
1.0
 40
1.0
 40
1.0
 40
1.0
 10
8.865027239999999
 20
6.957726009099999
 30
0.0
 10
8.8704399351
 20
6.954601058799999
 30
0.0
 10
8.8756562698
 20
6.951088540999999
 30
0.0
 10
8.8805135834
 20
6.947155464999999
 30
0.0
  0
SPLINE
  5
4B9
330
20B
100
AcDbEntity
  8
0
  6
Continuous
 62
     7
100
AcDbSpline
210
0.0
220
0.0
230
1.0
 70
     8
 71
     3
 72
     8
 73
     4
 74
     0
 42
0.0000000001
 43
0.0000000001
 40
0.0
 40
0.0
 40
0.0
 40
0.0
 40
1.0
 40
1.0
 40
1.0
 40
1.0
 10
8.6228302564
 20
6.817894350099999
 30
0.0
 10
8.628242951499998
 20
6.8147693998
 30
0.0
 10
8.6334592862
 20
6.8112568819
 30
0.0
 10
8.638316599799999
 20
6.807323806
 30
0.0
  0
SPLINE
  5
4BA
330
20B
100
AcDbEntity
  8
0
  6
Continuous
 62
     7
100
AcDbSpline
210
0.0
220
0.0
230
1.0
 70
     8
 71
     3
 72
     8
 73
     4
 74
     0
 42
0.0000000001
 43
0.0000000001
 40
0.0
 40
0.0
 40
0.0
 40
0.0
 40
1.0
 40
1.0
 40
1.0
 40
1.0
 10
8.380633272799999
 20
6.6780626911
 30
0.0
 10
8.386045967799999
 20
6.6749377408
 30
0.0
 10
8.391262302599999
 20
6.671425222899999
 30
0.0
 10
8.3961196162
 20
6.667492147
 30
0.0
  0
SPLINE
  5
4BB
330
20B
100
AcDbEntity
  8
0
  6
Continuous
 62
     7
100
AcDbSpline
210
0.0
220
0.0
230
1.0
 70
     8
 71
     3
 72
    18
 73
    14
 74
     0
 42
0.0000000001
 43
0.0000000001
 40
0.0
 40
0.0
 40
0.0
 40
0.0
 40
0.1398879407
 40
0.2866175986
 40
0.4249967304000001
 40
0.5476119666
 40
0.6723957937999999
 40
0.7346739309999999
 40
0.7948664422000001
 40
0.851711204
 40
0.9045423981999999
 40
0.9535900504
 40
1.0
 40
1.0
 40
1.0
 40
1.0
 10
8.9027366662
 20
7.193994469899999
 30
0.0
 10
8.9143746699
 20
7.2007136344
 30
0.0
 10
8.9402360883
 20
7.2110519634
 30
0.0
 10
8.980591895699999
 20
7.218397037999999
 30
0.0
 10
9.019929148799999
 20
7.2189429009
 30
0.0
 10
9.056761020099999
 20
7.2138875445
 30
0.0
 10
9.085393923799999
 20
7.2051371663
 30
0.0
 10
9.106777759499999
 20
7.194684512
 30
0.0
 10
9.1212122694
 20
7.185178419099999
 30
0.0
 10
9.133344889299999
 20
7.1741461694
 30
0.0
 10
9.1425383094
 20
7.161837721499999
 30
0.0
 10
9.1482705616
 20
7.1486385601
 30
0.0
 10
9.1495729369
 20
7.1394234757
 30
0.0
 10
9.149574792699999
 20
7.1349650863
 30
0.0
  0
SPLINE
  5
4BC
330
20B
100
AcDbEntity
  8
0
  6
Continuous
 62
     7
100
AcDbSpline
210
0.0
220
0.0
230
1.0
 70
     8
 71
     3
 72
    15
 73
    11
 74
     0
 42
0.0000000001
 43
0.0000000001
 40
0.0
 40
0.0
 40
0.0
 40
0.0
 40
0.1058422105
 40
0.2295579857
 40
0.3670793741
 40
0.5110847287000001
 40
0.6528211327000001
 40
0.78450476
 40
0.9007734123999998
 40
1.0
 40
1.0
 40
1.0
 40
1.0
 10
8.645037785899999
 20
6.947148637999999
 30
0.0
 10
8.6513394928
 20
6.952252615099999
 30
0.0
 10
8.6662976696
 20
6.9617585698
 30
0.0
 10
8.692440633
 20
6.9724415413
 30
0.0
 10
8.722752530099999
 20
6.979672035399999
 30
0.0
 10
8.7551308337
 20
6.9827737895
 30
0.0
 10
8.787182239099999
 20
6.981655390399999
 30
0.0
 10
8.816727973099999
 20
6.9767931444
 30
0.0
 10
8.8422526022
 20
6.969044774099999
 30
0.0
 10
8.857304659299998
 20
6.962095131799999
 30
0.0
 10
8.863924092899999
 20
6.958355981
 30
0.0
  0
SPLINE
  5
4BD
330
20B
100
AcDbEntity
  8
0
  6
Continuous
 62
     7
100
AcDbSpline
210
0.0
220
0.0
230
1.0
 70
     8
 71
     3
 72
    15
 73
    11
 74
     0
 42
0.0000000001
 43
0.0000000001
 40
0.0
 40
0.0
 40
0.0
 40
0.0
 40
0.1311594574
 40
0.2696232534
 40
0.4067020355
 40
0.5351734675000001
 40
0.6509080463
 40
0.767422536
 40
0.8858784289
 40
1.0
 40
1.0
 40
1.0
 40
1.0
 10
7.9239174161
 20
6.5452901899
 30
0.0
 10
7.9326659069
 20
6.550232637
 30
0.0
 10
7.9517589834
 20
6.5584776769
 30
0.0
 10
7.9820817639
 20
6.566071397199999
 30
0.0
 10
8.012938473
 20
6.5694418376
 30
0.0
 10
8.042212519999999
 20
6.569047331799999
 30
0.0
 10
8.0696816565
 20
6.5655654323
 30
0.0
 10
8.0958302249
 20
6.5590811998
 30
0.0
 10
8.1207420945
 20
6.549103495599999
 30
0.0
 10
8.135996883099998
 20
6.539595951499999
 30
0.0
 10
8.1427911204
 20
6.534093670399999
 30
0.0
  0
SPLINE
  5
4BE
330
20B
100
AcDbEntity
  8
0
  6
Continuous
 62
     7
100
AcDbSpline
210
0.0
220
0.0
230
1.0
 70
     8
 71
     3
 72
    18
 73
    14
 74
     0
 42
0.0000000001
 43
0.0000000001
 40
0.0
 40
0.0
 40
0.0
 40
0.0
 40
0.1398879407
 40
0.2866175986
 40
0.4249967304000001
 40
0.5476119666
 40
0.6723957937999999
 40
0.7346739309999999
 40
0.7948664422000001
 40
0.851711204
 40
0.9045423981999999
 40
0.9535900504
 40
1.0
 40
1.0
 40
1.0
 40
1.0
 10
9.7379056329
 20
6.7118203504
 30
0.0
 10
9.7495436366
 20
6.718539514899999
 30
0.0
 10
9.7754050551
 20
6.728877843899999
 30
0.0
 10
9.815760862399999
 20
6.7362229185
 30
0.0
 10
9.855098115499998
 20
6.7367687813
 30
0.0
 10
9.891929986799999
 20
6.731713424999999
 30
0.0
 10
9.920562890599999
 20
6.722963046699999
 30
0.0
 10
9.941946726199999
 20
6.712510392499999
 30
0.0
 10
9.9563812361
 20
6.7030042996
 30
0.0
 10
9.968513855999999
 20
6.6919720498
 30
0.0
 10
9.9777072761
 20
6.6796636019
 30
0.0
 10
9.983439528299999
 20
6.666464440599999
 30
0.0
 10
9.984741903599999
 20
6.6572493562
 30
0.0
 10
9.9847437594
 20
6.652790966799999
 30
0.0
  0
SPLINE
  5
4BF
330
20B
100
AcDbEntity
  8
0
  6
Continuous
 62
     7
100
AcDbSpline
210
0.0
220
0.0
230
1.0
 70
     8
 71
     3
 72
    12
 73
     8
 74
     0
 42
0.0000000001
 43
0.0000000001
 40
0.0
 40
0.0
 40
0.0
 40
0.0
 40
0.2601371296
 40
0.5149656216
 40
0.7602645725000001
 40
0.8802833506
 40
1.0
 40
1.0
 40
1.0
 40
1.0
 10
9.700196206799999
 20
6.571989182899999
 30
0.0
 10
9.7058979646
 20
6.568697346
 30
0.0
 10
9.716738752799999
 20
6.5613418426
 30
0.0
 10
9.730486974899999
 20
6.5476853312
 30
0.0
 10
9.738580106
 20
6.533930298899999
 30
0.0
 10
9.741964805599998
 20
6.522071727999999
 30
0.0
 10
9.742548036799998
 20
6.515989205
 30
0.0
 10
9.742546775499999
 20
6.512959308099999
 30
0.0
  0
SPLINE
  5
4C0
330
20B
100
AcDbEntity
  8
0
  6
Continuous
 62
     7
100
AcDbSpline
210
0.0
220
0.0
230
1.0
 70
     8
 71
     3
 72
    12
 73
     8
 74
     0
 42
0.0000000001
 43
0.0000000001
 40
0.0
 40
0.0
 40
0.0
 40
0.0
 40
0.2601371296
 40
0.5149656216
 40
0.7602645725000001
 40
0.8802833506
 40
1.0
 40
1.0
 40
1.0
 40
1.0
 10
9.457999223099999
 20
6.432157523899999
 30
0.0
 10
9.463700981
 20
6.428865687
 30
0.0
 10
9.4745417691
 20
6.421510183599999
 30
0.0
 10
9.4882899913
 20
6.407853672199999
 30
0.0
 10
9.496383122399999
 20
6.3940986399
 30
0.0
 10
9.499767822
 20
6.382240068999999
 30
0.0
 10
9.500351053099999
 20
6.376157545999999
 30
0.0
 10
9.500349791899999
 20
6.373127649099999
 30
0.0
  0
SPLINE
  5
4C1
330
20B
100
AcDbEntity
  8
0
  6
Continuous
 62
     7
100
AcDbSpline
210
0.0
220
0.0
230
1.0
 70
     8
 71
     3
 72
    12
 73
     8
 74
     0
 42
0.0000000001
 43
0.0000000001
 40
0.0
 40
0.0
 40
0.0
 40
0.0
 40
0.2601371296
 40
0.5149656216
 40
0.7602645725000001
 40
0.8802833506
 40
1.0
 40
1.0
 40
1.0
 40
1.0
 10
9.2158022395
 20
6.2923258649
 30
0.0
 10
9.221503997399999
 20
6.289034027999999
 30
0.0
 10
9.232344785499998
 20
6.2816785246
 30
0.0
 10
9.246093007699998
 20
6.2680220132
 30
0.0
 10
9.254186138799999
 20
6.2542669809
 30
0.0
 10
9.257570838399999
 20
6.24240841
 30
0.0
 10
9.258154069499999
 20
6.236325887
 30
0.0
 10
9.2581528082
 20
6.2332959901
 30
0.0
  0
SPLINE
  5
4C2
330
20B
100
AcDbEntity
  8
0
  6
Continuous
 62
     7
100
AcDbSpline
210
0.0
220
0.0
230
1.0
 70
     8
 71
     3
 72
    18
 73
    14
 74
     0
 42
0.0000000001
 43
0.0000000001
 40
0.0
 40
0.0
 40
0.0
 40
0.0
 40
0.1398879407
 40
0.2866175986
 40
0.4249967304000001
 40
0.5476119666
 40
0.6723957937999999
 40
0.7346739309999999
 40
0.7948664422000001
 40
0.851711204
 40
0.9045423981999999
 40
0.9535900504
 40
1.0
 40
1.0
 40
1.0
 40
1.0
 10
8.7802532846
 20
6.1460647261
 30
0.0
 10
8.7918912883
 20
6.152783890599999
 30
0.0
 10
8.8177527068
 20
6.163122219599999
 30
0.0
 10
8.858108514199999
 20
6.170467294199999
 30
0.0
 10
8.8974457673
 20
6.171013157099999
 30
0.0
 10
8.934277638599999
 20
6.1659578007
 30
0.0
 10
8.962910542299999
 20
6.157207422499999
 30
0.0
 10
8.984294377999999
 20
6.1467547682
 30
0.0
 10
8.9987288879
 20
6.137248675299999
 30
0.0
 10
9.010861507799999
 20
6.126216425599999
 30
0.0
 10
9.0200549279
 20
6.113907977699999
 30
0.0
 10
9.02578718
 20
6.1007088163
 30
0.0
 10
9.027089555399999
 20
6.0914937319
 30
0.0
 10
9.0270914111
 20
6.0870353425
 30
0.0
  0
SPLINE
  5
4C3
330
20B
100
AcDbEntity
  8
0
  6
Continuous
 62
     7
100
AcDbSpline
210
0.0
220
0.0
230
1.0
 70
     8
 71
     3
 72
     9
 73
     5
 74
     0
 42
0.0000000001
 43
0.0000000001
 40
0.0
 40
0.0
 40
0.0
 40
0.0
 40
0.2409987955
 40
1.0
 40
1.0
 40
1.0
 40
1.0
 10
8.764737511699999
 20
6.0390388875
 30
0.0
 10
8.765910870099999
 20
6.0399891598
 30
0.0
 10
8.7708648244
 20
6.0438264744
 30
0.0
 10
8.776135097799999
 20
6.0472498107
 30
0.0
 10
8.7802532846
 20
6.049627432799999
 30
0.0
  0
SPLINE
  5
4C4
330
20B
100
AcDbEntity
  8
0
  6
Continuous
 62
     7
100
AcDbSpline
210
0.0
220
0.0
230
1.0
 70
     8
 71
     3
 72
    19
 73
    15
 74
     0
 42
0.0000000001
 43
0.0000000001
 40
0.0
 40
0.0
 40
0.0
 40
0.0
 40
0.0397141477
 40
0.0780505933
 40
0.1188319149
 40
0.1655768021
 40
0.2192754252
 40
0.2804008012
 40
0.3487686624
 40
0.4234172661
 40
0.5839048810000001
 40
0.7435454095999999
 40
0.8850637026999999
 40
1.0
 40
1.0
 40
1.0
 40
1.0
 10
9.2111602045
 20
6.373127648899999
 30
0.0
 10
9.2111611711
 20
6.3769434322
 30
0.0
 10
9.212079647499999
 20
6.3844691671
 30
0.0
 10
9.2159324241
 20
6.395296395899999
 30
0.0
 10
9.2221816616
 20
6.4057319215
 30
0.0
 10
9.231136252999998
 20
6.4160120412
 30
0.0
 10
9.2431266284
 20
6.425966911799999
 30
0.0
 10
9.258183283999999
 20
6.435185574
 30
0.0
 10
9.2761248569
 20
6.4432323883
 30
0.0
 10
9.303979413099998
 20
6.452040179599999
 30
0.0
 10
9.341772739699999
 20
6.4576283508
 30
0.0
 10
9.3863355061
 20
6.456033461399999
 30
0.0
 10
9.425600734799999
 20
6.447456884099999
 30
0.0
 10
9.4484354611
 20
6.4376790396
 30
0.0
 10
9.457999223099999
 20
6.432157523899999
 30
0.0
  0
SPLINE
  5
4C5
330
20B
100
AcDbEntity
  8
0
  6
Continuous
 62
     7
100
AcDbSpline
210
0.0
220
0.0
230
1.0
 70
     8
 71
     3
 72
    16
 73
    12
 74
     0
 42
0.0000000001
 43
0.0000000001
 40
0.0
 40
0.0
 40
0.0
 40
0.0
 40
0.0430378905
 40
0.087421507
 40
0.184160627
 40
0.2959875949
 40
0.4232472428000001
 40
0.5628400038
 40
0.7096324524
 40
0.8574565928
 40
1.0
 40
1.0
 40
1.0
 40
1.0
 10
10.0327411197
 20
4.960318293899999
 30
0.0
 10
10.0327410182
 20
4.9624990011
 30
0.0
 10
10.0332415606
 20
4.9669430199
 30
0.0
 10
10.0362659277
 20
4.9758365074
 30
0.0
 10
10.044007873
 20
4.986415048
 30
0.0
 10
10.0577595536
 20
4.996713114599999
 30
0.0
 10
10.075353834
 20
5.0046712724
 30
0.0
 10
10.095756788
 20
5.0098512144
 30
0.0
 10
10.1177381875
 20
5.011962759599999
 30
0.0
 10
10.13993481
 20
5.0108754476
 30
0.0
 10
10.1544327669
 20
5.0079680679
 30
0.0
 10
10.1613647816
 20
5.0059399866
 30
0.0
  0
SPLINE
  5
4C6
330
20B
100
AcDbEntity
  8
0
  6
Continuous
 62
     7
100
AcDbSpline
210
0.0
220
0.0
230
1.0
 70
     8
 71
     3
 72
    21
 73
    17
 74
     0
 42
0.0000000001
 43
0.0000000001
 40
0.0
 40
0.0
 40
0.0
 40
0.0
 40
0.045392554
 40
0.0940021925
 40
0.148047479
 40
0.2084676612
 40
0.2750982385
 40
0.3469863104
 40
0.5000248856000001
 40
0.6530534875999999
 40
0.7249321779000001
 40
0.7915502024
 40
0.8519572997
 40
0.9059970249999999
 40
0.9546043470999999
 40
1.0
 40
1.0
 40
1.0
 40
1.0
 10
9.0583849636
 20
4.3977923154
 30
0.0
 10
9.0583863473
 20
4.4011655834
 30
0.0
 10
9.059636905199999
 20
4.4081974151
 30
0.0
 10
9.0649701011
 20
4.417991018299999
 30
0.0
 10
9.073399929099998
 20
4.4268507539
 30
0.0
 10
9.0845479649
 20
4.434523929
 30
0.0
 10
9.0980036922
 20
4.440787132099999
 30
0.0
 10
9.118790160299999
 20
4.447098441199999
 30
0.0
 10
9.1469750105
 20
4.4501629805
 30
0.0
 10
9.175158726299999
 20
4.447095534299999
 30
0.0
 10
9.195942476499999
 20
4.4407833729
 30
0.0
 10
9.209395072099999
 20
4.434519617699999
 30
0.0
 10
9.220540231799999
 20
4.426846251299999
 30
0.0
 10
9.228967459099999
 20
4.417986468299999
 30
0.0
 10
9.2343010021
 20
4.408193356199999
 30
0.0
 10
9.2355496007
 20
4.401160885899999
 30
0.0
 10
9.2355500526
 20
4.3977873873
 30
0.0
  0
SPLINE
  5
4C7
330
20B
100
AcDbEntity
  8
0
  6
Continuous
 62
     7
100
AcDbSpline
210
0.0
220
0.0
230
1.0
 70
     8
 71
     3
 72
    19
 73
    15
 74
     0
 42
0.0000000001
 43
0.0000000001
 40
0.0
 40
0.0
 40
0.0
 40
0.0
 40
0.0397141477
 40
0.0780505933
 40
0.1188319149
 40
0.1655768021
 40
0.2192754252
 40
0.2804008012
 40
0.3487686624
 40
0.4234172661
 40
0.5839048810000001
 40
0.7435454095999999
 40
0.8850637026999999
 40
1.0
 40
1.0
 40
1.0
 40
1.0
 10
9.4533571882
 20
6.512959307899999
 30
0.0
 10
9.4533581547
 20
6.5167750912
 30
0.0
 10
9.4542766311
 20
6.5243008261
 30
0.0
 10
9.458129407699999
 20
6.5351280549
 30
0.0
 10
9.4643786453
 20
6.545563580499999
 30
0.0
 10
9.4733332366
 20
6.555843700199999
 30
0.0
 10
9.485323612
 20
6.5657985708
 30
0.0
 10
9.5003802676
 20
6.575017232999999
 30
0.0
 10
9.518321840499998
 20
6.5830640473
 30
0.0
 10
9.546176396799999
 20
6.5918718386
 30
0.0
 10
9.5839697233
 20
6.597460009799999
 30
0.0
 10
9.628532489699999
 20
6.5958651204
 30
0.0
 10
9.667797718400001
 20
6.587288543099999
 30
0.0
 10
9.6906324448
 20
6.5775106986
 30
0.0
 10
9.700196206799999
 20
6.571989182899999
 30
0.0
  0
SPLINE
  5
4C8
330
20B
100
AcDbEntity
  8
0
  6
Continuous
 62
     7
100
AcDbSpline
210
0.0
220
0.0
230
1.0
 70
     8
 71
     3
 72
    15
 73
    11
 74
     0
 42
0.0000000001
 43
0.0000000001
 40
0.0
 40
0.0
 40
0.0
 40
0.0
 40
0.1058422105
 40
0.2295579857
 40
0.3670793741
 40
0.5110847287000001
 40
0.6528211327000001
 40
0.78450476
 40
0.9007734123999998
 40
1.0
 40
1.0
 40
1.0
 40
1.0
 10
9.480206752599999
 20
6.4649745185
 30
0.0
 10
9.486508459500001
 20
6.470078495599999
 30
0.0
 10
9.501466636399999
 20
6.479584450299999
 30
0.0
 10
9.527609599699999
 20
6.490267421799999
 30
0.0
 10
9.557921496799998
 20
6.4974979159
 30
0.0
 10
9.590299800499998
 20
6.500599669999999
 30
0.0
 10
9.622351205800001
 20
6.4994812709
 30
0.0
 10
9.6518969398
 20
6.4946190249
 30
0.0
 10
9.677421568899999
 20
6.4868706546
 30
0.0
 10
9.692473625999999
 20
6.4799210122
 30
0.0
 10
9.6990930596
 20
6.476181861499999
 30
0.0
  0
SPLINE
  5
4C9
330
20B
100
AcDbEntity
  8
0
  6
Continuous
 62
     7
100
AcDbSpline
210
0.0
220
0.0
230
1.0
 70
     8
 71
     3
 72
    15
 73
    11
 74
     0
 42
0.0000000001
 43
0.0000000001
 40
0.0
 40
0.0
 40
0.0
 40
0.0
 40
0.1311594574
 40
0.2696232534
 40
0.4067020355
 40
0.5351734675000001
 40
0.6509080463
 40
0.767422536
 40
0.8858784289
 40
1.0
 40
1.0
 40
1.0
 40
1.0
 10
8.781357555299999
 20
6.0502580939
 30
0.0
 10
8.790106046
 20
6.0552005409
 30
0.0
 10
8.809199122599999
 20
6.0634455809
 30
0.0
 10
8.839521902999999
 20
6.071039301199999
 30
0.0
 10
8.870378612099999
 20
6.074409741599999
 30
0.0
 10
8.899652659099999
 20
6.0740152357
 30
0.0
 10
8.927121795699999
 20
6.070533336299999
 30
0.0
 10
8.953270363999999
 20
6.0640491038
 30
0.0
 10
8.9781822336
 20
6.0540713995
 30
0.0
 10
8.9934370222
 20
6.044563855499999
 30
0.0
 10
9.000231259599999
 20
6.039061574299999
 30
0.0
  0
SPLINE
  5
4CA
330
20B
100
AcDbEntity
  8
0
  6
Continuous
 62
     7
100
AcDbSpline
210
0.0
220
0.0
230
1.0
 70
     8
 71
     3
 72
     8
 73
     4
 74
     0
 42
0.0000000001
 43
0.0000000001
 40
0.0
 40
0.0
 40
0.0
 40
0.0
 40
1.0
 40
1.0
 40
1.0
 40
1.0
 10
9.2158022395
 20
6.195888571599999
 30
0.0
 10
9.2212149346
 20
6.1927636213
 30
0.0
 10
9.226431269299999
 20
6.1892511034
 30
0.0
 10
9.231288582899999
 20
6.1853180275
 30
0.0
  0
SPLINE
  5
4CB
330
20B
100
AcDbEntity
  8
0
  6
Continuous
 62
     7
100
AcDbSpline
210
0.0
220
0.0
230
1.0
 70
     8
 71
     3
 72
    11
 73
     7
 74
     0
 42
0.0000000001
 43
0.0000000001
 40
0.0
 40
0.0
 40
0.0
 40
0.0
 40
0.2026935375
 40
0.4314950743
 40
0.696292517
 40
1.0
 40
1.0
 40
1.0
 40
1.0
 10
9.695554171599999
 20
6.652790966799999
 30
0.0
 10
9.6955528735
 20
6.657917108999999
 30
0.0
 10
9.697358732399999
 20
6.668894697999999
 30
0.0
 10
9.7055374144
 20
6.684766581299999
 30
0.0
 10
9.719353639899999
 20
6.699723853099999
 30
0.0
 10
9.7312538582
 20
6.7079799694
 30
0.0
 10
9.7379056329
 20
6.7118203504
 30
0.0
  0
SPLINE
  5
4CC
330
20B
100
AcDbEntity
  8
0
  6
Continuous
 62
     7
100
AcDbSpline
210
0.0
220
0.0
230
1.0
 70
     8
 71
     3
 72
     8
 73
     4
 74
     0
 42
0.0000000001
 43
0.0000000001
 40
0.0
 40
0.0
 40
0.0
 40
0.0
 40
1.0
 40
1.0
 40
1.0
 40
1.0
 10
9.457999223099999
 20
6.335720230599999
 30
0.0
 10
9.4634119182
 20
6.332595280299999
 30
0.0
 10
9.4686282529
 20
6.329082762399999
 30
0.0
 10
9.473485566499999
 20
6.325149686499999
 30
0.0
  0
SPLINE
  5
4CD
330
20B
100
AcDbEntity
  8
0
  6
Continuous
 62
     7
100
AcDbSpline
210
0.0
220
0.0
230
1.0
 70
     8
 71
     3
 72
    11
 73
     7
 74
     0
 42
0.0000000001
 43
0.0000000001
 40
0.0
 40
0.0
 40
0.0
 40
0.0
 40
0.2026935375
 40
0.4314950743
 40
0.696292517
 40
1.0
 40
1.0
 40
1.0
 40
1.0
 10
8.8603852049
 20
7.1349650863
 30
0.0
 10
8.860383906799999
 20
7.1400912285
 30
0.0
 10
8.8621897657
 20
7.151068817499999
 30
0.0
 10
8.8703684477
 20
7.1669407008
 30
0.0
 10
8.8841846732
 20
7.181897972599999
 30
0.0
 10
8.896084891399999
 20
7.190154088899999
 30
0.0
 10
8.9027366662
 20
7.193994469899999
 30
0.0
  0
SPLINE
  5
4CE
330
20B
100
AcDbEntity
  8
0
  6
Continuous
 62
     7
100
AcDbSpline
210
0.0
220
0.0
230
1.0
 70
     8
 71
     3
 72
    19
 73
    15
 74
     0
 42
0.0000000001
 43
0.0000000001
 40
0.0
 40
0.0
 40
0.0
 40
0.0
 40
0.0397141477
 40
0.0780505933
 40
0.1188319149
 40
0.1655768021
 40
0.2192754252
 40
0.2804008012
 40
0.3487686624
 40
0.4234172661
 40
0.5839048810000001
 40
0.7435454095999999
 40
0.8850637026999999
 40
1.0
 40
1.0
 40
1.0
 40
1.0
 10
8.6181882215
 20
6.995133427399999
 30
0.0
 10
8.618189187999998
 20
6.9989492107
 30
0.0
 10
8.619107664400001
 20
7.006474945599999
 30
0.0
 10
8.622960441
 20
7.0173021745
 30
0.0
 10
8.6292096786
 20
7.027737700000001
 30
0.0
 10
8.6381642699
 20
7.0380178197
 30
0.0
 10
8.650154645299998
 20
7.047972690299999
 30
0.0
 10
8.665211300900001
 20
7.0571913525
 30
0.0
 10
8.683152873799999
 20
7.065238166799999
 30
0.0
 10
8.71100743
 20
7.074045958099999
 30
0.0
 10
8.748800756599999
 20
7.079634129299999
 30
0.0
 10
8.793363523
 20
7.078039239999999
 30
0.0
 10
8.832628751699999
 20
7.0694626626
 30
0.0
 10
8.855463477999999
 20
7.059684818099999
 30
0.0
 10
8.865027239999999
 20
7.0541633024
 30
0.0
  0
SPLINE
  5
4CF
330
20B
100
AcDbEntity
  8
0
  6
Continuous
 62
     7
100
AcDbSpline
210
0.0
220
0.0
230
1.0
 70
     8
 71
     3
 72
    15
 73
    11
 74
     0
 42
0.0000000001
 43
0.0000000001
 40
0.0
 40
0.0
 40
0.0
 40
0.0
 40
0.1058422105
 40
0.2295579857
 40
0.3670793741
 40
0.5110847287000001
 40
0.6528211327000001
 40
0.78450476
 40
0.9007734123999998
 40
1.0
 40
1.0
 40
1.0
 40
1.0
 10
9.238009768999999
 20
6.3251428595
 30
0.0
 10
9.2443114759
 20
6.330246836599999
 30
0.0
 10
9.2592696527
 20
6.339752791299999
 30
0.0
 10
9.285412616
 20
6.3504357628
 30
0.0
 10
9.315724513099999
 20
6.3576662569
 30
0.0
 10
9.348102816799999
 20
6.360768011
 30
0.0
 10
9.380154222199999
 20
6.3596496119
 30
0.0
 10
9.4096999562
 20
6.3547873659
 30
0.0
 10
9.4352245853
 20
6.347038995599999
 30
0.0
 10
9.4502766424
 20
6.3400893532
 30
0.0
 10
9.456896075899999
 20
6.3363502025
 30
0.0
  0
SPLINE
  5
4D0
330
20B
100
AcDbEntity
  8
0
  6
Continuous
 62
     7
100
AcDbSpline
210
0.0
220
0.0
230
1.0
 70
     8
 71
     3
 72
    19
 73
    15
 74
     0
 42
0.0000000001
 43
0.0000000001
 40
0.0
 40
0.0
 40
0.0
 40
0.0
 40
0.0397141477
 40
0.0780505933
 40
0.1188319149
 40
0.1655768021
 40
0.2192754252
 40
0.2804008012
 40
0.3487686624
 40
0.4234172661
 40
0.5839048810000001
 40
0.7435454095999999
 40
0.8850637026999999
 40
1.0
 40
1.0
 40
1.0
 40
1.0
 10
8.375991237799999
 20
6.8553017684
 30
0.0
 10
8.375992204400001
 20
6.859117551699999
 30
0.0
 10
8.3769106808
 20
6.866643286599999
 30
0.0
 10
8.3807634574
 20
6.877470515399999
 30
0.0
 10
8.387012694899999
 20
6.887906040999999
 30
0.0
 10
8.395967286299999
 20
6.8981861607
 30
0.0
 10
8.407957661699999
 20
6.908141031299999
 30
0.0
 10
8.423014317299999
 20
6.917359693499999
 30
0.0
 10
8.440955890199999
 20
6.925406507799999
 30
0.0
 10
8.468810446399999
 20
6.934214299099999
 30
0.0
 10
8.506603773
 20
6.9398024703
 30
0.0
 10
8.5511665394
 20
6.938207581
 30
0.0
 10
8.5904317681
 20
6.929631003599999
 30
0.0
 10
8.613266494400001
 20
6.919853159099999
 30
0.0
 10
8.6228302564
 20
6.9143316434
 30
0.0
  0
SPLINE
  5
4D1
330
20B
100
AcDbEntity
  8
0
  6
Continuous
 62
     7
100
AcDbSpline
210
0.0
220
0.0
230
1.0
 70
     8
 71
     3
 72
     8
 73
     4
 74
     0
 42
0.0000000001
 43
0.0000000001
 40
0.0
 40
0.0
 40
0.0
 40
0.0
 40
1.0
 40
1.0
 40
1.0
 40
1.0
 10
9.700196206799999
 20
6.4755518896
 30
0.0
 10
9.705608901799999
 20
6.472426939299999
 30
0.0
 10
9.710825236599999
 20
6.4689144214
 30
0.0
 10
9.7156825501
 20
6.464981345499999
 30
0.0
  0
SPLINE
  5
4D2
330
20B
100
AcDbEntity
  8
0
  6
Continuous
 62
     7
100
AcDbSpline
210
0.0
220
0.0
230
1.0
 70
     8
 71
     3
 72
    10
 73
     6
 74
     0
 42
0.0000000001
 43
0.0000000001
 40
0.0
 40
0.0
 40
0.0
 40
0.0
 40
0.4512865977000001
 40
0.7141820155
 40
1.0
 40
1.0
 40
1.0
 40
1.0
 10
7.6706459661
 20
5.2169806118
 30
0.0
 10
7.674158937799999
 20
5.223322870699999
 30
0.0
 10
7.682579845199999
 20
5.231780742499999
 30
0.0
 10
7.6963363907
 20
5.240065928199999
 30
0.0
 10
7.7044971649
 20
5.243512663899999
 30
0.0
 10
7.708827173799999
 20
5.245041055099999
 30
0.0
  0
SPLINE
  5
4D3
330
20B
100
AcDbEntity
  8
0
  6
Continuous
 62
     7
100
AcDbSpline
210
0.0
220
0.0
230
1.0
 70
     8
 71
     3
 72
     9
 73
     5
 74
     0
 42
0.0000000001
 43
0.0000000001
 40
0.0
 40
0.0
 40
0.0
 40
0.0
 40
0.2409987955
 40
1.0
 40
1.0
 40
1.0
 40
1.0
 10
8.8872208932
 20
7.0869686312
 30
0.0
 10
8.888394251599999
 20
7.0879189036
 30
0.0
 10
8.8933482059
 20
7.0917562182
 30
0.0
 10
8.898618479299999
 20
7.0951795545
 30
0.0
 10
8.9027366662
 20
7.097557176599999
 30
0.0
  0
SPLINE
  5
4D4
330
20B
100
AcDbEntity
  8
0
  6
Continuous
 62
     7
100
AcDbSpline
210
0.0
220
0.0
230
1.0
 70
     8
 71
     3
 72
    19
 73
    15
 74
     0
 42
0.0000000001
 43
0.0000000001
 40
0.0
 40
0.0
 40
0.0
 40
0.0
 40
0.0397141477
 40
0.0780505933
 40
0.1188319149
 40
0.1655768021
 40
0.2192754252
 40
0.2804008012
 40
0.3487686624
 40
0.4234172661
 40
0.5839048810000001
 40
0.7435454095999999
 40
0.8850637026999999
 40
1.0
 40
1.0
 40
1.0
 40
1.0
 10
8.133794254199999
 20
6.7154701094
 30
0.0
 10
8.133795220799999
 20
6.719285892699999
 30
0.0
 10
8.1347136971
 20
6.7268116276
 30
0.0
 10
8.138566473799999
 20
6.7376388564
 30
0.0
 10
8.144815711299999
 20
6.748074382
 30
0.0
 10
8.153770302699999
 20
6.758354501699999
 30
0.0
 10
8.165760678099999
 20
6.7683093723
 30
0.0
 10
8.1808173337
 20
6.7775280345
 30
0.0
 10
8.1987589066
 20
6.785574848799999
 30
0.0
 10
8.226613462799999
 20
6.7943826401
 30
0.0
 10
8.2644067894
 20
6.799970811299999
 30
0.0
 10
8.3089695558
 20
6.798375922
 30
0.0
 10
8.3482347845
 20
6.7897993446
 30
0.0
 10
8.371069510799999
 20
6.7800215001
 30
0.0
 10
8.380633272799999
 20
6.7744999844
 30
0.0
  0
SPLINE
  5
4D5
330
20B
100
AcDbEntity
  8
0
  6
Continuous
 62
     7
100
AcDbSpline
210
0.0
220
0.0
230
1.0
 70
     8
 71
     3
 72
    15
 73
    11
 74
     0
 42
0.0000000001
 43
0.0000000001
 40
0.0
 40
0.0
 40
0.0
 40
0.0
 40
0.1311594574
 40
0.2696232534
 40
0.4067020355
 40
0.5351734675000001
 40
0.6509080463
 40
0.767422536
 40
0.8858784289
 40
1.0
 40
1.0
 40
1.0
 40
1.0
 10
9.739009903499999
 20
6.6160137182
 30
0.0
 10
9.747758394199999
 20
6.620956165199999
 30
0.0
 10
9.7668514708
 20
6.6292012051
 30
0.0
 10
9.797174251199999
 20
6.636794925399999
 30
0.0
 10
9.828030960299999
 20
6.6401653658
 30
0.0
 10
9.8573050074
 20
6.639770859999999
 30
0.0
 10
9.884774143899999
 20
6.636288960499999
 30
0.0
 10
9.910922712299999
 20
6.629804728099998
 30
0.0
 10
9.9358345819
 20
6.6198270238
 30
0.0
 10
9.9510893705
 20
6.6103194798
 30
0.0
 10
9.957883607799999
 20
6.6048171986
 30
0.0
  0
SPLINE
  5
4D6
330
20B
100
AcDbEntity
  8
0
  6
Continuous
 62
     7
100
AcDbSpline
210
0.0
220
0.0
230
1.0
 70
     8
 71
     3
 72
     9
 73
     5
 74
     0
 42
0.0000000001
 43
0.0000000001
 40
0.0
 40
0.0
 40
0.0
 40
0.0
 40
0.2409987955
 40
1.0
 40
1.0
 40
1.0
 40
1.0
 10
7.907297372599999
 20
6.5340709835
 30
0.0
 10
7.9084707309
 20
6.5350212558
 30
0.0
 10
7.913424685299999
 20
6.538858570399999
 30
0.0
 10
7.918694958699999
 20
6.542281906699999
 30
0.0
 10
7.922813145499999
 20
6.544659528799999
 30
0.0
  0
SPLINE
  5
4D7
330
20B
100
AcDbEntity
  8
0
  6
Continuous
 62
     7
100
AcDbSpline
210
0.0
220
0.0
230
1.0
 70
     8
 71
     3
 72
    11
 73
     7
 74
     0
 42
0.0000000001
 43
0.0000000001
 40
0.0
 40
0.0
 40
0.0
 40
0.0
 40
0.2026935375
 40
0.4314950743
 40
0.696292517
 40
1.0
 40
1.0
 40
1.0
 40
1.0
 10
8.737901823399999
 20
6.0870353425
 30
0.0
 10
8.7379005252
 20
6.0921614847
 30
0.0
 10
8.739706384199999
 20
6.1031390737
 30
0.0
 10
8.7478850662
 20
6.119010957
 30
0.0
 10
8.761701291599999
 20
6.133968228799999
 30
0.0
 10
8.7736015099
 20
6.142224345099999
 30
0.0
 10
8.7802532846
 20
6.1460647261
 30
0.0
  0
SPLINE
  5
4D8
330
20B
100
AcDbEntity
  8
0
  6
Continuous
 62
     7
100
AcDbSpline
210
0.0
220
0.0
230
1.0
 70
     8
 71
     3
 72
    11
 73
     7
 74
     0
 42
0.0000000001
 43
0.0000000001
 40
0.0
 40
0.0
 40
0.0
 40
0.0
 40
0.2026935375
 40
0.4314950743
 40
0.696292517
 40
1.0
 40
1.0
 40
1.0
 40
1.0
 10
7.880461684199999
 20
6.5820674386
 30
0.0
 10
7.8804603861
 20
6.5871935808
 30
0.0
 10
7.882266245
 20
6.5981711697
 30
0.0
 10
7.8904449271
 20
6.614043052999999
 30
0.0
 10
7.9042611525
 20
6.629000324899999
 30
0.0
 10
7.9161613708
 20
6.637256441199999
 30
0.0
 10
7.922813145499999
 20
6.6410968222
 30
0.0
  0
SPLINE
  5
4D9
330
20B
100
AcDbEntity
  8
0
  6
Continuous
 62
     7
100
AcDbSpline
210
0.0
220
0.0
230
1.0
 70
     8
 71
     3
 72
    19
 73
    15
 74
     0
 42
0.0000000001
 43
0.0000000001
 40
0.0
 40
0.0
 40
0.0
 40
0.0
 40
0.0397141477
 40
0.0780505933
 40
0.1188319149
 40
0.1655768021
 40
0.2192754252
 40
0.2804008012
 40
0.3487686624
 40
0.4234172661
 40
0.5839048810000001
 40
0.7435454095999999
 40
0.8850637026999999
 40
1.0
 40
1.0
 40
1.0
 40
1.0
 10
8.9689632209
 20
6.2332959899
 30
0.0
 10
8.968964187499999
 20
6.2371117732
 30
0.0
 10
8.969882663799999
 20
6.244637508099999
 30
0.0
 10
8.973735440499998
 20
6.2554647369
 30
0.0
 10
8.979984677999999
 20
6.265900262499999
 30
0.0
 10
8.988939269400001
 20
6.2761803822
 30
0.0
 10
9.000929644799999
 20
6.286135252799999
 30
0.0
 10
9.015986300399999
 20
6.295353914999999
 30
0.0
 10
9.033927873299999
 20
6.303400729299999
 30
0.0
 10
9.0617824295
 20
6.312208520599999
 30
0.0
 10
9.0995757561
 20
6.317796691799999
 30
0.0
 10
9.1441385225
 20
6.3162018024
 30
0.0
 10
9.1834037512
 20
6.307625225099999
 30
0.0
 10
9.206238477499999
 20
6.297847380599999
 30
0.0
 10
9.2158022395
 20
6.2923258649
 30
0.0
  0
SPLINE
  5
4DA
330
20B
100
AcDbEntity
  8
0
  6
Continuous
 62
     7
100
AcDbSpline
210
0.0
220
0.0
230
1.0
 70
     8
 71
     3
 72
     9
 73
     5
 74
     0
 42
0.0000000001
 43
0.0000000001
 40
0.0
 40
0.0
 40
0.0
 40
0.0
 40
0.2409987955
 40
1.0
 40
1.0
 40
1.0
 40
1.0
 10
9.722389859999999
 20
6.604794511699999
 30
0.0
 10
9.7235632183
 20
6.605744784099999
 30
0.0
 10
9.7285171726
 20
6.609582098699999
 30
0.0
 10
9.733787446
 20
6.613005434999999
 30
0.0
 10
9.7379056329
 20
6.615383057
 30
0.0
  0
SPLINE
  5
4DB
330
20B
100
AcDbEntity
  8
0
  6
Continuous
 62
     7
100
AcDbSpline
210
0.0
220
0.0
230
1.0
 70
     8
 71
     3
 72
    15
 73
    11
 74
     0
 42
0.0000000001
 43
0.0000000001
 40
0.0
 40
0.0
 40
0.0
 40
0.0
 40
0.1058422105
 40
0.2295579857
 40
0.3670793741
 40
0.5110847287000001
 40
0.6528211327000001
 40
0.78450476
 40
0.9007734123999998
 40
1.0
 40
1.0
 40
1.0
 40
1.0
 10
8.1606438187
 20
6.667485319999999
 30
0.0
 10
8.166945525499999
 20
6.6725892971
 30
0.0
 10
8.181903702399999
 20
6.682095251799999
 30
0.0
 10
8.208046665700001
 20
6.6927782233
 30
0.0
 10
8.2383585628
 20
6.7000087174
 30
0.0
 10
8.2707368665
 20
6.703110471499999
 30
0.0
 10
8.302788271799999
 20
6.7019920724
 30
0.0
 10
8.332334005899999
 20
6.697129826399999
 30
0.0
 10
8.357858634999999
 20
6.6893814561
 30
0.0
 10
8.372910692099999
 20
6.6824318138
 30
0.0
 10
8.379530125599998
 20
6.678692662999999
 30
0.0
  0
SPLINE
  5
4DC
330
20B
100
AcDbEntity
  8
0
  6
Continuous
 62
     7
100
AcDbSpline
210
0.0
220
0.0
230
1.0
 70
     8
 71
     3
 72
    15
 73
    11
 74
     0
 42
0.0000000001
 43
0.0000000001
 40
0.0
 40
0.0
 40
0.0
 40
0.0
 40
0.1058422105
 40
0.2295579857
 40
0.3670793741
 40
0.5110847287000001
 40
0.6528211327000001
 40
0.78450476
 40
0.9007734123999998
 40
1.0
 40
1.0
 40
1.0
 40
1.0
 10
8.4028408023
 20
6.807316978999999
 30
0.0
 10
8.4091425091
 20
6.8124209561
 30
0.0
 10
8.424100686
 20
6.8219269108
 30
0.0
 10
8.450243649299999
 20
6.832609882299999
 30
0.0
 10
8.480555546399999
 20
6.839840376399999
 30
0.0
 10
8.512933850099999
 20
6.842942130499999
 30
0.0
 10
8.5449852555
 20
6.841823731399999
 30
0.0
 10
8.574530989500001
 20
6.836961485399999
 30
0.0
 10
8.6000556186
 20
6.829213115099999
 30
0.0
 10
8.6151076757
 20
6.822263472799999
 30
0.0
 10
8.6217271092
 20
6.818524322
 30
0.0
  0
SPLINE
  5
4DD
330
20B
100
AcDbEntity
  8
0
  6
Continuous
 62
     7
100
AcDbSpline
210
0.0
220
0.0
230
1.0
 70
     8
 71
     3
 72
    18
 73
    14
 74
     0
 42
0.0000000001
 43
0.0000000001
 40
0.0
 40
0.0
 40
0.0
 40
0.0
 40
0.1398879407
 40
0.2866175986
 40
0.4249967304000001
 40
0.5476119666
 40
0.6723957937999999
 40
0.7346739309999999
 40
0.7948664422000001
 40
0.851711204
 40
0.9045423981999999
 40
0.9535900504
 40
1.0
 40
1.0
 40
1.0
 40
1.0
 10
7.922813145499999
 20
6.6410968222
 30
0.0
 10
7.934451149199999
 20
6.647815986599999
 30
0.0
 10
7.960312567699999
 20
6.658154315599999
 30
0.0
 10
8.000668375
 20
6.665499390299999
 30
0.0
 10
8.040005628099999
 20
6.666045253099999
 30
0.0
 10
8.076837499499999
 20
6.660989896699999
 30
0.0
 10
8.1054704032
 20
6.6522395185
 30
0.0
 10
8.1268542388
 20
6.641786864299999
 30
0.0
 10
8.141288748799999
 20
6.632280771299999
 30
0.0
 10
8.1534213687
 20
6.6212485216
 30
0.0
 10
8.1626147887
 20
6.6089400737
 30
0.0
 10
8.1683470409
 20
6.5957409124
 30
0.0
 10
8.1696494163
 20
6.586525827899999
 30
0.0
 10
8.169651272000001
 20
6.5820674386
 30
0.0
  0
SPLINE
  5
4DE
330
20B
100
AcDbEntity
  8
0
  6
Continuous
 62
     7
100
AcDbSpline
210
0.0
220
0.0
230
1.0
 70
     8
 71
     3
 72
    12
 73
     8
 74
     0
 42
0.0000000001
 43
0.0000000001
 40
0.0
 40
0.0
 40
0.0
 40
0.0
 40
0.2601371296
 40
0.5149656216
 40
0.7602645725000001
 40
0.8802833506
 40
1.0
 40
1.0
 40
1.0
 40
1.0
 10
8.380633272799999
 20
6.7744999844
 30
0.0
 10
8.386335030699999
 20
6.7712081475
 30
0.0
 10
8.397175818799999
 20
6.763852644199999
 30
0.0
 10
8.410924040999999
 20
6.7501961327
 30
0.0
 10
8.4190171721
 20
6.736441100399999
 30
0.0
 10
8.422401871699999
 20
6.7245825295
 30
0.0
 10
8.4229851028
 20
6.718500006499999
 30
0.0
 10
8.422983841499998
 20
6.7154701096
 30
0.0
  0
SPLINE
  5
4DF
330
20B
100
AcDbEntity
  8
0
  6
Continuous
 62
     7
100
AcDbSpline
210
0.0
220
0.0
230
1.0
 70
     8
 71
     3
 72
    15
 73
    11
 74
     0
 42
0.0000000001
 43
0.0000000001
 40
0.0
 40
0.0
 40
0.0
 40
0.0
 40
0.1058422105
 40
0.2295579857
 40
0.3670793741
 40
0.5110847287000001
 40
0.6528211327000001
 40
0.78450476
 40
0.9007734123999998
 40
1.0
 40
1.0
 40
1.0
 40
1.0
 10
8.9958127854
 20
6.185311200499999
 30
0.0
 10
9.0021144922
 20
6.1904151776
 30
0.0
 10
9.017072669099999
 20
6.1999211322
 30
0.0
 10
9.0432156324
 20
6.210604103799999
 30
0.0
 10
9.073527529499999
 20
6.217834597899999
 30
0.0
 10
9.105905833200001
 20
6.220936352
 30
0.0
 10
9.1379572385
 20
6.219817952899999
 30
0.0
 10
9.167502972599999
 20
6.214955706799999
 30
0.0
 10
9.193027601699998
 20
6.207207336599999
 30
0.0
 10
9.208079658799999
 20
6.200257694199999
 30
0.0
 10
9.2146990923
 20
6.1965185434
 30
0.0
  0
SPLINE
  5
4E0
330
20B
100
AcDbEntity
  8
0
  6
Continuous
 62
     7
100
AcDbSpline
210
0.0
220
0.0
230
1.0
 70
     8
 71
     3
 72
    12
 73
     8
 74
     0
 42
0.0000000001
 43
0.0000000001
 40
0.0
 40
0.0
 40
0.0
 40
0.0
 40
0.2601371296
 40
0.5149656216
 40
0.7602645725000001
 40
0.8802833506
 40
1.0
 40
1.0
 40
1.0
 40
1.0
 10
8.6228302564
 20
6.9143316434
 30
0.0
 10
8.628532014299999
 20
6.911039806499999
 30
0.0
 10
8.6393728024
 20
6.9036843032
 30
0.0
 10
8.6531210246
 20
6.890027791699999
 30
0.0
 10
8.661214155699999
 20
6.8762727594
 30
0.0
 10
8.664598855299999
 20
6.8644141885
 30
0.0
 10
8.665182086399999
 20
6.858331665499999
 30
0.0
 10
8.6651808252
 20
6.8553017686
 30
0.0
  0
DIMENSION
  5
5B2
102
{ACAD_XDICTIONARY
360
5C1
102
}
102
{ACAD_REACTORS
330
5C2
102
}
330
20B
100
AcDbEntity
  8
0
100
AcDbDimension
  2
*D2
 10
3.940092852684831
 20
5.688422736199999
 30
0.0
 11
3.94009285268483
 21
6.5703125
 31
0.0
 70
    32
  1
<>\P[]
 71
     5
 42
1.7637795276
  3
STANDARD$0
100
AcDbAlignedDimension
 13
3.1158509743
 23
7.4522022638
 33
0.0
 14
3.1158509743
 24
5.688422736199999
 34
0.0
 50
90.0
100
AcDbRotatedDimension
1001
ACAD
1000
DSTYLE
1002
{
1070
    42
1040
0.06875
1070
    43
1040
0.418
1070
    44
1040
0.198
1070
    47
1040
0.0
1070
    48
1040
0.0
1070
    78
1070
     0
1070
   141
1040
0.099
1070
   170
1070
     1
1070
   272
1070
     4
1070
   284
1070
     0
1002
}
  0
DIMENSION
  5
5F9
102
{ACAD_XDICTIONARY
360
607
102
}
102
{ACAD_REACTORS
330
608
102
}
330
20B
100
AcDbEntity
  8
0
100
AcDbDimension
  2
*D3
 10
3.1158509743
 20
7.952203263800001
 30
0.0
 11
2.01348876955
 21
7.952203263800001
 31
0.0
 70
    32
  1
<>[]
 71
     5
 42
2.2047244095
  3
STANDARD$0
100
AcDbAlignedDimension
 13
0.9111265648000001
 23
7.4522022638
 33
0.0
 14
3.1158509743
 24
7.4522022638
 34
0.0
 50
0.0000000000000114
100
AcDbRotatedDimension
1001
ACAD
1000
DSTYLE
1002
{
1070
    42
1040
0.06875
1070
    43
1040
0.418
1070
    44
1040
0.198
1070
    47
1040
0.0
1070
    48
1040
0.0
1070
    78
1070
     0
1070
   141
1040
0.099
1070
   170
1070
     1
1070
   272
1070
     4
1002
}
  0
DIMENSION
  5
63B
102
{ACAD_XDICTIONARY
360
649
102
}
102
{ACAD_REACTORS
330
64A
102
}
330
20B
100
AcDbEntity
  8
0
100
AcDbDimension
  2
*D4
 10
3.940092852684834
 20
3.013333538399999
 30
0.0
 11
3.940092852684833
 21
4.056640625
 31
0.0
 70
    32
  1
<>\P[]
 71
     5
 42
2.0866141732
  3
STANDARD$0
100
AcDbAlignedDimension
 13
3.139463953096925
 23
5.0999477116
 33
0.0
 14
3.1158509743
 24
3.013333538399999
 34
0.0
 50
90.0
100
AcDbRotatedDimension
1001
ACAD
1000
DSTYLE
1002
{
1070
    42
1040
0.06875
1070
    43
1040
0.418
1070
    44
1040
0.198
1070
    47
1040
0.0
1070
    48
1040
0.0
1070
    78
1070
     0
1070
   141
1040
0.099
1070
   170
1070
     1
1070
   272
1070
     4
1070
   284
1070
     0
1002
}
  0
ENDSEC
  0
SECTION
  2
OBJECTS
  0
DICTIONARY
  5
C
330
0
100
AcDbDictionary
281
     1
  3
ACAD_COLOR
350
4E6
  3
ACAD_GROUP
350
D
  3
ACAD_LAYOUT
350
1A
  3
ACAD_MATERIAL
350
4E5
  3
ACAD_MLINESTYLE
350
17
  3
ACAD_PLOTSETTINGS
350
19
  3
ACAD_PLOTSTYLENAME
350
E
  3
ACAD_TABLESTYLE
350
4E7
  3
AcDbVariableDictionary
350
677
  3
AcmDictionary
350
544
  3
AMG
350
4EC
  3
AMGSNAPSETTINGS
350
599
  0
DICTIONARY
  5
5C1
330
5B2
100
AcDbDictionary
280
     1
281
     1
  3
ACAD_DIMASSOC
360
5C2
  0
DICTIONARY
  5
607
330
5F9
100
AcDbDictionary
280
     1
281
     1
  3
ACAD_DIMASSOC
360
608
  0
DICTIONARY
  5
649
330
63B
100
AcDbDictionary
280
     1
281
     1
  3
ACAD_DIMASSOC
360
64A
  0
DICTIONARY
  5
4E6
102
{ACAD_REACTORS
330
C
102
}
330
C
100
AcDbDictionary
281
     1
  0
DICTIONARY
  5
D
102
{ACAD_REACTORS
330
C
102
}
330
C
100
AcDbDictionary
281
     1
  0
DICTIONARY
  5
1A
102
{ACAD_REACTORS
330
C
102
}
330
C
100
AcDbDictionary
281
     1
  3
Layout1
350
4E2
  3
Model
350
4E1
  0
DICTIONARY
  5
4E5
102
{ACAD_REACTORS
330
C
102
}
330
C
100
AcDbDictionary
281
     1
  0
DICTIONARY
  5
17
102
{ACAD_REACTORS
330
C
102
}
330
C
100
AcDbDictionary
281
     1
  3
Standard
350
18
  0
DICTIONARY
  5
19
102
{ACAD_REACTORS
330
C
102
}
330
C
100
AcDbDictionary
281
     1
  0
ACDBDICTIONARYWDFLT
  5
E
102
{ACAD_REACTORS
330
C
102
}
330
C
100
AcDbDictionary
281
     1
  3
Normal
350
F
100
AcDbDictionaryWithDefault
340
F
  0
DICTIONARY
  5
4E7
102
{ACAD_REACTORS
330
C
102
}
330
C
100
AcDbDictionary
281
     1
  3
Standard
350
4E8
  0
DICTIONARY
  5
677
102
{ACAD_REACTORS
330
C
102
}
330
C
100
AcDbDictionary
281
     1
  3
CTABLESTYLE
350
678
  0
DICTIONARY
  5
544
102
{ACAD_REACTORS
330
C
102
}
330
C
100
AcDbDictionary
281
     1
  3
AcmStdDictionary
350
54F
  3
AMDTSECTSYM_ARROWCOLOR
350
56E
  0
DICTIONARY
  5
4EC
102
{ACAD_REACTORS
330
C
102
}
330
C
100
AcDbDictionary
281
     1
  0
DICTIONARY
  5
599
102
{ACAD_REACTORS
330
C
102
}
330
C
100
AcDbDictionary
281
     1
  0
DIMASSOC
  5
5C2
102
{ACAD_REACTORS
330
5C1
102
}
330
5C1
100
AcDbDimAssoc
330
5B2
 90
        3
 70
     0
 71
     0
  1
AcDbOsnapPointRef
 72
    13
331
306
 73
     0
 91
        0
 40
0.0
 10
0.0
 20
0.0
 30
2.000000000000000E+50
 75
     0
  1
AcDbOsnapPointRef
 72
     1
331
306
 73
     0
 91
        0
 40
0.0
 10
0.0
 20
0.0
 30
2.000000000000000E+50
 75
     0
  0
DIMASSOC
  5
608
102
{ACAD_REACTORS
330
607
102
}
330
607
100
AcDbDimAssoc
330
5F9
 90
        3
 70
     0
 71
     0
  1
AcDbOsnapPointRef
 72
    13
331
2FB
 73
     0
 91
        0
 40
0.0
 10
0.0
 20
0.0
 30
2.000000000000000E+50
 75
     0
  1
AcDbOsnapPointRef
 72
    13
331
306
 73
     0
 91
        0
 40
0.0
 10
0.0
 20
0.0
 30
2.000000000000000E+50
 75
     0
  0
DIMASSOC
  5
64A
102
{ACAD_REACTORS
330
649
102
}
330
649
100
AcDbDimAssoc
330
63B
 90
        2
 70
     0
 71
     0
  1
AcDbOsnapPointRef
 72
    13
331
23D
 73
     0
 91
        0
 40
0.0
 10
0.0
 20
0.0
 30
2.000000000000000E+50
 75
     0
  0
LAYOUT
  5
4E2
102
{ACAD_REACTORS
330
1A
102
}
330
1A
100
AcDbPlotSettings
  1

  2
none_device
  4
ANSI_A_(11.00_x_8.50_Inches)
  6

 40
0.0
 41
0.0
 42
0.0
 43
0.0
 44
279.4
 45
215.9
 46
0.0
 47
0.0
 48
0.0
 49
0.0
140
0.0
141
0.0
142
1.0
143
1.0
 70
     0
 72
     0
 73
     0
 74
     0
  7

 75
     0
147
1.0
 76
     0
 77
     2
 78
   300
148
0.0
149
0.0
100
AcDbLayout
  1
Layout1
 70
     1
 71
     1
 10
0.0
 20
0.0
 11
12.0
 21
9.0
 12
0.0
 22
0.0
 32
0.0
 14
1.000000000000000E+20
 24
1.000000000000000E+20
 34
1.000000000000000E+20
 15
-1.000000000000000E+20
 25
-1.000000000000000E+20
 35
-1.000000000000000E+20
146
0.0
 13
0.0
 23
0.0
 33
0.0
 16
1.0
 26
0.0
 36
0.0
 17
0.0
 27
1.0
 37
0.0
 76
     0
330
20C
  0
LAYOUT
  5
4E1
102
{ACAD_REACTORS
330
1A
102
}
330
1A
100
AcDbPlotSettings
  1

  2
none_device
  4
ANSI_A_(11.00_x_8.50_Inches)
  6

 40
0.0
 41
0.0
 42
0.0
 43
0.0
 44
279.4
 45
215.9
 46
0.0
 47
0.0
 48
0.0
 49
0.0
140
0.0
141
0.0
142
1.0
143
1.0
 70
  1024
 72
     0
 73
     0
 74
     0
  7

 75
     0
147
1.0
 76
     0
 77
     2
 78
   300
148
0.0
149
0.0
100
AcDbLayout
  1
Model
 70
     0
 71
     0
 10
0.0
 20
0.0
 11
11.0
 21
8.5
 12
0.0
 22
0.0
 32
0.0
 14
0.0
 24
0.0
 34
0.0
 15
0.0
 25
0.0
 35
0.0
146
0.0
 13
0.0
 23
0.0
 33
0.0
 16
1.0
 26
0.0
 36
0.0
 17
0.0
 27
1.0
 37
0.0
 76
     0
330
20B
  0
MLINESTYLE
  5
18
102
{ACAD_REACTORS
330
17
102
}
330
17
100
AcDbMlineStyle
  2
STANDARD
 70
     0
  3

 62
   256
 51
90.0
 52
90.0
 71
     2
 49
0.5
 62
   256
  6
BYLAYER
 49
-0.5
 62
   256
  6
BYLAYER
  0
ACDBPLACEHOLDER
  5
F
102
{ACAD_REACTORS
330
E
102
}
330
E
  0
TABLESTYLE
  5
4E8
102
{ACAD_REACTORS
330
4E7
102
}
330
4E7
100
AcDbTableStyle
  3
Standard
 70
     0
 71
     0
 40
0.06
 41
0.06
280
     0
281
     0
  7
STANDARD
140
0.18
170
     2
 62
     0
 63
     7
283
     0
274
    -2
284
     1
 64
     0
275
    -2
285
     1
 65
     0
276
    -2
286
     1
 66
     0
277
    -2
287
     1
 67
     0
278
    -2
288
     1
 68
     0
279
    -2
289
     1
 69
     0
  7
STANDARD
140
0.25
170
     5
 62
     0
 63
     7
283
     0
274
    -2
284
     1
 64
     0
275
    -2
285
     1
 65
     0
276
    -2
286
     1
 66
     0
277
    -2
287
     1
 67
     0
278
    -2
288
     1
 68
     0
279
    -2
289
     1
 69
     0
  7
STANDARD
140
0.18
170
     5
 62
     0
 63
     7
283
     0
274
    -2
284
     1
 64
     0
275
    -2
285
     1
 65
     0
276
    -2
286
     1
 66
     0
277
    -2
287
     1
 67
     0
278
    -2
288
     1
 68
     0
279
    -2
289
     1
 69
     0
  0
DICTIONARYVAR
  5
678
102
{ACAD_REACTORS
330
677
102
}
330
677
100
DictionaryVariables
280
     0
  1
STANDARD
  0
DICTIONARY
  5
54F
102
{ACAD_REACTORS
330
544
102
}
330
544
100
AcDbDictionary
281
     1
  0
XRECORD
  5
56E
102
{ACAD_REACTORS
330
544
102
}
330
544
100
AcDbXrecord
280
     1
 90
-1023410169
  0
ENDSEC
  0
EOF
