  0
SECTION
  2
HEADER
  9
$ACADVER
  1
AC1018
  9
$ACADMAINTVER
 70
    76
  9
$DWGCODEPAGE
  3
ANSI_1252
  9
$INSBASE
 10
0.0
 20
0.0
 30
0.0
  9
$EXTMIN
 10
-0.0006713559843163
 20
-0.0005187750787954
 30
-0.0000000349181948
  9
$EXTMAX
 10
11.00067145843293
 20
8.50051885424363
 30
0.0000000814935747
  9
$LIMMIN
 10
0.0
 20
0.0
  9
$LIMMAX
 10
11.0
 20
8.5
  9
$ORTHOMODE
 70
     0
  9
$REGENMODE
 70
     1
  9
$FILLMODE
 70
     1
  9
$QTEXTMODE
 70
     0
  9
$MIRRTEXT
 70
     0
  9
$LTSCALE
 40
0.605
  9
$ATTMODE
 70
     1
  9
$TEXTSIZE
 40
0.2
  9
$TRACEWID
 40
0.05
  9
$TEXTSTYLE
  7
STANDARD
  9
$CLAYER
  8
0
  9
$CELTYPE
  6
BYLAYER
  9
$CECOLOR
 62
   256
  9
$CELTSCALE
 40
1.0
  9
$DISPSILH
 70
     0
  9
$DIMSCALE
 40
1.0
  9
$DIMASZ
 40
0.1875
  9
$DIMEXO
 40
0.06875
  9
$DIMDLI
 40
0.418
  9
$DIMRND
 40
0.0
  9
$DIMDLE
 40
0.0
  9
$DIMEXE
 40
0.198
  9
$DIMTP
 40
0.0
  9
$DIMTM
 40
0.0
  9
$DIMTXT
 40
0.15625
  9
$DIMCEN
 40
0.099
  9
$DIMTSZ
 40
0.0
  9
$DIMTOL
 70
     0
  9
$DIMLIM
 70
     0
  9
$DIMTIH
 70
     1
  9
$DIMTOH
 70
     1
  9
$DIMSE1
 70
     0
  9
$DIMSE2
 70
     0
  9
$DIMTAD
 70
     0
  9
$DIMZIN
 70
     0
  9
$DIMBLK
  1

  9
$DIMASO
 70
     1
  9
$DIMSHO
 70
     1
  9
$DIMPOST
  1

  9
$DIMAPOST
  1

  9
$DIMALT
 70
     0
  9
$DIMALTD
 70
     2
  9
$DIMALTF
 40
25.4
  9
$DIMLFAC
 40
1.0
  9
$DIMTOFL
 70
     0
  9
$DIMTVP
 40
0.0
  9
$DIMTIX
 70
     0
  9
$DIMSOXD
 70
     0
  9
$DIMSAH
 70
     0
  9
$DIMBLK1
  1

  9
$DIMBLK2
  1

  9
$DIMSTYLE
  2
STANDARD
  9
$DIMCLRD
 70
     0
  9
$DIMCLRE
 70
     0
  9
$DIMCLRT
 70
     0
  9
$DIMTFAC
 40
1.0
  9
$DIMGAP
 40
0.09
  9
$DIMJUST
 70
     0
  9
$DIMSD1
 70
     0
  9
$DIMSD2
 70
     0
  9
$DIMTOLJ
 70
     1
  9
$DIMTZIN
 70
     0
  9
$DIMALTZ
 70
     0
  9
$DIMALTTZ
 70
     0
  9
$DIMUPT
 70
     0
  9
$DIMDEC
 70
     2
  9
$DIMTDEC
 70
     4
  9
$DIMALTU
 70
     2
  9
$DIMALTTD
 70
     2
  9
$DIMTXSTY
  7
STANDARD
  9
$DIMAUNIT
 70
     0
  9
$DIMADEC
 70
     0
  9
$DIMALTRND
 40
0.0
  9
$DIMAZIN
 70
     0
  9
$DIMDSEP
 70
    46
  9
$DIMATFIT
 70
     3
  9
$DIMFRAC
 70
     0
  9
$DIMLDRBLK
  1

  9
$DIMLUNIT
 70
     2
  9
$DIMLWD
 70
    -2
  9
$DIMLWE
 70
    -2
  9
$DIMTMOVE
 70
     0
  9
$LUNITS
 70
     2
  9
$LUPREC
 70
     4
  9
$SKETCHINC
 40
0.1
  9
$FILLETRAD
 40
0.0
  9
$AUNITS
 70
     0
  9
$AUPREC
 70
     0
  9
$MENU
  1
.
  9
$ELEVATION
 40
0.0
  9
$PELEVATION
 40
0.0
  9
$THICKNESS
 40
0.0
  9
$LIMCHECK
 70
     0
  9
$CHAMFERA
 40
0.0
  9
$CHAMFERB
 40
0.0
  9
$CHAMFERC
 40
0.0
  9
$CHAMFERD
 40
0.0
  9
$SKPOLY
 70
     0
  9
$TDCREATE
 40
2455680.647998854
  9
$TDUCREATE
 40
2455680.856332188
  9
$TDUPDATE
 40
2455680.661403947
  9
$TDUUPDATE
 40
2455680.869737280
  9
$TDINDWG
 40
0.0018845602
  9
$TDUSRTIMER
 40
0.0018843866
  9
$USRTIMER
 70
     1
  9
$ANGBASE
 50
0.0
  9
$ANGDIR
 70
     0
  9
$PDMODE
 70
     3
  9
$PDSIZE
 40
0.3125
  9
$PLINEWID
 40
0.0
  9
$SPLFRAME
 70
     0
  9
$SPLINETYPE
 70
     6
  9
$SPLINESEGS
 70
     8
  9
$HANDSEED
  5
666
  9
$SURFTAB1
 70
     6
  9
$SURFTAB2
 70
     6
  9
$SURFTYPE
 70
     6
  9
$SURFU
 70
     6
  9
$SURFV
 70
     6
  9
$UCSBASE
  2

  9
$UCSNAME
  2

  9
$UCSORG
 10
0.0
 20
0.0
 30
0.0
  9
$UCSXDIR
 10
1.0
 20
0.0
 30
0.0
  9
$UCSYDIR
 10
0.0
 20
1.0
 30
0.0
  9
$UCSORTHOREF
  2

  9
$UCSORTHOVIEW
 70
     0
  9
$UCSORGTOP
 10
0.0
 20
0.0
 30
0.0
  9
$UCSORGBOTTOM
 10
0.0
 20
0.0
 30
0.0
  9
$UCSORGLEFT
 10
0.0
 20
0.0
 30
0.0
  9
$UCSORGRIGHT
 10
0.0
 20
0.0
 30
0.0
  9
$UCSORGFRONT
 10
0.0
 20
0.0
 30
0.0
  9
$UCSORGBACK
 10
0.0
 20
0.0
 30
0.0
  9
$PUCSBASE
  2

  9
$PUCSNAME
  2

  9
$PUCSORG
 10
0.0
 20
0.0
 30
0.0
  9
$PUCSXDIR
 10
1.0
 20
0.0
 30
0.0
  9
$PUCSYDIR
 10
0.0
 20
1.0
 30
0.0
  9
$PUCSORTHOREF
  2

  9
$PUCSORTHOVIEW
 70
     0
  9
$PUCSORGTOP
 10
0.0
 20
0.0
 30
0.0
  9
$PUCSORGBOTTOM
 10
0.0
 20
0.0
 30
0.0
  9
$PUCSORGLEFT
 10
0.0
 20
0.0
 30
0.0
  9
$PUCSORGRIGHT
 10
0.0
 20
0.0
 30
0.0
  9
$PUCSORGFRONT
 10
0.0
 20
0.0
 30
0.0
  9
$PUCSORGBACK
 10
0.0
 20
0.0
 30
0.0
  9
$USERI1
 70
     0
  9
$USERI2
 70
     0
  9
$USERI3
 70
     0
  9
$USERI4
 70
     0
  9
$USERI5
 70
     0
  9
$USERR1
 40
0.0
  9
$USERR2
 40
0.0
  9
$USERR3
 40
0.0
  9
$USERR4
 40
0.0
  9
$USERR5
 40
0.0
  9
$WORLDVIEW
 70
     1
  9
$SHADEDGE
 70
     3
  9
$SHADEDIF
 70
    70
  9
$TILEMODE
 70
     1
  9
$MAXACTVP
 70
    64
  9
$PINSBASE
 10
0.0
 20
0.0
 30
0.0
  9
$PLIMCHECK
 70
     0
  9
$PEXTMIN
 10
1.000000000000000E+20
 20
1.000000000000000E+20
 30
1.000000000000000E+20
  9
$PEXTMAX
 10
-1.000000000000000E+20
 20
-1.000000000000000E+20
 30
-1.000000000000000E+20
  9
$PLIMMIN
 10
0.0
 20
0.0
  9
$PLIMMAX
 10
12.0
 20
9.0
  9
$UNITMODE
 70
     0
  9
$VISRETAIN
 70
     1
  9
$PLINEGEN
 70
     0
  9
$PSLTSCALE
 70
     1
  9
$TREEDEPTH
 70
  3020
  9
$CMLSTYLE
  2
Standard
  9
$CMLJUST
 70
     0
  9
$CMLSCALE
 40
1.0
  9
$PROXYGRAPHICS
 70
     1
  9
$MEASUREMENT
 70
     0
  9
$CELWEIGHT
370
    -1
  9
$ENDCAPS
280
     0
  9
$JOINSTYLE
280
     0
  9
$LWDISPLAY
290
     0
  9
$INSUNITS
 70
     1
  9
$HYPERLINKBASE
  1

  9
$STYLESHEET
  1

  9
$XEDIT
290
     1
  9
$CEPSNTYPE
380
     0
  9
$PSTYLEMODE
290
     1
  9
$FINGERPRINTGUID
  2
{54C3F020-51F1-4990-9745-ECE4038D6FA6}
  9
$VERSIONGUID
  2
{27C01900-40A0-4B08-82B6-4C5A23E43970}
  9
$EXTNAMES
290
     1
  9
$PSVPSCALE
 40
0.0
  9
$OLESTARTUP
290
     0
  9
$SORTENTS
280
   127
  9
$INDEXCTL
280
     0
  9
$HIDETEXT
280
     0
  9
$XCLIPFRAME
290
     0
  9
$HALOGAP
280
     0
  9
$OBSCOLOR
 70
   257
  9
$OBSLTYPE
280
     0
  9
$INTERSECTIONDISPLAY
280
     0
  9
$INTERSECTIONCOLOR
 70
   257
  9
$DIMASSOC
280
     1
  9
$PROJECTNAME
  1

  0
ENDSEC
  0
SECTION
  2
CLASSES
  0
CLASS
  1
ACDBDICTIONARYWDFLT
  2
AcDbDictionaryWithDefault
  3
ObjectDBX Classes
 90
        0
 91
        1
280
     0
281
     0
  0
CLASS
  1
TABLESTYLE
  2
AcDbTableStyle
  3
ObjectDBX Classes
 90
     2047
 91
        1
280
     0
281
     0
  0
CLASS
  1
AMGSETTINGSOBJ
  2
AmgSettingsObj
  3
"AcadM|Product Description: AutoCAD Mechanical 2000|Company: Autodesk"
 90
        0
 91
        2
280
     0
281
     0
  0
CLASS
  1
ACME_DOCUMENT
  2
AcMeDbDoc
  3
AcMeServices
 90
        0
 91
        1
280
     0
281
     0
  0
CLASS
  1
ACMESCOPE
  2
AcMeScope
  3
AcMeServices
 90
        0
 91
        1
280
     0
281
     0
  0
CLASS
  1
ACMECOMMANDHISTORY
  2
AcMeCommandHistory
  3
AcMeServices
 90
        0
 91
        1
280
     0
281
     0
  0
CLASS
  1
ACIMSYSVARMAN
  2
AcImSysVarManager
  3
AcMeServices
 90
        0
 91
        5
280
     0
281
     0
  0
CLASS
  1
ACIMINTSYSVAR
  2
AcImIntSysVar
  3
AcMeServices
 90
        0
 91
       26
280
     0
281
     0
  0
CLASS
  1
ACMEDRAWINGMAN
  2
AcMeDrawingMan
  3
AcMeServices
 90
        0
 91
        1
280
     0
281
     0
  0
CLASS
  1
ACMEVIEW
  2
AcMeView
  3
AcMeServices
 90
        0
 91
        1
280
     0
281
     0
  0
CLASS
  1
ACDBENTITYCACHE
  2
AcMeEntityCache
  3
AcMeServices
 90
        0
 91
        1
280
     0
281
     0
  0
CLASS
  1
GSMANAGER
  2
AcMeGSManager
  3
AcMeServices
 90
        0
 91
        1
280
     0
281
     0
  0
CLASS
  1
AMDTINTERNALREACTOR
  2
AmdtInternalReactor
  3
AcMeServices
 90
        0
 91
        2
280
     0
281
     0
  0
CLASS
  1
ACMESTATEMGR
  2
AcMeStateMgr
  3
AcMeServices
 90
        0
 91
        1
280
     0
281
     0
  0
CLASS
  1
ACGREFMASTER
  2
AcGrefMaster
  3
AcAttribServices
 90
        0
 91
        1
280
     0
281
     0
  0
CLASS
  1
AM_DRAWING_MGR
  2
AcDmDwgMgr
  3
AcMechDwgViewMgmt
 90
        0
 91
        1
280
     0
281
     0
  0
CLASS
  1
AM_DWG_DOCUMENT
  2
AcDmDwgDocument
  3
AcMechDwgViewMgmt
 90
        0
 91
        1
280
     0
281
     0
  0
CLASS
  1
AM_DWG_SHEET
  2
AcDmSheet
  3
AcMechDwgViewMgmt
 90
        0
 91
        2
280
     0
281
     0
  0
CLASS
  1
AM_VIEWDIMPARMAP
  2
AcDmViewDimParMap
  3
AcMechDwgViewMgmt
 90
        0
 91
        2
280
     0
281
     0
  0
CLASS
  1
ACIMREALSYSVAR
  2
AcImRealSysVar
  3
AcMeServices
 90
        0
 91
        1
280
     0
281
     0
  0
CLASS
  1
AM_DWGMGR_NAME
  2
AcDmDwgMgrName
  3
AcMechDwgViewMgmt
 90
        0
 91
        1
280
     0
281
     0
  0
CLASS
  1
ACME_DATABASE
  2
AcMeDbDatabase
  3
AcMeServices
 90
        0
 91
        1
280
     0
281
     0
  0
CLASS
  1
ACRFINSADJUSTERMGR
  2
AcRfInsAdjusterMgr
  3
AcMeServices
 90
        0
 91
        1
280
     0
281
     0
  0
CLASS
  1
ACGREFACADMASTER
  2
AcGrefacadMaster
  3
AcGrefServices
 90
        0
 91
        1
280
     0
281
     0
  0
CLASS
  1
AMDTMENUSTATEMGR
  2
AmdtMenuStateMgr
  3
McadcomServices
 90
        0
 91
        1
280
     0
281
     0
  0
CLASS
  1
AMDTMCOMMENUSTATE
  2
AmdtMcomMenuState
  3
McadcomServices
 90
        0
 91
        1
280
     0
281
     0
  0
CLASS
  1
AMIMASTER
  2
AmiMaster
  3
AmiServices
 90
        0
 91
        1
280
     0
281
     0
  0
CLASS
  1
MAPIAMMOUDLE
  2
MApiAmModule
  3
MApiAmServices
 90
        0
 91
        1
280
     0
281
     0
  0
CLASS
  1
ACIMSTRSYSVAR
  2
AcImStrSysVar
  3
AcMeServices
 90
        0
 91
        5
280
     0
281
     0
  0
CLASS
  1
AMDTADMENUSTATE
  2
AmdtAdMenuState
  3
DesignerServices
 90
        0
 91
        1
280
     0
281
     0
  0
CLASS
  1
ADAPPL
  2
AcAdAppl
  3
DesignerServices
 90
        0
 91
        1
280
     0
281
     0
  0
CLASS
  1
DEPMGR
  2
AcAdDepMgr
  3
DesignerServices
 90
        0
 91
        1
280
     0
281
     0
  0
CLASS
  1
PARAMMGR
  2
AcAdParamMgr
  3
DesignerServices
 90
        0
 91
        1
280
     0
281
     0
  0
CLASS
  1
PARAMSCOPE
  2
AcAdParamScope
  3
DesignerServices
 90
        0
 91
        1
280
     0
281
     0
  0
CLASS
  1
NAMEDAPPL
  2
AcAdNamedAppl
  3
DesignerServices
 90
        0
 91
        1
280
     0
281
     0
  0
CLASS
  1
AMDTDMMENUSTATE
  2
AmdtDmMenuState
  3
AcMechDwgViewMgmt
 90
        0
 91
        1
280
     0
281
     0
  0
CLASS
  1
AMDTAMMENUSTATE
  2
AmdtAmMenuState
  3
DesignerAssemblies
 90
        0
 91
        1
280
     0
281
     0
  0
CLASS
  1
ACAMPROJECT
  2
AcAmProject
  3
DesignerAssemblies
 90
        0
 91
        1
280
     0
281
     0
  0
CLASS
  1
ACAMGRCOMPDEF
  2
AcAmGrCompDef
  3
DesignerAssemblies
 90
        0
 91
        1
280
     0
281
     0
  0
CLASS
  1
ACCMCONTEXT
  2
AcCmContext
  3
DesignerAssemblies
 90
        0
 91
        1
280
     0
281
     0
  0
CLASS
  1
ACAMCOMPDEF
  2
AcAmCompDef
  3
DesignerAssemblies
 90
        0
 91
        1
280
     0
281
     0
  0
CLASS
  1
ACAMCOMPDEFMGR
  2
AcAmCompDefMgr
  3
DesignerAssemblies
 90
        0
 91
        1
280
     0
281
     0
  0
CLASS
  1
AMCONTEXTMGR
  2
AcAmContextMgr
  3
DesignerAssemblies
 90
        0
 91
        1
280
     0
281
     0
  0
CLASS
  1
ACAMCONTEXTMODELER
  2
AcAmContextModeler
  3
DesignerAssemblies
 90
        0
 91
        1
280
     0
281
     0
  0
CLASS
  1
ACMDATADICTIONARY
  2
AcmDataDictionary
  3
"AcmSymBB|Product Description: AutoCAD Mechanical 2004 DX|Company: Autodesk"
 90
        0
 91
        1
280
     0
281
     0
  0
CLASS
  1
CATALOGSTATE
  2
AcAmCatalogState
  3
DesignerAssemblies
 90
        0
 91
        1
280
     0
281
     0
  0
CLASS
  1
ACAMGRCOMPDEFSET
  2
AcAmGrCompDefSet
  3
DesignerAssemblies
 90
        0
 91
        1
280
     0
281
     0
  0
CLASS
  1
AMDTBROWSERDBTAB
  2
AmdtBrowserDbTab
  3
McadcomServices
 90
        0
 91
        1
280
     0
281
     0
  0
CLASS
  1
CBROWSERAPPOBJECT
  2
CBrowserAppObject
  3
McadcomServices
 90
        0
 91
        3
280
     0
281
     0
  0
CLASS
  1
DM_PLACEHOLDER
  2
AcDmSelsetPlaceholder
  3
AcMechDwgViewMgmt
 90
        0
 91
        1
280
     0
281
     0
  0
CLASS
  1
ACMSTANDARDANSI
  2
AcmStandardANSI
  3
"Amdt_StdImp|Product Description: AutoCAD Mechanical 2004 DX|Company: Autodesk"
 90
        0
 91
        1
280
     0
281
     0
  0
CLASS
  1
AMGOBJPROPCFG
  2
AmgObjPropCfg
  3
"AmgLay|Product Description: AutoCAD Mechanical 2000|Company: Autodesk"
 90
        1
 91
        1
280
     0
281
     0
  0
CLASS
  1
ACMSURFSTANDARDANSI
  2
AcmSurfTextStdANSI
  3
"Amdt_StdImp|Product Description: AutoCAD Mechanical 2004 DX|Company: Autodesk"
 90
        0
 91
        1
280
     0
281
     0
  0
CLASS
  1
ACMFCFSTANDARDANSI
  2
AcmFCFStdANSI
  3
"Amdt_StdImp|Product Description: AutoCAD Mechanical 2004 DX|Company: Autodesk"
 90
        0
 91
        1
280
     0
281
     0
  0
CLASS
  1
ACMWELDSTANDARDANSI
  2
AcmWeldingStdANSI
  3
"Amdt_StdImp|Product Description: AutoCAD Mechanical 2004 DX|Company: Autodesk"
 90
        0
 91
        1
280
     0
281
     0
  0
CLASS
  1
ACMIDSTANDARDANSI
  2
AcmIdStdANSI
  3
"Amdt_StdImp|Product Description: AutoCAD Mechanical 2004 DX|Company: Autodesk"
 90
        0
 91
        1
280
     0
281
     0
  0
CLASS
  1
ACMDATUMSTANDARDANSI
  2
AcmDatumStdANSI
  3
"Amdt_StdImp|Product Description: AutoCAD Mechanical 2004 DX|Company: Autodesk"
 90
        0
 91
        1
280
     0
281
     0
  0
CLASS
  1
ACMBOMSTANDARDANSI
  2
AcmBOMStdANSI
  3
"Amdt_StdImp|Product Description: AutoCAD Mechanical 2004 DX|Company: Autodesk"
 90
        0
 91
        1
280
     0
281
     0
  0
CLASS
  1
ACMDETAILSTANDARDANSI
  2
AmdtDetailSymStdANSI
  3
"Amdt_StdImp|Product Description: AutoCAD Mechanical 2004 DX|Company: Autodesk"
 90
        0
 91
        1
280
     0
281
     0
  0
CLASS
  1
ACMSECTIONSTANDARDANSI
  2
AmdtSectionSymStdANSI
  3
"Amdt_StdImp|Product Description: AutoCAD Mechanical 2004 DX|Company: Autodesk"
 90
        0
 91
        1
280
     0
281
     0
  0
CLASS
  1
ACMCENTERLINESTANDARDANSI
  2
AmdtCenterLineStdANSI
  3
"Amdt_StdImp|Product Description: AutoCAD Mechanical 2004 DX|Company: Autodesk"
 90
        0
 91
        1
280
     0
281
     0
  0
CLASS
  1
ACMTHREADLINESTANDARDANSI
  2
AmdtThreadLineStdANSI
  3
"Amdt_StdImp|Product Description: AutoCAD Mechanical 2004 DX|Company: Autodesk"
 90
        0
 91
        1
280
     0
281
     0
  0
CLASS
  1
ACMNOTESTANDARDANSI
  2
AmdtNoteStdANSI
  3
"Amdt_StdImp|Product Description: AutoCAD Mechanical 2004 DX|Company: Autodesk"
 90
        0
 91
        1
280
     0
281
     0
  0
CLASS
  1
AMDTNOTETEMPLATEDB
  2
AmdtNoteTemplateDB
  3
AMDT_STDIMP_MODULE_NAME
 90
        0
 91
        6
280
     0
281
     0
  0
CLASS
  1
ACAMGLAYSTD
  2
AcAmgLayStd
  3
"AcAmgLayStd|Product Description: AutoCAD Mechanical 2000|Company: Autodesk"
 90
        0
 91
        1
280
     0
281
     0
  0
CLASS
  1
ACAMGDIMSTD
  2
AcAmgDimStd
  3
"AcAmgDimStd|Product Description: AutoCAD Mechanical 2000|Company: Autodesk"
 90
        0
 91
        1
280
     0
281
     0
  0
CLASS
  1
ACAMGHOLECHARTSTDANSI
  2
AcAmgHoleChartStdANSI
  3
ACMSYMBB_MODULE_NAME
 90
        0
 91
        1
280
     0
281
     0
  0
CLASS
  1
ACAMGTITLESTD
  2
AcAmgTitleStd
  3
"TITLEAPP"
 90
        0
 91
        1
280
     0
281
     0
  0
CLASS
  1
ACAMGFILTERDAT
  2
AcAmgFilterDat
  3
"AcadM|Product Description: AutoCAD Mechanical 2000|Company: Autodesk"
 90
        0
 91
        0
280
     0
281
     0
  0
CLASS
  1
ACMDATAENTRYBLOCK
  2
AcmDataEntryBlock
  3
"AcmSymBB|Product Description: AutoCAD Mechanical 2004 DX|Company: Autodesk"
 90
        0
 91
        0
280
     0
281
     0
  0
CLASS
  1
ACRFATTGENMGR
  2
AcRfAttGeneralMgr
  3
AcAttribServices
 90
        0
 91
        0
280
     0
281
     0
  0
CLASS
  1
DICTIONARYVAR
  2
AcDbDictionaryVar
  3
ObjectDBX Classes
 90
        0
 91
        1
280
     0
281
     0
  0
ENDSEC
  0
SECTION
  2
TABLES
  0
TABLE
  2
VPORT
  5
8
330
0
100
AcDbSymbolTable
 70
     2
  0
VPORT
  5
665
330
8
100
AcDbSymbolTableRecord
100
AcDbViewportTableRecord
  2
*Active
 70
     0
 10
0.0
 20
0.0
 11
1.0
 21
1.0
 12
5.500000051224307
 22
4.250000039582416
 13
0.0
 23
0.0
 14
1.0
 24
1.0
 15
0.0
 25
0.0
 16
0.0
 26
0.0
 36
1.0
 17
0.0
 27
0.0
 37
0.0
 40
8.573799720300932
 41
1.387142857142857
 42
50.0
 43
0.0
 44
0.0
 50
0.0
 51
0.0
 71
     0
 72
   100
 73
     1
 74
     1
 75
     0
 76
     0
 77
     0
 78
     0
281
     0
 65
     0
110
0.0
120
0.0
130
0.0
111
1.0
121
0.0
131
0.0
112
0.0
122
1.0
132
0.0
 79
     0
146
0.0
  0
ENDTAB
  0
TABLE
  2
LTYPE
  5
5
330
0
100
AcDbSymbolTable
 70
    16
  0
LTYPE
  5
14
330
5
100
AcDbSymbolTableRecord
100
AcDbLinetypeTableRecord
  2
BYBLOCK
 70
     0
  3

 72
    65
 73
     0
 40
0.0
  0
LTYPE
  5
15
330
5
100
AcDbSymbolTableRecord
100
AcDbLinetypeTableRecord
  2
BYLAYER
 70
     0
  3

 72
    65
 73
     0
 40
0.0
  0
LTYPE
  5
16
330
5
100
AcDbSymbolTableRecord
100
AcDbLinetypeTableRecord
  2
CONTINUOUS
 70
     0
  3
Solid line
 72
    65
 73
     0
 40
0.0
  0
LTYPE
  5
1F5
330
5
100
AcDbSymbolTableRecord
100
AcDbLinetypeTableRecord
  2
CENTER
 70
     0
  3
____ _ ____ _ ____ _ ____ _ ____ _ ____ _ ____
 72
    65
 73
     4
 40
0.6
 49
0.375
 74
     0
 49
-0.075
 74
     0
 49
0.075
 74
     0
 49
-0.075
 74
     0
  0
LTYPE
  5
1F6
330
5
100
AcDbSymbolTableRecord
100
AcDbLinetypeTableRecord
  2
HIDDEN
 70
     0
  3
- - - - - - - - - - - - - - - - - - - -
 72
    65
 73
     2
 40
0.2
 49
0.1
 74
     0
 49
-0.1
 74
     0
  0
LTYPE
  5
424
330
5
100
AcDbSymbolTableRecord
100
AcDbLinetypeTableRecord
  2
PHANTOM2
 70
     0
  3
Phantom (.5x) ___ _ _ ___ _ _ ___ _ _ ___ _ _
 72
    65
 73
     6
 40
1.25
 49
0.625
 74
     0
 49
-0.125
 74
     0
 49
0.125
 74
     0
 49
-0.125
 74
     0
 49
0.125
 74
     0
 49
-0.125
 74
     0
  0
LTYPE
  5
45B
330
5
100
AcDbSymbolTableRecord
100
AcDbLinetypeTableRecord
  2
Amconstr
 70
     0
  3
_______________________
 72
    65
 73
     2
 40
9999.0
 49
9999.0
 74
     0
 49
0.0
 74
     0
  0
LTYPE
  5
461
330
5
100
AcDbSymbolTableRecord
100
AcDbLinetypeTableRecord
  2
CENTER2
 70
     0
  3
Center (.5x) ___ _ ___ _ ___ _ ___ _ ___ _ ___
 72
    65
 73
     4
 40
1.125
 49
0.75
 74
     0
 49
-0.125
 74
     0
 49
0.125
 74
     0
 49
-0.125
 74
     0
  0
LTYPE
  5
462
330
5
100
AcDbSymbolTableRecord
100
AcDbLinetypeTableRecord
  2
HIDDEN2
 70
     0
  3
Hidden (.5x) _ _ _ _ _ _ _ _ _ _ _ _ _ _ _ _ _
 72
    65
 73
     2
 40
0.1875
 49
0.125
 74
     0
 49
-0.0625
 74
     0
  0
LTYPE
  5
463
330
5
100
AcDbSymbolTableRecord
100
AcDbLinetypeTableRecord
  2
Amzigzag2
 70
     0
  3
/\/-/\/-/\/-/\/-/\/-/\/
 72
    65
 73
     2
 40
0.4401
 49
0.0001
 74
     4
 75
   136
340
45F
 46
0.0016
 50
0.0
 44
0.0
 45
0.0
 49
-0.4400000000000002
 74
     0
  0
LTYPE
  5
471
330
5
100
AcDbSymbolTableRecord
100
AcDbLinetypeTableRecord
  2
ACANSTGB
 70
     0
  3
__ . . __ . .
 72
    65
 73
     6
 40
0.35433070866
 49
0.15748031496
 74
     0
 49
-0.03937007874
 74
     0
 49
0.03937007874
 74
     0
 49
-0.03937007874
 74
     0
 49
0.03937007874
 74
     0
 49
-0.03937007874
 74
     0
  0
LTYPE
  5
472
330
5
100
AcDbSymbolTableRecord
100
AcDbLinetypeTableRecord
  2
ACANSTGL
 70
     0
  3
_ _ _ _ _
 72
    65
 73
     2
 40
0.11811023622
 49
0.07874015748
 74
     0
 49
-0.03937007874
 74
     0
  0
LTYPE
  5
641
330
5
100
AcDbSymbolTableRecord
100
AcDbLinetypeTableRecord
  2
AM_ISO02W050
 70
     0
  3
__ __ __ __ __ __ __ __ __ __ __ __ __ __ __
 72
    65
 73
     2
 40
7.5
 49
6.0
 74
     0
 49
-1.5
 74
     0
  0
LTYPE
  5
642
330
5
100
AcDbSymbolTableRecord
100
AcDbLinetypeTableRecord
  2
AM_ISO08W050
 70
     0
  3
____ . ____ . ____ . ____ . ____ . ____ . ____
 72
    65
 73
     4
 40
18.0
 49
12.0
 74
     0
 49
-1.5
 74
     0
 49
3.0
 74
     0
 49
-1.5
 74
     0
  0
LTYPE
  5
643
330
5
100
AcDbSymbolTableRecord
100
AcDbLinetypeTableRecord
  2
AM_ISO09W050
 70
     0
  3
_____ . . _____ . . _____ . . ____ .. ____
 72
    65
 73
     6
 40
22.5
 49
12.0
 74
     0
 49
-1.5
 74
     0
 49
3.0
 74
     0
 49
-1.5
 74
     0
 49
3.0
 74
     0
 49
-1.5
 74
     0
  0
LTYPE
  5
644
330
5
100
AcDbSymbolTableRecord
100
AcDbLinetypeTableRecord
  2
AM_ISO08W050x2
 70
     0
  3
__ . __ . __ . __ . __ . __
 72
    65
 73
     4
 40
9.0
 49
6.0
 74
     0
 49
-0.75
 74
     0
 49
1.5
 74
     0
 49
-0.75
 74
     0
  0
LTYPE
  5
645
330
5
100
AcDbSymbolTableRecord
100
AcDbLinetypeTableRecord
  2
AM_ISO02W050x2
 70
     0
  3
 _ _ _ _ _ _ _ _ _ _ _ _
 72
    65
 73
     2
 40
3.75
 49
3.0
 74
     0
 49
-0.75
 74
     0
  0
LTYPE
  5
646
330
5
100
AcDbSymbolTableRecord
100
AcDbLinetypeTableRecord
  2
Amzigzag
 70
     0
  3
/\/-/\/-/\/-/\/-/\/-/\/
 72
    65
 73
     2
 40
11.0001
 49
0.0001
 74
     4
 75
   136
340
45F
 46
0.04
 50
0.0
 44
0.0
 45
0.0
 49
-11.0
 74
     0
  0
ENDTAB
  0
TABLE
  2
LAYER
  5
2
330
0
100
AcDbSymbolTable
 70
     2
  0
LAYER
  5
10
330
2
100
AcDbSymbolTableRecord
100
AcDbLayerTableRecord
  2
0
 70
     0
 62
     7
  6
CONTINUOUS
370
    -3
390
F
  0
LAYER
  5
4B3
330
2
100
AcDbSymbolTableRecord
100
AcDbLayerTableRecord
  2
Defpoints
 70
     0
 62
     7
  6
CONTINUOUS
290
     0
370
    -3
390
F
  0
ENDTAB
  0
TABLE
  2
STYLE
  5
3
330
0
100
AcDbSymbolTable
 70
     4
  0
STYLE
  5
11
330
3
100
AcDbSymbolTableRecord
100
AcDbTextStyleTableRecord
  2
STANDARD
 70
     0
 40
0.0
 41
0.8
 50
0.0
 71
     0
 42
0.2
  3
txt
  4

  0
STYLE
  5
45F
330
3
100
AcDbSymbolTableRecord
100
AcDbTextStyleTableRecord
  2

 70
     1
 40
0.0
 41
1.0
 50
0.0
 71
     0
 42
0.2
  3
genltshp.shx
  4

  0
STYLE
  5
464
330
3
100
AcDbSymbolTableRecord
100
AcDbTextStyleTableRecord
  2
ACANSTS
 70
     0
 40
1.0
 41
1.0
 50
0.0
 71
     0
 42
0.2
  3
romans.shx
  4

  0
STYLE
  5
470
330
3
100
AcDbSymbolTableRecord
100
AcDbTextStyleTableRecord
  2
ACANSGDT
 70
     0
 40
0.0
 41
1.0
 50
0.0
 71
     0
 42
0.2
  3
AMGDT
  4

  0
ENDTAB
  0
TABLE
  2
VIEW
  5
6
330
0
100
AcDbSymbolTable
 70
     1
  0
ENDTAB
  0
TABLE
  2
UCS
  5
7
330
0
100
AcDbSymbolTable
 70
     0
  0
ENDTAB
  0
TABLE
  2
APPID
  5
9
330
0
100
AcDbSymbolTable
 70
    11
  0
APPID
  5
1FE
330
9
100
AcDbSymbolTableRecord
100
AcDbRegAppTableRecord
  2
ACAD
 70
     0
  0
APPID
  5
3F5
330
9
100
AcDbSymbolTableRecord
100
AcDbRegAppTableRecord
  2
MCAD_NO_VIS
 70
     0
  0
APPID
  5
3F6
330
9
100
AcDbSymbolTableRecord
100
AcDbRegAppTableRecord
  2
ACAD_TEMP_GRAPHIC
 70
     0
  0
APPID
  5
426
330
9
100
AcDbSymbolTableRecord
100
AcDbRegAppTableRecord
  2
AD_DRAW
 70
     0
  0
APPID
  5
429
330
9
100
AcDbSymbolTableRecord
100
AcDbRegAppTableRecord
  2
ACATTRIBSERVICES
 70
     0
  0
APPID
  5
449
330
9
100
AcDbSymbolTableRecord
100
AcDbRegAppTableRecord
  2
DESIGNERASSEMBLIES
 70
     0
  0
APPID
  5
44F
330
9
100
AcDbSymbolTableRecord
100
AcDbRegAppTableRecord
  2
ACADM_DIM_EDIT
 70
     0
  0
APPID
  5
450
330
9
100
AcDbSymbolTableRecord
100
AcDbRegAppTableRecord
  2
AMDT_DM_ADJ
 70
     0
  0
APPID
  5
47E
330
9
100
AcDbSymbolTableRecord
100
AcDbRegAppTableRecord
  2
ACAD_DSTYLE_DIMARC_LENGTH_SYMBOL
 70
     0
  0
APPID
  5
47F
330
9
100
AcDbSymbolTableRecord
100
AcDbRegAppTableRecord
  2
ACAD_DSTYLE_DIMJOGGED_JOGANGLE_SYMBOL
 70
     0
  0
APPID
  5
4B0
330
9
100
AcDbSymbolTableRecord
100
AcDbRegAppTableRecord
  2
AcAecLayerStandard
 70
     0
  0
ENDTAB
  0
TABLE
  2
DIMSTYLE
  5
A
330
0
100
AcDbSymbolTable
 70
     8
100
AcDbDimStyleTable
 71
     2
340
47D
340
1FF
  0
DIMSTYLE
105
1FF
330
A
100
AcDbSymbolTableRecord
100
AcDbDimStyleTableRecord
  2
STANDARD
 70
     0
 41
0.1875
 47
0.05
 48
0.05
 78
     4
140
0.15625
271
     2
272
     2
284
     4
340
11
  0
DIMSTYLE
105
47D
102
{ACAD_REACTORS
330
4B2
330
4DF
330
50B
102
}
330
A
100
AcDbSymbolTableRecord
100
AcDbDimStyleTableRecord
  2
AM_ANSI
 70
     0
  4
mm
 41
0.1
 42
0.05
 43
0.5
 44
0.1
 47
0.1
 48
0.1
 78
     7
 79
     2
140
0.12
141
0.0
146
0.71
147
0.06
176
   256
177
   256
178
     2
274
     4
284
     7
340
11
371
    -1
372
    -1
1001
ACAD_DSTYLE_DIMARC_LENGTH_SYMBOL
1070
   379
1070
     1
1001
ACAD_DSTYLE_DIMJOGGED_JOGANGLE_SYMBOL
1070
   384
1040
0.7853981633974483
  0
DIMSTYLE
105
486
330
A
100
AcDbSymbolTableRecord
100
AcDbDimStyleTableRecord
  2
AM_ANSI$3
 70
     0
  4
mm
 41
0.1
 42
0.05
 43
0.5
 44
0.1
 47
0.1
 48
0.1
 78
     7
 79
     2
140
0.12
141
0.0
146
0.71
147
0.06
176
   256
177
   256
178
     2
274
     4
284
     7
288
     1
289
     0
340
11
371
    -1
372
    -1
1001
ACAD_DSTYLE_DIMARC_LENGTH_SYMBOL
1070
   379
1070
     1
1001
ACAD_DSTYLE_DIMJOGGED_JOGANGLE_SYMBOL
1070
   384
1040
0.7853981633974483
  0
DIMSTYLE
105
489
330
A
100
AcDbSymbolTableRecord
100
AcDbDimStyleTableRecord
  2
AM_ANSI$4
 70
     0
  4
mm
 41
0.1
 42
0.05
 43
0.5
 44
0.1
 47
0.1
 48
0.1
 78
     7
 79
     2
140
0.12
141
0.0
146
0.71
147
0.06
176
   256
177
   256
178
     2
274
     4
284
     7
288
     1
289
     0
340
11
371
    -1
372
    -1
1001
ACAD_DSTYLE_DIMARC_LENGTH_SYMBOL
1070
   379
1070
     1
1001
ACAD_DSTYLE_DIMJOGGED_JOGANGLE_SYMBOL
1070
   384
1040
0.7853981633974483
  0
DIMSTYLE
105
48E
330
A
100
AcDbSymbolTableRecord
100
AcDbDimStyleTableRecord
  2
AM_ANSI$7
 70
     0
  4
mm
 41
0.1
 42
0.05
 43
0.5
 44
0.1
 47
0.1
 48
0.1
 78
     7
 79
     2
140
0.24
141
0.0
146
0.71
147
0.06
176
   256
177
   256
178
     2
274
     4
284
     7
340
11
371
    -1
372
    -1
1001
ACAD_DSTYLE_DIMARC_LENGTH_SYMBOL
1070
   379
1070
     1
1001
ACAD_DSTYLE_DIMJOGGED_JOGANGLE_SYMBOL
1070
   384
1040
0.7853981633974483
  0
DIMSTYLE
105
491
330
A
100
AcDbSymbolTableRecord
100
AcDbDimStyleTableRecord
  2
AM_ANSI$SF
 70
     0
  4
mm
 41
0.1
 42
0.05
 43
0.5
 44
0.1
 47
0.1
 48
0.1
 75
     1
 76
     1
 78
     7
 79
     2
140
0.12
141
0.0
146
0.71
147
0.06
176
   256
177
   256
178
     2
274
     4
284
     7
340
11
371
    -1
372
    -1
1001
ACAD_DSTYLE_DIMARC_LENGTH_SYMBOL
1070
   379
1070
     1
1001
ACAD_DSTYLE_DIMJOGGED_JOGANGLE_SYMBOL
1070
   384
1040
0.7853981633974483
  0
DIMSTYLE
105
498
330
A
100
AcDbSymbolTableRecord
100
AcDbDimStyleTableRecord
  2
AM_ANSI$SH
 70
     0
  4
mm
 41
0.1
 42
0.05
 43
0.5
 44
0.1
 47
0.1
 48
0.1
 75
     1
 76
     1
 78
     7
 79
     2
140
0.12
141
0.0
146
0.71
147
0.06
173
     1
176
   256
177
   256
178
     2
274
     4
284
     7
340
11
343
492
371
    -1
372
    -1
1001
ACAD_DSTYLE_DIMARC_LENGTH_SYMBOL
1070
   379
1070
     1
1001
ACAD_DSTYLE_DIMJOGGED_JOGANGLE_SYMBOL
1070
   384
1040
0.7853981633974483
  0
DIMSTYLE
105
4B1
330
A
100
AcDbSymbolTableRecord
100
AcDbDimStyleTableRecord
  2
STANDARD$0
 70
     0
 41
0.1875
 47
0.05
 48
0.05
 78
     4
140
0.15625
271
     2
272
     2
284
     4
340
11
  0
ENDTAB
  0
TABLE
  2
BLOCK_RECORD
  5
1
330
0
100
AcDbSymbolTable
 70
     5
  0
BLOCK_RECORD
  5
1F
330
1
100
AcDbSymbolTableRecord
100
AcDbBlockTableRecord
  2
*MODEL_SPACE
340
22
  0
BLOCK_RECORD
  5
1B
330
1
100
AcDbSymbolTableRecord
100
AcDbBlockTableRecord
  2
*PAPER_SPACE
340
1E
  0
BLOCK_RECORD
  5
492
330
1
100
AcDbSymbolTableRecord
100
AcDbBlockTableRecord
  2
GENAXEH
340
0
  0
BLOCK_RECORD
  5
4B4
330
1
100
AcDbSymbolTableRecord
100
AcDbBlockTableRecord
  2
*D1
340
0
  0
BLOCK_RECORD
  5
4E0
330
1
100
AcDbSymbolTableRecord
100
AcDbBlockTableRecord
  2
*D2
340
0
  0
BLOCK_RECORD
  5
50C
330
1
100
AcDbSymbolTableRecord
100
AcDbBlockTableRecord
  2
*D3
340
0
  0
ENDTAB
  0
ENDSEC
  0
SECTION
  2
BLOCKS
  0
BLOCK
  5
20
330
1F
100
AcDbEntity
  8
0
100
AcDbBlockBegin
  2
*MODEL_SPACE
 70
     0
 10
0.0
 20
0.0
 30
0.0
  3
*MODEL_SPACE
  1

  0
ENDBLK
  5
21
330
1F
100
AcDbEntity
  8
0
100
AcDbBlockEnd
  0
BLOCK
  5
1C
330
1B
100
AcDbEntity
 67
     1
  8
0
100
AcDbBlockBegin
  2
*PAPER_SPACE
 70
     0
 10
0.0
 20
0.0
 30
0.0
  3
*PAPER_SPACE
  1

  0
ENDBLK
  5
1D
330
1B
100
AcDbEntity
 67
     1
  8
0
100
AcDbBlockEnd
  0
BLOCK
  5
494
330
492
100
AcDbEntity
  8
0
100
AcDbBlockBegin
  2
GENAXEH
 70
     0
 10
0.0
 20
0.0
 30
0.0
  3
GENAXEH
  1

  0
LINE
  5
493
330
492
100
AcDbEntity
  8
0
100
AcDbLine
 10
-1.0
 20
0.0
 30
0.0
 11
1.0
 21
0.0
 31
0.0
  0
ENDBLK
  5
495
330
492
100
AcDbEntity
  8
0
100
AcDbBlockEnd
  0
BLOCK
  5
4BF
330
4B4
100
AcDbEntity
  8
0
100
AcDbBlockBegin
  2
*D1
 70
     1
 10
0.0
 20
0.0
 30
0.0
  3
*D1
  1

  0
LINE
  5
5A6
330
4B4
100
AcDbEntity
  8
0
100
AcDbLine
 10
2.599244655477223
 20
7.408716110742378
 30
0.0
 11
2.599244655477223
 21
7.958716110742379
 31
0.0
  0
LINE
  5
5A7
330
4B4
100
AcDbEntity
  8
0
100
AcDbLine
 10
6.611055679077223
 20
7.408716110742378
 30
0.0
 11
6.611055679077223
 21
7.958716110742379
 31
0.0
  0
LINE
  5
5A8
330
4B4
100
AcDbEntity
  8
0
100
AcDbLine
 10
2.699244655477223
 20
7.858716110742379
 30
0.0
 11
3.929150167277223
 21
7.858716110742379
 31
0.0
  0
LINE
  5
5A9
330
4B4
100
AcDbEntity
  8
0
100
AcDbLine
 10
6.511055679077223
 20
7.858716110742379
 30
0.0
 11
5.281150167277222
 21
7.858716110742379
 31
0.0
  0
SOLID
  5
5AA
330
4B4
100
AcDbEntity
  8
0
100
AcDbTrace
 10
2.699244655477223
 20
7.875382777409045
 30
0.0
 11
2.699244655477223
 21
7.842049444075713
 31
0.0
 12
2.599244655477223
 22
7.858716110742379
 32
0.0
 13
2.599244655477223
 23
7.858716110742379
 33
0.0
  0
SOLID
  5
5AB
330
4B4
100
AcDbEntity
  8
0
100
AcDbTrace
 10
6.511055679077223
 20
7.875382777409045
 30
0.0
 11
6.511055679077223
 21
7.842049444075713
 31
0.0
 12
6.611055679077223
 22
7.858716110742379
 32
0.0
 13
6.611055679077223
 23
7.858716110742379
 33
0.0
  0
MTEXT
  5
5AC
330
4B4
100
AcDbEntity
  8
0
100
AcDbMText
 10
4.605150167277223
 20
7.858716110742379
 30
0.0
 40
0.12
 41
0.0
 71
     5
 72
     1
  1
\A1;4.0118 [101.90mm]
 73
     1
 44
1.0
  0
POINT
  5
5AD
330
4B4
100
AcDbEntity
  8
Defpoints
 62
     0
100
AcDbPoint
 10
2.599244655477223
 20
7.358716110742378
 30
0.0
  0
POINT
  5
5AE
330
4B4
100
AcDbEntity
  8
Defpoints
 62
     0
100
AcDbPoint
 10
6.611055679077223
 20
7.358716110742378
 30
0.0
  0
POINT
  5
5AF
330
4B4
100
AcDbEntity
  8
Defpoints
 62
     0
100
AcDbPoint
 10
6.611055679077223
 20
7.858716110742379
 30
0.0
  0
ENDBLK
  5
4C0
330
4B4
100
AcDbEntity
  8
0
100
AcDbBlockEnd
  0
BLOCK
  5
4EB
330
4E0
100
AcDbEntity
  8
0
100
AcDbBlockBegin
  2
*D2
 70
     1
 10
0.0
 20
0.0
 30
0.0
  3
*D2
  1

  0
LINE
  5
5CE
330
4E0
100
AcDbEntity
  8
0
100
AcDbLine
 10
2.549244655477223
 20
7.358716110742378
 30
0.0
 11
1.624223608255556
 21
7.358716110742379
 31
0.0
  0
LINE
  5
5CF
330
4E0
100
AcDbEntity
  8
0
100
AcDbLine
 10
2.549244655477223
 20
5.598873591042377
 30
0.0
 11
1.624223608255556
 21
5.598873591042377
 31
0.0
  0
LINE
  5
5D0
330
4E0
100
AcDbEntity
  8
0
100
AcDbLine
 10
1.724223608255556
 20
7.258716110742379
 30
0.0
 11
1.724223608255556
 21
6.598794850892379
 31
0.0
  0
LINE
  5
5D1
330
4E0
100
AcDbEntity
  8
0
100
AcDbLine
 10
1.724223608255556
 20
5.698873591042377
 30
0.0
 11
1.724223608255556
 21
6.358794850892379
 31
0.0
  0
SOLID
  5
5D2
330
4E0
100
AcDbEntity
  8
0
100
AcDbTrace
 10
1.707556941588889
 20
7.258716110742379
 30
0.0
 11
1.740890274922223
 21
7.258716110742379
 31
0.0
 12
1.724223608255556
 22
7.358716110742379
 32
0.0
 13
1.724223608255556
 23
7.358716110742379
 33
0.0
  0
SOLID
  5
5D3
330
4E0
100
AcDbEntity
  8
0
100
AcDbTrace
 10
1.707556941588889
 20
5.698873591042377
 30
0.0
 11
1.740890274922223
 21
5.698873591042377
 31
0.0
 12
1.724223608255556
 22
5.598873591042377
 32
0.0
 13
1.724223608255556
 23
5.598873591042377
 33
0.0
  0
MTEXT
  5
5D4
330
4E0
100
AcDbEntity
  8
0
100
AcDbMText
 10
1.724223608255555
 20
6.478794850892379
 30
0.0
 40
0.12
 41
0.0
 71
     5
 72
     1
  1
\A1;1.76 [44.70mm]
 73
     1
 44
1.0
  0
POINT
  5
5D5
330
4E0
100
AcDbEntity
  8
Defpoints
 62
     0
100
AcDbPoint
 10
2.599244655477223
 20
7.358716110742378
 30
0.0
  0
POINT
  5
5D6
330
4E0
100
AcDbEntity
  8
Defpoints
 62
     0
100
AcDbPoint
 10
2.599244655477223
 20
5.598873591042377
 30
0.0
  0
POINT
  5
5D7
330
4E0
100
AcDbEntity
  8
Defpoints
 62
     0
100
AcDbPoint
 10
1.724223608255556
 20
5.598873591042377
 30
0.0
  0
ENDBLK
  5
4EC
330
4E0
100
AcDbEntity
  8
0
100
AcDbBlockEnd
  0
BLOCK
  5
517
330
50C
100
AcDbEntity
  8
0
100
AcDbBlockBegin
  2
*D3
 70
     1
 10
0.0
 20
0.0
 30
0.0
  3
*D3
  1

  0
LINE
  5
5BA
330
50C
100
AcDbEntity
  8
0
100
AcDbLine
 10
5.442205480497628
 20
4.788878444142376
 30
0.0
 11
7.436007714937503
 21
4.788878444142376
 31
0.0
  0
LINE
  5
5BB
330
50C
100
AcDbEntity
  8
0
100
AcDbLine
 10
6.669464076979233
 20
1.420768207942377
 30
0.0
 11
7.436007714937501
 21
1.420768207942377
 31
0.0
  0
LINE
  5
5BC
330
50C
100
AcDbEntity
  8
0
100
AcDbLine
 10
7.336007714937503
 20
4.688878444142376
 30
0.0
 11
7.336007714937503
 21
3.224823326042376
 31
0.0
  0
LINE
  5
5BD
330
50C
100
AcDbEntity
  8
0
100
AcDbLine
 10
7.3360077149375
 20
1.520768207942376
 30
0.0
 11
7.336007714937503
 21
2.984823326042376
 31
0.0
  0
SOLID
  5
5BE
330
50C
100
AcDbEntity
  8
0
100
AcDbTrace
 10
7.319341048270834
 20
4.688878444142376
 30
0.0
 11
7.352674381604168
 21
4.688878444142376
 31
0.0
 12
7.336007714937503
 22
4.788878444142376
 32
0.0
 13
7.336007714937503
 23
4.788878444142376
 33
0.0
  0
SOLID
  5
5BF
330
50C
100
AcDbEntity
  8
0
100
AcDbTrace
 10
7.319341048270833
 20
1.520768207942376
 30
0.0
 11
7.352674381604168
 21
1.520768207942376
 31
0.0
 12
7.3360077149375
 22
1.420768207942377
 32
0.0
 13
7.3360077149375
 23
1.420768207942377
 33
0.0
  0
MTEXT
  5
5C0
330
50C
100
AcDbEntity
  8
0
100
AcDbMText
 10
7.3360077149375
 20
3.104823326042378
 30
0.0
 40
0.12
 41
0.0
 71
     5
 72
     1
  1
\A1;3.3681 [85.55mm]
 73
     1
 44
1.0
  0
POINT
  5
5C1
330
50C
100
AcDbEntity
  8
Defpoints
 62
     0
100
AcDbPoint
 10
5.392205480497628
 20
4.788878444142376
 30
0.0
  0
POINT
  5
5C2
330
50C
100
AcDbEntity
  8
Defpoints
 62
     0
100
AcDbPoint
 10
6.619464076979233
 20
1.420768207942377
 30
0.0
  0
POINT
  5
5C3
330
50C
100
AcDbEntity
  8
Defpoints
 62
     0
100
AcDbPoint
 10
7.3360077149375
 20
1.420768207942377
 30
0.0
  0
ENDBLK
  5
518
330
50C
100
AcDbEntity
  8
0
100
AcDbBlockEnd
  0
ENDSEC
  0
SECTION
  2
ENTITIES
  0
MTEXT
  5
200
330
1F
100
AcDbEntity
  8
0
  6
Continuous
 62
     2
100
AcDbMText
 10
9.203633722574052
 20
4.150580752938898
 30
0.0
 40
0.15625
 41
1.5
 71
     1
 72
     1
  1
SCALE  0.750
 73
     1
 44
1.0
  0
LINE
  5
201
330
1F
100
AcDbEntity
  8
0
  6
Continuous
 62
     7
100
AcDbLine
 10
0.0
 20
0.0
 30
0.0
 11
0.0
 21
8.5
 31
0.0
  0
LINE
  5
202
330
1F
100
AcDbEntity
  8
0
  6
Continuous
 62
     7
100
AcDbLine
 10
0.0
 20
0.0
 30
0.0
 11
11.0
 21
0.0
 31
0.0
  0
LINE
  5
203
330
1F
100
AcDbEntity
  8
0
  6
Continuous
 62
     7
100
AcDbLine
 10
0.0
 20
8.5
 30
0.0
 11
11.0
 21
8.5
 31
0.0
  0
LINE
  5
204
330
1F
100
AcDbEntity
  8
0
  6
Continuous
 62
     7
100
AcDbLine
 10
11.0
 20
0.0
 30
0.0
 11
11.0
 21
8.5
 31
0.0
  0
LINE
  5
205
330
1F
100
AcDbEntity
  8
0
  6
Continuous
 62
     7
100
AcDbLine
 10
2.599244655477223
 20
3.836122546142378
 30
0.0
 11
2.599244655477223
 21
2.444390255142376
 31
0.0
  0
LINE
  5
206
330
1F
100
AcDbEntity
  8
0
  6
Continuous
 62
     7
100
AcDbLine
 10
2.835465127877222
 20
2.444390255142376
 30
0.0
 11
2.835465127877222
 21
1.420768207942377
 31
0.0
  0
LINE
  5
207
330
1F
100
AcDbEntity
  8
0
  6
Continuous
 62
     7
100
AcDbLine
 10
5.302000560977222
 20
1.550689467742376
 30
0.0
 11
5.262630482177222
 21
1.540140286942377
 31
0.0
  0
LINE
  5
208
330
1F
100
AcDbEntity
  8
0
  6
Continuous
 62
     7
100
AcDbLine
 10
6.374835206577222
 20
1.420768207942377
 30
0.0
 11
5.333496623977222
 21
1.420768207942377
 31
0.0
  0
LINE
  5
209
330
1F
100
AcDbEntity
  8
0
  6
Continuous
 62
     7
100
AcDbLine
 10
3.973260403477222
 20
1.420768207942377
 30
0.0
 11
2.835465127877222
 21
1.420768207942377
 31
0.0
  0
LINE
  5
20A
330
1F
100
AcDbEntity
  8
0
  6
Continuous
 62
     7
100
AcDbLine
 10
3.973260403477222
 20
1.511319389042376
 30
0.0
 11
3.758693551277223
 21
1.511319389042376
 31
0.0
  0
LINE
  5
20B
330
1F
100
AcDbEntity
  8
0
  6
Continuous
 62
     7
100
AcDbLine
 10
3.107118671177223
 20
3.836122546142378
 30
0.0
 11
3.107118671177223
 21
3.235728837842378
 31
0.0
  0
LINE
  5
20C
330
1F
100
AcDbEntity
  8
0
  6
Continuous
 62
     7
100
AcDbLine
 10
3.139706466277223
 20
3.297736711942377
 30
0.0
 11
3.132709187777222
 21
3.244587105742377
 31
0.0
  0
LINE
  5
20D
330
1F
100
AcDbEntity
  8
0
  6
Continuous
 62
     7
100
AcDbLine
 10
5.302000560977222
 20
1.597933562242378
 30
0.0
 11
3.990976938877222
 21
1.597933562242378
 31
0.0
  0
LINE
  5
20E
330
1F
100
AcDbEntity
  8
0
  6
Continuous
 62
     7
100
AcDbLine
 10
3.990976938877222
 20
1.609744585842376
 30
0.0
 11
3.758693551277223
 21
1.609744585842376
 31
0.0
  0
LINE
  5
20F
330
1F
100
AcDbEntity
  8
0
  6
Continuous
 62
     7
100
AcDbLine
 10
3.239008400377223
 20
3.341043798642376
 30
0.0
 11
3.239008400377223
 21
3.297736711942377
 31
0.0
  0
LINE
  5
210
330
1F
100
AcDbEntity
  8
0
  6
Continuous
 62
     7
100
AcDbLine
 10
3.270504463377223
 20
3.341043798642376
 30
0.0
 11
3.270504463377223
 21
3.297736711942377
 31
0.0
  0
LINE
  5
211
330
1F
100
AcDbEntity
  8
0
  6
Continuous
 62
     7
100
AcDbLine
 10
3.402394261777223
 20
3.836122546142378
 30
0.0
 11
3.402394261777223
 21
3.235728837842378
 31
0.0
  0
LINE
  5
212
330
1F
100
AcDbEntity
  8
0
  6
Continuous
 62
     7
100
AcDbLine
 10
3.406331269577222
 20
3.235728837842378
 30
0.0
 11
3.406331269577222
 21
3.072343011042378
 31
0.0
  0
LINE
  5
213
330
1F
100
AcDbEntity
  8
0
  6
Continuous
 62
     7
100
AcDbLine
 10
3.376803675977222
 20
3.244587105742377
 30
0.0
 11
3.369806397577223
 21
3.297736711942377
 31
0.0
  0
LINE
  5
214
330
1F
100
AcDbEntity
  8
0
  6
Continuous
 62
     7
100
AcDbLine
 10
3.524441505877223
 20
4.151083176042376
 30
0.0
 11
3.524441505877223
 21
3.836122546142378
 31
0.0
  0
LINE
  5
215
330
1F
100
AcDbEntity
  8
0
  6
Continuous
 62
     7
100
AcDbLine
 10
3.721291899577223
 20
4.426673727242378
 30
0.0
 11
3.721291899577223
 21
4.151083176042376
 31
0.0
  0
LINE
  5
216
330
1F
100
AcDbEntity
  8
0
  6
Continuous
 62
     7
100
AcDbLine
 10
3.758693551277223
 20
1.609744585842376
 30
0.0
 11
3.758693551277223
 21
1.511319389042376
 31
0.0
  0
LINE
  5
217
330
1F
100
AcDbEntity
  8
0
  6
Continuous
 62
     7
100
AcDbLine
 10
3.792903020977222
 20
4.556594987142378
 30
0.0
 11
3.792903020977222
 21
4.426673727242378
 31
0.0
  0
LINE
  5
218
330
1F
100
AcDbEntity
  8
0
  6
Continuous
 62
     7
100
AcDbLine
 10
5.333496623977222
 20
1.420768207942377
 30
0.0
 11
5.262630482177222
 21
1.491634349642376
 31
0.0
  0
LINE
  5
219
330
1F
100
AcDbEntity
  8
0
  6
Continuous
 62
     7
100
AcDbLine
 10
3.973260403477222
 20
1.511319389042376
 30
0.0
 11
3.973260403477222
 21
1.420768207942377
 31
0.0
  0
LINE
  5
21A
330
1F
100
AcDbEntity
  8
0
  6
Continuous
 62
     7
100
AcDbLine
 10
3.990976938877222
 20
1.609744585842376
 30
0.0
 11
3.990976938877222
 21
1.597933562242378
 31
0.0
  0
LINE
  5
21B
330
1F
100
AcDbEntity
  8
0
  6
Continuous
 62
     7
100
AcDbLine
 10
4.082697096377223
 20
4.556594987142378
 30
0.0
 11
4.082697096377223
 21
4.426673727242378
 31
0.0
  0
LINE
  5
21C
330
1F
100
AcDbEntity
  8
0
  6
Continuous
 62
     7
100
AcDbLine
 10
6.611055679077223
 20
2.444390255142376
 30
0.0
 11
6.374835206577222
 21
2.444390255142376
 31
0.0
  0
LINE
  5
21D
330
1F
100
AcDbEntity
  8
0
  6
Continuous
 62
     7
100
AcDbLine
 10
2.835465127877222
 20
2.444390255142376
 30
0.0
 11
2.599244655477223
 21
2.444390255142376
 31
0.0
  0
LINE
  5
21E
330
1F
100
AcDbEntity
  8
0
  6
Continuous
 62
     7
100
AcDbLine
 10
4.368929685577223
 20
4.545411563342376
 30
0.0
 11
4.368929685577223
 21
4.485728837842376
 31
0.0
  0
LINE
  5
21F
330
1F
100
AcDbEntity
  8
0
  6
Continuous
 62
     7
100
AcDbLine
 10
4.506724961077222
 20
4.485728837842376
 30
0.0
 11
4.506724961077222
 21
4.426673727242378
 31
0.0
  0
LINE
  5
220
330
1F
100
AcDbEntity
  8
0
  6
Continuous
 62
     7
100
AcDbLine
 10
4.624818655577223
 20
4.545411563342376
 30
0.0
 11
4.624818655577223
 21
4.485728837842376
 31
0.0
  0
LINE
  5
221
330
1F
100
AcDbEntity
  8
0
  6
Continuous
 62
     7
100
AcDbLine
 10
4.624835197377223
 20
4.485728837842376
 30
0.0
 11
4.624835197377223
 21
4.749505925042377
 31
0.0
  0
LINE
  5
222
330
1F
100
AcDbEntity
  8
0
  6
Continuous
 62
     7
100
AcDbLine
 10
4.586688350977222
 20
4.592925042942376
 30
0.0
 11
4.586686505277222
 21
4.584711510042376
 31
0.0
  0
LINE
  5
223
330
1F
100
AcDbEntity
  8
0
  6
Continuous
 62
     7
100
AcDbLine
 10
3.406331269577222
 20
3.072343011042378
 30
0.0
 11
2.599244655477223
 21
3.072343011042378
 31
0.0
  0
LINE
  5
224
330
1F
100
AcDbEntity
  8
0
  6
Continuous
 62
     7
100
AcDbLine
 10
5.882709222377222
 20
3.072343010942378
 30
0.0
 11
6.611055679077223
 21
3.072343010942378
 31
0.0
  0
LINE
  5
225
330
1F
100
AcDbEntity
  8
0
  6
Continuous
 62
     7
100
AcDbLine
 10
4.664205276077223
 20
4.788878444142378
 30
0.0
 11
4.664205276077223
 21
4.485728837842376
 31
0.0
  0
LINE
  5
226
330
1F
100
AcDbEntity
  8
0
  6
Continuous
 62
     7
100
AcDbLine
 10
6.611055679077223
 20
3.235728837842378
 30
0.0
 11
5.882709222377222
 21
3.235728837842378
 31
0.0
  0
LINE
  5
227
330
1F
100
AcDbEntity
  8
0
  6
Continuous
 62
     7
100
AcDbLine
 10
3.406331269577222
 20
3.235728837842378
 30
0.0
 11
2.599244655477223
 21
3.235728837842378
 31
0.0
  0
LINE
  5
228
330
1F
100
AcDbEntity
  8
0
  6
Continuous
 62
     7
100
AcDbLine
 10
6.154362730777223
 20
3.244587105742377
 30
0.0
 11
5.910268242577223
 21
3.244587105742377
 31
0.0
  0
LINE
  5
229
330
1F
100
AcDbEntity
  8
0
  6
Continuous
 62
     7
100
AcDbLine
 10
3.376803675977222
 20
3.244587105742377
 30
0.0
 11
3.132709187777222
 21
3.244587105742377
 31
0.0
  0
LINE
  5
22A
330
1F
100
AcDbEntity
  8
0
  6
Continuous
 62
     7
100
AcDbLine
 10
6.147365452377222
 20
3.297736711942377
 30
0.0
 11
5.917265520977222
 21
3.297736711942377
 31
0.0
  0
LINE
  5
22B
330
1F
100
AcDbEntity
  8
0
  6
Continuous
 62
     7
100
AcDbLine
 10
3.369806397577223
 20
3.297736711942377
 30
0.0
 11
3.139706466277223
 21
3.297736711942377
 31
0.0
  0
LINE
  5
22C
330
1F
100
AcDbEntity
  8
0
  6
Continuous
 62
     7
100
AcDbLine
 10
4.900425748477222
 20
4.485728837842376
 30
0.0
 11
4.900425748477222
 21
4.788878444142378
 31
0.0
  0
LINE
  5
22D
330
1F
100
AcDbEntity
  8
0
  6
Continuous
 62
     7
100
AcDbLine
 10
4.939795827277222
 20
4.485728837842376
 30
0.0
 11
4.939795827177221
 21
4.749505925042377
 31
0.0
  0
LINE
  5
22E
330
1F
100
AcDbEntity
  8
0
  6
Continuous
 62
     7
100
AcDbLine
 10
4.939812369077222
 20
4.545411563342376
 30
0.0
 11
4.939812369077222
 21
4.485728837842376
 31
0.0
  0
LINE
  5
22F
330
1F
100
AcDbEntity
  8
0
  6
Continuous
 62
     7
100
AcDbLine
 10
4.977942673577222
 20
4.584711510042376
 30
0.0
 11
4.977944519277222
 21
4.592925042942376
 31
0.0
  0
LINE
  5
230
330
1F
100
AcDbEntity
  8
0
  6
Continuous
 62
     7
100
AcDbLine
 10
6.142345077977222
 20
3.327351502742378
 30
0.0
 11
5.922285478577222
 21
3.327351502742378
 31
0.0
  0
LINE
  5
231
330
1F
100
AcDbEntity
  8
0
  6
Continuous
 62
     7
100
AcDbLine
 10
3.364786023277223
 20
3.327351502742378
 30
0.0
 11
3.144726423877223
 21
3.327351502742378
 31
0.0
  0
LINE
  5
232
330
1F
100
AcDbEntity
  8
0
  6
Continuous
 62
     7
100
AcDbLine
 10
6.126546457277222
 20
3.341043798642376
 30
0.0
 11
5.938085898577222
 21
3.341043798542376
 31
0.0
  0
LINE
  5
233
330
1F
100
AcDbEntity
  8
0
  6
Continuous
 62
     7
100
AcDbLine
 10
3.348987402477223
 20
3.341043798642376
 30
0.0
 11
3.160526843877223
 21
3.341043798542376
 31
0.0
  0
LINE
  5
234
330
1F
100
AcDbEntity
  8
0
  6
Continuous
 62
     7
100
AcDbLine
 10
5.057906063477222
 20
4.426673727242378
 30
0.0
 11
5.057906063477222
 21
4.485728837842376
 31
0.0
  0
LINE
  5
235
330
1F
100
AcDbEntity
  8
0
  6
Continuous
 62
     7
100
AcDbLine
 10
5.195701339077222
 20
4.545411563342376
 30
0.0
 11
5.195701339077222
 21
4.485728837842376
 31
0.0
  0
LINE
  5
236
330
1F
100
AcDbEntity
  8
0
  6
Continuous
 62
     7
100
AcDbLine
 10
5.262630482177222
 20
1.540140286942377
 30
0.0
 11
5.262630482177222
 21
1.491634349642376
 31
0.0
  0
LINE
  5
237
330
1F
100
AcDbEntity
  8
0
  6
Continuous
 62
     7
100
AcDbLine
 10
5.302000560977222
 20
1.597933562242378
 30
0.0
 11
5.302000560977222
 21
1.550689467742376
 31
0.0
  0
LINE
  5
238
330
1F
100
AcDbEntity
  8
0
  6
Continuous
 62
     7
100
AcDbLine
 10
5.489008434977224
 20
4.426673727242378
 30
0.0
 11
5.489008434977224
 21
3.836122546142378
 31
0.0
  0
LINE
  5
239
330
1F
100
AcDbEntity
  8
0
  6
Continuous
 62
     7
100
AcDbLine
 10
6.611055679077223
 20
3.836122546142378
 30
0.0
 11
5.489008434977224
 21
3.836122546142378
 31
0.0
  0
LINE
  5
23A
330
1F
100
AcDbEntity
  8
0
  6
Continuous
 62
     7
100
AcDbLine
 10
3.524441505877223
 20
3.836122546142378
 30
0.0
 11
2.599244655477223
 21
3.836122546142378
 31
0.0
  0
LINE
  5
23B
330
1F
100
AcDbEntity
  8
0
  6
Continuous
 62
     7
100
AcDbLine
 10
3.721291899577223
 20
4.151083176042376
 30
0.0
 11
3.524441505877223
 21
4.151083176042376
 31
0.0
  0
LINE
  5
23C
330
1F
100
AcDbEntity
  8
0
  6
Continuous
 62
     7
100
AcDbLine
 10
5.882709222377222
 20
3.235728837842378
 30
0.0
 11
5.882709222377222
 21
3.072343010942378
 31
0.0
  0
LINE
  5
23D
330
1F
100
AcDbEntity
  8
0
  6
Continuous
 62
     7
100
AcDbLine
 10
5.884591282277223
 20
3.836122546142378
 30
0.0
 11
5.884591282277223
 21
3.235728837842378
 31
0.0
  0
LINE
  5
23E
330
1F
100
AcDbEntity
  8
0
  6
Continuous
 62
     7
100
AcDbLine
 10
6.016567455177223
 20
3.341043798642376
 30
0.0
 11
6.016567455177223
 21
3.297736711942377
 31
0.0
  0
LINE
  5
23F
330
1F
100
AcDbEntity
  8
0
  6
Continuous
 62
     7
100
AcDbLine
 10
5.917265520977222
 20
3.297736711942377
 30
0.0
 11
5.910268242577223
 21
3.244587105742377
 31
0.0
  0
LINE
  5
240
330
1F
100
AcDbEntity
  8
0
  6
Continuous
 62
     7
100
AcDbLine
 10
5.489008434977224
 20
4.426673727242378
 30
0.0
 11
3.721291899577223
 21
4.426673727242378
 31
0.0
  0
LINE
  5
241
330
1F
100
AcDbEntity
  8
0
  6
Continuous
 62
     7
100
AcDbLine
 10
5.195701339077222
 20
4.485728837842376
 30
0.0
 11
4.368929685577223
 21
4.485728837842376
 31
0.0
  0
LINE
  5
242
330
1F
100
AcDbEntity
  8
0
  6
Continuous
 62
     7
100
AcDbLine
 10
6.048063518177222
 20
3.341043798642376
 30
0.0
 11
6.048063518177222
 21
3.297736711942377
 31
0.0
  0
LINE
  5
243
330
1F
100
AcDbEntity
  8
0
  6
Continuous
 62
     7
100
AcDbLine
 10
6.180039760077224
 20
3.836122546142378
 30
0.0
 11
6.180039760077224
 21
3.235728837842378
 31
0.0
  0
LINE
  5
244
330
1F
100
AcDbEntity
  8
0
  6
Continuous
 62
     7
100
AcDbLine
 10
4.939812369077222
 20
4.545411563342376
 30
0.0
 11
5.195701339077222
 21
4.545411563342376
 31
0.0
  0
LINE
  5
245
330
1F
100
AcDbEntity
  8
0
  6
Continuous
 62
     7
100
AcDbLine
 10
4.624841831277223
 20
4.545412323142377
 30
0.0
 11
4.368947099477223
 21
4.545412323142377
 31
0.0
  0
LINE
  5
246
330
1F
100
AcDbEntity
  8
0
  6
Continuous
 62
     7
100
AcDbLine
 10
4.082697096377223
 20
4.556594987142378
 30
0.0
 11
3.792903020977222
 21
4.556594987142378
 31
0.0
  0
LINE
  5
247
330
1F
100
AcDbEntity
  8
0
  6
Continuous
 62
     7
100
AcDbLine
 10
4.405945462277222
 20
4.584710232842376
 30
0.0
 11
4.586697131277222
 21
4.584710232842376
 31
0.0
  0
LINE
  5
248
330
1F
100
AcDbEntity
  8
0
  6
Continuous
 62
     7
100
AcDbLine
 10
5.158681717577222
 20
4.584711416442377
 30
0.0
 11
4.977948977177223
 21
4.584711416442377
 31
0.0
  0
LINE
  5
249
330
1F
100
AcDbEntity
  8
0
  6
Continuous
 62
     7
100
AcDbLine
 10
6.154362730777223
 20
3.244587105742377
 30
0.0
 11
6.147365452377222
 21
3.297736711942377
 31
0.0
  0
LINE
  5
24A
330
1F
100
AcDbEntity
  8
0
  6
Continuous
 62
     7
100
AcDbLine
 10
4.624835197377223
 20
4.718688148042376
 30
0.0
 11
4.939795827277222
 21
4.718688148042376
 31
0.0
  0
LINE
  5
24B
330
1F
100
AcDbEntity
  8
0
  6
Continuous
 62
     7
100
AcDbLine
 10
4.624835197377223
 20
4.734959384242378
 30
0.0
 11
4.939795827277222
 21
4.734959384242378
 31
0.0
  0
LINE
  5
24C
330
1F
100
AcDbEntity
  8
0
  6
Continuous
 62
     7
100
AcDbLine
 10
4.664205276077223
 20
4.757870183942378
 30
0.0
 11
4.900425748477222
 21
4.757870183942378
 31
0.0
  0
LINE
  5
24D
330
1F
100
AcDbEntity
  8
0
  6
Continuous
 62
     7
100
AcDbLine
 10
4.900425748477222
 20
4.774240695542378
 30
0.0
 11
4.664205276077223
 21
4.774240695542378
 31
0.0
  0
LINE
  5
24E
330
1F
100
AcDbEntity
  8
0
  6
Continuous
 62
     7
100
AcDbLine
 10
4.900425748477222
 20
4.788878444142378
 30
0.0
 11
4.664205276077223
 21
4.788878444142378
 31
0.0
  0
LINE
  5
24F
330
1F
100
AcDbEntity
  8
0
  6
Continuous
 62
     7
100
AcDbLine
 10
6.374835206577222
 20
2.444390255142376
 30
0.0
 11
6.374835206577222
 21
1.420768207942377
 31
0.0
  0
LINE
  5
250
330
1F
100
AcDbEntity
  8
0
  6
Continuous
 62
     7
100
AcDbLine
 10
6.611055679077223
 20
3.836122546142378
 30
0.0
 11
6.611055679077223
 21
2.444390255142376
 31
0.0
  0
LINE
  5
251
330
1F
100
AcDbEntity
  8
0
  6
Continuous
 62
     7
100
AcDbLine
 10
2.599244655477223
 20
5.598873591042377
 30
0.0
 11
2.599244655477223
 21
7.358716110742378
 31
0.0
  0
LINE
  5
252
330
1F
100
AcDbEntity
  8
0
  6
Continuous
 62
     7
100
AcDbLine
 10
3.239008400377223
 20
7.114621467442377
 30
0.0
 11
3.239008400377223
 21
7.049660837542377
 31
0.0
  0
LINE
  5
253
330
1F
100
AcDbEntity
  8
0
  6
Continuous
 62
     7
100
AcDbLine
 10
3.239008400377223
 20
7.018164774542378
 30
0.0
 11
3.239008400377223
 21
6.953204144642378
 31
0.0
  0
LINE
  5
254
330
1F
100
AcDbEntity
  8
0
  6
Continuous
 62
     7
100
AcDbLine
 10
3.239008400377223
 20
6.559503357242378
 30
0.0
 11
3.239008400377223
 21
6.494542727342377
 31
0.0
  0
LINE
  5
255
330
1F
100
AcDbEntity
  8
0
  6
Continuous
 62
     7
100
AcDbLine
 10
3.239008400377223
 20
6.463046664342378
 30
0.0
 11
3.239008400377223
 21
6.398086034442378
 31
0.0
  0
LINE
  5
256
330
1F
100
AcDbEntity
  8
0
  6
Continuous
 62
     7
100
AcDbLine
 10
3.239008400377223
 20
6.004385247042377
 30
0.0
 11
3.239008400377223
 21
5.939424617042377
 31
0.0
  0
LINE
  5
257
330
1F
100
AcDbEntity
  8
0
  6
Continuous
 62
     7
100
AcDbLine
 10
3.239008400377223
 20
5.907928554142377
 30
0.0
 11
3.239008400377223
 21
5.842967924142377
 31
0.0
  0
LINE
  5
258
330
1F
100
AcDbEntity
  8
0
  6
Continuous
 62
     7
100
AcDbLine
 10
3.270504463377223
 20
5.842967924142377
 30
0.0
 11
3.270504463377223
 21
5.907928554142377
 31
0.0
  0
LINE
  5
259
330
1F
100
AcDbEntity
  8
0
  6
Continuous
 62
     7
100
AcDbLine
 10
3.270504463377223
 20
5.939424617042377
 30
0.0
 11
3.270504463377223
 21
6.004385247042377
 31
0.0
  0
LINE
  5
25A
330
1F
100
AcDbEntity
  8
0
  6
Continuous
 62
     7
100
AcDbLine
 10
3.270504463377223
 20
6.398086034442378
 30
0.0
 11
3.270504463377223
 21
6.463046664342378
 31
0.0
  0
LINE
  5
25B
330
1F
100
AcDbEntity
  8
0
  6
Continuous
 62
     7
100
AcDbLine
 10
3.270504463377223
 20
6.494542727342377
 30
0.0
 11
3.270504463377223
 21
6.559503357242378
 31
0.0
  0
LINE
  5
25C
330
1F
100
AcDbEntity
  8
0
  6
Continuous
 62
     7
100
AcDbLine
 10
3.270504463377223
 20
6.953204144642378
 30
0.0
 11
3.270504463377223
 21
7.018164774542378
 31
0.0
  0
LINE
  5
25D
330
1F
100
AcDbEntity
  8
0
  6
Continuous
 62
     7
100
AcDbLine
 10
3.270504463377223
 20
7.049660837542377
 30
0.0
 11
3.270504463377223
 21
7.114621467442377
 31
0.0
  0
LINE
  5
25E
330
1F
100
AcDbEntity
  8
0
  6
Continuous
 62
     7
100
AcDbLine
 10
3.524441505877223
 20
5.598873591042377
 30
0.0
 11
3.524441505877223
 21
7.358716110742378
 31
0.0
  0
LINE
  5
25F
330
1F
100
AcDbEntity
  8
0
  6
Continuous
 62
     7
100
AcDbLine
 10
3.721291899577223
 20
5.598873591042377
 30
0.0
 11
3.721291899577223
 21
7.358716110742378
 31
0.0
  0
LINE
  5
260
330
1F
100
AcDbEntity
  8
0
  6
Continuous
 62
     7
100
AcDbLine
 10
2.599244655477223
 20
5.598873591042377
 30
0.0
 11
6.611055679077223
 21
5.598873591042377
 31
0.0
  0
LINE
  5
261
330
1F
100
AcDbEntity
  8
0
  6
Continuous
 62
     7
100
AcDbLine
 10
3.792903020977222
 20
7.279975953242378
 30
0.0
 11
3.792903020977222
 21
6.571314535942377
 31
0.0
  0
LINE
  5
262
330
1F
100
AcDbEntity
  8
0
  6
Continuous
 62
     7
100
AcDbLine
 10
3.239008400377223
 20
5.842967924142377
 30
0.0
 11
3.270504463377223
 21
5.842967924142377
 31
0.0
  0
LINE
  5
263
330
1F
100
AcDbEntity
  8
0
  6
Continuous
 62
     7
100
AcDbLine
 10
6.016567455177223
 20
5.842967924142377
 30
0.0
 11
6.048063518177222
 21
5.842967924142377
 31
0.0
  0
LINE
  5
264
330
1F
100
AcDbEntity
  8
0
  6
Continuous
 62
     7
100
AcDbLine
 10
3.140789358477222
 20
5.907928554142377
 30
0.0
 11
3.239008400377223
 21
5.907928554142377
 31
0.0
  0
LINE
  5
265
330
1F
100
AcDbEntity
  8
0
  6
Continuous
 62
     7
100
AcDbLine
 10
3.270504463377223
 20
5.907928554142377
 30
0.0
 11
3.368723505377222
 21
5.907928554142377
 31
0.0
  0
LINE
  5
266
330
1F
100
AcDbEntity
  8
0
  6
Continuous
 62
     7
100
AcDbLine
 10
5.918348413177223
 20
5.907928554142377
 30
0.0
 11
6.016567455177223
 21
5.907928554142377
 31
0.0
  0
LINE
  5
267
330
1F
100
AcDbEntity
  8
0
  6
Continuous
 62
     7
100
AcDbLine
 10
6.048063518177222
 20
5.907928554142377
 30
0.0
 11
6.146282560177222
 21
5.907928554142377
 31
0.0
  0
LINE
  5
268
330
1F
100
AcDbEntity
  8
0
  6
Continuous
 62
     7
100
AcDbLine
 10
4.082697096377223
 20
6.571314535942377
 30
0.0
 11
4.082697096377223
 21
7.279975953242378
 31
0.0
  0
LINE
  5
269
330
1F
100
AcDbEntity
  8
0
  6
Continuous
 62
     7
100
AcDbLine
 10
6.146282560177222
 20
5.939424617042377
 30
0.0
 11
6.048063518177222
 21
5.939424617042377
 31
0.0
  0
LINE
  5
26A
330
1F
100
AcDbEntity
  8
0
  6
Continuous
 62
     7
100
AcDbLine
 10
6.016567455177223
 20
5.939424617042377
 30
0.0
 11
5.918348413177223
 21
5.939424617042377
 31
0.0
  0
LINE
  5
26B
330
1F
100
AcDbEntity
  8
0
  6
Continuous
 62
     7
100
AcDbLine
 10
3.368723505377222
 20
5.939424617042377
 30
0.0
 11
3.270504463377223
 21
5.939424617042377
 31
0.0
  0
LINE
  5
26C
330
1F
100
AcDbEntity
  8
0
  6
Continuous
 62
     7
100
AcDbLine
 10
3.239008400377223
 20
5.939424617042377
 30
0.0
 11
3.140789358477222
 21
5.939424617042377
 31
0.0
  0
LINE
  5
26D
330
1F
100
AcDbEntity
  8
0
  6
Continuous
 62
     7
100
AcDbLine
 10
6.048063518177222
 20
6.004385247042377
 30
0.0
 11
6.016567455177223
 21
6.004385247042377
 31
0.0
  0
LINE
  5
26E
330
1F
100
AcDbEntity
  8
0
  6
Continuous
 62
     7
100
AcDbLine
 10
3.270504463377223
 20
6.004385247042377
 30
0.0
 11
3.239008400377223
 21
6.004385247042377
 31
0.0
  0
LINE
  5
26F
330
1F
100
AcDbEntity
  8
0
  6
Continuous
 62
     7
100
AcDbLine
 10
4.622428739977222
 20
6.955704480742378
 30
0.0
 11
4.619015900577222
 21
6.952282700042378
 31
0.0
  0
LINE
  5
270
330
1F
100
AcDbEntity
  8
0
  6
Continuous
 62
     7
100
AcDbLine
 10
4.664205276077223
 20
6.100842108542377
 30
0.0
 11
4.900425748477222
 21
6.100842108542377
 31
0.0
  0
LINE
  5
271
330
1F
100
AcDbEntity
  8
0
  6
Continuous
 62
     7
100
AcDbLine
 10
4.900425748477222
 20
6.137569900142377
 30
0.0
 11
4.664205276077223
 21
6.137569900142377
 31
0.0
  0
LINE
  5
272
330
1F
100
AcDbEntity
  8
0
  6
Continuous
 62
     7
100
AcDbLine
 10
4.619127292877222
 20
6.194208016242377
 30
0.0
 11
4.622789048677222
 21
6.190378079242378
 31
0.0
  0
LINE
  5
273
330
1F
100
AcDbEntity
  8
0
  6
Continuous
 62
     7
100
AcDbLine
 10
4.624643812677222
 20
6.185513192342377
 30
0.0
 11
4.624832627477222
 21
6.183610747442378
 31
0.0
  0
LINE
  5
274
330
1F
100
AcDbEntity
  8
0
  6
Continuous
 62
     7
100
AcDbLine
 10
4.586685963677222
 20
6.251763365342377
 30
0.0
 11
4.586685963677222
 21
6.894802741542377
 31
0.0
  0
LWPOLYLINE
  5
275
330
1F
100
AcDbEntity
  8
0
  6
Continuous
 62
     7
100
AcDbPolyline
 90
        4
 70
     0
 43
0.0
 10
4.624835122677222
 20
6.963124784542378
 10
4.624800355777222
 20
6.962380683342377
 10
4.624299540877222
 20
6.959640400042377
 10
4.622428739977222
 20
6.955704480742378
  0
LINE
  5
276
330
1F
100
AcDbEntity
  8
0
  6
Continuous
 62
     7
100
AcDbLine
 10
3.239008400377223
 20
6.398086034442378
 30
0.0
 11
3.270504463377223
 21
6.398086034442378
 31
0.0
  0
LINE
  5
277
330
1F
100
AcDbEntity
  8
0
  6
Continuous
 62
     7
100
AcDbLine
 10
6.016567455177223
 20
6.398086034442378
 30
0.0
 11
6.048063518177222
 21
6.398086034442378
 31
0.0
  0
LINE
  5
278
330
1F
100
AcDbEntity
  8
0
  6
Continuous
 62
     7
100
AcDbLine
 10
3.140789358477222
 20
6.463046664342378
 30
0.0
 11
3.239008400377223
 21
6.463046664342378
 31
0.0
  0
LINE
  5
279
330
1F
100
AcDbEntity
  8
0
  6
Continuous
 62
     7
100
AcDbLine
 10
3.270504463377223
 20
6.463046664342378
 30
0.0
 11
3.368723505377222
 21
6.463046664342378
 31
0.0
  0
LINE
  5
27A
330
1F
100
AcDbEntity
  8
0
  6
Continuous
 62
     7
100
AcDbLine
 10
5.918348413177223
 20
6.463046664342378
 30
0.0
 11
6.016567455177223
 21
6.463046664342378
 31
0.0
  0
LINE
  5
27B
330
1F
100
AcDbEntity
  8
0
  6
Continuous
 62
     7
100
AcDbLine
 10
6.048063518177222
 20
6.463046664342378
 30
0.0
 11
6.146282560177222
 21
6.463046664342378
 31
0.0
  0
LINE
  5
27C
330
1F
100
AcDbEntity
  8
0
  6
Continuous
 62
     7
100
AcDbLine
 10
6.146282560177222
 20
6.494542727342377
 30
0.0
 11
6.048063518177222
 21
6.494542727342377
 31
0.0
  0
LINE
  5
27D
330
1F
100
AcDbEntity
  8
0
  6
Continuous
 62
     7
100
AcDbLine
 10
6.016567455177223
 20
6.494542727342377
 30
0.0
 11
5.918348413177223
 21
6.494542727342377
 31
0.0
  0
LINE
  5
27E
330
1F
100
AcDbEntity
  8
0
  6
Continuous
 62
     7
100
AcDbLine
 10
3.368723505377222
 20
6.494542727342377
 30
0.0
 11
3.270504463377223
 21
6.494542727342377
 31
0.0
  0
LINE
  5
27F
330
1F
100
AcDbEntity
  8
0
  6
Continuous
 62
     7
100
AcDbLine
 10
3.239008400377223
 20
6.494542727342377
 30
0.0
 11
3.140789358477222
 21
6.494542727342377
 31
0.0
  0
LINE
  5
280
330
1F
100
AcDbEntity
  8
0
  6
Continuous
 62
     7
100
AcDbLine
 10
4.622789048677222
 20
6.190378079242378
 30
0.0
 11
4.624643812677222
 21
6.185513192342377
 31
0.0
  0
LINE
  5
281
330
1F
100
AcDbEntity
  8
0
  6
Continuous
 62
     7
100
AcDbLine
 10
4.624835197377223
 20
7.203204292942378
 30
0.0
 11
4.624835197377223
 21
6.140212226242377
 31
0.0
  0
LINE
  5
282
330
1F
100
AcDbEntity
  8
0
  6
Continuous
 62
     7
100
AcDbLine
 10
4.664205276077223
 20
6.100842108542377
 30
0.0
 11
4.664205276077223
 21
7.242574392042378
 31
0.0
  0
LINE
  5
283
330
1F
100
AcDbEntity
  8
0
  6
Continuous
 62
     7
100
AcDbLine
 10
6.048063518177222
 20
6.559503357242378
 30
0.0
 11
6.016567455177223
 21
6.559503357242378
 31
0.0
  0
LINE
  5
284
330
1F
100
AcDbEntity
  8
0
  6
Continuous
 62
     7
100
AcDbLine
 10
3.270504463377223
 20
6.559503357242378
 30
0.0
 11
3.239008400377223
 21
6.559503357242378
 31
0.0
  0
LINE
  5
285
330
1F
100
AcDbEntity
  8
0
  6
Continuous
 62
     7
100
AcDbLine
 10
3.792903020977222
 20
6.571314535942377
 30
0.0
 11
4.082697096377223
 21
6.571314535942377
 31
0.0
  0
LINE
  5
286
330
1F
100
AcDbEntity
  8
0
  6
Continuous
 62
     7
100
AcDbLine
 10
4.900425748477222
 20
7.242574392042378
 30
0.0
 11
4.900425748477222
 21
6.100842108542377
 31
0.0
  0
LINE
  5
287
330
1F
100
AcDbEntity
  8
0
  6
Continuous
 62
     7
100
AcDbLine
 10
4.939795827277222
 20
7.203204292942378
 30
0.0
 11
4.939795827277222
 21
6.140212226242377
 31
0.0
  0
LINE
  5
288
330
1F
100
AcDbEntity
  8
0
  6
Continuous
 62
     7
100
AcDbLine
 10
4.977945842177223
 20
6.894782434642378
 30
0.0
 11
4.977935617877222
 21
6.251778855342377
 31
0.0
  0
LWPOLYLINE
  5
289
330
1F
100
AcDbEntity
  8
0
  6
Continuous
 62
     7
100
AcDbPolyline
 90
        4
 70
     0
 43
0.0
 10
4.939795903077222
 20
6.183440475542378
 10
4.939835632177222
 20
6.184249166542377
 10
4.940358253477223
 20
6.187018285842378
 10
4.942234160077222
 20
6.190908687042377
  0
LINE
  5
28A
330
1F
100
AcDbEntity
  8
0
  6
Continuous
 62
     7
100
AcDbLine
 10
4.942234160077222
 20
6.190908687042377
 30
0.0
 11
4.945617695377222
 21
6.194285010842378
 31
0.0
  0
LINE
  5
28B
330
1F
100
AcDbEntity
  8
0
  6
Continuous
 62
     7
100
AcDbLine
 10
4.940295542577222
 20
6.959839840242377
 30
0.0
 11
4.939823395177222
 21
6.962527085842378
 31
0.0
  0
LINE
  5
28C
330
1F
100
AcDbEntity
  8
0
  6
Continuous
 62
     7
100
AcDbLine
 10
3.239008400377223
 20
6.953204144642378
 30
0.0
 11
3.270504463377223
 21
6.953204144642378
 31
0.0
  0
LINE
  5
28D
330
1F
100
AcDbEntity
  8
0
  6
Continuous
 62
     7
100
AcDbLine
 10
6.016567455177223
 20
6.953204144642378
 30
0.0
 11
6.048063518177222
 21
6.953204144642378
 31
0.0
  0
LINE
  5
28E
330
1F
100
AcDbEntity
  8
0
  6
Continuous
 62
     7
100
AcDbLine
 10
3.140789358477222
 20
7.018164774542378
 30
0.0
 11
3.239008400377223
 21
7.018164774542378
 31
0.0
  0
LINE
  5
28F
330
1F
100
AcDbEntity
  8
0
  6
Continuous
 62
     7
100
AcDbLine
 10
3.270504463377223
 20
7.018164774542378
 30
0.0
 11
3.368723505377222
 21
7.018164774542378
 31
0.0
  0
LINE
  5
290
330
1F
100
AcDbEntity
  8
0
  6
Continuous
 62
     7
100
AcDbLine
 10
5.918348413177223
 20
7.018164774542378
 30
0.0
 11
6.016567455177223
 21
7.018164774542378
 31
0.0
  0
LINE
  5
291
330
1F
100
AcDbEntity
  8
0
  6
Continuous
 62
     7
100
AcDbLine
 10
6.048063518177222
 20
7.018164774542378
 30
0.0
 11
6.146282560177222
 21
7.018164774542378
 31
0.0
  0
LINE
  5
292
330
1F
100
AcDbEntity
  8
0
  6
Continuous
 62
     7
100
AcDbLine
 10
6.146282560177222
 20
7.049660837542377
 30
0.0
 11
6.048063518177222
 21
7.049660837542377
 31
0.0
  0
LINE
  5
293
330
1F
100
AcDbEntity
  8
0
  6
Continuous
 62
     7
100
AcDbLine
 10
6.016567455177223
 20
7.049660837542377
 30
0.0
 11
5.918348413177223
 21
7.049660837542377
 31
0.0
  0
LINE
  5
294
330
1F
100
AcDbEntity
  8
0
  6
Continuous
 62
     7
100
AcDbLine
 10
3.368723505377222
 20
7.049660837542377
 30
0.0
 11
3.270504463377223
 21
7.049660837542377
 31
0.0
  0
LINE
  5
295
330
1F
100
AcDbEntity
  8
0
  6
Continuous
 62
     7
100
AcDbLine
 10
3.239008400377223
 20
7.049660837542377
 30
0.0
 11
3.140789358477222
 21
7.049660837542377
 31
0.0
  0
LWPOLYLINE
  5
296
330
1F
100
AcDbEntity
  8
0
  6
Continuous
 62
     7
100
AcDbPolyline
 90
        3
 70
     0
 43
0.0
 10
4.945710270777222
 20
6.952216030742378
 10
4.942260283877222
 20
6.955676123642377
 10
4.940295542577222
 20
6.959839840242377
  0
LINE
  5
297
330
1F
100
AcDbEntity
  8
0
  6
Continuous
 62
     7
100
AcDbLine
 10
6.048063518177222
 20
7.114621467442377
 30
0.0
 11
6.016567455177223
 21
7.114621467442377
 31
0.0
  0
LINE
  5
298
330
1F
100
AcDbEntity
  8
0
  6
Continuous
 62
     7
100
AcDbLine
 10
3.270504463377223
 20
7.114621467442377
 30
0.0
 11
3.239008400377223
 21
7.114621467442377
 31
0.0
  0
LINE
  5
299
330
1F
100
AcDbEntity
  8
0
  6
Continuous
 62
     7
100
AcDbLine
 10
4.664205276077223
 20
7.207047640042377
 30
0.0
 11
4.900425748477222
 21
7.207047640042377
 31
0.0
  0
LINE
  5
29A
330
1F
100
AcDbEntity
  8
0
  6
Continuous
 62
     7
100
AcDbLine
 10
5.489008434977224
 20
7.358716110742378
 30
0.0
 11
5.489008434977224
 21
5.598873591042377
 31
0.0
  0
LINE
  5
29B
330
1F
100
AcDbEntity
  8
0
  6
Continuous
 62
     7
100
AcDbLine
 10
4.900425748477222
 20
7.242574392042378
 30
0.0
 11
4.664205276077223
 21
7.242574392042378
 31
0.0
  0
LINE
  5
29C
330
1F
100
AcDbEntity
  8
0
  6
Continuous
 62
     7
100
AcDbLine
 10
4.082697096377223
 20
7.279975953242378
 30
0.0
 11
3.792903020977222
 21
7.279975953242378
 31
0.0
  0
LINE
  5
29D
330
1F
100
AcDbEntity
  8
0
  6
Continuous
 62
     7
100
AcDbLine
 10
2.599244655477223
 20
7.358716110742378
 30
0.0
 11
6.611055679077223
 21
7.358716110742378
 31
0.0
  0
LINE
  5
29E
330
1F
100
AcDbEntity
  8
0
  6
Continuous
 62
     7
100
AcDbLine
 10
6.016567455177223
 20
7.114621467442377
 30
0.0
 11
6.016567455177223
 21
7.049660837542377
 31
0.0
  0
LINE
  5
29F
330
1F
100
AcDbEntity
  8
0
  6
Continuous
 62
     7
100
AcDbLine
 10
6.016567455177223
 20
7.018164774542378
 30
0.0
 11
6.016567455177223
 21
6.953204144642378
 31
0.0
  0
LINE
  5
2A0
330
1F
100
AcDbEntity
  8
0
  6
Continuous
 62
     7
100
AcDbLine
 10
6.016567455177223
 20
6.559503357242378
 30
0.0
 11
6.016567455177223
 21
6.494542727342377
 31
0.0
  0
LINE
  5
2A1
330
1F
100
AcDbEntity
  8
0
  6
Continuous
 62
     7
100
AcDbLine
 10
6.016567455177223
 20
6.463046664342378
 30
0.0
 11
6.016567455177223
 21
6.398086034442378
 31
0.0
  0
LINE
  5
2A2
330
1F
100
AcDbEntity
  8
0
  6
Continuous
 62
     7
100
AcDbLine
 10
6.016567455177223
 20
6.004385247042377
 30
0.0
 11
6.016567455177223
 21
5.939424617042377
 31
0.0
  0
LINE
  5
2A3
330
1F
100
AcDbEntity
  8
0
  6
Continuous
 62
     7
100
AcDbLine
 10
6.016567455177223
 20
5.907928554142377
 30
0.0
 11
6.016567455177223
 21
5.842967924142377
 31
0.0
  0
LINE
  5
2A4
330
1F
100
AcDbEntity
  8
0
  6
Continuous
 62
     7
100
AcDbLine
 10
6.048063518177222
 20
5.842967924142377
 30
0.0
 11
6.048063518177222
 21
5.907928554142377
 31
0.0
  0
LINE
  5
2A5
330
1F
100
AcDbEntity
  8
0
  6
Continuous
 62
     7
100
AcDbLine
 10
6.048063518177222
 20
5.939424617042377
 30
0.0
 11
6.048063518177222
 21
6.004385247042377
 31
0.0
  0
LINE
  5
2A6
330
1F
100
AcDbEntity
  8
0
  6
Continuous
 62
     7
100
AcDbLine
 10
6.048063518177222
 20
6.398086034442378
 30
0.0
 11
6.048063518177222
 21
6.463046664342378
 31
0.0
  0
LINE
  5
2A7
330
1F
100
AcDbEntity
  8
0
  6
Continuous
 62
     7
100
AcDbLine
 10
6.048063518177222
 20
6.494542727342377
 30
0.0
 11
6.048063518177222
 21
6.559503357242378
 31
0.0
  0
LINE
  5
2A8
330
1F
100
AcDbEntity
  8
0
  6
Continuous
 62
     7
100
AcDbLine
 10
6.048063518177222
 20
6.953204144642378
 30
0.0
 11
6.048063518177222
 21
7.018164774542378
 31
0.0
  0
LINE
  5
2A9
330
1F
100
AcDbEntity
  8
0
  6
Continuous
 62
     7
100
AcDbLine
 10
6.048063518177222
 20
7.049660837542377
 30
0.0
 11
6.048063518177222
 21
7.114621467442377
 31
0.0
  0
LINE
  5
2AA
330
1F
100
AcDbEntity
  8
0
  6
Continuous
 62
     7
100
AcDbLine
 10
6.611055679077223
 20
5.598873591042377
 30
0.0
 11
6.611055679077223
 21
7.358716110742378
 31
0.0
  0
LINE
  5
2AB
330
1F
100
AcDbEntity
  8
0
  6
Continuous
 62
     7
100
AcDbLine
 10
2.0035025965
 20
1.420768207942377
 30
0.0
 11
0.2436600769
 21
1.420768207942377
 31
0.0
  0
LINE
  5
2AC
330
1F
100
AcDbEntity
  8
0
  6
Continuous
 62
     7
100
AcDbLine
 10
0.2436600769
 20
1.420768207942377
 30
0.0
 11
0.2436600769
 21
4.426673727242378
 31
0.0
  0
LINE
  5
2AD
330
1F
100
AcDbEntity
  8
0
  6
Continuous
 62
     7
100
AcDbLine
 10
0.3224002342999999
 20
4.426673727242378
 30
0.0
 11
0.3224002342999999
 21
4.556594987142378
 31
0.0
  0
LINE
  5
2AE
330
1F
100
AcDbEntity
  8
0
  6
Continuous
 62
     7
100
AcDbLine
 10
0.3598017954999999
 20
4.718688148042376
 30
0.0
 11
0.3598017954999999
 21
4.556594987142378
 31
0.0
  0
LINE
  5
2AF
330
1F
100
AcDbEntity
  8
0
  6
Continuous
 62
     7
100
AcDbLine
 10
0.3716128328
 20
3.235728837842378
 30
0.0
 11
0.3716128328
 21
3.072343011042378
 31
0.0
  0
LINE
  5
2B0
330
1F
100
AcDbEntity
  8
0
  6
Continuous
 62
     7
100
AcDbLine
 10
0.3991718743
 20
4.556594987142378
 30
0.0
 11
0.3991718743
 21
4.718688148042376
 31
0.0
  0
LINE
  5
2B1
330
1F
100
AcDbEntity
  8
0
  6
Continuous
 62
     7
100
AcDbLine
 10
2.0035025965
 20
2.444390255142376
 30
0.0
 11
0.2436600769
 21
2.444390255142376
 31
0.0
  0
LINE
  5
2B2
330
1F
100
AcDbEntity
  8
0
  6
Continuous
 62
     7
100
AcDbLine
 10
0.3991718743
 20
4.718688148042376
 30
0.0
 11
0.3953285475
 21
4.757870183942378
 31
0.0
  0
LINE
  5
2B3
330
1F
100
AcDbEntity
  8
0
  6
Continuous
 62
     7
100
AcDbLine
 10
0.7055627132
 20
4.624011043342378
 30
0.0
 11
0.7075721772
 21
4.584712114742377
 31
0.0
  0
LINE
  5
2B4
330
1F
100
AcDbEntity
  8
0
  6
Continuous
 62
     7
100
AcDbLine
 10
0.7653136201999999
 20
3.072343011042378
 30
0.0
 11
0.7653136201999999
 21
3.235728837842378
 31
0.0
  0
LINE
  5
2B5
330
1F
100
AcDbEntity
  8
0
  6
Continuous
 62
     7
100
AcDbLine
 10
0.926730943
 20
3.235728837842378
 30
0.0
 11
0.926730943
 21
3.072343011042378
 31
0.0
  0
LINE
  5
2B6
330
1F
100
AcDbEntity
  8
0
  6
Continuous
 62
     7
100
AcDbLine
 10
1.031061651699999
 20
4.556594987142378
 30
0.0
 11
1.031061651699999
 21
4.426673727242378
 31
0.0
  0
LINE
  5
2B7
330
1F
100
AcDbEntity
  8
0
  6
Continuous
 62
     7
100
AcDbLine
 10
0.3716128328
 20
3.072343011042378
 30
0.0
 11
0.7653136201999999
 21
3.072343011042378
 31
0.0
  0
LINE
  5
2B8
330
1F
100
AcDbEntity
  8
0
  6
Continuous
 62
     7
100
AcDbLine
 10
0.926730943
 20
3.072343011042378
 30
0.0
 11
1.3204317304
 21
3.072343011042378
 31
0.0
  0
LINE
  5
2B9
330
1F
100
AcDbEntity
  8
0
  6
Continuous
 62
     7
100
AcDbLine
 10
1.481849053199999
 20
3.072343011042378
 30
0.0
 11
1.875549840599999
 21
3.072343011042378
 31
0.0
  0
LINE
  5
2BA
330
1F
100
AcDbEntity
  8
0
  6
Continuous
 62
     7
100
AcDbLine
 10
1.875549840599999
 20
3.235728837842378
 30
0.0
 11
1.481849053199999
 21
3.235728837842378
 31
0.0
  0
LINE
  5
2BB
330
1F
100
AcDbEntity
  8
0
  6
Continuous
 62
     7
100
AcDbLine
 10
1.3204317304
 20
3.235728837842378
 30
0.0
 11
0.926730943
 21
3.235728837842378
 31
0.0
  0
LINE
  5
2BC
330
1F
100
AcDbEntity
  8
0
  6
Continuous
 62
     7
100
AcDbLine
 10
0.7653136201999999
 20
3.235728837842378
 30
0.0
 11
0.3716128328
 21
3.235728837842378
 31
0.0
  0
LINE
  5
2BD
330
1F
100
AcDbEntity
  8
0
  6
Continuous
 62
     7
100
AcDbLine
 10
1.3046836853
 20
4.426673727242378
 30
0.0
 11
1.3046836853
 21
4.485728837842376
 31
0.0
  0
LINE
  5
2BE
330
1F
100
AcDbEntity
  8
0
  6
Continuous
 62
     7
100
AcDbLine
 10
1.3204317304
 20
3.072343011042378
 30
0.0
 11
1.3204317304
 21
3.235728837842378
 31
0.0
  0
LINE
  5
2BF
330
1F
100
AcDbEntity
  8
0
  6
Continuous
 62
     7
100
AcDbLine
 10
1.3526345018
 20
4.624010797242378
 30
0.0
 11
1.3506249534
 21
4.584711549742378
 31
0.0
  0
LINE
  5
2C0
330
1F
100
AcDbEntity
  8
0
  6
Continuous
 62
     7
100
AcDbLine
 10
1.4648062874
 20
4.774240695542378
 30
0.0
 11
1.4621640002
 21
4.734959384242378
 31
0.0
  0
LINE
  5
2C1
330
1F
100
AcDbEntity
  8
0
  6
Continuous
 62
     7
100
AcDbLine
 10
1.411307461599998
 20
4.545411563342376
 30
0.0
 11
1.411307461599998
 21
4.485728837842376
 31
0.0
  0
LINE
  5
2C2
330
1F
100
AcDbEntity
  8
0
  6
Continuous
 62
     7
100
AcDbLine
 10
1.4621640002
 20
4.734959384242378
 30
0.0
 11
1.4621640002
 21
4.485728837842376
 31
0.0
  0
LINE
  5
2C3
330
1F
100
AcDbEntity
  8
0
  6
Continuous
 62
     7
100
AcDbLine
 10
1.481849053199999
 20
3.235728837842378
 30
0.0
 11
1.481849053199999
 21
3.072343011042378
 31
0.0
  0
LINE
  5
2C4
330
1F
100
AcDbEntity
  8
0
  6
Continuous
 62
     7
100
AcDbLine
 10
1.501534078999999
 20
4.485728837842376
 30
0.0
 11
1.501534078999999
 21
4.734959384242378
 31
0.0
  0
LINE
  5
2C5
330
1F
100
AcDbEntity
  8
0
  6
Continuous
 62
     7
100
AcDbLine
 10
1.875549840599999
 20
3.072343011042378
 30
0.0
 11
1.875549840599999
 21
3.235728837842378
 31
0.0
  0
LINE
  5
2C6
330
1F
100
AcDbEntity
  8
0
  6
Continuous
 62
     7
100
AcDbLine
 10
2.0035025965
 20
3.836122546142378
 30
0.0
 11
0.2436600769
 21
3.836122546142378
 31
0.0
  0
LINE
  5
2C7
330
1F
100
AcDbEntity
  8
0
  6
Continuous
 62
     7
100
AcDbLine
 10
2.0035025965
 20
1.420768207942377
 30
0.0
 11
2.0035025965
 21
4.426673727242378
 31
0.0
  0
LINE
  5
2C8
330
1F
100
AcDbEntity
  8
0
  6
Continuous
 62
     7
100
AcDbLine
 10
2.0035025965
 20
4.151083176042376
 30
0.0
 11
0.2436600769
 21
4.151083176042376
 31
0.0
  0
LINE
  5
2C9
330
1F
100
AcDbEntity
  8
0
  6
Continuous
 62
     7
100
AcDbLine
 10
2.0035025965
 20
4.426673727242378
 30
0.0
 11
0.2436600769
 21
4.426673727242378
 31
0.0
  0
LINE
  5
2CA
330
1F
100
AcDbEntity
  8
0
  6
Continuous
 62
     7
100
AcDbLine
 10
1.501534078999999
 20
4.485728837842376
 30
0.0
 11
1.031061651699999
 21
4.485728837842376
 31
0.0
  0
LINE
  5
2CB
330
1F
100
AcDbEntity
  8
0
  6
Continuous
 62
     7
100
AcDbLine
 10
1.031061651699999
 20
4.545411563342376
 30
0.0
 11
1.411300645699999
 21
4.545411563342376
 31
0.0
  0
LINE
  5
2CC
330
1F
100
AcDbEntity
  8
0
  6
Continuous
 62
     7
100
AcDbLine
 10
0.3224002342999999
 20
4.556594987142378
 30
0.0
 11
1.031061651699999
 21
4.556594987142378
 31
0.0
  0
LINE
  5
2CD
330
1F
100
AcDbEntity
  8
0
  6
Continuous
 62
     7
100
AcDbLine
 10
1.350615751999999
 20
4.584711443342378
 30
0.0
 11
0.7075643902
 21
4.584710813642376
 31
0.0
  0
LINE
  5
2CE
330
1F
100
AcDbEntity
  8
0
  6
Continuous
 62
     7
100
AcDbLine
 10
0.3598017954999999
 20
4.718688148042376
 30
0.0
 11
0.3991718743
 21
4.718688148042376
 31
0.0
  0
LINE
  5
2CF
330
1F
100
AcDbEntity
  8
0
  6
Continuous
 62
     7
100
AcDbLine
 10
1.501534078999999
 20
4.734959384242378
 30
0.0
 11
1.4621640002
 21
4.734959384242378
 31
0.0
  0
LINE
  5
2D0
330
1F
100
AcDbEntity
  8
0
  6
Continuous
 62
     7
100
AcDbLine
 10
7.673190476774051
 20
6.885075196038898
 30
0.0
 11
8.606484025674051
 21
7.423909261338898
 31
0.0
  0
LINE
  5
2D1
330
1F
100
AcDbEntity
  8
0
  6
Continuous
 62
     7
100
AcDbLine
 10
7.673190476774051
 20
6.032810611338898
 30
0.0
 11
7.673190476774051
 21
6.885075196038898
 31
0.0
  0
LINE
  5
2D2
330
1F
100
AcDbEntity
  8
0
  6
Continuous
 62
     7
100
AcDbLine
 10
7.79846582177405
 20
5.960484493438896
 30
0.0
 11
7.79846582177405
 21
5.333642086538898
 31
0.0
  0
LINE
  5
2D3
330
1F
100
AcDbEntity
  8
0
  6
Continuous
 62
     7
100
AcDbLine
 10
9.197761504074051
 20
7.475525977838898
 30
0.0
 11
8.82193859847405
 21
7.258545817338896
 31
0.0
  0
LINE
  5
2D4
330
1F
100
AcDbEntity
  8
0
  6
Continuous
 62
     7
100
AcDbLine
 10
8.26824836547405
 20
6.903165986038897
 30
0.0
 11
8.82193859847405
 21
7.222837282838897
 31
0.0
  0
LINE
  5
2D5
330
1F
100
AcDbEntity
  8
0
  6
Continuous
 62
     7
100
AcDbLine
 10
8.163852244674053
 20
6.794672487538898
 30
0.0
 11
8.26824836547405
 21
6.854945256238898
 31
0.0
  0
LINE
  5
2D6
330
1F
100
AcDbEntity
  8
0
  6
Continuous
 62
     7
100
AcDbLine
 10
8.975625755274052
 20
7.169816503338898
 30
0.0
 11
9.351448660874053
 21
7.386796663838897
 31
0.0
  0
LINE
  5
2D7
330
1F
100
AcDbEntity
  8
0
  6
Continuous
 62
     7
100
AcDbLine
 10
8.975625755274052
 20
7.090255736338898
 30
0.0
 11
9.351448660874053
 21
7.307235896838897
 31
0.0
  0
LINE
  5
2D8
330
1F
100
AcDbEntity
  8
0
  6
Continuous
 62
     7
100
AcDbLine
 10
9.106549215874053
 20
4.657997638838898
 30
0.0
 11
9.085669991674052
 21
4.663591918138898
 31
0.0
  0
LINE
  5
2D9
330
1F
100
AcDbEntity
  8
0
  6
Continuous
 62
     7
100
AcDbLine
 10
8.163852244674053
 20
6.794672487538898
 30
0.0
 11
8.163852244674053
 21
6.601797900838897
 31
0.0
  0
LINE
  5
2DA
330
1F
100
AcDbEntity
  8
0
  6
Continuous
 62
     7
100
AcDbLine
 10
9.039241503574052
 20
6.993718618638896
 30
0.0
 11
9.03921359797405
 21
6.993700415738897
 31
0.0
  0
LINE
  5
2DB
330
1F
100
AcDbEntity
  8
0
  6
Continuous
 62
     7
100
AcDbLine
 10
7.79846582177405
 20
5.333642086538898
 30
0.0
 11
8.401875400174052
 21
4.985271285238898
 31
0.0
  0
LINE
  5
2DC
330
1F
100
AcDbEntity
  8
0
  6
Continuous
 62
     7
100
AcDbLine
 10
9.123252595174053
 20
4.568793389438898
 30
0.0
 11
9.675508074474052
 21
4.249955752938897
 31
0.0
  0
LINE
  5
2DD
330
1F
100
AcDbEntity
  8
0
  6
Continuous
 62
     7
100
AcDbLine
 10
8.401875400174052
 20
5.040722728838898
 30
0.0
 11
8.288083669274051
 21
5.106418929138897
 31
0.0
  0
LINE
  5
2DE
330
1F
100
AcDbEntity
  8
0
  6
Continuous
 62
     7
100
AcDbLine
 10
9.106549215874053
 20
4.686928826938898
 30
0.0
 11
8.411271051074052
 21
5.088338781338898
 31
0.0
  0
LINE
  5
2DF
330
1F
100
AcDbEntity
  8
0
  6
Continuous
 62
     7
100
AcDbLine
 10
8.288083669274051
 20
5.166692237438899
 30
0.0
 11
8.411271051074052
 21
5.095571578338898
 31
0.0
  0
LINE
  5
2E0
330
1F
100
AcDbEntity
  8
0
  6
Continuous
 62
     7
100
AcDbLine
 10
8.26824836547405
 20
6.903165986038897
 30
0.0
 11
8.26824836547405
 21
6.734400722638897
 31
0.0
  0
LINE
  5
2E1
330
1F
100
AcDbEntity
  8
0
  6
Continuous
 62
     7
100
AcDbLine
 10
8.288083669274051
 20
5.106418929138897
 30
0.0
 11
8.288083669274051
 21
5.166692237438899
 31
0.0
  0
LINE
  5
2E2
330
1F
100
AcDbEntity
  8
0
  6
Continuous
 62
     7
100
AcDbLine
 10
8.401875400174052
 20
4.985271285238898
 30
0.0
 11
8.401875400174052
 21
5.040722728838898
 31
0.0
  0
LINE
  5
2E3
330
1F
100
AcDbEntity
  8
0
  6
Continuous
 62
     7
100
AcDbLine
 10
8.411271051074052
 20
5.095571578338898
 30
0.0
 11
8.411271051074052
 21
5.088338781338898
 31
0.0
  0
LINE
  5
2E4
330
1F
100
AcDbEntity
  8
0
  6
Continuous
 62
     7
100
AcDbLine
 10
9.765281655974053
 20
7.057466722938897
 30
0.0
 11
9.649862282274053
 21
6.990829714238897
 31
0.0
  0
LINE
  5
2E5
330
1F
100
AcDbEntity
  8
0
  6
Continuous
 62
     7
100
AcDbLine
 10
9.228517937774052
 20
6.747567895538897
 30
0.0
 11
9.201547297574052
 21
6.731996482138898
 31
0.0
  0
LINE
  5
2E6
330
1F
100
AcDbEntity
  8
0
  6
Continuous
 62
     7
100
AcDbLine
 10
9.800783419474052
 20
4.804472041838899
 30
0.0
 11
9.675508074474052
 21
4.876798159838898
 31
0.0
  0
LINE
  5
2E7
330
1F
100
AcDbEntity
  8
0
  6
Continuous
 62
     7
100
AcDbLine
 10
7.79846582177405
 20
5.960484493438896
 30
0.0
 11
7.673190476774051
 21
6.032810611338898
 31
0.0
  0
LINE
  5
2E8
330
1F
100
AcDbEntity
  8
0
  6
Continuous
 62
     7
100
AcDbLine
 10
9.085669991674052
 20
4.633888006838899
 30
0.0
 11
9.123252595174053
 21
4.568793389438898
 31
0.0
  0
LINE
  5
2E9
330
1F
100
AcDbEntity
  8
0
  6
Continuous
 62
     7
100
AcDbLine
 10
10.13901907957405
 20
6.900759602138898
 30
0.0
 11
9.205725530674051
 21
6.361925536838897
 31
0.0
  0
LINE
  5
2EA
330
1F
100
AcDbEntity
  8
0
  6
Continuous
 62
     7
100
AcDbLine
 10
8.82193859847405
 20
7.258545817338896
 30
0.0
 11
8.82193859847405
 21
7.178985050338897
 31
0.0
  0
LINE
  5
2EB
330
1F
100
AcDbEntity
  8
0
  6
Continuous
 62
     7
100
AcDbLine
 10
8.975625755274052
 20
7.169816503338898
 30
0.0
 11
8.975625755274052
 21
7.090255736338898
 31
0.0
  0
LINE
  5
2EC
330
1F
100
AcDbEntity
  8
0
  6
Continuous
 62
     7
100
AcDbLine
 10
9.025865169374052
 20
6.816376953038897
 30
0.0
 11
9.025865169374052
 21
6.968999960738897
 31
0.0
  0
LINE
  5
2ED
330
1F
100
AcDbEntity
  8
0
  6
Continuous
 62
     7
100
AcDbLine
 10
9.03451367807405
 20
6.804322499738898
 30
0.0
 11
9.03451367807405
 21
6.956945507338898
 31
0.0
  0
LINE
  5
2EE
330
1F
100
AcDbEntity
  8
0
  6
Continuous
 62
     7
100
AcDbLine
 10
9.085669991674052
 20
4.663591918138898
 30
0.0
 11
9.085669991674052
 21
4.633888006838899
 31
0.0
  0
LINE
  5
2EF
330
1F
100
AcDbEntity
  8
0
  6
Continuous
 62
     7
100
AcDbLine
 10
9.106549215874053
 20
4.686928826938898
 30
0.0
 11
9.106549215874053
 21
4.657997638838898
 31
0.0
  0
LINE
  5
2F0
330
1F
100
AcDbEntity
  8
0
  6
Continuous
 62
     7
100
AcDbLine
 10
9.159789023074052
 20
6.884619389438896
 30
0.0
 11
9.159789023074052
 21
6.731996381738897
 31
0.0
  0
LINE
  5
2F1
330
1F
100
AcDbEntity
  8
0
  6
Continuous
 62
     7
100
AcDbLine
 10
9.201547297574052
 20
6.884619489838898
 30
0.0
 11
9.201547297574052
 21
6.731996482138898
 31
0.0
  0
LINE
  5
2F2
330
1F
100
AcDbEntity
  8
0
  6
Continuous
 62
     7
100
AcDbLine
 10
9.205725530674051
 20
6.000285686738897
 30
0.0
 11
9.205725530674051
 21
6.361925536838897
 31
0.0
  0
LINE
  5
2F3
330
1F
100
AcDbEntity
  8
0
  6
Continuous
 62
     7
100
AcDbLine
 10
10.13901907957405
 20
6.539119752038897
 30
0.0
 11
9.205725530674051
 21
6.000285686738897
 31
0.0
  0
LINE
  5
2F4
330
1F
100
AcDbEntity
  8
0
  6
Continuous
 62
     7
100
AcDbLine
 10
9.984964919274052
 20
5.395406044738898
 30
0.0
 11
10.07161519697405
 21
5.345379615338898
 31
0.0
  0
LINE
  5
2F5
330
1F
100
AcDbEntity
  8
0
  6
Continuous
 62
     7
100
AcDbLine
 10
9.228517937774052
 20
6.784116212838897
 30
0.0
 11
9.228517937774052
 21
6.747567895538897
 31
0.0
  0
LINE
  5
2F6
330
1F
100
AcDbEntity
  8
0
  6
Continuous
 62
     7
100
AcDbLine
 10
9.351448660874053
 20
7.386796663838897
 30
0.0
 11
9.351448660874053
 21
7.307235896838897
 31
0.0
  0
LINE
  5
2F7
330
1F
100
AcDbEntity
  8
0
  6
Continuous
 62
     7
100
AcDbLine
 10
7.673190476774051
 20
6.885075196038898
 30
0.0
 11
8.163852244674053
 21
6.601797900838897
 31
0.0
  0
LINE
  5
2F8
330
1F
100
AcDbEntity
  8
0
  6
Continuous
 62
     7
100
AcDbLine
 10
9.205725530674051
 20
6.000285686738897
 30
0.0
 11
9.800783419474052
 21
5.656736626538897
 31
0.0
  0
LINE
  5
2F9
330
1F
100
AcDbEntity
  8
0
  6
Continuous
 62
     7
100
AcDbLine
 10
8.288083669274051
 20
5.106418929138897
 30
0.0
 11
8.340282631674051
 21
5.136555834238896
 31
0.0
  0
LINE
  5
2FA
330
1F
100
AcDbEntity
  8
0
  6
Continuous
 62
     7
100
AcDbLine
 10
8.401875400174052
 20
5.040722728838898
 30
0.0
 11
8.447810487174052
 21
5.067243205338898
 31
0.0
  0
LINE
  5
2FB
330
1F
100
AcDbEntity
  8
0
  6
Continuous
 62
     7
100
AcDbLine
 10
10.27935952867405
 20
5.565373837138898
 30
0.0
 11
10.36600980637405
 21
5.515347407738898
 31
0.0
  0
LINE
  5
2FC
330
1F
100
AcDbEntity
  8
0
  6
Continuous
 62
     7
100
AcDbLine
 10
8.26824836547405
 20
6.734400722638897
 30
0.0
 11
8.163852244674053
 21
6.794672487538898
 31
0.0
  0
LINE
  5
2FD
330
1F
100
AcDbEntity
  8
0
  6
Continuous
 62
     7
100
AcDbLine
 10
9.657739324474052
 20
6.949361198338898
 30
0.0
 11
9.657739324474052
 21
6.912812881038898
 31
0.0
  0
LINE
  5
2FE
330
1F
100
AcDbEntity
  8
0
  6
Continuous
 62
     7
100
AcDbLine
 10
8.401875400174052
 20
4.985271285238898
 30
0.0
 11
8.495833532574049
 21
5.039517714438898
 31
0.0
  0
LINE
  5
2FF
330
1F
100
AcDbEntity
  8
0
  6
Continuous
 62
     7
100
AcDbLine
 10
9.205725530674051
 20
6.361925536838897
 30
0.0
 11
8.26824836547405
 21
6.903165986038897
 31
0.0
  0
LINE
  5
300
330
1F
100
AcDbEntity
  8
0
  6
Continuous
 62
     7
100
AcDbLine
 10
9.675508074474052
 20
4.249955752938897
 30
0.0
 11
9.675508074474052
 21
4.876798159838898
 31
0.0
  0
LINE
  5
301
330
1F
100
AcDbEntity
  8
0
  6
Continuous
 62
     7
100
AcDbLine
 10
9.765281655974053
 20
7.057466722938897
 30
0.0
 11
9.765281655974053
 21
7.200125602838897
 31
0.0
  0
LINE
  5
302
330
1F
100
AcDbEntity
  8
0
  6
Continuous
 62
     7
100
AcDbLine
 10
9.773929990874053
 20
7.212179955838898
 30
0.0
 11
9.773929990874053
 21
7.069521075938898
 31
0.0
  0
LINE
  5
303
330
1F
100
AcDbEntity
  8
0
  6
Continuous
 62
     7
100
AcDbLine
 10
9.800783419474052
 20
5.656736626538897
 30
0.0
 11
9.800783419474052
 21
4.804472041838899
 31
0.0
  0
LINE
  5
304
330
1F
100
AcDbEntity
  8
0
  6
Continuous
 62
     7
100
AcDbLine
 10
9.800783419474052
 20
5.656736626538897
 30
0.0
 11
10.73407696837405
 21
6.195570691838897
 31
0.0
  0
LINE
  5
305
330
1F
100
AcDbEntity
  8
0
  6
Continuous
 62
     7
100
AcDbLine
 10
10.57375413807405
 20
5.735341629638897
 30
0.0
 11
10.66040441577405
 21
5.685315200138897
 31
0.0
  0
LINE
  5
306
330
1F
100
AcDbEntity
  8
0
  6
Continuous
 62
     7
100
AcDbLine
 10
9.871176313974052
 20
5.329710555038898
 30
0.0
 11
9.871176313974052
 21
5.229656863038898
 31
0.0
  0
LINE
  5
307
330
1F
100
AcDbEntity
  8
0
  6
Continuous
 62
     7
100
AcDbLine
 10
9.159789023074052
 20
6.731996381738897
 30
0.0
 11
9.03451367807405
 21
6.804322499738898
 31
0.0
  0
LINE
  5
308
330
1F
100
AcDbEntity
  8
0
  6
Continuous
 62
     7
100
AcDbLine
 10
10.07161519697405
 20
5.345379615338898
 30
0.0
 11
10.07161519697405
 21
5.445433307338897
 31
0.0
  0
LINE
  5
309
330
1F
100
AcDbEntity
  8
0
  6
Continuous
 62
     7
100
AcDbLine
 10
10.66040441577405
 20
5.785368892138897
 30
0.0
 11
10.45996553277405
 21
5.669646139838897
 31
0.0
  0
LINE
  5
30A
330
1F
100
AcDbEntity
  8
0
  6
Continuous
 62
     7
100
AcDbLine
 10
10.36600980637405
 20
5.615401099738898
 30
0.0
 11
10.16557092337405
 21
5.499678347438898
 31
0.0
  0
LINE
  5
30B
330
1F
100
AcDbEntity
  8
0
  6
Continuous
 62
     7
100
AcDbLine
 10
10.07161519697405
 20
5.445433307338897
 30
0.0
 11
9.871176313974052
 21
5.329710555038898
 31
0.0
  0
LINE
  5
30C
330
1F
100
AcDbEntity
  8
0
  6
Continuous
 62
     7
100
AcDbLine
 10
9.871176313974052
 20
5.229656863038898
 30
0.0
 11
10.07161519697405
 21
5.345379615338898
 31
0.0
  0
LINE
  5
30D
330
1F
100
AcDbEntity
  8
0
  6
Continuous
 62
     7
100
AcDbLine
 10
10.16557092337405
 20
5.399624655538898
 30
0.0
 11
10.36600980637405
 21
5.515347407738898
 31
0.0
  0
LINE
  5
30E
330
1F
100
AcDbEntity
  8
0
  6
Continuous
 62
     7
100
AcDbLine
 10
10.45996553277405
 20
5.569592447938898
 30
0.0
 11
10.66040441577405
 21
5.685315200138897
 31
0.0
  0
LINE
  5
30F
330
1F
100
AcDbEntity
  8
0
  6
Continuous
 62
     7
100
AcDbLine
 10
9.03451367807405
 20
6.956945507338898
 30
0.0
 11
9.159789023074052
 21
6.884619389438896
 31
0.0
  0
LINE
  5
310
330
1F
100
AcDbEntity
  8
0
  6
Continuous
 62
     7
100
AcDbLine
 10
9.179266794874052
 20
6.919919783338898
 30
0.0
 11
9.053991449874052
 21
6.992245901238898
 31
0.0
  0
LINE
  5
311
330
1F
100
AcDbEntity
  8
0
  6
Continuous
 62
     7
100
AcDbLine
 10
9.635073650274053
 20
7.022573878638897
 30
0.0
 11
9.635065260774052
 21
7.022598043338898
 31
0.0
  0
LINE
  5
312
330
1F
100
AcDbEntity
  8
0
  6
Continuous
 62
     7
100
AcDbLine
 10
10.13901907957405
 20
6.900759602138898
 30
0.0
 11
10.13901907957405
 21
6.539119752038897
 31
0.0
  0
LINE
  5
313
330
1F
100
AcDbEntity
  8
0
  6
Continuous
 62
     7
100
AcDbLine
 10
10.16557092337405
 20
5.499678347438898
 30
0.0
 11
10.16557092337405
 21
5.399624655538898
 31
0.0
  0
LINE
  5
314
330
1F
100
AcDbEntity
  8
0
  6
Continuous
 62
     7
100
AcDbLine
 10
9.085669991674052
 20
4.663591918138898
 30
0.0
 11
9.106549215874053
 21
4.675646471838899
 31
0.0
  0
LINE
  5
315
330
1F
100
AcDbEntity
  8
0
  6
Continuous
 62
     7
100
AcDbLine
 10
8.82193859847405
 20
7.178985050338897
 30
0.0
 11
8.975625755274052
 21
7.090255736338898
 31
0.0
  0
LINE
  5
316
330
1F
100
AcDbEntity
  8
0
  6
Continuous
 62
     7
100
AcDbLine
 10
8.82193859847405
 20
7.258545817338896
 30
0.0
 11
8.975625755274052
 21
7.169816503338898
 31
0.0
  0
LINE
  5
317
330
1F
100
AcDbEntity
  8
0
  6
Continuous
 62
     7
100
AcDbLine
 10
10.73407696837405
 20
6.195570691838897
 30
0.0
 11
10.13901907957405
 21
6.539119752038897
 31
0.0
  0
LINE
  5
318
330
1F
100
AcDbEntity
  8
0
  6
Continuous
 62
     7
100
AcDbLine
 10
8.857423199774052
 20
7.279032739138897
 30
0.0
 11
8.606484025674051
 21
7.423909261338898
 31
0.0
  0
LWPOLYLINE
  5
319
330
1F
100
AcDbEntity
  8
0
  6
Continuous
 62
     7
100
AcDbPolyline
 90
        5
 70
     0
 43
0.0
 10
9.635660104974052
 20
7.021463324238897
 10
9.635532908474052
 20
7.021667982038897
 10
9.635260474474051
 20
7.022158781038898
 10
9.635122486874053
 20
7.022452159738897
 10
9.635073650274053
 20
7.022573878638897
  0
LINE
  5
31A
330
1F
100
AcDbEntity
  8
0
  6
Continuous
 62
     7
100
AcDbLine
 10
10.36600980637405
 20
5.515347407738898
 30
0.0
 11
10.36600980637405
 21
5.615401099738898
 31
0.0
  0
LINE
  5
31B
330
1F
100
AcDbEntity
  8
0
  6
Continuous
 62
     7
100
AcDbLine
 10
10.45996553277405
 20
5.669646139838897
 30
0.0
 11
10.45996553277405
 21
5.569592447938898
 31
0.0
  0
LINE
  5
31C
330
1F
100
AcDbEntity
  8
0
  6
Continuous
 62
     7
100
AcDbLine
 10
9.800783419474052
 20
4.804472041838899
 30
0.0
 11
10.73407696837405
 21
5.343306107138898
 31
0.0
  0
LINE
  5
31D
330
1F
100
AcDbEntity
  8
0
  6
Continuous
 62
     7
100
AcDbLine
 10
10.60880162337405
 20
5.270978784738898
 30
0.0
 11
10.60880162337405
 21
4.788789818238898
 31
0.0
  0
LINE
  5
31E
330
1F
100
AcDbEntity
  8
0
  6
Continuous
 62
     7
100
AcDbLine
 10
10.66040441577405
 20
5.685315200138897
 30
0.0
 11
10.66040441577405
 21
5.785368892138897
 31
0.0
  0
LINE
  5
31F
330
1F
100
AcDbEntity
  8
0
  6
Continuous
 62
     7
100
AcDbLine
 10
9.351448660874053
 20
7.355453308838898
 30
0.0
 11
9.510551585874052
 21
7.263597270338897
 31
0.0
  0
LINE
  5
320
330
1F
100
AcDbEntity
  8
0
  6
Continuous
 62
     7
100
AcDbLine
 10
9.773929990874053
 20
7.111539117338898
 30
0.0
 11
10.13901907957405
 21
6.900759602138898
 31
0.0
  0
LINE
  5
321
330
1F
100
AcDbEntity
  8
0
  6
Continuous
 62
     7
100
AcDbLine
 10
9.351448660874053
 20
7.386796663838897
 30
0.0
 11
9.197761504074051
 21
7.475525977838898
 31
0.0
  0
LINE
  5
322
330
1F
100
AcDbEntity
  8
0
  6
Continuous
 62
     7
100
AcDbLine
 10
9.621165310174053
 20
7.309677005738897
 30
0.0
 11
9.746440655174053
 21
7.237350887838897
 31
0.0
  0
LINE
  5
323
330
1F
100
AcDbEntity
  8
0
  6
Continuous
 62
     7
100
AcDbLine
 10
9.633890615874053
 20
7.310077834638898
 30
0.0
 11
9.759165960874053
 21
7.237751716638897
 31
0.0
  0
LINE
  5
324
330
1F
100
AcDbEntity
  8
0
  6
Continuous
 62
     7
100
AcDbLine
 10
10.73407696837405
 20
5.343306107138898
 30
0.0
 11
10.73407696837405
 21
6.195570691838897
 31
0.0
  0
LINE
  5
325
330
1F
100
AcDbEntity
  8
0
  6
Continuous
 62
     7
100
AcDbLine
 10
9.675508074474052
 20
4.249955752938897
 30
0.0
 11
10.60880162337405
 21
4.788789818238898
 31
0.0
  0
ARC
  5
326
330
1F
100
AcDbEntity
  8
0
  6
Continuous
 62
     7
100
AcDbCircle
 10
4.900425748477222
 20
4.749508365342378
 30
0.0
 40
0.0393700787
100
AcDbArc
 50
359.9956520844
 51
90.00000000860001
  0
ARC
  5
327
330
1F
100
AcDbEntity
  8
0
  6
Continuous
 62
     7
100
AcDbCircle
 10
5.156316254777221
 20
4.545412245742377
 30
0.0
 40
0.0393694432
100
AcDbArc
 50
0.0
 51
86.53867413879998
  0
ARC
  5
328
330
1F
100
AcDbEntity
  8
0
  6
Continuous
 62
     7
100
AcDbCircle
 10
4.979164965777222
 20
4.632276139442376
 30
0.0
 40
0.0393700749
100
AcDbArc
 50
180.0004329173
 51
268.2217300109999
  0
ARC
  5
329
330
1F
100
AcDbEntity
  8
0
  6
Continuous
 62
     7
100
AcDbCircle
 10
4.782315512277222
 20
-1.703247540157621
 30
0.0
 40
6.2992125985
100
AcDbArc
 50
86.57458061559998
 51
88.21534455309999
  0
ARC
  5
32A
330
1F
100
AcDbEntity
  8
0
  6
Continuous
 62
     7
100
AcDbCircle
 10
4.664205276077223
 20
4.749508365342378
 30
0.0
 40
0.0393700787
100
AcDbArc
 50
89.99999999139999
 51
180.0043479156
  0
ARC
  5
32B
330
1F
100
AcDbEntity
  8
0
  6
Continuous
 62
     7
100
AcDbCircle
 10
4.585466058777222
 20
4.632276139442376
 30
0.0
 40
0.0393700749
100
AcDbArc
 50
271.7782699891
 51
359.9995670827
  0
ARC
  5
32C
330
1F
100
AcDbEntity
  8
0
  6
Continuous
 62
     7
100
AcDbCircle
 10
4.408316470677222
 20
4.545412323142377
 30
0.0
 40
0.0393693712
100
AcDbArc
 50
93.46204884129999
 51
180.0
  0
ARC
  5
32D
330
1F
100
AcDbEntity
  8
0
  6
Continuous
 62
     7
100
AcDbCircle
 10
4.782315512277222
 20
-1.703247540157621
 30
0.0
 40
6.2992125985
100
AcDbArc
 50
91.78465544689997
 51
93.42536455219995
  0
ARC
  5
32E
330
1F
100
AcDbEntity
  8
0
  6
Continuous
 62
     7
100
AcDbCircle
 10
6.032315486677222
 20
6.478794695842378
 30
0.0
 40
0.0955364293
100
AcDbArc
 50
9.487682161799998
 51
170.5123178382
  0
ARC
  5
32F
330
1F
100
AcDbEntity
  8
0
  6
Continuous
 62
     7
100
AcDbCircle
 10
6.032315486677222
 20
6.478794695842378
 30
0.0
 40
0.1111511035
100
AcDbArc
 50
8.1460820067
 51
171.8554342502
  0
ARC
  5
330
330
1F
100
AcDbEntity
  8
0
  6
Continuous
 62
     7
100
AcDbCircle
 10
6.032315486677222
 20
6.478794695842378
 30
0.0
 40
0.0955364249
100
AcDbArc
 50
189.4876821618
 51
350.5123178382
  0
ARC
  5
331
330
1F
100
AcDbEntity
  8
0
  6
Continuous
 62
     7
100
AcDbCircle
 10
6.032315486677222
 20
6.478794695842378
 30
0.0
 40
0.1111511045
100
AcDbArc
 50
188.1445657498
 51
351.8539179933
  0
ARC
  5
332
330
1F
100
AcDbEntity
  8
0
  6
Continuous
 62
     7
100
AcDbCircle
 10
3.254756431877223
 20
6.478794695842378
 30
0.0
 40
0.0955364293
100
AcDbArc
 50
9.487682161799998
 51
170.5123178382
  0
ARC
  5
333
330
1F
100
AcDbEntity
  8
0
  6
Continuous
 62
     7
100
AcDbCircle
 10
3.254756431877223
 20
6.478794695842378
 30
0.0
 40
0.0955364249
100
AcDbArc
 50
189.4876821618
 51
350.5123178382
  0
ARC
  5
334
330
1F
100
AcDbEntity
  8
0
  6
Continuous
 62
     7
100
AcDbCircle
 10
3.254756431877223
 20
6.478794695842378
 30
0.0
 40
0.1111511045
100
AcDbArc
 50
188.1445657498
 51
351.8539179933
  0
ARC
  5
335
330
1F
100
AcDbEntity
  8
0
  6
Continuous
 62
     7
100
AcDbCircle
 10
3.254756431877223
 20
6.478794695842378
 30
0.0
 40
0.1111511035
100
AcDbArc
 50
8.1460820067
 51
171.8554342502
  0
ARC
  5
336
330
1F
100
AcDbEntity
  8
0
  6
Continuous
 62
     7
100
AcDbCircle
 10
6.032315486677222
 20
5.923676585642378
 30
0.0
 40
0.0955364293
100
AcDbArc
 50
9.487682161799998
 51
170.5123178382
  0
ARC
  5
337
330
1F
100
AcDbEntity
  8
0
  6
Continuous
 62
     7
100
AcDbCircle
 10
6.032315486677222
 20
5.923676585642378
 30
0.0
 40
0.0955364249
100
AcDbArc
 50
189.4876821618
 51
350.5123178382
  0
ARC
  5
338
330
1F
100
AcDbEntity
  8
0
  6
Continuous
 62
     7
100
AcDbCircle
 10
6.032315486677222
 20
5.923676585642378
 30
0.0
 40
0.1111511045
100
AcDbArc
 50
188.1445657498
 51
351.8539179933
  0
ARC
  5
339
330
1F
100
AcDbEntity
  8
0
  6
Continuous
 62
     7
100
AcDbCircle
 10
6.032315486677222
 20
5.923676585642378
 30
0.0
 40
0.1111511035
100
AcDbArc
 50
8.1460820067
 51
171.8554342502
  0
ARC
  5
33A
330
1F
100
AcDbEntity
  8
0
  6
Continuous
 62
     7
100
AcDbCircle
 10
6.032315486677222
 20
7.033912806042377
 30
0.0
 40
0.0955364293
100
AcDbArc
 50
9.487682161799998
 51
170.5123178382
  0
ARC
  5
33B
330
1F
100
AcDbEntity
  8
0
  6
Continuous
 62
     7
100
AcDbCircle
 10
6.032315486677222
 20
7.033912806042377
 30
0.0
 40
0.0955364249
100
AcDbArc
 50
189.4876821618
 51
350.5123178382
  0
ARC
  5
33C
330
1F
100
AcDbEntity
  8
0
  6
Continuous
 62
     7
100
AcDbCircle
 10
6.032315486677222
 20
7.033912806042377
 30
0.0
 40
0.1111511045
100
AcDbArc
 50
188.1445657498
 51
351.8539179933
  0
ARC
  5
33D
330
1F
100
AcDbEntity
  8
0
  6
Continuous
 62
     7
100
AcDbCircle
 10
6.032315486677222
 20
7.033912806042377
 30
0.0
 40
0.1111511035
100
AcDbArc
 50
8.1460820067
 51
171.8554342502
  0
ARC
  5
33E
330
1F
100
AcDbEntity
  8
0
  6
Continuous
 62
     7
100
AcDbCircle
 10
3.254756431877223
 20
7.033912806042377
 30
0.0
 40
0.0955364293
100
AcDbArc
 50
9.487682161799998
 51
170.5123178382
  0
ARC
  5
33F
330
1F
100
AcDbEntity
  8
0
  6
Continuous
 62
     7
100
AcDbCircle
 10
3.254756431877223
 20
7.033912806042377
 30
0.0
 40
0.1111511035
100
AcDbArc
 50
8.146082006799996
 51
171.8554342502
  0
ARC
  5
340
330
1F
100
AcDbEntity
  8
0
  6
Continuous
 62
     7
100
AcDbCircle
 10
3.254756431877223
 20
7.033912806042377
 30
0.0
 40
0.0955364249
100
AcDbArc
 50
189.4876821618
 51
350.5123178382
  0
ARC
  5
341
330
1F
100
AcDbEntity
  8
0
  6
Continuous
 62
     7
100
AcDbCircle
 10
3.254756431877223
 20
7.033912806042377
 30
0.0
 40
0.1111511045
100
AcDbArc
 50
188.1445657498
 51
351.8539179932001
  0
ARC
  5
342
330
1F
100
AcDbEntity
  8
0
  6
Continuous
 62
     7
100
AcDbCircle
 10
3.254756431877223
 20
5.923676585642378
 30
0.0
 40
0.0955364293
100
AcDbArc
 50
9.487682161799998
 51
170.5123178382
  0
ARC
  5
343
330
1F
100
AcDbEntity
  8
0
  6
Continuous
 62
     7
100
AcDbCircle
 10
3.254756431877223
 20
5.923676585642378
 30
0.0
 40
0.1111511035
100
AcDbArc
 50
8.146082006799996
 51
171.8554342502
  0
ARC
  5
344
330
1F
100
AcDbEntity
  8
0
  6
Continuous
 62
     7
100
AcDbCircle
 10
3.254756431877223
 20
5.923676585642378
 30
0.0
 40
0.0955364249
100
AcDbArc
 50
189.4876821618
 51
350.5123178382
  0
ARC
  5
345
330
1F
100
AcDbEntity
  8
0
  6
Continuous
 62
     7
100
AcDbCircle
 10
3.254756431877223
 20
5.923676585642378
 30
0.0
 40
0.1111511045
100
AcDbArc
 50
188.1445657498
 51
351.8539179932001
  0
ARC
  5
346
330
1F
100
AcDbEntity
  8
0
  6
Continuous
 62
     7
100
AcDbCircle
 10
4.900425748477222
 20
6.140212187342378
 30
0.0
 40
0.0393700787
100
AcDbArc
 50
270.0
 51
0.0
  0
ARC
  5
347
330
1F
100
AcDbEntity
  8
0
  6
Continuous
 62
     7
100
AcDbCircle
 10
4.900425748477222
 20
7.203204313342378
 30
0.0
 40
0.0393700787
100
AcDbArc
 50
0.0
 51
90.0
  0
ARC
  5
348
330
1F
100
AcDbEntity
  8
0
  6
Continuous
 62
     7
100
AcDbCircle
 10
4.782315512277222
 20
6.573283053442377
 30
0.0
 40
0.4133858268
100
AcDbArc
 50
293.3227174366
 51
66.6808864341
  0
ARC
  5
349
330
1F
100
AcDbEntity
  8
0
  6
Continuous
 62
     7
100
AcDbCircle
 10
4.664205276077223
 20
7.203204313342378
 30
0.0
 40
0.0393700787
100
AcDbArc
 50
90.0
 51
180.0
  0
ARC
  5
34A
330
1F
100
AcDbEntity
  8
0
  6
Continuous
 62
     7
100
AcDbCircle
 10
4.782315512277222
 20
6.573283053442377
 30
0.0
 40
0.4133684128000001
100
AcDbArc
 50
113.3152458185
 51
246.7029199273
  0
ARC
  5
34B
330
1F
100
AcDbEntity
  8
0
  6
Continuous
 62
     7
100
AcDbCircle
 10
4.664205276077223
 20
6.140212187342378
 30
0.0
 40
0.0393700787
100
AcDbArc
 50
180.0
 51
270.0
  0
ARC
  5
34C
330
1F
100
AcDbEntity
  8
0
  6
Continuous
 62
     7
100
AcDbCircle
 10
4.782315512277222
 20
6.573283053442377
 30
0.0
 40
0.37637005
100
AcDbArc
 50
121.3163261999
 51
238.6845080438
  0
ARC
  5
34D
330
1F
100
AcDbEntity
  8
0
  6
Continuous
 62
     7
100
AcDbCircle
 10
4.782315512277222
 20
6.573283053442377
 30
0.0
 40
0.3763662053
100
AcDbArc
 50
301.3185359363
 51
58.6797530868
  0
ARC
  5
34E
330
1F
100
AcDbEntity
  8
0
  6
Continuous
 62
     7
100
AcDbCircle
 10
0.3991718743
 20
4.718688148042376
 30
0.0
 40
0.0393700787
100
AcDbArc
 50
95.60216468770002
 51
180.0
  0
ARC
  5
34F
330
1F
100
AcDbEntity
  8
0
  6
Continuous
 62
     7
100
AcDbCircle
 10
1.0290931341
 20
-1.703247540157621
 30
0.0
 40
6.492125984299999
100
AcDbArc
 50
86.15175303059999
 51
95.60216468780001
  0
ARC
  5
350
330
1F
100
AcDbEntity
  8
0
  6
Continuous
 62
     7
100
AcDbCircle
 10
1.4621640002
 20
4.734959384242378
 30
0.0
 40
0.0393700787
100
AcDbArc
 50
0.0
 51
86.15175303059999
  0
ARC
  5
351
330
1F
100
AcDbEntity
  8
0
  6
Continuous
 62
     7
100
AcDbCircle
 10
1.0290931341
 20
-1.703247540157621
 30
0.0
 40
6.452753465199998
100
AcDbArc
 50
86.15175303059999
 51
95.60216468780001
  0
ARC
  5
352
330
1F
100
AcDbEntity
  8
0
  6
Continuous
 62
     7
100
AcDbCircle
 10
1.0290931341
 20
-1.704618770157621
 30
0.0
 40
6.2975439721
100
AcDbArc
 50
87.0735043936
 51
92.92649560639999
  0
SPLINE
  5
353
330
1F
100
AcDbEntity
  8
0
  6
Continuous
 62
     7
100
AcDbSpline
210
0.0
220
0.0
230
1.0
 70
     8
 71
     3
 72
    12
 73
     8
 74
     6
 42
0.0000000001
 43
0.0000000001
 44
0.0000000001
 12
0.9999999967860663
 22
0.0000801739821669
 32
0.0
 13
0.0
 23
-1.0
 33
0.0
 40
0.0
 40
0.0
 40
0.0
 40
0.0
 40
0.0123342003021286
 40
0.0246311798326873
 40
0.0369015592040222
 40
0.0491637245212783
 40
0.0614413787190179
 40
0.0614413787190179
 40
0.0614413787190179
 40
0.0614413787190179
 10
4.900425748477222
 20
4.757870183942378
 30
0.0
 10
4.904537148564718
 20
4.757870513569696
 30
0.0
 10
4.912805190209714
 20
4.756569090651847
 30
0.0
 10
4.923945704385289
 20
4.75091359988073
 30
0.0
 10
4.93279582593445
 20
4.742109804110403
 30
0.0
 10
4.938485946286679
 20
4.731018967300281
 30
0.0
 10
4.939795827277222
 20
4.722780699441623
 30
0.0
 10
4.939795827277222
 20
4.718688148042376
 30
0.0
 11
4.900425748477222
 21
4.757870183942378
 31
0.0
 11
4.912609071977222
 21
4.755946872842376
 31
0.0
 11
4.923574586777222
 21
4.750381516542376
 31
0.0
 11
4.932271717377222
 21
4.741725759542378
 31
0.0
 11
4.937863464477222
 21
4.730812782742376
 31
0.0
 11
4.939795827277222
 21
4.718688148042376
 31
0.0
  0
SPLINE
  5
354
330
1F
100
AcDbEntity
  8
0
  6
Continuous
 62
     7
100
AcDbSpline
210
0.0
220
0.0
230
1.0
 70
     8
 71
     3
 72
    12
 73
     8
 74
     6
 42
0.0000000001
 43
0.0000000001
 44
0.0000000001
 12
0.0
 22
1.0
 32
0.0
 13
-1.0
 23
0.0
 33
0.0
 40
0.0
 40
0.0
 40
0.0
 40
0.0
 40
0.0122895804601704
 40
0.0245843011067736
 40
0.0368916113105767
 40
0.049202837188615
 40
0.061518960282102
 40
0.061518960282102
 40
0.061518960282102
 40
0.061518960282102
 10
4.939795827277222
 20
4.734959384242378
 30
0.0
 10
4.939795827277222
 20
4.739055911062434
 30
0.0
 10
4.938489301283505
 20
4.747308638825263
 30
0.0
 10
4.93280356767593
 20
4.758432370057597
 30
0.0
 10
4.923945037300024
 20
4.767268970549149
 30
0.0
 10
4.912797880603275
 20
4.772938405055777
 30
0.0
 10
4.904531122841718
 20
4.774240695542378
 30
0.0
 10
4.900425748477222
 20
4.774240695542378
 30
0.0
 11
4.939795827277222
 21
4.734959384242378
 31
0.0
 11
4.937869232577222
 21
4.747097012542377
 31
0.0
 11
4.932277950977223
 21
4.758046794542377
 31
0.0
 11
4.923565586977222
 21
4.766739584542378
 31
0.0
 11
4.912590931677223
 21
4.772318403742377
 31
0.0
 11
4.900425748477222
 21
4.774240695542378
 31
0.0
  0
SPLINE
  5
355
330
1F
100
AcDbEntity
  8
0
  6
Continuous
 62
     7
100
AcDbSpline
210
0.0
220
0.0
230
1.0
 70
     8
 71
     3
 72
    11
 73
     7
 74
     5
 42
0.0000000001
 43
0.0000000001
 44
0.0000000001
 12
-0.9900459522190402
 22
-0.1407444936567477
 32
0.0
 13
-0.6100030103563215
 23
-0.7923990960092179
 33
0.0
 40
0.0
 40
0.0
 40
0.0
 40
0.0
 40
0.0080927265825723
 40
0.020925085985238
 40
0.0375268493557102
 40
0.0553250567080739
 40
0.0553250567080739
 40
0.0553250567080739
 40
0.0553250567080739
 10
4.977934191777222
 20
4.584712168942377
 30
0.0
 10
4.975263468045392
 20
4.584332500040654
 30
0.0
 10
4.969212208515683
 20
4.580100549894954
 30
0.0
 10
4.960509995005194
 20
4.571361820355614
 30
0.0
 10
4.950387494845214
 20
4.559185119456826
 30
0.0
 10
4.943408855465185
 20
4.550112658114575
 30
0.0
 10
4.939789868777222
 20
4.545411563642376
 30
0.0
 11
4.977934191777222
 21
4.584712168942377
 31
0.0
 11
4.970762168677222
 21
4.580963261342376
 31
0.0
 11
4.961482445077222
 21
4.572100069042376
 31
0.0
 11
4.950735610477222
 21
4.559446054142378
 31
0.0
 11
4.939789868777222
 21
4.545411563642376
 31
0.0
  0
SPLINE
  5
356
330
1F
100
AcDbEntity
  8
0
  6
Continuous
 62
     7
100
AcDbSpline
210
0.0
220
0.0
230
1.0
 70
     8
 71
     3
 72
    11
 73
     7
 74
     5
 42
0.0000000001
 43
0.0000000001
 44
0.0000000001
 12
0.6106057989419585
 22
0.7919346932029514
 32
0.0
 13
0.9899342826838552
 23
0.1415277922077544
 33
0.0
 40
0.0
 40
0.0
 40
0.0
 40
0.0
 40
0.0178353328238534
 40
0.0344250203527738
 40
0.0472404309711274
 40
0.055323503415873
 40
0.055323503415873
 40
0.055323503415873
 40
0.055323503415873
 10
4.939789868777222
 20
4.545412245742377
 30
0.0
 10
4.943419987993324
 20
4.55012038535172
 30
0.0
 10
4.950406264705774
 20
4.559197135016209
 30
0.0
 10
4.960520428729985
 20
4.57138468577024
 30
0.0
 10
4.969225073884741
 20
4.580104210934602
 30
0.0
 10
4.975266897036398
 20
4.584330134376591
 30
0.0
 10
4.977934133877222
 20
4.584711460842378
 30
0.0
 11
4.939789868777222
 21
4.545412245742377
 31
0.0
 11
4.950762161177222
 21
4.559473109742378
 31
0.0
 11
4.961497883277222
 21
4.572120718342378
 31
0.0
 11
4.970771118377222
 21
4.580966161242376
 31
0.0
 11
4.977934133877222
 21
4.584711460842378
 31
0.0
  0
SPLINE
  5
357
330
1F
100
AcDbEntity
  8
0
  6
Continuous
 62
     7
100
AcDbSpline
210
0.0
220
0.0
230
1.0
 70
     8
 71
     3
 72
    12
 73
     8
 74
     6
 42
0.0000000001
 43
0.0000000001
 44
0.0000000001
 12
-0.9995181957012183
 22
0.031038306367794
 32
0.0
 13
-0.0000053862377984
 23
0.9999999999854942
 33
0.0
 40
0.0
 40
0.0
 40
0.0
 40
0.0
 40
0.0120919450428063
 40
0.0241555847591078
 40
0.0362059573350331
 40
0.0482610028476652
 40
0.0603389623087217
 40
0.0603389623087217
 40
0.0603389623087217
 40
0.0603389623087217
 10
4.977943248077222
 20
4.584711549542378
 30
0.0
 10
4.973914541713321
 20
4.584836654040651
 30
0.0
 10
4.965850875573684
 20
4.586342340170302
 30
0.0
 10
4.955058206315275
 20
4.592140764575839
 30
0.0
 10
4.946524351848349
 20
4.600931133062126
 30
0.0
 10
4.941054047581743
 20
4.611885899905242
 30
0.0
 10
4.939796769862143
 20
4.619985062455418
 30
0.0
 10
4.939796748177222
 20
4.624011048942378
 30
0.0
 11
4.977943248077222
 21
4.584711549542378
 31
0.0
 11
4.966057708677222
 21
4.586936204142378
 31
0.0
 11
4.955429320077222
 21
4.592643108642376
 31
0.0
 11
4.947036054477222
 21
4.601289759542376
 31
0.0
 11
4.941654181477223
 21
4.612076768642378
 31
0.0
 11
4.939796748177222
 21
4.624011048942378
 31
0.0
  0
SPLINE
  5
358
330
1F
100
AcDbEntity
  8
0
  6
Continuous
 62
     7
100
AcDbSpline
210
0.0
220
0.0
230
1.0
 70
     8
 71
     3
 72
    15
 73
    11
 74
     9
 42
0.0000000001
 43
0.0000000001
 44
0.0000000001
 12
-0.9995179552502996
 22
0.031046048577236
 32
0.0
 13
-0.0000033397274565
 23
0.9999999999944233
 33
0.0
 40
0.0
 40
0.0
 40
0.0
 40
0.0
 40
0.0070757660235519
 40
0.0145576007196417
 40
0.0223359891810383
 40
0.0302702892360362
 40
0.0382021922806436
 40
0.0459739132731604
 40
0.0534461667633939
 40
0.0604839773541322
 40
0.0604839773541322
 40
0.0604839773541322
 40
0.0604839773541322
 10
4.977942026177222
 20
4.584711306142376
 30
0.0
 10
4.975584574447992
 20
4.584784531000939
 30
0.0
 10
4.970737019534867
 20
4.585373041650878
 30
0.0
 10
4.963596066513156
 20
4.587628180416335
 30
0.0
 10
4.956765292212644
 20
4.591357795262042
 30
0.0
 10
4.950694497532887
 20
4.596467994950071
 30
0.0
 10
4.945773555743219
 20
4.602690408105337
 30
0.0
 10
4.942258558101347
 20
4.609627196999688
 30
0.0
 10
4.940231485397032
 20
4.616817558823734
 30
0.0
 10
4.939795835112012
 20
4.62166510417881
 30
0.0
 10
4.939795827277222
 20
4.624011041042376
 30
0.0
 11
4.977942026177222
 21
4.584711306142376
 31
0.0
 11
4.970917927277223
 21
4.585564827942376
 31
0.0
 11
4.963783340277222
 21
4.587817719142377
 31
0.0
 11
4.956956558777222
 21
4.591545772442377
 31
0.0
 11
4.950886603577222
 21
4.596655445742377
 31
0.0
 11
4.945966625977223
 21
4.602877093942376
 31
0.0
 11
4.942453611877223
 21
4.609809509042378
 31
0.0
 11
4.940426498777222
 21
4.617001545242378
 31
0.0
 11
4.939795827277222
 21
4.624011041042376
 31
0.0
  0
SPLINE
  5
359
330
1F
100
AcDbEntity
  8
0
  6
Continuous
 62
     7
100
AcDbSpline
210
0.0
220
0.0
230
1.0
 70
     8
 71
     3
 72
    12
 73
     8
 74
     6
 42
0.0000000001
 43
0.0000000001
 44
0.0000000001
 12
0.0
 22
1.0
 32
0.0
 13
1.0
 23
0.0
 33
0.0
 40
0.0
 40
0.0
 40
0.0
 40
0.0
 40
0.012259286843383
 40
0.0245293673808872
 40
0.0368211740828784
 40
0.0491260142492576
 40
0.0614413781573162
 40
0.0614413781573162
 40
0.0614413781573162
 40
0.0614413781573162
 10
4.624835197377223
 20
4.718688148042376
 30
0.0
 10
4.624835197377223
 20
4.722774576990171
 30
0.0
 10
4.626142470981095
 20
4.731009100029204
 30
0.0
 10
4.631830227548433
 20
4.742105702093164
 30
0.0
 10
4.64068988156603
 20
4.750918819426751
 30
0.0
 10
4.651836031261847
 20
4.756571917798028
 30
0.0
 10
4.660100154774537
 20
4.757870183942378
 30
0.0
 10
4.664205276077223
 20
4.757870183942378
 30
0.0
 11
4.624835197377223
 21
4.718688148042376
 31
0.0
 11
4.626761792577222
 21
4.730795102442376
 31
0.0
 11
4.632353074277222
 21
4.741717210542376
 31
0.0
 11
4.641065441577223
 21
4.750388033342376
 31
0.0
 11
4.652040094677222
 21
4.755952750842378
 31
0.0
 11
4.664205276077223
 21
4.757870183942378
 31
0.0
  0
SPLINE
  5
35A
330
1F
100
AcDbEntity
  8
0
  6
Continuous
 62
     7
100
AcDbSpline
210
0.0
220
0.0
230
1.0
 70
     8
 71
     3
 72
    12
 73
     8
 74
     6
 42
0.0000000001
 43
0.0000000001
 44
0.0000000001
 12
-0.000011796739558
 22
-0.9999999999304186
 32
0.0
 13
-0.9995181895990882
 23
-0.0310385028724209
 33
0.0
 40
0.0
 40
0.0
 40
0.0
 40
0.0
 40
0.012077091264456
 40
0.0241317752428278
 40
0.0361820950422582
 40
0.0482460435821718
 40
0.0603387060003286
 40
0.0603387060003286
 40
0.0603387060003286
 40
0.0603387060003286
 10
4.624834276477223
 20
4.624010797242378
 30
0.0
 10
4.624834228987123
 20
4.619985100154505
 30
0.0
 10
4.623577057317152
 20
4.61188636733277
 30
0.0
 10
4.618107178907041
 20
4.600931884077803
 30
0.0
 10
4.609573578359508
 20
4.592141321525961
 30
0.0
 10
4.598780742963033
 20
4.586342491571503
 30
0.0
 10
4.590716729626432
 20
4.584836662454778
 30
0.0
 10
4.586687784277223
 20
4.584711549742378
 30
0.0
 11
4.624834276477223
 21
4.624010797242378
 31
0.0
 11
4.622977033677222
 21
4.612077365942377
 31
0.0
 11
4.617595544377222
 21
4.601290569442377
 31
0.0
 11
4.609202539577222
 21
4.592643738942378
 31
0.0
 11
4.598574007877222
 21
4.586936448142377
 31
0.0
 11
4.586687784277223
 21
4.584711549742378
 31
0.0
  0
SPLINE
  5
35B
330
1F
100
AcDbEntity
  8
0
  6
Continuous
 62
     7
100
AcDbSpline
210
0.0
220
0.0
230
1.0
 70
     8
 71
     3
 72
    15
 73
    11
 74
     9
 42
0.0000000001
 43
0.0000000001
 44
0.0000000001
 12
-0.000005363329117
 22
-0.9999999999856173
 32
0.0
 13
-0.9995186463636484
 23
-0.0310237904096229
 33
0.0
 40
0.0
 40
0.0
 40
0.0
 40
0.0
 40
0.0070221895741883
 40
0.0144961197591168
 40
0.0222699458831652
 40
0.0302042935675942
 40
0.0381412398999483
 40
0.0459223145761467
 40
0.0534067201804229
 40
0.060484820681474
 40
0.060484820681474
 40
0.060484820681474
 40
0.060484820681474
 10
4.624835197177222
 20
4.624011045142377
 30
0.0
 10
4.624835184623117
 20
4.621670315284347
 30
0.0
 10
4.624400941872911
 20
4.616827492778068
 30
0.0
 10
4.622377651858955
 20
4.609640140646945
 30
0.0
 10
4.618863980004714
 20
4.602700314902208
 30
0.0
 10
4.613943201752007
 20
4.596474648554481
 30
0.0
 10
4.607871430768035
 20
4.591361500256753
 30
0.0
 10
4.601038808096525
 20
4.587629662644511
 30
0.0
 10
4.593895556901602
 20
4.585373249484824
 30
0.0
 10
4.589046352821101
 20
4.584784502644524
 30
0.0
 10
4.586688121677222
 20
4.584711306142376
 30
0.0
 11
4.624835197177222
 21
4.624011045142377
 31
0.0
 11
4.624207321577222
 21
4.617016982042378
 31
0.0
 11
4.622182469677222
 21
4.609822567042376
 31
0.0
 11
4.618670784377222
 21
4.602887119042376
 31
0.0
 11
4.613750972977222
 21
4.596662223142376
 31
0.0
 11
4.607680041477222
 21
4.591549600742377
 31
0.0
 11
4.600851412877222
 21
4.587819325342378
 31
0.0
 11
4.593714531677222
 21
4.585565161642376
 31
0.0
 11
4.586688121677222
 21
4.584711306142376
 31
0.0
  0
SPLINE
  5
35C
330
1F
100
AcDbEntity
  8
0
  6
Continuous
 62
     7
100
AcDbSpline
210
0.0
220
0.0
230
1.0
 70
     8
 71
     3
 72
    11
 73
     7
 74
     5
 42
0.0000000001
 43
0.0000000001
 44
0.0000000001
 12
0.9898558464340434
 22
-0.1420753436749101
 32
0.0
 13
0.6098612003542574
 23
-0.7925082436810765
 33
0.0
 40
0.0
 40
0.0
 40
0.0
 40
0.0
 40
0.0080944543710329
 40
0.0209305562155269
 40
0.0375350898015622
 40
0.0553221707300391
 40
0.0553221707300391
 40
0.0553221707300391
 40
0.0553221707300391
 10
4.586697462677222
 20
4.584710813642376
 30
0.0
 10
4.589368243671509
 20
4.584327472846835
 30
0.0
 10
4.595417619001244
 20
4.580092273477545
 30
0.0
 10
4.604123332526505
 20
4.571352569734995
 30
0.0
 10
4.614248783592445
 20
4.559180595248362
 30
0.0
 10
4.62122594776861
 20
4.55011036639799
 30
0.0
 10
4.624841831277223
 20
4.545411563642376
 30
0.0
 11
4.586697462677222
 21
4.584710813642376
 31
0.0
 11
4.593868482677222
 21
4.580956261242377
 31
0.0
 11
4.603151142677222
 21
4.572090724942377
 31
0.0
 11
4.613902877177222
 21
4.559437237642376
 31
0.0
 11
4.624841831277223
 21
4.545411563642376
 31
0.0
  0
SPLINE
  5
35D
330
1F
100
AcDbEntity
  8
0
  6
Continuous
 62
     7
100
AcDbSpline
210
0.0
220
0.0
230
1.0
 70
     8
 71
     3
 72
    11
 73
     7
 74
     5
 42
0.0000000001
 43
0.0000000001
 44
0.0000000001
 12
-0.6105879633404136
 22
0.7919484446754132
 32
0.0
 13
-0.9899016168977695
 23
0.1417560893336925
 33
0.0
 40
0.0
 40
0.0
 40
0.0
 40
0.0
 40
0.0178310532697088
 40
0.0344186811762771
 40
0.0472395317918692
 40
0.0553152794961251
 40
0.0553152794961251
 40
0.0553152794961251
 40
0.0553152794961251
 10
4.624841831277223
 20
4.545412323142377
 30
0.0
 10
4.6212126891105
 20
4.550119414777
 30
0.0
 10
4.614227684458274
 20
4.559194350291743
 30
0.0
 10
4.604115924834112
 20
4.571383924184589
 30
0.0
 10
4.595411148329569
 20
4.580100643321822
 30
0.0
 10
4.58937233588059
 20
4.584329847871377
 30
0.0
 10
4.586707603977223
 20
4.584711443342378
 30
0.0
 11
4.624841831277223
 21
4.545412323142377
 31
0.0
 11
4.613872704877223
 21
4.559470229342378
 31
0.0
 11
4.603139614377222
 21
4.572117370042376
 31
0.0
 11
4.593862735177222
 21
4.580966874142378
 31
0.0
 11
4.586707603977223
 21
4.584711443342378
 31
0.0
  0
SPLINE
  5
35E
330
1F
100
AcDbEntity
  8
0
  6
Continuous
 62
     7
100
AcDbSpline
210
0.0
220
0.0
230
1.0
 70
     8
 71
     3
 72
    12
 73
     8
 74
     6
 42
0.0000000001
 43
0.0000000001
 44
0.0000000001
 12
-0.9999999993009904
 22
0.0000373900990178
 32
0.0
 13
0.0
 23
-1.0
 33
0.0
 40
0.0
 40
0.0
 40
0.0
 40
0.0
 40
0.0123349610504131
 40
0.0246380100535612
 40
0.0369235555120559
 40
0.0492103441921315
 40
0.0615189598355434
 40
0.0615189598355434
 40
0.0615189598355434
 40
0.0615189598355434
 10
4.664205276077223
 20
4.774240695542378
 30
0.0
 10
4.660093622396626
 20
4.774240849277516
 30
0.0
 10
4.651823050167996
 20
4.772935671228178
 30
0.0
 10
4.640681721779506
 20
4.767263889813336
 30
0.0
 10
4.631832772663859
 20
4.758436927944825
 30
0.0
 10
4.62614443695489
 20
4.747318952180699
 30
0.0
 10
4.624835197377223
 20
4.739062256123515
 30
0.0
 10
4.624835197377223
 20
4.734959384242378
 30
0.0
 11
4.664205276077223
 21
4.774240695542378
 31
0.0
 11
4.652021952077222
 21
4.772312514942377
 31
0.0
 11
4.641056698977222
 21
4.766733246242377
 31
0.0
 11
4.632359688477222
 21
4.758055882842378
 31
0.0
 11
4.626767760177222
 21
4.747115338342378
 31
0.0
 11
4.624835197377223
 21
4.734959384242378
 31
0.0
  0
SPLINE
  5
35F
330
1F
100
AcDbEntity
  8
0
  6
Continuous
 62
     7
100
AcDbSpline
210
0.0
220
0.0
230
1.0
 70
     8
 71
     3
 72
    10
 73
     6
 74
     4
 42
0.0000000001
 43
0.0000000001
 44
0.0000000001
 12
-0.1317449962546641
 22
0.9912836405196337
 32
0.0
 13
-0.1318333133988075
 23
0.9912718988644295
 33
0.0
 40
0.0
 40
0.0
 40
0.0
 40
0.0
 40
0.0099600565041076
 40
0.0199184432909698
 40
0.0298751605707608
 40
0.0298751605707608
 40
0.0298751605707608
 40
0.0298751605707608
 10
3.368723505377222
 20
3.297736711942377
 30
0.0
 10
3.368286109508279
 20
3.301027792299434
 30
0.0
 10
3.367411292954649
 20
3.307609388249497
 30
0.0
 10
3.366098897125016
 20
3.31748091731044
 30
0.0
 10
3.365223849920413
 20
3.324061359727579
 30
0.0
 10
3.364786307577223
 20
3.327351297742378
 30
0.0
 11
3.368723505377222
 21
3.297736711942377
 31
0.0
 11
3.367411172777222
 21
3.307609933742376
 31
0.0
 11
3.366098776277223
 21
3.317481462642377
 31
0.0
 11
3.364786307577223
 21
3.327351297742378
 31
0.0
  0
SPLINE
  5
360
330
1F
100
AcDbEntity
  8
0
  6
Continuous
 62
     7
100
AcDbSpline
210
0.0
220
0.0
230
1.0
 70
     8
 71
     3
 72
    10
 73
     6
 74
     4
 42
0.0000000001
 43
0.0000000001
 44
0.0000000001
 12
-0.1318333133988075
 22
-0.9912718988644295
 32
0.0
 13
-0.1317449962546641
 23
-0.9912836405196337
 33
0.0
 40
0.0
 40
0.0
 40
0.0
 40
0.0
 40
0.0099589498621735
 40
0.0199173367349856
 40
0.0298751605707618
 40
0.0298751605707618
 40
0.0298751605707618
 40
0.0298751605707618
 10
3.144726556277223
 20
3.327351297742378
 30
0.0
 10
3.144288915824455
 20
3.324060622028853
 30
0.0
 10
3.143413770463465
 20
3.317479441890308
 30
0.0
 10
3.142101374810821
 20
3.307607912805833
 30
0.0
 10
3.141226656298539
 20
3.30102705456357
 30
0.0
 10
3.140789358477222
 20
3.297736711942377
 30
0.0
 11
3.144726556277223
 21
3.327351297742378
 31
0.0
 11
3.143413793277223
 21
3.317479249542378
 31
0.0
 11
3.142101396877223
 21
3.307607720542377
 31
0.0
 11
3.140789358477222
 21
3.297736711942377
 31
0.0
  0
SPLINE
  5
361
330
1F
100
AcDbEntity
  8
0
  6
Continuous
 62
     7
100
AcDbSpline
210
0.0
220
0.0
230
1.0
 70
     8
 71
     3
 72
    14
 73
    10
 74
     8
 42
0.0000000001
 43
0.0000000001
 44
0.0000000001
 12
-0.1318317878569492
 22
0.9912721017513003
 32
0.0
 13
-0.9999999998776843
 23
0.0000156407020537
 33
0.0
 40
0.0
 40
0.0
 40
0.0
 40
0.0
 40
0.0032812327017923
 40
0.0065013204587687
 40
0.0097134565033573
 40
0.0129577001793272
 40
0.0162279110871794
 40
0.0194965097145978
 40
0.0227930944700243
 40
0.0227930944700243
 40
0.0227930944700243
 40
0.0227930944700243
 10
3.364786307577223
 20
3.327351297742378
 30
0.0
 10
3.364642117319406
 20
3.328435495887924
 30
0.0
 10
3.364132366242453
 20
3.330561031552121
 30
0.0
 10
3.362732082805136
 20
3.333504787958916
 30
0.0
 10
3.360765992025619
 20
3.336090959972208
 30
0.0
 10
3.358297482441025
 20
3.338228497611361
 30
0.0
 10
3.355427851288979
 20
3.339825320265958
 30
0.0
 10
3.352281299388099
 20
3.340818903339132
 30
0.0
 10
3.35008626406223
 20
3.34104378145541
 30
0.0
 10
3.348987402477223
 20
3.341043798642376
 30
0.0
 11
3.364786307577223
 21
3.327351297742378
 31
0.0
 11
3.364018683977223
 21
3.330541476742376
 31
0.0
 11
3.362635788477223
 21
3.333449494142378
 31
0.0
 11
3.360691641477222
 21
3.336006467042378
 31
0.0
 11
3.358240194577223
 21
3.338131443542378
 31
0.0
 11
3.355383882777223
 21
3.339723851242377
 31
0.0
 11
3.352266780777223
 21
3.340707422342378
 31
0.0
 11
3.348987402477223
 21
3.341043798642376
 31
0.0
  0
SPLINE
  5
362
330
1F
100
AcDbEntity
  8
0
  6
Continuous
 62
     7
100
AcDbSpline
210
0.0
220
0.0
230
1.0
 70
     8
 71
     3
 72
    14
 73
    10
 74
     8
 42
0.0000000001
 43
0.0000000001
 44
0.0000000001
 12
-0.9999999372645296
 22
0.0003542187703203
 32
0.0
 13
-0.1318891433922231
 23
-0.9912644722047016
 33
0.0
 40
0.0
 40
0.0
 40
0.0
 40
0.0
 40
0.0033527981932604
 40
0.0066262786085847
 40
0.0098743742174822
 40
0.0131260767804375
 40
0.0163675845705219
 40
0.0195846382986308
 40
0.0227938230946927
 40
0.0227938230946927
 40
0.0227938230946927
 40
0.0227938230946927
 10
3.160525461377223
 20
3.341043798642376
 30
0.0
 10
3.159407862049583
 20
3.341044194517061
 30
0.0
 10
3.157192063966361
 20
3.340817209791578
 30
0.0
 10
3.154034246478381
 20
3.339814463455054
 30
0.0
 10
3.151173763430483
 20
3.338207297206721
 30
0.0
 10
3.148713404293245
 20
3.336052438496587
 30
0.0
 10
3.146756037142386
 20
3.333445674715282
 30
0.0
 10
3.145371663500228
 20
3.330512128599152
 30
0.0
 10
3.144867641821803
 20
3.328411681366736
 30
0.0
 10
3.144726556277223
 20
3.327351297742378
 30
0.0
 11
3.160525461377223
 21
3.341043798642376
 31
0.0
 11
3.157190302577223
 21
3.340700328842376
 31
0.0
 11
3.154070681677223
 21
3.339708542842378
 31
0.0
 11
3.151239930577223
 21
3.338115754942377
 31
0.0
 11
3.148793865977222
 21
3.335973247642376
 31
0.0
 11
3.146846088977222
 21
3.333382198142377
 31
0.0
 11
3.145474837677223
 21
3.330472025542377
 31
0.0
 11
3.144726556277223
 21
3.327351297742378
 31
0.0
  0
SPLINE
  5
363
330
1F
100
AcDbEntity
  8
0
  6
Continuous
 62
     7
100
AcDbSpline
210
0.0
220
0.0
230
1.0
 70
     8
 71
     3
 72
    10
 73
     6
 74
     4
 42
0.0000000001
 43
0.0000000001
 44
0.0000000001
 12
-0.1317449962546641
 22
0.9912836405196337
 32
0.0
 13
-0.1318333133988075
 23
0.9912718988644295
 33
0.0
 40
0.0
 40
0.0
 40
0.0
 40
0.0
 40
0.0099600565172834
 40
0.0199184432909669
 40
0.0298751605707579
 40
0.0298751605707579
 40
0.0298751605707579
 40
0.0298751605707579
 10
6.146282560177222
 20
3.297736711942377
 30
0.0
 10
6.1458451643077
 20
3.301027792303788
 30
0.0
 10
6.144970347570646
 20
3.307609388229468
 30
0.0
 10
6.143657951976831
 20
3.317480917321759
 30
0.0
 10
6.142782904720412
 20
3.324061359727579
 30
0.0
 10
6.142345362377223
 20
3.327351297742378
 30
0.0
 11
6.146282560177222
 21
3.297736711942377
 31
0.0
 11
6.144970227477223
 21
3.307609933742376
 31
0.0
 11
6.143657831077223
 21
3.317481462642377
 31
0.0
 11
6.142345362377223
 21
3.327351297742378
 31
0.0
  0
SPLINE
  5
364
330
1F
100
AcDbEntity
  8
0
  6
Continuous
 62
     7
100
AcDbSpline
210
0.0
220
0.0
230
1.0
 70
     8
 71
     3
 72
    10
 73
     6
 74
     4
 42
0.0000000001
 43
0.0000000001
 44
0.0000000001
 12
-0.1318333133988075
 22
-0.9912718988644295
 32
0.0
 13
-0.1317449962546641
 23
-0.9912836405196337
 33
0.0
 40
0.0
 40
0.0
 40
0.0
 40
0.0
 40
0.0099589498489919
 40
0.0199173367218039
 40
0.029875160570756
 40
0.029875160570756
 40
0.029875160570756
 40
0.029875160570756
 10
5.922285610977223
 20
3.327351297742378
 30
0.0
 10
5.921847970525035
 20
3.324060622033209
 30
0.0
 10
5.920972825295633
 20
3.317479441881598
 30
0.0
 10
5.919660429642999
 20
3.307607912797126
 30
0.0
 10
5.918785710999117
 20
3.301027054567924
 30
0.0
 10
5.918348413177223
 20
3.297736711942377
 30
0.0
 11
5.922285610977223
 21
3.327351297742378
 31
0.0
 11
5.920972848077221
 21
3.317479249542378
 31
0.0
 11
5.919660451677222
 21
3.307607720542377
 31
0.0
 11
5.918348413177223
 21
3.297736711942377
 31
0.0
  0
SPLINE
  5
365
330
1F
100
AcDbEntity
  8
0
  6
Continuous
 62
     7
100
AcDbSpline
210
0.0
220
0.0
230
1.0
 70
     8
 71
     3
 72
    14
 73
    10
 74
     8
 42
0.0000000001
 43
0.0000000001
 44
0.0000000001
 12
-0.1318317878569492
 22
0.9912721017513003
 32
0.0
 13
-0.9999999998776843
 23
0.0000156407020537
 33
0.0
 40
0.0
 40
0.0
 40
0.0
 40
0.0
 40
0.0032812327251863
 40
0.0065013204821631
 40
0.0097134565267515
 40
0.0129577002027224
 40
0.0162279110232309
 40
0.01949650965065
 40
0.0227930944060761
 40
0.0227930944060761
 40
0.0227930944060761
 40
0.0227930944060761
 10
6.142345362377223
 20
3.327351297742378
 30
0.0
 10
6.142201172118377
 20
3.328435495895655
 30
0.0
 10
6.14169142090261
 20
3.330561031534839
 30
0.0
 10
6.140291137516092
 20
3.33350478796071
 30
0.0
 10
6.138325046724517
 20
3.336090959975121
 30
0.0
 10
6.135856537156429
 20
3.338228497578495
 30
0.0
 10
6.132986906070349
 20
3.339825320292078
 30
0.0
 10
6.129840354185414
 20
3.340818903334146
 30
0.0
 10
6.12764531886223
 20
3.34104378145541
 30
0.0
 10
6.126546457277222
 20
3.341043798642376
 30
0.0
 11
6.142345362377223
 21
3.327351297742378
 31
0.0
 11
6.141577738677224
 21
3.330541476742376
 31
0.0
 11
6.140194843177223
 21
3.333449494142378
 31
0.0
 11
6.138250696177223
 21
3.336006467042378
 31
0.0
 11
6.135799249277222
 21
3.338131443542378
 31
0.0
 11
6.132942937577222
 21
3.339723851242377
 31
0.0
 11
6.129825835577221
 21
3.340707422342378
 31
0.0
 11
6.126546457277222
 21
3.341043798642376
 31
0.0
  0
SPLINE
  5
366
330
1F
100
AcDbEntity
  8
0
  6
Continuous
 62
     7
100
AcDbSpline
210
0.0
220
0.0
230
1.0
 70
     8
 71
     3
 72
    14
 73
    10
 74
     8
 42
0.0000000001
 43
0.0000000001
 44
0.0000000001
 12
-0.9999999372645296
 22
0.0003542187703203
 32
0.0
 13
-0.1318891433922231
 23
-0.9912644722047016
 33
0.0
 40
0.0
 40
0.0
 40
0.0
 40
0.0
 40
0.0033527980937861
 40
0.0066262786044089
 40
0.0098743742133084
 40
0.0131260767010385
 40
0.0163675844911224
 40
0.0195846382618563
 40
0.0227938230579182
 40
0.0227938230579182
 40
0.0227938230579182
 40
0.0227938230579182
 10
5.938084516077222
 20
3.341043798642376
 30
0.0
 10
5.93696691678274
 20
3.341044194517049
 30
0.0
 10
5.934751118705921
 20
3.340817209762792
 30
0.0
 10
5.931593301207538
 20
3.339814463475322
 30
0.0
 10
5.928732818138611
 20
3.338207297234887
 30
0.0
 10
5.92627245908406
 20
3.336052438464184
 30
0.0
 10
5.924315091961509
 20
3.333445674693227
 30
0.0
 10
5.922930718173598
 20
3.330512128626553
 30
0.0
 10
5.922426696521802
 20
3.328411681366736
 30
0.0
 10
5.922285610977223
 20
3.327351297742378
 30
0.0
 11
5.938084516077222
 21
3.341043798642376
 31
0.0
 11
5.934749357377222
 21
3.340700328842376
 31
0.0
 11
5.931629736377224
 21
3.339708542842378
 31
0.0
 11
5.928798985277222
 21
3.338115754942377
 31
0.0
 11
5.926352920777222
 21
3.335973247642376
 31
0.0
 11
5.924405143777224
 21
3.333382198142377
 31
0.0
 11
5.923033892377222
 21
3.330472025542377
 31
0.0
 11
5.922285610977223
 21
3.327351297742378
 31
0.0
  0
SPLINE
  5
367
330
1F
100
AcDbEntity
  8
0
  6
Continuous
 62
     7
100
AcDbSpline
210
0.0
220
0.0
230
1.0
 70
     8
 71
     3
 72
    31
 73
    27
 74
    25
 42
0.0000000001
 43
0.0000000001
 44
0.0000000001
 12
0.0
 22
-1.0
 32
0.0
 13
0.0
 23
1.0
 33
0.0
 40
0.0
 40
0.0
 40
0.0
 40
0.0
 40
0.020717629550772
 40
0.0432200989374727
 40
0.0673185399606931
 40
0.0926751257895584
 40
0.1188110966607973
 40
0.1451494134578683
 40
0.1710861059926278
 40
0.1960700835334544
 40
0.2080778234085519
 40
0.2196942367069939
 40
0.2308882091341481
 40
0.241637915380383
 40
0.2468428974719417
 40
0.2519323802168519
 40
0.2544337755096286
 40
0.2569190466253015
 40
0.2619699028931096
 40
0.2671364647603543
 40
0.2724179651137984
 40
0.283317638447069
 40
0.3063802547877434
 40
0.3309430602060227
 40
0.3566187017908358
 40
0.3828892247256573
 40
0.3828892247256573
 40
0.3828892247256573
 40
0.3828892247256573
 10
6.154362730777223
 20
6.478794695842378
 30
0.0
 10
6.154362730777223
 20
6.471888819325454
 30
0.0
 10
6.153134432415395
 20
6.457453423412016
 30
0.0
 10
6.147283951826501
 20
6.43566245710242
 30
0.0
 10
6.136707766899579
 20
6.413957912957867
 30
0.0
 10
6.121218968303823
 20
6.393852685971237
 30
0.0
 10
6.101274471309057
 20
6.37694972595761
 30
0.0
 10
6.078001592730098
 20
6.364608101628059
 30
0.0
 10
6.053018356180883
 20
6.357610257100645
 30
0.0
 10
6.031925227954279
 20
6.356260444056634
 30
0.0
 10
6.01576371104148
 20
6.357682635291348
 30
0.0
 10
6.004336370355475
 20
6.359814977050186
 30
0.0
 10
5.993564591331846
 20
6.362889066923063
 30
0.0
 10
5.985108730506323
 20
6.36614862060019
 30
0.0
 10
5.97874075445139
 20
6.369094597718069
 30
0.0
 10
5.974947329594581
 20
6.371047706879464
 30
0.0
 10
5.972010258127541
 20
6.37267739580081
 30
0.0
 10
5.969118207977948
 20
6.374360264235528
 30
0.0
 10
5.965524859390786
 20
6.37660249604015
 30
0.0
 10
5.961258893446372
 20
6.379519355516515
 30
0.0
 10
5.955560404871375
 20
6.383784770734765
 30
0.0
 10
5.945618036987179
 20
6.392309320236132
 30
0.0
 10
5.932630695682442
 20
6.407033929374051
 30
0.0
 10
5.92025525825091
 20
6.42829345352508
 30
0.0
 10
5.912146306727914
 20
6.452664213977518
 30
0.0
 10
5.910268242577223
 20
6.470037854864104
 30
0.0
 10
5.910268242577223
 20
6.478794695842378
 30
0.0
 11
6.154362730777223
 21
6.478794695842378
 31
0.0
 11
6.152604312577222
 21
6.458151824442378
 31
0.0
 11
6.146769929877223
 21
6.436418874642377
 31
0.0
 11
6.136212497977222
 21
6.414756107242378
 31
0.0
 11
6.120737469677222
 21
6.394669297042378
 31
0.0
 11
6.100798433077222
 21
6.377771847742377
 31
0.0
 11
6.077529880177222
 21
6.365431613642377
 31
0.0
 11
6.052554090177222
 21
6.358437192042377
 31
0.0
 11
6.027621361877222
 21
6.356837756742378
 31
0.0
 11
6.015659752977222
 21
6.357889293442378
 31
0.0
 11
6.004240501977223
 21
6.360020435042377
 31
0.0
 11
5.993476270377222
 21
6.363092297142378
 31
0.0
 11
5.983445946977223
 21
6.366958664542377
 31
0.0
 11
5.978721971477223
 21
6.369144046442377
 31
0.0
 11
5.974197030877222
 21
6.371473799042377
 31
0.0
 11
5.972009778577223
 21
6.372687432342377
 31
0.0
 11
5.969861711477222
 21
6.373937384442378
 31
0.0
 11
5.965576661377222
 21
6.376611238342378
 31
0.0
 11
5.961311751077222
 21
6.379527383342377
 31
0.0
 11
5.957083523277223
 21
6.382692242842377
 31
0.0
 11
5.948809477577222
 21
6.389787526242377
 31
0.0
 11
5.933556409277222
 21
6.407085739442377
 31
0.0
 11
5.921197846477222
 21
6.428313017542377
 31
0.0
 11
5.913095591877222
 21
6.452676761942377
 31
0.0
 11
5.910268242577223
 21
6.478794695842378
 31
0.0
  0
SPLINE
  5
368
330
1F
100
AcDbEntity
  8
0
  6
Continuous
 62
     7
100
AcDbSpline
210
0.0
220
0.0
230
1.0
 70
     8
 71
     3
 72
    31
 73
    27
 74
    25
 42
0.0000000001
 43
0.0000000001
 44
0.0000000001
 12
0.0
 22
1.0
 32
0.0
 13
0.0
 23
-1.0
 33
0.0
 40
0.0
 40
0.0
 40
0.0
 40
0.0
 40
0.0262705229348215
 40
0.0519461644247433
 40
0.0765089699294437
 40
0.0995715861951121
 40
0.110471259593479
 40
0.1157527599469236
 40
0.1209193218141683
 40
0.1259701780819764
 40
0.1284554491976494
 40
0.1309568444904252
 40
0.1360463272353357
 40
0.1412513092849085
 40
0.1520010155671107
 40
0.1631949879942646
 40
0.1748114012927067
 40
0.1868191411590471
 40
0.2118031186934719
 40
0.2377398112282314
 40
0.2640781280253027
 40
0.2902140988965406
 40
0.3155706848046238
 40
0.3396691257379515
 40
0.3621715951246522
 40
0.3828892246754241
 40
0.3828892246754241
 40
0.3828892246754241
 40
0.3828892246754241
 10
5.910268242577223
 20
6.478794695842378
 30
0.0
 10
5.910268242577223
 20
6.487551536820651
 30
0.0
 10
5.912146306701179
 20
6.504925177686711
 30
0.0
 10
5.920255258314933
 20
6.529295938089882
 30
0.0
 10
5.93263069559572
 20
6.550555462314648
 30
0.0
 10
5.945618037074868
 20
6.565280071321534
 30
0.0
 10
5.955560404845972
 20
6.573804620946066
 30
0.0
 10
5.961258893447837
 20
6.578070036166566
 30
0.0
 10
5.96552485939034
 20
6.580986895645175
 30
0.0
 10
5.96911820797817
 20
6.583229127448789
 30
0.0
 10
5.97201025812723
 20
6.584911995884613
 30
0.0
 10
5.974947329596245
 20
6.586541684801645
 30
0.0
 10
5.978740754425167
 20
6.588494793990532
 30
0.0
 10
5.9851087305664
 20
6.591440770913914
 30
0.0
 10
5.993564591295352
 20
6.594700324820227
 30
0.0
 10
6.00433637036316
 20
6.597774414608858
 30
0.0
 10
6.015763711034044
 20
6.599906756432311
 30
0.0
 10
6.03192522796227
 20
6.60132894742873
 30
0.0
 10
6.053018356182306
 20
6.599979134654386
 30
0.0
 10
6.078001592731688
 20
6.592981290038075
 30
0.0
 10
6.101274471303304
 20
6.580639665728345
 30
0.0
 10
6.121218968345064
 20
6.563736705709813
 30
0.0
 10
6.136707766837733
 20
6.54363147865467
 30
0.0
 10
6.147283951853791
 20
6.521926934563754
 30
0.0
 10
6.153134432410455
 20
6.500135968270069
 30
0.0
 10
6.154362730777223
 20
6.485700572359301
 30
0.0
 10
6.154362730777223
 20
6.478794695842378
 30
0.0
 11
5.910268242577223
 21
6.478794695842378
 31
0.0
 11
5.913095591877222
 21
6.504912629742378
 31
0.0
 11
5.921197846477222
 21
6.529276374042377
 31
0.0
 11
5.933556409277222
 21
6.550503652242378
 31
0.0
 11
5.948809477577222
 21
6.567801865342377
 31
0.0
 11
5.957083523277223
 21
6.574897148842377
 31
0.0
 11
5.961311751077222
 21
6.578062008342378
 31
0.0
 11
5.965576661377222
 21
6.580978153342377
 31
0.0
 11
5.969861711477222
 21
6.583652007242378
 31
0.0
 11
5.972009778577223
 21
6.584901959342378
 31
0.0
 11
5.974197030877222
 21
6.586115592642377
 31
0.0
 11
5.978721971477223
 21
6.588445345242377
 31
0.0
 11
5.983445946977223
 21
6.590630727042378
 31
0.0
 11
5.993476270377222
 21
6.594497094542377
 31
0.0
 11
6.004240501977223
 21
6.597568956642377
 31
0.0
 11
6.015659752977222
 21
6.599700098242378
 31
0.0
 11
6.027621361877222
 21
6.600751634842377
 31
0.0
 11
6.052554090177222
 21
6.599152199642378
 31
0.0
 11
6.077529880177222
 21
6.592157778042378
 31
0.0
 11
6.100798433077222
 21
6.579817543942377
 31
0.0
 11
6.120737469677222
 21
6.562920094642378
 31
0.0
 11
6.136212497977222
 21
6.542833284342377
 31
0.0
 11
6.146769929877223
 21
6.521170517042378
 31
0.0
 11
6.152604312577222
 21
6.499437567242377
 31
0.0
 11
6.154362730777223
 21
6.478794695842378
 31
0.0
  0
SPLINE
  5
369
330
1F
100
AcDbEntity
  8
0
  6
Continuous
 62
     7
100
AcDbSpline
210
0.0
220
0.0
230
1.0
 70
     8
 71
     3
 72
    10
 73
     6
 74
     4
 42
0.0000000001
 43
0.0000000001
 44
0.0000000001
 12
0.0
 22
1.0
 32
0.0
 13
-0.1368799351511356
 23
0.9905876454675885
 33
0.0
 40
0.0
 40
0.0
 40
0.0
 40
0.0
 40
0.0052654052706431
 40
0.0105308427202471
 40
0.0157962480075893
 40
0.0157962480075893
 40
0.0157962480075893
 40
0.0157962480075893
 10
6.147365452377222
 20
6.478794695842378
 30
0.0
 10
6.147365452377222
 20
6.480549830932592
 30
0.0
 10
6.147285094815829
 20
6.484060663046591
 30
0.0
 10
6.14692376546489
 20
6.489315325942915
 30
0.0
 10
6.146522804155315
 20
6.49280411220037
 30
0.0
 10
6.146282561377224
 20
6.494542727342377
 30
0.0
 11
6.147365452377222
 21
6.478794695842378
 31
0.0
 11
6.147244963077222
 21
6.484058722342378
 31
0.0
 11
6.146883745777222
 21
6.489311755142377
 31
0.0
 11
6.146282561377224
 21
6.494542727342377
 31
0.0
  0
SPLINE
  5
36A
330
1F
100
AcDbEntity
  8
0
  6
Continuous
 62
     7
100
AcDbSpline
210
0.0
220
0.0
230
1.0
 70
     8
 71
     3
 72
    10
 73
     6
 74
     4
 42
0.0000000001
 43
0.0000000001
 44
0.0000000001
 12
0.1368799351511356
 22
0.9905876454675885
 32
0.0
 13
0.0
 23
1.0
 33
0.0
 40
0.0
 40
0.0
 40
0.0
 40
0.0
 40
0.0052654052873414
 40
0.0105308427369462
 40
0.0157962480075893
 40
0.0157962480075893
 40
0.0157962480075893
 40
0.0157962480075893
 10
6.146282561377224
 20
6.463046664342378
 30
0.0
 10
6.146522804155315
 20
6.464785279484385
 30
0.0
 10
6.146923765464888
 20
6.468274065741839
 30
0.0
 10
6.147285094815829
 20
6.473528728638163
 30
0.0
 10
6.147365452377222
 20
6.477039560752163
 30
0.0
 10
6.147365452377222
 20
6.478794695842378
 30
0.0
 11
6.146282561377224
 21
6.463046664342378
 31
0.0
 11
6.146883745777222
 21
6.468277636542377
 31
0.0
 11
6.147244963077222
 21
6.473530669342378
 31
0.0
 11
6.147365452377222
 21
6.478794695842378
 31
0.0
  0
SPLINE
  5
36B
330
1F
100
AcDbEntity
  8
0
  6
Continuous
 62
     7
100
AcDbSpline
210
0.0
220
0.0
230
1.0
 70
     8
 71
     3
 72
    10
 73
     6
 74
     4
 42
0.0000000001
 43
0.0000000001
 44
0.0000000001
 12
0.0
 22
-1.0
 32
0.0
 13
0.1368799334343789
 23
-0.990587645704811
 33
0.0
 40
0.0
 40
0.0
 40
0.0
 40
0.0
 40
0.0052654052683547
 40
0.01053084272482
 40
0.015796248149173
 40
0.015796248149173
 40
0.015796248149173
 40
0.015796248149173
 10
5.917265520977222
 20
6.478794695842378
 30
0.0
 10
5.917265520977222
 20
6.477039560752926
 30
0.0
 10
5.917345878510468
 20
6.473528728649505
 30
0.0
 10
5.91770720739198
 20
6.468274065637908
 30
0.0
 10
5.918108170395893
 20
6.464785279530042
 30
0.0
 10
5.918348413177223
 20
6.463046664342378
 30
0.0
 11
5.917265520977222
 21
6.478794695842378
 31
0.0
 11
5.917386010177222
 21
6.473530669342378
 31
0.0
 11
5.917747227577224
 21
6.468277636542377
 31
0.0
 11
5.918348413177223
 21
6.463046664342378
 31
0.0
  0
SPLINE
  5
36C
330
1F
100
AcDbEntity
  8
0
  6
Continuous
 62
     7
100
AcDbSpline
210
0.0
220
0.0
230
1.0
 70
     8
 71
     3
 72
    10
 73
     6
 74
     4
 42
0.0000000001
 43
0.0000000001
 44
0.0000000001
 12
-0.1368799351511356
 22
-0.9905876454675885
 32
0.0
 13
0.0
 23
-1.0
 33
0.0
 40
0.0
 40
0.0
 40
0.0
 40
0.0
 40
0.0052654052873422
 40
0.0105308427438066
 40
0.0157962480121613
 40
0.0157962480121613
 40
0.0157962480121613
 40
0.0157962480121613
 10
5.918348411977222
 20
6.494542727342377
 30
0.0
 10
5.918108169199131
 20
6.49280411220037
 30
0.0
 10
5.917707207942473
 20
6.489315325937598
 30
0.0
 10
5.917345878352292
 20
6.484060663053444
 30
0.0
 10
5.917265520977222
 20
6.480549830931829
 30
0.0
 10
5.917265520977222
 20
6.478794695842378
 30
0.0
 11
5.918348411977222
 21
6.494542727342377
 31
0.0
 11
5.917747227577224
 21
6.489311755142377
 31
0.0
 11
5.917386010177222
 21
6.484058722342378
 31
0.0
 11
5.917265520977222
 21
6.478794695842378
 31
0.0
  0
SPLINE
  5
36D
330
1F
100
AcDbEntity
  8
0
  6
Continuous
 62
     7
100
AcDbSpline
210
0.0
220
0.0
230
1.0
 70
     8
 71
     3
 72
    31
 73
    27
 74
    25
 42
0.0000000001
 43
0.0000000001
 44
0.0000000001
 12
0.0
 22
1.0
 32
0.0
 13
0.0
 23
-1.0
 33
0.0
 40
0.0
 40
0.0
 40
0.0
 40
0.0
 40
0.0262705229348217
 40
0.0519461644562995
 40
0.076508969961
 40
0.0995715861605307
 40
0.1104712595588969
 40
0.1157527599923992
 40
0.1209193217770956
 40
0.1259701780449037
 40
0.1284554492470086
 40
0.1309568444523434
 40
0.1360463271972528
 40
0.1412513093375843
 40
0.1520010155264802
 40
0.1631949879536325
 40
0.1748114012520763
 40
0.1868191412180321
 40
0.2118031187524568
 40
0.2377398112872163
 40
0.2640781280842877
 40
0.2902140988792359
 40
0.3155706848483488
 40
0.3396691257378666
 40
0.3621715951504949
 40
0.3828892246927793
 40
0.3828892246927793
 40
0.3828892246927793
 40
0.3828892246927793
 10
3.132709187777222
 20
6.478794695842378
 30
0.0
 10
3.132709187777222
 20
6.487551536820651
 30
0.0
 10
3.134587251867826
 20
6.504925177708498
 30
0.0
 10
3.142696203638295
 20
6.529295938072102
 30
0.0
 10
3.155071640890117
 20
6.550555462290333
 30
0.0
 10
3.1680589823083
 20
6.565280071309878
 30
0.0
 10
3.178001350033673
 20
6.573804621007618
 30
0.0
 10
3.183699838724748
 20
6.578070036106343
 30
0.0
 10
3.187965804607137
 20
6.580986895666725
 30
0.0
 10
3.19155915318064
 20
6.583229127502654
 30
0.0
 10
3.194451203392236
 20
6.584911995828861
 30
0.0
 10
3.197388274799628
 20
6.586541684854994
 30
0.0
 10
3.20118169965399
 20
6.588494794003393
 30
0.0
 10
3.207549675821633
 20
6.591440770861862
 30
0.0
 10
3.216005536516147
 20
6.594700324851831
 30
0.0
 10
3.226777315565773
 20
6.597774414601916
 30
0.0
 10
3.238204656265941
 20
6.599906756441948
 30
0.0
 10
3.254366173229874
 20
6.601328947420268
 30
0.0
 10
3.275459301483751
 20
6.599979134659935
 30
0.0
 10
3.300442538024626
 20
6.592981290030024
 30
0.0
 10
3.323715416607728
 20
6.580639665767111
 30
0.0
 10
3.343659913524175
 20
6.563736705635147
 30
0.0
 10
3.359148712191796
 20
6.543631478724073
 30
0.0
 10
3.369724896975522
 20
6.521926934512167
 30
0.0
 10
3.375575377800221
 20
6.500135968299153
 30
0.0
 10
3.376803675977222
 20
6.485700572356472
 30
0.0
 10
3.376803675977222
 20
6.478794695842378
 30
0.0
 11
3.132709187777222
 21
6.478794695842378
 31
0.0
 11
3.135536537077223
 21
6.504912629742378
 31
0.0
 11
3.143638791777223
 21
6.529276374042377
 31
0.0
 11
3.155997354577222
 21
6.550503652242378
 31
0.0
 11
3.171250422777223
 21
6.567801865342377
 31
0.0
 11
3.179524468477223
 21
6.574897148842377
 31
0.0
 11
3.183752696377223
 21
6.578062008342378
 31
0.0
 11
3.188017606577222
 21
6.580978153342377
 31
0.0
 11
3.192302656677223
 21
6.583652007242378
 31
0.0
 11
3.194450723877223
 21
6.584901959342378
 31
0.0
 11
3.196637976077223
 21
6.586115592642377
 31
0.0
 11
3.201162916677222
 21
6.588445345242377
 31
0.0
 11
3.205886892277222
 21
6.590630727042378
 31
0.0
 11
3.215917215577223
 21
6.594497094542377
 31
0.0
 11
3.226681447177222
 21
6.597568956642377
 31
0.0
 11
3.238100698177223
 21
6.599700098242378
 31
0.0
 11
3.250062307177222
 21
6.600751634842377
 31
0.0
 11
3.274995035477223
 21
6.599152199642378
 31
0.0
 11
3.299970825477223
 21
6.592157778042378
 31
0.0
 11
3.323239378377222
 21
6.579817543942377
 31
0.0
 11
3.343178414877223
 21
6.562920094642378
 31
0.0
 11
3.358653443277223
 21
6.542833284342377
 31
0.0
 11
3.369210875077223
 21
6.521170517042378
 31
0.0
 11
3.375045257877222
 21
6.499437567242377
 31
0.0
 11
3.376803675977222
 21
6.478794695842378
 31
0.0
  0
SPLINE
  5
36E
330
1F
100
AcDbEntity
  8
0
  6
Continuous
 62
     7
100
AcDbSpline
210
0.0
220
0.0
230
1.0
 70
     8
 71
     3
 72
    31
 73
    27
 74
    25
 42
0.0000000001
 43
0.0000000001
 44
0.0000000001
 12
0.0
 22
-1.0
 32
0.0
 13
0.0
 23
1.0
 33
0.0
 40
0.0
 40
0.0
 40
0.0
 40
0.0
 40
0.0207176295422844
 40
0.0432200989549127
 40
0.0673185399343234
 40
0.0926751258242182
 40
0.1188110966191676
 40
0.1451494134162385
 40
0.171086105950998
 40
0.1960700834918246
 40
0.2080778234665376
 40
0.2196942367649812
 40
0.2308882091921337
 40
0.2416379153450624
 40
0.2468428975273799
 40
0.2519323802722889
 40
0.2544337754776245
 40
0.2569190466797294
 40
0.2619699029475375
 40
0.2671364647322339
 40
0.2724179651657357
 40
0.2833176384990056
 40
0.3063802547735425
 40
0.3309430601918217
 40
0.3566187018081909
 40
0.3828892247430126
 40
0.3828892247430126
 40
0.3828892247430126
 40
0.3828892247430126
 10
3.376803675977222
 20
6.478794695842378
 30
0.0
 10
3.376803675977222
 20
6.471888819328283
 30
0.0
 10
3.375575377805162
 20
6.457453423382936
 30
0.0
 10
3.369724896948234
 20
6.435662457154005
 30
0.0
 10
3.35914871225364
 20
6.413957912888466
 30
0.0
 10
3.343659913482933
 20
6.393852686045903
 30
0.0
 10
3.32371541661348
 20
6.376949725918846
 30
0.0
 10
3.300442538023037
 20
6.364608101636104
 30
0.0
 10
3.275459301482328
 20
6.3576102570951
 30
0.0
 10
3.254366173221884
 20
6.356260444065099
 30
0.0
 10
3.238204656273374
 20
6.357682635281709
 30
0.0
 10
3.226777315558088
 20
6.359814977057128
 30
0.0
 10
3.216005536552642
 20
6.362889066891458
 30
0.0
 10
3.207549675761557
 20
6.366148620652239
 30
0.0
 10
3.201181699680212
 20
6.369094597705212
 30
0.0
 10
3.197388274797964
 20
6.371047706826114
 30
0.0
 10
3.194451203392546
 20
6.372677395856563
 30
0.0
 10
3.191559153180417
 20
6.374360264181663
 30
0.0
 10
3.187965804607582
 20
6.376602496018599
 30
0.0
 10
3.183699838723282
 20
6.379519355576739
 30
0.0
 10
3.178001350059079
 20
6.383784770673214
 30
0.0
 10
3.168058982220609
 20
6.39230932024779
 30
0.0
 10
3.155071640976839
 20
6.407033929398366
 30
0.0
 10
3.142696203574272
 20
6.428293453542865
 30
0.0
 10
3.13458725189456
 20
6.452664213955733
 30
0.0
 10
3.132709187777222
 20
6.470037854864104
 30
0.0
 10
3.132709187777222
 20
6.478794695842378
 30
0.0
 11
3.376803675977222
 21
6.478794695842378
 31
0.0
 11
3.375045257877222
 21
6.458151824442378
 31
0.0
 11
3.369210875077223
 21
6.436418874642377
 31
0.0
 11
3.358653443277223
 21
6.414756107242378
 31
0.0
 11
3.343178414877223
 21
6.394669297042378
 31
0.0
 11
3.323239378377222
 21
6.377771847742377
 31
0.0
 11
3.299970825477223
 21
6.365431613642377
 31
0.0
 11
3.274995035477223
 21
6.358437192042377
 31
0.0
 11
3.250062307177222
 21
6.356837756742378
 31
0.0
 11
3.238100698177223
 21
6.357889293442378
 31
0.0
 11
3.226681447177222
 21
6.360020435042377
 31
0.0
 11
3.215917215577223
 21
6.363092297142378
 31
0.0
 11
3.205886892277222
 21
6.366958664542377
 31
0.0
 11
3.201162916677222
 21
6.369144046442377
 31
0.0
 11
3.196637976077223
 21
6.371473799042377
 31
0.0
 11
3.194450723877223
 21
6.372687432342377
 31
0.0
 11
3.192302656677223
 21
6.373937384442378
 31
0.0
 11
3.188017606577222
 21
6.376611238342378
 31
0.0
 11
3.183752696377223
 21
6.379527383342377
 31
0.0
 11
3.179524468477223
 21
6.382692242842377
 31
0.0
 11
3.171250422777223
 21
6.389787526242377
 31
0.0
 11
3.155997354577222
 21
6.407085739442377
 31
0.0
 11
3.143638791777223
 21
6.428313017542377
 31
0.0
 11
3.135536537077223
 21
6.452676761942377
 31
0.0
 11
3.132709187777222
 21
6.478794695842378
 31
0.0
  0
SPLINE
  5
36F
330
1F
100
AcDbEntity
  8
0
  6
Continuous
 62
     7
100
AcDbSpline
210
0.0
220
0.0
230
1.0
 70
     8
 71
     3
 72
    10
 73
     6
 74
     4
 42
0.0000000001
 43
0.0000000001
 44
0.0000000001
 12
0.0
 22
-1.0
 32
0.0
 13
0.1368799334343789
 23
-0.990587645704811
 33
0.0
 40
0.0
 40
0.0
 40
0.0
 40
0.0
 40
0.0052654052683547
 40
0.0105308427179597
 40
0.0157962481537305
 40
0.0157962481537305
 40
0.0157962481537305
 40
0.0157962481537305
 10
3.139706466277223
 20
6.478794695842378
 30
0.0
 10
3.139706466277223
 20
6.477039560752926
 30
0.0
 10
3.139786823863342
 20
6.47352872865604
 30
0.0
 10
3.140148152506637
 20
6.468274065623806
 30
0.0
 10
3.140549115695371
 20
6.464785279533812
 30
0.0
 10
3.140789358477222
 20
6.463046664342378
 30
0.0
 11
3.139706466277223
 21
6.478794695842378
 31
0.0
 11
3.139826955477223
 21
6.473530669342378
 31
0.0
 11
3.140188172777222
 21
6.468277636542377
 31
0.0
 11
3.140789358477222
 21
6.463046664342378
 31
0.0
  0
SPLINE
  5
370
330
1F
100
AcDbEntity
  8
0
  6
Continuous
 62
     7
100
AcDbSpline
210
0.0
220
0.0
230
1.0
 70
     8
 71
     3
 72
    10
 73
     6
 74
     4
 42
0.0000000001
 43
0.0000000001
 44
0.0000000001
 12
-0.1368799351511356
 22
-0.9905876454675885
 32
0.0
 13
0.0
 23
-1.0
 33
0.0
 40
0.0
 40
0.0
 40
0.0
 40
0.0
 40
0.00526540529876
 40
0.010530842748364
 40
0.0157962480167188
 40
0.0157962480167188
 40
0.0157962480167188
 40
0.0157962480167188
 10
3.140789357277222
 20
6.494542727342377
 30
0.0
 10
3.140549114498609
 20
6.4928041121966
 30
0.0
 10
3.140148153057127
 20
6.489315325951698
 30
0.0
 10
3.139786823705165
 20
6.484060663046909
 30
0.0
 10
3.139706466277223
 20
6.480549830931829
 30
0.0
 10
3.139706466277223
 20
6.478794695842378
 30
0.0
 11
3.140789357277222
 21
6.494542727342377
 31
0.0
 11
3.140188172777222
 21
6.489311755142377
 31
0.0
 11
3.139826955477223
 21
6.484058722342378
 31
0.0
 11
3.139706466277223
 21
6.478794695842378
 31
0.0
  0
SPLINE
  5
371
330
1F
100
AcDbEntity
  8
0
  6
Continuous
 62
     7
100
AcDbSpline
210
0.0
220
0.0
230
1.0
 70
     8
 71
     3
 72
    10
 73
     6
 74
     4
 42
0.0000000001
 43
0.0000000001
 44
0.0000000001
 12
0.0
 22
1.0
 32
0.0
 13
-0.1368799351511356
 23
0.9905876454675885
 33
0.0
 40
0.0
 40
0.0
 40
0.0
 40
0.0
 40
0.0052654052683548
 40
0.010530842724819
 40
0.0157962480121613
 40
0.0157962480121613
 40
0.0157962480121613
 40
0.0157962480121613
 10
3.369806397577223
 20
6.478794695842378
 30
0.0
 10
3.369806397577223
 20
6.480549830931829
 30
0.0
 10
3.369726040202153
 20
6.484060663053442
 30
0.0
 10
3.369364710611975
 20
6.489315325937597
 30
0.0
 10
3.368963749355315
 20
6.49280411220037
 30
0.0
 10
3.368723506577222
 20
6.494542727342377
 30
0.0
 11
3.369806397577223
 21
6.478794695842378
 31
0.0
 11
3.369685908377222
 21
6.484058722342378
 31
0.0
 11
3.369324690977222
 21
6.489311755142377
 31
0.0
 11
3.368723506577222
 21
6.494542727342377
 31
0.0
  0
SPLINE
  5
372
330
1F
100
AcDbEntity
  8
0
  6
Continuous
 62
     7
100
AcDbSpline
210
0.0
220
0.0
230
1.0
 70
     8
 71
     3
 72
    10
 73
     6
 74
     4
 42
0.0000000001
 43
0.0000000001
 44
0.0000000001
 12
0.1368799351511356
 22
0.9905876454675885
 32
0.0
 13
0.0
 23
1.0
 33
0.0
 40
0.0
 40
0.0
 40
0.0
 40
0.0
 40
0.0052654052873415
 40
0.0105308427438066
 40
0.0157962480121613
 40
0.0157962480121613
 40
0.0157962480121613
 40
0.0157962480121613
 10
3.368723506577222
 20
6.463046664342378
 30
0.0
 10
3.368963749355315
 20
6.464785279484385
 30
0.0
 10
3.369364710611975
 20
6.468274065747158
 30
0.0
 10
3.369726040202153
 20
6.473528728631312
 30
0.0
 10
3.369806397577223
 20
6.477039560752926
 30
0.0
 10
3.369806397577223
 20
6.478794695842378
 30
0.0
 11
3.368723506577222
 21
6.463046664342378
 31
0.0
 11
3.369324690977222
 21
6.468277636542377
 31
0.0
 11
3.369685908377222
 21
6.473530669342378
 31
0.0
 11
3.369806397577223
 21
6.478794695842378
 31
0.0
  0
SPLINE
  5
373
330
1F
100
AcDbEntity
  8
0
  6
Continuous
 62
     7
100
AcDbSpline
210
0.0
220
0.0
230
1.0
 70
     8
 71
     3
 72
    31
 73
    27
 74
    25
 42
0.0000000001
 43
0.0000000001
 44
0.0000000001
 12
0.0
 22
1.0
 32
0.0
 13
0.0
 23
-1.0
 33
0.0
 40
0.0
 40
0.0
 40
0.0
 40
0.0
 40
0.0262705229348206
 40
0.0519461644247424
 40
0.0765089698430232
 40
0.099571586183697
 40
0.1104712595820639
 40
0.115752759875585
 40
0.1209193217428297
 40
0.1259701780106378
 40
0.1284554491263104
 40
0.1309568444190865
 40
0.1360463272097725
 40
0.1412513092593457
 40
0.1520010155415478
 40
0.1631949879412597
 40
0.1748114012397017
 40
0.1868191411147993
 40
0.2118031186556259
 40
0.2377398111634188
 40
0.2640781280073417
 40
0.2902140988785802
 40
0.3155706847074461
 40
0.3396691256407729
 40
0.3621715950274736
 40
0.3828892245782456
 40
0.3828892245782456
 40
0.3828892245782456
 40
0.3828892245782456
 10
5.910268242577223
 20
5.923676585642378
 30
0.0
 10
5.910268242577223
 20
5.932433426620652
 30
0.0
 10
5.91214630670778
 20
5.949807067483042
 30
0.0
 10
5.920255258283648
 20
5.974177827874654
 30
0.0
 10
5.932630695652989
 20
5.995437352044993
 30
0.0
 10
5.945618037075734
 20
6.010161961073843
 30
0.0
 10
5.955560404793413
 20
6.018686510783387
 30
0.0
 10
5.961258893479572
 20
6.022951925857373
 30
0.0
 10
5.965524859386068
 20
6.025868785351057
 30
0.0
 10
5.969118207979384
 20
6.028111017146713
 30
0.0
 10
5.972010258125891
 20
6.029793885587169
 30
0.0
 10
5.974947329616555
 20
6.031423574495519
 30
0.0
 10
5.978740754394953
 20
6.033376683816168
 30
0.0
 10
5.985108730577244
 20
6.036322660691348
 30
0.0
 10
5.993564591273966
 20
6.039582214654648
 30
0.0
 10
6.004336370382631
 20
6.0426563042824
 30
0.0
 10
6.01576371103622
 20
6.044788646107491
 30
0.0
 10
6.031925227958855
 20
6.046210837323694
 30
0.0
 10
6.053018356157664
 20
6.04486102424799
 30
0.0
 10
6.078001592778352
 20
6.037863179910203
 30
0.0
 10
6.101274471277596
 20
6.025521555398196
 30
0.0
 10
6.121218968312451
 20
6.008618595425359
 30
0.0
 10
6.136707766866297
 20
5.988513368441757
 30
0.0
 10
6.147283951849647
 20
5.966808824361066
 30
0.0
 10
6.153134432411507
 20
5.945017858070753
 30
0.0
 10
6.154362730777223
 20
5.930582462159302
 30
0.0
 10
6.154362730777223
 20
5.923676585642378
 30
0.0
 11
5.910268242577223
 21
5.923676585642378
 31
0.0
 11
5.913095591877222
 21
5.949794519542377
 31
0.0
 11
5.921197846477222
 21
5.974158263842377
 31
0.0
 11
5.933556409277222
 21
5.995385541942378
 31
0.0
 11
5.948809477577222
 21
6.012683755142377
 31
0.0
 11
5.957083523277223
 21
6.019779038642377
 31
0.0
 11
5.961311751077222
 21
6.022943898042378
 31
0.0
 11
5.965576661377222
 21
6.025860043042378
 31
0.0
 11
5.969861711477222
 21
6.028533896942378
 31
0.0
 11
5.972009778577223
 21
6.029783849042377
 31
0.0
 11
5.974197030877222
 21
6.030997482342377
 31
0.0
 11
5.978721971477223
 21
6.033327235042377
 31
0.0
 11
5.983445946977223
 21
6.035512616842378
 31
0.0
 11
5.993476270377222
 21
6.039378984342378
 31
0.0
 11
6.004240501977223
 21
6.042450846342378
 31
0.0
 11
6.015659752977222
 21
6.044581987942378
 31
0.0
 11
6.027621361877222
 21
6.045633524642378
 31
0.0
 11
6.052554090177222
 21
6.044034089342378
 31
0.0
 11
6.077529880177222
 21
6.037039667842376
 31
0.0
 11
6.100798433077222
 21
6.024699433642378
 31
0.0
 11
6.120737469677222
 21
6.007801984342377
 31
0.0
 11
6.136212497977222
 21
5.987715174142377
 31
0.0
 11
6.146769929877223
 21
5.966052406842378
 31
0.0
 11
6.152604312577222
 21
5.944319457042378
 31
0.0
 11
6.154362730777223
 21
5.923676585642378
 31
0.0
  0
SPLINE
  5
374
330
1F
100
AcDbEntity
  8
0
  6
Continuous
 62
     7
100
AcDbSpline
210
0.0
220
0.0
230
1.0
 70
     8
 71
     3
 72
    31
 73
    27
 74
    25
 42
0.0000000001
 43
0.0000000001
 44
0.0000000001
 12
0.0
 22
-1.0
 32
0.0
 13
0.0
 23
1.0
 33
0.0
 40
0.0
 40
0.0
 40
0.0
 40
0.0
 40
0.0207176296504138
 40
0.0432200990371119
 40
0.0673185399704404
 40
0.0926751257993056
 40
0.118811096670544
 40
0.1451494135144677
 40
0.1710861060222599
 40
0.1960700835630867
 40
0.2080778234381843
 40
0.2196942367366263
 40
0.2308882091363384
 40
0.2416379154185405
 40
0.2468428974681129
 40
0.2519323802587989
 40
0.2544337755515755
 40
0.2569190466672484
 40
0.2619699029350566
 40
0.2671364648023013
 40
0.2724179650958213
 40
0.2833176384941888
 40
0.3063802548348633
 40
0.3309430602531425
 40
0.3566187017430643
 40
0.3828892247773059
 40
0.3828892247773059
 40
0.3828892247773059
 40
0.3828892247773059
 10
6.154362730777223
 20
5.923676585642378
 30
0.0
 10
6.154362730777223
 20
5.91677070909224
 30
0.0
 10
6.153134432423024
 20
5.90233531314614
 30
0.0
 10
6.147283951848791
 20
5.880544346823723
 30
0.0
 10
6.136707766866549
 20
5.858839802742988
 30
0.0
 10
6.121218968312377
 20
5.838734575759399
 30
0.0
 10
6.101274471277616
 20
5.821831615786558
 30
0.0
 10
6.078001592778348
 20
5.809489991274549
 30
0.0
 10
6.053018356157664
 20
5.802492146936767
 30
0.0
 10
6.031925227958857
 20
5.801142333861061
 30
0.0
 10
6.01576371103622
 20
5.802564525077263
 30
0.0
 10
6.004336370382631
 20
5.804696866902354
 30
0.0
 10
5.993564591273967
 20
5.807770956530109
 30
0.0
 10
5.985108730577246
 20
5.811030510493406
 30
0.0
 10
5.978740754394953
 20
5.813976487368585
 30
0.0
 10
5.974947329616554
 20
5.815929596689239
 30
0.0
 10
5.97201025812589
 20
5.817559285597584
 30
0.0
 10
5.969118207979387
 20
5.819242154038044
 30
0.0
 10
5.965524859386068
 20
5.8214843858337
 30
0.0
 10
5.961258893479573
 20
5.824401245327382
 30
0.0
 10
5.955560404793411
 20
5.828666660401368
 30
0.0
 10
5.945618037075756
 20
5.837191210110914
 30
0.0
 10
5.932630695652784
 20
5.851915819139754
 30
0.0
 10
5.920255258284475
 20
5.87317534331014
 30
0.0
 10
5.91214630669398
 20
5.897546103733222
 30
0.0
 10
5.910268242577223
 20
5.914919744630964
 30
0.0
 10
5.910268242577223
 20
5.923676585642378
 30
0.0
 11
6.154362730777223
 21
5.923676585642378
 31
0.0
 11
6.152604312577222
 21
5.903033714142376
 31
0.0
 11
6.146769929877223
 21
5.881300764342378
 31
0.0
 11
6.136212497977222
 21
5.859637997042377
 31
0.0
 11
6.120737469677222
 21
5.839551186842378
 31
0.0
 11
6.100798433077222
 21
5.822653737542378
 31
0.0
 11
6.077529880177222
 21
5.810313503342378
 31
0.0
 11
6.052554090177222
 21
5.803319081842378
 31
0.0
 11
6.027621361877222
 21
5.801719646542377
 31
0.0
 11
6.015659752977222
 21
5.802771183242378
 31
0.0
 11
6.004240501977223
 21
5.804902324842378
 31
0.0
 11
5.993476270377222
 21
5.807974186842378
 31
0.0
 11
5.983445946977223
 21
5.811840554342378
 31
0.0
 11
5.978721971477223
 21
5.814025936142377
 31
0.0
 11
5.974197030877222
 21
5.816355688842377
 31
0.0
 11
5.972009778577223
 21
5.817569322142378
 31
0.0
 11
5.969861711477222
 21
5.818819274242378
 31
0.0
 11
5.965576661377222
 21
5.821493128142378
 31
0.0
 11
5.961311751077222
 21
5.824409273142378
 31
0.0
 11
5.957083523277223
 21
5.827574132542377
 31
0.0
 11
5.948809477577222
 21
5.834669416042378
 31
0.0
 11
5.933556409277222
 21
5.851967629242378
 31
0.0
 11
5.921197846477222
 21
5.873194907342377
 31
0.0
 11
5.913095591877222
 21
5.897558651642377
 31
0.0
 11
5.910268242577223
 21
5.923676585642378
 31
0.0
  0
SPLINE
  5
375
330
1F
100
AcDbEntity
  8
0
  6
Continuous
 62
     7
100
AcDbSpline
210
0.0
220
0.0
230
1.0
 70
     8
 71
     3
 72
    10
 73
     6
 74
     4
 42
0.0000000001
 43
0.0000000001
 44
0.0000000001
 12
0.0
 22
-1.0
 32
0.0
 13
0.1368799334343789
 23
-0.990587645704811
 33
0.0
 40
0.0
 40
0.0
 40
0.0
 40
0.0
 40
0.0052654053683294
 40
0.0105308427250294
 40
0.0157962481493842
 40
0.0157962481493842
 40
0.0157962481493842
 40
0.0157962481493842
 10
5.917265520977222
 20
5.923676585642378
 30
0.0
 10
5.917265520977222
 20
5.921921450519602
 30
0.0
 10
5.917345878503462
 20
5.918410618415796
 30
0.0
 10
5.917707207398217
 20
5.913155955405008
 30
0.0
 10
5.918108170395893
 20
5.909667169330041
 30
0.0
 10
5.918348413177223
 20
5.907928554142377
 30
0.0
 11
5.917265520977222
 21
5.923676585642378
 31
0.0
 11
5.917386010177222
 21
5.918412559042377
 31
0.0
 11
5.917747227577224
 21
5.913159526342377
 31
0.0
 11
5.918348413177223
 21
5.907928554142377
 31
0.0
  0
SPLINE
  5
376
330
1F
100
AcDbEntity
  8
0
  6
Continuous
 62
     7
100
AcDbSpline
210
0.0
220
0.0
230
1.0
 70
     8
 71
     3
 72
    10
 73
     6
 74
     4
 42
0.0000000001
 43
0.0000000001
 44
0.0000000001
 12
-0.1368799351511356
 22
-0.9905876454675885
 32
0.0
 13
0.0
 23
-1.0
 33
0.0
 40
0.0
 40
0.0
 40
0.0
 40
0.0
 40
0.0052654051879962
 40
0.0105308426444605
 40
0.0157962479128153
 40
0.0157962479128153
 40
0.0157962479128153
 40
0.0157962479128153
 10
5.918348411977222
 20
5.939424617042377
 30
0.0
 10
5.918108169203663
 20
5.937686001933174
 30
0.0
 10
5.917707207934554
 20
5.934197215705191
 30
0.0
 10
5.917345878353905
 20
5.928942552853261
 30
0.0
 10
5.917265520977222
 20
5.92543172073183
 30
0.0
 10
5.917265520977222
 20
5.923676585642378
 30
0.0
 11
5.918348411977222
 21
5.939424617042377
 31
0.0
 11
5.917747227577224
 21
5.934193644942378
 31
0.0
 11
5.917386010177222
 21
5.928940612142378
 31
0.0
 11
5.917265520977222
 21
5.923676585642378
 31
0.0
  0
SPLINE
  5
377
330
1F
100
AcDbEntity
  8
0
  6
Continuous
 62
     7
100
AcDbSpline
210
0.0
220
0.0
230
1.0
 70
     8
 71
     3
 72
    10
 73
     6
 74
     4
 42
0.0000000001
 43
0.0000000001
 44
0.0000000001
 12
0.0
 22
1.0
 32
0.0
 13
-0.1368799351511356
 23
0.9905876454675885
 33
0.0
 40
0.0
 40
0.0
 40
0.0
 40
0.0
 40
0.0052654052706431
 40
0.0105308427202471
 40
0.0157962479082433
 40
0.0157962479082433
 40
0.0157962479082433
 40
0.0157962479082433
 10
6.147365452377222
 20
5.923676585642378
 30
0.0
 10
6.147365452377222
 20
5.925431720732593
 30
0.0
 10
6.147285094814215
 20
5.928942552846408
 30
0.0
 10
6.146923765472808
 20
5.934197215710509
 30
0.0
 10
6.146522804150783
 20
5.937686001933174
 30
0.0
 10
6.146282561377224
 20
5.939424617042377
 30
0.0
 11
6.147365452377222
 21
5.923676585642378
 31
0.0
 11
6.147244963077222
 21
5.928940612142378
 31
0.0
 11
6.146883745777222
 21
5.934193644942378
 31
0.0
 11
6.146282561377224
 21
5.939424617042377
 31
0.0
  0
SPLINE
  5
378
330
1F
100
AcDbEntity
  8
0
  6
Continuous
 62
     7
100
AcDbSpline
210
0.0
220
0.0
230
1.0
 70
     8
 71
     3
 72
    10
 73
     6
 74
     4
 42
0.0000000001
 43
0.0000000001
 44
0.0000000001
 12
0.1368799351511356
 22
0.9905876454675885
 32
0.0
 13
0.0
 23
1.0
 33
0.0
 40
0.0
 40
0.0
 40
0.0
 40
0.0
 40
0.0052654052873431
 40
0.0105308426371827
 40
0.0157962480078005
 40
0.0157962480078005
 40
0.0157962480078005
 40
0.0157962480078005
 10
6.146282561377224
 20
5.907928554142377
 30
0.0
 10
6.146522804155315
 20
5.909667169284384
 30
0.0
 10
6.146923765458656
 20
5.913155955508939
 30
0.0
 10
6.147285094822833
 20
5.918410618404455
 30
0.0
 10
6.147365452377222
 20
5.921921450518839
 30
0.0
 10
6.147365452377222
 20
5.923676585642378
 30
0.0
 11
6.146282561377224
 21
5.907928554142377
 31
0.0
 11
6.146883745777222
 21
5.913159526342377
 31
0.0
 11
6.147244963077222
 21
5.918412559042377
 31
0.0
 11
6.147365452377222
 21
5.923676585642378
 31
0.0
  0
SPLINE
  5
379
330
1F
100
AcDbEntity
  8
0
  6
Continuous
 62
     7
100
AcDbSpline
210
0.0
220
0.0
230
1.0
 70
     8
 71
     3
 72
    31
 73
    27
 74
    25
 42
0.0000000001
 43
0.0000000001
 44
0.0000000001
 12
0.0
 22
1.0
 32
0.0
 13
0.0
 23
-1.0
 33
0.0
 40
0.0
 40
0.0
 40
0.0
 40
0.0
 40
0.0262705229348215
 40
0.0519461645196346
 40
0.0765089699379139
 40
0.0995715862785884
 40
0.1104712596118583
 40
0.115752759965303
 40
0.1209193218325482
 40
0.1259701781003558
 40
0.1284554492160288
 40
0.130956844508805
 40
0.1360463272537156
 40
0.1412513093452743
 40
0.1520010155915096
 40
0.1631949880186635
 40
0.1748114013171055
 40
0.1868191411922031
 40
0.2118031187330297
 40
0.2377398112677892
 40
0.2640781280648606
 40
0.2902140989360984
 40
0.3155706847649636
 40
0.3396691257881849
 40
0.3621715950783053
 40
0.3828892247287165
 40
0.3828892247287165
 40
0.3828892247287165
 40
0.3828892247287165
 10
5.910268242577223
 20
7.033912806042377
 30
0.0
 10
5.910268242577223
 20
7.042669647020651
 30
0.0
 10
5.912146306727914
 20
7.060043287907235
 30
0.0
 10
5.920255258250911
 20
7.084414048359674
 30
0.0
 10
5.932630695682443
 20
7.105673572510704
 30
0.0
 10
5.945618036987175
 20
7.120398181648623
 30
0.0
 10
5.955560404871378
 20
7.128922731149989
 30
0.0
 10
5.961258893446371
 20
7.13318814636824
 30
0.0
 10
5.965524859390788
 20
7.136105005844608
 30
0.0
 10
5.969118207977947
 20
7.138347237649226
 30
0.0
 10
5.972010258127541
 20
7.140030106083945
 30
0.0
 10
5.974947329594581
 20
7.14165979500529
 30
0.0
 10
5.97874075445139
 20
7.143612904166685
 30
0.0
 10
5.985108730506322
 20
7.146558881284565
 30
0.0
 10
5.993564591331846
 20
7.149818434961695
 30
0.0
 10
6.004336370355476
 20
7.152892524834568
 30
0.0
 10
6.01576371104148
 20
7.155024866593407
 30
0.0
 10
6.031925227954279
 20
7.156447057828123
 30
0.0
 10
6.053018356180898
 20
7.155097244784112
 30
0.0
 10
6.078001592730043
 20
7.148099400256681
 30
0.0
 10
6.101274471309262
 20
7.135757775927192
 30
0.0
 10
6.121218968303069
 20
7.118854815913339
 30
0.0
 10
6.13670776690224
 20
7.098749588927514
 30
0.0
 10
6.147283951803176
 20
7.077045044809326
 30
0.0
 10
6.153134432440417
 20
7.055254078511133
 30
0.0
 10
6.154362730777223
 20
7.040818682592514
 30
0.0
 10
6.154362730777223
 20
7.033912806042377
 30
0.0
 11
5.910268242577223
 21
7.033912806042377
 31
0.0
 11
5.913095591877222
 21
7.060030739942377
 31
0.0
 11
5.921197846477222
 21
7.084394484342378
 31
0.0
 11
5.933556409277222
 21
7.105621762442377
 31
0.0
 11
5.948809477577222
 21
7.122919975642377
 31
0.0
 11
5.957083523277223
 21
7.130015259042377
 31
0.0
 11
5.961311751077222
 21
7.133180118542377
 31
0.0
 11
5.965576661377222
 21
7.136096263542378
 31
0.0
 11
5.969861711477222
 21
7.138770117442377
 31
0.0
 11
5.972009778577223
 21
7.140020069542377
 31
0.0
 11
5.974197030877222
 21
7.141233702842377
 31
0.0
 11
5.978721971477223
 21
7.143563455442378
 31
0.0
 11
5.983445946977223
 21
7.145748837342377
 31
0.0
 11
5.993476270377222
 21
7.149615204742378
 31
0.0
 11
6.004240501977223
 21
7.152687066842378
 31
0.0
 11
6.015659752977222
 21
7.154818208442377
 31
0.0
 11
6.027621361877222
 21
7.155869745142378
 31
0.0
 11
6.052554090177222
 21
7.154270309842377
 31
0.0
 11
6.077529880177222
 21
7.147275888242377
 31
0.0
 11
6.100798433077222
 21
7.134935654142377
 31
0.0
 11
6.120737469677222
 21
7.118038204842378
 31
0.0
 11
6.136212497977222
 21
7.097951394642378
 31
0.0
 11
6.146769929877223
 21
7.076288627242377
 31
0.0
 11
6.152604312577222
 21
7.054555677542377
 31
0.0
 11
6.154362730777223
 21
7.033912806042377
 31
0.0
  0
SPLINE
  5
37A
330
1F
100
AcDbEntity
  8
0
  6
Continuous
 62
     7
100
AcDbSpline
210
0.0
220
0.0
230
1.0
 70
     8
 71
     3
 72
    31
 73
    27
 74
    25
 42
0.0000000001
 43
0.0000000001
 44
0.0000000001
 12
0.0
 22
-1.0
 32
0.0
 13
0.0
 23
1.0
 33
0.0
 40
0.0
 40
0.0
 40
0.0
 40
0.0
 40
0.020717629550772
 40
0.0432200989374718
 40
0.0673185398708003
 40
0.0926751257788828
 40
0.1188110966501212
 40
0.1451494134471926
 40
0.1710861059819518
 40
0.1960700835163767
 40
0.208077823382717
 40
0.2196942366811589
 40
0.2308882091083131
 40
0.2416379153905153
 40
0.2468428974400873
 40
0.2519323801849987
 40
0.2544337754777745
 40
0.2569190465934474
 40
0.2619699028612556
 40
0.2671364647285007
 40
0.2724179650819448
 40
0.2833176384803111
 40
0.3063802547459808
 40
0.3309430602506798
 40
0.3566187017406032
 40
0.3828892246754238
 40
0.3828892246754238
 40
0.3828892246754238
 40
0.3828892246754238
 10
6.154362730777223
 20
7.033912806042377
 30
0.0
 10
6.154362730777223
 20
7.027006929525454
 30
0.0
 10
6.153134432410455
 20
7.012571533614687
 30
0.0
 10
6.147283951853788
 20
6.990780567321003
 30
0.0
 10
6.136707766837735
 20
6.969076023230083
 30
0.0
 10
6.121218968345063
 20
6.948970796174944
 30
0.0
 10
6.101274471303304
 20
6.932067836156409
 30
0.0
 10
6.078001592731688
 20
6.91972621184668
 30
0.0
 10
6.053018356182305
 20
6.912728367230371
 30
0.0
 10
6.031925227962271
 20
6.911378554456024
 30
0.0
 10
6.015763711034045
 20
6.912800745452445
 30
0.0
 10
6.00433637036316
 20
6.914933087275896
 30
0.0
 10
5.993564591295351
 20
6.918007177064527
 30
0.0
 10
5.9851087305664
 20
6.921266730970842
 30
0.0
 10
5.978740754425169
 20
6.92421270789422
 30
0.0
 10
5.974947329596245
 20
6.926165817083113
 30
0.0
 10
5.972010258127232
 20
6.927795506000141
 30
0.0
 10
5.969118207978169
 20
6.929478374435968
 30
0.0
 10
5.96552485939034
 20
6.93172060623958
 30
0.0
 10
5.961258893447839
 20
6.934637465718189
 30
0.0
 10
5.95556040484597
 20
6.938902880938687
 30
0.0
 10
5.945618037074867
 20
6.947427430563221
 30
0.0
 10
5.932630695595721
 20
6.962152039570108
 30
0.0
 10
5.920255258314932
 20
6.983411563794872
 30
0.0
 10
5.912146306701181
 20
7.007782324198045
 30
0.0
 10
5.910268242577223
 20
7.025155965064104
 30
0.0
 10
5.910268242577223
 20
7.033912806042377
 30
0.0
 11
6.154362730777223
 21
7.033912806042377
 31
0.0
 11
6.152604312577222
 21
7.013269934642377
 31
0.0
 11
6.146769929877223
 21
6.991536984842378
 31
0.0
 11
6.136212497977222
 21
6.969874217542377
 31
0.0
 11
6.120737469677222
 21
6.949787407242378
 31
0.0
 11
6.100798433077222
 21
6.932889957942378
 31
0.0
 11
6.077529880177222
 21
6.920549723842377
 31
0.0
 11
6.052554090177222
 21
6.913555302242378
 31
0.0
 11
6.027621361877222
 21
6.911955867042378
 31
0.0
 11
6.015659752977222
 21
6.913007403642377
 31
0.0
 11
6.004240501977223
 21
6.915138545242377
 31
0.0
 11
5.993476270377222
 21
6.918210407342377
 31
0.0
 11
5.983445946977223
 21
6.922076774842377
 31
0.0
 11
5.978721971477223
 21
6.924262156642376
 31
0.0
 11
5.974197030877222
 21
6.926591909242378
 31
0.0
 11
5.972009778577223
 21
6.927805542542377
 31
0.0
 11
5.969861711477222
 21
6.929055494642377
 31
0.0
 11
5.965576661377222
 21
6.931729348542377
 31
0.0
 11
5.961311751077222
 21
6.934645493542378
 31
0.0
 11
5.957083523277223
 21
6.937810353042378
 31
0.0
 11
5.948809477577222
 21
6.944905636542377
 31
0.0
 11
5.933556409277222
 21
6.962203849642378
 31
0.0
 11
5.921197846477222
 21
6.983431127842377
 31
0.0
 11
5.913095591877222
 21
7.007794872142378
 31
0.0
 11
5.910268242577223
 21
7.033912806042377
 31
0.0
  0
SPLINE
  5
37B
330
1F
100
AcDbEntity
  8
0
  6
Continuous
 62
     7
100
AcDbSpline
210
0.0
220
0.0
230
1.0
 70
     8
 71
     3
 72
    10
 73
     6
 74
     4
 42
0.0000000001
 43
0.0000000001
 44
0.0000000001
 12
0.0
 22
-1.0
 32
0.0
 13
0.1368799334343789
 23
-0.990587645704811
 33
0.0
 40
0.0
 40
0.0
 40
0.0
 40
0.0
 40
0.0052654052683547
 40
0.0105308427248182
 40
0.015796248149173
 40
0.015796248149173
 40
0.015796248149173
 40
0.015796248149173
 10
5.917265520977222
 20
7.033912806042377
 30
0.0
 10
5.917265520977222
 20
7.032157670952925
 30
0.0
 10
5.917345878510467
 20
7.028646838849503
 30
0.0
 10
5.917707207391984
 20
7.023392175837911
 30
0.0
 10
5.918108170395893
 20
7.019903389730042
 30
0.0
 10
5.918348413177223
 20
7.018164774542378
 30
0.0
 11
5.917265520977222
 21
7.033912806042377
 31
0.0
 11
5.917386010177222
 21
7.028648779542377
 31
0.0
 11
5.917747227577224
 21
7.023395746742378
 31
0.0
 11
5.918348413177223
 21
7.018164774542378
 31
0.0
  0
SPLINE
  5
37C
330
1F
100
AcDbEntity
  8
0
  6
Continuous
 62
     7
100
AcDbSpline
210
0.0
220
0.0
230
1.0
 70
     8
 71
     3
 72
    10
 73
     6
 74
     4
 42
0.0000000001
 43
0.0000000001
 44
0.0000000001
 12
-0.1368799351511356
 22
-0.9905876454675885
 32
0.0
 13
0.0
 23
-1.0
 33
0.0
 40
0.0
 40
0.0
 40
0.0
 40
0.0
 40
0.0052654052873431
 40
0.0105308427438075
 40
0.0157962480121622
 40
0.0157962480121622
 40
0.0157962480121622
 40
0.0157962480121622
 10
5.918348411977222
 20
7.049660837542377
 30
0.0
 10
5.918108169199131
 20
7.04792222240037
 30
0.0
 10
5.917707207942472
 20
7.044433436137596
 30
0.0
 10
5.91734587835229
 20
7.039178773253442
 30
0.0
 10
5.917265520977222
 20
7.035667941131829
 30
0.0
 10
5.917265520977222
 20
7.033912806042377
 30
0.0
 11
5.918348411977222
 21
7.049660837542377
 31
0.0
 11
5.917747227577224
 21
7.044429865342377
 31
0.0
 11
5.917386010177222
 21
7.039176832542377
 31
0.0
 11
5.917265520977222
 21
7.033912806042377
 31
0.0
  0
SPLINE
  5
37D
330
1F
100
AcDbEntity
  8
0
  6
Continuous
 62
     7
100
AcDbSpline
210
0.0
220
0.0
230
1.0
 70
     8
 71
     3
 72
    10
 73
     6
 74
     4
 42
0.0000000001
 43
0.0000000001
 44
0.0000000001
 12
0.0
 22
1.0
 32
0.0
 13
-0.1368799351511356
 23
0.9905876454675885
 33
0.0
 40
0.0
 40
0.0
 40
0.0
 40
0.0
 40
0.0052654052706431
 40
0.0105308427202471
 40
0.0157962480075902
 40
0.0157962480075902
 40
0.0157962480075902
 40
0.0157962480075902
 10
6.147365452377222
 20
7.033912806042377
 30
0.0
 10
6.147365452377222
 20
7.035667941132592
 30
0.0
 10
6.147285094815828
 20
7.03917877324659
 30
0.0
 10
6.146923765464889
 20
7.044433436142916
 30
0.0
 10
6.146522804155315
 20
7.04792222240037
 30
0.0
 10
6.146282561377224
 20
7.049660837542377
 30
0.0
 11
6.147365452377222
 21
7.033912806042377
 31
0.0
 11
6.147244963077222
 21
7.039176832542377
 31
0.0
 11
6.146883745777222
 21
7.044429865342377
 31
0.0
 11
6.146282561377224
 21
7.049660837542377
 31
0.0
  0
SPLINE
  5
37E
330
1F
100
AcDbEntity
  8
0
  6
Continuous
 62
     7
100
AcDbSpline
210
0.0
220
0.0
230
1.0
 70
     8
 71
     3
 72
    10
 73
     6
 74
     4
 42
0.0000000001
 43
0.0000000001
 44
0.0000000001
 12
0.1368799351511356
 22
0.9905876454675885
 32
0.0
 13
0.0
 23
1.0
 33
0.0
 40
0.0
 40
0.0
 40
0.0
 40
0.0
 40
0.0052654052873431
 40
0.0105308427369462
 40
0.0157962480075893
 40
0.0157962480075893
 40
0.0157962480075893
 40
0.0157962480075893
 10
6.146282561377224
 20
7.018164774542378
 30
0.0
 10
6.146522804155315
 20
7.019903389684385
 30
0.0
 10
6.14692376546489
 20
7.02339217594184
 30
0.0
 10
6.14728509481583
 20
7.028646838838165
 30
0.0
 10
6.147365452377222
 20
7.032157670952162
 30
0.0
 10
6.147365452377222
 20
7.033912806042377
 30
0.0
 11
6.146282561377224
 21
7.018164774542378
 31
0.0
 11
6.146883745777222
 21
7.023395746742378
 31
0.0
 11
6.147244963077222
 21
7.028648779542377
 31
0.0
 11
6.147365452377222
 21
7.033912806042377
 31
0.0
  0
SPLINE
  5
37F
330
1F
100
AcDbEntity
  8
0
  6
Continuous
 62
     7
100
AcDbSpline
210
0.0
220
0.0
230
1.0
 70
     8
 71
     3
 72
    31
 73
    27
 74
    25
 42
0.0000000001
 43
0.0000000001
 44
0.0000000001
 12
0.0
 22
-1.0
 32
0.0
 13
0.0
 23
1.0
 33
0.0
 40
0.0
 40
0.0
 40
0.0
 40
0.0
 40
0.0207176295422844
 40
0.0432200989549118
 40
0.0673185398444305
 40
0.0926751258135427
 40
0.1188110966084914
 40
0.1451494134055628
 40
0.171086105940322
 40
0.1960700834747469
 40
0.2080778234407026
 40
0.2196942367391463
 40
0.2308882091662988
 40
0.2416379153551947
 40
0.2468428974955255
 40
0.2519323802404357
 40
0.2544337754457705
 40
0.2569190466478754
 40
0.2619699029156835
 40
0.2671364647003804
 40
0.2724179651338821
 40
0.2833176385322478
 40
0.3063802547317799
 40
0.3309430602364788
 40
0.3566187017579583
 40
0.3828892246927791
 40
0.3828892246927791
 40
0.3828892246927791
 40
0.3828892246927791
 10
3.376803675977222
 20
7.033912806042377
 30
0.0
 10
3.376803675977222
 20
7.027006929528282
 30
0.0
 10
3.37557537780022
 20
7.012571533585604
 30
0.0
 10
3.369724896975522
 20
6.990780567372588
 30
0.0
 10
3.359148712191795
 20
6.96907602316068
 30
0.0
 10
3.343659913524174
 20
6.948970796249607
 30
0.0
 10
3.323715416607726
 20
6.932067836117645
 30
0.0
 10
3.300442538024626
 20
6.919726211854728
 30
0.0
 10
3.275459301483751
 20
6.912728367224822
 30
0.0
 10
3.254366173229873
 20
6.911378554464482
 30
0.0
 10
3.238204656265941
 20
6.912800745442812
 30
0.0
 10
3.226777315565773
 20
6.914933087282834
 30
0.0
 10
3.216005536516147
 20
6.918007177032922
 30
0.0
 10
3.207549675821634
 20
6.921266731022896
 30
0.0
 10
3.201181699653989
 20
6.924212707881357
 30
0.0
 10
3.197388274799628
 20
6.926165817029762
 30
0.0
 10
3.194451203392237
 20
6.927795506055894
 30
0.0
 10
3.19155915318064
 20
6.929478374382101
 30
0.0
 10
3.187965804607137
 20
6.931720606218031
 30
0.0
 10
3.183699838724747
 20
6.934637465778412
 30
0.0
 10
3.178001350033674
 20
6.938902880877138
 30
0.0
 10
3.168058982308299
 20
6.947427430574877
 30
0.0
 10
3.155071640890117
 20
6.962152039594421
 30
0.0
 10
3.142696203638295
 20
6.983411563812655
 30
0.0
 10
3.134587251867825
 20
7.007782324176256
 30
0.0
 10
3.132709187777222
 20
7.025155965064104
 30
0.0
 10
3.132709187777222
 20
7.033912806042377
 30
0.0
 11
3.376803675977222
 21
7.033912806042377
 31
0.0
 11
3.375045257877222
 21
7.013269934642377
 31
0.0
 11
3.369210875077223
 21
6.991536984842378
 31
0.0
 11
3.358653443277223
 21
6.969874217542377
 31
0.0
 11
3.343178414877223
 21
6.949787407242378
 31
0.0
 11
3.323239378377222
 21
6.932889957942378
 31
0.0
 11
3.299970825477223
 21
6.920549723842377
 31
0.0
 11
3.274995035477223
 21
6.913555302242378
 31
0.0
 11
3.250062307177222
 21
6.911955867042378
 31
0.0
 11
3.238100698177223
 21
6.913007403642377
 31
0.0
 11
3.226681447177222
 21
6.915138545242377
 31
0.0
 11
3.215917215577223
 21
6.918210407342377
 31
0.0
 11
3.205886892277222
 21
6.922076774842377
 31
0.0
 11
3.201162916677222
 21
6.924262156642376
 31
0.0
 11
3.196637976077223
 21
6.926591909242378
 31
0.0
 11
3.194450723877223
 21
6.927805542542377
 31
0.0
 11
3.192302656677223
 21
6.929055494642377
 31
0.0
 11
3.188017606577222
 21
6.931729348542377
 31
0.0
 11
3.183752696377223
 21
6.934645493542378
 31
0.0
 11
3.179524468477223
 21
6.937810353042378
 31
0.0
 11
3.171250422777223
 21
6.944905636542377
 31
0.0
 11
3.155997354577222
 21
6.962203849642378
 31
0.0
 11
3.143638791777223
 21
6.983431127842377
 31
0.0
 11
3.135536537077223
 21
7.007794872142378
 31
0.0
 11
3.132709187777222
 21
7.033912806042377
 31
0.0
  0
SPLINE
  5
380
330
1F
100
AcDbEntity
  8
0
  6
Continuous
 62
     7
100
AcDbSpline
210
0.0
220
0.0
230
1.0
 70
     8
 71
     3
 72
    31
 73
    27
 74
    25
 42
0.0000000001
 43
0.0000000001
 44
0.0000000001
 12
0.0
 22
1.0
 32
0.0
 13
0.0
 23
-1.0
 33
0.0
 40
0.0
 40
0.0
 40
0.0
 40
0.0
 40
0.0262705229348217
 40
0.0519461645511909
 40
0.0765089699694701
 40
0.099571586244007
 40
0.1104712595772763
 40
0.1157527600107786
 40
0.1209193217954755
 40
0.1259701780632831
 40
0.128455449265388
 40
0.1309568444707232
 40
0.1360463272156327
 40
0.1412513093979501
 40
0.1520010155508792
 40
0.1631949879780314
 40
0.1748114012764751
 40
0.1868191412511881
 40
0.2118031187920148
 40
0.2377398113267743
 40
0.2640781281238456
 40
0.2902140989187938
 40
0.3155706848086886
 40
0.3396691257881002
 40
0.3621715951041482
 40
0.3828892247460717
 40
0.3828892247460717
 40
0.3828892247460717
 40
0.3828892247460717
 10
3.132709187777222
 20
7.033912806042377
 30
0.0
 10
3.132709187777222
 20
7.042669647020651
 30
0.0
 10
3.13458725189456
 20
7.060043287929021
 30
0.0
 10
3.142696203574273
 20
7.084414048341892
 30
0.0
 10
3.155071640976839
 20
7.105673572486391
 30
0.0
 10
3.168058982220609
 20
7.120398181636963
 30
0.0
 10
3.17800135005908
 20
7.128922731211543
 30
0.0
 10
3.183699838723282
 20
7.133188146308015
 30
0.0
 10
3.187965804607581
 20
7.136105005866158
 30
0.0
 10
3.191559153180419
 20
7.138347237703093
 30
0.0
 10
3.194451203392546
 20
7.140030106028192
 30
0.0
 10
3.197388274797965
 20
7.141659795058639
 30
0.0
 10
3.201181699680212
 20
7.143612904179546
 30
0.0
 10
3.207549675761557
 20
7.146558881232513
 30
0.0
 10
3.216005536552642
 20
7.1498184349933
 30
0.0
 10
3.226777315558088
 20
7.152892524827627
 30
0.0
 10
3.238204656273376
 20
7.155024866603042
 30
0.0
 10
3.254366173221881
 20
7.156447057819659
 30
0.0
 10
3.275459301482343
 20
7.155097244789661
 30
0.0
 10
3.300442538022982
 20
7.148099400248633
 30
0.0
 10
3.323715416613687
 20
7.135757775965957
 30
0.0
 10
3.343659913482179
 20
7.118854815838675
 30
0.0
 10
3.359148712256301
 20
7.098749588996916
 30
0.0
 10
3.36972489692491
 20
7.077045044757736
 30
0.0
 10
3.375575377830184
 20
7.055254078540216
 30
0.0
 10
3.376803675977222
 20
7.040818682589685
 30
0.0
 10
3.376803675977222
 20
7.033912806042377
 30
0.0
 11
3.132709187777222
 21
7.033912806042377
 31
0.0
 11
3.135536537077223
 21
7.060030739942377
 31
0.0
 11
3.143638791777223
 21
7.084394484342378
 31
0.0
 11
3.155997354577222
 21
7.105621762442377
 31
0.0
 11
3.171250422777223
 21
7.122919975642377
 31
0.0
 11
3.179524468477223
 21
7.130015259042377
 31
0.0
 11
3.183752696377223
 21
7.133180118542377
 31
0.0
 11
3.188017606577222
 21
7.136096263542378
 31
0.0
 11
3.192302656677223
 21
7.138770117442377
 31
0.0
 11
3.194450723877223
 21
7.140020069542377
 31
0.0
 11
3.196637976077223
 21
7.141233702842377
 31
0.0
 11
3.201162916677222
 21
7.143563455442378
 31
0.0
 11
3.205886892277222
 21
7.145748837342377
 31
0.0
 11
3.215917215577223
 21
7.149615204742378
 31
0.0
 11
3.226681447177222
 21
7.152687066842378
 31
0.0
 11
3.238100698177223
 21
7.154818208442377
 31
0.0
 11
3.250062307177222
 21
7.155869745142378
 31
0.0
 11
3.274995035477223
 21
7.154270309842377
 31
0.0
 11
3.299970825477223
 21
7.147275888242377
 31
0.0
 11
3.323239378377222
 21
7.134935654142377
 31
0.0
 11
3.343178414877223
 21
7.118038204842378
 31
0.0
 11
3.358653443277223
 21
7.097951394642378
 31
0.0
 11
3.369210875077223
 21
7.076288627242377
 31
0.0
 11
3.375045257877222
 21
7.054555677542377
 31
0.0
 11
3.376803675977222
 21
7.033912806042377
 31
0.0
  0
SPLINE
  5
381
330
1F
100
AcDbEntity
  8
0
  6
Continuous
 62
     7
100
AcDbSpline
210
0.0
220
0.0
230
1.0
 70
     8
 71
     3
 72
    10
 73
     6
 74
     4
 42
0.0000000001
 43
0.0000000001
 44
0.0000000001
 12
0.0
 22
1.0
 32
0.0
 13
-0.1368799351511356
 23
0.9905876454675885
 33
0.0
 40
0.0
 40
0.0
 40
0.0
 40
0.0
 40
0.0052654052683548
 40
0.010530842724819
 40
0.0157962480121622
 40
0.0157962480121622
 40
0.0157962480121622
 40
0.0157962480121622
 10
3.369806397577223
 20
7.033912806042377
 30
0.0
 10
3.369806397577223
 20
7.035667941131829
 30
0.0
 10
3.369726040202151
 20
7.039178773253441
 30
0.0
 10
3.369364710611975
 20
7.044433436137595
 30
0.0
 10
3.368963749355315
 20
7.04792222240037
 30
0.0
 10
3.368723506577222
 20
7.049660837542377
 30
0.0
 11
3.369806397577223
 21
7.033912806042377
 31
0.0
 11
3.369685908377222
 21
7.039176832542377
 31
0.0
 11
3.369324690977222
 21
7.044429865342377
 31
0.0
 11
3.368723506577222
 21
7.049660837542377
 31
0.0
  0
SPLINE
  5
382
330
1F
100
AcDbEntity
  8
0
  6
Continuous
 62
     7
100
AcDbSpline
210
0.0
220
0.0
230
1.0
 70
     8
 71
     3
 72
    10
 73
     6
 74
     4
 42
0.0000000001
 43
0.0000000001
 44
0.0000000001
 12
0.1368799351511356
 22
0.9905876454675885
 32
0.0
 13
0.0
 23
1.0
 33
0.0
 40
0.0
 40
0.0
 40
0.0
 40
0.0
 40
0.0052654052873432
 40
0.0105308427438066
 40
0.0157962480121613
 40
0.0157962480121613
 40
0.0157962480121613
 40
0.0157962480121613
 10
3.368723506577222
 20
7.018164774542378
 30
0.0
 10
3.368963749355315
 20
7.019903389684385
 30
0.0
 10
3.369364710611975
 20
7.023392175947161
 30
0.0
 10
3.369726040202152
 20
7.028646838831311
 30
0.0
 10
3.369806397577223
 20
7.032157670952925
 30
0.0
 10
3.369806397577223
 20
7.033912806042377
 30
0.0
 11
3.368723506577222
 21
7.018164774542378
 31
0.0
 11
3.369324690977222
 21
7.023395746742378
 31
0.0
 11
3.369685908377222
 21
7.028648779542377
 31
0.0
 11
3.369806397577223
 21
7.033912806042377
 31
0.0
  0
SPLINE
  5
383
330
1F
100
AcDbEntity
  8
0
  6
Continuous
 62
     7
100
AcDbSpline
210
0.0
220
0.0
230
1.0
 70
     8
 71
     3
 72
    10
 73
     6
 74
     4
 42
0.0000000001
 43
0.0000000001
 44
0.0000000001
 12
0.0
 22
-1.0
 32
0.0
 13
0.1368799334343789
 23
-0.990587645704811
 33
0.0
 40
0.0
 40
0.0
 40
0.0
 40
0.0
 40
0.0052654052683547
 40
0.0105308427179579
 40
0.0157962481537305
 40
0.0157962481537305
 40
0.0157962481537305
 40
0.0157962481537305
 10
3.139706466277223
 20
7.033912806042377
 30
0.0
 10
3.139706466277223
 20
7.032157670952925
 30
0.0
 10
3.139786823863343
 20
7.028646838856039
 30
0.0
 10
3.140148152506638
 20
7.023392175823809
 30
0.0
 10
3.140549115695371
 20
7.019903389733812
 30
0.0
 10
3.140789358477222
 20
7.018164774542378
 30
0.0
 11
3.139706466277223
 21
7.033912806042377
 31
0.0
 11
3.139826955477223
 21
7.028648779542377
 31
0.0
 11
3.140188172777222
 21
7.023395746742378
 31
0.0
 11
3.140789358477222
 21
7.018164774542378
 31
0.0
  0
SPLINE
  5
384
330
1F
100
AcDbEntity
  8
0
  6
Continuous
 62
     7
100
AcDbSpline
210
0.0
220
0.0
230
1.0
 70
     8
 71
     3
 72
    10
 73
     6
 74
     4
 42
0.0000000001
 43
0.0000000001
 44
0.0000000001
 12
-0.1368799351511356
 22
-0.9905876454675885
 32
0.0
 13
0.0
 23
-1.0
 33
0.0
 40
0.0
 40
0.0
 40
0.0
 40
0.0
 40
0.0052654052987609
 40
0.0105308427483649
 40
0.0157962480167196
 40
0.0157962480167196
 40
0.0157962480167196
 40
0.0157962480167196
 10
3.140789357277222
 20
7.049660837542377
 30
0.0
 10
3.140549114498609
 20
7.0479222223966
 30
0.0
 10
3.140148153057127
 20
7.044433436151695
 30
0.0
 10
3.139786823705165
 20
7.039178773246909
 30
0.0
 10
3.139706466277223
 20
7.035667941131829
 30
0.0
 10
3.139706466277223
 20
7.033912806042377
 30
0.0
 11
3.140789357277222
 21
7.049660837542377
 31
0.0
 11
3.140188172777222
 21
7.044429865342377
 31
0.0
 11
3.139826955477223
 21
7.039176832542377
 31
0.0
 11
3.139706466277223
 21
7.033912806042377
 31
0.0
  0
SPLINE
  5
385
330
1F
100
AcDbEntity
  8
0
  6
Continuous
 62
     7
100
AcDbSpline
210
0.0
220
0.0
230
1.0
 70
     8
 71
     3
 72
    31
 73
    27
 74
    25
 42
0.0000000001
 43
0.0000000001
 44
0.0000000001
 12
0.0
 22
-1.0
 32
0.0
 13
0.0
 23
1.0
 33
0.0
 40
0.0
 40
0.0
 40
0.0
 40
0.0
 40
0.0207176296419263
 40
0.0432200990545519
 40
0.0673185399440706
 40
0.0926751258339655
 40
0.1188110966289142
 40
0.1451494134728379
 40
0.1710861059806301
 40
0.1960700835214569
 40
0.2080778234961699
 40
0.2196942367946137
 40
0.230888209194324
 40
0.2416379153832199
 40
0.246842897523551
 40
0.2519323803142359
 40
0.2544337755195715
 40
0.2569190467216764
 40
0.2619699029894845
 40
0.2671364647741809
 40
0.2724179651477587
 40
0.2833176385461255
 40
0.3063802548206623
 40
0.3309430602389416
 40
0.3566187017604194
 40
0.3828892247946611
 40
0.3828892247946611
 40
0.3828892247946611
 40
0.3828892247946611
 10
3.376803675977222
 20
5.923676585642378
 30
0.0
 10
3.376803675977222
 20
5.916770709095069
 30
0.0
 10
3.375575377812789
 20
5.902335313117061
 30
0.0
 10
3.369724896970527
 20
5.880544346875309
 30
0.0
 10
3.359148712220607
 20
5.858839802673585
 30
0.0
 10
3.34365991349149
 20
5.838734575834065
 30
0.0
 10
3.323715416582039
 20
5.821831615747795
 30
0.0
 10
3.300442538071286
 20
5.809489991282594
 30
0.0
 10
3.275459301459109
 20
5.802492146931225
 30
0.0
 10
3.254366173226458
 20
5.801142333869519
 30
0.0
 10
3.238204656268118
 20
5.80256452506763
 30
0.0
 10
3.226777315585243
 20
5.804696866909294
 30
0.0
 10
3.216005536494763
 20
5.807770956498503
 30
0.0
 10
3.20754967583248
 20
5.81103051054546
 30
0.0
 10
3.201181699623773
 20
5.813976487355724
 30
0.0
 10
3.197388274819938
 20
5.815929596635887
 30
0.0
 10
3.194451203390896
 20
5.817559285653339
 30
0.0
 10
3.191559153181857
 20
5.819242153984177
 30
0.0
 10
3.187965804602864
 20
5.82148438581215
 30
0.0
 10
3.183699838756484
 20
5.824401245387607
 30
0.0
 10
3.178001349981113
 20
5.828666660339816
 30
0.0
 10
3.168058982309188
 20
5.83719121012257
 30
0.0
 10
3.155071640947181
 20
5.851915819164069
 30
0.0
 10
3.142696203607837
 20
5.873175343327922
 30
0.0
 10
3.134587251860625
 20
5.897546103711435
 30
0.0
 10
3.132709187777222
 20
5.914919744630964
 30
0.0
 10
3.132709187777222
 20
5.923676585642378
 30
0.0
 11
3.376803675977222
 21
5.923676585642378
 31
0.0
 11
3.375045257877222
 21
5.903033714142376
 31
0.0
 11
3.369210875077223
 21
5.881300764342378
 31
0.0
 11
3.358653443277223
 21
5.859637997042377
 31
0.0
 11
3.343178414877223
 21
5.839551186842378
 31
0.0
 11
3.323239378377222
 21
5.822653737542378
 31
0.0
 11
3.299970825477223
 21
5.810313503342378
 31
0.0
 11
3.274995035477223
 21
5.803319081842378
 31
0.0
 11
3.250062307177222
 21
5.801719646542377
 31
0.0
 11
3.238100698177223
 21
5.802771183242378
 31
0.0
 11
3.226681447177222
 21
5.804902324842378
 31
0.0
 11
3.215917215577223
 21
5.807974186842378
 31
0.0
 11
3.205886892277222
 21
5.811840554342378
 31
0.0
 11
3.201162916677222
 21
5.814025936142377
 31
0.0
 11
3.196637976077223
 21
5.816355688842377
 31
0.0
 11
3.194450723877223
 21
5.817569322142378
 31
0.0
 11
3.192302656677223
 21
5.818819274242378
 31
0.0
 11
3.188017606577222
 21
5.821493128142378
 31
0.0
 11
3.183752696377223
 21
5.824409273142378
 31
0.0
 11
3.179524468477223
 21
5.827574132542377
 31
0.0
 11
3.171250422777223
 21
5.834669416042378
 31
0.0
 11
3.155997354577222
 21
5.851967629242378
 31
0.0
 11
3.143638791777223
 21
5.873194907342377
 31
0.0
 11
3.135536537077223
 21
5.897558651642377
 31
0.0
 11
3.132709187777222
 21
5.923676585642378
 31
0.0
  0
SPLINE
  5
386
330
1F
100
AcDbEntity
  8
0
  6
Continuous
 62
     7
100
AcDbSpline
210
0.0
220
0.0
230
1.0
 70
     8
 71
     3
 72
    31
 73
    27
 74
    25
 42
0.0000000001
 43
0.0000000001
 44
0.0000000001
 12
0.0
 22
1.0
 32
0.0
 13
0.0
 23
-1.0
 33
0.0
 40
0.0
 40
0.0
 40
0.0
 40
0.0
 40
0.0262705229348208
 40
0.0519461644562986
 40
0.0765089698745794
 40
0.0995715861491156
 40
0.1104712595474818
 40
0.1157527599210606
 40
0.120919321705757
 40
0.1259701779735651
 40
0.1284554491756695
 40
0.1309568443810048
 40
0.1360463271716896
 40
0.1412513093120215
 40
0.1520010155009174
 40
0.1631949879006275
 40
0.1748114011990714
 40
0.1868191411737843
 40
0.2118031187146109
 40
0.2377398112224038
 40
0.2640781280663267
 40
0.2902140988612755
 40
0.3155706847511711
 40
0.3396691256406882
 40
0.3621715950533165
 40
0.3828892245956009
 40
0.3828892245956009
 40
0.3828892245956009
 40
0.3828892245956009
 10
3.132709187777222
 20
5.923676585642378
 30
0.0
 10
3.132709187777222
 20
5.932433426620652
 30
0.0
 10
3.134587251874427
 20
5.949807067504828
 30
0.0
 10
3.142696203607009
 20
5.974177827856872
 30
0.0
 10
3.155071640947387
 20
5.995437352020681
 30
0.0
 10
3.168058982309165
 20
6.010161961062183
 30
0.0
 10
3.178001349981116
 20
6.01868651084494
 30
0.0
 10
3.183699838756483
 20
6.02295192579715
 30
0.0
 10
3.187965804602863
 20
6.025868785372606
 30
0.0
 10
3.191559153181858
 20
6.028111017200579
 30
0.0
 10
3.194451203390896
 20
6.029793885531417
 30
0.0
 10
3.197388274819937
 20
6.031423574548866
 30
0.0
 10
3.201181699623774
 20
6.033376683829028
 30
0.0
 10
3.207549675832479
 20
6.036322660639299
 30
0.0
 10
3.216005536494764
 20
6.039582214686254
 30
0.0
 10
3.226777315585242
 20
6.042656304275459
 30
0.0
 10
3.238204656268117
 20
6.044788646117129
 30
0.0
 10
3.254366173226459
 20
6.046210837315231
 30
0.0
 10
3.275459301459108
 20
6.044861024253535
 30
0.0
 10
3.30044253807129
 20
6.037863179902159
 30
0.0
 10
3.323715416582019
 20
6.025521555436959
 30
0.0
 10
3.34365991349156
 20
6.008618595350695
 30
0.0
 10
3.359148712220358
 20
5.988513368511158
 30
0.0
 10
3.369724896971381
 20
5.966808824309479
 30
0.0
 10
3.375575377801272
 20
5.945017858099832
 30
0.0
 10
3.376803675977222
 20
5.930582462156473
 30
0.0
 10
3.376803675977222
 20
5.923676585642378
 30
0.0
 11
3.132709187777222
 21
5.923676585642378
 31
0.0
 11
3.135536537077223
 21
5.949794519542377
 31
0.0
 11
3.143638791777223
 21
5.974158263842377
 31
0.0
 11
3.155997354577222
 21
5.995385541942378
 31
0.0
 11
3.171250422777223
 21
6.012683755142377
 31
0.0
 11
3.179524468477223
 21
6.019779038642377
 31
0.0
 11
3.183752696377223
 21
6.022943898042378
 31
0.0
 11
3.188017606577222
 21
6.025860043042378
 31
0.0
 11
3.192302656677223
 21
6.028533896942378
 31
0.0
 11
3.194450723877223
 21
6.029783849042377
 31
0.0
 11
3.196637976077223
 21
6.030997482342377
 31
0.0
 11
3.201162916677222
 21
6.033327235042377
 31
0.0
 11
3.205886892277222
 21
6.035512616842378
 31
0.0
 11
3.215917215577223
 21
6.039378984342378
 31
0.0
 11
3.226681447177222
 21
6.042450846342378
 31
0.0
 11
3.238100698177223
 21
6.044581987942378
 31
0.0
 11
3.250062307177222
 21
6.045633524642378
 31
0.0
 11
3.274995035477223
 21
6.044034089342378
 31
0.0
 11
3.299970825477223
 21
6.037039667842376
 31
0.0
 11
3.323239378377222
 21
6.024699433642378
 31
0.0
 11
3.343178414877223
 21
6.007801984342377
 31
0.0
 11
3.358653443277223
 21
5.987715174142377
 31
0.0
 11
3.369210875077223
 21
5.966052406842378
 31
0.0
 11
3.375045257877222
 21
5.944319457042378
 31
0.0
 11
3.376803675977222
 21
5.923676585642378
 31
0.0
  0
SPLINE
  5
387
330
1F
100
AcDbEntity
  8
0
  6
Continuous
 62
     7
100
AcDbSpline
210
0.0
220
0.0
230
1.0
 70
     8
 71
     3
 72
    10
 73
     6
 74
     4
 42
0.0000000001
 43
0.0000000001
 44
0.0000000001
 12
0.0
 22
1.0
 32
0.0
 13
-0.1368799351511356
 23
0.9905876454675885
 33
0.0
 40
0.0
 40
0.0
 40
0.0
 40
0.0
 40
0.0052654052683548
 40
0.010530842724819
 40
0.0157962479128153
 40
0.0157962479128153
 40
0.0157962479128153
 40
0.0157962479128153
 10
3.369806397577223
 20
5.923676585642378
 30
0.0
 10
3.369806397577223
 20
5.92543172073183
 30
0.0
 10
3.369726040200539
 20
5.928942552853261
 30
0.0
 10
3.369364710619894
 20
5.934197215705189
 30
0.0
 10
3.368963749350782
 20
5.937686001933174
 30
0.0
 10
3.368723506577222
 20
5.939424617042377
 30
0.0
 11
3.369806397577223
 21
5.923676585642378
 31
0.0
 11
3.369685908377222
 21
5.928940612142378
 31
0.0
 11
3.369324690977222
 21
5.934193644942378
 31
0.0
 11
3.368723506577222
 21
5.939424617042377
 31
0.0
  0
SPLINE
  5
388
330
1F
100
AcDbEntity
  8
0
  6
Continuous
 62
     7
100
AcDbSpline
210
0.0
220
0.0
230
1.0
 70
     8
 71
     3
 72
    10
 73
     6
 74
     4
 42
0.0000000001
 43
0.0000000001
 44
0.0000000001
 12
0.1368799351511356
 22
0.9905876454675885
 32
0.0
 13
0.0
 23
1.0
 33
0.0
 40
0.0
 40
0.0
 40
0.0
 40
0.0
 40
0.0052654052873432
 40
0.010530842644043
 40
0.0157962480123725
 40
0.0157962480123725
 40
0.0157962480123725
 40
0.0157962480123725
 10
3.368723506577222
 20
5.907928554142377
 30
0.0
 10
3.368963749355315
 20
5.909667169284384
 30
0.0
 10
3.36936471060574
 20
5.913155955514254
 30
0.0
 10
3.369726040209157
 20
5.918410618397605
 30
0.0
 10
3.369806397577223
 20
5.921921450519602
 30
0.0
 10
3.369806397577223
 20
5.923676585642378
 30
0.0
 11
3.368723506577222
 21
5.907928554142377
 31
0.0
 11
3.369324690977222
 21
5.913159526342377
 31
0.0
 11
3.369685908377222
 21
5.918412559042377
 31
0.0
 11
3.369806397577223
 21
5.923676585642378
 31
0.0
  0
SPLINE
  5
389
330
1F
100
AcDbEntity
  8
0
  6
Continuous
 62
     7
100
AcDbSpline
210
0.0
220
0.0
230
1.0
 70
     8
 71
     3
 72
    10
 73
     6
 74
     4
 42
0.0000000001
 43
0.0000000001
 44
0.0000000001
 12
0.0
 22
-1.0
 32
0.0
 13
0.1368799334343789
 23
-0.990587645704811
 33
0.0
 40
0.0
 40
0.0
 40
0.0
 40
0.0
 40
0.0052654053683295
 40
0.0105308427181691
 40
0.0157962481539416
 40
0.0157962481539416
 40
0.0157962481539416
 40
0.0157962481539416
 10
3.139706466277223
 20
5.923676585642378
 30
0.0
 10
3.139706466277223
 20
5.921921450519602
 30
0.0
 10
3.139786823856338
 20
5.918410618422331
 30
0.0
 10
3.140148152512872
 20
5.913155955390905
 30
0.0
 10
3.140549115695371
 20
5.909667169333811
 30
0.0
 10
3.140789358477222
 20
5.907928554142377
 30
0.0
 11
3.139706466277223
 21
5.923676585642378
 31
0.0
 11
3.139826955477223
 21
5.918412559042377
 31
0.0
 11
3.140188172777222
 21
5.913159526342377
 31
0.0
 11
3.140789358477222
 21
5.907928554142377
 31
0.0
  0
SPLINE
  5
38A
330
1F
100
AcDbEntity
  8
0
  6
Continuous
 62
     7
100
AcDbSpline
210
0.0
220
0.0
230
1.0
 70
     8
 71
     3
 72
    10
 73
     6
 74
     4
 42
0.0000000001
 43
0.0000000001
 44
0.0000000001
 12
-0.1368799351511356
 22
-0.9905876454675885
 32
0.0
 13
0.0
 23
-1.0
 33
0.0
 40
0.0
 40
0.0
 40
0.0
 40
0.0
 40
0.0052654051994139
 40
0.0105308426490179
 40
0.0157962479173727
 40
0.0157962479173727
 40
0.0157962479173727
 40
0.0157962479173727
 10
3.140789357277222
 20
5.939424617042377
 30
0.0
 10
3.140549114503142
 20
5.937686001929404
 30
0.0
 10
3.14014815304921
 20
5.934197215719292
 30
0.0
 10
3.139786823706778
 20
5.928942552846726
 30
0.0
 10
3.139706466277223
 20
5.92543172073183
 30
0.0
 10
3.139706466277223
 20
5.923676585642378
 30
0.0
 11
3.140789357277222
 21
5.939424617042377
 31
0.0
 11
3.140188172777222
 21
5.934193644942378
 31
0.0
 11
3.139826955477223
 21
5.928940612142378
 31
0.0
 11
3.139706466277223
 21
5.923676585642378
 31
0.0
  0
SPLINE
  5
38B
330
1F
100
AcDbEntity
  8
0
  6
Continuous
 62
     7
100
AcDbSpline
210
0.0
220
0.0
230
1.0
 70
     8
 71
     3
 72
    22
 73
    18
 74
    16
 42
0.0000000001
 43
0.0000000001
 44
0.0000000001
 12
0.0
 22
-1.0
 32
0.0
 13
0.0
 23
1.0
 33
0.0
 40
0.0
 40
0.0
 40
0.0
 40
0.0
 40
0.0624814030022634
 40
0.0921944741024567
 40
0.1200928002535228
 40
0.145889097217593
 40
0.1580283806162033
 40
0.1704785936373327
 40
0.1969965477667493
 40
0.2255406814990414
 40
0.2557632349442512
 40
0.2871382662233731
 40
0.3189991334115363
 40
0.3506152271255516
 40
0.3812885164762342
 40
0.4104398563324728
 40
0.4625172890652542
 40
0.4625172890652542
 40
0.4625172890652542
 40
0.4625172890652542
 10
3.402394261777223
 20
5.923676740642378
 30
0.0
 10
3.402394261777223
 20
5.90284960630829
 30
0.0
 10
3.395620018091459
 20
5.871610197013103
 30
0.0
 10
3.375340019505559
 20
5.836882806092471
 30
0.0
 10
3.356843803546983
 20
5.815887848605552
 30
0.0
 10
3.33949300261957
 20
5.802259720618215
 30
0.0
 10
3.325051102395331
 20
5.793653730636552
 30
0.0
 10
3.30972716822263
 20
5.786171592088399
 30
0.0
 10
3.288256322180402
 20
5.779005163376703
 30
0.0
 10
3.259914209400346
 20
5.775147363321464
 30
0.0
 10
3.229716471000483
 20
5.777083226556703
 30
0.0
 10
3.199489965419677
 20
5.785547398094127
 30
0.0
 10
3.171338613818675
 20
5.800478198820013
 30
0.0
 10
3.147211887236783
 20
5.820920715624252
 30
0.0
 10
3.128475402210705
 20
5.845257816373718
 30
0.0
 10
3.112028766805886
 20
5.878938679764697
 30
0.0
 10
3.107118671177223
 20
5.906317596398118
 30
0.0
 10
3.107118671177223
 20
5.923676740642378
 30
0.0
 11
3.402394261777223
 21
5.923676740642378
 31
0.0
 11
3.389172966677223
 21
5.862610194342378
 31
0.0
 11
3.374223092277222
 21
5.836932035342377
 31
0.0
 11
3.355771800077222
 21
5.816006777442377
 31
0.0
 11
3.335488916477223
 21
5.800067719442377
 31
0.0
 11
3.325061050077223
 21
5.793853075142378
 31
0.0
 11
3.313872845077223
 21
5.788391218942377
 31
0.0
 11
3.288718141477223
 21
5.779998199342378
 31
0.0
 11
3.260434843177223
 21
5.776148185342377
 31
0.0
 11
3.230274284777222
 21
5.778082986042377
 31
0.0
 11
3.200061635577223
 21
5.786543979842377
 31
0.0
 11
3.171914192477223
 21
5.801471682442377
 31
0.0
 11
3.147794390277223
 21
5.821912145342377
 31
0.0
 11
3.129074597877222
 21
5.846210706042377
 31
0.0
 11
3.116303510977223
 21
5.872415666542377
 31
0.0
 11
3.107118671177223
 21
5.923676740642378
 31
0.0
  0
SPLINE
  5
38C
330
1F
100
AcDbEntity
  8
0
  6
Continuous
 62
     7
100
AcDbSpline
210
0.0
220
0.0
230
1.0
 70
     8
 71
     3
 72
    22
 73
    18
 74
    16
 42
0.0000000001
 43
0.0000000001
 44
0.0000000001
 12
0.0
 22
1.0
 32
0.0
 13
0.0
 23
-1.0
 33
0.0
 40
0.0
 40
0.0
 40
0.0
 40
0.0
 40
0.0520774326343489
 40
0.0812287724905868
 40
0.1119020619204866
 40
0.1435181555698498
 40
0.175379022758013
 40
0.2067540540641022
 40
0.2369766075093119
 40
0.2655207412550919
 40
0.2920386953845084
 40
0.3044889084056379
 40
0.3166281918042482
 40
0.3424244887683189
 40
0.3703228148443796
 40
0.4000358859445715
 40
0.4625172889468357
 40
0.4625172889468357
 40
0.4625172889468357
 40
0.4625172889468357
 10
3.107118671177223
 20
5.923676740642378
 30
0.0
 10
3.107118671177223
 20
5.941035884853827
 30
0.0
 10
3.112028766811833
 20
5.968414801459018
 30
0.0
 10
3.128475402243843
 20
6.002095664816598
 30
0.0
 10
3.147211887168703
 20
6.026432765658434
 30
0.0
 10
3.171338613857105
 20
6.046875282359605
 30
0.0
 10
3.199489965432197
 20
6.061806083068965
 30
0.0
 10
3.229716470982419
 20
6.070270254746876
 30
0.0
 10
3.259914209412014
 20
6.072206117994555
 30
0.0
 10
3.288256322170923
 20
6.068348317777207
 30
0.0
 10
3.309727168223403
 20
6.061181889100133
 30
0.0
 10
3.325051102394909
 20
6.053699750547299
 30
0.0
 10
3.339493002621399
 20
6.045093760568466
 30
0.0
 10
3.356843803511325
 20
6.031465632580697
 30
0.0
 10
3.375340019538818
 20
6.010470675188656
 30
0.0
 10
3.395620018078102
 20
5.975743284259937
 30
0.0
 10
3.402394261777223
 20
5.944503874976466
 30
0.0
 10
3.402394261777223
 20
5.923676740642378
 30
0.0
 11
3.107118671177223
 21
5.923676740642378
 31
0.0
 11
3.116303510977223
 21
5.974937814642378
 31
0.0
 11
3.129074597877222
 21
6.001142775142377
 31
0.0
 11
3.147794390277223
 21
6.025441335942377
 31
0.0
 11
3.171914192477223
 21
6.045881798742377
 31
0.0
 11
3.200061635577223
 21
6.060809501342377
 31
0.0
 11
3.230274284777222
 21
6.069270495242377
 31
0.0
 11
3.260434843177223
 21
6.071205295942378
 31
0.0
 11
3.288718141477223
 21
6.067355281842377
 31
0.0
 11
3.313872845077223
 21
6.058962262242378
 31
0.0
 11
3.325061050077223
 21
6.053500406042378
 31
0.0
 11
3.335488916477223
 21
6.047285761742378
 31
0.0
 11
3.355771800077222
 21
6.031346703742377
 31
0.0
 11
3.374223092277222
 21
6.010421445942378
 31
0.0
 11
3.389172966677223
 21
5.984743286942378
 31
0.0
 11
3.402394261777223
 21
5.923676740642378
 31
0.0
  0
SPLINE
  5
38D
330
1F
100
AcDbEntity
  8
0
  6
Continuous
 62
     7
100
AcDbSpline
210
0.0
220
0.0
230
1.0
 70
     8
 71
     3
 72
    22
 73
    18
 74
    16
 42
0.0000000001
 43
0.0000000001
 44
0.0000000001
 12
0.0
 22
1.0
 32
0.0
 13
0.0
 23
-1.0
 33
0.0
 40
0.0
 40
0.0
 40
0.0
 40
0.0
 40
0.0624814030022633
 40
0.092194474052141
 40
0.1200928002693451
 40
0.1458890972334162
 40
0.1580283805461241
 40
0.1704785936571171
 40
0.1969965476916748
 40
0.2255406814239667
 40
0.2557632349689713
 40
0.2871382662750612
 40
0.3189991333280266
 40
0.350615227118331
 40
0.3812885164079832
 40
0.4104398563080323
 40
0.4625172890408128
 40
0.4625172890408128
 40
0.4625172890408128
 40
0.4625172890408128
 10
3.107118671177223
 20
6.478794850842378
 30
0.0
 10
3.107118671177223
 20
6.499621985176466
 30
0.0
 10
3.113892914932743
 20
6.530861394409614
 30
0.0
 10
3.134172913328379
 20
6.565588785452423
 30
0.0
 10
3.152669129407132
 20
6.586583742859866
 30
0.0
 10
3.170019930333293
 20
6.600211870809328
 30
0.0
 10
3.184461830496219
 20
6.608817860903332
 30
0.0
 10
3.199785764697905
 20
6.616299999325333
 30
0.0
 10
3.221256610693185
 20
6.623466428146251
 30
0.0
 10
3.24959872348875
 20
6.627324228146298
 30
0.0
 10
3.279796461938259
 20
6.625388364972293
 30
0.0
 10
3.310022967474487
 20
6.616924193267489
 30
0.0
 10
3.338174319078615
 20
6.60199339262289
 30
0.0
 10
3.362301045730541
 20
6.58155087592713
 30
0.0
 10
3.381037530608454
 20
6.557213775048078
 30
0.0
 10
3.397484166213593
 20
6.523532911771474
 30
0.0
 10
3.402394261777223
 20
6.496153995086638
 30
0.0
 10
3.402394261777223
 20
6.478794850842378
 30
0.0
 11
3.107118671177223
 21
6.478794850842378
 31
0.0
 11
3.120339966277223
 21
6.539861397142377
 31
0.0
 11
3.135289840577223
 21
6.565539556142377
 31
0.0
 11
3.153741132877222
 21
6.586464814042377
 31
0.0
 11
3.174024016477222
 21
6.602403872042378
 31
0.0
 11
3.184451882777223
 21
6.608618516342377
 31
0.0
 11
3.195640087877222
 21
6.614080372542377
 31
0.0
 11
3.220794791377223
 21
6.622473392142378
 31
0.0
 11
3.249078089677222
 21
6.626323406142377
 31
0.0
 11
3.279238648177223
 21
6.624388605442378
 31
0.0
 11
3.309451297377223
 21
6.615927611542377
 31
0.0
 11
3.337598740377222
 21
6.600999909042377
 31
0.0
 11
3.361718542677222
 21
6.580559446142378
 31
0.0
 11
3.380438334977223
 21
6.556260885442378
 31
0.0
 11
3.393209421977223
 21
6.530055924942377
 31
0.0
 11
3.402394261777223
 21
6.478794850842378
 31
0.0
  0
SPLINE
  5
38E
330
1F
100
AcDbEntity
  8
0
  6
Continuous
 62
     7
100
AcDbSpline
210
0.0
220
0.0
230
1.0
 70
     8
 71
     3
 72
    22
 73
    18
 74
    16
 42
0.0000000001
 43
0.0000000001
 44
0.0000000001
 12
0.0
 22
-1.0
 32
0.0
 13
0.0
 23
1.0
 33
0.0
 40
0.0
 40
0.0
 40
0.0
 40
0.0
 40
0.052077432634349
 40
0.0812287725343972
 40
0.1119020619032668
 40
0.1435181556935723
 40
0.1753790227465378
 40
0.2067540540526274
 40
0.236976607597632
 40
0.265520741329924
 40
0.2920386953644811
 40
0.3044889085193441
 40
0.316628191780858
 40
0.342424488744928
 40
0.3703228149621328
 40
0.4000358860120106
 40
0.4625172890142747
 40
0.4625172890142747
 40
0.4625172890142747
 40
0.4625172890142747
 10
3.402394261777223
 20
6.478794850842378
 30
0.0
 10
3.402394261777223
 20
6.461435706630928
 30
0.0
 10
3.397484166205369
 20
6.4340567899768
 30
0.0
 10
3.381037530579689
 20
6.40037592672635
 30
0.0
 10
3.362301045767606
 20
6.376038825761854
 30
0.0
 10
3.338174319074111
 20
6.35559630906559
 30
0.0
 10
3.310022967475348
 20
6.340665508415632
 30
0.0
 10
3.27979646193923
 20
6.332201336715225
 30
0.0
 10
3.249598723484344
 20
6.330265473529579
 30
0.0
 10
3.221256610708419
 20
6.334123273568515
 30
0.0
 10
3.199785764643101
 20
6.341289702283743
 30
0.0
 10
3.184461830550997
 20
6.348771840916092
 30
0.0
 10
3.170019930275921
 20
6.357377830809609
 30
0.0
 10
3.152669129423565
 20
6.371005958853501
 30
0.0
 10
3.134172913323594
 20
6.392000916224002
 30
0.0
 10
3.113892914935845
 20
6.426728307280546
 30
0.0
 10
3.107118671177223
 20
6.45796771650829
 30
0.0
 10
3.107118671177223
 20
6.478794850842378
 30
0.0
 11
3.402394261777223
 21
6.478794850842378
 31
0.0
 11
3.393209421977223
 21
6.427533776842378
 31
0.0
 11
3.380438334977223
 21
6.401328816342378
 31
0.0
 11
3.361718542677222
 21
6.377030255542378
 31
0.0
 11
3.337598740377222
 21
6.356589792642378
 31
0.0
 11
3.309451297377223
 21
6.341662090142377
 31
0.0
 11
3.279238648177223
 21
6.333201096242377
 31
0.0
 11
3.249078089677222
 21
6.331266295542378
 31
0.0
 11
3.220794791377223
 21
6.335116309542378
 31
0.0
 11
3.195640087877222
 21
6.343509329142377
 31
0.0
 11
3.184451882777223
 21
6.348971185442378
 31
0.0
 11
3.174024016477222
 21
6.355185829642378
 31
0.0
 11
3.153741132877222
 21
6.371124887642377
 31
0.0
 11
3.135289840577223
 21
6.392050145542378
 31
0.0
 11
3.120339966277223
 21
6.417728304542378
 31
0.0
 11
3.107118671177223
 21
6.478794850842378
 31
0.0
  0
SPLINE
  5
38F
330
1F
100
AcDbEntity
  8
0
  6
Continuous
 62
     7
100
AcDbSpline
210
0.0
220
0.0
230
1.0
 70
     8
 71
     3
 72
    22
 73
    18
 74
    16
 42
0.0000000001
 43
0.0000000001
 44
0.0000000001
 12
0.0
 22
-1.0
 32
0.0
 13
0.0
 23
1.0
 33
0.0
 40
0.0
 40
0.0
 40
0.0
 40
0.0
 40
0.0624814029045287
 40
0.0921944740911409
 40
0.1200928001672036
 40
0.1458890971312727
 40
0.1580283805298829
 40
0.1704785935510124
 40
0.196996547680429
 40
0.2255406814262089
 40
0.2557632348778204
 40
0.2871382661569423
 40
0.3189991333451063
 40
0.3506152270591216
 40
0.3812885164098035
 40
0.4104398562660422
 40
0.462517288900391
 40
0.462517288900391
 40
0.462517288900391
 40
0.462517288900391
 10
3.402394261777223
 20
7.033912961042378
 30
0.0
 10
3.402394261777223
 20
7.013085826740868
 30
0.0
 10
3.395620018011258
 20
6.981846417491252
 30
0.0
 10
3.375340019570713
 20
6.947119026510804
 30
0.0
 10
3.356843803508213
 20
6.926124069105823
 30
0.0
 10
3.339493002621734
 20
6.912495941115976
 30
0.0
 10
3.325051102394865
 20
6.903889951137688
 30
0.0
 10
3.309727168223331
 20
6.896407812583452
 30
0.0
 10
3.288256322171911
 20
6.889241383917847
 30
0.0
 10
3.259914209405826
 20
6.885383583648225
 30
0.0
 10
3.229716471003512
 20
6.887319447105547
 30
0.0
 10
3.199489965419423
 20
6.895783618580439
 30
0.0
 10
3.171338613818698
 20
6.910714419323674
 30
0.0
 10
3.147211887236947
 20
6.93115693612332
 30
0.0
 10
3.128475402210068
 20
6.955494036873904
 30
0.0
 10
3.112028766823361
 20
6.989174900235161
 30
0.0
 10
3.107118671177223
 20
7.016553816830928
 30
0.0
 10
3.107118671177223
 20
7.033912961042378
 30
0.0
 11
3.402394261777223
 21
7.033912961042378
 31
0.0
 11
3.389172966677223
 21
6.972846414842377
 31
0.0
 11
3.374223092277222
 21
6.947168255742377
 31
0.0
 11
3.355771800077222
 21
6.926242997942376
 31
0.0
 11
3.335488916477223
 21
6.910303939942378
 31
0.0
 11
3.325061050077223
 21
6.904089295642378
 31
0.0
 11
3.313872845077223
 21
6.898627439442377
 31
0.0
 11
3.288718141477223
 21
6.890234419842378
 31
0.0
 11
3.260434843177223
 21
6.886384405742377
 31
0.0
 11
3.230274284777222
 21
6.888319206542377
 31
0.0
 11
3.200061635577223
 21
6.896780200342377
 31
0.0
 11
3.171914192477223
 21
6.911707902942378
 31
0.0
 11
3.147794390277223
 21
6.932148365842378
 31
0.0
 11
3.129074597877222
 21
6.956446926542377
 31
0.0
 11
3.116303510977223
 21
6.982651887042377
 31
0.0
 11
3.107118671177223
 21
7.033912961042378
 31
0.0
  0
SPLINE
  5
390
330
1F
100
AcDbEntity
  8
0
  6
Continuous
 62
     7
100
AcDbSpline
210
0.0
220
0.0
230
1.0
 70
     8
 71
     3
 72
    22
 73
    18
 74
    16
 42
0.0000000001
 43
0.0000000001
 44
0.0000000001
 12
0.0
 22
1.0
 32
0.0
 13
0.0
 23
-1.0
 33
0.0
 40
0.0
 40
0.0
 40
0.0
 40
0.0
 40
0.0520774327327804
 40
0.0812287725890199
 40
0.1119020619397017
 40
0.1435181556537176
 40
0.1753790228418807
 40
0.2067540541210026
 40
0.2369766075726141
 40
0.265520741318394
 40
0.2920386954478108
 40
0.3044889084689403
 40
0.31662819186755
 40
0.3424244888316203
 40
0.3703228149076823
 40
0.4000358860942938
 40
0.462517289096558
 40
0.462517289096558
 40
0.462517289096558
 40
0.462517289096558
 10
3.107118671177223
 20
7.033912961042378
 30
0.0
 10
3.107118671177223
 20
7.051272105286638
 30
0.0
 10
3.112028766805885
 20
7.078651021920176
 30
0.0
 10
3.128475402210709
 20
7.112331885310807
 30
0.0
 10
3.147211887236766
 20
7.136668986061447
 30
0.0
 10
3.171338613818746
 20
7.157111502861077
 30
0.0
 10
3.19948996541941
 20
7.172042303604319
 30
0.0
 10
3.229716471003515
 20
7.180506475079207
 30
0.0
 10
3.259914209405824
 20
7.18244233853653
 30
0.0
 10
3.288256322171912
 20
7.17858453826691
 30
0.0
 10
3.309727168223329
 20
7.171418109601302
 30
0.0
 10
3.325051102394867
 20
7.163935971047067
 30
0.0
 10
3.339493002621721
 20
7.155329981068779
 30
0.0
 10
3.356843803508341
 20
7.141701853078942
 30
0.0
 10
3.375340019570185
 20
7.120706895673906
 30
0.0
 10
3.39562001803085
 20
7.085979504665497
 30
0.0
 10
3.402394261777223
 20
7.054740095376466
 30
0.0
 10
3.402394261777223
 20
7.033912961042378
 30
0.0
 11
3.107118671177223
 21
7.033912961042378
 31
0.0
 11
3.116303510977223
 21
7.085174035142377
 31
0.0
 11
3.129074597877222
 21
7.111378995642378
 31
0.0
 11
3.147794390277223
 21
7.135677556342377
 31
0.0
 11
3.171914192477223
 21
7.156118019242378
 31
0.0
 11
3.200061635577223
 21
7.171045721842378
 31
0.0
 11
3.230274284777222
 21
7.179506715642378
 31
0.0
 11
3.260434843177223
 21
7.181441516442377
 31
0.0
 11
3.288718141477223
 21
7.177591502342377
 31
0.0
 11
3.313872845077223
 21
7.169198482742377
 31
0.0
 11
3.325061050077223
 21
7.163736626542377
 31
0.0
 11
3.335488916477223
 21
7.157521982242378
 31
0.0
 11
3.355771800077222
 21
7.141582924242378
 31
0.0
 11
3.374223092277222
 21
7.120657666442377
 31
0.0
 11
3.389172966677223
 21
7.094979507342378
 31
0.0
 11
3.402394261777223
 21
7.033912961042378
 31
0.0
  0
SPLINE
  5
391
330
1F
100
AcDbEntity
  8
0
  6
Continuous
 62
     7
100
AcDbSpline
210
0.0
220
0.0
230
1.0
 70
     8
 71
     3
 72
    22
 73
    18
 74
    16
 42
0.0000000001
 43
0.0000000001
 44
0.0000000001
 12
0.0
 22
1.0
 32
0.0
 13
0.0
 23
-1.0
 33
0.0
 40
0.0
 40
0.0
 40
0.0
 40
0.0
 40
0.0625179865354682
 40
0.0922484549552303
 40
0.1201631158749164
 40
0.1459745168966211
 40
0.1581209079823942
 40
0.1705784107349748
 40
0.197111891363758
 40
0.2256727380144567
 40
0.255912987155306
 40
0.2873063889452758
 40
0.3191859109725026
 40
0.3508205162396495
 40
0.3815117651927467
 40
0.4106801734805666
 40
0.4627880980963015
 40
0.4627880980963015
 40
0.4627880980963015
 40
0.4627880980963015
 10
5.884591282277223
 20
5.923676740642378
 30
0.0
 10
5.884591282277223
 20
5.944516069487534
 30
0.0
 10
5.891369492573551
 20
5.975773769701726
 30
0.0
 10
5.911661365014848
 20
6.010521494055734
 30
0.0
 10
5.930168410867084
 20
6.031528744222546
 30
0.0
 10
5.947529370910864
 20
6.045164851577879
 30
0.0
 10
5.961979726974106
 20
6.053775880576416
 30
0.0
 10
5.977312633453599
 20
6.061262400011028
 30
0.0
 10
5.998796050895712
 20
6.068433024763447
 30
0.0
 10
6.027154758304271
 20
6.072293083521854
 30
0.0
 10
6.057370177877567
 20
6.070356086947715
 30
0.0
 10
6.087614381402366
 20
6.061886959379982
 30
0.0
 10
6.115782215957433
 20
6.046947416567535
 30
0.0
 10
6.139923068986949
 20
6.026492930427322
 30
0.0
 10
6.158670524481772
 20
6.002141580062042
 30
0.0
 10
6.175126789547308
 20
5.968440996126322
 30
0.0
 10
6.180039760077224
 20
5.941046048847622
 30
0.0
 10
6.180039760077224
 20
5.923676740642378
 30
0.0
 11
5.884591282277223
 21
5.923676740642378
 31
0.0
 11
5.897820318677223
 21
5.984779042042378
 31
0.0
 11
5.912778946277224
 21
6.010472235942377
 31
0.0
 11
5.931241041977223
 21
6.031409745742378
 31
0.0
 11
5.951535801477222
 21
6.047358136242377
 31
0.0
 11
5.961969773477222
 21
6.053576419342378
 31
0.0
 11
5.973164529277221
 21
6.059041473542378
 31
0.0
 11
5.998333961177223
 21
6.067439407342377
 31
0.0
 11
6.026633819677223
 21
6.071291675542378
 31
0.0
 11
6.056812037477222
 21
6.069355742042378
 31
0.0
 11
6.087042376577222
 21
6.060889794142377
 31
0.0
 11
6.115206300277223
 21
6.045953351242377
 31
0.0
 11
6.139340224877222
 21
6.025500920242377
 31
0.0
 11
6.158070977977223
 21
6.001188132442377
 31
0.0
 11
6.170849542477223
 21
5.974967828642378
 31
0.0
 11
6.180039760077224
 21
5.923676740642378
 31
0.0
  0
SPLINE
  5
392
330
1F
100
AcDbEntity
  8
0
  6
Continuous
 62
     7
100
AcDbSpline
210
0.0
220
0.0
230
1.0
 70
     8
 71
     3
 72
    22
 73
    18
 74
    16
 42
0.0000000001
 43
0.0000000001
 44
0.0000000001
 12
0.0
 22
-1.0
 32
0.0
 13
0.0
 23
1.0
 33
0.0
 40
0.0
 40
0.0
 40
0.0
 40
0.0
 40
0.052107924615735
 40
0.0812763329035556
 40
0.1119675818566528
 40
0.1436021871237997
 40
0.1754817091978793
 40
0.2068751109608813
 40
0.2371153601081325
 40
0.2656762067723191
 40
0.2922096874011026
 40
0.3046671901536832
 40
0.3168135811882613
 40
0.3426249822099671
 40
0.3705396432046574
 40
0.400270111537999
 40
0.4627880981712037
 40
0.4627880981712037
 40
0.4627880981712037
 40
0.4627880981712037
 10
6.180039760077224
 20
5.923676740642378
 30
0.0
 10
6.180039760077224
 20
5.906307432437133
 30
0.0
 10
6.175126789547916
 20
5.878912485157025
 30
0.0
 10
6.158670524480604
 20
5.845211901225419
 30
0.0
 10
6.13992306899169
 20
5.820860550846452
 30
0.0
 10
6.115782215927084
 20
5.800406064749532
 30
0.0
 10
6.087614381450149
 20
5.78546652173693
 30
0.0
 10
6.057370177853042
 20
5.776997394424775
 30
0.0
 10
6.027154758301026
 20
5.775060397578368
 30
0.0
 10
5.998796050906578
 20
5.778920456570285
 30
0.0
 10
5.977312633444531
 20
5.786091081253928
 30
0.0
 10
5.961979727003456
 20
5.793577600725406
 30
0.0
 10
5.947529370863212
 20
5.802188629557906
 30
0.0
 10
5.930168410841918
 20
5.815824736985083
 30
0.0
 10
5.911661365076039
 20
5.836831987203942
 30
0.0
 10
5.891369492495919
 20
5.871579711509257
 30
0.0
 10
5.884591282277223
 20
5.902837411764643
 30
0.0
 10
5.884591282277223
 20
5.923676740642378
 30
0.0
 11
6.180039760077224
 21
5.923676740642378
 31
0.0
 11
6.170849542477223
 21
5.872385652642377
 31
0.0
 11
6.158070977977223
 21
5.846165348842377
 31
0.0
 11
6.139340224877222
 21
5.821852561042377
 31
0.0
 11
6.115206300277223
 21
5.801400130042377
 31
0.0
 11
6.087042376577222
 21
5.786463687042378
 31
0.0
 11
6.056812037477222
 21
5.777997739242378
 31
0.0
 11
6.026633819677223
 21
5.776061805642378
 31
0.0
 11
5.998333961177223
 21
5.779914073942377
 31
0.0
 11
5.973164529277221
 21
5.788312007742377
 31
0.0
 11
5.961969773477222
 21
5.793777061942377
 31
0.0
 11
5.951535801477222
 21
5.799995344942377
 31
0.0
 11
5.931241041977223
 21
5.815943735442378
 31
0.0
 11
5.912778946277224
 21
5.836881245342377
 31
0.0
 11
5.897820318677223
 21
5.862574439142377
 31
0.0
 11
5.884591282277223
 21
5.923676740642378
 31
0.0
  0
SPLINE
  5
393
330
1F
100
AcDbEntity
  8
0
  6
Continuous
 62
     7
100
AcDbSpline
210
0.0
220
0.0
230
1.0
 70
     8
 71
     3
 72
    22
 73
    18
 74
    16
 42
0.0000000001
 43
0.0000000001
 44
0.0000000001
 12
0.0
 22
1.0
 32
0.0
 13
0.0
 23
-1.0
 33
0.0
 40
0.0
 40
0.0
 40
0.0
 40
0.0
 40
0.0625179865354673
 40
0.0922484549552302
 40
0.1201631159499211
 40
0.1459745169716262
 40
0.1581209080062044
 40
0.170578410758785
 40
0.1971118913875682
 40
0.225672738051755
 40
0.2559129871990062
 40
0.2873063889889754
 40
0.3191859110162026
 40
0.350820516283349
 40
0.3815117652364476
 40
0.4106801735242674
 40
0.4627880981400015
 40
0.4627880981400015
 40
0.4627880981400015
 40
0.4627880981400015
 10
5.884591282277223
 20
6.478794850842378
 30
0.0
 10
5.884591282277223
 20
6.499634179687534
 30
0.0
 10
5.891369492562767
 20
6.530891879909079
 30
0.0
 10
5.911661365044139
 20
6.565639604266088
 30
0.0
 10
5.930168410845038
 20
6.58664685449796
 30
0.0
 10
5.947529370862854
 20
6.600282961927013
 30
0.0
 10
5.961979727003535
 20
6.60889399075936
 30
0.0
 10
5.977312633444404
 20
6.616380510230582
 30
0.0
 10
5.998796050907376
 20
6.623551134916851
 30
0.0
 10
6.02715475829786
 20
6.6274111938967
 30
0.0
 10
6.057370177874799
 20
6.625474197098405
 30
0.0
 10
6.087614381402561
 20
6.617005069593801
 30
0.0
 10
6.11578221595738
 20
6.602065526763835
 30
0.0
 10
6.139923068986964
 20
6.581611040628281
 30
0.0
 10
6.158670524481768
 20
6.557259690261806
 30
0.0
 10
6.175126789547308
 20
6.523559106326443
 30
0.0
 10
6.180039760077224
 20
6.496164159047623
 30
0.0
 10
6.180039760077224
 20
6.478794850842378
 30
0.0
 11
5.884591282277223
 21
6.478794850842378
 31
0.0
 11
5.897820318677223
 21
6.539897152242377
 31
0.0
 11
5.912778946277224
 21
6.565590346142378
 31
0.0
 11
5.931241041977223
 21
6.586527856042377
 31
0.0
 11
5.951535801477222
 21
6.602476246542377
 31
0.0
 11
5.961969773477222
 21
6.608694529542377
 31
0.0
 11
5.973164529277221
 21
6.614159583742377
 31
0.0
 11
5.998333961177223
 21
6.622557517542377
 31
0.0
 11
6.026633819677223
 21
6.626409785842378
 31
0.0
 11
6.056812037477222
 21
6.624473852242378
 31
0.0
 11
6.087042376577222
 21
6.616007904342378
 31
0.0
 11
6.115206300277223
 21
6.601071461442377
 31
0.0
 11
6.139340224877222
 21
6.580619030442378
 31
0.0
 11
6.158070977977223
 21
6.556306242642377
 31
0.0
 11
6.170849542477223
 21
6.530085938842377
 31
0.0
 11
6.180039760077224
 21
6.478794850842378
 31
0.0
  0
SPLINE
  5
394
330
1F
100
AcDbEntity
  8
0
  6
Continuous
 62
     7
100
AcDbSpline
210
0.0
220
0.0
230
1.0
 70
     8
 71
     3
 72
    22
 73
    18
 74
    16
 42
0.0000000001
 43
0.0000000001
 44
0.0000000001
 12
0.0
 22
-1.0
 32
0.0
 13
0.0
 23
1.0
 33
0.0
 40
0.0
 40
0.0
 40
0.0
 40
0.0
 40
0.0521079246157359
 40
0.0812763329035556
 40
0.1119675818566529
 40
0.1436021871238004
 40
0.1754817091510272
 40
0.2068751109409964
 40
0.2371153600818458
 40
0.2656762067325445
 40
0.292209687361328
 40
0.3046671901139086
 40
0.3168135811996808
 40
0.3426249822213866
 40
0.3705396431410727
 40
0.4002701115608348
 40
0.4627880980963031
 40
0.4627880980963031
 40
0.4627880980963031
 40
0.4627880980963031
 10
6.180039760077224
 20
6.478794850842378
 30
0.0
 10
6.180039760077224
 20
6.461425542637133
 30
0.0
 10
6.175126789547307
 20
6.434030595358432
 30
0.0
 10
6.15867052448177
 20
6.400330011422714
 30
0.0
 10
6.139923068986949
 20
6.375978661057432
 30
0.0
 10
6.115782215957433
 20
6.355524174917221
 30
0.0
 10
6.087614381402367
 20
6.34058463210477
 30
0.0
 10
6.057370177877564
 20
6.332115504537043
 30
0.0
 10
6.027154758304272
 20
6.330178507962902
 30
0.0
 10
5.998796050895713
 20
6.334038566721305
 30
0.0
 10
5.977312633453599
 20
6.341209191473728
 30
0.0
 10
5.961979726974106
 20
6.348695710908343
 30
0.0
 10
5.947529370910864
 20
6.35730673990687
 30
0.0
 10
5.930168410867086
 20
6.370942847262211
 30
0.0
 10
5.911661365014845
 20
6.391950097429019
 30
0.0
 10
5.891369492573555
 20
6.426697821783036
 30
0.0
 10
5.884591282277223
 20
6.457955521997222
 30
0.0
 10
5.884591282277223
 20
6.478794850842378
 30
0.0
 11
6.180039760077224
 21
6.478794850842378
 31
0.0
 11
6.170849542477223
 21
6.427503762842377
 31
0.0
 11
6.158070977977223
 21
6.401283459042377
 31
0.0
 11
6.139340224877222
 21
6.376970671242378
 31
0.0
 11
6.115206300277223
 21
6.356518240242377
 31
0.0
 11
6.087042376577222
 21
6.341581797342377
 31
0.0
 11
6.056812037477222
 21
6.333115849442378
 31
0.0
 11
6.026633819677223
 21
6.331179915942377
 31
0.0
 11
5.998333961177223
 21
6.335032184142377
 31
0.0
 11
5.973164529277221
 21
6.343430117942378
 31
0.0
 11
5.961969773477222
 21
6.348895172142378
 31
0.0
 11
5.951535801477222
 21
6.355113455242377
 31
0.0
 11
5.931241041977223
 21
6.371061845742378
 31
0.0
 11
5.912778946277224
 21
6.391999355542378
 31
0.0
 11
5.897820318677223
 21
6.417692549442378
 31
0.0
 11
5.884591282277223
 21
6.478794850842378
 31
0.0
  0
SPLINE
  5
395
330
1F
100
AcDbEntity
  8
0
  6
Continuous
 62
     7
100
AcDbSpline
210
0.0
220
0.0
230
1.0
 70
     8
 71
     3
 72
    22
 73
    18
 74
    16
 42
0.0000000001
 43
0.0000000001
 44
0.0000000001
 12
0.0
 22
1.0
 32
0.0
 13
0.0
 23
-1.0
 33
0.0
 40
0.0
 40
0.0
 40
0.0
 40
0.0
 40
0.0625179866332038
 40
0.0922484550529659
 40
0.120163115972652
 40
0.1459745169943571
 40
0.1581209080289353
 40
0.1705784107815155
 40
0.197111891410299
 40
0.2256727380744858
 40
0.2559129872217369
 40
0.2873063889847389
 40
0.3191859110119657
 40
0.3508205162791126
 40
0.3815117653114286
 40
0.4106801735992484
 40
0.4627880982149825
 40
0.4627880982149825
 40
0.4627880982149825
 40
0.4627880982149825
 10
5.884591282277223
 20
7.033912961042378
 30
0.0
 10
5.884591282277223
 20
7.054752289920112
 30
0.0
 10
5.891369492556528
 20
7.08600999016938
 30
0.0
 10
5.911661365011415
 20
7.120757714562376
 30
0.0
 10
5.930168410880543
 20
7.141764964699601
 30
0.0
 10
5.947529370861107
 20
7.155401072128583
 30
0.0
 10
5.961979727003844
 20
7.16401210095904
 30
0.0
 10
5.97731263344427
 20
7.17149862043098
 30
0.0
 10
5.998796050906877
 20
7.178669245114805
 30
0.0
 10
6.027154758300156
 20
7.18252930410474
 30
0.0
 10
6.057370177856446
 20
7.180592307266698
 30
0.0
 10
6.087614381421717
 20
7.172123179925791
 30
0.0
 10
6.115782215950074
 20
7.157183637050843
 30
0.0
 10
6.139923069024922
 20
7.136729150926461
 30
0.0
 10
6.158670524452189
 20
7.112377800471498
 30
0.0
 10
6.175126789556651
 20
7.078677216533812
 30
0.0
 10
6.180039760077224
 20
7.051282269247622
 30
0.0
 10
6.180039760077224
 20
7.033912961042378
 30
0.0
 11
5.884591282277223
 21
7.033912961042378
 31
0.0
 11
5.897820318677223
 21
7.095015262542378
 31
0.0
 11
5.912778946277224
 21
7.120708456442377
 31
0.0
 11
5.931241041977223
 21
7.141645966242378
 31
0.0
 11
5.951535801477222
 21
7.157594356742378
 31
0.0
 11
5.961969773477222
 21
7.163812639742378
 31
0.0
 11
5.973164529277221
 21
7.169277693942377
 31
0.0
 11
5.998333961177223
 21
7.177675627742377
 31
0.0
 11
6.026633819677223
 21
7.181527896042378
 31
0.0
 11
6.056812037477222
 21
7.179591962442377
 31
0.0
 11
6.087042376577222
 21
7.171126014642378
 31
0.0
 11
6.115206300277223
 21
7.156189571742378
 31
0.0
 11
6.139340224877222
 21
7.135737140742378
 31
0.0
 11
6.158070977977223
 21
7.111424352842377
 31
0.0
 11
6.170849542477223
 21
7.085204049042377
 31
0.0
 11
6.180039760077224
 21
7.033912961042378
 31
0.0
  0
SPLINE
  5
396
330
1F
100
AcDbEntity
  8
0
  6
Continuous
 62
     7
100
AcDbSpline
210
0.0
220
0.0
230
1.0
 70
     8
 71
     3
 72
    22
 73
    18
 74
    16
 42
0.0000000001
 43
0.0000000001
 44
0.0000000001
 12
0.0
 22
-1.0
 32
0.0
 13
0.0
 23
1.0
 33
0.0
 40
0.0
 40
0.0
 40
0.0
 40
0.0
 40
0.0521079246157341
 40
0.0812763328136619
 40
0.1119675818459771
 40
0.1436021871131235
 40
0.1754817091403507
 40
0.2068751109033529
 40
0.237115360050604
 40
0.2656762067147907
 40
0.2922096873435742
 40
0.3046671900961544
 40
0.3168135811307317
 40
0.342624982152438
 40
0.3705396430721242
 40
0.4002701114918862
 40
0.4627880980273545
 40
0.4627880980273545
 40
0.4627880980273545
 40
0.4627880980273545
 10
6.180039760077224
 20
7.033912961042378
 30
0.0
 10
6.180039760077224
 20
7.016543652837133
 30
0.0
 10
6.175126789593482
 20
6.989148705566053
 30
0.0
 10
6.158670524421268
 20
6.955448121695303
 30
0.0
 10
6.139923069028458
 20
6.931096771256607
 30
0.0
 10
6.115782215949106
 20
6.910642285134374
 30
0.0
 10
6.087614381421972
 20
6.895702742258841
 30
0.0
 10
6.057370177856382
 20
6.887233614918089
 30
0.0
 10
6.02715475830017
 20
6.885296618080008
 30
0.0
 10
5.998796050906873
 20
6.889156677069951
 30
0.0
 10
5.977312633444267
 20
6.896327301753776
 30
0.0
 10
5.961979727003848
 20
6.903813821225715
 30
0.0
 10
5.94752937086109
 20
6.912424850056167
 30
0.0
 10
5.930168410880672
 20
6.926060957485165
 30
0.0
 10
5.911661365010889
 20
6.947068207622335
 30
0.0
 10
5.891369492576121
 20
6.98181593198737
 30
0.0
 10
5.884591282277223
 20
7.013073632197222
 30
0.0
 10
5.884591282277223
 20
7.033912961042378
 30
0.0
 11
6.180039760077224
 21
7.033912961042378
 31
0.0
 11
6.170849542477223
 21
6.982621873042378
 31
0.0
 11
6.158070977977223
 21
6.956401569342378
 31
0.0
 11
6.139340224877222
 21
6.932088781442377
 31
0.0
 11
6.115206300277223
 21
6.911636350442378
 31
0.0
 11
6.087042376577222
 21
6.896699907542378
 31
0.0
 11
6.056812037477222
 21
6.888233959742377
 31
0.0
 11
6.026633819677223
 21
6.886298026142378
 31
0.0
 11
5.998333961177223
 21
6.890150294442378
 31
0.0
 11
5.973164529277221
 21
6.898548228242378
 31
0.0
 11
5.961969773477222
 21
6.904013282442377
 31
0.0
 11
5.951535801477222
 21
6.910231565442376
 31
0.0
 11
5.931241041977223
 21
6.926179955942378
 31
0.0
 11
5.912778946277224
 21
6.947117465742378
 31
0.0
 11
5.897820318677223
 21
6.972810659642378
 31
0.0
 11
5.884591282277223
 21
7.033912961042378
 31
0.0
  0
SPLINE
  5
397
330
1F
100
AcDbEntity
  8
0
  6
Continuous
 62
     7
100
AcDbSpline
210
0.0
220
0.0
230
1.0
 70
     8
 71
     3
 72
    18
 73
    14
 74
    12
 42
0.0000000001
 43
0.0000000001
 44
0.0000000001
 12
-0.0033478933057988
 22
-0.999994395789503
 32
0.0
 13
-0.999998740694061
 23
-0.0015870130095425
 33
0.0
 40
0.0
 40
0.0
 40
0.0
 40
0.0
 40
0.0002331285692098
 40
0.0007417561475086
 40
0.0015910751305186
 40
0.0028008440973599
 40
0.0043822885460024
 40
0.0063306574303456
 40
0.0112607538104053
 40
0.0173373109621568
 40
0.0241686027688702
 40
0.0313064145969118
 40
0.0383329853320989
 40
0.0383329853320989
 40
0.0383329853320989
 40
0.0383329853320989
 10
4.624835196577222
 20
6.896813053442378
 30
0.0
 10
4.62483493641403
 20
6.896735344354809
 30
0.0
 10
4.624589114315662
 20
6.896561132057704
 30
0.0
 10
4.624111158991256
 20
6.896423976088788
 30
0.0
 10
4.623256523790084
 20
6.8962359783544
 30
0.0
 10
4.622062666662719
 20
6.896065760690889
 30
0.0
 10
4.620489570650343
 20
6.895887736066044
 30
0.0
 10
4.617681610873733
 20
6.895641969617704
 30
0.0
 10
4.613369862564715
 20
6.895377153719908
 30
0.0
 10
4.607429244168599
 20
6.895129389811555
 30
0.0
 10
4.600749502433009
 20
6.894947445936229
 30
0.0
 10
4.59375174507082
 20
6.894836573204161
 30
0.0
 10
4.589030283872751
 20
6.894807708728767
 30
0.0
 10
4.586688096577223
 20
6.894803991642377
 30
0.0
 11
4.624835196577222
 21
6.896813053442378
 31
0.0
 11
4.624682688177222
 21
6.896636729542378
 31
0.0
 11
4.624207321577222
 21
6.896455819042377
 31
0.0
 11
4.623378213477223
 21
6.896271638442377
 31
0.0
 11
4.622182469677222
 21
6.896087960142377
 31
0.0
 11
4.620611349677222
 21
6.895907548142377
 31
0.0
 11
4.618670784377222
 21
6.895733342442377
 31
0.0
 11
4.613750972977222
 21
6.895415056242377
 31
0.0
 11
4.607680041477222
 21
6.895153641742378
 31
0.0
 11
4.600851412877222
 21
6.894962908442377
 31
0.0
 11
4.593714531677222
 21
6.894847650342377
 31
0.0
 11
4.586688096577223
 21
6.894803991642377
 31
0.0
  0
SPLINE
  5
398
330
1F
100
AcDbEntity
  8
0
  6
Continuous
 62
     7
100
AcDbSpline
210
0.0
220
0.0
230
1.0
 70
     8
 71
     3
 72
    12
 73
     8
 74
     6
 42
0.0000000001
 43
0.0000000001
 44
0.0000000001
 12
-0.0008988541556451
 22
0.999999596030522
 32
0.0
 13
-0.999998739680338
 23
0.0015876516417671
 33
0.0
 40
0.0
 40
0.0
 40
0.0
 40
0.0
 40
0.0019547850012502
 40
0.0073644675284551
 40
0.0157691107457613
 40
0.0264016483756046
 40
0.038288416434135
 40
0.038288416434135
 40
0.038288416434135
 40
0.038288416434135
 10
4.624834276177222
 20
6.249742113642377
 30
0.0
 10
4.624833690488348
 20
6.250393708379569
 30
0.0
 10
4.621090452435456
 20
6.250233094322929
 30
0.0
 10
4.61704175861313
 20
6.251209772895718
 30
0.0
 10
4.608282035162354
 20
6.251329845086138
 30
0.0
 10
4.598219992759934
 20
6.251704440415224
 30
0.0
 10
4.590650035303023
 20
6.251744943460102
 30
0.0
 10
4.586687784277223
 20
6.251751234142377
 30
0.0
 11
4.624834276177222
 21
6.249742113642377
 31
0.0
 11
4.622977033677222
 21
6.250351896142378
 31
0.0
 11
4.617595544377222
 21
6.250903473842377
 31
0.0
 11
4.609202539577222
 21
6.251345625442378
 31
0.0
 11
4.598574007877222
 21
6.251637465042377
 31
0.0
 11
4.586687784277223
 21
6.251751234142377
 31
0.0
  0
SPLINE
  5
399
330
1F
100
AcDbEntity
  8
0
  6
Continuous
 62
     7
100
AcDbSpline
210
0.0
220
0.0
230
1.0
 70
     8
 71
     3
 72
    11
 73
     7
 74
     5
 42
0.0000000001
 43
0.0000000001
 44
0.0000000001
 12
0.8170415888190239
 22
-0.5765787388900888
 32
0.0
 13
0.2816748136311991
 23
-0.9595099266635179
 33
0.0
 40
0.0
 40
0.0
 40
0.0
 40
0.0
 40
0.0066811231429115
 40
0.0241310349019904
 40
0.0447435952092375
 40
0.0668979163309945
 40
0.0668979163309945
 40
0.0668979163309945
 40
0.0668979163309945
 10
4.945639676277222
 20
6.952219725542378
 30
0.0
 10
4.947459261433149
 20
6.950935661023675
 30
0.0
 10
4.953607862472627
 20
6.94568905374944
 30
0.0
 10
4.962545978511569
 20
6.9335436288757
 30
0.0
 10
4.97144141958529
 20
6.915480299920038
 30
0.0
 10
4.975854029119523
 20
6.901886464020649
 30
0.0
 10
4.977934133877222
 20
6.894800700342377
 30
0.0
 11
4.945639676277222
 21
6.952219725542378
 31
0.0
 11
4.950762161177222
 21
6.947930488442378
 31
0.0
 11
4.961497883277222
 21
6.934173901242377
 31
0.0
 11
4.970771118377222
 21
6.915765078542378
 31
0.0
 11
4.977934133877222
 21
6.894800700342377
 31
0.0
  0
SPLINE
  5
39A
330
1F
100
AcDbEntity
  8
0
  6
Continuous
 62
     7
100
AcDbSpline
210
0.0
220
0.0
230
1.0
 70
     8
 71
     3
 72
    12
 73
     8
 74
     6
 42
0.0000000001
 43
0.0000000001
 44
0.0000000001
 12
0.9999996659669639
 22
-0.000817353020848
 32
0.0
 13
0.0000217388616905
 23
-0.9999999997637109
 33
0.0
 40
0.0
 40
0.0
 40
0.0
 40
0.0
 40
0.0121847829208087
 40
0.0231638787597539
 40
0.0319023710964369
 40
0.0375956831945655
 40
0.0398645460524401
 40
0.0398645460524401
 40
0.0398645460524401
 40
0.0398645460524401
 10
4.900425748477222
 20
7.207047640042377
 30
0.0
 10
4.904487341427452
 20
7.207044320286001
 30
0.0
 10
4.912254925796082
 20
7.206936591584655
 30
0.0
 10
4.922703145075283
 20
7.206430218206397
 30
0.0
 10
4.931597446688555
 20
7.205688040945117
 30
0.0
 10
4.936206981703033
 20
7.20477359116972
 30
0.0
 10
4.939795810836391
 20
7.203960619161489
 30
0.0
 10
4.939795827277222
 20
7.203204331542377
 30
0.0
 11
4.900425748477222
 21
7.207047640042377
 31
0.0
 11
4.912609071977222
 21
7.206859057642377
 31
0.0
 11
4.923574586777222
 21
7.206313135842377
 31
0.0
 11
4.932271717377222
 21
7.205463919942378
 31
0.0
 11
4.937863464477222
 21
7.204393328042378
 31
0.0
 11
4.939795827277222
 21
7.203204331542377
 31
0.0
  0
SPLINE
  5
39B
330
1F
100
AcDbEntity
  8
0
  6
Continuous
 62
     7
100
AcDbSpline
210
0.0
220
0.0
230
1.0
 70
     8
 71
     3
 72
    11
 73
     7
 74
     5
 42
0.0000000001
 43
0.0000000001
 44
0.0000000001
 12
-0.8210889613061087
 22
0.5708002431860516
 32
0.0
 13
-0.281366729071094
 23
0.9596003145955267
 33
0.0
 40
0.0
 40
0.0
 40
0.0
 40
0.0
 40
0.0069278541478519
 40
0.0243732149253538
 40
0.0449935219415316
 40
0.0671386016729201
 40
0.0671386016729201
 40
0.0671386016729201
 40
0.0671386016729201
 10
4.619198272177222
 20
6.194203630742378
 30
0.0
 10
4.617302143988442
 20
6.195521771019828
 30
0.0
 10
4.611076588057867
 20
6.200808642659997
 30
0.0
 10
4.602089924716656
 20
6.21302102390401
 30
0.0
 10
4.593193359682333
 20
6.231082343638123
 30
0.0
 10
4.588784566860236
 20
6.244676960383383
 30
0.0
 10
4.586707603977223
 20
6.251760435542378
 30
0.0
 11
4.619198272177222
 21
6.194203630742378
 31
0.0
 11
4.613872704877223
 21
6.198634600842377
 31
0.0
 11
4.603139614377222
 21
6.212387468942377
 31
0.0
 11
4.593862735177222
 21
6.230803130042377
 31
0.0
 11
4.586707603977223
 21
6.251760435542378
 31
0.0
  0
SPLINE
  5
39C
330
1F
100
AcDbEntity
  8
0
  6
Continuous
 62
     7
100
AcDbSpline
210
0.0
220
0.0
230
1.0
 70
     8
 71
     3
 72
    11
 73
     7
 74
     5
 42
0.0000000001
 43
0.0000000001
 44
0.0000000001
 12
-0.2817943784604294
 22
-0.9594748189859389
 32
0.0
 13
-0.818766179462978
 23
-0.5741271142940371
 33
0.0
 40
0.0
 40
0.0
 40
0.0
 40
0.0
 40
0.0221816580489523
 40
0.0428123685795357
 40
0.0602646508302774
 40
0.0670248333009285
 40
0.0670248333009285
 40
0.0670248333009285
 40
0.0670248333009285
 10
4.977934191777222
 20
6.251779334642377
 30
0.0
 10
4.975850636262847
 20
6.244685087195269
 30
0.0
 10
4.971432464245327
 20
6.231077747798367
 30
0.0
 10
4.962537659573138
 20
6.212994976082768
 30
0.0
 10
4.95356739084729
 20
6.200831484172705
 30
0.0
 10
4.947390222501877
 20
6.195574815627036
 30
0.0
 10
4.945545219577222
 20
6.194281080942378
 30
0.0
 11
4.977934191777222
 21
6.251779334642377
 31
0.0
 11
4.970762168677222
 21
6.230789145542378
 31
0.0
 11
4.961482445077222
 21
6.212363268442378
 31
0.0
 11
4.950735610477222
 21
6.198612352042378
 31
0.0
 11
4.945545219577222
 21
6.194281080942378
 31
0.0
  0
SPLINE
  5
39D
330
1F
100
AcDbEntity
  8
0
  6
Continuous
 62
     7
100
AcDbSpline
210
0.0
220
0.0
230
1.0
 70
     8
 71
     3
 72
    11
 73
     7
 74
     5
 42
0.0000000001
 43
0.0000000001
 44
0.0000000001
 12
0.281827317715234
 22
0.9594651442285105
 32
0.0
 13
0.8187983220703703
 23
0.5740812727957133
 33
0.0
 40
0.0
 40
0.0
 40
0.0
 40
0.0
 40
0.0221714990976703
 40
0.0427984648916378
 40
0.0602507435617437
 40
0.0670038036826294
 40
0.0670038036826294
 40
0.0670038036826294
 40
0.0670038036826294
 10
4.586697462677222
 20
6.894811797342377
 30
0.0
 10
4.58878030738403
 20
6.901902724202213
 30
0.0
 10
4.593198673598802
 20
6.915505153825204
 30
0.0
 10
4.602095913267945
 20
6.933581870699822
 30
0.0
 10
4.611069295580503
 20
6.945738430960706
 30
0.0
 10
4.617245407145281
 20
6.950992432792555
 30
0.0
 10
4.619088538577222
 20
6.952284701242377
 30
0.0
 11
4.586697462677222
 21
6.894811797342377
 31
0.0
 11
4.593868482677222
 21
6.915791593442378
 31
0.0
 11
4.603151142677222
 21
6.934211798142378
 31
0.0
 11
4.613902877177222
 21
6.947958879142377
 31
0.0
 11
4.619088538577222
 21
6.952284701242377
 31
0.0
  0
SPLINE
  5
39E
330
1F
100
AcDbEntity
  8
0
  6
Continuous
 62
     7
100
AcDbSpline
210
0.0
220
0.0
230
1.0
 70
     8
 71
     3
 72
    12
 73
     8
 74
     6
 42
0.0000000001
 43
0.0000000001
 44
0.0000000001
 12
-0.9999987396967005
 22
-0.0015876413356723
 32
0.0
 13
-0.000793611404255
 23
-0.9999996850904199
 33
0.0
 40
0.0
 40
0.0
 40
0.0
 40
0.0
 40
0.0118860837702327
 40
0.0225184778132816
 40
0.030923380985479
 40
0.0363334463244349
 40
0.0382884218981911
 40
0.0382884218981911
 40
0.0382884218981911
 40
0.0382884218981911
 10
4.977943248077222
 20
6.251751234142377
 30
0.0
 10
4.973981225147168
 20
6.251744943863072
 30
0.0
 10
4.966411541398464
 20
6.251704445845745
 30
0.0
 10
4.956349707999686
 20
6.251329866335701
 30
0.0
 10
4.947589729995343
 20
6.251209826899227
 30
0.0
 10
4.943540981665668
 20
6.250233079178206
 30
0.0
 10
4.939797265540859
 20
6.250393772061749
 30
0.0
 10
4.939796748377222
 20
6.249742113742377
 30
0.0
 11
4.977943248077222
 21
6.251751234142377
 31
0.0
 11
4.966057708677222
 21
6.251637477542377
 31
0.0
 11
4.955429320077222
 21
6.251345657642377
 31
0.0
 11
4.947036054477222
 21
6.250903515242377
 31
0.0
 11
4.941654181477223
 21
6.250351926642377
 31
0.0
 11
4.939796748377222
 21
6.249742113742377
 31
0.0
  0
SPLINE
  5
39F
330
1F
100
AcDbEntity
  8
0
  6
Continuous
 62
     7
100
AcDbSpline
210
0.0
220
0.0
230
1.0
 70
     8
 71
     3
 72
    18
 73
    14
 74
    12
 42
0.0000000001
 43
0.0000000001
 44
0.0000000001
 12
-0.9999987394929156
 22
0.0015877696873921
 32
0.0
 13
-0.0009484976974035
 23
0.9999995501759579
 33
0.0
 40
0.0
 40
0.0
 40
0.0
 40
0.0
 40
0.007024280712883
 40
0.0141597971708205
 40
0.0209892382344561
 40
0.0270648109839402
 40
0.031995057896994
 40
0.0339439430846699
 40
0.0355261688951652
 40
0.0367369458016004
 40
0.0375874396966759
 40
0.0380981819093159
 40
0.0383322219844204
 40
0.0383322219844204
 40
0.0383322219844204
 40
0.0383322219844204
 10
4.977942072477222
 20
6.894791269942377
 30
0.0
 10
4.975600648524314
 20
6.894794987589041
 30
0.0
 10
4.970880715776305
 20
6.894823834838162
 30
0.0
 10
4.963885103125268
 20
6.89493462275737
 30
0.0
 10
4.957207067846329
 20
6.895116425161476
 30
0.0
 10
4.951267340186024
 20
6.895363997691372
 30
0.0
 10
4.946955680554161
 20
6.895628625429287
 30
0.0
 10
4.944147231909844
 20
6.895874200267352
 30
0.0
 10
4.942573326700937
 20
6.89605213662139
 30
0.0
 10
4.941378525504088
 20
6.896222221195134
 30
0.0
 10
4.940522265058756
 20
6.896410327426846
 30
0.0
 10
4.940043237053932
 20
6.896547300424856
 30
0.0
 10
4.939795901372713
 20
6.896722144119102
 30
0.0
 10
4.939795827377222
 20
6.896800157442378
 30
0.0
 11
4.977942072477222
 21
6.894791269942377
 31
0.0
 11
4.970917927277223
 21
6.894834901842378
 31
0.0
 11
4.963783340277222
 21
6.894950068942377
 31
0.0
 11
4.956956558777222
 21
6.895140645942378
 31
0.0
 11
4.950886603577222
 21
6.895401851042377
 31
0.0
 11
4.945966625977223
 21
6.895719899842378
 31
0.0
 11
4.944025531577223
 21
6.895893986042377
 31
0.0
 11
4.942453611877223
 21
6.896074282942378
 31
0.0
 11
4.941256831877222
 21
6.896257854042377
 31
0.0
 11
4.940426498777222
 21
6.896441937742377
 31
0.0
 11
4.939949007077222
 21
6.896623209042377
 31
0.0
 11
4.939795827377222
 21
6.896800157442378
 31
0.0
  0
SPLINE
  5
3A0
330
1F
100
AcDbEntity
  8
0
  6
Continuous
 62
     7
100
AcDbSpline
210
0.0
220
0.0
230
1.0
 70
     8
 71
     3
 72
    12
 73
     8
 74
     6
 42
0.0000000001
 43
0.0000000001
 44
0.0000000001
 12
-0.999999845513085
 22
0.000555854123206
 32
0.0
 13
-0.0000439892757941
 23
0.9999999990324718
 33
0.0
 40
0.0
 40
0.0
 40
0.0
 40
0.0
 40
0.0121840138218687
 40
0.0231556879007091
 40
0.0318722715983399
 40
0.0375124309544807
 40
0.0396107714410095
 40
0.0396107714410095
 40
0.0396107714410095
 40
0.0396107714410095
 10
4.664205276077223
 20
6.137569900142377
 30
0.0
 10
4.660143938764023
 20
6.137572157653817
 30
0.0
 10
4.652366084090444
 20
6.137629276328302
 30
0.0
 10
4.641974013503299
 20
6.138042397287348
 30
0.0
 10
4.632961502243029
 20
6.138384085029988
 30
0.0
 10
4.628638801317473
 20
6.139330806538461
 30
0.0
 10
4.624835228145382
 20
6.139512709214211
 30
0.0
 10
4.624835197377223
 20
6.140212156042378
 30
0.0
 11
4.664205276077223
 21
6.137569900142377
 31
0.0
 11
4.652021952077222
 21
6.137699550142377
 31
0.0
 11
4.641056698977222
 21
6.138074858742378
 31
0.0
 11
4.632359688477222
 21
6.138658673542377
 31
0.0
 11
4.626767760177222
 21
6.139394700342377
 31
0.0
 11
4.624835197377223
 21
6.140212156042378
 31
0.0
  0
SPLINE
  5
3A1
330
1F
100
AcDbEntity
  8
0
  6
Continuous
 62
     7
100
AcDbSpline
210
0.0
220
0.0
230
1.0
 70
     8
 71
     3
 72
    12
 73
     8
 74
     6
 42
0.0000000001
 43
0.0000000001
 44
0.0000000001
 12
0.000021101543936
 22
0.9999999997773624
 32
0.0
 13
1.0
 23
0.0
 33
0.0
 40
0.0
 40
0.0
 40
0.0
 40
0.0
 40
0.0022631888214146
 40
0.0079561843122677
 40
0.0167099672266806
 40
0.0276981858831201
 40
0.0398648210894042
 40
0.0398648210894042
 40
0.0398648210894042
 40
0.0398648210894042
 10
4.624835197377223
 20
7.203204330942377
 30
0.0
 10
4.624835213296148
 20
7.203958727216014
 30
0.0
 10
4.628418928127899
 20
7.204774220719446
 30
0.0
 10
4.633032231834835
 20
7.205687517718656
 30
0.0
 10
4.641934889657095
 20
7.206431254627506
 30
0.0
 10
4.652385269446818
 20
7.206935208855099
 30
0.0
 10
4.660149731008462
 20
7.207047640042377
 30
0.0
 10
4.664205276077223
 20
7.207047640042377
 30
0.0
 11
4.624835197377223
 21
7.203204330942377
 31
0.0
 11
4.626761792577222
 21
7.204391872342378
 31
0.0
 11
4.632353074277222
 21
7.205463211042378
 31
0.0
 11
4.641065441577223
 21
7.206313723442377
 31
0.0
 11
4.652040094677222
 21
7.206859560942378
 31
0.0
 11
4.664205276077223
 21
7.207047640042377
 31
0.0
  0
SPLINE
  5
3A2
330
1F
100
AcDbEntity
  8
0
  6
Continuous
 62
     7
100
AcDbSpline
210
0.0
220
0.0
230
1.0
 70
     8
 71
     3
 72
    12
 73
     8
 74
     6
 42
0.0000000001
 43
0.0000000001
 44
0.0000000001
 12
-0.0000427141286602
 22
-0.9999999990877515
 32
0.0
 13
-1.0
 23
0.0
 33
0.0
 40
0.0
 40
0.0
 40
0.0
 40
0.0
 40
0.0020924394558168
 40
0.0077320253499009
 40
0.0164639891754091
 40
0.0274450584151614
 40
0.0396109287875364
 40
0.0396109287875364
 40
0.0396109287875364
 40
0.0396109287875364
 10
4.939795827277222
 20
6.140212156942378
 30
0.0
 10
4.93979579748498
 20
6.139514677124409
 30
0.0
 10
4.935997132334739
 20
6.139330038761749
 30
0.0
 10
4.931671552091517
 20
6.138384368762635
 30
0.0
 10
4.922650036062063
 20
6.138041716658655
 30
0.0
 10
4.912255887540296
 20
6.137630258143563
 30
0.0
 10
4.904481038601347
 20
6.137569900142377
 30
0.0
 10
4.900425748477222
 20
6.137569900142377
 30
0.0
 11
4.939795827277222
 21
6.140212156942378
 31
0.0
 11
4.937869232577222
 21
6.139395740542378
 31
0.0
 11
4.932277950977223
 21
6.138659195142377
 31
0.0
 11
4.923565586977222
 21
6.138074468042378
 31
0.0
 11
4.912590931677223
 21
6.137699204542378
 31
0.0
 11
4.900425748477222
 21
6.137569900142377
 31
0.0
  0
SPLINE
  5
3A3
330
1F
100
AcDbEntity
  8
0
  6
Continuous
 62
     7
100
AcDbSpline
210
0.0
220
0.0
230
1.0
 70
     8
 71
     3
 72
    15
 73
    11
 74
     9
 42
0.0000000001
 43
0.0000000001
 44
0.0000000001
 12
0.6508423550124189
 22
0.7592129009190298
 32
0.0
 13
-0.9985759859226487
 23
0.0533479178470022
 33
0.0
 40
0.0
 40
0.0
 40
0.0
 40
0.0
 40
0.0096852502512012
 40
0.0206108648136554
 40
0.0329458703411129
 40
0.0468574736715186
 40
0.0626303276279732
 40
0.0799546871066916
 40
0.0988001546882958
 40
0.1200322273568545
 40
0.1200322273568545
 40
0.1200322273568545
 40
0.1200322273568545
 10
1.411307461599998
 20
4.545411563342376
 30
0.0
 10
1.413408651960791
 20
4.547862618988824
 30
0.0
 10
1.41688221593089
 20
4.553955394066647
 30
0.0
 10
1.41937976630998
 20
4.564789946736262
 30
0.0
 10
1.418597346162313
 20
4.577329514982055
 30
0.0
 10
1.413863891233316
 20
4.590697778857381
 30
0.0
 10
1.404722267884549
 20
4.603663467749568
 30
0.0
 10
1.391046190786496
 20
4.614699825306476
 30
0.0
 10
1.373011542203088
 20
4.62179258873602
 30
0.0
 10
1.359674481599394
 20
4.623633477852895
 30
0.0
 10
1.352607202299999
 20
4.624011040142376
 30
0.0
 11
1.411307461599998
 21
4.545411563342376
 31
0.0
 11
1.4162511758
 21
4.553740054342378
 31
0.0
 11
1.4187758761
 21
4.564369962242378
 31
0.0
 11
1.4180995199
 21
4.576686410742377
 31
0.0
 11
1.413540139799998
 21
4.589829650842378
 31
0.0
 11
1.404506639799999
 21
4.602759414942378
 31
0.0
 11
1.391024402899998
 21
4.613638878142377
 31
0.0
 11
1.373596550699998
 21
4.620809764842378
 31
0.0
 11
1.352607202299999
 21
4.624011040142376
 31
0.0
  0
SPLINE
  5
3A4
330
1F
100
AcDbEntity
  8
0
  6
Continuous
 62
     7
100
AcDbSpline
210
0.0
220
0.0
230
1.0
 70
     8
 71
     3
 72
    11
 73
     7
 74
     5
 42
0.0000000001
 43
0.0000000001
 44
0.0000000001
 12
-0.9991124500437278
 22
-0.04212258500638
 32
0.0
 13
-0.5622177974161643
 23
-0.8269892068633769
 33
0.0
 40
0.0
 40
0.0
 40
0.0
 40
0.0
 40
0.0213131064868995
 40
0.0417557500311311
 40
0.0604397800266068
 40
0.0636489593591689
 40
0.0636489593591689
 40
0.0636489593591689
 40
0.0636489593591689
 10
0.7075643902
 20
4.584710813642376
 30
0.0
 10
0.700466326853277
 20
4.584411559262462
 30
0.0
 10
0.6865685364585874
 20
4.581926062609936
 30
0.0
 10
0.6681508805273533
 20
4.573228262468649
 30
0.0
 10
0.6574277016101988
 20
4.563629994386695
 30
0.0
 10
0.6531307675452889
 20
4.557726810166016
 30
0.0
 10
0.6525293483
 20
4.556842157942377
 30
0.0
 11
0.7075643902
 21
4.584710813642376
 31
0.0
 11
0.6865845941
 21
4.580956261242377
 31
0.0
 11
0.6681643894000002
 21
4.572090724942377
 31
0.0
 11
0.6544173084000002
 21
4.559437237642376
 31
0.0
 11
0.6525293483
 21
4.556842157942377
 31
0.0
  0
SPLINE
  5
3A5
330
1F
100
AcDbEntity
  8
0
  6
Continuous
 62
     7
100
AcDbSpline
210
0.0
220
0.0
230
1.0
 70
     8
 71
     3
 72
    11
 73
     7
 74
     5
 42
0.0000000001
 43
0.0000000001
 44
0.0000000001
 12
-0.3027571492769721
 22
0.9530677355580143
 32
0.0
 13
-0.9991196399899195
 23
0.0419516982542253
 33
0.0
 40
0.0
 40
0.0
 40
0.0
 40
0.0
 40
0.0159569362876796
 40
0.0346409280683865
 40
0.0550725285090275
 40
0.07636173827158
 40
0.07636173827158
 40
0.07636173827158
 40
0.07636173827158
 10
1.4112913608
 20
4.545412323142377
 30
0.0
 10
1.409681001952782
 20
4.550481670187092
 30
0.0
 10
1.403922186595516
 20
4.560820506019018
 30
0.0
 10
1.390016871330542
 20
4.573238581043717
 30
0.0
 10
1.371588092501768
 20
4.581937411174971
 30
0.0
 10
1.357705907864542
 20
4.584413737174368
 30
0.0
 10
1.350615751999999
 20
4.584711443342378
 30
0.0
 11
1.4112913608
 21
4.545412323142377
 31
0.0
 11
1.403741586699998
 21
4.559470229342378
 31
0.0
 11
1.3899887186
 21
4.572117370042376
 31
0.0
 11
1.3715730575
 21
4.580966874142378
 31
0.0
 11
1.350615751999999
 21
4.584711443342378
 31
0.0
  0
SPLINE
  5
3A6
330
1F
100
AcDbEntity
  8
0
  6
Continuous
 62
     7
100
AcDbSpline
210
0.0
220
0.0
230
1.0
 70
     8
 71
     3
 72
    10
 73
     6
 74
     4
 42
0.0000000001
 43
0.0000000001
 44
0.0000000001
 12
0.9986962558939129
 22
0.0510469241333911
 32
0.0
 13
0.9986957581074465
 23
-0.0510566620353545
 33
0.0
 40
0.0
 40
0.0
 40
0.0
 40
0.0
 40
0.2157774062425141
 40
0.4315555418425133
 40
0.6473056518205942
 40
0.6473056518205942
 40
0.6473056518205942
 40
0.6473056518205942
 10
0.7055517535
 20
4.624011048942378
 30
0.0
 10
0.7773837827402996
 20
4.627682639904432
 30
0.0
 10
0.9211855171936685
 20
4.632582287232902
 30
0.0
 10
1.136991650179259
 20
4.632582522915394
 30
0.0
 10
1.280784295751224
 20
4.627682866958791
 30
0.0
 10
1.352607202299999
 20
4.624011040142376
 30
0.0
 11
0.7055517535
 21
4.624011048942378
 31
0.0
 11
0.9212040662999999
 21
4.631357410542378
 31
0.0
 11
1.136982201899999
 21
4.631357410542378
 31
0.0
 11
1.352607202299999
 21
4.624011040142376
 31
0.0
  0
SPLINE
  5
3A7
330
1F
100
AcDbEntity
  8
0
  6
Continuous
 62
     7
100
AcDbSpline
210
0.0
220
0.0
230
1.0
 70
     8
 71
     3
 72
    14
 73
    10
 74
     8
 42
0.0000000001
 43
0.0000000001
 44
0.0000000001
 12
-0.2949793003112149
 22
0.9555036433148259
 32
0.0
 13
0.998566068385179
 23
0.0535332333206754
 33
0.0
 40
0.0
 40
0.0
 40
0.0
 40
0.0
 40
0.0082152845655517
 40
0.0206517594856598
 40
0.0346681702142115
 40
0.0505599100001779
 40
0.0678598104515843
 40
0.0864874541384223
 40
0.1074234146739179
 40
0.1074234146739179
 40
0.1074234146739179
 40
0.1074234146739179
 10
0.6409654388
 20
4.556503151242377
 30
0.0
 10
0.6401576591689988
 20
4.559119729353461
 30
0.0
 10
0.6388641859118712
 20
4.565940918884328
 30
0.0
 10
0.6396455771142638
 20
4.577631095892081
 30
0.0
 10
0.6444918324013756
 20
4.591079262644996
 30
0.0
 10
0.6537827772076814
 20
4.604025418245809
 30
0.0
 10
0.6675192822847519
 20
4.614917038009521
 30
0.0
 10
0.685420898975147
 20
4.62182731970822
 30
0.0
 10
0.6985831069000677
 20
4.623637459055665
 30
0.0
 10
0.7055517535
 20
4.624011048942378
 30
0.0
 11
0.6409654388
 21
4.556503151242377
 31
0.0
 11
0.6394069152000002
 21
4.564569247242378
 31
0.0
 11
0.6401473431
 21
4.576983661242377
 31
0.0
 11
0.6448182122999999
 21
4.590198908142377
 31
0.0
 11
0.6540251378000001
 21
4.603151896842376
 31
0.0
 11
0.6675816036
 21
4.613899398442376
 31
0.0
 11
0.6848509055
 21
4.620882257542376
 31
0.0
 11
0.7055517535
 21
4.624011048942378
 31
0.0
  0
SPLINE
  5
3A8
330
1F
100
AcDbEntity
  8
0
  6
Continuous
 62
     7
100
AcDbSpline
210
0.0
220
0.0
230
1.0
 70
     8
 71
     3
 72
    13
 73
     9
 74
     7
 42
0.0000000001
 43
0.0000000001
 44
0.0000000001
 12
0.0005331741991478
 22
-0.9999998578626264
 32
0.0
 13
-0.8660266958700066
 23
-0.4999977620354709
 33
0.0
 40
0.0
 40
0.0
 40
0.0
 40
0.0
 40
0.0015923987898626
 40
0.0083538322089115
 40
0.0151510821191739
 40
0.0290578045332522
 40
0.0434833064675443
 40
0.0581896161198016
 40
0.0581896161198016
 40
0.0581896161198016
 40
0.0581896161198016
 10
9.776903572874052
 20
5.933384857638897
 30
0.0
 10
9.776903855882702
 20
5.932854058117723
 30
0.0
 10
9.776845188537681
 20
5.930069619856323
 30
0.0
 10
9.776157637617032
 20
5.925034115039414
 30
0.0
 10
9.773351241432886
 20
5.916279082778213
 30
0.0
 10
9.767116115990246
 20
5.90615647964337
 30
0.0
 10
9.756784666550915
 20
5.896068378618364
 30
0.0
 10
9.748699275726247
 20
5.890605605476872
 30
0.0
 10
9.744453923474052
 20
5.888154564838896
 30
0.0
 11
9.776903572874052
 21
5.933384857638897
 31
0.0
 11
9.776869846774053
 21
5.931792816038896
 31
0.0
 11
9.775967746674051
 21
5.925091831238898
 31
0.0
 11
9.773909620774052
 21
5.918613658338896
 31
0.0
 11
9.76678114817405
 21
5.906672895938896
 31
0.0
 11
9.756584247174053
 21
5.896469057638897
 31
0.0
 11
9.744453923474052
 21
5.888154564838896
 31
0.0
  0
SPLINE
  5
3A9
330
1F
100
AcDbEntity
  8
0
  6
Continuous
 62
     7
100
AcDbSpline
210
0.0
220
0.0
230
1.0
 70
     8
 71
     3
 72
    10
 73
     6
 74
     4
 42
0.0000000001
 43
0.0000000001
 44
0.0000000001
 12
-0.8660303002380452
 22
0.4999915189976741
 32
0.0
 13
0.0000045866979273
 23
0.9999999999894811
 33
0.0
 40
0.0
 40
0.0
 40
0.0
 40
0.0
 40
0.006956434958851
 40
0.0127654952910551
 40
0.0154457100934054
 40
0.0154457100934054
 40
0.0154457100934054
 40
0.0154457100934054
 10
9.03451367807405
 20
6.804322499738898
 30
0.0
 10
9.03250551692205
 20
6.805481885899526
 30
0.0
 10
9.029037935598573
 20
6.808067502194739
 30
0.0
 10
9.026241841376613
 20
6.812635836825988
 30
0.0
 10
9.025882034876275
 20
6.815483563204789
 30
0.0
 10
9.025882038974053
 20
6.816376968138897
 30
0.0
 11
9.03451367807405
 21
6.804322499738898
 31
0.0
 11
9.029069753674052
 21
6.808653281938897
 31
0.0
 11
9.026226548474053
 21
6.813718986838897
 31
0.0
 11
9.025882038974053
 21
6.816376968138897
 31
0.0
  0
SPLINE
  5
3AA
330
1F
100
AcDbEntity
  8
0
  6
Continuous
 62
     7
100
AcDbSpline
210
0.0
220
0.0
230
1.0
 70
     8
 71
     3
 72
    12
 73
     8
 74
     6
 42
0.0000000001
 43
0.0000000001
 44
0.0000000001
 12
-0.8660266962593359
 22
-0.4999977613611284
 32
0.0
 13
-0.86603030194932
 23
0.4999915160335922
 33
0.0
 40
0.0
 40
0.0
 40
0.0
 40
0.0
 40
0.0081330881677815
 40
0.0170594997788978
 40
0.0262685535798533
 40
0.0351943401944745
 40
0.0433263988101151
 40
0.0433263988101151
 40
0.0433263988101151
 40
0.0433263988101151
 10
9.201547297574052
 20
6.731996482138898
 30
0.0
 10
9.199199473748608
 20
6.730640973513283
 30
0.0
 10
9.193863471666752
 20
6.728497429771774
 30
0.0
 10
9.185202852530714
 20
6.726933554878137
 30
0.0
 10
9.176132038871779
 20
6.726933681059035
 30
0.0
 10
9.167472005422689
 20
6.728497670303992
 30
0.0
 10
9.162136559466844
 20
6.730641061633662
 30
0.0
 10
9.159789023074052
 20
6.731996381738897
 30
0.0
 11
9.201547297574052
 21
6.731996482138898
 31
0.0
 11
9.194046055374052
 21
6.728853475838897
 31
0.0
 11
9.185271871874052
 21
6.727211974038898
 31
0.0
 11
9.176062818074052
 21
6.727212106738897
 31
0.0
 11
9.167289289574053
 21
6.728853710938897
 31
0.0
 11
9.159789023074052
 21
6.731996381738897
 31
0.0
  0
SPLINE
  5
3AB
330
1F
100
AcDbEntity
  8
0
  6
Continuous
 62
     7
100
AcDbSpline
210
0.0
220
0.0
230
1.0
 70
     8
 71
     3
 72
    13
 73
     9
 74
     7
 42
0.0000000001
 43
0.0000000001
 44
0.0000000001
 12
0.0005331741991478
 22
-0.9999998578626264
 32
0.0
 13
-0.8660266958700066
 23
-0.4999977620354709
 33
0.0
 40
0.0
 40
0.0
 40
0.0
 40
0.0
 40
0.0015923987898626
 40
0.008353832208913
 40
0.0151510821191742
 40
0.0290578045332509
 40
0.0434833064675461
 40
0.0581896161198005
 40
0.0581896161198005
 40
0.0581896161198005
 40
0.0581896161198005
 10
10.07129818227405
 20
6.103352650038898
 30
0.0
 10
10.0712984652827
 20
6.102821850517724
 30
0.0
 10
10.07123979793767
 20
6.100037412256322
 30
0.0
 10
10.07055224701704
 20
6.095001907439415
 30
0.0
 10
10.06774585083287
 20
6.086246875178209
 30
0.0
 10
10.06151072539025
 20
6.07612427204337
 30
0.0
 10
10.05117927595091
 20
6.066036171018367
 30
0.0
 10
10.04309388512624
 20
6.060573397876873
 30
0.0
 10
10.03884853287405
 20
6.058122357238897
 30
0.0
 11
10.07129818227405
 21
6.103352650038898
 31
0.0
 11
10.07126445617405
 21
6.101760608438897
 31
0.0
 11
10.07036235607405
 21
6.095059623638896
 31
0.0
 11
10.06830423017405
 21
6.088581450738897
 31
0.0
 11
10.06117575757405
 21
6.076640688338898
 31
0.0
 11
10.05097885657405
 21
6.066436850038898
 31
0.0
 11
10.03884853287405
 21
6.058122357238897
 31
0.0
  0
SPLINE
  5
3AC
330
1F
100
AcDbEntity
  8
0
  6
Continuous
 62
     7
100
AcDbSpline
210
0.0
220
0.0
230
1.0
 70
     8
 71
     3
 72
    13
 73
     9
 74
     7
 42
0.0000000001
 43
0.0000000001
 44
0.0000000001
 12
0.0005331741991478
 22
-0.9999998578626264
 32
0.0
 13
-0.8660266958700066
 23
-0.4999977620354709
 33
0.0
 40
0.0
 40
0.0
 40
0.0
 40
0.0
 40
0.0015923987919779
 40
0.0083538321976867
 40
0.0151510821079482
 40
0.0290578045220257
 40
0.0434833064563215
 40
0.0581896161085773
 40
0.0581896161085773
 40
0.0581896161085773
 40
0.0581896161085773
 10
10.36569279167405
 20
6.273320442438897
 30
0.0
 10
10.3656930746827
 20
6.272789642917017
 30
0.0
 10
10.36563440702279
 20
6.270005204667007
 30
0.0
 10
10.36494685653747
 20
6.264969699827839
 30
0.0
 10
10.36214046016067
 20
6.256214667582556
 30
0.0
 10
10.35590533481604
 20
6.246092064441818
 30
0.0
 10
10.34557388534327
 20
6.236003963418824
 30
0.0
 10
10.33748849452624
 20
6.230541190276874
 30
0.0
 10
10.33324314227405
 20
6.228090149638898
 30
0.0
 11
10.36569279167405
 21
6.273320442438897
 31
0.0
 11
10.36565906547405
 21
6.271728400838898
 31
0.0
 11
10.36475696547405
 21
6.265027416038898
 31
0.0
 11
10.36269883957405
 21
6.258549243138897
 31
0.0
 11
10.35557036697405
 21
6.246608480738897
 31
0.0
 11
10.34537346597405
 21
6.236404642438897
 31
0.0
 11
10.33324314227405
 21
6.228090149638898
 31
0.0
  0
SPLINE
  5
3AD
330
1F
100
AcDbEntity
  8
0
  6
Continuous
 62
     7
100
AcDbSpline
210
0.0
220
0.0
230
1.0
 70
     8
 71
     3
 72
    10
 73
     6
 74
     4
 42
0.0000000001
 43
0.0000000001
 44
0.0000000001
 12
-0.836754540115576
 22
-0.5475781584358263
 32
0.0
 13
0.0
 23
-1.0
 33
0.0
 40
0.0
 40
0.0
 40
0.0
 40
0.0
 40
0.0085345873702768
 40
0.0189134840943141
 40
0.0291559791199239
 40
0.0291559791199239
 40
0.0291559791199239
 40
0.0291559791199239
 10
9.039241858574053
 20
6.993718076238898
 30
0.0
 10
9.036861406997356
 20
6.992160291693823
 30
0.0
 10
9.032056731671096
 20
6.987923984407241
 30
0.0
 10
9.027081715406918
 20
6.979346767658729
 30
0.0
 10
9.025865169374052
 20
6.972414125747434
 30
0.0
 10
9.025865169374052
 20
6.968999960738897
 30
0.0
 11
9.039241858574053
 21
6.993718076238898
 31
0.0
 11
9.032846437374052
 21
6.988066725138898
 31
0.0
 11
9.027641623474053
 21
6.979087225738897
 31
0.0
 11
9.025865169374052
 21
6.968999960738897
 31
0.0
  0
SPLINE
  5
3AE
330
1F
100
AcDbEntity
  8
0
  6
Continuous
 62
     7
100
AcDbSpline
210
0.0
220
0.0
230
1.0
 70
     8
 71
     3
 72
    13
 73
     9
 74
     7
 42
0.0000000001
 43
0.0000000001
 44
0.0000000001
 12
-0.9874157851886957
 22
-0.1581457149599436
 32
0.0
 13
-0.4014146741693107
 23
-0.9158964239266065
 33
0.0
 40
0.0
 40
0.0
 40
0.0
 40
0.0
 40
0.0419966491013224
 40
0.0981670723287047
 40
0.1509086156017414
 40
0.1994138732817688
 40
0.243155884734356
 40
0.2667001567904593
 40
0.2667001567904593
 40
0.2667001567904593
 40
0.2667001567904593
 10
9.268015419174052
 20
7.134563591738897
 30
0.0
 10
9.254192701091493
 20
7.13234972837288
 30
0.0
 10
9.222093752529742
 20
7.125759277875805
 30
0.0
 10
9.174090495897305
 20
7.110188815240321
 30
0.0
 10
9.126934628883672
 20
7.086647698129297
 30
0.0
 10
9.087985671381765
 20
7.05752051404984
 30
0.0
 10
9.0625966334359
 20
7.027906603245056
 30
0.0
 10
9.051863742239371
 20
7.008093773532277
 30
0.0
 10
9.048713403474053
 20
7.000905735338897
 30
0.0
 11
9.268015419174052
 21
7.134563591738897
 31
0.0
 11
9.226888019274053
 21
7.126063267438897
 31
0.0
 11
9.173536737974052
 21
7.108491778338898
 31
0.0
 11
9.126515261274052
 21
7.084603473338898
 31
0.0
 11
9.087965257774053
 21
7.055164430338897
 31
0.0
 11
9.059867155574051
 21
7.021640405838898
 31
0.0
 11
9.048713403474053
 21
7.000905735338897
 31
0.0
  0
SPLINE
  5
3AF
330
1F
100
AcDbEntity
  8
0
  6
Continuous
 62
     7
100
AcDbSpline
210
0.0
220
0.0
230
1.0
 70
     8
 71
     3
 72
    10
 73
     6
 74
     4
 42
0.0000000001
 43
0.0000000001
 44
0.0000000001
 12
-0.907079491569555
 22
-0.4209593756812141
 32
0.0
 13
-0.83779434075426
 23
-0.5459859362658851
 33
0.0
 40
0.0
 40
0.0
 40
0.0
 40
0.0
 40
0.2109690186518101
 40
0.4279569040550807
 40
0.6390485913129038
 40
0.6390485913129038
 40
0.6390485913129038
 40
0.6390485913129038
 10
9.606697173274051
 20
7.311289911938897
 30
0.0
 10
9.542908616548848
 20
7.281686783145649
 30
0.0
 10
9.415095095709501
 20
7.218167183309623
 30
0.0
 10
9.229214729236117
 20
7.113973030926131
 30
0.0
 10
9.108017550129011
 20
7.0385559511407
 30
0.0
 10
9.049067076474052
 20
7.000138253638897
 30
0.0
 11
9.606697173274051
 21
7.311289911938897
 31
0.0
 11
9.417702785974052
 21
7.217539987138897
 31
0.0
 11
9.228352342974051
 21
7.111567574938898
 31
0.0
 11
9.049067076474052
 21
7.000138253638897
 31
0.0
  0
SPLINE
  5
3B0
330
1F
100
AcDbEntity
  8
0
  6
Continuous
 62
     7
100
AcDbSpline
210
0.0
220
0.0
230
1.0
 70
     8
 71
     3
 72
     8
 73
     4
 74
     2
 42
0.0000000001
 43
0.0000000001
 44
0.0000000001
 12
-0.8377943404521527
 22
-0.5459859367294572
 32
0.0
 13
-0.8365197617307982
 23
-0.5479367556879613
 33
0.0
 40
0.0
 40
0.0
 40
0.0
 40
0.0
 40
0.0117702656051891
 40
0.0117702656051891
 40
0.0117702656051891
 40
0.0117702656051891
 10
9.049067076474052
 20
7.000138253638897
 30
0.0
 10
9.045780055837504
 20
6.997996120474896
 30
0.0
 10
9.042495534100572
 20
6.995850147988661
 30
0.0
 10
9.039213514174052
 20
6.993700360938897
 30
0.0
 11
9.049067076474052
 21
7.000138253638897
 31
0.0
 11
9.039213514174052
 21
6.993700360938897
 31
0.0
  0
SPLINE
  5
3B1
330
1F
100
AcDbEntity
  8
0
  6
Continuous
 62
     7
100
AcDbSpline
210
0.0
220
0.0
230
1.0
 70
     8
 71
     3
 72
     8
 73
     4
 74
     2
 42
0.0000000001
 43
0.0000000001
 44
0.0000000001
 12
-0.8660302991885602
 22
0.4999915208154764
 32
0.0
 13
-0.9638353758133336
 23
0.2664983458312084
 33
0.0
 40
0.0
 40
0.0
 40
0.0
 40
0.0
 40
0.0074802574124195
 40
0.0074802574124195
 40
0.0074802574124195
 40
0.0074802574124195
 10
9.633890615874053
 20
7.310077834638898
 30
0.0
 10
9.631731239352424
 20
7.311324523065473
 30
0.0
 10
9.629394172245479
 20
7.312302726563296
 30
0.0
 10
9.626990926674052
 20
7.312967218638896
 30
0.0
 11
9.633890615874053
 21
7.310077834638898
 31
0.0
 11
9.626990926674052
 21
7.312967218638896
 31
0.0
  0
SPLINE
  5
3B2
330
1F
100
AcDbEntity
  8
0
  6
Continuous
 62
     7
100
AcDbSpline
210
0.0
220
0.0
230
1.0
 70
     8
 71
     3
 72
     9
 73
     5
 74
     3
 42
0.0000000001
 43
0.0000000001
 44
0.0000000001
 12
-0.9638353755365168
 22
0.2664983468323618
 32
0.0
 13
-0.9819809584555782
 23
-0.1889798857832868
 33
0.0
 40
0.0
 40
0.0
 40
0.0
 40
0.0
 40
0.0068600348518897
 40
0.0135390333650173
 40
0.0135390333650173
 40
0.0135390333650173
 40
0.0135390333650173
 10
9.626990926674052
 20
7.312967218638896
 30
0.0
 10
9.624786945251496
 20
7.31357661462131
 30
0.0
 10
9.620280899057148
 20
7.314272985390651
 30
0.0
 10
9.615737996427867
 20
7.313923231464283
 30
0.0
 10
9.613551779974052
 20
7.313502499338897
 30
0.0
 11
9.626990926674052
 21
7.312967218638896
 31
0.0
 11
9.620211184574053
 21
7.314013724838898
 31
0.0
 11
9.613551779974052
 21
7.313502499338897
 31
0.0
  0
SPLINE
  5
3B3
330
1F
100
AcDbEntity
  8
0
  6
Continuous
 62
     7
100
AcDbSpline
210
0.0
220
0.0
230
1.0
 70
     8
 71
     3
 72
     8
 73
     4
 74
     2
 42
0.0000000001
 43
0.0000000001
 44
0.0000000001
 12
-0.9819809583047421
 22
-0.1889798865670642
 32
0.0
 13
-0.907079490442882
 23
-0.4209593781089592
 33
0.0
 40
0.0
 40
0.0
 40
0.0
 40
0.0
 40
0.0072028470334007
 40
0.0072028470334007
 40
0.0072028470334007
 40
0.0072028470334007
 10
9.613551779974052
 20
7.313502499338897
 30
0.0
 10
9.611194093763259
 20
7.313048768267119
 30
0.0
 10
9.60887503567965
 20
7.312300619041495
 30
0.0
 10
9.606697184074052
 20
7.311289917038897
 30
0.0
 11
9.613551779974052
 21
7.313502499338897
 31
0.0
 11
9.606697184074052
 21
7.311289917038897
 31
0.0
  0
SPLINE
  5
3B4
330
1F
100
AcDbEntity
  8
0
  6
Continuous
 62
     7
100
AcDbSpline
210
0.0
220
0.0
230
1.0
 70
     8
 71
     3
 72
    21
 73
    17
 74
    15
 42
0.0000000001
 43
0.0000000001
 44
0.0000000001
 12
-0.8660266961415921
 22
-0.4999977615650683
 32
0.0
 13
0.0000037570257025
 23
0.9999999999929423
 33
0.0
 40
0.0
 40
0.0
 40
0.0
 40
0.0
 40
0.0160138444969123
 40
0.034642312294478
 40
0.055730078996125
 40
0.0786212484818469
 40
0.1022935920074812
 40
0.125507062367785
 40
0.1470837360950677
 40
0.1661843947765254
 40
0.1824635901421745
 40
0.1960556190021734
 40
0.2019930377193161
 40
0.2075602991659556
 40
0.2188941688369244
 40
0.2209339474716894
 40
0.2209339474716894
 40
0.2209339474716894
 40
0.2209339474716894
 10
10.33324314227405
 20
6.228090149638898
 30
0.0
 10
10.32862033665999
 20
6.225421187504729
 30
0.0
 10
10.31816987185178
 20
6.220410746401441
 30
0.0
 10
10.30047929657196
 20
6.214592474409546
 30
0.0
 10
10.27994798892923
 20
6.21056640253855
 30
0.0
 10
10.25740495555263
 20
6.208902291559617
 30
0.0
 10
10.23411267455881
 20
6.209995956619457
 30
0.0
 10
10.21156662198738
 20
6.213925700907411
 30
0.0
 10
10.1912065403973
 20
6.22041914278275
 30
0.0
 10
10.1741329129939
 20
6.228919266363957
 30
0.0
 10
10.16095145874992
 20
6.238709281236378
 30
0.0
 10
10.15296456457317
 20
6.247727540075771
 30
0.0
 10
10.14865515604859
 20
6.254922492356998
 30
0.0
 10
10.14557251336991
 20
6.261896687330855
 30
0.0
 10
10.14423014303132
 20
6.268183908481705
 30
0.0
 10
10.14410641941955
 20
6.272640513127313
 30
0.0
 10
10.14410642197405
 20
6.273320439338897
 30
0.0
 11
10.33324314227405
 21
6.228090149638898
 31
0.0
 11
10.31884191327405
 21
6.221086734838896
 31
0.0
 11
10.30116817927405
 21
6.215199550538897
 31
0.0
 11
10.28048593577405
 21
6.211083884338897
 31
0.0
 11
10.25765866327405
 21
6.209374711838897
 31
0.0
 11
10.23401316937405
 21
6.210501861438897
 31
0.0
 11
10.21115571907405
 21
6.214551820938898
 31
0.0
 11
10.19063386587405
 21
6.221215632938897
 31
0.0
 11
10.17360270287405
 21
6.229862866538897
 31
0.0
 11
10.16063733917405
 21
6.239707232738897
 31
0.0
 11
10.15174283507405
 21
6.249984929238897
 31
0.0
 11
10.14870416507405
 21
6.255085853238897
 31
0.0
 11
10.14646842167405
 21
6.260184465938896
 31
0.0
 11
10.14416333137405
 21
6.271281454738898
 31
0.0
 11
10.14410642197405
 21
6.273320439338897
 31
0.0
  0
SPLINE
  5
3B5
330
1F
100
AcDbEntity
  8
0
  6
Continuous
 62
     7
100
AcDbSpline
210
0.0
220
0.0
230
1.0
 70
     8
 71
     3
 72
    21
 73
    17
 74
    15
 42
0.0000000001
 43
0.0000000001
 44
0.0000000001
 12
-0.8660266961415921
 22
-0.4999977615650683
 32
0.0
 13
0.0000037570257025
 23
0.9999999999929423
 33
0.0
 40
0.0
 40
0.0
 40
0.0
 40
0.0
 40
0.0160138444069845
 40
0.0346423122994236
 40
0.0557300790010691
 40
0.0786212483945366
 40
0.1022935920248208
 40
0.1255070623851209
 40
0.1470837361124072
 40
0.1661843947938637
 40
0.1824635901595142
 40
0.1960556190195124
 40
0.2019930377366551
 40
0.2075602991832956
 40
0.2188941688542618
 40
0.2209339474890276
 40
0.2209339474890276
 40
0.2209339474890276
 40
0.2209339474890276
 10
10.03884853287405
 20
6.058122357238897
 30
0.0
 10
10.03422572728595
 20
6.055453395119715
 30
0.0
 10
10.02377526250805
 20
6.050442953949689
 30
0.0
 10
10.00608468719539
 20
6.04462468202744
 30
0.0
 10
9.985553379559826
 20
6.040598610180465
 30
0.0
 10
9.963010346187775
 20
6.038934498985645
 30
0.0
 10
9.939718065194384
 20
6.040028164259914
 30
0.0
 10
9.917172012587116
 20
6.043957908495976
 30
0.0
 10
9.896811930997369
 20
6.050451350385357
 30
0.0
 10
9.879738303593894
 20
6.0589514739634
 30
0.0
 10
9.86655684934993
 20
6.068741488836494
 30
0.0
 10
9.858569955173177
 20
6.077759747675762
 30
0.0
 10
9.854260546648589
 20
6.084954699956997
 30
0.0
 10
9.851177903969913
 20
6.091928894930855
 30
0.0
 10
9.849835533631322
 20
6.098216116081704
 30
0.0
 10
9.849711810019552
 20
6.102672720727313
 30
0.0
 10
9.849711812574053
 20
6.103352646938897
 30
0.0
 11
10.03884853287405
 21
6.058122357238897
 31
0.0
 11
10.02444730397405
 21
6.051118942438898
 31
0.0
 11
10.00677356987405
 21
6.045231758138897
 31
0.0
 11
9.986091326374053
 21
6.041116091938897
 31
0.0
 11
9.963264053974052
 21
6.039406919338897
 31
0.0
 11
9.939618559974052
 21
6.040534069038897
 31
0.0
 11
9.916761109674053
 21
6.044584028538896
 31
0.0
 11
9.896239256474052
 21
6.051247840538897
 31
0.0
 11
9.879208093474053
 21
6.059895074138897
 31
0.0
 11
9.866242729774052
 21
6.069739440338898
 31
0.0
 11
9.857348225674051
 21
6.080017136838897
 31
0.0
 11
9.854309555674051
 21
6.085118060838897
 31
0.0
 11
9.852073812274053
 21
6.090216673538898
 31
0.0
 11
9.849768721974053
 21
6.101313662338896
 31
0.0
 11
9.849711812574053
 21
6.103352646938897
 31
0.0
  0
SPLINE
  5
3B6
330
1F
100
AcDbEntity
  8
0
  6
Continuous
 62
     7
100
AcDbSpline
210
0.0
220
0.0
230
1.0
 70
     8
 71
     3
 72
    21
 73
    17
 74
    15
 42
0.0000000001
 43
0.0000000001
 44
0.0000000001
 12
-0.8660266961415921
 22
-0.4999977615650683
 32
0.0
 13
0.0000037570257025
 23
0.9999999999929423
 33
0.0
 40
0.0
 40
0.0
 40
0.0
 40
0.0
 40
0.0160138444069813
 40
0.0346423122994238
 40
0.0557300790010708
 40
0.0786212483945366
 40
0.1022935920248207
 40
0.1255070623851227
 40
0.1470837361124071
 40
0.1661843947938648
 40
0.1824635901595138
 40
0.1960556190195128
 40
0.2019930377366555
 40
0.207560299183295
 40
0.2188941688542635
 40
0.2209339474890285
 40
0.2209339474890285
 40
0.2209339474890285
 40
0.2209339474890285
 10
9.744453923474052
 20
5.888154564838896
 30
0.0
 10
9.739831117885952
 20
5.885485602719715
 30
0.0
 10
9.729380653108057
 20
5.880475161549687
 30
0.0
 10
9.711690077795386
 20
5.874656889627438
 30
0.0
 10
9.691158770159823
 20
5.870630817780465
 30
0.0
 10
9.668615736787778
 20
5.868966706585646
 30
0.0
 10
9.645323455794386
 20
5.870060371859915
 30
0.0
 10
9.622777403187113
 20
5.873990116095977
 30
0.0
 10
9.602417321597371
 20
5.880483557985359
 30
0.0
 10
9.585343694193891
 20
5.888983681563397
 30
0.0
 10
9.572162239949934
 20
5.898773696436495
 30
0.0
 10
9.564175345773175
 20
5.907791955275761
 30
0.0
 10
9.559865937248591
 20
5.914986907557
 30
0.0
 10
9.55678329456991
 20
5.921961102530852
 30
0.0
 10
9.555440924231328
 20
5.928248323681706
 30
0.0
 10
9.555317200619549
 20
5.932704928327313
 30
0.0
 10
9.55531720317405
 20
5.933384854538897
 30
0.0
 11
9.744453923474052
 21
5.888154564838896
 31
0.0
 11
9.730052694574053
 21
5.881151150038897
 31
0.0
 11
9.712378960474051
 21
5.875263965738897
 31
0.0
 11
9.691696716974051
 21
5.871148299538897
 31
0.0
 11
9.668869444574053
 21
5.869439126938897
 31
0.0
 11
9.645223950574052
 21
5.870566276638897
 31
0.0
 11
9.622366500274052
 21
5.874616236138898
 31
0.0
 11
9.601844647074052
 21
5.881280048138897
 31
0.0
 11
9.584813484074052
 21
5.889927281738897
 31
0.0
 11
9.571848120374053
 21
5.899771647938897
 31
0.0
 11
9.562953616274052
 21
5.910049344438897
 31
0.0
 11
9.559914946274052
 21
5.915150268438897
 31
0.0
 11
9.557679202874052
 21
5.920248881138896
 31
0.0
 11
9.555374112574053
 21
5.931345869938898
 31
0.0
 11
9.55531720317405
 21
5.933384854538897
 31
0.0
  0
SPLINE
  5
3B7
330
1F
100
AcDbEntity
  8
0
  6
Continuous
 62
     7
100
AcDbSpline
210
0.0
220
0.0
230
1.0
 70
     8
 71
     3
 72
     8
 73
     4
 74
     2
 42
0.0000000001
 43
0.0000000001
 44
0.0000000001
 12
0.539212503068828
 22
-0.84216974330253
 32
0.0
 13
0.5337612878686447
 23
-0.8456351976903551
 33
0.0
 40
0.0
 40
0.0
 40
0.0
 40
0.0
 40
0.0010242098840122
 40
0.0010242098840122
 40
0.0010242098840122
 40
0.0010242098840122
 10
9.635656677474052
 20
7.021447740838897
 30
0.0
 10
9.635840766399129
 20
7.021160221313861
 30
0.0
 10
9.636023930111807
 20
7.020872107281479
 30
0.0
 10
9.636206157974052
 20
7.020583404638898
 30
0.0
 11
9.635656677474052
 21
7.021447740838897
 31
0.0
 11
9.636206157974052
 21
7.020583404638898
 31
0.0
  0
SPLINE
  5
3B8
330
1F
100
AcDbEntity
  8
0
  6
Continuous
 62
     7
100
AcDbSpline
210
0.0
220
0.0
230
1.0
 70
     8
 71
     3
 72
    10
 73
     6
 74
     4
 42
0.0000000001
 43
0.0000000001
 44
0.0000000001
 12
0.5337612690064257
 22
-0.845635209596106
 32
0.0
 13
-0.0000001395088337
 23
-0.9999999999999904
 33
0.0
 40
0.0
 40
0.0
 40
0.0
 40
0.0
 40
0.0201468255933574
 40
0.0482636485687389
 40
0.075287955019529
 40
0.075287955019529
 40
0.075287955019529
 40
0.075287955019529
 10
9.636206157974052
 20
7.020583404638898
 30
0.0
 10
9.639790689705773
 20
7.01490444961112
 30
0.0
 10
9.647522073042043
 20
7.000737408221449
 30
0.0
 10
9.655680302814753
 20
6.976809450908381
 30
0.0
 10
9.657727594930763
 20
6.95836966358916
 30
0.0
 10
9.657727593674053
 20
6.949361561438897
 30
0.0
 11
9.636206157974052
 21
7.020583404638898
 31
0.0
 11
9.645809464774053
 21
7.002872642938897
 31
0.0
 11
9.654777436574052
 21
6.976224355638897
 31
0.0
 11
9.657727593674053
 21
6.949361561438897
 31
0.0
  0
SPLINE
  5
3B9
330
1F
100
AcDbEntity
  8
0
  6
Continuous
 62
     7
100
AcDbSpline
210
0.0
220
0.0
230
1.0
 70
     8
 71
     3
 72
    17
 73
    13
 74
    11
 42
0.0000000001
 43
0.0000000001
 44
0.0000000001
 12
-0.0001921916845045
 22
-0.9999999815311781
 32
0.0
 13
-0.9723037040901328
 23
0.2337210025064232
 33
0.0
 40
0.0
 40
0.0
 40
0.0
 40
0.0
 40
0.0353730449525033
 40
0.0733346330258869
 40
0.1155197170904936
 40
0.1626651266098963
 40
0.2146579189694704
 40
0.2707729651692395
 40
0.3298731438960115
 40
0.3905579718940619
 40
0.4512998388812332
 40
0.510561996974144
 40
0.510561996974144
 40
0.510561996974144
 40
0.510561996974144
 10
9.657739119674053
 20
6.912808338738898
 30
0.0
 10
9.65773685353902
 20
6.901017323972496
 30
0.0
 10
9.653387595793674
 20
6.876407678729268
 30
0.0
 10
9.634731142886742
 20
6.842120471572788
 30
0.0
 10
9.60522508390945
 20
6.811092791509688
 30
0.0
 10
9.566205808245763
 20
6.784226446940621
 30
0.0
 10
9.519109617851702
 20
6.762297854270616
 30
0.0
 10
9.465629622629343
 20
6.746041819284041
 30
0.0
 10
9.407715827699602
 20
6.736040958165323
 30
0.0
 10
9.347503491115507
 20
6.73267558261054
 30
0.0
 10
9.287249512111932
 20
6.736084884065921
 30
0.0
 10
9.247724876382756
 20
6.74295095853884
 30
0.0
 10
9.228517937774052
 20
6.747567895538897
 30
0.0
 11
9.657739119674053
 21
6.912808338738898
 31
0.0
 11
9.651797471574052
 21
6.877937876638897
 31
0.0
 11
9.634149242274052
 21
6.844328024338897
 31
0.0
 11
9.605492336674052
 21
6.813370584538897
 31
0.0
 11
9.566933189474053
 21
6.786243443038897
 31
0.0
 11
9.519947763674052
 21
6.763980913538897
 31
0.0
 11
9.466327441474053
 21
6.747435235638897
 31
0.0
 11
9.408112350274052
 21
6.737245324838896
 31
0.0
 11
9.347524594274052
 21
6.733814264938898
 31
0.0
 11
9.286882355174052
 21
6.737291798838898
 31
0.0
 11
9.228517937774052
 21
6.747567895538897
 31
0.0
  0
SPLINE
  5
3BA
330
1F
100
AcDbEntity
  8
0
  6
Continuous
 62
     7
100
AcDbSpline
210
0.0
220
0.0
230
1.0
 70
     8
 71
     3
 72
    10
 73
     6
 74
     4
 42
0.0000000001
 43
0.0000000001
 44
0.0000000001
 12
-0.0000045867640051
 22
-0.9999999999894809
 32
0.0
 13
-0.8660266959562205
 23
-0.4999977618861429
 33
0.0
 40
0.0
 40
0.0
 40
0.0
 40
0.0
 40
0.0026810486285133
 40
0.0084898658580342
 40
0.0154454955174007
 40
0.0154454955174007
 40
0.0154454955174007
 40
0.0154454955174007
 10
9.773913121274052
 20
7.069521060838898
 30
0.0
 10
9.77391311717494
 20
7.068627377962736
 30
0.0
 10
9.773553147698468
 20
7.065779447890721
 30
0.0
 10
9.770756858497959
 20
7.061211372673555
 30
0.0
 10
9.767289576298118
 20
7.058625989359629
 30
0.0
 10
9.765281655974053
 20
7.057466722938897
 30
0.0
 11
9.773913121274052
 21
7.069521060838898
 31
0.0
 11
9.773568381874051
 21
7.066862268538898
 31
0.0
 11
9.770724999374051
 21
7.061796941938897
 31
0.0
 11
9.765281655974053
 21
7.057466722938897
 31
0.0
  0
SPLINE
  5
3BB
330
1F
100
AcDbEntity
  8
0
  6
Continuous
 62
     7
100
AcDbSpline
210
0.0
220
0.0
230
1.0
 70
     8
 71
     3
 72
    11
 73
     7
 74
     5
 42
0.0000000001
 43
0.0000000001
 44
0.0000000001
 12
0.8660303012117365
 22
-0.4999915173111529
 32
0.0
 13
0.0
 23
-1.0
 33
0.0
 40
0.0
 40
0.0
 40
0.0
 40
0.0
 40
0.0083146726545292
 40
0.0158537884084558
 40
0.0231147445810165
 40
0.0308325682269254
 40
0.0308325682269254
 40
0.0308325682269254
 40
0.0308325682269254
 10
9.759165960874053
 20
7.237751716638897
 30
0.0
 10
9.761566213695212
 20
7.236365961373403
 30
0.0
 10
9.765792853103492
 20
7.23305458731765
 30
0.0
 10
9.770418342162738
 20
7.226792433999478
 30
0.0
 10
9.77326978067351
 20
7.219770761690881
 30
0.0
 10
9.773929990874053
 20
7.214752563720868
 30
0.0
 10
9.773929990874053
 20
7.212179955838898
 30
0.0
 11
9.759165960874053
 21
7.237751716638897
 31
0.0
 11
9.765709668074052
 21
7.232622030738897
 31
0.0
 11
9.770191811674052
 21
7.226559963838897
 31
0.0
 11
9.772921360274052
 21
7.219831587438896
 31
0.0
 11
9.773929990874053
 21
7.212179955838898
 31
0.0
  0
SPLINE
  5
3BC
330
1F
100
AcDbEntity
  8
0
  6
Continuous
 62
     7
100
AcDbSpline
210
0.0
220
0.0
230
1.0
 70
     8
 71
     3
 72
    17
 73
    13
 74
    11
 42
0.0000000001
 43
0.0000000001
 44
0.0000000001
 12
-0.9877382889674073
 22
0.1561187769223748
 32
0.0
 13
-0.0005331745680703
 23
0.99999985786243
 33
0.0
 40
0.0
 40
0.0
 40
0.0
 40
0.0
 40
0.0023569984089769
 40
0.0113594216737711
 40
0.0298762330351072
 40
0.048487295007247
 40
0.0663937653576524
 40
0.0748733567982753
 40
0.0829569628912597
 40
0.0978934195821078
 40
0.1049058406979925
 40
0.1101470589797933
 40
0.1101470589797933
 40
0.1101470589797933
 40
0.1101470589797933
 10
8.163843013574053
 20
6.722160351838897
 30
0.0
 10
8.16306698104886
 20
6.722283009075169
 30
0.0
 10
8.159330800824804
 20
6.722898848939686
 30
0.0
 10
8.14955847924492
 20
6.724834613951395
 30
0.0
 10
8.134732582517489
 20
6.729059107901714
 30
0.0
 10
8.117838118130508
 20
6.736355437852235
 30
0.0
 10
8.105129392529597
 20
6.744509205962511
 30
0.0
 10
8.096581607261526
 20
6.752229379809052
 30
0.0
 10
8.089699380058018
 20
6.760178713522845
 30
0.0
 10
8.08475997290262
 20
6.769121629124088
 30
0.0
 10
8.082648293606666
 20
6.777982731915179
 30
0.0
 10
8.082354904268814
 20
6.782072384726623
 30
0.0
 10
8.08235397277405
 20
6.783819457238898
 30
0.0
 11
8.163843013574053
 21
6.722160351838897
 31
0.0
 11
8.161517406274052
 21
6.722543747438898
 31
0.0
 11
8.152687365274049
 21
6.724297030238897
 31
0.0
 11
8.134895961374052
 21
6.729429110738897
 31
0.0
 11
8.117854645074052
 21
6.736910097738897
 31
0.0
 11
8.102885605674051
 21
6.746737077938897
 31
0.0
 11
8.09661144947405
 21
6.752441325038898
 31
0.0
 11
8.091349963074051
 21
6.758578217438897
 31
0.0
 11
8.084339041874049
 21
6.771767027938897
 31
0.0
 11
8.082726316974051
 21
6.778591481638897
 31
0.0
 11
8.08235397277405
 21
6.783819457238898
 31
0.0
  0
SPLINE
  5
3BD
330
1F
100
AcDbEntity
  8
0
  6
Continuous
 62
     7
100
AcDbSpline
210
0.0
220
0.0
230
1.0
 70
     8
 71
     3
 72
    10
 73
     6
 74
     4
 42
0.0000000001
 43
0.0000000001
 44
0.0000000001
 12
0.8365197585017437
 22
0.5479367606176691
 32
0.0
 13
0.9057708107048048
 23
0.4237679063770175
 33
0.0
 40
0.0
 40
0.0
 40
0.0
 40
0.0
 40
0.22279668172284
 40
0.4396517227479468
 40
0.6382307577194801
 40
0.6382307577194801
 40
0.6382307577194801
 40
0.6382307577194801
 10
9.053991449874052
 20
6.992245901238898
 30
0.0
 10
9.116116058670645
 20
7.032938731925424
 30
0.0
 10
9.24049659196625
 20
7.110555705464308
 30
0.0
 10
9.426137413254588
 20
7.214620906992821
 30
0.0
 10
9.550113965942339
 20
7.276456316172146
 30
0.0
 10
9.610069663774053
 20
7.304506790138898
 30
0.0
 11
9.053991449874052
 21
6.992245901238898
 31
0.0
 11
9.243076340474052
 21
7.110081657838898
 31
0.0
 11
9.432308938574053
 21
7.215992623438898
 31
0.0
 11
9.610069663774053
 21
7.304506790138898
 31
0.0
  0
SPLINE
  5
3BE
330
1F
100
AcDbEntity
  8
0
  6
Continuous
 62
     7
100
AcDbSpline
210
0.0
220
0.0
230
1.0
 70
     8
 71
     3
 72
     8
 73
     4
 74
     2
 42
0.0000000001
 43
0.0000000001
 44
0.0000000001
 12
0.9057708095226546
 22
0.4237679089037715
 32
0.0
 13
0.9070794940671758
 23
0.4209593702993633
 33
0.0
 40
0.0
 40
0.0
 40
0.0
 40
0.0
 40
0.012241098740893
 40
0.012241098740893
 40
0.012241098740893
 40
0.012241098740893
 10
9.610069663774053
 20
7.304506790138898
 30
0.0
 10
9.613765540412716
 20
7.306235918410935
 30
0.0
 10
9.617464093623148
 20
7.307959337332984
 30
0.0
 10
9.621165310174053
 20
7.309677005738897
 30
0.0
 11
9.610069663774053
 21
7.304506790138898
 31
0.0
 11
9.621165310174053
 21
7.309677005738897
 31
0.0
  0
SPLINE
  5
3BF
330
1F
100
AcDbEntity
  8
0
  6
Continuous
 62
     7
100
AcDbSpline
210
0.0
220
0.0
230
1.0
 70
     8
 71
     3
 72
    12
 73
     8
 74
     6
 42
0.0000000001
 43
0.0000000001
 44
0.0000000001
 12
0.8657107831124854
 22
-0.5005445434751708
 32
0.0
 13
-0.0831192645196206
 23
-0.9965396067722132
 33
0.0
 40
0.0
 40
0.0
 40
0.0
 40
0.0
 40
0.0080699636602325
 40
0.0169354577619071
 40
0.0261521887149398
 40
0.0351984680993045
 40
0.043588288716055
 40
0.043588288716055
 40
0.043588288716055
 40
0.043588288716055
 10
9.746440655174053
 20
7.237350887838897
 30
0.0
 10
9.74876940669405
 20
7.236004429080173
 30
0.0
 10
9.753227063540453
 20
7.232416874185163
 30
0.0
 10
9.758642983807458
 20
7.225514412204681
 30
0.0
 10
9.762747327145774
 20
7.217388549328209
 30
0.0
 10
9.76515576537421
 20
7.20878286647696
 30
0.0
 10
9.765514107880425
 20
7.202912532351666
 30
0.0
 10
9.765281655974053
 20
7.200125602838897
 30
0.0
 11
9.746440655174053
 21
7.237350887838897
 31
0.0
 11
9.752801854574054
 21
7.232385059038898
 31
0.0
 11
9.758327703574053
 21
7.225452384338897
 31
0.0
 11
9.762489709974053
 21
7.217228891638897
 31
0.0
 11
9.76488742927405
 21
7.208506156238898
 31
0.0
 11
9.765281655974053
 21
7.200125602838897
 31
0.0
  0
SPLINE
  5
3C0
330
1F
100
AcDbEntity
  8
0
  6
Continuous
 62
     7
100
AcDbSpline
210
0.0
220
0.0
230
1.0
 70
     8
 71
     3
 72
    13
 73
     9
 74
     7
 42
0.0000000001
 43
0.0000000001
 44
0.0000000001
 12
0.0000037575641513
 22
0.9999999999929404
 32
0.0
 13
0.8660266963594514
 23
0.4999977611877223
 33
0.0
 40
0.0
 40
0.0
 40
0.0
 40
0.0
 40
0.0039110168359482
 40
0.0101393523597868
 40
0.0167593267744809
 40
0.0238676125295681
 40
0.0398158220527521
 40
0.0581903478880622
 40
0.0581903478880622
 40
0.0581903478880622
 40
0.0581903478880622
 10
10.14410642197405
 20
6.273320439338897
 30
0.0
 10
10.14410642687268
 20
6.274624111617537
 30
0.0
 10
10.14428687178321
 20
6.278005826465698
 30
0.0
 10
10.14534332262566
 20
6.283517743652915
 30
0.0
 10
10.14764167436338
 20
6.289790122078564
 30
0.0
 10
10.15246717917765
 20
6.298468657726612
 30
0.0
 10
10.16183245794491
 20
6.308849887879857
 30
0.0
 10
10.17125299673861
 20
6.315488324478716
 30
0.0
 10
10.17655727337405
 20
6.318550731738897
 30
0.0
 11
10.14410642197405
 21
6.273320439338897
 31
0.0
 11
10.14431388007405
 21
6.277225950038897
 31
0.0
 11
10.14547603097405
 21
6.283344901638897
 31
0.0
 11
10.14773686507405
 21
6.289566853938898
 31
0.0
 11
10.15116880467405
 21
6.295791764938898
 31
0.0
 11
10.16164284447405
 21
6.307818396938897
 31
0.0
 11
10.17655727337405
 21
6.318550731738897
 31
0.0
  0
SPLINE
  5
3C1
330
1F
100
AcDbEntity
  8
0
  6
Continuous
 62
     7
100
AcDbSpline
210
0.0
220
0.0
230
1.0
 70
     8
 71
     3
 72
    22
 73
    18
 74
    16
 42
0.0000000001
 43
0.0000000001
 44
0.0000000001
 12
0.8660266961361953
 22
0.4999977615744159
 32
0.0
 13
0.0005331745076899
 23
-0.9999998578624623
 33
0.0
 40
0.0
 40
0.0
 40
0.0
 40
0.0
 40
0.0204865916656851
 40
0.0421775363247925
 40
0.0639855024559297
 40
0.0848940367823955
 40
0.1041608900990913
 40
0.1130859188733555
 40
0.1220936132742304
 40
0.1406212663472432
 40
0.1592432253208256
 40
0.1771601800727256
 40
0.1856447364170695
 40
0.1937330755639022
 40
0.2086782777334575
 40
0.2156948048107776
 40
0.2209390918455818
 40
0.2209390918455818
 40
0.2209390918455818
 40
0.2209390918455818
 10
10.17655727337405
 20
6.318550731738897
 30
0.0
 10
10.18247125180582
 20
6.321965148397274
 30
0.0
 10
10.19535751248417
 20
6.327782893291991
 30
0.0
 10
10.21591495654985
 20
6.333681540957124
 30
0.0
 10
10.23720314934127
 20
6.336868017250563
 30
0.0
 10
10.25788909411666
 20
6.337613114702834
 30
0.0
 10
10.27424842342924
 20
6.336491650119154
 30
0.0
 10
10.2865230645043
 20
6.334702178583723
 30
0.0
 10
10.29844888809523
 20
6.332339830056579
 30
0.0
 10
10.31328353021409
 20
6.32811285183488
 30
0.0
 10
10.33018786550995
 20
6.320812253329958
 30
0.0
 10
10.34290403707119
 20
6.312653710264555
 30
0.0
 10
10.35145682656613
 20
6.304929016271076
 30
0.0
 10
10.35834308359175
 20
6.29697502815556
 30
0.0
 10
10.36328538278207
 20
6.288026876333993
 30
0.0
 10
10.36539829852604
 20
6.279160585242425
 30
0.0
 10
10.365691859634
 20
6.275068537868695
 30
0.0
 10
10.36569279167405
 20
6.273320442438897
 30
0.0
 11
10.17655727337405
 21
6.318550731738897
 31
0.0
 11
10.19514636397405
 21
6.327161547538898
 31
0.0
 11
10.21597731237405
 21
6.333208750938898
 31
0.0
 11
10.23753617267405
 21
6.336495531938897
 31
0.0
 11
10.25843096337405
 21
6.337253509038897
 31
0.0
 11
10.27765180587405
 21
6.335922776038897
 31
0.0
 11
10.28648300697405
 21
6.334632029838898
 31
0.0
 11
10.29531821817405
 21
6.332877720438897
 31
0.0
 11
10.31312003907405
 21
6.327742635138897
 31
0.0
 11
10.33017133327405
 21
6.320257267938897
 31
0.0
 11
10.34514913717405
 21
6.310424533938897
 31
0.0
 11
10.35142696697405
 21
6.304716946938897
 31
0.0
 11
10.35669153407405
 21
6.298576461338898
 31
0.0
 11
10.36370656027405
 21
6.285379928638897
 31
0.0
 11
10.36532022947405
 21
6.278551479038897
 31
0.0
 11
10.36569279167405
 21
6.273320442438897
 31
0.0
  0
SPLINE
  5
3C2
330
1F
100
AcDbEntity
  8
0
  6
Continuous
 62
     7
100
AcDbSpline
210
0.0
220
0.0
230
1.0
 70
     8
 71
     3
 72
    22
 73
    18
 74
    16
 42
0.0000000001
 43
0.0000000001
 44
0.0000000001
 12
0.8660266961361953
 22
0.4999977615744159
 32
0.0
 13
0.0005331745076899
 23
-0.9999998578624623
 33
0.0
 40
0.0
 40
0.0
 40
0.0
 40
0.0
 40
0.0204865916656863
 40
0.0421775363247934
 40
0.0639855024559308
 40
0.0848940367823949
 40
0.1041608900990923
 40
0.1130859188733569
 40
0.1220936132742282
 40
0.1406212663472424
 40
0.1592432253208248
 40
0.1771601800727237
 40
0.1856447364170671
 40
0.1937330755639016
 40
0.2086782777334553
 40
0.2156948048107758
 40
0.2209390918455791
 40
0.2209390918455791
 40
0.2209390918455791
 40
0.2209390918455791
 10
9.882162663974051
 20
6.148582939338897
 30
0.0
 10
9.888076642405826
 20
6.151997355997274
 30
0.0
 10
9.900962903084172
 20
6.15781510089199
 30
0.0
 10
9.921520347149854
 20
6.163713748557121
 30
0.0
 10
9.942808539941275
 20
6.166900224850561
 30
0.0
 10
9.963494484716663
 20
6.167645322302833
 30
0.0
 10
9.979853814029244
 20
6.166523857719155
 30
0.0
 10
9.992128455104305
 20
6.164734386183724
 30
0.0
 10
10.00405427869523
 20
6.162372037656577
 30
0.0
 10
10.0188889208141
 20
6.158145059434882
 30
0.0
 10
10.03579325610995
 20
6.150844460929958
 30
0.0
 10
10.04850942767119
 20
6.142685917864556
 30
0.0
 10
10.05706221716613
 20
6.134961223871076
 30
0.0
 10
10.06394847419175
 20
6.12700723575556
 30
0.0
 10
10.06889077338207
 20
6.118059083933993
 30
0.0
 10
10.07100368912603
 20
6.109192792842426
 30
0.0
 10
10.071297250234
 20
6.105100745468695
 30
0.0
 10
10.07129818227405
 20
6.103352650038898
 30
0.0
 11
9.882162663974051
 21
6.148582939338897
 31
0.0
 11
9.900751754574052
 21
6.157193755138897
 31
0.0
 11
9.921582702974053
 21
6.163240958538897
 31
0.0
 11
9.943141563274052
 21
6.166527739538897
 31
0.0
 11
9.964036353974051
 21
6.167285716638897
 31
0.0
 11
9.983257196474053
 21
6.165954983638898
 31
0.0
 11
9.992088397574052
 21
6.164664237438897
 31
0.0
 11
10.00092360877405
 21
6.162909928038897
 31
0.0
 11
10.01872542967405
 21
6.157774842738898
 31
0.0
 11
10.03577672387405
 21
6.150289475538897
 31
0.0
 11
10.05075452777405
 21
6.140456741538897
 31
0.0
 11
10.05703235757405
 21
6.134749154538897
 31
0.0
 11
10.06229692467405
 21
6.128608668938897
 31
0.0
 11
10.06931195087405
 21
6.115412136238898
 31
0.0
 11
10.07092562007405
 21
6.108583686638898
 31
0.0
 11
10.07129818227405
 21
6.103352650038898
 31
0.0
  0
SPLINE
  5
3C3
330
1F
100
AcDbEntity
  8
0
  6
Continuous
 62
     7
100
AcDbSpline
210
0.0
220
0.0
230
1.0
 70
     8
 71
     3
 72
    13
 73
     9
 74
     7
 42
0.0000000001
 43
0.0000000001
 44
0.0000000001
 12
0.0000037575641513
 22
0.9999999999929404
 32
0.0
 13
0.8660266963594514
 23
0.4999977611877223
 33
0.0
 40
0.0
 40
0.0
 40
0.0
 40
0.0
 40
0.0039110167360892
 40
0.0101393523581733
 40
0.0167593267728657
 40
0.0238676124403803
 40
0.0398158220389737
 40
0.0581903478742838
 40
0.0581903478742838
 40
0.0581903478742838
 40
0.0581903478742838
 10
9.55531720317405
 20
5.933384854538897
 30
0.0
 10
9.555317208072683
 20
5.934688526784251
 30
0.0
 10
9.555497652998807
 20
5.938070241630611
 30
0.0
 10
9.556554103811173
 20
5.94358215882092
 30
0.0
 10
9.558852455539753
 20
5.949854537259671
 30
0.0
 10
9.563677960451215
 20
5.958533072844771
 30
0.0
 10
9.573043239086395
 20
5.968914303093546
 30
0.0
 10
9.58246377793861
 20
5.975552739678716
 30
0.0
 10
9.587768054574052
 20
5.978615146938897
 30
0.0
 11
9.55531720317405
 21
5.933384854538897
 31
0.0
 11
9.555524661274052
 21
5.937290365138897
 31
0.0
 11
9.556686812174053
 21
5.943409316838899
 31
0.0
 11
9.558947646274052
 21
5.949631269138897
 31
0.0
 11
9.562379585874053
 21
5.955856180038898
 31
0.0
 11
9.572853625674051
 21
5.967882812138896
 31
0.0
 11
9.587768054574052
 21
5.978615146938897
 31
0.0
  0
SPLINE
  5
3C4
330
1F
100
AcDbEntity
  8
0
  6
Continuous
 62
     7
100
AcDbSpline
210
0.0
220
0.0
230
1.0
 70
     8
 71
     3
 72
    22
 73
    18
 74
    16
 42
0.0000000001
 43
0.0000000001
 44
0.0000000001
 12
0.8660266961361953
 22
0.4999977615744159
 32
0.0
 13
0.0005331745076899
 23
-0.9999998578624623
 33
0.0
 40
0.0
 40
0.0
 40
0.0
 40
0.0
 40
0.0204865916656867
 40
0.0421775363247941
 40
0.0639855024559313
 40
0.0848940367823954
 40
0.1041608900990928
 40
0.1130859188733554
 40
0.1220936132742286
 40
0.1406212663472448
 40
0.1592432253208252
 40
0.1771601800727272
 40
0.1856447364170698
 40
0.1937330755639043
 40
0.2086782777334581
 40
0.2156948048107786
 40
0.2209390918455818
 40
0.2209390918455818
 40
0.2209390918455818
 40
0.2209390918455818
 10
9.587768054574052
 20
5.978615146938897
 30
0.0
 10
9.593682033005828
 20
5.982029563597274
 30
0.0
 10
9.606568293684169
 20
5.987847308491986
 30
0.0
 10
9.627125737749858
 20
5.993745956157126
 30
0.0
 10
9.648413930541277
 20
5.996932432450563
 30
0.0
 10
9.669099875316662
 20
5.997677529902831
 30
0.0
 10
9.685459204629244
 20
5.996556065319156
 30
0.0
 10
9.697733845704306
 20
5.994766593783725
 30
0.0
 10
9.709659669295234
 20
5.992404245256578
 30
0.0
 10
9.724494311414099
 20
5.988177267034881
 30
0.0
 10
9.741398646709953
 20
5.980876668529958
 30
0.0
 10
9.754114818271197
 20
5.972718125464558
 30
0.0
 10
9.762667607766134
 20
5.964993431471075
 30
0.0
 10
9.769553864791754
 20
5.957039443355561
 30
0.0
 10
9.77449616398208
 20
5.948091291533994
 30
0.0
 10
9.776609079726037
 20
5.939225000442426
 30
0.0
 10
9.776902640834
 20
5.935132953068695
 30
0.0
 10
9.776903572874052
 20
5.933384857638897
 30
0.0
 11
9.587768054574052
 21
5.978615146938897
 31
0.0
 11
9.606357145174053
 21
5.987225962738897
 31
0.0
 11
9.627188093574053
 21
5.993273166138898
 31
0.0
 11
9.648746953874052
 21
5.996559947138897
 31
0.0
 11
9.669641744574052
 21
5.997317924238897
 31
0.0
 11
9.688862587074053
 21
5.995987191238898
 31
0.0
 11
9.697693788174051
 21
5.994696445038898
 31
0.0
 11
9.70652899937405
 21
5.992942135638897
 31
0.0
 11
9.724330820274053
 21
5.987807050338897
 31
0.0
 11
9.741382114474051
 21
5.980321683138898
 31
0.0
 11
9.756359918374053
 21
5.970488949138897
 31
0.0
 11
9.762637748174052
 21
5.964781362138896
 31
0.0
 11
9.767902315274053
 21
5.958640876538897
 31
0.0
 11
9.774917341474052
 21
5.945444343838897
 31
0.0
 11
9.776531010674052
 21
5.938615894238897
 31
0.0
 11
9.776903572874052
 21
5.933384857638897
 31
0.0
  0
SPLINE
  5
3C5
330
1F
100
AcDbEntity
  8
0
  6
Continuous
 62
     7
100
AcDbSpline
210
0.0
220
0.0
230
1.0
 70
     8
 71
     3
 72
    10
 73
     6
 74
     4
 42
0.0000000001
 43
0.0000000001
 44
0.0000000001
 12
-0.9070794928394192
 22
-0.4209593729449221
 32
0.0
 13
-0.8365197584955627
 23
-0.5479367606271053
 33
0.0
 40
0.0
 40
0.0
 40
0.0
 40
0.0
 40
0.21071162879947
 40
0.4275661136712394
 40
0.6504679793002234
 40
0.6504679793002234
 40
0.6504679793002234
 40
0.6504679793002234
 10
9.746440655174053
 20
7.237350887838897
 30
0.0
 10
9.682729922711789
 20
7.207783876128354
 30
0.0
 10
9.555033279501026
 20
7.144321533834105
 30
0.0
 10
9.36583207191561
 20
7.03826618868119
 30
0.0
 10
9.241420733142108
 20
6.960631825402393
 30
0.0
 10
9.179266794874052
 20
6.919919783338898
 30
0.0
 11
9.746440655174053
 21
7.237350887838897
 31
0.0
 11
9.557676836474053
 21
7.143715364338897
 31
0.0
 11
9.368442245474051
 21
7.037809098338898
 31
0.0
 11
9.179266794874052
 21
6.919919783338898
 31
0.0
  0
SPLINE
  5
3C6
330
1F
100
AcDbEntity
  8
0
  6
Continuous
 62
     7
100
AcDbSpline
210
0.0
220
0.0
230
1.0
 70
     8
 71
     3
 72
     8
 73
     4
 74
     2
 42
0.0000000001
 43
0.0000000001
 44
0.0000000001
 12
-0.0001102994944534
 22
-0.9999999939170107
 32
0.0
 13
-0.3294631558406596
 23
-0.9441684325074172
 33
0.0
 40
0.0
 40
0.0
 40
0.0
 40
0.0
 40
0.036012976090661
 40
0.036012976090661
 40
0.036012976090661
 40
0.036012976090661
 10
9.65773935057405
 20
6.949361121338897
 30
0.0
 10
9.657738026503032
 20
6.937356796048366
 30
0.0
 10
9.655540322192067
 20
6.925211954400713
 30
0.0
 10
9.651585339274053
 20
6.913877849338897
 30
0.0
 11
9.65773935057405
 21
6.949361121338897
 31
0.0
 11
9.651585339274053
 21
6.913877849338897
 31
0.0
  0
SPLINE
  5
3C7
330
1F
100
AcDbEntity
  8
0
  6
Continuous
 62
     7
100
AcDbSpline
210
0.0
220
0.0
230
1.0
 70
     8
 71
     3
 72
     8
 73
     4
 74
     2
 42
0.0000000001
 43
0.0000000001
 44
0.0000000001
 12
-0.3294631192940349
 22
-0.9441684452601901
 32
0.0
 13
-0.3381490666153539
 23
-0.941092561200632
 33
0.0
 40
0.0
 40
0.0
 40
0.0
 40
0.0
 40
0.0010515413880202
 40
0.0010515413880202
 40
0.0010515413880202
 40
0.0010515413880202
 10
9.651585339274053
 20
6.913877849338897
 30
0.0
 10
9.651469857905464
 20
6.913546905273078
 30
0.0
 10
9.651352849387009
 20
6.913216490164917
 30
0.0
 10
9.651234323474053
 20
6.912886624238897
 30
0.0
 11
9.651585339274053
 21
6.913877849338897
 31
0.0
 11
9.651234323474053
 21
6.912886624238897
 31
0.0
  0
SPLINE
  5
3C8
330
1F
100
AcDbEntity
  8
0
  6
Continuous
 62
     7
100
AcDbSpline
210
0.0
220
0.0
230
1.0
 70
     8
 71
     3
 72
    16
 73
    12
 74
    10
 42
0.0000000001
 43
0.0000000001
 44
0.0000000001
 12
-0.3381491136090094
 22
-0.9410925443150855
 32
0.0
 13
-0.9723037040840274
 23
0.2337210025318228
 33
0.0
 40
0.0
 40
0.0
 40
0.0
 40
0.0
 40
0.0392977425680825
 40
0.0819844336908922
 40
0.1297865446010747
 40
0.1821288376719198
 40
0.2358151281847656
 40
0.2934505517071164
 40
0.3533133452153989
 40
0.4136948871051494
 40
0.4734845191315327
 40
0.4734845191315327
 40
0.4734845191315327
 40
0.4734845191315327
 10
9.651234323474053
 20
6.912886624238897
 30
0.0
 10
9.646804824535308
 20
6.900559020059152
 30
0.0
 10
9.633074526530805
 20
6.876369144559225
 30
0.0
 10
9.602452573035449
 20
6.845332286689652
 30
0.0
 10
9.562613888744852
 20
6.818763997473851
 30
0.0
 10
9.515684718124029
 20
6.797634161354531
 30
0.0
 10
9.46323870064382
 20
6.782116904286443
 30
0.0
 10
9.406857506527094
 20
6.772536814556547
 30
0.0
 10
9.347530123801174
 20
6.769245663013614
 30
0.0
 10
9.28749430805
 20
6.772603086817723
 30
0.0
 10
9.247908218735743
 20
6.779455204026159
 30
0.0
 10
9.228530325174052
 20
6.784113234938898
 30
0.0
 11
9.651234323474053
 21
6.912886624238897
 31
0.0
 11
9.632352409974052
 21
6.878422354138897
 31
0.0
 11
9.602794015574051
 21
6.847625358838898
 31
0.0
 11
9.563283598574052
 21
6.820718691338897
 31
0.0
 11
9.515697346474052
 21
6.798918135038897
 31
0.0
 11
9.464273512274052
 21
6.783497140738897
 31
0.0
 11
9.407473332774053
 21
6.773720553738898
 31
0.0
 11
9.347704803074051
 21
6.770362443538898
 31
0.0
 11
9.287419956774051
 21
6.773778275438897
 31
0.0
 11
9.228530325174052
 21
6.784113234938898
 31
0.0
  0
SPLINE
  5
3C9
330
1F
100
AcDbEntity
  8
0
  6
Continuous
 62
     7
100
AcDbSpline
210
0.0
220
0.0
230
1.0
 70
     8
 71
     3
 72
    13
 73
     9
 74
     7
 42
0.0000000001
 43
0.0000000001
 44
0.0000000001
 12
0.4437127654303636
 22
0.8961690587127741
 32
0.0
 13
0.9807432697586925
 23
0.1953014050718238
 33
0.0
 40
0.0
 40
0.0
 40
0.0
 40
0.0
 40
0.0173710345454983
 40
0.057166249547143
 40
0.1018822557063625
 40
0.1514273282539677
 40
0.2049652943579883
 40
0.2166612219552007
 40
0.2166612219552007
 40
0.2166612219552007
 40
0.2166612219552007
 10
9.076272677774053
 20
7.018173718238897
 30
0.0
 10
9.078841927699576
 20
7.0233628461314
 30
0.0
 10
9.08857084293831
 20
7.039826398171233
 30
0.0
 10
9.111877079937276
 20
7.065070115684573
 30
0.0
 10
9.148823560533466
 20
7.090667223783711
 30
0.0
 10
9.193755931695367
 20
7.111366786989226
 30
0.0
 10
9.230585869955238
 20
7.122204163324895
 30
0.0
 10
9.251853053349201
 20
7.126735533274446
 30
0.0
 10
9.255676620774051
 20
7.127496943638898
 30
0.0
 11
9.076272677774053
 21
7.018173718238897
 31
0.0
 11
9.085063717374053
 21
7.033156056638897
 31
0.0
 11
9.111629296274053
 21
7.062785925938896
 31
0.0
 11
9.148095207074053
 21
7.088665619838898
 31
0.0
 11
9.192943710374052
 21
7.109720927138898
 31
0.0
 11
9.244237746374052
 21
7.125058322138897
 31
0.0
 11
9.255676620774051
 21
7.127496943638898
 31
0.0
  0
SPLINE
  5
3CA
330
1F
100
AcDbEntity
  8
0
  6
Continuous
 62
     7
100
AcDbSpline
210
0.0
220
0.0
230
1.0
 70
     8
 71
     3
 72
    13
 73
     9
 74
     7
 42
0.0000000001
 43
0.0000000001
 44
0.0000000001
 12
-0.0005331738578326
 22
0.9999998578628087
 32
0.0
 13
0.8660266959618477
 23
0.4999977618763962
 33
0.0
 40
0.0
 40
0.0
 40
0.0
 40
0.0
 40
0.0015914669794748
 40
0.0083489438232575
 40
0.0151422161386047
 40
0.0290408008048817
 40
0.0434578613686371
 40
0.0581555653828021
 40
0.0581555653828021
 40
0.0581555653828021
 40
0.0581555653828021
 10
8.08235397277405
 20
6.783819457238898
 30
0.0
 10
8.082353689931187
 20
6.784349946156654
 30
0.0
 10
8.082412322750064
 20
6.787132755060498
 30
0.0
 10
8.083099471463134
 20
6.792165313253766
 30
0.0
 10
8.085904225520454
 20
6.800915222280977
 30
0.0
 10
8.092135702214385
 20
6.81103190206613
 30
0.0
 10
8.102461106126972
 20
6.821114099763422
 30
0.0
 10
8.110541765558849
 20
6.826573676368296
 30
0.0
 10
8.114784633574053
 20
6.829023282738897
 30
0.0
 11
8.08235397277405
 21
6.783819457238898
 31
0.0
 11
8.08238767907405
 21
6.785410567238898
 31
0.0
 11
8.083289251274052
 21
6.792107630838898
 31
0.0
 11
8.085346172874052
 21
6.798582012838897
 31
0.0
 11
8.092470474074049
 21
6.810515787938897
 31
0.0
 11
8.102661408174052
 21
6.820713655238897
 31
0.0
 11
8.114784633574053
 21
6.829023282738897
 31
0.0
  0
SPLINE
  5
3CB
330
1F
100
AcDbEntity
  8
0
  6
Continuous
 62
     7
100
AcDbSpline
210
0.0
220
0.0
230
1.0
 70
     8
 71
     3
 72
    13
 73
     9
 74
     7
 42
0.0000000001
 43
0.0000000001
 44
0.0000000001
 12
0.0000037575641513
 22
0.9999999999929404
 32
0.0
 13
0.8660266963594514
 23
0.4999977611877223
 33
0.0
 40
0.0
 40
0.0
 40
0.0
 40
0.0
 40
0.0039110168359491
 40
0.0101393523597874
 40
0.0167593267744812
 40
0.023867612441995
 40
0.0398158220405909
 40
0.0581903478758996
 40
0.0581903478758996
 40
0.0581903478758996
 40
0.0581903478758996
 10
9.849711812574053
 20
6.103352646938897
 30
0.0
 10
9.849711817472686
 20
6.104656319217538
 30
0.0
 10
9.849892262382564
 20
6.108038034066073
 30
0.0
 10
9.85094871322952
 20
6.1135499512507
 30
0.0
 10
9.853247064937711
 20
6.119822329659989
 30
0.0
 10
9.858072569852588
 20
6.128500865244554
 30
0.0
 10
9.867437848485794
 20
6.138882095493639
 30
0.0
 10
9.876858387338611
 20
6.145520532078717
 30
0.0
 10
9.882162663974051
 20
6.148582939338897
 30
0.0
 11
9.849711812574053
 21
6.103352646938897
 31
0.0
 11
9.849919270674051
 21
6.107258157638898
 31
0.0
 11
9.85108142157405
 21
6.113377109238897
 31
0.0
 11
9.853342255674052
 21
6.119599061538897
 31
0.0
 11
9.856774195274052
 21
6.125823972438896
 31
0.0
 11
9.867248235074052
 21
6.137850604538897
 31
0.0
 11
9.882162663974051
 21
6.148582939338897
 31
0.0
  0
SPLINE
  5
3CC
330
1F
100
AcDbEntity
  8
0
  6
Continuous
 62
     7
100
AcDbSpline
210
0.0
220
0.0
230
1.0
 70
     8
 71
     3
 72
    10
 73
     6
 74
     4
 42
0.0000000001
 43
0.0000000001
 44
0.0000000001
 12
-0.866030302566641
 22
0.4999915149643367
 32
0.0
 13
-0.0000039722534578
 23
0.9999999999921106
 33
0.0
 40
0.0
 40
0.0
 40
0.0
 40
0.0
 40
0.0069356173751266
 40
0.0127562400899617
 40
0.0154458779622637
 40
0.0154458779622637
 40
0.0154458779622637
 40
0.0154458779622637
 10
9.03451367807405
 20
6.956945507338898
 30
0.0
 10
9.032511526469427
 20
6.958101423951765
 30
0.0
 10
9.029046446628886
 20
6.960683428767027
 30
0.0
 10
9.026243819007978
 20
6.965248487006459
 30
0.0
 10
9.02588201103536
 20
6.968103399381471
 30
0.0
 10
9.025882007474052
 20
6.968999945338897
 30
0.0
 11
9.03451367807405
 21
6.956945507338898
 31
0.0
 11
9.029083670274053
 21
6.961260342638897
 31
0.0
 11
9.026228808174051
 21
6.966332759338897
 31
0.0
 11
9.025882007474052
 21
6.968999945338897
 31
0.0
  0
SPLINE
  5
3CD
330
1F
100
AcDbEntity
  8
0
  6
Continuous
 62
     7
100
AcDbSpline
210
0.0
220
0.0
230
1.0
 70
     8
 71
     3
 72
    10
 73
     6
 74
     4
 42
0.0000000001
 43
0.0000000001
 44
0.0000000001
 12
-0.8657732470696201
 22
0.5004364941314
 32
0.0
 13
-0.8413318571572755
 23
-0.5405189230103697
 33
0.0
 40
0.0
 40
0.0
 40
0.0
 40
0.0
 40
0.0068969211413247
 40
0.0125133880057247
 40
0.0154915270924649
 40
0.0154915270924649
 40
0.0154915270924649
 40
0.0154915270924649
 10
9.053991449874052
 20
6.992245901238898
 30
0.0
 10
9.05200105993695
 20
6.99339639158432
 30
0.0
 10
9.048137224635686
 20
6.995102713826956
 30
0.0
 10
9.042771638418289
 20
6.995413063514908
 30
0.0
 10
9.040087477670292
 20
6.994238430416144
 30
0.0
 10
9.039252276574051
 20
6.993701850238897
 30
0.0
 11
9.053991449874052
 21
6.992245901238898
 31
0.0
 11
9.047598996674052
 21
6.994835121838897
 31
0.0
 11
9.04198280547405
 21
6.994890767538898
 31
0.0
 11
9.039252276574051
 21
6.993701850238897
 31
0.0
  0
SPLINE
  5
3CE
330
1F
100
AcDbEntity
  8
0
  6
Continuous
 62
     7
100
AcDbSpline
210
0.0
220
0.0
230
1.0
 70
     8
 71
     3
 72
    12
 73
     8
 74
     6
 42
0.0000000001
 43
0.0000000001
 44
0.0000000001
 12
0.0
 22
1.0
 32
0.0
 13
0.8365197579834081
 23
0.5479367614089974
 33
0.0
 40
0.0
 40
0.0
 40
0.0
 40
0.0
 40
0.0077388508938716
 40
0.016261190307376
 40
0.0251063033614411
 40
0.033744187413413
 40
0.0416913250211151
 40
0.0416913250211151
 40
0.0416913250211151
 40
0.0416913250211151
 10
9.03451367807405
 20
6.956945507338898
 30
0.0
 10
9.03451367807405
 20
6.959525124303522
 30
0.0
 10
9.035251186027259
 20
6.964951705302853
 30
0.0
 10
9.037991204601617
 20
6.972901880532339
 30
0.0
 10
9.042204779123165
 20
6.98052836729412
 30
0.0
 10
9.047529607369256
 20
6.987174289552373
 30
0.0
 10
9.051775470664633
 20
6.990794391624485
 30
0.0
 10
9.053991449874052
 20
6.992245901238898
 30
0.0
 11
9.03451367807405
 21
6.956945507338898
 31
0.0
 11
9.035450563274052
 21
6.964627438038897
 31
0.0
 11
9.038177165474053
 21
6.972701836438897
 31
0.0
 11
9.042450305074053
 21
6.980446273338898
 31
0.0
 11
9.047883957474052
 21
6.987161067638897
 31
0.0
 11
9.053991449874052
 21
6.992245901238898
 31
0.0
  0
SPLINE
  5
3CF
330
1F
100
AcDbEntity
  8
0
  6
Continuous
 62
     7
100
AcDbSpline
210
0.0
220
0.0
230
1.0
 70
     8
 71
     3
 72
    10
 73
     6
 74
     4
 42
0.0000000001
 43
0.0000000001
 44
0.0000000001
 12
0.0000010618321899
 22
-0.9999999999994361
 32
0.0
 13
-0.8660266971663448
 23
-0.4999977597901339
 33
0.0
 40
0.0
 40
0.0
 40
0.0
 40
0.0
 40
0.0026898872382742
 40
0.0085103561822641
 40
0.0154456962811063
 40
0.0154456962811063
 40
0.0154456962811063
 40
0.0154456962811063
 10
9.773913132274053
 20
7.212179955738897
 30
0.0
 10
9.773913133226123
 20
7.211283326659473
 30
0.0
 10
9.77355131754707
 20
7.208428374354654
 30
0.0
 10
9.770748657521354
 20
7.203863420740781
 30
0.0
 10
9.767283719200561
 20
7.201281487676499
 30
0.0
 10
9.765281655974053
 20
7.200125602838897
 30
0.0
 11
9.773913132274053
 21
7.212179955738897
 31
0.0
 11
9.773566288774052
 21
7.209512523838897
 31
0.0
 11
9.770711437074053
 21
7.204440277738897
 31
0.0
 11
9.765281655974053
 21
7.200125602838897
 31
0.0
  0
SPLINE
  5
3D0
330
1F
100
AcDbEntity
  8
0
  6
Continuous
 62
     7
100
AcDbSpline
210
0.0
220
0.0
230
1.0
 70
     8
 71
     3
 72
    10
 73
     6
 74
     4
 42
0.0000000001
 43
0.0000000001
 44
0.0000000001
 12
0.8436596867001799
 22
0.536878322375708
 32
0.0
 13
0.8878282476783571
 23
0.4601749695761147
 33
0.0
 40
0.0
 40
0.0
 40
0.0
 40
0.0
 40
0.134364642269155
 40
0.2665004773711458
 40
0.3963535570992173
 40
0.3963535570992173
 40
0.3963535570992173
 40
0.3963535570992173
 10
9.259633837274053
 20
6.850213380938898
 30
0.0
 10
9.297419847940846
 20
6.87425920218159
 30
0.0
 10
9.37303287406287
 20
6.920913460846933
 30
0.0
 10
9.48744870657665
 20
6.987009548231818
 30
0.0
 10
9.564357967863848
 20
7.028413411634487
 30
0.0
 10
9.602787045274052
 20
7.048331790638897
 30
0.0
 11
9.259633837274053
 21
6.850213380938898
 31
0.0
 11
9.37400027067405
 21
6.920741219438897
 31
0.0
 11
9.488433431374053
 21
6.986808841238898
 31
0.0
 11
9.602787045274052
 21
7.048331790638897
 31
0.0
  0
SPLINE
  5
3D1
330
1F
100
AcDbEntity
  8
0
  6
Continuous
 62
     7
100
AcDbSpline
210
0.0
220
0.0
230
1.0
 70
     8
 71
     3
 72
    15
 73
    11
 74
     9
 42
0.0000000001
 43
0.0000000001
 44
0.0000000001
 12
-0.7911102171664983
 22
0.6116736256328011
 32
0.0
 13
0.8427231549541604
 23
0.5383471780404414
 33
0.0
 40
0.0
 40
0.0
 40
0.0
 40
0.0
 40
0.0044907065691038
 40
0.0104492899883713
 40
0.0182881491452888
 40
0.0281279823028073
 40
0.0399362311202571
 40
0.0528541068183592
 40
0.0660963099884525
 40
0.0798302094783442
 40
0.0798302094783442
 40
0.0798302094783442
 40
0.0798302094783442
 10
9.228517937774052
 20
6.784116212838897
 30
0.0
 10
9.227333723157681
 20
6.78503182842849
 30
0.0
 10
9.225358312208507
 20
6.788113200703631
 30
0.0
 10
9.22421688650327
 20
6.794171995286284
 30
0.0
 10
9.224770362712495
 20
6.802103173560315
 30
0.0
 10
9.22736554850511
 20
6.811634135789455
 30
0.0
 10
9.232208229981754
 20
6.822142055692208
 30
0.0
 10
9.239260510601676
 20
6.832725673560947
 30
0.0
 10
9.248537011165606
 20
6.842345259024948
 30
0.0
 10
9.255775878904739
 20
6.847748845594273
 30
0.0
 10
9.259633837274053
 20
6.850213380938898
 30
0.0
 11
9.228517937774052
 21
6.784116212838897
 31
0.0
 11
9.225880205774052
 21
6.787750606238898
 31
0.0
 11
9.224555102674052
 21
6.793559979538897
 31
0.0
 11
9.224948032174053
 21
6.801388984538896
 31
0.0
 11
9.227425273874052
 21
6.810911882738897
 31
0.0
 11
9.232310151074052
 21
6.821662357838897
 31
0.0
 11
9.239498721874051
 21
6.832395296038898
 31
0.0
 11
9.248655489274051
 21
6.841961358738897
 31
0.0
 11
9.259633837274053
 21
6.850213380938898
 31
0.0
  0
SPLINE
  5
3D2
330
1F
100
AcDbEntity
  8
0
  6
Continuous
 62
     7
100
AcDbSpline
210
0.0
220
0.0
230
1.0
 70
     8
 71
     3
 72
     9
 73
     5
 74
     3
 42
0.0000000001
 43
0.0000000001
 44
0.0000000001
 12
0.9054328650661243
 22
0.4244894896910285
 32
0.0
 13
0.9688123674521918
 23
0.2477954734689058
 33
0.0
 40
0.0
 40
0.0
 40
0.0
 40
0.0
 40
0.0019237340844757
 40
0.0022028598526048
 40
0.0022028598526048
 40
0.0022028598526048
 40
0.0022028598526048
 10
9.606702188474052
 20
7.311282182138897
 30
0.0
 10
9.607282792495297
 20
7.31155438377217
 30
0.0
 10
9.607974629243434
 20
7.311814249712684
 30
0.0
 10
9.608683711908641
 20
7.312004757171608
 30
0.0
 10
9.608773852074053
 20
7.312027812538897
 30
0.0
 11
9.606702188474052
 21
7.311282182138897
 31
0.0
 11
9.608504292174053
 21
7.311955364938897
 31
0.0
 11
9.608773852074053
 21
7.312027812538897
 31
0.0
  0
SPLINE
  5
3D3
330
1F
100
AcDbEntity
  8
0
  6
Continuous
 62
     7
100
AcDbSpline
210
0.0
220
0.0
230
1.0
 70
     8
 71
     3
 72
     9
 73
     5
 74
     3
 42
0.0000000001
 43
0.0000000001
 44
0.0000000001
 12
0.9688123634536934
 22
0.2477954891019388
 32
0.0
 13
0.8660303013018207
 23
-0.4999915171551192
 33
0.0
 40
0.0
 40
0.0
 40
0.0
 40
0.0
 40
0.0058418558008008
 40
0.0128514794069628
 40
0.0128514794069628
 40
0.0128514794069628
 40
0.0128514794069628
 10
9.608773852074053
 20
7.312027812538897
 30
0.0
 10
9.61066040611583
 20
7.312510341044038
 30
0.0
 10
9.615099164235708
 20
7.312517775884672
 30
0.0
 10
9.619141794692833
 20
7.310845256519407
 30
0.0
 10
9.621165310174053
 20
7.309677005738897
 30
0.0
 11
9.608773852074053
 21
7.312027812538897
 31
0.0
 11
9.614613977974052
 21
7.312169969738897
 31
0.0
 11
9.621165310174053
 21
7.309677005738897
 31
0.0
  0
SPLINE
  5
3D4
330
1F
100
AcDbEntity
  8
0
  6
Continuous
 62
     7
100
AcDbSpline
210
0.0
220
0.0
230
1.0
 70
     8
 71
     3
 72
    10
 73
     6
 74
     4
 42
0.0000000001
 43
0.0000000001
 44
0.0000000001
 12
-0.9070628727241679
 22
-0.420995183969342
 32
0.0
 13
-0.8365380637675281
 23
-0.5479088134608489
 33
0.0
 40
0.0
 40
0.0
 40
0.0
 40
0.0
 40
0.2094777234525782
 40
0.4250357939198647
 40
0.6465233548301629
 40
0.6465233548301629
 40
0.6465233548301629
 40
0.6465233548301629
 10
9.765281655974053
 20
7.200125602838897
 30
0.0
 10
9.701945167438514
 20
7.170729231931431
 30
0.0
 10
9.575003015942566
 20
7.107645154510489
 30
0.0
 10
9.386950374572991
 20
7.002230333164194
 30
0.0
 10
9.263308222691549
 20
6.925071152070464
 30
0.0
 10
9.201547297574052
 20
6.884619489838898
 30
0.0
 11
9.765281655974053
 21
7.200125602838897
 31
0.0
 11
9.577623719874052
 21
7.107037388538897
 31
0.0
 11
9.389521678574052
 21
7.001762017238898
 31
0.0
 11
9.201547297574052
 21
6.884619489838898
 31
0.0
  0
SPLINE
  5
3D5
330
1F
100
AcDbEntity
  8
0
  6
Continuous
 62
     7
100
AcDbSpline
210
0.0
220
0.0
230
1.0
 70
     8
 71
     3
 72
    11
 73
     7
 74
     5
 42
0.0000000001
 43
0.0000000001
 44
0.0000000001
 12
0.8660266958783179
 22
0.4999977620210749
 32
0.0
 13
0.9918826199712713
 23
0.1271568645371797
 33
0.0
 40
0.0
 40
0.0
 40
0.0
 40
0.0
 40
0.016004473640864
 40
0.03462204075088
 40
0.0556974675450209
 40
0.0572801655708068
 40
0.0572801655708068
 40
0.0572801655708068
 40
0.0572801655708068
 10
8.703573852374052
 20
7.168958867538897
 30
0.0
 10
8.708193952849542
 20
7.17162626787315
 30
0.0
 10
8.718638712534398
 20
7.17663383137933
 30
0.0
 10
8.736316740963506
 20
7.182448407855044
 30
0.0
 10
8.749858934705546
 20
7.18510355046104
 30
0.0
 10
8.757345872119236
 20
7.186096113399407
 30
0.0
 10
8.757869155674049
 20
7.186163197038896
 30
0.0
 11
8.703573852374052
 21
7.168958867538897
 31
0.0
 11
8.717966654174052
 21
7.175958184138897
 31
0.0
 11
8.735630046174049
 21
7.181841923438898
 31
0.0
 11
8.756300187074051
 21
7.185955181238898
 31
0.0
 11
8.757869155674049
 21
7.186163197038896
 31
0.0
  0
SPLINE
  5
3D6
330
1F
100
AcDbEntity
  8
0
  6
Continuous
 62
     7
100
AcDbSpline
210
0.0
220
0.0
230
1.0
 70
     8
 71
     3
 72
    10
 73
     6
 74
     4
 42
0.0000000001
 43
0.0000000001
 44
0.0000000001
 12
0.8660266963836157
 22
0.4999977611458684
 32
0.0
 13
0.9919286749645944
 23
0.1267970969028228
 33
0.0
 40
0.0
 40
0.0
 40
0.0
 40
0.0
 40
0.0204746035940019
 40
0.0421528553229458
 40
0.0572688752361843
 40
0.0572688752361843
 40
0.0572688752361843
 40
0.0572688752361843
 10
8.409179242974051
 20
6.998991075138897
 30
0.0
 10
8.415089760744143
 20
7.002403493791348
 30
0.0
 10
8.42796831639756
 20
7.008217787680509
 30
0.0
 10
8.446368519707311
 20
7.01349744529006
 30
0.0
 10
8.458476347739626
 20
7.015558882391656
 30
0.0
 10
8.463474352274051
 20
7.016197771538897
 30
0.0
 11
8.409179242974051
 21
6.998991075138897
 31
0.0
 11
8.427757455874052
 21
7.007596852138898
 31
0.0
 11
8.44857621457405
 21
7.013640516938897
 31
0.0
 11
8.463474352274051
 21
7.016197771538897
 31
0.0
  0
SPLINE
  5
3D7
330
1F
100
AcDbEntity
  8
0
  6
Continuous
 62
     7
100
AcDbSpline
210
0.0
220
0.0
230
1.0
 70
     8
 71
     3
 72
    14
 73
    10
 74
     8
 42
0.0000000001
 43
0.0000000001
 44
0.0000000001
 12
0.8660266963023188
 22
0.4999977612866797
 32
0.0
 13
0.959557448967724
 23
-0.281512880931857
 33
0.0
 40
0.0
 40
0.0
 40
0.0
 40
0.0
 40
0.0160044736408624
 40
0.0346220407508815
 40
0.0556974675450206
 40
0.0785752417445391
 40
0.1022337329620722
 40
0.1254336195738065
 40
0.132128264340836
 40
0.132128264340836
 40
0.132128264340836
 40
0.132128264340836
 10
8.114784633574053
 20
6.829023282738897
 30
0.0
 10
8.119404734051805
 20
6.831690683069231
 30
0.0
 10
8.129849076125278
 20
6.836698194246041
 30
0.0
 10
8.147529339388299
 20
6.842513050792343
 30
0.0
 10
8.168048457649231
 20
6.84653681373299
 30
0.0
 10
8.190579030975307
 20
6.84819975443714
 30
0.0
 10
8.213854837981097
 20
6.847107493753778
 30
0.0
 10
8.231498919283072
 20
6.844031398751625
 30
0.0
 10
8.241121979822583
 20
6.84143483011729
 30
0.0
 10
8.243263278574049
 20
6.840806620538897
 30
0.0
 11
8.114784633574053
 21
6.829023282738897
 31
0.0
 11
8.129177435374051
 21
6.836022599338897
 31
0.0
 11
8.146840827374052
 21
6.841906338638897
 31
0.0
 11
8.167510968274052
 21
6.846019596438897
 31
0.0
 11
8.190324882874051
 21
6.847727768838898
 31
0.0
 11
8.213956540174052
 21
6.846601278738898
 31
0.0
 11
8.236800615074052
 21
6.842553689238897
 31
0.0
 11
8.243263278574049
 21
6.840806620538897
 31
0.0
  0
SPLINE
  5
3D8
330
1F
100
AcDbEntity
  8
0
  6
Continuous
 62
     7
100
AcDbSpline
210
0.0
220
0.0
230
1.0
 70
     8
 71
     3
 72
    12
 73
     8
 74
     6
 42
0.0000000001
 43
0.0000000001
 44
0.0000000001
 12
0.8660303019896307
 22
-0.4999915159637699
 32
0.0
 13
0.8660266963104005
 23
0.4999977612726817
 33
0.0
 40
0.0
 40
0.0
 40
0.0
 40
0.0
 40
0.0081174031370185
 40
0.0170509575965146
 40
0.0262755144965235
 40
0.0352090894389022
 40
0.0433265280262805
 40
0.0433265280262805
 40
0.0433265280262805
 40
0.0433265280262805
 10
9.159789023074052
 20
6.884619389438896
 30
0.0
 10
9.162132328770761
 20
6.883266511872174
 30
0.0
 10
9.167464866850764
 20
6.881122705090418
 30
0.0
 10
9.17612757613813
 20
6.879556208865592
 30
0.0
 10
9.185208721785741
 20
6.879556221427566
 30
0.0
 10
9.193871444809099
 20
6.881122748624828
 30
0.0
 10
9.199203991399942
 20
6.883266589465245
 30
0.0
 10
9.201547297574052
 20
6.884619489838898
 30
0.0
 11
9.159789023074052
 21
6.884619389438896
 31
0.0
 11
9.167275110274053
 21
6.881480801838897
 31
0.0
 11
9.176055866674053
 21
6.879835592938897
 31
0.0
 11
9.185280423574052
 21
6.879835606038897
 31
0.0
 11
9.194061194574052
 21
6.881480848238897
 31
0.0
 11
9.201547297574052
 21
6.884619489838898
 31
0.0
  0
SPLINE
  5
3D9
330
1F
100
AcDbEntity
  8
0
  6
Continuous
 62
     7
100
AcDbSpline
210
0.0
220
0.0
230
1.0
 70
     8
 71
     3
 72
    11
 73
     7
 74
     5
 42
0.0000000001
 43
0.0000000001
 44
0.0000000001
 12
0.3610813392590233
 22
0.932534324536588
 32
0.0
 13
0.866026696655618
 23
0.4999977606747434
 33
0.0
 40
0.0
 40
0.0
 40
0.0
 40
0.0
 40
0.0024611307631003
 40
0.0095652568869308
 40
0.0255041341516923
 40
0.0438679077116937
 40
0.0438679077116937
 40
0.0438679077116937
 40
0.0438679077116937
 10
8.379421467674049
 20
6.967755544538897
 30
0.0
 10
8.379717690471393
 20
6.968520574176817
 30
0.0
 10
8.380955453471209
 20
6.971460655504188
 30
0.0
 10
8.385103882394501
 20
6.978922257214988
 30
0.0
 10
8.394462767439597
 20
6.989295254462532
 30
0.0
 10
8.403878070255951
 20
6.995930459919718
 30
0.0
 10
8.409179242974051
 20
6.998991075138897
 30
0.0
 11
8.379421467674049
 21
6.967755544538897
 31
0.0
 11
8.380375699474052
 21
6.970024157838897
 31
0.0
 11
8.383805630774052
 21
6.976245426138897
 31
0.0
 11
8.394273541574049
 21
6.988265020638896
 31
0.0
 11
8.409179242974051
 21
6.998991075138897
 31
0.0
  0
SPLINE
  5
3DA
330
1F
100
AcDbEntity
  8
0
  6
Continuous
 62
     7
100
AcDbSpline
210
0.0
220
0.0
230
1.0
 70
     8
 71
     3
 72
    10
 73
     6
 74
     4
 42
0.0000000001
 43
0.0000000001
 44
0.0000000001
 12
-0.863705285532286
 22
0.5039972021188138
 32
0.0
 13
-0.9070794916897291
 23
-0.4209593754222642
 33
0.0
 40
0.0
 40
0.0
 40
0.0
 40
0.0
 40
0.0016805193483796
 40
0.0069723296838336
 40
0.0131602874379679
 40
0.0131602874379679
 40
0.0131602874379679
 40
0.0131602874379679
 10
9.759161078974052
 20
7.237743445838898
 30
0.0
 10
9.758677254492841
 20
7.238025771522128
 30
0.0
 10
9.756569356312201
 20
7.239035357173501
 30
0.0
 10
9.752021857378675
 20
7.239418347839916
 30
0.0
 10
9.748311645032126
 20
7.23821918078267
 30
0.0
 10
9.746440655174053
 20
7.237350887838897
 30
0.0
 11
9.759161078974052
 21
7.237743445838898
 31
0.0
 11
9.757643626174052
 21
7.238465583138897
 31
0.0
 11
9.752386041374052
 21
7.239066464738898
 31
0.0
 11
9.746440655174053
 21
7.237350887838897
 31
0.0
  0
SPLINE
  5
3DB
330
1F
100
AcDbEntity
  8
0
  6
Continuous
 62
     7
100
AcDbSpline
210
0.0
220
0.0
230
1.0
 70
     8
 71
     3
 72
    11
 73
     7
 74
     5
 42
0.0000000001
 43
0.0000000001
 44
0.0000000001
 12
-0.9431286276468325
 22
-0.332428024861025
 32
0.0
 13
-0.7725532690862135
 23
-0.6349499558423518
 33
0.0
 40
0.0
 40
0.0
 40
0.0
 40
0.0
 40
0.0162990341006385
 40
0.033139092057092
 40
0.0487576111697835
 40
0.0611258864252442
 40
0.0611258864252442
 40
0.0611258864252442
 40
0.0611258864252442
 10
9.280940472474052
 20
6.815094329638898
 30
0.0
 10
9.275816443919618
 20
6.813288244401159
 30
0.0
 10
9.26573302010617
 20
6.808688090423667
 30
0.0
 10
9.251551664361247
 20
6.800730725828401
 30
0.0
 10
9.2391075544183
 20
6.792431182257056
 30
0.0
 10
9.231707497767907
 20
6.786740210514665
 30
0.0
 10
9.228522447274052
 20
6.784122465238898
 30
0.0
 11
9.280940472474052
 21
6.815094329638898
 31
0.0
 11
9.266005234474052
 21
6.808567678238897
 31
0.0
 11
9.251312141074052
 21
6.800339643338898
 31
0.0
 11
9.238320253374054
 21
6.791670791438898
 31
0.0
 11
9.228522447274052
 21
6.784122465238898
 31
0.0
  0
SPLINE
  5
3DC
330
1F
100
AcDbEntity
  8
0
  6
Continuous
 62
     7
100
AcDbSpline
210
0.0
220
0.0
230
1.0
 70
     8
 71
     3
 72
    11
 73
     7
 74
     5
 42
0.0000000001
 43
0.0000000001
 44
0.0000000001
 12
0.3613795402615048
 22
0.9324188049800278
 32
0.0
 13
0.8660266964941058
 23
0.4999977609544927
 33
0.0
 40
0.0
 40
0.0
 40
0.0
 40
0.0
 40
0.0008558775574059
 40
0.0147544622749449
 40
0.0291715228386997
 40
0.0438692268528628
 40
0.0438692268528628
 40
0.0438692268528628
 40
0.0438692268528628
 10
8.67381802367405
 20
7.137722736638897
 30
0.0
 10
8.673921122553455
 20
7.137988748748659
 30
0.0
 10
8.675744904402069
 20
7.142556204405682
 30
0.0
 10
8.680926018454085
 20
7.150970023022692
 30
0.0
 10
8.691249999824359
 20
7.161048933259583
 30
0.0
 10
8.69933098435624
 20
7.166509261172812
 30
0.0
 10
8.703573852374052
 20
7.168958867538897
 30
0.0
 11
8.67381802367405
 21
7.137722736638897
 31
0.0
 11
8.674135391574049
 21
7.138517597638897
 31
0.0
 11
8.681259692874052
 21
7.150451372738897
 31
0.0
 11
8.691450626974052
 21
7.160649240038898
 31
0.0
 11
8.703573852374052
 21
7.168958867538897
 31
0.0
  0
SPLINE
  5
3DD
330
1F
100
AcDbEntity
  8
0
  6
Continuous
 62
     7
100
AcDbSpline
210
0.0
220
0.0
230
1.0
 70
     8
 71
     3
 72
     8
 73
     4
 74
     2
 42
0.0000000001
 43
0.0000000001
 44
0.0000000001
 12
0.3563615265364068
 22
0.9343481483925796
 32
0.0
 13
0.2773963015683039
 23
0.9607555838381719
 33
0.0
 40
0.0
 40
0.0
 40
0.0
 40
0.0
 40
0.0031586076595899
 40
0.0031586076595899
 40
0.0031586076595899
 40
0.0031586076595899
 10
9.635534337674052
 20
7.021790309838896
 30
0.0
 10
9.635909539756486
 20
7.022774056244975
 30
0.0
 10
9.636242481846426
 20
7.023774822256863
 30
0.0
 10
9.636534543874052
 20
7.024786372238898
 30
0.0
 11
9.635534337674052
 21
7.021790309838896
 31
0.0
 11
9.636534543874052
 21
7.024786372238898
 31
0.0
  0
SPLINE
  5
3DE
330
1F
100
AcDbEntity
  8
0
  6
Continuous
 62
     7
100
AcDbSpline
210
0.0
220
0.0
230
1.0
 70
     8
 71
     3
 72
    14
 73
    10
 74
     8
 42
0.0000000001
 43
0.0000000001
 44
0.0000000001
 12
0.277396312337612
 22
0.9607555807287793
 32
0.0
 13
-0.8885702146193612
 23
-0.4587406388050905
 33
0.0
 40
0.0
 40
0.0
 40
0.0
 40
0.0
 40
0.0074008803942496
 40
0.0147481132949946
 40
0.0218236990129767
 40
0.0288566912428873
 40
0.0364391433962693
 40
0.0457299736530765
 40
0.057738475365804
 40
0.057738475365804
 40
0.057738475365804
 40
0.057738475365804
 10
9.636534543874052
 20
7.024786372238898
 30
0.0
 10
9.637218869517191
 20
7.027156517952591
 30
0.0
 10
9.638140771843058
 20
7.032023732304206
 30
0.0
 10
9.637891322265728
 20
7.039369536773299
 30
0.0
 10
9.635537531334502
 20
7.046269434126251
 30
0.0
 10
9.630527349052453
 20
7.051846989340218
 30
0.0
 10
9.622633241433383
 20
7.05448961000985
 30
0.0
 10
9.612893280597015
 20
7.052995035744295
 30
0.0
 10
9.60634384425543
 20
7.05016805322116
 30
0.0
 10
9.602787045274052
 20
7.048331790638897
 30
0.0
 11
9.636534543874052
 21
7.024786372238898
 31
0.0
 11
9.637869519274051
 21
7.032065855138897
 31
0.0
 11
9.637520396974052
 21
7.039404788638898
 31
0.0
 11
9.635102516374052
 21
7.046054432738897
 31
0.0
 11
9.630318435174052
 21
7.051209580338897
 31
0.0
 11
9.623173430274052
 21
7.053747785538897
 31
0.0
 11
9.613930304674052
 21
7.052807489838897
 31
0.0
 11
9.602787045274052
 21
7.048331790638897
 31
0.0
  0
SPLINE
  5
3DF
330
1F
100
AcDbEntity
  8
0
  6
Continuous
 62
     7
100
AcDbSpline
210
0.0
220
0.0
230
1.0
 70
     8
 71
     3
 72
    10
 73
     6
 74
     4
 42
0.0000000001
 43
0.0000000001
 44
0.0000000001
 12
-0.9027493656429466
 22
0.4301669243808239
 32
0.0
 13
-0.7111556695050259
 23
-0.7030345750607566
 33
0.0
 40
0.0
 40
0.0
 40
0.0
 40
0.0
 40
0.0014392125506368
 40
0.0071689410600176
 40
0.0168382416005556
 40
0.0168382416005556
 40
0.0168382416005556
 40
0.0168382416005556
 10
9.635549933874052
 20
7.021223513838897
 30
0.0
 10
9.635116851135014
 20
7.021429881051043
 30
0.0
 10
9.632549549682051
 20
7.021421460730456
 30
0.0
 10
9.628301905865201
 20
7.017164297000132
 30
0.0
 10
9.62424472404057
 20
7.014242149704448
 30
0.0
 10
9.621952598074052
 20
7.011976198838898
 30
0.0
 11
9.635549933874052
 21
7.021223513838897
 31
0.0
 11
9.634116629674053
 21
7.021353789838896
 31
0.0
 11
9.629271813774053
 21
7.018294778938897
 31
0.0
 11
9.621952598074052
 21
7.011976198838898
 31
0.0
  0
SPLINE
  5
3E0
330
1F
100
AcDbEntity
  8
0
  6
Continuous
 62
     7
100
AcDbSpline
210
0.0
220
0.0
230
1.0
 70
     8
 71
     3
 72
    12
 73
     8
 74
     6
 42
0.0000000001
 43
0.0000000001
 44
0.0000000001
 12
-0.8532073083082877
 22
0.5215719404351874
 32
0.0
 13
-0.0454032168013543
 23
0.9989687422057256
 33
0.0
 40
0.0
 40
0.0
 40
0.0
 40
0.0
 40
0.0080723523197091
 40
0.0168978998410586
 40
0.0259367467008989
 40
0.0346121916469702
 40
0.0424128891836641
 40
0.0424128891836641
 40
0.0424128891836641
 40
0.0424128891836641
 10
9.280930372874053
 20
6.815082573638898
 30
0.0
 10
9.278634576209247
 20
6.816486011126654
 30
0.0
 10
9.274198995850866
 20
6.820040401185327
 30
0.0
 10
9.26853454649882
 20
6.826620774106545
 30
0.0
 10
9.263921035451646
 20
6.834219513742121
 30
0.0
 10
9.260768342426237
 20
6.842159630810221
 30
0.0
 10
9.259752384494539
 20
6.847615548036712
 30
0.0
 10
9.259634325574053
 20
6.850213099038898
 30
0.0
 11
9.280930372874053
 21
6.815082573638898
 31
0.0
 11
9.274566759074051
 21
6.820049191338897
 31
0.0
 11
9.268775421174053
 21
6.826708823038897
 31
0.0
 11
9.264089720974054
 21
6.834438309838897
 31
0.0
 11
9.260943017074053
 21
6.842522961938897
 31
0.0
 11
9.259634325574053
 21
6.850213099038898
 31
0.0
  0
SPLINE
  5
3E1
330
1F
100
AcDbEntity
  8
0
  6
Continuous
 62
     7
100
AcDbSpline
210
0.0
220
0.0
230
1.0
 70
     8
 71
     3
 72
    15
 73
    11
 74
     9
 42
0.0000000001
 43
0.0000000001
 44
0.0000000001
 12
-0.8517588014402186
 22
0.5239341028880656
 32
0.0
 13
0.0431179160630167
 23
0.9990699901980756
 33
0.0
 40
0.0
 40
0.0
 40
0.0
 40
0.0
 40
0.0045736736356128
 40
0.0097518276534556
 40
0.0154108731803642
 40
0.0213412785539337
 40
0.0272797351195955
 40
0.0329616483567694
 40
0.0381739509743133
 40
0.0427713075815766
 40
0.0427713075815766
 40
0.0427713075815766
 40
0.0427713075815766
 10
9.621951379474051
 20
7.011971048038897
 30
0.0
 10
9.620652823882702
 20
7.012769815903289
 30
0.0
 10
9.618021281276675
 20
7.01470165141499
 30
0.0
 10
9.614332590656772
 20
7.018297495157071
 30
0.0
 10
9.610857892552933
 20
7.022694758823417
 30
0.0
 10
9.607819801642197
 20
7.027702377036485
 30
0.0
 10
9.605405749641535
 20
7.033047215563716
 30
0.0
 10
9.603735041644672
 20
7.038419313786336
 30
0.0
 10
9.602841048324901
 20
7.043519545966512
 30
0.0
 10
9.602720961428618
 20
7.046800585832046
 30
0.0
 10
9.602787037574053
 20
7.048331612838897
 30
0.0
 11
9.621951379474051
 21
7.011971048038897
 31
0.0
 11
9.618249815074053
 21
7.014657479038898
 31
0.0
 11
9.614527189574053
 21
7.018256831538897
 31
0.0
 11
9.611007795174053
 21
7.022688384238897
 31
0.0
 11
9.607927226174053
 21
7.027755908538898
 31
0.0
 11
9.605486673374052
 21
7.033169684338897
 31
0.0
 11
9.603811547774052
 21
7.038599057438896
 31
0.0
 11
9.602931481874051
 21
7.043736525938898
 31
0.0
 11
9.602787037574053
 21
7.048331612838897
 31
0.0
  0
SPLINE
  5
3E2
330
1F
100
AcDbEntity
  8
0
  6
Continuous
 62
     7
100
AcDbSpline
210
0.0
220
0.0
230
1.0
 70
     8
 71
     3
 72
    12
 73
     8
 74
     6
 42
0.0000000001
 43
0.0000000001
 44
0.0000000001
 12
-0.8365197581370685
 22
-0.5479367611744081
 32
0.0
 13
0.0
 23
-1.0
 33
0.0
 40
0.0
 40
0.0
 40
0.0
 40
0.0
 40
0.0079473973183378
 40
0.0165855213711539
 40
0.0254287006305693
 40
0.0339517697681671
 40
0.0416913235797901
 40
0.0416913235797901
 40
0.0416913235797901
 40
0.0416913235797901
 10
9.179266794874052
 20
6.919919783338898
 30
0.0
 10
9.177050743246534
 20
6.918468226290106
 30
0.0
 10
9.172804764617445
 20
6.91484799684399
 30
0.0
 10
9.167480286470961
 20
6.908202404125046
 30
0.0
 10
9.163266813136694
 20
6.900576257872174
 30
0.0
 10
9.160526660305899
 20
6.892626299111078
 30
0.0
 10
9.159789023074052
 20
6.887199240709438
 30
0.0
 10
9.159789023074052
 20
6.884619389438896
 30
0.0
 11
9.179266794874052
 21
6.919919783338898
 31
0.0
 11
9.173159119974052
 21
6.914834763038897
 31
0.0
 11
9.167725370274052
 21
6.908119738738897
 31
0.0
 11
9.163453092874052
 21
6.900377034738898
 31
0.0
 11
9.160726068374053
 21
6.892302008738898
 31
0.0
 11
9.159789023074052
 21
6.884619389438896
 31
0.0
  0
SPLINE
  5
3E3
330
1F
100
AcDbEntity
  8
0
  6
Continuous
 62
     7
100
AcDbSpline
210
0.0
220
0.0
230
1.0
 70
     8
 71
     3
 72
    17
 73
    13
 74
    11
 42
0.0000000001
 43
0.0000000001
 44
0.0000000001
 12
0.9902412712723091
 22
-0.1393636418475096
 32
0.0
 13
-0.3888952866703837
 23
0.9212819633562574
 33
0.0
 40
0.0
 40
0.0
 40
0.0
 40
0.0
 40
0.0574350430894879
 40
0.115089474129806
 40
0.1713745691367233
 40
0.2248185276752073
 40
0.2742441978457647
 40
0.3188775453524248
 40
0.3586074533283363
 40
0.3942744388321256
 40
0.427770147127378
 40
0.4617482274749412
 40
0.4617482274749412
 40
0.4617482274749412
 40
0.4617482274749412
 10
9.280940974574052
 20
6.815094227538898
 30
0.0
 10
9.299899157935557
 20
6.812426108614024
 30
0.0
 10
9.338253943480252
 20
6.8094270392279
 30
0.0
 10
9.395459142574999
 20
6.811670321522946
 30
0.0
 10
9.450695833889966
 20
6.82049095398673
 30
0.0
 10
9.501741765312123
 20
6.835524305682108
 30
0.0
 10
9.546578747819795
 20
6.856193238544015
 30
0.0
 10
9.583460263942804
 20
6.881755397493462
 30
0.0
 10
9.610908303704967
 20
6.911411059825338
 30
0.0
 10
9.627545543295697
 20
6.9443448814032
 30
0.0
 10
9.63189723152155
 20
6.979182813027085
 30
0.0
 10
9.626353758906477
 20
7.001533427947671
 30
0.0
 10
9.621949120474052
 20
7.011967892138898
 30
0.0
 11
9.280940974574052
 21
6.815094227538898
 31
0.0
 11
9.338196352774053
 21
6.810554861738897
 31
0.0
 11
9.395805331974052
 21
6.812843733538897
 31
0.0
 11
9.451365793674053
 21
6.821846345138897
 31
0.0
 11
9.502565255574053
 21
6.837171873038897
 31
0.0
 11
9.547300376574051
 21
6.858187719938896
 31
0.0
 11
9.583702300574051
 21
6.884014753038897
 31
0.0
 11
9.610248602074053
 21
6.913574175638897
 31
0.0
 11
9.625843088474052
 21
6.945651361438898
 31
0.0
 11
9.629809186274052
 21
6.978911435738897
 31
0.0
 11
9.621949120474052
 21
7.011967892138898
 31
0.0
  0
SPLINE
  5
3E4
330
1F
100
AcDbEntity
  8
0
  6
Continuous
 62
     7
100
AcDbSpline
210
0.0
220
0.0
230
1.0
 70
     8
 71
     3
 72
    31
 73
    27
 74
    25
 42
0.0000000001
 43
0.0000000001
 44
0.0000000001
 12
-0.8895344616395787
 22
-0.456868078941378
 32
0.0
 13
-0.8419633130985028
 23
-0.5395347805250302
 33
0.0
 40
0.0
 40
0.0
 40
0.0
 40
0.0
 40
0.0159146816396613
 40
0.031881925827748
 40
0.0480171412148144
 40
0.0641178124296092
 40
0.0803153382751364
 40
0.096589151428163
 40
0.1128284226806058
 40
0.1290496063989748
 40
0.1455676193081157
 40
0.1619533210624986
 40
0.1783079485624291
 40
0.1945458217886321
 40
0.211110953634999
 40
0.2275645012238798
 40
0.2441058725910338
 40
0.2605331643597937
 40
0.2773570748709229
 40
0.2941583899317192
 40
0.310620249639828
 40
0.3271571015801547
 40
0.343922197741997
 40
0.3606570562527258
 40
0.3772718670610979
 40
0.393906997309017
 40
0.393906997309017
 40
0.393906997309017
 40
0.393906997309017
 10
9.621949120474052
 20
7.011967892138898
 30
0.0
 10
9.617230234552552
 20
7.009544255463006
 30
0.0
 10
9.607814990446682
 20
7.004615000611218
 30
0.0
 10
9.59365001759907
 20
6.997163227198538
 30
0.0
 10
9.579427362290131
 20
6.989686075284511
 30
0.0
 10
9.565309111896521
 20
6.981853200480651
 30
0.0
 10
9.550987411330529
 20
6.974301203848767
 30
0.0
 10
9.536584112783422
 20
6.966802072792804
 30
0.0
 10
9.52246597983296
 20
6.958762127892009
 30
0.0
 10
9.508462332818448
 20
6.950359363445063
 30
0.0
 10
9.49386919468673
 20
6.942911848326886
 30
0.0
 10
9.479666899049949
 20
6.934667788276914
 30
0.0
 10
9.465388476796741
 20
6.926746959987962
 30
0.0
 10
9.451506007512808
 20
6.918025399393912
 30
0.0
 10
9.436983118898675
 20
6.910346638690162
 30
0.0
 10
9.422819480339414
 20
6.901839326786366
 30
0.0
 10
9.40852920616127
 20
6.893638180299518
 30
0.0
 10
9.394595620622091
 20
6.884603753402759
 30
0.0
 10
9.38000341644642
 20
6.876503996960167
 30
0.0
 10
9.365589545457067
 20
6.868074330906526
 30
0.0
 10
9.351583073403823
 20
6.859161619306594
 30
0.0
 10
9.33753812050595
 20
6.85033517376479
 30
0.0
 10
9.323228729519925
 20
6.841763990364646
 30
0.0
 10
9.309090445816401
 20
6.832865446024042
 30
0.0
 10
9.294985548669421
 20
6.823996778684121
 30
0.0
 10
9.28560969769984
 20
6.818085971321337
 30
0.0
 10
9.280940974574052
 20
6.815094227538898
 30
0.0
 11
9.621949120474052
 21
7.011967892138898
 31
0.0
 11
9.607833037574053
 21
7.004618518338898
 31
0.0
 11
9.593699104874053
 21
6.997189868838898
 31
0.0
 11
9.579445909274053
 21
6.989627356638897
 31
0.0
 11
9.565310402074052
 21
6.981918981338897
 31
0.0
 11
9.551003148874052
 21
6.974325408438898
 31
0.0
 11
9.536622731474052
 21
6.966706970938898
 31
0.0
 11
9.52249146437405
 21
6.958705644738897
 31
0.0
 11
9.508457606674053
 21
6.950570680738897
 31
0.0
 11
9.493902358274052
 21
6.942761103638898
 31
0.0
 11
9.479631669674052
 21
6.934708857438898
 31
0.0
 11
9.465429274774052
 21
6.926599244638897
 31
0.0
 11
9.451498479474052
 21
6.918256495138898
 31
0.0
 11
9.437025465874052
 21
6.910198240338897
 31
0.0
 11
9.422817015874052
 21
6.901901302538897
 31
0.0
 11
9.408573521774052
 21
6.893490604438897
 31
0.0
 11
9.394611611374052
 21
6.884834914238897
 31
0.0
 11
9.380028493274052
 21
6.876445836138897
 31
0.0
 11
9.365547205574053
 21
6.867926652238898
 31
0.0
 11
9.351596133974052
 21
6.859188206938897
 31
0.0
 11
9.337571785174052
 21
6.850425495438897
 31
0.0
 11
9.323252461174053
 21
6.841706240338897
 31
0.0
 11
9.309056027274053
 21
6.832845272338897
 31
0.0
 11
9.294992965774051
 21
6.823997547238897
 31
0.0
 11
9.280940974574052
 21
6.815094227538898
 31
0.0
  0
SPLINE
  5
3E5
330
1F
100
AcDbEntity
  8
0
  6
Continuous
 62
     7
100
AcDbSpline
210
0.0
220
0.0
230
1.0
 70
     8
 71
     3
 72
    12
 73
     8
 74
     6
 42
0.0000000001
 43
0.0000000001
 44
0.0000000001
 12
-0.0601713458105768
 22
0.998188063013851
 32
0.0
 13
-0.8660303013591729
 23
0.4999915170557802
 33
0.0
 40
0.0
 40
0.0
 40
0.0
 40
0.0
 40
0.007907664882015
 40
0.0167602111051087
 40
0.0259978663545105
 40
0.0349761116821023
 40
0.0431096640161987
 40
0.0431096640161987
 40
0.0431096640161987
 40
0.0431096640161987
 10
9.201547297574052
 20
6.884619489838898
 30
0.0
 10
9.201388692627995
 20
6.887250602069411
 30
0.0
 10
9.200259053007147
 20
6.892783054464787
 30
0.0
 10
9.196902990592647
 20
6.900814604257827
 30
0.0
 10
9.192059228459971
 20
6.908479441708953
 30
0.0
 10
9.186181933735555
 20
6.915057050125376
 30
0.0
 10
9.181614762467059
 20
6.91856421428204
 30
0.0
 10
9.179266794874052
 20
6.919919783338898
 30
0.0
 11
9.201547297574052
 21
6.884619489838898
 31
0.0
 11
9.200092577674052
 21
6.892392195538897
 31
0.0
 11
9.196736729974052
 21
6.900584012238898
 31
0.0
 11
9.191806184974053
 21
6.908395798238897
 31
0.0
 11
9.18578695817405
 21
6.915057464538897
 31
0.0
 11
9.179266794874052
 21
6.919919783338898
 31
0.0
  0
SPLINE
  5
3E6
330
1F
100
AcDbEntity
  8
0
  6
Continuous
 62
     7
100
AcDbSpline
210
0.0
220
0.0
230
1.0
 70
     8
 71
     3
 72
     9
 73
     5
 74
     3
 42
0.0000000001
 43
0.0000000001
 44
0.0000000001
 12
0.9070794941580667
 22
0.4209593701035124
 32
0.0
 13
0.9452958379305444
 23
-0.3262143142033928
 33
0.0
 40
0.0
 40
0.0
 40
0.0
 40
0.0
 40
0.0061878816655365
 40
0.0112401063409309
 40
0.0112401063409309
 40
0.0112401063409309
 40
0.0112401063409309
 10
9.621165310174053
 20
7.309677005738897
 30
0.0
 10
9.623036277031081
 20
7.310545287994963
 30
0.0
 10
9.626671137254685
 20
7.311718931426008
 30
0.0
 10
9.630544324688072
 20
7.311424476474791
 30
0.0
 10
9.632136273674053
 20
7.310875107138897
 30
0.0
 11
9.621165310174053
 21
7.309677005738897
 31
0.0
 11
9.62711061937405
 21
7.311392575038897
 31
0.0
 11
9.632136273674053
 21
7.310875107138897
 31
0.0
  0
SPLINE
  5
3E7
330
1F
100
AcDbEntity
  8
0
  6
Continuous
 62
     7
100
AcDbSpline
210
0.0
220
0.0
230
1.0
 70
     8
 71
     3
 72
     9
 73
     5
 74
     3
 42
0.0000000001
 43
0.0000000001
 44
0.0000000001
 12
0.9452958334570643
 22
-0.3262143271665334
 32
0.0
 13
0.8637059693077077
 23
-0.5039960303238836
 33
0.0
 40
0.0
 40
0.0
 40
0.0
 40
0.0
 40
0.0002464023339021
 40
0.0019270549089527
 40
0.0019270549089527
 40
0.0019270549089527
 40
0.0019270549089527
 10
9.632136273674053
 20
7.310875107138897
 30
0.0
 10
9.63221391470725
 20
7.310848313815041
 30
0.0
 10
9.63281836582866
 20
7.310631089196356
 30
0.0
 10
9.633401863353583
 20
7.310351914447623
 30
0.0
 10
9.633885726574051
 20
7.310069567038897
 30
0.0
 11
9.632136273674053
 21
7.310875107138897
 31
0.0
 11
9.632368148074052
 21
7.310791750238897
 31
0.0
 11
9.633885726574051
 21
7.310069567038897
 31
0.0
  0
MTEXT
  5
4AE
330
1F
100
AcDbEntity
  8
0
  6
Continuous
 62
     2
100
AcDbMText
 10
4.502050576368459
 20
1.126133317868648
 30
0.0
 40
0.15625
 41
1.5
 71
     1
 72
     1
  1
SCALE  1.00
 73
     1
 44
1.0
1001
ACAD
1000
ACAD_MTEXT_DEFINED_HEIGHT_BEGIN
1070
    46
1040
0.0
1000
ACAD_MTEXT_DEFINED_HEIGHT_END
  0
DIMENSION
  5
4B2
330
1F
100
AcDbEntity
  8
0
100
AcDbDimension
  2
*D1
 10
6.611055679077223
 20
7.858716110742379
 30
0.0
 11
4.605150167277223
 21
7.858716110742379
 31
0.0
 70
    32
  1
<>[]
 71
     5
 42
4.011811023599998
  3
AM_ANSI
100
AcDbAlignedDimension
 13
2.599244655477223
 23
7.358716110742378
 33
0.0
 14
6.611055679077223
 24
7.358716110742378
 34
0.0
 50
0.0000000000000127
100
AcDbRotatedDimension
1001
ACAD
1000
DSTYLE
1002
{
1070
   178
1070
   256
1002
}
  0
DIMENSION
  5
4DF
330
1F
100
AcDbEntity
  8
0
100
AcDbDimension
  2
*D2
 10
1.724223608255556
 20
5.598873591042377
 30
0.0
 11
1.724223608255555
 21
6.478794850892379
 31
0.0
 70
    32
  1
<>[]
 71
     5
 42
1.7598425197
  3
AM_ANSI
100
AcDbAlignedDimension
 13
2.599244655477223
 23
7.358716110742378
 33
0.0
 14
2.599244655477223
 24
5.598873591042377
 34
0.0
 50
90.00000000000005
100
AcDbRotatedDimension
1001
ACAD
1000
DSTYLE
1002
{
1070
   170
1070
     1
1070
   178
1070
   256
1070
   271
1070
     2
1002
}
  0
DIMENSION
  5
50B
330
1F
100
AcDbEntity
  8
0
100
AcDbDimension
  2
*D3
 10
7.3360077149375
 20
1.420768207942377
 30
0.0
 11
7.3360077149375
 21
3.104823326042378
 31
0.0
 70
    32
  1
<>[]
 71
     5
 42
3.368110236199998
  3
AM_ANSI
100
AcDbAlignedDimension
 13
5.392205480497628
 23
4.788878444142376
 33
0.0
 14
6.619464076979233
 24
1.420768207942377
 34
0.0
 50
90.0
100
AcDbRotatedDimension
1001
ACAD
1000
DSTYLE
1002
{
1070
   178
1070
   256
1002
}
  0
ENDSEC
  0
SECTION
  2
OBJECTS
  0
DICTIONARY
  5
C
330
0
100
AcDbDictionary
281
     1
  3
ACAD_COLOR
350
3EB
  3
ACAD_GROUP
350
D
  3
ACAD_LAYOUT
350
1A
  3
ACAD_MATERIAL
350
3EA
  3
ACAD_MLINESTYLE
350
17
  3
ACAD_PLOTSETTINGS
350
19
  3
ACAD_PLOTSTYLENAME
350
E
  3
ACAD_TABLESTYLE
350
3EC
  3
AcDbVariableDictionary
350
5DA
  3
AcmDictionary
350
44A
  3
AMG
350
3F0
  3
AMGSNAPSETTINGS
350
49E
  0
DICTIONARY
  5
3EB
102
{ACAD_REACTORS
330
C
102
}
330
C
100
AcDbDictionary
281
     1
  0
DICTIONARY
  5
D
102
{ACAD_REACTORS
330
C
102
}
330
C
100
AcDbDictionary
281
     1
  0
DICTIONARY
  5
1A
102
{ACAD_REACTORS
330
C
102
}
330
C
100
AcDbDictionary
281
     1
  3
Layout1
350
1E
  3
Model
350
22
  0
DICTIONARY
  5
3EA
102
{ACAD_REACTORS
330
C
102
}
330
C
100
AcDbDictionary
281
     1
  0
DICTIONARY
  5
17
102
{ACAD_REACTORS
330
C
102
}
330
C
100
AcDbDictionary
281
     1
  3
Standard
350
18
  0
DICTIONARY
  5
19
102
{ACAD_REACTORS
330
C
102
}
330
C
100
AcDbDictionary
281
     1
  0
ACDBDICTIONARYWDFLT
  5
E
102
{ACAD_REACTORS
330
C
102
}
330
C
100
AcDbDictionary
281
     1
  3
Normal
350
F
100
AcDbDictionaryWithDefault
340
F
  0
DICTIONARY
  5
3EC
102
{ACAD_REACTORS
330
C
102
}
330
C
100
AcDbDictionary
281
     1
  3
Standard
350
3ED
  0
DICTIONARY
  5
5DA
102
{ACAD_REACTORS
330
C
102
}
330
C
100
AcDbDictionary
281
     1
  3
CTABLESTYLE
350
5DB
  0
DICTIONARY
  5
44A
102
{ACAD_REACTORS
330
C
102
}
330
C
100
AcDbDictionary
281
     1
  3
AcmStdDictionary
350
455
  3
AMDTSECTSYM_ARROWCOLOR
350
474
  0
DICTIONARY
  5
3F0
102
{ACAD_REACTORS
330
C
102
}
330
C
100
AcDbDictionary
281
     1
  0
DICTIONARY
  5
49E
102
{ACAD_REACTORS
330
C
102
}
330
C
100
AcDbDictionary
281
     1
  0
LAYOUT
  5
1E
102
{ACAD_REACTORS
330
1A
102
}
330
1A
100
AcDbPlotSettings
  1

  2

  4

  6

 40
0.0
 41
0.0
 42
0.0
 43
0.0
 44
0.0
 45
0.0
 46
0.0
 47
0.0
 48
0.0
 49
0.0
140
0.0
141
0.0
142
1.0
143
1.0
 70
     0
 72
     0
 73
     0
 74
     0
  7

 75
     0
147
1.0
 76
     0
 77
     2
 78
   300
148
0.0
149
0.0
100
AcDbLayout
  1
Layout1
 70
     1
 71
     1
 10
0.0
 20
0.0
 11
12.0
 21
9.0
 12
0.0
 22
0.0
 32
0.0
 14
1.000000000000000E+20
 24
1.000000000000000E+20
 34
1.000000000000000E+20
 15
-1.000000000000000E+20
 25
-1.000000000000000E+20
 35
-1.000000000000000E+20
146
0.0
 13
0.0
 23
0.0
 33
0.0
 16
1.0
 26
0.0
 36
0.0
 17
0.0
 27
1.0
 37
0.0
 76
     0
330
1B
  0
LAYOUT
  5
22
102
{ACAD_REACTORS
330
1A
102
}
330
1A
100
AcDbPlotSettings
  1

  2

  4

  6

 40
0.0
 41
0.0
 42
0.0
 43
0.0
 44
0.0
 45
0.0
 46
0.0
 47
0.0
 48
0.0
 49
0.0
140
0.0
141
0.0
142
1.0
143
1.0
 70
     0
 72
     0
 73
     0
 74
     0
  7

 75
     0
147
1.0
 76
     0
 77
     2
 78
   300
148
0.0
149
0.0
100
AcDbLayout
  1
Model
 70
     0
 71
     0
 10
0.0
 20
0.0
 11
0.0
 21
0.0
 12
0.0
 22
0.0
 32
0.0
 14
0.0
 24
0.0
 34
0.0
 15
0.0
 25
0.0
 35
0.0
146
0.0
 13
0.0
 23
0.0
 33
0.0
 16
0.0
 26
0.0
 36
0.0
 17
0.0
 27
0.0
 37
0.0
 76
     0
330
1F
  0
MLINESTYLE
  5
18
102
{ACAD_REACTORS
330
17
102
}
330
17
100
AcDbMlineStyle
  2
STANDARD
 70
     0
  3

 62
   256
 51
90.0
 52
90.0
 71
     2
 49
0.5
 62
   256
  6
BYLAYER
 49
-0.5
 62
   256
  6
BYLAYER
  0
ACDBPLACEHOLDER
  5
F
102
{ACAD_REACTORS
330
E
102
}
330
E
  0
TABLESTYLE
  5
3ED
102
{ACAD_REACTORS
330
3EC
102
}
330
3EC
100
AcDbTableStyle
  3
Standard
 70
     0
 71
     0
 40
0.06
 41
0.06
280
     0
281
     0
  7
STANDARD
140
0.18
170
     2
 62
     0
 63
     7
283
     0
274
    -2
284
     1
 64
     0
275
    -2
285
     1
 65
     0
276
    -2
286
     1
 66
     0
277
    -2
287
     1
 67
     0
278
    -2
288
     1
 68
     0
279
    -2
289
     1
 69
     0
  7
STANDARD
140
0.25
170
     5
 62
     0
 63
     7
283
     0
274
    -2
284
     1
 64
     0
275
    -2
285
     1
 65
     0
276
    -2
286
     1
 66
     0
277
    -2
287
     1
 67
     0
278
    -2
288
     1
 68
     0
279
    -2
289
     1
 69
     0
  7
STANDARD
140
0.18
170
     5
 62
     0
 63
     7
283
     0
274
    -2
284
     1
 64
     0
275
    -2
285
     1
 65
     0
276
    -2
286
     1
 66
     0
277
    -2
287
     1
 67
     0
278
    -2
288
     1
 68
     0
279
    -2
289
     1
 69
     0
  0
DICTIONARYVAR
  5
5DB
102
{ACAD_REACTORS
330
5DA
102
}
330
5DA
100
DictionaryVariables
280
     0
  1
STANDARD
  0
DICTIONARY
  5
455
102
{ACAD_REACTORS
330
44A
102
}
330
44A
100
AcDbDictionary
281
     1
  0
XRECORD
  5
474
102
{ACAD_REACTORS
330
44A
102
}
330
44A
100
AcDbXrecord
280
     1
 90
-1023410169
  0
ENDSEC
  0
EOF
