999
DXF file: C:\SAP\Working\ProE\work\PRN-15282\1491-R621.dxf
999
Pro/ENGINEER 2020281 by Parametric Technology Corporation
  0
SECTION
  2
HEADER
  9
$ACADVER
  1
AC1032
  9
$DWGCODEPAGE
  3
ANSI_1252
  9
$EXTMAX
 10
22.0
 20
17.0
 30
0.0
  9
$EXTMIN
 10
0.0
 20
0.0
 30
0.0
  9
$LIMMIN
 10
0.0
 20
0.0
  9
$LIMMAX
 10
22.0
 20
17.0
  9
$VIEWCTR
 10
11.0
 20
8.5
  9
$VIEWSIZE
 40
17.0
  9
$CLAYER
  8
0
  9
$LTSCALE
 40
1.21
  9
$CELTYPE
  6
BYLAYER
  9
$DIMSCALE
 40
1.0
  9
$DIMASZ
 40
0.1875
  9
$DIMEXO
 40
0.0625
  9
$DIMDLI
 40
0.836
  9
$DIMEXE
 40
0.125
  9
$DIMCEN
 40
0.198
  9
$DIMLFAC
 40
1.0
  9
$DIMBLK
  1
_FILLED
  9
$DIMALT
 70
1
  9
$DIMALTD
 70
1
  9
$DIMALTTD
 70
2
  9
$DIMALTF
 40
25.4
  9
$DIMTXT
 40
0.15625
  9
$DIMTOL
 70
0
  9
$DIMLIM
 70
0
  9
$DIMTFAC
 40
1.0
  9
$DIMGAP
 40
0.09
  9
$DIMDSEP
 70
46
  9
$AUNITS
 70
0
  9
$PDMODE
 70
3
  9
$PDSIZE
 40
0.3125
  9
$HANDSEED
  5
621
  9
$TILEMODE
 70
1
  9
$MEASUREMENT
 70
0
  9
$INSUNITS
 70
1
  0
ENDSEC
  0
SECTION
  2
CLASSES
  0
CLASS
  1
ACDBDICTIONARYWDFLT
  2
AcDbDictionaryWithDefault
  3
AutoCAD 2000
 90
0
 91
1
280
0
281
0
  0
CLASS
  1
ACDBPLACEHOLDER
  2
AcDbPlaceHolder
  3
AutoCAD 2000
 90
0
 91
1
280
0
281
0
  0
CLASS
  1
LAYOUT
  2
AcDbLayout
  3
AutoCAD 2000
 90
0
 91
0
280
0
281
0
  0
ENDSEC
  0
SECTION
  2
TABLES
  0
TABLE
  2
VPORT
  5
8
100
AcDbSymbolTable
 70
2
  0
VPORT
  5
1F4
100
AcDbSymbolTableRecord
100
AcDbViewportTableRecord
  2
*ACTIVE
 70
0
 10
0.0
 20
0.0
 11
1.0
 21
1.0
 12
11.0
 22
8.5
 13
0.0
 23
0.0
 14
1.0
 24
1.0
 15
0.0
 25
0.0
 16
0.0
 26
0.0
 36
1.0
 17
0.0
 27
0.0
 37
0.0
 40
17.0
 41
1.2941176471
 42
50.0
 43
0.0
 44
0.0
 50
0.0
 51
0.0
 71
0
 72
100
 73
1
 74
1
 75
0
 76
0
 77
0
 78
0
  0
ENDTAB
  0
TABLE
  2
LTYPE
  5
5
100
AcDbSymbolTable
 70
6
  0
LTYPE
  5
14
100
AcDbSymbolTableRecord
100
AcDbLinetypeTableRecord
  2
BYBLOCK
 70
0
  3

 72
65
 73
0
 40
0.0
  0
LTYPE
  5
15
100
AcDbSymbolTableRecord
100
AcDbLinetypeTableRecord
  2
BYLAYER
 70
0
  3

 72
65
 73
0
 40
0.0
  0
LTYPE
  5
16
100
AcDbSymbolTableRecord
100
AcDbLinetypeTableRecord
  2
CONTINUOUS
 70
64
  3
Solid line
 72
65
 73
0
 40
0.0
  0
LTYPE
  5
1F5
100
AcDbSymbolTableRecord
100
AcDbLinetypeTableRecord
  2
CENTER
 70
64
  3
____ _ ____ _ ____ _ ____ _ ____ _ ____ _ ____
 72
65
 73
4
 40
0.6
 49
0.375
 74
0
 49
-0.075
 74
0
 49
0.075
 74
0
 49
-0.075
 74
0
  0
LTYPE
  5
1F6
100
AcDbSymbolTableRecord
100
AcDbLinetypeTableRecord
  2
HIDDEN
 70
64
  3
- - - - - - - - - - - - - - - - - - - -
 72
65
 73
2
 40
0.2
 49
0.1
 74
0
 49
-0.1
 74
0
  0
LTYPE
  5
1F7
100
AcDbSymbolTableRecord
100
AcDbLinetypeTableRecord
  2
PHANTOM
 70
64
  3
_____ _ _ _____ _ _ _____ _ _ _____
 72
65
 73
6
 40
0.8
 49
0.45
 74
0
 49
-0.05
 74
0
 49
0.1
 74
0
 49
-0.05
 74
0
 49
0.1
 74
0
 49
-0.05
 74
0
  0
LTYPE
  5
1F8
100
AcDbSymbolTableRecord
100
AcDbLinetypeTableRecord
  2
DOT
 70
64
  3
. . . . . . . . . . . . . . . . . . . .
 72
65
 73
2
 40
0.2
 49
0.1
 74
0
 49
-0.1
 74
0
  0
LTYPE
  5
1F9
100
AcDbSymbolTableRecord
100
AcDbLinetypeTableRecord
  2
DASHED
 70
64
  3
- - - - - - - - - - - - - - - - - - - -
 72
65
 73
2
 40
0.2
 49
0.1
 74
0
 49
-0.1
 74
0
  0
ENDTAB
  0
TABLE
  2
LAYER
  5
2
100
AcDbSymbolTable
 70
36
  0
LAYER
  5
10
100
AcDbSymbolTableRecord
100
AcDbLayerTableRecord
  2
0
 70
0
 62
7
  6
CONTINUOUS
370
-3
390
F
  0
LAYER
  5
1FA
100
AcDbSymbolTableRecord
100
AcDbLayerTableRecord
  2
DEFAULT_1
 70
0
 62
7
  6
CENTER
370
-3
390
F
  0
LAYER
  5
1FB
100
AcDbSymbolTableRecord
100
AcDbLayerTableRecord
  2
DEFAULT_2
 70
0
 62
8
  6
HIDDEN
370
-3
390
F
  0
LAYER
  5
1FC
100
AcDbSymbolTableRecord
100
AcDbLayerTableRecord
  2
DEFAULT_3
 70
0
 62
7
  6
PHANTOM
370
-3
390
F
  0
LAYER
  5
1FD
100
AcDbSymbolTableRecord
100
AcDbLayerTableRecord
  2
CSYS_PART
 70
0
 62
7
  6
CONTINUOUS
370
-3
390
F
  0
ENDTAB
  0
TABLE
  2
STYLE
  5
3
100
AcDbSymbolTable
 70
1
  0
STYLE
  5
11
100
AcDbSymbolTableRecord
100
AcDbTextStyleTableRecord
  2
STANDARD
 70
0
 40
0.0
 41
0.8
 50
0.0
 71
0
 42
0.2
  3
txt
  4

  0
STYLE
  5
1FE
100
AcDbSymbolTableRecord
100
AcDbTextStyleTableRecord
  2
TEXTSTYLE_1
 70
0
 40
0.0
 41
0.8
 50
0.0
 71
0
 42
0.2
  3
gdt
  4

  0
ENDTAB
  0
TABLE
  2
VIEW
  5
6
100
AcDbSymbolTable
 70
0
  0
ENDTAB
  0
TABLE
  2
UCS
  5
7
100
AcDbSymbolTable
 70
0
  0
ENDTAB
  0
TABLE
  2
APPID
  5
9
100
AcDbSymbolTable
 70
1
  0
APPID
  5
1FF
100
AcDbSymbolTableRecord
100
AcDbRegAppTableRecord
  2
ACAD
 70
0
  0
ENDTAB
  0
TABLE
  2
BLOCK_RECORD
  5
1
100
AcDbSymbolTable
 70
0
  0
BLOCK_RECORD
  5
200
100
AcDbSymbolTableRecord
100
AcDbBlockTableRecord
  2
*Model_Space
  0
BLOCK_RECORD
  5
201
100
AcDbSymbolTableRecord
100
AcDbBlockTableRecord
  2
*Paper_Space
  0
BLOCK_RECORD
  5
202
100
AcDbSymbolTableRecord
100
AcDbBlockTableRecord
  2
_FILLED
  0
BLOCK_RECORD
  5
203
100
AcDbSymbolTableRecord
100
AcDbBlockTableRecord
  2
*D0
  0
BLOCK_RECORD
  5
204
100
AcDbSymbolTableRecord
100
AcDbBlockTableRecord
  2
*D1
  0
BLOCK_RECORD
  5
205
100
AcDbSymbolTableRecord
100
AcDbBlockTableRecord
  2
*D2
  0
BLOCK_RECORD
  5
206
100
AcDbSymbolTableRecord
100
AcDbBlockTableRecord
  2
*D3
  0
BLOCK_RECORD
  5
207
100
AcDbSymbolTableRecord
100
AcDbBlockTableRecord
  2
*D4
  0
BLOCK_RECORD
  5
208
100
AcDbSymbolTableRecord
100
AcDbBlockTableRecord
  2
*D5
  0
ENDTAB
  0
TABLE
  2
DIMSTYLE
  5
A
100
AcDbSymbolTable
 70
1
100
AcDbDimStyleTable
 71
0
  0
DIMSTYLE
105
209
100
AcDbSymbolTableRecord
100
AcDbDimStyleTableRecord
  2
STANDARD
 70
0
  3

  4

 40
1.0
 41
0.1875
 42
0.0625
 43
0.38
 44
0.125
 45
0.0
 46
0.0
 47
0.05
 48
0.05
140
0.15625
141
0.09
142
0.0
143
25.4
144
1.0
145
0.0
146
1.0
147
0.09
 71
0
 72
0
 73
1
 74
1
 75
0
 76
0
 77
0
 78
4
 79
1
170
1
171
1
172
0
173
0
174
0
175
0
176
0
177
0
178
0
270
2
179
2
271
2
272
2
273
2
274
2
275
0
280
0
281
0
282
0
283
1
284
4
285
0
286
0
287
3
288
0
340
11
278
46
341
202
342
202
343
202
344
202
  0
DIMSTYLE
105
20A
100
AcDbSymbolTableRecord
100
AcDbDimStyleTableRecord
  2
DIMSTYLE_1
 70
0
  3

  4

 40
1.0
 41
0.1875
 42
0.0625
 43
0.38
 44
0.125
 45
0.0
 46
0.0
 47
0.0
 48
0.0
140
0.15625
141
0.09
142
0.0
143
25.4
144
1.0
145
0.0
146
1.0
147
0.078125
 71
0
 72
0
 73
1
 74
1
 75
0
 76
0
 77
0
 78
4
 79
1
170
1
171
1
172
0
173
0
174
0
175
0
176
0
177
0
178
0
270
2
179
2
271
2
272
2
273
2
274
2
275
0
280
0
281
0
282
0
283
1
284
4
285
0
286
0
287
3
288
0
340
11
278
46
341
202
342
202
343
202
344
202
  0
ENDTAB
  0
ENDSEC
  0
SECTION
  2
BLOCKS
  0
BLOCK
  5
20
100
AcDbEntity
  8
0
100
AcDbBlockBegin
  2
*Model_Space
 70
0
 10
0.0
 20
0.0
 30
0.0
  3
*Model_Space
  1

  0
ENDBLK
  5
21
100
AcDbEntity
  8
0
100
AcDbBlockEnd
  0
BLOCK
  5
1C
100
AcDbEntity
  8
0
100
AcDbBlockBegin
  2
*Paper_Space
 70
0
 10
0.0
 20
0.0
 30
0.0
  3
*Paper_Space
  1

  0
ENDBLK
  5
1D
100
AcDbEntity
  8
0
100
AcDbBlockEnd
  0
BLOCK
  5
20B
100
AcDbEntity
  8
0
100
AcDbBlockBegin
  2
_FILLED
 70
64
 10
0.0
 20
0.0
  3
_FILLED
  1

  0
SOLID
  5
20C
100
AcDbEntity
  8
0
  6
BYBLOCK
 62
0
100
AcDbTrace
 10
0.0
 20
0.0
 11
-1.0
 21
0.1666666667
 12
-1.0
 22
-0.1666666667
 13
-1.0
 23
-0.1666666667
  0
ENDBLK
  5
20D
100
AcDbEntity
  8
0
  6
BYBLOCK
 62
0
100
AcDbBlockEnd
  0
BLOCK
  5
20E
100
AcDbEntity
  8
0
100
AcDbBlockBegin
 62
2
  6
CONTINUOUS
  2
*D0
 70
65
 10
0.0
 20
0.0
  3
*D0
  1

  0
LINE
  5
20F
100
AcDbEntity
  8
0
100
AcDbLine
 62
2
  6
CONTINUOUS
 10
15.4649615455
 20
7.1089190175
 11
15.4649615455
 21
10.7702758155
  0
LINE
  5
210
100
AcDbEntity
  8
0
100
AcDbLine
 62
2
  6
CONTINUOUS
 10
18.9649615455
 20
7.1089190175
 11
18.9649615455
 21
10.7702758155
  0
LINE
  5
211
100
AcDbEntity
  8
0
100
AcDbLine
 62
2
  6
CONTINUOUS
 10
15.4649615455
 20
10.6452758155
 11
16.6659528164
 21
10.6452758155
  0
LINE
  5
212
100
AcDbEntity
  8
0
100
AcDbLine
 62
2
  6
CONTINUOUS
 10
18.9649615455
 20
10.6452758155
 11
17.5722028164
 21
10.6452758155
  0
INSERT
  5
213
100
AcDbEntity
  8
0
100
AcDbBlockReference
 62
2
  6
CONTINUOUS
  2
_FILLED
 10
15.4649615455
 20
10.6452758155
 41
0.1875
 42
0.1875
 43
0.1875
 50
180.0
  0
INSERT
  5
214
100
AcDbEntity
  8
0
100
AcDbBlockReference
 62
2
  6
CONTINUOUS
  2
_FILLED
 10
18.9649615455
 20
10.6452758155
 41
0.1875
 42
0.1875
 43
0.1875
  0
ENDBLK
  5
215
100
AcDbEntity
  8
0
  6
BYBLOCK
 62
0
100
AcDbBlockEnd
  0
BLOCK
  5
216
100
AcDbEntity
  8
0
100
AcDbBlockBegin
 62
2
  6
CONTINUOUS
  2
*D1
 70
65
 10
0.0
 20
0.0
  3
*D1
  1

  0
LINE
  5
217
100
AcDbEntity
  8
0
100
AcDbLine
 62
2
  6
CONTINUOUS
 10
2.9281985652
 20
9.1089190175
 11
2.9281985652
 21
10.2242174708
  0
LINE
  5
218
100
AcDbEntity
  8
0
100
AcDbLine
 62
2
  6
CONTINUOUS
 10
6.1881985652
 20
9.1089190175
 11
6.1881985652
 21
10.2242174708
  0
LINE
  5
219
100
AcDbEntity
  8
0
100
AcDbLine
 62
2
  6
CONTINUOUS
 10
2.9281985652
 20
10.0992174708
 11
4.1050735652
 21
10.0992174708
  0
LINE
  5
21A
100
AcDbEntity
  8
0
100
AcDbLine
 62
2
  6
CONTINUOUS
 10
6.1881985652
 20
10.0992174708
 11
5.0113235652
 21
10.0992174708
  0
INSERT
  5
21B
100
AcDbEntity
  8
0
100
AcDbBlockReference
 62
2
  6
CONTINUOUS
  2
_FILLED
 10
2.9281985652
 20
10.0992174708
 41
0.1875
 42
0.1875
 43
0.1875
 50
180.0
  0
INSERT
  5
21C
100
AcDbEntity
  8
0
100
AcDbBlockReference
 62
2
  6
CONTINUOUS
  2
_FILLED
 10
6.1881985652
 20
10.0992174708
 41
0.1875
 42
0.1875
 43
0.1875
  0
ENDBLK
  5
21D
100
AcDbEntity
  8
0
  6
BYBLOCK
 62
0
100
AcDbBlockEnd
  0
BLOCK
  5
21E
100
AcDbEntity
  8
0
100
AcDbBlockBegin
 62
2
  6
CONTINUOUS
  2
*D2
 70
65
 10
0.0
 20
0.0
  3
*D2
  1

  0
LINE
  5
21F
100
AcDbEntity
  8
0
100
AcDbLine
 62
2
  6
CONTINUOUS
 10
5.6831985652
 20
11.1882054354
 11
8.164966582
 21
11.1882054354
  0
LINE
  5
220
100
AcDbEntity
  8
0
100
AcDbLine
 62
2
  6
CONTINUOUS
 10
6.2506985652
 20
15.9478526343
 11
8.164966582
 21
15.9478526343
  0
LINE
  5
221
100
AcDbEntity
  8
0
100
AcDbLine
 62
2
  6
CONTINUOUS
 10
8.039966582
 20
11.1882054354
 11
8.039966582
 21
13.1774038086
  0
LINE
  5
222
100
AcDbEntity
  8
0
100
AcDbLine
 62
2
  6
CONTINUOUS
 10
8.039966582
 20
15.9478526343
 11
8.039966582
 21
13.7242790348
  0
INSERT
  5
223
100
AcDbEntity
  8
0
100
AcDbBlockReference
 62
2
  6
CONTINUOUS
  2
_FILLED
 10
8.039966582
 20
11.1882054354
 41
0.1875
 42
0.1875
 43
0.1875
 50
270.0
  0
INSERT
  5
224
100
AcDbEntity
  8
0
100
AcDbBlockReference
 62
2
  6
CONTINUOUS
  2
_FILLED
 10
8.039966582
 20
15.9478526343
 41
0.1875
 42
0.1875
 43
0.1875
 50
90.0
  0
ENDBLK
  5
225
100
AcDbEntity
  8
0
  6
BYBLOCK
 62
0
100
AcDbBlockEnd
  0
BLOCK
  5
226
100
AcDbEntity
  8
0
100
AcDbBlockBegin
 62
2
  6
CONTINUOUS
  2
*D3
 70
65
 10
0.0
 20
0.0
  3
*D3
  1

  0
LINE
  5
227
100
AcDbEntity
  8
0
100
AcDbLine
 62
2
  6
CONTINUOUS
 10
12.1781420312
 20
9.0464190175
 11
13.6806556095
 21
9.0464190175
  0
LINE
  5
228
100
AcDbEntity
  8
0
100
AcDbLine
 62
2
  6
CONTINUOUS
 10
12.1781420312
 20
5.0464190175
 11
13.6806556095
 21
5.0464190175
  0
LINE
  5
229
100
AcDbEntity
  8
0
100
AcDbLine
 62
2
  6
CONTINUOUS
 10
13.5556556095
 20
9.0464190175
 11
13.5556556095
 21
7.2026690175
  0
LINE
  5
22A
100
AcDbEntity
  8
0
100
AcDbLine
 62
2
  6
CONTINUOUS
 10
13.5556556095
 20
5.0464190175
 11
13.5556556095
 21
6.6557940175
  0
INSERT
  5
22B
100
AcDbEntity
  8
0
100
AcDbBlockReference
 62
2
  6
CONTINUOUS
  2
_FILLED
 10
13.5556556095
 20
9.0464190175
 41
0.1875
 42
0.1875
 43
0.1875
 50
90.0
  0
INSERT
  5
22C
100
AcDbEntity
  8
0
100
AcDbBlockReference
 62
2
  6
CONTINUOUS
  2
_FILLED
 10
13.5556556095
 20
5.0464190175
 41
0.1875
 42
0.1875
 43
0.1875
 50
270.0
  0
ENDBLK
  5
22D
100
AcDbEntity
  8
0
  6
BYBLOCK
 62
0
100
AcDbBlockEnd
  0
BLOCK
  5
22E
100
AcDbEntity
  8
0
100
AcDbBlockBegin
 62
2
  6
CONTINUOUS
  2
*D4
 70
65
 10
0.0
 20
0.0
  3
*D4
  1

  0
LINE
  5
22F
100
AcDbEntity
  8
0
100
AcDbLine
 62
2
  6
CONTINUOUS
 10
15.0899615455
 20
6.4839190175
 11
15.0899615455
 21
3.7691869344
  0
LINE
  5
230
100
AcDbEntity
  8
0
100
AcDbLine
 62
2
  6
CONTINUOUS
 10
19.3399615455
 20
6.4839190175
 11
19.3399615455
 21
3.7691869344
  0
LINE
  5
231
100
AcDbEntity
  8
0
100
AcDbLine
 62
2
  6
CONTINUOUS
 10
15.0899615455
 20
3.8941869344
 11
16.8243365455
 21
3.8941869344
  0
LINE
  5
232
100
AcDbEntity
  8
0
100
AcDbLine
 62
2
  6
CONTINUOUS
 10
19.3399615455
 20
3.8941869344
 11
17.6055865455
 21
3.8941869344
  0
INSERT
  5
233
100
AcDbEntity
  8
0
100
AcDbBlockReference
 62
2
  6
CONTINUOUS
  2
_FILLED
 10
15.0899615455
 20
3.8941869344
 41
0.1875
 42
0.1875
 43
0.1875
 50
180.0
  0
INSERT
  5
234
100
AcDbEntity
  8
0
100
AcDbBlockReference
 62
2
  6
CONTINUOUS
  2
_FILLED
 10
19.3399615455
 20
3.8941869344
 41
0.1875
 42
0.1875
 43
0.1875
  0
ENDBLK
  5
235
100
AcDbEntity
  8
0
  6
BYBLOCK
 62
0
100
AcDbBlockEnd
  0
BLOCK
  5
236
100
AcDbEntity
  8
0
100
AcDbBlockBegin
 62
2
  6
CONTINUOUS
  2
*D5
 70
65
 10
0.0
 20
0.0
  3
*D5
  1

  0
LINE
  5
237
100
AcDbEntity
  8
0
100
AcDbLine
 62
2
  6
CONTINUOUS
 10
19.4024615455
 20
7.5464190175
 11
20.2938971131
 21
7.5464190175
  0
LINE
  5
238
100
AcDbEntity
  8
0
100
AcDbLine
 62
2
  6
CONTINUOUS
 10
19.4024615455
 20
6.5464190175
 11
20.2938971131
 21
6.5464190175
  0
LINE
  5
239
100
AcDbEntity
  8
0
100
AcDbLine
 62
2
  6
CONTINUOUS
 10
20.1688971131
 20
7.5464190175
 11
20.1688971131
 21
7.0464190175
  0
LINE
  5
23A
100
AcDbEntity
  8
0
100
AcDbLine
 62
2
  6
CONTINUOUS
 10
20.1688971131
 20
7.0464190175
 11
20.1688971131
 21
8.3559320625
  0
LINE
  5
23B
100
AcDbEntity
  8
0
100
AcDbLine
 62
2
  6
CONTINUOUS
 10
20.1688971131
 20
8.3559320625
 11
20.3407721131
 21
8.3559320625
  0
LINE
  5
23C
100
AcDbEntity
  8
0
100
AcDbLine
 62
2
  6
CONTINUOUS
 10
20.1688971131
 20
6.5464190175
 11
20.1688971131
 21
7.0464190175
  0
INSERT
  5
23D
100
AcDbEntity
  8
0
100
AcDbBlockReference
 62
2
  6
CONTINUOUS
  2
_FILLED
 10
20.1688971131
 20
7.5464190175
 41
0.1875
 42
0.1875
 43
0.1875
 50
90.0
  0
INSERT
  5
23E
100
AcDbEntity
  8
0
100
AcDbBlockReference
 62
2
  6
CONTINUOUS
  2
_FILLED
 10
20.1688971131
 20
6.5464190175
 41
0.1875
 42
0.1875
 43
0.1875
 50
270.0
  0
ENDBLK
  5
23F
100
AcDbEntity
  8
0
  6
BYBLOCK
 62
0
100
AcDbBlockEnd
  0
ENDSEC
  0
SECTION
  2
ENTITIES
  0
DIMENSION
  5
240
100
AcDbEntity
  8
0
100
AcDbDimension
 62
2
  6
CONTINUOUS
  2
*D0
 10
18.9649615455
 20
10.6452758155
 11
16.7440778164
 21
10.5671508155
 70
160
 71
2
 72
2
 41
0.9
 42
3.5
  1
<>\P[]
  3
DIMSTYLE_1
100
AcDbAlignedDimension
 13
15.4649615455
 23
7.0464190175
 14
18.9649615455
 24
7.0464190175
100
AcDbRotatedDimension
  0
DIMENSION
  5
241
100
AcDbEntity
  8
0
100
AcDbDimension
 62
2
  6
CONTINUOUS
  2
*D1
 10
6.1881985652
 20
10.0992174708
 11
4.1831985652
 21
10.0210924708
 70
160
 71
2
 72
2
 41
0.9
 42
3.26
  1
<>\P[]
  3
DIMSTYLE_1
100
AcDbAlignedDimension
 13
2.9281985652
 23
9.0464190175
 14
6.1881985652
 24
9.0464190175
100
AcDbRotatedDimension
  0
DIMENSION
  5
242
100
AcDbEntity
  8
0
100
AcDbDimension
 62
2
  6
CONTINUOUS
  2
*D2
 10
8.039966582
 20
15.9478526343
 11
7.602466582
 21
13.4899040348
 70
160
 71
2
 72
2
 41
0.9
 42
4.7596471989
  1
<>\P[]
  3
DIMSTYLE_1
100
AcDbAlignedDimension
 13
5.6206985652
 23
11.1882054354
 14
6.1881985652
 24
15.9478526343
 50
90.0
100
AcDbRotatedDimension
  0
DIMENSION
  5
243
100
AcDbEntity
  8
0
100
AcDbDimension
 62
2
  6
CONTINUOUS
  2
*D3
 10
13.5556556095
 20
5.0464190175
 11
13.1181556095
 21
6.9682940175
 70
160
 71
2
 72
2
 41
0.9
 42
4.0
  1
<>\P[]
  3
DIMSTYLE_1
100
AcDbAlignedDimension
 13
12.1156420312
 23
9.0464190175
 14
12.1156420312
 24
5.0464190175
 50
270.0
100
AcDbRotatedDimension
  0
DIMENSION
  5
244
100
AcDbEntity
  8
0
100
AcDbDimension
 62
2
  6
CONTINUOUS
  2
*D4
 10
19.3399615455
 20
3.8941869344
 11
16.9024615455
 21
3.8160619344
 70
160
 71
2
 72
2
 41
0.9
 42
4.25
  1
<>\P[]
  3
DIMSTYLE_1
100
AcDbAlignedDimension
 13
15.0899615455
 23
6.5464190175
 14
19.3399615455
 24
6.5464190175
100
AcDbRotatedDimension
  0
DIMENSION
  5
245
100
AcDbEntity
  8
0
100
AcDbDimension
 62
2
  6
CONTINUOUS
  2
*D5
 10
20.1688971131
 20
6.5464190175
 11
20.4188971131
 21
8.2778070625
 70
160
 71
1
 72
2
 41
0.9
 42
1.0
  1
<>\P[]
  3
DIMSTYLE_1
100
AcDbAlignedDimension
 13
19.3399615455
 23
7.5464190175
 14
19.3399615455
 24
6.5464190175
 50
270.0
100
AcDbRotatedDimension
  0
LINE
  5
246
100
AcDbEntity
  8
0
100
AcDbLine
 62
7
  6
CONTINUOUS
 10
0.0
 20
0.0
 11
0.0
 21
17.0
  0
LINE
  5
247
100
AcDbEntity
  8
0
100
AcDbLine
 62
7
  6
CONTINUOUS
 10
0.0
 20
0.0
 11
22.0
 21
0.0
  0
LWPOLYLINE
  5
248
100
AcDbEntity
  8
0
100
AcDbPolyline
 62
2
  6
CONTINUOUS
 90
4
 70
0
 10
21.1053664551
 20
0.5840730515
 10
21.0428670654
 20
0.5840730515
 10
21.0428670654
 20
0.7403231201
 10
21.1053664551
 20
0.7403231201
  0
LWPOLYLINE
  5
249
100
AcDbEntity
  8
0
100
AcDbPolyline
 62
2
  6
CONTINUOUS
 90
4
 70
0
 10
20.7303660889
 20
0.5840730515
 10
20.6678666992
 20
0.5840730515
 10
20.6678666992
 20
0.7403231201
 10
20.7303660889
 20
0.7403231201
  0
LWPOLYLINE
  5
24A
100
AcDbEntity
  8
0
100
AcDbPolyline
 62
2
  6
CONTINUOUS
 90
4
 70
0
 10
19.4803662109
 20
0.5840730515
 10
19.4178668213
 20
0.5840730515
 10
19.4178668213
 20
0.7403231201
 10
19.4803662109
 20
0.7403231201
  0
LWPOLYLINE
  5
24B
100
AcDbEntity
  8
0
100
AcDbPolyline
 62
2
  6
CONTINUOUS
 90
4
 70
0
 10
17.4803669434
 20
0.5840730515
 10
17.4178662109
 20
0.5840730515
 10
17.4178662109
 20
0.7403231201
 10
17.4803669434
 20
0.7403231201
  0
LWPOLYLINE
  5
24C
100
AcDbEntity
  8
0
100
AcDbPolyline
 62
2
  6
CONTINUOUS
 90
4
 70
0
 10
21.3084918213
 20
0.5840730515
 10
21.3397421875
 20
0.5840730515
 10
21.3397421875
 20
0.7403231201
 10
21.3084918213
 20
0.7403231201
  0
LINE
  5
24D
100
AcDbEntity
  8
0
100
AcDbLine
 62
2
  6
CONTINUOUS
 10
17.4178662109
 20
0.6621980438
 11
17.456928833
 21
0.6621980438
  0
LINE
  5
24E
100
AcDbEntity
  8
0
100
AcDbLine
 62
2
  6
CONTINUOUS
 10
19.1678665771
 20
0.6621980438
 11
19.2303673096
 21
0.6621980438
  0
LINE
  5
24F
100
AcDbEntity
  8
0
100
AcDbLine
 62
2
  6
CONTINUOUS
 10
19.4178668213
 20
0.6621980438
 11
19.4569294434
 21
0.6621980438
  0
LINE
  5
250
100
AcDbEntity
  8
0
100
AcDbLine
 62
2
  6
CONTINUOUS
 10
20.6678666992
 20
0.6621980438
 11
20.7069293213
 21
0.6621980438
  0
LINE
  5
251
100
AcDbEntity
  8
0
100
AcDbLine
 62
2
  6
CONTINUOUS
 10
21.0428670654
 20
0.6621980438
 11
21.0819296875
 21
0.6621980438
  0
LWPOLYLINE
  5
252
100
AcDbEntity
  8
0
100
AcDbPolyline
 62
2
  6
CONTINUOUS
 90
4
 70
0
 10
19.8397420654
 20
0.7403231201
 10
19.8084916992
 20
0.7403231201
 10
19.8084916992
 20
0.5840730515
 10
19.8397420654
 20
0.5840730515
  0
LWPOLYLINE
  5
253
100
AcDbEntity
  8
0
100
AcDbPolyline
 62
2
  6
CONTINUOUS
 90
3
 70
0
 10
17.0428671875
 20
0.7403231201
 10
17.0741162109
 20
0.7403231201
 10
17.0897420654
 20
0.7273022461
  0
LINE
  5
254
100
AcDbEntity
  8
0
100
AcDbLine
 62
2
  6
CONTINUOUS
 10
20.7850545654
 20
0.7403231201
 11
20.8631798096
 21
0.7403231201
  0
LWPOLYLINE
  5
255
100
AcDbEntity
  8
0
100
AcDbPolyline
 62
2
  6
CONTINUOUS
 90
8
 70
0
 10
17.6913045654
 20
0.6752189178
 10
17.7225535889
 20
0.6491771698
 10
17.7303671875
 20
0.6361564636
 10
17.7303671875
 20
0.6101147156
 10
17.7225535889
 20
0.5970938416
 10
17.7069290771
 20
0.5840730515
 10
17.6913045654
 20
0.5840730515
 10
17.6756787109
 20
0.5970938416
  0
LWPOLYLINE
  5
256
100
AcDbEntity
  8
0
100
AcDbPolyline
 62
2
  6
CONTINUOUS
 90
8
 70
0
 10
19.3163048096
 20
0.6752189178
 10
19.347553833
 20
0.6491771698
 10
19.3553660889
 20
0.6361564636
 10
19.3553660889
 20
0.6101147156
 10
19.347553833
 20
0.5970938416
 10
19.3319293213
 20
0.5840730515
 10
19.3163048096
 20
0.5840730515
 10
19.3006789551
 20
0.5970938416
  0
LWPOLYLINE
  5
257
100
AcDbEntity
  8
0
100
AcDbPolyline
 62
2
  6
CONTINUOUS
 90
4
 70
0
 10
17.0897420654
 20
0.7273022461
 10
17.1053665771
 20
0.701260498
 10
17.113178833
 20
0.6621980438
 10
17.1053665771
 20
0.6231355896
  0
LINE
  5
258
100
AcDbEntity
  8
0
100
AcDbLine
 62
2
  6
CONTINUOUS
 10
17.6756787109
 20
0.5970938416
 11
17.6600541992
 21
0.6231355896
  0
LWPOLYLINE
  5
259
100
AcDbEntity
  8
0
100
AcDbPolyline
 62
2
  6
CONTINUOUS
 90
9
 70
0
 10
17.7303671875
 20
0.7142813721
 10
17.7225535889
 20
0.7273022461
 10
17.7069290771
 20
0.7403231201
 10
17.6913045654
 20
0.7403231201
 10
17.6756787109
 20
0.7273022461
 10
17.6678664551
 20
0.7142813721
 10
17.6678664551
 20
0.701260498
 10
17.6756787109
 20
0.6882397919
 10
17.6913045654
 20
0.6752189178
  0
LWPOLYLINE
  5
25A
100
AcDbEntity
  8
0
100
AcDbPolyline
 62
2
  6
CONTINUOUS
 90
4
 70
0
 10
17.9256789551
 20
0.5970938416
 10
17.9100544434
 20
0.6231355896
 10
17.9022421875
 20
0.6621980438
 10
17.9100544434
 20
0.701260498
  0
LINE
  5
25B
100
AcDbEntity
  8
0
100
AcDbLine
 62
2
  6
CONTINUOUS
 10
18.1756791992
 20
0.5970938416
 11
18.1600546875
 21
0.6231355896
  0
LWPOLYLINE
  5
25C
100
AcDbEntity
  8
0
100
AcDbPolyline
 62
2
  6
CONTINUOUS
 90
17
 70
0
 10
18.230366333
 20
0.7142813721
 10
18.2225540771
 20
0.7273022461
 10
18.2069295654
 20
0.7403231201
 10
18.1913037109
 20
0.7403231201
 10
18.1756791992
 20
0.7273022461
 10
18.1678669434
 20
0.7142813721
 10
18.1678669434
 20
0.701260498
 10
18.1756791992
 20
0.6882397919
 10
18.1913037109
 20
0.6752189178
 10
18.2069295654
 20
0.6621980438
 10
18.2225540771
 20
0.6491771698
 10
18.230366333
 20
0.6361564636
 10
18.230366333
 20
0.6101147156
 10
18.2225540771
 20
0.5970938416
 10
18.2069295654
 20
0.5840730515
 10
18.1913037109
 20
0.5840730515
 10
18.1756791992
 20
0.5970938416
  0
LWPOLYLINE
  5
25D
100
AcDbEntity
  8
0
100
AcDbPolyline
 62
2
  6
CONTINUOUS
 90
4
 70
0
 10
19.0506787109
 20
0.5970938416
 10
19.0350541992
 20
0.6231355896
 10
19.0272419434
 20
0.6621980438
 10
19.0350541992
 20
0.701260498
  0
LINE
  5
25E
100
AcDbEntity
  8
0
100
AcDbLine
 62
2
  6
CONTINUOUS
 10
19.3006789551
 20
0.5970938416
 11
19.2850544434
 21
0.6231355896
  0
LWPOLYLINE
  5
25F
100
AcDbEntity
  8
0
100
AcDbPolyline
 62
2
  6
CONTINUOUS
 90
9
 70
0
 10
19.3553660889
 20
0.7142813721
 10
19.347553833
 20
0.7273022461
 10
19.3319293213
 20
0.7403231201
 10
19.3163048096
 20
0.7403231201
 10
19.3006789551
 20
0.7273022461
 10
19.2928666992
 20
0.7142813721
 10
19.2928666992
 20
0.701260498
 10
19.3006789551
 20
0.6882397919
 10
19.3163048096
 20
0.6752189178
  0
LINE
  5
260
100
AcDbEntity
  8
0
100
AcDbLine
 62
2
  6
CONTINUOUS
 10
19.5506791992
 20
0.5970938416
 11
19.5350546875
 21
0.6231355896
  0
LWPOLYLINE
  5
261
100
AcDbEntity
  8
0
100
AcDbPolyline
 62
2
  6
CONTINUOUS
 90
17
 70
0
 10
19.605366333
 20
0.7142813721
 10
19.5975540771
 20
0.7273022461
 10
19.5819295654
 20
0.7403231201
 10
19.5663037109
 20
0.7403231201
 10
19.5506791992
 20
0.7273022461
 10
19.5428669434
 20
0.7142813721
 10
19.5428669434
 20
0.701260498
 10
19.5506791992
 20
0.6882397919
 10
19.5663037109
 20
0.6752189178
 10
19.5819295654
 20
0.6621980438
 10
19.5975540771
 20
0.6491771698
 10
19.605366333
 20
0.6361564636
 10
19.605366333
 20
0.6101147156
 10
19.5975540771
 20
0.5970938416
 10
19.5819295654
 20
0.5840730515
 10
19.5663037109
 20
0.5840730515
 10
19.5506791992
 20
0.5970938416
  0
LWPOLYLINE
  5
262
100
AcDbEntity
  8
0
100
AcDbPolyline
 62
2
  6
CONTINUOUS
 90
19
 70
0
 10
21.2303665771
 20
0.7142813721
 10
21.2225543213
 20
0.7273022461
 10
21.2069298096
 20
0.7403231201
 10
21.1913039551
 20
0.7403231201
 10
21.1756794434
 20
0.7273022461
 10
21.1678671875
 20
0.7142813721
 10
21.1678671875
 20
0.701260498
 10
21.1756794434
 20
0.6882397919
 10
21.1913039551
 20
0.6752189178
 10
21.2069298096
 20
0.6621980438
 10
21.2225543213
 20
0.6491771698
 10
21.2303665771
 20
0.6361564636
 10
21.2303665771
 20
0.6101147156
 10
21.2225543213
 20
0.5970938416
 10
21.2069298096
 20
0.5840730515
 10
21.1913039551
 20
0.5840730515
 10
21.1756794434
 20
0.5970938416
 10
21.1678671875
 20
0.6101147156
 10
21.1600535889
 20
0.6231355896
  0
LINE
  5
263
100
AcDbEntity
  8
0
100
AcDbLine
 62
2
  6
CONTINUOUS
 10
17.199116333
 20
0.7403231201
 11
17.199116333
 21
0.5840730515
  0
LWPOLYLINE
  5
264
100
AcDbEntity
  8
0
100
AcDbPolyline
 62
2
  6
CONTINUOUS
 90
5
 70
0
 10
17.285053833
 20
0.5840730515
 10
17.285053833
 20
0.7403231201
 10
17.3241164551
 20
0.6101147156
 10
17.3631790771
 20
0.7403231201
 10
17.3631790771
 20
0.5840730515
  0
LWPOLYLINE
  5
265
100
AcDbEntity
  8
0
100
AcDbPolyline
 62
2
  6
CONTINUOUS
 90
4
 70
0
 10
17.542866333
 20
0.5840730515
 10
17.542866333
 20
0.7403231201
 10
17.6053670654
 20
0.5840730515
 10
17.6053670654
 20
0.7403231201
  0
LINE
  5
266
100
AcDbEntity
  8
0
100
AcDbLine
 62
2
  6
CONTINUOUS
 10
17.8241169434
 20
0.7403231201
 11
17.8241169434
 21
0.5840730515
  0
LWPOLYLINE
  5
267
100
AcDbEntity
  8
0
100
AcDbPolyline
 62
2
  6
CONTINUOUS
 90
4
 70
0
 10
18.0428668213
 20
0.5840730515
 10
18.0428668213
 20
0.7403231201
 10
18.1053662109
 20
0.5840730515
 10
18.1053662109
 20
0.7403231201
  0
LINE
  5
268
100
AcDbEntity
  8
0
100
AcDbLine
 62
2
  6
CONTINUOUS
 10
18.4491162109
 20
0.7403231201
 11
18.4491162109
 21
0.5840730515
  0
LWPOLYLINE
  5
269
100
AcDbEntity
  8
0
100
AcDbPolyline
 62
2
  6
CONTINUOUS
 90
4
 70
0
 10
18.5428673096
 20
0.5840730515
 10
18.5428673096
 20
0.7403231201
 10
18.6053666992
 20
0.5840730515
 10
18.6053666992
 20
0.7403231201
  0
LINE
  5
26A
100
AcDbEntity
  8
0
100
AcDbLine
 62
2
  6
CONTINUOUS
 10
20.9569295654
 20
0.6621980438
 11
20.980366333
 21
0.5840730515
  0
LINE
  5
26B
100
AcDbEntity
  8
0
100
AcDbLine
 62
2
  6
CONTINUOUS
 10
18.8241165771
 20
0.7403231201
 11
18.8241165771
 21
0.5840730515
  0
LWPOLYLINE
  5
26C
100
AcDbEntity
  8
0
100
AcDbPolyline
 62
2
  6
CONTINUOUS
 90
4
 70
0
 10
18.917866333
 20
0.5840730515
 10
18.917866333
 20
0.7403231201
 10
18.9803670654
 20
0.5840730515
 10
18.9803670654
 20
0.7403231201
  0
LINE
  5
26D
100
AcDbEntity
  8
0
100
AcDbLine
 62
2
  6
CONTINUOUS
 10
19.1678665771
 20
0.7403231201
 11
19.1678665771
 21
0.5840730515
  0
LINE
  5
26E
100
AcDbEntity
  8
0
100
AcDbLine
 62
2
  6
CONTINUOUS
 10
19.2303673096
 20
0.7403231201
 11
19.2303673096
 21
0.5840730515
  0
LINE
  5
26F
100
AcDbEntity
  8
0
100
AcDbLine
 62
7
  6
CONTINUOUS
 10
0.0
 20
17.0
 11
22.0
 21
17.0
  0
LWPOLYLINE
  5
270
100
AcDbEntity
  8
0
100
AcDbPolyline
 62
2
  6
CONTINUOUS
 90
5
 70
0
 10
19.9100537109
 20
0.5840730515
 10
19.9100537109
 20
0.7403231201
 10
19.949116333
 20
0.6101147156
 10
19.9881789551
 20
0.7403231201
 10
19.9881789551
 20
0.5840730515
  0
LINE
  5
271
100
AcDbEntity
  8
0
100
AcDbLine
 62
2
  6
CONTINUOUS
 10
20.0741164551
 20
0.7403231201
 11
20.0741164551
 21
0.5840730515
  0
LWPOLYLINE
  5
272
100
AcDbEntity
  8
0
100
AcDbPolyline
 62
2
  6
CONTINUOUS
 90
3
 70
0
 10
20.1678662109
 20
0.7403231201
 10
20.1678662109
 20
0.5840730515
 10
20.2303669434
 20
0.5840730515
  0
LWPOLYLINE
  5
273
100
AcDbEntity
  8
0
100
AcDbPolyline
 62
2
  6
CONTINUOUS
 90
3
 70
0
 10
20.292866333
 20
0.7403231201
 10
20.292866333
 20
0.5840730515
 10
20.3553670654
 20
0.5840730515
  0
LWPOLYLINE
  5
274
100
AcDbEntity
  8
0
100
AcDbPolyline
 62
2
  6
CONTINUOUS
 90
5
 70
0
 10
17.1053665771
 20
0.6231355896
 10
17.0897420654
 20
0.5970938416
 10
17.0741162109
 20
0.5840730515
 10
17.0428671875
 20
0.5840730515
 10
17.0428671875
 20
0.7403231201
  0
LINE
  5
275
100
AcDbEntity
  8
0
100
AcDbLine
 62
2
  6
CONTINUOUS
 10
20.4491168213
 20
0.7403231201
 11
20.4491168213
 21
0.5840730515
  0
LWPOLYLINE
  5
276
100
AcDbEntity
  8
0
100
AcDbPolyline
 62
2
  6
CONTINUOUS
 90
5
 70
0
 10
20.5350543213
 20
0.5840730515
 10
20.5350543213
 20
0.7403231201
 10
20.5741169434
 20
0.6101147156
 10
20.6131795654
 20
0.7403231201
 10
20.6131795654
 20
0.5840730515
  0
LINE
  5
277
100
AcDbEntity
  8
0
100
AcDbLine
 62
2
  6
CONTINUOUS
 10
20.8241171875
 20
0.7403231201
 11
20.8241171875
 21
0.5840730515
  0
LWPOLYLINE
  5
278
100
AcDbEntity
  8
0
100
AcDbPolyline
 62
2
  6
CONTINUOUS
 90
9
 70
0
 10
20.9178669434
 20
0.5840730515
 10
20.9178669434
 20
0.7403231201
 10
20.9569295654
 20
0.7403231201
 10
20.9725540771
 20
0.7273022461
 10
20.980366333
 20
0.7142813721
 10
20.980366333
 20
0.6882397919
 10
20.9725540771
 20
0.6752189178
 10
20.9569295654
 20
0.6621980438
 10
20.9178669434
 20
0.6621980438
  0
LWPOLYLINE
  5
279
100
AcDbEntity
  8
0
100
AcDbPolyline
 62
2
  6
CONTINUOUS
 90
10
 70
0
 10
17.9100544434
 20
0.701260498
 10
17.9256789551
 20
0.7273022461
 10
17.9413048096
 20
0.7403231201
 10
17.9569293213
 20
0.7403231201
 10
17.972553833
 20
0.7273022461
 10
17.9803660889
 20
0.7142813721
 10
17.9881796875
 20
0.701260498
 10
17.9959919434
 20
0.6621980438
 10
17.9881796875
 20
0.6231355896
 10
17.9803660889
 20
0.6101147156
  0
LWPOLYLINE
  5
27A
100
AcDbEntity
  8
0
100
AcDbPolyline
 62
2
  6
CONTINUOUS
 90
5
 70
0
 10
17.9803660889
 20
0.6101147156
 10
17.972553833
 20
0.5970938416
 10
17.9569293213
 20
0.5840730515
 10
17.9413048096
 20
0.5840730515
 10
17.9256789551
 20
0.5970938416
  0
LINE
  5
27B
100
AcDbEntity
  8
0
100
AcDbLine
 62
7
  6
CONTINUOUS
 10
22.0
 20
0.0
 11
22.0
 21
17.0
  0
LWPOLYLINE
  5
27C
100
AcDbEntity
  8
0
100
AcDbPolyline
 62
2
  6
CONTINUOUS
 90
6
 70
0
 10
19.0350541992
 20
0.701260498
 10
19.0506787109
 20
0.7273022461
 10
19.0663045654
 20
0.7403231201
 10
19.0819290771
 20
0.7403231201
 10
19.0975535889
 20
0.7273022461
 10
19.1053671875
 20
0.7142813721
  0
LWPOLYLINE
  5
27D
100
AcDbEntity
  8
0
100
AcDbPolyline
 62
2
  6
CONTINUOUS
 90
5
 70
0
 10
19.1053671875
 20
0.6101147156
 10
19.0975535889
 20
0.5970938416
 10
19.0819290771
 20
0.5840730515
 10
19.0663045654
 20
0.5840730515
 10
19.0506787109
 20
0.5970938416
  0
LWPOLYLINE
  5
27E
100
AcDbEntity
  8
0
100
AcDbPolyline
 62
2
  6
CONTINUOUS
 90
9
 70
0
 10
4.2222611084
 20
10.1643213501
 10
4.2378859558
 20
10.1773422241
 10
4.2535111389
 20
10.1773422241
 10
4.2691359863
 20
10.1643213501
 10
4.2769485779
 20
10.1513004761
 10
4.2769485779
 20
10.1382802734
 10
4.2691359863
 20
10.1252593994
 10
4.2535111389
 20
10.1122385254
 10
4.2691359863
 20
10.0992176514
  0
LWPOLYLINE
  5
27F
100
AcDbEntity
  8
0
100
AcDbPolyline
 62
2
  6
CONTINUOUS
 90
5
 70
0
 10
4.5191362305
 20
10.1122385254
 10
4.4878862
 20
10.0861967773
 10
4.4722610168
 20
10.0601550293
 10
4.4644484253
 20
10.0210924072
 10
4.5269484863
 20
10.0210924072
  0
LINE
  5
280
100
AcDbEntity
  8
0
100
AcDbLine
 62
6
  6
CONTINUOUS
 10
2.4331985652
 20
6.5464190175
 11
2.4331985652
 21
7.5464190175
  0
LWPOLYLINE
  5
281
100
AcDbEntity
  8
0
100
AcDbPolyline
 62
2
  6
CONTINUOUS
 90
3
 70
0
 10
4.3941361084
 20
9.7997382202
 10
4.3785109253
 20
9.7867173462
 10
4.3628860779
 20
9.7867173462
  0
LWPOLYLINE
  5
282
100
AcDbEntity
  8
0
100
AcDbPolyline
 62
2
  6
CONTINUOUS
 90
5
 70
0
 10
4.5191362305
 20
9.8778634644
 10
4.4878862
 20
9.8518217163
 10
4.4722610168
 20
9.8257799683
 10
4.4644484253
 20
9.7867173462
 10
4.5269484863
 20
9.7867173462
  0
LINE
  5
283
100
AcDbEntity
  8
0
100
AcDbLine
 62
6
  6
CONTINUOUS
 10
2.6296985652
 20
7.5464190175
 11
2.6296985652
 21
7.2804474367
  0
LINE
  5
284
100
AcDbEntity
  8
0
100
AcDbLine
 62
6
  6
CONTINUOUS
 10
2.6296985652
 20
6.8120831476
 11
2.6296985652
 21
6.5464190175
  0
LWPOLYLINE
  5
285
100
AcDbEntity
  8
0
100
AcDbPolyline
 62
2
  6
CONTINUOUS
 90
3
 70
0
 10
4.7691361389
 20
9.7997382202
 10
4.7535109558
 20
9.7867173462
 10
4.7378861084
 20
9.7867173462
  0
LINE
  5
286
100
AcDbEntity
  8
0
100
AcDbLine
 62
6
  6
CONTINUOUS
 10
2.9281985652
 20
5.0464190175
 11
6.1881985652
 21
5.0464190175
  0
LINE
  5
287
100
AcDbEntity
  8
0
100
AcDbLine
 62
6
  6
CONTINUOUS
 10
2.7571028773
 20
7.3098373743
 11
2.7592951174
 21
6.7825848787
  0
LWPOLYLINE
  5
288
100
AcDbEntity
  8
0
100
AcDbPolyline
 62
2
  6
CONTINUOUS
 90
6
 70
0
 10
4.2847611694
 20
10.0601550293
 10
4.2691359863
 20
10.0341132813
 10
4.2535111389
 20
10.0210924072
 10
4.2378859558
 20
10.0210924072
 10
4.2222611084
 20
10.0341132813
 10
4.2144485168
 20
10.0471341553
  0
LINE
  5
289
100
AcDbEntity
  8
0
100
AcDbLine
 62
6
  6
CONTINUOUS
 10
3.4981985652
 20
5.2364190175
 11
5.6181985652
 21
5.2364190175
  0
LINE
  5
28A
100
AcDbEntity
  8
0
100
AcDbLine
 62
6
  6
CONTINUOUS
 10
2.8592942531
 20
6.7830006607
 11
2.8571020129
 21
7.3102531563
  0
LINE
  5
28B
100
AcDbEntity
  8
0
100
AcDbLine
 62
6
  6
CONTINUOUS
 10
2.9281985652
 20
9.0464190175
 11
2.9281985652
 21
7.5464190175
  0
LINE
  5
28C
100
AcDbEntity
  8
0
100
AcDbLine
 62
6
  6
CONTINUOUS
 10
2.9281985652
 20
6.5464190175
 11
2.9281985652
 21
5.0464190175
  0
LINE
  5
28D
100
AcDbEntity
  8
0
100
AcDbLine
 62
6
  6
CONTINUOUS
 10
2.9631193347
 20
7.5714190175
 11
2.9631193347
 21
7.5464190175
  0
LINE
  5
28E
100
AcDbEntity
  8
0
100
AcDbLine
 62
6
  6
CONTINUOUS
 10
2.9631193347
 20
6.5464190175
 11
2.9631193347
 21
6.5214190175
  0
LWPOLYLINE
  5
28F
100
AcDbEntity
  8
0
100
AcDbPolyline
 62
2
  6
CONTINUOUS
 90
8
 70
0
 10
4.4644484253
 20
10.1513004761
 10
4.4722610168
 20
10.1643213501
 10
4.4878862
 20
10.1773422241
 10
4.5035110474
 20
10.1773422241
 10
4.5191362305
 20
10.1643213501
 10
4.5269484863
 20
10.1513004761
 10
4.5269484863
 20
10.1252593994
 10
4.5191362305
 20
10.1122385254
  0
LWPOLYLINE
  5
290
100
AcDbEntity
  8
0
100
AcDbPolyline
 62
2
  6
CONTINUOUS
 90
6
 70
0
 10
4.3316360474
 20
9.8388008423
 10
4.3472612305
 20
9.8648425903
 10
4.3628860779
 20
9.8778634644
 10
4.3785109253
 20
9.8778634644
 10
4.3941361084
 20
9.8648425903
 10
4.4097609558
 20
9.8388008423
  0
LWPOLYLINE
  5
291
100
AcDbEntity
  8
0
100
AcDbPolyline
 62
2
  6
CONTINUOUS
 90
8
 70
0
 10
4.4644484253
 20
9.9169260864
 10
4.4722610168
 20
9.9299469604
 10
4.4878862
 20
9.9429671631
 10
4.5035110474
 20
9.9429671631
 10
4.5191362305
 20
9.9299469604
 10
4.5269484863
 20
9.9169260864
 10
4.5269484863
 20
9.8908843384
 10
4.5191362305
 20
9.8778634644
  0
LINE
  5
292
100
AcDbEntity
  8
0
100
AcDbLine
 62
6
  6
CONTINUOUS
 10
3.3081985652
 20
7.5464190175
 11
3.3081985652
 21
6.5464190175
  0
LINE
  5
293
100
AcDbEntity
  8
0
100
AcDbLine
 62
6
  6
CONTINUOUS
 10
3.3281985652
 20
7.5614190175
 11
3.3281985652
 21
6.5314190175
  0
LWPOLYLINE
  5
294
100
AcDbEntity
  8
0
100
AcDbPolyline
 62
2
  6
CONTINUOUS
 90
6
 70
0
 10
4.7066360779
 20
9.8388008423
 10
4.7222609253
 20
9.8648425903
 10
4.7378861084
 20
9.8778634644
 10
4.7535109558
 20
9.8778634644
 10
4.7691361389
 20
9.8648425903
 10
4.7847609863
 20
9.8388008423
  0
LINE
  5
295
100
AcDbEntity
  8
0
100
AcDbLine
 62
6
  6
CONTINUOUS
 10
4.3416922142
 20
5.7314190175
 11
4.7747049161
 21
5.7314190175
  0
LINE
  5
296
100
AcDbEntity
  8
0
100
AcDbLine
 62
6
  6
CONTINUOUS
 10
3.4831985652
 20
9.0464190175
 11
3.4831985652
 21
5.0464190175
  0
LINE
  5
297
100
AcDbEntity
  8
0
100
AcDbLine
 62
6
  6
CONTINUOUS
 10
3.4931985652
 20
9.0464190175
 11
3.4931985652
 21
5.0464190175
  0
LINE
  5
298
100
AcDbEntity
  8
0
100
AcDbLine
 62
6
  6
CONTINUOUS
 10
3.4956985652
 20
7.1806521518
 11
3.4956985652
 21
8.8521858833
  0
LINE
  5
299
100
AcDbEntity
  8
0
100
AcDbLine
 62
6
  6
CONTINUOUS
 10
3.4981985652
 20
5.0464190177
 11
3.4981985652
 21
7.1806521518
  0
LINE
  5
29A
100
AcDbEntity
  8
0
100
AcDbLine
 62
6
  6
CONTINUOUS
 10
3.4981985652
 20
8.8521858833
 11
3.4981985652
 21
9.0464190173
  0
LINE
  5
29B
100
AcDbEntity
  8
0
100
AcDbLine
 62
6
  6
CONTINUOUS
 10
4.9926640414
 20
6.0764190175
 11
4.973890759
 21
6.0764190175
  0
LWPOLYLINE
  5
29C
100
AcDbEntity
  8
0
100
AcDbPolyline
 62
2
  6
CONTINUOUS
 90
17
 70
0
 10
4.5894485474
 20
10.0731759033
 10
4.5972611389
 20
10.0992176514
 10
4.6206985779
 20
10.1122385254
 10
4.6441360168
 20
10.0992176514
 10
4.6519486084
 20
10.0731759033
 10
4.6441360168
 20
10.0471341553
 10
4.6363234253
 20
10.0341132813
 10
4.6206985779
 20
10.0210924072
 10
4.6050737305
 20
10.0341132813
 10
4.5972611389
 20
10.0471341553
 10
4.5894485474
 20
10.0731759033
 10
4.5894485474
 20
10.1252593994
 10
4.5972611389
 20
10.1513004761
 10
4.6050737305
 20
10.1643213501
 10
4.6206985779
 20
10.1773422241
 10
4.6363234253
 20
10.1643213501
 10
4.6441360168
 20
10.1513004761
  0
LINE
  5
29D
100
AcDbEntity
  8
0
100
AcDbLine
 62
6
  6
CONTINUOUS
 10
4.973890759
 20
6.1364190175
 11
4.9926640414
 21
6.1364190175
  0
LINE
  5
29E
100
AcDbEntity
  8
0
100
AcDbLine
 62
6
  6
CONTINUOUS
 10
4.1251858633
 20
6.1064190175
 11
4.3416922142
 21
5.7314190175
  0
LINE
  5
29F
100
AcDbEntity
  8
0
100
AcDbLine
 62
6
  6
CONTINUOUS
 10
3.9281985652
 20
7.4736367003
 11
3.9281985652
 21
8.3256366736
  0
LINE
  5
2A0
100
AcDbEntity
  8
0
100
AcDbLine
 62
6
  6
CONTINUOUS
 10
4.7747049161
 20
6.4814190175
 11
4.3416922142
 21
6.4814190175
  0
LINE
  5
2A1
100
AcDbEntity
  8
0
100
AcDbLine
 62
6
  6
CONTINUOUS
 10
3.3181985652
 20
6.5214190175
 11
2.9281985652
 21
6.5214190175
  0
LINE
  5
2A2
100
AcDbEntity
  8
0
100
AcDbLine
 62
6
  6
CONTINUOUS
 10
5.7981985652
 20
6.5214190175
 11
6.1881985652
 21
6.5214190175
  0
LINE
  5
2A3
100
AcDbEntity
  8
0
100
AcDbLine
 62
6
  6
CONTINUOUS
 10
2.4331985652
 20
6.5464190175
 11
3.3081985652
 21
6.5464190175
  0
LINE
  5
2A4
100
AcDbEntity
  8
0
100
AcDbLine
 62
6
  6
CONTINUOUS
 10
5.8081985652
 20
6.5464190175
 11
6.6831985652
 21
6.5464190175
  0
LINE
  5
2A5
100
AcDbEntity
  8
0
100
AcDbLine
 62
6
  6
CONTINUOUS
 10
4.3081985652
 20
8.9497998013
 11
4.3081985652
 21
8.8521858833
  0
LWPOLYLINE
  5
2A6
100
AcDbEntity
  8
0
100
AcDbPolyline
 62
2
  6
CONTINUOUS
 90
3
 70
0
 10
4.4097609558
 20
9.8388008423
 10
4.4097609558
 20
9.8257799683
 10
4.3941361084
 20
9.7997382202
  0
LINE
  5
2A7
100
AcDbEntity
  8
0
100
AcDbLine
 62
6
  6
CONTINUOUS
 10
4.4126985652
 20
8.1560102944
 11
4.4126985652
 21
8.3256366736
  0
LINE
  5
2A8
100
AcDbEntity
  8
0
100
AcDbLine
 62
6
  6
CONTINUOUS
 10
4.4331985652
 20
8.5134856842
 11
4.4331985652
 21
8.433793608
  0
LINE
  5
2A9
100
AcDbEntity
  8
0
100
AcDbLine
 62
6
  6
CONTINUOUS
 10
4.9912112671
 20
6.1064190175
 11
4.7747049161
 21
6.4814190175
  0
LINE
  5
2AA
100
AcDbEntity
  8
0
100
AcDbLine
 62
6
  6
CONTINUOUS
 10
4.6831985652
 20
8.5134853995
 11
4.6831985652
 21
8.433793608
  0
LINE
  5
2AB
100
AcDbEntity
  8
0
100
AcDbLine
 62
6
  6
CONTINUOUS
 10
4.6936985652
 20
8.1666252115
 11
4.6936985652
 21
8.3256366736
  0
LINE
  5
2AC
100
AcDbEntity
  8
0
100
AcDbLine
 62
6
  6
CONTINUOUS
 10
4.3416922142
 20
6.4814190175
 11
4.1251858633
 21
6.1064190175
  0
LINE
  5
2AD
100
AcDbEntity
  8
0
100
AcDbLine
 62
6
  6
CONTINUOUS
 10
5.6206985652
 20
7.1806521518
 11
3.4956985652
 21
7.1806521518
  0
LINE
  5
2AE
100
AcDbEntity
  8
0
100
AcDbLine
 62
6
  6
CONTINUOUS
 10
3.4956985652
 20
7.2054279204
 11
5.6206985652
 21
7.2054279204
  0
LWPOLYLINE
  5
2AF
100
AcDbEntity
  8
0
100
AcDbPolyline
 62
2
  6
CONTINUOUS
 90
3
 70
0
 10
4.7847609863
 20
9.8388008423
 10
4.7847609863
 20
9.8257799683
 10
4.7691361389
 20
9.7997382202
  0
LINE
  5
2B0
100
AcDbEntity
  8
0
100
AcDbLine
 62
6
  6
CONTINUOUS
 10
4.8081985652
 20
8.9497998013
 11
4.8081985652
 21
8.8521858833
  0
LINE
  5
2B1
100
AcDbEntity
  8
0
100
AcDbLine
 62
6
  6
CONTINUOUS
 10
5.6206985652
 20
7.3826073376
 11
3.4956985652
 21
7.3826073376
  0
LINE
  5
2B2
100
AcDbEntity
  8
0
100
AcDbLine
 62
6
  6
CONTINUOUS
 10
3.4956985652
 20
7.4294190175
 11
5.6206985652
 21
7.4294190175
  0
LINE
  5
2B3
100
AcDbEntity
  8
0
100
AcDbLine
 62
6
  6
CONTINUOUS
 10
5.1781985652
 20
7.4736367003
 11
3.9281985652
 21
7.4736367003
  0
LINE
  5
2B4
100
AcDbEntity
  8
0
100
AcDbLine
 62
6
  6
CONTINUOUS
 10
3.9281985652
 20
7.4836341975
 11
5.1781985652
 21
7.4836341975
  0
LINE
  5
2B5
100
AcDbEntity
  8
0
100
AcDbLine
 62
6
  6
CONTINUOUS
 10
3.3081985652
 20
7.5464190175
 11
2.4331985652
 21
7.5464190175
  0
LINE
  5
2B6
100
AcDbEntity
  8
0
100
AcDbLine
 62
6
  6
CONTINUOUS
 10
5.8081985652
 20
7.5464190175
 11
6.6831985652
 21
7.5464190175
  0
LINE
  5
2B7
100
AcDbEntity
  8
0
100
AcDbLine
 62
6
  6
CONTINUOUS
 10
5.6206985652
 20
7.5714190175
 11
5.1781985652
 21
7.5714190175
  0
LINE
  5
2B8
100
AcDbEntity
  8
0
100
AcDbLine
 62
6
  6
CONTINUOUS
 10
3.9281985652
 20
7.5714190175
 11
3.4956985652
 21
7.5714190175
  0
LINE
  5
2B9
100
AcDbEntity
  8
0
100
AcDbLine
 62
6
  6
CONTINUOUS
 10
3.3181985652
 20
7.5714190175
 11
2.9281985652
 21
7.5714190175
  0
LINE
  5
2BA
100
AcDbEntity
  8
0
100
AcDbLine
 62
6
  6
CONTINUOUS
 10
5.7981985652
 20
7.5714190175
 11
6.1881985652
 21
7.5714190175
  0
LINE
  5
2BB
100
AcDbEntity
  8
0
100
AcDbLine
 62
6
  6
CONTINUOUS
 10
5.1781985652
 20
7.4736367003
 11
5.1781985652
 21
8.3256366736
  0
LINE
  5
2BC
100
AcDbEntity
  8
0
100
AcDbLine
 62
6
  6
CONTINUOUS
 10
4.7747049161
 20
5.7314190175
 11
4.9912112671
 21
6.1064190175
  0
LINE
  5
2BD
100
AcDbEntity
  8
0
100
AcDbLine
 62
6
  6
CONTINUOUS
 10
4.3582385692
 20
7.9814190175
 11
4.7581585612
 21
7.9814190175
  0
LINE
  5
2BE
100
AcDbEntity
  8
0
100
AcDbLine
 62
6
  6
CONTINUOUS
 10
5.6181985652
 20
5.0464190177
 11
5.6181985652
 21
7.1806521518
  0
LINE
  5
2BF
100
AcDbEntity
  8
0
100
AcDbLine
 62
6
  6
CONTINUOUS
 10
5.6181985652
 20
8.8521858833
 11
5.6181985652
 21
9.0464190173
  0
LINE
  5
2C0
100
AcDbEntity
  8
0
100
AcDbLine
 62
6
  6
CONTINUOUS
 10
5.6206985652
 20
7.1806521518
 11
5.6206985652
 21
8.8521858833
  0
LINE
  5
2C1
100
AcDbEntity
  8
0
100
AcDbLine
 62
6
  6
CONTINUOUS
 10
5.6231985652
 20
5.0464190175
 11
5.6231985652
 21
9.0464190175
  0
LINE
  5
2C2
100
AcDbEntity
  8
0
100
AcDbLine
 62
6
  6
CONTINUOUS
 10
5.6331985652
 20
9.0464190175
 11
5.6331985652
 21
5.0464190175
  0
LINE
  5
2C3
100
AcDbEntity
  8
0
100
AcDbLine
 62
6
  6
CONTINUOUS
 10
4.3582385692
 20
8.0514190175
 11
4.7581585612
 21
8.0514190175
  0
LINE
  5
2C4
100
AcDbEntity
  8
0
100
AcDbLine
 62
6
  6
CONTINUOUS
 10
5.7881985652
 20
6.5314190175
 11
5.7881985652
 21
7.5614190175
  0
LINE
  5
2C5
100
AcDbEntity
  8
0
100
AcDbLine
 62
6
  6
CONTINUOUS
 10
5.8081985652
 20
6.5464190175
 11
5.8081985652
 21
7.5464190175
  0
LINE
  5
2C6
100
AcDbEntity
  8
0
100
AcDbLine
 62
6
  6
CONTINUOUS
 10
5.1781985652
 20
8.3156341714
 11
4.6936985652
 21
8.3156341714
  0
LINE
  5
2C7
100
AcDbEntity
  8
0
100
AcDbLine
 62
6
  6
CONTINUOUS
 10
4.4126985652
 20
8.3156341714
 11
3.9281985652
 21
8.3156341714
  0
LINE
  5
2C8
100
AcDbEntity
  8
0
100
AcDbLine
 62
6
  6
CONTINUOUS
 10
3.9281985652
 20
8.3256366736
 11
4.4126985652
 21
8.3256366736
  0
LINE
  5
2C9
100
AcDbEntity
  8
0
100
AcDbLine
 62
6
  6
CONTINUOUS
 10
4.6936985652
 20
8.3256366736
 11
5.1781985652
 21
8.3256366736
  0
LWPOLYLINE
  5
2CA
100
AcDbEntity
  8
0
100
AcDbPolyline
 62
2
  6
CONTINUOUS
 90
3
 70
0
 10
4.3472612305
 20
9.7997382202
 10
4.3316360474
 20
9.8257799683
 10
4.3316360474
 20
9.8388008423
  0
LWPOLYLINE
  5
2CB
100
AcDbEntity
  8
0
100
AcDbPolyline
 62
2
  6
CONTINUOUS
 90
3
 70
0
 10
4.2691359863
 20
10.0992176514
 10
4.2847611694
 20
10.0731759033
 10
4.2847611694
 20
10.0601550293
  0
LINE
  5
2CC
100
AcDbEntity
  8
0
100
AcDbLine
 62
6
  6
CONTINUOUS
 10
5.6206985652
 20
8.4614190175
 11
4.6831985652
 21
8.4614190175
  0
LINE
  5
2CD
100
AcDbEntity
  8
0
100
AcDbLine
 62
6
  6
CONTINUOUS
 10
4.4331985652
 20
8.4614190175
 11
3.4956985652
 21
8.4614190175
  0
LINE
  5
2CE
100
AcDbEntity
  8
0
100
AcDbLine
 62
6
  6
CONTINUOUS
 10
5.6206985652
 20
8.6034190175
 11
3.4956985652
 21
8.6034190175
  0
LWPOLYLINE
  5
2CF
100
AcDbEntity
  8
0
100
AcDbPolyline
 62
2
  6
CONTINUOUS
 90
5
 70
0
 10
4.6206985779
 20
9.7867173462
 10
4.6128859863
 20
9.7997382202
 10
4.6206985779
 20
9.7997382202
 10
4.6206985779
 20
9.7867173462
 10
4.6050737305
 20
9.7606755981
  0
LWPOLYLINE
  5
2D0
100
AcDbEntity
  8
0
100
AcDbPolyline
 62
2
  6
CONTINUOUS
 90
3
 70
0
 10
4.7222609253
 20
9.7997382202
 10
4.7066360779
 20
9.8257799683
 10
4.7066360779
 20
9.8388008423
  0
LINE
  5
2D1
100
AcDbEntity
  8
0
100
AcDbLine
 62
6
  6
CONTINUOUS
 10
6.2571028773
 20
7.3098373743
 11
6.2592951174
 21
6.7825848787
  0
LINE
  5
2D2
100
AcDbEntity
  8
0
100
AcDbLine
 62
6
  6
CONTINUOUS
 10
6.1532777957
 20
7.5714190175
 11
6.1532777957
 21
7.5464190175
  0
LINE
  5
2D3
100
AcDbEntity
  8
0
100
AcDbLine
 62
6
  6
CONTINUOUS
 10
6.1532777957
 20
6.5464190175
 11
6.1532777957
 21
6.5214190175
  0
LINE
  5
2D4
100
AcDbEntity
  8
0
100
AcDbLine
 62
6
  6
CONTINUOUS
 10
6.1881985652
 20
9.0464190175
 11
6.1881985652
 21
7.5464190175
  0
LINE
  5
2D5
100
AcDbEntity
  8
0
100
AcDbLine
 62
6
  6
CONTINUOUS
 10
6.1881985652
 20
6.5464190175
 11
6.1881985652
 21
5.0464190175
  0
LINE
  5
2D6
100
AcDbEntity
  8
0
100
AcDbLine
 62
6
  6
CONTINUOUS
 10
3.4956985652
 20
8.6502306974
 11
5.6206985652
 21
8.6502306974
  0
LINE
  5
2D7
100
AcDbEntity
  8
0
100
AcDbLine
 62
6
  6
CONTINUOUS
 10
6.3592942531
 20
6.7830006607
 11
6.3571020129
 21
7.3102531563
  0
LINE
  5
2D8
100
AcDbEntity
  8
0
100
AcDbLine
 62
6
  6
CONTINUOUS
 10
6.4866985652
 20
6.5464190175
 11
6.4866985652
 21
6.8126095675
  0
LINE
  5
2D9
100
AcDbEntity
  8
0
100
AcDbLine
 62
6
  6
CONTINUOUS
 10
6.4866985652
 20
7.2805331973
 11
6.4866985652
 21
7.5464190175
  0
LINE
  5
2DA
100
AcDbEntity
  8
0
100
AcDbLine
 62
6
  6
CONTINUOUS
 10
5.6206985652
 20
8.8274101146
 11
3.4956985652
 21
8.8274101146
  0
LINE
  5
2DB
100
AcDbEntity
  8
0
100
AcDbLine
 62
6
  6
CONTINUOUS
 10
3.4956985652
 20
8.8521858833
 11
5.6206985652
 21
8.8521858833
  0
LINE
  5
2DC
100
AcDbEntity
  8
0
100
AcDbLine
 62
6
  6
CONTINUOUS
 10
5.6181985652
 20
8.8564190175
 11
4.8081985652
 21
8.8564190175
  0
LINE
  5
2DD
100
AcDbEntity
  8
0
100
AcDbLine
 62
6
  6
CONTINUOUS
 10
4.3081985652
 20
8.8564190175
 11
3.4981985652
 21
8.8564190175
  0
LINE
  5
2DE
100
AcDbEntity
  8
0
100
AcDbLine
 62
6
  6
CONTINUOUS
 10
6.6831985652
 20
7.5464190175
 11
6.6831985652
 21
6.5464190175
  0
LINE
  5
2DF
100
AcDbEntity
  8
0
100
AcDbLine
 62
6
  6
CONTINUOUS
 10
6.1881985652
 20
9.0464190175
 11
2.9281985652
 21
9.0464190175
  0
LINE
  5
2E0
100
AcDbEntity
  8
0
100
AcDbLine
 62
2
  6
CONTINUOUS
 10
4.3628860779
 20
9.7867173462
 11
4.3472612305
 21
9.7997382202
  0
LWPOLYLINE
  5
2E1
100
AcDbEntity
  8
0
100
AcDbPolyline
 62
2
  6
CONTINUOUS
 90
12
 70
0
 10
4.3628860779
 20
9.8778634644
 10
4.3472612305
 20
9.8908843384
 10
4.3394486389
 20
9.9039052124
 10
4.3394486389
 20
9.9169260864
 10
4.3472612305
 20
9.9299469604
 10
4.3628860779
 20
9.9429671631
 10
4.3785109253
 20
9.9429671631
 10
4.3941361084
 20
9.9299469604
 10
4.4019487
 20
9.9169260864
 10
4.4019487
 20
9.9039052124
 10
4.3941361084
 20
9.8908843384
 10
4.3785109253
 20
9.8778634644
  0
LINE
  5
2E2
100
AcDbEntity
  8
0
100
AcDbLine
 62
2
  6
CONTINUOUS
 10
4.7378861084
 20
9.7867173462
 11
4.7222609253
 21
9.7997382202
  0
LWPOLYLINE
  5
2E3
100
AcDbEntity
  8
0
100
AcDbPolyline
 62
2
  6
CONTINUOUS
 90
12
 70
0
 10
4.7378861084
 20
9.8778634644
 10
4.7222609253
 20
9.8908843384
 10
4.7144486694
 20
9.9039052124
 10
4.7144486694
 20
9.9169260864
 10
4.7222609253
 20
9.9299469604
 10
4.7378861084
 20
9.9429671631
 10
4.7535109558
 20
9.9429671631
 10
4.7691361389
 20
9.9299469604
 10
4.7769487305
 20
9.9169260864
 10
4.7769487305
 20
9.9039052124
 10
4.7691361389
 20
9.8908843384
 10
4.7535109558
 20
9.8778634644
  0
LWPOLYLINE
  5
2E4
100
AcDbEntity
  8
0
100
AcDbPolyline
 62
2
  6
CONTINUOUS
 90
4
 70
0
 10
4.8550736389
 20
9.7867173462
 10
4.8863236694
 20
9.7867173462
 10
4.8863236694
 20
9.9429671631
 10
4.8550736389
 20
9.9429671631
  0
LWPOLYLINE
  5
2E5
100
AcDbEntity
  8
0
100
AcDbPolyline
 62
2
  6
CONTINUOUS
 90
4
 70
0
 10
4.2613237305
 20
9.9429671631
 10
4.2300737
 20
9.9429671631
 10
4.2300737
 20
9.7867173462
 10
4.2613237305
 20
9.7867173462
  0
LWPOLYLINE
  5
2E6
100
AcDbEntity
  8
0
100
AcDbPolyline
 62
2
  6
CONTINUOUS
 90
4
 70
0
 10
4.3706986694
 20
10.0210924072
 10
4.3628860779
 20
10.0210924072
 10
4.3628860779
 20
10.0341132813
 10
4.3706986694
 20
10.0210924072
  0
LINE
  5
2E7
100
AcDbEntity
  8
0
100
AcDbLine
 62
2
  6
CONTINUOUS
 10
4.2378859558
 20
10.1122385254
 11
4.2535111389
 21
10.1122385254
  0
LINE
  5
2E8
100
AcDbEntity
  8
0
100
AcDbLine
 62
6
  6
CONTINUOUS
 10
7.6559948323
 20
8.6502306974
 11
7.6873277863
 21
8.8274101146
  0
LINE
  5
2E9
100
AcDbEntity
  8
0
100
AcDbLine
 62
6
  6
CONTINUOUS
 10
7.8576420312
 20
8.2194190175
 11
7.8376420312
 21
8.1994190175
  0
LINE
  5
2EA
100
AcDbEntity
  8
0
100
AcDbLine
 62
6
  6
CONTINUOUS
 10
7.6873277863
 20
7.2054279204
 11
7.6559948323
 21
7.3826073376
  0
LINE
  5
2EB
100
AcDbEntity
  8
0
100
AcDbLine
 62
6
  6
CONTINUOUS
 10
7.8376420312
 20
8.1994190175
 11
7.8376420312
 21
8.0514190175
  0
LINE
  5
2EC
100
AcDbEntity
  8
0
100
AcDbLine
 62
6
  6
CONTINUOUS
 10
7.8376420312
 20
7.9814190175
 11
7.8376420312
 21
7.8334190175
  0
LINE
  5
2ED
100
AcDbEntity
  8
0
100
AcDbLine
 62
6
  6
CONTINUOUS
 10
7.8576420312
 20
8.2194190175
 11
7.8576420312
 21
8.0514190175
  0
LINE
  5
2EE
100
AcDbEntity
  8
0
100
AcDbLine
 62
6
  6
CONTINUOUS
 10
7.8576420312
 20
7.9814190175
 11
7.8576420312
 21
7.8134190175
  0
LINE
  5
2EF
100
AcDbEntity
  8
0
100
AcDbLine
 62
6
  6
CONTINUOUS
 10
7.9246420312
 20
8.0514190175
 11
7.9246420312
 21
7.9814190175
  0
LINE
  5
2F0
100
AcDbEntity
  8
0
100
AcDbLine
 62
6
  6
CONTINUOUS
 10
8.0707127805
 20
7.4836341975
 11
8.0705045751
 21
8.3156341714
  0
LINE
  5
2F1
100
AcDbEntity
  8
0
100
AcDbLine
 62
6
  6
CONTINUOUS
 10
8.0556420312
 20
7.8134190175
 11
8.0556420312
 21
8.2194190175
  0
LINE
  5
2F2
100
AcDbEntity
  8
0
100
AcDbLine
 62
6
  6
CONTINUOUS
 10
8.0656420312
 20
8.1254190175
 11
8.0656420312
 21
7.9074190175
  0
LINE
  5
2F3
100
AcDbEntity
  8
0
100
AcDbLine
 62
6
  6
CONTINUOUS
 10
9.9956420312
 20
5.0464190175
 11
12.4156420312
 21
5.0464190175
  0
LINE
  5
2F4
100
AcDbEntity
  8
0
100
AcDbLine
 62
6
  6
CONTINUOUS
 10
8.4927656355
 20
8.8521858833
 11
8.5032832199
 21
8.9717133816
  0
LINE
  5
2F5
100
AcDbEntity
  8
0
100
AcDbLine
 62
6
  6
CONTINUOUS
 10
8.5823971507
 20
8.4447503981
 11
8.5894094964
 21
8.5244424743
  0
LINE
  5
2F6
100
AcDbEntity
  8
0
100
AcDbLine
 62
6
  6
CONTINUOUS
 10
9.0056420312
 20
8.1414190175
 11
8.9806420312
 21
8.0984190175
  0
LINE
  5
2F7
100
AcDbEntity
  8
0
100
AcDbLine
 62
6
  6
CONTINUOUS
 10
9.0548694765
 20
8.1407256072
 11
9.0556615181
 21
8.1414076838
  0
LINE
  5
2F8
100
AcDbEntity
  8
0
100
AcDbLine
 62
6
  6
CONTINUOUS
 10
9.1048694765
 20
8.1407256072
 11
9.1056615181
 21
8.1414076838
  0
LINE
  5
2F9
100
AcDbEntity
  8
0
100
AcDbLine
 62
6
  6
CONTINUOUS
 10
8.6856420312
 20
5.9064190175
 11
8.8056420312
 21
5.8564190175
  0
LINE
  5
2FA
100
AcDbEntity
  8
0
100
AcDbLine
 62
6
  6
CONTINUOUS
 10
8.6655162589
 20
8.2690195421
 11
8.665512255
 21
8.2850195416
  0
LINE
  5
2FB
100
AcDbEntity
  8
0
100
AcDbLine
 62
6
  6
CONTINUOUS
 10
8.6955237654
 20
8.2390270504
 11
8.6956302695
 21
7.8134306607
  0
LINE
  5
2FC
100
AcDbEntity
  8
0
100
AcDbLine
 62
6
  6
CONTINUOUS
 10
8.6856420312
 20
6.3064190173
 11
8.6856420312
 21
5.9064190177
  0
LINE
  5
2FD
100
AcDbEntity
  8
0
100
AcDbLine
 62
6
  6
CONTINUOUS
 10
8.8056420312
 20
6.3564190175
 11
8.8056420312
 21
5.8564190175
  0
LINE
  5
2FE
100
AcDbEntity
  8
0
100
AcDbLine
 62
6
  6
CONTINUOUS
 10
8.8314348888
 20
8.4228368179
 11
8.8384472345
 21
8.5025288941
  0
LINE
  5
2FF
100
AcDbEntity
  8
0
100
AcDbLine
 62
6
  6
CONTINUOUS
 10
9.0306550296
 20
8.0984114707
 11
9.0556617933
 21
8.1414075151
  0
LINE
  5
300
100
AcDbEntity
  8
0
100
AcDbLine
 62
6
  6
CONTINUOUS
 10
9.0806550296
 20
8.0984114707
 11
9.1056617933
 21
8.1414075151
  0
LINE
  5
301
100
AcDbEntity
  8
0
100
AcDbLine
 62
6
  6
CONTINUOUS
 10
9.1306550296
 20
8.0984114707
 11
9.1556617933
 21
8.1414075151
  0
LINE
  5
302
100
AcDbEntity
  8
0
100
AcDbLine
 62
6
  6
CONTINUOUS
 10
9.2056615181
 20
8.1414076838
 11
9.1806547375
 21
8.0984116425
  0
LINE
  5
303
100
AcDbEntity
  8
0
100
AcDbLine
 62
6
  6
CONTINUOUS
 10
9.2556615181
 20
8.1414076838
 11
9.2306547375
 21
8.0984116425
  0
LINE
  5
304
100
AcDbEntity
  8
0
100
AcDbLine
 62
6
  6
CONTINUOUS
 10
8.9897896289
 20
7.9063380089
 11
9.0056421054
 21
7.933337848
  0
LINE
  5
305
100
AcDbEntity
  8
0
100
AcDbLine
 62
6
  6
CONTINUOUS
 10
9.0314805731
 20
7.8921396223
 11
9.0556421035
 21
7.9333378513
  0
LINE
  5
306
100
AcDbEntity
  8
0
100
AcDbLine
 62
6
  6
CONTINUOUS
 10
9.0814805731
 20
7.8921396223
 11
9.1056421035
 21
7.9333378513
  0
LINE
  5
307
100
AcDbEntity
  8
0
100
AcDbLine
 62
6
  6
CONTINUOUS
 10
9.0548160801
 20
8.1406343416
 11
9.030642105
 21
8.099438863
  0
LINE
  5
308
100
AcDbEntity
  8
0
100
AcDbLine
 62
6
  6
CONTINUOUS
 10
9.1048160801
 20
8.1406343416
 11
9.080642105
 21
8.099438863
  0
LINE
  5
309
100
AcDbEntity
  8
0
100
AcDbLine
 62
6
  6
CONTINUOUS
 10
9.1548160801
 20
8.1406343416
 11
9.130642105
 21
8.099438863
  0
LINE
  5
30A
100
AcDbEntity
  8
0
100
AcDbLine
 62
6
  6
CONTINUOUS
 10
9.204816075
 20
8.1406343328
 11
9.1806421095
 21
8.0994388629
  0
LINE
  5
30B
100
AcDbEntity
  8
0
100
AcDbLine
 62
6
  6
CONTINUOUS
 10
9.254816075
 20
8.1406343328
 11
9.2306421095
 21
8.0994388629
  0
LINE
  5
30C
100
AcDbEntity
  8
0
100
AcDbLine
 62
6
  6
CONTINUOUS
 10
9.1548694765
 20
8.1407256072
 11
9.1556615181
 21
8.1414076838
  0
LINE
  5
30D
100
AcDbEntity
  8
0
100
AcDbLine
 62
6
  6
CONTINUOUS
 10
9.1793144162
 20
8.0973319627
 11
9.1806290575
 21
8.098411472
  0
LINE
  5
30E
100
AcDbEntity
  8
0
100
AcDbLine
 62
6
  6
CONTINUOUS
 10
9.2293144162
 20
8.0973319627
 11
9.2306290575
 21
8.098411472
  0
LINE
  5
30F
100
AcDbEntity
  8
0
100
AcDbLine
 62
6
  6
CONTINUOUS
 10
9.2793144163
 20
8.0973319625
 11
9.2806290327
 21
8.0984114707
  0
LINE
  5
310
100
AcDbEntity
  8
0
100
AcDbLine
 62
6
  6
CONTINUOUS
 10
9.205622269
 20
8.1414075151
 11
9.2047620705
 21
8.1407273801
  0
LINE
  5
311
100
AcDbEntity
  8
0
100
AcDbLine
 62
6
  6
CONTINUOUS
 10
9.255622269
 20
8.1414075151
 11
9.2547620705
 21
8.1407273801
  0
LINE
  5
312
100
AcDbEntity
  8
0
100
AcDbLine
 62
6
  6
CONTINUOUS
 10
9.8056420312
 20
5.6709190175
 11
9.7066420312
 21
5.6709190175
  0
LINE
  5
313
100
AcDbEntity
  8
0
100
AcDbLine
 62
6
  6
CONTINUOUS
 10
9.2686420312
 20
5.7314190175
 11
9.7066420312
 21
5.7314190175
  0
LINE
  5
314
100
AcDbEntity
  8
0
100
AcDbLine
 62
6
  6
CONTINUOUS
 10
8.9156420312
 20
7.8134190175
 11
8.9156420312
 21
8.2194190175
  0
LINE
  5
315
100
AcDbEntity
  8
0
100
AcDbLine
 62
6
  6
CONTINUOUS
 10
8.9356420312
 20
8.1214190175
 11
8.9356420312
 21
7.9114190175
  0
LINE
  5
316
100
AcDbEntity
  8
0
100
AcDbLine
 62
6
  6
CONTINUOUS
 10
8.9756420312
 20
7.9114190175
 11
8.9756420312
 21
8.068475492
  0
LINE
  5
317
100
AcDbEntity
  8
0
100
AcDbLine
 62
6
  6
CONTINUOUS
 10
8.9946975955
 20
8.8521858833
 11
9.0013586961
 21
8.9278862211
  0
LINE
  5
318
100
AcDbEntity
  8
0
100
AcDbLine
 62
6
  6
CONTINUOUS
 10
9.305111724
 20
8.1404623814
 11
9.2806547375
 21
8.0984116425
  0
LINE
  5
319
100
AcDbEntity
  8
0
100
AcDbLine
 62
6
  6
CONTINUOUS
 10
9.1314805731
 20
7.8921396223
 11
9.1556421057
 21
7.9333378551
  0
LINE
  5
31A
100
AcDbEntity
  8
0
100
AcDbLine
 62
6
  6
CONTINUOUS
 10
9.1814805696
 20
7.8921396163
 11
9.2056421079
 21
7.9333378513
  0
LINE
  5
31B
100
AcDbEntity
  8
0
100
AcDbLine
 62
6
  6
CONTINUOUS
 10
9.2314805696
 20
7.8921396163
 11
9.2556421079
 21
7.9333378513
  0
LINE
  5
31C
100
AcDbEntity
  8
0
100
AcDbLine
 62
6
  6
CONTINUOUS
 10
9.2814805696
 20
7.8921396163
 11
9.3056421057
 21
7.9333378475
  0
LINE
  5
31D
100
AcDbEntity
  8
0
100
AcDbLine
 62
6
  6
CONTINUOUS
 10
9.304816075
 20
8.1406343328
 11
9.2806421095
 21
8.0994388629
  0
LINE
  5
31E
100
AcDbEntity
  8
0
100
AcDbLine
 62
6
  6
CONTINUOUS
 10
9.0706852182
 20
7.5938998502
 11
9.0406927265
 21
7.5638923438
  0
LINE
  5
31F
100
AcDbEntity
  8
0
100
AcDbLine
 62
6
  6
CONTINUOUS
 10
8.989780134
 20
7.9063475374
 11
8.9891934601
 21
7.9061281567
  0
LINE
  5
320
100
AcDbEntity
  8
0
100
AcDbLine
 62
6
  6
CONTINUOUS
 10
8.8056420312
 20
5.8564190175
 11
9.2686420312
 21
5.8564190175
  0
LINE
  5
321
100
AcDbEntity
  8
0
100
AcDbLine
 62
6
  6
CONTINUOUS
 10
9.0406967305
 20
7.5478923443
 11
9.0406927265
 21
7.5638923438
  0
LINE
  5
322
100
AcDbEntity
  8
0
100
AcDbLine
 62
6
  6
CONTINUOUS
 10
9.0406460243
 20
7.7505169978
 11
9.0406420203
 21
7.7665169973
  0
LINE
  5
323
100
AcDbEntity
  8
0
100
AcDbLine
 62
6
  6
CONTINUOUS
 10
9.0706535308
 20
7.7205245062
 11
9.0706852182
 21
7.5938998502
  0
LINE
  5
324
100
AcDbEntity
  8
0
100
AcDbLine
 62
6
  6
CONTINUOUS
 10
9.7066420312
 20
6.0764190175
 11
9.8056420312
 21
6.0764190175
  0
LINE
  5
325
100
AcDbEntity
  8
0
100
AcDbLine
 62
6
  6
CONTINUOUS
 10
9.3021356802
 20
6.1064190175
 11
9.6731483821
 21
6.1064190175
  0
LINE
  5
326
100
AcDbEntity
  8
0
100
AcDbLine
 62
6
  6
CONTINUOUS
 10
9.8056420312
 20
6.1364190175
 11
9.7066420312
 21
6.1364190175
  0
LINE
  5
327
100
AcDbEntity
  8
0
100
AcDbLine
 62
6
  6
CONTINUOUS
 10
7.8576420312
 20
7.8134190175
 11
7.8376420312
 21
7.8334190175
  0
LINE
  5
328
100
AcDbEntity
  8
0
100
AcDbLine
 62
6
  6
CONTINUOUS
 10
9.2686420312
 20
6.4814190175
 11
9.2686420312
 21
5.7314190175
  0
LINE
  5
329
100
AcDbEntity
  8
0
100
AcDbLine
 62
6
  6
CONTINUOUS
 10
9.3056420312
 20
7.5714190175
 11
9.3056420312
 21
8.4614190175
  0
LINE
  5
32A
100
AcDbEntity
  8
0
100
AcDbLine
 62
6
  6
CONTINUOUS
 10
8.8056420312
 20
6.3564190175
 11
9.2686420312
 21
6.3564190175
  0
LINE
  5
32B
100
AcDbEntity
  8
0
100
AcDbLine
 62
6
  6
CONTINUOUS
 10
9.2686420312
 20
6.4814190175
 11
9.7066420312
 21
6.4814190175
  0
LINE
  5
32C
100
AcDbEntity
  8
0
100
AcDbLine
 62
6
  6
CONTINUOUS
 10
9.9956420312
 20
6.5214190175
 11
12.1156420312
 21
6.5214190175
  0
LINE
  5
32D
100
AcDbEntity
  8
0
100
AcDbLine
 62
6
  6
CONTINUOUS
 10
9.9956420312
 20
6.5314190175
 11
11.1156420312
 21
6.5314190175
  0
LINE
  5
32E
100
AcDbEntity
  8
0
100
AcDbLine
 62
6
  6
CONTINUOUS
 10
9.8056420312
 20
6.5419190175
 11
9.7066420312
 21
6.5419190175
  0
LINE
  5
32F
100
AcDbEntity
  8
0
100
AcDbLine
 62
6
  6
CONTINUOUS
 10
10.9726420312
 20
6.5464190175
 11
12.1216420312
 21
6.5464190175
  0
LINE
  5
330
100
AcDbEntity
  8
0
100
AcDbLine
 62
6
  6
CONTINUOUS
 10
9.0043554372
 20
7.9355239893
 11
9.0298035399
 21
7.8921395357
  0
LINE
  5
331
100
AcDbEntity
  8
0
100
AcDbLine
 62
6
  6
CONTINUOUS
 10
9.0543554372
 20
7.9355239893
 11
9.0798035399
 21
7.8921395357
  0
LINE
  5
332
100
AcDbEntity
  8
0
100
AcDbLine
 62
6
  6
CONTINUOUS
 10
9.7066420312
 20
5.6709190199
 11
9.7066420312
 21
6.5419190149
  0
LINE
  5
333
100
AcDbEntity
  8
0
100
AcDbLine
 62
6
  6
CONTINUOUS
 10
9.8056420312
 20
8.8564190175
 11
9.8056420312
 21
5.2364190175
  0
LWPOLYLINE
  5
334
100
AcDbEntity
  8
0
100
AcDbPolyline
 62
2
  6
CONTINUOUS
 90
4
 70
0
 10
13.9150308838
 20
6.7339192505
 10
13.94628125
 20
6.7339192505
 10
13.94628125
 20
6.8901690674
 10
13.9150308838
 20
6.8901690674
  0
LINE
  5
335
100
AcDbEntity
  8
0
100
AcDbLine
 62
6
  6
CONTINUOUS
 10
10.9726420312
 20
6.7514190175
 11
10.8946420312
 21
6.7514190175
  0
LINE
  5
336
100
AcDbEntity
  8
0
100
AcDbLine
 62
6
  6
CONTINUOUS
 10
12.4156420312
 20
6.7964190175
 11
12.1216420312
 21
6.7964190175
  0
LINE
  5
337
100
AcDbEntity
  8
0
100
AcDbLine
 62
6
  6
CONTINUOUS
 10
9.0406460243
 20
7.7505169978
 11
9.0706535308
 21
7.7205245062
  0
LINE
  5
338
100
AcDbEntity
  8
0
100
AcDbLine
 62
6
  6
CONTINUOUS
 10
8.9819266367
 20
8.0972575637
 11
8.969753031
 21
8.1179605538
  0
LINE
  5
339
100
AcDbEntity
  8
0
100
AcDbLine
 62
6
  6
CONTINUOUS
 10
9.0319266262
 20
8.0972575816
 11
9.0064680333
 21
8.1406342544
  0
LINE
  5
33A
100
AcDbEntity
  8
0
100
AcDbLine
 62
6
  6
CONTINUOUS
 10
9.0819266262
 20
8.0972575816
 11
9.0564680333
 21
8.1406342544
  0
LINE
  5
33B
100
AcDbEntity
  8
0
100
AcDbLine
 62
6
  6
CONTINUOUS
 10
9.1319266262
 20
8.0972575816
 11
9.1064680333
 21
8.1406342544
  0
LINE
  5
33C
100
AcDbEntity
  8
0
100
AcDbLine
 62
6
  6
CONTINUOUS
 10
9.1819266384
 20
8.0972575608
 11
9.1564680297
 21
8.1406342606
  0
LINE
  5
33D
100
AcDbEntity
  8
0
100
AcDbLine
 62
6
  6
CONTINUOUS
 10
9.1043554372
 20
7.9355239893
 11
9.1298035399
 21
7.8921395357
  0
LINE
  5
33E
100
AcDbEntity
  8
0
100
AcDbLine
 62
6
  6
CONTINUOUS
 10
9.15435545
 20
7.9355239675
 11
9.1798035348
 21
7.8921395444
  0
LINE
  5
33F
100
AcDbEntity
  8
0
100
AcDbLine
 62
6
  6
CONTINUOUS
 10
9.20435545
 20
7.9355239675
 11
9.2298035348
 21
7.8921395444
  0
LINE
  5
340
100
AcDbEntity
  8
0
100
AcDbLine
 62
6
  6
CONTINUOUS
 10
9.25435545
 20
7.9355239675
 11
9.2798035348
 21
7.8921395444
  0
LINE
  5
341
100
AcDbEntity
  8
0
100
AcDbLine
 62
6
  6
CONTINUOUS
 10
9.006172384
 20
8.1404623028
 11
9.0306293248
 21
8.0984116425
  0
LINE
  5
342
100
AcDbEntity
  8
0
100
AcDbLine
 62
6
  6
CONTINUOUS
 10
9.056172384
 20
8.1404623028
 11
9.0806293248
 21
8.0984116425
  0
LINE
  5
343
100
AcDbEntity
  8
0
100
AcDbLine
 62
6
  6
CONTINUOUS
 10
9.106172384
 20
8.1404623028
 11
9.1306293248
 21
8.0984116425
  0
LINE
  5
344
100
AcDbEntity
  8
0
100
AcDbLine
 62
6
  6
CONTINUOUS
 10
9.1806290575
 20
8.098411472
 11
9.1561720886
 21
8.1404621391
  0
LINE
  5
345
100
AcDbEntity
  8
0
100
AcDbLine
 62
6
  6
CONTINUOUS
 10
8.9806420312
 20
8.0984190175
 11
8.9693849576
 21
8.117781184
  0
LINE
  5
346
100
AcDbEntity
  8
0
100
AcDbLine
 62
6
  6
CONTINUOUS
 10
9.9956420312
 20
5.0464190175
 11
9.9956420312
 21
9.0464190175
  0
LINE
  5
347
100
AcDbEntity
  8
0
100
AcDbLine
 62
6
  6
CONTINUOUS
 10
12.1216420312
 20
6.8901690175
 11
12.3946420312
 21
6.8901690175
  0
LWPOLYLINE
  5
348
100
AcDbEntity
  8
0
100
AcDbPolyline
 62
2
  6
CONTINUOUS
 90
4
 70
0
 10
13.1962805176
 20
6.8901690674
 10
13.1650301514
 20
6.8901690674
 10
13.1650301514
 20
6.7339192505
 10
13.1962805176
 20
6.7339192505
  0
LWPOLYLINE
  5
349
100
AcDbEntity
  8
0
100
AcDbPolyline
 62
2
  6
CONTINUOUS
 90
4
 70
0
 10
13.3056561279
 20
6.9682943115
 10
13.2978425293
 20
6.9682943115
 10
13.2978425293
 20
6.9813151855
 10
13.3056561279
 20
6.9682943115
  0
LINE
  5
34A
100
AcDbEntity
  8
0
100
AcDbLine
 62
6
  6
CONTINUOUS
 10
8.6655162589
 20
8.2690195421
 11
8.6955237654
 21
8.2390270504
  0
LINE
  5
34B
100
AcDbEntity
  8
0
100
AcDbLine
 62
6
  6
CONTINUOUS
 10
9.3043554372
 20
7.9355239893
 11
9.3056420312
 21
7.9333379741
  0
LINE
  5
34C
100
AcDbEntity
  8
0
100
AcDbLine
 62
6
  6
CONTINUOUS
 10
9.2319266384
 20
8.0972575608
 11
9.2064680297
 21
8.1406342606
  0
LINE
  5
34D
100
AcDbEntity
  8
0
100
AcDbLine
 62
6
  6
CONTINUOUS
 10
9.2819266384
 20
8.0972575608
 11
9.2564680297
 21
8.1406342606
  0
LINE
  5
34E
100
AcDbEntity
  8
0
100
AcDbLine
 62
6
  6
CONTINUOUS
 10
9.2306290575
 20
8.098411472
 11
9.2061721016
 21
8.1404621468
  0
LINE
  5
34F
100
AcDbEntity
  8
0
100
AcDbLine
 62
6
  6
CONTINUOUS
 10
9.2806290327
 20
8.0984114707
 11
9.2561721011
 21
8.1404621467
  0
LINE
  5
350
100
AcDbEntity
  8
0
100
AcDbLine
 62
6
  6
CONTINUOUS
 10
10.8400956413
 20
7.3147471748
 11
10.8946420312
 21
7.3414190175
  0
LINE
  5
351
100
AcDbEntity
  8
0
100
AcDbLine
 62
6
  6
CONTINUOUS
 10
8.6856420312
 20
6.3064190175
 11
8.8056420312
 21
6.3564190175
  0
LINE
  5
352
100
AcDbEntity
  8
0
100
AcDbLine
 62
6
  6
CONTINUOUS
 10
9.4165798883
 20
7.1806521518
 11
7.7168694079
 21
7.1806521518
  0
LINE
  5
353
100
AcDbEntity
  8
0
100
AcDbLine
 62
6
  6
CONTINUOUS
 10
12.1216420312
 20
7.2026690175
 11
12.3946420312
 21
7.2026690175
  0
LINE
  5
354
100
AcDbEntity
  8
0
100
AcDbLine
 62
6
  6
CONTINUOUS
 10
9.8056420312
 20
7.2664190175
 11
9.7056420312
 21
7.2664190175
  0
LINE
  5
355
100
AcDbEntity
  8
0
100
AcDbLine
 62
6
  6
CONTINUOUS
 10
9.0056618104
 20
8.1414075138
 11
9.0065220392
 21
8.1407273041
  0
LINE
  5
356
100
AcDbEntity
  8
0
100
AcDbLine
 62
6
  6
CONTINUOUS
 10
8.9672699381
 20
8.1214190175
 11
8.968261943
 21
8.1206042076
  0
LINE
  5
357
100
AcDbEntity
  8
0
100
AcDbLine
 62
6
  6
CONTINUOUS
 10
8.9806293345
 20
8.098411642
 11
8.9818847553
 21
8.0973285774
  0
LINE
  5
358
100
AcDbEntity
  8
0
100
AcDbLine
 62
6
  6
CONTINUOUS
 10
9.0306293248
 20
8.0984116425
 11
9.0318847449
 21
8.0973285951
  0
LINE
  5
359
100
AcDbEntity
  8
0
100
AcDbLine
 62
6
  6
CONTINUOUS
 10
9.0806293248
 20
8.0984116425
 11
9.0818847449
 21
8.0973285951
  0
LINE
  5
35A
100
AcDbEntity
  8
0
100
AcDbLine
 62
6
  6
CONTINUOUS
 10
9.1306293248
 20
8.0984116425
 11
9.1318847449
 21
8.0973285951
  0
LINE
  5
35B
100
AcDbEntity
  8
0
100
AcDbLine
 62
6
  6
CONTINUOUS
 10
8.1947152791
 20
7.4736652284
 11
8.0807152827
 21
7.4736367003
  0
LINE
  5
35C
100
AcDbEntity
  8
0
100
AcDbLine
 62
6
  6
CONTINUOUS
 10
12.1216420312
 20
7.2964190175
 11
12.4156420312
 21
7.2964190175
  0
LINE
  5
35D
100
AcDbEntity
  8
0
100
AcDbLine
 62
6
  6
CONTINUOUS
 10
10.9726420312
 20
7.3414190175
 11
10.8946420312
 21
7.3414190175
  0
LINE
  5
35E
100
AcDbEntity
  8
0
100
AcDbLine
 62
6
  6
CONTINUOUS
 10
9.0556617933
 20
8.1414075151
 11
9.0565220395
 21
8.1407273046
  0
LINE
  5
35F
100
AcDbEntity
  8
0
100
AcDbLine
 62
6
  6
CONTINUOUS
 10
9.1056617933
 20
8.1414075151
 11
9.1065220395
 21
8.1407273046
  0
LINE
  5
360
100
AcDbEntity
  8
0
100
AcDbLine
 62
6
  6
CONTINUOUS
 10
9.1564146318
 20
8.1407255286
 11
9.1556225608
 21
8.1414076825
  0
LINE
  5
361
100
AcDbEntity
  8
0
100
AcDbLine
 62
6
  6
CONTINUOUS
 10
9.2064146315
 20
8.1407255291
 11
9.2056225442
 21
8.1414076838
  0
LINE
  5
362
100
AcDbEntity
  8
0
100
AcDbLine
 62
6
  6
CONTINUOUS
 10
9.2564146315
 20
8.1407255291
 11
9.2556225442
 21
8.1414076838
  0
LINE
  5
363
100
AcDbEntity
  8
0
100
AcDbLine
 62
6
  6
CONTINUOUS
 10
9.1806293248
 20
8.0984116425
 11
9.1818847569
 21
8.0973285746
  0
LINE
  5
364
100
AcDbEntity
  8
0
100
AcDbLine
 62
6
  6
CONTINUOUS
 10
9.2306293248
 20
8.0984116425
 11
9.2318847569
 21
8.0973285746
  0
LINE
  5
365
100
AcDbEntity
  8
0
100
AcDbLine
 62
6
  6
CONTINUOUS
 10
9.2806293248
 20
8.0984116425
 11
9.2818847569
 21
8.0973285746
  0
LINE
  5
366
100
AcDbEntity
  8
0
100
AcDbLine
 62
6
  6
CONTINUOUS
 10
7.6918774882
 20
7.4294190175
 11
9.3056420312
 21
7.5714190175
  0
LINE
  5
367
100
AcDbEntity
  8
0
100
AcDbLine
 62
6
  6
CONTINUOUS
 10
10.9726420312
 20
7.5464190175
 11
12.1216420312
 21
7.5464190175
  0
LINE
  5
368
100
AcDbEntity
  8
0
100
AcDbLine
 62
6
  6
CONTINUOUS
 10
11.1156420312
 20
7.5614190175
 11
9.9956420312
 21
7.5614190175
  0
LINE
  5
369
100
AcDbEntity
  8
0
100
AcDbLine
 62
6
  6
CONTINUOUS
 10
12.1156420312
 20
7.5714190175
 11
9.9956420312
 21
7.5714190175
  0
LINE
  5
36A
100
AcDbEntity
  8
0
100
AcDbLine
 62
6
  6
CONTINUOUS
 10
10.8400956413
 20
7.3147471748
 11
10.8400956413
 21
7.3102531563
  0
LINE
  5
36B
100
AcDbEntity
  8
0
100
AcDbLine
 62
6
  6
CONTINUOUS
 10
10.8400956413
 20
6.7780922728
 11
10.8400956413
 21
6.7830006607
  0
LINE
  5
36C
100
AcDbEntity
  8
0
100
AcDbLine
 62
6
  6
CONTINUOUS
 10
8.7426420297
 20
7.7664424238
 11
9.0406420203
 21
7.7665169973
  0
LINE
  5
36D
100
AcDbEntity
  8
0
100
AcDbLine
 62
6
  6
CONTINUOUS
 10
7.8576420312
 20
7.8134190175
 11
8.0556420312
 21
7.8134190175
  0
LINE
  5
36E
100
AcDbEntity
  8
0
100
AcDbLine
 62
6
  6
CONTINUOUS
 10
8.6956420312
 20
7.8134190175
 11
8.9156420312
 21
7.8134190175
  0
LINE
  5
36F
100
AcDbEntity
  8
0
100
AcDbLine
 62
6
  6
CONTINUOUS
 10
10.8946420312
 20
7.3414190174
 11
10.8946420312
 21
6.7514195275
  0
LINE
  5
370
100
AcDbEntity
  8
0
100
AcDbLine
 62
6
  6
CONTINUOUS
 10
10.9726420312
 20
6.5464190175
 11
10.9726420312
 21
6.7514190176
  0
LINE
  5
371
100
AcDbEntity
  8
0
100
AcDbLine
 62
6
  6
CONTINUOUS
 10
10.9726420312
 20
6.8823565175
 11
10.9726420312
 21
7.5464190175
  0
LINE
  5
372
100
AcDbEntity
  8
0
100
AcDbLine
 62
6
  6
CONTINUOUS
 10
8.0656420312
 20
7.9074190175
 11
8.0706067297
 21
7.9074190175
  0
LINE
  5
373
100
AcDbEntity
  8
0
100
AcDbLine
 62
6
  6
CONTINUOUS
 10
8.9756420312
 20
7.9114190175
 11
8.9356420312
 21
7.9114190175
  0
LINE
  5
374
100
AcDbEntity
  8
0
100
AcDbLine
 62
6
  6
CONTINUOUS
 10
7.8376420312
 20
7.9814190175
 11
7.9246420312
 21
7.9814190175
  0
LINE
  5
375
100
AcDbEntity
  8
0
100
AcDbLine
 62
6
  6
CONTINUOUS
 10
7.9246420312
 20
8.0514190175
 11
7.8376420312
 21
8.0514190175
  0
LINE
  5
376
100
AcDbEntity
  8
0
100
AcDbLine
 62
6
  6
CONTINUOUS
 10
11.1156420312
 20
7.5714190175
 11
11.1156420312
 21
7.5464190175
  0
LINE
  5
377
100
AcDbEntity
  8
0
100
AcDbLine
 62
6
  6
CONTINUOUS
 10
11.1156420312
 20
6.5464190175
 11
11.1156420312
 21
6.5214190175
  0
LINE
  5
378
100
AcDbEntity
  8
0
100
AcDbLine
 62
6
  6
CONTINUOUS
 10
11.1691420312
 20
7.5464190175
 11
11.1691420312
 21
6.5464190175
  0
LINE
  5
379
100
AcDbEntity
  8
0
100
AcDbLine
 62
6
  6
CONTINUOUS
 10
8.9756420312
 20
8.1214190175
 11
8.9356420312
 21
8.1214190175
  0
LINE
  5
37A
100
AcDbEntity
  8
0
100
AcDbLine
 62
6
  6
CONTINUOUS
 10
8.0656420312
 20
8.1254190175
 11
8.0705521759
 21
8.1254190175
  0
LINE
  5
37B
100
AcDbEntity
  8
0
100
AcDbLine
 62
6
  6
CONTINUOUS
 10
9.0056420312
 20
8.1414190175
 11
8.9956420312
 21
8.1414190175
  0
LINE
  5
37C
100
AcDbEntity
  8
0
100
AcDbLine
 62
6
  6
CONTINUOUS
 10
7.8576420312
 20
8.2194190175
 11
8.0556420312
 21
8.2194190175
  0
LINE
  5
37D
100
AcDbEntity
  8
0
100
AcDbLine
 62
6
  6
CONTINUOUS
 10
8.6956420312
 20
8.2194190175
 11
8.9156420312
 21
8.2194190175
  0
LINE
  5
37E
100
AcDbEntity
  8
0
100
AcDbLine
 62
6
  6
CONTINUOUS
 10
8.1945020688
 20
8.3256652017
 11
8.665512255
 21
8.2850195416
  0
LINE
  5
37F
100
AcDbEntity
  8
0
100
AcDbLine
 62
6
  6
CONTINUOUS
 10
8.5823971507
 20
8.4447503981
 11
8.8314348888
 21
8.4228368179
  0
LINE
  5
380
100
AcDbEntity
  8
0
100
AcDbLine
 62
6
  6
CONTINUOUS
 10
8.0805020723
 20
8.3256366736
 11
8.1945020688
 21
8.3256652017
  0
LINE
  5
381
100
AcDbEntity
  8
0
100
AcDbLine
 62
6
  6
CONTINUOUS
 10
9.3056420312
 20
8.4614190175
 11
7.6918774882
 21
8.6034190175
  0
LINE
  5
382
100
AcDbEntity
  8
0
100
AcDbLine
 62
6
  6
CONTINUOUS
 10
9.7056420312
 20
8.7664190175
 11
9.8056420312
 21
8.7664190175
  0
LINE
  5
383
100
AcDbEntity
  8
0
100
AcDbLine
 62
6
  6
CONTINUOUS
 10
7.7168694079
 20
8.8521858833
 11
9.4165798883
 21
8.8521858833
  0
LINE
  5
384
100
AcDbEntity
  8
0
100
AcDbLine
 62
6
  6
CONTINUOUS
 10
9.0013586961
 20
8.9278862211
 11
8.5032832199
 21
8.9717133816
  0
LINE
  5
385
100
AcDbEntity
  8
0
100
AcDbLine
 62
6
  6
CONTINUOUS
 10
12.1156420312
 20
9.0464190175
 11
12.1156420312
 21
7.5464190175
  0
LINE
  5
386
100
AcDbEntity
  8
0
100
AcDbLine
 62
6
  6
CONTINUOUS
 10
12.1156420312
 20
6.5464190175
 11
12.1156420312
 21
5.0464190175
  0
LINE
  5
387
100
AcDbEntity
  8
0
100
AcDbLine
 62
6
  6
CONTINUOUS
 10
12.1216420312
 20
6.5464190175
 11
12.1216420312
 21
7.5464190175
  0
LINE
  5
388
100
AcDbEntity
  8
0
100
AcDbLine
 62
6
  6
CONTINUOUS
 10
9.9956420312
 20
9.0464190175
 11
12.4156420312
 21
9.0464190175
  0
LWPOLYLINE
  5
389
100
AcDbEntity
  8
0
100
AcDbPolyline
 62
2
  6
CONTINUOUS
 90
15
 70
0
 10
13.43065625
 20
6.7339192505
 10
13.4150303955
 20
6.7469401245
 10
13.4072181396
 20
6.7599609985
 10
13.3994058838
 20
6.7860020752
 10
13.3994058838
 20
6.8380855713
 10
13.4072181396
 20
6.8641273193
 10
13.4150303955
 20
6.8771481934
 10
13.43065625
 20
6.8901690674
 10
13.4462807617
 20
6.8771481934
 10
13.4540930176
 20
6.8641273193
 10
13.4619052734
 20
6.8380855713
 10
13.4619052734
 20
6.7860020752
 10
13.4540930176
 20
6.7599609985
 10
13.4462807617
 20
6.7469401245
 10
13.43065625
 20
6.7339192505
  0
LWPOLYLINE
  5
38A
100
AcDbEntity
  8
0
100
AcDbPolyline
 62
2
  6
CONTINUOUS
 90
15
 70
0
 10
13.43065625
 20
6.9682943115
 10
13.4150303955
 20
6.9813151855
 10
13.4072181396
 20
6.9943353882
 10
13.3994058838
 20
7.0203771362
 10
13.3994058838
 20
7.0724606323
 10
13.4072181396
 20
7.0985023804
 10
13.4150303955
 20
7.1115232544
 10
13.43065625
 20
7.1245441284
 10
13.4462807617
 20
7.1115232544
 10
13.4540930176
 20
7.0985023804
 10
13.4619052734
 20
7.0724606323
 10
13.4619052734
 20
7.0203771362
 10
13.4540930176
 20
6.9943353882
 10
13.4462807617
 20
6.9813151855
 10
13.43065625
 20
6.9682943115
  0
LWPOLYLINE
  5
38B
100
AcDbEntity
  8
0
100
AcDbPolyline
 62
2
  6
CONTINUOUS
 90
15
 70
0
 10
13.5556550293
 20
6.9682943115
 10
13.5400305176
 20
6.9813151855
 10
13.5322182617
 20
6.9943353882
 10
13.5244060059
 20
7.0203771362
 10
13.5244060059
 20
7.0724606323
 10
13.5322182617
 20
7.0985023804
 10
13.5400305176
 20
7.1115232544
 10
13.5556550293
 20
7.1245441284
 10
13.5712808838
 20
7.1115232544
 10
13.5790931396
 20
7.0985023804
 10
13.5869053955
 20
7.0724606323
 10
13.5869053955
 20
7.0203771362
 10
13.5790931396
 20
6.9943353882
 10
13.5712808838
 20
6.9813151855
 10
13.5556550293
 20
6.9682943115
  0
LINE
  5
38C
100
AcDbEntity
  8
0
100
AcDbLine
 62
6
  6
CONTINUOUS
 10
12.3946420312
 20
6.8901690175
 11
12.3946420312
 21
7.2026690175
  0
LINE
  5
38D
100
AcDbEntity
  8
0
100
AcDbLine
 62
6
  6
CONTINUOUS
 10
12.4156420312
 20
5.0464190175
 11
12.4156420312
 21
9.0464190175
  0
LWPOLYLINE
  5
38E
100
AcDbEntity
  8
0
100
AcDbPolyline
 62
2
  6
CONTINUOUS
 90
4
 70
0
 10
13.2040927734
 20
6.9682943115
 10
13.2040927734
 20
7.1245441284
 10
13.1494056396
 20
7.0073562622
 10
13.2197186279
 20
7.0073562622
  0
LINE
  5
38F
100
AcDbEntity
  8
0
100
AcDbLine
 62
2
  6
CONTINUOUS
 10
13.3056561279
 20
6.8901690674
 11
13.3056561279
 21
6.7339192505
  0
LINE
  5
390
100
AcDbEntity
  8
0
100
AcDbLine
 62
2
  6
CONTINUOUS
 10
13.5556550293
 20
6.8901690674
 11
13.5556550293
 21
6.7339192505
  0
LWPOLYLINE
  5
391
100
AcDbEntity
  8
0
100
AcDbPolyline
 62
2
  6
CONTINUOUS
 90
17
 70
0
 10
13.77440625
 20
6.7860020752
 10
13.7822185059
 20
6.8120438232
 10
13.8056552734
 20
6.8250646973
 10
13.8290933838
 20
6.8120438232
 10
13.8369056396
 20
6.7860020752
 10
13.8290933838
 20
6.7599609985
 10
13.8212811279
 20
6.7469401245
 10
13.8056552734
 20
6.7339192505
 10
13.7900307617
 20
6.7469401245
 10
13.7822185059
 20
6.7599609985
 10
13.77440625
 20
6.7860020752
 10
13.77440625
 20
6.8380855713
 10
13.7822185059
 20
6.8641273193
 10
13.7900307617
 20
6.8771481934
 10
13.8056552734
 20
6.8901690674
 10
13.8212811279
 20
6.8771481934
 10
13.8290933838
 20
6.8641273193
  0
LWPOLYLINE
  5
392
100
AcDbEntity
  8
0
100
AcDbPolyline
 62
2
  6
CONTINUOUS
 90
5
 70
0
 10
13.6806551514
 20
6.7339192505
 10
13.6728428955
 20
6.7469401245
 10
13.6806551514
 20
6.7469401245
 10
13.6806551514
 20
6.7339192505
 10
13.6650306396
 20
6.7078775024
  0
LINE
  5
393
100
AcDbEntity
  8
0
100
AcDbLine
 62
6
  6
CONTINUOUS
 10
3.4956985652
 20
11.1875942642
 11
5.6206985652
 21
11.1875942642
  0
LINE
  5
394
100
AcDbEntity
  8
0
100
AcDbLine
 62
6
  6
CONTINUOUS
 10
3.4956985652
 20
11.1882054354
 11
5.6206985652
 21
11.1882054354
  0
LINE
  5
395
100
AcDbEntity
  8
0
100
AcDbLine
 62
6
  6
CONTINUOUS
 10
5.6206985652
 20
11.2195383894
 11
3.4956985652
 21
11.2195383894
  0
LINE
  5
396
100
AcDbEntity
  8
0
100
AcDbLine
 62
6
  6
CONTINUOUS
 10
3.4956985652
 20
11.249080011
 11
5.6206985652
 21
11.249080011
  0
LINE
  5
397
100
AcDbEntity
  8
0
100
AcDbLine
 62
6
  6
CONTINUOUS
 10
2.4331985652
 20
14.7103526343
 11
2.4331985652
 21
15.6628526343
  0
LINE
  5
398
100
AcDbEntity
  8
0
100
AcDbLine
 62
6
  6
CONTINUOUS
 10
2.5131985652
 20
14.4358526343
 11
2.5131985652
 21
14.5138526343
  0
LINE
  5
399
100
AcDbEntity
  8
0
100
AcDbLine
 62
6
  6
CONTINUOUS
 10
2.5671985652
 20
15.6628526343
 11
2.5671985652
 21
14.7103526343
  0
LINE
  5
39A
100
AcDbEntity
  8
0
100
AcDbLine
 62
6
  6
CONTINUOUS
 10
2.6519499158
 20
14.6478526343
 11
2.6519499158
 21
15.9358526343
  0
LINE
  5
39B
100
AcDbEntity
  8
0
100
AcDbLine
 62
6
  6
CONTINUOUS
 10
2.9281985652
 20
13.5278526343
 11
2.9281985652
 21
15.6478526343
  0
LINE
  5
39C
100
AcDbEntity
  8
0
100
AcDbLine
 62
6
  6
CONTINUOUS
 10
2.9381985652
 20
15.6478526343
 11
2.9381985652
 21
15.9478526343
  0
LINE
  5
39D
100
AcDbEntity
  8
0
100
AcDbLine
 62
6
  6
CONTINUOUS
 10
3.4331985652
 20
15.5878526343
 11
3.4331985652
 21
15.6478526343
  0
LINE
  5
39E
100
AcDbEntity
  8
0
100
AcDbLine
 62
6
  6
CONTINUOUS
 10
3.4831985652
 20
13.7078526343
 11
3.4831985652
 21
13.5278526343
  0
LINE
  5
39F
100
AcDbEntity
  8
0
100
AcDbLine
 62
6
  6
CONTINUOUS
 10
3.4956985652
 20
11.1875943624
 11
3.4956985652
 21
13.3378526343
  0
LINE
  5
3A0
100
AcDbEntity
  8
0
100
AcDbLine
 62
6
  6
CONTINUOUS
 10
3.4981985652
 20
13.7178526343
 11
3.4981985652
 21
13.3378526343
  0
LINE
  5
3A1
100
AcDbEntity
  8
0
100
AcDbLine
 62
6
  6
CONTINUOUS
 10
3.7031985652
 20
13.8678526343
 11
3.7031985652
 21
13.7178526343
  0
LINE
  5
3A2
100
AcDbEntity
  8
0
100
AcDbLine
 62
6
  6
CONTINUOUS
 10
3.7131985652
 20
13.8018526343
 11
3.7131985652
 21
13.9066549732
  0
LINE
  5
3A3
100
AcDbEntity
  8
0
100
AcDbLine
 62
6
  6
CONTINUOUS
 10
3.7941985652
 20
14.1378526343
 11
3.7941985652
 21
13.9578526343
  0
LINE
  5
3A4
100
AcDbEntity
  8
0
100
AcDbLine
 62
6
  6
CONTINUOUS
 10
3.8056078224
 20
13.9373146723
 11
3.8056078224
 21
13.7848526343
  0
LINE
  5
3A5
100
AcDbEntity
  8
0
100
AcDbLine
 62
6
  6
CONTINUOUS
 10
3.8396985652
 20
13.7848526343
 11
3.8396985652
 21
13.7178526343
  0
LINE
  5
3A6
100
AcDbEntity
  8
0
100
AcDbLine
 62
6
  6
CONTINUOUS
 10
3.9319031938
 20
13.9373146723
 11
3.9319031938
 21
13.7848526343
  0
LINE
  5
3A7
100
AcDbEntity
  8
0
100
AcDbLine
 62
6
  6
CONTINUOUS
 10
3.8394485652
 20
13.9568526343
 11
3.8056078224
 21
13.9373146723
  0
LINE
  5
3A8
100
AcDbEntity
  8
0
100
AcDbLine
 62
6
  6
CONTINUOUS
 10
5.6206985652
 20
12.9487904914
 11
3.4956985652
 21
12.9487904914
  0
LINE
  5
3A9
100
AcDbEntity
  8
0
100
AcDbLine
 62
6
  6
CONTINUOUS
 10
4.1251858633
 20
13.9963589852
 11
4.1251858633
 21
13.9578526343
  0
LINE
  5
3AA
100
AcDbEntity
  8
0
100
AcDbLine
 62
6
  6
CONTINUOUS
 10
4.1831985652
 20
14.0298526343
 11
4.1251858633
 21
13.9963589852
  0
LINE
  5
3AB
100
AcDbEntity
  8
0
100
AcDbLine
 62
6
  6
CONTINUOUS
 10
5.6206985652
 20
12.9651524995
 11
3.4956985652
 21
12.9651524995
  0
LINE
  5
3AC
100
AcDbEntity
  8
0
100
AcDbLine
 62
6
  6
CONTINUOUS
 10
4.1844939366
 20
13.9373146723
 11
4.1844939366
 21
13.7848526343
  0
LINE
  5
3AD
100
AcDbEntity
  8
0
100
AcDbLine
 62
6
  6
CONTINUOUS
 10
4.2766985652
 20
13.7848526343
 11
4.2766985652
 21
13.7178526343
  0
LINE
  5
3AE
100
AcDbEntity
  8
0
100
AcDbLine
 62
6
  6
CONTINUOUS
 10
4.3107893079
 20
13.9373146723
 11
4.3107893079
 21
13.7848526343
  0
LINE
  5
3AF
100
AcDbEntity
  8
0
100
AcDbLine
 62
6
  6
CONTINUOUS
 10
4.3381985652
 20
13.8018526343
 11
4.3381985652
 21
13.9578526343
  0
LINE
  5
3B0
100
AcDbEntity
  8
0
100
AcDbLine
 62
6
  6
CONTINUOUS
 10
4.3416922142
 20
13.9963589852
 11
4.3416922142
 21
13.9578526343
  0
LINE
  5
3B1
100
AcDbEntity
  8
0
100
AcDbLine
 62
6
  6
CONTINUOUS
 10
4.3416922142
 20
13.8018526343
 11
4.3416922142
 21
13.7178526343
  0
LINE
  5
3B2
100
AcDbEntity
  8
0
100
AcDbLine
 62
6
  6
CONTINUOUS
 10
4.3706985652
 20
14.1478526343
 11
4.3706985652
 21
13.7178526343
  0
LINE
  5
3B3
100
AcDbEntity
  8
0
100
AcDbLine
 62
6
  6
CONTINUOUS
 10
4.8394485652
 20
13.9568526343
 11
4.8056078224
 21
13.9373146723
  0
LINE
  5
3B4
100
AcDbEntity
  8
0
100
AcDbLine
 62
6
  6
CONTINUOUS
 10
3.4956985652
 20
13.2378526343
 11
5.6206985652
 21
13.2378526343
  0
LWPOLYLINE
  5
3B5
100
AcDbEntity
  8
0
100
AcDbPolyline
 62
2
  6
CONTINUOUS
 90
4
 70
0
 10
8.3993412476
 20
13.2555288086
 10
8.4305916138
 20
13.2555288086
 10
8.4305916138
 20
13.4117792969
 10
8.3993412476
 20
13.4117792969
  0
LINE
  5
3B6
100
AcDbEntity
  8
0
100
AcDbLine
 62
6
  6
CONTINUOUS
 10
5.6206985652
 20
13.3378526343
 11
3.4956985652
 21
13.3378526343
  0
LWPOLYLINE
  5
3B7
100
AcDbEntity
  8
0
100
AcDbPolyline
 62
2
  6
CONTINUOUS
 90
4
 70
0
 10
7.6805915527
 20
13.4117792969
 10
7.6493418579
 20
13.4117792969
 10
7.6493418579
 20
13.2555288086
 10
7.6805915527
 20
13.2555288086
  0
LWPOLYLINE
  5
3B8
100
AcDbEntity
  8
0
100
AcDbPolyline
 62
2
  6
CONTINUOUS
 90
4
 70
0
 10
7.7899664917
 20
13.489904541
 10
7.7821542358
 20
13.489904541
 10
7.7821542358
 20
13.502925415
 10
7.7899664917
 20
13.489904541
  0
LINE
  5
3B9
100
AcDbEntity
  8
0
100
AcDbLine
 62
6
  6
CONTINUOUS
 10
6.1881985652
 20
13.5278526343
 11
5.6331985652
 21
13.5278526343
  0
LINE
  5
3BA
100
AcDbEntity
  8
0
100
AcDbLine
 62
6
  6
CONTINUOUS
 10
3.4831985652
 20
13.5278526343
 11
2.9281985652
 21
13.5278526343
  0
LINE
  5
3BB
100
AcDbEntity
  8
0
100
AcDbLine
 62
6
  6
CONTINUOUS
 10
4.7456985652
 20
14.1478526343
 11
4.7456985652
 21
13.7178526343
  0
LINE
  5
3BC
100
AcDbEntity
  8
0
100
AcDbLine
 62
6
  6
CONTINUOUS
 10
4.7747049161
 20
13.9963589852
 11
4.7747049161
 21
13.9578526343
  0
LINE
  5
3BD
100
AcDbEntity
  8
0
100
AcDbLine
 62
6
  6
CONTINUOUS
 10
4.7747049161
 20
13.8018526343
 11
4.7747049161
 21
13.7178526343
  0
LINE
  5
3BE
100
AcDbEntity
  8
0
100
AcDbLine
 62
6
  6
CONTINUOUS
 10
4.7781985652
 20
13.9578526343
 11
4.7781985652
 21
13.8018526343
  0
LINE
  5
3BF
100
AcDbEntity
  8
0
100
AcDbLine
 62
6
  6
CONTINUOUS
 10
3.4931985652
 20
13.7178526343
 11
5.6231985652
 21
13.7178526343
  0
LINE
  5
3C0
100
AcDbEntity
  8
0
100
AcDbLine
 62
6
  6
CONTINUOUS
 10
3.8056078224
 20
13.7848526343
 11
4.3107893079
 21
13.7848526343
  0
LINE
  5
3C1
100
AcDbEntity
  8
0
100
AcDbLine
 62
6
  6
CONTINUOUS
 10
4.8056078224
 20
13.7848526343
 11
5.3107893079
 21
13.7848526343
  0
LINE
  5
3C2
100
AcDbEntity
  8
0
100
AcDbLine
 62
6
  6
CONTINUOUS
 10
3.7131985652
 20
13.8018526343
 11
3.8056078224
 21
13.8018526343
  0
LINE
  5
3C3
100
AcDbEntity
  8
0
100
AcDbLine
 62
6
  6
CONTINUOUS
 10
4.3107893079
 20
13.8018526343
 11
4.3706985652
 21
13.8018526343
  0
LINE
  5
3C4
100
AcDbEntity
  8
0
100
AcDbLine
 62
6
  6
CONTINUOUS
 10
4.7456985652
 20
13.8018526343
 11
4.8056078224
 21
13.8018526343
  0
LINE
  5
3C5
100
AcDbEntity
  8
0
100
AcDbLine
 62
6
  6
CONTINUOUS
 10
5.3107893079
 20
13.8018526343
 11
5.4031985652
 21
13.8018526343
  0
LINE
  5
3C6
100
AcDbEntity
  8
0
100
AcDbLine
 62
6
  6
CONTINUOUS
 10
4.2769485652
 20
13.9568526343
 11
4.3107893079
 21
13.9373146723
  0
LINE
  5
3C7
100
AcDbEntity
  8
0
100
AcDbLine
 62
6
  6
CONTINUOUS
 10
4.8056078224
 20
13.9373146723
 11
4.8056078224
 21
13.7848526343
  0
LINE
  5
3C8
100
AcDbEntity
  8
0
100
AcDbLine
 62
6
  6
CONTINUOUS
 10
4.8396985652
 20
13.7848526343
 11
4.8396985652
 21
13.7178526343
  0
LINE
  5
3C9
100
AcDbEntity
  8
0
100
AcDbLine
 62
6
  6
CONTINUOUS
 10
4.9319031938
 20
13.9373146723
 11
4.9319031938
 21
13.7848526343
  0
LINE
  5
3CA
100
AcDbEntity
  8
0
100
AcDbLine
 62
6
  6
CONTINUOUS
 10
4.9912112671
 20
13.9963589852
 11
4.9912112671
 21
13.9578526343
  0
LINE
  5
3CB
100
AcDbEntity
  8
0
100
AcDbLine
 62
6
  6
CONTINUOUS
 10
5.2769485652
 20
13.9568526343
 11
4.8394485652
 21
13.9568526343
  0
LINE
  5
3CC
100
AcDbEntity
  8
0
100
AcDbLine
 62
6
  6
CONTINUOUS
 10
4.2769485652
 20
13.9568526343
 11
3.8394485652
 21
13.9568526343
  0
LINE
  5
3CD
100
AcDbEntity
  8
0
100
AcDbLine
 62
6
  6
CONTINUOUS
 10
3.7931985652
 20
13.9578526343
 11
4.3706985652
 21
13.9578526343
  0
LINE
  5
3CE
100
AcDbEntity
  8
0
100
AcDbLine
 62
6
  6
CONTINUOUS
 10
4.7456985652
 20
13.9578526343
 11
5.3231985652
 21
13.9578526343
  0
LINE
  5
3CF
100
AcDbEntity
  8
0
100
AcDbLine
 62
6
  6
CONTINUOUS
 10
5.1844939366
 20
13.9373146723
 11
5.1844939366
 21
13.7848526343
  0
LINE
  5
3D0
100
AcDbEntity
  8
0
100
AcDbLine
 62
6
  6
CONTINUOUS
 10
4.9331985652
 20
14.0298526343
 11
4.7456985652
 21
14.0298526343
  0
LINE
  5
3D1
100
AcDbEntity
  8
0
100
AcDbLine
 62
6
  6
CONTINUOUS
 10
4.3706985652
 20
14.0298526343
 11
4.1831985652
 21
14.0298526343
  0
LINE
  5
3D2
100
AcDbEntity
  8
0
100
AcDbLine
 62
6
  6
CONTINUOUS
 10
5.3121985652
 20
14.1478526343
 11
3.8041985652
 21
14.1478526343
  0
LINE
  5
3D3
100
AcDbEntity
  8
0
100
AcDbLine
 62
6
  6
CONTINUOUS
 10
4.9331985652
 20
14.0298526343
 11
4.9912112671
 21
13.9963589852
  0
LINE
  5
3D4
100
AcDbEntity
  8
0
100
AcDbLine
 62
6
  6
CONTINUOUS
 10
5.2766985652
 20
13.7848526343
 11
5.2766985652
 21
13.7178526343
  0
LINE
  5
3D5
100
AcDbEntity
  8
0
100
AcDbLine
 62
6
  6
CONTINUOUS
 10
5.3107893079
 20
13.9373146723
 11
5.3107893079
 21
13.7848526343
  0
LINE
  5
3D6
100
AcDbEntity
  8
0
100
AcDbLine
 62
6
  6
CONTINUOUS
 10
5.3221985652
 20
13.9578526343
 11
5.3221985652
 21
14.1378526343
  0
LINE
  5
3D7
100
AcDbEntity
  8
0
100
AcDbLine
 62
6
  6
CONTINUOUS
 10
5.4031985652
 20
13.8018526343
 11
5.4031985652
 21
13.9066548642
  0
LINE
  5
3D8
100
AcDbEntity
  8
0
100
AcDbLine
 62
6
  6
CONTINUOUS
 10
5.4131985652
 20
13.7178526343
 11
5.4131985652
 21
13.8678526343
  0
LINE
  5
3D9
100
AcDbEntity
  8
0
100
AcDbLine
 62
6
  6
CONTINUOUS
 10
6.2571028773
 20
14.3723062444
 11
6.3571020129
 21
14.3723062444
  0
LINE
  5
3DA
100
AcDbEntity
  8
0
100
AcDbLine
 62
6
  6
CONTINUOUS
 10
2.7571028773
 20
14.3813062444
 11
2.8571020129
 21
14.3813062444
  0
LINE
  5
3DB
100
AcDbEntity
  8
0
100
AcDbLine
 62
6
  6
CONTINUOUS
 10
6.6031960153
 20
14.4268526343
 11
6.1881985652
 21
14.4268526343
  0
LINE
  5
3DC
100
AcDbEntity
  8
0
100
AcDbLine
 62
6
  6
CONTINUOUS
 10
2.9281985652
 20
14.4358526343
 11
2.5131985658
 21
14.4358526343
  0
LINE
  5
3DD
100
AcDbEntity
  8
0
100
AcDbLine
 62
6
  6
CONTINUOUS
 10
5.2769485652
 20
13.9568526343
 11
5.3107893079
 21
13.9373146723
  0
LINE
  5
3DE
100
AcDbEntity
  8
0
100
AcDbLine
 62
6
  6
CONTINUOUS
 10
5.6181985652
 20
13.3378526343
 11
5.6181985652
 21
13.7178526343
  0
LINE
  5
3DF
100
AcDbEntity
  8
0
100
AcDbLine
 62
6
  6
CONTINUOUS
 10
5.6206985652
 20
11.1875943623
 11
5.6206985652
 21
13.3378526343
  0
LINE
  5
3E0
100
AcDbEntity
  8
0
100
AcDbLine
 62
6
  6
CONTINUOUS
 10
5.6331985652
 20
13.5278526343
 11
5.6331985652
 21
13.7078526343
  0
LINE
  5
3E1
100
AcDbEntity
  8
0
100
AcDbLine
 62
6
  6
CONTINUOUS
 10
6.6031985652
 20
14.5048526343
 11
6.4926477827
 21
14.5048526343
  0
LINE
  5
3E2
100
AcDbEntity
  8
0
100
AcDbLine
 62
6
  6
CONTINUOUS
 10
6.1881985652
 20
14.5048526343
 11
6.4866985652
 21
14.5048526343
  0
LINE
  5
3E3
100
AcDbEntity
  8
0
100
AcDbLine
 62
6
  6
CONTINUOUS
 10
2.9281985652
 20
14.5138526343
 11
2.6296985652
 21
14.5138526343
  0
LINE
  5
3E4
100
AcDbEntity
  8
0
100
AcDbLine
 62
6
  6
CONTINUOUS
 10
2.6250463297
 20
14.5138526343
 11
2.5131985652
 21
14.5138526343
  0
LINE
  5
3E5
100
AcDbEntity
  8
0
100
AcDbLine
 62
6
  6
CONTINUOUS
 10
6.4866985652
 20
14.6388526343
 11
6.1881985652
 21
14.6388526343
  0
LINE
  5
3E6
100
AcDbEntity
  8
0
100
AcDbLine
 62
6
  6
CONTINUOUS
 10
2.6296985652
 20
14.6478526343
 11
2.9281985652
 21
14.6478526343
  0
LINE
  5
3E7
100
AcDbEntity
  8
0
100
AcDbLine
 62
6
  6
CONTINUOUS
 10
5.6831985652
 20
15.5878526343
 11
5.6831985652
 21
15.6478526343
  0
LINE
  5
3E8
100
AcDbEntity
  8
0
100
AcDbLine
 62
6
  6
CONTINUOUS
 10
6.1881985652
 20
13.5278526343
 11
6.1881985652
 21
15.9478526343
  0
LINE
  5
3E9
100
AcDbEntity
  8
0
100
AcDbLine
 62
6
  6
CONTINUOUS
 10
6.4644472146
 20
14.6388526343
 11
6.4644472146
 21
15.9268526343
  0
LINE
  5
3EA
100
AcDbEntity
  8
0
100
AcDbLine
 62
6
  6
CONTINUOUS
 10
6.5491985652
 20
15.6538526343
 11
6.5491985652
 21
14.7013526343
  0
LINE
  5
3EB
100
AcDbEntity
  8
0
100
AcDbLine
 62
6
  6
CONTINUOUS
 10
6.6031985652
 20
14.4268526343
 11
6.6031985652
 21
14.5048526343
  0
LINE
  5
3EC
100
AcDbEntity
  8
0
100
AcDbLine
 62
6
  6
CONTINUOUS
 10
6.6831985652
 20
14.7013526343
 11
6.6831985652
 21
15.6538526343
  0
LINE
  5
3ED
100
AcDbEntity
  8
0
100
AcDbLine
 62
6
  6
CONTINUOUS
 10
3.4331985652
 20
15.5878526343
 11
5.6831985652
 21
15.5878526343
  0
LINE
  5
3EE
100
AcDbEntity
  8
0
100
AcDbLine
 62
6
  6
CONTINUOUS
 10
2.9281985652
 20
15.6478526343
 11
6.1881985652
 21
15.6478526343
  0
LINE
  5
3EF
100
AcDbEntity
  8
0
100
AcDbLine
 62
6
  6
CONTINUOUS
 10
6.6831985652
 20
15.6538526343
 11
6.5491985652
 21
15.6538526343
  0
LINE
  5
3F0
100
AcDbEntity
  8
0
100
AcDbLine
 62
6
  6
CONTINUOUS
 10
2.4331985652
 20
15.6628526343
 11
2.5671985652
 21
15.6628526343
  0
LWPOLYLINE
  5
3F1
100
AcDbEntity
  8
0
100
AcDbPolyline
 62
2
  6
CONTINUOUS
 90
15
 70
0
 10
8.0399667358
 20
13.2555288086
 10
8.0243415527
 20
13.2685496826
 10
8.0165292969
 20
13.2815705566
 10
8.0087163696
 20
13.3076123047
 10
8.0087163696
 20
13.3596958008
 10
8.0165292969
 20
13.3857375488
 10
8.0243415527
 20
13.3987584229
 10
8.0399667358
 20
13.4117792969
 10
8.0555912476
 20
13.3987584229
 10
8.0634041748
 20
13.3857375488
 10
8.0712164307
 20
13.3596958008
 10
8.0712164307
 20
13.3076123047
 10
8.0634041748
 20
13.2815705566
 10
8.0555912476
 20
13.2685496826
 10
8.0399667358
 20
13.2555288086
  0
LWPOLYLINE
  5
3F2
100
AcDbEntity
  8
0
100
AcDbPolyline
 62
2
  6
CONTINUOUS
 90
5
 70
0
 10
7.9384040527
 20
13.3466749268
 10
7.9071543579
 20
13.3206331787
 10
7.8915291748
 20
13.2945914307
 10
7.8837162476
 20
13.2555288086
 10
7.9462163086
 20
13.2555288086
  0
LINE
  5
3F3
100
AcDbEntity
  8
0
100
AcDbLine
 62
6
  6
CONTINUOUS
 10
6.4644472146
 20
15.9268526343
 11
6.1881985652
 21
15.9268526343
  0
LINE
  5
3F4
100
AcDbEntity
  8
0
100
AcDbLine
 62
6
  6
CONTINUOUS
 10
2.9381985652
 20
15.9358526343
 11
2.6519499158
 21
15.9358526343
  0
LINE
  5
3F5
100
AcDbEntity
  8
0
100
AcDbLine
 62
6
  6
CONTINUOUS
 10
2.9381985652
 20
15.9478526343
 11
6.1881985652
 21
15.9478526343
  0
LWPOLYLINE
  5
3F6
100
AcDbEntity
  8
0
100
AcDbPolyline
 62
2
  6
CONTINUOUS
 90
4
 70
0
 10
7.6884038086
 20
13.489904541
 10
7.6884038086
 20
13.6461536865
 10
7.6337166748
 20
13.5289671631
 10
7.7040289917
 20
13.5289671631
  0
LINE
  5
3F7
100
AcDbEntity
  8
0
100
AcDbLine
 62
2
  6
CONTINUOUS
 10
7.7899664917
 20
13.4117792969
 11
7.7899664917
 21
13.2555288086
  0
LWPOLYLINE
  5
3F8
100
AcDbEntity
  8
0
100
AcDbPolyline
 62
2
  6
CONTINUOUS
 90
3
 70
0
 10
7.9149666138
 20
13.489904541
 10
7.9227788696
 20
13.5550075684
 10
7.9305917969
 20
13.5940701904
  0
LWPOLYLINE
  5
3F9
100
AcDbEntity
  8
0
100
AcDbPolyline
 62
2
  6
CONTINUOUS
 90
3
 70
0
 10
7.9305917969
 20
13.5940701904
 10
7.9462163086
 20
13.6461536865
 10
7.8837162476
 20
13.6461536865
  0
LWPOLYLINE
  5
3FA
100
AcDbEntity
  8
0
100
AcDbPolyline
 62
2
  6
CONTINUOUS
 90
17
 70
0
 10
8.0087163696
 20
13.5419880371
 10
8.0165292969
 20
13.5680284424
 10
8.0399667358
 20
13.5810493164
 10
8.0634041748
 20
13.5680284424
 10
8.0712164307
 20
13.5419880371
 10
8.0634041748
 20
13.5159462891
 10
8.0555912476
 20
13.502925415
 10
8.0399667358
 20
13.489904541
 10
8.0243415527
 20
13.502925415
 10
8.0165292969
 20
13.5159462891
 10
8.0087163696
 20
13.5419880371
 10
8.0087163696
 20
13.5940701904
 10
8.0165292969
 20
13.6201119385
 10
8.0243415527
 20
13.6331328125
 10
8.0399667358
 20
13.6461536865
 10
8.0555912476
 20
13.6331328125
 10
8.0634041748
 20
13.6201119385
  0
LWPOLYLINE
  5
3FB
100
AcDbEntity
  8
0
100
AcDbPolyline
 62
2
  6
CONTINUOUS
 90
17
 70
0
 10
8.3212166748
 20
13.3596958008
 10
8.3134037476
 20
13.3336540527
 10
8.2899663086
 20
13.3206331787
 10
8.2665288696
 20
13.3336540527
 10
8.2587166138
 20
13.3596958008
 10
8.2665288696
 20
13.3857375488
 10
8.2743417969
 20
13.3987584229
 10
8.2899663086
 20
13.4117792969
 10
8.3055914917
 20
13.3987584229
 10
8.3134037476
 20
13.3857375488
 10
8.3212166748
 20
13.3596958008
 10
8.3212166748
 20
13.3076123047
 10
8.3134037476
 20
13.2815705566
 10
8.3055914917
 20
13.2685496826
 10
8.2899663086
 20
13.2555288086
 10
8.2743417969
 20
13.2685496826
 10
8.2665288696
 20
13.2815705566
  0
LWPOLYLINE
  5
3FC
100
AcDbEntity
  8
0
100
AcDbPolyline
 62
2
  6
CONTINUOUS
 90
8
 70
0
 10
7.8837162476
 20
13.3857375488
 10
7.8915291748
 20
13.3987584229
 10
7.9071543579
 20
13.4117792969
 10
7.9227788696
 20
13.4117792969
 10
7.9384040527
 20
13.3987584229
 10
7.9462163086
 20
13.3857375488
 10
7.9462163086
 20
13.3596958008
 10
7.9384040527
 20
13.3466749268
  0
LWPOLYLINE
  5
3FD
100
AcDbEntity
  8
0
100
AcDbPolyline
 62
2
  6
CONTINUOUS
 90
5
 70
0
 10
8.1649668579
 20
13.2555288086
 10
8.1571539307
 20
13.2685496826
 10
8.1649668579
 20
13.2685496826
 10
8.1649668579
 20
13.2555288086
 10
8.1493416748
 20
13.2294870605
  0
LINE
  5
3FE
100
AcDbEntity
  8
0
100
AcDbLine
 62
6
  6
CONTINUOUS
 10
1.2974892287
 20
2.6387486674
 11
1.280823575
 21
2.5596155265
  0
LINE
  5
3FF
100
AcDbEntity
  8
0
100
AcDbLine
 62
6
  6
CONTINUOUS
 10
1.4771372082
 20
3.1948866763
 11
1.4509136918
 21
3.1352304119
  0
LINE
  5
400
100
AcDbEntity
  8
0
100
AcDbLine
 62
6
  6
CONTINUOUS
 10
3.2108561949
 20
1.0042541091
 11
1.7141320796
 21
1.0042541091
  0
LINE
  5
401
100
AcDbEntity
  8
0
100
AcDbLine
 62
6
  6
CONTINUOUS
 10
1.7141320796
 20
1.0042541091
 11
1.345031421
 21
1.7564021707
  0
LINE
  5
402
100
AcDbEntity
  8
0
100
AcDbLine
 62
6
  6
CONTINUOUS
 10
3.1697052199
 20
1.0974956043
 11
1.6683757997
 21
1.0974956043
  0
LINE
  5
403
100
AcDbEntity
  8
0
100
AcDbLine
 62
6
  6
CONTINUOUS
 10
2.9279860629
 20
1.1161439034
 11
1.8917924446
 21
1.1161439034
  0
LINE
  5
404
100
AcDbEntity
  8
0
100
AcDbLine
 62
6
  6
CONTINUOUS
 10
1.8917924446
 20
1.1161439034
 11
1.9009437006
 21
1.0974956043
  0
LINE
  5
405
100
AcDbEntity
  8
0
100
AcDbLine
 62
6
  6
CONTINUOUS
 10
1.345031421
 20
1.7564021707
 11
1.4695258461
 21
2.1592662778
  0
LINE
  5
406
100
AcDbEntity
  8
0
100
AcDbLine
 62
6
  6
CONTINUOUS
 10
1.7907224449
 20
3.1986588526
 11
1.8291640678
 21
3.3230559899
  0
LINE
  5
407
100
AcDbEntity
  8
0
100
AcDbLine
 62
6
  6
CONTINUOUS
 10
1.7057240049
 20
2.9667654776
 11
1.6075491059
 21
2.6492346104
  0
LINE
  5
408
100
AcDbEntity
  8
0
100
AcDbLine
 62
6
  6
CONTINUOUS
 10
1.6006258469
 20
1.7564021707
 11
1.6280796149
 21
1.7004572735
  0
LINE
  5
409
100
AcDbEntity
  8
0
100
AcDbLine
 62
6
  6
CONTINUOUS
 10
1.2823306011
 20
2.5407300801
 11
1.5415720299
 21
2.0124515912
  0
LINE
  5
40A
100
AcDbEntity
  8
0
100
AcDbLine
 62
6
  6
CONTINUOUS
 10
1.5960406927
 20
1.9562013834
 11
1.611292786
 21
1.925120885
  0
LINE
  5
40B
100
AcDbEntity
  8
0
100
AcDbLine
 62
6
  6
CONTINUOUS
 10
1.7309215335
 20
1.6973492237
 11
1.7537996735
 21
1.6507284761
  0
LINE
  5
40C
100
AcDbEntity
  8
0
100
AcDbLine
 62
6
  6
CONTINUOUS
 10
1.8094348328
 20
1.6227560275
 11
1.8368886007
 21
1.5668111304
  0
LINE
  5
40D
100
AcDbEntity
  8
0
100
AcDbLine
 62
6
  6
CONTINUOUS
 10
1.7966868487
 20
2.2117686962
 11
1.8082567825
 21
2.2568187384
  0
LINE
  5
40E
100
AcDbEntity
  8
0
100
AcDbLine
 62
6
  6
CONTINUOUS
 10
1.6015511277
 20
1.8898711741
 11
1.6124441123
 21
1.925120885
  0
LINE
  5
40F
100
AcDbEntity
  8
0
100
AcDbLine
 62
6
  6
CONTINUOUS
 10
2.00599711
 20
3.1986588526
 11
2.0396911731
 21
3.3076928805
  0
LINE
  5
410
100
AcDbEntity
  8
0
100
AcDbLine
 62
6
  6
CONTINUOUS
 10
1.6006258469
 20
1.7564021707
 11
1.6037370373
 21
1.7664699866
  0
LINE
  5
411
100
AcDbEntity
  8
0
100
AcDbLine
 62
6
  6
CONTINUOUS
 10
1.6280796149
 20
1.7004572735
 11
1.639006976
 21
1.7358182271
  0
LINE
  5
412
100
AcDbEntity
  8
0
100
AcDbLine
 62
6
  6
CONTINUOUS
 10
1.6460979503
 20
1.7358182271
 11
1.6342101292
 21
1.6973492237
  0
LINE
  5
413
100
AcDbEntity
  8
0
100
AcDbLine
 62
6
  6
CONTINUOUS
 10
1.8469140356
 20
2.7017534901
 11
1.8306761317
 21
2.6492346104
  0
LINE
  5
414
100
AcDbEntity
  8
0
100
AcDbLine
 62
6
  6
CONTINUOUS
 10
2.1570719152
 20
3.3035664698
 11
2.1596251045
 21
3.3150472571
  0
LINE
  5
415
100
AcDbEntity
  8
0
100
AcDbLine
 62
6
  6
CONTINUOUS
 10
1.7309215335
 20
1.6973492237
 11
1.7428093547
 21
1.7358182271
  0
LINE
  5
416
100
AcDbEntity
  8
0
100
AcDbLine
 62
6
  6
CONTINUOUS
 10
1.9793822344
 20
2.7116477494
 11
1.9600852014
 21
2.6492346104
  0
LINE
  5
417
100
AcDbEntity
  8
0
100
AcDbLine
 62
6
  6
CONTINUOUS
 10
1.8430191151
 20
1.5637030805
 11
2.5374991045
 21
1.5637030805
  0
LINE
  5
418
100
AcDbEntity
  8
0
100
AcDbLine
 62
6
  6
CONTINUOUS
 10
1.8089743023
 20
1.6227560275
 11
1.8094348328
 21
1.6227560275
  0
LINE
  5
419
100
AcDbEntity
  8
0
100
AcDbLine
 62
6
  6
CONTINUOUS
 10
2.5131254322
 20
1.6227560275
 11
2.5135859627
 21
1.6227560275
  0
LINE
  5
41A
100
AcDbEntity
  8
0
100
AcDbLine
 62
6
  6
CONTINUOUS
 10
1.4507207823
 20
3.1057434793
 11
1.6207527483
 21
2.6919396608
  0
LINE
  5
41B
100
AcDbEntity
  8
0
100
AcDbLine
 62
6
  6
CONTINUOUS
 10
2.157060625
 20
3.3034823112
 11
2.1516954923
 21
3.2632944766
  0
LINE
  5
41C
100
AcDbEntity
  8
0
100
AcDbLine
 62
6
  6
CONTINUOUS
 10
1.7537996735
 20
1.6507284761
 11
1.7800943954
 21
1.7358182271
  0
LINE
  5
41D
100
AcDbEntity
  8
0
100
AcDbLine
 62
6
  6
CONTINUOUS
 10
1.8439131645
 20
1.7358182271
 11
1.8089743023
 21
1.6227560275
  0
LINE
  5
41E
100
AcDbEntity
  8
0
100
AcDbLine
 62
6
  6
CONTINUOUS
 10
1.8094348328
 20
1.6227560275
 11
1.844373695
 21
1.7358182271
  0
LINE
  5
41F
100
AcDbEntity
  8
0
100
AcDbLine
 62
6
  6
CONTINUOUS
 10
1.8368886007
 20
1.5668111304
 11
1.8891157438
 21
1.7358182271
  0
LINE
  5
420
100
AcDbEntity
  8
0
100
AcDbLine
 62
6
  6
CONTINUOUS
 10
3.5815053724
 20
1.6803287118
 11
3.5197942858
 21
1.6803287118
  0
LINE
  5
421
100
AcDbEntity
  8
0
100
AcDbLine
 62
6
  6
CONTINUOUS
 10
1.6342101292
 20
1.6973492237
 11
1.7309215335
 21
1.6973492237
  0
LINE
  5
422
100
AcDbEntity
  8
0
100
AcDbLine
 62
6
  6
CONTINUOUS
 10
2.5184286834
 20
1.6973492237
 11
2.6151400878
 21
1.6973492237
  0
LINE
  5
423
100
AcDbEntity
  8
0
100
AcDbLine
 62
6
  6
CONTINUOUS
 10
1.630530105
 20
1.7358182271
 11
2.6008675478
 21
1.7358182271
  0
LINE
  5
424
100
AcDbEntity
  8
0
100
AcDbLine
 62
6
  6
CONTINUOUS
 10
1.345031421
 20
1.7564021707
 11
1.6006258469
 21
1.7564021707
  0
LINE
  5
425
100
AcDbEntity
  8
0
100
AcDbLine
 62
6
  6
CONTINUOUS
 10
2.5907664154
 20
1.7564021707
 11
2.8463608412
 21
1.7564021707
  0
LINE
  5
426
100
AcDbEntity
  8
0
100
AcDbLine
 62
6
  6
CONTINUOUS
 10
2.038828691
 20
2.14958085
 11
2.0482678007
 21
2.186334067
  0
LINE
  5
427
100
AcDbEntity
  8
0
100
AcDbLine
 62
6
  6
CONTINUOUS
 10
1.8962067181
 20
1.7358182271
 11
1.8430191151
 21
1.5637030805
  0
LINE
  5
428
100
AcDbEntity
  8
0
100
AcDbLine
 62
6
  6
CONTINUOUS
 10
2.2813871262
 20
2.9667654776
 11
2.1832122272
 21
2.6492346104
  0
LINE
  5
429
100
AcDbEntity
  8
0
100
AcDbLine
 62
6
  6
CONTINUOUS
 10
2.4295409979
 20
3.1352304119
 11
2.4557645143
 21
3.1948866763
  0
LINE
  5
42A
100
AcDbEntity
  8
0
100
AcDbLine
 62
6
  6
CONTINUOUS
 10
2.4052274397
 20
2.5631976319
 11
2.3970205807
 21
2.5607771516
  0
LINE
  5
42B
100
AcDbEntity
  8
0
100
AcDbLine
 62
6
  6
CONTINUOUS
 10
1.8031507694
 20
2.7796015003
 11
1.8333499142
 21
2.7180621134
  0
LINE
  5
42C
100
AcDbEntity
  8
0
100
AcDbLine
 62
6
  6
CONTINUOUS
 10
1.8064190166
 20
2.8380248061
 11
1.8166379191
 21
2.8172008722
  0
LINE
  5
42D
100
AcDbEntity
  8
0
100
AcDbLine
 62
6
  6
CONTINUOUS
 10
2.2594508811
 20
2.5596155265
 11
2.2761165348
 21
2.6387486674
  0
LINE
  5
42E
100
AcDbEntity
  8
0
100
AcDbLine
 62
6
  6
CONTINUOUS
 10
1.9067064609
 20
1.1161439034
 11
1.9009437006
 21
1.0974956043
  0
LINE
  5
42F
100
AcDbEntity
  8
0
100
AcDbLine
 62
6
  6
CONTINUOUS
 10
2.3202822081
 20
2.5899969967
 11
2.3367838162
 21
2.6433687852
  0
LINE
  5
430
100
AcDbEntity
  8
0
100
AcDbLine
 62
6
  6
CONTINUOUS
 10
1.6015511277
 20
1.8898711741
 11
2.5778757813
 21
1.8898711741
  0
LINE
  5
431
100
AcDbEntity
  8
0
100
AcDbLine
 62
6
  6
CONTINUOUS
 10
1.611292786
 20
1.925120885
 11
2.5899200921
 21
1.925120885
  0
LINE
  5
432
100
AcDbEntity
  8
0
100
AcDbLine
 62
6
  6
CONTINUOUS
 10
2.5746679988
 20
1.9562013834
 11
1.5960406927
 21
1.9562013834
  0
LINE
  5
433
100
AcDbEntity
  8
0
100
AcDbLine
 62
6
  6
CONTINUOUS
 10
1.902632335
 20
2.6835659752
 11
1.9194797218
 21
2.6492346104
  0
LINE
  5
434
100
AcDbEntity
  8
0
100
AcDbLine
 62
6
  6
CONTINUOUS
 10
2.5405792002
 20
1.5668111304
 11
2.5131254322
 21
1.6227560275
  0
LINE
  5
435
100
AcDbEntity
  8
0
100
AcDbLine
 62
6
  6
CONTINUOUS
 10
1.9151864933
 20
2.6492346104
 11
1.8987659662
 21
2.6827133269
  0
LINE
  5
436
100
AcDbEntity
  8
0
100
AcDbLine
 62
6
  6
CONTINUOUS
 10
2.4215526169
 20
2.6401220637
 11
2.4196154757
 21
2.633856693
  0
LINE
  5
437
100
AcDbEntity
  8
0
100
AcDbLine
 62
6
  6
CONTINUOUS
 10
2.3970205807
 20
2.5607771516
 11
2.3950834395
 21
2.5545117809
  0
LINE
  5
438
100
AcDbEntity
  8
0
100
AcDbLine
 62
6
  6
CONTINUOUS
 10
2.4052274397
 20
2.5631976319
 11
2.4205580551
 21
2.6127820335
  0
LINE
  5
439
100
AcDbEntity
  8
0
100
AcDbLine
 62
6
  6
CONTINUOUS
 10
3.3362023825
 20
1.9957957707
 11
3.1909031874
 21
1.9957957707
  0
LINE
  5
43A
100
AcDbEntity
  8
0
100
AcDbLine
 62
6
  6
CONTINUOUS
 10
1.5446551618
 20
2.0092676172
 11
2.5232824679
 21
2.0092676172
  0
LINE
  5
43B
100
AcDbEntity
  8
0
100
AcDbLine
 62
6
  6
CONTINUOUS
 10
1.5415720299
 20
2.0124515912
 11
2.5201993361
 21
2.0124515912
  0
LINE
  5
43C
100
AcDbEntity
  8
0
100
AcDbLine
 62
6
  6
CONTINUOUS
 10
3.1704653823
 20
2.0374436385
 11
3.3157645774
 21
2.0374436385
  0
LINE
  5
43D
100
AcDbEntity
  8
0
100
AcDbLine
 62
6
  6
CONTINUOUS
 10
2.5413068234
 20
1.6507284761
 11
2.5184286834
 21
1.6973492237
  0
LINE
  5
43E
100
AcDbEntity
  8
0
100
AcDbLine
 62
6
  6
CONTINUOUS
 10
1.9821220479
 20
2.8106083643
 11
1.9923409505
 21
2.7897844304
  0
LINE
  5
43F
100
AcDbEntity
  8
0
100
AcDbLine
 62
6
  6
CONTINUOUS
 10
2.0008132718
 20
2.8172008722
 11
1.9905943693
 21
2.8380248061
  0
LINE
  5
440
100
AcDbEntity
  8
0
100
AcDbLine
 62
6
  6
CONTINUOUS
 10
1.9853902951
 20
2.8690316702
 11
2.0155894399
 21
2.8074922833
  0
LINE
  5
441
100
AcDbEntity
  8
0
100
AcDbLine
 62
6
  6
CONTINUOUS
 10
2.6182201834
 20
1.7004572735
 11
2.5907664154
 21
1.7564021707
  0
LINE
  5
442
100
AcDbEntity
  8
0
100
AcDbLine
 62
6
  6
CONTINUOUS
 10
2.4196154757
 20
2.633856693
 11
2.4205580551
 21
2.6127820335
  0
LINE
  5
443
100
AcDbEntity
  8
0
100
AcDbLine
 62
6
  6
CONTINUOUS
 10
2.9279860629
 20
1.1161439034
 11
2.9371373189
 21
1.0974956043
  0
LINE
  5
444
100
AcDbEntity
  8
0
100
AcDbLine
 62
6
  6
CONTINUOUS
 10
2.2609579072
 20
2.5407300801
 11
2.5201993361
 21
2.0124515912
  0
LINE
  5
445
100
AcDbEntity
  8
0
100
AcDbLine
 62
6
  6
CONTINUOUS
 10
2.5746679988
 20
1.9562013834
 11
2.5899200921
 21
1.925120885
  0
LINE
  5
446
100
AcDbEntity
  8
0
100
AcDbLine
 62
6
  6
CONTINUOUS
 10
2.5407522081
 20
1.5653388224
 11
2.5405792002
 21
1.5668111304
  0
LINE
  5
447
100
AcDbEntity
  8
0
100
AcDbLine
 62
6
  6
CONTINUOUS
 10
2.6582942537
 20
2.5485612056
 11
2.5505747398
 21
2.1999807308
  0
LINE
  5
448
100
AcDbEntity
  8
0
100
AcDbLine
 62
6
  6
CONTINUOUS
 10
2.2872551566
 20
2.6459305834
 11
2.5505747398
 21
2.1999807308
  0
LINE
  5
449
100
AcDbEntity
  8
0
100
AcDbLine
 62
6
  6
CONTINUOUS
 10
3.1650999149
 20
1.0974956043
 11
3.2108561949
 21
1.0042541091
  0
LINE
  5
44A
100
AcDbEntity
  8
0
100
AcDbLine
 62
6
  6
CONTINUOUS
 10
2.8463608412
 20
1.7564021707
 11
3.1697052199
 21
1.0974956043
  0
LINE
  5
44B
100
AcDbEntity
  8
0
100
AcDbLine
 62
6
  6
CONTINUOUS
 10
2.3496412286
 20
2.647160871
 11
2.3950834395
 21
2.5545117809
  0
LINE
  5
44C
100
AcDbEntity
  8
0
100
AcDbLine
 62
6
  6
CONTINUOUS
 10
2.3015066789
 20
2.9321293639
 11
2.4215526169
 21
2.6401220637
  0
LINE
  5
44D
100
AcDbEntity
  8
0
100
AcDbLine
 62
6
  6
CONTINUOUS
 10
2.6183931914
 20
1.6989849656
 11
2.6182201834
 21
1.7004572735
  0
LINE
  5
44E
100
AcDbEntity
  8
0
100
AcDbLine
 62
6
  6
CONTINUOUS
 10
3.0160158267
 20
3.3076928805
 11
2.7707633797
 21
2.5140556711
  0
LINE
  5
44F
100
AcDbEntity
  8
0
100
AcDbLine
 62
6
  6
CONTINUOUS
 10
2.5888691282
 20
1.9254456574
 11
2.5778757813
 21
1.8898711741
  0
LINE
  5
450
100
AcDbEntity
  8
0
100
AcDbLine
 62
6
  6
CONTINUOUS
 10
2.5184286834
 20
1.6973492237
 11
2.5303165046
 21
1.7358182271
  0
LINE
  5
451
100
AcDbEntity
  8
0
100
AcDbLine
 62
6
  6
CONTINUOUS
 10
2.5899200921
 20
1.925120885
 11
2.7714698347
 21
2.5126160672
  0
LINE
  5
452
100
AcDbEntity
  8
0
100
AcDbLine
 62
6
  6
CONTINUOUS
 10
2.5131254322
 20
1.6227560275
 11
2.5293187458
 21
1.6751576097
  0
LINE
  5
453
100
AcDbEntity
  8
0
100
AcDbLine
 62
6
  6
CONTINUOUS
 10
2.5135859627
 20
1.6227560275
 11
2.5296013278
 21
1.6745817681
  0
LINE
  5
454
100
AcDbEntity
  8
0
100
AcDbLine
 62
6
  6
CONTINUOUS
 10
2.5907664154
 20
1.7564021707
 11
3.0748990622
 21
3.3230559899
  0
LINE
  5
455
100
AcDbEntity
  8
0
100
AcDbLine
 62
6
  6
CONTINUOUS
 10
2.5374991045
 20
1.5637030805
 11
2.5392785895
 21
1.5694614961
  0
LINE
  5
456
100
AcDbEntity
  8
0
100
AcDbLine
 62
6
  6
CONTINUOUS
 10
2.8452778609
 20
2.3341057665
 11
3.0248847548
 21
2.3341057665
  0
LINE
  5
457
100
AcDbEntity
  8
0
100
AcDbLine
 62
6
  6
CONTINUOUS
 10
3.1243277969
 20
2.4291070934
 11
3.4367977391
 21
2.4291070934
  0
LINE
  5
458
100
AcDbEntity
  8
0
100
AcDbLine
 62
6
  6
CONTINUOUS
 10
3.2822115995
 20
2.3776427882
 11
3.2713978676
 21
2.3782459552
  0
LINE
  5
459
100
AcDbEntity
  8
0
100
AcDbLine
 62
6
  6
CONTINUOUS
 10
2.1578172592
 20
3.2226828203
 11
2.1696065103
 21
3.1986588526
  0
LINE
  5
45A
100
AcDbEntity
  8
0
100
AcDbLine
 62
6
  6
CONTINUOUS
 10
2.3015066789
 20
2.9321293639
 11
2.2841227459
 21
2.9675723044
  0
LINE
  5
45B
100
AcDbEntity
  8
0
100
AcDbLine
 62
6
  6
CONTINUOUS
 10
2.6151400878
 20
1.6973492237
 11
2.6169195728
 21
1.7031076393
  0
LINE
  5
45C
100
AcDbEntity
  8
0
100
AcDbLine
 62
6
  6
CONTINUOUS
 10
2.8418828876
 20
2.3380224011
 11
2.9665470441
 21
2.7414357595
  0
LINE
  5
45D
100
AcDbEntity
  8
0
100
AcDbLine
 62
6
  6
CONTINUOUS
 10
2.2609579072
 20
2.5407300801
 11
1.2823306011
 21
2.5407300801
  0
LINE
  5
45E
100
AcDbEntity
  8
0
100
AcDbLine
 62
6
  6
CONTINUOUS
 10
2.34474876
 20
2.5485612056
 11
2.6582942537
 21
2.5485612056
  0
LINE
  5
45F
100
AcDbEntity
  8
0
100
AcDbLine
 62
6
  6
CONTINUOUS
 10
2.6582942537
 20
2.5485612056
 11
2.4293480884
 21
3.1057434793
  0
LINE
  5
460
100
AcDbEntity
  8
0
100
AcDbLine
 62
6
  6
CONTINUOUS
 10
2.3412351295
 20
2.5545117809
 11
2.3950834395
 21
2.5545117809
  0
LINE
  5
461
100
AcDbEntity
  8
0
100
AcDbLine
 62
6
  6
CONTINUOUS
 10
1.280823575
 20
2.5596155265
 11
2.2594508811
 21
2.5596155265
  0
LINE
  5
462
100
AcDbEntity
  8
0
100
AcDbLine
 62
6
  6
CONTINUOUS
 10
2.2761165348
 20
2.6387486674
 11
1.2974892287
 21
2.6387486674
  0
LINE
  5
463
100
AcDbEntity
  8
0
100
AcDbLine
 62
6
  6
CONTINUOUS
 10
2.3496412286
 20
2.647160871
 11
2.3383940902
 21
2.647160871
  0
LINE
  5
464
100
AcDbEntity
  8
0
100
AcDbLine
 62
6
  6
CONTINUOUS
 10
2.2829672294
 20
2.6492346104
 11
1.3043399233
 21
2.6492346104
  0
LINE
  5
465
100
AcDbEntity
  8
0
100
AcDbLine
 62
6
  6
CONTINUOUS
 10
3.3256154594
 20
2.3784205709
 11
3.3283145745
 21
2.3778056348
  0
LINE
  5
466
100
AcDbEntity
  8
0
100
AcDbLine
 62
6
  6
CONTINUOUS
 10
2.8418828876
 20
2.3380224011
 11
2.8436023529
 21
2.3345184992
  0
LINE
  5
467
100
AcDbEntity
  8
0
100
AcDbLine
 62
6
  6
CONTINUOUS
 10
2.7714698347
 20
2.5126160672
 11
2.7562177414
 21
2.5436965657
  0
LINE
  5
468
100
AcDbEntity
  8
0
100
AcDbLine
 62
6
  6
CONTINUOUS
 10
2.3822501726
 20
3.3328184976
 11
2.448086164
 21
3.1986588526
  0
LINE
  5
469
100
AcDbEntity
  8
0
100
AcDbLine
 62
6
  6
CONTINUOUS
 10
2.7225103485
 20
2.6671302673
 11
2.4632689196
 21
3.1954087562
  0
LINE
  5
46A
100
AcDbEntity
  8
0
100
AcDbLine
 62
6
  6
CONTINUOUS
 10
2.5451749454
 20
3.1234379582
 11
2.601762149
 21
3.0081253613
  0
LINE
  5
46B
100
AcDbEntity
  8
0
100
AcDbLine
 62
6
  6
CONTINUOUS
 10
2.8463608412
 20
1.7564021707
 11
3.0248847548
 21
2.3341057665
  0
LINE
  5
46C
100
AcDbEntity
  8
0
100
AcDbLine
 62
6
  6
CONTINUOUS
 10
3.1519695745
 20
2.7453523941
 11
3.3304934881
 21
3.3230559899
  0
LINE
  5
46D
100
AcDbEntity
  8
0
100
AcDbLine
 62
6
  6
CONTINUOUS
 10
3.0678892368
 20
2.246471846
 11
3.1243277969
 21
2.4291070934
  0
LINE
  5
46E
100
AcDbEntity
  8
0
100
AcDbLine
 62
6
  6
CONTINUOUS
 10
2.9723626807
 20
2.7453523941
 11
3.1519695745
 21
2.7453523941
  0
LINE
  5
46F
100
AcDbEntity
  8
0
100
AcDbLine
 62
6
  6
CONTINUOUS
 10
2.4908546037
 20
3.2703117538
 11
2.5474418072
 21
3.1549991569
  0
LINE
  5
470
100
AcDbEntity
  8
0
100
AcDbLine
 62
6
  6
CONTINUOUS
 10
2.6180357168
 20
3.0628738497
 11
2.6029361444
 21
3.0936435431
  0
LINE
  5
471
100
AcDbEntity
  8
0
100
AcDbLine
 62
6
  6
CONTINUOUS
 10
3.0248847548
 20
2.3341057665
 11
3.3482291334
 21
1.6751992002
  0
LINE
  5
472
100
AcDbEntity
  8
0
100
AcDbLine
 62
6
  6
CONTINUOUS
 10
3.1461760554
 20
2.2570377572
 11
3.1419691144
 21
2.2349904737
  0
LINE
  5
473
100
AcDbEntity
  8
0
100
AcDbLine
 62
6
  6
CONTINUOUS
 10
1.9697052813
 20
2.816824464
 11
1.8042626246
 21
2.816824464
  0
LINE
  5
474
100
AcDbEntity
  8
0
100
AcDbLine
 62
6
  6
CONTINUOUS
 10
2.0008132718
 20
2.8172008722
 11
1.8166379191
 21
2.8172008722
  0
LINE
  5
475
100
AcDbEntity
  8
0
100
AcDbLine
 62
6
  6
CONTINUOUS
 10
1.9781776026
 20
2.8442409058
 11
1.8127349459
 21
2.8442409058
  0
LINE
  5
476
100
AcDbEntity
  8
0
100
AcDbLine
 62
6
  6
CONTINUOUS
 10
3.1616610457
 20
2.1682953164
 11
3.1497644129
 21
2.1925381052
  0
LINE
  5
477
100
AcDbEntity
  8
0
100
AcDbLine
 62
6
  6
CONTINUOUS
 10
3.4226642279
 20
1.689665155
 11
3.3797337678
 21
1.7771482346
  0
LINE
  5
478
100
AcDbEntity
  8
0
100
AcDbLine
 62
6
  6
CONTINUOUS
 10
3.3235896315
 20
1.9957957707
 11
3.4408259463
 21
1.7568932794
  0
LINE
  5
479
100
AcDbEntity
  8
0
100
AcDbLine
 62
6
  6
CONTINUOUS
 10
3.1225843243
 20
2.4234652139
 11
2.9665470441
 21
2.7414357595
  0
LINE
  5
47A
100
AcDbEntity
  8
0
100
AcDbLine
 62
6
  6
CONTINUOUS
 10
2.9723626807
 20
2.7453523941
 11
3.1275533337
 21
2.4291070934
  0
LINE
  5
47B
100
AcDbEntity
  8
0
100
AcDbLine
 62
6
  6
CONTINUOUS
 10
3.5197942858
 20
1.6803287118
 11
3.3745180969
 21
1.9763704592
  0
LINE
  5
47C
100
AcDbEntity
  8
0
100
AcDbLine
 62
6
  6
CONTINUOUS
 10
3.2194061564
 20
2.1711372542
 11
3.2822115995
 21
2.3776427882
  0
LINE
  5
47D
100
AcDbEntity
  8
0
100
AcDbLine
 62
6
  6
CONTINUOUS
 10
2.2813871262
 20
2.9667654776
 11
1.7057240049
 21
2.9667654776
  0
LINE
  5
47E
100
AcDbEntity
  8
0
100
AcDbLine
 62
6
  6
CONTINUOUS
 10
1.7084596246
 20
2.9675723044
 11
2.2829120326
 21
2.9675723044
  0
LINE
  5
47F
100
AcDbEntity
  8
0
100
AcDbLine
 62
6
  6
CONTINUOUS
 10
1.7072489113
 20
2.9686564478
 11
2.2829120326
 21
2.9686564478
  0
LINE
  5
480
100
AcDbEntity
  8
0
100
AcDbLine
 62
6
  6
CONTINUOUS
 10
3.4362291835
 20
1.9763704592
 11
3.5815053724
 21
1.6803287118
  0
LINE
  5
481
100
AcDbEntity
  8
0
100
AcDbLine
 62
6
  6
CONTINUOUS
 10
3.3157645774
 20
2.0374436385
 11
3.3479399892
 21
2.1415633094
  0
LINE
  5
482
100
AcDbEntity
  8
0
100
AcDbLine
 62
6
  6
CONTINUOUS
 10
3.4072655241
 20
2.3335408106
 11
3.4367977391
 21
2.4291070934
  0
LINE
  5
483
100
AcDbEntity
  8
0
100
AcDbLine
 62
6
  6
CONTINUOUS
 10
2.4293480884
 20
3.1057434793
 11
1.4507207823
 21
3.1057434793
  0
LINE
  5
484
100
AcDbEntity
  8
0
100
AcDbLine
 62
6
  6
CONTINUOUS
 10
3.3071602275
 20
2.4291070934
 11
3.1519695745
 21
2.7453523941
  0
LINE
  5
485
100
AcDbEntity
  8
0
100
AcDbLine
 62
6
  6
CONTINUOUS
 10
3.4264918834
 20
2.2982554155
 11
3.4145952506
 21
2.3224982043
  0
LINE
  5
486
100
AcDbEntity
  8
0
100
AcDbLine
 62
6
  6
CONTINUOUS
 10
3.5572623452
 20
2.368033914
 11
3.4362291835
 21
1.9763704592
  0
LINE
  5
487
100
AcDbEntity
  8
0
100
AcDbLine
 62
6
  6
CONTINUOUS
 10
3.1697052199
 20
1.0974956043
 11
3.3910748726
 21
1.8138480632
  0
LINE
  5
488
100
AcDbEntity
  8
0
100
AcDbLine
 62
6
  6
CONTINUOUS
 10
3.5603726325
 20
2.3616958148
 11
3.6538378667
 21
2.6641494236
  0
LINE
  5
489
100
AcDbEntity
  8
0
100
AcDbLine
 62
6
  6
CONTINUOUS
 10
1.4509136918
 20
3.1352304119
 11
2.4295409979
 21
3.1352304119
  0
LINE
  5
48A
100
AcDbEntity
  8
0
100
AcDbLine
 62
6
  6
CONTINUOUS
 10
2.4557645143
 20
3.1948866763
 11
1.4771372082
 21
3.1948866763
  0
LINE
  5
48B
100
AcDbEntity
  8
0
100
AcDbLine
 62
6
  6
CONTINUOUS
 10
1.4846416135
 20
3.1954087562
 11
2.4596379248
 21
3.1954087562
  0
LINE
  5
48C
100
AcDbEntity
  8
0
100
AcDbLine
 62
6
  6
CONTINUOUS
 10
2.4596379248
 20
3.1986588526
 11
1.4810106187
 21
3.1986588526
  0
LINE
  5
48D
100
AcDbEntity
  8
0
100
AcDbLine
 62
6
  6
CONTINUOUS
 10
2.3188024735
 20
3.3828536821
 11
2.3538728029
 21
3.3625086903
  0
LINE
  5
48E
100
AcDbEntity
  8
0
100
AcDbLine
 62
6
  6
CONTINUOUS
 10
3.5572623452
 20
2.368033914
 11
3.7025385342
 21
2.0719921666
  0
LINE
  5
48F
100
AcDbEntity
  8
0
100
AcDbLine
 62
6
  6
CONTINUOUS
 10
3.6949888417
 20
2.5709079283
 11
3.6033030925
 21
2.2742127352
  0
LINE
  5
490
100
AcDbEntity
  8
0
100
AcDbLine
 62
6
  6
CONTINUOUS
 10
3.4226642279
 20
1.689665155
 11
3.2108561949
 21
1.0042541091
  0
LINE
  5
491
100
AcDbEntity
  8
0
100
AcDbLine
 62
6
  6
CONTINUOUS
 10
3.0160158267
 20
3.3076928805
 11
2.3945800346
 21
3.3076928805
  0
LINE
  5
492
100
AcDbEntity
  8
0
100
AcDbLine
 62
6
  6
CONTINUOUS
 10
2.1579895794
 20
3.3076928805
 11
2.0396911731
 21
3.3076928805
  0
LINE
  5
493
100
AcDbEntity
  8
0
100
AcDbLine
 62
6
  6
CONTINUOUS
 10
1.8291640678
 20
3.3230559899
 11
2.0458823036
 21
3.3230559899
  0
LINE
  5
494
100
AcDbEntity
  8
0
100
AcDbLine
 62
6
  6
CONTINUOUS
 10
3.0748990622
 20
3.3230559899
 11
3.3304934881
 21
3.3230559899
  0
LINE
  5
495
100
AcDbEntity
  8
0
100
AcDbLine
 62
6
  6
CONTINUOUS
 10
3.044994804
 20
3.3436399335
 11
2.3753001631
 21
3.3436399335
  0
LINE
  5
496
100
AcDbEntity
  8
0
100
AcDbLine
 62
6
  6
CONTINUOUS
 10
2.1756526979
 20
3.3436399335
 11
2.0686701504
 21
3.3436399335
  0
LINE
  5
497
100
AcDbEntity
  8
0
100
AcDbLine
 62
6
  6
CONTINUOUS
 10
3.5815053724
 20
1.6803287118
 11
3.7025385342
 21
2.0719921666
  0
LINE
  5
498
100
AcDbEntity
  8
0
100
AcDbLine
 62
6
  6
CONTINUOUS
 10
3.6520583817
 20
2.6583910079
 11
3.6949888417
 21
2.5709079283
  0
LINE
  5
499
100
AcDbEntity
  8
0
100
AcDbLine
 62
6
  6
CONTINUOUS
 10
3.3304934881
 20
3.3230559899
 11
3.6538378667
 21
2.6641494236
  0
LWPOLYLINE
  5
49A
100
AcDbEntity
  8
0
100
AcDbPolyline
 62
2
  6
CONTINUOUS
 90
10
 70
0
 10
16.7831398926
 20
10.7103796387
 10
16.7987657471
 20
10.7234005127
 10
16.8143902588
 20
10.7234005127
 10
16.8300147705
 20
10.7103796387
 10
16.8378283691
 20
10.6973587646
 10
16.8378283691
 20
10.6843378906
 10
16.8300147705
 20
10.6713170166
 10
16.8143902588
 20
10.6582961426
 10
16.8300147705
 20
10.6452752686
 10
16.845640625
 20
10.6192335205
  0
LWPOLYLINE
  5
49B
100
AcDbEntity
  8
0
100
AcDbPolyline
 62
2
  6
CONTINUOUS
 90
5
 70
0
 10
16.8300147705
 20
10.5801722412
 10
16.8143902588
 20
10.5671513672
 10
16.7987657471
 20
10.5671513672
 10
16.7831398926
 20
10.5801722412
 10
16.7753276367
 20
10.5931931152
  0
LWPOLYLINE
  5
49C
100
AcDbEntity
  8
0
100
AcDbPolyline
 62
2
  6
CONTINUOUS
 90
4
 70
0
 10
17.449336792
 20
3.5816867676
 10
17.4805871582
 20
3.5816867676
 10
17.4805871582
 20
3.7379369202
 10
17.449336792
 20
3.7379369202
  0
LWPOLYLINE
  5
49D
100
AcDbEntity
  8
0
100
AcDbPolyline
 62
2
  6
CONTINUOUS
 90
4
 70
0
 10
16.9805866699
 20
3.7379369202
 10
16.9493363037
 20
3.7379369202
 10
16.9493363037
 20
3.5816867676
 10
16.9805866699
 20
3.5816867676
  0
LWPOLYLINE
  5
49E
100
AcDbEntity
  8
0
100
AcDbPolyline
 62
2
  6
CONTINUOUS
 90
4
 70
0
 10
17.0899609375
 20
3.8160618286
 10
17.0821486816
 20
3.8160618286
 10
17.0821486816
 20
3.8290827026
 10
17.0899609375
 20
3.8160618286
  0
LWPOLYLINE
  5
49F
100
AcDbEntity
  8
0
100
AcDbPolyline
 62
2
  6
CONTINUOUS
 90
14
 70
0
 10
17.3712115479
 20
3.9723119812
 10
17.3243366699
 20
3.9723119812
 10
17.3165244141
 20
3.9072076111
 10
17.3321489258
 20
3.9202284851
 10
17.3477734375
 20
3.9202284851
 10
17.363399292
 20
3.9072076111
 10
17.3712115479
 20
3.8941870728
 10
17.3790238037
 20
3.8681453247
 10
17.3712115479
 20
3.8421035767
 10
17.363399292
 20
3.8290827026
 10
17.3477734375
 20
3.8160618286
 10
17.3321489258
 20
3.8160618286
 10
17.3165244141
 20
3.8290827026
 10
17.3087121582
 20
3.8421035767
  0
LWPOLYLINE
  5
4A0
100
AcDbEntity
  8
0
100
AcDbPolyline
 62
2
  6
CONTINUOUS
 90
15
 70
0
 10
17.2149610596
 20
3.5816867676
 10
17.1993365479
 20
3.5947076416
 10
17.191524292
 20
3.6077285156
 10
17.1837120361
 20
3.6337702637
 10
17.1837120361
 20
3.6858537598
 10
17.191524292
 20
3.7118951721
 10
17.1993365479
 20
3.7249160461
 10
17.2149610596
 20
3.7379369202
 10
17.2305869141
 20
3.7249160461
 10
17.2383991699
 20
3.7118951721
 10
17.2462114258
 20
3.6858537598
 10
17.2462114258
 20
3.6337702637
 10
17.2383991699
 20
3.6077285156
 10
17.2305869141
 20
3.5947076416
 10
17.2149610596
 20
3.5816867676
  0
LWPOLYLINE
  5
4A1
100
AcDbEntity
  8
0
100
AcDbPolyline
 62
2
  6
CONTINUOUS
 90
3
 70
0
 10
17.3321489258
 20
3.5816867676
 10
17.3165244141
 20
3.5947076416
 10
17.3008985596
 20
3.6207493896
  0
LWPOLYLINE
  5
4A2
100
AcDbEntity
  8
0
100
AcDbPolyline
 62
2
  6
CONTINUOUS
 90
12
 70
0
 10
17.3321489258
 20
3.6728328857
 10
17.3165244141
 20
3.6858537598
 10
17.3087121582
 20
3.6988742981
 10
17.3087121582
 20
3.7118951721
 10
17.3165244141
 20
3.7249160461
 10
17.3321489258
 20
3.7379369202
 10
17.3477734375
 20
3.7379369202
 10
17.363399292
 20
3.7249160461
 10
17.3712115479
 20
3.7118951721
 10
17.3712115479
 20
3.6988742981
 10
17.363399292
 20
3.6858537598
 10
17.3477734375
 20
3.6728328857
  0
LINE
  5
4A3
100
AcDbEntity
  8
0
100
AcDbLine
 62
6
  6
CONTINUOUS
 10
15.0899615455
 20
6.5464190175
 11
15.0899615455
 21
7.5464190175
  0
LINE
  5
4A4
100
AcDbEntity
  8
0
100
AcDbLine
 62
6
  6
CONTINUOUS
 10
15.2239615455
 20
6.5464190175
 11
15.2239615455
 21
7.5464190175
  0
LINE
  5
4A5
100
AcDbEntity
  8
0
100
AcDbLine
 62
6
  6
CONTINUOUS
 10
15.2864615455
 20
7.5464190175
 11
15.2864615455
 21
6.5464190175
  0
LWPOLYLINE
  5
4A6
100
AcDbEntity
  8
0
100
AcDbPolyline
 62
2
  6
CONTINUOUS
 90
5
 70
0
 10
16.8925155029
 20
10.3848591309
 10
16.9081400146
 20
10.4109008789
 10
16.9237658691
 20
10.4239217529
 10
16.9393903809
 20
10.4239217529
 10
16.9550148926
 20
10.4109008789
  0
LWPOLYLINE
  5
4A7
100
AcDbEntity
  8
0
100
AcDbPolyline
 62
2
  6
CONTINUOUS
 90
4
 70
0
 10
16.9706407471
 20
10.3718382568
 10
16.9550148926
 20
10.3457965088
 10
16.9393903809
 20
10.3327756348
 10
16.9237658691
 20
10.3327756348
  0
LINE
  5
4A8
100
AcDbEntity
  8
0
100
AcDbLine
 62
6
  6
CONTINUOUS
 10
15.5849615455
 20
5.0464190175
 11
18.8449615455
 21
5.0464190175
  0
LWPOLYLINE
  5
4A9
100
AcDbEntity
  8
0
100
AcDbPolyline
 62
2
  6
CONTINUOUS
 90
5
 70
0
 10
17.017515625
 20
10.3848591309
 10
17.0331401367
 20
10.4109008789
 10
17.0487646484
 20
10.4239217529
 10
17.0643905029
 20
10.4239217529
 10
17.0800150146
 20
10.4109008789
  0
LWPOLYLINE
  5
4AA
100
AcDbEntity
  8
0
100
AcDbPolyline
 62
2
  6
CONTINUOUS
 90
4
 70
0
 10
17.0956408691
 20
10.3718382568
 10
17.0800150146
 20
10.3457965088
 10
17.0643905029
 20
10.3327756348
 10
17.0487646484
 20
10.3327756348
  0
LINE
  5
4AB
100
AcDbEntity
  8
0
100
AcDbLine
 62
6
  6
CONTINUOUS
 10
15.5849615455
 20
9.0464190175
 11
15.5849615455
 21
7.2174190175
  0
LINE
  5
4AC
100
AcDbEntity
  8
0
100
AcDbLine
 62
6
  6
CONTINUOUS
 10
15.5849615455
 20
6.8754190175
 11
15.5849615455
 21
5.0464190175
  0
LWPOLYLINE
  5
4AD
100
AcDbEntity
  8
0
100
AcDbPolyline
 62
2
  6
CONTINUOUS
 90
3
 70
0
 10
17.363399292
 20
3.6598120117
 10
17.3790238037
 20
3.6337702637
 10
17.3790238037
 20
3.6207493896
  0
LWPOLYLINE
  5
4AE
100
AcDbEntity
  8
0
100
AcDbPolyline
 62
2
  6
CONTINUOUS
 90
17
 70
0
 10
17.3378275146
 20
10.436942627
 10
17.3300152588
 20
10.4109008789
 10
17.3065771484
 20
10.3978800049
 10
17.2831403809
 20
10.4109008789
 10
17.275328125
 20
10.436942627
 10
17.2831403809
 20
10.462984375
 10
17.2909526367
 20
10.476005249
 10
17.3065771484
 20
10.489026123
 10
17.3222030029
 20
10.476005249
 10
17.3300152588
 20
10.462984375
 10
17.3378275146
 20
10.436942627
 10
17.3378275146
 20
10.3848591309
 10
17.3300152588
 20
10.3588173828
 10
17.3222030029
 20
10.3457965088
 10
17.3065771484
 20
10.3327756348
 10
17.2909526367
 20
10.3457965088
 10
17.2831403809
 20
10.3588173828
  0
LWPOLYLINE
  5
4AF
100
AcDbEntity
  8
0
100
AcDbPolyline
 62
2
  6
CONTINUOUS
 90
3
 70
0
 10
16.845640625
 20
10.6192335205
 10
16.845640625
 20
10.6062126465
 10
16.8300147705
 20
10.5801722412
  0
LINE
  5
4B0
100
AcDbEntity
  8
0
100
AcDbLine
 62
6
  6
CONTINUOUS
 10
15.0899615455
 20
6.5464190175
 11
15.5849615455
 21
6.5464190175
  0
LINE
  5
4B1
100
AcDbEntity
  8
0
100
AcDbLine
 62
6
  6
CONTINUOUS
 10
18.8449615455
 20
6.5464190175
 11
19.3399615455
 21
6.5464190175
  0
LWPOLYLINE
  5
4B2
100
AcDbEntity
  8
0
100
AcDbPolyline
 62
2
  6
CONTINUOUS
 90
4
 70
0
 10
16.9883989258
 20
3.8160618286
 10
16.9883989258
 20
3.9723119812
 10
16.933711792
 20
3.8551244507
 10
17.0040234375
 20
3.8551244507
  0
LINE
  5
4B3
100
AcDbEntity
  8
0
100
AcDbLine
 62
2
  6
CONTINUOUS
 10
17.0899609375
 20
3.7379369202
 11
17.0899609375
 21
3.5816867676
  0
LWPOLYLINE
  5
4B4
100
AcDbEntity
  8
0
100
AcDbPolyline
 62
2
  6
CONTINUOUS
 90
3
 70
0
 10
17.3008985596
 20
3.6207493896
 10
17.3008985596
 20
3.6337702637
 10
17.3165244141
 20
3.6598120117
  0
LINE
  5
4B5
100
AcDbEntity
  8
0
100
AcDbLine
 62
6
  6
CONTINUOUS
 10
19.3399615455
 20
7.5464190175
 11
18.8449615455
 21
7.5464190175
  0
LINE
  5
4B6
100
AcDbEntity
  8
0
100
AcDbLine
 62
6
  6
CONTINUOUS
 10
15.0899615455
 20
7.5464190175
 11
15.5849615455
 21
7.5464190175
  0
LWPOLYLINE
  5
4B7
100
AcDbEntity
  8
0
100
AcDbPolyline
 62
2
  6
CONTINUOUS
 90
4
 70
0
 10
21.0907718506
 20
8.0434321899
 10
21.1220222168
 20
8.0434321899
 10
21.1220222168
 20
8.1996820068
 10
21.0907718506
 20
8.1996820068
  0
LWPOLYLINE
  5
4B8
100
AcDbEntity
  8
0
100
AcDbPolyline
 62
2
  6
CONTINUOUS
 90
14
 70
0
 10
20.7626477051
 20
8.1996820068
 10
20.7157714844
 20
8.1996820068
 10
20.7079592285
 20
8.1345776367
 10
20.723585083
 20
8.1475985107
 10
20.7392095947
 20
8.1475985107
 10
20.7548341064
 20
8.1345776367
 10
20.7626477051
 20
8.1215567627
 10
20.7704599609
 20
8.095515686
 10
20.7626477051
 20
8.069473938
 10
20.7548341064
 20
8.056453064
 10
20.7392095947
 20
8.0434321899
 10
20.723585083
 20
8.0434321899
 10
20.7079592285
 20
8.056453064
 10
20.7001469727
 20
8.069473938
  0
LWPOLYLINE
  5
4B9
100
AcDbEntity
  8
0
100
AcDbPolyline
 62
2
  6
CONTINUOUS
 90
4
 70
0
 10
20.4970216064
 20
8.1996820068
 10
20.465772583
 20
8.1996820068
 10
20.465772583
 20
8.0434321899
 10
20.4970216064
 20
8.0434321899
  0
LWPOLYLINE
  5
4BA
100
AcDbEntity
  8
0
100
AcDbPolyline
 62
2
  6
CONTINUOUS
 90
4
 70
0
 10
20.6063972168
 20
8.277807251
 10
20.5985849609
 20
8.277807251
 10
20.5985849609
 20
8.290828125
 10
20.6063972168
 20
8.277807251
  0
LWPOLYLINE
  5
4BB
100
AcDbEntity
  8
0
100
AcDbPolyline
 62
2
  6
CONTINUOUS
 90
8
 70
0
 10
17.1837120361
 20
3.9462702332
 10
17.191524292
 20
3.9592911072
 10
17.2071488037
 20
3.9723119812
 10
17.2227746582
 20
3.9723119812
 10
17.2383991699
 20
3.9592911072
 10
17.2462114258
 20
3.9462702332
 10
17.2462114258
 20
3.9202284851
 10
17.2383991699
 20
3.9072076111
  0
LWPOLYLINE
  5
4BC
100
AcDbEntity
  8
0
100
AcDbPolyline
 62
2
  6
CONTINUOUS
 90
3
 70
0
 10
16.9081400146
 20
10.3457965088
 10
16.8925155029
 20
10.3718382568
 10
16.8925155029
 20
10.3848591309
  0
LWPOLYLINE
  5
4BD
100
AcDbEntity
  8
0
100
AcDbPolyline
 62
2
  6
CONTINUOUS
 90
3
 70
0
 10
16.9550148926
 20
10.4109008789
 10
16.9706407471
 20
10.3848591309
 10
16.9706407471
 20
10.3718382568
  0
LWPOLYLINE
  5
4BE
100
AcDbEntity
  8
0
100
AcDbPolyline
 62
2
  6
CONTINUOUS
 90
3
 70
0
 10
17.0331401367
 20
10.3457965088
 10
17.017515625
 20
10.3718382568
 10
17.017515625
 20
10.3848591309
  0
LINE
  5
4BF
100
AcDbEntity
  8
0
100
AcDbLine
 62
6
  6
CONTINUOUS
 10
18.8349615455
 20
5.0464190175
 11
18.8349615455
 21
6.7964190175
  0
LINE
  5
4C0
100
AcDbEntity
  8
0
100
AcDbLine
 62
6
  6
CONTINUOUS
 10
18.8349615455
 20
7.2964190175
 11
18.8349615455
 21
9.0464190175
  0
LINE
  5
4C1
100
AcDbEntity
  8
0
100
AcDbLine
 62
6
  6
CONTINUOUS
 10
18.8449615455
 20
9.0464190175
 11
18.8449615455
 21
7.2174190175
  0
LINE
  5
4C2
100
AcDbEntity
  8
0
100
AcDbLine
 62
6
  6
CONTINUOUS
 10
18.8449615455
 20
6.8754190175
 11
18.8449615455
 21
5.0464190175
  0
LWPOLYLINE
  5
4C3
100
AcDbEntity
  8
0
100
AcDbPolyline
 62
2
  6
CONTINUOUS
 90
3
 70
0
 10
17.0800150146
 20
10.4109008789
 10
17.0956408691
 20
10.3848591309
 10
17.0956408691
 20
10.3718382568
  0
LWPOLYLINE
  5
4C4
100
AcDbEntity
  8
0
100
AcDbPolyline
 62
2
  6
CONTINUOUS
 90
5
 70
0
 10
17.1815783691
 20
10.3327756348
 10
17.1737647705
 20
10.3457965088
 10
17.1815783691
 20
10.3457965088
 10
17.1815783691
 20
10.3327756348
 10
17.1659525146
 20
10.3067338867
  0
LINE
  5
4C5
100
AcDbEntity
  8
0
100
AcDbLine
 62
6
  6
CONTINUOUS
 10
19.1434615455
 20
6.5464190175
 11
19.1434615455
 21
7.5464190175
  0
LWPOLYLINE
  5
4C6
100
AcDbEntity
  8
0
100
AcDbPolyline
 62
2
  6
CONTINUOUS
 90
4
 70
0
 10
17.3790238037
 20
3.6207493896
 10
17.363399292
 20
3.5947076416
 10
17.3477734375
 20
3.5816867676
 10
17.3321489258
 20
3.5816867676
  0
LINE
  5
4C7
100
AcDbEntity
  8
0
100
AcDbLine
 62
6
  6
CONTINUOUS
 10
19.2059615455
 20
7.5464190175
 11
19.2059615455
 21
6.5464190175
  0
LINE
  5
4C8
100
AcDbEntity
  8
0
100
AcDbLine
 62
6
  6
CONTINUOUS
 10
19.3399615455
 20
7.5464190175
 11
19.3399615455
 21
6.5464190175
  0
LINE
  5
4C9
100
AcDbEntity
  8
0
100
AcDbLine
 62
6
  6
CONTINUOUS
 10
18.8449615455
 20
9.0464190175
 11
15.5849615455
 21
9.0464190175
  0
LWPOLYLINE
  5
4CA
100
AcDbEntity
  8
0
100
AcDbPolyline
 62
2
  6
CONTINUOUS
 90
9
 70
0
 10
20.5751468506
 20
8.1736402588
 10
20.5829591064
 20
8.1866611328
 10
20.5985849609
 20
8.1996820068
 10
20.6142094727
 20
8.1996820068
 10
20.6298339844
 20
8.1866611328
 10
20.637647583
 20
8.1736402588
 10
20.637647583
 20
8.1475985107
 10
20.6298339844
 20
8.1345776367
 10
20.5985849609
 20
8.1085365601
  0
LWPOLYLINE
  5
4CB
100
AcDbEntity
  8
0
100
AcDbPolyline
 62
2
  6
CONTINUOUS
 90
4
 70
0
 10
20.5985849609
 20
8.1085365601
 10
20.5829591064
 20
8.082494812
 10
20.5751468506
 20
8.0434321899
 10
20.637647583
 20
8.0434321899
  0
LINE
  5
4CC
100
AcDbEntity
  8
0
100
AcDbLine
 62
2
  6
CONTINUOUS
 10
16.9237658691
 20
10.3327756348
 11
16.9081400146
 21
10.3457965088
  0
LWPOLYLINE
  5
4CD
100
AcDbEntity
  8
0
100
AcDbPolyline
 62
2
  6
CONTINUOUS
 90
5
 70
0
 10
17.2383991699
 20
3.9072076111
 10
17.2071488037
 20
3.8811661987
 10
17.191524292
 20
3.8551244507
 10
17.1837120361
 20
3.8160618286
 10
17.2462114258
 20
3.8160618286
  0
LWPOLYLINE
  5
4CE
100
AcDbEntity
  8
0
100
AcDbPolyline
 62
2
  6
CONTINUOUS
 90
12
 70
0
 10
16.9237658691
 20
10.4239217529
 10
16.9081400146
 20
10.436942627
 10
16.9003277588
 20
10.449963501
 10
16.9003277588
 20
10.462984375
 10
16.9081400146
 20
10.476005249
 10
16.9237658691
 20
10.489026123
 10
16.9393903809
 20
10.489026123
 10
16.9550148926
 20
10.476005249
 10
16.9628271484
 20
10.462984375
 10
16.9628271484
 20
10.449963501
 10
16.9550148926
 20
10.436942627
 10
16.9393903809
 20
10.4239217529
  0
LINE
  5
4CF
100
AcDbEntity
  8
0
100
AcDbLine
 62
2
  6
CONTINUOUS
 10
17.0487646484
 20
10.3327756348
 11
17.0331401367
 21
10.3457965088
  0
LWPOLYLINE
  5
4D0
100
AcDbEntity
  8
0
100
AcDbPolyline
 62
2
  6
CONTINUOUS
 90
12
 70
0
 10
17.0487646484
 20
10.4239217529
 10
17.0331401367
 20
10.436942627
 10
17.0253278809
 20
10.449963501
 10
17.0253278809
 20
10.462984375
 10
17.0331401367
 20
10.476005249
 10
17.0487646484
 20
10.489026123
 10
17.0643905029
 20
10.489026123
 10
17.0800150146
 20
10.476005249
 10
17.0878272705
 20
10.462984375
 10
17.0878272705
 20
10.449963501
 10
17.0800150146
 20
10.436942627
 10
17.0643905029
 20
10.4239217529
  0
LINE
  5
4D1
100
AcDbEntity
  8
0
100
AcDbLine
 62
2
  6
CONTINUOUS
 10
20.4813970947
 20
8.4340570679
 11
20.4813970947
 21
8.277807251
  0
LWPOLYLINE
  5
4D2
100
AcDbEntity
  8
0
100
AcDbPolyline
 62
2
  6
CONTINUOUS
 90
4
 70
0
 10
21.0048343506
 20
8.0434321899
 10
21.0048343506
 20
8.1996820068
 10
20.9501472168
 20
8.082494812
 10
21.0204602051
 20
8.082494812
  0
LWPOLYLINE
  5
4D3
100
AcDbEntity
  8
0
100
AcDbPolyline
 62
2
  6
CONTINUOUS
 90
4
 70
0
 10
17.3165244141
 20
3.6598120117
 10
17.3321489258
 20
3.6728328857
 10
17.3477734375
 20
3.6728328857
 10
17.363399292
 20
3.6598120117
  0
LWPOLYLINE
  5
4D4
100
AcDbEntity
  8
0
100
AcDbPolyline
 62
2
  6
CONTINUOUS
 90
4
 70
0
 10
17.4159527588
 20
10.3327756348
 10
17.447203125
 20
10.3327756348
 10
17.447203125
 20
10.489026123
 10
17.4159527588
 20
10.489026123
  0
LWPOLYLINE
  5
4D5
100
AcDbEntity
  8
0
100
AcDbPolyline
 62
2
  6
CONTINUOUS
 90
4
 70
0
 10
16.8222025146
 20
10.489026123
 10
16.7909521484
 20
10.489026123
 10
16.7909521484
 20
10.3327756348
 10
16.8222025146
 20
10.3327756348
  0
LWPOLYLINE
  5
4D6
100
AcDbEntity
  8
0
100
AcDbPolyline
 62
2
  6
CONTINUOUS
 90
4
 70
0
 10
16.931578125
 20
10.5671513672
 10
16.9237658691
 20
10.5671513672
 10
16.9237658691
 20
10.5801722412
 10
16.931578125
 20
10.5671513672
  0
LINE
  5
4D7
100
AcDbEntity
  8
0
100
AcDbLine
 62
2
  6
CONTINUOUS
 10
16.7987657471
 20
10.6582961426
 11
16.8143902588
 21
10.6582961426
  0
LWPOLYLINE
  5
4D8
100
AcDbEntity
  8
0
100
AcDbPolyline
 62
2
  6
CONTINUOUS
 90
14
 70
0
 10
17.0878272705
 20
10.7234005127
 10
17.0409523926
 20
10.7234005127
 10
17.0331401367
 20
10.6582961426
 10
17.0487646484
 20
10.6713170166
 10
17.0643905029
 20
10.6713170166
 10
17.0800150146
 20
10.6582961426
 10
17.0878272705
 20
10.6452752686
 10
17.0956408691
 20
10.6192335205
 10
17.0878272705
 20
10.5931931152
 10
17.0800150146
 20
10.5801722412
 10
17.0643905029
 20
10.5671513672
 10
17.0487646484
 20
10.5671513672
 10
17.0331401367
 20
10.5801722412
 10
17.0253278809
 20
10.5931931152
  0
LWPOLYLINE
  5
4D9
100
AcDbEntity
  8
0
100
AcDbPolyline
 62
2
  6
CONTINUOUS
 90
15
 70
0
 10
17.1815783691
 20
10.5671513672
 10
17.1659525146
 20
10.5801722412
 10
17.1581402588
 20
10.5931931152
 10
17.1503280029
 20
10.6192335205
 10
17.1503280029
 20
10.6713170166
 10
17.1581402588
 20
10.6973587646
 10
17.1659525146
 20
10.7103796387
 10
17.1815783691
 20
10.7234005127
 10
17.1972028809
 20
10.7103796387
 10
17.2050151367
 20
10.6973587646
 10
17.2128273926
 20
10.6713170166
 10
17.2128273926
 20
10.6192335205
 10
17.2050151367
 20
10.5931931152
 10
17.1972028809
 20
10.5801722412
 10
17.1815783691
 20
10.5671513672
  0
LWPOLYLINE
  5
4DA
100
AcDbEntity
  8
0
100
AcDbPolyline
 62
2
  6
CONTINUOUS
 90
15
 70
0
 10
20.7313973389
 20
8.277807251
 10
20.7157714844
 20
8.290828125
 10
20.7079592285
 20
8.303848999
 10
20.7001469727
 20
8.3298900757
 10
20.7001469727
 20
8.3819735718
 10
20.7079592285
 20
8.4080153198
 10
20.7157714844
 20
8.4210361938
 10
20.7313973389
 20
8.4340570679
 10
20.7470218506
 20
8.4210361938
 10
20.7548341064
 20
8.4080153198
 10
20.7626477051
 20
8.3819735718
 10
20.7626477051
 20
8.3298900757
 10
20.7548341064
 20
8.303848999
 10
20.7470218506
 20
8.290828125
 10
20.7313973389
 20
8.277807251
  0
LWPOLYLINE
  5
4DB
100
AcDbEntity
  8
0
100
AcDbPolyline
 62
2
  6
CONTINUOUS
 90
15
 70
0
 10
20.8563974609
 20
8.277807251
 10
20.8407716064
 20
8.290828125
 10
20.8329593506
 20
8.303848999
 10
20.8251470947
 20
8.3298900757
 10
20.8251470947
 20
8.3819735718
 10
20.8329593506
 20
8.4080153198
 10
20.8407716064
 20
8.4210361938
 10
20.8563974609
 20
8.4340570679
 10
20.8720219727
 20
8.4210361938
 10
20.8798342285
 20
8.4080153198
 10
20.8876464844
 20
8.3819735718
 10
20.8876464844
 20
8.3298900757
 10
20.8798342285
 20
8.303848999
 10
20.8720219727
 20
8.290828125
 10
20.8563974609
 20
8.277807251
  0
LWPOLYLINE
  5
4DC
100
AcDbEntity
  8
0
100
AcDbPolyline
 62
2
  6
CONTINUOUS
 90
5
 70
0
 10
20.8563974609
 20
8.0434321899
 10
20.8485852051
 20
8.056453064
 10
20.8563974609
 20
8.056453064
 10
20.8563974609
 20
8.0434321899
 10
20.8407716064
 20
8.0173904419
  0
CIRCLE
  5
4DD
100
AcDbEntity
  8
0
100
AcDbCircle
 62
6
  6
CONTINUOUS
 10
3.9981985652
 20
6.6914190175
 40
0.157
  0
CIRCLE
  5
4DE
100
AcDbEntity
  8
0
100
AcDbCircle
 62
6
  6
CONTINUOUS
 10
3.9981985652
 20
5.5214190175
 40
0.157
  0
ARC
  5
4DF
100
AcDbEntity
  8
0
100
AcDbCircle
 62
6
  6
CONTINUOUS
 10
3.3181985652
 20
6.5314190175
 40
0.01
100
AcDbArc
 50
270.0
 51
360.0
  0
ARC
  5
4E0
100
AcDbEntity
  8
0
100
AcDbCircle
 62
6
  6
CONTINUOUS
 10
2.8081985652
 20
7.0464190175
 40
0.295
100
AcDbArc
 50
180.2382262481
 51
179.9971233398
  0
ARC
  5
4E1
100
AcDbEntity
  8
0
100
AcDbCircle
 62
6
  6
CONTINUOUS
 10
2.8081985652
 20
7.0464190175
 40
0.2683281573
100
AcDbArc
 50
79.4990173277
 51
100.9774351682
  0
ARC
  5
4E2
100
AcDbEntity
  8
0
100
AcDbCircle
 62
6
  6
CONTINUOUS
 10
2.8081985652
 20
7.0464190175
 40
0.2683281573
100
AcDbArc
 50
259.499017328
 51
280.9774351685
  0
ARC
  5
4E3
100
AcDbEntity
  8
0
100
AcDbCircle
 62
6
  6
CONTINUOUS
 10
3.3181985652
 20
7.5614190175
 40
0.01
100
AcDbArc
 50
0.0
 51
90.0
  0
ARC
  5
4E4
100
AcDbEntity
  8
0
100
AcDbCircle
 62
6
  6
CONTINUOUS
 10
4.5581985652
 20
6.1064190175
 40
0.4355
100
AcDbArc
 50
3.9500246447
 51
356.0499753553
  0
CIRCLE
  5
4E5
100
AcDbEntity
  8
0
100
AcDbCircle
 62
6
  6
CONTINUOUS
 10
4.5581985652
 20
6.1064190175
 40
0.375
  0
CIRCLE
  5
4E6
100
AcDbEntity
  8
0
100
AcDbCircle
 62
6
  6
CONTINUOUS
 10
4.5581985652
 20
6.1064190175
 40
0.25
  0
CIRCLE
  5
4E7
100
AcDbEntity
  8
0
100
AcDbCircle
 62
6
  6
CONTINUOUS
 10
4.5581985652
 20
6.1064190175
 40
0.2
  0
ARC
  5
4E8
100
AcDbEntity
  8
0
100
AcDbCircle
 62
6
  6
CONTINUOUS
 10
5.7981985652
 20
6.5314190175
 40
0.01
100
AcDbArc
 50
180.0
 51
270.0
  0
ARC
  5
4E9
100
AcDbEntity
  8
0
100
AcDbCircle
 62
6
  6
CONTINUOUS
 10
6.3081985652
 20
7.0464190175
 40
0.295
100
AcDbArc
 50
180.2382262481
 51
179.9971233398
  0
ARC
  5
4EA
100
AcDbEntity
  8
0
100
AcDbCircle
 62
6
  6
CONTINUOUS
 10
6.3081985652
 20
7.0464190175
 40
0.2683281573
100
AcDbArc
 50
79.4990173275
 51
100.9774351686
  0
ARC
  5
4EB
100
AcDbEntity
  8
0
100
AcDbCircle
 62
6
  6
CONTINUOUS
 10
6.3081985652
 20
7.0464190175
 40
0.2683281573
100
AcDbArc
 50
259.4990173276
 51
280.9774351687
  0
CIRCLE
  5
4EC
100
AcDbEntity
  8
0
100
AcDbCircle
 62
6
  6
CONTINUOUS
 10
4.5581985652
 20
8.0164190175
 40
0.203
  0
ARC
  5
4ED
100
AcDbEntity
  8
0
100
AcDbCircle
 62
6
  6
CONTINUOUS
 10
4.5581985652
 20
8.0164190175
 40
0.183
100
AcDbArc
 50
191.0261404813
 51
348.9738595187
  0
ARC
  5
4EE
100
AcDbEntity
  8
0
100
AcDbCircle
 62
6
  6
CONTINUOUS
 10
4.5581985652
 20
8.0164190175
 40
0.183
100
AcDbArc
 50
11.0261404813
 51
168.9738595187
  0
ARC
  5
4EF
100
AcDbEntity
  8
0
100
AcDbCircle
 62
6
  6
CONTINUOUS
 10
4.5581985652
 20
7.0464190175
 40
0.157
100
AcDbArc
 50
121.0446857912
 51
58.9254579772
  0
ARC
  5
4F0
100
AcDbEntity
  8
0
100
AcDbCircle
 62
6
  6
CONTINUOUS
 10
5.7981985652
 20
7.5614190175
 40
0.01
100
AcDbArc
 50
90.0
 51
180.0
  0
ARC
  5
4F1
100
AcDbEntity
  8
0
100
AcDbCircle
 62
6
  6
CONTINUOUS
 10
8.0358258534
 20
7.9897898459
 40
0.9431043839
100
AcDbArc
 50
4.7858989971
 51
6.1287436334
  0
ARC
  5
4F2
100
AcDbEntity
  8
0
100
AcDbCircle
 62
6
  6
CONTINUOUS
 10
9.7056420312
 20
6.7664190175
 40
0.5
100
AcDbArc
 50
90.0
 51
123.0520208963
  0
ARC
  5
4F3
100
AcDbEntity
  8
0
100
AcDbCircle
 62
6
  6
CONTINUOUS
 10
9.7056420312
 20
9.2664190175
 40
0.5
100
AcDbArc
 50
236.9479791037
 51
270.0
  0
ARC
  5
4F4
100
AcDbEntity
  8
0
100
AcDbCircle
 62
6
  6
CONTINUOUS
 10
11.0050956413
 20
7.0464190175
 40
0.315
100
AcDbArc
 50
238.4118644903
 51
249.4731441548
  0
ARC
  5
4F5
100
AcDbEntity
  8
0
100
AcDbCircle
 62
6
  6
CONTINUOUS
 10
11.0050924099
 20
7.0466264195
 40
0.3110031994
100
AcDbArc
 50
122.0413242137
 51
237.9569394506
  0
ARC
  5
4F6
100
AcDbEntity
  8
0
100
AcDbCircle
 62
6
  6
CONTINUOUS
 10
9.9956420312
 20
5.2364190175
 40
0.19
100
AcDbArc
 50
180.0
 51
270.2254136155
  0
ARC
  5
4F7
100
AcDbEntity
  8
0
100
AcDbCircle
 62
6
  6
CONTINUOUS
 10
9.9956420312
 20
8.8564190175
 40
0.19
100
AcDbArc
 50
90.2254136155
 51
180.0
  0
ARC
  5
4F8
100
AcDbEntity
  8
0
100
AcDbCircle
 62
6
  6
CONTINUOUS
 10
9.0710957138
 20
7.9254143686
 40
0.0845723023
100
AcDbArc
 50
188.7209370237
 51
189.0546578525
  0
ARC
  5
4F9
100
AcDbEntity
  8
0
100
AcDbCircle
 62
6
  6
CONTINUOUS
 10
8.7426302681
 20
7.8134424223
 40
0.047
100
AcDbArc
 50
180.0143380912
 51
270.0143380819
  0
ARC
  5
4FA
100
AcDbEntity
  8
0
100
AcDbCircle
 62
6
  6
CONTINUOUS
 10
7.6953836611
 20
7.3895729794
 40
0.04
100
AcDbArc
 50
95.0286761762
 51
190.028676176
  0
ARC
  5
4FB
100
AcDbEntity
  8
0
100
AcDbCircle
 62
6
  6
CONTINUOUS
 10
7.6953836611
 20
8.6432650556
 40
0.04
100
AcDbArc
 50
169.9713238214
 51
264.9713238233
  0
ARC
  5
4FC
100
AcDbEntity
  8
0
100
AcDbCircle
 62
6
  6
CONTINUOUS
 10
9.4165798883
 20
7.2106521518
 40
0.03
100
AcDbArc
 50
270.0
 51
303.0520208967
  0
ARC
  5
4FD
100
AcDbEntity
  8
0
100
AcDbCircle
 62
6
  6
CONTINUOUS
 10
7.7168694079
 20
7.2106521518
 40
0.03
100
AcDbArc
 50
190.028676175
 51
270.0
  0
ARC
  5
4FE
100
AcDbEntity
  8
0
100
AcDbCircle
 62
6
  6
CONTINUOUS
 10
7.7168694079
 20
8.8221858833
 40
0.03
100
AcDbArc
 50
90.0
 51
169.9713238279
  0
ARC
  5
4FF
100
AcDbEntity
  8
0
100
AcDbCircle
 62
6
  6
CONTINUOUS
 10
9.4165798883
 20
8.8221858833
 40
0.03
100
AcDbArc
 50
56.9479791036
 51
90.0
  0
ARC
  5
500
100
AcDbEntity
  8
0
100
AcDbCircle
 62
6
  6
CONTINUOUS
 10
8.9756420312
 20
7.8914190175
 40
0.02
100
AcDbArc
 50
47.3448375926
 51
90.0
  0
ARC
  5
501
100
AcDbEntity
  8
0
100
AcDbCircle
 62
6
  6
CONTINUOUS
 10
8.9356420312
 20
7.8914190175
 40
0.02
100
AcDbArc
 50
90.0
 51
180.0
  0
ARC
  5
502
100
AcDbEntity
  8
0
100
AcDbCircle
 62
6
  6
CONTINUOUS
 10
8.9356420312
 20
8.1414190175
 40
0.02
100
AcDbArc
 50
180.0
 51
270.0
  0
ARC
  5
503
100
AcDbEntity
  8
0
100
AcDbCircle
 62
6
  6
CONTINUOUS
 10
8.9756420312
 20
8.1414190175
 40
0.02
100
AcDbArc
 50
270.0
 51
360.0
  0
ARC
  5
504
100
AcDbEntity
  8
0
100
AcDbCircle
 62
6
  6
CONTINUOUS
 10
8.0805045748
 20
8.3156366739
 40
0.01
100
AcDbArc
 50
90.0143380875
 51
180.014338091
  0
ARC
  5
505
100
AcDbEntity
  8
0
100
AcDbCircle
 62
6
  6
CONTINUOUS
 10
8.0807127802
 20
7.4836367
 40
0.01
100
AcDbArc
 50
180.0143380799
 51
270.014338091
  0
ARC
  5
506
100
AcDbEntity
  8
0
100
AcDbCircle
 62
6
  6
CONTINUOUS
 10
8.0656420312
 20
7.8974190175
 40
0.01
100
AcDbArc
 50
90.0
 51
180.0
  0
ARC
  5
507
100
AcDbEntity
  8
0
100
AcDbCircle
 62
6
  6
CONTINUOUS
 10
8.0656420312
 20
8.1354190175
 40
0.01
100
AcDbArc
 50
180.0
 51
270.0
  0
ARC
  5
508
100
AcDbEntity
  8
0
100
AcDbCircle
 62
6
  6
CONTINUOUS
 10
4.636156282
 20
12.9773969735
 40
1.0606567157
100
AcDbArc
 50
104.504462561
 51
106.1184659606
  0
ARC
  5
509
100
AcDbEntity
  8
0
100
AcDbCircle
 62
6
  6
CONTINUOUS
 10
4.4802441298
 20
12.9774081974
 40
1.060645022
100
AcDbArc
 50
73.8815360072
 51
75.4956869283
  0
ARC
  5
50A
100
AcDbEntity
  8
0
100
AcDbCircle
 62
6
  6
CONTINUOUS
 10
6.3081985652
 20
14.5373062444
 40
0.315
100
AcDbArc
 50
279.1331201689
 51
339.4731430719
  0
ARC
  5
50B
100
AcDbEntity
  8
0
100
AcDbCircle
 62
6
  6
CONTINUOUS
 10
6.3081985652
 20
14.5373062444
 40
0.315
100
AcDbArc
 50
247.5522730835
 51
260.8667225949
  0
ARC
  5
50C
100
AcDbEntity
  8
0
100
AcDbCircle
 62
6
  6
CONTINUOUS
 10
2.8081985652
 20
14.5463062444
 40
0.315
100
AcDbArc
 50
279.1331201687
 51
292.4018629729
  0
ARC
  5
50D
100
AcDbEntity
  8
0
100
AcDbCircle
 62
6
  6
CONTINUOUS
 10
2.8081985652
 20
14.5463062444
 40
0.315
100
AcDbArc
 50
200.526855784
 51
260.8667225956
  0
ARC
  5
50E
100
AcDbEntity
  8
0
100
AcDbCircle
 62
6
  6
CONTINUOUS
 10
2.6296985652
 20
14.7103526343
 40
0.1965
100
AcDbArc
 50
180.0
 51
270.0
  0
ARC
  5
50F
100
AcDbEntity
  8
0
100
AcDbCircle
 62
6
  6
CONTINUOUS
 10
6.4866985652
 20
14.7013526343
 40
0.1965
100
AcDbArc
 50
270.0
 51
360.0
  0
ARC
  5
510
100
AcDbEntity
  8
0
100
AcDbCircle
 62
6
  6
CONTINUOUS
 10
3.7931985652
 20
13.8678526343
 40
0.09
100
AcDbArc
 50
90.0
 51
180.0
  0
ARC
  5
511
100
AcDbEntity
  8
0
100
AcDbCircle
 62
6
  6
CONTINUOUS
 10
5.3231985652
 20
13.8678526343
 40
0.09
100
AcDbArc
 50
0.0
 51
90.0
  0
ARC
  5
512
100
AcDbEntity
  8
0
100
AcDbCircle
 62
6
  6
CONTINUOUS
 10
2.6296985652
 20
14.7103526343
 40
0.0625
100
AcDbArc
 50
180.0
 51
270.0
  0
ARC
  5
513
100
AcDbEntity
  8
0
100
AcDbCircle
 62
6
  6
CONTINUOUS
 10
6.4866985652
 20
14.7013526343
 40
0.0625
100
AcDbArc
 50
270.0
 51
360.0
  0
ARC
  5
514
100
AcDbEntity
  8
0
100
AcDbCircle
 62
6
  6
CONTINUOUS
 10
3.4931985652
 20
13.7078526343
 40
0.01
100
AcDbArc
 50
90.0
 51
180.0
  0
ARC
  5
515
100
AcDbEntity
  8
0
100
AcDbCircle
 62
6
  6
CONTINUOUS
 10
5.6231985652
 20
13.7078526343
 40
0.01
100
AcDbArc
 50
0.0
 51
90.0
  0
ARC
  5
516
100
AcDbEntity
  8
0
100
AcDbCircle
 62
6
  6
CONTINUOUS
 10
5.3121985652
 20
14.1378526343
 40
0.01
100
AcDbArc
 50
0.0
 51
90.0
  0
ARC
  5
517
100
AcDbEntity
  8
0
100
AcDbCircle
 62
6
  6
CONTINUOUS
 10
3.8041985652
 20
14.1378526343
 40
0.01
100
AcDbArc
 50
90.0
 51
180.0
  0
ARC
  5
518
100
AcDbEntity
  8
0
100
AcDbCircle
 62
6
  6
CONTINUOUS
 10
4.1671207007
 20
0.4097024949
 40
3.3730304567
100
AcDbArc
 50
134.4683287065
 51
134.6188585701
  0
ARC
  5
519
100
AcDbEntity
  8
0
100
AcDbCircle
 62
6
  6
CONTINUOUS
 10
4.175593022
 20
0.4371189367
 40
3.3730304567
100
AcDbArc
 50
134.4683287065
 51
134.6188585701
  0
ARC
  5
51A
100
AcDbEntity
  8
0
100
AcDbCircle
 62
6
  6
CONTINUOUS
 10
3.4835261457
 20
1.7218784174
 40
0.1625417274
100
AcDbArc
 50
124.2899876034
 51
131.7798202699
  0
ARC
  5
51B
100
AcDbEntity
  8
0
100
AcDbCircle
 62
6
  6
CONTINUOUS
 10
3.2990263195
 20
2.2231886222
 40
0.1575
100
AcDbArc
 50
56.4919732039
 51
80.2807223507
  0
ARC
  5
51C
100
AcDbEntity
  8
0
100
AcDbCircle
 62
6
  6
CONTINUOUS
 10
3.2990263195
 20
2.2231886222
 40
0.1575
100
AcDbArc
 50
100.1030331953
 51
175.7138536325
  0
ARC
  5
51D
100
AcDbEntity
  8
0
100
AcDbCircle
 62
6
  6
CONTINUOUS
 10
3.3114842996
 20
2.2904453734
 40
0.111523704
100
AcDbArc
 50
342.8275542532
 51
343.0915791772
  0
ARC
  5
51E
100
AcDbEntity
  8
0
100
AcDbCircle
 62
6
  6
CONTINUOUS
 10
1.9133783852
 20
2.8056257621
 40
0.0965813355
100
AcDbArc
 50
86.8001052544
 51
90.0054595628
  0
ARC
  5
51F
100
AcDbEntity
  8
0
100
AcDbCircle
 62
6
  6
CONTINUOUS
 10
3.3284272422
 20
2.2871002263
 40
0.0942273163
100
AcDbArc
 50
351.2719664726
 51
357.8569332911
  0
ARC
  5
520
100
AcDbEntity
  8
0
100
AcDbCircle
 62
6
  6
CONTINUOUS
 10
3.2340523006
 20
2.2280314534
 40
0.0923449178
100
AcDbArc
 50
175.6780640415
 51
177.7936741438
  0
ARC
  5
521
100
AcDbEntity
  8
0
100
AcDbCircle
 62
6
  6
CONTINUOUS
 10
3.2335036034
 20
2.2280629312
 40
0.0917954698
100
AcDbArc
 50
175.7730164123
 51
177.7733493509
  0
ARC
  5
522
100
AcDbEntity
  8
0
100
AcDbCircle
 62
6
  6
CONTINUOUS
 10
3.3360790184
 20
2.2792109962
 40
0.090331512
100
AcDbArc
 50
49.8759391602
 51
56.4687429895
  0
ARC
  5
523
100
AcDbEntity
  8
0
100
AcDbCircle
 62
6
  6
CONTINUOUS
 10
3.3360738784
 20
2.2868906737
 40
0.086578226
100
AcDbArc
 50
357.8062813894
 51
5.8759060998
  0
ARC
  5
524
100
AcDbEntity
  8
0
100
AcDbCircle
 62
6
  6
CONTINUOUS
 10
2.9933744093
 20
3.2864415634
 40
0.0831156597
100
AcDbArc
 50
24.6080400804
 51
26.3150647091
  0
ARC
  5
525
100
AcDbEntity
  8
0
100
AcDbCircle
 62
6
  6
CONTINUOUS
 10
3.3419413466
 20
2.2875643699
 40
0.0806726465
100
AcDbArc
 50
5.8265603407
 51
14.8124184274
  0
ARC
  5
526
100
AcDbEntity
  8
0
100
AcDbCircle
 62
6
  6
CONTINUOUS
 10
3.2221926853
 20
2.2274036772
 40
0.0804371653
100
AcDbArc
 50
189.1142463237
 51
194.7287245282
  0
ARC
  5
527
100
AcDbEntity
  8
0
100
AcDbCircle
 62
6
  6
CONTINUOUS
 10
3.2216772374
 20
2.2272950207
 40
0.0799109844
100
AcDbArc
 50
189.0958613811
 51
194.7473364024
  0
ARC
  5
528
100
AcDbEntity
  8
0
100
AcDbCircle
 62
6
  6
CONTINUOUS
 10
3.3439033527
 20
2.287516229
 40
0.0788904587
100
AcDbArc
 50
32.708635987
 51
40.3722514637
  0
ARC
  5
529
100
AcDbEntity
  8
0
100
AcDbCircle
 62
6
  6
CONTINUOUS
 10
3.2204714373
 20
2.2269893075
 40
0.0786671349
100
AcDbArc
 50
194.7555717773
 51
195.0163297007
  0
ARC
  5
52A
100
AcDbEntity
  8
0
100
AcDbCircle
 62
6
  6
CONTINUOUS
 10
3.3439338928
 20
2.288058462
 40
0.0786200058
100
AcDbArc
 50
14.8355441134
 51
15.3415498155
  0
ARC
  5
52B
100
AcDbEntity
  8
0
100
AcDbCircle
 62
6
  6
CONTINUOUS
 10
3.2195116968
 20
2.2267136983
 40
0.0776687608
100
AcDbArc
 50
195.0033947227
 51
206.1321297103
  0
ARC
  5
52C
100
AcDbEntity
  8
0
100
AcDbCircle
 62
6
  6
CONTINUOUS
 10
3.2314016927
 20
2.2024672959
 40
0.0776612888
100
AcDbArc
 50
195.2271965819
 51
206.0942634979
  0
ARC
  5
52D
100
AcDbEntity
  8
0
100
AcDbCircle
 62
6
  6
CONTINUOUS
 10
3.2192523877
 20
2.2266165031
 40
0.0773930818
100
AcDbArc
 50
194.9835854925
 51
206.115133014
  0
ARC
  5
52E
100
AcDbEntity
  8
0
100
AcDbCircle
 62
6
  6
CONTINUOUS
 10
3.3451268755
 20
2.2884285741
 40
0.0773716236
100
AcDbArc
 50
15.3109712269
 51
26.1156918757
  0
ARC
  5
52F
100
AcDbEntity
  8
0
100
AcDbCircle
 62
6
  6
CONTINUOUS
 10
3.3455007489
 20
2.2885994003
 40
0.0769607258
100
AcDbArc
 50
26.124020671
 51
32.6727428634
  0
ARC
  5
530
100
AcDbEntity
  8
0
100
AcDbCircle
 62
6
  6
CONTINUOUS
 10
3.2188534042
 20
2.2264338657
 40
0.0769544382
100
AcDbArc
 50
206.1237926832
 51
212.4835172803
  0
ARC
  5
531
100
AcDbEntity
  8
0
100
AcDbCircle
 62
6
  6
CONTINUOUS
 10
1.8518450267
 20
2.8112096958
 40
0.0476389566
100
AcDbArc
 50
206.2728699745
 51
210.5084506999
  0
ARC
  5
532
100
AcDbEntity
  8
0
100
AcDbCircle
 62
6
  6
CONTINUOUS
 10
3.3216062714
 20
2.3552740805
 40
0.0234983239
100
AcDbArc
 50
80.1759587385
 51
90.3444127446
  0
ARC
  5
533
100
AcDbEntity
  8
0
100
AcDbCircle
 62
6
  6
CONTINUOUS
 10
15.5849615455
 20
7.0464190175
 40
0.25
100
AcDbArc
 50
270.0
 51
90.0
  0
ARC
  5
534
100
AcDbEntity
  8
0
100
AcDbCircle
 62
6
  6
CONTINUOUS
 10
18.8349615455
 20
7.0464190175
 40
0.25
100
AcDbArc
 50
90.0
 51
270.0
  0
ARC
  5
535
100
AcDbEntity
  8
0
100
AcDbCircle
 62
6
  6
CONTINUOUS
 10
18.8449615455
 20
7.0464190175
 40
0.171
100
AcDbArc
 50
90.0
 51
270.0
  0
ARC
  5
536
100
AcDbEntity
  8
0
100
AcDbCircle
 62
6
  6
CONTINUOUS
 10
15.5849615455
 20
7.0464190175
 40
0.171
100
AcDbArc
 50
270.0
 51
90.0
  0
CIRCLE
  5
537
100
AcDbEntity
  8
0
100
AcDbCircle
 62
6
  6
CONTINUOUS
 10
15.4649615455
 20
7.0464190175
 40
0.1640625
  0
CIRCLE
  5
538
100
AcDbEntity
  8
0
100
AcDbCircle
 62
6
  6
CONTINUOUS
 10
18.9649615455
 20
7.0464190175
 40
0.1640625
  0
ARC
  5
539
100
AcDbEntity
  8
0
100
AcDbCircle
 62
6
  6
CONTINUOUS
 10
18.9649615455
 20
7.0464190175
 40
0.16
100
AcDbArc
 50
0.0
 51
359.5837714349
  0
ARC
  5
53A
100
AcDbEntity
  8
0
100
AcDbCircle
 62
6
  6
CONTINUOUS
 10
15.4649615455
 20
7.0464190175
 40
0.16
100
AcDbArc
 50
0.0
 51
359.5837714349
  0
CIRCLE
  5
53B
100
AcDbEntity
  8
0
100
AcDbCircle
 62
6
  6
CONTINUOUS
 10
15.4649615455
 20
7.0464190175
 40
0.15625
  0
CIRCLE
  5
53C
100
AcDbEntity
  8
0
100
AcDbCircle
 62
6
  6
CONTINUOUS
 10
18.9649615455
 20
7.0464190175
 40
0.15625
  0
SPLINE
  5
53D
100
AcDbEntity
  8
0
100
AcDbSpline
 62
6
  6
CONTINUOUS
 70
0
 71
3
 72
25
 73
21
 74
0
 42
0.0000001
 43
0.0000001
 44
0.0000000001
 40
0.0
 40
0.0
 40
0.0
 40
0.0
 40
0.0044091072
 40
0.0099404099
 40
0.0172150591
 40
0.026503523
 40
0.0379094733
 40
0.051470124
 40
0.0671931967
 40
0.0850713063
 40
0.1272090314
 40
0.1775609095
 40
0.2356766787
 40
0.3010692259
 40
0.3731072733
 40
0.4510901258
 40
0.534303289
 40
0.6219716447
 40
0.8074384038
 40
1.0
 40
1.0
 40
1.0
 40
1.0
 10
4.683195482
 20
8.4337938927
 30
0.0
 10
4.6831955626
 20
8.4336078549
 30
0.0
 10
4.6830610168
 20
8.4331875394
 30
0.0
 10
4.682558728
 20
8.4326470094
 30
0.0
 10
4.6817838352
 20
8.4321217031
 30
0.0
 10
4.6807210907
 20
8.431602571
 30
0.0
 10
4.6793698937
 20
8.4310862102
 30
0.0
 10
4.6777301632
 20
8.4305745756
 30
0.0
 10
4.675804989
 20
8.4300690238
 30
0.0
 10
4.6726869196
 20
8.4293664835
 30
0.0
 10
4.6681023106
 20
8.4285387586
 30
0.0
 10
4.6618116221
 20
8.4276340886
 30
0.0
 10
4.6545245043
 20
8.4267835483
 30
0.0
 10
4.6463106757
 20
8.4259977416
 30
0.0
 10
4.6372492233
 20
8.4252840873
 30
0.0
 10
4.6274283324
 20
8.4246497453
 30
0.0
 10
4.6169417864
 20
8.4241023816
 30
0.0
 10
4.601918538
 20
8.4234830924
 30
0.0
 10
4.5822743316
 20
8.4229727526
 30
0.0
 10
4.5663235079
 20
8.4228368179
 30
0.0
 10
4.5581985652
 20
8.4228368179
 30
0.0
  0
SPLINE
  5
53E
100
AcDbEntity
  8
0
100
AcDbSpline
 62
6
  6
CONTINUOUS
 70
0
 71
3
 72
28
 73
24
 74
0
 42
0.0000001
 43
0.0000001
 44
0.0000000001
 40
0.0
 40
0.0
 40
0.0
 40
0.0
 40
0.0021446222
 40
0.0044462656
 40
0.0070336688
 40
0.0099986079
 40
0.0172766869
 40
0.0265630374
 40
0.0379628039
 40
0.0515179151
 40
0.0672411176
 40
0.0851286099
 40
0.1051527235
 40
0.1272716406
 40
0.1776087654
 40
0.2357354686
 40
0.301109559
 40
0.373136756
 40
0.4511430777
 40
0.5343647324
 40
0.6220234775
 40
0.8073864494
 40
1.0
 40
1.0
 40
1.0
 40
1.0
 10
4.8081952865
 20
8.949799496
 30
0.0
 10
4.8081953302
 20
8.9499804884
 30
0.0
 10
4.8081407421
 20
8.9503574793
 30
0.0
 10
4.8079022985
 20
8.950906969
 30
0.0
 10
4.8075135177
 20
8.9514486114
 30
0.0
 10
4.8067443942
 20
8.9522158216
 30
0.0
 10
4.8053675116
 20
8.9531431925
 30
0.0
 10
4.8032453623
 20
8.9541821239
 30
0.0
 10
4.8005430459
 20
8.9552149498
 30
0.0
 10
4.7972647775
 20
8.9562384356
 30
0.0
 10
4.7934136597
 20
8.9572494395
 30
0.0
 10
4.7889971682
 20
8.958244182
 30
0.0
 10
4.7840253693
 20
8.9592203301
 30
0.0
 10
4.77633448
 20
8.9605515416
 30
0.0
 10
4.7654240655
 20
8.9621194391
 30
0.0
 10
4.7508509346
 20
8.9638194097
 30
0.0
 10
4.7344237354
 20
8.9653920891
 30
0.0
 10
4.7163001468
 20
8.9668196811
 30
0.0
 10
4.6966551712
 20
8.9680870568
 30
0.0
 10
4.6756788451
 20
8.9691828194
 30
0.0
 10
4.6456391551
 20
8.9704204466
 30
0.0
 10
4.6063533443
 20
8.9714425235
 30
0.0
 10
4.5744539213
 20
8.9717133816
 30
0.0
 10
4.5581985652
 20
8.9717133816
 30
0.0
  0
SPLINE
  5
53F
100
AcDbEntity
  8
0
100
AcDbSpline
 62
6
  6
CONTINUOUS
 70
0
 71
3
 72
25
 73
21
 74
0
 42
0.0000001
 43
0.0000001
 44
0.0000000001
 40
0.0
 40
0.0
 40
0.0
 40
0.0
 40
0.0044091072
 40
0.0099404099
 40
0.0172150591
 40
0.026503523
 40
0.0379094733
 40
0.051470124
 40
0.0671931967
 40
0.0850713063
 40
0.1272090314
 40
0.1775609095
 40
0.2356766787
 40
0.3010692259
 40
0.3731072733
 40
0.4510901258
 40
0.534303289
 40
0.6219716447
 40
0.8074384038
 40
1.0
 40
1.0
 40
1.0
 40
1.0
 10
4.683195482
 20
8.5134853995
 30
0.0
 10
4.6831955626
 20
8.5136714373
 30
0.0
 10
4.6830610168
 20
8.5140917528
 30
0.0
 10
4.682558728
 20
8.5146322828
 30
0.0
 10
4.6817838352
 20
8.5151575891
 30
0.0
 10
4.6807210907
 20
8.5156767212
 30
0.0
 10
4.6793698937
 20
8.516193082
 30
0.0
 10
4.6777301632
 20
8.5167047165
 30
0.0
 10
4.675804989
 20
8.5172102684
 30
0.0
 10
4.6726869196
 20
8.5179128087
 30
0.0
 10
4.6681023106
 20
8.5187405335
 30
0.0
 10
4.6618116221
 20
8.5196452036
 30
0.0
 10
4.6545245043
 20
8.5204957438
 30
0.0
 10
4.6463106757
 20
8.5212815506
 30
0.0
 10
4.6372492233
 20
8.5219952049
 30
0.0
 10
4.6274283324
 20
8.5226295468
 30
0.0
 10
4.6169417864
 20
8.5231769105
 30
0.0
 10
4.601918538
 20
8.5237961998
 30
0.0
 10
4.5822743316
 20
8.5243065395
 30
0.0
 10
4.5663235079
 20
8.5244424743
 30
0.0
 10
4.5581985652
 20
8.5244424743
 30
0.0
  0
SPLINE
  5
540
100
AcDbEntity
  8
0
100
AcDbSpline
 62
6
  6
CONTINUOUS
 70
0
 71
3
 72
25
 73
21
 74
0
 42
0.0000001
 43
0.0000001
 44
0.0000000001
 40
0.0
 40
0.0
 40
0.0
 40
0.0
 40
0.192560402
 40
0.3780171274
 40
0.4656799957
 40
0.5488886055
 40
0.6268697159
 40
0.6989072166
 40
0.7642975904
 40
0.8224155259
 40
0.8727718521
 40
0.9149111744
 40
0.9327917169
 40
0.9485183645
 40
0.9620827562
 40
0.9734916634
 40
0.9827814246
 40
0.9900568581
 40
0.9955899078
 40
1.0
 40
1.0
 40
1.0
 40
1.0
 10
4.5581985652
 20
8.4228368179
 30
0.0
 10
4.5500737121
 20
8.4228368179
 30
0.0
 10
4.5341234388
 20
8.4229727343
 30
0.0
 10
4.5144800326
 20
8.4234830515
 30
0.0
 10
4.499457701
 20
8.4241022538
 30
0.0
 10
4.4889717019
 20
8.4246495865
 30
0.0
 10
4.4791511435
 20
8.4252838509
 30
0.0
 10
4.4700899133
 20
8.4259973738
 30
0.0
 10
4.4618761477
 20
8.426783181
 30
0.0
 10
4.4545888717
 20
8.4276336587
 30
0.0
 10
4.4482978396
 20
8.4285381703
 30
0.0
 10
4.4437129037
 20
8.4293659703
 30
0.0
 10
4.4405945169
 20
8.4300684866
 30
0.0
 10
4.4386689231
 20
8.4305740197
 30
0.0
 10
4.4370287413
 20
8.4310856335
 30
0.0
 10
4.4356771784
 20
8.4316019605
 30
0.0
 10
4.4346142011
 20
8.4321210995
 30
0.0
 10
4.4338391841
 20
8.432646504
 30
0.0
 10
4.4333366579
 20
8.4331869543
 30
0.0
 10
4.4332017289
 20
8.4336072448
 30
0.0
 10
4.4332016483
 20
8.4337933233
 30
0.0
  0
SPLINE
  5
541
100
AcDbEntity
  8
0
100
AcDbSpline
 62
6
  6
CONTINUOUS
 70
0
 71
3
 72
28
 73
24
 74
0
 42
0.0000001
 43
0.0000001
 44
0.0000000001
 40
0.0
 40
0.0
 40
0.0
 40
0.0
 40
0.1926124315
 40
0.3779685817
 40
0.4656242577
 40
0.5488441739
 40
0.6268489965
 40
0.6988742598
 40
0.7642491894
 40
0.8223762737
 40
0.8727161134
 40
0.8948370931
 40
0.9148627186
 40
0.9327506558
 40
0.9484751018
 40
0.9620322263
 40
0.9734340163
 40
0.982721679
 40
0.9900000712
 40
0.9929653624
 40
0.9955532098
 40
0.9978552254
 40
1.0
 40
1.0
 40
1.0
 40
1.0
 10
4.5581985652
 20
8.9717133816
 30
0.0
 10
4.541943346
 20
8.9717133816
 30
0.0
 10
4.5100446767
 20
8.9714425365
 30
0.0
 10
4.4707598966
 20
8.9704205217
 30
0.0
 10
4.4407212652
 20
8.9691829502
 30
0.0
 10
4.4197455232
 20
8.9680872703
 30
0.0
 10
4.4001010272
 20
8.9668200309
 30
0.0
 10
4.381977707
 20
8.9653924323
 30
0.0
 10
4.3655505933
 20
8.9638199447
 30
0.0
 10
4.3509771675
 20
8.9621199618
 30
0.0
 10
4.3400663377
 20
8.9605521076
 30
0.0
 10
4.3323749184
 20
8.9592209685
 30
0.0
 10
4.3274027781
 20
8.9582448633
 30
0.0
 10
4.3229860376
 20
8.9572500485
 30
0.0
 10
4.3191346133
 20
8.9562390314
 30
0.0
 10
4.3158558796
 20
8.9552155687
 30
0.0
 10
4.3131530871
 20
8.9541827628
 30
0.0
 10
4.3110305561
 20
8.9531438987
 30
0.0
 10
4.3096535615
 20
8.9522164084
 30
0.0
 10
4.3088843024
 20
8.9514492137
 30
0.0
 10
4.3084953451
 20
8.9509075852
 30
0.0
 10
4.3082566663
 20
8.9503581167
 30
0.0
 10
4.3082018875
 20
8.9499811115
 30
0.0
 10
4.3082018438
 20
8.9498001067
 30
0.0
  0
SPLINE
  5
542
100
AcDbEntity
  8
0
100
AcDbSpline
 62
6
  6
CONTINUOUS
 70
0
 71
3
 72
25
 73
21
 74
0
 42
0.0000001
 43
0.0000001
 44
0.0000000001
 40
0.0
 40
0.0
 40
0.0
 40
0.0
 40
0.192560402
 40
0.3780171274
 40
0.4656799957
 40
0.5488886055
 40
0.6268697159
 40
0.6989072166
 40
0.7642975904
 40
0.8224155259
 40
0.8727718521
 40
0.9149111744
 40
0.9327917169
 40
0.9485183645
 40
0.9620827562
 40
0.9734916634
 40
0.9827814246
 40
0.9900568581
 40
0.9955899078
 40
1.0
 40
1.0
 40
1.0
 40
1.0
 10
4.5581985652
 20
8.5244424743
 30
0.0
 10
4.5500737121
 20
8.5244424743
 30
0.0
 10
4.5341234388
 20
8.5243065579
 30
0.0
 10
4.5144800326
 20
8.5237962407
 30
0.0
 10
4.499457701
 20
8.5231770384
 30
0.0
 10
4.4889717019
 20
8.5226297057
 30
0.0
 10
4.4791511435
 20
8.5219954413
 30
0.0
 10
4.4700899133
 20
8.5212819183
 30
0.0
 10
4.4618761477
 20
8.5204961112
 30
0.0
 10
4.4545888717
 20
8.5196456334
 30
0.0
 10
4.4482978396
 20
8.5187411219
 30
0.0
 10
4.4437129037
 20
8.5179133219
 30
0.0
 10
4.4405945169
 20
8.5172108055
 30
0.0
 10
4.4386689231
 20
8.5167052724
 30
0.0
 10
4.4370287413
 20
8.5161936587
 30
0.0
 10
4.4356771784
 20
8.5156773316
 30
0.0
 10
4.4346142011
 20
8.5151581926
 30
0.0
 10
4.4338391841
 20
8.5146327882
 30
0.0
 10
4.4333366579
 20
8.5140923379
 30
0.0
 10
4.4332017289
 20
8.5136720474
 30
0.0
 10
4.4332016483
 20
8.5134859689
 30
0.0
  0
SPLINE
  5
543
100
AcDbEntity
  8
0
100
AcDbSpline
 62
6
  6
CONTINUOUS
 70
0
 71
3
 72
25
 73
21
 74
0
 42
0.0000001
 43
0.0000001
 44
0.0000000001
 40
0.0
 40
0.0
 40
0.0
 40
0.0
 40
0.0044091072
 40
0.0099404099
 40
0.0172150591
 40
0.026503523
 40
0.0379094733
 40
0.051470124
 40
0.0671931967
 40
0.0850713063
 40
0.1272090314
 40
0.1775609095
 40
0.2356766787
 40
0.3010692259
 40
0.3731072733
 40
0.4510901258
 40
0.534303289
 40
0.6219716447
 40
0.8074384038
 40
1.0
 40
1.0
 40
1.0
 40
1.0
 10
4.4332016483
 20
8.4337933233
 30
0.0
 10
4.4332015678
 20
8.4339793611
 30
0.0
 10
4.4333361136
 20
8.4343996766
 30
0.0
 10
4.4338384024
 20
8.4349402066
 30
0.0
 10
4.4346132951
 20
8.4354655129
 30
0.0
 10
4.4356760396
 20
8.435984645
 30
0.0
 10
4.4370272367
 20
8.4365010058
 30
0.0
 10
4.4386669671
 20
8.4370126403
 30
0.0
 10
4.4405921414
 20
8.4375181922
 30
0.0
 10
4.4437102108
 20
8.4382207325
 30
0.0
 10
4.4482948198
 20
8.4390484574
 30
0.0
 10
4.4545855082
 20
8.4399531274
 30
0.0
 10
4.4618726261
 20
8.4408036676
 30
0.0
 10
4.4700864546
 20
8.4415894744
 30
0.0
 10
4.4791479071
 20
8.4423031287
 30
0.0
 10
4.488968798
 20
8.4429374706
 30
0.0
 10
4.499455344
 20
8.4434848343
 30
0.0
 10
4.5144785924
 20
8.4441041236
 30
0.0
 10
4.5341227987
 20
8.4446144633
 30
0.0
 10
4.5500736225
 20
8.4447503981
 30
0.0
 10
4.5581985652
 20
8.4447503981
 30
0.0
  0
SPLINE
  5
544
100
AcDbEntity
  8
0
100
AcDbSpline
 62
6
  6
CONTINUOUS
 70
0
 71
3
 72
25
 73
21
 74
0
 42
0.0000001
 43
0.0000001
 44
0.0000000001
 40
0.0
 40
0.0
 40
0.0
 40
0.0
 40
0.192560402
 40
0.3780171274
 40
0.4656799957
 40
0.5488886055
 40
0.6268697159
 40
0.6989072166
 40
0.7642975904
 40
0.8224155259
 40
0.8727718521
 40
0.9149111744
 40
0.9327917169
 40
0.9485183645
 40
0.9620827562
 40
0.9734916634
 40
0.9827814246
 40
0.9900568581
 40
0.9955899078
 40
1.0
 40
1.0
 40
1.0
 40
1.0
 10
4.5581985652
 20
8.4447503981
 30
0.0
 10
4.5663234183
 20
8.4447503981
 30
0.0
 10
4.5822736915
 20
8.4446144817
 30
0.0
 10
4.6019170977
 20
8.4441041645
 30
0.0
 10
4.6169394293
 20
8.4434849622
 30
0.0
 10
4.6274254284
 20
8.4429376295
 30
0.0
 10
4.6372459869
 20
8.4423033651
 30
0.0
 10
4.6463072171
 20
8.4415898421
 30
0.0
 10
4.6545209826
 20
8.440804035
 30
0.0
 10
4.6618082587
 20
8.4399535572
 30
0.0
 10
4.6680992907
 20
8.4390490457
 30
0.0
 10
4.6726842267
 20
8.4382212457
 30
0.0
 10
4.6758026135
 20
8.4375187293
 30
0.0
 10
4.6777282072
 20
8.4370131962
 30
0.0
 10
4.6793683891
 20
8.4365015825
 30
0.0
 10
4.680719952
 20
8.4359852554
 30
0.0
 10
4.6817829293
 20
8.4354661164
 30
0.0
 10
4.6825579462
 20
8.434940712
 30
0.0
 10
4.6830604724
 20
8.4344002617
 30
0.0
 10
4.6831954015
 20
8.4339799712
 30
0.0
 10
4.683195482
 20
8.4337938927
 30
0.0
  0
SPLINE
  5
545
100
AcDbEntity
  8
0
100
AcDbSpline
 62
6
  6
CONTINUOUS
 70
0
 71
3
 72
11
 73
7
 74
0
 42
0.0000001
 43
0.0000001
 44
0.0000000001
 40
0.0
 40
0.0
 40
0.0
 40
0.0
 40
0.3263097698
 40
0.5937415795
 40
0.8121046987
 40
1.0
 40
1.0
 40
1.0
 40
1.0
 10
9.3043389436
 20
7.9354962466
 30
0.0
 10
9.3044386564
 20
7.935333262
 30
0.0
 10
9.3046345331
 20
7.9350447533
 30
0.0
 10
9.3049604946
 20
7.9346949936
 30
0.0
 10
9.3052927921
 20
7.9344727877
 30
0.0
 10
9.3055320646
 20
7.934417621
 30
0.0
 10
9.3056420845
 20
7.934417754
 30
0.0
  0
SPLINE
  5
546
100
AcDbEntity
  8
0
100
AcDbSpline
 62
6
  6
CONTINUOUS
 70
0
 71
3
 72
15
 73
11
 74
0
 42
0.0000001
 43
0.0000001
 44
0.0000000001
 40
0.0
 40
0.0
 40
0.0
 40
0.0
 40
0.1642208264
 40
0.2988280389
 40
0.408748762
 40
0.5033239006
 40
0.5971272351
 40
0.705267176
 40
0.8377840652
 40
1.0
 40
1.0
 40
1.0
 40
1.0
 10
9.2543389567
 20
7.9354962252
 30
0.0
 10
9.2544386138
 20
7.9353333333
 30
0.0
 10
9.2546344138
 20
7.9350449723
 30
0.0
 10
9.2549600695
 20
7.9346953158
 30
0.0
 10
9.2552924227
 20
7.934473115
 30
0.0
 10
9.2556403433
 20
7.9343922514
 30
0.0
 10
9.2559865632
 20
7.934472436
 30
0.0
 10
9.2563121737
 20
7.9346956539
 30
0.0
 10
9.2566270247
 20
7.9350459351
 30
0.0
 10
9.2568147809
 20
7.9353339101
 30
0.0
 10
9.2569103266
 20
7.9354965489
 30
0.0
  0
SPLINE
  5
547
100
AcDbEntity
  8
0
100
AcDbSpline
 62
6
  6
CONTINUOUS
 70
0
 71
3
 72
15
 73
11
 74
0
 42
0.0000001
 43
0.0000001
 44
0.0000000001
 40
0.0
 40
0.0
 40
0.0
 40
0.0
 40
0.161960812
 40
0.2942247864
 40
0.4022564727
 40
0.4961421196
 40
0.5908349194
 40
0.7008162603
 40
0.8355132702
 40
1.0
 40
1.0
 40
1.0
 40
1.0
 10
9.2814665259
 20
7.8921177424
 30
0.0
 10
9.2814046571
 20
7.8920119484
 30
0.0
 10
9.2812828918
 20
7.8918247128
 30
0.0
 10
9.281078095
 20
7.8915972564
 30
0.0
 10
9.2808659376
 20
7.8914527031
 30
0.0
 10
9.2806405236
 20
7.8914010696
 30
0.0
 10
9.2804139287
 20
7.8914533432
 30
0.0
 10
9.2801970498
 20
7.891597408
 30
0.0
 10
9.2799842465
 20
7.8918245578
 30
0.0
 10
9.2798561216
 20
7.8920120516
 30
0.0
 10
9.2797908374
 20
7.8921180245
 30
0.0
  0
SPLINE
  5
548
100
AcDbEntity
  8
0
100
AcDbSpline
 62
6
  6
CONTINUOUS
 70
0
 71
3
 72
15
 73
11
 74
0
 42
0.0000001
 43
0.0000001
 44
0.0000000001
 40
0.0
 40
0.0
 40
0.0
 40
0.0
 40
0.161960812
 40
0.2942247864
 40
0.4022564727
 40
0.4961421196
 40
0.5908349194
 40
0.7008162603
 40
0.8355132702
 40
1.0
 40
1.0
 40
1.0
 40
1.0
 10
9.2314665259
 20
7.8921177424
 30
0.0
 10
9.2314046571
 20
7.8920119484
 30
0.0
 10
9.2312828918
 20
7.8918247128
 30
0.0
 10
9.231078095
 20
7.8915972564
 30
0.0
 10
9.2308659376
 20
7.8914527031
 30
0.0
 10
9.2306405236
 20
7.8914010696
 30
0.0
 10
9.2304139287
 20
7.8914533432
 30
0.0
 10
9.2301970498
 20
7.891597408
 30
0.0
 10
9.2299842465
 20
7.8918245578
 30
0.0
 10
9.2298561216
 20
7.8920120516
 30
0.0
 10
9.2297908374
 20
7.8921180245
 30
0.0
  0
SPLINE
  5
549
100
AcDbEntity
  8
0
100
AcDbSpline
 62
6
  6
CONTINUOUS
 70
0
 71
3
 72
15
 73
11
 74
0
 42
0.0000001
 43
0.0000001
 44
0.0000000001
 40
0.0
 40
0.0
 40
0.0
 40
0.0
 40
0.1642208264
 40
0.2988280389
 40
0.408748762
 40
0.5033239006
 40
0.5971272351
 40
0.705267176
 40
0.8377840652
 40
1.0
 40
1.0
 40
1.0
 40
1.0
 10
9.2043389567
 20
7.9354962252
 30
0.0
 10
9.2044386138
 20
7.9353333333
 30
0.0
 10
9.2046344138
 20
7.9350449723
 30
0.0
 10
9.2049600695
 20
7.9346953158
 30
0.0
 10
9.2052924227
 20
7.934473115
 30
0.0
 10
9.2056403433
 20
7.9343922514
 30
0.0
 10
9.2059865632
 20
7.934472436
 30
0.0
 10
9.2063121737
 20
7.9346956539
 30
0.0
 10
9.2066270247
 20
7.9350459351
 30
0.0
 10
9.2068147809
 20
7.9353339101
 30
0.0
 10
9.2069103266
 20
7.9354965489
 30
0.0
  0
SPLINE
  5
54A
100
AcDbEntity
  8
0
100
AcDbSpline
 62
6
  6
CONTINUOUS
 70
0
 71
3
 72
15
 73
11
 74
0
 42
0.0000001
 43
0.0000001
 44
0.0000000001
 40
0.0
 40
0.0
 40
0.0
 40
0.0
 40
0.161960812
 40
0.2942247864
 40
0.4022564727
 40
0.4961421196
 40
0.5908349194
 40
0.7008162603
 40
0.8355132702
 40
1.0
 40
1.0
 40
1.0
 40
1.0
 10
9.1814665259
 20
7.8921177424
 30
0.0
 10
9.1814046571
 20
7.8920119484
 30
0.0
 10
9.1812828918
 20
7.8918247128
 30
0.0
 10
9.181078095
 20
7.8915972564
 30
0.0
 10
9.1808659376
 20
7.8914527031
 30
0.0
 10
9.1806405236
 20
7.8914010696
 30
0.0
 10
9.1804139287
 20
7.8914533432
 30
0.0
 10
9.1801970498
 20
7.891597408
 30
0.0
 10
9.1799842465
 20
7.8918245578
 30
0.0
 10
9.1798561216
 20
7.8920120516
 30
0.0
 10
9.1797908374
 20
7.8921180245
 30
0.0
  0
SPLINE
  5
54B
100
AcDbEntity
  8
0
100
AcDbSpline
 62
6
  6
CONTINUOUS
 70
0
 71
3
 72
15
 73
11
 74
0
 42
0.0000001
 43
0.0000001
 44
0.0000000001
 40
0.0
 40
0.0
 40
0.0
 40
0.0
 40
0.1642212252
 40
0.2988289006
 40
0.4087500886
 40
0.5033255597
 40
0.5971289234
 40
0.7052685506
 40
0.8377848541
 40
1.0
 40
1.0
 40
1.0
 40
1.0
 10
9.1543389567
 20
7.9354962252
 30
0.0
 10
9.1544386134
 20
7.935333334
 30
0.0
 10
9.1546344126
 20
7.935044974
 30
0.0
 10
9.1549600667
 20
7.9346953185
 30
0.0
 10
9.1552924182
 20
7.9344731174
 30
0.0
 10
9.1556403366
 20
7.9343922517
 30
0.0
 10
9.1559865551
 20
7.9344724324
 30
0.0
 10
9.1563121643
 20
7.9346956457
 30
0.0
 10
9.156627014
 20
7.9350459212
 30
0.0
 10
9.1568147694
 20
7.9353338921
 30
0.0
 10
9.1569103148
 20
7.9354965287
 30
0.0
  0
SPLINE
  5
54C
100
AcDbEntity
  8
0
100
AcDbSpline
 62
6
  6
CONTINUOUS
 70
0
 71
3
 72
15
 73
11
 74
0
 42
0.0000001
 43
0.0000001
 44
0.0000000001
 40
0.0
 40
0.0
 40
0.0
 40
0.0
 40
0.1619538832
 40
0.2942118694
 40
0.4022392518
 40
0.4961233975
 40
0.5908180776
 40
0.700803851
 40
0.8355067091
 40
1.0
 40
1.0
 40
1.0
 40
1.0
 10
9.1298175811
 20
7.8921176667
 30
0.0
 10
9.1298794499
 20
7.8920118787
 30
0.0
 10
9.1300012153
 20
7.8918246547
 30
0.0
 10
9.130206013
 20
7.8915972165
 30
0.0
 10
9.1304181731
 20
7.8914526816
 30
0.0
 10
9.1306435893
 20
7.8914010698
 30
0.0
 10
9.1308701826
 20
7.8914533646
 30
0.0
 10
9.13108706
 20
7.8915974472
 30
0.0
 10
9.1312998631
 20
7.8918246144
 30
0.0
 10
9.1314279885
 20
7.8920121192
 30
0.0
 10
9.1314932729
 20
7.8921180978
 30
0.0
  0
SPLINE
  5
54D
100
AcDbEntity
  8
0
100
AcDbSpline
 62
6
  6
CONTINUOUS
 70
0
 71
3
 72
15
 73
11
 74
0
 42
0.0000001
 43
0.0000001
 44
0.0000000001
 40
0.0
 40
0.0
 40
0.0
 40
0.0
 40
0.1642220331
 40
0.298830314
 40
0.4087518374
 40
0.5033273005
 40
0.5971303329
 40
0.7052694731
 40
0.8377852832
 40
1.0
 40
1.0
 40
1.0
 40
1.0
 10
9.1043389436
 20
7.9354962466
 30
0.0
 10
9.1044386008
 20
7.9353333529
 30
0.0
 10
9.104634401
 20
7.9350449886
 30
0.0
 10
9.1049600566
 20
7.9346953271
 30
0.0
 10
9.1052924095
 20
7.9344731211
 30
0.0
 10
9.1056403296
 20
7.9343922514
 30
0.0
 10
9.1059865503
 20
7.9344724299
 30
0.0
 10
9.1063121615
 20
7.9346956429
 30
0.0
 10
9.1066270128
 20
7.9350459194
 30
0.0
 10
9.106814769
 20
7.9353338914
 30
0.0
 10
9.1069103148
 20
7.9354965287
 30
0.0
  0
SPLINE
  5
54E
100
AcDbEntity
  8
0
100
AcDbSpline
 62
6
  6
CONTINUOUS
 70
0
 71
3
 72
15
 73
11
 74
0
 42
0.0000001
 43
0.0000001
 44
0.0000000001
 40
0.0
 40
0.0
 40
0.0
 40
0.0
 40
0.1619538832
 40
0.2942118694
 40
0.4022392518
 40
0.4961233975
 40
0.5908180776
 40
0.700803851
 40
0.8355067091
 40
1.0
 40
1.0
 40
1.0
 40
1.0
 10
9.0798175811
 20
7.8921176667
 30
0.0
 10
9.0798794499
 20
7.8920118787
 30
0.0
 10
9.0800012153
 20
7.8918246547
 30
0.0
 10
9.080206013
 20
7.8915972165
 30
0.0
 10
9.0804181731
 20
7.8914526816
 30
0.0
 10
9.0806435893
 20
7.8914010698
 30
0.0
 10
9.0808701826
 20
7.8914533646
 30
0.0
 10
9.08108706
 20
7.8915974472
 30
0.0
 10
9.0812998631
 20
7.8918246144
 30
0.0
 10
9.0814279885
 20
7.8920121192
 30
0.0
 10
9.0814932729
 20
7.8921180978
 30
0.0
  0
SPLINE
  5
54F
100
AcDbEntity
  8
0
100
AcDbSpline
 62
6
  6
CONTINUOUS
 70
0
 71
3
 72
15
 73
11
 74
0
 42
0.0000001
 43
0.0000001
 44
0.0000000001
 40
0.0
 40
0.0
 40
0.0
 40
0.0
 40
0.1642220331
 40
0.298830314
 40
0.4087518374
 40
0.5033273005
 40
0.5971303329
 40
0.7052694731
 40
0.8377852832
 40
1.0
 40
1.0
 40
1.0
 40
1.0
 10
9.0543389436
 20
7.9354962466
 30
0.0
 10
9.0544386008
 20
7.9353333529
 30
0.0
 10
9.054634401
 20
7.9350449886
 30
0.0
 10
9.0549600566
 20
7.9346953271
 30
0.0
 10
9.0552924095
 20
7.9344731211
 30
0.0
 10
9.0556403296
 20
7.9343922514
 30
0.0
 10
9.0559865503
 20
7.9344724299
 30
0.0
 10
9.0563121615
 20
7.9346956429
 30
0.0
 10
9.0566270128
 20
7.9350459194
 30
0.0
 10
9.056814769
 20
7.9353338914
 30
0.0
 10
9.0569103148
 20
7.9354965287
 30
0.0
  0
SPLINE
  5
550
100
AcDbEntity
  8
0
100
AcDbSpline
 62
6
  6
CONTINUOUS
 70
0
 71
3
 72
15
 73
11
 74
0
 42
0.0000001
 43
0.0000001
 44
0.0000000001
 40
0.0
 40
0.0
 40
0.0
 40
0.0
 40
0.1619538832
 40
0.2942118694
 40
0.4022392518
 40
0.4961233975
 40
0.5908180776
 40
0.700803851
 40
0.8355067091
 40
1.0
 40
1.0
 40
1.0
 40
1.0
 10
9.0298175811
 20
7.8921176667
 30
0.0
 10
9.0298794499
 20
7.8920118787
 30
0.0
 10
9.0300012153
 20
7.8918246547
 30
0.0
 10
9.030206013
 20
7.8915972165
 30
0.0
 10
9.0304181731
 20
7.8914526816
 30
0.0
 10
9.0306435893
 20
7.8914010698
 30
0.0
 10
9.0308701826
 20
7.8914533646
 30
0.0
 10
9.03108706
 20
7.8915974472
 30
0.0
 10
9.0312998631
 20
7.8918246144
 30
0.0
 10
9.0314279885
 20
7.8920121192
 30
0.0
 10
9.0314932729
 20
7.8921180978
 30
0.0
  0
SPLINE
  5
551
100
AcDbEntity
  8
0
100
AcDbSpline
 62
6
  6
CONTINUOUS
 70
0
 71
3
 72
15
 73
11
 74
0
 42
0.0000001
 43
0.0000001
 44
0.0000000001
 40
0.0
 40
0.0
 40
0.0
 40
0.0
 40
0.1642216896
 40
0.2988295719
 40
0.4087506951
 40
0.5033258719
 40
0.5971288791
 40
0.7052682894
 40
0.837784604
 40
1.0
 40
1.0
 40
1.0
 40
1.0
 10
9.0043389436
 20
7.9354962466
 30
0.0
 10
9.0044386012
 20
7.9353333523
 30
0.0
 10
9.004634402
 20
7.9350449871
 30
0.0
 10
9.004960059
 20
7.9346953248
 30
0.0
 10
9.0052924134
 20
7.9344731191
 30
0.0
 10
9.0056403353
 20
7.9343922512
 30
0.0
 10
9.0059865574
 20
7.934472433
 30
0.0
 10
9.0063121695
 20
7.93469565
 30
0.0
 10
9.006627022
 20
7.9350459313
 30
0.0
 10
9.0068147788
 20
7.9353339069
 30
0.0
 10
9.006910325
 20
7.9354965461
 30
0.0
  0
LINE
  5
552
100
AcDbEntity
  8
0
100
AcDbLine
 62
6
  6
CONTINUOUS
 10
9.0281151581
 20
8.0944459232
 11
9.0293251635
 21
8.0973107045
  0
LINE
  5
553
100
AcDbEntity
  8
0
100
AcDbLine
 62
6
  6
CONTINUOUS
 10
9.1818940725
 20
8.0973080238
 11
9.1830689454
 21
8.0944380409
  0
SPLINE
  5
554
100
AcDbEntity
  8
0
100
AcDbSpline
 62
6
  6
CONTINUOUS
 70
0
 71
3
 72
27
 73
23
 74
0
 42
0.0000001
 43
0.0000001
 44
0.0000000001
 40
0.0
 40
0.0
 40
0.0
 40
0.0
 40
0.015262433
 40
0.0337075328
 40
0.0797188078
 40
0.1369716654
 40
0.2038852718
 40
0.2786442561
 40
0.3591802202
 40
0.4433063052
 40
0.5287127414
 40
0.6130738289
 40
0.6940652298
 40
0.7694852018
 40
0.8372496072
 40
0.8955113528
 40
0.9205511359
 40
0.9426499797
 40
0.9617085566
 40
0.977642021
 40
0.9903974116
 40
1.0
 40
1.0
 40
1.0
 40
1.0
 10
9.1830689454
 20
8.0944380409
 30
0.0
 10
9.1833162456
 20
8.0936592556
 30
0.0
 10
9.183799907
 20
8.0919195057
 30
0.0
 10
9.1847636704
 20
8.0877610932
 30
0.0
 10
9.1859162972
 20
8.0813443148
 30
0.0
 10
9.1871901983
 20
8.0723223107
 30
0.0
 10
9.1884598702
 20
8.0617478219
 30
0.0
 10
9.1897400807
 20
8.0499204272
 30
0.0
 10
9.1910600258
 20
8.0371706386
 30
0.0
 10
9.1924167619
 20
8.0238515884
 30
0.0
 10
9.1937372941
 20
8.0103231174
 30
0.0
 10
9.195013864
 20
7.9969590284
 30
0.0
 10
9.196311267
 20
7.9841340979
 30
0.0
 10
9.197630202
 20
7.9722048084
 30
0.0
 10
9.1989420329
 20
7.9614998088
 30
0.0
 10
9.2000657057
 20
7.9534896942
 30
0.0
 10
9.2009788021
 20
7.9479209763
 30
0.0
 10
9.2016248288
 20
7.9444359121
 30
0.0
 10
9.2022701917
 20
7.9414479485
 30
0.0
 10
9.2029169772
 20
7.9389730139
 30
0.0
 10
9.2035692545
 20
7.9370287638
 30
0.0
 10
9.2040706622
 20
7.9359347591
 30
0.0
 10
9.2043389567
 20
7.9354962252
 30
0.0
  0
LINE
  5
555
100
AcDbEntity
  8
0
100
AcDbLine
 62
6
  6
CONTINUOUS
 10
9.2281151581
 20
8.0944459232
 11
9.2293251767
 21
8.0973107259
  0
SPLINE
  5
556
100
AcDbEntity
  8
0
100
AcDbSpline
 62
6
  6
CONTINUOUS
 70
0
 71
3
 72
33
 73
29
 74
0
 42
0.0000001
 43
0.0000001
 44
0.0000000001
 40
0.0
 40
0.0
 40
0.0
 40
0.0
 40
0.0031392981
 40
0.0071292715
 40
0.0119885264
 40
0.0177227875
 40
0.0318060105
 40
0.0493161456
 40
0.0701544096
 40
0.0942088431
 40
0.1213180618
 40
0.151279801
 40
0.1838886272
 40
0.2189150422
 40
0.2950943335
 40
0.3775183315
 40
0.4638016742
 40
0.5514496564
 40
0.6378324795
 40
0.7204500061
 40
0.7969212035
 40
0.8649534344
 40
0.8951464044
 40
0.9225049477
 40
0.946825291
 40
0.9679325618
 40
0.9856975499
 40
1.0
 40
1.0
 40
1.0
 40
1.0
 10
9.1797908374
 20
7.8921180245
 30
0.0
 10
9.1796560974
 20
7.8923367417
 30
0.0
 10
9.1793974443
 20
7.892862102
 30
0.0
 10
9.1790513958
 20
7.8937806601
 30
0.0
 10
9.1787041786
 20
7.8949231622
 30
0.0
 10
9.1782076955
 20
7.8968809536
 30
0.0
 10
9.1776178027
 20
7.8998798224
 30
0.0
 10
9.1769521352
 20
7.9041187383
 30
0.0
 10
9.1762900929
 20
7.9091825523
 30
0.0
 10
9.1756295248
 20
7.9150375059
 30
0.0
 10
9.1749666982
 20
7.9216429603
 30
0.0
 10
9.174296275
 20
7.9289508365
 30
0.0
 10
9.1736129912
 20
7.9369079605
 30
0.0
 10
9.1726555564
 20
7.9486373346
 30
0.0
 10
9.1714711355
 20
7.9644380161
 30
0.0
 10
9.1701575573
 20
7.984434166
 30
0.0
 10
9.168842838
 20
8.0053704939
 30
0.0
 10
9.1674789353
 20
8.0266283522
 30
0.0
 10
9.1660772495
 20
8.0475831174
 30
0.0
 10
9.1646855138
 20
8.0676218417
 30
0.0
 10
9.1633906578
 20
8.0861619626
 30
0.0
 10
9.1622854335
 20
8.1004151073
 30
0.0
 10
9.1613488321
 20
8.1106490455
 30
0.0
 10
9.1606650815
 20
8.1173138247
 30
0.0
 10
9.15997207
 20
8.1232297226
 30
0.0
 10
9.1592735863
 20
8.1283538421
 30
0.0
 10
9.1585820662
 20
8.1326502061
 30
0.0
 10
9.1580797709
 20
8.1352268183
 30
0.0
 10
9.1578216556
 20
8.1363683724
 30
0.0
  0
SPLINE
  5
557
100
AcDbEntity
  8
0
100
AcDbSpline
 62
6
  6
CONTINUOUS
 70
0
 71
3
 72
10
 73
6
 74
0
 42
0.0000001
 43
0.0000001
 44
0.0000000001
 40
0.0
 40
0.0
 40
0.0
 40
0.0
 40
0.6019977209
 40
0.8257748367
 40
1.0
 40
1.0
 40
1.0
 40
1.0
 10
9.1578216556
 20
8.1363683724
 30
0.0
 10
9.1576201436
 20
8.1372595897
 30
0.0
 10
9.1573201687
 20
8.138479302
 30
0.0
 10
9.1568192513
 20
8.1399127546
 30
0.0
 10
9.1565655438
 20
8.1404635357
 30
0.0
 10
9.156432207
 20
8.1406918989
 30
0.0
  0
SPLINE
  5
558
100
AcDbEntity
  8
0
100
AcDbSpline
 62
6
  6
CONTINUOUS
 70
0
 71
3
 72
10
 73
6
 74
0
 42
0.0000001
 43
0.0000001
 44
0.0000000001
 40
0.0
 40
0.0
 40
0.0
 40
0.0
 40
0.1755336763
 40
0.3998030043
 40
1.0
 40
1.0
 40
1.0
 40
1.0
 10
9.2047806056
 20
8.1406930153
 30
0.0
 10
9.2046386286
 20
8.1404657473
 30
0.0
 10
9.2043658805
 20
8.1399170127
 30
0.0
 10
9.2038278764
 20
8.1384873669
 30
0.0
 10
9.2035125642
 20
8.1372651185
 30
0.0
 10
9.203307288
 20
8.1363721458
 30
0.0
  0
SPLINE
  5
559
100
AcDbEntity
  8
0
100
AcDbSpline
 62
6
  6
CONTINUOUS
 70
0
 71
3
 72
10
 73
6
 74
0
 42
0.0000001
 43
0.0000001
 44
0.0000000001
 40
0.0
 40
0.0
 40
0.0
 40
0.0
 40
0.601881376
 40
0.8259559348
 40
1.0
 40
1.0
 40
1.0
 40
1.0
 10
9.1828598976
 20
7.8964993804
 30
0.0
 10
9.1826599365
 20
7.8955962714
 30
0.0
 10
9.1823607994
 20
7.8943597778
 30
0.0
 10
9.1818575771
 20
7.8929070096
 30
0.0
 10
9.1816015516
 20
7.8923486326
 30
0.0
 10
9.1814665259
 20
7.8921177424
 30
0.0
  0
SPLINE
  5
55A
100
AcDbEntity
  8
0
100
AcDbSpline
 62
6
  6
CONTINUOUS
 70
0
 71
3
 72
10
 73
6
 74
0
 42
0.0000001
 43
0.0000001
 44
0.0000000001
 40
0.0
 40
0.0
 40
0.0
 40
0.0
 40
0.1755367735
 40
0.3998072476
 40
1.0
 40
1.0
 40
1.0
 40
1.0
 10
9.1065035043
 20
8.1406929394
 30
0.0
 10
9.1066454758
 20
8.1404656685
 30
0.0
 10
9.1069182143
 20
8.1399169354
 30
0.0
 10
9.1074561997
 20
8.1384873136
 30
0.0
 10
9.1077715043
 20
8.1372650934
 30
0.0
 10
9.107976775
 20
8.1363721439
 30
0.0
  0
SPLINE
  5
55B
100
AcDbEntity
  8
0
100
AcDbSpline
 62
6
  6
CONTINUOUS
 70
0
 71
3
 72
31
 73
27
 74
0
 42
0.0000001
 43
0.0000001
 44
0.0000000001
 40
0.0
 40
0.0
 40
0.0
 40
0.0
 40
0.0142931249
 40
0.0320365578
 40
0.0531266406
 40
0.0774429763
 40
0.1350140054
 40
0.203067292
 40
0.2795456322
 40
0.3621686735
 40
0.448560388
 40
0.5362193117
 40
0.6225140294
 40
0.7049489666
 40
0.7811349669
 40
0.8487721764
 40
0.878737524
 40
0.905855134
 40
0.9299240517
 40
0.9507794157
 40
0.9683012192
 40
0.9823789507
 40
0.9880989303
 40
0.9929358538
 40
0.9968961983
 40
1.0
 40
1.0
 40
1.0
 40
1.0
 10
9.107976775
 20
8.1363721439
 30
0.0
 10
9.108238777
 20
8.1352324078
 30
0.0
 10
9.1087276205
 20
8.1326555357
 30
0.0
 10
9.1093765448
 20
8.1283571401
 30
0.0
 10
9.110026985
 20
8.1232309267
 30
0.0
 10
9.1109637603
 20
8.1148574034
 30
0.0
 10
9.1121324377
 20
8.1026444225
 30
0.0
 10
9.1135267666
 20
8.0861671392
 30
0.0
 10
9.114913143
 20
8.0676327497
 30
0.0
 10
9.1162103897
 20
8.0475882911
 30
0.0
 10
9.117506931
 20
8.0266273534
 30
0.0
 10
9.1188468068
 20
8.0053680632
 30
0.0
 10
9.1202295867
 20
7.9844359519
 30
0.0
 10
9.1216062388
 20
7.9644442866
 30
0.0
 10
9.1229027933
 20
7.9459773317
 30
0.0
 10
9.1240340093
 20
7.9318024171
 30
0.0
 10
9.1249940477
 20
7.9216429068
 30
0.0
 10
9.1256885281
 20
7.915039327
 30
0.0
 10
9.1263811093
 20
7.909185512
 30
0.0
 10
9.1270659987
 20
7.9041218902
 30
0.0
 10
9.1277400871
 20
7.8998829811
 30
0.0
 10
9.1283201142
 20
7.8968837493
 30
0.0
 10
9.1287934231
 20
7.89492417
 30
0.0
 10
9.1291205345
 20
7.8937816374
 30
0.0
 10
9.1294453486
 20
7.8928631921
 30
0.0
 10
9.1296893756
 20
7.8923368821
 30
0.0
 10
9.1298175811
 20
7.8921176667
 30
0.0
  0
LINE
  5
55C
100
AcDbEntity
  8
0
100
AcDbLine
 62
6
  6
CONTINUOUS
 10
9.131894064
 20
8.0973080381
 11
9.1330689454
 21
8.0944380409
  0
SPLINE
  5
55D
100
AcDbEntity
  8
0
100
AcDbSpline
 62
6
  6
CONTINUOUS
 70
0
 71
3
 72
27
 73
23
 74
0
 42
0.0000001
 43
0.0000001
 44
0.0000000001
 40
0.0
 40
0.0
 40
0.0
 40
0.0
 40
0.015262421
 40
0.0337075211
 40
0.0797188086
 40
0.1369716678
 40
0.203885271
 40
0.2786442553
 40
0.3591802202
 40
0.4433063052
 40
0.5287127412
 40
0.6130738288
 40
0.6940652297
 40
0.7694852017
 40
0.8372496071
 40
0.8955113528
 40
0.9205511359
 40
0.9426499797
 40
0.9617085566
 40
0.977642021
 40
0.9903974116
 40
1.0
 40
1.0
 40
1.0
 40
1.0
 10
9.1330689454
 20
8.0944380409
 30
0.0
 10
9.1333162452
 20
8.0936592561
 30
0.0
 10
9.1337999061
 20
8.0919195068
 30
0.0
 10
9.1347636696
 20
8.0877610942
 30
0.0
 10
9.1359162975
 20
8.0813443152
 30
0.0
 10
9.1371901985
 20
8.0723223105
 30
0.0
 10
9.1384598701
 20
8.0617478218
 30
0.0
 10
9.1397400807
 20
8.0499204273
 30
0.0
 10
9.1410600259
 20
8.0371706386
 30
0.0
 10
9.1424167619
 20
8.0238515884
 30
0.0
 10
9.1437372941
 20
8.0103231174
 30
0.0
 10
9.145013864
 20
7.9969590284
 30
0.0
 10
9.146311267
 20
7.9841340979
 30
0.0
 10
9.147630202
 20
7.9722048084
 30
0.0
 10
9.1489420329
 20
7.9614998088
 30
0.0
 10
9.1500657057
 20
7.9534896942
 30
0.0
 10
9.1509788021
 20
7.9479209763
 30
0.0
 10
9.1516248288
 20
7.9444359121
 30
0.0
 10
9.1522701917
 20
7.9414479485
 30
0.0
 10
9.1529169772
 20
7.9389730139
 30
0.0
 10
9.1535692545
 20
7.9370287638
 30
0.0
 10
9.1540706622
 20
7.9359347591
 30
0.0
 10
9.1543389567
 20
7.9354962252
 30
0.0
  0
LINE
  5
55E
100
AcDbEntity
  8
0
100
AcDbLine
 62
6
  6
CONTINUOUS
 10
9.1781151581
 20
8.0944459232
 11
9.1793251767
 21
8.0973107259
  0
SPLINE
  5
55F
100
AcDbEntity
  8
0
100
AcDbSpline
 62
6
  6
CONTINUOUS
 70
0
 71
3
 72
10
 73
6
 74
0
 42
0.0000001
 43
0.0000001
 44
0.0000000001
 40
0.0
 40
0.0
 40
0.0
 40
0.0
 40
0.1748152824
 40
0.3992049844
 40
1.0
 40
1.0
 40
1.0
 40
1.0
 10
9.1314932729
 20
7.8921180978
 30
0.0
 10
9.1316360072
 20
7.8923498035
 30
0.0
 10
9.1319089612
 20
7.89291093
 30
0.0
 10
9.1324472132
 20
7.8943725109
 30
0.0
 10
9.1327650862
 20
7.895620675
 30
0.0
 10
9.132973893
 20
7.8965323462
 30
0.0
  0
SPLINE
  5
560
100
AcDbEntity
  8
0
100
AcDbSpline
 62
6
  6
CONTINUOUS
 70
0
 71
3
 72
10
 73
6
 74
0
 42
0.0000001
 43
0.0000001
 44
0.0000000001
 40
0.0
 40
0.0
 40
0.0
 40
0.0
 40
0.6020022545
 40
0.8257779785
 40
1.0
 40
1.0
 40
1.0
 40
1.0
 10
9.1534624033
 20
8.1363683581
 30
0.0
 10
9.1536639201
 20
8.1372596002
 30
0.0
 10
9.1539639005
 20
8.1384793424
 30
0.0
 10
9.1544648346
 20
8.1399128215
 30
0.0
 10
9.1547185515
 20
8.1404636047
 30
0.0
 10
9.1548518941
 20
8.1406919651
 30
0.0
  0
SPLINE
  5
561
100
AcDbEntity
  8
0
100
AcDbSpline
 62
6
  6
CONTINUOUS
 70
0
 71
3
 72
33
 73
29
 74
0
 42
0.0000001
 43
0.0000001
 44
0.0000000001
 40
0.0
 40
0.0
 40
0.0
 40
0.0
 40
0.0031392981
 40
0.0071292715
 40
0.0119885264
 40
0.0177227875
 40
0.0318060105
 40
0.0493161456
 40
0.0701544096
 40
0.0942088432
 40
0.1213180618
 40
0.1512798011
 40
0.1838886272
 40
0.2189150423
 40
0.2950943336
 40
0.3775183316
 40
0.4638016743
 40
0.5514496566
 40
0.6378324795
 40
0.7204500063
 40
0.7969212048
 40
0.8649534332
 40
0.8951464011
 40
0.9225049449
 40
0.9468252938
 40
0.9679325735
 40
0.9856975641
 40
1.0
 40
1.0
 40
1.0
 40
1.0
 10
9.2797908374
 20
7.8921180245
 30
0.0
 10
9.2796560974
 20
7.8923367417
 30
0.0
 10
9.2793974443
 20
7.892862102
 30
0.0
 10
9.2790513958
 20
7.8937806601
 30
0.0
 10
9.2787041786
 20
7.8949231622
 30
0.0
 10
9.2782076955
 20
7.8968809536
 30
0.0
 10
9.2776178027
 20
7.8998798224
 30
0.0
 10
9.2769521352
 20
7.9041187383
 30
0.0
 10
9.2762900929
 20
7.9091825523
 30
0.0
 10
9.2756295248
 20
7.9150375059
 30
0.0
 10
9.2749666982
 20
7.9216429603
 30
0.0
 10
9.274296275
 20
7.9289508365
 30
0.0
 10
9.2736129912
 20
7.9369079605
 30
0.0
 10
9.2726555564
 20
7.9486373346
 30
0.0
 10
9.2714711355
 20
7.9644380161
 30
0.0
 10
9.2701575573
 20
7.984434166
 30
0.0
 10
9.268842838
 20
8.0053704939
 30
0.0
 10
9.2674789352
 20
8.0266283522
 30
0.0
 10
9.2660772495
 20
8.0475831174
 30
0.0
 10
9.2646855138
 20
8.0676218418
 30
0.0
 10
9.2633906576
 20
8.0861619626
 30
0.0
 10
9.2622854335
 20
8.100415107
 30
0.0
 10
9.2613488326
 20
8.1106490449
 30
0.0
 10
9.2606650819
 20
8.1173138244
 30
0.0
 10
9.2599720697
 20
8.1232297235
 30
0.0
 10
9.2592735848
 20
8.1283538442
 30
0.0
 10
9.2585820644
 20
8.1326502079
 30
0.0
 10
9.2580797699
 20
8.1352268193
 30
0.0
 10
9.2578216556
 20
8.1363683724
 30
0.0
  0
SPLINE
  5
562
100
AcDbEntity
  8
0
100
AcDbSpline
 62
6
  6
CONTINUOUS
 70
0
 71
3
 72
10
 73
6
 74
0
 42
0.0000001
 43
0.0000001
 44
0.0000000001
 40
0.0
 40
0.0
 40
0.0
 40
0.0
 40
0.6019976273
 40
0.8257746035
 40
1.0
 40
1.0
 40
1.0
 40
1.0
 10
9.2578216556
 20
8.1363683724
 30
0.0
 10
9.2576201448
 20
8.137259587
 30
0.0
 10
9.2573201722
 20
8.1384792956
 30
0.0
 10
9.2568192574
 20
8.1399127442
 30
0.0
 10
9.2565655506
 20
8.1404635238
 30
0.0
 10
9.256432214
 20
8.1406918866
 30
0.0
  0
SPLINE
  5
563
100
AcDbEntity
  8
0
100
AcDbSpline
 62
6
  6
CONTINUOUS
 70
0
 71
3
 72
10
 73
6
 74
0
 42
0.0000001
 43
0.0000001
 44
0.0000000001
 40
0.0
 40
0.0
 40
0.0
 40
0.0
 40
0.1755367735
 40
0.3998072476
 40
1.0
 40
1.0
 40
1.0
 40
1.0
 10
9.0565035043
 20
8.1406929394
 30
0.0
 10
9.0566454758
 20
8.1404656685
 30
0.0
 10
9.0569182143
 20
8.1399169354
 30
0.0
 10
9.0574561997
 20
8.1384873136
 30
0.0
 10
9.0577715043
 20
8.1372650934
 30
0.0
 10
9.057976775
 20
8.1363721439
 30
0.0
  0
SPLINE
  5
564
100
AcDbEntity
  8
0
100
AcDbSpline
 62
6
  6
CONTINUOUS
 70
0
 71
3
 72
31
 73
27
 74
0
 42
0.0000001
 43
0.0000001
 44
0.0000000001
 40
0.0
 40
0.0
 40
0.0
 40
0.0
 40
0.0142931249
 40
0.0320365578
 40
0.0531266406
 40
0.0774429763
 40
0.1350140054
 40
0.203067292
 40
0.2795456322
 40
0.3621686735
 40
0.448560388
 40
0.5362193117
 40
0.6225140294
 40
0.7049489666
 40
0.7811349669
 40
0.8487721764
 40
0.878737524
 40
0.905855134
 40
0.9299240517
 40
0.9507794157
 40
0.9683012192
 40
0.9823789507
 40
0.9880989303
 40
0.9929358538
 40
0.9968961983
 40
1.0
 40
1.0
 40
1.0
 40
1.0
 10
9.057976775
 20
8.1363721439
 30
0.0
 10
9.058238777
 20
8.1352324078
 30
0.0
 10
9.0587276205
 20
8.1326555357
 30
0.0
 10
9.0593765448
 20
8.1283571401
 30
0.0
 10
9.060026985
 20
8.1232309267
 30
0.0
 10
9.0609637603
 20
8.1148574034
 30
0.0
 10
9.0621324377
 20
8.1026444225
 30
0.0
 10
9.0635267666
 20
8.0861671392
 30
0.0
 10
9.064913143
 20
8.0676327497
 30
0.0
 10
9.0662103897
 20
8.0475882911
 30
0.0
 10
9.067506931
 20
8.0266273534
 30
0.0
 10
9.0688468068
 20
8.0053680632
 30
0.0
 10
9.0702295867
 20
7.9844359519
 30
0.0
 10
9.0716062388
 20
7.9644442866
 30
0.0
 10
9.0729027933
 20
7.9459773317
 30
0.0
 10
9.0740340093
 20
7.9318024171
 30
0.0
 10
9.0749940477
 20
7.9216429068
 30
0.0
 10
9.0756885281
 20
7.915039327
 30
0.0
 10
9.0763811093
 20
7.909185512
 30
0.0
 10
9.0770659987
 20
7.9041218902
 30
0.0
 10
9.0777400871
 20
7.8998829811
 30
0.0
 10
9.0783201142
 20
7.8968837493
 30
0.0
 10
9.0787934231
 20
7.89492417
 30
0.0
 10
9.0791205345
 20
7.8937816374
 30
0.0
 10
9.0794453486
 20
7.8928631921
 30
0.0
 10
9.0796893756
 20
7.8923368821
 30
0.0
 10
9.0798175811
 20
7.8921176667
 30
0.0
  0
LINE
  5
565
100
AcDbEntity
  8
0
100
AcDbLine
 62
6
  6
CONTINUOUS
 10
9.081894064
 20
8.0973080381
 11
9.0830689454
 21
8.0944380409
  0
SPLINE
  5
566
100
AcDbEntity
  8
0
100
AcDbSpline
 62
6
  6
CONTINUOUS
 70
0
 71
3
 72
27
 73
23
 74
0
 42
0.0000001
 43
0.0000001
 44
0.0000000001
 40
0.0
 40
0.0
 40
0.0
 40
0.0
 40
0.0152624132
 40
0.0337075023
 40
0.0797187585
 40
0.1369715764
 40
0.2038851312
 40
0.2786440636
 40
0.3591799769
 40
0.4433060149
 40
0.5287124123
 40
0.6130734736
 40
0.6940648642
 40
0.7694848445
 40
0.8372492795
 40
0.8955110773
 40
0.9205508952
 40
0.9426497787
 40
0.9617084001
 40
0.9776419136
 40
0.9903973571
 40
1.0
 40
1.0
 40
1.0
 40
1.0
 10
9.0830689454
 20
8.0944380409
 30
0.0
 10
9.083316245
 20
8.0936592566
 30
0.0
 10
9.0837999056
 20
8.0919195086
 30
0.0
 10
9.0847636685
 20
8.0877610993
 30
0.0
 10
9.0859162957
 20
8.0813443258
 30
0.0
 10
9.0871901961
 20
8.0723223289
 30
0.0
 10
9.088459867
 20
8.0617478494
 30
0.0
 10
9.0897400767
 20
8.0499204648
 30
0.0
 10
9.091060021
 20
8.0371706862
 30
0.0
 10
9.0924167561
 20
8.0238516454
 30
0.0
 10
9.0937372878
 20
8.0103231824
 30
0.0
 10
9.0950138571
 20
7.9969590996
 30
0.0
 10
9.0963112591
 20
7.9841341725
 30
0.0
 10
9.0976301933
 20
7.9722048833
 30
0.0
 10
9.0989420236
 20
7.9614998805
 30
0.0
 10
9.1000656958
 20
7.9534897607
 30
0.0
 10
9.1009787916
 20
7.9479210368
 30
0.0
 10
9.101624818
 20
7.9444359665
 30
0.0
 10
9.1022701804
 20
7.9414479961
 30
0.0
 10
9.1029169656
 20
7.9389730538
 30
0.0
 10
9.1035692424
 20
7.9370287949
 30
0.0
 10
9.1040706496
 20
7.935934784
 30
0.0
 10
9.1043389436
 20
7.9354962466
 30
0.0
  0
LINE
  5
567
100
AcDbEntity
  8
0
100
AcDbLine
 62
6
  6
CONTINUOUS
 10
9.1281151581
 20
8.0944459232
 11
9.1293251635
 21
8.0973107045
  0
SPLINE
  5
568
100
AcDbEntity
  8
0
100
AcDbSpline
 62
6
  6
CONTINUOUS
 70
0
 71
3
 72
10
 73
6
 74
0
 42
0.0000001
 43
0.0000001
 44
0.0000000001
 40
0.0
 40
0.0
 40
0.0
 40
0.0
 40
0.1755335741
 40
0.399802927
 40
1.0
 40
1.0
 40
1.0
 40
1.0
 10
9.3047806021
 20
8.1406930212
 30
0.0
 10
9.304638625
 20
8.1404657532
 30
0.0
 10
9.3043658773
 20
8.1399170178
 30
0.0
 10
9.3038278748
 20
8.1384873698
 30
0.0
 10
9.3035125638
 20
8.1372651197
 30
0.0
 10
9.303307288
 20
8.1363721458
 30
0.0
  0
SPLINE
  5
569
100
AcDbEntity
  8
0
100
AcDbSpline
 62
6
  6
CONTINUOUS
 70
0
 71
3
 72
10
 73
6
 74
0
 42
0.0000001
 43
0.0000001
 44
0.0000000001
 40
0.0
 40
0.0
 40
0.0
 40
0.0
 40
0.601881376
 40
0.8259559348
 40
1.0
 40
1.0
 40
1.0
 40
1.0
 10
9.2828598976
 20
7.8964993804
 30
0.0
 10
9.2826599365
 20
7.8955962714
 30
0.0
 10
9.2823607994
 20
7.8943597778
 30
0.0
 10
9.2818575771
 20
7.8929070096
 30
0.0
 10
9.2816015516
 20
7.8923486326
 30
0.0
 10
9.2814665259
 20
7.8921177424
 30
0.0
  0
SPLINE
  5
56A
100
AcDbEntity
  8
0
100
AcDbSpline
 62
6
  6
CONTINUOUS
 70
0
 71
3
 72
10
 73
6
 74
0
 42
0.0000001
 43
0.0000001
 44
0.0000000001
 40
0.0
 40
0.0
 40
0.0
 40
0.0
 40
0.1748152824
 40
0.3992049844
 40
1.0
 40
1.0
 40
1.0
 40
1.0
 10
9.0814932729
 20
7.8921180978
 30
0.0
 10
9.0816360072
 20
7.8923498035
 30
0.0
 10
9.0819089612
 20
7.89291093
 30
0.0
 10
9.0824472132
 20
7.8943725109
 30
0.0
 10
9.0827650862
 20
7.895620675
 30
0.0
 10
9.082973893
 20
7.8965323462
 30
0.0
  0
SPLINE
  5
56B
100
AcDbEntity
  8
0
100
AcDbSpline
 62
6
  6
CONTINUOUS
 70
0
 71
3
 72
10
 73
6
 74
0
 42
0.0000001
 43
0.0000001
 44
0.0000000001
 40
0.0
 40
0.0
 40
0.0
 40
0.0
 40
0.6020022545
 40
0.8257779785
 40
1.0
 40
1.0
 40
1.0
 40
1.0
 10
9.1034624033
 20
8.1363683581
 30
0.0
 10
9.1036639201
 20
8.1372596002
 30
0.0
 10
9.1039639005
 20
8.1384793424
 30
0.0
 10
9.1044648346
 20
8.1399128215
 30
0.0
 10
9.1047185515
 20
8.1404636047
 30
0.0
 10
9.1048518941
 20
8.1406919651
 30
0.0
  0
LINE
  5
56C
100
AcDbEntity
  8
0
100
AcDbLine
 62
6
  6
CONTINUOUS
 10
9.2818940725
 20
8.0973080238
 11
9.2830689454
 21
8.0944380409
  0
SPLINE
  5
56D
100
AcDbEntity
  8
0
100
AcDbSpline
 62
6
  6
CONTINUOUS
 70
0
 71
3
 72
27
 73
23
 74
0
 42
0.0000001
 43
0.0000001
 44
0.0000000001
 40
0.0
 40
0.0
 40
0.0
 40
0.0
 40
0.0152624252
 40
0.0337075139
 40
0.0797187577
 40
0.136971574
 40
0.2038851319
 40
0.2786440644
 40
0.3591799769
 40
0.4433060149
 40
0.5287124125
 40
0.6130734737
 40
0.6940648642
 40
0.7694848446
 40
0.8372492796
 40
0.8955110773
 40
0.9205508953
 40
0.9426497787
 40
0.9617084001
 40
0.9776419136
 40
0.9903973571
 40
1.0
 40
1.0
 40
1.0
 40
1.0
 10
9.2830689454
 20
8.0944380409
 30
0.0
 10
9.2833162454
 20
8.0936592561
 30
0.0
 10
9.2837999065
 20
8.0919195075
 30
0.0
 10
9.2847636693
 20
8.0877610982
 30
0.0
 10
9.2859162955
 20
8.0813443253
 30
0.0
 10
9.2871901959
 20
8.0723223291
 30
0.0
 10
9.2884598671
 20
8.0617478495
 30
0.0
 10
9.2897400768
 20
8.0499204648
 30
0.0
 10
9.2910600209
 20
8.0371706862
 30
0.0
 10
9.2924167561
 20
8.0238516454
 30
0.0
 10
9.2937372878
 20
8.0103231824
 30
0.0
 10
9.2950138571
 20
7.9969590996
 30
0.0
 10
9.2963112591
 20
7.9841341725
 30
0.0
 10
9.2976301933
 20
7.9722048833
 30
0.0
 10
9.2989420236
 20
7.9614998805
 30
0.0
 10
9.3000656958
 20
7.9534897607
 30
0.0
 10
9.3009787916
 20
7.9479210368
 30
0.0
 10
9.301624818
 20
7.9444359665
 30
0.0
 10
9.3022701804
 20
7.9414479961
 30
0.0
 10
9.3029169656
 20
7.9389730538
 30
0.0
 10
9.3035692424
 20
7.9370287949
 30
0.0
 10
9.3040706496
 20
7.935934784
 30
0.0
 10
9.3043389436
 20
7.9354962466
 30
0.0
  0
SPLINE
  5
56E
100
AcDbEntity
  8
0
100
AcDbSpline
 62
6
  6
CONTINUOUS
 70
0
 71
3
 72
10
 73
6
 74
0
 42
0.0000001
 43
0.0000001
 44
0.0000000001
 40
0.0
 40
0.0
 40
0.0
 40
0.0
 40
0.1755366714
 40
0.3998071703
 40
1.0
 40
1.0
 40
1.0
 40
1.0
 10
9.0065035078
 20
8.1406929454
 30
0.0
 10
9.0066454794
 20
8.1404656744
 30
0.0
 10
9.0069182175
 20
8.1399169405
 30
0.0
 10
9.0074562013
 20
8.1384873165
 30
0.0
 10
9.0077715047
 20
8.1372650945
 30
0.0
 10
9.007976775
 20
8.1363721439
 30
0.0
  0
SPLINE
  5
56F
100
AcDbEntity
  8
0
100
AcDbSpline
 62
6
  6
CONTINUOUS
 70
0
 71
3
 72
31
 73
27
 74
0
 42
0.0000001
 43
0.0000001
 44
0.0000000001
 40
0.0
 40
0.0
 40
0.0
 40
0.0
 40
0.0142931303
 40
0.0320365621
 40
0.0531266414
 40
0.0774429747
 40
0.1350140046
 40
0.2030672922
 40
0.279545632
 40
0.3621686733
 40
0.4485603879
 40
0.5362193116
 40
0.6225140293
 40
0.7049489665
 40
0.7811349669
 40
0.8487721763
 40
0.878737524
 40
0.905855134
 40
0.9299240517
 40
0.9507794156
 40
0.9683012192
 40
0.9823789507
 40
0.9880989303
 40
0.9929358538
 40
0.9968961983
 40
1.0
 40
1.0
 40
1.0
 40
1.0
 10
9.007976775
 20
8.1363721439
 30
0.0
 10
9.0082387763
 20
8.1352324072
 30
0.0
 10
9.0087276193
 20
8.1326555347
 30
0.0
 10
9.0093765441
 20
8.128357139
 30
0.0
 10
9.0100269849
 20
8.1232309263
 30
0.0
 10
9.0109637608
 20
8.1148574035
 30
0.0
 10
9.0121324377
 20
8.1026444226
 30
0.0
 10
9.0135267665
 20
8.0861671392
 30
0.0
 10
9.014913143
 20
8.0676327497
 30
0.0
 10
9.0162103897
 20
8.0475882911
 30
0.0
 10
9.017506931
 20
8.0266273535
 30
0.0
 10
9.0188468068
 20
8.0053680632
 30
0.0
 10
9.0202295867
 20
7.9844359519
 30
0.0
 10
9.0216062388
 20
7.9644442866
 30
0.0
 10
9.0229027933
 20
7.9459773317
 30
0.0
 10
9.0240340093
 20
7.9318024171
 30
0.0
 10
9.0249940477
 20
7.9216429068
 30
0.0
 10
9.0256885281
 20
7.915039327
 30
0.0
 10
9.0263811093
 20
7.909185512
 30
0.0
 10
9.0270659987
 20
7.9041218902
 30
0.0
 10
9.0277400871
 20
7.8998829811
 30
0.0
 10
9.0283201142
 20
7.8968837493
 30
0.0
 10
9.0287934231
 20
7.89492417
 30
0.0
 10
9.0291205345
 20
7.8937816374
 30
0.0
 10
9.0294453486
 20
7.8928631921
 30
0.0
 10
9.0296893756
 20
7.8923368821
 30
0.0
 10
9.0298175811
 20
7.8921176667
 30
0.0
  0
LINE
  5
570
100
AcDbEntity
  8
0
100
AcDbLine
 62
6
  6
CONTINUOUS
 10
9.031894064
 20
8.0973080381
 11
9.0330689454
 21
8.0944380409
  0
SPLINE
  5
571
100
AcDbEntity
  8
0
100
AcDbSpline
 62
6
  6
CONTINUOUS
 70
0
 71
3
 72
27
 73
23
 74
0
 42
0.0000001
 43
0.0000001
 44
0.0000000001
 40
0.0
 40
0.0
 40
0.0
 40
0.0
 40
0.0152624132
 40
0.0337075023
 40
0.0797187585
 40
0.1369715764
 40
0.2038851312
 40
0.2786440636
 40
0.3591799769
 40
0.4433060149
 40
0.5287124123
 40
0.6130734736
 40
0.6940648642
 40
0.7694848445
 40
0.8372492795
 40
0.8955110773
 40
0.9205508952
 40
0.9426497787
 40
0.9617084001
 40
0.9776419136
 40
0.9903973571
 40
1.0
 40
1.0
 40
1.0
 40
1.0
 10
9.0330689454
 20
8.0944380409
 30
0.0
 10
9.033316245
 20
8.0936592566
 30
0.0
 10
9.0337999056
 20
8.0919195086
 30
0.0
 10
9.0347636685
 20
8.0877610993
 30
0.0
 10
9.0359162957
 20
8.0813443258
 30
0.0
 10
9.0371901961
 20
8.0723223289
 30
0.0
 10
9.038459867
 20
8.0617478494
 30
0.0
 10
9.0397400767
 20
8.0499204648
 30
0.0
 10
9.041060021
 20
8.0371706862
 30
0.0
 10
9.0424167561
 20
8.0238516454
 30
0.0
 10
9.0437372878
 20
8.0103231824
 30
0.0
 10
9.0450138571
 20
7.9969590996
 30
0.0
 10
9.0463112591
 20
7.9841341725
 30
0.0
 10
9.0476301933
 20
7.9722048833
 30
0.0
 10
9.0489420236
 20
7.9614998805
 30
0.0
 10
9.0500656958
 20
7.9534897607
 30
0.0
 10
9.0509787916
 20
7.9479210368
 30
0.0
 10
9.051624818
 20
7.9444359665
 30
0.0
 10
9.0522701804
 20
7.9414479961
 30
0.0
 10
9.0529169656
 20
7.9389730538
 30
0.0
 10
9.0535692424
 20
7.9370287949
 30
0.0
 10
9.0540706496
 20
7.935934784
 30
0.0
 10
9.0543389436
 20
7.9354962466
 30
0.0
  0
LINE
  5
572
100
AcDbEntity
  8
0
100
AcDbLine
 62
6
  6
CONTINUOUS
 10
9.0781151581
 20
8.0944459232
 11
9.0793251635
 21
8.0973107045
  0
SPLINE
  5
573
100
AcDbEntity
  8
0
100
AcDbSpline
 62
6
  6
CONTINUOUS
 70
0
 71
3
 72
10
 73
6
 74
0
 42
0.0000001
 43
0.0000001
 44
0.0000000001
 40
0.0
 40
0.0
 40
0.0
 40
0.0
 40
0.1748152824
 40
0.3992049844
 40
1.0
 40
1.0
 40
1.0
 40
1.0
 10
9.0314932729
 20
7.8921180978
 30
0.0
 10
9.0316360072
 20
7.8923498035
 30
0.0
 10
9.0319089612
 20
7.89291093
 30
0.0
 10
9.0324472132
 20
7.8943725109
 30
0.0
 10
9.0327650862
 20
7.895620675
 30
0.0
 10
9.032973893
 20
7.8965323462
 30
0.0
  0
SPLINE
  5
574
100
AcDbEntity
  8
0
100
AcDbSpline
 62
6
  6
CONTINUOUS
 70
0
 71
3
 72
10
 73
6
 74
0
 42
0.0000001
 43
0.0000001
 44
0.0000000001
 40
0.0
 40
0.0
 40
0.0
 40
0.0
 40
0.6020022545
 40
0.8257779785
 40
1.0
 40
1.0
 40
1.0
 40
1.0
 10
9.0534624033
 20
8.1363683581
 30
0.0
 10
9.0536639201
 20
8.1372596002
 30
0.0
 10
9.0539639005
 20
8.1384793424
 30
0.0
 10
9.0544648346
 20
8.1399128215
 30
0.0
 10
9.0547185515
 20
8.1404636047
 30
0.0
 10
9.0548518941
 20
8.1406919651
 30
0.0
  0
SPLINE
  5
575
100
AcDbEntity
  8
0
100
AcDbSpline
 62
6
  6
CONTINUOUS
 70
0
 71
3
 72
12
 73
8
 74
0
 42
0.0000001
 43
0.0000001
 44
0.0000000001
 40
0.0
 40
0.0
 40
0.0
 40
0.0
 40
0.25137905
 40
0.5016947181
 40
0.6265127783
 40
0.7511580885
 40
1.0
 40
1.0
 40
1.0
 40
1.0
 10
9.6731483821
 20
5.7314190175
 30
0.0
 10
9.6782166581
 20
5.7466238456
 30
0.0
 10
9.6875091129
 20
5.7772540331
 30
0.0
 10
9.6964638746
 20
5.8162244935
 30
0.0
 10
9.7016720901
 20
5.8476707209
 30
0.0
 10
9.7054616471
 20
5.879221729
 30
0.0
 10
9.7066420312
 20
5.903053483
 30
0.0
 10
9.7066420312
 20
5.9189190175
 30
0.0
  0
LINE
  5
576
100
AcDbEntity
  8
0
100
AcDbLine
 62
6
  6
CONTINUOUS
 10
9.2318940725
 20
8.0973080238
 11
9.2330689454
 21
8.0944380409
  0
SPLINE
  5
577
100
AcDbEntity
  8
0
100
AcDbSpline
 62
6
  6
CONTINUOUS
 70
0
 71
3
 72
27
 73
23
 74
0
 42
0.0000001
 43
0.0000001
 44
0.0000000001
 40
0.0
 40
0.0
 40
0.0
 40
0.0
 40
0.015262433
 40
0.0337075328
 40
0.0797188078
 40
0.1369716654
 40
0.2038852718
 40
0.2786442561
 40
0.3591802202
 40
0.4433063052
 40
0.5287127414
 40
0.6130738289
 40
0.6940652298
 40
0.7694852018
 40
0.8372496072
 40
0.8955113528
 40
0.9205511359
 40
0.9426499797
 40
0.9617085566
 40
0.977642021
 40
0.9903974116
 40
1.0
 40
1.0
 40
1.0
 40
1.0
 10
9.2330689454
 20
8.0944380409
 30
0.0
 10
9.2333162456
 20
8.0936592556
 30
0.0
 10
9.233799907
 20
8.0919195057
 30
0.0
 10
9.2347636704
 20
8.0877610932
 30
0.0
 10
9.2359162972
 20
8.0813443148
 30
0.0
 10
9.2371901983
 20
8.0723223107
 30
0.0
 10
9.2384598702
 20
8.0617478219
 30
0.0
 10
9.2397400807
 20
8.0499204272
 30
0.0
 10
9.2410600258
 20
8.0371706386
 30
0.0
 10
9.2424167619
 20
8.0238515884
 30
0.0
 10
9.2437372941
 20
8.0103231174
 30
0.0
 10
9.245013864
 20
7.9969590284
 30
0.0
 10
9.246311267
 20
7.9841340979
 30
0.0
 10
9.247630202
 20
7.9722048084
 30
0.0
 10
9.2489420329
 20
7.9614998088
 30
0.0
 10
9.2500657057
 20
7.9534896942
 30
0.0
 10
9.2509788021
 20
7.9479209763
 30
0.0
 10
9.2516248288
 20
7.9444359121
 30
0.0
 10
9.2522701917
 20
7.9414479485
 30
0.0
 10
9.2529169772
 20
7.9389730139
 30
0.0
 10
9.2535692545
 20
7.9370287638
 30
0.0
 10
9.2540706622
 20
7.9359347591
 30
0.0
 10
9.2543389567
 20
7.9354962252
 30
0.0
  0
SPLINE
  5
578
100
AcDbEntity
  8
0
100
AcDbSpline
 62
6
  6
CONTINUOUS
 70
0
 71
3
 72
12
 73
8
 74
0
 42
0.0000001
 43
0.0000001
 44
0.0000000001
 40
0.0
 40
0.0
 40
0.0
 40
0.0
 40
0.2488365476
 40
0.373476469
 40
0.4982948461
 40
0.7486154647
 40
1.0
 40
1.0
 40
1.0
 40
1.0
 10
9.2686420312
 20
5.9189190175
 30
0.0
 10
9.2686420312
 20
5.9347842105
 30
0.0
 10
9.269820884
 20
5.9586154055
 30
0.0
 10
9.2736125315
 20
5.9901655063
 30
0.0
 10
9.2788201052
 20
6.0216117963
 30
0.0
 10
9.2877742796
 20
6.0605831385
 30
0.0
 10
9.2970672934
 20
6.0912138572
 30
0.0
 10
9.3021356802
 20
6.1064190175
 30
0.0
  0
SPLINE
  5
579
100
AcDbEntity
  8
0
100
AcDbSpline
 62
6
  6
CONTINUOUS
 70
0
 71
3
 72
12
 73
8
 74
0
 42
0.0000001
 43
0.0000001
 44
0.0000000001
 40
0.0
 40
0.0
 40
0.0
 40
0.0
 40
0.2513855748
 40
0.5017071572
 40
0.6265256494
 40
0.7511645621
 40
1.0
 40
1.0
 40
1.0
 40
1.0
 10
9.3021356802
 20
5.7314190175
 30
0.0
 10
9.2970672723
 20
5.7466242413
 30
0.0
 10
9.2877741764
 20
5.7772550696
 30
0.0
 10
9.2788200457
 20
5.8162265698
 30
0.0
 10
9.2736125928
 20
5.8476728791
 30
0.0
 10
9.2698205473
 20
5.8792228079
 30
0.0
 10
9.2686420312
 20
5.9030538946
 30
0.0
 10
9.2686420312
 20
5.9189190175
 30
0.0
  0
LINE
  5
57A
100
AcDbEntity
  8
0
100
AcDbLine
 62
6
  6
CONTINUOUS
 10
9.2781151581
 20
8.0944459232
 11
9.2793251733
 21
8.0973107316
  0
SPLINE
  5
57B
100
AcDbEntity
  8
0
100
AcDbSpline
 62
6
  6
CONTINUOUS
 70
0
 71
3
 72
33
 73
29
 74
0
 42
0.0000001
 43
0.0000001
 44
0.0000000001
 40
0.0
 40
0.0
 40
0.0
 40
0.0
 40
0.0031392981
 40
0.0071292715
 40
0.0119885264
 40
0.0177227875
 40
0.0318060105
 40
0.0493161456
 40
0.0701544096
 40
0.0942088432
 40
0.1213180618
 40
0.1512798011
 40
0.1838886272
 40
0.2189150423
 40
0.2950943336
 40
0.3775183316
 40
0.4638016743
 40
0.5514496566
 40
0.6378324795
 40
0.7204500063
 40
0.7969212048
 40
0.8649534332
 40
0.8951464011
 40
0.9225049449
 40
0.9468252938
 40
0.9679325735
 40
0.9856975641
 40
1.0
 40
1.0
 40
1.0
 40
1.0
 10
9.2297908374
 20
7.8921180245
 30
0.0
 10
9.2296560974
 20
7.8923367417
 30
0.0
 10
9.2293974443
 20
7.892862102
 30
0.0
 10
9.2290513958
 20
7.8937806601
 30
0.0
 10
9.2287041786
 20
7.8949231622
 30
0.0
 10
9.2282076955
 20
7.8968809536
 30
0.0
 10
9.2276178027
 20
7.8998798224
 30
0.0
 10
9.2269521352
 20
7.9041187383
 30
0.0
 10
9.2262900929
 20
7.9091825523
 30
0.0
 10
9.2256295248
 20
7.9150375059
 30
0.0
 10
9.2249666982
 20
7.9216429603
 30
0.0
 10
9.224296275
 20
7.9289508365
 30
0.0
 10
9.2236129912
 20
7.9369079605
 30
0.0
 10
9.2226555564
 20
7.9486373346
 30
0.0
 10
9.2214711355
 20
7.9644380161
 30
0.0
 10
9.2201575573
 20
7.984434166
 30
0.0
 10
9.218842838
 20
8.0053704939
 30
0.0
 10
9.2174789352
 20
8.0266283522
 30
0.0
 10
9.2160772495
 20
8.0475831174
 30
0.0
 10
9.2146855138
 20
8.0676218418
 30
0.0
 10
9.2133906576
 20
8.0861619626
 30
0.0
 10
9.2122854335
 20
8.100415107
 30
0.0
 10
9.2113488326
 20
8.1106490449
 30
0.0
 10
9.2106650819
 20
8.1173138244
 30
0.0
 10
9.2099720697
 20
8.1232297235
 30
0.0
 10
9.2092735848
 20
8.1283538442
 30
0.0
 10
9.2085820644
 20
8.1326502079
 30
0.0
 10
9.2080797699
 20
8.1352268193
 30
0.0
 10
9.2078216556
 20
8.1363683724
 30
0.0
  0
SPLINE
  5
57C
100
AcDbEntity
  8
0
100
AcDbSpline
 62
6
  6
CONTINUOUS
 70
0
 71
3
 72
10
 73
6
 74
0
 42
0.0000001
 43
0.0000001
 44
0.0000000001
 40
0.0
 40
0.0
 40
0.0
 40
0.0
 40
0.6019976273
 40
0.8257746035
 40
1.0
 40
1.0
 40
1.0
 40
1.0
 10
9.2078216556
 20
8.1363683724
 30
0.0
 10
9.2076201448
 20
8.137259587
 30
0.0
 10
9.2073201722
 20
8.1384792956
 30
0.0
 10
9.2068192574
 20
8.1399127442
 30
0.0
 10
9.2065655506
 20
8.1404635238
 30
0.0
 10
9.206432214
 20
8.1406918866
 30
0.0
  0
SPLINE
  5
57D
100
AcDbEntity
  8
0
100
AcDbSpline
 62
6
  6
CONTINUOUS
 70
0
 71
3
 72
14
 73
10
 74
0
 42
0.0000001
 43
0.0000001
 44
0.0000000001
 40
0.0
 40
0.0
 40
0.0
 40
0.0
 40
0.3769037011
 40
0.5344477885
 40
0.6708544736
 40
0.7857590942
 40
0.8788667354
 40
0.9501379317
 40
1.0
 40
1.0
 40
1.0
 40
1.0
 10
8.9917065342
 20
7.9186489481
 30
0.0
 10
8.9915681067
 20
7.9170853326
 30
0.0
 10
8.9913542089
 20
7.9148694426
 30
0.0
 10
8.9910219534
 20
7.9120952054
 30
0.0
 10
8.9907866477
 20
7.9104085147
 30
0.0
 10
8.990550655
 20
7.9089936159
 30
0.0
 10
8.9903155467
 20
7.9078534266
 30
0.0
 10
8.9900807483
 20
7.9069931609
 30
0.0
 10
8.9898957787
 20
7.9065193864
 30
0.0
 10
8.9897906303
 20
7.9063403083
 30
0.0
  0
SPLINE
  5
57E
100
AcDbEntity
  8
0
100
AcDbSpline
 62
6
  6
CONTINUOUS
 70
0
 71
3
 72
13
 73
9
 74
0
 42
0.0000001
 43
0.0000001
 44
0.0000000001
 40
0.0
 40
0.0
 40
0.0
 40
0.0
 40
0.0500116082
 40
0.1202804652
 40
0.2120501894
 40
0.3257330315
 40
0.6190885673
 40
1.0
 40
1.0
 40
1.0
 40
1.0
 10
8.9891934591
 20
7.9061281575
 30
0.0
 10
8.9891169935
 20
7.9061986047
 30
0.0
 10
8.9889714979
 20
7.9064069305
 30
0.0
 10
8.9887824004
 20
7.9068050171
 30
0.0
 10
8.9885872488
 20
7.9073450375
 30
0.0
 10
8.9882962752
 20
7.908340577
 30
0.0
 10
8.9879424051
 20
7.9099415595
 30
0.0
 10
8.9877019428
 20
7.9113226536
 30
0.0
 10
8.9875772958
 20
7.9121046665
 30
0.0
  0
SPLINE
  5
57F
100
AcDbEntity
  8
0
100
AcDbSpline
 62
6
  6
CONTINUOUS
 70
0
 71
3
 72
20
 73
16
 74
0
 42
0.0000001
 43
0.0000001
 44
0.0000000001
 40
0.0
 40
0.0
 40
0.0
 40
0.0
 40
0.0296355133
 40
0.0664793491
 40
0.1102244898
 40
0.1604292481
 40
0.2165005568
 40
0.2778213304
 40
0.4132173555
 40
0.5601926461
 40
0.6358409929
 40
0.7117478223
 40
0.7870336445
 40
0.8608124683
 40
1.0
 40
1.0
 40
1.0
 40
1.0
 10
8.9875011902
 20
7.9125913448
 30
0.0
 10
8.9872668804
 20
7.9141179653
 30
0.0
 10
8.9868218059
 20
7.9175547172
 30
0.0
 10
8.9862144297
 20
7.9232671646
 30
0.0
 10
8.9855926754
 20
7.9300554532
 30
0.0
 10
8.9849497334
 20
7.9378475832
 30
0.0
 10
8.9842780957
 20
7.9465562973
 30
0.0
 10
8.9832992999
 20
7.9596942995
 30
0.0
 10
8.9820484291
 20
7.9775627676
 30
0.0
 10
8.9808919774
 20
7.9961856713
 30
0.0
 10
8.9798655234
 20
8.0117101469
 30
0.0
 10
8.9790394356
 20
8.0235034123
 30
0.0
 10
8.9781933278
 20
8.0351975663
 30
0.0
 10
8.9770964063
 20
8.0501800849
 30
0.0
 10
8.9762540104
 20
8.0612473961
 30
0.0
 10
8.9756420312
 20
8.068475492
 30
0.0
  0
SPLINE
  5
580
100
AcDbEntity
  8
0
100
AcDbSpline
 62
6
  6
CONTINUOUS
 70
0
 71
3
 72
12
 73
8
 74
0
 42
0.0000001
 43
0.0000001
 44
0.0000000001
 40
0.0
 40
0.0
 40
0.0
 40
0.0
 40
0.2488420164
 40
0.3734874422
 40
0.4983055008
 40
0.7486210643
 40
1.0
 40
1.0
 40
1.0
 40
1.0
 10
9.7066420312
 20
6.2939190175
 30
0.0
 10
9.7066420312
 20
6.3097845586
 30
0.0
 10
9.7054616119
 20
6.333616324
 30
0.0
 10
9.701672097
 20
6.3651673507
 30
0.0
 10
9.6964638738
 20
6.396613578
 30
0.0
 10
9.6875090994
 20
6.4355840204
 30
0.0
 10
9.6782166558
 20
6.4662141964
 30
0.0
 10
9.6731483821
 20
6.4814190175
 30
0.0
  0
SPLINE
  5
581
100
AcDbEntity
  8
0
100
AcDbSpline
 62
6
  6
CONTINUOUS
 70
0
 71
3
 72
12
 73
8
 74
0
 42
0.0000001
 43
0.0000001
 44
0.0000000001
 40
0.0
 40
0.0
 40
0.0
 40
0.0
 40
0.2488365476
 40
0.373476469
 40
0.4982948461
 40
0.7486154647
 40
1.0
 40
1.0
 40
1.0
 40
1.0
 10
9.2686420312
 20
6.2939190175
 30
0.0
 10
9.2686420312
 20
6.3097842105
 30
0.0
 10
9.269820884
 20
6.3336154055
 30
0.0
 10
9.2736125315
 20
6.3651655063
 30
0.0
 10
9.2788201052
 20
6.3966117963
 30
0.0
 10
9.2877742796
 20
6.4355831385
 30
0.0
 10
9.2970672934
 20
6.4662138572
 30
0.0
 10
9.3021356802
 20
6.4814190175
 30
0.0
  0
SPLINE
  5
582
100
AcDbEntity
  8
0
100
AcDbSpline
 62
6
  6
CONTINUOUS
 70
0
 71
3
 72
12
 73
8
 74
0
 42
0.0000001
 43
0.0000001
 44
0.0000000001
 40
0.0
 40
0.0
 40
0.0
 40
0.0
 40
0.2513855748
 40
0.5017071572
 40
0.6265256494
 40
0.7511645621
 40
1.0
 40
1.0
 40
1.0
 40
1.0
 10
9.3021356802
 20
6.1064190175
 30
0.0
 10
9.2970672723
 20
6.1216242413
 30
0.0
 10
9.2877741764
 20
6.1522550696
 30
0.0
 10
9.2788200457
 20
6.1912265698
 30
0.0
 10
9.2736125928
 20
6.2226728791
 30
0.0
 10
9.2698205473
 20
6.2542228079
 30
0.0
 10
9.2686420312
 20
6.2780538946
 30
0.0
 10
9.2686420312
 20
6.2939190175
 30
0.0
  0
SPLINE
  5
583
100
AcDbEntity
  8
0
100
AcDbSpline
 62
6
  6
CONTINUOUS
 70
0
 71
3
 72
12
 73
8
 74
0
 42
0.0000001
 43
0.0000001
 44
0.0000000001
 40
0.0
 40
0.0
 40
0.0
 40
0.0
 40
0.2488420164
 40
0.3734874422
 40
0.4983055008
 40
0.7486210643
 40
1.0
 40
1.0
 40
1.0
 40
1.0
 10
9.7066420312
 20
5.9189190175
 30
0.0
 10
9.7066420312
 20
5.9347845586
 30
0.0
 10
9.7054616119
 20
5.958616324
 30
0.0
 10
9.701672097
 20
5.9901673507
 30
0.0
 10
9.6964638738
 20
6.021613578
 30
0.0
 10
9.6875090994
 20
6.0605840204
 30
0.0
 10
9.6782166558
 20
6.0912141964
 30
0.0
 10
9.6731483821
 20
6.1064190175
 30
0.0
  0
SPLINE
  5
584
100
AcDbEntity
  8
0
100
AcDbSpline
 62
6
  6
CONTINUOUS
 70
0
 71
3
 72
12
 73
8
 74
0
 42
0.0000001
 43
0.0000001
 44
0.0000000001
 40
0.0
 40
0.0
 40
0.0
 40
0.0
 40
0.25137905
 40
0.5016947181
 40
0.6265127783
 40
0.7511580885
 40
1.0
 40
1.0
 40
1.0
 40
1.0
 10
9.6731483821
 20
6.1064190175
 30
0.0
 10
9.6782166581
 20
6.1216238456
 30
0.0
 10
9.6875091129
 20
6.1522540331
 30
0.0
 10
9.6964638746
 20
6.1912244935
 30
0.0
 10
9.7016720901
 20
6.2226707209
 30
0.0
 10
9.7054616471
 20
6.254221729
 30
0.0
 10
9.7066420312
 20
6.278053483
 30
0.0
 10
9.7066420312
 20
6.2939190175
 30
0.0
  0
LINE
  5
585
100
AcDbEntity
  8
0
100
AcDbLine
 62
6
  6
CONTINUOUS
 10
8.9682493603
 20
8.1206015592
 11
8.9693524001
 21
8.1178441434
  0
SPLINE
  5
586
100
AcDbEntity
  8
0
100
AcDbSpline
 62
6
  6
CONTINUOUS
 70
0
 71
3
 72
10
 73
6
 74
0
 42
0.0000001
 43
0.0000001
 44
0.0000000001
 40
0.0
 40
0.0
 40
0.0
 40
0.0
 40
0.1923845589
 40
0.4237043259
 40
1.0
 40
1.0
 40
1.0
 40
1.0
 10
8.9693524001
 20
8.1178441434
 30
0.0
 10
8.9695501189
 20
8.1171765665
 30
0.0
 10
8.9699312786
 20
8.1156902962
 30
0.0
 10
8.9706792485
 20
8.1121489246
 30
0.0
 10
8.9711499126
 20
8.1092627287
 30
0.0
 10
8.9714595136
 20
8.1072002181
 30
0.0
  0
LINE
  5
587
100
AcDbEntity
  8
0
100
AcDbLine
 62
6
  6
CONTINUOUS
 10
8.9714595136
 20
8.1072002181
 11
8.973539933
 21
8.0904783941
  0
LINE
  5
588
100
AcDbEntity
  8
0
100
AcDbLine
 62
6
  6
CONTINUOUS
 10
8.9818940696
 20
8.0973080289
 11
8.9830689454
 21
8.0944380409
  0
SPLINE
  5
589
100
AcDbEntity
  8
0
100
AcDbSpline
 62
6
  6
CONTINUOUS
 70
0
 71
3
 72
14
 73
10
 74
0
 42
0.0000001
 43
0.0000001
 44
0.0000000001
 40
0.0
 40
0.0
 40
0.0
 40
0.0
 40
0.0717896311
 40
0.1605314909
 40
0.2655692489
 40
0.3861587065
 40
0.5212101805
 40
0.6694360668
 40
1.0
 40
1.0
 40
1.0
 40
1.0
 10
8.9830689454
 20
8.0944380409
 30
0.0
 10
8.9833596832
 20
8.0935224643
 30
0.0
 10
8.9839234912
 20
8.0914479245
 30
0.0
 10
8.9846949244
 20
8.0879784327
 30
0.0
 10
8.9854686491
 20
8.0838428439
 30
0.0
 10
8.9862307798
 20
8.079076715
 30
0.0
 10
8.9869830015
 20
8.0737248792
 30
0.0
 10
8.9880172717
 20
8.0655761764
 30
0.0
 10
8.9887308101
 20
8.0592089678
 30
0.0
 10
8.9892071686
 20
8.0548113596
 30
0.0
  0
SPLINE
  5
58A
100
AcDbEntity
  8
0
100
AcDbSpline
 62
6
  6
CONTINUOUS
 70
0
 71
3
 72
21
 73
17
 74
0
 42
0.0000001
 43
0.0000001
 44
0.0000000001
 40
0.0
 40
0.0
 40
0.0
 40
0.0
 40
0.1509683381
 40
0.3112844911
 40
0.4721072327
 40
0.5499195469
 40
0.6245480689
 40
0.7602047806
 40
0.8193393934
 40
0.8715574595
 40
0.9161121041
 40
0.9525435523
 40
0.9676097614
 40
0.9805360202
 40
0.99132112
 40
1.0
 40
1.0
 40
1.0
 40
1.0
 10
8.9892071686
 20
8.0548113596
 30
0.0
 10
8.9898600374
 20
8.0487842577
 30
0.0
 10
8.991147602
 20
8.0363505835
 30
0.0
 10
8.9930580134
 20
8.0174888494
 30
0.0
 10
8.994568074
 20
8.0015396451
 30
0.0
 10
8.9958120467
 20
7.989021666
 30
0.0
 10
8.9970274624
 20
7.9775167076
 30
0.0
 10
8.9982668103
 20
7.9667682339
 30
0.0
 10
8.9995737968
 20
7.9569354537
 30
0.0
 10
9.0004974954
 20
7.9507428018
 30
0.0
 10
9.0014088476
 20
7.9454716097
 30
0.0
 10
9.0022033472
 20
7.941695112
 30
0.0
 10
9.0028659859
 20
7.9391937725
 30
0.0
 10
9.0033348712
 20
7.9377079144
 30
0.0
 10
9.0038061591
 20
7.9364947381
 30
0.0
 10
9.0041570638
 20
7.9357935365
 30
0.0
 10
9.0043389436
 20
7.9354962466
 30
0.0
  0
SPLINE
  5
58B
100
AcDbEntity
  8
0
100
AcDbSpline
 62
6
  6
CONTINUOUS
 70
0
 71
3
 72
10
 73
6
 74
0
 42
0.0000001
 43
0.0000001
 44
0.0000000001
 40
0.0
 40
0.0
 40
0.0
 40
0.0
 40
0.1755336763
 40
0.3998030043
 40
1.0
 40
1.0
 40
1.0
 40
1.0
 10
9.2547806056
 20
8.1406930153
 30
0.0
 10
9.2546386286
 20
8.1404657473
 30
0.0
 10
9.2543658805
 20
8.1399170127
 30
0.0
 10
9.2538278764
 20
8.1384873669
 30
0.0
 10
9.2535125642
 20
8.1372651185
 30
0.0
 10
9.253307288
 20
8.1363721458
 30
0.0
  0
SPLINE
  5
58C
100
AcDbEntity
  8
0
100
AcDbSpline
 62
6
  6
CONTINUOUS
 70
0
 71
3
 72
10
 73
6
 74
0
 42
0.0000001
 43
0.0000001
 44
0.0000000001
 40
0.0
 40
0.0
 40
0.0
 40
0.0
 40
0.601881376
 40
0.8259559348
 40
1.0
 40
1.0
 40
1.0
 40
1.0
 10
9.2328598976
 20
7.8964993804
 30
0.0
 10
9.2326599365
 20
7.8955962714
 30
0.0
 10
9.2323607994
 20
7.8943597778
 30
0.0
 10
9.2318575771
 20
7.8929070096
 30
0.0
 10
9.2316015516
 20
7.8923486326
 30
0.0
 10
9.2314665259
 20
7.8921177424
 30
0.0
  0
SPLINE
  5
58D
100
AcDbEntity
  8
0
100
AcDbSpline
 62
6
  6
CONTINUOUS
 70
0
 71
3
 72
21
 73
17
 74
0
 42
0.0000001
 43
0.0000001
 44
0.0000000001
 40
0.0
 40
0.0
 40
0.0
 40
0.0
 40
0.0623967181
 40
0.1247974881
 40
0.1872087693
 40
0.2496322158
 40
0.3120738849
 40
0.3745344322
 40
0.4993714034
 40
0.5619033119
 40
0.6244617981
 40
0.6870361262
 40
0.7496211946
 40
0.8122350277
 40
0.8748981188
 40
1.0
 40
1.0
 40
1.0
 40
1.0
 10
4.3082018438
 20
12.2845280909
 30
0.0
 10
4.3082016707
 20
12.2926743869
 30
0.0
 10
4.3090018571
 20
12.3089791635
 30
0.0
 10
4.3126110167
 20
12.3331907156
 30
0.0
 10
4.3185805697
 20
12.3569366784
 30
0.0
 10
4.326856752
 20
12.3799849386
 30
0.0
 10
4.3373687412
 20
12.4021135619
 30
0.0
 10
4.3541904253
 20
12.43009044
 30
0.0
 10
4.3750941887
 20
12.4554557916
 30
0.0
 10
4.3993440558
 20
12.4773467364
 30
0.0
 10
4.4190858615
 20
12.4919273782
 30
0.0
 10
4.4401583774
 20
12.5045163846
 30
0.0
 10
4.4623708541
 20
12.5149798991
 30
0.0
 10
4.4855130409
 20
12.5232311326
 30
0.0
 10
4.5172643509
 20
12.5311494304
 30
0.0
 10
4.5418657036
 20
12.5335692992
 30
0.0
 10
4.5581985652
 20
12.5335692992
 30
0.0
  0
SPLINE
  5
58E
100
AcDbEntity
  8
0
100
AcDbSpline
 62
6
  6
CONTINUOUS
 70
0
 71
3
 72
22
 73
18
 74
0
 42
0.0000001
 43
0.0000001
 44
0.0000000001
 40
0.0
 40
0.0
 40
0.0
 40
0.0
 40
0.1250841424
 40
0.1877365244
 40
0.2503391788
 40
0.3129133357
 40
0.3754770386
 40
0.4380245883
 40
0.5005456901
 40
0.563041617
 40
0.6255132654
 40
0.6879653144
 40
0.7503987901
 40
0.8128145413
 40
0.8752182311
 40
0.9376111786
 40
1.0
 40
1.0
 40
1.0
 40
1.0
 10
4.5581985652
 20
12.5335692992
 30
0.0
 10
4.5745312854
 20
12.5335692992
 30
0.0
 10
4.5991322119
 20
12.531149625
 30
0.0
 10
4.6308826995
 20
12.5232315173
 30
0.0
 10
4.6540240855
 20
12.5149809418
 30
0.0
 10
4.6762355489
 20
12.5045180475
 30
0.0
 10
4.6973079452
 20
12.4919294786
 30
0.0
 10
4.7170478738
 20
12.4773522877
 30
0.0
 10
4.7352553046
 20
12.4609132432
 30
0.0
 10
4.7517560887
 20
12.4427757387
 30
0.0
 10
4.7663972607
 20
12.4231171747
 30
0.0
 10
4.7790260998
 20
12.4021189028
 30
0.0
 10
4.7895375248
 20
12.379992708
 30
0.0
 10
4.7978140672
 20
12.3569436904
 30
0.0
 10
4.8037850858
 20
12.333198034
 30
0.0
 10
4.8073943404
 20
12.3089862083
 30
0.0
 10
4.8081951135
 20
12.292681381
 30
0.0
 10
4.8081952865
 20
12.2845350313
 30
0.0
  0
SPLINE
  5
58F
100
AcDbEntity
  8
0
100
AcDbSpline
 62
6
  6
CONTINUOUS
 70
0
 71
3
 72
34
 73
30
 74
0
 42
0.0000001
 43
0.0000001
 44
0.0000000001
 40
0.0
 40
0.0
 40
0.0
 40
0.0
 40
0.0000965306
 40
0.0003079422
 40
0.0006476806
 40
0.0011182896
 40
0.0024550255
 40
0.0043209569
 40
0.0067166402
 40
0.0096417895
 40
0.0130958508
 40
0.0170781775
 40
0.0266238758
 40
0.0382695803
 40
0.0520040425
 40
0.0678136285
 40
0.0856827043
 40
0.1055936447
 40
0.1275265942
 40
0.1514600253
 40
0.2052310595
 40
0.2666937155
 40
0.3356044055
 40
0.4116891028
 40
0.4946453205
 40
0.5841422946
 40
0.6798163642
 40
0.781293713
 40
1.0
 40
1.0
 40
1.0
 40
1.0
 10
6.2581989974
 20
14.2262998136
 30
0.0
 10
6.2582036959
 20
14.2262998136
 30
0.0
 10
6.2582134612
 20
14.2263157039
 30
0.0
 10
6.2582210611
 20
14.2263437598
 30
0.0
 10
6.2582314706
 20
14.2263937603
 30
0.0
 10
6.2582459302
 20
14.2264965217
 30
0.0
 10
6.2582635381
 20
14.2266750612
 30
0.0
 10
6.2582831318
 20
14.2269465888
 30
0.0
 10
6.2583030679
 20
14.2272959466
 30
0.0
 10
6.2583230924
 20
14.2277225539
 30
0.0
 10
6.2583431905
 20
14.2282265093
 30
0.0
 10
6.2583717619
 20
14.2290526022
 30
0.0
 10
6.258406438
 20
14.2302774366
 30
0.0
 10
6.2584460559
 20
14.2319769661
 30
0.0
 10
6.2584855774
 20
14.2339814594
 30
0.0
 10
6.2585249404
 20
14.2362889219
 30
0.0
 10
6.2585640547
 20
14.2388970619
 30
0.0
 10
6.2586028616
 20
14.2418032855
 30
0.0
 10
6.2586413104
 20
14.2450047148
 30
0.0
 10
6.2586940997
 20
14.2498542011
 30
0.0
 10
6.2587579259
 20
14.2566277541
 30
0.0
 10
6.2588298792
 20
14.2655905501
 30
0.0
 10
6.2588994776
 20
14.2756394937
 30
0.0
 10
6.2589664141
 20
14.2867346581
 30
0.0
 10
6.2590303854
 20
14.2988318762
 30
0.0
 10
6.2590911118
 20
14.3118826192
 30
0.0
 10
6.2591483417
 20
14.3258348876
 30
0.0
 10
6.2592214906
 20
14.3460763027
 30
0.0
 10
6.2592674151
 20
14.361660924
 30
0.0
 10
6.2592951174
 20
14.3723062444
 30
0.0
  0
SPLINE
  5
590
100
AcDbEntity
  8
0
100
AcDbSpline
 62
6
  6
CONTINUOUS
 70
0
 71
3
 72
34
 73
30
 74
0
 42
0.0000001
 43
0.0000001
 44
0.0000000001
 40
0.0
 40
0.0
 40
0.0
 40
0.0
 40
0.0000965265
 40
0.0003079169
 40
0.000647626
 40
0.001118206
 40
0.0024549144
 40
0.0043208428
 40
0.0067163902
 40
0.0096413915
 40
0.013095364
 40
0.0170775358
 40
0.0266227769
 40
0.0382680389
 40
0.0520019819
 40
0.0678111203
 40
0.0856798757
 40
0.1055906107
 40
0.1275235456
 40
0.1514569961
 40
0.2052283151
 40
0.2666908973
 40
0.335600523
 40
0.4116828358
 40
0.4946361732
 40
0.5841318748
 40
0.6798064018
 40
0.7812849739
 40
1.0
 40
1.0
 40
1.0
 40
1.0
 10
6.358198133
 20
14.2262998136
 30
0.0
 10
6.3581934346
 20
14.2262998136
 30
0.0
 10
6.3581836684
 20
14.2263157007
 30
0.0
 10
6.3581760683
 20
14.2263437551
 30
0.0
 10
6.3581656586
 20
14.2263937509
 30
0.0
 10
6.3581511989
 20
14.2264965084
 30
0.0
 10
6.358133592
 20
14.2266750449
 30
0.0
 10
6.3581140007
 20
14.2269465647
 30
0.0
 10
6.3580940645
 20
14.2272959084
 30
0.0
 10
6.3580740405
 20
14.2277224976
 30
0.0
 10
6.3580539429
 20
14.2282264339
 30
0.0
 10
6.3580253716
 20
14.2290524927
 30
0.0
 10
6.3579906961
 20
14.2302772758
 30
0.0
 10
6.3579510796
 20
14.2319767363
 30
0.0
 10
6.3579115583
 20
14.2339811609
 30
0.0
 10
6.3578721956
 20
14.2362885608
 30
0.0
 10
6.3578330814
 20
14.2388966535
 30
0.0
 10
6.3577942741
 20
14.2418028508
 30
0.0
 10
6.357755825
 20
14.2450042703
 30
0.0
 10
6.3577030347
 20
14.2498537707
 30
0.0
 10
6.357639208
 20
14.256627335
 30
0.0
 10
6.3575672546
 20
14.2655900896
 30
0.0
 10
6.3574976571
 20
14.2756388618
 30
0.0
 10
6.3574307213
 20
14.2867337182
 30
0.0
 10
6.3573667508
 20
14.2988306182
 30
0.0
 10
6.357306025
 20
14.3118811814
 30
0.0
 10
6.357248794
 20
14.3258334698
 30
0.0
 10
6.3571756425
 20
14.3460753922
 30
0.0
 10
6.3571297163
 20
14.3616604985
 30
0.0
 10
6.3571020129
 20
14.3723062444
 30
0.0
  0
SPLINE
  5
591
100
AcDbEntity
  8
0
100
AcDbSpline
 62
6
  6
CONTINUOUS
 70
0
 71
3
 72
34
 73
30
 74
0
 42
0.0000001
 43
0.0000001
 44
0.0000000001
 40
0.0
 40
0.0
 40
0.0
 40
0.0
 40
0.0000965306
 40
0.0003079422
 40
0.0006476806
 40
0.0011182896
 40
0.0024550255
 40
0.0043209569
 40
0.0067166402
 40
0.0096417895
 40
0.0130958508
 40
0.0170781775
 40
0.0266238758
 40
0.0382695803
 40
0.0520040424
 40
0.0678136285
 40
0.0856827043
 40
0.1055936447
 40
0.1275265942
 40
0.1514600253
 40
0.2052310595
 40
0.2666937155
 40
0.3356044055
 40
0.4116891027
 40
0.4946453205
 40
0.5841422946
 40
0.6798163642
 40
0.781293713
 40
1.0
 40
1.0
 40
1.0
 40
1.0
 10
2.7581989974
 20
14.2352998136
 30
0.0
 10
2.7582036959
 20
14.2352998136
 30
0.0
 10
2.7582134612
 20
14.2353157039
 30
0.0
 10
2.7582210611
 20
14.2353437598
 30
0.0
 10
2.7582314706
 20
14.2353937603
 30
0.0
 10
2.7582459302
 20
14.2354965217
 30
0.0
 10
2.7582635381
 20
14.2356750612
 30
0.0
 10
2.7582831318
 20
14.2359465888
 30
0.0
 10
2.7583030679
 20
14.2362959466
 30
0.0
 10
2.7583230925
 20
14.2367225539
 30
0.0
 10
2.7583431905
 20
14.2372265093
 30
0.0
 10
2.7583717619
 20
14.2380526022
 30
0.0
 10
2.758406438
 20
14.2392774366
 30
0.0
 10
2.7584460559
 20
14.2409769661
 30
0.0
 10
2.7584855774
 20
14.2429814594
 30
0.0
 10
2.7585249404
 20
14.2452889219
 30
0.0
 10
2.7585640547
 20
14.2478970619
 30
0.0
 10
2.7586028616
 20
14.2508032855
 30
0.0
 10
2.7586413104
 20
14.2540047148
 30
0.0
 10
2.7586940997
 20
14.2588542011
 30
0.0
 10
2.7587579259
 20
14.2656277541
 30
0.0
 10
2.7588298792
 20
14.2745905501
 30
0.0
 10
2.7588994776
 20
14.2846394937
 30
0.0
 10
2.7589664141
 20
14.2957346581
 30
0.0
 10
2.7590303854
 20
14.3078318762
 30
0.0
 10
2.7590911118
 20
14.3208826192
 30
0.0
 10
2.7591483417
 20
14.3348348876
 30
0.0
 10
2.7592214906
 20
14.3550763027
 30
0.0
 10
2.7592674151
 20
14.370660924
 30
0.0
 10
2.7592951174
 20
14.3813062444
 30
0.0
  0
SPLINE
  5
592
100
AcDbEntity
  8
0
100
AcDbSpline
 62
6
  6
CONTINUOUS
 70
0
 71
3
 72
34
 73
30
 74
0
 42
0.0000001
 43
0.0000001
 44
0.0000000001
 40
0.0
 40
0.0
 40
0.0
 40
0.0
 40
0.0000965265
 40
0.0003079169
 40
0.000647626
 40
0.001118206
 40
0.0024549144
 40
0.0043208428
 40
0.0067163902
 40
0.0096413915
 40
0.013095364
 40
0.0170775358
 40
0.0266227769
 40
0.0382680389
 40
0.0520019819
 40
0.0678111203
 40
0.0856798757
 40
0.1055906107
 40
0.1275235456
 40
0.1514569961
 40
0.2052283151
 40
0.2666908973
 40
0.335600523
 40
0.4116828359
 40
0.4946361732
 40
0.5841318748
 40
0.6798064018
 40
0.7812849739
 40
1.0
 40
1.0
 40
1.0
 40
1.0
 10
2.858198133
 20
14.2352998136
 30
0.0
 10
2.8581934346
 20
14.2352998136
 30
0.0
 10
2.8581836684
 20
14.2353157007
 30
0.0
 10
2.8581760683
 20
14.2353437551
 30
0.0
 10
2.8581656586
 20
14.2353937509
 30
0.0
 10
2.8581511989
 20
14.2354965084
 30
0.0
 10
2.858133592
 20
14.2356750449
 30
0.0
 10
2.8581140007
 20
14.2359465647
 30
0.0
 10
2.8580940645
 20
14.2362959084
 30
0.0
 10
2.8580740405
 20
14.2367224976
 30
0.0
 10
2.8580539429
 20
14.2372264339
 30
0.0
 10
2.8580253716
 20
14.2380524927
 30
0.0
 10
2.8579906961
 20
14.2392772758
 30
0.0
 10
2.8579510796
 20
14.2409767363
 30
0.0
 10
2.8579115583
 20
14.2429811609
 30
0.0
 10
2.8578721956
 20
14.2452885608
 30
0.0
 10
2.8578330814
 20
14.2478966535
 30
0.0
 10
2.8577942741
 20
14.2508028508
 30
0.0
 10
2.857755825
 20
14.2540042703
 30
0.0
 10
2.8577030347
 20
14.2588537707
 30
0.0
 10
2.857639208
 20
14.265627335
 30
0.0
 10
2.8575672546
 20
14.2745900896
 30
0.0
 10
2.8574976571
 20
14.2846388618
 30
0.0
 10
2.8574307213
 20
14.2957337182
 30
0.0
 10
2.8573667508
 20
14.3078306182
 30
0.0
 10
2.857306025
 20
14.3208811814
 30
0.0
 10
2.857248794
 20
14.3348334698
 30
0.0
 10
2.8571756425
 20
14.3550753922
 30
0.0
 10
2.8571297163
 20
14.3706604985
 30
0.0
 10
2.8571020129
 20
14.3813062444
 30
0.0
  0
SPLINE
  5
593
100
AcDbEntity
  8
0
100
AcDbSpline
 62
6
  6
CONTINUOUS
 70
0
 71
3
 72
11
 73
7
 74
0
 42
0.0000001
 43
0.0000001
 44
0.0000000001
 40
0.0
 40
0.0
 40
0.0
 40
0.0
 40
0.2404073685
 40
0.4855209055
 40
0.7383785999
 40
1.0
 40
1.0
 40
1.0
 40
1.0
 10
3.8687555081
 20
13.9568526343
 30
0.0
 10
3.8741112694
 20
13.9568526343
 30
0.0
 10
3.8849478123
 20
13.9559194394
 30
0.0
 10
3.9009537608
 20
13.9518840022
 30
0.0
 10
3.916700507
 20
13.9455807401
 30
0.0
 10
3.926855682
 20
13.9402288546
 30
0.0
 10
3.9319031938
 20
13.9373146723
 30
0.0
  0
SPLINE
  5
594
100
AcDbEntity
  8
0
100
AcDbSpline
 62
6
  6
CONTINUOUS
 70
0
 71
3
 72
9
 73
5
 74
0
 42
0.0000001
 43
0.0000001
 44
0.0000000001
 40
0.0
 40
0.0
 40
0.0
 40
0.0
 40
0.2545776504
 40
1.0
 40
1.0
 40
1.0
 40
1.0
 10
3.8056078224
 20
13.9373146723
 30
0.0
 10
3.8074346926
 20
13.9383694163
 30
0.0
 10
3.814667912
 20
13.9424108448
 30
0.0
 10
3.8221579199
 20
13.9460079463
 30
0.0
 10
3.8278847402
 20
13.9483221681
 30
0.0
  0
SPLINE
  5
595
100
AcDbEntity
  8
0
100
AcDbSpline
 62
6
  6
CONTINUOUS
 70
0
 71
3
 72
10
 73
6
 74
0
 42
0.0000001
 43
0.0000001
 44
0.0000000001
 40
0.0
 40
0.0
 40
0.0
 40
0.0
 40
0.5071481389
 40
0.7546456047
 40
1.0
 40
1.0
 40
1.0
 40
1.0
 10
3.8278847402
 20
13.9483221681
 30
0.0
 10
3.8344642445
 20
13.9509809615
 30
0.0
 10
3.8445878403
 20
13.9542315888
 30
0.0
 10
3.8584199628
 20
13.9564719395
 30
0.0
 10
3.8653223184
 20
13.9568526343
 30
0.0
 10
3.8687555081
 20
13.9568526343
 30
0.0
  0
SPLINE
  5
596
100
AcDbEntity
  8
0
100
AcDbSpline
 62
6
  6
CONTINUOUS
 70
0
 71
3
 72
11
 73
7
 74
0
 42
0.0000001
 43
0.0000001
 44
0.0000000001
 40
0.0
 40
0.0
 40
0.0
 40
0.0
 40
0.2404073685
 40
0.4855209055
 40
0.7383785999
 40
1.0
 40
1.0
 40
1.0
 40
1.0
 10
4.2476416223
 20
13.9568526343
 30
0.0
 10
4.2529973836
 20
13.9568526343
 30
0.0
 10
4.2638339265
 20
13.9559194394
 30
0.0
 10
4.2798398749
 20
13.9518840022
 30
0.0
 10
4.2955866211
 20
13.9455807401
 30
0.0
 10
4.3057417962
 20
13.9402288546
 30
0.0
 10
4.3107893079
 20
13.9373146723
 30
0.0
  0
SPLINE
  5
597
100
AcDbEntity
  8
0
100
AcDbSpline
 62
6
  6
CONTINUOUS
 70
0
 71
3
 72
11
 73
7
 74
0
 42
0.0000001
 43
0.0000001
 44
0.0000000001
 40
0.0
 40
0.0
 40
0.0
 40
0.0
 40
0.2616219317
 40
0.5144799057
 40
0.7595931673
 40
1.0
 40
1.0
 40
1.0
 40
1.0
 10
4.1844939366
 20
13.9373146723
 30
0.0
 10
4.1895414583
 20
13.9402288604
 30
0.0
 10
4.1996966411
 20
13.945580778
 30
0.0
 10
4.2154434379
 20
13.9518839276
 30
0.0
 10
4.231449339
 20
13.9559194992
 30
0.0
 10
4.2422858731
 20
13.9568526343
 30
0.0
 10
4.2476416223
 20
13.9568526343
 30
0.0
  0
SPLINE
  5
598
100
AcDbEntity
  8
0
100
AcDbSpline
 62
6
  6
CONTINUOUS
 70
0
 71
3
 72
11
 73
7
 74
0
 42
0.0000001
 43
0.0000001
 44
0.0000000001
 40
0.0
 40
0.0
 40
0.0
 40
0.0
 40
0.2499934099
 40
0.5000000885
 40
0.7500076931
 40
1.0
 40
1.0
 40
1.0
 40
1.0
 10
4.0581985652
 20
13.9568526343
 30
0.0
 10
4.0688818641
 20
13.9568526343
 30
0.0
 10
4.0902595343
 20
13.9559417475
 30
0.0
 10
4.1220936775
 20
13.9519648397
 30
0.0
 10
4.1535513606
 20
13.9457060796
 30
0.0
 10
4.1742298002
 20
13.9402776733
 30
0.0
 10
4.1844939366
 20
13.9373146723
 30
0.0
  0
SPLINE
  5
599
100
AcDbEntity
  8
0
100
AcDbSpline
 62
6
  6
CONTINUOUS
 70
0
 71
3
 72
11
 73
7
 74
0
 42
0.0000001
 43
0.0000001
 44
0.0000000001
 40
0.0
 40
0.0
 40
0.0
 40
0.0
 40
0.2499928197
 40
0.500000911
 40
0.7500071352
 40
1.0
 40
1.0
 40
1.0
 40
1.0
 10
3.9319031938
 20
13.9373146723
 30
0.0
 10
3.942167351
 20
13.9402776793
 30
0.0
 10
3.9628458277
 20
13.9457061205
 30
0.0
 10
3.9943035551
 20
13.9519647599
 30
0.0
 10
4.0261376572
 20
13.9559418102
 30
0.0
 10
4.0475152897
 20
13.9568526343
 30
0.0
 10
4.0581985652
 20
13.9568526343
 30
0.0
  0
SPLINE
  5
59A
100
AcDbEntity
  8
0
100
AcDbSpline
 62
6
  6
CONTINUOUS
 70
0
 71
3
 72
11
 73
7
 74
0
 42
0.0000001
 43
0.0000001
 44
0.0000000001
 40
0.0
 40
0.0
 40
0.0
 40
0.0
 40
0.2404073685
 40
0.4855209055
 40
0.7383785999
 40
1.0
 40
1.0
 40
1.0
 40
1.0
 10
4.8687555081
 20
13.9568526343
 30
0.0
 10
4.8741112694
 20
13.9568526343
 30
0.0
 10
4.8849478123
 20
13.9559194394
 30
0.0
 10
4.9009537608
 20
13.9518840022
 30
0.0
 10
4.916700507
 20
13.9455807401
 30
0.0
 10
4.926855682
 20
13.9402288546
 30
0.0
 10
4.9319031938
 20
13.9373146723
 30
0.0
  0
SPLINE
  5
59B
100
AcDbEntity
  8
0
100
AcDbSpline
 62
6
  6
CONTINUOUS
 70
0
 71
3
 72
9
 73
5
 74
0
 42
0.0000001
 43
0.0000001
 44
0.0000000001
 40
0.0
 40
0.0
 40
0.0
 40
0.0
 40
0.2545776504
 40
1.0
 40
1.0
 40
1.0
 40
1.0
 10
4.8056078224
 20
13.9373146723
 30
0.0
 10
4.8074346926
 20
13.9383694163
 30
0.0
 10
4.814667912
 20
13.9424108448
 30
0.0
 10
4.8221579199
 20
13.9460079463
 30
0.0
 10
4.8278847402
 20
13.9483221681
 30
0.0
  0
SPLINE
  5
59C
100
AcDbEntity
  8
0
100
AcDbSpline
 62
6
  6
CONTINUOUS
 70
0
 71
3
 72
10
 73
6
 74
0
 42
0.0000001
 43
0.0000001
 44
0.0000000001
 40
0.0
 40
0.0
 40
0.0
 40
0.0
 40
0.5071481389
 40
0.7546456047
 40
1.0
 40
1.0
 40
1.0
 40
1.0
 10
4.8278847402
 20
13.9483221681
 30
0.0
 10
4.8344642445
 20
13.9509809615
 30
0.0
 10
4.8445878403
 20
13.9542315888
 30
0.0
 10
4.8584199628
 20
13.9564719395
 30
0.0
 10
4.8653223184
 20
13.9568526343
 30
0.0
 10
4.8687555081
 20
13.9568526343
 30
0.0
  0
SPLINE
  5
59D
100
AcDbEntity
  8
0
100
AcDbSpline
 62
6
  6
CONTINUOUS
 70
0
 71
3
 72
21
 73
17
 74
0
 42
0.0000001
 43
0.0000001
 44
0.0000000001
 40
0.0
 40
0.0
 40
0.0
 40
0.0
 40
0.0623967181
 40
0.1247974881
 40
0.1872087693
 40
0.2496322158
 40
0.3120738849
 40
0.3745344322
 40
0.4993714034
 40
0.5619033119
 40
0.6244617981
 40
0.6870361262
 40
0.7496211946
 40
0.8122350277
 40
0.8748981188
 40
1.0
 40
1.0
 40
1.0
 40
1.0
 10
4.8081952865
 20
12.2845350313
 30
0.0
 10
4.8081954596
 20
12.2763887353
 30
0.0
 10
4.8073952732
 20
12.2600839587
 30
0.0
 10
4.8037861137
 20
12.2358724066
 30
0.0
 10
4.7978165607
 20
12.2121264438
 30
0.0
 10
4.7895403783
 20
12.1890781836
 30
0.0
 10
4.7790283891
 20
12.1669495604
 30
0.0
 10
4.7622067051
 20
12.1389726823
 30
0.0
 10
4.7413029417
 20
12.1136073306
 30
0.0
 10
4.7170530745
 20
12.0917163858
 30
0.0
 10
4.6973112688
 20
12.0771357441
 30
0.0
 10
4.676238753
 20
12.0645467377
 30
0.0
 10
4.6540262763
 20
12.0540832232
 30
0.0
 10
4.6308840895
 20
12.0458319897
 30
0.0
 10
4.5991327794
 20
12.0379136918
 30
0.0
 10
4.5745314268
 20
12.035493823
 30
0.0
 10
4.5581985652
 20
12.035493823
 30
0.0
  0
SPLINE
  5
59E
100
AcDbEntity
  8
0
100
AcDbSpline
 62
6
  6
CONTINUOUS
 70
0
 71
3
 72
11
 73
7
 74
0
 42
0.0000001
 43
0.0000001
 44
0.0000000001
 40
0.0
 40
0.0
 40
0.0
 40
0.0
 40
0.2404073685
 40
0.4855209055
 40
0.7383785999
 40
1.0
 40
1.0
 40
1.0
 40
1.0
 10
5.2476416223
 20
13.9568526343
 30
0.0
 10
5.2529973836
 20
13.9568526343
 30
0.0
 10
5.2638339265
 20
13.9559194394
 30
0.0
 10
5.2798398749
 20
13.9518840022
 30
0.0
 10
5.2955866211
 20
13.9455807401
 30
0.0
 10
5.3057417962
 20
13.9402288546
 30
0.0
 10
5.3107893079
 20
13.9373146723
 30
0.0
  0
SPLINE
  5
59F
100
AcDbEntity
  8
0
100
AcDbSpline
 62
6
  6
CONTINUOUS
 70
0
 71
3
 72
11
 73
7
 74
0
 42
0.0000001
 43
0.0000001
 44
0.0000000001
 40
0.0
 40
0.0
 40
0.0
 40
0.0
 40
0.2616219317
 40
0.5144799057
 40
0.7595931673
 40
1.0
 40
1.0
 40
1.0
 40
1.0
 10
5.1844939366
 20
13.9373146723
 30
0.0
 10
5.1895414583
 20
13.9402288604
 30
0.0
 10
5.1996966411
 20
13.945580778
 30
0.0
 10
5.2154434379
 20
13.9518839276
 30
0.0
 10
5.231449339
 20
13.9559194992
 30
0.0
 10
5.2422858731
 20
13.9568526343
 30
0.0
 10
5.2476416223
 20
13.9568526343
 30
0.0
  0
SPLINE
  5
5A0
100
AcDbEntity
  8
0
100
AcDbSpline
 62
6
  6
CONTINUOUS
 70
0
 71
3
 72
11
 73
7
 74
0
 42
0.0000001
 43
0.0000001
 44
0.0000000001
 40
0.0
 40
0.0
 40
0.0
 40
0.0
 40
0.2499934099
 40
0.5000000885
 40
0.7500076931
 40
1.0
 40
1.0
 40
1.0
 40
1.0
 10
5.0581985652
 20
13.9568526343
 30
0.0
 10
5.0688818641
 20
13.9568526343
 30
0.0
 10
5.0902595343
 20
13.9559417475
 30
0.0
 10
5.1220936775
 20
13.9519648397
 30
0.0
 10
5.1535513606
 20
13.9457060796
 30
0.0
 10
5.1742298002
 20
13.9402776733
 30
0.0
 10
5.1844939366
 20
13.9373146723
 30
0.0
  0
SPLINE
  5
5A1
100
AcDbEntity
  8
0
100
AcDbSpline
 62
6
  6
CONTINUOUS
 70
0
 71
3
 72
11
 73
7
 74
0
 42
0.0000001
 43
0.0000001
 44
0.0000000001
 40
0.0
 40
0.0
 40
0.0
 40
0.0
 40
0.2499928197
 40
0.500000911
 40
0.7500071352
 40
1.0
 40
1.0
 40
1.0
 40
1.0
 10
4.9319031938
 20
13.9373146723
 30
0.0
 10
4.942167351
 20
13.9402776793
 30
0.0
 10
4.9628458277
 20
13.9457061205
 30
0.0
 10
4.9943035551
 20
13.9519647599
 30
0.0
 10
5.0261376572
 20
13.9559418102
 30
0.0
 10
5.0475152897
 20
13.9568526343
 30
0.0
 10
5.0581985652
 20
13.9568526343
 30
0.0
  0
SPLINE
  5
5A2
100
AcDbEntity
  8
0
100
AcDbSpline
 62
6
  6
CONTINUOUS
 70
0
 71
3
 72
22
 73
18
 74
0
 42
0.0000001
 43
0.0000001
 44
0.0000000001
 40
0.0
 40
0.0
 40
0.0
 40
0.0
 40
0.1250841424
 40
0.1877365244
 40
0.2503391788
 40
0.3129133357
 40
0.3754770386
 40
0.4380245883
 40
0.5005456901
 40
0.563041617
 40
0.6255132654
 40
0.6879653144
 40
0.7503987901
 40
0.8128145413
 40
0.8752182311
 40
0.9376111786
 40
1.0
 40
1.0
 40
1.0
 40
1.0
 10
4.5581985652
 20
12.035493823
 30
0.0
 10
4.5418658449
 20
12.035493823
 30
0.0
 10
4.5172649184
 20
12.0379134972
 30
0.0
 10
4.4855144308
 20
12.045831605
 30
0.0
 10
4.4623730448
 20
12.0540821804
 30
0.0
 10
4.4401615814
 20
12.0645450748
 30
0.0
 10
4.4190891851
 20
12.0771336437
 30
0.0
 10
4.3993492565
 20
12.0917108345
 30
0.0
 10
4.3811418257
 20
12.108149879
 30
0.0
 10
4.3646410417
 20
12.1262873835
 30
0.0
 10
4.3499998697
 20
12.1459459475
 30
0.0
 10
4.3373710306
 20
12.1669442194
 30
0.0
 10
4.3268596056
 20
12.1890704142
 30
0.0
 10
4.3185830631
 20
12.2121194318
 30
0.0
 10
4.3126120446
 20
12.2358650882
 30
0.0
 10
4.3090027899
 20
12.2600769139
 30
0.0
 10
4.3082020169
 20
12.2763817412
 30
0.0
 10
4.3082018438
 20
12.2845280909
 30
0.0
  0
SPLINE
  5
5A3
100
AcDbEntity
  8
0
100
AcDbSpline
 62
6
  6
CONTINUOUS
 70
0
 71
3
 72
12
 73
8
 74
0
 42
0.0000001
 43
0.0000001
 44
0.0000000001
 40
0.0
 40
0.0
 40
0.0
 40
0.0
 40
0.2403664862
 40
0.3621686786
 40
0.4856062116
 40
0.7384218467
 40
1.0
 40
1.0
 40
1.0
 40
1.0
 10
4.2334390388
 20
14.0298526343
 30
0.0
 10
4.2426203206
 20
14.0298526343
 30
0.0
 10
4.256485705
 20
14.0286555512
 30
0.0
 10
4.2746543601
 20
14.0248639968
 30
0.0
 10
4.2929540499
 20
14.0196033498
 30
0.0
 10
4.3156324241
 20
14.010529808
 30
0.0
 10
4.3330393178
 20
14.0013547373
 30
0.0
 10
4.3416922142
 20
13.9963589852
 30
0.0
  0
SPLINE
  5
5A4
100
AcDbEntity
  8
0
100
AcDbSpline
 62
6
  6
CONTINUOUS
 70
0
 71
3
 72
9
 73
5
 74
0
 42
0.0000001
 43
0.0000001
 44
0.0000000001
 40
0.0
 40
0.0
 40
0.0
 40
0.0
 40
0.5095696321
 40
1.0
 40
1.0
 40
1.0
 40
1.0
 10
4.1251858633
 20
13.9963589852
 30
0.0
 10
4.1349004077
 20
14.00196768
 30
0.0
 10
4.1544557582
 20
14.0121609951
 30
0.0
 10
4.1751464785
 20
14.0199253185
 30
0.0
 10
4.1855260627
 20
14.0228950529
 30
0.0
  0
SPLINE
  5
5A5
100
AcDbEntity
  8
0
100
AcDbSpline
 62
6
  6
CONTINUOUS
 70
0
 71
3
 72
10
 73
6
 74
0
 42
0.0000001
 43
0.0000001
 44
0.0000000001
 40
0.0
 40
0.0
 40
0.0
 40
0.0
 40
0.2533102762
 40
0.5039514394
 40
1.0
 40
1.0
 40
1.0
 40
1.0
 10
4.1855260627
 20
14.0228950529
 30
0.0
 10
4.1894671952
 20
14.0240226623
 30
0.0
 10
4.1973800194
 20
14.0260274191
 30
0.0
 10
4.2133060728
 20
14.0289397273
 30
0.0
 10
4.2254115798
 20
14.0298526343
 30
0.0
 10
4.2334390388
 20
14.0298526343
 30
0.0
  0
SPLINE
  5
5A6
100
AcDbEntity
  8
0
100
AcDbSpline
 62
6
  6
CONTINUOUS
 70
0
 71
3
 72
12
 73
8
 74
0
 42
0.0000001
 43
0.0000001
 44
0.0000000001
 40
0.0
 40
0.0
 40
0.0
 40
0.0
 40
0.2403664862
 40
0.3621686786
 40
0.4856062116
 40
0.7384218467
 40
1.0
 40
1.0
 40
1.0
 40
1.0
 10
4.8829580916
 20
14.0298526343
 30
0.0
 10
4.8921393734
 20
14.0298526343
 30
0.0
 10
4.9060047578
 20
14.0286555512
 30
0.0
 10
4.9241734129
 20
14.0248639968
 30
0.0
 10
4.9424731028
 20
14.0196033498
 30
0.0
 10
4.9651514769
 20
14.010529808
 30
0.0
 10
4.9825583707
 20
14.0013547373
 30
0.0
 10
4.9912112671
 20
13.9963589852
 30
0.0
  0
SPLINE
  5
5A7
100
AcDbEntity
  8
0
100
AcDbSpline
 62
6
  6
CONTINUOUS
 70
0
 71
3
 72
12
 73
8
 74
0
 42
0.0000001
 43
0.0000001
 44
0.0000000001
 40
0.0
 40
0.0
 40
0.0
 40
0.0
 40
0.2615793801
 40
0.5143956673
 40
0.6378333015
 40
0.7596347182
 40
1.0
 40
1.0
 40
1.0
 40
1.0
 10
4.7747049161
 20
13.9963589852
 30
0.0
 10
4.7833578514
 20
14.0013547597
 30
0.0
 10
4.800764783
 20
14.0105299094
 30
0.0
 10
4.8234433146
 20
14.0196032871
 30
0.0
 10
4.8417430308
 20
14.0248637727
 30
0.0
 10
4.8599115038
 20
14.0286558485
 30
0.0
 10
4.8737768576
 20
14.0298526343
 30
0.0
 10
4.8829580916
 20
14.0298526343
 30
0.0
  0
SPLINE
  5
5A8
100
AcDbEntity
  8
0
100
AcDbSpline
 62
6
  6
CONTINUOUS
 70
0
 71
3
 72
34
 73
30
 74
0
 42
0.0000001
 43
0.0000001
 44
0.0000000001
 40
0.0
 40
0.0
 40
0.0
 40
0.0
 40
0.2185801018
 40
0.3200028242
 40
0.4156288269
 40
0.5050850281
 40
0.5880087191
 40
0.6640712582
 40
0.7329716638
 40
0.7944360243
 40
0.8482205589
 40
0.8721649513
 40
0.8941118744
 40
0.9140394975
 40
0.9319280987
 40
0.9477600475
 40
0.9615197295
 40
0.9731936772
 40
0.9827705622
 40
0.9867696795
 40
0.9902413115
 40
0.9931847372
 40
0.9955994149
 40
0.9974851922
 40
0.9988424445
 40
0.9993235022
 40
0.9996737586
 40
0.9998955101
 40
1.0
 40
1.0
 40
1.0
 40
1.0
 10
6.2571028773
 20
14.3723062444
 30
0.0
 10
6.2571305635
 20
14.3616671189
 30
0.0
 10
6.2571764588
 20
14.346091376
 30
0.0
 10
6.2572495532
 20
14.3258612019
 30
0.0
 10
6.2573067388
 20
14.311915986
 30
0.0
 10
6.2573674158
 20
14.2988712151
 30
0.0
 10
6.2574313337
 20
14.2867787034
 30
0.0
 10
6.2574982143
 20
14.2756867563
 30
0.0
 10
6.2575677544
 20
14.2656393585
 30
0.0
 10
6.2576396494
 20
14.2566763671
 30
0.0
 10
6.2577034216
 20
14.2499015737
 30
0.0
 10
6.2577561655
 20
14.2450502401
 30
0.0
 10
6.2577945838
 20
14.2418468006
 30
0.0
 10
6.2578333609
 20
14.2389381483
 30
0.0
 10
6.2578724453
 20
14.2363271697
 30
0.0
 10
6.2579117789
 20
14.2340164512
 30
0.0
 10
6.2579512723
 20
14.232008276
 30
0.0
 10
6.2579908631
 20
14.2303046329
 30
0.0
 10
6.2580255112
 20
14.2290760929
 30
0.0
 10
6.2580540555
 20
14.2282468102
 30
0.0
 10
6.2580741377
 20
14.227740294
 30
0.0
 10
6.2580941624
 20
14.2273110128
 30
0.0
 10
6.2581140624
 20
14.2269588811
 30
0.0
 10
6.2581337324
 20
14.2266844362
 30
0.0
 10
6.2581511744
 20
14.2265034573
 30
0.0
 10
6.2581658366
 20
14.2263986043
 30
0.0
 10
6.2581758876
 20
14.2263471261
 30
0.0
 10
6.2581842348
 20
14.2263175451
 30
0.0
 10
6.2581931116
 20
14.2263006907
 30
0.0
 10
6.258198133
 20
14.2262998831
 30
0.0
  0
SPLINE
  5
5A9
100
AcDbEntity
  8
0
100
AcDbSpline
 62
6
  6
CONTINUOUS
 70
0
 71
3
 72
34
 73
30
 74
0
 42
0.0000001
 43
0.0000001
 44
0.0000000001
 40
0.0
 40
0.0
 40
0.0
 40
0.0
 40
0.2185801018
 40
0.3200028242
 40
0.4156288269
 40
0.5050850281
 40
0.5880087191
 40
0.6640712582
 40
0.7329716638
 40
0.7944360243
 40
0.8482205589
 40
0.8721649513
 40
0.8941118744
 40
0.9140394975
 40
0.9319280987
 40
0.9477600475
 40
0.9615197295
 40
0.9731936772
 40
0.9827705622
 40
0.9867696795
 40
0.9902413115
 40
0.9931847372
 40
0.9955994149
 40
0.9974851922
 40
0.9988424445
 40
0.9993235022
 40
0.9996737586
 40
0.9998955101
 40
1.0
 40
1.0
 40
1.0
 40
1.0
 10
2.7571028773
 20
14.3813062444
 30
0.0
 10
2.7571305635
 20
14.3706671189
 30
0.0
 10
2.7571764588
 20
14.355091376
 30
0.0
 10
2.7572495532
 20
14.3348612019
 30
0.0
 10
2.7573067388
 20
14.320915986
 30
0.0
 10
2.7573674158
 20
14.3078712151
 30
0.0
 10
2.7574313337
 20
14.2957787034
 30
0.0
 10
2.7574982143
 20
14.2846867563
 30
0.0
 10
2.7575677544
 20
14.2746393585
 30
0.0
 10
2.7576396494
 20
14.2656763671
 30
0.0
 10
2.7577034216
 20
14.2589015737
 30
0.0
 10
2.7577561655
 20
14.2540502401
 30
0.0
 10
2.7577945838
 20
14.2508468006
 30
0.0
 10
2.7578333609
 20
14.2479381483
 30
0.0
 10
2.7578724453
 20
14.2453271697
 30
0.0
 10
2.7579117789
 20
14.2430164512
 30
0.0
 10
2.7579512723
 20
14.241008276
 30
0.0
 10
2.7579908631
 20
14.2393046329
 30
0.0
 10
2.7580255112
 20
14.2380760929
 30
0.0
 10
2.7580540555
 20
14.2372468102
 30
0.0
 10
2.7580741377
 20
14.236740294
 30
0.0
 10
2.7580941624
 20
14.2363110128
 30
0.0
 10
2.7581140624
 20
14.2359588811
 30
0.0
 10
2.7581337324
 20
14.2356844362
 30
0.0
 10
2.7581511744
 20
14.2355034573
 30
0.0
 10
2.7581658366
 20
14.2353986043
 30
0.0
 10
2.7581758876
 20
14.2353471261
 30
0.0
 10
2.7581842348
 20
14.2353175451
 30
0.0
 10
2.7581931116
 20
14.2353006907
 30
0.0
 10
2.758198133
 20
14.2352998831
 30
0.0
  0
SPLINE
  5
5AA
100
AcDbEntity
  8
0
100
AcDbSpline
 62
6
  6
CONTINUOUS
 70
0
 71
3
 72
25
 73
21
 74
0
 42
0.0000001
 43
0.0000001
 44
0.0000000001
 40
0.0
 40
0.0
 40
0.0
 40
0.0
 40
0.0673438587
 40
0.1394136287
 40
0.2149597761
 40
0.2927916684
 40
0.3716712024
 40
0.450272468
 40
0.527290807
 40
0.6014726553
 40
0.6716559809
 40
0.7367917119
 40
0.7960353358
 40
0.8487761343
 40
0.8947957189
 40
0.9153710447
 40
0.9344418349
 40
0.9687241266
 40
0.9845685082
 40
1.0
 40
1.0
 40
1.0
 40
1.0
 10
1.6015511277
 20
1.8898711741
 30
0.0
 10
1.6004345688
 20
1.886257988
 30
0.0
 10
1.5984371444
 20
1.8786791201
 30
0.0
 10
1.5961638826
 20
1.8668159417
 30
0.0
 10
1.5945550538
 20
1.8542505908
 30
0.0
 10
1.5936379688
 20
1.8412334962
 30
0.0
 10
1.5934324153
 20
1.8280143207
 30
0.0
 10
1.5939403205
 20
1.8148489954
 30
0.0
 10
1.5951539447
 20
1.8019943958
 30
0.0
 10
1.5970481982
 20
1.7896997052
 30
0.0
 10
1.5995844164
 20
1.7782021387
 30
0.0
 10
1.6027149045
 20
1.7677227998
 30
0.0
 10
1.6063756198
 20
1.7584578097
 30
0.0
 10
1.6105028002
 20
1.7505820731
 30
0.0
 10
1.6144047478
 20
1.7450944366
 30
0.0
 10
1.6177297739
 20
1.7416047928
 30
0.0
 10
1.6209026682
 20
1.7389222524
 30
0.0
 10
1.6243321362
 20
1.7369588997
 30
0.0
 10
1.6278980277
 20
1.7359811421
 30
0.0
 10
1.6296582537
 20
1.7358200375
 30
0.0
 10
1.6305248273
 20
1.7358195664
 30
0.0
  0
SPLINE
  5
5AB
100
AcDbEntity
  8
0
100
AcDbSpline
 62
6
  6
CONTINUOUS
 70
0
 71
3
 72
11
 73
7
 74
0
 42
0.0000001
 43
0.0000001
 44
0.0000000001
 40
0.0
 40
0.0
 40
0.0
 40
0.0
 40
0.2589031438
 40
0.51037725
 40
0.7565719521
 40
1.0
 40
1.0
 40
1.0
 40
1.0
 10
2.6839722757
 20
2.7469747115
 30
0.0
 10
2.6842671795
 20
2.7492067926
 30
0.0
 10
2.6845633014
 20
2.7536516059
 30
0.0
 10
2.6840641708
 20
2.7602346304
 30
0.0
 10
2.6826276629
 20
2.7665416023
 30
0.0
 10
2.6810460083
 20
2.7705166709
 30
0.0
 10
2.6801125323
 20
2.7724166453
 30
0.0
  0
SPLINE
  5
5AC
100
AcDbEntity
  8
0
100
AcDbSpline
 62
6
  6
CONTINUOUS
 70
0
 71
3
 72
21
 73
17
 74
0
 42
0.0000001
 43
0.0000001
 44
0.0000000001
 40
0.0
 40
0.0
 40
0.0
 40
0.0
 40
0.0653373268
 40
0.1326814333
 40
0.2707504596
 40
0.3405443968
 40
0.4099788396
 40
0.5452354071
 40
0.6102259317
 40
0.6728744488
 40
0.7329553637
 40
0.7904129699
 40
0.8453917698
 40
0.8982446188
 40
0.9495377501
 40
1.0
 40
1.0
 40
1.0
 40
1.0
 10
2.7322539207
 20
3.1345776335
 30
0.0
 10
2.7355708742
 20
3.1345776335
 30
0.0
 10
2.7423122762
 20
3.1349747431
 30
0.0
 10
2.7558873601
 20
3.1372451366
 30
0.0
 10
2.7692539072
 20
3.1416793464
 30
0.0
 10
2.7818496121
 20
3.1480047575
 30
0.0
 10
2.7936492315
 20
3.1554479505
 30
0.0
 10
2.8041188852
 20
3.1644516882
 30
0.0
 10
2.8126916465
 20
3.1747109376
 30
0.0
 10
2.8179265095
 20
3.1827031826
 30
0.0
 10
2.8219471027
 20
3.1909488329
 30
0.0
 10
2.8246799185
 20
3.1993015897
 30
0.0
 10
2.8260670212
 20
3.2076124261
 30
0.0
 10
2.8260740329
 20
3.2157305708
 30
0.0
 10
2.824693031
 20
3.2234989235
 30
0.0
 10
2.8228509888
 20
3.2283636103
 30
0.0
 10
2.8217213315
 20
3.2306628875
 30
0.0
  0
SPLINE
  5
5AD
100
AcDbEntity
  8
0
100
AcDbSpline
 62
6
  6
CONTINUOUS
 70
0
 71
3
 72
21
 73
17
 74
0
 42
0.0000001
 43
0.0000001
 44
0.0000000001
 40
0.0
 40
0.0
 40
0.0
 40
0.0
 40
0.1155852395
 40
0.177090682
 40
0.2406689987
 40
0.305998197
 40
0.3726225963
 40
0.4400281973
 40
0.5076724574
 40
0.5750046582
 40
0.6414848991
 40
0.7066072464
 40
0.7699382417
 40
0.8311253347
 40
0.8899436099
 40
1.0
 40
1.0
 40
1.0
 40
1.0
 10
2.1596251045
 20
3.3150472571
 30
0.0
 10
2.1618255917
 20
3.3221680363
 30
0.0
 10
2.1668118607
 20
3.3326246655
 30
0.0
 10
2.1758205598
 20
3.3452793842
 30
0.0
 10
2.1840107969
 20
3.3544628924
 30
0.0
 10
2.1933486905
 20
3.3629646312
 30
0.0
 10
2.2036736004
 20
3.370656846
 30
0.0
 10
2.2148166165
 20
3.3773982997
 30
0.0
 10
2.2265837367
 20
3.3830847625
 30
0.0
 10
2.2387805724
 20
3.3876112046
 30
0.0
 10
2.2511974022
 20
3.3909107694
 30
0.0
 10
2.2636280849
 20
3.3929161838
 30
0.0
 10
2.2758592794
 20
3.3936039923
 30
0.0
 10
2.2876932599
 20
3.3929467589
 30
0.0
 10
2.3023202563
 20
3.390372587
 30
0.0
 10
2.3126693036
 20
3.3864120255
 30
0.0
 10
2.3188072956
 20
3.3828503247
 30
0.0
  0
SPLINE
  5
5AE
100
AcDbEntity
  8
0
100
AcDbSpline
 62
6
  6
CONTINUOUS
 70
0
 71
3
 72
11
 73
7
 74
0
 42
0.0000001
 43
0.0000001
 44
0.0000000001
 40
0.0
 40
0.0
 40
0.0
 40
0.0
 40
0.2643648408
 40
0.5171089283
 40
0.7609114413
 40
1.0
 40
1.0
 40
1.0
 40
1.0
 10
2.6231156807
 20
2.9669456748
 30
0.0
 10
2.6256723206
 20
2.9752189648
 30
0.0
 10
2.6294157582
 20
2.9918332289
 30
0.0
 10
2.6305476517
 20
3.0168703602
 30
0.0
 10
2.6269870792
 20
3.0408565184
 30
0.0
 10
2.6214901802
 20
3.055829521
 30
0.0
 10
2.6180416978
 20
3.062860778
 30
0.0
  0
SPLINE
  5
5AF
100
AcDbEntity
  8
0
100
AcDbSpline
 62
6
  6
CONTINUOUS
 70
0
 71
3
 72
11
 73
7
 74
0
 42
0.0000001
 43
0.0000001
 44
0.0000000001
 40
0.0
 40
0.0
 40
0.0
 40
0.0
 40
0.2594542167
 40
0.5110465022
 40
0.756992363
 40
1.0
 40
1.0
 40
1.0
 40
1.0
 10
2.5513349031
 20
3.1465958826
 30
0.0
 10
2.5570038672
 20
3.143436719
 30
0.0
 10
2.5677704948
 20
3.1364551539
 30
0.0
 10
2.5820512387
 20
3.1239166842
 30
0.0
 10
2.5939786118
 20
3.109648796
 30
0.0
 10
2.6002664089
 20
3.0990862201
 30
0.0
 10
2.6029428475
 20
3.0936287665
 30
0.0
  0
SPLINE
  5
5B0
100
AcDbEntity
  8
0
100
AcDbSpline
 62
6
  6
CONTINUOUS
 70
0
 71
3
 72
9
 73
5
 74
0
 42
0.0000001
 43
0.0000001
 44
0.0000000001
 40
0.0
 40
0.0
 40
0.0
 40
0.0
 40
0.5054749006
 40
1.0
 40
1.0
 40
1.0
 40
1.0
 10
2.4908546037
 20
3.2703117538
 30
0.0
 10
2.4770223589
 20
3.2727714283
 30
0.0
 10
2.4495435892
 20
3.27703258
 30
0.0
 10
2.4218314977
 20
3.2795334585
 30
0.0
 10
2.4081021449
 20
3.2801869077
 30
0.0
  0
SPLINE
  5
5B1
100
AcDbEntity
  8
0
100
AcDbSpline
 62
6
  6
CONTINUOUS
 70
0
 71
3
 72
9
 73
5
 74
0
 42
0.0000001
 43
0.0000001
 44
0.0000000001
 40
0.0
 40
0.0
 40
0.0
 40
0.0
 40
0.4751182931
 40
1.0
 40
1.0
 40
1.0
 40
1.0
 10
2.5797104607
 20
3.071152266
 30
0.0
 10
2.5747748044
 20
3.0844975167
 30
0.0
 10
2.5641419199
 20
3.1124953096
 30
0.0
 10
2.5532182892
 20
3.1403799969
 30
0.0
 10
2.5474418072
 20
3.1549991569
 30
0.0
  0
SPLINE
  5
5B2
100
AcDbEntity
  8
0
100
AcDbSpline
 62
6
  6
CONTINUOUS
 70
0
 71
3
 72
9
 73
5
 74
0
 42
0.0000001
 43
0.0000001
 44
0.0000000001
 40
0.0
 40
0.0
 40
0.0
 40
0.0
 40
0.2490014549
 40
1.0
 40
1.0
 40
1.0
 40
1.0
 10
2.5740325845
 20
2.9698163021
 30
0.0
 10
2.5764424988
 20
2.9729151798
 30
0.0
 10
2.5860011431
 20
2.9854534286
 30
0.0
 10
2.5951139147
 20
2.998328182
 30
0.0
 10
2.601762149
 20
3.0081253613
 30
0.0
  0
SPLINE
  5
5B3
100
AcDbEntity
  8
0
100
AcDbSpline
 62
6
  6
CONTINUOUS
 70
0
 71
3
 72
9
 73
5
 74
0
 42
0.0000001
 43
0.0000001
 44
0.0000000001
 40
0.0
 40
0.0
 40
0.0
 40
0.0
 40
0.4539178191
 40
1.0
 40
1.0
 40
1.0
 40
1.0
 10
2.601762149
 20
3.0081253613
 30
0.0
 10
2.5986273677
 20
3.0177304347
 30
0.0
 10
2.5914910919
 20
3.0388161543
 30
0.0
 10
2.583926837
 20
3.0597518372
 30
0.0
 10
2.5797104607
 20
3.071152266
 30
0.0
  0
SPLINE
  5
5B4
100
AcDbEntity
  8
0
100
AcDbSpline
 62
6
  6
CONTINUOUS
 70
0
 71
3
 72
9
 73
5
 74
0
 42
0.0000001
 43
0.0000001
 44
0.0000000001
 40
0.0
 40
0.0
 40
0.0
 40
0.0
 40
0.4600455586
 40
1.0
 40
1.0
 40
1.0
 40
1.0
 10
2.7225103485
 20
2.6671302673
 30
0.0
 10
2.7230011522
 20
2.6661301146
 30
0.0
 10
2.7237994667
 20
2.6638256813
 30
0.0
 10
2.7242492281
 20
2.6614400792
 30
0.0
 10
2.7244183141
 20
2.660143454
 30
0.0
  0
SPLINE
  5
5B5
100
AcDbEntity
  8
0
100
AcDbSpline
 62
6
  6
CONTINUOUS
 70
0
 71
3
 72
12
 73
8
 74
0
 42
0.0000001
 43
0.0000001
 44
0.0000000001
 40
0.0
 40
0.0
 40
0.0
 40
0.0
 40
0.277871398
 40
0.5397857609
 40
0.7815661862
 40
0.893916671
 40
1.0
 40
1.0
 40
1.0
 40
1.0
 10
2.7244183141
 20
2.660143454
 30
0.0
 10
2.7258698553
 20
2.6490124073
 30
0.0
 10
2.7293367803
 20
2.6274658629
 30
0.0
 10
2.7364325252
 20
2.5966757331
 30
0.0
 10
2.7438792005
 20
2.5728934696
 30
0.0
 10
2.7506808446
 20
2.5555841369
 30
0.0
 10
2.7543297981
 20
2.5475437896
 30
0.0
 10
2.7562177414
 20
2.5436965657
 30
0.0
  0
SPLINE
  5
5B6
100
AcDbEntity
  8
0
100
AcDbSpline
 62
6
  6
CONTINUOUS
 70
0
 71
3
 72
15
 73
11
 74
0
 42
0.0000001
 43
0.0000001
 44
0.0000000001
 40
0.0
 40
0.0
 40
0.0
 40
0.0
 40
0.1075376046
 40
0.2290620466
 40
0.3603711587
 40
0.4970272055
 40
0.6340870345
 40
0.7665851043
 40
0.8900076609
 40
1.0
 40
1.0
 40
1.0
 40
1.0
 10
1.4509136918
 20
3.1352304119
 30
0.0
 10
1.4504796531
 20
3.134243011
 30
0.0
 10
1.4497253644
 20
3.1320643949
 30
0.0
 10
1.4489273788
 20
3.1285338287
 30
0.0
 10
1.4484242465
 20
3.124654533
 30
0.0
 10
1.4482371694
 20
3.120592197
 30
0.0
 10
1.4483719653
 20
3.1165158813
 30
0.0
 10
1.4488251319
 20
3.1125953394
 30
0.0
 10
1.449577658
 20
3.1089981667
 30
0.0
 10
1.4503014908
 20
3.1067639018
 30
0.0
 10
1.4507207823
 20
3.1057434793
 30
0.0
  0
SPLINE
  5
5B7
100
AcDbEntity
  8
0
100
AcDbSpline
 62
6
  6
CONTINUOUS
 70
0
 71
3
 72
13
 73
9
 74
0
 42
0.0000001
 43
0.0000001
 44
0.0000000001
 40
0.0
 40
0.0
 40
0.0
 40
0.0
 40
0.2592526825
 40
0.5300991956
 40
0.6612395433
 40
0.7852080799
 40
0.8990336659
 40
1.0
 40
1.0
 40
1.0
 40
1.0
 10
1.280823575
 20
2.5596155265
 30
0.0
 10
1.2804812908
 20
2.557990266
 30
0.0
 10
1.2800669375
 20
2.554605054
 30
0.0
 10
1.2801091644
 20
2.5503563985
 30
0.0
 10
1.2804921248
 20
2.5470060939
 30
0.0
 10
1.2809372886
 20
2.5446819597
 30
0.0
 10
1.2815319261
 20
2.5425918607
 30
0.0
 10
1.2820456384
 20
2.5413107731
 30
0.0
 10
1.2823306011
 20
2.5407300801
 30
0.0
  0
SPLINE
  5
5B8
100
AcDbEntity
  8
0
100
AcDbSpline
 62
6
  6
CONTINUOUS
 70
0
 71
3
 72
11
 73
7
 74
0
 42
0.0000001
 43
0.0000001
 44
0.0000000001
 40
0.0
 40
0.0
 40
0.0
 40
0.0
 40
0.3076685137
 40
0.5739437103
 40
0.8017444195
 40
1.0
 40
1.0
 40
1.0
 40
1.0
 10
1.5415720299
 20
2.0124515912
 30
0.0
 10
1.5417779492
 20
2.0120319719
 30
0.0
 10
1.5422048336
 20
2.0112684674
 30
0.0
 10
1.5429548144
 20
2.010301025
 30
0.0
 10
1.5437604656
 20
2.0096107291
 30
0.0
 10
1.5443624091
 20
2.0093384391
 30
0.0
 10
1.5446551618
 20
2.0092676172
 30
0.0
  0
SPLINE
  5
5B9
100
AcDbEntity
  8
0
100
AcDbSpline
 62
6
  6
CONTINUOUS
 70
0
 71
3
 72
15
 73
11
 74
0
 42
0.0000001
 43
0.0000001
 44
0.0000000001
 40
0.0
 40
0.0
 40
0.0
 40
0.0
 40
0.0964357391
 40
0.1985953791
 40
0.3081778124
 40
0.4264787246
 40
0.5544273782
 40
0.692620946
 40
0.8412055504
 40
1.0
 40
1.0
 40
1.0
 40
1.0
 10
1.5446551618
 20
2.0092676172
 30
0.0
 10
1.5470320678
 20
2.008692603
 30
0.0
 10
1.5518265191
 20
2.0070594486
 30
0.0
 10
1.5587490942
 20
2.0033738134
 30
0.0
 10
1.565530893
 20
1.9984276805
 30
0.0
 10
1.5721356204
 20
1.9922521941
 30
0.0
 10
1.5785408499
 20
1.9848830883
 30
0.0
 10
1.5847159251
 20
1.9763553403
 30
0.0
 10
1.5906329527
 20
1.9667188295
 30
0.0
 10
1.594266717
 20
1.9598163657
 30
0.0
 10
1.5960406927
 20
1.9562013834
 30
0.0
  0
SPLINE
  5
5BA
100
AcDbEntity
  8
0
100
AcDbSpline
 62
6
  6
CONTINUOUS
 70
0
 71
3
 72
24
 73
20
 74
0
 42
0.0000001
 43
0.0000001
 44
0.0000000001
 40
0.0
 40
0.0
 40
0.0
 40
0.0
 40
0.071654952
 40
0.1457850234
 40
0.2213924092
 40
0.2975980575
 40
0.3735208371
 40
0.4482404078
 40
0.520876293
 40
0.5906233055
 40
0.6567707101
 40
0.7187302218
 40
0.776095818
 40
0.8286837195
 40
0.8766236425
 40
0.9204176718
 40
0.9610423365
 40
0.9806331108
 40
1.0
 40
1.0
 40
1.0
 40
1.0
 10
1.958393508
 20
2.1118553514
 30
0.0
 10
1.9534043432
 20
2.1118553514
 30
0.0
 10
1.9432506679
 20
2.1122507991
 30
0.0
 10
1.9279153196
 20
2.1139220864
 30
0.0
 10
1.9124134598
 20
2.1166692123
 30
0.0
 10
1.8970005678
 20
2.1204405652
 30
0.0
 10
1.8819215348
 20
2.1251788731
 30
0.0
 10
1.8674162972
 20
2.1308044853
 30
0.0
 10
1.8537201071
 20
2.1372310232
 30
0.0
 10
1.8410508415
 20
2.1443526067
 30
0.0
 10
1.829610419
 20
2.152056939
 30
0.0
 10
1.8195799938
 20
2.1602228369
 30
0.0
 10
1.8111167798
 20
2.168723582
 30
0.0
 10
1.8043562198
 20
2.1774343329
 30
0.0
 10
1.7994063776
 20
2.1862305463
 30
0.0
 10
1.7963677531
 20
2.1949906787
 30
0.0
 10
1.795489513
 20
2.2022501584
 30
0.0
 10
1.7958435298
 20
2.2077920128
 30
0.0
 10
1.7963535442
 20
2.2104649401
 30
0.0
 10
1.7966891534
 20
2.2117709798
 30
0.0
  0
SPLINE
  5
5BB
100
AcDbEntity
  8
0
100
AcDbSpline
 62
6
  6
CONTINUOUS
 70
0
 71
3
 72
15
 73
11
 74
0
 42
0.0000001
 43
0.0000001
 44
0.0000000001
 40
0.0
 40
0.0
 40
0.0
 40
0.0
 40
0.1412828665
 40
0.2777063837
 40
0.4087714205
 40
0.5346233844
 40
0.6557494347
 40
0.7729192734
 40
0.8872201397
 40
1.0
 40
1.0
 40
1.0
 40
1.0
 10
1.9188402641
 20
2.9038242666
 30
0.0
 10
1.9225650902
 20
2.9038242666
 30
0.0
 10
1.9298932709
 20
2.9034496091
 30
0.0
 10
1.9405533808
 20
2.9017188755
 30
0.0
 10
1.9505432897
 20
2.8988374265
 30
0.0
 10
1.9597112147
 20
2.894851185
 30
0.0
 10
1.9679210997
 20
2.889809492
 30
0.0
 10
1.9750506277
 20
2.8837844822
 30
0.0
 10
1.9809788384
 20
2.8768608553
 30
0.0
 10
1.9840805229
 20
2.8717010127
 30
0.0
 10
1.9853903327
 20
2.8690316886
 30
0.0
  0
SPLINE
  5
5BC
100
AcDbEntity
  8
0
100
AcDbSpline
 62
6
  6
CONTINUOUS
 70
0
 71
3
 72
14
 73
10
 74
0
 42
0.0000001
 43
0.0000001
 44
0.0000000001
 40
0.0
 40
0.0
 40
0.0
 40
0.0
 40
0.2368312842
 40
0.3628378808
 40
0.4917664796
 40
0.6217922454
 40
0.7510008948
 40
0.8776536945
 40
1.0
 40
1.0
 40
1.0
 40
1.0
 10
1.8064190166
 20
2.8380248061
 30
0.0
 10
1.8113402679
 20
2.8475836933
 30
0.0
 10
1.8214784168
 20
2.8609802164
 30
0.0
 10
1.8382578328
 20
2.8757492479
 30
0.0
 10
1.8528015328
 20
2.8855380027
 30
0.0
 10
1.8685816386
 20
2.893478351
 30
0.0
 10
1.885137558
 20
2.8993502691
 30
0.0
 10
1.9019694992
 20
2.9029668904
 30
0.0
 10
1.9132861618
 20
2.9038242666
 30
0.0
 10
1.9188402641
 20
2.9038242666
 30
0.0
  0
SPLINE
  5
5BD
100
AcDbEntity
  8
0
100
AcDbSpline
 62
6
  6
CONTINUOUS
 70
0
 71
3
 72
11
 73
7
 74
0
 42
0.0000001
 43
0.0000001
 44
0.0000000001
 40
0.0
 40
0.0
 40
0.0
 40
0.0
 40
0.2411160358
 40
0.4917463782
 40
0.7465444676
 40
1.0
 40
1.0
 40
1.0
 40
1.0
 10
1.8998999452
 20
2.683269517
 30
0.0
 10
1.9068133462
 20
2.683269517
 30
0.0
 10
1.920935642
 20
2.6845988569
 30
0.0
 10
1.9417086669
 20
2.6901133524
 30
0.0
 10
1.9616856744
 20
2.6989481768
 30
0.0
 10
1.974005546
 20
2.706865091
 30
0.0
 10
1.9797795823
 20
2.7112778881
 30
0.0
  0
SPLINE
  5
5BE
100
AcDbEntity
  8
0
100
AcDbSpline
 62
6
  6
CONTINUOUS
 70
0
 71
3
 72
15
 73
11
 74
0
 42
0.0000001
 43
0.0000001
 44
0.0000000001
 40
0.0
 40
0.0
 40
0.0
 40
0.0
 40
0.2840798585
 40
0.4182891493
 40
0.5459297281
 40
0.6668856128
 40
0.7817978893
 40
0.8920762274
 40
0.9462007595
 40
1.0
 40
1.0
 40
1.0
 40
1.0
 10
1.9797795823
 20
2.7112778881
 30
0.0
 10
1.9881180027
 20
2.7176505114
 30
0.0
 10
1.9993897343
 20
2.7285526382
 30
0.0
 10
2.0107004611
 20
2.7453168238
 30
0.0
 10
2.0167836883
 20
2.7581526009
 30
0.0
 10
2.0204391559
 20
2.7711476885
 30
0.0
 10
2.0215588697
 20
2.7839677148
 30
0.0
 10
2.0203033741
 20
2.794298244
 30
0.0
 10
2.0180145859
 20
2.8020417408
 30
0.0
 10
2.0164571519
 20
2.8057233058
 30
0.0
 10
2.0155807375
 20
2.8075071385
 30
0.0
  0
LINE
  5
5BF
100
AcDbEntity
  8
0
100
AcDbLine
 62
6
  6
CONTINUOUS
 10
1.9697052813
 20
2.816824464
 11
1.9821220479
 21
2.8106083643
  0
SPLINE
  5
5C0
100
AcDbEntity
  8
0
100
AcDbSpline
 62
6
  6
CONTINUOUS
 70
0
 71
3
 72
15
 73
11
 74
0
 42
0.0000001
 43
0.0000001
 44
0.0000000001
 40
0.0
 40
0.0
 40
0.0
 40
0.0
 40
0.1002313829
 40
0.2118978032
 40
0.3337742674
 40
0.4637217067
 40
0.5987484672
 40
0.7354307179
 40
0.8703684713
 40
1.0
 40
1.0
 40
1.0
 40
1.0
 10
3.5572623452
 20
2.368033914
 30
0.0
 10
3.5551887217
 20
2.3722595143
 30
0.0
 10
3.5496973393
 20
2.3806625402
 30
0.0
 10
3.5388226135
 20
2.3920393056
 30
0.0
 10
3.5252581389
 20
2.40249616
 30
0.0
 10
3.5095164608
 20
2.4116546285
 30
0.0
 10
3.4921739378
 20
2.4191756029
 30
0.0
 10
3.4738779132
 20
2.4247856731
 30
0.0
 10
3.4553197702
 20
2.4282645875
 30
0.0
 10
3.4428853768
 20
2.4291070934
 30
0.0
 10
3.4367977391
 20
2.4291070934
 30
0.0
  0
SPLINE
  5
5C1
100
AcDbEntity
  8
0
100
AcDbSpline
 62
6
  6
CONTINUOUS
 70
0
 71
3
 72
15
 73
11
 74
0
 42
0.0000001
 43
0.0000001
 44
0.0000000001
 40
0.0
 40
0.0
 40
0.0
 40
0.0
 40
0.100189984
 40
0.211905691
 40
0.3337857792
 40
0.4637276801
 40
0.5987315565
 40
0.7354179983
 40
0.8704280347
 40
1.0
 40
1.0
 40
1.0
 40
1.0
 10
3.3745180969
 20
1.9763704592
 30
0.0
 10
3.3738588239
 20
1.9777139162
 30
0.0
 10
3.3721109355
 20
1.9803858651
 30
0.0
 10
3.3686536736
 20
1.9840059733
 30
0.0
 10
3.3643385436
 20
1.9873324781
 30
0.0
 10
3.3593309124
 20
1.9902431934
 30
0.0
 10
3.3538162403
 20
1.9926373737
 30
0.0
 10
3.3479959365
 20
1.9944217723
 30
0.0
 10
3.3420927703
 20
1.9955266216
 30
0.0
 10
3.3381377523
 20
1.9957957707
 30
0.0
 10
3.3362023825
 20
1.9957957707
 30
0.0
  0
SPLINE
  5
5C2
100
AcDbEntity
  8
0
100
AcDbSpline
 62
6
  6
CONTINUOUS
 70
0
 71
3
 72
11
 73
7
 74
0
 42
0.0000001
 43
0.0000001
 44
0.0000000001
 40
0.0
 40
0.0
 40
0.0
 40
0.0
 40
0.2643280978
 40
0.5171204535
 40
0.7609221716
 40
1.0
 40
1.0
 40
1.0
 40
1.0
 10
3.4299329612
 20
2.233275366
 30
0.0
 10
3.4316644418
 20
2.2388784395
 30
0.0
 10
3.4341988872
 20
2.2501324564
 30
0.0
 10
3.4349675927
 20
2.2670911394
 30
0.0
 10
3.4325570559
 20
2.2833393132
 30
0.0
 10
3.4288319656
 20
2.2934801581
 30
0.0
 10
3.4264966357
 20
2.2982426961
 30
0.0
  0
SPLINE
  5
5C3
100
AcDbEntity
  8
0
100
AcDbSpline
 62
6
  6
CONTINUOUS
 70
0
 71
3
 72
9
 73
5
 74
0
 42
0.0000001
 43
0.0000001
 44
0.0000000001
 40
0.0
 40
0.0
 40
0.0
 40
0.0
 40
0.2525980077
 40
1.0
 40
1.0
 40
1.0
 40
1.0
 10
3.3942926912
 20
2.3482830627
 30
0.0
 10
3.3951746586
 20
2.347538054
 30
0.0
 10
3.3986067168
 20
2.344519052
 30
0.0
 10
3.4017937978
 20
2.3412204629
 30
0.0
 10
3.4040058862
 20
2.3386173797
 30
0.0
  0
SPLINE
  5
5C4
100
AcDbEntity
  8
0
100
AcDbSpline
 62
6
  6
CONTINUOUS
 70
0
 71
3
 72
15
 73
11
 74
0
 42
0.0000001
 43
0.0000001
 44
0.0000000001
 40
0.0
 40
0.0
 40
0.0
 40
0.0
 40
0.1268596709
 40
0.2566741645
 40
0.3876919967
 40
0.5181309636
 40
0.646232141
 40
0.7702898473
 40
0.8886979766
 40
1.0
 40
1.0
 40
1.0
 40
1.0
 10
3.2655091314
 20
2.1713001009
 30
0.0
 10
3.2646284083
 20
2.1775799695
 30
0.0
 10
3.263193636
 20
2.1903368316
 30
0.0
 10
3.2620034517
 20
2.2096872741
 30
0.0
 10
3.261759685
 20
2.2292520729
 30
0.0
 10
3.2624661976
 20
2.2487198857
 30
0.0
 10
3.2641111577
 20
2.2677821324
 30
0.0
 10
3.2666677999
 20
2.2861377452
 30
0.0
 10
3.270094379
 20
2.3034960767
 30
0.0
 10
3.2730239349
 20
2.3146094818
 30
0.0
 10
3.2746428159
 20
2.3199323943
 30
0.0
  0
SPLINE
  5
5C5
100
AcDbEntity
  8
0
100
AcDbSpline
 62
6
  6
CONTINUOUS
 70
0
 71
3
 72
16
 73
12
 74
0
 42
0.0000001
 43
0.0000001
 44
0.0000000001
 40
0.0
 40
0.0
 40
0.0
 40
0.0
 40
0.1729561325
 40
0.3321588848
 40
0.4766961328
 40
0.6062078445
 40
0.7210901503
 40
0.8227926467
 40
0.9141867306
 40
0.9574719123
 40
1.0
 40
1.0
 40
1.0
 40
1.0
 10
3.2746428159
 20
2.3199323943
 30
0.0
 10
3.2759780123
 20
2.3243225464
 30
0.0
 10
3.2788044252
 20
2.3326781064
 30
0.0
 10
3.2837434582
 20
2.34433556
 30
0.0
 10
3.2891595152
 20
2.3544951481
 30
0.0
 10
3.2949917668
 20
2.3630381169
 30
0.0
 10
3.3011865103
 20
2.3698662954
 30
0.0
 10
3.3076930809
 20
2.3748935502
 30
0.0
 10
3.31345871
 20
2.3775435384
 30
0.0
 10
3.3180576566
 20
2.3785836735
 30
0.0
 10
3.3203367291
 20
2.378764966
 30
0.0
 10
3.3214650206
 20
2.3787719799
 30
0.0
  0
SPLINE
  5
5C6
100
AcDbEntity
  8
0
100
AcDbSpline
 62
6
  6
CONTINUOUS
 70
0
 71
3
 72
9
 73
5
 74
0
 42
0.0000001
 43
0.0000001
 44
0.0000000001
 40
0.0
 40
0.0
 40
0.0
 40
0.0
 40
0.242851786
 40
1.0
 40
1.0
 40
1.0
 40
1.0
 10
3.3206370303
 20
2.3788370684
 30
0.0
 10
3.3175366762
 20
2.3791591786
 30
0.0
 10
3.3047249705
 20
2.3800326871
 30
0.0
 10
3.2918121713
 20
2.3791497293
 30
0.0
 10
3.2822115995
 20
2.3776427882
 30
0.0
  0
SPLINE
  5
5C7
100
AcDbEntity
  8
0
100
AcDbSpline
 62
6
  6
CONTINUOUS
 70
0
 71
3
 72
11
 73
7
 74
0
 42
0.0000001
 43
0.0000001
 44
0.0000000001
 40
0.0
 40
0.0
 40
0.0
 40
0.0
 40
0.2336862438
 40
0.4747258836
 40
0.728958257
 40
1.0
 40
1.0
 40
1.0
 40
1.0
 10
2.5428540938
 20
1.6374466142
 30
0.0
 10
2.5431684503
 20
1.6384648666
 30
0.0
 10
2.5435823632
 20
1.6406101077
 30
0.0
 10
2.5435056403
 20
1.6439556887
 30
0.0
 10
2.5427536788
 20
1.6473874546
 30
0.0
 10
2.5418513446
 20
1.6496188585
 30
0.0
 10
2.5413068234
 20
1.6507284761
 30
0.0
  0
SPLINE
  5
5C8
100
AcDbEntity
  8
0
100
AcDbSpline
 62
6
  6
CONTINUOUS
 70
0
 71
3
 72
11
 73
7
 74
0
 42
0.0000001
 43
0.0000001
 44
0.0000000001
 40
0.0
 40
0.0
 40
0.0
 40
0.0
 40
0.2267669696
 40
0.4651980616
 40
0.7232593218
 40
1.0
 40
1.0
 40
1.0
 40
1.0
 10
2.8420025999
 20
2.3358128423
 30
0.0
 10
2.8421322336
 20
2.3355498585
 30
0.0
 10
2.8424948243
 20
2.3350532942
 30
0.0
 10
2.8432707967
 20
2.334506635
 30
0.0
 10
2.8442260286
 20
2.3341775926
 30
0.0
 10
2.8449200489
 20
2.3341057665
 30
0.0
 10
2.8452778609
 20
2.3341057665
 30
0.0
  0
SPLINE
  5
5C9
100
AcDbEntity
  8
0
100
AcDbSpline
 62
6
  6
CONTINUOUS
 70
0
 71
3
 72
9
 73
5
 74
0
 42
0.0000001
 43
0.0000001
 44
0.0000000001
 40
0.0
 40
0.0
 40
0.0
 40
0.0
 40
0.2432945842
 40
1.0
 40
1.0
 40
1.0
 40
1.0
 10
3.3432826804
 20
1.9015345323
 30
0.0
 10
3.344455399
 20
1.9032302025
 30
0.0
 10
3.3495188949
 20
1.9100299873
 30
0.0
 10
3.3554958302
 20
1.9161359056
 30
0.0
 10
3.3603656366
 20
1.9203076349
 30
0.0
  0
SPLINE
  5
5CA
100
AcDbEntity
  8
0
100
AcDbSpline
 62
6
  6
CONTINUOUS
 70
0
 71
3
 72
15
 73
11
 74
0
 42
0.0000001
 43
0.0000001
 44
0.0000000001
 40
0.0
 40
0.0
 40
0.0
 40
0.0
 40
0.0963755987
 40
0.196371182
 40
0.3031691948
 40
0.4191757986
 40
0.5460803163
 40
0.6849509128
 40
0.8362327597
 40
1.0
 40
1.0
 40
1.0
 40
1.0
 10
3.0449981919
 20
3.3436386736
 30
0.0
 10
3.046030648
 20
3.3436382972
 30
0.0
 10
3.0481406732
 20
3.3434081743
 30
0.0
 10
3.0512453364
 20
3.3423872282
 30
0.0
 10
3.0542874513
 20
3.3407064076
 30
0.0
 10
3.0572495944
 20
3.3383916016
 30
0.0
 10
3.0601169469
 20
3.3354609882
 30
0.0
 10
3.0628721984
 20
3.3319341333
 30
0.0
 10
3.0655023545
 20
3.3278373768
 30
0.0
 10
3.0670988464
 20
3.3248598129
 30
0.0
 10
3.0678767852
 20
3.3232873078
 30
0.0
  0
LINE
  5
5CB
100
AcDbEntity
  8
0
100
AcDbLine
 62
6
  6
CONTINUOUS
 10
3.0689413124
 20
3.3210516204
 11
3.072013014
 21
3.3135319826
  0
SPLINE
  5
5CC
100
AcDbEntity
  8
0
100
AcDbSpline
 62
6
  6
CONTINUOUS
 70
0
 71
3
 72
15
 73
11
 74
0
 42
0.0000001
 43
0.0000001
 44
0.0000000001
 40
0.0
 40
0.0
 40
0.0
 40
0.0
 40
0.0858481082
 40
0.1774305509
 40
0.2792167325
 40
0.3941004493
 40
0.5235798991
 40
0.6681546305
 40
0.827409763
 40
1.0
 40
1.0
 40
1.0
 40
1.0
 10
2.0686754281
 20
3.3436385942
 30
0.0
 10
2.0672765799
 20
3.3436393546
 30
0.0
 10
2.0643702609
 20
3.3432069805
 30
0.0
 10
2.060183574
 20
3.3413124684
 30
0.0
 10
2.0561569988
 20
3.338254012
 30
0.0
 10
2.0523241702
 20
3.3340852178
 30
0.0
 10
2.0487088268
 20
3.3288609505
 30
0.0
 10
2.0453477657
 20
3.3226386035
 30
0.0
 10
2.0422813931
 20
3.3154979225
 30
0.0
 10
2.0405214868
 20
3.3103797766
 30
0.0
 10
2.0396911731
 20
3.3076928805
 30
0.0
  0
SPLINE
  5
5CD
100
AcDbEntity
  8
0
100
AcDbSpline
 62
6
  6
CONTINUOUS
 70
0
 71
3
 72
15
 73
11
 74
0
 42
0.0000001
 43
0.0000001
 44
0.0000000001
 40
0.0
 40
0.0
 40
0.0
 40
0.0
 40
0.1127865949
 40
0.2270845024
 40
0.3442548444
 40
0.4653655317
 40
0.5912225416
 40
0.7223283529
 40
0.8587755089
 40
1.0
 40
1.0
 40
1.0
 40
1.0
 10
2.6807909228
 20
3.1614747043
 30
0.0
 10
2.6818047934
 20
3.1594110966
 30
0.0
 10
2.6842023148
 20
3.1554208174
 30
0.0
 10
2.6887895814
 20
3.1500699065
 30
0.0
 10
2.6943023865
 20
3.1454121942
 30
0.0
 10
2.7006504531
 20
3.1415140569
 30
0.0
 10
2.7077403258
 20
3.1384324837
 30
0.0
 10
2.7154664834
 20
3.1362051896
 30
0.0
 10
2.7237094082
 20
3.1348680879
 30
0.0
 10
2.7293749783
 20
3.1345776335
 30
0.0
 10
2.7322539207
 20
3.1345776335
 30
0.0
  0
SPLINE
  5
5CE
100
AcDbEntity
  8
0
100
AcDbSpline
 62
6
  6
CONTINUOUS
 70
0
 71
3
 72
11
 73
7
 74
0
 42
0.0000001
 43
0.0000001
 44
0.0000000001
 40
0.0
 40
0.0
 40
0.0
 40
0.0
 40
0.2589369498
 40
0.5104206958
 40
0.7565940943
 40
1.0
 40
1.0
 40
1.0
 40
1.0
 10
2.3538721756
 20
3.362508056
 30
0.0
 10
2.3569811587
 20
3.3607049207
 30
0.0
 10
2.3628868916
 20
3.3567445679
 30
0.0
 10
2.3707197653
 20
3.3496956499
 30
0.0
 10
2.377285386
 20
3.3417280656
 30
0.0
 10
2.3807603442
 20
3.3358507286
 30
0.0
 10
2.3822487368
 20
3.332817793
 30
0.0
  0
SPLINE
  5
5CF
100
AcDbEntity
  8
0
100
AcDbSpline
 62
6
  6
CONTINUOUS
 70
0
 71
3
 72
11
 73
7
 74
0
 42
0.0000001
 43
0.0000001
 44
0.0000000001
 40
0.0
 40
0.0
 40
0.0
 40
0.0
 40
0.2433446513
 40
0.4894261542
 40
0.7408972422
 40
1.0
 40
1.0
 40
1.0
 40
1.0
 10
2.157818695
 20
3.2226835249
 30
0.0
 10
2.1563306605
 20
3.2257157308
 30
0.0
 10
2.1538087895
 20
3.2320584438
 30
0.0
 10
2.1515224972
 20
3.2421240102
 30
0.0
 10
2.1507384122
 20
3.2526335688
 30
0.0
 10
2.1512214822
 20
3.2597300619
 30
0.0
 10
2.1516977823
 20
3.2632947562
 30
0.0
  0
SPLINE
  5
5D0
100
AcDbEntity
  8
0
100
AcDbSpline
 62
6
  6
CONTINUOUS
 70
0
 71
3
 72
9
 73
5
 74
0
 42
0.0000001
 43
0.0000001
 44
0.0000000001
 40
0.0
 40
0.0
 40
0.0
 40
0.0
 40
0.5117270016
 40
1.0
 40
1.0
 40
1.0
 40
1.0
 10
2.5999144977
 20
2.9185445616
 30
0.0
 10
2.6049542712
 20
2.9262152577
 30
0.0
 10
2.6138717076
 20
2.9418442489
 30
0.0
 10
2.6205300485
 20
2.958578566
 30
0.0
 10
2.6231156807
 20
2.9669456748
 30
0.0
  0
SPLINE
  5
5D1
100
AcDbEntity
  8
0
100
AcDbSpline
 62
6
  6
CONTINUOUS
 70
0
 71
3
 72
11
 73
7
 74
0
 42
0.0000001
 43
0.0000001
 44
0.0000000001
 40
0.0
 40
0.0
 40
0.0
 40
0.0
 40
0.1953649584
 40
0.4179744406
 40
0.6847145146
 40
1.0
 40
1.0
 40
1.0
 40
1.0
 10
2.4596403992
 20
3.1986586186
 30
0.0
 10
2.4599725632
 20
3.1986581474
 30
0.0
 10
2.4606881896
 20
3.1984907297
 30
0.0
 10
2.4616559637
 20
3.1978102563
 30
0.0
 10
2.4625401835
 20
3.1967532737
 30
0.0
 10
2.463032764
 20
3.1958899908
 30
0.0
 10
2.4632689196
 20
3.1954087562
 30
0.0
  0
SPLINE
  5
5D2
100
AcDbEntity
  8
0
100
AcDbSpline
 62
6
  6
CONTINUOUS
 70
0
 71
3
 72
11
 73
7
 74
0
 42
0.0000001
 43
0.0000001
 44
0.0000000001
 40
0.0
 40
0.0
 40
0.0
 40
0.0
 40
0.1903862876
 40
0.4110523267
 40
0.6797822137
 40
1.0
 40
1.0
 40
1.0
 40
1.0
 10
1.4810130931
 20
3.1986586186
 30
0.0
 10
1.4806527585
 20
3.1986591298
 30
0.0
 10
1.4798690249
 20
3.1984596985
 30
0.0
 10
1.4788304224
 20
3.1976632837
 30
0.0
 10
1.4778935059
 20
3.1964368406
 30
0.0
 10
1.4773810956
 20
3.1954414993
 30
0.0
 10
1.4771372082
 20
3.1948866763
 30
0.0
  0
SPLINE
  5
5D3
100
AcDbEntity
  8
0
100
AcDbSpline
 62
6
  6
CONTINUOUS
 70
0
 71
3
 72
11
 73
7
 74
0
 42
0.0000001
 43
0.0000001
 44
0.0000000001
 40
0.0
 40
0.0
 40
0.0
 40
0.0
 40
0.2039478174
 40
0.4301379242
 40
0.6935540533
 40
1.0
 40
1.0
 40
1.0
 40
1.0
 10
2.2829716135
 20
2.6492344999
 30
0.0
 10
2.2833548405
 20
2.64923391
 30
0.0
 10
2.2841684914
 20
2.6490715541
 30
0.0
 10
2.2853008326
 20
2.6483900103
 30
0.0
 10
2.2863573725
 20
2.6473158563
 30
0.0
 10
2.2869623786
 20
2.646426423
 30
0.0
 10
2.2872551566
 20
2.6459305834
 30
0.0
  0
SPLINE
  5
5D4
100
AcDbEntity
  8
0
100
AcDbSpline
 62
6
  6
CONTINUOUS
 70
0
 71
3
 72
14
 73
10
 74
0
 42
0.0000001
 43
0.0000001
 44
0.0000000001
 40
0.0
 40
0.0
 40
0.0
 40
0.0
 40
0.0796270471
 40
0.1666623969
 40
0.2663347215
 40
0.3815739782
 40
0.5133635141
 40
0.6615297353
 40
1.0
 40
1.0
 40
1.0
 40
1.0
 10
1.3043443055
 20
2.6492344997
 30
0.0
 10
1.3039912989
 20
2.6492350429
 30
0.0
 10
1.3032475111
 20
2.649100439
 30
0.0
 10
1.302199098
 20
2.6485256894
 30
0.0
 10
1.3012076186
 20
2.6476116869
 30
0.0
 10
1.3002829389
 20
2.6463761249
 30
0.0
 10
1.2994313903
 20
2.6448401317
 30
0.0
 10
1.2983671709
 20
2.6423094818
 30
0.0
 10
1.2977984599
 20
2.640216983
 30
0.0
 10
1.2974892287
 20
2.6387486674
 30
0.0
  0
SPLINE
  5
5D5
100
AcDbEntity
  8
0
100
AcDbSpline
 62
6
  6
CONTINUOUS
 70
0
 71
3
 72
16
 73
12
 74
0
 42
0.0000001
 43
0.0000001
 44
0.0000000001
 40
0.0
 40
0.0
 40
0.0
 40
0.0
 40
0.0461118441
 40
0.0928448943
 40
0.1902916717
 40
0.2963778101
 40
0.4135401657
 40
0.5428262147
 40
0.6843087325
 40
0.8372883612
 40
1.0
 40
1.0
 40
1.0
 40
1.0
 10
2.0388263864
 20
2.1495785664
 30
0.0
 10
2.0384636792
 20
2.1481670738
 30
0.0
 10
2.0375382309
 20
2.1453710905
 30
0.0
 10
2.0348936544
 20
2.1399526314
 30
0.0
 10
2.0300406749
 20
2.1335964704
 30
0.0
 10
2.0221963604
 20
2.1270730158
 30
0.0
 10
2.0124259721
 20
2.121611475
 30
0.0
 10
2.0009163591
 20
2.1172803884
 30
0.0
 10
1.987866802
 20
2.1141425959
 30
0.0
 10
1.9735195984
 20
2.1122556679
 30
0.0
 10
1.9635359558
 20
2.1118553514
 30
0.0
 10
1.958393508
 20
2.1118553514
 30
0.0
  0
SPLINE
  5
5D6
100
AcDbEntity
  8
0
100
AcDbSpline
 62
6
  6
CONTINUOUS
 70
0
 71
3
 72
11
 73
7
 74
0
 42
0.0000001
 43
0.0000001
 44
0.0000000001
 40
0.0
 40
0.0
 40
0.0
 40
0.0
 40
0.2440226846
 40
0.4906454618
 40
0.7421464462
 40
1.0
 40
1.0
 40
1.0
 40
1.0
 10
1.8031507319
 20
2.7796014818
 30
0.0
 10
1.8020101177
 20
2.7819259942
 30
0.0
 10
1.800058696
 20
2.7867763523
 30
0.0
 10
1.7982084686
 20
2.7944578248
 30
0.0
 10
1.7974499471
 20
2.8024684095
 30
0.0
 10
1.7976657971
 20
2.8078867876
 30
0.0
 10
1.7979466953
 20
2.8106083643
 30
0.0
  0
SPLINE
  5
5D7
100
AcDbEntity
  8
0
100
AcDbSpline
 62
6
  6
CONTINUOUS
 70
0
 71
3
 72
15
 73
11
 74
0
 42
0.0000001
 43
0.0000001
 44
0.0000000001
 40
0.0
 40
0.0
 40
0.0
 40
0.0
 40
0.1127865949
 40
0.2270845024
 40
0.3442548444
 40
0.4653655317
 40
0.5912225416
 40
0.7223283529
 40
0.8587755089
 40
1.0
 40
1.0
 40
1.0
 40
1.0
 10
1.8333586167
 20
2.7180472583
 30
0.0
 10
1.8346695449
 20
2.7153790266
 30
0.0
 10
1.8377695248
 20
2.710219621
 30
0.0
 10
1.8437008313
 20
2.7033009273
 30
0.0
 10
1.8508288532
 20
2.697278535
 30
0.0
 10
1.8590368629
 20
2.6922382683
 30
0.0
 10
1.8682040231
 20
2.6882538138
 30
0.0
 10
1.8781938957
 20
2.6853739367
 30
0.0
 10
1.888851945
 20
2.6836450727
 30
0.0
 10
1.896177491
 20
2.683269517
 30
0.0
 10
1.8998999452
 20
2.683269517
 30
0.0
  0
SPLINE
  5
5D8
100
AcDbEntity
  8
0
100
AcDbSpline
 62
6
  6
CONTINUOUS
 70
0
 71
3
 72
13
 73
9
 74
0
 42
0.0000001
 43
0.0000001
 44
0.0000000001
 40
0.0
 40
0.0
 40
0.0
 40
0.0
 40
0.085927649
 40
0.1775644395
 40
0.2794087074
 40
0.3943842534
 40
0.6683762795
 40
1.0
 40
1.0
 40
1.0
 40
1.0
 10
2.343946853
 20
2.6522557746
 30
0.0
 10
2.3436010349
 20
2.6522550108
 30
0.0
 10
2.3428831787
 20
2.6521460665
 30
0.0
 10
2.3418481408
 20
2.6516787885
 30
0.0
 10
2.3408533106
 20
2.6509221357
 30
0.0
 10
2.3395123999
 20
2.649461069
 30
0.0
 10
2.3380356348
 20
2.6469329552
 30
0.0
 10
2.3371780477
 20
2.6446438633
 30
0.0
 10
2.3367838162
 20
2.6433687852
 30
0.0
  0
SPLINE
  5
5D9
100
AcDbEntity
  8
0
100
AcDbSpline
 62
6
  6
CONTINUOUS
 70
0
 71
3
 72
11
 73
7
 74
0
 42
0.0000001
 43
0.0000001
 44
0.0000000001
 40
0.0
 40
0.0
 40
0.0
 40
0.0
 40
0.1763412708
 40
0.3936282499
 40
0.6693259818
 40
1.0
 40
1.0
 40
1.0
 40
1.0
 10
1.7072447915
 20
2.9686568727
 30
0.0
 10
1.7070943572
 20
2.9686561242
 30
0.0
 10
1.7067577653
 20
2.9685437982
 30
0.0
 10
1.7063472896
 20
2.9681311457
 30
0.0
 10
1.7059906914
 20
2.9675211163
 30
0.0
 10
1.7058073324
 20
2.9670349869
 30
0.0
 10
1.7057240049
 20
2.9667654776
 30
0.0
  0
SPLINE
  5
5DA
100
AcDbEntity
  8
0
100
AcDbSpline
 62
6
  6
CONTINUOUS
 70
0
 71
3
 72
11
 73
7
 74
0
 42
0.0000001
 43
0.0000001
 44
0.0000000001
 40
0.0
 40
0.0
 40
0.0
 40
0.0
 40
0.1956822027
 40
0.4194387504
 40
0.6861176395
 40
1.0
 40
1.0
 40
1.0
 40
1.0
 10
2.2829078982
 20
2.9686568727
 30
0.0
 10
2.2830191254
 20
2.968657428
 30
0.0
 10
2.2832596872
 20
2.9686017654
 30
0.0
 10
2.2835826204
 20
2.9683720403
 30
0.0
 10
2.2838794265
 20
2.9680202721
 30
0.0
 10
2.2840441789
 20
2.9677324893
 30
0.0
 10
2.2841227459
 20
2.9675723044
 30
0.0
  0
SPLINE
  5
5DB
100
AcDbEntity
  8
0
100
AcDbSpline
 62
6
  6
CONTINUOUS
 70
0
 71
3
 72
26
 73
22
 74
0
 42
0.0000001
 43
0.0000001
 44
0.0000000001
 40
0.0
 40
0.0
 40
0.0
 40
0.0
 40
0.0253041108
 40
0.0507530061
 40
0.0764868049
 40
0.1026339964
 40
0.1565383509
 40
0.2131909999
 40
0.2729016292
 40
0.3356535361
 40
0.4011462019
 40
0.4688543222
 40
0.538092406
 40
0.6080685048
 40
0.6779393166
 40
0.7468759857
 40
0.8141063803
 40
0.8468828847
 40
0.8790020582
 40
0.9410580976
 40
1.0
 40
1.0
 40
1.0
 40
1.0
 10
3.1616562934
 20
2.1683080358
 30
0.0
 10
3.1628987067
 20
2.1657743294
 30
0.0
 10
3.1656734137
 20
2.1608254805
 30
0.0
 10
3.1706478435
 20
2.1538766346
 30
0.0
 10
3.176403637
 20
2.1474319159
 30
0.0
 10
3.1851538039
 20
2.1394919333
 30
0.0
 10
3.1979671189
 20
2.131036822
 30
0.0
 10
3.2155552615
 20
2.1236355186
 30
0.0
 10
3.2350732515
 20
2.1190121074
 30
0.0
 10
3.2560319062
 20
2.1172647001
 30
0.0
 10
3.2779162099
 20
2.1184221055
 30
0.0
 10
3.3001879242
 20
2.1224451933
 30
0.0
 10
3.3222988712
 20
2.1292306387
 30
0.0
 10
3.3437016745
 20
2.1386107989
 30
0.0
 10
3.3638683021
 20
2.1503512393
 30
0.0
 10
3.3822974364
 20
2.1641607336
 30
0.0
 10
3.3959458253
 20
2.1772261982
 30
0.0
 10
3.4055593439
 20
2.1884055068
 30
0.0
 10
3.4140584979
 20
2.1997397445
 30
0.0
 10
3.4228707073
 20
2.2144361159
 30
0.0
 10
3.4279922338
 20
2.2269951699
 30
0.0
 10
3.4299329612
 20
2.233275366
 30
0.0
  0
SPLINE
  5
5DC
100
AcDbEntity
  8
0
100
AcDbSpline
 62
6
  6
CONTINUOUS
 70
0
 71
3
 72
9
 73
5
 74
0
 42
0.0000001
 43
0.0000001
 44
0.0000000001
 40
0.0
 40
0.0
 40
0.0
 40
0.0
 40
0.246800847
 40
1.0
 40
1.0
 40
1.0
 40
1.0
 10
3.1427711154
 20
2.2146621534
 30
0.0
 10
3.1425492014
 20
2.216043983
 30
0.0
 10
3.1417935558
 20
2.2216653486
 30
0.0
 10
3.1416116756
 20
2.2273614707
 30
0.0
 10
3.1417774435
 20
2.2316294242
 30
0.0
  0
SPLINE
  5
5DD
100
AcDbEntity
  8
0
100
AcDbSpline
 62
6
  6
CONTINUOUS
 70
0
 71
3
 72
9
 73
5
 74
0
 42
0.0000001
 43
0.0000001
 44
0.0000000001
 40
0.0
 40
0.0
 40
0.0
 40
0.0
 40
0.2537617476
 40
1.0
 40
1.0
 40
1.0
 40
1.0
 10
3.1417758407
 20
2.2315865605
 30
0.0
 10
3.1417207826
 20
2.2301522495
 30
0.0
 10
3.1416377286
 20
2.2244959464
 30
0.0
 10
3.142101782
 20
2.2188297316
 30
0.0
 10
3.1427710834
 20
2.2146621424
 30
0.0
  0
SPLINE
  5
5DE
100
AcDbEntity
  8
0
100
AcDbSpline
 62
6
  6
CONTINUOUS
 70
0
 71
3
 72
9
 73
5
 74
0
 42
0.0000001
 43
0.0000001
 44
0.0000000001
 40
0.0
 40
0.0
 40
0.0
 40
0.0
 40
0.4970656968
 40
1.0
 40
1.0
 40
1.0
 40
1.0
 10
3.1539453751
 20
2.1850945091
 30
0.0
 10
3.1555215458
 20
2.1826196146
 30
0.0
 10
3.1589797972
 20
2.1778182414
 30
0.0
 10
3.1629494793
 20
2.1734315334
 30
0.0
 10
3.1650565406
 20
2.1713400736
 30
0.0
  0
SPLINE
  5
5DF
100
AcDbEntity
  8
0
100
AcDbSpline
 62
6
  6
CONTINUOUS
 70
0
 71
3
 72
20
 73
16
 74
0
 42
0.0000001
 43
0.0000001
 44
0.0000000001
 40
0.0
 40
0.0
 40
0.0
 40
0.0
 40
0.0517772341
 40
0.1057132118
 40
0.1622279306
 40
0.2214850753
 40
0.3475287799
 40
0.4138628435
 40
0.4816396295
 40
0.5502308576
 40
0.6189643009
 40
0.7539834709
 40
0.8192266563
 40
0.8822150351
 40
1.0
 40
1.0
 40
1.0
 40
1.0
 10
3.1650565406
 20
2.1713400736
 30
0.0
 10
3.1688366929
 20
2.1675879111
 30
0.0
 10
3.1773145131
 20
2.1606618324
 30
0.0
 10
3.1919563054
 20
2.1525016629
 30
0.0
 10
3.2084400368
 20
2.1465384134
 30
0.0
 10
3.2328826161
 20
2.141559206
 30
0.0
 10
3.2590837479
 20
2.1416016333
 30
0.0
 10
3.2854941549
 20
2.1461130656
 30
0.0
 10
3.3055893963
 20
2.1518390744
 30
0.0
 10
3.3251979822
 20
2.1597335005
 30
0.0
 10
3.3499995775
 20
2.1728370521
 30
0.0
 10
3.3723893485
 20
2.1895216964
 30
0.0
 10
3.3911272387
 20
2.2091520676
 30
0.0
 10
3.4063329035
 20
2.2294198884
 30
0.0
 10
3.4146580913
 20
2.2464065836
 30
0.0
 10
3.4181836081
 20
2.2579985523
 30
0.0
  0
SPLINE
  5
5E0
100
AcDbEntity
  8
0
100
AcDbSpline
 62
6
  6
CONTINUOUS
 70
0
 71
3
 72
9
 73
5
 74
0
 42
0.0000001
 43
0.0000001
 44
0.0000000001
 40
0.0
 40
0.0
 40
0.0
 40
0.0
 40
0.2525967122
 40
1.0
 40
1.0
 40
1.0
 40
1.0
 10
3.3942930371
 20
2.3482833419
 30
0.0
 10
3.3951749793
 20
2.3475383097
 30
0.0
 10
3.3986069784
 20
2.3445192315
 30
0.0
 10
3.4017940972
 20
2.3412206767
 30
0.0
 10
3.4040062147
 20
2.3386176033
 30
0.0
  0
SPLINE
  5
5E1
100
AcDbEntity
  8
0
100
AcDbSpline
 62
6
  6
CONTINUOUS
 70
0
 71
3
 72
11
 73
7
 74
0
 42
0.0000001
 43
0.0000001
 44
0.0000000001
 40
0.0
 40
0.0
 40
0.0
 40
0.0
 40
0.2392128565
 40
0.4830848308
 40
0.7358370822
 40
1.0
 40
1.0
 40
1.0
 40
1.0
 10
3.4145840723
 20
2.3225182328
 30
0.0
 10
3.4169067225
 20
2.3177873697
 30
0.0
 10
3.4206187048
 20
2.3077183153
 30
0.0
 10
3.4230512985
 20
2.291586766
 30
0.0
 10
3.4223457939
 20
2.2747477668
 30
0.0
 10
3.4198770711
 20
2.2635666919
 30
0.0
 10
3.4181836081
 20
2.2579985523
 30
0.0
  0
SPLINE
  5
5E2
100
AcDbEntity
  8
0
100
AcDbSpline
 62
6
  6
CONTINUOUS
 70
0
 71
3
 72
14
 73
10
 74
0
 42
0.0000001
 43
0.0000001
 44
0.0000000001
 40
0.0
 40
0.0
 40
0.0
 40
0.0
 40
0.1121314125
 40
0.2258858401
 40
0.3427224239
 40
0.4637962554
 40
0.5899021596
 40
0.721417822
 40
1.0
 40
1.0
 40
1.0
 40
1.0
 10
3.4408339875
 20
1.7568794767
 30
0.0
 10
3.4418876092
 20
1.7547359095
 30
0.0
 10
3.4443967338
 20
1.7505960706
 30
0.0
 10
3.4492303784
 20
1.7450798187
 30
0.0
 10
3.4550605349
 20
1.7403236799
 30
0.0
 10
3.4617834778
 20
1.7364027249
 30
0.0
 10
3.469289359
 20
1.7333750178
 30
0.0
 10
3.4803769758
 20
1.7305326463
 30
0.0
 10
3.4891945702
 20
1.7299563037
 30
0.0
 10
3.4951248389
 20
1.7301691148
 30
0.0
  0
SPLINE
  5
5E3
100
AcDbEntity
  8
0
100
AcDbSpline
 62
6
  6
CONTINUOUS
 70
0
 71
3
 72
15
 73
11
 74
0
 42
0.0000001
 43
0.0000001
 44
0.0000000001
 40
0.0
 40
0.0
 40
0.0
 40
0.0
 40
0.1587944496
 40
0.307379054
 40
0.4455726218
 40
0.5735212754
 40
0.6918221876
 40
0.8014046209
 40
0.9035642609
 40
1.0
 40
1.0
 40
1.0
 40
1.0
 10
2.5746679988
 20
1.9562013834
 30
0.0
 10
2.5728940232
 20
1.9598163657
 30
0.0
 10
2.5692602588
 20
1.9667188295
 30
0.0
 10
2.5633432312
 20
1.9763553403
 30
0.0
 10
2.557168156
 20
1.9848830883
 30
0.0
 10
2.5507629265
 20
1.9922521941
 30
0.0
 10
2.5441581991
 20
1.9984276805
 30
0.0
 10
2.5373764003
 20
2.0033738134
 30
0.0
 10
2.5304538252
 20
2.0070594486
 30
0.0
 10
2.5256593739
 20
2.008692603
 30
0.0
 10
2.5232824679
 20
2.0092676172
 30
0.0
  0
SPLINE
  5
5E4
100
AcDbEntity
  8
0
100
AcDbSpline
 62
6
  6
CONTINUOUS
 70
0
 71
3
 72
11
 73
7
 74
0
 42
0.0000001
 43
0.0000001
 44
0.0000000001
 40
0.0
 40
0.0
 40
0.0
 40
0.0
 40
0.1982555805
 40
0.4260562897
 40
0.6923314863
 40
1.0
 40
1.0
 40
1.0
 40
1.0
 10
2.5232824679
 20
2.0092676172
 30
0.0
 10
2.5229897152
 20
2.0093384391
 30
0.0
 10
2.5223877717
 20
2.0096107291
 30
0.0
 10
2.5215821206
 20
2.010301025
 30
0.0
 10
2.5208321397
 20
2.0112684674
 30
0.0
 10
2.5204052553
 20
2.0120319719
 30
0.0
 10
2.5201993361
 20
2.0124515912
 30
0.0
  0
SPLINE
  5
5E5
100
AcDbEntity
  8
0
100
AcDbSpline
 62
6
  6
CONTINUOUS
 70
0
 71
3
 72
13
 73
9
 74
0
 42
0.0000001
 43
0.0000001
 44
0.0000000001
 40
0.0
 40
0.0
 40
0.0
 40
0.0
 40
0.1009663341
 40
0.2147919201
 40
0.3387604567
 40
0.4699008044
 40
0.7407473175
 40
1.0
 40
1.0
 40
1.0
 40
1.0
 10
2.2609579072
 20
2.5407300801
 30
0.0
 10
2.2606729445
 20
2.5413107731
 30
0.0
 10
2.2601592322
 20
2.5425918607
 30
0.0
 10
2.2595645948
 20
2.5446819597
 30
0.0
 10
2.2591194309
 20
2.5470060939
 30
0.0
 10
2.2587364706
 20
2.5503563985
 30
0.0
 10
2.2586942437
 20
2.554605054
 30
0.0
 10
2.2591085969
 20
2.557990266
 30
0.0
 10
2.2594508811
 20
2.5596155265
 30
0.0
  0
SPLINE
  5
5E6
100
AcDbEntity
  8
0
100
AcDbSpline
 62
6
  6
CONTINUOUS
 70
0
 71
3
 72
14
 73
10
 74
0
 42
0.0000001
 43
0.0000001
 44
0.0000000001
 40
0.0
 40
0.0
 40
0.0
 40
0.0
 40
0.3384703564
 40
0.4866367667
 40
0.6184263078
 40
0.7336655173
 40
0.8333377403
 40
0.9203730028
 40
1.0
 40
1.0
 40
1.0
 40
1.0
 10
2.2761165348
 20
2.6387486674
 30
0.0
 10
2.2764257662
 20
2.6402169836
 30
0.0
 10
2.2769944787
 20
2.6423094835
 30
0.0
 10
2.2780586978
 20
2.6448401353
 30
0.0
 10
2.2789102479
 20
2.6463761287
 30
0.0
 10
2.2798349273
 20
2.6476116903
 30
0.0
 10
2.2808264067
 20
2.6485256919
 30
0.0
 10
2.28187482
 20
2.6491004387
 30
0.0
 10
2.2826186071
 20
2.6492350433
 30
0.0
 10
2.2829716135
 20
2.6492344999
 30
0.0
  0
SPLINE
  5
5E7
100
AcDbEntity
  8
0
100
AcDbSpline
 62
6
  6
CONTINUOUS
 70
0
 71
3
 72
15
 73
11
 74
0
 42
0.0000001
 43
0.0000001
 44
0.0000000001
 40
0.0
 40
0.0
 40
0.0
 40
0.0
 40
0.1099924464
 40
0.2334152042
 40
0.3659133909
 40
0.5029732236
 40
0.6396292641
 40
0.7709382581
 40
0.8924625016
 40
1.0
 40
1.0
 40
1.0
 40
1.0
 10
2.4293480884
 20
3.1057434793
 30
0.0
 10
2.4289287965
 20
3.1067639028
 30
0.0
 10
2.4282049638
 20
3.108998171
 30
0.0
 10
2.4274524362
 20
3.1125953477
 30
0.0
 10
2.4269992707
 20
3.1165158931
 30
0.0
 10
2.4268644756
 20
3.1205922099
 30
0.0
 10
2.4270515535
 20
3.1246545447
 30
0.0
 10
2.4275546868
 20
3.1285338369
 30
0.0
 10
2.4283526709
 20
3.1320643991
 30
0.0
 10
2.4291069597
 20
3.134243012
 30
0.0
 10
2.4295409979
 20
3.1352304119
 30
0.0
  0
SPLINE
  5
5E8
100
AcDbEntity
  8
0
100
AcDbSpline
 62
6
  6
CONTINUOUS
 70
0
 71
3
 72
11
 73
7
 74
0
 42
0.0000001
 43
0.0000001
 44
0.0000000001
 40
0.0
 40
0.0
 40
0.0
 40
0.0
 40
0.3202177863
 40
0.5889476733
 40
0.8096137124
 40
1.0
 40
1.0
 40
1.0
 40
1.0
 10
2.4557645143
 20
3.1948866763
 30
0.0
 10
2.4560084017
 20
3.1954414993
 30
0.0
 10
2.456520812
 20
3.1964368406
 30
0.0
 10
2.4574577285
 20
3.1976632837
 30
0.0
 10
2.458496331
 20
3.1984596985
 30
0.0
 10
2.4592800647
 20
3.1986591298
 30
0.0
 10
2.4596403992
 20
3.1986586186
 30
0.0
  0
SPLINE
  5
5E9
100
AcDbEntity
  8
0
100
AcDbSpline
 62
6
  6
CONTINUOUS
 70
0
 71
3
 72
11
 73
7
 74
0
 42
0.0000001
 43
0.0000001
 44
0.0000000001
 40
0.0
 40
0.0
 40
0.0
 40
0.0
 40
0.3152854854
 40
0.5820255594
 40
0.8046350416
 40
1.0
 40
1.0
 40
1.0
 40
1.0
 10
1.4846416135
 20
3.1954087562
 30
0.0
 10
1.4844054579
 20
3.1958899908
 30
0.0
 10
1.4839128774
 20
3.1967532737
 30
0.0
 10
1.4830286576
 20
3.1978102563
 30
0.0
 10
1.4820608835
 20
3.1984907297
 30
0.0
 10
1.4813452571
 20
3.1986581474
 30
0.0
 10
1.4810130931
 20
3.1986586186
 30
0.0
  0
SPLINE
  5
5EA
100
AcDbEntity
  8
0
100
AcDbSpline
 62
6
  6
CONTINUOUS
 70
0
 71
3
 72
11
 73
7
 74
0
 42
0.0000001
 43
0.0000001
 44
0.0000000001
 40
0.0
 40
0.0
 40
0.0
 40
0.0
 40
0.3064457405
 40
0.5698619664
 40
0.7960522463
 40
1.0
 40
1.0
 40
1.0
 40
1.0
 10
1.3086278505
 20
2.6459305834
 30
0.0
 10
1.3083350726
 20
2.6464264228
 30
0.0
 10
1.307730066
 20
2.6473158559
 30
0.0
 10
1.3066735254
 20
2.6483900097
 30
0.0
 10
1.3055411841
 20
2.6490715552
 30
0.0
 10
1.3047275325
 20
2.64923391
 30
0.0
 10
1.3043443055
 20
2.6492344997
 30
0.0
  0
SPLINE
  5
5EB
100
AcDbEntity
  8
0
100
AcDbSpline
 62
6
  6
CONTINUOUS
 70
0
 71
3
 72
24
 73
20
 74
0
 42
0.0000001
 43
0.0000001
 44
0.0000000001
 40
0.0
 40
0.0
 40
0.0
 40
0.0
 40
0.071654952
 40
0.1457850234
 40
0.2213924092
 40
0.2975980575
 40
0.3735208371
 40
0.4482404078
 40
0.520876293
 40
0.5906233055
 40
0.6567707101
 40
0.7187302218
 40
0.776095818
 40
0.8286837195
 40
0.8766236425
 40
0.9204176718
 40
0.9610423365
 40
0.9806331108
 40
1.0
 40
1.0
 40
1.0
 40
1.0
 10
1.8771220317
 20
2.2494941948
 30
0.0
 10
1.8821111965
 20
2.2494941948
 30
0.0
 10
1.8922648718
 20
2.2490987471
 30
0.0
 10
1.9076002201
 20
2.2474274598
 30
0.0
 10
1.9231020799
 20
2.2446803339
 30
0.0
 10
1.9385149719
 20
2.240908981
 30
0.0
 10
1.9535940049
 20
2.2361706731
 30
0.0
 10
1.9680992425
 20
2.2305450609
 30
0.0
 10
1.9817954327
 20
2.224118523
 30
0.0
 10
1.9944646982
 20
2.2169969395
 30
0.0
 10
2.0059051207
 20
2.2092926072
 30
0.0
 10
2.0159355459
 20
2.2011267093
 30
0.0
 10
2.0243987599
 20
2.1926259642
 30
0.0
 10
2.0311593199
 20
2.1839152133
 30
0.0
 10
2.0361091622
 20
2.1751189999
 30
0.0
 10
2.0391477866
 20
2.1663588676
 30
0.0
 10
2.0400260267
 20
2.1590993878
 30
0.0
 10
2.0396720099
 20
2.1535575335
 30
0.0
 10
2.0391619956
 20
2.1508846061
 30
0.0
 10
2.0388263864
 20
2.1495785664
 30
0.0
  0
SPLINE
  5
5EC
100
AcDbEntity
  8
0
100
AcDbSpline
 62
6
  6
CONTINUOUS
 70
0
 71
3
 72
14
 73
10
 74
0
 42
0.0000001
 43
0.0000001
 44
0.0000000001
 40
0.0
 40
0.0
 40
0.0
 40
0.0
 40
0.2376129788
 40
0.3637280247
 40
0.4926048588
 40
0.6224611506
 40
0.7514370146
 40
0.8778489333
 40
1.0
 40
1.0
 40
1.0
 40
1.0
 10
1.8127349459
 20
2.8442409058
 30
0.0
 10
1.8172860219
 20
2.8526979733
 30
0.0
 10
1.8264891649
 20
2.8645194731
 30
0.0
 10
1.8415839148
 20
2.8775415239
 30
0.0
 10
1.8545953677
 20
2.8861516359
 30
0.0
 10
1.8686696618
 20
2.8931282209
 30
0.0
 10
1.8834070101
 20
2.8982828125
 30
0.0
 10
1.8983743639
 20
2.9014556496
 30
0.0
 10
1.9084320666
 20
2.9022070971
 30
0.0
 10
1.9133691822
 20
2.9022070971
 30
0.0
  0
SPLINE
  5
5ED
100
AcDbEntity
  8
0
100
AcDbSpline
 62
6
  6
CONTINUOUS
 70
0
 71
3
 72
16
 73
12
 74
0
 42
0.0000001
 43
0.0000001
 44
0.0000000001
 40
0.0
 40
0.0
 40
0.0
 40
0.0
 40
0.1423273743
 40
0.2107944151
 40
0.2774009523
 40
0.4052293013
 40
0.5270604076
 40
0.644788232
 40
0.7609792854
 40
0.8785644943
 40
1.0
 40
1.0
 40
1.0
 40
1.0
 10
1.9187695235
 20
2.9020565144
 30
0.0
 10
1.9231830085
 20
2.9018084119
 30
0.0
 10
1.929711188
 20
2.9009814151
 30
0.0
 10
1.9380719956
 20
2.8988681274
 30
0.0
 10
1.9457996411
 20
2.8962060261
 30
0.0
 10
1.9546404734
 20
2.8917860207
 30
0.0
 10
1.9637075923
 20
2.8847257984
 30
0.0
 10
1.9708196647
 20
2.8761498514
 30
0.0
 10
1.9757513245
 20
2.8663012154
 30
0.0
 10
1.9783440354
 20
2.8554859488
 30
0.0
 10
1.9784780247
 20
2.8480005079
 30
0.0
 10
1.9781776026
 20
2.8442409058
 30
0.0
  0
LINE
  5
5EE
100
AcDbEntity
  8
0
100
AcDbLine
 62
6
  6
CONTINUOUS
 10
1.9905943693
 20
2.8380248061
 11
1.9781776026
 21
2.8442409058
  0
SPLINE
  5
5EF
100
AcDbEntity
  8
0
100
AcDbSpline
 62
6
  6
CONTINUOUS
 70
0
 71
3
 72
11
 73
7
 74
0
 42
0.0000001
 43
0.0000001
 44
0.0000000001
 40
0.0
 40
0.0
 40
0.0
 40
0.0
 40
0.2113302363
 40
0.4633223647
 40
0.7355247336
 40
1.0
 40
1.0
 40
1.0
 40
1.0
 10
1.6280796149
 20
1.7004572735
 30
0.0
 10
1.6283015634
 20
1.7000049901
 30
0.0
 10
1.629038183
 20
1.699140445
 30
0.0
 10
1.6305175429
 20
1.698173092
 30
0.0
 10
1.6322981712
 20
1.6975243988
 30
0.0
 10
1.6335796255
 20
1.6973492237
 30
0.0
 10
1.6342101292
 20
1.6973492237
 30
0.0
  0
SPLINE
  5
5F0
100
AcDbEntity
  8
0
100
AcDbSpline
 62
6
  6
CONTINUOUS
 70
0
 71
3
 72
9
 73
5
 74
0
 42
0.0000001
 43
0.0000001
 44
0.0000000001
 40
0.0
 40
0.0
 40
0.0
 40
0.0
 40
0.4857192864
 40
1.0
 40
1.0
 40
1.0
 40
1.0
 10
2.0008132718
 20
2.8172008722
 30
0.0
 10
2.0003342132
 20
2.8125593518
 30
0.0
 10
1.9983229859
 20
2.8030918621
 30
0.0
 10
1.9946024139
 20
2.7941770274
 30
0.0
 10
1.9923409505
 20
2.7897844304
 30
0.0
  0
SPLINE
  5
5F1
100
AcDbEntity
  8
0
100
AcDbSpline
 62
6
  6
CONTINUOUS
 70
0
 71
3
 72
15
 73
11
 74
0
 42
0.0000001
 43
0.0000001
 44
0.0000000001
 40
0.0
 40
0.0
 40
0.0
 40
0.0
 40
0.100189984
 40
0.211905691
 40
0.3337857792
 40
0.4637276801
 40
0.5987315565
 40
0.7354179983
 40
0.8704280347
 40
1.0
 40
1.0
 40
1.0
 40
1.0
 10
1.7537996735
 20
1.6507284761
 30
0.0
 10
1.7547490266
 20
1.648793898
 30
0.0
 10
1.7572659859
 20
1.6449462915
 30
0.0
 10
1.762244443
 20
1.6397333357
 30
0.0
 10
1.7684582302
 20
1.6349431687
 30
0.0
 10
1.7756692192
 20
1.6307517388
 30
0.0
 10
1.783610347
 20
1.6273041191
 30
0.0
 10
1.7919915845
 20
1.6247345852
 30
0.0
 10
1.8004921438
 20
1.6231436021
 30
0.0
 10
1.8061873696
 20
1.6227560275
 30
0.0
 10
1.8089743023
 20
1.6227560275
 30
0.0
  0
SPLINE
  5
5F2
100
AcDbEntity
  8
0
100
AcDbSpline
 62
6
  6
CONTINUOUS
 70
0
 71
3
 72
14
 73
10
 74
0
 42
0.0000001
 43
0.0000001
 44
0.0000000001
 40
0.0
 40
0.0
 40
0.0
 40
0.0
 40
0.2368312842
 40
0.3628378808
 40
0.4917664796
 40
0.6217922454
 40
0.7510008948
 40
0.8776536945
 40
1.0
 40
1.0
 40
1.0
 40
1.0
 10
1.9821220479
 20
2.8106083643
 30
0.0
 10
1.9772007966
 20
2.8010494772
 30
0.0
 10
1.9670626477
 20
2.7876529541
 30
0.0
 10
1.9502832318
 20
2.7728839226
 30
0.0
 10
1.9357395317
 20
2.7630951678
 30
0.0
 10
1.9199594259
 20
2.7551548195
 30
0.0
 10
1.9034035066
 20
2.7492829014
 30
0.0
 10
1.8865715653
 20
2.74566628
 30
0.0
 10
1.8752549027
 20
2.7448089039
 30
0.0
 10
1.8697008004
 20
2.7448089039
 30
0.0
  0
SPLINE
  5
5F3
100
AcDbEntity
  8
0
100
AcDbSpline
 62
6
  6
CONTINUOUS
 70
0
 71
3
 72
14
 73
10
 74
0
 42
0.0000001
 43
0.0000001
 44
0.0000000001
 40
0.0
 40
0.0
 40
0.0
 40
0.0
 40
0.2376129788
 40
0.3637280247
 40
0.4926048588
 40
0.6224611506
 40
0.7514370146
 40
0.8778489333
 40
1.0
 40
1.0
 40
1.0
 40
1.0
 10
1.9697052813
 20
2.816824464
 30
0.0
 10
1.9651542053
 20
2.8083673965
 30
0.0
 10
1.9559510623
 20
2.7965458967
 30
0.0
 10
1.9408563124
 20
2.7835238459
 30
0.0
 10
1.9278448594
 20
2.7749137339
 30
0.0
 10
1.9137705654
 20
2.7679371489
 30
0.0
 10
1.899033217
 20
2.7627825573
 30
0.0
 10
1.8840658633
 20
2.7596097202
 30
0.0
 10
1.8740081606
 20
2.7588582727
 30
0.0
 10
1.869071045
 20
2.7588582727
 30
0.0
  0
SPLINE
  5
5F4
100
AcDbEntity
  8
0
100
AcDbSpline
 62
6
  6
CONTINUOUS
 70
0
 71
3
 72
14
 73
10
 74
0
 42
0.0000001
 43
0.0000001
 44
0.0000000001
 40
0.0
 40
0.0
 40
0.0
 40
0.0
 40
0.2763576624
 40
0.4074445937
 40
0.5335916154
 40
0.6551775141
 40
0.7728184053
 40
0.8873836046
 40
1.0
 40
1.0
 40
1.0
 40
1.0
 10
1.869071045
 20
2.7588582727
 30
0.0
 10
1.8628390477
 20
2.7588582727
 30
0.0
 10
1.8536020027
 20
2.7597261723
 30
0.0
 10
1.8419643989
 20
2.7628669711
 30
0.0
 10
1.8340219822
 20
2.7660755727
 30
0.0
 10
1.8268273382
 20
2.7701412137
 30
0.0
 10
1.8204714868
 20
2.7750101387
 30
0.0
 10
1.8150507102
 20
2.7806250028
 30
0.0
 10
1.8120907403
 20
2.7848370909
 30
0.0
 10
1.8108014792
 20
2.7870250438
 30
0.0
  0
SPLINE
  5
5F5
100
AcDbEntity
  8
0
100
AcDbSpline
 62
6
  6
CONTINUOUS
 70
0
 71
3
 72
10
 73
6
 74
0
 42
0.0000001
 43
0.0000001
 44
0.0000000001
 40
0.0
 40
0.0
 40
0.0
 40
0.0
 40
0.2447815744
 40
0.4919419451
 40
1.0
 40
1.0
 40
1.0
 40
1.0
 10
1.8091273588
 20
2.7901224713
 30
0.0
 10
1.8081368648
 20
2.7921290623
 30
0.0
 10
1.8064289266
 20
2.7963095112
 30
0.0
 10
1.8041807969
 20
2.8051921956
 30
0.0
 10
1.8038926666
 20
2.8121946629
 30
0.0
 10
1.8042626246
 20
2.816824464
 30
0.0
  0
SPLINE
  5
5F6
100
AcDbEntity
  8
0
100
AcDbSpline
 62
6
  6
CONTINUOUS
 70
0
 71
3
 72
15
 73
11
 74
0
 42
0.0000001
 43
0.0000001
 44
0.0000000001
 40
0.0
 40
0.0
 40
0.0
 40
0.0
 40
0.1412828665
 40
0.2777063837
 40
0.4087714205
 40
0.5346233844
 40
0.6557494347
 40
0.7729192734
 40
0.8872201397
 40
1.0
 40
1.0
 40
1.0
 40
1.0
 10
1.8697008004
 20
2.7448089039
 30
0.0
 10
1.8659759743
 20
2.7448089039
 30
0.0
 10
1.8586477936
 20
2.7451835614
 30
0.0
 10
1.8479876838
 20
2.7469142949
 30
0.0
 10
1.8379977748
 20
2.749795744
 30
0.0
 10
1.8288298498
 20
2.7537819855
 30
0.0
 10
1.8206199648
 20
2.7588236784
 30
0.0
 10
1.8134904369
 20
2.7648486883
 30
0.0
 10
1.8075622261
 20
2.7717723151
 30
0.0
 10
1.8044605416
 20
2.7769321577
 30
0.0
 10
1.8031507319
 20
2.7796014818
 30
0.0
  0
SPLINE
  5
5F7
100
AcDbEntity
  8
0
100
AcDbSpline
 62
6
  6
CONTINUOUS
 70
0
 71
3
 72
11
 73
7
 74
0
 42
0.0000001
 43
0.0000001
 44
0.0000000001
 40
0.0
 40
0.0
 40
0.0
 40
0.0
 40
0.3306745483
 40
0.606371324
 40
0.823657481
 40
1.0
 40
1.0
 40
1.0
 40
1.0
 10
2.2813871262
 20
2.9667654776
 30
0.0
 10
2.2814704534
 20
2.967034986
 30
0.0
 10
2.2816538096
 20
2.9675211127
 30
0.0
 10
2.282010402
 20
2.9681311413
 30
0.0
 10
2.2824208763
 20
2.9685437886
 30
0.0
 10
2.2827574636
 20
2.9686561217
 30
0.0
 10
2.2829078982
 20
2.9686568727
 30
0.0
  0
SPLINE
  5
5F8
100
AcDbEntity
  8
0
100
AcDbSpline
 62
6
  6
CONTINUOUS
 70
0
 71
3
 72
12
 73
8
 74
0
 42
0.0000001
 43
0.0000001
 44
0.0000000001
 40
0.0
 40
0.0
 40
0.0
 40
0.0
 40
0.3152441376
 40
0.5815739403
 40
0.8037986356
 40
0.9037214321
 40
1.0
 40
1.0
 40
1.0
 40
1.0
 10
2.3496412286
 20
2.6471608711
 30
0.0
 10
2.3492705023
 20
2.6479167203
 30
0.0
 10
2.3484972754
 20
2.649271959
 30
0.0
 10
2.3471120905
 20
2.6509302726
 30
0.0
 10
2.3457974447
 20
2.6518468869
 30
0.0
 10
2.3447296958
 20
2.6521994934
 30
0.0
 10
2.3442039677
 20
2.6522563425
 30
0.0
 10
2.343946853
 20
2.6522557746
 30
0.0
  0
SPLINE
  5
5F9
100
AcDbEntity
  8
0
100
AcDbSpline
 62
6
  6
CONTINUOUS
 70
0
 71
3
 72
11
 73
7
 74
0
 42
0.0000001
 43
0.0000001
 44
0.0000000001
 40
0.0
 40
0.0
 40
0.0
 40
0.0
 40
0.2113302363
 40
0.4633223647
 40
0.7355247336
 40
1.0
 40
1.0
 40
1.0
 40
1.0
 10
1.8368886007
 20
1.5668111304
 30
0.0
 10
1.8371105492
 20
1.5663588469
 30
0.0
 10
1.8378471689
 20
1.5654943018
 30
0.0
 10
1.8393265288
 20
1.5645269488
 30
0.0
 10
1.8411071571
 20
1.5638782557
 30
0.0
 10
1.8423886114
 20
1.5637030805
 30
0.0
 10
1.8430191151
 20
1.5637030805
 30
0.0
  0
SPLINE
  5
5FA
100
AcDbEntity
  8
0
100
AcDbSpline
 62
6
  6
CONTINUOUS
 70
0
 71
3
 72
11
 73
7
 74
0
 42
0.0000001
 43
0.0000001
 44
0.0000000001
 40
0.0
 40
0.0
 40
0.0
 40
0.0
 40
0.3138835858
 40
0.5805627927
 40
0.8043182443
 40
1.0
 40
1.0
 40
1.0
 40
1.0
 10
1.7084596246
 20
2.9675723044
 30
0.0
 10
1.7083810579
 20
2.9677324889
 30
0.0
 10
1.7082163071
 20
2.9680202708
 30
0.0
 10
1.7079195062
 20
2.9683720394
 30
0.0
 10
1.7075965764
 20
2.9686017643
 30
0.0
 10
1.7073560176
 20
2.9686574261
 30
0.0
 10
1.7072447915
 20
2.9686568727
 30
0.0
  0
SPLINE
  5
5FB
100
AcDbEntity
  8
0
100
AcDbSpline
 62
6
  6
CONTINUOUS
 70
0
 71
3
 72
11
 73
7
 74
0
 42
0.0000001
 43
0.0000001
 44
0.0000000001
 40
0.0
 40
0.0
 40
0.0
 40
0.0
 40
0.3026858034
 40
0.5699713966
 40
0.7977694471
 40
1.0
 40
1.0
 40
1.0
 40
1.0
 10
2.5374991045
 20
1.5637030805
 30
0.0
 10
2.537889454
 20
1.5637030805
 30
0.0
 10
2.5386268657
 20
1.5637682833
 30
0.0
 10
2.5396194371
 20
1.5640763319
 30
0.0
 10
2.5403761542
 20
1.5645955543
 30
0.0
 10
2.5406764001
 20
1.5650892852
 30
0.0
 10
2.5407516027
 20
1.5653390079
 30
0.0
  0
SPLINE
  5
5FC
100
AcDbEntity
  8
0
100
AcDbSpline
 62
6
  6
CONTINUOUS
 70
0
 71
3
 72
15
 73
11
 74
0
 42
0.0000001
 43
0.0000001
 44
0.0000000001
 40
0.0
 40
0.0
 40
0.0
 40
0.0
 40
0.1296314875
 40
0.2645691707
 40
0.4012513998
 40
0.5362781566
 40
0.6662256102
 40
0.7881021015
 40
0.8997685822
 40
1.0
 40
1.0
 40
1.0
 40
1.0
 10
3.3157645774
 20
2.0374436385
 30
0.0
 10
3.3218522131
 20
2.0374436385
 30
0.0
 10
3.3342866015
 20
2.0366011346
 30
0.0
 10
3.3528447383
 20
2.0331222211
 30
0.0
 10
3.3711407591
 20
2.0275121542
 30
0.0
 10
3.3884832825
 20
2.0199911821
 30
0.0
 10
3.4042249632
 20
2.0108327147
 30
0.0
 10
3.4177894432
 20
2.0003758592
 30
0.0
 10
3.4286641727
 20
1.9889990895
 30
0.0
 10
3.4341555593
 20
1.9805960609
 30
0.0
 10
3.4362291835
 20
1.9763704592
 30
0.0
  0
SPLINE
  5
5FD
100
AcDbEntity
  8
0
100
AcDbSpline
 62
6
  6
CONTINUOUS
 70
0
 71
3
 72
9
 73
5
 74
0
 42
0.0000001
 43
0.0000001
 44
0.0000000001
 40
0.0
 40
0.0
 40
0.0
 40
0.0
 40
0.2459363404
 40
1.0
 40
1.0
 40
1.0
 40
1.0
 10
3.4180363284
 20
2.2575181547
 30
0.0
 10
3.4176641325
 20
2.2563137284
 30
0.0
 10
3.4160679463
 20
2.2514422528
 30
0.0
 10
3.4141490622
 20
2.2466776471
 30
0.0
 10
3.4125446634
 20
2.243161172
 30
0.0
  0
SPLINE
  5
5FE
100
AcDbEntity
  8
0
100
AcDbSpline
 62
6
  6
CONTINUOUS
 70
0
 71
3
 72
15
 73
11
 74
0
 42
0.0000001
 43
0.0000001
 44
0.0000000001
 40
0.0
 40
0.0
 40
0.0
 40
0.0
 40
0.1113044482
 40
0.2297137708
 40
0.3537716396
 40
0.481872903
 40
0.6123115201
 40
0.7433283505
 40
0.8731414474
 40
1.0
 40
1.0
 40
1.0
 40
1.0
 10
3.2285398408
 20
2.3197695476
 30
0.0
 10
3.2269209246
 20
2.3144465192
 30
0.0
 10
3.2239913317
 20
2.3033329363
 30
0.0
 10
3.2205647413
 20
2.2859744142
 30
0.0
 10
3.2180081205
 20
2.2676187256
 30
0.0
 10
3.2163631913
 20
2.2485564815
 30
0.0
 10
3.2156567029
 20
2.2290887311
 30
0.0
 10
3.2159004955
 20
2.2095240702
 30
0.0
 10
3.217090679
 20
2.1901738041
 30
0.0
 10
3.218525441
 20
2.1774170675
 30
0.0
 10
3.2194061564
 20
2.1711372542
 30
0.0
  0
SPLINE
  5
5FF
100
AcDbEntity
  8
0
100
AcDbSpline
 62
6
  6
CONTINUOUS
 70
0
 71
3
 72
9
 73
5
 74
0
 42
0.0000001
 43
0.0000001
 44
0.0000000001
 40
0.0
 40
0.0
 40
0.0
 40
0.0
 40
0.2536123017
 40
1.0
 40
1.0
 40
1.0
 40
1.0
 10
3.3738439708
 20
2.3613572195
 30
0.0
 10
3.3749075625
 20
2.3608508609
 30
0.0
 10
3.3790670654
 20
2.3587833385
 30
0.0
 10
3.3830849767
 20
2.3564289586
 30
0.0
 10
3.3859741105
 20
2.3545127911
 30
0.0
  0
SPLINE
  5
600
100
AcDbEntity
  8
0
100
AcDbSpline
 62
6
  6
CONTINUOUS
 70
0
 71
3
 72
9
 73
5
 74
0
 42
0.0000001
 43
0.0000001
 44
0.0000000001
 40
0.0
 40
0.0
 40
0.0
 40
0.0
 40
0.5122060106
 40
1.0
 40
1.0
 40
1.0
 40
1.0
 10
3.2655091314
 20
2.1713001009
 30
0.0
 10
3.2577081729
 20
2.1700756337
 30
0.0
 10
3.2422829342
 20
2.1687675731
 30
0.0
 10
3.2268251053
 20
2.1699078507
 30
0.0
 10
3.2194061564
 20
2.1711372542
 30
0.0
  0
SPLINE
  5
601
100
AcDbEntity
  8
0
100
AcDbSpline
 62
6
  6
CONTINUOUS
 70
0
 71
3
 72
11
 73
7
 74
0
 42
0.0000001
 43
0.0000001
 44
0.0000000001
 40
0.0
 40
0.0
 40
0.0
 40
0.0
 40
0.2529719128
 40
0.5161699973
 40
0.7702799096
 40
1.0
 40
1.0
 40
1.0
 40
1.0
 10
2.9723626807
 20
2.7453523941
 30
0.0
 10
2.9717371834
 20
2.7453523941
 30
0.0
 10
2.9704568863
 20
2.7451301212
 30
0.0
 10
2.9687197599
 20
2.7442940931
 30
0.0
 10
2.9673266389
 20
2.7430441173
 30
0.0
 10
2.9667147461
 20
2.7419784434
 30
0.0
 10
2.9665470441
 20
2.7414357595
 30
0.0
  0
SPLINE
  5
602
100
AcDbEntity
  8
0
100
AcDbSpline
 62
6
  6
CONTINUOUS
 70
0
 71
3
 72
9
 73
5
 74
0
 42
0.0000001
 43
0.0000001
 44
0.0000000001
 40
0.0
 40
0.0
 40
0.0
 40
0.0
 40
0.5159139499
 40
1.0
 40
1.0
 40
1.0
 40
1.0
 10
2.8418828876
 20
2.3380224011
 30
0.0
 10
2.841768492
 20
2.337652217
 30
0.0
 10
2.8416587522
 20
2.3368920052
 30
0.0
 10
2.8418418598
 20
2.3361389309
 30
0.0
 10
2.8420025999
 20
2.3358128423
 30
0.0
  0
SPLINE
  5
603
100
AcDbEntity
  8
0
100
AcDbSpline
 62
6
  6
CONTINUOUS
 70
0
 71
3
 72
21
 73
17
 74
0
 42
0.0000001
 43
0.0000001
 44
0.0000000001
 40
0.0
 40
0.0
 40
0.0
 40
0.0
 40
0.0653373268
 40
0.1326814333
 40
0.2707504596
 40
0.3405443968
 40
0.4099788396
 40
0.5452354071
 40
0.6102259317
 40
0.6728744488
 40
0.7329553637
 40
0.7904129699
 40
0.8453917698
 40
0.8982446188
 40
0.9495377501
 40
1.0
 40
1.0
 40
1.0
 40
1.0
 10
2.7702583335
 20
3.2575599583
 30
0.0
 10
2.7669413801
 20
3.2575599583
 30
0.0
 10
2.7601999781
 20
3.2571628487
 30
0.0
 10
2.7466248941
 20
3.2548924552
 30
0.0
 10
2.733258347
 20
3.2504582454
 30
0.0
 10
2.7206626421
 20
3.2441328343
 30
0.0
 10
2.7088630228
 20
3.2366896413
 30
0.0
 10
2.698393369
 20
3.2276859036
 30
0.0
 10
2.6898206078
 20
3.2174266542
 30
0.0
 10
2.6845857448
 20
3.2094344092
 30
0.0
 10
2.6805651516
 20
3.2011887589
 30
0.0
 10
2.6778323357
 20
3.1928360021
 30
0.0
 10
2.6764452331
 20
3.1845251657
 30
0.0
 10
2.6764382213
 20
3.1764070209
 30
0.0
 10
2.6778192233
 20
3.1686386683
 30
0.0
 10
2.6796612655
 20
3.1637739815
 30
0.0
 10
2.6807909228
 20
3.1614747043
 30
0.0
  0
SPLINE
  5
604
100
AcDbEntity
  8
0
100
AcDbSpline
 62
6
  6
CONTINUOUS
 70
0
 71
3
 72
15
 73
11
 74
0
 42
0.0000001
 43
0.0000001
 44
0.0000000001
 40
0.0
 40
0.0
 40
0.0
 40
0.0
 40
0.1725942864
 40
0.3318505004
 40
0.4764225754
 40
0.6058998565
 40
0.7207823616
 40
0.8225706769
 40
0.9141526315
 40
1.0
 40
1.0
 40
1.0
 40
1.0
 10
3.0160158267
 20
3.3076928805
 30
0.0
 10
3.0168461294
 20
3.3103797409
 30
0.0
 10
3.0186059917
 20
3.3154977787
 30
0.0
 10
3.0216722302
 20
3.3226382534
 30
0.0
 10
3.0250331173
 20
3.3288603197
 30
0.0
 10
3.0286481087
 20
3.334084438
 30
0.0
 10
3.0324807667
 20
3.3382530524
 30
0.0
 10
3.0365068517
 20
3.3413118353
 30
0.0
 10
3.0406932855
 20
3.3432065839
 30
0.0
 10
3.0435994071
 20
3.3436391835
 30
0.0
 10
3.0449981919
 20
3.3436386736
 30
0.0
  0
SPLINE
  5
605
100
AcDbEntity
  8
0
100
AcDbSpline
 62
6
  6
CONTINUOUS
 70
0
 71
3
 72
10
 73
6
 74
0
 42
0.0000001
 43
0.0000001
 44
0.0000000001
 40
0.0
 40
0.0
 40
0.0
 40
0.0
 40
0.4446046586
 40
0.7076614342
 40
1.0
 40
1.0
 40
1.0
 40
1.0
 10
2.5997204751
 20
1.7376024114
 30
0.0
 10
2.5969664556
 20
1.7389934928
 30
0.0
 10
2.5931122787
 20
1.7422535873
 30
0.0
 10
2.5888121128
 20
1.7476949311
 30
0.0
 10
2.5867706829
 20
1.7509783293
 30
0.0
 10
2.5857769357
 20
1.7527470056
 30
0.0
  0
SPLINE
  5
606
100
AcDbEntity
  8
0
100
AcDbSpline
 62
6
  6
CONTINUOUS
 70
0
 71
3
 72
17
 73
13
 74
0
 42
0.0000001
 43
0.0000001
 44
0.0000000001
 40
0.0
 40
0.0
 40
0.0
 40
0.0
 40
0.0473719198
 40
0.0988938232
 40
0.2131419877
 40
0.3396483687
 40
0.4743067021
 40
0.6124719888
 40
0.7492379734
 40
0.8799135591
 40
0.9415773788
 40
1.0
 40
1.0
 40
1.0
 40
1.0
 10
2.5857769357
 20
1.7527470056
 30
0.0
 10
2.5846924961
 20
1.7546770968
 30
0.0
 10
2.582623011
 20
1.7588171756
 30
0.0
 10
2.5788686157
 20
1.7680512816
 30
0.0
 10
2.5750158346
 20
1.7811928117
 30
0.0
 10
2.5718037031
 20
1.7984639316
 30
0.0
 10
2.5699948734
 20
1.8170603979
 30
0.0
 10
2.5696679384
 20
1.8362192131
 30
0.0
 10
2.5708340016
 20
1.855158189
 30
0.0
 10
2.5730517181
 20
1.8704010595
 30
0.0
 10
2.5755763048
 20
1.8818491
 30
0.0
 10
2.5770696607
 20
1.8872625668
 30
0.0
 10
2.5778757813
 20
1.8898711741
 30
0.0
  0
SPLINE
  5
607
100
AcDbEntity
  8
0
100
AcDbSpline
 62
6
  6
CONTINUOUS
 70
0
 71
3
 72
11
 73
7
 74
0
 42
0.0000001
 43
0.0000001
 44
0.0000000001
 40
0.0
 40
0.0
 40
0.0
 40
0.0
 40
0.2430801858
 40
0.4890830283
 40
0.740679034
 40
1.0
 40
1.0
 40
1.0
 40
1.0
 10
2.6801125323
 20
2.7724166453
 30
0.0
 10
2.6791531815
 20
2.7743692848
 30
0.0
 10
2.6769046593
 20
2.7781504059
 30
0.0
 10
2.6726419103
 20
2.7832611422
 30
0.0
 10
2.6675425814
 20
2.787757823
 30
0.0
 10
2.6636998866
 20
2.7902683334
 30
0.0
 10
2.661676597
 20
2.7914054569
 30
0.0
  0
SPLINE
  5
608
100
AcDbEntity
  8
0
100
AcDbSpline
 62
6
  6
CONTINUOUS
 70
0
 71
3
 72
15
 73
11
 74
0
 42
0.0000001
 43
0.0000001
 44
0.0000000001
 40
0.0
 40
0.0
 40
0.0
 40
0.0
 40
0.1127865949
 40
0.2270845024
 40
0.3442548444
 40
0.4653655317
 40
0.5912225416
 40
0.7223283529
 40
0.8587755089
 40
1.0
 40
1.0
 40
1.0
 40
1.0
 10
2.8217213315
 20
3.2306628875
 30
0.0
 10
2.8207074609
 20
3.2327264952
 30
0.0
 10
2.8183099395
 20
3.2367167744
 30
0.0
 10
2.8137226729
 20
3.2420676853
 30
0.0
 10
2.8082098677
 20
3.2467253976
 30
0.0
 10
2.8018618011
 20
3.2506235349
 30
0.0
 10
2.7947719285
 20
3.2537051081
 30
0.0
 10
2.7870457708
 20
3.2559324022
 30
0.0
 10
2.778802846
 20
3.2572695039
 30
0.0
 10
2.7731372759
 20
3.2575599583
 30
0.0
 10
2.7702583335
 20
3.2575599583
 30
0.0
  0
SPLINE
  5
609
100
AcDbEntity
  8
0
100
AcDbSpline
 62
6
  6
CONTINUOUS
 70
0
 71
3
 72
15
 73
11
 74
0
 42
0.0000001
 43
0.0000001
 44
0.0000000001
 40
0.0
 40
0.0
 40
0.0
 40
0.0
 40
0.127716678
 40
0.2513385594
 40
0.3723677264
 40
0.4925734689
 40
0.6138235725
 40
0.7379477054
 40
0.866440575
 40
1.0
 40
1.0
 40
1.0
 40
1.0
 10
2.3188072956
 20
3.3828503247
 30
0.0
 10
2.3216957684
 20
3.3811742266
 30
0.0
 10
2.3271405779
 20
3.3774352223
 30
0.0
 10
2.3341776574
 20
3.3706389357
 30
0.0
 10
2.3397938449
 20
3.3628627564
 30
0.0
 10
2.343891806
 20
3.3542580179
 30
0.0
 10
2.3463842381
 20
3.3449764155
 30
0.0
 10
2.347239769
 20
3.3351897166
 30
0.0
 10
2.3464406097
 20
3.3250824555
 30
0.0
 10
2.344868403
 20
3.3183838968
 30
0.0
 10
2.3438373033
 20
3.3150472571
 30
0.0
  0
SPLINE
  5
60A
100
AcDbEntity
  8
0
100
AcDbSpline
 62
6
  6
CONTINUOUS
 70
0
 71
3
 72
11
 73
7
 74
0
 42
0.0000001
 43
0.0000001
 44
0.0000000001
 40
0.0
 40
0.0
 40
0.0
 40
0.0
 40
0.2390650308
 40
0.4828770283
 40
0.7357115776
 40
1.0
 40
1.0
 40
1.0
 40
1.0
 10
2.3822487368
 20
3.332817793
 30
0.0
 10
2.3842293868
 20
3.3287817718
 30
0.0
 10
2.3873882579
 20
3.3201865866
 30
0.0
 10
2.3894335197
 20
3.306413603
 30
0.0
 10
2.3887807721
 20
3.2920387481
 30
0.0
 10
2.3866337705
 20
3.2824992654
 30
0.0
 10
2.3851663401
 20
3.277750659
 30
0.0
  0
SPLINE
  5
60B
100
AcDbEntity
  8
0
100
AcDbSpline
 62
6
  6
CONTINUOUS
 70
0
 71
3
 72
30
 73
26
 74
0
 42
0.0000001
 43
0.0000001
 44
0.0000000001
 40
0.0
 40
0.0
 40
0.0
 40
0.0
 40
0.0607190961
 40
0.1251683049
 40
0.1586559161
 40
0.1928672365
 40
0.2629811571
 40
0.3345045004
 40
0.4062680114
 40
0.4770853648
 40
0.5458462103
 40
0.6116440184
 40
0.6738903545
 40
0.703646659
 40
0.7324997493
 40
0.7605100416
 40
0.7877816883
 40
0.8144511957
 40
0.840684785
 40
0.8666745465
 40
0.8926209599
 40
0.9187320061
 40
0.9452135504
 40
0.9722538971
 40
1.0
 40
1.0
 40
1.0
 40
1.0
 10
2.3438373033
 20
3.3150472571
 30
0.0
 10
2.3422824556
 20
3.3100157681
 30
0.0
 10
2.3379945397
 20
3.2999596845
 30
0.0
 10
2.3304247697
 20
3.2883927347
 30
0.0
 10
2.323061116
 20
3.2795972766
 30
0.0
 10
2.3147073599
 20
3.2710344152
 30
0.0
 10
2.3028804195
 20
3.2613163978
 30
0.0
 10
2.2870582814
 20
3.2516076831
 30
0.0
 10
2.2700227934
 20
3.2440765365
 30
0.0
 10
2.252355205
 20
3.2389804082
 30
0.0
 10
2.2346510743
 20
3.236499326
 30
0.0
 10
2.217514089
 20
3.2367219708
 30
0.0
 10
2.2039715094
 20
3.2392067481
 30
0.0
 10
2.1940299021
 20
3.2425762656
 30
0.0
 10
2.187181689
 20
3.2456992364
 30
0.0
 10
2.1808958743
 20
3.2494351992
 30
0.0
 10
2.175227575
 20
3.2537504954
 30
0.0
 10
2.170225684
 20
3.2586063576
 30
0.0
 10
2.1659420859
 20
3.2639659217
 30
0.0
 10
2.1624120582
 20
3.2697762034
 30
0.0
 10
2.1596669751
 20
3.2759847156
 30
0.0
 10
2.1577379037
 20
3.2825371766
 30
0.0
 10
2.1566356074
 20
3.2893735687
 30
0.0
 10
2.1563721482
 20
3.2964334727
 30
0.0
 10
2.1567530108
 20
3.3011819255
 30
0.0
 10
2.1570746184
 20
3.3035667975
 30
0.0
  0
SPLINE
  5
60C
100
AcDbEntity
  8
0
100
AcDbSpline
 62
6
  6
CONTINUOUS
 70
0
 71
3
 72
9
 73
5
 74
0
 42
0.0000001
 43
0.0000001
 44
0.0000000001
 40
0.0
 40
0.0
 40
0.0
 40
0.0
 40
0.4976140375
 40
1.0
 40
1.0
 40
1.0
 40
1.0
 10
2.6029428475
 20
3.0936287665
 30
0.0
 10
2.6053288247
 20
3.0887635847
 30
0.0
 10
2.6094246134
 20
3.0786284138
 30
0.0
 10
2.612041917
 20
3.0680168776
 30
0.0
 10
2.6129843106
 20
3.0626279414
 30
0.0
  0
SPLINE
  5
60D
100
AcDbEntity
  8
0
100
AcDbSpline
 62
6
  6
CONTINUOUS
 70
0
 71
3
 72
11
 73
7
 74
0
 42
0.0000001
 43
0.0000001
 44
0.0000000001
 40
0.0
 40
0.0
 40
0.0
 40
0.0
 40
0.2401249814
 40
0.4860862493
 40
0.7391985922
 40
1.0
 40
1.0
 40
1.0
 40
1.0
 10
2.6129843106
 20
3.0626279414
 30
0.0
 10
2.6138898591
 20
3.0574496977
 30
0.0
 10
2.6150331388
 20
3.0468353123
 30
0.0
 10
2.6147430123
 20
3.0306168253
 30
0.0
 10
2.6124690919
 20
3.0141015863
 30
0.0
 10
2.609701816
 20
3.0031703205
 30
0.0
 10
2.6080161083
 20
2.9977153683
 30
0.0
  0
SPLINE
  5
60E
100
AcDbEntity
  8
0
100
AcDbSpline
 62
6
  6
CONTINUOUS
 70
0
 71
3
 72
13
 73
9
 74
0
 42
0.0000001
 43
0.0000001
 44
0.0000000001
 40
0.0
 40
0.0
 40
0.0
 40
0.0
 40
0.2284931245
 40
0.349427523
 40
0.4742243763
 40
0.6024265803
 40
0.7333633589
 40
1.0
 40
1.0
 40
1.0
 40
1.0
 10
2.3851663401
 20
3.277750659
 30
0.0
 10
2.3826976486
 20
3.26976197
 30
0.0
 10
2.3772998536
 20
3.2580015449
 30
0.0
 10
2.3676412913
 20
3.2435658247
 30
0.0
 10
2.3589085559
 20
3.232998366
 30
0.0
 10
2.3489490911
 20
3.2230592518
 30
0.0
 10
2.3341430752
 20
3.2107438654
 30
0.0
 10
2.3217475873
 20
3.2029458951
 30
0.0
 10
2.3130826398
 20
3.1984600689
 30
0.0
  0
SPLINE
  5
60F
100
AcDbEntity
  8
0
100
AcDbSpline
 62
6
  6
CONTINUOUS
 70
0
 71
3
 72
10
 73
6
 74
0
 42
0.0000001
 43
0.0000001
 44
0.0000000001
 40
0.0
 40
0.0
 40
0.0
 40
0.0
 40
0.5060692235
 40
0.7538720954
 40
1.0
 40
1.0
 40
1.0
 40
1.0
 10
2.1779795009
 20
3.1984600689
 30
0.0
 10
2.1737167222
 20
3.2017052269
 30
0.0
 10
2.1678519706
 20
3.2072511914
 30
0.0
 10
2.1615553303
 20
3.2157830088
 30
0.0
 10
2.1589666051
 20
3.2203443992
 30
0.0
 10
2.157818695
 20
3.2226835249
 30
0.0
  0
SPLINE
  5
610
100
AcDbEntity
  8
0
100
AcDbSpline
 62
6
  6
CONTINUOUS
 70
0
 71
3
 72
16
 73
12
 74
0
 42
0.0000001
 43
0.0000001
 44
0.0000000001
 40
0.0
 40
0.0
 40
0.0
 40
0.0
 40
0.0461118441
 40
0.0928448943
 40
0.1902916717
 40
0.2963778101
 40
0.4135401657
 40
0.5428262147
 40
0.6843087325
 40
0.8372883612
 40
1.0
 40
1.0
 40
1.0
 40
1.0
 10
1.7966891534
 20
2.2117709798
 30
0.0
 10
1.7970518605
 20
2.2131824724
 30
0.0
 10
1.7979773088
 20
2.2159784558
 30
0.0
 10
1.8006218853
 20
2.2213969148
 30
0.0
 10
1.8054748648
 20
2.2277530759
 30
0.0
 10
1.8133191793
 20
2.2342765304
 30
0.0
 10
1.8230895676
 20
2.2397380712
 30
0.0
 10
1.8345991807
 20
2.2440691578
 30
0.0
 10
1.8476487377
 20
2.2472069503
 30
0.0
 10
1.8619959413
 20
2.2490938783
 30
0.0
 10
1.8719795839
 20
2.2494941948
 30
0.0
 10
1.8771220317
 20
2.2494941948
 30
0.0
  0
SPLINE
  5
611
100
AcDbEntity
  8
0
100
AcDbSpline
 62
6
  6
CONTINUOUS
 70
0
 71
3
 72
9
 73
5
 74
0
 42
0.0000001
 43
0.0000001
 44
0.0000000001
 40
0.0
 40
0.0
 40
0.0
 40
0.0
 40
0.488276196
 40
1.0
 40
1.0
 40
1.0
 40
1.0
 10
2.6080161083
 20
2.9977153683
 30
0.0
 10
2.6054302218
 20
2.9893474365
 30
0.0
 10
2.5987712098
 20
2.9726115887
 30
0.0
 10
2.5898525886
 20
2.956981361
 30
0.0
 10
2.5848122216
 20
2.9493101153
 30
0.0
  0
SPLINE
  5
612
100
AcDbEntity
  8
0
100
AcDbSpline
 62
6
  6
CONTINUOUS
 70
0
 71
3
 72
11
 73
7
 74
0
 42
0.0000001
 43
0.0000001
 44
0.0000000001
 40
0.0
 40
0.0
 40
0.0
 40
0.0
 40
0.2440226846
 40
0.4906454618
 40
0.7421464462
 40
1.0
 40
1.0
 40
1.0
 40
1.0
 10
1.9853903327
 20
2.8690316886
 30
0.0
 10
1.9865309468
 20
2.8667071763
 30
0.0
 10
1.9884823686
 20
2.8618568181
 30
0.0
 10
1.9903325959
 20
2.8541753457
 30
0.0
 10
1.9910911174
 20
2.8461647609
 30
0.0
 10
1.9908752675
 20
2.8407463828
 30
0.0
 10
1.9905943693
 20
2.8380248061
 30
0.0
  0
SPLINE
  5
613
100
AcDbEntity
  8
0
100
AcDbSpline
 62
6
  6
CONTINUOUS
 70
0
 71
3
 72
14
 73
10
 74
0
 42
0.0000001
 43
0.0000001
 44
0.0000000001
 40
0.0
 40
0.0
 40
0.0
 40
0.0
 40
0.2739643541
 40
0.40359954
 40
0.5286494782
 40
0.6497448288
 40
0.7678677773
 40
0.8842361918
 40
1.0
 40
1.0
 40
1.0
 40
1.0
 10
2.4091835657
 20
3.2793457534
 30
0.0
 10
2.4212262069
 20
3.2778826514
 30
0.0
 10
2.4388614547
 20
3.2739195119
 30
0.0
 10
2.4604145385
 20
3.264660073
 30
0.0
 10
2.4747663698
 20
3.2561353874
 30
0.0
 10
2.4873911285
 20
3.2460074209
 30
0.0
 10
2.4981215296
 20
3.2343999268
 30
0.0
 10
2.5067931536
 20
3.2214681699
 30
0.0
 10
2.5111281704
 20
3.2120926144
 30
0.0
 10
2.5129062919
 20
3.2072848491
 30
0.0
  0
SPLINE
  5
614
100
AcDbEntity
  8
0
100
AcDbSpline
 62
6
  6
CONTINUOUS
 70
0
 71
3
 72
11
 73
7
 74
0
 42
0.0000001
 43
0.0000001
 44
0.0000000001
 40
0.0
 40
0.0
 40
0.0
 40
0.0
 40
0.2342255462
 40
0.4765984069
 40
0.7310713205
 40
1.0
 40
1.0
 40
1.0
 40
1.0
 10
2.5129062919
 20
3.2072848491
 30
0.0
 10
2.5155616405
 20
3.2001051976
 30
0.0
 10
2.519249411
 20
3.1848063447
 30
0.0
 10
2.519575442
 20
3.1607414085
 30
0.0
 10
2.5148145077
 20
3.1360160735
 30
0.0
 10
2.5085543652
 20
3.1199914298
 30
0.0
 10
2.5047175978
 20
3.1120839777
 30
0.0
  0
SPLINE
  5
615
100
AcDbEntity
  8
0
100
AcDbSpline
 62
6
  6
CONTINUOUS
 70
0
 71
3
 72
9
 73
5
 74
0
 42
0.0000001
 43
0.0000001
 44
0.0000000001
 40
0.0
 40
0.0
 40
0.0
 40
0.0
 40
0.5460692216
 40
1.0
 40
1.0
 40
1.0
 40
1.0
 10
2.5129062919
 20
3.2072848491
 30
0.0
 10
2.5086900157
 20
3.2186850073
 30
0.0
 10
2.5011257899
 20
3.2396207002
 30
0.0
 10
2.4939894745
 20
3.2607064063
 30
0.0
 10
2.4908546037
 20
3.2703117538
 30
0.0
  0
SPLINE
  5
616
100
AcDbEntity
  8
0
100
AcDbSpline
 62
6
  6
CONTINUOUS
 70
0
 71
3
 72
9
 73
5
 74
0
 42
0.0000001
 43
0.0000001
 44
0.0000000001
 40
0.0
 40
0.0
 40
0.0
 40
0.0
 40
0.5248932183
 40
1.0
 40
1.0
 40
1.0
 40
1.0
 10
2.5451749454
 20
3.1234379582
 30
0.0
 10
2.5393983368
 20
3.1380574388
 30
0.0
 10
2.5284747339
 20
3.1659421369
 30
0.0
 10
2.5178418287
 20
3.1939399218
 30
0.0
 10
2.5129062919
 20
3.2072848491
 30
0.0
  0
SPLINE
  5
617
100
AcDbEntity
  8
0
100
AcDbSpline
 62
6
  6
CONTINUOUS
 70
0
 71
3
 72
9
 73
5
 74
0
 42
0.0000001
 43
0.0000001
 44
0.0000000001
 40
0.0
 40
0.0
 40
0.0
 40
0.0
 40
0.2536376737
 40
1.0
 40
1.0
 40
1.0
 40
1.0
 10
2.5107271546
 20
3.0988083333
 30
0.0
 10
2.5135502455
 20
3.1010111882
 30
0.0
 10
2.5247788357
 20
3.1095702225
 30
0.0
 10
2.5363726431
 20
3.117645739
 30
0.0
 10
2.5451749454
 20
3.1234379582
 30
0.0
  0
SPLINE
  5
618
100
AcDbEntity
  8
0
100
AcDbSpline
 62
6
  6
CONTINUOUS
 70
0
 71
3
 72
15
 73
11
 74
0
 42
0.0000001
 43
0.0000001
 44
0.0000000001
 40
0.0
 40
0.0
 40
0.0
 40
0.0
 40
0.1556104298
 40
0.3031869201
 40
0.4412053761
 40
0.5691552123
 40
0.6874098305
 40
0.7971291108
 40
0.9003541226
 40
1.0
 40
1.0
 40
1.0
 40
1.0
 10
2.5135859627
 20
1.6227560275
 30
0.0
 10
2.5153962607
 20
1.6227560275
 30
0.0
 10
2.5189259863
 20
1.6229139882
 30
0.0
 10
2.5240151473
 20
1.6236481557
 30
0.0
 10
2.5286805929
 20
1.6248701781
 30
0.0
 10
2.5328343326
 20
1.6265602894
 30
0.0
 10
2.5364056975
 20
1.6286923175
 30
0.0
 10
2.5393275718
 20
1.6312403397
 30
0.0
 10
2.5415429965
 20
1.6341587886
 30
0.0
 10
2.5425121385
 20
1.6363389647
 30
0.0
 10
2.5428540938
 20
1.6374466142
 30
0.0
  0
SPLINE
  5
619
100
AcDbEntity
  8
0
100
AcDbSpline
 62
6
  6
CONTINUOUS
 70
0
 71
3
 72
9
 73
5
 74
0
 42
0.0000001
 43
0.0000001
 44
0.0000000001
 40
0.0
 40
0.0
 40
0.0
 40
0.0
 40
0.2464313811
 40
1.0
 40
1.0
 40
1.0
 40
1.0
 10
3.4215633835
 20
2.272801754
 30
0.0
 10
3.4213757987
 20
2.2715689888
 30
0.0
 10
3.420520619
 20
2.2665811325
 30
0.0
 10
3.4192959355
 20
2.2616577662
 30
0.0
 10
3.4181869286
 20
2.2580095054
 30
0.0
  0
SPLINE
  5
61A
100
AcDbEntity
  8
0
100
AcDbSpline
 62
6
  6
CONTINUOUS
 70
0
 71
3
 72
15
 73
11
 74
0
 42
0.0000001
 43
0.0000001
 44
0.0000000001
 40
0.0
 40
0.0
 40
0.0
 40
0.0
 40
0.0859673621
 40
0.1794335557
 40
0.2835690119
 40
0.40023006
 40
0.5303051336
 40
0.6739819142
 40
0.8309102837
 40
1.0
 40
1.0
 40
1.0
 40
1.0
 10
3.2713978675
 20
2.3782459565
 30
0.0
 10
3.2692641185
 20
2.377869131
 30
0.0
 10
3.2649051541
 20
2.3764670602
 30
0.0
 10
3.2587490823
 20
2.3727402858
 30
0.0
 10
3.2528334342
 20
2.3674164451
 30
0.0
 10
3.247195227
 20
2.3605702349
 30
0.0
 10
3.241878824
 20
2.3522675563
 30
0.0
 10
3.2369288123
 20
2.3425911201
 30
0.0
 10
3.2323995488
 20
2.3316421327
 30
0.0
 10
3.2297799253
 20
2.3238469698
 30
0.0
 10
3.2285398408
 20
2.3197695476
 30
0.0
  0
SPLINE
  5
61B
100
AcDbEntity
  8
0
100
AcDbSpline
 62
6
  6
CONTINUOUS
 70
0
 71
3
 72
11
 73
7
 74
0
 42
0.0000001
 43
0.0000001
 44
0.0000000001
 40
0.0
 40
0.0
 40
0.0
 40
0.0
 40
0.3026858034
 40
0.5699713966
 40
0.7977694471
 40
1.0
 40
1.0
 40
1.0
 40
1.0
 10
2.6151400878
 20
1.6973492237
 30
0.0
 10
2.6155304373
 20
1.6973492237
 30
0.0
 10
2.616267849
 20
1.6974144264
 30
0.0
 10
2.6172604203
 20
1.6977224751
 30
0.0
 10
2.6180171374
 20
1.6982416974
 30
0.0
 10
2.6183173833
 20
1.6987354284
 30
0.0
 10
2.618392586
 20
1.6989851511
 30
0.0
  0
ELLIPSE
  5
61C
100
AcDbEntity
  8
0
100
AcDbEllipse
 62
6
  6
CONTINUOUS
 10
4.5581985652
 20
12.2759422186
 30
0.0
 11
0.0
 21
0.25096598
 31
0.0
 40
0.9961509524
 41
-4.6810218235
 42
-1.6021685924
  0
ELLIPSE
  5
61D
100
AcDbEntity
  8
0
100
AcDbEllipse
 62
6
  6
CONTINUOUS
 10
3.4117715433
 20
1.8808225139
 30
0.0
 11
-0.8246981511
 21
1.5232357387
 31
0.0
 40
0.0289278619
 41
1.4796133696
 42
1.5991130367
  0
ELLIPSE
  5
61E
100
AcDbEntity
  8
0
100
AcDbEllipse
 62
6
  6
CONTINUOUS
 10
1.9282622365
 20
2.221576188
 30
0.0
 11
0.1194298639
 21
-0.0372676873
 31
0.0
 40
0.5737478173
 41
6.3125099167
 42
9.4541025703
  0
ENDSEC
  0
SECTION
  2
OBJECTS
  0
DICTIONARY
  5
C
100
AcDbDictionary
280
0
281
1
  3
ACAD_GROUP
350
D
  3
ACAD_MLINESTYLE
350
17
  3
ACAD_LAYOUT
350
1A
  3
ACAD_PLOTSETTINGS
350
19
  3
ACAD_PLOTSTYLENAME
350
E
  0
DICTIONARY
  5
D
102
{ACAD_REACTORS
330
C
102
}
100
AcDbDictionary
280
0
281
1
  0
ACDBDICTIONARYWDFLT
  5
E
102
{ACAD_REACTORS
330
C
102
}
100
AcDbDictionary
281
1
  3
Normal
350
F
100
AcDbDictionaryWithDefault
340
F
  0
DICTIONARY
  5
17
102
{ACAD_REACTORS
330
C
102
}
100
AcDbDictionary
280
0
281
1
  3
Standard
350
18
  0
DICTIONARY
  5
19
102
{ACAD_REACTORS
330
C
102
}
100
AcDbDictionary
281
1
  0
DICTIONARY
  5
1A
102
{ACAD_REACTORS
330
C
102
}
100
AcDbDictionary
281
1
  3
Model
350
61F
  3
Layout1
350
620
  0
ACDBPLACEHOLDER
  5
F
102
{ACAD_REACTORS
330
E
102
}
  0
MLINESTYLE
  5
18
102
{ACAD_REACTORS
330
17
102
}
100
AcDbMlineStyle
  2
STANDARD
 70
0
  3

 62
256
 51
90.0
 52
90.0
 71
2
 49
0.5
 62
256
  6
BYLAYER
 49
-0.5
 62
256
  6
BYLAYER
  0
LAYOUT
  5
61F
102
{ACAD_REACTORS
330
1A
102
}
100
AcDbPlotSettings
  1

  2
none_device
  4
ANSI_C_(22.00_x_17.00_Inches)
  6

 40
0.0
 41
0.0
 42
0.0
 43
0.0
 44
558.8
 45
431.8
 46
0.0
 47
0.0
 48
0.0
 49
0.0
140
0.0
141
0.0
142
1.0
143
1.0
 70
1024
 72
0
 73
0
 74
0
  7

 75
0
147
1.0
148
0.0
149
0.0
100
AcDbLayout
  1
Model
 70
0
 71
0
 10
0.0
 20
0.0
 11
22.0
 21
17.0
 12
0.0
 22
0.0
 32
0.0
 14
0.0
 24
0.0
 34
0.0
 15
0.0
 25
0.0
 35
0.0
146
0.0
 13
0.0
 23
0.0
 33
0.0
 16
1.0
 26
0.0
 36
0.0
 17
0.0
 27
1.0
 37
0.0
 76
0
330
200
345
0
346
0
  0
LAYOUT
  5
620
102
{ACAD_REACTORS
330
1A
102
}
100
AcDbPlotSettings
  1

  2
none_device
  4
ANSI_C_(22.00_x_17.00_Inches)
  6

 40
0.0
 41
0.0
 42
0.0
 43
0.0
 44
558.8
 45
431.8
 46
0.0
 47
0.0
 48
0.0
 49
0.0
140
0.0
141
0.0
142
1.0
143
1.0
 70
0
 72
0
 73
0
 74
0
  7

 75
0
147
1.0
148
0.0
149
0.0
100
AcDbLayout
  1
Layout1
 70
0
 71
1
 10
0.0
 20
0.0
 11
22.0
 21
17.0
 12
0.0
 22
0.0
 32
0.0
 14
0.0
 24
0.0
 34
0.0
 15
0.0
 25
0.0
 35
0.0
146
0.0
 13
0.0
 23
0.0
 33
0.0
 16
1.0
 26
0.0
 36
0.0
 17
0.0
 27
1.0
 37
0.0
 76
0
330
201
345
0
346
0
  0
ENDSEC
  0
EOF
