999
DXF file: C:\Users\ltrzask\AppData\Local\Temp\6d00rmkn\1497b-a6-m14-0-n.dxf
999
Pro/ENGINEER 2019444 by Parametric Technology Corporation
  0
SECTION
  2
HEADER
  9
$ACADVER
  1
AC1032
  9
$DWGCODEPAGE
  3
ANSI_1252
  9
$EXTMAX
 10
22.0
 20
17.0
 30
0.0
  9
$EXTMIN
 10
0.0
 20
0.0
 30
0.0
  9
$LIMMIN
 10
0.0
 20
0.0
  9
$LIMMAX
 10
22.0
 20
17.0
  9
$VIEWCTR
 10
11.0
 20
8.5
  9
$VIEWSIZE
 40
17.0
  9
$CLAYER
  8
0
  9
$LTSCALE
 40
1.21
  9
$CELTYPE
  6
BYLAYER
  9
$DIMSCALE
 40
1.0
  9
$DIMASZ
 40
0.1875
  9
$DIMEXO
 40
0.0625
  9
$DIMDLI
 40
0.836
  9
$DIMEXE
 40
0.125
  9
$DIMCEN
 40
0.198
  9
$DIMLFAC
 40
1.0
  9
$DIMBLK
  1
_FILLED
  9
$DIMALT
 70
1
  9
$DIMALTD
 70
2
  9
$DIMALTTD
 70
2
  9
$DIMALTF
 40
25.4
  9
$DIMTXT
 40
0.12
  9
$DIMTOL
 70
1
  9
$DIMLIM
 70
0
  9
$DIMTFAC
 40
1.0
  9
$DIMTP
 40
0.001
  9
$DIMTM
 40
0.001
  9
$DIMGAP
 40
0.09
  9
$DIMDSEP
 70
46
  9
$AUNITS
 70
0
  9
$PDMODE
 70
3
  9
$PDSIZE
 40
0.3125
  9
$HANDSEED
  5
384
  9
$TILEMODE
 70
1
  9
$MEASUREMENT
 70
0
  9
$INSUNITS
 70
1
  0
ENDSEC
  0
SECTION
  2
CLASSES
  0
CLASS
  1
ACDBDICTIONARYWDFLT
  2
AcDbDictionaryWithDefault
  3
AutoCAD 2000
 90
0
 91
1
280
0
281
0
  0
CLASS
  1
ACDBPLACEHOLDER
  2
AcDbPlaceHolder
  3
AutoCAD 2000
 90
0
 91
1
280
0
281
0
  0
CLASS
  1
LAYOUT
  2
AcDbLayout
  3
AutoCAD 2000
 90
0
 91
0
280
0
281
0
  0
ENDSEC
  0
SECTION
  2
TABLES
  0
TABLE
  2
VPORT
  5
8
100
AcDbSymbolTable
 70
2
  0
VPORT
  5
1F4
100
AcDbSymbolTableRecord
100
AcDbViewportTableRecord
  2
*ACTIVE
 70
0
 10
0.0
 20
0.0
 11
1.0
 21
1.0
 12
11.0
 22
8.5
 13
0.0
 23
0.0
 14
1.0
 24
1.0
 15
0.0
 25
0.0
 16
0.0
 26
0.0
 36
1.0
 17
0.0
 27
0.0
 37
0.0
 40
17.0
 41
1.2941176471
 42
50.0
 43
0.0
 44
0.0
 50
0.0
 51
0.0
 71
0
 72
100
 73
1
 74
1
 75
0
 76
0
 77
0
 78
0
  0
ENDTAB
  0
TABLE
  2
LTYPE
  5
5
100
AcDbSymbolTable
 70
6
  0
LTYPE
  5
14
100
AcDbSymbolTableRecord
100
AcDbLinetypeTableRecord
  2
BYBLOCK
 70
0
  3

 72
65
 73
0
 40
0.0
  0
LTYPE
  5
15
100
AcDbSymbolTableRecord
100
AcDbLinetypeTableRecord
  2
BYLAYER
 70
0
  3

 72
65
 73
0
 40
0.0
  0
LTYPE
  5
16
100
AcDbSymbolTableRecord
100
AcDbLinetypeTableRecord
  2
CONTINUOUS
 70
64
  3
Solid line
 72
65
 73
0
 40
0.0
  0
LTYPE
  5
1F5
100
AcDbSymbolTableRecord
100
AcDbLinetypeTableRecord
  2
CENTER
 70
64
  3
____ _ ____ _ ____ _ ____ _ ____ _ ____ _ ____
 72
65
 73
4
 40
0.6
 49
0.375
 74
0
 49
-0.075
 74
0
 49
0.075
 74
0
 49
-0.075
 74
0
  0
LTYPE
  5
1F6
100
AcDbSymbolTableRecord
100
AcDbLinetypeTableRecord
  2
HIDDEN
 70
64
  3
- - - - - - - - - - - - - - - - - - - -
 72
65
 73
2
 40
0.2
 49
0.1
 74
0
 49
-0.1
 74
0
  0
LTYPE
  5
1F7
100
AcDbSymbolTableRecord
100
AcDbLinetypeTableRecord
  2
PHANTOM
 70
64
  3
_____ _ _ _____ _ _ _____ _ _ _____
 72
65
 73
6
 40
0.8
 49
0.45
 74
0
 49
-0.05
 74
0
 49
0.1
 74
0
 49
-0.05
 74
0
 49
0.1
 74
0
 49
-0.05
 74
0
  0
LTYPE
  5
1F8
100
AcDbSymbolTableRecord
100
AcDbLinetypeTableRecord
  2
DOT
 70
64
  3
. . . . . . . . . . . . . . . . . . . .
 72
65
 73
2
 40
0.2
 49
0.1
 74
0
 49
-0.1
 74
0
  0
LTYPE
  5
1F9
100
AcDbSymbolTableRecord
100
AcDbLinetypeTableRecord
  2
DASHED
 70
64
  3
- - - - - - - - - - - - - - - - - - - -
 72
65
 73
2
 40
0.2
 49
0.1
 74
0
 49
-0.1
 74
0
  0
ENDTAB
  0
TABLE
  2
LAYER
  5
2
100
AcDbSymbolTable
 70
36
  0
LAYER
  5
10
100
AcDbSymbolTableRecord
100
AcDbLayerTableRecord
  2
0
 70
0
 62
7
  6
CONTINUOUS
370
-3
390
F
  0
LAYER
  5
1FA
100
AcDbSymbolTableRecord
100
AcDbLayerTableRecord
  2
DEFAULT_1
 70
0
 62
7
  6
CENTER
370
-3
390
F
  0
LAYER
  5
1FB
100
AcDbSymbolTableRecord
100
AcDbLayerTableRecord
  2
DEFAULT_2
 70
0
 62
8
  6
HIDDEN
370
-3
390
F
  0
LAYER
  5
1FC
100
AcDbSymbolTableRecord
100
AcDbLayerTableRecord
  2
DEFAULT_3
 70
0
 62
7
  6
PHANTOM
370
-3
390
F
  0
LAYER
  5
1FD
100
AcDbSymbolTableRecord
100
AcDbLayerTableRecord
  2
01___PRT_ALL_DTM_PLN
 70
0
 62
7
  6
CONTINUOUS
370
-3
390
F
  0
LAYER
  5
1FE
100
AcDbSymbolTableRecord
100
AcDbLayerTableRecord
  2
01___PRT_DEF_DTM_PLN
 70
0
 62
7
  6
CONTINUOUS
370
-3
390
F
  0
LAYER
  5
1FF
100
AcDbSymbolTableRecord
100
AcDbLayerTableRecord
  2
02___PRT_ALL_AXES
 70
0
 62
7
  6
CONTINUOUS
370
-3
390
F
  0
LAYER
  5
200
100
AcDbSymbolTableRecord
100
AcDbLayerTableRecord
  2
03___PRT_ALL_CURVES
 70
0
 62
7
  6
CONTINUOUS
370
-3
390
F
  0
LAYER
  5
201
100
AcDbSymbolTableRecord
100
AcDbLayerTableRecord
  2
04___PRT_ALL_DTM_PNT
 70
0
 62
7
  6
CONTINUOUS
370
-3
390
F
  0
LAYER
  5
202
100
AcDbSymbolTableRecord
100
AcDbLayerTableRecord
  2
05___PRT_ALL_DTM_CSYS
 70
0
 62
7
  6
CONTINUOUS
370
-3
390
F
  0
LAYER
  5
203
100
AcDbSymbolTableRecord
100
AcDbLayerTableRecord
  2
05___PRT_DEF_DTM_CSYS
 70
0
 62
7
  6
CONTINUOUS
370
-3
390
F
  0
LAYER
  5
204
100
AcDbSymbolTableRecord
100
AcDbLayerTableRecord
  2
06___PRT_ALL_SURFS
 70
0
 62
7
  6
CONTINUOUS
370
-3
390
F
  0
LAYER
  5
205
100
AcDbSymbolTableRecord
100
AcDbLayerTableRecord
  2
AXIS_PART
 70
0
 62
7
  6
CONTINUOUS
370
-3
390
F
  0
LAYER
  5
206
100
AcDbSymbolTableRecord
100
AcDbLayerTableRecord
  2
DATUM_PART
 70
0
 62
7
  6
CONTINUOUS
370
-3
390
F
  0
ENDTAB
  0
TABLE
  2
STYLE
  5
3
100
AcDbSymbolTable
 70
1
  0
STYLE
  5
11
100
AcDbSymbolTableRecord
100
AcDbTextStyleTableRecord
  2
STANDARD
 70
0
 40
0.0
 41
0.8
 50
0.0
 71
0
 42
0.2
  3
txt
  4

  0
STYLE
  5
207
100
AcDbSymbolTableRecord
100
AcDbTextStyleTableRecord
  2
TEXTSTYLE_1
 70
0
 40
0.0
 41
0.8
 50
0.0
 71
0
 42
0.2
  3
gdt
  4

  0
ENDTAB
  0
TABLE
  2
VIEW
  5
6
100
AcDbSymbolTable
 70
0
  0
ENDTAB
  0
TABLE
  2
UCS
  5
7
100
AcDbSymbolTable
 70
0
  0
ENDTAB
  0
TABLE
  2
APPID
  5
9
100
AcDbSymbolTable
 70
1
  0
APPID
  5
208
100
AcDbSymbolTableRecord
100
AcDbRegAppTableRecord
  2
ACAD
 70
0
  0
ENDTAB
  0
TABLE
  2
BLOCK_RECORD
  5
1
100
AcDbSymbolTable
 70
0
  0
BLOCK_RECORD
  5
209
100
AcDbSymbolTableRecord
100
AcDbBlockTableRecord
  2
*Model_Space
  0
BLOCK_RECORD
  5
20A
100
AcDbSymbolTableRecord
100
AcDbBlockTableRecord
  2
*Paper_Space
  0
BLOCK_RECORD
  5
20B
100
AcDbSymbolTableRecord
100
AcDbBlockTableRecord
  2
_FILLED
  0
BLOCK_RECORD
  5
20C
100
AcDbSymbolTableRecord
100
AcDbBlockTableRecord
  2
*D0
  0
BLOCK_RECORD
  5
20D
100
AcDbSymbolTableRecord
100
AcDbBlockTableRecord
  2
*D1
  0
BLOCK_RECORD
  5
20E
100
AcDbSymbolTableRecord
100
AcDbBlockTableRecord
  2
*D2
  0
BLOCK_RECORD
  5
20F
100
AcDbSymbolTableRecord
100
AcDbBlockTableRecord
  2
*D3
  0
BLOCK_RECORD
  5
210
100
AcDbSymbolTableRecord
100
AcDbBlockTableRecord
  2
*D4
  0
BLOCK_RECORD
  5
211
100
AcDbSymbolTableRecord
100
AcDbBlockTableRecord
  2
*D5
  0
BLOCK_RECORD
  5
212
100
AcDbSymbolTableRecord
100
AcDbBlockTableRecord
  2
*D6
  0
BLOCK_RECORD
  5
213
100
AcDbSymbolTableRecord
100
AcDbBlockTableRecord
  2
*D7
  0
BLOCK_RECORD
  5
214
100
AcDbSymbolTableRecord
100
AcDbBlockTableRecord
  2
*D8
  0
ENDTAB
  0
TABLE
  2
DIMSTYLE
  5
A
100
AcDbSymbolTable
 70
1
100
AcDbDimStyleTable
 71
0
  0
DIMSTYLE
105
215
100
AcDbSymbolTableRecord
100
AcDbDimStyleTableRecord
  2
STANDARD
 70
0
  3

  4

 40
1.0
 41
0.1875
 42
0.0625
 43
0.38
 44
0.125
 45
0.0
 46
0.0
 47
0.001
 48
0.001
140
0.12
141
0.09
142
0.0
143
25.4
144
1.0
145
0.0
146
1.0
147
0.09
 71
1
 72
0
 73
1
 74
1
 75
0
 76
0
 77
0
 78
4
 79
1
170
1
171
2
172
0
173
0
174
0
175
0
176
0
177
0
178
0
270
2
179
3
271
3
272
3
273
2
274
2
275
0
280
0
281
0
282
0
283
1
284
4
285
0
286
0
287
3
288
0
340
11
278
46
341
20B
342
20B
343
20B
344
20B
  0
DIMSTYLE
105
216
100
AcDbSymbolTableRecord
100
AcDbDimStyleTableRecord
  2
DIMSTYLE_1
 70
0
  3

  4

 40
1.0
 41
0.1875
 42
0.0625
 43
0.38
 44
0.125
 45
0.0
 46
0.0
 47
0.001
 48
0.001
140
0.12
141
0.09
142
0.0
143
25.4
144
1.0
145
0.0
146
1.0
147
0.06
 71
0
 72
0
 73
1
 74
1
 75
0
 76
0
 77
0
 78
4
 79
1
170
1
171
1
172
0
173
0
174
0
175
0
176
0
177
0
178
0
270
2
179
3
271
2
272
2
273
2
274
1
275
0
280
0
281
0
282
0
283
1
284
4
285
0
286
0
287
3
288
0
340
11
278
46
341
20B
342
20B
343
20B
344
20B
  0
DIMSTYLE
105
217
100
AcDbSymbolTableRecord
100
AcDbDimStyleTableRecord
  2
DIMSTYLE_2
 70
0
  3

  4

 40
1.0
 41
0.1875
 42
0.0625
 43
0.38
 44
0.125
 45
0.0
 46
0.0
 47
0.01
 48
0.01
140
0.12
141
0.09
142
0.0
143
25.4
144
1.0
145
0.0
146
1.0
147
0.06
 71
0
 72
0
 73
1
 74
1
 75
0
 76
0
 77
0
 78
4
 79
1
170
1
171
1
172
0
173
0
174
0
175
0
176
0
177
0
178
0
270
2
179
3
271
2
272
2
273
2
274
-14
275
0
280
0
281
0
282
0
283
1
284
4
285
0
286
0
287
3
288
0
340
11
278
46
341
20B
342
20B
343
20B
344
20B
  0
DIMSTYLE
105
218
100
AcDbSymbolTableRecord
100
AcDbDimStyleTableRecord
  2
DIMSTYLE_3
 70
0
  3

  4

 40
1.0
 41
0.1875
 42
0.0625
 43
0.38
 44
0.125
 45
0.0
 46
0.0
 47
0.0
 48
0.0
140
0.12
141
0.09
142
0.0
143
25.4
144
1.0
145
0.0
146
1.0
147
0.06
 71
0
 72
0
 73
1
 74
1
 75
0
 76
0
 77
0
 78
4
 79
1
170
1
171
1
172
0
173
0
174
0
175
0
176
0
177
0
178
0
270
2
179
3
271
2
272
2
273
2
274
1
275
0
280
0
281
0
282
0
283
1
284
4
285
0
286
0
287
3
288
0
340
11
278
46
341
20B
342
20B
343
20B
344
20B
  0
ENDTAB
  0
ENDSEC
  0
SECTION
  2
BLOCKS
  0
BLOCK
  5
20
100
AcDbEntity
  8
0
100
AcDbBlockBegin
  2
*Model_Space
 70
0
 10
0.0
 20
0.0
 30
0.0
  3
*Model_Space
  1

  0
ENDBLK
  5
21
100
AcDbEntity
  8
0
100
AcDbBlockEnd
  0
BLOCK
  5
1C
100
AcDbEntity
  8
0
100
AcDbBlockBegin
  2
*Paper_Space
 70
0
 10
0.0
 20
0.0
 30
0.0
  3
*Paper_Space
  1

  0
ENDBLK
  5
1D
100
AcDbEntity
  8
0
100
AcDbBlockEnd
  0
BLOCK
  5
219
100
AcDbEntity
  8
0
100
AcDbBlockBegin
  2
_FILLED
 70
64
 10
0.0
 20
0.0
  3
_FILLED
  1

  0
SOLID
  5
21A
100
AcDbEntity
  8
0
  6
BYBLOCK
 62
0
100
AcDbTrace
 10
0.0
 20
0.0
 11
-1.0
 21
0.1666666667
 12
-1.0
 22
-0.1666666667
 13
-1.0
 23
-0.1666666667
  0
ENDBLK
  5
21B
100
AcDbEntity
  8
0
  6
BYBLOCK
 62
0
100
AcDbBlockEnd
  0
BLOCK
  5
21C
100
AcDbEntity
  8
0
100
AcDbBlockBegin
 62
2
  6
CONTINUOUS
  2
*D0
 70
65
 10
0.0
 20
0.0
  3
*D0
  1

  0
MTEXT
  5
21D
100
AcDbEntity
  8
0
100
AcDbMText
 62
2
  6
CONTINUOUS
  7
STANDARD
 71
1
 72
1
 10
4.6622781582
 20
0.6621168507
 30
0.0
 11
1.0
 21
0.0
 31
0.0
 73
2
 44
0.9
  1
.20\P[5]
 40
0.12
 41
0.288
  0
LINE
  5
21E
100
AcDbEntity
  8
0
100
AcDbLine
 62
2
  6
CONTINUOUS
 10
4.0774689505
 20
1.478734617
 11
4.0774689505
 21
0.4771168507
  0
LINE
  5
21F
100
AcDbEntity
  8
0
100
AcDbLine
 62
2
  6
CONTINUOUS
 10
4.2743193442
 20
1.478734617
 11
4.2743193442
 21
0.4771168507
  0
LINE
  5
220
100
AcDbEntity
  8
0
100
AcDbLine
 62
2
  6
CONTINUOUS
 10
4.0774689505
 20
0.6021168507
 11
3.7774689505
 21
0.6021168507
  0
LINE
  5
221
100
AcDbEntity
  8
0
100
AcDbLine
 62
2
  6
CONTINUOUS
 10
4.2743193442
 20
0.6021168507
 11
4.6022781582
 21
0.6021168507
  0
INSERT
  5
222
100
AcDbEntity
  8
0
100
AcDbBlockReference
 62
2
  6
CONTINUOUS
  2
_FILLED
 10
4.0774689505
 20
0.6021168507
 41
0.1875
 42
0.1875
 43
0.1875
  0
INSERT
  5
223
100
AcDbEntity
  8
0
100
AcDbBlockReference
 62
2
  6
CONTINUOUS
  2
_FILLED
 10
4.2743193442
 20
0.6021168507
 41
0.1875
 42
0.1875
 43
0.1875
 50
180.0
  0
ENDBLK
  5
224
100
AcDbEntity
  8
0
  6
BYBLOCK
 62
0
100
AcDbBlockEnd
  0
BLOCK
  5
225
100
AcDbEntity
  8
0
100
AcDbBlockBegin
 62
2
  6
CONTINUOUS
  2
*D1
 70
65
 10
0.0
 20
0.0
  3
*D1
  1

  0
MTEXT
  5
226
100
AcDbEntity
  8
0
100
AcDbMText
 62
2
  6
CONTINUOUS
  7
STANDARD
 71
2
 72
1
 10
8.9641799941
 20
3.1518719202
 30
0.0
 11
1.0
 21
0.0
 31
0.0
 73
2
 44
0.9
  1
2.83\P[71.8]
 40
0.12
 41
0.576
  0
LINE
  5
227
100
AcDbEntity
  8
0
100
AcDbLine
 62
2
  6
CONTINUOUS
 10
8.533234223
 20
1.6778094202
 11
9.1851799941
 21
1.6778094202
  0
LINE
  5
228
100
AcDbEntity
  8
0
100
AcDbLine
 62
2
  6
CONTINUOUS
 10
8.5627680403
 20
4.5059344202
 11
9.1851799941
 21
4.5059344202
  0
LINE
  5
229
100
AcDbEntity
  8
0
100
AcDbLine
 62
2
  6
CONTINUOUS
 10
9.0601799941
 20
1.6778094202
 11
9.0601799941
 21
2.7918719202
  0
LINE
  5
22A
100
AcDbEntity
  8
0
100
AcDbLine
 62
2
  6
CONTINUOUS
 10
9.0601799941
 20
4.5059344202
 11
9.0601799941
 21
3.2118719202
  0
INSERT
  5
22B
100
AcDbEntity
  8
0
100
AcDbBlockReference
 62
2
  6
CONTINUOUS
  2
_FILLED
 10
9.0601799941
 20
1.6778094202
 41
0.1875
 42
0.1875
 43
0.1875
 50
270.0
  0
INSERT
  5
22C
100
AcDbEntity
  8
0
100
AcDbBlockReference
 62
2
  6
CONTINUOUS
  2
_FILLED
 10
9.0601799941
 20
4.5059344202
 41
0.1875
 42
0.1875
 43
0.1875
 50
90.0
  0
ENDBLK
  5
22D
100
AcDbEntity
  8
0
  6
BYBLOCK
 62
0
100
AcDbBlockEnd
  0
BLOCK
  5
22E
100
AcDbEntity
  8
0
100
AcDbBlockBegin
 62
2
  6
CONTINUOUS
  2
*D2
 70
65
 10
0.0
 20
0.0
  3
*D2
  1

  0
MTEXT
  5
22F
100
AcDbEntity
  8
0
100
AcDbMText
 62
2
  6
CONTINUOUS
  7
STANDARD
 71
2
 72
1
 10
5.9548941474
 20
5.8904713016
 30
0.0
 11
1.0
 21
0.0
 31
0.0
 73
2
 44
0.9
  1
3.75\P[95.3]
 40
0.12
 41
0.576
  0
LINE
  5
230
100
AcDbEntity
  8
0
100
AcDbLine
 62
2
  6
CONTINUOUS
 10
4.1758941474
 20
5.5110533363
 11
4.1758941474
 21
5.9554713016
  0
LINE
  5
231
100
AcDbEntity
  8
0
100
AcDbLine
 62
2
  6
CONTINUOUS
 10
7.9258941474
 20
5.3915116947
 11
7.9258941474
 21
5.9554713016
  0
LINE
  5
232
100
AcDbEntity
  8
0
100
AcDbLine
 62
2
  6
CONTINUOUS
 10
4.1758941474
 20
5.8304713016
 11
5.7028941474
 21
5.8304713016
  0
LINE
  5
233
100
AcDbEntity
  8
0
100
AcDbLine
 62
2
  6
CONTINUOUS
 10
7.9258941474
 20
5.8304713016
 11
6.3988941474
 21
5.8304713016
  0
INSERT
  5
234
100
AcDbEntity
  8
0
100
AcDbBlockReference
 62
2
  6
CONTINUOUS
  2
_FILLED
 10
4.1758941474
 20
5.8304713016
 41
0.1875
 42
0.1875
 43
0.1875
 50
180.0
  0
INSERT
  5
235
100
AcDbEntity
  8
0
100
AcDbBlockReference
 62
2
  6
CONTINUOUS
  2
_FILLED
 10
7.9258941474
 20
5.8304713016
 41
0.1875
 42
0.1875
 43
0.1875
  0
ENDBLK
  5
236
100
AcDbEntity
  8
0
  6
BYBLOCK
 62
0
100
AcDbBlockEnd
  0
BLOCK
  5
237
100
AcDbEntity
  8
0
100
AcDbBlockBegin
 62
2
  6
CONTINUOUS
  2
*D3
 70
65
 10
0.0
 20
0.0
  3
*D3
  1

  0
MTEXT
  5
238
100
AcDbEntity
  8
0
100
AcDbMText
 62
2
  6
CONTINUOUS
  7
STANDARD
 71
2
 72
1
 10
9.8995814397
 20
3.1493719202
 30
0.0
 11
1.0
 21
0.0
 31
0.0
 73
2
 44
0.9
  1
3.63\P[92.2]
 40
0.12
 41
0.576
  0
LINE
  5
239
100
AcDbEntity
  8
0
100
AcDbLine
 62
2
  6
CONTINUOUS
 10
8.1133941474
 20
1.2743719202
 11
10.1205814397
 21
1.2743719202
  0
LINE
  5
23A
100
AcDbEntity
  8
0
100
AcDbLine
 62
2
  6
CONTINUOUS
 10
8.1133941474
 20
4.9043719202
 11
10.1205814397
 21
4.9043719202
  0
LINE
  5
23B
100
AcDbEntity
  8
0
100
AcDbLine
 62
2
  6
CONTINUOUS
 10
9.9955814397
 20
1.2743719202
 11
9.9955814397
 21
2.7893719202
  0
LINE
  5
23C
100
AcDbEntity
  8
0
100
AcDbLine
 62
2
  6
CONTINUOUS
 10
9.9955814397
 20
4.9043719202
 11
9.9955814397
 21
3.2093719202
  0
INSERT
  5
23D
100
AcDbEntity
  8
0
100
AcDbBlockReference
 62
2
  6
CONTINUOUS
  2
_FILLED
 10
9.9955814397
 20
1.2743719202
 41
0.1875
 42
0.1875
 43
0.1875
 50
270.0
  0
INSERT
  5
23E
100
AcDbEntity
  8
0
100
AcDbBlockReference
 62
2
  6
CONTINUOUS
  2
_FILLED
 10
9.9955814397
 20
4.9043719202
 41
0.1875
 42
0.1875
 43
0.1875
 50
90.0
  0
ENDBLK
  5
23F
100
AcDbEntity
  8
0
  6
BYBLOCK
 62
0
100
AcDbBlockEnd
  0
BLOCK
  5
240
100
AcDbEntity
  8
0
100
AcDbBlockBegin
 62
2
  6
CONTINUOUS
  2
*D4
 70
65
 10
0.0
 20
0.0
  3
*D4
  1

  0
MTEXT
  5
241
100
AcDbEntity
  8
0
100
AcDbMText
 62
2
  6
CONTINUOUS
  7
STANDARD
 71
2
 72
1
 10
5.9068941474
 20
6.729650289
 30
0.0
 11
1.0
 21
0.0
 31
0.0
 73
2
 44
0.9
  1
4.50\P[114.3]
 40
0.12
 41
0.672
  0
LINE
  5
242
100
AcDbEntity
  8
0
100
AcDbLine
 62
2
  6
CONTINUOUS
 10
3.8008941474
 20
7.1692485549
 11
3.8008941474
 21
6.544650289
  0
LINE
  5
243
100
AcDbEntity
  8
0
100
AcDbLine
 62
2
  6
CONTINUOUS
 10
8.3008941474
 20
7.1692485549
 11
8.3008941474
 21
6.544650289
  0
LINE
  5
244
100
AcDbEntity
  8
0
100
AcDbLine
 62
2
  6
CONTINUOUS
 10
3.8008941474
 20
6.669650289
 11
5.6548941474
 21
6.669650289
  0
LINE
  5
245
100
AcDbEntity
  8
0
100
AcDbLine
 62
2
  6
CONTINUOUS
 10
8.3008941474
 20
6.669650289
 11
6.4468941474
 21
6.669650289
  0
INSERT
  5
246
100
AcDbEntity
  8
0
100
AcDbBlockReference
 62
2
  6
CONTINUOUS
  2
_FILLED
 10
3.8008941474
 20
6.669650289
 41
0.1875
 42
0.1875
 43
0.1875
 50
180.0
  0
INSERT
  5
247
100
AcDbEntity
  8
0
100
AcDbBlockReference
 62
2
  6
CONTINUOUS
  2
_FILLED
 10
8.3008941474
 20
6.669650289
 41
0.1875
 42
0.1875
 43
0.1875
  0
ENDBLK
  5
248
100
AcDbEntity
  8
0
  6
BYBLOCK
 62
0
100
AcDbBlockEnd
  0
BLOCK
  5
249
100
AcDbEntity
  8
0
100
AcDbBlockBegin
 62
2
  6
CONTINUOUS
  2
*D5
 70
65
 10
0.0
 20
0.0
  3
*D5
  1

  0
MTEXT
  5
24A
100
AcDbEntity
  8
0
100
AcDbMText
 62
2
  6
CONTINUOUS
  7
STANDARD
 71
2
 72
1
 10
13.3015480582
 20
6.5171098266
 30
0.0
 11
1.0
 21
0.0
 31
0.0
 73
2
 44
0.9
  1
3.63\P[92.2]
 40
0.12
 41
0.576
  0
LINE
  5
24B
100
AcDbEntity
  8
0
100
AcDbLine
 62
2
  6
CONTINUOUS
 10
11.5825480582
 20
7.1692485549
 11
11.5825480582
 21
6.3321098266
  0
LINE
  5
24C
100
AcDbEntity
  8
0
100
AcDbLine
 62
2
  6
CONTINUOUS
 10
15.2125480582
 20
7.1692485549
 11
15.2125480582
 21
6.3321098266
  0
LINE
  5
24D
100
AcDbEntity
  8
0
100
AcDbLine
 62
2
  6
CONTINUOUS
 10
11.5825480582
 20
6.4571098266
 11
13.0495480582
 21
6.4571098266
  0
LINE
  5
24E
100
AcDbEntity
  8
0
100
AcDbLine
 62
2
  6
CONTINUOUS
 10
15.2125480582
 20
6.4571098266
 11
13.7455480582
 21
6.4571098266
  0
INSERT
  5
24F
100
AcDbEntity
  8
0
100
AcDbBlockReference
 62
2
  6
CONTINUOUS
  2
_FILLED
 10
11.5825480582
 20
6.4571098266
 41
0.1875
 42
0.1875
 43
0.1875
 50
180.0
  0
INSERT
  5
250
100
AcDbEntity
  8
0
100
AcDbBlockReference
 62
2
  6
CONTINUOUS
  2
_FILLED
 10
15.2125480582
 20
6.4571098266
 41
0.1875
 42
0.1875
 43
0.1875
  0
ENDBLK
  5
251
100
AcDbEntity
  8
0
  6
BYBLOCK
 62
0
100
AcDbBlockEnd
  0
BLOCK
  5
252
100
AcDbEntity
  8
0
100
AcDbBlockBegin
 62
2
  6
CONTINUOUS
  2
*D6
 70
65
 10
0.0
 20
0.0
  3
*D6
  1

  0
MTEXT
  5
253
100
AcDbEntity
  8
0
100
AcDbMText
 62
2
  6
CONTINUOUS
  7
STANDARD
 71
2
 72
1
 10
13.2535480582
 20
12.2378684971
 30
0.0
 11
1.0
 21
0.0
 31
0.0
 73
2
 44
0.9
  1
4.38\P[111.3]
 40
0.12
 41
0.672
  0
LINE
  5
254
100
AcDbEntity
  8
0
100
AcDbLine
 62
2
  6
CONTINUOUS
 10
15.5875480582
 20
11.0423699422
 11
15.5875480582
 21
12.3028684971
  0
LINE
  5
255
100
AcDbEntity
  8
0
100
AcDbLine
 62
2
  6
CONTINUOUS
 10
11.2075480582
 20
10.9136127168
 11
11.2075480582
 21
12.3028684971
  0
LINE
  5
256
100
AcDbEntity
  8
0
100
AcDbLine
 62
2
  6
CONTINUOUS
 10
15.5875480582
 20
12.1778684971
 11
13.7935480582
 21
12.1778684971
  0
LINE
  5
257
100
AcDbEntity
  8
0
100
AcDbLine
 62
2
  6
CONTINUOUS
 10
11.2075480582
 20
12.1778684971
 11
13.0015480582
 21
12.1778684971
  0
INSERT
  5
258
100
AcDbEntity
  8
0
100
AcDbBlockReference
 62
2
  6
CONTINUOUS
  2
_FILLED
 10
15.5875480582
 20
12.1778684971
 41
0.1875
 42
0.1875
 43
0.1875
  0
INSERT
  5
259
100
AcDbEntity
  8
0
100
AcDbBlockReference
 62
2
  6
CONTINUOUS
  2
_FILLED
 10
11.2075480582
 20
12.1778684971
 41
0.1875
 42
0.1875
 43
0.1875
 50
180.0
  0
ENDBLK
  5
25A
100
AcDbEntity
  8
0
  6
BYBLOCK
 62
0
100
AcDbBlockEnd
  0
BLOCK
  5
25B
100
AcDbEntity
  8
0
100
AcDbBlockBegin
 62
2
  6
CONTINUOUS
  2
*D7
 70
65
 10
0.0
 20
0.0
  3
*D7
  1

  0
MTEXT
  5
25C
100
AcDbEntity
  8
0
100
AcDbMText
 62
2
  6
CONTINUOUS
  7
STANDARD
 71
2
 72
1
 10
2.3615126445
 20
9.2767485549
 30
0.0
 11
1.0
 21
0.0
 31
0.0
 73
2
 44
0.9
  1
3.97\P[100.8]
 40
0.12
 41
0.672
  0
LINE
  5
25D
100
AcDbEntity
  8
0
100
AcDbLine
 62
2
  6
CONTINUOUS
 10
3.7383941474
 20
7.2317485549
 11
2.3805126445
 21
7.2317485549
  0
LINE
  5
25E
100
AcDbEntity
  8
0
100
AcDbLine
 62
2
  6
CONTINUOUS
 10
3.7383941474
 20
11.2017485549
 11
2.3805126445
 21
11.2017485549
  0
LINE
  5
25F
100
AcDbEntity
  8
0
100
AcDbLine
 62
2
  6
CONTINUOUS
 10
2.5055126445
 20
7.2317485549
 11
2.5055126445
 21
8.9167483521
  0
LINE
  5
260
100
AcDbEntity
  8
0
100
AcDbLine
 62
2
  6
CONTINUOUS
 10
2.5055126445
 20
11.2017485549
 11
2.5055126445
 21
9.3367485549
  0
INSERT
  5
261
100
AcDbEntity
  8
0
100
AcDbBlockReference
 62
2
  6
CONTINUOUS
  2
_FILLED
 10
2.5055126445
 20
7.2317485549
 41
0.1875
 42
0.1875
 43
0.1875
 50
270.0
  0
INSERT
  5
262
100
AcDbEntity
  8
0
100
AcDbBlockReference
 62
2
  6
CONTINUOUS
  2
_FILLED
 10
2.5055126445
 20
11.2017485549
 41
0.1875
 42
0.1875
 43
0.1875
 50
90.0
  0
ENDBLK
  5
263
100
AcDbEntity
  8
0
  6
BYBLOCK
 62
0
100
AcDbBlockEnd
  0
BLOCK
  5
264
100
AcDbEntity
  8
0
100
AcDbBlockBegin
 62
2
  6
CONTINUOUS
  2
*D8
 70
65
 10
0.0
 20
0.0
  3
*D8
  1

  0
MTEXT
  5
265
100
AcDbEntity
  8
0
100
AcDbMText
 62
2
  6
CONTINUOUS
  7
STANDARD
 71
3
 72
1
 10
2.8859517197
 20
1.0867372525
 30
0.0
 11
1.0
 21
0.0
 31
0.0
 73
2
 44
0.9
  1
.47\P[11.9]
 40
0.12
 41
0.576
  0
LINE
  5
266
100
AcDbEntity
  8
0
100
AcDbLine
 62
2
  6
CONTINUOUS
 10
4.1133941474
 20
1.4428094202
 11
3.2989517197
 21
1.4428094202
  0
LINE
  5
267
100
AcDbEntity
  8
0
100
AcDbLine
 62
2
  6
CONTINUOUS
 10
4.1133941474
 20
1.9128094202
 11
3.2989517197
 21
1.9128094202
  0
LINE
  5
268
100
AcDbEntity
  8
0
100
AcDbLine
 62
2
  6
CONTINUOUS
 10
3.4239517197
 20
1.4428094202
 11
3.4239517197
 21
1.6778094202
  0
LINE
  5
269
100
AcDbEntity
  8
0
100
AcDbLine
 62
2
  6
CONTINUOUS
 10
3.4239517197
 20
1.6778094202
 11
3.4239517197
 21
1.0267372525
  0
LINE
  5
26A
100
AcDbEntity
  8
0
100
AcDbLine
 62
2
  6
CONTINUOUS
 10
3.4239517197
 20
1.0267372525
 11
3.2339517197
 21
1.0267372525
  0
LINE
  5
26B
100
AcDbEntity
  8
0
100
AcDbLine
 62
2
  6
CONTINUOUS
 10
3.4239517197
 20
1.9128094202
 11
3.4239517197
 21
1.6778094202
  0
INSERT
  5
26C
100
AcDbEntity
  8
0
100
AcDbBlockReference
 62
2
  6
CONTINUOUS
  2
_FILLED
 10
3.4239517197
 20
1.4428094202
 41
0.1875
 42
0.1875
 43
0.1875
 50
270.0
  0
INSERT
  5
26D
100
AcDbEntity
  8
0
100
AcDbBlockReference
 62
2
  6
CONTINUOUS
  2
_FILLED
 10
3.4239517197
 20
1.9128094202
 41
0.1875
 42
0.1875
 43
0.1875
 50
90.0
  0
ENDBLK
  5
26E
100
AcDbEntity
  8
0
  6
BYBLOCK
 62
0
100
AcDbBlockEnd
  0
ENDSEC
  0
SECTION
  2
ENTITIES
  0
DIMENSION
  5
26F
100
AcDbEntity
  8
0
100
AcDbDimension
 62
2
  6
CONTINUOUS
  2
*D0
 10
4.2743193442
 20
0.6021168507
 11
4.8062781582
 21
0.5121168507
 70
160
 71
1
 72
2
 41
0.9
 42
0.1968503937
  1
<>\P[]
  3
DIMSTYLE_1
100
AcDbAlignedDimension
 13
4.0774689505
 23
1.541234617
 14
4.2743193442
 24
1.541234617
100
AcDbRotatedDimension
  0
DIMENSION
  5
270
100
AcDbEntity
  8
0
100
AcDbDimension
 62
2
  6
CONTINUOUS
  2
*D1
 10
9.0601799941
 20
4.5059344202
 11
9.0601799941
 21
3.0018719202
 70
160
 71
2
 72
2
 41
0.9
 42
2.828125
  1
<>\P[]
  3
DIMSTYLE_1
100
AcDbAlignedDimension
 13
8.470734223
 23
1.6778094202
 14
8.5002680403
 24
4.5059344202
 50
90.0
100
AcDbRotatedDimension
  0
DIMENSION
  5
271
100
AcDbEntity
  8
0
100
AcDbDimension
 62
2
  6
CONTINUOUS
  2
*D2
 10
7.9258941474
 20
5.8304713016
 11
6.0508941474
 21
5.7404713016
 70
160
 71
2
 72
2
 41
0.9
 42
3.75
  1
<>\P[]
  3
DIMSTYLE_1
100
AcDbAlignedDimension
 13
4.1758941474
 23
5.4485533363
 14
7.9258941474
 24
5.3290116947
100
AcDbRotatedDimension
  0
DIMENSION
  5
272
100
AcDbEntity
  8
0
100
AcDbDimension
 62
2
  6
CONTINUOUS
  2
*D3
 10
9.9955814397
 20
4.9043719202
 11
9.9955814397
 21
2.9993719202
 70
160
 71
2
 72
2
 41
0.9
 42
3.63
  1
<>\P[]
  3
DIMSTYLE_1
100
AcDbAlignedDimension
 13
8.0508941474
 23
1.2743719202
 14
8.0508941474
 24
4.9043719202
 50
90.0
100
AcDbRotatedDimension
  0
DIMENSION
  5
273
100
AcDbEntity
  8
0
100
AcDbDimension
 62
2
  6
CONTINUOUS
  2
*D4
 10
8.3008941474
 20
6.669650289
 11
6.0508941474
 21
6.579650289
 70
160
 71
2
 72
2
 41
0.9
 42
4.5
  1
<>\P[]
  3
DIMSTYLE_2
100
AcDbAlignedDimension
 13
3.8008941474
 23
7.2317485549
 14
8.3008941474
 24
7.2317485549
100
AcDbRotatedDimension
  0
DIMENSION
  5
274
100
AcDbEntity
  8
0
100
AcDbDimension
 62
2
  6
CONTINUOUS
  2
*D5
 10
15.2125480582
 20
6.4571098266
 11
13.3975480582
 21
6.3671098266
 70
160
 71
2
 72
2
 41
0.9
 42
3.63
  1
<>\P[]
  3
DIMSTYLE_3
100
AcDbAlignedDimension
 13
11.5825480582
 23
7.2317485549
 14
15.2125480582
 24
7.2317485549
100
AcDbRotatedDimension
  0
DIMENSION
  5
275
100
AcDbEntity
  8
0
100
AcDbDimension
 62
2
  6
CONTINUOUS
  2
*D6
 10
11.2075480582
 20
12.1778684971
 11
13.3975480582
 21
12.0878684971
 70
160
 71
2
 72
2
 41
0.9
 42
4.38
  1
<>\P[]
  3
DIMSTYLE_3
100
AcDbAlignedDimension
 13
15.5875480582
 23
10.9798699422
 14
11.2075480582
 24
10.8511127168
 50
180.0
100
AcDbRotatedDimension
  0
DIMENSION
  5
276
100
AcDbEntity
  8
0
100
AcDbDimension
 62
2
  6
CONTINUOUS
  2
*D7
 10
2.5055126445
 20
11.2017485549
 11
2.5055126445
 21
9.1267485549
 70
160
 71
2
 72
2
 41
0.9
 42
3.97
  1
<>\P[]
  3
DIMSTYLE_3
100
AcDbAlignedDimension
 13
3.8008941474
 23
7.2317485549
 14
3.8008941474
 24
11.2017485549
 50
90.0
100
AcDbRotatedDimension
  0
DIMENSION
  5
277
100
AcDbEntity
  8
0
100
AcDbDimension
 62
2
  6
CONTINUOUS
  2
*D8
 10
3.4239517197
 20
1.9128094202
 11
2.8859517197
 21
0.9367372525
 70
160
 71
3
 72
2
 41
0.9
 42
0.47
  1
<>\P[]
  3
DIMSTYLE_3
100
AcDbAlignedDimension
 13
4.1758941474
 23
1.4428094202
 14
4.1758941474
 24
1.9128094202
 50
90.0
100
AcDbRotatedDimension
  0
LINE
  5
278
100
AcDbEntity
  8
0
100
AcDbLine
 62
7
  6
CONTINUOUS
 10
0.0
 20
0.0
 11
0.0
 21
17.0
  0
LINE
  5
279
100
AcDbEntity
  8
0
100
AcDbLine
 62
7
  6
CONTINUOUS
 10
0.0
 20
0.0
 11
22.0
 21
0.0
  0
LINE
  5
27A
100
AcDbEntity
  8
0
100
AcDbLine
 62
7
  6
CONTINUOUS
 10
0.0
 20
17.0
 11
22.0
 21
17.0
  0
LINE
  5
27B
100
AcDbEntity
  8
0
100
AcDbLine
 62
7
  6
CONTINUOUS
 10
22.0
 20
0.0
 11
22.0
 21
17.0
  0
LINE
  5
27C
100
AcDbEntity
  8
0
100
AcDbLine
 62
7
  6
CONTINUOUS
 10
3.8008941474
 20
7.2317485549
 11
3.8008941474
 21
11.2017485549
  0
LINE
  5
27D
100
AcDbEntity
  8
0
100
AcDbLine
 62
7
  6
CONTINUOUS
 10
3.8008941474
 20
7.2317485549
 11
8.3008941474
 21
7.2317485549
  0
LINE
  5
27E
100
AcDbEntity
  8
0
100
AcDbLine
 62
7
  6
CONTINUOUS
 10
3.8008941474
 20
7.3317485549
 11
8.3008941474
 21
7.3317485549
  0
LINE
  5
27F
100
AcDbEntity
  8
0
100
AcDbLine
 62
7
  6
CONTINUOUS
 10
4.3008941474
 20
8.3317485549
 11
4.3008941474
 21
10.8317485549
  0
LINE
  5
280
100
AcDbEntity
  8
0
100
AcDbLine
 62
7
  6
CONTINUOUS
 10
7.5508941474
 20
8.0817485549
 11
4.5508941474
 21
8.0817485549
  0
LINE
  5
281
100
AcDbEntity
  8
02___PRT_ALL_AXES
100
AcDbLine
 62
7
  6
CENTER
 10
6.0508941474
 20
11.3017485549
 11
6.0508941474
 21
7.1317485549
  0
LINE
  5
282
100
AcDbEntity
  8
0
100
AcDbLine
 62
7
  6
CONTINUOUS
 10
4.3008941474
 20
10.8317485549
 11
7.8008941474
 21
10.8317485549
  0
LINE
  5
283
100
AcDbEntity
  8
0
100
AcDbLine
 62
7
  6
CONTINUOUS
 10
7.8008941474
 20
10.8317485549
 11
7.8008941474
 21
8.3317485549
  0
LINE
  5
284
100
AcDbEntity
  8
0
100
AcDbLine
 62
7
  6
CONTINUOUS
 10
3.8008941474
 20
11.2017485549
 11
8.3008941474
 21
11.2017485549
  0
LINE
  5
285
100
AcDbEntity
  8
0
100
AcDbLine
 62
7
  6
CONTINUOUS
 10
8.3008941474
 20
7.2317485549
 11
8.3008941474
 21
11.2017485549
  0
LINE
  5
286
100
AcDbEntity
  8
0
100
AcDbLine
 62
7
  6
CONTINUOUS
 10
11.2075480582
 20
10.8317485549
 11
11.2075480582
 21
10.0499943915
  0
LINE
  5
287
100
AcDbEntity
  8
0
100
AcDbLine
 62
7
  6
CONTINUOUS
 10
11.5825480582
 20
7.2317485549
 11
15.2125480582
 21
7.2317485549
  0
LINE
  5
288
100
AcDbEntity
  8
0
100
AcDbLine
 62
7
  6
CONTINUOUS
 10
11.5825480582
 20
7.3317485549
 11
11.5825480582
 21
7.2317485549
  0
LINE
  5
289
100
AcDbEntity
  8
0
100
AcDbLine
 62
7
  6
CONTINUOUS
 10
11.5825480582
 20
7.3317485549
 11
12.6450480582
 21
7.3317485549
  0
LINE
  5
28A
100
AcDbEntity
  8
0
100
AcDbLine
 62
7
  6
CONTINUOUS
 10
14.1450480582
 20
7.3317485549
 11
15.2125480582
 21
7.3317485549
  0
LINE
  5
28B
100
AcDbEntity
  8
0
100
AcDbLine
 62
7
  6
CONTINUOUS
 10
11.9575480582
 20
9.0817485549
 11
11.9575480582
 21
8.3317485549
  0
LINE
  5
28C
100
AcDbEntity
  8
0
100
AcDbLine
 62
7
  6
CONTINUOUS
 10
12.2075480582
 20
8.0817485549
 11
12.6450480582
 21
8.0817485549
  0
LINE
  5
28D
100
AcDbEntity
  8
0
100
AcDbLine
 62
7
  6
CONTINUOUS
 10
14.1450480582
 20
8.0817485549
 11
14.5875480582
 21
8.0817485549
  0
LINE
  5
28E
100
AcDbEntity
  8
0
100
AcDbLine
 62
7
  6
CONTINUOUS
 10
12.6450480582
 20
7.3317485549
 11
12.6450480582
 21
11.2017485549
  0
LINE
  5
28F
100
AcDbEntity
  8
02___PRT_ALL_AXES
100
AcDbLine
 62
7
  6
CENTER
 10
13.3950480582
 20
11.3017485549
 11
13.3950480582
 21
7.1317485549
  0
LINE
  5
290
100
AcDbEntity
  8
0
100
AcDbLine
 62
7
  6
CONTINUOUS
 10
14.1450480582
 20
7.3317485549
 11
14.1450480582
 21
11.2017485549
  0
LINE
  5
291
100
AcDbEntity
  8
0
100
AcDbLine
 62
7
  6
CONTINUOUS
 10
14.8375480582
 20
8.3317485549
 11
14.8375480582
 21
9.0817485549
  0
LINE
  5
292
100
AcDbEntity
  8
0
100
AcDbLine
 62
7
  6
CONTINUOUS
 10
11.2075480582
 20
10.8317485549
 11
12.6450480582
 21
10.8317485549
  0
LINE
  5
293
100
AcDbEntity
  8
0
100
AcDbLine
 62
7
  6
CONTINUOUS
 10
14.1450480582
 20
10.8317485549
 11
15.5875480582
 21
10.8317485549
  0
LINE
  5
294
100
AcDbEntity
  8
0
100
AcDbLine
 62
7
  6
CONTINUOUS
 10
15.2125480582
 20
7.3317485549
 11
15.2125480582
 21
7.2317485549
  0
LINE
  5
295
100
AcDbEntity
  8
0
100
AcDbLine
 62
7
  6
CONTINUOUS
 10
12.6450480582
 20
11.2017485549
 11
14.1450480582
 21
11.2017485549
  0
LINE
  5
296
100
AcDbEntity
  8
0
100
AcDbLine
 62
7
  6
CONTINUOUS
 10
15.5875480582
 20
10.0499943915
 11
15.5875480582
 21
10.8317485549
  0
LINE
  5
297
100
AcDbEntity
  8
0
100
AcDbLine
 62
7
  6
CONTINUOUS
 10
3.8008941474
 20
15.7412703306
 11
3.8008941474
 21
12.6112703306
  0
LINE
  5
298
100
AcDbEntity
  8
0
100
AcDbLine
 62
7
  6
CONTINUOUS
 10
4.5508941474
 20
11.9862703306
 11
7.5508941474
 21
11.9862703306
  0
LINE
  5
299
100
AcDbEntity
  8
0
100
AcDbLine
 62
7
  6
CONTINUOUS
 10
4.0774689505
 20
15.7244076337
 11
4.0774689505
 21
15.4512580274
  0
LINE
  5
29A
100
AcDbEntity
  8
0
100
AcDbLine
 62
7
  6
CONTINUOUS
 10
4.0774689505
 20
12.8962826337
 11
4.0774689505
 21
12.6231330274
  0
LINE
  5
29B
100
AcDbEntity
  8
0
100
AcDbLine
 62
7
  6
CONTINUOUS
 10
4.2743193442
 20
12.6231330274
 11
4.2743193442
 21
12.8962826337
  0
LINE
  5
29C
100
AcDbEntity
  8
0
100
AcDbLine
 62
7
  6
CONTINUOUS
 10
4.2743193442
 20
15.4512580274
 11
4.2743193442
 21
15.7244076337
  0
LINE
  5
29D
100
AcDbEntity
  8
0
100
AcDbLine
 62
7
  6
CONTINUOUS
 10
4.3008941474
 20
16.1162703306
 11
4.3008941474
 21
14.9237703306
  0
LINE
  5
29E
100
AcDbEntity
  8
0
100
AcDbLine
 62
7
  6
CONTINUOUS
 10
4.3008941474
 20
13.4237703306
 11
4.3008941474
 21
12.2362703306
  0
LINE
  5
29F
100
AcDbEntity
  8
0
100
AcDbLine
 62
7
  6
CONTINUOUS
 10
8.0508941474
 20
12.3612703306
 11
7.8008941474
 21
12.3612703306
  0
LINE
  5
2A0
100
AcDbEntity
  8
0
100
AcDbLine
 62
7
  6
CONTINUOUS
 10
4.3008941474
 20
12.3612703306
 11
4.0508941474
 21
12.3612703306
  0
LINE
  5
2A1
100
AcDbEntity
  8
0
100
AcDbLine
 62
7
  6
CONTINUOUS
 10
3.8008941474
 20
13.4237703306
 11
8.3008941474
 21
13.4237703306
  0
LINE
  5
2A2
100
AcDbEntity
  8
02___PRT_ALL_AXES
100
AcDbLine
 62
7
  6
CENTER
 10
6.0508941474
 20
16.4662703306
 11
6.0508941474
 21
11.8862703306
  0
LINE
  5
2A3
100
AcDbEntity
  8
02___PRT_ALL_AXES
100
AcDbLine
 62
7
  6
CENTER
 10
8.4008941474
 20
14.1737703306
 11
3.7008941474
 21
14.1737703306
  0
LINE
  5
2A4
100
AcDbEntity
  8
0
100
AcDbLine
 62
7
  6
CONTINUOUS
 10
8.3008941474
 20
14.9237703306
 11
3.8008941474
 21
14.9237703306
  0
LINE
  5
2A5
100
AcDbEntity
  8
0
100
AcDbLine
 62
7
  6
CONTINUOUS
 10
7.8008941474
 20
12.2362703306
 11
7.8008941474
 21
13.4237703306
  0
LINE
  5
2A6
100
AcDbEntity
  8
0
100
AcDbLine
 62
7
  6
CONTINUOUS
 10
7.8008941474
 20
14.9237703306
 11
7.8008941474
 21
16.1162703306
  0
LINE
  5
2A7
100
AcDbEntity
  8
0
100
AcDbLine
 62
7
  6
CONTINUOUS
 10
7.8274689505
 20
15.7244076337
 11
7.8274689505
 21
15.4512580274
  0
LINE
  5
2A8
100
AcDbEntity
  8
0
100
AcDbLine
 62
7
  6
CONTINUOUS
 10
7.8274689505
 20
12.8962826337
 11
7.8274689505
 21
12.6231330274
  0
LINE
  5
2A9
100
AcDbEntity
  8
0
100
AcDbLine
 62
7
  6
CONTINUOUS
 10
4.0508941474
 20
15.9912703306
 11
4.3008941474
 21
15.9912703306
  0
LINE
  5
2AA
100
AcDbEntity
  8
0
100
AcDbLine
 62
7
  6
CONTINUOUS
 10
7.8008941474
 20
15.9912703306
 11
8.0508941474
 21
15.9912703306
  0
LINE
  5
2AB
100
AcDbEntity
  8
0
100
AcDbLine
 62
7
  6
CONTINUOUS
 10
8.0243193442
 20
12.6231330274
 11
8.0243193442
 21
12.8962826337
  0
LINE
  5
2AC
100
AcDbEntity
  8
0
100
AcDbLine
 62
7
  6
CONTINUOUS
 10
8.0243193442
 20
15.4512580274
 11
8.0243193442
 21
15.7244076337
  0
LINE
  5
2AD
100
AcDbEntity
  8
0
100
AcDbLine
 62
7
  6
CONTINUOUS
 10
8.3008941474
 20
12.6112703306
 11
8.3008941474
 21
15.7412703306
  0
LINE
  5
2AE
100
AcDbEntity
  8
0
100
AcDbLine
 62
7
  6
CONTINUOUS
 10
7.5508941474
 20
16.3662703306
 11
4.5508941474
 21
16.3662703306
  0
LINE
  5
2AF
100
AcDbEntity
  8
0
100
AcDbLine
 62
7
  6
CONTINUOUS
 10
3.8008941474
 20
1.5243719202
 11
3.8008941474
 21
4.6543719202
  0
LINE
  5
2B0
100
AcDbEntity
  8
0
100
AcDbLine
 62
7
  6
CONTINUOUS
 10
7.5508941474
 20
0.8993719202
 11
4.5508941474
 21
0.8993719202
  0
LINE
  5
2B1
100
AcDbEntity
  8
0
100
AcDbLine
 62
7
  6
CONTINUOUS
 10
4.0774689505
 20
1.541234617
 11
4.0774689505
 21
1.8143842233
  0
LINE
  5
2B2
100
AcDbEntity
  8
0
100
AcDbLine
 62
7
  6
CONTINUOUS
 10
4.0774689505
 20
4.369359617
 11
4.0774689505
 21
4.6425092233
  0
LINE
  5
2B3
100
AcDbEntity
  8
02___PRT_ALL_AXES
100
AcDbLine
 62
7
  6
CENTER
 10
4.1758941474
 20
4.5059344202
 11
4.1758941474
 21
4.4059094202
  0
LINE
  5
2B4
100
AcDbEntity
  8
02___PRT_ALL_AXES
100
AcDbLine
 62
7
  6
CENTER
 10
4.1758941474
 20
1.6778094202
 11
4.1758941474
 21
1.1169267929
  0
LINE
  5
2B5
100
AcDbEntity
  8
02___PRT_ALL_AXES
100
AcDbLine
 62
7
  6
CENTER
 10
4.1758941474
 20
4.5059344202
 11
4.1758941474
 21
4.6059594202
  0
LINE
  5
2B6
100
AcDbEntity
  8
02___PRT_ALL_AXES
100
AcDbLine
 62
7
  6
CENTER
 10
4.1758941474
 20
1.6778094202
 11
4.1758941474
 21
4.4059094202
  0
LINE
  5
2B7
100
AcDbEntity
  8
02___PRT_ALL_AXES
100
AcDbLine
 62
7
  6
CENTER
 10
4.1758941474
 20
4.6059594202
 11
4.1758941474
 21
5.4485533363
  0
LINE
  5
2B8
100
AcDbEntity
  8
0
100
AcDbLine
 62
7
  6
CONTINUOUS
 10
4.2743193442
 20
4.6425092233
 11
4.2743193442
 21
4.369359617
  0
LINE
  5
2B9
100
AcDbEntity
  8
0
100
AcDbLine
 62
7
  6
CONTINUOUS
 10
4.2743193442
 20
1.8143842233
 11
4.2743193442
 21
1.541234617
  0
LINE
  5
2BA
100
AcDbEntity
  8
0
100
AcDbLine
 62
7
  6
CONTINUOUS
 10
4.3008941474
 20
1.1493719202
 11
4.3008941474
 21
1.2743719202
  0
LINE
  5
2BB
100
AcDbEntity
  8
0
100
AcDbLine
 62
7
  6
CONTINUOUS
 10
4.3008941474
 20
4.9043719202
 11
4.3008941474
 21
5.0293719202
  0
LINE
  5
2BC
100
AcDbEntity
  8
0
100
AcDbLine
 62
7
  6
CONTINUOUS
 10
8.0508941474
 20
1.2743719202
 11
4.0508941474
 21
1.2743719202
  0
LINE
  5
2BD
100
AcDbEntity
  8
02___PRT_ALL_AXES
100
AcDbLine
 62
7
  6
CENTER
 10
7.9258941474
 20
1.6778094202
 11
7.8258691474
 21
1.6778094202
  0
LINE
  5
2BE
100
AcDbEntity
  8
02___PRT_ALL_AXES
100
AcDbLine
 62
7
  6
CENTER
 10
4.1758941474
 20
1.6778094202
 11
3.5709332889
 21
1.6778094202
  0
LINE
  5
2BF
100
AcDbEntity
  8
02___PRT_ALL_AXES
100
AcDbLine
 62
7
  6
CENTER
 10
4.1758941474
 20
1.6778094202
 11
7.823802986
 21
1.6778094202
  0
LINE
  5
2C0
100
AcDbEntity
  8
02___PRT_ALL_AXES
100
AcDbLine
 62
7
  6
CENTER
 10
7.9258941474
 20
1.6778094202
 11
8.470734223
 21
1.6778094202
  0
LINE
  5
2C1
100
AcDbEntity
  8
02___PRT_ALL_AXES
100
AcDbLine
 62
7
  6
CENTER
 10
6.0508941474
 20
0.7993719202
 11
6.0508941474
 21
5.3793719202
  0
LINE
  5
2C2
100
AcDbEntity
  8
02___PRT_ALL_AXES
100
AcDbLine
 62
7
  6
CENTER
 10
8.4008941474
 20
3.0918719202
 11
3.7008941474
 21
3.0918719202
  0
LINE
  5
2C3
100
AcDbEntity
  8
02___PRT_ALL_AXES
100
AcDbLine
 62
7
  6
CENTER
 10
4.1758941474
 20
4.5059344202
 11
4.0758691474
 21
4.5059344202
  0
LINE
  5
2C4
100
AcDbEntity
  8
02___PRT_ALL_AXES
100
AcDbLine
 62
7
  6
CENTER
 10
7.9258941474
 20
4.5059344202
 11
4.1758941474
 21
4.5059344202
  0
LINE
  5
2C5
100
AcDbEntity
  8
02___PRT_ALL_AXES
100
AcDbLine
 62
7
  6
CENTER
 10
4.0758691474
 20
4.5059344202
 11
3.52171026
 21
4.5059344202
  0
LINE
  5
2C6
100
AcDbEntity
  8
02___PRT_ALL_AXES
100
AcDbLine
 62
7
  6
CENTER
 10
7.9258941474
 20
4.5059344202
 11
8.5002680403
 21
4.5059344202
  0
LINE
  5
2C7
100
AcDbEntity
  8
0
100
AcDbLine
 62
7
  6
CONTINUOUS
 10
7.8008941474
 20
5.0293719202
 11
7.8008941474
 21
4.9043719202
  0
LINE
  5
2C8
100
AcDbEntity
  8
0
100
AcDbLine
 62
7
  6
CONTINUOUS
 10
7.8008941474
 20
1.2743719202
 11
7.8008941474
 21
1.1493719202
  0
LINE
  5
2C9
100
AcDbEntity
  8
0
100
AcDbLine
 62
7
  6
CONTINUOUS
 10
7.8274689505
 20
1.541234617
 11
7.8274689505
 21
1.8143842233
  0
LINE
  5
2CA
100
AcDbEntity
  8
0
100
AcDbLine
 62
7
  6
CONTINUOUS
 10
7.8274689505
 20
4.369359617
 11
7.8274689505
 21
4.6425092233
  0
LINE
  5
2CB
100
AcDbEntity
  8
02___PRT_ALL_AXES
100
AcDbLine
 62
7
  6
CENTER
 10
7.9258941474
 20
4.5059344202
 11
7.9258941474
 21
1.7076031397
  0
LINE
  5
2CC
100
AcDbEntity
  8
02___PRT_ALL_AXES
100
AcDbLine
 62
7
  6
CENTER
 10
7.9258941474
 20
1.6778094202
 11
7.9258941474
 21
1.1520860993
  0
LINE
  5
2CD
100
AcDbEntity
  8
02___PRT_ALL_AXES
100
AcDbLine
 62
7
  6
CENTER
 10
7.9258941474
 20
1.6778094202
 11
7.9258941474
 21
1.7076031397
  0
LINE
  5
2CE
100
AcDbEntity
  8
02___PRT_ALL_AXES
100
AcDbLine
 62
7
  6
CENTER
 10
7.9258941474
 20
4.5059344202
 11
7.9258941474
 21
5.3290116947
  0
LINE
  5
2CF
100
AcDbEntity
  8
0
100
AcDbLine
 62
7
  6
CONTINUOUS
 10
4.0508941474
 20
4.9043719202
 11
8.0508941474
 21
4.9043719202
  0
LINE
  5
2D0
100
AcDbEntity
  8
0
100
AcDbLine
 62
7
  6
CONTINUOUS
 10
8.0243193442
 20
4.6425092233
 11
8.0243193442
 21
4.369359617
  0
LINE
  5
2D1
100
AcDbEntity
  8
0
100
AcDbLine
 62
7
  6
CONTINUOUS
 10
8.0243193442
 20
1.8143842233
 11
8.0243193442
 21
1.541234617
  0
LINE
  5
2D2
100
AcDbEntity
  8
0
100
AcDbLine
 62
7
  6
CONTINUOUS
 10
8.3008941474
 20
4.6543719202
 11
8.3008941474
 21
1.5243719202
  0
LINE
  5
2D3
100
AcDbEntity
  8
0
100
AcDbLine
 62
7
  6
CONTINUOUS
 10
4.5508941474
 20
5.2793719202
 11
7.5508941474
 21
5.2793719202
  0
LINE
  5
2D4
100
AcDbEntity
  8
0
100
AcDbLine
 62
7
  6
CONTINUOUS
 10
17.9401686756
 20
6.6482798023
 11
16.132202408
 21
5.341964788
  0
LINE
  5
2D5
100
AcDbEntity
  8
0
100
AcDbLine
 62
7
  6
CONTINUOUS
 10
16.0106799686
 20
1.8369851965
 11
18.50417893
 21
0.6565758307
  0
LINE
  5
2D6
100
AcDbEntity
  8
0
100
AcDbLine
 62
7
  6
CONTINUOUS
 10
16.0153309136
 20
1.9187267546
 11
16.6665882302
 21
1.6104249474
  0
LINE
  5
2D7
100
AcDbEntity
  8
0
100
AcDbLine
 62
7
  6
CONTINUOUS
 10
17.8615557836
 20
1.0447335581
 11
18.508829875
 21
0.7383173888
  0
LINE
  5
2D8
100
AcDbEntity
  8
0
100
AcDbLine
 62
7
  6
CONTINUOUS
 10
16.0817673622
 20
5.2618844625
 11
16.045408406
 21
4.6228664286
  0
LINE
  5
2D9
100
AcDbEntity
  8
0
100
AcDbLine
 62
7
  6
CONTINUOUS
 10
15.9163984645
 20
2.0417879119
 11
15.9117475195
 21
1.9600463538
  0
LINE
  5
2DA
100
AcDbEntity
  8
0
100
AcDbLine
 62
7
  6
CONTINUOUS
 10
16.1806998112
 20
5.1388233052
 11
16.1443408551
 21
4.4998052713
  0
LINE
  5
2DB
100
AcDbEntity
  8
0
100
AcDbLine
 62
7
  6
CONTINUOUS
 10
16.0153309136
 20
1.9187267546
 11
16.0106799686
 21
1.8369851965
  0
LINE
  5
2DC
100
AcDbEntity
  8
0
100
AcDbLine
 62
7
  6
CONTINUOUS
 10
16.1954438021
 20
2.032798639
 11
16.41304708
 21
1.9297863855
  0
LINE
  5
2DD
100
AcDbEntity
  8
0
100
AcDbLine
 62
7
  6
CONTINUOUS
 10
18.4484555435
 20
0.9662346653
 11
18.6660588213
 21
0.8632224118
  0
LINE
  5
2DE
100
AcDbEntity
  8
0
100
AcDbLine
 62
7
  6
CONTINUOUS
 10
18.7800408335
 20
0.8671970619
 11
18.5624375557
 21
0.9702093155
  0
LINE
  5
2DF
100
AcDbEntity
  8
0
100
AcDbLine
 62
7
  6
CONTINUOUS
 10
16.5270290922
 20
1.9337610356
 11
16.3094258143
 21
2.0367732892
  0
LINE
  5
2E0
100
AcDbEntity
  8
0
100
AcDbLine
 62
7
  6
CONTINUOUS
 10
16.3140767593
 20
2.1185148473
 11
16.3094258143
 21
2.0367732892
  0
LINE
  5
2E1
100
AcDbEntity
  8
0
100
AcDbLine
 62
7
  6
CONTINUOUS
 10
18.7846917785
 20
0.9489386201
 11
18.5670885007
 21
1.0519508736
  0
LINE
  5
2E2
100
AcDbEntity
  8
0
100
AcDbLine
 62
7
  6
CONTINUOUS
 10
16.5316800372
 20
2.0155025938
 11
16.3140767593
 21
2.1185148473
  0
LINE
  5
2E3
100
AcDbEntity
  8
0
100
AcDbLine
 62
7
  6
CONTINUOUS
 10
16.5978596015
 20
3.5485615007
 11
16.562977514
 21
2.9354998148
  0
LINE
  5
2E4
100
AcDbEntity
  8
0
100
AcDbLine
 62
7
  6
CONTINUOUS
 10
16.5316800372
 20
2.0155025938
 11
16.5270290922
 21
1.9337610356
  0
LINE
  5
2E5
100
AcDbEntity
  8
0
100
AcDbLine
 62
7
  6
CONTINUOUS
 10
16.6967920506
 20
3.4255003434
 11
16.6619099631
 21
2.8124386575
  0
LINE
  5
2E6
100
AcDbEntity
  8
0
100
AcDbLine
 62
7
  6
CONTINUOUS
 10
16.6665882302
 20
1.6104249474
 11
16.8465798014
 21
4.7738232466
  0
LINE
  5
2E7
100
AcDbEntity
  8
0
100
AcDbLine
 62
7
  6
CONTINUOUS
 10
19.5585292028
 20
6.7332957681
 11
16.8465798014
 21
4.7738232466
  0
LINE
  5
2E8
100
AcDbEntity
  8
0
100
AcDbLine
 62
7
  6
CONTINUOUS
 10
16.7056056522
 20
2.695338486
 11
16.7277221108
 21
2.6848686702
  0
LINE
  5
2E9
100
AcDbEntity
  8
0
100
AcDbLine
 62
7
  6
CONTINUOUS
 10
18.2530886338
 20
1.9627681368
 11
18.6016208369
 21
1.7977748149
  0
LINE
  5
2EA
100
AcDbEntity
  8
0
100
AcDbLine
 62
7
  6
CONTINUOUS
 10
16.6619099631
 20
2.8124386575
 11
16.733064053
 21
2.7787546836
  0
LINE
  5
2EB
100
AcDbEntity
  8
0
100
AcDbLine
 62
7
  6
CONTINUOUS
 10
18.2093929448
 20
2.0798683083
 11
18.5579251479
 21
1.9148749864
  0
LINE
  5
2EC
100
AcDbEntity
  8
0
100
AcDbLine
 62
7
  6
CONTINUOUS
 10
18.0415473548
 20
4.2081318573
 11
20.7534967562
 21
6.1676043787
  0
LINE
  5
2ED
100
AcDbEntity
  8
0
100
AcDbLine
 62
7
  6
CONTINUOUS
 10
17.8615557836
 20
1.0447335581
 11
18.0415473548
 21
4.2081318573
  0
LINE
  5
2EE
100
AcDbEntity
  8
0
100
AcDbLine
 62
7
  6
CONTINUOUS
 10
18.3256665696
 20
4.1234072613
 11
20.4349605485
 21
5.6474414446
  0
LINE
  5
2EF
100
AcDbEntity
  8
0
100
AcDbLine
 62
7
  6
CONTINUOUS
 10
18.2093929448
 20
2.0798683083
 11
18.3256665696
 21
4.1234072613
  0
LINE
  5
2F0
100
AcDbEntity
  8
0
100
AcDbLine
 62
7
  6
CONTINUOUS
 10
15.9668335103
 20
2.1218682374
 11
16.7269368712
 21
2.6710678826
  0
LINE
  5
2F1
100
AcDbEntity
  8
0
100
AcDbLine
 62
7
  6
CONTINUOUS
 10
18.5579251479
 20
1.9148749864
 11
18.5928072353
 21
2.5279366723
  0
LINE
  5
2F2
100
AcDbEntity
  8
0
100
AcDbLine
 62
7
  6
CONTINUOUS
 10
18.508829875
 20
0.7383173888
 11
18.50417893
 21
0.6565758307
  0
LINE
  5
2F3
100
AcDbEntity
  8
0
100
AcDbLine
 62
7
  6
CONTINUOUS
 10
18.5670885007
 20
1.0519508736
 11
18.5624375557
 21
0.9702093155
  0
LINE
  5
2F4
100
AcDbEntity
  8
0
100
AcDbLine
 62
7
  6
CONTINUOUS
 10
20.708413378
 20
2.5991284332
 11
20.9260166558
 21
2.4961161796
  0
LINE
  5
2F5
100
AcDbEntity
  8
0
100
AcDbLine
 62
7
  6
CONTINUOUS
 10
21.039998668
 20
2.5000908298
 11
20.8223953902
 21
2.6031030833
  0
LINE
  5
2F6
100
AcDbEntity
  8
0
100
AcDbLine
 62
7
  6
CONTINUOUS
 10
21.044649613
 20
2.5818323879
 11
20.8270463352
 21
2.6848446415
  0
LINE
  5
2F7
100
AcDbEntity
  8
0
100
AcDbLine
 62
7
  6
CONTINUOUS
 10
18.7846917785
 20
0.9489386201
 11
18.7800408335
 21
0.8671970619
  0
LINE
  5
2F8
100
AcDbEntity
  8
0
100
AcDbLine
 62
7
  6
CONTINUOUS
 10
18.9077502624
 20
1.9294526727
 11
18.9426323498
 21
2.5425143586
  0
LINE
  5
2F9
100
AcDbEntity
  8
0
100
AcDbLine
 62
7
  6
CONTINUOUS
 10
21.2207792764
 20
2.6977899103
 11
20.573505185
 21
3.0042060795
  0
LINE
  5
2FA
100
AcDbEntity
  8
0
100
AcDbLine
 62
7
  6
CONTINUOUS
 10
16.8465798014
 20
4.7738232466
 11
18.0415473548
 21
4.2081318573
  0
LINE
  5
2FB
100
AcDbEntity
  8
0
100
AcDbLine
 62
7
  6
CONTINUOUS
 10
16.1806998112
 20
5.1388233052
 11
16.8882010112
 21
4.8038959378
  0
LINE
  5
2FC
100
AcDbEntity
  8
0
100
AcDbLine
 62
7
  6
CONTINUOUS
 10
18.3256665696
 20
4.1234072613
 11
19.2716825494
 21
3.6755682447
  0
LINE
  5
2FD
100
AcDbEntity
  8
0
100
AcDbLine
 62
7
  6
CONTINUOUS
 10
18.8586549895
 20
0.7528950751
 11
18.8540040446
 21
0.671153517
  0
LINE
  5
2FE
100
AcDbEntity
  8
0
100
AcDbLine
 62
7
  6
CONTINUOUS
 10
19.2353235933
 20
3.0365502108
 11
19.2716825494
 21
3.6755682447
  0
LINE
  5
2FF
100
AcDbEntity
  8
0
100
AcDbLine
 62
7
  6
CONTINUOUS
 10
19.6215076639
 20
3.690145931
 11
21.4294739315
 21
4.9964609453
  0
LINE
  5
300
100
AcDbEntity
  8
0
100
AcDbLine
 62
7
  6
CONTINUOUS
 10
19.5851487078
 20
3.0511278971
 11
19.6215076639
 21
3.690145931
  0
LINE
  5
301
100
AcDbEntity
  8
0
100
AcDbLine
 62
7
  6
CONTINUOUS
 10
19.5851487078
 20
3.0511278971
 11
21.3931149754
 21
4.3574429114
  0
LINE
  5
302
100
AcDbEntity
  8
0
100
AcDbLine
 62
7
  6
CONTINUOUS
 10
18.9426323498
 20
2.5425143586
 11
19.2505642977
 21
2.7650053055
  0
LINE
  5
303
100
AcDbEntity
  8
0
100
AcDbLine
 62
7
  6
CONTINUOUS
 10
19.4796541958
 20
2.8344118408
 11
21.2876204634
 21
4.1407268551
  0
LINE
  5
304
100
AcDbEntity
  8
0
100
AcDbLine
 62
7
  6
CONTINUOUS
 10
20.71571653
 20
3.235767687
 11
18.9077502624
 21
1.9294526727
  0
LINE
  5
305
100
AcDbEntity
  8
0
100
AcDbLine
 62
7
  6
CONTINUOUS
 10
20.662969274
 20
3.1274096589
 11
18.8550030064
 21
1.8210946446
  0
LINE
  5
306
100
AcDbEntity
  8
0
100
AcDbLine
 62
7
  6
CONTINUOUS
 10
17.8615557836
 20
1.0447335581
 11
20.573505185
 21
3.0042060795
  0
LINE
  5
307
100
AcDbEntity
  8
0
100
AcDbLine
 62
7
  6
CONTINUOUS
 10
20.573505185
 20
3.0042060795
 11
20.5769801622
 21
3.0652797011
  0
LINE
  5
308
100
AcDbEntity
  8
0
100
AcDbLine
 62
7
  6
CONTINUOUS
 10
20.7163218868
 20
5.5142464588
 11
20.7534967562
 21
6.1676043787
  0
LINE
  5
309
100
AcDbEntity
  8
0
100
AcDbLine
 62
7
  6
CONTINUOUS
 10
20.7448951813
 20
3.7485900121
 11
20.71571653
 21
3.235767687
  0
LINE
  5
30A
100
AcDbEntity
  8
0
100
AcDbLine
 62
7
  6
CONTINUOUS
 10
20.7927407736
 20
3.7831600241
 11
20.7661515758
 21
3.3158480125
  0
LINE
  5
30B
100
AcDbEntity
  8
0
100
AcDbLine
 62
7
  6
CONTINUOUS
 10
20.8270463352
 20
2.6848446415
 11
20.8223953902
 21
2.6031030833
  0
LINE
  5
30C
100
AcDbEntity
  8
0
100
AcDbLine
 62
7
  6
CONTINUOUS
 10
21.044649613
 20
2.5818323879
 11
21.039998668
 21
2.5000908298
  0
LINE
  5
30D
100
AcDbEntity
  8
0
100
AcDbLine
 62
7
  6
CONTINUOUS
 10
21.2692766797
 20
2.4946484275
 11
18.8586549895
 21
0.7528950751
  0
LINE
  5
30E
100
AcDbEntity
  8
0
100
AcDbLine
 62
7
  6
CONTINUOUS
 10
21.2692766797
 20
2.4946484275
 11
21.2646257347
 21
2.4129068694
  0
LINE
  5
30F
100
AcDbEntity
  8
0
100
AcDbLine
 62
7
  6
CONTINUOUS
 10
21.4294739315
 20
4.9964609453
 11
21.3931149754
 21
4.3574429114
  0
LINE
  5
310
100
AcDbEntity
  8
0
100
AcDbLine
 62
7
  6
CONTINUOUS
 10
21.3197117255
 20
2.574728753
 11
21.3150607805
 21
2.4929871949
  0
LINE
  5
311
100
AcDbEntity
  8
0
100
AcDbLine
 62
7
  6
CONTINUOUS
 10
21.4799089774
 20
5.0765412708
 11
21.4435500212
 21
4.4375232369
  0
LINE
  5
312
100
AcDbEntity
  8
0
100
AcDbLine
 62
7
  6
CONTINUOUS
 10
18.8540040446
 20
0.671153517
 11
21.2646257347
 21
2.4129068694
  0
LINE
  5
313
100
AcDbEntity
  8
0
100
AcDbLine
 62
7
  6
CONTINUOUS
 10
21.3809765283
 20
5.1996024281
 11
20.4349605485
 21
5.6474414446
  0
LINE
  5
314
100
AcDbEntity
  8
0
100
AcDbLine
 62
7
  6
CONTINUOUS
 10
18.99749499
 20
6.3279301212
 11
18.2899937901
 21
6.6628574886
  0
LINE
  5
315
100
AcDbEntity
  8
0
100
AcDbLine
 62
7
  6
CONTINUOUS
 10
20.7534967562
 20
6.1676043787
 11
19.5585292028
 21
6.7332957681
  0
ARC
  5
316
100
AcDbEntity
  8
0
100
AcDbCircle
 62
7
  6
CONTINUOUS
 10
4.5508941474
 20
8.3317485549
 40
0.25
100
AcDbArc
 50
180.0
 51
270.0
  0
ARC
  5
317
100
AcDbEntity
  8
0
100
AcDbCircle
 62
7
  6
CONTINUOUS
 10
7.5508941474
 20
8.3317485549
 40
0.25
100
AcDbArc
 50
270.0
 51
360.0
  0
ARC
  5
318
100
AcDbEntity
  8
0
100
AcDbCircle
 62
7
  6
CONTINUOUS
 10
15.0875480582
 20
10.0499943915
 40
0.5
100
AcDbArc
 50
284.4775121859
 51
360.0
  0
ARC
  5
319
100
AcDbEntity
  8
0
100
AcDbCircle
 62
7
  6
CONTINUOUS
 10
11.7075480582
 20
10.0499943915
 40
0.5
100
AcDbArc
 50
180.0
 51
255.5224878141
  0
ARC
  5
31A
100
AcDbEntity
  8
0
100
AcDbCircle
 62
7
  6
CONTINUOUS
 10
15.3375480582
 20
9.0817485549
 40
0.5
100
AcDbArc
 50
104.4775121859
 51
180.0
  0
ARC
  5
31B
100
AcDbEntity
  8
0
100
AcDbCircle
 62
7
  6
CONTINUOUS
 10
11.4575480582
 20
9.0817485549
 40
0.5
100
AcDbArc
 50
0.0
 51
75.5224878141
  0
ARC
  5
31C
100
AcDbEntity
  8
0
100
AcDbCircle
 62
7
  6
CONTINUOUS
 10
14.5875480582
 20
8.3317485549
 40
0.25
100
AcDbArc
 50
270.0
 51
360.0
  0
ARC
  5
31D
100
AcDbEntity
  8
0
100
AcDbCircle
 62
7
  6
CONTINUOUS
 10
12.2075480582
 20
8.3317485549
 40
0.25
100
AcDbArc
 50
180.0
 51
270.0
  0
ARC
  5
31E
100
AcDbEntity
  8
0
100
AcDbCircle
 62
7
  6
CONTINUOUS
 10
8.0508941474
 20
12.6112703306
 40
0.25
100
AcDbArc
 50
270.0
 51
360.0
  0
ARC
  5
31F
100
AcDbEntity
  8
0
100
AcDbCircle
 62
7
  6
CONTINUOUS
 10
4.0508941474
 20
12.6112703306
 40
0.25
100
AcDbArc
 50
180.0
 51
270.0
  0
ARC
  5
320
100
AcDbEntity
  8
0
100
AcDbCircle
 62
7
  6
CONTINUOUS
 10
4.0508941474
 20
15.7412703306
 40
0.25
100
AcDbArc
 50
90.0
 51
180.0
  0
ARC
  5
321
100
AcDbEntity
  8
0
100
AcDbCircle
 62
7
  6
CONTINUOUS
 10
8.0508941474
 20
15.7412703306
 40
0.25
100
AcDbArc
 50
0.0
 51
90.0
  0
ARC
  5
322
100
AcDbEntity
  8
0
100
AcDbCircle
 62
7
  6
CONTINUOUS
 10
4.5508941474
 20
12.2362703306
 40
0.25
100
AcDbArc
 50
180.0
 51
270.0
  0
ARC
  5
323
100
AcDbEntity
  8
0
100
AcDbCircle
 62
7
  6
CONTINUOUS
 10
7.5508941474
 20
16.1162703306
 40
0.25
100
AcDbArc
 50
0.0
 51
90.0
  0
ARC
  5
324
100
AcDbEntity
  8
0
100
AcDbCircle
 62
7
  6
CONTINUOUS
 10
7.5508941474
 20
12.2362703306
 40
0.25
100
AcDbArc
 50
270.0
 51
360.0
  0
ARC
  5
325
100
AcDbEntity
  8
0
100
AcDbCircle
 62
7
  6
CONTINUOUS
 10
4.5508941474
 20
16.1162703306
 40
0.25
100
AcDbArc
 50
90.0
 51
180.0
  0
ARC
  5
326
100
AcDbEntity
  8
0
100
AcDbCircle
 62
7
  6
CONTINUOUS
 10
4.1758941474
 20
15.7244076337
 40
0.0984251969
100
AcDbArc
 50
0.0
 51
180.0
  0
ARC
  5
327
100
AcDbEntity
  8
0
100
AcDbCircle
 62
7
  6
CONTINUOUS
 10
4.1758941474
 20
15.4512580274
 40
0.0984251969
100
AcDbArc
 50
180.0
 51
360.0
  0
ARC
  5
328
100
AcDbEntity
  8
0
100
AcDbCircle
 62
7
  6
CONTINUOUS
 10
7.9258941474
 20
15.7244076337
 40
0.0984251969
100
AcDbArc
 50
0.0
 51
180.0
  0
ARC
  5
329
100
AcDbEntity
  8
0
100
AcDbCircle
 62
7
  6
CONTINUOUS
 10
7.9258941474
 20
15.4512580274
 40
0.0984251969
100
AcDbArc
 50
180.0
 51
360.0
  0
ARC
  5
32A
100
AcDbEntity
  8
0
100
AcDbCircle
 62
7
  6
CONTINUOUS
 10
7.9258941474
 20
12.6231330274
 40
0.0984251969
100
AcDbArc
 50
180.0
 51
360.0
  0
ARC
  5
32B
100
AcDbEntity
  8
0
100
AcDbCircle
 62
7
  6
CONTINUOUS
 10
7.9258941474
 20
12.8962826337
 40
0.0984251969
100
AcDbArc
 50
0.0
 51
180.0
  0
ARC
  5
32C
100
AcDbEntity
  8
0
100
AcDbCircle
 62
7
  6
CONTINUOUS
 10
4.1758941474
 20
12.8962826337
 40
0.0984251969
100
AcDbArc
 50
0.0
 51
180.0
  0
ARC
  5
32D
100
AcDbEntity
  8
0
100
AcDbCircle
 62
7
  6
CONTINUOUS
 10
4.1758941474
 20
12.6231330274
 40
0.0984251969
100
AcDbArc
 50
180.0
 51
360.0
  0
ARC
  5
32E
100
AcDbEntity
  8
0
100
AcDbCircle
 62
7
  6
CONTINUOUS
 10
4.0508941474
 20
4.6543719202
 40
0.25
100
AcDbArc
 50
90.0
 51
180.0
  0
ARC
  5
32F
100
AcDbEntity
  8
0
100
AcDbCircle
 62
7
  6
CONTINUOUS
 10
8.0508941474
 20
4.6543719202
 40
0.25
100
AcDbArc
 50
0.0
 51
90.0
  0
ARC
  5
330
100
AcDbEntity
  8
0
100
AcDbCircle
 62
7
  6
CONTINUOUS
 10
8.0508941474
 20
1.5243719202
 40
0.25
100
AcDbArc
 50
270.0
 51
360.0
  0
ARC
  5
331
100
AcDbEntity
  8
0
100
AcDbCircle
 62
7
  6
CONTINUOUS
 10
4.0508941474
 20
1.5243719202
 40
0.25
100
AcDbArc
 50
180.0
 51
270.0
  0
ARC
  5
332
100
AcDbEntity
  8
0
100
AcDbCircle
 62
7
  6
CONTINUOUS
 10
4.5508941474
 20
1.1493719202
 40
0.25
100
AcDbArc
 50
180.0
 51
270.0
  0
ARC
  5
333
100
AcDbEntity
  8
0
100
AcDbCircle
 62
7
  6
CONTINUOUS
 10
7.5508941474
 20
1.1493719202
 40
0.25
100
AcDbArc
 50
270.0
 51
360.0
  0
ARC
  5
334
100
AcDbEntity
  8
0
100
AcDbCircle
 62
7
  6
CONTINUOUS
 10
7.5508941474
 20
5.0293719202
 40
0.25
100
AcDbArc
 50
0.0
 51
90.0
  0
ARC
  5
335
100
AcDbEntity
  8
0
100
AcDbCircle
 62
7
  6
CONTINUOUS
 10
4.5508941474
 20
5.0293719202
 40
0.25
100
AcDbArc
 50
90.0
 51
180.0
  0
ARC
  5
336
100
AcDbEntity
  8
0
100
AcDbCircle
 62
7
  6
CONTINUOUS
 10
4.1758941474
 20
1.8143842233
 40
0.0984251969
100
AcDbArc
 50
0.0
 51
180.0
  0
ARC
  5
337
100
AcDbEntity
  8
0
100
AcDbCircle
 62
7
  6
CONTINUOUS
 10
4.1758941474
 20
1.541234617
 40
0.0984251969
100
AcDbArc
 50
180.0
 51
360.0
  0
ARC
  5
338
100
AcDbEntity
  8
0
100
AcDbCircle
 62
7
  6
CONTINUOUS
 10
7.9258941474
 20
1.541234617
 40
0.0984251969
100
AcDbArc
 50
180.0
 51
360.0
  0
ARC
  5
339
100
AcDbEntity
  8
0
100
AcDbCircle
 62
7
  6
CONTINUOUS
 10
7.9258941474
 20
1.8143842233
 40
0.0984251969
100
AcDbArc
 50
0.0
 51
180.0
  0
ARC
  5
33A
100
AcDbEntity
  8
0
100
AcDbCircle
 62
7
  6
CONTINUOUS
 10
7.9258941474
 20
4.6425092233
 40
0.0984251969
100
AcDbArc
 50
0.0
 51
180.0
  0
ARC
  5
33B
100
AcDbEntity
  8
0
100
AcDbCircle
 62
7
  6
CONTINUOUS
 10
7.9258941474
 20
4.369359617
 40
0.0984251969
100
AcDbArc
 50
180.0
 51
360.0
  0
ARC
  5
33C
100
AcDbEntity
  8
0
100
AcDbCircle
 62
7
  6
CONTINUOUS
 10
4.1758941474
 20
4.369359617
 40
0.0984251969
100
AcDbArc
 50
180.0
 51
360.0
  0
ARC
  5
33D
100
AcDbEntity
  8
0
100
AcDbCircle
 62
7
  6
CONTINUOUS
 10
4.1758941474
 20
4.6425092233
 40
0.0984251969
100
AcDbArc
 50
0.0
 51
180.0
  0
ARC
  5
33E
100
AcDbEntity
  8
0
100
AcDbCircle
 62
7
  6
CONTINUOUS
 10
16.8125738187
 20
2.9212982421
 40
0.25
100
AcDbArc
 50
176.7373216327
 51
244.6663978436
  0
ARC
  5
33F
100
AcDbEntity
  8
0
100
AcDbCircle
 62
7
  6
CONTINUOUS
 10
18.7085890035
 20
2.0237345709
 40
0.25
100
AcDbArc
 50
244.6617946521
 51
305.8530419268
  0
ARC
  5
340
100
AcDbEntity
  8
0
100
AcDbCircle
 62
7
  6
CONTINUOUS
 10
20.5165552711
 20
3.3300495852
 40
0.25
100
AcDbArc
 50
305.8493477477
 51
356.749707456
  0
ARC
  5
341
100
AcDbEntity
  8
0
100
AcDbCircle
 62
7
  6
CONTINUOUS
 10
20.597702023
 20
3.2177462398
 40
0.1114473644
100
AcDbArc
 50
305.8477241962
 51
308.1204766161
  0
ARC
  5
342
100
AcDbEntity
  8
0
100
AcDbCircle
 62
7
  6
CONTINUOUS
 10
21.3610948557
 20
4.4422327923
 40
0.0825880644
100
AcDbArc
 50
354.5501880602
 51
356.7310137215
  0
ARC
  5
343
100
AcDbEntity
  8
0
100
AcDbCircle
 62
7
  6
CONTINUOUS
 10
20.6837132073
 20
3.3205566655
 40
0.0825712851
100
AcDbArc
 50
354.7214149817
 51
356.7309742819
  0
SPLINE
  5
344
100
AcDbEntity
  8
0
100
AcDbSpline
 62
7
  6
CONTINUOUS
 70
0
 71
3
 72
20
 73
16
 74
0
 42
0.0000001
 43
0.0000001
 44
0.0000000001
 40
0.0
 40
0.0
 40
0.0
 40
0.0
 40
0.0514458033
 40
0.1057475751
 40
0.1627165595
 40
0.2221433237
 40
0.2837892649
 40
0.3473522459
 40
0.4786816432
 40
0.6129905651
 40
0.7468314833
 40
0.8125360902
 40
0.8768993546
 40
0.9395302474
 40
1.0
 40
1.0
 40
1.0
 40
1.0
 10
18.8540040446
 20
0.671153517
 30
0.0
 10
18.8489408399
 20
0.6674951854
 30
0.0
 10
18.8381330108
 20
0.6605191914
 30
0.0
 10
18.8206126971
 20
0.6513389671
 30
0.0
 10
18.8015036139
 20
0.6432565615
 30
0.0
 10
18.7809996831
 20
0.6363488478
 30
0.0
 10
18.7592922093
 20
0.6306784204
 30
0.0
 10
18.7286897014
 20
0.6247751308
 30
0.0
 10
18.6888062677
 20
0.6208603622
 30
0.0
 10
18.6402130118
 20
0.6216323023
 30
0.0
 10
18.5999088017
 20
0.6267927491
 30
0.0
 10
18.5685854235
 20
0.6336227826
 30
0.0
 10
18.5460516207
 20
0.6399795173
 30
0.0
 10
18.5245658487
 20
0.6475385168
 30
0.0
 10
18.510815135
 20
0.6534342859
 30
0.0
 10
18.50417893
 20
0.6565758307
 30
0.0
  0
SPLINE
  5
345
100
AcDbEntity
  8
0
100
AcDbSpline
 62
7
  6
CONTINUOUS
 70
0
 71
3
 72
9
 73
5
 74
0
 42
0.0000001
 43
0.0000001
 44
0.0000000001
 40
0.0
 40
0.0
 40
0.0
 40
0.0
 40
0.2442526964
 40
1.0
 40
1.0
 40
1.0
 40
1.0
 10
18.7907056444
 20
0.8614070662
 30
0.0
 10
18.7898661591
 20
0.861928639
 30
0.0
 10
18.7863967597
 20
0.864011543
 30
0.0
 10
18.7828047527
 20
0.865888637
 30
0.0
 10
18.7800408335
 20
0.8671970619
 30
0.0
  0
SPLINE
  5
346
100
AcDbEntity
  8
0
100
AcDbSpline
 62
7
  6
CONTINUOUS
 70
0
 71
3
 72
15
 73
11
 74
0
 42
0.0000001
 43
0.0000001
 44
0.0000000001
 40
0.0
 40
0.0
 40
0.0
 40
0.0
 40
0.1029328968
 40
0.2087695507
 40
0.3199832984
 40
0.4384652278
 40
0.5654498333
 40
0.7015723214
 40
0.8467269102
 40
1.0
 40
1.0
 40
1.0
 40
1.0
 10
18.409506934
 20
1.0146838653
 30
0.0
 10
18.4093781784
 20
1.0124301272
 30
0.0
 10
18.4095998914
 20
1.0078176396
 30
0.0
 10
18.4113714014
 20
1.00098291
 30
0.0
 10
18.4145225545
 20
0.9942902448
 30
0.0
 10
18.4190039987
 20
0.9878404733
 30
0.0
 10
18.424737748
 20
0.9817101021
 30
0.0
 10
18.4316453999
 20
0.9759807097
 30
0.0
 10
18.4396191789
 20
0.9707319309
 30
0.0
 10
18.4454173612
 20
0.9676729249
 30
0.0
 10
18.4484555435
 20
0.9662346653
 30
0.0
  0
SPLINE
  5
347
100
AcDbEntity
  8
0
100
AcDbSpline
 62
7
  6
CONTINUOUS
 70
0
 71
3
 72
15
 73
11
 74
0
 42
0.0000001
 43
0.0000001
 44
0.0000000001
 40
0.0
 40
0.0
 40
0.0
 40
0.0
 40
0.1029328968
 40
0.2087695507
 40
0.3199832984
 40
0.4384652278
 40
0.5654498333
 40
0.7015723214
 40
0.8467269102
 40
1.0
 40
1.0
 40
1.0
 40
1.0
 10
20.6694647685
 20
2.6475776332
 30
0.0
 10
20.6693360129
 20
2.6453238951
 30
0.0
 10
20.6695577259
 20
2.6407114074
 30
0.0
 10
20.6713292358
 20
2.6338766779
 30
0.0
 10
20.674480389
 20
2.6271840127
 30
0.0
 10
20.6789618332
 20
2.6207342412
 30
0.0
 10
20.6846955825
 20
2.61460387
 30
0.0
 10
20.6916032344
 20
2.6088744775
 30
0.0
 10
20.6995770133
 20
2.6036256988
 30
0.0
 10
20.7053751957
 20
2.6005666928
 30
0.0
 10
20.708413378
 20
2.5991284332
 30
0.0
  0
SPLINE
  5
348
100
AcDbEntity
  8
0
100
AcDbSpline
 62
7
  6
CONTINUOUS
 70
0
 71
3
 72
16
 73
12
 74
0
 42
0.0000001
 43
0.0000001
 44
0.0000000001
 40
0.0
 40
0.0
 40
0.0
 40
0.0
 40
0.1533775309
 40
0.2984626131
 40
0.4344657382
 40
0.5614224668
 40
0.679919782
 40
0.7911347286
 40
0.8969427215
 40
0.9486557607
 40
1.0
 40
1.0
 40
1.0
 40
1.0
 10
16.0106799686
 20
1.8369851965
 30
0.0
 10
16.0029565862
 20
1.8406414053
 30
0.0
 10
15.9882234179
 20
1.8484096638
 30
0.0
 10
15.9679715462
 20
1.861742674
 30
0.0
 10
15.9504380733
 20
1.8762955499
 30
0.0
 10
15.9358742101
 20
1.8918607227
 30
0.0
 10
15.9244940793
 20
1.9082484014
 30
0.0
 10
15.9164758177
 20
1.9252390953
 30
0.0
 10
15.9127096834
 20
1.9398398738
 30
0.0
 10
15.9115577582
 20
1.9514361276
 30
0.0
 10
15.9115859158
 20
1.9571903893
 30
0.0
 10
15.9117490053
 20
1.9600462658
 30
0.0
  0
SPLINE
  5
349
100
AcDbEntity
  8
0
100
AcDbSpline
 62
7
  6
CONTINUOUS
 70
0
 71
3
 72
9
 73
5
 74
0
 42
0.0000001
 43
0.0000001
 44
0.0000000001
 40
0.0
 40
0.0
 40
0.0
 40
0.0
 40
0.2442526964
 40
1.0
 40
1.0
 40
1.0
 40
1.0
 10
21.0506634789
 20
2.494300834
 30
0.0
 10
21.0498239936
 20
2.4948224069
 30
0.0
 10
21.0463545942
 20
2.4969053109
 30
0.0
 10
21.0427625872
 20
2.4987824049
 30
0.0
 10
21.039998668
 20
2.5000908298
 30
0.0
  0
SPLINE
  5
34A
100
AcDbEntity
  8
0
100
AcDbSpline
 62
7
  6
CONTINUOUS
 70
0
 71
3
 72
14
 73
10
 74
0
 42
0.0000001
 43
0.0000001
 44
0.0000000001
 40
0.0
 40
0.0
 40
0.0
 40
0.0
 40
0.1166089616
 40
0.2385039907
 40
0.3641737249
 40
0.4922348032
 40
0.6213264152
 40
0.7499991297
 40
1.0
 40
1.0
 40
1.0
 40
1.0
 10
16.3094258143
 20
2.0367732892
 30
0.0
 10
16.3059224976
 20
2.038431741
 30
0.0
 10
16.2985847986
 20
2.0414679734
 30
0.0
 10
16.2870288182
 20
2.0451161497
 30
0.0
 10
16.274842057
 20
2.0478932648
 30
0.0
 10
16.2622424124
 20
2.0497566703
 30
0.0
 10
16.2494369235
 20
2.0506723565
 30
0.0
 10
16.2325503271
 20
2.0506167244
 30
0.0
 10
16.2199774765
 20
2.0491528155
 30
0.0
 10
16.2118368096
 20
2.0474840876
 30
0.0
  0
SPLINE
  5
34B
100
AcDbEntity
  8
0
100
AcDbSpline
 62
7
  6
CONTINUOUS
 70
0
 71
3
 72
9
 73
5
 74
0
 42
0.0000001
 43
0.0000001
 44
0.0000000001
 40
0.0
 40
0.0
 40
0.0
 40
0.0
 40
0.5160917609
 40
1.0
 40
1.0
 40
1.0
 40
1.0
 10
16.2118368096
 20
2.0474840876
 30
0.0
 10
16.2070349047
 20
2.0464997613
 30
0.0
 10
16.1978205948
 20
2.0441111834
 30
0.0
 10
16.1889430403
 20
2.0406523579
 30
0.0
 10
16.184788614
 20
2.0386864757
 30
0.0
  0
SPLINE
  5
34C
100
AcDbEntity
  8
0
100
AcDbSpline
 62
7
  6
CONTINUOUS
 70
0
 71
3
 72
14
 73
10
 74
0
 42
0.0000001
 43
0.0000001
 44
0.0000000001
 40
0.0
 40
0.0
 40
0.0
 40
0.0
 40
0.1166089616
 40
0.2385039907
 40
0.3641737249
 40
0.4922348032
 40
0.6213264152
 40
0.7499991297
 40
1.0
 40
1.0
 40
1.0
 40
1.0
 10
20.8223953902
 20
2.6031030833
 30
0.0
 10
20.8188920734
 20
2.6047615352
 30
0.0
 10
20.8115543744
 20
2.6077977676
 30
0.0
 10
20.7999983941
 20
2.6114459438
 30
0.0
 10
20.7878116328
 20
2.6142230589
 30
0.0
 10
20.7752119882
 20
2.6160864644
 30
0.0
 10
20.7624064993
 20
2.6170021506
 30
0.0
 10
20.7455199029
 20
2.6169465186
 30
0.0
 10
20.7329470523
 20
2.6154826096
 30
0.0
 10
20.7248063854
 20
2.6138138818
 30
0.0
  0
SPLINE
  5
34D
100
AcDbEntity
  8
0
100
AcDbSpline
 62
7
  6
CONTINUOUS
 70
0
 71
3
 72
9
 73
5
 74
0
 42
0.0000001
 43
0.0000001
 44
0.0000000001
 40
0.0
 40
0.0
 40
0.0
 40
0.0
 40
0.5160917609
 40
1.0
 40
1.0
 40
1.0
 40
1.0
 10
20.7248063854
 20
2.6138138818
 30
0.0
 10
20.7200044805
 20
2.6128295555
 30
0.0
 10
20.7107901706
 20
2.6104409775
 30
0.0
 10
20.7019126161
 20
2.606982152
 30
0.0
 10
20.6977581898
 20
2.6050162699
 30
0.0
  0
SPLINE
  5
34E
100
AcDbEntity
  8
0
100
AcDbSpline
 62
7
  6
CONTINUOUS
 70
0
 71
3
 72
14
 73
10
 74
0
 42
0.0000001
 43
0.0000001
 44
0.0000000001
 40
0.0
 40
0.0
 40
0.0
 40
0.0
 40
0.1166089616
 40
0.2385039907
 40
0.3641737249
 40
0.4922348032
 40
0.6213264152
 40
0.7499991297
 40
1.0
 40
1.0
 40
1.0
 40
1.0
 10
18.5624375557
 20
0.9702093155
 30
0.0
 10
18.5589342389
 20
0.9718677673
 30
0.0
 10
18.5515965399
 20
0.9749039997
 30
0.0
 10
18.5400405596
 20
0.978552176
 30
0.0
 10
18.5278537983
 20
0.9813292911
 30
0.0
 10
18.5152541537
 20
0.9831926966
 30
0.0
 10
18.5024486648
 20
0.9841083827
 30
0.0
 10
18.4855620685
 20
0.9840527507
 30
0.0
 10
18.4729892179
 20
0.9825888418
 30
0.0
 10
18.464848551
 20
0.9809201139
 30
0.0
  0
SPLINE
  5
34F
100
AcDbEntity
  8
0
100
AcDbSpline
 62
7
  6
CONTINUOUS
 70
0
 71
3
 72
9
 73
5
 74
0
 42
0.0000001
 43
0.0000001
 44
0.0000000001
 40
0.0
 40
0.0
 40
0.0
 40
0.0
 40
0.5160917609
 40
1.0
 40
1.0
 40
1.0
 40
1.0
 10
18.464848551
 20
0.9809201139
 30
0.0
 10
18.460046646
 20
0.9799357876
 30
0.0
 10
18.4508323361
 20
0.9775472097
 30
0.0
 10
18.4419547816
 20
0.9740883842
 30
0.0
 10
18.4378003553
 20
0.972122502
 30
0.0
  0
SPLINE
  5
350
100
AcDbEntity
  8
0
100
AcDbSpline
 62
7
  6
CONTINUOUS
 70
0
 71
3
 72
9
 73
5
 74
0
 42
0.0000001
 43
0.0000001
 44
0.0000000001
 40
0.0
 40
0.0
 40
0.0
 40
0.0
 40
0.2442526964
 40
1.0
 40
1.0
 40
1.0
 40
1.0
 10
16.5376939031
 20
1.9279710399
 30
0.0
 10
16.5368544178
 20
1.9284926127
 30
0.0
 10
16.5333850184
 20
1.9305755167
 30
0.0
 10
16.5297930114
 20
1.9324526107
 30
0.0
 10
16.5270290922
 20
1.9337610356
 30
0.0
  0
SPLINE
  5
351
100
AcDbEntity
  8
0
100
AcDbSpline
 62
7
  6
CONTINUOUS
 70
0
 71
3
 72
15
 73
11
 74
0
 42
0.0000001
 43
0.0000001
 44
0.0000000001
 40
0.0
 40
0.0
 40
0.0
 40
0.0
 40
0.1029328968
 40
0.2087695507
 40
0.3199832984
 40
0.4384652278
 40
0.5654498333
 40
0.7015723214
 40
0.8467269102
 40
1.0
 40
1.0
 40
1.0
 40
1.0
 10
16.1564951927
 20
2.081247839
 30
0.0
 10
16.156366437
 20
2.0789941009
 30
0.0
 10
16.1565881501
 20
2.0743816133
 30
0.0
 10
16.15835966
 20
2.0675468837
 30
0.0
 10
16.1615108132
 20
2.0608542185
 30
0.0
 10
16.1659922574
 20
2.054404447
 30
0.0
 10
16.1717260067
 20
2.0482740758
 30
0.0
 10
16.1786336586
 20
2.0425446834
 30
0.0
 10
16.1866074375
 20
2.0372959046
 30
0.0
 10
16.1924056199
 20
2.0342368986
 30
0.0
 10
16.1954438021
 20
2.032798639
 30
0.0
  0
SPLINE
  5
352
100
AcDbEntity
  8
0
100
AcDbSpline
 62
7
  6
CONTINUOUS
 70
0
 71
3
 72
15
 73
11
 74
0
 42
0.0000001
 43
0.0000001
 44
0.0000000001
 40
0.0
 40
0.0
 40
0.0
 40
0.0
 40
0.1426756779
 40
0.2793074768
 40
0.4100636143
 40
0.5353489135
 40
0.6559334657
 40
0.7727889564
 40
0.8870573919
 40
1.0
 40
1.0
 40
1.0
 40
1.0
 10
15.9668335103
 20
2.1218682374
 30
0.0
 10
15.9630623801
 20
2.119143472
 30
0.0
 10
15.9558849807
 20
2.1135163605
 30
0.0
 10
15.9461040534
 20
2.104372688
 30
0.0
 10
15.9376071739
 20
2.0947648252
 30
0.0
 10
15.93046222
 20
2.0847459697
 30
0.0
 10
15.9247100724
 20
2.0743800273
 30
0.0
 10
15.9203879653
 20
2.0637239323
 30
0.0
 10
15.917531014
 20
2.0528426184
 30
0.0
 10
15.9166099283
 20
2.045464771
 30
0.0
 10
15.9163999503
 20
2.0417878239
 30
0.0
  0
SPLINE
  5
353
100
AcDbEntity
  8
0
100
AcDbSpline
 62
7
  6
CONTINUOUS
 70
0
 71
3
 72
23
 73
19
 74
0
 42
0.0000001
 43
0.0000001
 44
0.0000000001
 40
0.0
 40
0.0
 40
0.0
 40
0.0
 40
0.0667739325
 40
0.1366637494
 40
0.2087320043
 40
0.2821232809
 40
0.3559841551
 40
0.4294005751
 40
0.5014484817
 40
0.5712832148
 40
0.6381362364
 40
0.7013875745
 40
0.7605758208
 40
0.8154923676
 40
0.8662198485
 40
0.9132226623
 40
0.9573856733
 40
1.0
 40
1.0
 40
1.0
 40
1.0
 10
16.41304708
 20
1.9297863855
 30
0.0
 10
16.416706062
 20
1.9280542425
 30
0.0
 10
16.4243827248
 20
1.9248972389
 30
0.0
 10
16.4364854778
 20
1.9211501436
 30
0.0
 10
16.4492544337
 20
1.9183566681
 30
0.0
 10
16.4624431359
 20
1.9165609497
 30
0.0
 10
16.4758135333
 20
1.9158015061
 30
0.0
 10
16.4891213003
 20
1.9160822834
 30
0.0
 10
16.5021213373
 20
1.91740829
 30
0.0
 10
16.5145743834
 20
1.9197480464
 30
0.0
 10
16.5262523658
 20
1.9230648173
 30
0.0
 10
16.5369437137
 20
1.9272945219
 30
0.0
 10
16.5464542729
 20
1.9323670654
 30
0.0
 10
16.554611997
 20
1.9381957961
 30
0.0
 10
16.5612668667
 20
1.9446870827
 30
0.0
 10
16.5662828848
 20
1.9517427249
 30
0.0
 10
16.5695439358
 20
1.9592377982
 30
0.0
 10
16.5704812889
 20
1.9644740437
 30
0.0
 10
16.5706286467
 20
1.9670533938
 30
0.0
  0
SPLINE
  5
354
100
AcDbEntity
  8
0
100
AcDbSpline
 62
7
  6
CONTINUOUS
 70
0
 71
3
 72
23
 73
19
 74
0
 42
0.0000001
 43
0.0000001
 44
0.0000000001
 40
0.0
 40
0.0
 40
0.0
 40
0.0
 40
0.0667739325
 40
0.1366637494
 40
0.2087320043
 40
0.2821232809
 40
0.3559841551
 40
0.4294005751
 40
0.5014484817
 40
0.5712832148
 40
0.6381362364
 40
0.7013875745
 40
0.7605758208
 40
0.8154923676
 40
0.8662198485
 40
0.9132226623
 40
0.9573856733
 40
1.0
 40
1.0
 40
1.0
 40
1.0
 10
20.9260166558
 20
2.4961161796
 30
0.0
 10
20.9296756378
 20
2.4943840367
 30
0.0
 10
20.9373523006
 20
2.491227033
 30
0.0
 10
20.9494550537
 20
2.4874799377
 30
0.0
 10
20.9622240095
 20
2.4846864623
 30
0.0
 10
20.9754127117
 20
2.4828907439
 30
0.0
 10
20.9887831091
 20
2.4821313002
 30
0.0
 10
21.0020908761
 20
2.4824120776
 30
0.0
 10
21.0150909131
 20
2.4837380842
 30
0.0
 10
21.0275439592
 20
2.4860778406
 30
0.0
 10
21.0392219416
 20
2.4893946114
 30
0.0
 10
21.0499132895
 20
2.4936243161
 30
0.0
 10
21.0594238487
 20
2.4986968596
 30
0.0
 10
21.0675815728
 20
2.5045255902
 30
0.0
 10
21.0742364425
 20
2.5110168769
 30
0.0
 10
21.0792524606
 20
2.5180725191
 30
0.0
 10
21.0825135117
 20
2.5255675924
 30
0.0
 10
21.0834508647
 20
2.5308038379
 30
0.0
 10
21.0835982225
 20
2.533383188
 30
0.0
  0
SPLINE
  5
355
100
AcDbEntity
  8
0
100
AcDbSpline
 62
7
  6
CONTINUOUS
 70
0
 71
3
 72
23
 73
19
 74
0
 42
0.0000001
 43
0.0000001
 44
0.0000000001
 40
0.0
 40
0.0
 40
0.0
 40
0.0
 40
0.0667739325
 40
0.1366637494
 40
0.2087320043
 40
0.2821232809
 40
0.3559841551
 40
0.4294005751
 40
0.5014484817
 40
0.5712832148
 40
0.6381362364
 40
0.7013875745
 40
0.7605758208
 40
0.8154923676
 40
0.8662198485
 40
0.9132226623
 40
0.9573856733
 40
1.0
 40
1.0
 40
1.0
 40
1.0
 10
18.6660588213
 20
0.8632224118
 30
0.0
 10
18.6697178034
 20
0.8614902688
 30
0.0
 10
18.6773944662
 20
0.8583332652
 30
0.0
 10
18.6894972192
 20
0.8545861699
 30
0.0
 10
18.702266175
 20
0.8517926944
 30
0.0
 10
18.7154548772
 20
0.849996976
 30
0.0
 10
18.7288252746
 20
0.8492375324
 30
0.0
 10
18.7421330416
 20
0.8495183097
 30
0.0
 10
18.7551330786
 20
0.8508443163
 30
0.0
 10
18.7675861247
 20
0.8531840727
 30
0.0
 10
18.7792641071
 20
0.8565008436
 30
0.0
 10
18.789955455
 20
0.8607305482
 30
0.0
 10
18.7994660142
 20
0.8658030917
 30
0.0
 10
18.8076237383
 20
0.8716318224
 30
0.0
 10
18.8142786081
 20
0.878123109
 30
0.0
 10
18.8192946262
 20
0.8851787512
 30
0.0
 10
18.8225556772
 20
0.8926738245
 30
0.0
 10
18.8234930302
 20
0.89791007
 30
0.0
 10
18.823640388
 20
0.9004894201
 30
0.0
  0
SPLINE
  5
356
100
AcDbEntity
  8
0
100
AcDbSpline
 62
7
  6
CONTINUOUS
 70
0
 71
3
 72
23
 73
19
 74
0
 42
0.0000001
 43
0.0000001
 44
0.0000000001
 40
0.0
 40
0.0
 40
0.0
 40
0.0
 40
0.0636103953
 40
0.1290875668
 40
0.1959464984
 40
0.2637686913
 40
0.3321474061
 40
0.4006636965
 40
0.4688957206
 40
0.536424292
 40
0.6028301433
 40
0.6676849385
 40
0.7305587654
 40
0.7910199893
 40
0.8486338556
 40
0.9029402366
 40
0.9534981369
 40
1.0
 40
1.0
 40
1.0
 40
1.0
 10
16.2831654627
 20
4.140052668
 30
0.0
 10
16.2949358463
 20
4.1312292888
 30
0.0
 10
16.3182682576
 20
4.1125738899
 30
0.0
 10
16.351968114
 20
4.0822452425
 30
0.0
 10
16.384566379
 20
4.0493479451
 30
0.0
 10
16.4157346671
 20
4.0141924057
 30
0.0
 10
16.4451611526
 20
3.977076367
 30
0.0
 10
16.472585985
 20
3.9383416869
 30
0.0
 10
16.4977457234
 20
3.8983307263
 30
0.0
 10
16.5204364074
 20
3.8574263726
 30
0.0
 10
16.5404516622
 20
3.8160135901
 30
0.0
 10
16.5576533683
 20
3.7745171687
 30
0.0
 10
16.5718998794
 20
3.7333667783
 30
0.0
 10
16.5831369424
 20
3.6930287793
 30
0.0
 10
16.5913076003
 20
3.6539807871
 30
0.0
 10
16.596488381
 20
3.6167331783
 30
0.0
 10
16.5987559412
 20
3.581771122
 30
0.0
 10
16.598470489
 20
3.5592980064
 30
0.0
 10
16.5978596015
 20
3.5485615007
 30
0.0
  0
SPLINE
  5
357
100
AcDbEntity
  8
0
100
AcDbSpline
 62
7
  6
CONTINUOUS
 70
0
 71
3
 72
15
 73
11
 74
0
 42
0.0000001
 43
0.0000001
 44
0.0000000001
 40
0.0
 40
0.0
 40
0.0
 40
0.0
 40
0.1426756779
 40
0.2793074768
 40
0.4100636143
 40
0.5353489135
 40
0.6559334657
 40
0.7727889564
 40
0.8870573919
 40
1.0
 40
1.0
 40
1.0
 40
1.0
 10
16.132202408
 20
5.341964788
 30
0.0
 10
16.1284312778
 20
5.3392400225
 30
0.0
 10
16.1212538784
 20
5.333612911
 30
0.0
 10
16.1114729511
 20
5.3244692386
 30
0.0
 10
16.1029760716
 20
5.3148613758
 30
0.0
 10
16.0958311177
 20
5.3048425203
 30
0.0
 10
16.0900789701
 20
5.2944765779
 30
0.0
 10
16.085756863
 20
5.2838204828
 30
0.0
 10
16.0828999117
 20
5.2729391689
 30
0.0
 10
16.081978826
 20
5.2655613216
 30
0.0
 10
16.081768848
 20
5.2618843745
 30
0.0
  0
SPLINE
  5
358
100
AcDbEntity
  8
0
100
AcDbSpline
 62
7
  6
CONTINUOUS
 70
0
 71
3
 72
20
 73
16
 74
0
 42
0.0000001
 43
0.0000001
 44
0.0000000001
 40
0.0
 40
0.0
 40
0.0
 40
0.0
 40
0.0604697526
 40
0.1231006454
 40
0.1874639098
 40
0.2531685167
 40
0.3870094349
 40
0.5213183568
 40
0.6526477541
 40
0.7162107351
 40
0.7778566763
 40
0.8372834405
 40
0.8942524249
 40
0.9485541967
 40
1.0
 40
1.0
 40
1.0
 40
1.0
 10
18.2899937901
 20
6.6628574886
 30
0.0
 10
18.2833575851
 20
6.6659990333
 30
0.0
 10
18.2696068714
 20
6.6718948025
 30
0.0
 10
18.2481210995
 20
6.6794538019
 30
0.0
 10
18.2255872966
 20
6.6858105366
 30
0.0
 10
18.1942639184
 20
6.6926405701
 30
0.0
 10
18.1539597083
 20
6.6978010169
 30
0.0
 10
18.1053664524
 20
6.6985729571
 30
0.0
 10
18.0654830187
 20
6.6946581885
 30
0.0
 10
18.0348805108
 20
6.6887548989
 30
0.0
 10
18.013173037
 20
6.6830844714
 30
0.0
 10
17.9926691062
 20
6.6761767577
 30
0.0
 10
17.973560023
 20
6.6680943522
 30
0.0
 10
17.9560397093
 20
6.6589141279
 30
0.0
 10
17.9452318802
 20
6.6519381339
 30
0.0
 10
17.9401686756
 20
6.6482798023
 30
0.0
  0
SPLINE
  5
359
100
AcDbEntity
  8
0
100
AcDbSpline
 62
7
  6
CONTINUOUS
 70
0
 71
3
 72
16
 73
12
 74
0
 42
0.0000001
 43
0.0000001
 44
0.0000000001
 40
0.0
 40
0.0
 40
0.0
 40
0.0
 40
0.1215310528
 40
0.2444027404
 40
0.3687260806
 40
0.4944181506
 40
0.6210495679
 40
0.6845374745
 40
0.7480070114
 40
0.8745479089
 40
1.0
 40
1.0
 40
1.0
 40
1.0
 10
16.045408406
 20
4.6228664286
 30
0.0
 10
16.0441218006
 20
4.6002540057
 30
0.0
 10
16.0449394236
 20
4.5545271976
 30
0.0
 10
16.0556367479
 20
4.4864549553
 30
0.0
 10
16.075196225
 20
4.419580168
 30
0.0
 10
16.102952801
 20
4.354934498
 30
0.0
 10
16.1323569531
 20
4.3037882761
 30
0.0
 10
16.1593244954
 20
4.2649517949
 30
0.0
 10
16.1884469786
 20
4.2277236117
 30
0.0
 10
16.2285844117
 20
4.1845840822
 30
0.0
 10
16.2644583114
 20
4.1540760251
 30
0.0
 10
16.2831654627
 20
4.140052668
 30
0.0
  0
SPLINE
  5
35A
100
AcDbEntity
  8
0
100
AcDbSpline
 62
7
  6
CONTINUOUS
 70
0
 71
3
 72
18
 73
14
 74
0
 42
0.0000001
 43
0.0000001
 44
0.0000000001
 40
0.0
 40
0.0
 40
0.0
 40
0.0
 40
0.1256804027
 40
0.2508161929
 40
0.3757388113
 40
0.5005473367
 40
0.5629665758
 40
0.6253851843
 40
0.7501804586
 40
0.8126252915
 40
0.8750792737
 40
0.9375376162
 40
1.0
 40
1.0
 40
1.0
 40
1.0
 10
21.4435500212
 20
4.4375232369
 30
0.0
 10
21.4427250521
 20
4.4230241919
 30
0.0
 10
21.4396911426
 20
4.3941464688
 30
0.0
 10
21.4308270296
 20
4.3515682154
 30
0.0
 10
21.4175693114
 20
4.31024527
 30
0.0
 10
21.4028540332
 20
4.2772258683
 30
0.0
 10
21.3889097761
 20
4.2519569706
 30
0.0
 10
21.3735508367
 20
4.227526308
 30
0.0
 10
21.3560922439
 20
4.204461644
 30
0.0
 10
21.336697528
 20
4.183082938
 30
0.0
 10
21.3212200088
 20
4.1679261712
 30
0.0
 10
21.3048683181
 20
4.153716092
 30
0.0
 10
21.2934155295
 20
4.1449130849
 30
0.0
 10
21.2875638251
 20
4.1406880204
 30
0.0
  0
SPLINE
  5
35B
100
AcDbEntity
  8
0
100
AcDbSpline
 62
7
  6
CONTINUOUS
 70
0
 71
3
 72
16
 73
12
 74
0
 42
0.0000001
 43
0.0000001
 44
0.0000000001
 40
0.0
 40
0.0
 40
0.0
 40
0.0
 40
0.0513442393
 40
0.1030572785
 40
0.2088652714
 40
0.320080218
 40
0.4385775332
 40
0.5655342618
 40
0.7015373869
 40
0.8466224691
 40
1.0
 40
1.0
 40
1.0
 40
1.0
 10
21.4799074915
 20
5.0765413587
 30
0.0
 10
21.480070581
 20
5.0793972353
 30
0.0
 10
21.4800987386
 20
5.0851514969
 30
0.0
 10
21.4789468134
 20
5.0967477507
 30
0.0
 10
21.4751806791
 20
5.1113485293
 30
0.0
 10
21.4671624175
 20
5.1283392232
 30
0.0
 10
21.4557822867
 20
5.1447269019
 30
0.0
 10
21.4412184235
 20
5.1602920746
 30
0.0
 10
21.4236849507
 20
5.1748449506
 30
0.0
 10
21.4034330789
 20
5.1881779608
 30
0.0
 10
21.3886999106
 20
5.1959462192
 30
0.0
 10
21.3809765283
 20
5.1996024281
 30
0.0
  0
SPLINE
  5
35C
100
AcDbEntity
  8
0
100
AcDbSpline
 62
7
  6
CONTINUOUS
 70
0
 71
3
 72
16
 73
12
 74
0
 42
0.0000001
 43
0.0000001
 44
0.0000000001
 40
0.0
 40
0.0
 40
0.0
 40
0.0
 40
0.075579408
 40
0.1587931694
 40
0.2526325285
 40
0.3609589961
 40
0.4220134243
 40
0.4882777341
 40
0.6366780322
 40
0.8068304508
 40
1.0
 40
1.0
 40
1.0
 40
1.0
 10
19.0481268619
 20
2.7592304149
 30
0.0
 10
19.0508054137
 20
2.7611657566
 30
0.0
 10
19.0566753084
 20
2.7649080657
 30
0.0
 10
19.0666499929
 20
2.7697081961
 30
0.0
 10
19.0784534919
 20
2.7738335674
 30
0.0
 10
19.0897027029
 20
2.7763814812
 30
0.0
 10
19.0999002021
 20
2.7778763772
 30
0.0
 10
19.1119056076
 20
2.7790230402
 30
0.0
 10
19.1287570435
 20
2.7793444481
 30
0.0
 10
19.1510969542
 20
2.7776612079
 30
0.0
 10
19.1667925978
 20
2.77506639
 30
0.0
 10
19.1750659149
 20
2.7733673133
 30
0.0
  0
SPLINE
  5
35D
100
AcDbEntity
  8
0
100
AcDbSpline
 62
7
  6
CONTINUOUS
 70
0
 71
3
 72
17
 73
13
 74
0
 42
0.0000001
 43
0.0000001
 44
0.0000000001
 40
0.0
 40
0.0
 40
0.0
 40
0.0
 40
0.1249324489
 40
0.187414362
 40
0.2498851299
 40
0.3747657543
 40
0.4996271498
 40
0.5620777893
 40
0.6245395526
 40
0.7494573235
 40
0.8745156126
 40
1.0
 40
1.0
 40
1.0
 40
1.0
 10
19.4795975575
 20
2.8343730061
 30
0.0
 10
19.4688056413
 20
2.8265809955
 30
0.0
 10
19.4519519801
 20
2.8157736291
 30
0.0
 10
19.428425396
 20
2.8032898351
 30
0.0
 10
19.4042494356
 20
2.7921218289
 30
0.0
 10
19.3729488713
 20
2.7806587837
 30
0.0
 10
19.3406053797
 20
2.7726135969
 30
0.0
 10
19.3143432178
 20
2.768247538
 30
0.0
 10
19.2878854651
 20
2.76523924
 30
0.0
 10
19.2545575662
 20
2.76400871
 30
0.0
 10
19.214572966
 20
2.7664957998
 30
0.0
 10
19.1881623265
 20
2.7706777262
 30
0.0
 10
19.1750659149
 20
2.7733673133
 30
0.0
  0
SPLINE
  5
35E
100
AcDbEntity
  8
0
100
AcDbSpline
 62
7
  6
CONTINUOUS
 70
0
 71
3
 72
15
 73
11
 74
0
 42
0.0000001
 43
0.0000001
 44
0.0000000001
 40
0.0
 40
0.0
 40
0.0
 40
0.0
 40
0.1129426081
 40
0.2272110436
 40
0.3440665343
 40
0.4646510865
 40
0.5899363857
 40
0.7206925232
 40
0.8573243221
 40
1.0
 40
1.0
 40
1.0
 40
1.0
 10
21.3150592947
 20
2.4929872828
 30
0.0
 10
21.3148493166
 20
2.4893103358
 30
0.0
 10
21.313928231
 20
2.4819324884
 30
0.0
 10
21.3110712796
 20
2.4710511745
 30
0.0
 10
21.3067491725
 20
2.4603950795
 30
0.0
 10
21.300997025
 20
2.4500291371
 30
0.0
 10
21.293852071
 20
2.4400102816
 30
0.0
 10
21.2853551915
 20
2.4304024187
 30
0.0
 10
21.2755742643
 20
2.4212587463
 30
0.0
 10
21.2683968648
 20
2.4156316348
 30
0.0
 10
21.2646257347
 20
2.4129068694
 30
0.0
  0
SPLINE
  5
35F
100
AcDbEntity
  8
0
100
AcDbSpline
 62
7
  6
CONTINUOUS
 70
0
 71
3
 72
16
 73
12
 74
0
 42
0.0000001
 43
0.0000001
 44
0.0000000001
 40
0.0
 40
0.0
 40
0.0
 40
0.0
 40
0.0513442393
 40
0.1030572785
 40
0.2088652714
 40
0.320080218
 40
0.4385775332
 40
0.5655342618
 40
0.7015373869
 40
0.8466224691
 40
1.0
 40
1.0
 40
1.0
 40
1.0
 10
21.3197102397
 20
2.574728841
 30
0.0
 10
21.3198733291
 20
2.5775847175
 30
0.0
 10
21.3199014868
 20
2.5833389791
 30
0.0
 10
21.3187495615
 20
2.5949352329
 30
0.0
 10
21.3149834272
 20
2.6095360115
 30
0.0
 10
21.3069651657
 20
2.6265267054
 30
0.0
 10
21.2955850348
 20
2.6429143841
 30
0.0
 10
21.2810211717
 20
2.6584795569
 30
0.0
 10
21.2634876988
 20
2.6730324328
 30
0.0
 10
21.2432358271
 20
2.686365443
 30
0.0
 10
21.2285026587
 20
2.6941337015
 30
0.0
 10
21.2207792764
 20
2.6977899103
 30
0.0
  0
SPLINE
  5
360
100
AcDbEntity
  8
0
100
AcDbSpline
 62
7
  6
CONTINUOUS
 70
0
 71
3
 72
15
 73
11
 74
0
 42
0.0000001
 43
0.0000001
 44
0.0000000001
 40
0.0
 40
0.0
 40
0.0
 40
0.0
 40
0.1029328968
 40
0.2087695507
 40
0.3199832984
 40
0.4384652278
 40
0.5654498333
 40
0.7015723214
 40
0.8467269102
 40
1.0
 40
1.0
 40
1.0
 40
1.0
 10
21.0835982225
 20
2.533383188
 30
0.0
 10
21.0837269781
 20
2.5356369261
 30
0.0
 10
21.083505265
 20
2.5402494137
 30
0.0
 10
21.0817337551
 20
2.5470841432
 30
0.0
 10
21.0785826019
 20
2.5537768084
 30
0.0
 10
21.0741011578
 20
2.5602265799
 30
0.0
 10
21.0683674085
 20
2.5663569511
 30
0.0
 10
21.0614597565
 20
2.5720863436
 30
0.0
 10
21.0534859776
 20
2.5773351223
 30
0.0
 10
21.0476877953
 20
2.5803941283
 30
0.0
 10
21.044649613
 20
2.5818323879
 30
0.0
  0
SPLINE
  5
361
100
AcDbEntity
  8
0
100
AcDbSpline
 62
7
  6
CONTINUOUS
 70
0
 71
3
 72
15
 73
11
 74
0
 42
0.0000001
 43
0.0000001
 44
0.0000000001
 40
0.0
 40
0.0
 40
0.0
 40
0.0
 40
0.1426756779
 40
0.2793074768
 40
0.4100636143
 40
0.5353489135
 40
0.6559334657
 40
0.7727889564
 40
0.8870573919
 40
1.0
 40
1.0
 40
1.0
 40
1.0
 10
21.4294739315
 20
4.9964609453
 30
0.0
 10
21.4332450617
 20
4.9991857107
 30
0.0
 10
21.4404224611
 20
5.0048128222
 30
0.0
 10
21.4502033884
 20
5.0139564946
 30
0.0
 10
21.4587002679
 20
5.0235643575
 30
0.0
 10
21.4658452218
 20
5.033583213
 30
0.0
 10
21.4715973694
 20
5.0439491554
 30
0.0
 10
21.4759194765
 20
5.0546052504
 30
0.0
 10
21.4787764278
 20
5.0654865643
 30
0.0
 10
21.4796975135
 20
5.0728644117
 30
0.0
 10
21.4799074915
 20
5.0765413587
 30
0.0
  0
SPLINE
  5
362
100
AcDbEntity
  8
0
100
AcDbSpline
 62
7
  6
CONTINUOUS
 70
0
 71
3
 72
15
 73
11
 74
0
 42
0.0000001
 43
0.0000001
 44
0.0000000001
 40
0.0
 40
0.0
 40
0.0
 40
0.0
 40
0.1426756779
 40
0.2793074768
 40
0.4100636143
 40
0.5353489135
 40
0.6559334657
 40
0.7727889564
 40
0.8870573919
 40
1.0
 40
1.0
 40
1.0
 40
1.0
 10
21.2692766797
 20
2.4946484275
 30
0.0
 10
21.2730478098
 20
2.4973731929
 30
0.0
 10
21.2802252093
 20
2.5030003044
 30
0.0
 10
21.2900061365
 20
2.5121439769
 30
0.0
 10
21.298503016
 20
2.5217518397
 30
0.0
 10
21.30564797
 20
2.5317706952
 30
0.0
 10
21.3114001175
 20
2.5421366376
 30
0.0
 10
21.3157222246
 20
2.5527927326
 30
0.0
 10
21.318579176
 20
2.5636740465
 30
0.0
 10
21.3195002616
 20
2.5710518939
 30
0.0
 10
21.3197102397
 20
2.574728841
 30
0.0
  0
SPLINE
  5
363
100
AcDbEntity
  8
0
100
AcDbSpline
 62
7
  6
CONTINUOUS
 70
0
 71
3
 72
20
 73
16
 74
0
 42
0.0000001
 43
0.0000001
 44
0.0000000001
 40
0.0
 40
0.0
 40
0.0
 40
0.0
 40
0.0604697526
 40
0.1231006454
 40
0.1874639098
 40
0.2531685167
 40
0.3870094349
 40
0.5213183568
 40
0.6526477541
 40
0.7162107351
 40
0.7778566763
 40
0.8372834405
 40
0.8942524249
 40
0.9485541967
 40
1.0
 40
1.0
 40
1.0
 40
1.0
 10
18.508829875
 20
0.7383173888
 30
0.0
 10
18.51546608
 20
0.7351758441
 30
0.0
 10
18.5292167937
 20
0.7292800749
 30
0.0
 10
18.5507025657
 20
0.7217210754
 30
0.0
 10
18.5732363685
 20
0.7153643407
 30
0.0
 10
18.6045597467
 20
0.7085343072
 30
0.0
 10
18.6448639568
 20
0.7033738604
 30
0.0
 10
18.6934572127
 20
0.7026019203
 30
0.0
 10
18.7333406464
 20
0.7065166889
 30
0.0
 10
18.7639431543
 20
0.7124199785
 30
0.0
 10
18.7856506281
 20
0.7180904059
 30
0.0
 10
18.8061545589
 20
0.7249981196
 30
0.0
 10
18.8252636421
 20
0.7330805252
 30
0.0
 10
18.8427839558
 20
0.7422607495
 30
0.0
 10
18.8535917849
 20
0.7492367435
 30
0.0
 10
18.8586549895
 20
0.7528950751
 30
0.0
  0
SPLINE
  5
364
100
AcDbEntity
  8
0
100
AcDbSpline
 62
7
  6
CONTINUOUS
 70
0
 71
3
 72
23
 73
19
 74
0
 42
0.0000001
 43
0.0000001
 44
0.0000000001
 40
0.0
 40
0.0
 40
0.0
 40
0.0
 40
0.0681487212
 40
0.1340981289
 40
0.1979186315
 40
0.2598297605
 40
0.3201560135
 40
0.3792795348
 40
0.4376247239
 40
0.4956566325
 40
0.553861458
 40
0.6127170011
 40
0.6726620786
 40
0.7340823662
 40
0.7973121551
 40
0.862623263
 40
0.9301806086
 40
1.0
 40
1.0
 40
1.0
 40
1.0
 10
19.0746945038
 20
2.9093968262
 30
0.0
 10
19.0799745456
 20
2.9083124733
 30
0.0
 10
19.0904617582
 20
2.9066197994
 30
0.0
 10
19.1061024814
 20
2.9055518577
 30
0.0
 10
19.121282989
 20
2.9060171229
 30
0.0
 10
19.1358920952
 20
2.9080143011
 30
0.0
 10
19.1498310169
 20
2.9115322514
 30
0.0
 10
19.1630033628
 20
2.9165502835
 30
0.0
 10
19.1753172331
 20
2.9230326724
 30
0.0
 10
19.1866794699
 20
2.9309415174
 30
0.0
 10
19.1970133041
 20
2.9402136334
 30
0.0
 10
19.2062404465
 20
2.9507878161
 30
0.0
 10
19.2143030128
 20
2.9625815819
 30
0.0
 10
19.2211448318
 20
2.9755133415
 30
0.0
 10
19.2267227322
 20
2.9894935886
 30
0.0
 10
19.2310015772
 20
3.0044279076
 30
0.0
 10
19.2339520013
 20
3.0202071913
 30
0.0
 10
19.2350098874
 20
3.0310367486
 30
0.0
 10
19.2353235933
 20
3.0365502108
 30
0.0
  0
SPLINE
  5
365
100
AcDbEntity
  8
0
100
AcDbSpline
 62
7
  6
CONTINUOUS
 70
0
 71
3
 72
24
 73
20
 74
0
 42
0.0000001
 43
0.0000001
 44
0.0000000001
 40
0.0
 40
0.0
 40
0.0
 40
0.0
 40
0.06983175
 40
0.1373791479
 40
0.2026746322
 40
0.2659022737
 40
0.3273274551
 40
0.3872744914
 40
0.4461284879
 40
0.5043336339
 40
0.5623656973
 40
0.6207096897
 40
0.6798349386
 40
0.7401660051
 40
0.802075127
 40
0.8658805779
 40
0.8985848161
 40
0.9318391806
 40
1.0
 40
1.0
 40
1.0
 40
1.0
 10
18.5928072353
 20
2.5279366723
 30
0.0
 10
18.5937485386
 20
2.5444803201
 30
0.0
 10
18.5969200305
 20
2.5769704228
 30
0.0
 10
18.6057720449
 20
2.6243061437
 30
0.0
 10
18.618610511
 20
2.6691024728
 30
0.0
 10
18.6353407626
 20
2.7110423785
 30
0.0
 10
18.6558686887
 20
2.749838259
 30
0.0
 10
18.680050315
 20
2.785226792
 30
0.0
 10
18.707741055
 20
2.8169423629
 30
0.0
 10
18.7387364658
 20
2.8447663839
 30
0.0
 10
18.7728293232
 20
2.8684851906
 30
0.0
 10
18.8097661579
 20
2.8879433136
 30
0.0
 10
18.8492887093
 20
2.9029898936
 30
0.0
 10
18.8911069422
 20
2.9135458841
 30
0.0
 10
18.9349315374
 20
2.9195340068
 30
0.0
 10
18.9725747553
 20
2.9206909742
 30
0.0
 10
19.0033483334
 20
2.9193712885
 30
0.0
 10
19.0350524398
 20
2.9164934577
 30
0.0
 10
19.0588512474
 20
2.912650528
 30
0.0
 10
19.0746945038
 20
2.9093968262
 30
0.0
  0
SPLINE
  5
366
100
AcDbEntity
  8
0
100
AcDbSpline
 62
7
  6
CONTINUOUS
 70
0
 71
3
 72
23
 73
19
 74
0
 42
0.0000001
 43
0.0000001
 44
0.0000000001
 40
0.0
 40
0.0
 40
0.0
 40
0.0
 40
0.0629593364
 40
0.1269658719
 40
0.1917449671
 40
0.2570703982
 40
0.3227174462
 40
0.3884390141
 40
0.4539848979
 40
0.5191120378
 40
0.5835839299
 40
0.6471761542
 40
0.7096764148
 40
0.7708910987
 40
0.8306489938
 40
0.8888244245
 40
0.9453135019
 40
1.0
 40
1.0
 40
1.0
 40
1.0
 10
16.282453654
 20
4.2312290394
 30
0.0
 10
16.2982353343
 20
4.2193986899
 30
0.0
 10
16.3293315357
 20
4.1945523885
 30
0.0
 10
16.374002245
 20
4.1543452245
 30
0.0
 10
16.4168153212
 20
4.1111141257
 30
0.0
 10
16.4574792394
 20
4.0651690846
 30
0.0
 10
16.4957189811
 20
4.0168110313
 30
0.0
 10
16.5312867834
 20
3.9663707797
 30
0.0
 10
16.5639301004
 20
3.9141821266
 30
0.0
 10
16.5934387105
 20
3.8606049729
 30
0.0
 10
16.6196035485
 20
3.8059946146
 30
0.0
 10
16.6422583517
 20
3.7507240691
 30
0.0
 10
16.6612373608
 20
3.6951613479
 30
0.0
 10
16.6764253924
 20
3.6396870204
 30
0.0
 10
16.6877089959
 20
3.5846685391
 30
0.0
 10
16.6950186258
 20
3.530471337
 30
0.0
 10
16.6982889753
 20
3.4774727522
 30
0.0
 10
16.6977652494
 20
3.4426045644
 30
0.0
 10
16.6967920506
 20
3.4255003434
 30
0.0
  0
SPLINE
  5
367
100
AcDbEntity
  8
0
100
AcDbSpline
 62
7
  6
CONTINUOUS
 70
0
 71
3
 72
15
 73
11
 74
0
 42
0.0000001
 43
0.0000001
 44
0.0000000001
 40
0.0
 40
0.0
 40
0.0
 40
0.0
 40
0.111142626
 40
0.2290750209
 40
0.3527816715
 40
0.4808499804
 40
0.6115319431
 40
0.742904131
 40
0.8730331197
 40
1.0
 40
1.0
 40
1.0
 40
1.0
 10
16.1443408551
 20
4.4998052713
 30
0.0
 10
16.14368187
 20
4.4882234387
 30
0.0
 10
16.1443437033
 20
4.4642096047
 30
0.0
 10
16.1506424466
 20
4.4278241462
 30
0.0
 10
16.1620935795
 20
4.3908689576
 30
0.0
 10
16.1783799078
 20
4.3543269514
 30
0.0
 10
16.1990717136
 20
4.3191604466
 30
0.0
 10
16.2236159289
 20
4.2862967097
 30
0.0
 10
16.2513583577
 20
4.256618012
 30
0.0
 10
16.2718499647
 20
4.2391778349
 30
0.0
 10
16.282453654
 20
4.2312290394
 30
0.0
  0
SPLINE
  5
368
100
AcDbEntity
  8
0
100
AcDbSpline
 62
7
  6
CONTINUOUS
 70
0
 71
3
 72
16
 73
12
 74
0
 42
0.0000001
 43
0.0000001
 44
0.0000000001
 40
0.0
 40
0.0
 40
0.0
 40
0.0
 40
0.0513442393
 40
0.1030572785
 40
0.2088652714
 40
0.320080218
 40
0.4385775332
 40
0.5655342618
 40
0.7015373869
 40
0.8466224691
 40
1.0
 40
1.0
 40
1.0
 40
1.0
 10
16.081768848
 20
5.2618843745
 30
0.0
 10
16.0816057585
 20
5.259028498
 30
0.0
 10
16.0815776009
 20
5.2532742363
 30
0.0
 10
16.0827295261
 20
5.2416779825
 30
0.0
 10
16.0864956604
 20
5.227077204
 30
0.0
 10
16.094513922
 20
5.2100865101
 30
0.0
 10
16.1058940528
 20
5.1936988314
 30
0.0
 10
16.120457916
 20
5.1781336586
 30
0.0
 10
16.1379913888
 20
5.1635807827
 30
0.0
 10
16.1582432606
 20
5.1502477725
 30
0.0
 10
16.1729764289
 20
5.142479514
 30
0.0
 10
16.1806998112
 20
5.1388233052
 30
0.0
  0
SPLINE
  5
369
100
AcDbEntity
  8
0
100
AcDbSpline
 62
7
  6
CONTINUOUS
 70
0
 71
3
 72
17
 73
13
 74
0
 42
0.0000001
 43
0.0000001
 44
0.0000000001
 40
0.0
 40
0.0
 40
0.0
 40
0.0
 40
0.0481899657
 40
0.0968625661
 40
0.1464785671
 40
0.1974677491
 40
0.3049047462
 40
0.4216189955
 40
0.5490909308
 40
0.6880560498
 40
0.8386060242
 40
1.0
 40
1.0
 40
1.0
 40
1.0
 10
18.6015989393
 20
1.7977854164
 30
0.0
 10
18.599682348
 20
1.7986940506
 30
0.0
 10
18.5959311907
 20
1.8007430593
 30
0.0
 10
18.590647618
 20
1.8044597292
 30
0.0
 10
18.585709897
 20
1.8088142264
 30
0.0
 10
18.5795049767
 20
1.8155680022
 30
0.0
 10
18.5726986884
 20
1.8256759704
 30
0.0
 10
18.5663004827
 20
1.8398317127
 30
0.0
 10
18.5615720048
 20
1.8560687603
 30
0.0
 10
18.5585421152
 20
1.8742067507
 30
0.0
 10
18.5572452529
 20
1.8940383098
 30
0.0
 10
18.557521612
 20
1.9077827392
 30
0.0
 10
18.5579251479
 20
1.9148749864
 30
0.0
  0
SPLINE
  5
36A
100
AcDbEntity
  8
0
100
AcDbSpline
 62
7
  6
CONTINUOUS
 70
0
 71
3
 72
23
 73
19
 74
0
 42
0.0000001
 43
0.0000001
 44
0.0000000001
 40
0.0
 40
0.0
 40
0.0
 40
0.0
 40
0.0667739325
 40
0.1366637494
 40
0.2087320043
 40
0.2821232809
 40
0.3559841551
 40
0.4294005751
 40
0.5014484817
 40
0.5712832148
 40
0.6381362364
 40
0.7013875745
 40
0.7605758208
 40
0.8154923676
 40
0.8662198485
 40
0.9132226623
 40
0.9573856733
 40
1.0
 40
1.0
 40
1.0
 40
1.0
 10
20.8270463352
 20
2.6848446415
 30
0.0
 10
20.8233873531
 20
2.6865767844
 30
0.0
 10
20.8157106903
 20
2.6897337881
 30
0.0
 10
20.8036079373
 20
2.6934808834
 30
0.0
 10
20.7908389814
 20
2.6962743588
 30
0.0
 10
20.7776502792
 20
2.6980700772
 30
0.0
 10
20.7642798818
 20
2.6988295209
 30
0.0
 10
20.7509721148
 20
2.6985487435
 30
0.0
 10
20.7379720778
 20
2.6972227369
 30
0.0
 10
20.7255190317
 20
2.6948829805
 30
0.0
 10
20.7138410493
 20
2.6915662097
 30
0.0
 10
20.7031497014
 20
2.687336505
 30
0.0
 10
20.6936391423
 20
2.6822639615
 30
0.0
 10
20.6854814181
 20
2.6764352309
 30
0.0
 10
20.6788265484
 20
2.6699439442
 30
0.0
 10
20.6738105303
 20
2.662888302
 30
0.0
 10
20.6705494793
 20
2.6553932287
 30
0.0
 10
20.6696121262
 20
2.6501569833
 30
0.0
 10
20.6694647685
 20
2.6475776332
 30
0.0
  0
SPLINE
  5
36B
100
AcDbEntity
  8
0
100
AcDbSpline
 62
7
  6
CONTINUOUS
 70
0
 71
3
 72
23
 73
19
 74
0
 42
0.0000001
 43
0.0000001
 44
0.0000000001
 40
0.0
 40
0.0
 40
0.0
 40
0.0
 40
0.0667739325
 40
0.1366637494
 40
0.2087320043
 40
0.2821232809
 40
0.3559841551
 40
0.4294005751
 40
0.5014484817
 40
0.5712832148
 40
0.6381362364
 40
0.7013875745
 40
0.7605758208
 40
0.8154923676
 40
0.8662198485
 40
0.9132226623
 40
0.9573856733
 40
1.0
 40
1.0
 40
1.0
 40
1.0
 10
18.5670885007
 20
1.0519508736
 30
0.0
 10
18.5634295186
 20
1.0536830165
 30
0.0
 10
18.5557528558
 20
1.0568400202
 30
0.0
 10
18.5436501028
 20
1.0605871155
 30
0.0
 10
18.530881147
 20
1.0633805909
 30
0.0
 10
18.5176924447
 20
1.0651763093
 30
0.0
 10
18.5043220473
 20
1.065935753
 30
0.0
 10
18.4910142804
 20
1.0656549756
 30
0.0
 10
18.4780142434
 20
1.0643289691
 30
0.0
 10
18.4655611972
 20
1.0619892126
 30
0.0
 10
18.4538832148
 20
1.0586724418
 30
0.0
 10
18.443191867
 20
1.0544427372
 30
0.0
 10
18.4336813078
 20
1.0493701936
 30
0.0
 10
18.4255235836
 20
1.043541463
 30
0.0
 10
18.4188687139
 20
1.0370501763
 30
0.0
 10
18.4138526958
 20
1.0299945341
 30
0.0
 10
18.4105916448
 20
1.0224994609
 30
0.0
 10
18.4096542918
 20
1.0172632154
 30
0.0
 10
18.409506934
 20
1.0146838653
 30
0.0
  0
SPLINE
  5
36C
100
AcDbEntity
  8
0
100
AcDbSpline
 62
7
  6
CONTINUOUS
 70
0
 71
3
 72
15
 73
11
 74
0
 42
0.0000001
 43
0.0000001
 44
0.0000000001
 40
0.0
 40
0.0
 40
0.0
 40
0.0
 40
0.1029328968
 40
0.2087695507
 40
0.3199832984
 40
0.4384652278
 40
0.5654498333
 40
0.7015723214
 40
0.8467269102
 40
1.0
 40
1.0
 40
1.0
 40
1.0
 10
16.5706286467
 20
1.9670533938
 30
0.0
 10
16.5707574023
 20
1.9693071319
 30
0.0
 10
16.5705356892
 20
1.9739196195
 30
0.0
 10
16.5687641793
 20
1.980754349
 30
0.0
 10
16.5656130261
 20
1.9874470142
 30
0.0
 10
16.5611315819
 20
1.9938967857
 30
0.0
 10
16.5553978326
 20
2.0000271569
 30
0.0
 10
16.5484901807
 20
2.0057565494
 30
0.0
 10
16.5405164018
 20
2.0110053282
 30
0.0
 10
16.5347182194
 20
2.0140643342
 30
0.0
 10
16.5316800372
 20
2.0155025938
 30
0.0
  0
SPLINE
  5
36D
100
AcDbEntity
  8
0
100
AcDbSpline
 62
7
  6
CONTINUOUS
 70
0
 71
3
 72
15
 73
11
 74
0
 42
0.0000001
 43
0.0000001
 44
0.0000000001
 40
0.0
 40
0.0
 40
0.0
 40
0.0
 40
0.1127586808
 40
0.2271003746
 40
0.3441751384
 40
0.4650118955
 40
0.5904857916
 40
0.7212781929
 40
0.8577336115
 40
1.0
 40
1.0
 40
1.0
 40
1.0
 10
21.4433096032
 20
4.4343890899
 30
0.0
 10
21.4429716141
 20
4.4308461742
 30
0.0
 10
21.4418272505
 20
4.4237466212
 30
0.0
 10
21.438745808
 20
4.4133014893
 30
0.0
 10
21.4343073083
 20
4.4030784954
 30
0.0
 10
21.4285458439
 20
4.3931336955
 30
0.0
 10
21.4214934582
 20
4.3835189203
 30
0.0
 10
21.4131888262
 20
4.3742911882
 30
0.0
 10
21.4036940107
 20
4.3654979379
 30
0.0
 10
21.3967546742
 20
4.3600727134
 30
0.0
 10
21.3931149754
 20
4.3574429115
 30
0.0
  0
SPLINE
  5
36E
100
AcDbEntity
  8
0
100
AcDbSpline
 62
7
  6
CONTINUOUS
 70
0
 71
3
 72
15
 73
11
 74
0
 42
0.0000001
 43
0.0000001
 44
0.0000000001
 40
0.0
 40
0.0
 40
0.0
 40
0.0
 40
0.1154270138
 40
0.2321120124
 40
0.350931517
 40
0.4726868986
 40
0.5980633956
 40
0.7276107272
 40
0.8615831772
 40
1.0
 40
1.0
 40
1.0
 40
1.0
 10
20.6665003839
 20
3.1300689876
 30
0.0
 10
20.6701376362
 20
3.132923053
 30
0.0
 10
20.6771013252
 20
3.1391247414
 30
0.0
 10
20.6864041167
 20
3.149705183
 30
0.0
 10
20.6945328169
 20
3.1615219362
 30
0.0
 10
20.7014284398
 20
3.1744902877
 30
0.0
 10
20.7070539604
 20
3.1885194403
 30
0.0
 10
20.7113629609
 20
3.2035147348
 30
0.0
 10
20.7143364842
 20
3.2193586227
 30
0.0
 10
20.7154015856
 20
3.2302324578
 30
0.0
 10
20.71571653
 20
3.235767687
 30
0.0
  0
SPLINE
  5
36F
100
AcDbEntity
  8
0
100
AcDbSpline
 62
7
  6
CONTINUOUS
 70
0
 71
3
 72
17
 73
13
 74
0
 42
0.0000001
 43
0.0000001
 44
0.0000000001
 40
0.0
 40
0.0
 40
0.0
 40
0.0
 40
0.048191206
 40
0.0968634716
 40
0.146477916
 40
0.1974647442
 40
0.3048949808
 40
0.4216023511
 40
0.5490699767
 40
0.6880381805
 40
0.8385971003
 40
1.0
 40
1.0
 40
1.0
 40
1.0
 10
18.2530887318
 20
1.9627683404
 30
0.0
 10
18.2511713454
 20
1.9636763337
 30
0.0
 10
18.2474185866
 20
1.9657241397
 30
0.0
 10
18.2421325925
 20
1.9694393932
 30
0.0
 10
18.237192566
 20
1.9737928405
 30
0.0
 10
18.2309848213
 20
1.9805456825
 30
0.0
 10
18.2241750722
 20
1.9906532354
 30
0.0
 10
18.2177736723
 20
2.0048098554
 30
0.0
 10
18.2130424769
 20
2.0210490079
 30
0.0
 10
18.2100109106
 20
2.0391905226
 30
0.0
 10
18.2087131184
 20
2.0590266105
 30
0.0
 10
18.2089893125
 20
2.0727743665
 30
0.0
 10
18.2093929448
 20
2.0798683083
 30
0.0
  0
SPLINE
  5
370
100
AcDbEntity
  8
0
100
AcDbSpline
 62
7
  6
CONTINUOUS
 70
0
 71
3
 72
15
 73
11
 74
0
 42
0.0000001
 43
0.0000001
 44
0.0000000001
 40
0.0
 40
0.0
 40
0.0
 40
0.0
 40
0.1155806943
 40
0.2322083766
 40
0.3508675206
 40
0.4724224111
 40
0.5976229687
 40
0.727081151
 40
0.8611892437
 40
1.0
 40
1.0
 40
1.0
 40
1.0
 10
19.4796536802
 20
2.8344125544
 30
0.0
 10
19.4874340352
 20
2.8400346884
 30
0.0
 10
19.5023542643
 20
2.8523527212
 30
0.0
 10
19.5223197068
 20
2.8736796626
 30
0.0
 10
19.5397747818
 20
2.8977220072
 30
0.0
 10
19.5545902212
 20
2.9242859657
 30
0.0
 10
19.5666579633
 20
2.9531738984
 30
0.0
 10
19.5759008537
 20
2.9841695547
 30
0.0
 10
19.5822467554
 20
3.0170286904
 30
0.0
 10
19.5844938247
 20
3.0396181568
 30
0.0
 10
19.5851487078
 20
3.0511278971
 30
0.0
  0
SPLINE
  5
371
100
AcDbEntity
  8
0
100
AcDbSpline
 62
7
  6
CONTINUOUS
 70
0
 71
3
 72
15
 73
11
 74
0
 42
0.0000001
 43
0.0000001
 44
0.0000000001
 40
0.0
 40
0.0
 40
0.0
 40
0.0
 40
0.1029328968
 40
0.2087695507
 40
0.3199832984
 40
0.4384652278
 40
0.5654498333
 40
0.7015723214
 40
0.8467269102
 40
1.0
 40
1.0
 40
1.0
 40
1.0
 10
18.823640388
 20
0.9004894201
 30
0.0
 10
18.8237691436
 20
0.9027431582
 30
0.0
 10
18.8235474305
 20
0.9073556458
 30
0.0
 10
18.8217759206
 20
0.9141903753
 30
0.0
 10
18.8186247675
 20
0.9208830405
 30
0.0
 10
18.8141433233
 20
0.927332812
 30
0.0
 10
18.808409574
 20
0.9334631832
 30
0.0
 10
18.801501922
 20
0.9391925757
 30
0.0
 10
18.7935281431
 20
0.9444413545
 30
0.0
 10
18.7877299608
 20
0.9475003605
 30
0.0
 10
18.7846917785
 20
0.9489386201
 30
0.0
  0
SPLINE
  5
372
100
AcDbEntity
  8
0
100
AcDbSpline
 62
7
  6
CONTINUOUS
 70
0
 71
3
 72
16
 73
12
 74
0
 42
0.0000001
 43
0.0000001
 44
0.0000000001
 40
0.0
 40
0.0
 40
0.0
 40
0.0
 40
0.0513442393
 40
0.1030572785
 40
0.2088652714
 40
0.320080218
 40
0.4385775332
 40
0.5655342618
 40
0.7015373869
 40
0.8466224691
 40
1.0
 40
1.0
 40
1.0
 40
1.0
 10
15.9163999503
 20
2.0417878239
 30
0.0
 10
15.9162368608
 20
2.0389319474
 30
0.0
 10
15.9162087032
 20
2.0331776858
 30
0.0
 10
15.9173606284
 20
2.021581432
 30
0.0
 10
15.9211267627
 20
2.0069806534
 30
0.0
 10
15.9291450243
 20
1.9899899595
 30
0.0
 10
15.9405251551
 20
1.9736022808
 30
0.0
 10
15.9550890183
 20
1.958037108
 30
0.0
 10
15.9726224911
 20
1.9434842321
 30
0.0
 10
15.9928743629
 20
1.9301512219
 30
0.0
 10
16.0076075312
 20
1.9223829634
 30
0.0
 10
16.0153309136
 20
1.9187267546
 30
0.0
  0
SPLINE
  5
373
100
AcDbEntity
  8
0
100
AcDbSpline
 62
7
  6
CONTINUOUS
 70
0
 71
3
 72
16
 73
12
 74
0
 42
0.0000001
 43
0.0000001
 44
0.0000000001
 40
0.0
 40
0.0
 40
0.0
 40
0.0
 40
0.051344173
 40
0.1030571251
 40
0.2088648333
 40
0.3200799519
 40
0.4385772011
 40
0.5655339479
 40
0.7015374436
 40
0.8466230301
 40
1.0
 40
1.0
 40
1.0
 40
1.0
 10
16.5629789582
 20
2.9354997325
 30
0.0
 10
16.5628158619
 20
2.9326438601
 30
0.0
 10
16.5627877483
 20
2.9268896044
 30
0.0
 10
16.563939722
 20
2.9152933861
 30
0.0
 10
16.5677057241
 20
2.9006925808
 30
0.0
 10
16.5757241243
 20
2.8837019592
 30
0.0
 10
16.5871041299
 20
2.8673141957
 30
0.0
 10
16.6016680511
 20
2.8517490407
 30
0.0
 10
16.6192015464
 20
2.8371961188
 30
0.0
 10
16.6394534594
 20
2.823863137
 30
0.0
 10
16.654186609
 20
2.816094853
 30
0.0
 10
16.6619099631
 20
2.8124386575
 30
0.0
  0
SPLINE
  5
374
100
AcDbEntity
  8
0
100
AcDbSpline
 62
7
  6
CONTINUOUS
 70
0
 71
3
 72
23
 73
19
 74
0
 42
0.0000001
 43
0.0000001
 44
0.0000000001
 40
0.0
 40
0.0
 40
0.0
 40
0.0
 40
0.0667739325
 40
0.1366637494
 40
0.2087320043
 40
0.2821232809
 40
0.3559841551
 40
0.4294005751
 40
0.5014484817
 40
0.5712832148
 40
0.6381362364
 40
0.7013875745
 40
0.7605758208
 40
0.8154923676
 40
0.8662198485
 40
0.9132226623
 40
0.9573856733
 40
1.0
 40
1.0
 40
1.0
 40
1.0
 10
16.3140767593
 20
2.1185148473
 30
0.0
 10
16.3104177773
 20
2.1202469903
 30
0.0
 10
16.3027411145
 20
2.1234039939
 30
0.0
 10
16.2906383615
 20
2.1271510892
 30
0.0
 10
16.2778694056
 20
2.1299445646
 30
0.0
 10
16.2646807034
 20
2.131740283
 30
0.0
 10
16.251310306
 20
2.1324997267
 30
0.0
 10
16.238002539
 20
2.1322189493
 30
0.0
 10
16.225002502
 20
2.1308929428
 30
0.0
 10
16.2125494559
 20
2.1285531863
 30
0.0
 10
16.2008714735
 20
2.1252364155
 30
0.0
 10
16.1901801256
 20
2.1210067109
 30
0.0
 10
16.1806695664
 20
2.1159341673
 30
0.0
 10
16.1725118423
 20
2.1101054367
 30
0.0
 10
16.1658569726
 20
2.10361415
 30
0.0
 10
16.1608409545
 20
2.0965585078
 30
0.0
 10
16.1575799035
 20
2.0890634346
 30
0.0
 10
16.1566425504
 20
2.0838271891
 30
0.0
 10
16.1564951927
 20
2.081247839
 30
0.0
  0
SPLINE
  5
375
100
AcDbEntity
  8
0
100
AcDbSpline
 62
7
  6
CONTINUOUS
 70
0
 71
3
 72
20
 73
16
 74
0
 42
0.0000001
 43
0.0000001
 44
0.0000000001
 40
0.0
 40
0.0
 40
0.0
 40
0.0
 40
0.0604697526
 40
0.1231006454
 40
0.1874639098
 40
0.2531685167
 40
0.3870094349
 40
0.5213183568
 40
0.6526477541
 40
0.7162107351
 40
0.7778566763
 40
0.8372834405
 40
0.8942524249
 40
0.9485541967
 40
1.0
 40
1.0
 40
1.0
 40
1.0
 10
19.2716825494
 20
3.6755682447
 30
0.0
 10
19.2783187544
 20
3.6724266999
 30
0.0
 10
19.2920694681
 20
3.6665309308
 30
0.0
 10
19.31355524
 20
3.6589719313
 30
0.0
 10
19.3360890429
 20
3.6526151966
 30
0.0
 10
19.3674124211
 20
3.6457851631
 30
0.0
 10
19.4077166312
 20
3.6406247163
 30
0.0
 10
19.4563098871
 20
3.6398527762
 30
0.0
 10
19.4961933208
 20
3.6437675448
 30
0.0
 10
19.5267958287
 20
3.6496708344
 30
0.0
 10
19.5485033025
 20
3.6553412618
 30
0.0
 10
19.5690072333
 20
3.6622489755
 30
0.0
 10
19.5881163165
 20
3.6703313811
 30
0.0
 10
19.6056366302
 20
3.6795116054
 30
0.0
 10
19.6164444593
 20
3.6864875994
 30
0.0
 10
19.6215076639
 20
3.690145931
 30
0.0
  0
SPLINE
  5
376
100
AcDbEntity
  8
0
100
AcDbSpline
 62
7
  6
CONTINUOUS
 70
0
 71
3
 72
15
 73
11
 74
0
 42
0.0000001
 43
0.0000001
 44
0.0000000001
 40
0.0
 40
0.0
 40
0.0
 40
0.0
 40
0.1388369955
 40
0.2729250047
 40
0.4023577322
 40
0.5275591631
 40
0.6491264351
 40
0.7677885003
 40
0.8844170065
 40
1.0
 40
1.0
 40
1.0
 40
1.0
 10
18.9426323498
 20
2.5425143586
 30
0.0
 10
18.9432873577
 20
2.5540262902
 30
0.0
 10
18.9455326428
 20
2.5766164999
 30
0.0
 10
18.9518798072
 20
2.6094738944
 30
0.0
 10
18.961122628
 20
2.6404656771
 30
0.0
 10
18.9731899165
 20
2.6693527131
 30
0.0
 10
18.9880045396
 20
2.6959185928
 30
0.0
 10
19.0054590065
 20
2.7199633983
 30
0.0
 10
19.0254277567
 20
2.7412877446
 30
0.0
 10
19.0403459729
 20
2.7536086716
 30
0.0
 10
19.0481270514
 20
2.7592301526
 30
0.0
  0
SPLINE
  5
377
100
AcDbEntity
  8
0
100
AcDbSpline
 62
7
  6
CONTINUOUS
 70
0
 71
3
 72
15
 73
11
 74
0
 42
0.0000001
 43
0.0000001
 44
0.0000000001
 40
0.0
 40
0.0
 40
0.0
 40
0.0
 40
0.1388107563
 40
0.272918849
 40
0.4023770313
 40
0.5275775889
 40
0.6491324794
 40
0.7677916234
 40
0.8844193057
 40
1.0
 40
1.0
 40
1.0
 40
1.0
 10
21.3931149754
 20
4.3574429114
 30
0.0
 10
21.3924600923
 20
4.3459331711
 30
0.0
 10
21.390213023
 20
4.3233437047
 30
0.0
 10
21.3838671213
 20
4.290484569
 30
0.0
 10
21.3746242309
 20
4.2594889127
 30
0.0
 10
21.3625564887
 20
4.23060098
 30
0.0
 10
21.3477410494
 20
4.2040370215
 30
0.0
 10
21.3302859744
 20
4.1799946769
 30
0.0
 10
21.3103205319
 20
4.1586677355
 30
0.0
 10
21.2954003028
 20
4.1463497027
 30
0.0
 10
21.2876199477
 20
4.1407275687
 30
0.0
  0
SPLINE
  5
378
100
AcDbEntity
  8
0
100
AcDbSpline
 62
7
  6
CONTINUOUS
 70
0
 71
3
 72
17
 73
13
 74
0
 42
0.0000001
 43
0.0000001
 44
0.0000000001
 40
0.0
 40
0.0
 40
0.0
 40
0.0
 40
0.161400872
 40
0.311959409
 40
0.4509280612
 40
0.5783961494
 40
0.6951041915
 40
0.8025353261
 40
0.8535226027
 40
0.9031371352
 40
0.9518092169
 40
1.0
 40
1.0
 40
1.0
 40
1.0
 10
16.6619099631
 20
2.8124386575
 30
0.0
 10
16.6615063488
 20
2.8053450325
 30
0.0
 10
16.661230164
 20
2.7915978254
 30
0.0
 10
16.6625277898
 20
2.7717624572
 30
0.0
 10
16.6655590352
 20
2.7536214659
 30
0.0
 10
16.670289813
 20
2.7373826935
 30
0.0
 10
16.6766906365
 20
2.7232262619
 30
0.0
 10
16.6834998692
 20
2.7131187501
 30
0.0
 10
16.6897070167
 20
2.7063656777
 30
0.0
 10
16.6946466424
 20
2.7020120692
 30
0.0
 10
16.6999322202
 20
2.6982966266
 30
0.0
 10
16.703684688
 20
2.6962486351
 30
0.0
 10
16.705601924
 20
2.6953405268
 30
0.0
  0
SPLINE
  5
379
100
AcDbEntity
  8
0
100
AcDbSpline
 62
7
  6
CONTINUOUS
 70
0
 71
3
 72
16
 73
12
 74
0
 42
0.0000001
 43
0.0000001
 44
0.0000000001
 40
0.0
 40
0.0
 40
0.0
 40
0.0
 40
0.1533775315
 40
0.298462614
 40
0.4344657392
 40
0.5614224675
 40
0.6799197824
 40
0.7911347286
 40
0.8969427213
 40
0.9486557605
 40
1.0
 40
1.0
 40
1.0
 40
1.0
 10
16.6967920506
 20
3.4255003434
 30
0.0
 10
16.689068668
 20
3.4291565523
 30
0.0
 10
16.6743354994
 20
3.436924811
 30
0.0
 10
16.6540836272
 20
3.4502578216
 30
0.0
 10
16.6365501541
 20
3.4648106979
 30
0.0
 10
16.6219862909
 20
3.4803758711
 30
0.0
 10
16.6106061601
 20
3.4967635503
 30
0.0
 10
16.6025878988
 20
3.5137542447
 30
0.0
 10
16.5988217649
 20
3.5283550236
 30
0.0
 10
16.59766984
 20
3.5399512777
 30
0.0
 10
16.5976979979
 20
3.5457055395
 30
0.0
 10
16.5978610875
 20
3.548561416
 30
0.0
  0
SPLINE
  5
37A
100
AcDbEntity
  8
0
100
AcDbSpline
 62
7
  6
CONTINUOUS
 70
0
 71
3
 72
20
 73
16
 74
0
 42
0.0000001
 43
0.0000001
 44
0.0000000001
 40
0.0
 40
0.0
 40
0.0
 40
0.0
 40
0.0604697526
 40
0.1231006454
 40
0.1874639098
 40
0.2531685167
 40
0.3870094349
 40
0.5213183568
 40
0.6526477541
 40
0.7162107351
 40
0.7778566763
 40
0.8372834405
 40
0.8942524249
 40
0.9485541967
 40
1.0
 40
1.0
 40
1.0
 40
1.0
 10
19.2353235933
 20
3.0365502108
 30
0.0
 10
19.2419597983
 20
3.0334086661
 30
0.0
 10
19.2557105119
 20
3.0275128969
 30
0.0
 10
19.2771962839
 20
3.0199538975
 30
0.0
 10
19.2997300868
 20
3.0135971627
 30
0.0
 10
19.331053465
 20
3.0067671292
 30
0.0
 10
19.3713576751
 20
3.0016066825
 30
0.0
 10
19.4199509309
 20
3.0008347423
 30
0.0
 10
19.4598343647
 20
3.0047495109
 30
0.0
 10
19.4904368726
 20
3.0106528005
 30
0.0
 10
19.5121443464
 20
3.0163232279
 30
0.0
 10
19.5326482772
 20
3.0232309416
 30
0.0
 10
19.5517573604
 20
3.0313133472
 30
0.0
 10
19.5692776741
 20
3.0404935715
 30
0.0
 10
19.5800855032
 20
3.0474695655
 30
0.0
 10
19.5851487078
 20
3.0511278971
 30
0.0
  0
SPLINE
  5
37B
100
AcDbEntity
  8
0
100
AcDbSpline
 62
7
  6
CONTINUOUS
 70
0
 71
3
 72
16
 73
12
 74
0
 42
0.0000001
 43
0.0000001
 44
0.0000000001
 40
0.0
 40
0.0
 40
0.0
 40
0.0
 40
0.1516066533
 40
0.295538228
 40
0.4309647097
 40
0.5578763166
 40
0.6767953208
 40
0.7888095763
 40
0.8957046165
 40
0.9480265644
 40
1.0
 40
1.0
 40
1.0
 40
1.0
 10
19.0746945038
 20
2.9093968262
 30
0.0
 10
19.076246791
 20
2.9004761982
 30
0.0
 10
19.080058983
 20
2.8832094392
 30
0.0
 10
19.0881169782
 20
2.8587145603
 30
0.0
 10
19.0982882261
 20
2.8366195846
 30
0.0
 10
19.1104197207
 20
2.8172661175
 30
0.0
 10
19.1243549537
 20
2.8009454907
 30
0.0
 10
19.1399050021
 20
2.7879283913
 30
0.0
 10
19.1541475627
 20
2.7799738426
 30
0.0
 10
19.1659834556
 20
2.7755623115
 30
0.0
 10
19.172025675
 20
2.7739937351
 30
0.0
 10
19.1750663784
 20
2.773369571
 30
0.0
  0
SPLINE
  5
37C
100
AcDbEntity
  8
0
100
AcDbSpline
 62
7
  6
CONTINUOUS
 70
0
 71
3
 72
20
 73
16
 74
0
 42
0.0000001
 43
0.0000001
 44
0.0000000001
 40
0.0
 40
0.0
 40
0.0
 40
0.0
 40
0.0604697526
 40
0.1231006454
 40
0.1874639098
 40
0.2531685167
 40
0.3870094349
 40
0.5213183569
 40
0.6526477542
 40
0.7162107352
 40
0.7778566764
 40
0.8372834406
 40
0.8942524249
 40
0.9485541967
 40
1.0
 40
1.0
 40
1.0
 40
1.0
 10
18.5928072353
 20
2.5279366723
 30
0.0
 10
18.5994434403
 20
2.5247951275
 30
0.0
 10
18.613194154
 20
2.5188993584
 30
0.0
 10
18.6346799259
 20
2.5113403589
 30
0.0
 10
18.6572137288
 20
2.5049836242
 30
0.0
 10
18.688537107
 20
2.4981535907
 30
0.0
 10
18.7288413171
 20
2.4929931439
 30
0.0
 10
18.777434573
 20
2.4922212038
 30
0.0
 10
18.8173180067
 20
2.4961359724
 30
0.0
 10
18.8479205146
 20
2.502039262
 30
0.0
 10
18.8696279884
 20
2.5077096894
 30
0.0
 10
18.8901319192
 20
2.5146174031
 30
0.0
 10
18.9092410024
 20
2.5226998087
 30
0.0
 10
18.9267613161
 20
2.531880033
 30
0.0
 10
18.9375691452
 20
2.5388560269
 30
0.0
 10
18.9426323498
 20
2.5425143586
 30
0.0
  0
SPLINE
  5
37D
100
AcDbEntity
  8
0
100
AcDbSpline
 62
7
  6
CONTINUOUS
 70
0
 71
3
 72
18
 73
14
 74
0
 42
0.0000001
 43
0.0000001
 44
0.0000000001
 40
0.0
 40
0.0
 40
0.0
 40
0.0
 40
0.1795580721
 40
0.3432524811
 40
0.4900842633
 40
0.6198738718
 40
0.7332638894
 40
0.7843293502
 40
0.8320387539
 40
0.8768353639
 40
0.919280957
 40
0.9600681761
 40
1.0
 40
1.0
 40
1.0
 40
1.0
 10
16.282453654
 20
4.2312290394
 30
0.0
 10
16.280550069
 20
4.2257942737
 30
0.0
 10
16.2771889867
 20
4.2153034888
 30
0.0
 10
16.2733824835
 20
4.2000408553
 30
0.0
 10
16.2710782718
 20
4.1860888203
 30
0.0
 10
16.2702987671
 20
4.1735810405
 30
0.0
 10
16.2709502717
 20
4.1641245255
 30
0.0
 10
16.2723326773
 20
4.1574523755
 30
0.0
 10
16.2737194304
 20
4.1530523445
 30
0.0
 10
16.2754909642
 20
4.1490917539
 30
0.0
 10
16.2776482037
 20
4.1455826427
 30
0.0
 10
16.2801887037
 20
4.1425398233
 30
0.0
 10
16.2821414561
 20
4.1408217089
 30
0.0
 10
16.2831661612
 20
4.1400535998
 30
0.0
  0
SPLINE
  5
37E
100
AcDbEntity
  8
0
100
AcDbSpline
 62
7
  6
CONTINUOUS
 70
0
 71
3
 72
16
 73
12
 74
0
 42
0.0000001
 43
0.0000001
 44
0.0000000001
 40
0.0
 40
0.0
 40
0.0
 40
0.0
 40
0.1533775314
 40
0.2984626139
 40
0.434465739
 40
0.5614224674
 40
0.6799197823
 40
0.7911347285
 40
0.8969427213
 40
0.9486557605
 40
1.0
 40
1.0
 40
1.0
 40
1.0
 10
16.1443408551
 20
4.4998052713
 30
0.0
 10
16.1366174726
 20
4.5034614802
 30
0.0
 10
16.1218843039
 20
4.5112297389
 30
0.0
 10
16.1016324318
 20
4.5245627495
 30
0.0
 10
16.0840989587
 20
4.5391156258
 30
0.0
 10
16.0695350954
 20
4.554680799
 30
0.0
 10
16.0581549647
 20
4.5710684782
 30
0.0
 10
16.0501367034
 20
4.5880591726
 30
0.0
 10
16.0463705694
 20
4.6026599515
 30
0.0
 10
16.0452186446
 20
4.6142562056
 30
0.0
 10
16.0452468025
 20
4.6200104674
 30
0.0
 10
16.045409892
 20
4.622866344
 30
0.0
  0
SPLINE
  5
37F
100
AcDbEntity
  8
0
100
AcDbSpline
 62
7
  6
CONTINUOUS
 70
0
 71
3
 72
20
 73
16
 74
0
 42
0.0000001
 43
0.0000001
 44
0.0000000001
 40
0.0
 40
0.0
 40
0.0
 40
0.0
 40
0.0604697526
 40
0.1231006454
 40
0.1874639098
 40
0.2531685167
 40
0.3870094349
 40
0.5213183568
 40
0.6526477541
 40
0.7162107351
 40
0.7778566763
 40
0.8372834405
 40
0.8942524249
 40
0.9485541967
 40
1.0
 40
1.0
 40
1.0
 40
1.0
 10
18.5579251479
 20
1.9148749864
 30
0.0
 10
18.5645613529
 20
1.9117334417
 30
0.0
 10
18.5783120665
 20
1.9058376725
 30
0.0
 10
18.5997978385
 20
1.898278673
 30
0.0
 10
18.6223316414
 20
1.8919219383
 30
0.0
 10
18.6536550195
 20
1.8850919048
 30
0.0
 10
18.6939592297
 20
1.879931458
 30
0.0
 10
18.7425524855
 20
1.8791595179
 30
0.0
 10
18.7824359193
 20
1.8830742865
 30
0.0
 10
18.8130384272
 20
1.8889775761
 30
0.0
 10
18.8347459009
 20
1.8946480035
 30
0.0
 10
18.8552498318
 20
1.9015557172
 30
0.0
 10
18.874358915
 20
1.9096381228
 30
0.0
 10
18.8918792287
 20
1.9188183471
 30
0.0
 10
18.9026870578
 20
1.9257943411
 30
0.0
 10
18.9077502624
 20
1.9294526727
 30
0.0
  0
SPLINE
  5
380
100
AcDbEntity
  8
0
100
AcDbSpline
 62
7
  6
CONTINUOUS
 70
0
 71
3
 72
15
 73
11
 74
0
 42
0.0000001
 43
0.0000001
 44
0.0000000001
 40
0.0
 40
0.0
 40
0.0
 40
0.0
 40
0.1387518055
 40
0.2728642381
 40
0.4023702919
 40
0.5275882977
 40
0.6491371823
 40
0.7677828393
 40
0.8844140921
 40
1.0
 40
1.0
 40
1.0
 40
1.0
 10
18.9077502624
 20
1.9294526727
 30
0.0
 10
18.9074230033
 20
1.9237010105
 30
0.0
 10
18.9062989724
 20
1.9124100726
 30
0.0
 10
18.9031260936
 20
1.8959832441
 30
0.0
 10
18.8985091069
 20
1.880483193
 30
0.0
 10
18.8924734696
 20
1.8660395737
 30
0.0
 10
18.8850706384
 20
1.8527572924
 30
0.0
 10
18.876342533
 20
1.8407395433
 30
0.0
 10
18.8663620998
 20
1.8300773872
 30
0.0
 10
18.85890575
 20
1.8239151239
 30
0.0
 10
18.8550160746
 20
1.8211040806
 30
0.0
  0
SPLINE
  5
381
100
AcDbEntity
  8
0
100
AcDbSpline
 62
7
  6
CONTINUOUS
 70
0
 71
3
 72
15
 73
11
 74
0
 42
0.0000001
 43
0.0000001
 44
0.0000000001
 40
0.0
 40
0.0
 40
0.0
 40
0.0
 40
0.1422998857
 40
0.278767964
 40
0.4095545519
 40
0.5350122587
 40
0.6558305288
 40
0.772889919
 40
0.8872270416
 40
1.0
 40
1.0
 40
1.0
 40
1.0
 10
20.71571653
 20
3.235767687
 30
0.0
 10
20.7193665836
 20
3.2384049706
 30
0.0
 10
20.7263246778
 20
3.24384599
 30
0.0
 10
20.7358421236
 20
3.2526665291
 30
0.0
 10
20.7441619581
 20
3.2619239417
 30
0.0
 10
20.7512219034
 20
3.2715703379
 30
0.0
 10
20.7569834082
 20
3.2815481255
 30
0.0
 10
20.7614136757
 20
3.2918052763
 30
0.0
 10
20.7644784185
 20
3.3022849384
 30
0.0
 10
20.7656060212
 20
3.3094066327
 30
0.0
 10
20.7659343202
 20
3.3129602379
 30
0.0
  0
ENDSEC
  0
SECTION
  2
OBJECTS
  0
DICTIONARY
  5
C
100
AcDbDictionary
280
0
281
1
  3
ACAD_GROUP
350
D
  3
ACAD_MLINESTYLE
350
17
  3
ACAD_LAYOUT
350
1A
  3
ACAD_PLOTSETTINGS
350
19
  3
ACAD_PLOTSTYLENAME
350
E
  0
DICTIONARY
  5
D
102
{ACAD_REACTORS
330
C
102
}
100
AcDbDictionary
280
0
281
1
  0
ACDBDICTIONARYWDFLT
  5
E
102
{ACAD_REACTORS
330
C
102
}
100
AcDbDictionary
281
1
  3
Normal
350
F
100
AcDbDictionaryWithDefault
340
F
  0
DICTIONARY
  5
17
102
{ACAD_REACTORS
330
C
102
}
100
AcDbDictionary
280
0
281
1
  3
Standard
350
18
  0
DICTIONARY
  5
19
102
{ACAD_REACTORS
330
C
102
}
100
AcDbDictionary
281
1
  0
DICTIONARY
  5
1A
102
{ACAD_REACTORS
330
C
102
}
100
AcDbDictionary
281
1
  3
Model
350
382
  3
Layout1
350
383
  0
ACDBPLACEHOLDER
  5
F
102
{ACAD_REACTORS
330
E
102
}
  0
MLINESTYLE
  5
18
102
{ACAD_REACTORS
330
17
102
}
100
AcDbMlineStyle
  2
STANDARD
 70
0
  3

 62
256
 51
90.0
 52
90.0
 71
2
 49
0.5
 62
256
  6
BYLAYER
 49
-0.5
 62
256
  6
BYLAYER
  0
LAYOUT
  5
382
102
{ACAD_REACTORS
330
1A
102
}
100
AcDbPlotSettings
  1

  2
none_device
  4
ANSI_C_(22.00_x_17.00_Inches)
  6

 40
0.0
 41
0.0
 42
0.0
 43
0.0
 44
558.8
 45
431.8
 46
0.0
 47
0.0
 48
0.0
 49
0.0
140
0.0
141
0.0
142
1.0
143
1.0
 70
1024
 72
0
 73
0
 74
0
  7

 75
0
147
1.0
148
0.0
149
0.0
100
AcDbLayout
  1
Model
 70
0
 71
0
 10
0.0
 20
0.0
 11
22.0
 21
17.0
 12
0.0
 22
0.0
 32
0.0
 14
0.0
 24
0.0
 34
0.0
 15
0.0
 25
0.0
 35
0.0
146
0.0
 13
0.0
 23
0.0
 33
0.0
 16
1.0
 26
0.0
 36
0.0
 17
0.0
 27
1.0
 37
0.0
 76
0
330
209
345
0
346
0
  0
LAYOUT
  5
383
102
{ACAD_REACTORS
330
1A
102
}
100
AcDbPlotSettings
  1

  2
none_device
  4
ANSI_C_(22.00_x_17.00_Inches)
  6

 40
0.0
 41
0.0
 42
0.0
 43
0.0
 44
558.8
 45
431.8
 46
0.0
 47
0.0
 48
0.0
 49
0.0
140
0.0
141
0.0
142
1.0
143
1.0
 70
0
 72
0
 73
0
 74
0
  7

 75
0
147
1.0
148
0.0
149
0.0
100
AcDbLayout
  1
Layout1
 70
0
 71
1
 10
0.0
 20
0.0
 11
22.0
 21
17.0
 12
0.0
 22
0.0
 32
0.0
 14
0.0
 24
0.0
 34
0.0
 15
0.0
 25
0.0
 35
0.0
146
0.0
 13
0.0
 23
0.0
 33
0.0
 16
1.0
 26
0.0
 36
0.0
 17
0.0
 27
1.0
 37
0.0
 76
0
330
20A
345
0
346
0
  0
ENDSEC
  0
EOF
