  0
SECTION
  2
HEADER
  9
$ACADVER
  1
AC1015
  9
$ACADMAINTVER
 70
    18
  9
$DWGCODEPAGE
  3
ANSI_1252
  9
$INSBASE
 10
0.0
 20
0.0
 30
0.0
  9
$EXTMIN
 10
-0.0010375184955553
 20
-0.0006713354969798
 30
-0.0015258207003612
  9
$EXTMAX
 10
22.0012207792668
 20
17.00051884896936
 30
0.0000000349246008
  9
$LIMMIN
 10
0.0000000169183778
 20
0.000000006132197
  9
$LIMMAX
 10
34.00000001691838
 20
22.0000000061322
  9
$ORTHOMODE
 70
     1
  9
$REGENMODE
 70
     1
  9
$FILLMODE
 70
     1
  9
$QTEXTMODE
 70
     0
  9
$MIRRTEXT
 70
     1
  9
$LTSCALE
 40
0.5
  9
$ATTMODE
 70
     1
  9
$TEXTSIZE
 40
0.25
  9
$TRACEWID
 40
0.05
  9
$TEXTSTYLE
  7
WD
  9
$CLAYER
  8
0
  9
$CELTYPE
  6
ByLayer
  9
$CECOLOR
 62
   256
  9
$CELTSCALE
 40
1.0
  9
$DISPSILH
 70
     0
  9
$DIMSCALE
 40
1.0
  9
$DIMASZ
 40
0.18
  9
$DIMEXO
 40
0.0625
  9
$DIMDLI
 40
0.38
  9
$DIMRND
 40
0.0
  9
$DIMDLE
 40
0.0
  9
$DIMEXE
 40
0.18
  9
$DIMTP
 40
0.0
  9
$DIMTM
 40
0.0
  9
$DIMTXT
 40
0.125
  9
$DIMCEN
 40
0.09
  9
$DIMTSZ
 40
0.0
  9
$DIMTOL
 70
     0
  9
$DIMLIM
 70
     0
  9
$DIMTIH
 70
     1
  9
$DIMTOH
 70
     1
  9
$DIMSE1
 70
     0
  9
$DIMSE2
 70
     0
  9
$DIMTAD
 70
     0
  9
$DIMZIN
 70
     0
  9
$DIMBLK
  1

  9
$DIMASO
 70
     1
  9
$DIMSHO
 70
     1
  9
$DIMPOST
  1

  9
$DIMAPOST
  1

  9
$DIMALT
 70
     1
  9
$DIMALTD
 70
     2
  9
$DIMALTF
 40
25.4
  9
$DIMLFAC
 40
1.0
  9
$DIMTOFL
 70
     0
  9
$DIMTVP
 40
0.0
  9
$DIMTIX
 70
     0
  9
$DIMSOXD
 70
     0
  9
$DIMSAH
 70
     0
  9
$DIMBLK1
  1

  9
$DIMBLK2
  1

  9
$DIMSTYLE
  2
Standard
  9
$DIMCLRD
 70
     0
  9
$DIMCLRE
 70
     0
  9
$DIMCLRT
 70
     0
  9
$DIMTFAC
 40
1.0
  9
$DIMGAP
 40
0.09
  9
$DIMJUST
 70
     0
  9
$DIMSD1
 70
     0
  9
$DIMSD2
 70
     0
  9
$DIMTOLJ
 70
     1
  9
$DIMTZIN
 70
     0
  9
$DIMALTZ
 70
     0
  9
$DIMALTTZ
 70
     0
  9
$DIMUPT
 70
     0
  9
$DIMDEC
 70
     2
  9
$DIMTDEC
 70
     2
  9
$DIMALTU
 70
     2
  9
$DIMALTTD
 70
     2
  9
$DIMTXSTY
  7
Standard
  9
$DIMAUNIT
 70
     0
  9
$DIMADEC
 70
     0
  9
$DIMALTRND
 40
0.0
  9
$DIMAZIN
 70
     0
  9
$DIMDSEP
 70
    46
  9
$DIMATFIT
 70
     3
  9
$DIMFRAC
 70
     0
  9
$DIMLDRBLK
  1

  9
$DIMLUNIT
 70
     2
  9
$DIMLWD
 70
    -2
  9
$DIMLWE
 70
    -2
  9
$DIMTMOVE
 70
     0
  9
$LUNITS
 70
     2
  9
$LUPREC
 70
     4
  9
$SKETCHINC
 40
0.1
  9
$FILLETRAD
 40
0.0
  9
$AUNITS
 70
     0
  9
$AUPREC
 70
     0
  9
$MENU
  1
.
  9
$ELEVATION
 40
0.0
  9
$PELEVATION
 40
0.0
  9
$THICKNESS
 40
0.0
  9
$LIMCHECK
 70
     0
  9
$CHAMFERA
 40
0.5
  9
$CHAMFERB
 40
0.5
  9
$CHAMFERC
 40
1.0
  9
$CHAMFERD
 40
0.0
  9
$SKPOLY
 70
     0
  9
$TDCREATE
 40
2455646.343855880
  9
$TDUCREATE
 40
2455646.510522546
  9
$TDUPDATE
 40
2456008.642203322
  9
$TDUUPDATE
 40
2456008.808869989
  9
$TDINDWG
 40
1.8840240509
  9
$TDUSRTIMER
 40
1.8840240509
  9
$USRTIMER
 70
     1
  9
$ANGBASE
 50
0.0
  9
$ANGDIR
 70
     0
  9
$PDMODE
 70
     0
  9
$PDSIZE
 40
0.0
  9
$PLINEWID
 40
0.0
  9
$SPLFRAME
 70
     0
  9
$SPLINETYPE
 70
     6
  9
$SPLINESEGS
 70
     8
  9
$HANDSEED
  5
8986
  9
$SURFTAB1
 70
     6
  9
$SURFTAB2
 70
     6
  9
$SURFTYPE
 70
     6
  9
$SURFU
 70
     6
  9
$SURFV
 70
     6
  9
$UCSBASE
  2

  9
$UCSNAME
  2

  9
$UCSORG
 10
0.0
 20
0.0
 30
0.0
  9
$UCSXDIR
 10
1.0
 20
0.0
 30
0.0
  9
$UCSYDIR
 10
0.0
 20
1.0
 30
0.0
  9
$UCSORTHOREF
  2

  9
$UCSORTHOVIEW
 70
     1
  9
$UCSORGTOP
 10
0.0
 20
0.0
 30
0.0
  9
$UCSORGBOTTOM
 10
0.0
 20
0.0
 30
0.0
  9
$UCSORGLEFT
 10
0.0
 20
0.0
 30
0.0
  9
$UCSORGRIGHT
 10
0.0
 20
0.0
 30
0.0
  9
$UCSORGFRONT
 10
0.0
 20
0.0
 30
0.0
  9
$UCSORGBACK
 10
0.0
 20
0.0
 30
0.0
  9
$PUCSBASE
  2

  9
$PUCSNAME
  2

  9
$PUCSORG
 10
0.0
 20
0.0
 30
0.0
  9
$PUCSXDIR
 10
1.0
 20
0.0
 30
0.0
  9
$PUCSYDIR
 10
0.0
 20
1.0
 30
0.0
  9
$PUCSORTHOREF
  2

  9
$PUCSORTHOVIEW
 70
     0
  9
$PUCSORGTOP
 10
0.0
 20
0.0
 30
0.0
  9
$PUCSORGBOTTOM
 10
0.0
 20
0.0
 30
0.0
  9
$PUCSORGLEFT
 10
0.0
 20
0.0
 30
0.0
  9
$PUCSORGRIGHT
 10
0.0
 20
0.0
 30
0.0
  9
$PUCSORGFRONT
 10
0.0
 20
0.0
 30
0.0
  9
$PUCSORGBACK
 10
0.0
 20
0.0
 30
0.0
  9
$USERI1
 70
     0
  9
$USERI2
 70
     0
  9
$USERI3
 70
     0
  9
$USERI4
 70
     0
  9
$USERI5
 70
     0
  9
$USERR1
 40
0.0
  9
$USERR2
 40
0.0
  9
$USERR3
 40
0.0
  9
$USERR4
 40
0.0
  9
$USERR5
 40
0.0
  9
$WORLDVIEW
 70
     1
  9
$SHADEDGE
 70
     3
  9
$SHADEDIF
 70
    70
  9
$TILEMODE
 70
     1
  9
$MAXACTVP
 70
    64
  9
$PINSBASE
 10
0.0
 20
0.0
 30
0.0
  9
$PLIMCHECK
 70
     0
  9
$PEXTMIN
 10
1.000000000000000E+20
 20
1.000000000000000E+20
 30
1.000000000000000E+20
  9
$PEXTMAX
 10
-1.000000000000000E+20
 20
-1.000000000000000E+20
 30
-1.000000000000000E+20
  9
$PLIMMIN
 10
0.0
 20
0.0
  9
$PLIMMAX
 10
12.0
 20
9.0
  9
$UNITMODE
 70
     0
  9
$VISRETAIN
 70
     1
  9
$PLINEGEN
 70
     0
  9
$PSLTSCALE
 70
     1
  9
$TREEDEPTH
 70
  3020
  9
$CMLSTYLE
  2
Standard
  9
$CMLJUST
 70
     0
  9
$CMLSCALE
 40
1.0
  9
$PROXYGRAPHICS
 70
     1
  9
$MEASUREMENT
 70
     0
  9
$CELWEIGHT
370
    -1
  9
$ENDCAPS
280
     0
  9
$JOINSTYLE
280
     0
  9
$LWDISPLAY
290
     0
  9
$INSUNITS
 70
     0
  9
$HYPERLINKBASE
  1

  9
$STYLESHEET
  1
monochromeII.ctb
  9
$XEDIT
290
     1
  9
$CEPSNTYPE
380
     0
  9
$PSTYLEMODE
290
     1
  9
$FINGERPRINTGUID
  2
{64101CB1-6290-486C-808A-919D98B85827}
  9
$VERSIONGUID
  2
{C946DB61-A2C8-474F-A60D-7B972CDF6636}
  9
$EXTNAMES
290
     1
  9
$PSVPSCALE
 40
0.0
  9
$OLESTARTUP
290
     0
  0
ENDSEC
  0
SECTION
  2
CLASSES
  0
CLASS
  1
ACDBDICTIONARYWDFLT
  2
AcDbDictionaryWithDefault
  3
ObjectDBX Classes
 90
        0
280
     0
281
     0
  0
CLASS
  1
ACDBPLACEHOLDER
  2
AcDbPlaceHolder
  3
ObjectDBX Classes
 90
        0
280
     0
281
     0
  0
CLASS
  1
LAYOUT
  2
AcDbLayout
  3
ObjectDBX Classes
 90
        0
280
     0
281
     0
  0
CLASS
  1
MATERIAL
  2
AcDbMaterial
  3
ObjectDBX Classes
 90
     1153
280
     0
281
     0
  0
CLASS
  1
VISUALSTYLE
  2
AcDbVisualStyle
  3
ObjectDBX Classes
 90
     4095
280
     0
281
     0
  0
CLASS
  1
TABLESTYLE
  2
AcDbTableStyle
  3
ObjectDBX Classes
 90
     4095
280
     0
281
     0
  0
CLASS
  1
SCALE
  2
AcDbScale
  3
ObjectDBX Classes
 90
     1153
280
     0
281
     0
  0
CLASS
  1
MLEADERSTYLE
  2
AcDbMLeaderStyle
  3
ACDB_MLEADERSTYLE_CLASS
 90
     4095
280
     0
281
     0
  0
CLASS
  1
CELLSTYLEMAP
  2
AcDbCellStyleMap
  3
ObjectDBX Classes
 90
     1152
280
     0
281
     0
  0
CLASS
  1
DICTIONARYVAR
  2
AcDbDictionaryVar
  3
ObjectDBX Classes
 90
        0
280
     0
281
     0
  0
CLASS
  1
SORTENTSTABLE
  2
AcDbSortentsTable
  3
ObjectDBX Classes
 90
        0
280
     0
281
     0
  0
CLASS
  1
ACAD_EVALUATION_GRAPH
  2
AcDbEvalGraph
  3
ObjectDBX Classes
 90
    33921
280
     0
281
     0
  0
CLASS
  1
ACAECUSTOBJ
  2
AcAeEditorObj
  3
AcAeEditorObj
 90
    33792
280
     0
281
     0
  0
CLASS
  1
ACDB_DYNAMICBLOCKPURGEPREVENTER_VERSION
  2
AcDbDynamicBlockPurgePreventer
  3
ObjectDBX Classes
 90
    33921
280
     0
281
     0
  0
CLASS
  1
AEC_REFEDIT_STATUS_TRACKER
  2
AecDbRefEditStatusTracker
  3
AecArchBase60|Product Desc: Autodesk Architectural Desktop 2007 |Company: Autodesk,Inc. |WEB Address: www.autodesk.com
 90
    32897
280
     0
281
     0
  0
CLASS
  1
NPOCOLLECTION
  2
AcDbImpNonPersistentObjectsCollection
  3
ObjectDBX Classes
 90
    33921
280
     0
281
     0
  0
CLASS
  1
ACAD_TABLE
  2
AcDbTable
  3
ObjectDBX Classes
 90
    33793
280
     0
281
     1
  0
CLASS
  1
ACDBDATATABLE
  2
AcDbDataTable
  3
AcMapAnnotObj|Product Desc:     AutoCAD MAP DBX App for Annotation Entity|Company:          Autodesk,Inc.|WEB Address:      www.autodesk.com
 90
    32768
280
     0
281
     0
  0
CLASS
  1
ACSH_HISTORY_CLASS
  2
AcDbShHistory
  3
ObjectDBX Classes
 90
    33921
280
     0
281
     0
  0
CLASS
  1
ACDBASSOCPERSSUBENTMANAGER
  2
AcDbAssocPersSubentManager
  3
ObjectDBX Classes
 90
     1024
280
     0
281
     0
  0
CLASS
  1
SOLID_BACKGROUND
  2
AcDbSolidBackground
  3
SCENEOE
 90
    36863
280
     0
281
     0
  0
CLASS
  1
ACSH_EXTRUSION_CLASS
  2
AcDbShExtrusion
  3
ObjectDBX Classes
 90
    33921
280
     0
281
     0
  0
CLASS
  1
ACSH_BOOLEAN_CLASS
  2
AcDbShBoolean
  3
ObjectDBX Classes
 90
    33921
280
     0
281
     0
  0
CLASS
  1
ACDBPERSSUBENTMANAGER
  2
AcDbPersSubentManager
  3
AcDbPersSubentManager
 90
     1024
280
     0
281
     0
  0
CLASS
  1
WIPEOUT
  2
AcDbWipeout
  3
"WipeOut|Product Desc: Object Enabler for WipeOut entity                        |Company: Autodesk, Inc.                        |WEB Address: www.autodesk.com"
 90
    34943
280
     0
281
     1
  0
CLASS
  1
WIPEOUTVARIABLES
  2
AcDbWipeoutVariables
  3
"WipeOut|Product Desc:     WipeOut Dbx Application|Company:          Autodesk, Inc.|WEB Address:      www.autodesk.com"
 90
        0
280
     0
281
     0
  0
ENDSEC
  0
SECTION
  2
TABLES
  0
TABLE
  2
VPORT
  5
8
102
{ACAD_XDICTIONARY
360
181
102
}
330
0
100
AcDbSymbolTable
 70
     1
  0
VPORT
  5
31
330
8
100
AcDbSymbolTableRecord
100
AcDbViewportTableRecord
  2
*Active
 70
     0
 10
0.0
 20
0.0
 11
1.0
 21
1.0
 12
-5.914299373871354
 22
-2.047130436363575
 13
0.0
 23
0.0
 14
0.0625
 24
0.0625
 15
0.25
 25
0.25
 16
0.0
 26
0.0
 36
1.0
 17
16.91439100425697
 27
10.54705419309976
 37
4.013960091384387
 40
17.20358530570998
 41
1.477137176938369
 42
50.0
 43
0.0
 44
0.0
 50
0.0
 51
0.0
 71
     0
 72
  1000
 73
     1
 74
     2
 75
     0
 76
     1
 77
     0
 78
     0
281
     0
 65
     1
110
0.0
120
0.0
130
0.0
111
1.0
121
0.0
131
0.0
112
0.0
122
1.0
132
0.0
 79
     0
146
0.0
  0
ENDTAB
  0
TABLE
  2
LTYPE
  5
5
330
0
100
AcDbSymbolTable
 70
     2
  0
LTYPE
  5
14
330
5
100
AcDbSymbolTableRecord
100
AcDbLinetypeTableRecord
  2
ByBlock
 70
     0
  3

 72
    65
 73
     0
 40
0.0
  0
LTYPE
  5
15
330
5
100
AcDbSymbolTableRecord
100
AcDbLinetypeTableRecord
  2
ByLayer
 70
     0
  3

 72
    65
 73
     0
 40
0.0
  0
LTYPE
  5
16
330
5
100
AcDbSymbolTableRecord
100
AcDbLinetypeTableRecord
  2
Continuous
 70
     0
  3
Solid line
 72
    65
 73
     0
 40
0.0
  0
LTYPE
  5
7339
330
5
100
AcDbSymbolTableRecord
100
AcDbLinetypeTableRecord
  2
$INVISIBLE
 70
     0
  3
$INVISIBLE
 72
    65
 73
     2
 40
13.33333333333333
 49
-6.666666666666666
 74
     0
 49
-6.666666666666666
 74
     0
  0
ENDTAB
  0
TABLE
  2
LAYER
  5
2
102
{ACAD_XDICTIONARY
360
107
102
}
330
0
100
AcDbSymbolTable
 70
     4
  0
LAYER
  5
10
102
{ACAD_XDICTIONARY
360
17C
102
}
330
2
100
AcDbSymbolTableRecord
100
AcDbLayerTableRecord
  2
0
 70
     0
 62
     7
  6
Continuous
370
    -3
390
F
  0
LAYER
  5
6876
330
2
100
AcDbSymbolTableRecord
100
AcDbLayerTableRecord
  2
DIM
 70
     0
 62
     1
  6
Continuous
370
    -3
390
F
  0
LAYER
  5
6878
330
2
100
AcDbSymbolTableRecord
100
AcDbLayerTableRecord
  2
Defpoints
 70
     0
 62
     7
  6
Continuous
290
     0
370
    -3
390
F
  0
LAYER
  5
7B02
330
2
100
AcDbSymbolTableRecord
100
AcDbLayerTableRecord
  2
TEXT
 70
     0
 62
     2
  6
Continuous
370
    -3
390
F
1001
AcAecLayerStandard
1000

1000

1001
AcCmTransparency
1071
        0
  0
ENDTAB
  0
TABLE
  2
STYLE
  5
3
330
0
100
AcDbSymbolTable
 70
     2
  0
STYLE
  5
11
330
3
100
AcDbSymbolTableRecord
100
AcDbTextStyleTableRecord
  2
Standard
 70
     0
 40
0.0
 41
0.8
 50
0.0
 71
     0
 42
0.25
  3
txt
  4

  0
STYLE
  5
8931
330
3
100
AcDbSymbolTableRecord
100
AcDbTextStyleTableRecord
  2
WD
 70
     0
 40
0.0
 41
1.0
 50
0.0
 71
     0
 42
0.25
  3
txt.shx
  4

  0
ENDTAB
  0
TABLE
  2
VIEW
  5
6
330
0
100
AcDbSymbolTable
 70
     0
  0
ENDTAB
  0
TABLE
  2
UCS
  5
7
330
0
100
AcDbSymbolTable
 70
     0
  0
ENDTAB
  0
TABLE
  2
APPID
  5
9
330
0
100
AcDbSymbolTable
 70
   103
  0
APPID
  5
12
330
9
100
AcDbSymbolTableRecord
100
AcDbRegAppTableRecord
  2
ACAD
 70
     0
  0
APPID
  5
84
330
9
100
AcDbSymbolTableRecord
100
AcDbRegAppTableRecord
  2
ACAD_MLEADERVER
 70
     0
  0
APPID
  5
104
330
9
100
AcDbSymbolTableRecord
100
AcDbRegAppTableRecord
  2
AcDbBlockRepETag
 70
     0
  0
APPID
  5
105
330
9
100
AcDbSymbolTableRecord
100
AcDbRegAppTableRecord
  2
AcDbDynamicBlockGUID
 70
     0
  0
APPID
  5
106
330
9
100
AcDbSymbolTableRecord
100
AcDbRegAppTableRecord
  2
ACAD_PSEXT
 70
     0
  0
APPID
  5
388
330
9
100
AcDbSymbolTableRecord
100
AcDbRegAppTableRecord
  2
AcadAnnotative
 70
     0
  0
APPID
  5
389
330
9
100
AcDbSymbolTableRecord
100
AcDbRegAppTableRecord
  2
ACAD_DSTYLE_DIMJAG
 70
     0
  0
APPID
  5
38A
330
9
100
AcDbSymbolTableRecord
100
AcDbRegAppTableRecord
  2
ACAD_DSTYLE_DIMTALN
 70
     0
  0
APPID
  5
38B
330
9
100
AcDbSymbolTableRecord
100
AcDbRegAppTableRecord
  2
AcadAnnoPO
 70
     0
  0
APPID
  5
4DD
330
9
100
AcDbSymbolTableRecord
100
AcDbRegAppTableRecord
  2
AcDbAttr
 70
     0
  0
APPID
  5
A19
330
9
100
AcDbSymbolTableRecord
100
AcDbRegAppTableRecord
  2
RE-TLINK
 70
     0
  0
APPID
  5
A1A
330
9
100
AcDbSymbolTableRecord
100
AcDbRegAppTableRecord
  2
N8SOL-TLINK
 70
     0
  0
APPID
  5
A1B
330
9
100
AcDbSymbolTableRecord
100
AcDbRegAppTableRecord
  2
VIA_WD_TAGFMT
 70
     0
  0
APPID
  5
A1C
330
9
100
AcDbSymbolTableRecord
100
AcDbRegAppTableRecord
  2
VIA_WD_BASETAG
 70
     0
  0
APPID
  5
A1D
330
9
100
AcDbSymbolTableRecord
100
AcDbRegAppTableRecord
  2
VIA_WD_HDL
 70
     0
  0
APPID
  5
1000
330
9
100
AcDbSymbolTableRecord
100
AcDbRegAppTableRecord
  2
ACAD_EXEMPT_FROM_CAD_STANDARDS
 70
     0
  0
APPID
  5
1744
330
9
100
AcDbSymbolTableRecord
100
AcDbRegAppTableRecord
  2
AcAecLayerStandard
 70
     0
  0
APPID
  5
2631
330
9
100
AcDbSymbolTableRecord
100
AcDbRegAppTableRecord
  2
DCO15
 70
     0
  0
APPID
  5
280F
330
9
100
AcDbSymbolTableRecord
100
AcDbRegAppTableRecord
  2
ACAUTHENVIRON
 70
     0
  0
APPID
  5
2813
330
9
100
AcDbSymbolTableRecord
100
AcDbRegAppTableRecord
  2
AcDbDynamicBlockTrueName
 70
     0
  0
APPID
  5
2AA1
330
9
100
AcDbSymbolTableRecord
100
AcDbRegAppTableRecord
  2
VIA_WD_ASSYCODE
 70
     0
  0
APPID
  5
2AA2
330
9
100
AcDbSymbolTableRecord
100
AcDbRegAppTableRecord
  2
ACAD_DSTYLE_DIMTEXT_FILL
 70
     0
  0
APPID
  5
2AA3
330
9
100
AcDbSymbolTableRecord
100
AcDbRegAppTableRecord
  2
AcDbBlockRepBTag
 70
     0
  0
APPID
  5
2ACC
330
9
100
AcDbSymbolTableRecord
100
AcDbRegAppTableRecord
  2
VIA_WD_FP
 70
     0
  0
APPID
  5
2ACD
330
9
100
AcDbSymbolTableRecord
100
AcDbRegAppTableRecord
  2
VIA_WD_DESC1
 70
     0
  0
APPID
  5
2ACE
330
9
100
AcDbSymbolTableRecord
100
AcDbRegAppTableRecord
  2
VIA_WD_DESC2
 70
     0
  0
APPID
  5
2ACF
330
9
100
AcDbSymbolTableRecord
100
AcDbRegAppTableRecord
  2
VIA_WD_DESC3
 70
     0
  0
APPID
  5
2AD0
330
9
100
AcDbSymbolTableRecord
100
AcDbRegAppTableRecord
  2
VIA_WD_INST
 70
     0
  0
APPID
  5
2AD1
330
9
100
AcDbSymbolTableRecord
100
AcDbRegAppTableRecord
  2
VIA_WD_LOC
 70
     0
  0
APPID
  5
2AD2
330
9
100
AcDbSymbolTableRecord
100
AcDbRegAppTableRecord
  2
VIA_WD_MFG
 70
     0
  0
APPID
  5
2AD3
330
9
100
AcDbSymbolTableRecord
100
AcDbRegAppTableRecord
  2
VIA_WD_CAT
 70
     0
  0
APPID
  5
2AD4
330
9
100
AcDbSymbolTableRecord
100
AcDbRegAppTableRecord
  2
VIA_WD_CNT
 70
     0
  0
APPID
  5
2AD5
330
9
100
AcDbSymbolTableRecord
100
AcDbRegAppTableRecord
  2
VIA_WD_UM
 70
     0
  0
APPID
  5
2AD6
330
9
100
AcDbSymbolTableRecord
100
AcDbRegAppTableRecord
  2
VIA_WD_WDBLKNAM
 70
     0
  0
APPID
  5
2AD7
330
9
100
AcDbSymbolTableRecord
100
AcDbRegAppTableRecord
  2
VIA_WD_MOUNT
 70
     0
  0
APPID
  5
2AD8
330
9
100
AcDbSymbolTableRecord
100
AcDbRegAppTableRecord
  2
VIA_WD_GROUPWITH
 70
     0
  0
APPID
  5
2AD9
330
9
100
AcDbSymbolTableRecord
100
AcDbRegAppTableRecord
  2
VIA_WD_P_ITEM
 70
     0
  0
APPID
  5
2ADA
330
9
100
AcDbSymbolTableRecord
100
AcDbRegAppTableRecord
  2
VIA_WD_ITEM_FLAG
 70
     0
  0
APPID
  5
32E0
330
9
100
AcDbSymbolTableRecord
100
AcDbRegAppTableRecord
  2
VIA_WD_ASSYCODE03
 70
     0
  0
APPID
  5
32E1
330
9
100
AcDbSymbolTableRecord
100
AcDbRegAppTableRecord
  2
VIA_WD_CNT03
 70
     0
  0
APPID
  5
32E2
330
9
100
AcDbSymbolTableRecord
100
AcDbRegAppTableRecord
  2
VIA_WD_UM03
 70
     0
  0
APPID
  5
32E3
330
9
100
AcDbSymbolTableRecord
100
AcDbRegAppTableRecord
  2
VIA_WD_ITEM03
 70
     0
  0
APPID
  5
32E4
330
9
100
AcDbSymbolTableRecord
100
AcDbRegAppTableRecord
  2
VIA_WD_ITEM_FLAG03
 70
     0
  0
APPID
  5
32E5
330
9
100
AcDbSymbolTableRecord
100
AcDbRegAppTableRecord
  2
VIA_WD_ASSYCODE02
 70
     0
  0
APPID
  5
32E6
330
9
100
AcDbSymbolTableRecord
100
AcDbRegAppTableRecord
  2
VIA_WD_CNT02
 70
     0
  0
APPID
  5
32E7
330
9
100
AcDbSymbolTableRecord
100
AcDbRegAppTableRecord
  2
VIA_WD_UM02
 70
     0
  0
APPID
  5
32E8
330
9
100
AcDbSymbolTableRecord
100
AcDbRegAppTableRecord
  2
VIA_WD_ITEM02
 70
     0
  0
APPID
  5
32E9
330
9
100
AcDbSymbolTableRecord
100
AcDbRegAppTableRecord
  2
VIA_WD_ITEM_FLAG02
 70
     0
  0
APPID
  5
32EA
330
9
100
AcDbSymbolTableRecord
100
AcDbRegAppTableRecord
  2
VIA_WD_ASSYCODE01
 70
     0
  0
APPID
  5
32EB
330
9
100
AcDbSymbolTableRecord
100
AcDbRegAppTableRecord
  2
VIA_WD_CNT01
 70
     0
  0
APPID
  5
32EC
330
9
100
AcDbSymbolTableRecord
100
AcDbRegAppTableRecord
  2
VIA_WD_UM01
 70
     0
  0
APPID
  5
32ED
330
9
100
AcDbSymbolTableRecord
100
AcDbRegAppTableRecord
  2
VIA_WD_ITEM01
 70
     0
  0
APPID
  5
32EE
330
9
100
AcDbSymbolTableRecord
100
AcDbRegAppTableRecord
  2
VIA_WD_ITEM_FLAG01
 70
     0
  0
APPID
  5
333F
330
9
100
AcDbSymbolTableRecord
100
AcDbRegAppTableRecord
  2
VIA_WD_BALLPARAMS
 70
     0
  0
APPID
  5
3343
330
9
100
AcDbSymbolTableRecord
100
AcDbRegAppTableRecord
  2
VIA_WD_BALLPTR
 70
     0
  0
APPID
  5
3344
330
9
100
AcDbSymbolTableRecord
100
AcDbRegAppTableRecord
  2
VIA_WD_BALLPTR01
 70
     0
  0
APPID
  5
3345
330
9
100
AcDbSymbolTableRecord
100
AcDbRegAppTableRecord
  2
VIA_WD_BAL
 70
     0
  0
APPID
  5
3349
330
9
100
AcDbSymbolTableRecord
100
AcDbRegAppTableRecord
  2
VIA_WD_BALLPTR02
 70
     0
  0
APPID
  5
334D
330
9
100
AcDbSymbolTableRecord
100
AcDbRegAppTableRecord
  2
VIA_WD_BALLPTR03
 70
     0
  0
APPID
  5
3678
330
9
100
AcDbSymbolTableRecord
100
AcDbRegAppTableRecord
  2
ACE_TABLE_WDTYPE
 70
     0
  0
APPID
  5
3679
330
9
100
AcDbSymbolTableRecord
100
AcDbRegAppTableRecord
  2
ACE_TABLE_SETTINGS
 70
     0
  0
APPID
  5
367A
330
9
100
AcDbSymbolTableRecord
100
AcDbRegAppTableRecord
  2
ACE_TABLE_TOGGLES
 70
     0
  0
APPID
  5
367B
330
9
100
AcDbSymbolTableRecord
100
AcDbRegAppTableRecord
  2
ACE_TABLE_BOMDSPLST
 70
     0
  0
APPID
  5
367C
330
9
100
AcDbSymbolTableRecord
100
AcDbRegAppTableRecord
  2
ACE_TABLE_BOMDESC
 70
     0
  0
APPID
  5
367D
330
9
100
AcDbSymbolTableRecord
100
AcDbRegAppTableRecord
  2
ACE_TABLE_FLDNAMS1
 70
     0
  0
APPID
  5
367E
330
9
100
AcDbSymbolTableRecord
100
AcDbRegAppTableRecord
  2
ACE_TABLE_CALCCOLWID
 70
     0
  0
APPID
  5
367F
330
9
100
AcDbSymbolTableRecord
100
AcDbRegAppTableRecord
  2
ACE_TABLE_PROJECT
 70
     0
  0
APPID
  5
3680
330
9
100
AcDbSymbolTableRecord
100
AcDbRegAppTableRecord
  2
ACE_TABLE_BUILDUP
 70
     0
  0
APPID
  5
3681
330
9
100
AcDbSymbolTableRecord
100
AcDbRegAppTableRecord
  2
ACE_TABLE_BORDER
 70
     0
  0
APPID
  5
3682
330
9
100
AcDbSymbolTableRecord
100
AcDbRegAppTableRecord
  2
ACE_TABLE_INCTITLE
 70
     0
  0
APPID
  5
3683
330
9
100
AcDbSymbolTableRecord
100
AcDbRegAppTableRecord
  2
ACE_TABLE_INCTIMEDATE
 70
     0
  0
APPID
  5
3684
330
9
100
AcDbSymbolTableRecord
100
AcDbRegAppTableRecord
  2
ACE_TABLE_INCPROJECT
 70
     0
  0
APPID
  5
3685
330
9
100
AcDbSymbolTableRecord
100
AcDbRegAppTableRecord
  2
ACE_TABLE_INCLABELS
 70
     0
  0
APPID
  5
3686
330
9
100
AcDbSymbolTableRecord
100
AcDbRegAppTableRecord
  2
ACE_TABLE_TITLEONE
 70
     0
  0
APPID
  5
3687
330
9
100
AcDbSymbolTableRecord
100
AcDbRegAppTableRecord
  2
ACE_TABLE_LABELONE
 70
     0
  0
APPID
  5
3688
330
9
100
AcDbSymbolTableRecord
100
AcDbRegAppTableRecord
  2
ACE_TABLE_INCBLOCK
 70
     0
  0
APPID
  5
3689
330
9
100
AcDbSymbolTableRecord
100
AcDbRegAppTableRecord
  2
ACE_TABLE_INCREPORT
 70
     0
  0
APPID
  5
368A
330
9
100
AcDbSymbolTableRecord
100
AcDbRegAppTableRecord
  2
ACE_TABLE_BLKNAM
 70
     0
  0
APPID
  5
368B
330
9
100
AcDbSymbolTableRecord
100
AcDbRegAppTableRecord
  2
ACE_TABLE_RPTLST
 70
     0
  0
APPID
  5
368C
330
9
100
AcDbSymbolTableRecord
100
AcDbRegAppTableRecord
  2
ACE_TABLE_TYPE
 70
     0
  0
APPID
  5
368D
330
9
100
AcDbSymbolTableRecord
100
AcDbRegAppTableRecord
  2
ACE_TABLE_SET
 70
     0
  0
APPID
  5
368E
330
9
100
AcDbSymbolTableRecord
100
AcDbRegAppTableRecord
  2
ACE_TABLE_SECTION
 70
     0
  0
APPID
  5
368F
330
9
100
AcDbSymbolTableRecord
100
AcDbRegAppTableRecord
  2
ACE_TABLE_1STROW
 70
     0
  0
APPID
  5
3690
330
9
100
AcDbSymbolTableRecord
100
AcDbRegAppTableRecord
  2
ACE_TABLE_INDEXLST
 70
     0
  0
APPID
  5
3691
330
9
100
AcDbSymbolTableRecord
100
AcDbRegAppTableRecord
  2
ACE_TABLE_TABLEN
 70
     0
  0
APPID
  5
3692
330
9
100
AcDbSymbolTableRecord
100
AcDbRegAppTableRecord
  2
ACE_TABLE_BEGIN
 70
     0
  0
APPID
  5
3693
330
9
100
AcDbSymbolTableRecord
100
AcDbRegAppTableRecord
  2
ACE_TABLE_END
 70
     0
  0
APPID
  5
3694
330
9
100
AcDbSymbolTableRecord
100
AcDbRegAppTableRecord
  2
ACE_TABLE_MAXROWS
 70
     0
  0
APPID
  5
3695
330
9
100
AcDbSymbolTableRecord
100
AcDbRegAppTableRecord
  2
ACE_TABLE_MAXTBLS
 70
     0
  0
APPID
  5
3696
330
9
100
AcDbSymbolTableRecord
100
AcDbRegAppTableRecord
  2
ACE_TABLE_TBL2TBLX
 70
     0
  0
APPID
  5
3697
330
9
100
AcDbSymbolTableRecord
100
AcDbRegAppTableRecord
  2
ACE_TABLE_TBL2TBLY
 70
     0
  0
APPID
  5
3698
330
9
100
AcDbSymbolTableRecord
100
AcDbRegAppTableRecord
  2
ACE_TABLE_FORCEROWS
 70
     0
  0
APPID
  5
3699
330
9
100
AcDbSymbolTableRecord
100
AcDbRegAppTableRecord
  2
ACE_TABLE_COLNUMS
 70
     0
  0
APPID
  5
369A
330
9
100
AcDbSymbolTableRecord
100
AcDbRegAppTableRecord
  2
ACE_TABLE_LNSP
 70
     0
  0
APPID
  5
3ED3
330
9
100
AcDbSymbolTableRecord
100
AcDbRegAppTableRecord
  2
RAK
 70
     0
  0
APPID
  5
4643
330
9
100
AcDbSymbolTableRecord
100
AcDbRegAppTableRecord
  2
ACAD_DSTYLE_DIMBREAK
 70
     0
  0
APPID
  5
4644
330
9
100
AcDbSymbolTableRecord
100
AcDbRegAppTableRecord
  2
VIA_WD_P_TAG1
 70
     0
  0
APPID
  5
4DD5
330
9
100
AcDbSymbolTableRecord
100
AcDbRegAppTableRecord
  2
ACADSTEP
 70
     0
  0
APPID
  5
4E71
330
9
100
AcDbSymbolTableRecord
100
AcDbRegAppTableRecord
  2
ACAD_DSTYLE_DIMJOGGED_JOGANGLE_SYMBOL
 70
     0
  0
APPID
  5
549B
330
9
100
AcDbSymbolTableRecord
100
AcDbRegAppTableRecord
  2
VIA_WD_WDBLKNAM01
 70
     0
  0
APPID
  5
549C
330
9
100
AcDbSymbolTableRecord
100
AcDbRegAppTableRecord
  2
VIA_WD_WDBLKNAM02
 70
     0
  0
APPID
  5
6895
330
9
100
AcDbSymbolTableRecord
100
AcDbRegAppTableRecord
  2
TCAD
 70
     0
  0
APPID
  5
7B03
330
9
100
AcDbSymbolTableRecord
100
AcDbRegAppTableRecord
  2
AcCmTransparency
 70
     0
  0
ENDTAB
  0
TABLE
  2
DIMSTYLE
  5
A
330
0
100
AcDbSymbolTable
 70
     1
100
AcDbDimStyleTable
 71
     1
340
27
  0
DIMSTYLE
105
27
102
{ACAD_REACTORS
330
72F1
330
72FF
330
770B
330
7719
102
}
330
A
100
AcDbSymbolTableRecord
100
AcDbDimStyleTableRecord
  2
Standard
 70
     0
140
0.125
170
     1
271
     2
272
     2
340
11
1001
ACAD_DSTYLE_DIMJAG
1070
   388
1040
1.5
1001
ACAD_DSTYLE_DIMTALN
1070
   392
1070
     0
  0
ENDTAB
  0
TABLE
  2
BLOCK_RECORD
  5
1
330
0
100
AcDbSymbolTable
 70
     5
  0
BLOCK_RECORD
  5
1F
102
{ACAD_XDICTIONARY
360
17A
102
}
330
1
100
AcDbSymbolTableRecord
100
AcDbBlockTableRecord
  2
*Model_Space
340
22
  0
BLOCK_RECORD
  5
1B
330
1
100
AcDbSymbolTableRecord
100
AcDbBlockTableRecord
  2
*Paper_Space
340
1E
  0
BLOCK_RECORD
  5
23
330
1
100
AcDbSymbolTableRecord
100
AcDbBlockTableRecord
  2
*Paper_Space0
340
26
  0
BLOCK_RECORD
  5
72F2
330
1
100
AcDbSymbolTableRecord
100
AcDbBlockTableRecord
  2
*D1
340
0
  0
BLOCK_RECORD
  5
7300
330
1
100
AcDbSymbolTableRecord
100
AcDbBlockTableRecord
  2
*D2
340
0
  0
BLOCK_RECORD
  5
770C
330
1
100
AcDbSymbolTableRecord
100
AcDbBlockTableRecord
  2
*D3
340
0
  0
BLOCK_RECORD
  5
771A
330
1
100
AcDbSymbolTableRecord
100
AcDbBlockTableRecord
  2
*D4
340
0
  0
ENDTAB
  0
ENDSEC
  0
SECTION
  2
BLOCKS
  0
BLOCK
  5
20
330
1F
100
AcDbEntity
  8
0
100
AcDbBlockBegin
  2
*Model_Space
 70
     2
 10
0.0
 20
0.0
 30
0.0
  3
*Model_Space
  1

  0
ENDBLK
  5
21
330
1F
100
AcDbEntity
  8
0
100
AcDbBlockEnd
  0
BLOCK
  5
1C
330
1B
100
AcDbEntity
 67
     1
  8
0
100
AcDbBlockBegin
  2
*Paper_Space
 70
     0
 10
0.0
 20
0.0
 30
0.0
  3
*Paper_Space
  1

  0
ENDBLK
  5
1D
330
1B
100
AcDbEntity
 67
     1
  8
0
100
AcDbBlockEnd
  0
BLOCK
  5
24
330
23
100
AcDbEntity
 67
     1
  8
0
100
AcDbBlockBegin
  2
*Paper_Space0
 70
     0
 10
0.0
 20
0.0
 30
0.0
  3
*Paper_Space0
  1

  0
ENDBLK
  5
25
330
23
100
AcDbEntity
 67
     1
  8
0
100
AcDbBlockEnd
  0
BLOCK
  5
72F3
330
72F2
100
AcDbEntity
  8
0
100
AcDbBlockBegin
  2
*D1
 70
     1
 10
0.0
 20
0.0
 30
0.0
  3
*D1
  1

  0
LINE
  5
87F2
330
72F2
100
AcDbEntity
  8
DIM
 62
     0
370
    -2
100
AcDbLine
 10
8.385249226183418
 20
9.143710603151932
 30
0.0
 11
9.423359585900056
 21
9.143710603151932
 31
0.0
  0
LINE
  5
87F3
330
72F2
100
AcDbEntity
  8
DIM
 62
     0
370
    -2
100
AcDbLine
 10
8.34082323051362
 20
2.609037341713077
 30
0.0
 11
9.423359585900055
 21
2.609037341713076
 31
0.0
  0
LINE
  5
87F4
330
72F2
100
AcDbEntity
  8
DIM
 62
     0
370
    -2
100
AcDbLine
 10
9.243359585900057
 20
8.963710603151932
 30
0.0
 11
9.243359585900057
 21
6.028873972432507
 31
0.0
  0
LINE
  5
87F5
330
72F2
100
AcDbEntity
  8
DIM
 62
     0
370
    -2
100
AcDbLine
 10
9.243359585900055
 20
2.789037341713076
 30
0.0
 11
9.243359585900057
 21
5.723873972432508
 31
0.0
  0
SOLID
  5
87F6
330
72F2
100
AcDbEntity
  8
DIM
 62
     0
100
AcDbTrace
 10
9.213359585900057
 20
8.963710603151932
 30
0.0
 11
9.273359585900056
 21
8.963710603151932
 31
0.0
 12
9.243359585900057
 22
9.143710603151932
 32
0.0
 13
9.243359585900057
 23
9.143710603151932
 33
0.0
  0
SOLID
  5
87F7
330
72F2
100
AcDbEntity
  8
DIM
 62
     0
100
AcDbTrace
 10
9.213359585900056
 20
2.789037341713076
 30
0.0
 11
9.273359585900054
 21
2.789037341713076
 31
0.0
 12
9.243359585900055
 22
2.609037341713076
 32
0.0
 13
9.243359585900055
 23
2.609037341713076
 33
0.0
  0
MTEXT
  5
87F8
330
72F2
100
AcDbEntity
  8
DIM
 62
     0
100
AcDbMText
 10
9.243359585900055
 20
5.876373972432508
 30
0.0
 40
0.125
 41
0.0
 71
     5
 72
     1
  1
\A1;6.53 [165.98]
 73
     1
 44
1.0
1001
ACAD
1000
MTEXTBEGIN
1070
    73
1070
     1
1070
    44
1040
1.0
1070
    74
1070
     0
1000
MTEXTEND
  0
POINT
  5
87F9
330
72F2
100
AcDbEntity
  8
Defpoints
 62
     0
100
AcDbPoint
 10
8.322749226183418
 20
9.143710603151932
 30
0.0
  0
POINT
  5
87FA
330
72F2
100
AcDbEntity
  8
Defpoints
 62
     0
100
AcDbPoint
 10
8.27832323051362
 20
2.609037341713077
 30
0.0
  0
POINT
  5
87FB
330
72F2
100
AcDbEntity
  8
Defpoints
 62
     0
100
AcDbPoint
 10
9.243359585900055
 20
2.609037341713076
 30
0.0
  0
ENDBLK
  5
72F4
330
72F2
100
AcDbEntity
  8
0
100
AcDbBlockEnd
  0
BLOCK
  5
7301
330
7300
100
AcDbEntity
  8
0
100
AcDbBlockBegin
  2
*D2
 70
     1
 10
0.0
 20
0.0
 30
0.0
  3
*D2
  1

  0
LINE
  5
87FC
330
7300
100
AcDbEntity
  8
DIM
 62
     0
370
    -2
100
AcDbLine
 10
3.891768375888641
 20
9.085149050554926
 30
0.0
 11
3.891768375888641
 21
9.973520567017271
 31
0.0
  0
LINE
  5
87FD
330
7300
100
AcDbEntity
  8
DIM
 62
     0
370
    -2
100
AcDbLine
 10
8.540791411311893
 20
7.441067374717576
 30
0.0
 11
8.540791411311893
 21
9.973520567017271
 31
0.0
  0
LINE
  5
87FE
330
7300
100
AcDbEntity
  8
DIM
 62
     0
370
    -2
100
AcDbLine
 10
4.071768375888641
 20
9.793520567017271
 30
0.0
 11
5.525592134369363
 21
9.793520567017271
 31
0.0
  0
LINE
  5
87FF
330
7300
100
AcDbEntity
  8
DIM
 62
     0
370
    -2
100
AcDbLine
 10
8.360791411311893
 20
9.793520567017271
 30
0.0
 11
6.688925467702697
 21
9.793520567017271
 31
0.0
  0
SOLID
  5
8800
330
7300
100
AcDbEntity
  8
DIM
 62
     0
100
AcDbTrace
 10
4.071768375888641
 20
9.82352056701727
 30
0.0
 11
4.071768375888641
 21
9.763520567017272
 31
0.0
 12
3.891768375888641
 22
9.793520567017271
 32
0.0
 13
3.891768375888641
 23
9.793520567017271
 33
0.0
  0
SOLID
  5
8801
330
7300
100
AcDbEntity
  8
DIM
 62
     0
100
AcDbTrace
 10
8.360791411311893
 20
9.82352056701727
 30
0.0
 11
8.360791411311893
 21
9.763520567017272
 31
0.0
 12
8.540791411311893
 22
9.793520567017271
 32
0.0
 13
8.540791411311893
 23
9.793520567017271
 33
0.0
  0
MTEXT
  5
8802
330
7300
100
AcDbEntity
  8
DIM
 62
     0
100
AcDbMText
 10
6.10725880103603
 20
9.793520567017271
 30
0.0
 40
0.125
 41
0.0
 71
     5
 72
     1
  1
\A1;4.65 [118.09]
 73
     1
 44
1.0
1001
ACAD
1000
MTEXTBEGIN
1070
    73
1070
     1
1070
    44
1040
1.0
1070
    74
1070
     0
1000
MTEXTEND
  0
POINT
  5
8803
330
7300
100
AcDbEntity
  8
Defpoints
 62
     0
100
AcDbPoint
 10
3.891768375888641
 20
9.022649050554926
 30
0.0
  0
POINT
  5
8804
330
7300
100
AcDbEntity
  8
Defpoints
 62
     0
100
AcDbPoint
 10
8.540791411311893
 20
7.378567374717576
 30
0.0
  0
POINT
  5
8805
330
7300
100
AcDbEntity
  8
Defpoints
 62
     0
100
AcDbPoint
 10
8.540791411311893
 20
9.793520567017271
 30
0.0
  0
ENDBLK
  5
7302
330
7300
100
AcDbEntity
  8
0
100
AcDbBlockEnd
  0
BLOCK
  5
770D
330
770C
100
AcDbEntity
  8
0
100
AcDbBlockBegin
  2
*D3
 70
     1
 10
0.0
 20
0.0
 30
0.0
  3
*D3
  1

  0
LINE
  5
8806
330
770C
100
AcDbEntity
  8
DIM
 62
     0
370
    -2
100
AcDbLine
 10
10.17293593365899
 20
8.965320950416082
 30
0.0
 11
10.17293593365899
 21
9.971851041075172
 31
0.0
  0
LINE
  5
8807
330
770C
100
AcDbEntity
  8
DIM
 62
     0
370
    -2
100
AcDbLine
 10
11.827064066341
 20
8.965320950416082
 30
0.0
 11
11.827064066341
 21
9.971851041075172
 31
0.0
  0
LINE
  5
8808
330
770C
100
AcDbEntity
  8
DIM
 62
     0
370
    -2
100
AcDbLine
 10
10.35293593365899
 20
9.791851041075172
 30
0.0
 11
10.46833333333333
 21
9.791851041075172
 31
0.0
  0
LINE
  5
8809
330
770C
100
AcDbEntity
  8
DIM
 62
     0
370
    -2
100
AcDbLine
 10
11.647064066341
 20
9.791851041075172
 30
0.0
 11
11.53166666666666
 21
9.791851041075172
 31
0.0
  0
SOLID
  5
880A
330
770C
100
AcDbEntity
  8
DIM
 62
     0
100
AcDbTrace
 10
10.35293593365899
 20
9.821851041075172
 30
0.0
 11
10.35293593365899
 21
9.761851041075173
 31
0.0
 12
10.17293593365899
 22
9.791851041075172
 32
0.0
 13
10.17293593365899
 23
9.791851041075172
 33
0.0
  0
SOLID
  5
880B
330
770C
100
AcDbEntity
  8
DIM
 62
     0
100
AcDbTrace
 10
11.647064066341
 20
9.821851041075172
 30
0.0
 11
11.647064066341
 21
9.761851041075173
 31
0.0
 12
11.827064066341
 22
9.791851041075172
 32
0.0
 13
11.827064066341
 23
9.791851041075172
 33
0.0
  0
MTEXT
  5
880C
330
770C
100
AcDbEntity
  8
DIM
 62
     0
100
AcDbMText
 10
11.0
 20
9.791851041075172
 30
0.0
 40
0.125
 41
0.0
 71
     5
 72
     1
  1
\A1;1.65 [42.01]
 73
     1
 44
1.0
1001
ACAD
1000
MTEXTBEGIN
1070
    73
1070
     1
1070
    44
1040
1.0
1070
    74
1070
     0
1000
MTEXTEND
  0
POINT
  5
880D
330
770C
100
AcDbEntity
  8
Defpoints
 62
     0
100
AcDbPoint
 10
10.17293593365899
 20
8.902820950416082
 30
0.0
  0
POINT
  5
880E
330
770C
100
AcDbEntity
  8
Defpoints
 62
     0
100
AcDbPoint
 10
11.827064066341
 20
8.902820950416082
 30
0.0
  0
POINT
  5
880F
330
770C
100
AcDbEntity
  8
Defpoints
 62
     0
100
AcDbPoint
 10
11.827064066341
 20
9.791851041075172
 30
0.0
  0
ENDBLK
  5
770E
330
770C
100
AcDbEntity
  8
0
100
AcDbBlockEnd
  0
BLOCK
  5
771B
330
771A
100
AcDbEntity
  8
0
100
AcDbBlockBegin
  2
*D4
 70
     1
 10
0.0
 20
0.0
 30
0.0
  3
*D4
  1

  0
LINE
  5
8810
330
771A
100
AcDbEntity
  8
DIM
 62
     0
370
    -2
100
AcDbLine
 10
10.110435933659
 20
15.89856683287208
 30
0.0
 11
9.09603546334314
 21
15.89856683287208
 31
0.0
  0
LINE
  5
8811
330
771A
100
AcDbEntity
  8
DIM
 62
     0
370
    -2
100
AcDbLine
 10
10.93720708365899
 20
11.24899256618979
 30
0.0
 11
9.096035463343138
 21
11.24899256618979
 31
0.0
  0
LINE
  5
8812
330
771A
100
AcDbEntity
  8
DIM
 62
     0
370
    -2
100
AcDbLine
 10
9.27603546334314
 20
15.71856683287208
 30
0.0
 11
9.27603546334314
 21
13.72627969953093
 31
0.0
  0
LINE
  5
8813
330
771A
100
AcDbEntity
  8
DIM
 62
     0
370
    -2
100
AcDbLine
 10
9.276035463343138
 20
11.42899256618979
 30
0.0
 11
9.27603546334314
 21
13.42127969953093
 31
0.0
  0
SOLID
  5
8814
330
771A
100
AcDbEntity
  8
DIM
 62
     0
100
AcDbTrace
 10
9.24603546334314
 20
15.71856683287208
 30
0.0
 11
9.306035463343139
 21
15.71856683287208
 31
0.0
 12
9.27603546334314
 22
15.89856683287208
 32
0.0
 13
9.27603546334314
 23
15.89856683287208
 33
0.0
  0
SOLID
  5
8815
330
771A
100
AcDbEntity
  8
DIM
 62
     0
100
AcDbTrace
 10
9.246035463343138
 20
11.42899256618979
 30
0.0
 11
9.306035463343137
 21
11.42899256618979
 31
0.0
 12
9.276035463343138
 22
11.24899256618979
 32
0.0
 13
9.276035463343138
 23
11.24899256618979
 33
0.0
  0
MTEXT
  5
8816
330
771A
100
AcDbEntity
  8
DIM
 62
     0
100
AcDbMText
 10
9.276035463343136
 20
13.57377969953094
 30
0.0
 40
0.125
 41
0.0
 71
     5
 72
     1
  1
\A1;4.65 [118.10]
 73
     1
 44
1.0
1001
ACAD
1000
MTEXTBEGIN
1070
    73
1070
     1
1070
    44
1040
1.0
1070
    74
1070
     0
1000
MTEXTEND
  0
POINT
  5
8817
330
771A
100
AcDbEntity
  8
Defpoints
 62
     0
100
AcDbPoint
 10
10.17293593365899
 20
15.89856683287208
 30
0.0
  0
POINT
  5
8818
330
771A
100
AcDbEntity
  8
Defpoints
 62
     0
100
AcDbPoint
 10
10.999707083659
 20
11.24899256618979
 30
0.0
  0
POINT
  5
8819
330
771A
100
AcDbEntity
  8
Defpoints
 62
     0
100
AcDbPoint
 10
9.276035463343138
 20
11.24899256618979
 30
0.0
  0
ENDBLK
  5
771C
330
771A
100
AcDbEntity
  8
0
100
AcDbBlockEnd
  0
ENDSEC
  0
SECTION
  2
ENTITIES
  0
LINE
  5
6A69
330
1F
100
AcDbEntity
  8
0
100
AcDbLine
 10
17.94685326970336
 20
2.607859462836926
 30
0.0
 11
18.10823162411135
 21
2.607859462836926
 31
0.0
1001
ACAD
1000
TCW40_DEV_WIDTH
1002
{
1040
-3.0
1002
}
  0
LINE
  5
6A6A
330
1F
100
AcDbEntity
  8
0
100
AcDbLine
 10
18.10823162411135
 20
2.607859462836926
 30
0.0
 11
18.10823162411135
 21
9.022649050554926
 31
0.0
1001
ACAD
1000
TCW40_DEV_WIDTH
1002
{
1040
-3.0
1002
}
  0
ELLIPSE
  5
6A6B
330
1F
100
AcDbEntity
  8
0
100
AcDbEllipse
 10
17.86616409249937
 20
2.728893228642927
 30
0.0
 11
0.0
 21
-0.4841350632240001
 31
0.0
210
0.0
220
0.0
230
1.0
 40
0.1666666666666666
 41
1.570796326794896
 42
4.712388980384689
1001
ACAD
1000
TCW40_DEV_WIDTH
1002
{
1040
-3.0
1002
}
  0
LINE
  5
6A6C
330
1F
100
AcDbEntity
  8
0
100
AcDbLine
 10
17.78547491529536
 20
2.728893228642927
 30
0.0
 11
17.69469959094087
 21
2.728893228642927
 31
0.0
1001
ACAD
1000
TCW40_DEV_WIDTH
1002
{
1040
-3.0
1002
}
  0
LINE
  5
6A6D
330
1F
100
AcDbEntity
  8
0
100
AcDbLine
 10
17.53332123653287
 20
2.728893228642927
 30
0.0
 11
17.4414173366363
 21
2.728893228642927
 31
0.0
1001
ACAD
1000
TCW40_DEV_WIDTH
1002
{
1040
-3.0
1002
}
  0
LINE
  5
6A6E
330
1F
100
AcDbEntity
  8
0
100
AcDbLine
 10
17.28229613331246
 20
2.728893228642927
 30
0.0
 11
17.18926365787378
 21
2.728893228642927
 31
0.0
1001
ACAD
1000
TCW40_DEV_WIDTH
1002
{
1040
-3.0
1002
}
  0
LINE
  5
6A6F
330
1F
100
AcDbEntity
  8
0
100
AcDbLine
 10
17.03014245454993
 20
2.728893228642927
 30
0.0
 11
16.93710997911128
 21
2.728893228642927
 31
0.0
1001
ACAD
1000
TCW40_DEV_WIDTH
1002
{
1040
-3.0
1002
}
  0
LINE
  5
6A70
330
1F
100
AcDbEntity
  8
0
100
AcDbLine
 10
16.77798877578743
 20
2.728893228642927
 30
0.0
 11
16.68495630034878
 21
2.728893228642927
 31
0.0
1001
ACAD
1000
TCW40_DEV_WIDTH
1002
{
1040
-3.0
1002
}
  0
LINE
  5
6A71
330
1F
100
AcDbEntity
  8
0
100
AcDbLine
 10
16.52583509702494
 20
2.728893228642927
 30
0.0
 11
16.43280262158629
 21
2.728893228642927
 31
0.0
1001
ACAD
1000
TCW40_DEV_WIDTH
1002
{
1040
-3.0
1002
}
  0
LINE
  5
6A72
330
1F
100
AcDbEntity
  8
0
100
AcDbLine
 10
16.27368141826245
 20
2.728893228642927
 30
0.0
 11
16.18177751836588
 21
2.728893228642927
 31
0.0
1001
ACAD
1000
TCW40_DEV_WIDTH
1002
{
1040
-3.0
1002
}
  0
LINE
  5
6A73
330
1F
100
AcDbEntity
  8
0
100
AcDbLine
 10
16.02039916395785
 20
2.728893228642927
 30
0.0
 11
15.92962383960335
 21
2.728893228642927
 31
0.0
1001
ACAD
1000
TCW40_DEV_WIDTH
1002
{
1040
-3.0
1002
}
  0
LINE
  5
6A74
330
1F
100
AcDbEntity
  8
0
100
AcDbLine
 10
15.76824548519536
 20
2.728893228642927
 30
0.0
 11
15.67747016084086
 21
2.728893228642927
 31
0.0
1001
ACAD
1000
TCW40_DEV_WIDTH
1002
{
1040
-3.0
1002
}
  0
LINE
  5
6A75
330
1F
100
AcDbEntity
  8
0
100
AcDbLine
 10
15.51609180643287
 20
2.728893228642927
 30
0.0
 11
15.42531648207836
 21
2.728893228642927
 31
0.0
1001
ACAD
1000
TCW40_DEV_WIDTH
1002
{
1040
-3.0
1002
}
  0
LINE
  5
6A76
330
1F
100
AcDbEntity
  8
0
100
AcDbLine
 10
15.26393812767037
 20
2.728893228642927
 30
0.0
 11
15.17316280331587
 21
2.728893228642927
 31
0.0
1001
ACAD
1000
TCW40_DEV_WIDTH
1002
{
1040
-3.0
1002
}
  0
LINE
  5
6A77
330
1F
100
AcDbEntity
  8
0
100
AcDbLine
 10
17.94685326970336
 20
2.728893228642927
 30
0.0
 11
17.94685326970336
 21
2.607859462836926
 31
0.0
1001
ACAD
1000
TCW40_DEV_WIDTH
1002
{
1040
-3.0
1002
}
  0
ELLIPSE
  5
6A78
330
1F
100
AcDbEntity
  8
0
100
AcDbEllipse
 10
17.61401041373686
 20
2.728893228642927
 30
0.0
 11
0.0
 21
-0.4841350632240001
 31
0.0
210
0.0
220
0.0
230
1.0
 40
0.1666666666666666
 41
1.570796326794896
 42
4.712388980384689
1001
ACAD
1000
TCW40_DEV_WIDTH
1002
{
1040
-3.0
1002
}
  0
ELLIPSE
  5
6A79
330
1F
100
AcDbEntity
  8
0
100
AcDbEllipse
 10
17.36185673497437
 20
2.728893228642927
 30
0.0
 11
0.0
 21
-0.4841350632240001
 31
0.0
210
0.0
220
0.0
230
1.0
 40
0.1666666666666666
 41
1.570796326794896
 42
4.712388980384689
1001
ACAD
1000
TCW40_DEV_WIDTH
1002
{
1040
-3.0
1002
}
  0
ELLIPSE
  5
6A7A
330
1F
100
AcDbEntity
  8
0
100
AcDbEllipse
 10
17.10970305621187
 20
2.728893228642927
 30
0.0
 11
0.0
 21
-0.4841350632240001
 31
0.0
210
0.0
220
0.0
230
1.0
 40
0.1666666666666666
 41
1.570796326794896
 42
4.712388980384689
1001
ACAD
1000
TCW40_DEV_WIDTH
1002
{
1040
-3.0
1002
}
  0
ELLIPSE
  5
6A7B
330
1F
100
AcDbEntity
  8
0
100
AcDbEllipse
 10
16.85754937744937
 20
2.728893228642927
 30
0.0
 11
0.0
 21
-0.4841350632240001
 31
0.0
210
0.0
220
0.0
230
1.0
 40
0.1666666666666666
 41
1.570796326794896
 42
4.712388980384689
1001
ACAD
1000
TCW40_DEV_WIDTH
1002
{
1040
-3.0
1002
}
  0
ELLIPSE
  5
6A7C
330
1F
100
AcDbEntity
  8
0
100
AcDbEllipse
 10
16.60539569868685
 20
2.728893228642927
 30
0.0
 11
0.0
 21
-0.4841350632240001
 31
0.0
210
0.0
220
0.0
230
1.0
 40
0.1666666666666666
 41
1.570796326794896
 42
4.712388980384689
1001
ACAD
1000
TCW40_DEV_WIDTH
1002
{
1040
-3.0
1002
}
  0
ELLIPSE
  5
6A7D
330
1F
100
AcDbEntity
  8
0
100
AcDbEllipse
 10
16.35324201992436
 20
2.728893228642927
 30
0.0
 11
0.0
 21
-0.4841350632240001
 31
0.0
210
0.0
220
0.0
230
1.0
 40
0.1666666666666666
 41
1.570796326794896
 42
4.712388980384689
1001
ACAD
1000
TCW40_DEV_WIDTH
1002
{
1040
-3.0
1002
}
  0
ELLIPSE
  5
6A7E
330
1F
100
AcDbEntity
  8
0
100
AcDbEllipse
 10
16.10108834116187
 20
2.728893228642927
 30
0.0
 11
0.0
 21
-0.4841350632240001
 31
0.0
210
0.0
220
0.0
230
1.0
 40
0.1666666666666666
 41
1.570796326794896
 42
4.712388980384689
1001
ACAD
1000
TCW40_DEV_WIDTH
1002
{
1040
-3.0
1002
}
  0
ELLIPSE
  5
6A7F
330
1F
100
AcDbEntity
  8
0
100
AcDbEllipse
 10
15.84893466239937
 20
2.728893228642927
 30
0.0
 11
0.0
 21
-0.4841350632240001
 31
0.0
210
0.0
220
0.0
230
1.0
 40
0.1666666666666666
 41
1.570796326794896
 42
4.712388980384689
1001
ACAD
1000
TCW40_DEV_WIDTH
1002
{
1040
-3.0
1002
}
  0
ELLIPSE
  5
6A80
330
1F
100
AcDbEntity
  8
0
100
AcDbEllipse
 10
15.59678098363687
 20
2.728893228642927
 30
0.0
 11
0.0
 21
-0.4841350632240001
 31
0.0
210
0.0
220
0.0
230
1.0
 40
0.1666666666666666
 41
1.570796326794896
 42
4.712388980384689
1001
ACAD
1000
TCW40_DEV_WIDTH
1002
{
1040
-3.0
1002
}
  0
ELLIPSE
  5
6A81
330
1F
100
AcDbEntity
  8
0
100
AcDbEllipse
 10
15.34462730487436
 20
2.728893228642927
 30
0.0
 11
0.0
 21
-0.4841350632240001
 31
0.0
210
0.0
220
0.0
230
1.0
 40
0.1666666666666666
 41
1.570796326794896
 42
4.712388980384689
1001
ACAD
1000
TCW40_DEV_WIDTH
1002
{
1040
-3.0
1002
}
  0
ELLIPSE
  5
6A82
330
1F
100
AcDbEntity
  8
0
100
AcDbEllipse
 10
15.09247362611186
 20
2.728893228642927
 30
0.0
 11
0.0
 21
-0.4841350632239993
 31
0.0
210
0.0
220
0.0
230
1.0
 40
0.1666666666666667
 41
1.570796326794896
 42
4.70381489399169
1001
ACAD
1000
TCW40_DEV_WIDTH
1002
{
1040
-3.0
1002
}
  0
ELLIPSE
  5
6A83
330
1F
100
AcDbEntity
  8
0
100
AcDbEllipse
 10
14.84031994734937
 20
2.708720934341926
 30
0.0
 11
0.0
 21
-0.4841350632240007
 31
0.0
210
0.0
220
0.0
230
1.0
 40
0.1666666666666674
 41
1.615351533028356
 42
4.695535778282224
1001
ACAD
1000
TCW40_DEV_WIDTH
1002
{
1040
-3.0
1002
}
  0
ELLIPSE
  5
6A84
330
1F
100
AcDbEntity
  8
0
100
AcDbEllipse
 10
14.58816626858687
 20
2.688548640040926
 30
0.0
 11
0.0
 21
-0.4841350632239999
 31
0.0
210
0.0
220
0.0
230
1.0
 40
0.1666666666666651
 41
1.603716497224721
 42
4.739650694325459
1001
ACAD
1000
TCW40_DEV_WIDTH
1002
{
1040
-3.0
1002
}
  0
ELLIPSE
  5
6A85
330
1F
100
AcDbEntity
  8
0
100
AcDbEllipse
 10
14.33601258982435
 20
2.648204051438926
 30
0.0
 11
0.0
 21
-0.4841350632240002
 31
0.0
210
0.0
220
0.0
230
1.0
 40
0.1666666666666643
 41
1.595391793617908
 42
4.733845799639416
1001
ACAD
1000
TCW40_DEV_WIDTH
1002
{
1040
-3.0
1002
}
  0
ELLIPSE
  5
6A86
330
1F
100
AcDbEntity
  8
0
100
AcDbEllipse
 10
14.08385891106186
 20
2.628031757137926
 30
0.0
 11
0.0
 21
-0.4841350632240009
 31
0.0
210
0.0
220
0.0
230
1.0
 40
0.1666666666666652
 41
1.570587995500844
 42
4.739223749283191
1001
ACAD
1000
TCW40_DEV_WIDTH
1002
{
1040
-3.0
1002
}
  0
LWPOLYLINE
  5
6A87
330
1F
100
AcDbEntity
  8
0
100
AcDbPolyline
 90
        2
 70
     0
 43
0.0
 10
13.87488142516568
 20
2.609037341713077
 42
0.0072910558792085
 10
14.00319878444731
 20
2.615041663769781
  0
LWPOLYLINE
  5
6A88
330
1F
100
AcDbEntity
  8
0
100
AcDbPolyline
 90
        2
 70
     0
 43
0.0
 10
14.16454808651482
 20
2.627930896654437
 42
0.0051836372337704
 10
14.25534198635836
 20
2.637816849971362
  0
LWPOLYLINE
  5
6A89
330
1F
100
AcDbEntity
  8
0
100
AcDbPolyline
 90
        2
 70
     0
 43
0.0
 10
14.41521962108078
 20
2.659881657085294
 42
0.0053110407206134
 10
14.50750707366639
 20
2.675351923215989
  0
LWPOLYLINE
  5
6A8A
330
1F
100
AcDbEntity
  8
0
100
AcDbPolyline
 90
        2
 70
     0
 43
0.0
 10
14.66724041403523
 20
2.704237998665841
 42
-0.0098390854573083
 10
14.76100614521709
 20
2.717039104758936
  0
LWPOLYLINE
  5
6A8B
330
1F
100
AcDbEntity
  8
0
100
AcDbPolyline
 90
        2
 70
     0
 43
0.0
 10
14.91919198944532
 20
2.730198261262674
 42
-0.009761046724293
 10
15.01303347733854
 20
2.733058155088769
  0
LWPOLYLINE
  5
6A8C
330
1F
100
AcDbEntity
  8
0
100
AcDbPolyline
 90
        2
 70
     0
 43
0.0
 10
15.17316274474191
 20
2.729476574442142
 42
-0.0010502966732702
 10
15.18324895046636
 20
2.728893228642927
  0
ELLIPSE
  5
6A8D
330
1F
100
AcDbEntity
  8
0
100
AcDbEllipse
 10
16.35324201992436
 20
2.648204051438926
 30
0.0
 11
0.0
 21
-0.4841350632239992
 31
0.0
210
0.0
220
0.0
230
1.0
 40
0.1666666666666656
 41
1.738244406014585
 42
4.544940901165
1001
ACAD
1000
TCW40_DEV_WIDTH
1002
{
1040
-3.0
1002
}
  0
ELLIPSE
  5
6A8E
330
1F
100
AcDbEntity
  8
0
100
AcDbEllipse
 10
16.60539569868685
 20
2.648204051438926
 30
0.0
 11
0.0
 21
-0.4841350632239992
 31
0.0
210
0.0
220
0.0
230
1.0
 40
0.1666666666666656
 41
1.738244406014585
 42
4.544940901165
1001
ACAD
1000
TCW40_DEV_WIDTH
1002
{
1040
-3.0
1002
}
  0
ELLIPSE
  5
6A8F
330
1F
100
AcDbEntity
  8
0
100
AcDbEllipse
 10
16.85754937744937
 20
2.648204051438926
 30
0.0
 11
0.0
 21
-0.4841350632239992
 31
0.0
210
0.0
220
0.0
230
1.0
 40
0.1666666666666656
 41
1.738244406014585
 42
4.544940901165
1001
ACAD
1000
TCW40_DEV_WIDTH
1002
{
1040
-3.0
1002
}
  0
ELLIPSE
  5
6A90
330
1F
100
AcDbEntity
  8
0
100
AcDbEllipse
 10
16.10108834116187
 20
2.648204051438926
 30
0.0
 11
0.0
 21
-0.4841350632239992
 31
0.0
210
0.0
220
0.0
230
1.0
 40
0.1666666666666656
 41
1.738244406014585
 42
4.544940901165
1001
ACAD
1000
TCW40_DEV_WIDTH
1002
{
1040
-3.0
1002
}
  0
ELLIPSE
  5
6A91
330
1F
100
AcDbEntity
  8
0
100
AcDbEllipse
 10
15.84893466239937
 20
2.648204051438926
 30
0.0
 11
0.0
 21
-0.4841350632239992
 31
0.0
210
0.0
220
0.0
230
1.0
 40
0.1666666666666656
 41
1.738244406014585
 42
4.544940901165
1001
ACAD
1000
TCW40_DEV_WIDTH
1002
{
1040
-3.0
1002
}
  0
ELLIPSE
  5
6A92
330
1F
100
AcDbEntity
  8
0
100
AcDbEllipse
 10
15.34462730487436
 20
2.648204051438926
 30
0.0
 11
0.0
 21
-0.4841350632239992
 31
0.0
210
0.0
220
0.0
230
1.0
 40
0.1666666666666656
 41
1.738244406014585
 42
4.544940901165
1001
ACAD
1000
TCW40_DEV_WIDTH
1002
{
1040
-3.0
1002
}
  0
ELLIPSE
  5
6A93
330
1F
100
AcDbEntity
  8
0
100
AcDbEllipse
 10
15.09247362611186
 20
2.648204051438926
 30
0.0
 11
0.0
 21
-0.4841350632240006
 31
0.0
210
0.0
220
0.0
230
1.0
 40
0.1666666666666648
 41
1.738244406014585
 42
4.536209495863717
1001
ACAD
1000
TCW40_DEV_WIDTH
1002
{
1040
-3.0
1002
}
  0
ELLIPSE
  5
6A94
330
1F
100
AcDbEntity
  8
0
100
AcDbEllipse
 10
14.84031994734937
 20
2.628031757137926
 30
0.0
 11
0.0
 21
-0.4841350632239997
 31
0.0
210
0.0
220
0.0
230
1.0
 40
0.1666666666666676
 41
1.783423802199356
 42
4.527489045910998
1001
ACAD
1000
TCW40_DEV_WIDTH
1002
{
1040
-3.0
1002
}
  0
ELLIPSE
  5
6A95
330
1F
100
AcDbEntity
  8
0
100
AcDbEllipse
 10
14.58816626857767
 20
2.607859462836926
 30
0.0
 11
0.0
 21
-0.4841350632239992
 31
0.0
210
0.0
220
0.0
230
1.0
 40
0.1666666666666656
 41
1.771208890231334
 42
4.544940901165
1001
ACAD
1000
TCW40_DEV_WIDTH
1002
{
1040
-3.0
1002
}
  0
ELLIPSE
  5
6A96
330
1F
100
AcDbEntity
  8
0
100
AcDbEllipse
 10
14.33601258981518
 20
2.567514874234926
 30
0.0
 11
0.0
 21
-0.4841350632239992
 31
0.0
210
0.0
220
0.0
230
1.0
 40
0.1666666666666656
 41
1.762760361692611
 42
4.544940901165
1001
ACAD
1000
TCW40_DEV_WIDTH
1002
{
1040
-3.0
1002
}
  0
ELLIPSE
  5
6A97
330
1F
100
AcDbEntity
  8
0
100
AcDbEllipse
 10
14.08385891105266
 20
2.547342579933926
 30
0.0
 11
0.0
 21
-0.4841350632239992
 31
0.0
210
0.0
220
0.0
230
1.0
 40
0.1666666666666656
 41
1.738244406014585
 42
4.544940901165
1001
ACAD
1000
TCW40_DEV_WIDTH
1002
{
1040
-3.0
1002
}
  0
ELLIPSE
  5
6A98
330
1F
100
AcDbEntity
  8
0
100
AcDbEllipse
 10
17.10970305621187
 20
2.648204051438926
 30
0.0
 11
0.0
 21
-0.4841350632239992
 31
0.0
210
0.0
220
0.0
230
1.0
 40
0.1666666666666656
 41
1.738244406014585
 42
4.544940901165
1001
ACAD
1000
TCW40_DEV_WIDTH
1002
{
1040
-3.0
1002
}
  0
ELLIPSE
  5
6A99
330
1F
100
AcDbEntity
  8
0
100
AcDbEllipse
 10
17.36185673497437
 20
2.648204051438926
 30
0.0
 11
0.0
 21
-0.4841350632239992
 31
0.0
210
0.0
220
0.0
230
1.0
 40
0.1666666666666656
 41
1.738244406014585
 42
4.544940901165
1001
ACAD
1000
TCW40_DEV_WIDTH
1002
{
1040
-3.0
1002
}
  0
ELLIPSE
  5
6A9A
330
1F
100
AcDbEntity
  8
0
100
AcDbEllipse
 10
17.61401041373686
 20
2.648204051438926
 30
0.0
 11
0.0
 21
-0.4841350632239992
 31
0.0
210
0.0
220
0.0
230
1.0
 40
0.1666666666666656
 41
1.738244406014585
 42
4.544940901165
1001
ACAD
1000
TCW40_DEV_WIDTH
1002
{
1040
-3.0
1002
}
  0
ELLIPSE
  5
6A9B
330
1F
100
AcDbEntity
  8
0
100
AcDbEllipse
 10
17.86616409249937
 20
2.648204051438926
 30
0.0
 11
0.0
 21
-0.4841350632239992
 31
0.0
210
0.0
220
0.0
230
1.0
 40
0.1666666666666656
 41
1.738244406014585
 42
4.544940901165
1001
ACAD
1000
TCW40_DEV_WIDTH
1002
{
1040
-3.0
1002
}
  0
ELLIPSE
  5
6A9C
330
1F
100
AcDbEntity
  8
0
100
AcDbEllipse
 10
15.59678098363687
 20
2.648204051438926
 30
0.0
 11
0.0
 21
-0.4841350632239992
 31
0.0
210
0.0
220
0.0
230
1.0
 40
0.1666666666666656
 41
1.738244406014585
 42
4.544940901165
1001
ACAD
1000
TCW40_DEV_WIDTH
1002
{
1040
-3.0
1002
}
  0
ELLIPSE
  5
6A9D
330
1F
100
AcDbEntity
  8
0
100
AcDbEllipse
 10
17.86616409249937
 20
9.022649050554926
 30
0.0
 11
0.0
 21
-0.4841350632240001
 31
0.0
210
0.0
220
0.0
230
1.0
 40
0.1666666666666666
 41
4.712388980384689
 42
7.853981633974482
1001
ACAD
1000
TCW40_DEV_WIDTH
1002
{
1040
-3.0
1002
}
  0
LINE
  5
6A9E
330
1F
100
AcDbEntity
  8
0
100
AcDbLine
 10
18.10823162411135
 20
9.022649050554926
 30
0.0
 11
17.94685326970336
 21
9.022649050554926
 31
0.0
1001
ACAD
1000
TCW40_DEV_WIDTH
1002
{
1040
-3.0
1002
}
  0
LINE
  5
6A9F
330
1F
100
AcDbEntity
  8
0
100
AcDbLine
 10
17.78547491529536
 20
9.022649050554926
 30
0.0
 11
17.69469959094087
 21
9.022649050554926
 31
0.0
1001
ACAD
1000
TCW40_DEV_WIDTH
1002
{
1040
-3.0
1002
}
  0
LINE
  5
6AA0
330
1F
100
AcDbEntity
  8
0
100
AcDbLine
 10
17.53332123653287
 20
9.022649050554926
 30
0.0
 11
17.4414173366363
 21
9.022649050554926
 31
0.0
1001
ACAD
1000
TCW40_DEV_WIDTH
1002
{
1040
-3.0
1002
}
  0
LINE
  5
6AA1
330
1F
100
AcDbEntity
  8
0
100
AcDbLine
 10
17.28229613331246
 20
9.022649050554926
 30
0.0
 11
17.18926365787378
 21
9.022649050554926
 31
0.0
1001
ACAD
1000
TCW40_DEV_WIDTH
1002
{
1040
-3.0
1002
}
  0
LINE
  5
6AA2
330
1F
100
AcDbEntity
  8
0
100
AcDbLine
 10
17.03014245454993
 20
9.022649050554926
 30
0.0
 11
16.93710997911128
 21
9.022649050554926
 31
0.0
1001
ACAD
1000
TCW40_DEV_WIDTH
1002
{
1040
-3.0
1002
}
  0
LINE
  5
6AA3
330
1F
100
AcDbEntity
  8
0
100
AcDbLine
 10
16.77798877578743
 20
9.022649050554926
 30
0.0
 11
16.68495630034878
 21
9.022649050554926
 31
0.0
1001
ACAD
1000
TCW40_DEV_WIDTH
1002
{
1040
-3.0
1002
}
  0
LINE
  5
6AA4
330
1F
100
AcDbEntity
  8
0
100
AcDbLine
 10
16.52583509702494
 20
9.022649050554926
 30
0.0
 11
16.43280262158629
 21
9.022649050554926
 31
0.0
1001
ACAD
1000
TCW40_DEV_WIDTH
1002
{
1040
-3.0
1002
}
  0
LINE
  5
6AA5
330
1F
100
AcDbEntity
  8
0
100
AcDbLine
 10
16.27368141826245
 20
9.022649050554926
 30
0.0
 11
16.18177751836588
 21
9.022649050554926
 31
0.0
1001
ACAD
1000
TCW40_DEV_WIDTH
1002
{
1040
-3.0
1002
}
  0
LINE
  5
6AA6
330
1F
100
AcDbEntity
  8
0
100
AcDbLine
 10
16.02039916395785
 20
9.022649050554926
 30
0.0
 11
15.92962383960335
 21
9.022649050554926
 31
0.0
1001
ACAD
1000
TCW40_DEV_WIDTH
1002
{
1040
-3.0
1002
}
  0
LINE
  5
6AA7
330
1F
100
AcDbEntity
  8
0
100
AcDbLine
 10
15.76824548519536
 20
9.022649050554926
 30
0.0
 11
15.67747016084086
 21
9.022649050554926
 31
0.0
1001
ACAD
1000
TCW40_DEV_WIDTH
1002
{
1040
-3.0
1002
}
  0
LINE
  5
6AA8
330
1F
100
AcDbEntity
  8
0
100
AcDbLine
 10
15.51609180643287
 20
9.022649050554926
 30
0.0
 11
15.42531648207836
 21
9.022649050554926
 31
0.0
1001
ACAD
1000
TCW40_DEV_WIDTH
1002
{
1040
-3.0
1002
}
  0
LINE
  5
6AA9
330
1F
100
AcDbEntity
  8
0
100
AcDbLine
 10
15.26393812767037
 20
9.022649050554926
 30
0.0
 11
15.17316280331587
 21
9.022649050554926
 31
0.0
1001
ACAD
1000
TCW40_DEV_WIDTH
1002
{
1040
-3.0
1002
}
  0
ELLIPSE
  5
6AAA
330
1F
100
AcDbEntity
  8
0
100
AcDbEllipse
 10
17.61401041373686
 20
9.022649050554926
 30
0.0
 11
0.0
 21
-0.4841350632240001
 31
0.0
210
0.0
220
0.0
230
1.0
 40
0.1666666666666666
 41
4.712388980384689
 42
7.853981633974482
1001
ACAD
1000
TCW40_DEV_WIDTH
1002
{
1040
-3.0
1002
}
  0
ELLIPSE
  5
6AAB
330
1F
100
AcDbEntity
  8
0
100
AcDbEllipse
 10
17.36185673497437
 20
9.022649050554926
 30
0.0
 11
0.0
 21
-0.4841350632240001
 31
0.0
210
0.0
220
0.0
230
1.0
 40
0.1666666666666666
 41
4.712388980384689
 42
7.853981633974482
1001
ACAD
1000
TCW40_DEV_WIDTH
1002
{
1040
-3.0
1002
}
  0
ELLIPSE
  5
6AAC
330
1F
100
AcDbEntity
  8
0
100
AcDbEllipse
 10
17.10970305621187
 20
9.022649050554926
 30
0.0
 11
0.0
 21
-0.4841350632240001
 31
0.0
210
0.0
220
0.0
230
1.0
 40
0.1666666666666666
 41
4.712388980384689
 42
7.853981633974482
1001
ACAD
1000
TCW40_DEV_WIDTH
1002
{
1040
-3.0
1002
}
  0
ELLIPSE
  5
6AAD
330
1F
100
AcDbEntity
  8
0
100
AcDbEllipse
 10
16.85754937744937
 20
9.022649050554926
 30
0.0
 11
0.0
 21
-0.4841350632240001
 31
0.0
210
0.0
220
0.0
230
1.0
 40
0.1666666666666666
 41
4.712388980384689
 42
7.853981633974482
1001
ACAD
1000
TCW40_DEV_WIDTH
1002
{
1040
-3.0
1002
}
  0
ELLIPSE
  5
6AAE
330
1F
100
AcDbEntity
  8
0
100
AcDbEllipse
 10
16.60539569868685
 20
9.022649050554926
 30
0.0
 11
0.0
 21
-0.4841350632240001
 31
0.0
210
0.0
220
0.0
230
1.0
 40
0.1666666666666666
 41
4.712388980384689
 42
7.853981633974482
1001
ACAD
1000
TCW40_DEV_WIDTH
1002
{
1040
-3.0
1002
}
  0
ELLIPSE
  5
6AAF
330
1F
100
AcDbEntity
  8
0
100
AcDbEllipse
 10
16.35324201992436
 20
9.022649050554926
 30
0.0
 11
0.0
 21
-0.4841350632240001
 31
0.0
210
0.0
220
0.0
230
1.0
 40
0.1666666666666666
 41
4.712388980384689
 42
7.853981633974482
1001
ACAD
1000
TCW40_DEV_WIDTH
1002
{
1040
-3.0
1002
}
  0
ELLIPSE
  5
6AB0
330
1F
100
AcDbEntity
  8
0
100
AcDbEllipse
 10
16.10108834116187
 20
9.022649050554926
 30
0.0
 11
0.0
 21
-0.4841350632240001
 31
0.0
210
0.0
220
0.0
230
1.0
 40
0.1666666666666666
 41
4.712388980384689
 42
7.853981633974482
1001
ACAD
1000
TCW40_DEV_WIDTH
1002
{
1040
-3.0
1002
}
  0
ELLIPSE
  5
6AB1
330
1F
100
AcDbEntity
  8
0
100
AcDbEllipse
 10
15.84893466239937
 20
9.022649050554926
 30
0.0
 11
0.0
 21
-0.4841350632240001
 31
0.0
210
0.0
220
0.0
230
1.0
 40
0.1666666666666666
 41
4.712388980384689
 42
7.853981633974482
1001
ACAD
1000
TCW40_DEV_WIDTH
1002
{
1040
-3.0
1002
}
  0
ELLIPSE
  5
6AB2
330
1F
100
AcDbEntity
  8
0
100
AcDbEllipse
 10
15.59678098363687
 20
9.022649050554926
 30
0.0
 11
0.0
 21
-0.4841350632240001
 31
0.0
210
0.0
220
0.0
230
1.0
 40
0.1666666666666666
 41
4.712388980384689
 42
7.853981633974482
1001
ACAD
1000
TCW40_DEV_WIDTH
1002
{
1040
-3.0
1002
}
  0
ELLIPSE
  5
6AB3
330
1F
100
AcDbEntity
  8
0
100
AcDbEllipse
 10
15.34462730487436
 20
9.022649050554926
 30
0.0
 11
0.0
 21
-0.4841350632240001
 31
0.0
210
0.0
220
0.0
230
1.0
 40
0.1666666666666666
 41
4.712388980384689
 42
7.853981633974482
1001
ACAD
1000
TCW40_DEV_WIDTH
1002
{
1040
-3.0
1002
}
  0
ELLIPSE
  5
6AB4
330
1F
100
AcDbEntity
  8
0
100
AcDbEllipse
 10
15.09247362611186
 20
9.022649050554926
 30
0.0
 11
0.0
 21
-0.4841350632239993
 31
0.0
210
0.0
220
0.0
230
1.0
 40
0.1666666666666666
 41
-1.562222240401897
 42
1.570796326794896
1001
ACAD
1000
TCW40_DEV_WIDTH
1002
{
1040
-3.0
1002
}
  0
ELLIPSE
  5
6AB5
330
1F
100
AcDbEntity
  8
0
100
AcDbEllipse
 10
14.84031994734937
 20
9.042821344855925
 30
0.0
 11
0.0
 21
-0.4841350632240007
 31
0.0
210
0.0
220
0.0
230
1.0
 40
0.1666666666666674
 41
-1.55394312469243
 42
1.526241120561437
1001
ACAD
1000
TCW40_DEV_WIDTH
1002
{
1040
-3.0
1002
}
  0
ELLIPSE
  5
6AB6
330
1F
100
AcDbEntity
  8
0
100
AcDbEllipse
 10
14.58816626858687
 20
9.062993639156927
 30
0.0
 11
0.0
 21
-0.4841350632239999
 31
0.0
210
0.0
220
0.0
230
1.0
 40
0.1666666666666651
 41
4.685127266443919
 42
7.821061463544657
1001
ACAD
1000
TCW40_DEV_WIDTH
1002
{
1040
-3.0
1002
}
  0
ELLIPSE
  5
6AB7
330
1F
100
AcDbEntity
  8
0
100
AcDbEllipse
 10
14.33601258982435
 20
9.103338227758927
 30
0.0
 11
0.0
 21
-0.4841350632240002
 31
0.0
210
0.0
220
0.0
230
1.0
 40
0.1666666666666643
 41
4.690932161129962
 42
7.82938616715147
1001
ACAD
1000
TCW40_DEV_WIDTH
1002
{
1040
-3.0
1002
}
  0
ELLIPSE
  5
6AB8
330
1F
100
AcDbEntity
  8
0
100
AcDbEllipse
 10
14.08385891106186
 20
9.123510522059925
 30
0.0
 11
0.0
 21
-0.4841350632240009
 31
0.0
210
0.0
220
0.0
230
1.0
 40
0.1666666666666652
 41
4.685554211486188
 42
7.854189965268535
1001
ACAD
1000
TCW40_DEV_WIDTH
1002
{
1040
-3.0
1002
}
  0
LWPOLYLINE
  5
6AB9
330
1F
100
AcDbEntity
  8
0
100
AcDbPolyline
 90
        2
 70
     0
 43
0.0
 10
13.80045542949588
 20
9.143710603151932
 42
-0.0083634671130051
 10
14.00319878444731
 20
9.136500615428074
  0
LWPOLYLINE
  5
6ABA
330
1F
100
AcDbEntity
  8
0
100
AcDbPolyline
 90
        2
 70
     0
 43
0.0
 10
14.16454808651482
 20
9.123611382543414
 42
-0.0051836372337704
 10
14.25534198635836
 20
9.113725429226493
  0
LWPOLYLINE
  5
6ABB
330
1F
100
AcDbEntity
  8
0
100
AcDbPolyline
 90
        2
 70
     0
 43
0.0
 10
14.41521962108078
 20
9.091660622112557
 42
-0.0053110407206134
 10
14.50750707366639
 20
9.076190355981863
  0
LWPOLYLINE
  5
6ABC
330
1F
100
AcDbEntity
  8
0
100
AcDbPolyline
 90
        2
 70
     0
 43
0.0
 10
14.66724041403523
 20
9.047304280532012
 42
0.0098390854573012
 10
14.76100614521709
 20
9.034503174438919
  0
LWPOLYLINE
  5
6ABD
330
1F
100
AcDbEntity
  8
0
100
AcDbPolyline
 90
        2
 70
     0
 43
0.0
 10
14.76477718150642
 20
8.953377578511451
 42
0.0156796610766747
 10
14.91504679590978
 20
8.940865809037047
  0
LWPOLYLINE
  5
6ABE
330
1F
100
AcDbEntity
  8
0
100
AcDbPolyline
 90
        2
 70
     0
 43
0.0
 10
15.01665037149816
 20
8.937758079204686
 42
0.0157936648709978
 10
15.16849854462768
 20
8.941121141819065
  0
LWPOLYLINE
  5
6ABF
330
1F
100
AcDbEntity
  8
0
100
AcDbPolyline
 90
        2
 70
     0
 43
0.0
 10
15.17316274474191
 20
9.022065704755709
 42
0.0010502966732702
 10
15.18324895046636
 20
9.022649050554926
  0
ELLIPSE
  5
6AC0
330
1F
100
AcDbEntity
  8
0
100
AcDbEllipse
 10
16.35324201992436
 20
9.103338227758927
 30
0.0
 11
0.0
 21
-0.4841350632239992
 31
0.0
210
0.0
220
0.0
230
1.0
 40
0.1666666666666656
 41
-1.403348247575207
 42
1.403348247575207
1001
ACAD
1000
TCW40_DEV_WIDTH
1002
{
1040
-3.0
1002
}
  0
ELLIPSE
  5
6AC1
330
1F
100
AcDbEntity
  8
0
100
AcDbEllipse
 10
16.60539569868685
 20
9.103338227758927
 30
0.0
 11
0.0
 21
-0.4841350632239992
 31
0.0
210
0.0
220
0.0
230
1.0
 40
0.1666666666666656
 41
-1.403348247575207
 42
1.403348247575207
1001
ACAD
1000
TCW40_DEV_WIDTH
1002
{
1040
-3.0
1002
}
  0
ELLIPSE
  5
6AC2
330
1F
100
AcDbEntity
  8
0
100
AcDbEllipse
 10
16.85754937744937
 20
9.103338227758927
 30
0.0
 11
0.0
 21
-0.4841350632239992
 31
0.0
210
0.0
220
0.0
230
1.0
 40
0.1666666666666656
 41
-1.403348247575207
 42
1.403348247575207
1001
ACAD
1000
TCW40_DEV_WIDTH
1002
{
1040
-3.0
1002
}
  0
ELLIPSE
  5
6AC3
330
1F
100
AcDbEntity
  8
0
100
AcDbEllipse
 10
16.10108834116187
 20
9.103338227758927
 30
0.0
 11
0.0
 21
-0.4841350632239992
 31
0.0
210
0.0
220
0.0
230
1.0
 40
0.1666666666666656
 41
-1.403348247575207
 42
1.403348247575207
1001
ACAD
1000
TCW40_DEV_WIDTH
1002
{
1040
-3.0
1002
}
  0
ELLIPSE
  5
6AC4
330
1F
100
AcDbEntity
  8
0
100
AcDbEllipse
 10
15.84893466239937
 20
9.103338227758927
 30
0.0
 11
0.0
 21
-0.4841350632239992
 31
0.0
210
0.0
220
0.0
230
1.0
 40
0.1666666666666656
 41
-1.403348247575207
 42
1.403348247575207
1001
ACAD
1000
TCW40_DEV_WIDTH
1002
{
1040
-3.0
1002
}
  0
ELLIPSE
  5
6AC5
330
1F
100
AcDbEntity
  8
0
100
AcDbEllipse
 10
15.34462730487436
 20
9.103338227758927
 30
0.0
 11
0.0
 21
-0.4841350632239992
 31
0.0
210
0.0
220
0.0
230
1.0
 40
0.1666666666666656
 41
-1.403348247575207
 42
1.403348247575207
1001
ACAD
1000
TCW40_DEV_WIDTH
1002
{
1040
-3.0
1002
}
  0
ELLIPSE
  5
6AC6
330
1F
100
AcDbEntity
  8
0
100
AcDbEllipse
 10
15.09247362611186
 20
9.103338227758927
 30
0.0
 11
0.0
 21
-0.4841350632240006
 31
0.0
210
0.0
220
0.0
230
1.0
 40
0.1666666666666648
 41
-1.394616842273924
 42
1.403348247575207
1001
ACAD
1000
TCW40_DEV_WIDTH
1002
{
1040
-3.0
1002
}
  0
ELLIPSE
  5
6AC7
330
1F
100
AcDbEntity
  8
0
100
AcDbEllipse
 10
14.84031994734937
 20
9.123510522059925
 30
0.0
 11
0.0
 21
-0.4841350632239997
 31
0.0
210
0.0
220
0.0
230
1.0
 40
0.1666666666666676
 41
-1.385896392321205
 42
1.358168851390436
1001
ACAD
1000
TCW40_DEV_WIDTH
1002
{
1040
-3.0
1002
}
  0
ELLIPSE
  5
6AC8
330
1F
100
AcDbEntity
  8
0
100
AcDbEllipse
 10
14.58816626857767
 20
9.143682816360927
 30
0.0
 11
0.0
 21
-0.4841350632239992
 31
0.0
210
0.0
220
0.0
230
1.0
 40
0.1666666666666656
 41
-1.403348247575207
 42
1.370383763358458
1001
ACAD
1000
TCW40_DEV_WIDTH
1002
{
1040
-3.0
1002
}
  0
ELLIPSE
  5
6AC9
330
1F
100
AcDbEntity
  8
0
100
AcDbEllipse
 10
14.33601258981518
 20
9.184027404962927
 30
0.0
 11
0.0
 21
-0.4841350632239992
 31
0.0
210
0.0
220
0.0
230
1.0
 40
0.1666666666666656
 41
-1.403348247575207
 42
1.378832291897181
1001
ACAD
1000
TCW40_DEV_WIDTH
1002
{
1040
-3.0
1002
}
  0
ELLIPSE
  5
6ACA
330
1F
100
AcDbEntity
  8
0
100
AcDbEllipse
 10
14.08385891105266
 20
9.204199699263925
 30
0.0
 11
0.0
 21
-0.4841350632239992
 31
0.0
210
0.0
220
0.0
230
1.0
 40
0.1666666666666656
 41
-1.403348247575207
 42
1.403348247575207
1001
ACAD
1000
TCW40_DEV_WIDTH
1002
{
1040
-3.0
1002
}
  0
ELLIPSE
  5
6ACB
330
1F
100
AcDbEntity
  8
0
100
AcDbEllipse
 10
17.10970305621187
 20
9.103338227758927
 30
0.0
 11
0.0
 21
-0.4841350632239992
 31
0.0
210
0.0
220
0.0
230
1.0
 40
0.1666666666666656
 41
-1.403348247575207
 42
1.403348247575207
1001
ACAD
1000
TCW40_DEV_WIDTH
1002
{
1040
-3.0
1002
}
  0
ELLIPSE
  5
6ACC
330
1F
100
AcDbEntity
  8
0
100
AcDbEllipse
 10
17.36185673497437
 20
9.103338227758927
 30
0.0
 11
0.0
 21
-0.4841350632239992
 31
0.0
210
0.0
220
0.0
230
1.0
 40
0.1666666666666656
 41
-1.403348247575207
 42
1.403348247575207
1001
ACAD
1000
TCW40_DEV_WIDTH
1002
{
1040
-3.0
1002
}
  0
ELLIPSE
  5
6ACD
330
1F
100
AcDbEntity
  8
0
100
AcDbEllipse
 10
17.61401041373686
 20
9.103338227758927
 30
0.0
 11
0.0
 21
-0.4841350632239992
 31
0.0
210
0.0
220
0.0
230
1.0
 40
0.1666666666666656
 41
-1.403348247575207
 42
1.403348247575207
1001
ACAD
1000
TCW40_DEV_WIDTH
1002
{
1040
-3.0
1002
}
  0
ELLIPSE
  5
6ACE
330
1F
100
AcDbEntity
  8
0
100
AcDbEllipse
 10
17.86616409249937
 20
9.103338227758927
 30
0.0
 11
0.0
 21
-0.4841350632239992
 31
0.0
210
0.0
220
0.0
230
1.0
 40
0.1666666666666656
 41
-1.403348247575207
 42
1.403348247575207
1001
ACAD
1000
TCW40_DEV_WIDTH
1002
{
1040
-3.0
1002
}
  0
ELLIPSE
  5
6ACF
330
1F
100
AcDbEntity
  8
0
100
AcDbEllipse
 10
15.59678098363687
 20
9.103338227758927
 30
0.0
 11
0.0
 21
-0.4841350632239992
 31
0.0
210
0.0
220
0.0
230
1.0
 40
0.1666666666666656
 41
-1.403348247575207
 42
1.403348247575207
1001
ACAD
1000
TCW40_DEV_WIDTH
1002
{
1040
-3.0
1002
}
  0
LWPOLYLINE
  5
6AD1
330
1F
100
AcDbEntity
  8
0
100
AcDbPolyline
 90
        2
 70
     0
 43
0.0
 10
14.00706614737046
 20
9.055572206852351
 42
-0.0089034290691004
 10
14.16342545425736
 20
9.043032532622012
  0
LWPOLYLINE
  5
6AD2
330
1F
100
AcDbEntity
  8
0
100
AcDbPolyline
 90
        2
 70
     0
 43
0.0
 10
14.25937450707442
 20
9.032552940776435
 42
-0.0089301670529736
 10
14.41521962108992
 20
9.010971444907278
  0
LWPOLYLINE
  5
6AD3
330
1F
100
AcDbEntity
  8
0
100
AcDbPolyline
 90
        2
 70
     0
 43
0.0
 10
14.50822943189678
 20
8.997035800485656
 42
0.0164208329197848
 10
14.66330555280664
 20
8.967234732769762
  0
LWPOLYLINE
  5
6AD4
330
1F
100
AcDbEntity
  8
0
100
AcDbPolyline
 90
        2
 70
     0
 43
0.0
 10
14.66881172679092
 20
9.047058708942211
 42
0.009530968508237
 10
14.75964222896464
 20
9.034662505029663
  0
LWPOLYLINE
  5
6AD5
330
1F
100
AcDbEntity
  8
0
100
AcDbPolyline
 90
        2
 70
     0
 43
0.0
 10
14.92092904708011
 20
9.021257743478026
 42
0.0095802259197058
 10
15.01303347733854
 20
9.018484124109084
  0
LWPOLYLINE
  5
6AD6
330
1F
100
AcDbEntity
  8
0
100
AcDbPolyline
 90
        2
 70
     0
 43
0.0
 10
14.76942431351917
 20
8.892331182194999
 42
0.0146801367772511
 10
14.91011839807052
 20
8.880609090585627
  0
LWPOLYLINE
  5
6AD7
330
1F
100
AcDbEntity
  8
0
100
AcDbPolyline
 90
        2
 70
     0
 43
0.0
 10
15.02112750938769
 20
8.87720309544945
 42
0.014869698490557
 10
15.16409621303732
 20
8.880371546483894
  0
LWPOLYLINE
  5
6AD8
330
1F
100
AcDbEntity
  8
0
100
AcDbPolyline
 90
        2
 70
     0
 43
0.0
 10
14.01110757904568
 20
8.994801675570313
 42
-0.0082305580818414
 10
14.15565672622931
 20
8.983271172509423
  0
LWPOLYLINE
  5
6AD9
330
1F
100
AcDbEntity
  8
0
100
AcDbPolyline
 90
        2
 70
     0
 43
0.0
 10
14.25937450707442
 20
8.972036057873436
 42
-0.008447071874798
 10
14.40680976028126
 20
8.951764314940549
  0
LWPOLYLINE
  5
6ADA
330
1F
100
AcDbEntity
  8
0
100
AcDbPolyline
 90
        2
 70
     0
 43
0.0
 10
14.51536468026462
 20
8.934914537998368
 42
0.0151648059833676
 10
14.65859929266507
 20
8.907467728596705
  0
LINE
  5
6ADB
330
1F
100
AcDbEntity
  8
0
100
AcDbLine
 10
17.94223857832512
 20
8.941959873350926
 30
0.0
 11
17.79008960667363
 21
8.941959873350926
 31
0.0
1001
ACAD
1000
TCW40_DEV_WIDTH
1002
{
1040
-3.0
1002
}
  0
LINE
  5
6ADC
330
1F
100
AcDbEntity
  8
0
100
AcDbLine
 10
17.6900848995626
 20
8.941959873350926
 30
0.0
 11
17.53793592791111
 21
8.941959873350926
 31
0.0
1001
ACAD
1000
TCW40_DEV_WIDTH
1002
{
1040
-3.0
1002
}
  0
LINE
  5
6ADD
330
1F
100
AcDbEntity
  8
0
100
AcDbLine
 10
17.43793122080011
 20
8.941959873350926
 30
0.0
 11
17.28578224914862
 21
8.941959873350926
 31
0.0
1001
ACAD
1000
TCW40_DEV_WIDTH
1002
{
1040
-3.0
1002
}
  0
LINE
  5
6ADE
330
1F
100
AcDbEntity
  8
0
100
AcDbLine
 10
17.18577754203761
 20
8.941959873350926
 30
0.0
 11
17.03362857038613
 21
8.941959873350926
 31
0.0
1001
ACAD
1000
TCW40_DEV_WIDTH
1002
{
1040
-3.0
1002
}
  0
LINE
  5
6ADF
330
1F
100
AcDbEntity
  8
0
100
AcDbLine
 10
16.93362386327512
 20
8.941959873350926
 30
0.0
 11
16.78147489162363
 21
8.941959873350926
 31
0.0
1001
ACAD
1000
TCW40_DEV_WIDTH
1002
{
1040
-3.0
1002
}
  0
LINE
  5
6AE0
330
1F
100
AcDbEntity
  8
0
100
AcDbLine
 10
16.68147018451263
 20
8.941959873350926
 30
0.0
 11
16.52932121286111
 21
8.941959873350926
 31
0.0
1001
ACAD
1000
TCW40_DEV_WIDTH
1002
{
1040
-3.0
1002
}
  0
LINE
  5
6AE1
330
1F
100
AcDbEntity
  8
0
100
AcDbLine
 10
16.42931650575011
 20
8.941959873350926
 30
0.0
 11
16.27716753409861
 21
8.941959873350926
 31
0.0
1001
ACAD
1000
TCW40_DEV_WIDTH
1002
{
1040
-3.0
1002
}
  0
LINE
  5
6AE2
330
1F
100
AcDbEntity
  8
0
100
AcDbLine
 10
16.17716282698761
 20
8.941959873350926
 30
0.0
 11
16.02501385533612
 21
8.941959873350926
 31
0.0
1001
ACAD
1000
TCW40_DEV_WIDTH
1002
{
1040
-3.0
1002
}
  0
LINE
  5
6AE3
330
1F
100
AcDbEntity
  8
0
100
AcDbLine
 10
15.92500914822511
 20
8.941959873350926
 30
0.0
 11
15.77286017657363
 21
8.941959873350926
 31
0.0
1001
ACAD
1000
TCW40_DEV_WIDTH
1002
{
1040
-3.0
1002
}
  0
LINE
  5
6AE4
330
1F
100
AcDbEntity
  8
0
100
AcDbLine
 10
15.67285546946262
 20
8.941959873350926
 30
0.0
 11
15.5207064978111
 21
8.941959873350926
 31
0.0
1001
ACAD
1000
TCW40_DEV_WIDTH
1002
{
1040
-3.0
1002
}
  0
LINE
  5
6AE5
330
1F
100
AcDbEntity
  8
0
100
AcDbLine
 10
15.4207017907001
 20
8.941959873350926
 30
0.0
 11
15.26855281904861
 21
8.941959873350926
 31
0.0
1001
ACAD
1000
TCW40_DEV_WIDTH
1002
{
1040
-3.0
1002
}
  0
LINE
  5
6AE6
330
1F
100
AcDbEntity
  8
0
100
AcDbLine
 10
17.93951534290646
 20
8.901615284748929
 30
0.0
 11
17.79281284209227
 21
8.901615284748929
 31
0.0
1001
ACAD
1000
TCW40_DEV_WIDTH
1002
{
1040
-3.0
1002
}
  0
LINE
  5
6AE7
330
1F
100
AcDbEntity
  8
0
100
AcDbLine
 10
17.68736166414396
 20
8.901615284748929
 30
0.0
 11
17.54065916332975
 21
8.901615284748929
 31
0.0
1001
ACAD
1000
TCW40_DEV_WIDTH
1002
{
1040
-3.0
1002
}
  0
LINE
  5
6AE8
330
1F
100
AcDbEntity
  8
0
100
AcDbLine
 10
17.43520798538147
 20
8.901615284748929
 30
0.0
 11
17.28850548456725
 21
8.901615284748929
 31
0.0
1001
ACAD
1000
TCW40_DEV_WIDTH
1002
{
1040
-3.0
1002
}
  0
LINE
  5
6AE9
330
1F
100
AcDbEntity
  8
0
100
AcDbLine
 10
17.18305430661898
 20
8.901615284748929
 30
0.0
 11
17.03635180580475
 21
8.901615284748929
 31
0.0
1001
ACAD
1000
TCW40_DEV_WIDTH
1002
{
1040
-3.0
1002
}
  0
LINE
  5
6AEA
330
1F
100
AcDbEntity
  8
0
100
AcDbLine
 10
16.93090062785649
 20
8.901615284748929
 30
0.0
 11
16.78419812704226
 21
8.901615284748929
 31
0.0
1001
ACAD
1000
TCW40_DEV_WIDTH
1002
{
1040
-3.0
1002
}
  0
LINE
  5
6AEB
330
1F
100
AcDbEntity
  8
0
100
AcDbLine
 10
16.67874694909396
 20
8.901615284748929
 30
0.0
 11
16.53204444827977
 21
8.901615284748929
 31
0.0
1001
ACAD
1000
TCW40_DEV_WIDTH
1002
{
1040
-3.0
1002
}
  0
LINE
  5
6AEC
330
1F
100
AcDbEntity
  8
0
100
AcDbLine
 10
16.42659327033146
 20
8.901615284748929
 30
0.0
 11
16.27989076951725
 21
8.901615284748929
 31
0.0
1001
ACAD
1000
TCW40_DEV_WIDTH
1002
{
1040
-3.0
1002
}
  0
LINE
  5
6AED
330
1F
100
AcDbEntity
  8
0
100
AcDbLine
 10
16.17443959156897
 20
8.901615284748929
 30
0.0
 11
16.02773709075475
 21
8.901615284748929
 31
0.0
1001
ACAD
1000
TCW40_DEV_WIDTH
1002
{
1040
-3.0
1002
}
  0
LINE
  5
6AEE
330
1F
100
AcDbEntity
  8
0
100
AcDbLine
 10
15.92228591280648
 20
8.901615284748929
 30
0.0
 11
15.77558341199226
 21
8.901615284748929
 31
0.0
1001
ACAD
1000
TCW40_DEV_WIDTH
1002
{
1040
-3.0
1002
}
  0
LINE
  5
6AEF
330
1F
100
AcDbEntity
  8
0
100
AcDbLine
 10
15.67013223404396
 20
8.901615284748929
 30
0.0
 11
15.52342973322977
 21
8.901615284748929
 31
0.0
1001
ACAD
1000
TCW40_DEV_WIDTH
1002
{
1040
-3.0
1002
}
  0
LINE
  5
6AF0
330
1F
100
AcDbEntity
  8
0
100
AcDbLine
 10
15.41797855528146
 20
8.901615284748929
 30
0.0
 11
15.27127605446725
 21
8.901615284748929
 31
0.0
1001
ACAD
1000
TCW40_DEV_WIDTH
1002
{
1040
-3.0
1002
}
  0
LINE
  5
6AF1
330
1F
100
AcDbEntity
  8
0
100
AcDbLine
 10
17.93604296976848
 20
8.861270696146929
 30
0.0
 11
17.79628521523024
 21
8.861270696146929
 31
0.0
1001
ACAD
1000
TCW40_DEV_WIDTH
1002
{
1040
-3.0
1002
}
  0
LINE
  5
6AF2
330
1F
100
AcDbEntity
  8
0
100
AcDbLine
 10
17.683889291006
 20
8.861270696146929
 30
0.0
 11
17.54413153646774
 21
8.861270696146929
 31
0.0
1001
ACAD
1000
TCW40_DEV_WIDTH
1002
{
1040
-3.0
1002
}
  0
LINE
  5
6AF3
330
1F
100
AcDbEntity
  8
0
100
AcDbLine
 10
17.4317356122435
 20
8.861270696146929
 30
0.0
 11
17.29197785770522
 21
8.861270696146929
 31
0.0
1001
ACAD
1000
TCW40_DEV_WIDTH
1002
{
1040
-3.0
1002
}
  0
LINE
  5
6AF4
330
1F
100
AcDbEntity
  8
0
100
AcDbLine
 10
17.179581933481
 20
8.861270696146929
 30
0.0
 11
17.03982417894273
 21
8.861270696146929
 31
0.0
1001
ACAD
1000
TCW40_DEV_WIDTH
1002
{
1040
-3.0
1002
}
  0
LINE
  5
6AF5
330
1F
100
AcDbEntity
  8
0
100
AcDbLine
 10
16.92742825471848
 20
8.861270696146929
 30
0.0
 11
16.78767050018024
 21
8.861270696146929
 31
0.0
1001
ACAD
1000
TCW40_DEV_WIDTH
1002
{
1040
-3.0
1002
}
  0
LINE
  5
6AF6
330
1F
100
AcDbEntity
  8
0
100
AcDbLine
 10
16.67527457595599
 20
8.861270696146929
 30
0.0
 11
16.53551682141774
 21
8.861270696146929
 31
0.0
1001
ACAD
1000
TCW40_DEV_WIDTH
1002
{
1040
-3.0
1002
}
  0
LINE
  5
6AF7
330
1F
100
AcDbEntity
  8
0
100
AcDbLine
 10
16.4231208971935
 20
8.861270696146929
 30
0.0
 11
16.28336314265522
 21
8.861270696146929
 31
0.0
1001
ACAD
1000
TCW40_DEV_WIDTH
1002
{
1040
-3.0
1002
}
  0
LINE
  5
6AF8
330
1F
100
AcDbEntity
  8
0
100
AcDbLine
 10
16.170967218431
 20
8.861270696146929
 30
0.0
 11
16.03120946389273
 21
8.861270696146929
 31
0.0
1001
ACAD
1000
TCW40_DEV_WIDTH
1002
{
1040
-3.0
1002
}
  0
LINE
  5
6AF9
330
1F
100
AcDbEntity
  8
0
100
AcDbLine
 10
15.9188135396685
 20
8.861270696146929
 30
0.0
 11
15.77905578513024
 21
8.861270696146929
 31
0.0
1001
ACAD
1000
TCW40_DEV_WIDTH
1002
{
1040
-3.0
1002
}
  0
LINE
  5
6AFA
330
1F
100
AcDbEntity
  8
0
100
AcDbLine
 10
15.66665986090598
 20
8.861270696146929
 30
0.0
 11
15.52690210636774
 21
8.861270696146929
 31
0.0
1001
ACAD
1000
TCW40_DEV_WIDTH
1002
{
1040
-3.0
1002
}
  0
LINE
  5
6AFB
330
1F
100
AcDbEntity
  8
0
100
AcDbLine
 10
15.41450618214349
 20
8.861270696146929
 30
0.0
 11
15.27474842760524
 21
8.861270696146929
 31
0.0
1001
ACAD
1000
TCW40_DEV_WIDTH
1002
{
1040
-3.0
1002
}
  0
LINE
  5
6AFC
330
1F
100
AcDbEntity
  8
0
100
AcDbLine
 10
17.92915206126578
 20
8.800753813243927
 30
0.0
 11
17.80317612373294
 21
8.800753813243927
 31
0.0
1001
ACAD
1000
TCW40_DEV_WIDTH
1002
{
1040
-3.0
1002
}
  0
LINE
  5
6AFD
330
1F
100
AcDbEntity
  8
0
100
AcDbLine
 10
17.67699838250329
 20
8.800753813243927
 30
0.0
 11
17.55102244497045
 21
8.800753813243927
 31
0.0
1001
ACAD
1000
TCW40_DEV_WIDTH
1002
{
1040
-3.0
1002
}
  0
LINE
  5
6AFE
330
1F
100
AcDbEntity
  8
0
100
AcDbLine
 10
17.4248447037408
 20
8.800753813243927
 30
0.0
 11
17.29886876620793
 21
8.800753813243927
 31
0.0
1001
ACAD
1000
TCW40_DEV_WIDTH
1002
{
1040
-3.0
1002
}
  0
LINE
  5
6AFF
330
1F
100
AcDbEntity
  8
0
100
AcDbLine
 10
17.1726910249783
 20
8.800753813243927
 30
0.0
 11
17.04671508744543
 21
8.800753813243927
 31
0.0
1001
ACAD
1000
TCW40_DEV_WIDTH
1002
{
1040
-3.0
1002
}
  0
LINE
  5
6B00
330
1F
100
AcDbEntity
  8
0
100
AcDbLine
 10
16.92053734621578
 20
8.800753813243927
 30
0.0
 11
16.79456140868294
 21
8.800753813243927
 31
0.0
1001
ACAD
1000
TCW40_DEV_WIDTH
1002
{
1040
-3.0
1002
}
  0
LINE
  5
6B01
330
1F
100
AcDbEntity
  8
0
100
AcDbLine
 10
16.66838366745328
 20
8.800753813243927
 30
0.0
 11
16.54240772992045
 21
8.800753813243927
 31
0.0
1001
ACAD
1000
TCW40_DEV_WIDTH
1002
{
1040
-3.0
1002
}
  0
LINE
  5
6B02
330
1F
100
AcDbEntity
  8
0
100
AcDbLine
 10
16.41622998869079
 20
8.800753813243927
 30
0.0
 11
16.29025405115796
 21
8.800753813243927
 31
0.0
1001
ACAD
1000
TCW40_DEV_WIDTH
1002
{
1040
-3.0
1002
}
  0
LINE
  5
6B03
330
1F
100
AcDbEntity
  8
0
100
AcDbLine
 10
16.1640763099283
 20
8.800753813243927
 30
0.0
 11
16.03810037239543
 21
8.800753813243927
 31
0.0
1001
ACAD
1000
TCW40_DEV_WIDTH
1002
{
1040
-3.0
1002
}
  0
LINE
  5
6B04
330
1F
100
AcDbEntity
  8
0
100
AcDbLine
 10
15.91192263116578
 20
8.800753813243927
 30
0.0
 11
15.78594669363293
 21
8.800753813243927
 31
0.0
1001
ACAD
1000
TCW40_DEV_WIDTH
1002
{
1040
-3.0
1002
}
  0
LINE
  5
6B05
330
1F
100
AcDbEntity
  8
0
100
AcDbLine
 10
15.65976895240328
 20
8.800753813243927
 30
0.0
 11
15.53379301487044
 21
8.800753813243927
 31
0.0
1001
ACAD
1000
TCW40_DEV_WIDTH
1002
{
1040
-3.0
1002
}
  0
LINE
  5
6B06
330
1F
100
AcDbEntity
  8
0
100
AcDbLine
 10
15.40761527364078
 20
8.800753813243927
 30
0.0
 11
15.28163933610795
 21
8.800753813243927
 31
0.0
1001
ACAD
1000
TCW40_DEV_WIDTH
1002
{
1040
-3.0
1002
}
  0
LWPOLYLINE
  5
6B07
330
1F
100
AcDbEntity
  8
0
100
AcDbPolyline
 90
        2
 70
     0
 43
0.0
 10
14.76477718150642
 20
2.798164700686402
 42
-0.0156796610766747
 10
14.91504679590978
 20
2.810676470160808
  0
LWPOLYLINE
  5
6B08
330
1F
100
AcDbEntity
  8
0
100
AcDbPolyline
 90
        2
 70
     0
 43
0.0
 10
15.01665037149816
 20
2.813784199993167
 42
-0.0157936648709978
 10
15.16849854462768
 20
2.810421137378788
  0
LWPOLYLINE
  5
6B09
330
1F
100
AcDbEntity
  8
0
100
AcDbPolyline
 90
        2
 70
     0
 43
0.0
 10
14.00706614737046
 20
2.695970072345505
 42
0.0089034290691004
 10
14.16342545425736
 20
2.708509746575841
  0
LWPOLYLINE
  5
6B0A
330
1F
100
AcDbEntity
  8
0
100
AcDbPolyline
 90
        2
 70
     0
 43
0.0
 10
14.25937450707442
 20
2.718989338421418
 42
0.0089301670529736
 10
14.41521962108992
 20
2.740570834290575
  0
LWPOLYLINE
  5
6B0B
330
1F
100
AcDbEntity
  8
0
100
AcDbPolyline
 90
        2
 70
     0
 43
0.0
 10
14.50822943189678
 20
2.754506478712198
 42
-0.0164208329197848
 10
14.66330555280664
 20
2.784307546428091
  0
LWPOLYLINE
  5
6B0C
330
1F
100
AcDbEntity
  8
0
100
AcDbPolyline
 90
        2
 70
     0
 43
0.0
 10
14.76942431351917
 20
2.859211097002854
 42
-0.0146801367772511
 10
14.91011839807052
 20
2.870933188612226
  0
LWPOLYLINE
  5
6B0D
330
1F
100
AcDbEntity
  8
0
100
AcDbPolyline
 90
        2
 70
     0
 43
0.0
 10
15.02112750938769
 20
2.874339183748403
 42
-0.014869698490557
 10
15.16409621303732
 20
2.871170732713959
  0
LWPOLYLINE
  5
6B0E
330
1F
100
AcDbEntity
  8
0
100
AcDbPolyline
 90
        2
 70
     0
 43
0.0
 10
14.01110757904568
 20
2.756740603627542
 42
0.0082305580818414
 10
14.15565672622931
 20
2.768271106688431
  0
LWPOLYLINE
  5
6B0F
330
1F
100
AcDbEntity
  8
0
100
AcDbPolyline
 90
        2
 70
     0
 43
0.0
 10
14.25937450707442
 20
2.779506221324418
 42
0.008447071874798
 10
14.40680976028126
 20
2.799777964257304
  0
LWPOLYLINE
  5
6B10
330
1F
100
AcDbEntity
  8
0
100
AcDbPolyline
 90
        2
 70
     0
 43
0.0
 10
14.51536468026462
 20
2.816627741199483
 42
-0.0151648059833676
 10
14.65859929266507
 20
2.84407455060115
  0
LINE
  5
6B11
330
1F
100
AcDbEntity
  8
0
100
AcDbLine
 10
17.94223857832512
 20
2.809582405846927
 30
0.0
 11
17.79008960667363
 21
2.809582405846927
 31
0.0
1001
ACAD
1000
TCW40_DEV_WIDTH
1002
{
1040
-3.0
1002
}
  0
LINE
  5
6B12
330
1F
100
AcDbEntity
  8
0
100
AcDbLine
 10
17.6900848995626
 20
2.809582405846927
 30
0.0
 11
17.53793592791111
 21
2.809582405846927
 31
0.0
1001
ACAD
1000
TCW40_DEV_WIDTH
1002
{
1040
-3.0
1002
}
  0
LINE
  5
6B13
330
1F
100
AcDbEntity
  8
0
100
AcDbLine
 10
17.43793122080011
 20
2.809582405846927
 30
0.0
 11
17.28578224914862
 21
2.809582405846927
 31
0.0
1001
ACAD
1000
TCW40_DEV_WIDTH
1002
{
1040
-3.0
1002
}
  0
LINE
  5
6B14
330
1F
100
AcDbEntity
  8
0
100
AcDbLine
 10
17.18577754203761
 20
2.809582405846927
 30
0.0
 11
17.03362857038613
 21
2.809582405846927
 31
0.0
1001
ACAD
1000
TCW40_DEV_WIDTH
1002
{
1040
-3.0
1002
}
  0
LINE
  5
6B15
330
1F
100
AcDbEntity
  8
0
100
AcDbLine
 10
16.93362386327512
 20
2.809582405846927
 30
0.0
 11
16.78147489162363
 21
2.809582405846927
 31
0.0
1001
ACAD
1000
TCW40_DEV_WIDTH
1002
{
1040
-3.0
1002
}
  0
LINE
  5
6B16
330
1F
100
AcDbEntity
  8
0
100
AcDbLine
 10
16.68147018451263
 20
2.809582405846927
 30
0.0
 11
16.52932121286111
 21
2.809582405846927
 31
0.0
1001
ACAD
1000
TCW40_DEV_WIDTH
1002
{
1040
-3.0
1002
}
  0
LINE
  5
6B17
330
1F
100
AcDbEntity
  8
0
100
AcDbLine
 10
16.42931650575011
 20
2.809582405846927
 30
0.0
 11
16.27716753409861
 21
2.809582405846927
 31
0.0
1001
ACAD
1000
TCW40_DEV_WIDTH
1002
{
1040
-3.0
1002
}
  0
LINE
  5
6B18
330
1F
100
AcDbEntity
  8
0
100
AcDbLine
 10
16.17716282698761
 20
2.809582405846927
 30
0.0
 11
16.02501385533612
 21
2.809582405846927
 31
0.0
1001
ACAD
1000
TCW40_DEV_WIDTH
1002
{
1040
-3.0
1002
}
  0
LINE
  5
6B19
330
1F
100
AcDbEntity
  8
0
100
AcDbLine
 10
15.92500914822511
 20
2.809582405846927
 30
0.0
 11
15.77286017657363
 21
2.809582405846927
 31
0.0
1001
ACAD
1000
TCW40_DEV_WIDTH
1002
{
1040
-3.0
1002
}
  0
LINE
  5
6B1A
330
1F
100
AcDbEntity
  8
0
100
AcDbLine
 10
15.67285546946262
 20
2.809582405846927
 30
0.0
 11
15.5207064978111
 21
2.809582405846927
 31
0.0
1001
ACAD
1000
TCW40_DEV_WIDTH
1002
{
1040
-3.0
1002
}
  0
LINE
  5
6B1B
330
1F
100
AcDbEntity
  8
0
100
AcDbLine
 10
15.4207017907001
 20
2.809582405846927
 30
0.0
 11
15.26855281904861
 21
2.809582405846927
 31
0.0
1001
ACAD
1000
TCW40_DEV_WIDTH
1002
{
1040
-3.0
1002
}
  0
LINE
  5
6B1C
330
1F
100
AcDbEntity
  8
0
100
AcDbLine
 10
17.93951534290646
 20
2.849926994448925
 30
0.0
 11
17.79281284209227
 21
2.849926994448925
 31
0.0
1001
ACAD
1000
TCW40_DEV_WIDTH
1002
{
1040
-3.0
1002
}
  0
LINE
  5
6B1D
330
1F
100
AcDbEntity
  8
0
100
AcDbLine
 10
17.68736166414396
 20
2.849926994448925
 30
0.0
 11
17.54065916332975
 21
2.849926994448925
 31
0.0
1001
ACAD
1000
TCW40_DEV_WIDTH
1002
{
1040
-3.0
1002
}
  0
LINE
  5
6B1E
330
1F
100
AcDbEntity
  8
0
100
AcDbLine
 10
17.43520798538147
 20
2.849926994448925
 30
0.0
 11
17.28850548456725
 21
2.849926994448925
 31
0.0
1001
ACAD
1000
TCW40_DEV_WIDTH
1002
{
1040
-3.0
1002
}
  0
LINE
  5
6B1F
330
1F
100
AcDbEntity
  8
0
100
AcDbLine
 10
17.18305430661898
 20
2.849926994448925
 30
0.0
 11
17.03635180580475
 21
2.849926994448925
 31
0.0
1001
ACAD
1000
TCW40_DEV_WIDTH
1002
{
1040
-3.0
1002
}
  0
LINE
  5
6B20
330
1F
100
AcDbEntity
  8
0
100
AcDbLine
 10
16.93090062785649
 20
2.849926994448925
 30
0.0
 11
16.78419812704226
 21
2.849926994448925
 31
0.0
1001
ACAD
1000
TCW40_DEV_WIDTH
1002
{
1040
-3.0
1002
}
  0
LINE
  5
6B21
330
1F
100
AcDbEntity
  8
0
100
AcDbLine
 10
16.67874694909396
 20
2.849926994448925
 30
0.0
 11
16.53204444827977
 21
2.849926994448925
 31
0.0
1001
ACAD
1000
TCW40_DEV_WIDTH
1002
{
1040
-3.0
1002
}
  0
LINE
  5
6B22
330
1F
100
AcDbEntity
  8
0
100
AcDbLine
 10
16.42659327033146
 20
2.849926994448925
 30
0.0
 11
16.27989076951725
 21
2.849926994448925
 31
0.0
1001
ACAD
1000
TCW40_DEV_WIDTH
1002
{
1040
-3.0
1002
}
  0
LINE
  5
6B23
330
1F
100
AcDbEntity
  8
0
100
AcDbLine
 10
16.17443959156897
 20
2.849926994448925
 30
0.0
 11
16.02773709075475
 21
2.849926994448925
 31
0.0
1001
ACAD
1000
TCW40_DEV_WIDTH
1002
{
1040
-3.0
1002
}
  0
LINE
  5
6B24
330
1F
100
AcDbEntity
  8
0
100
AcDbLine
 10
15.92228591280648
 20
2.849926994448925
 30
0.0
 11
15.77558341199226
 21
2.849926994448925
 31
0.0
1001
ACAD
1000
TCW40_DEV_WIDTH
1002
{
1040
-3.0
1002
}
  0
LINE
  5
6B25
330
1F
100
AcDbEntity
  8
0
100
AcDbLine
 10
15.67013223404396
 20
2.849926994448925
 30
0.0
 11
15.52342973322977
 21
2.849926994448925
 31
0.0
1001
ACAD
1000
TCW40_DEV_WIDTH
1002
{
1040
-3.0
1002
}
  0
LINE
  5
6B26
330
1F
100
AcDbEntity
  8
0
100
AcDbLine
 10
15.41797855528146
 20
2.849926994448925
 30
0.0
 11
15.27127605446725
 21
2.849926994448925
 31
0.0
1001
ACAD
1000
TCW40_DEV_WIDTH
1002
{
1040
-3.0
1002
}
  0
LINE
  5
6B27
330
1F
100
AcDbEntity
  8
0
100
AcDbLine
 10
17.93604296976848
 20
2.890271583050927
 30
0.0
 11
17.79628521523024
 21
2.890271583050927
 31
0.0
1001
ACAD
1000
TCW40_DEV_WIDTH
1002
{
1040
-3.0
1002
}
  0
LINE
  5
6B28
330
1F
100
AcDbEntity
  8
0
100
AcDbLine
 10
17.683889291006
 20
2.890271583050927
 30
0.0
 11
17.54413153646774
 21
2.890271583050927
 31
0.0
1001
ACAD
1000
TCW40_DEV_WIDTH
1002
{
1040
-3.0
1002
}
  0
LINE
  5
6B29
330
1F
100
AcDbEntity
  8
0
100
AcDbLine
 10
17.4317356122435
 20
2.890271583050927
 30
0.0
 11
17.29197785770522
 21
2.890271583050927
 31
0.0
1001
ACAD
1000
TCW40_DEV_WIDTH
1002
{
1040
-3.0
1002
}
  0
LINE
  5
6B2A
330
1F
100
AcDbEntity
  8
0
100
AcDbLine
 10
17.179581933481
 20
2.890271583050927
 30
0.0
 11
17.03982417894273
 21
2.890271583050927
 31
0.0
1001
ACAD
1000
TCW40_DEV_WIDTH
1002
{
1040
-3.0
1002
}
  0
LINE
  5
6B2B
330
1F
100
AcDbEntity
  8
0
100
AcDbLine
 10
16.92742825471848
 20
2.890271583050927
 30
0.0
 11
16.78767050018024
 21
2.890271583050927
 31
0.0
1001
ACAD
1000
TCW40_DEV_WIDTH
1002
{
1040
-3.0
1002
}
  0
LINE
  5
6B2C
330
1F
100
AcDbEntity
  8
0
100
AcDbLine
 10
16.67527457595599
 20
2.890271583050927
 30
0.0
 11
16.53551682141774
 21
2.890271583050927
 31
0.0
1001
ACAD
1000
TCW40_DEV_WIDTH
1002
{
1040
-3.0
1002
}
  0
LINE
  5
6B2D
330
1F
100
AcDbEntity
  8
0
100
AcDbLine
 10
16.4231208971935
 20
2.890271583050927
 30
0.0
 11
16.28336314265522
 21
2.890271583050927
 31
0.0
1001
ACAD
1000
TCW40_DEV_WIDTH
1002
{
1040
-3.0
1002
}
  0
LINE
  5
6B2E
330
1F
100
AcDbEntity
  8
0
100
AcDbLine
 10
16.170967218431
 20
2.890271583050927
 30
0.0
 11
16.03120946389273
 21
2.890271583050927
 31
0.0
1001
ACAD
1000
TCW40_DEV_WIDTH
1002
{
1040
-3.0
1002
}
  0
LINE
  5
6B2F
330
1F
100
AcDbEntity
  8
0
100
AcDbLine
 10
15.9188135396685
 20
2.890271583050927
 30
0.0
 11
15.77905578513024
 21
2.890271583050927
 31
0.0
1001
ACAD
1000
TCW40_DEV_WIDTH
1002
{
1040
-3.0
1002
}
  0
LINE
  5
6B30
330
1F
100
AcDbEntity
  8
0
100
AcDbLine
 10
15.66665986090598
 20
2.890271583050927
 30
0.0
 11
15.52690210636774
 21
2.890271583050927
 31
0.0
1001
ACAD
1000
TCW40_DEV_WIDTH
1002
{
1040
-3.0
1002
}
  0
LINE
  5
6B31
330
1F
100
AcDbEntity
  8
0
100
AcDbLine
 10
15.41450618214349
 20
2.890271583050927
 30
0.0
 11
15.27474842760524
 21
2.890271583050927
 31
0.0
1001
ACAD
1000
TCW40_DEV_WIDTH
1002
{
1040
-3.0
1002
}
  0
LINE
  5
6B32
330
1F
100
AcDbEntity
  8
0
100
AcDbLine
 10
17.92915206126578
 20
2.950788465953926
 30
0.0
 11
17.80317612373294
 21
2.950788465953926
 31
0.0
1001
ACAD
1000
TCW40_DEV_WIDTH
1002
{
1040
-3.0
1002
}
  0
LINE
  5
6B33
330
1F
100
AcDbEntity
  8
0
100
AcDbLine
 10
17.67699838250329
 20
2.950788465953926
 30
0.0
 11
17.55102244497045
 21
2.950788465953926
 31
0.0
1001
ACAD
1000
TCW40_DEV_WIDTH
1002
{
1040
-3.0
1002
}
  0
LINE
  5
6B34
330
1F
100
AcDbEntity
  8
0
100
AcDbLine
 10
17.4248447037408
 20
2.950788465953926
 30
0.0
 11
17.29886876620793
 21
2.950788465953926
 31
0.0
1001
ACAD
1000
TCW40_DEV_WIDTH
1002
{
1040
-3.0
1002
}
  0
LINE
  5
6B35
330
1F
100
AcDbEntity
  8
0
100
AcDbLine
 10
17.1726910249783
 20
2.950788465953926
 30
0.0
 11
17.04671508744543
 21
2.950788465953926
 31
0.0
1001
ACAD
1000
TCW40_DEV_WIDTH
1002
{
1040
-3.0
1002
}
  0
LINE
  5
6B36
330
1F
100
AcDbEntity
  8
0
100
AcDbLine
 10
16.92053734621578
 20
2.950788465953926
 30
0.0
 11
16.79456140868294
 21
2.950788465953926
 31
0.0
1001
ACAD
1000
TCW40_DEV_WIDTH
1002
{
1040
-3.0
1002
}
  0
LINE
  5
6B37
330
1F
100
AcDbEntity
  8
0
100
AcDbLine
 10
16.66838366745328
 20
2.950788465953926
 30
0.0
 11
16.54240772992045
 21
2.950788465953926
 31
0.0
1001
ACAD
1000
TCW40_DEV_WIDTH
1002
{
1040
-3.0
1002
}
  0
LINE
  5
6B38
330
1F
100
AcDbEntity
  8
0
100
AcDbLine
 10
16.41622998869079
 20
2.950788465953926
 30
0.0
 11
16.29025405115796
 21
2.950788465953926
 31
0.0
1001
ACAD
1000
TCW40_DEV_WIDTH
1002
{
1040
-3.0
1002
}
  0
LINE
  5
6B39
330
1F
100
AcDbEntity
  8
0
100
AcDbLine
 10
16.1640763099283
 20
2.950788465953926
 30
0.0
 11
16.03810037239543
 21
2.950788465953926
 31
0.0
1001
ACAD
1000
TCW40_DEV_WIDTH
1002
{
1040
-3.0
1002
}
  0
LINE
  5
6B3A
330
1F
100
AcDbEntity
  8
0
100
AcDbLine
 10
15.91192263116578
 20
2.950788465953926
 30
0.0
 11
15.78594669363293
 21
2.950788465953926
 31
0.0
1001
ACAD
1000
TCW40_DEV_WIDTH
1002
{
1040
-3.0
1002
}
  0
LINE
  5
6B3B
330
1F
100
AcDbEntity
  8
0
100
AcDbLine
 10
15.65976895240328
 20
2.950788465953926
 30
0.0
 11
15.53379301487044
 21
2.950788465953926
 31
0.0
1001
ACAD
1000
TCW40_DEV_WIDTH
1002
{
1040
-3.0
1002
}
  0
LINE
  5
6B3C
330
1F
100
AcDbEntity
  8
0
100
AcDbLine
 10
15.40761527364078
 20
2.950788465953926
 30
0.0
 11
15.28163933610795
 21
2.950788465953926
 31
0.0
1001
ACAD
1000
TCW40_DEV_WIDTH
1002
{
1040
-3.0
1002
}
  0
LWPOLYLINE
  5
6B3D
330
1F
100
AcDbEntity
  8
0
100
AcDbPolyline
 90
        4
 70
     1
 43
0.0
 10
14.96135371315537
 20
4.504055127130928
 10
17.58375197228535
 20
4.504055127130928
 10
17.58375197228535
 20
7.126453386260925
 10
14.96135371315537
 20
7.126453386260925
1001
ACAD
1000
TCW40_DEV_WIDTH
1002
{
1040
-3.0
1002
}
  0
LWPOLYLINE
  5
6C13
330
1F
100
AcDbEntity
  8
0
100
AcDbPolyline
 90
        4
 70
     1
 43
0.0
 10
11.827064066341
 20
2.852282752201227
 10
11.827064066341
 20
8.902820950416082
 42
0.2926829268292685
 10
10.17293593365899
 20
8.902820950416082
 10
10.17293593365899
 20
2.852282752201227
 42
0.2926829268292685
  0
LWPOLYLINE
  5
6C14
330
1F
100
AcDbEntity
  8
0
100
AcDbPolyline
 90
        2
 70
     0
 43
0.0
 10
10.17314783569348
 20
3.29979358736887
 42
0.2926829268292685
 10
11.82727596837548
 20
3.29979358736887
  0
LWPOLYLINE
  5
6C15
330
1F
100
AcDbEntity
  8
0
100
AcDbPolyline
 90
        2
 70
     0
 43
0.0
 10
11.51817192401852
 20
3.14434901309935
 42
0.0326726613379993
 10
11.70183939054098
 20
3.224156240556294
  0
ARC
  5
6C16
330
1F
100
AcDbEntity
  8
0
100
AcDbCircle
 10
11.60516882903
 20
3.195384049619227
 30
0.0
 40
0.1008614715050007
100
AcDbArc
 50
210.3971854111937
 51
16.57465593228512
1001
ACAD
1000
TCW40_DEV_WIDTH
1002
{
1040
-3.0
1002
}
  0
LWPOLYLINE
  5
6C17
330
1F
100
AcDbEntity
  8
0
100
AcDbPolyline
 90
        2
 70
     0
 43
0.0
 10
10.5032740562649
 20
3.140451442478934
 42
-0.0326726613379993
 10
10.31960658974248
 20
3.220258669935877
  0
ARC
  5
6C18
330
1F
100
AcDbEntity
  8
0
100
AcDbCircle
 10
10.41627715125346
 20
3.191486478998812
 30
0.0
 40
0.1008614715050003
100
AcDbArc
 50
163.4253440677148
 51
329.6028145888063
1001
ACAD
1000
TCW40_DEV_WIDTH
1002
{
1040
-3.0
1002
}
  0
ARC
  5
6C19
330
1F
100
AcDbEntity
  8
0
100
AcDbCircle
 10
11.52713869089979
 20
4.30354271792856
 30
0.0
 40
0.1512922072575
100
AcDbArc
 50
180.0
 51
10.75795811665849
1001
ACAD
1000
TCW40_DEV_WIDTH
1002
{
1040
-3.0
1002
}
  0
ARC
  5
6C1A
330
1F
100
AcDbEntity
  8
0
100
AcDbCircle
 10
11.52447965182599
 20
8.095929178376081
 30
0.0
 40
0.1512922072575
100
AcDbArc
 50
0.0
 51
180.0803460792389
1001
ACAD
1000
TCW40_DEV_WIDTH
1002
{
1040
-3.0
1002
}
  0
LINE
  5
6C1B
330
1F
100
AcDbEntity
  8
0
100
AcDbLine
 10
11.37318744456849
 20
8.095929178376081
 30
0.0
 11
11.37462852204643
 21
6.040629288428092
 31
0.0
1001
ACAD
1000
TCW40_DEV_WIDTH
1002
{
1040
-3.0
1002
}
  0
LINE
  5
6C1C
330
1F
100
AcDbEntity
  8
0
100
AcDbLine
 10
11.37485815977916
 20
5.713114346298262
 30
0.0
 11
11.37584648364229
 21
4.30354271792856
 31
0.0
1001
ACAD
1000
TCW40_DEV_WIDTH
1002
{
1040
-3.0
1002
}
  0
LINE
  5
6C1D
330
1F
100
AcDbEntity
  8
0
100
AcDbLine
 10
11.67577185908349
 20
8.095929178376081
 30
0.0
 11
11.67577185908349
 21
6.039297981840363
 31
0.0
1001
ACAD
1000
TCW40_DEV_WIDTH
1002
{
1040
-3.0
1002
}
  0
LINE
  5
6C1E
330
1F
100
AcDbEntity
  8
0
100
AcDbLine
 10
11.67577185908349
 20
5.714655628691801
 30
0.0
 11
11.67577185908349
 21
4.331782995769359
 31
0.0
1001
ACAD
1000
TCW40_DEV_WIDTH
1002
{
1040
-3.0
1002
}
  0
ARC
  5
6C1F
330
1F
100
AcDbEntity
  8
0
100
AcDbCircle
 10
11.52447965182599
 20
5.876976805266082
 30
0.0
 40
0.2218952373110004
100
AcDbArc
 50
312.9858860801886
 51
47.01411391981131
1001
ACAD
1000
TCW40_DEV_WIDTH
1002
{
1040
-3.0
1002
}
  0
ARC
  5
6C20
330
1F
100
AcDbEntity
  8
0
100
AcDbCircle
 10
11.52447965182599
 20
5.876976805266082
 30
0.0
 40
0.2218952373110002
100
AcDbArc
 50
132.4792984030608
 51
227.6010476761873
1001
ACAD
1000
TCW40_DEV_WIDTH
1002
{
1040
-3.0
1002
}
  0
CIRCLE
  5
6C21
330
1F
100
AcDbEntity
  8
0
100
AcDbCircle
 10
11.52447965182599
 20
8.095929178376081
 30
0.0
 40
0.0706030300535
  0
CIRCLE
  5
6C22
330
1F
100
AcDbEntity
  8
0
100
AcDbCircle
 10
11.52447965182599
 20
7.914378529667082
 30
0.0
 40
0.0706030300535
  0
CIRCLE
  5
6C23
330
1F
100
AcDbEntity
  8
0
100
AcDbCircle
 10
11.52580917136291
 20
7.732830315028323
 30
0.0
 40
0.0706030300535
  0
CIRCLE
  5
6C24
330
1F
100
AcDbEntity
  8
0
100
AcDbCircle
 10
11.52580917136291
 20
7.450418194814321
 30
0.0
 40
0.0706030300535
  0
CIRCLE
  5
6C25
330
1F
100
AcDbEntity
  8
0
100
AcDbCircle
 10
11.52580917136291
 20
7.268867546105322
 30
0.0
 40
0.0706030300535
  0
CIRCLE
  5
6C26
330
1F
100
AcDbEntity
  8
0
100
AcDbCircle
 10
11.52713869089979
 20
7.087319331466559
 30
0.0
 40
0.0706030300535
  0
CIRCLE
  5
6C27
330
1F
100
AcDbEntity
  8
0
100
AcDbCircle
 10
11.52713869089979
 20
6.90576868275756
 30
0.0
 40
0.0706030300535
  0
CIRCLE
  5
6C28
330
1F
100
AcDbEntity
  8
0
100
AcDbCircle
 10
11.52846821043671
 20
6.724220468118801
 30
0.0
 40
0.0706030300535
  0
CIRCLE
  5
6C29
330
1F
100
AcDbEntity
  8
0
100
AcDbCircle
 10
11.52846821043671
 20
6.542669819409798
 30
0.0
 40
0.0706030300535
  0
CIRCLE
  5
6C2A
330
1F
100
AcDbEntity
  8
0
100
AcDbCircle
 10
11.52979772997363
 20
6.361121604771039
 30
0.0
 40
0.0706030300535
  0
CIRCLE
  5
6C2B
330
1F
100
AcDbEntity
  8
0
100
AcDbCircle
 10
11.53112724951051
 20
6.179573390132279
 30
0.0
 40
0.0706030300535
  0
CIRCLE
  5
6C2C
330
1F
100
AcDbEntity
  8
0
100
AcDbCircle
 10
11.52447965182599
 20
5.876976805266082
 30
0.0
 40
0.161378354408
  0
CIRCLE
  5
6C2D
330
1F
100
AcDbEntity
  8
0
100
AcDbCircle
 10
11.52049109321527
 20
5.574385088540367
 30
0.0
 40
0.0706030300535
  0
CIRCLE
  5
6C2E
330
1F
100
AcDbEntity
  8
0
100
AcDbCircle
 10
11.52049109321527
 20
5.392834439831364
 30
0.0
 40
0.0706030300535
  0
CIRCLE
  5
6C2F
330
1F
100
AcDbEntity
  8
0
100
AcDbCircle
 10
11.52182061275219
 20
5.211286225192605
 30
0.0
 40
0.0706030300535
  0
CIRCLE
  5
6C30
330
1F
100
AcDbEntity
  8
0
100
AcDbCircle
 10
11.52182061275219
 20
5.029735576483605
 30
0.0
 40
0.0706030300535
  0
CIRCLE
  5
6C31
330
1F
100
AcDbEntity
  8
0
100
AcDbCircle
 10
11.52315013228908
 20
4.848187361844844
 30
0.0
 40
0.0706030300535
  0
CIRCLE
  5
6C32
330
1F
100
AcDbEntity
  8
0
100
AcDbCircle
 10
11.52447965182599
 20
4.666639147206082
 30
0.0
 40
0.0706030300535
  0
CIRCLE
  5
6C33
330
1F
100
AcDbEntity
  8
0
100
AcDbCircle
 10
11.52580917136291
 20
4.485090932567321
 30
0.0
 40
0.0706030300535
  0
CIRCLE
  5
6C34
330
1F
100
AcDbEntity
  8
0
100
AcDbCircle
 10
11.52713869089979
 20
4.30354271792856
 30
0.0
 40
0.0706030300535
  0
LWPOLYLINE
  5
6C35
330
1F
100
AcDbEntity
  8
0
100
AcDbPolyline
 90
        6
 70
     1
 43
0.0
 10
10.35862309855355
 20
8.905967490962694
 42
-0.1078140815637649
 10
11.00000000000338
 20
9.045921372975342
 42
-0.1078140815637649
 10
11.64137690145323
 20
8.905967490962694
 42
-0.2987699696404638
 10
11.68573212776898
 20
8.8293530611815
 42
-0.3874703057085576
 10
11.00000000000338
 20
8.211639349896838
 42
-0.3874703057085576
 10
10.3142678722378
 20
8.8293530611815
 42
-0.2987699696404589
  0
LWPOLYLINE
  5
70FD
330
1F
100
AcDbEntity
  8
0
100
AcDbPolyline
 90
        3
 70
     0
 43
0.0
 10
13.67725077381657
 20
9.143710603151932
 42
0.1116363669694671
 10
13.63579145215971
 20
5.608795778236428
 42
-0.0457021566903444
 10
13.72167676948637
 20
2.609037341713077
  0
LWPOLYLINE
  5
70FF
330
1F
100
AcDbEntity
  8
0
100
AcDbPolyline
 90
        3
 70
     0
 43
0.0
 10
13.80045542949588
 20
9.143710603151932
 42
0.1116363669694671
 10
13.75899610783901
 20
5.608795778236428
 42
-0.045686805620937
 10
13.87488142516568
 20
2.609037341713077
  0
LINE
  5
7100
330
1F
100
AcDbEntity
  8
0
100
AcDbLine
 10
13.67725077381657
 20
9.143710603151932
 30
0.0
 11
13.80045542949588
 21
9.143710603151932
 31
0.0
1001
ACAD
1000
TCW40_DEV_WIDTH
1002
{
1040
-3.0
1002
}
  0
LINE
  5
7102
330
1F
100
AcDbEntity
  8
0
100
AcDbLine
 10
13.72167676948637
 20
2.609037341713077
 30
0.0
 11
13.87488142516568
 21
2.609037341713077
 31
0.0
1001
ACAD
1000
TCW40_DEV_WIDTH
1002
{
1040
-3.0
1002
}
  0
LINE
  5
7219
330
1F
100
AcDbEntity
  8
0
100
AcDbLine
 10
4.053146730296631
 20
2.607859462836926
 30
0.0
 11
3.891768375888641
 21
2.607859462836926
 31
0.0
1001
ACAD
1000
TCW40_DEV_WIDTH
1002
{
1040
-3.0
1002
}
  0
LINE
  5
721A
330
1F
100
AcDbEntity
  8
0
100
AcDbLine
 10
3.891768375888641
 20
2.607859462836926
 30
0.0
 11
3.891768375888641
 21
9.022649050554926
 31
0.0
1001
ACAD
1000
TCW40_DEV_WIDTH
1002
{
1040
-3.0
1002
}
  0
ELLIPSE
  5
721B
330
1F
100
AcDbEntity
  8
0
100
AcDbEllipse
 10
4.133835907500614
 20
2.728893228642927
 30
0.0
 11
0.0
 21
-0.4841350632240001
 31
0.0
210
0.0
220
0.0
230
-1.0
 40
0.1666666666666666
 41
1.570796326794896
 42
4.712388980384689
1001
ACAD
1000
TCW40_DEV_WIDTH
1002
{
1040
-3.0
1002
}
  0
LINE
  5
721C
330
1F
100
AcDbEntity
  8
0
100
AcDbLine
 10
4.214525084704625
 20
2.728893228642927
 30
0.0
 11
4.305300409059125
 21
2.728893228642927
 31
0.0
1001
ACAD
1000
TCW40_DEV_WIDTH
1002
{
1040
-3.0
1002
}
  0
LINE
  5
721D
330
1F
100
AcDbEntity
  8
0
100
AcDbLine
 10
4.466678763467118
 20
2.728893228642927
 30
0.0
 11
4.558582663363694
 21
2.728893228642927
 31
0.0
1001
ACAD
1000
TCW40_DEV_WIDTH
1002
{
1040
-3.0
1002
}
  0
LINE
  5
721E
330
1F
100
AcDbEntity
  8
0
100
AcDbLine
 10
4.717703866687539
 20
2.728893228642927
 30
0.0
 11
4.810736342126215
 21
2.728893228642927
 31
0.0
1001
ACAD
1000
TCW40_DEV_WIDTH
1002
{
1040
-3.0
1002
}
  0
LINE
  5
721F
330
1F
100
AcDbEntity
  8
0
100
AcDbLine
 10
4.969857545450061
 20
2.728893228642927
 30
0.0
 11
5.062890020888708
 21
2.728893228642927
 31
0.0
1001
ACAD
1000
TCW40_DEV_WIDTH
1002
{
1040
-3.0
1002
}
  0
LINE
  5
7220
330
1F
100
AcDbEntity
  8
0
100
AcDbLine
 10
5.222011224212554
 20
2.728893228642927
 30
0.0
 11
5.315043699651202
 21
2.728893228642927
 31
0.0
1001
ACAD
1000
TCW40_DEV_WIDTH
1002
{
1040
-3.0
1002
}
  0
LINE
  5
7221
330
1F
100
AcDbEntity
  8
0
100
AcDbLine
 10
5.474164902975047
 20
2.728893228642927
 30
0.0
 11
5.567197378413695
 21
2.728893228642927
 31
0.0
1001
ACAD
1000
TCW40_DEV_WIDTH
1002
{
1040
-3.0
1002
}
  0
LINE
  5
7222
330
1F
100
AcDbEntity
  8
0
100
AcDbLine
 10
5.72631858173754
 20
2.728893228642927
 30
0.0
 11
5.818222481634116
 21
2.728893228642927
 31
0.0
1001
ACAD
1000
TCW40_DEV_WIDTH
1002
{
1040
-3.0
1002
}
  0
LINE
  5
7223
330
1F
100
AcDbEntity
  8
0
100
AcDbLine
 10
5.979600836042138
 20
2.728893228642927
 30
0.0
 11
6.070376160396637
 21
2.728893228642927
 31
0.0
1001
ACAD
1000
TCW40_DEV_WIDTH
1002
{
1040
-3.0
1002
}
  0
LINE
  5
7224
330
1F
100
AcDbEntity
  8
0
100
AcDbLine
 10
6.231754514804631
 20
2.728893228642927
 30
0.0
 11
6.32252983915913
 21
2.728893228642927
 31
0.0
1001
ACAD
1000
TCW40_DEV_WIDTH
1002
{
1040
-3.0
1002
}
  0
LINE
  5
7225
330
1F
100
AcDbEntity
  8
0
100
AcDbLine
 10
6.483908193567124
 20
2.728893228642927
 30
0.0
 11
6.574683517921627
 21
2.728893228642927
 31
0.0
1001
ACAD
1000
TCW40_DEV_WIDTH
1002
{
1040
-3.0
1002
}
  0
LINE
  5
7226
330
1F
100
AcDbEntity
  8
0
100
AcDbLine
 10
6.736061872329617
 20
2.728893228642927
 30
0.0
 11
6.82683719668412
 21
2.728893228642927
 31
0.0
1001
ACAD
1000
TCW40_DEV_WIDTH
1002
{
1040
-3.0
1002
}
  0
LINE
  5
7227
330
1F
100
AcDbEntity
  8
0
100
AcDbLine
 10
4.053146730296631
 20
2.728893228642927
 30
0.0
 11
4.053146730296631
 21
2.607859462836926
 31
0.0
1001
ACAD
1000
TCW40_DEV_WIDTH
1002
{
1040
-3.0
1002
}
  0
ELLIPSE
  5
7228
330
1F
100
AcDbEntity
  8
0
100
AcDbEllipse
 10
4.385989586263136
 20
2.728893228642927
 30
0.0
 11
0.0
 21
-0.4841350632240001
 31
0.0
210
0.0
220
0.0
230
-1.0
 40
0.1666666666666666
 41
1.570796326794896
 42
4.712388980384689
1001
ACAD
1000
TCW40_DEV_WIDTH
1002
{
1040
-3.0
1002
}
  0
ELLIPSE
  5
7229
330
1F
100
AcDbEntity
  8
0
100
AcDbEllipse
 10
4.638143265025629
 20
2.728893228642927
 30
0.0
 11
0.0
 21
-0.4841350632240001
 31
0.0
210
0.0
220
0.0
230
-1.0
 40
0.1666666666666666
 41
1.570796326794896
 42
4.712388980384689
1001
ACAD
1000
TCW40_DEV_WIDTH
1002
{
1040
-3.0
1002
}
  0
ELLIPSE
  5
722A
330
1F
100
AcDbEntity
  8
0
100
AcDbEllipse
 10
4.890296943788122
 20
2.728893228642927
 30
0.0
 11
0.0
 21
-0.4841350632240001
 31
0.0
210
0.0
220
0.0
230
-1.0
 40
0.1666666666666666
 41
1.570796326794896
 42
4.712388980384689
1001
ACAD
1000
TCW40_DEV_WIDTH
1002
{
1040
-3.0
1002
}
  0
ELLIPSE
  5
722B
330
1F
100
AcDbEntity
  8
0
100
AcDbEllipse
 10
5.142450622550615
 20
2.728893228642927
 30
0.0
 11
0.0
 21
-0.4841350632240001
 31
0.0
210
0.0
220
0.0
230
-1.0
 40
0.1666666666666666
 41
1.570796326794896
 42
4.712388980384689
1001
ACAD
1000
TCW40_DEV_WIDTH
1002
{
1040
-3.0
1002
}
  0
ELLIPSE
  5
722C
330
1F
100
AcDbEntity
  8
0
100
AcDbEllipse
 10
5.39460430131314
 20
2.728893228642927
 30
0.0
 11
0.0
 21
-0.4841350632240001
 31
0.0
210
0.0
220
0.0
230
-1.0
 40
0.1666666666666666
 41
1.570796326794896
 42
4.712388980384689
1001
ACAD
1000
TCW40_DEV_WIDTH
1002
{
1040
-3.0
1002
}
  0
ELLIPSE
  5
722D
330
1F
100
AcDbEntity
  8
0
100
AcDbEllipse
 10
5.646757980075634
 20
2.728893228642927
 30
0.0
 11
0.0
 21
-0.4841350632240001
 31
0.0
210
0.0
220
0.0
230
-1.0
 40
0.1666666666666666
 41
1.570796326794896
 42
4.712388980384689
1001
ACAD
1000
TCW40_DEV_WIDTH
1002
{
1040
-3.0
1002
}
  0
ELLIPSE
  5
722E
330
1F
100
AcDbEntity
  8
0
100
AcDbEllipse
 10
5.898911658838127
 20
2.728893228642927
 30
0.0
 11
0.0
 21
-0.4841350632240001
 31
0.0
210
0.0
220
0.0
230
-1.0
 40
0.1666666666666666
 41
1.570796326794896
 42
4.712388980384689
1001
ACAD
1000
TCW40_DEV_WIDTH
1002
{
1040
-3.0
1002
}
  0
ELLIPSE
  5
722F
330
1F
100
AcDbEntity
  8
0
100
AcDbEllipse
 10
6.15106533760062
 20
2.728893228642927
 30
0.0
 11
0.0
 21
-0.4841350632240001
 31
0.0
210
0.0
220
0.0
230
-1.0
 40
0.1666666666666666
 41
1.570796326794896
 42
4.712388980384689
1001
ACAD
1000
TCW40_DEV_WIDTH
1002
{
1040
-3.0
1002
}
  0
ELLIPSE
  5
7230
330
1F
100
AcDbEntity
  8
0
100
AcDbEllipse
 10
6.403219016363113
 20
2.728893228642927
 30
0.0
 11
0.0
 21
-0.4841350632240001
 31
0.0
210
0.0
220
0.0
230
-1.0
 40
0.1666666666666666
 41
1.570796326794896
 42
4.712388980384689
1001
ACAD
1000
TCW40_DEV_WIDTH
1002
{
1040
-3.0
1002
}
  0
ELLIPSE
  5
7231
330
1F
100
AcDbEntity
  8
0
100
AcDbEllipse
 10
6.655372695125635
 20
2.728893228642927
 30
0.0
 11
0.0
 21
-0.4841350632240001
 31
0.0
210
0.0
220
0.0
230
-1.0
 40
0.1666666666666666
 41
1.570796326794896
 42
4.712388980384689
1001
ACAD
1000
TCW40_DEV_WIDTH
1002
{
1040
-3.0
1002
}
  0
ELLIPSE
  5
7232
330
1F
100
AcDbEntity
  8
0
100
AcDbEllipse
 10
6.907526373888131
 20
2.728893228642927
 30
0.0
 11
0.0
 21
-0.4841350632239993
 31
0.0
210
0.0
220
0.0
230
-1.0
 40
0.1666666666666666
 41
1.570796326794896
 42
4.70381489399169
1001
ACAD
1000
TCW40_DEV_WIDTH
1002
{
1040
-3.0
1002
}
  0
ELLIPSE
  5
7233
330
1F
100
AcDbEntity
  8
0
100
AcDbEllipse
 10
7.159680052650625
 20
2.708720934341926
 30
0.0
 11
0.0
 21
-0.4841350632240007
 31
0.0
210
0.0
220
0.0
230
-1.0
 40
0.1666666666666674
 41
1.615351533028356
 42
4.695535778282224
1001
ACAD
1000
TCW40_DEV_WIDTH
1002
{
1040
-3.0
1002
}
  0
ELLIPSE
  5
7234
330
1F
100
AcDbEntity
  8
0
100
AcDbEllipse
 10
7.411833731413118
 20
2.688548640040926
 30
0.0
 11
0.0
 21
-0.4841350632239999
 31
0.0
210
0.0
220
0.0
230
-1.0
 40
0.1666666666666651
 41
1.603716497224721
 42
4.739650694325459
1001
ACAD
1000
TCW40_DEV_WIDTH
1002
{
1040
-3.0
1002
}
  0
ELLIPSE
  5
7235
330
1F
100
AcDbEntity
  8
0
100
AcDbEllipse
 10
7.663987410175639
 20
2.648204051438926
 30
0.0
 11
0.0
 21
-0.4841350632240002
 31
0.0
210
0.0
220
0.0
230
-1.0
 40
0.1666666666666643
 41
1.595391793617908
 42
4.733845799639416
1001
ACAD
1000
TCW40_DEV_WIDTH
1002
{
1040
-3.0
1002
}
  0
ELLIPSE
  5
7236
330
1F
100
AcDbEntity
  8
0
100
AcDbEllipse
 10
7.916141088938132
 20
2.628031757137926
 30
0.0
 11
0.0
 21
-0.4841350632240009
 31
0.0
210
0.0
220
0.0
230
-1.0
 40
0.1666666666666652
 41
1.570587995500844
 42
4.739223749283191
1001
ACAD
1000
TCW40_DEV_WIDTH
1002
{
1040
-3.0
1002
}
  0
LWPOLYLINE
  5
7237
330
1F
100
AcDbEntity
  8
0
100
AcDbPolyline
 90
        2
 70
     0
 43
0.0
 10
8.125118574834313
 20
2.609037341713077
 42
-0.0072910558792085
 10
7.996801215552682
 20
2.615041663769781
  0
LWPOLYLINE
  5
7238
330
1F
100
AcDbEntity
  8
0
100
AcDbPolyline
 90
        2
 70
     0
 43
0.0
 10
7.835451913485162
 20
2.627930896654437
 42
-0.0051836372337704
 10
7.744658013641629
 20
2.637816849971362
  0
LWPOLYLINE
  5
7239
330
1F
100
AcDbEntity
  8
0
100
AcDbPolyline
 90
        2
 70
     0
 43
0.0
 10
7.584780378919212
 20
2.659881657085294
 42
-0.0053110407206134
 10
7.4924929263336
 20
2.675351923215989
  0
LWPOLYLINE
  5
723A
330
1F
100
AcDbEntity
  8
0
100
AcDbPolyline
 90
        2
 70
     0
 43
0.0
 10
7.332759585964762
 20
2.704237998665841
 42
0.0098390854573083
 10
7.238993854782897
 20
2.717039104758936
  0
LWPOLYLINE
  5
723B
330
1F
100
AcDbEntity
  8
0
100
AcDbPolyline
 90
        2
 70
     0
 43
0.0
 10
7.080808010554672
 20
2.730198261262674
 42
0.009761046724293
 10
6.986966522661457
 20
2.733058155088769
  0
LWPOLYLINE
  5
723C
330
1F
100
AcDbEntity
  8
0
100
AcDbPolyline
 90
        2
 70
     0
 43
0.0
 10
6.82683725525808
 20
2.729476574442142
 42
0.0010502966732702
 10
6.816751049533628
 20
2.728893228642927
  0
ELLIPSE
  5
723D
330
1F
100
AcDbEntity
  8
0
100
AcDbEllipse
 10
5.646757980075634
 20
2.648204051438926
 30
0.0
 11
0.0
 21
-0.4841350632239992
 31
0.0
210
0.0
220
0.0
230
-1.0
 40
0.1666666666666656
 41
1.738244406014585
 42
4.544940901165
1001
ACAD
1000
TCW40_DEV_WIDTH
1002
{
1040
-3.0
1002
}
  0
ELLIPSE
  5
723E
330
1F
100
AcDbEntity
  8
0
100
AcDbEllipse
 10
5.39460430131314
 20
2.648204051438926
 30
0.0
 11
0.0
 21
-0.4841350632239992
 31
0.0
210
0.0
220
0.0
230
-1.0
 40
0.1666666666666656
 41
1.738244406014585
 42
4.544940901165
1001
ACAD
1000
TCW40_DEV_WIDTH
1002
{
1040
-3.0
1002
}
  0
ELLIPSE
  5
723F
330
1F
100
AcDbEntity
  8
0
100
AcDbEllipse
 10
5.142450622550615
 20
2.648204051438926
 30
0.0
 11
0.0
 21
-0.4841350632239992
 31
0.0
210
0.0
220
0.0
230
-1.0
 40
0.1666666666666656
 41
1.738244406014585
 42
4.544940901165
1001
ACAD
1000
TCW40_DEV_WIDTH
1002
{
1040
-3.0
1002
}
  0
ELLIPSE
  5
7240
330
1F
100
AcDbEntity
  8
0
100
AcDbEllipse
 10
5.898911658838127
 20
2.648204051438926
 30
0.0
 11
0.0
 21
-0.4841350632239992
 31
0.0
210
0.0
220
0.0
230
-1.0
 40
0.1666666666666656
 41
1.738244406014585
 42
4.544940901165
1001
ACAD
1000
TCW40_DEV_WIDTH
1002
{
1040
-3.0
1002
}
  0
ELLIPSE
  5
7241
330
1F
100
AcDbEntity
  8
0
100
AcDbEllipse
 10
6.15106533760062
 20
2.648204051438926
 30
0.0
 11
0.0
 21
-0.4841350632239992
 31
0.0
210
0.0
220
0.0
230
-1.0
 40
0.1666666666666656
 41
1.738244406014585
 42
4.544940901165
1001
ACAD
1000
TCW40_DEV_WIDTH
1002
{
1040
-3.0
1002
}
  0
ELLIPSE
  5
7242
330
1F
100
AcDbEntity
  8
0
100
AcDbEllipse
 10
6.655372695125635
 20
2.648204051438926
 30
0.0
 11
0.0
 21
-0.4841350632239992
 31
0.0
210
0.0
220
0.0
230
-1.0
 40
0.1666666666666656
 41
1.738244406014585
 42
4.544940901165
1001
ACAD
1000
TCW40_DEV_WIDTH
1002
{
1040
-3.0
1002
}
  0
ELLIPSE
  5
7243
330
1F
100
AcDbEntity
  8
0
100
AcDbEllipse
 10
6.907526373888131
 20
2.648204051438926
 30
0.0
 11
0.0
 21
-0.4841350632240006
 31
0.0
210
0.0
220
0.0
230
-1.0
 40
0.1666666666666648
 41
1.738244406014585
 42
4.536209495863717
1001
ACAD
1000
TCW40_DEV_WIDTH
1002
{
1040
-3.0
1002
}
  0
ELLIPSE
  5
7244
330
1F
100
AcDbEntity
  8
0
100
AcDbEllipse
 10
7.159680052650625
 20
2.628031757137926
 30
0.0
 11
0.0
 21
-0.4841350632239997
 31
0.0
210
0.0
220
0.0
230
-1.0
 40
0.1666666666666676
 41
1.783423802199356
 42
4.527489045910998
1001
ACAD
1000
TCW40_DEV_WIDTH
1002
{
1040
-3.0
1002
}
  0
ELLIPSE
  5
7245
330
1F
100
AcDbEntity
  8
0
100
AcDbEllipse
 10
7.411833731422319
 20
2.607859462836926
 30
0.0
 11
0.0
 21
-0.4841350632239992
 31
0.0
210
0.0
220
0.0
230
-1.0
 40
0.1666666666666656
 41
1.771208890231334
 42
4.544940901165
1001
ACAD
1000
TCW40_DEV_WIDTH
1002
{
1040
-3.0
1002
}
  0
ELLIPSE
  5
7246
330
1F
100
AcDbEntity
  8
0
100
AcDbEllipse
 10
7.663987410184812
 20
2.567514874234926
 30
0.0
 11
0.0
 21
-0.4841350632239992
 31
0.0
210
0.0
220
0.0
230
-1.0
 40
0.1666666666666656
 41
1.762760361692611
 42
4.544940901165
1001
ACAD
1000
TCW40_DEV_WIDTH
1002
{
1040
-3.0
1002
}
  0
ELLIPSE
  5
7247
330
1F
100
AcDbEntity
  8
0
100
AcDbEllipse
 10
7.916141088947338
 20
2.547342579933926
 30
0.0
 11
0.0
 21
-0.4841350632239992
 31
0.0
210
0.0
220
0.0
230
-1.0
 40
0.1666666666666656
 41
1.738244406014585
 42
4.544940901165
1001
ACAD
1000
TCW40_DEV_WIDTH
1002
{
1040
-3.0
1002
}
  0
ELLIPSE
  5
7248
330
1F
100
AcDbEntity
  8
0
100
AcDbEllipse
 10
4.890296943788122
 20
2.648204051438926
 30
0.0
 11
0.0
 21
-0.4841350632239992
 31
0.0
210
0.0
220
0.0
230
-1.0
 40
0.1666666666666656
 41
1.738244406014585
 42
4.544940901165
1001
ACAD
1000
TCW40_DEV_WIDTH
1002
{
1040
-3.0
1002
}
  0
ELLIPSE
  5
7249
330
1F
100
AcDbEntity
  8
0
100
AcDbEllipse
 10
4.638143265025629
 20
2.648204051438926
 30
0.0
 11
0.0
 21
-0.4841350632239992
 31
0.0
210
0.0
220
0.0
230
-1.0
 40
0.1666666666666656
 41
1.738244406014585
 42
4.544940901165
1001
ACAD
1000
TCW40_DEV_WIDTH
1002
{
1040
-3.0
1002
}
  0
ELLIPSE
  5
724A
330
1F
100
AcDbEntity
  8
0
100
AcDbEllipse
 10
4.385989586263136
 20
2.648204051438926
 30
0.0
 11
0.0
 21
-0.4841350632239992
 31
0.0
210
0.0
220
0.0
230
-1.0
 40
0.1666666666666656
 41
1.738244406014585
 42
4.544940901165
1001
ACAD
1000
TCW40_DEV_WIDTH
1002
{
1040
-3.0
1002
}
  0
ELLIPSE
  5
724B
330
1F
100
AcDbEntity
  8
0
100
AcDbEllipse
 10
4.133835907500614
 20
2.648204051438926
 30
0.0
 11
0.0
 21
-0.4841350632239992
 31
0.0
210
0.0
220
0.0
230
-1.0
 40
0.1666666666666656
 41
1.738244406014585
 42
4.544940901165
1001
ACAD
1000
TCW40_DEV_WIDTH
1002
{
1040
-3.0
1002
}
  0
ELLIPSE
  5
724C
330
1F
100
AcDbEntity
  8
0
100
AcDbEllipse
 10
6.403219016363113
 20
2.648204051438926
 30
0.0
 11
0.0
 21
-0.4841350632239992
 31
0.0
210
0.0
220
0.0
230
-1.0
 40
0.1666666666666656
 41
1.738244406014585
 42
4.544940901165
1001
ACAD
1000
TCW40_DEV_WIDTH
1002
{
1040
-3.0
1002
}
  0
ELLIPSE
  5
724D
330
1F
100
AcDbEntity
  8
0
100
AcDbEllipse
 10
4.133835907500614
 20
9.022649050554926
 30
0.0
 11
0.0
 21
-0.4841350632240001
 31
0.0
210
0.0
220
0.0
230
-1.0
 40
0.1666666666666666
 41
4.712388980384689
 42
7.853981633974482
1001
ACAD
1000
TCW40_DEV_WIDTH
1002
{
1040
-3.0
1002
}
  0
LINE
  5
724E
330
1F
100
AcDbEntity
  8
0
100
AcDbLine
 10
3.891768375888641
 20
9.022649050554926
 30
0.0
 11
4.053146730296631
 21
9.022649050554926
 31
0.0
1001
ACAD
1000
TCW40_DEV_WIDTH
1002
{
1040
-3.0
1002
}
  0
LINE
  5
724F
330
1F
100
AcDbEntity
  8
0
100
AcDbLine
 10
4.214525084704625
 20
9.022649050554926
 30
0.0
 11
4.305300409059125
 21
9.022649050554926
 31
0.0
1001
ACAD
1000
TCW40_DEV_WIDTH
1002
{
1040
-3.0
1002
}
  0
LINE
  5
7250
330
1F
100
AcDbEntity
  8
0
100
AcDbLine
 10
4.466678763467118
 20
9.022649050554926
 30
0.0
 11
4.558582663363694
 21
9.022649050554926
 31
0.0
1001
ACAD
1000
TCW40_DEV_WIDTH
1002
{
1040
-3.0
1002
}
  0
LINE
  5
7251
330
1F
100
AcDbEntity
  8
0
100
AcDbLine
 10
4.717703866687539
 20
9.022649050554926
 30
0.0
 11
4.810736342126215
 21
9.022649050554926
 31
0.0
1001
ACAD
1000
TCW40_DEV_WIDTH
1002
{
1040
-3.0
1002
}
  0
LINE
  5
7252
330
1F
100
AcDbEntity
  8
0
100
AcDbLine
 10
4.969857545450061
 20
9.022649050554926
 30
0.0
 11
5.062890020888708
 21
9.022649050554926
 31
0.0
1001
ACAD
1000
TCW40_DEV_WIDTH
1002
{
1040
-3.0
1002
}
  0
LINE
  5
7253
330
1F
100
AcDbEntity
  8
0
100
AcDbLine
 10
5.222011224212554
 20
9.022649050554926
 30
0.0
 11
5.315043699651202
 21
9.022649050554926
 31
0.0
1001
ACAD
1000
TCW40_DEV_WIDTH
1002
{
1040
-3.0
1002
}
  0
LINE
  5
7254
330
1F
100
AcDbEntity
  8
0
100
AcDbLine
 10
5.474164902975047
 20
9.022649050554926
 30
0.0
 11
5.567197378413695
 21
9.022649050554926
 31
0.0
1001
ACAD
1000
TCW40_DEV_WIDTH
1002
{
1040
-3.0
1002
}
  0
LINE
  5
7255
330
1F
100
AcDbEntity
  8
0
100
AcDbLine
 10
5.72631858173754
 20
9.022649050554926
 30
0.0
 11
5.818222481634116
 21
9.022649050554926
 31
0.0
1001
ACAD
1000
TCW40_DEV_WIDTH
1002
{
1040
-3.0
1002
}
  0
LINE
  5
7256
330
1F
100
AcDbEntity
  8
0
100
AcDbLine
 10
5.979600836042138
 20
9.022649050554926
 30
0.0
 11
6.070376160396637
 21
9.022649050554926
 31
0.0
1001
ACAD
1000
TCW40_DEV_WIDTH
1002
{
1040
-3.0
1002
}
  0
LINE
  5
7257
330
1F
100
AcDbEntity
  8
0
100
AcDbLine
 10
6.231754514804631
 20
9.022649050554926
 30
0.0
 11
6.32252983915913
 21
9.022649050554926
 31
0.0
1001
ACAD
1000
TCW40_DEV_WIDTH
1002
{
1040
-3.0
1002
}
  0
LINE
  5
7258
330
1F
100
AcDbEntity
  8
0
100
AcDbLine
 10
6.483908193567124
 20
9.022649050554926
 30
0.0
 11
6.574683517921627
 21
9.022649050554926
 31
0.0
1001
ACAD
1000
TCW40_DEV_WIDTH
1002
{
1040
-3.0
1002
}
  0
LINE
  5
7259
330
1F
100
AcDbEntity
  8
0
100
AcDbLine
 10
6.736061872329617
 20
9.022649050554926
 30
0.0
 11
6.82683719668412
 21
9.022649050554926
 31
0.0
1001
ACAD
1000
TCW40_DEV_WIDTH
1002
{
1040
-3.0
1002
}
  0
ELLIPSE
  5
725A
330
1F
100
AcDbEntity
  8
0
100
AcDbEllipse
 10
4.385989586263136
 20
9.022649050554926
 30
0.0
 11
0.0
 21
-0.4841350632240001
 31
0.0
210
0.0
220
0.0
230
-1.0
 40
0.1666666666666666
 41
4.712388980384689
 42
7.853981633974482
1001
ACAD
1000
TCW40_DEV_WIDTH
1002
{
1040
-3.0
1002
}
  0
ELLIPSE
  5
725B
330
1F
100
AcDbEntity
  8
0
100
AcDbEllipse
 10
4.638143265025629
 20
9.022649050554926
 30
0.0
 11
0.0
 21
-0.4841350632240001
 31
0.0
210
0.0
220
0.0
230
-1.0
 40
0.1666666666666666
 41
4.712388980384689
 42
7.853981633974482
1001
ACAD
1000
TCW40_DEV_WIDTH
1002
{
1040
-3.0
1002
}
  0
ELLIPSE
  5
725C
330
1F
100
AcDbEntity
  8
0
100
AcDbEllipse
 10
4.890296943788122
 20
9.022649050554926
 30
0.0
 11
0.0
 21
-0.4841350632240001
 31
0.0
210
0.0
220
0.0
230
-1.0
 40
0.1666666666666666
 41
4.712388980384689
 42
7.853981633974482
1001
ACAD
1000
TCW40_DEV_WIDTH
1002
{
1040
-3.0
1002
}
  0
ELLIPSE
  5
725D
330
1F
100
AcDbEntity
  8
0
100
AcDbEllipse
 10
5.142450622550615
 20
9.022649050554926
 30
0.0
 11
0.0
 21
-0.4841350632240001
 31
0.0
210
0.0
220
0.0
230
-1.0
 40
0.1666666666666666
 41
4.712388980384689
 42
7.853981633974482
1001
ACAD
1000
TCW40_DEV_WIDTH
1002
{
1040
-3.0
1002
}
  0
ELLIPSE
  5
725E
330
1F
100
AcDbEntity
  8
0
100
AcDbEllipse
 10
5.39460430131314
 20
9.022649050554926
 30
0.0
 11
0.0
 21
-0.4841350632240001
 31
0.0
210
0.0
220
0.0
230
-1.0
 40
0.1666666666666666
 41
4.712388980384689
 42
7.853981633974482
1001
ACAD
1000
TCW40_DEV_WIDTH
1002
{
1040
-3.0
1002
}
  0
ELLIPSE
  5
725F
330
1F
100
AcDbEntity
  8
0
100
AcDbEllipse
 10
5.646757980075634
 20
9.022649050554926
 30
0.0
 11
0.0
 21
-0.4841350632240001
 31
0.0
210
0.0
220
0.0
230
-1.0
 40
0.1666666666666666
 41
4.712388980384689
 42
7.853981633974482
1001
ACAD
1000
TCW40_DEV_WIDTH
1002
{
1040
-3.0
1002
}
  0
ELLIPSE
  5
7260
330
1F
100
AcDbEntity
  8
0
100
AcDbEllipse
 10
5.898911658838127
 20
9.022649050554926
 30
0.0
 11
0.0
 21
-0.4841350632240001
 31
0.0
210
0.0
220
0.0
230
-1.0
 40
0.1666666666666666
 41
4.712388980384689
 42
7.853981633974482
1001
ACAD
1000
TCW40_DEV_WIDTH
1002
{
1040
-3.0
1002
}
  0
ELLIPSE
  5
7261
330
1F
100
AcDbEntity
  8
0
100
AcDbEllipse
 10
6.15106533760062
 20
9.022649050554926
 30
0.0
 11
0.0
 21
-0.4841350632240001
 31
0.0
210
0.0
220
0.0
230
-1.0
 40
0.1666666666666666
 41
4.712388980384689
 42
7.853981633974482
1001
ACAD
1000
TCW40_DEV_WIDTH
1002
{
1040
-3.0
1002
}
  0
ELLIPSE
  5
7262
330
1F
100
AcDbEntity
  8
0
100
AcDbEllipse
 10
6.403219016363113
 20
9.022649050554926
 30
0.0
 11
0.0
 21
-0.4841350632240001
 31
0.0
210
0.0
220
0.0
230
-1.0
 40
0.1666666666666666
 41
4.712388980384689
 42
7.853981633974482
1001
ACAD
1000
TCW40_DEV_WIDTH
1002
{
1040
-3.0
1002
}
  0
ELLIPSE
  5
7263
330
1F
100
AcDbEntity
  8
0
100
AcDbEllipse
 10
6.655372695125635
 20
9.022649050554926
 30
0.0
 11
0.0
 21
-0.4841350632240001
 31
0.0
210
0.0
220
0.0
230
-1.0
 40
0.1666666666666666
 41
4.712388980384689
 42
7.853981633974482
1001
ACAD
1000
TCW40_DEV_WIDTH
1002
{
1040
-3.0
1002
}
  0
ELLIPSE
  5
7264
330
1F
100
AcDbEntity
  8
0
100
AcDbEllipse
 10
6.907526373888131
 20
9.022649050554926
 30
0.0
 11
0.0
 21
-0.4841350632239993
 31
0.0
210
0.0
220
0.0
230
-1.0
 40
0.1666666666666667
 41
-1.562222240401897
 42
1.570796326794896
1001
ACAD
1000
TCW40_DEV_WIDTH
1002
{
1040
-3.0
1002
}
  0
ELLIPSE
  5
7265
330
1F
100
AcDbEntity
  8
0
100
AcDbEllipse
 10
7.159680052650625
 20
9.042821344855925
 30
0.0
 11
0.0
 21
-0.4841350632240007
 31
0.0
210
0.0
220
0.0
230
-1.0
 40
0.1666666666666674
 41
-1.55394312469243
 42
1.526241120561437
1001
ACAD
1000
TCW40_DEV_WIDTH
1002
{
1040
-3.0
1002
}
  0
ELLIPSE
  5
7266
330
1F
100
AcDbEntity
  8
0
100
AcDbEllipse
 10
7.411833731413118
 20
9.062993639156927
 30
0.0
 11
0.0
 21
-0.4841350632239999
 31
0.0
210
0.0
220
0.0
230
-1.0
 40
0.1666666666666651
 41
4.685127266443919
 42
7.821061463544657
1001
ACAD
1000
TCW40_DEV_WIDTH
1002
{
1040
-3.0
1002
}
  0
ELLIPSE
  5
7267
330
1F
100
AcDbEntity
  8
0
100
AcDbEllipse
 10
7.663987410175639
 20
9.103338227758927
 30
0.0
 11
0.0
 21
-0.4841350632240002
 31
0.0
210
0.0
220
0.0
230
-1.0
 40
0.1666666666666643
 41
4.690932161129962
 42
7.82938616715147
1001
ACAD
1000
TCW40_DEV_WIDTH
1002
{
1040
-3.0
1002
}
  0
ELLIPSE
  5
7268
330
1F
100
AcDbEntity
  8
0
100
AcDbEllipse
 10
7.916141088938132
 20
9.123510522059925
 30
0.0
 11
0.0
 21
-0.4841350632240009
 31
0.0
210
0.0
220
0.0
230
-1.0
 40
0.1666666666666652
 41
4.685554211486188
 42
7.854189965268535
1001
ACAD
1000
TCW40_DEV_WIDTH
1002
{
1040
-3.0
1002
}
  0
LWPOLYLINE
  5
7269
330
1F
100
AcDbEntity
  8
0
100
AcDbPolyline
 90
        2
 70
     0
 43
0.0
 10
8.199544570504109
 20
9.143710603151932
 42
0.0083634671130051
 10
7.996801215552682
 20
9.136500615428074
  0
LWPOLYLINE
  5
726A
330
1F
100
AcDbEntity
  8
0
100
AcDbPolyline
 90
        2
 70
     0
 43
0.0
 10
7.835451913485162
 20
9.123611382543414
 42
0.0051836372337704
 10
7.744658013641629
 20
9.113725429226493
  0
LWPOLYLINE
  5
726B
330
1F
100
AcDbEntity
  8
0
100
AcDbPolyline
 90
        2
 70
     0
 43
0.0
 10
7.584780378919212
 20
9.091660622112557
 42
0.0053110407206134
 10
7.4924929263336
 20
9.076190355981863
  0
LWPOLYLINE
  5
726C
330
1F
100
AcDbEntity
  8
0
100
AcDbPolyline
 90
        2
 70
     0
 43
0.0
 10
7.332759585964762
 20
9.047304280532012
 42
-0.0098390854573012
 10
7.238993854782897
 20
9.034503174438919
  0
LWPOLYLINE
  5
726D
330
1F
100
AcDbEntity
  8
0
100
AcDbPolyline
 90
        2
 70
     0
 43
0.0
 10
7.235222818493578
 20
8.953377578511451
 42
-0.0156796610766747
 10
7.084953204090211
 20
8.940865809037047
  0
LWPOLYLINE
  5
726E
330
1F
100
AcDbEntity
  8
0
100
AcDbPolyline
 90
        2
 70
     0
 43
0.0
 10
6.983349628501827
 20
8.937758079204686
 42
-0.0157936648709978
 10
6.831501455372315
 20
8.941121141819065
  0
LWPOLYLINE
  5
726F
330
1F
100
AcDbEntity
  8
0
100
AcDbPolyline
 90
        2
 70
     0
 43
0.0
 10
6.82683725525808
 20
9.022065704755709
 42
-0.0010502966732702
 10
6.816751049533628
 20
9.022649050554926
  0
ELLIPSE
  5
7270
330
1F
100
AcDbEntity
  8
0
100
AcDbEllipse
 10
5.646757980075634
 20
9.103338227758927
 30
0.0
 11
0.0
 21
-0.4841350632239992
 31
0.0
210
0.0
220
0.0
230
-1.0
 40
0.1666666666666656
 41
-1.403348247575207
 42
1.403348247575207
1001
ACAD
1000
TCW40_DEV_WIDTH
1002
{
1040
-3.0
1002
}
  0
ELLIPSE
  5
7271
330
1F
100
AcDbEntity
  8
0
100
AcDbEllipse
 10
5.39460430131314
 20
9.103338227758927
 30
0.0
 11
0.0
 21
-0.4841350632239992
 31
0.0
210
0.0
220
0.0
230
-1.0
 40
0.1666666666666656
 41
-1.403348247575207
 42
1.403348247575207
1001
ACAD
1000
TCW40_DEV_WIDTH
1002
{
1040
-3.0
1002
}
  0
ELLIPSE
  5
7272
330
1F
100
AcDbEntity
  8
0
100
AcDbEllipse
 10
5.142450622550615
 20
9.103338227758927
 30
0.0
 11
0.0
 21
-0.4841350632239992
 31
0.0
210
0.0
220
0.0
230
-1.0
 40
0.1666666666666656
 41
-1.403348247575207
 42
1.403348247575207
1001
ACAD
1000
TCW40_DEV_WIDTH
1002
{
1040
-3.0
1002
}
  0
ELLIPSE
  5
7273
330
1F
100
AcDbEntity
  8
0
100
AcDbEllipse
 10
5.898911658838127
 20
9.103338227758927
 30
0.0
 11
0.0
 21
-0.4841350632239992
 31
0.0
210
0.0
220
0.0
230
-1.0
 40
0.1666666666666656
 41
-1.403348247575207
 42
1.403348247575207
1001
ACAD
1000
TCW40_DEV_WIDTH
1002
{
1040
-3.0
1002
}
  0
ELLIPSE
  5
7274
330
1F
100
AcDbEntity
  8
0
100
AcDbEllipse
 10
6.15106533760062
 20
9.103338227758927
 30
0.0
 11
0.0
 21
-0.4841350632239992
 31
0.0
210
0.0
220
0.0
230
-1.0
 40
0.1666666666666656
 41
-1.403348247575207
 42
1.403348247575207
1001
ACAD
1000
TCW40_DEV_WIDTH
1002
{
1040
-3.0
1002
}
  0
ELLIPSE
  5
7275
330
1F
100
AcDbEntity
  8
0
100
AcDbEllipse
 10
6.655372695125635
 20
9.103338227758927
 30
0.0
 11
0.0
 21
-0.4841350632239992
 31
0.0
210
0.0
220
0.0
230
-1.0
 40
0.1666666666666656
 41
-1.403348247575207
 42
1.403348247575207
1001
ACAD
1000
TCW40_DEV_WIDTH
1002
{
1040
-3.0
1002
}
  0
ELLIPSE
  5
7276
330
1F
100
AcDbEntity
  8
0
100
AcDbEllipse
 10
6.907526373888131
 20
9.103338227758927
 30
0.0
 11
0.0
 21
-0.4841350632240006
 31
0.0
210
0.0
220
0.0
230
-1.0
 40
0.1666666666666648
 41
-1.394616842273924
 42
1.403348247575207
1001
ACAD
1000
TCW40_DEV_WIDTH
1002
{
1040
-3.0
1002
}
  0
ELLIPSE
  5
7277
330
1F
100
AcDbEntity
  8
0
100
AcDbEllipse
 10
7.159680052650625
 20
9.123510522059925
 30
0.0
 11
0.0
 21
-0.4841350632239997
 31
0.0
210
0.0
220
0.0
230
-1.0
 40
0.1666666666666676
 41
-1.385896392321205
 42
1.358168851390436
1001
ACAD
1000
TCW40_DEV_WIDTH
1002
{
1040
-3.0
1002
}
  0
ELLIPSE
  5
7278
330
1F
100
AcDbEntity
  8
0
100
AcDbEllipse
 10
7.411833731422319
 20
9.143682816360927
 30
0.0
 11
0.0
 21
-0.4841350632239992
 31
0.0
210
0.0
220
0.0
230
-1.0
 40
0.1666666666666656
 41
-1.403348247575207
 42
1.370383763358458
1001
ACAD
1000
TCW40_DEV_WIDTH
1002
{
1040
-3.0
1002
}
  0
ELLIPSE
  5
7279
330
1F
100
AcDbEntity
  8
0
100
AcDbEllipse
 10
7.663987410184812
 20
9.184027404962927
 30
0.0
 11
0.0
 21
-0.4841350632239992
 31
0.0
210
0.0
220
0.0
230
-1.0
 40
0.1666666666666656
 41
-1.403348247575207
 42
1.378832291897181
1001
ACAD
1000
TCW40_DEV_WIDTH
1002
{
1040
-3.0
1002
}
  0
ELLIPSE
  5
727A
330
1F
100
AcDbEntity
  8
0
100
AcDbEllipse
 10
7.916141088947338
 20
9.204199699263925
 30
0.0
 11
0.0
 21
-0.4841350632239992
 31
0.0
210
0.0
220
0.0
230
-1.0
 40
0.1666666666666656
 41
-1.403348247575207
 42
1.403348247575207
1001
ACAD
1000
TCW40_DEV_WIDTH
1002
{
1040
-3.0
1002
}
  0
ELLIPSE
  5
727B
330
1F
100
AcDbEntity
  8
0
100
AcDbEllipse
 10
4.890296943788122
 20
9.103338227758927
 30
0.0
 11
0.0
 21
-0.4841350632239992
 31
0.0
210
0.0
220
0.0
230
-1.0
 40
0.1666666666666656
 41
-1.403348247575207
 42
1.403348247575207
1001
ACAD
1000
TCW40_DEV_WIDTH
1002
{
1040
-3.0
1002
}
  0
ELLIPSE
  5
727C
330
1F
100
AcDbEntity
  8
0
100
AcDbEllipse
 10
4.638143265025629
 20
9.103338227758927
 30
0.0
 11
0.0
 21
-0.4841350632239992
 31
0.0
210
0.0
220
0.0
230
-1.0
 40
0.1666666666666656
 41
-1.403348247575207
 42
1.403348247575207
1001
ACAD
1000
TCW40_DEV_WIDTH
1002
{
1040
-3.0
1002
}
  0
ELLIPSE
  5
727D
330
1F
100
AcDbEntity
  8
0
100
AcDbEllipse
 10
4.385989586263136
 20
9.103338227758927
 30
0.0
 11
0.0
 21
-0.4841350632239992
 31
0.0
210
0.0
220
0.0
230
-1.0
 40
0.1666666666666656
 41
-1.403348247575207
 42
1.403348247575207
1001
ACAD
1000
TCW40_DEV_WIDTH
1002
{
1040
-3.0
1002
}
  0
ELLIPSE
  5
727E
330
1F
100
AcDbEntity
  8
0
100
AcDbEllipse
 10
4.133835907500614
 20
9.103338227758927
 30
0.0
 11
0.0
 21
-0.4841350632239992
 31
0.0
210
0.0
220
0.0
230
-1.0
 40
0.1666666666666656
 41
-1.403348247575207
 42
1.403348247575207
1001
ACAD
1000
TCW40_DEV_WIDTH
1002
{
1040
-3.0
1002
}
  0
ELLIPSE
  5
727F
330
1F
100
AcDbEntity
  8
0
100
AcDbEllipse
 10
6.403219016363113
 20
9.103338227758927
 30
0.0
 11
0.0
 21
-0.4841350632239992
 31
0.0
210
0.0
220
0.0
230
-1.0
 40
0.1666666666666656
 41
-1.403348247575207
 42
1.403348247575207
1001
ACAD
1000
TCW40_DEV_WIDTH
1002
{
1040
-3.0
1002
}
  0
LWPOLYLINE
  5
7280
330
1F
100
AcDbEntity
  8
0
100
AcDbPolyline
 90
        2
 70
     0
 43
0.0
 10
7.992933852629533
 20
9.055572206852351
 42
0.0089034290691004
 10
7.836574545742628
 20
9.043032532622012
  0
LWPOLYLINE
  5
7281
330
1F
100
AcDbEntity
  8
0
100
AcDbPolyline
 90
        2
 70
     0
 43
0.0
 10
7.740625492925573
 20
9.032552940776435
 42
0.0089301670529736
 10
7.584780378910068
 20
9.010971444907278
  0
LWPOLYLINE
  5
7282
330
1F
100
AcDbEntity
  8
0
100
AcDbPolyline
 90
        2
 70
     0
 43
0.0
 10
7.491770568103216
 20
8.997035800485656
 42
-0.0164208329197848
 10
7.336694447193352
 20
8.967234732769762
  0
LWPOLYLINE
  5
7283
330
1F
100
AcDbEntity
  8
0
100
AcDbPolyline
 90
        2
 70
     0
 43
0.0
 10
7.331188273209072
 20
9.047058708942211
 42
-0.009530968508237
 10
7.240357771035348
 20
9.034662505029663
  0
LWPOLYLINE
  5
7284
330
1F
100
AcDbEntity
  8
0
100
AcDbPolyline
 90
        2
 70
     0
 43
0.0
 10
7.079070952919877
 20
9.021257743478026
 42
-0.0095802259197058
 10
6.986966522661457
 20
9.018484124109084
  0
LWPOLYLINE
  5
7285
330
1F
100
AcDbEntity
  8
0
100
AcDbPolyline
 90
        2
 70
     0
 43
0.0
 10
7.230575686480818
 20
8.892331182194999
 42
-0.0146801367772511
 10
7.089881601929473
 20
8.880609090585627
  0
LWPOLYLINE
  5
7286
330
1F
100
AcDbEntity
  8
0
100
AcDbPolyline
 90
        2
 70
     0
 43
0.0
 10
6.978872490612296
 20
8.87720309544945
 42
-0.014869698490557
 10
6.835903786962671
 20
8.880371546483894
  0
LWPOLYLINE
  5
7287
330
1F
100
AcDbEntity
  8
0
100
AcDbPolyline
 90
        2
 70
     0
 43
0.0
 10
7.988892420954304
 20
8.994801675570313
 42
0.0082305580818414
 10
7.844343273770682
 20
8.983271172509423
  0
LWPOLYLINE
  5
7288
330
1F
100
AcDbEntity
  8
0
100
AcDbPolyline
 90
        2
 70
     0
 43
0.0
 10
7.740625492925573
 20
8.972036057873436
 42
0.008447071874798
 10
7.59319023971873
 20
8.951764314940549
  0
LWPOLYLINE
  5
7289
330
1F
100
AcDbEntity
  8
0
100
AcDbPolyline
 90
        2
 70
     0
 43
0.0
 10
7.484635319735371
 20
8.934914537998368
 42
-0.0151648059833676
 10
7.341400707334923
 20
8.907467728596705
  0
LINE
  5
728A
330
1F
100
AcDbEntity
  8
0
100
AcDbLine
 10
4.057761421674868
 20
8.941959873350926
 30
0.0
 11
4.20991039332636
 21
8.941959873350926
 31
0.0
1001
ACAD
1000
TCW40_DEV_WIDTH
1002
{
1040
-3.0
1002
}
  0
LINE
  5
728B
330
1F
100
AcDbEntity
  8
0
100
AcDbLine
 10
4.309915100437393
 20
8.941959873350926
 30
0.0
 11
4.462064072088882
 21
8.941959873350926
 31
0.0
1001
ACAD
1000
TCW40_DEV_WIDTH
1002
{
1040
-3.0
1002
}
  0
LINE
  5
728C
330
1F
100
AcDbEntity
  8
0
100
AcDbLine
 10
4.562068779199886
 20
8.941959873350926
 30
0.0
 11
4.714217750851375
 21
8.941959873350926
 31
0.0
1001
ACAD
1000
TCW40_DEV_WIDTH
1002
{
1040
-3.0
1002
}
  0
LINE
  5
728D
330
1F
100
AcDbEntity
  8
0
100
AcDbLine
 10
4.81422245796238
 20
8.941959873350926
 30
0.0
 11
4.966371429613868
 21
8.941959873350926
 31
0.0
1001
ACAD
1000
TCW40_DEV_WIDTH
1002
{
1040
-3.0
1002
}
  0
LINE
  5
728E
330
1F
100
AcDbEntity
  8
0
100
AcDbLine
 10
5.066376136724873
 20
8.941959873350926
 30
0.0
 11
5.218525108376361
 21
8.941959873350926
 31
0.0
1001
ACAD
1000
TCW40_DEV_WIDTH
1002
{
1040
-3.0
1002
}
  0
LINE
  5
728F
330
1F
100
AcDbEntity
  8
0
100
AcDbLine
 10
5.318529815487366
 20
8.941959873350926
 30
0.0
 11
5.470678787138883
 21
8.941959873350926
 31
0.0
1001
ACAD
1000
TCW40_DEV_WIDTH
1002
{
1040
-3.0
1002
}
  0
LINE
  5
7290
330
1F
100
AcDbEntity
  8
0
100
AcDbLine
 10
5.570683494249887
 20
8.941959873350926
 30
0.0
 11
5.72283246590138
 21
8.941959873350926
 31
0.0
1001
ACAD
1000
TCW40_DEV_WIDTH
1002
{
1040
-3.0
1002
}
  0
LINE
  5
7291
330
1F
100
AcDbEntity
  8
0
100
AcDbLine
 10
5.822837173012381
 20
8.941959873350926
 30
0.0
 11
5.974986144663873
 21
8.941959873350926
 31
0.0
1001
ACAD
1000
TCW40_DEV_WIDTH
1002
{
1040
-3.0
1002
}
  0
LINE
  5
7292
330
1F
100
AcDbEntity
  8
0
100
AcDbLine
 10
6.074990851774874
 20
8.941959873350926
 30
0.0
 11
6.227139823426366
 21
8.941959873350926
 31
0.0
1001
ACAD
1000
TCW40_DEV_WIDTH
1002
{
1040
-3.0
1002
}
  0
LINE
  5
7293
330
1F
100
AcDbEntity
  8
0
100
AcDbLine
 10
6.327144530537367
 20
8.941959873350926
 30
0.0
 11
6.479293502188887
 21
8.941959873350926
 31
0.0
1001
ACAD
1000
TCW40_DEV_WIDTH
1002
{
1040
-3.0
1002
}
  0
LINE
  5
7294
330
1F
100
AcDbEntity
  8
0
100
AcDbLine
 10
6.579298209299892
 20
8.941959873350926
 30
0.0
 11
6.731447180951381
 21
8.941959873350926
 31
0.0
1001
ACAD
1000
TCW40_DEV_WIDTH
1002
{
1040
-3.0
1002
}
  0
LINE
  5
7295
330
1F
100
AcDbEntity
  8
0
100
AcDbLine
 10
4.060484657093535
 20
8.901615284748929
 30
0.0
 11
4.207187157907721
 21
8.901615284748929
 31
0.0
1001
ACAD
1000
TCW40_DEV_WIDTH
1002
{
1040
-3.0
1002
}
  0
LINE
  5
7296
330
1F
100
AcDbEntity
  8
0
100
AcDbLine
 10
4.312638335856028
 20
8.901615284748929
 30
0.0
 11
4.459340836670246
 21
8.901615284748929
 31
0.0
1001
ACAD
1000
TCW40_DEV_WIDTH
1002
{
1040
-3.0
1002
}
  0
LINE
  5
7297
330
1F
100
AcDbEntity
  8
0
100
AcDbLine
 10
4.564792014618522
 20
8.901615284748929
 30
0.0
 11
4.71149451543274
 21
8.901615284748929
 31
0.0
1001
ACAD
1000
TCW40_DEV_WIDTH
1002
{
1040
-3.0
1002
}
  0
LINE
  5
7298
330
1F
100
AcDbEntity
  8
0
100
AcDbLine
 10
4.816945693381015
 20
8.901615284748929
 30
0.0
 11
4.963648194195233
 21
8.901615284748929
 31
0.0
1001
ACAD
1000
TCW40_DEV_WIDTH
1002
{
1040
-3.0
1002
}
  0
LINE
  5
7299
330
1F
100
AcDbEntity
  8
0
100
AcDbLine
 10
5.069099372143508
 20
8.901615284748929
 30
0.0
 11
5.215801872957726
 21
8.901615284748929
 31
0.0
1001
ACAD
1000
TCW40_DEV_WIDTH
1002
{
1040
-3.0
1002
}
  0
LINE
  5
729A
330
1F
100
AcDbEntity
  8
0
100
AcDbLine
 10
5.32125305090603
 20
8.901615284748929
 30
0.0
 11
5.467955551720219
 21
8.901615284748929
 31
0.0
1001
ACAD
1000
TCW40_DEV_WIDTH
1002
{
1040
-3.0
1002
}
  0
LINE
  5
729B
330
1F
100
AcDbEntity
  8
0
100
AcDbLine
 10
5.573406729668526
 20
8.901615284748929
 30
0.0
 11
5.720109230482741
 21
8.901615284748929
 31
0.0
1001
ACAD
1000
TCW40_DEV_WIDTH
1002
{
1040
-3.0
1002
}
  0
LINE
  5
729C
330
1F
100
AcDbEntity
  8
0
100
AcDbLine
 10
5.825560408431019
 20
8.901615284748929
 30
0.0
 11
5.972262909245234
 21
8.901615284748929
 31
0.0
1001
ACAD
1000
TCW40_DEV_WIDTH
1002
{
1040
-3.0
1002
}
  0
LINE
  5
729D
330
1F
100
AcDbEntity
  8
0
100
AcDbLine
 10
6.077714087193513
 20
8.901615284748929
 30
0.0
 11
6.224416588007727
 21
8.901615284748929
 31
0.0
1001
ACAD
1000
TCW40_DEV_WIDTH
1002
{
1040
-3.0
1002
}
  0
LINE
  5
729E
330
1F
100
AcDbEntity
  8
0
100
AcDbLine
 10
6.329867765956034
 20
8.901615284748929
 30
0.0
 11
6.47657026677022
 21
8.901615284748929
 31
0.0
1001
ACAD
1000
TCW40_DEV_WIDTH
1002
{
1040
-3.0
1002
}
  0
LINE
  5
729F
330
1F
100
AcDbEntity
  8
0
100
AcDbLine
 10
6.582021444718527
 20
8.901615284748929
 30
0.0
 11
6.728723945532745
 21
8.901615284748929
 31
0.0
1001
ACAD
1000
TCW40_DEV_WIDTH
1002
{
1040
-3.0
1002
}
  0
LINE
  5
72A0
330
1F
100
AcDbEntity
  8
0
100
AcDbLine
 10
4.063957030231506
 20
8.861270696146929
 30
0.0
 11
4.203714784769751
 21
8.861270696146929
 31
0.0
1001
ACAD
1000
TCW40_DEV_WIDTH
1002
{
1040
-3.0
1002
}
  0
LINE
  5
72A1
330
1F
100
AcDbEntity
  8
0
100
AcDbLine
 10
4.316110708993999
 20
8.861270696146929
 30
0.0
 11
4.455868463532244
 21
8.861270696146929
 31
0.0
1001
ACAD
1000
TCW40_DEV_WIDTH
1002
{
1040
-3.0
1002
}
  0
LINE
  5
72A2
330
1F
100
AcDbEntity
  8
0
100
AcDbLine
 10
4.568264387756496
 20
8.861270696146929
 30
0.0
 11
4.708022142294765
 21
8.861270696146929
 31
0.0
1001
ACAD
1000
TCW40_DEV_WIDTH
1002
{
1040
-3.0
1002
}
  0
LINE
  5
72A3
330
1F
100
AcDbEntity
  8
0
100
AcDbLine
 10
4.820418066518989
 20
8.861270696146929
 30
0.0
 11
4.960175821057259
 21
8.861270696146929
 31
0.0
1001
ACAD
1000
TCW40_DEV_WIDTH
1002
{
1040
-3.0
1002
}
  0
LINE
  5
72A4
330
1F
100
AcDbEntity
  8
0
100
AcDbLine
 10
5.072571745281511
 20
8.861270696146929
 30
0.0
 11
5.212329499819752
 21
8.861270696146929
 31
0.0
1001
ACAD
1000
TCW40_DEV_WIDTH
1002
{
1040
-3.0
1002
}
  0
LINE
  5
72A5
330
1F
100
AcDbEntity
  8
0
100
AcDbLine
 10
5.324725424044004
 20
8.861270696146929
 30
0.0
 11
5.464483178582245
 21
8.861270696146929
 31
0.0
1001
ACAD
1000
TCW40_DEV_WIDTH
1002
{
1040
-3.0
1002
}
  0
LINE
  5
72A6
330
1F
100
AcDbEntity
  8
0
100
AcDbLine
 10
5.576879102806497
 20
8.861270696146929
 30
0.0
 11
5.71663685734477
 21
8.861270696146929
 31
0.0
1001
ACAD
1000
TCW40_DEV_WIDTH
1002
{
1040
-3.0
1002
}
  0
LINE
  5
72A7
330
1F
100
AcDbEntity
  8
0
100
AcDbLine
 10
5.82903278156899
 20
8.861270696146929
 30
0.0
 11
5.968790536107263
 21
8.861270696146929
 31
0.0
1001
ACAD
1000
TCW40_DEV_WIDTH
1002
{
1040
-3.0
1002
}
  0
LINE
  5
72A8
330
1F
100
AcDbEntity
  8
0
100
AcDbLine
 10
6.081186460331483
 20
8.861270696146929
 30
0.0
 11
6.220944214869756
 21
8.861270696146929
 31
0.0
1001
ACAD
1000
TCW40_DEV_WIDTH
1002
{
1040
-3.0
1002
}
  0
LINE
  5
72A9
330
1F
100
AcDbEntity
  8
0
100
AcDbLine
 10
6.333340139094008
 20
8.861270696146929
 30
0.0
 11
6.47309789363225
 21
8.861270696146929
 31
0.0
1001
ACAD
1000
TCW40_DEV_WIDTH
1002
{
1040
-3.0
1002
}
  0
LINE
  5
72AA
330
1F
100
AcDbEntity
  8
0
100
AcDbLine
 10
6.585493817856502
 20
8.861270696146929
 30
0.0
 11
6.725251572394743
 21
8.861270696146929
 31
0.0
1001
ACAD
1000
TCW40_DEV_WIDTH
1002
{
1040
-3.0
1002
}
  0
LINE
  5
72AB
330
1F
100
AcDbEntity
  8
0
100
AcDbLine
 10
4.070847938734207
 20
8.800753813243927
 30
0.0
 11
4.19682387626705
 21
8.800753813243927
 31
0.0
1001
ACAD
1000
TCW40_DEV_WIDTH
1002
{
1040
-3.0
1002
}
  0
LINE
  5
72AC
330
1F
100
AcDbEntity
  8
0
100
AcDbLine
 10
4.3230016174967
 20
8.800753813243927
 30
0.0
 11
4.448977555029543
 21
8.800753813243927
 31
0.0
1001
ACAD
1000
TCW40_DEV_WIDTH
1002
{
1040
-3.0
1002
}
  0
LINE
  5
72AD
330
1F
100
AcDbEntity
  8
0
100
AcDbLine
 10
4.575155296259193
 20
8.800753813243927
 30
0.0
 11
4.701131233792064
 21
8.800753813243927
 31
0.0
1001
ACAD
1000
TCW40_DEV_WIDTH
1002
{
1040
-3.0
1002
}
  0
LINE
  5
72AE
330
1F
100
AcDbEntity
  8
0
100
AcDbLine
 10
4.82730897502169
 20
8.800753813243927
 30
0.0
 11
4.953284912554558
 21
8.800753813243927
 31
0.0
1001
ACAD
1000
TCW40_DEV_WIDTH
1002
{
1040
-3.0
1002
}
  0
LINE
  5
72AF
330
1F
100
AcDbEntity
  8
0
100
AcDbLine
 10
5.079462653784212
 20
8.800753813243927
 30
0.0
 11
5.205438591317051
 21
8.800753813243927
 31
0.0
1001
ACAD
1000
TCW40_DEV_WIDTH
1002
{
1040
-3.0
1002
}
  0
LINE
  5
72B0
330
1F
100
AcDbEntity
  8
0
100
AcDbLine
 10
5.331616332546705
 20
8.800753813243927
 30
0.0
 11
5.457592270079544
 21
8.800753813243927
 31
0.0
1001
ACAD
1000
TCW40_DEV_WIDTH
1002
{
1040
-3.0
1002
}
  0
LINE
  5
72B1
330
1F
100
AcDbEntity
  8
0
100
AcDbLine
 10
5.583770011309198
 20
8.800753813243927
 30
0.0
 11
5.709745948842037
 21
8.800753813243927
 31
0.0
1001
ACAD
1000
TCW40_DEV_WIDTH
1002
{
1040
-3.0
1002
}
  0
LINE
  5
72B2
330
1F
100
AcDbEntity
  8
0
100
AcDbLine
 10
5.835923690071691
 20
8.800753813243927
 30
0.0
 11
5.961899627604562
 21
8.800753813243927
 31
0.0
1001
ACAD
1000
TCW40_DEV_WIDTH
1002
{
1040
-3.0
1002
}
  0
LINE
  5
72B3
330
1F
100
AcDbEntity
  8
0
100
AcDbLine
 10
6.088077368834213
 20
8.800753813243927
 30
0.0
 11
6.214053306367055
 21
8.800753813243927
 31
0.0
1001
ACAD
1000
TCW40_DEV_WIDTH
1002
{
1040
-3.0
1002
}
  0
LINE
  5
72B4
330
1F
100
AcDbEntity
  8
0
100
AcDbLine
 10
6.340231047596709
 20
8.800753813243927
 30
0.0
 11
6.466206985129549
 21
8.800753813243927
 31
0.0
1001
ACAD
1000
TCW40_DEV_WIDTH
1002
{
1040
-3.0
1002
}
  0
LINE
  5
72B5
330
1F
100
AcDbEntity
  8
0
100
AcDbLine
 10
6.592384726359203
 20
8.800753813243927
 30
0.0
 11
6.718360663892042
 21
8.800753813243927
 31
0.0
1001
ACAD
1000
TCW40_DEV_WIDTH
1002
{
1040
-3.0
1002
}
  0
LWPOLYLINE
  5
72B6
330
1F
100
AcDbEntity
  8
0
100
AcDbPolyline
 90
        2
 70
     0
 43
0.0
 10
7.235222818493578
 20
2.798164700686402
 42
0.0156796610766747
 10
7.084953204090211
 20
2.810676470160808
  0
LWPOLYLINE
  5
72B7
330
1F
100
AcDbEntity
  8
0
100
AcDbPolyline
 90
        2
 70
     0
 43
0.0
 10
6.983349628501827
 20
2.813784199993167
 42
0.0157936648709978
 10
6.831501455372315
 20
2.810421137378788
  0
LWPOLYLINE
  5
72B8
330
1F
100
AcDbEntity
  8
0
100
AcDbPolyline
 90
        2
 70
     0
 43
0.0
 10
7.992933852629533
 20
2.695970072345505
 42
-0.0089034290691004
 10
7.836574545742628
 20
2.708509746575841
  0
LWPOLYLINE
  5
72B9
330
1F
100
AcDbEntity
  8
0
100
AcDbPolyline
 90
        2
 70
     0
 43
0.0
 10
7.740625492925573
 20
2.718989338421418
 42
-0.0089301670529736
 10
7.584780378910068
 20
2.740570834290575
  0
LWPOLYLINE
  5
72BA
330
1F
100
AcDbEntity
  8
0
100
AcDbPolyline
 90
        2
 70
     0
 43
0.0
 10
7.491770568103216
 20
2.754506478712198
 42
0.0164208329197848
 10
7.336694447193352
 20
2.784307546428091
  0
LWPOLYLINE
  5
72BB
330
1F
100
AcDbEntity
  8
0
100
AcDbPolyline
 90
        2
 70
     0
 43
0.0
 10
7.230575686480818
 20
2.859211097002854
 42
0.0146801367772511
 10
7.089881601929473
 20
2.870933188612226
  0
LWPOLYLINE
  5
72BC
330
1F
100
AcDbEntity
  8
0
100
AcDbPolyline
 90
        2
 70
     0
 43
0.0
 10
6.978872490612296
 20
2.874339183748403
 42
0.014869698490557
 10
6.835903786962671
 20
2.871170732713959
  0
LWPOLYLINE
  5
72BD
330
1F
100
AcDbEntity
  8
0
100
AcDbPolyline
 90
        2
 70
     0
 43
0.0
 10
7.988892420954304
 20
2.756740603627542
 42
-0.0082305580818414
 10
7.844343273770682
 20
2.768271106688431
  0
LWPOLYLINE
  5
72BE
330
1F
100
AcDbEntity
  8
0
100
AcDbPolyline
 90
        2
 70
     0
 43
0.0
 10
7.740625492925573
 20
2.779506221324418
 42
-0.008447071874798
 10
7.59319023971873
 20
2.799777964257304
  0
LWPOLYLINE
  5
72BF
330
1F
100
AcDbEntity
  8
0
100
AcDbPolyline
 90
        2
 70
     0
 43
0.0
 10
7.484635319735371
 20
2.816627741199483
 42
0.0151648059833676
 10
7.341400707334923
 20
2.84407455060115
  0
LINE
  5
72C0
330
1F
100
AcDbEntity
  8
0
100
AcDbLine
 10
4.057761421674868
 20
2.809582405846927
 30
0.0
 11
4.20991039332636
 21
2.809582405846927
 31
0.0
1001
ACAD
1000
TCW40_DEV_WIDTH
1002
{
1040
-3.0
1002
}
  0
LINE
  5
72C1
330
1F
100
AcDbEntity
  8
0
100
AcDbLine
 10
4.309915100437393
 20
2.809582405846927
 30
0.0
 11
4.462064072088882
 21
2.809582405846927
 31
0.0
1001
ACAD
1000
TCW40_DEV_WIDTH
1002
{
1040
-3.0
1002
}
  0
LINE
  5
72C2
330
1F
100
AcDbEntity
  8
0
100
AcDbLine
 10
4.562068779199886
 20
2.809582405846927
 30
0.0
 11
4.714217750851375
 21
2.809582405846927
 31
0.0
1001
ACAD
1000
TCW40_DEV_WIDTH
1002
{
1040
-3.0
1002
}
  0
LINE
  5
72C3
330
1F
100
AcDbEntity
  8
0
100
AcDbLine
 10
4.81422245796238
 20
2.809582405846927
 30
0.0
 11
4.966371429613868
 21
2.809582405846927
 31
0.0
1001
ACAD
1000
TCW40_DEV_WIDTH
1002
{
1040
-3.0
1002
}
  0
LINE
  5
72C4
330
1F
100
AcDbEntity
  8
0
100
AcDbLine
 10
5.066376136724873
 20
2.809582405846927
 30
0.0
 11
5.218525108376361
 21
2.809582405846927
 31
0.0
1001
ACAD
1000
TCW40_DEV_WIDTH
1002
{
1040
-3.0
1002
}
  0
LINE
  5
72C5
330
1F
100
AcDbEntity
  8
0
100
AcDbLine
 10
5.318529815487366
 20
2.809582405846927
 30
0.0
 11
5.470678787138883
 21
2.809582405846927
 31
0.0
1001
ACAD
1000
TCW40_DEV_WIDTH
1002
{
1040
-3.0
1002
}
  0
LINE
  5
72C6
330
1F
100
AcDbEntity
  8
0
100
AcDbLine
 10
5.570683494249887
 20
2.809582405846927
 30
0.0
 11
5.72283246590138
 21
2.809582405846927
 31
0.0
1001
ACAD
1000
TCW40_DEV_WIDTH
1002
{
1040
-3.0
1002
}
  0
LINE
  5
72C7
330
1F
100
AcDbEntity
  8
0
100
AcDbLine
 10
5.822837173012381
 20
2.809582405846927
 30
0.0
 11
5.974986144663873
 21
2.809582405846927
 31
0.0
1001
ACAD
1000
TCW40_DEV_WIDTH
1002
{
1040
-3.0
1002
}
  0
LINE
  5
72C8
330
1F
100
AcDbEntity
  8
0
100
AcDbLine
 10
6.074990851774874
 20
2.809582405846927
 30
0.0
 11
6.227139823426366
 21
2.809582405846927
 31
0.0
1001
ACAD
1000
TCW40_DEV_WIDTH
1002
{
1040
-3.0
1002
}
  0
LINE
  5
72C9
330
1F
100
AcDbEntity
  8
0
100
AcDbLine
 10
6.327144530537367
 20
2.809582405846927
 30
0.0
 11
6.479293502188887
 21
2.809582405846927
 31
0.0
1001
ACAD
1000
TCW40_DEV_WIDTH
1002
{
1040
-3.0
1002
}
  0
LINE
  5
72CA
330
1F
100
AcDbEntity
  8
0
100
AcDbLine
 10
6.579298209299892
 20
2.809582405846927
 30
0.0
 11
6.731447180951381
 21
2.809582405846927
 31
0.0
1001
ACAD
1000
TCW40_DEV_WIDTH
1002
{
1040
-3.0
1002
}
  0
LINE
  5
72CB
330
1F
100
AcDbEntity
  8
0
100
AcDbLine
 10
4.060484657093535
 20
2.849926994448925
 30
0.0
 11
4.207187157907721
 21
2.849926994448925
 31
0.0
1001
ACAD
1000
TCW40_DEV_WIDTH
1002
{
1040
-3.0
1002
}
  0
LINE
  5
72CC
330
1F
100
AcDbEntity
  8
0
100
AcDbLine
 10
4.312638335856028
 20
2.849926994448925
 30
0.0
 11
4.459340836670246
 21
2.849926994448925
 31
0.0
1001
ACAD
1000
TCW40_DEV_WIDTH
1002
{
1040
-3.0
1002
}
  0
LINE
  5
72CD
330
1F
100
AcDbEntity
  8
0
100
AcDbLine
 10
4.564792014618522
 20
2.849926994448925
 30
0.0
 11
4.71149451543274
 21
2.849926994448925
 31
0.0
1001
ACAD
1000
TCW40_DEV_WIDTH
1002
{
1040
-3.0
1002
}
  0
LINE
  5
72CE
330
1F
100
AcDbEntity
  8
0
100
AcDbLine
 10
4.816945693381015
 20
2.849926994448925
 30
0.0
 11
4.963648194195233
 21
2.849926994448925
 31
0.0
1001
ACAD
1000
TCW40_DEV_WIDTH
1002
{
1040
-3.0
1002
}
  0
LINE
  5
72CF
330
1F
100
AcDbEntity
  8
0
100
AcDbLine
 10
5.069099372143508
 20
2.849926994448925
 30
0.0
 11
5.215801872957726
 21
2.849926994448925
 31
0.0
1001
ACAD
1000
TCW40_DEV_WIDTH
1002
{
1040
-3.0
1002
}
  0
LINE
  5
72D0
330
1F
100
AcDbEntity
  8
0
100
AcDbLine
 10
5.32125305090603
 20
2.849926994448925
 30
0.0
 11
5.467955551720219
 21
2.849926994448925
 31
0.0
1001
ACAD
1000
TCW40_DEV_WIDTH
1002
{
1040
-3.0
1002
}
  0
LINE
  5
72D1
330
1F
100
AcDbEntity
  8
0
100
AcDbLine
 10
5.573406729668526
 20
2.849926994448925
 30
0.0
 11
5.720109230482741
 21
2.849926994448925
 31
0.0
1001
ACAD
1000
TCW40_DEV_WIDTH
1002
{
1040
-3.0
1002
}
  0
LINE
  5
72D2
330
1F
100
AcDbEntity
  8
0
100
AcDbLine
 10
5.825560408431019
 20
2.849926994448925
 30
0.0
 11
5.972262909245234
 21
2.849926994448925
 31
0.0
1001
ACAD
1000
TCW40_DEV_WIDTH
1002
{
1040
-3.0
1002
}
  0
LINE
  5
72D3
330
1F
100
AcDbEntity
  8
0
100
AcDbLine
 10
6.077714087193513
 20
2.849926994448925
 30
0.0
 11
6.224416588007727
 21
2.849926994448925
 31
0.0
1001
ACAD
1000
TCW40_DEV_WIDTH
1002
{
1040
-3.0
1002
}
  0
LINE
  5
72D4
330
1F
100
AcDbEntity
  8
0
100
AcDbLine
 10
6.329867765956034
 20
2.849926994448925
 30
0.0
 11
6.47657026677022
 21
2.849926994448925
 31
0.0
1001
ACAD
1000
TCW40_DEV_WIDTH
1002
{
1040
-3.0
1002
}
  0
LINE
  5
72D5
330
1F
100
AcDbEntity
  8
0
100
AcDbLine
 10
6.582021444718527
 20
2.849926994448925
 30
0.0
 11
6.728723945532745
 21
2.849926994448925
 31
0.0
1001
ACAD
1000
TCW40_DEV_WIDTH
1002
{
1040
-3.0
1002
}
  0
LINE
  5
72D6
330
1F
100
AcDbEntity
  8
0
100
AcDbLine
 10
4.063957030231506
 20
2.890271583050927
 30
0.0
 11
4.203714784769751
 21
2.890271583050927
 31
0.0
1001
ACAD
1000
TCW40_DEV_WIDTH
1002
{
1040
-3.0
1002
}
  0
LINE
  5
72D7
330
1F
100
AcDbEntity
  8
0
100
AcDbLine
 10
4.316110708993999
 20
2.890271583050927
 30
0.0
 11
4.455868463532244
 21
2.890271583050927
 31
0.0
1001
ACAD
1000
TCW40_DEV_WIDTH
1002
{
1040
-3.0
1002
}
  0
LINE
  5
72D8
330
1F
100
AcDbEntity
  8
0
100
AcDbLine
 10
4.568264387756496
 20
2.890271583050927
 30
0.0
 11
4.708022142294765
 21
2.890271583050927
 31
0.0
1001
ACAD
1000
TCW40_DEV_WIDTH
1002
{
1040
-3.0
1002
}
  0
LINE
  5
72D9
330
1F
100
AcDbEntity
  8
0
100
AcDbLine
 10
4.820418066518989
 20
2.890271583050927
 30
0.0
 11
4.960175821057259
 21
2.890271583050927
 31
0.0
1001
ACAD
1000
TCW40_DEV_WIDTH
1002
{
1040
-3.0
1002
}
  0
LINE
  5
72DA
330
1F
100
AcDbEntity
  8
0
100
AcDbLine
 10
5.072571745281511
 20
2.890271583050927
 30
0.0
 11
5.212329499819752
 21
2.890271583050927
 31
0.0
1001
ACAD
1000
TCW40_DEV_WIDTH
1002
{
1040
-3.0
1002
}
  0
LINE
  5
72DB
330
1F
100
AcDbEntity
  8
0
100
AcDbLine
 10
5.324725424044004
 20
2.890271583050927
 30
0.0
 11
5.464483178582245
 21
2.890271583050927
 31
0.0
1001
ACAD
1000
TCW40_DEV_WIDTH
1002
{
1040
-3.0
1002
}
  0
LINE
  5
72DC
330
1F
100
AcDbEntity
  8
0
100
AcDbLine
 10
5.576879102806497
 20
2.890271583050927
 30
0.0
 11
5.71663685734477
 21
2.890271583050927
 31
0.0
1001
ACAD
1000
TCW40_DEV_WIDTH
1002
{
1040
-3.0
1002
}
  0
LINE
  5
72DD
330
1F
100
AcDbEntity
  8
0
100
AcDbLine
 10
5.82903278156899
 20
2.890271583050927
 30
0.0
 11
5.968790536107263
 21
2.890271583050927
 31
0.0
1001
ACAD
1000
TCW40_DEV_WIDTH
1002
{
1040
-3.0
1002
}
  0
LINE
  5
72DE
330
1F
100
AcDbEntity
  8
0
100
AcDbLine
 10
6.081186460331483
 20
2.890271583050927
 30
0.0
 11
6.220944214869756
 21
2.890271583050927
 31
0.0
1001
ACAD
1000
TCW40_DEV_WIDTH
1002
{
1040
-3.0
1002
}
  0
LINE
  5
72DF
330
1F
100
AcDbEntity
  8
0
100
AcDbLine
 10
6.333340139094008
 20
2.890271583050927
 30
0.0
 11
6.47309789363225
 21
2.890271583050927
 31
0.0
1001
ACAD
1000
TCW40_DEV_WIDTH
1002
{
1040
-3.0
1002
}
  0
LINE
  5
72E0
330
1F
100
AcDbEntity
  8
0
100
AcDbLine
 10
6.585493817856502
 20
2.890271583050927
 30
0.0
 11
6.725251572394743
 21
2.890271583050927
 31
0.0
1001
ACAD
1000
TCW40_DEV_WIDTH
1002
{
1040
-3.0
1002
}
  0
LINE
  5
72E1
330
1F
100
AcDbEntity
  8
0
100
AcDbLine
 10
4.070847938734207
 20
2.950788465953926
 30
0.0
 11
4.19682387626705
 21
2.950788465953926
 31
0.0
1001
ACAD
1000
TCW40_DEV_WIDTH
1002
{
1040
-3.0
1002
}
  0
LINE
  5
72E2
330
1F
100
AcDbEntity
  8
0
100
AcDbLine
 10
4.3230016174967
 20
2.950788465953926
 30
0.0
 11
4.448977555029543
 21
2.950788465953926
 31
0.0
1001
ACAD
1000
TCW40_DEV_WIDTH
1002
{
1040
-3.0
1002
}
  0
LINE
  5
72E3
330
1F
100
AcDbEntity
  8
0
100
AcDbLine
 10
4.575155296259193
 20
2.950788465953926
 30
0.0
 11
4.701131233792064
 21
2.950788465953926
 31
0.0
1001
ACAD
1000
TCW40_DEV_WIDTH
1002
{
1040
-3.0
1002
}
  0
LINE
  5
72E4
330
1F
100
AcDbEntity
  8
0
100
AcDbLine
 10
4.82730897502169
 20
2.950788465953926
 30
0.0
 11
4.953284912554558
 21
2.950788465953926
 31
0.0
1001
ACAD
1000
TCW40_DEV_WIDTH
1002
{
1040
-3.0
1002
}
  0
LINE
  5
72E5
330
1F
100
AcDbEntity
  8
0
100
AcDbLine
 10
5.079462653784212
 20
2.950788465953926
 30
0.0
 11
5.205438591317051
 21
2.950788465953926
 31
0.0
1001
ACAD
1000
TCW40_DEV_WIDTH
1002
{
1040
-3.0
1002
}
  0
LINE
  5
72E6
330
1F
100
AcDbEntity
  8
0
100
AcDbLine
 10
5.331616332546705
 20
2.950788465953926
 30
0.0
 11
5.457592270079544
 21
2.950788465953926
 31
0.0
1001
ACAD
1000
TCW40_DEV_WIDTH
1002
{
1040
-3.0
1002
}
  0
LINE
  5
72E7
330
1F
100
AcDbEntity
  8
0
100
AcDbLine
 10
5.583770011309198
 20
2.950788465953926
 30
0.0
 11
5.709745948842037
 21
2.950788465953926
 31
0.0
1001
ACAD
1000
TCW40_DEV_WIDTH
1002
{
1040
-3.0
1002
}
  0
LINE
  5
72E8
330
1F
100
AcDbEntity
  8
0
100
AcDbLine
 10
5.835923690071691
 20
2.950788465953926
 30
0.0
 11
5.961899627604562
 21
2.950788465953926
 31
0.0
1001
ACAD
1000
TCW40_DEV_WIDTH
1002
{
1040
-3.0
1002
}
  0
LINE
  5
72E9
330
1F
100
AcDbEntity
  8
0
100
AcDbLine
 10
6.088077368834213
 20
2.950788465953926
 30
0.0
 11
6.214053306367055
 21
2.950788465953926
 31
0.0
1001
ACAD
1000
TCW40_DEV_WIDTH
1002
{
1040
-3.0
1002
}
  0
LINE
  5
72EA
330
1F
100
AcDbEntity
  8
0
100
AcDbLine
 10
6.340231047596709
 20
2.950788465953926
 30
0.0
 11
6.466206985129549
 21
2.950788465953926
 31
0.0
1001
ACAD
1000
TCW40_DEV_WIDTH
1002
{
1040
-3.0
1002
}
  0
LINE
  5
72EB
330
1F
100
AcDbEntity
  8
0
100
AcDbLine
 10
6.592384726359203
 20
2.950788465953926
 30
0.0
 11
6.718360663892042
 21
2.950788465953926
 31
0.0
1001
ACAD
1000
TCW40_DEV_WIDTH
1002
{
1040
-3.0
1002
}
  0
LWPOLYLINE
  5
72EC
330
1F
100
AcDbEntity
  8
0
100
AcDbPolyline
 90
        4
 70
     1
 43
0.0
 10
7.03864628684462
 20
4.504055127130928
 10
4.416248027714637
 20
4.504055127130928
 10
4.416248027714637
 20
7.126453386260925
 10
7.03864628684462
 20
7.126453386260925
1001
ACAD
1000
TCW40_DEV_WIDTH
1002
{
1040
-3.0
1002
}
  0
LWPOLYLINE
  5
72ED
330
1F
100
AcDbEntity
  8
0
100
AcDbPolyline
 90
        3
 70
     0
 43
0.0
 10
8.322749226183418
 20
9.143710603151932
 42
-0.1116363669694671
 10
8.364208547840288
 20
5.608795778236428
 42
0.0457021566903444
 10
8.27832323051362
 20
2.609037341713077
  0
LWPOLYLINE
  5
72EE
330
1F
100
AcDbEntity
  8
0
100
AcDbPolyline
 90
        3
 70
     0
 43
0.0
 10
8.199544570504109
 20
9.143710603151932
 42
-0.1116363669694671
 10
8.241003892160982
 20
5.608795778236428
 42
0.045686805620937
 10
8.125118574834313
 20
2.609037341713077
  0
LINE
  5
72EF
330
1F
100
AcDbEntity
  8
0
100
AcDbLine
 10
8.322749226183418
 20
9.143710603151932
 30
0.0
 11
8.199544570504109
 21
9.143710603151932
 31
0.0
1001
ACAD
1000
TCW40_DEV_WIDTH
1002
{
1040
-3.0
1002
}
  0
LINE
  5
72F0
330
1F
100
AcDbEntity
  8
0
100
AcDbLine
 10
8.27832323051362
 20
2.609037341713077
 30
0.0
 11
8.125118574834313
 21
2.609037341713077
 31
0.0
1001
ACAD
1000
TCW40_DEV_WIDTH
1002
{
1040
-3.0
1002
}
  0
DIMENSION
  5
72F1
330
1F
100
AcDbEntity
  8
DIM
100
AcDbDimension
  2
*D1
 10
9.243359585900055
 20
2.609037341713076
 30
0.0
 11
9.243359585900055
 21
5.876373972432508
 31
0.0
 70
   160
 71
     5
 42
6.534673261438855
  3
Standard
100
AcDbAlignedDimension
 13
8.322749226183418
 23
9.143710603151932
 33
0.0
 14
8.27832323051362
 24
2.609037341713077
 34
0.0
 50
90.0
100
AcDbRotatedDimension
  0
DIMENSION
  5
72FF
330
1F
100
AcDbEntity
  8
DIM
100
AcDbDimension
  2
*D2
 10
8.540791411311893
 20
9.793520567017271
 30
0.0
 11
6.10725880103603
 21
9.793520567017271
 31
0.0
 70
   160
 71
     5
 42
4.649023035423251
  3
Standard
100
AcDbAlignedDimension
 13
3.891768375888641
 23
9.022649050554926
 33
0.0
 14
8.540791411311893
 24
7.378567374717576
 34
0.0
100
AcDbRotatedDimension
  0
LWPOLYLINE
  5
7457
330
1F
100
AcDbEntity
  8
0
100
AcDbPolyline
 90
        4
 70
     0
 43
0.0
 10
11.82647823365899
 20
11.5112812868727
 10
11.82647823365899
 20
15.89856683287208
 10
10.17293593365899
 20
15.89856683287208
 10
10.17293593365899
 20
11.5112812868727
1001
ACAD
1000
TCW40_DEV_WIDTH
1002
{
1040
-3.0
1002
}
  0
LWPOLYLINE
  5
745B
330
1F
100
AcDbEntity
  8
0
  6
$INVISIBLE
100
AcDbPolyline
 90
        5
 70
     0
 43
0.0
 10
10.717394983659
 20
13.72317487612236
 10
10.717394983659
 20
13.5641100278048
 10
10.77789043365899
 20
13.5641100278048
 10
10.77789043365899
 20
13.72317487612236
 10
10.717394983659
 20
13.72317487612236
1001
ACAD
1000
TCW40_DEV_WIDTH
1002
{
1040
-3.0
1002
}
  0
LWPOLYLINE
  5
745C
330
1F
100
AcDbEntity
  8
0
  6
$INVISIBLE
100
AcDbPolyline
 90
        5
 70
     0
 43
0.0
 10
10.717394983659
 20
13.47111050112236
 10
10.717394983659
 20
13.3120456528048
 10
10.77789043365899
 20
13.3120456528048
 10
10.77789043365899
 20
13.47111050112236
 10
10.717394983659
 20
13.47111050112236
1001
ACAD
1000
TCW40_DEV_WIDTH
1002
{
1040
-3.0
1002
}
  0
LWPOLYLINE
  5
745D
330
1F
100
AcDbEntity
  8
0
  6
$INVISIBLE
100
AcDbPolyline
 90
        5
 70
     0
 43
0.0
 10
10.77789043365899
 20
12.80803731303331
 10
10.77789043365899
 20
12.96698175112236
 10
10.717394983659
 20
12.96698175112236
 10
10.717394983659
 20
12.80803731303331
 10
10.77789043365899
 20
12.80803731303331
1001
ACAD
1000
TCW40_DEV_WIDTH
1002
{
1040
-3.0
1002
}
  0
LWPOLYLINE
  5
745E
330
1F
100
AcDbEntity
  8
0
  6
$INVISIBLE
100
AcDbPolyline
 90
        5
 70
     0
 43
0.0
 10
10.77789043365899
 20
12.55473580672454
 10
10.77789043365899
 20
12.71422906041941
 10
10.717394983659
 20
12.71422906041941
 10
10.717394983659
 20
12.55473580672454
 10
10.77789043365899
 20
12.55473580672454
1001
ACAD
1000
TCW40_DEV_WIDTH
1002
{
1040
-3.0
1002
}
  0
LWPOLYLINE
  5
745F
330
1F
100
AcDbEntity
  8
0
  6
$INVISIBLE
100
AcDbPolyline
 90
        5
 70
     0
 43
0.0
 10
10.77789043365899
 20
12.30268994862844
 10
10.77789043365899
 20
12.46236671719409
 10
10.717394983659
 20
12.46236671719409
 10
10.717394983659
 20
12.30268994862844
 10
10.77789043365899
 20
12.30268994862844
1001
ACAD
1000
TCW40_DEV_WIDTH
1002
{
1040
-3.0
1002
}
  0
LWPOLYLINE
  5
7460
330
1F
100
AcDbEntity
  8
0
  6
$INVISIBLE
100
AcDbPolyline
 90
        5
 70
     0
 43
0.0
 10
10.77789043365899
 20
12.05061416912341
 10
10.77789043365899
 20
12.21043518093877
 10
10.717394983659
 20
12.21043518093877
 10
10.717394983659
 20
12.05061416912341
 10
10.77789043365899
 20
12.05061416912341
1001
ACAD
1000
TCW40_DEV_WIDTH
1002
{
1040
-3.0
1002
}
  0
LWPOLYLINE
  5
7461
330
1F
100
AcDbEntity
  8
0
  6
$INVISIBLE
100
AcDbPolyline
 90
        5
 70
     0
 43
0.0
 10
10.77789043365899
 20
11.79856026726434
 10
10.77789043365899
 20
11.95872425111316
 10
10.717394983659
 20
11.95872425111316
 10
10.717394983659
 20
11.79856026726434
 10
10.77789043365899
 20
11.79856026726434
1001
ACAD
1000
TCW40_DEV_WIDTH
1002
{
1040
-3.0
1002
}
  0
LWPOLYLINE
  5
7462
330
1F
100
AcDbEntity
  8
0
  6
$INVISIBLE
100
AcDbPolyline
 90
        6
 70
     0
 43
0.0
 10
10.77789043365899
 20
13.05885310196358
 10
10.77789043365899
 20
13.0599812778048
 10
10.77789043365899
 20
13.21904612612236
 10
10.717394983659
 20
13.21904612612236
 10
10.717394983659
 20
13.0599812778048
 10
10.77789043365899
 20
13.05885310196358
1001
ACAD
1000
TCW40_DEV_WIDTH
1002
{
1040
-3.0
1002
}
  0
LWPOLYLINE
  5
7465
330
1F
100
AcDbEntity
  8
0
  6
$INVISIBLE
100
AcDbPolyline
 90
        5
 70
     0
 43
0.0
 10
10.17293593365899
 20
13.56298185196358
 10
11.82647823365899
 20
13.56298185196358
 10
11.82647823365899
 20
13.47111050112236
 10
10.17293593365899
 20
13.47111050112236
 10
10.17293593365899
 20
13.56298185196358
1001
ACAD
1000
TCW40_DEV_WIDTH
1002
{
1040
-3.0
1002
}
  0
LWPOLYLINE
  5
7466
330
1F
100
AcDbEntity
  8
0
  6
$INVISIBLE
100
AcDbPolyline
 90
        5
 70
     0
 43
0.0
 10
10.17293593365899
 20
13.05885310196358
 10
11.82647823365899
 20
13.05885310196358
 10
11.82647823365899
 20
12.96698175112236
 10
10.17293593365899
 20
12.96698175112236
 10
10.17293593365899
 20
13.05885310196358
1001
ACAD
1000
TCW40_DEV_WIDTH
1002
{
1040
-3.0
1002
}
  0
LWPOLYLINE
  5
7467
330
1F
100
AcDbEntity
  8
0
  6
$INVISIBLE
100
AcDbPolyline
 90
        5
 70
     0
 43
0.0
 10
10.17293593365899
 20
12.05061416912341
 10
11.82647823365899
 20
12.05061416912341
 10
11.82647823365899
 20
11.95872425111316
 10
10.17293593365899
 20
11.95872425111316
 10
10.17293593365899
 20
12.05061416912341
1001
ACAD
1000
TCW40_DEV_WIDTH
1002
{
1040
-3.0
1002
}
  0
LWPOLYLINE
  5
7468
330
1F
100
AcDbEntity
  8
0
  6
$INVISIBLE
100
AcDbPolyline
 90
        5
 70
     0
 43
0.0
 10
10.17293593365899
 20
12.30268994862844
 10
11.82647823365899
 20
12.30268994862844
 10
11.82647823365899
 20
12.21043518093877
 10
10.17293593365899
 20
12.21043518093877
 10
10.17293593365899
 20
12.30268994862844
1001
ACAD
1000
TCW40_DEV_WIDTH
1002
{
1040
-3.0
1002
}
  0
LWPOLYLINE
  5
7469
330
1F
100
AcDbEntity
  8
0
  6
$INVISIBLE
100
AcDbPolyline
 90
        5
 70
     0
 43
0.0
 10
10.17293593365899
 20
12.55473580672454
 10
11.82647823365899
 20
12.55473580672454
 10
11.82647823365899
 20
12.46236671719409
 10
10.17293593365899
 20
12.46236671719409
 10
10.17293593365899
 20
12.55473580672454
1001
ACAD
1000
TCW40_DEV_WIDTH
1002
{
1040
-3.0
1002
}
  0
LWPOLYLINE
  5
746B
330
1F
100
AcDbEntity
  8
0
  6
$INVISIBLE
100
AcDbPolyline
 90
        5
 70
     0
 43
0.0
 10
10.17293593365899
 20
13.3120456528048
 10
11.82647823365899
 20
13.3120456528048
 10
11.82647823365899
 20
13.21904612612236
 10
10.17293593365899
 20
13.21904612612236
 10
10.17293593365899
 20
13.3120456528048
1001
ACAD
1000
TCW40_DEV_WIDTH
1002
{
1040
-3.0
1002
}
  0
LWPOLYLINE
  5
746C
330
1F
100
AcDbEntity
  8
0
  6
$INVISIBLE
100
AcDbPolyline
 90
        5
 70
     0
 43
0.0
 10
10.17293593365899
 20
12.80803731303331
 10
11.82647823365899
 20
12.80803731303331
 10
11.82647823365899
 20
12.71422906041941
 10
10.17293593365899
 20
12.71422906041941
 10
10.17293593365899
 20
12.80803731303331
1001
ACAD
1000
TCW40_DEV_WIDTH
1002
{
1040
-3.0
1002
}
  0
LWPOLYLINE
  5
746D
330
1F
100
AcDbEntity
  8
0
  6
$INVISIBLE
100
AcDbPolyline
 90
        3
 70
     0
 43
0.0
 10
21.84155752523981
 20
55.46024679663361
 10
21.84155752523981
 20
71.32926128519108
 10
21.84155752523981
 20
55.46024679663361
1001
ACAD
1000
TCW40_DEV_WIDTH
1002
{
1040
-3.0
1002
}
  0
LWPOLYLINE
  5
746E
330
1F
100
AcDbEntity
  8
0
  6
$INVISIBLE
100
AcDbPolyline
 90
        3
 70
     0
 43
0.0
 10
-32.12974900751641
 20
30.32926128519108
 10
-32.12974900751641
 20
71.32926128519108
 10
-32.12974900751641
 20
30.32926128519108
1001
ACAD
1000
TCW40_DEV_WIDTH
1002
{
1040
-3.0
1002
}
  0
LWPOLYLINE
  5
7471
330
1F
100
AcDbEntity
  8
0
  6
$INVISIBLE
100
AcDbPolyline
 90
        5
 70
     0
 43
0.0
 10
11.30218433365899
 20
13.72317487612236
 10
11.30218433365899
 20
13.5641100278048
 10
11.36267978365899
 20
13.5641100278048
 10
11.36267978365899
 20
13.72317487612236
 10
11.30218433365899
 20
13.72317487612236
1001
ACAD
1000
TCW40_DEV_WIDTH
1002
{
1040
-3.0
1002
}
  0
LWPOLYLINE
  5
7472
330
1F
100
AcDbEntity
  8
0
  6
$INVISIBLE
100
AcDbPolyline
 90
        5
 70
     0
 43
0.0
 10
11.30218433365899
 20
13.47111050112236
 10
11.30218433365899
 20
13.3120456528048
 10
11.36267978365899
 20
13.3120456528048
 10
11.36267978365899
 20
13.47111050112236
 10
11.30218433365899
 20
13.47111050112236
1001
ACAD
1000
TCW40_DEV_WIDTH
1002
{
1040
-3.0
1002
}
  0
LWPOLYLINE
  5
7473
330
1F
100
AcDbEntity
  8
0
  6
$INVISIBLE
100
AcDbPolyline
 90
        5
 70
     0
 43
0.0
 10
11.30218433365899
 20
13.21904612612236
 10
11.30218433365899
 20
13.0599812778048
 10
11.36267978365899
 20
13.0599812778048
 10
11.36267978365899
 20
13.21904612612236
 10
11.30218433365899
 20
13.21904612612236
1001
ACAD
1000
TCW40_DEV_WIDTH
1002
{
1040
-3.0
1002
}
  0
LWPOLYLINE
  5
7474
330
1F
100
AcDbEntity
  8
0
  6
$INVISIBLE
100
AcDbPolyline
 90
        5
 70
     0
 43
0.0
 10
11.36267978365899
 20
12.80916548887454
 10
11.36267978365899
 20
12.96810992696358
 10
11.30218433365899
 20
12.96810992696358
 10
11.30218433365899
 20
12.80916548887454
 10
11.36267978365899
 20
12.80916548887454
1001
ACAD
1000
TCW40_DEV_WIDTH
1002
{
1040
-3.0
1002
}
  0
LWPOLYLINE
  5
7475
330
1F
100
AcDbEntity
  8
0
  6
$INVISIBLE
100
AcDbPolyline
 90
        5
 70
     0
 43
0.0
 10
11.36267978365899
 20
12.55586398256576
 10
11.36267978365899
 20
12.71535723626063
 10
11.30218433365899
 20
12.71535723626063
 10
11.30218433365899
 20
12.55586398256576
 10
11.36267978365899
 20
12.55586398256576
1001
ACAD
1000
TCW40_DEV_WIDTH
1002
{
1040
-3.0
1002
}
  0
LWPOLYLINE
  5
7476
330
1F
100
AcDbEntity
  8
0
  6
$INVISIBLE
100
AcDbPolyline
 90
        5
 70
     0
 43
0.0
 10
11.36267978365899
 20
12.30381812446967
 10
11.36267978365899
 20
12.46349489303531
 10
11.30218433365899
 20
12.46349489303531
 10
11.30218433365899
 20
12.30381812446967
 10
11.36267978365899
 20
12.30381812446967
1001
ACAD
1000
TCW40_DEV_WIDTH
1002
{
1040
-3.0
1002
}
  0
LWPOLYLINE
  5
7477
330
1F
100
AcDbEntity
  8
0
  6
$INVISIBLE
100
AcDbPolyline
 90
        5
 70
     0
 43
0.0
 10
11.36267978365899
 20
12.05174234496464
 10
11.36267978365899
 20
12.21156335677999
 10
11.30218433365899
 20
12.21156335677999
 10
11.30218433365899
 20
12.05174234496464
 10
11.36267978365899
 20
12.05174234496464
1001
ACAD
1000
TCW40_DEV_WIDTH
1002
{
1040
-3.0
1002
}
  0
LWPOLYLINE
  5
7478
330
1F
100
AcDbEntity
  8
0
  6
$INVISIBLE
100
AcDbPolyline
 90
        5
 70
     0
 43
0.0
 10
11.36267978365899
 20
11.79968844310556
 10
11.36267978365899
 20
11.95985242695438
 10
11.30218433365899
 20
11.95985242695438
 10
11.30218433365899
 20
11.79968844310556
 10
11.36267978365899
 20
11.79968844310556
1001
ACAD
1000
TCW40_DEV_WIDTH
1002
{
1040
-3.0
1002
}
  0
LWPOLYLINE
  5
747C
330
1F
100
AcDbEntity
  8
0
  6
$INVISIBLE
100
AcDbPolyline
 90
        5
 70
     0
 43
0.0
 10
10.17293593365899
 20
13.56298185196358
 10
11.82647823365899
 20
13.56298185196358
 10
11.82647823365899
 20
13.47111050112236
 10
10.17293593365899
 20
13.47111050112236
 10
10.17293593365899
 20
13.56298185196358
1001
ACAD
1000
TCW40_DEV_WIDTH
1002
{
1040
-3.0
1002
}
  0
LWPOLYLINE
  5
747D
330
1F
100
AcDbEntity
  8
0
  6
$INVISIBLE
100
AcDbPolyline
 90
        5
 70
     0
 43
0.0
 10
10.17293593365899
 20
13.05885310196358
 10
11.82647823365899
 20
13.05885310196358
 10
11.82647823365899
 20
12.96698175112236
 10
10.17293593365899
 20
12.96698175112236
 10
10.17293593365899
 20
13.05885310196358
1001
ACAD
1000
TCW40_DEV_WIDTH
1002
{
1040
-3.0
1002
}
  0
LWPOLYLINE
  5
747E
330
1F
100
AcDbEntity
  8
0
  6
$INVISIBLE
100
AcDbPolyline
 90
        5
 70
     0
 43
0.0
 10
10.17293593365899
 20
12.05061416912341
 10
11.82647823365899
 20
12.05061416912341
 10
11.82647823365899
 20
11.95872425111316
 10
10.17293593365899
 20
11.95872425111316
 10
10.17293593365899
 20
12.05061416912341
1001
ACAD
1000
TCW40_DEV_WIDTH
1002
{
1040
-3.0
1002
}
  0
LWPOLYLINE
  5
747F
330
1F
100
AcDbEntity
  8
0
  6
$INVISIBLE
100
AcDbPolyline
 90
        5
 70
     0
 43
0.0
 10
10.17293593365899
 20
12.30268994862844
 10
11.82647823365899
 20
12.30268994862844
 10
11.82647823365899
 20
12.21043518093877
 10
10.17293593365899
 20
12.21043518093877
 10
10.17293593365899
 20
12.30268994862844
1001
ACAD
1000
TCW40_DEV_WIDTH
1002
{
1040
-3.0
1002
}
  0
LWPOLYLINE
  5
7480
330
1F
100
AcDbEntity
  8
0
  6
$INVISIBLE
100
AcDbPolyline
 90
        5
 70
     0
 43
0.0
 10
10.17293593365899
 20
12.55473580672454
 10
11.82647823365899
 20
12.55473580672454
 10
11.82647823365899
 20
12.46236671719409
 10
10.17293593365899
 20
12.46236671719409
 10
10.17293593365899
 20
12.55473580672454
1001
ACAD
1000
TCW40_DEV_WIDTH
1002
{
1040
-3.0
1002
}
  0
LWPOLYLINE
  5
7482
330
1F
100
AcDbEntity
  8
0
  6
$INVISIBLE
100
AcDbPolyline
 90
        5
 70
     0
 43
0.0
 10
10.17293593365899
 20
13.3120456528048
 10
11.82647823365899
 20
13.3120456528048
 10
11.82647823365899
 20
13.21904612612236
 10
10.17293593365899
 20
13.21904612612236
 10
10.17293593365899
 20
13.3120456528048
1001
ACAD
1000
TCW40_DEV_WIDTH
1002
{
1040
-3.0
1002
}
  0
LWPOLYLINE
  5
7483
330
1F
100
AcDbEntity
  8
0
  6
$INVISIBLE
100
AcDbPolyline
 90
        5
 70
     0
 43
0.0
 10
10.17293593365899
 20
12.80803731303331
 10
11.82647823365899
 20
12.80803731303331
 10
11.82647823365899
 20
12.71422906041941
 10
10.17293593365899
 20
12.71422906041941
 10
10.17293593365899
 20
12.80803731303331
1001
ACAD
1000
TCW40_DEV_WIDTH
1002
{
1040
-3.0
1002
}
  0
LWPOLYLINE
  5
7484
330
1F
100
AcDbEntity
  8
0
  6
$INVISIBLE
100
AcDbPolyline
 90
        7
 70
     0
 43
0.0
 10
10.17293593365899
 20
11.58322473287208
 10
10.72324336840455
 20
11.63698783055947
 10
11.27617079891344
 20
11.63698783055947
 10
11.82647823365899
 20
11.58322473287208
 10
11.82647823365899
 20
11.79856026726434
 10
10.17293593365899
 20
11.79856026726434
 10
10.17293593365899
 20
11.58322473287208
1001
ACAD
1000
TCW40_DEV_WIDTH
1002
{
1040
-3.0
1002
}
  0
LWPOLYLINE
  5
7485
330
1F
100
AcDbEntity
  8
0
  6
$INVISIBLE
100
AcDbPolyline
 90
        3
 70
     0
 43
0.0
 10
21.84155752523981
 20
30.32926128519108
 10
21.84155752523981
 20
46.19827577374855
 10
21.84155752523981
 20
30.32926128519108
1001
ACAD
1000
TCW40_DEV_WIDTH
1002
{
1040
-3.0
1002
}
  0
LINE
  5
7486
330
1F
100
AcDbEntity
  8
0
100
AcDbLine
 10
11.82647823365899
 20
11.79856026726434
 30
0.0
 11
10.17293593365899
 21
11.79856026726434
 31
0.0
1001
ACAD
1000
TCW40_DEV_WIDTH
1002
{
1040
-3.0
1002
}
  0
LINE
  5
7487
330
1F
100
AcDbEntity
  8
0
100
AcDbLine
 10
11.82647823365899
 20
11.95872425111316
 30
0.0
 11
10.17293593365899
 21
11.95872425111316
 31
0.0
1001
ACAD
1000
TCW40_DEV_WIDTH
1002
{
1040
-3.0
1002
}
  0
LINE
  5
7488
330
1F
100
AcDbEntity
  8
0
100
AcDbLine
 10
11.82647823365899
 20
12.05061416912341
 30
0.0
 11
10.17293593365899
 21
12.05061416912341
 31
0.0
1001
ACAD
1000
TCW40_DEV_WIDTH
1002
{
1040
-3.0
1002
}
  0
LINE
  5
7489
330
1F
100
AcDbEntity
  8
0
100
AcDbLine
 10
11.82647823365899
 20
12.21043518093877
 30
0.0
 11
10.17293593365899
 21
12.21043518093877
 31
0.0
1001
ACAD
1000
TCW40_DEV_WIDTH
1002
{
1040
-3.0
1002
}
  0
LINE
  5
748A
330
1F
100
AcDbEntity
  8
0
100
AcDbLine
 10
11.82647823365899
 20
12.30268994862844
 30
0.0
 11
10.17293593365899
 21
12.30268994862844
 31
0.0
1001
ACAD
1000
TCW40_DEV_WIDTH
1002
{
1040
-3.0
1002
}
  0
LINE
  5
748B
330
1F
100
AcDbEntity
  8
0
100
AcDbLine
 10
11.82647823365899
 20
12.46236671719409
 30
0.0
 11
10.17293593365899
 21
12.46236671719409
 31
0.0
1001
ACAD
1000
TCW40_DEV_WIDTH
1002
{
1040
-3.0
1002
}
  0
LINE
  5
748C
330
1F
100
AcDbEntity
  8
0
100
AcDbLine
 10
11.82647823365899
 20
12.55473580672454
 30
0.0
 11
10.17293593365899
 21
12.55473580672454
 31
0.0
1001
ACAD
1000
TCW40_DEV_WIDTH
1002
{
1040
-3.0
1002
}
  0
LINE
  5
748D
330
1F
100
AcDbEntity
  8
0
100
AcDbLine
 10
11.82647823365899
 20
12.71422906041941
 30
0.0
 11
10.17293593365899
 21
12.71422906041941
 31
0.0
1001
ACAD
1000
TCW40_DEV_WIDTH
1002
{
1040
-3.0
1002
}
  0
LINE
  5
748E
330
1F
100
AcDbEntity
  8
0
100
AcDbLine
 10
11.82647823365899
 20
12.80803731303331
 30
0.0
 11
10.17293593365899
 21
12.80803731303331
 31
0.0
1001
ACAD
1000
TCW40_DEV_WIDTH
1002
{
1040
-3.0
1002
}
  0
LINE
  5
748F
330
1F
100
AcDbEntity
  8
0
100
AcDbLine
 10
11.82647823365899
 20
12.96698175112236
 30
0.0
 11
10.17293593365899
 21
12.96698175112236
 31
0.0
1001
ACAD
1000
TCW40_DEV_WIDTH
1002
{
1040
-3.0
1002
}
  0
LINE
  5
7490
330
1F
100
AcDbEntity
  8
0
100
AcDbLine
 10
11.82647823365899
 20
13.05885310196358
 30
0.0
 11
10.17293593365899
 21
13.05885310196358
 31
0.0
1001
ACAD
1000
TCW40_DEV_WIDTH
1002
{
1040
-3.0
1002
}
  0
LINE
  5
7491
330
1F
100
AcDbEntity
  8
0
100
AcDbLine
 10
11.82647823365899
 20
13.21904612612236
 30
0.0
 11
10.17293593365899
 21
13.21904612612236
 31
0.0
1001
ACAD
1000
TCW40_DEV_WIDTH
1002
{
1040
-3.0
1002
}
  0
LINE
  5
7492
330
1F
100
AcDbEntity
  8
0
100
AcDbLine
 10
11.82647823365899
 20
13.3120456528048
 30
0.0
 11
10.17293593365899
 21
13.3120456528048
 31
0.0
1001
ACAD
1000
TCW40_DEV_WIDTH
1002
{
1040
-3.0
1002
}
  0
LINE
  5
7493
330
1F
100
AcDbEntity
  8
0
100
AcDbLine
 10
11.82647823365899
 20
13.47111050112236
 30
0.0
 11
10.17293593365899
 21
13.47111050112236
 31
0.0
1001
ACAD
1000
TCW40_DEV_WIDTH
1002
{
1040
-3.0
1002
}
  0
LINE
  5
7494
330
1F
100
AcDbEntity
  8
0
100
AcDbLine
 10
11.82647823365899
 20
13.56298185196358
 30
0.0
 11
10.17293593365899
 21
13.56298185196358
 31
0.0
1001
ACAD
1000
TCW40_DEV_WIDTH
1002
{
1040
-3.0
1002
}
  0
LINE
  5
7495
330
1F
100
AcDbEntity
  8
0
100
AcDbLine
 10
11.82647823365899
 20
13.72317487612236
 30
0.0
 11
10.17293593365899
 21
13.72317487612236
 31
0.0
1001
ACAD
1000
TCW40_DEV_WIDTH
1002
{
1040
-3.0
1002
}
  0
LINE
  5
74A8
330
1F
100
AcDbEntity
  8
0
100
AcDbLine
 10
11.82647823365899
 20
15.07536810196358
 30
0.0
 11
10.17293593365899
 21
15.07536810196358
 31
0.0
1001
ACAD
1000
TCW40_DEV_WIDTH
1002
{
1040
-3.0
1002
}
  0
LINE
  5
74A9
330
1F
100
AcDbEntity
  8
0
100
AcDbLine
 10
11.82647823365899
 20
15.23556112612236
 30
0.0
 11
10.17293593365899
 21
15.23556112612236
 31
0.0
1001
ACAD
1000
TCW40_DEV_WIDTH
1002
{
1040
-3.0
1002
}
  0
LINE
  5
74AA
330
1F
100
AcDbEntity
  8
0
100
AcDbLine
 10
11.82647823365899
 20
15.32743247696357
 30
0.0
 11
10.17293593365899
 21
15.32743247696357
 31
0.0
1001
ACAD
1000
TCW40_DEV_WIDTH
1002
{
1040
-3.0
1002
}
  0
LINE
  5
74AB
330
1F
100
AcDbEntity
  8
0
100
AcDbLine
 10
11.82647823365899
 20
15.48762550112235
 30
0.0
 11
10.17293593365899
 21
15.48762550112235
 31
0.0
1001
ACAD
1000
TCW40_DEV_WIDTH
1002
{
1040
-3.0
1002
}
  0
LINE
  5
74AC
330
1F
100
AcDbEntity
  8
0
100
AcDbLine
 10
11.82647823365899
 20
15.58062502780479
 30
0.0
 11
10.17293593365899
 21
15.58062502780479
 31
0.0
1001
ACAD
1000
TCW40_DEV_WIDTH
1002
{
1040
-3.0
1002
}
  0
LINE
  5
74AD
330
1F
100
AcDbEntity
  8
0
100
AcDbLine
 10
11.82647823365899
 20
15.73968987612236
 30
0.0
 11
10.17293593365899
 21
15.73968987612236
 31
0.0
1001
ACAD
1000
TCW40_DEV_WIDTH
1002
{
1040
-3.0
1002
}
  0
LWPOLYLINE
  5
74AE
330
1F
100
AcDbEntity
  8
0
  6
$INVISIBLE
100
AcDbPolyline
 90
        5
 70
   128
 43
0.0
 10
-36.14312017989113
 20
57.82926128519108
 10
-69.46904810502513
 20
57.82926128519108
 10
-69.46904810502513
 20
56.32926128519108
 10
-36.07648553508915
 20
56.32926128519108
 10
-36.14312017989113
 20
57.82926128519108
1001
ACAD
1000
TCW40_DEV_WIDTH
1002
{
1040
-3.0
1002
}
  0
LWPOLYLINE
  5
74AF
330
1F
100
AcDbEntity
  8
0
  6
$INVISIBLE
100
AcDbPolyline
 90
        5
 70
     0
 43
0.0
 10
-37.46904810502514
 20
71.32926128519108
 10
-36.13597848522585
 20
57.68424910463323
 10
-36.13597848522585
 20
43.97427346574892
 10
-37.46904810502514
 20
30.32926128519108
 10
-37.46904810502514
 20
71.32926128519108
1001
ACAD
1000
TCW40_DEV_WIDTH
1002
{
1040
-3.0
1002
}
  0
LWPOLYLINE
  5
74B0
330
1F
100
AcDbEntity
  8
0
100
AcDbPolyline
 90
        2
 70
     0
 43
0.0
 10
10.17293593365899
 20
11.58322473287208
 42
-0.0731707317073172
 10
11.82647823365899
 20
11.58322473287208
  0
LINE
  5
74B1
330
1F
100
AcDbEntity
  8
0
100
AcDbLine
 10
11.42317523365899
 20
15.58062502780479
 30
0.0
 11
11.42317523365899
 21
15.73968987612236
 31
0.0
1001
ACAD
1000
TCW40_DEV_WIDTH
1002
{
1040
-3.0
1002
}
  0
LINE
  5
74B2
330
1F
100
AcDbEntity
  8
0
100
AcDbLine
 10
11.36267978365899
 20
15.58062502780479
 30
0.0
 11
11.36267978365899
 21
15.73968987612236
 31
0.0
1001
ACAD
1000
TCW40_DEV_WIDTH
1002
{
1040
-3.0
1002
}
  0
LINE
  5
74B3
330
1F
100
AcDbEntity
  8
0
100
AcDbLine
 10
11.30218433365899
 20
15.58062502780479
 30
0.0
 11
11.30218433365899
 21
15.73968987612236
 31
0.0
1001
ACAD
1000
TCW40_DEV_WIDTH
1002
{
1040
-3.0
1002
}
  0
LINE
  5
74B4
330
1F
100
AcDbEntity
  8
0
100
AcDbLine
 10
11.24168888365899
 20
15.58062502780479
 30
0.0
 11
11.24168888365899
 21
15.73968987612236
 31
0.0
1001
ACAD
1000
TCW40_DEV_WIDTH
1002
{
1040
-3.0
1002
}
  0
LINE
  5
74B5
330
1F
100
AcDbEntity
  8
0
100
AcDbLine
 10
10.838385883659
 20
15.58062502780479
 30
0.0
 11
10.838385883659
 21
15.73968987612236
 31
0.0
1001
ACAD
1000
TCW40_DEV_WIDTH
1002
{
1040
-3.0
1002
}
  0
LINE
  5
74B6
330
1F
100
AcDbEntity
  8
0
100
AcDbLine
 10
10.77789043365899
 20
15.58062502780479
 30
0.0
 11
10.77789043365899
 21
15.73968987612236
 31
0.0
1001
ACAD
1000
TCW40_DEV_WIDTH
1002
{
1040
-3.0
1002
}
  0
LINE
  5
74B7
330
1F
100
AcDbEntity
  8
0
100
AcDbLine
 10
10.717394983659
 20
15.58062502780479
 30
0.0
 11
10.717394983659
 21
15.73968987612236
 31
0.0
1001
ACAD
1000
TCW40_DEV_WIDTH
1002
{
1040
-3.0
1002
}
  0
LINE
  5
74B8
330
1F
100
AcDbEntity
  8
0
100
AcDbLine
 10
10.61656923365899
 20
15.58062502780479
 30
0.0
 11
10.61656923365899
 21
15.73968987612236
 31
0.0
1001
ACAD
1000
TCW40_DEV_WIDTH
1002
{
1040
-3.0
1002
}
  0
LINE
  5
74B9
330
1F
100
AcDbEntity
  8
0
100
AcDbLine
 10
10.55607378365899
 20
15.58062502780479
 30
0.0
 11
10.55607378365899
 21
15.73968987612236
 31
0.0
1001
ACAD
1000
TCW40_DEV_WIDTH
1002
{
1040
-3.0
1002
}
  0
LINE
  5
74BA
330
1F
100
AcDbEntity
  8
0
100
AcDbLine
 10
10.49557833365899
 20
15.58062502780479
 30
0.0
 11
10.49557833365899
 21
15.73968987612236
 31
0.0
1001
ACAD
1000
TCW40_DEV_WIDTH
1002
{
1040
-3.0
1002
}
  0
LINE
  5
74BB
330
1F
100
AcDbEntity
  8
0
100
AcDbLine
 10
11.42317523365899
 20
15.3285606528048
 30
0.0
 11
11.42317523365899
 21
15.48762550112235
 31
0.0
1001
ACAD
1000
TCW40_DEV_WIDTH
1002
{
1040
-3.0
1002
}
  0
LINE
  5
74BC
330
1F
100
AcDbEntity
  8
0
100
AcDbLine
 10
11.36267978365899
 20
15.3285606528048
 30
0.0
 11
11.36267978365899
 21
15.48762550112235
 31
0.0
1001
ACAD
1000
TCW40_DEV_WIDTH
1002
{
1040
-3.0
1002
}
  0
LINE
  5
74BD
330
1F
100
AcDbEntity
  8
0
100
AcDbLine
 10
11.30218433365899
 20
15.3285606528048
 30
0.0
 11
11.30218433365899
 21
15.48762550112235
 31
0.0
1001
ACAD
1000
TCW40_DEV_WIDTH
1002
{
1040
-3.0
1002
}
  0
LINE
  5
74BE
330
1F
100
AcDbEntity
  8
0
100
AcDbLine
 10
11.24168888365899
 20
15.3285606528048
 30
0.0
 11
11.24168888365899
 21
15.48762550112235
 31
0.0
1001
ACAD
1000
TCW40_DEV_WIDTH
1002
{
1040
-3.0
1002
}
  0
LINE
  5
74BF
330
1F
100
AcDbEntity
  8
0
100
AcDbLine
 10
10.838385883659
 20
15.3285606528048
 30
0.0
 11
10.838385883659
 21
15.48762550112235
 31
0.0
1001
ACAD
1000
TCW40_DEV_WIDTH
1002
{
1040
-3.0
1002
}
  0
LINE
  5
74C0
330
1F
100
AcDbEntity
  8
0
100
AcDbLine
 10
10.77789043365899
 20
15.3285606528048
 30
0.0
 11
10.77789043365899
 21
15.48762550112235
 31
0.0
1001
ACAD
1000
TCW40_DEV_WIDTH
1002
{
1040
-3.0
1002
}
  0
LINE
  5
74C1
330
1F
100
AcDbEntity
  8
0
100
AcDbLine
 10
10.717394983659
 20
15.3285606528048
 30
0.0
 11
10.717394983659
 21
15.48762550112235
 31
0.0
1001
ACAD
1000
TCW40_DEV_WIDTH
1002
{
1040
-3.0
1002
}
  0
LINE
  5
74C2
330
1F
100
AcDbEntity
  8
0
100
AcDbLine
 10
10.61656923365899
 20
15.3285606528048
 30
0.0
 11
10.61656923365899
 21
15.48762550112235
 31
0.0
1001
ACAD
1000
TCW40_DEV_WIDTH
1002
{
1040
-3.0
1002
}
  0
LINE
  5
74C3
330
1F
100
AcDbEntity
  8
0
100
AcDbLine
 10
10.55607378365899
 20
15.3285606528048
 30
0.0
 11
10.55607378365899
 21
15.48762550112235
 31
0.0
1001
ACAD
1000
TCW40_DEV_WIDTH
1002
{
1040
-3.0
1002
}
  0
LINE
  5
74C4
330
1F
100
AcDbEntity
  8
0
100
AcDbLine
 10
10.49557833365899
 20
15.3285606528048
 30
0.0
 11
10.49557833365899
 21
15.48762550112235
 31
0.0
1001
ACAD
1000
TCW40_DEV_WIDTH
1002
{
1040
-3.0
1002
}
  0
LINE
  5
74C5
330
1F
100
AcDbEntity
  8
0
100
AcDbLine
 10
11.42317523365899
 20
15.0764962778048
 30
0.0
 11
11.42317523365899
 21
15.23556112612236
 31
0.0
1001
ACAD
1000
TCW40_DEV_WIDTH
1002
{
1040
-3.0
1002
}
  0
LINE
  5
74C6
330
1F
100
AcDbEntity
  8
0
100
AcDbLine
 10
11.36267978365899
 20
15.0764962778048
 30
0.0
 11
11.36267978365899
 21
15.23556112612236
 31
0.0
1001
ACAD
1000
TCW40_DEV_WIDTH
1002
{
1040
-3.0
1002
}
  0
LINE
  5
74C7
330
1F
100
AcDbEntity
  8
0
100
AcDbLine
 10
11.30218433365899
 20
15.0764962778048
 30
0.0
 11
11.30218433365899
 21
15.23556112612236
 31
0.0
1001
ACAD
1000
TCW40_DEV_WIDTH
1002
{
1040
-3.0
1002
}
  0
LINE
  5
74C8
330
1F
100
AcDbEntity
  8
0
100
AcDbLine
 10
11.24168888365899
 20
15.0764962778048
 30
0.0
 11
11.24168888365899
 21
15.23556112612236
 31
0.0
1001
ACAD
1000
TCW40_DEV_WIDTH
1002
{
1040
-3.0
1002
}
  0
LINE
  5
74C9
330
1F
100
AcDbEntity
  8
0
100
AcDbLine
 10
10.838385883659
 20
15.0764962778048
 30
0.0
 11
10.838385883659
 21
15.23556112612236
 31
0.0
1001
ACAD
1000
TCW40_DEV_WIDTH
1002
{
1040
-3.0
1002
}
  0
LINE
  5
74CA
330
1F
100
AcDbEntity
  8
0
100
AcDbLine
 10
10.77789043365899
 20
15.0764962778048
 30
0.0
 11
10.77789043365899
 21
15.23556112612236
 31
0.0
1001
ACAD
1000
TCW40_DEV_WIDTH
1002
{
1040
-3.0
1002
}
  0
LINE
  5
74CB
330
1F
100
AcDbEntity
  8
0
100
AcDbLine
 10
10.717394983659
 20
15.0764962778048
 30
0.0
 11
10.717394983659
 21
15.23556112612236
 31
0.0
1001
ACAD
1000
TCW40_DEV_WIDTH
1002
{
1040
-3.0
1002
}
  0
LINE
  5
74CC
330
1F
100
AcDbEntity
  8
0
100
AcDbLine
 10
10.61656923365899
 20
15.0764962778048
 30
0.0
 11
10.61656923365899
 21
15.23556112612236
 31
0.0
1001
ACAD
1000
TCW40_DEV_WIDTH
1002
{
1040
-3.0
1002
}
  0
LINE
  5
74CD
330
1F
100
AcDbEntity
  8
0
100
AcDbLine
 10
10.55607378365899
 20
15.0764962778048
 30
0.0
 11
10.55607378365899
 21
15.23556112612236
 31
0.0
1001
ACAD
1000
TCW40_DEV_WIDTH
1002
{
1040
-3.0
1002
}
  0
LINE
  5
74CE
330
1F
100
AcDbEntity
  8
0
100
AcDbLine
 10
10.49557833365899
 20
15.0764962778048
 30
0.0
 11
10.49557833365899
 21
15.23556112612236
 31
0.0
1001
ACAD
1000
TCW40_DEV_WIDTH
1002
{
1040
-3.0
1002
}
  0
LINE
  5
74F6
330
1F
100
AcDbEntity
  8
0
100
AcDbLine
 10
11.42317523365899
 20
13.5641100278048
 30
0.0
 11
11.42317523365899
 21
13.72317487612236
 31
0.0
1001
ACAD
1000
TCW40_DEV_WIDTH
1002
{
1040
-3.0
1002
}
  0
LINE
  5
74F7
330
1F
100
AcDbEntity
  8
0
100
AcDbLine
 10
11.36267978365899
 20
13.5641100278048
 30
0.0
 11
11.36267978365899
 21
13.72317487612236
 31
0.0
1001
ACAD
1000
TCW40_DEV_WIDTH
1002
{
1040
-3.0
1002
}
  0
LINE
  5
74F8
330
1F
100
AcDbEntity
  8
0
100
AcDbLine
 10
11.30218433365899
 20
13.5641100278048
 30
0.0
 11
11.30218433365899
 21
13.72317487612236
 31
0.0
1001
ACAD
1000
TCW40_DEV_WIDTH
1002
{
1040
-3.0
1002
}
  0
LINE
  5
74F9
330
1F
100
AcDbEntity
  8
0
100
AcDbLine
 10
11.24168888365899
 20
13.5641100278048
 30
0.0
 11
11.24168888365899
 21
13.72317487612236
 31
0.0
1001
ACAD
1000
TCW40_DEV_WIDTH
1002
{
1040
-3.0
1002
}
  0
LINE
  5
74FA
330
1F
100
AcDbEntity
  8
0
100
AcDbLine
 10
10.838385883659
 20
13.5641100278048
 30
0.0
 11
10.838385883659
 21
13.72317487612236
 31
0.0
1001
ACAD
1000
TCW40_DEV_WIDTH
1002
{
1040
-3.0
1002
}
  0
LINE
  5
74FB
330
1F
100
AcDbEntity
  8
0
100
AcDbLine
 10
10.77789043365899
 20
13.5641100278048
 30
0.0
 11
10.77789043365899
 21
13.72317487612236
 31
0.0
1001
ACAD
1000
TCW40_DEV_WIDTH
1002
{
1040
-3.0
1002
}
  0
LINE
  5
74FC
330
1F
100
AcDbEntity
  8
0
100
AcDbLine
 10
10.717394983659
 20
13.5641100278048
 30
0.0
 11
10.717394983659
 21
13.72317487612236
 31
0.0
1001
ACAD
1000
TCW40_DEV_WIDTH
1002
{
1040
-3.0
1002
}
  0
LINE
  5
74FD
330
1F
100
AcDbEntity
  8
0
100
AcDbLine
 10
10.61656923365899
 20
13.5641100278048
 30
0.0
 11
10.61656923365899
 21
13.72317487612236
 31
0.0
1001
ACAD
1000
TCW40_DEV_WIDTH
1002
{
1040
-3.0
1002
}
  0
LINE
  5
74FE
330
1F
100
AcDbEntity
  8
0
100
AcDbLine
 10
10.55607378365899
 20
13.5641100278048
 30
0.0
 11
10.55607378365899
 21
13.72317487612236
 31
0.0
1001
ACAD
1000
TCW40_DEV_WIDTH
1002
{
1040
-3.0
1002
}
  0
LINE
  5
74FF
330
1F
100
AcDbEntity
  8
0
100
AcDbLine
 10
10.49557833365899
 20
13.5641100278048
 30
0.0
 11
10.49557833365899
 21
13.72317487612236
 31
0.0
1001
ACAD
1000
TCW40_DEV_WIDTH
1002
{
1040
-3.0
1002
}
  0
LINE
  5
7500
330
1F
100
AcDbEntity
  8
0
100
AcDbLine
 10
11.42317523365899
 20
13.3120456528048
 30
0.0
 11
11.42317523365899
 21
13.47111050112236
 31
0.0
1001
ACAD
1000
TCW40_DEV_WIDTH
1002
{
1040
-3.0
1002
}
  0
LINE
  5
7501
330
1F
100
AcDbEntity
  8
0
100
AcDbLine
 10
11.36267978365899
 20
13.3120456528048
 30
0.0
 11
11.36267978365899
 21
13.47111050112236
 31
0.0
1001
ACAD
1000
TCW40_DEV_WIDTH
1002
{
1040
-3.0
1002
}
  0
LINE
  5
7502
330
1F
100
AcDbEntity
  8
0
100
AcDbLine
 10
11.30218433365899
 20
13.3120456528048
 30
0.0
 11
11.30218433365899
 21
13.47111050112236
 31
0.0
1001
ACAD
1000
TCW40_DEV_WIDTH
1002
{
1040
-3.0
1002
}
  0
LINE
  5
7503
330
1F
100
AcDbEntity
  8
0
100
AcDbLine
 10
11.24168888365899
 20
13.3120456528048
 30
0.0
 11
11.24168888365899
 21
13.47111050112236
 31
0.0
1001
ACAD
1000
TCW40_DEV_WIDTH
1002
{
1040
-3.0
1002
}
  0
LINE
  5
7504
330
1F
100
AcDbEntity
  8
0
100
AcDbLine
 10
10.838385883659
 20
13.3120456528048
 30
0.0
 11
10.838385883659
 21
13.47111050112236
 31
0.0
1001
ACAD
1000
TCW40_DEV_WIDTH
1002
{
1040
-3.0
1002
}
  0
LINE
  5
7505
330
1F
100
AcDbEntity
  8
0
100
AcDbLine
 10
10.77789043365899
 20
13.3120456528048
 30
0.0
 11
10.77789043365899
 21
13.47111050112236
 31
0.0
1001
ACAD
1000
TCW40_DEV_WIDTH
1002
{
1040
-3.0
1002
}
  0
LINE
  5
7506
330
1F
100
AcDbEntity
  8
0
100
AcDbLine
 10
10.717394983659
 20
13.3120456528048
 30
0.0
 11
10.717394983659
 21
13.47111050112236
 31
0.0
1001
ACAD
1000
TCW40_DEV_WIDTH
1002
{
1040
-3.0
1002
}
  0
LINE
  5
7507
330
1F
100
AcDbEntity
  8
0
100
AcDbLine
 10
10.61656923365899
 20
13.3120456528048
 30
0.0
 11
10.61656923365899
 21
13.47111050112236
 31
0.0
1001
ACAD
1000
TCW40_DEV_WIDTH
1002
{
1040
-3.0
1002
}
  0
LINE
  5
7508
330
1F
100
AcDbEntity
  8
0
100
AcDbLine
 10
10.55607378365899
 20
13.3120456528048
 30
0.0
 11
10.55607378365899
 21
13.47111050112236
 31
0.0
1001
ACAD
1000
TCW40_DEV_WIDTH
1002
{
1040
-3.0
1002
}
  0
LINE
  5
7509
330
1F
100
AcDbEntity
  8
0
100
AcDbLine
 10
10.49557833365899
 20
13.3120456528048
 30
0.0
 11
10.49557833365899
 21
13.47111050112236
 31
0.0
1001
ACAD
1000
TCW40_DEV_WIDTH
1002
{
1040
-3.0
1002
}
  0
LINE
  5
750A
330
1F
100
AcDbEntity
  8
0
100
AcDbLine
 10
11.42317523365899
 20
13.0599812778048
 30
0.0
 11
11.42317523365899
 21
13.21904612612236
 31
0.0
1001
ACAD
1000
TCW40_DEV_WIDTH
1002
{
1040
-3.0
1002
}
  0
LINE
  5
750B
330
1F
100
AcDbEntity
  8
0
100
AcDbLine
 10
11.36267978365899
 20
13.0599812778048
 30
0.0
 11
11.36267978365899
 21
13.21904612612236
 31
0.0
1001
ACAD
1000
TCW40_DEV_WIDTH
1002
{
1040
-3.0
1002
}
  0
LINE
  5
750C
330
1F
100
AcDbEntity
  8
0
100
AcDbLine
 10
11.30218433365899
 20
13.0599812778048
 30
0.0
 11
11.30218433365899
 21
13.21904612612236
 31
0.0
1001
ACAD
1000
TCW40_DEV_WIDTH
1002
{
1040
-3.0
1002
}
  0
LINE
  5
750D
330
1F
100
AcDbEntity
  8
0
100
AcDbLine
 10
11.24168888365899
 20
13.0599812778048
 30
0.0
 11
11.24168888365899
 21
13.21904612612236
 31
0.0
1001
ACAD
1000
TCW40_DEV_WIDTH
1002
{
1040
-3.0
1002
}
  0
LINE
  5
750E
330
1F
100
AcDbEntity
  8
0
100
AcDbLine
 10
10.838385883659
 20
13.0599812778048
 30
0.0
 11
10.838385883659
 21
13.21904612612236
 31
0.0
1001
ACAD
1000
TCW40_DEV_WIDTH
1002
{
1040
-3.0
1002
}
  0
LINE
  5
750F
330
1F
100
AcDbEntity
  8
0
100
AcDbLine
 10
10.77789043365899
 20
13.0599812778048
 30
0.0
 11
10.77789043365899
 21
13.21904612612236
 31
0.0
1001
ACAD
1000
TCW40_DEV_WIDTH
1002
{
1040
-3.0
1002
}
  0
LINE
  5
7510
330
1F
100
AcDbEntity
  8
0
100
AcDbLine
 10
10.717394983659
 20
13.0599812778048
 30
0.0
 11
10.717394983659
 21
13.21904612612236
 31
0.0
1001
ACAD
1000
TCW40_DEV_WIDTH
1002
{
1040
-3.0
1002
}
  0
LINE
  5
7511
330
1F
100
AcDbEntity
  8
0
100
AcDbLine
 10
10.61656923365899
 20
13.0599812778048
 30
0.0
 11
10.61656923365899
 21
13.21904612612236
 31
0.0
1001
ACAD
1000
TCW40_DEV_WIDTH
1002
{
1040
-3.0
1002
}
  0
LINE
  5
7512
330
1F
100
AcDbEntity
  8
0
100
AcDbLine
 10
10.55607378365899
 20
13.0599812778048
 30
0.0
 11
10.55607378365899
 21
13.21904612612236
 31
0.0
1001
ACAD
1000
TCW40_DEV_WIDTH
1002
{
1040
-3.0
1002
}
  0
LINE
  5
7513
330
1F
100
AcDbEntity
  8
0
100
AcDbLine
 10
10.49557833365899
 20
13.0599812778048
 30
0.0
 11
10.49557833365899
 21
13.21904612612236
 31
0.0
1001
ACAD
1000
TCW40_DEV_WIDTH
1002
{
1040
-3.0
1002
}
  0
LINE
  5
7514
330
1F
100
AcDbEntity
  8
0
100
AcDbLine
 10
10.29392683365899
 20
15.58062502780479
 30
0.0
 11
10.29392683365899
 21
15.73968987612236
 31
0.0
1001
ACAD
1000
TCW40_DEV_WIDTH
1002
{
1040
-3.0
1002
}
  0
LINE
  5
7515
330
1F
100
AcDbEntity
  8
0
100
AcDbLine
 10
11.70548733365899
 20
15.58062502780479
 30
0.0
 11
11.70548733365899
 21
15.73968987612236
 31
0.0
1001
ACAD
1000
TCW40_DEV_WIDTH
1002
{
1040
-3.0
1002
}
  0
LINE
  5
7516
330
1F
100
AcDbEntity
  8
0
100
AcDbLine
 10
10.29392683365899
 20
15.3285606528048
 30
0.0
 11
10.29392683365899
 21
15.48762550112235
 31
0.0
1001
ACAD
1000
TCW40_DEV_WIDTH
1002
{
1040
-3.0
1002
}
  0
LINE
  5
7517
330
1F
100
AcDbEntity
  8
0
100
AcDbLine
 10
11.70548733365899
 20
15.3285606528048
 30
0.0
 11
11.70548733365899
 21
15.48762550112235
 31
0.0
1001
ACAD
1000
TCW40_DEV_WIDTH
1002
{
1040
-3.0
1002
}
  0
LINE
  5
7518
330
1F
100
AcDbEntity
  8
0
100
AcDbLine
 10
10.29392683365899
 20
15.0764962778048
 30
0.0
 11
10.29392683365899
 21
15.23556112612236
 31
0.0
1001
ACAD
1000
TCW40_DEV_WIDTH
1002
{
1040
-3.0
1002
}
  0
LINE
  5
7519
330
1F
100
AcDbEntity
  8
0
100
AcDbLine
 10
11.70548733365899
 20
15.0764962778048
 30
0.0
 11
11.70548733365899
 21
15.23556112612236
 31
0.0
1001
ACAD
1000
TCW40_DEV_WIDTH
1002
{
1040
-3.0
1002
}
  0
LINE
  5
7524
330
1F
100
AcDbEntity
  8
0
100
AcDbLine
 10
10.29392683365899
 20
13.5641100278048
 30
0.0
 11
10.29392683365899
 21
13.72317487612236
 31
0.0
1001
ACAD
1000
TCW40_DEV_WIDTH
1002
{
1040
-3.0
1002
}
  0
LINE
  5
7525
330
1F
100
AcDbEntity
  8
0
100
AcDbLine
 10
11.70548733365899
 20
13.5641100278048
 30
0.0
 11
11.70548733365899
 21
13.72317487612236
 31
0.0
1001
ACAD
1000
TCW40_DEV_WIDTH
1002
{
1040
-3.0
1002
}
  0
LINE
  5
7526
330
1F
100
AcDbEntity
  8
0
100
AcDbLine
 10
10.29392683365899
 20
13.3120456528048
 30
0.0
 11
10.29392683365899
 21
13.47111050112236
 31
0.0
1001
ACAD
1000
TCW40_DEV_WIDTH
1002
{
1040
-3.0
1002
}
  0
LINE
  5
7527
330
1F
100
AcDbEntity
  8
0
100
AcDbLine
 10
11.70548733365899
 20
13.3120456528048
 30
0.0
 11
11.70548733365899
 21
13.47111050112236
 31
0.0
1001
ACAD
1000
TCW40_DEV_WIDTH
1002
{
1040
-3.0
1002
}
  0
LINE
  5
7528
330
1F
100
AcDbEntity
  8
0
100
AcDbLine
 10
10.29392683365899
 20
13.0599812778048
 30
0.0
 11
10.29392683365899
 21
13.21904612612236
 31
0.0
1001
ACAD
1000
TCW40_DEV_WIDTH
1002
{
1040
-3.0
1002
}
  0
LINE
  5
7529
330
1F
100
AcDbEntity
  8
0
100
AcDbLine
 10
11.70548733365899
 20
13.0599812778048
 30
0.0
 11
11.70548733365899
 21
13.21904612612236
 31
0.0
1001
ACAD
1000
TCW40_DEV_WIDTH
1002
{
1040
-3.0
1002
}
  0
LINE
  5
752A
330
1F
100
AcDbEntity
  8
0
100
AcDbLine
 10
10.29392683365899
 20
12.80791690280479
 30
0.0
 11
10.29392683365899
 21
12.96698175112236
 31
0.0
1001
ACAD
1000
TCW40_DEV_WIDTH
1002
{
1040
-3.0
1002
}
  0
LINE
  5
752B
330
1F
100
AcDbEntity
  8
0
100
AcDbLine
 10
11.70548733365899
 20
12.80791690280479
 30
0.0
 11
11.70548733365899
 21
12.96698175112236
 31
0.0
1001
ACAD
1000
TCW40_DEV_WIDTH
1002
{
1040
-3.0
1002
}
  0
LINE
  5
752C
330
1F
100
AcDbEntity
  8
0
100
AcDbLine
 10
10.29392683365899
 20
12.55516421210185
 30
0.0
 11
10.29392683365899
 21
12.71422906041941
 31
0.0
1001
ACAD
1000
TCW40_DEV_WIDTH
1002
{
1040
-3.0
1002
}
  0
LINE
  5
752D
330
1F
100
AcDbEntity
  8
0
100
AcDbLine
 10
11.70548733365899
 20
12.55516421210185
 30
0.0
 11
11.70548733365899
 21
12.71422906041941
 31
0.0
1001
ACAD
1000
TCW40_DEV_WIDTH
1002
{
1040
-3.0
1002
}
  0
LINE
  5
752E
330
1F
100
AcDbEntity
  8
0
100
AcDbLine
 10
10.29392683365899
 20
12.30330186887653
 30
0.0
 11
10.29392683365899
 21
12.46236671719409
 31
0.0
1001
ACAD
1000
TCW40_DEV_WIDTH
1002
{
1040
-3.0
1002
}
  0
LINE
  5
752F
330
1F
100
AcDbEntity
  8
0
100
AcDbLine
 10
11.70548733365899
 20
12.30330186887653
 30
0.0
 11
11.70548733365899
 21
12.46236671719409
 31
0.0
1001
ACAD
1000
TCW40_DEV_WIDTH
1002
{
1040
-3.0
1002
}
  0
LINE
  5
7530
330
1F
100
AcDbEntity
  8
0
100
AcDbLine
 10
10.17293593365899
 20
12.14423702055897
 30
0.0
 11
10.17293593365899
 21
12.30330186887653
 31
0.0
1001
ACAD
1000
TCW40_DEV_WIDTH
1002
{
1040
-3.0
1002
}
  0
LINE
  5
7531
330
1F
100
AcDbEntity
  8
0
100
AcDbLine
 10
10.29392683365899
 20
11.7996594027956
 30
0.0
 11
10.29392683365899
 21
11.95872425111316
 31
0.0
1001
ACAD
1000
TCW40_DEV_WIDTH
1002
{
1040
-3.0
1002
}
  0
LINE
  5
7532
330
1F
100
AcDbEntity
  8
0
100
AcDbLine
 10
11.70548733365899
 20
11.7996594027956
 30
0.0
 11
11.70548733365899
 21
11.95872425111316
 31
0.0
1001
ACAD
1000
TCW40_DEV_WIDTH
1002
{
1040
-3.0
1002
}
  0
LINE
  5
7533
330
1F
100
AcDbEntity
  8
0
100
AcDbLine
 10
10.29392683365899
 20
12.0513703326212
 30
0.0
 11
10.29392683365899
 21
12.21043518093877
 31
0.0
1001
ACAD
1000
TCW40_DEV_WIDTH
1002
{
1040
-3.0
1002
}
  0
LINE
  5
7534
330
1F
100
AcDbEntity
  8
0
100
AcDbLine
 10
11.70548733365899
 20
12.0513703326212
 30
0.0
 11
11.70548733365899
 21
12.21043518093877
 31
0.0
1001
ACAD
1000
TCW40_DEV_WIDTH
1002
{
1040
-3.0
1002
}
  0
LINE
  5
7535
330
1F
100
AcDbEntity
  8
0
100
AcDbLine
 10
10.95937678365899
 20
11.79856026726434
 30
0.0
 11
10.95937678365899
 21
11.95872425111316
 31
0.0
1001
ACAD
1000
TCW40_DEV_WIDTH
1002
{
1040
-3.0
1002
}
  0
LINE
  5
7536
330
1F
100
AcDbEntity
  8
0
100
AcDbLine
 10
10.95937678365899
 20
12.05061416912341
 30
0.0
 11
10.95937678365899
 21
12.21043518093877
 31
0.0
1001
ACAD
1000
TCW40_DEV_WIDTH
1002
{
1040
-3.0
1002
}
  0
LINE
  5
7537
330
1F
100
AcDbEntity
  8
0
100
AcDbLine
 10
10.95937678365899
 20
12.30268994862844
 30
0.0
 11
10.95937678365899
 21
12.46236671719409
 31
0.0
1001
ACAD
1000
TCW40_DEV_WIDTH
1002
{
1040
-3.0
1002
}
  0
LINE
  5
7538
330
1F
100
AcDbEntity
  8
0
100
AcDbLine
 10
10.95937678365899
 20
12.55473580672454
 30
0.0
 11
10.95937678365899
 21
12.71422906041941
 31
0.0
1001
ACAD
1000
TCW40_DEV_WIDTH
1002
{
1040
-3.0
1002
}
  0
LINE
  5
7539
330
1F
100
AcDbEntity
  8
0
100
AcDbLine
 10
10.95937678365899
 20
12.80803731303331
 30
0.0
 11
10.95937678365899
 21
12.96698175112236
 31
0.0
1001
ACAD
1000
TCW40_DEV_WIDTH
1002
{
1040
-3.0
1002
}
  0
LINE
  5
753A
330
1F
100
AcDbEntity
  8
0
100
AcDbLine
 10
11.040037383659
 20
11.79856026726434
 30
0.0
 11
11.040037383659
 21
11.95872425111316
 31
0.0
1001
ACAD
1000
TCW40_DEV_WIDTH
1002
{
1040
-3.0
1002
}
  0
LINE
  5
753B
330
1F
100
AcDbEntity
  8
0
100
AcDbLine
 10
11.040037383659
 20
12.05061416912341
 30
0.0
 11
11.040037383659
 21
12.21043518093877
 31
0.0
1001
ACAD
1000
TCW40_DEV_WIDTH
1002
{
1040
-3.0
1002
}
  0
LINE
  5
753C
330
1F
100
AcDbEntity
  8
0
100
AcDbLine
 10
11.040037383659
 20
12.30268994862844
 30
0.0
 11
11.040037383659
 21
12.46236671719409
 31
0.0
1001
ACAD
1000
TCW40_DEV_WIDTH
1002
{
1040
-3.0
1002
}
  0
LINE
  5
753D
330
1F
100
AcDbEntity
  8
0
100
AcDbLine
 10
11.040037383659
 20
12.55473580672454
 30
0.0
 11
11.040037383659
 21
12.71422906041941
 31
0.0
1001
ACAD
1000
TCW40_DEV_WIDTH
1002
{
1040
-3.0
1002
}
  0
LINE
  5
753E
330
1F
100
AcDbEntity
  8
0
100
AcDbLine
 10
11.040037383659
 20
12.80803731303331
 30
0.0
 11
11.040037383659
 21
12.96698175112236
 31
0.0
1001
ACAD
1000
TCW40_DEV_WIDTH
1002
{
1040
-3.0
1002
}
  0
LINE
  5
753F
330
1F
100
AcDbEntity
  8
0
100
AcDbLine
 10
10.717394983659
 20
13.0599812778048
 30
0.0
 11
10.717394983659
 21
13.05885310196358
 31
0.0
1001
ACAD
1000
TCW40_DEV_WIDTH
1002
{
1040
-3.0
1002
}
  0
LINE
  5
7540
330
1F
100
AcDbEntity
  8
0
100
AcDbLine
 10
10.717394983659
 20
12.96698175112236
 30
0.0
 11
10.717394983659
 21
12.80803731303331
 31
0.0
1001
ACAD
1000
TCW40_DEV_WIDTH
1002
{
1040
-3.0
1002
}
  0
LINE
  5
7541
330
1F
100
AcDbEntity
  8
0
100
AcDbLine
 10
10.717394983659
 20
12.71422906041941
 30
0.0
 11
10.717394983659
 21
12.55473580672454
 31
0.0
1001
ACAD
1000
TCW40_DEV_WIDTH
1002
{
1040
-3.0
1002
}
  0
LINE
  5
7542
330
1F
100
AcDbEntity
  8
0
100
AcDbLine
 10
10.717394983659
 20
12.46236671719409
 30
0.0
 11
10.717394983659
 21
12.30268994862844
 31
0.0
1001
ACAD
1000
TCW40_DEV_WIDTH
1002
{
1040
-3.0
1002
}
  0
LINE
  5
7543
330
1F
100
AcDbEntity
  8
0
100
AcDbLine
 10
10.717394983659
 20
12.21043518093877
 30
0.0
 11
10.717394983659
 21
12.05061416912341
 31
0.0
1001
ACAD
1000
TCW40_DEV_WIDTH
1002
{
1040
-3.0
1002
}
  0
LINE
  5
7544
330
1F
100
AcDbEntity
  8
0
100
AcDbLine
 10
10.717394983659
 20
11.95872425111316
 30
0.0
 11
10.717394983659
 21
11.79856026726434
 31
0.0
1001
ACAD
1000
TCW40_DEV_WIDTH
1002
{
1040
-3.0
1002
}
  0
LINE
  5
7546
330
1F
100
AcDbEntity
  8
0
100
AcDbLine
 10
10.77789043365899
 20
11.79856026726434
 30
0.0
 11
10.77789043365899
 21
11.95872425111316
 31
0.0
1001
ACAD
1000
TCW40_DEV_WIDTH
1002
{
1040
-3.0
1002
}
  0
LINE
  5
7547
330
1F
100
AcDbEntity
  8
0
100
AcDbLine
 10
10.77789043365899
 20
12.05061416912341
 30
0.0
 11
10.77789043365899
 21
12.21043518093877
 31
0.0
1001
ACAD
1000
TCW40_DEV_WIDTH
1002
{
1040
-3.0
1002
}
  0
LINE
  5
7548
330
1F
100
AcDbEntity
  8
0
100
AcDbLine
 10
10.77789043365899
 20
12.30268994862844
 30
0.0
 11
10.77789043365899
 21
12.46236671719409
 31
0.0
1001
ACAD
1000
TCW40_DEV_WIDTH
1002
{
1040
-3.0
1002
}
  0
LINE
  5
7549
330
1F
100
AcDbEntity
  8
0
100
AcDbLine
 10
10.77789043365899
 20
12.55473580672454
 30
0.0
 11
10.77789043365899
 21
12.71422906041941
 31
0.0
1001
ACAD
1000
TCW40_DEV_WIDTH
1002
{
1040
-3.0
1002
}
  0
LINE
  5
754A
330
1F
100
AcDbEntity
  8
0
100
AcDbLine
 10
10.77789043365899
 20
12.80803731303331
 30
0.0
 11
10.77789043365899
 21
12.96698175112236
 31
0.0
1001
ACAD
1000
TCW40_DEV_WIDTH
1002
{
1040
-3.0
1002
}
  0
LINE
  5
754B
330
1F
100
AcDbEntity
  8
0
100
AcDbLine
 10
10.77789043365899
 20
13.05885310196358
 30
0.0
 11
10.77789043365899
 21
13.0599812778048
 31
0.0
1001
ACAD
1000
TCW40_DEV_WIDTH
1002
{
1040
-3.0
1002
}
  0
LINE
  5
754C
330
1F
100
AcDbEntity
  8
0
100
AcDbLine
 10
11.30218433365899
 20
12.96810992696358
 30
0.0
 11
11.30218433365899
 21
12.80916548887454
 31
0.0
1001
ACAD
1000
TCW40_DEV_WIDTH
1002
{
1040
-3.0
1002
}
  0
LINE
  5
754D
330
1F
100
AcDbEntity
  8
0
100
AcDbLine
 10
11.30218433365899
 20
12.71535723626063
 30
0.0
 11
11.30218433365899
 21
12.55586398256576
 31
0.0
1001
ACAD
1000
TCW40_DEV_WIDTH
1002
{
1040
-3.0
1002
}
  0
LINE
  5
754E
330
1F
100
AcDbEntity
  8
0
100
AcDbLine
 10
11.30218433365899
 20
12.46349489303531
 30
0.0
 11
11.30218433365899
 21
12.30381812446967
 31
0.0
1001
ACAD
1000
TCW40_DEV_WIDTH
1002
{
1040
-3.0
1002
}
  0
LINE
  5
754F
330
1F
100
AcDbEntity
  8
0
100
AcDbLine
 10
11.30218433365899
 20
12.21156335677999
 30
0.0
 11
11.30218433365899
 21
12.05174234496464
 31
0.0
1001
ACAD
1000
TCW40_DEV_WIDTH
1002
{
1040
-3.0
1002
}
  0
LINE
  5
7550
330
1F
100
AcDbEntity
  8
0
100
AcDbLine
 10
11.30218433365899
 20
11.95985242695438
 30
0.0
 11
11.30218433365899
 21
11.79968844310556
 31
0.0
1001
ACAD
1000
TCW40_DEV_WIDTH
1002
{
1040
-3.0
1002
}
  0
LINE
  5
7552
330
1F
100
AcDbEntity
  8
0
100
AcDbLine
 10
11.36267978365899
 20
11.79968844310556
 30
0.0
 11
11.36267978365899
 21
11.95985242695438
 31
0.0
1001
ACAD
1000
TCW40_DEV_WIDTH
1002
{
1040
-3.0
1002
}
  0
LINE
  5
7553
330
1F
100
AcDbEntity
  8
0
100
AcDbLine
 10
11.36267978365899
 20
12.05174234496464
 30
0.0
 11
11.36267978365899
 21
12.21156335677999
 31
0.0
1001
ACAD
1000
TCW40_DEV_WIDTH
1002
{
1040
-3.0
1002
}
  0
LINE
  5
7554
330
1F
100
AcDbEntity
  8
0
100
AcDbLine
 10
11.36267978365899
 20
12.30381812446967
 30
0.0
 11
11.36267978365899
 21
12.46349489303531
 31
0.0
1001
ACAD
1000
TCW40_DEV_WIDTH
1002
{
1040
-3.0
1002
}
  0
LINE
  5
7555
330
1F
100
AcDbEntity
  8
0
100
AcDbLine
 10
11.36267978365899
 20
12.55586398256576
 30
0.0
 11
11.36267978365899
 21
12.71535723626063
 31
0.0
1001
ACAD
1000
TCW40_DEV_WIDTH
1002
{
1040
-3.0
1002
}
  0
LINE
  5
7556
330
1F
100
AcDbEntity
  8
0
100
AcDbLine
 10
11.36267978365899
 20
12.80916548887454
 30
0.0
 11
11.36267978365899
 21
12.96810992696358
 31
0.0
1001
ACAD
1000
TCW40_DEV_WIDTH
1002
{
1040
-3.0
1002
}
  0
LWPOLYLINE
  5
7594
330
1F
100
AcDbEntity
  8
0
  6
$INVISIBLE
100
AcDbPolyline
 90
        5
 70
     0
 43
0.0
 10
10.717394983659
 20
13.97411107528114
 10
10.717394983659
 20
13.81504622696358
 10
10.77789043365899
 20
13.81504622696358
 10
10.77789043365899
 20
13.97411107528114
 10
10.717394983659
 20
13.97411107528114
1001
ACAD
1000
TCW40_DEV_WIDTH
1002
{
1040
-3.0
1002
}
  0
LWPOLYLINE
  5
7595
330
1F
100
AcDbEntity
  8
0
  6
$INVISIBLE
100
AcDbPolyline
 90
        5
 70
     0
 43
0.0
 10
11.30218433365899
 20
13.97411107528114
 10
11.30218433365899
 20
13.81504622696358
 10
11.36267978365899
 20
13.81504622696358
 10
11.36267978365899
 20
13.97411107528114
 10
11.30218433365899
 20
13.97411107528114
1001
ACAD
1000
TCW40_DEV_WIDTH
1002
{
1040
-3.0
1002
}
  0
LINE
  5
7596
330
1F
100
AcDbEntity
  8
0
100
AcDbLine
 10
11.82647823365899
 20
13.81391805112236
 30
0.0
 11
10.17293593365899
 21
13.81391805112236
 31
0.0
1001
ACAD
1000
TCW40_DEV_WIDTH
1002
{
1040
-3.0
1002
}
  0
LINE
  5
7597
330
1F
100
AcDbEntity
  8
0
100
AcDbLine
 10
11.82647823365899
 20
13.97411107528114
 30
0.0
 11
10.17293593365899
 21
13.97411107528114
 31
0.0
1001
ACAD
1000
TCW40_DEV_WIDTH
1002
{
1040
-3.0
1002
}
  0
LINE
  5
7598
330
1F
100
AcDbEntity
  8
0
100
AcDbLine
 10
11.42317523365899
 20
13.81504622696358
 30
0.0
 11
11.42317523365899
 21
13.97411107528114
 31
0.0
1001
ACAD
1000
TCW40_DEV_WIDTH
1002
{
1040
-3.0
1002
}
  0
LINE
  5
7599
330
1F
100
AcDbEntity
  8
0
100
AcDbLine
 10
11.36267978365899
 20
13.81504622696358
 30
0.0
 11
11.36267978365899
 21
13.97411107528114
 31
0.0
1001
ACAD
1000
TCW40_DEV_WIDTH
1002
{
1040
-3.0
1002
}
  0
LINE
  5
759A
330
1F
100
AcDbEntity
  8
0
100
AcDbLine
 10
11.30218433365899
 20
13.81504622696358
 30
0.0
 11
11.30218433365899
 21
13.97411107528114
 31
0.0
1001
ACAD
1000
TCW40_DEV_WIDTH
1002
{
1040
-3.0
1002
}
  0
LINE
  5
759B
330
1F
100
AcDbEntity
  8
0
100
AcDbLine
 10
11.24168888365899
 20
13.81504622696358
 30
0.0
 11
11.24168888365899
 21
13.97411107528114
 31
0.0
1001
ACAD
1000
TCW40_DEV_WIDTH
1002
{
1040
-3.0
1002
}
  0
LINE
  5
759C
330
1F
100
AcDbEntity
  8
0
100
AcDbLine
 10
10.838385883659
 20
13.81504622696358
 30
0.0
 11
10.838385883659
 21
13.97411107528114
 31
0.0
1001
ACAD
1000
TCW40_DEV_WIDTH
1002
{
1040
-3.0
1002
}
  0
LINE
  5
759D
330
1F
100
AcDbEntity
  8
0
100
AcDbLine
 10
10.77789043365899
 20
13.81504622696358
 30
0.0
 11
10.77789043365899
 21
13.97411107528114
 31
0.0
1001
ACAD
1000
TCW40_DEV_WIDTH
1002
{
1040
-3.0
1002
}
  0
LINE
  5
759E
330
1F
100
AcDbEntity
  8
0
100
AcDbLine
 10
10.717394983659
 20
13.81504622696358
 30
0.0
 11
10.717394983659
 21
13.97411107528114
 31
0.0
1001
ACAD
1000
TCW40_DEV_WIDTH
1002
{
1040
-3.0
1002
}
  0
LINE
  5
759F
330
1F
100
AcDbEntity
  8
0
100
AcDbLine
 10
10.61656923365899
 20
13.81504622696358
 30
0.0
 11
10.61656923365899
 21
13.97411107528114
 31
0.0
1001
ACAD
1000
TCW40_DEV_WIDTH
1002
{
1040
-3.0
1002
}
  0
LINE
  5
75A0
330
1F
100
AcDbEntity
  8
0
100
AcDbLine
 10
10.55607378365899
 20
13.81504622696358
 30
0.0
 11
10.55607378365899
 21
13.97411107528114
 31
0.0
1001
ACAD
1000
TCW40_DEV_WIDTH
1002
{
1040
-3.0
1002
}
  0
LINE
  5
75A1
330
1F
100
AcDbEntity
  8
0
100
AcDbLine
 10
10.49557833365899
 20
13.81504622696358
 30
0.0
 11
10.49557833365899
 21
13.97411107528114
 31
0.0
1001
ACAD
1000
TCW40_DEV_WIDTH
1002
{
1040
-3.0
1002
}
  0
LINE
  5
75A2
330
1F
100
AcDbEntity
  8
0
100
AcDbLine
 10
10.29392683365899
 20
13.81504622696358
 30
0.0
 11
10.29392683365899
 21
13.97411107528114
 31
0.0
1001
ACAD
1000
TCW40_DEV_WIDTH
1002
{
1040
-3.0
1002
}
  0
LINE
  5
75A3
330
1F
100
AcDbEntity
  8
0
100
AcDbLine
 10
11.70548733365899
 20
13.81504622696358
 30
0.0
 11
11.70548733365899
 21
13.97411107528114
 31
0.0
1001
ACAD
1000
TCW40_DEV_WIDTH
1002
{
1040
-3.0
1002
}
  0
LWPOLYLINE
  5
75A4
330
1F
100
AcDbEntity
  8
0
  6
$INVISIBLE
100
AcDbPolyline
 90
        5
 70
     0
 43
0.0
 10
10.717394983659
 20
14.22504727443992
 10
10.717394983659
 20
14.06598242612236
 10
10.77789043365899
 20
14.06598242612236
 10
10.77789043365899
 20
14.22504727443992
 10
10.717394983659
 20
14.22504727443992
1001
ACAD
1000
TCW40_DEV_WIDTH
1002
{
1040
-3.0
1002
}
  0
LWPOLYLINE
  5
75A5
330
1F
100
AcDbEntity
  8
0
  6
$INVISIBLE
100
AcDbPolyline
 90
        5
 70
     0
 43
0.0
 10
11.30218433365899
 20
14.22504727443992
 10
11.30218433365899
 20
14.06598242612236
 10
11.36267978365899
 20
14.06598242612236
 10
11.36267978365899
 20
14.22504727443992
 10
11.30218433365899
 20
14.22504727443992
1001
ACAD
1000
TCW40_DEV_WIDTH
1002
{
1040
-3.0
1002
}
  0
LINE
  5
75A6
330
1F
100
AcDbEntity
  8
0
100
AcDbLine
 10
11.82647823365899
 20
14.06485425028114
 30
0.0
 11
10.17293593365899
 21
14.06485425028114
 31
0.0
1001
ACAD
1000
TCW40_DEV_WIDTH
1002
{
1040
-3.0
1002
}
  0
LINE
  5
75A7
330
1F
100
AcDbEntity
  8
0
100
AcDbLine
 10
11.82647823365899
 20
14.22504727443992
 30
0.0
 11
10.17293593365899
 21
14.22504727443992
 31
0.0
1001
ACAD
1000
TCW40_DEV_WIDTH
1002
{
1040
-3.0
1002
}
  0
LINE
  5
75A8
330
1F
100
AcDbEntity
  8
0
100
AcDbLine
 10
11.42317523365899
 20
14.06598242612236
 30
0.0
 11
11.42317523365899
 21
14.22504727443992
 31
0.0
1001
ACAD
1000
TCW40_DEV_WIDTH
1002
{
1040
-3.0
1002
}
  0
LINE
  5
75A9
330
1F
100
AcDbEntity
  8
0
100
AcDbLine
 10
11.36267978365899
 20
14.06598242612236
 30
0.0
 11
11.36267978365899
 21
14.22504727443992
 31
0.0
1001
ACAD
1000
TCW40_DEV_WIDTH
1002
{
1040
-3.0
1002
}
  0
LINE
  5
75AA
330
1F
100
AcDbEntity
  8
0
100
AcDbLine
 10
11.30218433365899
 20
14.06598242612236
 30
0.0
 11
11.30218433365899
 21
14.22504727443992
 31
0.0
1001
ACAD
1000
TCW40_DEV_WIDTH
1002
{
1040
-3.0
1002
}
  0
LINE
  5
75AB
330
1F
100
AcDbEntity
  8
0
100
AcDbLine
 10
11.24168888365899
 20
14.06598242612236
 30
0.0
 11
11.24168888365899
 21
14.22504727443992
 31
0.0
1001
ACAD
1000
TCW40_DEV_WIDTH
1002
{
1040
-3.0
1002
}
  0
LINE
  5
75AC
330
1F
100
AcDbEntity
  8
0
100
AcDbLine
 10
10.838385883659
 20
14.06598242612236
 30
0.0
 11
10.838385883659
 21
14.22504727443992
 31
0.0
1001
ACAD
1000
TCW40_DEV_WIDTH
1002
{
1040
-3.0
1002
}
  0
LINE
  5
75AD
330
1F
100
AcDbEntity
  8
0
100
AcDbLine
 10
10.77789043365899
 20
14.06598242612236
 30
0.0
 11
10.77789043365899
 21
14.22504727443992
 31
0.0
1001
ACAD
1000
TCW40_DEV_WIDTH
1002
{
1040
-3.0
1002
}
  0
LINE
  5
75AE
330
1F
100
AcDbEntity
  8
0
100
AcDbLine
 10
10.717394983659
 20
14.06598242612236
 30
0.0
 11
10.717394983659
 21
14.22504727443992
 31
0.0
1001
ACAD
1000
TCW40_DEV_WIDTH
1002
{
1040
-3.0
1002
}
  0
LINE
  5
75AF
330
1F
100
AcDbEntity
  8
0
100
AcDbLine
 10
10.61656923365899
 20
14.06598242612236
 30
0.0
 11
10.61656923365899
 21
14.22504727443992
 31
0.0
1001
ACAD
1000
TCW40_DEV_WIDTH
1002
{
1040
-3.0
1002
}
  0
LINE
  5
75B0
330
1F
100
AcDbEntity
  8
0
100
AcDbLine
 10
10.55607378365899
 20
14.06598242612236
 30
0.0
 11
10.55607378365899
 21
14.22504727443992
 31
0.0
1001
ACAD
1000
TCW40_DEV_WIDTH
1002
{
1040
-3.0
1002
}
  0
LINE
  5
75B1
330
1F
100
AcDbEntity
  8
0
100
AcDbLine
 10
10.49557833365899
 20
14.06598242612236
 30
0.0
 11
10.49557833365899
 21
14.22504727443992
 31
0.0
1001
ACAD
1000
TCW40_DEV_WIDTH
1002
{
1040
-3.0
1002
}
  0
LINE
  5
75B2
330
1F
100
AcDbEntity
  8
0
100
AcDbLine
 10
10.29392683365899
 20
14.06598242612236
 30
0.0
 11
10.29392683365899
 21
14.22504727443992
 31
0.0
1001
ACAD
1000
TCW40_DEV_WIDTH
1002
{
1040
-3.0
1002
}
  0
LINE
  5
75B3
330
1F
100
AcDbEntity
  8
0
100
AcDbLine
 10
11.70548733365899
 20
14.06598242612236
 30
0.0
 11
11.70548733365899
 21
14.22504727443992
 31
0.0
1001
ACAD
1000
TCW40_DEV_WIDTH
1002
{
1040
-3.0
1002
}
  0
LWPOLYLINE
  5
75B4
330
1F
100
AcDbEntity
  8
0
  6
$INVISIBLE
100
AcDbPolyline
 90
        5
 70
     0
 43
0.0
 10
10.717394983659
 20
14.4759834735987
 10
10.717394983659
 20
14.31691862528113
 10
10.77789043365899
 20
14.31691862528113
 10
10.77789043365899
 20
14.4759834735987
 10
10.717394983659
 20
14.4759834735987
1001
ACAD
1000
TCW40_DEV_WIDTH
1002
{
1040
-3.0
1002
}
  0
LWPOLYLINE
  5
75B5
330
1F
100
AcDbEntity
  8
0
  6
$INVISIBLE
100
AcDbPolyline
 90
        5
 70
     0
 43
0.0
 10
11.30218433365899
 20
14.4759834735987
 10
11.30218433365899
 20
14.31691862528113
 10
11.36267978365899
 20
14.31691862528113
 10
11.36267978365899
 20
14.4759834735987
 10
11.30218433365899
 20
14.4759834735987
1001
ACAD
1000
TCW40_DEV_WIDTH
1002
{
1040
-3.0
1002
}
  0
LINE
  5
75B6
330
1F
100
AcDbEntity
  8
0
100
AcDbLine
 10
11.82647823365899
 20
14.31579044943992
 30
0.0
 11
10.17293593365899
 21
14.31579044943992
 31
0.0
1001
ACAD
1000
TCW40_DEV_WIDTH
1002
{
1040
-3.0
1002
}
  0
LINE
  5
75B7
330
1F
100
AcDbEntity
  8
0
100
AcDbLine
 10
11.82647823365899
 20
14.4759834735987
 30
0.0
 11
10.17293593365899
 21
14.4759834735987
 31
0.0
1001
ACAD
1000
TCW40_DEV_WIDTH
1002
{
1040
-3.0
1002
}
  0
LINE
  5
75B8
330
1F
100
AcDbEntity
  8
0
100
AcDbLine
 10
11.42317523365899
 20
14.31691862528113
 30
0.0
 11
11.42317523365899
 21
14.4759834735987
 31
0.0
1001
ACAD
1000
TCW40_DEV_WIDTH
1002
{
1040
-3.0
1002
}
  0
LINE
  5
75B9
330
1F
100
AcDbEntity
  8
0
100
AcDbLine
 10
11.36267978365899
 20
14.31691862528113
 30
0.0
 11
11.36267978365899
 21
14.4759834735987
 31
0.0
1001
ACAD
1000
TCW40_DEV_WIDTH
1002
{
1040
-3.0
1002
}
  0
LINE
  5
75BA
330
1F
100
AcDbEntity
  8
0
100
AcDbLine
 10
11.30218433365899
 20
14.31691862528113
 30
0.0
 11
11.30218433365899
 21
14.4759834735987
 31
0.0
1001
ACAD
1000
TCW40_DEV_WIDTH
1002
{
1040
-3.0
1002
}
  0
LINE
  5
75BB
330
1F
100
AcDbEntity
  8
0
100
AcDbLine
 10
11.24168888365899
 20
14.31691862528113
 30
0.0
 11
11.24168888365899
 21
14.4759834735987
 31
0.0
1001
ACAD
1000
TCW40_DEV_WIDTH
1002
{
1040
-3.0
1002
}
  0
LINE
  5
75BC
330
1F
100
AcDbEntity
  8
0
100
AcDbLine
 10
10.838385883659
 20
14.31691862528113
 30
0.0
 11
10.838385883659
 21
14.4759834735987
 31
0.0
1001
ACAD
1000
TCW40_DEV_WIDTH
1002
{
1040
-3.0
1002
}
  0
LINE
  5
75BD
330
1F
100
AcDbEntity
  8
0
100
AcDbLine
 10
10.77789043365899
 20
14.31691862528113
 30
0.0
 11
10.77789043365899
 21
14.4759834735987
 31
0.0
1001
ACAD
1000
TCW40_DEV_WIDTH
1002
{
1040
-3.0
1002
}
  0
LINE
  5
75BE
330
1F
100
AcDbEntity
  8
0
100
AcDbLine
 10
10.717394983659
 20
14.31691862528113
 30
0.0
 11
10.717394983659
 21
14.4759834735987
 31
0.0
1001
ACAD
1000
TCW40_DEV_WIDTH
1002
{
1040
-3.0
1002
}
  0
LINE
  5
75BF
330
1F
100
AcDbEntity
  8
0
100
AcDbLine
 10
10.61656923365899
 20
14.31691862528113
 30
0.0
 11
10.61656923365899
 21
14.4759834735987
 31
0.0
1001
ACAD
1000
TCW40_DEV_WIDTH
1002
{
1040
-3.0
1002
}
  0
LINE
  5
75C0
330
1F
100
AcDbEntity
  8
0
100
AcDbLine
 10
10.55607378365899
 20
14.31691862528113
 30
0.0
 11
10.55607378365899
 21
14.4759834735987
 31
0.0
1001
ACAD
1000
TCW40_DEV_WIDTH
1002
{
1040
-3.0
1002
}
  0
LINE
  5
75C1
330
1F
100
AcDbEntity
  8
0
100
AcDbLine
 10
10.49557833365899
 20
14.31691862528113
 30
0.0
 11
10.49557833365899
 21
14.4759834735987
 31
0.0
1001
ACAD
1000
TCW40_DEV_WIDTH
1002
{
1040
-3.0
1002
}
  0
LINE
  5
75C2
330
1F
100
AcDbEntity
  8
0
100
AcDbLine
 10
10.29392683365899
 20
14.31691862528113
 30
0.0
 11
10.29392683365899
 21
14.4759834735987
 31
0.0
1001
ACAD
1000
TCW40_DEV_WIDTH
1002
{
1040
-3.0
1002
}
  0
LINE
  5
75C3
330
1F
100
AcDbEntity
  8
0
100
AcDbLine
 10
11.70548733365899
 20
14.31691862528113
 30
0.0
 11
11.70548733365899
 21
14.4759834735987
 31
0.0
1001
ACAD
1000
TCW40_DEV_WIDTH
1002
{
1040
-3.0
1002
}
  0
LWPOLYLINE
  5
75C4
330
1F
100
AcDbEntity
  8
0
  6
$INVISIBLE
100
AcDbPolyline
 90
        5
 70
     0
 43
0.0
 10
10.717394983659
 20
14.72691967275748
 10
10.717394983659
 20
14.56785482443991
 10
10.77789043365899
 20
14.56785482443991
 10
10.77789043365899
 20
14.72691967275748
 10
10.717394983659
 20
14.72691967275748
1001
ACAD
1000
TCW40_DEV_WIDTH
1002
{
1040
-3.0
1002
}
  0
LWPOLYLINE
  5
75C5
330
1F
100
AcDbEntity
  8
0
  6
$INVISIBLE
100
AcDbPolyline
 90
        5
 70
     0
 43
0.0
 10
11.30218433365899
 20
14.72691967275748
 10
11.30218433365899
 20
14.56785482443991
 10
11.36267978365899
 20
14.56785482443991
 10
11.36267978365899
 20
14.72691967275748
 10
11.30218433365899
 20
14.72691967275748
1001
ACAD
1000
TCW40_DEV_WIDTH
1002
{
1040
-3.0
1002
}
  0
LINE
  5
75C6
330
1F
100
AcDbEntity
  8
0
100
AcDbLine
 10
11.82647823365899
 20
14.5667266485987
 30
0.0
 11
10.17293593365899
 21
14.5667266485987
 31
0.0
1001
ACAD
1000
TCW40_DEV_WIDTH
1002
{
1040
-3.0
1002
}
  0
LINE
  5
75C7
330
1F
100
AcDbEntity
  8
0
100
AcDbLine
 10
11.82647823365899
 20
14.72691967275748
 30
0.0
 11
10.17293593365899
 21
14.72691967275748
 31
0.0
1001
ACAD
1000
TCW40_DEV_WIDTH
1002
{
1040
-3.0
1002
}
  0
LINE
  5
75C8
330
1F
100
AcDbEntity
  8
0
100
AcDbLine
 10
11.42317523365899
 20
14.56785482443991
 30
0.0
 11
11.42317523365899
 21
14.72691967275748
 31
0.0
1001
ACAD
1000
TCW40_DEV_WIDTH
1002
{
1040
-3.0
1002
}
  0
LINE
  5
75C9
330
1F
100
AcDbEntity
  8
0
100
AcDbLine
 10
11.36267978365899
 20
14.56785482443991
 30
0.0
 11
11.36267978365899
 21
14.72691967275748
 31
0.0
1001
ACAD
1000
TCW40_DEV_WIDTH
1002
{
1040
-3.0
1002
}
  0
LINE
  5
75CA
330
1F
100
AcDbEntity
  8
0
100
AcDbLine
 10
11.30218433365899
 20
14.56785482443991
 30
0.0
 11
11.30218433365899
 21
14.72691967275748
 31
0.0
1001
ACAD
1000
TCW40_DEV_WIDTH
1002
{
1040
-3.0
1002
}
  0
LINE
  5
75CB
330
1F
100
AcDbEntity
  8
0
100
AcDbLine
 10
11.24168888365899
 20
14.56785482443991
 30
0.0
 11
11.24168888365899
 21
14.72691967275748
 31
0.0
1001
ACAD
1000
TCW40_DEV_WIDTH
1002
{
1040
-3.0
1002
}
  0
LINE
  5
75CC
330
1F
100
AcDbEntity
  8
0
100
AcDbLine
 10
10.838385883659
 20
14.56785482443991
 30
0.0
 11
10.838385883659
 21
14.72691967275748
 31
0.0
1001
ACAD
1000
TCW40_DEV_WIDTH
1002
{
1040
-3.0
1002
}
  0
LINE
  5
75CD
330
1F
100
AcDbEntity
  8
0
100
AcDbLine
 10
10.77789043365899
 20
14.56785482443991
 30
0.0
 11
10.77789043365899
 21
14.72691967275748
 31
0.0
1001
ACAD
1000
TCW40_DEV_WIDTH
1002
{
1040
-3.0
1002
}
  0
LINE
  5
75CE
330
1F
100
AcDbEntity
  8
0
100
AcDbLine
 10
10.717394983659
 20
14.56785482443991
 30
0.0
 11
10.717394983659
 21
14.72691967275748
 31
0.0
1001
ACAD
1000
TCW40_DEV_WIDTH
1002
{
1040
-3.0
1002
}
  0
LINE
  5
75CF
330
1F
100
AcDbEntity
  8
0
100
AcDbLine
 10
10.61656923365899
 20
14.56785482443991
 30
0.0
 11
10.61656923365899
 21
14.72691967275748
 31
0.0
1001
ACAD
1000
TCW40_DEV_WIDTH
1002
{
1040
-3.0
1002
}
  0
LINE
  5
75D0
330
1F
100
AcDbEntity
  8
0
100
AcDbLine
 10
10.55607378365899
 20
14.56785482443991
 30
0.0
 11
10.55607378365899
 21
14.72691967275748
 31
0.0
1001
ACAD
1000
TCW40_DEV_WIDTH
1002
{
1040
-3.0
1002
}
  0
LINE
  5
75D1
330
1F
100
AcDbEntity
  8
0
100
AcDbLine
 10
10.49557833365899
 20
14.56785482443991
 30
0.0
 11
10.49557833365899
 21
14.72691967275748
 31
0.0
1001
ACAD
1000
TCW40_DEV_WIDTH
1002
{
1040
-3.0
1002
}
  0
LINE
  5
75D2
330
1F
100
AcDbEntity
  8
0
100
AcDbLine
 10
10.29392683365899
 20
14.56785482443991
 30
0.0
 11
10.29392683365899
 21
14.72691967275748
 31
0.0
1001
ACAD
1000
TCW40_DEV_WIDTH
1002
{
1040
-3.0
1002
}
  0
LINE
  5
75D3
330
1F
100
AcDbEntity
  8
0
100
AcDbLine
 10
11.70548733365899
 20
14.56785482443991
 30
0.0
 11
11.70548733365899
 21
14.72691967275748
 31
0.0
1001
ACAD
1000
TCW40_DEV_WIDTH
1002
{
1040
-3.0
1002
}
  0
LWPOLYLINE
  5
75D4
330
1F
100
AcDbEntity
  8
0
  6
$INVISIBLE
100
AcDbPolyline
 90
        5
 70
     0
 43
0.0
 10
10.717394983659
 20
14.97785587191626
 10
10.717394983659
 20
14.81879102359869
 10
10.77789043365899
 20
14.81879102359869
 10
10.77789043365899
 20
14.97785587191626
 10
10.717394983659
 20
14.97785587191626
1001
ACAD
1000
TCW40_DEV_WIDTH
1002
{
1040
-3.0
1002
}
  0
LWPOLYLINE
  5
75D5
330
1F
100
AcDbEntity
  8
0
  6
$INVISIBLE
100
AcDbPolyline
 90
        5
 70
     0
 43
0.0
 10
11.30218433365899
 20
14.97785587191626
 10
11.30218433365899
 20
14.81879102359869
 10
11.36267978365899
 20
14.81879102359869
 10
11.36267978365899
 20
14.97785587191626
 10
11.30218433365899
 20
14.97785587191626
1001
ACAD
1000
TCW40_DEV_WIDTH
1002
{
1040
-3.0
1002
}
  0
LINE
  5
75D6
330
1F
100
AcDbEntity
  8
0
100
AcDbLine
 10
11.82647823365899
 20
14.81766284775748
 30
0.0
 11
10.17293593365899
 21
14.81766284775748
 31
0.0
1001
ACAD
1000
TCW40_DEV_WIDTH
1002
{
1040
-3.0
1002
}
  0
LINE
  5
75D7
330
1F
100
AcDbEntity
  8
0
100
AcDbLine
 10
11.82647823365899
 20
14.97785587191626
 30
0.0
 11
10.17293593365899
 21
14.97785587191626
 31
0.0
1001
ACAD
1000
TCW40_DEV_WIDTH
1002
{
1040
-3.0
1002
}
  0
LINE
  5
75D8
330
1F
100
AcDbEntity
  8
0
100
AcDbLine
 10
11.42317523365899
 20
14.81879102359869
 30
0.0
 11
11.42317523365899
 21
14.97785587191626
 31
0.0
1001
ACAD
1000
TCW40_DEV_WIDTH
1002
{
1040
-3.0
1002
}
  0
LINE
  5
75D9
330
1F
100
AcDbEntity
  8
0
100
AcDbLine
 10
11.36267978365899
 20
14.81879102359869
 30
0.0
 11
11.36267978365899
 21
14.97785587191626
 31
0.0
1001
ACAD
1000
TCW40_DEV_WIDTH
1002
{
1040
-3.0
1002
}
  0
LINE
  5
75DA
330
1F
100
AcDbEntity
  8
0
100
AcDbLine
 10
11.30218433365899
 20
14.81879102359869
 30
0.0
 11
11.30218433365899
 21
14.97785587191626
 31
0.0
1001
ACAD
1000
TCW40_DEV_WIDTH
1002
{
1040
-3.0
1002
}
  0
LINE
  5
75DB
330
1F
100
AcDbEntity
  8
0
100
AcDbLine
 10
11.24168888365899
 20
14.81879102359869
 30
0.0
 11
11.24168888365899
 21
14.97785587191626
 31
0.0
1001
ACAD
1000
TCW40_DEV_WIDTH
1002
{
1040
-3.0
1002
}
  0
LINE
  5
75DC
330
1F
100
AcDbEntity
  8
0
100
AcDbLine
 10
10.838385883659
 20
14.81879102359869
 30
0.0
 11
10.838385883659
 21
14.97785587191626
 31
0.0
1001
ACAD
1000
TCW40_DEV_WIDTH
1002
{
1040
-3.0
1002
}
  0
LINE
  5
75DD
330
1F
100
AcDbEntity
  8
0
100
AcDbLine
 10
10.77789043365899
 20
14.81879102359869
 30
0.0
 11
10.77789043365899
 21
14.97785587191626
 31
0.0
1001
ACAD
1000
TCW40_DEV_WIDTH
1002
{
1040
-3.0
1002
}
  0
LINE
  5
75DE
330
1F
100
AcDbEntity
  8
0
100
AcDbLine
 10
10.717394983659
 20
14.81879102359869
 30
0.0
 11
10.717394983659
 21
14.97785587191626
 31
0.0
1001
ACAD
1000
TCW40_DEV_WIDTH
1002
{
1040
-3.0
1002
}
  0
LINE
  5
75DF
330
1F
100
AcDbEntity
  8
0
100
AcDbLine
 10
10.61656923365899
 20
14.81879102359869
 30
0.0
 11
10.61656923365899
 21
14.97785587191626
 31
0.0
1001
ACAD
1000
TCW40_DEV_WIDTH
1002
{
1040
-3.0
1002
}
  0
LINE
  5
75E0
330
1F
100
AcDbEntity
  8
0
100
AcDbLine
 10
10.55607378365899
 20
14.81879102359869
 30
0.0
 11
10.55607378365899
 21
14.97785587191626
 31
0.0
1001
ACAD
1000
TCW40_DEV_WIDTH
1002
{
1040
-3.0
1002
}
  0
LINE
  5
75E1
330
1F
100
AcDbEntity
  8
0
100
AcDbLine
 10
10.49557833365899
 20
14.81879102359869
 30
0.0
 11
10.49557833365899
 21
14.97785587191626
 31
0.0
1001
ACAD
1000
TCW40_DEV_WIDTH
1002
{
1040
-3.0
1002
}
  0
LINE
  5
75E2
330
1F
100
AcDbEntity
  8
0
100
AcDbLine
 10
10.29392683365899
 20
14.81879102359869
 30
0.0
 11
10.29392683365899
 21
14.97785587191626
 31
0.0
1001
ACAD
1000
TCW40_DEV_WIDTH
1002
{
1040
-3.0
1002
}
  0
LINE
  5
75E3
330
1F
100
AcDbEntity
  8
0
100
AcDbLine
 10
11.70548733365899
 20
14.81879102359869
 30
0.0
 11
11.70548733365899
 21
14.97785587191626
 31
0.0
1001
ACAD
1000
TCW40_DEV_WIDTH
1002
{
1040
-3.0
1002
}
  0
LWPOLYLINE
  5
7668
330
1F
100
AcDbEntity
  8
0
  6
$INVISIBLE
100
AcDbPolyline
 90
        5
 70
   128
 43
0.0
 10
27.1498842332706
 20
26.76040561852739
 10
27.1498842332706
 20
65.26040561852738
 10
25.6498842332706
 20
65.26040561852738
 10
25.6498842332706
 20
25.76040561852739
 10
27.1498842332706
 20
26.76040561852739
1001
ACAD
1000
TCW40_DEV_WIDTH
1002
{
1040
-3.0
1002
}
  0
DIMENSION
  5
770B
330
1F
100
AcDbEntity
  8
DIM
100
AcDbDimension
  2
*D3
 10
11.827064066341
 20
9.791851041075172
 30
0.0
 11
11.0
 21
9.791851041075172
 31
0.0
 70
    32
 71
     5
 42
1.654128132682
  3
Standard
100
AcDbAlignedDimension
 13
10.17293593365899
 23
8.902820950416082
 33
0.0
 14
11.827064066341
 24
8.902820950416082
 34
0.0
100
AcDbRotatedDimension
  0
DIMENSION
  5
7719
330
1F
100
AcDbEntity
  8
DIM
100
AcDbDimension
  2
*D4
 10
9.276035463343138
 20
11.24899256618979
 30
0.0
 11
9.276035463343136
 21
13.57377969953094
 31
0.0
 70
    32
 71
     5
 42
4.649574266682289
  3
Standard
100
AcDbAlignedDimension
 13
10.17293593365899
 23
15.89856683287208
 33
0.0
 14
10.999707083659
 24
11.24899256618979
 34
0.0
 50
90.0
100
AcDbRotatedDimension
  0
TEXT
  5
77C0
330
1F
100
AcDbEntity
  8
TEXT
100
AcDbText
 10
10.84874149415375
 20
8.05684678351305
 30
0.0
 40
0.09
  1
Healthy
 41
0.8
 72
     2
 11
11.29274149415375
 21
8.10184678351305
 31
0.0
100
AcDbText
 73
     2
  0
TEXT
  5
77C1
330
1F
100
AcDbEntity
  8
TEXT
100
AcDbText
 10
10.95674149415374
 20
7.875296134804051
 30
0.0
 40
0.09
  1
Ready
 41
0.8
 72
     2
 11
11.29274149415375
 21
7.920296134804051
 31
0.0
100
AcDbText
 73
     2
  0
TEXT
  5
77C2
330
1F
100
AcDbEntity
  8
TEXT
100
AcDbText
 10
11.10207101369066
 20
7.693747920165291
 30
0.0
 40
0.09
  1
Run
 41
0.8
 72
     2
 11
11.29407101369066
 21
7.738747920165291
 31
0.0
100
AcDbText
 73
     2
  0
TEXT
  5
77C3
330
1F
100
AcDbEntity
  8
TEXT
100
AcDbText
 10
10.65807101369066
 20
7.41133579995129
 30
0.0
 40
0.09
  1
Channel 00
 41
0.8
 72
     2
 11
11.29407101369066
 21
7.45633579995129
 31
0.0
100
AcDbText
 73
     2
  0
TEXT
  5
77C5
330
1F
100
AcDbEntity
  8
TEXT
100
AcDbText
 10
10.67007101369066
 20
7.229785151242291
 30
0.0
 40
0.09
  1
Channel 01
 41
0.8
 72
     2
 11
11.29407101369066
 21
7.274785151242291
 31
0.0
100
AcDbText
 73
     2
  0
TEXT
  5
77C6
330
1F
100
AcDbEntity
  8
TEXT
100
AcDbText
 10
10.64740053322755
 20
7.048236936603528
 30
0.0
 40
0.09
  1
Channel 02
 41
0.8
 72
     2
 11
11.29540053322755
 21
7.093236936603528
 31
0.0
100
AcDbText
 73
     2
  0
TEXT
  5
77C7
330
1F
100
AcDbEntity
  8
TEXT
100
AcDbText
 10
10.64740053322755
 20
6.866686287894529
 30
0.0
 40
0.09
  1
Channel 03
 41
0.8
 72
     2
 11
11.29540053322755
 21
6.911686287894529
 31
0.0
100
AcDbText
 73
     2
  0
TEXT
  5
77C8
330
1F
100
AcDbEntity
  8
TEXT
100
AcDbText
 10
10.64873005276447
 20
6.685138073255769
 30
0.0
 40
0.09
  1
Channel 04
 41
0.8
 72
     2
 11
11.29673005276446
 21
6.730138073255769
 31
0.0
100
AcDbText
 73
     2
  0
TEXT
  5
77C9
330
1F
100
AcDbEntity
  8
TEXT
100
AcDbText
 10
10.64873005276447
 20
6.503587424546767
 30
0.0
 40
0.09
  1
Channel 05
 41
0.8
 72
     2
 11
11.29673005276446
 21
6.548587424546767
 31
0.0
100
AcDbText
 73
     2
  0
TEXT
  5
77CA
330
1F
100
AcDbEntity
  8
TEXT
100
AcDbText
 10
10.65005957230138
 20
6.322039209908007
 30
0.0
 40
0.09
  1
Channel 06
 41
0.8
 72
     2
 11
11.29805957230138
 21
6.367039209908007
 31
0.0
100
AcDbText
 73
     2
  0
TEXT
  5
77CB
330
1F
100
AcDbEntity
  8
TEXT
100
AcDbText
 10
10.65138909183827
 20
6.140490995269248
 30
0.0
 40
0.09
  1
Channel 07
 41
0.8
 72
     2
 11
11.29938909183827
 21
6.185490995269248
 31
0.0
100
AcDbText
 73
     2
  0
TEXT
  5
77CC
330
1F
100
AcDbEntity
  8
TEXT
100
AcDbText
 10
10.61765677887454
 20
8.591577868077028
 30
0.0
 40
0.11
  1
DC OUTPUT
 41
0.8
 72
     1
 11
10.99899011220788
 21
8.646577868077027
 31
0.0
100
AcDbText
 73
     2
  0
TEXT
  5
77CD
330
1F
100
AcDbEntity
  8
TEXT
100
AcDbText
 10
10.44165677887455
 20
8.797192314787483
 30
0.0
 40
0.11
  1
ALLEN-BRADLEY
 41
0.8
 72
     1
 11
10.99899011220788
 21
8.852192314787483
 31
0.0
100
AcDbText
 73
     2
  0
TEXT
  5
77CE
330
1F
100
AcDbEntity
  8
TEXT
100
AcDbText
 10
10.60299011220788
 20
8.385963421366685
 30
0.0
 40
0.11
  1
1715-OB8DE
 41
0.8
 72
     1
 11
10.99899011220788
 21
8.440963421366685
 31
0.0
100
AcDbText
 73
     2
  0
LINE
  5
78BD
330
1F
100
AcDbEntity
  8
0
100
AcDbLine
 10
11.82647823365899
 20
11.58322473287208
 30
0.0
 11
11.826478233659
 21
11.3862812868727
 31
0.0
  0
ARC
  5
78BE
330
1F
100
AcDbEntity
  8
0
100
AcDbCircle
 10
10.999707083659
 20
13.82642349399015
 30
0.0
 40
2.576401468216544
100
AcDbArc
 50
251.2825461873128
 51
288.7174538126872
  0
LINE
  5
78BF
330
1F
100
AcDbEntity
  8
0
100
AcDbLine
 10
10.17293593365899
 20
11.38628128687269
 30
0.0
 11
10.17293593365902
 21
11.58322473287209
 31
0.0
  0
LWPOLYLINE
  5
83FA
330
1F
100
AcDbEntity
  8
0
100
AcDbPolyline
 90
        4
 70
     1
 43
0.0
 10
0.0
 20
0.0
 10
22.0
 20
0.0
 10
22.0
 20
17.0
 10
0.0
 20
17.0
  0
ENDSEC
  0
SECTION
  2
OBJECTS
  0
DICTIONARY
  5
C
330
0
100
AcDbDictionary
281
     1
  3
ACAD_ASSOCPERSSUBENTMANAGER
350
3F01
  3
ACAD_BACKGROUND
350
5499
  3
ACAD_COLOR
350
5D
  3
ACAD_GROUP
350
D
  3
ACAD_LAYOUT
350
1A
  3
ACAD_MATERIAL
350
33
  3
ACAD_MLEADERSTYLE
350
82
  3
ACAD_MLINESTYLE
350
17
  3
ACAD_PERSUBENTMGR
350
58ED
  3
ACAD_PLOTSETTINGS
350
19
  3
ACAD_PLOTSTYLENAME
350
E
  3
ACAD_SCALELIST
350
60
  3
ACAD_TABLESTYLE
350
5E
  3
ACAD_VISUALSTYLE
350
4C
  3
ACAD_WIPEOUT_VARS
350
5C61
  3
ACADE_WIRETYPE
350
226D
  3
ACDB_RECOMPOSE_DATA
350
8933
  3
AcDbVariableDictionary
350
8A
  3
AEC_PROPERTY_SET_DEFS
350
2A20
  3
ASE_INDEX_DICTIONARY
350
2834
  3
DWGPROPS
350
897B
  0
DICTIONARY
  5
181
330
8
100
AcDbDictionary
280
     1
281
     1
  0
DICTIONARY
  5
107
330
2
100
AcDbDictionary
280
     1
281
     1
  3
ACAD_LAYERSTATES
360
108
  0
DICTIONARY
  5
17C
330
10
100
AcDbDictionary
280
     1
281
     1
  3
ADSK_XREC_LAYER_RECONCILED
360
284E
  0
DICTIONARY
  5
17A
330
1F
100
AcDbDictionary
280
     1
281
     1
  3
ACAD_SORTENTS
360
17B
  0
ACAD_PROXY_OBJECT
  5
3F01
102
{ACAD_REACTORS
330
C
102
}
330
C
100
AcDbProxyObject
 90
      499
 91
      519
 95
   983063
 70
     0
 93
       73
310
40503902218040002A7F
 94
        0
1001
ACAD
1000
AcRTDxfName
1000
ACDBASSOCPERSSUBENTMANAGER
  0
DICTIONARY
  5
5499
102
{ACAD_REACTORS
330
C
102
}
330
C
100
AcDbDictionary
281
     1
  0
DICTIONARY
  5
5D
102
{ACAD_REACTORS
330
C
102
}
330
C
100
AcDbDictionary
281
     1
  0
DICTIONARY
  5
D
102
{ACAD_REACTORS
330
C
102
}
330
C
100
AcDbDictionary
281
     1
  3
*A1
350
334E
  3
*A10
350
33B7
  3
*A11
350
33CC
  3
*A12
350
33E1
  3
*A13
350
33F6
  3
*A14
350
340B
  3
*A15
350
3420
  3
*A16
350
3435
  3
*A2
350
344A
  3
*A3
350
345F
  3
*A4
350
3474
  3
*A5
350
3489
  3
*A6
350
3363
  3
*A7
350
3378
  3
*A8
350
338D
  3
*A9
350
33A2
  0
DICTIONARY
  5
1A
102
{ACAD_REACTORS
330
C
102
}
330
C
100
AcDbDictionary
281
     1
  3
Layout1
350
1E
  3
Layout2
350
26
  3
Model
350
22
  0
DICTIONARY
  5
33
102
{ACAD_REACTORS
330
C
102
}
330
C
100
AcDbDictionary
281
     1
  3
ByBlock
350
3C
  3
ByLayer
350
34
  3
Global
350
44
  0
DICTIONARY
  5
82
102
{ACAD_REACTORS
330
C
102
}
330
C
100
AcDbDictionary
281
     1
  3
Standard
350
83
  0
DICTIONARY
  5
17
102
{ACAD_REACTORS
330
C
102
}
330
C
100
AcDbDictionary
281
     1
  3
Standard
350
18
  0
ACDBPERSSUBENTMANAGER
  5
58ED
102
{ACAD_REACTORS
330
C
102
}
330
C
100
AcDbPersSubentManager
 90
        2
 90
        0
 90
        2
 90
      390
 90
        0
 90
        0
  0
DICTIONARY
  5
19
102
{ACAD_REACTORS
330
C
102
}
330
C
100
AcDbDictionary
281
     1
  0
ACDBDICTIONARYWDFLT
  5
E
102
{ACAD_REACTORS
330
C
102
}
330
C
100
AcDbDictionary
281
     1
  3
Normal
350
F
100
AcDbDictionaryWithDefault
340
F
  0
DICTIONARY
  5
60
102
{ACAD_REACTORS
330
C
102
}
330
C
100
AcDbDictionary
281
     1
  3
A0
350
61
  3
A1
350
62
  3
A2
350
63
  3
A3
350
64
  3
A4
350
65
  3
A5
350
66
  3
A6
350
67
  3
A7
350
68
  3
A8
350
69
  3
A9
350
6A
  3
B0
350
6B
  3
B1
350
6C
  3
B2
350
6D
  3
B3
350
6E
  3
B4
350
6F
  3
B5
350
70
  3
B6
350
71
  3
B7
350
72
  3
B8
350
73
  3
B9
350
74
  3
C0
350
75
  3
C1
350
76
  3
C2
350
77
  3
C3
350
78
  3
C4
350
79
  3
C5
350
7A
  3
C6
350
7B
  3
C7
350
7C
  3
C8
350
7D
  3
C9
350
7E
  3
D0
350
7F
  3
D1
350
80
  3
D2
350
81
  0
DICTIONARY
  5
5E
102
{ACAD_REACTORS
330
C
102
}
330
C
100
AcDbDictionary
281
     1
  3
Standard
350
5F
  0
DICTIONARY
  5
4C
102
{ACAD_REACTORS
330
C
102
}
330
C
100
AcDbDictionary
281
     1
  3
2dWireframe
350
52
  3
3D Hidden
350
54
  3
3dWireframe
350
53
  3
Basic
350
51
  3
Brighten
350
58
  3
ColorChange
350
5C
  3
Conceptual
350
55
  3
Dim
350
57
  3
EdgeColorOff
350
2848
  3
Facepattern
350
5B
  3
Flat
350
4D
  3
FlatWithEdges
350
4E
  3
Gouraud
350
4F
  3
GouraudWithEdges
350
50
  3
Hidden
350
2840
  3
JitterOff
350
2846
  3
Linepattern
350
5A
  3
OverhangOff
350
2847
  3
Realistic
350
56
  3
Shaded
350
2845
  3
Shaded with edges
350
2844
  3
Shades of Gray
350
2841
  3
Sketchy
350
2842
  3
Thicken
350
59
  3
Wireframe
350
283F
  3
X-Ray
350
2843
  0
WIPEOUTVARIABLES
  5
5C61
102
{ACAD_REACTORS
330
C
102
}
330
C
100
AcDbWipeoutVariables
 70
     1
  0
DICTIONARY
  5
226D
102
{ACAD_REACTORS
330
C
102
}
330
C
100
AcDbDictionary
281
     1
  3
CURRENT_WIRELAY
350
226E
  0
XRECORD
  5
8933
102
{ACAD_REACTORS
330
C
102
}
330
C
100
AcDbXrecord
280
     1
 90
        1
330
5F
  0
DICTIONARY
  5
8A
102
{ACAD_REACTORS
330
C
102
}
330
C
100
AcDbDictionary
281
     1
  3
CANNOSCALE
350
8E
  3
CMLEADERSTYLE
350
8C
  3
CTABLESTYLE
350
8B
  3
DIMASSOC
350
18F
  3
INDEXCTL
350
18E
  3
LAYEREVAL
350
217D
  3
LAYERNOTIFY
350
217E
  3
LIGHTINGUNITS
350
8F
  3
MSLTSCALE
350
8D
  3
SORTENTS
350
18D
  3
XCLIPFRAME
350
8976
  0
DICTIONARY
  5
2A20
102
{ACAD_REACTORS
330
C
102
}
330
C
100
AcDbDictionary
281
     1
  0
DICTIONARY
  5
2834
102
{ACAD_REACTORS
330
C
102
}
330
C
100
AcDbDictionary
281
     1
  3
ASEBlockHierarchyIndexRecord
350
2835
1001
DCO15
1040
1674887783.539
  0
XRECORD
  5
897B
102
{ACAD_REACTORS
330
C
102
}
330
C
100
AcDbXrecord
280
     1
  1
DWGPROPS COOKIE
  2

  3

  4

  6

  7

  8
dan
  9

300
Drawing Description 1=LINE 1 LINE 2 LINE 3
301
Drawing Description 2=
302
Drawing Description 3=
303
Project Code=
304
Installation Code=
305
Location Code=
306
Sheet=A02
307
Drawing=
308
Section=A
309
Sub-Section=12
 40
1.884023136574074
 41
2455646.34385588
 42
2456008.642203322
  1

 90
       10
  0
DICTIONARY
  5
108
102
{ACAD_REACTORS
330
107
102
}
330
107
100
AcDbDictionary
281
     1
  0
XRECORD
  5
284E
102
{ACAD_REACTORS
330
17C
102
}
330
17C
100
AcDbXrecord
280
     1
290
     1
  0
SORTENTSTABLE
  5
17B
102
{ACAD_REACTORS
330
17A
102
}
330
17A
100
AcDbSortentsTable
330
1F
331
7489
  5
7489
331
74F8
  5
74F8
331
72D3
  5
72D3
331
6AC9
  5
6AC9
331
6B08
  5
6B08
331
7491
  5
7491
331
7500
  5
7500
331
72DB
  5
72DB
331
7537
  5
7537
331
75AE
  5
75AE
331
6A92
  5
6A92
331
725D
  5
725D
331
729C
  5
729C
331
6C17
  5
6C17
331
7226
  5
7226
331
6B10
  5
6B10
331
6AD1
  5
6AD1
331
753F
  5
753F
331
75B6
  5
75B6
331
74A9
  5
74A9
331
7508
  5
7508
331
7462
  5
7462
331
72E3
  5
72E3
331
6A9A
  5
6A9A
331
7265
  5
7265
331
72A4
  5
72A4
331
6C1F
  5
6C1F
331
722E
  5
722E
331
6AD9
  5
6AD9
331
6B18
  5
6B18
331
74B1
  5
74B1
331
7510
  5
7510
331
72EB
  5
72EB
331
7547
  5
7547
331
75BE
  5
75BE
331
6AA2
  5
6AA2
331
726D
  5
726D
331
72AC
  5
72AC
331
6C27
  5
6C27
331
7236
  5
7236
331
6B20
  5
6B20
331
6AE1
  5
6AE1
331
6AAA
  5
6AAA
331
754F
  5
754F
331
75C6
  5
75C6
331
6A6B
  5
6A6B
331
7275
  5
7275
331
72B4
  5
72B4
331
6C2F
  5
6C2F
331
723E
  5
723E
331
74B9
  5
74B9
331
7518
  5
7518
331
7472
  5
7472
331
6AE9
  5
6AE9
331
6B28
  5
6B28
331
77C5
  5
77C9
331
74C1
  5
74C1
331
75CE
  5
75CE
331
6A73
  5
6A73
331
6AB2
  5
6AB2
331
727D
  5
727D
331
72BC
  5
72BC
331
7246
  5
7246
331
6AF1
  5
6AF1
331
6B30
  5
6B30
331
77CD
  5
78BE
331
75D6
  5
75D6
331
7597
  5
7597
331
74C9
  5
74C9
331
7528
  5
7528
331
7482
  5
7482
331
6A7B
  5
6A7B
331
6ABA
  5
6ABA
331
7285
  5
7285
331
72C4
  5
72C4
331
70FF
  5
70FF
331
724E
  5
724E
331
6AF9
  5
6AF9
331
6B38
  5
6B38
331
78BD
  5
770B
331
75DE
  5
75DE
331
759F
  5
759F
331
6A83
  5
6A83
331
6AC2
  5
6AC2
331
728D
  5
728D
331
72CC
  5
72CC
331
7256
  5
7256
331
6B01
  5
6B01
331
75A7
  5
75A7
331
6A8B
  5
6A8B
331
7295
  5
7295
331
721F
  5
721F
331
748A
  5
748A
331
74F9
  5
74F9
331
72D4
  5
72D4
331
7530
  5
7530
331
6ACA
  5
6ACA
331
6B09
  5
6B09
331
6A93
  5
6A93
331
75AF
  5
75AF
331
7492
  5
7492
331
7501
  5
7501
331
745B
  5
745B
331
72DC
  5
72DC
331
7538
  5
7538
331
725E
  5
725E
331
729D
  5
729D
331
6B11
  5
6B11
331
6AD2
  5
6AD2
331
6A9B
  5
6A9B
331
75B7
  5
75B7
331
74AA
  5
74AA
331
7509
  5
7509
331
72E4
  5
72E4
331
7540
  5
7540
331
6C18
  5
6C18
331
7227
  5
7227
331
7266
  5
7266
331
72A5
  5
72A5
331
722F
  5
722F
331
6ADA
  5
6ADA
331
6B19
  5
6B19
331
6AA3
  5
6AA3
331
75BF
  5
75BF
331
74B2
  5
74B2
331
7511
  5
7511
331
746B
  5
746B
331
72EC
  5
72EC
331
7548
  5
7548
331
6C20
  5
6C20
331
726E
  5
726E
331
72AD
  5
72AD
331
6B21
  5
6B21
331
6AE2
  5
6AE2
331
6A6C
  5
6A6C
331
6AAB
  5
6AAB
331
75C7
  5
75C7
331
6C28
  5
6C28
331
7237
  5
7237
331
7276
  5
7276
331
72B5
  5
72B5
331
723F
  5
723F
331
74BA
  5
74BA
331
7519
  5
7519
331
7473
  5
7473
331
7550
  5
7550
331
6AEA
  5
6AEA
331
6B29
  5
6B29
331
6A74
  5
6A74
331
6AB3
  5
6AB3
331
77C6
  5
77CA
331
74C2
  5
74C2
331
75CF
  5
75CF
331
6C30
  5
6C30
331
727E
  5
727E
331
72BD
  5
72BD
331
6AF2
  5
6AF2
331
6B31
  5
6B31
331
6A7C
  5
6A7C
331
6ABB
  5
6ABB
331
77CE
  5
78BF
331
75D7
  5
75D7
331
74CA
  5
74CA
331
7529
  5
7529
331
7483
  5
7483
331
7598
  5
7598
331
7247
  5
7247
331
7286
  5
7286
331
72C5
  5
72C5
331
724F
  5
724F
331
6B39
  5
6B39
331
6AFA
  5
6AFA
331
6AC3
  5
6AC3
331
6A84
  5
6A84
331
78BE
  5
7719
331
75DF
  5
75DF
331
75A0
  5
75A0
331
7100
  5
7100
331
728E
  5
728E
331
72CD
  5
72CD
331
6B02
  5
6B02
331
6A8C
  5
6A8C
331
7257
  5
7257
331
7296
  5
7296
331
75A8
  5
75A8
331
748B
  5
748B
331
74FA
  5
74FA
331
72D5
  5
72D5
331
7531
  5
7531
331
6ACB
  5
6ACB
331
6B0A
  5
6B0A
331
6A94
  5
6A94
331
75B0
  5
75B0
331
7493
  5
7493
331
7502
  5
7502
331
72DD
  5
72DD
331
745C
  5
745C
331
7539
  5
7539
331
7220
  5
7220
331
725F
  5
725F
331
729E
  5
729E
331
7228
  5
7228
331
6B12
  5
6B12
331
6AD3
  5
6AD3
331
6A9C
  5
6A9C
331
75B8
  5
75B8
331
74AB
  5
74AB
331
750A
  5
750A
331
72E5
  5
72E5
331
7541
  5
7541
331
6C19
  5
6C19
331
7267
  5
7267
331
72A6
  5
72A6
331
7230
  5
7230
331
6ADB
  5
6ADB
331
6B1A
  5
6B1A
331
6AA4
  5
6AA4
331
75C0
  5
75C0
331
74B3
  5
74B3
331
7512
  5
7512
331
72ED
  5
72ED
331
746C
  5
746C
331
7549
  5
7549
331
6C21
  5
6C21
331
726F
  5
726F
331
72AE
  5
72AE
331
7238
  5
7238
331
6B22
  5
6B22
331
6AE3
  5
6AE3
331
6A6D
  5
6A6D
331
6AAC
  5
6AAC
331
6C29
  5
6C29
331
7277
  5
7277
331
72B6
  5
72B6
331
74BB
  5
74BB
331
7474
  5
7474
331
75C8
  5
75C8
331
6B2A
  5
6B2A
331
6AEB
  5
6AEB
331
6AB4
  5
6AB4
331
6A75
  5
6A75
331
77C7
  5
77CB
331
74C3
  5
74C3
331
747C
  5
747C
331
75D0
  5
75D0
331
6C31
  5
6C31
331
7240
  5
7240
331
727F
  5
727F
331
72BE
  5
72BE
331
6AF3
  5
6AF3
331
6B32
  5
6B32
331
6ABC
  5
6ABC
331
6A7D
  5
6A7D
331
75D8
  5
75D8
331
74CB
  5
74CB
331
752A
  5
752A
331
7484
  5
7484
331
7599
  5
7599
331
7248
  5
7248
331
7287
  5
7287
331
72C6
  5
72C6
331
6B3A
  5
6B3A
331
6AFB
  5
6AFB
331
6AC4
  5
6AC4
331
6A85
  5
6A85
331
78BF
  5
77C0
331
75A1
  5
75A1
331
7250
  5
7250
331
728F
  5
728F
331
72CE
  5
72CE
331
6B03
  5
6B03
331
6A8D
  5
6A8D
331
7219
  5
7219
331
7297
  5
7297
331
75E0
  5
75E0
331
75A9
  5
75A9
331
748C
  5
748C
331
74FB
  5
74FB
331
72D6
  5
72D6
331
7532
  5
7532
331
7258
  5
7258
331
7221
  5
7221
331
6ACC
  5
6ACC
331
6B0B
  5
6B0B
331
6A95
  5
6A95
331
7668
  5
77C1
331
75B1
  5
75B1
331
7494
  5
7494
331
7503
  5
7503
331
72DE
  5
72DE
331
745D
  5
745D
331
753A
  5
753A
331
7260
  5
7260
331
729F
  5
729F
331
6C1A
  5
6C1A
331
7229
  5
7229
331
6B13
  5
6B13
331
6AD4
  5
6AD4
331
6A9D
  5
6A9D
331
75B9
  5
75B9
331
74AC
  5
74AC
331
750B
  5
750B
331
72E6
  5
72E6
331
7465
  5
7465
331
7542
  5
7542
331
72A7
  5
72A7
331
7268
  5
7268
331
6C22
  5
6C22
331
7231
  5
7231
331
6ADC
  5
6ADC
331
6B1B
  5
6B1B
331
6AA5
  5
6AA5
331
75C1
  5
75C1
331
74B4
  5
74B4
331
7513
  5
7513
331
72EE
  5
72EE
331
746D
  5
746D
331
754A
  5
754A
331
7270
  5
7270
331
72AF
  5
72AF
331
6C2A
  5
6C2A
331
7239
  5
7239
331
6B23
  5
6B23
331
6AE4
  5
6AE4
331
6AAD
  5
6AAD
331
6A6E
  5
6A6E
331
72B7
  5
72B7
331
77C0
  5
77C5
331
75C9
  5
75C9
331
74BC
  5
74BC
331
7475
  5
7475
331
7552
  5
7552
331
7278
  5
7278
331
6C32
  5
6C32
331
7241
  5
7241
331
6B2B
  5
6B2B
331
6AEC
  5
6AEC
331
6AB5
  5
6AB5
331
6A76
  5
6A76
331
77C8
  5
77CC
331
74C4
  5
74C4
331
747D
  5
747D
331
75D1
  5
75D1
331
7280
  5
7280
331
72BF
  5
72BF
331
7249
  5
7249
331
6AF4
  5
6AF4
331
6B33
  5
6B33
331
6ABD
  5
6ABD
331
6A7E
  5
6A7E
331
75D9
  5
75D9
331
74CC
  5
74CC
331
752B
  5
752B
331
7485
  5
7485
331
759A
  5
759A
331
72C7
  5
72C7
331
7288
  5
7288
331
7102
  5
7102
331
7251
  5
7251
331
6B3B
  5
6B3B
331
6AFC
  5
6AFC
331
6AC5
  5
6AC5
331
6A86
  5
6A86
331
75A2
  5
75A2
331
7290
  5
7290
331
72CF
  5
72CF
331
721A
  5
721A
331
6B04
  5
6B04
331
6A8E
  5
6A8E
331
75E1
  5
75E1
331
748D
  5
748D
331
74FC
  5
74FC
331
72D7
  5
72D7
331
7533
  5
7533
331
75AA
  5
75AA
331
7259
  5
7259
331
7298
  5
7298
331
6C13
  5
6C13
331
7222
  5
7222
331
6ACD
  5
6ACD
331
6B0C
  5
6B0C
331
7495
  5
7495
331
7504
  5
7504
331
745E
  5
745E
331
72DF
  5
72DF
331
753B
  5
753B
331
75B2
  5
75B2
331
6A96
  5
6A96
331
7261
  5
7261
331
72A0
  5
72A0
331
6C1B
  5
6C1B
331
722A
  5
722A
331
6B14
  5
6B14
331
6AD5
  5
6AD5
331
74AD
  5
74AD
331
750C
  5
750C
331
7466
  5
7466
331
72E7
  5
72E7
331
7543
  5
7543
331
75BA
  5
75BA
331
6A9E
  5
6A9E
331
7269
  5
7269
331
72A8
  5
72A8
331
6C23
  5
6C23
331
7232
  5
7232
331
6ADD
  5
6ADD
331
6B1C
  5
6B1C
331
7719
  5
77C3
331
74B5
  5
74B5
331
7514
  5
7514
331
746E
  5
746E
331
72EF
  5
72EF
331
754B
  5
754B
331
75C2
  5
75C2
331
6AA6
  5
6AA6
331
7271
  5
7271
331
72B0
  5
72B0
331
6C2B
  5
6C2B
331
723A
  5
723A
331
6B24
  5
6B24
331
6AE5
  5
6AE5
331
6AAE
  5
6AAE
331
6A6F
  5
6A6F
331
77C1
  5
77C6
331
75CA
  5
75CA
331
74BD
  5
74BD
331
7476
  5
7476
331
7553
  5
7553
331
7279
  5
7279
331
72B8
  5
72B8
331
6C33
  5
6C33
331
7242
  5
7242
331
6B2C
  5
6B2C
331
6AED
  5
6AED
331
6AB6
  5
6AB6
331
77C9
  5
77CD
331
74C5
  5
74C5
331
7524
  5
7524
331
747E
  5
747E
331
72FF
  5
72FF
331
75D2
  5
75D2
331
6A77
  5
6A77
331
7281
  5
7281
331
72C0
  5
72C0
331
724A
  5
724A
331
6B34
  5
6B34
331
6AF5
  5
6AF5
331
6ABE
  5
6ABE
331
75DA
  5
75DA
331
74CD
  5
74CD
331
752C
  5
752C
331
7486
  5
7486
331
759B
  5
759B
331
6A7F
  5
6A7F
331
7289
  5
7289
331
72C8
  5
72C8
331
7252
  5
7252
331
6B3C
  5
6B3C
331
6AFD
  5
6AFD
331
6AC6
  5
6AC6
331
75A3
  5
75A3
331
6A87
  5
6A87
331
7291
  5
7291
331
721B
  5
721B
331
6B05
  5
6B05
331
6A8F
  5
6A8F
331
72D0
  5
72D0
331
75E2
  5
75E2
331
75AB
  5
75AB
331
748E
  5
748E
331
74FD
  5
74FD
331
7457
  5
7457
331
72D8
  5
72D8
331
7534
  5
7534
331
725A
  5
725A
331
7299
  5
7299
331
6ACE
  5
6ACE
331
6B0D
  5
6B0D
331
6A97
  5
6A97
331
75B3
  5
75B3
331
7505
  5
7505
331
745F
  5
745F
331
753C
  5
753C
331
72E0
  5
72E0
331
6C14
  5
6C14
331
7223
  5
7223
331
7262
  5
7262
331
72A1
  5
72A1
331
6B15
  5
6B15
331
6AD6
  5
6AD6
331
6A9F
  5
6A9F
331
75BB
  5
75BB
331
74AE
  5
74AE
331
750D
  5
750D
331
7467
  5
7467
331
72E8
  5
72E8
331
7544
  5
7544
331
6C1C
  5
6C1C
331
722B
  5
722B
331
726A
  5
726A
331
72A9
  5
72A9
331
6ADE
  5
6ADE
331
6B1D
  5
6B1D
331
6AA7
  5
6AA7
331
75C3
  5
75C3
331
74B6
  5
74B6
331
7515
  5
7515
331
754C
  5
754C
331
6C24
  5
6C24
331
7233
  5
7233
331
7272
  5
7272
331
72B1
  5
72B1
331
6B25
  5
6B25
331
6AE6
  5
6AE6
331
6AAF
  5
6AAF
331
6C2C
  5
6C2C
331
723B
  5
723B
331
72F0
  5
72F0
331
6A70
  5
6A70
331
77C2
  5
77C7
331
75CB
  5
75CB
331
74BE
  5
74BE
331
7477
  5
7477
331
7554
  5
7554
331
727A
  5
727A
331
72B9
  5
72B9
331
6B2D
  5
6B2D
331
6AEE
  5
6AEE
331
6AB7
  5
6AB7
331
6A78
  5
6A78
331
77CA
  5
77CE
331
75D3
  5
75D3
331
74C6
  5
74C6
331
7525
  5
7525
331
747F
  5
747F
331
7594
  5
7594
331
6C34
  5
6C34
331
7243
  5
7243
331
7282
  5
7282
331
72C1
  5
72C1
331
6B35
  5
6B35
331
6AF6
  5
6AF6
331
6ABF
  5
6ABF
331
6A80
  5
6A80
331
75DB
  5
75DB
331
74CE
  5
74CE
331
752D
  5
752D
331
7487
  5
7487
331
759C
  5
759C
331
724B
  5
724B
331
728A
  5
728A
331
72C9
  5
72C9
331
6AFE
  5
6AFE
331
6B3D
  5
6B3D
331
6A88
  5
6A88
331
6AC7
  5
6AC7
331
74F6
  5
74F6
331
75A4
  5
75A4
331
7253
  5
7253
331
7292
  5
7292
331
6B06
  5
6B06
331
721C
  5
721C
331
72D1
  5
72D1
331
6A90
  5
6A90
331
75E3
  5
75E3
331
75AC
  5
75AC
331
748F
  5
748F
331
74FE
  5
74FE
331
72D9
  5
72D9
331
7535
  5
7535
331
725B
  5
725B
331
729A
  5
729A
331
7224
  5
7224
331
6ACF
  5
6ACF
331
6B0E
  5
6B0E
331
6A98
  5
6A98
331
75B4
  5
75B4
331
7506
  5
7506
331
753D
  5
753D
331
72E1
  5
72E1
331
7460
  5
7460
331
6C15
  5
6C15
331
7263
  5
7263
331
72A2
  5
72A2
331
722C
  5
722C
331
6B16
  5
6B16
331
6AD7
  5
6AD7
331
6AA0
  5
6AA0
331
770B
  5
77C2
331
74AF
  5
74AF
331
750E
  5
750E
331
72E9
  5
72E9
331
7468
  5
7468
331
75BC
  5
75BC
331
6C1D
  5
6C1D
331
726B
  5
726B
331
72AA
  5
72AA
331
7234
  5
7234
331
6ADF
  5
6ADF
331
6B1E
  5
6B1E
331
6A69
  5
6A69
331
6AA8
  5
6AA8
331
75C4
  5
75C4
331
74B7
  5
74B7
331
7516
  5
7516
331
754D
  5
754D
331
6C25
  5
6C25
331
7273
  5
7273
331
72B2
  5
72B2
331
723C
  5
723C
331
6B26
  5
6B26
331
6AE7
  5
6AE7
331
6C2D
  5
6C2D
331
72F1
  5
72F1
331
6A71
  5
6A71
331
6AB0
  5
6AB0
331
77C3
  5
77C8
331
75CC
  5
75CC
331
74BF
  5
74BF
331
7478
  5
7478
331
7555
  5
7555
331
727B
  5
727B
331
72BA
  5
72BA
331
6B2E
  5
6B2E
331
6AEF
  5
6AEF
331
6A79
  5
6A79
331
6AB8
  5
6AB8
331
77CB
  5
78BA
331
75D4
  5
75D4
331
74C7
  5
74C7
331
7526
  5
7526
331
7595
  5
7595
331
7480
  5
7480
331
6C35
  5
6C35
331
7244
  5
7244
331
7283
  5
7283
331
72C2
  5
72C2
331
6B36
  5
6B36
331
6AF7
  5
6AF7
331
6A81
  5
6A81
331
6AC0
  5
6AC0
331
75DC
  5
75DC
331
752E
  5
752E
331
759D
  5
759D
331
70FD
  5
70FD
331
724C
  5
724C
331
728B
  5
728B
331
72CA
  5
72CA
331
6AFF
  5
6AFF
331
6A89
  5
6A89
331
74F7
  5
74F7
331
75A5
  5
75A5
331
7254
  5
7254
331
7293
  5
7293
331
6B07
  5
6B07
331
721D
  5
721D
331
7488
  5
7488
331
72D2
  5
72D2
331
6AC8
  5
6AC8
331
6A91
  5
6A91
331
75AD
  5
75AD
331
7490
  5
7490
331
74FF
  5
74FF
331
72DA
  5
72DA
331
7536
  5
7536
331
725C
  5
725C
331
729B
  5
729B
331
6C16
  5
6C16
331
7225
  5
7225
331
6B0F
  5
6B0F
331
6A99
  5
6A99
331
75B5
  5
75B5
331
7507
  5
7507
331
753E
  5
753E
331
74A8
  5
74A8
331
72E2
  5
72E2
331
7461
  5
7461
331
7264
  5
7264
331
72A3
  5
72A3
331
6C1E
  5
6C1E
331
722D
  5
722D
331
6B17
  5
6B17
331
6AD8
  5
6AD8
331
6AA1
  5
6AA1
331
75BD
  5
75BD
331
74B0
  5
74B0
331
750F
  5
750F
331
72EA
  5
72EA
331
7469
  5
7469
331
7546
  5
7546
331
726C
  5
726C
331
72AB
  5
72AB
331
6C26
  5
6C26
331
7235
  5
7235
331
6AE0
  5
6AE0
331
6B1F
  5
6B1F
331
6AA9
  5
6AA9
331
6A6A
  5
6A6A
331
75C5
  5
75C5
331
7517
  5
7517
331
754E
  5
754E
331
7274
  5
7274
331
72B3
  5
72B3
331
6C2E
  5
6C2E
331
723D
  5
723D
331
6B27
  5
6B27
331
74B8
  5
74B8
331
7471
  5
7471
331
6AE8
  5
6AE8
331
6A72
  5
6A72
331
6AB1
  5
6AB1
331
74C0
  5
74C0
331
7556
  5
7556
331
75CD
  5
75CD
331
727C
  5
727C
331
72BB
  5
72BB
331
7245
  5
7245
331
6AF0
  5
6AF0
331
6B2F
  5
6B2F
331
6A7A
  5
6A7A
331
6AB9
  5
6AB9
331
77CC
  5
78BD
331
7527
  5
7527
331
7596
  5
7596
331
75D5
  5
75D5
331
74C8
  5
74C8
331
7284
  5
7284
331
72C3
  5
72C3
331
724D
  5
724D
331
6B37
  5
6B37
331
6AF8
  5
6AF8
331
6A82
  5
6A82
331
6AC1
  5
6AC1
331
752F
  5
752F
331
759E
  5
759E
331
75DD
  5
75DD
331
728C
  5
728C
331
72CB
  5
72CB
331
7255
  5
7255
331
6B00
  5
6B00
331
6A8A
  5
6A8A
331
75A6
  5
75A6
331
7294
  5
7294
331
721E
  5
721E
  0
GROUP
  5
334E
102
{ACAD_REACTORS
330
D
102
}
330
D
100
AcDbGroup
300

 70
     1
 71
     1
  0
GROUP
  5
33B7
102
{ACAD_REACTORS
330
D
102
}
330
D
100
AcDbGroup
300

 70
     1
 71
     1
  0
GROUP
  5
33CC
102
{ACAD_REACTORS
330
D
102
}
330
D
100
AcDbGroup
300

 70
     1
 71
     1
  0
GROUP
  5
33E1
102
{ACAD_REACTORS
330
D
102
}
330
D
100
AcDbGroup
300

 70
     1
 71
     1
  0
GROUP
  5
33F6
102
{ACAD_REACTORS
330
D
102
}
330
D
100
AcDbGroup
300

 70
     1
 71
     1
  0
GROUP
  5
340B
102
{ACAD_REACTORS
330
D
102
}
330
D
100
AcDbGroup
300

 70
     1
 71
     1
  0
GROUP
  5
3420
102
{ACAD_REACTORS
330
D
102
}
330
D
100
AcDbGroup
300

 70
     1
 71
     1
  0
GROUP
  5
3435
102
{ACAD_REACTORS
330
D
102
}
330
D
100
AcDbGroup
300

 70
     1
 71
     1
  0
GROUP
  5
344A
102
{ACAD_REACTORS
330
D
102
}
330
D
100
AcDbGroup
300

 70
     1
 71
     1
  0
GROUP
  5
345F
102
{ACAD_REACTORS
330
D
102
}
330
D
100
AcDbGroup
300

 70
     1
 71
     1
  0
GROUP
  5
3474
102
{ACAD_REACTORS
330
D
102
}
330
D
100
AcDbGroup
300

 70
     1
 71
     1
  0
GROUP
  5
3489
102
{ACAD_REACTORS
330
D
102
}
330
D
100
AcDbGroup
300

 70
     1
 71
     1
  0
GROUP
  5
3363
102
{ACAD_REACTORS
330
D
102
}
330
D
100
AcDbGroup
300

 70
     1
 71
     1
  0
GROUP
  5
3378
102
{ACAD_REACTORS
330
D
102
}
330
D
100
AcDbGroup
300

 70
     1
 71
     1
  0
GROUP
  5
338D
102
{ACAD_REACTORS
330
D
102
}
330
D
100
AcDbGroup
300

 70
     1
 71
     1
  0
GROUP
  5
33A2
102
{ACAD_REACTORS
330
D
102
}
330
D
100
AcDbGroup
300

 70
     1
 71
     1
  0
LAYOUT
  5
1E
102
{ACAD_XDICTIONARY
360
897C
102
}
102
{ACAD_REACTORS
330
1A
102
}
330
1A
100
AcDbPlotSettings
  1

  2
Microsoft Office Document Image Writer
  4

  6

 40
0.0
 41
0.0
 42
0.0
 43
0.0
 44
0.0
 45
0.0
 46
0.0
 47
0.0
 48
0.0
 49
0.0
140
0.0
141
0.0
142
1.0
143
1.0
 70
   688
 72
     0
 73
     0
 74
     5
  7
monochromeII.ctb
 75
    16
147
1.0
148
0.0
149
0.0
100
AcDbLayout
  1
Layout1
 70
     1
 71
     1
 10
0.0
 20
0.0
 11
12.0
 21
9.0
 12
0.0
 22
0.0
 32
0.0
 14
1.000000000000000E+20
 24
1.000000000000000E+20
 34
1.000000000000000E+20
 15
-1.000000000000000E+20
 25
-1.000000000000000E+20
 35
-1.000000000000000E+20
146
0.0
 13
0.0
 23
0.0
 33
0.0
 16
1.0
 26
0.0
 36
0.0
 17
0.0
 27
1.0
 37
0.0
 76
     0
330
1B
  0
LAYOUT
  5
26
102
{ACAD_XDICTIONARY
360
8980
102
}
102
{ACAD_REACTORS
330
1A
102
}
330
1A
100
AcDbPlotSettings
  1

  2
Microsoft Office Document Image Writer
  4

  6

 40
0.0
 41
0.0
 42
0.0
 43
0.0
 44
0.0
 45
0.0
 46
0.0
 47
0.0
 48
0.0
 49
0.0
140
0.0
141
0.0
142
1.0
143
1.0
 70
   688
 72
     0
 73
     0
 74
     5
  7
monochromeII.ctb
 75
    16
147
1.0
148
0.0
149
0.0
100
AcDbLayout
  1
Layout2
 70
     1
 71
     2
 10
0.0
 20
0.0
 11
12.0
 21
9.0
 12
0.0
 22
0.0
 32
0.0
 14
0.0
 24
0.0
 34
0.0
 15
0.0
 25
0.0
 35
0.0
146
0.0
 13
0.0
 23
0.0
 33
0.0
 16
1.0
 26
0.0
 36
0.0
 17
0.0
 27
1.0
 37
0.0
 76
     0
330
23
  0
LAYOUT
  5
22
102
{ACAD_XDICTIONARY
360
897E
102
}
102
{ACAD_REACTORS
330
1A
102
}
330
1A
100
AcDbPlotSettings
  1

  2
Default Windows System Printer.pc3
  4
11x17
  6

 40
4.857749938964843
 41
4.857734680175781
 42
4.85772705078125
 43
4.857757568359375
 44
279.3999938964844
 45
431.7999877929687
 46
0.0
 47
2.649666526100765
 48
0.0
 49
0.0
140
0.0
141
0.0
142
1.0
143
2.072177197471839
 70
 11956
 72
     0
 73
     1
 74
     1
  7
monochromeII.ctb
 75
     0
147
0.4825842120162553
148
0.0263525400471963
149
0.0170517658604823
100
AcDbLayout
  1
Model
 70
     1
 71
     0
 10
0.0
 20
0.0
 11
12.0
 21
9.0
 12
0.0
 22
0.0
 32
0.0
 14
0.0
 24
0.0
 34
0.0
 15
0.0
 25
0.0
 35
0.0
146
0.0
 13
0.0
 23
0.0
 33
0.0
 16
1.0
 26
0.0
 36
0.0
 17
0.0
 27
1.0
 37
0.0
 76
     0
330
1F
331
31
1001
ACAD_PSEXT
1000
Default Windows System Printer.pc3
1000
Xerox WorkCentre 7335 PS
1000
Engineering Office
1000

1070
     0
  0
MATERIAL
  5
3C
102
{ACAD_XDICTIONARY
360
3D
102
}
102
{ACAD_REACTORS
330
33
102
}
330
33
100
AcDbMaterial
  1
ByBlock
 72
     0
 43
0.0208333333333333
 43
0.0
 43
0.0
 43
0.0
 43
0.0
 43
0.0208333333333333
 43
0.0
 43
0.0
 43
0.0
 43
0.0
 43
1.0
 43
0.0
 43
0.0
 43
0.0
 43
0.0
 43
1.0
 77
     0
 47
0.0208333333333333
 47
0.0
 47
0.0
 47
0.0
 47
0.0
 47
0.0208333333333333
 47
0.0
 47
0.0
 47
0.0
 47
0.0
 47
1.0
 47
0.0
 47
0.0
 47
0.0
 47
0.0
 47
1.0
171
     0
 49
0.0208333333333333
 49
0.0
 49
0.0
 49
0.0
 49
0.0
 49
0.0208333333333333
 49
0.0
 49
0.0
 49
0.0
 49
0.0
 49
1.0
 49
0.0
 49
0.0
 49
0.0
 49
0.0
 49
1.0
175
     0
142
0.0208333333333333
142
0.0
142
0.0
142
0.0
142
0.0
142
0.0208333333333333
142
0.0
142
0.0
142
0.0
142
0.0
142
1.0
142
0.0
142
0.0
142
0.0
142
0.0
142
1.0
179
     0
144
0.0208333333333333
144
0.0
144
0.0
144
0.0
144
0.0
144
0.0208333333333333
144
0.0
144
0.0
144
0.0
144
0.0
144
1.0
144
0.0
144
0.0
144
0.0
144
0.0
144
1.0
147
0.0208333333333333
147
0.0
147
0.0
147
0.0
147
0.0
147
0.0208333333333333
147
0.0
147
0.0
147
0.0
147
0.0
147
1.0
147
0.0
147
0.0
147
0.0
147
0.0
147
1.0
  0
MATERIAL
  5
34
102
{ACAD_XDICTIONARY
360
35
102
}
102
{ACAD_REACTORS
330
33
102
}
330
33
100
AcDbMaterial
  1
ByLayer
 72
     0
 43
0.0208333333333333
 43
0.0
 43
0.0
 43
0.0
 43
0.0
 43
0.0208333333333333
 43
0.0
 43
0.0
 43
0.0
 43
0.0
 43
1.0
 43
0.0
 43
0.0
 43
0.0
 43
0.0
 43
1.0
 77
     0
 47
0.0208333333333333
 47
0.0
 47
0.0
 47
0.0
 47
0.0
 47
0.0208333333333333
 47
0.0
 47
0.0
 47
0.0
 47
0.0
 47
1.0
 47
0.0
 47
0.0
 47
0.0
 47
0.0
 47
1.0
171
     0
 49
0.0208333333333333
 49
0.0
 49
0.0
 49
0.0
 49
0.0
 49
0.0208333333333333
 49
0.0
 49
0.0
 49
0.0
 49
0.0
 49
1.0
 49
0.0
 49
0.0
 49
0.0
 49
0.0
 49
1.0
175
     0
142
0.0208333333333333
142
0.0
142
0.0
142
0.0
142
0.0
142
0.0208333333333333
142
0.0
142
0.0
142
0.0
142
0.0
142
1.0
142
0.0
142
0.0
142
0.0
142
0.0
142
1.0
179
     0
144
0.0208333333333333
144
0.0
144
0.0
144
0.0
144
0.0
144
0.0208333333333333
144
0.0
144
0.0
144
0.0
144
0.0
144
1.0
144
0.0
144
0.0
144
0.0
144
0.0
144
1.0
147
0.0208333333333333
147
0.0
147
0.0
147
0.0
147
0.0
147
0.0208333333333333
147
0.0
147
0.0
147
0.0
147
0.0
147
1.0
147
0.0
147
0.0
147
0.0
147
0.0
147
1.0
  0
MATERIAL
  5
44
102
{ACAD_XDICTIONARY
360
45
102
}
102
{ACAD_REACTORS
330
33
102
}
330
33
100
AcDbMaterial
  1
Global
 72
     0
 43
0.0208333333333333
 43
0.0
 43
0.0
 43
0.0
 43
0.0
 43
0.0208333333333333
 43
0.0
 43
0.0
 43
0.0
 43
0.0
 43
1.0
 43
0.0
 43
0.0
 43
0.0
 43
0.0
 43
1.0
 77
     0
 47
0.0208333333333333
 47
0.0
 47
0.0
 47
0.0
 47
0.0
 47
0.0208333333333333
 47
0.0
 47
0.0
 47
0.0
 47
0.0
 47
1.0
 47
0.0
 47
0.0
 47
0.0
 47
0.0
 47
1.0
171
     0
 49
0.0208333333333333
 49
0.0
 49
0.0
 49
0.0
 49
0.0
 49
0.0208333333333333
 49
0.0
 49
0.0
 49
0.0
 49
0.0
 49
1.0
 49
0.0
 49
0.0
 49
0.0
 49
0.0
 49
1.0
175
     0
142
0.0208333333333333
142
0.0
142
0.0
142
0.0
142
0.0
142
0.0208333333333333
142
0.0
142
0.0
142
0.0
142
0.0
142
1.0
142
0.0
142
0.0
142
0.0
142
0.0
142
1.0
179
     0
144
0.0208333333333333
144
0.0
144
0.0
144
0.0
144
0.0
144
0.0208333333333333
144
0.0
144
0.0
144
0.0
144
0.0
144
1.0
144
0.0
144
0.0
144
0.0
144
0.0
144
1.0
147
0.0208333333333333
147
0.0
147
0.0
147
0.0
147
0.0
147
0.0208333333333333
147
0.0
147
0.0
147
0.0
147
0.0
147
1.0
147
0.0
147
0.0
147
0.0
147
0.0
147
1.0
  0
MLEADERSTYLE
  5
83
102
{ACAD_REACTORS
330
82
102
}
330
82
100
AcDbMLeaderStyle
170
     2
171
     1
172
     0
 90
        2
 40
0.0
 41
0.0
173
     1
 91
-1056964608
340
14
 92
       -2
290
     1
 42
0.09
291
     1
 43
0.36
  3
Standard
 44
0.18
300

342
11
174
     1
178
     6
175
     1
176
     0
 93
-1056964608
 45
0.18
292
     0
297
     0
 46
0.18
 94
-1056964608
 47
1.0
 49
1.0
140
1.0
293
     1
141
0.0
294
     1
177
     0
142
1.0
295
     0
296
     0
143
0.125
1001
ACAD_MLEADERVER
1070
     2
  0
MLINESTYLE
  5
18
102
{ACAD_REACTORS
330
17
102
}
330
17
100
AcDbMlineStyle
  2
STANDARD
 70
     0
  3

 62
   256
 51
90.0
 52
90.0
 71
     2
 49
0.5
 62
   256
  6
BYLAYER
 49
-0.5
 62
   256
  6
BYLAYER
  0
ACDBPLACEHOLDER
  5
F
102
{ACAD_REACTORS
330
E
102
}
330
E
  0
SCALE
  5
61
102
{ACAD_REACTORS
330
60
102
}
330
60
100
AcDbScale
 70
     0
300
1:1
140
1.0
141
1.0
290
     1
  0
SCALE
  5
62
102
{ACAD_REACTORS
330
60
102
}
330
60
100
AcDbScale
 70
     0
300
1:2
140
1.0
141
2.0
290
     0
  0
SCALE
  5
63
102
{ACAD_REACTORS
330
60
102
}
330
60
100
AcDbScale
 70
     0
300
1:4
140
1.0
141
4.0
290
     0
  0
SCALE
  5
64
102
{ACAD_REACTORS
330
60
102
}
330
60
100
AcDbScale
 70
     0
300
1:5
140
1.0
141
5.0
290
     0
  0
SCALE
  5
65
102
{ACAD_REACTORS
330
60
102
}
330
60
100
AcDbScale
 70
     0
300
1:8
140
1.0
141
8.0
290
     0
  0
SCALE
  5
66
102
{ACAD_REACTORS
330
60
102
}
330
60
100
AcDbScale
 70
     0
300
1:10
140
1.0
141
10.0
290
     0
  0
SCALE
  5
67
102
{ACAD_REACTORS
330
60
102
}
330
60
100
AcDbScale
 70
     0
300
1:16
140
1.0
141
16.0
290
     0
  0
SCALE
  5
68
102
{ACAD_REACTORS
330
60
102
}
330
60
100
AcDbScale
 70
     0
300
1:20
140
1.0
141
20.0
290
     0
  0
SCALE
  5
69
102
{ACAD_REACTORS
330
60
102
}
330
60
100
AcDbScale
 70
     0
300
1:30
140
1.0
141
30.0
290
     0
  0
SCALE
  5
6A
102
{ACAD_REACTORS
330
60
102
}
330
60
100
AcDbScale
 70
     0
300
1:40
140
1.0
141
40.0
290
     0
  0
SCALE
  5
6B
102
{ACAD_REACTORS
330
60
102
}
330
60
100
AcDbScale
 70
     0
300
1:50
140
1.0
141
50.0
290
     0
  0
SCALE
  5
6C
102
{ACAD_REACTORS
330
60
102
}
330
60
100
AcDbScale
 70
     0
300
1:100
140
1.0
141
100.0
290
     0
  0
SCALE
  5
6D
102
{ACAD_REACTORS
330
60
102
}
330
60
100
AcDbScale
 70
     0
300
2:1
140
2.0
141
1.0
290
     0
  0
SCALE
  5
6E
102
{ACAD_REACTORS
330
60
102
}
330
60
100
AcDbScale
 70
     0
300
4:1
140
4.0
141
1.0
290
     0
  0
SCALE
  5
6F
102
{ACAD_REACTORS
330
60
102
}
330
60
100
AcDbScale
 70
     0
300
8:1
140
8.0
141
1.0
290
     0
  0
SCALE
  5
70
102
{ACAD_REACTORS
330
60
102
}
330
60
100
AcDbScale
 70
     0
300
10:1
140
10.0
141
1.0
290
     0
  0
SCALE
  5
71
102
{ACAD_REACTORS
330
60
102
}
330
60
100
AcDbScale
 70
     0
300
100:1
140
100.0
141
1.0
290
     0
  0
SCALE
  5
72
102
{ACAD_REACTORS
330
60
102
}
330
60
100
AcDbScale
 70
     0
300
1/128" = 1'-0"
140
0.0078125
141
12.0
290
     0
  0
SCALE
  5
73
102
{ACAD_REACTORS
330
60
102
}
330
60
100
AcDbScale
 70
     0
300
1/64" = 1'-0"
140
0.015625
141
12.0
290
     0
  0
SCALE
  5
74
102
{ACAD_REACTORS
330
60
102
}
330
60
100
AcDbScale
 70
     0
300
1/32" = 1'-0"
140
0.03125
141
12.0
290
     0
  0
SCALE
  5
75
102
{ACAD_REACTORS
330
60
102
}
330
60
100
AcDbScale
 70
     0
300
1/16" = 1'-0"
140
0.0625
141
12.0
290
     0
  0
SCALE
  5
76
102
{ACAD_REACTORS
330
60
102
}
330
60
100
AcDbScale
 70
     0
300
3/32" = 1'-0"
140
0.09375
141
12.0
290
     0
  0
SCALE
  5
77
102
{ACAD_REACTORS
330
60
102
}
330
60
100
AcDbScale
 70
     0
300
1/8" = 1'-0"
140
0.125
141
12.0
290
     0
  0
SCALE
  5
78
102
{ACAD_REACTORS
330
60
102
}
330
60
100
AcDbScale
 70
     0
300
3/16" = 1'-0"
140
0.1875
141
12.0
290
     0
  0
SCALE
  5
79
102
{ACAD_REACTORS
330
60
102
}
330
60
100
AcDbScale
 70
     0
300
1/4" = 1'-0"
140
0.25
141
12.0
290
     0
  0
SCALE
  5
7A
102
{ACAD_REACTORS
330
60
102
}
330
60
100
AcDbScale
 70
     0
300
3/8" = 1'-0"
140
0.375
141
12.0
290
     0
  0
SCALE
  5
7B
102
{ACAD_REACTORS
330
60
102
}
330
60
100
AcDbScale
 70
     0
300
1/2" = 1'-0"
140
0.5
141
12.0
290
     0
  0
SCALE
  5
7C
102
{ACAD_REACTORS
330
60
102
}
330
60
100
AcDbScale
 70
     0
300
3/4" = 1'-0"
140
0.75
141
12.0
290
     0
  0
SCALE
  5
7D
102
{ACAD_REACTORS
330
60
102
}
330
60
100
AcDbScale
 70
     0
300
1" = 1'-0"
140
1.0
141
12.0
290
     0
  0
SCALE
  5
7E
102
{ACAD_REACTORS
330
60
102
}
330
60
100
AcDbScale
 70
     0
300
1-1/2" = 1'-0"
140
1.5
141
12.0
290
     0
  0
SCALE
  5
7F
102
{ACAD_REACTORS
330
60
102
}
330
60
100
AcDbScale
 70
     0
300
3" = 1'-0"
140
3.0
141
12.0
290
     0
  0
SCALE
  5
80
102
{ACAD_REACTORS
330
60
102
}
330
60
100
AcDbScale
 70
     0
300
6" = 1'-0"
140
6.0
141
12.0
290
     0
  0
SCALE
  5
81
102
{ACAD_REACTORS
330
60
102
}
330
60
100
AcDbScale
 70
     0
300
1'-0" = 1'-0"
140
12.0
141
12.0
290
     0
  0
TABLESTYLE
  5
5F
102
{ACAD_XDICTIONARY
360
87
102
}
102
{ACAD_REACTORS
330
5E
102
}
330
5E
100
AcDbTableStyle
  3
Standard
 70
     0
 71
     0
 40
0.06
 41
0.06
280
     0
281
     0
  7
Standard
140
0.18
170
     2
 62
     0
 63
     7
283
     0
274
    -2
284
     1
 64
     0
275
    -2
285
     1
 65
     0
276
    -2
286
     1
 66
     0
277
    -2
287
     1
 67
     0
278
    -2
288
     1
 68
     0
279
    -2
289
     1
 69
     0
  7
Standard
140
0.25
170
     5
 62
     0
 63
     7
283
     0
274
    -2
284
     1
 64
     0
275
    -2
285
     1
 65
     0
276
    -2
286
     1
 66
     0
277
    -2
287
     1
 67
     0
278
    -2
288
     1
 68
     0
279
    -2
289
     1
 69
     0
  7
Standard
140
0.18
170
     5
 62
     0
 63
     7
283
     0
274
    -2
284
     1
 64
     0
275
    -2
285
     1
 65
     0
276
    -2
286
     1
 66
     0
277
    -2
287
     1
 67
     0
278
    -2
288
     1
 68
     0
279
    -2
289
     1
 69
     0
  0
VISUALSTYLE
  5
52
102
{ACAD_XDICTIONARY
360
894B
102
}
102
{ACAD_REACTORS
330
4C
102
}
330
4C
100
AcDbVisualStyle
  2
2dWireframe
 70
     4
 71
     0
 72
     2
 73
     0
 90
        0
 40
-0.6
 41
-30.0
 62
     5
 63
     7
 74
     1
 91
        4
 64
     7
 65
   257
 75
     1
175
     1
 42
1.0
 92
        0
 66
   257
 43
1.0
 76
     1
 77
     6
 78
     2
 67
     7
 79
     5
170
     0
171
     0
290
     0
174
     0
 93
        1
 44
0.0
173
     0
291
     0
 45
0.0
1001
ACAD
1000
AcDbSavedByObjectVersion
1070
     0
  0
VISUALSTYLE
  5
54
102
{ACAD_XDICTIONARY
360
894F
102
}
102
{ACAD_REACTORS
330
4C
102
}
330
4C
100
AcDbVisualStyle
  2
3D Hidden
 70
     6
 71
     1
 72
     2
 73
     2
 90
        0
 40
-0.6
 41
-30.0
 62
     5
 63
     7
 74
     2
 91
        2
 64
     7
 65
   257
 75
     2
175
     1
 42
40.0
 92
        0
 66
   257
 43
1.0
 76
     1
 77
     6
 78
     2
 67
     7
 79
     3
170
     0
171
     0
290
     0
174
     0
 93
        1
 44
0.0
173
     0
291
     0
 45
0.0
1001
ACAD
1000
AcDbSavedByObjectVersion
1070
     0
  0
VISUALSTYLE
  5
53
102
{ACAD_XDICTIONARY
360
894D
102
}
102
{ACAD_REACTORS
330
4C
102
}
330
4C
100
AcDbVisualStyle
  2
3dWireframe
 70
     5
 71
     0
 72
     2
 73
     0
 90
        0
 40
-0.6
 41
-30.0
 62
     5
 63
     7
 74
     1
 91
        4
 64
     7
 65
   257
 75
     1
175
     1
 42
1.0
 92
        0
 66
   257
 43
1.0
 76
     1
 77
     6
 78
     2
 67
     7
 79
     5
170
     0
171
     0
290
     0
174
     0
 93
        1
 44
0.0
173
     0
291
     0
 45
0.0
1001
ACAD
1000
AcDbSavedByObjectVersion
1070
     0
  0
VISUALSTYLE
  5
51
102
{ACAD_XDICTIONARY
360
8949
102
}
102
{ACAD_REACTORS
330
4C
102
}
330
4C
100
AcDbVisualStyle
  2
Basic
 70
     7
 71
     1
 72
     0
 73
     1
 90
        0
 40
-0.6
 41
-30.0
 62
     5
 63
     7
 74
     0
 91
        4
 64
     7
 65
   257
 75
     1
175
     1
 42
1.0
 92
        8
 66
     7
 43
1.0
 76
     1
 77
     6
 78
     2
 67
     7
 79
     5
170
     0
171
     0
290
     0
174
     0
 93
        1
 44
0.0
173
     0
291
     1
 45
0.0
1001
ACAD
1000
AcDbSavedByObjectVersion
1070
     0
  0
VISUALSTYLE
  5
58
102
{ACAD_XDICTIONARY
360
8957
102
}
102
{ACAD_REACTORS
330
4C
102
}
330
4C
100
AcDbVisualStyle
  2
Brighten
 70
    12
 71
     2
 72
     2
 73
     0
 90
        0
 40
-0.6
 41
-30.0
 62
     5
 63
     7
 74
     1
 91
        4
 64
     7
 65
   257
 75
     1
175
     1
 42
1.0
 92
        8
 66
     7
 43
1.0
 76
     1
 77
     6
 78
     2
 67
     7
 79
     5
170
     0
171
     0
290
     0
174
     0
 93
        1
 44
50.0
173
     0
291
     1
 45
0.0
1001
ACAD
1000
AcDbSavedByObjectVersion
1070
     0
  0
VISUALSTYLE
  5
5C
102
{ACAD_XDICTIONARY
360
895F
102
}
102
{ACAD_REACTORS
330
4C
102
}
330
4C
100
AcDbVisualStyle
  2
ColorChange
 70
    16
 71
     2
 72
     2
 73
     3
 90
        0
 40
-0.6
 41
-30.0
 62
     5
 63
     8
 74
     1
 91
        4
 64
     7
 65
   257
 75
     1
175
     1
 42
1.0
 92
        8
 66
     8
 43
1.0
 76
     1
 77
     6
 78
     2
 67
     7
 79
     5
170
     0
171
     0
290
     0
174
     0
 93
        1
 44
0.0
173
     0
291
     1
 45
0.0
1001
ACAD
1000
AcDbSavedByObjectVersion
1070
     0
  0
VISUALSTYLE
  5
55
102
{ACAD_XDICTIONARY
360
8951
102
}
102
{ACAD_REACTORS
330
4C
102
}
330
4C
100
AcDbVisualStyle
  2
Conceptual
 70
     9
 71
     3
 72
     2
 73
     0
 90
        0
 40
-0.6
 41
-30.0
 62
     5
 63
     7
 74
     2
 91
        2
 64
     7
 65
   257
 75
     1
175
     1
 42
40.0
 92
        8
 66
     7
 43
1.0
 76
     1
 77
     6
 78
     2
 67
     7
 79
     3
170
     0
171
     0
290
     0
174
     0
 93
        1
 44
0.0
173
     0
291
     0
 45
0.0
1001
ACAD
1000
AcDbSavedByObjectVersion
1070
     0
  0
VISUALSTYLE
  5
57
102
{ACAD_XDICTIONARY
360
8955
102
}
102
{ACAD_REACTORS
330
4C
102
}
330
4C
100
AcDbVisualStyle
  2
Dim
 70
    11
 71
     2
 72
     2
 73
     0
 90
        0
 40
-0.6
 41
-30.0
 62
     5
 63
     7
 74
     1
 91
        4
 64
     7
 65
   257
 75
     1
175
     1
 42
1.0
 92
        8
 66
     7
 43
1.0
 76
     1
 77
     6
 78
     2
 67
     7
 79
     5
170
     0
171
     0
290
     0
174
     0
 93
        1
 44
-50.0
173
     0
291
     1
 45
0.0
1001
ACAD
1000
AcDbSavedByObjectVersion
1070
     0
  0
VISUALSTYLE
  5
2848
102
{ACAD_XDICTIONARY
360
8974
102
}
102
{ACAD_REACTORS
330
4C
102
}
330
4C
100
AcDbVisualStyle
  2
EdgeColorOff
 70
    22
 71
     2
 72
     2
 73
     0
 90
        0
 40
-0.6
 41
-30.0
 62
     5
 63
     7
 74
     1
 91
        4
 64
     7
 65
   257
 75
     1
175
     1
 42
1.0
 92
        8
 66
     7
 43
1.0
 76
     1
 77
     6
 78
     2
 67
     7
 79
     5
170
     0
171
     0
290
     0
174
     0
 93
        1
 44
0.0
173
     0
291
     1
 45
0.0
1001
ACAD
1000
AcDbSavedByObjectVersion
1070
     0
  0
VISUALSTYLE
  5
5B
102
{ACAD_XDICTIONARY
360
895D
102
}
102
{ACAD_REACTORS
330
4C
102
}
330
4C
100
AcDbVisualStyle
  2
Facepattern
 70
    15
 71
     2
 72
     2
 73
     0
 90
        0
 40
-0.6
 41
-30.0
 62
     5
 63
     7
 74
     1
 91
        4
 64
     7
 65
   257
 75
     1
175
     1
 42
1.0
 92
        8
 66
     7
 43
1.0
 76
     1
 77
     6
 78
     2
 67
     7
 79
     5
170
     0
171
     0
290
     0
174
     0
 93
        1
 44
0.0
173
     0
291
     1
 45
0.0
1001
ACAD
1000
AcDbSavedByObjectVersion
1070
     0
  0
VISUALSTYLE
  5
4D
102
{ACAD_XDICTIONARY
360
8941
102
}
102
{ACAD_REACTORS
330
4C
102
}
330
4C
100
AcDbVisualStyle
  2
Flat
 70
     0
 71
     2
 72
     1
 73
     1
 90
        2
 40
-0.6
 41
30.0
 62
     5
 63
     7
 74
     0
 91
        4
 64
     7
 65
   257
 75
     1
175
     1
 42
1.0
 92
        8
 66
     7
 43
1.0
 76
     1
 77
     6
 78
     2
 67
     7
 79
     5
170
     0
171
     0
290
     0
174
     0
 93
       13
 44
0.0
173
     0
291
     1
 45
0.0
1001
ACAD
1000
AcDbSavedByObjectVersion
1070
     0
  0
VISUALSTYLE
  5
4E
102
{ACAD_XDICTIONARY
360
8943
102
}
102
{ACAD_REACTORS
330
4C
102
}
330
4C
100
AcDbVisualStyle
  2
FlatWithEdges
 70
     1
 71
     2
 72
     1
 73
     1
 90
        2
 40
-0.6
 41
30.0
 62
     5
 63
     7
 74
     1
 91
        4
 64
     7
 65
   257
 75
     1
175
     1
 42
1.0
 92
        0
 66
   257
 43
1.0
 76
     1
 77
     6
 78
     2
 67
     7
 79
     5
170
     0
171
     0
290
     0
174
     0
 93
       13
 44
0.0
173
     0
291
     1
 45
0.0
1001
ACAD
1000
AcDbSavedByObjectVersion
1070
     0
  0
VISUALSTYLE
  5
4F
102
{ACAD_XDICTIONARY
360
8945
102
}
102
{ACAD_REACTORS
330
4C
102
}
330
4C
100
AcDbVisualStyle
  2
Gouraud
 70
     2
 71
     2
 72
     2
 73
     1
 90
        2
 40
-0.6
 41
30.0
 62
     5
 63
     7
 74
     0
 91
        4
 64
     7
 65
   257
 75
     1
175
     1
 42
1.0
 92
        0
 66
     7
 43
1.0
 76
     1
 77
     6
 78
     2
 67
     7
 79
     5
170
     0
171
     0
290
     0
174
     0
 93
       13
 44
0.0
173
     0
291
     1
 45
0.0
1001
ACAD
1000
AcDbSavedByObjectVersion
1070
     0
  0
VISUALSTYLE
  5
50
102
{ACAD_XDICTIONARY
360
8947
102
}
102
{ACAD_REACTORS
330
4C
102
}
330
4C
100
AcDbVisualStyle
  2
GouraudWithEdges
 70
     3
 71
     2
 72
     2
 73
     1
 90
        2
 40
-0.6
 41
30.0
 62
     5
 63
     7
 74
     1
 91
        4
 64
     7
 65
   257
 75
     1
175
     1
 42
1.0
 92
        0
 66
   257
 43
1.0
 76
     1
 77
     6
 78
     2
 67
     7
 79
     5
170
     0
171
     0
290
     0
174
     0
 93
       13
 44
0.0
173
     0
291
     1
 45
0.0
1001
ACAD
1000
AcDbSavedByObjectVersion
1070
     0
  0
VISUALSTYLE
  5
2840
102
{ACAD_XDICTIONARY
360
8964
102
}
102
{ACAD_REACTORS
330
4C
102
}
330
4C
100
AcDbVisualStyle
  2
Hidden
 70
     6
 71
     1
 72
     2
 73
     2
 90
        0
 40
-0.6
 41
-30.0
 62
     5
 63
     7
 74
     2
 91
        2
 64
     7
 65
   257
 75
     2
175
     1
 42
40.0
 92
        0
 66
   257
 43
1.0
 76
     1
 77
     6
 78
     2
 67
     7
 79
     3
170
     0
171
     0
290
     0
174
     0
 93
        1
 44
0.0
173
     0
291
     0
 45
0.0
1001
ACAD
1000
AcDbSavedByObjectVersion
1070
     0
  0
VISUALSTYLE
  5
2846
102
{ACAD_XDICTIONARY
360
8970
102
}
102
{ACAD_REACTORS
330
4C
102
}
330
4C
100
AcDbVisualStyle
  2
JitterOff
 70
    20
 71
     2
 72
     2
 73
     0
 90
        0
 40
-0.6
 41
-30.0
 62
     5
 63
     7
 74
     1
 91
        4
 64
     7
 65
   257
 75
     1
175
     1
 42
1.0
 92
       10
 66
     7
 43
1.0
 76
     1
 77
     6
 78
     2
 67
     7
 79
     5
170
     0
171
     0
290
     0
174
     0
 93
        1
 44
0.0
173
     0
291
     1
 45
0.0
1001
ACAD
1000
AcDbSavedByObjectVersion
1070
     0
  0
VISUALSTYLE
  5
5A
102
{ACAD_XDICTIONARY
360
895B
102
}
102
{ACAD_REACTORS
330
4C
102
}
330
4C
100
AcDbVisualStyle
  2
Linepattern
 70
    14
 71
     2
 72
     2
 73
     0
 90
        0
 40
-0.6
 41
-30.0
 62
     5
 63
     7
 74
     1
 91
        4
 64
     7
 65
   257
 75
     7
175
     7
 42
1.0
 92
        8
 66
     7
 43
1.0
 76
     1
 77
     6
 78
     2
 67
     7
 79
     5
170
     0
171
     0
290
     0
174
     0
 93
        1
 44
0.0
173
     0
291
     1
 45
0.0
1001
ACAD
1000
AcDbSavedByObjectVersion
1070
     0
  0
VISUALSTYLE
  5
2847
102
{ACAD_XDICTIONARY
360
8972
102
}
102
{ACAD_REACTORS
330
4C
102
}
330
4C
100
AcDbVisualStyle
  2
OverhangOff
 70
    21
 71
     2
 72
     2
 73
     0
 90
        0
 40
-0.6
 41
-30.0
 62
     5
 63
     7
 74
     1
 91
        4
 64
     7
 65
   257
 75
     1
175
     1
 42
1.0
 92
        9
 66
     7
 43
1.0
 76
     1
 77
     6
 78
     2
 67
     7
 79
     5
170
     0
171
     0
290
     0
174
     0
 93
        1
 44
0.0
173
     0
291
     1
 45
0.0
1001
ACAD
1000
AcDbSavedByObjectVersion
1070
     0
  0
VISUALSTYLE
  5
56
102
{ACAD_XDICTIONARY
360
8953
102
}
102
{ACAD_REACTORS
330
4C
102
}
330
4C
100
AcDbVisualStyle
  2
Realistic
 70
     8
 71
     2
 72
     2
 73
     0
 90
        0
 40
-0.6
 41
-30.0
 62
     5
 63
     7
 74
     1
 91
        0
 64
     7
 65
   257
 75
     1
175
     1
 42
1.0
 92
        8
 66
     8
 43
1.0
 76
     1
 77
     6
 78
     2
 67
     7
 79
     5
170
     0
171
     0
290
     0
174
     0
 93
       13
 44
0.0
173
     0
291
     0
 45
0.0
1001
ACAD
1000
AcDbSavedByObjectVersion
1070
     0
  0
VISUALSTYLE
  5
2845
102
{ACAD_XDICTIONARY
360
896E
102
}
102
{ACAD_REACTORS
330
4C
102
}
330
4C
100
AcDbVisualStyle
  2
Shaded
 70
    27
 71
     2
 72
     2
 73
     1
 90
        2
 40
-0.6
 41
30.0
 62
     5
 63
     7
 74
     0
 91
        4
 64
     7
 65
   257
 75
     1
175
     1
 42
1.0
 92
        8
 66
   257
 43
1.0
 76
     1
 77
     6
 78
     2
 67
     8
 79
     3
170
     0
171
     0
290
     0
174
     0
 93
        5
 44
0.0
173
     0
291
     0
 45
0.0
1001
ACAD
1000
AcDbSavedByObjectVersion
1070
     0
  0
VISUALSTYLE
  5
2844
102
{ACAD_XDICTIONARY
360
896C
102
}
102
{ACAD_REACTORS
330
4C
102
}
330
4C
100
AcDbVisualStyle
  2
Shaded with edges
 70
    26
 71
     2
 72
     2
 73
     1
 90
        2
 40
-0.6
 41
30.0
 62
     5
 63
     7
 74
     1
 91
       10
 64
     7
 65
   257
 75
     2
175
     1
 42
1.0
 92
        8
 66
   257
 43
1.0
 76
     1
 77
     6
 78
     2
 67
     7
 79
     3
170
     0
171
     0
290
     0
174
     0
 93
        5
 44
0.0
173
     0
291
     0
 45
0.0
1001
ACAD
1000
AcDbSavedByObjectVersion
1070
     0
  0
VISUALSTYLE
  5
2841
102
{ACAD_XDICTIONARY
360
8966
102
}
102
{ACAD_REACTORS
330
4C
102
}
330
4C
100
AcDbVisualStyle
  2
Shades of Gray
 70
    23
 71
     2
 72
     2
 73
     3
 90
        0
 40
-0.6
 41
-30.0
 62
     5
 63
     7
 74
     2
 91
        2
 64
     7
 65
     7
 75
     1
175
     1
 42
40.0
 92
        8
 66
     7
 43
1.0
 76
     1
 77
     6
 78
     2
 67
     7
 79
     3
170
     0
171
     0
290
     0
174
     0
 93
        1
 44
0.0
173
     0
291
     0
 45
0.0
1001
ACAD
1000
AcDbSavedByObjectVersion
1070
     0
  0
VISUALSTYLE
  5
2842
102
{ACAD_XDICTIONARY
360
8968
102
}
102
{ACAD_REACTORS
330
4C
102
}
330
4C
100
AcDbVisualStyle
  2
Sketchy
 70
    24
 71
     1
 72
     2
 73
     2
 90
        0
 40
-0.6
 41
-30.0
 62
     5
 63
     7
 74
     2
 91
        2
 64
     7
 65
     7
 75
     1
175
     1
 42
40.0
 92
       11
 66
     7
 43
1.0
 76
     1
 77
     6
 78
     2
 67
     7
 79
     6
170
     0
171
     0
290
     0
174
     0
 93
        1
 44
0.0
173
     0
291
     0
 45
0.0
1001
ACAD
1000
AcDbSavedByObjectVersion
1070
     0
  0
VISUALSTYLE
  5
59
102
{ACAD_XDICTIONARY
360
8959
102
}
102
{ACAD_REACTORS
330
4C
102
}
330
4C
100
AcDbVisualStyle
  2
Thicken
 70
    13
 71
     2
 72
     2
 73
     0
 90
        0
 40
-0.6
 41
-30.0
 62
     5
 63
     7
 74
     1
 91
        4
 64
     7
 65
   257
 75
     1
175
     1
 42
1.0
 92
       12
 66
     7
 43
1.0
 76
     1
 77
     6
 78
     2
 67
     7
 79
     5
170
     0
171
     0
290
     0
174
     0
 93
        1
 44
0.0
173
     0
291
     1
 45
0.0
1001
ACAD
1000
AcDbSavedByObjectVersion
1070
     0
  0
VISUALSTYLE
  5
283F
102
{ACAD_XDICTIONARY
360
8962
102
}
102
{ACAD_REACTORS
330
4C
102
}
330
4C
100
AcDbVisualStyle
  2
Wireframe
 70
     5
 71
     0
 72
     2
 73
     0
 90
        0
 40
-0.6
 41
-30.0
 62
     5
 63
     7
 74
     1
 91
        4
 64
     7
 65
   257
 75
     1
175
     1
 42
1.0
 92
        0
 66
   257
 43
1.0
 76
     1
 77
     6
 78
     2
 67
     7
 79
     3
170
     0
171
     0
290
     0
174
     0
 93
        1
 44
0.0
173
     0
291
     0
 45
0.0
1001
ACAD
1000
AcDbSavedByObjectVersion
1070
     0
  0
VISUALSTYLE
  5
2843
102
{ACAD_XDICTIONARY
360
896A
102
}
102
{ACAD_REACTORS
330
4C
102
}
330
4C
100
AcDbVisualStyle
  2
X-Ray
 70
    25
 71
     2
 72
     2
 73
     1
 90
        1
 40
0.5
 41
-30.0
 62
     5
 63
     7
 74
     1
 91
        0
 64
     7
 65
   257
 75
     1
175
     1
 42
1.0
 92
        8
 66
     7
 43
1.0
 76
     1
 77
     6
 78
     2
 67
     7
 79
     3
170
     0
171
     0
290
     0
174
     0
 93
       13
 44
0.0
173
     0
291
     0
 45
0.0
1001
ACAD
1000
AcDbSavedByObjectVersion
1070
     0
  0
XRECORD
  5
226E
102
{ACAD_REACTORS
330
226D
102
}
330
226D
100
AcDbXrecord
280
     1
  1
WIRES
  1
WIRES
  1

290
     0
  0
DICTIONARYVAR
  5
8E
102
{ACAD_REACTORS
330
8A
102
}
330
8A
100
DictionaryVariables
280
     0
  1
1:1
  0
DICTIONARYVAR
  5
8C
102
{ACAD_REACTORS
330
8A
102
}
330
8A
100
DictionaryVariables
280
     0
  1
STANDARD
  0
DICTIONARYVAR
  5
8B
102
{ACAD_REACTORS
330
8A
102
}
330
8A
100
DictionaryVariables
280
     0
  1
STANDARD
  0
DICTIONARYVAR
  5
18F
102
{ACAD_REACTORS
330
8A
102
}
330
8A
100
DictionaryVariables
280
     0
  1
1
  0
DICTIONARYVAR
  5
18E
102
{ACAD_REACTORS
330
8A
102
}
330
8A
100
DictionaryVariables
280
     0
  1
0
  0
DICTIONARYVAR
  5
217D
102
{ACAD_REACTORS
330
8A
102
}
330
8A
100
DictionaryVariables
280
     0
  1
1
  0
DICTIONARYVAR
  5
217E
102
{ACAD_REACTORS
330
8A
102
}
330
8A
100
DictionaryVariables
280
     0
  1
15
  0
DICTIONARYVAR
  5
8F
102
{ACAD_REACTORS
330
8A
102
}
330
8A
100
DictionaryVariables
280
     0
  1
0
  0
DICTIONARYVAR
  5
8D
102
{ACAD_REACTORS
330
8A
102
}
330
8A
100
DictionaryVariables
280
     0
  1
0
  0
DICTIONARYVAR
  5
18D
102
{ACAD_REACTORS
330
8A
102
}
330
8A
100
DictionaryVariables
280
     0
  1
127
  0
DICTIONARYVAR
  5
8976
102
{ACAD_REACTORS
330
8A
102
}
330
8A
100
DictionaryVariables
280
     0
  1
0
  0
XRECORD
  5
2835
102
{ACAD_REACTORS
330
2834
102
}
330
2834
100
AcDbXrecord
280
     1
330
0
330
0
330
0
330
0
330
0
330
0
  0
DICTIONARY
  5
897C
330
1E
100
AcDbDictionary
280
     1
281
     1
  3
ACAD_XREC_ROUNDTRIP
360
897D
  0
DICTIONARY
  5
8980
330
26
100
AcDbDictionary
280
     1
281
     1
  3
ACAD_XREC_ROUNDTRIP
360
8981
  0
DICTIONARY
  5
897E
330
22
100
AcDbDictionary
280
     1
281
     1
  3
ACAD_XREC_ROUNDTRIP
360
897F
  0
DICTIONARY
  5
3D
330
3C
100
AcDbDictionary
280
     1
281
     1
  3
ACAD_XREC_ROUNDTRIP
360
8983
  3
BUMPTILE
360
3F
  3
DIFFUSETILE
360
3E
  3
OPACITYTILE
360
42
  3
REFLECTIONTILE
360
41
  3
REFRACTIONTILE
360
43
  3
SPECULARTILE
360
40
  0
DICTIONARY
  5
35
330
34
100
AcDbDictionary
280
     1
281
     1
  3
ACAD_XREC_ROUNDTRIP
360
8982
  3
BUMPTILE
360
37
  3
DIFFUSETILE
360
36
  3
OPACITYTILE
360
3A
  3
REFLECTIONTILE
360
39
  3
REFRACTIONTILE
360
3B
  3
SPECULARTILE
360
38
  0
DICTIONARY
  5
45
330
44
100
AcDbDictionary
280
     1
281
     1
  3
ACAD_XREC_ROUNDTRIP
360
8984
  3
BUMPTILE
360
47
  3
DIFFUSETILE
360
46
  3
OPACITYTILE
360
4A
  3
REFLECTIONTILE
360
49
  3
REFRACTIONTILE
360
4B
  3
SPECULARTILE
360
48
  0
DICTIONARY
  5
87
330
5F
100
AcDbDictionary
280
     1
281
     1
  3
ACAD_ROUNDTRIP_2008_TABLESTYLE_CELLSTYLEMAP
360
897A
  3
ACAD_XREC_ROUNDTRIP
360
8985
  0
DICTIONARY
  5
894B
330
52
100
AcDbDictionary
280
     1
281
     1
  3
ACAD_XREC_ROUNDTRIP
360
894C
  0
DICTIONARY
  5
894F
330
54
100
AcDbDictionary
280
     1
281
     1
  3
ACAD_XREC_ROUNDTRIP
360
8950
  0
DICTIONARY
  5
894D
330
53
100
AcDbDictionary
280
     1
281
     1
  3
ACAD_XREC_ROUNDTRIP
360
894E
  0
DICTIONARY
  5
8949
330
51
100
AcDbDictionary
280
     1
281
     1
  3
ACAD_XREC_ROUNDTRIP
360
894A
  0
DICTIONARY
  5
8957
330
58
100
AcDbDictionary
280
     1
281
     1
  3
ACAD_XREC_ROUNDTRIP
360
8958
  0
DICTIONARY
  5
895F
330
5C
100
AcDbDictionary
280
     1
281
     1
  3
ACAD_XREC_ROUNDTRIP
360
8960
  0
DICTIONARY
  5
8951
330
55
100
AcDbDictionary
280
     1
281
     1
  3
ACAD_XREC_ROUNDTRIP
360
8952
  0
DICTIONARY
  5
8955
330
57
100
AcDbDictionary
280
     1
281
     1
  3
ACAD_XREC_ROUNDTRIP
360
8956
  0
DICTIONARY
  5
8974
330
2848
100
AcDbDictionary
280
     1
281
     1
  3
ACAD_XREC_ROUNDTRIP
360
8975
  0
DICTIONARY
  5
895D
330
5B
100
AcDbDictionary
280
     1
281
     1
  3
ACAD_XREC_ROUNDTRIP
360
895E
  0
DICTIONARY
  5
8941
330
4D
100
AcDbDictionary
280
     1
281
     1
  3
ACAD_XREC_ROUNDTRIP
360
8942
  0
DICTIONARY
  5
8943
330
4E
100
AcDbDictionary
280
     1
281
     1
  3
ACAD_XREC_ROUNDTRIP
360
8944
  0
DICTIONARY
  5
8945
330
4F
100
AcDbDictionary
280
     1
281
     1
  3
ACAD_XREC_ROUNDTRIP
360
8946
  0
DICTIONARY
  5
8947
330
50
100
AcDbDictionary
280
     1
281
     1
  3
ACAD_XREC_ROUNDTRIP
360
8948
  0
DICTIONARY
  5
8964
330
2840
100
AcDbDictionary
280
     1
281
     1
  3
ACAD_XREC_ROUNDTRIP
360
8965
  0
DICTIONARY
  5
8970
330
2846
100
AcDbDictionary
280
     1
281
     1
  3
ACAD_XREC_ROUNDTRIP
360
8971
  0
DICTIONARY
  5
895B
330
5A
100
AcDbDictionary
280
     1
281
     1
  3
ACAD_XREC_ROUNDTRIP
360
895C
  0
DICTIONARY
  5
8972
330
2847
100
AcDbDictionary
280
     1
281
     1
  3
ACAD_XREC_ROUNDTRIP
360
8973
  0
DICTIONARY
  5
8953
330
56
100
AcDbDictionary
280
     1
281
     1
  3
ACAD_XREC_ROUNDTRIP
360
8954
  0
DICTIONARY
  5
896E
330
2845
100
AcDbDictionary
280
     1
281
     1
  3
ACAD_XREC_ROUNDTRIP
360
896F
  0
DICTIONARY
  5
896C
330
2844
100
AcDbDictionary
280
     1
281
     1
  3
ACAD_XREC_ROUNDTRIP
360
896D
  0
DICTIONARY
  5
8966
330
2841
100
AcDbDictionary
280
     1
281
     1
  3
ACAD_XREC_ROUNDTRIP
360
8967
  0
DICTIONARY
  5
8968
330
2842
100
AcDbDictionary
280
     1
281
     1
  3
ACAD_XREC_ROUNDTRIP
360
8969
  0
DICTIONARY
  5
8959
330
59
100
AcDbDictionary
280
     1
281
     1
  3
ACAD_XREC_ROUNDTRIP
360
895A
  0
DICTIONARY
  5
8962
330
283F
100
AcDbDictionary
280
     1
281
     1
  3
ACAD_XREC_ROUNDTRIP
360
8963
  0
DICTIONARY
  5
896A
330
2843
100
AcDbDictionary
280
     1
281
     1
  3
ACAD_XREC_ROUNDTRIP
360
896B
  0
XRECORD
  5
897D
102
{ACAD_REACTORS
330
897C
102
}
330
897C
100
AcDbXrecord
280
     1
102
SHADEPLOT
 70
     0
102
SHADEPLOTRESLEVEL
 70
     2
102
SHADEPLOTCUSTOMDPI
 70
   300
  0
XRECORD
  5
8981
102
{ACAD_REACTORS
330
8980
102
}
330
8980
100
AcDbXrecord
280
     1
102
SHADEPLOT
 70
     0
102
SHADEPLOTRESLEVEL
 70
     2
102
SHADEPLOTCUSTOMDPI
 70
   300
  0
XRECORD
  5
897F
102
{ACAD_REACTORS
330
897E
102
}
330
897E
100
AcDbXrecord
280
     1
102
SHADEPLOT
 70
     0
102
SHADEPLOTRESLEVEL
 70
     2
102
SHADEPLOTCUSTOMDPI
 70
   300
  0
XRECORD
  5
8983
102
{ACAD_REACTORS
330
3D
102
}
330
3D
100
AcDbXrecord
280
     1
102
MATERIAL
148
0.0
149
0.0
149
0.0
 93
        0
 94
      127
282
     0
 72
     0
 77
     0
171
     0
175
     0
179
     0
273
     0
  0
XRECORD
  5
3F
102
{ACAD_REACTORS
330
3D
102
}
330
3D
100
AcDbXrecord
280
     1
270
     1
271
     1
  0
XRECORD
  5
3E
102
{ACAD_REACTORS
330
3D
102
}
330
3D
100
AcDbXrecord
280
     1
270
     1
271
     1
  0
XRECORD
  5
42
102
{ACAD_REACTORS
330
3D
102
}
330
3D
100
AcDbXrecord
280
     1
270
     1
271
     1
  0
XRECORD
  5
41
102
{ACAD_REACTORS
330
3D
102
}
330
3D
100
AcDbXrecord
280
     1
270
     1
271
     1
  0
XRECORD
  5
43
102
{ACAD_REACTORS
330
3D
102
}
330
3D
100
AcDbXrecord
280
     1
270
     1
271
     1
  0
XRECORD
  5
40
102
{ACAD_REACTORS
330
3D
102
}
330
3D
100
AcDbXrecord
280
     1
270
     1
271
     1
  0
XRECORD
  5
8982
102
{ACAD_REACTORS
330
35
102
}
330
35
100
AcDbXrecord
280
     1
102
MATERIAL
148
0.0
149
0.0
149
0.0
 93
        0
 94
      127
282
     0
 72
     0
 77
     0
171
     0
175
     0
179
     0
273
     0
  0
XRECORD
  5
37
102
{ACAD_REACTORS
330
35
102
}
330
35
100
AcDbXrecord
280
     1
270
     1
271
     1
  0
XRECORD
  5
36
102
{ACAD_REACTORS
330
35
102
}
330
35
100
AcDbXrecord
280
     1
270
     1
271
     1
  0
XRECORD
  5
3A
102
{ACAD_REACTORS
330
35
102
}
330
35
100
AcDbXrecord
280
     1
270
     1
271
     1
  0
XRECORD
  5
39
102
{ACAD_REACTORS
330
35
102
}
330
35
100
AcDbXrecord
280
     1
270
     1
271
     1
  0
XRECORD
  5
3B
102
{ACAD_REACTORS
330
35
102
}
330
35
100
AcDbXrecord
280
     1
270
     1
271
     1
  0
XRECORD
  5
38
102
{ACAD_REACTORS
330
35
102
}
330
35
100
AcDbXrecord
280
     1
270
     1
271
     1
  0
XRECORD
  5
8984
102
{ACAD_REACTORS
330
45
102
}
330
45
100
AcDbXrecord
280
     1
102
MATERIAL
148
0.0
149
0.0
149
0.0
 93
        0
 94
      127
282
     0
 72
     0
 77
     0
171
     0
175
     0
179
     0
273
     0
  0
XRECORD
  5
47
102
{ACAD_REACTORS
330
45
102
}
330
45
100
AcDbXrecord
280
     1
270
     1
271
     1
  0
XRECORD
  5
46
102
{ACAD_REACTORS
330
45
102
}
330
45
100
AcDbXrecord
280
     1
270
     1
271
     1
  0
XRECORD
  5
4A
102
{ACAD_REACTORS
330
45
102
}
330
45
100
AcDbXrecord
280
     1
270
     1
271
     1
  0
XRECORD
  5
49
102
{ACAD_REACTORS
330
45
102
}
330
45
100
AcDbXrecord
280
     1
270
     1
271
     1
  0
XRECORD
  5
4B
102
{ACAD_REACTORS
330
45
102
}
330
45
100
AcDbXrecord
280
     1
270
     1
271
     1
  0
XRECORD
  5
48
102
{ACAD_REACTORS
330
45
102
}
330
45
100
AcDbXrecord
280
     1
270
     1
271
     1
  0
CELLSTYLEMAP
  5
897A
102
{ACAD_REACTORS
330
87
102
}
330
87
100
AcDbCellStyleMap
 90
        3
300
CELLSTYLE
  1
TABLEFORMAT_BEGIN
 90
        5
170
     1
 91
        0
 92
    32768
 62
   257
 93
        1
300
CONTENTFORMAT
  1
CONTENTFORMAT_BEGIN
 90
        0
 91
        0
 92
      512
 93
        0
300

 40
0.0
140
1.0
 94
        5
 62
     0
340
11
144
0.25
309
CONTENTFORMAT_END
171
     0
 94
        0
309
TABLEFORMAT_END
  1
CELLSTYLE_BEGIN
 90
        1
 91
        1
300
_TITLE
309
CELLSTYLE_END
300
CELLSTYLE
  1
TABLEFORMAT_BEGIN
 90
        5
170
     1
 91
        0
 92
        0
 62
   257
 93
        1
300
CONTENTFORMAT
  1
CONTENTFORMAT_BEGIN
 90
        0
 91
        0
 92
      512
 93
        0
300

 40
0.0
140
1.0
 94
        5
 62
     0
340
11
144
0.18
309
CONTENTFORMAT_END
171
     0
 94
        0
309
TABLEFORMAT_END
  1
CELLSTYLE_BEGIN
 90
        2
 91
        1
300
_HEADER
309
CELLSTYLE_END
300
CELLSTYLE
  1
TABLEFORMAT_BEGIN
 90
        5
170
     1
 91
        0
 92
        0
 62
   257
 93
        1
300
CONTENTFORMAT
  1
CONTENTFORMAT_BEGIN
 90
        0
 91
        0
 92
      512
 93
        0
300

 40
0.0
140
1.0
 94
        2
 62
     0
340
11
144
0.18
309
CONTENTFORMAT_END
171
     0
 94
        0
309
TABLEFORMAT_END
  1
CELLSTYLE_BEGIN
 90
        3
 91
        2
300
_DATA
309
CELLSTYLE_END
  0
XRECORD
  5
8985
102
{ACAD_REACTORS
330
87
102
}
330
87
100
AcDbXrecord
280
     1
102
ACAD_ROUNDTRIP_PRE2007_TABLESTYLE
 90
      512
 91
        0
  1

 92
      512
 93
        0
  2

 94
      512
 95
        0
  3

  0
XRECORD
  5
894C
102
{ACAD_REACTORS
330
894B
102
}
330
894B
100
AcDbXrecord
280
     1
102
RTVSPropertyOp0
 70
     1
102
RTVSPropertyOp1
 70
     1
102
RTVSPropertyOp2
 70
     1
102
RTVSPropertyOp3
 70
     1
102
RTVSPropertyOp4
 70
     1
102
RTVSPropertyOp5
 70
     1
102
RTVSPropertyOp6
 70
     1
102
RTVSPropertyOp7
 70
     1
102
RTVSPropertyOp8
 70
     1
102
RTVSPropertyOp9
 70
     1
102
RTVSPropertyOp10
 70
     1
102
RTVSPropertyOp11
 70
     1
102
RTVSPropertyOp12
 70
     1
102
RTVSPropertyOp13
 70
     1
102
RTVSPropertyOp14
 70
     1
102
RTVSPropertyOp15
 70
     1
102
RTVSPropertyOp16
 70
     1
102
RTVSPropertyOp17
 70
     1
102
RTVSPropertyOp18
 70
     1
102
RTVSPropertyOp19
 70
     1
102
RTVSPropertyOp20
 70
     1
102
RTVSPropertyOp21
 70
     1
102
RTVSPropertyOp22
 70
     1
102
RTVSPropertyOp23
 70
     1
102
RTVSPropertyOp24
 70
     1
102
RTVSPropertyOp25
 70
     1
102
RTVSPropertyOp26
 70
     1
102
RTVSPropertyOp27
 70
     1
102
RTVSPropertyOp28
 70
     1
102
RTVSPropertyOp29
 70
     1
102
RTVSPropertyOp30
 70
     1
102
RTVSPropertyOp31
 70
     1
102
RTVSPropertyOp32
 70
     1
  0
XRECORD
  5
8950
102
{ACAD_REACTORS
330
894F
102
}
330
894F
100
AcDbXrecord
280
     1
102
RTVSPropertyOp0
 70
     1
102
RTVSPropertyOp1
 70
     1
102
RTVSPropertyOp2
 70
     1
102
RTVSPropertyOp3
 70
     1
102
RTVSPropertyOp4
 70
     1
102
RTVSPropertyOp5
 70
     1
102
RTVSPropertyOp6
 70
     1
102
RTVSPropertyOp7
 70
     1
102
RTVSPropertyOp8
 70
     1
102
RTVSPropertyOp9
 70
     1
102
RTVSPropertyOp10
 70
     1
102
RTVSPropertyOp11
 70
     1
102
RTVSPropertyOp12
 70
     1
102
RTVSPropertyOp13
 70
     1
102
RTVSPropertyOp14
 70
     1
102
RTVSPropertyOp15
 70
     1
102
RTVSPropertyOp16
 70
     1
102
RTVSPropertyOp17
 70
     1
102
RTVSPropertyOp18
 70
     1
102
RTVSPropertyOp19
 70
     1
102
RTVSPropertyOp20
 70
     1
102
RTVSPropertyOp21
 70
     1
102
RTVSPropertyOp22
 70
     1
102
RTVSPropertyOp23
 70
     1
102
RTVSPropertyOp24
 70
     1
102
RTVSPropertyOp25
 70
     1
102
RTVSPropertyOp26
 70
     1
102
RTVSPropertyOp27
 70
     1
102
RTVSPropertyOp28
 70
     1
102
RTVSPropertyOp29
 70
     1
102
RTVSPropertyOp30
 70
     1
102
RTVSPropertyOp31
 70
     1
102
RTVSPropertyOp32
 70
     1
  0
XRECORD
  5
894E
102
{ACAD_REACTORS
330
894D
102
}
330
894D
100
AcDbXrecord
280
     1
102
RTVSPropertyOp0
 70
     1
102
RTVSPropertyOp1
 70
     1
102
RTVSPropertyOp2
 70
     1
102
RTVSPropertyOp3
 70
     1
102
RTVSPropertyOp4
 70
     1
102
RTVSPropertyOp5
 70
     1
102
RTVSPropertyOp6
 70
     1
102
RTVSPropertyOp7
 70
     1
102
RTVSPropertyOp8
 70
     1
102
RTVSPropertyOp9
 70
     1
102
RTVSPropertyOp10
 70
     1
102
RTVSPropertyOp11
 70
     1
102
RTVSPropertyOp12
 70
     1
102
RTVSPropertyOp13
 70
     1
102
RTVSPropertyOp14
 70
     1
102
RTVSPropertyOp15
 70
     1
102
RTVSPropertyOp16
 70
     1
102
RTVSPropertyOp17
 70
     1
102
RTVSPropertyOp18
 70
     1
102
RTVSPropertyOp19
 70
     1
102
RTVSPropertyOp20
 70
     1
102
RTVSPropertyOp21
 70
     1
102
RTVSPropertyOp22
 70
     1
102
RTVSPropertyOp23
 70
     1
102
RTVSPropertyOp24
 70
     1
102
RTVSPropertyOp25
 70
     1
102
RTVSPropertyOp26
 70
     1
102
RTVSPropertyOp27
 70
     1
102
RTVSPropertyOp28
 70
     1
102
RTVSPropertyOp29
 70
     1
102
RTVSPropertyOp30
 70
     1
102
RTVSPropertyOp31
 70
     1
102
RTVSPropertyOp32
 70
     1
  0
XRECORD
  5
894A
102
{ACAD_REACTORS
330
8949
102
}
330
8949
100
AcDbXrecord
280
     1
102
RTVSPropertyOp0
 70
     1
102
RTVSPropertyOp1
 70
     1
102
RTVSPropertyOp2
 70
     1
102
RTVSPropertyOp3
 70
     1
102
RTVSPropertyOp4
 70
     1
102
RTVSPropertyOp5
 70
     1
102
RTVSPropertyOp6
 70
     1
102
RTVSPropertyOp7
 70
     1
102
RTVSPropertyOp8
 70
     1
102
RTVSPropertyOp9
 70
     1
102
RTVSPropertyOp10
 70
     1
102
RTVSPropertyOp11
 70
     1
102
RTVSPropertyOp12
 70
     1
102
RTVSPropertyOp13
 70
     1
102
RTVSPropertyOp14
 70
     1
102
RTVSPropertyOp15
 70
     1
102
RTVSPropertyOp16
 70
     1
102
RTVSPropertyOp17
 70
     1
102
RTVSPropertyOp18
 70
     1
102
RTVSPropertyOp19
 70
     1
102
RTVSPropertyOp20
 70
     1
102
RTVSPropertyOp21
 70
     1
102
RTVSPropertyOp22
 70
     1
102
RTVSPropertyOp23
 70
     1
102
RTVSPropertyOp24
 70
     1
102
RTVSPropertyOp25
 70
     1
102
RTVSPropertyOp26
 70
     1
102
RTVSPropertyOp27
 70
     1
102
RTVSPropertyOp28
 70
     1
102
RTVSPropertyOp29
 70
     1
102
RTVSPropertyOp30
 70
     1
102
RTVSPropertyOp31
 70
     1
102
RTVSPropertyOp32
 70
     1
  0
XRECORD
  5
8958
102
{ACAD_REACTORS
330
8957
102
}
330
8957
100
AcDbXrecord
280
     1
102
RTVSPropertyOp0
 70
     1
102
RTVSPropertyOp1
 70
     1
102
RTVSPropertyOp2
 70
     1
102
RTVSPropertyOp3
 70
     1
102
RTVSPropertyOp4
 70
     1
102
RTVSPropertyOp5
 70
     1
102
RTVSPropertyOp6
 70
     1
102
RTVSPropertyOp7
 70
     1
102
RTVSPropertyOp8
 70
     1
102
RTVSPropertyOp9
 70
     1
102
RTVSPropertyOp10
 70
     1
102
RTVSPropertyOp11
 70
     1
102
RTVSPropertyOp12
 70
     1
102
RTVSPropertyOp13
 70
     1
102
RTVSPropertyOp14
 70
     1
102
RTVSPropertyOp15
 70
     1
102
RTVSPropertyOp16
 70
     1
102
RTVSPropertyOp17
 70
     1
102
RTVSPropertyOp18
 70
     1
102
RTVSPropertyOp19
 70
     1
102
RTVSPropertyOp20
 70
     1
102
RTVSPropertyOp21
 70
     1
102
RTVSPropertyOp22
 70
     1
102
RTVSPropertyOp23
 70
     1
102
RTVSPropertyOp24
 70
     1
102
RTVSPropertyOp25
 70
     1
102
RTVSPropertyOp26
 70
     1
102
RTVSPropertyOp27
 70
     1
102
RTVSPropertyOp28
 70
     1
102
RTVSPropertyOp29
 70
     1
102
RTVSPropertyOp30
 70
     1
102
RTVSPropertyOp31
 70
     1
102
RTVSPropertyOp32
 70
     1
  0
XRECORD
  5
8960
102
{ACAD_REACTORS
330
895F
102
}
330
895F
100
AcDbXrecord
280
     1
102
RTVSPropertyOp0
 70
     1
102
RTVSPropertyOp1
 70
     1
102
RTVSPropertyOp2
 70
     1
102
RTVSPropertyOp3
 70
     1
102
RTVSPropertyOp4
 70
     1
102
RTVSPropertyOp5
 70
     1
102
RTVSPropertyOp6
 70
     1
102
RTVSPropertyOp7
 70
     1
102
RTVSPropertyOp8
 70
     1
102
RTVSPropertyOp9
 70
     1
102
RTVSPropertyOp10
 70
     1
102
RTVSPropertyOp11
 70
     1
102
RTVSPropertyOp12
 70
     1
102
RTVSPropertyOp13
 70
     1
102
RTVSPropertyOp14
 70
     1
102
RTVSPropertyOp15
 70
     1
102
RTVSPropertyOp16
 70
     1
102
RTVSPropertyOp17
 70
     1
102
RTVSPropertyOp18
 70
     1
102
RTVSPropertyOp19
 70
     1
102
RTVSPropertyOp20
 70
     1
102
RTVSPropertyOp21
 70
     1
102
RTVSPropertyOp22
 70
     1
102
RTVSPropertyOp23
 70
     1
102
RTVSPropertyOp24
 70
     1
102
RTVSPropertyOp25
 70
     1
102
RTVSPropertyOp26
 70
     1
102
RTVSPropertyOp27
 70
     1
102
RTVSPropertyOp28
 70
     1
102
RTVSPropertyOp29
 70
     1
102
RTVSPropertyOp30
 70
     1
102
RTVSPropertyOp31
 70
     1
102
RTVSPropertyOp32
 70
     1
  0
XRECORD
  5
8952
102
{ACAD_REACTORS
330
8951
102
}
330
8951
100
AcDbXrecord
280
     1
102
RTVSPropertyOp0
 70
     1
102
RTVSPropertyOp1
 70
     1
102
RTVSPropertyOp2
 70
     1
102
RTVSPropertyOp3
 70
     1
102
RTVSPropertyOp4
 70
     1
102
RTVSPropertyOp5
 70
     1
102
RTVSPropertyOp6
 70
     1
102
RTVSPropertyOp7
 70
     1
102
RTVSPropertyOp8
 70
     1
102
RTVSPropertyOp9
 70
     1
102
RTVSPropertyOp10
 70
     1
102
RTVSPropertyOp11
 70
     1
102
RTVSPropertyOp12
 70
     1
102
RTVSPropertyOp13
 70
     1
102
RTVSPropertyOp14
 70
     1
102
RTVSPropertyOp15
 70
     1
102
RTVSPropertyOp16
 70
     1
102
RTVSPropertyOp17
 70
     1
102
RTVSPropertyOp18
 70
     1
102
RTVSPropertyOp19
 70
     1
102
RTVSPropertyOp20
 70
     1
102
RTVSPropertyOp21
 70
     1
102
RTVSPropertyOp22
 70
     1
102
RTVSPropertyOp23
 70
     1
102
RTVSPropertyOp24
 70
     1
102
RTVSPropertyOp25
 70
     1
102
RTVSPropertyOp26
 70
     1
102
RTVSPropertyOp27
 70
     1
102
RTVSPropertyOp28
 70
     1
102
RTVSPropertyOp29
 70
     1
102
RTVSPropertyOp30
 70
     1
102
RTVSPropertyOp31
 70
     1
102
RTVSPropertyOp32
 70
     1
  0
XRECORD
  5
8956
102
{ACAD_REACTORS
330
8955
102
}
330
8955
100
AcDbXrecord
280
     1
102
RTVSPropertyOp0
 70
     1
102
RTVSPropertyOp1
 70
     1
102
RTVSPropertyOp2
 70
     1
102
RTVSPropertyOp3
 70
     1
102
RTVSPropertyOp4
 70
     1
102
RTVSPropertyOp5
 70
     1
102
RTVSPropertyOp6
 70
     1
102
RTVSPropertyOp7
 70
     1
102
RTVSPropertyOp8
 70
     1
102
RTVSPropertyOp9
 70
     1
102
RTVSPropertyOp10
 70
     1
102
RTVSPropertyOp11
 70
     1
102
RTVSPropertyOp12
 70
     1
102
RTVSPropertyOp13
 70
     1
102
RTVSPropertyOp14
 70
     1
102
RTVSPropertyOp15
 70
     1
102
RTVSPropertyOp16
 70
     1
102
RTVSPropertyOp17
 70
     1
102
RTVSPropertyOp18
 70
     1
102
RTVSPropertyOp19
 70
     1
102
RTVSPropertyOp20
 70
     1
102
RTVSPropertyOp21
 70
     1
102
RTVSPropertyOp22
 70
     1
102
RTVSPropertyOp23
 70
     1
102
RTVSPropertyOp24
 70
     1
102
RTVSPropertyOp25
 70
     1
102
RTVSPropertyOp26
 70
     1
102
RTVSPropertyOp27
 70
     1
102
RTVSPropertyOp28
 70
     1
102
RTVSPropertyOp29
 70
     1
102
RTVSPropertyOp30
 70
     1
102
RTVSPropertyOp31
 70
     1
102
RTVSPropertyOp32
 70
     1
  0
XRECORD
  5
8975
102
{ACAD_REACTORS
330
8974
102
}
330
8974
100
AcDbXrecord
280
     1
102
RTVSPropertyOp0
 70
     0
102
RTVSPropertyOp1
 70
     0
102
RTVSPropertyOp2
 70
     0
102
RTVSPropertyOp3
 70
     0
102
RTVSPropertyOp4
 70
     0
102
RTVSPropertyOp5
 70
     0
102
RTVSPropertyOp6
 70
     0
102
RTVSPropertyOp7
 70
     0
102
RTVSPropertyOp8
 70
     0
102
RTVSPropertyOp9
 70
     0
102
RTVSPropertyOp10
 70
     0
102
RTVSPropertyOp11
 70
     0
102
RTVSPropertyOp12
 70
     0
102
RTVSPropertyOp13
 70
     0
102
RTVSPropertyOp14
 70
     2
102
RTVSPropertyOp15
 70
     0
102
RTVSPropertyOp16
 70
     0
102
RTVSPropertyOp17
 70
     0
102
RTVSPropertyOp18
 70
     0
102
RTVSPropertyOp19
 70
     0
102
RTVSPropertyOp20
 70
     0
102
RTVSPropertyOp21
 70
     0
102
RTVSPropertyOp22
 70
     0
102
RTVSPropertyOp23
 70
     0
102
RTVSPropertyOp24
 70
     0
102
RTVSPropertyOp25
 70
     0
102
RTVSPropertyOp26
 70
     0
102
RTVSPropertyOp27
 70
     0
102
RTVSPropertyOp28
 70
     0
102
RTVSPropertyOp29
 70
     0
102
RTVSPropertyOp30
 70
     0
102
RTVSPropertyOp31
 70
     0
102
RTVSPropertyOp32
 70
     0
  0
XRECORD
  5
895E
102
{ACAD_REACTORS
330
895D
102
}
330
895D
100
AcDbXrecord
280
     1
102
RTVSPropertyOp0
 70
     1
102
RTVSPropertyOp1
 70
     1
102
RTVSPropertyOp2
 70
     1
102
RTVSPropertyOp3
 70
     1
102
RTVSPropertyOp4
 70
     1
102
RTVSPropertyOp5
 70
     1
102
RTVSPropertyOp6
 70
     1
102
RTVSPropertyOp7
 70
     1
102
RTVSPropertyOp8
 70
     1
102
RTVSPropertyOp9
 70
     1
102
RTVSPropertyOp10
 70
     1
102
RTVSPropertyOp11
 70
     1
102
RTVSPropertyOp12
 70
     1
102
RTVSPropertyOp13
 70
     1
102
RTVSPropertyOp14
 70
     1
102
RTVSPropertyOp15
 70
     1
102
RTVSPropertyOp16
 70
     1
102
RTVSPropertyOp17
 70
     1
102
RTVSPropertyOp18
 70
     1
102
RTVSPropertyOp19
 70
     1
102
RTVSPropertyOp20
 70
     1
102
RTVSPropertyOp21
 70
     1
102
RTVSPropertyOp22
 70
     1
102
RTVSPropertyOp23
 70
     1
102
RTVSPropertyOp24
 70
     1
102
RTVSPropertyOp25
 70
     1
102
RTVSPropertyOp26
 70
     1
102
RTVSPropertyOp27
 70
     1
102
RTVSPropertyOp28
 70
     1
102
RTVSPropertyOp29
 70
     1
102
RTVSPropertyOp30
 70
     1
102
RTVSPropertyOp31
 70
     1
102
RTVSPropertyOp32
 70
     1
  0
XRECORD
  5
8942
102
{ACAD_REACTORS
330
8941
102
}
330
8941
100
AcDbXrecord
280
     1
102
RTVSPropertyOp0
 70
     1
102
RTVSPropertyOp1
 70
     1
102
RTVSPropertyOp2
 70
     1
102
RTVSPropertyOp3
 70
     1
102
RTVSPropertyOp4
 70
     1
102
RTVSPropertyOp5
 70
     1
102
RTVSPropertyOp6
 70
     1
102
RTVSPropertyOp7
 70
     1
102
RTVSPropertyOp8
 70
     1
102
RTVSPropertyOp9
 70
     1
102
RTVSPropertyOp10
 70
     1
102
RTVSPropertyOp11
 70
     1
102
RTVSPropertyOp12
 70
     1
102
RTVSPropertyOp13
 70
     1
102
RTVSPropertyOp14
 70
     1
102
RTVSPropertyOp15
 70
     1
102
RTVSPropertyOp16
 70
     1
102
RTVSPropertyOp17
 70
     1
102
RTVSPropertyOp18
 70
     1
102
RTVSPropertyOp19
 70
     1
102
RTVSPropertyOp20
 70
     1
102
RTVSPropertyOp21
 70
     1
102
RTVSPropertyOp22
 70
     1
102
RTVSPropertyOp23
 70
     1
102
RTVSPropertyOp24
 70
     1
102
RTVSPropertyOp25
 70
     1
102
RTVSPropertyOp26
 70
     1
102
RTVSPropertyOp27
 70
     1
102
RTVSPropertyOp28
 70
     1
102
RTVSPropertyOp29
 70
     1
102
RTVSPropertyOp30
 70
     1
102
RTVSPropertyOp31
 70
     1
102
RTVSPropertyOp32
 70
     1
  0
XRECORD
  5
8944
102
{ACAD_REACTORS
330
8943
102
}
330
8943
100
AcDbXrecord
280
     1
102
RTVSPropertyOp0
 70
     1
102
RTVSPropertyOp1
 70
     1
102
RTVSPropertyOp2
 70
     1
102
RTVSPropertyOp3
 70
     1
102
RTVSPropertyOp4
 70
     1
102
RTVSPropertyOp5
 70
     1
102
RTVSPropertyOp6
 70
     1
102
RTVSPropertyOp7
 70
     1
102
RTVSPropertyOp8
 70
     1
102
RTVSPropertyOp9
 70
     1
102
RTVSPropertyOp10
 70
     1
102
RTVSPropertyOp11
 70
     1
102
RTVSPropertyOp12
 70
     1
102
RTVSPropertyOp13
 70
     1
102
RTVSPropertyOp14
 70
     1
102
RTVSPropertyOp15
 70
     1
102
RTVSPropertyOp16
 70
     1
102
RTVSPropertyOp17
 70
     1
102
RTVSPropertyOp18
 70
     1
102
RTVSPropertyOp19
 70
     1
102
RTVSPropertyOp20
 70
     1
102
RTVSPropertyOp21
 70
     1
102
RTVSPropertyOp22
 70
     1
102
RTVSPropertyOp23
 70
     1
102
RTVSPropertyOp24
 70
     1
102
RTVSPropertyOp25
 70
     1
102
RTVSPropertyOp26
 70
     1
102
RTVSPropertyOp27
 70
     1
102
RTVSPropertyOp28
 70
     1
102
RTVSPropertyOp29
 70
     1
102
RTVSPropertyOp30
 70
     1
102
RTVSPropertyOp31
 70
     1
102
RTVSPropertyOp32
 70
     1
  0
XRECORD
  5
8946
102
{ACAD_REACTORS
330
8945
102
}
330
8945
100
AcDbXrecord
280
     1
102
RTVSPropertyOp0
 70
     1
102
RTVSPropertyOp1
 70
     1
102
RTVSPropertyOp2
 70
     1
102
RTVSPropertyOp3
 70
     1
102
RTVSPropertyOp4
 70
     1
102
RTVSPropertyOp5
 70
     1
102
RTVSPropertyOp6
 70
     1
102
RTVSPropertyOp7
 70
     1
102
RTVSPropertyOp8
 70
     1
102
RTVSPropertyOp9
 70
     1
102
RTVSPropertyOp10
 70
     1
102
RTVSPropertyOp11
 70
     1
102
RTVSPropertyOp12
 70
     1
102
RTVSPropertyOp13
 70
     1
102
RTVSPropertyOp14
 70
     1
102
RTVSPropertyOp15
 70
     1
102
RTVSPropertyOp16
 70
     1
102
RTVSPropertyOp17
 70
     1
102
RTVSPropertyOp18
 70
     1
102
RTVSPropertyOp19
 70
     1
102
RTVSPropertyOp20
 70
     1
102
RTVSPropertyOp21
 70
     1
102
RTVSPropertyOp22
 70
     1
102
RTVSPropertyOp23
 70
     1
102
RTVSPropertyOp24
 70
     1
102
RTVSPropertyOp25
 70
     1
102
RTVSPropertyOp26
 70
     1
102
RTVSPropertyOp27
 70
     1
102
RTVSPropertyOp28
 70
     1
102
RTVSPropertyOp29
 70
     1
102
RTVSPropertyOp30
 70
     1
102
RTVSPropertyOp31
 70
     1
102
RTVSPropertyOp32
 70
     1
  0
XRECORD
  5
8948
102
{ACAD_REACTORS
330
8947
102
}
330
8947
100
AcDbXrecord
280
     1
102
RTVSPropertyOp0
 70
     1
102
RTVSPropertyOp1
 70
     1
102
RTVSPropertyOp2
 70
     1
102
RTVSPropertyOp3
 70
     1
102
RTVSPropertyOp4
 70
     1
102
RTVSPropertyOp5
 70
     1
102
RTVSPropertyOp6
 70
     1
102
RTVSPropertyOp7
 70
     1
102
RTVSPropertyOp8
 70
     1
102
RTVSPropertyOp9
 70
     1
102
RTVSPropertyOp10
 70
     1
102
RTVSPropertyOp11
 70
     1
102
RTVSPropertyOp12
 70
     1
102
RTVSPropertyOp13
 70
     1
102
RTVSPropertyOp14
 70
     1
102
RTVSPropertyOp15
 70
     1
102
RTVSPropertyOp16
 70
     1
102
RTVSPropertyOp17
 70
     1
102
RTVSPropertyOp18
 70
     1
102
RTVSPropertyOp19
 70
     1
102
RTVSPropertyOp20
 70
     1
102
RTVSPropertyOp21
 70
     1
102
RTVSPropertyOp22
 70
     1
102
RTVSPropertyOp23
 70
     1
102
RTVSPropertyOp24
 70
     1
102
RTVSPropertyOp25
 70
     1
102
RTVSPropertyOp26
 70
     1
102
RTVSPropertyOp27
 70
     1
102
RTVSPropertyOp28
 70
     1
102
RTVSPropertyOp29
 70
     1
102
RTVSPropertyOp30
 70
     1
102
RTVSPropertyOp31
 70
     1
102
RTVSPropertyOp32
 70
     1
  0
XRECORD
  5
8965
102
{ACAD_REACTORS
330
8964
102
}
330
8964
100
AcDbXrecord
280
     1
102
RTVSPropertyOp0
 70
     1
102
RTVSPropertyOp1
 70
     1
102
RTVSPropertyOp2
 70
     1
102
RTVSPropertyOp3
 70
     1
102
RTVSPropertyOp4
 70
     1
102
RTVSPropertyOp5
 70
     1
102
RTVSPropertyOp6
 70
     1
102
RTVSPropertyOp7
 70
     1
102
RTVSPropertyOp8
 70
     1
102
RTVSPropertyOp9
 70
     1
102
RTVSPropertyOp10
 70
     1
102
RTVSPropertyOp11
 70
     1
102
RTVSPropertyOp12
 70
     1
102
RTVSPropertyOp13
 70
     1
102
RTVSPropertyOp14
 70
     1
102
RTVSPropertyOp15
 70
     1
102
RTVSPropertyOp16
 70
     1
102
RTVSPropertyOp17
 70
     1
102
RTVSPropertyOp18
 70
     1
102
RTVSPropertyOp19
 70
     1
102
RTVSPropertyOp20
 70
     1
102
RTVSPropertyOp21
 70
     1
102
RTVSPropertyOp22
 70
     1
102
RTVSPropertyOp23
 70
     1
102
RTVSPropertyOp24
 70
     1
102
RTVSPropertyOp25
 70
     1
102
RTVSPropertyOp26
 70
     1
102
RTVSPropertyOp27
 70
     1
102
RTVSPropertyOp28
 70
     1
102
RTVSPropertyOp29
 70
     1
102
RTVSPropertyOp30
 70
     1
102
RTVSPropertyOp31
 70
     1
102
RTVSPropertyOp32
 70
     1
  0
XRECORD
  5
8971
102
{ACAD_REACTORS
330
8970
102
}
330
8970
100
AcDbXrecord
280
     1
102
RTVSPropertyOp0
 70
     0
102
RTVSPropertyOp1
 70
     0
102
RTVSPropertyOp2
 70
     0
102
RTVSPropertyOp3
 70
     0
102
RTVSPropertyOp4
 70
     0
102
RTVSPropertyOp5
 70
     0
102
RTVSPropertyOp6
 70
     0
102
RTVSPropertyOp7
 70
     0
102
RTVSPropertyOp8
 70
     0
102
RTVSPropertyOp9
 70
     0
102
RTVSPropertyOp10
 70
     0
102
RTVSPropertyOp11
 70
     0
102
RTVSPropertyOp12
 70
     0
102
RTVSPropertyOp13
 70
     0
102
RTVSPropertyOp14
 70
     2
102
RTVSPropertyOp15
 70
     0
102
RTVSPropertyOp16
 70
     0
102
RTVSPropertyOp17
 70
     0
102
RTVSPropertyOp18
 70
     0
102
RTVSPropertyOp19
 70
     0
102
RTVSPropertyOp20
 70
     0
102
RTVSPropertyOp21
 70
     0
102
RTVSPropertyOp22
 70
     0
102
RTVSPropertyOp23
 70
     0
102
RTVSPropertyOp24
 70
     0
102
RTVSPropertyOp25
 70
     0
102
RTVSPropertyOp26
 70
     0
102
RTVSPropertyOp27
 70
     0
102
RTVSPropertyOp28
 70
     0
102
RTVSPropertyOp29
 70
     0
102
RTVSPropertyOp30
 70
     0
102
RTVSPropertyOp31
 70
     0
102
RTVSPropertyOp32
 70
     0
  0
XRECORD
  5
895C
102
{ACAD_REACTORS
330
895B
102
}
330
895B
100
AcDbXrecord
280
     1
102
RTVSPropertyOp0
 70
     1
102
RTVSPropertyOp1
 70
     1
102
RTVSPropertyOp2
 70
     1
102
RTVSPropertyOp3
 70
     1
102
RTVSPropertyOp4
 70
     1
102
RTVSPropertyOp5
 70
     1
102
RTVSPropertyOp6
 70
     1
102
RTVSPropertyOp7
 70
     1
102
RTVSPropertyOp8
 70
     1
102
RTVSPropertyOp9
 70
     1
102
RTVSPropertyOp10
 70
     1
102
RTVSPropertyOp11
 70
     1
102
RTVSPropertyOp12
 70
     1
102
RTVSPropertyOp13
 70
     1
102
RTVSPropertyOp14
 70
     1
102
RTVSPropertyOp15
 70
     1
102
RTVSPropertyOp16
 70
     1
102
RTVSPropertyOp17
 70
     1
102
RTVSPropertyOp18
 70
     1
102
RTVSPropertyOp19
 70
     1
102
RTVSPropertyOp20
 70
     1
102
RTVSPropertyOp21
 70
     1
102
RTVSPropertyOp22
 70
     1
102
RTVSPropertyOp23
 70
     1
102
RTVSPropertyOp24
 70
     1
102
RTVSPropertyOp25
 70
     1
102
RTVSPropertyOp26
 70
     1
102
RTVSPropertyOp27
 70
     1
102
RTVSPropertyOp28
 70
     1
102
RTVSPropertyOp29
 70
     1
102
RTVSPropertyOp30
 70
     1
102
RTVSPropertyOp31
 70
     1
102
RTVSPropertyOp32
 70
     1
  0
XRECORD
  5
8973
102
{ACAD_REACTORS
330
8972
102
}
330
8972
100
AcDbXrecord
280
     1
102
RTVSPropertyOp0
 70
     0
102
RTVSPropertyOp1
 70
     0
102
RTVSPropertyOp2
 70
     0
102
RTVSPropertyOp3
 70
     0
102
RTVSPropertyOp4
 70
     0
102
RTVSPropertyOp5
 70
     0
102
RTVSPropertyOp6
 70
     0
102
RTVSPropertyOp7
 70
     0
102
RTVSPropertyOp8
 70
     0
102
RTVSPropertyOp9
 70
     0
102
RTVSPropertyOp10
 70
     0
102
RTVSPropertyOp11
 70
     0
102
RTVSPropertyOp12
 70
     0
102
RTVSPropertyOp13
 70
     0
102
RTVSPropertyOp14
 70
     2
102
RTVSPropertyOp15
 70
     0
102
RTVSPropertyOp16
 70
     0
102
RTVSPropertyOp17
 70
     0
102
RTVSPropertyOp18
 70
     0
102
RTVSPropertyOp19
 70
     0
102
RTVSPropertyOp20
 70
     0
102
RTVSPropertyOp21
 70
     0
102
RTVSPropertyOp22
 70
     0
102
RTVSPropertyOp23
 70
     0
102
RTVSPropertyOp24
 70
     0
102
RTVSPropertyOp25
 70
     0
102
RTVSPropertyOp26
 70
     0
102
RTVSPropertyOp27
 70
     0
102
RTVSPropertyOp28
 70
     0
102
RTVSPropertyOp29
 70
     0
102
RTVSPropertyOp30
 70
     0
102
RTVSPropertyOp31
 70
     0
102
RTVSPropertyOp32
 70
     0
  0
XRECORD
  5
8954
102
{ACAD_REACTORS
330
8953
102
}
330
8953
100
AcDbXrecord
280
     1
102
RTVSPropertyOp0
 70
     1
102
RTVSPropertyOp1
 70
     1
102
RTVSPropertyOp2
 70
     1
102
RTVSPropertyOp3
 70
     1
102
RTVSPropertyOp4
 70
     1
102
RTVSPropertyOp5
 70
     1
102
RTVSPropertyOp6
 70
     1
102
RTVSPropertyOp7
 70
     1
102
RTVSPropertyOp8
 70
     1
102
RTVSPropertyOp9
 70
     1
102
RTVSPropertyOp10
 70
     1
102
RTVSPropertyOp11
 70
     1
102
RTVSPropertyOp12
 70
     1
102
RTVSPropertyOp13
 70
     1
102
RTVSPropertyOp14
 70
     1
102
RTVSPropertyOp15
 70
     1
102
RTVSPropertyOp16
 70
     1
102
RTVSPropertyOp17
 70
     1
102
RTVSPropertyOp18
 70
     1
102
RTVSPropertyOp19
 70
     1
102
RTVSPropertyOp20
 70
     1
102
RTVSPropertyOp21
 70
     1
102
RTVSPropertyOp22
 70
     1
102
RTVSPropertyOp23
 70
     1
102
RTVSPropertyOp24
 70
     1
102
RTVSPropertyOp25
 70
     1
102
RTVSPropertyOp26
 70
     1
102
RTVSPropertyOp27
 70
     1
102
RTVSPropertyOp28
 70
     1
102
RTVSPropertyOp29
 70
     1
102
RTVSPropertyOp30
 70
     1
102
RTVSPropertyOp31
 70
     1
102
RTVSPropertyOp32
 70
     1
  0
XRECORD
  5
896F
102
{ACAD_REACTORS
330
896E
102
}
330
896E
100
AcDbXrecord
280
     1
102
RTVSPropertyOp0
 70
     1
102
RTVSPropertyOp1
 70
     1
102
RTVSPropertyOp2
 70
     1
102
RTVSPropertyOp3
 70
     1
102
RTVSPropertyOp4
 70
     1
102
RTVSPropertyOp5
 70
     1
102
RTVSPropertyOp6
 70
     1
102
RTVSPropertyOp7
 70
     1
102
RTVSPropertyOp8
 70
     1
102
RTVSPropertyOp9
 70
     1
102
RTVSPropertyOp10
 70
     1
102
RTVSPropertyOp11
 70
     1
102
RTVSPropertyOp12
 70
     1
102
RTVSPropertyOp13
 70
     1
102
RTVSPropertyOp14
 70
     1
102
RTVSPropertyOp15
 70
     1
102
RTVSPropertyOp16
 70
     1
102
RTVSPropertyOp17
 70
     1
102
RTVSPropertyOp18
 70
     1
102
RTVSPropertyOp19
 70
     1
102
RTVSPropertyOp20
 70
     1
102
RTVSPropertyOp21
 70
     1
102
RTVSPropertyOp22
 70
     1
102
RTVSPropertyOp23
 70
     1
102
RTVSPropertyOp24
 70
     1
102
RTVSPropertyOp25
 70
     1
102
RTVSPropertyOp26
 70
     1
102
RTVSPropertyOp27
 70
     1
102
RTVSPropertyOp28
 70
     1
102
RTVSPropertyOp29
 70
     1
102
RTVSPropertyOp30
 70
     1
102
RTVSPropertyOp31
 70
     1
102
RTVSPropertyOp32
 70
     1
  0
XRECORD
  5
896D
102
{ACAD_REACTORS
330
896C
102
}
330
896C
100
AcDbXrecord
280
     1
102
RTVSPropertyOp0
 70
     1
102
RTVSPropertyOp1
 70
     1
102
RTVSPropertyOp2
 70
     1
102
RTVSPropertyOp3
 70
     1
102
RTVSPropertyOp4
 70
     1
102
RTVSPropertyOp5
 70
     1
102
RTVSPropertyOp6
 70
     1
102
RTVSPropertyOp7
 70
     1
102
RTVSPropertyOp8
 70
     1
102
RTVSPropertyOp9
 70
     1
102
RTVSPropertyOp10
 70
     1
102
RTVSPropertyOp11
 70
     1
102
RTVSPropertyOp12
 70
     1
102
RTVSPropertyOp13
 70
     1
102
RTVSPropertyOp14
 70
     1
102
RTVSPropertyOp15
 70
     1
102
RTVSPropertyOp16
 70
     1
102
RTVSPropertyOp17
 70
     1
102
RTVSPropertyOp18
 70
     1
102
RTVSPropertyOp19
 70
     1
102
RTVSPropertyOp20
 70
     1
102
RTVSPropertyOp21
 70
     1
102
RTVSPropertyOp22
 70
     1
102
RTVSPropertyOp23
 70
     1
102
RTVSPropertyOp24
 70
     1
102
RTVSPropertyOp25
 70
     1
102
RTVSPropertyOp26
 70
     1
102
RTVSPropertyOp27
 70
     1
102
RTVSPropertyOp28
 70
     1
102
RTVSPropertyOp29
 70
     1
102
RTVSPropertyOp30
 70
     1
102
RTVSPropertyOp31
 70
     1
102
RTVSPropertyOp32
 70
     1
  0
XRECORD
  5
8967
102
{ACAD_REACTORS
330
8966
102
}
330
8966
100
AcDbXrecord
280
     1
102
RTVSPropertyOp0
 70
     1
102
RTVSPropertyOp1
 70
     1
102
RTVSPropertyOp2
 70
     1
102
RTVSPropertyOp3
 70
     1
102
RTVSPropertyOp4
 70
     1
102
RTVSPropertyOp5
 70
     1
102
RTVSPropertyOp6
 70
     1
102
RTVSPropertyOp7
 70
     1
102
RTVSPropertyOp8
 70
     1
102
RTVSPropertyOp9
 70
     1
102
RTVSPropertyOp10
 70
     1
102
RTVSPropertyOp11
 70
     1
102
RTVSPropertyOp12
 70
     1
102
RTVSPropertyOp13
 70
     1
102
RTVSPropertyOp14
 70
     1
102
RTVSPropertyOp15
 70
     1
102
RTVSPropertyOp16
 70
     1
102
RTVSPropertyOp17
 70
     1
102
RTVSPropertyOp18
 70
     1
102
RTVSPropertyOp19
 70
     1
102
RTVSPropertyOp20
 70
     1
102
RTVSPropertyOp21
 70
     1
102
RTVSPropertyOp22
 70
     1
102
RTVSPropertyOp23
 70
     1
102
RTVSPropertyOp24
 70
     1
102
RTVSPropertyOp25
 70
     1
102
RTVSPropertyOp26
 70
     1
102
RTVSPropertyOp27
 70
     1
102
RTVSPropertyOp28
 70
     1
102
RTVSPropertyOp29
 70
     1
102
RTVSPropertyOp30
 70
     1
102
RTVSPropertyOp31
 70
     1
102
RTVSPropertyOp32
 70
     1
  0
XRECORD
  5
8969
102
{ACAD_REACTORS
330
8968
102
}
330
8968
100
AcDbXrecord
280
     1
102
RTVSPropertyOp0
 70
     1
102
RTVSPropertyOp1
 70
     1
102
RTVSPropertyOp2
 70
     1
102
RTVSPropertyOp3
 70
     1
102
RTVSPropertyOp4
 70
     1
102
RTVSPropertyOp5
 70
     1
102
RTVSPropertyOp6
 70
     1
102
RTVSPropertyOp7
 70
     1
102
RTVSPropertyOp8
 70
     1
102
RTVSPropertyOp9
 70
     1
102
RTVSPropertyOp10
 70
     1
102
RTVSPropertyOp11
 70
     1
102
RTVSPropertyOp12
 70
     1
102
RTVSPropertyOp13
 70
     1
102
RTVSPropertyOp14
 70
     1
102
RTVSPropertyOp15
 70
     1
102
RTVSPropertyOp16
 70
     1
102
RTVSPropertyOp17
 70
     1
102
RTVSPropertyOp18
 70
     1
102
RTVSPropertyOp19
 70
     1
102
RTVSPropertyOp20
 70
     1
102
RTVSPropertyOp21
 70
     1
102
RTVSPropertyOp22
 70
     1
102
RTVSPropertyOp23
 70
     1
102
RTVSPropertyOp24
 70
     1
102
RTVSPropertyOp25
 70
     1
102
RTVSPropertyOp26
 70
     1
102
RTVSPropertyOp27
 70
     1
102
RTVSPropertyOp28
 70
     1
102
RTVSPropertyOp29
 70
     1
102
RTVSPropertyOp30
 70
     1
102
RTVSPropertyOp31
 70
     1
102
RTVSPropertyOp32
 70
     1
  0
XRECORD
  5
895A
102
{ACAD_REACTORS
330
8959
102
}
330
8959
100
AcDbXrecord
280
     1
102
RTVSPropertyOp0
 70
     1
102
RTVSPropertyOp1
 70
     1
102
RTVSPropertyOp2
 70
     1
102
RTVSPropertyOp3
 70
     1
102
RTVSPropertyOp4
 70
     1
102
RTVSPropertyOp5
 70
     1
102
RTVSPropertyOp6
 70
     1
102
RTVSPropertyOp7
 70
     1
102
RTVSPropertyOp8
 70
     1
102
RTVSPropertyOp9
 70
     1
102
RTVSPropertyOp10
 70
     1
102
RTVSPropertyOp11
 70
     1
102
RTVSPropertyOp12
 70
     1
102
RTVSPropertyOp13
 70
     1
102
RTVSPropertyOp14
 70
     1
102
RTVSPropertyOp15
 70
     1
102
RTVSPropertyOp16
 70
     1
102
RTVSPropertyOp17
 70
     1
102
RTVSPropertyOp18
 70
     1
102
RTVSPropertyOp19
 70
     1
102
RTVSPropertyOp20
 70
     1
102
RTVSPropertyOp21
 70
     1
102
RTVSPropertyOp22
 70
     1
102
RTVSPropertyOp23
 70
     1
102
RTVSPropertyOp24
 70
     1
102
RTVSPropertyOp25
 70
     1
102
RTVSPropertyOp26
 70
     1
102
RTVSPropertyOp27
 70
     1
102
RTVSPropertyOp28
 70
     1
102
RTVSPropertyOp29
 70
     1
102
RTVSPropertyOp30
 70
     1
102
RTVSPropertyOp31
 70
     1
102
RTVSPropertyOp32
 70
     1
  0
XRECORD
  5
8963
102
{ACAD_REACTORS
330
8962
102
}
330
8962
100
AcDbXrecord
280
     1
102
RTVSPropertyOp0
 70
     1
102
RTVSPropertyOp1
 70
     1
102
RTVSPropertyOp2
 70
     1
102
RTVSPropertyOp3
 70
     1
102
RTVSPropertyOp4
 70
     1
102
RTVSPropertyOp5
 70
     1
102
RTVSPropertyOp6
 70
     1
102
RTVSPropertyOp7
 70
     1
102
RTVSPropertyOp8
 70
     1
102
RTVSPropertyOp9
 70
     1
102
RTVSPropertyOp10
 70
     1
102
RTVSPropertyOp11
 70
     1
102
RTVSPropertyOp12
 70
     1
102
RTVSPropertyOp13
 70
     1
102
RTVSPropertyOp14
 70
     1
102
RTVSPropertyOp15
 70
     1
102
RTVSPropertyOp16
 70
     1
102
RTVSPropertyOp17
 70
     1
102
RTVSPropertyOp18
 70
     1
102
RTVSPropertyOp19
 70
     1
102
RTVSPropertyOp20
 70
     1
102
RTVSPropertyOp21
 70
     1
102
RTVSPropertyOp22
 70
     1
102
RTVSPropertyOp23
 70
     1
102
RTVSPropertyOp24
 70
     1
102
RTVSPropertyOp25
 70
     1
102
RTVSPropertyOp26
 70
     1
102
RTVSPropertyOp27
 70
     1
102
RTVSPropertyOp28
 70
     1
102
RTVSPropertyOp29
 70
     1
102
RTVSPropertyOp30
 70
     1
102
RTVSPropertyOp31
 70
     1
102
RTVSPropertyOp32
 70
     1
  0
XRECORD
  5
896B
102
{ACAD_REACTORS
330
896A
102
}
330
896A
100
AcDbXrecord
280
     1
102
RTVSPropertyOp0
 70
     1
102
RTVSPropertyOp1
 70
     1
102
RTVSPropertyOp2
 70
     1
102
RTVSPropertyOp3
 70
     1
102
RTVSPropertyOp4
 70
     1
102
RTVSPropertyOp5
 70
     1
102
RTVSPropertyOp6
 70
     1
102
RTVSPropertyOp7
 70
     1
102
RTVSPropertyOp8
 70
     1
102
RTVSPropertyOp9
 70
     1
102
RTVSPropertyOp10
 70
     1
102
RTVSPropertyOp11
 70
     1
102
RTVSPropertyOp12
 70
     1
102
RTVSPropertyOp13
 70
     1
102
RTVSPropertyOp14
 70
     1
102
RTVSPropertyOp15
 70
     1
102
RTVSPropertyOp16
 70
     1
102
RTVSPropertyOp17
 70
     1
102
RTVSPropertyOp18
 70
     1
102
RTVSPropertyOp19
 70
     1
102
RTVSPropertyOp20
 70
     1
102
RTVSPropertyOp21
 70
     1
102
RTVSPropertyOp22
 70
     1
102
RTVSPropertyOp23
 70
     1
102
RTVSPropertyOp24
 70
     1
102
RTVSPropertyOp25
 70
     1
102
RTVSPropertyOp26
 70
     1
102
RTVSPropertyOp27
 70
     1
102
RTVSPropertyOp28
 70
     1
102
RTVSPropertyOp29
 70
     1
102
RTVSPropertyOp30
 70
     1
102
RTVSPropertyOp31
 70
     1
102
RTVSPropertyOp32
 70
     1
  0
ENDSEC
  0
EOF
