  0
SECTION
  2
HEADER
  9
$ACADVER
  1
AC1015
  9
$ACADMAINTVER
 70
    18
  9
$DWGCODEPAGE
  3
ANSI_1252
  9
$INSBASE
 10
0.0
 20
0.0
 30
0.0
  9
$EXTMIN
 10
-0.0018951617589168
 20
-0.0006657314757203
 30
-0.0000000349181948
  9
$EXTMAX
 10
22.00091812167374
 20
17.00013867493208
 30
0.0000000814935746
  9
$LIMMIN
 10
0.0000000169183778
 20
0.000000006132197
  9
$LIMMAX
 10
34.00000001691838
 20
22.0000000061322
  9
$ORTHOMODE
 70
     0
  9
$REGENMODE
 70
     1
  9
$FILLMODE
 70
     1
  9
$QTEXTMODE
 70
     0
  9
$MIRRTEXT
 70
     1
  9
$LTSCALE
 40
0.5
  9
$ATTMODE
 70
     1
  9
$TEXTSIZE
 40
0.25
  9
$TRACEWID
 40
0.05
  9
$TEXTSTYLE
  7
Standard
  9
$CLAYER
  8
0
  9
$CELTYPE
  6
ByLayer
  9
$CECOLOR
 62
   256
  9
$CELTSCALE
 40
1.0
  9
$DISPSILH
 70
     0
  9
$DIMSCALE
 40
1.0
  9
$DIMASZ
 40
0.18
  9
$DIMEXO
 40
0.0625
  9
$DIMDLI
 40
0.38
  9
$DIMRND
 40
0.0
  9
$DIMDLE
 40
0.0
  9
$DIMEXE
 40
0.18
  9
$DIMTP
 40
0.0
  9
$DIMTM
 40
0.0
  9
$DIMTXT
 40
0.125
  9
$DIMCEN
 40
0.09
  9
$DIMTSZ
 40
0.0
  9
$DIMTOL
 70
     0
  9
$DIMLIM
 70
     0
  9
$DIMTIH
 70
     1
  9
$DIMTOH
 70
     1
  9
$DIMSE1
 70
     0
  9
$DIMSE2
 70
     0
  9
$DIMTAD
 70
     0
  9
$DIMZIN
 70
     0
  9
$DIMBLK
  1

  9
$DIMASO
 70
     1
  9
$DIMSHO
 70
     1
  9
$DIMPOST
  1

  9
$DIMAPOST
  1

  9
$DIMALT
 70
     1
  9
$DIMALTD
 70
     2
  9
$DIMALTF
 40
25.4
  9
$DIMLFAC
 40
1.0
  9
$DIMTOFL
 70
     0
  9
$DIMTVP
 40
0.0
  9
$DIMTIX
 70
     0
  9
$DIMSOXD
 70
     0
  9
$DIMSAH
 70
     0
  9
$DIMBLK1
  1

  9
$DIMBLK2
  1

  9
$DIMSTYLE
  2
Standard
  9
$DIMCLRD
 70
     0
  9
$DIMCLRE
 70
     0
  9
$DIMCLRT
 70
     0
  9
$DIMTFAC
 40
1.0
  9
$DIMGAP
 40
0.09
  9
$DIMJUST
 70
     0
  9
$DIMSD1
 70
     0
  9
$DIMSD2
 70
     0
  9
$DIMTOLJ
 70
     1
  9
$DIMTZIN
 70
     0
  9
$DIMALTZ
 70
     0
  9
$DIMALTTZ
 70
     0
  9
$DIMUPT
 70
     0
  9
$DIMDEC
 70
     2
  9
$DIMTDEC
 70
     2
  9
$DIMALTU
 70
     2
  9
$DIMALTTD
 70
     2
  9
$DIMTXSTY
  7
Standard
  9
$DIMAUNIT
 70
     0
  9
$DIMADEC
 70
     0
  9
$DIMALTRND
 40
0.0
  9
$DIMAZIN
 70
     0
  9
$DIMDSEP
 70
    46
  9
$DIMATFIT
 70
     3
  9
$DIMFRAC
 70
     0
  9
$DIMLDRBLK
  1

  9
$DIMLUNIT
 70
     2
  9
$DIMLWD
 70
    -2
  9
$DIMLWE
 70
    -2
  9
$DIMTMOVE
 70
     0
  9
$LUNITS
 70
     2
  9
$LUPREC
 70
     4
  9
$SKETCHINC
 40
0.1
  9
$FILLETRAD
 40
0.0
  9
$AUNITS
 70
     0
  9
$AUPREC
 70
     0
  9
$MENU
  1
.
  9
$ELEVATION
 40
0.0
  9
$PELEVATION
 40
0.0
  9
$THICKNESS
 40
0.0
  9
$LIMCHECK
 70
     0
  9
$CHAMFERA
 40
0.5
  9
$CHAMFERB
 40
0.5
  9
$CHAMFERC
 40
1.0
  9
$CHAMFERD
 40
0.0
  9
$SKPOLY
 70
     0
  9
$TDCREATE
 40
2455646.343855880
  9
$TDUCREATE
 40
2455646.510522546
  9
$TDUPDATE
 40
2456008.634570718
  9
$TDUUPDATE
 40
2456008.801237385
  9
$TDINDWG
 40
1.6971585764
  9
$TDUSRTIMER
 40
1.6971585764
  9
$USRTIMER
 70
     1
  9
$ANGBASE
 50
0.0
  9
$ANGDIR
 70
     0
  9
$PDMODE
 70
     0
  9
$PDSIZE
 40
0.0
  9
$PLINEWID
 40
0.0
  9
$SPLFRAME
 70
     0
  9
$SPLINETYPE
 70
     6
  9
$SPLINESEGS
 70
     8
  9
$HANDSEED
  5
7CCC
  9
$SURFTAB1
 70
     6
  9
$SURFTAB2
 70
     6
  9
$SURFTYPE
 70
     6
  9
$SURFU
 70
     6
  9
$SURFV
 70
     6
  9
$UCSBASE
  2

  9
$UCSNAME
  2

  9
$UCSORG
 10
0.0
 20
0.0
 30
0.0
  9
$UCSXDIR
 10
1.0
 20
0.0
 30
0.0
  9
$UCSYDIR
 10
0.0
 20
1.0
 30
0.0
  9
$UCSORTHOREF
  2

  9
$UCSORTHOVIEW
 70
     1
  9
$UCSORGTOP
 10
0.0
 20
0.0
 30
0.0
  9
$UCSORGBOTTOM
 10
0.0
 20
0.0
 30
0.0
  9
$UCSORGLEFT
 10
0.0
 20
0.0
 30
0.0
  9
$UCSORGRIGHT
 10
0.0
 20
0.0
 30
0.0
  9
$UCSORGFRONT
 10
0.0
 20
0.0
 30
0.0
  9
$UCSORGBACK
 10
0.0
 20
0.0
 30
0.0
  9
$PUCSBASE
  2

  9
$PUCSNAME
  2

  9
$PUCSORG
 10
0.0
 20
0.0
 30
0.0
  9
$PUCSXDIR
 10
1.0
 20
0.0
 30
0.0
  9
$PUCSYDIR
 10
0.0
 20
1.0
 30
0.0
  9
$PUCSORTHOREF
  2

  9
$PUCSORTHOVIEW
 70
     0
  9
$PUCSORGTOP
 10
0.0
 20
0.0
 30
0.0
  9
$PUCSORGBOTTOM
 10
0.0
 20
0.0
 30
0.0
  9
$PUCSORGLEFT
 10
0.0
 20
0.0
 30
0.0
  9
$PUCSORGRIGHT
 10
0.0
 20
0.0
 30
0.0
  9
$PUCSORGFRONT
 10
0.0
 20
0.0
 30
0.0
  9
$PUCSORGBACK
 10
0.0
 20
0.0
 30
0.0
  9
$USERI1
 70
     0
  9
$USERI2
 70
     0
  9
$USERI3
 70
     0
  9
$USERI4
 70
     0
  9
$USERI5
 70
     0
  9
$USERR1
 40
0.0
  9
$USERR2
 40
0.0
  9
$USERR3
 40
0.0
  9
$USERR4
 40
0.0
  9
$USERR5
 40
0.0
  9
$WORLDVIEW
 70
     1
  9
$SHADEDGE
 70
     3
  9
$SHADEDIF
 70
    70
  9
$TILEMODE
 70
     1
  9
$MAXACTVP
 70
    64
  9
$PINSBASE
 10
0.0
 20
0.0
 30
0.0
  9
$PLIMCHECK
 70
     0
  9
$PEXTMIN
 10
1.000000000000000E+20
 20
1.000000000000000E+20
 30
1.000000000000000E+20
  9
$PEXTMAX
 10
-1.000000000000000E+20
 20
-1.000000000000000E+20
 30
-1.000000000000000E+20
  9
$PLIMMIN
 10
0.0
 20
0.0
  9
$PLIMMAX
 10
12.0
 20
9.0
  9
$UNITMODE
 70
     0
  9
$VISRETAIN
 70
     1
  9
$PLINEGEN
 70
     0
  9
$PSLTSCALE
 70
     1
  9
$TREEDEPTH
 70
  3020
  9
$CMLSTYLE
  2
Standard
  9
$CMLJUST
 70
     0
  9
$CMLSCALE
 40
1.0
  9
$PROXYGRAPHICS
 70
     1
  9
$MEASUREMENT
 70
     0
  9
$CELWEIGHT
370
    -1
  9
$ENDCAPS
280
     0
  9
$JOINSTYLE
280
     0
  9
$LWDISPLAY
290
     0
  9
$INSUNITS
 70
     0
  9
$HYPERLINKBASE
  1

  9
$STYLESHEET
  1
monochromeII.ctb
  9
$XEDIT
290
     1
  9
$CEPSNTYPE
380
     0
  9
$PSTYLEMODE
290
     1
  9
$FINGERPRINTGUID
  2
{64101CB1-6290-486C-808A-919D98B85827}
  9
$VERSIONGUID
  2
{9694FA3E-BD36-4986-B035-05E1F2C199C1}
  9
$EXTNAMES
290
     1
  9
$PSVPSCALE
 40
0.0
  9
$OLESTARTUP
290
     0
  0
ENDSEC
  0
SECTION
  2
CLASSES
  0
CLASS
  1
ACDBDICTIONARYWDFLT
  2
AcDbDictionaryWithDefault
  3
ObjectDBX Classes
 90
        0
280
     0
281
     0
  0
CLASS
  1
ACDBPLACEHOLDER
  2
AcDbPlaceHolder
  3
ObjectDBX Classes
 90
        0
280
     0
281
     0
  0
CLASS
  1
LAYOUT
  2
AcDbLayout
  3
ObjectDBX Classes
 90
        0
280
     0
281
     0
  0
CLASS
  1
MATERIAL
  2
AcDbMaterial
  3
ObjectDBX Classes
 90
     1153
280
     0
281
     0
  0
CLASS
  1
VISUALSTYLE
  2
AcDbVisualStyle
  3
ObjectDBX Classes
 90
     4095
280
     0
281
     0
  0
CLASS
  1
TABLESTYLE
  2
AcDbTableStyle
  3
ObjectDBX Classes
 90
     4095
280
     0
281
     0
  0
CLASS
  1
SCALE
  2
AcDbScale
  3
ObjectDBX Classes
 90
     1153
280
     0
281
     0
  0
CLASS
  1
MLEADERSTYLE
  2
AcDbMLeaderStyle
  3
ACDB_MLEADERSTYLE_CLASS
 90
     4095
280
     0
281
     0
  0
CLASS
  1
CELLSTYLEMAP
  2
AcDbCellStyleMap
  3
ObjectDBX Classes
 90
     1152
280
     0
281
     0
  0
CLASS
  1
DICTIONARYVAR
  2
AcDbDictionaryVar
  3
ObjectDBX Classes
 90
        0
280
     0
281
     0
  0
CLASS
  1
SORTENTSTABLE
  2
AcDbSortentsTable
  3
ObjectDBX Classes
 90
        0
280
     0
281
     0
  0
CLASS
  1
ACAD_EVALUATION_GRAPH
  2
AcDbEvalGraph
  3
ObjectDBX Classes
 90
    33921
280
     0
281
     0
  0
CLASS
  1
ACAECUSTOBJ
  2
AcAeEditorObj
  3
AcAeEditorObj
 90
    33792
280
     0
281
     0
  0
CLASS
  1
ACDB_DYNAMICBLOCKPURGEPREVENTER_VERSION
  2
AcDbDynamicBlockPurgePreventer
  3
ObjectDBX Classes
 90
    33921
280
     0
281
     0
  0
CLASS
  1
AEC_REFEDIT_STATUS_TRACKER
  2
AecDbRefEditStatusTracker
  3
AecArchBase60|Product Desc: Autodesk Architectural Desktop 2007 |Company: Autodesk,Inc. |WEB Address: www.autodesk.com
 90
    32897
280
     0
281
     0
  0
CLASS
  1
NPOCOLLECTION
  2
AcDbImpNonPersistentObjectsCollection
  3
ObjectDBX Classes
 90
    33921
280
     0
281
     0
  0
CLASS
  1
ACAD_TABLE
  2
AcDbTable
  3
ObjectDBX Classes
 90
    33793
280
     0
281
     1
  0
CLASS
  1
ACDBDATATABLE
  2
AcDbDataTable
  3
AcMapAnnotObj|Product Desc:     AutoCAD MAP DBX App for Annotation Entity|Company:          Autodesk,Inc.|WEB Address:      www.autodesk.com
 90
    32768
280
     0
281
     0
  0
CLASS
  1
ACSH_HISTORY_CLASS
  2
AcDbShHistory
  3
ObjectDBX Classes
 90
    33921
280
     0
281
     0
  0
CLASS
  1
ACDBASSOCPERSSUBENTMANAGER
  2
AcDbAssocPersSubentManager
  3
ObjectDBX Classes
 90
     1024
280
     0
281
     0
  0
CLASS
  1
SOLID_BACKGROUND
  2
AcDbSolidBackground
  3
SCENEOE
 90
    36863
280
     0
281
     0
  0
CLASS
  1
ACSH_EXTRUSION_CLASS
  2
AcDbShExtrusion
  3
ObjectDBX Classes
 90
    33921
280
     0
281
     0
  0
CLASS
  1
ACSH_BOOLEAN_CLASS
  2
AcDbShBoolean
  3
ObjectDBX Classes
 90
    33921
280
     0
281
     0
  0
CLASS
  1
ACDBPERSSUBENTMANAGER
  2
AcDbPersSubentManager
  3
AcDbPersSubentManager
 90
     1024
280
     0
281
     0
  0
CLASS
  1
WIPEOUT
  2
AcDbWipeout
  3
"WipeOut|Product Desc: Object Enabler for WipeOut entity                        |Company: Autodesk, Inc.                        |WEB Address: www.autodesk.com"
 90
    34943
280
     0
281
     1
  0
CLASS
  1
WIPEOUTVARIABLES
  2
AcDbWipeoutVariables
  3
"WipeOut|Product Desc:     WipeOut Dbx Application|Company:          Autodesk, Inc.|WEB Address:      www.autodesk.com"
 90
        0
280
     0
281
     0
  0
ENDSEC
  0
SECTION
  2
TABLES
  0
TABLE
  2
VPORT
  5
8
102
{ACAD_XDICTIONARY
360
181
102
}
330
0
100
AcDbSymbolTable
 70
     1
  0
VPORT
  5
31
330
8
100
AcDbSymbolTableRecord
100
AcDbViewportTableRecord
  2
*Active
 70
     0
 10
0.0
 20
0.0
 11
1.0
 21
1.0
 12
-5.914879524299561
 22
-2.047317721371584
 13
0.0
 23
0.0
 14
0.0625
 24
0.0625
 15
0.25
 25
0.25
 16
0.0
 26
0.0
 36
1.0
 17
16.91439100425697
 27
10.54705419309976
 37
4.013960091384387
 40
17.20319493505551
 41
1.477137176938369
 42
50.0
 43
0.0
 44
0.0
 50
0.0
 51
0.0
 71
     0
 72
  1000
 73
     1
 74
     2
 75
     0
 76
     1
 77
     0
 78
     0
281
     0
 65
     1
110
0.0
120
0.0
130
0.0
111
1.0
121
0.0
131
0.0
112
0.0
122
1.0
132
0.0
 79
     0
146
0.0
  0
ENDTAB
  0
TABLE
  2
LTYPE
  5
5
330
0
100
AcDbSymbolTable
 70
     1
  0
LTYPE
  5
14
330
5
100
AcDbSymbolTableRecord
100
AcDbLinetypeTableRecord
  2
ByBlock
 70
     0
  3

 72
    65
 73
     0
 40
0.0
  0
LTYPE
  5
15
330
5
100
AcDbSymbolTableRecord
100
AcDbLinetypeTableRecord
  2
ByLayer
 70
     0
  3

 72
    65
 73
     0
 40
0.0
  0
LTYPE
  5
16
330
5
100
AcDbSymbolTableRecord
100
AcDbLinetypeTableRecord
  2
Continuous
 70
     0
  3
Solid line
 72
    65
 73
     0
 40
0.0
  0
ENDTAB
  0
TABLE
  2
LAYER
  5
2
102
{ACAD_XDICTIONARY
360
107
102
}
330
0
100
AcDbSymbolTable
 70
     4
  0
LAYER
  5
10
102
{ACAD_XDICTIONARY
360
17C
102
}
330
2
100
AcDbSymbolTableRecord
100
AcDbLayerTableRecord
  2
0
 70
     0
 62
     7
  6
Continuous
370
    -3
390
F
  0
LAYER
  5
52F5
330
2
100
AcDbSymbolTableRecord
100
AcDbLayerTableRecord
  2
TEXT
 70
     0
 62
     2
  6
Continuous
370
    -3
390
F
  0
LAYER
  5
69B6
330
2
100
AcDbSymbolTableRecord
100
AcDbLayerTableRecord
  2
DIM
 70
     0
 62
     1
  6
Continuous
370
    -3
390
F
  0
LAYER
  5
69B7
330
2
100
AcDbSymbolTableRecord
100
AcDbLayerTableRecord
  2
Defpoints
 70
     0
 62
     7
  6
Continuous
290
     0
370
    -3
390
F
  0
ENDTAB
  0
TABLE
  2
STYLE
  5
3
330
0
100
AcDbSymbolTable
 70
     1
  0
STYLE
  5
11
330
3
100
AcDbSymbolTableRecord
100
AcDbTextStyleTableRecord
  2
Standard
 70
     0
 40
0.0
 41
0.8
 50
0.0
 71
     0
 42
0.25
  3
txt
  4

  0
ENDTAB
  0
TABLE
  2
VIEW
  5
6
330
0
100
AcDbSymbolTable
 70
     0
  0
ENDTAB
  0
TABLE
  2
UCS
  5
7
330
0
100
AcDbSymbolTable
 70
     0
  0
ENDTAB
  0
TABLE
  2
APPID
  5
9
330
0
100
AcDbSymbolTable
 70
   102
  0
APPID
  5
12
330
9
100
AcDbSymbolTableRecord
100
AcDbRegAppTableRecord
  2
ACAD
 70
     0
  0
APPID
  5
84
330
9
100
AcDbSymbolTableRecord
100
AcDbRegAppTableRecord
  2
ACAD_MLEADERVER
 70
     0
  0
APPID
  5
104
330
9
100
AcDbSymbolTableRecord
100
AcDbRegAppTableRecord
  2
AcDbBlockRepETag
 70
     0
  0
APPID
  5
105
330
9
100
AcDbSymbolTableRecord
100
AcDbRegAppTableRecord
  2
AcDbDynamicBlockGUID
 70
     0
  0
APPID
  5
106
330
9
100
AcDbSymbolTableRecord
100
AcDbRegAppTableRecord
  2
ACAD_PSEXT
 70
     0
  0
APPID
  5
388
330
9
100
AcDbSymbolTableRecord
100
AcDbRegAppTableRecord
  2
AcadAnnotative
 70
     0
  0
APPID
  5
389
330
9
100
AcDbSymbolTableRecord
100
AcDbRegAppTableRecord
  2
ACAD_DSTYLE_DIMJAG
 70
     0
  0
APPID
  5
38A
330
9
100
AcDbSymbolTableRecord
100
AcDbRegAppTableRecord
  2
ACAD_DSTYLE_DIMTALN
 70
     0
  0
APPID
  5
38B
330
9
100
AcDbSymbolTableRecord
100
AcDbRegAppTableRecord
  2
AcadAnnoPO
 70
     0
  0
APPID
  5
4DD
330
9
100
AcDbSymbolTableRecord
100
AcDbRegAppTableRecord
  2
AcDbAttr
 70
     0
  0
APPID
  5
A19
330
9
100
AcDbSymbolTableRecord
100
AcDbRegAppTableRecord
  2
RE-TLINK
 70
     0
  0
APPID
  5
A1A
330
9
100
AcDbSymbolTableRecord
100
AcDbRegAppTableRecord
  2
N8SOL-TLINK
 70
     0
  0
APPID
  5
A1B
330
9
100
AcDbSymbolTableRecord
100
AcDbRegAppTableRecord
  2
VIA_WD_TAGFMT
 70
     0
  0
APPID
  5
A1C
330
9
100
AcDbSymbolTableRecord
100
AcDbRegAppTableRecord
  2
VIA_WD_BASETAG
 70
     0
  0
APPID
  5
A1D
330
9
100
AcDbSymbolTableRecord
100
AcDbRegAppTableRecord
  2
VIA_WD_HDL
 70
     0
  0
APPID
  5
1000
330
9
100
AcDbSymbolTableRecord
100
AcDbRegAppTableRecord
  2
ACAD_EXEMPT_FROM_CAD_STANDARDS
 70
     0
  0
APPID
  5
1744
330
9
100
AcDbSymbolTableRecord
100
AcDbRegAppTableRecord
  2
AcAecLayerStandard
 70
     0
  0
APPID
  5
2631
330
9
100
AcDbSymbolTableRecord
100
AcDbRegAppTableRecord
  2
DCO15
 70
     0
  0
APPID
  5
280F
330
9
100
AcDbSymbolTableRecord
100
AcDbRegAppTableRecord
  2
ACAUTHENVIRON
 70
     0
  0
APPID
  5
2813
330
9
100
AcDbSymbolTableRecord
100
AcDbRegAppTableRecord
  2
AcDbDynamicBlockTrueName
 70
     0
  0
APPID
  5
2AA1
330
9
100
AcDbSymbolTableRecord
100
AcDbRegAppTableRecord
  2
VIA_WD_ASSYCODE
 70
     0
  0
APPID
  5
2AA2
330
9
100
AcDbSymbolTableRecord
100
AcDbRegAppTableRecord
  2
ACAD_DSTYLE_DIMTEXT_FILL
 70
     0
  0
APPID
  5
2AA3
330
9
100
AcDbSymbolTableRecord
100
AcDbRegAppTableRecord
  2
AcDbBlockRepBTag
 70
     0
  0
APPID
  5
2ACC
330
9
100
AcDbSymbolTableRecord
100
AcDbRegAppTableRecord
  2
VIA_WD_FP
 70
     0
  0
APPID
  5
2ACD
330
9
100
AcDbSymbolTableRecord
100
AcDbRegAppTableRecord
  2
VIA_WD_DESC1
 70
     0
  0
APPID
  5
2ACE
330
9
100
AcDbSymbolTableRecord
100
AcDbRegAppTableRecord
  2
VIA_WD_DESC2
 70
     0
  0
APPID
  5
2ACF
330
9
100
AcDbSymbolTableRecord
100
AcDbRegAppTableRecord
  2
VIA_WD_DESC3
 70
     0
  0
APPID
  5
2AD0
330
9
100
AcDbSymbolTableRecord
100
AcDbRegAppTableRecord
  2
VIA_WD_INST
 70
     0
  0
APPID
  5
2AD1
330
9
100
AcDbSymbolTableRecord
100
AcDbRegAppTableRecord
  2
VIA_WD_LOC
 70
     0
  0
APPID
  5
2AD2
330
9
100
AcDbSymbolTableRecord
100
AcDbRegAppTableRecord
  2
VIA_WD_MFG
 70
     0
  0
APPID
  5
2AD3
330
9
100
AcDbSymbolTableRecord
100
AcDbRegAppTableRecord
  2
VIA_WD_CAT
 70
     0
  0
APPID
  5
2AD4
330
9
100
AcDbSymbolTableRecord
100
AcDbRegAppTableRecord
  2
VIA_WD_CNT
 70
     0
  0
APPID
  5
2AD5
330
9
100
AcDbSymbolTableRecord
100
AcDbRegAppTableRecord
  2
VIA_WD_UM
 70
     0
  0
APPID
  5
2AD6
330
9
100
AcDbSymbolTableRecord
100
AcDbRegAppTableRecord
  2
VIA_WD_WDBLKNAM
 70
     0
  0
APPID
  5
2AD7
330
9
100
AcDbSymbolTableRecord
100
AcDbRegAppTableRecord
  2
VIA_WD_MOUNT
 70
     0
  0
APPID
  5
2AD8
330
9
100
AcDbSymbolTableRecord
100
AcDbRegAppTableRecord
  2
VIA_WD_GROUPWITH
 70
     0
  0
APPID
  5
2AD9
330
9
100
AcDbSymbolTableRecord
100
AcDbRegAppTableRecord
  2
VIA_WD_P_ITEM
 70
     0
  0
APPID
  5
2ADA
330
9
100
AcDbSymbolTableRecord
100
AcDbRegAppTableRecord
  2
VIA_WD_ITEM_FLAG
 70
     0
  0
APPID
  5
32E0
330
9
100
AcDbSymbolTableRecord
100
AcDbRegAppTableRecord
  2
VIA_WD_ASSYCODE03
 70
     0
  0
APPID
  5
32E1
330
9
100
AcDbSymbolTableRecord
100
AcDbRegAppTableRecord
  2
VIA_WD_CNT03
 70
     0
  0
APPID
  5
32E2
330
9
100
AcDbSymbolTableRecord
100
AcDbRegAppTableRecord
  2
VIA_WD_UM03
 70
     0
  0
APPID
  5
32E3
330
9
100
AcDbSymbolTableRecord
100
AcDbRegAppTableRecord
  2
VIA_WD_ITEM03
 70
     0
  0
APPID
  5
32E4
330
9
100
AcDbSymbolTableRecord
100
AcDbRegAppTableRecord
  2
VIA_WD_ITEM_FLAG03
 70
     0
  0
APPID
  5
32E5
330
9
100
AcDbSymbolTableRecord
100
AcDbRegAppTableRecord
  2
VIA_WD_ASSYCODE02
 70
     0
  0
APPID
  5
32E6
330
9
100
AcDbSymbolTableRecord
100
AcDbRegAppTableRecord
  2
VIA_WD_CNT02
 70
     0
  0
APPID
  5
32E7
330
9
100
AcDbSymbolTableRecord
100
AcDbRegAppTableRecord
  2
VIA_WD_UM02
 70
     0
  0
APPID
  5
32E8
330
9
100
AcDbSymbolTableRecord
100
AcDbRegAppTableRecord
  2
VIA_WD_ITEM02
 70
     0
  0
APPID
  5
32E9
330
9
100
AcDbSymbolTableRecord
100
AcDbRegAppTableRecord
  2
VIA_WD_ITEM_FLAG02
 70
     0
  0
APPID
  5
32EA
330
9
100
AcDbSymbolTableRecord
100
AcDbRegAppTableRecord
  2
VIA_WD_ASSYCODE01
 70
     0
  0
APPID
  5
32EB
330
9
100
AcDbSymbolTableRecord
100
AcDbRegAppTableRecord
  2
VIA_WD_CNT01
 70
     0
  0
APPID
  5
32EC
330
9
100
AcDbSymbolTableRecord
100
AcDbRegAppTableRecord
  2
VIA_WD_UM01
 70
     0
  0
APPID
  5
32ED
330
9
100
AcDbSymbolTableRecord
100
AcDbRegAppTableRecord
  2
VIA_WD_ITEM01
 70
     0
  0
APPID
  5
32EE
330
9
100
AcDbSymbolTableRecord
100
AcDbRegAppTableRecord
  2
VIA_WD_ITEM_FLAG01
 70
     0
  0
APPID
  5
333F
330
9
100
AcDbSymbolTableRecord
100
AcDbRegAppTableRecord
  2
VIA_WD_BALLPARAMS
 70
     0
  0
APPID
  5
3343
330
9
100
AcDbSymbolTableRecord
100
AcDbRegAppTableRecord
  2
VIA_WD_BALLPTR
 70
     0
  0
APPID
  5
3344
330
9
100
AcDbSymbolTableRecord
100
AcDbRegAppTableRecord
  2
VIA_WD_BALLPTR01
 70
     0
  0
APPID
  5
3345
330
9
100
AcDbSymbolTableRecord
100
AcDbRegAppTableRecord
  2
VIA_WD_BAL
 70
     0
  0
APPID
  5
3349
330
9
100
AcDbSymbolTableRecord
100
AcDbRegAppTableRecord
  2
VIA_WD_BALLPTR02
 70
     0
  0
APPID
  5
334D
330
9
100
AcDbSymbolTableRecord
100
AcDbRegAppTableRecord
  2
VIA_WD_BALLPTR03
 70
     0
  0
APPID
  5
3678
330
9
100
AcDbSymbolTableRecord
100
AcDbRegAppTableRecord
  2
ACE_TABLE_WDTYPE
 70
     0
  0
APPID
  5
3679
330
9
100
AcDbSymbolTableRecord
100
AcDbRegAppTableRecord
  2
ACE_TABLE_SETTINGS
 70
     0
  0
APPID
  5
367A
330
9
100
AcDbSymbolTableRecord
100
AcDbRegAppTableRecord
  2
ACE_TABLE_TOGGLES
 70
     0
  0
APPID
  5
367B
330
9
100
AcDbSymbolTableRecord
100
AcDbRegAppTableRecord
  2
ACE_TABLE_BOMDSPLST
 70
     0
  0
APPID
  5
367C
330
9
100
AcDbSymbolTableRecord
100
AcDbRegAppTableRecord
  2
ACE_TABLE_BOMDESC
 70
     0
  0
APPID
  5
367D
330
9
100
AcDbSymbolTableRecord
100
AcDbRegAppTableRecord
  2
ACE_TABLE_FLDNAMS1
 70
     0
  0
APPID
  5
367E
330
9
100
AcDbSymbolTableRecord
100
AcDbRegAppTableRecord
  2
ACE_TABLE_CALCCOLWID
 70
     0
  0
APPID
  5
367F
330
9
100
AcDbSymbolTableRecord
100
AcDbRegAppTableRecord
  2
ACE_TABLE_PROJECT
 70
     0
  0
APPID
  5
3680
330
9
100
AcDbSymbolTableRecord
100
AcDbRegAppTableRecord
  2
ACE_TABLE_BUILDUP
 70
     0
  0
APPID
  5
3681
330
9
100
AcDbSymbolTableRecord
100
AcDbRegAppTableRecord
  2
ACE_TABLE_BORDER
 70
     0
  0
APPID
  5
3682
330
9
100
AcDbSymbolTableRecord
100
AcDbRegAppTableRecord
  2
ACE_TABLE_INCTITLE
 70
     0
  0
APPID
  5
3683
330
9
100
AcDbSymbolTableRecord
100
AcDbRegAppTableRecord
  2
ACE_TABLE_INCTIMEDATE
 70
     0
  0
APPID
  5
3684
330
9
100
AcDbSymbolTableRecord
100
AcDbRegAppTableRecord
  2
ACE_TABLE_INCPROJECT
 70
     0
  0
APPID
  5
3685
330
9
100
AcDbSymbolTableRecord
100
AcDbRegAppTableRecord
  2
ACE_TABLE_INCLABELS
 70
     0
  0
APPID
  5
3686
330
9
100
AcDbSymbolTableRecord
100
AcDbRegAppTableRecord
  2
ACE_TABLE_TITLEONE
 70
     0
  0
APPID
  5
3687
330
9
100
AcDbSymbolTableRecord
100
AcDbRegAppTableRecord
  2
ACE_TABLE_LABELONE
 70
     0
  0
APPID
  5
3688
330
9
100
AcDbSymbolTableRecord
100
AcDbRegAppTableRecord
  2
ACE_TABLE_INCBLOCK
 70
     0
  0
APPID
  5
3689
330
9
100
AcDbSymbolTableRecord
100
AcDbRegAppTableRecord
  2
ACE_TABLE_INCREPORT
 70
     0
  0
APPID
  5
368A
330
9
100
AcDbSymbolTableRecord
100
AcDbRegAppTableRecord
  2
ACE_TABLE_BLKNAM
 70
     0
  0
APPID
  5
368B
330
9
100
AcDbSymbolTableRecord
100
AcDbRegAppTableRecord
  2
ACE_TABLE_RPTLST
 70
     0
  0
APPID
  5
368C
330
9
100
AcDbSymbolTableRecord
100
AcDbRegAppTableRecord
  2
ACE_TABLE_TYPE
 70
     0
  0
APPID
  5
368D
330
9
100
AcDbSymbolTableRecord
100
AcDbRegAppTableRecord
  2
ACE_TABLE_SET
 70
     0
  0
APPID
  5
368E
330
9
100
AcDbSymbolTableRecord
100
AcDbRegAppTableRecord
  2
ACE_TABLE_SECTION
 70
     0
  0
APPID
  5
368F
330
9
100
AcDbSymbolTableRecord
100
AcDbRegAppTableRecord
  2
ACE_TABLE_1STROW
 70
     0
  0
APPID
  5
3690
330
9
100
AcDbSymbolTableRecord
100
AcDbRegAppTableRecord
  2
ACE_TABLE_INDEXLST
 70
     0
  0
APPID
  5
3691
330
9
100
AcDbSymbolTableRecord
100
AcDbRegAppTableRecord
  2
ACE_TABLE_TABLEN
 70
     0
  0
APPID
  5
3692
330
9
100
AcDbSymbolTableRecord
100
AcDbRegAppTableRecord
  2
ACE_TABLE_BEGIN
 70
     0
  0
APPID
  5
3693
330
9
100
AcDbSymbolTableRecord
100
AcDbRegAppTableRecord
  2
ACE_TABLE_END
 70
     0
  0
APPID
  5
3694
330
9
100
AcDbSymbolTableRecord
100
AcDbRegAppTableRecord
  2
ACE_TABLE_MAXROWS
 70
     0
  0
APPID
  5
3695
330
9
100
AcDbSymbolTableRecord
100
AcDbRegAppTableRecord
  2
ACE_TABLE_MAXTBLS
 70
     0
  0
APPID
  5
3696
330
9
100
AcDbSymbolTableRecord
100
AcDbRegAppTableRecord
  2
ACE_TABLE_TBL2TBLX
 70
     0
  0
APPID
  5
3697
330
9
100
AcDbSymbolTableRecord
100
AcDbRegAppTableRecord
  2
ACE_TABLE_TBL2TBLY
 70
     0
  0
APPID
  5
3698
330
9
100
AcDbSymbolTableRecord
100
AcDbRegAppTableRecord
  2
ACE_TABLE_FORCEROWS
 70
     0
  0
APPID
  5
3699
330
9
100
AcDbSymbolTableRecord
100
AcDbRegAppTableRecord
  2
ACE_TABLE_COLNUMS
 70
     0
  0
APPID
  5
369A
330
9
100
AcDbSymbolTableRecord
100
AcDbRegAppTableRecord
  2
ACE_TABLE_LNSP
 70
     0
  0
APPID
  5
3ED3
330
9
100
AcDbSymbolTableRecord
100
AcDbRegAppTableRecord
  2
RAK
 70
     0
  0
APPID
  5
4643
330
9
100
AcDbSymbolTableRecord
100
AcDbRegAppTableRecord
  2
ACAD_DSTYLE_DIMBREAK
 70
     0
  0
APPID
  5
4644
330
9
100
AcDbSymbolTableRecord
100
AcDbRegAppTableRecord
  2
VIA_WD_P_TAG1
 70
     0
  0
APPID
  5
4DD5
330
9
100
AcDbSymbolTableRecord
100
AcDbRegAppTableRecord
  2
ACADSTEP
 70
     0
  0
APPID
  5
4E71
330
9
100
AcDbSymbolTableRecord
100
AcDbRegAppTableRecord
  2
ACAD_DSTYLE_DIMJOGGED_JOGANGLE_SYMBOL
 70
     0
  0
APPID
  5
549B
330
9
100
AcDbSymbolTableRecord
100
AcDbRegAppTableRecord
  2
VIA_WD_WDBLKNAM01
 70
     0
  0
APPID
  5
549C
330
9
100
AcDbSymbolTableRecord
100
AcDbRegAppTableRecord
  2
VIA_WD_WDBLKNAM02
 70
     0
  0
APPID
  5
715A
330
9
100
AcDbSymbolTableRecord
100
AcDbRegAppTableRecord
  2
TCAD
 70
     0
  0
ENDTAB
  0
TABLE
  2
DIMSTYLE
  5
A
330
0
100
AcDbSymbolTable
 70
     1
100
AcDbDimStyleTable
 71
     1
340
27
  0
DIMSTYLE
105
27
102
{ACAD_REACTORS
330
76C6
330
75B0
330
7597
102
}
330
A
100
AcDbSymbolTableRecord
100
AcDbDimStyleTableRecord
  2
Standard
 70
     0
140
0.125
271
     2
272
     2
340
11
1001
ACAD_DSTYLE_DIMJAG
1070
   388
1040
1.5
1001
ACAD_DSTYLE_DIMTALN
1070
   392
1070
     0
  0
ENDTAB
  0
TABLE
  2
BLOCK_RECORD
  5
1
330
0
100
AcDbSymbolTable
 70
     4
  0
BLOCK_RECORD
  5
1F
102
{ACAD_XDICTIONARY
360
17A
102
}
330
1
100
AcDbSymbolTableRecord
100
AcDbBlockTableRecord
  2
*Model_Space
340
22
  0
BLOCK_RECORD
  5
1B
330
1
100
AcDbSymbolTableRecord
100
AcDbBlockTableRecord
  2
*Paper_Space
340
1E
  0
BLOCK_RECORD
  5
23
330
1
100
AcDbSymbolTableRecord
100
AcDbBlockTableRecord
  2
*Paper_Space0
340
26
  0
BLOCK_RECORD
  5
772F
330
1
100
AcDbSymbolTableRecord
100
AcDbBlockTableRecord
  2
*D1
340
0
  0
BLOCK_RECORD
  5
773C
330
1
100
AcDbSymbolTableRecord
100
AcDbBlockTableRecord
  2
*D2
340
0
  0
BLOCK_RECORD
  5
7749
330
1
100
AcDbSymbolTableRecord
100
AcDbBlockTableRecord
  2
*D3
340
0
  0
ENDTAB
  0
ENDSEC
  0
SECTION
  2
BLOCKS
  0
BLOCK
  5
20
330
1F
100
AcDbEntity
  8
0
100
AcDbBlockBegin
  2
*Model_Space
 70
     0
 10
0.0
 20
0.0
 30
0.0
  3
*Model_Space
  1

  0
ENDBLK
  5
21
330
1F
100
AcDbEntity
  8
0
100
AcDbBlockEnd
  0
BLOCK
  5
1C
330
1B
100
AcDbEntity
 67
     1
  8
0
100
AcDbBlockBegin
  2
*Paper_Space
 70
     0
 10
0.0
 20
0.0
 30
0.0
  3
*Paper_Space
  1

  0
ENDBLK
  5
1D
330
1B
100
AcDbEntity
 67
     1
  8
0
100
AcDbBlockEnd
  0
BLOCK
  5
24
330
23
100
AcDbEntity
 67
     1
  8
0
100
AcDbBlockBegin
  2
*Paper_Space0
 70
     0
 10
0.0
 20
0.0
 30
0.0
  3
*Paper_Space0
  1

  0
ENDBLK
  5
25
330
23
100
AcDbEntity
 67
     1
  8
0
100
AcDbBlockEnd
  0
BLOCK
  5
7730
330
772F
100
AcDbEntity
  8
0
100
AcDbBlockBegin
  2
*D1
 70
     1
 10
0.0
 20
0.0
 30
0.0
  3
*D1
  1

  0
LINE
  5
7BE4
330
772F
100
AcDbEntity
  8
DIM
 62
     0
370
    -2
100
AcDbLine
 10
6.263902950554218
 20
7.866136038433044
 30
0.0
 11
6.263902950554218
 21
11.01578447089278
 31
0.0
  0
LINE
  5
7BE5
330
772F
100
AcDbEntity
  8
DIM
 62
     0
370
    -2
100
AcDbLine
 10
7.492447934030852
 20
9.782455447015649
 30
0.0
 11
7.492447934030852
 21
11.01578447089278
 31
0.0
  0
LINE
  5
7BE6
330
772F
100
AcDbEntity
  8
DIM
 62
     0
370
    -2
100
AcDbLine
 10
6.083902950554218
 20
10.83578447089278
 30
0.0
 11
5.903902950554217
 21
10.83578447089278
 31
0.0
  0
LINE
  5
7BE7
330
772F
100
AcDbEntity
  8
DIM
 62
     0
370
    -2
100
AcDbLine
 10
7.672447934030852
 20
10.83578447089278
 30
0.0
 11
7.852447934030853
 21
10.83578447089278
 31
0.0
  0
SOLID
  5
7BE8
330
772F
100
AcDbEntity
  8
DIM
 62
     0
100
AcDbTrace
 10
6.083902950554218
 20
10.86578447089278
 30
0.0
 11
6.083902950554218
 21
10.80578447089278
 31
0.0
 12
6.263902950554218
 22
10.83578447089278
 32
0.0
 13
6.263902950554218
 23
10.83578447089278
 33
0.0
  0
SOLID
  5
7BE9
330
772F
100
AcDbEntity
  8
DIM
 62
     0
100
AcDbTrace
 10
7.672447934030852
 20
10.86578447089278
 30
0.0
 11
7.672447934030852
 21
10.80578447089278
 31
0.0
 12
7.492447934030852
 22
10.83578447089278
 32
0.0
 13
7.492447934030852
 23
10.83578447089278
 33
0.0
  0
MTEXT
  5
7BEA
330
772F
100
AcDbEntity
  8
DIM
 62
     0
100
AcDbMText
 10
6.877531658794854
 20
10.83578447089278
 30
0.0
 40
0.125
 41
0.0
 71
     5
 72
     1
  1
\A1;1.23 [31.21]
 73
     1
 44
1.0
1001
ACAD
1000
MTEXTBEGIN
1070
    73
1070
     1
1070
    44
1040
1.0
1070
    74
1070
     0
1000
MTEXTEND
  0
POINT
  5
7BEB
330
772F
100
AcDbEntity
  8
Defpoints
 62
     0
100
AcDbPoint
 10
6.263902950554218
 20
7.803636038433044
 30
0.0
  0
POINT
  5
7BEC
330
772F
100
AcDbEntity
  8
Defpoints
 62
     0
100
AcDbPoint
 10
7.492447934030852
 20
9.719955447015649
 30
0.0
  0
POINT
  5
7BED
330
772F
100
AcDbEntity
  8
Defpoints
 62
     0
100
AcDbPoint
 10
7.492447934030852
 20
10.83578447089278
 30
0.0
  0
ENDBLK
  5
7731
330
772F
100
AcDbEntity
  8
0
100
AcDbBlockEnd
  0
BLOCK
  5
773D
330
773C
100
AcDbEntity
  8
0
100
AcDbBlockBegin
  2
*D2
 70
     1
 10
0.0
 20
0.0
 30
0.0
  3
*D2
  1

  0
LINE
  5
7BD0
330
773C
100
AcDbEntity
  8
DIM
 62
     0
370
    -2
100
AcDbLine
 10
12.52296019496705
 20
10.39336219933496
 30
0.0
 11
13.32133439527815
 21
10.39336219933496
 31
0.0
  0
LINE
  5
7BD1
330
773C
100
AcDbEntity
  8
DIM
 62
     0
370
    -2
100
AcDbLine
 10
12.52296019496705
 20
5.239363699334965
 30
0.0
 11
13.32133439527815
 21
5.239363699334965
 31
0.0
  0
LINE
  5
7BD2
330
773C
100
AcDbEntity
  8
DIM
 62
     0
370
    -2
100
AcDbLine
 10
13.14133439527815
 20
10.21336219933496
 30
0.0
 11
13.14133439527815
 21
7.968862949334964
 31
0.0
  0
LINE
  5
7BD3
330
773C
100
AcDbEntity
  8
DIM
 62
     0
370
    -2
100
AcDbLine
 10
13.14133439527815
 20
5.419363699334965
 30
0.0
 11
13.14133439527815
 21
7.663862949334965
 31
0.0
  0
SOLID
  5
7BD4
330
773C
100
AcDbEntity
  8
DIM
 62
     0
100
AcDbTrace
 10
13.11133439527815
 20
10.21336219933496
 30
0.0
 11
13.17133439527815
 21
10.21336219933496
 31
0.0
 12
13.14133439527815
 22
10.39336219933496
 32
0.0
 13
13.14133439527815
 23
10.39336219933496
 33
0.0
  0
SOLID
  5
7BD5
330
773C
100
AcDbEntity
  8
DIM
 62
     0
100
AcDbTrace
 10
13.11133439527815
 20
5.419363699334965
 30
0.0
 11
13.17133439527815
 21
5.419363699334965
 31
0.0
 12
13.14133439527815
 22
5.239363699334965
 32
0.0
 13
13.14133439527815
 23
5.239363699334965
 33
0.0
  0
MTEXT
  5
7BD6
330
773C
100
AcDbEntity
  8
DIM
 62
     0
100
AcDbMText
 10
13.14133439527815
 20
7.816362949334966
 30
0.0
 40
0.125
 41
0.0
 71
     5
 72
     1
  1
\A1;5.15 [130.91]
 73
     1
 44
1.0
1001
ACAD
1000
MTEXTBEGIN
1070
    73
1070
     1
1070
    44
1040
1.0
1070
    74
1070
     0
1000
MTEXTEND
  0
POINT
  5
7BD7
330
773C
100
AcDbEntity
  8
Defpoints
 62
     0
100
AcDbPoint
 10
12.46046019496705
 20
10.39336219933496
 30
0.0
  0
POINT
  5
7BD8
330
773C
100
AcDbEntity
  8
Defpoints
 62
     0
100
AcDbPoint
 10
12.46046019496705
 20
5.239363699334965
 30
0.0
  0
POINT
  5
7BD9
330
773C
100
AcDbEntity
  8
Defpoints
 62
     0
100
AcDbPoint
 10
13.14133439527815
 20
5.239363699334965
 30
0.0
  0
ENDBLK
  5
773E
330
773C
100
AcDbEntity
  8
0
100
AcDbBlockEnd
  0
BLOCK
  5
774A
330
7749
100
AcDbEntity
  8
0
100
AcDbBlockBegin
  2
*D3
 70
     1
 10
0.0
 20
0.0
 30
0.0
  3
*D3
  1

  0
LINE
  5
7BDA
330
7749
100
AcDbEntity
  8
DIM
 62
     0
370
    -2
100
AcDbLine
 10
9.175480194967045
 20
10.45586219933496
 30
0.0
 11
9.175480194967045
 21
11.01788428176081
 31
0.0
  0
LINE
  5
7BDB
330
7749
100
AcDbEntity
  8
DIM
 62
     0
370
    -2
100
AcDbLine
 10
12.46046019496705
 20
10.45586219933496
 30
0.0
 11
12.46046019496705
 21
11.01788428176081
 31
0.0
  0
LINE
  5
7BDC
330
7749
100
AcDbEntity
  8
DIM
 62
     0
370
    -2
100
AcDbLine
 10
9.355480194967045
 20
10.83788428176081
 30
0.0
 11
10.24463686163371
 21
10.83788428176081
 31
0.0
  0
LINE
  5
7BDD
330
7749
100
AcDbEntity
  8
DIM
 62
     0
370
    -2
100
AcDbLine
 10
12.28046019496705
 20
10.83788428176081
 30
0.0
 11
11.39130352830038
 21
10.83788428176081
 31
0.0
  0
SOLID
  5
7BDE
330
7749
100
AcDbEntity
  8
DIM
 62
     0
100
AcDbTrace
 10
9.355480194967045
 20
10.86788428176081
 30
0.0
 11
9.355480194967045
 21
10.80788428176081
 31
0.0
 12
9.175480194967045
 22
10.83788428176081
 32
0.0
 13
9.175480194967045
 23
10.83788428176081
 33
0.0
  0
SOLID
  5
7BDF
330
7749
100
AcDbEntity
  8
DIM
 62
     0
100
AcDbTrace
 10
12.28046019496705
 20
10.86788428176081
 30
0.0
 11
12.28046019496705
 21
10.80788428176081
 31
0.0
 12
12.46046019496705
 22
10.83788428176081
 32
0.0
 13
12.46046019496705
 23
10.83788428176081
 33
0.0
  0
MTEXT
  5
7BE0
330
7749
100
AcDbEntity
  8
DIM
 62
     0
100
AcDbMText
 10
10.81797019496704
 20
10.83788428176081
 30
0.0
 40
0.125
 41
0.0
 71
     5
 72
     1
  1
\A1;3.28 [83.44]
 73
     1
 44
1.0
1001
ACAD
1000
MTEXTBEGIN
1070
    73
1070
     1
1070
    44
1040
1.0
1070
    74
1070
     0
1000
MTEXTEND
  0
POINT
  5
7BE1
330
7749
100
AcDbEntity
  8
Defpoints
 62
     0
100
AcDbPoint
 10
9.175480194967045
 20
10.39336219933496
 30
0.0
  0
POINT
  5
7BE2
330
7749
100
AcDbEntity
  8
Defpoints
 62
     0
100
AcDbPoint
 10
12.46046019496705
 20
10.39336219933496
 30
0.0
  0
POINT
  5
7BE3
330
7749
100
AcDbEntity
  8
Defpoints
 62
     0
100
AcDbPoint
 10
12.46046019496705
 20
10.83788428176081
 30
0.0
  0
ENDBLK
  5
774B
330
7749
100
AcDbEntity
  8
0
100
AcDbBlockEnd
  0
ENDSEC
  0
SECTION
  2
ENTITIES
  0
LINE
  5
7449
330
1F
100
AcDbEntity
  8
0
100
AcDbLine
 10
12.33269494496704
 20
7.089323630440482
 30
0.0
 11
12.19499269496705
 21
7.168826061545999
 31
0.0
1001
ACAD
1000
TCW40_DEV_WIDTH
1002
{
1040
-3.0
1002
}
  0
LINE
  5
744A
330
1F
100
AcDbEntity
  8
0
100
AcDbLine
 10
12.19499269496705
 20
7.168826061545999
 30
0.0
 11
12.05729044496705
 21
7.089323630440482
 31
0.0
1001
ACAD
1000
TCW40_DEV_WIDTH
1002
{
1040
-3.0
1002
}
  0
LINE
  5
744B
330
1F
100
AcDbEntity
  8
0
100
AcDbLine
 10
12.05729044496705
 20
7.089323630440482
 30
0.0
 11
12.05729044496705
 21
6.930318768229447
 31
0.0
1001
ACAD
1000
TCW40_DEV_WIDTH
1002
{
1040
-3.0
1002
}
  0
LINE
  5
744C
330
1F
100
AcDbEntity
  8
0
100
AcDbLine
 10
12.05729044496705
 20
6.930318768229447
 30
0.0
 11
12.19499269496705
 21
6.85081633712393
 31
0.0
1001
ACAD
1000
TCW40_DEV_WIDTH
1002
{
1040
-3.0
1002
}
  0
LINE
  5
744D
330
1F
100
AcDbEntity
  8
0
100
AcDbLine
 10
12.19499269496705
 20
6.85081633712393
 30
0.0
 11
12.33269494496704
 21
6.930318768229447
 31
0.0
1001
ACAD
1000
TCW40_DEV_WIDTH
1002
{
1040
-3.0
1002
}
  0
LINE
  5
744E
330
1F
100
AcDbEntity
  8
0
100
AcDbLine
 10
12.33269494496704
 20
6.930318768229447
 30
0.0
 11
12.33269494496704
 21
7.089323630440482
 31
0.0
1001
ACAD
1000
TCW40_DEV_WIDTH
1002
{
1040
-3.0
1002
}
  0
LINE
  5
744F
330
1F
100
AcDbEntity
  8
0
100
AcDbLine
 10
12.32344602859456
 20
7.083983766083118
 30
0.0
 11
12.19499269496705
 21
7.158146332831272
 31
0.0
1001
ACAD
1000
TCW40_DEV_WIDTH
1002
{
1040
-3.0
1002
}
  0
LINE
  5
7450
330
1F
100
AcDbEntity
  8
0
100
AcDbLine
 10
12.19499269496705
 20
7.158146332831272
 30
0.0
 11
12.06653936133953
 21
7.083983766083118
 31
0.0
1001
ACAD
1000
TCW40_DEV_WIDTH
1002
{
1040
-3.0
1002
}
  0
LINE
  5
7451
330
1F
100
AcDbEntity
  8
0
100
AcDbLine
 10
12.06653936133953
 20
7.083983766083118
 30
0.0
 11
12.06653936133953
 21
6.935658632586811
 31
0.0
1001
ACAD
1000
TCW40_DEV_WIDTH
1002
{
1040
-3.0
1002
}
  0
LINE
  5
7452
330
1F
100
AcDbEntity
  8
0
100
AcDbLine
 10
12.06653936133953
 20
6.935658632586811
 30
0.0
 11
12.19499269496705
 21
6.861496065838659
 31
0.0
1001
ACAD
1000
TCW40_DEV_WIDTH
1002
{
1040
-3.0
1002
}
  0
LINE
  5
7453
330
1F
100
AcDbEntity
  8
0
100
AcDbLine
 10
12.19499269496705
 20
6.861496065838659
 30
0.0
 11
12.32344602859456
 21
6.935658632586811
 31
0.0
1001
ACAD
1000
TCW40_DEV_WIDTH
1002
{
1040
-3.0
1002
}
  0
LINE
  5
7454
330
1F
100
AcDbEntity
  8
0
100
AcDbLine
 10
12.32344602859456
 20
6.935658632586811
 30
0.0
 11
12.32344602859456
 21
7.083983766083118
 31
0.0
1001
ACAD
1000
TCW40_DEV_WIDTH
1002
{
1040
-3.0
1002
}
  0
LINE
  5
7455
330
1F
100
AcDbEntity
  8
0
100
AcDbLine
 10
12.33269494496704
 20
6.695888630440478
 30
0.0
 11
12.19499269496705
 21
6.775391061546002
 31
0.0
1001
ACAD
1000
TCW40_DEV_WIDTH
1002
{
1040
-3.0
1002
}
  0
LINE
  5
7456
330
1F
100
AcDbEntity
  8
0
100
AcDbLine
 10
12.19499269496705
 20
6.775391061546002
 30
0.0
 11
12.05729044496705
 21
6.695888630440478
 31
0.0
1001
ACAD
1000
TCW40_DEV_WIDTH
1002
{
1040
-3.0
1002
}
  0
LINE
  5
7457
330
1F
100
AcDbEntity
  8
0
100
AcDbLine
 10
12.05729044496705
 20
6.695888630440478
 30
0.0
 11
12.05729044496705
 21
6.536883768229451
 31
0.0
1001
ACAD
1000
TCW40_DEV_WIDTH
1002
{
1040
-3.0
1002
}
  0
LINE
  5
7458
330
1F
100
AcDbEntity
  8
0
100
AcDbLine
 10
12.05729044496705
 20
6.536883768229451
 30
0.0
 11
12.19499269496705
 21
6.457381337123933
 31
0.0
1001
ACAD
1000
TCW40_DEV_WIDTH
1002
{
1040
-3.0
1002
}
  0
LINE
  5
7459
330
1F
100
AcDbEntity
  8
0
100
AcDbLine
 10
12.19499269496705
 20
6.457381337123933
 30
0.0
 11
12.33269494496704
 21
6.536883768229444
 31
0.0
1001
ACAD
1000
TCW40_DEV_WIDTH
1002
{
1040
-3.0
1002
}
  0
LINE
  5
745A
330
1F
100
AcDbEntity
  8
0
100
AcDbLine
 10
12.33269494496704
 20
6.536883768229444
 30
0.0
 11
12.33269494496704
 21
6.695888630440478
 31
0.0
1001
ACAD
1000
TCW40_DEV_WIDTH
1002
{
1040
-3.0
1002
}
  0
LINE
  5
745B
330
1F
100
AcDbEntity
  8
0
100
AcDbLine
 10
12.33269494496704
 20
6.302453630440481
 30
0.0
 11
12.19499269496705
 21
6.381956061545999
 31
0.0
1001
ACAD
1000
TCW40_DEV_WIDTH
1002
{
1040
-3.0
1002
}
  0
LINE
  5
745C
330
1F
100
AcDbEntity
  8
0
100
AcDbLine
 10
12.19499269496705
 20
6.381956061545999
 30
0.0
 11
12.05729044496705
 21
6.302453630440481
 31
0.0
1001
ACAD
1000
TCW40_DEV_WIDTH
1002
{
1040
-3.0
1002
}
  0
LINE
  5
745D
330
1F
100
AcDbEntity
  8
0
100
AcDbLine
 10
12.05729044496705
 20
6.302453630440481
 30
0.0
 11
12.05729044496705
 21
6.143448768229447
 31
0.0
1001
ACAD
1000
TCW40_DEV_WIDTH
1002
{
1040
-3.0
1002
}
  0
LINE
  5
745E
330
1F
100
AcDbEntity
  8
0
100
AcDbLine
 10
12.05729044496705
 20
6.143448768229447
 30
0.0
 11
12.19499269496705
 21
6.06394633712393
 31
0.0
1001
ACAD
1000
TCW40_DEV_WIDTH
1002
{
1040
-3.0
1002
}
  0
LINE
  5
745F
330
1F
100
AcDbEntity
  8
0
100
AcDbLine
 10
12.19499269496705
 20
6.06394633712393
 30
0.0
 11
12.33269494496704
 21
6.143448768229447
 31
0.0
1001
ACAD
1000
TCW40_DEV_WIDTH
1002
{
1040
-3.0
1002
}
  0
LINE
  5
7460
330
1F
100
AcDbEntity
  8
0
100
AcDbLine
 10
12.33269494496704
 20
6.143448768229447
 30
0.0
 11
12.33269494496704
 21
6.302453630440481
 31
0.0
1001
ACAD
1000
TCW40_DEV_WIDTH
1002
{
1040
-3.0
1002
}
  0
LINE
  5
7461
330
1F
100
AcDbEntity
  8
0
100
AcDbLine
 10
11.95893169496705
 20
7.285225699334965
 30
0.0
 11
11.95893169496705
 21
5.278707199334959
 31
0.0
1001
ACAD
1000
TCW40_DEV_WIDTH
1002
{
1040
-3.0
1002
}
  0
LINE
  5
7462
330
1F
100
AcDbEntity
  8
0
100
AcDbLine
 10
11.56549669496705
 20
7.285225699334965
 30
0.0
 11
11.56549669496705
 21
5.278707199334959
 31
0.0
1001
ACAD
1000
TCW40_DEV_WIDTH
1002
{
1040
-3.0
1002
}
  0
LINE
  5
7463
330
1F
100
AcDbEntity
  8
0
100
AcDbLine
 10
11.56549669496705
 20
7.285225699334965
 30
0.0
 11
11.95893169496705
 21
7.285225699334965
 31
0.0
1001
ACAD
1000
TCW40_DEV_WIDTH
1002
{
1040
-3.0
1002
}
  0
LINE
  5
7464
330
1F
100
AcDbEntity
  8
0
100
AcDbLine
 10
11.56549669496705
 20
7.226210449334963
 30
0.0
 11
11.68352719496705
 21
7.226210449334963
 31
0.0
1001
ACAD
1000
TCW40_DEV_WIDTH
1002
{
1040
-3.0
1002
}
  0
LINE
  5
7465
330
1F
100
AcDbEntity
  8
0
100
AcDbLine
 10
11.84090119496704
 20
7.226210449334963
 30
0.0
 11
11.95893169496705
 21
7.226210449334963
 31
0.0
1001
ACAD
1000
TCW40_DEV_WIDTH
1002
{
1040
-3.0
1002
}
  0
LINE
  5
7466
330
1F
100
AcDbEntity
  8
0
100
AcDbLine
 10
11.60484019496705
 20
7.088508199334967
 30
0.0
 11
11.91958819496705
 21
7.088508199334967
 31
0.0
1001
ACAD
1000
TCW40_DEV_WIDTH
1002
{
1040
-3.0
1002
}
  0
LINE
  5
7467
330
1F
100
AcDbEntity
  8
0
100
AcDbLine
 10
11.68352719496705
 20
7.226210449334963
 30
0.0
 11
11.72287069496706
 21
7.088508199334967
 31
0.0
1001
ACAD
1000
TCW40_DEV_WIDTH
1002
{
1040
-3.0
1002
}
  0
LINE
  5
7468
330
1F
100
AcDbEntity
  8
0
100
AcDbLine
 10
11.80155769496704
 20
7.088508199334967
 30
0.0
 11
11.84090119496704
 21
7.226210449334963
 31
0.0
1001
ACAD
1000
TCW40_DEV_WIDTH
1002
{
1040
-3.0
1002
}
  0
LINE
  5
7469
330
1F
100
AcDbEntity
  8
0
100
AcDbLine
 10
11.84090119496704
 20
7.226210449334963
 30
0.0
 11
11.84090119496704
 21
7.285225699334965
 31
0.0
1001
ACAD
1000
TCW40_DEV_WIDTH
1002
{
1040
-3.0
1002
}
  0
LINE
  5
746A
330
1F
100
AcDbEntity
  8
0
100
AcDbLine
 10
11.68352719496705
 20
7.226210449334963
 30
0.0
 11
11.68352719496705
 21
7.285225699334965
 31
0.0
1001
ACAD
1000
TCW40_DEV_WIDTH
1002
{
1040
-3.0
1002
}
  0
CIRCLE
  5
746B
330
1F
100
AcDbEntity
  8
0
100
AcDbCircle
 10
11.76221419496705
 20
7.186866949334962
 30
0.0
 40
0.0393435
  0
LINE
  5
746C
330
1F
100
AcDbEntity
  8
0
100
AcDbLine
 10
11.60484019496705
 20
7.088508199334967
 30
0.0
 11
11.60484019496705
 21
5.475424699334965
 31
0.0
1001
ACAD
1000
TCW40_DEV_WIDTH
1002
{
1040
-3.0
1002
}
  0
LINE
  5
746D
330
1F
100
AcDbEntity
  8
0
100
AcDbLine
 10
11.91958819496705
 20
7.088508199334967
 30
0.0
 11
11.91958819496705
 21
5.475424699334965
 31
0.0
1001
ACAD
1000
TCW40_DEV_WIDTH
1002
{
1040
-3.0
1002
}
  0
LINE
  5
746E
330
1F
100
AcDbEntity
  8
0
100
AcDbLine
 10
11.56549669496705
 20
5.278707199334959
 30
0.0
 11
11.95893169496705
 21
5.278707199334959
 31
0.0
1001
ACAD
1000
TCW40_DEV_WIDTH
1002
{
1040
-3.0
1002
}
  0
LINE
  5
746F
330
1F
100
AcDbEntity
  8
0
100
AcDbLine
 10
11.56549669496705
 20
5.337722449334961
 30
0.0
 11
11.68352719496705
 21
5.337722449334961
 31
0.0
1001
ACAD
1000
TCW40_DEV_WIDTH
1002
{
1040
-3.0
1002
}
  0
LINE
  5
7470
330
1F
100
AcDbEntity
  8
0
100
AcDbLine
 10
11.84090119496704
 20
5.337722449334961
 30
0.0
 11
11.95893169496705
 21
5.337722449334961
 31
0.0
1001
ACAD
1000
TCW40_DEV_WIDTH
1002
{
1040
-3.0
1002
}
  0
LINE
  5
7471
330
1F
100
AcDbEntity
  8
0
100
AcDbLine
 10
11.60484019496705
 20
5.475424699334965
 30
0.0
 11
11.91958819496705
 21
5.475424699334965
 31
0.0
1001
ACAD
1000
TCW40_DEV_WIDTH
1002
{
1040
-3.0
1002
}
  0
LINE
  5
7472
330
1F
100
AcDbEntity
  8
0
100
AcDbLine
 10
11.68352719496705
 20
5.337722449334961
 30
0.0
 11
11.72287069496706
 21
5.475424699334965
 31
0.0
1001
ACAD
1000
TCW40_DEV_WIDTH
1002
{
1040
-3.0
1002
}
  0
LINE
  5
7473
330
1F
100
AcDbEntity
  8
0
100
AcDbLine
 10
11.80155769496704
 20
5.475424699334965
 30
0.0
 11
11.84090119496704
 21
5.337722449334961
 31
0.0
1001
ACAD
1000
TCW40_DEV_WIDTH
1002
{
1040
-3.0
1002
}
  0
LINE
  5
7474
330
1F
100
AcDbEntity
  8
0
100
AcDbLine
 10
11.84090119496704
 20
5.337722449334961
 30
0.0
 11
11.84090119496704
 21
5.278707199334959
 31
0.0
1001
ACAD
1000
TCW40_DEV_WIDTH
1002
{
1040
-3.0
1002
}
  0
LINE
  5
7475
330
1F
100
AcDbEntity
  8
0
100
AcDbLine
 10
11.68352719496705
 20
5.337722449334961
 30
0.0
 11
11.68352719496705
 21
5.278707199334959
 31
0.0
1001
ACAD
1000
TCW40_DEV_WIDTH
1002
{
1040
-3.0
1002
}
  0
CIRCLE
  5
7476
330
1F
100
AcDbEntity
  8
0
100
AcDbCircle
 10
11.76221419496705
 20
5.377065949334962
 30
0.0
 40
0.0393435
  0
LINE
  5
7477
330
1F
100
AcDbEntity
  8
0
100
AcDbLine
 10
11.40812269496705
 20
7.285225699334965
 30
0.0
 11
11.40812269496705
 21
5.278707199334959
 31
0.0
1001
ACAD
1000
TCW40_DEV_WIDTH
1002
{
1040
-3.0
1002
}
  0
LINE
  5
7478
330
1F
100
AcDbEntity
  8
0
100
AcDbLine
 10
11.01468769496705
 20
7.285225699334965
 30
0.0
 11
11.01468769496705
 21
5.278707199334959
 31
0.0
1001
ACAD
1000
TCW40_DEV_WIDTH
1002
{
1040
-3.0
1002
}
  0
LINE
  5
7479
330
1F
100
AcDbEntity
  8
0
100
AcDbLine
 10
11.01468769496705
 20
7.285225699334965
 30
0.0
 11
11.40812269496705
 21
7.285225699334965
 31
0.0
1001
ACAD
1000
TCW40_DEV_WIDTH
1002
{
1040
-3.0
1002
}
  0
LINE
  5
747A
330
1F
100
AcDbEntity
  8
0
100
AcDbLine
 10
11.01468769496705
 20
7.226210449334963
 30
0.0
 11
11.13271819496705
 21
7.226210449334963
 31
0.0
1001
ACAD
1000
TCW40_DEV_WIDTH
1002
{
1040
-3.0
1002
}
  0
LINE
  5
747B
330
1F
100
AcDbEntity
  8
0
100
AcDbLine
 10
11.29009219496706
 20
7.226210449334963
 30
0.0
 11
11.40812269496705
 21
7.226210449334963
 31
0.0
1001
ACAD
1000
TCW40_DEV_WIDTH
1002
{
1040
-3.0
1002
}
  0
LINE
  5
747C
330
1F
100
AcDbEntity
  8
0
100
AcDbLine
 10
11.05403119496705
 20
7.088508199334967
 30
0.0
 11
11.36877919496704
 21
7.088508199334967
 31
0.0
1001
ACAD
1000
TCW40_DEV_WIDTH
1002
{
1040
-3.0
1002
}
  0
LINE
  5
747D
330
1F
100
AcDbEntity
  8
0
100
AcDbLine
 10
11.13271819496705
 20
7.226210449334963
 30
0.0
 11
11.17206169496705
 21
7.088508199334967
 31
0.0
1001
ACAD
1000
TCW40_DEV_WIDTH
1002
{
1040
-3.0
1002
}
  0
LINE
  5
747E
330
1F
100
AcDbEntity
  8
0
100
AcDbLine
 10
11.25074869496706
 20
7.088508199334967
 30
0.0
 11
11.29009219496706
 21
7.226210449334963
 31
0.0
1001
ACAD
1000
TCW40_DEV_WIDTH
1002
{
1040
-3.0
1002
}
  0
LINE
  5
747F
330
1F
100
AcDbEntity
  8
0
100
AcDbLine
 10
11.29009219496706
 20
7.226210449334963
 30
0.0
 11
11.29009219496706
 21
7.285225699334965
 31
0.0
1001
ACAD
1000
TCW40_DEV_WIDTH
1002
{
1040
-3.0
1002
}
  0
LINE
  5
7480
330
1F
100
AcDbEntity
  8
0
100
AcDbLine
 10
11.13271819496705
 20
7.226210449334963
 30
0.0
 11
11.13271819496705
 21
7.285225699334965
 31
0.0
1001
ACAD
1000
TCW40_DEV_WIDTH
1002
{
1040
-3.0
1002
}
  0
CIRCLE
  5
7481
330
1F
100
AcDbEntity
  8
0
100
AcDbCircle
 10
11.21140519496705
 20
7.186866949334962
 30
0.0
 40
0.0393435
  0
LINE
  5
7482
330
1F
100
AcDbEntity
  8
0
100
AcDbLine
 10
11.05403119496705
 20
7.088508199334967
 30
0.0
 11
11.05403119496705
 21
5.475424699334965
 31
0.0
1001
ACAD
1000
TCW40_DEV_WIDTH
1002
{
1040
-3.0
1002
}
  0
LINE
  5
7483
330
1F
100
AcDbEntity
  8
0
100
AcDbLine
 10
11.36877919496704
 20
7.088508199334967
 30
0.0
 11
11.36877919496704
 21
5.475424699334965
 31
0.0
1001
ACAD
1000
TCW40_DEV_WIDTH
1002
{
1040
-3.0
1002
}
  0
LINE
  5
7484
330
1F
100
AcDbEntity
  8
0
100
AcDbLine
 10
11.01468769496705
 20
5.278707199334959
 30
0.0
 11
11.40812269496705
 21
5.278707199334959
 31
0.0
1001
ACAD
1000
TCW40_DEV_WIDTH
1002
{
1040
-3.0
1002
}
  0
LINE
  5
7485
330
1F
100
AcDbEntity
  8
0
100
AcDbLine
 10
11.01468769496705
 20
5.337722449334961
 30
0.0
 11
11.13271819496705
 21
5.337722449334961
 31
0.0
1001
ACAD
1000
TCW40_DEV_WIDTH
1002
{
1040
-3.0
1002
}
  0
LINE
  5
7486
330
1F
100
AcDbEntity
  8
0
100
AcDbLine
 10
11.29009219496706
 20
5.337722449334961
 30
0.0
 11
11.40812269496705
 21
5.337722449334961
 31
0.0
1001
ACAD
1000
TCW40_DEV_WIDTH
1002
{
1040
-3.0
1002
}
  0
LINE
  5
7487
330
1F
100
AcDbEntity
  8
0
100
AcDbLine
 10
11.05403119496705
 20
5.475424699334965
 30
0.0
 11
11.36877919496704
 21
5.475424699334965
 31
0.0
1001
ACAD
1000
TCW40_DEV_WIDTH
1002
{
1040
-3.0
1002
}
  0
LINE
  5
7488
330
1F
100
AcDbEntity
  8
0
100
AcDbLine
 10
11.13271819496705
 20
5.337722449334961
 30
0.0
 11
11.17206169496705
 21
5.475424699334965
 31
0.0
1001
ACAD
1000
TCW40_DEV_WIDTH
1002
{
1040
-3.0
1002
}
  0
LINE
  5
7489
330
1F
100
AcDbEntity
  8
0
100
AcDbLine
 10
11.25074869496706
 20
5.475424699334965
 30
0.0
 11
11.29009219496706
 21
5.337722449334961
 31
0.0
1001
ACAD
1000
TCW40_DEV_WIDTH
1002
{
1040
-3.0
1002
}
  0
LINE
  5
748A
330
1F
100
AcDbEntity
  8
0
100
AcDbLine
 10
11.29009219496706
 20
5.337722449334961
 30
0.0
 11
11.29009219496706
 21
5.278707199334959
 31
0.0
1001
ACAD
1000
TCW40_DEV_WIDTH
1002
{
1040
-3.0
1002
}
  0
LINE
  5
748B
330
1F
100
AcDbEntity
  8
0
100
AcDbLine
 10
11.13271819496705
 20
5.337722449334961
 30
0.0
 11
11.13271819496705
 21
5.278707199334959
 31
0.0
1001
ACAD
1000
TCW40_DEV_WIDTH
1002
{
1040
-3.0
1002
}
  0
CIRCLE
  5
748C
330
1F
100
AcDbEntity
  8
0
100
AcDbCircle
 10
11.21140519496705
 20
5.377065949334962
 30
0.0
 40
0.0393435
  0
ARC
  5
748D
330
1F
100
AcDbEntity
  8
0
100
AcDbCircle
 10
12.00811106996706
 20
6.302453630440481
 30
0.0
 40
0.049179375
100
AcDbArc
 50
0.0
 51
180.0
1001
ACAD
1000
TCW40_DEV_WIDTH
1002
{
1040
-3.0
1002
}
  0
ARC
  5
748E
330
1F
100
AcDbEntity
  8
0
100
AcDbCircle
 10
12.00811106996706
 20
6.143448768229447
 30
0.0
 40
0.049179375
100
AcDbArc
 50
180.0
 51
0.0
1001
ACAD
1000
TCW40_DEV_WIDTH
1002
{
1040
-3.0
1002
}
  0
CIRCLE
  5
748F
330
1F
100
AcDbEntity
  8
0
100
AcDbCircle
 10
11.52615319496705
 20
7.403256199334961
 30
0.0
 40
0.1180305
  0
CIRCLE
  5
7490
330
1F
100
AcDbEntity
  8
0
100
AcDbCircle
 10
11.52615319496705
 20
7.403256199334961
 30
0.0
 40
0.0501157678071689
  0
ARC
  5
7491
330
1F
100
AcDbEntity
  8
0
100
AcDbCircle
 10
12.39121779034925
 20
9.171986010074197
 30
0.0
 40
0.0805068517863418
100
AcDbArc
 50
30.67433373590795
 51
92.74182562883021
  0
LINE
  5
7492
330
1F
100
AcDbEntity
  8
0
100
AcDbLine
 10
12.38736669496704
 20
9.252400699334963
 30
0.0
 11
10.85731369496705
 21
9.252400699334963
 31
0.0
  0
ARC
  5
7493
330
1F
100
AcDbEntity
  8
0
100
AcDbCircle
 10
10.85731369496705
 20
9.213057199334963
 30
0.0
 40
0.0393434999999993
100
AcDbArc
 50
90.0
 51
180.0000000000026
  0
ARC
  5
7494
330
1F
100
AcDbEntity
  8
0
100
AcDbCircle
 10
10.88308066723064
 20
7.660158314198614
 30
0.0
 40
0.0730609800328116
100
AcDbArc
 50
206.9781189136403
 51
293.9492141395133
  0
ARC
  5
7495
330
1F
100
AcDbEntity
  8
0
100
AcDbCircle
 10
11.63905359285343
 20
6.397580966054164
 30
0.0
 40
1.399102369151791
100
AcDbArc
 50
58.65276668103341
 51
121.2738881046907
  0
ARC
  5
7496
330
1F
100
AcDbEntity
  8
0
100
AcDbCircle
 10
12.39627202948538
 20
7.657728876637349
 30
0.0
 40
0.0715766128300249
100
AcDbArc
 50
245.7720549569942
 51
333.7374287802703
  0
LINE
  5
7497
330
1F
100
AcDbEntity
  8
0
100
AcDbLine
 10
10.97100069496703
 20
7.6268867721868
 30
0.0
 11
10.97100069496703
 21
9.252400699334963
 31
0.0
1001
ACAD
1000
TCW40_DEV_WIDTH
1002
{
1040
-3.0
1002
}
  0
LINE
  5
7498
330
1F
100
AcDbEntity
  8
0
100
AcDbLine
 10
12.30876155375361
 20
7.625985901925368
 30
0.0
 11
12.30876155375361
 21
9.252400699334963
 31
0.0
1001
ACAD
1000
TCW40_DEV_WIDTH
1002
{
1040
-3.0
1002
}
  0
LINE
  5
7499
330
1F
100
AcDbEntity
  8
0
100
AcDbLine
 10
12.30867969496704
 20
8.89830919933496
 30
0.0
 11
12.34802319496704
 21
8.89830919933496
 31
0.0
1001
ACAD
1000
TCW40_DEV_WIDTH
1002
{
1040
-3.0
1002
}
  0
LINE
  5
749A
330
1F
100
AcDbEntity
  8
0
100
AcDbLine
 10
12.34802319496704
 20
8.89830919933496
 30
0.0
 11
12.34802319496704
 21
8.563889449334965
 31
0.0
1001
ACAD
1000
TCW40_DEV_WIDTH
1002
{
1040
-3.0
1002
}
  0
LINE
  5
749B
330
1F
100
AcDbEntity
  8
0
100
AcDbLine
 10
12.34802319496704
 20
8.563889449334965
 30
0.0
 11
12.30867969496704
 21
8.563889449334965
 31
0.0
1001
ACAD
1000
TCW40_DEV_WIDTH
1002
{
1040
-3.0
1002
}
  0
LINE
  5
749C
330
1F
100
AcDbEntity
  8
0
100
AcDbLine
 10
10.97100069496703
 20
8.89830919933496
 30
0.0
 11
10.93165719496705
 21
8.89830919933496
 31
0.0
1001
ACAD
1000
TCW40_DEV_WIDTH
1002
{
1040
-3.0
1002
}
  0
LINE
  5
749D
330
1F
100
AcDbEntity
  8
0
100
AcDbLine
 10
10.93165719496705
 20
8.89830919933496
 30
0.0
 11
10.93165719496705
 21
8.563889449334965
 31
0.0
1001
ACAD
1000
TCW40_DEV_WIDTH
1002
{
1040
-3.0
1002
}
  0
LINE
  5
749E
330
1F
100
AcDbEntity
  8
0
100
AcDbLine
 10
10.93165719496705
 20
8.563889449334965
 30
0.0
 11
10.97100069496703
 21
8.563889449334965
 31
0.0
1001
ACAD
1000
TCW40_DEV_WIDTH
1002
{
1040
-3.0
1002
}
  0
ARC
  5
749F
330
1F
100
AcDbEntity
  8
0
100
AcDbCircle
 10
11.63905359285343
 20
6.633641966054163
 30
0.0
 40
1.399102369151787
100
AcDbArc
 50
61.40144366923844
 51
118.5213884935842
  0
CIRCLE
  5
74A0
330
1F
100
AcDbEntity
  8
0
100
AcDbCircle
 10
10.85903497309206
 20
10.14042637348785
 30
0.0
 40
0.08606390625
  0
LINE
  5
74A1
330
1F
100
AcDbEntity
  8
0
100
AcDbLine
 10
10.82067488454631
 20
10.22041660297377
 30
0.0
 11
10.93052457097872
 21
10.08789856561003
 31
0.0
1001
ACAD
1000
TCW40_DEV_WIDTH
1002
{
1040
-3.0
1002
}
  0
LINE
  5
74A2
330
1F
100
AcDbEntity
  8
0
100
AcDbLine
 10
10.78754537520538
 20
10.19295418136567
 30
0.0
 11
10.89739506163779
 21
10.06043614400193
 31
0.0
1001
ACAD
1000
TCW40_DEV_WIDTH
1002
{
1040
-3.0
1002
}
  0
CIRCLE
  5
74A3
330
1F
100
AcDbEntity
  8
0
100
AcDbCircle
 10
11.05267876215455
 20
10.14042637348785
 30
0.0
 40
0.08606390625
  0
LINE
  5
74A4
330
1F
100
AcDbEntity
  8
0
100
AcDbLine
 10
11.01431867360881
 20
10.22041660297377
 30
0.0
 11
11.12416836004123
 21
10.08789856561003
 31
0.0
1001
ACAD
1000
TCW40_DEV_WIDTH
1002
{
1040
-3.0
1002
}
  0
LINE
  5
74A5
330
1F
100
AcDbEntity
  8
0
100
AcDbLine
 10
10.98118916426788
 20
10.19295418136567
 30
0.0
 11
11.09103885070029
 21
10.06043614400193
 31
0.0
1001
ACAD
1000
TCW40_DEV_WIDTH
1002
{
1040
-3.0
1002
}
  0
CIRCLE
  5
74A6
330
1F
100
AcDbEntity
  8
0
100
AcDbCircle
 10
11.24632255121705
 20
10.14042637348785
 30
0.0
 40
0.08606390625
  0
LINE
  5
74A7
330
1F
100
AcDbEntity
  8
0
100
AcDbLine
 10
11.20796246267132
 20
10.22041660297377
 30
0.0
 11
11.31781214910372
 21
10.08789856561003
 31
0.0
1001
ACAD
1000
TCW40_DEV_WIDTH
1002
{
1040
-3.0
1002
}
  0
LINE
  5
74A8
330
1F
100
AcDbEntity
  8
0
100
AcDbLine
 10
11.17483295333039
 20
10.19295418136567
 30
0.0
 11
11.28468263976279
 21
10.06043614400193
 31
0.0
1001
ACAD
1000
TCW40_DEV_WIDTH
1002
{
1040
-3.0
1002
}
  0
CIRCLE
  5
74A9
330
1F
100
AcDbEntity
  8
0
100
AcDbCircle
 10
11.43996634027956
 20
10.14042637348785
 30
0.0
 40
0.08606390625
  0
LINE
  5
74AA
330
1F
100
AcDbEntity
  8
0
100
AcDbLine
 10
11.40160625173381
 20
10.22041660297377
 30
0.0
 11
11.51145593816622
 21
10.08789856561003
 31
0.0
1001
ACAD
1000
TCW40_DEV_WIDTH
1002
{
1040
-3.0
1002
}
  0
LINE
  5
74AB
330
1F
100
AcDbEntity
  8
0
100
AcDbLine
 10
11.36847674239288
 20
10.19295418136567
 30
0.0
 11
11.47832642882529
 21
10.06043614400193
 31
0.0
1001
ACAD
1000
TCW40_DEV_WIDTH
1002
{
1040
-3.0
1002
}
  0
CIRCLE
  5
74AC
330
1F
100
AcDbEntity
  8
0
100
AcDbCircle
 10
11.63361012934205
 20
10.14042637348785
 30
0.0
 40
0.08606390625
  0
LINE
  5
74AD
330
1F
100
AcDbEntity
  8
0
100
AcDbLine
 10
11.59525004079632
 20
10.22041660297377
 30
0.0
 11
11.70509972722873
 21
10.08789856561003
 31
0.0
1001
ACAD
1000
TCW40_DEV_WIDTH
1002
{
1040
-3.0
1002
}
  0
LINE
  5
74AE
330
1F
100
AcDbEntity
  8
0
100
AcDbLine
 10
11.56212053145538
 20
10.19295418136567
 30
0.0
 11
11.6719702178878
 21
10.06043614400193
 31
0.0
1001
ACAD
1000
TCW40_DEV_WIDTH
1002
{
1040
-3.0
1002
}
  0
CIRCLE
  5
74AF
330
1F
100
AcDbEntity
  8
0
100
AcDbCircle
 10
11.82725391840455
 20
10.14042637348785
 30
0.0
 40
0.08606390625
  0
LINE
  5
74B0
330
1F
100
AcDbEntity
  8
0
100
AcDbLine
 10
11.78889382985882
 20
10.22041660297377
 30
0.0
 11
11.89874351629122
 21
10.08789856561003
 31
0.0
1001
ACAD
1000
TCW40_DEV_WIDTH
1002
{
1040
-3.0
1002
}
  0
LINE
  5
74B1
330
1F
100
AcDbEntity
  8
0
100
AcDbLine
 10
11.75576432051789
 20
10.19295418136567
 30
0.0
 11
11.86561400695029
 21
10.06043614400193
 31
0.0
1001
ACAD
1000
TCW40_DEV_WIDTH
1002
{
1040
-3.0
1002
}
  0
CIRCLE
  5
74B2
330
1F
100
AcDbEntity
  8
0
100
AcDbCircle
 10
12.02089770746706
 20
10.14042637348785
 30
0.0
 40
0.08606390625
  0
LINE
  5
74B3
330
1F
100
AcDbEntity
  8
0
100
AcDbLine
 10
11.98253761892131
 20
10.22041660297377
 30
0.0
 11
12.09238730535372
 21
10.08789856561003
 31
0.0
1001
ACAD
1000
TCW40_DEV_WIDTH
1002
{
1040
-3.0
1002
}
  0
LINE
  5
74B4
330
1F
100
AcDbEntity
  8
0
100
AcDbLine
 10
11.94940810958038
 20
10.19295418136567
 30
0.0
 11
12.05925779601279
 21
10.06043614400193
 31
0.0
1001
ACAD
1000
TCW40_DEV_WIDTH
1002
{
1040
-3.0
1002
}
  0
CIRCLE
  5
74B5
330
1F
100
AcDbEntity
  8
0
100
AcDbCircle
 10
12.21454149652955
 20
10.14042637348785
 30
0.0
 40
0.08606390625
  0
LINE
  5
74B6
330
1F
100
AcDbEntity
  8
0
100
AcDbLine
 10
12.17618140798382
 20
10.22041660297377
 30
0.0
 11
12.28603109441623
 21
10.08789856561003
 31
0.0
1001
ACAD
1000
TCW40_DEV_WIDTH
1002
{
1040
-3.0
1002
}
  0
LINE
  5
74B7
330
1F
100
AcDbEntity
  8
0
100
AcDbLine
 10
12.14305189864289
 20
10.19295418136567
 30
0.0
 11
12.2529015850753
 21
10.06043614400193
 31
0.0
1001
ACAD
1000
TCW40_DEV_WIDTH
1002
{
1040
-3.0
1002
}
  0
CIRCLE
  5
74B8
330
1F
100
AcDbEntity
  8
0
100
AcDbCircle
 10
10.96661485590455
 20
9.667074889112852
 30
0.0
 40
0.08606390625
  0
LINE
  5
74B9
330
1F
100
AcDbEntity
  8
0
100
AcDbLine
 10
10.92825476735881
 20
9.747065118598776
 30
0.0
 11
11.03810445379123
 21
9.614547081235034
 31
0.0
1001
ACAD
1000
TCW40_DEV_WIDTH
1002
{
1040
-3.0
1002
}
  0
LINE
  5
74BA
330
1F
100
AcDbEntity
  8
0
100
AcDbLine
 10
10.89512525801788
 20
9.719602696990673
 30
0.0
 11
11.00497494445029
 21
9.587084659626931
 31
0.0
1001
ACAD
1000
TCW40_DEV_WIDTH
1002
{
1040
-3.0
1002
}
  0
CIRCLE
  5
74BB
330
1F
100
AcDbEntity
  8
0
100
AcDbCircle
 10
11.16025864496705
 20
9.667074889112852
 30
0.0
 40
0.08606390625
  0
LINE
  5
74BC
330
1F
100
AcDbEntity
  8
0
100
AcDbLine
 10
11.12189855642132
 20
9.747065118598776
 30
0.0
 11
11.23174824285373
 21
9.614547081235034
 31
0.0
1001
ACAD
1000
TCW40_DEV_WIDTH
1002
{
1040
-3.0
1002
}
  0
LINE
  5
74BD
330
1F
100
AcDbEntity
  8
0
100
AcDbLine
 10
11.08876904708038
 20
9.719602696990673
 30
0.0
 11
11.1986187335128
 21
9.587084659626931
 31
0.0
1001
ACAD
1000
TCW40_DEV_WIDTH
1002
{
1040
-3.0
1002
}
  0
CIRCLE
  5
74BE
330
1F
100
AcDbEntity
  8
0
100
AcDbCircle
 10
11.35390243402956
 20
9.667074889112852
 30
0.0
 40
0.08606390625
  0
LINE
  5
74BF
330
1F
100
AcDbEntity
  8
0
100
AcDbLine
 10
11.31554234548382
 20
9.747065118598776
 30
0.0
 11
11.42539203191622
 21
9.614547081235034
 31
0.0
1001
ACAD
1000
TCW40_DEV_WIDTH
1002
{
1040
-3.0
1002
}
  0
LINE
  5
74C0
330
1F
100
AcDbEntity
  8
0
100
AcDbLine
 10
11.28241283614288
 20
9.719602696990673
 30
0.0
 11
11.39226252257529
 21
9.587084659626931
 31
0.0
1001
ACAD
1000
TCW40_DEV_WIDTH
1002
{
1040
-3.0
1002
}
  0
CIRCLE
  5
74C1
330
1F
100
AcDbEntity
  8
0
100
AcDbCircle
 10
11.54754622309205
 20
9.667074889112852
 30
0.0
 40
0.08606390625
  0
LINE
  5
74C2
330
1F
100
AcDbEntity
  8
0
100
AcDbLine
 10
11.50918613454631
 20
9.747065118598776
 30
0.0
 11
11.61903582097872
 21
9.614547081235034
 31
0.0
1001
ACAD
1000
TCW40_DEV_WIDTH
1002
{
1040
-3.0
1002
}
  0
LINE
  5
74C3
330
1F
100
AcDbEntity
  8
0
100
AcDbLine
 10
11.47605662520538
 20
9.719602696990673
 30
0.0
 11
11.58590631163779
 21
9.587084659626931
 31
0.0
1001
ACAD
1000
TCW40_DEV_WIDTH
1002
{
1040
-3.0
1002
}
  0
CIRCLE
  5
74C4
330
1F
100
AcDbEntity
  8
0
100
AcDbCircle
 10
11.74119001215455
 20
9.667074889112852
 30
0.0
 40
0.08606390625
  0
LINE
  5
74C5
330
1F
100
AcDbEntity
  8
0
100
AcDbLine
 10
11.70282992360882
 20
9.747065118598776
 30
0.0
 11
11.81267961004123
 21
9.614547081235034
 31
0.0
1001
ACAD
1000
TCW40_DEV_WIDTH
1002
{
1040
-3.0
1002
}
  0
LINE
  5
74C6
330
1F
100
AcDbEntity
  8
0
100
AcDbLine
 10
11.66970041426789
 20
9.719602696990673
 30
0.0
 11
11.77955010070029
 21
9.587084659626931
 31
0.0
1001
ACAD
1000
TCW40_DEV_WIDTH
1002
{
1040
-3.0
1002
}
  0
CIRCLE
  5
74C7
330
1F
100
AcDbEntity
  8
0
100
AcDbCircle
 10
11.93483380121706
 20
9.667074889112852
 30
0.0
 40
0.08606390625
  0
LINE
  5
74C8
330
1F
100
AcDbEntity
  8
0
100
AcDbLine
 10
11.89647371267132
 20
9.747065118598776
 30
0.0
 11
12.00632339910372
 21
9.614547081235034
 31
0.0
1001
ACAD
1000
TCW40_DEV_WIDTH
1002
{
1040
-3.0
1002
}
  0
LINE
  5
74C9
330
1F
100
AcDbEntity
  8
0
100
AcDbLine
 10
11.86334420333038
 20
9.719602696990673
 30
0.0
 11
11.97319388976279
 21
9.587084659626931
 31
0.0
1001
ACAD
1000
TCW40_DEV_WIDTH
1002
{
1040
-3.0
1002
}
  0
CIRCLE
  5
74CA
330
1F
100
AcDbEntity
  8
0
100
AcDbCircle
 10
12.12847759027955
 20
9.667074889112852
 30
0.0
 40
0.08606390625
  0
LINE
  5
74CB
330
1F
100
AcDbEntity
  8
0
100
AcDbLine
 10
12.09011750173382
 20
9.747065118598776
 30
0.0
 11
12.19996718816623
 21
9.614547081235034
 31
0.0
1001
ACAD
1000
TCW40_DEV_WIDTH
1002
{
1040
-3.0
1002
}
  0
LINE
  5
74CC
330
1F
100
AcDbEntity
  8
0
100
AcDbLine
 10
12.05698799239288
 20
9.719602696990673
 30
0.0
 11
12.16683767882529
 21
9.587084659626931
 31
0.0
1001
ACAD
1000
TCW40_DEV_WIDTH
1002
{
1040
-3.0
1002
}
  0
CIRCLE
  5
74CD
330
1F
100
AcDbEntity
  8
0
100
AcDbCircle
 10
12.32212137934205
 20
9.667074889112852
 30
0.0
 40
0.08606390625
  0
LINE
  5
74CE
330
1F
100
AcDbEntity
  8
0
100
AcDbLine
 10
12.28376129079632
 20
9.747065118598776
 30
0.0
 11
12.39361097722872
 21
9.614547081235034
 31
0.0
1001
ACAD
1000
TCW40_DEV_WIDTH
1002
{
1040
-3.0
1002
}
  0
LINE
  5
74CF
330
1F
100
AcDbEntity
  8
0
100
AcDbLine
 10
12.25063178145539
 20
9.719602696990673
 30
0.0
 11
12.36048146788778
 21
9.587084659626931
 31
0.0
1001
ACAD
1000
TCW40_DEV_WIDTH
1002
{
1040
-3.0
1002
}
  0
LINE
  5
74D0
330
1F
100
AcDbEntity
  8
0
100
AcDbLine
 10
10.7777388388438
 20
9.974656349759476
 30
0.0
 11
10.92318072918742
 21
9.974656349759476
 31
0.0
1001
ACAD
1000
TCW40_DEV_WIDTH
1002
{
1040
-3.0
1002
}
  0
LINE
  5
74D1
330
1F
100
AcDbEntity
  8
0
100
AcDbLine
 10
10.92318072918742
 20
9.974656349759476
 30
0.0
 11
10.92318072918742
 21
9.95042673144486
 31
0.0
1001
ACAD
1000
TCW40_DEV_WIDTH
1002
{
1040
-3.0
1002
}
  0
LINE
  5
74D2
330
1F
100
AcDbEntity
  8
0
100
AcDbLine
 10
10.92318072918742
 20
9.95042673144486
 30
0.0
 11
10.7777388388438
 21
9.95042673144486
 31
0.0
1001
ACAD
1000
TCW40_DEV_WIDTH
1002
{
1040
-3.0
1002
}
  0
LINE
  5
74D3
330
1F
100
AcDbEntity
  8
0
100
AcDbLine
 10
10.7777388388438
 20
9.95042673144486
 30
0.0
 11
10.7777388388438
 21
9.974656349759476
 31
0.0
1001
ACAD
1000
TCW40_DEV_WIDTH
1002
{
1040
-3.0
1002
}
  0
LINE
  5
74D4
330
1F
100
AcDbEntity
  8
0
100
AcDbLine
 10
10.9713826279063
 20
9.974656349759476
 30
0.0
 11
11.11682451824993
 21
9.974656349759476
 31
0.0
1001
ACAD
1000
TCW40_DEV_WIDTH
1002
{
1040
-3.0
1002
}
  0
LINE
  5
74D5
330
1F
100
AcDbEntity
  8
0
100
AcDbLine
 10
11.11682451824993
 20
9.974656349759476
 30
0.0
 11
11.11682451824993
 21
9.95042673144486
 31
0.0
1001
ACAD
1000
TCW40_DEV_WIDTH
1002
{
1040
-3.0
1002
}
  0
LINE
  5
74D6
330
1F
100
AcDbEntity
  8
0
100
AcDbLine
 10
11.11682451824993
 20
9.95042673144486
 30
0.0
 11
10.9713826279063
 21
9.95042673144486
 31
0.0
1001
ACAD
1000
TCW40_DEV_WIDTH
1002
{
1040
-3.0
1002
}
  0
LINE
  5
74D7
330
1F
100
AcDbEntity
  8
0
100
AcDbLine
 10
10.9713826279063
 20
9.95042673144486
 30
0.0
 11
10.9713826279063
 21
9.974656349759476
 31
0.0
1001
ACAD
1000
TCW40_DEV_WIDTH
1002
{
1040
-3.0
1002
}
  0
LINE
  5
74D8
330
1F
100
AcDbEntity
  8
0
100
AcDbLine
 10
11.16502641696879
 20
9.974656349759476
 30
0.0
 11
11.31046830731243
 21
9.974656349759476
 31
0.0
1001
ACAD
1000
TCW40_DEV_WIDTH
1002
{
1040
-3.0
1002
}
  0
LINE
  5
74D9
330
1F
100
AcDbEntity
  8
0
100
AcDbLine
 10
11.31046830731243
 20
9.974656349759476
 30
0.0
 11
11.31046830731243
 21
9.95042673144486
 31
0.0
1001
ACAD
1000
TCW40_DEV_WIDTH
1002
{
1040
-3.0
1002
}
  0
LINE
  5
74DA
330
1F
100
AcDbEntity
  8
0
100
AcDbLine
 10
11.31046830731243
 20
9.95042673144486
 30
0.0
 11
11.16502641696879
 21
9.95042673144486
 31
0.0
1001
ACAD
1000
TCW40_DEV_WIDTH
1002
{
1040
-3.0
1002
}
  0
LINE
  5
74DB
330
1F
100
AcDbEntity
  8
0
100
AcDbLine
 10
11.16502641696879
 20
9.95042673144486
 30
0.0
 11
11.16502641696879
 21
9.974656349759476
 31
0.0
1001
ACAD
1000
TCW40_DEV_WIDTH
1002
{
1040
-3.0
1002
}
  0
LINE
  5
74DC
330
1F
100
AcDbEntity
  8
0
100
AcDbLine
 10
11.3586702060313
 20
9.974656349759476
 30
0.0
 11
11.50411209637492
 21
9.974656349759476
 31
0.0
1001
ACAD
1000
TCW40_DEV_WIDTH
1002
{
1040
-3.0
1002
}
  0
LINE
  5
74DD
330
1F
100
AcDbEntity
  8
0
100
AcDbLine
 10
11.50411209637492
 20
9.974656349759476
 30
0.0
 11
11.50411209637492
 21
9.95042673144486
 31
0.0
1001
ACAD
1000
TCW40_DEV_WIDTH
1002
{
1040
-3.0
1002
}
  0
LINE
  5
74DE
330
1F
100
AcDbEntity
  8
0
100
AcDbLine
 10
11.50411209637492
 20
9.95042673144486
 30
0.0
 11
11.3586702060313
 21
9.95042673144486
 31
0.0
1001
ACAD
1000
TCW40_DEV_WIDTH
1002
{
1040
-3.0
1002
}
  0
LINE
  5
74DF
330
1F
100
AcDbEntity
  8
0
100
AcDbLine
 10
11.3586702060313
 20
9.95042673144486
 30
0.0
 11
11.3586702060313
 21
9.974656349759476
 31
0.0
1001
ACAD
1000
TCW40_DEV_WIDTH
1002
{
1040
-3.0
1002
}
  0
LINE
  5
74E0
330
1F
100
AcDbEntity
  8
0
100
AcDbLine
 10
11.5523139950938
 20
9.974656349759476
 30
0.0
 11
11.69775588543743
 21
9.974656349759476
 31
0.0
1001
ACAD
1000
TCW40_DEV_WIDTH
1002
{
1040
-3.0
1002
}
  0
LINE
  5
74E1
330
1F
100
AcDbEntity
  8
0
100
AcDbLine
 10
11.69775588543743
 20
9.974656349759476
 30
0.0
 11
11.69775588543743
 21
9.95042673144486
 31
0.0
1001
ACAD
1000
TCW40_DEV_WIDTH
1002
{
1040
-3.0
1002
}
  0
LINE
  5
74E2
330
1F
100
AcDbEntity
  8
0
100
AcDbLine
 10
11.69775588543743
 20
9.95042673144486
 30
0.0
 11
11.5523139950938
 21
9.95042673144486
 31
0.0
1001
ACAD
1000
TCW40_DEV_WIDTH
1002
{
1040
-3.0
1002
}
  0
LINE
  5
74E3
330
1F
100
AcDbEntity
  8
0
100
AcDbLine
 10
11.5523139950938
 20
9.95042673144486
 30
0.0
 11
11.5523139950938
 21
9.974656349759476
 31
0.0
1001
ACAD
1000
TCW40_DEV_WIDTH
1002
{
1040
-3.0
1002
}
  0
LINE
  5
74E4
330
1F
100
AcDbEntity
  8
0
100
AcDbLine
 10
11.74595778415629
 20
9.974656349759476
 30
0.0
 11
11.89139967449993
 21
9.974656349759476
 31
0.0
1001
ACAD
1000
TCW40_DEV_WIDTH
1002
{
1040
-3.0
1002
}
  0
LINE
  5
74E5
330
1F
100
AcDbEntity
  8
0
100
AcDbLine
 10
11.89139967449993
 20
9.974656349759476
 30
0.0
 11
11.89139967449993
 21
9.95042673144486
 31
0.0
1001
ACAD
1000
TCW40_DEV_WIDTH
1002
{
1040
-3.0
1002
}
  0
LINE
  5
74E6
330
1F
100
AcDbEntity
  8
0
100
AcDbLine
 10
11.89139967449993
 20
9.95042673144486
 30
0.0
 11
11.74595778415629
 21
9.95042673144486
 31
0.0
1001
ACAD
1000
TCW40_DEV_WIDTH
1002
{
1040
-3.0
1002
}
  0
LINE
  5
74E7
330
1F
100
AcDbEntity
  8
0
100
AcDbLine
 10
11.74595778415629
 20
9.95042673144486
 30
0.0
 11
11.74595778415629
 21
9.974656349759476
 31
0.0
1001
ACAD
1000
TCW40_DEV_WIDTH
1002
{
1040
-3.0
1002
}
  0
LINE
  5
74E8
330
1F
100
AcDbEntity
  8
0
100
AcDbLine
 10
11.9396015732188
 20
9.974656349759476
 30
0.0
 11
12.08504346356242
 21
9.974656349759476
 31
0.0
1001
ACAD
1000
TCW40_DEV_WIDTH
1002
{
1040
-3.0
1002
}
  0
LINE
  5
74E9
330
1F
100
AcDbEntity
  8
0
100
AcDbLine
 10
12.08504346356242
 20
9.974656349759476
 30
0.0
 11
12.08504346356242
 21
9.95042673144486
 31
0.0
1001
ACAD
1000
TCW40_DEV_WIDTH
1002
{
1040
-3.0
1002
}
  0
LINE
  5
74EA
330
1F
100
AcDbEntity
  8
0
100
AcDbLine
 10
12.08504346356242
 20
9.95042673144486
 30
0.0
 11
11.9396015732188
 21
9.95042673144486
 31
0.0
1001
ACAD
1000
TCW40_DEV_WIDTH
1002
{
1040
-3.0
1002
}
  0
LINE
  5
74EB
330
1F
100
AcDbEntity
  8
0
100
AcDbLine
 10
11.9396015732188
 20
9.95042673144486
 30
0.0
 11
11.9396015732188
 21
9.974656349759476
 31
0.0
1001
ACAD
1000
TCW40_DEV_WIDTH
1002
{
1040
-3.0
1002
}
  0
LINE
  5
74EC
330
1F
100
AcDbEntity
  8
0
100
AcDbLine
 10
12.1332453622813
 20
9.974656349759476
 30
0.0
 11
12.27868725262493
 21
9.974656349759476
 31
0.0
1001
ACAD
1000
TCW40_DEV_WIDTH
1002
{
1040
-3.0
1002
}
  0
LINE
  5
74ED
330
1F
100
AcDbEntity
  8
0
100
AcDbLine
 10
12.27868725262493
 20
9.974656349759476
 30
0.0
 11
12.27868725262493
 21
9.95042673144486
 31
0.0
1001
ACAD
1000
TCW40_DEV_WIDTH
1002
{
1040
-3.0
1002
}
  0
LINE
  5
74EE
330
1F
100
AcDbEntity
  8
0
100
AcDbLine
 10
12.27868725262493
 20
9.95042673144486
 30
0.0
 11
12.1332453622813
 21
9.95042673144486
 31
0.0
1001
ACAD
1000
TCW40_DEV_WIDTH
1002
{
1040
-3.0
1002
}
  0
LINE
  5
74EF
330
1F
100
AcDbEntity
  8
0
100
AcDbLine
 10
12.1332453622813
 20
9.95042673144486
 30
0.0
 11
12.1332453622813
 21
9.974656349759476
 31
0.0
1001
ACAD
1000
TCW40_DEV_WIDTH
1002
{
1040
-3.0
1002
}
  0
LINE
  5
74F0
330
1F
100
AcDbEntity
  8
0
100
AcDbLine
 10
10.85903497309206
 20
9.920010714959964
 30
0.0
 11
10.85903497309206
 21
9.446659230584963
 31
0.0
1001
ACAD
1000
TCW40_DEV_WIDTH
1002
{
1040
-3.0
1002
}
  0
LINE
  5
74F1
330
1F
100
AcDbEntity
  8
0
100
AcDbLine
 10
12.32212137934205
 20
10.39336219933496
 30
0.0
 11
12.32212137934205
 21
9.920010714959964
 31
0.0
1001
ACAD
1000
TCW40_DEV_WIDTH
1002
{
1040
-3.0
1002
}
  0
LINE
  5
74F2
330
1F
100
AcDbEntity
  8
0
100
AcDbLine
 10
10.75895494496706
 20
7.089323630440482
 30
0.0
 11
10.62125269496705
 21
7.168826061545999
 31
0.0
1001
ACAD
1000
TCW40_DEV_WIDTH
1002
{
1040
-3.0
1002
}
  0
LINE
  5
74F3
330
1F
100
AcDbEntity
  8
0
100
AcDbLine
 10
10.62125269496705
 20
7.168826061545999
 30
0.0
 11
10.48355044496705
 21
7.089323630440482
 31
0.0
1001
ACAD
1000
TCW40_DEV_WIDTH
1002
{
1040
-3.0
1002
}
  0
LINE
  5
74F4
330
1F
100
AcDbEntity
  8
0
100
AcDbLine
 10
10.48355044496705
 20
7.089323630440482
 30
0.0
 11
10.48355044496705
 21
6.930318768229447
 31
0.0
1001
ACAD
1000
TCW40_DEV_WIDTH
1002
{
1040
-3.0
1002
}
  0
LINE
  5
74F5
330
1F
100
AcDbEntity
  8
0
100
AcDbLine
 10
10.48355044496705
 20
6.930318768229447
 30
0.0
 11
10.62125269496705
 21
6.85081633712393
 31
0.0
1001
ACAD
1000
TCW40_DEV_WIDTH
1002
{
1040
-3.0
1002
}
  0
LINE
  5
74F6
330
1F
100
AcDbEntity
  8
0
100
AcDbLine
 10
10.62125269496705
 20
6.85081633712393
 30
0.0
 11
10.75895494496706
 21
6.930318768229447
 31
0.0
1001
ACAD
1000
TCW40_DEV_WIDTH
1002
{
1040
-3.0
1002
}
  0
LINE
  5
74F7
330
1F
100
AcDbEntity
  8
0
100
AcDbLine
 10
10.75895494496706
 20
6.930318768229447
 30
0.0
 11
10.75895494496706
 21
7.089323630440482
 31
0.0
1001
ACAD
1000
TCW40_DEV_WIDTH
1002
{
1040
-3.0
1002
}
  0
LINE
  5
74F8
330
1F
100
AcDbEntity
  8
0
100
AcDbLine
 10
10.75895494496706
 20
6.695888630440478
 30
0.0
 11
10.62125269496705
 21
6.775391061546002
 31
0.0
1001
ACAD
1000
TCW40_DEV_WIDTH
1002
{
1040
-3.0
1002
}
  0
LINE
  5
74F9
330
1F
100
AcDbEntity
  8
0
100
AcDbLine
 10
10.62125269496705
 20
6.775391061546002
 30
0.0
 11
10.48355044496705
 21
6.695888630440478
 31
0.0
1001
ACAD
1000
TCW40_DEV_WIDTH
1002
{
1040
-3.0
1002
}
  0
LINE
  5
74FA
330
1F
100
AcDbEntity
  8
0
100
AcDbLine
 10
10.48355044496705
 20
6.695888630440478
 30
0.0
 11
10.48355044496705
 21
6.536883768229451
 31
0.0
1001
ACAD
1000
TCW40_DEV_WIDTH
1002
{
1040
-3.0
1002
}
  0
LINE
  5
74FB
330
1F
100
AcDbEntity
  8
0
100
AcDbLine
 10
10.48355044496705
 20
6.536883768229451
 30
0.0
 11
10.62125269496705
 21
6.457381337123933
 31
0.0
1001
ACAD
1000
TCW40_DEV_WIDTH
1002
{
1040
-3.0
1002
}
  0
LINE
  5
74FC
330
1F
100
AcDbEntity
  8
0
100
AcDbLine
 10
10.62125269496705
 20
6.457381337123933
 30
0.0
 11
10.75895494496706
 21
6.536883768229444
 31
0.0
1001
ACAD
1000
TCW40_DEV_WIDTH
1002
{
1040
-3.0
1002
}
  0
LINE
  5
74FD
330
1F
100
AcDbEntity
  8
0
100
AcDbLine
 10
10.75895494496706
 20
6.536883768229444
 30
0.0
 11
10.75895494496706
 21
6.695888630440478
 31
0.0
1001
ACAD
1000
TCW40_DEV_WIDTH
1002
{
1040
-3.0
1002
}
  0
LINE
  5
74FE
330
1F
100
AcDbEntity
  8
0
100
AcDbLine
 10
10.75895494496706
 20
6.302453630440481
 30
0.0
 11
10.62125269496705
 21
6.381956061545999
 31
0.0
1001
ACAD
1000
TCW40_DEV_WIDTH
1002
{
1040
-3.0
1002
}
  0
LINE
  5
74FF
330
1F
100
AcDbEntity
  8
0
100
AcDbLine
 10
10.62125269496705
 20
6.381956061545999
 30
0.0
 11
10.48355044496705
 21
6.302453630440481
 31
0.0
1001
ACAD
1000
TCW40_DEV_WIDTH
1002
{
1040
-3.0
1002
}
  0
LINE
  5
7500
330
1F
100
AcDbEntity
  8
0
100
AcDbLine
 10
10.48355044496705
 20
6.302453630440481
 30
0.0
 11
10.48355044496705
 21
6.143448768229447
 31
0.0
1001
ACAD
1000
TCW40_DEV_WIDTH
1002
{
1040
-3.0
1002
}
  0
LINE
  5
7501
330
1F
100
AcDbEntity
  8
0
100
AcDbLine
 10
10.48355044496705
 20
6.143448768229447
 30
0.0
 11
10.62125269496705
 21
6.06394633712393
 31
0.0
1001
ACAD
1000
TCW40_DEV_WIDTH
1002
{
1040
-3.0
1002
}
  0
LINE
  5
7502
330
1F
100
AcDbEntity
  8
0
100
AcDbLine
 10
10.62125269496705
 20
6.06394633712393
 30
0.0
 11
10.75895494496706
 21
6.143448768229447
 31
0.0
1001
ACAD
1000
TCW40_DEV_WIDTH
1002
{
1040
-3.0
1002
}
  0
LINE
  5
7503
330
1F
100
AcDbEntity
  8
0
100
AcDbLine
 10
10.75895494496706
 20
6.143448768229447
 30
0.0
 11
10.75895494496706
 21
6.302453630440481
 31
0.0
1001
ACAD
1000
TCW40_DEV_WIDTH
1002
{
1040
-3.0
1002
}
  0
LINE
  5
7504
330
1F
100
AcDbEntity
  8
0
100
AcDbLine
 10
10.38519169496705
 20
7.285225699334965
 30
0.0
 11
10.38519169496705
 21
5.278707199334959
 31
0.0
1001
ACAD
1000
TCW40_DEV_WIDTH
1002
{
1040
-3.0
1002
}
  0
LINE
  5
7505
330
1F
100
AcDbEntity
  8
0
100
AcDbLine
 10
9.991756694967051
 20
7.285225699334965
 30
0.0
 11
9.991756694967051
 21
5.278707199334959
 31
0.0
1001
ACAD
1000
TCW40_DEV_WIDTH
1002
{
1040
-3.0
1002
}
  0
LINE
  5
7506
330
1F
100
AcDbEntity
  8
0
100
AcDbLine
 10
9.991756694967051
 20
7.285225699334965
 30
0.0
 11
10.38519169496705
 21
7.285225699334965
 31
0.0
1001
ACAD
1000
TCW40_DEV_WIDTH
1002
{
1040
-3.0
1002
}
  0
LINE
  5
7507
330
1F
100
AcDbEntity
  8
0
100
AcDbLine
 10
9.991756694967051
 20
7.226210449334963
 30
0.0
 11
10.10978719496705
 21
7.226210449334963
 31
0.0
1001
ACAD
1000
TCW40_DEV_WIDTH
1002
{
1040
-3.0
1002
}
  0
LINE
  5
7508
330
1F
100
AcDbEntity
  8
0
100
AcDbLine
 10
10.26716119496704
 20
7.226210449334963
 30
0.0
 11
10.38519169496705
 21
7.226210449334963
 31
0.0
1001
ACAD
1000
TCW40_DEV_WIDTH
1002
{
1040
-3.0
1002
}
  0
LINE
  5
7509
330
1F
100
AcDbEntity
  8
0
100
AcDbLine
 10
10.03110019496705
 20
7.088508199334967
 30
0.0
 11
10.34584819496704
 21
7.088508199334967
 31
0.0
1001
ACAD
1000
TCW40_DEV_WIDTH
1002
{
1040
-3.0
1002
}
  0
LINE
  5
750A
330
1F
100
AcDbEntity
  8
0
100
AcDbLine
 10
10.10978719496705
 20
7.226210449334963
 30
0.0
 11
10.14913069496705
 21
7.088508199334967
 31
0.0
1001
ACAD
1000
TCW40_DEV_WIDTH
1002
{
1040
-3.0
1002
}
  0
LINE
  5
750B
330
1F
100
AcDbEntity
  8
0
100
AcDbLine
 10
10.22781769496706
 20
7.088508199334967
 30
0.0
 11
10.26716119496704
 21
7.226210449334963
 31
0.0
1001
ACAD
1000
TCW40_DEV_WIDTH
1002
{
1040
-3.0
1002
}
  0
LINE
  5
750C
330
1F
100
AcDbEntity
  8
0
100
AcDbLine
 10
10.26716119496704
 20
7.226210449334963
 30
0.0
 11
10.26716119496704
 21
7.285225699334965
 31
0.0
1001
ACAD
1000
TCW40_DEV_WIDTH
1002
{
1040
-3.0
1002
}
  0
LINE
  5
750D
330
1F
100
AcDbEntity
  8
0
100
AcDbLine
 10
10.10978719496705
 20
7.226210449334963
 30
0.0
 11
10.10978719496705
 21
7.285225699334965
 31
0.0
1001
ACAD
1000
TCW40_DEV_WIDTH
1002
{
1040
-3.0
1002
}
  0
CIRCLE
  5
750E
330
1F
100
AcDbEntity
  8
0
100
AcDbCircle
 10
10.18847419496705
 20
7.186866949334962
 30
0.0
 40
0.0393435
  0
LINE
  5
750F
330
1F
100
AcDbEntity
  8
0
100
AcDbLine
 10
10.03110019496705
 20
7.088508199334967
 30
0.0
 11
10.03110019496705
 21
5.475424699334965
 31
0.0
1001
ACAD
1000
TCW40_DEV_WIDTH
1002
{
1040
-3.0
1002
}
  0
LINE
  5
7510
330
1F
100
AcDbEntity
  8
0
100
AcDbLine
 10
10.34584819496704
 20
7.088508199334967
 30
0.0
 11
10.34584819496704
 21
5.475424699334965
 31
0.0
1001
ACAD
1000
TCW40_DEV_WIDTH
1002
{
1040
-3.0
1002
}
  0
LINE
  5
7511
330
1F
100
AcDbEntity
  8
0
100
AcDbLine
 10
9.991756694967051
 20
5.278707199334959
 30
0.0
 11
10.38519169496705
 21
5.278707199334959
 31
0.0
1001
ACAD
1000
TCW40_DEV_WIDTH
1002
{
1040
-3.0
1002
}
  0
LINE
  5
7512
330
1F
100
AcDbEntity
  8
0
100
AcDbLine
 10
9.991756694967051
 20
5.337722449334961
 30
0.0
 11
10.10978719496705
 21
5.337722449334961
 31
0.0
1001
ACAD
1000
TCW40_DEV_WIDTH
1002
{
1040
-3.0
1002
}
  0
LINE
  5
7513
330
1F
100
AcDbEntity
  8
0
100
AcDbLine
 10
10.26716119496704
 20
5.337722449334961
 30
0.0
 11
10.38519169496705
 21
5.337722449334961
 31
0.0
1001
ACAD
1000
TCW40_DEV_WIDTH
1002
{
1040
-3.0
1002
}
  0
LINE
  5
7514
330
1F
100
AcDbEntity
  8
0
100
AcDbLine
 10
10.03110019496705
 20
5.475424699334965
 30
0.0
 11
10.34584819496704
 21
5.475424699334965
 31
0.0
1001
ACAD
1000
TCW40_DEV_WIDTH
1002
{
1040
-3.0
1002
}
  0
LINE
  5
7515
330
1F
100
AcDbEntity
  8
0
100
AcDbLine
 10
10.10978719496705
 20
5.337722449334961
 30
0.0
 11
10.14913069496705
 21
5.475424699334965
 31
0.0
1001
ACAD
1000
TCW40_DEV_WIDTH
1002
{
1040
-3.0
1002
}
  0
LINE
  5
7516
330
1F
100
AcDbEntity
  8
0
100
AcDbLine
 10
10.22781769496706
 20
5.475424699334965
 30
0.0
 11
10.26716119496704
 21
5.337722449334961
 31
0.0
1001
ACAD
1000
TCW40_DEV_WIDTH
1002
{
1040
-3.0
1002
}
  0
LINE
  5
7517
330
1F
100
AcDbEntity
  8
0
100
AcDbLine
 10
10.26716119496704
 20
5.337722449334961
 30
0.0
 11
10.26716119496704
 21
5.278707199334959
 31
0.0
1001
ACAD
1000
TCW40_DEV_WIDTH
1002
{
1040
-3.0
1002
}
  0
LINE
  5
7518
330
1F
100
AcDbEntity
  8
0
100
AcDbLine
 10
10.10978719496705
 20
5.337722449334961
 30
0.0
 11
10.10978719496705
 21
5.278707199334959
 31
0.0
1001
ACAD
1000
TCW40_DEV_WIDTH
1002
{
1040
-3.0
1002
}
  0
CIRCLE
  5
7519
330
1F
100
AcDbEntity
  8
0
100
AcDbCircle
 10
10.18847419496705
 20
5.377065949334962
 30
0.0
 40
0.0393435
  0
LINE
  5
751A
330
1F
100
AcDbEntity
  8
0
100
AcDbLine
 10
9.834382694967047
 20
7.285225699334965
 30
0.0
 11
9.834382694967047
 21
5.278707199334959
 31
0.0
1001
ACAD
1000
TCW40_DEV_WIDTH
1002
{
1040
-3.0
1002
}
  0
LINE
  5
751B
330
1F
100
AcDbEntity
  8
0
100
AcDbLine
 10
9.44094769496705
 20
7.285225699334965
 30
0.0
 11
9.44094769496705
 21
5.278707199334959
 31
0.0
1001
ACAD
1000
TCW40_DEV_WIDTH
1002
{
1040
-3.0
1002
}
  0
LINE
  5
751C
330
1F
100
AcDbEntity
  8
0
100
AcDbLine
 10
9.44094769496705
 20
7.285225699334965
 30
0.0
 11
9.834382694967047
 21
7.285225699334965
 31
0.0
1001
ACAD
1000
TCW40_DEV_WIDTH
1002
{
1040
-3.0
1002
}
  0
LINE
  5
751D
330
1F
100
AcDbEntity
  8
0
100
AcDbLine
 10
9.44094769496705
 20
7.226210449334963
 30
0.0
 11
9.558978194967053
 21
7.226210449334963
 31
0.0
1001
ACAD
1000
TCW40_DEV_WIDTH
1002
{
1040
-3.0
1002
}
  0
LINE
  5
751E
330
1F
100
AcDbEntity
  8
0
100
AcDbLine
 10
9.716352194967058
 20
7.226210449334963
 30
0.0
 11
9.834382694967047
 21
7.226210449334963
 31
0.0
1001
ACAD
1000
TCW40_DEV_WIDTH
1002
{
1040
-3.0
1002
}
  0
LINE
  5
751F
330
1F
100
AcDbEntity
  8
0
100
AcDbLine
 10
9.480291194967051
 20
7.088508199334967
 30
0.0
 11
9.795039194967046
 21
7.088508199334967
 31
0.0
1001
ACAD
1000
TCW40_DEV_WIDTH
1002
{
1040
-3.0
1002
}
  0
LINE
  5
7520
330
1F
100
AcDbEntity
  8
0
100
AcDbLine
 10
9.558978194967053
 20
7.226210449334963
 30
0.0
 11
9.598321694967054
 21
7.088508199334967
 31
0.0
1001
ACAD
1000
TCW40_DEV_WIDTH
1002
{
1040
-3.0
1002
}
  0
LINE
  5
7521
330
1F
100
AcDbEntity
  8
0
100
AcDbLine
 10
9.677008694967057
 20
7.088508199334967
 30
0.0
 11
9.716352194967058
 21
7.226210449334963
 31
0.0
1001
ACAD
1000
TCW40_DEV_WIDTH
1002
{
1040
-3.0
1002
}
  0
LINE
  5
7522
330
1F
100
AcDbEntity
  8
0
100
AcDbLine
 10
9.716352194967058
 20
7.226210449334963
 30
0.0
 11
9.716352194967058
 21
7.285225699334965
 31
0.0
1001
ACAD
1000
TCW40_DEV_WIDTH
1002
{
1040
-3.0
1002
}
  0
LINE
  5
7523
330
1F
100
AcDbEntity
  8
0
100
AcDbLine
 10
9.558978194967053
 20
7.226210449334963
 30
0.0
 11
9.558978194967053
 21
7.285225699334965
 31
0.0
1001
ACAD
1000
TCW40_DEV_WIDTH
1002
{
1040
-3.0
1002
}
  0
CIRCLE
  5
7524
330
1F
100
AcDbEntity
  8
0
100
AcDbCircle
 10
9.637665194967055
 20
7.186866949334962
 30
0.0
 40
0.0393435
  0
LINE
  5
7525
330
1F
100
AcDbEntity
  8
0
100
AcDbLine
 10
9.480291194967051
 20
7.088508199334967
 30
0.0
 11
9.480291194967051
 21
5.475424699334965
 31
0.0
1001
ACAD
1000
TCW40_DEV_WIDTH
1002
{
1040
-3.0
1002
}
  0
LINE
  5
7526
330
1F
100
AcDbEntity
  8
0
100
AcDbLine
 10
9.795039194967046
 20
7.088508199334967
 30
0.0
 11
9.795039194967046
 21
5.475424699334965
 31
0.0
1001
ACAD
1000
TCW40_DEV_WIDTH
1002
{
1040
-3.0
1002
}
  0
LINE
  5
7527
330
1F
100
AcDbEntity
  8
0
100
AcDbLine
 10
9.44094769496705
 20
5.278707199334959
 30
0.0
 11
9.834382694967047
 21
5.278707199334959
 31
0.0
1001
ACAD
1000
TCW40_DEV_WIDTH
1002
{
1040
-3.0
1002
}
  0
LINE
  5
7528
330
1F
100
AcDbEntity
  8
0
100
AcDbLine
 10
9.44094769496705
 20
5.337722449334961
 30
0.0
 11
9.558978194967053
 21
5.337722449334961
 31
0.0
1001
ACAD
1000
TCW40_DEV_WIDTH
1002
{
1040
-3.0
1002
}
  0
LINE
  5
7529
330
1F
100
AcDbEntity
  8
0
100
AcDbLine
 10
9.716352194967058
 20
5.337722449334961
 30
0.0
 11
9.834382694967047
 21
5.337722449334961
 31
0.0
1001
ACAD
1000
TCW40_DEV_WIDTH
1002
{
1040
-3.0
1002
}
  0
LINE
  5
752A
330
1F
100
AcDbEntity
  8
0
100
AcDbLine
 10
9.480291194967051
 20
5.475424699334965
 30
0.0
 11
9.795039194967046
 21
5.475424699334965
 31
0.0
1001
ACAD
1000
TCW40_DEV_WIDTH
1002
{
1040
-3.0
1002
}
  0
LINE
  5
752B
330
1F
100
AcDbEntity
  8
0
100
AcDbLine
 10
9.558978194967053
 20
5.337722449334961
 30
0.0
 11
9.598321694967054
 21
5.475424699334965
 31
0.0
1001
ACAD
1000
TCW40_DEV_WIDTH
1002
{
1040
-3.0
1002
}
  0
LINE
  5
752C
330
1F
100
AcDbEntity
  8
0
100
AcDbLine
 10
9.677008694967057
 20
5.475424699334965
 30
0.0
 11
9.716352194967058
 21
5.337722449334961
 31
0.0
1001
ACAD
1000
TCW40_DEV_WIDTH
1002
{
1040
-3.0
1002
}
  0
LINE
  5
752D
330
1F
100
AcDbEntity
  8
0
100
AcDbLine
 10
9.716352194967058
 20
5.337722449334961
 30
0.0
 11
9.716352194967058
 21
5.278707199334959
 31
0.0
1001
ACAD
1000
TCW40_DEV_WIDTH
1002
{
1040
-3.0
1002
}
  0
LINE
  5
752E
330
1F
100
AcDbEntity
  8
0
100
AcDbLine
 10
9.558978194967053
 20
5.337722449334961
 30
0.0
 11
9.558978194967053
 21
5.278707199334959
 31
0.0
1001
ACAD
1000
TCW40_DEV_WIDTH
1002
{
1040
-3.0
1002
}
  0
CIRCLE
  5
752F
330
1F
100
AcDbEntity
  8
0
100
AcDbCircle
 10
9.637665194967055
 20
5.377065949334962
 30
0.0
 40
0.0393435
  0
ARC
  5
7530
330
1F
100
AcDbEntity
  8
0
100
AcDbCircle
 10
10.43437106996705
 20
6.302453630440481
 30
0.0
 40
0.049179375
100
AcDbArc
 50
0.0
 51
180.0
1001
ACAD
1000
TCW40_DEV_WIDTH
1002
{
1040
-3.0
1002
}
  0
ARC
  5
7531
330
1F
100
AcDbEntity
  8
0
100
AcDbCircle
 10
10.43437106996705
 20
6.143448768229447
 30
0.0
 40
0.049179375
100
AcDbArc
 50
180.0
 51
0.0
1001
ACAD
1000
TCW40_DEV_WIDTH
1002
{
1040
-3.0
1002
}
  0
CIRCLE
  5
7532
330
1F
100
AcDbEntity
  8
0
100
AcDbCircle
 10
9.95241319496705
 20
7.403256199334961
 30
0.0
 40
0.1180305
  0
CIRCLE
  5
7533
330
1F
100
AcDbEntity
  8
0
100
AcDbCircle
 10
9.95241319496705
 20
7.403256199334961
 30
0.0
 40
0.0501157678071689
  0
CIRCLE
  5
7534
330
1F
100
AcDbEntity
  8
0
100
AcDbCircle
 10
9.284065488717052
 20
10.14042637348785
 30
0.0
 40
0.08606390625
  0
LINE
  5
7535
330
1F
100
AcDbEntity
  8
0
100
AcDbLine
 10
9.245705400171319
 20
10.22041660297377
 30
0.0
 11
9.355555086603716
 21
10.08789856561003
 31
0.0
1001
ACAD
1000
TCW40_DEV_WIDTH
1002
{
1040
-3.0
1002
}
  0
LINE
  5
7536
330
1F
100
AcDbEntity
  8
0
100
AcDbLine
 10
9.212575890830388
 20
10.19295418136567
 30
0.0
 11
9.322425577262785
 21
10.06043614400193
 31
0.0
1001
ACAD
1000
TCW40_DEV_WIDTH
1002
{
1040
-3.0
1002
}
  0
CIRCLE
  5
7537
330
1F
100
AcDbEntity
  8
0
100
AcDbCircle
 10
9.477709277779558
 20
10.14042637348785
 30
0.0
 40
0.08606390625
  0
LINE
  5
7538
330
1F
100
AcDbEntity
  8
0
100
AcDbLine
 10
9.43934918923381
 20
10.22041660297377
 30
0.0
 11
9.549198875666222
 21
10.08789856561003
 31
0.0
1001
ACAD
1000
TCW40_DEV_WIDTH
1002
{
1040
-3.0
1002
}
  0
LINE
  5
7539
330
1F
100
AcDbEntity
  8
0
100
AcDbLine
 10
9.406219679892876
 20
10.19295418136567
 30
0.0
 11
9.516069366325291
 21
10.06043614400193
 31
0.0
1001
ACAD
1000
TCW40_DEV_WIDTH
1002
{
1040
-3.0
1002
}
  0
CIRCLE
  5
753A
330
1F
100
AcDbEntity
  8
0
100
AcDbCircle
 10
9.671353066842046
 20
10.14042637348785
 30
0.0
 40
0.08606390625
  0
LINE
  5
753B
330
1F
100
AcDbEntity
  8
0
100
AcDbLine
 10
9.632992978296316
 20
10.22041660297377
 30
0.0
 11
9.742842664728728
 21
10.08789856561003
 31
0.0
1001
ACAD
1000
TCW40_DEV_WIDTH
1002
{
1040
-3.0
1002
}
  0
LINE
  5
753C
330
1F
100
AcDbEntity
  8
0
100
AcDbLine
 10
9.599863468955382
 20
10.19295418136567
 30
0.0
 11
9.709713155387797
 21
10.06043614400193
 31
0.0
1001
ACAD
1000
TCW40_DEV_WIDTH
1002
{
1040
-3.0
1002
}
  0
CIRCLE
  5
753D
330
1F
100
AcDbEntity
  8
0
100
AcDbCircle
 10
9.864996855904552
 20
10.14042637348785
 30
0.0
 40
0.08606390625
  0
LINE
  5
753E
330
1F
100
AcDbEntity
  8
0
100
AcDbLine
 10
9.826636767358822
 20
10.22041660297377
 30
0.0
 11
9.936486453791216
 21
10.08789856561003
 31
0.0
1001
ACAD
1000
TCW40_DEV_WIDTH
1002
{
1040
-3.0
1002
}
  0
LINE
  5
753F
330
1F
100
AcDbEntity
  8
0
100
AcDbLine
 10
9.793507258017887
 20
10.19295418136567
 30
0.0
 11
9.903356944450285
 21
10.06043614400193
 31
0.0
1001
ACAD
1000
TCW40_DEV_WIDTH
1002
{
1040
-3.0
1002
}
  0
CIRCLE
  5
7540
330
1F
100
AcDbEntity
  8
0
100
AcDbCircle
 10
10.05864064496706
 20
10.14042637348785
 30
0.0
 40
0.08606390625
  0
LINE
  5
7541
330
1F
100
AcDbEntity
  8
0
100
AcDbLine
 10
10.02028055642131
 20
10.22041660297377
 30
0.0
 11
10.13013024285372
 21
10.08789856561003
 31
0.0
1001
ACAD
1000
TCW40_DEV_WIDTH
1002
{
1040
-3.0
1002
}
  0
LINE
  5
7542
330
1F
100
AcDbEntity
  8
0
100
AcDbLine
 10
9.987151047080379
 20
10.19295418136567
 30
0.0
 11
10.09700073351279
 21
10.06043614400193
 31
0.0
1001
ACAD
1000
TCW40_DEV_WIDTH
1002
{
1040
-3.0
1002
}
  0
CIRCLE
  5
7543
330
1F
100
AcDbEntity
  8
0
100
AcDbCircle
 10
10.25228443402955
 20
10.14042637348785
 30
0.0
 40
0.08606390625
  0
LINE
  5
7544
330
1F
100
AcDbEntity
  8
0
100
AcDbLine
 10
10.21392434548382
 20
10.22041660297377
 30
0.0
 11
10.32377403191623
 21
10.08789856561003
 31
0.0
1001
ACAD
1000
TCW40_DEV_WIDTH
1002
{
1040
-3.0
1002
}
  0
LINE
  5
7545
330
1F
100
AcDbEntity
  8
0
100
AcDbLine
 10
10.18079483614288
 20
10.19295418136567
 30
0.0
 11
10.2906445225753
 21
10.06043614400193
 31
0.0
1001
ACAD
1000
TCW40_DEV_WIDTH
1002
{
1040
-3.0
1002
}
  0
CIRCLE
  5
7546
330
1F
100
AcDbEntity
  8
0
100
AcDbCircle
 10
10.44592822309206
 20
10.14042637348785
 30
0.0
 40
0.08606390625
  0
LINE
  5
7547
330
1F
100
AcDbEntity
  8
0
100
AcDbLine
 10
10.40756813454632
 20
10.22041660297377
 30
0.0
 11
10.51741782097872
 21
10.08789856561003
 31
0.0
1001
ACAD
1000
TCW40_DEV_WIDTH
1002
{
1040
-3.0
1002
}
  0
LINE
  5
7548
330
1F
100
AcDbEntity
  8
0
100
AcDbLine
 10
10.37443862520539
 20
10.19295418136567
 30
0.0
 11
10.48428831163779
 21
10.06043614400193
 31
0.0
1001
ACAD
1000
TCW40_DEV_WIDTH
1002
{
1040
-3.0
1002
}
  0
CIRCLE
  5
7549
330
1F
100
AcDbEntity
  8
0
100
AcDbCircle
 10
10.63957201215454
 20
10.14042637348785
 30
0.0
 40
0.08606390625
  0
LINE
  5
754A
330
1F
100
AcDbEntity
  8
0
100
AcDbLine
 10
10.60121192360881
 20
10.22041660297377
 30
0.0
 11
10.71106161004122
 21
10.08789856561003
 31
0.0
1001
ACAD
1000
TCW40_DEV_WIDTH
1002
{
1040
-3.0
1002
}
  0
LINE
  5
754B
330
1F
100
AcDbEntity
  8
0
100
AcDbLine
 10
10.56808241426788
 20
10.19295418136567
 30
0.0
 11
10.67793210070029
 21
10.06043614400193
 31
0.0
1001
ACAD
1000
TCW40_DEV_WIDTH
1002
{
1040
-3.0
1002
}
  0
CIRCLE
  5
754C
330
1F
100
AcDbEntity
  8
0
100
AcDbCircle
 10
9.391645371529554
 20
9.667074889112852
 30
0.0
 40
0.08606390625
  0
LINE
  5
754D
330
1F
100
AcDbEntity
  8
0
100
AcDbLine
 10
9.353285282983824
 20
9.747065118598776
 30
0.0
 11
9.463134969416218
 21
9.614547081235034
 31
0.0
1001
ACAD
1000
TCW40_DEV_WIDTH
1002
{
1040
-3.0
1002
}
  0
LINE
  5
754E
330
1F
100
AcDbEntity
  8
0
100
AcDbLine
 10
9.320155773642875
 20
9.719602696990673
 30
0.0
 11
9.430005460075287
 21
9.587084659626931
 31
0.0
1001
ACAD
1000
TCW40_DEV_WIDTH
1002
{
1040
-3.0
1002
}
  0
CIRCLE
  5
754F
330
1F
100
AcDbEntity
  8
0
100
AcDbCircle
 10
9.585289160592045
 20
9.667074889112852
 30
0.0
 40
0.08606390625
  0
LINE
  5
7550
330
1F
100
AcDbEntity
  8
0
100
AcDbLine
 10
9.546929072046312
 20
9.747065118598776
 30
0.0
 11
9.656778758478724
 21
9.614547081235034
 31
0.0
1001
ACAD
1000
TCW40_DEV_WIDTH
1002
{
1040
-3.0
1002
}
  0
LINE
  5
7551
330
1F
100
AcDbEntity
  8
0
100
AcDbLine
 10
9.513799562705381
 20
9.719602696990673
 30
0.0
 11
9.623649249137793
 21
9.587084659626931
 31
0.0
1001
ACAD
1000
TCW40_DEV_WIDTH
1002
{
1040
-3.0
1002
}
  0
CIRCLE
  5
7552
330
1F
100
AcDbEntity
  8
0
100
AcDbCircle
 10
9.778932949654551
 20
9.667074889112852
 30
0.0
 40
0.08606390625
  0
LINE
  5
7553
330
1F
100
AcDbEntity
  8
0
100
AcDbLine
 10
9.740572861108818
 20
9.747065118598776
 30
0.0
 11
9.85042254754123
 21
9.614547081235034
 31
0.0
1001
ACAD
1000
TCW40_DEV_WIDTH
1002
{
1040
-3.0
1002
}
  0
LINE
  5
7554
330
1F
100
AcDbEntity
  8
0
100
AcDbLine
 10
9.707443351767887
 20
9.719602696990673
 30
0.0
 11
9.817293038200284
 21
9.587084659626931
 31
0.0
1001
ACAD
1000
TCW40_DEV_WIDTH
1002
{
1040
-3.0
1002
}
  0
CIRCLE
  5
7555
330
1F
100
AcDbEntity
  8
0
100
AcDbCircle
 10
9.972576738717057
 20
9.667074889112852
 30
0.0
 40
0.08606390625
  0
LINE
  5
7556
330
1F
100
AcDbEntity
  8
0
100
AcDbLine
 10
9.934216650171324
 20
9.747065118598776
 30
0.0
 11
10.04406633660372
 21
9.614547081235034
 31
0.0
1001
ACAD
1000
TCW40_DEV_WIDTH
1002
{
1040
-3.0
1002
}
  0
LINE
  5
7557
330
1F
100
AcDbEntity
  8
0
100
AcDbLine
 10
9.901087140830375
 20
9.719602696990673
 30
0.0
 11
10.01093682726279
 21
9.587084659626931
 31
0.0
1001
ACAD
1000
TCW40_DEV_WIDTH
1002
{
1040
-3.0
1002
}
  0
CIRCLE
  5
7558
330
1F
100
AcDbEntity
  8
0
100
AcDbCircle
 10
10.16622052777955
 20
9.667074889112852
 30
0.0
 40
0.08606390625
  0
LINE
  5
7559
330
1F
100
AcDbEntity
  8
0
100
AcDbLine
 10
10.12786043923381
 20
9.747065118598776
 30
0.0
 11
10.23771012566623
 21
9.614547081235034
 31
0.0
1001
ACAD
1000
TCW40_DEV_WIDTH
1002
{
1040
-3.0
1002
}
  0
LINE
  5
755A
330
1F
100
AcDbEntity
  8
0
100
AcDbLine
 10
10.09473092989288
 20
9.719602696990673
 30
0.0
 11
10.20458061632529
 21
9.587084659626931
 31
0.0
1001
ACAD
1000
TCW40_DEV_WIDTH
1002
{
1040
-3.0
1002
}
  0
CIRCLE
  5
755B
330
1F
100
AcDbEntity
  8
0
100
AcDbCircle
 10
10.35986431684205
 20
9.667074889112852
 30
0.0
 40
0.08606390625
  0
LINE
  5
755C
330
1F
100
AcDbEntity
  8
0
100
AcDbLine
 10
10.32150422829632
 20
9.747065118598776
 30
0.0
 11
10.43135391472873
 21
9.614547081235034
 31
0.0
1001
ACAD
1000
TCW40_DEV_WIDTH
1002
{
1040
-3.0
1002
}
  0
LINE
  5
755D
330
1F
100
AcDbEntity
  8
0
100
AcDbLine
 10
10.28837471895539
 20
9.719602696990673
 30
0.0
 11
10.39822440538778
 21
9.587084659626931
 31
0.0
1001
ACAD
1000
TCW40_DEV_WIDTH
1002
{
1040
-3.0
1002
}
  0
CIRCLE
  5
755E
330
1F
100
AcDbEntity
  8
0
100
AcDbCircle
 10
10.55350810590456
 20
9.667074889112852
 30
0.0
 40
0.08606390625
  0
LINE
  5
755F
330
1F
100
AcDbEntity
  8
0
100
AcDbLine
 10
10.51514801735882
 20
9.747065118598776
 30
0.0
 11
10.62499770379122
 21
9.614547081235034
 31
0.0
1001
ACAD
1000
TCW40_DEV_WIDTH
1002
{
1040
-3.0
1002
}
  0
LINE
  5
7560
330
1F
100
AcDbEntity
  8
0
100
AcDbLine
 10
10.48201850801787
 20
9.719602696990673
 30
0.0
 11
10.59186819445029
 21
9.587084659626931
 31
0.0
1001
ACAD
1000
TCW40_DEV_WIDTH
1002
{
1040
-3.0
1002
}
  0
CIRCLE
  5
7561
330
1F
100
AcDbEntity
  8
0
100
AcDbCircle
 10
10.74715189496704
 20
9.667074889112852
 30
0.0
 40
0.08606390625
  0
LINE
  5
7562
330
1F
100
AcDbEntity
  8
0
100
AcDbLine
 10
10.70879180642132
 20
9.747065118598776
 30
0.0
 11
10.81864149285373
 21
9.614547081235034
 31
0.0
1001
ACAD
1000
TCW40_DEV_WIDTH
1002
{
1040
-3.0
1002
}
  0
LINE
  5
7563
330
1F
100
AcDbEntity
  8
0
100
AcDbLine
 10
10.67566229708038
 20
9.719602696990673
 30
0.0
 11
10.78551198351279
 21
9.587084659626931
 31
0.0
1001
ACAD
1000
TCW40_DEV_WIDTH
1002
{
1040
-3.0
1002
}
  0
LINE
  5
7564
330
1F
100
AcDbEntity
  8
0
100
AcDbLine
 10
9.17648560590455
 20
9.920010714959964
 30
0.0
 11
12.42970126215455
 21
9.920010714959964
 31
0.0
1001
ACAD
1000
TCW40_DEV_WIDTH
1002
{
1040
-3.0
1002
}
  0
LINE
  5
7565
330
1F
100
AcDbEntity
  8
0
100
AcDbLine
 10
9.17648560590455
 20
10.00607462120996
 30
0.0
 11
12.32212137934205
 21
10.00607462120996
 31
0.0
1001
ACAD
1000
TCW40_DEV_WIDTH
1002
{
1040
-3.0
1002
}
  0
LINE
  5
7566
330
1F
100
AcDbEntity
  8
0
100
AcDbLine
 10
9.17648560590455
 20
10.26426633995996
 30
0.0
 11
12.32212137934205
 21
10.26426633995996
 31
0.0
1001
ACAD
1000
TCW40_DEV_WIDTH
1002
{
1040
-3.0
1002
}
  0
LINE
  5
7567
330
1F
100
AcDbEntity
  8
0
100
AcDbLine
 10
9.284065488717052
 20
9.446659230584963
 30
0.0
 11
12.42970126215455
 21
9.446659230584963
 31
0.0
1001
ACAD
1000
TCW40_DEV_WIDTH
1002
{
1040
-3.0
1002
}
  0
LINE
  5
7568
330
1F
100
AcDbEntity
  8
0
100
AcDbLine
 10
9.284065488717052
 20
9.532723136834965
 30
0.0
 11
12.42970126215455
 21
9.532723136834965
 31
0.0
1001
ACAD
1000
TCW40_DEV_WIDTH
1002
{
1040
-3.0
1002
}
  0
LINE
  5
7569
330
1F
100
AcDbEntity
  8
0
100
AcDbLine
 10
9.284065488717052
 20
9.898494738397463
 30
0.0
 11
12.42970126215455
 21
9.898494738397463
 31
0.0
1001
ACAD
1000
TCW40_DEV_WIDTH
1002
{
1040
-3.0
1002
}
  0
LINE
  5
756A
330
1F
100
AcDbEntity
  8
0
100
AcDbLine
 10
9.284065488717052
 20
9.790914855584965
 30
0.0
 11
12.42970126215455
 21
9.790914855584965
 31
0.0
1001
ACAD
1000
TCW40_DEV_WIDTH
1002
{
1040
-3.0
1002
}
  0
LINE
  5
756B
330
1F
100
AcDbEntity
  8
0
100
AcDbLine
 10
9.20276935446879
 20
9.974656349759476
 30
0.0
 11
9.34821124481243
 21
9.974656349759476
 31
0.0
1001
ACAD
1000
TCW40_DEV_WIDTH
1002
{
1040
-3.0
1002
}
  0
LINE
  5
756C
330
1F
100
AcDbEntity
  8
0
100
AcDbLine
 10
9.34821124481243
 20
9.974656349759476
 30
0.0
 11
9.34821124481243
 21
9.95042673144486
 31
0.0
1001
ACAD
1000
TCW40_DEV_WIDTH
1002
{
1040
-3.0
1002
}
  0
LINE
  5
756D
330
1F
100
AcDbEntity
  8
0
100
AcDbLine
 10
9.34821124481243
 20
9.95042673144486
 30
0.0
 11
9.20276935446879
 21
9.95042673144486
 31
0.0
1001
ACAD
1000
TCW40_DEV_WIDTH
1002
{
1040
-3.0
1002
}
  0
LINE
  5
756E
330
1F
100
AcDbEntity
  8
0
100
AcDbLine
 10
9.20276935446879
 20
9.95042673144486
 30
0.0
 11
9.20276935446879
 21
9.974656349759476
 31
0.0
1001
ACAD
1000
TCW40_DEV_WIDTH
1002
{
1040
-3.0
1002
}
  0
LINE
  5
756F
330
1F
100
AcDbEntity
  8
0
100
AcDbLine
 10
9.396413143531296
 20
9.974656349759476
 30
0.0
 11
9.541855033874918
 21
9.974656349759476
 31
0.0
1001
ACAD
1000
TCW40_DEV_WIDTH
1002
{
1040
-3.0
1002
}
  0
LINE
  5
7570
330
1F
100
AcDbEntity
  8
0
100
AcDbLine
 10
9.541855033874918
 20
9.974656349759476
 30
0.0
 11
9.541855033874918
 21
9.95042673144486
 31
0.0
1001
ACAD
1000
TCW40_DEV_WIDTH
1002
{
1040
-3.0
1002
}
  0
LINE
  5
7571
330
1F
100
AcDbEntity
  8
0
100
AcDbLine
 10
9.541855033874918
 20
9.95042673144486
 30
0.0
 11
9.396413143531296
 21
9.95042673144486
 31
0.0
1001
ACAD
1000
TCW40_DEV_WIDTH
1002
{
1040
-3.0
1002
}
  0
LINE
  5
7572
330
1F
100
AcDbEntity
  8
0
100
AcDbLine
 10
9.396413143531296
 20
9.95042673144486
 30
0.0
 11
9.396413143531296
 21
9.974656349759476
 31
0.0
1001
ACAD
1000
TCW40_DEV_WIDTH
1002
{
1040
-3.0
1002
}
  0
LINE
  5
7573
330
1F
100
AcDbEntity
  8
0
100
AcDbLine
 10
9.590056932593798
 20
9.974656349759476
 30
0.0
 11
9.735498822937424
 21
9.974656349759476
 31
0.0
1001
ACAD
1000
TCW40_DEV_WIDTH
1002
{
1040
-3.0
1002
}
  0
LINE
  5
7574
330
1F
100
AcDbEntity
  8
0
100
AcDbLine
 10
9.735498822937424
 20
9.974656349759476
 30
0.0
 11
9.735498822937424
 21
9.95042673144486
 31
0.0
1001
ACAD
1000
TCW40_DEV_WIDTH
1002
{
1040
-3.0
1002
}
  0
LINE
  5
7575
330
1F
100
AcDbEntity
  8
0
100
AcDbLine
 10
9.735498822937424
 20
9.95042673144486
 30
0.0
 11
9.590056932593798
 21
9.95042673144486
 31
0.0
1001
ACAD
1000
TCW40_DEV_WIDTH
1002
{
1040
-3.0
1002
}
  0
LINE
  5
7576
330
1F
100
AcDbEntity
  8
0
100
AcDbLine
 10
9.590056932593798
 20
9.95042673144486
 30
0.0
 11
9.590056932593798
 21
9.974656349759476
 31
0.0
1001
ACAD
1000
TCW40_DEV_WIDTH
1002
{
1040
-3.0
1002
}
  0
LINE
  5
7577
330
1F
100
AcDbEntity
  8
0
100
AcDbLine
 10
9.783700721656289
 20
9.974656349759476
 30
0.0
 11
9.92914261199993
 21
9.974656349759476
 31
0.0
1001
ACAD
1000
TCW40_DEV_WIDTH
1002
{
1040
-3.0
1002
}
  0
LINE
  5
7578
330
1F
100
AcDbEntity
  8
0
100
AcDbLine
 10
9.92914261199993
 20
9.974656349759476
 30
0.0
 11
9.92914261199993
 21
9.95042673144486
 31
0.0
1001
ACAD
1000
TCW40_DEV_WIDTH
1002
{
1040
-3.0
1002
}
  0
LINE
  5
7579
330
1F
100
AcDbEntity
  8
0
100
AcDbLine
 10
9.92914261199993
 20
9.95042673144486
 30
0.0
 11
9.783700721656289
 21
9.95042673144486
 31
0.0
1001
ACAD
1000
TCW40_DEV_WIDTH
1002
{
1040
-3.0
1002
}
  0
LINE
  5
757A
330
1F
100
AcDbEntity
  8
0
100
AcDbLine
 10
9.783700721656289
 20
9.95042673144486
 30
0.0
 11
9.783700721656289
 21
9.974656349759476
 31
0.0
1001
ACAD
1000
TCW40_DEV_WIDTH
1002
{
1040
-3.0
1002
}
  0
LINE
  5
757B
330
1F
100
AcDbEntity
  8
0
100
AcDbLine
 10
9.977344510718795
 20
9.974656349759476
 30
0.0
 11
10.12278640106242
 21
9.974656349759476
 31
0.0
1001
ACAD
1000
TCW40_DEV_WIDTH
1002
{
1040
-3.0
1002
}
  0
LINE
  5
757C
330
1F
100
AcDbEntity
  8
0
100
AcDbLine
 10
10.12278640106242
 20
9.974656349759476
 30
0.0
 11
10.12278640106242
 21
9.95042673144486
 31
0.0
1001
ACAD
1000
TCW40_DEV_WIDTH
1002
{
1040
-3.0
1002
}
  0
LINE
  5
757D
330
1F
100
AcDbEntity
  8
0
100
AcDbLine
 10
10.12278640106242
 20
9.95042673144486
 30
0.0
 11
9.977344510718795
 21
9.95042673144486
 31
0.0
1001
ACAD
1000
TCW40_DEV_WIDTH
1002
{
1040
-3.0
1002
}
  0
LINE
  5
757E
330
1F
100
AcDbEntity
  8
0
100
AcDbLine
 10
9.977344510718795
 20
9.95042673144486
 30
0.0
 11
9.977344510718795
 21
9.974656349759476
 31
0.0
1001
ACAD
1000
TCW40_DEV_WIDTH
1002
{
1040
-3.0
1002
}
  0
LINE
  5
757F
330
1F
100
AcDbEntity
  8
0
100
AcDbLine
 10
10.1709882997813
 20
9.974656349759476
 30
0.0
 11
10.31643019012492
 21
9.974656349759476
 31
0.0
1001
ACAD
1000
TCW40_DEV_WIDTH
1002
{
1040
-3.0
1002
}
  0
LINE
  5
7580
330
1F
100
AcDbEntity
  8
0
100
AcDbLine
 10
10.31643019012492
 20
9.974656349759476
 30
0.0
 11
10.31643019012492
 21
9.95042673144486
 31
0.0
1001
ACAD
1000
TCW40_DEV_WIDTH
1002
{
1040
-3.0
1002
}
  0
LINE
  5
7581
330
1F
100
AcDbEntity
  8
0
100
AcDbLine
 10
10.31643019012492
 20
9.95042673144486
 30
0.0
 11
10.1709882997813
 21
9.95042673144486
 31
0.0
1001
ACAD
1000
TCW40_DEV_WIDTH
1002
{
1040
-3.0
1002
}
  0
LINE
  5
7582
330
1F
100
AcDbEntity
  8
0
100
AcDbLine
 10
10.1709882997813
 20
9.95042673144486
 30
0.0
 11
10.1709882997813
 21
9.974656349759476
 31
0.0
1001
ACAD
1000
TCW40_DEV_WIDTH
1002
{
1040
-3.0
1002
}
  0
LINE
  5
7583
330
1F
100
AcDbEntity
  8
0
100
AcDbLine
 10
10.36463208884379
 20
9.974656349759476
 30
0.0
 11
10.51007397918743
 21
9.974656349759476
 31
0.0
1001
ACAD
1000
TCW40_DEV_WIDTH
1002
{
1040
-3.0
1002
}
  0
LINE
  5
7584
330
1F
100
AcDbEntity
  8
0
100
AcDbLine
 10
10.51007397918743
 20
9.974656349759476
 30
0.0
 11
10.51007397918743
 21
9.95042673144486
 31
0.0
1001
ACAD
1000
TCW40_DEV_WIDTH
1002
{
1040
-3.0
1002
}
  0
LINE
  5
7585
330
1F
100
AcDbEntity
  8
0
100
AcDbLine
 10
10.51007397918743
 20
9.95042673144486
 30
0.0
 11
10.36463208884379
 21
9.95042673144486
 31
0.0
1001
ACAD
1000
TCW40_DEV_WIDTH
1002
{
1040
-3.0
1002
}
  0
LINE
  5
7586
330
1F
100
AcDbEntity
  8
0
100
AcDbLine
 10
10.36463208884379
 20
9.95042673144486
 30
0.0
 11
10.36463208884379
 21
9.974656349759476
 31
0.0
1001
ACAD
1000
TCW40_DEV_WIDTH
1002
{
1040
-3.0
1002
}
  0
LINE
  5
7587
330
1F
100
AcDbEntity
  8
0
100
AcDbLine
 10
10.5582758779063
 20
9.974656349759476
 30
0.0
 11
10.70371776824992
 21
9.974656349759476
 31
0.0
1001
ACAD
1000
TCW40_DEV_WIDTH
1002
{
1040
-3.0
1002
}
  0
LINE
  5
7588
330
1F
100
AcDbEntity
  8
0
100
AcDbLine
 10
10.70371776824992
 20
9.974656349759476
 30
0.0
 11
10.70371776824992
 21
9.95042673144486
 31
0.0
1001
ACAD
1000
TCW40_DEV_WIDTH
1002
{
1040
-3.0
1002
}
  0
LINE
  5
7589
330
1F
100
AcDbEntity
  8
0
100
AcDbLine
 10
10.70371776824992
 20
9.95042673144486
 30
0.0
 11
10.5582758779063
 21
9.95042673144486
 31
0.0
1001
ACAD
1000
TCW40_DEV_WIDTH
1002
{
1040
-3.0
1002
}
  0
LINE
  5
758A
330
1F
100
AcDbEntity
  8
0
100
AcDbLine
 10
10.5582758779063
 20
9.95042673144486
 30
0.0
 11
10.5582758779063
 21
9.974656349759476
 31
0.0
1001
ACAD
1000
TCW40_DEV_WIDTH
1002
{
1040
-3.0
1002
}
  0
LINE
  5
758B
330
1F
100
AcDbEntity
  8
0
100
AcDbLine
 10
9.284065488717052
 20
9.920010714959964
 30
0.0
 11
9.284065488717052
 21
9.446659230584963
 31
0.0
1001
ACAD
1000
TCW40_DEV_WIDTH
1002
{
1040
-3.0
1002
}
  0
LINE
  5
758C
330
1F
100
AcDbEntity
  8
0
100
AcDbLine
 10
10.74715189496704
 20
10.39336219933496
 30
0.0
 11
10.74715189496704
 21
9.920010714959964
 31
0.0
1001
ACAD
1000
TCW40_DEV_WIDTH
1002
{
1040
-3.0
1002
}
  0
LINE
  5
758D
330
1F
100
AcDbEntity
  8
0
100
AcDbLine
 10
9.17648560590455
 20
10.39336219933496
 30
0.0
 11
9.17648560590455
 21
9.920010714959964
 31
0.0
1001
ACAD
1000
TCW40_DEV_WIDTH
1002
{
1040
-3.0
1002
}
  0
LINE
  5
758E
330
1F
100
AcDbEntity
  8
0
100
AcDbLine
 10
12.42970126215455
 20
9.920010714959964
 30
0.0
 11
12.42970126215455
 21
9.446659230584963
 31
0.0
1001
ACAD
1000
TCW40_DEV_WIDTH
1002
{
1040
-3.0
1002
}
  0
ARC
  5
758F
330
1F
100
AcDbEntity
  8
0
100
AcDbCircle
 10
11.16771819496704
 20
8.209797949334962
 30
0.0
 40
0.0393435000000011
100
AcDbArc
 50
180.0
 51
270.0
  0
LINE
  5
7590
330
1F
100
AcDbEntity
  8
0
100
AcDbLine
 10
11.16771819496704
 20
8.170454449334961
 30
0.0
 11
12.11204405375361
 21
8.170454449334961
 31
0.0
  0
ARC
  5
7591
330
1F
100
AcDbEntity
  8
0
100
AcDbCircle
 10
12.11204405375361
 20
8.209797949334962
 30
0.0
 40
0.0393435000000011
100
AcDbArc
 50
270.0
 51
0.0
  0
LINE
  5
7592
330
1F
100
AcDbEntity
  8
0
100
AcDbLine
 10
12.15138755375361
 20
8.209797949334962
 30
0.0
 11
12.15138755375361
 21
9.016339699334963
 31
0.0
  0
ARC
  5
7593
330
1F
100
AcDbEntity
  8
0
100
AcDbCircle
 10
12.11204405375361
 20
9.016339699334963
 30
0.0
 40
0.0393435000000011
100
AcDbArc
 50
0.0
 51
90.0
  0
LINE
  5
7594
330
1F
100
AcDbEntity
  8
0
100
AcDbLine
 10
12.11204405375361
 20
9.055683199334964
 30
0.0
 11
11.16771819496704
 21
9.055683199334964
 31
0.0
  0
ARC
  5
7595
330
1F
100
AcDbEntity
  8
0
100
AcDbCircle
 10
11.16771819496704
 20
9.016339699334963
 30
0.0
 40
0.0393435000000011
100
AcDbArc
 50
90.0
 51
180.0
  0
LINE
  5
7596
330
1F
100
AcDbEntity
  8
0
100
AcDbLine
 10
11.12837469496704
 20
9.016339699334963
 30
0.0
 11
11.12837469496704
 21
8.209797949334962
 31
0.0
  0
DIMENSION
  5
7597
330
1F
100
AcDbEntity
  8
DIM
100
AcDbDimension
  2
*D2
 10
13.14133439527815
 20
5.239363699334965
 30
0.0
 11
13.14133439527815
 21
7.816362949334966
 31
0.0
 70
    32
 71
     5
 42
5.153998499999997
  3
Standard
100
AcDbAlignedDimension
 13
12.46046019496705
 23
10.39336219933496
 33
0.0
 14
12.46046019496705
 24
5.239363699334965
 34
0.0
 50
90.0
100
AcDbRotatedDimension
1001
ACAD
1000
DSTYLE
1002
{
1070
   170
1070
     1
1002
}
  0
ARC
  5
7598
330
1F
100
AcDbEntity
  8
0
100
AcDbCircle
 10
9.239679193015833
 20
7.658702667076898
 30
0.0
 40
0.0715937927171522
100
AcDbArc
 50
206.2708425428106
 51
294.174500661858
  0
ARC
  5
7599
330
1F
100
AcDbEntity
  8
0
100
AcDbCircle
 10
9.995313592853428
 20
6.397580966054164
 30
0.0
 40
1.399102369151791
100
AcDbArc
 50
58.65276668103341
 51
121.2738881046907
  0
ARC
  5
759A
330
1F
100
AcDbEntity
  8
0
100
AcDbCircle
 10
10.75287098969019
 20
7.659183595316875
 30
0.0
 40
0.0730428656163921
100
AcDbArc
 50
245.9978607478401
 51
333.0303138406356
  0
LINE
  5
759B
330
1F
100
AcDbEntity
  8
0
100
AcDbLine
 10
10.81797019496698
 20
7.626057266063767
 30
0.0
 11
10.81797019496704
 21
9.213057199334954
 31
0.0
  0
ARC
  5
759C
330
1F
100
AcDbEntity
  8
0
100
AcDbCircle
 10
10.77862669496703
 20
9.21305719933496
 30
0.0
 40
0.0393435000000047
100
AcDbArc
 50
359.9999999999921
 51
89.99999999999491
  0
LINE
  5
759D
330
1F
100
AcDbEntity
  8
0
100
AcDbLine
 10
10.77862669496704
 20
9.252400699334963
 30
0.0
 11
9.214823694967043
 21
9.252400699334963
 31
0.0
  0
ARC
  5
759E
330
1F
100
AcDbEntity
  8
0
100
AcDbCircle
 10
9.214823694967041
 20
9.213057199334963
 30
0.0
 40
0.0393434999999993
100
AcDbArc
 50
89.99999999999735
 51
180.0000000000026
  0
LINE
  5
759F
330
1F
100
AcDbEntity
  8
0
100
AcDbLine
 10
9.32726069496703
 20
7.6268867721868
 30
0.0
 11
9.32726069496703
 21
9.252400699334963
 31
0.0
1001
ACAD
1000
TCW40_DEV_WIDTH
1002
{
1040
-3.0
1002
}
  0
LINE
  5
75A0
330
1F
100
AcDbEntity
  8
0
100
AcDbLine
 10
10.66502155375361
 20
7.625808870698161
 30
0.0
 11
10.66502155375361
 21
9.252400699334963
 31
0.0
1001
ACAD
1000
TCW40_DEV_WIDTH
1002
{
1040
-3.0
1002
}
  0
LINE
  5
75A1
330
1F
100
AcDbEntity
  8
0
100
AcDbLine
 10
10.66493969496704
 20
8.89830919933496
 30
0.0
 11
10.70428319496704
 21
8.89830919933496
 31
0.0
1001
ACAD
1000
TCW40_DEV_WIDTH
1002
{
1040
-3.0
1002
}
  0
LINE
  5
75A2
330
1F
100
AcDbEntity
  8
0
100
AcDbLine
 10
10.70428319496704
 20
8.89830919933496
 30
0.0
 11
10.70428319496704
 21
8.563889449334965
 31
0.0
1001
ACAD
1000
TCW40_DEV_WIDTH
1002
{
1040
-3.0
1002
}
  0
LINE
  5
75A3
330
1F
100
AcDbEntity
  8
0
100
AcDbLine
 10
10.70428319496704
 20
8.563889449334965
 30
0.0
 11
10.66493969496704
 21
8.563889449334965
 31
0.0
1001
ACAD
1000
TCW40_DEV_WIDTH
1002
{
1040
-3.0
1002
}
  0
LINE
  5
75A4
330
1F
100
AcDbEntity
  8
0
100
AcDbLine
 10
9.32726069496703
 20
8.89830919933496
 30
0.0
 11
9.287917194967043
 21
8.89830919933496
 31
0.0
1001
ACAD
1000
TCW40_DEV_WIDTH
1002
{
1040
-3.0
1002
}
  0
LINE
  5
75A5
330
1F
100
AcDbEntity
  8
0
100
AcDbLine
 10
9.287917194967043
 20
8.89830919933496
 30
0.0
 11
9.287917194967043
 21
8.563889449334965
 31
0.0
1001
ACAD
1000
TCW40_DEV_WIDTH
1002
{
1040
-3.0
1002
}
  0
LINE
  5
75A6
330
1F
100
AcDbEntity
  8
0
100
AcDbLine
 10
9.287917194967043
 20
8.563889449334965
 30
0.0
 11
9.32726069496703
 21
8.563889449334965
 31
0.0
1001
ACAD
1000
TCW40_DEV_WIDTH
1002
{
1040
-3.0
1002
}
  0
ARC
  5
75A7
330
1F
100
AcDbEntity
  8
0
100
AcDbCircle
 10
9.995313592853433
 20
6.633641966054163
 30
0.0
 40
1.399102369151787
100
AcDbArc
 50
61.40144366923868
 51
118.5213884935842
  0
ARC
  5
75A8
330
1F
100
AcDbEntity
  8
0
100
AcDbCircle
 10
9.523978194967035
 20
8.209797949334962
 30
0.0
 40
0.0393435000000011
100
AcDbArc
 50
180.0
 51
270.0
  0
LINE
  5
75A9
330
1F
100
AcDbEntity
  8
0
100
AcDbLine
 10
9.523978194967035
 20
8.170454449334961
 30
0.0
 11
10.4683040537536
 21
8.170454449334961
 31
0.0
  0
ARC
  5
75AA
330
1F
100
AcDbEntity
  8
0
100
AcDbCircle
 10
10.4683040537536
 20
8.209797949334962
 30
0.0
 40
0.0393435000000011
100
AcDbArc
 50
270.0
 51
0.0
  0
LINE
  5
75AB
330
1F
100
AcDbEntity
  8
0
100
AcDbLine
 10
10.5076475537536
 20
8.209797949334962
 30
0.0
 11
10.5076475537536
 21
9.016339699334963
 31
0.0
  0
ARC
  5
75AC
330
1F
100
AcDbEntity
  8
0
100
AcDbCircle
 10
10.4683040537536
 20
9.016339699334963
 30
0.0
 40
0.0393435000000011
100
AcDbArc
 50
0.0
 51
90.0
  0
LINE
  5
75AD
330
1F
100
AcDbEntity
  8
0
100
AcDbLine
 10
10.4683040537536
 20
9.055683199334964
 30
0.0
 11
9.523978194967035
 21
9.055683199334964
 31
0.0
  0
ARC
  5
75AE
330
1F
100
AcDbEntity
  8
0
100
AcDbCircle
 10
9.523978194967035
 20
9.016339699334963
 30
0.0
 40
0.0393435000000011
100
AcDbArc
 50
90.0
 51
180.0
  0
LINE
  5
75AF
330
1F
100
AcDbEntity
  8
0
100
AcDbLine
 10
9.484634694967034
 20
9.016339699334963
 30
0.0
 11
9.484634694967034
 21
8.209797949334962
 31
0.0
  0
DIMENSION
  5
75B0
330
1F
100
AcDbEntity
  8
DIM
100
AcDbDimension
  2
*D3
 10
12.46046019496705
 20
10.83788428176081
 30
0.0
 11
10.81797019496704
 21
10.83788428176081
 31
0.0
 70
   160
 71
     5
 42
3.284980000000002
  3
Standard
100
AcDbAlignedDimension
 13
9.175480194967045
 23
10.39336219933496
 33
0.0
 14
12.46046019496705
 24
10.39336219933496
 34
0.0
100
AcDbRotatedDimension
1001
ACAD
1000
DSTYLE
1002
{
1070
   170
1070
     1
1002
}
  0
LINE
  5
75B1
330
1F
100
AcDbEntity
  8
0
100
AcDbLine
 10
12.19499269496705
 20
6.888586568930573
 30
0.0
 11
12.19499269496706
 21
7.131055829739356
 31
0.0
  0
ARC
  5
75B2
330
1F
100
AcDbEntity
  8
0
100
AcDbCircle
 10
12.19499269496706
 20
7.009821199334965
 30
0.0
 40
0.1212346304043912
100
AcDbArc
 50
90.0
 51
269.9999999999984
  0
LINE
  5
75B3
330
1F
100
AcDbEntity
  8
0
100
AcDbLine
 10
12.32344602859458
 20
7.015825727421084
 30
0.0
 11
12.27923127306655
 21
7.015825727421084
 31
0.0
  0
LINE
  5
75B4
330
1F
100
AcDbEntity
  8
0
100
AcDbLine
 10
12.32344602859458
 20
7.003816671248845
 30
0.0
 11
12.27923127306655
 21
7.003816671248845
 31
0.0
  0
LINE
  5
75B5
330
1F
100
AcDbEntity
  8
0
100
AcDbLine
 10
12.27923127306655
 20
7.003816671248845
 30
0.0
 11
12.27923127306655
 21
7.015825727421084
 31
0.0
  0
LINE
  5
75B6
330
1F
100
AcDbEntity
  8
0
100
AcDbLine
 10
12.32344602859456
 20
6.690548766083121
 30
0.0
 11
12.19499269496705
 21
6.764711332831275
 31
0.0
1001
ACAD
1000
TCW40_DEV_WIDTH
1002
{
1040
-3.0
1002
}
  0
LINE
  5
75B7
330
1F
100
AcDbEntity
  8
0
100
AcDbLine
 10
12.19499269496705
 20
6.764711332831275
 30
0.0
 11
12.06653936133953
 21
6.690548766083121
 31
0.0
1001
ACAD
1000
TCW40_DEV_WIDTH
1002
{
1040
-3.0
1002
}
  0
LINE
  5
75B8
330
1F
100
AcDbEntity
  8
0
100
AcDbLine
 10
12.06653936133953
 20
6.690548766083121
 30
0.0
 11
12.06653936133953
 21
6.542223632586814
 31
0.0
1001
ACAD
1000
TCW40_DEV_WIDTH
1002
{
1040
-3.0
1002
}
  0
LINE
  5
75B9
330
1F
100
AcDbEntity
  8
0
100
AcDbLine
 10
12.06653936133953
 20
6.542223632586814
 30
0.0
 11
12.19499269496705
 21
6.468061065838663
 31
0.0
1001
ACAD
1000
TCW40_DEV_WIDTH
1002
{
1040
-3.0
1002
}
  0
LINE
  5
75BA
330
1F
100
AcDbEntity
  8
0
100
AcDbLine
 10
12.19499269496705
 20
6.468061065838663
 30
0.0
 11
12.32344602859456
 21
6.542223632586814
 31
0.0
1001
ACAD
1000
TCW40_DEV_WIDTH
1002
{
1040
-3.0
1002
}
  0
LINE
  5
75BB
330
1F
100
AcDbEntity
  8
0
100
AcDbLine
 10
12.32344602859456
 20
6.542223632586814
 30
0.0
 11
12.32344602859456
 21
6.690548766083121
 31
0.0
1001
ACAD
1000
TCW40_DEV_WIDTH
1002
{
1040
-3.0
1002
}
  0
LINE
  5
75BC
330
1F
100
AcDbEntity
  8
0
100
AcDbLine
 10
12.19499269496705
 20
6.495151568930577
 30
0.0
 11
12.19499269496706
 21
6.737620829739359
 31
0.0
  0
ARC
  5
75BD
330
1F
100
AcDbEntity
  8
0
100
AcDbCircle
 10
12.19499269496706
 20
6.616386199334968
 30
0.0
 40
0.1212346304043912
100
AcDbArc
 50
90.0
 51
269.9999999999984
  0
LINE
  5
75BE
330
1F
100
AcDbEntity
  8
0
100
AcDbLine
 10
12.32344602859458
 20
6.622390727421088
 30
0.0
 11
12.27923127306655
 21
6.622390727421088
 31
0.0
  0
LINE
  5
75BF
330
1F
100
AcDbEntity
  8
0
100
AcDbLine
 10
12.32344602859458
 20
6.610381671248848
 30
0.0
 11
12.27923127306655
 21
6.610381671248848
 31
0.0
  0
LINE
  5
75C0
330
1F
100
AcDbEntity
  8
0
100
AcDbLine
 10
12.27923127306655
 20
6.610381671248848
 30
0.0
 11
12.27923127306655
 21
6.622390727421088
 31
0.0
  0
LINE
  5
75C1
330
1F
100
AcDbEntity
  8
0
100
AcDbLine
 10
12.32344602859456
 20
6.297113766083118
 30
0.0
 11
12.19499269496705
 21
6.371276332831271
 31
0.0
1001
ACAD
1000
TCW40_DEV_WIDTH
1002
{
1040
-3.0
1002
}
  0
LINE
  5
75C2
330
1F
100
AcDbEntity
  8
0
100
AcDbLine
 10
12.19499269496705
 20
6.371276332831271
 30
0.0
 11
12.06653936133953
 21
6.297113766083118
 31
0.0
1001
ACAD
1000
TCW40_DEV_WIDTH
1002
{
1040
-3.0
1002
}
  0
LINE
  5
75C3
330
1F
100
AcDbEntity
  8
0
100
AcDbLine
 10
12.06653936133953
 20
6.297113766083118
 30
0.0
 11
12.06653936133953
 21
6.148788632586811
 31
0.0
1001
ACAD
1000
TCW40_DEV_WIDTH
1002
{
1040
-3.0
1002
}
  0
LINE
  5
75C4
330
1F
100
AcDbEntity
  8
0
100
AcDbLine
 10
12.06653936133953
 20
6.148788632586811
 30
0.0
 11
12.19499269496705
 21
6.074626065838659
 31
0.0
1001
ACAD
1000
TCW40_DEV_WIDTH
1002
{
1040
-3.0
1002
}
  0
LINE
  5
75C5
330
1F
100
AcDbEntity
  8
0
100
AcDbLine
 10
12.19499269496705
 20
6.074626065838659
 30
0.0
 11
12.32344602859456
 21
6.148788632586811
 31
0.0
1001
ACAD
1000
TCW40_DEV_WIDTH
1002
{
1040
-3.0
1002
}
  0
LINE
  5
75C6
330
1F
100
AcDbEntity
  8
0
100
AcDbLine
 10
12.32344602859456
 20
6.148788632586811
 30
0.0
 11
12.32344602859456
 21
6.297113766083118
 31
0.0
1001
ACAD
1000
TCW40_DEV_WIDTH
1002
{
1040
-3.0
1002
}
  0
LINE
  5
75C7
330
1F
100
AcDbEntity
  8
0
100
AcDbLine
 10
12.09000042521844
 20
6.162333884132767
 30
0.0
 11
12.29998496471568
 21
6.283568514537163
 31
0.0
  0
ARC
  5
75C8
330
1F
100
AcDbEntity
  8
0
100
AcDbCircle
 10
12.19499269496706
 20
6.222951199334964
 30
0.0
 40
0.1212346304043912
100
AcDbArc
 50
30.00000000000188
 51
210.0000000000002
  0
LINE
  5
75C9
330
1F
100
AcDbEntity
  8
0
100
AcDbLine
 10
12.26441943564114
 20
6.114709613255797
 30
0.0
 11
12.24231205787712
 21
6.153000714765182
 31
0.0
  0
LINE
  5
75CA
330
1F
100
AcDbEntity
  8
0
100
AcDbLine
 10
12.25401928792051
 20
6.108705085169676
 30
0.0
 11
12.23191191015649
 21
6.146996186679063
 31
0.0
  0
LINE
  5
75CB
330
1F
100
AcDbEntity
  8
0
100
AcDbLine
 10
12.23191191015649
 20
6.146996186679063
 30
0.0
 11
12.24231205787713
 21
6.153000714765184
 31
0.0
  0
LINE
  5
75CC
330
1F
100
AcDbEntity
  8
0
100
AcDbLine
 10
10.74970602859456
 20
7.083983766083118
 30
0.0
 11
10.62125269496705
 21
7.158146332831272
 31
0.0
1001
ACAD
1000
TCW40_DEV_WIDTH
1002
{
1040
-3.0
1002
}
  0
LINE
  5
75CD
330
1F
100
AcDbEntity
  8
0
100
AcDbLine
 10
10.62125269496705
 20
7.158146332831272
 30
0.0
 11
10.49279936133953
 21
7.083983766083118
 31
0.0
1001
ACAD
1000
TCW40_DEV_WIDTH
1002
{
1040
-3.0
1002
}
  0
LINE
  5
75CE
330
1F
100
AcDbEntity
  8
0
100
AcDbLine
 10
10.49279936133953
 20
7.083983766083118
 30
0.0
 11
10.49279936133953
 21
6.935658632586811
 31
0.0
1001
ACAD
1000
TCW40_DEV_WIDTH
1002
{
1040
-3.0
1002
}
  0
LINE
  5
75CF
330
1F
100
AcDbEntity
  8
0
100
AcDbLine
 10
10.49279936133953
 20
6.935658632586811
 30
0.0
 11
10.62125269496705
 21
6.861496065838659
 31
0.0
1001
ACAD
1000
TCW40_DEV_WIDTH
1002
{
1040
-3.0
1002
}
  0
LINE
  5
75D0
330
1F
100
AcDbEntity
  8
0
100
AcDbLine
 10
10.62125269496705
 20
6.861496065838659
 30
0.0
 11
10.74970602859456
 21
6.935658632586811
 31
0.0
1001
ACAD
1000
TCW40_DEV_WIDTH
1002
{
1040
-3.0
1002
}
  0
LINE
  5
75D1
330
1F
100
AcDbEntity
  8
0
100
AcDbLine
 10
10.74970602859456
 20
6.935658632586811
 30
0.0
 11
10.74970602859456
 21
7.083983766083118
 31
0.0
1001
ACAD
1000
TCW40_DEV_WIDTH
1002
{
1040
-3.0
1002
}
  0
LINE
  5
75D2
330
1F
100
AcDbEntity
  8
0
100
AcDbLine
 10
10.62125269496705
 20
6.888586568930573
 30
0.0
 11
10.62125269496706
 21
7.131055829739356
 31
0.0
  0
ARC
  5
75D3
330
1F
100
AcDbEntity
  8
0
100
AcDbCircle
 10
10.62125269496706
 20
7.009821199334965
 30
0.0
 40
0.1212346304043912
100
AcDbArc
 50
90.0
 51
269.9999999999984
  0
LINE
  5
75D4
330
1F
100
AcDbEntity
  8
0
100
AcDbLine
 10
10.74970602859457
 20
7.015825727421084
 30
0.0
 11
10.70549127306655
 21
7.015825727421084
 31
0.0
  0
LINE
  5
75D5
330
1F
100
AcDbEntity
  8
0
100
AcDbLine
 10
10.74970602859457
 20
7.003816671248845
 30
0.0
 11
10.70549127306655
 21
7.003816671248845
 31
0.0
  0
LINE
  5
75D6
330
1F
100
AcDbEntity
  8
0
100
AcDbLine
 10
10.70549127306655
 20
7.003816671248845
 30
0.0
 11
10.70549127306655
 21
7.015825727421084
 31
0.0
  0
LINE
  5
75D7
330
1F
100
AcDbEntity
  8
0
100
AcDbLine
 10
10.74970602859456
 20
6.690548766083121
 30
0.0
 11
10.62125269496705
 21
6.764711332831275
 31
0.0
1001
ACAD
1000
TCW40_DEV_WIDTH
1002
{
1040
-3.0
1002
}
  0
LINE
  5
75D8
330
1F
100
AcDbEntity
  8
0
100
AcDbLine
 10
10.62125269496705
 20
6.764711332831275
 30
0.0
 11
10.49279936133953
 21
6.690548766083121
 31
0.0
1001
ACAD
1000
TCW40_DEV_WIDTH
1002
{
1040
-3.0
1002
}
  0
LINE
  5
75D9
330
1F
100
AcDbEntity
  8
0
100
AcDbLine
 10
10.49279936133953
 20
6.690548766083121
 30
0.0
 11
10.49279936133953
 21
6.542223632586814
 31
0.0
1001
ACAD
1000
TCW40_DEV_WIDTH
1002
{
1040
-3.0
1002
}
  0
LINE
  5
75DA
330
1F
100
AcDbEntity
  8
0
100
AcDbLine
 10
10.49279936133953
 20
6.542223632586814
 30
0.0
 11
10.62125269496705
 21
6.468061065838663
 31
0.0
1001
ACAD
1000
TCW40_DEV_WIDTH
1002
{
1040
-3.0
1002
}
  0
LINE
  5
75DB
330
1F
100
AcDbEntity
  8
0
100
AcDbLine
 10
10.62125269496705
 20
6.468061065838663
 30
0.0
 11
10.74970602859456
 21
6.542223632586814
 31
0.0
1001
ACAD
1000
TCW40_DEV_WIDTH
1002
{
1040
-3.0
1002
}
  0
LINE
  5
75DC
330
1F
100
AcDbEntity
  8
0
100
AcDbLine
 10
10.74970602859456
 20
6.542223632586814
 30
0.0
 11
10.74970602859456
 21
6.690548766083121
 31
0.0
1001
ACAD
1000
TCW40_DEV_WIDTH
1002
{
1040
-3.0
1002
}
  0
LINE
  5
75DD
330
1F
100
AcDbEntity
  8
0
100
AcDbLine
 10
10.62125269496705
 20
6.495151568930577
 30
0.0
 11
10.62125269496706
 21
6.737620829739359
 31
0.0
  0
ARC
  5
75DE
330
1F
100
AcDbEntity
  8
0
100
AcDbCircle
 10
10.62125269496706
 20
6.616386199334968
 30
0.0
 40
0.1212346304043912
100
AcDbArc
 50
90.0
 51
269.9999999999984
  0
LINE
  5
75DF
330
1F
100
AcDbEntity
  8
0
100
AcDbLine
 10
10.74970602859457
 20
6.622390727421088
 30
0.0
 11
10.70549127306655
 21
6.622390727421088
 31
0.0
  0
LINE
  5
75E0
330
1F
100
AcDbEntity
  8
0
100
AcDbLine
 10
10.74970602859457
 20
6.610381671248848
 30
0.0
 11
10.70549127306655
 21
6.610381671248848
 31
0.0
  0
LINE
  5
75E1
330
1F
100
AcDbEntity
  8
0
100
AcDbLine
 10
10.70549127306655
 20
6.610381671248848
 30
0.0
 11
10.70549127306655
 21
6.622390727421088
 31
0.0
  0
LINE
  5
75E2
330
1F
100
AcDbEntity
  8
0
100
AcDbLine
 10
10.74970602859456
 20
6.297113766083118
 30
0.0
 11
10.62125269496705
 21
6.371276332831271
 31
0.0
1001
ACAD
1000
TCW40_DEV_WIDTH
1002
{
1040
-3.0
1002
}
  0
LINE
  5
75E3
330
1F
100
AcDbEntity
  8
0
100
AcDbLine
 10
10.62125269496705
 20
6.371276332831271
 30
0.0
 11
10.49279936133953
 21
6.297113766083118
 31
0.0
1001
ACAD
1000
TCW40_DEV_WIDTH
1002
{
1040
-3.0
1002
}
  0
LINE
  5
75E4
330
1F
100
AcDbEntity
  8
0
100
AcDbLine
 10
10.49279936133953
 20
6.297113766083118
 30
0.0
 11
10.49279936133953
 21
6.148788632586811
 31
0.0
1001
ACAD
1000
TCW40_DEV_WIDTH
1002
{
1040
-3.0
1002
}
  0
LINE
  5
75E5
330
1F
100
AcDbEntity
  8
0
100
AcDbLine
 10
10.49279936133953
 20
6.148788632586811
 30
0.0
 11
10.62125269496705
 21
6.074626065838659
 31
0.0
1001
ACAD
1000
TCW40_DEV_WIDTH
1002
{
1040
-3.0
1002
}
  0
LINE
  5
75E6
330
1F
100
AcDbEntity
  8
0
100
AcDbLine
 10
10.62125269496705
 20
6.074626065838659
 30
0.0
 11
10.74970602859456
 21
6.148788632586811
 31
0.0
1001
ACAD
1000
TCW40_DEV_WIDTH
1002
{
1040
-3.0
1002
}
  0
LINE
  5
75E7
330
1F
100
AcDbEntity
  8
0
100
AcDbLine
 10
10.74970602859456
 20
6.148788632586811
 30
0.0
 11
10.74970602859456
 21
6.297113766083118
 31
0.0
1001
ACAD
1000
TCW40_DEV_WIDTH
1002
{
1040
-3.0
1002
}
  0
LINE
  5
75E8
330
1F
100
AcDbEntity
  8
0
100
AcDbLine
 10
10.51626042521844
 20
6.162333884132767
 30
0.0
 11
10.72624496471567
 21
6.283568514537163
 31
0.0
  0
ARC
  5
75E9
330
1F
100
AcDbEntity
  8
0
100
AcDbCircle
 10
10.62125269496706
 20
6.222951199334964
 30
0.0
 40
0.1212346304043912
100
AcDbArc
 50
30.00000000000188
 51
210.0000000000002
  0
LINE
  5
75EA
330
1F
100
AcDbEntity
  8
0
100
AcDbLine
 10
10.69067943564113
 20
6.114709613255797
 30
0.0
 11
10.66857205787712
 21
6.153000714765182
 31
0.0
  0
LINE
  5
75EB
330
1F
100
AcDbEntity
  8
0
100
AcDbLine
 10
10.6802792879205
 20
6.108705085169676
 30
0.0
 11
10.65817191015649
 21
6.146996186679063
 31
0.0
  0
LINE
  5
75EC
330
1F
100
AcDbEntity
  8
0
100
AcDbLine
 10
10.65817191015649
 20
6.146996186679063
 30
0.0
 11
10.66857205787713
 21
6.153000714765184
 31
0.0
  0
TEXT
  5
75ED
330
1F
100
AcDbEntity
  8
TEXT
100
AcDbText
 10
9.612694227888392
 20
8.232923088023325
 30
0.0
 40
0.09
  1
1715-TADIB16
 41
0.8
 72
     1
 11
9.984694227888391
 21
8.277923088023324
 31
0.0
100
AcDbText
 73
     2
  0
LINE
  5
75EE
330
1F
100
AcDbEntity
  8
0
100
AcDbLine
 10
14.75064141810829
 20
10.39336219933496
 30
0.0
 11
14.97172532606561
 21
10.39336219933496
 31
0.0
  0
LINE
  5
75EF
330
1F
100
AcDbEntity
  8
0
100
AcDbLine
 10
14.59455450256113
 20
9.828537649135414
 30
0.0
 11
14.59455450256113
 21
9.918405710474267
 31
0.0
  0
LINE
  5
75F0
330
1F
100
AcDbEntity
  8
0
100
AcDbLine
 10
14.75064141810829
 20
10.35943026117253
 30
0.0
 11
14.75064141810829
 21
10.39336219933496
 31
0.0
  0
LINE
  5
75F1
330
1F
100
AcDbEntity
  8
0
100
AcDbLine
 10
14.59455450256113
 20
9.918405710474267
 30
0.0
 11
14.51279468965547
 21
9.918405710474267
 31
0.0
  0
LINE
  5
75F2
330
1F
100
AcDbEntity
  8
0
100
AcDbLine
 10
14.51279468965547
 20
10.26090112652906
 30
0.0
 11
14.75064141810829
 21
10.35943026117253
 31
0.0
  0
LINE
  5
75F3
330
1F
100
AcDbEntity
  8
0
100
AcDbLine
 10
14.51279468965547
 20
9.918405710474267
 30
0.0
 11
14.51279468965547
 21
10.26090112652906
 31
0.0
  0
LINE
  5
75F4
330
1F
100
AcDbEntity
  8
0
100
AcDbLine
 10
14.90922532606561
 20
9.828537649135414
 30
0.0
 11
14.41527112251848
 21
9.828537649135414
 31
0.0
  0
LINE
  5
75F5
330
1F
100
AcDbEntity
  8
0
100
AcDbLine
 10
14.90922532606561
 20
9.441390392767917
 30
0.0
 11
14.41527112251848
 21
9.441390392767917
 31
0.0
  0
LINE
  5
75F6
330
1F
100
AcDbEntity
  8
0
100
AcDbLine
 10
14.41527112251848
 20
9.441390392767917
 30
0.0
 11
14.14349245590324
 21
9.516040656725255
 31
0.0
  0
LINE
  5
75F7
330
1F
100
AcDbEntity
  8
0
100
AcDbLine
 10
14.41527112251848
 20
9.794605710972987
 30
0.0
 11
14.41527112251848
 21
9.828537649135414
 31
0.0
  0
LINE
  5
75F8
330
1F
100
AcDbEntity
  8
0
100
AcDbLine
 10
14.97172532606561
 20
8.611677309225493
 30
0.0
 11
14.97172532606561
 21
5.236040620707822
 31
0.0
  0
LINE
  5
75F9
330
1F
100
AcDbEntity
  8
0
100
AcDbLine
 10
14.97172532606561
 20
5.236040620707822
 30
0.0
 11
14.90922532606561
 21
5.236040620707822
 31
0.0
  0
LINE
  5
75FA
330
1F
100
AcDbEntity
  8
0
100
AcDbLine
 10
14.90922532606561
 20
5.236040620707822
 30
0.0
 11
14.90922532606561
 21
8.605501868302912
 31
0.0
  0
LINE
  5
75FB
330
1F
100
AcDbEntity
  8
0
100
AcDbLine
 10
14.90922532606561
 20
8.850050623112725
 30
0.0
 11
14.90922532606561
 21
10.39336219933496
 31
0.0
  0
LINE
  5
75FC
330
1F
100
AcDbEntity
  8
0
100
AcDbLine
 10
14.97172532606561
 20
10.39336219933496
 30
0.0
 11
14.97172532606561
 21
8.843875182190144
 31
0.0
  0
LINE
  5
75FD
330
1F
100
AcDbEntity
  8
0
100
AcDbLine
 10
14.62550939021106
 20
7.616031474388119
 30
0.0
 11
14.35795291556645
 21
7.822096054799388
 31
0.0
  0
ARC
  5
75FE
330
1F
100
AcDbEntity
  8
0
100
AcDbCircle
 10
14.43422532606561
 20
7.921128975571466
 30
0.0
 40
0.125
100
AcDbArc
 50
180.0
 51
232.3975325063222
  0
LINE
  5
75FF
330
1F
100
AcDbEntity
  8
0
100
AcDbLine
 10
14.90922532606561
 20
5.275384120707816
 30
0.0
 11
14.70922532606562
 21
5.275384120707816
 31
0.0
  0
LINE
  5
7600
330
1F
100
AcDbEntity
  8
0
100
AcDbLine
 10
14.48422532606561
 20
7.085185120707823
 30
0.0
 11
14.47922532606561
 21
7.085185120707823
 31
0.0
  0
LINE
  5
7601
330
1F
100
AcDbEntity
  8
0
100
AcDbLine
 10
14.70922532606562
 20
5.472101620707821
 30
0.0
 11
14.47922532606561
 21
5.472101620707821
 31
0.0
  0
LINE
  5
7602
330
1F
100
AcDbEntity
  8
0
100
AcDbLine
 10
14.90922532606561
 20
9.249077620707819
 30
0.0
 11
14.43422532606561
 21
9.249077620707819
 31
0.0
  0
ARC
  5
7603
330
1F
100
AcDbEntity
  8
0
100
AcDbCircle
 10
14.43422532606561
 20
9.124077620707819
 30
0.0
 40
0.125
100
AcDbArc
 50
90.0
 51
180.0
  0
LINE
  5
7604
330
1F
100
AcDbEntity
  8
0
100
AcDbLine
 10
14.30922532606561
 20
9.124077620707819
 30
0.0
 11
14.30922532606561
 21
7.921128975571466
 31
0.0
  0
LINE
  5
7605
330
1F
100
AcDbEntity
  8
0
100
AcDbLine
 10
14.90922532606561
 20
7.590064395160194
 30
0.0
 11
14.70178180071022
 21
7.590064395160194
 31
0.0
  0
ARC
  5
7606
330
1F
100
AcDbEntity
  8
0
100
AcDbCircle
 10
14.70178180071022
 20
7.715064395160194
 30
0.0
 40
0.125
100
AcDbArc
 50
232.3975325063222
 51
270.0
  0
LINE
  5
7607
330
1F
100
AcDbEntity
  8
0
100
AcDbLine
 10
14.90922532606561
 20
7.281902620707821
 30
0.0
 11
14.70922532606562
 21
7.281902620707821
 31
0.0
  0
LINE
  5
7608
330
1F
100
AcDbEntity
  8
0
100
AcDbLine
 10
14.47922532606561
 20
7.085185120707823
 30
0.0
 11
14.47922532606561
 21
5.472101620707821
 31
0.0
  0
LINE
  5
7609
330
1F
100
AcDbEntity
  8
0
100
AcDbLine
 10
14.70922532606562
 20
7.281902620707821
 30
0.0
 11
14.70922532606562
 21
7.123026868759275
 31
0.0
  0
LINE
  5
760A
330
1F
100
AcDbEntity
  8
0
100
AcDbLine
 10
14.70922532606562
 20
6.889969372656377
 30
0.0
 11
14.70922532606562
 21
6.731944809935743
 31
0.0
  0
LINE
  5
760B
330
1F
100
AcDbEntity
  8
0
100
AcDbLine
 10
14.70922532606562
 20
6.494181431479903
 30
0.0
 11
14.70922532606562
 21
6.336156868759278
 31
0.0
  0
LINE
  5
760C
330
1F
100
AcDbEntity
  8
0
100
AcDbLine
 10
14.70922532606562
 20
6.103099372656378
 30
0.0
 11
14.70922532606562
 21
5.275384120707816
 31
0.0
  0
LINE
  5
760D
330
1F
100
AcDbEntity
  8
0
100
AcDbLine
 10
14.90922532606561
 20
8.894986120707816
 30
0.0
 11
14.67922532606561
 21
8.894986120707816
 31
0.0
  0
LINE
  5
760E
330
1F
100
AcDbEntity
  8
0
100
AcDbLine
 10
14.90922532606561
 20
8.560566370707819
 30
0.0
 11
14.67922532606561
 21
8.560566370707819
 31
0.0
  0
LINE
  5
760F
330
1F
100
AcDbEntity
  8
0
100
AcDbLine
 10
14.67922532606561
 20
8.894986120707816
 30
0.0
 11
14.67922532606561
 21
8.560566370707821
 31
0.0
  0
LINE
  5
7610
330
1F
100
AcDbEntity
  8
0
100
AcDbLine
 10
14.67922532606561
 20
8.582776245707819
 30
0.0
 11
15.08207495236376
 21
8.62258063079402
 31
0.0
  0
LINE
  5
7611
330
1F
100
AcDbEntity
  8
0
100
AcDbLine
 10
14.67922532606561
 20
8.872776245707818
 30
0.0
 11
15.08207495236376
 21
8.832971860621617
 31
0.0
  0
LINE
  5
7612
330
1F
100
AcDbEntity
  8
0
100
AcDbLine
 10
14.90922532606561
 20
7.450048888514986
 30
0.0
 11
14.32922532606561
 21
7.450048888514986
 31
0.0
  0
LINE
  5
7613
330
1F
100
AcDbEntity
  8
0
100
AcDbLine
 10
14.32922532606561
 20
7.450048888514986
 30
0.0
 11
14.32922532606561
 21
7.34981735290065
 31
0.0
  0
LINE
  5
7614
330
1F
100
AcDbEntity
  8
0
100
AcDbLine
 10
14.32922532606561
 20
7.34981735290065
 30
0.0
 11
14.90922532606561
 21
7.34981735290065
 31
0.0
  0
LINE
  5
7615
330
1F
100
AcDbEntity
  8
0
100
AcDbLine
 10
14.90922532606561
 20
6.734297751112215
 30
0.0
 11
14.48422532606561
 21
6.724297751112215
 31
0.0
  0
LINE
  5
7616
330
1F
100
AcDbEntity
  8
0
100
AcDbLine
 10
14.90922532606561
 20
6.491828490303433
 30
0.0
 11
14.48422532606561
 21
6.501828490303433
 31
0.0
  0
LINE
  5
7617
330
1F
100
AcDbEntity
  8
0
100
AcDbLine
 10
14.48422532606561
 20
6.724297751112215
 30
0.0
 11
14.48422532606561
 21
6.501828490303433
 31
0.0
  0
LINE
  5
7618
330
1F
100
AcDbEntity
  8
0
100
AcDbLine
 10
14.90922532606561
 20
7.127732751112219
 30
0.0
 11
14.48422532606561
 21
7.117732751112219
 31
0.0
  0
LINE
  5
7619
330
1F
100
AcDbEntity
  8
0
100
AcDbLine
 10
14.90922532606561
 20
6.885263490303437
 30
0.0
 11
14.48422532606561
 21
6.895263490303436
 31
0.0
  0
LINE
  5
761A
330
1F
100
AcDbEntity
  8
0
100
AcDbLine
 10
14.48422532606561
 20
7.117732751112219
 30
0.0
 11
14.48422532606561
 21
6.895263490303436
 31
0.0
  0
LINE
  5
761B
330
1F
100
AcDbEntity
  8
0
100
AcDbLine
 10
14.90922532606561
 20
6.340862751112219
 30
0.0
 11
14.48422532606561
 21
6.330862751112219
 31
0.0
  0
LINE
  5
761C
330
1F
100
AcDbEntity
  8
0
100
AcDbLine
 10
14.90922532606561
 20
6.098393490303436
 30
0.0
 11
14.48422532606561
 21
6.108393490303436
 31
0.0
  0
LINE
  5
761D
330
1F
100
AcDbEntity
  8
0
100
AcDbLine
 10
14.48422532606561
 20
6.330862751112219
 30
0.0
 11
14.48422532606561
 21
6.108393490303436
 31
0.0
  0
LINE
  5
761E
330
1F
100
AcDbEntity
  8
0
100
AcDbLine
 10
9.175480194967043
 20
10.39336219933496
 30
0.0
 11
12.46046019496705
 21
10.39336219933496
 31
0.0
  0
LINE
  5
761F
330
1F
100
AcDbEntity
  8
0
100
AcDbLine
 10
12.46046019496705
 20
10.39336219933496
 30
0.0
 11
12.46046019496705
 21
5.239363699334965
 31
0.0
  0
LINE
  5
7620
330
1F
100
AcDbEntity
  8
0
100
AcDbLine
 10
12.46046019496705
 20
5.239363699334965
 30
0.0
 11
9.175480194967043
 21
5.239363699334965
 31
0.0
  0
LINE
  5
7621
330
1F
100
AcDbEntity
  8
0
100
AcDbLine
 10
9.175480194967043
 20
5.239363699334965
 30
0.0
 11
9.175480194967043
 21
10.39336219933496
 31
0.0
  0
LINE
  5
7622
330
1F
100
AcDbEntity
  8
0
100
AcDbLine
 10
7.041385887372964
 20
9.828537649135414
 30
0.0
 11
7.041385887372964
 21
9.918405710474267
 31
0.0
  0
LINE
  5
7623
330
1F
100
AcDbEntity
  8
0
100
AcDbLine
 10
6.8852989718258
 20
10.35943026117253
 30
0.0
 11
6.8852989718258
 21
10.39336219933496
 31
0.0
  0
LINE
  5
7624
330
1F
100
AcDbEntity
  8
0
100
AcDbLine
 10
7.041385887372964
 20
9.918405710474267
 30
0.0
 11
7.12314570027862
 21
9.918405710474267
 31
0.0
  0
LINE
  5
7625
330
1F
100
AcDbEntity
  8
0
100
AcDbLine
 10
7.12314570027862
 20
10.26090112652906
 30
0.0
 11
6.8852989718258
 21
10.35943026117253
 31
0.0
  0
LINE
  5
7626
330
1F
100
AcDbEntity
  8
0
100
AcDbLine
 10
7.12314570027862
 20
9.918405710474267
 30
0.0
 11
7.12314570027862
 21
10.26090112652906
 31
0.0
  0
LINE
  5
7627
330
1F
100
AcDbEntity
  8
0
100
AcDbLine
 10
6.726715063868478
 20
9.828537649135414
 30
0.0
 11
7.220669267415608
 21
9.828537649135414
 31
0.0
  0
LINE
  5
7628
330
1F
100
AcDbEntity
  8
0
100
AcDbLine
 10
6.726715063868478
 20
9.441390392767917
 30
0.0
 11
7.220669267415608
 21
9.441390392767917
 31
0.0
  0
LINE
  5
7629
330
1F
100
AcDbEntity
  8
0
100
AcDbLine
 10
7.220669267415608
 20
9.441390392767917
 30
0.0
 11
7.492447934030852
 21
9.516040656725255
 31
0.0
  0
LINE
  5
762A
330
1F
100
AcDbEntity
  8
0
100
AcDbLine
 10
7.492447934030852
 20
9.782455447015649
 30
0.0
 11
7.220669267415608
 21
9.794605710972987
 31
0.0
  0
LINE
  5
762B
330
1F
100
AcDbEntity
  8
0
100
AcDbLine
 10
7.492447934030852
 20
9.516040656725255
 30
0.0
 11
7.492447934030852
 21
9.782455447015649
 31
0.0
  0
LINE
  5
762C
330
1F
100
AcDbEntity
  8
0
100
AcDbLine
 10
7.220669267415608
 20
9.794605710972987
 30
0.0
 11
7.220669267415608
 21
9.828537649135414
 31
0.0
  0
LINE
  5
762D
330
1F
100
AcDbEntity
  8
0
100
AcDbLine
 10
6.664215063868478
 20
8.611677309225493
 30
0.0
 11
6.664215063868478
 21
5.236040620707822
 31
0.0
  0
LINE
  5
762E
330
1F
100
AcDbEntity
  8
0
100
AcDbLine
 10
6.664215063868478
 20
5.236040620707822
 30
0.0
 11
6.726715063868478
 21
5.236040620707822
 31
0.0
  0
LINE
  5
762F
330
1F
100
AcDbEntity
  8
0
100
AcDbLine
 10
6.726715063868478
 20
5.236040620707822
 30
0.0
 11
6.726715063868478
 21
8.605501868302912
 31
0.0
  0
LINE
  5
7630
330
1F
100
AcDbEntity
  8
0
100
AcDbLine
 10
6.726715063868478
 20
8.850050623112725
 30
0.0
 11
6.726715063868478
 21
10.39336219933496
 31
0.0
  0
LINE
  5
7631
330
1F
100
AcDbEntity
  8
0
100
AcDbLine
 10
6.664215063868478
 20
8.843875182190144
 30
0.0
 11
6.664215063868478
 21
10.39336219933496
 31
0.0
  0
LINE
  5
7632
330
1F
100
AcDbEntity
  8
0
100
AcDbLine
 10
6.664215063868478
 20
10.39336219933496
 30
0.0
 11
6.8852989718258
 21
10.39336219933496
 31
0.0
  0
LINE
  5
7633
330
1F
100
AcDbEntity
  8
0
100
AcDbLine
 10
7.010430999723027
 20
7.616031474388119
 30
0.0
 11
7.277987474367638
 21
7.822096054799388
 31
0.0
  0
ARC
  5
7634
330
1F
100
AcDbEntity
  8
0
100
AcDbCircle
 10
7.20171506386848
 20
7.921128975571466
 30
0.0
 40
0.125
100
AcDbArc
 50
307.602467493678
 51
0.0
  0
LINE
  5
7635
330
1F
100
AcDbEntity
  8
0
100
AcDbLine
 10
6.726715063868478
 20
5.275384120707816
 30
0.0
 11
6.926715063868474
 21
5.275384120707816
 31
0.0
  0
LINE
  5
7636
330
1F
100
AcDbEntity
  8
0
100
AcDbLine
 10
6.926715063868474
 20
5.472101620707821
 30
0.0
 11
7.156715063868478
 21
5.472101620707821
 31
0.0
  0
LINE
  5
7637
330
1F
100
AcDbEntity
  8
0
100
AcDbLine
 10
6.726715063868478
 20
9.249077620707819
 30
0.0
 11
7.20171506386848
 21
9.249077620707819
 31
0.0
  0
ARC
  5
7638
330
1F
100
AcDbEntity
  8
0
100
AcDbCircle
 10
7.20171506386848
 20
9.124077620707819
 30
0.0
 40
0.125
100
AcDbArc
 50
0.0
 51
90.0
  0
LINE
  5
7639
330
1F
100
AcDbEntity
  8
0
100
AcDbLine
 10
7.32671506386848
 20
9.124077620707819
 30
0.0
 11
7.32671506386848
 21
7.921128975571466
 31
0.0
  0
LINE
  5
763A
330
1F
100
AcDbEntity
  8
0
100
AcDbLine
 10
6.726715063868478
 20
7.590064395160194
 30
0.0
 11
6.934158589223873
 21
7.590064395160194
 31
0.0
  0
ARC
  5
763B
330
1F
100
AcDbEntity
  8
0
100
AcDbCircle
 10
6.934158589223873
 20
7.715064395160194
 30
0.0
 40
0.125
100
AcDbArc
 50
270.0
 51
307.602467493678
  0
LINE
  5
763C
330
1F
100
AcDbEntity
  8
0
100
AcDbLine
 10
6.726715063868478
 20
7.281902620707821
 30
0.0
 11
6.926715063868474
 21
7.281902620707821
 31
0.0
  0
LINE
  5
763D
330
1F
100
AcDbEntity
  8
0
100
AcDbLine
 10
7.156715063868478
 20
7.085185120707823
 30
0.0
 11
7.156715063868478
 21
5.472101620707821
 31
0.0
  0
LINE
  5
763E
330
1F
100
AcDbEntity
  8
0
100
AcDbLine
 10
6.926715063868474
 20
7.281902620707821
 30
0.0
 11
6.926715063868474
 21
5.275384120707816
 31
0.0
  0
LINE
  5
763F
330
1F
100
AcDbEntity
  8
0
100
AcDbLine
 10
6.726715063868478
 20
8.894986120707816
 30
0.0
 11
6.956715063868479
 21
8.894986120707816
 31
0.0
  0
LINE
  5
7640
330
1F
100
AcDbEntity
  8
0
100
AcDbLine
 10
6.726715063868478
 20
8.560566370707819
 30
0.0
 11
6.956715063868482
 21
8.560566370707819
 31
0.0
  0
LINE
  5
7641
330
1F
100
AcDbEntity
  8
0
100
AcDbLine
 10
6.956715063868479
 20
8.894986120707816
 30
0.0
 11
6.956715063868482
 21
8.560566370707821
 31
0.0
  0
LINE
  5
7642
330
1F
100
AcDbEntity
  8
0
100
AcDbLine
 10
6.956715063868479
 20
8.582776245707819
 30
0.0
 11
6.525098890861634
 21
8.62258063079402
 31
0.0
  0
LINE
  5
7643
330
1F
100
AcDbEntity
  8
0
100
AcDbLine
 10
6.956715063868479
 20
8.872776245707818
 30
0.0
 11
6.525098890861634
 21
8.832971860621617
 31
0.0
  0
LINE
  5
7644
330
1F
100
AcDbEntity
  8
0
100
AcDbLine
 10
6.664215063868478
 20
9.348646701191796
 30
0.0
 11
6.525098890861634
 21
9.348646701191796
 31
0.0
  0
LINE
  5
7645
330
1F
100
AcDbEntity
  8
0
100
AcDbLine
 10
6.525098890861634
 20
9.348646701191796
 30
0.0
 11
6.525098890861634
 21
6.080521914051956
 31
0.0
  0
LINE
  5
7646
330
1F
100
AcDbEntity
  8
0
100
AcDbLine
 10
6.525098890861634
 20
6.080521914051956
 30
0.0
 11
6.664215063868478
 21
6.080521914051956
 31
0.0
  0
LINE
  5
7647
330
1F
100
AcDbEntity
  8
0
100
AcDbLine
 10
6.726715063868478
 20
7.450048888514986
 30
0.0
 11
7.30671506386848
 21
7.450048888514986
 31
0.0
  0
LINE
  5
7648
330
1F
100
AcDbEntity
  8
0
100
AcDbLine
 10
7.30671506386848
 20
7.450048888514986
 30
0.0
 11
7.30671506386848
 21
7.34981735290065
 31
0.0
  0
LINE
  5
7649
330
1F
100
AcDbEntity
  8
0
100
AcDbLine
 10
7.30671506386848
 20
7.34981735290065
 30
0.0
 11
6.726715063868478
 21
7.34981735290065
 31
0.0
  0
LINE
  5
764A
330
1F
100
AcDbEntity
  8
0
100
AcDbLine
 10
6.926715063868474
 20
7.085185120707823
 30
0.0
 11
7.156715063868478
 21
7.085185120707823
 31
0.0
  0
LINE
  5
764B
330
1F
100
AcDbEntity
  8
0
100
AcDbLine
 10
6.525098890861634
 20
7.803636038433044
 30
0.0
 11
6.263902950554218
 21
7.803636038433044
 31
0.0
  0
LINE
  5
764C
330
1F
100
AcDbEntity
  8
0
100
AcDbLine
 10
6.263902950554218
 20
7.803636038433044
 30
0.0
 11
6.263902950554218
 21
6.130521914051957
 31
0.0
  0
LINE
  5
764D
330
1F
100
AcDbEntity
  8
0
100
AcDbLine
 10
6.263902950554218
 20
6.130521914051957
 30
0.0
 11
6.525098890861634
 21
6.130521914051957
 31
0.0
  0
LINE
  5
764E
330
1F
100
AcDbEntity
  8
0
100
AcDbLine
 10
9.175480194967043
 20
12.67123266554822
 30
0.0
 11
9.175480194967043
 21
12.73423266554822
 31
0.0
  0
LINE
  5
764F
330
1F
100
AcDbEntity
  8
0
100
AcDbLine
 10
9.175480194967043
 20
12.73423266554822
 30
0.0
 11
12.46046019496705
 21
12.73423266554822
 31
0.0
  0
LINE
  5
7650
330
1F
100
AcDbEntity
  8
0
100
AcDbLine
 10
12.46046019496705
 20
12.73423266554822
 30
0.0
 11
12.46046019496705
 21
12.67123266554822
 31
0.0
  0
LINE
  5
7651
330
1F
100
AcDbEntity
  8
0
100
AcDbLine
 10
12.46046019496705
 20
12.67123266554822
 30
0.0
 11
9.175480194967043
 21
12.67123266554822
 31
0.0
  0
LINE
  5
7652
330
1F
100
AcDbEntity
  8
0
100
AcDbLine
 10
9.299732920340535
 20
11.90300535349136
 30
0.0
 11
12.44106549846552
 21
11.90300535349136
 31
0.0
  0
LINE
  5
7653
330
1F
100
AcDbEntity
  8
0
100
AcDbLine
 10
9.247303905904551
 20
12.52759919834227
 30
0.0
 11
12.38863648402954
 21
12.52759919834227
 31
0.0
  0
LINE
  5
7654
330
1F
100
AcDbEntity
  8
0
100
AcDbLine
 10
9.247303905904551
 20
12.21060862363698
 30
0.0
 11
9.247303905904551
 21
12.67123266554822
 31
0.0
  0
LINE
  5
7655
330
1F
100
AcDbEntity
  8
0
100
AcDbLine
 10
10.2913034115428
 20
12.33061136474995
 30
0.0
 11
10.2913034115428
 21
12.48978617726879
 31
0.0
  0
LINE
  5
7656
330
1F
100
AcDbEntity
  8
0
100
AcDbLine
 10
10.38997739034407
 20
12.33061136474995
 30
0.0
 11
10.2913034115428
 21
12.33061136474995
 31
0.0
  0
LINE
  5
7657
330
1F
100
AcDbEntity
  8
0
100
AcDbLine
 10
10.2913034115428
 20
12.48978617726879
 30
0.0
 11
10.38997739034407
 21
12.48978617726879
 31
0.0
  0
LINE
  5
7658
330
1F
100
AcDbEntity
  8
0
100
AcDbLine
 10
10.0946757019607
 20
12.33061136474995
 30
0.0
 11
10.0946757019607
 21
12.48978617726879
 31
0.0
  0
LINE
  5
7659
330
1F
100
AcDbEntity
  8
0
100
AcDbLine
 10
10.19298955675176
 20
12.33061136474995
 30
0.0
 11
10.0946757019607
 21
12.33061136474995
 31
0.0
  0
LINE
  5
765A
330
1F
100
AcDbEntity
  8
0
100
AcDbLine
 10
10.0946757019607
 20
12.48978617726879
 30
0.0
 11
10.19298955675176
 21
12.48978617726879
 31
0.0
  0
LINE
  5
765B
330
1F
100
AcDbEntity
  8
0
100
AcDbLine
 10
9.898047992378618
 20
12.33061136474995
 30
0.0
 11
9.898047992378618
 21
12.48978617726879
 31
0.0
  0
LINE
  5
765C
330
1F
100
AcDbEntity
  8
0
100
AcDbLine
 10
9.996361847169662
 20
12.33061136474995
 30
0.0
 11
9.898047992378618
 21
12.33061136474995
 31
0.0
  0
LINE
  5
765D
330
1F
100
AcDbEntity
  8
0
100
AcDbLine
 10
9.898047992378618
 20
12.48978617726879
 30
0.0
 11
9.996361847169662
 21
12.48978617726879
 31
0.0
  0
LINE
  5
765E
330
1F
100
AcDbEntity
  8
0
100
AcDbLine
 10
9.701060158786301
 20
12.33061136474995
 30
0.0
 11
9.701060158786301
 21
12.48978617726879
 31
0.0
  0
LINE
  5
765F
330
1F
100
AcDbEntity
  8
0
100
AcDbLine
 10
9.799734137587574
 20
12.33061136474995
 30
0.0
 11
9.701060158786301
 21
12.33061136474995
 31
0.0
  0
LINE
  5
7660
330
1F
100
AcDbEntity
  8
0
100
AcDbLine
 10
9.701060158786301
 20
12.48978617726879
 30
0.0
 11
9.799734137587574
 21
12.48978617726879
 31
0.0
  0
LINE
  5
7661
330
1F
100
AcDbEntity
  8
0
100
AcDbLine
 10
9.504432449204212
 20
12.33061136474995
 30
0.0
 11
9.504432449204212
 21
12.48978617726879
 31
0.0
  0
LINE
  5
7662
330
1F
100
AcDbEntity
  8
0
100
AcDbLine
 10
9.602746303995257
 20
12.33061136474995
 30
0.0
 11
9.504432449204212
 21
12.33061136474995
 31
0.0
  0
LINE
  5
7663
330
1F
100
AcDbEntity
  8
0
100
AcDbLine
 10
9.504432449204212
 20
12.48978617726879
 30
0.0
 11
9.602746303995257
 21
12.48978617726879
 31
0.0
  0
LINE
  5
7664
330
1F
100
AcDbEntity
  8
0
100
AcDbLine
 10
9.307804739622117
 20
12.33061136474995
 30
0.0
 11
9.307804739622117
 21
12.48978617726879
 31
0.0
  0
LINE
  5
7665
330
1F
100
AcDbEntity
  8
0
100
AcDbLine
 10
9.406118594413165
 20
12.33061136474995
 30
0.0
 11
9.307804739622117
 21
12.33061136474995
 31
0.0
  0
LINE
  5
7666
330
1F
100
AcDbEntity
  8
0
100
AcDbLine
 10
9.307804739622117
 20
12.48978617726879
 30
0.0
 11
9.406118594413165
 21
12.48978617726879
 31
0.0
  0
LINE
  5
7667
330
1F
100
AcDbEntity
  8
0
100
AcDbLine
 10
9.406118594413165
 20
12.30960969731482
 30
0.0
 11
9.406118594413165
 21
12.52759919834227
 31
0.0
  0
LINE
  5
7668
330
1F
100
AcDbEntity
  8
0
100
AcDbLine
 10
9.28511692697803
 20
12.52759919834227
 30
0.0
 11
9.28511692697803
 21
12.30960969731482
 31
0.0
  0
LINE
  5
7669
330
1F
100
AcDbEntity
  8
0
100
AcDbLine
 10
9.602746303995257
 20
12.30960969731482
 30
0.0
 11
9.602746303995257
 21
12.52759919834227
 31
0.0
  0
LINE
  5
766A
330
1F
100
AcDbEntity
  8
0
100
AcDbLine
 10
9.481744636560122
 20
12.52759919834227
 30
0.0
 11
9.481744636560122
 21
12.30960969731482
 31
0.0
  0
LINE
  5
766B
330
1F
100
AcDbEntity
  8
0
100
AcDbLine
 10
9.799734137587574
 20
12.30960969731482
 30
0.0
 11
9.799734137587574
 21
12.52759919834227
 31
0.0
  0
LINE
  5
766C
330
1F
100
AcDbEntity
  8
0
100
AcDbLine
 10
9.678372346142214
 20
12.52759919834227
 30
0.0
 11
9.678372346142214
 21
12.30960969731482
 31
0.0
  0
LINE
  5
766D
330
1F
100
AcDbEntity
  8
0
100
AcDbLine
 10
9.996361847169662
 20
12.30960969731482
 30
0.0
 11
9.996361847169662
 21
12.52759919834227
 31
0.0
  0
LINE
  5
766E
330
1F
100
AcDbEntity
  8
0
100
AcDbLine
 10
9.875360179734531
 20
12.52759919834227
 30
0.0
 11
9.875360179734531
 21
12.30960969731482
 31
0.0
  0
LINE
  5
766F
330
1F
100
AcDbEntity
  8
0
100
AcDbLine
 10
10.19298955675176
 20
12.30960969731482
 30
0.0
 11
10.19298955675176
 21
12.52759919834227
 31
0.0
  0
LINE
  5
7670
330
1F
100
AcDbEntity
  8
0
100
AcDbLine
 10
10.07198788931662
 20
12.52759919834227
 30
0.0
 11
10.07198788931662
 21
12.30960969731482
 31
0.0
  0
LINE
  5
7671
330
1F
100
AcDbEntity
  8
0
100
AcDbLine
 10
10.38997739034407
 20
12.30960969731482
 30
0.0
 11
10.38997739034407
 21
12.52759919834227
 31
0.0
  0
LINE
  5
7672
330
1F
100
AcDbEntity
  8
0
100
AcDbLine
 10
10.27617820311341
 20
12.52759919834227
 30
0.0
 11
10.27617820311341
 21
12.30960969731482
 31
0.0
  0
LINE
  5
7673
330
1F
100
AcDbEntity
  8
0
100
AcDbLine
 10
10.68491895471721
 20
12.33061136474995
 30
0.0
 11
10.68491895471721
 21
12.48978617726879
 31
0.0
  0
LINE
  5
7674
330
1F
100
AcDbEntity
  8
0
100
AcDbLine
 10
10.78323280950825
 20
12.33061136474995
 30
0.0
 11
10.68491895471721
 21
12.33061136474995
 31
0.0
  0
LINE
  5
7675
330
1F
100
AcDbEntity
  8
0
100
AcDbLine
 10
10.68491895471721
 20
12.48978617726879
 30
0.0
 11
10.78323280950825
 21
12.48978617726879
 31
0.0
  0
LINE
  5
7676
330
1F
100
AcDbEntity
  8
0
100
AcDbLine
 10
10.48829124513512
 20
12.33061136474995
 30
0.0
 11
10.48829124513512
 21
12.48978617726879
 31
0.0
  0
LINE
  5
7677
330
1F
100
AcDbEntity
  8
0
100
AcDbLine
 10
10.58660509992616
 20
12.33061136474995
 30
0.0
 11
10.48829124513512
 21
12.33061136474995
 31
0.0
  0
LINE
  5
7678
330
1F
100
AcDbEntity
  8
0
100
AcDbLine
 10
10.48829124513512
 20
12.48978617726879
 30
0.0
 11
10.58660509992616
 21
12.48978617726879
 31
0.0
  0
LINE
  5
7679
330
1F
100
AcDbEntity
  8
0
100
AcDbLine
 10
10.58660509992616
 20
12.30960969731482
 30
0.0
 11
10.58660509992616
 21
12.52759919834227
 31
0.0
  0
LINE
  5
767A
330
1F
100
AcDbEntity
  8
0
100
AcDbLine
 10
10.47316603670572
 20
12.52759919834227
 30
0.0
 11
10.47316603670572
 21
12.30960969731482
 31
0.0
  0
LINE
  5
767B
330
1F
100
AcDbEntity
  8
0
100
AcDbLine
 10
10.78323280950825
 20
12.30960969731482
 30
0.0
 11
10.78323280950825
 21
12.52759919834227
 31
0.0
  0
LINE
  5
767C
330
1F
100
AcDbEntity
  8
0
100
AcDbLine
 10
10.66979374628782
 20
12.52759919834227
 30
0.0
 11
10.66979374628782
 21
12.30960969731482
 31
0.0
  0
LINE
  5
767D
330
1F
100
AcDbEntity
  8
0
100
AcDbLine
 10
9.28511692697803
 20
12.30960969731482
 30
0.0
 11
9.406118594413165
 21
12.30960969731482
 31
0.0
  0
LINE
  5
767E
330
1F
100
AcDbEntity
  8
0
100
AcDbLine
 10
9.481744636560122
 20
12.30960969731482
 30
0.0
 11
9.602746303995257
 21
12.30960969731482
 31
0.0
  0
LINE
  5
767F
330
1F
100
AcDbEntity
  8
0
100
AcDbLine
 10
9.678372346142214
 20
12.30960969731482
 30
0.0
 11
9.799734137587574
 21
12.30960969731482
 31
0.0
  0
LINE
  5
7680
330
1F
100
AcDbEntity
  8
0
100
AcDbLine
 10
9.875360179734531
 20
12.30960969731482
 30
0.0
 11
9.996721971179891
 21
12.30960969731482
 31
0.0
  0
LINE
  5
7681
330
1F
100
AcDbEntity
  8
0
100
AcDbLine
 10
10.07198788931662
 20
12.30960969731482
 30
0.0
 11
10.19334968076198
 21
12.30960969731482
 31
0.0
  0
LINE
  5
7682
330
1F
100
AcDbEntity
  8
0
100
AcDbLine
 10
10.27617820311341
 20
12.30960969731482
 30
0.0
 11
10.38997739034407
 21
12.30960969731482
 31
0.0
  0
LINE
  5
7683
330
1F
100
AcDbEntity
  8
0
100
AcDbLine
 10
10.47316603670572
 20
12.30960969731482
 30
0.0
 11
10.58696522393638
 21
12.30960969731482
 31
0.0
  0
LINE
  5
7684
330
1F
100
AcDbEntity
  8
0
100
AcDbLine
 10
10.66979374628782
 20
12.30960969731482
 30
0.0
 11
10.78359293351848
 21
12.30960969731482
 31
0.0
  0
LINE
  5
7685
330
1F
100
AcDbEntity
  8
0
100
AcDbLine
 10
10.34373242597878
 20
12.01362079004467
 30
0.0
 11
10.34373242597878
 21
12.1727956025635
 31
0.0
  0
LINE
  5
7686
330
1F
100
AcDbEntity
  8
0
100
AcDbLine
 10
10.44240640478006
 20
12.01362079004467
 30
0.0
 11
10.34373242597878
 21
12.01362079004467
 31
0.0
  0
LINE
  5
7687
330
1F
100
AcDbEntity
  8
0
100
AcDbLine
 10
10.34373242597878
 20
12.1727956025635
 30
0.0
 11
10.44240640478006
 21
12.1727956025635
 31
0.0
  0
LINE
  5
7688
330
1F
100
AcDbEntity
  8
0
100
AcDbLine
 10
10.14710471639669
 20
12.01362079004467
 30
0.0
 11
10.14710471639669
 21
12.1727956025635
 31
0.0
  0
LINE
  5
7689
330
1F
100
AcDbEntity
  8
0
100
AcDbLine
 10
10.24541857118774
 20
12.01362079004467
 30
0.0
 11
10.14710471639669
 21
12.01362079004467
 31
0.0
  0
LINE
  5
768A
330
1F
100
AcDbEntity
  8
0
100
AcDbLine
 10
10.14710471639669
 20
12.1727956025635
 30
0.0
 11
10.24541857118774
 21
12.1727956025635
 31
0.0
  0
LINE
  5
768B
330
1F
100
AcDbEntity
  8
0
100
AcDbLine
 10
9.950477006814601
 20
12.01362079004467
 30
0.0
 11
9.950477006814601
 21
12.1727956025635
 31
0.0
  0
LINE
  5
768C
330
1F
100
AcDbEntity
  8
0
100
AcDbLine
 10
10.04879086160564
 20
12.01362079004467
 30
0.0
 11
9.950477006814601
 21
12.01362079004467
 31
0.0
  0
LINE
  5
768D
330
1F
100
AcDbEntity
  8
0
100
AcDbLine
 10
9.950477006814601
 20
12.1727956025635
 30
0.0
 11
10.04879086160564
 21
12.1727956025635
 31
0.0
  0
LINE
  5
768E
330
1F
100
AcDbEntity
  8
0
100
AcDbLine
 10
9.753489173222284
 20
12.01362079004467
 30
0.0
 11
9.753489173222284
 21
12.1727956025635
 31
0.0
  0
LINE
  5
768F
330
1F
100
AcDbEntity
  8
0
100
AcDbLine
 10
9.852163152023557
 20
12.01362079004467
 30
0.0
 11
9.753489173222284
 21
12.01362079004467
 31
0.0
  0
LINE
  5
7690
330
1F
100
AcDbEntity
  8
0
100
AcDbLine
 10
9.753489173222284
 20
12.1727956025635
 30
0.0
 11
9.852163152023557
 21
12.1727956025635
 31
0.0
  0
LINE
  5
7691
330
1F
100
AcDbEntity
  8
0
100
AcDbLine
 10
9.556861463640196
 20
12.01362079004467
 30
0.0
 11
9.556861463640196
 21
12.1727956025635
 31
0.0
  0
LINE
  5
7692
330
1F
100
AcDbEntity
  8
0
100
AcDbLine
 10
9.65517531843124
 20
12.01362079004467
 30
0.0
 11
9.556861463640196
 21
12.01362079004467
 31
0.0
  0
LINE
  5
7693
330
1F
100
AcDbEntity
  8
0
100
AcDbLine
 10
9.556861463640196
 20
12.1727956025635
 30
0.0
 11
9.65517531843124
 21
12.1727956025635
 31
0.0
  0
LINE
  5
7694
330
1F
100
AcDbEntity
  8
0
100
AcDbLine
 10
9.3602337540581
 20
12.01362079004467
 30
0.0
 11
9.3602337540581
 21
12.1727956025635
 31
0.0
  0
LINE
  5
7695
330
1F
100
AcDbEntity
  8
0
100
AcDbLine
 10
9.458547608849148
 20
12.01362079004467
 30
0.0
 11
9.3602337540581
 21
12.01362079004467
 31
0.0
  0
LINE
  5
7696
330
1F
100
AcDbEntity
  8
0
100
AcDbLine
 10
9.3602337540581
 20
12.1727956025635
 30
0.0
 11
9.458547608849148
 21
12.1727956025635
 31
0.0
  0
LINE
  5
7697
330
1F
100
AcDbEntity
  8
0
100
AcDbLine
 10
9.458547608849148
 20
11.99261912260953
 30
0.0
 11
9.458547608849148
 21
12.21060862363698
 31
0.0
  0
LINE
  5
7698
330
1F
100
AcDbEntity
  8
0
100
AcDbLine
 10
9.337545941414013
 20
12.21060862363698
 30
0.0
 11
9.337545941414013
 21
11.99261912260953
 31
0.0
  0
LINE
  5
7699
330
1F
100
AcDbEntity
  8
0
100
AcDbLine
 10
9.65517531843124
 20
11.99261912260953
 30
0.0
 11
9.65517531843124
 21
12.21060862363698
 31
0.0
  0
LINE
  5
769A
330
1F
100
AcDbEntity
  8
0
100
AcDbLine
 10
9.534173650996105
 20
12.21060862363698
 30
0.0
 11
9.534173650996105
 21
11.99261912260953
 31
0.0
  0
LINE
  5
769B
330
1F
100
AcDbEntity
  8
0
100
AcDbLine
 10
9.852163152023557
 20
11.99261912260953
 30
0.0
 11
9.852163152023557
 21
12.21060862363698
 31
0.0
  0
LINE
  5
769C
330
1F
100
AcDbEntity
  8
0
100
AcDbLine
 10
9.730801360578198
 20
12.21060862363698
 30
0.0
 11
9.730801360578198
 21
11.99261912260953
 31
0.0
  0
LINE
  5
769D
330
1F
100
AcDbEntity
  8
0
100
AcDbLine
 10
10.04879086160564
 20
11.99261912260953
 30
0.0
 11
10.04879086160564
 21
12.21060862363698
 31
0.0
  0
LINE
  5
769E
330
1F
100
AcDbEntity
  8
0
100
AcDbLine
 10
9.927789194170514
 20
12.21060862363698
 30
0.0
 11
9.927789194170514
 21
11.99261912260953
 31
0.0
  0
LINE
  5
769F
330
1F
100
AcDbEntity
  8
0
100
AcDbLine
 10
10.24541857118774
 20
11.99261912260953
 30
0.0
 11
10.24541857118774
 21
12.21060862363698
 31
0.0
  0
LINE
  5
76A0
330
1F
100
AcDbEntity
  8
0
100
AcDbLine
 10
10.1244169037526
 20
12.21060862363698
 30
0.0
 11
10.1244169037526
 21
11.99261912260953
 31
0.0
  0
LINE
  5
76A1
330
1F
100
AcDbEntity
  8
0
100
AcDbLine
 10
10.44240640478006
 20
11.99261912260953
 30
0.0
 11
10.44240640478006
 21
12.21060862363698
 31
0.0
  0
LINE
  5
76A2
330
1F
100
AcDbEntity
  8
0
100
AcDbLine
 10
10.32860721754939
 20
12.21060862363698
 30
0.0
 11
10.32860721754939
 21
11.99261912260953
 31
0.0
  0
LINE
  5
76A3
330
1F
100
AcDbEntity
  8
0
100
AcDbLine
 10
10.73734796915319
 20
12.01362079004467
 30
0.0
 11
10.73734796915319
 21
12.1727956025635
 31
0.0
  0
LINE
  5
76A4
330
1F
100
AcDbEntity
  8
0
100
AcDbLine
 10
10.83566182394423
 20
12.01362079004467
 30
0.0
 11
10.73734796915319
 21
12.01362079004467
 31
0.0
  0
LINE
  5
76A5
330
1F
100
AcDbEntity
  8
0
100
AcDbLine
 10
10.73734796915319
 20
12.1727956025635
 30
0.0
 11
10.83566182394423
 21
12.1727956025635
 31
0.0
  0
LINE
  5
76A6
330
1F
100
AcDbEntity
  8
0
100
AcDbLine
 10
10.5407202595711
 20
12.01362079004467
 30
0.0
 11
10.5407202595711
 21
12.1727956025635
 31
0.0
  0
LINE
  5
76A7
330
1F
100
AcDbEntity
  8
0
100
AcDbLine
 10
10.63903411436214
 20
12.01362079004467
 30
0.0
 11
10.5407202595711
 21
12.01362079004467
 31
0.0
  0
LINE
  5
76A8
330
1F
100
AcDbEntity
  8
0
100
AcDbLine
 10
10.5407202595711
 20
12.1727956025635
 30
0.0
 11
10.63903411436214
 21
12.1727956025635
 31
0.0
  0
LINE
  5
76A9
330
1F
100
AcDbEntity
  8
0
100
AcDbLine
 10
10.63903411436214
 20
11.99261912260953
 30
0.0
 11
10.63903411436214
 21
12.21060862363698
 31
0.0
  0
LINE
  5
76AA
330
1F
100
AcDbEntity
  8
0
100
AcDbLine
 10
10.5255950511417
 20
12.21060862363698
 30
0.0
 11
10.5255950511417
 21
11.99261912260953
 31
0.0
  0
LINE
  5
76AB
330
1F
100
AcDbEntity
  8
0
100
AcDbLine
 10
10.83566182394423
 20
11.99261912260953
 30
0.0
 11
10.83566182394423
 21
12.21060862363698
 31
0.0
  0
LINE
  5
76AC
330
1F
100
AcDbEntity
  8
0
100
AcDbLine
 10
10.7222227607238
 20
12.21060862363698
 30
0.0
 11
10.7222227607238
 21
11.99261912260953
 31
0.0
  0
LINE
  5
76AD
330
1F
100
AcDbEntity
  8
0
100
AcDbLine
 10
9.337545941414013
 20
11.99261912260953
 30
0.0
 11
9.458547608849148
 21
11.99261912260953
 31
0.0
  0
LINE
  5
76AE
330
1F
100
AcDbEntity
  8
0
100
AcDbLine
 10
9.534173650996105
 20
11.99261912260953
 30
0.0
 11
9.65517531843124
 21
11.99261912260953
 31
0.0
  0
LINE
  5
76AF
330
1F
100
AcDbEntity
  8
0
100
AcDbLine
 10
9.730801360578198
 20
11.99261912260953
 30
0.0
 11
9.852163152023557
 21
11.99261912260953
 31
0.0
  0
LINE
  5
76B0
330
1F
100
AcDbEntity
  8
0
100
AcDbLine
 10
9.927789194170514
 20
11.99261912260953
 30
0.0
 11
10.04915098561587
 21
11.99261912260953
 31
0.0
  0
LINE
  5
76B1
330
1F
100
AcDbEntity
  8
0
100
AcDbLine
 10
10.1244169037526
 20
11.99261912260953
 30
0.0
 11
10.24577869519796
 21
11.99261912260953
 31
0.0
  0
LINE
  5
76B2
330
1F
100
AcDbEntity
  8
0
100
AcDbLine
 10
10.32860721754939
 20
11.99261912260953
 30
0.0
 11
10.44240640478006
 21
11.99261912260953
 31
0.0
  0
LINE
  5
76B3
330
1F
100
AcDbEntity
  8
0
100
AcDbLine
 10
10.5255950511417
 20
11.99261912260953
 30
0.0
 11
10.63939423837237
 21
11.99261912260953
 31
0.0
  0
LINE
  5
76B4
330
1F
100
AcDbEntity
  8
0
100
AcDbLine
 10
10.7222227607238
 20
11.99261912260953
 30
0.0
 11
10.83602194795446
 21
11.99261912260953
 31
0.0
  0
LINE
  5
76B5
330
1F
100
AcDbEntity
  8
0
100
AcDbLine
 10
9.32726069496703
 20
12.73423266554822
 30
0.0
 11
9.32726069496703
 21
13.13403279317051
 31
0.0
  0
LINE
  5
76B6
330
1F
100
AcDbEntity
  8
0
100
AcDbLine
 10
9.32726069496703
 20
13.13403279317051
 30
0.0
 11
10.66379180838084
 21
13.13403279317051
 31
0.0
  0
LINE
  5
76B7
330
1F
100
AcDbEntity
  8
0
100
AcDbLine
 10
10.66379180838084
 20
13.13403279317051
 30
0.0
 11
10.66379180838084
 21
12.73423266554822
 31
0.0
  0
LINE
  5
76B8
330
1F
100
AcDbEntity
  8
0
100
AcDbLine
 10
12.30867969496706
 20
12.73423266554822
 30
0.0
 11
12.30867969496706
 21
13.13403279317051
 31
0.0
  0
LINE
  5
76B9
330
1F
100
AcDbEntity
  8
0
100
AcDbLine
 10
12.30867969496706
 20
13.13403279317051
 30
0.0
 11
10.97214858155325
 21
13.13403279317051
 31
0.0
  0
LINE
  5
76BA
330
1F
100
AcDbEntity
  8
0
100
AcDbLine
 10
10.97214858155325
 20
13.13403279317051
 30
0.0
 11
10.97214858155325
 21
12.73423266554822
 31
0.0
  0
LINE
  5
76BB
330
1F
100
AcDbEntity
  8
0
100
AcDbLine
 10
9.175480194967043
 20
12.67123266554822
 30
0.0
 11
9.195480194967043
 21
12.19623266554822
 31
0.0
  0
ARC
  5
76BC
330
1F
100
AcDbEntity
  8
0
100
AcDbCircle
 10
9.308484665703701
 20
12.19953495889849
 30
0.0
 40
0.1130527113688283
100
AcDbArc
 50
181.6738597967051
 51
265.5601218613943
  0
LINE
  5
76BD
330
1F
100
AcDbEntity
  8
0
100
AcDbLine
 10
12.46046019496705
 20
12.67123266554822
 30
0.0
 11
12.44046019496705
 21
12.19623266554822
 31
0.0
  0
LINE
  5
76BE
330
1F
100
AcDbEntity
  8
0
100
AcDbLine
 10
9.32726069496703
 20
12.87334883855506
 30
0.0
 11
10.66379180838084
 21
12.87334883855506
 31
0.0
  0
LINE
  5
76BF
330
1F
100
AcDbEntity
  8
0
100
AcDbLine
 10
12.30867969496706
 20
12.87334883855506
 30
0.0
 11
10.97214858155325
 21
12.87334883855506
 31
0.0
  0
LINE
  5
76C0
330
1F
100
AcDbEntity
  8
0
100
AcDbLine
 10
14.97172532606561
 20
9.348646701191796
 30
0.0
 11
15.11084149907246
 21
9.348646701191796
 31
0.0
  0
LINE
  5
76C1
330
1F
100
AcDbEntity
  8
0
100
AcDbLine
 10
15.11084149907246
 20
9.348646701191796
 30
0.0
 11
15.11084149907246
 21
6.080521914051956
 31
0.0
  0
LINE
  5
76C2
330
1F
100
AcDbEntity
  8
0
100
AcDbLine
 10
15.11084149907246
 20
6.080521914051956
 30
0.0
 11
14.97172532606561
 21
6.080521914051956
 31
0.0
  0
LINE
  5
76C3
330
1F
100
AcDbEntity
  8
0
100
AcDbLine
 10
15.11084149907246
 20
7.803636038433044
 30
0.0
 11
15.37203743937987
 21
7.803636038433044
 31
0.0
  0
LINE
  5
76C4
330
1F
100
AcDbEntity
  8
0
100
AcDbLine
 10
15.37203743937987
 20
7.803636038433044
 30
0.0
 11
15.37203743937987
 21
6.130521914051957
 31
0.0
  0
LINE
  5
76C5
330
1F
100
AcDbEntity
  8
0
100
AcDbLine
 10
15.37203743937987
 20
6.130521914051957
 30
0.0
 11
15.11084149907246
 21
6.130521914051957
 31
0.0
  0
DIMENSION
  5
76C6
330
1F
100
AcDbEntity
  8
DIM
100
AcDbDimension
  2
*D1
 10
7.492447934030852
 20
10.83578447089278
 30
0.0
 11
6.877531658794854
 21
10.83578447089278
 31
0.0
 70
   160
 71
     5
 42
1.228544983476634
  3
Standard
100
AcDbAlignedDimension
 13
6.263902950554218
 23
7.803636038433044
 33
0.0
 14
7.492447934030852
 24
9.719955447015649
 34
0.0
100
AcDbRotatedDimension
1001
ACAD
1000
DSTYLE
1002
{
1070
   170
1070
     1
1002
}
  0
LINE
  5
76C7
330
1F
100
AcDbEntity
  8
0
100
AcDbLine
 10
14.14349245590324
 20
9.782455447015649
 30
0.0
 11
14.41527112251848
 21
9.794605710972987
 31
0.0
  0
LINE
  5
76C8
330
1F
100
AcDbEntity
  8
0
100
AcDbLine
 10
14.14349245590324
 20
9.516040656725255
 30
0.0
 11
14.14349245590324
 21
9.782455447015649
 31
0.0
  0
LINE
  5
76C9
330
1F
100
AcDbEntity
  8
0
100
AcDbLine
 10
12.38863648402954
 20
12.21060862363698
 30
0.0
 11
12.38863648402954
 21
12.67123266554822
 31
0.0
  0
LINE
  5
76CA
330
1F
100
AcDbEntity
  8
0
100
AcDbLine
 10
10.81797019496704
 20
12.21060862363698
 30
0.0
 11
10.81797019496704
 21
12.67123266554822
 31
0.0
  0
LINE
  5
76CB
330
1F
100
AcDbEntity
  8
0
100
AcDbLine
 10
11.86196970060529
 20
12.33061136474995
 30
0.0
 11
11.86196970060529
 21
12.48978617726879
 31
0.0
  0
LINE
  5
76CC
330
1F
100
AcDbEntity
  8
0
100
AcDbLine
 10
11.96064367940657
 20
12.33061136474995
 30
0.0
 11
11.86196970060529
 21
12.33061136474995
 31
0.0
  0
LINE
  5
76CD
330
1F
100
AcDbEntity
  8
0
100
AcDbLine
 10
11.86196970060529
 20
12.48978617726879
 30
0.0
 11
11.96064367940657
 21
12.48978617726879
 31
0.0
  0
LINE
  5
76CE
330
1F
100
AcDbEntity
  8
0
100
AcDbLine
 10
11.6653419910232
 20
12.33061136474995
 30
0.0
 11
11.6653419910232
 21
12.48978617726879
 31
0.0
  0
LINE
  5
76CF
330
1F
100
AcDbEntity
  8
0
100
AcDbLine
 10
11.76365584581425
 20
12.33061136474995
 30
0.0
 11
11.6653419910232
 21
12.33061136474995
 31
0.0
  0
LINE
  5
76D0
330
1F
100
AcDbEntity
  8
0
100
AcDbLine
 10
11.6653419910232
 20
12.48978617726879
 30
0.0
 11
11.76365584581425
 21
12.48978617726879
 31
0.0
  0
LINE
  5
76D1
330
1F
100
AcDbEntity
  8
0
100
AcDbLine
 10
11.46871428144111
 20
12.33061136474995
 30
0.0
 11
11.46871428144111
 21
12.48978617726879
 31
0.0
  0
LINE
  5
76D2
330
1F
100
AcDbEntity
  8
0
100
AcDbLine
 10
11.56702813623216
 20
12.33061136474995
 30
0.0
 11
11.46871428144111
 21
12.33061136474995
 31
0.0
  0
LINE
  5
76D3
330
1F
100
AcDbEntity
  8
0
100
AcDbLine
 10
11.46871428144111
 20
12.48978617726879
 30
0.0
 11
11.56702813623216
 21
12.48978617726879
 31
0.0
  0
LINE
  5
76D4
330
1F
100
AcDbEntity
  8
0
100
AcDbLine
 10
11.27172644784879
 20
12.33061136474995
 30
0.0
 11
11.27172644784879
 21
12.48978617726879
 31
0.0
  0
LINE
  5
76D5
330
1F
100
AcDbEntity
  8
0
100
AcDbLine
 10
11.37040042665007
 20
12.33061136474995
 30
0.0
 11
11.27172644784879
 21
12.33061136474995
 31
0.0
  0
LINE
  5
76D6
330
1F
100
AcDbEntity
  8
0
100
AcDbLine
 10
11.27172644784879
 20
12.48978617726879
 30
0.0
 11
11.37040042665007
 21
12.48978617726879
 31
0.0
  0
LINE
  5
76D7
330
1F
100
AcDbEntity
  8
0
100
AcDbLine
 10
11.0750987382667
 20
12.33061136474995
 30
0.0
 11
11.0750987382667
 21
12.48978617726879
 31
0.0
  0
LINE
  5
76D8
330
1F
100
AcDbEntity
  8
0
100
AcDbLine
 10
11.17341259305775
 20
12.33061136474995
 30
0.0
 11
11.0750987382667
 21
12.33061136474995
 31
0.0
  0
LINE
  5
76D9
330
1F
100
AcDbEntity
  8
0
100
AcDbLine
 10
11.0750987382667
 20
12.48978617726879
 30
0.0
 11
11.17341259305775
 21
12.48978617726879
 31
0.0
  0
LINE
  5
76DA
330
1F
100
AcDbEntity
  8
0
100
AcDbLine
 10
10.87847102868461
 20
12.33061136474995
 30
0.0
 11
10.87847102868461
 21
12.48978617726879
 31
0.0
  0
LINE
  5
76DB
330
1F
100
AcDbEntity
  8
0
100
AcDbLine
 10
10.97678488347566
 20
12.33061136474995
 30
0.0
 11
10.87847102868461
 21
12.33061136474995
 31
0.0
  0
LINE
  5
76DC
330
1F
100
AcDbEntity
  8
0
100
AcDbLine
 10
10.87847102868461
 20
12.48978617726879
 30
0.0
 11
10.97678488347566
 21
12.48978617726879
 31
0.0
  0
LINE
  5
76DD
330
1F
100
AcDbEntity
  8
0
100
AcDbLine
 10
10.97678488347566
 20
12.30960969731482
 30
0.0
 11
10.97678488347566
 21
12.52759919834227
 31
0.0
  0
LINE
  5
76DE
330
1F
100
AcDbEntity
  8
0
100
AcDbLine
 10
10.85578321604052
 20
12.52759919834227
 30
0.0
 11
10.85578321604052
 21
12.30960969731482
 31
0.0
  0
LINE
  5
76DF
330
1F
100
AcDbEntity
  8
0
100
AcDbLine
 10
11.17341259305775
 20
12.30960969731482
 30
0.0
 11
11.17341259305775
 21
12.52759919834227
 31
0.0
  0
LINE
  5
76E0
330
1F
100
AcDbEntity
  8
0
100
AcDbLine
 10
11.05241092562261
 20
12.52759919834227
 30
0.0
 11
11.05241092562261
 21
12.30960969731482
 31
0.0
  0
LINE
  5
76E1
330
1F
100
AcDbEntity
  8
0
100
AcDbLine
 10
11.37040042665007
 20
12.30960969731482
 30
0.0
 11
11.37040042665007
 21
12.52759919834227
 31
0.0
  0
LINE
  5
76E2
330
1F
100
AcDbEntity
  8
0
100
AcDbLine
 10
11.24903863520471
 20
12.52759919834227
 30
0.0
 11
11.24903863520471
 21
12.30960969731482
 31
0.0
  0
LINE
  5
76E3
330
1F
100
AcDbEntity
  8
0
100
AcDbLine
 10
11.56702813623216
 20
12.30960969731482
 30
0.0
 11
11.56702813623216
 21
12.52759919834227
 31
0.0
  0
LINE
  5
76E4
330
1F
100
AcDbEntity
  8
0
100
AcDbLine
 10
11.44602646879702
 20
12.52759919834227
 30
0.0
 11
11.44602646879702
 21
12.30960969731482
 31
0.0
  0
LINE
  5
76E5
330
1F
100
AcDbEntity
  8
0
100
AcDbLine
 10
11.76365584581425
 20
12.30960969731482
 30
0.0
 11
11.76365584581425
 21
12.52759919834227
 31
0.0
  0
LINE
  5
76E6
330
1F
100
AcDbEntity
  8
0
100
AcDbLine
 10
11.64265417837911
 20
12.52759919834227
 30
0.0
 11
11.64265417837911
 21
12.30960969731482
 31
0.0
  0
LINE
  5
76E7
330
1F
100
AcDbEntity
  8
0
100
AcDbLine
 10
11.96064367940657
 20
12.30960969731482
 30
0.0
 11
11.96064367940657
 21
12.52759919834227
 31
0.0
  0
LINE
  5
76E8
330
1F
100
AcDbEntity
  8
0
100
AcDbLine
 10
11.8468444921759
 20
12.52759919834227
 30
0.0
 11
11.8468444921759
 21
12.30960969731482
 31
0.0
  0
LINE
  5
76E9
330
1F
100
AcDbEntity
  8
0
100
AcDbLine
 10
12.2555852437797
 20
12.33061136474995
 30
0.0
 11
12.2555852437797
 21
12.48978617726879
 31
0.0
  0
LINE
  5
76EA
330
1F
100
AcDbEntity
  8
0
100
AcDbLine
 10
12.35389909857074
 20
12.33061136474995
 30
0.0
 11
12.2555852437797
 21
12.33061136474995
 31
0.0
  0
LINE
  5
76EB
330
1F
100
AcDbEntity
  8
0
100
AcDbLine
 10
12.2555852437797
 20
12.48978617726879
 30
0.0
 11
12.35389909857074
 21
12.48978617726879
 31
0.0
  0
LINE
  5
76EC
330
1F
100
AcDbEntity
  8
0
100
AcDbLine
 10
12.05895753419761
 20
12.33061136474995
 30
0.0
 11
12.05895753419761
 21
12.48978617726879
 31
0.0
  0
LINE
  5
76ED
330
1F
100
AcDbEntity
  8
0
100
AcDbLine
 10
12.15727138898866
 20
12.33061136474995
 30
0.0
 11
12.05895753419761
 21
12.33061136474995
 31
0.0
  0
LINE
  5
76EE
330
1F
100
AcDbEntity
  8
0
100
AcDbLine
 10
12.05895753419761
 20
12.48978617726879
 30
0.0
 11
12.15727138898866
 21
12.48978617726879
 31
0.0
  0
LINE
  5
76EF
330
1F
100
AcDbEntity
  8
0
100
AcDbLine
 10
12.15727138898866
 20
12.30960969731482
 30
0.0
 11
12.15727138898866
 21
12.52759919834227
 31
0.0
  0
LINE
  5
76F0
330
1F
100
AcDbEntity
  8
0
100
AcDbLine
 10
12.04383232576822
 20
12.52759919834227
 30
0.0
 11
12.04383232576822
 21
12.30960969731482
 31
0.0
  0
LINE
  5
76F1
330
1F
100
AcDbEntity
  8
0
100
AcDbLine
 10
12.35389909857074
 20
12.30960969731482
 30
0.0
 11
12.35389909857074
 21
12.52759919834227
 31
0.0
  0
LINE
  5
76F2
330
1F
100
AcDbEntity
  8
0
100
AcDbLine
 10
12.24046003535031
 20
12.52759919834227
 30
0.0
 11
12.24046003535031
 21
12.30960969731482
 31
0.0
  0
LINE
  5
76F3
330
1F
100
AcDbEntity
  8
0
100
AcDbLine
 10
10.85578321604052
 20
12.30960969731482
 30
0.0
 11
10.97678488347566
 21
12.30960969731482
 31
0.0
  0
LINE
  5
76F4
330
1F
100
AcDbEntity
  8
0
100
AcDbLine
 10
11.05241092562261
 20
12.30960969731482
 30
0.0
 11
11.17341259305775
 21
12.30960969731482
 31
0.0
  0
LINE
  5
76F5
330
1F
100
AcDbEntity
  8
0
100
AcDbLine
 10
11.24903863520471
 20
12.30960969731482
 30
0.0
 11
11.37040042665007
 21
12.30960969731482
 31
0.0
  0
LINE
  5
76F6
330
1F
100
AcDbEntity
  8
0
100
AcDbLine
 10
11.44602646879702
 20
12.30960969731482
 30
0.0
 11
11.56738826024238
 21
12.30960969731482
 31
0.0
  0
LINE
  5
76F7
330
1F
100
AcDbEntity
  8
0
100
AcDbLine
 10
11.64265417837911
 20
12.30960969731482
 30
0.0
 11
11.76401596982447
 21
12.30960969731482
 31
0.0
  0
LINE
  5
76F8
330
1F
100
AcDbEntity
  8
0
100
AcDbLine
 10
11.8468444921759
 20
12.30960969731482
 30
0.0
 11
11.96064367940657
 21
12.30960969731482
 31
0.0
  0
LINE
  5
76F9
330
1F
100
AcDbEntity
  8
0
100
AcDbLine
 10
12.04383232576822
 20
12.30960969731482
 30
0.0
 11
12.15763151299888
 21
12.30960969731482
 31
0.0
  0
LINE
  5
76FA
330
1F
100
AcDbEntity
  8
0
100
AcDbLine
 10
12.24046003535031
 20
12.30960969731482
 30
0.0
 11
12.35425922258097
 21
12.30960969731482
 31
0.0
  0
LINE
  5
76FB
330
1F
100
AcDbEntity
  8
0
100
AcDbLine
 10
11.91439871504128
 20
12.01362079004467
 30
0.0
 11
11.91439871504128
 21
12.1727956025635
 31
0.0
  0
LINE
  5
76FC
330
1F
100
AcDbEntity
  8
0
100
AcDbLine
 10
12.01307269384255
 20
12.01362079004467
 30
0.0
 11
11.91439871504128
 21
12.01362079004467
 31
0.0
  0
LINE
  5
76FD
330
1F
100
AcDbEntity
  8
0
100
AcDbLine
 10
11.91439871504128
 20
12.1727956025635
 30
0.0
 11
12.01307269384255
 21
12.1727956025635
 31
0.0
  0
LINE
  5
76FE
330
1F
100
AcDbEntity
  8
0
100
AcDbLine
 10
11.71777100545918
 20
12.01362079004467
 30
0.0
 11
11.71777100545918
 21
12.1727956025635
 31
0.0
  0
LINE
  5
76FF
330
1F
100
AcDbEntity
  8
0
100
AcDbLine
 10
11.81608486025023
 20
12.01362079004467
 30
0.0
 11
11.71777100545918
 21
12.01362079004467
 31
0.0
  0
LINE
  5
7700
330
1F
100
AcDbEntity
  8
0
100
AcDbLine
 10
11.71777100545918
 20
12.1727956025635
 30
0.0
 11
11.81608486025023
 21
12.1727956025635
 31
0.0
  0
LINE
  5
7701
330
1F
100
AcDbEntity
  8
0
100
AcDbLine
 10
11.52114329587709
 20
12.01362079004467
 30
0.0
 11
11.52114329587709
 21
12.1727956025635
 31
0.0
  0
LINE
  5
7702
330
1F
100
AcDbEntity
  8
0
100
AcDbLine
 10
11.61945715066814
 20
12.01362079004467
 30
0.0
 11
11.52114329587709
 21
12.01362079004467
 31
0.0
  0
LINE
  5
7703
330
1F
100
AcDbEntity
  8
0
100
AcDbLine
 10
11.52114329587709
 20
12.1727956025635
 30
0.0
 11
11.61945715066814
 21
12.1727956025635
 31
0.0
  0
LINE
  5
7704
330
1F
100
AcDbEntity
  8
0
100
AcDbLine
 10
11.32415546228478
 20
12.01362079004467
 30
0.0
 11
11.32415546228478
 21
12.1727956025635
 31
0.0
  0
LINE
  5
7705
330
1F
100
AcDbEntity
  8
0
100
AcDbLine
 10
11.42282944108605
 20
12.01362079004467
 30
0.0
 11
11.32415546228478
 21
12.01362079004467
 31
0.0
  0
LINE
  5
7706
330
1F
100
AcDbEntity
  8
0
100
AcDbLine
 10
11.32415546228478
 20
12.1727956025635
 30
0.0
 11
11.42282944108605
 21
12.1727956025635
 31
0.0
  0
LINE
  5
7707
330
1F
100
AcDbEntity
  8
0
100
AcDbLine
 10
11.12752775270269
 20
12.01362079004467
 30
0.0
 11
11.12752775270269
 21
12.1727956025635
 31
0.0
  0
LINE
  5
7708
330
1F
100
AcDbEntity
  8
0
100
AcDbLine
 10
11.22584160749373
 20
12.01362079004467
 30
0.0
 11
11.12752775270269
 21
12.01362079004467
 31
0.0
  0
LINE
  5
7709
330
1F
100
AcDbEntity
  8
0
100
AcDbLine
 10
11.12752775270269
 20
12.1727956025635
 30
0.0
 11
11.22584160749373
 21
12.1727956025635
 31
0.0
  0
LINE
  5
770A
330
1F
100
AcDbEntity
  8
0
100
AcDbLine
 10
10.93090004312059
 20
12.01362079004467
 30
0.0
 11
10.93090004312059
 21
12.1727956025635
 31
0.0
  0
LINE
  5
770B
330
1F
100
AcDbEntity
  8
0
100
AcDbLine
 10
11.02921389791164
 20
12.01362079004467
 30
0.0
 11
10.93090004312059
 21
12.01362079004467
 31
0.0
  0
LINE
  5
770C
330
1F
100
AcDbEntity
  8
0
100
AcDbLine
 10
10.93090004312059
 20
12.1727956025635
 30
0.0
 11
11.02921389791164
 21
12.1727956025635
 31
0.0
  0
LINE
  5
770D
330
1F
100
AcDbEntity
  8
0
100
AcDbLine
 10
11.02921389791164
 20
11.99261912260953
 30
0.0
 11
11.02921389791164
 21
12.21060862363698
 31
0.0
  0
LINE
  5
770E
330
1F
100
AcDbEntity
  8
0
100
AcDbLine
 10
10.90821223047651
 20
12.21060862363698
 30
0.0
 11
10.90821223047651
 21
11.99261912260953
 31
0.0
  0
LINE
  5
770F
330
1F
100
AcDbEntity
  8
0
100
AcDbLine
 10
11.22584160749373
 20
11.99261912260953
 30
0.0
 11
11.22584160749373
 21
12.21060862363698
 31
0.0
  0
LINE
  5
7710
330
1F
100
AcDbEntity
  8
0
100
AcDbLine
 10
11.1048399400586
 20
12.21060862363698
 30
0.0
 11
11.1048399400586
 21
11.99261912260953
 31
0.0
  0
LINE
  5
7711
330
1F
100
AcDbEntity
  8
0
100
AcDbLine
 10
11.42282944108605
 20
11.99261912260953
 30
0.0
 11
11.42282944108605
 21
12.21060862363698
 31
0.0
  0
LINE
  5
7712
330
1F
100
AcDbEntity
  8
0
100
AcDbLine
 10
11.30146764964069
 20
12.21060862363698
 30
0.0
 11
11.30146764964069
 21
11.99261912260953
 31
0.0
  0
LINE
  5
7713
330
1F
100
AcDbEntity
  8
0
100
AcDbLine
 10
11.61945715066814
 20
11.99261912260953
 30
0.0
 11
11.61945715066814
 21
12.21060862363698
 31
0.0
  0
LINE
  5
7714
330
1F
100
AcDbEntity
  8
0
100
AcDbLine
 10
11.49845548323301
 20
12.21060862363698
 30
0.0
 11
11.49845548323301
 21
11.99261912260953
 31
0.0
  0
LINE
  5
7715
330
1F
100
AcDbEntity
  8
0
100
AcDbLine
 10
11.81608486025023
 20
11.99261912260953
 30
0.0
 11
11.81608486025023
 21
12.21060862363698
 31
0.0
  0
LINE
  5
7716
330
1F
100
AcDbEntity
  8
0
100
AcDbLine
 10
11.6950831928151
 20
12.21060862363698
 30
0.0
 11
11.6950831928151
 21
11.99261912260953
 31
0.0
  0
LINE
  5
7717
330
1F
100
AcDbEntity
  8
0
100
AcDbLine
 10
12.01307269384255
 20
11.99261912260953
 30
0.0
 11
12.01307269384255
 21
12.21060862363698
 31
0.0
  0
LINE
  5
7718
330
1F
100
AcDbEntity
  8
0
100
AcDbLine
 10
11.89927350661189
 20
12.21060862363698
 30
0.0
 11
11.89927350661189
 21
11.99261912260953
 31
0.0
  0
LINE
  5
7719
330
1F
100
AcDbEntity
  8
0
100
AcDbLine
 10
12.30801425821568
 20
12.01362079004467
 30
0.0
 11
12.30801425821568
 21
12.1727956025635
 31
0.0
  0
LINE
  5
771A
330
1F
100
AcDbEntity
  8
0
100
AcDbLine
 10
12.40632811300673
 20
12.01362079004467
 30
0.0
 11
12.30801425821568
 21
12.01362079004467
 31
0.0
  0
LINE
  5
771B
330
1F
100
AcDbEntity
  8
0
100
AcDbLine
 10
12.30801425821568
 20
12.1727956025635
 30
0.0
 11
12.40632811300673
 21
12.1727956025635
 31
0.0
  0
LINE
  5
771C
330
1F
100
AcDbEntity
  8
0
100
AcDbLine
 10
12.1113865486336
 20
12.01362079004467
 30
0.0
 11
12.1113865486336
 21
12.1727956025635
 31
0.0
  0
LINE
  5
771D
330
1F
100
AcDbEntity
  8
0
100
AcDbLine
 10
12.20970040342464
 20
12.01362079004467
 30
0.0
 11
12.1113865486336
 21
12.01362079004467
 31
0.0
  0
LINE
  5
771E
330
1F
100
AcDbEntity
  8
0
100
AcDbLine
 10
12.1113865486336
 20
12.1727956025635
 30
0.0
 11
12.20970040342464
 21
12.1727956025635
 31
0.0
  0
LINE
  5
771F
330
1F
100
AcDbEntity
  8
0
100
AcDbLine
 10
12.20970040342464
 20
11.99261912260953
 30
0.0
 11
12.20970040342464
 21
12.21060862363698
 31
0.0
  0
LINE
  5
7720
330
1F
100
AcDbEntity
  8
0
100
AcDbLine
 10
12.0962613402042
 20
12.21060862363698
 30
0.0
 11
12.0962613402042
 21
11.99261912260953
 31
0.0
  0
LINE
  5
7721
330
1F
100
AcDbEntity
  8
0
100
AcDbLine
 10
12.40632811300673
 20
11.99261912260953
 30
0.0
 11
12.40632811300673
 21
12.21060862363698
 31
0.0
  0
LINE
  5
7722
330
1F
100
AcDbEntity
  8
0
100
AcDbLine
 10
12.29288904978629
 20
12.21060862363698
 30
0.0
 11
12.29288904978629
 21
11.99261912260953
 31
0.0
  0
LINE
  5
7723
330
1F
100
AcDbEntity
  8
0
100
AcDbLine
 10
10.90821223047651
 20
11.99261912260953
 30
0.0
 11
11.02921389791164
 21
11.99261912260953
 31
0.0
  0
LINE
  5
7724
330
1F
100
AcDbEntity
  8
0
100
AcDbLine
 10
11.1048399400586
 20
11.99261912260953
 30
0.0
 11
11.22584160749373
 21
11.99261912260953
 31
0.0
  0
LINE
  5
7725
330
1F
100
AcDbEntity
  8
0
100
AcDbLine
 10
11.30146764964069
 20
11.99261912260953
 30
0.0
 11
11.42282944108605
 21
11.99261912260953
 31
0.0
  0
LINE
  5
7726
330
1F
100
AcDbEntity
  8
0
100
AcDbLine
 10
11.49845548323301
 20
11.99261912260953
 30
0.0
 11
11.61981727467837
 21
11.99261912260953
 31
0.0
  0
LINE
  5
7727
330
1F
100
AcDbEntity
  8
0
100
AcDbLine
 10
11.6950831928151
 20
11.99261912260953
 30
0.0
 11
11.81644498426045
 21
11.99261912260953
 31
0.0
  0
LINE
  5
7728
330
1F
100
AcDbEntity
  8
0
100
AcDbLine
 10
11.89927350661189
 20
11.99261912260953
 30
0.0
 11
12.01307269384255
 21
11.99261912260953
 31
0.0
  0
LINE
  5
7729
330
1F
100
AcDbEntity
  8
0
100
AcDbLine
 10
12.0962613402042
 20
11.99261912260953
 30
0.0
 11
12.21006052743486
 21
11.99261912260953
 31
0.0
  0
LINE
  5
772A
330
1F
100
AcDbEntity
  8
0
100
AcDbLine
 10
12.29288904978629
 20
11.99261912260953
 30
0.0
 11
12.40668823701696
 21
11.99261912260953
 31
0.0
  0
LINE
  5
772B
330
1F
100
AcDbEntity
  8
0
100
AcDbLine
 10
9.299732920340535
 20
12.21060862363698
 30
0.0
 11
9.299732920340535
 21
11.90300535349136
 31
0.0
  0
LINE
  5
772C
330
1F
100
AcDbEntity
  8
0
100
AcDbLine
 10
9.247303905904551
 20
12.21060862363698
 30
0.0
 11
12.44106549846552
 21
12.21060862363698
 31
0.0
  0
LINE
  5
772D
330
1F
100
AcDbEntity
  8
0
100
AcDbLine
 10
10.87039920940303
 20
12.21060862363698
 30
0.0
 11
10.87039920940303
 21
11.90300535349136
 31
0.0
  0
LINE
  5
772E
330
1F
100
AcDbEntity
  8
0
100
AcDbLine
 10
12.44106549846552
 20
11.90300535349136
 30
0.0
 11
12.44106549846552
 21
12.21060862363698
 31
0.0
  0
LWPOLYLINE
  5
79BC
330
1F
100
AcDbEntity
  8
0
100
AcDbPolyline
 90
        4
 70
     1
 43
0.0
 10
0.0
 20
0.0
 10
22.0
 20
0.0
 10
22.0
 20
17.0
 10
0.0
 20
17.0
  0
ENDSEC
  0
SECTION
  2
OBJECTS
  0
DICTIONARY
  5
C
330
0
100
AcDbDictionary
281
     1
  3
ACAD_ASSOCPERSSUBENTMANAGER
350
3F01
  3
ACAD_BACKGROUND
350
5499
  3
ACAD_COLOR
350
5D
  3
ACAD_GROUP
350
D
  3
ACAD_LAYOUT
350
1A
  3
ACAD_MATERIAL
350
33
  3
ACAD_MLEADERSTYLE
350
82
  3
ACAD_MLINESTYLE
350
17
  3
ACAD_PERSUBENTMGR
350
58ED
  3
ACAD_PLOTSETTINGS
350
19
  3
ACAD_PLOTSTYLENAME
350
E
  3
ACAD_SCALELIST
350
60
  3
ACAD_TABLESTYLE
350
5E
  3
ACAD_VISUALSTYLE
350
4C
  3
ACAD_WIPEOUT_VARS
350
5C61
  3
ACADE_WIRETYPE
350
226D
  3
ACDB_RECOMPOSE_DATA
350
7C79
  3
AcDbVariableDictionary
350
8A
  3
AEC_PROPERTY_SET_DEFS
350
2A20
  3
ASE_INDEX_DICTIONARY
350
2834
  3
DWGPROPS
350
7CC1
  0
DICTIONARY
  5
181
330
8
100
AcDbDictionary
280
     1
281
     1
  0
DICTIONARY
  5
107
330
2
100
AcDbDictionary
280
     1
281
     1
  3
ACAD_LAYERSTATES
360
108
  0
DICTIONARY
  5
17C
330
10
100
AcDbDictionary
280
     1
281
     1
  3
ADSK_XREC_LAYER_RECONCILED
360
284E
  0
DICTIONARY
  5
17A
330
1F
100
AcDbDictionary
280
     1
281
     1
  3
ACAD_SORTENTS
360
17B
  0
ACAD_PROXY_OBJECT
  5
3F01
102
{ACAD_REACTORS
330
C
102
}
330
C
100
AcDbProxyObject
 90
      499
 91
      519
 95
   983063
 70
     0
 93
       73
310
40503902218040002A7F
 94
        0
1001
ACAD
1000
AcRTDxfName
1000
ACDBASSOCPERSSUBENTMANAGER
  0
DICTIONARY
  5
5499
102
{ACAD_REACTORS
330
C
102
}
330
C
100
AcDbDictionary
281
     1
  0
DICTIONARY
  5
5D
102
{ACAD_REACTORS
330
C
102
}
330
C
100
AcDbDictionary
281
     1
  0
DICTIONARY
  5
D
102
{ACAD_REACTORS
330
C
102
}
330
C
100
AcDbDictionary
281
     1
  3
*A1
350
334E
  3
*A10
350
344A
  3
*A11
350
345F
  3
*A12
350
3474
  3
*A13
350
3489
  3
*A14
350
3363
  3
*A15
350
3378
  3
*A16
350
338D
  3
*A2
350
33A2
  3
*A3
350
33B7
  3
*A4
350
33CC
  3
*A5
350
33E1
  3
*A6
350
33F6
  3
*A7
350
340B
  3
*A8
350
3420
  3
*A9
350
3435
  0
DICTIONARY
  5
1A
102
{ACAD_REACTORS
330
C
102
}
330
C
100
AcDbDictionary
281
     1
  3
Layout1
350
1E
  3
Layout2
350
26
  3
Model
350
22
  0
DICTIONARY
  5
33
102
{ACAD_REACTORS
330
C
102
}
330
C
100
AcDbDictionary
281
     1
  3
ByBlock
350
3C
  3
ByLayer
350
34
  3
Global
350
44
  0
DICTIONARY
  5
82
102
{ACAD_REACTORS
330
C
102
}
330
C
100
AcDbDictionary
281
     1
  3
Standard
350
83
  0
DICTIONARY
  5
17
102
{ACAD_REACTORS
330
C
102
}
330
C
100
AcDbDictionary
281
     1
  3
Standard
350
18
  0
ACDBPERSSUBENTMANAGER
  5
58ED
102
{ACAD_REACTORS
330
C
102
}
330
C
100
AcDbPersSubentManager
 90
        2
 90
        0
 90
        2
 90
      390
 90
        0
 90
        0
  0
DICTIONARY
  5
19
102
{ACAD_REACTORS
330
C
102
}
330
C
100
AcDbDictionary
281
     1
  0
ACDBDICTIONARYWDFLT
  5
E
102
{ACAD_REACTORS
330
C
102
}
330
C
100
AcDbDictionary
281
     1
  3
Normal
350
F
100
AcDbDictionaryWithDefault
340
F
  0
DICTIONARY
  5
60
102
{ACAD_REACTORS
330
C
102
}
330
C
100
AcDbDictionary
281
     1
  3
A0
350
61
  3
A1
350
62
  3
A2
350
63
  3
A3
350
64
  3
A4
350
65
  3
A5
350
66
  3
A6
350
67
  3
A7
350
68
  3
A8
350
69
  3
A9
350
6A
  3
B0
350
6B
  3
B1
350
6C
  3
B2
350
6D
  3
B3
350
6E
  3
B4
350
6F
  3
B5
350
70
  3
B6
350
71
  3
B7
350
72
  3
B8
350
73
  3
B9
350
74
  3
C0
350
75
  3
C1
350
76
  3
C2
350
77
  3
C3
350
78
  3
C4
350
79
  3
C5
350
7A
  3
C6
350
7B
  3
C7
350
7C
  3
C8
350
7D
  3
C9
350
7E
  3
D0
350
7F
  3
D1
350
80
  3
D2
350
81
  0
DICTIONARY
  5
5E
102
{ACAD_REACTORS
330
C
102
}
330
C
100
AcDbDictionary
281
     1
  3
Standard
350
5F
  0
DICTIONARY
  5
4C
102
{ACAD_REACTORS
330
C
102
}
330
C
100
AcDbDictionary
281
     1
  3
2dWireframe
350
52
  3
3D Hidden
350
54
  3
3dWireframe
350
53
  3
Basic
350
51
  3
Brighten
350
58
  3
ColorChange
350
5C
  3
Conceptual
350
55
  3
Dim
350
57
  3
EdgeColorOff
350
2848
  3
Facepattern
350
5B
  3
Flat
350
4D
  3
FlatWithEdges
350
4E
  3
Gouraud
350
4F
  3
GouraudWithEdges
350
50
  3
Hidden
350
2840
  3
JitterOff
350
2846
  3
Linepattern
350
5A
  3
OverhangOff
350
2847
  3
Realistic
350
56
  3
Shaded
350
2845
  3
Shaded with edges
350
2844
  3
Shades of Gray
350
2841
  3
Sketchy
350
2842
  3
Thicken
350
59
  3
Wireframe
350
283F
  3
X-Ray
350
2843
  0
WIPEOUTVARIABLES
  5
5C61
102
{ACAD_REACTORS
330
C
102
}
330
C
100
AcDbWipeoutVariables
 70
     1
  0
DICTIONARY
  5
226D
102
{ACAD_REACTORS
330
C
102
}
330
C
100
AcDbDictionary
281
     1
  3
CURRENT_WIRELAY
350
226E
  0
XRECORD
  5
7C79
102
{ACAD_REACTORS
330
C
102
}
330
C
100
AcDbXrecord
280
     1
 90
        1
330
5F
  0
DICTIONARY
  5
8A
102
{ACAD_REACTORS
330
C
102
}
330
C
100
AcDbDictionary
281
     1
  3
CANNOSCALE
350
8E
  3
CMLEADERSTYLE
350
8C
  3
CTABLESTYLE
350
8B
  3
DIMASSOC
350
18F
  3
INDEXCTL
350
18E
  3
LAYEREVAL
350
217D
  3
LAYERNOTIFY
350
217E
  3
LIGHTINGUNITS
350
8F
  3
MSLTSCALE
350
8D
  3
SORTENTS
350
18D
  3
XCLIPFRAME
350
7CBC
  0
DICTIONARY
  5
2A20
102
{ACAD_REACTORS
330
C
102
}
330
C
100
AcDbDictionary
281
     1
  0
DICTIONARY
  5
2834
102
{ACAD_REACTORS
330
C
102
}
330
C
100
AcDbDictionary
281
     1
  3
ASEBlockHierarchyIndexRecord
350
2835
1001
DCO15
1040
1674887783.539
  0
XRECORD
  5
7CC1
102
{ACAD_REACTORS
330
C
102
}
330
C
100
AcDbXrecord
280
     1
  1
DWGPROPS COOKIE
  2

  3

  4

  6

  7

  8
dan
  9

300
Drawing Description 1=LINE 1 LINE 2 LINE 3
301
Drawing Description 2=
302
Drawing Description 3=
303
Project Code=
304
Installation Code=
305
Location Code=
306
Sheet=A02
307
Drawing=
308
Section=A
309
Sub-Section=12
 40
1.697157488425925
 41
2455646.34385588
 42
2456008.634570718
  1

 90
       10
  0
DICTIONARY
  5
108
102
{ACAD_REACTORS
330
107
102
}
330
107
100
AcDbDictionary
281
     1
  0
XRECORD
  5
284E
102
{ACAD_REACTORS
330
17C
102
}
330
17C
100
AcDbXrecord
280
     1
290
     1
  0
SORTENTSTABLE
  5
17B
102
{ACAD_REACTORS
330
17A
102
}
330
17A
100
AcDbSortentsTable
330
1F
  0
GROUP
  5
334E
102
{ACAD_REACTORS
330
D
102
}
330
D
100
AcDbGroup
300

 70
     1
 71
     1
  0
GROUP
  5
344A
102
{ACAD_REACTORS
330
D
102
}
330
D
100
AcDbGroup
300

 70
     1
 71
     1
  0
GROUP
  5
345F
102
{ACAD_REACTORS
330
D
102
}
330
D
100
AcDbGroup
300

 70
     1
 71
     1
  0
GROUP
  5
3474
102
{ACAD_REACTORS
330
D
102
}
330
D
100
AcDbGroup
300

 70
     1
 71
     1
  0
GROUP
  5
3489
102
{ACAD_REACTORS
330
D
102
}
330
D
100
AcDbGroup
300

 70
     1
 71
     1
  0
GROUP
  5
3363
102
{ACAD_REACTORS
330
D
102
}
330
D
100
AcDbGroup
300

 70
     1
 71
     1
  0
GROUP
  5
3378
102
{ACAD_REACTORS
330
D
102
}
330
D
100
AcDbGroup
300

 70
     1
 71
     1
  0
GROUP
  5
338D
102
{ACAD_REACTORS
330
D
102
}
330
D
100
AcDbGroup
300

 70
     1
 71
     1
  0
GROUP
  5
33A2
102
{ACAD_REACTORS
330
D
102
}
330
D
100
AcDbGroup
300

 70
     1
 71
     1
  0
GROUP
  5
33B7
102
{ACAD_REACTORS
330
D
102
}
330
D
100
AcDbGroup
300

 70
     1
 71
     1
  0
GROUP
  5
33CC
102
{ACAD_REACTORS
330
D
102
}
330
D
100
AcDbGroup
300

 70
     1
 71
     1
  0
GROUP
  5
33E1
102
{ACAD_REACTORS
330
D
102
}
330
D
100
AcDbGroup
300

 70
     1
 71
     1
  0
GROUP
  5
33F6
102
{ACAD_REACTORS
330
D
102
}
330
D
100
AcDbGroup
300

 70
     1
 71
     1
  0
GROUP
  5
340B
102
{ACAD_REACTORS
330
D
102
}
330
D
100
AcDbGroup
300

 70
     1
 71
     1
  0
GROUP
  5
3420
102
{ACAD_REACTORS
330
D
102
}
330
D
100
AcDbGroup
300

 70
     1
 71
     1
  0
GROUP
  5
3435
102
{ACAD_REACTORS
330
D
102
}
330
D
100
AcDbGroup
300

 70
     1
 71
     1
  0
LAYOUT
  5
1E
102
{ACAD_XDICTIONARY
360
7CC2
102
}
102
{ACAD_REACTORS
330
1A
102
}
330
1A
100
AcDbPlotSettings
  1

  2
Microsoft Office Document Image Writer
  4

  6

 40
0.0
 41
0.0
 42
0.0
 43
0.0
 44
0.0
 45
0.0
 46
0.0
 47
0.0
 48
0.0
 49
0.0
140
0.0
141
0.0
142
1.0
143
1.0
 70
   688
 72
     0
 73
     0
 74
     5
  7
monochromeII.ctb
 75
    16
147
1.0
148
0.0
149
0.0
100
AcDbLayout
  1
Layout1
 70
     1
 71
     1
 10
0.0
 20
0.0
 11
12.0
 21
9.0
 12
0.0
 22
0.0
 32
0.0
 14
1.000000000000000E+20
 24
1.000000000000000E+20
 34
1.000000000000000E+20
 15
-1.000000000000000E+20
 25
-1.000000000000000E+20
 35
-1.000000000000000E+20
146
0.0
 13
0.0
 23
0.0
 33
0.0
 16
1.0
 26
0.0
 36
0.0
 17
0.0
 27
1.0
 37
0.0
 76
     0
330
1B
  0
LAYOUT
  5
26
102
{ACAD_XDICTIONARY
360
7CC6
102
}
102
{ACAD_REACTORS
330
1A
102
}
330
1A
100
AcDbPlotSettings
  1

  2
Microsoft Office Document Image Writer
  4

  6

 40
0.0
 41
0.0
 42
0.0
 43
0.0
 44
0.0
 45
0.0
 46
0.0
 47
0.0
 48
0.0
 49
0.0
140
0.0
141
0.0
142
1.0
143
1.0
 70
   688
 72
     0
 73
     0
 74
     5
  7
monochromeII.ctb
 75
    16
147
1.0
148
0.0
149
0.0
100
AcDbLayout
  1
Layout2
 70
     1
 71
     2
 10
0.0
 20
0.0
 11
12.0
 21
9.0
 12
0.0
 22
0.0
 32
0.0
 14
0.0
 24
0.0
 34
0.0
 15
0.0
 25
0.0
 35
0.0
146
0.0
 13
0.0
 23
0.0
 33
0.0
 16
1.0
 26
0.0
 36
0.0
 17
0.0
 27
1.0
 37
0.0
 76
     0
330
23
  0
LAYOUT
  5
22
102
{ACAD_XDICTIONARY
360
7CC4
102
}
102
{ACAD_REACTORS
330
1A
102
}
330
1A
100
AcDbPlotSettings
  1

  2
Default Windows System Printer.pc3
  4
11x17
  6

 40
4.857749938964843
 41
4.857734680175781
 42
4.85772705078125
 43
4.857757568359375
 44
279.3999938964844
 45
431.7999877929687
 46
0.0
 47
2.649666526100765
 48
0.0
 49
0.0
140
0.0
141
0.0
142
1.0
143
2.072177197471839
 70
 11956
 72
     0
 73
     1
 74
     1
  7
monochromeII.ctb
 75
     0
147
0.4825842120162553
148
0.0263525400471963
149
0.0170517658604823
100
AcDbLayout
  1
Model
 70
     1
 71
     0
 10
0.0
 20
0.0
 11
12.0
 21
9.0
 12
0.0
 22
0.0
 32
0.0
 14
0.0
 24
0.0
 34
0.0
 15
0.0
 25
0.0
 35
0.0
146
0.0
 13
0.0
 23
0.0
 33
0.0
 16
1.0
 26
0.0
 36
0.0
 17
0.0
 27
1.0
 37
0.0
 76
     0
330
1F
331
31
1001
ACAD_PSEXT
1000
Default Windows System Printer.pc3
1000
Xerox WorkCentre 7335 PS
1000
Engineering Office
1000

1070
     0
  0
MATERIAL
  5
3C
102
{ACAD_XDICTIONARY
360
3D
102
}
102
{ACAD_REACTORS
330
33
102
}
330
33
100
AcDbMaterial
  1
ByBlock
 72
     0
 43
0.0208333333333333
 43
0.0
 43
0.0
 43
0.0
 43
0.0
 43
0.0208333333333333
 43
0.0
 43
0.0
 43
0.0
 43
0.0
 43
1.0
 43
0.0
 43
0.0
 43
0.0
 43
0.0
 43
1.0
 77
     0
 47
0.0208333333333333
 47
0.0
 47
0.0
 47
0.0
 47
0.0
 47
0.0208333333333333
 47
0.0
 47
0.0
 47
0.0
 47
0.0
 47
1.0
 47
0.0
 47
0.0
 47
0.0
 47
0.0
 47
1.0
171
     0
 49
0.0208333333333333
 49
0.0
 49
0.0
 49
0.0
 49
0.0
 49
0.0208333333333333
 49
0.0
 49
0.0
 49
0.0
 49
0.0
 49
1.0
 49
0.0
 49
0.0
 49
0.0
 49
0.0
 49
1.0
175
     0
142
0.0208333333333333
142
0.0
142
0.0
142
0.0
142
0.0
142
0.0208333333333333
142
0.0
142
0.0
142
0.0
142
0.0
142
1.0
142
0.0
142
0.0
142
0.0
142
0.0
142
1.0
179
     0
144
0.0208333333333333
144
0.0
144
0.0
144
0.0
144
0.0
144
0.0208333333333333
144
0.0
144
0.0
144
0.0
144
0.0
144
1.0
144
0.0
144
0.0
144
0.0
144
0.0
144
1.0
147
0.0208333333333333
147
0.0
147
0.0
147
0.0
147
0.0
147
0.0208333333333333
147
0.0
147
0.0
147
0.0
147
0.0
147
1.0
147
0.0
147
0.0
147
0.0
147
0.0
147
1.0
  0
MATERIAL
  5
34
102
{ACAD_XDICTIONARY
360
35
102
}
102
{ACAD_REACTORS
330
33
102
}
330
33
100
AcDbMaterial
  1
ByLayer
 72
     0
 43
0.0208333333333333
 43
0.0
 43
0.0
 43
0.0
 43
0.0
 43
0.0208333333333333
 43
0.0
 43
0.0
 43
0.0
 43
0.0
 43
1.0
 43
0.0
 43
0.0
 43
0.0
 43
0.0
 43
1.0
 77
     0
 47
0.0208333333333333
 47
0.0
 47
0.0
 47
0.0
 47
0.0
 47
0.0208333333333333
 47
0.0
 47
0.0
 47
0.0
 47
0.0
 47
1.0
 47
0.0
 47
0.0
 47
0.0
 47
0.0
 47
1.0
171
     0
 49
0.0208333333333333
 49
0.0
 49
0.0
 49
0.0
 49
0.0
 49
0.0208333333333333
 49
0.0
 49
0.0
 49
0.0
 49
0.0
 49
1.0
 49
0.0
 49
0.0
 49
0.0
 49
0.0
 49
1.0
175
     0
142
0.0208333333333333
142
0.0
142
0.0
142
0.0
142
0.0
142
0.0208333333333333
142
0.0
142
0.0
142
0.0
142
0.0
142
1.0
142
0.0
142
0.0
142
0.0
142
0.0
142
1.0
179
     0
144
0.0208333333333333
144
0.0
144
0.0
144
0.0
144
0.0
144
0.0208333333333333
144
0.0
144
0.0
144
0.0
144
0.0
144
1.0
144
0.0
144
0.0
144
0.0
144
0.0
144
1.0
147
0.0208333333333333
147
0.0
147
0.0
147
0.0
147
0.0
147
0.0208333333333333
147
0.0
147
0.0
147
0.0
147
0.0
147
1.0
147
0.0
147
0.0
147
0.0
147
0.0
147
1.0
  0
MATERIAL
  5
44
102
{ACAD_XDICTIONARY
360
45
102
}
102
{ACAD_REACTORS
330
33
102
}
330
33
100
AcDbMaterial
  1
Global
 72
     0
 43
0.0208333333333333
 43
0.0
 43
0.0
 43
0.0
 43
0.0
 43
0.0208333333333333
 43
0.0
 43
0.0
 43
0.0
 43
0.0
 43
1.0
 43
0.0
 43
0.0
 43
0.0
 43
0.0
 43
1.0
 77
     0
 47
0.0208333333333333
 47
0.0
 47
0.0
 47
0.0
 47
0.0
 47
0.0208333333333333
 47
0.0
 47
0.0
 47
0.0
 47
0.0
 47
1.0
 47
0.0
 47
0.0
 47
0.0
 47
0.0
 47
1.0
171
     0
 49
0.0208333333333333
 49
0.0
 49
0.0
 49
0.0
 49
0.0
 49
0.0208333333333333
 49
0.0
 49
0.0
 49
0.0
 49
0.0
 49
1.0
 49
0.0
 49
0.0
 49
0.0
 49
0.0
 49
1.0
175
     0
142
0.0208333333333333
142
0.0
142
0.0
142
0.0
142
0.0
142
0.0208333333333333
142
0.0
142
0.0
142
0.0
142
0.0
142
1.0
142
0.0
142
0.0
142
0.0
142
0.0
142
1.0
179
     0
144
0.0208333333333333
144
0.0
144
0.0
144
0.0
144
0.0
144
0.0208333333333333
144
0.0
144
0.0
144
0.0
144
0.0
144
1.0
144
0.0
144
0.0
144
0.0
144
0.0
144
1.0
147
0.0208333333333333
147
0.0
147
0.0
147
0.0
147
0.0
147
0.0208333333333333
147
0.0
147
0.0
147
0.0
147
0.0
147
1.0
147
0.0
147
0.0
147
0.0
147
0.0
147
1.0
  0
MLEADERSTYLE
  5
83
102
{ACAD_REACTORS
330
82
102
}
330
82
100
AcDbMLeaderStyle
170
     2
171
     1
172
     0
 90
        2
 40
0.0
 41
0.0
173
     1
 91
-1056964608
340
14
 92
       -2
290
     1
 42
0.09
291
     1
 43
0.36
  3
Standard
 44
0.18
300

342
11
174
     1
178
     6
175
     1
176
     0
 93
-1056964608
 45
0.18
292
     0
297
     0
 46
0.18
 94
-1056964608
 47
1.0
 49
1.0
140
1.0
293
     1
141
0.0
294
     1
177
     0
142
1.0
295
     0
296
     0
143
0.125
1001
ACAD_MLEADERVER
1070
     2
  0
MLINESTYLE
  5
18
102
{ACAD_REACTORS
330
17
102
}
330
17
100
AcDbMlineStyle
  2
STANDARD
 70
     0
  3

 62
   256
 51
90.0
 52
90.0
 71
     2
 49
0.5
 62
   256
  6
BYLAYER
 49
-0.5
 62
   256
  6
BYLAYER
  0
ACDBPLACEHOLDER
  5
F
102
{ACAD_REACTORS
330
E
102
}
330
E
  0
SCALE
  5
61
102
{ACAD_REACTORS
330
60
102
}
330
60
100
AcDbScale
 70
     0
300
1:1
140
1.0
141
1.0
290
     1
  0
SCALE
  5
62
102
{ACAD_REACTORS
330
60
102
}
330
60
100
AcDbScale
 70
     0
300
1:2
140
1.0
141
2.0
290
     0
  0
SCALE
  5
63
102
{ACAD_REACTORS
330
60
102
}
330
60
100
AcDbScale
 70
     0
300
1:4
140
1.0
141
4.0
290
     0
  0
SCALE
  5
64
102
{ACAD_REACTORS
330
60
102
}
330
60
100
AcDbScale
 70
     0
300
1:5
140
1.0
141
5.0
290
     0
  0
SCALE
  5
65
102
{ACAD_REACTORS
330
60
102
}
330
60
100
AcDbScale
 70
     0
300
1:8
140
1.0
141
8.0
290
     0
  0
SCALE
  5
66
102
{ACAD_REACTORS
330
60
102
}
330
60
100
AcDbScale
 70
     0
300
1:10
140
1.0
141
10.0
290
     0
  0
SCALE
  5
67
102
{ACAD_REACTORS
330
60
102
}
330
60
100
AcDbScale
 70
     0
300
1:16
140
1.0
141
16.0
290
     0
  0
SCALE
  5
68
102
{ACAD_REACTORS
330
60
102
}
330
60
100
AcDbScale
 70
     0
300
1:20
140
1.0
141
20.0
290
     0
  0
SCALE
  5
69
102
{ACAD_REACTORS
330
60
102
}
330
60
100
AcDbScale
 70
     0
300
1:30
140
1.0
141
30.0
290
     0
  0
SCALE
  5
6A
102
{ACAD_REACTORS
330
60
102
}
330
60
100
AcDbScale
 70
     0
300
1:40
140
1.0
141
40.0
290
     0
  0
SCALE
  5
6B
102
{ACAD_REACTORS
330
60
102
}
330
60
100
AcDbScale
 70
     0
300
1:50
140
1.0
141
50.0
290
     0
  0
SCALE
  5
6C
102
{ACAD_REACTORS
330
60
102
}
330
60
100
AcDbScale
 70
     0
300
1:100
140
1.0
141
100.0
290
     0
  0
SCALE
  5
6D
102
{ACAD_REACTORS
330
60
102
}
330
60
100
AcDbScale
 70
     0
300
2:1
140
2.0
141
1.0
290
     0
  0
SCALE
  5
6E
102
{ACAD_REACTORS
330
60
102
}
330
60
100
AcDbScale
 70
     0
300
4:1
140
4.0
141
1.0
290
     0
  0
SCALE
  5
6F
102
{ACAD_REACTORS
330
60
102
}
330
60
100
AcDbScale
 70
     0
300
8:1
140
8.0
141
1.0
290
     0
  0
SCALE
  5
70
102
{ACAD_REACTORS
330
60
102
}
330
60
100
AcDbScale
 70
     0
300
10:1
140
10.0
141
1.0
290
     0
  0
SCALE
  5
71
102
{ACAD_REACTORS
330
60
102
}
330
60
100
AcDbScale
 70
     0
300
100:1
140
100.0
141
1.0
290
     0
  0
SCALE
  5
72
102
{ACAD_REACTORS
330
60
102
}
330
60
100
AcDbScale
 70
     0
300
1/128" = 1'-0"
140
0.0078125
141
12.0
290
     0
  0
SCALE
  5
73
102
{ACAD_REACTORS
330
60
102
}
330
60
100
AcDbScale
 70
     0
300
1/64" = 1'-0"
140
0.015625
141
12.0
290
     0
  0
SCALE
  5
74
102
{ACAD_REACTORS
330
60
102
}
330
60
100
AcDbScale
 70
     0
300
1/32" = 1'-0"
140
0.03125
141
12.0
290
     0
  0
SCALE
  5
75
102
{ACAD_REACTORS
330
60
102
}
330
60
100
AcDbScale
 70
     0
300
1/16" = 1'-0"
140
0.0625
141
12.0
290
     0
  0
SCALE
  5
76
102
{ACAD_REACTORS
330
60
102
}
330
60
100
AcDbScale
 70
     0
300
3/32" = 1'-0"
140
0.09375
141
12.0
290
     0
  0
SCALE
  5
77
102
{ACAD_REACTORS
330
60
102
}
330
60
100
AcDbScale
 70
     0
300
1/8" = 1'-0"
140
0.125
141
12.0
290
     0
  0
SCALE
  5
78
102
{ACAD_REACTORS
330
60
102
}
330
60
100
AcDbScale
 70
     0
300
3/16" = 1'-0"
140
0.1875
141
12.0
290
     0
  0
SCALE
  5
79
102
{ACAD_REACTORS
330
60
102
}
330
60
100
AcDbScale
 70
     0
300
1/4" = 1'-0"
140
0.25
141
12.0
290
     0
  0
SCALE
  5
7A
102
{ACAD_REACTORS
330
60
102
}
330
60
100
AcDbScale
 70
     0
300
3/8" = 1'-0"
140
0.375
141
12.0
290
     0
  0
SCALE
  5
7B
102
{ACAD_REACTORS
330
60
102
}
330
60
100
AcDbScale
 70
     0
300
1/2" = 1'-0"
140
0.5
141
12.0
290
     0
  0
SCALE
  5
7C
102
{ACAD_REACTORS
330
60
102
}
330
60
100
AcDbScale
 70
     0
300
3/4" = 1'-0"
140
0.75
141
12.0
290
     0
  0
SCALE
  5
7D
102
{ACAD_REACTORS
330
60
102
}
330
60
100
AcDbScale
 70
     0
300
1" = 1'-0"
140
1.0
141
12.0
290
     0
  0
SCALE
  5
7E
102
{ACAD_REACTORS
330
60
102
}
330
60
100
AcDbScale
 70
     0
300
1-1/2" = 1'-0"
140
1.5
141
12.0
290
     0
  0
SCALE
  5
7F
102
{ACAD_REACTORS
330
60
102
}
330
60
100
AcDbScale
 70
     0
300
3" = 1'-0"
140
3.0
141
12.0
290
     0
  0
SCALE
  5
80
102
{ACAD_REACTORS
330
60
102
}
330
60
100
AcDbScale
 70
     0
300
6" = 1'-0"
140
6.0
141
12.0
290
     0
  0
SCALE
  5
81
102
{ACAD_REACTORS
330
60
102
}
330
60
100
AcDbScale
 70
     0
300
1'-0" = 1'-0"
140
12.0
141
12.0
290
     0
  0
TABLESTYLE
  5
5F
102
{ACAD_XDICTIONARY
360
87
102
}
102
{ACAD_REACTORS
330
5E
102
}
330
5E
100
AcDbTableStyle
  3
Standard
 70
     0
 71
     0
 40
0.06
 41
0.06
280
     0
281
     0
  7
Standard
140
0.18
170
     2
 62
     0
 63
     7
283
     0
274
    -2
284
     1
 64
     0
275
    -2
285
     1
 65
     0
276
    -2
286
     1
 66
     0
277
    -2
287
     1
 67
     0
278
    -2
288
     1
 68
     0
279
    -2
289
     1
 69
     0
  7
Standard
140
0.25
170
     5
 62
     0
 63
     7
283
     0
274
    -2
284
     1
 64
     0
275
    -2
285
     1
 65
     0
276
    -2
286
     1
 66
     0
277
    -2
287
     1
 67
     0
278
    -2
288
     1
 68
     0
279
    -2
289
     1
 69
     0
  7
Standard
140
0.18
170
     5
 62
     0
 63
     7
283
     0
274
    -2
284
     1
 64
     0
275
    -2
285
     1
 65
     0
276
    -2
286
     1
 66
     0
277
    -2
287
     1
 67
     0
278
    -2
288
     1
 68
     0
279
    -2
289
     1
 69
     0
  0
VISUALSTYLE
  5
52
102
{ACAD_XDICTIONARY
360
7C91
102
}
102
{ACAD_REACTORS
330
4C
102
}
330
4C
100
AcDbVisualStyle
  2
2dWireframe
 70
     4
 71
     0
 72
     2
 73
     0
 90
        0
 40
-0.6
 41
-30.0
 62
     5
 63
     7
 74
     1
 91
        4
 64
     7
 65
   257
 75
     1
175
     1
 42
1.0
 92
        0
 66
   257
 43
1.0
 76
     1
 77
     6
 78
     2
 67
     7
 79
     5
170
     0
171
     0
290
     0
174
     0
 93
        1
 44
0.0
173
     0
291
     0
 45
0.0
1001
ACAD
1000
AcDbSavedByObjectVersion
1070
     0
  0
VISUALSTYLE
  5
54
102
{ACAD_XDICTIONARY
360
7C95
102
}
102
{ACAD_REACTORS
330
4C
102
}
330
4C
100
AcDbVisualStyle
  2
3D Hidden
 70
     6
 71
     1
 72
     2
 73
     2
 90
        0
 40
-0.6
 41
-30.0
 62
     5
 63
     7
 74
     2
 91
        2
 64
     7
 65
   257
 75
     2
175
     1
 42
40.0
 92
        0
 66
   257
 43
1.0
 76
     1
 77
     6
 78
     2
 67
     7
 79
     3
170
     0
171
     0
290
     0
174
     0
 93
        1
 44
0.0
173
     0
291
     0
 45
0.0
1001
ACAD
1000
AcDbSavedByObjectVersion
1070
     0
  0
VISUALSTYLE
  5
53
102
{ACAD_XDICTIONARY
360
7C93
102
}
102
{ACAD_REACTORS
330
4C
102
}
330
4C
100
AcDbVisualStyle
  2
3dWireframe
 70
     5
 71
     0
 72
     2
 73
     0
 90
        0
 40
-0.6
 41
-30.0
 62
     5
 63
     7
 74
     1
 91
        4
 64
     7
 65
   257
 75
     1
175
     1
 42
1.0
 92
        0
 66
   257
 43
1.0
 76
     1
 77
     6
 78
     2
 67
     7
 79
     5
170
     0
171
     0
290
     0
174
     0
 93
        1
 44
0.0
173
     0
291
     0
 45
0.0
1001
ACAD
1000
AcDbSavedByObjectVersion
1070
     0
  0
VISUALSTYLE
  5
51
102
{ACAD_XDICTIONARY
360
7C8F
102
}
102
{ACAD_REACTORS
330
4C
102
}
330
4C
100
AcDbVisualStyle
  2
Basic
 70
     7
 71
     1
 72
     0
 73
     1
 90
        0
 40
-0.6
 41
-30.0
 62
     5
 63
     7
 74
     0
 91
        4
 64
     7
 65
   257
 75
     1
175
     1
 42
1.0
 92
        8
 66
     7
 43
1.0
 76
     1
 77
     6
 78
     2
 67
     7
 79
     5
170
     0
171
     0
290
     0
174
     0
 93
        1
 44
0.0
173
     0
291
     1
 45
0.0
1001
ACAD
1000
AcDbSavedByObjectVersion
1070
     0
  0
VISUALSTYLE
  5
58
102
{ACAD_XDICTIONARY
360
7C9D
102
}
102
{ACAD_REACTORS
330
4C
102
}
330
4C
100
AcDbVisualStyle
  2
Brighten
 70
    12
 71
     2
 72
     2
 73
     0
 90
        0
 40
-0.6
 41
-30.0
 62
     5
 63
     7
 74
     1
 91
        4
 64
     7
 65
   257
 75
     1
175
     1
 42
1.0
 92
        8
 66
     7
 43
1.0
 76
     1
 77
     6
 78
     2
 67
     7
 79
     5
170
     0
171
     0
290
     0
174
     0
 93
        1
 44
50.0
173
     0
291
     1
 45
0.0
1001
ACAD
1000
AcDbSavedByObjectVersion
1070
     0
  0
VISUALSTYLE
  5
5C
102
{ACAD_XDICTIONARY
360
7CA5
102
}
102
{ACAD_REACTORS
330
4C
102
}
330
4C
100
AcDbVisualStyle
  2
ColorChange
 70
    16
 71
     2
 72
     2
 73
     3
 90
        0
 40
-0.6
 41
-30.0
 62
     5
 63
     8
 74
     1
 91
        4
 64
     7
 65
   257
 75
     1
175
     1
 42
1.0
 92
        8
 66
     8
 43
1.0
 76
     1
 77
     6
 78
     2
 67
     7
 79
     5
170
     0
171
     0
290
     0
174
     0
 93
        1
 44
0.0
173
     0
291
     1
 45
0.0
1001
ACAD
1000
AcDbSavedByObjectVersion
1070
     0
  0
VISUALSTYLE
  5
55
102
{ACAD_XDICTIONARY
360
7C97
102
}
102
{ACAD_REACTORS
330
4C
102
}
330
4C
100
AcDbVisualStyle
  2
Conceptual
 70
     9
 71
     3
 72
     2
 73
     0
 90
        0
 40
-0.6
 41
-30.0
 62
     5
 63
     7
 74
     2
 91
        2
 64
     7
 65
   257
 75
     1
175
     1
 42
40.0
 92
        8
 66
     7
 43
1.0
 76
     1
 77
     6
 78
     2
 67
     7
 79
     3
170
     0
171
     0
290
     0
174
     0
 93
        1
 44
0.0
173
     0
291
     0
 45
0.0
1001
ACAD
1000
AcDbSavedByObjectVersion
1070
     0
  0
VISUALSTYLE
  5
57
102
{ACAD_XDICTIONARY
360
7C9B
102
}
102
{ACAD_REACTORS
330
4C
102
}
330
4C
100
AcDbVisualStyle
  2
Dim
 70
    11
 71
     2
 72
     2
 73
     0
 90
        0
 40
-0.6
 41
-30.0
 62
     5
 63
     7
 74
     1
 91
        4
 64
     7
 65
   257
 75
     1
175
     1
 42
1.0
 92
        8
 66
     7
 43
1.0
 76
     1
 77
     6
 78
     2
 67
     7
 79
     5
170
     0
171
     0
290
     0
174
     0
 93
        1
 44
-50.0
173
     0
291
     1
 45
0.0
1001
ACAD
1000
AcDbSavedByObjectVersion
1070
     0
  0
VISUALSTYLE
  5
2848
102
{ACAD_XDICTIONARY
360
7CBA
102
}
102
{ACAD_REACTORS
330
4C
102
}
330
4C
100
AcDbVisualStyle
  2
EdgeColorOff
 70
    22
 71
     2
 72
     2
 73
     0
 90
        0
 40
-0.6
 41
-30.0
 62
     5
 63
     7
 74
     1
 91
        4
 64
     7
 65
   257
 75
     1
175
     1
 42
1.0
 92
        8
 66
     7
 43
1.0
 76
     1
 77
     6
 78
     2
 67
     7
 79
     5
170
     0
171
     0
290
     0
174
     0
 93
        1
 44
0.0
173
     0
291
     1
 45
0.0
1001
ACAD
1000
AcDbSavedByObjectVersion
1070
     0
  0
VISUALSTYLE
  5
5B
102
{ACAD_XDICTIONARY
360
7CA3
102
}
102
{ACAD_REACTORS
330
4C
102
}
330
4C
100
AcDbVisualStyle
  2
Facepattern
 70
    15
 71
     2
 72
     2
 73
     0
 90
        0
 40
-0.6
 41
-30.0
 62
     5
 63
     7
 74
     1
 91
        4
 64
     7
 65
   257
 75
     1
175
     1
 42
1.0
 92
        8
 66
     7
 43
1.0
 76
     1
 77
     6
 78
     2
 67
     7
 79
     5
170
     0
171
     0
290
     0
174
     0
 93
        1
 44
0.0
173
     0
291
     1
 45
0.0
1001
ACAD
1000
AcDbSavedByObjectVersion
1070
     0
  0
VISUALSTYLE
  5
4D
102
{ACAD_XDICTIONARY
360
7C87
102
}
102
{ACAD_REACTORS
330
4C
102
}
330
4C
100
AcDbVisualStyle
  2
Flat
 70
     0
 71
     2
 72
     1
 73
     1
 90
        2
 40
-0.6
 41
30.0
 62
     5
 63
     7
 74
     0
 91
        4
 64
     7
 65
   257
 75
     1
175
     1
 42
1.0
 92
        8
 66
     7
 43
1.0
 76
     1
 77
     6
 78
     2
 67
     7
 79
     5
170
     0
171
     0
290
     0
174
     0
 93
       13
 44
0.0
173
     0
291
     1
 45
0.0
1001
ACAD
1000
AcDbSavedByObjectVersion
1070
     0
  0
VISUALSTYLE
  5
4E
102
{ACAD_XDICTIONARY
360
7C89
102
}
102
{ACAD_REACTORS
330
4C
102
}
330
4C
100
AcDbVisualStyle
  2
FlatWithEdges
 70
     1
 71
     2
 72
     1
 73
     1
 90
        2
 40
-0.6
 41
30.0
 62
     5
 63
     7
 74
     1
 91
        4
 64
     7
 65
   257
 75
     1
175
     1
 42
1.0
 92
        0
 66
   257
 43
1.0
 76
     1
 77
     6
 78
     2
 67
     7
 79
     5
170
     0
171
     0
290
     0
174
     0
 93
       13
 44
0.0
173
     0
291
     1
 45
0.0
1001
ACAD
1000
AcDbSavedByObjectVersion
1070
     0
  0
VISUALSTYLE
  5
4F
102
{ACAD_XDICTIONARY
360
7C8B
102
}
102
{ACAD_REACTORS
330
4C
102
}
330
4C
100
AcDbVisualStyle
  2
Gouraud
 70
     2
 71
     2
 72
     2
 73
     1
 90
        2
 40
-0.6
 41
30.0
 62
     5
 63
     7
 74
     0
 91
        4
 64
     7
 65
   257
 75
     1
175
     1
 42
1.0
 92
        0
 66
     7
 43
1.0
 76
     1
 77
     6
 78
     2
 67
     7
 79
     5
170
     0
171
     0
290
     0
174
     0
 93
       13
 44
0.0
173
     0
291
     1
 45
0.0
1001
ACAD
1000
AcDbSavedByObjectVersion
1070
     0
  0
VISUALSTYLE
  5
50
102
{ACAD_XDICTIONARY
360
7C8D
102
}
102
{ACAD_REACTORS
330
4C
102
}
330
4C
100
AcDbVisualStyle
  2
GouraudWithEdges
 70
     3
 71
     2
 72
     2
 73
     1
 90
        2
 40
-0.6
 41
30.0
 62
     5
 63
     7
 74
     1
 91
        4
 64
     7
 65
   257
 75
     1
175
     1
 42
1.0
 92
        0
 66
   257
 43
1.0
 76
     1
 77
     6
 78
     2
 67
     7
 79
     5
170
     0
171
     0
290
     0
174
     0
 93
       13
 44
0.0
173
     0
291
     1
 45
0.0
1001
ACAD
1000
AcDbSavedByObjectVersion
1070
     0
  0
VISUALSTYLE
  5
2840
102
{ACAD_XDICTIONARY
360
7CAA
102
}
102
{ACAD_REACTORS
330
4C
102
}
330
4C
100
AcDbVisualStyle
  2
Hidden
 70
     6
 71
     1
 72
     2
 73
     2
 90
        0
 40
-0.6
 41
-30.0
 62
     5
 63
     7
 74
     2
 91
        2
 64
     7
 65
   257
 75
     2
175
     1
 42
40.0
 92
        0
 66
   257
 43
1.0
 76
     1
 77
     6
 78
     2
 67
     7
 79
     3
170
     0
171
     0
290
     0
174
     0
 93
        1
 44
0.0
173
     0
291
     0
 45
0.0
1001
ACAD
1000
AcDbSavedByObjectVersion
1070
     0
  0
VISUALSTYLE
  5
2846
102
{ACAD_XDICTIONARY
360
7CB6
102
}
102
{ACAD_REACTORS
330
4C
102
}
330
4C
100
AcDbVisualStyle
  2
JitterOff
 70
    20
 71
     2
 72
     2
 73
     0
 90
        0
 40
-0.6
 41
-30.0
 62
     5
 63
     7
 74
     1
 91
        4
 64
     7
 65
   257
 75
     1
175
     1
 42
1.0
 92
       10
 66
     7
 43
1.0
 76
     1
 77
     6
 78
     2
 67
     7
 79
     5
170
     0
171
     0
290
     0
174
     0
 93
        1
 44
0.0
173
     0
291
     1
 45
0.0
1001
ACAD
1000
AcDbSavedByObjectVersion
1070
     0
  0
VISUALSTYLE
  5
5A
102
{ACAD_XDICTIONARY
360
7CA1
102
}
102
{ACAD_REACTORS
330
4C
102
}
330
4C
100
AcDbVisualStyle
  2
Linepattern
 70
    14
 71
     2
 72
     2
 73
     0
 90
        0
 40
-0.6
 41
-30.0
 62
     5
 63
     7
 74
     1
 91
        4
 64
     7
 65
   257
 75
     7
175
     7
 42
1.0
 92
        8
 66
     7
 43
1.0
 76
     1
 77
     6
 78
     2
 67
     7
 79
     5
170
     0
171
     0
290
     0
174
     0
 93
        1
 44
0.0
173
     0
291
     1
 45
0.0
1001
ACAD
1000
AcDbSavedByObjectVersion
1070
     0
  0
VISUALSTYLE
  5
2847
102
{ACAD_XDICTIONARY
360
7CB8
102
}
102
{ACAD_REACTORS
330
4C
102
}
330
4C
100
AcDbVisualStyle
  2
OverhangOff
 70
    21
 71
     2
 72
     2
 73
     0
 90
        0
 40
-0.6
 41
-30.0
 62
     5
 63
     7
 74
     1
 91
        4
 64
     7
 65
   257
 75
     1
175
     1
 42
1.0
 92
        9
 66
     7
 43
1.0
 76
     1
 77
     6
 78
     2
 67
     7
 79
     5
170
     0
171
     0
290
     0
174
     0
 93
        1
 44
0.0
173
     0
291
     1
 45
0.0
1001
ACAD
1000
AcDbSavedByObjectVersion
1070
     0
  0
VISUALSTYLE
  5
56
102
{ACAD_XDICTIONARY
360
7C99
102
}
102
{ACAD_REACTORS
330
4C
102
}
330
4C
100
AcDbVisualStyle
  2
Realistic
 70
     8
 71
     2
 72
     2
 73
     0
 90
        0
 40
-0.6
 41
-30.0
 62
     5
 63
     7
 74
     1
 91
        0
 64
     7
 65
   257
 75
     1
175
     1
 42
1.0
 92
        8
 66
     8
 43
1.0
 76
     1
 77
     6
 78
     2
 67
     7
 79
     5
170
     0
171
     0
290
     0
174
     0
 93
       13
 44
0.0
173
     0
291
     0
 45
0.0
1001
ACAD
1000
AcDbSavedByObjectVersion
1070
     0
  0
VISUALSTYLE
  5
2845
102
{ACAD_XDICTIONARY
360
7CB4
102
}
102
{ACAD_REACTORS
330
4C
102
}
330
4C
100
AcDbVisualStyle
  2
Shaded
 70
    27
 71
     2
 72
     2
 73
     1
 90
        2
 40
-0.6
 41
30.0
 62
     5
 63
     7
 74
     0
 91
        4
 64
     7
 65
   257
 75
     1
175
     1
 42
1.0
 92
        8
 66
   257
 43
1.0
 76
     1
 77
     6
 78
     2
 67
     8
 79
     3
170
     0
171
     0
290
     0
174
     0
 93
        5
 44
0.0
173
     0
291
     0
 45
0.0
1001
ACAD
1000
AcDbSavedByObjectVersion
1070
     0
  0
VISUALSTYLE
  5
2844
102
{ACAD_XDICTIONARY
360
7CB2
102
}
102
{ACAD_REACTORS
330
4C
102
}
330
4C
100
AcDbVisualStyle
  2
Shaded with edges
 70
    26
 71
     2
 72
     2
 73
     1
 90
        2
 40
-0.6
 41
30.0
 62
     5
 63
     7
 74
     1
 91
       10
 64
     7
 65
   257
 75
     2
175
     1
 42
1.0
 92
        8
 66
   257
 43
1.0
 76
     1
 77
     6
 78
     2
 67
     7
 79
     3
170
     0
171
     0
290
     0
174
     0
 93
        5
 44
0.0
173
     0
291
     0
 45
0.0
1001
ACAD
1000
AcDbSavedByObjectVersion
1070
     0
  0
VISUALSTYLE
  5
2841
102
{ACAD_XDICTIONARY
360
7CAC
102
}
102
{ACAD_REACTORS
330
4C
102
}
330
4C
100
AcDbVisualStyle
  2
Shades of Gray
 70
    23
 71
     2
 72
     2
 73
     3
 90
        0
 40
-0.6
 41
-30.0
 62
     5
 63
     7
 74
     2
 91
        2
 64
     7
 65
     7
 75
     1
175
     1
 42
40.0
 92
        8
 66
     7
 43
1.0
 76
     1
 77
     6
 78
     2
 67
     7
 79
     3
170
     0
171
     0
290
     0
174
     0
 93
        1
 44
0.0
173
     0
291
     0
 45
0.0
1001
ACAD
1000
AcDbSavedByObjectVersion
1070
     0
  0
VISUALSTYLE
  5
2842
102
{ACAD_XDICTIONARY
360
7CAE
102
}
102
{ACAD_REACTORS
330
4C
102
}
330
4C
100
AcDbVisualStyle
  2
Sketchy
 70
    24
 71
     1
 72
     2
 73
     2
 90
        0
 40
-0.6
 41
-30.0
 62
     5
 63
     7
 74
     2
 91
        2
 64
     7
 65
     7
 75
     1
175
     1
 42
40.0
 92
       11
 66
     7
 43
1.0
 76
     1
 77
     6
 78
     2
 67
     7
 79
     6
170
     0
171
     0
290
     0
174
     0
 93
        1
 44
0.0
173
     0
291
     0
 45
0.0
1001
ACAD
1000
AcDbSavedByObjectVersion
1070
     0
  0
VISUALSTYLE
  5
59
102
{ACAD_XDICTIONARY
360
7C9F
102
}
102
{ACAD_REACTORS
330
4C
102
}
330
4C
100
AcDbVisualStyle
  2
Thicken
 70
    13
 71
     2
 72
     2
 73
     0
 90
        0
 40
-0.6
 41
-30.0
 62
     5
 63
     7
 74
     1
 91
        4
 64
     7
 65
   257
 75
     1
175
     1
 42
1.0
 92
       12
 66
     7
 43
1.0
 76
     1
 77
     6
 78
     2
 67
     7
 79
     5
170
     0
171
     0
290
     0
174
     0
 93
        1
 44
0.0
173
     0
291
     1
 45
0.0
1001
ACAD
1000
AcDbSavedByObjectVersion
1070
     0
  0
VISUALSTYLE
  5
283F
102
{ACAD_XDICTIONARY
360
7CA8
102
}
102
{ACAD_REACTORS
330
4C
102
}
330
4C
100
AcDbVisualStyle
  2
Wireframe
 70
     5
 71
     0
 72
     2
 73
     0
 90
        0
 40
-0.6
 41
-30.0
 62
     5
 63
     7
 74
     1
 91
        4
 64
     7
 65
   257
 75
     1
175
     1
 42
1.0
 92
        0
 66
   257
 43
1.0
 76
     1
 77
     6
 78
     2
 67
     7
 79
     3
170
     0
171
     0
290
     0
174
     0
 93
        1
 44
0.0
173
     0
291
     0
 45
0.0
1001
ACAD
1000
AcDbSavedByObjectVersion
1070
     0
  0
VISUALSTYLE
  5
2843
102
{ACAD_XDICTIONARY
360
7CB0
102
}
102
{ACAD_REACTORS
330
4C
102
}
330
4C
100
AcDbVisualStyle
  2
X-Ray
 70
    25
 71
     2
 72
     2
 73
     1
 90
        1
 40
0.5
 41
-30.0
 62
     5
 63
     7
 74
     1
 91
        0
 64
     7
 65
   257
 75
     1
175
     1
 42
1.0
 92
        8
 66
     7
 43
1.0
 76
     1
 77
     6
 78
     2
 67
     7
 79
     3
170
     0
171
     0
290
     0
174
     0
 93
       13
 44
0.0
173
     0
291
     0
 45
0.0
1001
ACAD
1000
AcDbSavedByObjectVersion
1070
     0
  0
XRECORD
  5
226E
102
{ACAD_REACTORS
330
226D
102
}
330
226D
100
AcDbXrecord
280
     1
  1
WIRES
  1
WIRES
  1

290
     0
  0
DICTIONARYVAR
  5
8E
102
{ACAD_REACTORS
330
8A
102
}
330
8A
100
DictionaryVariables
280
     0
  1
1:1
  0
DICTIONARYVAR
  5
8C
102
{ACAD_REACTORS
330
8A
102
}
330
8A
100
DictionaryVariables
280
     0
  1
STANDARD
  0
DICTIONARYVAR
  5
8B
102
{ACAD_REACTORS
330
8A
102
}
330
8A
100
DictionaryVariables
280
     0
  1
STANDARD
  0
DICTIONARYVAR
  5
18F
102
{ACAD_REACTORS
330
8A
102
}
330
8A
100
DictionaryVariables
280
     0
  1
1
  0
DICTIONARYVAR
  5
18E
102
{ACAD_REACTORS
330
8A
102
}
330
8A
100
DictionaryVariables
280
     0
  1
0
  0
DICTIONARYVAR
  5
217D
102
{ACAD_REACTORS
330
8A
102
}
330
8A
100
DictionaryVariables
280
     0
  1
1
  0
DICTIONARYVAR
  5
217E
102
{ACAD_REACTORS
330
8A
102
}
330
8A
100
DictionaryVariables
280
     0
  1
15
  0
DICTIONARYVAR
  5
8F
102
{ACAD_REACTORS
330
8A
102
}
330
8A
100
DictionaryVariables
280
     0
  1
0
  0
DICTIONARYVAR
  5
8D
102
{ACAD_REACTORS
330
8A
102
}
330
8A
100
DictionaryVariables
280
     0
  1
0
  0
DICTIONARYVAR
  5
18D
102
{ACAD_REACTORS
330
8A
102
}
330
8A
100
DictionaryVariables
280
     0
  1
127
  0
DICTIONARYVAR
  5
7CBC
102
{ACAD_REACTORS
330
8A
102
}
330
8A
100
DictionaryVariables
280
     0
  1
0
  0
XRECORD
  5
2835
102
{ACAD_REACTORS
330
2834
102
}
330
2834
100
AcDbXrecord
280
     1
330
0
330
0
330
0
330
0
330
0
330
0
  0
DICTIONARY
  5
7CC2
330
1E
100
AcDbDictionary
280
     1
281
     1
  3
ACAD_XREC_ROUNDTRIP
360
7CC3
  0
DICTIONARY
  5
7CC6
330
26
100
AcDbDictionary
280
     1
281
     1
  3
ACAD_XREC_ROUNDTRIP
360
7CC7
  0
DICTIONARY
  5
7CC4
330
22
100
AcDbDictionary
280
     1
281
     1
  3
ACAD_XREC_ROUNDTRIP
360
7CC5
  0
DICTIONARY
  5
3D
330
3C
100
AcDbDictionary
280
     1
281
     1
  3
ACAD_XREC_ROUNDTRIP
360
7CC9
  3
BUMPTILE
360
3F
  3
DIFFUSETILE
360
3E
  3
OPACITYTILE
360
42
  3
REFLECTIONTILE
360
41
  3
REFRACTIONTILE
360
43
  3
SPECULARTILE
360
40
  0
DICTIONARY
  5
35
330
34
100
AcDbDictionary
280
     1
281
     1
  3
ACAD_XREC_ROUNDTRIP
360
7CC8
  3
BUMPTILE
360
37
  3
DIFFUSETILE
360
36
  3
OPACITYTILE
360
3A
  3
REFLECTIONTILE
360
39
  3
REFRACTIONTILE
360
3B
  3
SPECULARTILE
360
38
  0
DICTIONARY
  5
45
330
44
100
AcDbDictionary
280
     1
281
     1
  3
ACAD_XREC_ROUNDTRIP
360
7CCA
  3
BUMPTILE
360
47
  3
DIFFUSETILE
360
46
  3
OPACITYTILE
360
4A
  3
REFLECTIONTILE
360
49
  3
REFRACTIONTILE
360
4B
  3
SPECULARTILE
360
48
  0
DICTIONARY
  5
87
330
5F
100
AcDbDictionary
280
     1
281
     1
  3
ACAD_ROUNDTRIP_2008_TABLESTYLE_CELLSTYLEMAP
360
7CC0
  3
ACAD_XREC_ROUNDTRIP
360
7CCB
  0
DICTIONARY
  5
7C91
330
52
100
AcDbDictionary
280
     1
281
     1
  3
ACAD_XREC_ROUNDTRIP
360
7C92
  0
DICTIONARY
  5
7C95
330
54
100
AcDbDictionary
280
     1
281
     1
  3
ACAD_XREC_ROUNDTRIP
360
7C96
  0
DICTIONARY
  5
7C93
330
53
100
AcDbDictionary
280
     1
281
     1
  3
ACAD_XREC_ROUNDTRIP
360
7C94
  0
DICTIONARY
  5
7C8F
330
51
100
AcDbDictionary
280
     1
281
     1
  3
ACAD_XREC_ROUNDTRIP
360
7C90
  0
DICTIONARY
  5
7C9D
330
58
100
AcDbDictionary
280
     1
281
     1
  3
ACAD_XREC_ROUNDTRIP
360
7C9E
  0
DICTIONARY
  5
7CA5
330
5C
100
AcDbDictionary
280
     1
281
     1
  3
ACAD_XREC_ROUNDTRIP
360
7CA6
  0
DICTIONARY
  5
7C97
330
55
100
AcDbDictionary
280
     1
281
     1
  3
ACAD_XREC_ROUNDTRIP
360
7C98
  0
DICTIONARY
  5
7C9B
330
57
100
AcDbDictionary
280
     1
281
     1
  3
ACAD_XREC_ROUNDTRIP
360
7C9C
  0
DICTIONARY
  5
7CBA
330
2848
100
AcDbDictionary
280
     1
281
     1
  3
ACAD_XREC_ROUNDTRIP
360
7CBB
  0
DICTIONARY
  5
7CA3
330
5B
100
AcDbDictionary
280
     1
281
     1
  3
ACAD_XREC_ROUNDTRIP
360
7CA4
  0
DICTIONARY
  5
7C87
330
4D
100
AcDbDictionary
280
     1
281
     1
  3
ACAD_XREC_ROUNDTRIP
360
7C88
  0
DICTIONARY
  5
7C89
330
4E
100
AcDbDictionary
280
     1
281
     1
  3
ACAD_XREC_ROUNDTRIP
360
7C8A
  0
DICTIONARY
  5
7C8B
330
4F
100
AcDbDictionary
280
     1
281
     1
  3
ACAD_XREC_ROUNDTRIP
360
7C8C
  0
DICTIONARY
  5
7C8D
330
50
100
AcDbDictionary
280
     1
281
     1
  3
ACAD_XREC_ROUNDTRIP
360
7C8E
  0
DICTIONARY
  5
7CAA
330
2840
100
AcDbDictionary
280
     1
281
     1
  3
ACAD_XREC_ROUNDTRIP
360
7CAB
  0
DICTIONARY
  5
7CB6
330
2846
100
AcDbDictionary
280
     1
281
     1
  3
ACAD_XREC_ROUNDTRIP
360
7CB7
  0
DICTIONARY
  5
7CA1
330
5A
100
AcDbDictionary
280
     1
281
     1
  3
ACAD_XREC_ROUNDTRIP
360
7CA2
  0
DICTIONARY
  5
7CB8
330
2847
100
AcDbDictionary
280
     1
281
     1
  3
ACAD_XREC_ROUNDTRIP
360
7CB9
  0
DICTIONARY
  5
7C99
330
56
100
AcDbDictionary
280
     1
281
     1
  3
ACAD_XREC_ROUNDTRIP
360
7C9A
  0
DICTIONARY
  5
7CB4
330
2845
100
AcDbDictionary
280
     1
281
     1
  3
ACAD_XREC_ROUNDTRIP
360
7CB5
  0
DICTIONARY
  5
7CB2
330
2844
100
AcDbDictionary
280
     1
281
     1
  3
ACAD_XREC_ROUNDTRIP
360
7CB3
  0
DICTIONARY
  5
7CAC
330
2841
100
AcDbDictionary
280
     1
281
     1
  3
ACAD_XREC_ROUNDTRIP
360
7CAD
  0
DICTIONARY
  5
7CAE
330
2842
100
AcDbDictionary
280
     1
281
     1
  3
ACAD_XREC_ROUNDTRIP
360
7CAF
  0
DICTIONARY
  5
7C9F
330
59
100
AcDbDictionary
280
     1
281
     1
  3
ACAD_XREC_ROUNDTRIP
360
7CA0
  0
DICTIONARY
  5
7CA8
330
283F
100
AcDbDictionary
280
     1
281
     1
  3
ACAD_XREC_ROUNDTRIP
360
7CA9
  0
DICTIONARY
  5
7CB0
330
2843
100
AcDbDictionary
280
     1
281
     1
  3
ACAD_XREC_ROUNDTRIP
360
7CB1
  0
XRECORD
  5
7CC3
102
{ACAD_REACTORS
330
7CC2
102
}
330
7CC2
100
AcDbXrecord
280
     1
102
SHADEPLOT
 70
     0
102
SHADEPLOTRESLEVEL
 70
     2
102
SHADEPLOTCUSTOMDPI
 70
   300
  0
XRECORD
  5
7CC7
102
{ACAD_REACTORS
330
7CC6
102
}
330
7CC6
100
AcDbXrecord
280
     1
102
SHADEPLOT
 70
     0
102
SHADEPLOTRESLEVEL
 70
     2
102
SHADEPLOTCUSTOMDPI
 70
   300
  0
XRECORD
  5
7CC5
102
{ACAD_REACTORS
330
7CC4
102
}
330
7CC4
100
AcDbXrecord
280
     1
102
SHADEPLOT
 70
     0
102
SHADEPLOTRESLEVEL
 70
     2
102
SHADEPLOTCUSTOMDPI
 70
   300
  0
XRECORD
  5
7CC9
102
{ACAD_REACTORS
330
3D
102
}
330
3D
100
AcDbXrecord
280
     1
102
MATERIAL
148
0.0
149
0.0
149
0.0
 93
        0
 94
      127
282
     0
 72
     0
 77
     0
171
     0
175
     0
179
     0
273
     0
  0
XRECORD
  5
3F
102
{ACAD_REACTORS
330
3D
102
}
330
3D
100
AcDbXrecord
280
     1
270
     1
271
     1
  0
XRECORD
  5
3E
102
{ACAD_REACTORS
330
3D
102
}
330
3D
100
AcDbXrecord
280
     1
270
     1
271
     1
  0
XRECORD
  5
42
102
{ACAD_REACTORS
330
3D
102
}
330
3D
100
AcDbXrecord
280
     1
270
     1
271
     1
  0
XRECORD
  5
41
102
{ACAD_REACTORS
330
3D
102
}
330
3D
100
AcDbXrecord
280
     1
270
     1
271
     1
  0
XRECORD
  5
43
102
{ACAD_REACTORS
330
3D
102
}
330
3D
100
AcDbXrecord
280
     1
270
     1
271
     1
  0
XRECORD
  5
40
102
{ACAD_REACTORS
330
3D
102
}
330
3D
100
AcDbXrecord
280
     1
270
     1
271
     1
  0
XRECORD
  5
7CC8
102
{ACAD_REACTORS
330
35
102
}
330
35
100
AcDbXrecord
280
     1
102
MATERIAL
148
0.0
149
0.0
149
0.0
 93
        0
 94
      127
282
     0
 72
     0
 77
     0
171
     0
175
     0
179
     0
273
     0
  0
XRECORD
  5
37
102
{ACAD_REACTORS
330
35
102
}
330
35
100
AcDbXrecord
280
     1
270
     1
271
     1
  0
XRECORD
  5
36
102
{ACAD_REACTORS
330
35
102
}
330
35
100
AcDbXrecord
280
     1
270
     1
271
     1
  0
XRECORD
  5
3A
102
{ACAD_REACTORS
330
35
102
}
330
35
100
AcDbXrecord
280
     1
270
     1
271
     1
  0
XRECORD
  5
39
102
{ACAD_REACTORS
330
35
102
}
330
35
100
AcDbXrecord
280
     1
270
     1
271
     1
  0
XRECORD
  5
3B
102
{ACAD_REACTORS
330
35
102
}
330
35
100
AcDbXrecord
280
     1
270
     1
271
     1
  0
XRECORD
  5
38
102
{ACAD_REACTORS
330
35
102
}
330
35
100
AcDbXrecord
280
     1
270
     1
271
     1
  0
XRECORD
  5
7CCA
102
{ACAD_REACTORS
330
45
102
}
330
45
100
AcDbXrecord
280
     1
102
MATERIAL
148
0.0
149
0.0
149
0.0
 93
        0
 94
      127
282
     0
 72
     0
 77
     0
171
     0
175
     0
179
     0
273
     0
  0
XRECORD
  5
47
102
{ACAD_REACTORS
330
45
102
}
330
45
100
AcDbXrecord
280
     1
270
     1
271
     1
  0
XRECORD
  5
46
102
{ACAD_REACTORS
330
45
102
}
330
45
100
AcDbXrecord
280
     1
270
     1
271
     1
  0
XRECORD
  5
4A
102
{ACAD_REACTORS
330
45
102
}
330
45
100
AcDbXrecord
280
     1
270
     1
271
     1
  0
XRECORD
  5
49
102
{ACAD_REACTORS
330
45
102
}
330
45
100
AcDbXrecord
280
     1
270
     1
271
     1
  0
XRECORD
  5
4B
102
{ACAD_REACTORS
330
45
102
}
330
45
100
AcDbXrecord
280
     1
270
     1
271
     1
  0
XRECORD
  5
48
102
{ACAD_REACTORS
330
45
102
}
330
45
100
AcDbXrecord
280
     1
270
     1
271
     1
  0
CELLSTYLEMAP
  5
7CC0
102
{ACAD_REACTORS
330
87
102
}
330
87
100
AcDbCellStyleMap
 90
        3
300
CELLSTYLE
  1
TABLEFORMAT_BEGIN
 90
        5
170
     1
 91
        0
 92
    32768
 62
   257
 93
        1
300
CONTENTFORMAT
  1
CONTENTFORMAT_BEGIN
 90
        0
 91
        0
 92
      512
 93
        0
300

 40
0.0
140
1.0
 94
        5
 62
     0
340
11
144
0.25
309
CONTENTFORMAT_END
171
     0
 94
        0
309
TABLEFORMAT_END
  1
CELLSTYLE_BEGIN
 90
        1
 91
        1
300
_TITLE
309
CELLSTYLE_END
300
CELLSTYLE
  1
TABLEFORMAT_BEGIN
 90
        5
170
     1
 91
        0
 92
        0
 62
   257
 93
        1
300
CONTENTFORMAT
  1
CONTENTFORMAT_BEGIN
 90
        0
 91
        0
 92
      512
 93
        0
300

 40
0.0
140
1.0
 94
        5
 62
     0
340
11
144
0.18
309
CONTENTFORMAT_END
171
     0
 94
        0
309
TABLEFORMAT_END
  1
CELLSTYLE_BEGIN
 90
        2
 91
        1
300
_HEADER
309
CELLSTYLE_END
300
CELLSTYLE
  1
TABLEFORMAT_BEGIN
 90
        5
170
     1
 91
        0
 92
        0
 62
   257
 93
        1
300
CONTENTFORMAT
  1
CONTENTFORMAT_BEGIN
 90
        0
 91
        0
 92
      512
 93
        0
300

 40
0.0
140
1.0
 94
        2
 62
     0
340
11
144
0.18
309
CONTENTFORMAT_END
171
     0
 94
        0
309
TABLEFORMAT_END
  1
CELLSTYLE_BEGIN
 90
        3
 91
        2
300
_DATA
309
CELLSTYLE_END
  0
XRECORD
  5
7CCB
102
{ACAD_REACTORS
330
87
102
}
330
87
100
AcDbXrecord
280
     1
102
ACAD_ROUNDTRIP_PRE2007_TABLESTYLE
 90
      512
 91
        0
  1

 92
      512
 93
        0
  2

 94
      512
 95
        0
  3

  0
XRECORD
  5
7C92
102
{ACAD_REACTORS
330
7C91
102
}
330
7C91
100
AcDbXrecord
280
     1
102
RTVSPropertyOp0
 70
     1
102
RTVSPropertyOp1
 70
     1
102
RTVSPropertyOp2
 70
     1
102
RTVSPropertyOp3
 70
     1
102
RTVSPropertyOp4
 70
     1
102
RTVSPropertyOp5
 70
     1
102
RTVSPropertyOp6
 70
     1
102
RTVSPropertyOp7
 70
     1
102
RTVSPropertyOp8
 70
     1
102
RTVSPropertyOp9
 70
     1
102
RTVSPropertyOp10
 70
     1
102
RTVSPropertyOp11
 70
     1
102
RTVSPropertyOp12
 70
     1
102
RTVSPropertyOp13
 70
     1
102
RTVSPropertyOp14
 70
     1
102
RTVSPropertyOp15
 70
     1
102
RTVSPropertyOp16
 70
     1
102
RTVSPropertyOp17
 70
     1
102
RTVSPropertyOp18
 70
     1
102
RTVSPropertyOp19
 70
     1
102
RTVSPropertyOp20
 70
     1
102
RTVSPropertyOp21
 70
     1
102
RTVSPropertyOp22
 70
     1
102
RTVSPropertyOp23
 70
     1
102
RTVSPropertyOp24
 70
     1
102
RTVSPropertyOp25
 70
     1
102
RTVSPropertyOp26
 70
     1
102
RTVSPropertyOp27
 70
     1
102
RTVSPropertyOp28
 70
     1
102
RTVSPropertyOp29
 70
     1
102
RTVSPropertyOp30
 70
     1
102
RTVSPropertyOp31
 70
     1
102
RTVSPropertyOp32
 70
     1
  0
XRECORD
  5
7C96
102
{ACAD_REACTORS
330
7C95
102
}
330
7C95
100
AcDbXrecord
280
     1
102
RTVSPropertyOp0
 70
     1
102
RTVSPropertyOp1
 70
     1
102
RTVSPropertyOp2
 70
     1
102
RTVSPropertyOp3
 70
     1
102
RTVSPropertyOp4
 70
     1
102
RTVSPropertyOp5
 70
     1
102
RTVSPropertyOp6
 70
     1
102
RTVSPropertyOp7
 70
     1
102
RTVSPropertyOp8
 70
     1
102
RTVSPropertyOp9
 70
     1
102
RTVSPropertyOp10
 70
     1
102
RTVSPropertyOp11
 70
     1
102
RTVSPropertyOp12
 70
     1
102
RTVSPropertyOp13
 70
     1
102
RTVSPropertyOp14
 70
     1
102
RTVSPropertyOp15
 70
     1
102
RTVSPropertyOp16
 70
     1
102
RTVSPropertyOp17
 70
     1
102
RTVSPropertyOp18
 70
     1
102
RTVSPropertyOp19
 70
     1
102
RTVSPropertyOp20
 70
     1
102
RTVSPropertyOp21
 70
     1
102
RTVSPropertyOp22
 70
     1
102
RTVSPropertyOp23
 70
     1
102
RTVSPropertyOp24
 70
     1
102
RTVSPropertyOp25
 70
     1
102
RTVSPropertyOp26
 70
     1
102
RTVSPropertyOp27
 70
     1
102
RTVSPropertyOp28
 70
     1
102
RTVSPropertyOp29
 70
     1
102
RTVSPropertyOp30
 70
     1
102
RTVSPropertyOp31
 70
     1
102
RTVSPropertyOp32
 70
     1
  0
XRECORD
  5
7C94
102
{ACAD_REACTORS
330
7C93
102
}
330
7C93
100
AcDbXrecord
280
     1
102
RTVSPropertyOp0
 70
     1
102
RTVSPropertyOp1
 70
     1
102
RTVSPropertyOp2
 70
     1
102
RTVSPropertyOp3
 70
     1
102
RTVSPropertyOp4
 70
     1
102
RTVSPropertyOp5
 70
     1
102
RTVSPropertyOp6
 70
     1
102
RTVSPropertyOp7
 70
     1
102
RTVSPropertyOp8
 70
     1
102
RTVSPropertyOp9
 70
     1
102
RTVSPropertyOp10
 70
     1
102
RTVSPropertyOp11
 70
     1
102
RTVSPropertyOp12
 70
     1
102
RTVSPropertyOp13
 70
     1
102
RTVSPropertyOp14
 70
     1
102
RTVSPropertyOp15
 70
     1
102
RTVSPropertyOp16
 70
     1
102
RTVSPropertyOp17
 70
     1
102
RTVSPropertyOp18
 70
     1
102
RTVSPropertyOp19
 70
     1
102
RTVSPropertyOp20
 70
     1
102
RTVSPropertyOp21
 70
     1
102
RTVSPropertyOp22
 70
     1
102
RTVSPropertyOp23
 70
     1
102
RTVSPropertyOp24
 70
     1
102
RTVSPropertyOp25
 70
     1
102
RTVSPropertyOp26
 70
     1
102
RTVSPropertyOp27
 70
     1
102
RTVSPropertyOp28
 70
     1
102
RTVSPropertyOp29
 70
     1
102
RTVSPropertyOp30
 70
     1
102
RTVSPropertyOp31
 70
     1
102
RTVSPropertyOp32
 70
     1
  0
XRECORD
  5
7C90
102
{ACAD_REACTORS
330
7C8F
102
}
330
7C8F
100
AcDbXrecord
280
     1
102
RTVSPropertyOp0
 70
     1
102
RTVSPropertyOp1
 70
     1
102
RTVSPropertyOp2
 70
     1
102
RTVSPropertyOp3
 70
     1
102
RTVSPropertyOp4
 70
     1
102
RTVSPropertyOp5
 70
     1
102
RTVSPropertyOp6
 70
     1
102
RTVSPropertyOp7
 70
     1
102
RTVSPropertyOp8
 70
     1
102
RTVSPropertyOp9
 70
     1
102
RTVSPropertyOp10
 70
     1
102
RTVSPropertyOp11
 70
     1
102
RTVSPropertyOp12
 70
     1
102
RTVSPropertyOp13
 70
     1
102
RTVSPropertyOp14
 70
     1
102
RTVSPropertyOp15
 70
     1
102
RTVSPropertyOp16
 70
     1
102
RTVSPropertyOp17
 70
     1
102
RTVSPropertyOp18
 70
     1
102
RTVSPropertyOp19
 70
     1
102
RTVSPropertyOp20
 70
     1
102
RTVSPropertyOp21
 70
     1
102
RTVSPropertyOp22
 70
     1
102
RTVSPropertyOp23
 70
     1
102
RTVSPropertyOp24
 70
     1
102
RTVSPropertyOp25
 70
     1
102
RTVSPropertyOp26
 70
     1
102
RTVSPropertyOp27
 70
     1
102
RTVSPropertyOp28
 70
     1
102
RTVSPropertyOp29
 70
     1
102
RTVSPropertyOp30
 70
     1
102
RTVSPropertyOp31
 70
     1
102
RTVSPropertyOp32
 70
     1
  0
XRECORD
  5
7C9E
102
{ACAD_REACTORS
330
7C9D
102
}
330
7C9D
100
AcDbXrecord
280
     1
102
RTVSPropertyOp0
 70
     1
102
RTVSPropertyOp1
 70
     1
102
RTVSPropertyOp2
 70
     1
102
RTVSPropertyOp3
 70
     1
102
RTVSPropertyOp4
 70
     1
102
RTVSPropertyOp5
 70
     1
102
RTVSPropertyOp6
 70
     1
102
RTVSPropertyOp7
 70
     1
102
RTVSPropertyOp8
 70
     1
102
RTVSPropertyOp9
 70
     1
102
RTVSPropertyOp10
 70
     1
102
RTVSPropertyOp11
 70
     1
102
RTVSPropertyOp12
 70
     1
102
RTVSPropertyOp13
 70
     1
102
RTVSPropertyOp14
 70
     1
102
RTVSPropertyOp15
 70
     1
102
RTVSPropertyOp16
 70
     1
102
RTVSPropertyOp17
 70
     1
102
RTVSPropertyOp18
 70
     1
102
RTVSPropertyOp19
 70
     1
102
RTVSPropertyOp20
 70
     1
102
RTVSPropertyOp21
 70
     1
102
RTVSPropertyOp22
 70
     1
102
RTVSPropertyOp23
 70
     1
102
RTVSPropertyOp24
 70
     1
102
RTVSPropertyOp25
 70
     1
102
RTVSPropertyOp26
 70
     1
102
RTVSPropertyOp27
 70
     1
102
RTVSPropertyOp28
 70
     1
102
RTVSPropertyOp29
 70
     1
102
RTVSPropertyOp30
 70
     1
102
RTVSPropertyOp31
 70
     1
102
RTVSPropertyOp32
 70
     1
  0
XRECORD
  5
7CA6
102
{ACAD_REACTORS
330
7CA5
102
}
330
7CA5
100
AcDbXrecord
280
     1
102
RTVSPropertyOp0
 70
     1
102
RTVSPropertyOp1
 70
     1
102
RTVSPropertyOp2
 70
     1
102
RTVSPropertyOp3
 70
     1
102
RTVSPropertyOp4
 70
     1
102
RTVSPropertyOp5
 70
     1
102
RTVSPropertyOp6
 70
     1
102
RTVSPropertyOp7
 70
     1
102
RTVSPropertyOp8
 70
     1
102
RTVSPropertyOp9
 70
     1
102
RTVSPropertyOp10
 70
     1
102
RTVSPropertyOp11
 70
     1
102
RTVSPropertyOp12
 70
     1
102
RTVSPropertyOp13
 70
     1
102
RTVSPropertyOp14
 70
     1
102
RTVSPropertyOp15
 70
     1
102
RTVSPropertyOp16
 70
     1
102
RTVSPropertyOp17
 70
     1
102
RTVSPropertyOp18
 70
     1
102
RTVSPropertyOp19
 70
     1
102
RTVSPropertyOp20
 70
     1
102
RTVSPropertyOp21
 70
     1
102
RTVSPropertyOp22
 70
     1
102
RTVSPropertyOp23
 70
     1
102
RTVSPropertyOp24
 70
     1
102
RTVSPropertyOp25
 70
     1
102
RTVSPropertyOp26
 70
     1
102
RTVSPropertyOp27
 70
     1
102
RTVSPropertyOp28
 70
     1
102
RTVSPropertyOp29
 70
     1
102
RTVSPropertyOp30
 70
     1
102
RTVSPropertyOp31
 70
     1
102
RTVSPropertyOp32
 70
     1
  0
XRECORD
  5
7C98
102
{ACAD_REACTORS
330
7C97
102
}
330
7C97
100
AcDbXrecord
280
     1
102
RTVSPropertyOp0
 70
     1
102
RTVSPropertyOp1
 70
     1
102
RTVSPropertyOp2
 70
     1
102
RTVSPropertyOp3
 70
     1
102
RTVSPropertyOp4
 70
     1
102
RTVSPropertyOp5
 70
     1
102
RTVSPropertyOp6
 70
     1
102
RTVSPropertyOp7
 70
     1
102
RTVSPropertyOp8
 70
     1
102
RTVSPropertyOp9
 70
     1
102
RTVSPropertyOp10
 70
     1
102
RTVSPropertyOp11
 70
     1
102
RTVSPropertyOp12
 70
     1
102
RTVSPropertyOp13
 70
     1
102
RTVSPropertyOp14
 70
     1
102
RTVSPropertyOp15
 70
     1
102
RTVSPropertyOp16
 70
     1
102
RTVSPropertyOp17
 70
     1
102
RTVSPropertyOp18
 70
     1
102
RTVSPropertyOp19
 70
     1
102
RTVSPropertyOp20
 70
     1
102
RTVSPropertyOp21
 70
     1
102
RTVSPropertyOp22
 70
     1
102
RTVSPropertyOp23
 70
     1
102
RTVSPropertyOp24
 70
     1
102
RTVSPropertyOp25
 70
     1
102
RTVSPropertyOp26
 70
     1
102
RTVSPropertyOp27
 70
     1
102
RTVSPropertyOp28
 70
     1
102
RTVSPropertyOp29
 70
     1
102
RTVSPropertyOp30
 70
     1
102
RTVSPropertyOp31
 70
     1
102
RTVSPropertyOp32
 70
     1
  0
XRECORD
  5
7C9C
102
{ACAD_REACTORS
330
7C9B
102
}
330
7C9B
100
AcDbXrecord
280
     1
102
RTVSPropertyOp0
 70
     1
102
RTVSPropertyOp1
 70
     1
102
RTVSPropertyOp2
 70
     1
102
RTVSPropertyOp3
 70
     1
102
RTVSPropertyOp4
 70
     1
102
RTVSPropertyOp5
 70
     1
102
RTVSPropertyOp6
 70
     1
102
RTVSPropertyOp7
 70
     1
102
RTVSPropertyOp8
 70
     1
102
RTVSPropertyOp9
 70
     1
102
RTVSPropertyOp10
 70
     1
102
RTVSPropertyOp11
 70
     1
102
RTVSPropertyOp12
 70
     1
102
RTVSPropertyOp13
 70
     1
102
RTVSPropertyOp14
 70
     1
102
RTVSPropertyOp15
 70
     1
102
RTVSPropertyOp16
 70
     1
102
RTVSPropertyOp17
 70
     1
102
RTVSPropertyOp18
 70
     1
102
RTVSPropertyOp19
 70
     1
102
RTVSPropertyOp20
 70
     1
102
RTVSPropertyOp21
 70
     1
102
RTVSPropertyOp22
 70
     1
102
RTVSPropertyOp23
 70
     1
102
RTVSPropertyOp24
 70
     1
102
RTVSPropertyOp25
 70
     1
102
RTVSPropertyOp26
 70
     1
102
RTVSPropertyOp27
 70
     1
102
RTVSPropertyOp28
 70
     1
102
RTVSPropertyOp29
 70
     1
102
RTVSPropertyOp30
 70
     1
102
RTVSPropertyOp31
 70
     1
102
RTVSPropertyOp32
 70
     1
  0
XRECORD
  5
7CBB
102
{ACAD_REACTORS
330
7CBA
102
}
330
7CBA
100
AcDbXrecord
280
     1
102
RTVSPropertyOp0
 70
     0
102
RTVSPropertyOp1
 70
     0
102
RTVSPropertyOp2
 70
     0
102
RTVSPropertyOp3
 70
     0
102
RTVSPropertyOp4
 70
     0
102
RTVSPropertyOp5
 70
     0
102
RTVSPropertyOp6
 70
     0
102
RTVSPropertyOp7
 70
     0
102
RTVSPropertyOp8
 70
     0
102
RTVSPropertyOp9
 70
     0
102
RTVSPropertyOp10
 70
     0
102
RTVSPropertyOp11
 70
     0
102
RTVSPropertyOp12
 70
     0
102
RTVSPropertyOp13
 70
     0
102
RTVSPropertyOp14
 70
     2
102
RTVSPropertyOp15
 70
     0
102
RTVSPropertyOp16
 70
     0
102
RTVSPropertyOp17
 70
     0
102
RTVSPropertyOp18
 70
     0
102
RTVSPropertyOp19
 70
     0
102
RTVSPropertyOp20
 70
     0
102
RTVSPropertyOp21
 70
     0
102
RTVSPropertyOp22
 70
     0
102
RTVSPropertyOp23
 70
     0
102
RTVSPropertyOp24
 70
     0
102
RTVSPropertyOp25
 70
     0
102
RTVSPropertyOp26
 70
     0
102
RTVSPropertyOp27
 70
     0
102
RTVSPropertyOp28
 70
     0
102
RTVSPropertyOp29
 70
     0
102
RTVSPropertyOp30
 70
     0
102
RTVSPropertyOp31
 70
     0
102
RTVSPropertyOp32
 70
     0
  0
XRECORD
  5
7CA4
102
{ACAD_REACTORS
330
7CA3
102
}
330
7CA3
100
AcDbXrecord
280
     1
102
RTVSPropertyOp0
 70
     1
102
RTVSPropertyOp1
 70
     1
102
RTVSPropertyOp2
 70
     1
102
RTVSPropertyOp3
 70
     1
102
RTVSPropertyOp4
 70
     1
102
RTVSPropertyOp5
 70
     1
102
RTVSPropertyOp6
 70
     1
102
RTVSPropertyOp7
 70
     1
102
RTVSPropertyOp8
 70
     1
102
RTVSPropertyOp9
 70
     1
102
RTVSPropertyOp10
 70
     1
102
RTVSPropertyOp11
 70
     1
102
RTVSPropertyOp12
 70
     1
102
RTVSPropertyOp13
 70
     1
102
RTVSPropertyOp14
 70
     1
102
RTVSPropertyOp15
 70
     1
102
RTVSPropertyOp16
 70
     1
102
RTVSPropertyOp17
 70
     1
102
RTVSPropertyOp18
 70
     1
102
RTVSPropertyOp19
 70
     1
102
RTVSPropertyOp20
 70
     1
102
RTVSPropertyOp21
 70
     1
102
RTVSPropertyOp22
 70
     1
102
RTVSPropertyOp23
 70
     1
102
RTVSPropertyOp24
 70
     1
102
RTVSPropertyOp25
 70
     1
102
RTVSPropertyOp26
 70
     1
102
RTVSPropertyOp27
 70
     1
102
RTVSPropertyOp28
 70
     1
102
RTVSPropertyOp29
 70
     1
102
RTVSPropertyOp30
 70
     1
102
RTVSPropertyOp31
 70
     1
102
RTVSPropertyOp32
 70
     1
  0
XRECORD
  5
7C88
102
{ACAD_REACTORS
330
7C87
102
}
330
7C87
100
AcDbXrecord
280
     1
102
RTVSPropertyOp0
 70
     1
102
RTVSPropertyOp1
 70
     1
102
RTVSPropertyOp2
 70
     1
102
RTVSPropertyOp3
 70
     1
102
RTVSPropertyOp4
 70
     1
102
RTVSPropertyOp5
 70
     1
102
RTVSPropertyOp6
 70
     1
102
RTVSPropertyOp7
 70
     1
102
RTVSPropertyOp8
 70
     1
102
RTVSPropertyOp9
 70
     1
102
RTVSPropertyOp10
 70
     1
102
RTVSPropertyOp11
 70
     1
102
RTVSPropertyOp12
 70
     1
102
RTVSPropertyOp13
 70
     1
102
RTVSPropertyOp14
 70
     1
102
RTVSPropertyOp15
 70
     1
102
RTVSPropertyOp16
 70
     1
102
RTVSPropertyOp17
 70
     1
102
RTVSPropertyOp18
 70
     1
102
RTVSPropertyOp19
 70
     1
102
RTVSPropertyOp20
 70
     1
102
RTVSPropertyOp21
 70
     1
102
RTVSPropertyOp22
 70
     1
102
RTVSPropertyOp23
 70
     1
102
RTVSPropertyOp24
 70
     1
102
RTVSPropertyOp25
 70
     1
102
RTVSPropertyOp26
 70
     1
102
RTVSPropertyOp27
 70
     1
102
RTVSPropertyOp28
 70
     1
102
RTVSPropertyOp29
 70
     1
102
RTVSPropertyOp30
 70
     1
102
RTVSPropertyOp31
 70
     1
102
RTVSPropertyOp32
 70
     1
  0
XRECORD
  5
7C8A
102
{ACAD_REACTORS
330
7C89
102
}
330
7C89
100
AcDbXrecord
280
     1
102
RTVSPropertyOp0
 70
     1
102
RTVSPropertyOp1
 70
     1
102
RTVSPropertyOp2
 70
     1
102
RTVSPropertyOp3
 70
     1
102
RTVSPropertyOp4
 70
     1
102
RTVSPropertyOp5
 70
     1
102
RTVSPropertyOp6
 70
     1
102
RTVSPropertyOp7
 70
     1
102
RTVSPropertyOp8
 70
     1
102
RTVSPropertyOp9
 70
     1
102
RTVSPropertyOp10
 70
     1
102
RTVSPropertyOp11
 70
     1
102
RTVSPropertyOp12
 70
     1
102
RTVSPropertyOp13
 70
     1
102
RTVSPropertyOp14
 70
     1
102
RTVSPropertyOp15
 70
     1
102
RTVSPropertyOp16
 70
     1
102
RTVSPropertyOp17
 70
     1
102
RTVSPropertyOp18
 70
     1
102
RTVSPropertyOp19
 70
     1
102
RTVSPropertyOp20
 70
     1
102
RTVSPropertyOp21
 70
     1
102
RTVSPropertyOp22
 70
     1
102
RTVSPropertyOp23
 70
     1
102
RTVSPropertyOp24
 70
     1
102
RTVSPropertyOp25
 70
     1
102
RTVSPropertyOp26
 70
     1
102
RTVSPropertyOp27
 70
     1
102
RTVSPropertyOp28
 70
     1
102
RTVSPropertyOp29
 70
     1
102
RTVSPropertyOp30
 70
     1
102
RTVSPropertyOp31
 70
     1
102
RTVSPropertyOp32
 70
     1
  0
XRECORD
  5
7C8C
102
{ACAD_REACTORS
330
7C8B
102
}
330
7C8B
100
AcDbXrecord
280
     1
102
RTVSPropertyOp0
 70
     1
102
RTVSPropertyOp1
 70
     1
102
RTVSPropertyOp2
 70
     1
102
RTVSPropertyOp3
 70
     1
102
RTVSPropertyOp4
 70
     1
102
RTVSPropertyOp5
 70
     1
102
RTVSPropertyOp6
 70
     1
102
RTVSPropertyOp7
 70
     1
102
RTVSPropertyOp8
 70
     1
102
RTVSPropertyOp9
 70
     1
102
RTVSPropertyOp10
 70
     1
102
RTVSPropertyOp11
 70
     1
102
RTVSPropertyOp12
 70
     1
102
RTVSPropertyOp13
 70
     1
102
RTVSPropertyOp14
 70
     1
102
RTVSPropertyOp15
 70
     1
102
RTVSPropertyOp16
 70
     1
102
RTVSPropertyOp17
 70
     1
102
RTVSPropertyOp18
 70
     1
102
RTVSPropertyOp19
 70
     1
102
RTVSPropertyOp20
 70
     1
102
RTVSPropertyOp21
 70
     1
102
RTVSPropertyOp22
 70
     1
102
RTVSPropertyOp23
 70
     1
102
RTVSPropertyOp24
 70
     1
102
RTVSPropertyOp25
 70
     1
102
RTVSPropertyOp26
 70
     1
102
RTVSPropertyOp27
 70
     1
102
RTVSPropertyOp28
 70
     1
102
RTVSPropertyOp29
 70
     1
102
RTVSPropertyOp30
 70
     1
102
RTVSPropertyOp31
 70
     1
102
RTVSPropertyOp32
 70
     1
  0
XRECORD
  5
7C8E
102
{ACAD_REACTORS
330
7C8D
102
}
330
7C8D
100
AcDbXrecord
280
     1
102
RTVSPropertyOp0
 70
     1
102
RTVSPropertyOp1
 70
     1
102
RTVSPropertyOp2
 70
     1
102
RTVSPropertyOp3
 70
     1
102
RTVSPropertyOp4
 70
     1
102
RTVSPropertyOp5
 70
     1
102
RTVSPropertyOp6
 70
     1
102
RTVSPropertyOp7
 70
     1
102
RTVSPropertyOp8
 70
     1
102
RTVSPropertyOp9
 70
     1
102
RTVSPropertyOp10
 70
     1
102
RTVSPropertyOp11
 70
     1
102
RTVSPropertyOp12
 70
     1
102
RTVSPropertyOp13
 70
     1
102
RTVSPropertyOp14
 70
     1
102
RTVSPropertyOp15
 70
     1
102
RTVSPropertyOp16
 70
     1
102
RTVSPropertyOp17
 70
     1
102
RTVSPropertyOp18
 70
     1
102
RTVSPropertyOp19
 70
     1
102
RTVSPropertyOp20
 70
     1
102
RTVSPropertyOp21
 70
     1
102
RTVSPropertyOp22
 70
     1
102
RTVSPropertyOp23
 70
     1
102
RTVSPropertyOp24
 70
     1
102
RTVSPropertyOp25
 70
     1
102
RTVSPropertyOp26
 70
     1
102
RTVSPropertyOp27
 70
     1
102
RTVSPropertyOp28
 70
     1
102
RTVSPropertyOp29
 70
     1
102
RTVSPropertyOp30
 70
     1
102
RTVSPropertyOp31
 70
     1
102
RTVSPropertyOp32
 70
     1
  0
XRECORD
  5
7CAB
102
{ACAD_REACTORS
330
7CAA
102
}
330
7CAA
100
AcDbXrecord
280
     1
102
RTVSPropertyOp0
 70
     1
102
RTVSPropertyOp1
 70
     1
102
RTVSPropertyOp2
 70
     1
102
RTVSPropertyOp3
 70
     1
102
RTVSPropertyOp4
 70
     1
102
RTVSPropertyOp5
 70
     1
102
RTVSPropertyOp6
 70
     1
102
RTVSPropertyOp7
 70
     1
102
RTVSPropertyOp8
 70
     1
102
RTVSPropertyOp9
 70
     1
102
RTVSPropertyOp10
 70
     1
102
RTVSPropertyOp11
 70
     1
102
RTVSPropertyOp12
 70
     1
102
RTVSPropertyOp13
 70
     1
102
RTVSPropertyOp14
 70
     1
102
RTVSPropertyOp15
 70
     1
102
RTVSPropertyOp16
 70
     1
102
RTVSPropertyOp17
 70
     1
102
RTVSPropertyOp18
 70
     1
102
RTVSPropertyOp19
 70
     1
102
RTVSPropertyOp20
 70
     1
102
RTVSPropertyOp21
 70
     1
102
RTVSPropertyOp22
 70
     1
102
RTVSPropertyOp23
 70
     1
102
RTVSPropertyOp24
 70
     1
102
RTVSPropertyOp25
 70
     1
102
RTVSPropertyOp26
 70
     1
102
RTVSPropertyOp27
 70
     1
102
RTVSPropertyOp28
 70
     1
102
RTVSPropertyOp29
 70
     1
102
RTVSPropertyOp30
 70
     1
102
RTVSPropertyOp31
 70
     1
102
RTVSPropertyOp32
 70
     1
  0
XRECORD
  5
7CB7
102
{ACAD_REACTORS
330
7CB6
102
}
330
7CB6
100
AcDbXrecord
280
     1
102
RTVSPropertyOp0
 70
     0
102
RTVSPropertyOp1
 70
     0
102
RTVSPropertyOp2
 70
     0
102
RTVSPropertyOp3
 70
     0
102
RTVSPropertyOp4
 70
     0
102
RTVSPropertyOp5
 70
     0
102
RTVSPropertyOp6
 70
     0
102
RTVSPropertyOp7
 70
     0
102
RTVSPropertyOp8
 70
     0
102
RTVSPropertyOp9
 70
     0
102
RTVSPropertyOp10
 70
     0
102
RTVSPropertyOp11
 70
     0
102
RTVSPropertyOp12
 70
     0
102
RTVSPropertyOp13
 70
     0
102
RTVSPropertyOp14
 70
     2
102
RTVSPropertyOp15
 70
     0
102
RTVSPropertyOp16
 70
     0
102
RTVSPropertyOp17
 70
     0
102
RTVSPropertyOp18
 70
     0
102
RTVSPropertyOp19
 70
     0
102
RTVSPropertyOp20
 70
     0
102
RTVSPropertyOp21
 70
     0
102
RTVSPropertyOp22
 70
     0
102
RTVSPropertyOp23
 70
     0
102
RTVSPropertyOp24
 70
     0
102
RTVSPropertyOp25
 70
     0
102
RTVSPropertyOp26
 70
     0
102
RTVSPropertyOp27
 70
     0
102
RTVSPropertyOp28
 70
     0
102
RTVSPropertyOp29
 70
     0
102
RTVSPropertyOp30
 70
     0
102
RTVSPropertyOp31
 70
     0
102
RTVSPropertyOp32
 70
     0
  0
XRECORD
  5
7CA2
102
{ACAD_REACTORS
330
7CA1
102
}
330
7CA1
100
AcDbXrecord
280
     1
102
RTVSPropertyOp0
 70
     1
102
RTVSPropertyOp1
 70
     1
102
RTVSPropertyOp2
 70
     1
102
RTVSPropertyOp3
 70
     1
102
RTVSPropertyOp4
 70
     1
102
RTVSPropertyOp5
 70
     1
102
RTVSPropertyOp6
 70
     1
102
RTVSPropertyOp7
 70
     1
102
RTVSPropertyOp8
 70
     1
102
RTVSPropertyOp9
 70
     1
102
RTVSPropertyOp10
 70
     1
102
RTVSPropertyOp11
 70
     1
102
RTVSPropertyOp12
 70
     1
102
RTVSPropertyOp13
 70
     1
102
RTVSPropertyOp14
 70
     1
102
RTVSPropertyOp15
 70
     1
102
RTVSPropertyOp16
 70
     1
102
RTVSPropertyOp17
 70
     1
102
RTVSPropertyOp18
 70
     1
102
RTVSPropertyOp19
 70
     1
102
RTVSPropertyOp20
 70
     1
102
RTVSPropertyOp21
 70
     1
102
RTVSPropertyOp22
 70
     1
102
RTVSPropertyOp23
 70
     1
102
RTVSPropertyOp24
 70
     1
102
RTVSPropertyOp25
 70
     1
102
RTVSPropertyOp26
 70
     1
102
RTVSPropertyOp27
 70
     1
102
RTVSPropertyOp28
 70
     1
102
RTVSPropertyOp29
 70
     1
102
RTVSPropertyOp30
 70
     1
102
RTVSPropertyOp31
 70
     1
102
RTVSPropertyOp32
 70
     1
  0
XRECORD
  5
7CB9
102
{ACAD_REACTORS
330
7CB8
102
}
330
7CB8
100
AcDbXrecord
280
     1
102
RTVSPropertyOp0
 70
     0
102
RTVSPropertyOp1
 70
     0
102
RTVSPropertyOp2
 70
     0
102
RTVSPropertyOp3
 70
     0
102
RTVSPropertyOp4
 70
     0
102
RTVSPropertyOp5
 70
     0
102
RTVSPropertyOp6
 70
     0
102
RTVSPropertyOp7
 70
     0
102
RTVSPropertyOp8
 70
     0
102
RTVSPropertyOp9
 70
     0
102
RTVSPropertyOp10
 70
     0
102
RTVSPropertyOp11
 70
     0
102
RTVSPropertyOp12
 70
     0
102
RTVSPropertyOp13
 70
     0
102
RTVSPropertyOp14
 70
     2
102
RTVSPropertyOp15
 70
     0
102
RTVSPropertyOp16
 70
     0
102
RTVSPropertyOp17
 70
     0
102
RTVSPropertyOp18
 70
     0
102
RTVSPropertyOp19
 70
     0
102
RTVSPropertyOp20
 70
     0
102
RTVSPropertyOp21
 70
     0
102
RTVSPropertyOp22
 70
     0
102
RTVSPropertyOp23
 70
     0
102
RTVSPropertyOp24
 70
     0
102
RTVSPropertyOp25
 70
     0
102
RTVSPropertyOp26
 70
     0
102
RTVSPropertyOp27
 70
     0
102
RTVSPropertyOp28
 70
     0
102
RTVSPropertyOp29
 70
     0
102
RTVSPropertyOp30
 70
     0
102
RTVSPropertyOp31
 70
     0
102
RTVSPropertyOp32
 70
     0
  0
XRECORD
  5
7C9A
102
{ACAD_REACTORS
330
7C99
102
}
330
7C99
100
AcDbXrecord
280
     1
102
RTVSPropertyOp0
 70
     1
102
RTVSPropertyOp1
 70
     1
102
RTVSPropertyOp2
 70
     1
102
RTVSPropertyOp3
 70
     1
102
RTVSPropertyOp4
 70
     1
102
RTVSPropertyOp5
 70
     1
102
RTVSPropertyOp6
 70
     1
102
RTVSPropertyOp7
 70
     1
102
RTVSPropertyOp8
 70
     1
102
RTVSPropertyOp9
 70
     1
102
RTVSPropertyOp10
 70
     1
102
RTVSPropertyOp11
 70
     1
102
RTVSPropertyOp12
 70
     1
102
RTVSPropertyOp13
 70
     1
102
RTVSPropertyOp14
 70
     1
102
RTVSPropertyOp15
 70
     1
102
RTVSPropertyOp16
 70
     1
102
RTVSPropertyOp17
 70
     1
102
RTVSPropertyOp18
 70
     1
102
RTVSPropertyOp19
 70
     1
102
RTVSPropertyOp20
 70
     1
102
RTVSPropertyOp21
 70
     1
102
RTVSPropertyOp22
 70
     1
102
RTVSPropertyOp23
 70
     1
102
RTVSPropertyOp24
 70
     1
102
RTVSPropertyOp25
 70
     1
102
RTVSPropertyOp26
 70
     1
102
RTVSPropertyOp27
 70
     1
102
RTVSPropertyOp28
 70
     1
102
RTVSPropertyOp29
 70
     1
102
RTVSPropertyOp30
 70
     1
102
RTVSPropertyOp31
 70
     1
102
RTVSPropertyOp32
 70
     1
  0
XRECORD
  5
7CB5
102
{ACAD_REACTORS
330
7CB4
102
}
330
7CB4
100
AcDbXrecord
280
     1
102
RTVSPropertyOp0
 70
     1
102
RTVSPropertyOp1
 70
     1
102
RTVSPropertyOp2
 70
     1
102
RTVSPropertyOp3
 70
     1
102
RTVSPropertyOp4
 70
     1
102
RTVSPropertyOp5
 70
     1
102
RTVSPropertyOp6
 70
     1
102
RTVSPropertyOp7
 70
     1
102
RTVSPropertyOp8
 70
     1
102
RTVSPropertyOp9
 70
     1
102
RTVSPropertyOp10
 70
     1
102
RTVSPropertyOp11
 70
     1
102
RTVSPropertyOp12
 70
     1
102
RTVSPropertyOp13
 70
     1
102
RTVSPropertyOp14
 70
     1
102
RTVSPropertyOp15
 70
     1
102
RTVSPropertyOp16
 70
     1
102
RTVSPropertyOp17
 70
     1
102
RTVSPropertyOp18
 70
     1
102
RTVSPropertyOp19
 70
     1
102
RTVSPropertyOp20
 70
     1
102
RTVSPropertyOp21
 70
     1
102
RTVSPropertyOp22
 70
     1
102
RTVSPropertyOp23
 70
     1
102
RTVSPropertyOp24
 70
     1
102
RTVSPropertyOp25
 70
     1
102
RTVSPropertyOp26
 70
     1
102
RTVSPropertyOp27
 70
     1
102
RTVSPropertyOp28
 70
     1
102
RTVSPropertyOp29
 70
     1
102
RTVSPropertyOp30
 70
     1
102
RTVSPropertyOp31
 70
     1
102
RTVSPropertyOp32
 70
     1
  0
XRECORD
  5
7CB3
102
{ACAD_REACTORS
330
7CB2
102
}
330
7CB2
100
AcDbXrecord
280
     1
102
RTVSPropertyOp0
 70
     1
102
RTVSPropertyOp1
 70
     1
102
RTVSPropertyOp2
 70
     1
102
RTVSPropertyOp3
 70
     1
102
RTVSPropertyOp4
 70
     1
102
RTVSPropertyOp5
 70
     1
102
RTVSPropertyOp6
 70
     1
102
RTVSPropertyOp7
 70
     1
102
RTVSPropertyOp8
 70
     1
102
RTVSPropertyOp9
 70
     1
102
RTVSPropertyOp10
 70
     1
102
RTVSPropertyOp11
 70
     1
102
RTVSPropertyOp12
 70
     1
102
RTVSPropertyOp13
 70
     1
102
RTVSPropertyOp14
 70
     1
102
RTVSPropertyOp15
 70
     1
102
RTVSPropertyOp16
 70
     1
102
RTVSPropertyOp17
 70
     1
102
RTVSPropertyOp18
 70
     1
102
RTVSPropertyOp19
 70
     1
102
RTVSPropertyOp20
 70
     1
102
RTVSPropertyOp21
 70
     1
102
RTVSPropertyOp22
 70
     1
102
RTVSPropertyOp23
 70
     1
102
RTVSPropertyOp24
 70
     1
102
RTVSPropertyOp25
 70
     1
102
RTVSPropertyOp26
 70
     1
102
RTVSPropertyOp27
 70
     1
102
RTVSPropertyOp28
 70
     1
102
RTVSPropertyOp29
 70
     1
102
RTVSPropertyOp30
 70
     1
102
RTVSPropertyOp31
 70
     1
102
RTVSPropertyOp32
 70
     1
  0
XRECORD
  5
7CAD
102
{ACAD_REACTORS
330
7CAC
102
}
330
7CAC
100
AcDbXrecord
280
     1
102
RTVSPropertyOp0
 70
     1
102
RTVSPropertyOp1
 70
     1
102
RTVSPropertyOp2
 70
     1
102
RTVSPropertyOp3
 70
     1
102
RTVSPropertyOp4
 70
     1
102
RTVSPropertyOp5
 70
     1
102
RTVSPropertyOp6
 70
     1
102
RTVSPropertyOp7
 70
     1
102
RTVSPropertyOp8
 70
     1
102
RTVSPropertyOp9
 70
     1
102
RTVSPropertyOp10
 70
     1
102
RTVSPropertyOp11
 70
     1
102
RTVSPropertyOp12
 70
     1
102
RTVSPropertyOp13
 70
     1
102
RTVSPropertyOp14
 70
     1
102
RTVSPropertyOp15
 70
     1
102
RTVSPropertyOp16
 70
     1
102
RTVSPropertyOp17
 70
     1
102
RTVSPropertyOp18
 70
     1
102
RTVSPropertyOp19
 70
     1
102
RTVSPropertyOp20
 70
     1
102
RTVSPropertyOp21
 70
     1
102
RTVSPropertyOp22
 70
     1
102
RTVSPropertyOp23
 70
     1
102
RTVSPropertyOp24
 70
     1
102
RTVSPropertyOp25
 70
     1
102
RTVSPropertyOp26
 70
     1
102
RTVSPropertyOp27
 70
     1
102
RTVSPropertyOp28
 70
     1
102
RTVSPropertyOp29
 70
     1
102
RTVSPropertyOp30
 70
     1
102
RTVSPropertyOp31
 70
     1
102
RTVSPropertyOp32
 70
     1
  0
XRECORD
  5
7CAF
102
{ACAD_REACTORS
330
7CAE
102
}
330
7CAE
100
AcDbXrecord
280
     1
102
RTVSPropertyOp0
 70
     1
102
RTVSPropertyOp1
 70
     1
102
RTVSPropertyOp2
 70
     1
102
RTVSPropertyOp3
 70
     1
102
RTVSPropertyOp4
 70
     1
102
RTVSPropertyOp5
 70
     1
102
RTVSPropertyOp6
 70
     1
102
RTVSPropertyOp7
 70
     1
102
RTVSPropertyOp8
 70
     1
102
RTVSPropertyOp9
 70
     1
102
RTVSPropertyOp10
 70
     1
102
RTVSPropertyOp11
 70
     1
102
RTVSPropertyOp12
 70
     1
102
RTVSPropertyOp13
 70
     1
102
RTVSPropertyOp14
 70
     1
102
RTVSPropertyOp15
 70
     1
102
RTVSPropertyOp16
 70
     1
102
RTVSPropertyOp17
 70
     1
102
RTVSPropertyOp18
 70
     1
102
RTVSPropertyOp19
 70
     1
102
RTVSPropertyOp20
 70
     1
102
RTVSPropertyOp21
 70
     1
102
RTVSPropertyOp22
 70
     1
102
RTVSPropertyOp23
 70
     1
102
RTVSPropertyOp24
 70
     1
102
RTVSPropertyOp25
 70
     1
102
RTVSPropertyOp26
 70
     1
102
RTVSPropertyOp27
 70
     1
102
RTVSPropertyOp28
 70
     1
102
RTVSPropertyOp29
 70
     1
102
RTVSPropertyOp30
 70
     1
102
RTVSPropertyOp31
 70
     1
102
RTVSPropertyOp32
 70
     1
  0
XRECORD
  5
7CA0
102
{ACAD_REACTORS
330
7C9F
102
}
330
7C9F
100
AcDbXrecord
280
     1
102
RTVSPropertyOp0
 70
     1
102
RTVSPropertyOp1
 70
     1
102
RTVSPropertyOp2
 70
     1
102
RTVSPropertyOp3
 70
     1
102
RTVSPropertyOp4
 70
     1
102
RTVSPropertyOp5
 70
     1
102
RTVSPropertyOp6
 70
     1
102
RTVSPropertyOp7
 70
     1
102
RTVSPropertyOp8
 70
     1
102
RTVSPropertyOp9
 70
     1
102
RTVSPropertyOp10
 70
     1
102
RTVSPropertyOp11
 70
     1
102
RTVSPropertyOp12
 70
     1
102
RTVSPropertyOp13
 70
     1
102
RTVSPropertyOp14
 70
     1
102
RTVSPropertyOp15
 70
     1
102
RTVSPropertyOp16
 70
     1
102
RTVSPropertyOp17
 70
     1
102
RTVSPropertyOp18
 70
     1
102
RTVSPropertyOp19
 70
     1
102
RTVSPropertyOp20
 70
     1
102
RTVSPropertyOp21
 70
     1
102
RTVSPropertyOp22
 70
     1
102
RTVSPropertyOp23
 70
     1
102
RTVSPropertyOp24
 70
     1
102
RTVSPropertyOp25
 70
     1
102
RTVSPropertyOp26
 70
     1
102
RTVSPropertyOp27
 70
     1
102
RTVSPropertyOp28
 70
     1
102
RTVSPropertyOp29
 70
     1
102
RTVSPropertyOp30
 70
     1
102
RTVSPropertyOp31
 70
     1
102
RTVSPropertyOp32
 70
     1
  0
XRECORD
  5
7CA9
102
{ACAD_REACTORS
330
7CA8
102
}
330
7CA8
100
AcDbXrecord
280
     1
102
RTVSPropertyOp0
 70
     1
102
RTVSPropertyOp1
 70
     1
102
RTVSPropertyOp2
 70
     1
102
RTVSPropertyOp3
 70
     1
102
RTVSPropertyOp4
 70
     1
102
RTVSPropertyOp5
 70
     1
102
RTVSPropertyOp6
 70
     1
102
RTVSPropertyOp7
 70
     1
102
RTVSPropertyOp8
 70
     1
102
RTVSPropertyOp9
 70
     1
102
RTVSPropertyOp10
 70
     1
102
RTVSPropertyOp11
 70
     1
102
RTVSPropertyOp12
 70
     1
102
RTVSPropertyOp13
 70
     1
102
RTVSPropertyOp14
 70
     1
102
RTVSPropertyOp15
 70
     1
102
RTVSPropertyOp16
 70
     1
102
RTVSPropertyOp17
 70
     1
102
RTVSPropertyOp18
 70
     1
102
RTVSPropertyOp19
 70
     1
102
RTVSPropertyOp20
 70
     1
102
RTVSPropertyOp21
 70
     1
102
RTVSPropertyOp22
 70
     1
102
RTVSPropertyOp23
 70
     1
102
RTVSPropertyOp24
 70
     1
102
RTVSPropertyOp25
 70
     1
102
RTVSPropertyOp26
 70
     1
102
RTVSPropertyOp27
 70
     1
102
RTVSPropertyOp28
 70
     1
102
RTVSPropertyOp29
 70
     1
102
RTVSPropertyOp30
 70
     1
102
RTVSPropertyOp31
 70
     1
102
RTVSPropertyOp32
 70
     1
  0
XRECORD
  5
7CB1
102
{ACAD_REACTORS
330
7CB0
102
}
330
7CB0
100
AcDbXrecord
280
     1
102
RTVSPropertyOp0
 70
     1
102
RTVSPropertyOp1
 70
     1
102
RTVSPropertyOp2
 70
     1
102
RTVSPropertyOp3
 70
     1
102
RTVSPropertyOp4
 70
     1
102
RTVSPropertyOp5
 70
     1
102
RTVSPropertyOp6
 70
     1
102
RTVSPropertyOp7
 70
     1
102
RTVSPropertyOp8
 70
     1
102
RTVSPropertyOp9
 70
     1
102
RTVSPropertyOp10
 70
     1
102
RTVSPropertyOp11
 70
     1
102
RTVSPropertyOp12
 70
     1
102
RTVSPropertyOp13
 70
     1
102
RTVSPropertyOp14
 70
     1
102
RTVSPropertyOp15
 70
     1
102
RTVSPropertyOp16
 70
     1
102
RTVSPropertyOp17
 70
     1
102
RTVSPropertyOp18
 70
     1
102
RTVSPropertyOp19
 70
     1
102
RTVSPropertyOp20
 70
     1
102
RTVSPropertyOp21
 70
     1
102
RTVSPropertyOp22
 70
     1
102
RTVSPropertyOp23
 70
     1
102
RTVSPropertyOp24
 70
     1
102
RTVSPropertyOp25
 70
     1
102
RTVSPropertyOp26
 70
     1
102
RTVSPropertyOp27
 70
     1
102
RTVSPropertyOp28
 70
     1
102
RTVSPropertyOp29
 70
     1
102
RTVSPropertyOp30
 70
     1
102
RTVSPropertyOp31
 70
     1
102
RTVSPropertyOp32
 70
     1
  0
ENDSEC
  0
EOF
