  0
SECTION
  2
HEADER
  9
$ACADVER
  1
AC1015
  9
$ACADMAINTVER
 70
    18
  9
$DWGCODEPAGE
  3
ANSI_1252
  9
$INSBASE
 10
0.0
 20
0.0
 30
0.0
  9
$EXTMIN
 10
-0.0018951617589168
 20
-0.0006657314757203
 30
-0.0000000349181948
  9
$EXTMAX
 10
22.00091812167374
 20
17.00013867493208
 30
0.0000000814935746
  9
$LIMMIN
 10
0.0000000169183778
 20
0.000000006132197
  9
$LIMMAX
 10
34.00000001691838
 20
22.0000000061322
  9
$ORTHOMODE
 70
     1
  9
$REGENMODE
 70
     1
  9
$FILLMODE
 70
     1
  9
$QTEXTMODE
 70
     0
  9
$MIRRTEXT
 70
     1
  9
$LTSCALE
 40
0.5
  9
$ATTMODE
 70
     1
  9
$TEXTSIZE
 40
0.125
  9
$TRACEWID
 40
0.05
  9
$TEXTSTYLE
  7
Standard
  9
$CLAYER
  8
0
  9
$CELTYPE
  6
ByLayer
  9
$CECOLOR
 62
   256
  9
$CELTSCALE
 40
1.0
  9
$DISPSILH
 70
     0
  9
$DIMSCALE
 40
1.0
  9
$DIMASZ
 40
0.18
  9
$DIMEXO
 40
0.0625
  9
$DIMDLI
 40
0.38
  9
$DIMRND
 40
0.0
  9
$DIMDLE
 40
0.0
  9
$DIMEXE
 40
0.18
  9
$DIMTP
 40
0.0
  9
$DIMTM
 40
0.0
  9
$DIMTXT
 40
0.125
  9
$DIMCEN
 40
0.09
  9
$DIMTSZ
 40
0.0
  9
$DIMTOL
 70
     0
  9
$DIMLIM
 70
     0
  9
$DIMTIH
 70
     1
  9
$DIMTOH
 70
     1
  9
$DIMSE1
 70
     0
  9
$DIMSE2
 70
     0
  9
$DIMTAD
 70
     0
  9
$DIMZIN
 70
     0
  9
$DIMBLK
  1

  9
$DIMASO
 70
     1
  9
$DIMSHO
 70
     1
  9
$DIMPOST
  1

  9
$DIMAPOST
  1

  9
$DIMALT
 70
     1
  9
$DIMALTD
 70
     2
  9
$DIMALTF
 40
25.4
  9
$DIMLFAC
 40
1.0
  9
$DIMTOFL
 70
     0
  9
$DIMTVP
 40
0.0
  9
$DIMTIX
 70
     0
  9
$DIMSOXD
 70
     0
  9
$DIMSAH
 70
     0
  9
$DIMBLK1
  1

  9
$DIMBLK2
  1

  9
$DIMSTYLE
  2
Standard
  9
$DIMCLRD
 70
     0
  9
$DIMCLRE
 70
     0
  9
$DIMCLRT
 70
     0
  9
$DIMTFAC
 40
1.0
  9
$DIMGAP
 40
0.09
  9
$DIMJUST
 70
     0
  9
$DIMSD1
 70
     0
  9
$DIMSD2
 70
     0
  9
$DIMTOLJ
 70
     1
  9
$DIMTZIN
 70
     0
  9
$DIMALTZ
 70
     0
  9
$DIMALTTZ
 70
     0
  9
$DIMUPT
 70
     0
  9
$DIMDEC
 70
     2
  9
$DIMTDEC
 70
     2
  9
$DIMALTU
 70
     2
  9
$DIMALTTD
 70
     2
  9
$DIMTXSTY
  7
Standard
  9
$DIMAUNIT
 70
     0
  9
$DIMADEC
 70
     0
  9
$DIMALTRND
 40
0.0
  9
$DIMAZIN
 70
     0
  9
$DIMDSEP
 70
    46
  9
$DIMATFIT
 70
     3
  9
$DIMFRAC
 70
     0
  9
$DIMLDRBLK
  1

  9
$DIMLUNIT
 70
     2
  9
$DIMLWD
 70
    -2
  9
$DIMLWE
 70
    -2
  9
$DIMTMOVE
 70
     0
  9
$LUNITS
 70
     2
  9
$LUPREC
 70
     4
  9
$SKETCHINC
 40
0.1
  9
$FILLETRAD
 40
0.0
  9
$AUNITS
 70
     0
  9
$AUPREC
 70
     0
  9
$MENU
  1
.
  9
$ELEVATION
 40
0.0
  9
$PELEVATION
 40
0.0
  9
$THICKNESS
 40
0.0
  9
$LIMCHECK
 70
     0
  9
$CHAMFERA
 40
0.5
  9
$CHAMFERB
 40
0.5
  9
$CHAMFERC
 40
1.0
  9
$CHAMFERD
 40
0.0
  9
$SKPOLY
 70
     0
  9
$TDCREATE
 40
2455646.343855880
  9
$TDUCREATE
 40
2455646.510522546
  9
$TDUPDATE
 40
2456008.635571586
  9
$TDUUPDATE
 40
2456008.802238252
  9
$TDINDWG
 40
1.7755770255
  9
$TDUSRTIMER
 40
1.7755770255
  9
$USRTIMER
 70
     1
  9
$ANGBASE
 50
0.0
  9
$ANGDIR
 70
     0
  9
$PDMODE
 70
     0
  9
$PDSIZE
 40
0.0
  9
$PLINEWID
 40
0.0
  9
$SPLFRAME
 70
     0
  9
$SPLINETYPE
 70
     6
  9
$SPLINESEGS
 70
     8
  9
$HANDSEED
  5
8725
  9
$SURFTAB1
 70
     6
  9
$SURFTAB2
 70
     6
  9
$SURFTYPE
 70
     6
  9
$SURFU
 70
     6
  9
$SURFV
 70
     6
  9
$UCSBASE
  2

  9
$UCSNAME
  2

  9
$UCSORG
 10
0.0
 20
0.0
 30
0.0
  9
$UCSXDIR
 10
1.0
 20
0.0
 30
0.0
  9
$UCSYDIR
 10
0.0
 20
1.0
 30
0.0
  9
$UCSORTHOREF
  2

  9
$UCSORTHOVIEW
 70
     1
  9
$UCSORGTOP
 10
0.0
 20
0.0
 30
0.0
  9
$UCSORGBOTTOM
 10
0.0
 20
0.0
 30
0.0
  9
$UCSORGLEFT
 10
0.0
 20
0.0
 30
0.0
  9
$UCSORGRIGHT
 10
0.0
 20
0.0
 30
0.0
  9
$UCSORGFRONT
 10
0.0
 20
0.0
 30
0.0
  9
$UCSORGBACK
 10
0.0
 20
0.0
 30
0.0
  9
$PUCSBASE
  2

  9
$PUCSNAME
  2

  9
$PUCSORG
 10
0.0
 20
0.0
 30
0.0
  9
$PUCSXDIR
 10
1.0
 20
0.0
 30
0.0
  9
$PUCSYDIR
 10
0.0
 20
1.0
 30
0.0
  9
$PUCSORTHOREF
  2

  9
$PUCSORTHOVIEW
 70
     0
  9
$PUCSORGTOP
 10
0.0
 20
0.0
 30
0.0
  9
$PUCSORGBOTTOM
 10
0.0
 20
0.0
 30
0.0
  9
$PUCSORGLEFT
 10
0.0
 20
0.0
 30
0.0
  9
$PUCSORGRIGHT
 10
0.0
 20
0.0
 30
0.0
  9
$PUCSORGFRONT
 10
0.0
 20
0.0
 30
0.0
  9
$PUCSORGBACK
 10
0.0
 20
0.0
 30
0.0
  9
$USERI1
 70
     0
  9
$USERI2
 70
     0
  9
$USERI3
 70
     0
  9
$USERI4
 70
     0
  9
$USERI5
 70
     0
  9
$USERR1
 40
0.0
  9
$USERR2
 40
0.0
  9
$USERR3
 40
0.0
  9
$USERR4
 40
0.0
  9
$USERR5
 40
0.0
  9
$WORLDVIEW
 70
     1
  9
$SHADEDGE
 70
     3
  9
$SHADEDIF
 70
    70
  9
$TILEMODE
 70
     1
  9
$MAXACTVP
 70
    64
  9
$PINSBASE
 10
0.0
 20
0.0
 30
0.0
  9
$PLIMCHECK
 70
     0
  9
$PEXTMIN
 10
1.000000000000000E+20
 20
1.000000000000000E+20
 30
1.000000000000000E+20
  9
$PEXTMAX
 10
-1.000000000000000E+20
 20
-1.000000000000000E+20
 30
-1.000000000000000E+20
  9
$PLIMMIN
 10
0.0
 20
0.0
  9
$PLIMMAX
 10
12.0
 20
9.0
  9
$UNITMODE
 70
     0
  9
$VISRETAIN
 70
     1
  9
$PLINEGEN
 70
     0
  9
$PSLTSCALE
 70
     1
  9
$TREEDEPTH
 70
  3020
  9
$CMLSTYLE
  2
Standard
  9
$CMLJUST
 70
     0
  9
$CMLSCALE
 40
1.0
  9
$PROXYGRAPHICS
 70
     1
  9
$MEASUREMENT
 70
     0
  9
$CELWEIGHT
370
    -1
  9
$ENDCAPS
280
     0
  9
$JOINSTYLE
280
     0
  9
$LWDISPLAY
290
     0
  9
$INSUNITS
 70
     0
  9
$HYPERLINKBASE
  1

  9
$STYLESHEET
  1
monochromeII.ctb
  9
$XEDIT
290
     1
  9
$CEPSNTYPE
380
     0
  9
$PSTYLEMODE
290
     1
  9
$FINGERPRINTGUID
  2
{64101CB1-6290-486C-808A-919D98B85827}
  9
$VERSIONGUID
  2
{8D47F1B3-4E45-482D-B5BE-846B815F870E}
  9
$EXTNAMES
290
     1
  9
$PSVPSCALE
 40
0.0
  9
$OLESTARTUP
290
     0
  0
ENDSEC
  0
SECTION
  2
CLASSES
  0
CLASS
  1
ACDBDICTIONARYWDFLT
  2
AcDbDictionaryWithDefault
  3
ObjectDBX Classes
 90
        0
280
     0
281
     0
  0
CLASS
  1
ACDBPLACEHOLDER
  2
AcDbPlaceHolder
  3
ObjectDBX Classes
 90
        0
280
     0
281
     0
  0
CLASS
  1
LAYOUT
  2
AcDbLayout
  3
ObjectDBX Classes
 90
        0
280
     0
281
     0
  0
CLASS
  1
MATERIAL
  2
AcDbMaterial
  3
ObjectDBX Classes
 90
     1153
280
     0
281
     0
  0
CLASS
  1
VISUALSTYLE
  2
AcDbVisualStyle
  3
ObjectDBX Classes
 90
     4095
280
     0
281
     0
  0
CLASS
  1
TABLESTYLE
  2
AcDbTableStyle
  3
ObjectDBX Classes
 90
     4095
280
     0
281
     0
  0
CLASS
  1
SCALE
  2
AcDbScale
  3
ObjectDBX Classes
 90
     1153
280
     0
281
     0
  0
CLASS
  1
MLEADERSTYLE
  2
AcDbMLeaderStyle
  3
ACDB_MLEADERSTYLE_CLASS
 90
     4095
280
     0
281
     0
  0
CLASS
  1
CELLSTYLEMAP
  2
AcDbCellStyleMap
  3
ObjectDBX Classes
 90
     1152
280
     0
281
     0
  0
CLASS
  1
DICTIONARYVAR
  2
AcDbDictionaryVar
  3
ObjectDBX Classes
 90
        0
280
     0
281
     0
  0
CLASS
  1
SORTENTSTABLE
  2
AcDbSortentsTable
  3
ObjectDBX Classes
 90
        0
280
     0
281
     0
  0
CLASS
  1
ACAD_EVALUATION_GRAPH
  2
AcDbEvalGraph
  3
ObjectDBX Classes
 90
    33921
280
     0
281
     0
  0
CLASS
  1
ACAECUSTOBJ
  2
AcAeEditorObj
  3
AcAeEditorObj
 90
    33792
280
     0
281
     0
  0
CLASS
  1
ACDB_DYNAMICBLOCKPURGEPREVENTER_VERSION
  2
AcDbDynamicBlockPurgePreventer
  3
ObjectDBX Classes
 90
    33921
280
     0
281
     0
  0
CLASS
  1
AEC_REFEDIT_STATUS_TRACKER
  2
AecDbRefEditStatusTracker
  3
AecArchBase60|Product Desc: Autodesk Architectural Desktop 2007 |Company: Autodesk,Inc. |WEB Address: www.autodesk.com
 90
    32897
280
     0
281
     0
  0
CLASS
  1
NPOCOLLECTION
  2
AcDbImpNonPersistentObjectsCollection
  3
ObjectDBX Classes
 90
    33921
280
     0
281
     0
  0
CLASS
  1
ACAD_TABLE
  2
AcDbTable
  3
ObjectDBX Classes
 90
    33793
280
     0
281
     1
  0
CLASS
  1
ACDBDATATABLE
  2
AcDbDataTable
  3
AcMapAnnotObj|Product Desc:     AutoCAD MAP DBX App for Annotation Entity|Company:          Autodesk,Inc.|WEB Address:      www.autodesk.com
 90
    32768
280
     0
281
     0
  0
CLASS
  1
ACSH_HISTORY_CLASS
  2
AcDbShHistory
  3
ObjectDBX Classes
 90
    33921
280
     0
281
     0
  0
CLASS
  1
ACDBASSOCPERSSUBENTMANAGER
  2
AcDbAssocPersSubentManager
  3
ObjectDBX Classes
 90
     1024
280
     0
281
     0
  0
CLASS
  1
SOLID_BACKGROUND
  2
AcDbSolidBackground
  3
SCENEOE
 90
    36863
280
     0
281
     0
  0
CLASS
  1
ACSH_EXTRUSION_CLASS
  2
AcDbShExtrusion
  3
ObjectDBX Classes
 90
    33921
280
     0
281
     0
  0
CLASS
  1
ACSH_BOOLEAN_CLASS
  2
AcDbShBoolean
  3
ObjectDBX Classes
 90
    33921
280
     0
281
     0
  0
CLASS
  1
ACDBPERSSUBENTMANAGER
  2
AcDbPersSubentManager
  3
AcDbPersSubentManager
 90
     1024
280
     0
281
     0
  0
CLASS
  1
WIPEOUT
  2
AcDbWipeout
  3
"WipeOut|Product Desc: Object Enabler for WipeOut entity                        |Company: Autodesk, Inc.                        |WEB Address: www.autodesk.com"
 90
    34943
280
     0
281
     1
  0
CLASS
  1
WIPEOUTVARIABLES
  2
AcDbWipeoutVariables
  3
"WipeOut|Product Desc:     WipeOut Dbx Application|Company:          Autodesk, Inc.|WEB Address:      www.autodesk.com"
 90
        0
280
     0
281
     0
  0
ENDSEC
  0
SECTION
  2
TABLES
  0
TABLE
  2
VPORT
  5
8
102
{ACAD_XDICTIONARY
360
181
102
}
330
0
100
AcDbSymbolTable
 70
     1
  0
VPORT
  5
31
330
8
100
AcDbSymbolTableRecord
100
AcDbViewportTableRecord
  2
*Active
 70
     0
 10
0.0
 20
0.0
 11
1.0
 21
1.0
 12
-5.914879524299561
 22
-2.047317721371584
 13
0.0
 23
0.0
 14
0.0625
 24
0.0625
 15
0.25
 25
0.25
 16
0.0
 26
0.0
 36
1.0
 17
16.91439100425697
 27
10.54705419309976
 37
4.013960091384387
 40
17.20319493505551
 41
1.477137176938369
 42
50.0
 43
0.0
 44
0.0
 50
0.0
 51
0.0
 71
     0
 72
  1000
 73
     1
 74
     2
 75
     0
 76
     1
 77
     0
 78
     0
281
     0
 65
     1
110
0.0
120
0.0
130
0.0
111
1.0
121
0.0
131
0.0
112
0.0
122
1.0
132
0.0
 79
     0
146
0.0
  0
ENDTAB
  0
TABLE
  2
LTYPE
  5
5
330
0
100
AcDbSymbolTable
 70
     1
  0
LTYPE
  5
14
330
5
100
AcDbSymbolTableRecord
100
AcDbLinetypeTableRecord
  2
ByBlock
 70
     0
  3

 72
    65
 73
     0
 40
0.0
  0
LTYPE
  5
15
330
5
100
AcDbSymbolTableRecord
100
AcDbLinetypeTableRecord
  2
ByLayer
 70
     0
  3

 72
    65
 73
     0
 40
0.0
  0
LTYPE
  5
16
330
5
100
AcDbSymbolTableRecord
100
AcDbLinetypeTableRecord
  2
Continuous
 70
     0
  3
Solid line
 72
    65
 73
     0
 40
0.0
  0
ENDTAB
  0
TABLE
  2
LAYER
  5
2
102
{ACAD_XDICTIONARY
360
107
102
}
330
0
100
AcDbSymbolTable
 70
     4
  0
LAYER
  5
10
102
{ACAD_XDICTIONARY
360
17C
102
}
330
2
100
AcDbSymbolTableRecord
100
AcDbLayerTableRecord
  2
0
 70
     0
 62
     7
  6
Continuous
370
    -3
390
F
  0
LAYER
  5
69B6
330
2
100
AcDbSymbolTableRecord
100
AcDbLayerTableRecord
  2
DIM
 70
     0
 62
     1
  6
Continuous
370
    -3
390
F
  0
LAYER
  5
69B7
330
2
100
AcDbSymbolTableRecord
100
AcDbLayerTableRecord
  2
Defpoints
 70
     0
 62
     7
  6
Continuous
290
     0
370
    -3
390
F
  0
LAYER
  5
7138
102
{ACAD_XDICTIONARY
360
7139
102
}
330
2
100
AcDbSymbolTableRecord
100
AcDbLayerTableRecord
  2
TEXT
 70
     0
 62
     2
  6
Continuous
370
     0
390
F
1001
TCAD
1000
TCW_LAYER_ORDER
1002
{
1071
        0
1002
}
  0
ENDTAB
  0
TABLE
  2
STYLE
  5
3
330
0
100
AcDbSymbolTable
 70
     1
  0
STYLE
  5
11
330
3
100
AcDbSymbolTableRecord
100
AcDbTextStyleTableRecord
  2
Standard
 70
     0
 40
0.0
 41
0.8
 50
0.0
 71
     0
 42
0.125
  3
txt
  4

  0
ENDTAB
  0
TABLE
  2
VIEW
  5
6
330
0
100
AcDbSymbolTable
 70
     0
  0
ENDTAB
  0
TABLE
  2
UCS
  5
7
330
0
100
AcDbSymbolTable
 70
     0
  0
ENDTAB
  0
TABLE
  2
APPID
  5
9
330
0
100
AcDbSymbolTable
 70
   102
  0
APPID
  5
12
330
9
100
AcDbSymbolTableRecord
100
AcDbRegAppTableRecord
  2
ACAD
 70
     0
  0
APPID
  5
84
330
9
100
AcDbSymbolTableRecord
100
AcDbRegAppTableRecord
  2
ACAD_MLEADERVER
 70
     0
  0
APPID
  5
104
330
9
100
AcDbSymbolTableRecord
100
AcDbRegAppTableRecord
  2
AcDbBlockRepETag
 70
     0
  0
APPID
  5
105
330
9
100
AcDbSymbolTableRecord
100
AcDbRegAppTableRecord
  2
AcDbDynamicBlockGUID
 70
     0
  0
APPID
  5
106
330
9
100
AcDbSymbolTableRecord
100
AcDbRegAppTableRecord
  2
ACAD_PSEXT
 70
     0
  0
APPID
  5
388
330
9
100
AcDbSymbolTableRecord
100
AcDbRegAppTableRecord
  2
AcadAnnotative
 70
     0
  0
APPID
  5
389
330
9
100
AcDbSymbolTableRecord
100
AcDbRegAppTableRecord
  2
ACAD_DSTYLE_DIMJAG
 70
     0
  0
APPID
  5
38A
330
9
100
AcDbSymbolTableRecord
100
AcDbRegAppTableRecord
  2
ACAD_DSTYLE_DIMTALN
 70
     0
  0
APPID
  5
38B
330
9
100
AcDbSymbolTableRecord
100
AcDbRegAppTableRecord
  2
AcadAnnoPO
 70
     0
  0
APPID
  5
4DD
330
9
100
AcDbSymbolTableRecord
100
AcDbRegAppTableRecord
  2
AcDbAttr
 70
     0
  0
APPID
  5
A19
330
9
100
AcDbSymbolTableRecord
100
AcDbRegAppTableRecord
  2
RE-TLINK
 70
     0
  0
APPID
  5
A1A
330
9
100
AcDbSymbolTableRecord
100
AcDbRegAppTableRecord
  2
N8SOL-TLINK
 70
     0
  0
APPID
  5
A1B
330
9
100
AcDbSymbolTableRecord
100
AcDbRegAppTableRecord
  2
VIA_WD_TAGFMT
 70
     0
  0
APPID
  5
A1C
330
9
100
AcDbSymbolTableRecord
100
AcDbRegAppTableRecord
  2
VIA_WD_BASETAG
 70
     0
  0
APPID
  5
A1D
330
9
100
AcDbSymbolTableRecord
100
AcDbRegAppTableRecord
  2
VIA_WD_HDL
 70
     0
  0
APPID
  5
1000
330
9
100
AcDbSymbolTableRecord
100
AcDbRegAppTableRecord
  2
ACAD_EXEMPT_FROM_CAD_STANDARDS
 70
     0
  0
APPID
  5
1744
330
9
100
AcDbSymbolTableRecord
100
AcDbRegAppTableRecord
  2
AcAecLayerStandard
 70
     0
  0
APPID
  5
2631
330
9
100
AcDbSymbolTableRecord
100
AcDbRegAppTableRecord
  2
DCO15
 70
     0
  0
APPID
  5
280F
330
9
100
AcDbSymbolTableRecord
100
AcDbRegAppTableRecord
  2
ACAUTHENVIRON
 70
     0
  0
APPID
  5
2813
330
9
100
AcDbSymbolTableRecord
100
AcDbRegAppTableRecord
  2
AcDbDynamicBlockTrueName
 70
     0
  0
APPID
  5
2AA1
330
9
100
AcDbSymbolTableRecord
100
AcDbRegAppTableRecord
  2
VIA_WD_ASSYCODE
 70
     0
  0
APPID
  5
2AA2
330
9
100
AcDbSymbolTableRecord
100
AcDbRegAppTableRecord
  2
ACAD_DSTYLE_DIMTEXT_FILL
 70
     0
  0
APPID
  5
2AA3
330
9
100
AcDbSymbolTableRecord
100
AcDbRegAppTableRecord
  2
AcDbBlockRepBTag
 70
     0
  0
APPID
  5
2ACC
330
9
100
AcDbSymbolTableRecord
100
AcDbRegAppTableRecord
  2
VIA_WD_FP
 70
     0
  0
APPID
  5
2ACD
330
9
100
AcDbSymbolTableRecord
100
AcDbRegAppTableRecord
  2
VIA_WD_DESC1
 70
     0
  0
APPID
  5
2ACE
330
9
100
AcDbSymbolTableRecord
100
AcDbRegAppTableRecord
  2
VIA_WD_DESC2
 70
     0
  0
APPID
  5
2ACF
330
9
100
AcDbSymbolTableRecord
100
AcDbRegAppTableRecord
  2
VIA_WD_DESC3
 70
     0
  0
APPID
  5
2AD0
330
9
100
AcDbSymbolTableRecord
100
AcDbRegAppTableRecord
  2
VIA_WD_INST
 70
     0
  0
APPID
  5
2AD1
330
9
100
AcDbSymbolTableRecord
100
AcDbRegAppTableRecord
  2
VIA_WD_LOC
 70
     0
  0
APPID
  5
2AD2
330
9
100
AcDbSymbolTableRecord
100
AcDbRegAppTableRecord
  2
VIA_WD_MFG
 70
     0
  0
APPID
  5
2AD3
330
9
100
AcDbSymbolTableRecord
100
AcDbRegAppTableRecord
  2
VIA_WD_CAT
 70
     0
  0
APPID
  5
2AD4
330
9
100
AcDbSymbolTableRecord
100
AcDbRegAppTableRecord
  2
VIA_WD_CNT
 70
     0
  0
APPID
  5
2AD5
330
9
100
AcDbSymbolTableRecord
100
AcDbRegAppTableRecord
  2
VIA_WD_UM
 70
     0
  0
APPID
  5
2AD6
330
9
100
AcDbSymbolTableRecord
100
AcDbRegAppTableRecord
  2
VIA_WD_WDBLKNAM
 70
     0
  0
APPID
  5
2AD7
330
9
100
AcDbSymbolTableRecord
100
AcDbRegAppTableRecord
  2
VIA_WD_MOUNT
 70
     0
  0
APPID
  5
2AD8
330
9
100
AcDbSymbolTableRecord
100
AcDbRegAppTableRecord
  2
VIA_WD_GROUPWITH
 70
     0
  0
APPID
  5
2AD9
330
9
100
AcDbSymbolTableRecord
100
AcDbRegAppTableRecord
  2
VIA_WD_P_ITEM
 70
     0
  0
APPID
  5
2ADA
330
9
100
AcDbSymbolTableRecord
100
AcDbRegAppTableRecord
  2
VIA_WD_ITEM_FLAG
 70
     0
  0
APPID
  5
32E0
330
9
100
AcDbSymbolTableRecord
100
AcDbRegAppTableRecord
  2
VIA_WD_ASSYCODE03
 70
     0
  0
APPID
  5
32E1
330
9
100
AcDbSymbolTableRecord
100
AcDbRegAppTableRecord
  2
VIA_WD_CNT03
 70
     0
  0
APPID
  5
32E2
330
9
100
AcDbSymbolTableRecord
100
AcDbRegAppTableRecord
  2
VIA_WD_UM03
 70
     0
  0
APPID
  5
32E3
330
9
100
AcDbSymbolTableRecord
100
AcDbRegAppTableRecord
  2
VIA_WD_ITEM03
 70
     0
  0
APPID
  5
32E4
330
9
100
AcDbSymbolTableRecord
100
AcDbRegAppTableRecord
  2
VIA_WD_ITEM_FLAG03
 70
     0
  0
APPID
  5
32E5
330
9
100
AcDbSymbolTableRecord
100
AcDbRegAppTableRecord
  2
VIA_WD_ASSYCODE02
 70
     0
  0
APPID
  5
32E6
330
9
100
AcDbSymbolTableRecord
100
AcDbRegAppTableRecord
  2
VIA_WD_CNT02
 70
     0
  0
APPID
  5
32E7
330
9
100
AcDbSymbolTableRecord
100
AcDbRegAppTableRecord
  2
VIA_WD_UM02
 70
     0
  0
APPID
  5
32E8
330
9
100
AcDbSymbolTableRecord
100
AcDbRegAppTableRecord
  2
VIA_WD_ITEM02
 70
     0
  0
APPID
  5
32E9
330
9
100
AcDbSymbolTableRecord
100
AcDbRegAppTableRecord
  2
VIA_WD_ITEM_FLAG02
 70
     0
  0
APPID
  5
32EA
330
9
100
AcDbSymbolTableRecord
100
AcDbRegAppTableRecord
  2
VIA_WD_ASSYCODE01
 70
     0
  0
APPID
  5
32EB
330
9
100
AcDbSymbolTableRecord
100
AcDbRegAppTableRecord
  2
VIA_WD_CNT01
 70
     0
  0
APPID
  5
32EC
330
9
100
AcDbSymbolTableRecord
100
AcDbRegAppTableRecord
  2
VIA_WD_UM01
 70
     0
  0
APPID
  5
32ED
330
9
100
AcDbSymbolTableRecord
100
AcDbRegAppTableRecord
  2
VIA_WD_ITEM01
 70
     0
  0
APPID
  5
32EE
330
9
100
AcDbSymbolTableRecord
100
AcDbRegAppTableRecord
  2
VIA_WD_ITEM_FLAG01
 70
     0
  0
APPID
  5
333F
330
9
100
AcDbSymbolTableRecord
100
AcDbRegAppTableRecord
  2
VIA_WD_BALLPARAMS
 70
     0
  0
APPID
  5
3343
330
9
100
AcDbSymbolTableRecord
100
AcDbRegAppTableRecord
  2
VIA_WD_BALLPTR
 70
     0
  0
APPID
  5
3344
330
9
100
AcDbSymbolTableRecord
100
AcDbRegAppTableRecord
  2
VIA_WD_BALLPTR01
 70
     0
  0
APPID
  5
3345
330
9
100
AcDbSymbolTableRecord
100
AcDbRegAppTableRecord
  2
VIA_WD_BAL
 70
     0
  0
APPID
  5
3349
330
9
100
AcDbSymbolTableRecord
100
AcDbRegAppTableRecord
  2
VIA_WD_BALLPTR02
 70
     0
  0
APPID
  5
334D
330
9
100
AcDbSymbolTableRecord
100
AcDbRegAppTableRecord
  2
VIA_WD_BALLPTR03
 70
     0
  0
APPID
  5
3678
330
9
100
AcDbSymbolTableRecord
100
AcDbRegAppTableRecord
  2
ACE_TABLE_WDTYPE
 70
     0
  0
APPID
  5
3679
330
9
100
AcDbSymbolTableRecord
100
AcDbRegAppTableRecord
  2
ACE_TABLE_SETTINGS
 70
     0
  0
APPID
  5
367A
330
9
100
AcDbSymbolTableRecord
100
AcDbRegAppTableRecord
  2
ACE_TABLE_TOGGLES
 70
     0
  0
APPID
  5
367B
330
9
100
AcDbSymbolTableRecord
100
AcDbRegAppTableRecord
  2
ACE_TABLE_BOMDSPLST
 70
     0
  0
APPID
  5
367C
330
9
100
AcDbSymbolTableRecord
100
AcDbRegAppTableRecord
  2
ACE_TABLE_BOMDESC
 70
     0
  0
APPID
  5
367D
330
9
100
AcDbSymbolTableRecord
100
AcDbRegAppTableRecord
  2
ACE_TABLE_FLDNAMS1
 70
     0
  0
APPID
  5
367E
330
9
100
AcDbSymbolTableRecord
100
AcDbRegAppTableRecord
  2
ACE_TABLE_CALCCOLWID
 70
     0
  0
APPID
  5
367F
330
9
100
AcDbSymbolTableRecord
100
AcDbRegAppTableRecord
  2
ACE_TABLE_PROJECT
 70
     0
  0
APPID
  5
3680
330
9
100
AcDbSymbolTableRecord
100
AcDbRegAppTableRecord
  2
ACE_TABLE_BUILDUP
 70
     0
  0
APPID
  5
3681
330
9
100
AcDbSymbolTableRecord
100
AcDbRegAppTableRecord
  2
ACE_TABLE_BORDER
 70
     0
  0
APPID
  5
3682
330
9
100
AcDbSymbolTableRecord
100
AcDbRegAppTableRecord
  2
ACE_TABLE_INCTITLE
 70
     0
  0
APPID
  5
3683
330
9
100
AcDbSymbolTableRecord
100
AcDbRegAppTableRecord
  2
ACE_TABLE_INCTIMEDATE
 70
     0
  0
APPID
  5
3684
330
9
100
AcDbSymbolTableRecord
100
AcDbRegAppTableRecord
  2
ACE_TABLE_INCPROJECT
 70
     0
  0
APPID
  5
3685
330
9
100
AcDbSymbolTableRecord
100
AcDbRegAppTableRecord
  2
ACE_TABLE_INCLABELS
 70
     0
  0
APPID
  5
3686
330
9
100
AcDbSymbolTableRecord
100
AcDbRegAppTableRecord
  2
ACE_TABLE_TITLEONE
 70
     0
  0
APPID
  5
3687
330
9
100
AcDbSymbolTableRecord
100
AcDbRegAppTableRecord
  2
ACE_TABLE_LABELONE
 70
     0
  0
APPID
  5
3688
330
9
100
AcDbSymbolTableRecord
100
AcDbRegAppTableRecord
  2
ACE_TABLE_INCBLOCK
 70
     0
  0
APPID
  5
3689
330
9
100
AcDbSymbolTableRecord
100
AcDbRegAppTableRecord
  2
ACE_TABLE_INCREPORT
 70
     0
  0
APPID
  5
368A
330
9
100
AcDbSymbolTableRecord
100
AcDbRegAppTableRecord
  2
ACE_TABLE_BLKNAM
 70
     0
  0
APPID
  5
368B
330
9
100
AcDbSymbolTableRecord
100
AcDbRegAppTableRecord
  2
ACE_TABLE_RPTLST
 70
     0
  0
APPID
  5
368C
330
9
100
AcDbSymbolTableRecord
100
AcDbRegAppTableRecord
  2
ACE_TABLE_TYPE
 70
     0
  0
APPID
  5
368D
330
9
100
AcDbSymbolTableRecord
100
AcDbRegAppTableRecord
  2
ACE_TABLE_SET
 70
     0
  0
APPID
  5
368E
330
9
100
AcDbSymbolTableRecord
100
AcDbRegAppTableRecord
  2
ACE_TABLE_SECTION
 70
     0
  0
APPID
  5
368F
330
9
100
AcDbSymbolTableRecord
100
AcDbRegAppTableRecord
  2
ACE_TABLE_1STROW
 70
     0
  0
APPID
  5
3690
330
9
100
AcDbSymbolTableRecord
100
AcDbRegAppTableRecord
  2
ACE_TABLE_INDEXLST
 70
     0
  0
APPID
  5
3691
330
9
100
AcDbSymbolTableRecord
100
AcDbRegAppTableRecord
  2
ACE_TABLE_TABLEN
 70
     0
  0
APPID
  5
3692
330
9
100
AcDbSymbolTableRecord
100
AcDbRegAppTableRecord
  2
ACE_TABLE_BEGIN
 70
     0
  0
APPID
  5
3693
330
9
100
AcDbSymbolTableRecord
100
AcDbRegAppTableRecord
  2
ACE_TABLE_END
 70
     0
  0
APPID
  5
3694
330
9
100
AcDbSymbolTableRecord
100
AcDbRegAppTableRecord
  2
ACE_TABLE_MAXROWS
 70
     0
  0
APPID
  5
3695
330
9
100
AcDbSymbolTableRecord
100
AcDbRegAppTableRecord
  2
ACE_TABLE_MAXTBLS
 70
     0
  0
APPID
  5
3696
330
9
100
AcDbSymbolTableRecord
100
AcDbRegAppTableRecord
  2
ACE_TABLE_TBL2TBLX
 70
     0
  0
APPID
  5
3697
330
9
100
AcDbSymbolTableRecord
100
AcDbRegAppTableRecord
  2
ACE_TABLE_TBL2TBLY
 70
     0
  0
APPID
  5
3698
330
9
100
AcDbSymbolTableRecord
100
AcDbRegAppTableRecord
  2
ACE_TABLE_FORCEROWS
 70
     0
  0
APPID
  5
3699
330
9
100
AcDbSymbolTableRecord
100
AcDbRegAppTableRecord
  2
ACE_TABLE_COLNUMS
 70
     0
  0
APPID
  5
369A
330
9
100
AcDbSymbolTableRecord
100
AcDbRegAppTableRecord
  2
ACE_TABLE_LNSP
 70
     0
  0
APPID
  5
3ED3
330
9
100
AcDbSymbolTableRecord
100
AcDbRegAppTableRecord
  2
RAK
 70
     0
  0
APPID
  5
4643
330
9
100
AcDbSymbolTableRecord
100
AcDbRegAppTableRecord
  2
ACAD_DSTYLE_DIMBREAK
 70
     0
  0
APPID
  5
4644
330
9
100
AcDbSymbolTableRecord
100
AcDbRegAppTableRecord
  2
VIA_WD_P_TAG1
 70
     0
  0
APPID
  5
4DD5
330
9
100
AcDbSymbolTableRecord
100
AcDbRegAppTableRecord
  2
ACADSTEP
 70
     0
  0
APPID
  5
4E71
330
9
100
AcDbSymbolTableRecord
100
AcDbRegAppTableRecord
  2
ACAD_DSTYLE_DIMJOGGED_JOGANGLE_SYMBOL
 70
     0
  0
APPID
  5
549B
330
9
100
AcDbSymbolTableRecord
100
AcDbRegAppTableRecord
  2
VIA_WD_WDBLKNAM01
 70
     0
  0
APPID
  5
549C
330
9
100
AcDbSymbolTableRecord
100
AcDbRegAppTableRecord
  2
VIA_WD_WDBLKNAM02
 70
     0
  0
APPID
  5
713C
330
9
100
AcDbSymbolTableRecord
100
AcDbRegAppTableRecord
  2
TCAD
 70
     0
  0
ENDTAB
  0
TABLE
  2
DIMSTYLE
  5
A
330
0
100
AcDbSymbolTable
 70
     1
100
AcDbDimStyleTable
 71
     1
340
27
  0
DIMSTYLE
105
27
102
{ACAD_REACTORS
330
738D
330
74BC
330
797B
102
}
330
A
100
AcDbSymbolTableRecord
100
AcDbDimStyleTableRecord
  2
Standard
 70
     0
140
0.125
170
     1
271
     2
272
     2
340
11
1001
ACAD_DSTYLE_DIMJAG
1070
   388
1040
1.5
1001
ACAD_DSTYLE_DIMTALN
1070
   392
1070
     0
  0
ENDTAB
  0
TABLE
  2
BLOCK_RECORD
  5
1
330
0
100
AcDbSymbolTable
 70
     4
  0
BLOCK_RECORD
  5
1F
102
{ACAD_XDICTIONARY
360
17A
102
}
330
1
100
AcDbSymbolTableRecord
100
AcDbBlockTableRecord
  2
*Model_Space
340
22
  0
BLOCK_RECORD
  5
1B
330
1
100
AcDbSymbolTableRecord
100
AcDbBlockTableRecord
  2
*Paper_Space
340
1E
  0
BLOCK_RECORD
  5
23
330
1
100
AcDbSymbolTableRecord
100
AcDbBlockTableRecord
  2
*Paper_Space0
340
26
  0
BLOCK_RECORD
  5
738E
330
1
100
AcDbSymbolTableRecord
100
AcDbBlockTableRecord
  2
*D1
340
0
  0
BLOCK_RECORD
  5
74BD
330
1
100
AcDbSymbolTableRecord
100
AcDbBlockTableRecord
  2
*D2
340
0
  0
BLOCK_RECORD
  5
797C
330
1
100
AcDbSymbolTableRecord
100
AcDbBlockTableRecord
  2
*D3
340
0
  0
ENDTAB
  0
ENDSEC
  0
SECTION
  2
BLOCKS
  0
BLOCK
  5
20
330
1F
100
AcDbEntity
  8
0
100
AcDbBlockBegin
  2
*Model_Space
 70
     0
 10
0.0
 20
0.0
 30
0.0
  3
*Model_Space
  1

  0
ENDBLK
  5
21
330
1F
100
AcDbEntity
  8
0
100
AcDbBlockEnd
  0
BLOCK
  5
1C
330
1B
100
AcDbEntity
 67
     1
  8
0
100
AcDbBlockBegin
  2
*Paper_Space
 70
     0
 10
0.0
 20
0.0
 30
0.0
  3
*Paper_Space
  1

  0
ENDBLK
  5
1D
330
1B
100
AcDbEntity
 67
     1
  8
0
100
AcDbBlockEnd
  0
BLOCK
  5
24
330
23
100
AcDbEntity
 67
     1
  8
0
100
AcDbBlockBegin
  2
*Paper_Space0
 70
     0
 10
0.0
 20
0.0
 30
0.0
  3
*Paper_Space0
  1

  0
ENDBLK
  5
25
330
23
100
AcDbEntity
 67
     1
  8
0
100
AcDbBlockEnd
  0
BLOCK
  5
738F
330
738E
100
AcDbEntity
  8
0
100
AcDbBlockBegin
  2
*D1
 70
     1
 10
0.0
 20
0.0
 30
0.0
  3
*D1
  1

  0
LINE
  5
8629
330
738E
100
AcDbEntity
  8
DIM
 62
     0
370
    -2
100
AcDbLine
 10
12.52296019496705
 20
10.39336219933496
 30
0.0
 11
13.32133439527815
 21
10.39336219933496
 31
0.0
  0
LINE
  5
862A
330
738E
100
AcDbEntity
  8
DIM
 62
     0
370
    -2
100
AcDbLine
 10
12.52296019496705
 20
5.239363699334965
 30
0.0
 11
13.32133439527815
 21
5.239363699334965
 31
0.0
  0
LINE
  5
862B
330
738E
100
AcDbEntity
  8
DIM
 62
     0
370
    -2
100
AcDbLine
 10
13.14133439527815
 20
10.21336219933496
 30
0.0
 11
13.14133439527815
 21
7.968862949334964
 31
0.0
  0
LINE
  5
862C
330
738E
100
AcDbEntity
  8
DIM
 62
     0
370
    -2
100
AcDbLine
 10
13.14133439527815
 20
5.419363699334965
 30
0.0
 11
13.14133439527815
 21
7.663862949334965
 31
0.0
  0
SOLID
  5
862D
330
738E
100
AcDbEntity
  8
DIM
 62
     0
100
AcDbTrace
 10
13.11133439527815
 20
10.21336219933496
 30
0.0
 11
13.17133439527815
 21
10.21336219933496
 31
0.0
 12
13.14133439527815
 22
10.39336219933496
 32
0.0
 13
13.14133439527815
 23
10.39336219933496
 33
0.0
  0
SOLID
  5
862E
330
738E
100
AcDbEntity
  8
DIM
 62
     0
100
AcDbTrace
 10
13.11133439527815
 20
5.419363699334965
 30
0.0
 11
13.17133439527815
 21
5.419363699334965
 31
0.0
 12
13.14133439527815
 22
5.239363699334965
 32
0.0
 13
13.14133439527815
 23
5.239363699334965
 33
0.0
  0
MTEXT
  5
862F
330
738E
100
AcDbEntity
  8
DIM
 62
     0
100
AcDbMText
 10
13.14133439527815
 20
7.816362949334966
 30
0.0
 40
0.125
 41
0.0
 71
     5
 72
     1
  1
\A1;5.15 [130.91]
 73
     1
 44
1.0
1001
ACAD
1000
MTEXTBEGIN
1070
    73
1070
     1
1070
    44
1040
1.0
1070
    74
1070
     0
1000
MTEXTEND
  0
POINT
  5
8630
330
738E
100
AcDbEntity
  8
Defpoints
 62
     0
100
AcDbPoint
 10
12.46046019496705
 20
10.39336219933496
 30
0.0
  0
POINT
  5
8631
330
738E
100
AcDbEntity
  8
Defpoints
 62
     0
100
AcDbPoint
 10
12.46046019496705
 20
5.239363699334965
 30
0.0
  0
POINT
  5
8632
330
738E
100
AcDbEntity
  8
Defpoints
 62
     0
100
AcDbPoint
 10
13.14133439527815
 20
5.239363699334965
 30
0.0
  0
ENDBLK
  5
7390
330
738E
100
AcDbEntity
  8
0
100
AcDbBlockEnd
  0
BLOCK
  5
74BE
330
74BD
100
AcDbEntity
  8
0
100
AcDbBlockBegin
  2
*D2
 70
     1
 10
0.0
 20
0.0
 30
0.0
  3
*D2
  1

  0
LINE
  5
8633
330
74BD
100
AcDbEntity
  8
DIM
 62
     0
370
    -2
100
AcDbLine
 10
9.175480194967045
 20
10.45586219933496
 30
0.0
 11
9.175480194967045
 21
11.01788428176081
 31
0.0
  0
LINE
  5
8634
330
74BD
100
AcDbEntity
  8
DIM
 62
     0
370
    -2
100
AcDbLine
 10
12.46046019496705
 20
10.45586219933496
 30
0.0
 11
12.46046019496705
 21
11.01788428176081
 31
0.0
  0
LINE
  5
8635
330
74BD
100
AcDbEntity
  8
DIM
 62
     0
370
    -2
100
AcDbLine
 10
9.355480194967045
 20
10.83788428176081
 30
0.0
 11
10.24463686163371
 21
10.83788428176081
 31
0.0
  0
LINE
  5
8636
330
74BD
100
AcDbEntity
  8
DIM
 62
     0
370
    -2
100
AcDbLine
 10
12.28046019496705
 20
10.83788428176081
 30
0.0
 11
11.39130352830038
 21
10.83788428176081
 31
0.0
  0
SOLID
  5
8637
330
74BD
100
AcDbEntity
  8
DIM
 62
     0
100
AcDbTrace
 10
9.355480194967045
 20
10.86788428176081
 30
0.0
 11
9.355480194967045
 21
10.80788428176081
 31
0.0
 12
9.175480194967045
 22
10.83788428176081
 32
0.0
 13
9.175480194967045
 23
10.83788428176081
 33
0.0
  0
SOLID
  5
8638
330
74BD
100
AcDbEntity
  8
DIM
 62
     0
100
AcDbTrace
 10
12.28046019496705
 20
10.86788428176081
 30
0.0
 11
12.28046019496705
 21
10.80788428176081
 31
0.0
 12
12.46046019496705
 22
10.83788428176081
 32
0.0
 13
12.46046019496705
 23
10.83788428176081
 33
0.0
  0
MTEXT
  5
8639
330
74BD
100
AcDbEntity
  8
DIM
 62
     0
100
AcDbMText
 10
10.81797019496704
 20
10.83788428176081
 30
0.0
 40
0.125
 41
0.0
 71
     5
 72
     1
  1
\A1;3.28 [83.44]
 73
     1
 44
1.0
1001
ACAD
1000
MTEXTBEGIN
1070
    73
1070
     1
1070
    44
1040
1.0
1070
    74
1070
     0
1000
MTEXTEND
  0
POINT
  5
863A
330
74BD
100
AcDbEntity
  8
Defpoints
 62
     0
100
AcDbPoint
 10
9.175480194967045
 20
10.39336219933496
 30
0.0
  0
POINT
  5
863B
330
74BD
100
AcDbEntity
  8
Defpoints
 62
     0
100
AcDbPoint
 10
12.46046019496705
 20
10.39336219933496
 30
0.0
  0
POINT
  5
863C
330
74BD
100
AcDbEntity
  8
Defpoints
 62
     0
100
AcDbPoint
 10
12.46046019496705
 20
10.83788428176081
 30
0.0
  0
ENDBLK
  5
74BF
330
74BD
100
AcDbEntity
  8
0
100
AcDbBlockEnd
  0
BLOCK
  5
797D
330
797C
100
AcDbEntity
  8
0
100
AcDbBlockBegin
  2
*D3
 70
     1
 10
0.0
 20
0.0
 30
0.0
  3
*D3
  1

  0
LINE
  5
863D
330
797C
100
AcDbEntity
  8
DIM
 62
     0
370
    -2
100
AcDbLine
 10
6.263902950554218
 20
7.866136038433044
 30
0.0
 11
6.263902950554218
 21
11.01543419946726
 31
0.0
  0
LINE
  5
863E
330
797C
100
AcDbEntity
  8
DIM
 62
     0
370
    -2
100
AcDbLine
 10
7.492447934030852
 20
9.782455447015649
 30
0.0
 11
7.492447934030852
 21
11.01543419946726
 31
0.0
  0
LINE
  5
863F
330
797C
100
AcDbEntity
  8
DIM
 62
     0
370
    -2
100
AcDbLine
 10
6.083902950554218
 20
10.83543419946726
 30
0.0
 11
5.903902950554217
 21
10.83543419946726
 31
0.0
  0
LINE
  5
8640
330
797C
100
AcDbEntity
  8
DIM
 62
     0
370
    -2
100
AcDbLine
 10
7.672447934030852
 20
10.83543419946726
 30
0.0
 11
7.852447934030853
 21
10.83543419946726
 31
0.0
  0
SOLID
  5
8641
330
797C
100
AcDbEntity
  8
DIM
 62
     0
100
AcDbTrace
 10
6.083902950554218
 20
10.86543419946726
 30
0.0
 11
6.083902950554218
 21
10.80543419946726
 31
0.0
 12
6.263902950554218
 22
10.83543419946726
 32
0.0
 13
6.263902950554218
 23
10.83543419946726
 33
0.0
  0
SOLID
  5
8642
330
797C
100
AcDbEntity
  8
DIM
 62
     0
100
AcDbTrace
 10
7.672447934030852
 20
10.86543419946726
 30
0.0
 11
7.672447934030852
 21
10.80543419946726
 31
0.0
 12
7.492447934030852
 22
10.83543419946726
 32
0.0
 13
7.492447934030852
 23
10.83543419946726
 33
0.0
  0
MTEXT
  5
8643
330
797C
100
AcDbEntity
  8
DIM
 62
     0
100
AcDbMText
 10
6.878175442292535
 20
10.83543419946726
 30
0.0
 40
0.125
 41
0.0
 71
     5
 72
     1
  1
\A1;1.23 [31.21]
 73
     1
 44
1.0
1001
ACAD
1000
MTEXTBEGIN
1070
    73
1070
     1
1070
    44
1040
1.0
1070
    74
1070
     0
1000
MTEXTEND
  0
POINT
  5
8644
330
797C
100
AcDbEntity
  8
Defpoints
 62
     0
100
AcDbPoint
 10
6.263902950554218
 20
7.803636038433044
 30
0.0
  0
POINT
  5
8645
330
797C
100
AcDbEntity
  8
Defpoints
 62
     0
100
AcDbPoint
 10
7.492447934030852
 20
9.719955447015649
 30
0.0
  0
POINT
  5
8646
330
797C
100
AcDbEntity
  8
Defpoints
 62
     0
100
AcDbPoint
 10
7.492447934030852
 20
10.83543419946726
 30
0.0
  0
ENDBLK
  5
797E
330
797C
100
AcDbEntity
  8
0
100
AcDbBlockEnd
  0
ENDSEC
  0
SECTION
  2
ENTITIES
  0
LINE
  5
7278
330
1F
100
AcDbEntity
  8
0
100
AcDbLine
 10
11.95893169496705
 20
7.285225699334965
 30
0.0
 11
11.95893169496705
 21
5.278707199334959
 31
0.0
1001
ACAD
1000
TCW40_DEV_WIDTH
1002
{
1040
-3.0
1002
}
  0
LINE
  5
7279
330
1F
100
AcDbEntity
  8
0
100
AcDbLine
 10
11.56549669496705
 20
7.285225699334965
 30
0.0
 11
11.56549669496705
 21
5.278707199334959
 31
0.0
1001
ACAD
1000
TCW40_DEV_WIDTH
1002
{
1040
-3.0
1002
}
  0
LINE
  5
727A
330
1F
100
AcDbEntity
  8
0
100
AcDbLine
 10
11.56549669496705
 20
7.285225699334965
 30
0.0
 11
11.95893169496705
 21
7.285225699334965
 31
0.0
1001
ACAD
1000
TCW40_DEV_WIDTH
1002
{
1040
-3.0
1002
}
  0
LINE
  5
727C
330
1F
100
AcDbEntity
  8
0
100
AcDbLine
 10
11.56549669496705
 20
7.226210449334963
 30
0.0
 11
11.68352719496705
 21
7.226210449334963
 31
0.0
1001
ACAD
1000
TCW40_DEV_WIDTH
1002
{
1040
-3.0
1002
}
  0
LINE
  5
727D
330
1F
100
AcDbEntity
  8
0
100
AcDbLine
 10
11.84090119496704
 20
7.226210449334963
 30
0.0
 11
11.95893169496705
 21
7.226210449334963
 31
0.0
1001
ACAD
1000
TCW40_DEV_WIDTH
1002
{
1040
-3.0
1002
}
  0
LINE
  5
727E
330
1F
100
AcDbEntity
  8
0
100
AcDbLine
 10
11.60484019496705
 20
7.088508199334967
 30
0.0
 11
11.91958819496705
 21
7.088508199334967
 31
0.0
1001
ACAD
1000
TCW40_DEV_WIDTH
1002
{
1040
-3.0
1002
}
  0
LINE
  5
7280
330
1F
100
AcDbEntity
  8
0
100
AcDbLine
 10
11.68352719496705
 20
7.226210449334963
 30
0.0
 11
11.68352719496705
 21
7.285225699334965
 31
0.0
1001
ACAD
1000
TCW40_DEV_WIDTH
1002
{
1040
-3.0
1002
}
  0
CIRCLE
  5
7281
330
1F
100
AcDbEntity
  8
0
100
AcDbCircle
 10
11.76221419496705
 20
7.186866949334962
 30
0.0
 40
0.0393435
  0
LINE
  5
7282
330
1F
100
AcDbEntity
  8
0
100
AcDbLine
 10
11.60484019496705
 20
7.088508199334967
 30
0.0
 11
11.60484019496705
 21
5.475424699334965
 31
0.0
1001
ACAD
1000
TCW40_DEV_WIDTH
1002
{
1040
-3.0
1002
}
  0
LINE
  5
7285
330
1F
100
AcDbEntity
  8
0
100
AcDbLine
 10
11.91958819496705
 20
7.088508199334967
 30
0.0
 11
11.91958819496705
 21
5.475424699334965
 31
0.0
1001
ACAD
1000
TCW40_DEV_WIDTH
1002
{
1040
-3.0
1002
}
  0
LINE
  5
7286
330
1F
100
AcDbEntity
  8
0
100
AcDbLine
 10
11.56549669496705
 20
5.278707199334959
 30
0.0
 11
11.95893169496705
 21
5.278707199334959
 31
0.0
1001
ACAD
1000
TCW40_DEV_WIDTH
1002
{
1040
-3.0
1002
}
  0
LINE
  5
7287
330
1F
100
AcDbEntity
  8
0
100
AcDbLine
 10
11.56549669496705
 20
5.337722449334961
 30
0.0
 11
11.68352719496705
 21
5.337722449334961
 31
0.0
1001
ACAD
1000
TCW40_DEV_WIDTH
1002
{
1040
-3.0
1002
}
  0
LINE
  5
7288
330
1F
100
AcDbEntity
  8
0
100
AcDbLine
 10
11.84090119496704
 20
5.337722449334961
 30
0.0
 11
11.95893169496705
 21
5.337722449334961
 31
0.0
1001
ACAD
1000
TCW40_DEV_WIDTH
1002
{
1040
-3.0
1002
}
  0
LINE
  5
7289
330
1F
100
AcDbEntity
  8
0
100
AcDbLine
 10
11.60484019496705
 20
5.475424699334965
 30
0.0
 11
11.91958819496705
 21
5.475424699334965
 31
0.0
1001
ACAD
1000
TCW40_DEV_WIDTH
1002
{
1040
-3.0
1002
}
  0
LINE
  5
728B
330
1F
100
AcDbEntity
  8
0
100
AcDbLine
 10
11.68352719496705
 20
5.337722449334961
 30
0.0
 11
11.68352719496705
 21
5.278707199334959
 31
0.0
1001
ACAD
1000
TCW40_DEV_WIDTH
1002
{
1040
-3.0
1002
}
  0
CIRCLE
  5
728C
330
1F
100
AcDbEntity
  8
0
100
AcDbCircle
 10
11.76221419496705
 20
5.377065949334962
 30
0.0
 40
0.0393435
  0
LINE
  5
728D
330
1F
100
AcDbEntity
  8
0
100
AcDbLine
 10
11.40812269496705
 20
7.285225699334965
 30
0.0
 11
11.40812269496705
 21
5.278707199334959
 31
0.0
1001
ACAD
1000
TCW40_DEV_WIDTH
1002
{
1040
-3.0
1002
}
  0
LINE
  5
728E
330
1F
100
AcDbEntity
  8
0
100
AcDbLine
 10
11.01468769496705
 20
7.285225699334965
 30
0.0
 11
11.01468769496705
 21
5.278707199334959
 31
0.0
1001
ACAD
1000
TCW40_DEV_WIDTH
1002
{
1040
-3.0
1002
}
  0
LINE
  5
728F
330
1F
100
AcDbEntity
  8
0
100
AcDbLine
 10
11.01468769496705
 20
7.285225699334965
 30
0.0
 11
11.40812269496705
 21
7.285225699334965
 31
0.0
1001
ACAD
1000
TCW40_DEV_WIDTH
1002
{
1040
-3.0
1002
}
  0
LINE
  5
7291
330
1F
100
AcDbEntity
  8
0
100
AcDbLine
 10
11.01468769496705
 20
7.226210449334963
 30
0.0
 11
11.13271819496705
 21
7.226210449334963
 31
0.0
1001
ACAD
1000
TCW40_DEV_WIDTH
1002
{
1040
-3.0
1002
}
  0
LINE
  5
7292
330
1F
100
AcDbEntity
  8
0
100
AcDbLine
 10
11.29009219496706
 20
7.226210449334963
 30
0.0
 11
11.40812269496705
 21
7.226210449334963
 31
0.0
1001
ACAD
1000
TCW40_DEV_WIDTH
1002
{
1040
-3.0
1002
}
  0
LINE
  5
7293
330
1F
100
AcDbEntity
  8
0
100
AcDbLine
 10
11.05403119496705
 20
7.088508199334967
 30
0.0
 11
11.36877919496704
 21
7.088508199334967
 31
0.0
1001
ACAD
1000
TCW40_DEV_WIDTH
1002
{
1040
-3.0
1002
}
  0
LINE
  5
7295
330
1F
100
AcDbEntity
  8
0
100
AcDbLine
 10
11.13271819496705
 20
7.226210449334963
 30
0.0
 11
11.13271819496705
 21
7.285225699334965
 31
0.0
1001
ACAD
1000
TCW40_DEV_WIDTH
1002
{
1040
-3.0
1002
}
  0
CIRCLE
  5
7296
330
1F
100
AcDbEntity
  8
0
100
AcDbCircle
 10
11.21140519496705
 20
7.186866949334962
 30
0.0
 40
0.0393435
  0
LINE
  5
7297
330
1F
100
AcDbEntity
  8
0
100
AcDbLine
 10
11.05403119496705
 20
7.088508199334967
 30
0.0
 11
11.05403119496705
 21
5.475424699334965
 31
0.0
1001
ACAD
1000
TCW40_DEV_WIDTH
1002
{
1040
-3.0
1002
}
  0
LINE
  5
7299
330
1F
100
AcDbEntity
  8
0
100
AcDbLine
 10
11.36877919496704
 20
7.088508199334967
 30
0.0
 11
11.36877919496704
 21
5.475424699334965
 31
0.0
1001
ACAD
1000
TCW40_DEV_WIDTH
1002
{
1040
-3.0
1002
}
  0
LINE
  5
729A
330
1F
100
AcDbEntity
  8
0
100
AcDbLine
 10
11.01468769496705
 20
5.278707199334959
 30
0.0
 11
11.40812269496705
 21
5.278707199334959
 31
0.0
1001
ACAD
1000
TCW40_DEV_WIDTH
1002
{
1040
-3.0
1002
}
  0
LINE
  5
729B
330
1F
100
AcDbEntity
  8
0
100
AcDbLine
 10
11.01468769496705
 20
5.337722449334961
 30
0.0
 11
11.13271819496705
 21
5.337722449334961
 31
0.0
1001
ACAD
1000
TCW40_DEV_WIDTH
1002
{
1040
-3.0
1002
}
  0
LINE
  5
729C
330
1F
100
AcDbEntity
  8
0
100
AcDbLine
 10
11.29009219496706
 20
5.337722449334961
 30
0.0
 11
11.40812269496705
 21
5.337722449334961
 31
0.0
1001
ACAD
1000
TCW40_DEV_WIDTH
1002
{
1040
-3.0
1002
}
  0
LINE
  5
729D
330
1F
100
AcDbEntity
  8
0
100
AcDbLine
 10
11.05403119496705
 20
5.475424699334965
 30
0.0
 11
11.36877919496704
 21
5.475424699334965
 31
0.0
1001
ACAD
1000
TCW40_DEV_WIDTH
1002
{
1040
-3.0
1002
}
  0
LINE
  5
729F
330
1F
100
AcDbEntity
  8
0
100
AcDbLine
 10
11.13271819496705
 20
5.337722449334961
 30
0.0
 11
11.13271819496705
 21
5.278707199334959
 31
0.0
1001
ACAD
1000
TCW40_DEV_WIDTH
1002
{
1040
-3.0
1002
}
  0
CIRCLE
  5
72A0
330
1F
100
AcDbEntity
  8
0
100
AcDbCircle
 10
11.21140519496705
 20
5.377065949334962
 30
0.0
 40
0.0393435
  0
ARC
  5
72A1
330
1F
100
AcDbEntity
  8
0
100
AcDbCircle
 10
12.00811106996706
 20
6.302453630440481
 30
0.0
 40
0.049179375
100
AcDbArc
 50
0.0
 51
180.0
1001
ACAD
1000
TCW40_DEV_WIDTH
1002
{
1040
-3.0
1002
}
  0
ARC
  5
72A2
330
1F
100
AcDbEntity
  8
0
100
AcDbCircle
 10
12.00811106996706
 20
6.143448768229447
 30
0.0
 40
0.049179375
100
AcDbArc
 50
180.0
 51
0.0
1001
ACAD
1000
TCW40_DEV_WIDTH
1002
{
1040
-3.0
1002
}
  0
CIRCLE
  5
72AB
330
1F
100
AcDbEntity
  8
0
100
AcDbCircle
 10
11.52615319496705
 20
7.403256199334961
 30
0.0
 40
0.1180305
  0
CIRCLE
  5
72AC
330
1F
100
AcDbEntity
  8
0
100
AcDbCircle
 10
11.52615319496705
 20
7.403256199334961
 30
0.0
 40
0.0501157678071689
  0
LINE
  5
72B4
330
1F
100
AcDbEntity
  8
0
100
AcDbLine
 10
10.97100069496703
 20
7.6268867721868
 30
0.0
 11
10.97100069496703
 21
9.252400699334963
 31
0.0
1001
ACAD
1000
TCW40_DEV_WIDTH
1002
{
1040
-3.0
1002
}
  0
LINE
  5
72B5
330
1F
100
AcDbEntity
  8
0
100
AcDbLine
 10
12.30876155375361
 20
7.625985901925368
 30
0.0
 11
12.30876155375361
 21
9.252400699334963
 31
0.0
1001
ACAD
1000
TCW40_DEV_WIDTH
1002
{
1040
-3.0
1002
}
  0
CIRCLE
  5
72BD
330
1F
100
AcDbEntity
  8
0
100
AcDbCircle
 10
10.85903497309206
 20
10.14042637348785
 30
0.0
 40
0.08606390625
  0
LINE
  5
72BE
330
1F
100
AcDbEntity
  8
0
100
AcDbLine
 10
10.82067488454631
 20
10.22041660297377
 30
0.0
 11
10.93052457097872
 21
10.08789856561003
 31
0.0
1001
ACAD
1000
TCW40_DEV_WIDTH
1002
{
1040
-3.0
1002
}
  0
LINE
  5
72BF
330
1F
100
AcDbEntity
  8
0
100
AcDbLine
 10
10.78754537520538
 20
10.19295418136567
 30
0.0
 11
10.89739506163779
 21
10.06043614400193
 31
0.0
1001
ACAD
1000
TCW40_DEV_WIDTH
1002
{
1040
-3.0
1002
}
  0
CIRCLE
  5
72C0
330
1F
100
AcDbEntity
  8
0
100
AcDbCircle
 10
11.05267876215455
 20
10.14042637348785
 30
0.0
 40
0.08606390625
  0
LINE
  5
72C1
330
1F
100
AcDbEntity
  8
0
100
AcDbLine
 10
11.01431867360881
 20
10.22041660297377
 30
0.0
 11
11.12416836004123
 21
10.08789856561003
 31
0.0
1001
ACAD
1000
TCW40_DEV_WIDTH
1002
{
1040
-3.0
1002
}
  0
LINE
  5
72C2
330
1F
100
AcDbEntity
  8
0
100
AcDbLine
 10
10.98118916426788
 20
10.19295418136567
 30
0.0
 11
11.09103885070029
 21
10.06043614400193
 31
0.0
1001
ACAD
1000
TCW40_DEV_WIDTH
1002
{
1040
-3.0
1002
}
  0
CIRCLE
  5
72C3
330
1F
100
AcDbEntity
  8
0
100
AcDbCircle
 10
11.24632255121705
 20
10.14042637348785
 30
0.0
 40
0.08606390625
  0
LINE
  5
72C4
330
1F
100
AcDbEntity
  8
0
100
AcDbLine
 10
11.20796246267132
 20
10.22041660297377
 30
0.0
 11
11.31781214910372
 21
10.08789856561003
 31
0.0
1001
ACAD
1000
TCW40_DEV_WIDTH
1002
{
1040
-3.0
1002
}
  0
LINE
  5
72C5
330
1F
100
AcDbEntity
  8
0
100
AcDbLine
 10
11.17483295333039
 20
10.19295418136567
 30
0.0
 11
11.28468263976279
 21
10.06043614400193
 31
0.0
1001
ACAD
1000
TCW40_DEV_WIDTH
1002
{
1040
-3.0
1002
}
  0
CIRCLE
  5
72C6
330
1F
100
AcDbEntity
  8
0
100
AcDbCircle
 10
11.43996634027956
 20
10.14042637348785
 30
0.0
 40
0.08606390625
  0
LINE
  5
72C7
330
1F
100
AcDbEntity
  8
0
100
AcDbLine
 10
11.40160625173381
 20
10.22041660297377
 30
0.0
 11
11.51145593816622
 21
10.08789856561003
 31
0.0
1001
ACAD
1000
TCW40_DEV_WIDTH
1002
{
1040
-3.0
1002
}
  0
LINE
  5
72C8
330
1F
100
AcDbEntity
  8
0
100
AcDbLine
 10
11.36847674239288
 20
10.19295418136567
 30
0.0
 11
11.47832642882529
 21
10.06043614400193
 31
0.0
1001
ACAD
1000
TCW40_DEV_WIDTH
1002
{
1040
-3.0
1002
}
  0
CIRCLE
  5
72C9
330
1F
100
AcDbEntity
  8
0
100
AcDbCircle
 10
11.63361012934205
 20
10.14042637348785
 30
0.0
 40
0.08606390625
  0
LINE
  5
72CA
330
1F
100
AcDbEntity
  8
0
100
AcDbLine
 10
11.59525004079632
 20
10.22041660297377
 30
0.0
 11
11.70509972722873
 21
10.08789856561003
 31
0.0
1001
ACAD
1000
TCW40_DEV_WIDTH
1002
{
1040
-3.0
1002
}
  0
LINE
  5
72CB
330
1F
100
AcDbEntity
  8
0
100
AcDbLine
 10
11.56212053145538
 20
10.19295418136567
 30
0.0
 11
11.6719702178878
 21
10.06043614400193
 31
0.0
1001
ACAD
1000
TCW40_DEV_WIDTH
1002
{
1040
-3.0
1002
}
  0
CIRCLE
  5
72CC
330
1F
100
AcDbEntity
  8
0
100
AcDbCircle
 10
11.82725391840455
 20
10.14042637348785
 30
0.0
 40
0.08606390625
  0
LINE
  5
72CD
330
1F
100
AcDbEntity
  8
0
100
AcDbLine
 10
11.78889382985882
 20
10.22041660297377
 30
0.0
 11
11.89874351629122
 21
10.08789856561003
 31
0.0
1001
ACAD
1000
TCW40_DEV_WIDTH
1002
{
1040
-3.0
1002
}
  0
LINE
  5
72CE
330
1F
100
AcDbEntity
  8
0
100
AcDbLine
 10
11.75576432051789
 20
10.19295418136567
 30
0.0
 11
11.86561400695029
 21
10.06043614400193
 31
0.0
1001
ACAD
1000
TCW40_DEV_WIDTH
1002
{
1040
-3.0
1002
}
  0
CIRCLE
  5
72CF
330
1F
100
AcDbEntity
  8
0
100
AcDbCircle
 10
12.02089770746706
 20
10.14042637348785
 30
0.0
 40
0.08606390625
  0
LINE
  5
72D0
330
1F
100
AcDbEntity
  8
0
100
AcDbLine
 10
11.98253761892131
 20
10.22041660297377
 30
0.0
 11
12.09238730535372
 21
10.08789856561003
 31
0.0
1001
ACAD
1000
TCW40_DEV_WIDTH
1002
{
1040
-3.0
1002
}
  0
LINE
  5
72D1
330
1F
100
AcDbEntity
  8
0
100
AcDbLine
 10
11.94940810958038
 20
10.19295418136567
 30
0.0
 11
12.05925779601279
 21
10.06043614400193
 31
0.0
1001
ACAD
1000
TCW40_DEV_WIDTH
1002
{
1040
-3.0
1002
}
  0
CIRCLE
  5
72D2
330
1F
100
AcDbEntity
  8
0
100
AcDbCircle
 10
12.21454149652955
 20
10.14042637348785
 30
0.0
 40
0.08606390625
  0
LINE
  5
72D3
330
1F
100
AcDbEntity
  8
0
100
AcDbLine
 10
12.17618140798382
 20
10.22041660297377
 30
0.0
 11
12.28603109441623
 21
10.08789856561003
 31
0.0
1001
ACAD
1000
TCW40_DEV_WIDTH
1002
{
1040
-3.0
1002
}
  0
LINE
  5
72D4
330
1F
100
AcDbEntity
  8
0
100
AcDbLine
 10
12.14305189864289
 20
10.19295418136567
 30
0.0
 11
12.2529015850753
 21
10.06043614400193
 31
0.0
1001
ACAD
1000
TCW40_DEV_WIDTH
1002
{
1040
-3.0
1002
}
  0
CIRCLE
  5
72D5
330
1F
100
AcDbEntity
  8
0
100
AcDbCircle
 10
10.96661485590455
 20
9.667074889112852
 30
0.0
 40
0.08606390625
  0
LINE
  5
72D6
330
1F
100
AcDbEntity
  8
0
100
AcDbLine
 10
10.92825476735881
 20
9.747065118598776
 30
0.0
 11
11.03810445379123
 21
9.614547081235034
 31
0.0
1001
ACAD
1000
TCW40_DEV_WIDTH
1002
{
1040
-3.0
1002
}
  0
LINE
  5
72D7
330
1F
100
AcDbEntity
  8
0
100
AcDbLine
 10
10.89512525801788
 20
9.719602696990673
 30
0.0
 11
11.00497494445029
 21
9.587084659626931
 31
0.0
1001
ACAD
1000
TCW40_DEV_WIDTH
1002
{
1040
-3.0
1002
}
  0
CIRCLE
  5
72D8
330
1F
100
AcDbEntity
  8
0
100
AcDbCircle
 10
11.16025864496705
 20
9.667074889112852
 30
0.0
 40
0.08606390625
  0
LINE
  5
72D9
330
1F
100
AcDbEntity
  8
0
100
AcDbLine
 10
11.12189855642132
 20
9.747065118598776
 30
0.0
 11
11.23174824285373
 21
9.614547081235034
 31
0.0
1001
ACAD
1000
TCW40_DEV_WIDTH
1002
{
1040
-3.0
1002
}
  0
LINE
  5
72DA
330
1F
100
AcDbEntity
  8
0
100
AcDbLine
 10
11.08876904708038
 20
9.719602696990673
 30
0.0
 11
11.1986187335128
 21
9.587084659626931
 31
0.0
1001
ACAD
1000
TCW40_DEV_WIDTH
1002
{
1040
-3.0
1002
}
  0
CIRCLE
  5
72DB
330
1F
100
AcDbEntity
  8
0
100
AcDbCircle
 10
11.35390243402956
 20
9.667074889112852
 30
0.0
 40
0.08606390625
  0
LINE
  5
72DC
330
1F
100
AcDbEntity
  8
0
100
AcDbLine
 10
11.31554234548382
 20
9.747065118598776
 30
0.0
 11
11.42539203191622
 21
9.614547081235034
 31
0.0
1001
ACAD
1000
TCW40_DEV_WIDTH
1002
{
1040
-3.0
1002
}
  0
LINE
  5
72DD
330
1F
100
AcDbEntity
  8
0
100
AcDbLine
 10
11.28241283614288
 20
9.719602696990673
 30
0.0
 11
11.39226252257529
 21
9.587084659626931
 31
0.0
1001
ACAD
1000
TCW40_DEV_WIDTH
1002
{
1040
-3.0
1002
}
  0
CIRCLE
  5
72DE
330
1F
100
AcDbEntity
  8
0
100
AcDbCircle
 10
11.54754622309205
 20
9.667074889112852
 30
0.0
 40
0.08606390625
  0
LINE
  5
72DF
330
1F
100
AcDbEntity
  8
0
100
AcDbLine
 10
11.50918613454631
 20
9.747065118598776
 30
0.0
 11
11.61903582097872
 21
9.614547081235034
 31
0.0
1001
ACAD
1000
TCW40_DEV_WIDTH
1002
{
1040
-3.0
1002
}
  0
LINE
  5
72E0
330
1F
100
AcDbEntity
  8
0
100
AcDbLine
 10
11.47605662520538
 20
9.719602696990673
 30
0.0
 11
11.58590631163779
 21
9.587084659626931
 31
0.0
1001
ACAD
1000
TCW40_DEV_WIDTH
1002
{
1040
-3.0
1002
}
  0
CIRCLE
  5
72E1
330
1F
100
AcDbEntity
  8
0
100
AcDbCircle
 10
11.74119001215455
 20
9.667074889112852
 30
0.0
 40
0.08606390625
  0
LINE
  5
72E2
330
1F
100
AcDbEntity
  8
0
100
AcDbLine
 10
11.70282992360882
 20
9.747065118598776
 30
0.0
 11
11.81267961004123
 21
9.614547081235034
 31
0.0
1001
ACAD
1000
TCW40_DEV_WIDTH
1002
{
1040
-3.0
1002
}
  0
LINE
  5
72E3
330
1F
100
AcDbEntity
  8
0
100
AcDbLine
 10
11.66970041426789
 20
9.719602696990673
 30
0.0
 11
11.77955010070029
 21
9.587084659626931
 31
0.0
1001
ACAD
1000
TCW40_DEV_WIDTH
1002
{
1040
-3.0
1002
}
  0
CIRCLE
  5
72E4
330
1F
100
AcDbEntity
  8
0
100
AcDbCircle
 10
11.93483380121706
 20
9.667074889112852
 30
0.0
 40
0.08606390625
  0
LINE
  5
72E5
330
1F
100
AcDbEntity
  8
0
100
AcDbLine
 10
11.89647371267132
 20
9.747065118598776
 30
0.0
 11
12.00632339910372
 21
9.614547081235034
 31
0.0
1001
ACAD
1000
TCW40_DEV_WIDTH
1002
{
1040
-3.0
1002
}
  0
LINE
  5
72E6
330
1F
100
AcDbEntity
  8
0
100
AcDbLine
 10
11.86334420333038
 20
9.719602696990673
 30
0.0
 11
11.97319388976279
 21
9.587084659626931
 31
0.0
1001
ACAD
1000
TCW40_DEV_WIDTH
1002
{
1040
-3.0
1002
}
  0
CIRCLE
  5
72E7
330
1F
100
AcDbEntity
  8
0
100
AcDbCircle
 10
12.12847759027955
 20
9.667074889112852
 30
0.0
 40
0.08606390625
  0
LINE
  5
72E8
330
1F
100
AcDbEntity
  8
0
100
AcDbLine
 10
12.09011750173382
 20
9.747065118598776
 30
0.0
 11
12.19996718816623
 21
9.614547081235034
 31
0.0
1001
ACAD
1000
TCW40_DEV_WIDTH
1002
{
1040
-3.0
1002
}
  0
LINE
  5
72E9
330
1F
100
AcDbEntity
  8
0
100
AcDbLine
 10
12.05698799239288
 20
9.719602696990673
 30
0.0
 11
12.16683767882529
 21
9.587084659626931
 31
0.0
1001
ACAD
1000
TCW40_DEV_WIDTH
1002
{
1040
-3.0
1002
}
  0
CIRCLE
  5
72EA
330
1F
100
AcDbEntity
  8
0
100
AcDbCircle
 10
12.32212137934205
 20
9.667074889112852
 30
0.0
 40
0.08606390625
  0
LINE
  5
72EB
330
1F
100
AcDbEntity
  8
0
100
AcDbLine
 10
12.28376129079632
 20
9.747065118598776
 30
0.0
 11
12.39361097722872
 21
9.614547081235034
 31
0.0
1001
ACAD
1000
TCW40_DEV_WIDTH
1002
{
1040
-3.0
1002
}
  0
LINE
  5
72EC
330
1F
100
AcDbEntity
  8
0
100
AcDbLine
 10
12.25063178145539
 20
9.719602696990673
 30
0.0
 11
12.36048146788778
 21
9.587084659626931
 31
0.0
1001
ACAD
1000
TCW40_DEV_WIDTH
1002
{
1040
-3.0
1002
}
  0
LINE
  5
72FC
330
1F
100
AcDbEntity
  8
0
100
AcDbLine
 10
10.85903497309206
 20
9.920010714959964
 30
0.0
 11
10.85903497309206
 21
9.446659230584963
 31
0.0
1001
ACAD
1000
TCW40_DEV_WIDTH
1002
{
1040
-3.0
1002
}
  0
LINE
  5
72FD
330
1F
100
AcDbEntity
  8
0
100
AcDbLine
 10
12.32212137934205
 20
10.39336219933496
 30
0.0
 11
12.32212137934205
 21
9.920010714959964
 31
0.0
1001
ACAD
1000
TCW40_DEV_WIDTH
1002
{
1040
-3.0
1002
}
  0
LINE
  5
730B
330
1F
100
AcDbEntity
  8
0
100
AcDbLine
 10
10.38519169496705
 20
7.285225699334965
 30
0.0
 11
10.38519169496705
 21
5.278707199334959
 31
0.0
1001
ACAD
1000
TCW40_DEV_WIDTH
1002
{
1040
-3.0
1002
}
  0
LINE
  5
730C
330
1F
100
AcDbEntity
  8
0
100
AcDbLine
 10
9.991756694967051
 20
7.285225699334965
 30
0.0
 11
9.991756694967051
 21
5.278707199334959
 31
0.0
1001
ACAD
1000
TCW40_DEV_WIDTH
1002
{
1040
-3.0
1002
}
  0
LINE
  5
730D
330
1F
100
AcDbEntity
  8
0
100
AcDbLine
 10
9.991756694967051
 20
7.285225699334965
 30
0.0
 11
10.38519169496705
 21
7.285225699334965
 31
0.0
1001
ACAD
1000
TCW40_DEV_WIDTH
1002
{
1040
-3.0
1002
}
  0
LINE
  5
730F
330
1F
100
AcDbEntity
  8
0
100
AcDbLine
 10
9.991756694967051
 20
7.226210449334963
 30
0.0
 11
10.10978719496705
 21
7.226210449334963
 31
0.0
1001
ACAD
1000
TCW40_DEV_WIDTH
1002
{
1040
-3.0
1002
}
  0
LINE
  5
7310
330
1F
100
AcDbEntity
  8
0
100
AcDbLine
 10
10.26716119496704
 20
7.226210449334963
 30
0.0
 11
10.38519169496705
 21
7.226210449334963
 31
0.0
1001
ACAD
1000
TCW40_DEV_WIDTH
1002
{
1040
-3.0
1002
}
  0
LINE
  5
7311
330
1F
100
AcDbEntity
  8
0
100
AcDbLine
 10
10.03110019496705
 20
7.088508199334967
 30
0.0
 11
10.34584819496704
 21
7.088508199334967
 31
0.0
1001
ACAD
1000
TCW40_DEV_WIDTH
1002
{
1040
-3.0
1002
}
  0
LINE
  5
7313
330
1F
100
AcDbEntity
  8
0
100
AcDbLine
 10
10.10978719496705
 20
7.226210449334963
 30
0.0
 11
10.10978719496705
 21
7.285225699334965
 31
0.0
1001
ACAD
1000
TCW40_DEV_WIDTH
1002
{
1040
-3.0
1002
}
  0
CIRCLE
  5
7314
330
1F
100
AcDbEntity
  8
0
100
AcDbCircle
 10
10.18847419496705
 20
7.186866949334962
 30
0.0
 40
0.0393435
  0
LINE
  5
7315
330
1F
100
AcDbEntity
  8
0
100
AcDbLine
 10
10.03110019496705
 20
7.088508199334967
 30
0.0
 11
10.03110019496705
 21
5.475424699334965
 31
0.0
1001
ACAD
1000
TCW40_DEV_WIDTH
1002
{
1040
-3.0
1002
}
  0
LINE
  5
7318
330
1F
100
AcDbEntity
  8
0
100
AcDbLine
 10
10.34584819496704
 20
7.088508199334967
 30
0.0
 11
10.34584819496704
 21
5.475424699334965
 31
0.0
1001
ACAD
1000
TCW40_DEV_WIDTH
1002
{
1040
-3.0
1002
}
  0
LINE
  5
7319
330
1F
100
AcDbEntity
  8
0
100
AcDbLine
 10
9.991756694967051
 20
5.278707199334959
 30
0.0
 11
10.38519169496705
 21
5.278707199334959
 31
0.0
1001
ACAD
1000
TCW40_DEV_WIDTH
1002
{
1040
-3.0
1002
}
  0
LINE
  5
731A
330
1F
100
AcDbEntity
  8
0
100
AcDbLine
 10
9.991756694967051
 20
5.337722449334961
 30
0.0
 11
10.10978719496705
 21
5.337722449334961
 31
0.0
1001
ACAD
1000
TCW40_DEV_WIDTH
1002
{
1040
-3.0
1002
}
  0
LINE
  5
731B
330
1F
100
AcDbEntity
  8
0
100
AcDbLine
 10
10.26716119496704
 20
5.337722449334961
 30
0.0
 11
10.38519169496705
 21
5.337722449334961
 31
0.0
1001
ACAD
1000
TCW40_DEV_WIDTH
1002
{
1040
-3.0
1002
}
  0
LINE
  5
731C
330
1F
100
AcDbEntity
  8
0
100
AcDbLine
 10
10.03110019496705
 20
5.475424699334965
 30
0.0
 11
10.34584819496704
 21
5.475424699334965
 31
0.0
1001
ACAD
1000
TCW40_DEV_WIDTH
1002
{
1040
-3.0
1002
}
  0
LINE
  5
731E
330
1F
100
AcDbEntity
  8
0
100
AcDbLine
 10
10.10978719496705
 20
5.337722449334961
 30
0.0
 11
10.10978719496705
 21
5.278707199334959
 31
0.0
1001
ACAD
1000
TCW40_DEV_WIDTH
1002
{
1040
-3.0
1002
}
  0
CIRCLE
  5
731F
330
1F
100
AcDbEntity
  8
0
100
AcDbCircle
 10
10.18847419496705
 20
5.377065949334962
 30
0.0
 40
0.0393435
  0
LINE
  5
7320
330
1F
100
AcDbEntity
  8
0
100
AcDbLine
 10
9.834382694967047
 20
7.285225699334965
 30
0.0
 11
9.834382694967047
 21
5.278707199334959
 31
0.0
1001
ACAD
1000
TCW40_DEV_WIDTH
1002
{
1040
-3.0
1002
}
  0
LINE
  5
7321
330
1F
100
AcDbEntity
  8
0
100
AcDbLine
 10
9.44094769496705
 20
7.285225699334965
 30
0.0
 11
9.44094769496705
 21
5.278707199334959
 31
0.0
1001
ACAD
1000
TCW40_DEV_WIDTH
1002
{
1040
-3.0
1002
}
  0
LINE
  5
7322
330
1F
100
AcDbEntity
  8
0
100
AcDbLine
 10
9.44094769496705
 20
7.285225699334965
 30
0.0
 11
9.834382694967047
 21
7.285225699334965
 31
0.0
1001
ACAD
1000
TCW40_DEV_WIDTH
1002
{
1040
-3.0
1002
}
  0
LINE
  5
7324
330
1F
100
AcDbEntity
  8
0
100
AcDbLine
 10
9.44094769496705
 20
7.226210449334963
 30
0.0
 11
9.558978194967053
 21
7.226210449334963
 31
0.0
1001
ACAD
1000
TCW40_DEV_WIDTH
1002
{
1040
-3.0
1002
}
  0
LINE
  5
7325
330
1F
100
AcDbEntity
  8
0
100
AcDbLine
 10
9.716352194967058
 20
7.226210449334963
 30
0.0
 11
9.834382694967047
 21
7.226210449334963
 31
0.0
1001
ACAD
1000
TCW40_DEV_WIDTH
1002
{
1040
-3.0
1002
}
  0
LINE
  5
7326
330
1F
100
AcDbEntity
  8
0
100
AcDbLine
 10
9.480291194967051
 20
7.088508199334967
 30
0.0
 11
9.795039194967046
 21
7.088508199334967
 31
0.0
1001
ACAD
1000
TCW40_DEV_WIDTH
1002
{
1040
-3.0
1002
}
  0
LINE
  5
7328
330
1F
100
AcDbEntity
  8
0
100
AcDbLine
 10
9.558978194967053
 20
7.226210449334963
 30
0.0
 11
9.558978194967053
 21
7.285225699334965
 31
0.0
1001
ACAD
1000
TCW40_DEV_WIDTH
1002
{
1040
-3.0
1002
}
  0
CIRCLE
  5
7329
330
1F
100
AcDbEntity
  8
0
100
AcDbCircle
 10
9.637665194967055
 20
7.186866949334962
 30
0.0
 40
0.0393435
  0
LINE
  5
732A
330
1F
100
AcDbEntity
  8
0
100
AcDbLine
 10
9.480291194967051
 20
7.088508199334967
 30
0.0
 11
9.480291194967051
 21
5.475424699334965
 31
0.0
1001
ACAD
1000
TCW40_DEV_WIDTH
1002
{
1040
-3.0
1002
}
  0
LINE
  5
732C
330
1F
100
AcDbEntity
  8
0
100
AcDbLine
 10
9.795039194967046
 20
7.088508199334967
 30
0.0
 11
9.795039194967046
 21
5.475424699334965
 31
0.0
1001
ACAD
1000
TCW40_DEV_WIDTH
1002
{
1040
-3.0
1002
}
  0
LINE
  5
732D
330
1F
100
AcDbEntity
  8
0
100
AcDbLine
 10
9.44094769496705
 20
5.278707199334959
 30
0.0
 11
9.834382694967047
 21
5.278707199334959
 31
0.0
1001
ACAD
1000
TCW40_DEV_WIDTH
1002
{
1040
-3.0
1002
}
  0
LINE
  5
732E
330
1F
100
AcDbEntity
  8
0
100
AcDbLine
 10
9.44094769496705
 20
5.337722449334961
 30
0.0
 11
9.558978194967053
 21
5.337722449334961
 31
0.0
1001
ACAD
1000
TCW40_DEV_WIDTH
1002
{
1040
-3.0
1002
}
  0
LINE
  5
732F
330
1F
100
AcDbEntity
  8
0
100
AcDbLine
 10
9.716352194967058
 20
5.337722449334961
 30
0.0
 11
9.834382694967047
 21
5.337722449334961
 31
0.0
1001
ACAD
1000
TCW40_DEV_WIDTH
1002
{
1040
-3.0
1002
}
  0
LINE
  5
7330
330
1F
100
AcDbEntity
  8
0
100
AcDbLine
 10
9.480291194967051
 20
5.475424699334965
 30
0.0
 11
9.795039194967046
 21
5.475424699334965
 31
0.0
1001
ACAD
1000
TCW40_DEV_WIDTH
1002
{
1040
-3.0
1002
}
  0
LINE
  5
7332
330
1F
100
AcDbEntity
  8
0
100
AcDbLine
 10
9.558978194967053
 20
5.337722449334961
 30
0.0
 11
9.558978194967053
 21
5.278707199334959
 31
0.0
1001
ACAD
1000
TCW40_DEV_WIDTH
1002
{
1040
-3.0
1002
}
  0
CIRCLE
  5
7333
330
1F
100
AcDbEntity
  8
0
100
AcDbCircle
 10
9.637665194967055
 20
5.377065949334962
 30
0.0
 40
0.0393435
  0
ARC
  5
7334
330
1F
100
AcDbEntity
  8
0
100
AcDbCircle
 10
10.43437106996705
 20
6.302453630440481
 30
0.0
 40
0.049179375
100
AcDbArc
 50
0.0
 51
180.0
1001
ACAD
1000
TCW40_DEV_WIDTH
1002
{
1040
-3.0
1002
}
  0
ARC
  5
7335
330
1F
100
AcDbEntity
  8
0
100
AcDbCircle
 10
10.43437106996705
 20
6.143448768229447
 30
0.0
 40
0.049179375
100
AcDbArc
 50
180.0
 51
0.0
1001
ACAD
1000
TCW40_DEV_WIDTH
1002
{
1040
-3.0
1002
}
  0
CIRCLE
  5
733E
330
1F
100
AcDbEntity
  8
0
100
AcDbCircle
 10
9.95241319496705
 20
7.403256199334961
 30
0.0
 40
0.1180305
  0
CIRCLE
  5
733F
330
1F
100
AcDbEntity
  8
0
100
AcDbCircle
 10
9.95241319496705
 20
7.403256199334961
 30
0.0
 40
0.0501157678071689
  0
CIRCLE
  5
7346
330
1F
100
AcDbEntity
  8
0
100
AcDbCircle
 10
9.284065488717052
 20
10.14042637348785
 30
0.0
 40
0.08606390625
  0
LINE
  5
7347
330
1F
100
AcDbEntity
  8
0
100
AcDbLine
 10
9.245705400171319
 20
10.22041660297377
 30
0.0
 11
9.355555086603716
 21
10.08789856561003
 31
0.0
1001
ACAD
1000
TCW40_DEV_WIDTH
1002
{
1040
-3.0
1002
}
  0
LINE
  5
7348
330
1F
100
AcDbEntity
  8
0
100
AcDbLine
 10
9.212575890830388
 20
10.19295418136567
 30
0.0
 11
9.322425577262785
 21
10.06043614400193
 31
0.0
1001
ACAD
1000
TCW40_DEV_WIDTH
1002
{
1040
-3.0
1002
}
  0
CIRCLE
  5
7349
330
1F
100
AcDbEntity
  8
0
100
AcDbCircle
 10
9.477709277779558
 20
10.14042637348785
 30
0.0
 40
0.08606390625
  0
LINE
  5
734A
330
1F
100
AcDbEntity
  8
0
100
AcDbLine
 10
9.43934918923381
 20
10.22041660297377
 30
0.0
 11
9.549198875666222
 21
10.08789856561003
 31
0.0
1001
ACAD
1000
TCW40_DEV_WIDTH
1002
{
1040
-3.0
1002
}
  0
LINE
  5
734B
330
1F
100
AcDbEntity
  8
0
100
AcDbLine
 10
9.406219679892876
 20
10.19295418136567
 30
0.0
 11
9.516069366325291
 21
10.06043614400193
 31
0.0
1001
ACAD
1000
TCW40_DEV_WIDTH
1002
{
1040
-3.0
1002
}
  0
CIRCLE
  5
734C
330
1F
100
AcDbEntity
  8
0
100
AcDbCircle
 10
9.671353066842046
 20
10.14042637348785
 30
0.0
 40
0.08606390625
  0
LINE
  5
734D
330
1F
100
AcDbEntity
  8
0
100
AcDbLine
 10
9.632992978296316
 20
10.22041660297377
 30
0.0
 11
9.742842664728728
 21
10.08789856561003
 31
0.0
1001
ACAD
1000
TCW40_DEV_WIDTH
1002
{
1040
-3.0
1002
}
  0
LINE
  5
734E
330
1F
100
AcDbEntity
  8
0
100
AcDbLine
 10
9.599863468955382
 20
10.19295418136567
 30
0.0
 11
9.709713155387797
 21
10.06043614400193
 31
0.0
1001
ACAD
1000
TCW40_DEV_WIDTH
1002
{
1040
-3.0
1002
}
  0
CIRCLE
  5
734F
330
1F
100
AcDbEntity
  8
0
100
AcDbCircle
 10
9.864996855904552
 20
10.14042637348785
 30
0.0
 40
0.08606390625
  0
LINE
  5
7350
330
1F
100
AcDbEntity
  8
0
100
AcDbLine
 10
9.826636767358822
 20
10.22041660297377
 30
0.0
 11
9.936486453791216
 21
10.08789856561003
 31
0.0
1001
ACAD
1000
TCW40_DEV_WIDTH
1002
{
1040
-3.0
1002
}
  0
LINE
  5
7351
330
1F
100
AcDbEntity
  8
0
100
AcDbLine
 10
9.793507258017887
 20
10.19295418136567
 30
0.0
 11
9.903356944450285
 21
10.06043614400193
 31
0.0
1001
ACAD
1000
TCW40_DEV_WIDTH
1002
{
1040
-3.0
1002
}
  0
CIRCLE
  5
7352
330
1F
100
AcDbEntity
  8
0
100
AcDbCircle
 10
10.05864064496706
 20
10.14042637348785
 30
0.0
 40
0.08606390625
  0
LINE
  5
7353
330
1F
100
AcDbEntity
  8
0
100
AcDbLine
 10
10.02028055642131
 20
10.22041660297377
 30
0.0
 11
10.13013024285372
 21
10.08789856561003
 31
0.0
1001
ACAD
1000
TCW40_DEV_WIDTH
1002
{
1040
-3.0
1002
}
  0
LINE
  5
7354
330
1F
100
AcDbEntity
  8
0
100
AcDbLine
 10
9.987151047080379
 20
10.19295418136567
 30
0.0
 11
10.09700073351279
 21
10.06043614400193
 31
0.0
1001
ACAD
1000
TCW40_DEV_WIDTH
1002
{
1040
-3.0
1002
}
  0
CIRCLE
  5
7355
330
1F
100
AcDbEntity
  8
0
100
AcDbCircle
 10
10.25228443402955
 20
10.14042637348785
 30
0.0
 40
0.08606390625
  0
LINE
  5
7356
330
1F
100
AcDbEntity
  8
0
100
AcDbLine
 10
10.21392434548382
 20
10.22041660297377
 30
0.0
 11
10.32377403191623
 21
10.08789856561003
 31
0.0
1001
ACAD
1000
TCW40_DEV_WIDTH
1002
{
1040
-3.0
1002
}
  0
LINE
  5
7357
330
1F
100
AcDbEntity
  8
0
100
AcDbLine
 10
10.18079483614288
 20
10.19295418136567
 30
0.0
 11
10.2906445225753
 21
10.06043614400193
 31
0.0
1001
ACAD
1000
TCW40_DEV_WIDTH
1002
{
1040
-3.0
1002
}
  0
CIRCLE
  5
7358
330
1F
100
AcDbEntity
  8
0
100
AcDbCircle
 10
10.44592822309206
 20
10.14042637348785
 30
0.0
 40
0.08606390625
  0
LINE
  5
7359
330
1F
100
AcDbEntity
  8
0
100
AcDbLine
 10
10.40756813454632
 20
10.22041660297377
 30
0.0
 11
10.51741782097872
 21
10.08789856561003
 31
0.0
1001
ACAD
1000
TCW40_DEV_WIDTH
1002
{
1040
-3.0
1002
}
  0
LINE
  5
735A
330
1F
100
AcDbEntity
  8
0
100
AcDbLine
 10
10.37443862520539
 20
10.19295418136567
 30
0.0
 11
10.48428831163779
 21
10.06043614400193
 31
0.0
1001
ACAD
1000
TCW40_DEV_WIDTH
1002
{
1040
-3.0
1002
}
  0
CIRCLE
  5
735B
330
1F
100
AcDbEntity
  8
0
100
AcDbCircle
 10
10.63957201215454
 20
10.14042637348785
 30
0.0
 40
0.08606390625
  0
LINE
  5
735C
330
1F
100
AcDbEntity
  8
0
100
AcDbLine
 10
10.60121192360881
 20
10.22041660297377
 30
0.0
 11
10.71106161004122
 21
10.08789856561003
 31
0.0
1001
ACAD
1000
TCW40_DEV_WIDTH
1002
{
1040
-3.0
1002
}
  0
LINE
  5
735D
330
1F
100
AcDbEntity
  8
0
100
AcDbLine
 10
10.56808241426788
 20
10.19295418136567
 30
0.0
 11
10.67793210070029
 21
10.06043614400193
 31
0.0
1001
ACAD
1000
TCW40_DEV_WIDTH
1002
{
1040
-3.0
1002
}
  0
CIRCLE
  5
735E
330
1F
100
AcDbEntity
  8
0
100
AcDbCircle
 10
9.391645371529554
 20
9.667074889112852
 30
0.0
 40
0.08606390625
  0
LINE
  5
735F
330
1F
100
AcDbEntity
  8
0
100
AcDbLine
 10
9.353285282983824
 20
9.747065118598776
 30
0.0
 11
9.463134969416218
 21
9.614547081235034
 31
0.0
1001
ACAD
1000
TCW40_DEV_WIDTH
1002
{
1040
-3.0
1002
}
  0
LINE
  5
7360
330
1F
100
AcDbEntity
  8
0
100
AcDbLine
 10
9.320155773642875
 20
9.719602696990673
 30
0.0
 11
9.430005460075287
 21
9.587084659626931
 31
0.0
1001
ACAD
1000
TCW40_DEV_WIDTH
1002
{
1040
-3.0
1002
}
  0
CIRCLE
  5
7361
330
1F
100
AcDbEntity
  8
0
100
AcDbCircle
 10
9.585289160592045
 20
9.667074889112852
 30
0.0
 40
0.08606390625
  0
LINE
  5
7362
330
1F
100
AcDbEntity
  8
0
100
AcDbLine
 10
9.546929072046312
 20
9.747065118598776
 30
0.0
 11
9.656778758478724
 21
9.614547081235034
 31
0.0
1001
ACAD
1000
TCW40_DEV_WIDTH
1002
{
1040
-3.0
1002
}
  0
LINE
  5
7363
330
1F
100
AcDbEntity
  8
0
100
AcDbLine
 10
9.513799562705381
 20
9.719602696990673
 30
0.0
 11
9.623649249137793
 21
9.587084659626931
 31
0.0
1001
ACAD
1000
TCW40_DEV_WIDTH
1002
{
1040
-3.0
1002
}
  0
CIRCLE
  5
7364
330
1F
100
AcDbEntity
  8
0
100
AcDbCircle
 10
9.778932949654551
 20
9.667074889112852
 30
0.0
 40
0.08606390625
  0
LINE
  5
7365
330
1F
100
AcDbEntity
  8
0
100
AcDbLine
 10
9.740572861108818
 20
9.747065118598776
 30
0.0
 11
9.85042254754123
 21
9.614547081235034
 31
0.0
1001
ACAD
1000
TCW40_DEV_WIDTH
1002
{
1040
-3.0
1002
}
  0
LINE
  5
7366
330
1F
100
AcDbEntity
  8
0
100
AcDbLine
 10
9.707443351767887
 20
9.719602696990673
 30
0.0
 11
9.817293038200284
 21
9.587084659626931
 31
0.0
1001
ACAD
1000
TCW40_DEV_WIDTH
1002
{
1040
-3.0
1002
}
  0
CIRCLE
  5
7367
330
1F
100
AcDbEntity
  8
0
100
AcDbCircle
 10
9.972576738717057
 20
9.667074889112852
 30
0.0
 40
0.08606390625
  0
LINE
  5
7368
330
1F
100
AcDbEntity
  8
0
100
AcDbLine
 10
9.934216650171324
 20
9.747065118598776
 30
0.0
 11
10.04406633660372
 21
9.614547081235034
 31
0.0
1001
ACAD
1000
TCW40_DEV_WIDTH
1002
{
1040
-3.0
1002
}
  0
LINE
  5
7369
330
1F
100
AcDbEntity
  8
0
100
AcDbLine
 10
9.901087140830375
 20
9.719602696990673
 30
0.0
 11
10.01093682726279
 21
9.587084659626931
 31
0.0
1001
ACAD
1000
TCW40_DEV_WIDTH
1002
{
1040
-3.0
1002
}
  0
CIRCLE
  5
736A
330
1F
100
AcDbEntity
  8
0
100
AcDbCircle
 10
10.16622052777955
 20
9.667074889112852
 30
0.0
 40
0.08606390625
  0
LINE
  5
736B
330
1F
100
AcDbEntity
  8
0
100
AcDbLine
 10
10.12786043923381
 20
9.747065118598776
 30
0.0
 11
10.23771012566623
 21
9.614547081235034
 31
0.0
1001
ACAD
1000
TCW40_DEV_WIDTH
1002
{
1040
-3.0
1002
}
  0
LINE
  5
736C
330
1F
100
AcDbEntity
  8
0
100
AcDbLine
 10
10.09473092989288
 20
9.719602696990673
 30
0.0
 11
10.20458061632529
 21
9.587084659626931
 31
0.0
1001
ACAD
1000
TCW40_DEV_WIDTH
1002
{
1040
-3.0
1002
}
  0
CIRCLE
  5
736D
330
1F
100
AcDbEntity
  8
0
100
AcDbCircle
 10
10.35986431684205
 20
9.667074889112852
 30
0.0
 40
0.08606390625
  0
LINE
  5
736E
330
1F
100
AcDbEntity
  8
0
100
AcDbLine
 10
10.32150422829632
 20
9.747065118598776
 30
0.0
 11
10.43135391472873
 21
9.614547081235034
 31
0.0
1001
ACAD
1000
TCW40_DEV_WIDTH
1002
{
1040
-3.0
1002
}
  0
LINE
  5
736F
330
1F
100
AcDbEntity
  8
0
100
AcDbLine
 10
10.28837471895539
 20
9.719602696990673
 30
0.0
 11
10.39822440538778
 21
9.587084659626931
 31
0.0
1001
ACAD
1000
TCW40_DEV_WIDTH
1002
{
1040
-3.0
1002
}
  0
CIRCLE
  5
7370
330
1F
100
AcDbEntity
  8
0
100
AcDbCircle
 10
10.55350810590456
 20
9.667074889112852
 30
0.0
 40
0.08606390625
  0
LINE
  5
7371
330
1F
100
AcDbEntity
  8
0
100
AcDbLine
 10
10.51514801735882
 20
9.747065118598776
 30
0.0
 11
10.62499770379122
 21
9.614547081235034
 31
0.0
1001
ACAD
1000
TCW40_DEV_WIDTH
1002
{
1040
-3.0
1002
}
  0
LINE
  5
7372
330
1F
100
AcDbEntity
  8
0
100
AcDbLine
 10
10.48201850801787
 20
9.719602696990673
 30
0.0
 11
10.59186819445029
 21
9.587084659626931
 31
0.0
1001
ACAD
1000
TCW40_DEV_WIDTH
1002
{
1040
-3.0
1002
}
  0
CIRCLE
  5
7373
330
1F
100
AcDbEntity
  8
0
100
AcDbCircle
 10
10.74715189496704
 20
9.667074889112852
 30
0.0
 40
0.08606390625
  0
LINE
  5
7374
330
1F
100
AcDbEntity
  8
0
100
AcDbLine
 10
10.70879180642132
 20
9.747065118598776
 30
0.0
 11
10.81864149285373
 21
9.614547081235034
 31
0.0
1001
ACAD
1000
TCW40_DEV_WIDTH
1002
{
1040
-3.0
1002
}
  0
LINE
  5
7375
330
1F
100
AcDbEntity
  8
0
100
AcDbLine
 10
10.67566229708038
 20
9.719602696990673
 30
0.0
 11
10.78551198351279
 21
9.587084659626931
 31
0.0
1001
ACAD
1000
TCW40_DEV_WIDTH
1002
{
1040
-3.0
1002
}
  0
LINE
  5
7376
330
1F
100
AcDbEntity
  8
0
100
AcDbLine
 10
9.17648560590455
 20
9.920010714959964
 30
0.0
 11
12.42970126215455
 21
9.920010714959964
 31
0.0
1001
ACAD
1000
TCW40_DEV_WIDTH
1002
{
1040
-3.0
1002
}
  0
LINE
  5
7377
330
1F
100
AcDbEntity
  8
0
100
AcDbLine
 10
9.17648560590455
 20
10.00607462120996
 30
0.0
 11
12.32212137934205
 21
10.00607462120996
 31
0.0
1001
ACAD
1000
TCW40_DEV_WIDTH
1002
{
1040
-3.0
1002
}
  0
LINE
  5
7378
330
1F
100
AcDbEntity
  8
0
100
AcDbLine
 10
9.17648560590455
 20
10.26426633995996
 30
0.0
 11
12.32212137934205
 21
10.26426633995996
 31
0.0
1001
ACAD
1000
TCW40_DEV_WIDTH
1002
{
1040
-3.0
1002
}
  0
LINE
  5
7379
330
1F
100
AcDbEntity
  8
0
100
AcDbLine
 10
9.284065488717052
 20
9.446659230584963
 30
0.0
 11
12.42970126215455
 21
9.446659230584963
 31
0.0
1001
ACAD
1000
TCW40_DEV_WIDTH
1002
{
1040
-3.0
1002
}
  0
LINE
  5
737A
330
1F
100
AcDbEntity
  8
0
100
AcDbLine
 10
9.284065488717052
 20
9.532723136834965
 30
0.0
 11
12.42970126215455
 21
9.532723136834965
 31
0.0
1001
ACAD
1000
TCW40_DEV_WIDTH
1002
{
1040
-3.0
1002
}
  0
LINE
  5
737B
330
1F
100
AcDbEntity
  8
0
100
AcDbLine
 10
9.284065488717052
 20
9.898494738397463
 30
0.0
 11
12.42970126215455
 21
9.898494738397463
 31
0.0
1001
ACAD
1000
TCW40_DEV_WIDTH
1002
{
1040
-3.0
1002
}
  0
LINE
  5
737C
330
1F
100
AcDbEntity
  8
0
100
AcDbLine
 10
9.284065488717052
 20
9.790914855584965
 30
0.0
 11
12.42970126215455
 21
9.790914855584965
 31
0.0
1001
ACAD
1000
TCW40_DEV_WIDTH
1002
{
1040
-3.0
1002
}
  0
LINE
  5
7385
330
1F
100
AcDbEntity
  8
0
100
AcDbLine
 10
9.284065488717052
 20
9.920010714959964
 30
0.0
 11
9.284065488717052
 21
9.446659230584963
 31
0.0
1001
ACAD
1000
TCW40_DEV_WIDTH
1002
{
1040
-3.0
1002
}
  0
LINE
  5
7386
330
1F
100
AcDbEntity
  8
0
100
AcDbLine
 10
10.74715189496704
 20
10.39336219933496
 30
0.0
 11
10.74715189496704
 21
9.920010714959964
 31
0.0
1001
ACAD
1000
TCW40_DEV_WIDTH
1002
{
1040
-3.0
1002
}
  0
LINE
  5
7387
330
1F
100
AcDbEntity
  8
0
100
AcDbLine
 10
9.17648560590455
 20
10.39336219933496
 30
0.0
 11
9.17648560590455
 21
9.920010714959964
 31
0.0
1001
ACAD
1000
TCW40_DEV_WIDTH
1002
{
1040
-3.0
1002
}
  0
LINE
  5
7388
330
1F
100
AcDbEntity
  8
0
100
AcDbLine
 10
12.42970126215455
 20
9.920010714959964
 30
0.0
 11
12.42970126215455
 21
9.446659230584963
 31
0.0
1001
ACAD
1000
TCW40_DEV_WIDTH
1002
{
1040
-3.0
1002
}
  0
DIMENSION
  5
738D
330
1F
100
AcDbEntity
  8
DIM
100
AcDbDimension
  2
*D1
 10
13.14133439527815
 20
5.239363699334965
 30
0.0
 11
13.14133439527815
 21
7.816362949334966
 31
0.0
 70
    32
 71
     5
 42
5.153998499999997
  3
Standard
100
AcDbAlignedDimension
 13
12.46046019496705
 23
10.39336219933496
 33
0.0
 14
12.46046019496705
 24
5.239363699334965
 34
0.0
 50
90.0
100
AcDbRotatedDimension
  0
LINE
  5
749B
330
1F
100
AcDbEntity
  8
0
100
AcDbLine
 10
9.32726069496703
 20
7.6268867721868
 30
0.0
 11
9.32726069496703
 21
9.252400699334963
 31
0.0
1001
ACAD
1000
TCW40_DEV_WIDTH
1002
{
1040
-3.0
1002
}
  0
LINE
  5
749C
330
1F
100
AcDbEntity
  8
0
100
AcDbLine
 10
10.66502155375361
 20
7.625808870698161
 30
0.0
 11
10.66502155375361
 21
9.252400699334963
 31
0.0
1001
ACAD
1000
TCW40_DEV_WIDTH
1002
{
1040
-3.0
1002
}
  0
DIMENSION
  5
74BC
330
1F
100
AcDbEntity
  8
DIM
100
AcDbDimension
  2
*D2
 10
12.46046019496705
 20
10.83788428176081
 30
0.0
 11
10.81797019496704
 21
10.83788428176081
 31
0.0
 70
   160
 71
     5
 42
3.284980000000002
  3
Standard
100
AcDbAlignedDimension
 13
9.175480194967045
 23
10.39336219933496
 33
0.0
 14
12.46046019496705
 24
10.39336219933496
 34
0.0
100
AcDbRotatedDimension
  0
LINE
  5
758A
330
1F
100
AcDbEntity
  8
0
100
AcDbLine
 10
12.19499269496705
 20
6.888586568930573
 30
0.0
 11
12.19499269496706
 21
7.131055829739356
 31
0.0
  0
ARC
  5
758C
330
1F
100
AcDbEntity
  8
0
100
AcDbCircle
 10
12.19499269496706
 20
7.009821199334965
 30
0.0
 40
0.1212346304043912
100
AcDbArc
 50
90.0
 51
269.9999999999984
  0
LINE
  5
758E
330
1F
100
AcDbEntity
  8
0
100
AcDbLine
 10
12.32344602859458
 20
7.003816671248845
 30
0.0
 11
12.27923127306655
 21
7.003816671248845
 31
0.0
  0
LINE
  5
758F
330
1F
100
AcDbEntity
  8
0
100
AcDbLine
 10
12.32344602859458
 20
7.015825727421084
 30
0.0
 11
12.27923127306655
 21
7.015825727421084
 31
0.0
  0
LINE
  5
7590
330
1F
100
AcDbEntity
  8
0
100
AcDbLine
 10
12.27923127306655
 20
7.003816671248845
 30
0.0
 11
12.27923127306655
 21
7.015825727421084
 31
0.0
  0
LINE
  5
7592
330
1F
100
AcDbEntity
  8
0
100
AcDbLine
 10
12.19499269496705
 20
6.495151568930577
 30
0.0
 11
12.19499269496706
 21
6.737620829739359
 31
0.0
  0
ARC
  5
7593
330
1F
100
AcDbEntity
  8
0
100
AcDbCircle
 10
12.19499269496706
 20
6.616386199334968
 30
0.0
 40
0.1212346304043912
100
AcDbArc
 50
90.0
 51
269.9999999999984
  0
LINE
  5
7594
330
1F
100
AcDbEntity
  8
0
100
AcDbLine
 10
12.32344602859458
 20
6.622390727421088
 30
0.0
 11
12.27923127306655
 21
6.622390727421088
 31
0.0
  0
LINE
  5
7595
330
1F
100
AcDbEntity
  8
0
100
AcDbLine
 10
12.32344602859458
 20
6.610381671248848
 30
0.0
 11
12.27923127306655
 21
6.610381671248848
 31
0.0
  0
LINE
  5
7596
330
1F
100
AcDbEntity
  8
0
100
AcDbLine
 10
12.27923127306655
 20
6.610381671248848
 30
0.0
 11
12.27923127306655
 21
6.622390727421088
 31
0.0
  0
LINE
  5
7598
330
1F
100
AcDbEntity
  8
0
100
AcDbLine
 10
12.09000042521844
 20
6.162333884132767
 30
0.0
 11
12.29998496471568
 21
6.283568514537163
 31
0.0
  0
ARC
  5
7599
330
1F
100
AcDbEntity
  8
0
100
AcDbCircle
 10
12.19499269496706
 20
6.222951199334964
 30
0.0
 40
0.1212346304043912
100
AcDbArc
 50
30.00000000000188
 51
210.0000000000003
  0
LINE
  5
759A
330
1F
100
AcDbEntity
  8
0
100
AcDbLine
 10
12.26441943564114
 20
6.114709613255797
 30
0.0
 11
12.24231205787712
 21
6.153000714765182
 31
0.0
  0
LINE
  5
759B
330
1F
100
AcDbEntity
  8
0
100
AcDbLine
 10
12.25401928792051
 20
6.108705085169676
 30
0.0
 11
12.23191191015649
 21
6.146996186679063
 31
0.0
  0
LINE
  5
759C
330
1F
100
AcDbEntity
  8
0
100
AcDbLine
 10
12.23191191015649
 20
6.146996186679063
 30
0.0
 11
12.24231205787713
 21
6.153000714765184
 31
0.0
  0
LINE
  5
759E
330
1F
100
AcDbEntity
  8
0
100
AcDbLine
 10
10.62125269496705
 20
6.888586568930573
 30
0.0
 11
10.62125269496706
 21
7.131055829739356
 31
0.0
  0
ARC
  5
759F
330
1F
100
AcDbEntity
  8
0
100
AcDbCircle
 10
10.62125269496706
 20
7.009821199334965
 30
0.0
 40
0.1212346304043912
100
AcDbArc
 50
90.0
 51
269.9999999999984
  0
LINE
  5
75A0
330
1F
100
AcDbEntity
  8
0
100
AcDbLine
 10
10.74970602859457
 20
7.015825727421084
 30
0.0
 11
10.70549127306655
 21
7.015825727421084
 31
0.0
  0
LINE
  5
75A1
330
1F
100
AcDbEntity
  8
0
100
AcDbLine
 10
10.74970602859457
 20
7.003816671248845
 30
0.0
 11
10.70549127306655
 21
7.003816671248845
 31
0.0
  0
LINE
  5
75A2
330
1F
100
AcDbEntity
  8
0
100
AcDbLine
 10
10.70549127306655
 20
7.003816671248845
 30
0.0
 11
10.70549127306655
 21
7.015825727421084
 31
0.0
  0
LINE
  5
75A4
330
1F
100
AcDbEntity
  8
0
100
AcDbLine
 10
10.62125269496705
 20
6.495151568930577
 30
0.0
 11
10.62125269496706
 21
6.737620829739359
 31
0.0
  0
ARC
  5
75A5
330
1F
100
AcDbEntity
  8
0
100
AcDbCircle
 10
10.62125269496706
 20
6.616386199334968
 30
0.0
 40
0.1212346304043912
100
AcDbArc
 50
90.0
 51
269.9999999999984
  0
LINE
  5
75A6
330
1F
100
AcDbEntity
  8
0
100
AcDbLine
 10
10.74970602859457
 20
6.622390727421088
 30
0.0
 11
10.70549127306655
 21
6.622390727421088
 31
0.0
  0
LINE
  5
75A7
330
1F
100
AcDbEntity
  8
0
100
AcDbLine
 10
10.74970602859457
 20
6.610381671248848
 30
0.0
 11
10.70549127306655
 21
6.610381671248848
 31
0.0
  0
LINE
  5
75A8
330
1F
100
AcDbEntity
  8
0
100
AcDbLine
 10
10.70549127306655
 20
6.610381671248848
 30
0.0
 11
10.70549127306655
 21
6.622390727421088
 31
0.0
  0
LINE
  5
75AA
330
1F
100
AcDbEntity
  8
0
100
AcDbLine
 10
10.51626042521844
 20
6.162333884132767
 30
0.0
 11
10.72624496471567
 21
6.283568514537163
 31
0.0
  0
ARC
  5
75AB
330
1F
100
AcDbEntity
  8
0
100
AcDbCircle
 10
10.62125269496706
 20
6.222951199334964
 30
0.0
 40
0.1212346304043912
100
AcDbArc
 50
30.00000000000188
 51
210.0000000000003
  0
LINE
  5
75AC
330
1F
100
AcDbEntity
  8
0
100
AcDbLine
 10
10.69067943564113
 20
6.114709613255797
 30
0.0
 11
10.66857205787712
 21
6.153000714765182
 31
0.0
  0
LINE
  5
75AD
330
1F
100
AcDbEntity
  8
0
100
AcDbLine
 10
10.6802792879205
 20
6.108705085169676
 30
0.0
 11
10.65817191015649
 21
6.146996186679063
 31
0.0
  0
LINE
  5
75AE
330
1F
100
AcDbEntity
  8
0
100
AcDbLine
 10
10.65817191015649
 20
6.146996186679063
 30
0.0
 11
10.66857205787713
 21
6.153000714765184
 31
0.0
  0
TEXT
  5
75B0
330
1F
100
AcDbEntity
  8
TEXT
100
AcDbText
 10
9.612694227888392
 20
8.232923088023325
 30
0.0
 40
0.09
  1
1715-TADIF16
 41
0.8
 72
     1
 11
9.984694227888391
 21
8.277923088023324
 31
0.0
100
AcDbText
 73
     2
  0
LINE
  5
77CA
330
1F
100
AcDbEntity
  8
0
100
AcDbLine
 10
14.97172532606561
 20
10.39336219933496
 30
0.0
 11
14.97172532606561
 21
8.843875182190144
 31
0.0
  0
LINE
  5
77CB
330
1F
100
AcDbEntity
  8
0
100
AcDbLine
 10
14.62550939021106
 20
7.616031474388119
 30
0.0
 11
14.35795291556645
 21
7.822096054799388
 31
0.0
  0
ARC
  5
77CC
330
1F
100
AcDbEntity
  8
0
100
AcDbCircle
 10
14.43422532606561
 20
7.921128975571466
 30
0.0
 40
0.125
100
AcDbArc
 50
180.0
 51
232.3975325063222
  0
LINE
  5
77CD
330
1F
100
AcDbEntity
  8
0
100
AcDbLine
 10
14.90922532606561
 20
5.275384120707816
 30
0.0
 11
14.70922532606562
 21
5.275384120707816
 31
0.0
  0
LINE
  5
77CE
330
1F
100
AcDbEntity
  8
0
100
AcDbLine
 10
14.48422532606561
 20
7.085185120707823
 30
0.0
 11
14.47922532606561
 21
7.085185120707823
 31
0.0
  0
LINE
  5
77CF
330
1F
100
AcDbEntity
  8
0
100
AcDbLine
 10
14.70922532606562
 20
5.472101620707821
 30
0.0
 11
14.47922532606561
 21
5.472101620707821
 31
0.0
  0
LINE
  5
77D0
330
1F
100
AcDbEntity
  8
0
100
AcDbLine
 10
14.90922532606561
 20
9.249077620707819
 30
0.0
 11
14.43422532606561
 21
9.249077620707819
 31
0.0
  0
ARC
  5
77D1
330
1F
100
AcDbEntity
  8
0
100
AcDbCircle
 10
14.43422532606561
 20
9.124077620707819
 30
0.0
 40
0.125
100
AcDbArc
 50
90.0
 51
180.0
  0
LINE
  5
77D2
330
1F
100
AcDbEntity
  8
0
100
AcDbLine
 10
14.30922532606561
 20
9.124077620707819
 30
0.0
 11
14.30922532606561
 21
7.921128975571466
 31
0.0
  0
LINE
  5
77D3
330
1F
100
AcDbEntity
  8
0
100
AcDbLine
 10
14.90922532606561
 20
7.590064395160194
 30
0.0
 11
14.70178180071022
 21
7.590064395160194
 31
0.0
  0
ARC
  5
77D4
330
1F
100
AcDbEntity
  8
0
100
AcDbCircle
 10
14.70178180071022
 20
7.715064395160194
 30
0.0
 40
0.125
100
AcDbArc
 50
232.3975325063222
 51
270.0
  0
LINE
  5
77D5
330
1F
100
AcDbEntity
  8
0
100
AcDbLine
 10
14.90922532606561
 20
7.281902620707821
 30
0.0
 11
14.70922532606562
 21
7.281902620707821
 31
0.0
  0
LINE
  5
77D6
330
1F
100
AcDbEntity
  8
0
100
AcDbLine
 10
14.47922532606561
 20
7.085185120707823
 30
0.0
 11
14.47922532606561
 21
5.472101620707821
 31
0.0
  0
LINE
  5
77D7
330
1F
100
AcDbEntity
  8
0
100
AcDbLine
 10
14.70922532606562
 20
7.281902620707821
 30
0.0
 11
14.70922532606562
 21
7.123026868759275
 31
0.0
  0
LINE
  5
77D8
330
1F
100
AcDbEntity
  8
0
100
AcDbLine
 10
14.70922532606562
 20
6.889969372656377
 30
0.0
 11
14.70922532606562
 21
6.731944809935743
 31
0.0
  0
LINE
  5
77D9
330
1F
100
AcDbEntity
  8
0
100
AcDbLine
 10
14.70922532606562
 20
6.494181431479903
 30
0.0
 11
14.70922532606562
 21
6.336156868759278
 31
0.0
  0
LINE
  5
77DA
330
1F
100
AcDbEntity
  8
0
100
AcDbLine
 10
14.70922532606562
 20
6.103099372656378
 30
0.0
 11
14.70922532606562
 21
5.275384120707816
 31
0.0
  0
LINE
  5
77DB
330
1F
100
AcDbEntity
  8
0
100
AcDbLine
 10
14.90922532606561
 20
8.894986120707816
 30
0.0
 11
14.67922532606561
 21
8.894986120707816
 31
0.0
  0
LINE
  5
77DC
330
1F
100
AcDbEntity
  8
0
100
AcDbLine
 10
14.90922532606561
 20
8.560566370707819
 30
0.0
 11
14.67922532606561
 21
8.560566370707819
 31
0.0
  0
LINE
  5
77DD
330
1F
100
AcDbEntity
  8
0
100
AcDbLine
 10
14.67922532606561
 20
8.894986120707816
 30
0.0
 11
14.67922532606561
 21
8.560566370707821
 31
0.0
  0
LINE
  5
77DE
330
1F
100
AcDbEntity
  8
0
100
AcDbLine
 10
14.67922532606561
 20
8.582776245707819
 30
0.0
 11
15.08207495236376
 21
8.62258063079402
 31
0.0
  0
LINE
  5
77DF
330
1F
100
AcDbEntity
  8
0
100
AcDbLine
 10
14.67922532606561
 20
8.872776245707818
 30
0.0
 11
15.08207495236376
 21
8.832971860621617
 31
0.0
  0
LINE
  5
77E0
330
1F
100
AcDbEntity
  8
0
100
AcDbLine
 10
14.90922532606561
 20
7.450048888514986
 30
0.0
 11
14.32922532606561
 21
7.450048888514986
 31
0.0
  0
LINE
  5
77E1
330
1F
100
AcDbEntity
  8
0
100
AcDbLine
 10
14.32922532606561
 20
7.450048888514986
 30
0.0
 11
14.32922532606561
 21
7.34981735290065
 31
0.0
  0
LINE
  5
77E2
330
1F
100
AcDbEntity
  8
0
100
AcDbLine
 10
14.32922532606561
 20
7.34981735290065
 30
0.0
 11
14.90922532606561
 21
7.34981735290065
 31
0.0
  0
LINE
  5
77E3
330
1F
100
AcDbEntity
  8
0
100
AcDbLine
 10
14.90922532606561
 20
6.734297751112215
 30
0.0
 11
14.48422532606561
 21
6.724297751112215
 31
0.0
  0
LINE
  5
77E4
330
1F
100
AcDbEntity
  8
0
100
AcDbLine
 10
14.90922532606561
 20
6.491828490303433
 30
0.0
 11
14.48422532606561
 21
6.501828490303433
 31
0.0
  0
LINE
  5
77E5
330
1F
100
AcDbEntity
  8
0
100
AcDbLine
 10
14.48422532606561
 20
6.724297751112215
 30
0.0
 11
14.48422532606561
 21
6.501828490303433
 31
0.0
  0
LINE
  5
77E6
330
1F
100
AcDbEntity
  8
0
100
AcDbLine
 10
14.90922532606561
 20
7.127732751112219
 30
0.0
 11
14.48422532606561
 21
7.117732751112219
 31
0.0
  0
LINE
  5
77E7
330
1F
100
AcDbEntity
  8
0
100
AcDbLine
 10
14.90922532606561
 20
6.885263490303437
 30
0.0
 11
14.48422532606561
 21
6.895263490303436
 31
0.0
  0
LINE
  5
77E8
330
1F
100
AcDbEntity
  8
0
100
AcDbLine
 10
14.48422532606561
 20
7.117732751112219
 30
0.0
 11
14.48422532606561
 21
6.895263490303436
 31
0.0
  0
LINE
  5
77E9
330
1F
100
AcDbEntity
  8
0
100
AcDbLine
 10
14.90922532606561
 20
6.340862751112219
 30
0.0
 11
14.48422532606561
 21
6.330862751112219
 31
0.0
  0
LINE
  5
77EA
330
1F
100
AcDbEntity
  8
0
100
AcDbLine
 10
14.90922532606561
 20
6.098393490303436
 30
0.0
 11
14.48422532606561
 21
6.108393490303436
 31
0.0
  0
LINE
  5
77EB
330
1F
100
AcDbEntity
  8
0
100
AcDbLine
 10
14.48422532606561
 20
6.330862751112219
 30
0.0
 11
14.48422532606561
 21
6.108393490303436
 31
0.0
  0
LINE
  5
77FC
330
1F
100
AcDbEntity
  8
0
100
AcDbLine
 10
7.010430999723027
 20
7.616031474388119
 30
0.0
 11
7.277987474367638
 21
7.822096054799388
 31
0.0
  0
ARC
  5
77FD
330
1F
100
AcDbEntity
  8
0
100
AcDbCircle
 10
7.20171506386848
 20
7.921128975571466
 30
0.0
 40
0.125
100
AcDbArc
 50
307.602467493678
 51
0.0
  0
LINE
  5
77FE
330
1F
100
AcDbEntity
  8
0
100
AcDbLine
 10
6.726715063868478
 20
5.275384120707816
 30
0.0
 11
6.926715063868474
 21
5.275384120707816
 31
0.0
  0
LINE
  5
77FF
330
1F
100
AcDbEntity
  8
0
100
AcDbLine
 10
6.926715063868474
 20
5.472101620707821
 30
0.0
 11
7.156715063868478
 21
5.472101620707821
 31
0.0
  0
LINE
  5
7800
330
1F
100
AcDbEntity
  8
0
100
AcDbLine
 10
6.726715063868478
 20
9.249077620707819
 30
0.0
 11
7.20171506386848
 21
9.249077620707819
 31
0.0
  0
ARC
  5
7801
330
1F
100
AcDbEntity
  8
0
100
AcDbCircle
 10
7.20171506386848
 20
9.124077620707819
 30
0.0
 40
0.125
100
AcDbArc
 50
0.0
 51
90.0
  0
LINE
  5
7802
330
1F
100
AcDbEntity
  8
0
100
AcDbLine
 10
7.32671506386848
 20
9.124077620707819
 30
0.0
 11
7.32671506386848
 21
7.921128975571466
 31
0.0
  0
LINE
  5
7803
330
1F
100
AcDbEntity
  8
0
100
AcDbLine
 10
6.726715063868478
 20
7.590064395160194
 30
0.0
 11
6.934158589223873
 21
7.590064395160194
 31
0.0
  0
ARC
  5
7804
330
1F
100
AcDbEntity
  8
0
100
AcDbCircle
 10
6.934158589223873
 20
7.715064395160194
 30
0.0
 40
0.125
100
AcDbArc
 50
270.0
 51
307.602467493678
  0
LINE
  5
7805
330
1F
100
AcDbEntity
  8
0
100
AcDbLine
 10
6.726715063868478
 20
7.281902620707821
 30
0.0
 11
6.926715063868474
 21
7.281902620707821
 31
0.0
  0
LINE
  5
7806
330
1F
100
AcDbEntity
  8
0
100
AcDbLine
 10
7.156715063868478
 20
7.085185120707823
 30
0.0
 11
7.156715063868478
 21
5.472101620707821
 31
0.0
  0
LINE
  5
7807
330
1F
100
AcDbEntity
  8
0
100
AcDbLine
 10
6.926715063868474
 20
7.281902620707821
 30
0.0
 11
6.926715063868474
 21
5.275384120707816
 31
0.0
  0
LINE
  5
7808
330
1F
100
AcDbEntity
  8
0
100
AcDbLine
 10
6.726715063868478
 20
8.894986120707816
 30
0.0
 11
6.956715063868479
 21
8.894986120707816
 31
0.0
  0
LINE
  5
7809
330
1F
100
AcDbEntity
  8
0
100
AcDbLine
 10
6.726715063868478
 20
8.560566370707819
 30
0.0
 11
6.956715063868482
 21
8.560566370707819
 31
0.0
  0
LINE
  5
780A
330
1F
100
AcDbEntity
  8
0
100
AcDbLine
 10
6.956715063868479
 20
8.894986120707816
 30
0.0
 11
6.956715063868482
 21
8.560566370707821
 31
0.0
  0
LINE
  5
780B
330
1F
100
AcDbEntity
  8
0
100
AcDbLine
 10
6.956715063868479
 20
8.582776245707819
 30
0.0
 11
6.525098890861634
 21
8.62258063079402
 31
0.0
  0
LINE
  5
780C
330
1F
100
AcDbEntity
  8
0
100
AcDbLine
 10
6.956715063868479
 20
8.872776245707818
 30
0.0
 11
6.525098890861634
 21
8.832971860621617
 31
0.0
  0
LINE
  5
780E
330
1F
100
AcDbEntity
  8
0
100
AcDbLine
 10
6.726715063868478
 20
7.450048888514986
 30
0.0
 11
7.30671506386848
 21
7.450048888514986
 31
0.0
  0
LINE
  5
780F
330
1F
100
AcDbEntity
  8
0
100
AcDbLine
 10
7.30671506386848
 20
7.450048888514986
 30
0.0
 11
7.30671506386848
 21
7.34981735290065
 31
0.0
  0
LINE
  5
7810
330
1F
100
AcDbEntity
  8
0
100
AcDbLine
 10
7.30671506386848
 20
7.34981735290065
 30
0.0
 11
6.726715063868478
 21
7.34981735290065
 31
0.0
  0
LINE
  5
7811
330
1F
100
AcDbEntity
  8
0
100
AcDbLine
 10
6.926715063868474
 20
7.085185120707823
 30
0.0
 11
7.156715063868478
 21
7.085185120707823
 31
0.0
  0
LINE
  5
787B
330
1F
100
AcDbEntity
  8
0
100
AcDbLine
 10
9.175480194967043
 20
12.67123266554822
 30
0.0
 11
9.195480194967043
 21
12.19623266554822
 31
0.0
  0
ARC
  5
787C
330
1F
100
AcDbEntity
  8
0
100
AcDbCircle
 10
9.308484665703701
 20
12.19953495889849
 30
0.0
 40
0.1130527113688283
100
AcDbArc
 50
181.6738597967052
 51
265.5601218613944
  0
LINE
  5
7880
330
1F
100
AcDbEntity
  8
0
100
AcDbLine
 10
12.46046019496705
 20
12.67123266554822
 30
0.0
 11
12.44046019496705
 21
12.19623266554822
 31
0.0
  0
DIMENSION
  5
797B
330
1F
100
AcDbEntity
  8
DIM
100
AcDbDimension
  2
*D3
 10
7.492447934030852
 20
10.83543419946726
 30
0.0
 11
6.878175442292535
 21
10.83543419946726
 31
0.0
 70
   160
 71
     5
 42
1.228544983476634
  3
Standard
100
AcDbAlignedDimension
 13
6.263902950554218
 23
7.803636038433044
 33
0.0
 14
7.492447934030852
 24
9.719955447015649
 34
0.0
100
AcDbRotatedDimension
  0
LINE
  5
7AFD
330
1F
100
AcDbEntity
  8
0
100
AcDbLine
 10
9.299732920340535
 20
12.21060862363698
 30
0.0
 11
9.299732920340535
 21
11.90300535349136
 31
0.0
  0
LINE
  5
7AFE
330
1F
100
AcDbEntity
  8
0
100
AcDbLine
 10
9.247303905904551
 20
12.21060862363698
 30
0.0
 11
12.44106549846552
 21
12.21060862363698
 31
0.0
  0
LINE
  5
7AFF
330
1F
100
AcDbEntity
  8
0
100
AcDbLine
 10
10.87039920940303
 20
12.21060862363698
 30
0.0
 11
10.87039920940303
 21
11.90300535349136
 31
0.0
  0
LINE
  5
7B49
330
1F
100
AcDbEntity
  8
0
100
AcDbLine
 10
12.44106549846552
 20
11.90300535349136
 30
0.0
 11
12.44106549846552
 21
12.21060862363698
 31
0.0
  0
LINE
  5
8023
330
1F
100
AcDbEntity
  8
0
100
AcDbLine
 10
12.29288904978629
 20
11.99261912260953
 30
0.0
 11
12.40668823701696
 21
11.99261912260953
 31
0.0
  0
LINE
  5
8026
330
1F
100
AcDbEntity
  8
0
100
AcDbLine
 10
12.0962613402042
 20
11.99261912260953
 30
0.0
 11
12.21006052743486
 21
11.99261912260953
 31
0.0
  0
LINE
  5
8027
330
1F
100
AcDbEntity
  8
0
100
AcDbLine
 10
11.89927350661189
 20
11.99261912260953
 30
0.0
 11
12.01307269384255
 21
11.99261912260953
 31
0.0
  0
LINE
  5
8028
330
1F
100
AcDbEntity
  8
0
100
AcDbLine
 10
11.6950831928151
 20
11.99261912260953
 30
0.0
 11
11.81644498426045
 21
11.99261912260953
 31
0.0
  0
LINE
  5
8029
330
1F
100
AcDbEntity
  8
0
100
AcDbLine
 10
11.49845548323301
 20
11.99261912260953
 30
0.0
 11
11.61981727467837
 21
11.99261912260953
 31
0.0
  0
LINE
  5
802A
330
1F
100
AcDbEntity
  8
0
100
AcDbLine
 10
11.30146764964069
 20
11.99261912260953
 30
0.0
 11
11.42282944108605
 21
11.99261912260953
 31
0.0
  0
LINE
  5
802B
330
1F
100
AcDbEntity
  8
0
100
AcDbLine
 10
11.1048399400586
 20
11.99261912260953
 30
0.0
 11
11.22584160749373
 21
11.99261912260953
 31
0.0
  0
LINE
  5
802C
330
1F
100
AcDbEntity
  8
0
100
AcDbLine
 10
10.90821223047651
 20
11.99261912260953
 30
0.0
 11
11.02921389791164
 21
11.99261912260953
 31
0.0
  0
LINE
  5
802D
330
1F
100
AcDbEntity
  8
0
100
AcDbLine
 10
12.29288904978629
 20
12.21060862363698
 30
0.0
 11
12.29288904978629
 21
11.99261912260953
 31
0.0
  0
LINE
  5
802E
330
1F
100
AcDbEntity
  8
0
100
AcDbLine
 10
12.40632811300673
 20
11.99261912260953
 30
0.0
 11
12.40632811300673
 21
12.21060862363698
 31
0.0
  0
LINE
  5
802F
330
1F
100
AcDbEntity
  8
0
100
AcDbLine
 10
12.0962613402042
 20
12.21060862363698
 30
0.0
 11
12.0962613402042
 21
11.99261912260953
 31
0.0
  0
LINE
  5
8030
330
1F
100
AcDbEntity
  8
0
100
AcDbLine
 10
12.20970040342464
 20
11.99261912260953
 30
0.0
 11
12.20970040342464
 21
12.21060862363698
 31
0.0
  0
LINE
  5
8031
330
1F
100
AcDbEntity
  8
0
100
AcDbLine
 10
12.1113865486336
 20
12.1727956025635
 30
0.0
 11
12.20970040342464
 21
12.1727956025635
 31
0.0
  0
LINE
  5
8032
330
1F
100
AcDbEntity
  8
0
100
AcDbLine
 10
12.20970040342464
 20
12.01362079004467
 30
0.0
 11
12.1113865486336
 21
12.01362079004467
 31
0.0
  0
LINE
  5
8033
330
1F
100
AcDbEntity
  8
0
100
AcDbLine
 10
12.1113865486336
 20
12.01362079004467
 30
0.0
 11
12.1113865486336
 21
12.1727956025635
 31
0.0
  0
LINE
  5
8034
330
1F
100
AcDbEntity
  8
0
100
AcDbLine
 10
12.30801425821568
 20
12.1727956025635
 30
0.0
 11
12.40632811300673
 21
12.1727956025635
 31
0.0
  0
LINE
  5
8035
330
1F
100
AcDbEntity
  8
0
100
AcDbLine
 10
12.40632811300673
 20
12.01362079004467
 30
0.0
 11
12.30801425821568
 21
12.01362079004467
 31
0.0
  0
LINE
  5
8036
330
1F
100
AcDbEntity
  8
0
100
AcDbLine
 10
12.30801425821568
 20
12.01362079004467
 30
0.0
 11
12.30801425821568
 21
12.1727956025635
 31
0.0
  0
LINE
  5
8037
330
1F
100
AcDbEntity
  8
0
100
AcDbLine
 10
11.89927350661189
 20
12.21060862363698
 30
0.0
 11
11.89927350661189
 21
11.99261912260953
 31
0.0
  0
LINE
  5
8038
330
1F
100
AcDbEntity
  8
0
100
AcDbLine
 10
12.01307269384255
 20
11.99261912260953
 30
0.0
 11
12.01307269384255
 21
12.21060862363698
 31
0.0
  0
LINE
  5
8039
330
1F
100
AcDbEntity
  8
0
100
AcDbLine
 10
11.6950831928151
 20
12.21060862363698
 30
0.0
 11
11.6950831928151
 21
11.99261912260953
 31
0.0
  0
LINE
  5
803A
330
1F
100
AcDbEntity
  8
0
100
AcDbLine
 10
11.81608486025023
 20
11.99261912260953
 30
0.0
 11
11.81608486025023
 21
12.21060862363698
 31
0.0
  0
LINE
  5
803B
330
1F
100
AcDbEntity
  8
0
100
AcDbLine
 10
11.49845548323301
 20
12.21060862363698
 30
0.0
 11
11.49845548323301
 21
11.99261912260953
 31
0.0
  0
LINE
  5
803C
330
1F
100
AcDbEntity
  8
0
100
AcDbLine
 10
11.61945715066814
 20
11.99261912260953
 30
0.0
 11
11.61945715066814
 21
12.21060862363698
 31
0.0
  0
LINE
  5
803D
330
1F
100
AcDbEntity
  8
0
100
AcDbLine
 10
11.30146764964069
 20
12.21060862363698
 30
0.0
 11
11.30146764964069
 21
11.99261912260953
 31
0.0
  0
LINE
  5
803E
330
1F
100
AcDbEntity
  8
0
100
AcDbLine
 10
11.42282944108605
 20
11.99261912260953
 30
0.0
 11
11.42282944108605
 21
12.21060862363698
 31
0.0
  0
LINE
  5
803F
330
1F
100
AcDbEntity
  8
0
100
AcDbLine
 10
11.1048399400586
 20
12.21060862363698
 30
0.0
 11
11.1048399400586
 21
11.99261912260953
 31
0.0
  0
LINE
  5
8040
330
1F
100
AcDbEntity
  8
0
100
AcDbLine
 10
11.22584160749373
 20
11.99261912260953
 30
0.0
 11
11.22584160749373
 21
12.21060862363698
 31
0.0
  0
LINE
  5
8041
330
1F
100
AcDbEntity
  8
0
100
AcDbLine
 10
10.90821223047651
 20
12.21060862363698
 30
0.0
 11
10.90821223047651
 21
11.99261912260953
 31
0.0
  0
LINE
  5
8042
330
1F
100
AcDbEntity
  8
0
100
AcDbLine
 10
11.02921389791164
 20
11.99261912260953
 30
0.0
 11
11.02921389791164
 21
12.21060862363698
 31
0.0
  0
LINE
  5
8043
330
1F
100
AcDbEntity
  8
0
100
AcDbLine
 10
10.93090004312059
 20
12.1727956025635
 30
0.0
 11
11.02921389791164
 21
12.1727956025635
 31
0.0
  0
LINE
  5
8044
330
1F
100
AcDbEntity
  8
0
100
AcDbLine
 10
11.02921389791164
 20
12.01362079004467
 30
0.0
 11
10.93090004312059
 21
12.01362079004467
 31
0.0
  0
LINE
  5
8045
330
1F
100
AcDbEntity
  8
0
100
AcDbLine
 10
10.93090004312059
 20
12.01362079004467
 30
0.0
 11
10.93090004312059
 21
12.1727956025635
 31
0.0
  0
LINE
  5
8046
330
1F
100
AcDbEntity
  8
0
100
AcDbLine
 10
11.12752775270269
 20
12.1727956025635
 30
0.0
 11
11.22584160749373
 21
12.1727956025635
 31
0.0
  0
LINE
  5
8047
330
1F
100
AcDbEntity
  8
0
100
AcDbLine
 10
11.22584160749373
 20
12.01362079004467
 30
0.0
 11
11.12752775270269
 21
12.01362079004467
 31
0.0
  0
LINE
  5
8048
330
1F
100
AcDbEntity
  8
0
100
AcDbLine
 10
11.12752775270269
 20
12.01362079004467
 30
0.0
 11
11.12752775270269
 21
12.1727956025635
 31
0.0
  0
LINE
  5
8049
330
1F
100
AcDbEntity
  8
0
100
AcDbLine
 10
11.32415546228478
 20
12.1727956025635
 30
0.0
 11
11.42282944108605
 21
12.1727956025635
 31
0.0
  0
LINE
  5
804A
330
1F
100
AcDbEntity
  8
0
100
AcDbLine
 10
11.42282944108605
 20
12.01362079004467
 30
0.0
 11
11.32415546228478
 21
12.01362079004467
 31
0.0
  0
LINE
  5
804B
330
1F
100
AcDbEntity
  8
0
100
AcDbLine
 10
11.32415546228478
 20
12.01362079004467
 30
0.0
 11
11.32415546228478
 21
12.1727956025635
 31
0.0
  0
LINE
  5
804C
330
1F
100
AcDbEntity
  8
0
100
AcDbLine
 10
11.52114329587709
 20
12.1727956025635
 30
0.0
 11
11.61945715066814
 21
12.1727956025635
 31
0.0
  0
LINE
  5
804D
330
1F
100
AcDbEntity
  8
0
100
AcDbLine
 10
11.61945715066814
 20
12.01362079004467
 30
0.0
 11
11.52114329587709
 21
12.01362079004467
 31
0.0
  0
LINE
  5
804E
330
1F
100
AcDbEntity
  8
0
100
AcDbLine
 10
11.52114329587709
 20
12.01362079004467
 30
0.0
 11
11.52114329587709
 21
12.1727956025635
 31
0.0
  0
LINE
  5
804F
330
1F
100
AcDbEntity
  8
0
100
AcDbLine
 10
11.71777100545918
 20
12.1727956025635
 30
0.0
 11
11.81608486025023
 21
12.1727956025635
 31
0.0
  0
LINE
  5
8050
330
1F
100
AcDbEntity
  8
0
100
AcDbLine
 10
11.81608486025023
 20
12.01362079004467
 30
0.0
 11
11.71777100545918
 21
12.01362079004467
 31
0.0
  0
LINE
  5
8051
330
1F
100
AcDbEntity
  8
0
100
AcDbLine
 10
11.71777100545918
 20
12.01362079004467
 30
0.0
 11
11.71777100545918
 21
12.1727956025635
 31
0.0
  0
LINE
  5
8052
330
1F
100
AcDbEntity
  8
0
100
AcDbLine
 10
11.91439871504128
 20
12.1727956025635
 30
0.0
 11
12.01307269384255
 21
12.1727956025635
 31
0.0
  0
LINE
  5
8053
330
1F
100
AcDbEntity
  8
0
100
AcDbLine
 10
12.01307269384255
 20
12.01362079004467
 30
0.0
 11
11.91439871504128
 21
12.01362079004467
 31
0.0
  0
LINE
  5
8054
330
1F
100
AcDbEntity
  8
0
100
AcDbLine
 10
11.91439871504128
 20
12.01362079004467
 30
0.0
 11
11.91439871504128
 21
12.1727956025635
 31
0.0
  0
LINE
  5
8055
330
1F
100
AcDbEntity
  8
0
100
AcDbLine
 10
12.24046003535031
 20
12.30960969731482
 30
0.0
 11
12.35425922258097
 21
12.30960969731482
 31
0.0
  0
LINE
  5
8056
330
1F
100
AcDbEntity
  8
0
100
AcDbLine
 10
12.04383232576822
 20
12.30960969731482
 30
0.0
 11
12.15763151299888
 21
12.30960969731482
 31
0.0
  0
LINE
  5
8057
330
1F
100
AcDbEntity
  8
0
100
AcDbLine
 10
11.8468444921759
 20
12.30960969731482
 30
0.0
 11
11.96064367940657
 21
12.30960969731482
 31
0.0
  0
LINE
  5
8058
330
1F
100
AcDbEntity
  8
0
100
AcDbLine
 10
11.64265417837911
 20
12.30960969731482
 30
0.0
 11
11.76401596982447
 21
12.30960969731482
 31
0.0
  0
LINE
  5
8059
330
1F
100
AcDbEntity
  8
0
100
AcDbLine
 10
11.44602646879702
 20
12.30960969731482
 30
0.0
 11
11.56738826024238
 21
12.30960969731482
 31
0.0
  0
LINE
  5
805A
330
1F
100
AcDbEntity
  8
0
100
AcDbLine
 10
11.24903863520471
 20
12.30960969731482
 30
0.0
 11
11.37040042665007
 21
12.30960969731482
 31
0.0
  0
LINE
  5
805B
330
1F
100
AcDbEntity
  8
0
100
AcDbLine
 10
11.05241092562261
 20
12.30960969731482
 30
0.0
 11
11.17341259305775
 21
12.30960969731482
 31
0.0
  0
LINE
  5
805C
330
1F
100
AcDbEntity
  8
0
100
AcDbLine
 10
10.85578321604052
 20
12.30960969731482
 30
0.0
 11
10.97678488347566
 21
12.30960969731482
 31
0.0
  0
LINE
  5
805D
330
1F
100
AcDbEntity
  8
0
100
AcDbLine
 10
12.24046003535031
 20
12.52759919834227
 30
0.0
 11
12.24046003535031
 21
12.30960969731482
 31
0.0
  0
LINE
  5
805E
330
1F
100
AcDbEntity
  8
0
100
AcDbLine
 10
12.35389909857074
 20
12.30960969731482
 30
0.0
 11
12.35389909857074
 21
12.52759919834227
 31
0.0
  0
LINE
  5
805F
330
1F
100
AcDbEntity
  8
0
100
AcDbLine
 10
12.04383232576822
 20
12.52759919834227
 30
0.0
 11
12.04383232576822
 21
12.30960969731482
 31
0.0
  0
LINE
  5
8060
330
1F
100
AcDbEntity
  8
0
100
AcDbLine
 10
12.15727138898866
 20
12.30960969731482
 30
0.0
 11
12.15727138898866
 21
12.52759919834227
 31
0.0
  0
LINE
  5
8061
330
1F
100
AcDbEntity
  8
0
100
AcDbLine
 10
12.05895753419761
 20
12.48978617726879
 30
0.0
 11
12.15727138898866
 21
12.48978617726879
 31
0.0
  0
LINE
  5
8062
330
1F
100
AcDbEntity
  8
0
100
AcDbLine
 10
12.15727138898866
 20
12.33061136474995
 30
0.0
 11
12.05895753419761
 21
12.33061136474995
 31
0.0
  0
LINE
  5
8063
330
1F
100
AcDbEntity
  8
0
100
AcDbLine
 10
12.05895753419761
 20
12.33061136474995
 30
0.0
 11
12.05895753419761
 21
12.48978617726879
 31
0.0
  0
LINE
  5
8064
330
1F
100
AcDbEntity
  8
0
100
AcDbLine
 10
12.2555852437797
 20
12.48978617726879
 30
0.0
 11
12.35389909857074
 21
12.48978617726879
 31
0.0
  0
LINE
  5
8065
330
1F
100
AcDbEntity
  8
0
100
AcDbLine
 10
12.35389909857074
 20
12.33061136474995
 30
0.0
 11
12.2555852437797
 21
12.33061136474995
 31
0.0
  0
LINE
  5
8066
330
1F
100
AcDbEntity
  8
0
100
AcDbLine
 10
12.2555852437797
 20
12.33061136474995
 30
0.0
 11
12.2555852437797
 21
12.48978617726879
 31
0.0
  0
LINE
  5
8067
330
1F
100
AcDbEntity
  8
0
100
AcDbLine
 10
11.8468444921759
 20
12.52759919834227
 30
0.0
 11
11.8468444921759
 21
12.30960969731482
 31
0.0
  0
LINE
  5
8068
330
1F
100
AcDbEntity
  8
0
100
AcDbLine
 10
11.96064367940657
 20
12.30960969731482
 30
0.0
 11
11.96064367940657
 21
12.52759919834227
 31
0.0
  0
LINE
  5
8069
330
1F
100
AcDbEntity
  8
0
100
AcDbLine
 10
11.64265417837911
 20
12.52759919834227
 30
0.0
 11
11.64265417837911
 21
12.30960969731482
 31
0.0
  0
LINE
  5
806A
330
1F
100
AcDbEntity
  8
0
100
AcDbLine
 10
11.76365584581425
 20
12.30960969731482
 30
0.0
 11
11.76365584581425
 21
12.52759919834227
 31
0.0
  0
LINE
  5
806B
330
1F
100
AcDbEntity
  8
0
100
AcDbLine
 10
11.44602646879702
 20
12.52759919834227
 30
0.0
 11
11.44602646879702
 21
12.30960969731482
 31
0.0
  0
LINE
  5
806C
330
1F
100
AcDbEntity
  8
0
100
AcDbLine
 10
11.56702813623216
 20
12.30960969731482
 30
0.0
 11
11.56702813623216
 21
12.52759919834227
 31
0.0
  0
LINE
  5
806D
330
1F
100
AcDbEntity
  8
0
100
AcDbLine
 10
11.24903863520471
 20
12.52759919834227
 30
0.0
 11
11.24903863520471
 21
12.30960969731482
 31
0.0
  0
LINE
  5
806E
330
1F
100
AcDbEntity
  8
0
100
AcDbLine
 10
11.37040042665007
 20
12.30960969731482
 30
0.0
 11
11.37040042665007
 21
12.52759919834227
 31
0.0
  0
LINE
  5
806F
330
1F
100
AcDbEntity
  8
0
100
AcDbLine
 10
11.05241092562261
 20
12.52759919834227
 30
0.0
 11
11.05241092562261
 21
12.30960969731482
 31
0.0
  0
LINE
  5
8070
330
1F
100
AcDbEntity
  8
0
100
AcDbLine
 10
11.17341259305775
 20
12.30960969731482
 30
0.0
 11
11.17341259305775
 21
12.52759919834227
 31
0.0
  0
LINE
  5
8071
330
1F
100
AcDbEntity
  8
0
100
AcDbLine
 10
10.85578321604052
 20
12.52759919834227
 30
0.0
 11
10.85578321604052
 21
12.30960969731482
 31
0.0
  0
LINE
  5
8072
330
1F
100
AcDbEntity
  8
0
100
AcDbLine
 10
10.97678488347566
 20
12.30960969731482
 30
0.0
 11
10.97678488347566
 21
12.52759919834227
 31
0.0
  0
LINE
  5
8073
330
1F
100
AcDbEntity
  8
0
100
AcDbLine
 10
10.87847102868461
 20
12.48978617726879
 30
0.0
 11
10.97678488347566
 21
12.48978617726879
 31
0.0
  0
LINE
  5
8074
330
1F
100
AcDbEntity
  8
0
100
AcDbLine
 10
10.97678488347566
 20
12.33061136474995
 30
0.0
 11
10.87847102868461
 21
12.33061136474995
 31
0.0
  0
LINE
  5
8075
330
1F
100
AcDbEntity
  8
0
100
AcDbLine
 10
10.87847102868461
 20
12.33061136474995
 30
0.0
 11
10.87847102868461
 21
12.48978617726879
 31
0.0
  0
LINE
  5
8076
330
1F
100
AcDbEntity
  8
0
100
AcDbLine
 10
11.0750987382667
 20
12.48978617726879
 30
0.0
 11
11.17341259305775
 21
12.48978617726879
 31
0.0
  0
LINE
  5
8077
330
1F
100
AcDbEntity
  8
0
100
AcDbLine
 10
11.17341259305775
 20
12.33061136474995
 30
0.0
 11
11.0750987382667
 21
12.33061136474995
 31
0.0
  0
LINE
  5
8078
330
1F
100
AcDbEntity
  8
0
100
AcDbLine
 10
11.0750987382667
 20
12.33061136474995
 30
0.0
 11
11.0750987382667
 21
12.48978617726879
 31
0.0
  0
LINE
  5
8079
330
1F
100
AcDbEntity
  8
0
100
AcDbLine
 10
11.27172644784879
 20
12.48978617726879
 30
0.0
 11
11.37040042665007
 21
12.48978617726879
 31
0.0
  0
LINE
  5
807A
330
1F
100
AcDbEntity
  8
0
100
AcDbLine
 10
11.37040042665007
 20
12.33061136474995
 30
0.0
 11
11.27172644784879
 21
12.33061136474995
 31
0.0
  0
LINE
  5
807B
330
1F
100
AcDbEntity
  8
0
100
AcDbLine
 10
11.27172644784879
 20
12.33061136474995
 30
0.0
 11
11.27172644784879
 21
12.48978617726879
 31
0.0
  0
LINE
  5
807C
330
1F
100
AcDbEntity
  8
0
100
AcDbLine
 10
11.46871428144111
 20
12.48978617726879
 30
0.0
 11
11.56702813623216
 21
12.48978617726879
 31
0.0
  0
LINE
  5
807D
330
1F
100
AcDbEntity
  8
0
100
AcDbLine
 10
11.56702813623216
 20
12.33061136474995
 30
0.0
 11
11.46871428144111
 21
12.33061136474995
 31
0.0
  0
LINE
  5
807E
330
1F
100
AcDbEntity
  8
0
100
AcDbLine
 10
11.46871428144111
 20
12.33061136474995
 30
0.0
 11
11.46871428144111
 21
12.48978617726879
 31
0.0
  0
LINE
  5
807F
330
1F
100
AcDbEntity
  8
0
100
AcDbLine
 10
11.6653419910232
 20
12.48978617726879
 30
0.0
 11
11.76365584581425
 21
12.48978617726879
 31
0.0
  0
LINE
  5
8080
330
1F
100
AcDbEntity
  8
0
100
AcDbLine
 10
11.76365584581425
 20
12.33061136474995
 30
0.0
 11
11.6653419910232
 21
12.33061136474995
 31
0.0
  0
LINE
  5
8081
330
1F
100
AcDbEntity
  8
0
100
AcDbLine
 10
11.6653419910232
 20
12.33061136474995
 30
0.0
 11
11.6653419910232
 21
12.48978617726879
 31
0.0
  0
LINE
  5
8082
330
1F
100
AcDbEntity
  8
0
100
AcDbLine
 10
11.86196970060529
 20
12.48978617726879
 30
0.0
 11
11.96064367940657
 21
12.48978617726879
 31
0.0
  0
LINE
  5
8083
330
1F
100
AcDbEntity
  8
0
100
AcDbLine
 10
11.96064367940657
 20
12.33061136474995
 30
0.0
 11
11.86196970060529
 21
12.33061136474995
 31
0.0
  0
LINE
  5
8084
330
1F
100
AcDbEntity
  8
0
100
AcDbLine
 10
11.86196970060529
 20
12.33061136474995
 30
0.0
 11
11.86196970060529
 21
12.48978617726879
 31
0.0
  0
LINE
  5
8085
330
1F
100
AcDbEntity
  8
0
100
AcDbLine
 10
10.81797019496704
 20
12.21060862363698
 30
0.0
 11
10.81797019496704
 21
12.67123266554822
 31
0.0
  0
LINE
  5
8086
330
1F
100
AcDbEntity
  8
0
100
AcDbLine
 10
12.38863648402954
 20
12.21060862363698
 30
0.0
 11
12.38863648402954
 21
12.67123266554822
 31
0.0
  0
LINE
  5
8087
330
1F
100
AcDbEntity
  8
0
100
AcDbLine
 10
12.30867969496706
 20
12.87334883855506
 30
0.0
 11
10.97214858155325
 21
12.87334883855506
 31
0.0
  0
LINE
  5
8088
330
1F
100
AcDbEntity
  8
0
100
AcDbLine
 10
9.32726069496703
 20
12.87334883855506
 30
0.0
 11
10.66379180838084
 21
12.87334883855506
 31
0.0
  0
LINE
  5
8089
330
1F
100
AcDbEntity
  8
0
100
AcDbLine
 10
12.30867969496706
 20
12.73423266554822
 30
0.0
 11
12.30867969496706
 21
13.13403279317051
 31
0.0
  0
LINE
  5
808A
330
1F
100
AcDbEntity
  8
0
100
AcDbLine
 10
12.30867969496706
 20
13.13403279317051
 30
0.0
 11
10.97214858155325
 21
13.13403279317051
 31
0.0
  0
LINE
  5
808B
330
1F
100
AcDbEntity
  8
0
100
AcDbLine
 10
10.97214858155325
 20
13.13403279317051
 30
0.0
 11
10.97214858155325
 21
12.73423266554822
 31
0.0
  0
LINE
  5
808C
330
1F
100
AcDbEntity
  8
0
100
AcDbLine
 10
9.32726069496703
 20
12.73423266554822
 30
0.0
 11
9.32726069496703
 21
13.13403279317051
 31
0.0
  0
LINE
  5
808D
330
1F
100
AcDbEntity
  8
0
100
AcDbLine
 10
9.32726069496703
 20
13.13403279317051
 30
0.0
 11
10.66379180838084
 21
13.13403279317051
 31
0.0
  0
LINE
  5
808E
330
1F
100
AcDbEntity
  8
0
100
AcDbLine
 10
10.66379180838084
 20
13.13403279317051
 30
0.0
 11
10.66379180838084
 21
12.73423266554822
 31
0.0
  0
LINE
  5
808F
330
1F
100
AcDbEntity
  8
0
100
AcDbLine
 10
10.7222227607238
 20
11.99261912260953
 30
0.0
 11
10.83602194795446
 21
11.99261912260953
 31
0.0
  0
LINE
  5
8090
330
1F
100
AcDbEntity
  8
0
100
AcDbLine
 10
10.5255950511417
 20
11.99261912260953
 30
0.0
 11
10.63939423837237
 21
11.99261912260953
 31
0.0
  0
LINE
  5
8091
330
1F
100
AcDbEntity
  8
0
100
AcDbLine
 10
10.32860721754939
 20
11.99261912260953
 30
0.0
 11
10.44240640478006
 21
11.99261912260953
 31
0.0
  0
LINE
  5
8092
330
1F
100
AcDbEntity
  8
0
100
AcDbLine
 10
10.1244169037526
 20
11.99261912260953
 30
0.0
 11
10.24577869519796
 21
11.99261912260953
 31
0.0
  0
LINE
  5
8093
330
1F
100
AcDbEntity
  8
0
100
AcDbLine
 10
9.927789194170514
 20
11.99261912260953
 30
0.0
 11
10.04915098561587
 21
11.99261912260953
 31
0.0
  0
LINE
  5
8094
330
1F
100
AcDbEntity
  8
0
100
AcDbLine
 10
9.730801360578198
 20
11.99261912260953
 30
0.0
 11
9.852163152023557
 21
11.99261912260953
 31
0.0
  0
LINE
  5
8095
330
1F
100
AcDbEntity
  8
0
100
AcDbLine
 10
9.534173650996105
 20
11.99261912260953
 30
0.0
 11
9.65517531843124
 21
11.99261912260953
 31
0.0
  0
LINE
  5
8096
330
1F
100
AcDbEntity
  8
0
100
AcDbLine
 10
9.337545941414013
 20
11.99261912260953
 30
0.0
 11
9.458547608849148
 21
11.99261912260953
 31
0.0
  0
LINE
  5
8097
330
1F
100
AcDbEntity
  8
0
100
AcDbLine
 10
10.7222227607238
 20
12.21060862363698
 30
0.0
 11
10.7222227607238
 21
11.99261912260953
 31
0.0
  0
LINE
  5
8098
330
1F
100
AcDbEntity
  8
0
100
AcDbLine
 10
10.83566182394423
 20
11.99261912260953
 30
0.0
 11
10.83566182394423
 21
12.21060862363698
 31
0.0
  0
LINE
  5
8099
330
1F
100
AcDbEntity
  8
0
100
AcDbLine
 10
10.5255950511417
 20
12.21060862363698
 30
0.0
 11
10.5255950511417
 21
11.99261912260953
 31
0.0
  0
LINE
  5
809A
330
1F
100
AcDbEntity
  8
0
100
AcDbLine
 10
10.63903411436214
 20
11.99261912260953
 30
0.0
 11
10.63903411436214
 21
12.21060862363698
 31
0.0
  0
LINE
  5
809B
330
1F
100
AcDbEntity
  8
0
100
AcDbLine
 10
10.5407202595711
 20
12.1727956025635
 30
0.0
 11
10.63903411436214
 21
12.1727956025635
 31
0.0
  0
LINE
  5
809C
330
1F
100
AcDbEntity
  8
0
100
AcDbLine
 10
10.63903411436214
 20
12.01362079004467
 30
0.0
 11
10.5407202595711
 21
12.01362079004467
 31
0.0
  0
LINE
  5
809D
330
1F
100
AcDbEntity
  8
0
100
AcDbLine
 10
10.5407202595711
 20
12.01362079004467
 30
0.0
 11
10.5407202595711
 21
12.1727956025635
 31
0.0
  0
LINE
  5
809E
330
1F
100
AcDbEntity
  8
0
100
AcDbLine
 10
10.73734796915319
 20
12.1727956025635
 30
0.0
 11
10.83566182394423
 21
12.1727956025635
 31
0.0
  0
LINE
  5
809F
330
1F
100
AcDbEntity
  8
0
100
AcDbLine
 10
10.83566182394423
 20
12.01362079004467
 30
0.0
 11
10.73734796915319
 21
12.01362079004467
 31
0.0
  0
LINE
  5
80A0
330
1F
100
AcDbEntity
  8
0
100
AcDbLine
 10
10.73734796915319
 20
12.01362079004467
 30
0.0
 11
10.73734796915319
 21
12.1727956025635
 31
0.0
  0
LINE
  5
80A1
330
1F
100
AcDbEntity
  8
0
100
AcDbLine
 10
10.32860721754939
 20
12.21060862363698
 30
0.0
 11
10.32860721754939
 21
11.99261912260953
 31
0.0
  0
LINE
  5
80A2
330
1F
100
AcDbEntity
  8
0
100
AcDbLine
 10
10.44240640478006
 20
11.99261912260953
 30
0.0
 11
10.44240640478006
 21
12.21060862363698
 31
0.0
  0
LINE
  5
80A3
330
1F
100
AcDbEntity
  8
0
100
AcDbLine
 10
10.1244169037526
 20
12.21060862363698
 30
0.0
 11
10.1244169037526
 21
11.99261912260953
 31
0.0
  0
LINE
  5
80A4
330
1F
100
AcDbEntity
  8
0
100
AcDbLine
 10
10.24541857118774
 20
11.99261912260953
 30
0.0
 11
10.24541857118774
 21
12.21060862363698
 31
0.0
  0
LINE
  5
80A5
330
1F
100
AcDbEntity
  8
0
100
AcDbLine
 10
9.927789194170514
 20
12.21060862363698
 30
0.0
 11
9.927789194170514
 21
11.99261912260953
 31
0.0
  0
LINE
  5
80A6
330
1F
100
AcDbEntity
  8
0
100
AcDbLine
 10
10.04879086160564
 20
11.99261912260953
 30
0.0
 11
10.04879086160564
 21
12.21060862363698
 31
0.0
  0
LINE
  5
80A7
330
1F
100
AcDbEntity
  8
0
100
AcDbLine
 10
9.730801360578198
 20
12.21060862363698
 30
0.0
 11
9.730801360578198
 21
11.99261912260953
 31
0.0
  0
LINE
  5
80A8
330
1F
100
AcDbEntity
  8
0
100
AcDbLine
 10
9.852163152023557
 20
11.99261912260953
 30
0.0
 11
9.852163152023557
 21
12.21060862363698
 31
0.0
  0
LINE
  5
80A9
330
1F
100
AcDbEntity
  8
0
100
AcDbLine
 10
9.534173650996105
 20
12.21060862363698
 30
0.0
 11
9.534173650996105
 21
11.99261912260953
 31
0.0
  0
LINE
  5
80AA
330
1F
100
AcDbEntity
  8
0
100
AcDbLine
 10
9.65517531843124
 20
11.99261912260953
 30
0.0
 11
9.65517531843124
 21
12.21060862363698
 31
0.0
  0
LINE
  5
80AB
330
1F
100
AcDbEntity
  8
0
100
AcDbLine
 10
9.337545941414013
 20
12.21060862363698
 30
0.0
 11
9.337545941414013
 21
11.99261912260953
 31
0.0
  0
LINE
  5
80AC
330
1F
100
AcDbEntity
  8
0
100
AcDbLine
 10
9.458547608849148
 20
11.99261912260953
 30
0.0
 11
9.458547608849148
 21
12.21060862363698
 31
0.0
  0
LINE
  5
80AD
330
1F
100
AcDbEntity
  8
0
100
AcDbLine
 10
9.3602337540581
 20
12.1727956025635
 30
0.0
 11
9.458547608849148
 21
12.1727956025635
 31
0.0
  0
LINE
  5
80AE
330
1F
100
AcDbEntity
  8
0
100
AcDbLine
 10
9.458547608849148
 20
12.01362079004467
 30
0.0
 11
9.3602337540581
 21
12.01362079004467
 31
0.0
  0
LINE
  5
80AF
330
1F
100
AcDbEntity
  8
0
100
AcDbLine
 10
9.3602337540581
 20
12.01362079004467
 30
0.0
 11
9.3602337540581
 21
12.1727956025635
 31
0.0
  0
LINE
  5
80B0
330
1F
100
AcDbEntity
  8
0
100
AcDbLine
 10
9.556861463640196
 20
12.1727956025635
 30
0.0
 11
9.65517531843124
 21
12.1727956025635
 31
0.0
  0
LINE
  5
80B1
330
1F
100
AcDbEntity
  8
0
100
AcDbLine
 10
9.65517531843124
 20
12.01362079004467
 30
0.0
 11
9.556861463640196
 21
12.01362079004467
 31
0.0
  0
LINE
  5
80B2
330
1F
100
AcDbEntity
  8
0
100
AcDbLine
 10
9.556861463640196
 20
12.01362079004467
 30
0.0
 11
9.556861463640196
 21
12.1727956025635
 31
0.0
  0
LINE
  5
80B3
330
1F
100
AcDbEntity
  8
0
100
AcDbLine
 10
9.753489173222284
 20
12.1727956025635
 30
0.0
 11
9.852163152023557
 21
12.1727956025635
 31
0.0
  0
LINE
  5
80B4
330
1F
100
AcDbEntity
  8
0
100
AcDbLine
 10
9.852163152023557
 20
12.01362079004467
 30
0.0
 11
9.753489173222284
 21
12.01362079004467
 31
0.0
  0
LINE
  5
80B5
330
1F
100
AcDbEntity
  8
0
100
AcDbLine
 10
9.753489173222284
 20
12.01362079004467
 30
0.0
 11
9.753489173222284
 21
12.1727956025635
 31
0.0
  0
LINE
  5
80B6
330
1F
100
AcDbEntity
  8
0
100
AcDbLine
 10
9.950477006814601
 20
12.1727956025635
 30
0.0
 11
10.04879086160564
 21
12.1727956025635
 31
0.0
  0
LINE
  5
80B7
330
1F
100
AcDbEntity
  8
0
100
AcDbLine
 10
10.04879086160564
 20
12.01362079004467
 30
0.0
 11
9.950477006814601
 21
12.01362079004467
 31
0.0
  0
LINE
  5
80B8
330
1F
100
AcDbEntity
  8
0
100
AcDbLine
 10
9.950477006814601
 20
12.01362079004467
 30
0.0
 11
9.950477006814601
 21
12.1727956025635
 31
0.0
  0
LINE
  5
80B9
330
1F
100
AcDbEntity
  8
0
100
AcDbLine
 10
10.14710471639669
 20
12.1727956025635
 30
0.0
 11
10.24541857118774
 21
12.1727956025635
 31
0.0
  0
LINE
  5
80BA
330
1F
100
AcDbEntity
  8
0
100
AcDbLine
 10
10.24541857118774
 20
12.01362079004467
 30
0.0
 11
10.14710471639669
 21
12.01362079004467
 31
0.0
  0
LINE
  5
80BB
330
1F
100
AcDbEntity
  8
0
100
AcDbLine
 10
10.14710471639669
 20
12.01362079004467
 30
0.0
 11
10.14710471639669
 21
12.1727956025635
 31
0.0
  0
LINE
  5
80BC
330
1F
100
AcDbEntity
  8
0
100
AcDbLine
 10
10.34373242597878
 20
12.1727956025635
 30
0.0
 11
10.44240640478006
 21
12.1727956025635
 31
0.0
  0
LINE
  5
80BD
330
1F
100
AcDbEntity
  8
0
100
AcDbLine
 10
10.44240640478006
 20
12.01362079004467
 30
0.0
 11
10.34373242597878
 21
12.01362079004467
 31
0.0
  0
LINE
  5
80BE
330
1F
100
AcDbEntity
  8
0
100
AcDbLine
 10
10.34373242597878
 20
12.01362079004467
 30
0.0
 11
10.34373242597878
 21
12.1727956025635
 31
0.0
  0
LINE
  5
80BF
330
1F
100
AcDbEntity
  8
0
100
AcDbLine
 10
10.66979374628782
 20
12.30960969731482
 30
0.0
 11
10.78359293351848
 21
12.30960969731482
 31
0.0
  0
LINE
  5
80C0
330
1F
100
AcDbEntity
  8
0
100
AcDbLine
 10
10.47316603670572
 20
12.30960969731482
 30
0.0
 11
10.58696522393638
 21
12.30960969731482
 31
0.0
  0
LINE
  5
80C1
330
1F
100
AcDbEntity
  8
0
100
AcDbLine
 10
10.27617820311341
 20
12.30960969731482
 30
0.0
 11
10.38997739034407
 21
12.30960969731482
 31
0.0
  0
LINE
  5
80C2
330
1F
100
AcDbEntity
  8
0
100
AcDbLine
 10
10.07198788931662
 20
12.30960969731482
 30
0.0
 11
10.19334968076198
 21
12.30960969731482
 31
0.0
  0
LINE
  5
80C3
330
1F
100
AcDbEntity
  8
0
100
AcDbLine
 10
9.875360179734531
 20
12.30960969731482
 30
0.0
 11
9.996721971179891
 21
12.30960969731482
 31
0.0
  0
LINE
  5
80C4
330
1F
100
AcDbEntity
  8
0
100
AcDbLine
 10
9.678372346142214
 20
12.30960969731482
 30
0.0
 11
9.799734137587574
 21
12.30960969731482
 31
0.0
  0
LINE
  5
80C5
330
1F
100
AcDbEntity
  8
0
100
AcDbLine
 10
9.481744636560122
 20
12.30960969731482
 30
0.0
 11
9.602746303995257
 21
12.30960969731482
 31
0.0
  0
LINE
  5
80C6
330
1F
100
AcDbEntity
  8
0
100
AcDbLine
 10
9.28511692697803
 20
12.30960969731482
 30
0.0
 11
9.406118594413165
 21
12.30960969731482
 31
0.0
  0
LINE
  5
80C7
330
1F
100
AcDbEntity
  8
0
100
AcDbLine
 10
10.66979374628782
 20
12.52759919834227
 30
0.0
 11
10.66979374628782
 21
12.30960969731482
 31
0.0
  0
LINE
  5
80C8
330
1F
100
AcDbEntity
  8
0
100
AcDbLine
 10
10.78323280950825
 20
12.30960969731482
 30
0.0
 11
10.78323280950825
 21
12.52759919834227
 31
0.0
  0
LINE
  5
80C9
330
1F
100
AcDbEntity
  8
0
100
AcDbLine
 10
10.47316603670572
 20
12.52759919834227
 30
0.0
 11
10.47316603670572
 21
12.30960969731482
 31
0.0
  0
LINE
  5
80CA
330
1F
100
AcDbEntity
  8
0
100
AcDbLine
 10
10.58660509992616
 20
12.30960969731482
 30
0.0
 11
10.58660509992616
 21
12.52759919834227
 31
0.0
  0
LINE
  5
80CB
330
1F
100
AcDbEntity
  8
0
100
AcDbLine
 10
10.48829124513512
 20
12.48978617726879
 30
0.0
 11
10.58660509992616
 21
12.48978617726879
 31
0.0
  0
LINE
  5
80CC
330
1F
100
AcDbEntity
  8
0
100
AcDbLine
 10
10.58660509992616
 20
12.33061136474995
 30
0.0
 11
10.48829124513512
 21
12.33061136474995
 31
0.0
  0
LINE
  5
80CD
330
1F
100
AcDbEntity
  8
0
100
AcDbLine
 10
10.48829124513512
 20
12.33061136474995
 30
0.0
 11
10.48829124513512
 21
12.48978617726879
 31
0.0
  0
LINE
  5
80CE
330
1F
100
AcDbEntity
  8
0
100
AcDbLine
 10
10.68491895471721
 20
12.48978617726879
 30
0.0
 11
10.78323280950825
 21
12.48978617726879
 31
0.0
  0
LINE
  5
80CF
330
1F
100
AcDbEntity
  8
0
100
AcDbLine
 10
10.78323280950825
 20
12.33061136474995
 30
0.0
 11
10.68491895471721
 21
12.33061136474995
 31
0.0
  0
LINE
  5
80D0
330
1F
100
AcDbEntity
  8
0
100
AcDbLine
 10
10.68491895471721
 20
12.33061136474995
 30
0.0
 11
10.68491895471721
 21
12.48978617726879
 31
0.0
  0
LINE
  5
80D1
330
1F
100
AcDbEntity
  8
0
100
AcDbLine
 10
10.27617820311341
 20
12.52759919834227
 30
0.0
 11
10.27617820311341
 21
12.30960969731482
 31
0.0
  0
LINE
  5
80D2
330
1F
100
AcDbEntity
  8
0
100
AcDbLine
 10
10.38997739034407
 20
12.30960969731482
 30
0.0
 11
10.38997739034407
 21
12.52759919834227
 31
0.0
  0
LINE
  5
80D3
330
1F
100
AcDbEntity
  8
0
100
AcDbLine
 10
10.07198788931662
 20
12.52759919834227
 30
0.0
 11
10.07198788931662
 21
12.30960969731482
 31
0.0
  0
LINE
  5
80D4
330
1F
100
AcDbEntity
  8
0
100
AcDbLine
 10
10.19298955675176
 20
12.30960969731482
 30
0.0
 11
10.19298955675176
 21
12.52759919834227
 31
0.0
  0
LINE
  5
80D5
330
1F
100
AcDbEntity
  8
0
100
AcDbLine
 10
9.875360179734531
 20
12.52759919834227
 30
0.0
 11
9.875360179734531
 21
12.30960969731482
 31
0.0
  0
LINE
  5
80D6
330
1F
100
AcDbEntity
  8
0
100
AcDbLine
 10
9.996361847169662
 20
12.30960969731482
 30
0.0
 11
9.996361847169662
 21
12.52759919834227
 31
0.0
  0
LINE
  5
80D7
330
1F
100
AcDbEntity
  8
0
100
AcDbLine
 10
9.678372346142214
 20
12.52759919834227
 30
0.0
 11
9.678372346142214
 21
12.30960969731482
 31
0.0
  0
LINE
  5
80D8
330
1F
100
AcDbEntity
  8
0
100
AcDbLine
 10
9.799734137587574
 20
12.30960969731482
 30
0.0
 11
9.799734137587574
 21
12.52759919834227
 31
0.0
  0
LINE
  5
80D9
330
1F
100
AcDbEntity
  8
0
100
AcDbLine
 10
9.481744636560122
 20
12.52759919834227
 30
0.0
 11
9.481744636560122
 21
12.30960969731482
 31
0.0
  0
LINE
  5
80DA
330
1F
100
AcDbEntity
  8
0
100
AcDbLine
 10
9.602746303995257
 20
12.30960969731482
 30
0.0
 11
9.602746303995257
 21
12.52759919834227
 31
0.0
  0
LINE
  5
80DB
330
1F
100
AcDbEntity
  8
0
100
AcDbLine
 10
9.28511692697803
 20
12.52759919834227
 30
0.0
 11
9.28511692697803
 21
12.30960969731482
 31
0.0
  0
LINE
  5
80DC
330
1F
100
AcDbEntity
  8
0
100
AcDbLine
 10
9.406118594413165
 20
12.30960969731482
 30
0.0
 11
9.406118594413165
 21
12.52759919834227
 31
0.0
  0
LINE
  5
80DD
330
1F
100
AcDbEntity
  8
0
100
AcDbLine
 10
9.307804739622117
 20
12.48978617726879
 30
0.0
 11
9.406118594413165
 21
12.48978617726879
 31
0.0
  0
LINE
  5
80DE
330
1F
100
AcDbEntity
  8
0
100
AcDbLine
 10
9.406118594413165
 20
12.33061136474995
 30
0.0
 11
9.307804739622117
 21
12.33061136474995
 31
0.0
  0
LINE
  5
80DF
330
1F
100
AcDbEntity
  8
0
100
AcDbLine
 10
9.307804739622117
 20
12.33061136474995
 30
0.0
 11
9.307804739622117
 21
12.48978617726879
 31
0.0
  0
LINE
  5
80E0
330
1F
100
AcDbEntity
  8
0
100
AcDbLine
 10
9.504432449204212
 20
12.48978617726879
 30
0.0
 11
9.602746303995257
 21
12.48978617726879
 31
0.0
  0
LINE
  5
80E1
330
1F
100
AcDbEntity
  8
0
100
AcDbLine
 10
9.602746303995257
 20
12.33061136474995
 30
0.0
 11
9.504432449204212
 21
12.33061136474995
 31
0.0
  0
LINE
  5
80E2
330
1F
100
AcDbEntity
  8
0
100
AcDbLine
 10
9.504432449204212
 20
12.33061136474995
 30
0.0
 11
9.504432449204212
 21
12.48978617726879
 31
0.0
  0
LINE
  5
80E3
330
1F
100
AcDbEntity
  8
0
100
AcDbLine
 10
9.701060158786301
 20
12.48978617726879
 30
0.0
 11
9.799734137587574
 21
12.48978617726879
 31
0.0
  0
LINE
  5
80E4
330
1F
100
AcDbEntity
  8
0
100
AcDbLine
 10
9.799734137587574
 20
12.33061136474995
 30
0.0
 11
9.701060158786301
 21
12.33061136474995
 31
0.0
  0
LINE
  5
80E5
330
1F
100
AcDbEntity
  8
0
100
AcDbLine
 10
9.701060158786301
 20
12.33061136474995
 30
0.0
 11
9.701060158786301
 21
12.48978617726879
 31
0.0
  0
LINE
  5
80E6
330
1F
100
AcDbEntity
  8
0
100
AcDbLine
 10
9.898047992378618
 20
12.48978617726879
 30
0.0
 11
9.996361847169662
 21
12.48978617726879
 31
0.0
  0
LINE
  5
80E7
330
1F
100
AcDbEntity
  8
0
100
AcDbLine
 10
9.996361847169662
 20
12.33061136474995
 30
0.0
 11
9.898047992378618
 21
12.33061136474995
 31
0.0
  0
LINE
  5
80E8
330
1F
100
AcDbEntity
  8
0
100
AcDbLine
 10
9.898047992378618
 20
12.33061136474995
 30
0.0
 11
9.898047992378618
 21
12.48978617726879
 31
0.0
  0
LINE
  5
80E9
330
1F
100
AcDbEntity
  8
0
100
AcDbLine
 10
10.0946757019607
 20
12.48978617726879
 30
0.0
 11
10.19298955675176
 21
12.48978617726879
 31
0.0
  0
LINE
  5
80EA
330
1F
100
AcDbEntity
  8
0
100
AcDbLine
 10
10.19298955675176
 20
12.33061136474995
 30
0.0
 11
10.0946757019607
 21
12.33061136474995
 31
0.0
  0
LINE
  5
80EB
330
1F
100
AcDbEntity
  8
0
100
AcDbLine
 10
10.0946757019607
 20
12.33061136474995
 30
0.0
 11
10.0946757019607
 21
12.48978617726879
 31
0.0
  0
LINE
  5
80EC
330
1F
100
AcDbEntity
  8
0
100
AcDbLine
 10
10.2913034115428
 20
12.48978617726879
 30
0.0
 11
10.38997739034407
 21
12.48978617726879
 31
0.0
  0
LINE
  5
80ED
330
1F
100
AcDbEntity
  8
0
100
AcDbLine
 10
10.38997739034407
 20
12.33061136474995
 30
0.0
 11
10.2913034115428
 21
12.33061136474995
 31
0.0
  0
LINE
  5
80EE
330
1F
100
AcDbEntity
  8
0
100
AcDbLine
 10
10.2913034115428
 20
12.33061136474995
 30
0.0
 11
10.2913034115428
 21
12.48978617726879
 31
0.0
  0
LINE
  5
80EF
330
1F
100
AcDbEntity
  8
0
100
AcDbLine
 10
9.247303905904551
 20
12.21060862363698
 30
0.0
 11
9.247303905904551
 21
12.67123266554822
 31
0.0
  0
LINE
  5
80F0
330
1F
100
AcDbEntity
  8
0
100
AcDbLine
 10
9.247303905904551
 20
12.52759919834227
 30
0.0
 11
12.38863648402954
 21
12.52759919834227
 31
0.0
  0
LINE
  5
80F1
330
1F
100
AcDbEntity
  8
0
100
AcDbLine
 10
9.299732920340535
 20
11.90300535349136
 30
0.0
 11
12.44106549846552
 21
11.90300535349136
 31
0.0
  0
LINE
  5
80F2
330
1F
100
AcDbEntity
  8
0
100
AcDbLine
 10
9.175480194967043
 20
12.67123266554822
 30
0.0
 11
9.175480194967043
 21
12.73423266554822
 31
0.0
  0
LINE
  5
80F3
330
1F
100
AcDbEntity
  8
0
100
AcDbLine
 10
9.175480194967043
 20
12.73423266554822
 30
0.0
 11
12.46046019496705
 21
12.73423266554822
 31
0.0
  0
LINE
  5
80F4
330
1F
100
AcDbEntity
  8
0
100
AcDbLine
 10
12.46046019496705
 20
12.73423266554822
 30
0.0
 11
12.46046019496705
 21
12.67123266554822
 31
0.0
  0
LINE
  5
80F5
330
1F
100
AcDbEntity
  8
0
100
AcDbLine
 10
12.46046019496705
 20
12.67123266554822
 30
0.0
 11
9.175480194967043
 21
12.67123266554822
 31
0.0
  0
LINE
  5
813E
330
1F
100
AcDbEntity
  8
0
100
AcDbLine
 10
6.525098890861634
 20
7.803636038433044
 30
0.0
 11
6.263902950554218
 21
7.803636038433044
 31
0.0
  0
LINE
  5
813F
330
1F
100
AcDbEntity
  8
0
100
AcDbLine
 10
6.263902950554218
 20
7.803636038433044
 30
0.0
 11
6.263902950554218
 21
6.130521914051957
 31
0.0
  0
LINE
  5
8140
330
1F
100
AcDbEntity
  8
0
100
AcDbLine
 10
6.263902950554218
 20
6.130521914051957
 30
0.0
 11
6.525098890861634
 21
6.130521914051957
 31
0.0
  0
LINE
  5
8141
330
1F
100
AcDbEntity
  8
0
100
AcDbLine
 10
6.664215063868478
 20
9.348646701191796
 30
0.0
 11
6.525098890861634
 21
9.348646701191796
 31
0.0
  0
LINE
  5
8142
330
1F
100
AcDbEntity
  8
0
100
AcDbLine
 10
6.525098890861634
 20
9.348646701191796
 30
0.0
 11
6.525098890861634
 21
6.080521914051956
 31
0.0
  0
LINE
  5
8143
330
1F
100
AcDbEntity
  8
0
100
AcDbLine
 10
6.525098890861634
 20
6.080521914051956
 30
0.0
 11
6.664215063868478
 21
6.080521914051956
 31
0.0
  0
LINE
  5
8144
330
1F
100
AcDbEntity
  8
0
100
AcDbLine
 10
6.664215063868478
 20
8.843875182190144
 30
0.0
 11
6.664215063868478
 21
10.39336219933496
 31
0.0
  0
LINE
  5
8145
330
1F
100
AcDbEntity
  8
0
100
AcDbLine
 10
6.664215063868478
 20
10.39336219933496
 30
0.0
 11
6.8852989718258
 21
10.39336219933496
 31
0.0
  0
LINE
  5
8146
330
1F
100
AcDbEntity
  8
0
100
AcDbLine
 10
6.726715063868478
 20
8.850050623112725
 30
0.0
 11
6.726715063868478
 21
10.39336219933496
 31
0.0
  0
LINE
  5
8147
330
1F
100
AcDbEntity
  8
0
100
AcDbLine
 10
6.664215063868478
 20
8.611677309225493
 30
0.0
 11
6.664215063868478
 21
5.236040620707822
 31
0.0
  0
LINE
  5
8148
330
1F
100
AcDbEntity
  8
0
100
AcDbLine
 10
6.664215063868478
 20
5.236040620707822
 30
0.0
 11
6.726715063868478
 21
5.236040620707822
 31
0.0
  0
LINE
  5
8149
330
1F
100
AcDbEntity
  8
0
100
AcDbLine
 10
6.726715063868478
 20
5.236040620707822
 30
0.0
 11
6.726715063868478
 21
8.605501868302912
 31
0.0
  0
LINE
  5
814A
330
1F
100
AcDbEntity
  8
0
100
AcDbLine
 10
7.220669267415608
 20
9.794605710972987
 30
0.0
 11
7.220669267415608
 21
9.828537649135414
 31
0.0
  0
LINE
  5
814B
330
1F
100
AcDbEntity
  8
0
100
AcDbLine
 10
7.492447934030852
 20
9.516040656725255
 30
0.0
 11
7.492447934030852
 21
9.782455447015649
 31
0.0
  0
LINE
  5
814C
330
1F
100
AcDbEntity
  8
0
100
AcDbLine
 10
7.492447934030852
 20
9.782455447015649
 30
0.0
 11
7.220669267415608
 21
9.794605710972987
 31
0.0
  0
LINE
  5
814D
330
1F
100
AcDbEntity
  8
0
100
AcDbLine
 10
7.220669267415608
 20
9.441390392767917
 30
0.0
 11
7.492447934030852
 21
9.516040656725255
 31
0.0
  0
LINE
  5
814E
330
1F
100
AcDbEntity
  8
0
100
AcDbLine
 10
6.726715063868478
 20
9.441390392767917
 30
0.0
 11
7.220669267415608
 21
9.441390392767917
 31
0.0
  0
LINE
  5
814F
330
1F
100
AcDbEntity
  8
0
100
AcDbLine
 10
6.726715063868478
 20
9.828537649135414
 30
0.0
 11
7.220669267415608
 21
9.828537649135414
 31
0.0
  0
LINE
  5
8150
330
1F
100
AcDbEntity
  8
0
100
AcDbLine
 10
7.12314570027862
 20
9.918405710474267
 30
0.0
 11
7.12314570027862
 21
10.26090112652906
 31
0.0
  0
LINE
  5
8151
330
1F
100
AcDbEntity
  8
0
100
AcDbLine
 10
7.12314570027862
 20
10.26090112652906
 30
0.0
 11
6.8852989718258
 21
10.35943026117253
 31
0.0
  0
LINE
  5
8152
330
1F
100
AcDbEntity
  8
0
100
AcDbLine
 10
7.041385887372964
 20
9.918405710474267
 30
0.0
 11
7.12314570027862
 21
9.918405710474267
 31
0.0
  0
LINE
  5
8153
330
1F
100
AcDbEntity
  8
0
100
AcDbLine
 10
6.8852989718258
 20
10.35943026117253
 30
0.0
 11
6.8852989718258
 21
10.39336219933496
 31
0.0
  0
LINE
  5
8154
330
1F
100
AcDbEntity
  8
0
100
AcDbLine
 10
7.041385887372964
 20
9.828537649135414
 30
0.0
 11
7.041385887372964
 21
9.918405710474267
 31
0.0
  0
LINE
  5
8155
330
1F
100
AcDbEntity
  8
0
100
AcDbLine
 10
14.14349245590324
 20
9.516040656725255
 30
0.0
 11
14.14349245590324
 21
9.782455447015649
 31
0.0
  0
LINE
  5
8156
330
1F
100
AcDbEntity
  8
0
100
AcDbLine
 10
14.14349245590324
 20
9.782455447015649
 30
0.0
 11
14.41527112251848
 21
9.794605710972987
 31
0.0
  0
LINE
  5
8157
330
1F
100
AcDbEntity
  8
0
100
AcDbLine
 10
15.11084149907246
 20
7.803636038433044
 30
0.0
 11
15.37203743937987
 21
7.803636038433044
 31
0.0
  0
LINE
  5
8158
330
1F
100
AcDbEntity
  8
0
100
AcDbLine
 10
15.37203743937987
 20
7.803636038433044
 30
0.0
 11
15.37203743937987
 21
6.130521914051957
 31
0.0
  0
LINE
  5
8159
330
1F
100
AcDbEntity
  8
0
100
AcDbLine
 10
15.37203743937987
 20
6.130521914051957
 30
0.0
 11
15.11084149907246
 21
6.130521914051957
 31
0.0
  0
LINE
  5
815A
330
1F
100
AcDbEntity
  8
0
100
AcDbLine
 10
14.97172532606561
 20
9.348646701191796
 30
0.0
 11
15.11084149907246
 21
9.348646701191796
 31
0.0
  0
LINE
  5
815B
330
1F
100
AcDbEntity
  8
0
100
AcDbLine
 10
15.11084149907246
 20
9.348646701191796
 30
0.0
 11
15.11084149907246
 21
6.080521914051956
 31
0.0
  0
LINE
  5
815C
330
1F
100
AcDbEntity
  8
0
100
AcDbLine
 10
15.11084149907246
 20
6.080521914051956
 30
0.0
 11
14.97172532606561
 21
6.080521914051956
 31
0.0
  0
LINE
  5
815D
330
1F
100
AcDbEntity
  8
0
100
AcDbLine
 10
14.90922532606561
 20
8.850050623112725
 30
0.0
 11
14.90922532606561
 21
10.39336219933496
 31
0.0
  0
LINE
  5
815E
330
1F
100
AcDbEntity
  8
0
100
AcDbLine
 10
14.97172532606561
 20
8.611677309225493
 30
0.0
 11
14.97172532606561
 21
5.236040620707822
 31
0.0
  0
LINE
  5
815F
330
1F
100
AcDbEntity
  8
0
100
AcDbLine
 10
14.97172532606561
 20
5.236040620707822
 30
0.0
 11
14.90922532606561
 21
5.236040620707822
 31
0.0
  0
LINE
  5
8160
330
1F
100
AcDbEntity
  8
0
100
AcDbLine
 10
14.90922532606561
 20
5.236040620707822
 30
0.0
 11
14.90922532606561
 21
8.605501868302912
 31
0.0
  0
LINE
  5
8161
330
1F
100
AcDbEntity
  8
0
100
AcDbLine
 10
14.41527112251848
 20
9.794605710972987
 30
0.0
 11
14.41527112251848
 21
9.828537649135414
 31
0.0
  0
LINE
  5
8162
330
1F
100
AcDbEntity
  8
0
100
AcDbLine
 10
14.41527112251848
 20
9.441390392767917
 30
0.0
 11
14.14349245590324
 21
9.516040656725255
 31
0.0
  0
LINE
  5
8163
330
1F
100
AcDbEntity
  8
0
100
AcDbLine
 10
14.90922532606561
 20
9.441390392767917
 30
0.0
 11
14.41527112251848
 21
9.441390392767917
 31
0.0
  0
LINE
  5
8164
330
1F
100
AcDbEntity
  8
0
100
AcDbLine
 10
14.90922532606561
 20
9.828537649135414
 30
0.0
 11
14.41527112251848
 21
9.828537649135414
 31
0.0
  0
LINE
  5
8165
330
1F
100
AcDbEntity
  8
0
100
AcDbLine
 10
14.51279468965547
 20
9.918405710474267
 30
0.0
 11
14.51279468965547
 21
10.26090112652906
 31
0.0
  0
LINE
  5
8166
330
1F
100
AcDbEntity
  8
0
100
AcDbLine
 10
14.51279468965547
 20
10.26090112652906
 30
0.0
 11
14.75064141810829
 21
10.35943026117253
 31
0.0
  0
LINE
  5
8167
330
1F
100
AcDbEntity
  8
0
100
AcDbLine
 10
14.59455450256113
 20
9.918405710474267
 30
0.0
 11
14.51279468965547
 21
9.918405710474267
 31
0.0
  0
LINE
  5
8168
330
1F
100
AcDbEntity
  8
0
100
AcDbLine
 10
14.75064141810829
 20
10.35943026117253
 30
0.0
 11
14.75064141810829
 21
10.39336219933496
 31
0.0
  0
LINE
  5
8169
330
1F
100
AcDbEntity
  8
0
100
AcDbLine
 10
14.59455450256113
 20
9.828537649135414
 30
0.0
 11
14.59455450256113
 21
9.918405710474267
 31
0.0
  0
LINE
  5
816A
330
1F
100
AcDbEntity
  8
0
100
AcDbLine
 10
14.75064141810829
 20
10.39336219933496
 30
0.0
 11
14.97172532606561
 21
10.39336219933496
 31
0.0
  0
LINE
  5
816B
330
1F
100
AcDbEntity
  8
0
100
AcDbLine
 10
9.175480194967043
 20
10.39336219933496
 30
0.0
 11
12.46046019496705
 21
10.39336219933496
 31
0.0
  0
LINE
  5
816C
330
1F
100
AcDbEntity
  8
0
100
AcDbLine
 10
12.46046019496705
 20
10.39336219933496
 30
0.0
 11
12.46046019496705
 21
5.239363699334965
 31
0.0
  0
LINE
  5
816D
330
1F
100
AcDbEntity
  8
0
100
AcDbLine
 10
12.46046019496705
 20
5.239363699334965
 30
0.0
 11
9.175480194967043
 21
5.239363699334965
 31
0.0
  0
LINE
  5
816E
330
1F
100
AcDbEntity
  8
0
100
AcDbLine
 10
9.175480194967043
 20
5.239363699334965
 30
0.0
 11
9.175480194967043
 21
10.39336219933496
 31
0.0
  0
LINE
  5
816F
330
1F
100
AcDbEntity
  8
0
100
AcDbLine
 10
10.74970602859456
 20
6.297113766083118
 30
0.0
 11
10.62125269496705
 21
6.371276332831271
 31
0.0
1001
ACAD
1000
TCW40_DEV_WIDTH
1002
{
1040
-3.0
1002
}
  0
LINE
  5
8170
330
1F
100
AcDbEntity
  8
0
100
AcDbLine
 10
10.62125269496705
 20
6.371276332831271
 30
0.0
 11
10.49279936133953
 21
6.297113766083118
 31
0.0
1001
ACAD
1000
TCW40_DEV_WIDTH
1002
{
1040
-3.0
1002
}
  0
LINE
  5
8171
330
1F
100
AcDbEntity
  8
0
100
AcDbLine
 10
10.49279936133953
 20
6.297113766083118
 30
0.0
 11
10.49279936133953
 21
6.148788632586811
 31
0.0
1001
ACAD
1000
TCW40_DEV_WIDTH
1002
{
1040
-3.0
1002
}
  0
LINE
  5
8172
330
1F
100
AcDbEntity
  8
0
100
AcDbLine
 10
10.49279936133953
 20
6.148788632586811
 30
0.0
 11
10.62125269496705
 21
6.074626065838659
 31
0.0
1001
ACAD
1000
TCW40_DEV_WIDTH
1002
{
1040
-3.0
1002
}
  0
LINE
  5
8173
330
1F
100
AcDbEntity
  8
0
100
AcDbLine
 10
10.62125269496705
 20
6.074626065838659
 30
0.0
 11
10.74970602859456
 21
6.148788632586811
 31
0.0
1001
ACAD
1000
TCW40_DEV_WIDTH
1002
{
1040
-3.0
1002
}
  0
LINE
  5
8174
330
1F
100
AcDbEntity
  8
0
100
AcDbLine
 10
10.74970602859456
 20
6.148788632586811
 30
0.0
 11
10.74970602859456
 21
6.297113766083118
 31
0.0
1001
ACAD
1000
TCW40_DEV_WIDTH
1002
{
1040
-3.0
1002
}
  0
LINE
  5
8175
330
1F
100
AcDbEntity
  8
0
100
AcDbLine
 10
10.74970602859456
 20
6.690548766083121
 30
0.0
 11
10.62125269496705
 21
6.764711332831275
 31
0.0
1001
ACAD
1000
TCW40_DEV_WIDTH
1002
{
1040
-3.0
1002
}
  0
LINE
  5
8176
330
1F
100
AcDbEntity
  8
0
100
AcDbLine
 10
10.62125269496705
 20
6.764711332831275
 30
0.0
 11
10.49279936133953
 21
6.690548766083121
 31
0.0
1001
ACAD
1000
TCW40_DEV_WIDTH
1002
{
1040
-3.0
1002
}
  0
LINE
  5
8177
330
1F
100
AcDbEntity
  8
0
100
AcDbLine
 10
10.49279936133953
 20
6.690548766083121
 30
0.0
 11
10.49279936133953
 21
6.542223632586814
 31
0.0
1001
ACAD
1000
TCW40_DEV_WIDTH
1002
{
1040
-3.0
1002
}
  0
LINE
  5
8178
330
1F
100
AcDbEntity
  8
0
100
AcDbLine
 10
10.49279936133953
 20
6.542223632586814
 30
0.0
 11
10.62125269496705
 21
6.468061065838663
 31
0.0
1001
ACAD
1000
TCW40_DEV_WIDTH
1002
{
1040
-3.0
1002
}
  0
LINE
  5
8179
330
1F
100
AcDbEntity
  8
0
100
AcDbLine
 10
10.62125269496705
 20
6.468061065838663
 30
0.0
 11
10.74970602859456
 21
6.542223632586814
 31
0.0
1001
ACAD
1000
TCW40_DEV_WIDTH
1002
{
1040
-3.0
1002
}
  0
LINE
  5
817A
330
1F
100
AcDbEntity
  8
0
100
AcDbLine
 10
10.74970602859456
 20
6.542223632586814
 30
0.0
 11
10.74970602859456
 21
6.690548766083121
 31
0.0
1001
ACAD
1000
TCW40_DEV_WIDTH
1002
{
1040
-3.0
1002
}
  0
LINE
  5
817B
330
1F
100
AcDbEntity
  8
0
100
AcDbLine
 10
10.74970602859456
 20
7.083983766083118
 30
0.0
 11
10.62125269496705
 21
7.158146332831272
 31
0.0
1001
ACAD
1000
TCW40_DEV_WIDTH
1002
{
1040
-3.0
1002
}
  0
LINE
  5
817C
330
1F
100
AcDbEntity
  8
0
100
AcDbLine
 10
10.62125269496705
 20
7.158146332831272
 30
0.0
 11
10.49279936133953
 21
7.083983766083118
 31
0.0
1001
ACAD
1000
TCW40_DEV_WIDTH
1002
{
1040
-3.0
1002
}
  0
LINE
  5
817D
330
1F
100
AcDbEntity
  8
0
100
AcDbLine
 10
10.49279936133953
 20
7.083983766083118
 30
0.0
 11
10.49279936133953
 21
6.935658632586811
 31
0.0
1001
ACAD
1000
TCW40_DEV_WIDTH
1002
{
1040
-3.0
1002
}
  0
LINE
  5
817E
330
1F
100
AcDbEntity
  8
0
100
AcDbLine
 10
10.49279936133953
 20
6.935658632586811
 30
0.0
 11
10.62125269496705
 21
6.861496065838659
 31
0.0
1001
ACAD
1000
TCW40_DEV_WIDTH
1002
{
1040
-3.0
1002
}
  0
LINE
  5
817F
330
1F
100
AcDbEntity
  8
0
100
AcDbLine
 10
10.62125269496705
 20
6.861496065838659
 30
0.0
 11
10.74970602859456
 21
6.935658632586811
 31
0.0
1001
ACAD
1000
TCW40_DEV_WIDTH
1002
{
1040
-3.0
1002
}
  0
LINE
  5
8180
330
1F
100
AcDbEntity
  8
0
100
AcDbLine
 10
10.74970602859456
 20
6.935658632586811
 30
0.0
 11
10.74970602859456
 21
7.083983766083118
 31
0.0
1001
ACAD
1000
TCW40_DEV_WIDTH
1002
{
1040
-3.0
1002
}
  0
LINE
  5
8181
330
1F
100
AcDbEntity
  8
0
100
AcDbLine
 10
12.32344602859456
 20
6.297113766083118
 30
0.0
 11
12.19499269496705
 21
6.371276332831271
 31
0.0
1001
ACAD
1000
TCW40_DEV_WIDTH
1002
{
1040
-3.0
1002
}
  0
LINE
  5
8182
330
1F
100
AcDbEntity
  8
0
100
AcDbLine
 10
12.19499269496705
 20
6.371276332831271
 30
0.0
 11
12.06653936133953
 21
6.297113766083118
 31
0.0
1001
ACAD
1000
TCW40_DEV_WIDTH
1002
{
1040
-3.0
1002
}
  0
LINE
  5
8183
330
1F
100
AcDbEntity
  8
0
100
AcDbLine
 10
12.06653936133953
 20
6.297113766083118
 30
0.0
 11
12.06653936133953
 21
6.148788632586811
 31
0.0
1001
ACAD
1000
TCW40_DEV_WIDTH
1002
{
1040
-3.0
1002
}
  0
LINE
  5
8184
330
1F
100
AcDbEntity
  8
0
100
AcDbLine
 10
12.06653936133953
 20
6.148788632586811
 30
0.0
 11
12.19499269496705
 21
6.074626065838659
 31
0.0
1001
ACAD
1000
TCW40_DEV_WIDTH
1002
{
1040
-3.0
1002
}
  0
LINE
  5
8185
330
1F
100
AcDbEntity
  8
0
100
AcDbLine
 10
12.19499269496705
 20
6.074626065838659
 30
0.0
 11
12.32344602859456
 21
6.148788632586811
 31
0.0
1001
ACAD
1000
TCW40_DEV_WIDTH
1002
{
1040
-3.0
1002
}
  0
LINE
  5
8186
330
1F
100
AcDbEntity
  8
0
100
AcDbLine
 10
12.32344602859456
 20
6.148788632586811
 30
0.0
 11
12.32344602859456
 21
6.297113766083118
 31
0.0
1001
ACAD
1000
TCW40_DEV_WIDTH
1002
{
1040
-3.0
1002
}
  0
LINE
  5
8187
330
1F
100
AcDbEntity
  8
0
100
AcDbLine
 10
12.32344602859456
 20
6.690548766083121
 30
0.0
 11
12.19499269496705
 21
6.764711332831275
 31
0.0
1001
ACAD
1000
TCW40_DEV_WIDTH
1002
{
1040
-3.0
1002
}
  0
LINE
  5
8188
330
1F
100
AcDbEntity
  8
0
100
AcDbLine
 10
12.19499269496705
 20
6.764711332831275
 30
0.0
 11
12.06653936133953
 21
6.690548766083121
 31
0.0
1001
ACAD
1000
TCW40_DEV_WIDTH
1002
{
1040
-3.0
1002
}
  0
LINE
  5
8189
330
1F
100
AcDbEntity
  8
0
100
AcDbLine
 10
12.06653936133953
 20
6.690548766083121
 30
0.0
 11
12.06653936133953
 21
6.542223632586814
 31
0.0
1001
ACAD
1000
TCW40_DEV_WIDTH
1002
{
1040
-3.0
1002
}
  0
LINE
  5
818A
330
1F
100
AcDbEntity
  8
0
100
AcDbLine
 10
12.06653936133953
 20
6.542223632586814
 30
0.0
 11
12.19499269496705
 21
6.468061065838663
 31
0.0
1001
ACAD
1000
TCW40_DEV_WIDTH
1002
{
1040
-3.0
1002
}
  0
LINE
  5
818B
330
1F
100
AcDbEntity
  8
0
100
AcDbLine
 10
12.19499269496705
 20
6.468061065838663
 30
0.0
 11
12.32344602859456
 21
6.542223632586814
 31
0.0
1001
ACAD
1000
TCW40_DEV_WIDTH
1002
{
1040
-3.0
1002
}
  0
LINE
  5
818C
330
1F
100
AcDbEntity
  8
0
100
AcDbLine
 10
12.32344602859456
 20
6.542223632586814
 30
0.0
 11
12.32344602859456
 21
6.690548766083121
 31
0.0
1001
ACAD
1000
TCW40_DEV_WIDTH
1002
{
1040
-3.0
1002
}
  0
ARC
  5
818D
330
1F
100
AcDbEntity
  8
0
100
AcDbCircle
 10
9.523978194967035
 20
8.209797949334962
 30
0.0
 40
0.0393435000000011
100
AcDbArc
 50
180.0
 51
270.0
  0
LINE
  5
818E
330
1F
100
AcDbEntity
  8
0
100
AcDbLine
 10
9.523978194967035
 20
8.170454449334961
 30
0.0
 11
10.4683040537536
 21
8.170454449334961
 31
0.0
  0
ARC
  5
818F
330
1F
100
AcDbEntity
  8
0
100
AcDbCircle
 10
10.4683040537536
 20
8.209797949334962
 30
0.0
 40
0.0393435000000011
100
AcDbArc
 50
270.0
 51
0.0
  0
LINE
  5
8190
330
1F
100
AcDbEntity
  8
0
100
AcDbLine
 10
10.5076475537536
 20
8.209797949334962
 30
0.0
 11
10.5076475537536
 21
9.016339699334963
 31
0.0
  0
ARC
  5
8191
330
1F
100
AcDbEntity
  8
0
100
AcDbCircle
 10
10.4683040537536
 20
9.016339699334963
 30
0.0
 40
0.0393435000000011
100
AcDbArc
 50
0.0
 51
90.0
  0
LINE
  5
8192
330
1F
100
AcDbEntity
  8
0
100
AcDbLine
 10
10.4683040537536
 20
9.055683199334964
 30
0.0
 11
9.523978194967035
 21
9.055683199334964
 31
0.0
  0
ARC
  5
8193
330
1F
100
AcDbEntity
  8
0
100
AcDbCircle
 10
9.523978194967035
 20
9.016339699334963
 30
0.0
 40
0.0393435000000011
100
AcDbArc
 50
90.0
 51
180.0
  0
LINE
  5
8194
330
1F
100
AcDbEntity
  8
0
100
AcDbLine
 10
9.484634694967034
 20
9.016339699334963
 30
0.0
 11
9.484634694967034
 21
8.209797949334962
 31
0.0
  0
ARC
  5
8195
330
1F
100
AcDbEntity
  8
0
100
AcDbCircle
 10
9.995313592853433
 20
6.633641966054163
 30
0.0
 40
1.399102369151787
100
AcDbArc
 50
61.40144366923856
 51
118.5213884935842
  0
LINE
  5
8196
330
1F
100
AcDbEntity
  8
0
100
AcDbLine
 10
9.32726069496703
 20
8.89830919933496
 30
0.0
 11
9.287917194967043
 21
8.89830919933496
 31
0.0
1001
ACAD
1000
TCW40_DEV_WIDTH
1002
{
1040
-3.0
1002
}
  0
LINE
  5
8197
330
1F
100
AcDbEntity
  8
0
100
AcDbLine
 10
9.287917194967043
 20
8.89830919933496
 30
0.0
 11
9.287917194967043
 21
8.563889449334965
 31
0.0
1001
ACAD
1000
TCW40_DEV_WIDTH
1002
{
1040
-3.0
1002
}
  0
LINE
  5
8198
330
1F
100
AcDbEntity
  8
0
100
AcDbLine
 10
9.287917194967043
 20
8.563889449334965
 30
0.0
 11
9.32726069496703
 21
8.563889449334965
 31
0.0
1001
ACAD
1000
TCW40_DEV_WIDTH
1002
{
1040
-3.0
1002
}
  0
LINE
  5
8199
330
1F
100
AcDbEntity
  8
0
100
AcDbLine
 10
10.66493969496704
 20
8.89830919933496
 30
0.0
 11
10.70428319496704
 21
8.89830919933496
 31
0.0
1001
ACAD
1000
TCW40_DEV_WIDTH
1002
{
1040
-3.0
1002
}
  0
LINE
  5
819A
330
1F
100
AcDbEntity
  8
0
100
AcDbLine
 10
10.70428319496704
 20
8.89830919933496
 30
0.0
 11
10.70428319496704
 21
8.563889449334965
 31
0.0
1001
ACAD
1000
TCW40_DEV_WIDTH
1002
{
1040
-3.0
1002
}
  0
LINE
  5
819B
330
1F
100
AcDbEntity
  8
0
100
AcDbLine
 10
10.70428319496704
 20
8.563889449334965
 30
0.0
 11
10.66493969496704
 21
8.563889449334965
 31
0.0
1001
ACAD
1000
TCW40_DEV_WIDTH
1002
{
1040
-3.0
1002
}
  0
ARC
  5
819C
330
1F
100
AcDbEntity
  8
0
100
AcDbCircle
 10
9.239679193015833
 20
7.658702667076898
 30
0.0
 40
0.0715937927171522
100
AcDbArc
 50
206.2708425428106
 51
294.1745006618579
  0
ARC
  5
819D
330
1F
100
AcDbEntity
  8
0
100
AcDbCircle
 10
9.995313592853428
 20
6.397580966054164
 30
0.0
 40
1.399102369151791
100
AcDbArc
 50
58.6527666810334
 51
121.2738881046906
  0
ARC
  5
819E
330
1F
100
AcDbEntity
  8
0
100
AcDbCircle
 10
10.75287098969019
 20
7.659183595316875
 30
0.0
 40
0.0730428656163921
100
AcDbArc
 50
245.99786074784
 51
333.0303138406356
  0
LINE
  5
819F
330
1F
100
AcDbEntity
  8
0
100
AcDbLine
 10
10.81797019496698
 20
7.626057266063767
 30
0.0
 11
10.81797019496704
 21
9.213057199334954
 31
0.0
  0
ARC
  5
81A0
330
1F
100
AcDbEntity
  8
0
100
AcDbCircle
 10
10.77862669496703
 20
9.21305719933496
 30
0.0
 40
0.0393435000000047
100
AcDbArc
 50
359.9999999999921
 51
89.99999999999481
  0
LINE
  5
81A1
330
1F
100
AcDbEntity
  8
0
100
AcDbLine
 10
10.77862669496704
 20
9.252400699334963
 30
0.0
 11
9.214823694967043
 21
9.252400699334963
 31
0.0
  0
ARC
  5
81A2
330
1F
100
AcDbEntity
  8
0
100
AcDbCircle
 10
9.214823694967041
 20
9.213057199334963
 30
0.0
 40
0.0393434999999993
100
AcDbArc
 50
89.9999999999974
 51
180.0000000000026
  0
ARC
  5
81A3
330
1F
100
AcDbEntity
  8
0
100
AcDbCircle
 10
11.16771819496704
 20
8.209797949334962
 30
0.0
 40
0.0393435000000011
100
AcDbArc
 50
180.0
 51
270.0
  0
LINE
  5
81A4
330
1F
100
AcDbEntity
  8
0
100
AcDbLine
 10
11.16771819496704
 20
8.170454449334961
 30
0.0
 11
12.11204405375361
 21
8.170454449334961
 31
0.0
  0
ARC
  5
81A5
330
1F
100
AcDbEntity
  8
0
100
AcDbCircle
 10
12.11204405375361
 20
8.209797949334962
 30
0.0
 40
0.0393435000000011
100
AcDbArc
 50
270.0
 51
0.0
  0
LINE
  5
81A6
330
1F
100
AcDbEntity
  8
0
100
AcDbLine
 10
12.15138755375361
 20
8.209797949334962
 30
0.0
 11
12.15138755375361
 21
9.016339699334963
 31
0.0
  0
ARC
  5
81A7
330
1F
100
AcDbEntity
  8
0
100
AcDbCircle
 10
12.11204405375361
 20
9.016339699334963
 30
0.0
 40
0.0393435000000011
100
AcDbArc
 50
0.0
 51
90.0
  0
LINE
  5
81A8
330
1F
100
AcDbEntity
  8
0
100
AcDbLine
 10
12.11204405375361
 20
9.055683199334964
 30
0.0
 11
11.16771819496704
 21
9.055683199334964
 31
0.0
  0
ARC
  5
81A9
330
1F
100
AcDbEntity
  8
0
100
AcDbCircle
 10
11.16771819496704
 20
9.016339699334963
 30
0.0
 40
0.0393435000000011
100
AcDbArc
 50
90.0
 51
180.0
  0
LINE
  5
81AA
330
1F
100
AcDbEntity
  8
0
100
AcDbLine
 10
11.12837469496704
 20
9.016339699334963
 30
0.0
 11
11.12837469496704
 21
8.209797949334962
 31
0.0
  0
LINE
  5
81AB
330
1F
100
AcDbEntity
  8
0
100
AcDbLine
 10
10.5582758779063
 20
9.974656349759476
 30
0.0
 11
10.70371776824992
 21
9.974656349759476
 31
0.0
1001
ACAD
1000
TCW40_DEV_WIDTH
1002
{
1040
-3.0
1002
}
  0
LINE
  5
81AC
330
1F
100
AcDbEntity
  8
0
100
AcDbLine
 10
10.70371776824992
 20
9.974656349759476
 30
0.0
 11
10.70371776824992
 21
9.95042673144486
 31
0.0
1001
ACAD
1000
TCW40_DEV_WIDTH
1002
{
1040
-3.0
1002
}
  0
LINE
  5
81AD
330
1F
100
AcDbEntity
  8
0
100
AcDbLine
 10
10.70371776824992
 20
9.95042673144486
 30
0.0
 11
10.5582758779063
 21
9.95042673144486
 31
0.0
1001
ACAD
1000
TCW40_DEV_WIDTH
1002
{
1040
-3.0
1002
}
  0
LINE
  5
81AE
330
1F
100
AcDbEntity
  8
0
100
AcDbLine
 10
10.5582758779063
 20
9.95042673144486
 30
0.0
 11
10.5582758779063
 21
9.974656349759476
 31
0.0
1001
ACAD
1000
TCW40_DEV_WIDTH
1002
{
1040
-3.0
1002
}
  0
LINE
  5
81AF
330
1F
100
AcDbEntity
  8
0
100
AcDbLine
 10
10.36463208884379
 20
9.974656349759476
 30
0.0
 11
10.51007397918743
 21
9.974656349759476
 31
0.0
1001
ACAD
1000
TCW40_DEV_WIDTH
1002
{
1040
-3.0
1002
}
  0
LINE
  5
81B0
330
1F
100
AcDbEntity
  8
0
100
AcDbLine
 10
10.51007397918743
 20
9.974656349759476
 30
0.0
 11
10.51007397918743
 21
9.95042673144486
 31
0.0
1001
ACAD
1000
TCW40_DEV_WIDTH
1002
{
1040
-3.0
1002
}
  0
LINE
  5
81B1
330
1F
100
AcDbEntity
  8
0
100
AcDbLine
 10
10.51007397918743
 20
9.95042673144486
 30
0.0
 11
10.36463208884379
 21
9.95042673144486
 31
0.0
1001
ACAD
1000
TCW40_DEV_WIDTH
1002
{
1040
-3.0
1002
}
  0
LINE
  5
81B2
330
1F
100
AcDbEntity
  8
0
100
AcDbLine
 10
10.36463208884379
 20
9.95042673144486
 30
0.0
 11
10.36463208884379
 21
9.974656349759476
 31
0.0
1001
ACAD
1000
TCW40_DEV_WIDTH
1002
{
1040
-3.0
1002
}
  0
LINE
  5
81B3
330
1F
100
AcDbEntity
  8
0
100
AcDbLine
 10
10.1709882997813
 20
9.974656349759476
 30
0.0
 11
10.31643019012492
 21
9.974656349759476
 31
0.0
1001
ACAD
1000
TCW40_DEV_WIDTH
1002
{
1040
-3.0
1002
}
  0
LINE
  5
81B4
330
1F
100
AcDbEntity
  8
0
100
AcDbLine
 10
10.31643019012492
 20
9.974656349759476
 30
0.0
 11
10.31643019012492
 21
9.95042673144486
 31
0.0
1001
ACAD
1000
TCW40_DEV_WIDTH
1002
{
1040
-3.0
1002
}
  0
LINE
  5
81B5
330
1F
100
AcDbEntity
  8
0
100
AcDbLine
 10
10.31643019012492
 20
9.95042673144486
 30
0.0
 11
10.1709882997813
 21
9.95042673144486
 31
0.0
1001
ACAD
1000
TCW40_DEV_WIDTH
1002
{
1040
-3.0
1002
}
  0
LINE
  5
81B6
330
1F
100
AcDbEntity
  8
0
100
AcDbLine
 10
10.1709882997813
 20
9.95042673144486
 30
0.0
 11
10.1709882997813
 21
9.974656349759476
 31
0.0
1001
ACAD
1000
TCW40_DEV_WIDTH
1002
{
1040
-3.0
1002
}
  0
LINE
  5
81B7
330
1F
100
AcDbEntity
  8
0
100
AcDbLine
 10
9.977344510718795
 20
9.974656349759476
 30
0.0
 11
10.12278640106242
 21
9.974656349759476
 31
0.0
1001
ACAD
1000
TCW40_DEV_WIDTH
1002
{
1040
-3.0
1002
}
  0
LINE
  5
81B8
330
1F
100
AcDbEntity
  8
0
100
AcDbLine
 10
10.12278640106242
 20
9.974656349759476
 30
0.0
 11
10.12278640106242
 21
9.95042673144486
 31
0.0
1001
ACAD
1000
TCW40_DEV_WIDTH
1002
{
1040
-3.0
1002
}
  0
LINE
  5
81B9
330
1F
100
AcDbEntity
  8
0
100
AcDbLine
 10
10.12278640106242
 20
9.95042673144486
 30
0.0
 11
9.977344510718795
 21
9.95042673144486
 31
0.0
1001
ACAD
1000
TCW40_DEV_WIDTH
1002
{
1040
-3.0
1002
}
  0
LINE
  5
81BA
330
1F
100
AcDbEntity
  8
0
100
AcDbLine
 10
9.977344510718795
 20
9.95042673144486
 30
0.0
 11
9.977344510718795
 21
9.974656349759476
 31
0.0
1001
ACAD
1000
TCW40_DEV_WIDTH
1002
{
1040
-3.0
1002
}
  0
LINE
  5
81BB
330
1F
100
AcDbEntity
  8
0
100
AcDbLine
 10
9.783700721656289
 20
9.974656349759476
 30
0.0
 11
9.92914261199993
 21
9.974656349759476
 31
0.0
1001
ACAD
1000
TCW40_DEV_WIDTH
1002
{
1040
-3.0
1002
}
  0
LINE
  5
81BC
330
1F
100
AcDbEntity
  8
0
100
AcDbLine
 10
9.92914261199993
 20
9.974656349759476
 30
0.0
 11
9.92914261199993
 21
9.95042673144486
 31
0.0
1001
ACAD
1000
TCW40_DEV_WIDTH
1002
{
1040
-3.0
1002
}
  0
LINE
  5
81BD
330
1F
100
AcDbEntity
  8
0
100
AcDbLine
 10
9.92914261199993
 20
9.95042673144486
 30
0.0
 11
9.783700721656289
 21
9.95042673144486
 31
0.0
1001
ACAD
1000
TCW40_DEV_WIDTH
1002
{
1040
-3.0
1002
}
  0
LINE
  5
81BE
330
1F
100
AcDbEntity
  8
0
100
AcDbLine
 10
9.783700721656289
 20
9.95042673144486
 30
0.0
 11
9.783700721656289
 21
9.974656349759476
 31
0.0
1001
ACAD
1000
TCW40_DEV_WIDTH
1002
{
1040
-3.0
1002
}
  0
LINE
  5
81BF
330
1F
100
AcDbEntity
  8
0
100
AcDbLine
 10
9.590056932593798
 20
9.974656349759476
 30
0.0
 11
9.735498822937424
 21
9.974656349759476
 31
0.0
1001
ACAD
1000
TCW40_DEV_WIDTH
1002
{
1040
-3.0
1002
}
  0
LINE
  5
81C0
330
1F
100
AcDbEntity
  8
0
100
AcDbLine
 10
9.735498822937424
 20
9.974656349759476
 30
0.0
 11
9.735498822937424
 21
9.95042673144486
 31
0.0
1001
ACAD
1000
TCW40_DEV_WIDTH
1002
{
1040
-3.0
1002
}
  0
LINE
  5
81C1
330
1F
100
AcDbEntity
  8
0
100
AcDbLine
 10
9.735498822937424
 20
9.95042673144486
 30
0.0
 11
9.590056932593798
 21
9.95042673144486
 31
0.0
1001
ACAD
1000
TCW40_DEV_WIDTH
1002
{
1040
-3.0
1002
}
  0
LINE
  5
81C2
330
1F
100
AcDbEntity
  8
0
100
AcDbLine
 10
9.590056932593798
 20
9.95042673144486
 30
0.0
 11
9.590056932593798
 21
9.974656349759476
 31
0.0
1001
ACAD
1000
TCW40_DEV_WIDTH
1002
{
1040
-3.0
1002
}
  0
LINE
  5
81C3
330
1F
100
AcDbEntity
  8
0
100
AcDbLine
 10
9.396413143531296
 20
9.974656349759476
 30
0.0
 11
9.541855033874918
 21
9.974656349759476
 31
0.0
1001
ACAD
1000
TCW40_DEV_WIDTH
1002
{
1040
-3.0
1002
}
  0
LINE
  5
81C4
330
1F
100
AcDbEntity
  8
0
100
AcDbLine
 10
9.541855033874918
 20
9.974656349759476
 30
0.0
 11
9.541855033874918
 21
9.95042673144486
 31
0.0
1001
ACAD
1000
TCW40_DEV_WIDTH
1002
{
1040
-3.0
1002
}
  0
LINE
  5
81C5
330
1F
100
AcDbEntity
  8
0
100
AcDbLine
 10
9.541855033874918
 20
9.95042673144486
 30
0.0
 11
9.396413143531296
 21
9.95042673144486
 31
0.0
1001
ACAD
1000
TCW40_DEV_WIDTH
1002
{
1040
-3.0
1002
}
  0
LINE
  5
81C6
330
1F
100
AcDbEntity
  8
0
100
AcDbLine
 10
9.396413143531296
 20
9.95042673144486
 30
0.0
 11
9.396413143531296
 21
9.974656349759476
 31
0.0
1001
ACAD
1000
TCW40_DEV_WIDTH
1002
{
1040
-3.0
1002
}
  0
LINE
  5
81C7
330
1F
100
AcDbEntity
  8
0
100
AcDbLine
 10
9.20276935446879
 20
9.974656349759476
 30
0.0
 11
9.34821124481243
 21
9.974656349759476
 31
0.0
1001
ACAD
1000
TCW40_DEV_WIDTH
1002
{
1040
-3.0
1002
}
  0
LINE
  5
81C8
330
1F
100
AcDbEntity
  8
0
100
AcDbLine
 10
9.34821124481243
 20
9.974656349759476
 30
0.0
 11
9.34821124481243
 21
9.95042673144486
 31
0.0
1001
ACAD
1000
TCW40_DEV_WIDTH
1002
{
1040
-3.0
1002
}
  0
LINE
  5
81C9
330
1F
100
AcDbEntity
  8
0
100
AcDbLine
 10
9.34821124481243
 20
9.95042673144486
 30
0.0
 11
9.20276935446879
 21
9.95042673144486
 31
0.0
1001
ACAD
1000
TCW40_DEV_WIDTH
1002
{
1040
-3.0
1002
}
  0
LINE
  5
81CA
330
1F
100
AcDbEntity
  8
0
100
AcDbLine
 10
9.20276935446879
 20
9.95042673144486
 30
0.0
 11
9.20276935446879
 21
9.974656349759476
 31
0.0
1001
ACAD
1000
TCW40_DEV_WIDTH
1002
{
1040
-3.0
1002
}
  0
LINE
  5
81CB
330
1F
100
AcDbEntity
  8
0
100
AcDbLine
 10
9.677008694967057
 20
5.475424699334965
 30
0.0
 11
9.716352194967058
 21
5.337722449334961
 31
0.0
1001
ACAD
1000
TCW40_DEV_WIDTH
1002
{
1040
-3.0
1002
}
  0
LINE
  5
81CC
330
1F
100
AcDbEntity
  8
0
100
AcDbLine
 10
9.716352194967058
 20
5.337722449334961
 30
0.0
 11
9.716352194967058
 21
5.278707199334959
 31
0.0
1001
ACAD
1000
TCW40_DEV_WIDTH
1002
{
1040
-3.0
1002
}
  0
LINE
  5
81CD
330
1F
100
AcDbEntity
  8
0
100
AcDbLine
 10
9.558978194967053
 20
5.337722449334961
 30
0.0
 11
9.598321694967054
 21
5.475424699334965
 31
0.0
1001
ACAD
1000
TCW40_DEV_WIDTH
1002
{
1040
-3.0
1002
}
  0
LINE
  5
81CE
330
1F
100
AcDbEntity
  8
0
100
AcDbLine
 10
9.677008694967057
 20
7.088508199334967
 30
0.0
 11
9.716352194967058
 21
7.226210449334963
 31
0.0
1001
ACAD
1000
TCW40_DEV_WIDTH
1002
{
1040
-3.0
1002
}
  0
LINE
  5
81CF
330
1F
100
AcDbEntity
  8
0
100
AcDbLine
 10
9.716352194967058
 20
7.226210449334963
 30
0.0
 11
9.716352194967058
 21
7.285225699334965
 31
0.0
1001
ACAD
1000
TCW40_DEV_WIDTH
1002
{
1040
-3.0
1002
}
  0
LINE
  5
81D0
330
1F
100
AcDbEntity
  8
0
100
AcDbLine
 10
9.558978194967053
 20
7.226210449334963
 30
0.0
 11
9.598321694967054
 21
7.088508199334967
 31
0.0
1001
ACAD
1000
TCW40_DEV_WIDTH
1002
{
1040
-3.0
1002
}
  0
LINE
  5
81D1
330
1F
100
AcDbEntity
  8
0
100
AcDbLine
 10
10.22781769496706
 20
5.475424699334965
 30
0.0
 11
10.26716119496704
 21
5.337722449334961
 31
0.0
1001
ACAD
1000
TCW40_DEV_WIDTH
1002
{
1040
-3.0
1002
}
  0
LINE
  5
81D2
330
1F
100
AcDbEntity
  8
0
100
AcDbLine
 10
10.26716119496704
 20
5.337722449334961
 30
0.0
 11
10.26716119496704
 21
5.278707199334959
 31
0.0
1001
ACAD
1000
TCW40_DEV_WIDTH
1002
{
1040
-3.0
1002
}
  0
LINE
  5
81D3
330
1F
100
AcDbEntity
  8
0
100
AcDbLine
 10
10.10978719496705
 20
5.337722449334961
 30
0.0
 11
10.14913069496705
 21
5.475424699334965
 31
0.0
1001
ACAD
1000
TCW40_DEV_WIDTH
1002
{
1040
-3.0
1002
}
  0
LINE
  5
81D4
330
1F
100
AcDbEntity
  8
0
100
AcDbLine
 10
10.22781769496706
 20
7.088508199334967
 30
0.0
 11
10.26716119496704
 21
7.226210449334963
 31
0.0
1001
ACAD
1000
TCW40_DEV_WIDTH
1002
{
1040
-3.0
1002
}
  0
LINE
  5
81D5
330
1F
100
AcDbEntity
  8
0
100
AcDbLine
 10
10.26716119496704
 20
7.226210449334963
 30
0.0
 11
10.26716119496704
 21
7.285225699334965
 31
0.0
1001
ACAD
1000
TCW40_DEV_WIDTH
1002
{
1040
-3.0
1002
}
  0
LINE
  5
81D6
330
1F
100
AcDbEntity
  8
0
100
AcDbLine
 10
10.10978719496705
 20
7.226210449334963
 30
0.0
 11
10.14913069496705
 21
7.088508199334967
 31
0.0
1001
ACAD
1000
TCW40_DEV_WIDTH
1002
{
1040
-3.0
1002
}
  0
LINE
  5
81D7
330
1F
100
AcDbEntity
  8
0
100
AcDbLine
 10
10.75895494496706
 20
6.302453630440481
 30
0.0
 11
10.62125269496705
 21
6.381956061545999
 31
0.0
1001
ACAD
1000
TCW40_DEV_WIDTH
1002
{
1040
-3.0
1002
}
  0
LINE
  5
81D8
330
1F
100
AcDbEntity
  8
0
100
AcDbLine
 10
10.62125269496705
 20
6.381956061545999
 30
0.0
 11
10.48355044496705
 21
6.302453630440481
 31
0.0
1001
ACAD
1000
TCW40_DEV_WIDTH
1002
{
1040
-3.0
1002
}
  0
LINE
  5
81D9
330
1F
100
AcDbEntity
  8
0
100
AcDbLine
 10
10.48355044496705
 20
6.302453630440481
 30
0.0
 11
10.48355044496705
 21
6.143448768229447
 31
0.0
1001
ACAD
1000
TCW40_DEV_WIDTH
1002
{
1040
-3.0
1002
}
  0
LINE
  5
81DA
330
1F
100
AcDbEntity
  8
0
100
AcDbLine
 10
10.48355044496705
 20
6.143448768229447
 30
0.0
 11
10.62125269496705
 21
6.06394633712393
 31
0.0
1001
ACAD
1000
TCW40_DEV_WIDTH
1002
{
1040
-3.0
1002
}
  0
LINE
  5
81DB
330
1F
100
AcDbEntity
  8
0
100
AcDbLine
 10
10.62125269496705
 20
6.06394633712393
 30
0.0
 11
10.75895494496706
 21
6.143448768229447
 31
0.0
1001
ACAD
1000
TCW40_DEV_WIDTH
1002
{
1040
-3.0
1002
}
  0
LINE
  5
81DC
330
1F
100
AcDbEntity
  8
0
100
AcDbLine
 10
10.75895494496706
 20
6.143448768229447
 30
0.0
 11
10.75895494496706
 21
6.302453630440481
 31
0.0
1001
ACAD
1000
TCW40_DEV_WIDTH
1002
{
1040
-3.0
1002
}
  0
LINE
  5
81DD
330
1F
100
AcDbEntity
  8
0
100
AcDbLine
 10
10.75895494496706
 20
6.695888630440478
 30
0.0
 11
10.62125269496705
 21
6.775391061546002
 31
0.0
1001
ACAD
1000
TCW40_DEV_WIDTH
1002
{
1040
-3.0
1002
}
  0
LINE
  5
81DE
330
1F
100
AcDbEntity
  8
0
100
AcDbLine
 10
10.62125269496705
 20
6.775391061546002
 30
0.0
 11
10.48355044496705
 21
6.695888630440478
 31
0.0
1001
ACAD
1000
TCW40_DEV_WIDTH
1002
{
1040
-3.0
1002
}
  0
LINE
  5
81DF
330
1F
100
AcDbEntity
  8
0
100
AcDbLine
 10
10.48355044496705
 20
6.695888630440478
 30
0.0
 11
10.48355044496705
 21
6.536883768229451
 31
0.0
1001
ACAD
1000
TCW40_DEV_WIDTH
1002
{
1040
-3.0
1002
}
  0
LINE
  5
81E0
330
1F
100
AcDbEntity
  8
0
100
AcDbLine
 10
10.48355044496705
 20
6.536883768229451
 30
0.0
 11
10.62125269496705
 21
6.457381337123933
 31
0.0
1001
ACAD
1000
TCW40_DEV_WIDTH
1002
{
1040
-3.0
1002
}
  0
LINE
  5
81E1
330
1F
100
AcDbEntity
  8
0
100
AcDbLine
 10
10.62125269496705
 20
6.457381337123933
 30
0.0
 11
10.75895494496706
 21
6.536883768229444
 31
0.0
1001
ACAD
1000
TCW40_DEV_WIDTH
1002
{
1040
-3.0
1002
}
  0
LINE
  5
81E2
330
1F
100
AcDbEntity
  8
0
100
AcDbLine
 10
10.75895494496706
 20
6.536883768229444
 30
0.0
 11
10.75895494496706
 21
6.695888630440478
 31
0.0
1001
ACAD
1000
TCW40_DEV_WIDTH
1002
{
1040
-3.0
1002
}
  0
LINE
  5
81E3
330
1F
100
AcDbEntity
  8
0
100
AcDbLine
 10
10.75895494496706
 20
7.089323630440482
 30
0.0
 11
10.62125269496705
 21
7.168826061545999
 31
0.0
1001
ACAD
1000
TCW40_DEV_WIDTH
1002
{
1040
-3.0
1002
}
  0
LINE
  5
81E4
330
1F
100
AcDbEntity
  8
0
100
AcDbLine
 10
10.62125269496705
 20
7.168826061545999
 30
0.0
 11
10.48355044496705
 21
7.089323630440482
 31
0.0
1001
ACAD
1000
TCW40_DEV_WIDTH
1002
{
1040
-3.0
1002
}
  0
LINE
  5
81E5
330
1F
100
AcDbEntity
  8
0
100
AcDbLine
 10
10.48355044496705
 20
7.089323630440482
 30
0.0
 11
10.48355044496705
 21
6.930318768229447
 31
0.0
1001
ACAD
1000
TCW40_DEV_WIDTH
1002
{
1040
-3.0
1002
}
  0
LINE
  5
81E6
330
1F
100
AcDbEntity
  8
0
100
AcDbLine
 10
10.48355044496705
 20
6.930318768229447
 30
0.0
 11
10.62125269496705
 21
6.85081633712393
 31
0.0
1001
ACAD
1000
TCW40_DEV_WIDTH
1002
{
1040
-3.0
1002
}
  0
LINE
  5
81E7
330
1F
100
AcDbEntity
  8
0
100
AcDbLine
 10
10.62125269496705
 20
6.85081633712393
 30
0.0
 11
10.75895494496706
 21
6.930318768229447
 31
0.0
1001
ACAD
1000
TCW40_DEV_WIDTH
1002
{
1040
-3.0
1002
}
  0
LINE
  5
81E8
330
1F
100
AcDbEntity
  8
0
100
AcDbLine
 10
10.75895494496706
 20
6.930318768229447
 30
0.0
 11
10.75895494496706
 21
7.089323630440482
 31
0.0
1001
ACAD
1000
TCW40_DEV_WIDTH
1002
{
1040
-3.0
1002
}
  0
LINE
  5
81E9
330
1F
100
AcDbEntity
  8
0
100
AcDbLine
 10
12.1332453622813
 20
9.974656349759476
 30
0.0
 11
12.27868725262493
 21
9.974656349759476
 31
0.0
1001
ACAD
1000
TCW40_DEV_WIDTH
1002
{
1040
-3.0
1002
}
  0
LINE
  5
81EA
330
1F
100
AcDbEntity
  8
0
100
AcDbLine
 10
12.27868725262493
 20
9.974656349759476
 30
0.0
 11
12.27868725262493
 21
9.95042673144486
 31
0.0
1001
ACAD
1000
TCW40_DEV_WIDTH
1002
{
1040
-3.0
1002
}
  0
LINE
  5
81EB
330
1F
100
AcDbEntity
  8
0
100
AcDbLine
 10
12.27868725262493
 20
9.95042673144486
 30
0.0
 11
12.1332453622813
 21
9.95042673144486
 31
0.0
1001
ACAD
1000
TCW40_DEV_WIDTH
1002
{
1040
-3.0
1002
}
  0
LINE
  5
81EC
330
1F
100
AcDbEntity
  8
0
100
AcDbLine
 10
12.1332453622813
 20
9.95042673144486
 30
0.0
 11
12.1332453622813
 21
9.974656349759476
 31
0.0
1001
ACAD
1000
TCW40_DEV_WIDTH
1002
{
1040
-3.0
1002
}
  0
LINE
  5
81ED
330
1F
100
AcDbEntity
  8
0
100
AcDbLine
 10
11.9396015732188
 20
9.974656349759476
 30
0.0
 11
12.08504346356242
 21
9.974656349759476
 31
0.0
1001
ACAD
1000
TCW40_DEV_WIDTH
1002
{
1040
-3.0
1002
}
  0
LINE
  5
81EE
330
1F
100
AcDbEntity
  8
0
100
AcDbLine
 10
12.08504346356242
 20
9.974656349759476
 30
0.0
 11
12.08504346356242
 21
9.95042673144486
 31
0.0
1001
ACAD
1000
TCW40_DEV_WIDTH
1002
{
1040
-3.0
1002
}
  0
LINE
  5
81EF
330
1F
100
AcDbEntity
  8
0
100
AcDbLine
 10
12.08504346356242
 20
9.95042673144486
 30
0.0
 11
11.9396015732188
 21
9.95042673144486
 31
0.0
1001
ACAD
1000
TCW40_DEV_WIDTH
1002
{
1040
-3.0
1002
}
  0
LINE
  5
81F0
330
1F
100
AcDbEntity
  8
0
100
AcDbLine
 10
11.9396015732188
 20
9.95042673144486
 30
0.0
 11
11.9396015732188
 21
9.974656349759476
 31
0.0
1001
ACAD
1000
TCW40_DEV_WIDTH
1002
{
1040
-3.0
1002
}
  0
LINE
  5
81F1
330
1F
100
AcDbEntity
  8
0
100
AcDbLine
 10
11.74595778415629
 20
9.974656349759476
 30
0.0
 11
11.89139967449993
 21
9.974656349759476
 31
0.0
1001
ACAD
1000
TCW40_DEV_WIDTH
1002
{
1040
-3.0
1002
}
  0
LINE
  5
81F2
330
1F
100
AcDbEntity
  8
0
100
AcDbLine
 10
11.89139967449993
 20
9.974656349759476
 30
0.0
 11
11.89139967449993
 21
9.95042673144486
 31
0.0
1001
ACAD
1000
TCW40_DEV_WIDTH
1002
{
1040
-3.0
1002
}
  0
LINE
  5
81F3
330
1F
100
AcDbEntity
  8
0
100
AcDbLine
 10
11.89139967449993
 20
9.95042673144486
 30
0.0
 11
11.74595778415629
 21
9.95042673144486
 31
0.0
1001
ACAD
1000
TCW40_DEV_WIDTH
1002
{
1040
-3.0
1002
}
  0
LINE
  5
81F4
330
1F
100
AcDbEntity
  8
0
100
AcDbLine
 10
11.74595778415629
 20
9.95042673144486
 30
0.0
 11
11.74595778415629
 21
9.974656349759476
 31
0.0
1001
ACAD
1000
TCW40_DEV_WIDTH
1002
{
1040
-3.0
1002
}
  0
LINE
  5
81F5
330
1F
100
AcDbEntity
  8
0
100
AcDbLine
 10
11.5523139950938
 20
9.974656349759476
 30
0.0
 11
11.69775588543743
 21
9.974656349759476
 31
0.0
1001
ACAD
1000
TCW40_DEV_WIDTH
1002
{
1040
-3.0
1002
}
  0
LINE
  5
81F6
330
1F
100
AcDbEntity
  8
0
100
AcDbLine
 10
11.69775588543743
 20
9.974656349759476
 30
0.0
 11
11.69775588543743
 21
9.95042673144486
 31
0.0
1001
ACAD
1000
TCW40_DEV_WIDTH
1002
{
1040
-3.0
1002
}
  0
LINE
  5
81F7
330
1F
100
AcDbEntity
  8
0
100
AcDbLine
 10
11.69775588543743
 20
9.95042673144486
 30
0.0
 11
11.5523139950938
 21
9.95042673144486
 31
0.0
1001
ACAD
1000
TCW40_DEV_WIDTH
1002
{
1040
-3.0
1002
}
  0
LINE
  5
81F8
330
1F
100
AcDbEntity
  8
0
100
AcDbLine
 10
11.5523139950938
 20
9.95042673144486
 30
0.0
 11
11.5523139950938
 21
9.974656349759476
 31
0.0
1001
ACAD
1000
TCW40_DEV_WIDTH
1002
{
1040
-3.0
1002
}
  0
LINE
  5
81F9
330
1F
100
AcDbEntity
  8
0
100
AcDbLine
 10
11.3586702060313
 20
9.974656349759476
 30
0.0
 11
11.50411209637492
 21
9.974656349759476
 31
0.0
1001
ACAD
1000
TCW40_DEV_WIDTH
1002
{
1040
-3.0
1002
}
  0
LINE
  5
81FA
330
1F
100
AcDbEntity
  8
0
100
AcDbLine
 10
11.50411209637492
 20
9.974656349759476
 30
0.0
 11
11.50411209637492
 21
9.95042673144486
 31
0.0
1001
ACAD
1000
TCW40_DEV_WIDTH
1002
{
1040
-3.0
1002
}
  0
LINE
  5
81FB
330
1F
100
AcDbEntity
  8
0
100
AcDbLine
 10
11.50411209637492
 20
9.95042673144486
 30
0.0
 11
11.3586702060313
 21
9.95042673144486
 31
0.0
1001
ACAD
1000
TCW40_DEV_WIDTH
1002
{
1040
-3.0
1002
}
  0
LINE
  5
81FC
330
1F
100
AcDbEntity
  8
0
100
AcDbLine
 10
11.3586702060313
 20
9.95042673144486
 30
0.0
 11
11.3586702060313
 21
9.974656349759476
 31
0.0
1001
ACAD
1000
TCW40_DEV_WIDTH
1002
{
1040
-3.0
1002
}
  0
LINE
  5
81FD
330
1F
100
AcDbEntity
  8
0
100
AcDbLine
 10
11.16502641696879
 20
9.974656349759476
 30
0.0
 11
11.31046830731243
 21
9.974656349759476
 31
0.0
1001
ACAD
1000
TCW40_DEV_WIDTH
1002
{
1040
-3.0
1002
}
  0
LINE
  5
81FE
330
1F
100
AcDbEntity
  8
0
100
AcDbLine
 10
11.31046830731243
 20
9.974656349759476
 30
0.0
 11
11.31046830731243
 21
9.95042673144486
 31
0.0
1001
ACAD
1000
TCW40_DEV_WIDTH
1002
{
1040
-3.0
1002
}
  0
LINE
  5
81FF
330
1F
100
AcDbEntity
  8
0
100
AcDbLine
 10
11.31046830731243
 20
9.95042673144486
 30
0.0
 11
11.16502641696879
 21
9.95042673144486
 31
0.0
1001
ACAD
1000
TCW40_DEV_WIDTH
1002
{
1040
-3.0
1002
}
  0
LINE
  5
8200
330
1F
100
AcDbEntity
  8
0
100
AcDbLine
 10
11.16502641696879
 20
9.95042673144486
 30
0.0
 11
11.16502641696879
 21
9.974656349759476
 31
0.0
1001
ACAD
1000
TCW40_DEV_WIDTH
1002
{
1040
-3.0
1002
}
  0
LINE
  5
8201
330
1F
100
AcDbEntity
  8
0
100
AcDbLine
 10
10.9713826279063
 20
9.974656349759476
 30
0.0
 11
11.11682451824993
 21
9.974656349759476
 31
0.0
1001
ACAD
1000
TCW40_DEV_WIDTH
1002
{
1040
-3.0
1002
}
  0
LINE
  5
8202
330
1F
100
AcDbEntity
  8
0
100
AcDbLine
 10
11.11682451824993
 20
9.974656349759476
 30
0.0
 11
11.11682451824993
 21
9.95042673144486
 31
0.0
1001
ACAD
1000
TCW40_DEV_WIDTH
1002
{
1040
-3.0
1002
}
  0
LINE
  5
8203
330
1F
100
AcDbEntity
  8
0
100
AcDbLine
 10
11.11682451824993
 20
9.95042673144486
 30
0.0
 11
10.9713826279063
 21
9.95042673144486
 31
0.0
1001
ACAD
1000
TCW40_DEV_WIDTH
1002
{
1040
-3.0
1002
}
  0
LINE
  5
8204
330
1F
100
AcDbEntity
  8
0
100
AcDbLine
 10
10.9713826279063
 20
9.95042673144486
 30
0.0
 11
10.9713826279063
 21
9.974656349759476
 31
0.0
1001
ACAD
1000
TCW40_DEV_WIDTH
1002
{
1040
-3.0
1002
}
  0
LINE
  5
8205
330
1F
100
AcDbEntity
  8
0
100
AcDbLine
 10
10.7777388388438
 20
9.974656349759476
 30
0.0
 11
10.92318072918742
 21
9.974656349759476
 31
0.0
1001
ACAD
1000
TCW40_DEV_WIDTH
1002
{
1040
-3.0
1002
}
  0
LINE
  5
8206
330
1F
100
AcDbEntity
  8
0
100
AcDbLine
 10
10.92318072918742
 20
9.974656349759476
 30
0.0
 11
10.92318072918742
 21
9.95042673144486
 31
0.0
1001
ACAD
1000
TCW40_DEV_WIDTH
1002
{
1040
-3.0
1002
}
  0
LINE
  5
8207
330
1F
100
AcDbEntity
  8
0
100
AcDbLine
 10
10.92318072918742
 20
9.95042673144486
 30
0.0
 11
10.7777388388438
 21
9.95042673144486
 31
0.0
1001
ACAD
1000
TCW40_DEV_WIDTH
1002
{
1040
-3.0
1002
}
  0
LINE
  5
8208
330
1F
100
AcDbEntity
  8
0
100
AcDbLine
 10
10.7777388388438
 20
9.95042673144486
 30
0.0
 11
10.7777388388438
 21
9.974656349759476
 31
0.0
1001
ACAD
1000
TCW40_DEV_WIDTH
1002
{
1040
-3.0
1002
}
  0
ARC
  5
8209
330
1F
100
AcDbEntity
  8
0
100
AcDbCircle
 10
11.63905359285343
 20
6.633641966054163
 30
0.0
 40
1.399102369151787
100
AcDbArc
 50
61.4014436692385
 51
118.5213884935842
  0
LINE
  5
820A
330
1F
100
AcDbEntity
  8
0
100
AcDbLine
 10
10.97100069496703
 20
8.89830919933496
 30
0.0
 11
10.93165719496705
 21
8.89830919933496
 31
0.0
1001
ACAD
1000
TCW40_DEV_WIDTH
1002
{
1040
-3.0
1002
}
  0
LINE
  5
820B
330
1F
100
AcDbEntity
  8
0
100
AcDbLine
 10
10.93165719496705
 20
8.89830919933496
 30
0.0
 11
10.93165719496705
 21
8.563889449334965
 31
0.0
1001
ACAD
1000
TCW40_DEV_WIDTH
1002
{
1040
-3.0
1002
}
  0
LINE
  5
820C
330
1F
100
AcDbEntity
  8
0
100
AcDbLine
 10
10.93165719496705
 20
8.563889449334965
 30
0.0
 11
10.97100069496703
 21
8.563889449334965
 31
0.0
1001
ACAD
1000
TCW40_DEV_WIDTH
1002
{
1040
-3.0
1002
}
  0
LINE
  5
820D
330
1F
100
AcDbEntity
  8
0
100
AcDbLine
 10
12.30867969496704
 20
8.89830919933496
 30
0.0
 11
12.34802319496704
 21
8.89830919933496
 31
0.0
1001
ACAD
1000
TCW40_DEV_WIDTH
1002
{
1040
-3.0
1002
}
  0
LINE
  5
820E
330
1F
100
AcDbEntity
  8
0
100
AcDbLine
 10
12.34802319496704
 20
8.89830919933496
 30
0.0
 11
12.34802319496704
 21
8.563889449334965
 31
0.0
1001
ACAD
1000
TCW40_DEV_WIDTH
1002
{
1040
-3.0
1002
}
  0
LINE
  5
820F
330
1F
100
AcDbEntity
  8
0
100
AcDbLine
 10
12.34802319496704
 20
8.563889449334965
 30
0.0
 11
12.30867969496704
 21
8.563889449334965
 31
0.0
1001
ACAD
1000
TCW40_DEV_WIDTH
1002
{
1040
-3.0
1002
}
  0
ARC
  5
8210
330
1F
100
AcDbEntity
  8
0
100
AcDbCircle
 10
10.88308066723064
 20
7.660158314198614
 30
0.0
 40
0.0730609800328116
100
AcDbArc
 50
206.9781189136403
 51
293.9492141395134
  0
ARC
  5
8211
330
1F
100
AcDbEntity
  8
0
100
AcDbCircle
 10
11.63905359285343
 20
6.397580966054164
 30
0.0
 40
1.399102369151791
100
AcDbArc
 50
58.6527666810334
 51
121.2738881046906
  0
ARC
  5
8212
330
1F
100
AcDbEntity
  8
0
100
AcDbCircle
 10
12.39627202948538
 20
7.657728876637349
 30
0.0
 40
0.0715766128300249
100
AcDbArc
 50
245.7720549569943
 51
333.7374287802703
  0
ARC
  5
8213
330
1F
100
AcDbEntity
  8
0
100
AcDbCircle
 10
12.39121779034925
 20
9.171986010074197
 30
0.0
 40
0.0805068517863418
100
AcDbArc
 50
30.67433373590795
 51
92.74182562883032
  0
LINE
  5
8214
330
1F
100
AcDbEntity
  8
0
100
AcDbLine
 10
12.38736669496704
 20
9.252400699334963
 30
0.0
 11
10.85731369496705
 21
9.252400699334963
 31
0.0
  0
ARC
  5
8215
330
1F
100
AcDbEntity
  8
0
100
AcDbCircle
 10
10.85731369496705
 20
9.213057199334963
 30
0.0
 40
0.0393434999999993
100
AcDbArc
 50
90.0
 51
180.0000000000026
  0
LINE
  5
8216
330
1F
100
AcDbEntity
  8
0
100
AcDbLine
 10
11.25074869496706
 20
5.475424699334965
 30
0.0
 11
11.29009219496706
 21
5.337722449334961
 31
0.0
1001
ACAD
1000
TCW40_DEV_WIDTH
1002
{
1040
-3.0
1002
}
  0
LINE
  5
8217
330
1F
100
AcDbEntity
  8
0
100
AcDbLine
 10
11.29009219496706
 20
5.337722449334961
 30
0.0
 11
11.29009219496706
 21
5.278707199334959
 31
0.0
1001
ACAD
1000
TCW40_DEV_WIDTH
1002
{
1040
-3.0
1002
}
  0
LINE
  5
8218
330
1F
100
AcDbEntity
  8
0
100
AcDbLine
 10
11.13271819496705
 20
5.337722449334961
 30
0.0
 11
11.17206169496705
 21
5.475424699334965
 31
0.0
1001
ACAD
1000
TCW40_DEV_WIDTH
1002
{
1040
-3.0
1002
}
  0
LINE
  5
8219
330
1F
100
AcDbEntity
  8
0
100
AcDbLine
 10
11.25074869496706
 20
7.088508199334967
 30
0.0
 11
11.29009219496706
 21
7.226210449334963
 31
0.0
1001
ACAD
1000
TCW40_DEV_WIDTH
1002
{
1040
-3.0
1002
}
  0
LINE
  5
821A
330
1F
100
AcDbEntity
  8
0
100
AcDbLine
 10
11.29009219496706
 20
7.226210449334963
 30
0.0
 11
11.29009219496706
 21
7.285225699334965
 31
0.0
1001
ACAD
1000
TCW40_DEV_WIDTH
1002
{
1040
-3.0
1002
}
  0
LINE
  5
821B
330
1F
100
AcDbEntity
  8
0
100
AcDbLine
 10
11.13271819496705
 20
7.226210449334963
 30
0.0
 11
11.17206169496705
 21
7.088508199334967
 31
0.0
1001
ACAD
1000
TCW40_DEV_WIDTH
1002
{
1040
-3.0
1002
}
  0
LINE
  5
821C
330
1F
100
AcDbEntity
  8
0
100
AcDbLine
 10
11.80155769496704
 20
5.475424699334965
 30
0.0
 11
11.84090119496704
 21
5.337722449334961
 31
0.0
1001
ACAD
1000
TCW40_DEV_WIDTH
1002
{
1040
-3.0
1002
}
  0
LINE
  5
821D
330
1F
100
AcDbEntity
  8
0
100
AcDbLine
 10
11.84090119496704
 20
5.337722449334961
 30
0.0
 11
11.84090119496704
 21
5.278707199334959
 31
0.0
1001
ACAD
1000
TCW40_DEV_WIDTH
1002
{
1040
-3.0
1002
}
  0
LINE
  5
821E
330
1F
100
AcDbEntity
  8
0
100
AcDbLine
 10
11.68352719496705
 20
5.337722449334961
 30
0.0
 11
11.72287069496706
 21
5.475424699334965
 31
0.0
1001
ACAD
1000
TCW40_DEV_WIDTH
1002
{
1040
-3.0
1002
}
  0
LINE
  5
821F
330
1F
100
AcDbEntity
  8
0
100
AcDbLine
 10
11.80155769496704
 20
7.088508199334967
 30
0.0
 11
11.84090119496704
 21
7.226210449334963
 31
0.0
1001
ACAD
1000
TCW40_DEV_WIDTH
1002
{
1040
-3.0
1002
}
  0
LINE
  5
8220
330
1F
100
AcDbEntity
  8
0
100
AcDbLine
 10
11.84090119496704
 20
7.226210449334963
 30
0.0
 11
11.84090119496704
 21
7.285225699334965
 31
0.0
1001
ACAD
1000
TCW40_DEV_WIDTH
1002
{
1040
-3.0
1002
}
  0
LINE
  5
8221
330
1F
100
AcDbEntity
  8
0
100
AcDbLine
 10
11.68352719496705
 20
7.226210449334963
 30
0.0
 11
11.72287069496706
 21
7.088508199334967
 31
0.0
1001
ACAD
1000
TCW40_DEV_WIDTH
1002
{
1040
-3.0
1002
}
  0
LINE
  5
8222
330
1F
100
AcDbEntity
  8
0
100
AcDbLine
 10
12.33269494496704
 20
6.302453630440481
 30
0.0
 11
12.19499269496705
 21
6.381956061545999
 31
0.0
1001
ACAD
1000
TCW40_DEV_WIDTH
1002
{
1040
-3.0
1002
}
  0
LINE
  5
8223
330
1F
100
AcDbEntity
  8
0
100
AcDbLine
 10
12.19499269496705
 20
6.381956061545999
 30
0.0
 11
12.05729044496705
 21
6.302453630440481
 31
0.0
1001
ACAD
1000
TCW40_DEV_WIDTH
1002
{
1040
-3.0
1002
}
  0
LINE
  5
8224
330
1F
100
AcDbEntity
  8
0
100
AcDbLine
 10
12.05729044496705
 20
6.302453630440481
 30
0.0
 11
12.05729044496705
 21
6.143448768229447
 31
0.0
1001
ACAD
1000
TCW40_DEV_WIDTH
1002
{
1040
-3.0
1002
}
  0
LINE
  5
8225
330
1F
100
AcDbEntity
  8
0
100
AcDbLine
 10
12.05729044496705
 20
6.143448768229447
 30
0.0
 11
12.19499269496705
 21
6.06394633712393
 31
0.0
1001
ACAD
1000
TCW40_DEV_WIDTH
1002
{
1040
-3.0
1002
}
  0
LINE
  5
8226
330
1F
100
AcDbEntity
  8
0
100
AcDbLine
 10
12.19499269496705
 20
6.06394633712393
 30
0.0
 11
12.33269494496704
 21
6.143448768229447
 31
0.0
1001
ACAD
1000
TCW40_DEV_WIDTH
1002
{
1040
-3.0
1002
}
  0
LINE
  5
8227
330
1F
100
AcDbEntity
  8
0
100
AcDbLine
 10
12.33269494496704
 20
6.143448768229447
 30
0.0
 11
12.33269494496704
 21
6.302453630440481
 31
0.0
1001
ACAD
1000
TCW40_DEV_WIDTH
1002
{
1040
-3.0
1002
}
  0
LINE
  5
8228
330
1F
100
AcDbEntity
  8
0
100
AcDbLine
 10
12.33269494496704
 20
6.695888630440478
 30
0.0
 11
12.19499269496705
 21
6.775391061546002
 31
0.0
1001
ACAD
1000
TCW40_DEV_WIDTH
1002
{
1040
-3.0
1002
}
  0
LINE
  5
8229
330
1F
100
AcDbEntity
  8
0
100
AcDbLine
 10
12.19499269496705
 20
6.775391061546002
 30
0.0
 11
12.05729044496705
 21
6.695888630440478
 31
0.0
1001
ACAD
1000
TCW40_DEV_WIDTH
1002
{
1040
-3.0
1002
}
  0
LINE
  5
822A
330
1F
100
AcDbEntity
  8
0
100
AcDbLine
 10
12.05729044496705
 20
6.695888630440478
 30
0.0
 11
12.05729044496705
 21
6.536883768229451
 31
0.0
1001
ACAD
1000
TCW40_DEV_WIDTH
1002
{
1040
-3.0
1002
}
  0
LINE
  5
822B
330
1F
100
AcDbEntity
  8
0
100
AcDbLine
 10
12.05729044496705
 20
6.536883768229451
 30
0.0
 11
12.19499269496705
 21
6.457381337123933
 31
0.0
1001
ACAD
1000
TCW40_DEV_WIDTH
1002
{
1040
-3.0
1002
}
  0
LINE
  5
822C
330
1F
100
AcDbEntity
  8
0
100
AcDbLine
 10
12.19499269496705
 20
6.457381337123933
 30
0.0
 11
12.33269494496704
 21
6.536883768229444
 31
0.0
1001
ACAD
1000
TCW40_DEV_WIDTH
1002
{
1040
-3.0
1002
}
  0
LINE
  5
822D
330
1F
100
AcDbEntity
  8
0
100
AcDbLine
 10
12.33269494496704
 20
6.536883768229444
 30
0.0
 11
12.33269494496704
 21
6.695888630440478
 31
0.0
1001
ACAD
1000
TCW40_DEV_WIDTH
1002
{
1040
-3.0
1002
}
  0
LINE
  5
822E
330
1F
100
AcDbEntity
  8
0
100
AcDbLine
 10
12.32344602859456
 20
7.083983766083118
 30
0.0
 11
12.19499269496705
 21
7.158146332831272
 31
0.0
1001
ACAD
1000
TCW40_DEV_WIDTH
1002
{
1040
-3.0
1002
}
  0
LINE
  5
822F
330
1F
100
AcDbEntity
  8
0
100
AcDbLine
 10
12.19499269496705
 20
7.158146332831272
 30
0.0
 11
12.06653936133953
 21
7.083983766083118
 31
0.0
1001
ACAD
1000
TCW40_DEV_WIDTH
1002
{
1040
-3.0
1002
}
  0
LINE
  5
8230
330
1F
100
AcDbEntity
  8
0
100
AcDbLine
 10
12.06653936133953
 20
7.083983766083118
 30
0.0
 11
12.06653936133953
 21
6.935658632586811
 31
0.0
1001
ACAD
1000
TCW40_DEV_WIDTH
1002
{
1040
-3.0
1002
}
  0
LINE
  5
8231
330
1F
100
AcDbEntity
  8
0
100
AcDbLine
 10
12.06653936133953
 20
6.935658632586811
 30
0.0
 11
12.19499269496705
 21
6.861496065838659
 31
0.0
1001
ACAD
1000
TCW40_DEV_WIDTH
1002
{
1040
-3.0
1002
}
  0
LINE
  5
8232
330
1F
100
AcDbEntity
  8
0
100
AcDbLine
 10
12.19499269496705
 20
6.861496065838659
 30
0.0
 11
12.32344602859456
 21
6.935658632586811
 31
0.0
1001
ACAD
1000
TCW40_DEV_WIDTH
1002
{
1040
-3.0
1002
}
  0
LINE
  5
8233
330
1F
100
AcDbEntity
  8
0
100
AcDbLine
 10
12.32344602859456
 20
6.935658632586811
 30
0.0
 11
12.32344602859456
 21
7.083983766083118
 31
0.0
1001
ACAD
1000
TCW40_DEV_WIDTH
1002
{
1040
-3.0
1002
}
  0
LINE
  5
8234
330
1F
100
AcDbEntity
  8
0
100
AcDbLine
 10
12.33269494496704
 20
7.089323630440482
 30
0.0
 11
12.19499269496705
 21
7.168826061545999
 31
0.0
1001
ACAD
1000
TCW40_DEV_WIDTH
1002
{
1040
-3.0
1002
}
  0
LINE
  5
8235
330
1F
100
AcDbEntity
  8
0
100
AcDbLine
 10
12.19499269496705
 20
7.168826061545999
 30
0.0
 11
12.05729044496705
 21
7.089323630440482
 31
0.0
1001
ACAD
1000
TCW40_DEV_WIDTH
1002
{
1040
-3.0
1002
}
  0
LINE
  5
8236
330
1F
100
AcDbEntity
  8
0
100
AcDbLine
 10
12.05729044496705
 20
7.089323630440482
 30
0.0
 11
12.05729044496705
 21
6.930318768229447
 31
0.0
1001
ACAD
1000
TCW40_DEV_WIDTH
1002
{
1040
-3.0
1002
}
  0
LINE
  5
8237
330
1F
100
AcDbEntity
  8
0
100
AcDbLine
 10
12.05729044496705
 20
6.930318768229447
 30
0.0
 11
12.19499269496705
 21
6.85081633712393
 31
0.0
1001
ACAD
1000
TCW40_DEV_WIDTH
1002
{
1040
-3.0
1002
}
  0
LINE
  5
8238
330
1F
100
AcDbEntity
  8
0
100
AcDbLine
 10
12.19499269496705
 20
6.85081633712393
 30
0.0
 11
12.33269494496704
 21
6.930318768229447
 31
0.0
1001
ACAD
1000
TCW40_DEV_WIDTH
1002
{
1040
-3.0
1002
}
  0
LINE
  5
8239
330
1F
100
AcDbEntity
  8
0
100
AcDbLine
 10
12.33269494496704
 20
6.930318768229447
 30
0.0
 11
12.33269494496704
 21
7.089323630440482
 31
0.0
1001
ACAD
1000
TCW40_DEV_WIDTH
1002
{
1040
-3.0
1002
}
  0
LWPOLYLINE
  5
849F
330
1F
100
AcDbEntity
  8
0
100
AcDbPolyline
 90
        4
 70
     1
 43
0.0
 10
0.0
 20
0.0
 10
22.0
 20
0.0
 10
22.0
 20
17.0
 10
0.0
 20
17.0
  0
ENDSEC
  0
SECTION
  2
OBJECTS
  0
DICTIONARY
  5
C
330
0
100
AcDbDictionary
281
     1
  3
ACAD_ASSOCPERSSUBENTMANAGER
350
3F01
  3
ACAD_BACKGROUND
350
5499
  3
ACAD_COLOR
350
5D
  3
ACAD_GROUP
350
D
  3
ACAD_LAYOUT
350
1A
  3
ACAD_MATERIAL
350
33
  3
ACAD_MLEADERSTYLE
350
82
  3
ACAD_MLINESTYLE
350
17
  3
ACAD_PERSUBENTMGR
350
58ED
  3
ACAD_PLOTSETTINGS
350
19
  3
ACAD_PLOTSTYLENAME
350
E
  3
ACAD_SCALELIST
350
60
  3
ACAD_TABLESTYLE
350
5E
  3
ACAD_VISUALSTYLE
350
4C
  3
ACAD_WIPEOUT_VARS
350
5C61
  3
ACADE_WIRETYPE
350
226D
  3
ACDB_RECOMPOSE_DATA
350
86D2
  3
AcDbVariableDictionary
350
8A
  3
AEC_PROPERTY_SET_DEFS
350
2A20
  3
ASE_INDEX_DICTIONARY
350
2834
  3
BNS_VARIABLES
350
7B9D
  3
DWGPROPS
350
871A
  0
DICTIONARY
  5
181
330
8
100
AcDbDictionary
280
     1
281
     1
  0
DICTIONARY
  5
107
330
2
100
AcDbDictionary
280
     1
281
     1
  3
ACAD_LAYERSTATES
360
108
  0
DICTIONARY
  5
17C
330
10
100
AcDbDictionary
280
     1
281
     1
  3
ADSK_XREC_LAYER_RECONCILED
360
284E
  0
DICTIONARY
  5
7139
330
7138
100
AcDbDictionary
280
     1
281
     1
  0
DICTIONARY
  5
17A
330
1F
100
AcDbDictionary
280
     1
281
     1
  3
ACAD_SORTENTS
360
17B
  0
ACAD_PROXY_OBJECT
  5
3F01
102
{ACAD_REACTORS
330
C
102
}
330
C
100
AcDbProxyObject
 90
      499
 91
      519
 95
   983063
 70
     0
 93
       73
310
40503902218040002A7F
 94
        0
1001
ACAD
1000
AcRTDxfName
1000
ACDBASSOCPERSSUBENTMANAGER
  0
DICTIONARY
  5
5499
102
{ACAD_REACTORS
330
C
102
}
330
C
100
AcDbDictionary
281
     1
  0
DICTIONARY
  5
5D
102
{ACAD_REACTORS
330
C
102
}
330
C
100
AcDbDictionary
281
     1
  0
DICTIONARY
  5
D
102
{ACAD_REACTORS
330
C
102
}
330
C
100
AcDbDictionary
281
     1
  3
*A1
350
334E
  3
*A10
350
33CC
  3
*A11
350
33E1
  3
*A12
350
33F6
  3
*A13
350
340B
  3
*A14
350
3420
  3
*A15
350
3435
  3
*A16
350
344A
  3
*A2
350
345F
  3
*A3
350
3474
  3
*A4
350
3489
  3
*A5
350
3363
  3
*A6
350
3378
  3
*A7
350
338D
  3
*A8
350
33A2
  3
*A9
350
33B7
  0
DICTIONARY
  5
1A
102
{ACAD_REACTORS
330
C
102
}
330
C
100
AcDbDictionary
281
     1
  3
Layout1
350
1E
  3
Layout2
350
26
  3
Model
350
22
  0
DICTIONARY
  5
33
102
{ACAD_REACTORS
330
C
102
}
330
C
100
AcDbDictionary
281
     1
  3
ByBlock
350
3C
  3
ByLayer
350
34
  3
Global
350
44
  0
DICTIONARY
  5
82
102
{ACAD_REACTORS
330
C
102
}
330
C
100
AcDbDictionary
281
     1
  3
Standard
350
83
  0
DICTIONARY
  5
17
102
{ACAD_REACTORS
330
C
102
}
330
C
100
AcDbDictionary
281
     1
  3
Standard
350
18
  0
ACDBPERSSUBENTMANAGER
  5
58ED
102
{ACAD_REACTORS
330
C
102
}
330
C
100
AcDbPersSubentManager
 90
        2
 90
        0
 90
        2
 90
      390
 90
        0
 90
        0
  0
DICTIONARY
  5
19
102
{ACAD_REACTORS
330
C
102
}
330
C
100
AcDbDictionary
281
     1
  0
ACDBDICTIONARYWDFLT
  5
E
102
{ACAD_REACTORS
330
C
102
}
330
C
100
AcDbDictionary
281
     1
  3
Normal
350
F
100
AcDbDictionaryWithDefault
340
F
  0
DICTIONARY
  5
60
102
{ACAD_REACTORS
330
C
102
}
330
C
100
AcDbDictionary
281
     1
  3
A0
350
61
  3
A1
350
62
  3
A2
350
63
  3
A3
350
64
  3
A4
350
65
  3
A5
350
66
  3
A6
350
67
  3
A7
350
68
  3
A8
350
69
  3
A9
350
6A
  3
B0
350
6B
  3
B1
350
6C
  3
B2
350
6D
  3
B3
350
6E
  3
B4
350
6F
  3
B5
350
70
  3
B6
350
71
  3
B7
350
72
  3
B8
350
73
  3
B9
350
74
  3
C0
350
75
  3
C1
350
76
  3
C2
350
77
  3
C3
350
78
  3
C4
350
79
  3
C5
350
7A
  3
C6
350
7B
  3
C7
350
7C
  3
C8
350
7D
  3
C9
350
7E
  3
D0
350
7F
  3
D1
350
80
  3
D2
350
81
  0
DICTIONARY
  5
5E
102
{ACAD_REACTORS
330
C
102
}
330
C
100
AcDbDictionary
281
     1
  3
Standard
350
5F
  0
DICTIONARY
  5
4C
102
{ACAD_REACTORS
330
C
102
}
330
C
100
AcDbDictionary
281
     1
  3
2dWireframe
350
52
  3
3D Hidden
350
54
  3
3dWireframe
350
53
  3
Basic
350
51
  3
Brighten
350
58
  3
ColorChange
350
5C
  3
Conceptual
350
55
  3
Dim
350
57
  3
EdgeColorOff
350
2848
  3
Facepattern
350
5B
  3
Flat
350
4D
  3
FlatWithEdges
350
4E
  3
Gouraud
350
4F
  3
GouraudWithEdges
350
50
  3
Hidden
350
2840
  3
JitterOff
350
2846
  3
Linepattern
350
5A
  3
OverhangOff
350
2847
  3
Realistic
350
56
  3
Shaded
350
2845
  3
Shaded with edges
350
2844
  3
Shades of Gray
350
2841
  3
Sketchy
350
2842
  3
Thicken
350
59
  3
Wireframe
350
283F
  3
X-Ray
350
2843
  0
WIPEOUTVARIABLES
  5
5C61
102
{ACAD_REACTORS
330
C
102
}
330
C
100
AcDbWipeoutVariables
 70
     1
  0
DICTIONARY
  5
226D
102
{ACAD_REACTORS
330
C
102
}
330
C
100
AcDbDictionary
281
     1
  3
CURRENT_WIRELAY
350
226E
  0
XRECORD
  5
86D2
102
{ACAD_REACTORS
330
C
102
}
330
C
100
AcDbXrecord
280
     1
 90
        1
330
5F
  0
DICTIONARY
  5
8A
102
{ACAD_REACTORS
330
C
102
}
330
C
100
AcDbDictionary
281
     1
  3
CANNOSCALE
350
8E
  3
CMLEADERSTYLE
350
8C
  3
CTABLESTYLE
350
8B
  3
DIMASSOC
350
18F
  3
INDEXCTL
350
18E
  3
LAYEREVAL
350
217D
  3
LAYERNOTIFY
350
217E
  3
LIGHTINGUNITS
350
8F
  3
MSLTSCALE
350
8D
  3
SORTENTS
350
18D
  3
XCLIPFRAME
350
8715
  0
DICTIONARY
  5
2A20
102
{ACAD_REACTORS
330
C
102
}
330
C
100
AcDbDictionary
281
     1
  0
DICTIONARY
  5
2834
102
{ACAD_REACTORS
330
C
102
}
330
C
100
AcDbDictionary
281
     1
  3
ASEBlockHierarchyIndexRecord
350
2835
1001
DCO15
1040
1674887783.539
  0
DICTIONARY
  5
7B9D
102
{ACAD_REACTORS
330
C
102
}
330
C
100
AcDbDictionary
281
     1
  3
ACET-OVERKILL-FUZZ
350
7B9E
  3
ACET-OVERKILL-NO-ENDTOEND
350
7BA1
  3
ACET-OVERKILL-NO-PARTIAL
350
7BA0
  3
ACET-OVERKILL-NO-PLINES
350
7B9F
  0
XRECORD
  5
871A
102
{ACAD_REACTORS
330
C
102
}
330
C
100
AcDbXrecord
280
     1
  1
DWGPROPS COOKIE
  2

  3

  4

  6

  7

  8
dan
  9

300
Drawing Description 1=LINE 1 LINE 2 LINE 3
301
Drawing Description 2=
302
Drawing Description 3=
303
Project Code=
304
Installation Code=
305
Location Code=
306
Sheet=A02
307
Drawing=
308
Section=A
309
Sub-Section=12
 40
1.77557630787037
 41
2455646.34385588
 42
2456008.635571586
  1

 90
       10
  0
DICTIONARY
  5
108
102
{ACAD_REACTORS
330
107
102
}
330
107
100
AcDbDictionary
281
     1
  0
XRECORD
  5
284E
102
{ACAD_REACTORS
330
17C
102
}
330
17C
100
AcDbXrecord
280
     1
290
     1
  0
SORTENTSTABLE
  5
17B
102
{ACAD_REACTORS
330
17A
102
}
330
17A
100
AcDbSortentsTable
330
1F
331
80B8
  5
8196
331
8042
  5
8218
331
8081
  5
81D9
331
81EC
  5
7840
331
822B
  5
72C3
331
80C0
  5
818E
331
813F
  5
8157
331
8089
  5
81C3
331
804A
  5
8210
331
8176
  5
8097
331
81B5
  5
8040
331
81F4
  5
7838
331
8233
  5
72BE
331
8147
  5
80F0
331
80C8
  5
8186
331
8091
  5
81BD
331
8052
  5
8208
331
817E
  5
808E
331
81BD
  5
8038
331
81FC
  5
7830
331
81C5
  5
8030
331
814F
  5
80EA
331
80D0
  5
817E
331
805A
  5
8200
331
8186
  5
8085
331
8204
  5
7828
331
818E
  5
8068
331
72E1
  5
7815
331
7330
  5
7C42
331
77D5
  5
80CA
331
787C
  5
81C7
331
736F
  5
7E40
331
72E9
  5
781D
331
758E
  5
8073
331
77DD
  5
80D2
331
7377
  5
7EB0
331
7596
  5
807F
331
77E5
  5
80DA
331
7348
  5
7CBF
331
72C2
  5
77CB
331
759E
  5
8091
331
7387
  5
804C
331
75A6
  5
809E
331
8099
  5
81B5
331
80D8
  5
8176
331
8062
  5
81F8
331
8023
  5
8235
331
81CD
  5
7C44
331
820C
  5
7368
331
8157
  5
81CE
331
80A1
  5
81AD
331
80E0
  5
816E
331
806A
  5
81F0
331
8196
  5
8063
331
802B
  5
822F
331
81D5
  5
7A8B
331
8214
  5
735C
331
815F
  5
80BC
331
80A9
  5
81A5
331
80E8
  5
8166
331
8072
  5
81E8
331
819E
  5
8059
331
8033
  5
8227
331
81DD
  5
7849
331
821C
  5
7326
331
8167
  5
80B4
331
80B1
  5
819D
331
80F0
  5
815E
331
807A
  5
81E0
331
81A6
  5
8051
331
803B
  5
821F
331
81E5
  5
7845
331
8224
  5
72D2
331
816F
  5
80A1
331
81AE
  5
8049
331
7350
  5
7CCF
331
7311
  5
7A88
331
72CA
  5
77DA
331
728B
  5
7329
331
77FD
  5
813F
331
75AE
  5
80AF
331
7358
  5
7D28
331
7319
  5
7A97
331
72D2
  5
77E8
331
7293
  5
7330
331
7805
  5
8147
331
7360
  5
7D38
331
7321
  5
7BAB
331
72DA
  5
7806
331
729B
  5
7348
331
77CE
  5
80C3
331
7329
  5
7BC7
331
80B9
  5
8195
331
8043
  5
8217
331
8082
  5
81D8
331
81ED
  5
7839
331
822C
  5
72CC
331
80C1
  5
818D
331
8140
  5
8158
331
808A
  5
81C4
331
804B
  5
820F
331
8177
  5
8098
331
81B6
  5
8041
331
8234
  5
7285
331
81F5
  5
7831
331
81BE
  5
8039
331
80C9
  5
8185
331
8148
  5
80F1
331
8053
  5
8207
331
8092
  5
81BC
331
817F
  5
808F
331
81FD
  5
7829
331
80D1
  5
817D
331
805B
  5
81FF
331
8187
  5
8075
331
81C6
  5
8031
331
8205
  5
7821
331
818F
  5
8069
331
7368
  5
7D53
331
72E2
  5
7816
331
72AB
  5
7359
331
77D6
  5
80CB
331
758F
  5
8072
331
7370
  5
7E42
331
72EA
  5
781E
331
77DE
  5
80D3
331
7378
  5
8023
331
727C
  5
72E2
331
77E6
  5
80DB
331
759F
  5
8092
331
7349
  5
7CC1
331
72C3
  5
77CC
331
7AFD
  5
8236
331
75A7
  5
809F
331
8150
  5
80E9
331
809A
  5
81B4
331
80D9
  5
8175
331
8063
  5
81F7
331
81CE
  5
7BB8
331
820D
  5
7363
331
8158
  5
81CF
331
80A2
  5
81AC
331
80E1
  5
816D
331
802C
  5
822E
331
806B
  5
81EF
331
8197
  5
8064
331
81D6
  5
7A89
331
8215
  5
735D
331
8160
  5
80BD
331
80AA
  5
81A4
331
80E9
  5
8165
331
8034
  5
8226
331
8073
  5
81E7
331
819F
  5
805A
331
81DE
  5
784A
331
821D
  5
7327
331
8168
  5
80B3
331
80B2
  5
819C
331
80F1
  5
815D
331
803C
  5
821E
331
807B
  5
81DF
331
81A7
  5
8052
331
81E6
  5
7846
331
8225
  5
72D3
331
81AF
  5
8042
331
7388
  5
804D
331
7351
  5
7CD1
331
72CB
  5
77DB
331
728C
  5
732A
331
77FE
  5
8140
331
7359
  5
7D2A
331
731A
  5
7A98
331
72D3
  5
77E9
331
7806
  5
8148
331
7361
  5
7D3A
331
7322
  5
7BAC
331
72DB
  5
7807
331
729C
  5
7349
331
780E
  5
8152
331
77CF
  5
80C4
331
732A
  5
7BC8
331
80BA
  5
8194
331
8044
  5
8216
331
8083
  5
81D7
331
8170
  5
80A4
331
81EE
  5
783A
331
822D
  5
72CD
331
80C2
  5
818C
331
8141
  5
814F
331
804C
  5
820E
331
808B
  5
81C5
331
8178
  5
8099
331
81B7
  5
803A
331
81F6
  5
7832
331
8235
  5
728E
331
81BF
  5
8032
331
80CA
  5
8184
331
8149
  5
80F2
331
8054
  5
8206
331
8093
  5
81BB
331
8180
  5
8090
331
81FE
  5
782A
331
80D2
  5
817C
331
805C
  5
81FE
331
8188
  5
8076
331
81C7
  5
802A
331
8206
  5
7822
331
7369
  5
7D55
331
72E3
  5
7817
331
7332
  5
7CAF
331
72AC
  5
735A
331
77D7
  5
80CC
331
7590
  5
8074
331
7371
  5
7E44
331
72EB
  5
781F
331
72B4
  5
7361
331
77DF
  5
80D4
331
7598
  5
8086
331
7379
  5
8026
331
727D
  5
72E3
331
77E7
  5
80DC
331
75A0
  5
8093
331
730B
  5
7A62
331
734A
  5
7CC3
331
72C4
  5
77D4
331
7285
  5
7315
331
7AFE
  5
8237
331
8151
  5
80E8
331
809B
  5
81B3
331
80DA
  5
8174
331
8064
  5
81F6
331
8190
  5
806A
331
81CF
  5
7BB9
331
820E
  5
7364
331
8159
  5
81D0
331
80A3
  5
81AB
331
80E2
  5
816C
331
802D
  5
822D
331
806C
  5
81EE
331
8198
  5
8065
331
81D7
  5
787B
331
8216
  5
7353
331
8161
  5
80BA
331
80AB
  5
81A3
331
80EA
  5
8164
331
8035
  5
8225
331
8074
  5
81E6
331
81A0
  5
805B
331
81DF
  5
784B
331
821E
  5
7325
331
8169
  5
80B2
331
80B3
  5
819B
331
80F2
  5
8159
331
803D
  5
821D
331
807C
  5
81DE
331
81A8
  5
8053
331
81E7
  5
7847
331
8226
  5
72D4
331
75A8
  5
80A0
331
7352
  5
7CD3
331
7313
  5
7A8C
331
72CC
  5
77E2
331
728D
  5
732B
331
77FF
  5
8141
331
75B0
  5
80B0
331
735A
  5
7D2C
331
731B
  5
7AA0
331
72D4
  5
7800
331
7295
  5
7335
331
7807
  5
8149
331
7362
  5
7D3C
331
72DC
  5
780F
331
729D
  5
734A
331
780F
  5
8153
331
8171
  5
80A7
331
81B0
  5
8043
331
80BB
  5
8193
331
8045
  5
8215
331
8084
  5
81D6
331
81EF
  5
783B
331
822E
  5
729D
331
8179
  5
809A
331
81B8
  5
803B
331
8142
  5
8150
331
80C3
  5
818B
331
808C
  5
81C0
331
804D
  5
820D
331
81F7
  5
7833
331
8236
  5
7298
331
8181
  5
8080
331
81C0
  5
8033
331
814A
  5
80EF
331
80CB
  5
8183
331
8094
  5
81BA
331
8055
  5
8205
331
81FF
  5
782B
331
8189
  5
8077
331
80D3
  5
817B
331
805D
  5
81FD
331
8207
  5
7823
331
77D0
  5
80C5
331
736A
  5
7D57
331
72E4
  5
7818
331
7333
  5
7CB1
331
77D8
  5
80CD
331
7372
  5
7E46
331
72EC
  5
7820
331
72B5
  5
7362
331
77E0
  5
80D5
331
7599
  5
8087
331
737A
  5
8027
331
72FC
  5
7841
331
727E
  5
72E4
331
72BD
  5
759C
331
77E8
  5
80DD
331
75A1
  5
8094
331
730C
  5
7A70
331
734B
  5
7CC5
331
72C5
  5
77D5
331
7286
  5
7316
331
7AFF
  5
8238
331
81C8
  5
802B
331
8191
  5
806B
331
8152
  5
80E7
331
809C
  5
81B2
331
80DB
  5
8173
331
8026
  5
8234
331
8065
  5
81F5
331
81D0
  5
7BB7
331
820F
  5
7365
331
8199
  5
8060
331
815A
  5
81CB
331
80A4
  5
81AA
331
80E3
  5
816B
331
802E
  5
822C
331
806D
  5
81ED
331
81D8
  5
787C
331
8217
  5
7354
331
81A1
  5
805C
331
8162
  5
80B9
331
80AC
  5
81A2
331
80EB
  5
8163
331
8036
  5
8224
331
8075
  5
81E5
331
81E0
  5
784C
331
821F
  5
72ED
331
81A9
  5
8054
331
816A
  5
80B1
331
80B4
  5
819A
331
80F3
  5
815A
331
803E
  5
821C
331
807D
  5
81DD
331
8227
  5
72DC
331
7353
  5
7CD5
331
7314
  5
7A94
331
72CD
  5
77E3
331
728E
  5
732C
331
735B
  5
7D2E
331
731C
  5
7AA1
331
72D5
  5
7801
331
7296
  5
733E
331
7800
  5
8142
331
7363
  5
7D3E
331
7324
  5
7BB4
331
72DD
  5
7810
331
7808
  5
814A
331
732C
  5
7BC9
331
7810
  5
8154
331
81E8
  5
7848
331
80BC
  5
8192
331
8046
  5
8214
331
8085
  5
81D5
331
8172
  5
80A8
331
81B1
  5
8044
331
81F0
  5
783C
331
822F
  5
729E
331
80C4
  5
818A
331
8143
  5
8151
331
808D
  5
81C1
331
804E
  5
820C
331
817A
  5
809B
331
81B9
  5
803C
331
8237
  5
7299
331
81F8
  5
7834
331
81C1
  5
8034
331
814B
  5
80EE
331
80CC
  5
8182
331
8095
  5
81B9
331
8056
  5
8204
331
8182
  5
8081
331
8200
  5
782C
331
80D4
  5
817A
331
805E
  5
81FC
331
818A
  5
8078
331
77D1
  5
80C6
331
736B
  5
7D59
331
72E5
  5
7819
331
7334
  5
7CB3
331
758A
  5
8070
331
77D9
  5
80CE
331
7880
  5
81C8
331
7373
  5
7E48
331
7592
  5
807B
331
77E1
  5
80D6
331
737B
  5
8028
331
72FD
  5
7842
331
72BE
  5
77C7
331
759A
  5
8088
331
77E9
  5
80DE
331
730D
  5
7A72
331
734C
  5
7CC7
331
72C6
  5
77D6
331
7287
  5
7322
331
75A2
  5
8095
331
81C9
  5
802C
331
8208
  5
7824
331
8153
  5
80E6
331
809D
  5
81B1
331
80DC
  5
8172
331
8066
  5
81F4
331
8192
  5
806C
331
8027
  5
8233
331
81D1
  5
7AA3
331
8210
  5
735E
331
815B
  5
81CC
331
80A5
  5
81A9
331
80E4
  5
816A
331
806E
  5
81EC
331
819A
  5
8061
331
802F
  5
822B
331
81D9
  5
7A43
331
8218
  5
734B
331
8163
  5
80B8
331
80AD
  5
81A1
331
80EC
  5
8162
331
8076
  5
81E4
331
81A2
  5
805D
331
8037
  5
8223
331
81E1
  5
7879
331
8220
  5
72EE
331
816B
  5
80E1
331
80B5
  5
8199
331
80F4
  5
815B
331
807E
  5
81DC
331
81AA
  5
8055
331
803F
  5
821B
331
75AA
  5
80AB
331
7354
  5
7CD8
331
7315
  5
7A95
331
72CE
  5
77E4
331
728F
  5
732D
331
7801
  5
8143
331
735C
  5
7D30
331
72D6
  5
7802
331
7297
  5
733F
331
7809
  5
814B
331
77CA
  5
80BF
331
749B
  5
805E
331
7364
  5
7D40
331
7325
  5
7BB5
331
72DE
  5
7811
331
729F
  5
7355
331
7811
  5
8155
331
732D
  5
7BCA
331
81E9
  5
783D
331
8228
  5
72C0
331
80BD
  5
8191
331
8047
  5
8213
331
8086
  5
81D4
331
8173
  5
80A9
331
81B2
  5
8045
331
8230
  5
72A0
331
81F1
  5
7835
331
81BA
  5
803D
331
80C5
  5
8189
331
8144
  5
80F4
331
808E
  5
81C2
331
804F
  5
820B
331
817B
  5
808B
331
81F9
  5
782D
331
8238
  5
729A
331
80CD
  5
8181
331
814C
  5
80ED
331
8057
  5
8203
331
8096
  5
81B8
331
8183
  5
8082
331
81C2
  5
8035
331
8201
  5
7825
331
80D5
  5
8179
331
805F
  5
81FB
331
818B
  5
8079
331
77D2
  5
80C7
331
736C
  5
7E36
331
72E6
  5
781A
331
7335
  5
7CB5
331
77DA
  5
80CF
331
7593
  5
807C
331
7374
  5
7EAD
331
7278
  5
72DE
331
77E2
  5
80D7
331
759B
  5
8089
331
737C
  5
8029
331
72BF
  5
77C8
331
7280
  5
72EF
331
77EA
  5
80DF
331
734D
  5
7CC9
331
72C7
  5
77D7
331
81CA
  5
802D
331
8209
  5
7369
331
8154
  5
80E5
331
809E
  5
81B0
331
80DD
  5
8171
331
8028
  5
8232
331
8067
  5
81F3
331
8193
  5
806D
331
81D2
  5
7AA4
331
8211
  5
735F
331
815C
  5
81CD
331
80A6
  5
81A8
331
80E5
  5
8169
331
8030
  5
822A
331
806F
  5
81EB
331
819B
  5
8062
331
81DA
  5
7A4C
331
8219
  5
7333
331
8164
  5
80B7
331
80AE
  5
81A0
331
80ED
  5
8161
331
8038
  5
8222
331
8077
  5
81E3
331
81A3
  5
804E
331
81E2
  5
787A
331
8221
  5
72EC
331
816C
  5
80E2
331
80B6
  5
8198
331
80F5
  5
815C
331
807F
  5
81DB
331
81AB
  5
8046
331
7288
  5
7323
331
7B49
  5
8239
331
75AB
  5
80AC
331
7355
  5
7CDA
331
72CF
  5
77E5
331
7802
  5
8144
331
735D
  5
7D32
331
731E
  5
7BA8
331
72D7
  5
7803
331
780A
  5
814C
331
77CB
  5
80C0
331
749C
  5
805F
331
7365
  5
7D44
331
7326
  5
7BB6
331
72A0
  5
7356
331
72DF
  5
7813
331
74BC
  5
806F
331
732E
  5
7C38
331
8040
  5
821A
331
81EA
  5
783E
331
8229
  5
72C1
331
80BE
  5
8190
331
8048
  5
8212
331
8087
  5
81CA
331
8174
  5
80AA
331
81B3
  5
803E
331
81F2
  5
7836
331
8231
  5
72BB
331
80C6
  5
8188
331
8145
  5
80F5
331
808F
  5
81BF
331
8050
  5
820A
331
817C
  5
808C
331
81BB
  5
8036
331
81FA
  5
782E
331
8239
  5
729B
331
80CE
  5
8180
331
814D
  5
80EC
331
8058
  5
8202
331
8097
  5
81B7
331
8184
  5
8083
331
81C3
  5
802E
331
8202
  5
7826
331
80D6
  5
8178
331
818C
  5
807A
331
77D3
  5
80C8
331
758C
  5
8071
331
736D
  5
7E38
331
72E7
  5
781B
331
77DB
  5
80D0
331
7594
  5
807D
331
7375
  5
7EAE
331
733E
  5
7CB7
331
7279
  5
72DF
331
77E3
  5
80D8
331
759C
  5
808A
331
7346
  5
7CBB
331
72C0
  5
77C9
331
7281
  5
72F0
331
77EB
  5
80E0
331
75A4
  5
809C
331
7385
  5
804A
331
730F
  5
7A74
331
734E
  5
7CCB
331
8060
  5
81FA
331
81CB
  5
7CAB
331
820A
  5
7366
331
8155
  5
81D3
331
809F
  5
81AF
331
80DE
  5
8170
331
8029
  5
8231
331
8068
  5
81F2
331
8194
  5
806E
331
81D3
  5
7AA2
331
8212
  5
7360
331
815D
  5
80BE
331
80A7
  5
81A7
331
80E6
  5
8168
331
8031
  5
8229
331
8070
  5
81EA
331
819C
  5
8057
331
81DB
  5
7A4D
331
821A
  5
7334
331
8165
  5
80B6
331
80AF
  5
819F
331
80EE
  5
8160
331
8039
  5
8221
331
8078
  5
81E2
331
81A4
  5
804F
331
81E3
  5
7843
331
8222
  5
72CF
331
816D
  5
80E3
331
80B7
  5
8197
331
81AC
  5
8047
331
72C8
  5
77D8
331
7289
  5
7324
331
75AC
  5
80AD
331
738D
  5
8056
331
7356
  5
7CDC
331
72D0
  5
77E6
331
7291
  5
732E
331
7803
  5
8145
331
735E
  5
7D34
331
731F
  5
7BA9
331
72D8
  5
7804
331
7299
  5
7346
331
780B
  5
814D
331
77CC
  5
80C1
331
7366
  5
7D46
331
72A1
  5
7357
331
732F
  5
7C40
331
8041
  5
8219
331
8080
  5
81DA
331
81EB
  5
783F
331
822A
  5
72C2
331
8175
  5
8096
331
81B4
  5
803F
331
80BF
  5
818F
331
813E
  5
8156
331
8088
  5
81C9
331
8049
  5
8211
331
81F3
  5
7837
331
8232
  5
72BC
331
817D
  5
808D
331
81BC
  5
8037
331
8146
  5
80F3
331
80C7
  5
8187
331
8090
  5
81BE
331
8051
  5
8209
331
81FB
  5
782F
331
8185
  5
8084
331
81C4
  5
802F
331
814E
  5
80EB
331
80CF
  5
817F
331
8059
  5
8201
331
8203
  5
7827
331
818D
  5
8067
331
80D7
  5
8177
331
72E0
  5
7814
331
77D4
  5
80C9
331
787B
  5
81C6
331
736E
  5
7E3A
331
72E8
  5
781C
331
77DC
  5
80D1
331
7595
  5
807E
331
7376
  5
7EAF
331
733F
  5
7CB9
331
727A
  5
72E0
331
77E4
  5
80D9
331
797B
  5
81D1
331
7347
  5
7CBD
331
72C1
  5
77CA
331
7282
  5
72F4
331
75A5
  5
809D
331
7386
  5
804B
331
734F
  5
7CCD
331
8098
  5
81B6
331
8061
  5
81F9
331
81CC
  5
7CAD
331
820B
  5
7367
331
8195
  5
8066
331
8156
  5
81D2
331
80A0
  5
81AE
331
80DF
  5
816F
331
802A
  5
8230
331
8069
  5
81F1
331
81D4
  5
7A8A
331
8213
  5
735B
331
819D
  5
8058
331
815E
  5
80BB
331
80A8
  5
81A6
331
80E7
  5
8167
331
8032
  5
8228
331
8071
  5
81E9
331
81DC
  5
7A61
331
821B
  5
7331
331
81A5
  5
8050
331
8166
  5
80B5
331
80B0
  5
819E
331
80EF
  5
815F
331
803A
  5
8220
331
8079
  5
81E1
331
81E4
  5
7844
331
8223
  5
72D1
331
81AD
  5
8048
331
816E
  5
80E4
331
7310
  5
7A76
331
72C9
  5
77D9
331
77FC
  5
813E
331
7318
  5
7A96
331
7357
  5
7CE0
331
72D1
  5
77E7
331
7292
  5
732F
331
75AD
  5
80AE
331
735F
  5
7D36
331
7320
  5
7BAA
331
72D9
  5
7805
331
729A
  5
7347
331
7804
  5
8146
331
780C
  5
814E
331
7328
  5
7BC6
331
7367
  5
7D48
331
72A2
  5
7358
331
77CD
  5
80C2
  0
GROUP
  5
334E
102
{ACAD_REACTORS
330
D
102
}
330
D
100
AcDbGroup
300

 70
     1
 71
     1
  0
GROUP
  5
33CC
102
{ACAD_REACTORS
330
D
102
}
330
D
100
AcDbGroup
300

 70
     1
 71
     1
  0
GROUP
  5
33E1
102
{ACAD_REACTORS
330
D
102
}
330
D
100
AcDbGroup
300

 70
     1
 71
     1
  0
GROUP
  5
33F6
102
{ACAD_REACTORS
330
D
102
}
330
D
100
AcDbGroup
300

 70
     1
 71
     1
  0
GROUP
  5
340B
102
{ACAD_REACTORS
330
D
102
}
330
D
100
AcDbGroup
300

 70
     1
 71
     1
  0
GROUP
  5
3420
102
{ACAD_REACTORS
330
D
102
}
330
D
100
AcDbGroup
300

 70
     1
 71
     1
  0
GROUP
  5
3435
102
{ACAD_REACTORS
330
D
102
}
330
D
100
AcDbGroup
300

 70
     1
 71
     1
  0
GROUP
  5
344A
102
{ACAD_REACTORS
330
D
102
}
330
D
100
AcDbGroup
300

 70
     1
 71
     1
  0
GROUP
  5
345F
102
{ACAD_REACTORS
330
D
102
}
330
D
100
AcDbGroup
300

 70
     1
 71
     1
  0
GROUP
  5
3474
102
{ACAD_REACTORS
330
D
102
}
330
D
100
AcDbGroup
300

 70
     1
 71
     1
  0
GROUP
  5
3489
102
{ACAD_REACTORS
330
D
102
}
330
D
100
AcDbGroup
300

 70
     1
 71
     1
  0
GROUP
  5
3363
102
{ACAD_REACTORS
330
D
102
}
330
D
100
AcDbGroup
300

 70
     1
 71
     1
  0
GROUP
  5
3378
102
{ACAD_REACTORS
330
D
102
}
330
D
100
AcDbGroup
300

 70
     1
 71
     1
  0
GROUP
  5
338D
102
{ACAD_REACTORS
330
D
102
}
330
D
100
AcDbGroup
300

 70
     1
 71
     1
  0
GROUP
  5
33A2
102
{ACAD_REACTORS
330
D
102
}
330
D
100
AcDbGroup
300

 70
     1
 71
     1
  0
GROUP
  5
33B7
102
{ACAD_REACTORS
330
D
102
}
330
D
100
AcDbGroup
300

 70
     1
 71
     1
  0
LAYOUT
  5
1E
102
{ACAD_XDICTIONARY
360
871B
102
}
102
{ACAD_REACTORS
330
1A
102
}
330
1A
100
AcDbPlotSettings
  1

  2
Microsoft Office Document Image Writer
  4

  6

 40
0.0
 41
0.0
 42
0.0
 43
0.0
 44
0.0
 45
0.0
 46
0.0
 47
0.0
 48
0.0
 49
0.0
140
0.0
141
0.0
142
1.0
143
1.0
 70
   688
 72
     0
 73
     0
 74
     5
  7
monochromeII.ctb
 75
    16
147
1.0
148
0.0
149
0.0
100
AcDbLayout
  1
Layout1
 70
     1
 71
     1
 10
0.0
 20
0.0
 11
12.0
 21
9.0
 12
0.0
 22
0.0
 32
0.0
 14
1.000000000000000E+20
 24
1.000000000000000E+20
 34
1.000000000000000E+20
 15
-1.000000000000000E+20
 25
-1.000000000000000E+20
 35
-1.000000000000000E+20
146
0.0
 13
0.0
 23
0.0
 33
0.0
 16
1.0
 26
0.0
 36
0.0
 17
0.0
 27
1.0
 37
0.0
 76
     0
330
1B
  0
LAYOUT
  5
26
102
{ACAD_XDICTIONARY
360
871F
102
}
102
{ACAD_REACTORS
330
1A
102
}
330
1A
100
AcDbPlotSettings
  1

  2
Microsoft Office Document Image Writer
  4

  6

 40
0.0
 41
0.0
 42
0.0
 43
0.0
 44
0.0
 45
0.0
 46
0.0
 47
0.0
 48
0.0
 49
0.0
140
0.0
141
0.0
142
1.0
143
1.0
 70
   688
 72
     0
 73
     0
 74
     5
  7
monochromeII.ctb
 75
    16
147
1.0
148
0.0
149
0.0
100
AcDbLayout
  1
Layout2
 70
     1
 71
     2
 10
0.0
 20
0.0
 11
12.0
 21
9.0
 12
0.0
 22
0.0
 32
0.0
 14
0.0
 24
0.0
 34
0.0
 15
0.0
 25
0.0
 35
0.0
146
0.0
 13
0.0
 23
0.0
 33
0.0
 16
1.0
 26
0.0
 36
0.0
 17
0.0
 27
1.0
 37
0.0
 76
     0
330
23
  0
LAYOUT
  5
22
102
{ACAD_XDICTIONARY
360
871D
102
}
102
{ACAD_REACTORS
330
1A
102
}
330
1A
100
AcDbPlotSettings
  1

  2
Default Windows System Printer.pc3
  4
11x17
  6

 40
4.857749938964843
 41
4.857734680175781
 42
4.85772705078125
 43
4.857757568359375
 44
279.3999938964844
 45
431.7999877929687
 46
0.0
 47
2.649666526100765
 48
0.0
 49
0.0
140
0.0
141
0.0
142
1.0
143
2.072177197471839
 70
 11956
 72
     0
 73
     1
 74
     1
  7
monochromeII.ctb
 75
     0
147
0.4825842120162553
148
0.0263525400471963
149
0.0170517658604823
100
AcDbLayout
  1
Model
 70
     1
 71
     0
 10
0.0
 20
0.0
 11
12.0
 21
9.0
 12
0.0
 22
0.0
 32
0.0
 14
0.0
 24
0.0
 34
0.0
 15
0.0
 25
0.0
 35
0.0
146
0.0
 13
0.0
 23
0.0
 33
0.0
 16
1.0
 26
0.0
 36
0.0
 17
0.0
 27
1.0
 37
0.0
 76
     0
330
1F
331
31
1001
ACAD_PSEXT
1000
Default Windows System Printer.pc3
1000
Xerox WorkCentre 7335 PS
1000
Engineering Office
1000

1070
     0
  0
MATERIAL
  5
3C
102
{ACAD_XDICTIONARY
360
3D
102
}
102
{ACAD_REACTORS
330
33
102
}
330
33
100
AcDbMaterial
  1
ByBlock
 72
     0
 43
0.0208333333333333
 43
0.0
 43
0.0
 43
0.0
 43
0.0
 43
0.0208333333333333
 43
0.0
 43
0.0
 43
0.0
 43
0.0
 43
1.0
 43
0.0
 43
0.0
 43
0.0
 43
0.0
 43
1.0
 77
     0
 47
0.0208333333333333
 47
0.0
 47
0.0
 47
0.0
 47
0.0
 47
0.0208333333333333
 47
0.0
 47
0.0
 47
0.0
 47
0.0
 47
1.0
 47
0.0
 47
0.0
 47
0.0
 47
0.0
 47
1.0
171
     0
 49
0.0208333333333333
 49
0.0
 49
0.0
 49
0.0
 49
0.0
 49
0.0208333333333333
 49
0.0
 49
0.0
 49
0.0
 49
0.0
 49
1.0
 49
0.0
 49
0.0
 49
0.0
 49
0.0
 49
1.0
175
     0
142
0.0208333333333333
142
0.0
142
0.0
142
0.0
142
0.0
142
0.0208333333333333
142
0.0
142
0.0
142
0.0
142
0.0
142
1.0
142
0.0
142
0.0
142
0.0
142
0.0
142
1.0
179
     0
144
0.0208333333333333
144
0.0
144
0.0
144
0.0
144
0.0
144
0.0208333333333333
144
0.0
144
0.0
144
0.0
144
0.0
144
1.0
144
0.0
144
0.0
144
0.0
144
0.0
144
1.0
147
0.0208333333333333
147
0.0
147
0.0
147
0.0
147
0.0
147
0.0208333333333333
147
0.0
147
0.0
147
0.0
147
0.0
147
1.0
147
0.0
147
0.0
147
0.0
147
0.0
147
1.0
  0
MATERIAL
  5
34
102
{ACAD_XDICTIONARY
360
35
102
}
102
{ACAD_REACTORS
330
33
102
}
330
33
100
AcDbMaterial
  1
ByLayer
 72
     0
 43
0.0208333333333333
 43
0.0
 43
0.0
 43
0.0
 43
0.0
 43
0.0208333333333333
 43
0.0
 43
0.0
 43
0.0
 43
0.0
 43
1.0
 43
0.0
 43
0.0
 43
0.0
 43
0.0
 43
1.0
 77
     0
 47
0.0208333333333333
 47
0.0
 47
0.0
 47
0.0
 47
0.0
 47
0.0208333333333333
 47
0.0
 47
0.0
 47
0.0
 47
0.0
 47
1.0
 47
0.0
 47
0.0
 47
0.0
 47
0.0
 47
1.0
171
     0
 49
0.0208333333333333
 49
0.0
 49
0.0
 49
0.0
 49
0.0
 49
0.0208333333333333
 49
0.0
 49
0.0
 49
0.0
 49
0.0
 49
1.0
 49
0.0
 49
0.0
 49
0.0
 49
0.0
 49
1.0
175
     0
142
0.0208333333333333
142
0.0
142
0.0
142
0.0
142
0.0
142
0.0208333333333333
142
0.0
142
0.0
142
0.0
142
0.0
142
1.0
142
0.0
142
0.0
142
0.0
142
0.0
142
1.0
179
     0
144
0.0208333333333333
144
0.0
144
0.0
144
0.0
144
0.0
144
0.0208333333333333
144
0.0
144
0.0
144
0.0
144
0.0
144
1.0
144
0.0
144
0.0
144
0.0
144
0.0
144
1.0
147
0.0208333333333333
147
0.0
147
0.0
147
0.0
147
0.0
147
0.0208333333333333
147
0.0
147
0.0
147
0.0
147
0.0
147
1.0
147
0.0
147
0.0
147
0.0
147
0.0
147
1.0
  0
MATERIAL
  5
44
102
{ACAD_XDICTIONARY
360
45
102
}
102
{ACAD_REACTORS
330
33
102
}
330
33
100
AcDbMaterial
  1
Global
 72
     0
 43
0.0208333333333333
 43
0.0
 43
0.0
 43
0.0
 43
0.0
 43
0.0208333333333333
 43
0.0
 43
0.0
 43
0.0
 43
0.0
 43
1.0
 43
0.0
 43
0.0
 43
0.0
 43
0.0
 43
1.0
 77
     0
 47
0.0208333333333333
 47
0.0
 47
0.0
 47
0.0
 47
0.0
 47
0.0208333333333333
 47
0.0
 47
0.0
 47
0.0
 47
0.0
 47
1.0
 47
0.0
 47
0.0
 47
0.0
 47
0.0
 47
1.0
171
     0
 49
0.0208333333333333
 49
0.0
 49
0.0
 49
0.0
 49
0.0
 49
0.0208333333333333
 49
0.0
 49
0.0
 49
0.0
 49
0.0
 49
1.0
 49
0.0
 49
0.0
 49
0.0
 49
0.0
 49
1.0
175
     0
142
0.0208333333333333
142
0.0
142
0.0
142
0.0
142
0.0
142
0.0208333333333333
142
0.0
142
0.0
142
0.0
142
0.0
142
1.0
142
0.0
142
0.0
142
0.0
142
0.0
142
1.0
179
     0
144
0.0208333333333333
144
0.0
144
0.0
144
0.0
144
0.0
144
0.0208333333333333
144
0.0
144
0.0
144
0.0
144
0.0
144
1.0
144
0.0
144
0.0
144
0.0
144
0.0
144
1.0
147
0.0208333333333333
147
0.0
147
0.0
147
0.0
147
0.0
147
0.0208333333333333
147
0.0
147
0.0
147
0.0
147
0.0
147
1.0
147
0.0
147
0.0
147
0.0
147
0.0
147
1.0
  0
MLEADERSTYLE
  5
83
102
{ACAD_REACTORS
330
82
102
}
330
82
100
AcDbMLeaderStyle
170
     2
171
     1
172
     0
 90
        2
 40
0.0
 41
0.0
173
     1
 91
-1056964608
340
14
 92
       -2
290
     1
 42
0.09
291
     1
 43
0.36
  3
Standard
 44
0.18
300

342
11
174
     1
178
     6
175
     1
176
     0
 93
-1056964608
 45
0.18
292
     0
297
     0
 46
0.18
 94
-1056964608
 47
1.0
 49
1.0
140
1.0
293
     1
141
0.0
294
     1
177
     0
142
1.0
295
     0
296
     0
143
0.125
1001
ACAD_MLEADERVER
1070
     2
  0
MLINESTYLE
  5
18
102
{ACAD_REACTORS
330
17
102
}
330
17
100
AcDbMlineStyle
  2
STANDARD
 70
     0
  3

 62
   256
 51
90.0
 52
90.0
 71
     2
 49
0.5
 62
   256
  6
BYLAYER
 49
-0.5
 62
   256
  6
BYLAYER
  0
ACDBPLACEHOLDER
  5
F
102
{ACAD_REACTORS
330
E
102
}
330
E
  0
SCALE
  5
61
102
{ACAD_REACTORS
330
60
102
}
330
60
100
AcDbScale
 70
     0
300
1:1
140
1.0
141
1.0
290
     1
  0
SCALE
  5
62
102
{ACAD_REACTORS
330
60
102
}
330
60
100
AcDbScale
 70
     0
300
1:2
140
1.0
141
2.0
290
     0
  0
SCALE
  5
63
102
{ACAD_REACTORS
330
60
102
}
330
60
100
AcDbScale
 70
     0
300
1:4
140
1.0
141
4.0
290
     0
  0
SCALE
  5
64
102
{ACAD_REACTORS
330
60
102
}
330
60
100
AcDbScale
 70
     0
300
1:5
140
1.0
141
5.0
290
     0
  0
SCALE
  5
65
102
{ACAD_REACTORS
330
60
102
}
330
60
100
AcDbScale
 70
     0
300
1:8
140
1.0
141
8.0
290
     0
  0
SCALE
  5
66
102
{ACAD_REACTORS
330
60
102
}
330
60
100
AcDbScale
 70
     0
300
1:10
140
1.0
141
10.0
290
     0
  0
SCALE
  5
67
102
{ACAD_REACTORS
330
60
102
}
330
60
100
AcDbScale
 70
     0
300
1:16
140
1.0
141
16.0
290
     0
  0
SCALE
  5
68
102
{ACAD_REACTORS
330
60
102
}
330
60
100
AcDbScale
 70
     0
300
1:20
140
1.0
141
20.0
290
     0
  0
SCALE
  5
69
102
{ACAD_REACTORS
330
60
102
}
330
60
100
AcDbScale
 70
     0
300
1:30
140
1.0
141
30.0
290
     0
  0
SCALE
  5
6A
102
{ACAD_REACTORS
330
60
102
}
330
60
100
AcDbScale
 70
     0
300
1:40
140
1.0
141
40.0
290
     0
  0
SCALE
  5
6B
102
{ACAD_REACTORS
330
60
102
}
330
60
100
AcDbScale
 70
     0
300
1:50
140
1.0
141
50.0
290
     0
  0
SCALE
  5
6C
102
{ACAD_REACTORS
330
60
102
}
330
60
100
AcDbScale
 70
     0
300
1:100
140
1.0
141
100.0
290
     0
  0
SCALE
  5
6D
102
{ACAD_REACTORS
330
60
102
}
330
60
100
AcDbScale
 70
     0
300
2:1
140
2.0
141
1.0
290
     0
  0
SCALE
  5
6E
102
{ACAD_REACTORS
330
60
102
}
330
60
100
AcDbScale
 70
     0
300
4:1
140
4.0
141
1.0
290
     0
  0
SCALE
  5
6F
102
{ACAD_REACTORS
330
60
102
}
330
60
100
AcDbScale
 70
     0
300
8:1
140
8.0
141
1.0
290
     0
  0
SCALE
  5
70
102
{ACAD_REACTORS
330
60
102
}
330
60
100
AcDbScale
 70
     0
300
10:1
140
10.0
141
1.0
290
     0
  0
SCALE
  5
71
102
{ACAD_REACTORS
330
60
102
}
330
60
100
AcDbScale
 70
     0
300
100:1
140
100.0
141
1.0
290
     0
  0
SCALE
  5
72
102
{ACAD_REACTORS
330
60
102
}
330
60
100
AcDbScale
 70
     0
300
1/128" = 1'-0"
140
0.0078125
141
12.0
290
     0
  0
SCALE
  5
73
102
{ACAD_REACTORS
330
60
102
}
330
60
100
AcDbScale
 70
     0
300
1/64" = 1'-0"
140
0.015625
141
12.0
290
     0
  0
SCALE
  5
74
102
{ACAD_REACTORS
330
60
102
}
330
60
100
AcDbScale
 70
     0
300
1/32" = 1'-0"
140
0.03125
141
12.0
290
     0
  0
SCALE
  5
75
102
{ACAD_REACTORS
330
60
102
}
330
60
100
AcDbScale
 70
     0
300
1/16" = 1'-0"
140
0.0625
141
12.0
290
     0
  0
SCALE
  5
76
102
{ACAD_REACTORS
330
60
102
}
330
60
100
AcDbScale
 70
     0
300
3/32" = 1'-0"
140
0.09375
141
12.0
290
     0
  0
SCALE
  5
77
102
{ACAD_REACTORS
330
60
102
}
330
60
100
AcDbScale
 70
     0
300
1/8" = 1'-0"
140
0.125
141
12.0
290
     0
  0
SCALE
  5
78
102
{ACAD_REACTORS
330
60
102
}
330
60
100
AcDbScale
 70
     0
300
3/16" = 1'-0"
140
0.1875
141
12.0
290
     0
  0
SCALE
  5
79
102
{ACAD_REACTORS
330
60
102
}
330
60
100
AcDbScale
 70
     0
300
1/4" = 1'-0"
140
0.25
141
12.0
290
     0
  0
SCALE
  5
7A
102
{ACAD_REACTORS
330
60
102
}
330
60
100
AcDbScale
 70
     0
300
3/8" = 1'-0"
140
0.375
141
12.0
290
     0
  0
SCALE
  5
7B
102
{ACAD_REACTORS
330
60
102
}
330
60
100
AcDbScale
 70
     0
300
1/2" = 1'-0"
140
0.5
141
12.0
290
     0
  0
SCALE
  5
7C
102
{ACAD_REACTORS
330
60
102
}
330
60
100
AcDbScale
 70
     0
300
3/4" = 1'-0"
140
0.75
141
12.0
290
     0
  0
SCALE
  5
7D
102
{ACAD_REACTORS
330
60
102
}
330
60
100
AcDbScale
 70
     0
300
1" = 1'-0"
140
1.0
141
12.0
290
     0
  0
SCALE
  5
7E
102
{ACAD_REACTORS
330
60
102
}
330
60
100
AcDbScale
 70
     0
300
1-1/2" = 1'-0"
140
1.5
141
12.0
290
     0
  0
SCALE
  5
7F
102
{ACAD_REACTORS
330
60
102
}
330
60
100
AcDbScale
 70
     0
300
3" = 1'-0"
140
3.0
141
12.0
290
     0
  0
SCALE
  5
80
102
{ACAD_REACTORS
330
60
102
}
330
60
100
AcDbScale
 70
     0
300
6" = 1'-0"
140
6.0
141
12.0
290
     0
  0
SCALE
  5
81
102
{ACAD_REACTORS
330
60
102
}
330
60
100
AcDbScale
 70
     0
300
1'-0" = 1'-0"
140
12.0
141
12.0
290
     0
  0
TABLESTYLE
  5
5F
102
{ACAD_XDICTIONARY
360
87
102
}
102
{ACAD_REACTORS
330
5E
102
}
330
5E
100
AcDbTableStyle
  3
Standard
 70
     0
 71
     0
 40
0.06
 41
0.06
280
     0
281
     0
  7
Standard
140
0.18
170
     2
 62
     0
 63
     7
283
     0
274
    -2
284
     1
 64
     0
275
    -2
285
     1
 65
     0
276
    -2
286
     1
 66
     0
277
    -2
287
     1
 67
     0
278
    -2
288
     1
 68
     0
279
    -2
289
     1
 69
     0
  7
Standard
140
0.25
170
     5
 62
     0
 63
     7
283
     0
274
    -2
284
     1
 64
     0
275
    -2
285
     1
 65
     0
276
    -2
286
     1
 66
     0
277
    -2
287
     1
 67
     0
278
    -2
288
     1
 68
     0
279
    -2
289
     1
 69
     0
  7
Standard
140
0.18
170
     5
 62
     0
 63
     7
283
     0
274
    -2
284
     1
 64
     0
275
    -2
285
     1
 65
     0
276
    -2
286
     1
 66
     0
277
    -2
287
     1
 67
     0
278
    -2
288
     1
 68
     0
279
    -2
289
     1
 69
     0
  0
VISUALSTYLE
  5
52
102
{ACAD_XDICTIONARY
360
86EA
102
}
102
{ACAD_REACTORS
330
4C
102
}
330
4C
100
AcDbVisualStyle
  2
2dWireframe
 70
     4
 71
     0
 72
     2
 73
     0
 90
        0
 40
-0.6
 41
-30.0
 62
     5
 63
     7
 74
     1
 91
        4
 64
     7
 65
   257
 75
     1
175
     1
 42
1.0
 92
        0
 66
   257
 43
1.0
 76
     1
 77
     6
 78
     2
 67
     7
 79
     5
170
     0
171
     0
290
     0
174
     0
 93
        1
 44
0.0
173
     0
291
     0
 45
0.0
1001
ACAD
1000
AcDbSavedByObjectVersion
1070
     0
  0
VISUALSTYLE
  5
54
102
{ACAD_XDICTIONARY
360
86EE
102
}
102
{ACAD_REACTORS
330
4C
102
}
330
4C
100
AcDbVisualStyle
  2
3D Hidden
 70
     6
 71
     1
 72
     2
 73
     2
 90
        0
 40
-0.6
 41
-30.0
 62
     5
 63
     7
 74
     2
 91
        2
 64
     7
 65
   257
 75
     2
175
     1
 42
40.0
 92
        0
 66
   257
 43
1.0
 76
     1
 77
     6
 78
     2
 67
     7
 79
     3
170
     0
171
     0
290
     0
174
     0
 93
        1
 44
0.0
173
     0
291
     0
 45
0.0
1001
ACAD
1000
AcDbSavedByObjectVersion
1070
     0
  0
VISUALSTYLE
  5
53
102
{ACAD_XDICTIONARY
360
86EC
102
}
102
{ACAD_REACTORS
330
4C
102
}
330
4C
100
AcDbVisualStyle
  2
3dWireframe
 70
     5
 71
     0
 72
     2
 73
     0
 90
        0
 40
-0.6
 41
-30.0
 62
     5
 63
     7
 74
     1
 91
        4
 64
     7
 65
   257
 75
     1
175
     1
 42
1.0
 92
        0
 66
   257
 43
1.0
 76
     1
 77
     6
 78
     2
 67
     7
 79
     5
170
     0
171
     0
290
     0
174
     0
 93
        1
 44
0.0
173
     0
291
     0
 45
0.0
1001
ACAD
1000
AcDbSavedByObjectVersion
1070
     0
  0
VISUALSTYLE
  5
51
102
{ACAD_XDICTIONARY
360
86E8
102
}
102
{ACAD_REACTORS
330
4C
102
}
330
4C
100
AcDbVisualStyle
  2
Basic
 70
     7
 71
     1
 72
     0
 73
     1
 90
        0
 40
-0.6
 41
-30.0
 62
     5
 63
     7
 74
     0
 91
        4
 64
     7
 65
   257
 75
     1
175
     1
 42
1.0
 92
        8
 66
     7
 43
1.0
 76
     1
 77
     6
 78
     2
 67
     7
 79
     5
170
     0
171
     0
290
     0
174
     0
 93
        1
 44
0.0
173
     0
291
     1
 45
0.0
1001
ACAD
1000
AcDbSavedByObjectVersion
1070
     0
  0
VISUALSTYLE
  5
58
102
{ACAD_XDICTIONARY
360
86F6
102
}
102
{ACAD_REACTORS
330
4C
102
}
330
4C
100
AcDbVisualStyle
  2
Brighten
 70
    12
 71
     2
 72
     2
 73
     0
 90
        0
 40
-0.6
 41
-30.0
 62
     5
 63
     7
 74
     1
 91
        4
 64
     7
 65
   257
 75
     1
175
     1
 42
1.0
 92
        8
 66
     7
 43
1.0
 76
     1
 77
     6
 78
     2
 67
     7
 79
     5
170
     0
171
     0
290
     0
174
     0
 93
        1
 44
50.0
173
     0
291
     1
 45
0.0
1001
ACAD
1000
AcDbSavedByObjectVersion
1070
     0
  0
VISUALSTYLE
  5
5C
102
{ACAD_XDICTIONARY
360
86FE
102
}
102
{ACAD_REACTORS
330
4C
102
}
330
4C
100
AcDbVisualStyle
  2
ColorChange
 70
    16
 71
     2
 72
     2
 73
     3
 90
        0
 40
-0.6
 41
-30.0
 62
     5
 63
     8
 74
     1
 91
        4
 64
     7
 65
   257
 75
     1
175
     1
 42
1.0
 92
        8
 66
     8
 43
1.0
 76
     1
 77
     6
 78
     2
 67
     7
 79
     5
170
     0
171
     0
290
     0
174
     0
 93
        1
 44
0.0
173
     0
291
     1
 45
0.0
1001
ACAD
1000
AcDbSavedByObjectVersion
1070
     0
  0
VISUALSTYLE
  5
55
102
{ACAD_XDICTIONARY
360
86F0
102
}
102
{ACAD_REACTORS
330
4C
102
}
330
4C
100
AcDbVisualStyle
  2
Conceptual
 70
     9
 71
     3
 72
     2
 73
     0
 90
        0
 40
-0.6
 41
-30.0
 62
     5
 63
     7
 74
     2
 91
        2
 64
     7
 65
   257
 75
     1
175
     1
 42
40.0
 92
        8
 66
     7
 43
1.0
 76
     1
 77
     6
 78
     2
 67
     7
 79
     3
170
     0
171
     0
290
     0
174
     0
 93
        1
 44
0.0
173
     0
291
     0
 45
0.0
1001
ACAD
1000
AcDbSavedByObjectVersion
1070
     0
  0
VISUALSTYLE
  5
57
102
{ACAD_XDICTIONARY
360
86F4
102
}
102
{ACAD_REACTORS
330
4C
102
}
330
4C
100
AcDbVisualStyle
  2
Dim
 70
    11
 71
     2
 72
     2
 73
     0
 90
        0
 40
-0.6
 41
-30.0
 62
     5
 63
     7
 74
     1
 91
        4
 64
     7
 65
   257
 75
     1
175
     1
 42
1.0
 92
        8
 66
     7
 43
1.0
 76
     1
 77
     6
 78
     2
 67
     7
 79
     5
170
     0
171
     0
290
     0
174
     0
 93
        1
 44
-50.0
173
     0
291
     1
 45
0.0
1001
ACAD
1000
AcDbSavedByObjectVersion
1070
     0
  0
VISUALSTYLE
  5
2848
102
{ACAD_XDICTIONARY
360
8713
102
}
102
{ACAD_REACTORS
330
4C
102
}
330
4C
100
AcDbVisualStyle
  2
EdgeColorOff
 70
    22
 71
     2
 72
     2
 73
     0
 90
        0
 40
-0.6
 41
-30.0
 62
     5
 63
     7
 74
     1
 91
        4
 64
     7
 65
   257
 75
     1
175
     1
 42
1.0
 92
        8
 66
     7
 43
1.0
 76
     1
 77
     6
 78
     2
 67
     7
 79
     5
170
     0
171
     0
290
     0
174
     0
 93
        1
 44
0.0
173
     0
291
     1
 45
0.0
1001
ACAD
1000
AcDbSavedByObjectVersion
1070
     0
  0
VISUALSTYLE
  5
5B
102
{ACAD_XDICTIONARY
360
86FC
102
}
102
{ACAD_REACTORS
330
4C
102
}
330
4C
100
AcDbVisualStyle
  2
Facepattern
 70
    15
 71
     2
 72
     2
 73
     0
 90
        0
 40
-0.6
 41
-30.0
 62
     5
 63
     7
 74
     1
 91
        4
 64
     7
 65
   257
 75
     1
175
     1
 42
1.0
 92
        8
 66
     7
 43
1.0
 76
     1
 77
     6
 78
     2
 67
     7
 79
     5
170
     0
171
     0
290
     0
174
     0
 93
        1
 44
0.0
173
     0
291
     1
 45
0.0
1001
ACAD
1000
AcDbSavedByObjectVersion
1070
     0
  0
VISUALSTYLE
  5
4D
102
{ACAD_XDICTIONARY
360
86E0
102
}
102
{ACAD_REACTORS
330
4C
102
}
330
4C
100
AcDbVisualStyle
  2
Flat
 70
     0
 71
     2
 72
     1
 73
     1
 90
        2
 40
-0.6
 41
30.0
 62
     5
 63
     7
 74
     0
 91
        4
 64
     7
 65
   257
 75
     1
175
     1
 42
1.0
 92
        8
 66
     7
 43
1.0
 76
     1
 77
     6
 78
     2
 67
     7
 79
     5
170
     0
171
     0
290
     0
174
     0
 93
       13
 44
0.0
173
     0
291
     1
 45
0.0
1001
ACAD
1000
AcDbSavedByObjectVersion
1070
     0
  0
VISUALSTYLE
  5
4E
102
{ACAD_XDICTIONARY
360
86E2
102
}
102
{ACAD_REACTORS
330
4C
102
}
330
4C
100
AcDbVisualStyle
  2
FlatWithEdges
 70
     1
 71
     2
 72
     1
 73
     1
 90
        2
 40
-0.6
 41
30.0
 62
     5
 63
     7
 74
     1
 91
        4
 64
     7
 65
   257
 75
     1
175
     1
 42
1.0
 92
        0
 66
   257
 43
1.0
 76
     1
 77
     6
 78
     2
 67
     7
 79
     5
170
     0
171
     0
290
     0
174
     0
 93
       13
 44
0.0
173
     0
291
     1
 45
0.0
1001
ACAD
1000
AcDbSavedByObjectVersion
1070
     0
  0
VISUALSTYLE
  5
4F
102
{ACAD_XDICTIONARY
360
86E4
102
}
102
{ACAD_REACTORS
330
4C
102
}
330
4C
100
AcDbVisualStyle
  2
Gouraud
 70
     2
 71
     2
 72
     2
 73
     1
 90
        2
 40
-0.6
 41
30.0
 62
     5
 63
     7
 74
     0
 91
        4
 64
     7
 65
   257
 75
     1
175
     1
 42
1.0
 92
        0
 66
     7
 43
1.0
 76
     1
 77
     6
 78
     2
 67
     7
 79
     5
170
     0
171
     0
290
     0
174
     0
 93
       13
 44
0.0
173
     0
291
     1
 45
0.0
1001
ACAD
1000
AcDbSavedByObjectVersion
1070
     0
  0
VISUALSTYLE
  5
50
102
{ACAD_XDICTIONARY
360
86E6
102
}
102
{ACAD_REACTORS
330
4C
102
}
330
4C
100
AcDbVisualStyle
  2
GouraudWithEdges
 70
     3
 71
     2
 72
     2
 73
     1
 90
        2
 40
-0.6
 41
30.0
 62
     5
 63
     7
 74
     1
 91
        4
 64
     7
 65
   257
 75
     1
175
     1
 42
1.0
 92
        0
 66
   257
 43
1.0
 76
     1
 77
     6
 78
     2
 67
     7
 79
     5
170
     0
171
     0
290
     0
174
     0
 93
       13
 44
0.0
173
     0
291
     1
 45
0.0
1001
ACAD
1000
AcDbSavedByObjectVersion
1070
     0
  0
VISUALSTYLE
  5
2840
102
{ACAD_XDICTIONARY
360
8703
102
}
102
{ACAD_REACTORS
330
4C
102
}
330
4C
100
AcDbVisualStyle
  2
Hidden
 70
     6
 71
     1
 72
     2
 73
     2
 90
        0
 40
-0.6
 41
-30.0
 62
     5
 63
     7
 74
     2
 91
        2
 64
     7
 65
   257
 75
     2
175
     1
 42
40.0
 92
        0
 66
   257
 43
1.0
 76
     1
 77
     6
 78
     2
 67
     7
 79
     3
170
     0
171
     0
290
     0
174
     0
 93
        1
 44
0.0
173
     0
291
     0
 45
0.0
1001
ACAD
1000
AcDbSavedByObjectVersion
1070
     0
  0
VISUALSTYLE
  5
2846
102
{ACAD_XDICTIONARY
360
870F
102
}
102
{ACAD_REACTORS
330
4C
102
}
330
4C
100
AcDbVisualStyle
  2
JitterOff
 70
    20
 71
     2
 72
     2
 73
     0
 90
        0
 40
-0.6
 41
-30.0
 62
     5
 63
     7
 74
     1
 91
        4
 64
     7
 65
   257
 75
     1
175
     1
 42
1.0
 92
       10
 66
     7
 43
1.0
 76
     1
 77
     6
 78
     2
 67
     7
 79
     5
170
     0
171
     0
290
     0
174
     0
 93
        1
 44
0.0
173
     0
291
     1
 45
0.0
1001
ACAD
1000
AcDbSavedByObjectVersion
1070
     0
  0
VISUALSTYLE
  5
5A
102
{ACAD_XDICTIONARY
360
86FA
102
}
102
{ACAD_REACTORS
330
4C
102
}
330
4C
100
AcDbVisualStyle
  2
Linepattern
 70
    14
 71
     2
 72
     2
 73
     0
 90
        0
 40
-0.6
 41
-30.0
 62
     5
 63
     7
 74
     1
 91
        4
 64
     7
 65
   257
 75
     7
175
     7
 42
1.0
 92
        8
 66
     7
 43
1.0
 76
     1
 77
     6
 78
     2
 67
     7
 79
     5
170
     0
171
     0
290
     0
174
     0
 93
        1
 44
0.0
173
     0
291
     1
 45
0.0
1001
ACAD
1000
AcDbSavedByObjectVersion
1070
     0
  0
VISUALSTYLE
  5
2847
102
{ACAD_XDICTIONARY
360
8711
102
}
102
{ACAD_REACTORS
330
4C
102
}
330
4C
100
AcDbVisualStyle
  2
OverhangOff
 70
    21
 71
     2
 72
     2
 73
     0
 90
        0
 40
-0.6
 41
-30.0
 62
     5
 63
     7
 74
     1
 91
        4
 64
     7
 65
   257
 75
     1
175
     1
 42
1.0
 92
        9
 66
     7
 43
1.0
 76
     1
 77
     6
 78
     2
 67
     7
 79
     5
170
     0
171
     0
290
     0
174
     0
 93
        1
 44
0.0
173
     0
291
     1
 45
0.0
1001
ACAD
1000
AcDbSavedByObjectVersion
1070
     0
  0
VISUALSTYLE
  5
56
102
{ACAD_XDICTIONARY
360
86F2
102
}
102
{ACAD_REACTORS
330
4C
102
}
330
4C
100
AcDbVisualStyle
  2
Realistic
 70
     8
 71
     2
 72
     2
 73
     0
 90
        0
 40
-0.6
 41
-30.0
 62
     5
 63
     7
 74
     1
 91
        0
 64
     7
 65
   257
 75
     1
175
     1
 42
1.0
 92
        8
 66
     8
 43
1.0
 76
     1
 77
     6
 78
     2
 67
     7
 79
     5
170
     0
171
     0
290
     0
174
     0
 93
       13
 44
0.0
173
     0
291
     0
 45
0.0
1001
ACAD
1000
AcDbSavedByObjectVersion
1070
     0
  0
VISUALSTYLE
  5
2845
102
{ACAD_XDICTIONARY
360
870D
102
}
102
{ACAD_REACTORS
330
4C
102
}
330
4C
100
AcDbVisualStyle
  2
Shaded
 70
    27
 71
     2
 72
     2
 73
     1
 90
        2
 40
-0.6
 41
30.0
 62
     5
 63
     7
 74
     0
 91
        4
 64
     7
 65
   257
 75
     1
175
     1
 42
1.0
 92
        8
 66
   257
 43
1.0
 76
     1
 77
     6
 78
     2
 67
     8
 79
     3
170
     0
171
     0
290
     0
174
     0
 93
        5
 44
0.0
173
     0
291
     0
 45
0.0
1001
ACAD
1000
AcDbSavedByObjectVersion
1070
     0
  0
VISUALSTYLE
  5
2844
102
{ACAD_XDICTIONARY
360
870B
102
}
102
{ACAD_REACTORS
330
4C
102
}
330
4C
100
AcDbVisualStyle
  2
Shaded with edges
 70
    26
 71
     2
 72
     2
 73
     1
 90
        2
 40
-0.6
 41
30.0
 62
     5
 63
     7
 74
     1
 91
       10
 64
     7
 65
   257
 75
     2
175
     1
 42
1.0
 92
        8
 66
   257
 43
1.0
 76
     1
 77
     6
 78
     2
 67
     7
 79
     3
170
     0
171
     0
290
     0
174
     0
 93
        5
 44
0.0
173
     0
291
     0
 45
0.0
1001
ACAD
1000
AcDbSavedByObjectVersion
1070
     0
  0
VISUALSTYLE
  5
2841
102
{ACAD_XDICTIONARY
360
8705
102
}
102
{ACAD_REACTORS
330
4C
102
}
330
4C
100
AcDbVisualStyle
  2
Shades of Gray
 70
    23
 71
     2
 72
     2
 73
     3
 90
        0
 40
-0.6
 41
-30.0
 62
     5
 63
     7
 74
     2
 91
        2
 64
     7
 65
     7
 75
     1
175
     1
 42
40.0
 92
        8
 66
     7
 43
1.0
 76
     1
 77
     6
 78
     2
 67
     7
 79
     3
170
     0
171
     0
290
     0
174
     0
 93
        1
 44
0.0
173
     0
291
     0
 45
0.0
1001
ACAD
1000
AcDbSavedByObjectVersion
1070
     0
  0
VISUALSTYLE
  5
2842
102
{ACAD_XDICTIONARY
360
8707
102
}
102
{ACAD_REACTORS
330
4C
102
}
330
4C
100
AcDbVisualStyle
  2
Sketchy
 70
    24
 71
     1
 72
     2
 73
     2
 90
        0
 40
-0.6
 41
-30.0
 62
     5
 63
     7
 74
     2
 91
        2
 64
     7
 65
     7
 75
     1
175
     1
 42
40.0
 92
       11
 66
     7
 43
1.0
 76
     1
 77
     6
 78
     2
 67
     7
 79
     6
170
     0
171
     0
290
     0
174
     0
 93
        1
 44
0.0
173
     0
291
     0
 45
0.0
1001
ACAD
1000
AcDbSavedByObjectVersion
1070
     0
  0
VISUALSTYLE
  5
59
102
{ACAD_XDICTIONARY
360
86F8
102
}
102
{ACAD_REACTORS
330
4C
102
}
330
4C
100
AcDbVisualStyle
  2
Thicken
 70
    13
 71
     2
 72
     2
 73
     0
 90
        0
 40
-0.6
 41
-30.0
 62
     5
 63
     7
 74
     1
 91
        4
 64
     7
 65
   257
 75
     1
175
     1
 42
1.0
 92
       12
 66
     7
 43
1.0
 76
     1
 77
     6
 78
     2
 67
     7
 79
     5
170
     0
171
     0
290
     0
174
     0
 93
        1
 44
0.0
173
     0
291
     1
 45
0.0
1001
ACAD
1000
AcDbSavedByObjectVersion
1070
     0
  0
VISUALSTYLE
  5
283F
102
{ACAD_XDICTIONARY
360
8701
102
}
102
{ACAD_REACTORS
330
4C
102
}
330
4C
100
AcDbVisualStyle
  2
Wireframe
 70
     5
 71
     0
 72
     2
 73
     0
 90
        0
 40
-0.6
 41
-30.0
 62
     5
 63
     7
 74
     1
 91
        4
 64
     7
 65
   257
 75
     1
175
     1
 42
1.0
 92
        0
 66
   257
 43
1.0
 76
     1
 77
     6
 78
     2
 67
     7
 79
     3
170
     0
171
     0
290
     0
174
     0
 93
        1
 44
0.0
173
     0
291
     0
 45
0.0
1001
ACAD
1000
AcDbSavedByObjectVersion
1070
     0
  0
VISUALSTYLE
  5
2843
102
{ACAD_XDICTIONARY
360
8709
102
}
102
{ACAD_REACTORS
330
4C
102
}
330
4C
100
AcDbVisualStyle
  2
X-Ray
 70
    25
 71
     2
 72
     2
 73
     1
 90
        1
 40
0.5
 41
-30.0
 62
     5
 63
     7
 74
     1
 91
        0
 64
     7
 65
   257
 75
     1
175
     1
 42
1.0
 92
        8
 66
     7
 43
1.0
 76
     1
 77
     6
 78
     2
 67
     7
 79
     3
170
     0
171
     0
290
     0
174
     0
 93
       13
 44
0.0
173
     0
291
     0
 45
0.0
1001
ACAD
1000
AcDbSavedByObjectVersion
1070
     0
  0
XRECORD
  5
226E
102
{ACAD_REACTORS
330
226D
102
}
330
226D
100
AcDbXrecord
280
     1
  1
WIRES
  1
WIRES
  1

290
     0
  0
DICTIONARYVAR
  5
8E
102
{ACAD_REACTORS
330
8A
102
}
330
8A
100
DictionaryVariables
280
     0
  1
1:1
  0
DICTIONARYVAR
  5
8C
102
{ACAD_REACTORS
330
8A
102
}
330
8A
100
DictionaryVariables
280
     0
  1
STANDARD
  0
DICTIONARYVAR
  5
8B
102
{ACAD_REACTORS
330
8A
102
}
330
8A
100
DictionaryVariables
280
     0
  1
STANDARD
  0
DICTIONARYVAR
  5
18F
102
{ACAD_REACTORS
330
8A
102
}
330
8A
100
DictionaryVariables
280
     0
  1
1
  0
DICTIONARYVAR
  5
18E
102
{ACAD_REACTORS
330
8A
102
}
330
8A
100
DictionaryVariables
280
     0
  1
0
  0
DICTIONARYVAR
  5
217D
102
{ACAD_REACTORS
330
8A
102
}
330
8A
100
DictionaryVariables
280
     0
  1
1
  0
DICTIONARYVAR
  5
217E
102
{ACAD_REACTORS
330
8A
102
}
330
8A
100
DictionaryVariables
280
     0
  1
15
  0
DICTIONARYVAR
  5
8F
102
{ACAD_REACTORS
330
8A
102
}
330
8A
100
DictionaryVariables
280
     0
  1
0
  0
DICTIONARYVAR
  5
8D
102
{ACAD_REACTORS
330
8A
102
}
330
8A
100
DictionaryVariables
280
     0
  1
0
  0
DICTIONARYVAR
  5
18D
102
{ACAD_REACTORS
330
8A
102
}
330
8A
100
DictionaryVariables
280
     0
  1
127
  0
DICTIONARYVAR
  5
8715
102
{ACAD_REACTORS
330
8A
102
}
330
8A
100
DictionaryVariables
280
     0
  1
0
  0
XRECORD
  5
2835
102
{ACAD_REACTORS
330
2834
102
}
330
2834
100
AcDbXrecord
280
     1
330
0
330
0
330
0
330
0
330
0
330
0
  0
XRECORD
  5
7B9E
102
{ACAD_REACTORS
330
7B9D
102
}
330
7B9D
100
AcDbXrecord
280
     1
 40
0.000001
  0
XRECORD
  5
7BA1
102
{ACAD_REACTORS
330
7B9D
102
}
330
7B9D
100
AcDbXrecord
280
     1
 70
     0
  0
XRECORD
  5
7BA0
102
{ACAD_REACTORS
330
7B9D
102
}
330
7B9D
100
AcDbXrecord
280
     1
 70
     0
  0
XRECORD
  5
7B9F
102
{ACAD_REACTORS
330
7B9D
102
}
330
7B9D
100
AcDbXrecord
280
     1
 70
     0
  0
DICTIONARY
  5
871B
330
1E
100
AcDbDictionary
280
     1
281
     1
  3
ACAD_XREC_ROUNDTRIP
360
871C
  0
DICTIONARY
  5
871F
330
26
100
AcDbDictionary
280
     1
281
     1
  3
ACAD_XREC_ROUNDTRIP
360
8720
  0
DICTIONARY
  5
871D
330
22
100
AcDbDictionary
280
     1
281
     1
  3
ACAD_XREC_ROUNDTRIP
360
871E
  0
DICTIONARY
  5
3D
330
3C
100
AcDbDictionary
280
     1
281
     1
  3
ACAD_XREC_ROUNDTRIP
360
8722
  3
BUMPTILE
360
3F
  3
DIFFUSETILE
360
3E
  3
OPACITYTILE
360
42
  3
REFLECTIONTILE
360
41
  3
REFRACTIONTILE
360
43
  3
SPECULARTILE
360
40
  0
DICTIONARY
  5
35
330
34
100
AcDbDictionary
280
     1
281
     1
  3
ACAD_XREC_ROUNDTRIP
360
8721
  3
BUMPTILE
360
37
  3
DIFFUSETILE
360
36
  3
OPACITYTILE
360
3A
  3
REFLECTIONTILE
360
39
  3
REFRACTIONTILE
360
3B
  3
SPECULARTILE
360
38
  0
DICTIONARY
  5
45
330
44
100
AcDbDictionary
280
     1
281
     1
  3
ACAD_XREC_ROUNDTRIP
360
8723
  3
BUMPTILE
360
47
  3
DIFFUSETILE
360
46
  3
OPACITYTILE
360
4A
  3
REFLECTIONTILE
360
49
  3
REFRACTIONTILE
360
4B
  3
SPECULARTILE
360
48
  0
DICTIONARY
  5
87
330
5F
100
AcDbDictionary
280
     1
281
     1
  3
ACAD_ROUNDTRIP_2008_TABLESTYLE_CELLSTYLEMAP
360
8719
  3
ACAD_XREC_ROUNDTRIP
360
8724
  0
DICTIONARY
  5
86EA
330
52
100
AcDbDictionary
280
     1
281
     1
  3
ACAD_XREC_ROUNDTRIP
360
86EB
  0
DICTIONARY
  5
86EE
330
54
100
AcDbDictionary
280
     1
281
     1
  3
ACAD_XREC_ROUNDTRIP
360
86EF
  0
DICTIONARY
  5
86EC
330
53
100
AcDbDictionary
280
     1
281
     1
  3
ACAD_XREC_ROUNDTRIP
360
86ED
  0
DICTIONARY
  5
86E8
330
51
100
AcDbDictionary
280
     1
281
     1
  3
ACAD_XREC_ROUNDTRIP
360
86E9
  0
DICTIONARY
  5
86F6
330
58
100
AcDbDictionary
280
     1
281
     1
  3
ACAD_XREC_ROUNDTRIP
360
86F7
  0
DICTIONARY
  5
86FE
330
5C
100
AcDbDictionary
280
     1
281
     1
  3
ACAD_XREC_ROUNDTRIP
360
86FF
  0
DICTIONARY
  5
86F0
330
55
100
AcDbDictionary
280
     1
281
     1
  3
ACAD_XREC_ROUNDTRIP
360
86F1
  0
DICTIONARY
  5
86F4
330
57
100
AcDbDictionary
280
     1
281
     1
  3
ACAD_XREC_ROUNDTRIP
360
86F5
  0
DICTIONARY
  5
8713
330
2848
100
AcDbDictionary
280
     1
281
     1
  3
ACAD_XREC_ROUNDTRIP
360
8714
  0
DICTIONARY
  5
86FC
330
5B
100
AcDbDictionary
280
     1
281
     1
  3
ACAD_XREC_ROUNDTRIP
360
86FD
  0
DICTIONARY
  5
86E0
330
4D
100
AcDbDictionary
280
     1
281
     1
  3
ACAD_XREC_ROUNDTRIP
360
86E1
  0
DICTIONARY
  5
86E2
330
4E
100
AcDbDictionary
280
     1
281
     1
  3
ACAD_XREC_ROUNDTRIP
360
86E3
  0
DICTIONARY
  5
86E4
330
4F
100
AcDbDictionary
280
     1
281
     1
  3
ACAD_XREC_ROUNDTRIP
360
86E5
  0
DICTIONARY
  5
86E6
330
50
100
AcDbDictionary
280
     1
281
     1
  3
ACAD_XREC_ROUNDTRIP
360
86E7
  0
DICTIONARY
  5
8703
330
2840
100
AcDbDictionary
280
     1
281
     1
  3
ACAD_XREC_ROUNDTRIP
360
8704
  0
DICTIONARY
  5
870F
330
2846
100
AcDbDictionary
280
     1
281
     1
  3
ACAD_XREC_ROUNDTRIP
360
8710
  0
DICTIONARY
  5
86FA
330
5A
100
AcDbDictionary
280
     1
281
     1
  3
ACAD_XREC_ROUNDTRIP
360
86FB
  0
DICTIONARY
  5
8711
330
2847
100
AcDbDictionary
280
     1
281
     1
  3
ACAD_XREC_ROUNDTRIP
360
8712
  0
DICTIONARY
  5
86F2
330
56
100
AcDbDictionary
280
     1
281
     1
  3
ACAD_XREC_ROUNDTRIP
360
86F3
  0
DICTIONARY
  5
870D
330
2845
100
AcDbDictionary
280
     1
281
     1
  3
ACAD_XREC_ROUNDTRIP
360
870E
  0
DICTIONARY
  5
870B
330
2844
100
AcDbDictionary
280
     1
281
     1
  3
ACAD_XREC_ROUNDTRIP
360
870C
  0
DICTIONARY
  5
8705
330
2841
100
AcDbDictionary
280
     1
281
     1
  3
ACAD_XREC_ROUNDTRIP
360
8706
  0
DICTIONARY
  5
8707
330
2842
100
AcDbDictionary
280
     1
281
     1
  3
ACAD_XREC_ROUNDTRIP
360
8708
  0
DICTIONARY
  5
86F8
330
59
100
AcDbDictionary
280
     1
281
     1
  3
ACAD_XREC_ROUNDTRIP
360
86F9
  0
DICTIONARY
  5
8701
330
283F
100
AcDbDictionary
280
     1
281
     1
  3
ACAD_XREC_ROUNDTRIP
360
8702
  0
DICTIONARY
  5
8709
330
2843
100
AcDbDictionary
280
     1
281
     1
  3
ACAD_XREC_ROUNDTRIP
360
870A
  0
XRECORD
  5
871C
102
{ACAD_REACTORS
330
871B
102
}
330
871B
100
AcDbXrecord
280
     1
102
SHADEPLOT
 70
     0
102
SHADEPLOTRESLEVEL
 70
     2
102
SHADEPLOTCUSTOMDPI
 70
   300
  0
XRECORD
  5
8720
102
{ACAD_REACTORS
330
871F
102
}
330
871F
100
AcDbXrecord
280
     1
102
SHADEPLOT
 70
     0
102
SHADEPLOTRESLEVEL
 70
     2
102
SHADEPLOTCUSTOMDPI
 70
   300
  0
XRECORD
  5
871E
102
{ACAD_REACTORS
330
871D
102
}
330
871D
100
AcDbXrecord
280
     1
102
SHADEPLOT
 70
     0
102
SHADEPLOTRESLEVEL
 70
     2
102
SHADEPLOTCUSTOMDPI
 70
   300
  0
XRECORD
  5
8722
102
{ACAD_REACTORS
330
3D
102
}
330
3D
100
AcDbXrecord
280
     1
102
MATERIAL
148
0.0
149
0.0
149
0.0
 93
        0
 94
      127
282
     0
 72
     0
 77
     0
171
     0
175
     0
179
     0
273
     0
  0
XRECORD
  5
3F
102
{ACAD_REACTORS
330
3D
102
}
330
3D
100
AcDbXrecord
280
     1
270
     1
271
     1
  0
XRECORD
  5
3E
102
{ACAD_REACTORS
330
3D
102
}
330
3D
100
AcDbXrecord
280
     1
270
     1
271
     1
  0
XRECORD
  5
42
102
{ACAD_REACTORS
330
3D
102
}
330
3D
100
AcDbXrecord
280
     1
270
     1
271
     1
  0
XRECORD
  5
41
102
{ACAD_REACTORS
330
3D
102
}
330
3D
100
AcDbXrecord
280
     1
270
     1
271
     1
  0
XRECORD
  5
43
102
{ACAD_REACTORS
330
3D
102
}
330
3D
100
AcDbXrecord
280
     1
270
     1
271
     1
  0
XRECORD
  5
40
102
{ACAD_REACTORS
330
3D
102
}
330
3D
100
AcDbXrecord
280
     1
270
     1
271
     1
  0
XRECORD
  5
8721
102
{ACAD_REACTORS
330
35
102
}
330
35
100
AcDbXrecord
280
     1
102
MATERIAL
148
0.0
149
0.0
149
0.0
 93
        0
 94
      127
282
     0
 72
     0
 77
     0
171
     0
175
     0
179
     0
273
     0
  0
XRECORD
  5
37
102
{ACAD_REACTORS
330
35
102
}
330
35
100
AcDbXrecord
280
     1
270
     1
271
     1
  0
XRECORD
  5
36
102
{ACAD_REACTORS
330
35
102
}
330
35
100
AcDbXrecord
280
     1
270
     1
271
     1
  0
XRECORD
  5
3A
102
{ACAD_REACTORS
330
35
102
}
330
35
100
AcDbXrecord
280
     1
270
     1
271
     1
  0
XRECORD
  5
39
102
{ACAD_REACTORS
330
35
102
}
330
35
100
AcDbXrecord
280
     1
270
     1
271
     1
  0
XRECORD
  5
3B
102
{ACAD_REACTORS
330
35
102
}
330
35
100
AcDbXrecord
280
     1
270
     1
271
     1
  0
XRECORD
  5
38
102
{ACAD_REACTORS
330
35
102
}
330
35
100
AcDbXrecord
280
     1
270
     1
271
     1
  0
XRECORD
  5
8723
102
{ACAD_REACTORS
330
45
102
}
330
45
100
AcDbXrecord
280
     1
102
MATERIAL
148
0.0
149
0.0
149
0.0
 93
        0
 94
      127
282
     0
 72
     0
 77
     0
171
     0
175
     0
179
     0
273
     0
  0
XRECORD
  5
47
102
{ACAD_REACTORS
330
45
102
}
330
45
100
AcDbXrecord
280
     1
270
     1
271
     1
  0
XRECORD
  5
46
102
{ACAD_REACTORS
330
45
102
}
330
45
100
AcDbXrecord
280
     1
270
     1
271
     1
  0
XRECORD
  5
4A
102
{ACAD_REACTORS
330
45
102
}
330
45
100
AcDbXrecord
280
     1
270
     1
271
     1
  0
XRECORD
  5
49
102
{ACAD_REACTORS
330
45
102
}
330
45
100
AcDbXrecord
280
     1
270
     1
271
     1
  0
XRECORD
  5
4B
102
{ACAD_REACTORS
330
45
102
}
330
45
100
AcDbXrecord
280
     1
270
     1
271
     1
  0
XRECORD
  5
48
102
{ACAD_REACTORS
330
45
102
}
330
45
100
AcDbXrecord
280
     1
270
     1
271
     1
  0
CELLSTYLEMAP
  5
8719
102
{ACAD_REACTORS
330
87
102
}
330
87
100
AcDbCellStyleMap
 90
        3
300
CELLSTYLE
  1
TABLEFORMAT_BEGIN
 90
        5
170
     1
 91
        0
 92
    32768
 62
   257
 93
        1
300
CONTENTFORMAT
  1
CONTENTFORMAT_BEGIN
 90
        0
 91
        0
 92
      512
 93
        0
300

 40
0.0
140
1.0
 94
        5
 62
     0
340
11
144
0.25
309
CONTENTFORMAT_END
171
     0
 94
        0
309
TABLEFORMAT_END
  1
CELLSTYLE_BEGIN
 90
        1
 91
        1
300
_TITLE
309
CELLSTYLE_END
300
CELLSTYLE
  1
TABLEFORMAT_BEGIN
 90
        5
170
     1
 91
        0
 92
        0
 62
   257
 93
        1
300
CONTENTFORMAT
  1
CONTENTFORMAT_BEGIN
 90
        0
 91
        0
 92
      512
 93
        0
300

 40
0.0
140
1.0
 94
        5
 62
     0
340
11
144
0.18
309
CONTENTFORMAT_END
171
     0
 94
        0
309
TABLEFORMAT_END
  1
CELLSTYLE_BEGIN
 90
        2
 91
        1
300
_HEADER
309
CELLSTYLE_END
300
CELLSTYLE
  1
TABLEFORMAT_BEGIN
 90
        5
170
     1
 91
        0
 92
        0
 62
   257
 93
        1
300
CONTENTFORMAT
  1
CONTENTFORMAT_BEGIN
 90
        0
 91
        0
 92
      512
 93
        0
300

 40
0.0
140
1.0
 94
        2
 62
     0
340
11
144
0.18
309
CONTENTFORMAT_END
171
     0
 94
        0
309
TABLEFORMAT_END
  1
CELLSTYLE_BEGIN
 90
        3
 91
        2
300
_DATA
309
CELLSTYLE_END
  0
XRECORD
  5
8724
102
{ACAD_REACTORS
330
87
102
}
330
87
100
AcDbXrecord
280
     1
102
ACAD_ROUNDTRIP_PRE2007_TABLESTYLE
 90
      512
 91
        0
  1

 92
      512
 93
        0
  2

 94
      512
 95
        0
  3

  0
XRECORD
  5
86EB
102
{ACAD_REACTORS
330
86EA
102
}
330
86EA
100
AcDbXrecord
280
     1
102
RTVSPropertyOp0
 70
     1
102
RTVSPropertyOp1
 70
     1
102
RTVSPropertyOp2
 70
     1
102
RTVSPropertyOp3
 70
     1
102
RTVSPropertyOp4
 70
     1
102
RTVSPropertyOp5
 70
     1
102
RTVSPropertyOp6
 70
     1
102
RTVSPropertyOp7
 70
     1
102
RTVSPropertyOp8
 70
     1
102
RTVSPropertyOp9
 70
     1
102
RTVSPropertyOp10
 70
     1
102
RTVSPropertyOp11
 70
     1
102
RTVSPropertyOp12
 70
     1
102
RTVSPropertyOp13
 70
     1
102
RTVSPropertyOp14
 70
     1
102
RTVSPropertyOp15
 70
     1
102
RTVSPropertyOp16
 70
     1
102
RTVSPropertyOp17
 70
     1
102
RTVSPropertyOp18
 70
     1
102
RTVSPropertyOp19
 70
     1
102
RTVSPropertyOp20
 70
     1
102
RTVSPropertyOp21
 70
     1
102
RTVSPropertyOp22
 70
     1
102
RTVSPropertyOp23
 70
     1
102
RTVSPropertyOp24
 70
     1
102
RTVSPropertyOp25
 70
     1
102
RTVSPropertyOp26
 70
     1
102
RTVSPropertyOp27
 70
     1
102
RTVSPropertyOp28
 70
     1
102
RTVSPropertyOp29
 70
     1
102
RTVSPropertyOp30
 70
     1
102
RTVSPropertyOp31
 70
     1
102
RTVSPropertyOp32
 70
     1
  0
XRECORD
  5
86EF
102
{ACAD_REACTORS
330
86EE
102
}
330
86EE
100
AcDbXrecord
280
     1
102
RTVSPropertyOp0
 70
     1
102
RTVSPropertyOp1
 70
     1
102
RTVSPropertyOp2
 70
     1
102
RTVSPropertyOp3
 70
     1
102
RTVSPropertyOp4
 70
     1
102
RTVSPropertyOp5
 70
     1
102
RTVSPropertyOp6
 70
     1
102
RTVSPropertyOp7
 70
     1
102
RTVSPropertyOp8
 70
     1
102
RTVSPropertyOp9
 70
     1
102
RTVSPropertyOp10
 70
     1
102
RTVSPropertyOp11
 70
     1
102
RTVSPropertyOp12
 70
     1
102
RTVSPropertyOp13
 70
     1
102
RTVSPropertyOp14
 70
     1
102
RTVSPropertyOp15
 70
     1
102
RTVSPropertyOp16
 70
     1
102
RTVSPropertyOp17
 70
     1
102
RTVSPropertyOp18
 70
     1
102
RTVSPropertyOp19
 70
     1
102
RTVSPropertyOp20
 70
     1
102
RTVSPropertyOp21
 70
     1
102
RTVSPropertyOp22
 70
     1
102
RTVSPropertyOp23
 70
     1
102
RTVSPropertyOp24
 70
     1
102
RTVSPropertyOp25
 70
     1
102
RTVSPropertyOp26
 70
     1
102
RTVSPropertyOp27
 70
     1
102
RTVSPropertyOp28
 70
     1
102
RTVSPropertyOp29
 70
     1
102
RTVSPropertyOp30
 70
     1
102
RTVSPropertyOp31
 70
     1
102
RTVSPropertyOp32
 70
     1
  0
XRECORD
  5
86ED
102
{ACAD_REACTORS
330
86EC
102
}
330
86EC
100
AcDbXrecord
280
     1
102
RTVSPropertyOp0
 70
     1
102
RTVSPropertyOp1
 70
     1
102
RTVSPropertyOp2
 70
     1
102
RTVSPropertyOp3
 70
     1
102
RTVSPropertyOp4
 70
     1
102
RTVSPropertyOp5
 70
     1
102
RTVSPropertyOp6
 70
     1
102
RTVSPropertyOp7
 70
     1
102
RTVSPropertyOp8
 70
     1
102
RTVSPropertyOp9
 70
     1
102
RTVSPropertyOp10
 70
     1
102
RTVSPropertyOp11
 70
     1
102
RTVSPropertyOp12
 70
     1
102
RTVSPropertyOp13
 70
     1
102
RTVSPropertyOp14
 70
     1
102
RTVSPropertyOp15
 70
     1
102
RTVSPropertyOp16
 70
     1
102
RTVSPropertyOp17
 70
     1
102
RTVSPropertyOp18
 70
     1
102
RTVSPropertyOp19
 70
     1
102
RTVSPropertyOp20
 70
     1
102
RTVSPropertyOp21
 70
     1
102
RTVSPropertyOp22
 70
     1
102
RTVSPropertyOp23
 70
     1
102
RTVSPropertyOp24
 70
     1
102
RTVSPropertyOp25
 70
     1
102
RTVSPropertyOp26
 70
     1
102
RTVSPropertyOp27
 70
     1
102
RTVSPropertyOp28
 70
     1
102
RTVSPropertyOp29
 70
     1
102
RTVSPropertyOp30
 70
     1
102
RTVSPropertyOp31
 70
     1
102
RTVSPropertyOp32
 70
     1
  0
XRECORD
  5
86E9
102
{ACAD_REACTORS
330
86E8
102
}
330
86E8
100
AcDbXrecord
280
     1
102
RTVSPropertyOp0
 70
     1
102
RTVSPropertyOp1
 70
     1
102
RTVSPropertyOp2
 70
     1
102
RTVSPropertyOp3
 70
     1
102
RTVSPropertyOp4
 70
     1
102
RTVSPropertyOp5
 70
     1
102
RTVSPropertyOp6
 70
     1
102
RTVSPropertyOp7
 70
     1
102
RTVSPropertyOp8
 70
     1
102
RTVSPropertyOp9
 70
     1
102
RTVSPropertyOp10
 70
     1
102
RTVSPropertyOp11
 70
     1
102
RTVSPropertyOp12
 70
     1
102
RTVSPropertyOp13
 70
     1
102
RTVSPropertyOp14
 70
     1
102
RTVSPropertyOp15
 70
     1
102
RTVSPropertyOp16
 70
     1
102
RTVSPropertyOp17
 70
     1
102
RTVSPropertyOp18
 70
     1
102
RTVSPropertyOp19
 70
     1
102
RTVSPropertyOp20
 70
     1
102
RTVSPropertyOp21
 70
     1
102
RTVSPropertyOp22
 70
     1
102
RTVSPropertyOp23
 70
     1
102
RTVSPropertyOp24
 70
     1
102
RTVSPropertyOp25
 70
     1
102
RTVSPropertyOp26
 70
     1
102
RTVSPropertyOp27
 70
     1
102
RTVSPropertyOp28
 70
     1
102
RTVSPropertyOp29
 70
     1
102
RTVSPropertyOp30
 70
     1
102
RTVSPropertyOp31
 70
     1
102
RTVSPropertyOp32
 70
     1
  0
XRECORD
  5
86F7
102
{ACAD_REACTORS
330
86F6
102
}
330
86F6
100
AcDbXrecord
280
     1
102
RTVSPropertyOp0
 70
     1
102
RTVSPropertyOp1
 70
     1
102
RTVSPropertyOp2
 70
     1
102
RTVSPropertyOp3
 70
     1
102
RTVSPropertyOp4
 70
     1
102
RTVSPropertyOp5
 70
     1
102
RTVSPropertyOp6
 70
     1
102
RTVSPropertyOp7
 70
     1
102
RTVSPropertyOp8
 70
     1
102
RTVSPropertyOp9
 70
     1
102
RTVSPropertyOp10
 70
     1
102
RTVSPropertyOp11
 70
     1
102
RTVSPropertyOp12
 70
     1
102
RTVSPropertyOp13
 70
     1
102
RTVSPropertyOp14
 70
     1
102
RTVSPropertyOp15
 70
     1
102
RTVSPropertyOp16
 70
     1
102
RTVSPropertyOp17
 70
     1
102
RTVSPropertyOp18
 70
     1
102
RTVSPropertyOp19
 70
     1
102
RTVSPropertyOp20
 70
     1
102
RTVSPropertyOp21
 70
     1
102
RTVSPropertyOp22
 70
     1
102
RTVSPropertyOp23
 70
     1
102
RTVSPropertyOp24
 70
     1
102
RTVSPropertyOp25
 70
     1
102
RTVSPropertyOp26
 70
     1
102
RTVSPropertyOp27
 70
     1
102
RTVSPropertyOp28
 70
     1
102
RTVSPropertyOp29
 70
     1
102
RTVSPropertyOp30
 70
     1
102
RTVSPropertyOp31
 70
     1
102
RTVSPropertyOp32
 70
     1
  0
XRECORD
  5
86FF
102
{ACAD_REACTORS
330
86FE
102
}
330
86FE
100
AcDbXrecord
280
     1
102
RTVSPropertyOp0
 70
     1
102
RTVSPropertyOp1
 70
     1
102
RTVSPropertyOp2
 70
     1
102
RTVSPropertyOp3
 70
     1
102
RTVSPropertyOp4
 70
     1
102
RTVSPropertyOp5
 70
     1
102
RTVSPropertyOp6
 70
     1
102
RTVSPropertyOp7
 70
     1
102
RTVSPropertyOp8
 70
     1
102
RTVSPropertyOp9
 70
     1
102
RTVSPropertyOp10
 70
     1
102
RTVSPropertyOp11
 70
     1
102
RTVSPropertyOp12
 70
     1
102
RTVSPropertyOp13
 70
     1
102
RTVSPropertyOp14
 70
     1
102
RTVSPropertyOp15
 70
     1
102
RTVSPropertyOp16
 70
     1
102
RTVSPropertyOp17
 70
     1
102
RTVSPropertyOp18
 70
     1
102
RTVSPropertyOp19
 70
     1
102
RTVSPropertyOp20
 70
     1
102
RTVSPropertyOp21
 70
     1
102
RTVSPropertyOp22
 70
     1
102
RTVSPropertyOp23
 70
     1
102
RTVSPropertyOp24
 70
     1
102
RTVSPropertyOp25
 70
     1
102
RTVSPropertyOp26
 70
     1
102
RTVSPropertyOp27
 70
     1
102
RTVSPropertyOp28
 70
     1
102
RTVSPropertyOp29
 70
     1
102
RTVSPropertyOp30
 70
     1
102
RTVSPropertyOp31
 70
     1
102
RTVSPropertyOp32
 70
     1
  0
XRECORD
  5
86F1
102
{ACAD_REACTORS
330
86F0
102
}
330
86F0
100
AcDbXrecord
280
     1
102
RTVSPropertyOp0
 70
     1
102
RTVSPropertyOp1
 70
     1
102
RTVSPropertyOp2
 70
     1
102
RTVSPropertyOp3
 70
     1
102
RTVSPropertyOp4
 70
     1
102
RTVSPropertyOp5
 70
     1
102
RTVSPropertyOp6
 70
     1
102
RTVSPropertyOp7
 70
     1
102
RTVSPropertyOp8
 70
     1
102
RTVSPropertyOp9
 70
     1
102
RTVSPropertyOp10
 70
     1
102
RTVSPropertyOp11
 70
     1
102
RTVSPropertyOp12
 70
     1
102
RTVSPropertyOp13
 70
     1
102
RTVSPropertyOp14
 70
     1
102
RTVSPropertyOp15
 70
     1
102
RTVSPropertyOp16
 70
     1
102
RTVSPropertyOp17
 70
     1
102
RTVSPropertyOp18
 70
     1
102
RTVSPropertyOp19
 70
     1
102
RTVSPropertyOp20
 70
     1
102
RTVSPropertyOp21
 70
     1
102
RTVSPropertyOp22
 70
     1
102
RTVSPropertyOp23
 70
     1
102
RTVSPropertyOp24
 70
     1
102
RTVSPropertyOp25
 70
     1
102
RTVSPropertyOp26
 70
     1
102
RTVSPropertyOp27
 70
     1
102
RTVSPropertyOp28
 70
     1
102
RTVSPropertyOp29
 70
     1
102
RTVSPropertyOp30
 70
     1
102
RTVSPropertyOp31
 70
     1
102
RTVSPropertyOp32
 70
     1
  0
XRECORD
  5
86F5
102
{ACAD_REACTORS
330
86F4
102
}
330
86F4
100
AcDbXrecord
280
     1
102
RTVSPropertyOp0
 70
     1
102
RTVSPropertyOp1
 70
     1
102
RTVSPropertyOp2
 70
     1
102
RTVSPropertyOp3
 70
     1
102
RTVSPropertyOp4
 70
     1
102
RTVSPropertyOp5
 70
     1
102
RTVSPropertyOp6
 70
     1
102
RTVSPropertyOp7
 70
     1
102
RTVSPropertyOp8
 70
     1
102
RTVSPropertyOp9
 70
     1
102
RTVSPropertyOp10
 70
     1
102
RTVSPropertyOp11
 70
     1
102
RTVSPropertyOp12
 70
     1
102
RTVSPropertyOp13
 70
     1
102
RTVSPropertyOp14
 70
     1
102
RTVSPropertyOp15
 70
     1
102
RTVSPropertyOp16
 70
     1
102
RTVSPropertyOp17
 70
     1
102
RTVSPropertyOp18
 70
     1
102
RTVSPropertyOp19
 70
     1
102
RTVSPropertyOp20
 70
     1
102
RTVSPropertyOp21
 70
     1
102
RTVSPropertyOp22
 70
     1
102
RTVSPropertyOp23
 70
     1
102
RTVSPropertyOp24
 70
     1
102
RTVSPropertyOp25
 70
     1
102
RTVSPropertyOp26
 70
     1
102
RTVSPropertyOp27
 70
     1
102
RTVSPropertyOp28
 70
     1
102
RTVSPropertyOp29
 70
     1
102
RTVSPropertyOp30
 70
     1
102
RTVSPropertyOp31
 70
     1
102
RTVSPropertyOp32
 70
     1
  0
XRECORD
  5
8714
102
{ACAD_REACTORS
330
8713
102
}
330
8713
100
AcDbXrecord
280
     1
102
RTVSPropertyOp0
 70
     0
102
RTVSPropertyOp1
 70
     0
102
RTVSPropertyOp2
 70
     0
102
RTVSPropertyOp3
 70
     0
102
RTVSPropertyOp4
 70
     0
102
RTVSPropertyOp5
 70
     0
102
RTVSPropertyOp6
 70
     0
102
RTVSPropertyOp7
 70
     0
102
RTVSPropertyOp8
 70
     0
102
RTVSPropertyOp9
 70
     0
102
RTVSPropertyOp10
 70
     0
102
RTVSPropertyOp11
 70
     0
102
RTVSPropertyOp12
 70
     0
102
RTVSPropertyOp13
 70
     0
102
RTVSPropertyOp14
 70
     2
102
RTVSPropertyOp15
 70
     0
102
RTVSPropertyOp16
 70
     0
102
RTVSPropertyOp17
 70
     0
102
RTVSPropertyOp18
 70
     0
102
RTVSPropertyOp19
 70
     0
102
RTVSPropertyOp20
 70
     0
102
RTVSPropertyOp21
 70
     0
102
RTVSPropertyOp22
 70
     0
102
RTVSPropertyOp23
 70
     0
102
RTVSPropertyOp24
 70
     0
102
RTVSPropertyOp25
 70
     0
102
RTVSPropertyOp26
 70
     0
102
RTVSPropertyOp27
 70
     0
102
RTVSPropertyOp28
 70
     0
102
RTVSPropertyOp29
 70
     0
102
RTVSPropertyOp30
 70
     0
102
RTVSPropertyOp31
 70
     0
102
RTVSPropertyOp32
 70
     0
  0
XRECORD
  5
86FD
102
{ACAD_REACTORS
330
86FC
102
}
330
86FC
100
AcDbXrecord
280
     1
102
RTVSPropertyOp0
 70
     1
102
RTVSPropertyOp1
 70
     1
102
RTVSPropertyOp2
 70
     1
102
RTVSPropertyOp3
 70
     1
102
RTVSPropertyOp4
 70
     1
102
RTVSPropertyOp5
 70
     1
102
RTVSPropertyOp6
 70
     1
102
RTVSPropertyOp7
 70
     1
102
RTVSPropertyOp8
 70
     1
102
RTVSPropertyOp9
 70
     1
102
RTVSPropertyOp10
 70
     1
102
RTVSPropertyOp11
 70
     1
102
RTVSPropertyOp12
 70
     1
102
RTVSPropertyOp13
 70
     1
102
RTVSPropertyOp14
 70
     1
102
RTVSPropertyOp15
 70
     1
102
RTVSPropertyOp16
 70
     1
102
RTVSPropertyOp17
 70
     1
102
RTVSPropertyOp18
 70
     1
102
RTVSPropertyOp19
 70
     1
102
RTVSPropertyOp20
 70
     1
102
RTVSPropertyOp21
 70
     1
102
RTVSPropertyOp22
 70
     1
102
RTVSPropertyOp23
 70
     1
102
RTVSPropertyOp24
 70
     1
102
RTVSPropertyOp25
 70
     1
102
RTVSPropertyOp26
 70
     1
102
RTVSPropertyOp27
 70
     1
102
RTVSPropertyOp28
 70
     1
102
RTVSPropertyOp29
 70
     1
102
RTVSPropertyOp30
 70
     1
102
RTVSPropertyOp31
 70
     1
102
RTVSPropertyOp32
 70
     1
  0
XRECORD
  5
86E1
102
{ACAD_REACTORS
330
86E0
102
}
330
86E0
100
AcDbXrecord
280
     1
102
RTVSPropertyOp0
 70
     1
102
RTVSPropertyOp1
 70
     1
102
RTVSPropertyOp2
 70
     1
102
RTVSPropertyOp3
 70
     1
102
RTVSPropertyOp4
 70
     1
102
RTVSPropertyOp5
 70
     1
102
RTVSPropertyOp6
 70
     1
102
RTVSPropertyOp7
 70
     1
102
RTVSPropertyOp8
 70
     1
102
RTVSPropertyOp9
 70
     1
102
RTVSPropertyOp10
 70
     1
102
RTVSPropertyOp11
 70
     1
102
RTVSPropertyOp12
 70
     1
102
RTVSPropertyOp13
 70
     1
102
RTVSPropertyOp14
 70
     1
102
RTVSPropertyOp15
 70
     1
102
RTVSPropertyOp16
 70
     1
102
RTVSPropertyOp17
 70
     1
102
RTVSPropertyOp18
 70
     1
102
RTVSPropertyOp19
 70
     1
102
RTVSPropertyOp20
 70
     1
102
RTVSPropertyOp21
 70
     1
102
RTVSPropertyOp22
 70
     1
102
RTVSPropertyOp23
 70
     1
102
RTVSPropertyOp24
 70
     1
102
RTVSPropertyOp25
 70
     1
102
RTVSPropertyOp26
 70
     1
102
RTVSPropertyOp27
 70
     1
102
RTVSPropertyOp28
 70
     1
102
RTVSPropertyOp29
 70
     1
102
RTVSPropertyOp30
 70
     1
102
RTVSPropertyOp31
 70
     1
102
RTVSPropertyOp32
 70
     1
  0
XRECORD
  5
86E3
102
{ACAD_REACTORS
330
86E2
102
}
330
86E2
100
AcDbXrecord
280
     1
102
RTVSPropertyOp0
 70
     1
102
RTVSPropertyOp1
 70
     1
102
RTVSPropertyOp2
 70
     1
102
RTVSPropertyOp3
 70
     1
102
RTVSPropertyOp4
 70
     1
102
RTVSPropertyOp5
 70
     1
102
RTVSPropertyOp6
 70
     1
102
RTVSPropertyOp7
 70
     1
102
RTVSPropertyOp8
 70
     1
102
RTVSPropertyOp9
 70
     1
102
RTVSPropertyOp10
 70
     1
102
RTVSPropertyOp11
 70
     1
102
RTVSPropertyOp12
 70
     1
102
RTVSPropertyOp13
 70
     1
102
RTVSPropertyOp14
 70
     1
102
RTVSPropertyOp15
 70
     1
102
RTVSPropertyOp16
 70
     1
102
RTVSPropertyOp17
 70
     1
102
RTVSPropertyOp18
 70
     1
102
RTVSPropertyOp19
 70
     1
102
RTVSPropertyOp20
 70
     1
102
RTVSPropertyOp21
 70
     1
102
RTVSPropertyOp22
 70
     1
102
RTVSPropertyOp23
 70
     1
102
RTVSPropertyOp24
 70
     1
102
RTVSPropertyOp25
 70
     1
102
RTVSPropertyOp26
 70
     1
102
RTVSPropertyOp27
 70
     1
102
RTVSPropertyOp28
 70
     1
102
RTVSPropertyOp29
 70
     1
102
RTVSPropertyOp30
 70
     1
102
RTVSPropertyOp31
 70
     1
102
RTVSPropertyOp32
 70
     1
  0
XRECORD
  5
86E5
102
{ACAD_REACTORS
330
86E4
102
}
330
86E4
100
AcDbXrecord
280
     1
102
RTVSPropertyOp0
 70
     1
102
RTVSPropertyOp1
 70
     1
102
RTVSPropertyOp2
 70
     1
102
RTVSPropertyOp3
 70
     1
102
RTVSPropertyOp4
 70
     1
102
RTVSPropertyOp5
 70
     1
102
RTVSPropertyOp6
 70
     1
102
RTVSPropertyOp7
 70
     1
102
RTVSPropertyOp8
 70
     1
102
RTVSPropertyOp9
 70
     1
102
RTVSPropertyOp10
 70
     1
102
RTVSPropertyOp11
 70
     1
102
RTVSPropertyOp12
 70
     1
102
RTVSPropertyOp13
 70
     1
102
RTVSPropertyOp14
 70
     1
102
RTVSPropertyOp15
 70
     1
102
RTVSPropertyOp16
 70
     1
102
RTVSPropertyOp17
 70
     1
102
RTVSPropertyOp18
 70
     1
102
RTVSPropertyOp19
 70
     1
102
RTVSPropertyOp20
 70
     1
102
RTVSPropertyOp21
 70
     1
102
RTVSPropertyOp22
 70
     1
102
RTVSPropertyOp23
 70
     1
102
RTVSPropertyOp24
 70
     1
102
RTVSPropertyOp25
 70
     1
102
RTVSPropertyOp26
 70
     1
102
RTVSPropertyOp27
 70
     1
102
RTVSPropertyOp28
 70
     1
102
RTVSPropertyOp29
 70
     1
102
RTVSPropertyOp30
 70
     1
102
RTVSPropertyOp31
 70
     1
102
RTVSPropertyOp32
 70
     1
  0
XRECORD
  5
86E7
102
{ACAD_REACTORS
330
86E6
102
}
330
86E6
100
AcDbXrecord
280
     1
102
RTVSPropertyOp0
 70
     1
102
RTVSPropertyOp1
 70
     1
102
RTVSPropertyOp2
 70
     1
102
RTVSPropertyOp3
 70
     1
102
RTVSPropertyOp4
 70
     1
102
RTVSPropertyOp5
 70
     1
102
RTVSPropertyOp6
 70
     1
102
RTVSPropertyOp7
 70
     1
102
RTVSPropertyOp8
 70
     1
102
RTVSPropertyOp9
 70
     1
102
RTVSPropertyOp10
 70
     1
102
RTVSPropertyOp11
 70
     1
102
RTVSPropertyOp12
 70
     1
102
RTVSPropertyOp13
 70
     1
102
RTVSPropertyOp14
 70
     1
102
RTVSPropertyOp15
 70
     1
102
RTVSPropertyOp16
 70
     1
102
RTVSPropertyOp17
 70
     1
102
RTVSPropertyOp18
 70
     1
102
RTVSPropertyOp19
 70
     1
102
RTVSPropertyOp20
 70
     1
102
RTVSPropertyOp21
 70
     1
102
RTVSPropertyOp22
 70
     1
102
RTVSPropertyOp23
 70
     1
102
RTVSPropertyOp24
 70
     1
102
RTVSPropertyOp25
 70
     1
102
RTVSPropertyOp26
 70
     1
102
RTVSPropertyOp27
 70
     1
102
RTVSPropertyOp28
 70
     1
102
RTVSPropertyOp29
 70
     1
102
RTVSPropertyOp30
 70
     1
102
RTVSPropertyOp31
 70
     1
102
RTVSPropertyOp32
 70
     1
  0
XRECORD
  5
8704
102
{ACAD_REACTORS
330
8703
102
}
330
8703
100
AcDbXrecord
280
     1
102
RTVSPropertyOp0
 70
     1
102
RTVSPropertyOp1
 70
     1
102
RTVSPropertyOp2
 70
     1
102
RTVSPropertyOp3
 70
     1
102
RTVSPropertyOp4
 70
     1
102
RTVSPropertyOp5
 70
     1
102
RTVSPropertyOp6
 70
     1
102
RTVSPropertyOp7
 70
     1
102
RTVSPropertyOp8
 70
     1
102
RTVSPropertyOp9
 70
     1
102
RTVSPropertyOp10
 70
     1
102
RTVSPropertyOp11
 70
     1
102
RTVSPropertyOp12
 70
     1
102
RTVSPropertyOp13
 70
     1
102
RTVSPropertyOp14
 70
     1
102
RTVSPropertyOp15
 70
     1
102
RTVSPropertyOp16
 70
     1
102
RTVSPropertyOp17
 70
     1
102
RTVSPropertyOp18
 70
     1
102
RTVSPropertyOp19
 70
     1
102
RTVSPropertyOp20
 70
     1
102
RTVSPropertyOp21
 70
     1
102
RTVSPropertyOp22
 70
     1
102
RTVSPropertyOp23
 70
     1
102
RTVSPropertyOp24
 70
     1
102
RTVSPropertyOp25
 70
     1
102
RTVSPropertyOp26
 70
     1
102
RTVSPropertyOp27
 70
     1
102
RTVSPropertyOp28
 70
     1
102
RTVSPropertyOp29
 70
     1
102
RTVSPropertyOp30
 70
     1
102
RTVSPropertyOp31
 70
     1
102
RTVSPropertyOp32
 70
     1
  0
XRECORD
  5
8710
102
{ACAD_REACTORS
330
870F
102
}
330
870F
100
AcDbXrecord
280
     1
102
RTVSPropertyOp0
 70
     0
102
RTVSPropertyOp1
 70
     0
102
RTVSPropertyOp2
 70
     0
102
RTVSPropertyOp3
 70
     0
102
RTVSPropertyOp4
 70
     0
102
RTVSPropertyOp5
 70
     0
102
RTVSPropertyOp6
 70
     0
102
RTVSPropertyOp7
 70
     0
102
RTVSPropertyOp8
 70
     0
102
RTVSPropertyOp9
 70
     0
102
RTVSPropertyOp10
 70
     0
102
RTVSPropertyOp11
 70
     0
102
RTVSPropertyOp12
 70
     0
102
RTVSPropertyOp13
 70
     0
102
RTVSPropertyOp14
 70
     2
102
RTVSPropertyOp15
 70
     0
102
RTVSPropertyOp16
 70
     0
102
RTVSPropertyOp17
 70
     0
102
RTVSPropertyOp18
 70
     0
102
RTVSPropertyOp19
 70
     0
102
RTVSPropertyOp20
 70
     0
102
RTVSPropertyOp21
 70
     0
102
RTVSPropertyOp22
 70
     0
102
RTVSPropertyOp23
 70
     0
102
RTVSPropertyOp24
 70
     0
102
RTVSPropertyOp25
 70
     0
102
RTVSPropertyOp26
 70
     0
102
RTVSPropertyOp27
 70
     0
102
RTVSPropertyOp28
 70
     0
102
RTVSPropertyOp29
 70
     0
102
RTVSPropertyOp30
 70
     0
102
RTVSPropertyOp31
 70
     0
102
RTVSPropertyOp32
 70
     0
  0
XRECORD
  5
86FB
102
{ACAD_REACTORS
330
86FA
102
}
330
86FA
100
AcDbXrecord
280
     1
102
RTVSPropertyOp0
 70
     1
102
RTVSPropertyOp1
 70
     1
102
RTVSPropertyOp2
 70
     1
102
RTVSPropertyOp3
 70
     1
102
RTVSPropertyOp4
 70
     1
102
RTVSPropertyOp5
 70
     1
102
RTVSPropertyOp6
 70
     1
102
RTVSPropertyOp7
 70
     1
102
RTVSPropertyOp8
 70
     1
102
RTVSPropertyOp9
 70
     1
102
RTVSPropertyOp10
 70
     1
102
RTVSPropertyOp11
 70
     1
102
RTVSPropertyOp12
 70
     1
102
RTVSPropertyOp13
 70
     1
102
RTVSPropertyOp14
 70
     1
102
RTVSPropertyOp15
 70
     1
102
RTVSPropertyOp16
 70
     1
102
RTVSPropertyOp17
 70
     1
102
RTVSPropertyOp18
 70
     1
102
RTVSPropertyOp19
 70
     1
102
RTVSPropertyOp20
 70
     1
102
RTVSPropertyOp21
 70
     1
102
RTVSPropertyOp22
 70
     1
102
RTVSPropertyOp23
 70
     1
102
RTVSPropertyOp24
 70
     1
102
RTVSPropertyOp25
 70
     1
102
RTVSPropertyOp26
 70
     1
102
RTVSPropertyOp27
 70
     1
102
RTVSPropertyOp28
 70
     1
102
RTVSPropertyOp29
 70
     1
102
RTVSPropertyOp30
 70
     1
102
RTVSPropertyOp31
 70
     1
102
RTVSPropertyOp32
 70
     1
  0
XRECORD
  5
8712
102
{ACAD_REACTORS
330
8711
102
}
330
8711
100
AcDbXrecord
280
     1
102
RTVSPropertyOp0
 70
     0
102
RTVSPropertyOp1
 70
     0
102
RTVSPropertyOp2
 70
     0
102
RTVSPropertyOp3
 70
     0
102
RTVSPropertyOp4
 70
     0
102
RTVSPropertyOp5
 70
     0
102
RTVSPropertyOp6
 70
     0
102
RTVSPropertyOp7
 70
     0
102
RTVSPropertyOp8
 70
     0
102
RTVSPropertyOp9
 70
     0
102
RTVSPropertyOp10
 70
     0
102
RTVSPropertyOp11
 70
     0
102
RTVSPropertyOp12
 70
     0
102
RTVSPropertyOp13
 70
     0
102
RTVSPropertyOp14
 70
     2
102
RTVSPropertyOp15
 70
     0
102
RTVSPropertyOp16
 70
     0
102
RTVSPropertyOp17
 70
     0
102
RTVSPropertyOp18
 70
     0
102
RTVSPropertyOp19
 70
     0
102
RTVSPropertyOp20
 70
     0
102
RTVSPropertyOp21
 70
     0
102
RTVSPropertyOp22
 70
     0
102
RTVSPropertyOp23
 70
     0
102
RTVSPropertyOp24
 70
     0
102
RTVSPropertyOp25
 70
     0
102
RTVSPropertyOp26
 70
     0
102
RTVSPropertyOp27
 70
     0
102
RTVSPropertyOp28
 70
     0
102
RTVSPropertyOp29
 70
     0
102
RTVSPropertyOp30
 70
     0
102
RTVSPropertyOp31
 70
     0
102
RTVSPropertyOp32
 70
     0
  0
XRECORD
  5
86F3
102
{ACAD_REACTORS
330
86F2
102
}
330
86F2
100
AcDbXrecord
280
     1
102
RTVSPropertyOp0
 70
     1
102
RTVSPropertyOp1
 70
     1
102
RTVSPropertyOp2
 70
     1
102
RTVSPropertyOp3
 70
     1
102
RTVSPropertyOp4
 70
     1
102
RTVSPropertyOp5
 70
     1
102
RTVSPropertyOp6
 70
     1
102
RTVSPropertyOp7
 70
     1
102
RTVSPropertyOp8
 70
     1
102
RTVSPropertyOp9
 70
     1
102
RTVSPropertyOp10
 70
     1
102
RTVSPropertyOp11
 70
     1
102
RTVSPropertyOp12
 70
     1
102
RTVSPropertyOp13
 70
     1
102
RTVSPropertyOp14
 70
     1
102
RTVSPropertyOp15
 70
     1
102
RTVSPropertyOp16
 70
     1
102
RTVSPropertyOp17
 70
     1
102
RTVSPropertyOp18
 70
     1
102
RTVSPropertyOp19
 70
     1
102
RTVSPropertyOp20
 70
     1
102
RTVSPropertyOp21
 70
     1
102
RTVSPropertyOp22
 70
     1
102
RTVSPropertyOp23
 70
     1
102
RTVSPropertyOp24
 70
     1
102
RTVSPropertyOp25
 70
     1
102
RTVSPropertyOp26
 70
     1
102
RTVSPropertyOp27
 70
     1
102
RTVSPropertyOp28
 70
     1
102
RTVSPropertyOp29
 70
     1
102
RTVSPropertyOp30
 70
     1
102
RTVSPropertyOp31
 70
     1
102
RTVSPropertyOp32
 70
     1
  0
XRECORD
  5
870E
102
{ACAD_REACTORS
330
870D
102
}
330
870D
100
AcDbXrecord
280
     1
102
RTVSPropertyOp0
 70
     1
102
RTVSPropertyOp1
 70
     1
102
RTVSPropertyOp2
 70
     1
102
RTVSPropertyOp3
 70
     1
102
RTVSPropertyOp4
 70
     1
102
RTVSPropertyOp5
 70
     1
102
RTVSPropertyOp6
 70
     1
102
RTVSPropertyOp7
 70
     1
102
RTVSPropertyOp8
 70
     1
102
RTVSPropertyOp9
 70
     1
102
RTVSPropertyOp10
 70
     1
102
RTVSPropertyOp11
 70
     1
102
RTVSPropertyOp12
 70
     1
102
RTVSPropertyOp13
 70
     1
102
RTVSPropertyOp14
 70
     1
102
RTVSPropertyOp15
 70
     1
102
RTVSPropertyOp16
 70
     1
102
RTVSPropertyOp17
 70
     1
102
RTVSPropertyOp18
 70
     1
102
RTVSPropertyOp19
 70
     1
102
RTVSPropertyOp20
 70
     1
102
RTVSPropertyOp21
 70
     1
102
RTVSPropertyOp22
 70
     1
102
RTVSPropertyOp23
 70
     1
102
RTVSPropertyOp24
 70
     1
102
RTVSPropertyOp25
 70
     1
102
RTVSPropertyOp26
 70
     1
102
RTVSPropertyOp27
 70
     1
102
RTVSPropertyOp28
 70
     1
102
RTVSPropertyOp29
 70
     1
102
RTVSPropertyOp30
 70
     1
102
RTVSPropertyOp31
 70
     1
102
RTVSPropertyOp32
 70
     1
  0
XRECORD
  5
870C
102
{ACAD_REACTORS
330
870B
102
}
330
870B
100
AcDbXrecord
280
     1
102
RTVSPropertyOp0
 70
     1
102
RTVSPropertyOp1
 70
     1
102
RTVSPropertyOp2
 70
     1
102
RTVSPropertyOp3
 70
     1
102
RTVSPropertyOp4
 70
     1
102
RTVSPropertyOp5
 70
     1
102
RTVSPropertyOp6
 70
     1
102
RTVSPropertyOp7
 70
     1
102
RTVSPropertyOp8
 70
     1
102
RTVSPropertyOp9
 70
     1
102
RTVSPropertyOp10
 70
     1
102
RTVSPropertyOp11
 70
     1
102
RTVSPropertyOp12
 70
     1
102
RTVSPropertyOp13
 70
     1
102
RTVSPropertyOp14
 70
     1
102
RTVSPropertyOp15
 70
     1
102
RTVSPropertyOp16
 70
     1
102
RTVSPropertyOp17
 70
     1
102
RTVSPropertyOp18
 70
     1
102
RTVSPropertyOp19
 70
     1
102
RTVSPropertyOp20
 70
     1
102
RTVSPropertyOp21
 70
     1
102
RTVSPropertyOp22
 70
     1
102
RTVSPropertyOp23
 70
     1
102
RTVSPropertyOp24
 70
     1
102
RTVSPropertyOp25
 70
     1
102
RTVSPropertyOp26
 70
     1
102
RTVSPropertyOp27
 70
     1
102
RTVSPropertyOp28
 70
     1
102
RTVSPropertyOp29
 70
     1
102
RTVSPropertyOp30
 70
     1
102
RTVSPropertyOp31
 70
     1
102
RTVSPropertyOp32
 70
     1
  0
XRECORD
  5
8706
102
{ACAD_REACTORS
330
8705
102
}
330
8705
100
AcDbXrecord
280
     1
102
RTVSPropertyOp0
 70
     1
102
RTVSPropertyOp1
 70
     1
102
RTVSPropertyOp2
 70
     1
102
RTVSPropertyOp3
 70
     1
102
RTVSPropertyOp4
 70
     1
102
RTVSPropertyOp5
 70
     1
102
RTVSPropertyOp6
 70
     1
102
RTVSPropertyOp7
 70
     1
102
RTVSPropertyOp8
 70
     1
102
RTVSPropertyOp9
 70
     1
102
RTVSPropertyOp10
 70
     1
102
RTVSPropertyOp11
 70
     1
102
RTVSPropertyOp12
 70
     1
102
RTVSPropertyOp13
 70
     1
102
RTVSPropertyOp14
 70
     1
102
RTVSPropertyOp15
 70
     1
102
RTVSPropertyOp16
 70
     1
102
RTVSPropertyOp17
 70
     1
102
RTVSPropertyOp18
 70
     1
102
RTVSPropertyOp19
 70
     1
102
RTVSPropertyOp20
 70
     1
102
RTVSPropertyOp21
 70
     1
102
RTVSPropertyOp22
 70
     1
102
RTVSPropertyOp23
 70
     1
102
RTVSPropertyOp24
 70
     1
102
RTVSPropertyOp25
 70
     1
102
RTVSPropertyOp26
 70
     1
102
RTVSPropertyOp27
 70
     1
102
RTVSPropertyOp28
 70
     1
102
RTVSPropertyOp29
 70
     1
102
RTVSPropertyOp30
 70
     1
102
RTVSPropertyOp31
 70
     1
102
RTVSPropertyOp32
 70
     1
  0
XRECORD
  5
8708
102
{ACAD_REACTORS
330
8707
102
}
330
8707
100
AcDbXrecord
280
     1
102
RTVSPropertyOp0
 70
     1
102
RTVSPropertyOp1
 70
     1
102
RTVSPropertyOp2
 70
     1
102
RTVSPropertyOp3
 70
     1
102
RTVSPropertyOp4
 70
     1
102
RTVSPropertyOp5
 70
     1
102
RTVSPropertyOp6
 70
     1
102
RTVSPropertyOp7
 70
     1
102
RTVSPropertyOp8
 70
     1
102
RTVSPropertyOp9
 70
     1
102
RTVSPropertyOp10
 70
     1
102
RTVSPropertyOp11
 70
     1
102
RTVSPropertyOp12
 70
     1
102
RTVSPropertyOp13
 70
     1
102
RTVSPropertyOp14
 70
     1
102
RTVSPropertyOp15
 70
     1
102
RTVSPropertyOp16
 70
     1
102
RTVSPropertyOp17
 70
     1
102
RTVSPropertyOp18
 70
     1
102
RTVSPropertyOp19
 70
     1
102
RTVSPropertyOp20
 70
     1
102
RTVSPropertyOp21
 70
     1
102
RTVSPropertyOp22
 70
     1
102
RTVSPropertyOp23
 70
     1
102
RTVSPropertyOp24
 70
     1
102
RTVSPropertyOp25
 70
     1
102
RTVSPropertyOp26
 70
     1
102
RTVSPropertyOp27
 70
     1
102
RTVSPropertyOp28
 70
     1
102
RTVSPropertyOp29
 70
     1
102
RTVSPropertyOp30
 70
     1
102
RTVSPropertyOp31
 70
     1
102
RTVSPropertyOp32
 70
     1
  0
XRECORD
  5
86F9
102
{ACAD_REACTORS
330
86F8
102
}
330
86F8
100
AcDbXrecord
280
     1
102
RTVSPropertyOp0
 70
     1
102
RTVSPropertyOp1
 70
     1
102
RTVSPropertyOp2
 70
     1
102
RTVSPropertyOp3
 70
     1
102
RTVSPropertyOp4
 70
     1
102
RTVSPropertyOp5
 70
     1
102
RTVSPropertyOp6
 70
     1
102
RTVSPropertyOp7
 70
     1
102
RTVSPropertyOp8
 70
     1
102
RTVSPropertyOp9
 70
     1
102
RTVSPropertyOp10
 70
     1
102
RTVSPropertyOp11
 70
     1
102
RTVSPropertyOp12
 70
     1
102
RTVSPropertyOp13
 70
     1
102
RTVSPropertyOp14
 70
     1
102
RTVSPropertyOp15
 70
     1
102
RTVSPropertyOp16
 70
     1
102
RTVSPropertyOp17
 70
     1
102
RTVSPropertyOp18
 70
     1
102
RTVSPropertyOp19
 70
     1
102
RTVSPropertyOp20
 70
     1
102
RTVSPropertyOp21
 70
     1
102
RTVSPropertyOp22
 70
     1
102
RTVSPropertyOp23
 70
     1
102
RTVSPropertyOp24
 70
     1
102
RTVSPropertyOp25
 70
     1
102
RTVSPropertyOp26
 70
     1
102
RTVSPropertyOp27
 70
     1
102
RTVSPropertyOp28
 70
     1
102
RTVSPropertyOp29
 70
     1
102
RTVSPropertyOp30
 70
     1
102
RTVSPropertyOp31
 70
     1
102
RTVSPropertyOp32
 70
     1
  0
XRECORD
  5
8702
102
{ACAD_REACTORS
330
8701
102
}
330
8701
100
AcDbXrecord
280
     1
102
RTVSPropertyOp0
 70
     1
102
RTVSPropertyOp1
 70
     1
102
RTVSPropertyOp2
 70
     1
102
RTVSPropertyOp3
 70
     1
102
RTVSPropertyOp4
 70
     1
102
RTVSPropertyOp5
 70
     1
102
RTVSPropertyOp6
 70
     1
102
RTVSPropertyOp7
 70
     1
102
RTVSPropertyOp8
 70
     1
102
RTVSPropertyOp9
 70
     1
102
RTVSPropertyOp10
 70
     1
102
RTVSPropertyOp11
 70
     1
102
RTVSPropertyOp12
 70
     1
102
RTVSPropertyOp13
 70
     1
102
RTVSPropertyOp14
 70
     1
102
RTVSPropertyOp15
 70
     1
102
RTVSPropertyOp16
 70
     1
102
RTVSPropertyOp17
 70
     1
102
RTVSPropertyOp18
 70
     1
102
RTVSPropertyOp19
 70
     1
102
RTVSPropertyOp20
 70
     1
102
RTVSPropertyOp21
 70
     1
102
RTVSPropertyOp22
 70
     1
102
RTVSPropertyOp23
 70
     1
102
RTVSPropertyOp24
 70
     1
102
RTVSPropertyOp25
 70
     1
102
RTVSPropertyOp26
 70
     1
102
RTVSPropertyOp27
 70
     1
102
RTVSPropertyOp28
 70
     1
102
RTVSPropertyOp29
 70
     1
102
RTVSPropertyOp30
 70
     1
102
RTVSPropertyOp31
 70
     1
102
RTVSPropertyOp32
 70
     1
  0
XRECORD
  5
870A
102
{ACAD_REACTORS
330
8709
102
}
330
8709
100
AcDbXrecord
280
     1
102
RTVSPropertyOp0
 70
     1
102
RTVSPropertyOp1
 70
     1
102
RTVSPropertyOp2
 70
     1
102
RTVSPropertyOp3
 70
     1
102
RTVSPropertyOp4
 70
     1
102
RTVSPropertyOp5
 70
     1
102
RTVSPropertyOp6
 70
     1
102
RTVSPropertyOp7
 70
     1
102
RTVSPropertyOp8
 70
     1
102
RTVSPropertyOp9
 70
     1
102
RTVSPropertyOp10
 70
     1
102
RTVSPropertyOp11
 70
     1
102
RTVSPropertyOp12
 70
     1
102
RTVSPropertyOp13
 70
     1
102
RTVSPropertyOp14
 70
     1
102
RTVSPropertyOp15
 70
     1
102
RTVSPropertyOp16
 70
     1
102
RTVSPropertyOp17
 70
     1
102
RTVSPropertyOp18
 70
     1
102
RTVSPropertyOp19
 70
     1
102
RTVSPropertyOp20
 70
     1
102
RTVSPropertyOp21
 70
     1
102
RTVSPropertyOp22
 70
     1
102
RTVSPropertyOp23
 70
     1
102
RTVSPropertyOp24
 70
     1
102
RTVSPropertyOp25
 70
     1
102
RTVSPropertyOp26
 70
     1
102
RTVSPropertyOp27
 70
     1
102
RTVSPropertyOp28
 70
     1
102
RTVSPropertyOp29
 70
     1
102
RTVSPropertyOp30
 70
     1
102
RTVSPropertyOp31
 70
     1
102
RTVSPropertyOp32
 70
     1
  0
ENDSEC
  0
EOF
