  0
SECTION
  2
HEADER
  9
$ACADVER
  1
AC1015
  9
$ACADMAINTVER
 70
    18
  9
$DWGCODEPAGE
  3
ANSI_1252
  9
$INSBASE
 10
0.0
 20
0.0
 30
0.0
  9
$EXTMIN
 10
-0.0010375184955553
 20
-0.0006713354969798
 30
-0.0015258207003612
  9
$EXTMAX
 10
22.0012207792668
 20
17.00051884896936
 30
0.0000000349246008
  9
$LIMMIN
 10
0.0000000169183778
 20
0.000000006132197
  9
$LIMMAX
 10
34.00000001691838
 20
22.0000000061322
  9
$ORTHOMODE
 70
     1
  9
$REGENMODE
 70
     1
  9
$FILLMODE
 70
     1
  9
$QTEXTMODE
 70
     0
  9
$MIRRTEXT
 70
     1
  9
$LTSCALE
 40
0.5
  9
$ATTMODE
 70
     1
  9
$TEXTSIZE
 40
0.25
  9
$TRACEWID
 40
0.05
  9
$TEXTSTYLE
  7
Standard
  9
$CLAYER
  8
0
  9
$CELTYPE
  6
ByLayer
  9
$CECOLOR
 62
   256
  9
$CELTSCALE
 40
1.0
  9
$DISPSILH
 70
     0
  9
$DIMSCALE
 40
1.0
  9
$DIMASZ
 40
0.18
  9
$DIMEXO
 40
0.0625
  9
$DIMDLI
 40
0.38
  9
$DIMRND
 40
0.0
  9
$DIMDLE
 40
0.0
  9
$DIMEXE
 40
0.18
  9
$DIMTP
 40
0.0
  9
$DIMTM
 40
0.0
  9
$DIMTXT
 40
0.125
  9
$DIMCEN
 40
0.09
  9
$DIMTSZ
 40
0.0
  9
$DIMTOL
 70
     0
  9
$DIMLIM
 70
     0
  9
$DIMTIH
 70
     1
  9
$DIMTOH
 70
     1
  9
$DIMSE1
 70
     0
  9
$DIMSE2
 70
     0
  9
$DIMTAD
 70
     0
  9
$DIMZIN
 70
     0
  9
$DIMBLK
  1

  9
$DIMASO
 70
     1
  9
$DIMSHO
 70
     1
  9
$DIMPOST
  1

  9
$DIMAPOST
  1

  9
$DIMALT
 70
     1
  9
$DIMALTD
 70
     2
  9
$DIMALTF
 40
25.4
  9
$DIMLFAC
 40
1.0
  9
$DIMTOFL
 70
     0
  9
$DIMTVP
 40
0.0
  9
$DIMTIX
 70
     0
  9
$DIMSOXD
 70
     0
  9
$DIMSAH
 70
     0
  9
$DIMBLK1
  1

  9
$DIMBLK2
  1

  9
$DIMSTYLE
  2
Standard
  9
$DIMCLRD
 70
     0
  9
$DIMCLRE
 70
     0
  9
$DIMCLRT
 70
     0
  9
$DIMTFAC
 40
1.0
  9
$DIMGAP
 40
0.09
  9
$DIMJUST
 70
     0
  9
$DIMSD1
 70
     0
  9
$DIMSD2
 70
     0
  9
$DIMTOLJ
 70
     1
  9
$DIMTZIN
 70
     0
  9
$DIMALTZ
 70
     0
  9
$DIMALTTZ
 70
     0
  9
$DIMUPT
 70
     0
  9
$DIMDEC
 70
     2
  9
$DIMTDEC
 70
     2
  9
$DIMALTU
 70
     2
  9
$DIMALTTD
 70
     2
  9
$DIMTXSTY
  7
Standard
  9
$DIMAUNIT
 70
     0
  9
$DIMADEC
 70
     0
  9
$DIMALTRND
 40
0.0
  9
$DIMAZIN
 70
     0
  9
$DIMDSEP
 70
    46
  9
$DIMATFIT
 70
     3
  9
$DIMFRAC
 70
     0
  9
$DIMLDRBLK
  1

  9
$DIMLUNIT
 70
     2
  9
$DIMLWD
 70
    -2
  9
$DIMLWE
 70
    -2
  9
$DIMTMOVE
 70
     0
  9
$LUNITS
 70
     2
  9
$LUPREC
 70
     4
  9
$SKETCHINC
 40
0.1
  9
$FILLETRAD
 40
0.0
  9
$AUNITS
 70
     0
  9
$AUPREC
 70
     0
  9
$MENU
  1
.
  9
$ELEVATION
 40
0.0
  9
$PELEVATION
 40
0.0
  9
$THICKNESS
 40
0.0
  9
$LIMCHECK
 70
     0
  9
$CHAMFERA
 40
0.5
  9
$CHAMFERB
 40
0.5
  9
$CHAMFERC
 40
1.0
  9
$CHAMFERD
 40
0.0
  9
$SKPOLY
 70
     0
  9
$TDCREATE
 40
2455646.343855880
  9
$TDUCREATE
 40
2455646.510522546
  9
$TDUPDATE
 40
2456008.638073137
  9
$TDUUPDATE
 40
2456008.804739803
  9
$TDINDWG
 40
1.7006027431
  9
$TDUSRTIMER
 40
1.7006027431
  9
$USRTIMER
 70
     1
  9
$ANGBASE
 50
0.0
  9
$ANGDIR
 70
     0
  9
$PDMODE
 70
     0
  9
$PDSIZE
 40
0.0
  9
$PLINEWID
 40
0.0
  9
$SPLFRAME
 70
     0
  9
$SPLINETYPE
 70
     6
  9
$SPLINESEGS
 70
     8
  9
$HANDSEED
  5
7D4C
  9
$SURFTAB1
 70
     6
  9
$SURFTAB2
 70
     6
  9
$SURFTYPE
 70
     6
  9
$SURFU
 70
     6
  9
$SURFV
 70
     6
  9
$UCSBASE
  2

  9
$UCSNAME
  2

  9
$UCSORG
 10
0.0
 20
0.0
 30
0.0
  9
$UCSXDIR
 10
1.0
 20
0.0
 30
0.0
  9
$UCSYDIR
 10
0.0
 20
1.0
 30
0.0
  9
$UCSORTHOREF
  2

  9
$UCSORTHOVIEW
 70
     1
  9
$UCSORGTOP
 10
0.0
 20
0.0
 30
0.0
  9
$UCSORGBOTTOM
 10
0.0
 20
0.0
 30
0.0
  9
$UCSORGLEFT
 10
0.0
 20
0.0
 30
0.0
  9
$UCSORGRIGHT
 10
0.0
 20
0.0
 30
0.0
  9
$UCSORGFRONT
 10
0.0
 20
0.0
 30
0.0
  9
$UCSORGBACK
 10
0.0
 20
0.0
 30
0.0
  9
$PUCSBASE
  2

  9
$PUCSNAME
  2

  9
$PUCSORG
 10
0.0
 20
0.0
 30
0.0
  9
$PUCSXDIR
 10
1.0
 20
0.0
 30
0.0
  9
$PUCSYDIR
 10
0.0
 20
1.0
 30
0.0
  9
$PUCSORTHOREF
  2

  9
$PUCSORTHOVIEW
 70
     0
  9
$PUCSORGTOP
 10
0.0
 20
0.0
 30
0.0
  9
$PUCSORGBOTTOM
 10
0.0
 20
0.0
 30
0.0
  9
$PUCSORGLEFT
 10
0.0
 20
0.0
 30
0.0
  9
$PUCSORGRIGHT
 10
0.0
 20
0.0
 30
0.0
  9
$PUCSORGFRONT
 10
0.0
 20
0.0
 30
0.0
  9
$PUCSORGBACK
 10
0.0
 20
0.0
 30
0.0
  9
$USERI1
 70
     0
  9
$USERI2
 70
     0
  9
$USERI3
 70
     0
  9
$USERI4
 70
     0
  9
$USERI5
 70
     0
  9
$USERR1
 40
0.0
  9
$USERR2
 40
0.0
  9
$USERR3
 40
0.0
  9
$USERR4
 40
0.0
  9
$USERR5
 40
0.0
  9
$WORLDVIEW
 70
     1
  9
$SHADEDGE
 70
     3
  9
$SHADEDIF
 70
    70
  9
$TILEMODE
 70
     1
  9
$MAXACTVP
 70
    64
  9
$PINSBASE
 10
0.0
 20
0.0
 30
0.0
  9
$PLIMCHECK
 70
     0
  9
$PEXTMIN
 10
1.000000000000000E+20
 20
1.000000000000000E+20
 30
1.000000000000000E+20
  9
$PEXTMAX
 10
-1.000000000000000E+20
 20
-1.000000000000000E+20
 30
-1.000000000000000E+20
  9
$PLIMMIN
 10
0.0
 20
0.0
  9
$PLIMMAX
 10
12.0
 20
9.0
  9
$UNITMODE
 70
     0
  9
$VISRETAIN
 70
     1
  9
$PLINEGEN
 70
     0
  9
$PSLTSCALE
 70
     1
  9
$TREEDEPTH
 70
  3020
  9
$CMLSTYLE
  2
Standard
  9
$CMLJUST
 70
     0
  9
$CMLSCALE
 40
1.0
  9
$PROXYGRAPHICS
 70
     1
  9
$MEASUREMENT
 70
     0
  9
$CELWEIGHT
370
    -1
  9
$ENDCAPS
280
     0
  9
$JOINSTYLE
280
     0
  9
$LWDISPLAY
290
     0
  9
$INSUNITS
 70
     0
  9
$HYPERLINKBASE
  1

  9
$STYLESHEET
  1
monochromeII.ctb
  9
$XEDIT
290
     1
  9
$CEPSNTYPE
380
     0
  9
$PSTYLEMODE
290
     1
  9
$FINGERPRINTGUID
  2
{64101CB1-6290-486C-808A-919D98B85827}
  9
$VERSIONGUID
  2
{33A1E081-4164-432B-B4CC-59C26DAEF4A9}
  9
$EXTNAMES
290
     1
  9
$PSVPSCALE
 40
0.0
  9
$OLESTARTUP
290
     0
  0
ENDSEC
  0
SECTION
  2
CLASSES
  0
CLASS
  1
ACDBDICTIONARYWDFLT
  2
AcDbDictionaryWithDefault
  3
ObjectDBX Classes
 90
        0
280
     0
281
     0
  0
CLASS
  1
ACDBPLACEHOLDER
  2
AcDbPlaceHolder
  3
ObjectDBX Classes
 90
        0
280
     0
281
     0
  0
CLASS
  1
LAYOUT
  2
AcDbLayout
  3
ObjectDBX Classes
 90
        0
280
     0
281
     0
  0
CLASS
  1
MATERIAL
  2
AcDbMaterial
  3
ObjectDBX Classes
 90
     1153
280
     0
281
     0
  0
CLASS
  1
VISUALSTYLE
  2
AcDbVisualStyle
  3
ObjectDBX Classes
 90
     4095
280
     0
281
     0
  0
CLASS
  1
TABLESTYLE
  2
AcDbTableStyle
  3
ObjectDBX Classes
 90
     4095
280
     0
281
     0
  0
CLASS
  1
SCALE
  2
AcDbScale
  3
ObjectDBX Classes
 90
     1153
280
     0
281
     0
  0
CLASS
  1
MLEADERSTYLE
  2
AcDbMLeaderStyle
  3
ACDB_MLEADERSTYLE_CLASS
 90
     4095
280
     0
281
     0
  0
CLASS
  1
CELLSTYLEMAP
  2
AcDbCellStyleMap
  3
ObjectDBX Classes
 90
     1152
280
     0
281
     0
  0
CLASS
  1
DICTIONARYVAR
  2
AcDbDictionaryVar
  3
ObjectDBX Classes
 90
        0
280
     0
281
     0
  0
CLASS
  1
SORTENTSTABLE
  2
AcDbSortentsTable
  3
ObjectDBX Classes
 90
        0
280
     0
281
     0
  0
CLASS
  1
ACAD_EVALUATION_GRAPH
  2
AcDbEvalGraph
  3
ObjectDBX Classes
 90
    33921
280
     0
281
     0
  0
CLASS
  1
ACAECUSTOBJ
  2
AcAeEditorObj
  3
AcAeEditorObj
 90
    33792
280
     0
281
     0
  0
CLASS
  1
ACDB_DYNAMICBLOCKPURGEPREVENTER_VERSION
  2
AcDbDynamicBlockPurgePreventer
  3
ObjectDBX Classes
 90
    33921
280
     0
281
     0
  0
CLASS
  1
AEC_REFEDIT_STATUS_TRACKER
  2
AecDbRefEditStatusTracker
  3
AecArchBase60|Product Desc: Autodesk Architectural Desktop 2007 |Company: Autodesk,Inc. |WEB Address: www.autodesk.com
 90
    32897
280
     0
281
     0
  0
CLASS
  1
NPOCOLLECTION
  2
AcDbImpNonPersistentObjectsCollection
  3
ObjectDBX Classes
 90
    33921
280
     0
281
     0
  0
CLASS
  1
ACAD_TABLE
  2
AcDbTable
  3
ObjectDBX Classes
 90
    33793
280
     0
281
     1
  0
CLASS
  1
ACDBDATATABLE
  2
AcDbDataTable
  3
AcMapAnnotObj|Product Desc:     AutoCAD MAP DBX App for Annotation Entity|Company:          Autodesk,Inc.|WEB Address:      www.autodesk.com
 90
    32768
280
     0
281
     0
  0
CLASS
  1
ACSH_HISTORY_CLASS
  2
AcDbShHistory
  3
ObjectDBX Classes
 90
    33921
280
     0
281
     0
  0
CLASS
  1
ACDBASSOCPERSSUBENTMANAGER
  2
AcDbAssocPersSubentManager
  3
ObjectDBX Classes
 90
     1024
280
     0
281
     0
  0
CLASS
  1
SOLID_BACKGROUND
  2
AcDbSolidBackground
  3
SCENEOE
 90
    36863
280
     0
281
     0
  0
CLASS
  1
ACSH_EXTRUSION_CLASS
  2
AcDbShExtrusion
  3
ObjectDBX Classes
 90
    33921
280
     0
281
     0
  0
CLASS
  1
ACSH_BOOLEAN_CLASS
  2
AcDbShBoolean
  3
ObjectDBX Classes
 90
    33921
280
     0
281
     0
  0
CLASS
  1
ACDBPERSSUBENTMANAGER
  2
AcDbPersSubentManager
  3
AcDbPersSubentManager
 90
     1024
280
     0
281
     0
  0
CLASS
  1
WIPEOUT
  2
AcDbWipeout
  3
"WipeOut|Product Desc: Object Enabler for WipeOut entity                        |Company: Autodesk, Inc.                        |WEB Address: www.autodesk.com"
 90
    34943
280
     0
281
     1
  0
CLASS
  1
WIPEOUTVARIABLES
  2
AcDbWipeoutVariables
  3
"WipeOut|Product Desc:     WipeOut Dbx Application|Company:          Autodesk, Inc.|WEB Address:      www.autodesk.com"
 90
        0
280
     0
281
     0
  0
ENDSEC
  0
SECTION
  2
TABLES
  0
TABLE
  2
VPORT
  5
8
102
{ACAD_XDICTIONARY
360
181
102
}
330
0
100
AcDbSymbolTable
 70
     1
  0
VPORT
  5
31
330
8
100
AcDbSymbolTableRecord
100
AcDbViewportTableRecord
  2
*Active
 70
     0
 10
0.0
 20
0.0
 11
1.0
 21
1.0
 12
-5.914299373871354
 22
-2.047130436363575
 13
0.0
 23
0.0
 14
0.0625
 24
0.0625
 15
0.25
 25
0.25
 16
0.0
 26
0.0
 36
1.0
 17
16.91439100425697
 27
10.54705419309976
 37
4.013960091384387
 40
17.20358530570998
 41
1.477137176938369
 42
50.0
 43
0.0
 44
0.0
 50
0.0
 51
0.0
 71
     0
 72
  1000
 73
     1
 74
     2
 75
     1
 76
     1
 77
     0
 78
     0
281
     0
 65
     1
110
0.0
120
0.0
130
0.0
111
1.0
121
0.0
131
0.0
112
0.0
122
1.0
132
0.0
 79
     0
146
0.0
  0
ENDTAB
  0
TABLE
  2
LTYPE
  5
5
330
0
100
AcDbSymbolTable
 70
     1
  0
LTYPE
  5
14
330
5
100
AcDbSymbolTableRecord
100
AcDbLinetypeTableRecord
  2
ByBlock
 70
     0
  3

 72
    65
 73
     0
 40
0.0
  0
LTYPE
  5
15
330
5
100
AcDbSymbolTableRecord
100
AcDbLinetypeTableRecord
  2
ByLayer
 70
     0
  3

 72
    65
 73
     0
 40
0.0
  0
LTYPE
  5
16
330
5
100
AcDbSymbolTableRecord
100
AcDbLinetypeTableRecord
  2
Continuous
 70
     0
  3
Solid line
 72
    65
 73
     0
 40
0.0
  0
ENDTAB
  0
TABLE
  2
LAYER
  5
2
102
{ACAD_XDICTIONARY
360
107
102
}
330
0
100
AcDbSymbolTable
 70
     4
  0
LAYER
  5
10
102
{ACAD_XDICTIONARY
360
17C
102
}
330
2
100
AcDbSymbolTableRecord
100
AcDbLayerTableRecord
  2
0
 70
     0
 62
     7
  6
Continuous
370
    -3
390
F
  0
LAYER
  5
52F5
330
2
100
AcDbSymbolTableRecord
100
AcDbLayerTableRecord
  2
TEXT
 70
     0
 62
     2
  6
Continuous
370
    -3
390
F
  0
LAYER
  5
69B6
330
2
100
AcDbSymbolTableRecord
100
AcDbLayerTableRecord
  2
DIM
 70
     0
 62
     1
  6
Continuous
370
    -3
390
F
  0
LAYER
  5
69B7
330
2
100
AcDbSymbolTableRecord
100
AcDbLayerTableRecord
  2
Defpoints
 70
     0
 62
     7
  6
Continuous
290
     0
370
    -3
390
F
  0
ENDTAB
  0
TABLE
  2
STYLE
  5
3
330
0
100
AcDbSymbolTable
 70
     1
  0
STYLE
  5
11
330
3
100
AcDbSymbolTableRecord
100
AcDbTextStyleTableRecord
  2
Standard
 70
     0
 40
0.0
 41
0.8
 50
0.0
 71
     0
 42
0.25
  3
txt
  4

  0
ENDTAB
  0
TABLE
  2
VIEW
  5
6
330
0
100
AcDbSymbolTable
 70
     0
  0
ENDTAB
  0
TABLE
  2
UCS
  5
7
330
0
100
AcDbSymbolTable
 70
     0
  0
ENDTAB
  0
TABLE
  2
APPID
  5
9
330
0
100
AcDbSymbolTable
 70
   102
  0
APPID
  5
12
330
9
100
AcDbSymbolTableRecord
100
AcDbRegAppTableRecord
  2
ACAD
 70
     0
  0
APPID
  5
84
330
9
100
AcDbSymbolTableRecord
100
AcDbRegAppTableRecord
  2
ACAD_MLEADERVER
 70
     0
  0
APPID
  5
104
330
9
100
AcDbSymbolTableRecord
100
AcDbRegAppTableRecord
  2
AcDbBlockRepETag
 70
     0
  0
APPID
  5
105
330
9
100
AcDbSymbolTableRecord
100
AcDbRegAppTableRecord
  2
AcDbDynamicBlockGUID
 70
     0
  0
APPID
  5
106
330
9
100
AcDbSymbolTableRecord
100
AcDbRegAppTableRecord
  2
ACAD_PSEXT
 70
     0
  0
APPID
  5
388
330
9
100
AcDbSymbolTableRecord
100
AcDbRegAppTableRecord
  2
AcadAnnotative
 70
     0
  0
APPID
  5
389
330
9
100
AcDbSymbolTableRecord
100
AcDbRegAppTableRecord
  2
ACAD_DSTYLE_DIMJAG
 70
     0
  0
APPID
  5
38A
330
9
100
AcDbSymbolTableRecord
100
AcDbRegAppTableRecord
  2
ACAD_DSTYLE_DIMTALN
 70
     0
  0
APPID
  5
38B
330
9
100
AcDbSymbolTableRecord
100
AcDbRegAppTableRecord
  2
AcadAnnoPO
 70
     0
  0
APPID
  5
4DD
330
9
100
AcDbSymbolTableRecord
100
AcDbRegAppTableRecord
  2
AcDbAttr
 70
     0
  0
APPID
  5
A19
330
9
100
AcDbSymbolTableRecord
100
AcDbRegAppTableRecord
  2
RE-TLINK
 70
     0
  0
APPID
  5
A1A
330
9
100
AcDbSymbolTableRecord
100
AcDbRegAppTableRecord
  2
N8SOL-TLINK
 70
     0
  0
APPID
  5
A1B
330
9
100
AcDbSymbolTableRecord
100
AcDbRegAppTableRecord
  2
VIA_WD_TAGFMT
 70
     0
  0
APPID
  5
A1C
330
9
100
AcDbSymbolTableRecord
100
AcDbRegAppTableRecord
  2
VIA_WD_BASETAG
 70
     0
  0
APPID
  5
A1D
330
9
100
AcDbSymbolTableRecord
100
AcDbRegAppTableRecord
  2
VIA_WD_HDL
 70
     0
  0
APPID
  5
1000
330
9
100
AcDbSymbolTableRecord
100
AcDbRegAppTableRecord
  2
ACAD_EXEMPT_FROM_CAD_STANDARDS
 70
     0
  0
APPID
  5
1744
330
9
100
AcDbSymbolTableRecord
100
AcDbRegAppTableRecord
  2
AcAecLayerStandard
 70
     0
  0
APPID
  5
2631
330
9
100
AcDbSymbolTableRecord
100
AcDbRegAppTableRecord
  2
DCO15
 70
     0
  0
APPID
  5
280F
330
9
100
AcDbSymbolTableRecord
100
AcDbRegAppTableRecord
  2
ACAUTHENVIRON
 70
     0
  0
APPID
  5
2813
330
9
100
AcDbSymbolTableRecord
100
AcDbRegAppTableRecord
  2
AcDbDynamicBlockTrueName
 70
     0
  0
APPID
  5
2AA1
330
9
100
AcDbSymbolTableRecord
100
AcDbRegAppTableRecord
  2
VIA_WD_ASSYCODE
 70
     0
  0
APPID
  5
2AA2
330
9
100
AcDbSymbolTableRecord
100
AcDbRegAppTableRecord
  2
ACAD_DSTYLE_DIMTEXT_FILL
 70
     0
  0
APPID
  5
2AA3
330
9
100
AcDbSymbolTableRecord
100
AcDbRegAppTableRecord
  2
AcDbBlockRepBTag
 70
     0
  0
APPID
  5
2ACC
330
9
100
AcDbSymbolTableRecord
100
AcDbRegAppTableRecord
  2
VIA_WD_FP
 70
     0
  0
APPID
  5
2ACD
330
9
100
AcDbSymbolTableRecord
100
AcDbRegAppTableRecord
  2
VIA_WD_DESC1
 70
     0
  0
APPID
  5
2ACE
330
9
100
AcDbSymbolTableRecord
100
AcDbRegAppTableRecord
  2
VIA_WD_DESC2
 70
     0
  0
APPID
  5
2ACF
330
9
100
AcDbSymbolTableRecord
100
AcDbRegAppTableRecord
  2
VIA_WD_DESC3
 70
     0
  0
APPID
  5
2AD0
330
9
100
AcDbSymbolTableRecord
100
AcDbRegAppTableRecord
  2
VIA_WD_INST
 70
     0
  0
APPID
  5
2AD1
330
9
100
AcDbSymbolTableRecord
100
AcDbRegAppTableRecord
  2
VIA_WD_LOC
 70
     0
  0
APPID
  5
2AD2
330
9
100
AcDbSymbolTableRecord
100
AcDbRegAppTableRecord
  2
VIA_WD_MFG
 70
     0
  0
APPID
  5
2AD3
330
9
100
AcDbSymbolTableRecord
100
AcDbRegAppTableRecord
  2
VIA_WD_CAT
 70
     0
  0
APPID
  5
2AD4
330
9
100
AcDbSymbolTableRecord
100
AcDbRegAppTableRecord
  2
VIA_WD_CNT
 70
     0
  0
APPID
  5
2AD5
330
9
100
AcDbSymbolTableRecord
100
AcDbRegAppTableRecord
  2
VIA_WD_UM
 70
     0
  0
APPID
  5
2AD6
330
9
100
AcDbSymbolTableRecord
100
AcDbRegAppTableRecord
  2
VIA_WD_WDBLKNAM
 70
     0
  0
APPID
  5
2AD7
330
9
100
AcDbSymbolTableRecord
100
AcDbRegAppTableRecord
  2
VIA_WD_MOUNT
 70
     0
  0
APPID
  5
2AD8
330
9
100
AcDbSymbolTableRecord
100
AcDbRegAppTableRecord
  2
VIA_WD_GROUPWITH
 70
     0
  0
APPID
  5
2AD9
330
9
100
AcDbSymbolTableRecord
100
AcDbRegAppTableRecord
  2
VIA_WD_P_ITEM
 70
     0
  0
APPID
  5
2ADA
330
9
100
AcDbSymbolTableRecord
100
AcDbRegAppTableRecord
  2
VIA_WD_ITEM_FLAG
 70
     0
  0
APPID
  5
32E0
330
9
100
AcDbSymbolTableRecord
100
AcDbRegAppTableRecord
  2
VIA_WD_ASSYCODE03
 70
     0
  0
APPID
  5
32E1
330
9
100
AcDbSymbolTableRecord
100
AcDbRegAppTableRecord
  2
VIA_WD_CNT03
 70
     0
  0
APPID
  5
32E2
330
9
100
AcDbSymbolTableRecord
100
AcDbRegAppTableRecord
  2
VIA_WD_UM03
 70
     0
  0
APPID
  5
32E3
330
9
100
AcDbSymbolTableRecord
100
AcDbRegAppTableRecord
  2
VIA_WD_ITEM03
 70
     0
  0
APPID
  5
32E4
330
9
100
AcDbSymbolTableRecord
100
AcDbRegAppTableRecord
  2
VIA_WD_ITEM_FLAG03
 70
     0
  0
APPID
  5
32E5
330
9
100
AcDbSymbolTableRecord
100
AcDbRegAppTableRecord
  2
VIA_WD_ASSYCODE02
 70
     0
  0
APPID
  5
32E6
330
9
100
AcDbSymbolTableRecord
100
AcDbRegAppTableRecord
  2
VIA_WD_CNT02
 70
     0
  0
APPID
  5
32E7
330
9
100
AcDbSymbolTableRecord
100
AcDbRegAppTableRecord
  2
VIA_WD_UM02
 70
     0
  0
APPID
  5
32E8
330
9
100
AcDbSymbolTableRecord
100
AcDbRegAppTableRecord
  2
VIA_WD_ITEM02
 70
     0
  0
APPID
  5
32E9
330
9
100
AcDbSymbolTableRecord
100
AcDbRegAppTableRecord
  2
VIA_WD_ITEM_FLAG02
 70
     0
  0
APPID
  5
32EA
330
9
100
AcDbSymbolTableRecord
100
AcDbRegAppTableRecord
  2
VIA_WD_ASSYCODE01
 70
     0
  0
APPID
  5
32EB
330
9
100
AcDbSymbolTableRecord
100
AcDbRegAppTableRecord
  2
VIA_WD_CNT01
 70
     0
  0
APPID
  5
32EC
330
9
100
AcDbSymbolTableRecord
100
AcDbRegAppTableRecord
  2
VIA_WD_UM01
 70
     0
  0
APPID
  5
32ED
330
9
100
AcDbSymbolTableRecord
100
AcDbRegAppTableRecord
  2
VIA_WD_ITEM01
 70
     0
  0
APPID
  5
32EE
330
9
100
AcDbSymbolTableRecord
100
AcDbRegAppTableRecord
  2
VIA_WD_ITEM_FLAG01
 70
     0
  0
APPID
  5
333F
330
9
100
AcDbSymbolTableRecord
100
AcDbRegAppTableRecord
  2
VIA_WD_BALLPARAMS
 70
     0
  0
APPID
  5
3343
330
9
100
AcDbSymbolTableRecord
100
AcDbRegAppTableRecord
  2
VIA_WD_BALLPTR
 70
     0
  0
APPID
  5
3344
330
9
100
AcDbSymbolTableRecord
100
AcDbRegAppTableRecord
  2
VIA_WD_BALLPTR01
 70
     0
  0
APPID
  5
3345
330
9
100
AcDbSymbolTableRecord
100
AcDbRegAppTableRecord
  2
VIA_WD_BAL
 70
     0
  0
APPID
  5
3349
330
9
100
AcDbSymbolTableRecord
100
AcDbRegAppTableRecord
  2
VIA_WD_BALLPTR02
 70
     0
  0
APPID
  5
334D
330
9
100
AcDbSymbolTableRecord
100
AcDbRegAppTableRecord
  2
VIA_WD_BALLPTR03
 70
     0
  0
APPID
  5
3678
330
9
100
AcDbSymbolTableRecord
100
AcDbRegAppTableRecord
  2
ACE_TABLE_WDTYPE
 70
     0
  0
APPID
  5
3679
330
9
100
AcDbSymbolTableRecord
100
AcDbRegAppTableRecord
  2
ACE_TABLE_SETTINGS
 70
     0
  0
APPID
  5
367A
330
9
100
AcDbSymbolTableRecord
100
AcDbRegAppTableRecord
  2
ACE_TABLE_TOGGLES
 70
     0
  0
APPID
  5
367B
330
9
100
AcDbSymbolTableRecord
100
AcDbRegAppTableRecord
  2
ACE_TABLE_BOMDSPLST
 70
     0
  0
APPID
  5
367C
330
9
100
AcDbSymbolTableRecord
100
AcDbRegAppTableRecord
  2
ACE_TABLE_BOMDESC
 70
     0
  0
APPID
  5
367D
330
9
100
AcDbSymbolTableRecord
100
AcDbRegAppTableRecord
  2
ACE_TABLE_FLDNAMS1
 70
     0
  0
APPID
  5
367E
330
9
100
AcDbSymbolTableRecord
100
AcDbRegAppTableRecord
  2
ACE_TABLE_CALCCOLWID
 70
     0
  0
APPID
  5
367F
330
9
100
AcDbSymbolTableRecord
100
AcDbRegAppTableRecord
  2
ACE_TABLE_PROJECT
 70
     0
  0
APPID
  5
3680
330
9
100
AcDbSymbolTableRecord
100
AcDbRegAppTableRecord
  2
ACE_TABLE_BUILDUP
 70
     0
  0
APPID
  5
3681
330
9
100
AcDbSymbolTableRecord
100
AcDbRegAppTableRecord
  2
ACE_TABLE_BORDER
 70
     0
  0
APPID
  5
3682
330
9
100
AcDbSymbolTableRecord
100
AcDbRegAppTableRecord
  2
ACE_TABLE_INCTITLE
 70
     0
  0
APPID
  5
3683
330
9
100
AcDbSymbolTableRecord
100
AcDbRegAppTableRecord
  2
ACE_TABLE_INCTIMEDATE
 70
     0
  0
APPID
  5
3684
330
9
100
AcDbSymbolTableRecord
100
AcDbRegAppTableRecord
  2
ACE_TABLE_INCPROJECT
 70
     0
  0
APPID
  5
3685
330
9
100
AcDbSymbolTableRecord
100
AcDbRegAppTableRecord
  2
ACE_TABLE_INCLABELS
 70
     0
  0
APPID
  5
3686
330
9
100
AcDbSymbolTableRecord
100
AcDbRegAppTableRecord
  2
ACE_TABLE_TITLEONE
 70
     0
  0
APPID
  5
3687
330
9
100
AcDbSymbolTableRecord
100
AcDbRegAppTableRecord
  2
ACE_TABLE_LABELONE
 70
     0
  0
APPID
  5
3688
330
9
100
AcDbSymbolTableRecord
100
AcDbRegAppTableRecord
  2
ACE_TABLE_INCBLOCK
 70
     0
  0
APPID
  5
3689
330
9
100
AcDbSymbolTableRecord
100
AcDbRegAppTableRecord
  2
ACE_TABLE_INCREPORT
 70
     0
  0
APPID
  5
368A
330
9
100
AcDbSymbolTableRecord
100
AcDbRegAppTableRecord
  2
ACE_TABLE_BLKNAM
 70
     0
  0
APPID
  5
368B
330
9
100
AcDbSymbolTableRecord
100
AcDbRegAppTableRecord
  2
ACE_TABLE_RPTLST
 70
     0
  0
APPID
  5
368C
330
9
100
AcDbSymbolTableRecord
100
AcDbRegAppTableRecord
  2
ACE_TABLE_TYPE
 70
     0
  0
APPID
  5
368D
330
9
100
AcDbSymbolTableRecord
100
AcDbRegAppTableRecord
  2
ACE_TABLE_SET
 70
     0
  0
APPID
  5
368E
330
9
100
AcDbSymbolTableRecord
100
AcDbRegAppTableRecord
  2
ACE_TABLE_SECTION
 70
     0
  0
APPID
  5
368F
330
9
100
AcDbSymbolTableRecord
100
AcDbRegAppTableRecord
  2
ACE_TABLE_1STROW
 70
     0
  0
APPID
  5
3690
330
9
100
AcDbSymbolTableRecord
100
AcDbRegAppTableRecord
  2
ACE_TABLE_INDEXLST
 70
     0
  0
APPID
  5
3691
330
9
100
AcDbSymbolTableRecord
100
AcDbRegAppTableRecord
  2
ACE_TABLE_TABLEN
 70
     0
  0
APPID
  5
3692
330
9
100
AcDbSymbolTableRecord
100
AcDbRegAppTableRecord
  2
ACE_TABLE_BEGIN
 70
     0
  0
APPID
  5
3693
330
9
100
AcDbSymbolTableRecord
100
AcDbRegAppTableRecord
  2
ACE_TABLE_END
 70
     0
  0
APPID
  5
3694
330
9
100
AcDbSymbolTableRecord
100
AcDbRegAppTableRecord
  2
ACE_TABLE_MAXROWS
 70
     0
  0
APPID
  5
3695
330
9
100
AcDbSymbolTableRecord
100
AcDbRegAppTableRecord
  2
ACE_TABLE_MAXTBLS
 70
     0
  0
APPID
  5
3696
330
9
100
AcDbSymbolTableRecord
100
AcDbRegAppTableRecord
  2
ACE_TABLE_TBL2TBLX
 70
     0
  0
APPID
  5
3697
330
9
100
AcDbSymbolTableRecord
100
AcDbRegAppTableRecord
  2
ACE_TABLE_TBL2TBLY
 70
     0
  0
APPID
  5
3698
330
9
100
AcDbSymbolTableRecord
100
AcDbRegAppTableRecord
  2
ACE_TABLE_FORCEROWS
 70
     0
  0
APPID
  5
3699
330
9
100
AcDbSymbolTableRecord
100
AcDbRegAppTableRecord
  2
ACE_TABLE_COLNUMS
 70
     0
  0
APPID
  5
369A
330
9
100
AcDbSymbolTableRecord
100
AcDbRegAppTableRecord
  2
ACE_TABLE_LNSP
 70
     0
  0
APPID
  5
3ED3
330
9
100
AcDbSymbolTableRecord
100
AcDbRegAppTableRecord
  2
RAK
 70
     0
  0
APPID
  5
4643
330
9
100
AcDbSymbolTableRecord
100
AcDbRegAppTableRecord
  2
ACAD_DSTYLE_DIMBREAK
 70
     0
  0
APPID
  5
4644
330
9
100
AcDbSymbolTableRecord
100
AcDbRegAppTableRecord
  2
VIA_WD_P_TAG1
 70
     0
  0
APPID
  5
4DD5
330
9
100
AcDbSymbolTableRecord
100
AcDbRegAppTableRecord
  2
ACADSTEP
 70
     0
  0
APPID
  5
4E71
330
9
100
AcDbSymbolTableRecord
100
AcDbRegAppTableRecord
  2
ACAD_DSTYLE_DIMJOGGED_JOGANGLE_SYMBOL
 70
     0
  0
APPID
  5
549B
330
9
100
AcDbSymbolTableRecord
100
AcDbRegAppTableRecord
  2
VIA_WD_WDBLKNAM01
 70
     0
  0
APPID
  5
549C
330
9
100
AcDbSymbolTableRecord
100
AcDbRegAppTableRecord
  2
VIA_WD_WDBLKNAM02
 70
     0
  0
APPID
  5
7153
330
9
100
AcDbSymbolTableRecord
100
AcDbRegAppTableRecord
  2
TCAD
 70
     0
  0
ENDTAB
  0
TABLE
  2
DIMSTYLE
  5
A
330
0
100
AcDbSymbolTable
 70
     1
100
AcDbDimStyleTable
 71
     1
340
27
  0
DIMSTYLE
105
27
102
{ACAD_REACTORS
330
72FE
330
7309
330
75A3
102
}
330
A
100
AcDbSymbolTableRecord
100
AcDbDimStyleTableRecord
  2
Standard
 70
     0
140
0.125
170
     1
271
     2
272
     2
340
11
1001
ACAD_DSTYLE_DIMJAG
1070
   388
1040
1.5
1001
ACAD_DSTYLE_DIMTALN
1070
   392
1070
     0
  0
ENDTAB
  0
TABLE
  2
BLOCK_RECORD
  5
1
330
0
100
AcDbSymbolTable
 70
     4
  0
BLOCK_RECORD
  5
1F
102
{ACAD_XDICTIONARY
360
17A
102
}
330
1
100
AcDbSymbolTableRecord
100
AcDbBlockTableRecord
  2
*Model_Space
340
22
  0
BLOCK_RECORD
  5
1B
330
1
100
AcDbSymbolTableRecord
100
AcDbBlockTableRecord
  2
*Paper_Space
340
1E
  0
BLOCK_RECORD
  5
23
330
1
100
AcDbSymbolTableRecord
100
AcDbBlockTableRecord
  2
*Paper_Space0
340
26
  0
BLOCK_RECORD
  5
732E
330
1
100
AcDbSymbolTableRecord
100
AcDbBlockTableRecord
  2
*D1
340
0
  0
BLOCK_RECORD
  5
733B
330
1
100
AcDbSymbolTableRecord
100
AcDbBlockTableRecord
  2
*D2
340
0
  0
BLOCK_RECORD
  5
75A6
330
1
100
AcDbSymbolTableRecord
100
AcDbBlockTableRecord
  2
*D3
340
0
  0
ENDTAB
  0
ENDSEC
  0
SECTION
  2
BLOCKS
  0
BLOCK
  5
20
330
1F
100
AcDbEntity
  8
0
100
AcDbBlockBegin
  2
*Model_Space
 70
     0
 10
0.0
 20
0.0
 30
0.0
  3
*Model_Space
  1

  0
ENDBLK
  5
21
330
1F
100
AcDbEntity
  8
0
100
AcDbBlockEnd
  0
BLOCK
  5
1C
330
1B
100
AcDbEntity
 67
     1
  8
0
100
AcDbBlockBegin
  2
*Paper_Space
 70
     0
 10
0.0
 20
0.0
 30
0.0
  3
*Paper_Space
  1

  0
ENDBLK
  5
1D
330
1B
100
AcDbEntity
 67
     1
  8
0
100
AcDbBlockEnd
  0
BLOCK
  5
24
330
23
100
AcDbEntity
 67
     1
  8
0
100
AcDbBlockBegin
  2
*Paper_Space0
 70
     0
 10
0.0
 20
0.0
 30
0.0
  3
*Paper_Space0
  1

  0
ENDBLK
  5
25
330
23
100
AcDbEntity
 67
     1
  8
0
100
AcDbBlockEnd
  0
BLOCK
  5
732F
330
732E
100
AcDbEntity
  8
0
100
AcDbBlockBegin
  2
*D1
 70
     1
 10
0.0
 20
0.0
 30
0.0
  3
*D1
  1

  0
LINE
  5
7C08
330
732E
100
AcDbEntity
  8
DIM
 62
     0
370
    -2
100
AcDbLine
 10
12.52296019496705
 20
10.39336219933496
 30
0.0
 11
13.32133439527815
 21
10.39336219933496
 31
0.0
  0
LINE
  5
7C09
330
732E
100
AcDbEntity
  8
DIM
 62
     0
370
    -2
100
AcDbLine
 10
12.52296019496705
 20
5.239363699334965
 30
0.0
 11
13.32133439527815
 21
5.239363699334965
 31
0.0
  0
LINE
  5
7C0A
330
732E
100
AcDbEntity
  8
DIM
 62
     0
370
    -2
100
AcDbLine
 10
13.14133439527815
 20
10.21336219933496
 30
0.0
 11
13.14133439527815
 21
7.968862949334964
 31
0.0
  0
LINE
  5
7C0B
330
732E
100
AcDbEntity
  8
DIM
 62
     0
370
    -2
100
AcDbLine
 10
13.14133439527815
 20
5.419363699334965
 30
0.0
 11
13.14133439527815
 21
7.663862949334965
 31
0.0
  0
SOLID
  5
7C0C
330
732E
100
AcDbEntity
  8
DIM
 62
     0
100
AcDbTrace
 10
13.11133439527815
 20
10.21336219933496
 30
0.0
 11
13.17133439527815
 21
10.21336219933496
 31
0.0
 12
13.14133439527815
 22
10.39336219933496
 32
0.0
 13
13.14133439527815
 23
10.39336219933496
 33
0.0
  0
SOLID
  5
7C0D
330
732E
100
AcDbEntity
  8
DIM
 62
     0
100
AcDbTrace
 10
13.11133439527815
 20
5.419363699334965
 30
0.0
 11
13.17133439527815
 21
5.419363699334965
 31
0.0
 12
13.14133439527815
 22
5.239363699334965
 32
0.0
 13
13.14133439527815
 23
5.239363699334965
 33
0.0
  0
MTEXT
  5
7C0E
330
732E
100
AcDbEntity
  8
DIM
 62
     0
100
AcDbMText
 10
13.14133439527815
 20
7.816362949334966
 30
0.0
 40
0.125
 41
0.0
 71
     5
 72
     1
  1
\A1;5.15 [130.91]
 73
     1
 44
1.0
1001
ACAD
1000
MTEXTBEGIN
1070
    73
1070
     1
1070
    44
1040
1.0
1070
    74
1070
     0
1000
MTEXTEND
  0
POINT
  5
7C0F
330
732E
100
AcDbEntity
  8
Defpoints
 62
     0
100
AcDbPoint
 10
12.46046019496705
 20
10.39336219933496
 30
0.0
  0
POINT
  5
7C10
330
732E
100
AcDbEntity
  8
Defpoints
 62
     0
100
AcDbPoint
 10
12.46046019496705
 20
5.239363699334965
 30
0.0
  0
POINT
  5
7C11
330
732E
100
AcDbEntity
  8
Defpoints
 62
     0
100
AcDbPoint
 10
13.14133439527815
 20
5.239363699334965
 30
0.0
  0
ENDBLK
  5
7330
330
732E
100
AcDbEntity
  8
0
100
AcDbBlockEnd
  0
BLOCK
  5
733C
330
733B
100
AcDbEntity
  8
0
100
AcDbBlockBegin
  2
*D2
 70
     1
 10
0.0
 20
0.0
 30
0.0
  3
*D2
  1

  0
LINE
  5
7C12
330
733B
100
AcDbEntity
  8
DIM
 62
     0
370
    -2
100
AcDbLine
 10
9.175480194967043
 20
10.45586219933496
 30
0.0
 11
9.175480194967043
 21
11.02625722487879
 31
0.0
  0
LINE
  5
7C13
330
733B
100
AcDbEntity
  8
DIM
 62
     0
370
    -2
100
AcDbLine
 10
12.46046019496705
 20
10.45586219933496
 30
0.0
 11
12.46046019496705
 21
11.02625722487879
 31
0.0
  0
LINE
  5
7C14
330
733B
100
AcDbEntity
  8
DIM
 62
     0
370
    -2
100
AcDbLine
 10
9.355480194967043
 20
10.84625722487879
 30
0.0
 11
10.24463686163371
 21
10.84625722487879
 31
0.0
  0
LINE
  5
7C15
330
733B
100
AcDbEntity
  8
DIM
 62
     0
370
    -2
100
AcDbLine
 10
12.28046019496705
 20
10.84625722487879
 30
0.0
 11
11.39130352830038
 21
10.84625722487879
 31
0.0
  0
SOLID
  5
7C16
330
733B
100
AcDbEntity
  8
DIM
 62
     0
100
AcDbTrace
 10
9.355480194967043
 20
10.87625722487879
 30
0.0
 11
9.355480194967043
 21
10.81625722487879
 31
0.0
 12
9.175480194967043
 22
10.84625722487879
 32
0.0
 13
9.175480194967043
 23
10.84625722487879
 33
0.0
  0
SOLID
  5
7C17
330
733B
100
AcDbEntity
  8
DIM
 62
     0
100
AcDbTrace
 10
12.28046019496705
 20
10.87625722487879
 30
0.0
 11
12.28046019496705
 21
10.81625722487879
 31
0.0
 12
12.46046019496705
 22
10.84625722487879
 32
0.0
 13
12.46046019496705
 23
10.84625722487879
 33
0.0
  0
MTEXT
  5
7C18
330
733B
100
AcDbEntity
  8
DIM
 62
     0
100
AcDbMText
 10
10.81797019496704
 20
10.84625722487879
 30
0.0
 40
0.125
 41
0.0
 71
     5
 72
     1
  1
\A1;3.28 [83.44]
 73
     1
 44
1.0
1001
ACAD
1000
MTEXTBEGIN
1070
    73
1070
     1
1070
    44
1040
1.0
1070
    74
1070
     0
1000
MTEXTEND
  0
POINT
  5
7C19
330
733B
100
AcDbEntity
  8
Defpoints
 62
     0
100
AcDbPoint
 10
9.175480194967043
 20
10.39336219933496
 30
0.0
  0
POINT
  5
7C1A
330
733B
100
AcDbEntity
  8
Defpoints
 62
     0
100
AcDbPoint
 10
12.46046019496705
 20
10.39336219933496
 30
0.0
  0
POINT
  5
7C1B
330
733B
100
AcDbEntity
  8
Defpoints
 62
     0
100
AcDbPoint
 10
12.46046019496705
 20
10.84625722487879
 30
0.0
  0
ENDBLK
  5
733D
330
733B
100
AcDbEntity
  8
0
100
AcDbBlockEnd
  0
BLOCK
  5
75A7
330
75A6
100
AcDbEntity
  8
0
100
AcDbBlockBegin
  2
*D3
 70
     1
 10
0.0
 20
0.0
 30
0.0
  3
*D3
  1

  0
LINE
  5
7C1C
330
75A6
100
AcDbEntity
  8
DIM
 62
     0
370
    -2
100
AcDbLine
 10
7.972447934030849
 20
9.782455447015649
 30
0.0
 11
7.972447934030849
 21
11.02209601167315
 31
0.0
  0
LINE
  5
7C1D
330
75A6
100
AcDbEntity
  8
DIM
 62
     0
370
    -2
100
AcDbLine
 10
6.263902950554214
 20
7.866136038433044
 30
0.0
 11
6.263902950554214
 21
11.02209601167315
 31
0.0
  0
LINE
  5
7C1E
330
75A6
100
AcDbEntity
  8
DIM
 62
     0
370
    -2
100
AcDbLine
 10
7.79244793403085
 20
10.84209601167315
 30
0.0
 11
7.649842108959198
 21
10.84209601167315
 31
0.0
  0
LINE
  5
7C1F
330
75A6
100
AcDbEntity
  8
DIM
 62
     0
370
    -2
100
AcDbLine
 10
6.443902950554214
 20
10.84209601167315
 30
0.0
 11
6.586508775625866
 21
10.84209601167315
 31
0.0
  0
SOLID
  5
7C20
330
75A6
100
AcDbEntity
  8
DIM
 62
     0
100
AcDbTrace
 10
7.79244793403085
 20
10.87209601167315
 30
0.0
 11
7.79244793403085
 21
10.81209601167315
 31
0.0
 12
7.972447934030849
 22
10.84209601167315
 32
0.0
 13
7.972447934030849
 23
10.84209601167315
 33
0.0
  0
SOLID
  5
7C21
330
75A6
100
AcDbEntity
  8
DIM
 62
     0
100
AcDbTrace
 10
6.443902950554214
 20
10.87209601167315
 30
0.0
 11
6.443902950554214
 21
10.81209601167315
 31
0.0
 12
6.263902950554214
 22
10.84209601167315
 32
0.0
 13
6.263902950554214
 23
10.84209601167315
 33
0.0
  0
MTEXT
  5
7C22
330
75A6
100
AcDbEntity
  8
DIM
 62
     0
100
AcDbMText
 10
7.118175442292532
 20
10.84209601167315
 30
0.0
 40
0.125
 41
0.0
 71
     5
 72
     1
  1
\A1;1.71 [43.40]
 73
     1
 44
1.0
1001
ACAD
1000
MTEXTBEGIN
1070
    73
1070
     1
1070
    44
1040
1.0
1070
    74
1070
     0
1000
MTEXTEND
  0
POINT
  5
7C23
330
75A6
100
AcDbEntity
  8
Defpoints
 62
     0
100
AcDbPoint
 10
7.972447934030849
 20
9.719955447015649
 30
0.0
  0
POINT
  5
7C24
330
75A6
100
AcDbEntity
  8
Defpoints
 62
     0
100
AcDbPoint
 10
6.263902950554214
 20
7.803636038433044
 30
0.0
  0
POINT
  5
7C25
330
75A6
100
AcDbEntity
  8
Defpoints
 62
     0
100
AcDbPoint
 10
6.263902950554214
 20
10.84209601167315
 30
0.0
  0
ENDBLK
  5
75A8
330
75A6
100
AcDbEntity
  8
0
100
AcDbBlockEnd
  0
ENDSEC
  0
SECTION
  2
ENTITIES
  0
LINE
  5
7250
330
1F
100
AcDbEntity
  8
0
100
AcDbLine
 10
11.95893169496705
 20
7.285225699334965
 30
0.0
 11
11.95893169496705
 21
5.278707199334959
 31
0.0
1001
ACAD
1000
TCW40_DEV_WIDTH
1002
{
1040
-3.0
1002
}
  0
LINE
  5
7251
330
1F
100
AcDbEntity
  8
0
100
AcDbLine
 10
11.56549669496705
 20
7.285225699334965
 30
0.0
 11
11.56549669496705
 21
5.278707199334959
 31
0.0
1001
ACAD
1000
TCW40_DEV_WIDTH
1002
{
1040
-3.0
1002
}
  0
LINE
  5
7252
330
1F
100
AcDbEntity
  8
0
100
AcDbLine
 10
11.56549669496705
 20
7.285225699334965
 30
0.0
 11
11.95893169496705
 21
7.285225699334965
 31
0.0
1001
ACAD
1000
TCW40_DEV_WIDTH
1002
{
1040
-3.0
1002
}
  0
LINE
  5
7253
330
1F
100
AcDbEntity
  8
0
100
AcDbLine
 10
11.56549669496705
 20
5.278707199334959
 30
0.0
 11
11.95893169496705
 21
5.278707199334959
 31
0.0
1001
ACAD
1000
TCW40_DEV_WIDTH
1002
{
1040
-3.0
1002
}
  0
LINE
  5
7254
330
1F
100
AcDbEntity
  8
0
100
AcDbLine
 10
11.56549669496705
 20
7.226210449334963
 30
0.0
 11
11.68352719496705
 21
7.226210449334963
 31
0.0
1001
ACAD
1000
TCW40_DEV_WIDTH
1002
{
1040
-3.0
1002
}
  0
LINE
  5
7255
330
1F
100
AcDbEntity
  8
0
100
AcDbLine
 10
11.84090119496704
 20
7.226210449334963
 30
0.0
 11
11.95893169496705
 21
7.226210449334963
 31
0.0
1001
ACAD
1000
TCW40_DEV_WIDTH
1002
{
1040
-3.0
1002
}
  0
LINE
  5
7256
330
1F
100
AcDbEntity
  8
0
100
AcDbLine
 10
11.60484019496705
 20
7.088508199334967
 30
0.0
 11
11.91958819496705
 21
7.088508199334967
 31
0.0
1001
ACAD
1000
TCW40_DEV_WIDTH
1002
{
1040
-3.0
1002
}
  0
LINE
  5
7258
330
1F
100
AcDbEntity
  8
0
100
AcDbLine
 10
11.68352719496705
 20
7.226210449334963
 30
0.0
 11
11.68352719496705
 21
7.285225699334965
 31
0.0
1001
ACAD
1000
TCW40_DEV_WIDTH
1002
{
1040
-3.0
1002
}
  0
CIRCLE
  5
7259
330
1F
100
AcDbEntity
  8
0
100
AcDbCircle
 10
11.76221419496705
 20
7.186866949334962
 30
0.0
 40
0.0393435
  0
LINE
  5
725A
330
1F
100
AcDbEntity
  8
0
100
AcDbLine
 10
11.60484019496705
 20
7.088508199334967
 30
0.0
 11
11.60484019496705
 21
5.475424699334965
 31
0.0
1001
ACAD
1000
TCW40_DEV_WIDTH
1002
{
1040
-3.0
1002
}
  0
LINE
  5
725B
330
1F
100
AcDbEntity
  8
0
100
AcDbLine
 10
11.95893169496705
 20
7.245882199334964
 30
0.0
 11
11.95893169496705
 21
6.302453630440481
 31
0.0
1001
ACAD
1000
TCW40_DEV_WIDTH
1002
{
1040
-3.0
1002
}
  0
LINE
  5
725C
330
1F
100
AcDbEntity
  8
0
100
AcDbLine
 10
11.95893169496705
 20
6.143448768229447
 30
0.0
 11
11.95893169496705
 21
5.278707199334959
 31
0.0
1001
ACAD
1000
TCW40_DEV_WIDTH
1002
{
1040
-3.0
1002
}
  0
LINE
  5
725D
330
1F
100
AcDbEntity
  8
0
100
AcDbLine
 10
11.91958819496705
 20
7.088508199334967
 30
0.0
 11
11.91958819496705
 21
5.475424699334965
 31
0.0
1001
ACAD
1000
TCW40_DEV_WIDTH
1002
{
1040
-3.0
1002
}
  0
LINE
  5
725E
330
1F
100
AcDbEntity
  8
0
100
AcDbLine
 10
11.56549669496705
 20
5.278707199334959
 30
0.0
 11
11.95893169496705
 21
5.278707199334959
 31
0.0
1001
ACAD
1000
TCW40_DEV_WIDTH
1002
{
1040
-3.0
1002
}
  0
LINE
  5
725F
330
1F
100
AcDbEntity
  8
0
100
AcDbLine
 10
11.56549669496705
 20
5.337722449334961
 30
0.0
 11
11.68352719496705
 21
5.337722449334961
 31
0.0
1001
ACAD
1000
TCW40_DEV_WIDTH
1002
{
1040
-3.0
1002
}
  0
LINE
  5
7260
330
1F
100
AcDbEntity
  8
0
100
AcDbLine
 10
11.84090119496704
 20
5.337722449334961
 30
0.0
 11
11.95893169496705
 21
5.337722449334961
 31
0.0
1001
ACAD
1000
TCW40_DEV_WIDTH
1002
{
1040
-3.0
1002
}
  0
LINE
  5
7261
330
1F
100
AcDbEntity
  8
0
100
AcDbLine
 10
11.60484019496705
 20
5.475424699334965
 30
0.0
 11
11.91958819496705
 21
5.475424699334965
 31
0.0
1001
ACAD
1000
TCW40_DEV_WIDTH
1002
{
1040
-3.0
1002
}
  0
LINE
  5
7263
330
1F
100
AcDbEntity
  8
0
100
AcDbLine
 10
11.68352719496705
 20
5.337722449334961
 30
0.0
 11
11.68352719496705
 21
5.278707199334959
 31
0.0
1001
ACAD
1000
TCW40_DEV_WIDTH
1002
{
1040
-3.0
1002
}
  0
CIRCLE
  5
7264
330
1F
100
AcDbEntity
  8
0
100
AcDbCircle
 10
11.76221419496705
 20
5.377065949334962
 30
0.0
 40
0.0393435
  0
LINE
  5
7265
330
1F
100
AcDbEntity
  8
0
100
AcDbLine
 10
11.40812269496705
 20
7.285225699334965
 30
0.0
 11
11.40812269496705
 21
5.278707199334959
 31
0.0
1001
ACAD
1000
TCW40_DEV_WIDTH
1002
{
1040
-3.0
1002
}
  0
LINE
  5
7266
330
1F
100
AcDbEntity
  8
0
100
AcDbLine
 10
11.01468769496705
 20
7.285225699334965
 30
0.0
 11
11.01468769496705
 21
5.278707199334959
 31
0.0
1001
ACAD
1000
TCW40_DEV_WIDTH
1002
{
1040
-3.0
1002
}
  0
LINE
  5
7267
330
1F
100
AcDbEntity
  8
0
100
AcDbLine
 10
11.01468769496705
 20
7.285225699334965
 30
0.0
 11
11.40812269496705
 21
7.285225699334965
 31
0.0
1001
ACAD
1000
TCW40_DEV_WIDTH
1002
{
1040
-3.0
1002
}
  0
LINE
  5
7268
330
1F
100
AcDbEntity
  8
0
100
AcDbLine
 10
11.01468769496705
 20
5.278707199334959
 30
0.0
 11
11.40812269496705
 21
5.278707199334959
 31
0.0
1001
ACAD
1000
TCW40_DEV_WIDTH
1002
{
1040
-3.0
1002
}
  0
LINE
  5
7269
330
1F
100
AcDbEntity
  8
0
100
AcDbLine
 10
11.01468769496705
 20
7.226210449334963
 30
0.0
 11
11.13271819496705
 21
7.226210449334963
 31
0.0
1001
ACAD
1000
TCW40_DEV_WIDTH
1002
{
1040
-3.0
1002
}
  0
LINE
  5
726A
330
1F
100
AcDbEntity
  8
0
100
AcDbLine
 10
11.29009219496706
 20
7.226210449334963
 30
0.0
 11
11.40812269496705
 21
7.226210449334963
 31
0.0
1001
ACAD
1000
TCW40_DEV_WIDTH
1002
{
1040
-3.0
1002
}
  0
LINE
  5
726B
330
1F
100
AcDbEntity
  8
0
100
AcDbLine
 10
11.05403119496705
 20
7.088508199334967
 30
0.0
 11
11.36877919496704
 21
7.088508199334967
 31
0.0
1001
ACAD
1000
TCW40_DEV_WIDTH
1002
{
1040
-3.0
1002
}
  0
LINE
  5
726D
330
1F
100
AcDbEntity
  8
0
100
AcDbLine
 10
11.13271819496705
 20
7.226210449334963
 30
0.0
 11
11.13271819496705
 21
7.285225699334965
 31
0.0
1001
ACAD
1000
TCW40_DEV_WIDTH
1002
{
1040
-3.0
1002
}
  0
CIRCLE
  5
726E
330
1F
100
AcDbEntity
  8
0
100
AcDbCircle
 10
11.21140519496705
 20
7.186866949334962
 30
0.0
 40
0.0393435
  0
LINE
  5
726F
330
1F
100
AcDbEntity
  8
0
100
AcDbLine
 10
11.05403119496705
 20
7.088508199334967
 30
0.0
 11
11.05403119496705
 21
5.475424699334965
 31
0.0
1001
ACAD
1000
TCW40_DEV_WIDTH
1002
{
1040
-3.0
1002
}
  0
LINE
  5
7270
330
1F
100
AcDbEntity
  8
0
100
AcDbLine
 10
11.40812269496705
 20
7.245882199334964
 30
0.0
 11
11.40812269496705
 21
5.278707199334959
 31
0.0
1001
ACAD
1000
TCW40_DEV_WIDTH
1002
{
1040
-3.0
1002
}
  0
LINE
  5
7271
330
1F
100
AcDbEntity
  8
0
100
AcDbLine
 10
11.36877919496704
 20
7.088508199334967
 30
0.0
 11
11.36877919496704
 21
5.475424699334965
 31
0.0
1001
ACAD
1000
TCW40_DEV_WIDTH
1002
{
1040
-3.0
1002
}
  0
LINE
  5
7272
330
1F
100
AcDbEntity
  8
0
100
AcDbLine
 10
11.01468769496705
 20
5.278707199334959
 30
0.0
 11
11.40812269496705
 21
5.278707199334959
 31
0.0
1001
ACAD
1000
TCW40_DEV_WIDTH
1002
{
1040
-3.0
1002
}
  0
LINE
  5
7273
330
1F
100
AcDbEntity
  8
0
100
AcDbLine
 10
11.01468769496705
 20
5.337722449334961
 30
0.0
 11
11.13271819496705
 21
5.337722449334961
 31
0.0
1001
ACAD
1000
TCW40_DEV_WIDTH
1002
{
1040
-3.0
1002
}
  0
LINE
  5
7274
330
1F
100
AcDbEntity
  8
0
100
AcDbLine
 10
11.29009219496706
 20
5.337722449334961
 30
0.0
 11
11.40812269496705
 21
5.337722449334961
 31
0.0
1001
ACAD
1000
TCW40_DEV_WIDTH
1002
{
1040
-3.0
1002
}
  0
LINE
  5
7275
330
1F
100
AcDbEntity
  8
0
100
AcDbLine
 10
11.05403119496705
 20
5.475424699334965
 30
0.0
 11
11.36877919496704
 21
5.475424699334965
 31
0.0
1001
ACAD
1000
TCW40_DEV_WIDTH
1002
{
1040
-3.0
1002
}
  0
LINE
  5
7277
330
1F
100
AcDbEntity
  8
0
100
AcDbLine
 10
11.13271819496705
 20
5.337722449334961
 30
0.0
 11
11.13271819496705
 21
5.278707199334959
 31
0.0
1001
ACAD
1000
TCW40_DEV_WIDTH
1002
{
1040
-3.0
1002
}
  0
CIRCLE
  5
7278
330
1F
100
AcDbEntity
  8
0
100
AcDbCircle
 10
11.21140519496705
 20
5.377065949334962
 30
0.0
 40
0.0393435
  0
ARC
  5
7279
330
1F
100
AcDbEntity
  8
0
100
AcDbCircle
 10
12.00811106996706
 20
6.302453630440481
 30
0.0
 40
0.049179375
100
AcDbArc
 50
0.0
 51
180.0
1001
ACAD
1000
TCW40_DEV_WIDTH
1002
{
1040
-3.0
1002
}
  0
ARC
  5
727A
330
1F
100
AcDbEntity
  8
0
100
AcDbCircle
 10
12.00811106996706
 20
6.143448768229447
 30
0.0
 40
0.049179375
100
AcDbArc
 50
180.0
 51
0.0
1001
ACAD
1000
TCW40_DEV_WIDTH
1002
{
1040
-3.0
1002
}
  0
CIRCLE
  5
727B
330
1F
100
AcDbEntity
  8
0
100
AcDbCircle
 10
11.52615319496705
 20
7.403256199334961
 30
0.0
 40
0.1180305
  0
CIRCLE
  5
727C
330
1F
100
AcDbEntity
  8
0
100
AcDbCircle
 10
11.52615319496705
 20
7.403256199334961
 30
0.0
 40
0.0501157678071689
  0
LINE
  5
727E
330
1F
100
AcDbEntity
  8
0
100
AcDbLine
 10
10.97100069496705
 20
7.862947772186934
 30
0.0
 11
10.97100069496703
 21
7.6268867721868
 31
0.0
1001
ACAD
1000
TCW40_DEV_WIDTH
1002
{
1040
-3.0
1002
}
  0
LINE
  5
727F
330
1F
100
AcDbEntity
  8
0
100
AcDbLine
 10
12.30876155375361
 20
7.862046901925502
 30
0.0
 11
12.30876155375361
 21
7.625985901925368
 31
0.0
1001
ACAD
1000
TCW40_DEV_WIDTH
1002
{
1040
-3.0
1002
}
  0
LINE
  5
7283
330
1F
100
AcDbEntity
  8
0
100
AcDbLine
 10
12.30876155375361
 20
9.252400699334963
 30
0.0
 11
10.97100069496703
 21
9.252400699334963
 31
0.0
1001
ACAD
1000
TCW40_DEV_WIDTH
1002
{
1040
-3.0
1002
}
  0
LINE
  5
7284
330
1F
100
AcDbEntity
  8
0
100
AcDbLine
 10
10.97100069496703
 20
9.252400699334963
 30
0.0
 11
10.97100069496703
 21
7.862947772186934
 31
0.0
1001
ACAD
1000
TCW40_DEV_WIDTH
1002
{
1040
-3.0
1002
}
  0
LINE
  5
7285
330
1F
100
AcDbEntity
  8
0
100
AcDbLine
 10
12.30876155375361
 20
9.252400699334963
 30
0.0
 11
12.30876155375361
 21
7.862046901925502
 31
0.0
1001
ACAD
1000
TCW40_DEV_WIDTH
1002
{
1040
-3.0
1002
}
  0
LINE
  5
7287
330
1F
100
AcDbEntity
  8
0
100
AcDbLine
 10
11.60380604496705
 20
9.920010714959964
 30
0.0
 11
11.60380604496705
 21
9.446659230584963
 31
0.0
1001
ACAD
1000
TCW40_DEV_WIDTH
1002
{
1040
-3.0
1002
}
  0
LINE
  5
728E
330
1F
100
AcDbEntity
  8
0
100
AcDbLine
 10
10.38519169496705
 20
7.285225699334965
 30
0.0
 11
10.38519169496705
 21
5.278707199334959
 31
0.0
1001
ACAD
1000
TCW40_DEV_WIDTH
1002
{
1040
-3.0
1002
}
  0
LINE
  5
728F
330
1F
100
AcDbEntity
  8
0
100
AcDbLine
 10
9.991756694967051
 20
7.285225699334965
 30
0.0
 11
9.991756694967051
 21
5.278707199334959
 31
0.0
1001
ACAD
1000
TCW40_DEV_WIDTH
1002
{
1040
-3.0
1002
}
  0
LINE
  5
7290
330
1F
100
AcDbEntity
  8
0
100
AcDbLine
 10
9.991756694967051
 20
7.285225699334965
 30
0.0
 11
10.38519169496705
 21
7.285225699334965
 31
0.0
1001
ACAD
1000
TCW40_DEV_WIDTH
1002
{
1040
-3.0
1002
}
  0
LINE
  5
7291
330
1F
100
AcDbEntity
  8
0
100
AcDbLine
 10
9.991756694967051
 20
5.278707199334959
 30
0.0
 11
10.38519169496705
 21
5.278707199334959
 31
0.0
1001
ACAD
1000
TCW40_DEV_WIDTH
1002
{
1040
-3.0
1002
}
  0
LINE
  5
7292
330
1F
100
AcDbEntity
  8
0
100
AcDbLine
 10
9.991756694967051
 20
7.226210449334963
 30
0.0
 11
10.10978719496705
 21
7.226210449334963
 31
0.0
1001
ACAD
1000
TCW40_DEV_WIDTH
1002
{
1040
-3.0
1002
}
  0
LINE
  5
7293
330
1F
100
AcDbEntity
  8
0
100
AcDbLine
 10
10.26716119496704
 20
7.226210449334963
 30
0.0
 11
10.38519169496705
 21
7.226210449334963
 31
0.0
1001
ACAD
1000
TCW40_DEV_WIDTH
1002
{
1040
-3.0
1002
}
  0
LINE
  5
7294
330
1F
100
AcDbEntity
  8
0
100
AcDbLine
 10
10.03110019496705
 20
7.088508199334967
 30
0.0
 11
10.34584819496704
 21
7.088508199334967
 31
0.0
1001
ACAD
1000
TCW40_DEV_WIDTH
1002
{
1040
-3.0
1002
}
  0
LINE
  5
7296
330
1F
100
AcDbEntity
  8
0
100
AcDbLine
 10
10.10978719496705
 20
7.226210449334963
 30
0.0
 11
10.10978719496705
 21
7.285225699334965
 31
0.0
1001
ACAD
1000
TCW40_DEV_WIDTH
1002
{
1040
-3.0
1002
}
  0
CIRCLE
  5
7297
330
1F
100
AcDbEntity
  8
0
100
AcDbCircle
 10
10.18847419496705
 20
7.186866949334962
 30
0.0
 40
0.0393435
  0
LINE
  5
7298
330
1F
100
AcDbEntity
  8
0
100
AcDbLine
 10
10.03110019496705
 20
7.088508199334967
 30
0.0
 11
10.03110019496705
 21
5.475424699334965
 31
0.0
1001
ACAD
1000
TCW40_DEV_WIDTH
1002
{
1040
-3.0
1002
}
  0
LINE
  5
7299
330
1F
100
AcDbEntity
  8
0
100
AcDbLine
 10
10.38519169496705
 20
7.245882199334964
 30
0.0
 11
10.38519169496705
 21
6.302453630440481
 31
0.0
1001
ACAD
1000
TCW40_DEV_WIDTH
1002
{
1040
-3.0
1002
}
  0
LINE
  5
729A
330
1F
100
AcDbEntity
  8
0
100
AcDbLine
 10
10.38519169496705
 20
6.143448768229447
 30
0.0
 11
10.38519169496705
 21
5.278707199334959
 31
0.0
1001
ACAD
1000
TCW40_DEV_WIDTH
1002
{
1040
-3.0
1002
}
  0
LINE
  5
729B
330
1F
100
AcDbEntity
  8
0
100
AcDbLine
 10
10.34584819496704
 20
7.088508199334967
 30
0.0
 11
10.34584819496704
 21
5.475424699334965
 31
0.0
1001
ACAD
1000
TCW40_DEV_WIDTH
1002
{
1040
-3.0
1002
}
  0
LINE
  5
729C
330
1F
100
AcDbEntity
  8
0
100
AcDbLine
 10
9.991756694967051
 20
5.278707199334959
 30
0.0
 11
10.38519169496705
 21
5.278707199334959
 31
0.0
1001
ACAD
1000
TCW40_DEV_WIDTH
1002
{
1040
-3.0
1002
}
  0
LINE
  5
729D
330
1F
100
AcDbEntity
  8
0
100
AcDbLine
 10
9.991756694967051
 20
5.337722449334961
 30
0.0
 11
10.10978719496705
 21
5.337722449334961
 31
0.0
1001
ACAD
1000
TCW40_DEV_WIDTH
1002
{
1040
-3.0
1002
}
  0
LINE
  5
729E
330
1F
100
AcDbEntity
  8
0
100
AcDbLine
 10
10.26716119496704
 20
5.337722449334961
 30
0.0
 11
10.38519169496705
 21
5.337722449334961
 31
0.0
1001
ACAD
1000
TCW40_DEV_WIDTH
1002
{
1040
-3.0
1002
}
  0
LINE
  5
729F
330
1F
100
AcDbEntity
  8
0
100
AcDbLine
 10
10.03110019496705
 20
5.475424699334965
 30
0.0
 11
10.34584819496704
 21
5.475424699334965
 31
0.0
1001
ACAD
1000
TCW40_DEV_WIDTH
1002
{
1040
-3.0
1002
}
  0
LINE
  5
72A1
330
1F
100
AcDbEntity
  8
0
100
AcDbLine
 10
10.10978719496705
 20
5.337722449334961
 30
0.0
 11
10.10978719496705
 21
5.278707199334959
 31
0.0
1001
ACAD
1000
TCW40_DEV_WIDTH
1002
{
1040
-3.0
1002
}
  0
CIRCLE
  5
72A2
330
1F
100
AcDbEntity
  8
0
100
AcDbCircle
 10
10.18847419496705
 20
5.377065949334962
 30
0.0
 40
0.0393435
  0
LINE
  5
72A3
330
1F
100
AcDbEntity
  8
0
100
AcDbLine
 10
9.834382694967047
 20
7.285225699334965
 30
0.0
 11
9.834382694967047
 21
5.278707199334959
 31
0.0
1001
ACAD
1000
TCW40_DEV_WIDTH
1002
{
1040
-3.0
1002
}
  0
LINE
  5
72A4
330
1F
100
AcDbEntity
  8
0
100
AcDbLine
 10
9.44094769496705
 20
7.285225699334965
 30
0.0
 11
9.44094769496705
 21
5.278707199334959
 31
0.0
1001
ACAD
1000
TCW40_DEV_WIDTH
1002
{
1040
-3.0
1002
}
  0
LINE
  5
72A5
330
1F
100
AcDbEntity
  8
0
100
AcDbLine
 10
9.44094769496705
 20
7.285225699334965
 30
0.0
 11
9.834382694967047
 21
7.285225699334965
 31
0.0
1001
ACAD
1000
TCW40_DEV_WIDTH
1002
{
1040
-3.0
1002
}
  0
LINE
  5
72A6
330
1F
100
AcDbEntity
  8
0
100
AcDbLine
 10
9.44094769496705
 20
5.278707199334959
 30
0.0
 11
9.834382694967047
 21
5.278707199334959
 31
0.0
1001
ACAD
1000
TCW40_DEV_WIDTH
1002
{
1040
-3.0
1002
}
  0
LINE
  5
72A7
330
1F
100
AcDbEntity
  8
0
100
AcDbLine
 10
9.44094769496705
 20
7.226210449334963
 30
0.0
 11
9.558978194967053
 21
7.226210449334963
 31
0.0
1001
ACAD
1000
TCW40_DEV_WIDTH
1002
{
1040
-3.0
1002
}
  0
LINE
  5
72A8
330
1F
100
AcDbEntity
  8
0
100
AcDbLine
 10
9.716352194967058
 20
7.226210449334963
 30
0.0
 11
9.834382694967047
 21
7.226210449334963
 31
0.0
1001
ACAD
1000
TCW40_DEV_WIDTH
1002
{
1040
-3.0
1002
}
  0
LINE
  5
72A9
330
1F
100
AcDbEntity
  8
0
100
AcDbLine
 10
9.480291194967051
 20
7.088508199334967
 30
0.0
 11
9.795039194967046
 21
7.088508199334967
 31
0.0
1001
ACAD
1000
TCW40_DEV_WIDTH
1002
{
1040
-3.0
1002
}
  0
LINE
  5
72AB
330
1F
100
AcDbEntity
  8
0
100
AcDbLine
 10
9.558978194967053
 20
7.226210449334963
 30
0.0
 11
9.558978194967053
 21
7.285225699334965
 31
0.0
1001
ACAD
1000
TCW40_DEV_WIDTH
1002
{
1040
-3.0
1002
}
  0
CIRCLE
  5
72AC
330
1F
100
AcDbEntity
  8
0
100
AcDbCircle
 10
9.637665194967055
 20
7.186866949334962
 30
0.0
 40
0.0393435
  0
LINE
  5
72AD
330
1F
100
AcDbEntity
  8
0
100
AcDbLine
 10
9.480291194967051
 20
7.088508199334967
 30
0.0
 11
9.480291194967051
 21
5.475424699334965
 31
0.0
1001
ACAD
1000
TCW40_DEV_WIDTH
1002
{
1040
-3.0
1002
}
  0
LINE
  5
72AE
330
1F
100
AcDbEntity
  8
0
100
AcDbLine
 10
9.834382694967047
 20
7.245882199334964
 30
0.0
 11
9.834382694967047
 21
5.278707199334959
 31
0.0
1001
ACAD
1000
TCW40_DEV_WIDTH
1002
{
1040
-3.0
1002
}
  0
LINE
  5
72AF
330
1F
100
AcDbEntity
  8
0
100
AcDbLine
 10
9.795039194967046
 20
7.088508199334967
 30
0.0
 11
9.795039194967046
 21
5.475424699334965
 31
0.0
1001
ACAD
1000
TCW40_DEV_WIDTH
1002
{
1040
-3.0
1002
}
  0
LINE
  5
72B0
330
1F
100
AcDbEntity
  8
0
100
AcDbLine
 10
9.44094769496705
 20
5.278707199334959
 30
0.0
 11
9.834382694967047
 21
5.278707199334959
 31
0.0
1001
ACAD
1000
TCW40_DEV_WIDTH
1002
{
1040
-3.0
1002
}
  0
LINE
  5
72B1
330
1F
100
AcDbEntity
  8
0
100
AcDbLine
 10
9.44094769496705
 20
5.337722449334961
 30
0.0
 11
9.558978194967053
 21
5.337722449334961
 31
0.0
1001
ACAD
1000
TCW40_DEV_WIDTH
1002
{
1040
-3.0
1002
}
  0
LINE
  5
72B2
330
1F
100
AcDbEntity
  8
0
100
AcDbLine
 10
9.716352194967058
 20
5.337722449334961
 30
0.0
 11
9.834382694967047
 21
5.337722449334961
 31
0.0
1001
ACAD
1000
TCW40_DEV_WIDTH
1002
{
1040
-3.0
1002
}
  0
LINE
  5
72B3
330
1F
100
AcDbEntity
  8
0
100
AcDbLine
 10
9.480291194967051
 20
5.475424699334965
 30
0.0
 11
9.795039194967046
 21
5.475424699334965
 31
0.0
1001
ACAD
1000
TCW40_DEV_WIDTH
1002
{
1040
-3.0
1002
}
  0
LINE
  5
72B5
330
1F
100
AcDbEntity
  8
0
100
AcDbLine
 10
9.558978194967053
 20
5.337722449334961
 30
0.0
 11
9.558978194967053
 21
5.278707199334959
 31
0.0
1001
ACAD
1000
TCW40_DEV_WIDTH
1002
{
1040
-3.0
1002
}
  0
CIRCLE
  5
72B6
330
1F
100
AcDbEntity
  8
0
100
AcDbCircle
 10
9.637665194967055
 20
5.377065949334962
 30
0.0
 40
0.0393435
  0
ARC
  5
72B7
330
1F
100
AcDbEntity
  8
0
100
AcDbCircle
 10
10.43437106996705
 20
6.302453630440481
 30
0.0
 40
0.049179375
100
AcDbArc
 50
0.0
 51
180.0
1001
ACAD
1000
TCW40_DEV_WIDTH
1002
{
1040
-3.0
1002
}
  0
ARC
  5
72B8
330
1F
100
AcDbEntity
  8
0
100
AcDbCircle
 10
10.43437106996705
 20
6.143448768229447
 30
0.0
 40
0.049179375
100
AcDbArc
 50
180.0
 51
0.0
1001
ACAD
1000
TCW40_DEV_WIDTH
1002
{
1040
-3.0
1002
}
  0
CIRCLE
  5
72B9
330
1F
100
AcDbEntity
  8
0
100
AcDbCircle
 10
9.95241319496705
 20
7.403256199334961
 30
0.0
 40
0.1180305
  0
CIRCLE
  5
72BA
330
1F
100
AcDbEntity
  8
0
100
AcDbCircle
 10
9.95241319496705
 20
7.403256199334961
 30
0.0
 40
0.0501157678071689
  0
CIRCLE
  5
72BB
330
1F
100
AcDbEntity
  8
0
100
AcDbCircle
 10
10.14071963871705
 20
10.14042637348785
 30
0.0
 40
0.08606390625
  0
LINE
  5
72BC
330
1F
100
AcDbEntity
  8
0
100
AcDbLine
 10
10.10235955017132
 20
10.22041660297377
 30
0.0
 11
10.21220923660371
 21
10.08789856561003
 31
0.0
1001
ACAD
1000
TCW40_DEV_WIDTH
1002
{
1040
-3.0
1002
}
  0
LINE
  5
72BD
330
1F
100
AcDbEntity
  8
0
100
AcDbLine
 10
10.06923004083039
 20
10.19295418136567
 30
0.0
 11
10.17907972726278
 21
10.06043614400193
 31
0.0
1001
ACAD
1000
TCW40_DEV_WIDTH
1002
{
1040
-3.0
1002
}
  0
CIRCLE
  5
72BE
330
1F
100
AcDbEntity
  8
0
100
AcDbCircle
 10
10.33436342777956
 20
10.14042637348785
 30
0.0
 40
0.08606390625
  0
LINE
  5
72BF
330
1F
100
AcDbEntity
  8
0
100
AcDbLine
 10
10.29600333923381
 20
10.22041660297377
 30
0.0
 11
10.40585302566622
 21
10.08789856561003
 31
0.0
1001
ACAD
1000
TCW40_DEV_WIDTH
1002
{
1040
-3.0
1002
}
  0
LINE
  5
72C0
330
1F
100
AcDbEntity
  8
0
100
AcDbLine
 10
10.26287382989288
 20
10.19295418136567
 30
0.0
 11
10.37272351632529
 21
10.06043614400193
 31
0.0
1001
ACAD
1000
TCW40_DEV_WIDTH
1002
{
1040
-3.0
1002
}
  0
CIRCLE
  5
72C1
330
1F
100
AcDbEntity
  8
0
100
AcDbCircle
 10
10.52800721684204
 20
10.14042637348785
 30
0.0
 40
0.08606390625
  0
LINE
  5
72C2
330
1F
100
AcDbEntity
  8
0
100
AcDbLine
 10
10.48964712829631
 20
10.22041660297377
 30
0.0
 11
10.59949681472873
 21
10.08789856561003
 31
0.0
1001
ACAD
1000
TCW40_DEV_WIDTH
1002
{
1040
-3.0
1002
}
  0
LINE
  5
72C3
330
1F
100
AcDbEntity
  8
0
100
AcDbLine
 10
10.45651761895538
 20
10.19295418136567
 30
0.0
 11
10.56636730538779
 21
10.06043614400193
 31
0.0
1001
ACAD
1000
TCW40_DEV_WIDTH
1002
{
1040
-3.0
1002
}
  0
CIRCLE
  5
72C4
330
1F
100
AcDbEntity
  8
0
100
AcDbCircle
 10
10.72165100590455
 20
10.14042637348785
 30
0.0
 40
0.08606390625
  0
LINE
  5
72C5
330
1F
100
AcDbEntity
  8
0
100
AcDbLine
 10
10.68329091735882
 20
10.22041660297377
 30
0.0
 11
10.79314060379122
 21
10.08789856561003
 31
0.0
1001
ACAD
1000
TCW40_DEV_WIDTH
1002
{
1040
-3.0
1002
}
  0
LINE
  5
72C6
330
1F
100
AcDbEntity
  8
0
100
AcDbLine
 10
10.65016140801789
 20
10.19295418136567
 30
0.0
 11
10.76001109445029
 21
10.06043614400193
 31
0.0
1001
ACAD
1000
TCW40_DEV_WIDTH
1002
{
1040
-3.0
1002
}
  0
CIRCLE
  5
72C7
330
1F
100
AcDbEntity
  8
0
100
AcDbCircle
 10
10.91529479496705
 20
10.14042637348785
 30
0.0
 40
0.08606390625
  0
LINE
  5
72C8
330
1F
100
AcDbEntity
  8
0
100
AcDbLine
 10
10.87693470642131
 20
10.22041660297377
 30
0.0
 11
10.98678439285372
 21
10.08789856561003
 31
0.0
1001
ACAD
1000
TCW40_DEV_WIDTH
1002
{
1040
-3.0
1002
}
  0
LINE
  5
72C9
330
1F
100
AcDbEntity
  8
0
100
AcDbLine
 10
10.84380519708038
 20
10.19295418136567
 30
0.0
 11
10.95365488351279
 21
10.06043614400193
 31
0.0
1001
ACAD
1000
TCW40_DEV_WIDTH
1002
{
1040
-3.0
1002
}
  0
CIRCLE
  5
72CA
330
1F
100
AcDbEntity
  8
0
100
AcDbCircle
 10
11.10893858402955
 20
10.14042637348785
 30
0.0
 40
0.08606390625
  0
LINE
  5
72CB
330
1F
100
AcDbEntity
  8
0
100
AcDbLine
 10
11.07057849548382
 20
10.22041660297377
 30
0.0
 11
11.18042818191623
 21
10.08789856561003
 31
0.0
1001
ACAD
1000
TCW40_DEV_WIDTH
1002
{
1040
-3.0
1002
}
  0
LINE
  5
72CC
330
1F
100
AcDbEntity
  8
0
100
AcDbLine
 10
11.03744898614288
 20
10.19295418136567
 30
0.0
 11
11.1472986725753
 21
10.06043614400193
 31
0.0
1001
ACAD
1000
TCW40_DEV_WIDTH
1002
{
1040
-3.0
1002
}
  0
CIRCLE
  5
72CD
330
1F
100
AcDbEntity
  8
0
100
AcDbCircle
 10
11.30258237309206
 20
10.14042637348785
 30
0.0
 40
0.08606390625
  0
LINE
  5
72CE
330
1F
100
AcDbEntity
  8
0
100
AcDbLine
 10
11.26422228454632
 20
10.22041660297377
 30
0.0
 11
11.37407197097872
 21
10.08789856561003
 31
0.0
1001
ACAD
1000
TCW40_DEV_WIDTH
1002
{
1040
-3.0
1002
}
  0
LINE
  5
72CF
330
1F
100
AcDbEntity
  8
0
100
AcDbLine
 10
11.23109277520539
 20
10.19295418136567
 30
0.0
 11
11.34094246163779
 21
10.06043614400193
 31
0.0
1001
ACAD
1000
TCW40_DEV_WIDTH
1002
{
1040
-3.0
1002
}
  0
CIRCLE
  5
72D0
330
1F
100
AcDbEntity
  8
0
100
AcDbCircle
 10
11.49622616215454
 20
10.14042637348785
 30
0.0
 40
0.08606390625
  0
LINE
  5
72D1
330
1F
100
AcDbEntity
  8
0
100
AcDbLine
 10
11.45786607360881
 20
10.22041660297377
 30
0.0
 11
11.56771576004122
 21
10.08789856561003
 31
0.0
1001
ACAD
1000
TCW40_DEV_WIDTH
1002
{
1040
-3.0
1002
}
  0
LINE
  5
72D2
330
1F
100
AcDbEntity
  8
0
100
AcDbLine
 10
11.42473656426788
 20
10.19295418136567
 30
0.0
 11
11.53458625070029
 21
10.06043614400193
 31
0.0
1001
ACAD
1000
TCW40_DEV_WIDTH
1002
{
1040
-3.0
1002
}
  0
CIRCLE
  5
72D3
330
1F
100
AcDbEntity
  8
0
100
AcDbCircle
 10
10.14071963871705
 20
9.667074889112852
 30
0.0
 40
0.08606390625
  0
LINE
  5
72D4
330
1F
100
AcDbEntity
  8
0
100
AcDbLine
 10
10.10235955017132
 20
9.747065118598776
 30
0.0
 11
10.21220923660371
 21
9.614547081235034
 31
0.0
1001
ACAD
1000
TCW40_DEV_WIDTH
1002
{
1040
-3.0
1002
}
  0
LINE
  5
72D5
330
1F
100
AcDbEntity
  8
0
100
AcDbLine
 10
10.06923004083037
 20
9.719602696990673
 30
0.0
 11
10.17907972726278
 21
9.587084659626931
 31
0.0
1001
ACAD
1000
TCW40_DEV_WIDTH
1002
{
1040
-3.0
1002
}
  0
CIRCLE
  5
72D6
330
1F
100
AcDbEntity
  8
0
100
AcDbCircle
 10
10.33436342777954
 20
9.667074889112852
 30
0.0
 40
0.08606390625
  0
LINE
  5
72D7
330
1F
100
AcDbEntity
  8
0
100
AcDbLine
 10
10.29600333923381
 20
9.747065118598776
 30
0.0
 11
10.40585302566622
 21
9.614547081235034
 31
0.0
1001
ACAD
1000
TCW40_DEV_WIDTH
1002
{
1040
-3.0
1002
}
  0
LINE
  5
72D8
330
1F
100
AcDbEntity
  8
0
100
AcDbLine
 10
10.26287382989288
 20
9.719602696990673
 30
0.0
 11
10.37272351632529
 21
9.587084659626931
 31
0.0
1001
ACAD
1000
TCW40_DEV_WIDTH
1002
{
1040
-3.0
1002
}
  0
CIRCLE
  5
72D9
330
1F
100
AcDbEntity
  8
0
100
AcDbCircle
 10
10.52800721684205
 20
9.667074889112852
 30
0.0
 40
0.08606390625
  0
LINE
  5
72DA
330
1F
100
AcDbEntity
  8
0
100
AcDbLine
 10
10.48964712829631
 20
9.747065118598776
 30
0.0
 11
10.59949681472873
 21
9.614547081235034
 31
0.0
1001
ACAD
1000
TCW40_DEV_WIDTH
1002
{
1040
-3.0
1002
}
  0
LINE
  5
72DB
330
1F
100
AcDbEntity
  8
0
100
AcDbLine
 10
10.45651761895538
 20
9.719602696990673
 30
0.0
 11
10.56636730538778
 21
9.587084659626931
 31
0.0
1001
ACAD
1000
TCW40_DEV_WIDTH
1002
{
1040
-3.0
1002
}
  0
CIRCLE
  5
72DC
330
1F
100
AcDbEntity
  8
0
100
AcDbCircle
 10
10.72165100590455
 20
9.667074889112852
 30
0.0
 40
0.08606390625
  0
LINE
  5
72DD
330
1F
100
AcDbEntity
  8
0
100
AcDbLine
 10
10.68329091735882
 20
9.747065118598776
 30
0.0
 11
10.79314060379122
 21
9.614547081235034
 31
0.0
1001
ACAD
1000
TCW40_DEV_WIDTH
1002
{
1040
-3.0
1002
}
  0
LINE
  5
72DE
330
1F
100
AcDbEntity
  8
0
100
AcDbLine
 10
10.65016140801787
 20
9.719602696990673
 30
0.0
 11
10.76001109445029
 21
9.587084659626931
 31
0.0
1001
ACAD
1000
TCW40_DEV_WIDTH
1002
{
1040
-3.0
1002
}
  0
CIRCLE
  5
72DF
330
1F
100
AcDbEntity
  8
0
100
AcDbCircle
 10
10.91529479496704
 20
9.667074889112852
 30
0.0
 40
0.08606390625
  0
LINE
  5
72E0
330
1F
100
AcDbEntity
  8
0
100
AcDbLine
 10
10.87693470642131
 20
9.747065118598776
 30
0.0
 11
10.98678439285373
 21
9.614547081235034
 31
0.0
1001
ACAD
1000
TCW40_DEV_WIDTH
1002
{
1040
-3.0
1002
}
  0
LINE
  5
72E1
330
1F
100
AcDbEntity
  8
0
100
AcDbLine
 10
10.84380519708038
 20
9.719602696990673
 30
0.0
 11
10.95365488351279
 21
9.587084659626931
 31
0.0
1001
ACAD
1000
TCW40_DEV_WIDTH
1002
{
1040
-3.0
1002
}
  0
CIRCLE
  5
72E2
330
1F
100
AcDbEntity
  8
0
100
AcDbCircle
 10
11.10893858402955
 20
9.667074889112852
 30
0.0
 40
0.08606390625
  0
LINE
  5
72E3
330
1F
100
AcDbEntity
  8
0
100
AcDbLine
 10
11.07057849548382
 20
9.747065118598776
 30
0.0
 11
11.18042818191623
 21
9.614547081235034
 31
0.0
1001
ACAD
1000
TCW40_DEV_WIDTH
1002
{
1040
-3.0
1002
}
  0
LINE
  5
72E4
330
1F
100
AcDbEntity
  8
0
100
AcDbLine
 10
11.03744898614289
 20
9.719602696990673
 30
0.0
 11
11.14729867257528
 21
9.587084659626931
 31
0.0
1001
ACAD
1000
TCW40_DEV_WIDTH
1002
{
1040
-3.0
1002
}
  0
CIRCLE
  5
72E5
330
1F
100
AcDbEntity
  8
0
100
AcDbCircle
 10
11.30258237309206
 20
9.667074889112852
 30
0.0
 40
0.08606390625
  0
LINE
  5
72E6
330
1F
100
AcDbEntity
  8
0
100
AcDbLine
 10
11.26422228454632
 20
9.747065118598776
 30
0.0
 11
11.37407197097872
 21
9.614547081235034
 31
0.0
1001
ACAD
1000
TCW40_DEV_WIDTH
1002
{
1040
-3.0
1002
}
  0
LINE
  5
72E7
330
1F
100
AcDbEntity
  8
0
100
AcDbLine
 10
11.23109277520537
 20
9.719602696990673
 30
0.0
 11
11.34094246163779
 21
9.587084659626931
 31
0.0
1001
ACAD
1000
TCW40_DEV_WIDTH
1002
{
1040
-3.0
1002
}
  0
CIRCLE
  5
72E8
330
1F
100
AcDbEntity
  8
0
100
AcDbCircle
 10
11.49622616215454
 20
9.667074889112852
 30
0.0
 40
0.08606390625
  0
LINE
  5
72E9
330
1F
100
AcDbEntity
  8
0
100
AcDbLine
 10
11.45786607360881
 20
9.747065118598776
 30
0.0
 11
11.56771576004123
 21
9.614547081235034
 31
0.0
1001
ACAD
1000
TCW40_DEV_WIDTH
1002
{
1040
-3.0
1002
}
  0
LINE
  5
72EA
330
1F
100
AcDbEntity
  8
0
100
AcDbLine
 10
11.42473656426788
 20
9.719602696990673
 30
0.0
 11
11.53458625070029
 21
9.587084659626931
 31
0.0
1001
ACAD
1000
TCW40_DEV_WIDTH
1002
{
1040
-3.0
1002
}
  0
LINE
  5
72EB
330
1F
100
AcDbEntity
  8
0
100
AcDbLine
 10
10.03313975590455
 20
9.920010714959964
 30
0.0
 11
11.60380604496705
 21
9.920010714959964
 31
0.0
1001
ACAD
1000
TCW40_DEV_WIDTH
1002
{
1040
-3.0
1002
}
  0
LINE
  5
72EC
330
1F
100
AcDbEntity
  8
0
100
AcDbLine
 10
10.03313975590455
 20
10.00607462120996
 30
0.0
 11
11.60380604496705
 21
10.00607462120996
 31
0.0
1001
ACAD
1000
TCW40_DEV_WIDTH
1002
{
1040
-3.0
1002
}
  0
LINE
  5
72ED
330
1F
100
AcDbEntity
  8
0
100
AcDbLine
 10
10.03313975590455
 20
10.26426633995996
 30
0.0
 11
11.60380604496705
 21
10.26426633995996
 31
0.0
1001
ACAD
1000
TCW40_DEV_WIDTH
1002
{
1040
-3.0
1002
}
  0
LINE
  5
72EE
330
1F
100
AcDbEntity
  8
0
100
AcDbLine
 10
10.03313975590455
 20
9.446659230584963
 30
0.0
 11
11.60380604496705
 21
9.446659230584963
 31
0.0
1001
ACAD
1000
TCW40_DEV_WIDTH
1002
{
1040
-3.0
1002
}
  0
LINE
  5
72EF
330
1F
100
AcDbEntity
  8
0
100
AcDbLine
 10
10.03313975590455
 20
9.532723136834965
 30
0.0
 11
11.60380604496705
 21
9.532723136834965
 31
0.0
1001
ACAD
1000
TCW40_DEV_WIDTH
1002
{
1040
-3.0
1002
}
  0
LINE
  5
72F0
330
1F
100
AcDbEntity
  8
0
100
AcDbLine
 10
10.03313975590455
 20
9.898494738397463
 30
0.0
 11
11.60380604496705
 21
9.898494738397463
 31
0.0
1001
ACAD
1000
TCW40_DEV_WIDTH
1002
{
1040
-3.0
1002
}
  0
LINE
  5
72F1
330
1F
100
AcDbEntity
  8
0
100
AcDbLine
 10
10.03313975590455
 20
9.790914855584965
 30
0.0
 11
11.60380604496705
 21
9.790914855584965
 31
0.0
1001
ACAD
1000
TCW40_DEV_WIDTH
1002
{
1040
-3.0
1002
}
  0
LINE
  5
72FA
330
1F
100
AcDbEntity
  8
0
100
AcDbLine
 10
10.03313975590455
 20
9.920010714959964
 30
0.0
 11
10.03313975590455
 21
9.446659230584963
 31
0.0
1001
ACAD
1000
TCW40_DEV_WIDTH
1002
{
1040
-3.0
1002
}
  0
LINE
  5
72FB
330
1F
100
AcDbEntity
  8
0
100
AcDbLine
 10
11.60380604496705
 20
10.39336219933496
 30
0.0
 11
11.60380604496705
 21
9.920010714959964
 31
0.0
1001
ACAD
1000
TCW40_DEV_WIDTH
1002
{
1040
-3.0
1002
}
  0
LINE
  5
72FC
330
1F
100
AcDbEntity
  8
0
100
AcDbLine
 10
10.03313975590455
 20
10.39336219933496
 30
0.0
 11
10.03313975590455
 21
9.920010714959964
 31
0.0
1001
ACAD
1000
TCW40_DEV_WIDTH
1002
{
1040
-3.0
1002
}
  0
DIMENSION
  5
72FE
330
1F
100
AcDbEntity
  8
DIM
100
AcDbDimension
  2
*D1
 10
13.14133439527815
 20
5.239363699334965
 30
0.0
 11
13.14133439527815
 21
7.816362949334966
 31
0.0
 70
    32
 71
     5
 42
5.153998499999997
  3
Standard
100
AcDbAlignedDimension
 13
12.46046019496705
 23
10.39336219933496
 33
0.0
 14
12.46046019496705
 24
5.239363699334965
 34
0.0
 50
90.0
100
AcDbRotatedDimension
  0
LINE
  5
7300
330
1F
100
AcDbEntity
  8
0
100
AcDbLine
 10
9.327260694967044
 20
7.862947772186934
 30
0.0
 11
9.32726069496703
 21
7.6268867721868
 31
0.0
1001
ACAD
1000
TCW40_DEV_WIDTH
1002
{
1040
-3.0
1002
}
  0
LINE
  5
7301
330
1F
100
AcDbEntity
  8
0
100
AcDbLine
 10
10.66502155375361
 20
7.862046901925502
 30
0.0
 11
10.66502155375361
 21
7.625808870698161
 31
0.0
1001
ACAD
1000
TCW40_DEV_WIDTH
1002
{
1040
-3.0
1002
}
  0
LINE
  5
7305
330
1F
100
AcDbEntity
  8
0
100
AcDbLine
 10
10.66502155375361
 20
9.252400699334963
 30
0.0
 11
9.32726069496703
 21
9.252400699334963
 31
0.0
1001
ACAD
1000
TCW40_DEV_WIDTH
1002
{
1040
-3.0
1002
}
  0
LINE
  5
7306
330
1F
100
AcDbEntity
  8
0
100
AcDbLine
 10
9.32726069496703
 20
9.252400699334963
 30
0.0
 11
9.32726069496703
 21
7.862947772186934
 31
0.0
1001
ACAD
1000
TCW40_DEV_WIDTH
1002
{
1040
-3.0
1002
}
  0
LINE
  5
7307
330
1F
100
AcDbEntity
  8
0
100
AcDbLine
 10
10.66502155375361
 20
9.252400699334963
 30
0.0
 11
10.66502155375361
 21
7.862046901925502
 31
0.0
1001
ACAD
1000
TCW40_DEV_WIDTH
1002
{
1040
-3.0
1002
}
  0
DIMENSION
  5
7309
330
1F
100
AcDbEntity
  8
DIM
100
AcDbDimension
  2
*D2
 10
12.46046019496705
 20
10.84625722487879
 30
0.0
 11
10.81797019496704
 21
10.84625722487879
 31
0.0
 70
   160
 71
     5
 42
3.284980000000004
  3
Standard
100
AcDbAlignedDimension
 13
9.175480194967043
 23
10.39336219933496
 33
0.0
 14
12.46046019496705
 24
10.39336219933496
 34
0.0
100
AcDbRotatedDimension
  0
LINE
  5
730A
330
1F
100
AcDbEntity
  8
0
100
AcDbLine
 10
12.09000042521844
 20
6.949203884132765
 30
0.0
 11
12.29998496471568
 21
7.070438514537157
 31
0.0
  0
ARC
  5
730B
330
1F
100
AcDbEntity
  8
0
100
AcDbCircle
 10
12.19499269496706
 20
7.009821199334959
 30
0.0
 40
0.1212346304043912
100
AcDbArc
 50
30.00000000000095
 51
209.9999999999993
  0
LINE
  5
730C
330
1F
100
AcDbEntity
  8
0
100
AcDbLine
 10
12.26441943564114
 20
6.90157961325579
 30
0.0
 11
12.24231205787712
 21
6.939870714765179
 31
0.0
  0
LINE
  5
730D
330
1F
100
AcDbEntity
  8
0
100
AcDbLine
 10
12.2540192879205
 20
6.895575085169671
 30
0.0
 11
12.23191191015649
 21
6.933866186679059
 31
0.0
  0
LINE
  5
730E
330
1F
100
AcDbEntity
  8
0
100
AcDbLine
 10
12.23191191015649
 20
6.933866186679059
 30
0.0
 11
12.24231205787712
 21
6.939870714765179
 31
0.0
  0
LINE
  5
7310
330
1F
100
AcDbEntity
  8
0
100
AcDbLine
 10
12.19499269496705
 20
6.495151568930577
 30
0.0
 11
12.19499269496706
 21
6.737620829739359
 31
0.0
  0
ARC
  5
7311
330
1F
100
AcDbEntity
  8
0
100
AcDbCircle
 10
12.19499269496706
 20
6.616386199334968
 30
0.0
 40
0.1212346304043912
100
AcDbArc
 50
90.0
 51
269.9999999999984
  0
LINE
  5
7312
330
1F
100
AcDbEntity
  8
0
100
AcDbLine
 10
12.32344602859458
 20
6.622390727421088
 30
0.0
 11
12.27923127306655
 21
6.622390727421088
 31
0.0
  0
LINE
  5
7313
330
1F
100
AcDbEntity
  8
0
100
AcDbLine
 10
12.32344602859458
 20
6.610381671248848
 30
0.0
 11
12.27923127306655
 21
6.610381671248848
 31
0.0
  0
LINE
  5
7314
330
1F
100
AcDbEntity
  8
0
100
AcDbLine
 10
12.27923127306655
 20
6.610381671248848
 30
0.0
 11
12.27923127306655
 21
6.622390727421088
 31
0.0
  0
LINE
  5
7316
330
1F
100
AcDbEntity
  8
0
100
AcDbLine
 10
12.29998496471568
 20
6.162333884132777
 30
0.0
 11
12.09000042521843
 21
6.283568514537154
 31
0.0
  0
ARC
  5
7317
330
1F
100
AcDbEntity
  8
0
100
AcDbCircle
 10
12.19499269496706
 20
6.222951199334964
 30
0.0
 40
0.1212346304043912
100
AcDbArc
 50
150.0000000000049
 51
330.0000000000033
  0
LINE
  5
7318
330
1F
100
AcDbEntity
  8
0
100
AcDbLine
 10
12.25401928792049
 20
6.337197313500258
 30
0.0
 11
12.23191191015648
 21
6.298906211990871
 31
0.0
  0
LINE
  5
7319
330
1F
100
AcDbEntity
  8
0
100
AcDbLine
 10
12.26441943564112
 20
6.331192785414138
 30
0.0
 11
12.24231205787712
 21
6.292901683904752
 31
0.0
  0
LINE
  5
731A
330
1F
100
AcDbEntity
  8
0
100
AcDbLine
 10
12.24231205787712
 20
6.292901683904752
 30
0.0
 11
12.23191191015648
 21
6.298906211990875
 31
0.0
  0
LINE
  5
731C
330
1F
100
AcDbEntity
  8
0
100
AcDbLine
 10
10.51626042521843
 20
6.949203884132767
 30
0.0
 11
10.72624496471567
 21
7.070438514537158
 31
0.0
  0
ARC
  5
731D
330
1F
100
AcDbEntity
  8
0
100
AcDbCircle
 10
10.62125269496706
 20
7.009821199334961
 30
0.0
 40
0.1212346304043912
100
AcDbArc
 50
30.00000000000095
 51
209.9999999999993
  0
LINE
  5
731E
330
1F
100
AcDbEntity
  8
0
100
AcDbLine
 10
10.69067943564113
 20
6.901579613255792
 30
0.0
 11
10.66857205787712
 21
6.939870714765179
 31
0.0
  0
LINE
  5
731F
330
1F
100
AcDbEntity
  8
0
100
AcDbLine
 10
10.6802792879205
 20
6.895575085169673
 30
0.0
 11
10.65817191015649
 21
6.933866186679059
 31
0.0
  0
LINE
  5
7320
330
1F
100
AcDbEntity
  8
0
100
AcDbLine
 10
10.65817191015649
 20
6.933866186679059
 30
0.0
 11
10.66857205787712
 21
6.939870714765179
 31
0.0
  0
LINE
  5
7322
330
1F
100
AcDbEntity
  8
0
100
AcDbLine
 10
10.62125269496705
 20
6.495151568930577
 30
0.0
 11
10.62125269496706
 21
6.737620829739359
 31
0.0
  0
ARC
  5
7323
330
1F
100
AcDbEntity
  8
0
100
AcDbCircle
 10
10.62125269496706
 20
6.616386199334968
 30
0.0
 40
0.1212346304043912
100
AcDbArc
 50
90.0
 51
269.9999999999984
  0
LINE
  5
7324
330
1F
100
AcDbEntity
  8
0
100
AcDbLine
 10
10.74970602859457
 20
6.622390727421088
 30
0.0
 11
10.70549127306655
 21
6.622390727421088
 31
0.0
  0
LINE
  5
7325
330
1F
100
AcDbEntity
  8
0
100
AcDbLine
 10
10.74970602859457
 20
6.610381671248848
 30
0.0
 11
10.70549127306655
 21
6.610381671248848
 31
0.0
  0
LINE
  5
7326
330
1F
100
AcDbEntity
  8
0
100
AcDbLine
 10
10.70549127306655
 20
6.610381671248848
 30
0.0
 11
10.70549127306655
 21
6.622390727421088
 31
0.0
  0
LINE
  5
7328
330
1F
100
AcDbEntity
  8
0
100
AcDbLine
 10
10.72624496471568
 20
6.162333884132774
 30
0.0
 11
10.51626042521843
 21
6.283568514537158
 31
0.0
  0
ARC
  5
7329
330
1F
100
AcDbEntity
  8
0
100
AcDbCircle
 10
10.62125269496706
 20
6.222951199334964
 30
0.0
 40
0.1212346304043912
100
AcDbArc
 50
150.0000000000027
 51
330.000000000001
  0
LINE
  5
732A
330
1F
100
AcDbEntity
  8
0
100
AcDbLine
 10
10.68027928792049
 20
6.337197313500254
 30
0.0
 11
10.65817191015648
 21
6.298906211990868
 31
0.0
  0
LINE
  5
732B
330
1F
100
AcDbEntity
  8
0
100
AcDbLine
 10
10.69067943564113
 20
6.331192785414138
 30
0.0
 11
10.66857205787712
 21
6.292901683904748
 31
0.0
  0
LINE
  5
732C
330
1F
100
AcDbEntity
  8
0
100
AcDbLine
 10
10.66857205787712
 20
6.292901683904748
 30
0.0
 11
10.65817191015648
 21
6.298906211990871
 31
0.0
  0
TEXT
  5
732D
330
1F
100
AcDbEntity
  8
TEXT
100
AcDbText
 10
9.62469422788839
 20
8.232923088023325
 30
0.0
 40
0.09
  1
1715-TADOF8
 41
0.8
 72
     1
 11
9.98469422788839
 21
8.277923088023324
 31
0.0
100
AcDbText
 73
     2
  0
LINE
  5
74E6
330
1F
100
AcDbEntity
  8
0
100
AcDbLine
 10
14.97172532606561
 20
10.39336219933496
 30
0.0
 11
14.97172532606561
 21
8.843875182190144
 31
0.0
  0
LINE
  5
74E7
330
1F
100
AcDbEntity
  8
0
100
AcDbLine
 10
14.62550939021106
 20
7.616031474388119
 30
0.0
 11
14.35795291556645
 21
7.822096054799388
 31
0.0
  0
ARC
  5
74E8
330
1F
100
AcDbEntity
  8
0
100
AcDbCircle
 10
14.43422532606561
 20
7.921128975571466
 30
0.0
 40
0.125
100
AcDbArc
 50
180.0
 51
232.3975325063222
  0
LINE
  5
74E9
330
1F
100
AcDbEntity
  8
0
100
AcDbLine
 10
14.90922532606561
 20
5.275384120707816
 30
0.0
 11
14.70922532606561
 21
5.275384120707816
 31
0.0
  0
LINE
  5
74EA
330
1F
100
AcDbEntity
  8
0
100
AcDbLine
 10
14.48422532606561
 20
7.085185120707823
 30
0.0
 11
14.47922532606561
 21
7.085185120707823
 31
0.0
  0
LINE
  5
74EB
330
1F
100
AcDbEntity
  8
0
100
AcDbLine
 10
14.70922532606561
 20
5.472101620707821
 30
0.0
 11
14.47922532606561
 21
5.472101620707821
 31
0.0
  0
LINE
  5
74EC
330
1F
100
AcDbEntity
  8
0
100
AcDbLine
 10
14.90922532606561
 20
9.249077620707819
 30
0.0
 11
14.43422532606561
 21
9.249077620707819
 31
0.0
  0
ARC
  5
74ED
330
1F
100
AcDbEntity
  8
0
100
AcDbCircle
 10
14.43422532606561
 20
9.124077620707819
 30
0.0
 40
0.125
100
AcDbArc
 50
90.0
 51
180.0
  0
LINE
  5
74EE
330
1F
100
AcDbEntity
  8
0
100
AcDbLine
 10
14.30922532606561
 20
9.124077620707819
 30
0.0
 11
14.30922532606561
 21
7.921128975571466
 31
0.0
  0
LINE
  5
74EF
330
1F
100
AcDbEntity
  8
0
100
AcDbLine
 10
14.90922532606561
 20
7.590064395160194
 30
0.0
 11
14.70178180071021
 21
7.590064395160194
 31
0.0
  0
ARC
  5
74F0
330
1F
100
AcDbEntity
  8
0
100
AcDbCircle
 10
14.70178180071021
 20
7.715064395160194
 30
0.0
 40
0.125
100
AcDbArc
 50
232.3975325063222
 51
270.0
  0
LINE
  5
74F1
330
1F
100
AcDbEntity
  8
0
100
AcDbLine
 10
14.90922532606561
 20
7.281902620707821
 30
0.0
 11
14.70922532606561
 21
7.281902620707821
 31
0.0
  0
LINE
  5
74F2
330
1F
100
AcDbEntity
  8
0
100
AcDbLine
 10
14.47922532606561
 20
7.085185120707823
 30
0.0
 11
14.47922532606561
 21
5.472101620707821
 31
0.0
  0
LINE
  5
74F3
330
1F
100
AcDbEntity
  8
0
100
AcDbLine
 10
14.70922532606561
 20
7.281902620707821
 30
0.0
 11
14.70922532606561
 21
7.123026868759275
 31
0.0
  0
LINE
  5
74F4
330
1F
100
AcDbEntity
  8
0
100
AcDbLine
 10
14.70922532606561
 20
6.889969372656377
 30
0.0
 11
14.70922532606561
 21
6.731944809935743
 31
0.0
  0
LINE
  5
74F5
330
1F
100
AcDbEntity
  8
0
100
AcDbLine
 10
14.70922532606561
 20
6.494181431479903
 30
0.0
 11
14.70922532606561
 21
6.336156868759278
 31
0.0
  0
LINE
  5
74F6
330
1F
100
AcDbEntity
  8
0
100
AcDbLine
 10
14.70922532606561
 20
6.103099372656378
 30
0.0
 11
14.70922532606561
 21
5.275384120707816
 31
0.0
  0
LINE
  5
74F7
330
1F
100
AcDbEntity
  8
0
100
AcDbLine
 10
14.90922532606561
 20
8.894986120707816
 30
0.0
 11
14.67922532606561
 21
8.894986120707816
 31
0.0
  0
LINE
  5
74F8
330
1F
100
AcDbEntity
  8
0
100
AcDbLine
 10
14.90922532606561
 20
8.560566370707819
 30
0.0
 11
14.6792253260656
 21
8.560566370707819
 31
0.0
  0
LINE
  5
74F9
330
1F
100
AcDbEntity
  8
0
100
AcDbLine
 10
14.67922532606561
 20
8.894986120707816
 30
0.0
 11
14.6792253260656
 21
8.560566370707821
 31
0.0
  0
LINE
  5
74FA
330
1F
100
AcDbEntity
  8
0
100
AcDbLine
 10
14.67922532606561
 20
8.582776245707819
 30
0.0
 11
15.08207495236375
 21
8.62258063079402
 31
0.0
  0
LINE
  5
74FB
330
1F
100
AcDbEntity
  8
0
100
AcDbLine
 10
14.67922532606561
 20
8.872776245707818
 30
0.0
 11
15.08207495236375
 21
8.832971860621617
 31
0.0
  0
LINE
  5
74FC
330
1F
100
AcDbEntity
  8
0
100
AcDbLine
 10
14.90922532606561
 20
7.450048888514986
 30
0.0
 11
14.32922532606561
 21
7.450048888514986
 31
0.0
  0
LINE
  5
74FD
330
1F
100
AcDbEntity
  8
0
100
AcDbLine
 10
14.32922532606561
 20
7.450048888514986
 30
0.0
 11
14.32922532606561
 21
7.34981735290065
 31
0.0
  0
LINE
  5
74FE
330
1F
100
AcDbEntity
  8
0
100
AcDbLine
 10
14.32922532606561
 20
7.34981735290065
 30
0.0
 11
14.90922532606561
 21
7.34981735290065
 31
0.0
  0
LINE
  5
74FF
330
1F
100
AcDbEntity
  8
0
100
AcDbLine
 10
14.90922532606561
 20
6.734297751112215
 30
0.0
 11
14.48422532606561
 21
6.724297751112215
 31
0.0
  0
LINE
  5
7500
330
1F
100
AcDbEntity
  8
0
100
AcDbLine
 10
14.90922532606561
 20
6.491828490303433
 30
0.0
 11
14.48422532606561
 21
6.501828490303433
 31
0.0
  0
LINE
  5
7501
330
1F
100
AcDbEntity
  8
0
100
AcDbLine
 10
14.48422532606561
 20
6.724297751112215
 30
0.0
 11
14.48422532606561
 21
6.501828490303433
 31
0.0
  0
LINE
  5
7502
330
1F
100
AcDbEntity
  8
0
100
AcDbLine
 10
14.90922532606561
 20
7.127732751112219
 30
0.0
 11
14.48422532606561
 21
7.117732751112219
 31
0.0
  0
LINE
  5
7503
330
1F
100
AcDbEntity
  8
0
100
AcDbLine
 10
14.90922532606561
 20
6.885263490303437
 30
0.0
 11
14.48422532606561
 21
6.895263490303436
 31
0.0
  0
LINE
  5
7504
330
1F
100
AcDbEntity
  8
0
100
AcDbLine
 10
14.48422532606561
 20
7.117732751112219
 30
0.0
 11
14.48422532606561
 21
6.895263490303436
 31
0.0
  0
LINE
  5
7505
330
1F
100
AcDbEntity
  8
0
100
AcDbLine
 10
14.90922532606561
 20
6.340862751112219
 30
0.0
 11
14.48422532606561
 21
6.330862751112219
 31
0.0
  0
LINE
  5
7506
330
1F
100
AcDbEntity
  8
0
100
AcDbLine
 10
14.90922532606561
 20
6.098393490303436
 30
0.0
 11
14.48422532606561
 21
6.108393490303436
 31
0.0
  0
LINE
  5
7507
330
1F
100
AcDbEntity
  8
0
100
AcDbLine
 10
14.48422532606561
 20
6.330862751112219
 30
0.0
 11
14.48422532606561
 21
6.108393490303436
 31
0.0
  0
LINE
  5
7518
330
1F
100
AcDbEntity
  8
0
100
AcDbLine
 10
7.010430999723023
 20
7.616031474388119
 30
0.0
 11
7.277987474367634
 21
7.822096054799388
 31
0.0
  0
ARC
  5
7519
330
1F
100
AcDbEntity
  8
0
100
AcDbCircle
 10
7.201715063868476
 20
7.921128975571466
 30
0.0
 40
0.125
100
AcDbArc
 50
307.602467493678
 51
0.0
  0
LINE
  5
751A
330
1F
100
AcDbEntity
  8
0
100
AcDbLine
 10
6.726715063868475
 20
5.275384120707816
 30
0.0
 11
6.926715063868471
 21
5.275384120707816
 31
0.0
  0
LINE
  5
751B
330
1F
100
AcDbEntity
  8
0
100
AcDbLine
 10
6.926715063868471
 20
5.472101620707821
 30
0.0
 11
7.156715063868475
 21
5.472101620707821
 31
0.0
  0
LINE
  5
751C
330
1F
100
AcDbEntity
  8
0
100
AcDbLine
 10
6.726715063868475
 20
9.249077620707819
 30
0.0
 11
7.201715063868476
 21
9.249077620707819
 31
0.0
  0
ARC
  5
751D
330
1F
100
AcDbEntity
  8
0
100
AcDbCircle
 10
7.201715063868476
 20
9.124077620707819
 30
0.0
 40
0.125
100
AcDbArc
 50
0.0
 51
90.0
  0
LINE
  5
751E
330
1F
100
AcDbEntity
  8
0
100
AcDbLine
 10
7.326715063868476
 20
9.124077620707819
 30
0.0
 11
7.326715063868476
 21
7.921128975571466
 31
0.0
  0
LINE
  5
751F
330
1F
100
AcDbEntity
  8
0
100
AcDbLine
 10
6.726715063868475
 20
7.590064395160194
 30
0.0
 11
6.934158589223869
 21
7.590064395160194
 31
0.0
  0
ARC
  5
7520
330
1F
100
AcDbEntity
  8
0
100
AcDbCircle
 10
6.934158589223869
 20
7.715064395160194
 30
0.0
 40
0.125
100
AcDbArc
 50
270.0
 51
307.602467493678
  0
LINE
  5
7521
330
1F
100
AcDbEntity
  8
0
100
AcDbLine
 10
6.726715063868475
 20
7.281902620707821
 30
0.0
 11
6.926715063868471
 21
7.281902620707821
 31
0.0
  0
LINE
  5
7522
330
1F
100
AcDbEntity
  8
0
100
AcDbLine
 10
7.156715063868475
 20
7.085185120707823
 30
0.0
 11
7.156715063868475
 21
5.472101620707821
 31
0.0
  0
LINE
  5
7523
330
1F
100
AcDbEntity
  8
0
100
AcDbLine
 10
6.926715063868471
 20
7.281902620707821
 30
0.0
 11
6.926715063868471
 21
5.275384120707816
 31
0.0
  0
LINE
  5
7524
330
1F
100
AcDbEntity
  8
0
100
AcDbLine
 10
6.726715063868475
 20
8.894986120707816
 30
0.0
 11
6.956715063868475
 21
8.894986120707816
 31
0.0
  0
LINE
  5
7525
330
1F
100
AcDbEntity
  8
0
100
AcDbLine
 10
6.726715063868475
 20
8.560566370707819
 30
0.0
 11
6.956715063868479
 21
8.560566370707819
 31
0.0
  0
LINE
  5
7526
330
1F
100
AcDbEntity
  8
0
100
AcDbLine
 10
6.956715063868475
 20
8.894986120707816
 30
0.0
 11
6.956715063868479
 21
8.560566370707821
 31
0.0
  0
LINE
  5
7527
330
1F
100
AcDbEntity
  8
0
100
AcDbLine
 10
6.956715063868475
 20
8.582776245707819
 30
0.0
 11
6.525098890861631
 21
8.62258063079402
 31
0.0
  0
LINE
  5
7528
330
1F
100
AcDbEntity
  8
0
100
AcDbLine
 10
6.956715063868475
 20
8.872776245707818
 30
0.0
 11
6.525098890861631
 21
8.832971860621617
 31
0.0
  0
LINE
  5
752A
330
1F
100
AcDbEntity
  8
0
100
AcDbLine
 10
6.726715063868475
 20
7.450048888514986
 30
0.0
 11
7.306715063868477
 21
7.450048888514986
 31
0.0
  0
LINE
  5
752B
330
1F
100
AcDbEntity
  8
0
100
AcDbLine
 10
7.306715063868477
 20
7.450048888514986
 30
0.0
 11
7.306715063868477
 21
7.34981735290065
 31
0.0
  0
LINE
  5
752C
330
1F
100
AcDbEntity
  8
0
100
AcDbLine
 10
7.306715063868477
 20
7.34981735290065
 30
0.0
 11
6.726715063868475
 21
7.34981735290065
 31
0.0
  0
LINE
  5
752D
330
1F
100
AcDbEntity
  8
0
100
AcDbLine
 10
6.926715063868471
 20
7.085185120707823
 30
0.0
 11
7.156715063868475
 21
7.085185120707823
 31
0.0
  0
LINE
  5
7597
330
1F
100
AcDbEntity
  8
0
100
AcDbLine
 10
9.17548019496704
 20
12.67123266554822
 30
0.0
 11
9.195480194967039
 21
12.19623266554822
 31
0.0
  0
ARC
  5
7598
330
1F
100
AcDbEntity
  8
0
100
AcDbCircle
 10
9.30363389505503
 20
12.18048177362213
 30
0.0
 40
0.1092946176130845
100
AcDbArc
 50
171.714019813058
 51
268.3464987307218
  0
LINE
  5
7599
330
1F
100
AcDbEntity
  8
0
100
AcDbLine
 10
9.30048019496704
 20
12.07123266554822
 30
0.0
 11
10.03313975590455
 21
12.07123266554822
 31
0.0
  0
LINE
  5
759A
330
1F
100
AcDbEntity
  8
0
100
AcDbLine
 10
9.30048019496704
 20
12.07123266554822
 30
0.0
 11
9.30048019496704
 21
12.22123266554822
 31
0.0
  0
LINE
  5
759B
330
1F
100
AcDbEntity
  8
0
100
AcDbLine
 10
9.30048019496704
 20
12.22123266554822
 30
0.0
 11
10.03313975590455
 21
12.22123266554822
 31
0.0
  0
LINE
  5
759C
330
1F
100
AcDbEntity
  8
0
100
AcDbLine
 10
12.46046019496704
 20
12.67123266554822
 30
0.0
 11
12.44046019496704
 21
12.19623266554822
 31
0.0
  0
ARC
  5
759D
330
1F
100
AcDbEntity
  8
0
100
AcDbCircle
 10
12.33230649487905
 20
12.18048177362213
 30
0.0
 40
0.1092946176130845
100
AcDbArc
 50
271.6535012692784
 51
8.285980186941934
  0
LINE
  5
759E
330
1F
100
AcDbEntity
  8
0
100
AcDbLine
 10
12.33546019496704
 20
12.07123266554822
 30
0.0
 11
11.60280063402953
 21
12.07123266554822
 31
0.0
  0
LINE
  5
759F
330
1F
100
AcDbEntity
  8
0
100
AcDbLine
 10
12.33546019496704
 20
12.07123266554822
 30
0.0
 11
12.33546019496704
 21
12.22123266554822
 31
0.0
  0
LINE
  5
75A0
330
1F
100
AcDbEntity
  8
0
100
AcDbLine
 10
12.33546019496704
 20
12.22123266554822
 30
0.0
 11
11.60280063402953
 21
12.22123266554822
 31
0.0
  0
DIMENSION
  5
75A3
330
1F
100
AcDbEntity
  8
DIM
100
AcDbDimension
  2
*D3
 10
6.263902950554214
 20
10.84209601167315
 30
0.0
 11
7.118175442292532
 21
10.84209601167315
 31
0.0
 70
    32
 71
     5
 42
1.708544983476635
  3
Standard
100
AcDbAlignedDimension
 13
7.972447934030849
 23
9.719955447015649
 33
0.0
 14
6.263902950554214
 24
7.803636038433044
 34
0.0
100
AcDbRotatedDimension
  0
LINE
  5
7633
330
1F
100
AcDbEntity
  8
0
100
AcDbLine
 10
6.525098890861631
 20
7.803636038433044
 30
0.0
 11
6.263902950554214
 21
7.803636038433044
 31
0.0
  0
LINE
  5
7636
330
1F
100
AcDbEntity
  8
0
100
AcDbLine
 10
6.263902950554214
 20
7.803636038433044
 30
0.0
 11
6.263902950554214
 21
6.130521914051957
 31
0.0
  0
LINE
  5
7637
330
1F
100
AcDbEntity
  8
0
100
AcDbLine
 10
6.263902950554214
 20
6.130521914051957
 30
0.0
 11
6.525098890861631
 21
6.130521914051957
 31
0.0
  0
LINE
  5
7638
330
1F
100
AcDbEntity
  8
0
100
AcDbLine
 10
6.664215063868475
 20
9.348646701191796
 30
0.0
 11
6.525098890861631
 21
9.348646701191796
 31
0.0
  0
LINE
  5
7639
330
1F
100
AcDbEntity
  8
0
100
AcDbLine
 10
6.525098890861631
 20
9.348646701191796
 30
0.0
 11
6.525098890861631
 21
6.080521914051956
 31
0.0
  0
LINE
  5
763A
330
1F
100
AcDbEntity
  8
0
100
AcDbLine
 10
6.525098890861631
 20
6.080521914051956
 30
0.0
 11
6.664215063868475
 21
6.080521914051956
 31
0.0
  0
LINE
  5
763B
330
1F
100
AcDbEntity
  8
0
100
AcDbLine
 10
6.664215063868475
 20
8.843875182190144
 30
0.0
 11
6.664215063868475
 21
10.39336219933496
 31
0.0
  0
LINE
  5
763C
330
1F
100
AcDbEntity
  8
0
100
AcDbLine
 10
6.664215063868475
 20
10.39336219933496
 30
0.0
 11
7.225298971825797
 21
10.39336219933496
 31
0.0
  0
LINE
  5
763D
330
1F
100
AcDbEntity
  8
0
100
AcDbLine
 10
6.726715063868475
 20
8.850050623112725
 30
0.0
 11
6.726715063868475
 21
10.39336219933496
 31
0.0
  0
LINE
  5
763E
330
1F
100
AcDbEntity
  8
0
100
AcDbLine
 10
6.664215063868475
 20
8.611677309225493
 30
0.0
 11
6.664215063868475
 21
5.236040620707822
 31
0.0
  0
LINE
  5
763F
330
1F
100
AcDbEntity
  8
0
100
AcDbLine
 10
6.664215063868475
 20
5.236040620707822
 30
0.0
 11
6.726715063868475
 21
5.236040620707822
 31
0.0
  0
LINE
  5
7640
330
1F
100
AcDbEntity
  8
0
100
AcDbLine
 10
6.726715063868475
 20
5.236040620707822
 30
0.0
 11
6.726715063868475
 21
8.605501868302912
 31
0.0
  0
LINE
  5
7641
330
1F
100
AcDbEntity
  8
0
100
AcDbLine
 10
7.700669267415605
 20
9.794605710972987
 30
0.0
 11
7.700669267415605
 21
9.828537649135414
 31
0.0
  0
LINE
  5
7642
330
1F
100
AcDbEntity
  8
0
100
AcDbLine
 10
7.972447934030849
 20
9.516040656725255
 30
0.0
 11
7.972447934030849
 21
9.719955447015649
 31
0.0
  0
LINE
  5
7643
330
1F
100
AcDbEntity
  8
0
100
AcDbLine
 10
7.972447934030849
 20
9.719955447015649
 30
0.0
 11
7.700669267415605
 21
9.794605710972987
 31
0.0
  0
LINE
  5
7644
330
1F
100
AcDbEntity
  8
0
100
AcDbLine
 10
7.700669267415605
 20
9.516040656725255
 30
0.0
 11
7.972447934030849
 21
9.516040656725255
 31
0.0
  0
LINE
  5
7645
330
1F
100
AcDbEntity
  8
0
100
AcDbLine
 10
7.700669267415605
 20
9.441390392767917
 30
0.0
 11
7.700669267415605
 21
9.516040656725255
 31
0.0
  0
LINE
  5
7646
330
1F
100
AcDbEntity
  8
0
100
AcDbLine
 10
6.726715063868475
 20
9.441390392767917
 30
0.0
 11
7.700669267415605
 21
9.441390392767917
 31
0.0
  0
LINE
  5
7647
330
1F
100
AcDbEntity
  8
0
100
AcDbLine
 10
6.726715063868475
 20
9.828537649135414
 30
0.0
 11
7.700669267415605
 21
9.828537649135414
 31
0.0
  0
LINE
  5
7648
330
1F
100
AcDbEntity
  8
0
100
AcDbLine
 10
7.463145700278616
 20
10.0041037149966
 30
0.0
 11
7.463145700278616
 21
10.26090112652906
 31
0.0
  0
LINE
  5
7649
330
1F
100
AcDbEntity
  8
0
100
AcDbLine
 10
7.463145700278616
 20
10.26090112652906
 30
0.0
 11
7.225298971825797
 21
10.35943026117253
 31
0.0
  0
LINE
  5
764A
330
1F
100
AcDbEntity
  8
0
100
AcDbLine
 10
7.38138588737296
 20
10.0041037149966
 30
0.0
 11
7.463145700278616
 21
10.0041037149966
 31
0.0
  0
LINE
  5
764B
330
1F
100
AcDbEntity
  8
0
100
AcDbLine
 10
7.225298971825797
 20
10.35943026117253
 30
0.0
 11
7.225298971825797
 21
10.39336219933496
 31
0.0
  0
LINE
  5
764C
330
1F
100
AcDbEntity
  8
0
100
AcDbLine
 10
7.38138588737296
 20
9.828537649135414
 30
0.0
 11
7.38138588737296
 21
10.0041037149966
 31
0.0
  0
LINE
  5
764D
330
1F
100
AcDbEntity
  8
0
100
AcDbLine
 10
12.30867969496706
 20
12.87334883855506
 30
0.0
 11
10.97214858155325
 21
12.87334883855506
 31
0.0
  0
LINE
  5
764E
330
1F
100
AcDbEntity
  8
0
100
AcDbLine
 10
9.327260694967026
 20
12.87334883855506
 30
0.0
 11
10.66379180838083
 21
12.87334883855506
 31
0.0
  0
LINE
  5
764F
330
1F
100
AcDbEntity
  8
0
100
AcDbLine
 10
12.30867969496706
 20
12.73423266554822
 30
0.0
 11
12.30867969496706
 21
13.13403279317051
 31
0.0
  0
LINE
  5
7650
330
1F
100
AcDbEntity
  8
0
100
AcDbLine
 10
12.30867969496706
 20
13.13403279317051
 30
0.0
 11
10.97214858155325
 21
13.13403279317051
 31
0.0
  0
LINE
  5
7651
330
1F
100
AcDbEntity
  8
0
100
AcDbLine
 10
10.97214858155325
 20
13.13403279317051
 30
0.0
 11
10.97214858155325
 21
12.73423266554822
 31
0.0
  0
LINE
  5
7652
330
1F
100
AcDbEntity
  8
0
100
AcDbLine
 10
9.327260694967026
 20
12.73423266554822
 30
0.0
 11
9.327260694967026
 21
13.13403279317051
 31
0.0
  0
LINE
  5
7653
330
1F
100
AcDbEntity
  8
0
100
AcDbLine
 10
9.327260694967026
 20
13.13403279317051
 30
0.0
 11
10.66379180838083
 21
13.13403279317051
 31
0.0
  0
LINE
  5
7654
330
1F
100
AcDbEntity
  8
0
100
AcDbLine
 10
10.66379180838083
 20
13.13403279317051
 30
0.0
 11
10.66379180838083
 21
12.73423266554822
 31
0.0
  0
LINE
  5
7655
330
1F
100
AcDbEntity
  8
0
100
AcDbLine
 10
11.45562959628781
 20
11.67482666005947
 30
0.0
 11
11.56942878351848
 21
11.67482666005947
 31
0.0
  0
LINE
  5
7656
330
1F
100
AcDbEntity
  8
0
100
AcDbLine
 10
11.25900188670572
 20
11.67482666005947
 30
0.0
 11
11.37280107393638
 21
11.67482666005947
 31
0.0
  0
LINE
  5
7657
330
1F
100
AcDbEntity
  8
0
100
AcDbLine
 10
11.06201405311341
 20
11.67482666005947
 30
0.0
 11
11.17581324034407
 21
11.67482666005947
 31
0.0
  0
LINE
  5
7658
330
1F
100
AcDbEntity
  8
0
100
AcDbLine
 10
10.85782373931662
 20
11.67482666005947
 30
0.0
 11
10.97918553076198
 21
11.67482666005947
 31
0.0
  0
LINE
  5
7659
330
1F
100
AcDbEntity
  8
0
100
AcDbLine
 10
10.66119602973453
 20
11.67482666005947
 30
0.0
 11
10.78255782117989
 21
11.67482666005947
 31
0.0
  0
LINE
  5
765A
330
1F
100
AcDbEntity
  8
0
100
AcDbLine
 10
10.46420819614221
 20
11.67482666005947
 30
0.0
 11
10.58556998758757
 21
11.67482666005947
 31
0.0
  0
LINE
  5
765B
330
1F
100
AcDbEntity
  8
0
100
AcDbLine
 10
10.26758048656012
 20
11.67482666005947
 30
0.0
 11
10.38858215399525
 21
11.67482666005947
 31
0.0
  0
LINE
  5
765C
330
1F
100
AcDbEntity
  8
0
100
AcDbLine
 10
10.07095277697803
 20
11.67482666005947
 30
0.0
 11
10.19195444441316
 21
11.67482666005947
 31
0.0
  0
LINE
  5
765D
330
1F
100
AcDbEntity
  8
0
100
AcDbLine
 10
11.45562959628781
 20
11.99281616108692
 30
0.0
 11
11.45562959628781
 21
11.67482666005947
 31
0.0
  0
LINE
  5
765E
330
1F
100
AcDbEntity
  8
0
100
AcDbLine
 10
11.56906865950825
 20
11.67482666005947
 30
0.0
 11
11.56906865950825
 21
11.99281616108692
 31
0.0
  0
LINE
  5
765F
330
1F
100
AcDbEntity
  8
0
100
AcDbLine
 10
11.25900188670572
 20
11.99281616108692
 30
0.0
 11
11.25900188670572
 21
11.67482666005947
 31
0.0
  0
LINE
  5
7660
330
1F
100
AcDbEntity
  8
0
100
AcDbLine
 10
11.37244094992616
 20
11.67482666005947
 30
0.0
 11
11.37244094992616
 21
11.99281616108692
 31
0.0
  0
LINE
  5
7661
330
1F
100
AcDbEntity
  8
0
100
AcDbLine
 10
11.27412709513512
 20
11.95500314001344
 30
0.0
 11
11.37244094992616
 21
11.95500314001344
 31
0.0
  0
LINE
  5
7662
330
1F
100
AcDbEntity
  8
0
100
AcDbLine
 10
11.37244094992616
 20
11.7958283274946
 30
0.0
 11
11.27412709513512
 21
11.7958283274946
 31
0.0
  0
LINE
  5
7663
330
1F
100
AcDbEntity
  8
0
100
AcDbLine
 10
11.27412709513512
 20
11.7958283274946
 30
0.0
 11
11.27412709513512
 21
11.95500314001344
 31
0.0
  0
LINE
  5
7664
330
1F
100
AcDbEntity
  8
0
100
AcDbLine
 10
11.4707548047172
 20
11.95500314001344
 30
0.0
 11
11.56906865950825
 21
11.95500314001344
 31
0.0
  0
LINE
  5
7665
330
1F
100
AcDbEntity
  8
0
100
AcDbLine
 10
11.56906865950825
 20
11.7958283274946
 30
0.0
 11
11.4707548047172
 21
11.7958283274946
 31
0.0
  0
LINE
  5
7666
330
1F
100
AcDbEntity
  8
0
100
AcDbLine
 10
11.4707548047172
 20
11.7958283274946
 30
0.0
 11
11.4707548047172
 21
11.95500314001344
 31
0.0
  0
LINE
  5
7667
330
1F
100
AcDbEntity
  8
0
100
AcDbLine
 10
11.06201405311341
 20
11.99281616108692
 30
0.0
 11
11.06201405311341
 21
11.67482666005947
 31
0.0
  0
LINE
  5
7668
330
1F
100
AcDbEntity
  8
0
100
AcDbLine
 10
11.17581324034407
 20
11.67482666005947
 30
0.0
 11
11.17581324034407
 21
11.99281616108692
 31
0.0
  0
LINE
  5
7669
330
1F
100
AcDbEntity
  8
0
100
AcDbLine
 10
10.85782373931662
 20
11.99281616108692
 30
0.0
 11
10.85782373931662
 21
11.67482666005947
 31
0.0
  0
LINE
  5
766A
330
1F
100
AcDbEntity
  8
0
100
AcDbLine
 10
10.97882540675175
 20
11.67482666005947
 30
0.0
 11
10.97882540675175
 21
11.99281616108692
 31
0.0
  0
LINE
  5
766B
330
1F
100
AcDbEntity
  8
0
100
AcDbLine
 10
10.66119602973453
 20
11.99281616108692
 30
0.0
 11
10.66119602973453
 21
11.67482666005947
 31
0.0
  0
LINE
  5
766C
330
1F
100
AcDbEntity
  8
0
100
AcDbLine
 10
10.78219769716966
 20
11.67482666005947
 30
0.0
 11
10.78219769716966
 21
11.99281616108692
 31
0.0
  0
LINE
  5
766D
330
1F
100
AcDbEntity
  8
0
100
AcDbLine
 10
10.46420819614221
 20
11.99281616108692
 30
0.0
 11
10.46420819614221
 21
11.67482666005947
 31
0.0
  0
LINE
  5
766E
330
1F
100
AcDbEntity
  8
0
100
AcDbLine
 10
10.58556998758757
 20
11.67482666005947
 30
0.0
 11
10.58556998758757
 21
11.99281616108692
 31
0.0
  0
LINE
  5
766F
330
1F
100
AcDbEntity
  8
0
100
AcDbLine
 10
10.26758048656012
 20
11.99281616108692
 30
0.0
 11
10.26758048656012
 21
11.67482666005947
 31
0.0
  0
LINE
  5
7670
330
1F
100
AcDbEntity
  8
0
100
AcDbLine
 10
10.38858215399525
 20
11.67482666005947
 30
0.0
 11
10.38858215399525
 21
11.99281616108692
 31
0.0
  0
LINE
  5
7671
330
1F
100
AcDbEntity
  8
0
100
AcDbLine
 10
10.07095277697803
 20
11.99281616108692
 30
0.0
 11
10.07095277697803
 21
11.67482666005947
 31
0.0
  0
LINE
  5
7672
330
1F
100
AcDbEntity
  8
0
100
AcDbLine
 10
10.19195444441316
 20
11.67482666005947
 30
0.0
 11
10.19195444441316
 21
11.99281616108692
 31
0.0
  0
LINE
  5
7673
330
1F
100
AcDbEntity
  8
0
100
AcDbLine
 10
10.09364058962211
 20
11.95500314001344
 30
0.0
 11
10.19195444441316
 21
11.95500314001344
 31
0.0
  0
LINE
  5
7674
330
1F
100
AcDbEntity
  8
0
100
AcDbLine
 10
10.19195444441316
 20
11.7958283274946
 30
0.0
 11
10.09364058962211
 21
11.7958283274946
 31
0.0
  0
LINE
  5
7675
330
1F
100
AcDbEntity
  8
0
100
AcDbLine
 10
10.09364058962211
 20
11.7958283274946
 30
0.0
 11
10.09364058962211
 21
11.95500314001344
 31
0.0
  0
LINE
  5
7676
330
1F
100
AcDbEntity
  8
0
100
AcDbLine
 10
10.29026829920421
 20
11.95500314001344
 30
0.0
 11
10.38858215399525
 21
11.95500314001344
 31
0.0
  0
LINE
  5
7677
330
1F
100
AcDbEntity
  8
0
100
AcDbLine
 10
10.38858215399525
 20
11.7958283274946
 30
0.0
 11
10.29026829920421
 21
11.7958283274946
 31
0.0
  0
LINE
  5
7678
330
1F
100
AcDbEntity
  8
0
100
AcDbLine
 10
10.29026829920421
 20
11.7958283274946
 30
0.0
 11
10.29026829920421
 21
11.95500314001344
 31
0.0
  0
LINE
  5
7679
330
1F
100
AcDbEntity
  8
0
100
AcDbLine
 10
10.4868960087863
 20
11.95500314001344
 30
0.0
 11
10.58556998758757
 21
11.95500314001344
 31
0.0
  0
LINE
  5
767A
330
1F
100
AcDbEntity
  8
0
100
AcDbLine
 10
10.58556998758757
 20
11.7958283274946
 30
0.0
 11
10.4868960087863
 21
11.7958283274946
 31
0.0
  0
LINE
  5
767B
330
1F
100
AcDbEntity
  8
0
100
AcDbLine
 10
10.4868960087863
 20
11.7958283274946
 30
0.0
 11
10.4868960087863
 21
11.95500314001344
 31
0.0
  0
LINE
  5
767C
330
1F
100
AcDbEntity
  8
0
100
AcDbLine
 10
10.68388384237861
 20
11.95500314001344
 30
0.0
 11
10.78219769716966
 21
11.95500314001344
 31
0.0
  0
LINE
  5
767D
330
1F
100
AcDbEntity
  8
0
100
AcDbLine
 10
10.78219769716966
 20
11.7958283274946
 30
0.0
 11
10.68388384237861
 21
11.7958283274946
 31
0.0
  0
LINE
  5
767E
330
1F
100
AcDbEntity
  8
0
100
AcDbLine
 10
10.68388384237861
 20
11.7958283274946
 30
0.0
 11
10.68388384237861
 21
11.95500314001344
 31
0.0
  0
LINE
  5
767F
330
1F
100
AcDbEntity
  8
0
100
AcDbLine
 10
10.8805115519607
 20
11.95500314001344
 30
0.0
 11
10.97882540675175
 21
11.95500314001344
 31
0.0
  0
LINE
  5
7680
330
1F
100
AcDbEntity
  8
0
100
AcDbLine
 10
10.97882540675175
 20
11.7958283274946
 30
0.0
 11
10.8805115519607
 21
11.7958283274946
 31
0.0
  0
LINE
  5
7681
330
1F
100
AcDbEntity
  8
0
100
AcDbLine
 10
10.8805115519607
 20
11.7958283274946
 30
0.0
 11
10.8805115519607
 21
11.95500314001344
 31
0.0
  0
LINE
  5
7682
330
1F
100
AcDbEntity
  8
0
100
AcDbLine
 10
11.0771392615428
 20
11.95500314001344
 30
0.0
 11
11.17581324034407
 21
11.95500314001344
 31
0.0
  0
LINE
  5
7683
330
1F
100
AcDbEntity
  8
0
100
AcDbLine
 10
11.17581324034407
 20
11.7958283274946
 30
0.0
 11
11.0771392615428
 21
11.7958283274946
 31
0.0
  0
LINE
  5
7684
330
1F
100
AcDbEntity
  8
0
100
AcDbLine
 10
11.0771392615428
 20
11.7958283274946
 30
0.0
 11
11.0771392615428
 21
11.95500314001344
 31
0.0
  0
LINE
  5
7685
330
1F
100
AcDbEntity
  8
0
100
AcDbLine
 10
10.03313975590455
 20
11.99281616108692
 30
0.0
 11
11.60380604496704
 21
11.99281616108692
 31
0.0
  0
LINE
  5
7686
330
1F
100
AcDbEntity
  8
0
100
AcDbLine
 10
11.45562959628781
 20
12.20960969731482
 30
0.0
 11
11.56942878351848
 21
12.20960969731482
 31
0.0
  0
LINE
  5
7687
330
1F
100
AcDbEntity
  8
0
100
AcDbLine
 10
11.25900188670572
 20
12.20960969731482
 30
0.0
 11
11.37280107393638
 21
12.20960969731482
 31
0.0
  0
LINE
  5
7688
330
1F
100
AcDbEntity
  8
0
100
AcDbLine
 10
11.06201405311341
 20
12.20960969731482
 30
0.0
 11
11.17581324034407
 21
12.20960969731482
 31
0.0
  0
LINE
  5
7689
330
1F
100
AcDbEntity
  8
0
100
AcDbLine
 10
10.85782373931662
 20
12.20960969731482
 30
0.0
 11
10.97918553076198
 21
12.20960969731482
 31
0.0
  0
LINE
  5
768A
330
1F
100
AcDbEntity
  8
0
100
AcDbLine
 10
10.66119602973453
 20
12.20960969731482
 30
0.0
 11
10.78255782117989
 21
12.20960969731482
 31
0.0
  0
LINE
  5
768B
330
1F
100
AcDbEntity
  8
0
100
AcDbLine
 10
10.46420819614221
 20
12.20960969731482
 30
0.0
 11
10.58556998758757
 21
12.20960969731482
 31
0.0
  0
LINE
  5
768C
330
1F
100
AcDbEntity
  8
0
100
AcDbLine
 10
10.26758048656012
 20
12.20960969731482
 30
0.0
 11
10.38858215399525
 21
12.20960969731482
 31
0.0
  0
LINE
  5
768D
330
1F
100
AcDbEntity
  8
0
100
AcDbLine
 10
10.07095277697803
 20
12.20960969731482
 30
0.0
 11
10.19195444441316
 21
12.20960969731482
 31
0.0
  0
LINE
  5
768E
330
1F
100
AcDbEntity
  8
0
100
AcDbLine
 10
11.45562959628781
 20
12.52759919834227
 30
0.0
 11
11.45562959628781
 21
12.20960969731482
 31
0.0
  0
LINE
  5
768F
330
1F
100
AcDbEntity
  8
0
100
AcDbLine
 10
11.56906865950825
 20
12.20960969731482
 30
0.0
 11
11.56906865950825
 21
12.52759919834227
 31
0.0
  0
LINE
  5
7690
330
1F
100
AcDbEntity
  8
0
100
AcDbLine
 10
11.25900188670572
 20
12.52759919834227
 30
0.0
 11
11.25900188670572
 21
12.20960969731482
 31
0.0
  0
LINE
  5
7691
330
1F
100
AcDbEntity
  8
0
100
AcDbLine
 10
11.37244094992616
 20
12.20960969731482
 30
0.0
 11
11.37244094992616
 21
12.52759919834227
 31
0.0
  0
LINE
  5
7692
330
1F
100
AcDbEntity
  8
0
100
AcDbLine
 10
11.27412709513512
 20
12.48978617726879
 30
0.0
 11
11.37244094992616
 21
12.48978617726879
 31
0.0
  0
LINE
  5
7693
330
1F
100
AcDbEntity
  8
0
100
AcDbLine
 10
11.37244094992616
 20
12.33061136474995
 30
0.0
 11
11.27412709513512
 21
12.33061136474995
 31
0.0
  0
LINE
  5
7694
330
1F
100
AcDbEntity
  8
0
100
AcDbLine
 10
11.27412709513512
 20
12.33061136474995
 30
0.0
 11
11.27412709513512
 21
12.48978617726879
 31
0.0
  0
LINE
  5
7695
330
1F
100
AcDbEntity
  8
0
100
AcDbLine
 10
11.4707548047172
 20
12.48978617726879
 30
0.0
 11
11.56906865950825
 21
12.48978617726879
 31
0.0
  0
LINE
  5
7696
330
1F
100
AcDbEntity
  8
0
100
AcDbLine
 10
11.56906865950825
 20
12.33061136474995
 30
0.0
 11
11.4707548047172
 21
12.33061136474995
 31
0.0
  0
LINE
  5
7697
330
1F
100
AcDbEntity
  8
0
100
AcDbLine
 10
11.4707548047172
 20
12.33061136474995
 30
0.0
 11
11.4707548047172
 21
12.48978617726879
 31
0.0
  0
LINE
  5
7698
330
1F
100
AcDbEntity
  8
0
100
AcDbLine
 10
11.06201405311341
 20
12.52759919834227
 30
0.0
 11
11.06201405311341
 21
12.20960969731482
 31
0.0
  0
LINE
  5
7699
330
1F
100
AcDbEntity
  8
0
100
AcDbLine
 10
11.17581324034407
 20
12.20960969731482
 30
0.0
 11
11.17581324034407
 21
12.52759919834227
 31
0.0
  0
LINE
  5
769A
330
1F
100
AcDbEntity
  8
0
100
AcDbLine
 10
10.85782373931662
 20
12.52759919834227
 30
0.0
 11
10.85782373931662
 21
12.20960969731482
 31
0.0
  0
LINE
  5
769B
330
1F
100
AcDbEntity
  8
0
100
AcDbLine
 10
10.97882540675175
 20
12.20960969731482
 30
0.0
 11
10.97882540675175
 21
12.52759919834227
 31
0.0
  0
LINE
  5
769C
330
1F
100
AcDbEntity
  8
0
100
AcDbLine
 10
10.66119602973453
 20
12.52759919834227
 30
0.0
 11
10.66119602973453
 21
12.20960969731482
 31
0.0
  0
LINE
  5
769D
330
1F
100
AcDbEntity
  8
0
100
AcDbLine
 10
10.78219769716966
 20
12.20960969731482
 30
0.0
 11
10.78219769716966
 21
12.52759919834227
 31
0.0
  0
LINE
  5
769E
330
1F
100
AcDbEntity
  8
0
100
AcDbLine
 10
10.46420819614221
 20
12.52759919834227
 30
0.0
 11
10.46420819614221
 21
12.20960969731482
 31
0.0
  0
LINE
  5
769F
330
1F
100
AcDbEntity
  8
0
100
AcDbLine
 10
10.58556998758757
 20
12.20960969731482
 30
0.0
 11
10.58556998758757
 21
12.52759919834227
 31
0.0
  0
LINE
  5
76A0
330
1F
100
AcDbEntity
  8
0
100
AcDbLine
 10
10.26758048656012
 20
12.52759919834227
 30
0.0
 11
10.26758048656012
 21
12.20960969731482
 31
0.0
  0
LINE
  5
76A1
330
1F
100
AcDbEntity
  8
0
100
AcDbLine
 10
10.38858215399525
 20
12.20960969731482
 30
0.0
 11
10.38858215399525
 21
12.52759919834227
 31
0.0
  0
LINE
  5
76A2
330
1F
100
AcDbEntity
  8
0
100
AcDbLine
 10
10.07095277697803
 20
12.52759919834227
 30
0.0
 11
10.07095277697803
 21
12.20960969731482
 31
0.0
  0
LINE
  5
76A3
330
1F
100
AcDbEntity
  8
0
100
AcDbLine
 10
10.19195444441316
 20
12.20960969731482
 30
0.0
 11
10.19195444441316
 21
12.52759919834227
 31
0.0
  0
LINE
  5
76A4
330
1F
100
AcDbEntity
  8
0
100
AcDbLine
 10
10.09364058962211
 20
12.48978617726879
 30
0.0
 11
10.19195444441316
 21
12.48978617726879
 31
0.0
  0
LINE
  5
76A5
330
1F
100
AcDbEntity
  8
0
100
AcDbLine
 10
10.19195444441316
 20
12.33061136474995
 30
0.0
 11
10.09364058962211
 21
12.33061136474995
 31
0.0
  0
LINE
  5
76A6
330
1F
100
AcDbEntity
  8
0
100
AcDbLine
 10
10.09364058962211
 20
12.33061136474995
 30
0.0
 11
10.09364058962211
 21
12.48978617726879
 31
0.0
  0
LINE
  5
76A7
330
1F
100
AcDbEntity
  8
0
100
AcDbLine
 10
10.29026829920421
 20
12.48978617726879
 30
0.0
 11
10.38858215399525
 21
12.48978617726879
 31
0.0
  0
LINE
  5
76A8
330
1F
100
AcDbEntity
  8
0
100
AcDbLine
 10
10.38858215399525
 20
12.33061136474995
 30
0.0
 11
10.29026829920421
 21
12.33061136474995
 31
0.0
  0
LINE
  5
76A9
330
1F
100
AcDbEntity
  8
0
100
AcDbLine
 10
10.29026829920421
 20
12.33061136474995
 30
0.0
 11
10.29026829920421
 21
12.48978617726879
 31
0.0
  0
LINE
  5
76AA
330
1F
100
AcDbEntity
  8
0
100
AcDbLine
 10
10.4868960087863
 20
12.48978617726879
 30
0.0
 11
10.58556998758757
 21
12.48978617726879
 31
0.0
  0
LINE
  5
76AB
330
1F
100
AcDbEntity
  8
0
100
AcDbLine
 10
10.58556998758757
 20
12.33061136474995
 30
0.0
 11
10.4868960087863
 21
12.33061136474995
 31
0.0
  0
LINE
  5
76AC
330
1F
100
AcDbEntity
  8
0
100
AcDbLine
 10
10.4868960087863
 20
12.33061136474995
 30
0.0
 11
10.4868960087863
 21
12.48978617726879
 31
0.0
  0
LINE
  5
76AD
330
1F
100
AcDbEntity
  8
0
100
AcDbLine
 10
10.68388384237861
 20
12.48978617726879
 30
0.0
 11
10.78219769716966
 21
12.48978617726879
 31
0.0
  0
LINE
  5
76AE
330
1F
100
AcDbEntity
  8
0
100
AcDbLine
 10
10.78219769716966
 20
12.33061136474995
 30
0.0
 11
10.68388384237861
 21
12.33061136474995
 31
0.0
  0
LINE
  5
76AF
330
1F
100
AcDbEntity
  8
0
100
AcDbLine
 10
10.68388384237861
 20
12.33061136474995
 30
0.0
 11
10.68388384237861
 21
12.48978617726879
 31
0.0
  0
LINE
  5
76B0
330
1F
100
AcDbEntity
  8
0
100
AcDbLine
 10
10.8805115519607
 20
12.48978617726879
 30
0.0
 11
10.97882540675175
 21
12.48978617726879
 31
0.0
  0
LINE
  5
76B1
330
1F
100
AcDbEntity
  8
0
100
AcDbLine
 10
10.97882540675175
 20
12.33061136474995
 30
0.0
 11
10.8805115519607
 21
12.33061136474995
 31
0.0
  0
LINE
  5
76B2
330
1F
100
AcDbEntity
  8
0
100
AcDbLine
 10
10.8805115519607
 20
12.33061136474995
 30
0.0
 11
10.8805115519607
 21
12.48978617726879
 31
0.0
  0
LINE
  5
76B3
330
1F
100
AcDbEntity
  8
0
100
AcDbLine
 10
11.0771392615428
 20
12.48978617726879
 30
0.0
 11
11.17581324034407
 21
12.48978617726879
 31
0.0
  0
LINE
  5
76B4
330
1F
100
AcDbEntity
  8
0
100
AcDbLine
 10
11.17581324034407
 20
12.33061136474995
 30
0.0
 11
11.0771392615428
 21
12.33061136474995
 31
0.0
  0
LINE
  5
76B5
330
1F
100
AcDbEntity
  8
0
100
AcDbLine
 10
11.0771392615428
 20
12.33061136474995
 30
0.0
 11
11.0771392615428
 21
12.48978617726879
 31
0.0
  0
LINE
  5
76B6
330
1F
100
AcDbEntity
  8
0
100
AcDbLine
 10
10.03313975590455
 20
11.42521289094129
 30
0.0
 11
10.03313975590455
 21
12.67123266554822
 31
0.0
  0
LINE
  5
76B7
330
1F
100
AcDbEntity
  8
0
100
AcDbLine
 10
11.60380604496704
 20
11.42521289094129
 30
0.0
 11
11.60380604496704
 21
12.67123266554822
 31
0.0
  0
LINE
  5
76B8
330
1F
100
AcDbEntity
  8
0
100
AcDbLine
 10
10.03313975590455
 20
12.52759919834227
 30
0.0
 11
11.60380604496704
 21
12.52759919834227
 31
0.0
  0
LINE
  5
76B9
330
1F
100
AcDbEntity
  8
0
100
AcDbLine
 10
10.03313975590455
 20
11.42521289094129
 30
0.0
 11
11.60380604496704
 21
11.42521289094129
 31
0.0
  0
LINE
  5
76BA
330
1F
100
AcDbEntity
  8
0
100
AcDbLine
 10
9.17548019496704
 20
12.67123266554822
 30
0.0
 11
9.17548019496704
 21
12.73423266554822
 31
0.0
  0
LINE
  5
76BB
330
1F
100
AcDbEntity
  8
0
100
AcDbLine
 10
9.17548019496704
 20
12.73423266554822
 30
0.0
 11
12.46046019496704
 21
12.73423266554822
 31
0.0
  0
LINE
  5
76BC
330
1F
100
AcDbEntity
  8
0
100
AcDbLine
 10
12.46046019496704
 20
12.73423266554822
 30
0.0
 11
12.46046019496704
 21
12.67123266554822
 31
0.0
  0
LINE
  5
76BD
330
1F
100
AcDbEntity
  8
0
100
AcDbLine
 10
12.46046019496704
 20
12.67123266554822
 30
0.0
 11
9.17548019496704
 21
12.67123266554822
 31
0.0
  0
LINE
  5
76BE
330
1F
100
AcDbEntity
  8
0
100
AcDbLine
 10
15.11084149907245
 20
7.803636038433044
 30
0.0
 11
15.37203743937987
 21
7.803636038433044
 31
0.0
  0
LINE
  5
76BF
330
1F
100
AcDbEntity
  8
0
100
AcDbLine
 10
15.37203743937987
 20
7.803636038433044
 30
0.0
 11
15.37203743937987
 21
6.130521914051957
 31
0.0
  0
LINE
  5
76C0
330
1F
100
AcDbEntity
  8
0
100
AcDbLine
 10
15.37203743937987
 20
6.130521914051957
 30
0.0
 11
15.11084149907245
 21
6.130521914051957
 31
0.0
  0
LINE
  5
76C1
330
1F
100
AcDbEntity
  8
0
100
AcDbLine
 10
14.97172532606561
 20
9.348646701191796
 30
0.0
 11
15.11084149907245
 21
9.348646701191796
 31
0.0
  0
LINE
  5
76C2
330
1F
100
AcDbEntity
  8
0
100
AcDbLine
 10
15.11084149907245
 20
9.348646701191796
 30
0.0
 11
15.11084149907245
 21
6.080521914051956
 31
0.0
  0
LINE
  5
76C3
330
1F
100
AcDbEntity
  8
0
100
AcDbLine
 10
15.11084149907245
 20
6.080521914051956
 30
0.0
 11
14.97172532606561
 21
6.080521914051956
 31
0.0
  0
LINE
  5
76C4
330
1F
100
AcDbEntity
  8
0
100
AcDbLine
 10
14.90922532606561
 20
8.850050623112725
 30
0.0
 11
14.90922532606561
 21
10.39336219933496
 31
0.0
  0
LINE
  5
76C5
330
1F
100
AcDbEntity
  8
0
100
AcDbLine
 10
14.97172532606561
 20
8.611677309225493
 30
0.0
 11
14.97172532606561
 21
5.236040620707822
 31
0.0
  0
LINE
  5
76C6
330
1F
100
AcDbEntity
  8
0
100
AcDbLine
 10
14.97172532606561
 20
5.236040620707822
 30
0.0
 11
14.90922532606561
 21
5.236040620707822
 31
0.0
  0
LINE
  5
76C7
330
1F
100
AcDbEntity
  8
0
100
AcDbLine
 10
14.90922532606561
 20
5.236040620707822
 30
0.0
 11
14.90922532606561
 21
8.605501868302912
 31
0.0
  0
LINE
  5
76C8
330
1F
100
AcDbEntity
  8
0
100
AcDbLine
 10
13.93527112251848
 20
9.794605710972987
 30
0.0
 11
13.93527112251848
 21
9.828537649135414
 31
0.0
  0
LINE
  5
76C9
330
1F
100
AcDbEntity
  8
0
100
AcDbLine
 10
13.66349245590323
 20
9.516040656725255
 30
0.0
 11
13.66349245590323
 21
9.719955447015649
 31
0.0
  0
LINE
  5
76CA
330
1F
100
AcDbEntity
  8
0
100
AcDbLine
 10
13.66349245590323
 20
9.719955447015649
 30
0.0
 11
13.93527112251848
 21
9.794605710972987
 31
0.0
  0
LINE
  5
76CB
330
1F
100
AcDbEntity
  8
0
100
AcDbLine
 10
13.93527112251848
 20
9.516040656725255
 30
0.0
 11
13.66349245590323
 21
9.516040656725255
 31
0.0
  0
LINE
  5
76CC
330
1F
100
AcDbEntity
  8
0
100
AcDbLine
 10
13.93527112251848
 20
9.441390392767917
 30
0.0
 11
13.93527112251848
 21
9.516040656725255
 31
0.0
  0
LINE
  5
76CD
330
1F
100
AcDbEntity
  8
0
100
AcDbLine
 10
14.90922532606561
 20
9.441390392767917
 30
0.0
 11
13.93527112251848
 21
9.441390392767917
 31
0.0
  0
LINE
  5
76CE
330
1F
100
AcDbEntity
  8
0
100
AcDbLine
 10
14.90922532606561
 20
9.828537649135414
 30
0.0
 11
13.93527112251848
 21
9.828537649135414
 31
0.0
  0
LINE
  5
76CF
330
1F
100
AcDbEntity
  8
0
100
AcDbLine
 10
14.17279468965547
 20
10.0041037149966
 30
0.0
 11
14.17279468965547
 21
10.26090112652906
 31
0.0
  0
LINE
  5
76D0
330
1F
100
AcDbEntity
  8
0
100
AcDbLine
 10
14.17279468965547
 20
10.26090112652906
 30
0.0
 11
14.41064141810828
 21
10.35943026117253
 31
0.0
  0
LINE
  5
76D1
330
1F
100
AcDbEntity
  8
0
100
AcDbLine
 10
14.25455450256112
 20
10.0041037149966
 30
0.0
 11
14.17279468965547
 21
10.0041037149966
 31
0.0
  0
LINE
  5
76D2
330
1F
100
AcDbEntity
  8
0
100
AcDbLine
 10
14.41064141810828
 20
10.35943026117253
 30
0.0
 11
14.41064141810828
 21
10.39336219933496
 31
0.0
  0
LINE
  5
76D3
330
1F
100
AcDbEntity
  8
0
100
AcDbLine
 10
14.25455450256112
 20
9.828537649135414
 30
0.0
 11
14.25455450256112
 21
10.0041037149966
 31
0.0
  0
LINE
  5
76D4
330
1F
100
AcDbEntity
  8
0
100
AcDbLine
 10
14.41064141810828
 20
10.39336219933496
 30
0.0
 11
14.97172532606561
 21
10.39336219933496
 31
0.0
  0
LINE
  5
76D5
330
1F
100
AcDbEntity
  8
0
100
AcDbLine
 10
9.17548019496704
 20
10.39336219933496
 30
0.0
 11
12.46046019496704
 21
10.39336219933496
 31
0.0
  0
LINE
  5
76D6
330
1F
100
AcDbEntity
  8
0
100
AcDbLine
 10
12.46046019496704
 20
10.39336219933496
 30
0.0
 11
12.46046019496704
 21
5.239363699334965
 31
0.0
  0
LINE
  5
76D7
330
1F
100
AcDbEntity
  8
0
100
AcDbLine
 10
12.46046019496704
 20
5.239363699334965
 30
0.0
 11
9.17548019496704
 21
5.239363699334965
 31
0.0
  0
LINE
  5
76D8
330
1F
100
AcDbEntity
  8
0
100
AcDbLine
 10
9.17548019496704
 20
5.239363699334965
 30
0.0
 11
9.17548019496704
 21
10.39336219933496
 31
0.0
  0
LINE
  5
76D9
330
1F
100
AcDbEntity
  8
0
100
AcDbLine
 10
10.74970602859456
 20
6.297113766083118
 30
0.0
 11
10.62125269496705
 21
6.371276332831271
 31
0.0
1001
ACAD
1000
TCW40_DEV_WIDTH
1002
{
1040
-3.0
1002
}
  0
LINE
  5
76DA
330
1F
100
AcDbEntity
  8
0
100
AcDbLine
 10
10.62125269496705
 20
6.371276332831271
 30
0.0
 11
10.49279936133953
 21
6.297113766083118
 31
0.0
1001
ACAD
1000
TCW40_DEV_WIDTH
1002
{
1040
-3.0
1002
}
  0
LINE
  5
76DB
330
1F
100
AcDbEntity
  8
0
100
AcDbLine
 10
10.49279936133953
 20
6.297113766083118
 30
0.0
 11
10.49279936133953
 21
6.148788632586811
 31
0.0
1001
ACAD
1000
TCW40_DEV_WIDTH
1002
{
1040
-3.0
1002
}
  0
LINE
  5
76DC
330
1F
100
AcDbEntity
  8
0
100
AcDbLine
 10
10.49279936133953
 20
6.148788632586811
 30
0.0
 11
10.62125269496705
 21
6.074626065838661
 31
0.0
1001
ACAD
1000
TCW40_DEV_WIDTH
1002
{
1040
-3.0
1002
}
  0
LINE
  5
76DD
330
1F
100
AcDbEntity
  8
0
100
AcDbLine
 10
10.62125269496705
 20
6.074626065838661
 30
0.0
 11
10.74970602859456
 21
6.148788632586811
 31
0.0
1001
ACAD
1000
TCW40_DEV_WIDTH
1002
{
1040
-3.0
1002
}
  0
LINE
  5
76DE
330
1F
100
AcDbEntity
  8
0
100
AcDbLine
 10
10.74970602859456
 20
6.148788632586811
 30
0.0
 11
10.74970602859456
 21
6.297113766083118
 31
0.0
1001
ACAD
1000
TCW40_DEV_WIDTH
1002
{
1040
-3.0
1002
}
  0
LINE
  5
76DF
330
1F
100
AcDbEntity
  8
0
100
AcDbLine
 10
10.74970602859456
 20
6.690548766083121
 30
0.0
 11
10.62125269496705
 21
6.764711332831275
 31
0.0
1001
ACAD
1000
TCW40_DEV_WIDTH
1002
{
1040
-3.0
1002
}
  0
LINE
  5
76E0
330
1F
100
AcDbEntity
  8
0
100
AcDbLine
 10
10.62125269496705
 20
6.764711332831275
 30
0.0
 11
10.49279936133953
 21
6.690548766083121
 31
0.0
1001
ACAD
1000
TCW40_DEV_WIDTH
1002
{
1040
-3.0
1002
}
  0
LINE
  5
76E1
330
1F
100
AcDbEntity
  8
0
100
AcDbLine
 10
10.49279936133953
 20
6.690548766083121
 30
0.0
 11
10.49279936133953
 21
6.542223632586814
 31
0.0
1001
ACAD
1000
TCW40_DEV_WIDTH
1002
{
1040
-3.0
1002
}
  0
LINE
  5
76E2
330
1F
100
AcDbEntity
  8
0
100
AcDbLine
 10
10.49279936133953
 20
6.542223632586814
 30
0.0
 11
10.62125269496705
 21
6.468061065838663
 31
0.0
1001
ACAD
1000
TCW40_DEV_WIDTH
1002
{
1040
-3.0
1002
}
  0
LINE
  5
76E3
330
1F
100
AcDbEntity
  8
0
100
AcDbLine
 10
10.62125269496705
 20
6.468061065838663
 30
0.0
 11
10.74970602859456
 21
6.542223632586814
 31
0.0
1001
ACAD
1000
TCW40_DEV_WIDTH
1002
{
1040
-3.0
1002
}
  0
LINE
  5
76E4
330
1F
100
AcDbEntity
  8
0
100
AcDbLine
 10
10.74970602859456
 20
6.542223632586814
 30
0.0
 11
10.74970602859456
 21
6.690548766083121
 31
0.0
1001
ACAD
1000
TCW40_DEV_WIDTH
1002
{
1040
-3.0
1002
}
  0
LINE
  5
76E5
330
1F
100
AcDbEntity
  8
0
100
AcDbLine
 10
10.74970602859456
 20
7.083983766083118
 30
0.0
 11
10.62125269496705
 21
7.158146332831272
 31
0.0
1001
ACAD
1000
TCW40_DEV_WIDTH
1002
{
1040
-3.0
1002
}
  0
LINE
  5
76E6
330
1F
100
AcDbEntity
  8
0
100
AcDbLine
 10
10.62125269496705
 20
7.158146332831272
 30
0.0
 11
10.49279936133953
 21
7.083983766083118
 31
0.0
1001
ACAD
1000
TCW40_DEV_WIDTH
1002
{
1040
-3.0
1002
}
  0
LINE
  5
76E7
330
1F
100
AcDbEntity
  8
0
100
AcDbLine
 10
10.49279936133953
 20
7.083983766083118
 30
0.0
 11
10.49279936133953
 21
6.935658632586811
 31
0.0
1001
ACAD
1000
TCW40_DEV_WIDTH
1002
{
1040
-3.0
1002
}
  0
LINE
  5
76E8
330
1F
100
AcDbEntity
  8
0
100
AcDbLine
 10
10.49279936133953
 20
6.935658632586811
 30
0.0
 11
10.62125269496705
 21
6.861496065838659
 31
0.0
1001
ACAD
1000
TCW40_DEV_WIDTH
1002
{
1040
-3.0
1002
}
  0
LINE
  5
76E9
330
1F
100
AcDbEntity
  8
0
100
AcDbLine
 10
10.62125269496705
 20
6.861496065838659
 30
0.0
 11
10.74970602859456
 21
6.935658632586811
 31
0.0
1001
ACAD
1000
TCW40_DEV_WIDTH
1002
{
1040
-3.0
1002
}
  0
LINE
  5
76EA
330
1F
100
AcDbEntity
  8
0
100
AcDbLine
 10
10.74970602859456
 20
6.935658632586811
 30
0.0
 11
10.74970602859456
 21
7.083983766083118
 31
0.0
1001
ACAD
1000
TCW40_DEV_WIDTH
1002
{
1040
-3.0
1002
}
  0
LINE
  5
76EB
330
1F
100
AcDbEntity
  8
0
100
AcDbLine
 10
12.32344602859456
 20
6.297113766083118
 30
0.0
 11
12.19499269496705
 21
6.371276332831271
 31
0.0
1001
ACAD
1000
TCW40_DEV_WIDTH
1002
{
1040
-3.0
1002
}
  0
LINE
  5
76EC
330
1F
100
AcDbEntity
  8
0
100
AcDbLine
 10
12.19499269496705
 20
6.371276332831271
 30
0.0
 11
12.06653936133953
 21
6.297113766083118
 31
0.0
1001
ACAD
1000
TCW40_DEV_WIDTH
1002
{
1040
-3.0
1002
}
  0
LINE
  5
76ED
330
1F
100
AcDbEntity
  8
0
100
AcDbLine
 10
12.06653936133953
 20
6.297113766083118
 30
0.0
 11
12.06653936133953
 21
6.148788632586811
 31
0.0
1001
ACAD
1000
TCW40_DEV_WIDTH
1002
{
1040
-3.0
1002
}
  0
LINE
  5
76EE
330
1F
100
AcDbEntity
  8
0
100
AcDbLine
 10
12.06653936133953
 20
6.148788632586811
 30
0.0
 11
12.19499269496705
 21
6.074626065838661
 31
0.0
1001
ACAD
1000
TCW40_DEV_WIDTH
1002
{
1040
-3.0
1002
}
  0
LINE
  5
76EF
330
1F
100
AcDbEntity
  8
0
100
AcDbLine
 10
12.19499269496705
 20
6.074626065838661
 30
0.0
 11
12.32344602859456
 21
6.148788632586811
 31
0.0
1001
ACAD
1000
TCW40_DEV_WIDTH
1002
{
1040
-3.0
1002
}
  0
LINE
  5
76F0
330
1F
100
AcDbEntity
  8
0
100
AcDbLine
 10
12.32344602859456
 20
6.148788632586811
 30
0.0
 11
12.32344602859456
 21
6.297113766083118
 31
0.0
1001
ACAD
1000
TCW40_DEV_WIDTH
1002
{
1040
-3.0
1002
}
  0
LINE
  5
76F1
330
1F
100
AcDbEntity
  8
0
100
AcDbLine
 10
12.32344602859456
 20
6.690548766083121
 30
0.0
 11
12.19499269496705
 21
6.764711332831275
 31
0.0
1001
ACAD
1000
TCW40_DEV_WIDTH
1002
{
1040
-3.0
1002
}
  0
LINE
  5
76F2
330
1F
100
AcDbEntity
  8
0
100
AcDbLine
 10
12.19499269496705
 20
6.764711332831275
 30
0.0
 11
12.06653936133953
 21
6.690548766083121
 31
0.0
1001
ACAD
1000
TCW40_DEV_WIDTH
1002
{
1040
-3.0
1002
}
  0
LINE
  5
76F3
330
1F
100
AcDbEntity
  8
0
100
AcDbLine
 10
12.06653936133953
 20
6.690548766083121
 30
0.0
 11
12.06653936133953
 21
6.542223632586814
 31
0.0
1001
ACAD
1000
TCW40_DEV_WIDTH
1002
{
1040
-3.0
1002
}
  0
LINE
  5
76F4
330
1F
100
AcDbEntity
  8
0
100
AcDbLine
 10
12.06653936133953
 20
6.542223632586814
 30
0.0
 11
12.19499269496705
 21
6.468061065838663
 31
0.0
1001
ACAD
1000
TCW40_DEV_WIDTH
1002
{
1040
-3.0
1002
}
  0
LINE
  5
76F5
330
1F
100
AcDbEntity
  8
0
100
AcDbLine
 10
12.19499269496705
 20
6.468061065838663
 30
0.0
 11
12.32344602859456
 21
6.542223632586814
 31
0.0
1001
ACAD
1000
TCW40_DEV_WIDTH
1002
{
1040
-3.0
1002
}
  0
LINE
  5
76F6
330
1F
100
AcDbEntity
  8
0
100
AcDbLine
 10
12.32344602859456
 20
6.542223632586814
 30
0.0
 11
12.32344602859456
 21
6.690548766083121
 31
0.0
1001
ACAD
1000
TCW40_DEV_WIDTH
1002
{
1040
-3.0
1002
}
  0
ARC
  5
76F7
330
1F
100
AcDbEntity
  8
0
100
AcDbCircle
 10
9.523978194967035
 20
8.209797949334962
 30
0.0
 40
0.0393435000000011
100
AcDbArc
 50
180.0
 51
270.0
  0
LINE
  5
76F8
330
1F
100
AcDbEntity
  8
0
100
AcDbLine
 10
9.523978194967035
 20
8.170454449334961
 30
0.0
 11
10.4683040537536
 21
8.170454449334961
 31
0.0
  0
ARC
  5
76F9
330
1F
100
AcDbEntity
  8
0
100
AcDbCircle
 10
10.4683040537536
 20
8.209797949334962
 30
0.0
 40
0.0393435000000011
100
AcDbArc
 50
270.0
 51
0.0
  0
LINE
  5
76FA
330
1F
100
AcDbEntity
  8
0
100
AcDbLine
 10
10.5076475537536
 20
8.209797949334962
 30
0.0
 11
10.5076475537536
 21
9.016339699334963
 31
0.0
  0
ARC
  5
76FB
330
1F
100
AcDbEntity
  8
0
100
AcDbCircle
 10
10.4683040537536
 20
9.016339699334963
 30
0.0
 40
0.0393435000000011
100
AcDbArc
 50
0.0
 51
90.0
  0
LINE
  5
76FC
330
1F
100
AcDbEntity
  8
0
100
AcDbLine
 10
10.4683040537536
 20
9.055683199334964
 30
0.0
 11
9.523978194967035
 21
9.055683199334964
 31
0.0
  0
ARC
  5
76FD
330
1F
100
AcDbEntity
  8
0
100
AcDbCircle
 10
9.523978194967035
 20
9.016339699334963
 30
0.0
 40
0.0393435000000011
100
AcDbArc
 50
90.0
 51
180.0
  0
LINE
  5
76FE
330
1F
100
AcDbEntity
  8
0
100
AcDbLine
 10
9.484634694967034
 20
9.016339699334963
 30
0.0
 11
9.484634694967034
 21
8.209797949334962
 31
0.0
  0
ARC
  5
76FF
330
1F
100
AcDbEntity
  8
0
100
AcDbCircle
 10
9.995313592853433
 20
6.633641966054163
 30
0.0
 40
1.399102369151787
100
AcDbArc
 50
61.40144366923856
 51
118.5213884935842
  0
LINE
  5
7700
330
1F
100
AcDbEntity
  8
0
100
AcDbLine
 10
9.32726069496703
 20
8.89830919933496
 30
0.0
 11
9.287917194967043
 21
8.89830919933496
 31
0.0
1001
ACAD
1000
TCW40_DEV_WIDTH
1002
{
1040
-3.0
1002
}
  0
LINE
  5
7701
330
1F
100
AcDbEntity
  8
0
100
AcDbLine
 10
9.287917194967043
 20
8.89830919933496
 30
0.0
 11
9.287917194967043
 21
8.563889449334965
 31
0.0
1001
ACAD
1000
TCW40_DEV_WIDTH
1002
{
1040
-3.0
1002
}
  0
LINE
  5
7702
330
1F
100
AcDbEntity
  8
0
100
AcDbLine
 10
9.287917194967043
 20
8.563889449334965
 30
0.0
 11
9.32726069496703
 21
8.563889449334965
 31
0.0
1001
ACAD
1000
TCW40_DEV_WIDTH
1002
{
1040
-3.0
1002
}
  0
LINE
  5
7703
330
1F
100
AcDbEntity
  8
0
100
AcDbLine
 10
10.66493969496704
 20
8.89830919933496
 30
0.0
 11
10.70428319496704
 21
8.89830919933496
 31
0.0
1001
ACAD
1000
TCW40_DEV_WIDTH
1002
{
1040
-3.0
1002
}
  0
LINE
  5
7704
330
1F
100
AcDbEntity
  8
0
100
AcDbLine
 10
10.70428319496704
 20
8.89830919933496
 30
0.0
 11
10.70428319496704
 21
8.563889449334965
 31
0.0
1001
ACAD
1000
TCW40_DEV_WIDTH
1002
{
1040
-3.0
1002
}
  0
LINE
  5
7705
330
1F
100
AcDbEntity
  8
0
100
AcDbLine
 10
10.70428319496704
 20
8.563889449334965
 30
0.0
 11
10.66493969496704
 21
8.563889449334965
 31
0.0
1001
ACAD
1000
TCW40_DEV_WIDTH
1002
{
1040
-3.0
1002
}
  0
ARC
  5
7706
330
1F
100
AcDbEntity
  8
0
100
AcDbCircle
 10
9.214823694967043
 20
9.213057199334963
 30
0.0
 40
0.0393434999999993
100
AcDbArc
 50
89.9999999999974
 51
180.0000000000026
  0
LINE
  5
7707
330
1F
100
AcDbEntity
  8
0
100
AcDbLine
 10
9.175480194967043
 20
9.213057199334961
 30
0.0
 11
9.1754801949671
 21
7.627014186438579
 31
0.0
  0
ARC
  5
7708
330
1F
100
AcDbEntity
  8
0
100
AcDbCircle
 10
9.239679193015833
 20
7.658702667076898
 30
0.0
 40
0.0715937927171502
100
AcDbArc
 50
206.2708425428106
 51
294.1745006618583
  0
ARC
  5
7709
330
1F
100
AcDbEntity
  8
0
100
AcDbCircle
 10
9.995313592853428
 20
6.397580966054164
 30
0.0
 40
1.399102369151791
100
AcDbArc
 50
58.6527666810334
 51
121.2738881046906
  0
ARC
  5
770A
330
1F
100
AcDbEntity
  8
0
100
AcDbCircle
 10
10.75287098969019
 20
7.659183595316875
 30
0.0
 40
0.0730428656163912
100
AcDbArc
 50
245.9978607478397
 51
333.0303138406363
  0
LINE
  5
770B
330
1F
100
AcDbEntity
  8
0
100
AcDbLine
 10
10.81797019496698
 20
7.626057266063767
 30
0.0
 11
10.81797019496704
 21
9.213057199334954
 31
0.0
  0
ARC
  5
770C
330
1F
100
AcDbEntity
  8
0
100
AcDbCircle
 10
10.77862669496703
 20
9.21305719933496
 30
0.0
 40
0.0393435000000047
100
AcDbArc
 50
359.9999999999921
 51
89.99999999999481
  0
LINE
  5
770D
330
1F
100
AcDbEntity
  8
0
100
AcDbLine
 10
10.77862669496704
 20
9.252400699334963
 30
0.0
 11
9.214823694967044
 21
9.252400699334963
 31
0.0
  0
ARC
  5
770E
330
1F
100
AcDbEntity
  8
0
100
AcDbCircle
 10
11.16771819496704
 20
8.209797949334962
 30
0.0
 40
0.0393435000000011
100
AcDbArc
 50
180.0
 51
270.0
  0
LINE
  5
770F
330
1F
100
AcDbEntity
  8
0
100
AcDbLine
 10
11.16771819496704
 20
8.170454449334961
 30
0.0
 11
12.11204405375361
 21
8.170454449334961
 31
0.0
  0
ARC
  5
7710
330
1F
100
AcDbEntity
  8
0
100
AcDbCircle
 10
12.11204405375361
 20
8.209797949334962
 30
0.0
 40
0.0393435000000011
100
AcDbArc
 50
270.0
 51
0.0
  0
LINE
  5
7711
330
1F
100
AcDbEntity
  8
0
100
AcDbLine
 10
12.15138755375361
 20
8.209797949334962
 30
0.0
 11
12.15138755375361
 21
9.016339699334963
 31
0.0
  0
ARC
  5
7712
330
1F
100
AcDbEntity
  8
0
100
AcDbCircle
 10
12.11204405375361
 20
9.016339699334963
 30
0.0
 40
0.0393435000000011
100
AcDbArc
 50
0.0
 51
90.0
  0
LINE
  5
7713
330
1F
100
AcDbEntity
  8
0
100
AcDbLine
 10
12.11204405375361
 20
9.055683199334964
 30
0.0
 11
11.16771819496704
 21
9.055683199334964
 31
0.0
  0
ARC
  5
7714
330
1F
100
AcDbEntity
  8
0
100
AcDbCircle
 10
11.16771819496704
 20
9.016339699334963
 30
0.0
 40
0.0393435000000011
100
AcDbArc
 50
90.0
 51
180.0
  0
LINE
  5
7715
330
1F
100
AcDbEntity
  8
0
100
AcDbLine
 10
11.12837469496704
 20
9.016339699334963
 30
0.0
 11
11.12837469496704
 21
8.209797949334962
 31
0.0
  0
LINE
  5
7716
330
1F
100
AcDbEntity
  8
0
100
AcDbLine
 10
11.4149300279063
 20
9.974656349759476
 30
0.0
 11
11.56037191824992
 21
9.974656349759476
 31
0.0
1001
ACAD
1000
TCW40_DEV_WIDTH
1002
{
1040
-3.0
1002
}
  0
LINE
  5
7717
330
1F
100
AcDbEntity
  8
0
100
AcDbLine
 10
11.56037191824992
 20
9.974656349759476
 30
0.0
 11
11.56037191824992
 21
9.95042673144486
 31
0.0
1001
ACAD
1000
TCW40_DEV_WIDTH
1002
{
1040
-3.0
1002
}
  0
LINE
  5
7718
330
1F
100
AcDbEntity
  8
0
100
AcDbLine
 10
11.56037191824992
 20
9.95042673144486
 30
0.0
 11
11.4149300279063
 21
9.95042673144486
 31
0.0
1001
ACAD
1000
TCW40_DEV_WIDTH
1002
{
1040
-3.0
1002
}
  0
LINE
  5
7719
330
1F
100
AcDbEntity
  8
0
100
AcDbLine
 10
11.4149300279063
 20
9.95042673144486
 30
0.0
 11
11.4149300279063
 21
9.974656349759476
 31
0.0
1001
ACAD
1000
TCW40_DEV_WIDTH
1002
{
1040
-3.0
1002
}
  0
LINE
  5
771A
330
1F
100
AcDbEntity
  8
0
100
AcDbLine
 10
11.22128623884379
 20
9.974656349759476
 30
0.0
 11
11.36672812918743
 21
9.974656349759476
 31
0.0
1001
ACAD
1000
TCW40_DEV_WIDTH
1002
{
1040
-3.0
1002
}
  0
LINE
  5
771B
330
1F
100
AcDbEntity
  8
0
100
AcDbLine
 10
11.36672812918743
 20
9.974656349759476
 30
0.0
 11
11.36672812918743
 21
9.95042673144486
 31
0.0
1001
ACAD
1000
TCW40_DEV_WIDTH
1002
{
1040
-3.0
1002
}
  0
LINE
  5
771C
330
1F
100
AcDbEntity
  8
0
100
AcDbLine
 10
11.36672812918743
 20
9.95042673144486
 30
0.0
 11
11.22128623884379
 21
9.95042673144486
 31
0.0
1001
ACAD
1000
TCW40_DEV_WIDTH
1002
{
1040
-3.0
1002
}
  0
LINE
  5
771D
330
1F
100
AcDbEntity
  8
0
100
AcDbLine
 10
11.22128623884379
 20
9.95042673144486
 30
0.0
 11
11.22128623884379
 21
9.974656349759476
 31
0.0
1001
ACAD
1000
TCW40_DEV_WIDTH
1002
{
1040
-3.0
1002
}
  0
LINE
  5
771E
330
1F
100
AcDbEntity
  8
0
100
AcDbLine
 10
11.0276424497813
 20
9.974656349759476
 30
0.0
 11
11.17308434012493
 21
9.974656349759476
 31
0.0
1001
ACAD
1000
TCW40_DEV_WIDTH
1002
{
1040
-3.0
1002
}
  0
LINE
  5
771F
330
1F
100
AcDbEntity
  8
0
100
AcDbLine
 10
11.17308434012493
 20
9.974656349759476
 30
0.0
 11
11.17308434012493
 21
9.95042673144486
 31
0.0
1001
ACAD
1000
TCW40_DEV_WIDTH
1002
{
1040
-3.0
1002
}
  0
LINE
  5
7720
330
1F
100
AcDbEntity
  8
0
100
AcDbLine
 10
11.17308434012493
 20
9.95042673144486
 30
0.0
 11
11.0276424497813
 21
9.95042673144486
 31
0.0
1001
ACAD
1000
TCW40_DEV_WIDTH
1002
{
1040
-3.0
1002
}
  0
LINE
  5
7721
330
1F
100
AcDbEntity
  8
0
100
AcDbLine
 10
11.0276424497813
 20
9.95042673144486
 30
0.0
 11
11.0276424497813
 21
9.974656349759476
 31
0.0
1001
ACAD
1000
TCW40_DEV_WIDTH
1002
{
1040
-3.0
1002
}
  0
LINE
  5
7722
330
1F
100
AcDbEntity
  8
0
100
AcDbLine
 10
10.83399866071879
 20
9.974656349759476
 30
0.0
 11
10.97944055106242
 21
9.974656349759476
 31
0.0
1001
ACAD
1000
TCW40_DEV_WIDTH
1002
{
1040
-3.0
1002
}
  0
LINE
  5
7723
330
1F
100
AcDbEntity
  8
0
100
AcDbLine
 10
10.97944055106242
 20
9.974656349759476
 30
0.0
 11
10.97944055106242
 21
9.95042673144486
 31
0.0
1001
ACAD
1000
TCW40_DEV_WIDTH
1002
{
1040
-3.0
1002
}
  0
LINE
  5
7724
330
1F
100
AcDbEntity
  8
0
100
AcDbLine
 10
10.97944055106242
 20
9.95042673144486
 30
0.0
 11
10.83399866071879
 21
9.95042673144486
 31
0.0
1001
ACAD
1000
TCW40_DEV_WIDTH
1002
{
1040
-3.0
1002
}
  0
LINE
  5
7725
330
1F
100
AcDbEntity
  8
0
100
AcDbLine
 10
10.83399866071879
 20
9.95042673144486
 30
0.0
 11
10.83399866071879
 21
9.974656349759476
 31
0.0
1001
ACAD
1000
TCW40_DEV_WIDTH
1002
{
1040
-3.0
1002
}
  0
LINE
  5
7726
330
1F
100
AcDbEntity
  8
0
100
AcDbLine
 10
10.64035487165629
 20
9.974656349759476
 30
0.0
 11
10.78579676199993
 21
9.974656349759476
 31
0.0
1001
ACAD
1000
TCW40_DEV_WIDTH
1002
{
1040
-3.0
1002
}
  0
LINE
  5
7727
330
1F
100
AcDbEntity
  8
0
100
AcDbLine
 10
10.78579676199993
 20
9.974656349759476
 30
0.0
 11
10.78579676199993
 21
9.95042673144486
 31
0.0
1001
ACAD
1000
TCW40_DEV_WIDTH
1002
{
1040
-3.0
1002
}
  0
LINE
  5
7728
330
1F
100
AcDbEntity
  8
0
100
AcDbLine
 10
10.78579676199993
 20
9.95042673144486
 30
0.0
 11
10.64035487165629
 21
9.95042673144486
 31
0.0
1001
ACAD
1000
TCW40_DEV_WIDTH
1002
{
1040
-3.0
1002
}
  0
LINE
  5
7729
330
1F
100
AcDbEntity
  8
0
100
AcDbLine
 10
10.64035487165629
 20
9.95042673144486
 30
0.0
 11
10.64035487165629
 21
9.974656349759476
 31
0.0
1001
ACAD
1000
TCW40_DEV_WIDTH
1002
{
1040
-3.0
1002
}
  0
LINE
  5
772A
330
1F
100
AcDbEntity
  8
0
100
AcDbLine
 10
10.4467110825938
 20
9.974656349759476
 30
0.0
 11
10.59215297293742
 21
9.974656349759476
 31
0.0
1001
ACAD
1000
TCW40_DEV_WIDTH
1002
{
1040
-3.0
1002
}
  0
LINE
  5
772B
330
1F
100
AcDbEntity
  8
0
100
AcDbLine
 10
10.59215297293742
 20
9.974656349759476
 30
0.0
 11
10.59215297293742
 21
9.95042673144486
 31
0.0
1001
ACAD
1000
TCW40_DEV_WIDTH
1002
{
1040
-3.0
1002
}
  0
LINE
  5
772C
330
1F
100
AcDbEntity
  8
0
100
AcDbLine
 10
10.59215297293742
 20
9.95042673144486
 30
0.0
 11
10.4467110825938
 21
9.95042673144486
 31
0.0
1001
ACAD
1000
TCW40_DEV_WIDTH
1002
{
1040
-3.0
1002
}
  0
LINE
  5
772D
330
1F
100
AcDbEntity
  8
0
100
AcDbLine
 10
10.4467110825938
 20
9.95042673144486
 30
0.0
 11
10.4467110825938
 21
9.974656349759476
 31
0.0
1001
ACAD
1000
TCW40_DEV_WIDTH
1002
{
1040
-3.0
1002
}
  0
LINE
  5
772E
330
1F
100
AcDbEntity
  8
0
100
AcDbLine
 10
10.2530672935313
 20
9.974656349759476
 30
0.0
 11
10.39850918387491
 21
9.974656349759476
 31
0.0
1001
ACAD
1000
TCW40_DEV_WIDTH
1002
{
1040
-3.0
1002
}
  0
LINE
  5
772F
330
1F
100
AcDbEntity
  8
0
100
AcDbLine
 10
10.39850918387491
 20
9.974656349759476
 30
0.0
 11
10.39850918387491
 21
9.95042673144486
 31
0.0
1001
ACAD
1000
TCW40_DEV_WIDTH
1002
{
1040
-3.0
1002
}
  0
LINE
  5
7730
330
1F
100
AcDbEntity
  8
0
100
AcDbLine
 10
10.39850918387491
 20
9.95042673144486
 30
0.0
 11
10.2530672935313
 21
9.95042673144486
 31
0.0
1001
ACAD
1000
TCW40_DEV_WIDTH
1002
{
1040
-3.0
1002
}
  0
LINE
  5
7731
330
1F
100
AcDbEntity
  8
0
100
AcDbLine
 10
10.2530672935313
 20
9.95042673144486
 30
0.0
 11
10.2530672935313
 21
9.974656349759476
 31
0.0
1001
ACAD
1000
TCW40_DEV_WIDTH
1002
{
1040
-3.0
1002
}
  0
LINE
  5
7732
330
1F
100
AcDbEntity
  8
0
100
AcDbLine
 10
10.05942350446879
 20
9.974656349759476
 30
0.0
 11
10.20486539481243
 21
9.974656349759476
 31
0.0
1001
ACAD
1000
TCW40_DEV_WIDTH
1002
{
1040
-3.0
1002
}
  0
LINE
  5
7733
330
1F
100
AcDbEntity
  8
0
100
AcDbLine
 10
10.20486539481243
 20
9.974656349759476
 30
0.0
 11
10.20486539481243
 21
9.95042673144486
 31
0.0
1001
ACAD
1000
TCW40_DEV_WIDTH
1002
{
1040
-3.0
1002
}
  0
LINE
  5
7734
330
1F
100
AcDbEntity
  8
0
100
AcDbLine
 10
10.20486539481243
 20
9.95042673144486
 30
0.0
 11
10.05942350446879
 21
9.95042673144486
 31
0.0
1001
ACAD
1000
TCW40_DEV_WIDTH
1002
{
1040
-3.0
1002
}
  0
LINE
  5
7735
330
1F
100
AcDbEntity
  8
0
100
AcDbLine
 10
10.05942350446879
 20
9.95042673144486
 30
0.0
 11
10.05942350446879
 21
9.974656349759476
 31
0.0
1001
ACAD
1000
TCW40_DEV_WIDTH
1002
{
1040
-3.0
1002
}
  0
LINE
  5
7736
330
1F
100
AcDbEntity
  8
0
100
AcDbLine
 10
9.558978194967053
 20
5.337722449334961
 30
0.0
 11
9.598321694967054
 21
5.475424699334965
 31
0.0
1001
ACAD
1000
TCW40_DEV_WIDTH
1002
{
1040
-3.0
1002
}
  0
LINE
  5
7737
330
1F
100
AcDbEntity
  8
0
100
AcDbLine
 10
9.598321694967054
 20
5.475424699334965
 30
0.0
 11
9.677008694967057
 21
5.475424699334965
 31
0.0
1001
ACAD
1000
TCW40_DEV_WIDTH
1002
{
1040
-3.0
1002
}
  0
LINE
  5
7738
330
1F
100
AcDbEntity
  8
0
100
AcDbLine
 10
9.677008694967057
 20
5.475424699334965
 30
0.0
 11
9.716352194967058
 21
5.337722449334961
 31
0.0
1001
ACAD
1000
TCW40_DEV_WIDTH
1002
{
1040
-3.0
1002
}
  0
LINE
  5
7739
330
1F
100
AcDbEntity
  8
0
100
AcDbLine
 10
9.716352194967058
 20
5.337722449334961
 30
0.0
 11
9.716352194967058
 21
5.278707199334959
 31
0.0
1001
ACAD
1000
TCW40_DEV_WIDTH
1002
{
1040
-3.0
1002
}
  0
LINE
  5
773A
330
1F
100
AcDbEntity
  8
0
100
AcDbLine
 10
9.558978194967053
 20
7.226210449334963
 30
0.0
 11
9.598321694967054
 21
7.088508199334967
 31
0.0
1001
ACAD
1000
TCW40_DEV_WIDTH
1002
{
1040
-3.0
1002
}
  0
LINE
  5
773B
330
1F
100
AcDbEntity
  8
0
100
AcDbLine
 10
9.598321694967054
 20
7.088508199334967
 30
0.0
 11
9.677008694967057
 21
7.088508199334967
 31
0.0
1001
ACAD
1000
TCW40_DEV_WIDTH
1002
{
1040
-3.0
1002
}
  0
LINE
  5
773C
330
1F
100
AcDbEntity
  8
0
100
AcDbLine
 10
9.677008694967057
 20
7.088508199334967
 30
0.0
 11
9.716352194967058
 21
7.226210449334963
 31
0.0
1001
ACAD
1000
TCW40_DEV_WIDTH
1002
{
1040
-3.0
1002
}
  0
LINE
  5
773D
330
1F
100
AcDbEntity
  8
0
100
AcDbLine
 10
9.716352194967058
 20
7.226210449334963
 30
0.0
 11
9.716352194967058
 21
7.285225699334965
 31
0.0
1001
ACAD
1000
TCW40_DEV_WIDTH
1002
{
1040
-3.0
1002
}
  0
LINE
  5
773E
330
1F
100
AcDbEntity
  8
0
100
AcDbLine
 10
10.10978719496705
 20
5.337722449334961
 30
0.0
 11
10.14913069496705
 21
5.475424699334965
 31
0.0
1001
ACAD
1000
TCW40_DEV_WIDTH
1002
{
1040
-3.0
1002
}
  0
LINE
  5
773F
330
1F
100
AcDbEntity
  8
0
100
AcDbLine
 10
10.14913069496705
 20
5.475424699334965
 30
0.0
 11
10.22781769496706
 21
5.475424699334965
 31
0.0
1001
ACAD
1000
TCW40_DEV_WIDTH
1002
{
1040
-3.0
1002
}
  0
LINE
  5
7740
330
1F
100
AcDbEntity
  8
0
100
AcDbLine
 10
10.22781769496706
 20
5.475424699334965
 30
0.0
 11
10.26716119496704
 21
5.337722449334961
 31
0.0
1001
ACAD
1000
TCW40_DEV_WIDTH
1002
{
1040
-3.0
1002
}
  0
LINE
  5
7741
330
1F
100
AcDbEntity
  8
0
100
AcDbLine
 10
10.26716119496704
 20
5.337722449334961
 30
0.0
 11
10.26716119496704
 21
5.278707199334959
 31
0.0
1001
ACAD
1000
TCW40_DEV_WIDTH
1002
{
1040
-3.0
1002
}
  0
LINE
  5
7742
330
1F
100
AcDbEntity
  8
0
100
AcDbLine
 10
10.10978719496705
 20
7.226210449334963
 30
0.0
 11
10.14913069496705
 21
7.088508199334967
 31
0.0
1001
ACAD
1000
TCW40_DEV_WIDTH
1002
{
1040
-3.0
1002
}
  0
LINE
  5
7743
330
1F
100
AcDbEntity
  8
0
100
AcDbLine
 10
10.14913069496705
 20
7.088508199334967
 30
0.0
 11
10.22781769496706
 21
7.088508199334967
 31
0.0
1001
ACAD
1000
TCW40_DEV_WIDTH
1002
{
1040
-3.0
1002
}
  0
LINE
  5
7744
330
1F
100
AcDbEntity
  8
0
100
AcDbLine
 10
10.22781769496706
 20
7.088508199334967
 30
0.0
 11
10.26716119496704
 21
7.226210449334963
 31
0.0
1001
ACAD
1000
TCW40_DEV_WIDTH
1002
{
1040
-3.0
1002
}
  0
LINE
  5
7745
330
1F
100
AcDbEntity
  8
0
100
AcDbLine
 10
10.26716119496704
 20
7.226210449334963
 30
0.0
 11
10.26716119496704
 21
7.285225699334965
 31
0.0
1001
ACAD
1000
TCW40_DEV_WIDTH
1002
{
1040
-3.0
1002
}
  0
LINE
  5
7746
330
1F
100
AcDbEntity
  8
0
100
AcDbLine
 10
10.75895494496706
 20
6.302453630440481
 30
0.0
 11
10.62125269496705
 21
6.381956061545999
 31
0.0
1001
ACAD
1000
TCW40_DEV_WIDTH
1002
{
1040
-3.0
1002
}
  0
LINE
  5
7747
330
1F
100
AcDbEntity
  8
0
100
AcDbLine
 10
10.62125269496705
 20
6.381956061545999
 30
0.0
 11
10.48355044496705
 21
6.302453630440481
 31
0.0
1001
ACAD
1000
TCW40_DEV_WIDTH
1002
{
1040
-3.0
1002
}
  0
LINE
  5
7748
330
1F
100
AcDbEntity
  8
0
100
AcDbLine
 10
10.48355044496705
 20
6.302453630440481
 30
0.0
 11
10.48355044496705
 21
6.143448768229447
 31
0.0
1001
ACAD
1000
TCW40_DEV_WIDTH
1002
{
1040
-3.0
1002
}
  0
LINE
  5
7749
330
1F
100
AcDbEntity
  8
0
100
AcDbLine
 10
10.48355044496705
 20
6.143448768229447
 30
0.0
 11
10.62125269496705
 21
6.06394633712393
 31
0.0
1001
ACAD
1000
TCW40_DEV_WIDTH
1002
{
1040
-3.0
1002
}
  0
LINE
  5
774A
330
1F
100
AcDbEntity
  8
0
100
AcDbLine
 10
10.62125269496705
 20
6.06394633712393
 30
0.0
 11
10.75895494496706
 21
6.143448768229447
 31
0.0
1001
ACAD
1000
TCW40_DEV_WIDTH
1002
{
1040
-3.0
1002
}
  0
LINE
  5
774B
330
1F
100
AcDbEntity
  8
0
100
AcDbLine
 10
10.75895494496706
 20
6.143448768229447
 30
0.0
 11
10.75895494496706
 21
6.302453630440481
 31
0.0
1001
ACAD
1000
TCW40_DEV_WIDTH
1002
{
1040
-3.0
1002
}
  0
LINE
  5
774C
330
1F
100
AcDbEntity
  8
0
100
AcDbLine
 10
10.75895494496706
 20
6.695888630440478
 30
0.0
 11
10.62125269496705
 21
6.775391061546002
 31
0.0
1001
ACAD
1000
TCW40_DEV_WIDTH
1002
{
1040
-3.0
1002
}
  0
LINE
  5
774D
330
1F
100
AcDbEntity
  8
0
100
AcDbLine
 10
10.62125269496705
 20
6.775391061546002
 30
0.0
 11
10.48355044496705
 21
6.695888630440478
 31
0.0
1001
ACAD
1000
TCW40_DEV_WIDTH
1002
{
1040
-3.0
1002
}
  0
LINE
  5
774E
330
1F
100
AcDbEntity
  8
0
100
AcDbLine
 10
10.48355044496705
 20
6.695888630440478
 30
0.0
 11
10.48355044496705
 21
6.536883768229451
 31
0.0
1001
ACAD
1000
TCW40_DEV_WIDTH
1002
{
1040
-3.0
1002
}
  0
LINE
  5
774F
330
1F
100
AcDbEntity
  8
0
100
AcDbLine
 10
10.48355044496705
 20
6.536883768229451
 30
0.0
 11
10.62125269496705
 21
6.457381337123933
 31
0.0
1001
ACAD
1000
TCW40_DEV_WIDTH
1002
{
1040
-3.0
1002
}
  0
LINE
  5
7750
330
1F
100
AcDbEntity
  8
0
100
AcDbLine
 10
10.62125269496705
 20
6.457381337123933
 30
0.0
 11
10.75895494496706
 21
6.536883768229444
 31
0.0
1001
ACAD
1000
TCW40_DEV_WIDTH
1002
{
1040
-3.0
1002
}
  0
LINE
  5
7751
330
1F
100
AcDbEntity
  8
0
100
AcDbLine
 10
10.75895494496706
 20
6.536883768229444
 30
0.0
 11
10.75895494496706
 21
6.695888630440478
 31
0.0
1001
ACAD
1000
TCW40_DEV_WIDTH
1002
{
1040
-3.0
1002
}
  0
LINE
  5
7752
330
1F
100
AcDbEntity
  8
0
100
AcDbLine
 10
10.75895494496706
 20
7.089323630440482
 30
0.0
 11
10.62125269496705
 21
7.168826061545999
 31
0.0
1001
ACAD
1000
TCW40_DEV_WIDTH
1002
{
1040
-3.0
1002
}
  0
LINE
  5
7753
330
1F
100
AcDbEntity
  8
0
100
AcDbLine
 10
10.62125269496705
 20
7.168826061545999
 30
0.0
 11
10.48355044496705
 21
7.089323630440482
 31
0.0
1001
ACAD
1000
TCW40_DEV_WIDTH
1002
{
1040
-3.0
1002
}
  0
LINE
  5
7754
330
1F
100
AcDbEntity
  8
0
100
AcDbLine
 10
10.48355044496705
 20
7.089323630440482
 30
0.0
 11
10.48355044496705
 21
6.930318768229447
 31
0.0
1001
ACAD
1000
TCW40_DEV_WIDTH
1002
{
1040
-3.0
1002
}
  0
LINE
  5
7755
330
1F
100
AcDbEntity
  8
0
100
AcDbLine
 10
10.48355044496705
 20
6.930318768229447
 30
0.0
 11
10.62125269496705
 21
6.85081633712393
 31
0.0
1001
ACAD
1000
TCW40_DEV_WIDTH
1002
{
1040
-3.0
1002
}
  0
LINE
  5
7756
330
1F
100
AcDbEntity
  8
0
100
AcDbLine
 10
10.62125269496705
 20
6.85081633712393
 30
0.0
 11
10.75895494496706
 21
6.930318768229447
 31
0.0
1001
ACAD
1000
TCW40_DEV_WIDTH
1002
{
1040
-3.0
1002
}
  0
LINE
  5
7757
330
1F
100
AcDbEntity
  8
0
100
AcDbLine
 10
10.75895494496706
 20
6.930318768229447
 30
0.0
 11
10.75895494496706
 21
7.089323630440482
 31
0.0
1001
ACAD
1000
TCW40_DEV_WIDTH
1002
{
1040
-3.0
1002
}
  0
ARC
  5
7758
330
1F
100
AcDbEntity
  8
0
100
AcDbCircle
 10
11.63905359285343
 20
6.633641966054163
 30
0.0
 40
1.399102369151786
100
AcDbArc
 50
61.4014436692385
 51
118.5213884935842
  0
LINE
  5
7759
330
1F
100
AcDbEntity
  8
0
100
AcDbLine
 10
10.97100069496703
 20
8.89830919933496
 30
0.0
 11
10.93165719496705
 21
8.89830919933496
 31
0.0
1001
ACAD
1000
TCW40_DEV_WIDTH
1002
{
1040
-3.0
1002
}
  0
LINE
  5
775A
330
1F
100
AcDbEntity
  8
0
100
AcDbLine
 10
10.93165719496705
 20
8.89830919933496
 30
0.0
 11
10.93165719496705
 21
8.563889449334965
 31
0.0
1001
ACAD
1000
TCW40_DEV_WIDTH
1002
{
1040
-3.0
1002
}
  0
LINE
  5
775B
330
1F
100
AcDbEntity
  8
0
100
AcDbLine
 10
10.93165719496705
 20
8.563889449334965
 30
0.0
 11
10.97100069496703
 21
8.563889449334965
 31
0.0
1001
ACAD
1000
TCW40_DEV_WIDTH
1002
{
1040
-3.0
1002
}
  0
LINE
  5
775C
330
1F
100
AcDbEntity
  8
0
100
AcDbLine
 10
12.30867969496704
 20
8.89830919933496
 30
0.0
 11
12.34802319496704
 21
8.89830919933496
 31
0.0
1001
ACAD
1000
TCW40_DEV_WIDTH
1002
{
1040
-3.0
1002
}
  0
LINE
  5
775D
330
1F
100
AcDbEntity
  8
0
100
AcDbLine
 10
12.34802319496704
 20
8.89830919933496
 30
0.0
 11
12.34802319496704
 21
8.563889449334965
 31
0.0
1001
ACAD
1000
TCW40_DEV_WIDTH
1002
{
1040
-3.0
1002
}
  0
LINE
  5
775E
330
1F
100
AcDbEntity
  8
0
100
AcDbLine
 10
12.34802319496704
 20
8.563889449334965
 30
0.0
 11
12.30867969496704
 21
8.563889449334965
 31
0.0
1001
ACAD
1000
TCW40_DEV_WIDTH
1002
{
1040
-3.0
1002
}
  0
ARC
  5
775F
330
1F
100
AcDbEntity
  8
0
100
AcDbCircle
 10
10.85731369496705
 20
9.213057199334963
 30
0.0
 40
0.0393434999999993
100
AcDbArc
 50
90.0
 51
180.0000000000026
  0
LINE
  5
7760
330
1F
100
AcDbEntity
  8
0
100
AcDbLine
 10
10.81797019496704
 20
9.213057199334961
 30
0.0
 11
10.8179701949671
 21
7.627014186438579
 31
0.0
  0
ARC
  5
7761
330
1F
100
AcDbEntity
  8
0
100
AcDbCircle
 10
10.88308066723064
 20
7.660158314198614
 30
0.0
 40
0.073060980032812
100
AcDbArc
 50
206.9781189136409
 51
293.9492141395131
  0
ARC
  5
7762
330
1F
100
AcDbEntity
  8
0
100
AcDbCircle
 10
11.63905359285343
 20
6.397580966054164
 30
0.0
 40
1.399102369151791
100
AcDbArc
 50
58.6527666810334
 51
121.2738881046906
  0
ARC
  5
7763
330
1F
100
AcDbEntity
  8
0
100
AcDbCircle
 10
12.39627202948538
 20
7.657728876637349
 30
0.0
 40
0.0715766128300241
100
AcDbArc
 50
245.772054956994
 51
333.7374287802703
  0
LINE
  5
7764
330
1F
100
AcDbEntity
  8
0
100
AcDbLine
 10
12.46046019496699
 20
7.626057266063767
 30
0.0
 11
12.46046019496705
 21
9.213057199334954
 31
0.0
  0
ARC
  5
7765
330
1F
100
AcDbEntity
  8
0
100
AcDbCircle
 10
12.39121779034925
 20
9.171986010074196
 30
0.0
 40
0.0805068517863428
100
AcDbArc
 50
30.67433373590909
 51
92.74182562883021
  0
LINE
  5
7766
330
1F
100
AcDbEntity
  8
0
100
AcDbLine
 10
12.38736669496704
 20
9.252400699334963
 30
0.0
 11
10.85731369496705
 21
9.252400699334963
 31
0.0
  0
LINE
  5
7767
330
1F
100
AcDbEntity
  8
0
100
AcDbLine
 10
11.13271819496705
 20
5.337722449334961
 30
0.0
 11
11.17206169496705
 21
5.475424699334965
 31
0.0
1001
ACAD
1000
TCW40_DEV_WIDTH
1002
{
1040
-3.0
1002
}
  0
LINE
  5
7768
330
1F
100
AcDbEntity
  8
0
100
AcDbLine
 10
11.17206169496705
 20
5.475424699334965
 30
0.0
 11
11.25074869496706
 21
5.475424699334965
 31
0.0
1001
ACAD
1000
TCW40_DEV_WIDTH
1002
{
1040
-3.0
1002
}
  0
LINE
  5
7769
330
1F
100
AcDbEntity
  8
0
100
AcDbLine
 10
11.25074869496706
 20
5.475424699334965
 30
0.0
 11
11.29009219496706
 21
5.337722449334961
 31
0.0
1001
ACAD
1000
TCW40_DEV_WIDTH
1002
{
1040
-3.0
1002
}
  0
LINE
  5
776A
330
1F
100
AcDbEntity
  8
0
100
AcDbLine
 10
11.29009219496706
 20
5.337722449334961
 30
0.0
 11
11.29009219496706
 21
5.278707199334959
 31
0.0
1001
ACAD
1000
TCW40_DEV_WIDTH
1002
{
1040
-3.0
1002
}
  0
LINE
  5
776B
330
1F
100
AcDbEntity
  8
0
100
AcDbLine
 10
11.13271819496705
 20
7.226210449334963
 30
0.0
 11
11.17206169496705
 21
7.088508199334967
 31
0.0
1001
ACAD
1000
TCW40_DEV_WIDTH
1002
{
1040
-3.0
1002
}
  0
LINE
  5
776C
330
1F
100
AcDbEntity
  8
0
100
AcDbLine
 10
11.17206169496705
 20
7.088508199334967
 30
0.0
 11
11.25074869496706
 21
7.088508199334967
 31
0.0
1001
ACAD
1000
TCW40_DEV_WIDTH
1002
{
1040
-3.0
1002
}
  0
LINE
  5
776D
330
1F
100
AcDbEntity
  8
0
100
AcDbLine
 10
11.25074869496706
 20
7.088508199334967
 30
0.0
 11
11.29009219496706
 21
7.226210449334963
 31
0.0
1001
ACAD
1000
TCW40_DEV_WIDTH
1002
{
1040
-3.0
1002
}
  0
LINE
  5
776E
330
1F
100
AcDbEntity
  8
0
100
AcDbLine
 10
11.29009219496706
 20
7.226210449334963
 30
0.0
 11
11.29009219496706
 21
7.285225699334965
 31
0.0
1001
ACAD
1000
TCW40_DEV_WIDTH
1002
{
1040
-3.0
1002
}
  0
LINE
  5
776F
330
1F
100
AcDbEntity
  8
0
100
AcDbLine
 10
11.68352719496705
 20
5.337722449334961
 30
0.0
 11
11.72287069496706
 21
5.475424699334965
 31
0.0
1001
ACAD
1000
TCW40_DEV_WIDTH
1002
{
1040
-3.0
1002
}
  0
LINE
  5
7770
330
1F
100
AcDbEntity
  8
0
100
AcDbLine
 10
11.72287069496706
 20
5.475424699334965
 30
0.0
 11
11.80155769496704
 21
5.475424699334965
 31
0.0
1001
ACAD
1000
TCW40_DEV_WIDTH
1002
{
1040
-3.0
1002
}
  0
LINE
  5
7771
330
1F
100
AcDbEntity
  8
0
100
AcDbLine
 10
11.80155769496704
 20
5.475424699334965
 30
0.0
 11
11.84090119496704
 21
5.337722449334961
 31
0.0
1001
ACAD
1000
TCW40_DEV_WIDTH
1002
{
1040
-3.0
1002
}
  0
LINE
  5
7772
330
1F
100
AcDbEntity
  8
0
100
AcDbLine
 10
11.84090119496704
 20
5.337722449334961
 30
0.0
 11
11.84090119496704
 21
5.278707199334959
 31
0.0
1001
ACAD
1000
TCW40_DEV_WIDTH
1002
{
1040
-3.0
1002
}
  0
LINE
  5
7773
330
1F
100
AcDbEntity
  8
0
100
AcDbLine
 10
11.68352719496705
 20
7.226210449334963
 30
0.0
 11
11.72287069496706
 21
7.088508199334967
 31
0.0
1001
ACAD
1000
TCW40_DEV_WIDTH
1002
{
1040
-3.0
1002
}
  0
LINE
  5
7774
330
1F
100
AcDbEntity
  8
0
100
AcDbLine
 10
11.72287069496706
 20
7.088508199334967
 30
0.0
 11
11.80155769496704
 21
7.088508199334967
 31
0.0
1001
ACAD
1000
TCW40_DEV_WIDTH
1002
{
1040
-3.0
1002
}
  0
LINE
  5
7775
330
1F
100
AcDbEntity
  8
0
100
AcDbLine
 10
11.80155769496704
 20
7.088508199334967
 30
0.0
 11
11.84090119496704
 21
7.226210449334963
 31
0.0
1001
ACAD
1000
TCW40_DEV_WIDTH
1002
{
1040
-3.0
1002
}
  0
LINE
  5
7776
330
1F
100
AcDbEntity
  8
0
100
AcDbLine
 10
11.84090119496704
 20
7.226210449334963
 30
0.0
 11
11.84090119496704
 21
7.285225699334965
 31
0.0
1001
ACAD
1000
TCW40_DEV_WIDTH
1002
{
1040
-3.0
1002
}
  0
LINE
  5
7777
330
1F
100
AcDbEntity
  8
0
100
AcDbLine
 10
12.33269494496704
 20
6.302453630440481
 30
0.0
 11
12.19499269496705
 21
6.381956061545999
 31
0.0
1001
ACAD
1000
TCW40_DEV_WIDTH
1002
{
1040
-3.0
1002
}
  0
LINE
  5
7778
330
1F
100
AcDbEntity
  8
0
100
AcDbLine
 10
12.19499269496705
 20
6.381956061545999
 30
0.0
 11
12.05729044496705
 21
6.302453630440481
 31
0.0
1001
ACAD
1000
TCW40_DEV_WIDTH
1002
{
1040
-3.0
1002
}
  0
LINE
  5
7779
330
1F
100
AcDbEntity
  8
0
100
AcDbLine
 10
12.05729044496705
 20
6.302453630440481
 30
0.0
 11
12.05729044496705
 21
6.143448768229447
 31
0.0
1001
ACAD
1000
TCW40_DEV_WIDTH
1002
{
1040
-3.0
1002
}
  0
LINE
  5
777A
330
1F
100
AcDbEntity
  8
0
100
AcDbLine
 10
12.05729044496705
 20
6.143448768229447
 30
0.0
 11
12.19499269496705
 21
6.06394633712393
 31
0.0
1001
ACAD
1000
TCW40_DEV_WIDTH
1002
{
1040
-3.0
1002
}
  0
LINE
  5
777B
330
1F
100
AcDbEntity
  8
0
100
AcDbLine
 10
12.19499269496705
 20
6.06394633712393
 30
0.0
 11
12.33269494496704
 21
6.143448768229447
 31
0.0
1001
ACAD
1000
TCW40_DEV_WIDTH
1002
{
1040
-3.0
1002
}
  0
LINE
  5
777C
330
1F
100
AcDbEntity
  8
0
100
AcDbLine
 10
12.33269494496704
 20
6.143448768229447
 30
0.0
 11
12.33269494496704
 21
6.302453630440481
 31
0.0
1001
ACAD
1000
TCW40_DEV_WIDTH
1002
{
1040
-3.0
1002
}
  0
LINE
  5
777D
330
1F
100
AcDbEntity
  8
0
100
AcDbLine
 10
12.33269494496704
 20
6.695888630440478
 30
0.0
 11
12.19499269496705
 21
6.775391061546002
 31
0.0
1001
ACAD
1000
TCW40_DEV_WIDTH
1002
{
1040
-3.0
1002
}
  0
LINE
  5
777E
330
1F
100
AcDbEntity
  8
0
100
AcDbLine
 10
12.19499269496705
 20
6.775391061546002
 30
0.0
 11
12.05729044496705
 21
6.695888630440478
 31
0.0
1001
ACAD
1000
TCW40_DEV_WIDTH
1002
{
1040
-3.0
1002
}
  0
LINE
  5
777F
330
1F
100
AcDbEntity
  8
0
100
AcDbLine
 10
12.05729044496705
 20
6.695888630440478
 30
0.0
 11
12.05729044496705
 21
6.536883768229451
 31
0.0
1001
ACAD
1000
TCW40_DEV_WIDTH
1002
{
1040
-3.0
1002
}
  0
LINE
  5
7780
330
1F
100
AcDbEntity
  8
0
100
AcDbLine
 10
12.05729044496705
 20
6.536883768229451
 30
0.0
 11
12.19499269496705
 21
6.457381337123933
 31
0.0
1001
ACAD
1000
TCW40_DEV_WIDTH
1002
{
1040
-3.0
1002
}
  0
LINE
  5
7781
330
1F
100
AcDbEntity
  8
0
100
AcDbLine
 10
12.19499269496705
 20
6.457381337123933
 30
0.0
 11
12.33269494496704
 21
6.536883768229444
 31
0.0
1001
ACAD
1000
TCW40_DEV_WIDTH
1002
{
1040
-3.0
1002
}
  0
LINE
  5
7782
330
1F
100
AcDbEntity
  8
0
100
AcDbLine
 10
12.33269494496704
 20
6.536883768229444
 30
0.0
 11
12.33269494496704
 21
6.695888630440478
 31
0.0
1001
ACAD
1000
TCW40_DEV_WIDTH
1002
{
1040
-3.0
1002
}
  0
LINE
  5
7783
330
1F
100
AcDbEntity
  8
0
100
AcDbLine
 10
12.32344602859456
 20
7.083983766083118
 30
0.0
 11
12.19499269496705
 21
7.158146332831272
 31
0.0
1001
ACAD
1000
TCW40_DEV_WIDTH
1002
{
1040
-3.0
1002
}
  0
LINE
  5
7784
330
1F
100
AcDbEntity
  8
0
100
AcDbLine
 10
12.19499269496705
 20
7.158146332831272
 30
0.0
 11
12.06653936133953
 21
7.083983766083118
 31
0.0
1001
ACAD
1000
TCW40_DEV_WIDTH
1002
{
1040
-3.0
1002
}
  0
LINE
  5
7785
330
1F
100
AcDbEntity
  8
0
100
AcDbLine
 10
12.06653936133953
 20
7.083983766083118
 30
0.0
 11
12.06653936133953
 21
6.935658632586811
 31
0.0
1001
ACAD
1000
TCW40_DEV_WIDTH
1002
{
1040
-3.0
1002
}
  0
LINE
  5
7786
330
1F
100
AcDbEntity
  8
0
100
AcDbLine
 10
12.06653936133953
 20
6.935658632586811
 30
0.0
 11
12.19499269496705
 21
6.861496065838659
 31
0.0
1001
ACAD
1000
TCW40_DEV_WIDTH
1002
{
1040
-3.0
1002
}
  0
LINE
  5
7787
330
1F
100
AcDbEntity
  8
0
100
AcDbLine
 10
12.19499269496705
 20
6.861496065838659
 30
0.0
 11
12.32344602859456
 21
6.935658632586811
 31
0.0
1001
ACAD
1000
TCW40_DEV_WIDTH
1002
{
1040
-3.0
1002
}
  0
LINE
  5
7788
330
1F
100
AcDbEntity
  8
0
100
AcDbLine
 10
12.32344602859456
 20
6.935658632586811
 30
0.0
 11
12.32344602859456
 21
7.083983766083118
 31
0.0
1001
ACAD
1000
TCW40_DEV_WIDTH
1002
{
1040
-3.0
1002
}
  0
LINE
  5
7789
330
1F
100
AcDbEntity
  8
0
100
AcDbLine
 10
12.33269494496704
 20
7.089323630440482
 30
0.0
 11
12.19499269496705
 21
7.168826061545999
 31
0.0
1001
ACAD
1000
TCW40_DEV_WIDTH
1002
{
1040
-3.0
1002
}
  0
LINE
  5
778A
330
1F
100
AcDbEntity
  8
0
100
AcDbLine
 10
12.19499269496705
 20
7.168826061545999
 30
0.0
 11
12.05729044496705
 21
7.089323630440482
 31
0.0
1001
ACAD
1000
TCW40_DEV_WIDTH
1002
{
1040
-3.0
1002
}
  0
LINE
  5
778B
330
1F
100
AcDbEntity
  8
0
100
AcDbLine
 10
12.05729044496705
 20
7.089323630440482
 30
0.0
 11
12.05729044496705
 21
6.930318768229447
 31
0.0
1001
ACAD
1000
TCW40_DEV_WIDTH
1002
{
1040
-3.0
1002
}
  0
LINE
  5
778C
330
1F
100
AcDbEntity
  8
0
100
AcDbLine
 10
12.05729044496705
 20
6.930318768229447
 30
0.0
 11
12.19499269496705
 21
6.85081633712393
 31
0.0
1001
ACAD
1000
TCW40_DEV_WIDTH
1002
{
1040
-3.0
1002
}
  0
LINE
  5
778D
330
1F
100
AcDbEntity
  8
0
100
AcDbLine
 10
12.19499269496705
 20
6.85081633712393
 30
0.0
 11
12.33269494496704
 21
6.930318768229447
 31
0.0
1001
ACAD
1000
TCW40_DEV_WIDTH
1002
{
1040
-3.0
1002
}
  0
LINE
  5
778E
330
1F
100
AcDbEntity
  8
0
100
AcDbLine
 10
12.33269494496704
 20
6.930318768229447
 30
0.0
 11
12.33269494496704
 21
7.089323630440482
 31
0.0
1001
ACAD
1000
TCW40_DEV_WIDTH
1002
{
1040
-3.0
1002
}
  0
LWPOLYLINE
  5
7A33
330
1F
100
AcDbEntity
  8
0
100
AcDbPolyline
 90
        4
 70
     1
 43
0.0
 10
0.0
 20
0.0
 10
22.0
 20
0.0
 10
22.0
 20
17.0
 10
0.0
 20
17.0
  0
ENDSEC
  0
SECTION
  2
OBJECTS
  0
DICTIONARY
  5
C
330
0
100
AcDbDictionary
281
     1
  3
ACAD_ASSOCPERSSUBENTMANAGER
350
3F01
  3
ACAD_BACKGROUND
350
5499
  3
ACAD_COLOR
350
5D
  3
ACAD_GROUP
350
D
  3
ACAD_LAYOUT
350
1A
  3
ACAD_MATERIAL
350
33
  3
ACAD_MLEADERSTYLE
350
82
  3
ACAD_MLINESTYLE
350
17
  3
ACAD_PERSUBENTMGR
350
58ED
  3
ACAD_PLOTSETTINGS
350
19
  3
ACAD_PLOTSTYLENAME
350
E
  3
ACAD_SCALELIST
350
60
  3
ACAD_TABLESTYLE
350
5E
  3
ACAD_VISUALSTYLE
350
4C
  3
ACAD_WIPEOUT_VARS
350
5C61
  3
ACADE_WIRETYPE
350
226D
  3
ACDB_RECOMPOSE_DATA
350
7CF9
  3
AcDbVariableDictionary
350
8A
  3
AEC_PROPERTY_SET_DEFS
350
2A20
  3
ASE_INDEX_DICTIONARY
350
2834
  3
DWGPROPS
350
7D41
  0
DICTIONARY
  5
181
330
8
100
AcDbDictionary
280
     1
281
     1
  0
DICTIONARY
  5
107
330
2
100
AcDbDictionary
280
     1
281
     1
  3
ACAD_LAYERSTATES
360
108
  0
DICTIONARY
  5
17C
330
10
100
AcDbDictionary
280
     1
281
     1
  3
ADSK_XREC_LAYER_RECONCILED
360
284E
  0
DICTIONARY
  5
17A
330
1F
100
AcDbDictionary
280
     1
281
     1
  3
ACAD_SORTENTS
360
17B
  0
ACAD_PROXY_OBJECT
  5
3F01
102
{ACAD_REACTORS
330
C
102
}
330
C
100
AcDbProxyObject
 90
      499
 91
      519
 95
   983063
 70
     0
 93
       73
310
40503902218040002A7F
 94
        0
1001
ACAD
1000
AcRTDxfName
1000
ACDBASSOCPERSSUBENTMANAGER
  0
DICTIONARY
  5
5499
102
{ACAD_REACTORS
330
C
102
}
330
C
100
AcDbDictionary
281
     1
  0
DICTIONARY
  5
5D
102
{ACAD_REACTORS
330
C
102
}
330
C
100
AcDbDictionary
281
     1
  0
DICTIONARY
  5
D
102
{ACAD_REACTORS
330
C
102
}
330
C
100
AcDbDictionary
281
     1
  3
*A1
350
334E
  3
*A10
350
3474
  3
*A11
350
3489
  3
*A12
350
3363
  3
*A13
350
3378
  3
*A14
350
338D
  3
*A15
350
33A2
  3
*A16
350
33B7
  3
*A2
350
33CC
  3
*A3
350
33E1
  3
*A4
350
33F6
  3
*A5
350
340B
  3
*A6
350
3420
  3
*A7
350
3435
  3
*A8
350
344A
  3
*A9
350
345F
  0
DICTIONARY
  5
1A
102
{ACAD_REACTORS
330
C
102
}
330
C
100
AcDbDictionary
281
     1
  3
Layout1
350
1E
  3
Layout2
350
26
  3
Model
350
22
  0
DICTIONARY
  5
33
102
{ACAD_REACTORS
330
C
102
}
330
C
100
AcDbDictionary
281
     1
  3
ByBlock
350
3C
  3
ByLayer
350
34
  3
Global
350
44
  0
DICTIONARY
  5
82
102
{ACAD_REACTORS
330
C
102
}
330
C
100
AcDbDictionary
281
     1
  3
Standard
350
83
  0
DICTIONARY
  5
17
102
{ACAD_REACTORS
330
C
102
}
330
C
100
AcDbDictionary
281
     1
  3
Standard
350
18
  0
ACDBPERSSUBENTMANAGER
  5
58ED
102
{ACAD_REACTORS
330
C
102
}
330
C
100
AcDbPersSubentManager
 90
        2
 90
        0
 90
        2
 90
      390
 90
        0
 90
        0
  0
DICTIONARY
  5
19
102
{ACAD_REACTORS
330
C
102
}
330
C
100
AcDbDictionary
281
     1
  0
ACDBDICTIONARYWDFLT
  5
E
102
{ACAD_REACTORS
330
C
102
}
330
C
100
AcDbDictionary
281
     1
  3
Normal
350
F
100
AcDbDictionaryWithDefault
340
F
  0
DICTIONARY
  5
60
102
{ACAD_REACTORS
330
C
102
}
330
C
100
AcDbDictionary
281
     1
  3
A0
350
61
  3
A1
350
62
  3
A2
350
63
  3
A3
350
64
  3
A4
350
65
  3
A5
350
66
  3
A6
350
67
  3
A7
350
68
  3
A8
350
69
  3
A9
350
6A
  3
B0
350
6B
  3
B1
350
6C
  3
B2
350
6D
  3
B3
350
6E
  3
B4
350
6F
  3
B5
350
70
  3
B6
350
71
  3
B7
350
72
  3
B8
350
73
  3
B9
350
74
  3
C0
350
75
  3
C1
350
76
  3
C2
350
77
  3
C3
350
78
  3
C4
350
79
  3
C5
350
7A
  3
C6
350
7B
  3
C7
350
7C
  3
C8
350
7D
  3
C9
350
7E
  3
D0
350
7F
  3
D1
350
80
  3
D2
350
81
  0
DICTIONARY
  5
5E
102
{ACAD_REACTORS
330
C
102
}
330
C
100
AcDbDictionary
281
     1
  3
Standard
350
5F
  0
DICTIONARY
  5
4C
102
{ACAD_REACTORS
330
C
102
}
330
C
100
AcDbDictionary
281
     1
  3
2dWireframe
350
52
  3
3D Hidden
350
54
  3
3dWireframe
350
53
  3
Basic
350
51
  3
Brighten
350
58
  3
ColorChange
350
5C
  3
Conceptual
350
55
  3
Dim
350
57
  3
EdgeColorOff
350
2848
  3
Facepattern
350
5B
  3
Flat
350
4D
  3
FlatWithEdges
350
4E
  3
Gouraud
350
4F
  3
GouraudWithEdges
350
50
  3
Hidden
350
2840
  3
JitterOff
350
2846
  3
Linepattern
350
5A
  3
OverhangOff
350
2847
  3
Realistic
350
56
  3
Shaded
350
2845
  3
Shaded with edges
350
2844
  3
Shades of Gray
350
2841
  3
Sketchy
350
2842
  3
Thicken
350
59
  3
Wireframe
350
283F
  3
X-Ray
350
2843
  0
WIPEOUTVARIABLES
  5
5C61
102
{ACAD_REACTORS
330
C
102
}
330
C
100
AcDbWipeoutVariables
 70
     1
  0
DICTIONARY
  5
226D
102
{ACAD_REACTORS
330
C
102
}
330
C
100
AcDbDictionary
281
     1
  3
CURRENT_WIRELAY
350
226E
  0
XRECORD
  5
7CF9
102
{ACAD_REACTORS
330
C
102
}
330
C
100
AcDbXrecord
280
     1
 90
        1
330
5F
  0
DICTIONARY
  5
8A
102
{ACAD_REACTORS
330
C
102
}
330
C
100
AcDbDictionary
281
     1
  3
CANNOSCALE
350
8E
  3
CMLEADERSTYLE
350
8C
  3
CTABLESTYLE
350
8B
  3
DIMASSOC
350
18F
  3
INDEXCTL
350
18E
  3
LAYEREVAL
350
217D
  3
LAYERNOTIFY
350
217E
  3
LIGHTINGUNITS
350
8F
  3
MSLTSCALE
350
8D
  3
SORTENTS
350
18D
  3
XCLIPFRAME
350
7D3C
  0
DICTIONARY
  5
2A20
102
{ACAD_REACTORS
330
C
102
}
330
C
100
AcDbDictionary
281
     1
  0
DICTIONARY
  5
2834
102
{ACAD_REACTORS
330
C
102
}
330
C
100
AcDbDictionary
281
     1
  3
ASEBlockHierarchyIndexRecord
350
2835
1001
DCO15
1040
1674887783.539
  0
XRECORD
  5
7D41
102
{ACAD_REACTORS
330
C
102
}
330
C
100
AcDbXrecord
280
     1
  1
DWGPROPS COOKIE
  2

  3

  4

  6

  7

  8
dan
  9

300
Drawing Description 1=LINE 1 LINE 2 LINE 3
301
Drawing Description 2=
302
Drawing Description 3=
303
Project Code=
304
Installation Code=
305
Location Code=
306
Sheet=A02
307
Drawing=
308
Section=A
309
Sub-Section=12
 40
1.700602025462963
 41
2455646.34385588
 42
2456008.638073137
  1

 90
       10
  0
DICTIONARY
  5
108
102
{ACAD_REACTORS
330
107
102
}
330
107
100
AcDbDictionary
281
     1
  0
XRECORD
  5
284E
102
{ACAD_REACTORS
330
17C
102
}
330
17C
100
AcDbXrecord
280
     1
290
     1
  0
SORTENTSTABLE
  5
17B
102
{ACAD_REACTORS
330
17A
102
}
330
17A
100
AcDbSortentsTable
330
1F
331
7787
  5
725B
331
7748
  5
72D7
331
7711
  5
7645
331
76D2
  5
76A9
331
7750
  5
72D3
331
76DA
  5
769C
331
7719
  5
763E
331
7758
  5
72C4
331
76E2
  5
7693
331
72F0
  5
7523
331
72B1
  5
7317
331
727A
  5
72B0
331
7674
  5
7756
331
72B9
  5
7324
331
751E
  5
76F8
331
767C
  5
774E
331
763D
  5
76EF
331
7300
  5
7655
331
72C1
  5
732D
331
7526
  5
7700
331
7684
  5
7746
331
72C9
  5
74ED
331
7253
  5
726E
331
7292
  5
72DF
331
7645
  5
76E7
331
768C
  5
773E
331
764D
  5
7787
331
74E7
  5
76B9
331
7760
  5
72B5
331
7721
  5
753F
331
76EA
  5
768A
331
76AB
  5
771F
331
7768
  5
72A9
331
7729
  5
7537
331
76F2
  5
7670
331
76B3
  5
7717
331
7770
  5
7287
331
7731
  5
752F
331
76FA
  5
7664
331
76BB
  5
770E
331
7778
  5
7265
331
7739
  5
731E
331
7702
  5
765C
331
76C3
  5
778B
331
7310
  5
7675
331
72D1
  5
74F5
331
729A
  5
72EA
331
725B
  5
727A
331
7694
  5
7736
331
7655
  5
7775
331
7318
  5
7682
331
72D9
  5
74FD
331
72A2
  5
72FE
331
7263
  5
7290
331
74EF
  5
76C3
331
759E
  5
7783
331
769C
  5
772E
331
765D
  5
776D
331
7320
  5
768F
331
72E1
  5
7505
331
726B
  5
7299
331
74F7
  5
76CB
331
76A4
  5
7726
331
7665
  5
7765
331
72E9
  5
751C
331
7273
  5
72A5
331
74FF
  5
76D3
331
766D
  5
775D
331
7507
  5
76DB
331
7741
  5
72FB
331
7780
  5
7260
331
770A
  5
7651
331
76CB
  5
76B0
331
7749
  5
72D8
331
7788
  5
725C
331
7712
  5
7646
331
76D3
  5
76A8
331
7751
  5
72D4
331
771A
  5
7540
331
76DB
  5
769D
331
7759
  5
72C1
331
76E3
  5
7694
331
7328
  5
76A1
331
72F1
  5
7524
331
72B2
  5
7318
331
727B
  5
72B1
331
7675
  5
7755
331
7636
  5
770B
331
751F
  5
76F9
331
72BA
  5
7325
331
7283
  5
72C5
331
767D
  5
774D
331
763E
  5
76EC
331
7527
  5
7701
331
7301
  5
7656
331
72C2
  5
74E6
331
7685
  5
7745
331
7646
  5
76E6
331
7309
  5
7669
331
72CA
  5
74EE
331
7254
  5
726F
331
7293
  5
72E0
331
768D
  5
773D
331
764E
  5
7786
331
7597
  5
777C
331
7761
  5
72B6
331
7722
  5
7538
331
76EB
  5
767A
331
76AC
  5
771E
331
7769
  5
72AB
331
772A
  5
7530
331
76F3
  5
7671
331
76B4
  5
7716
331
7771
  5
728E
331
7732
  5
7525
331
76FB
  5
7665
331
76BC
  5
770F
331
7779
  5
7266
331
773A
  5
730B
331
7703
  5
7657
331
76C4
  5
76B7
331
74E8
  5
76BA
331
72D2
  5
74F6
331
7311
  5
7676
331
729B
  5
72EB
331
725C
  5
727B
331
7695
  5
7735
331
7656
  5
7774
331
74F0
  5
76C4
331
759F
  5
7784
331
72DA
  5
74FE
331
7319
  5
7683
331
72A3
  5
7300
331
7264
  5
7291
331
765E
  5
776C
331
769D
  5
772D
331
74F8
  5
76CC
331
72E2
  5
7506
331
72AB
  5
7310
331
76A5
  5
7725
331
7666
  5
7764
331
7500
  5
76D4
331
72EA
  5
751D
331
7274
  5
72A6
331
766E
  5
775C
331
7742
  5
72E2
331
7781
  5
7261
331
770B
  5
7652
331
76CC
  5
76AF
331
774A
  5
72D9
331
7789
  5
7250
331
76D4
  5
76A7
331
7713
  5
7647
331
7752
  5
72C9
331
76DC
  5
769E
331
771B
  5
7541
331
775A
  5
72C2
331
76E4
  5
7695
331
7518
  5
76F2
331
7329
  5
76A2
331
72B3
  5
7319
331
727C
  5
72B2
331
7676
  5
7754
331
7637
  5
770C
331
7520
  5
76FA
331
72FA
  5
763F
331
72BB
  5
7326
331
7284
  5
72C6
331
767E
  5
774C
331
763F
  5
76ED
331
7528
  5
7702
331
72C3
  5
74E7
331
7686
  5
7744
331
7647
  5
76E5
331
730A
  5
766A
331
72CB
  5
74EF
331
7294
  5
72E1
331
7255
  5
7270
331
768E
  5
773C
331
764F
  5
7779
331
7762
  5
72B7
331
7723
  5
7539
331
76AD
  5
771D
331
76EC
  5
767B
331
776A
  5
72AC
331
772B
  5
7531
331
76B5
  5
7715
331
76F4
  5
7672
331
7772
  5
728F
331
7733
  5
7526
331
76BD
  5
7710
331
76FC
  5
7666
331
777A
  5
7267
331
773B
  5
730C
331
76C5
  5
76B4
331
7704
  5
7658
331
7598
  5
777D
331
74E9
  5
76BB
331
72D3
  5
74F7
331
7312
  5
7677
331
729C
  5
72EC
331
725D
  5
727C
331
7696
  5
7734
331
7657
  5
7773
331
75A0
  5
7785
331
74F1
  5
76C5
331
72DB
  5
74FF
331
731A
  5
7684
331
72A4
  5
7301
331
7265
  5
7292
331
769E
  5
772C
331
765F
  5
776B
331
74F9
  5
76CD
331
72E3
  5
7507
331
7322
  5
7696
331
72AC
  5
7311
331
726D
  5
729E
331
7667
  5
7763
331
76A6
  5
7724
331
7501
  5
76D5
331
72EB
  5
751E
331
7275
  5
72A7
331
766F
  5
775B
331
7782
  5
7263
331
7743
  5
72E3
331
770C
  5
7653
331
76CD
  5
76AE
331
774B
  5
72DA
331
778A
  5
7251
331
7714
  5
764A
331
76D5
  5
76DC
331
7753
  5
72CA
331
76DD
  5
769F
331
771C
  5
7542
331
775B
  5
72C3
331
76E5
  5
7685
331
7519
  5
76F3
331
732A
  5
76A3
331
7677
  5
7753
331
7638
  5
7703
331
7521
  5
76FB
331
72FB
  5
7640
331
72BC
  5
7328
331
7285
  5
72C7
331
767F
  5
774B
331
7640
  5
76EE
331
72C4
  5
74E8
331
7687
  5
7743
331
7648
  5
76E4
331
730B
  5
766B
331
72CC
  5
74F0
331
7256
  5
7271
331
768F
  5
773B
331
7763
  5
72B8
331
7724
  5
753A
331
76AE
  5
771C
331
76ED
  5
767C
331
776B
  5
729A
331
772C
  5
7532
331
76B6
  5
7714
331
76F5
  5
7673
331
7773
  5
7272
331
7734
  5
7527
331
76BE
  5
778C
331
76FD
  5
7667
331
777B
  5
7268
331
773C
  5
730D
331
76C6
  5
76B5
331
7705
  5
7659
331
7650
  5
777A
331
74EA
  5
76BE
331
7599
  5
777E
331
72D4
  5
74F8
331
7313
  5
7678
331
729D
  5
72ED
331
725E
  5
727E
331
7697
  5
7733
331
7658
  5
7772
331
74F2
  5
76C6
331
72DC
  5
7500
331
72A5
  5
7305
331
7266
  5
7293
331
769F
  5
772B
331
7660
  5
776A
331
74FA
  5
76CE
331
72E4
  5
7508
331
7323
  5
7697
331
72AD
  5
7312
331
726E
  5
729F
331
7668
  5
7762
331
76A7
  5
7723
331
7502
  5
76D6
331
72EC
  5
751F
331
7783
  5
7256
331
7744
  5
72E4
331
76CE
  5
76AD
331
770D
  5
7654
331
774C
  5
72CF
331
778B
  5
7252
331
7715
  5
764B
331
76D6
  5
76DD
331
7754
  5
72CB
331
76DE
  5
76A0
331
771D
  5
7543
331
775C
  5
72BE
331
76E6
  5
7686
331
7670
  5
775A
331
751A
  5
76F4
331
72B5
  5
731F
331
727E
  5
72BC
331
732B
  5
76A4
331
7678
  5
7752
331
7639
  5
7704
331
72FC
  5
7641
331
72BD
  5
7329
331
7522
  5
76FC
331
7680
  5
774A
331
7641
  5
76EB
331
72C5
  5
74E9
331
728E
  5
72DB
331
752A
  5
7706
331
7688
  5
7742
331
730C
  5
766C
331
72CD
  5
74F1
331
7296
  5
72E6
331
7649
  5
76E3
331
7764
  5
72B9
331
7725
  5
753B
331
76EE
  5
767D
331
76AF
  5
771B
331
776C
  5
729B
331
772D
  5
7533
331
76F6
  5
7674
331
76B7
  5
7713
331
7774
  5
7273
331
7735
  5
752A
331
76FE
  5
7668
331
76BF
  5
778D
331
777C
  5
7269
331
773D
  5
730E
331
7706
  5
764D
331
76C7
  5
76B6
331
7690
  5
773A
331
7651
  5
777B
331
72D5
  5
74F9
331
7314
  5
7679
331
729E
  5
72EE
331
725F
  5
727F
331
74EB
  5
76BF
331
759A
  5
777F
331
7698
  5
7732
331
7659
  5
7771
331
72DD
  5
7501
331
731C
  5
768B
331
72A6
  5
7306
331
7267
  5
7294
331
74F3
  5
76C7
331
76A0
  5
772A
331
7661
  5
7769
331
72E5
  5
7518
331
7324
  5
7698
331
72AE
  5
7313
331
726F
  5
72A1
331
74FB
  5
76CF
331
7669
  5
7761
331
72ED
  5
7520
331
7277
  5
72AD
331
7503
  5
76D7
331
7784
  5
7258
331
7745
  5
72E5
331
770E
  5
7642
331
76CF
  5
76AC
331
774D
  5
72D0
331
778C
  5
7253
331
7716
  5
7544
331
76D7
  5
76DE
331
7755
  5
72CC
331
771E
  5
753C
331
76DF
  5
7690
331
775D
  5
72BF
331
76E7
  5
7687
331
7671
  5
7759
331
751B
  5
76F5
331
732C
  5
76A5
331
72B6
  5
7320
331
727F
  5
72BD
331
7679
  5
7751
331
763A
  5
7705
331
7523
  5
76FD
331
72BE
  5
732A
331
7287
  5
72C8
331
7681
  5
7749
331
7642
  5
76EA
331
752B
  5
7707
331
7305
  5
765E
331
72C6
  5
74EA
331
7250
  5
726A
331
728F
  5
72DC
331
7689
  5
7741
331
764A
  5
76E2
331
730D
  5
766D
331
72CE
  5
74F2
331
7297
  5
72E7
331
76A8
  5
7722
331
7765
  5
72BA
331
7726
  5
7534
331
76EF
  5
767E
331
76B0
  5
771A
331
776D
  5
729C
331
772E
  5
752B
331
76F7
  5
7661
331
76B8
  5
7712
331
7775
  5
7274
331
7736
  5
731A
331
76FF
  5
765D
331
76C0
  5
778E
331
777D
  5
725D
331
773E
  5
72F0
331
7707
  5
764E
331
7258
  5
7277
331
7691
  5
7739
331
7652
  5
7776
331
759B
  5
7780
331
74EC
  5
76C0
331
72D6
  5
74FA
331
7260
  5
7283
331
729F
  5
72EF
331
765A
  5
7770
331
7699
  5
7731
331
75A3
  5
7788
331
74F4
  5
76C8
331
731D
  5
768C
331
72DE
  5
7502
331
72A7
  5
7307
331
7268
  5
7296
331
76A1
  5
7729
331
7662
  5
7768
331
74FC
  5
76D0
331
7325
  5
7699
331
72E6
  5
7519
331
7270
  5
72A2
331
72AF
  5
7314
331
766A
  5
7760
331
7504
  5
76D8
331
72EE
  5
7521
331
76C8
  5
76B3
331
7785
  5
7259
331
7746
  5
72D5
331
770F
  5
7643
331
76D0
  5
76AB
331
774E
  5
72D1
331
778D
  5
7254
331
7717
  5
7545
331
76D8
  5
76DF
331
7756
  5
72CD
331
76E0
  5
7691
331
771F
  5
753D
331
775E
  5
72C0
331
7278
  5
72AE
331
7672
  5
7758
331
7633
  5
770A
331
751C
  5
76F6
331
732D
  5
76A6
331
72B7
  5
7322
331
767A
  5
7750
331
763B
  5
76F0
331
7524
  5
76FE
331
72FE
  5
764C
331
72BF
  5
732B
331
7682
  5
7748
331
7643
  5
76E9
331
752C
  5
7708
331
7306
  5
765F
331
72C7
  5
74EB
331
7290
  5
72DD
331
7251
  5
726B
331
768A
  5
7740
331
764B
  5
76E1
331
730E
  5
766E
331
72CF
  5
74F3
331
76A9
  5
7721
331
76E8
  5
7688
331
7766
  5
72BB
331
7727
  5
7535
331
76B1
  5
7719
331
76F0
  5
767F
331
776E
  5
729D
331
772F
  5
752C
331
76B9
  5
7711
331
76F8
  5
7662
331
7776
  5
7275
331
7737
  5
731C
331
76C1
  5
7789
331
7700
  5
765A
331
777E
  5
725E
331
773F
  5
72F1
331
7298
  5
72E8
331
7259
  5
7278
331
7692
  5
7738
331
7653
  5
7777
331
759C
  5
7781
331
74ED
  5
76C1
331
7316
  5
7680
331
72D7
  5
74FB
331
7261
  5
7284
331
769A
  5
7730
331
765B
  5
776F
331
74F5
  5
76C9
331
731E
  5
768D
331
72DF
  5
7503
331
72A8
  5
7309
331
7269
  5
7297
331
7663
  5
7767
331
76A2
  5
7728
331
74FD
  5
76D1
331
7326
  5
769A
331
72E7
  5
751A
331
7271
  5
72A3
331
766B
  5
775F
331
7505
  5
76D9
331
72EF
  5
7522
331
7708
  5
764F
331
76C9
  5
76B2
331
7786
  5
725A
331
7747
  5
72D6
331
7710
  5
7644
331
76D1
  5
76AA
331
774F
  5
72D2
331
778E
  5
7255
331
76D9
  5
769B
331
7718
  5
7546
331
7757
  5
72CE
331
76E1
  5
7692
331
775F
  5
72B3
331
72B0
  5
7316
331
7279
  5
72AF
331
7673
  5
7757
331
751D
  5
76F7
331
72B8
  5
7323
331
767B
  5
774F
331
763C
  5
76F1
331
7525
  5
76FF
331
72C0
  5
732C
331
7683
  5
7747
331
7644
  5
76E8
331
752D
  5
7709
331
7307
  5
7660
331
72C8
  5
74EC
331
7291
  5
72DE
331
7252
  5
726D
331
768B
  5
773F
331
764C
  5
76E0
331
74E6
  5
76B8
331
7720
  5
753E
331
76AA
  5
7720
331
76E9
  5
7689
331
7767
  5
72A8
331
7728
  5
7536
331
76B2
  5
7718
331
76F1
  5
766F
331
776F
  5
7285
331
7730
  5
752D
331
76BA
  5
770D
331
76F9
  5
7663
331
7777
  5
7264
331
7738
  5
731D
331
76C2
  5
778A
331
7701
  5
765B
331
777F
  5
725F
331
72D0
  5
74F4
331
7299
  5
72E9
331
725A
  5
7279
331
7693
  5
7737
331
7654
  5
7778
331
74EE
  5
76C2
331
759D
  5
7782
331
72D8
  5
74FC
331
7317
  5
7681
331
72A1
  5
72FC
331
769B
  5
772F
331
765C
  5
776E
331
74F6
  5
76CA
331
731F
  5
768E
331
72E0
  5
7504
331
72A9
  5
730A
331
726A
  5
7298
331
7664
  5
7766
331
76A3
  5
7727
331
74FE
  5
76D2
331
72E8
  5
751B
331
7272
  5
72A4
331
766C
  5
775E
331
7506
  5
76DA
331
7740
  5
72FA
331
7709
  5
7650
331
76CA
  5
76B1
  0
GROUP
  5
334E
102
{ACAD_REACTORS
330
D
102
}
330
D
100
AcDbGroup
300

 70
     1
 71
     1
  0
GROUP
  5
3474
102
{ACAD_REACTORS
330
D
102
}
330
D
100
AcDbGroup
300

 70
     1
 71
     1
  0
GROUP
  5
3489
102
{ACAD_REACTORS
330
D
102
}
330
D
100
AcDbGroup
300

 70
     1
 71
     1
  0
GROUP
  5
3363
102
{ACAD_REACTORS
330
D
102
}
330
D
100
AcDbGroup
300

 70
     1
 71
     1
  0
GROUP
  5
3378
102
{ACAD_REACTORS
330
D
102
}
330
D
100
AcDbGroup
300

 70
     1
 71
     1
  0
GROUP
  5
338D
102
{ACAD_REACTORS
330
D
102
}
330
D
100
AcDbGroup
300

 70
     1
 71
     1
  0
GROUP
  5
33A2
102
{ACAD_REACTORS
330
D
102
}
330
D
100
AcDbGroup
300

 70
     1
 71
     1
  0
GROUP
  5
33B7
102
{ACAD_REACTORS
330
D
102
}
330
D
100
AcDbGroup
300

 70
     1
 71
     1
  0
GROUP
  5
33CC
102
{ACAD_REACTORS
330
D
102
}
330
D
100
AcDbGroup
300

 70
     1
 71
     1
  0
GROUP
  5
33E1
102
{ACAD_REACTORS
330
D
102
}
330
D
100
AcDbGroup
300

 70
     1
 71
     1
  0
GROUP
  5
33F6
102
{ACAD_REACTORS
330
D
102
}
330
D
100
AcDbGroup
300

 70
     1
 71
     1
  0
GROUP
  5
340B
102
{ACAD_REACTORS
330
D
102
}
330
D
100
AcDbGroup
300

 70
     1
 71
     1
  0
GROUP
  5
3420
102
{ACAD_REACTORS
330
D
102
}
330
D
100
AcDbGroup
300

 70
     1
 71
     1
  0
GROUP
  5
3435
102
{ACAD_REACTORS
330
D
102
}
330
D
100
AcDbGroup
300

 70
     1
 71
     1
  0
GROUP
  5
344A
102
{ACAD_REACTORS
330
D
102
}
330
D
100
AcDbGroup
300

 70
     1
 71
     1
  0
GROUP
  5
345F
102
{ACAD_REACTORS
330
D
102
}
330
D
100
AcDbGroup
300

 70
     1
 71
     1
  0
LAYOUT
  5
1E
102
{ACAD_XDICTIONARY
360
7D42
102
}
102
{ACAD_REACTORS
330
1A
102
}
330
1A
100
AcDbPlotSettings
  1

  2
Microsoft Office Document Image Writer
  4

  6

 40
0.0
 41
0.0
 42
0.0
 43
0.0
 44
0.0
 45
0.0
 46
0.0
 47
0.0
 48
0.0
 49
0.0
140
0.0
141
0.0
142
1.0
143
1.0
 70
   688
 72
     0
 73
     0
 74
     5
  7
monochromeII.ctb
 75
    16
147
1.0
148
0.0
149
0.0
100
AcDbLayout
  1
Layout1
 70
     1
 71
     1
 10
0.0
 20
0.0
 11
12.0
 21
9.0
 12
0.0
 22
0.0
 32
0.0
 14
1.000000000000000E+20
 24
1.000000000000000E+20
 34
1.000000000000000E+20
 15
-1.000000000000000E+20
 25
-1.000000000000000E+20
 35
-1.000000000000000E+20
146
0.0
 13
0.0
 23
0.0
 33
0.0
 16
1.0
 26
0.0
 36
0.0
 17
0.0
 27
1.0
 37
0.0
 76
     0
330
1B
  0
LAYOUT
  5
26
102
{ACAD_XDICTIONARY
360
7D46
102
}
102
{ACAD_REACTORS
330
1A
102
}
330
1A
100
AcDbPlotSettings
  1

  2
Microsoft Office Document Image Writer
  4

  6

 40
0.0
 41
0.0
 42
0.0
 43
0.0
 44
0.0
 45
0.0
 46
0.0
 47
0.0
 48
0.0
 49
0.0
140
0.0
141
0.0
142
1.0
143
1.0
 70
   688
 72
     0
 73
     0
 74
     5
  7
monochromeII.ctb
 75
    16
147
1.0
148
0.0
149
0.0
100
AcDbLayout
  1
Layout2
 70
     1
 71
     2
 10
0.0
 20
0.0
 11
12.0
 21
9.0
 12
0.0
 22
0.0
 32
0.0
 14
0.0
 24
0.0
 34
0.0
 15
0.0
 25
0.0
 35
0.0
146
0.0
 13
0.0
 23
0.0
 33
0.0
 16
1.0
 26
0.0
 36
0.0
 17
0.0
 27
1.0
 37
0.0
 76
     0
330
23
  0
LAYOUT
  5
22
102
{ACAD_XDICTIONARY
360
7D44
102
}
102
{ACAD_REACTORS
330
1A
102
}
330
1A
100
AcDbPlotSettings
  1

  2
Default Windows System Printer.pc3
  4
11x17
  6

 40
4.857749938964843
 41
4.857734680175781
 42
4.85772705078125
 43
4.857757568359375
 44
279.3999938964844
 45
431.7999877929687
 46
0.0
 47
2.649666526100765
 48
0.0
 49
0.0
140
0.0
141
0.0
142
1.0
143
2.072177197471839
 70
 11956
 72
     0
 73
     1
 74
     1
  7
monochromeII.ctb
 75
     0
147
0.4825842120162553
148
0.0263525400471963
149
0.0170517658604823
100
AcDbLayout
  1
Model
 70
     1
 71
     0
 10
0.0
 20
0.0
 11
12.0
 21
9.0
 12
0.0
 22
0.0
 32
0.0
 14
0.0
 24
0.0
 34
0.0
 15
0.0
 25
0.0
 35
0.0
146
0.0
 13
0.0
 23
0.0
 33
0.0
 16
1.0
 26
0.0
 36
0.0
 17
0.0
 27
1.0
 37
0.0
 76
     0
330
1F
331
31
1001
ACAD_PSEXT
1000
Default Windows System Printer.pc3
1000
Xerox WorkCentre 7335 PS
1000
Engineering Office
1000

1070
     0
  0
MATERIAL
  5
3C
102
{ACAD_XDICTIONARY
360
3D
102
}
102
{ACAD_REACTORS
330
33
102
}
330
33
100
AcDbMaterial
  1
ByBlock
 72
     0
 43
0.0208333333333333
 43
0.0
 43
0.0
 43
0.0
 43
0.0
 43
0.0208333333333333
 43
0.0
 43
0.0
 43
0.0
 43
0.0
 43
1.0
 43
0.0
 43
0.0
 43
0.0
 43
0.0
 43
1.0
 77
     0
 47
0.0208333333333333
 47
0.0
 47
0.0
 47
0.0
 47
0.0
 47
0.0208333333333333
 47
0.0
 47
0.0
 47
0.0
 47
0.0
 47
1.0
 47
0.0
 47
0.0
 47
0.0
 47
0.0
 47
1.0
171
     0
 49
0.0208333333333333
 49
0.0
 49
0.0
 49
0.0
 49
0.0
 49
0.0208333333333333
 49
0.0
 49
0.0
 49
0.0
 49
0.0
 49
1.0
 49
0.0
 49
0.0
 49
0.0
 49
0.0
 49
1.0
175
     0
142
0.0208333333333333
142
0.0
142
0.0
142
0.0
142
0.0
142
0.0208333333333333
142
0.0
142
0.0
142
0.0
142
0.0
142
1.0
142
0.0
142
0.0
142
0.0
142
0.0
142
1.0
179
     0
144
0.0208333333333333
144
0.0
144
0.0
144
0.0
144
0.0
144
0.0208333333333333
144
0.0
144
0.0
144
0.0
144
0.0
144
1.0
144
0.0
144
0.0
144
0.0
144
0.0
144
1.0
147
0.0208333333333333
147
0.0
147
0.0
147
0.0
147
0.0
147
0.0208333333333333
147
0.0
147
0.0
147
0.0
147
0.0
147
1.0
147
0.0
147
0.0
147
0.0
147
0.0
147
1.0
  0
MATERIAL
  5
34
102
{ACAD_XDICTIONARY
360
35
102
}
102
{ACAD_REACTORS
330
33
102
}
330
33
100
AcDbMaterial
  1
ByLayer
 72
     0
 43
0.0208333333333333
 43
0.0
 43
0.0
 43
0.0
 43
0.0
 43
0.0208333333333333
 43
0.0
 43
0.0
 43
0.0
 43
0.0
 43
1.0
 43
0.0
 43
0.0
 43
0.0
 43
0.0
 43
1.0
 77
     0
 47
0.0208333333333333
 47
0.0
 47
0.0
 47
0.0
 47
0.0
 47
0.0208333333333333
 47
0.0
 47
0.0
 47
0.0
 47
0.0
 47
1.0
 47
0.0
 47
0.0
 47
0.0
 47
0.0
 47
1.0
171
     0
 49
0.0208333333333333
 49
0.0
 49
0.0
 49
0.0
 49
0.0
 49
0.0208333333333333
 49
0.0
 49
0.0
 49
0.0
 49
0.0
 49
1.0
 49
0.0
 49
0.0
 49
0.0
 49
0.0
 49
1.0
175
     0
142
0.0208333333333333
142
0.0
142
0.0
142
0.0
142
0.0
142
0.0208333333333333
142
0.0
142
0.0
142
0.0
142
0.0
142
1.0
142
0.0
142
0.0
142
0.0
142
0.0
142
1.0
179
     0
144
0.0208333333333333
144
0.0
144
0.0
144
0.0
144
0.0
144
0.0208333333333333
144
0.0
144
0.0
144
0.0
144
0.0
144
1.0
144
0.0
144
0.0
144
0.0
144
0.0
144
1.0
147
0.0208333333333333
147
0.0
147
0.0
147
0.0
147
0.0
147
0.0208333333333333
147
0.0
147
0.0
147
0.0
147
0.0
147
1.0
147
0.0
147
0.0
147
0.0
147
0.0
147
1.0
  0
MATERIAL
  5
44
102
{ACAD_XDICTIONARY
360
45
102
}
102
{ACAD_REACTORS
330
33
102
}
330
33
100
AcDbMaterial
  1
Global
 72
     0
 43
0.0208333333333333
 43
0.0
 43
0.0
 43
0.0
 43
0.0
 43
0.0208333333333333
 43
0.0
 43
0.0
 43
0.0
 43
0.0
 43
1.0
 43
0.0
 43
0.0
 43
0.0
 43
0.0
 43
1.0
 77
     0
 47
0.0208333333333333
 47
0.0
 47
0.0
 47
0.0
 47
0.0
 47
0.0208333333333333
 47
0.0
 47
0.0
 47
0.0
 47
0.0
 47
1.0
 47
0.0
 47
0.0
 47
0.0
 47
0.0
 47
1.0
171
     0
 49
0.0208333333333333
 49
0.0
 49
0.0
 49
0.0
 49
0.0
 49
0.0208333333333333
 49
0.0
 49
0.0
 49
0.0
 49
0.0
 49
1.0
 49
0.0
 49
0.0
 49
0.0
 49
0.0
 49
1.0
175
     0
142
0.0208333333333333
142
0.0
142
0.0
142
0.0
142
0.0
142
0.0208333333333333
142
0.0
142
0.0
142
0.0
142
0.0
142
1.0
142
0.0
142
0.0
142
0.0
142
0.0
142
1.0
179
     0
144
0.0208333333333333
144
0.0
144
0.0
144
0.0
144
0.0
144
0.0208333333333333
144
0.0
144
0.0
144
0.0
144
0.0
144
1.0
144
0.0
144
0.0
144
0.0
144
0.0
144
1.0
147
0.0208333333333333
147
0.0
147
0.0
147
0.0
147
0.0
147
0.0208333333333333
147
0.0
147
0.0
147
0.0
147
0.0
147
1.0
147
0.0
147
0.0
147
0.0
147
0.0
147
1.0
  0
MLEADERSTYLE
  5
83
102
{ACAD_REACTORS
330
82
102
}
330
82
100
AcDbMLeaderStyle
170
     2
171
     1
172
     0
 90
        2
 40
0.0
 41
0.0
173
     1
 91
-1056964608
340
14
 92
       -2
290
     1
 42
0.09
291
     1
 43
0.36
  3
Standard
 44
0.18
300

342
11
174
     1
178
     6
175
     1
176
     0
 93
-1056964608
 45
0.18
292
     0
297
     0
 46
0.18
 94
-1056964608
 47
1.0
 49
1.0
140
1.0
293
     1
141
0.0
294
     1
177
     0
142
1.0
295
     0
296
     0
143
0.125
1001
ACAD_MLEADERVER
1070
     2
  0
MLINESTYLE
  5
18
102
{ACAD_REACTORS
330
17
102
}
330
17
100
AcDbMlineStyle
  2
STANDARD
 70
     0
  3

 62
   256
 51
90.0
 52
90.0
 71
     2
 49
0.5
 62
   256
  6
BYLAYER
 49
-0.5
 62
   256
  6
BYLAYER
  0
ACDBPLACEHOLDER
  5
F
102
{ACAD_REACTORS
330
E
102
}
330
E
  0
SCALE
  5
61
102
{ACAD_REACTORS
330
60
102
}
330
60
100
AcDbScale
 70
     0
300
1:1
140
1.0
141
1.0
290
     1
  0
SCALE
  5
62
102
{ACAD_REACTORS
330
60
102
}
330
60
100
AcDbScale
 70
     0
300
1:2
140
1.0
141
2.0
290
     0
  0
SCALE
  5
63
102
{ACAD_REACTORS
330
60
102
}
330
60
100
AcDbScale
 70
     0
300
1:4
140
1.0
141
4.0
290
     0
  0
SCALE
  5
64
102
{ACAD_REACTORS
330
60
102
}
330
60
100
AcDbScale
 70
     0
300
1:5
140
1.0
141
5.0
290
     0
  0
SCALE
  5
65
102
{ACAD_REACTORS
330
60
102
}
330
60
100
AcDbScale
 70
     0
300
1:8
140
1.0
141
8.0
290
     0
  0
SCALE
  5
66
102
{ACAD_REACTORS
330
60
102
}
330
60
100
AcDbScale
 70
     0
300
1:10
140
1.0
141
10.0
290
     0
  0
SCALE
  5
67
102
{ACAD_REACTORS
330
60
102
}
330
60
100
AcDbScale
 70
     0
300
1:16
140
1.0
141
16.0
290
     0
  0
SCALE
  5
68
102
{ACAD_REACTORS
330
60
102
}
330
60
100
AcDbScale
 70
     0
300
1:20
140
1.0
141
20.0
290
     0
  0
SCALE
  5
69
102
{ACAD_REACTORS
330
60
102
}
330
60
100
AcDbScale
 70
     0
300
1:30
140
1.0
141
30.0
290
     0
  0
SCALE
  5
6A
102
{ACAD_REACTORS
330
60
102
}
330
60
100
AcDbScale
 70
     0
300
1:40
140
1.0
141
40.0
290
     0
  0
SCALE
  5
6B
102
{ACAD_REACTORS
330
60
102
}
330
60
100
AcDbScale
 70
     0
300
1:50
140
1.0
141
50.0
290
     0
  0
SCALE
  5
6C
102
{ACAD_REACTORS
330
60
102
}
330
60
100
AcDbScale
 70
     0
300
1:100
140
1.0
141
100.0
290
     0
  0
SCALE
  5
6D
102
{ACAD_REACTORS
330
60
102
}
330
60
100
AcDbScale
 70
     0
300
2:1
140
2.0
141
1.0
290
     0
  0
SCALE
  5
6E
102
{ACAD_REACTORS
330
60
102
}
330
60
100
AcDbScale
 70
     0
300
4:1
140
4.0
141
1.0
290
     0
  0
SCALE
  5
6F
102
{ACAD_REACTORS
330
60
102
}
330
60
100
AcDbScale
 70
     0
300
8:1
140
8.0
141
1.0
290
     0
  0
SCALE
  5
70
102
{ACAD_REACTORS
330
60
102
}
330
60
100
AcDbScale
 70
     0
300
10:1
140
10.0
141
1.0
290
     0
  0
SCALE
  5
71
102
{ACAD_REACTORS
330
60
102
}
330
60
100
AcDbScale
 70
     0
300
100:1
140
100.0
141
1.0
290
     0
  0
SCALE
  5
72
102
{ACAD_REACTORS
330
60
102
}
330
60
100
AcDbScale
 70
     0
300
1/128" = 1'-0"
140
0.0078125
141
12.0
290
     0
  0
SCALE
  5
73
102
{ACAD_REACTORS
330
60
102
}
330
60
100
AcDbScale
 70
     0
300
1/64" = 1'-0"
140
0.015625
141
12.0
290
     0
  0
SCALE
  5
74
102
{ACAD_REACTORS
330
60
102
}
330
60
100
AcDbScale
 70
     0
300
1/32" = 1'-0"
140
0.03125
141
12.0
290
     0
  0
SCALE
  5
75
102
{ACAD_REACTORS
330
60
102
}
330
60
100
AcDbScale
 70
     0
300
1/16" = 1'-0"
140
0.0625
141
12.0
290
     0
  0
SCALE
  5
76
102
{ACAD_REACTORS
330
60
102
}
330
60
100
AcDbScale
 70
     0
300
3/32" = 1'-0"
140
0.09375
141
12.0
290
     0
  0
SCALE
  5
77
102
{ACAD_REACTORS
330
60
102
}
330
60
100
AcDbScale
 70
     0
300
1/8" = 1'-0"
140
0.125
141
12.0
290
     0
  0
SCALE
  5
78
102
{ACAD_REACTORS
330
60
102
}
330
60
100
AcDbScale
 70
     0
300
3/16" = 1'-0"
140
0.1875
141
12.0
290
     0
  0
SCALE
  5
79
102
{ACAD_REACTORS
330
60
102
}
330
60
100
AcDbScale
 70
     0
300
1/4" = 1'-0"
140
0.25
141
12.0
290
     0
  0
SCALE
  5
7A
102
{ACAD_REACTORS
330
60
102
}
330
60
100
AcDbScale
 70
     0
300
3/8" = 1'-0"
140
0.375
141
12.0
290
     0
  0
SCALE
  5
7B
102
{ACAD_REACTORS
330
60
102
}
330
60
100
AcDbScale
 70
     0
300
1/2" = 1'-0"
140
0.5
141
12.0
290
     0
  0
SCALE
  5
7C
102
{ACAD_REACTORS
330
60
102
}
330
60
100
AcDbScale
 70
     0
300
3/4" = 1'-0"
140
0.75
141
12.0
290
     0
  0
SCALE
  5
7D
102
{ACAD_REACTORS
330
60
102
}
330
60
100
AcDbScale
 70
     0
300
1" = 1'-0"
140
1.0
141
12.0
290
     0
  0
SCALE
  5
7E
102
{ACAD_REACTORS
330
60
102
}
330
60
100
AcDbScale
 70
     0
300
1-1/2" = 1'-0"
140
1.5
141
12.0
290
     0
  0
SCALE
  5
7F
102
{ACAD_REACTORS
330
60
102
}
330
60
100
AcDbScale
 70
     0
300
3" = 1'-0"
140
3.0
141
12.0
290
     0
  0
SCALE
  5
80
102
{ACAD_REACTORS
330
60
102
}
330
60
100
AcDbScale
 70
     0
300
6" = 1'-0"
140
6.0
141
12.0
290
     0
  0
SCALE
  5
81
102
{ACAD_REACTORS
330
60
102
}
330
60
100
AcDbScale
 70
     0
300
1'-0" = 1'-0"
140
12.0
141
12.0
290
     0
  0
TABLESTYLE
  5
5F
102
{ACAD_XDICTIONARY
360
87
102
}
102
{ACAD_REACTORS
330
5E
102
}
330
5E
100
AcDbTableStyle
  3
Standard
 70
     0
 71
     0
 40
0.06
 41
0.06
280
     0
281
     0
  7
Standard
140
0.18
170
     2
 62
     0
 63
     7
283
     0
274
    -2
284
     1
 64
     0
275
    -2
285
     1
 65
     0
276
    -2
286
     1
 66
     0
277
    -2
287
     1
 67
     0
278
    -2
288
     1
 68
     0
279
    -2
289
     1
 69
     0
  7
Standard
140
0.25
170
     5
 62
     0
 63
     7
283
     0
274
    -2
284
     1
 64
     0
275
    -2
285
     1
 65
     0
276
    -2
286
     1
 66
     0
277
    -2
287
     1
 67
     0
278
    -2
288
     1
 68
     0
279
    -2
289
     1
 69
     0
  7
Standard
140
0.18
170
     5
 62
     0
 63
     7
283
     0
274
    -2
284
     1
 64
     0
275
    -2
285
     1
 65
     0
276
    -2
286
     1
 66
     0
277
    -2
287
     1
 67
     0
278
    -2
288
     1
 68
     0
279
    -2
289
     1
 69
     0
  0
VISUALSTYLE
  5
52
102
{ACAD_XDICTIONARY
360
7D11
102
}
102
{ACAD_REACTORS
330
4C
102
}
330
4C
100
AcDbVisualStyle
  2
2dWireframe
 70
     4
 71
     0
 72
     2
 73
     0
 90
        0
 40
-0.6
 41
-30.0
 62
     5
 63
     7
 74
     1
 91
        4
 64
     7
 65
   257
 75
     1
175
     1
 42
1.0
 92
        0
 66
   257
 43
1.0
 76
     1
 77
     6
 78
     2
 67
     7
 79
     5
170
     0
171
     0
290
     0
174
     0
 93
        1
 44
0.0
173
     0
291
     0
 45
0.0
1001
ACAD
1000
AcDbSavedByObjectVersion
1070
     0
  0
VISUALSTYLE
  5
54
102
{ACAD_XDICTIONARY
360
7D15
102
}
102
{ACAD_REACTORS
330
4C
102
}
330
4C
100
AcDbVisualStyle
  2
3D Hidden
 70
     6
 71
     1
 72
     2
 73
     2
 90
        0
 40
-0.6
 41
-30.0
 62
     5
 63
     7
 74
     2
 91
        2
 64
     7
 65
   257
 75
     2
175
     1
 42
40.0
 92
        0
 66
   257
 43
1.0
 76
     1
 77
     6
 78
     2
 67
     7
 79
     3
170
     0
171
     0
290
     0
174
     0
 93
        1
 44
0.0
173
     0
291
     0
 45
0.0
1001
ACAD
1000
AcDbSavedByObjectVersion
1070
     0
  0
VISUALSTYLE
  5
53
102
{ACAD_XDICTIONARY
360
7D13
102
}
102
{ACAD_REACTORS
330
4C
102
}
330
4C
100
AcDbVisualStyle
  2
3dWireframe
 70
     5
 71
     0
 72
     2
 73
     0
 90
        0
 40
-0.6
 41
-30.0
 62
     5
 63
     7
 74
     1
 91
        4
 64
     7
 65
   257
 75
     1
175
     1
 42
1.0
 92
        0
 66
   257
 43
1.0
 76
     1
 77
     6
 78
     2
 67
     7
 79
     5
170
     0
171
     0
290
     0
174
     0
 93
        1
 44
0.0
173
     0
291
     0
 45
0.0
1001
ACAD
1000
AcDbSavedByObjectVersion
1070
     0
  0
VISUALSTYLE
  5
51
102
{ACAD_XDICTIONARY
360
7D0F
102
}
102
{ACAD_REACTORS
330
4C
102
}
330
4C
100
AcDbVisualStyle
  2
Basic
 70
     7
 71
     1
 72
     0
 73
     1
 90
        0
 40
-0.6
 41
-30.0
 62
     5
 63
     7
 74
     0
 91
        4
 64
     7
 65
   257
 75
     1
175
     1
 42
1.0
 92
        8
 66
     7
 43
1.0
 76
     1
 77
     6
 78
     2
 67
     7
 79
     5
170
     0
171
     0
290
     0
174
     0
 93
        1
 44
0.0
173
     0
291
     1
 45
0.0
1001
ACAD
1000
AcDbSavedByObjectVersion
1070
     0
  0
VISUALSTYLE
  5
58
102
{ACAD_XDICTIONARY
360
7D1D
102
}
102
{ACAD_REACTORS
330
4C
102
}
330
4C
100
AcDbVisualStyle
  2
Brighten
 70
    12
 71
     2
 72
     2
 73
     0
 90
        0
 40
-0.6
 41
-30.0
 62
     5
 63
     7
 74
     1
 91
        4
 64
     7
 65
   257
 75
     1
175
     1
 42
1.0
 92
        8
 66
     7
 43
1.0
 76
     1
 77
     6
 78
     2
 67
     7
 79
     5
170
     0
171
     0
290
     0
174
     0
 93
        1
 44
50.0
173
     0
291
     1
 45
0.0
1001
ACAD
1000
AcDbSavedByObjectVersion
1070
     0
  0
VISUALSTYLE
  5
5C
102
{ACAD_XDICTIONARY
360
7D25
102
}
102
{ACAD_REACTORS
330
4C
102
}
330
4C
100
AcDbVisualStyle
  2
ColorChange
 70
    16
 71
     2
 72
     2
 73
     3
 90
        0
 40
-0.6
 41
-30.0
 62
     5
 63
     8
 74
     1
 91
        4
 64
     7
 65
   257
 75
     1
175
     1
 42
1.0
 92
        8
 66
     8
 43
1.0
 76
     1
 77
     6
 78
     2
 67
     7
 79
     5
170
     0
171
     0
290
     0
174
     0
 93
        1
 44
0.0
173
     0
291
     1
 45
0.0
1001
ACAD
1000
AcDbSavedByObjectVersion
1070
     0
  0
VISUALSTYLE
  5
55
102
{ACAD_XDICTIONARY
360
7D17
102
}
102
{ACAD_REACTORS
330
4C
102
}
330
4C
100
AcDbVisualStyle
  2
Conceptual
 70
     9
 71
     3
 72
     2
 73
     0
 90
        0
 40
-0.6
 41
-30.0
 62
     5
 63
     7
 74
     2
 91
        2
 64
     7
 65
   257
 75
     1
175
     1
 42
40.0
 92
        8
 66
     7
 43
1.0
 76
     1
 77
     6
 78
     2
 67
     7
 79
     3
170
     0
171
     0
290
     0
174
     0
 93
        1
 44
0.0
173
     0
291
     0
 45
0.0
1001
ACAD
1000
AcDbSavedByObjectVersion
1070
     0
  0
VISUALSTYLE
  5
57
102
{ACAD_XDICTIONARY
360
7D1B
102
}
102
{ACAD_REACTORS
330
4C
102
}
330
4C
100
AcDbVisualStyle
  2
Dim
 70
    11
 71
     2
 72
     2
 73
     0
 90
        0
 40
-0.6
 41
-30.0
 62
     5
 63
     7
 74
     1
 91
        4
 64
     7
 65
   257
 75
     1
175
     1
 42
1.0
 92
        8
 66
     7
 43
1.0
 76
     1
 77
     6
 78
     2
 67
     7
 79
     5
170
     0
171
     0
290
     0
174
     0
 93
        1
 44
-50.0
173
     0
291
     1
 45
0.0
1001
ACAD
1000
AcDbSavedByObjectVersion
1070
     0
  0
VISUALSTYLE
  5
2848
102
{ACAD_XDICTIONARY
360
7D3A
102
}
102
{ACAD_REACTORS
330
4C
102
}
330
4C
100
AcDbVisualStyle
  2
EdgeColorOff
 70
    22
 71
     2
 72
     2
 73
     0
 90
        0
 40
-0.6
 41
-30.0
 62
     5
 63
     7
 74
     1
 91
        4
 64
     7
 65
   257
 75
     1
175
     1
 42
1.0
 92
        8
 66
     7
 43
1.0
 76
     1
 77
     6
 78
     2
 67
     7
 79
     5
170
     0
171
     0
290
     0
174
     0
 93
        1
 44
0.0
173
     0
291
     1
 45
0.0
1001
ACAD
1000
AcDbSavedByObjectVersion
1070
     0
  0
VISUALSTYLE
  5
5B
102
{ACAD_XDICTIONARY
360
7D23
102
}
102
{ACAD_REACTORS
330
4C
102
}
330
4C
100
AcDbVisualStyle
  2
Facepattern
 70
    15
 71
     2
 72
     2
 73
     0
 90
        0
 40
-0.6
 41
-30.0
 62
     5
 63
     7
 74
     1
 91
        4
 64
     7
 65
   257
 75
     1
175
     1
 42
1.0
 92
        8
 66
     7
 43
1.0
 76
     1
 77
     6
 78
     2
 67
     7
 79
     5
170
     0
171
     0
290
     0
174
     0
 93
        1
 44
0.0
173
     0
291
     1
 45
0.0
1001
ACAD
1000
AcDbSavedByObjectVersion
1070
     0
  0
VISUALSTYLE
  5
4D
102
{ACAD_XDICTIONARY
360
7D07
102
}
102
{ACAD_REACTORS
330
4C
102
}
330
4C
100
AcDbVisualStyle
  2
Flat
 70
     0
 71
     2
 72
     1
 73
     1
 90
        2
 40
-0.6
 41
30.0
 62
     5
 63
     7
 74
     0
 91
        4
 64
     7
 65
   257
 75
     1
175
     1
 42
1.0
 92
        8
 66
     7
 43
1.0
 76
     1
 77
     6
 78
     2
 67
     7
 79
     5
170
     0
171
     0
290
     0
174
     0
 93
       13
 44
0.0
173
     0
291
     1
 45
0.0
1001
ACAD
1000
AcDbSavedByObjectVersion
1070
     0
  0
VISUALSTYLE
  5
4E
102
{ACAD_XDICTIONARY
360
7D09
102
}
102
{ACAD_REACTORS
330
4C
102
}
330
4C
100
AcDbVisualStyle
  2
FlatWithEdges
 70
     1
 71
     2
 72
     1
 73
     1
 90
        2
 40
-0.6
 41
30.0
 62
     5
 63
     7
 74
     1
 91
        4
 64
     7
 65
   257
 75
     1
175
     1
 42
1.0
 92
        0
 66
   257
 43
1.0
 76
     1
 77
     6
 78
     2
 67
     7
 79
     5
170
     0
171
     0
290
     0
174
     0
 93
       13
 44
0.0
173
     0
291
     1
 45
0.0
1001
ACAD
1000
AcDbSavedByObjectVersion
1070
     0
  0
VISUALSTYLE
  5
4F
102
{ACAD_XDICTIONARY
360
7D0B
102
}
102
{ACAD_REACTORS
330
4C
102
}
330
4C
100
AcDbVisualStyle
  2
Gouraud
 70
     2
 71
     2
 72
     2
 73
     1
 90
        2
 40
-0.6
 41
30.0
 62
     5
 63
     7
 74
     0
 91
        4
 64
     7
 65
   257
 75
     1
175
     1
 42
1.0
 92
        0
 66
     7
 43
1.0
 76
     1
 77
     6
 78
     2
 67
     7
 79
     5
170
     0
171
     0
290
     0
174
     0
 93
       13
 44
0.0
173
     0
291
     1
 45
0.0
1001
ACAD
1000
AcDbSavedByObjectVersion
1070
     0
  0
VISUALSTYLE
  5
50
102
{ACAD_XDICTIONARY
360
7D0D
102
}
102
{ACAD_REACTORS
330
4C
102
}
330
4C
100
AcDbVisualStyle
  2
GouraudWithEdges
 70
     3
 71
     2
 72
     2
 73
     1
 90
        2
 40
-0.6
 41
30.0
 62
     5
 63
     7
 74
     1
 91
        4
 64
     7
 65
   257
 75
     1
175
     1
 42
1.0
 92
        0
 66
   257
 43
1.0
 76
     1
 77
     6
 78
     2
 67
     7
 79
     5
170
     0
171
     0
290
     0
174
     0
 93
       13
 44
0.0
173
     0
291
     1
 45
0.0
1001
ACAD
1000
AcDbSavedByObjectVersion
1070
     0
  0
VISUALSTYLE
  5
2840
102
{ACAD_XDICTIONARY
360
7D2A
102
}
102
{ACAD_REACTORS
330
4C
102
}
330
4C
100
AcDbVisualStyle
  2
Hidden
 70
     6
 71
     1
 72
     2
 73
     2
 90
        0
 40
-0.6
 41
-30.0
 62
     5
 63
     7
 74
     2
 91
        2
 64
     7
 65
   257
 75
     2
175
     1
 42
40.0
 92
        0
 66
   257
 43
1.0
 76
     1
 77
     6
 78
     2
 67
     7
 79
     3
170
     0
171
     0
290
     0
174
     0
 93
        1
 44
0.0
173
     0
291
     0
 45
0.0
1001
ACAD
1000
AcDbSavedByObjectVersion
1070
     0
  0
VISUALSTYLE
  5
2846
102
{ACAD_XDICTIONARY
360
7D36
102
}
102
{ACAD_REACTORS
330
4C
102
}
330
4C
100
AcDbVisualStyle
  2
JitterOff
 70
    20
 71
     2
 72
     2
 73
     0
 90
        0
 40
-0.6
 41
-30.0
 62
     5
 63
     7
 74
     1
 91
        4
 64
     7
 65
   257
 75
     1
175
     1
 42
1.0
 92
       10
 66
     7
 43
1.0
 76
     1
 77
     6
 78
     2
 67
     7
 79
     5
170
     0
171
     0
290
     0
174
     0
 93
        1
 44
0.0
173
     0
291
     1
 45
0.0
1001
ACAD
1000
AcDbSavedByObjectVersion
1070
     0
  0
VISUALSTYLE
  5
5A
102
{ACAD_XDICTIONARY
360
7D21
102
}
102
{ACAD_REACTORS
330
4C
102
}
330
4C
100
AcDbVisualStyle
  2
Linepattern
 70
    14
 71
     2
 72
     2
 73
     0
 90
        0
 40
-0.6
 41
-30.0
 62
     5
 63
     7
 74
     1
 91
        4
 64
     7
 65
   257
 75
     7
175
     7
 42
1.0
 92
        8
 66
     7
 43
1.0
 76
     1
 77
     6
 78
     2
 67
     7
 79
     5
170
     0
171
     0
290
     0
174
     0
 93
        1
 44
0.0
173
     0
291
     1
 45
0.0
1001
ACAD
1000
AcDbSavedByObjectVersion
1070
     0
  0
VISUALSTYLE
  5
2847
102
{ACAD_XDICTIONARY
360
7D38
102
}
102
{ACAD_REACTORS
330
4C
102
}
330
4C
100
AcDbVisualStyle
  2
OverhangOff
 70
    21
 71
     2
 72
     2
 73
     0
 90
        0
 40
-0.6
 41
-30.0
 62
     5
 63
     7
 74
     1
 91
        4
 64
     7
 65
   257
 75
     1
175
     1
 42
1.0
 92
        9
 66
     7
 43
1.0
 76
     1
 77
     6
 78
     2
 67
     7
 79
     5
170
     0
171
     0
290
     0
174
     0
 93
        1
 44
0.0
173
     0
291
     1
 45
0.0
1001
ACAD
1000
AcDbSavedByObjectVersion
1070
     0
  0
VISUALSTYLE
  5
56
102
{ACAD_XDICTIONARY
360
7D19
102
}
102
{ACAD_REACTORS
330
4C
102
}
330
4C
100
AcDbVisualStyle
  2
Realistic
 70
     8
 71
     2
 72
     2
 73
     0
 90
        0
 40
-0.6
 41
-30.0
 62
     5
 63
     7
 74
     1
 91
        0
 64
     7
 65
   257
 75
     1
175
     1
 42
1.0
 92
        8
 66
     8
 43
1.0
 76
     1
 77
     6
 78
     2
 67
     7
 79
     5
170
     0
171
     0
290
     0
174
     0
 93
       13
 44
0.0
173
     0
291
     0
 45
0.0
1001
ACAD
1000
AcDbSavedByObjectVersion
1070
     0
  0
VISUALSTYLE
  5
2845
102
{ACAD_XDICTIONARY
360
7D34
102
}
102
{ACAD_REACTORS
330
4C
102
}
330
4C
100
AcDbVisualStyle
  2
Shaded
 70
    27
 71
     2
 72
     2
 73
     1
 90
        2
 40
-0.6
 41
30.0
 62
     5
 63
     7
 74
     0
 91
        4
 64
     7
 65
   257
 75
     1
175
     1
 42
1.0
 92
        8
 66
   257
 43
1.0
 76
     1
 77
     6
 78
     2
 67
     8
 79
     3
170
     0
171
     0
290
     0
174
     0
 93
        5
 44
0.0
173
     0
291
     0
 45
0.0
1001
ACAD
1000
AcDbSavedByObjectVersion
1070
     0
  0
VISUALSTYLE
  5
2844
102
{ACAD_XDICTIONARY
360
7D32
102
}
102
{ACAD_REACTORS
330
4C
102
}
330
4C
100
AcDbVisualStyle
  2
Shaded with edges
 70
    26
 71
     2
 72
     2
 73
     1
 90
        2
 40
-0.6
 41
30.0
 62
     5
 63
     7
 74
     1
 91
       10
 64
     7
 65
   257
 75
     2
175
     1
 42
1.0
 92
        8
 66
   257
 43
1.0
 76
     1
 77
     6
 78
     2
 67
     7
 79
     3
170
     0
171
     0
290
     0
174
     0
 93
        5
 44
0.0
173
     0
291
     0
 45
0.0
1001
ACAD
1000
AcDbSavedByObjectVersion
1070
     0
  0
VISUALSTYLE
  5
2841
102
{ACAD_XDICTIONARY
360
7D2C
102
}
102
{ACAD_REACTORS
330
4C
102
}
330
4C
100
AcDbVisualStyle
  2
Shades of Gray
 70
    23
 71
     2
 72
     2
 73
     3
 90
        0
 40
-0.6
 41
-30.0
 62
     5
 63
     7
 74
     2
 91
        2
 64
     7
 65
     7
 75
     1
175
     1
 42
40.0
 92
        8
 66
     7
 43
1.0
 76
     1
 77
     6
 78
     2
 67
     7
 79
     3
170
     0
171
     0
290
     0
174
     0
 93
        1
 44
0.0
173
     0
291
     0
 45
0.0
1001
ACAD
1000
AcDbSavedByObjectVersion
1070
     0
  0
VISUALSTYLE
  5
2842
102
{ACAD_XDICTIONARY
360
7D2E
102
}
102
{ACAD_REACTORS
330
4C
102
}
330
4C
100
AcDbVisualStyle
  2
Sketchy
 70
    24
 71
     1
 72
     2
 73
     2
 90
        0
 40
-0.6
 41
-30.0
 62
     5
 63
     7
 74
     2
 91
        2
 64
     7
 65
     7
 75
     1
175
     1
 42
40.0
 92
       11
 66
     7
 43
1.0
 76
     1
 77
     6
 78
     2
 67
     7
 79
     6
170
     0
171
     0
290
     0
174
     0
 93
        1
 44
0.0
173
     0
291
     0
 45
0.0
1001
ACAD
1000
AcDbSavedByObjectVersion
1070
     0
  0
VISUALSTYLE
  5
59
102
{ACAD_XDICTIONARY
360
7D1F
102
}
102
{ACAD_REACTORS
330
4C
102
}
330
4C
100
AcDbVisualStyle
  2
Thicken
 70
    13
 71
     2
 72
     2
 73
     0
 90
        0
 40
-0.6
 41
-30.0
 62
     5
 63
     7
 74
     1
 91
        4
 64
     7
 65
   257
 75
     1
175
     1
 42
1.0
 92
       12
 66
     7
 43
1.0
 76
     1
 77
     6
 78
     2
 67
     7
 79
     5
170
     0
171
     0
290
     0
174
     0
 93
        1
 44
0.0
173
     0
291
     1
 45
0.0
1001
ACAD
1000
AcDbSavedByObjectVersion
1070
     0
  0
VISUALSTYLE
  5
283F
102
{ACAD_XDICTIONARY
360
7D28
102
}
102
{ACAD_REACTORS
330
4C
102
}
330
4C
100
AcDbVisualStyle
  2
Wireframe
 70
     5
 71
     0
 72
     2
 73
     0
 90
        0
 40
-0.6
 41
-30.0
 62
     5
 63
     7
 74
     1
 91
        4
 64
     7
 65
   257
 75
     1
175
     1
 42
1.0
 92
        0
 66
   257
 43
1.0
 76
     1
 77
     6
 78
     2
 67
     7
 79
     3
170
     0
171
     0
290
     0
174
     0
 93
        1
 44
0.0
173
     0
291
     0
 45
0.0
1001
ACAD
1000
AcDbSavedByObjectVersion
1070
     0
  0
VISUALSTYLE
  5
2843
102
{ACAD_XDICTIONARY
360
7D30
102
}
102
{ACAD_REACTORS
330
4C
102
}
330
4C
100
AcDbVisualStyle
  2
X-Ray
 70
    25
 71
     2
 72
     2
 73
     1
 90
        1
 40
0.5
 41
-30.0
 62
     5
 63
     7
 74
     1
 91
        0
 64
     7
 65
   257
 75
     1
175
     1
 42
1.0
 92
        8
 66
     7
 43
1.0
 76
     1
 77
     6
 78
     2
 67
     7
 79
     3
170
     0
171
     0
290
     0
174
     0
 93
       13
 44
0.0
173
     0
291
     0
 45
0.0
1001
ACAD
1000
AcDbSavedByObjectVersion
1070
     0
  0
XRECORD
  5
226E
102
{ACAD_REACTORS
330
226D
102
}
330
226D
100
AcDbXrecord
280
     1
  1
WIRES
  1
WIRES
  1

290
     0
  0
DICTIONARYVAR
  5
8E
102
{ACAD_REACTORS
330
8A
102
}
330
8A
100
DictionaryVariables
280
     0
  1
1:1
  0
DICTIONARYVAR
  5
8C
102
{ACAD_REACTORS
330
8A
102
}
330
8A
100
DictionaryVariables
280
     0
  1
STANDARD
  0
DICTIONARYVAR
  5
8B
102
{ACAD_REACTORS
330
8A
102
}
330
8A
100
DictionaryVariables
280
     0
  1
STANDARD
  0
DICTIONARYVAR
  5
18F
102
{ACAD_REACTORS
330
8A
102
}
330
8A
100
DictionaryVariables
280
     0
  1
1
  0
DICTIONARYVAR
  5
18E
102
{ACAD_REACTORS
330
8A
102
}
330
8A
100
DictionaryVariables
280
     0
  1
0
  0
DICTIONARYVAR
  5
217D
102
{ACAD_REACTORS
330
8A
102
}
330
8A
100
DictionaryVariables
280
     0
  1
1
  0
DICTIONARYVAR
  5
217E
102
{ACAD_REACTORS
330
8A
102
}
330
8A
100
DictionaryVariables
280
     0
  1
15
  0
DICTIONARYVAR
  5
8F
102
{ACAD_REACTORS
330
8A
102
}
330
8A
100
DictionaryVariables
280
     0
  1
0
  0
DICTIONARYVAR
  5
8D
102
{ACAD_REACTORS
330
8A
102
}
330
8A
100
DictionaryVariables
280
     0
  1
0
  0
DICTIONARYVAR
  5
18D
102
{ACAD_REACTORS
330
8A
102
}
330
8A
100
DictionaryVariables
280
     0
  1
127
  0
DICTIONARYVAR
  5
7D3C
102
{ACAD_REACTORS
330
8A
102
}
330
8A
100
DictionaryVariables
280
     0
  1
0
  0
XRECORD
  5
2835
102
{ACAD_REACTORS
330
2834
102
}
330
2834
100
AcDbXrecord
280
     1
330
0
330
0
330
0
330
0
330
0
330
0
  0
DICTIONARY
  5
7D42
330
1E
100
AcDbDictionary
280
     1
281
     1
  3
ACAD_XREC_ROUNDTRIP
360
7D43
  0
DICTIONARY
  5
7D46
330
26
100
AcDbDictionary
280
     1
281
     1
  3
ACAD_XREC_ROUNDTRIP
360
7D47
  0
DICTIONARY
  5
7D44
330
22
100
AcDbDictionary
280
     1
281
     1
  3
ACAD_XREC_ROUNDTRIP
360
7D45
  0
DICTIONARY
  5
3D
330
3C
100
AcDbDictionary
280
     1
281
     1
  3
ACAD_XREC_ROUNDTRIP
360
7D49
  3
BUMPTILE
360
3F
  3
DIFFUSETILE
360
3E
  3
OPACITYTILE
360
42
  3
REFLECTIONTILE
360
41
  3
REFRACTIONTILE
360
43
  3
SPECULARTILE
360
40
  0
DICTIONARY
  5
35
330
34
100
AcDbDictionary
280
     1
281
     1
  3
ACAD_XREC_ROUNDTRIP
360
7D48
  3
BUMPTILE
360
37
  3
DIFFUSETILE
360
36
  3
OPACITYTILE
360
3A
  3
REFLECTIONTILE
360
39
  3
REFRACTIONTILE
360
3B
  3
SPECULARTILE
360
38
  0
DICTIONARY
  5
45
330
44
100
AcDbDictionary
280
     1
281
     1
  3
ACAD_XREC_ROUNDTRIP
360
7D4A
  3
BUMPTILE
360
47
  3
DIFFUSETILE
360
46
  3
OPACITYTILE
360
4A
  3
REFLECTIONTILE
360
49
  3
REFRACTIONTILE
360
4B
  3
SPECULARTILE
360
48
  0
DICTIONARY
  5
87
330
5F
100
AcDbDictionary
280
     1
281
     1
  3
ACAD_ROUNDTRIP_2008_TABLESTYLE_CELLSTYLEMAP
360
7D40
  3
ACAD_XREC_ROUNDTRIP
360
7D4B
  0
DICTIONARY
  5
7D11
330
52
100
AcDbDictionary
280
     1
281
     1
  3
ACAD_XREC_ROUNDTRIP
360
7D12
  0
DICTIONARY
  5
7D15
330
54
100
AcDbDictionary
280
     1
281
     1
  3
ACAD_XREC_ROUNDTRIP
360
7D16
  0
DICTIONARY
  5
7D13
330
53
100
AcDbDictionary
280
     1
281
     1
  3
ACAD_XREC_ROUNDTRIP
360
7D14
  0
DICTIONARY
  5
7D0F
330
51
100
AcDbDictionary
280
     1
281
     1
  3
ACAD_XREC_ROUNDTRIP
360
7D10
  0
DICTIONARY
  5
7D1D
330
58
100
AcDbDictionary
280
     1
281
     1
  3
ACAD_XREC_ROUNDTRIP
360
7D1E
  0
DICTIONARY
  5
7D25
330
5C
100
AcDbDictionary
280
     1
281
     1
  3
ACAD_XREC_ROUNDTRIP
360
7D26
  0
DICTIONARY
  5
7D17
330
55
100
AcDbDictionary
280
     1
281
     1
  3
ACAD_XREC_ROUNDTRIP
360
7D18
  0
DICTIONARY
  5
7D1B
330
57
100
AcDbDictionary
280
     1
281
     1
  3
ACAD_XREC_ROUNDTRIP
360
7D1C
  0
DICTIONARY
  5
7D3A
330
2848
100
AcDbDictionary
280
     1
281
     1
  3
ACAD_XREC_ROUNDTRIP
360
7D3B
  0
DICTIONARY
  5
7D23
330
5B
100
AcDbDictionary
280
     1
281
     1
  3
ACAD_XREC_ROUNDTRIP
360
7D24
  0
DICTIONARY
  5
7D07
330
4D
100
AcDbDictionary
280
     1
281
     1
  3
ACAD_XREC_ROUNDTRIP
360
7D08
  0
DICTIONARY
  5
7D09
330
4E
100
AcDbDictionary
280
     1
281
     1
  3
ACAD_XREC_ROUNDTRIP
360
7D0A
  0
DICTIONARY
  5
7D0B
330
4F
100
AcDbDictionary
280
     1
281
     1
  3
ACAD_XREC_ROUNDTRIP
360
7D0C
  0
DICTIONARY
  5
7D0D
330
50
100
AcDbDictionary
280
     1
281
     1
  3
ACAD_XREC_ROUNDTRIP
360
7D0E
  0
DICTIONARY
  5
7D2A
330
2840
100
AcDbDictionary
280
     1
281
     1
  3
ACAD_XREC_ROUNDTRIP
360
7D2B
  0
DICTIONARY
  5
7D36
330
2846
100
AcDbDictionary
280
     1
281
     1
  3
ACAD_XREC_ROUNDTRIP
360
7D37
  0
DICTIONARY
  5
7D21
330
5A
100
AcDbDictionary
280
     1
281
     1
  3
ACAD_XREC_ROUNDTRIP
360
7D22
  0
DICTIONARY
  5
7D38
330
2847
100
AcDbDictionary
280
     1
281
     1
  3
ACAD_XREC_ROUNDTRIP
360
7D39
  0
DICTIONARY
  5
7D19
330
56
100
AcDbDictionary
280
     1
281
     1
  3
ACAD_XREC_ROUNDTRIP
360
7D1A
  0
DICTIONARY
  5
7D34
330
2845
100
AcDbDictionary
280
     1
281
     1
  3
ACAD_XREC_ROUNDTRIP
360
7D35
  0
DICTIONARY
  5
7D32
330
2844
100
AcDbDictionary
280
     1
281
     1
  3
ACAD_XREC_ROUNDTRIP
360
7D33
  0
DICTIONARY
  5
7D2C
330
2841
100
AcDbDictionary
280
     1
281
     1
  3
ACAD_XREC_ROUNDTRIP
360
7D2D
  0
DICTIONARY
  5
7D2E
330
2842
100
AcDbDictionary
280
     1
281
     1
  3
ACAD_XREC_ROUNDTRIP
360
7D2F
  0
DICTIONARY
  5
7D1F
330
59
100
AcDbDictionary
280
     1
281
     1
  3
ACAD_XREC_ROUNDTRIP
360
7D20
  0
DICTIONARY
  5
7D28
330
283F
100
AcDbDictionary
280
     1
281
     1
  3
ACAD_XREC_ROUNDTRIP
360
7D29
  0
DICTIONARY
  5
7D30
330
2843
100
AcDbDictionary
280
     1
281
     1
  3
ACAD_XREC_ROUNDTRIP
360
7D31
  0
XRECORD
  5
7D43
102
{ACAD_REACTORS
330
7D42
102
}
330
7D42
100
AcDbXrecord
280
     1
102
SHADEPLOT
 70
     0
102
SHADEPLOTRESLEVEL
 70
     2
102
SHADEPLOTCUSTOMDPI
 70
   300
  0
XRECORD
  5
7D47
102
{ACAD_REACTORS
330
7D46
102
}
330
7D46
100
AcDbXrecord
280
     1
102
SHADEPLOT
 70
     0
102
SHADEPLOTRESLEVEL
 70
     2
102
SHADEPLOTCUSTOMDPI
 70
   300
  0
XRECORD
  5
7D45
102
{ACAD_REACTORS
330
7D44
102
}
330
7D44
100
AcDbXrecord
280
     1
102
SHADEPLOT
 70
     0
102
SHADEPLOTRESLEVEL
 70
     2
102
SHADEPLOTCUSTOMDPI
 70
   300
  0
XRECORD
  5
7D49
102
{ACAD_REACTORS
330
3D
102
}
330
3D
100
AcDbXrecord
280
     1
102
MATERIAL
148
0.0
149
0.0
149
0.0
 93
        0
 94
      127
282
     0
 72
     0
 77
     0
171
     0
175
     0
179
     0
273
     0
  0
XRECORD
  5
3F
102
{ACAD_REACTORS
330
3D
102
}
330
3D
100
AcDbXrecord
280
     1
270
     1
271
     1
  0
XRECORD
  5
3E
102
{ACAD_REACTORS
330
3D
102
}
330
3D
100
AcDbXrecord
280
     1
270
     1
271
     1
  0
XRECORD
  5
42
102
{ACAD_REACTORS
330
3D
102
}
330
3D
100
AcDbXrecord
280
     1
270
     1
271
     1
  0
XRECORD
  5
41
102
{ACAD_REACTORS
330
3D
102
}
330
3D
100
AcDbXrecord
280
     1
270
     1
271
     1
  0
XRECORD
  5
43
102
{ACAD_REACTORS
330
3D
102
}
330
3D
100
AcDbXrecord
280
     1
270
     1
271
     1
  0
XRECORD
  5
40
102
{ACAD_REACTORS
330
3D
102
}
330
3D
100
AcDbXrecord
280
     1
270
     1
271
     1
  0
XRECORD
  5
7D48
102
{ACAD_REACTORS
330
35
102
}
330
35
100
AcDbXrecord
280
     1
102
MATERIAL
148
0.0
149
0.0
149
0.0
 93
        0
 94
      127
282
     0
 72
     0
 77
     0
171
     0
175
     0
179
     0
273
     0
  0
XRECORD
  5
37
102
{ACAD_REACTORS
330
35
102
}
330
35
100
AcDbXrecord
280
     1
270
     1
271
     1
  0
XRECORD
  5
36
102
{ACAD_REACTORS
330
35
102
}
330
35
100
AcDbXrecord
280
     1
270
     1
271
     1
  0
XRECORD
  5
3A
102
{ACAD_REACTORS
330
35
102
}
330
35
100
AcDbXrecord
280
     1
270
     1
271
     1
  0
XRECORD
  5
39
102
{ACAD_REACTORS
330
35
102
}
330
35
100
AcDbXrecord
280
     1
270
     1
271
     1
  0
XRECORD
  5
3B
102
{ACAD_REACTORS
330
35
102
}
330
35
100
AcDbXrecord
280
     1
270
     1
271
     1
  0
XRECORD
  5
38
102
{ACAD_REACTORS
330
35
102
}
330
35
100
AcDbXrecord
280
     1
270
     1
271
     1
  0
XRECORD
  5
7D4A
102
{ACAD_REACTORS
330
45
102
}
330
45
100
AcDbXrecord
280
     1
102
MATERIAL
148
0.0
149
0.0
149
0.0
 93
        0
 94
      127
282
     0
 72
     0
 77
     0
171
     0
175
     0
179
     0
273
     0
  0
XRECORD
  5
47
102
{ACAD_REACTORS
330
45
102
}
330
45
100
AcDbXrecord
280
     1
270
     1
271
     1
  0
XRECORD
  5
46
102
{ACAD_REACTORS
330
45
102
}
330
45
100
AcDbXrecord
280
     1
270
     1
271
     1
  0
XRECORD
  5
4A
102
{ACAD_REACTORS
330
45
102
}
330
45
100
AcDbXrecord
280
     1
270
     1
271
     1
  0
XRECORD
  5
49
102
{ACAD_REACTORS
330
45
102
}
330
45
100
AcDbXrecord
280
     1
270
     1
271
     1
  0
XRECORD
  5
4B
102
{ACAD_REACTORS
330
45
102
}
330
45
100
AcDbXrecord
280
     1
270
     1
271
     1
  0
XRECORD
  5
48
102
{ACAD_REACTORS
330
45
102
}
330
45
100
AcDbXrecord
280
     1
270
     1
271
     1
  0
CELLSTYLEMAP
  5
7D40
102
{ACAD_REACTORS
330
87
102
}
330
87
100
AcDbCellStyleMap
 90
        3
300
CELLSTYLE
  1
TABLEFORMAT_BEGIN
 90
        5
170
     1
 91
        0
 92
    32768
 62
   257
 93
        1
300
CONTENTFORMAT
  1
CONTENTFORMAT_BEGIN
 90
        0
 91
        0
 92
      512
 93
        0
300

 40
0.0
140
1.0
 94
        5
 62
     0
340
11
144
0.25
309
CONTENTFORMAT_END
171
     0
 94
        0
309
TABLEFORMAT_END
  1
CELLSTYLE_BEGIN
 90
        1
 91
        1
300
_TITLE
309
CELLSTYLE_END
300
CELLSTYLE
  1
TABLEFORMAT_BEGIN
 90
        5
170
     1
 91
        0
 92
        0
 62
   257
 93
        1
300
CONTENTFORMAT
  1
CONTENTFORMAT_BEGIN
 90
        0
 91
        0
 92
      512
 93
        0
300

 40
0.0
140
1.0
 94
        5
 62
     0
340
11
144
0.18
309
CONTENTFORMAT_END
171
     0
 94
        0
309
TABLEFORMAT_END
  1
CELLSTYLE_BEGIN
 90
        2
 91
        1
300
_HEADER
309
CELLSTYLE_END
300
CELLSTYLE
  1
TABLEFORMAT_BEGIN
 90
        5
170
     1
 91
        0
 92
        0
 62
   257
 93
        1
300
CONTENTFORMAT
  1
CONTENTFORMAT_BEGIN
 90
        0
 91
        0
 92
      512
 93
        0
300

 40
0.0
140
1.0
 94
        2
 62
     0
340
11
144
0.18
309
CONTENTFORMAT_END
171
     0
 94
        0
309
TABLEFORMAT_END
  1
CELLSTYLE_BEGIN
 90
        3
 91
        2
300
_DATA
309
CELLSTYLE_END
  0
XRECORD
  5
7D4B
102
{ACAD_REACTORS
330
87
102
}
330
87
100
AcDbXrecord
280
     1
102
ACAD_ROUNDTRIP_PRE2007_TABLESTYLE
 90
      512
 91
        0
  1

 92
      512
 93
        0
  2

 94
      512
 95
        0
  3

  0
XRECORD
  5
7D12
102
{ACAD_REACTORS
330
7D11
102
}
330
7D11
100
AcDbXrecord
280
     1
102
RTVSPropertyOp0
 70
     1
102
RTVSPropertyOp1
 70
     1
102
RTVSPropertyOp2
 70
     1
102
RTVSPropertyOp3
 70
     1
102
RTVSPropertyOp4
 70
     1
102
RTVSPropertyOp5
 70
     1
102
RTVSPropertyOp6
 70
     1
102
RTVSPropertyOp7
 70
     1
102
RTVSPropertyOp8
 70
     1
102
RTVSPropertyOp9
 70
     1
102
RTVSPropertyOp10
 70
     1
102
RTVSPropertyOp11
 70
     1
102
RTVSPropertyOp12
 70
     1
102
RTVSPropertyOp13
 70
     1
102
RTVSPropertyOp14
 70
     1
102
RTVSPropertyOp15
 70
     1
102
RTVSPropertyOp16
 70
     1
102
RTVSPropertyOp17
 70
     1
102
RTVSPropertyOp18
 70
     1
102
RTVSPropertyOp19
 70
     1
102
RTVSPropertyOp20
 70
     1
102
RTVSPropertyOp21
 70
     1
102
RTVSPropertyOp22
 70
     1
102
RTVSPropertyOp23
 70
     1
102
RTVSPropertyOp24
 70
     1
102
RTVSPropertyOp25
 70
     1
102
RTVSPropertyOp26
 70
     1
102
RTVSPropertyOp27
 70
     1
102
RTVSPropertyOp28
 70
     1
102
RTVSPropertyOp29
 70
     1
102
RTVSPropertyOp30
 70
     1
102
RTVSPropertyOp31
 70
     1
102
RTVSPropertyOp32
 70
     1
  0
XRECORD
  5
7D16
102
{ACAD_REACTORS
330
7D15
102
}
330
7D15
100
AcDbXrecord
280
     1
102
RTVSPropertyOp0
 70
     1
102
RTVSPropertyOp1
 70
     1
102
RTVSPropertyOp2
 70
     1
102
RTVSPropertyOp3
 70
     1
102
RTVSPropertyOp4
 70
     1
102
RTVSPropertyOp5
 70
     1
102
RTVSPropertyOp6
 70
     1
102
RTVSPropertyOp7
 70
     1
102
RTVSPropertyOp8
 70
     1
102
RTVSPropertyOp9
 70
     1
102
RTVSPropertyOp10
 70
     1
102
RTVSPropertyOp11
 70
     1
102
RTVSPropertyOp12
 70
     1
102
RTVSPropertyOp13
 70
     1
102
RTVSPropertyOp14
 70
     1
102
RTVSPropertyOp15
 70
     1
102
RTVSPropertyOp16
 70
     1
102
RTVSPropertyOp17
 70
     1
102
RTVSPropertyOp18
 70
     1
102
RTVSPropertyOp19
 70
     1
102
RTVSPropertyOp20
 70
     1
102
RTVSPropertyOp21
 70
     1
102
RTVSPropertyOp22
 70
     1
102
RTVSPropertyOp23
 70
     1
102
RTVSPropertyOp24
 70
     1
102
RTVSPropertyOp25
 70
     1
102
RTVSPropertyOp26
 70
     1
102
RTVSPropertyOp27
 70
     1
102
RTVSPropertyOp28
 70
     1
102
RTVSPropertyOp29
 70
     1
102
RTVSPropertyOp30
 70
     1
102
RTVSPropertyOp31
 70
     1
102
RTVSPropertyOp32
 70
     1
  0
XRECORD
  5
7D14
102
{ACAD_REACTORS
330
7D13
102
}
330
7D13
100
AcDbXrecord
280
     1
102
RTVSPropertyOp0
 70
     1
102
RTVSPropertyOp1
 70
     1
102
RTVSPropertyOp2
 70
     1
102
RTVSPropertyOp3
 70
     1
102
RTVSPropertyOp4
 70
     1
102
RTVSPropertyOp5
 70
     1
102
RTVSPropertyOp6
 70
     1
102
RTVSPropertyOp7
 70
     1
102
RTVSPropertyOp8
 70
     1
102
RTVSPropertyOp9
 70
     1
102
RTVSPropertyOp10
 70
     1
102
RTVSPropertyOp11
 70
     1
102
RTVSPropertyOp12
 70
     1
102
RTVSPropertyOp13
 70
     1
102
RTVSPropertyOp14
 70
     1
102
RTVSPropertyOp15
 70
     1
102
RTVSPropertyOp16
 70
     1
102
RTVSPropertyOp17
 70
     1
102
RTVSPropertyOp18
 70
     1
102
RTVSPropertyOp19
 70
     1
102
RTVSPropertyOp20
 70
     1
102
RTVSPropertyOp21
 70
     1
102
RTVSPropertyOp22
 70
     1
102
RTVSPropertyOp23
 70
     1
102
RTVSPropertyOp24
 70
     1
102
RTVSPropertyOp25
 70
     1
102
RTVSPropertyOp26
 70
     1
102
RTVSPropertyOp27
 70
     1
102
RTVSPropertyOp28
 70
     1
102
RTVSPropertyOp29
 70
     1
102
RTVSPropertyOp30
 70
     1
102
RTVSPropertyOp31
 70
     1
102
RTVSPropertyOp32
 70
     1
  0
XRECORD
  5
7D10
102
{ACAD_REACTORS
330
7D0F
102
}
330
7D0F
100
AcDbXrecord
280
     1
102
RTVSPropertyOp0
 70
     1
102
RTVSPropertyOp1
 70
     1
102
RTVSPropertyOp2
 70
     1
102
RTVSPropertyOp3
 70
     1
102
RTVSPropertyOp4
 70
     1
102
RTVSPropertyOp5
 70
     1
102
RTVSPropertyOp6
 70
     1
102
RTVSPropertyOp7
 70
     1
102
RTVSPropertyOp8
 70
     1
102
RTVSPropertyOp9
 70
     1
102
RTVSPropertyOp10
 70
     1
102
RTVSPropertyOp11
 70
     1
102
RTVSPropertyOp12
 70
     1
102
RTVSPropertyOp13
 70
     1
102
RTVSPropertyOp14
 70
     1
102
RTVSPropertyOp15
 70
     1
102
RTVSPropertyOp16
 70
     1
102
RTVSPropertyOp17
 70
     1
102
RTVSPropertyOp18
 70
     1
102
RTVSPropertyOp19
 70
     1
102
RTVSPropertyOp20
 70
     1
102
RTVSPropertyOp21
 70
     1
102
RTVSPropertyOp22
 70
     1
102
RTVSPropertyOp23
 70
     1
102
RTVSPropertyOp24
 70
     1
102
RTVSPropertyOp25
 70
     1
102
RTVSPropertyOp26
 70
     1
102
RTVSPropertyOp27
 70
     1
102
RTVSPropertyOp28
 70
     1
102
RTVSPropertyOp29
 70
     1
102
RTVSPropertyOp30
 70
     1
102
RTVSPropertyOp31
 70
     1
102
RTVSPropertyOp32
 70
     1
  0
XRECORD
  5
7D1E
102
{ACAD_REACTORS
330
7D1D
102
}
330
7D1D
100
AcDbXrecord
280
     1
102
RTVSPropertyOp0
 70
     1
102
RTVSPropertyOp1
 70
     1
102
RTVSPropertyOp2
 70
     1
102
RTVSPropertyOp3
 70
     1
102
RTVSPropertyOp4
 70
     1
102
RTVSPropertyOp5
 70
     1
102
RTVSPropertyOp6
 70
     1
102
RTVSPropertyOp7
 70
     1
102
RTVSPropertyOp8
 70
     1
102
RTVSPropertyOp9
 70
     1
102
RTVSPropertyOp10
 70
     1
102
RTVSPropertyOp11
 70
     1
102
RTVSPropertyOp12
 70
     1
102
RTVSPropertyOp13
 70
     1
102
RTVSPropertyOp14
 70
     1
102
RTVSPropertyOp15
 70
     1
102
RTVSPropertyOp16
 70
     1
102
RTVSPropertyOp17
 70
     1
102
RTVSPropertyOp18
 70
     1
102
RTVSPropertyOp19
 70
     1
102
RTVSPropertyOp20
 70
     1
102
RTVSPropertyOp21
 70
     1
102
RTVSPropertyOp22
 70
     1
102
RTVSPropertyOp23
 70
     1
102
RTVSPropertyOp24
 70
     1
102
RTVSPropertyOp25
 70
     1
102
RTVSPropertyOp26
 70
     1
102
RTVSPropertyOp27
 70
     1
102
RTVSPropertyOp28
 70
     1
102
RTVSPropertyOp29
 70
     1
102
RTVSPropertyOp30
 70
     1
102
RTVSPropertyOp31
 70
     1
102
RTVSPropertyOp32
 70
     1
  0
XRECORD
  5
7D26
102
{ACAD_REACTORS
330
7D25
102
}
330
7D25
100
AcDbXrecord
280
     1
102
RTVSPropertyOp0
 70
     1
102
RTVSPropertyOp1
 70
     1
102
RTVSPropertyOp2
 70
     1
102
RTVSPropertyOp3
 70
     1
102
RTVSPropertyOp4
 70
     1
102
RTVSPropertyOp5
 70
     1
102
RTVSPropertyOp6
 70
     1
102
RTVSPropertyOp7
 70
     1
102
RTVSPropertyOp8
 70
     1
102
RTVSPropertyOp9
 70
     1
102
RTVSPropertyOp10
 70
     1
102
RTVSPropertyOp11
 70
     1
102
RTVSPropertyOp12
 70
     1
102
RTVSPropertyOp13
 70
     1
102
RTVSPropertyOp14
 70
     1
102
RTVSPropertyOp15
 70
     1
102
RTVSPropertyOp16
 70
     1
102
RTVSPropertyOp17
 70
     1
102
RTVSPropertyOp18
 70
     1
102
RTVSPropertyOp19
 70
     1
102
RTVSPropertyOp20
 70
     1
102
RTVSPropertyOp21
 70
     1
102
RTVSPropertyOp22
 70
     1
102
RTVSPropertyOp23
 70
     1
102
RTVSPropertyOp24
 70
     1
102
RTVSPropertyOp25
 70
     1
102
RTVSPropertyOp26
 70
     1
102
RTVSPropertyOp27
 70
     1
102
RTVSPropertyOp28
 70
     1
102
RTVSPropertyOp29
 70
     1
102
RTVSPropertyOp30
 70
     1
102
RTVSPropertyOp31
 70
     1
102
RTVSPropertyOp32
 70
     1
  0
XRECORD
  5
7D18
102
{ACAD_REACTORS
330
7D17
102
}
330
7D17
100
AcDbXrecord
280
     1
102
RTVSPropertyOp0
 70
     1
102
RTVSPropertyOp1
 70
     1
102
RTVSPropertyOp2
 70
     1
102
RTVSPropertyOp3
 70
     1
102
RTVSPropertyOp4
 70
     1
102
RTVSPropertyOp5
 70
     1
102
RTVSPropertyOp6
 70
     1
102
RTVSPropertyOp7
 70
     1
102
RTVSPropertyOp8
 70
     1
102
RTVSPropertyOp9
 70
     1
102
RTVSPropertyOp10
 70
     1
102
RTVSPropertyOp11
 70
     1
102
RTVSPropertyOp12
 70
     1
102
RTVSPropertyOp13
 70
     1
102
RTVSPropertyOp14
 70
     1
102
RTVSPropertyOp15
 70
     1
102
RTVSPropertyOp16
 70
     1
102
RTVSPropertyOp17
 70
     1
102
RTVSPropertyOp18
 70
     1
102
RTVSPropertyOp19
 70
     1
102
RTVSPropertyOp20
 70
     1
102
RTVSPropertyOp21
 70
     1
102
RTVSPropertyOp22
 70
     1
102
RTVSPropertyOp23
 70
     1
102
RTVSPropertyOp24
 70
     1
102
RTVSPropertyOp25
 70
     1
102
RTVSPropertyOp26
 70
     1
102
RTVSPropertyOp27
 70
     1
102
RTVSPropertyOp28
 70
     1
102
RTVSPropertyOp29
 70
     1
102
RTVSPropertyOp30
 70
     1
102
RTVSPropertyOp31
 70
     1
102
RTVSPropertyOp32
 70
     1
  0
XRECORD
  5
7D1C
102
{ACAD_REACTORS
330
7D1B
102
}
330
7D1B
100
AcDbXrecord
280
     1
102
RTVSPropertyOp0
 70
     1
102
RTVSPropertyOp1
 70
     1
102
RTVSPropertyOp2
 70
     1
102
RTVSPropertyOp3
 70
     1
102
RTVSPropertyOp4
 70
     1
102
RTVSPropertyOp5
 70
     1
102
RTVSPropertyOp6
 70
     1
102
RTVSPropertyOp7
 70
     1
102
RTVSPropertyOp8
 70
     1
102
RTVSPropertyOp9
 70
     1
102
RTVSPropertyOp10
 70
     1
102
RTVSPropertyOp11
 70
     1
102
RTVSPropertyOp12
 70
     1
102
RTVSPropertyOp13
 70
     1
102
RTVSPropertyOp14
 70
     1
102
RTVSPropertyOp15
 70
     1
102
RTVSPropertyOp16
 70
     1
102
RTVSPropertyOp17
 70
     1
102
RTVSPropertyOp18
 70
     1
102
RTVSPropertyOp19
 70
     1
102
RTVSPropertyOp20
 70
     1
102
RTVSPropertyOp21
 70
     1
102
RTVSPropertyOp22
 70
     1
102
RTVSPropertyOp23
 70
     1
102
RTVSPropertyOp24
 70
     1
102
RTVSPropertyOp25
 70
     1
102
RTVSPropertyOp26
 70
     1
102
RTVSPropertyOp27
 70
     1
102
RTVSPropertyOp28
 70
     1
102
RTVSPropertyOp29
 70
     1
102
RTVSPropertyOp30
 70
     1
102
RTVSPropertyOp31
 70
     1
102
RTVSPropertyOp32
 70
     1
  0
XRECORD
  5
7D3B
102
{ACAD_REACTORS
330
7D3A
102
}
330
7D3A
100
AcDbXrecord
280
     1
102
RTVSPropertyOp0
 70
     0
102
RTVSPropertyOp1
 70
     0
102
RTVSPropertyOp2
 70
     0
102
RTVSPropertyOp3
 70
     0
102
RTVSPropertyOp4
 70
     0
102
RTVSPropertyOp5
 70
     0
102
RTVSPropertyOp6
 70
     0
102
RTVSPropertyOp7
 70
     0
102
RTVSPropertyOp8
 70
     0
102
RTVSPropertyOp9
 70
     0
102
RTVSPropertyOp10
 70
     0
102
RTVSPropertyOp11
 70
     0
102
RTVSPropertyOp12
 70
     0
102
RTVSPropertyOp13
 70
     0
102
RTVSPropertyOp14
 70
     2
102
RTVSPropertyOp15
 70
     0
102
RTVSPropertyOp16
 70
     0
102
RTVSPropertyOp17
 70
     0
102
RTVSPropertyOp18
 70
     0
102
RTVSPropertyOp19
 70
     0
102
RTVSPropertyOp20
 70
     0
102
RTVSPropertyOp21
 70
     0
102
RTVSPropertyOp22
 70
     0
102
RTVSPropertyOp23
 70
     0
102
RTVSPropertyOp24
 70
     0
102
RTVSPropertyOp25
 70
     0
102
RTVSPropertyOp26
 70
     0
102
RTVSPropertyOp27
 70
     0
102
RTVSPropertyOp28
 70
     0
102
RTVSPropertyOp29
 70
     0
102
RTVSPropertyOp30
 70
     0
102
RTVSPropertyOp31
 70
     0
102
RTVSPropertyOp32
 70
     0
  0
XRECORD
  5
7D24
102
{ACAD_REACTORS
330
7D23
102
}
330
7D23
100
AcDbXrecord
280
     1
102
RTVSPropertyOp0
 70
     1
102
RTVSPropertyOp1
 70
     1
102
RTVSPropertyOp2
 70
     1
102
RTVSPropertyOp3
 70
     1
102
RTVSPropertyOp4
 70
     1
102
RTVSPropertyOp5
 70
     1
102
RTVSPropertyOp6
 70
     1
102
RTVSPropertyOp7
 70
     1
102
RTVSPropertyOp8
 70
     1
102
RTVSPropertyOp9
 70
     1
102
RTVSPropertyOp10
 70
     1
102
RTVSPropertyOp11
 70
     1
102
RTVSPropertyOp12
 70
     1
102
RTVSPropertyOp13
 70
     1
102
RTVSPropertyOp14
 70
     1
102
RTVSPropertyOp15
 70
     1
102
RTVSPropertyOp16
 70
     1
102
RTVSPropertyOp17
 70
     1
102
RTVSPropertyOp18
 70
     1
102
RTVSPropertyOp19
 70
     1
102
RTVSPropertyOp20
 70
     1
102
RTVSPropertyOp21
 70
     1
102
RTVSPropertyOp22
 70
     1
102
RTVSPropertyOp23
 70
     1
102
RTVSPropertyOp24
 70
     1
102
RTVSPropertyOp25
 70
     1
102
RTVSPropertyOp26
 70
     1
102
RTVSPropertyOp27
 70
     1
102
RTVSPropertyOp28
 70
     1
102
RTVSPropertyOp29
 70
     1
102
RTVSPropertyOp30
 70
     1
102
RTVSPropertyOp31
 70
     1
102
RTVSPropertyOp32
 70
     1
  0
XRECORD
  5
7D08
102
{ACAD_REACTORS
330
7D07
102
}
330
7D07
100
AcDbXrecord
280
     1
102
RTVSPropertyOp0
 70
     1
102
RTVSPropertyOp1
 70
     1
102
RTVSPropertyOp2
 70
     1
102
RTVSPropertyOp3
 70
     1
102
RTVSPropertyOp4
 70
     1
102
RTVSPropertyOp5
 70
     1
102
RTVSPropertyOp6
 70
     1
102
RTVSPropertyOp7
 70
     1
102
RTVSPropertyOp8
 70
     1
102
RTVSPropertyOp9
 70
     1
102
RTVSPropertyOp10
 70
     1
102
RTVSPropertyOp11
 70
     1
102
RTVSPropertyOp12
 70
     1
102
RTVSPropertyOp13
 70
     1
102
RTVSPropertyOp14
 70
     1
102
RTVSPropertyOp15
 70
     1
102
RTVSPropertyOp16
 70
     1
102
RTVSPropertyOp17
 70
     1
102
RTVSPropertyOp18
 70
     1
102
RTVSPropertyOp19
 70
     1
102
RTVSPropertyOp20
 70
     1
102
RTVSPropertyOp21
 70
     1
102
RTVSPropertyOp22
 70
     1
102
RTVSPropertyOp23
 70
     1
102
RTVSPropertyOp24
 70
     1
102
RTVSPropertyOp25
 70
     1
102
RTVSPropertyOp26
 70
     1
102
RTVSPropertyOp27
 70
     1
102
RTVSPropertyOp28
 70
     1
102
RTVSPropertyOp29
 70
     1
102
RTVSPropertyOp30
 70
     1
102
RTVSPropertyOp31
 70
     1
102
RTVSPropertyOp32
 70
     1
  0
XRECORD
  5
7D0A
102
{ACAD_REACTORS
330
7D09
102
}
330
7D09
100
AcDbXrecord
280
     1
102
RTVSPropertyOp0
 70
     1
102
RTVSPropertyOp1
 70
     1
102
RTVSPropertyOp2
 70
     1
102
RTVSPropertyOp3
 70
     1
102
RTVSPropertyOp4
 70
     1
102
RTVSPropertyOp5
 70
     1
102
RTVSPropertyOp6
 70
     1
102
RTVSPropertyOp7
 70
     1
102
RTVSPropertyOp8
 70
     1
102
RTVSPropertyOp9
 70
     1
102
RTVSPropertyOp10
 70
     1
102
RTVSPropertyOp11
 70
     1
102
RTVSPropertyOp12
 70
     1
102
RTVSPropertyOp13
 70
     1
102
RTVSPropertyOp14
 70
     1
102
RTVSPropertyOp15
 70
     1
102
RTVSPropertyOp16
 70
     1
102
RTVSPropertyOp17
 70
     1
102
RTVSPropertyOp18
 70
     1
102
RTVSPropertyOp19
 70
     1
102
RTVSPropertyOp20
 70
     1
102
RTVSPropertyOp21
 70
     1
102
RTVSPropertyOp22
 70
     1
102
RTVSPropertyOp23
 70
     1
102
RTVSPropertyOp24
 70
     1
102
RTVSPropertyOp25
 70
     1
102
RTVSPropertyOp26
 70
     1
102
RTVSPropertyOp27
 70
     1
102
RTVSPropertyOp28
 70
     1
102
RTVSPropertyOp29
 70
     1
102
RTVSPropertyOp30
 70
     1
102
RTVSPropertyOp31
 70
     1
102
RTVSPropertyOp32
 70
     1
  0
XRECORD
  5
7D0C
102
{ACAD_REACTORS
330
7D0B
102
}
330
7D0B
100
AcDbXrecord
280
     1
102
RTVSPropertyOp0
 70
     1
102
RTVSPropertyOp1
 70
     1
102
RTVSPropertyOp2
 70
     1
102
RTVSPropertyOp3
 70
     1
102
RTVSPropertyOp4
 70
     1
102
RTVSPropertyOp5
 70
     1
102
RTVSPropertyOp6
 70
     1
102
RTVSPropertyOp7
 70
     1
102
RTVSPropertyOp8
 70
     1
102
RTVSPropertyOp9
 70
     1
102
RTVSPropertyOp10
 70
     1
102
RTVSPropertyOp11
 70
     1
102
RTVSPropertyOp12
 70
     1
102
RTVSPropertyOp13
 70
     1
102
RTVSPropertyOp14
 70
     1
102
RTVSPropertyOp15
 70
     1
102
RTVSPropertyOp16
 70
     1
102
RTVSPropertyOp17
 70
     1
102
RTVSPropertyOp18
 70
     1
102
RTVSPropertyOp19
 70
     1
102
RTVSPropertyOp20
 70
     1
102
RTVSPropertyOp21
 70
     1
102
RTVSPropertyOp22
 70
     1
102
RTVSPropertyOp23
 70
     1
102
RTVSPropertyOp24
 70
     1
102
RTVSPropertyOp25
 70
     1
102
RTVSPropertyOp26
 70
     1
102
RTVSPropertyOp27
 70
     1
102
RTVSPropertyOp28
 70
     1
102
RTVSPropertyOp29
 70
     1
102
RTVSPropertyOp30
 70
     1
102
RTVSPropertyOp31
 70
     1
102
RTVSPropertyOp32
 70
     1
  0
XRECORD
  5
7D0E
102
{ACAD_REACTORS
330
7D0D
102
}
330
7D0D
100
AcDbXrecord
280
     1
102
RTVSPropertyOp0
 70
     1
102
RTVSPropertyOp1
 70
     1
102
RTVSPropertyOp2
 70
     1
102
RTVSPropertyOp3
 70
     1
102
RTVSPropertyOp4
 70
     1
102
RTVSPropertyOp5
 70
     1
102
RTVSPropertyOp6
 70
     1
102
RTVSPropertyOp7
 70
     1
102
RTVSPropertyOp8
 70
     1
102
RTVSPropertyOp9
 70
     1
102
RTVSPropertyOp10
 70
     1
102
RTVSPropertyOp11
 70
     1
102
RTVSPropertyOp12
 70
     1
102
RTVSPropertyOp13
 70
     1
102
RTVSPropertyOp14
 70
     1
102
RTVSPropertyOp15
 70
     1
102
RTVSPropertyOp16
 70
     1
102
RTVSPropertyOp17
 70
     1
102
RTVSPropertyOp18
 70
     1
102
RTVSPropertyOp19
 70
     1
102
RTVSPropertyOp20
 70
     1
102
RTVSPropertyOp21
 70
     1
102
RTVSPropertyOp22
 70
     1
102
RTVSPropertyOp23
 70
     1
102
RTVSPropertyOp24
 70
     1
102
RTVSPropertyOp25
 70
     1
102
RTVSPropertyOp26
 70
     1
102
RTVSPropertyOp27
 70
     1
102
RTVSPropertyOp28
 70
     1
102
RTVSPropertyOp29
 70
     1
102
RTVSPropertyOp30
 70
     1
102
RTVSPropertyOp31
 70
     1
102
RTVSPropertyOp32
 70
     1
  0
XRECORD
  5
7D2B
102
{ACAD_REACTORS
330
7D2A
102
}
330
7D2A
100
AcDbXrecord
280
     1
102
RTVSPropertyOp0
 70
     1
102
RTVSPropertyOp1
 70
     1
102
RTVSPropertyOp2
 70
     1
102
RTVSPropertyOp3
 70
     1
102
RTVSPropertyOp4
 70
     1
102
RTVSPropertyOp5
 70
     1
102
RTVSPropertyOp6
 70
     1
102
RTVSPropertyOp7
 70
     1
102
RTVSPropertyOp8
 70
     1
102
RTVSPropertyOp9
 70
     1
102
RTVSPropertyOp10
 70
     1
102
RTVSPropertyOp11
 70
     1
102
RTVSPropertyOp12
 70
     1
102
RTVSPropertyOp13
 70
     1
102
RTVSPropertyOp14
 70
     1
102
RTVSPropertyOp15
 70
     1
102
RTVSPropertyOp16
 70
     1
102
RTVSPropertyOp17
 70
     1
102
RTVSPropertyOp18
 70
     1
102
RTVSPropertyOp19
 70
     1
102
RTVSPropertyOp20
 70
     1
102
RTVSPropertyOp21
 70
     1
102
RTVSPropertyOp22
 70
     1
102
RTVSPropertyOp23
 70
     1
102
RTVSPropertyOp24
 70
     1
102
RTVSPropertyOp25
 70
     1
102
RTVSPropertyOp26
 70
     1
102
RTVSPropertyOp27
 70
     1
102
RTVSPropertyOp28
 70
     1
102
RTVSPropertyOp29
 70
     1
102
RTVSPropertyOp30
 70
     1
102
RTVSPropertyOp31
 70
     1
102
RTVSPropertyOp32
 70
     1
  0
XRECORD
  5
7D37
102
{ACAD_REACTORS
330
7D36
102
}
330
7D36
100
AcDbXrecord
280
     1
102
RTVSPropertyOp0
 70
     0
102
RTVSPropertyOp1
 70
     0
102
RTVSPropertyOp2
 70
     0
102
RTVSPropertyOp3
 70
     0
102
RTVSPropertyOp4
 70
     0
102
RTVSPropertyOp5
 70
     0
102
RTVSPropertyOp6
 70
     0
102
RTVSPropertyOp7
 70
     0
102
RTVSPropertyOp8
 70
     0
102
RTVSPropertyOp9
 70
     0
102
RTVSPropertyOp10
 70
     0
102
RTVSPropertyOp11
 70
     0
102
RTVSPropertyOp12
 70
     0
102
RTVSPropertyOp13
 70
     0
102
RTVSPropertyOp14
 70
     2
102
RTVSPropertyOp15
 70
     0
102
RTVSPropertyOp16
 70
     0
102
RTVSPropertyOp17
 70
     0
102
RTVSPropertyOp18
 70
     0
102
RTVSPropertyOp19
 70
     0
102
RTVSPropertyOp20
 70
     0
102
RTVSPropertyOp21
 70
     0
102
RTVSPropertyOp22
 70
     0
102
RTVSPropertyOp23
 70
     0
102
RTVSPropertyOp24
 70
     0
102
RTVSPropertyOp25
 70
     0
102
RTVSPropertyOp26
 70
     0
102
RTVSPropertyOp27
 70
     0
102
RTVSPropertyOp28
 70
     0
102
RTVSPropertyOp29
 70
     0
102
RTVSPropertyOp30
 70
     0
102
RTVSPropertyOp31
 70
     0
102
RTVSPropertyOp32
 70
     0
  0
XRECORD
  5
7D22
102
{ACAD_REACTORS
330
7D21
102
}
330
7D21
100
AcDbXrecord
280
     1
102
RTVSPropertyOp0
 70
     1
102
RTVSPropertyOp1
 70
     1
102
RTVSPropertyOp2
 70
     1
102
RTVSPropertyOp3
 70
     1
102
RTVSPropertyOp4
 70
     1
102
RTVSPropertyOp5
 70
     1
102
RTVSPropertyOp6
 70
     1
102
RTVSPropertyOp7
 70
     1
102
RTVSPropertyOp8
 70
     1
102
RTVSPropertyOp9
 70
     1
102
RTVSPropertyOp10
 70
     1
102
RTVSPropertyOp11
 70
     1
102
RTVSPropertyOp12
 70
     1
102
RTVSPropertyOp13
 70
     1
102
RTVSPropertyOp14
 70
     1
102
RTVSPropertyOp15
 70
     1
102
RTVSPropertyOp16
 70
     1
102
RTVSPropertyOp17
 70
     1
102
RTVSPropertyOp18
 70
     1
102
RTVSPropertyOp19
 70
     1
102
RTVSPropertyOp20
 70
     1
102
RTVSPropertyOp21
 70
     1
102
RTVSPropertyOp22
 70
     1
102
RTVSPropertyOp23
 70
     1
102
RTVSPropertyOp24
 70
     1
102
RTVSPropertyOp25
 70
     1
102
RTVSPropertyOp26
 70
     1
102
RTVSPropertyOp27
 70
     1
102
RTVSPropertyOp28
 70
     1
102
RTVSPropertyOp29
 70
     1
102
RTVSPropertyOp30
 70
     1
102
RTVSPropertyOp31
 70
     1
102
RTVSPropertyOp32
 70
     1
  0
XRECORD
  5
7D39
102
{ACAD_REACTORS
330
7D38
102
}
330
7D38
100
AcDbXrecord
280
     1
102
RTVSPropertyOp0
 70
     0
102
RTVSPropertyOp1
 70
     0
102
RTVSPropertyOp2
 70
     0
102
RTVSPropertyOp3
 70
     0
102
RTVSPropertyOp4
 70
     0
102
RTVSPropertyOp5
 70
     0
102
RTVSPropertyOp6
 70
     0
102
RTVSPropertyOp7
 70
     0
102
RTVSPropertyOp8
 70
     0
102
RTVSPropertyOp9
 70
     0
102
RTVSPropertyOp10
 70
     0
102
RTVSPropertyOp11
 70
     0
102
RTVSPropertyOp12
 70
     0
102
RTVSPropertyOp13
 70
     0
102
RTVSPropertyOp14
 70
     2
102
RTVSPropertyOp15
 70
     0
102
RTVSPropertyOp16
 70
     0
102
RTVSPropertyOp17
 70
     0
102
RTVSPropertyOp18
 70
     0
102
RTVSPropertyOp19
 70
     0
102
RTVSPropertyOp20
 70
     0
102
RTVSPropertyOp21
 70
     0
102
RTVSPropertyOp22
 70
     0
102
RTVSPropertyOp23
 70
     0
102
RTVSPropertyOp24
 70
     0
102
RTVSPropertyOp25
 70
     0
102
RTVSPropertyOp26
 70
     0
102
RTVSPropertyOp27
 70
     0
102
RTVSPropertyOp28
 70
     0
102
RTVSPropertyOp29
 70
     0
102
RTVSPropertyOp30
 70
     0
102
RTVSPropertyOp31
 70
     0
102
RTVSPropertyOp32
 70
     0
  0
XRECORD
  5
7D1A
102
{ACAD_REACTORS
330
7D19
102
}
330
7D19
100
AcDbXrecord
280
     1
102
RTVSPropertyOp0
 70
     1
102
RTVSPropertyOp1
 70
     1
102
RTVSPropertyOp2
 70
     1
102
RTVSPropertyOp3
 70
     1
102
RTVSPropertyOp4
 70
     1
102
RTVSPropertyOp5
 70
     1
102
RTVSPropertyOp6
 70
     1
102
RTVSPropertyOp7
 70
     1
102
RTVSPropertyOp8
 70
     1
102
RTVSPropertyOp9
 70
     1
102
RTVSPropertyOp10
 70
     1
102
RTVSPropertyOp11
 70
     1
102
RTVSPropertyOp12
 70
     1
102
RTVSPropertyOp13
 70
     1
102
RTVSPropertyOp14
 70
     1
102
RTVSPropertyOp15
 70
     1
102
RTVSPropertyOp16
 70
     1
102
RTVSPropertyOp17
 70
     1
102
RTVSPropertyOp18
 70
     1
102
RTVSPropertyOp19
 70
     1
102
RTVSPropertyOp20
 70
     1
102
RTVSPropertyOp21
 70
     1
102
RTVSPropertyOp22
 70
     1
102
RTVSPropertyOp23
 70
     1
102
RTVSPropertyOp24
 70
     1
102
RTVSPropertyOp25
 70
     1
102
RTVSPropertyOp26
 70
     1
102
RTVSPropertyOp27
 70
     1
102
RTVSPropertyOp28
 70
     1
102
RTVSPropertyOp29
 70
     1
102
RTVSPropertyOp30
 70
     1
102
RTVSPropertyOp31
 70
     1
102
RTVSPropertyOp32
 70
     1
  0
XRECORD
  5
7D35
102
{ACAD_REACTORS
330
7D34
102
}
330
7D34
100
AcDbXrecord
280
     1
102
RTVSPropertyOp0
 70
     1
102
RTVSPropertyOp1
 70
     1
102
RTVSPropertyOp2
 70
     1
102
RTVSPropertyOp3
 70
     1
102
RTVSPropertyOp4
 70
     1
102
RTVSPropertyOp5
 70
     1
102
RTVSPropertyOp6
 70
     1
102
RTVSPropertyOp7
 70
     1
102
RTVSPropertyOp8
 70
     1
102
RTVSPropertyOp9
 70
     1
102
RTVSPropertyOp10
 70
     1
102
RTVSPropertyOp11
 70
     1
102
RTVSPropertyOp12
 70
     1
102
RTVSPropertyOp13
 70
     1
102
RTVSPropertyOp14
 70
     1
102
RTVSPropertyOp15
 70
     1
102
RTVSPropertyOp16
 70
     1
102
RTVSPropertyOp17
 70
     1
102
RTVSPropertyOp18
 70
     1
102
RTVSPropertyOp19
 70
     1
102
RTVSPropertyOp20
 70
     1
102
RTVSPropertyOp21
 70
     1
102
RTVSPropertyOp22
 70
     1
102
RTVSPropertyOp23
 70
     1
102
RTVSPropertyOp24
 70
     1
102
RTVSPropertyOp25
 70
     1
102
RTVSPropertyOp26
 70
     1
102
RTVSPropertyOp27
 70
     1
102
RTVSPropertyOp28
 70
     1
102
RTVSPropertyOp29
 70
     1
102
RTVSPropertyOp30
 70
     1
102
RTVSPropertyOp31
 70
     1
102
RTVSPropertyOp32
 70
     1
  0
XRECORD
  5
7D33
102
{ACAD_REACTORS
330
7D32
102
}
330
7D32
100
AcDbXrecord
280
     1
102
RTVSPropertyOp0
 70
     1
102
RTVSPropertyOp1
 70
     1
102
RTVSPropertyOp2
 70
     1
102
RTVSPropertyOp3
 70
     1
102
RTVSPropertyOp4
 70
     1
102
RTVSPropertyOp5
 70
     1
102
RTVSPropertyOp6
 70
     1
102
RTVSPropertyOp7
 70
     1
102
RTVSPropertyOp8
 70
     1
102
RTVSPropertyOp9
 70
     1
102
RTVSPropertyOp10
 70
     1
102
RTVSPropertyOp11
 70
     1
102
RTVSPropertyOp12
 70
     1
102
RTVSPropertyOp13
 70
     1
102
RTVSPropertyOp14
 70
     1
102
RTVSPropertyOp15
 70
     1
102
RTVSPropertyOp16
 70
     1
102
RTVSPropertyOp17
 70
     1
102
RTVSPropertyOp18
 70
     1
102
RTVSPropertyOp19
 70
     1
102
RTVSPropertyOp20
 70
     1
102
RTVSPropertyOp21
 70
     1
102
RTVSPropertyOp22
 70
     1
102
RTVSPropertyOp23
 70
     1
102
RTVSPropertyOp24
 70
     1
102
RTVSPropertyOp25
 70
     1
102
RTVSPropertyOp26
 70
     1
102
RTVSPropertyOp27
 70
     1
102
RTVSPropertyOp28
 70
     1
102
RTVSPropertyOp29
 70
     1
102
RTVSPropertyOp30
 70
     1
102
RTVSPropertyOp31
 70
     1
102
RTVSPropertyOp32
 70
     1
  0
XRECORD
  5
7D2D
102
{ACAD_REACTORS
330
7D2C
102
}
330
7D2C
100
AcDbXrecord
280
     1
102
RTVSPropertyOp0
 70
     1
102
RTVSPropertyOp1
 70
     1
102
RTVSPropertyOp2
 70
     1
102
RTVSPropertyOp3
 70
     1
102
RTVSPropertyOp4
 70
     1
102
RTVSPropertyOp5
 70
     1
102
RTVSPropertyOp6
 70
     1
102
RTVSPropertyOp7
 70
     1
102
RTVSPropertyOp8
 70
     1
102
RTVSPropertyOp9
 70
     1
102
RTVSPropertyOp10
 70
     1
102
RTVSPropertyOp11
 70
     1
102
RTVSPropertyOp12
 70
     1
102
RTVSPropertyOp13
 70
     1
102
RTVSPropertyOp14
 70
     1
102
RTVSPropertyOp15
 70
     1
102
RTVSPropertyOp16
 70
     1
102
RTVSPropertyOp17
 70
     1
102
RTVSPropertyOp18
 70
     1
102
RTVSPropertyOp19
 70
     1
102
RTVSPropertyOp20
 70
     1
102
RTVSPropertyOp21
 70
     1
102
RTVSPropertyOp22
 70
     1
102
RTVSPropertyOp23
 70
     1
102
RTVSPropertyOp24
 70
     1
102
RTVSPropertyOp25
 70
     1
102
RTVSPropertyOp26
 70
     1
102
RTVSPropertyOp27
 70
     1
102
RTVSPropertyOp28
 70
     1
102
RTVSPropertyOp29
 70
     1
102
RTVSPropertyOp30
 70
     1
102
RTVSPropertyOp31
 70
     1
102
RTVSPropertyOp32
 70
     1
  0
XRECORD
  5
7D2F
102
{ACAD_REACTORS
330
7D2E
102
}
330
7D2E
100
AcDbXrecord
280
     1
102
RTVSPropertyOp0
 70
     1
102
RTVSPropertyOp1
 70
     1
102
RTVSPropertyOp2
 70
     1
102
RTVSPropertyOp3
 70
     1
102
RTVSPropertyOp4
 70
     1
102
RTVSPropertyOp5
 70
     1
102
RTVSPropertyOp6
 70
     1
102
RTVSPropertyOp7
 70
     1
102
RTVSPropertyOp8
 70
     1
102
RTVSPropertyOp9
 70
     1
102
RTVSPropertyOp10
 70
     1
102
RTVSPropertyOp11
 70
     1
102
RTVSPropertyOp12
 70
     1
102
RTVSPropertyOp13
 70
     1
102
RTVSPropertyOp14
 70
     1
102
RTVSPropertyOp15
 70
     1
102
RTVSPropertyOp16
 70
     1
102
RTVSPropertyOp17
 70
     1
102
RTVSPropertyOp18
 70
     1
102
RTVSPropertyOp19
 70
     1
102
RTVSPropertyOp20
 70
     1
102
RTVSPropertyOp21
 70
     1
102
RTVSPropertyOp22
 70
     1
102
RTVSPropertyOp23
 70
     1
102
RTVSPropertyOp24
 70
     1
102
RTVSPropertyOp25
 70
     1
102
RTVSPropertyOp26
 70
     1
102
RTVSPropertyOp27
 70
     1
102
RTVSPropertyOp28
 70
     1
102
RTVSPropertyOp29
 70
     1
102
RTVSPropertyOp30
 70
     1
102
RTVSPropertyOp31
 70
     1
102
RTVSPropertyOp32
 70
     1
  0
XRECORD
  5
7D20
102
{ACAD_REACTORS
330
7D1F
102
}
330
7D1F
100
AcDbXrecord
280
     1
102
RTVSPropertyOp0
 70
     1
102
RTVSPropertyOp1
 70
     1
102
RTVSPropertyOp2
 70
     1
102
RTVSPropertyOp3
 70
     1
102
RTVSPropertyOp4
 70
     1
102
RTVSPropertyOp5
 70
     1
102
RTVSPropertyOp6
 70
     1
102
RTVSPropertyOp7
 70
     1
102
RTVSPropertyOp8
 70
     1
102
RTVSPropertyOp9
 70
     1
102
RTVSPropertyOp10
 70
     1
102
RTVSPropertyOp11
 70
     1
102
RTVSPropertyOp12
 70
     1
102
RTVSPropertyOp13
 70
     1
102
RTVSPropertyOp14
 70
     1
102
RTVSPropertyOp15
 70
     1
102
RTVSPropertyOp16
 70
     1
102
RTVSPropertyOp17
 70
     1
102
RTVSPropertyOp18
 70
     1
102
RTVSPropertyOp19
 70
     1
102
RTVSPropertyOp20
 70
     1
102
RTVSPropertyOp21
 70
     1
102
RTVSPropertyOp22
 70
     1
102
RTVSPropertyOp23
 70
     1
102
RTVSPropertyOp24
 70
     1
102
RTVSPropertyOp25
 70
     1
102
RTVSPropertyOp26
 70
     1
102
RTVSPropertyOp27
 70
     1
102
RTVSPropertyOp28
 70
     1
102
RTVSPropertyOp29
 70
     1
102
RTVSPropertyOp30
 70
     1
102
RTVSPropertyOp31
 70
     1
102
RTVSPropertyOp32
 70
     1
  0
XRECORD
  5
7D29
102
{ACAD_REACTORS
330
7D28
102
}
330
7D28
100
AcDbXrecord
280
     1
102
RTVSPropertyOp0
 70
     1
102
RTVSPropertyOp1
 70
     1
102
RTVSPropertyOp2
 70
     1
102
RTVSPropertyOp3
 70
     1
102
RTVSPropertyOp4
 70
     1
102
RTVSPropertyOp5
 70
     1
102
RTVSPropertyOp6
 70
     1
102
RTVSPropertyOp7
 70
     1
102
RTVSPropertyOp8
 70
     1
102
RTVSPropertyOp9
 70
     1
102
RTVSPropertyOp10
 70
     1
102
RTVSPropertyOp11
 70
     1
102
RTVSPropertyOp12
 70
     1
102
RTVSPropertyOp13
 70
     1
102
RTVSPropertyOp14
 70
     1
102
RTVSPropertyOp15
 70
     1
102
RTVSPropertyOp16
 70
     1
102
RTVSPropertyOp17
 70
     1
102
RTVSPropertyOp18
 70
     1
102
RTVSPropertyOp19
 70
     1
102
RTVSPropertyOp20
 70
     1
102
RTVSPropertyOp21
 70
     1
102
RTVSPropertyOp22
 70
     1
102
RTVSPropertyOp23
 70
     1
102
RTVSPropertyOp24
 70
     1
102
RTVSPropertyOp25
 70
     1
102
RTVSPropertyOp26
 70
     1
102
RTVSPropertyOp27
 70
     1
102
RTVSPropertyOp28
 70
     1
102
RTVSPropertyOp29
 70
     1
102
RTVSPropertyOp30
 70
     1
102
RTVSPropertyOp31
 70
     1
102
RTVSPropertyOp32
 70
     1
  0
XRECORD
  5
7D31
102
{ACAD_REACTORS
330
7D30
102
}
330
7D30
100
AcDbXrecord
280
     1
102
RTVSPropertyOp0
 70
     1
102
RTVSPropertyOp1
 70
     1
102
RTVSPropertyOp2
 70
     1
102
RTVSPropertyOp3
 70
     1
102
RTVSPropertyOp4
 70
     1
102
RTVSPropertyOp5
 70
     1
102
RTVSPropertyOp6
 70
     1
102
RTVSPropertyOp7
 70
     1
102
RTVSPropertyOp8
 70
     1
102
RTVSPropertyOp9
 70
     1
102
RTVSPropertyOp10
 70
     1
102
RTVSPropertyOp11
 70
     1
102
RTVSPropertyOp12
 70
     1
102
RTVSPropertyOp13
 70
     1
102
RTVSPropertyOp14
 70
     1
102
RTVSPropertyOp15
 70
     1
102
RTVSPropertyOp16
 70
     1
102
RTVSPropertyOp17
 70
     1
102
RTVSPropertyOp18
 70
     1
102
RTVSPropertyOp19
 70
     1
102
RTVSPropertyOp20
 70
     1
102
RTVSPropertyOp21
 70
     1
102
RTVSPropertyOp22
 70
     1
102
RTVSPropertyOp23
 70
     1
102
RTVSPropertyOp24
 70
     1
102
RTVSPropertyOp25
 70
     1
102
RTVSPropertyOp26
 70
     1
102
RTVSPropertyOp27
 70
     1
102
RTVSPropertyOp28
 70
     1
102
RTVSPropertyOp29
 70
     1
102
RTVSPropertyOp30
 70
     1
102
RTVSPropertyOp31
 70
     1
102
RTVSPropertyOp32
 70
     1
  0
ENDSEC
  0
EOF
