  0
SECTION
  2
HEADER
  9
$ACADVER
  1
AC1015
  9
$ACADMAINTVER
 70
    18
  9
$DWGCODEPAGE
  3
ANSI_1252
  9
$INSBASE
 10
0.0
 20
0.0
 30
0.0
  9
$EXTMIN
 10
-0.0018951617589168
 20
-0.0006657314757203
 30
-0.0000000349181948
  9
$EXTMAX
 10
22.00091812167374
 20
17.00013867493208
 30
0.0000000814935746
  9
$LIMMIN
 10
0.0000000169183778
 20
0.000000006132197
  9
$LIMMAX
 10
34.00000001691838
 20
22.0000000061322
  9
$ORTHOMODE
 70
     1
  9
$REGENMODE
 70
     1
  9
$FILLMODE
 70
     1
  9
$QTEXTMODE
 70
     0
  9
$MIRRTEXT
 70
     1
  9
$LTSCALE
 40
0.5
  9
$ATTMODE
 70
     1
  9
$TEXTSIZE
 40
0.25
  9
$TRACEWID
 40
0.05
  9
$TEXTSTYLE
  7
Standard
  9
$CLAYER
  8
0
  9
$CELTYPE
  6
ByLayer
  9
$CECOLOR
 62
   256
  9
$CELTSCALE
 40
1.0
  9
$DISPSILH
 70
     0
  9
$DIMSCALE
 40
1.0
  9
$DIMASZ
 40
0.18
  9
$DIMEXO
 40
0.0625
  9
$DIMDLI
 40
0.38
  9
$DIMRND
 40
0.0
  9
$DIMDLE
 40
0.0
  9
$DIMEXE
 40
0.18
  9
$DIMTP
 40
0.0
  9
$DIMTM
 40
0.0
  9
$DIMTXT
 40
0.125
  9
$DIMCEN
 40
0.09
  9
$DIMTSZ
 40
0.0
  9
$DIMTOL
 70
     0
  9
$DIMLIM
 70
     0
  9
$DIMTIH
 70
     1
  9
$DIMTOH
 70
     1
  9
$DIMSE1
 70
     0
  9
$DIMSE2
 70
     0
  9
$DIMTAD
 70
     0
  9
$DIMZIN
 70
     0
  9
$DIMBLK
  1

  9
$DIMASO
 70
     1
  9
$DIMSHO
 70
     1
  9
$DIMPOST
  1

  9
$DIMAPOST
  1

  9
$DIMALT
 70
     1
  9
$DIMALTD
 70
     2
  9
$DIMALTF
 40
25.4
  9
$DIMLFAC
 40
1.0
  9
$DIMTOFL
 70
     0
  9
$DIMTVP
 40
0.0
  9
$DIMTIX
 70
     0
  9
$DIMSOXD
 70
     0
  9
$DIMSAH
 70
     0
  9
$DIMBLK1
  1

  9
$DIMBLK2
  1

  9
$DIMSTYLE
  2
Standard
  9
$DIMCLRD
 70
     0
  9
$DIMCLRE
 70
     0
  9
$DIMCLRT
 70
     0
  9
$DIMTFAC
 40
1.0
  9
$DIMGAP
 40
0.09
  9
$DIMJUST
 70
     0
  9
$DIMSD1
 70
     0
  9
$DIMSD2
 70
     0
  9
$DIMTOLJ
 70
     1
  9
$DIMTZIN
 70
     0
  9
$DIMALTZ
 70
     0
  9
$DIMALTTZ
 70
     0
  9
$DIMUPT
 70
     0
  9
$DIMDEC
 70
     3
  9
$DIMTDEC
 70
     3
  9
$DIMALTU
 70
     2
  9
$DIMALTTD
 70
     2
  9
$DIMTXSTY
  7
Standard
  9
$DIMAUNIT
 70
     0
  9
$DIMADEC
 70
     0
  9
$DIMALTRND
 40
0.0
  9
$DIMAZIN
 70
     0
  9
$DIMDSEP
 70
    46
  9
$DIMATFIT
 70
     3
  9
$DIMFRAC
 70
     0
  9
$DIMLDRBLK
  1

  9
$DIMLUNIT
 70
     2
  9
$DIMLWD
 70
    -2
  9
$DIMLWE
 70
    -2
  9
$DIMTMOVE
 70
     0
  9
$LUNITS
 70
     2
  9
$LUPREC
 70
     4
  9
$SKETCHINC
 40
0.1
  9
$FILLETRAD
 40
0.0
  9
$AUNITS
 70
     0
  9
$AUPREC
 70
     0
  9
$MENU
  1
.
  9
$ELEVATION
 40
0.0
  9
$PELEVATION
 40
0.0
  9
$THICKNESS
 40
0.0
  9
$LIMCHECK
 70
     0
  9
$CHAMFERA
 40
0.5
  9
$CHAMFERB
 40
0.5
  9
$CHAMFERC
 40
1.0
  9
$CHAMFERD
 40
0.0
  9
$SKPOLY
 70
     0
  9
$TDCREATE
 40
2455646.343855880
  9
$TDUCREATE
 40
2455646.510522546
  9
$TDUPDATE
 40
2456008.635105278
  9
$TDUUPDATE
 40
2456008.801771945
  9
$TDINDWG
 40
1.8317686111
  9
$TDUSRTIMER
 40
1.8317686111
  9
$USRTIMER
 70
     1
  9
$ANGBASE
 50
0.0
  9
$ANGDIR
 70
     0
  9
$PDMODE
 70
     0
  9
$PDSIZE
 40
0.0
  9
$PLINEWID
 40
0.0
  9
$SPLFRAME
 70
     0
  9
$SPLINETYPE
 70
     6
  9
$SPLINESEGS
 70
     8
  9
$HANDSEED
  5
CEBB
  9
$SURFTAB1
 70
     6
  9
$SURFTAB2
 70
     6
  9
$SURFTYPE
 70
     6
  9
$SURFU
 70
     6
  9
$SURFV
 70
     6
  9
$UCSBASE
  2

  9
$UCSNAME
  2

  9
$UCSORG
 10
0.0
 20
0.0
 30
0.0
  9
$UCSXDIR
 10
1.0
 20
0.0
 30
0.0
  9
$UCSYDIR
 10
0.0
 20
1.0
 30
0.0
  9
$UCSORTHOREF
  2

  9
$UCSORTHOVIEW
 70
     1
  9
$UCSORGTOP
 10
0.0
 20
0.0
 30
0.0
  9
$UCSORGBOTTOM
 10
0.0
 20
0.0
 30
0.0
  9
$UCSORGLEFT
 10
0.0
 20
0.0
 30
0.0
  9
$UCSORGRIGHT
 10
0.0
 20
0.0
 30
0.0
  9
$UCSORGFRONT
 10
0.0
 20
0.0
 30
0.0
  9
$UCSORGBACK
 10
0.0
 20
0.0
 30
0.0
  9
$PUCSBASE
  2

  9
$PUCSNAME
  2

  9
$PUCSORG
 10
0.0
 20
0.0
 30
0.0
  9
$PUCSXDIR
 10
1.0
 20
0.0
 30
0.0
  9
$PUCSYDIR
 10
0.0
 20
1.0
 30
0.0
  9
$PUCSORTHOREF
  2

  9
$PUCSORTHOVIEW
 70
     0
  9
$PUCSORGTOP
 10
0.0
 20
0.0
 30
0.0
  9
$PUCSORGBOTTOM
 10
0.0
 20
0.0
 30
0.0
  9
$PUCSORGLEFT
 10
0.0
 20
0.0
 30
0.0
  9
$PUCSORGRIGHT
 10
0.0
 20
0.0
 30
0.0
  9
$PUCSORGFRONT
 10
0.0
 20
0.0
 30
0.0
  9
$PUCSORGBACK
 10
0.0
 20
0.0
 30
0.0
  9
$USERI1
 70
     0
  9
$USERI2
 70
     0
  9
$USERI3
 70
     0
  9
$USERI4
 70
     0
  9
$USERI5
 70
     0
  9
$USERR1
 40
0.0
  9
$USERR2
 40
0.0
  9
$USERR3
 40
0.0
  9
$USERR4
 40
0.0
  9
$USERR5
 40
0.0
  9
$WORLDVIEW
 70
     1
  9
$SHADEDGE
 70
     3
  9
$SHADEDIF
 70
    70
  9
$TILEMODE
 70
     1
  9
$MAXACTVP
 70
    64
  9
$PINSBASE
 10
0.0
 20
0.0
 30
0.0
  9
$PLIMCHECK
 70
     0
  9
$PEXTMIN
 10
1.000000000000000E+20
 20
1.000000000000000E+20
 30
1.000000000000000E+20
  9
$PEXTMAX
 10
-1.000000000000000E+20
 20
-1.000000000000000E+20
 30
-1.000000000000000E+20
  9
$PLIMMIN
 10
0.0
 20
0.0
  9
$PLIMMAX
 10
12.0
 20
9.0
  9
$UNITMODE
 70
     0
  9
$VISRETAIN
 70
     1
  9
$PLINEGEN
 70
     0
  9
$PSLTSCALE
 70
     1
  9
$TREEDEPTH
 70
  3020
  9
$CMLSTYLE
  2
Standard
  9
$CMLJUST
 70
     0
  9
$CMLSCALE
 40
1.0
  9
$PROXYGRAPHICS
 70
     1
  9
$MEASUREMENT
 70
     0
  9
$CELWEIGHT
370
    -1
  9
$ENDCAPS
280
     0
  9
$JOINSTYLE
280
     0
  9
$LWDISPLAY
290
     0
  9
$INSUNITS
 70
     0
  9
$HYPERLINKBASE
  1

  9
$STYLESHEET
  1
monochromeII.ctb
  9
$XEDIT
290
     1
  9
$CEPSNTYPE
380
     0
  9
$PSTYLEMODE
290
     1
  9
$FINGERPRINTGUID
  2
{64101CB1-6290-486C-808A-919D98B85827}
  9
$VERSIONGUID
  2
{255ED370-C92F-4BEF-8A80-C2FE27EAF8CB}
  9
$EXTNAMES
290
     1
  9
$PSVPSCALE
 40
0.0
  9
$OLESTARTUP
290
     0
  0
ENDSEC
  0
SECTION
  2
CLASSES
  0
CLASS
  1
ACDBDICTIONARYWDFLT
  2
AcDbDictionaryWithDefault
  3
ObjectDBX Classes
 90
        0
280
     0
281
     0
  0
CLASS
  1
ACDBPLACEHOLDER
  2
AcDbPlaceHolder
  3
ObjectDBX Classes
 90
        0
280
     0
281
     0
  0
CLASS
  1
LAYOUT
  2
AcDbLayout
  3
ObjectDBX Classes
 90
        0
280
     0
281
     0
  0
CLASS
  1
MATERIAL
  2
AcDbMaterial
  3
ObjectDBX Classes
 90
     1153
280
     0
281
     0
  0
CLASS
  1
VISUALSTYLE
  2
AcDbVisualStyle
  3
ObjectDBX Classes
 90
     4095
280
     0
281
     0
  0
CLASS
  1
TABLESTYLE
  2
AcDbTableStyle
  3
ObjectDBX Classes
 90
     4095
280
     0
281
     0
  0
CLASS
  1
SCALE
  2
AcDbScale
  3
ObjectDBX Classes
 90
     1153
280
     0
281
     0
  0
CLASS
  1
MLEADERSTYLE
  2
AcDbMLeaderStyle
  3
ACDB_MLEADERSTYLE_CLASS
 90
     4095
280
     0
281
     0
  0
CLASS
  1
CELLSTYLEMAP
  2
AcDbCellStyleMap
  3
ObjectDBX Classes
 90
     1152
280
     0
281
     0
  0
CLASS
  1
DICTIONARYVAR
  2
AcDbDictionaryVar
  3
ObjectDBX Classes
 90
        0
280
     0
281
     0
  0
CLASS
  1
SORTENTSTABLE
  2
AcDbSortentsTable
  3
ObjectDBX Classes
 90
        0
280
     0
281
     0
  0
CLASS
  1
ACAD_EVALUATION_GRAPH
  2
AcDbEvalGraph
  3
ObjectDBX Classes
 90
    33921
280
     0
281
     0
  0
CLASS
  1
ACAECUSTOBJ
  2
AcAeEditorObj
  3
AcAeEditorObj
 90
    33792
280
     0
281
     0
  0
CLASS
  1
ACDB_DYNAMICBLOCKPURGEPREVENTER_VERSION
  2
AcDbDynamicBlockPurgePreventer
  3
ObjectDBX Classes
 90
    33921
280
     0
281
     0
  0
CLASS
  1
AEC_REFEDIT_STATUS_TRACKER
  2
AecDbRefEditStatusTracker
  3
AecArchBase60|Product Desc: Autodesk Architectural Desktop 2007 |Company: Autodesk,Inc. |WEB Address: www.autodesk.com
 90
    32897
280
     0
281
     0
  0
CLASS
  1
NPOCOLLECTION
  2
AcDbImpNonPersistentObjectsCollection
  3
ObjectDBX Classes
 90
    33921
280
     0
281
     0
  0
CLASS
  1
ACAD_TABLE
  2
AcDbTable
  3
ObjectDBX Classes
 90
    33793
280
     0
281
     1
  0
CLASS
  1
ACDBDATATABLE
  2
AcDbDataTable
  3
AcMapAnnotObj|Product Desc:     AutoCAD MAP DBX App for Annotation Entity|Company:          Autodesk,Inc.|WEB Address:      www.autodesk.com
 90
    32768
280
     0
281
     0
  0
CLASS
  1
ACSH_HISTORY_CLASS
  2
AcDbShHistory
  3
ObjectDBX Classes
 90
    33921
280
     0
281
     0
  0
CLASS
  1
ACDBASSOCPERSSUBENTMANAGER
  2
AcDbAssocPersSubentManager
  3
ObjectDBX Classes
 90
     1024
280
     0
281
     0
  0
CLASS
  1
SOLID_BACKGROUND
  2
AcDbSolidBackground
  3
SCENEOE
 90
    36863
280
     0
281
     0
  0
CLASS
  1
ACSH_EXTRUSION_CLASS
  2
AcDbShExtrusion
  3
ObjectDBX Classes
 90
    33921
280
     0
281
     0
  0
CLASS
  1
ACSH_BOOLEAN_CLASS
  2
AcDbShBoolean
  3
ObjectDBX Classes
 90
    33921
280
     0
281
     0
  0
CLASS
  1
ACDBPERSSUBENTMANAGER
  2
AcDbPersSubentManager
  3
AcDbPersSubentManager
 90
     1024
280
     0
281
     0
  0
CLASS
  1
WIPEOUT
  2
AcDbWipeout
  3
"WipeOut|Product Desc: Object Enabler for WipeOut entity                        |Company: Autodesk, Inc.                        |WEB Address: www.autodesk.com"
 90
    34943
280
     0
281
     1
  0
CLASS
  1
WIPEOUTVARIABLES
  2
AcDbWipeoutVariables
  3
"WipeOut|Product Desc:     WipeOut Dbx Application|Company:          Autodesk, Inc.|WEB Address:      www.autodesk.com"
 90
        0
280
     0
281
     0
  0
ENDSEC
  0
SECTION
  2
TABLES
  0
TABLE
  2
VPORT
  5
8
102
{ACAD_XDICTIONARY
360
181
102
}
330
0
100
AcDbSymbolTable
 70
     1
  0
VPORT
  5
31
330
8
100
AcDbSymbolTableRecord
100
AcDbViewportTableRecord
  2
*Active
 70
     0
 10
0.0
 20
0.0
 11
1.0
 21
1.0
 12
-5.914879524299561
 22
-2.047317721371584
 13
0.0
 23
0.0
 14
0.0625
 24
0.0625
 15
0.25
 25
0.25
 16
0.0
 26
0.0
 36
1.0
 17
16.91439100425697
 27
10.54705419309976
 37
4.013960091384387
 40
17.20319493505551
 41
1.477137176938369
 42
50.0
 43
0.0
 44
0.0
 50
0.0
 51
0.0
 71
     0
 72
  1000
 73
     1
 74
     2
 75
     0
 76
     1
 77
     0
 78
     0
281
     0
 65
     1
110
0.0
120
0.0
130
0.0
111
1.0
121
0.0
131
0.0
112
0.0
122
1.0
132
0.0
 79
     0
146
0.0
  0
ENDTAB
  0
TABLE
  2
LTYPE
  5
5
330
0
100
AcDbSymbolTable
 70
     1
  0
LTYPE
  5
14
330
5
100
AcDbSymbolTableRecord
100
AcDbLinetypeTableRecord
  2
ByBlock
 70
     0
  3

 72
    65
 73
     0
 40
0.0
  0
LTYPE
  5
15
330
5
100
AcDbSymbolTableRecord
100
AcDbLinetypeTableRecord
  2
ByLayer
 70
     0
  3

 72
    65
 73
     0
 40
0.0
  0
LTYPE
  5
16
330
5
100
AcDbSymbolTableRecord
100
AcDbLinetypeTableRecord
  2
Continuous
 70
     0
  3
Solid line
 72
    65
 73
     0
 40
0.0
  0
ENDTAB
  0
TABLE
  2
LAYER
  5
2
102
{ACAD_XDICTIONARY
360
107
102
}
330
0
100
AcDbSymbolTable
 70
     4
  0
LAYER
  5
10
102
{ACAD_XDICTIONARY
360
17C
102
}
330
2
100
AcDbSymbolTableRecord
100
AcDbLayerTableRecord
  2
0
 70
     0
 62
     7
  6
Continuous
370
    -3
390
F
  0
LAYER
  5
52F5
330
2
100
AcDbSymbolTableRecord
100
AcDbLayerTableRecord
  2
TEXT
 70
     0
 62
     2
  6
Continuous
370
    -3
390
F
  0
LAYER
  5
69B6
330
2
100
AcDbSymbolTableRecord
100
AcDbLayerTableRecord
  2
DIM
 70
     0
 62
     1
  6
Continuous
370
    -3
390
F
  0
LAYER
  5
69B7
330
2
100
AcDbSymbolTableRecord
100
AcDbLayerTableRecord
  2
Defpoints
 70
     0
 62
     7
  6
Continuous
290
     0
370
    -3
390
F
  0
ENDTAB
  0
TABLE
  2
STYLE
  5
3
330
0
100
AcDbSymbolTable
 70
     1
  0
STYLE
  5
11
330
3
100
AcDbSymbolTableRecord
100
AcDbTextStyleTableRecord
  2
Standard
 70
     0
 40
0.0
 41
0.8
 50
0.0
 71
     0
 42
0.25
  3
txt
  4

  0
ENDTAB
  0
TABLE
  2
VIEW
  5
6
330
0
100
AcDbSymbolTable
 70
     0
  0
ENDTAB
  0
TABLE
  2
UCS
  5
7
330
0
100
AcDbSymbolTable
 70
     0
  0
ENDTAB
  0
TABLE
  2
APPID
  5
9
330
0
100
AcDbSymbolTable
 70
   102
  0
APPID
  5
12
330
9
100
AcDbSymbolTableRecord
100
AcDbRegAppTableRecord
  2
ACAD
 70
     0
  0
APPID
  5
84
330
9
100
AcDbSymbolTableRecord
100
AcDbRegAppTableRecord
  2
ACAD_MLEADERVER
 70
     0
  0
APPID
  5
104
330
9
100
AcDbSymbolTableRecord
100
AcDbRegAppTableRecord
  2
AcDbBlockRepETag
 70
     0
  0
APPID
  5
105
330
9
100
AcDbSymbolTableRecord
100
AcDbRegAppTableRecord
  2
AcDbDynamicBlockGUID
 70
     0
  0
APPID
  5
106
330
9
100
AcDbSymbolTableRecord
100
AcDbRegAppTableRecord
  2
ACAD_PSEXT
 70
     0
  0
APPID
  5
388
330
9
100
AcDbSymbolTableRecord
100
AcDbRegAppTableRecord
  2
AcadAnnotative
 70
     0
  0
APPID
  5
389
330
9
100
AcDbSymbolTableRecord
100
AcDbRegAppTableRecord
  2
ACAD_DSTYLE_DIMJAG
 70
     0
  0
APPID
  5
38A
330
9
100
AcDbSymbolTableRecord
100
AcDbRegAppTableRecord
  2
ACAD_DSTYLE_DIMTALN
 70
     0
  0
APPID
  5
38B
330
9
100
AcDbSymbolTableRecord
100
AcDbRegAppTableRecord
  2
AcadAnnoPO
 70
     0
  0
APPID
  5
4DD
330
9
100
AcDbSymbolTableRecord
100
AcDbRegAppTableRecord
  2
AcDbAttr
 70
     0
  0
APPID
  5
A19
330
9
100
AcDbSymbolTableRecord
100
AcDbRegAppTableRecord
  2
RE-TLINK
 70
     0
  0
APPID
  5
A1A
330
9
100
AcDbSymbolTableRecord
100
AcDbRegAppTableRecord
  2
N8SOL-TLINK
 70
     0
  0
APPID
  5
A1B
330
9
100
AcDbSymbolTableRecord
100
AcDbRegAppTableRecord
  2
VIA_WD_TAGFMT
 70
     0
  0
APPID
  5
A1C
330
9
100
AcDbSymbolTableRecord
100
AcDbRegAppTableRecord
  2
VIA_WD_BASETAG
 70
     0
  0
APPID
  5
A1D
330
9
100
AcDbSymbolTableRecord
100
AcDbRegAppTableRecord
  2
VIA_WD_HDL
 70
     0
  0
APPID
  5
1000
330
9
100
AcDbSymbolTableRecord
100
AcDbRegAppTableRecord
  2
ACAD_EXEMPT_FROM_CAD_STANDARDS
 70
     0
  0
APPID
  5
1744
330
9
100
AcDbSymbolTableRecord
100
AcDbRegAppTableRecord
  2
AcAecLayerStandard
 70
     0
  0
APPID
  5
2631
330
9
100
AcDbSymbolTableRecord
100
AcDbRegAppTableRecord
  2
DCO15
 70
     0
  0
APPID
  5
280F
330
9
100
AcDbSymbolTableRecord
100
AcDbRegAppTableRecord
  2
ACAUTHENVIRON
 70
     0
  0
APPID
  5
2813
330
9
100
AcDbSymbolTableRecord
100
AcDbRegAppTableRecord
  2
AcDbDynamicBlockTrueName
 70
     0
  0
APPID
  5
2AA1
330
9
100
AcDbSymbolTableRecord
100
AcDbRegAppTableRecord
  2
VIA_WD_ASSYCODE
 70
     0
  0
APPID
  5
2AA2
330
9
100
AcDbSymbolTableRecord
100
AcDbRegAppTableRecord
  2
ACAD_DSTYLE_DIMTEXT_FILL
 70
     0
  0
APPID
  5
2AA3
330
9
100
AcDbSymbolTableRecord
100
AcDbRegAppTableRecord
  2
AcDbBlockRepBTag
 70
     0
  0
APPID
  5
2ACC
330
9
100
AcDbSymbolTableRecord
100
AcDbRegAppTableRecord
  2
VIA_WD_FP
 70
     0
  0
APPID
  5
2ACD
330
9
100
AcDbSymbolTableRecord
100
AcDbRegAppTableRecord
  2
VIA_WD_DESC1
 70
     0
  0
APPID
  5
2ACE
330
9
100
AcDbSymbolTableRecord
100
AcDbRegAppTableRecord
  2
VIA_WD_DESC2
 70
     0
  0
APPID
  5
2ACF
330
9
100
AcDbSymbolTableRecord
100
AcDbRegAppTableRecord
  2
VIA_WD_DESC3
 70
     0
  0
APPID
  5
2AD0
330
9
100
AcDbSymbolTableRecord
100
AcDbRegAppTableRecord
  2
VIA_WD_INST
 70
     0
  0
APPID
  5
2AD1
330
9
100
AcDbSymbolTableRecord
100
AcDbRegAppTableRecord
  2
VIA_WD_LOC
 70
     0
  0
APPID
  5
2AD2
330
9
100
AcDbSymbolTableRecord
100
AcDbRegAppTableRecord
  2
VIA_WD_MFG
 70
     0
  0
APPID
  5
2AD3
330
9
100
AcDbSymbolTableRecord
100
AcDbRegAppTableRecord
  2
VIA_WD_CAT
 70
     0
  0
APPID
  5
2AD4
330
9
100
AcDbSymbolTableRecord
100
AcDbRegAppTableRecord
  2
VIA_WD_CNT
 70
     0
  0
APPID
  5
2AD5
330
9
100
AcDbSymbolTableRecord
100
AcDbRegAppTableRecord
  2
VIA_WD_UM
 70
     0
  0
APPID
  5
2AD6
330
9
100
AcDbSymbolTableRecord
100
AcDbRegAppTableRecord
  2
VIA_WD_WDBLKNAM
 70
     0
  0
APPID
  5
2AD7
330
9
100
AcDbSymbolTableRecord
100
AcDbRegAppTableRecord
  2
VIA_WD_MOUNT
 70
     0
  0
APPID
  5
2AD8
330
9
100
AcDbSymbolTableRecord
100
AcDbRegAppTableRecord
  2
VIA_WD_GROUPWITH
 70
     0
  0
APPID
  5
2AD9
330
9
100
AcDbSymbolTableRecord
100
AcDbRegAppTableRecord
  2
VIA_WD_P_ITEM
 70
     0
  0
APPID
  5
2ADA
330
9
100
AcDbSymbolTableRecord
100
AcDbRegAppTableRecord
  2
VIA_WD_ITEM_FLAG
 70
     0
  0
APPID
  5
32E0
330
9
100
AcDbSymbolTableRecord
100
AcDbRegAppTableRecord
  2
VIA_WD_ASSYCODE03
 70
     0
  0
APPID
  5
32E1
330
9
100
AcDbSymbolTableRecord
100
AcDbRegAppTableRecord
  2
VIA_WD_CNT03
 70
     0
  0
APPID
  5
32E2
330
9
100
AcDbSymbolTableRecord
100
AcDbRegAppTableRecord
  2
VIA_WD_UM03
 70
     0
  0
APPID
  5
32E3
330
9
100
AcDbSymbolTableRecord
100
AcDbRegAppTableRecord
  2
VIA_WD_ITEM03
 70
     0
  0
APPID
  5
32E4
330
9
100
AcDbSymbolTableRecord
100
AcDbRegAppTableRecord
  2
VIA_WD_ITEM_FLAG03
 70
     0
  0
APPID
  5
32E5
330
9
100
AcDbSymbolTableRecord
100
AcDbRegAppTableRecord
  2
VIA_WD_ASSYCODE02
 70
     0
  0
APPID
  5
32E6
330
9
100
AcDbSymbolTableRecord
100
AcDbRegAppTableRecord
  2
VIA_WD_CNT02
 70
     0
  0
APPID
  5
32E7
330
9
100
AcDbSymbolTableRecord
100
AcDbRegAppTableRecord
  2
VIA_WD_UM02
 70
     0
  0
APPID
  5
32E8
330
9
100
AcDbSymbolTableRecord
100
AcDbRegAppTableRecord
  2
VIA_WD_ITEM02
 70
     0
  0
APPID
  5
32E9
330
9
100
AcDbSymbolTableRecord
100
AcDbRegAppTableRecord
  2
VIA_WD_ITEM_FLAG02
 70
     0
  0
APPID
  5
32EA
330
9
100
AcDbSymbolTableRecord
100
AcDbRegAppTableRecord
  2
VIA_WD_ASSYCODE01
 70
     0
  0
APPID
  5
32EB
330
9
100
AcDbSymbolTableRecord
100
AcDbRegAppTableRecord
  2
VIA_WD_CNT01
 70
     0
  0
APPID
  5
32EC
330
9
100
AcDbSymbolTableRecord
100
AcDbRegAppTableRecord
  2
VIA_WD_UM01
 70
     0
  0
APPID
  5
32ED
330
9
100
AcDbSymbolTableRecord
100
AcDbRegAppTableRecord
  2
VIA_WD_ITEM01
 70
     0
  0
APPID
  5
32EE
330
9
100
AcDbSymbolTableRecord
100
AcDbRegAppTableRecord
  2
VIA_WD_ITEM_FLAG01
 70
     0
  0
APPID
  5
333F
330
9
100
AcDbSymbolTableRecord
100
AcDbRegAppTableRecord
  2
VIA_WD_BALLPARAMS
 70
     0
  0
APPID
  5
3343
330
9
100
AcDbSymbolTableRecord
100
AcDbRegAppTableRecord
  2
VIA_WD_BALLPTR
 70
     0
  0
APPID
  5
3344
330
9
100
AcDbSymbolTableRecord
100
AcDbRegAppTableRecord
  2
VIA_WD_BALLPTR01
 70
     0
  0
APPID
  5
3345
330
9
100
AcDbSymbolTableRecord
100
AcDbRegAppTableRecord
  2
VIA_WD_BAL
 70
     0
  0
APPID
  5
3349
330
9
100
AcDbSymbolTableRecord
100
AcDbRegAppTableRecord
  2
VIA_WD_BALLPTR02
 70
     0
  0
APPID
  5
334D
330
9
100
AcDbSymbolTableRecord
100
AcDbRegAppTableRecord
  2
VIA_WD_BALLPTR03
 70
     0
  0
APPID
  5
3678
330
9
100
AcDbSymbolTableRecord
100
AcDbRegAppTableRecord
  2
ACE_TABLE_WDTYPE
 70
     0
  0
APPID
  5
3679
330
9
100
AcDbSymbolTableRecord
100
AcDbRegAppTableRecord
  2
ACE_TABLE_SETTINGS
 70
     0
  0
APPID
  5
367A
330
9
100
AcDbSymbolTableRecord
100
AcDbRegAppTableRecord
  2
ACE_TABLE_TOGGLES
 70
     0
  0
APPID
  5
367B
330
9
100
AcDbSymbolTableRecord
100
AcDbRegAppTableRecord
  2
ACE_TABLE_BOMDSPLST
 70
     0
  0
APPID
  5
367C
330
9
100
AcDbSymbolTableRecord
100
AcDbRegAppTableRecord
  2
ACE_TABLE_BOMDESC
 70
     0
  0
APPID
  5
367D
330
9
100
AcDbSymbolTableRecord
100
AcDbRegAppTableRecord
  2
ACE_TABLE_FLDNAMS1
 70
     0
  0
APPID
  5
367E
330
9
100
AcDbSymbolTableRecord
100
AcDbRegAppTableRecord
  2
ACE_TABLE_CALCCOLWID
 70
     0
  0
APPID
  5
367F
330
9
100
AcDbSymbolTableRecord
100
AcDbRegAppTableRecord
  2
ACE_TABLE_PROJECT
 70
     0
  0
APPID
  5
3680
330
9
100
AcDbSymbolTableRecord
100
AcDbRegAppTableRecord
  2
ACE_TABLE_BUILDUP
 70
     0
  0
APPID
  5
3681
330
9
100
AcDbSymbolTableRecord
100
AcDbRegAppTableRecord
  2
ACE_TABLE_BORDER
 70
     0
  0
APPID
  5
3682
330
9
100
AcDbSymbolTableRecord
100
AcDbRegAppTableRecord
  2
ACE_TABLE_INCTITLE
 70
     0
  0
APPID
  5
3683
330
9
100
AcDbSymbolTableRecord
100
AcDbRegAppTableRecord
  2
ACE_TABLE_INCTIMEDATE
 70
     0
  0
APPID
  5
3684
330
9
100
AcDbSymbolTableRecord
100
AcDbRegAppTableRecord
  2
ACE_TABLE_INCPROJECT
 70
     0
  0
APPID
  5
3685
330
9
100
AcDbSymbolTableRecord
100
AcDbRegAppTableRecord
  2
ACE_TABLE_INCLABELS
 70
     0
  0
APPID
  5
3686
330
9
100
AcDbSymbolTableRecord
100
AcDbRegAppTableRecord
  2
ACE_TABLE_TITLEONE
 70
     0
  0
APPID
  5
3687
330
9
100
AcDbSymbolTableRecord
100
AcDbRegAppTableRecord
  2
ACE_TABLE_LABELONE
 70
     0
  0
APPID
  5
3688
330
9
100
AcDbSymbolTableRecord
100
AcDbRegAppTableRecord
  2
ACE_TABLE_INCBLOCK
 70
     0
  0
APPID
  5
3689
330
9
100
AcDbSymbolTableRecord
100
AcDbRegAppTableRecord
  2
ACE_TABLE_INCREPORT
 70
     0
  0
APPID
  5
368A
330
9
100
AcDbSymbolTableRecord
100
AcDbRegAppTableRecord
  2
ACE_TABLE_BLKNAM
 70
     0
  0
APPID
  5
368B
330
9
100
AcDbSymbolTableRecord
100
AcDbRegAppTableRecord
  2
ACE_TABLE_RPTLST
 70
     0
  0
APPID
  5
368C
330
9
100
AcDbSymbolTableRecord
100
AcDbRegAppTableRecord
  2
ACE_TABLE_TYPE
 70
     0
  0
APPID
  5
368D
330
9
100
AcDbSymbolTableRecord
100
AcDbRegAppTableRecord
  2
ACE_TABLE_SET
 70
     0
  0
APPID
  5
368E
330
9
100
AcDbSymbolTableRecord
100
AcDbRegAppTableRecord
  2
ACE_TABLE_SECTION
 70
     0
  0
APPID
  5
368F
330
9
100
AcDbSymbolTableRecord
100
AcDbRegAppTableRecord
  2
ACE_TABLE_1STROW
 70
     0
  0
APPID
  5
3690
330
9
100
AcDbSymbolTableRecord
100
AcDbRegAppTableRecord
  2
ACE_TABLE_INDEXLST
 70
     0
  0
APPID
  5
3691
330
9
100
AcDbSymbolTableRecord
100
AcDbRegAppTableRecord
  2
ACE_TABLE_TABLEN
 70
     0
  0
APPID
  5
3692
330
9
100
AcDbSymbolTableRecord
100
AcDbRegAppTableRecord
  2
ACE_TABLE_BEGIN
 70
     0
  0
APPID
  5
3693
330
9
100
AcDbSymbolTableRecord
100
AcDbRegAppTableRecord
  2
ACE_TABLE_END
 70
     0
  0
APPID
  5
3694
330
9
100
AcDbSymbolTableRecord
100
AcDbRegAppTableRecord
  2
ACE_TABLE_MAXROWS
 70
     0
  0
APPID
  5
3695
330
9
100
AcDbSymbolTableRecord
100
AcDbRegAppTableRecord
  2
ACE_TABLE_MAXTBLS
 70
     0
  0
APPID
  5
3696
330
9
100
AcDbSymbolTableRecord
100
AcDbRegAppTableRecord
  2
ACE_TABLE_TBL2TBLX
 70
     0
  0
APPID
  5
3697
330
9
100
AcDbSymbolTableRecord
100
AcDbRegAppTableRecord
  2
ACE_TABLE_TBL2TBLY
 70
     0
  0
APPID
  5
3698
330
9
100
AcDbSymbolTableRecord
100
AcDbRegAppTableRecord
  2
ACE_TABLE_FORCEROWS
 70
     0
  0
APPID
  5
3699
330
9
100
AcDbSymbolTableRecord
100
AcDbRegAppTableRecord
  2
ACE_TABLE_COLNUMS
 70
     0
  0
APPID
  5
369A
330
9
100
AcDbSymbolTableRecord
100
AcDbRegAppTableRecord
  2
ACE_TABLE_LNSP
 70
     0
  0
APPID
  5
3ED3
330
9
100
AcDbSymbolTableRecord
100
AcDbRegAppTableRecord
  2
RAK
 70
     0
  0
APPID
  5
4643
330
9
100
AcDbSymbolTableRecord
100
AcDbRegAppTableRecord
  2
ACAD_DSTYLE_DIMBREAK
 70
     0
  0
APPID
  5
4644
330
9
100
AcDbSymbolTableRecord
100
AcDbRegAppTableRecord
  2
VIA_WD_P_TAG1
 70
     0
  0
APPID
  5
4DD5
330
9
100
AcDbSymbolTableRecord
100
AcDbRegAppTableRecord
  2
ACADSTEP
 70
     0
  0
APPID
  5
4E71
330
9
100
AcDbSymbolTableRecord
100
AcDbRegAppTableRecord
  2
ACAD_DSTYLE_DIMJOGGED_JOGANGLE_SYMBOL
 70
     0
  0
APPID
  5
549B
330
9
100
AcDbSymbolTableRecord
100
AcDbRegAppTableRecord
  2
VIA_WD_WDBLKNAM01
 70
     0
  0
APPID
  5
549C
330
9
100
AcDbSymbolTableRecord
100
AcDbRegAppTableRecord
  2
VIA_WD_WDBLKNAM02
 70
     0
  0
APPID
  5
7153
330
9
100
AcDbSymbolTableRecord
100
AcDbRegAppTableRecord
  2
TCAD
 70
     0
  0
ENDTAB
  0
TABLE
  2
DIMSTYLE
  5
A
330
0
100
AcDbSymbolTable
 70
     1
100
AcDbDimStyleTable
 71
     1
340
27
  0
DIMSTYLE
105
27
102
{ACAD_REACTORS
330
7380
330
738B
330
BFCA
102
}
330
A
100
AcDbSymbolTableRecord
100
AcDbDimStyleTableRecord
  2
Standard
 70
     0
140
0.125
170
     1
271
     3
272
     3
340
11
1001
ACAD_DSTYLE_DIMJAG
1070
   388
1040
1.5
1001
ACAD_DSTYLE_DIMTALN
1070
   392
1070
     0
  0
ENDTAB
  0
TABLE
  2
BLOCK_RECORD
  5
1
330
0
100
AcDbSymbolTable
 70
     4
  0
BLOCK_RECORD
  5
1F
102
{ACAD_XDICTIONARY
360
17A
102
}
330
1
100
AcDbSymbolTableRecord
100
AcDbBlockTableRecord
  2
*Model_Space
340
22
  0
BLOCK_RECORD
  5
1B
330
1
100
AcDbSymbolTableRecord
100
AcDbBlockTableRecord
  2
*Paper_Space
340
1E
  0
BLOCK_RECORD
  5
23
330
1
100
AcDbSymbolTableRecord
100
AcDbBlockTableRecord
  2
*Paper_Space0
340
26
  0
BLOCK_RECORD
  5
73B0
330
1
100
AcDbSymbolTableRecord
100
AcDbBlockTableRecord
  2
*D1
340
0
  0
BLOCK_RECORD
  5
73BD
330
1
100
AcDbSymbolTableRecord
100
AcDbBlockTableRecord
  2
*D2
340
0
  0
BLOCK_RECORD
  5
BFCB
330
1
100
AcDbSymbolTableRecord
100
AcDbBlockTableRecord
  2
*D3
340
0
  0
ENDTAB
  0
ENDSEC
  0
SECTION
  2
BLOCKS
  0
BLOCK
  5
20
330
1F
100
AcDbEntity
  8
0
100
AcDbBlockBegin
  2
*Model_Space
 70
     0
 10
0.0
 20
0.0
 30
0.0
  3
*Model_Space
  1

  0
ENDBLK
  5
21
330
1F
100
AcDbEntity
  8
0
100
AcDbBlockEnd
  0
BLOCK
  5
1C
330
1B
100
AcDbEntity
 67
     1
  8
0
100
AcDbBlockBegin
  2
*Paper_Space
 70
     0
 10
0.0
 20
0.0
 30
0.0
  3
*Paper_Space
  1

  0
ENDBLK
  5
1D
330
1B
100
AcDbEntity
 67
     1
  8
0
100
AcDbBlockEnd
  0
BLOCK
  5
24
330
23
100
AcDbEntity
 67
     1
  8
0
100
AcDbBlockBegin
  2
*Paper_Space0
 70
     0
 10
0.0
 20
0.0
 30
0.0
  3
*Paper_Space0
  1

  0
ENDBLK
  5
25
330
23
100
AcDbEntity
 67
     1
  8
0
100
AcDbBlockEnd
  0
BLOCK
  5
73B1
330
73B0
100
AcDbEntity
  8
0
100
AcDbBlockBegin
  2
*D1
 70
     1
 10
0.0
 20
0.0
 30
0.0
  3
*D1
  1

  0
LINE
  5
CDBF
330
73B0
100
AcDbEntity
  8
DIM
 62
     0
370
    -2
100
AcDbLine
 10
12.52296019496705
 20
10.39336219933496
 30
0.0
 11
13.32133439527815
 21
10.39336219933496
 31
0.0
  0
LINE
  5
CDC0
330
73B0
100
AcDbEntity
  8
DIM
 62
     0
370
    -2
100
AcDbLine
 10
12.52296019496705
 20
5.239363699334965
 30
0.0
 11
13.32133439527815
 21
5.239363699334965
 31
0.0
  0
LINE
  5
CDC1
330
73B0
100
AcDbEntity
  8
DIM
 62
     0
370
    -2
100
AcDbLine
 10
13.14133439527815
 20
10.21336219933496
 30
0.0
 11
13.14133439527815
 21
7.968862949334964
 31
0.0
  0
LINE
  5
CDC2
330
73B0
100
AcDbEntity
  8
DIM
 62
     0
370
    -2
100
AcDbLine
 10
13.14133439527815
 20
5.419363699334965
 30
0.0
 11
13.14133439527815
 21
7.663862949334965
 31
0.0
  0
SOLID
  5
CDC3
330
73B0
100
AcDbEntity
  8
DIM
 62
     0
100
AcDbTrace
 10
13.11133439527815
 20
10.21336219933496
 30
0.0
 11
13.17133439527815
 21
10.21336219933496
 31
0.0
 12
13.14133439527815
 22
10.39336219933496
 32
0.0
 13
13.14133439527815
 23
10.39336219933496
 33
0.0
  0
SOLID
  5
CDC4
330
73B0
100
AcDbEntity
  8
DIM
 62
     0
100
AcDbTrace
 10
13.11133439527815
 20
5.419363699334965
 30
0.0
 11
13.17133439527815
 21
5.419363699334965
 31
0.0
 12
13.14133439527815
 22
5.239363699334965
 32
0.0
 13
13.14133439527815
 23
5.239363699334965
 33
0.0
  0
MTEXT
  5
CDC5
330
73B0
100
AcDbEntity
  8
DIM
 62
     0
100
AcDbMText
 10
13.14133439527815
 20
7.816362949334966
 30
0.0
 40
0.125
 41
0.0
 71
     5
 72
     1
  1
\A1;5.154 [130.91]
 73
     1
 44
1.0
1001
ACAD
1000
MTEXTBEGIN
1070
    73
1070
     1
1070
    44
1040
1.0
1070
    74
1070
     0
1000
MTEXTEND
  0
POINT
  5
CDC6
330
73B0
100
AcDbEntity
  8
Defpoints
 62
     0
100
AcDbPoint
 10
12.46046019496705
 20
10.39336219933496
 30
0.0
  0
POINT
  5
CDC7
330
73B0
100
AcDbEntity
  8
Defpoints
 62
     0
100
AcDbPoint
 10
12.46046019496705
 20
5.239363699334965
 30
0.0
  0
POINT
  5
CDC8
330
73B0
100
AcDbEntity
  8
Defpoints
 62
     0
100
AcDbPoint
 10
13.14133439527815
 20
5.239363699334965
 30
0.0
  0
ENDBLK
  5
73B2
330
73B0
100
AcDbEntity
  8
0
100
AcDbBlockEnd
  0
BLOCK
  5
73BE
330
73BD
100
AcDbEntity
  8
0
100
AcDbBlockBegin
  2
*D2
 70
     1
 10
0.0
 20
0.0
 30
0.0
  3
*D2
  1

  0
LINE
  5
CDC9
330
73BD
100
AcDbEntity
  8
DIM
 62
     0
370
    -2
100
AcDbLine
 10
9.175480194967043
 20
10.45586219933496
 30
0.0
 11
9.175480194967043
 21
11.01767321527864
 31
0.0
  0
LINE
  5
CDCA
330
73BD
100
AcDbEntity
  8
DIM
 62
     0
370
    -2
100
AcDbLine
 10
12.46046019496705
 20
10.45586219933496
 30
0.0
 11
12.46046019496705
 21
11.01767321527864
 31
0.0
  0
LINE
  5
CDCB
330
73BD
100
AcDbEntity
  8
DIM
 62
     0
370
    -2
100
AcDbLine
 10
9.355480194967043
 20
10.83767321527864
 30
0.0
 11
10.19463686163371
 21
10.83767321527864
 31
0.0
  0
LINE
  5
CDCC
330
73BD
100
AcDbEntity
  8
DIM
 62
     0
370
    -2
100
AcDbLine
 10
12.28046019496705
 20
10.83767321527864
 30
0.0
 11
11.44130352830038
 21
10.83767321527864
 31
0.0
  0
SOLID
  5
CDCD
330
73BD
100
AcDbEntity
  8
DIM
 62
     0
100
AcDbTrace
 10
9.355480194967043
 20
10.86767321527863
 30
0.0
 11
9.355480194967043
 21
10.80767321527864
 31
0.0
 12
9.175480194967043
 22
10.83767321527864
 32
0.0
 13
9.175480194967043
 23
10.83767321527864
 33
0.0
  0
SOLID
  5
CDCE
330
73BD
100
AcDbEntity
  8
DIM
 62
     0
100
AcDbTrace
 10
12.28046019496705
 20
10.86767321527863
 30
0.0
 11
12.28046019496705
 21
10.80767321527864
 31
0.0
 12
12.46046019496705
 22
10.83767321527864
 32
0.0
 13
12.46046019496705
 23
10.83767321527864
 33
0.0
  0
MTEXT
  5
CDCF
330
73BD
100
AcDbEntity
  8
DIM
 62
     0
100
AcDbMText
 10
10.81797019496704
 20
10.83767321527864
 30
0.0
 40
0.125
 41
0.0
 71
     5
 72
     1
  1
\A1;3.285 [83.44]
 73
     1
 44
1.0
1001
ACAD
1000
MTEXTBEGIN
1070
    73
1070
     1
1070
    44
1040
1.0
1070
    74
1070
     0
1000
MTEXTEND
  0
POINT
  5
CDD0
330
73BD
100
AcDbEntity
  8
Defpoints
 62
     0
100
AcDbPoint
 10
9.175480194967043
 20
10.39336219933496
 30
0.0
  0
POINT
  5
CDD1
330
73BD
100
AcDbEntity
  8
Defpoints
 62
     0
100
AcDbPoint
 10
12.46046019496705
 20
10.39336219933496
 30
0.0
  0
POINT
  5
CDD2
330
73BD
100
AcDbEntity
  8
Defpoints
 62
     0
100
AcDbPoint
 10
12.46046019496705
 20
10.83767321527864
 30
0.0
  0
ENDBLK
  5
73BF
330
73BD
100
AcDbEntity
  8
0
100
AcDbBlockEnd
  0
BLOCK
  5
BFCC
330
BFCB
100
AcDbEntity
  8
0
100
AcDbBlockBegin
  2
*D3
 70
     1
 10
0.0
 20
0.0
 30
0.0
  3
*D3
  1

  0
LINE
  5
CDD3
330
BFCB
100
AcDbEntity
  8
DIM
 62
     0
370
    -2
100
AcDbLine
 10
7.972447934030853
 20
9.782455447015649
 30
0.0
 11
7.972447934030853
 21
11.02209601167315
 31
0.0
  0
LINE
  5
CDD4
330
BFCB
100
AcDbEntity
  8
DIM
 62
     0
370
    -2
100
AcDbLine
 10
6.263902950554218
 20
7.866136038433044
 30
0.0
 11
6.263902950554218
 21
11.02209601167315
 31
0.0
  0
LINE
  5
CDD5
330
BFCB
100
AcDbEntity
  8
DIM
 62
     0
370
    -2
100
AcDbLine
 10
8.152447934030853
 20
10.84209601167315
 30
0.0
 11
8.332447934030852
 21
10.84209601167315
 31
0.0
  0
LINE
  5
CDD6
330
BFCB
100
AcDbEntity
  8
DIM
 62
     0
370
    -2
100
AcDbLine
 10
6.083902950554218
 20
10.84209601167315
 30
0.0
 11
5.903902950554217
 21
10.84209601167315
 31
0.0
  0
SOLID
  5
CDD7
330
BFCB
100
AcDbEntity
  8
DIM
 62
     0
100
AcDbTrace
 10
8.152447934030853
 20
10.87209601167315
 30
0.0
 11
8.152447934030853
 21
10.81209601167315
 31
0.0
 12
7.972447934030853
 22
10.84209601167315
 32
0.0
 13
7.972447934030853
 23
10.84209601167315
 33
0.0
  0
SOLID
  5
CDD8
330
BFCB
100
AcDbEntity
  8
DIM
 62
     0
100
AcDbTrace
 10
6.083902950554218
 20
10.87209601167315
 30
0.0
 11
6.083902950554218
 21
10.81209601167315
 31
0.0
 12
6.263902950554218
 22
10.84209601167315
 32
0.0
 13
6.263902950554218
 23
10.84209601167315
 33
0.0
  0
MTEXT
  5
CDD9
330
BFCB
100
AcDbEntity
  8
DIM
 62
     0
100
AcDbMText
 10
7.118175442292535
 20
10.84209601167315
 30
0.0
 40
0.125
 41
0.0
 71
     5
 72
     1
  1
\A1;1.709 [43.40]
 73
     1
 44
1.0
1001
ACAD
1000
MTEXTBEGIN
1070
    73
1070
     1
1070
    44
1040
1.0
1070
    74
1070
     0
1000
MTEXTEND
  0
POINT
  5
CDDA
330
BFCB
100
AcDbEntity
  8
Defpoints
 62
     0
100
AcDbPoint
 10
7.972447934030853
 20
9.719955447015649
 30
0.0
  0
POINT
  5
CDDB
330
BFCB
100
AcDbEntity
  8
Defpoints
 62
     0
100
AcDbPoint
 10
6.263902950554218
 20
7.803636038433044
 30
0.0
  0
POINT
  5
CDDC
330
BFCB
100
AcDbEntity
  8
Defpoints
 62
     0
100
AcDbPoint
 10
6.263902950554218
 20
10.84209601167315
 30
0.0
  0
ENDBLK
  5
BFCD
330
BFCB
100
AcDbEntity
  8
0
100
AcDbBlockEnd
  0
ENDSEC
  0
SECTION
  2
ENTITIES
  0
LINE
  5
72A5
330
1F
100
AcDbEntity
  8
0
100
AcDbLine
 10
11.40812269496705
 20
7.285225699334965
 30
0.0
 11
11.40812269496705
 21
5.278707199334959
 31
0.0
1001
ACAD
1000
TCW40_DEV_WIDTH
1002
{
1040
-3.0
1002
}
  0
LINE
  5
72A6
330
1F
100
AcDbEntity
  8
0
100
AcDbLine
 10
11.01468769496705
 20
7.285225699334965
 30
0.0
 11
11.01468769496705
 21
5.278707199334959
 31
0.0
1001
ACAD
1000
TCW40_DEV_WIDTH
1002
{
1040
-3.0
1002
}
  0
LINE
  5
72A7
330
1F
100
AcDbEntity
  8
0
100
AcDbLine
 10
11.01468769496705
 20
7.285225699334965
 30
0.0
 11
11.40812269496705
 21
7.285225699334965
 31
0.0
1001
ACAD
1000
TCW40_DEV_WIDTH
1002
{
1040
-3.0
1002
}
  0
LINE
  5
72A8
330
1F
100
AcDbEntity
  8
0
100
AcDbLine
 10
11.01468769496705
 20
5.278707199334959
 30
0.0
 11
11.40812269496705
 21
5.278707199334959
 31
0.0
1001
ACAD
1000
TCW40_DEV_WIDTH
1002
{
1040
-3.0
1002
}
  0
LINE
  5
72A9
330
1F
100
AcDbEntity
  8
0
100
AcDbLine
 10
11.01468769496705
 20
7.226210449334963
 30
0.0
 11
11.13271819496705
 21
7.226210449334963
 31
0.0
1001
ACAD
1000
TCW40_DEV_WIDTH
1002
{
1040
-3.0
1002
}
  0
LINE
  5
72AA
330
1F
100
AcDbEntity
  8
0
100
AcDbLine
 10
11.29009219496706
 20
7.226210449334963
 30
0.0
 11
11.40812269496705
 21
7.226210449334963
 31
0.0
1001
ACAD
1000
TCW40_DEV_WIDTH
1002
{
1040
-3.0
1002
}
  0
LINE
  5
72AB
330
1F
100
AcDbEntity
  8
0
100
AcDbLine
 10
11.05403119496705
 20
7.088508199334967
 30
0.0
 11
11.36877919496704
 21
7.088508199334967
 31
0.0
1001
ACAD
1000
TCW40_DEV_WIDTH
1002
{
1040
-3.0
1002
}
  0
LINE
  5
72AD
330
1F
100
AcDbEntity
  8
0
100
AcDbLine
 10
11.13271819496705
 20
7.226210449334963
 30
0.0
 11
11.13271819496705
 21
7.285225699334965
 31
0.0
1001
ACAD
1000
TCW40_DEV_WIDTH
1002
{
1040
-3.0
1002
}
  0
CIRCLE
  5
72AE
330
1F
100
AcDbEntity
  8
0
100
AcDbCircle
 10
11.21140519496705
 20
7.186866949334962
 30
0.0
 40
0.0393435
  0
LINE
  5
72AF
330
1F
100
AcDbEntity
  8
0
100
AcDbLine
 10
11.05403119496705
 20
7.088508199334967
 30
0.0
 11
11.05403119496705
 21
5.475424699334965
 31
0.0
1001
ACAD
1000
TCW40_DEV_WIDTH
1002
{
1040
-3.0
1002
}
  0
LINE
  5
72B0
330
1F
100
AcDbEntity
  8
0
100
AcDbLine
 10
11.40812269496705
 20
7.245882199334964
 30
0.0
 11
11.40812269496705
 21
5.278707199334959
 31
0.0
1001
ACAD
1000
TCW40_DEV_WIDTH
1002
{
1040
-3.0
1002
}
  0
LINE
  5
72B1
330
1F
100
AcDbEntity
  8
0
100
AcDbLine
 10
11.36877919496704
 20
7.088508199334967
 30
0.0
 11
11.36877919496704
 21
5.475424699334965
 31
0.0
1001
ACAD
1000
TCW40_DEV_WIDTH
1002
{
1040
-3.0
1002
}
  0
LINE
  5
72B2
330
1F
100
AcDbEntity
  8
0
100
AcDbLine
 10
11.01468769496705
 20
5.278707199334959
 30
0.0
 11
11.40812269496705
 21
5.278707199334959
 31
0.0
1001
ACAD
1000
TCW40_DEV_WIDTH
1002
{
1040
-3.0
1002
}
  0
LINE
  5
72B3
330
1F
100
AcDbEntity
  8
0
100
AcDbLine
 10
11.01468769496705
 20
5.337722449334961
 30
0.0
 11
11.13271819496705
 21
5.337722449334961
 31
0.0
1001
ACAD
1000
TCW40_DEV_WIDTH
1002
{
1040
-3.0
1002
}
  0
LINE
  5
72B4
330
1F
100
AcDbEntity
  8
0
100
AcDbLine
 10
11.29009219496706
 20
5.337722449334961
 30
0.0
 11
11.40812269496705
 21
5.337722449334961
 31
0.0
1001
ACAD
1000
TCW40_DEV_WIDTH
1002
{
1040
-3.0
1002
}
  0
LINE
  5
72B5
330
1F
100
AcDbEntity
  8
0
100
AcDbLine
 10
11.05403119496705
 20
5.475424699334965
 30
0.0
 11
11.36877919496704
 21
5.475424699334965
 31
0.0
1001
ACAD
1000
TCW40_DEV_WIDTH
1002
{
1040
-3.0
1002
}
  0
LINE
  5
72B7
330
1F
100
AcDbEntity
  8
0
100
AcDbLine
 10
11.13271819496705
 20
5.337722449334961
 30
0.0
 11
11.13271819496705
 21
5.278707199334959
 31
0.0
1001
ACAD
1000
TCW40_DEV_WIDTH
1002
{
1040
-3.0
1002
}
  0
CIRCLE
  5
72B8
330
1F
100
AcDbEntity
  8
0
100
AcDbCircle
 10
11.21140519496705
 20
5.377065949334962
 30
0.0
 40
0.0393435
  0
CIRCLE
  5
72BB
330
1F
100
AcDbEntity
  8
0
100
AcDbCircle
 10
11.52615319496705
 20
7.403256199334961
 30
0.0
 40
0.1180305
  0
CIRCLE
  5
72BC
330
1F
100
AcDbEntity
  8
0
100
AcDbCircle
 10
11.52615319496705
 20
7.403256199334961
 30
0.0
 40
0.0501157678071689
  0
LINE
  5
72BE
330
1F
100
AcDbEntity
  8
0
100
AcDbLine
 10
10.97100069496705
 20
7.862947772186934
 30
0.0
 11
10.97100069496703
 21
7.6268867721868
 31
0.0
1001
ACAD
1000
TCW40_DEV_WIDTH
1002
{
1040
-3.0
1002
}
  0
LINE
  5
72BF
330
1F
100
AcDbEntity
  8
0
100
AcDbLine
 10
12.30876155375361
 20
7.862046901925502
 30
0.0
 11
12.30876155375361
 21
7.625985901925368
 31
0.0
1001
ACAD
1000
TCW40_DEV_WIDTH
1002
{
1040
-3.0
1002
}
  0
LINE
  5
72C3
330
1F
100
AcDbEntity
  8
0
100
AcDbLine
 10
12.30876155375361
 20
9.252400699334963
 30
0.0
 11
10.97100069496703
 21
9.252400699334963
 31
0.0
1001
ACAD
1000
TCW40_DEV_WIDTH
1002
{
1040
-3.0
1002
}
  0
LINE
  5
72C4
330
1F
100
AcDbEntity
  8
0
100
AcDbLine
 10
10.97100069496703
 20
9.252400699334963
 30
0.0
 11
10.97100069496703
 21
7.862947772186934
 31
0.0
1001
ACAD
1000
TCW40_DEV_WIDTH
1002
{
1040
-3.0
1002
}
  0
LINE
  5
72C5
330
1F
100
AcDbEntity
  8
0
100
AcDbLine
 10
12.30876155375361
 20
9.252400699334963
 30
0.0
 11
12.30876155375361
 21
7.862046901925502
 31
0.0
1001
ACAD
1000
TCW40_DEV_WIDTH
1002
{
1040
-3.0
1002
}
  0
LINE
  5
7306
330
1F
100
AcDbEntity
  8
0
100
AcDbLine
 10
11.60380604496705
 20
9.920010714959964
 30
0.0
 11
11.60380604496705
 21
9.446659230584963
 31
0.0
1001
ACAD
1000
TCW40_DEV_WIDTH
1002
{
1040
-3.0
1002
}
  0
LINE
  5
7324
330
1F
100
AcDbEntity
  8
0
100
AcDbLine
 10
9.834382694967047
 20
7.285225699334965
 30
0.0
 11
9.834382694967047
 21
5.278707199334959
 31
0.0
1001
ACAD
1000
TCW40_DEV_WIDTH
1002
{
1040
-3.0
1002
}
  0
LINE
  5
7325
330
1F
100
AcDbEntity
  8
0
100
AcDbLine
 10
9.44094769496705
 20
7.285225699334965
 30
0.0
 11
9.44094769496705
 21
5.278707199334959
 31
0.0
1001
ACAD
1000
TCW40_DEV_WIDTH
1002
{
1040
-3.0
1002
}
  0
LINE
  5
7326
330
1F
100
AcDbEntity
  8
0
100
AcDbLine
 10
9.44094769496705
 20
7.285225699334965
 30
0.0
 11
9.834382694967047
 21
7.285225699334965
 31
0.0
1001
ACAD
1000
TCW40_DEV_WIDTH
1002
{
1040
-3.0
1002
}
  0
LINE
  5
7327
330
1F
100
AcDbEntity
  8
0
100
AcDbLine
 10
9.44094769496705
 20
5.278707199334959
 30
0.0
 11
9.834382694967047
 21
5.278707199334959
 31
0.0
1001
ACAD
1000
TCW40_DEV_WIDTH
1002
{
1040
-3.0
1002
}
  0
LINE
  5
7328
330
1F
100
AcDbEntity
  8
0
100
AcDbLine
 10
9.44094769496705
 20
7.226210449334963
 30
0.0
 11
9.558978194967053
 21
7.226210449334963
 31
0.0
1001
ACAD
1000
TCW40_DEV_WIDTH
1002
{
1040
-3.0
1002
}
  0
LINE
  5
7329
330
1F
100
AcDbEntity
  8
0
100
AcDbLine
 10
9.716352194967058
 20
7.226210449334963
 30
0.0
 11
9.834382694967047
 21
7.226210449334963
 31
0.0
1001
ACAD
1000
TCW40_DEV_WIDTH
1002
{
1040
-3.0
1002
}
  0
LINE
  5
732A
330
1F
100
AcDbEntity
  8
0
100
AcDbLine
 10
9.480291194967051
 20
7.088508199334967
 30
0.0
 11
9.795039194967046
 21
7.088508199334967
 31
0.0
1001
ACAD
1000
TCW40_DEV_WIDTH
1002
{
1040
-3.0
1002
}
  0
LINE
  5
732C
330
1F
100
AcDbEntity
  8
0
100
AcDbLine
 10
9.558978194967053
 20
7.226210449334963
 30
0.0
 11
9.558978194967053
 21
7.285225699334965
 31
0.0
1001
ACAD
1000
TCW40_DEV_WIDTH
1002
{
1040
-3.0
1002
}
  0
CIRCLE
  5
732D
330
1F
100
AcDbEntity
  8
0
100
AcDbCircle
 10
9.637665194967055
 20
7.186866949334962
 30
0.0
 40
0.0393435
  0
LINE
  5
732E
330
1F
100
AcDbEntity
  8
0
100
AcDbLine
 10
9.480291194967051
 20
7.088508199334967
 30
0.0
 11
9.480291194967051
 21
5.475424699334965
 31
0.0
1001
ACAD
1000
TCW40_DEV_WIDTH
1002
{
1040
-3.0
1002
}
  0
LINE
  5
732F
330
1F
100
AcDbEntity
  8
0
100
AcDbLine
 10
9.834382694967047
 20
7.245882199334964
 30
0.0
 11
9.834382694967047
 21
5.278707199334959
 31
0.0
1001
ACAD
1000
TCW40_DEV_WIDTH
1002
{
1040
-3.0
1002
}
  0
LINE
  5
7330
330
1F
100
AcDbEntity
  8
0
100
AcDbLine
 10
9.795039194967046
 20
7.088508199334967
 30
0.0
 11
9.795039194967046
 21
5.475424699334965
 31
0.0
1001
ACAD
1000
TCW40_DEV_WIDTH
1002
{
1040
-3.0
1002
}
  0
LINE
  5
7331
330
1F
100
AcDbEntity
  8
0
100
AcDbLine
 10
9.44094769496705
 20
5.278707199334959
 30
0.0
 11
9.834382694967047
 21
5.278707199334959
 31
0.0
1001
ACAD
1000
TCW40_DEV_WIDTH
1002
{
1040
-3.0
1002
}
  0
LINE
  5
7332
330
1F
100
AcDbEntity
  8
0
100
AcDbLine
 10
9.44094769496705
 20
5.337722449334961
 30
0.0
 11
9.558978194967053
 21
5.337722449334961
 31
0.0
1001
ACAD
1000
TCW40_DEV_WIDTH
1002
{
1040
-3.0
1002
}
  0
LINE
  5
7333
330
1F
100
AcDbEntity
  8
0
100
AcDbLine
 10
9.716352194967058
 20
5.337722449334961
 30
0.0
 11
9.834382694967047
 21
5.337722449334961
 31
0.0
1001
ACAD
1000
TCW40_DEV_WIDTH
1002
{
1040
-3.0
1002
}
  0
LINE
  5
7334
330
1F
100
AcDbEntity
  8
0
100
AcDbLine
 10
9.480291194967051
 20
5.475424699334965
 30
0.0
 11
9.795039194967046
 21
5.475424699334965
 31
0.0
1001
ACAD
1000
TCW40_DEV_WIDTH
1002
{
1040
-3.0
1002
}
  0
LINE
  5
7336
330
1F
100
AcDbEntity
  8
0
100
AcDbLine
 10
9.558978194967053
 20
5.337722449334961
 30
0.0
 11
9.558978194967053
 21
5.278707199334959
 31
0.0
1001
ACAD
1000
TCW40_DEV_WIDTH
1002
{
1040
-3.0
1002
}
  0
CIRCLE
  5
7337
330
1F
100
AcDbEntity
  8
0
100
AcDbCircle
 10
9.637665194967055
 20
5.377065949334962
 30
0.0
 40
0.0393435
  0
CIRCLE
  5
733A
330
1F
100
AcDbEntity
  8
0
100
AcDbCircle
 10
9.95241319496705
 20
7.403256199334961
 30
0.0
 40
0.1180305
  0
CIRCLE
  5
733B
330
1F
100
AcDbEntity
  8
0
100
AcDbCircle
 10
9.95241319496705
 20
7.403256199334961
 30
0.0
 40
0.0501157678071689
  0
CIRCLE
  5
733C
330
1F
100
AcDbEntity
  8
0
100
AcDbCircle
 10
10.14071963871705
 20
10.14042637348785
 30
0.0
 40
0.08606390625
  0
LINE
  5
733D
330
1F
100
AcDbEntity
  8
0
100
AcDbLine
 10
10.10235955017132
 20
10.22041660297377
 30
0.0
 11
10.21220923660371
 21
10.08789856561003
 31
0.0
1001
ACAD
1000
TCW40_DEV_WIDTH
1002
{
1040
-3.0
1002
}
  0
LINE
  5
733E
330
1F
100
AcDbEntity
  8
0
100
AcDbLine
 10
10.06923004083039
 20
10.19295418136567
 30
0.0
 11
10.17907972726278
 21
10.06043614400193
 31
0.0
1001
ACAD
1000
TCW40_DEV_WIDTH
1002
{
1040
-3.0
1002
}
  0
CIRCLE
  5
733F
330
1F
100
AcDbEntity
  8
0
100
AcDbCircle
 10
10.33436342777956
 20
10.14042637348785
 30
0.0
 40
0.08606390625
  0
LINE
  5
7340
330
1F
100
AcDbEntity
  8
0
100
AcDbLine
 10
10.29600333923381
 20
10.22041660297377
 30
0.0
 11
10.40585302566622
 21
10.08789856561003
 31
0.0
1001
ACAD
1000
TCW40_DEV_WIDTH
1002
{
1040
-3.0
1002
}
  0
LINE
  5
7341
330
1F
100
AcDbEntity
  8
0
100
AcDbLine
 10
10.26287382989288
 20
10.19295418136567
 30
0.0
 11
10.37272351632529
 21
10.06043614400193
 31
0.0
1001
ACAD
1000
TCW40_DEV_WIDTH
1002
{
1040
-3.0
1002
}
  0
CIRCLE
  5
7342
330
1F
100
AcDbEntity
  8
0
100
AcDbCircle
 10
10.52800721684204
 20
10.14042637348785
 30
0.0
 40
0.08606390625
  0
LINE
  5
7343
330
1F
100
AcDbEntity
  8
0
100
AcDbLine
 10
10.48964712829631
 20
10.22041660297377
 30
0.0
 11
10.59949681472873
 21
10.08789856561003
 31
0.0
1001
ACAD
1000
TCW40_DEV_WIDTH
1002
{
1040
-3.0
1002
}
  0
LINE
  5
7344
330
1F
100
AcDbEntity
  8
0
100
AcDbLine
 10
10.45651761895538
 20
10.19295418136567
 30
0.0
 11
10.56636730538779
 21
10.06043614400193
 31
0.0
1001
ACAD
1000
TCW40_DEV_WIDTH
1002
{
1040
-3.0
1002
}
  0
CIRCLE
  5
7345
330
1F
100
AcDbEntity
  8
0
100
AcDbCircle
 10
10.72165100590455
 20
10.14042637348785
 30
0.0
 40
0.08606390625
  0
LINE
  5
7346
330
1F
100
AcDbEntity
  8
0
100
AcDbLine
 10
10.68329091735882
 20
10.22041660297377
 30
0.0
 11
10.79314060379122
 21
10.08789856561003
 31
0.0
1001
ACAD
1000
TCW40_DEV_WIDTH
1002
{
1040
-3.0
1002
}
  0
LINE
  5
7347
330
1F
100
AcDbEntity
  8
0
100
AcDbLine
 10
10.65016140801789
 20
10.19295418136567
 30
0.0
 11
10.76001109445029
 21
10.06043614400193
 31
0.0
1001
ACAD
1000
TCW40_DEV_WIDTH
1002
{
1040
-3.0
1002
}
  0
CIRCLE
  5
7348
330
1F
100
AcDbEntity
  8
0
100
AcDbCircle
 10
10.91529479496705
 20
10.14042637348785
 30
0.0
 40
0.08606390625
  0
LINE
  5
7349
330
1F
100
AcDbEntity
  8
0
100
AcDbLine
 10
10.87693470642131
 20
10.22041660297377
 30
0.0
 11
10.98678439285372
 21
10.08789856561003
 31
0.0
1001
ACAD
1000
TCW40_DEV_WIDTH
1002
{
1040
-3.0
1002
}
  0
LINE
  5
734A
330
1F
100
AcDbEntity
  8
0
100
AcDbLine
 10
10.84380519708038
 20
10.19295418136567
 30
0.0
 11
10.95365488351279
 21
10.06043614400193
 31
0.0
1001
ACAD
1000
TCW40_DEV_WIDTH
1002
{
1040
-3.0
1002
}
  0
CIRCLE
  5
734B
330
1F
100
AcDbEntity
  8
0
100
AcDbCircle
 10
11.10893858402955
 20
10.14042637348785
 30
0.0
 40
0.08606390625
  0
LINE
  5
734C
330
1F
100
AcDbEntity
  8
0
100
AcDbLine
 10
11.07057849548382
 20
10.22041660297377
 30
0.0
 11
11.18042818191623
 21
10.08789856561003
 31
0.0
1001
ACAD
1000
TCW40_DEV_WIDTH
1002
{
1040
-3.0
1002
}
  0
LINE
  5
734D
330
1F
100
AcDbEntity
  8
0
100
AcDbLine
 10
11.03744898614288
 20
10.19295418136567
 30
0.0
 11
11.1472986725753
 21
10.06043614400193
 31
0.0
1001
ACAD
1000
TCW40_DEV_WIDTH
1002
{
1040
-3.0
1002
}
  0
CIRCLE
  5
734E
330
1F
100
AcDbEntity
  8
0
100
AcDbCircle
 10
11.30258237309206
 20
10.14042637348785
 30
0.0
 40
0.08606390625
  0
LINE
  5
734F
330
1F
100
AcDbEntity
  8
0
100
AcDbLine
 10
11.26422228454632
 20
10.22041660297377
 30
0.0
 11
11.37407197097872
 21
10.08789856561003
 31
0.0
1001
ACAD
1000
TCW40_DEV_WIDTH
1002
{
1040
-3.0
1002
}
  0
LINE
  5
7350
330
1F
100
AcDbEntity
  8
0
100
AcDbLine
 10
11.23109277520539
 20
10.19295418136567
 30
0.0
 11
11.34094246163779
 21
10.06043614400193
 31
0.0
1001
ACAD
1000
TCW40_DEV_WIDTH
1002
{
1040
-3.0
1002
}
  0
CIRCLE
  5
7351
330
1F
100
AcDbEntity
  8
0
100
AcDbCircle
 10
11.49622616215454
 20
10.14042637348785
 30
0.0
 40
0.08606390625
  0
LINE
  5
7352
330
1F
100
AcDbEntity
  8
0
100
AcDbLine
 10
11.45786607360881
 20
10.22041660297377
 30
0.0
 11
11.56771576004122
 21
10.08789856561003
 31
0.0
1001
ACAD
1000
TCW40_DEV_WIDTH
1002
{
1040
-3.0
1002
}
  0
LINE
  5
7353
330
1F
100
AcDbEntity
  8
0
100
AcDbLine
 10
11.42473656426788
 20
10.19295418136567
 30
0.0
 11
11.53458625070029
 21
10.06043614400193
 31
0.0
1001
ACAD
1000
TCW40_DEV_WIDTH
1002
{
1040
-3.0
1002
}
  0
CIRCLE
  5
7354
330
1F
100
AcDbEntity
  8
0
100
AcDbCircle
 10
10.14071963871705
 20
9.667074889112852
 30
0.0
 40
0.08606390625
  0
LINE
  5
7355
330
1F
100
AcDbEntity
  8
0
100
AcDbLine
 10
10.10235955017132
 20
9.747065118598776
 30
0.0
 11
10.21220923660371
 21
9.614547081235034
 31
0.0
1001
ACAD
1000
TCW40_DEV_WIDTH
1002
{
1040
-3.0
1002
}
  0
LINE
  5
7356
330
1F
100
AcDbEntity
  8
0
100
AcDbLine
 10
10.06923004083037
 20
9.719602696990673
 30
0.0
 11
10.17907972726278
 21
9.587084659626931
 31
0.0
1001
ACAD
1000
TCW40_DEV_WIDTH
1002
{
1040
-3.0
1002
}
  0
CIRCLE
  5
7357
330
1F
100
AcDbEntity
  8
0
100
AcDbCircle
 10
10.33436342777954
 20
9.667074889112852
 30
0.0
 40
0.08606390625
  0
LINE
  5
7358
330
1F
100
AcDbEntity
  8
0
100
AcDbLine
 10
10.29600333923381
 20
9.747065118598776
 30
0.0
 11
10.40585302566622
 21
9.614547081235034
 31
0.0
1001
ACAD
1000
TCW40_DEV_WIDTH
1002
{
1040
-3.0
1002
}
  0
LINE
  5
7359
330
1F
100
AcDbEntity
  8
0
100
AcDbLine
 10
10.26287382989288
 20
9.719602696990673
 30
0.0
 11
10.37272351632529
 21
9.587084659626931
 31
0.0
1001
ACAD
1000
TCW40_DEV_WIDTH
1002
{
1040
-3.0
1002
}
  0
CIRCLE
  5
735A
330
1F
100
AcDbEntity
  8
0
100
AcDbCircle
 10
10.52800721684205
 20
9.667074889112852
 30
0.0
 40
0.08606390625
  0
LINE
  5
735B
330
1F
100
AcDbEntity
  8
0
100
AcDbLine
 10
10.48964712829631
 20
9.747065118598776
 30
0.0
 11
10.59949681472873
 21
9.614547081235034
 31
0.0
1001
ACAD
1000
TCW40_DEV_WIDTH
1002
{
1040
-3.0
1002
}
  0
LINE
  5
735C
330
1F
100
AcDbEntity
  8
0
100
AcDbLine
 10
10.45651761895538
 20
9.719602696990673
 30
0.0
 11
10.56636730538778
 21
9.587084659626931
 31
0.0
1001
ACAD
1000
TCW40_DEV_WIDTH
1002
{
1040
-3.0
1002
}
  0
CIRCLE
  5
735D
330
1F
100
AcDbEntity
  8
0
100
AcDbCircle
 10
10.72165100590455
 20
9.667074889112852
 30
0.0
 40
0.08606390625
  0
LINE
  5
735E
330
1F
100
AcDbEntity
  8
0
100
AcDbLine
 10
10.68329091735882
 20
9.747065118598776
 30
0.0
 11
10.79314060379122
 21
9.614547081235034
 31
0.0
1001
ACAD
1000
TCW40_DEV_WIDTH
1002
{
1040
-3.0
1002
}
  0
LINE
  5
735F
330
1F
100
AcDbEntity
  8
0
100
AcDbLine
 10
10.65016140801787
 20
9.719602696990673
 30
0.0
 11
10.76001109445029
 21
9.587084659626931
 31
0.0
1001
ACAD
1000
TCW40_DEV_WIDTH
1002
{
1040
-3.0
1002
}
  0
CIRCLE
  5
7360
330
1F
100
AcDbEntity
  8
0
100
AcDbCircle
 10
10.91529479496704
 20
9.667074889112852
 30
0.0
 40
0.08606390625
  0
LINE
  5
7361
330
1F
100
AcDbEntity
  8
0
100
AcDbLine
 10
10.87693470642131
 20
9.747065118598776
 30
0.0
 11
10.98678439285373
 21
9.614547081235034
 31
0.0
1001
ACAD
1000
TCW40_DEV_WIDTH
1002
{
1040
-3.0
1002
}
  0
LINE
  5
7362
330
1F
100
AcDbEntity
  8
0
100
AcDbLine
 10
10.84380519708038
 20
9.719602696990673
 30
0.0
 11
10.95365488351279
 21
9.587084659626931
 31
0.0
1001
ACAD
1000
TCW40_DEV_WIDTH
1002
{
1040
-3.0
1002
}
  0
CIRCLE
  5
7363
330
1F
100
AcDbEntity
  8
0
100
AcDbCircle
 10
11.10893858402955
 20
9.667074889112852
 30
0.0
 40
0.08606390625
  0
LINE
  5
7364
330
1F
100
AcDbEntity
  8
0
100
AcDbLine
 10
11.07057849548382
 20
9.747065118598776
 30
0.0
 11
11.18042818191623
 21
9.614547081235034
 31
0.0
1001
ACAD
1000
TCW40_DEV_WIDTH
1002
{
1040
-3.0
1002
}
  0
LINE
  5
7365
330
1F
100
AcDbEntity
  8
0
100
AcDbLine
 10
11.03744898614289
 20
9.719602696990673
 30
0.0
 11
11.14729867257528
 21
9.587084659626931
 31
0.0
1001
ACAD
1000
TCW40_DEV_WIDTH
1002
{
1040
-3.0
1002
}
  0
CIRCLE
  5
7366
330
1F
100
AcDbEntity
  8
0
100
AcDbCircle
 10
11.30258237309206
 20
9.667074889112852
 30
0.0
 40
0.08606390625
  0
LINE
  5
7367
330
1F
100
AcDbEntity
  8
0
100
AcDbLine
 10
11.26422228454632
 20
9.747065118598776
 30
0.0
 11
11.37407197097872
 21
9.614547081235034
 31
0.0
1001
ACAD
1000
TCW40_DEV_WIDTH
1002
{
1040
-3.0
1002
}
  0
LINE
  5
7368
330
1F
100
AcDbEntity
  8
0
100
AcDbLine
 10
11.23109277520537
 20
9.719602696990673
 30
0.0
 11
11.34094246163779
 21
9.587084659626931
 31
0.0
1001
ACAD
1000
TCW40_DEV_WIDTH
1002
{
1040
-3.0
1002
}
  0
CIRCLE
  5
7369
330
1F
100
AcDbEntity
  8
0
100
AcDbCircle
 10
11.49622616215454
 20
9.667074889112852
 30
0.0
 40
0.08606390625
  0
LINE
  5
736A
330
1F
100
AcDbEntity
  8
0
100
AcDbLine
 10
11.45786607360881
 20
9.747065118598776
 30
0.0
 11
11.56771576004123
 21
9.614547081235034
 31
0.0
1001
ACAD
1000
TCW40_DEV_WIDTH
1002
{
1040
-3.0
1002
}
  0
LINE
  5
736B
330
1F
100
AcDbEntity
  8
0
100
AcDbLine
 10
11.42473656426788
 20
9.719602696990673
 30
0.0
 11
11.53458625070029
 21
9.587084659626931
 31
0.0
1001
ACAD
1000
TCW40_DEV_WIDTH
1002
{
1040
-3.0
1002
}
  0
LINE
  5
736C
330
1F
100
AcDbEntity
  8
0
100
AcDbLine
 10
10.03313975590455
 20
9.920010714959964
 30
0.0
 11
11.60380604496705
 21
9.920010714959964
 31
0.0
1001
ACAD
1000
TCW40_DEV_WIDTH
1002
{
1040
-3.0
1002
}
  0
LINE
  5
736D
330
1F
100
AcDbEntity
  8
0
100
AcDbLine
 10
10.03313975590455
 20
10.00607462120996
 30
0.0
 11
11.60380604496705
 21
10.00607462120996
 31
0.0
1001
ACAD
1000
TCW40_DEV_WIDTH
1002
{
1040
-3.0
1002
}
  0
LINE
  5
736E
330
1F
100
AcDbEntity
  8
0
100
AcDbLine
 10
10.03313975590455
 20
10.26426633995996
 30
0.0
 11
11.60380604496705
 21
10.26426633995996
 31
0.0
1001
ACAD
1000
TCW40_DEV_WIDTH
1002
{
1040
-3.0
1002
}
  0
LINE
  5
736F
330
1F
100
AcDbEntity
  8
0
100
AcDbLine
 10
10.03313975590455
 20
9.446659230584963
 30
0.0
 11
11.60380604496705
 21
9.446659230584963
 31
0.0
1001
ACAD
1000
TCW40_DEV_WIDTH
1002
{
1040
-3.0
1002
}
  0
LINE
  5
7370
330
1F
100
AcDbEntity
  8
0
100
AcDbLine
 10
10.03313975590455
 20
9.532723136834965
 30
0.0
 11
11.60380604496705
 21
9.532723136834965
 31
0.0
1001
ACAD
1000
TCW40_DEV_WIDTH
1002
{
1040
-3.0
1002
}
  0
LINE
  5
7371
330
1F
100
AcDbEntity
  8
0
100
AcDbLine
 10
10.03313975590455
 20
9.898494738397463
 30
0.0
 11
11.60380604496705
 21
9.898494738397463
 31
0.0
1001
ACAD
1000
TCW40_DEV_WIDTH
1002
{
1040
-3.0
1002
}
  0
LINE
  5
7372
330
1F
100
AcDbEntity
  8
0
100
AcDbLine
 10
10.03313975590455
 20
9.790914855584965
 30
0.0
 11
11.60380604496705
 21
9.790914855584965
 31
0.0
1001
ACAD
1000
TCW40_DEV_WIDTH
1002
{
1040
-3.0
1002
}
  0
LINE
  5
737B
330
1F
100
AcDbEntity
  8
0
100
AcDbLine
 10
10.03313975590455
 20
9.920010714959964
 30
0.0
 11
10.03313975590455
 21
9.446659230584963
 31
0.0
1001
ACAD
1000
TCW40_DEV_WIDTH
1002
{
1040
-3.0
1002
}
  0
LINE
  5
737C
330
1F
100
AcDbEntity
  8
0
100
AcDbLine
 10
11.60380604496705
 20
10.39336219933496
 30
0.0
 11
11.60380604496705
 21
9.920010714959964
 31
0.0
1001
ACAD
1000
TCW40_DEV_WIDTH
1002
{
1040
-3.0
1002
}
  0
LINE
  5
737D
330
1F
100
AcDbEntity
  8
0
100
AcDbLine
 10
10.03313975590455
 20
10.39336219933496
 30
0.0
 11
10.03313975590455
 21
9.920010714959964
 31
0.0
1001
ACAD
1000
TCW40_DEV_WIDTH
1002
{
1040
-3.0
1002
}
  0
DIMENSION
  5
7380
330
1F
100
AcDbEntity
  8
DIM
100
AcDbDimension
  2
*D1
 10
13.14133439527815
 20
5.239363699334965
 30
0.0
 11
13.14133439527815
 21
7.816362949334966
 31
0.0
 70
    32
 71
     5
 42
5.153998499999997
  3
Standard
100
AcDbAlignedDimension
 13
12.46046019496705
 23
10.39336219933496
 33
0.0
 14
12.46046019496705
 24
5.239363699334965
 34
0.0
 50
90.0
100
AcDbRotatedDimension
  0
LINE
  5
7382
330
1F
100
AcDbEntity
  8
0
100
AcDbLine
 10
9.327260694967044
 20
7.862947772186934
 30
0.0
 11
9.32726069496703
 21
7.6268867721868
 31
0.0
1001
ACAD
1000
TCW40_DEV_WIDTH
1002
{
1040
-3.0
1002
}
  0
LINE
  5
7383
330
1F
100
AcDbEntity
  8
0
100
AcDbLine
 10
10.66502155375361
 20
7.862046901925502
 30
0.0
 11
10.66502155375361
 21
7.625808870698161
 31
0.0
1001
ACAD
1000
TCW40_DEV_WIDTH
1002
{
1040
-3.0
1002
}
  0
LINE
  5
7387
330
1F
100
AcDbEntity
  8
0
100
AcDbLine
 10
10.66502155375361
 20
9.252400699334963
 30
0.0
 11
9.32726069496703
 21
9.252400699334963
 31
0.0
1001
ACAD
1000
TCW40_DEV_WIDTH
1002
{
1040
-3.0
1002
}
  0
LINE
  5
7388
330
1F
100
AcDbEntity
  8
0
100
AcDbLine
 10
9.32726069496703
 20
9.252400699334963
 30
0.0
 11
9.32726069496703
 21
7.862947772186934
 31
0.0
1001
ACAD
1000
TCW40_DEV_WIDTH
1002
{
1040
-3.0
1002
}
  0
LINE
  5
7389
330
1F
100
AcDbEntity
  8
0
100
AcDbLine
 10
10.66502155375361
 20
9.252400699334963
 30
0.0
 11
10.66502155375361
 21
7.862046901925502
 31
0.0
1001
ACAD
1000
TCW40_DEV_WIDTH
1002
{
1040
-3.0
1002
}
  0
DIMENSION
  5
738B
330
1F
100
AcDbEntity
  8
DIM
100
AcDbDimension
  2
*D2
 10
12.46046019496705
 20
10.83767321527864
 30
0.0
 11
10.81797019496704
 21
10.83767321527864
 31
0.0
 70
   160
 71
     5
 42
3.284980000000004
  3
Standard
100
AcDbAlignedDimension
 13
9.175480194967043
 23
10.39336219933496
 33
0.0
 14
12.46046019496705
 24
10.39336219933496
 34
0.0
100
AcDbRotatedDimension
  0
LINE
  5
738C
330
1F
100
AcDbEntity
  8
0
100
AcDbLine
 10
12.09000042521844
 20
6.949203884132765
 30
0.0
 11
12.29998496471568
 21
7.070438514537157
 31
0.0
  0
ARC
  5
738D
330
1F
100
AcDbEntity
  8
0
100
AcDbCircle
 10
12.19499269496706
 20
7.009821199334959
 30
0.0
 40
0.1212346304043912
100
AcDbArc
 50
30.00000000000095
 51
209.9999999999993
  0
LINE
  5
738E
330
1F
100
AcDbEntity
  8
0
100
AcDbLine
 10
12.26441943564114
 20
6.90157961325579
 30
0.0
 11
12.24231205787712
 21
6.939870714765179
 31
0.0
  0
LINE
  5
738F
330
1F
100
AcDbEntity
  8
0
100
AcDbLine
 10
12.2540192879205
 20
6.895575085169671
 30
0.0
 11
12.23191191015649
 21
6.933866186679059
 31
0.0
  0
LINE
  5
7390
330
1F
100
AcDbEntity
  8
0
100
AcDbLine
 10
12.23191191015649
 20
6.933866186679059
 30
0.0
 11
12.24231205787712
 21
6.939870714765179
 31
0.0
  0
LINE
  5
7392
330
1F
100
AcDbEntity
  8
0
100
AcDbLine
 10
12.19499269496705
 20
6.495151568930577
 30
0.0
 11
12.19499269496706
 21
6.737620829739359
 31
0.0
  0
ARC
  5
7393
330
1F
100
AcDbEntity
  8
0
100
AcDbCircle
 10
12.19499269496706
 20
6.616386199334968
 30
0.0
 40
0.1212346304043912
100
AcDbArc
 50
90.0
 51
269.9999999999984
  0
LINE
  5
7394
330
1F
100
AcDbEntity
  8
0
100
AcDbLine
 10
12.32344602859458
 20
6.622390727421088
 30
0.0
 11
12.27923127306655
 21
6.622390727421088
 31
0.0
  0
LINE
  5
7395
330
1F
100
AcDbEntity
  8
0
100
AcDbLine
 10
12.32344602859458
 20
6.610381671248848
 30
0.0
 11
12.27923127306655
 21
6.610381671248848
 31
0.0
  0
LINE
  5
7396
330
1F
100
AcDbEntity
  8
0
100
AcDbLine
 10
12.27923127306655
 20
6.610381671248848
 30
0.0
 11
12.27923127306655
 21
6.622390727421088
 31
0.0
  0
LINE
  5
7398
330
1F
100
AcDbEntity
  8
0
100
AcDbLine
 10
12.29998496471568
 20
6.162333884132777
 30
0.0
 11
12.09000042521843
 21
6.283568514537154
 31
0.0
  0
ARC
  5
7399
330
1F
100
AcDbEntity
  8
0
100
AcDbCircle
 10
12.19499269496706
 20
6.222951199334964
 30
0.0
 40
0.1212346304043912
100
AcDbArc
 50
150.0000000000049
 51
330.0000000000033
  0
LINE
  5
739A
330
1F
100
AcDbEntity
  8
0
100
AcDbLine
 10
12.25401928792049
 20
6.337197313500258
 30
0.0
 11
12.23191191015648
 21
6.298906211990871
 31
0.0
  0
LINE
  5
739B
330
1F
100
AcDbEntity
  8
0
100
AcDbLine
 10
12.26441943564112
 20
6.331192785414138
 30
0.0
 11
12.24231205787712
 21
6.292901683904752
 31
0.0
  0
LINE
  5
739C
330
1F
100
AcDbEntity
  8
0
100
AcDbLine
 10
12.24231205787712
 20
6.292901683904752
 30
0.0
 11
12.23191191015648
 21
6.298906211990875
 31
0.0
  0
LINE
  5
739E
330
1F
100
AcDbEntity
  8
0
100
AcDbLine
 10
10.51626042521843
 20
6.949203884132767
 30
0.0
 11
10.72624496471567
 21
7.070438514537158
 31
0.0
  0
ARC
  5
739F
330
1F
100
AcDbEntity
  8
0
100
AcDbCircle
 10
10.62125269496706
 20
7.009821199334961
 30
0.0
 40
0.1212346304043912
100
AcDbArc
 50
30.00000000000095
 51
209.9999999999993
  0
LINE
  5
73A0
330
1F
100
AcDbEntity
  8
0
100
AcDbLine
 10
10.69067943564113
 20
6.901579613255792
 30
0.0
 11
10.66857205787712
 21
6.939870714765179
 31
0.0
  0
LINE
  5
73A1
330
1F
100
AcDbEntity
  8
0
100
AcDbLine
 10
10.6802792879205
 20
6.895575085169673
 30
0.0
 11
10.65817191015649
 21
6.933866186679059
 31
0.0
  0
LINE
  5
73A2
330
1F
100
AcDbEntity
  8
0
100
AcDbLine
 10
10.65817191015649
 20
6.933866186679059
 30
0.0
 11
10.66857205787712
 21
6.939870714765179
 31
0.0
  0
LINE
  5
73A4
330
1F
100
AcDbEntity
  8
0
100
AcDbLine
 10
10.62125269496705
 20
6.495151568930577
 30
0.0
 11
10.62125269496706
 21
6.737620829739359
 31
0.0
  0
ARC
  5
73A5
330
1F
100
AcDbEntity
  8
0
100
AcDbCircle
 10
10.62125269496706
 20
6.616386199334968
 30
0.0
 40
0.1212346304043912
100
AcDbArc
 50
90.0
 51
269.9999999999984
  0
LINE
  5
73A6
330
1F
100
AcDbEntity
  8
0
100
AcDbLine
 10
10.74970602859457
 20
6.622390727421088
 30
0.0
 11
10.70549127306655
 21
6.622390727421088
 31
0.0
  0
LINE
  5
73A7
330
1F
100
AcDbEntity
  8
0
100
AcDbLine
 10
10.74970602859457
 20
6.610381671248848
 30
0.0
 11
10.70549127306655
 21
6.610381671248848
 31
0.0
  0
LINE
  5
73A8
330
1F
100
AcDbEntity
  8
0
100
AcDbLine
 10
10.70549127306655
 20
6.610381671248848
 30
0.0
 11
10.70549127306655
 21
6.622390727421088
 31
0.0
  0
LINE
  5
73AA
330
1F
100
AcDbEntity
  8
0
100
AcDbLine
 10
10.72624496471568
 20
6.162333884132774
 30
0.0
 11
10.51626042521843
 21
6.283568514537158
 31
0.0
  0
ARC
  5
73AB
330
1F
100
AcDbEntity
  8
0
100
AcDbCircle
 10
10.62125269496706
 20
6.222951199334964
 30
0.0
 40
0.1212346304043912
100
AcDbArc
 50
150.0000000000027
 51
330.000000000001
  0
LINE
  5
73AC
330
1F
100
AcDbEntity
  8
0
100
AcDbLine
 10
10.68027928792049
 20
6.337197313500254
 30
0.0
 11
10.65817191015648
 21
6.298906211990868
 31
0.0
  0
LINE
  5
73AD
330
1F
100
AcDbEntity
  8
0
100
AcDbLine
 10
10.69067943564113
 20
6.331192785414138
 30
0.0
 11
10.66857205787712
 21
6.292901683904748
 31
0.0
  0
LINE
  5
73AE
330
1F
100
AcDbEntity
  8
0
100
AcDbLine
 10
10.66857205787712
 20
6.292901683904748
 30
0.0
 11
10.65817191015648
 21
6.298906211990871
 31
0.0
  0
TEXT
  5
73AF
330
1F
100
AcDbEntity
  8
TEXT
100
AcDbText
 10
9.552694227888396
 20
8.232923088023325
 30
0.0
 40
0.09
  1
1715-TADOB8DE
 41
0.8
 72
     1
 11
9.984694227888397
 21
8.277923088023324
 31
0.0
100
AcDbText
 73
     2
  0
LINE
  5
9557
330
1F
100
AcDbEntity
  8
0
100
AcDbLine
 10
14.62550939021106
 20
7.616031474388119
 30
0.0
 11
14.35795291556645
 21
7.822096054799388
 31
0.0
  0
LINE
  5
95A1
330
1F
100
AcDbEntity
  8
0
100
AcDbLine
 10
14.90922532606561
 20
9.249077620707819
 30
0.0
 11
14.43422532606561
 21
9.249077620707819
 31
0.0
  0
LINE
  5
95A2
330
1F
100
AcDbEntity
  8
0
100
AcDbLine
 10
14.30922532606561
 20
9.124077620707819
 30
0.0
 11
14.30922532606561
 21
7.921128975571466
 31
0.0
  0
LINE
  5
95A4
330
1F
100
AcDbEntity
  8
0
100
AcDbLine
 10
14.90922532606561
 20
7.590064395160194
 30
0.0
 11
14.70178180071022
 21
7.590064395160194
 31
0.0
  0
ARC
  5
95A6
330
1F
100
AcDbEntity
  8
0
100
AcDbCircle
 10
14.43422532606561
 20
7.921128975571466
 30
0.0
 40
0.125
100
AcDbArc
 50
180.0
 51
232.3975325063222
  0
ARC
  5
95A7
330
1F
100
AcDbEntity
  8
0
100
AcDbCircle
 10
14.70178180071022
 20
7.715064395160194
 30
0.0
 40
0.125
100
AcDbArc
 50
232.3975325063223
 51
270.0
  0
ARC
  5
95A8
330
1F
100
AcDbEntity
  8
0
100
AcDbCircle
 10
14.43422532606561
 20
9.124077620707819
 30
0.0
 40
0.125
100
AcDbArc
 50
90.0
 51
180.0
  0
LINE
  5
95EF
330
1F
100
AcDbEntity
  8
0
100
AcDbLine
 10
14.70922532606562
 20
5.472101620707821
 30
0.0
 11
14.47922532606561
 21
5.472101620707821
 31
0.0
  0
LINE
  5
95F0
330
1F
100
AcDbEntity
  8
0
100
AcDbLine
 10
14.90922532606561
 20
7.281902620707821
 30
0.0
 11
14.70922532606562
 21
7.281902620707821
 31
0.0
  0
LINE
  5
95F1
330
1F
100
AcDbEntity
  8
0
100
AcDbLine
 10
14.47922532606561
 20
7.085185120707823
 30
0.0
 11
14.47922532606561
 21
5.472101620707821
 31
0.0
  0
LINE
  5
95F2
330
1F
100
AcDbEntity
  8
0
100
AcDbLine
 10
14.90922532606561
 20
5.275384120707816
 30
0.0
 11
14.70922532606562
 21
5.275384120707816
 31
0.0
  0
LINE
  5
95F3
330
1F
100
AcDbEntity
  8
0
100
AcDbLine
 10
14.48422532606561
 20
7.085185120707823
 30
0.0
 11
14.47922532606561
 21
7.085185120707823
 31
0.0
  0
LINE
  5
95F4
330
1F
100
AcDbEntity
  8
0
100
AcDbLine
 10
14.70922532606562
 20
7.281902620707821
 30
0.0
 11
14.70922532606562
 21
7.123026868759275
 31
0.0
  0
LINE
  5
963B
330
1F
100
AcDbEntity
  8
0
100
AcDbLine
 10
14.90922532606561
 20
8.894986120707816
 30
0.0
 11
14.67922532606561
 21
8.894986120707816
 31
0.0
  0
LINE
  5
963C
330
1F
100
AcDbEntity
  8
0
100
AcDbLine
 10
14.90922532606561
 20
8.560566370707819
 30
0.0
 11
14.67922532606561
 21
8.560566370707819
 31
0.0
  0
LINE
  5
963D
330
1F
100
AcDbEntity
  8
0
100
AcDbLine
 10
14.67922532606561
 20
8.894986120707816
 30
0.0
 11
14.67922532606561
 21
8.560566370707821
 31
0.0
  0
LINE
  5
963F
330
1F
100
AcDbEntity
  8
0
100
AcDbLine
 10
14.67922532606561
 20
8.872776245707818
 30
0.0
 11
15.08207495236376
 21
8.832971860621617
 31
0.0
  0
LINE
  5
9640
330
1F
100
AcDbEntity
  8
0
100
AcDbLine
 10
14.67922532606561
 20
8.582776245707819
 30
0.0
 11
15.08207495236376
 21
8.62258063079402
 31
0.0
  0
LINE
  5
9735
330
1F
100
AcDbEntity
  8
0
100
AcDbLine
 10
14.90922532606561
 20
7.450048888514986
 30
0.0
 11
14.32922532606561
 21
7.450048888514986
 31
0.0
  0
LINE
  5
9736
330
1F
100
AcDbEntity
  8
0
100
AcDbLine
 10
14.32922532606561
 20
7.450048888514986
 30
0.0
 11
14.32922532606561
 21
7.34981735290065
 31
0.0
  0
LINE
  5
9737
330
1F
100
AcDbEntity
  8
0
100
AcDbLine
 10
14.32922532606561
 20
7.34981735290065
 30
0.0
 11
14.90922532606561
 21
7.34981735290065
 31
0.0
  0
LINE
  5
977F
330
1F
100
AcDbEntity
  8
0
100
AcDbLine
 10
14.90922532606561
 20
6.734297751112215
 30
0.0
 11
14.48422532606561
 21
6.724297751112215
 31
0.0
  0
LINE
  5
9780
330
1F
100
AcDbEntity
  8
0
100
AcDbLine
 10
14.90922532606561
 20
6.491828490303433
 30
0.0
 11
14.48422532606561
 21
6.501828490303433
 31
0.0
  0
LINE
  5
9781
330
1F
100
AcDbEntity
  8
0
100
AcDbLine
 10
14.48422532606561
 20
6.724297751112215
 30
0.0
 11
14.48422532606561
 21
6.501828490303433
 31
0.0
  0
LINE
  5
9782
330
1F
100
AcDbEntity
  8
0
100
AcDbLine
 10
14.70922532606562
 20
6.494181431479903
 30
0.0
 11
14.70922532606562
 21
6.336156868759278
 31
0.0
  0
LINE
  5
97C8
330
1F
100
AcDbEntity
  8
0
100
AcDbLine
 10
14.90922532606561
 20
7.127732751112219
 30
0.0
 11
14.48422532606561
 21
7.117732751112219
 31
0.0
  0
LINE
  5
97C9
330
1F
100
AcDbEntity
  8
0
100
AcDbLine
 10
14.90922532606561
 20
6.885263490303437
 30
0.0
 11
14.48422532606561
 21
6.895263490303436
 31
0.0
  0
LINE
  5
97CA
330
1F
100
AcDbEntity
  8
0
100
AcDbLine
 10
14.48422532606561
 20
7.117732751112219
 30
0.0
 11
14.48422532606561
 21
6.895263490303436
 31
0.0
  0
LINE
  5
97CB
330
1F
100
AcDbEntity
  8
0
100
AcDbLine
 10
14.70922532606562
 20
6.889969372656377
 30
0.0
 11
14.70922532606562
 21
6.731944809935743
 31
0.0
  0
LINE
  5
97CC
330
1F
100
AcDbEntity
  8
0
100
AcDbLine
 10
14.90922532606561
 20
6.340862751112219
 30
0.0
 11
14.48422532606561
 21
6.330862751112219
 31
0.0
  0
LINE
  5
97CD
330
1F
100
AcDbEntity
  8
0
100
AcDbLine
 10
14.90922532606561
 20
6.098393490303436
 30
0.0
 11
14.48422532606561
 21
6.108393490303436
 31
0.0
  0
LINE
  5
97CE
330
1F
100
AcDbEntity
  8
0
100
AcDbLine
 10
14.48422532606561
 20
6.330862751112219
 30
0.0
 11
14.48422532606561
 21
6.108393490303436
 31
0.0
  0
LINE
  5
97CF
330
1F
100
AcDbEntity
  8
0
100
AcDbLine
 10
14.70922532606562
 20
6.103099372656378
 30
0.0
 11
14.70922532606562
 21
5.275384120707816
 31
0.0
  0
LINE
  5
9B11
330
1F
100
AcDbEntity
  8
0
100
AcDbLine
 10
7.010430999723027
 20
7.616031474388119
 30
0.0
 11
7.277987474367638
 21
7.822096054799388
 31
0.0
  0
ARC
  5
9B12
330
1F
100
AcDbEntity
  8
0
100
AcDbCircle
 10
7.20171506386848
 20
7.921128975571466
 30
0.0
 40
0.125
100
AcDbArc
 50
307.6024674936779
 51
0.0
  0
LINE
  5
9B14
330
1F
100
AcDbEntity
  8
0
100
AcDbLine
 10
6.726715063868478
 20
5.275384120707816
 30
0.0
 11
6.926715063868474
 21
5.275384120707816
 31
0.0
  0
LINE
  5
9B16
330
1F
100
AcDbEntity
  8
0
100
AcDbLine
 10
6.926715063868474
 20
5.472101620707821
 30
0.0
 11
7.156715063868478
 21
5.472101620707821
 31
0.0
  0
LINE
  5
9B17
330
1F
100
AcDbEntity
  8
0
100
AcDbLine
 10
6.726715063868478
 20
9.249077620707819
 30
0.0
 11
7.20171506386848
 21
9.249077620707819
 31
0.0
  0
ARC
  5
9B18
330
1F
100
AcDbEntity
  8
0
100
AcDbCircle
 10
7.20171506386848
 20
9.124077620707819
 30
0.0
 40
0.125
100
AcDbArc
 50
0.0
 51
90.0
  0
LINE
  5
9B19
330
1F
100
AcDbEntity
  8
0
100
AcDbLine
 10
7.32671506386848
 20
9.124077620707819
 30
0.0
 11
7.32671506386848
 21
7.921128975571466
 31
0.0
  0
LINE
  5
9B1A
330
1F
100
AcDbEntity
  8
0
100
AcDbLine
 10
6.726715063868478
 20
7.590064395160194
 30
0.0
 11
6.934158589223873
 21
7.590064395160194
 31
0.0
  0
ARC
  5
9B1B
330
1F
100
AcDbEntity
  8
0
100
AcDbCircle
 10
6.934158589223873
 20
7.715064395160194
 30
0.0
 40
0.125
100
AcDbArc
 50
270.0
 51
307.6024674936779
  0
LINE
  5
9B1C
330
1F
100
AcDbEntity
  8
0
100
AcDbLine
 10
6.726715063868478
 20
7.281902620707821
 30
0.0
 11
6.926715063868474
 21
7.281902620707821
 31
0.0
  0
LINE
  5
9B1D
330
1F
100
AcDbEntity
  8
0
100
AcDbLine
 10
7.156715063868478
 20
7.085185120707823
 30
0.0
 11
7.156715063868478
 21
5.472101620707821
 31
0.0
  0
LINE
  5
9B21
330
1F
100
AcDbEntity
  8
0
100
AcDbLine
 10
6.926715063868474
 20
7.281902620707821
 30
0.0
 11
6.926715063868474
 21
5.275384120707816
 31
0.0
  0
LINE
  5
9B22
330
1F
100
AcDbEntity
  8
0
100
AcDbLine
 10
6.726715063868478
 20
8.894986120707816
 30
0.0
 11
6.956715063868479
 21
8.894986120707816
 31
0.0
  0
LINE
  5
9B23
330
1F
100
AcDbEntity
  8
0
100
AcDbLine
 10
6.726715063868478
 20
8.560566370707819
 30
0.0
 11
6.956715063868482
 21
8.560566370707819
 31
0.0
  0
LINE
  5
9B24
330
1F
100
AcDbEntity
  8
0
100
AcDbLine
 10
6.956715063868479
 20
8.894986120707816
 30
0.0
 11
6.956715063868482
 21
8.560566370707821
 31
0.0
  0
LINE
  5
9B25
330
1F
100
AcDbEntity
  8
0
100
AcDbLine
 10
6.956715063868479
 20
8.582776245707819
 30
0.0
 11
6.525098890861634
 21
8.62258063079402
 31
0.0
  0
LINE
  5
9B26
330
1F
100
AcDbEntity
  8
0
100
AcDbLine
 10
6.956715063868479
 20
8.872776245707818
 30
0.0
 11
6.525098890861634
 21
8.832971860621617
 31
0.0
  0
LINE
  5
9B28
330
1F
100
AcDbEntity
  8
0
100
AcDbLine
 10
6.726715063868478
 20
7.450048888514986
 30
0.0
 11
7.30671506386848
 21
7.450048888514986
 31
0.0
  0
LINE
  5
9B29
330
1F
100
AcDbEntity
  8
0
100
AcDbLine
 10
7.30671506386848
 20
7.450048888514986
 30
0.0
 11
7.30671506386848
 21
7.34981735290065
 31
0.0
  0
LINE
  5
9B2A
330
1F
100
AcDbEntity
  8
0
100
AcDbLine
 10
7.30671506386848
 20
7.34981735290065
 30
0.0
 11
6.726715063868478
 21
7.34981735290065
 31
0.0
  0
LINE
  5
9B36
330
1F
100
AcDbEntity
  8
0
100
AcDbLine
 10
6.926715063868474
 20
7.085185120707823
 30
0.0
 11
7.156715063868478
 21
7.085185120707823
 31
0.0
  0
LINE
  5
BD15
330
1F
100
AcDbEntity
  8
0
100
AcDbLine
 10
9.175480194967043
 20
12.67123266554822
 30
0.0
 11
9.195480194967043
 21
12.19623266554822
 31
0.0
  0
ARC
  5
BD16
330
1F
100
AcDbEntity
  8
0
100
AcDbCircle
 10
9.303633895055034
 20
12.18048177362213
 30
0.0
 40
0.1092946176130845
100
AcDbArc
 50
171.7140198130581
 51
268.3464987307217
  0
LINE
  5
BD17
330
1F
100
AcDbEntity
  8
0
100
AcDbLine
 10
9.300480194967043
 20
12.07123266554822
 30
0.0
 11
10.03313975590455
 21
12.07123266554822
 31
0.0
  0
LINE
  5
BD18
330
1F
100
AcDbEntity
  8
0
100
AcDbLine
 10
9.300480194967043
 20
12.07123266554822
 30
0.0
 11
9.300480194967043
 21
12.22123266554822
 31
0.0
  0
LINE
  5
BD1A
330
1F
100
AcDbEntity
  8
0
100
AcDbLine
 10
9.300480194967043
 20
12.22123266554822
 30
0.0
 11
10.03313975590455
 21
12.22123266554822
 31
0.0
  0
LINE
  5
BD1B
330
1F
100
AcDbEntity
  8
0
100
AcDbLine
 10
12.46046019496705
 20
12.67123266554822
 30
0.0
 11
12.44046019496705
 21
12.19623266554822
 31
0.0
  0
ARC
  5
BD1C
330
1F
100
AcDbEntity
  8
0
100
AcDbCircle
 10
12.33230649487905
 20
12.18048177362213
 30
0.0
 40
0.1092946176130845
100
AcDbArc
 50
271.6535012692784
 51
8.285980186941957
  0
LINE
  5
BD1D
330
1F
100
AcDbEntity
  8
0
100
AcDbLine
 10
12.33546019496705
 20
12.07123266554822
 30
0.0
 11
11.60280063402954
 21
12.07123266554822
 31
0.0
  0
LINE
  5
BD1E
330
1F
100
AcDbEntity
  8
0
100
AcDbLine
 10
12.33546019496705
 20
12.07123266554822
 30
0.0
 11
12.33546019496705
 21
12.22123266554822
 31
0.0
  0
LINE
  5
BD1F
330
1F
100
AcDbEntity
  8
0
100
AcDbLine
 10
12.33546019496705
 20
12.22123266554822
 30
0.0
 11
11.60280063402954
 21
12.22123266554822
 31
0.0
  0
DIMENSION
  5
BFCA
330
1F
100
AcDbEntity
  8
DIM
100
AcDbDimension
  2
*D3
 10
6.263902950554218
 20
10.84209601167315
 30
0.0
 11
7.118175442292535
 21
10.84209601167315
 31
0.0
 70
    32
 71
     5
 42
1.708544983476635
  3
Standard
100
AcDbAlignedDimension
 13
7.972447934030853
 23
9.719955447015649
 33
0.0
 14
6.263902950554218
 24
7.803636038433044
 34
0.0
100
AcDbRotatedDimension
  0
LINE
  5
C22B
330
1F
100
AcDbEntity
  8
0
100
AcDbLine
 10
14.97172532606561
 20
10.39336219933496
 30
0.0
 11
14.97172532606561
 21
8.843875182190144
 31
0.0
  0
LINE
  5
C8E2
330
1F
100
AcDbEntity
  8
0
100
AcDbLine
 10
12.30867969496706
 20
12.87334883855506
 30
0.0
 11
10.97214858155325
 21
12.87334883855506
 31
0.0
  0
LINE
  5
C8E5
330
1F
100
AcDbEntity
  8
0
100
AcDbLine
 10
9.32726069496703
 20
12.87334883855506
 30
0.0
 11
10.66379180838084
 21
12.87334883855506
 31
0.0
  0
LINE
  5
C8E6
330
1F
100
AcDbEntity
  8
0
100
AcDbLine
 10
12.30867969496706
 20
12.73423266554822
 30
0.0
 11
12.30867969496706
 21
13.13403279317051
 31
0.0
  0
LINE
  5
C8E7
330
1F
100
AcDbEntity
  8
0
100
AcDbLine
 10
12.30867969496706
 20
13.13403279317051
 30
0.0
 11
10.97214858155325
 21
13.13403279317051
 31
0.0
  0
LINE
  5
C8E8
330
1F
100
AcDbEntity
  8
0
100
AcDbLine
 10
10.97214858155325
 20
13.13403279317051
 30
0.0
 11
10.97214858155325
 21
12.73423266554822
 31
0.0
  0
LINE
  5
C8E9
330
1F
100
AcDbEntity
  8
0
100
AcDbLine
 10
9.32726069496703
 20
12.73423266554822
 30
0.0
 11
9.32726069496703
 21
13.13403279317051
 31
0.0
  0
LINE
  5
C8EA
330
1F
100
AcDbEntity
  8
0
100
AcDbLine
 10
9.32726069496703
 20
13.13403279317051
 30
0.0
 11
10.66379180838084
 21
13.13403279317051
 31
0.0
  0
LINE
  5
C8EB
330
1F
100
AcDbEntity
  8
0
100
AcDbLine
 10
10.66379180838084
 20
13.13403279317051
 30
0.0
 11
10.66379180838084
 21
12.73423266554822
 31
0.0
  0
LINE
  5
C8EC
330
1F
100
AcDbEntity
  8
0
100
AcDbLine
 10
11.45562959628782
 20
11.67482666005947
 30
0.0
 11
11.56942878351848
 21
11.67482666005947
 31
0.0
  0
LINE
  5
C8ED
330
1F
100
AcDbEntity
  8
0
100
AcDbLine
 10
11.25900188670572
 20
11.67482666005947
 30
0.0
 11
11.37280107393638
 21
11.67482666005947
 31
0.0
  0
LINE
  5
C8EE
330
1F
100
AcDbEntity
  8
0
100
AcDbLine
 10
11.06201405311341
 20
11.67482666005947
 30
0.0
 11
11.17581324034407
 21
11.67482666005947
 31
0.0
  0
LINE
  5
C8EF
330
1F
100
AcDbEntity
  8
0
100
AcDbLine
 10
10.85782373931662
 20
11.67482666005947
 30
0.0
 11
10.97918553076198
 21
11.67482666005947
 31
0.0
  0
LINE
  5
C8F0
330
1F
100
AcDbEntity
  8
0
100
AcDbLine
 10
10.66119602973453
 20
11.67482666005947
 30
0.0
 11
10.78255782117989
 21
11.67482666005947
 31
0.0
  0
LINE
  5
C8F1
330
1F
100
AcDbEntity
  8
0
100
AcDbLine
 10
10.46420819614221
 20
11.67482666005947
 30
0.0
 11
10.58556998758757
 21
11.67482666005947
 31
0.0
  0
LINE
  5
C8F2
330
1F
100
AcDbEntity
  8
0
100
AcDbLine
 10
10.26758048656012
 20
11.67482666005947
 30
0.0
 11
10.38858215399526
 21
11.67482666005947
 31
0.0
  0
LINE
  5
C8F3
330
1F
100
AcDbEntity
  8
0
100
AcDbLine
 10
10.07095277697803
 20
11.67482666005947
 30
0.0
 11
10.19195444441316
 21
11.67482666005947
 31
0.0
  0
LINE
  5
C8F4
330
1F
100
AcDbEntity
  8
0
100
AcDbLine
 10
11.45562959628782
 20
11.99281616108692
 30
0.0
 11
11.45562959628782
 21
11.67482666005947
 31
0.0
  0
LINE
  5
C8F5
330
1F
100
AcDbEntity
  8
0
100
AcDbLine
 10
11.56906865950825
 20
11.67482666005947
 30
0.0
 11
11.56906865950825
 21
11.99281616108692
 31
0.0
  0
LINE
  5
C8F6
330
1F
100
AcDbEntity
  8
0
100
AcDbLine
 10
11.25900188670572
 20
11.99281616108692
 30
0.0
 11
11.25900188670572
 21
11.67482666005947
 31
0.0
  0
LINE
  5
C8F7
330
1F
100
AcDbEntity
  8
0
100
AcDbLine
 10
11.37244094992616
 20
11.67482666005947
 30
0.0
 11
11.37244094992616
 21
11.99281616108692
 31
0.0
  0
LINE
  5
C8F8
330
1F
100
AcDbEntity
  8
0
100
AcDbLine
 10
11.27412709513512
 20
11.95500314001344
 30
0.0
 11
11.37244094992616
 21
11.95500314001344
 31
0.0
  0
LINE
  5
C8F9
330
1F
100
AcDbEntity
  8
0
100
AcDbLine
 10
11.37244094992616
 20
11.7958283274946
 30
0.0
 11
11.27412709513512
 21
11.7958283274946
 31
0.0
  0
LINE
  5
C8FA
330
1F
100
AcDbEntity
  8
0
100
AcDbLine
 10
11.27412709513512
 20
11.7958283274946
 30
0.0
 11
11.27412709513512
 21
11.95500314001344
 31
0.0
  0
LINE
  5
C8FB
330
1F
100
AcDbEntity
  8
0
100
AcDbLine
 10
11.47075480471721
 20
11.95500314001344
 30
0.0
 11
11.56906865950825
 21
11.95500314001344
 31
0.0
  0
LINE
  5
C8FC
330
1F
100
AcDbEntity
  8
0
100
AcDbLine
 10
11.56906865950825
 20
11.7958283274946
 30
0.0
 11
11.47075480471721
 21
11.7958283274946
 31
0.0
  0
LINE
  5
C8FD
330
1F
100
AcDbEntity
  8
0
100
AcDbLine
 10
11.47075480471721
 20
11.7958283274946
 30
0.0
 11
11.47075480471721
 21
11.95500314001344
 31
0.0
  0
LINE
  5
C8FE
330
1F
100
AcDbEntity
  8
0
100
AcDbLine
 10
11.06201405311341
 20
11.99281616108692
 30
0.0
 11
11.06201405311341
 21
11.67482666005947
 31
0.0
  0
LINE
  5
C8FF
330
1F
100
AcDbEntity
  8
0
100
AcDbLine
 10
11.17581324034407
 20
11.67482666005947
 30
0.0
 11
11.17581324034407
 21
11.99281616108692
 31
0.0
  0
LINE
  5
C900
330
1F
100
AcDbEntity
  8
0
100
AcDbLine
 10
10.85782373931662
 20
11.99281616108692
 30
0.0
 11
10.85782373931662
 21
11.67482666005947
 31
0.0
  0
LINE
  5
C901
330
1F
100
AcDbEntity
  8
0
100
AcDbLine
 10
10.97882540675176
 20
11.67482666005947
 30
0.0
 11
10.97882540675176
 21
11.99281616108692
 31
0.0
  0
LINE
  5
C902
330
1F
100
AcDbEntity
  8
0
100
AcDbLine
 10
10.66119602973453
 20
11.99281616108692
 30
0.0
 11
10.66119602973453
 21
11.67482666005947
 31
0.0
  0
LINE
  5
C903
330
1F
100
AcDbEntity
  8
0
100
AcDbLine
 10
10.78219769716966
 20
11.67482666005947
 30
0.0
 11
10.78219769716966
 21
11.99281616108692
 31
0.0
  0
LINE
  5
C904
330
1F
100
AcDbEntity
  8
0
100
AcDbLine
 10
10.46420819614221
 20
11.99281616108692
 30
0.0
 11
10.46420819614221
 21
11.67482666005947
 31
0.0
  0
LINE
  5
C905
330
1F
100
AcDbEntity
  8
0
100
AcDbLine
 10
10.58556998758757
 20
11.67482666005947
 30
0.0
 11
10.58556998758757
 21
11.99281616108692
 31
0.0
  0
LINE
  5
C906
330
1F
100
AcDbEntity
  8
0
100
AcDbLine
 10
10.26758048656012
 20
11.99281616108692
 30
0.0
 11
10.26758048656012
 21
11.67482666005947
 31
0.0
  0
LINE
  5
C907
330
1F
100
AcDbEntity
  8
0
100
AcDbLine
 10
10.38858215399526
 20
11.67482666005947
 30
0.0
 11
10.38858215399526
 21
11.99281616108692
 31
0.0
  0
LINE
  5
C908
330
1F
100
AcDbEntity
  8
0
100
AcDbLine
 10
10.07095277697803
 20
11.99281616108692
 30
0.0
 11
10.07095277697803
 21
11.67482666005947
 31
0.0
  0
LINE
  5
C909
330
1F
100
AcDbEntity
  8
0
100
AcDbLine
 10
10.19195444441316
 20
11.67482666005947
 30
0.0
 11
10.19195444441316
 21
11.99281616108692
 31
0.0
  0
LINE
  5
C90A
330
1F
100
AcDbEntity
  8
0
100
AcDbLine
 10
10.09364058962212
 20
11.95500314001344
 30
0.0
 11
10.19195444441316
 21
11.95500314001344
 31
0.0
  0
LINE
  5
C90B
330
1F
100
AcDbEntity
  8
0
100
AcDbLine
 10
10.19195444441316
 20
11.7958283274946
 30
0.0
 11
10.09364058962212
 21
11.7958283274946
 31
0.0
  0
LINE
  5
C90C
330
1F
100
AcDbEntity
  8
0
100
AcDbLine
 10
10.09364058962212
 20
11.7958283274946
 30
0.0
 11
10.09364058962212
 21
11.95500314001344
 31
0.0
  0
LINE
  5
C90D
330
1F
100
AcDbEntity
  8
0
100
AcDbLine
 10
10.29026829920421
 20
11.95500314001344
 30
0.0
 11
10.38858215399526
 21
11.95500314001344
 31
0.0
  0
LINE
  5
C90E
330
1F
100
AcDbEntity
  8
0
100
AcDbLine
 10
10.38858215399526
 20
11.7958283274946
 30
0.0
 11
10.29026829920421
 21
11.7958283274946
 31
0.0
  0
LINE
  5
C90F
330
1F
100
AcDbEntity
  8
0
100
AcDbLine
 10
10.29026829920421
 20
11.7958283274946
 30
0.0
 11
10.29026829920421
 21
11.95500314001344
 31
0.0
  0
LINE
  5
C910
330
1F
100
AcDbEntity
  8
0
100
AcDbLine
 10
10.4868960087863
 20
11.95500314001344
 30
0.0
 11
10.58556998758757
 21
11.95500314001344
 31
0.0
  0
LINE
  5
C911
330
1F
100
AcDbEntity
  8
0
100
AcDbLine
 10
10.58556998758757
 20
11.7958283274946
 30
0.0
 11
10.4868960087863
 21
11.7958283274946
 31
0.0
  0
LINE
  5
C912
330
1F
100
AcDbEntity
  8
0
100
AcDbLine
 10
10.4868960087863
 20
11.7958283274946
 30
0.0
 11
10.4868960087863
 21
11.95500314001344
 31
0.0
  0
LINE
  5
C913
330
1F
100
AcDbEntity
  8
0
100
AcDbLine
 10
10.68388384237862
 20
11.95500314001344
 30
0.0
 11
10.78219769716966
 21
11.95500314001344
 31
0.0
  0
LINE
  5
C914
330
1F
100
AcDbEntity
  8
0
100
AcDbLine
 10
10.78219769716966
 20
11.7958283274946
 30
0.0
 11
10.68388384237862
 21
11.7958283274946
 31
0.0
  0
LINE
  5
C915
330
1F
100
AcDbEntity
  8
0
100
AcDbLine
 10
10.68388384237862
 20
11.7958283274946
 30
0.0
 11
10.68388384237862
 21
11.95500314001344
 31
0.0
  0
LINE
  5
C916
330
1F
100
AcDbEntity
  8
0
100
AcDbLine
 10
10.88051155196071
 20
11.95500314001344
 30
0.0
 11
10.97882540675176
 21
11.95500314001344
 31
0.0
  0
LINE
  5
C917
330
1F
100
AcDbEntity
  8
0
100
AcDbLine
 10
10.97882540675176
 20
11.7958283274946
 30
0.0
 11
10.88051155196071
 21
11.7958283274946
 31
0.0
  0
LINE
  5
C918
330
1F
100
AcDbEntity
  8
0
100
AcDbLine
 10
10.88051155196071
 20
11.7958283274946
 30
0.0
 11
10.88051155196071
 21
11.95500314001344
 31
0.0
  0
LINE
  5
C919
330
1F
100
AcDbEntity
  8
0
100
AcDbLine
 10
11.0771392615428
 20
11.95500314001344
 30
0.0
 11
11.17581324034407
 21
11.95500314001344
 31
0.0
  0
LINE
  5
C91A
330
1F
100
AcDbEntity
  8
0
100
AcDbLine
 10
11.17581324034407
 20
11.7958283274946
 30
0.0
 11
11.0771392615428
 21
11.7958283274946
 31
0.0
  0
LINE
  5
C91B
330
1F
100
AcDbEntity
  8
0
100
AcDbLine
 10
11.0771392615428
 20
11.7958283274946
 30
0.0
 11
11.0771392615428
 21
11.95500314001344
 31
0.0
  0
LINE
  5
C91C
330
1F
100
AcDbEntity
  8
0
100
AcDbLine
 10
10.03313975590455
 20
11.99281616108692
 30
0.0
 11
11.60380604496705
 21
11.99281616108692
 31
0.0
  0
LINE
  5
C91D
330
1F
100
AcDbEntity
  8
0
100
AcDbLine
 10
11.45562959628782
 20
12.20960969731482
 30
0.0
 11
11.56942878351848
 21
12.20960969731482
 31
0.0
  0
LINE
  5
C91E
330
1F
100
AcDbEntity
  8
0
100
AcDbLine
 10
11.25900188670572
 20
12.20960969731482
 30
0.0
 11
11.37280107393638
 21
12.20960969731482
 31
0.0
  0
LINE
  5
C91F
330
1F
100
AcDbEntity
  8
0
100
AcDbLine
 10
11.06201405311341
 20
12.20960969731482
 30
0.0
 11
11.17581324034407
 21
12.20960969731482
 31
0.0
  0
LINE
  5
C920
330
1F
100
AcDbEntity
  8
0
100
AcDbLine
 10
10.85782373931662
 20
12.20960969731482
 30
0.0
 11
10.97918553076198
 21
12.20960969731482
 31
0.0
  0
LINE
  5
C921
330
1F
100
AcDbEntity
  8
0
100
AcDbLine
 10
10.66119602973453
 20
12.20960969731482
 30
0.0
 11
10.78255782117989
 21
12.20960969731482
 31
0.0
  0
LINE
  5
C922
330
1F
100
AcDbEntity
  8
0
100
AcDbLine
 10
10.46420819614221
 20
12.20960969731482
 30
0.0
 11
10.58556998758757
 21
12.20960969731482
 31
0.0
  0
LINE
  5
C923
330
1F
100
AcDbEntity
  8
0
100
AcDbLine
 10
10.26758048656012
 20
12.20960969731482
 30
0.0
 11
10.38858215399526
 21
12.20960969731482
 31
0.0
  0
LINE
  5
C924
330
1F
100
AcDbEntity
  8
0
100
AcDbLine
 10
10.07095277697803
 20
12.20960969731482
 30
0.0
 11
10.19195444441316
 21
12.20960969731482
 31
0.0
  0
LINE
  5
C925
330
1F
100
AcDbEntity
  8
0
100
AcDbLine
 10
11.45562959628782
 20
12.52759919834227
 30
0.0
 11
11.45562959628782
 21
12.20960969731482
 31
0.0
  0
LINE
  5
C926
330
1F
100
AcDbEntity
  8
0
100
AcDbLine
 10
11.56906865950825
 20
12.20960969731482
 30
0.0
 11
11.56906865950825
 21
12.52759919834227
 31
0.0
  0
LINE
  5
C927
330
1F
100
AcDbEntity
  8
0
100
AcDbLine
 10
11.25900188670572
 20
12.52759919834227
 30
0.0
 11
11.25900188670572
 21
12.20960969731482
 31
0.0
  0
LINE
  5
C928
330
1F
100
AcDbEntity
  8
0
100
AcDbLine
 10
11.37244094992616
 20
12.20960969731482
 30
0.0
 11
11.37244094992616
 21
12.52759919834227
 31
0.0
  0
LINE
  5
C929
330
1F
100
AcDbEntity
  8
0
100
AcDbLine
 10
11.27412709513512
 20
12.48978617726879
 30
0.0
 11
11.37244094992616
 21
12.48978617726879
 31
0.0
  0
LINE
  5
C92A
330
1F
100
AcDbEntity
  8
0
100
AcDbLine
 10
11.37244094992616
 20
12.33061136474995
 30
0.0
 11
11.27412709513512
 21
12.33061136474995
 31
0.0
  0
LINE
  5
C92B
330
1F
100
AcDbEntity
  8
0
100
AcDbLine
 10
11.27412709513512
 20
12.33061136474995
 30
0.0
 11
11.27412709513512
 21
12.48978617726879
 31
0.0
  0
LINE
  5
C92C
330
1F
100
AcDbEntity
  8
0
100
AcDbLine
 10
11.47075480471721
 20
12.48978617726879
 30
0.0
 11
11.56906865950825
 21
12.48978617726879
 31
0.0
  0
LINE
  5
C92D
330
1F
100
AcDbEntity
  8
0
100
AcDbLine
 10
11.56906865950825
 20
12.33061136474995
 30
0.0
 11
11.47075480471721
 21
12.33061136474995
 31
0.0
  0
LINE
  5
C92E
330
1F
100
AcDbEntity
  8
0
100
AcDbLine
 10
11.47075480471721
 20
12.33061136474995
 30
0.0
 11
11.47075480471721
 21
12.48978617726879
 31
0.0
  0
LINE
  5
C92F
330
1F
100
AcDbEntity
  8
0
100
AcDbLine
 10
11.06201405311341
 20
12.52759919834227
 30
0.0
 11
11.06201405311341
 21
12.20960969731482
 31
0.0
  0
LINE
  5
C930
330
1F
100
AcDbEntity
  8
0
100
AcDbLine
 10
11.17581324034407
 20
12.20960969731482
 30
0.0
 11
11.17581324034407
 21
12.52759919834227
 31
0.0
  0
LINE
  5
C931
330
1F
100
AcDbEntity
  8
0
100
AcDbLine
 10
10.85782373931662
 20
12.52759919834227
 30
0.0
 11
10.85782373931662
 21
12.20960969731482
 31
0.0
  0
LINE
  5
C932
330
1F
100
AcDbEntity
  8
0
100
AcDbLine
 10
10.97882540675176
 20
12.20960969731482
 30
0.0
 11
10.97882540675176
 21
12.52759919834227
 31
0.0
  0
LINE
  5
C933
330
1F
100
AcDbEntity
  8
0
100
AcDbLine
 10
10.66119602973453
 20
12.52759919834227
 30
0.0
 11
10.66119602973453
 21
12.20960969731482
 31
0.0
  0
LINE
  5
C934
330
1F
100
AcDbEntity
  8
0
100
AcDbLine
 10
10.78219769716966
 20
12.20960969731482
 30
0.0
 11
10.78219769716966
 21
12.52759919834227
 31
0.0
  0
LINE
  5
C935
330
1F
100
AcDbEntity
  8
0
100
AcDbLine
 10
10.46420819614221
 20
12.52759919834227
 30
0.0
 11
10.46420819614221
 21
12.20960969731482
 31
0.0
  0
LINE
  5
C936
330
1F
100
AcDbEntity
  8
0
100
AcDbLine
 10
10.58556998758757
 20
12.20960969731482
 30
0.0
 11
10.58556998758757
 21
12.52759919834227
 31
0.0
  0
LINE
  5
C937
330
1F
100
AcDbEntity
  8
0
100
AcDbLine
 10
10.26758048656012
 20
12.52759919834227
 30
0.0
 11
10.26758048656012
 21
12.20960969731482
 31
0.0
  0
LINE
  5
C938
330
1F
100
AcDbEntity
  8
0
100
AcDbLine
 10
10.38858215399526
 20
12.20960969731482
 30
0.0
 11
10.38858215399526
 21
12.52759919834227
 31
0.0
  0
LINE
  5
C939
330
1F
100
AcDbEntity
  8
0
100
AcDbLine
 10
10.07095277697803
 20
12.52759919834227
 30
0.0
 11
10.07095277697803
 21
12.20960969731482
 31
0.0
  0
LINE
  5
C93A
330
1F
100
AcDbEntity
  8
0
100
AcDbLine
 10
10.19195444441316
 20
12.20960969731482
 30
0.0
 11
10.19195444441316
 21
12.52759919834227
 31
0.0
  0
LINE
  5
C93B
330
1F
100
AcDbEntity
  8
0
100
AcDbLine
 10
10.09364058962212
 20
12.48978617726879
 30
0.0
 11
10.19195444441316
 21
12.48978617726879
 31
0.0
  0
LINE
  5
C93C
330
1F
100
AcDbEntity
  8
0
100
AcDbLine
 10
10.19195444441316
 20
12.33061136474995
 30
0.0
 11
10.09364058962212
 21
12.33061136474995
 31
0.0
  0
LINE
  5
C93D
330
1F
100
AcDbEntity
  8
0
100
AcDbLine
 10
10.09364058962212
 20
12.33061136474995
 30
0.0
 11
10.09364058962212
 21
12.48978617726879
 31
0.0
  0
LINE
  5
C93E
330
1F
100
AcDbEntity
  8
0
100
AcDbLine
 10
10.29026829920421
 20
12.48978617726879
 30
0.0
 11
10.38858215399526
 21
12.48978617726879
 31
0.0
  0
LINE
  5
C93F
330
1F
100
AcDbEntity
  8
0
100
AcDbLine
 10
10.38858215399526
 20
12.33061136474995
 30
0.0
 11
10.29026829920421
 21
12.33061136474995
 31
0.0
  0
LINE
  5
C940
330
1F
100
AcDbEntity
  8
0
100
AcDbLine
 10
10.29026829920421
 20
12.33061136474995
 30
0.0
 11
10.29026829920421
 21
12.48978617726879
 31
0.0
  0
LINE
  5
C941
330
1F
100
AcDbEntity
  8
0
100
AcDbLine
 10
10.4868960087863
 20
12.48978617726879
 30
0.0
 11
10.58556998758757
 21
12.48978617726879
 31
0.0
  0
LINE
  5
C942
330
1F
100
AcDbEntity
  8
0
100
AcDbLine
 10
10.58556998758757
 20
12.33061136474995
 30
0.0
 11
10.4868960087863
 21
12.33061136474995
 31
0.0
  0
LINE
  5
C943
330
1F
100
AcDbEntity
  8
0
100
AcDbLine
 10
10.4868960087863
 20
12.33061136474995
 30
0.0
 11
10.4868960087863
 21
12.48978617726879
 31
0.0
  0
LINE
  5
C944
330
1F
100
AcDbEntity
  8
0
100
AcDbLine
 10
10.68388384237862
 20
12.48978617726879
 30
0.0
 11
10.78219769716966
 21
12.48978617726879
 31
0.0
  0
LINE
  5
C945
330
1F
100
AcDbEntity
  8
0
100
AcDbLine
 10
10.78219769716966
 20
12.33061136474995
 30
0.0
 11
10.68388384237862
 21
12.33061136474995
 31
0.0
  0
LINE
  5
C946
330
1F
100
AcDbEntity
  8
0
100
AcDbLine
 10
10.68388384237862
 20
12.33061136474995
 30
0.0
 11
10.68388384237862
 21
12.48978617726879
 31
0.0
  0
LINE
  5
C947
330
1F
100
AcDbEntity
  8
0
100
AcDbLine
 10
10.88051155196071
 20
12.48978617726879
 30
0.0
 11
10.97882540675176
 21
12.48978617726879
 31
0.0
  0
LINE
  5
C948
330
1F
100
AcDbEntity
  8
0
100
AcDbLine
 10
10.97882540675176
 20
12.33061136474995
 30
0.0
 11
10.88051155196071
 21
12.33061136474995
 31
0.0
  0
LINE
  5
C949
330
1F
100
AcDbEntity
  8
0
100
AcDbLine
 10
10.88051155196071
 20
12.33061136474995
 30
0.0
 11
10.88051155196071
 21
12.48978617726879
 31
0.0
  0
LINE
  5
C94A
330
1F
100
AcDbEntity
  8
0
100
AcDbLine
 10
11.0771392615428
 20
12.48978617726879
 30
0.0
 11
11.17581324034407
 21
12.48978617726879
 31
0.0
  0
LINE
  5
C94B
330
1F
100
AcDbEntity
  8
0
100
AcDbLine
 10
11.17581324034407
 20
12.33061136474995
 30
0.0
 11
11.0771392615428
 21
12.33061136474995
 31
0.0
  0
LINE
  5
C94C
330
1F
100
AcDbEntity
  8
0
100
AcDbLine
 10
11.0771392615428
 20
12.33061136474995
 30
0.0
 11
11.0771392615428
 21
12.48978617726879
 31
0.0
  0
LINE
  5
C94D
330
1F
100
AcDbEntity
  8
0
100
AcDbLine
 10
10.03313975590455
 20
11.42521289094129
 30
0.0
 11
10.03313975590455
 21
12.67123266554822
 31
0.0
  0
LINE
  5
C94E
330
1F
100
AcDbEntity
  8
0
100
AcDbLine
 10
11.60380604496705
 20
11.42521289094129
 30
0.0
 11
11.60380604496705
 21
12.67123266554822
 31
0.0
  0
LINE
  5
C94F
330
1F
100
AcDbEntity
  8
0
100
AcDbLine
 10
10.03313975590455
 20
12.52759919834227
 30
0.0
 11
11.60380604496705
 21
12.52759919834227
 31
0.0
  0
LINE
  5
C950
330
1F
100
AcDbEntity
  8
0
100
AcDbLine
 10
10.03313975590455
 20
11.42521289094129
 30
0.0
 11
11.60380604496705
 21
11.42521289094129
 31
0.0
  0
LINE
  5
C951
330
1F
100
AcDbEntity
  8
0
100
AcDbLine
 10
9.175480194967043
 20
12.67123266554822
 30
0.0
 11
9.175480194967043
 21
12.73423266554822
 31
0.0
  0
LINE
  5
C952
330
1F
100
AcDbEntity
  8
0
100
AcDbLine
 10
9.175480194967043
 20
12.73423266554822
 30
0.0
 11
12.46046019496705
 21
12.73423266554822
 31
0.0
  0
LINE
  5
C953
330
1F
100
AcDbEntity
  8
0
100
AcDbLine
 10
12.46046019496705
 20
12.73423266554822
 30
0.0
 11
12.46046019496705
 21
12.67123266554822
 31
0.0
  0
LINE
  5
C954
330
1F
100
AcDbEntity
  8
0
100
AcDbLine
 10
12.46046019496705
 20
12.67123266554822
 30
0.0
 11
9.175480194967043
 21
12.67123266554822
 31
0.0
  0
LINE
  5
C955
330
1F
100
AcDbEntity
  8
0
100
AcDbLine
 10
15.11084149907246
 20
7.803636038433044
 30
0.0
 11
15.37203743937987
 21
7.803636038433044
 31
0.0
  0
LINE
  5
C956
330
1F
100
AcDbEntity
  8
0
100
AcDbLine
 10
15.37203743937987
 20
7.803636038433044
 30
0.0
 11
15.37203743937987
 21
6.130521914051957
 31
0.0
  0
LINE
  5
C957
330
1F
100
AcDbEntity
  8
0
100
AcDbLine
 10
15.37203743937987
 20
6.130521914051957
 30
0.0
 11
15.11084149907246
 21
6.130521914051957
 31
0.0
  0
LINE
  5
C958
330
1F
100
AcDbEntity
  8
0
100
AcDbLine
 10
14.97172532606561
 20
9.348646701191796
 30
0.0
 11
15.11084149907246
 21
9.348646701191796
 31
0.0
  0
LINE
  5
C959
330
1F
100
AcDbEntity
  8
0
100
AcDbLine
 10
15.11084149907246
 20
9.348646701191796
 30
0.0
 11
15.11084149907246
 21
6.080521914051956
 31
0.0
  0
LINE
  5
C95A
330
1F
100
AcDbEntity
  8
0
100
AcDbLine
 10
15.11084149907246
 20
6.080521914051956
 30
0.0
 11
14.97172532606561
 21
6.080521914051956
 31
0.0
  0
LINE
  5
C95B
330
1F
100
AcDbEntity
  8
0
100
AcDbLine
 10
14.90922532606561
 20
8.850050623112725
 30
0.0
 11
14.90922532606561
 21
10.39336219933496
 31
0.0
  0
LINE
  5
C95C
330
1F
100
AcDbEntity
  8
0
100
AcDbLine
 10
14.97172532606561
 20
8.611677309225493
 30
0.0
 11
14.97172532606561
 21
5.236040620707822
 31
0.0
  0
LINE
  5
C95D
330
1F
100
AcDbEntity
  8
0
100
AcDbLine
 10
14.97172532606561
 20
5.236040620707822
 30
0.0
 11
14.90922532606561
 21
5.236040620707822
 31
0.0
  0
LINE
  5
C95E
330
1F
100
AcDbEntity
  8
0
100
AcDbLine
 10
14.90922532606561
 20
5.236040620707822
 30
0.0
 11
14.90922532606561
 21
8.605501868302912
 31
0.0
  0
LINE
  5
C95F
330
1F
100
AcDbEntity
  8
0
100
AcDbLine
 10
13.93527112251848
 20
9.794605710972987
 30
0.0
 11
13.93527112251848
 21
9.828537649135414
 31
0.0
  0
LINE
  5
C960
330
1F
100
AcDbEntity
  8
0
100
AcDbLine
 10
13.66349245590324
 20
9.516040656725255
 30
0.0
 11
13.66349245590324
 21
9.719955447015649
 31
0.0
  0
LINE
  5
C961
330
1F
100
AcDbEntity
  8
0
100
AcDbLine
 10
13.66349245590324
 20
9.719955447015649
 30
0.0
 11
13.93527112251848
 21
9.794605710972987
 31
0.0
  0
LINE
  5
C962
330
1F
100
AcDbEntity
  8
0
100
AcDbLine
 10
13.93527112251848
 20
9.516040656725255
 30
0.0
 11
13.66349245590324
 21
9.516040656725255
 31
0.0
  0
LINE
  5
C963
330
1F
100
AcDbEntity
  8
0
100
AcDbLine
 10
13.93527112251848
 20
9.441390392767917
 30
0.0
 11
13.93527112251848
 21
9.516040656725255
 31
0.0
  0
LINE
  5
C964
330
1F
100
AcDbEntity
  8
0
100
AcDbLine
 10
14.90922532606561
 20
9.441390392767917
 30
0.0
 11
13.93527112251848
 21
9.441390392767917
 31
0.0
  0
LINE
  5
C965
330
1F
100
AcDbEntity
  8
0
100
AcDbLine
 10
14.90922532606561
 20
9.828537649135414
 30
0.0
 11
13.93527112251848
 21
9.828537649135414
 31
0.0
  0
LINE
  5
C966
330
1F
100
AcDbEntity
  8
0
100
AcDbLine
 10
14.17279468965547
 20
10.0041037149966
 30
0.0
 11
14.17279468965547
 21
10.26090112652906
 31
0.0
  0
LINE
  5
C967
330
1F
100
AcDbEntity
  8
0
100
AcDbLine
 10
14.17279468965547
 20
10.26090112652906
 30
0.0
 11
14.41064141810829
 21
10.35943026117253
 31
0.0
  0
LINE
  5
C968
330
1F
100
AcDbEntity
  8
0
100
AcDbLine
 10
14.25455450256112
 20
10.0041037149966
 30
0.0
 11
14.17279468965547
 21
10.0041037149966
 31
0.0
  0
LINE
  5
C969
330
1F
100
AcDbEntity
  8
0
100
AcDbLine
 10
14.41064141810829
 20
10.35943026117253
 30
0.0
 11
14.41064141810829
 21
10.39336219933496
 31
0.0
  0
LINE
  5
C96A
330
1F
100
AcDbEntity
  8
0
100
AcDbLine
 10
14.25455450256112
 20
9.828537649135414
 30
0.0
 11
14.25455450256112
 21
10.0041037149966
 31
0.0
  0
LINE
  5
C96B
330
1F
100
AcDbEntity
  8
0
100
AcDbLine
 10
14.41064141810829
 20
10.39336219933496
 30
0.0
 11
14.97172532606561
 21
10.39336219933496
 31
0.0
  0
LINE
  5
C96C
330
1F
100
AcDbEntity
  8
0
100
AcDbLine
 10
9.175480194967043
 20
10.39336219933496
 30
0.0
 11
12.46046019496705
 21
10.39336219933496
 31
0.0
  0
LINE
  5
C96D
330
1F
100
AcDbEntity
  8
0
100
AcDbLine
 10
12.46046019496705
 20
10.39336219933496
 30
0.0
 11
12.46046019496705
 21
5.239363699334965
 31
0.0
  0
LINE
  5
C96E
330
1F
100
AcDbEntity
  8
0
100
AcDbLine
 10
12.46046019496705
 20
5.239363699334965
 30
0.0
 11
9.175480194967043
 21
5.239363699334965
 31
0.0
  0
LINE
  5
C96F
330
1F
100
AcDbEntity
  8
0
100
AcDbLine
 10
9.175480194967043
 20
5.239363699334965
 30
0.0
 11
9.175480194967043
 21
10.39336219933496
 31
0.0
  0
LINE
  5
C970
330
1F
100
AcDbEntity
  8
0
100
AcDbLine
 10
10.74970602859456
 20
6.297113766083118
 30
0.0
 11
10.62125269496705
 21
6.371276332831271
 31
0.0
1001
ACAD
1000
TCW40_DEV_WIDTH
1002
{
1040
-3.0
1002
}
  0
LINE
  5
C971
330
1F
100
AcDbEntity
  8
0
100
AcDbLine
 10
10.62125269496705
 20
6.371276332831271
 30
0.0
 11
10.49279936133953
 21
6.297113766083118
 31
0.0
1001
ACAD
1000
TCW40_DEV_WIDTH
1002
{
1040
-3.0
1002
}
  0
LINE
  5
C972
330
1F
100
AcDbEntity
  8
0
100
AcDbLine
 10
10.49279936133953
 20
6.297113766083118
 30
0.0
 11
10.49279936133953
 21
6.148788632586811
 31
0.0
1001
ACAD
1000
TCW40_DEV_WIDTH
1002
{
1040
-3.0
1002
}
  0
LINE
  5
C973
330
1F
100
AcDbEntity
  8
0
100
AcDbLine
 10
10.49279936133953
 20
6.148788632586811
 30
0.0
 11
10.62125269496705
 21
6.074626065838661
 31
0.0
1001
ACAD
1000
TCW40_DEV_WIDTH
1002
{
1040
-3.0
1002
}
  0
LINE
  5
C974
330
1F
100
AcDbEntity
  8
0
100
AcDbLine
 10
10.62125269496705
 20
6.074626065838661
 30
0.0
 11
10.74970602859456
 21
6.148788632586811
 31
0.0
1001
ACAD
1000
TCW40_DEV_WIDTH
1002
{
1040
-3.0
1002
}
  0
LINE
  5
C975
330
1F
100
AcDbEntity
  8
0
100
AcDbLine
 10
10.74970602859456
 20
6.148788632586811
 30
0.0
 11
10.74970602859456
 21
6.297113766083118
 31
0.0
1001
ACAD
1000
TCW40_DEV_WIDTH
1002
{
1040
-3.0
1002
}
  0
LINE
  5
C976
330
1F
100
AcDbEntity
  8
0
100
AcDbLine
 10
10.74970602859456
 20
6.690548766083121
 30
0.0
 11
10.62125269496705
 21
6.764711332831275
 31
0.0
1001
ACAD
1000
TCW40_DEV_WIDTH
1002
{
1040
-3.0
1002
}
  0
LINE
  5
C977
330
1F
100
AcDbEntity
  8
0
100
AcDbLine
 10
10.62125269496705
 20
6.764711332831275
 30
0.0
 11
10.49279936133953
 21
6.690548766083121
 31
0.0
1001
ACAD
1000
TCW40_DEV_WIDTH
1002
{
1040
-3.0
1002
}
  0
LINE
  5
C978
330
1F
100
AcDbEntity
  8
0
100
AcDbLine
 10
10.49279936133953
 20
6.690548766083121
 30
0.0
 11
10.49279936133953
 21
6.542223632586814
 31
0.0
1001
ACAD
1000
TCW40_DEV_WIDTH
1002
{
1040
-3.0
1002
}
  0
LINE
  5
C979
330
1F
100
AcDbEntity
  8
0
100
AcDbLine
 10
10.49279936133953
 20
6.542223632586814
 30
0.0
 11
10.62125269496705
 21
6.468061065838663
 31
0.0
1001
ACAD
1000
TCW40_DEV_WIDTH
1002
{
1040
-3.0
1002
}
  0
LINE
  5
C97A
330
1F
100
AcDbEntity
  8
0
100
AcDbLine
 10
10.62125269496705
 20
6.468061065838663
 30
0.0
 11
10.74970602859456
 21
6.542223632586814
 31
0.0
1001
ACAD
1000
TCW40_DEV_WIDTH
1002
{
1040
-3.0
1002
}
  0
LINE
  5
C97B
330
1F
100
AcDbEntity
  8
0
100
AcDbLine
 10
10.74970602859456
 20
6.542223632586814
 30
0.0
 11
10.74970602859456
 21
6.690548766083121
 31
0.0
1001
ACAD
1000
TCW40_DEV_WIDTH
1002
{
1040
-3.0
1002
}
  0
LINE
  5
C97C
330
1F
100
AcDbEntity
  8
0
100
AcDbLine
 10
10.74970602859456
 20
7.083983766083118
 30
0.0
 11
10.62125269496705
 21
7.158146332831272
 31
0.0
1001
ACAD
1000
TCW40_DEV_WIDTH
1002
{
1040
-3.0
1002
}
  0
LINE
  5
C97D
330
1F
100
AcDbEntity
  8
0
100
AcDbLine
 10
10.62125269496705
 20
7.158146332831272
 30
0.0
 11
10.49279936133953
 21
7.083983766083118
 31
0.0
1001
ACAD
1000
TCW40_DEV_WIDTH
1002
{
1040
-3.0
1002
}
  0
LINE
  5
C97E
330
1F
100
AcDbEntity
  8
0
100
AcDbLine
 10
10.49279936133953
 20
7.083983766083118
 30
0.0
 11
10.49279936133953
 21
6.935658632586811
 31
0.0
1001
ACAD
1000
TCW40_DEV_WIDTH
1002
{
1040
-3.0
1002
}
  0
LINE
  5
C97F
330
1F
100
AcDbEntity
  8
0
100
AcDbLine
 10
10.49279936133953
 20
6.935658632586811
 30
0.0
 11
10.62125269496705
 21
6.861496065838659
 31
0.0
1001
ACAD
1000
TCW40_DEV_WIDTH
1002
{
1040
-3.0
1002
}
  0
LINE
  5
C980
330
1F
100
AcDbEntity
  8
0
100
AcDbLine
 10
10.62125269496705
 20
6.861496065838659
 30
0.0
 11
10.74970602859456
 21
6.935658632586811
 31
0.0
1001
ACAD
1000
TCW40_DEV_WIDTH
1002
{
1040
-3.0
1002
}
  0
LINE
  5
C981
330
1F
100
AcDbEntity
  8
0
100
AcDbLine
 10
10.74970602859456
 20
6.935658632586811
 30
0.0
 11
10.74970602859456
 21
7.083983766083118
 31
0.0
1001
ACAD
1000
TCW40_DEV_WIDTH
1002
{
1040
-3.0
1002
}
  0
LINE
  5
C982
330
1F
100
AcDbEntity
  8
0
100
AcDbLine
 10
12.32344602859456
 20
6.297113766083118
 30
0.0
 11
12.19499269496705
 21
6.371276332831271
 31
0.0
1001
ACAD
1000
TCW40_DEV_WIDTH
1002
{
1040
-3.0
1002
}
  0
LINE
  5
C983
330
1F
100
AcDbEntity
  8
0
100
AcDbLine
 10
12.19499269496705
 20
6.371276332831271
 30
0.0
 11
12.06653936133953
 21
6.297113766083118
 31
0.0
1001
ACAD
1000
TCW40_DEV_WIDTH
1002
{
1040
-3.0
1002
}
  0
LINE
  5
C984
330
1F
100
AcDbEntity
  8
0
100
AcDbLine
 10
12.06653936133953
 20
6.297113766083118
 30
0.0
 11
12.06653936133953
 21
6.148788632586811
 31
0.0
1001
ACAD
1000
TCW40_DEV_WIDTH
1002
{
1040
-3.0
1002
}
  0
LINE
  5
C985
330
1F
100
AcDbEntity
  8
0
100
AcDbLine
 10
12.06653936133953
 20
6.148788632586811
 30
0.0
 11
12.19499269496705
 21
6.074626065838661
 31
0.0
1001
ACAD
1000
TCW40_DEV_WIDTH
1002
{
1040
-3.0
1002
}
  0
LINE
  5
C986
330
1F
100
AcDbEntity
  8
0
100
AcDbLine
 10
12.19499269496705
 20
6.074626065838661
 30
0.0
 11
12.32344602859456
 21
6.148788632586811
 31
0.0
1001
ACAD
1000
TCW40_DEV_WIDTH
1002
{
1040
-3.0
1002
}
  0
LINE
  5
C987
330
1F
100
AcDbEntity
  8
0
100
AcDbLine
 10
12.32344602859456
 20
6.148788632586811
 30
0.0
 11
12.32344602859456
 21
6.297113766083118
 31
0.0
1001
ACAD
1000
TCW40_DEV_WIDTH
1002
{
1040
-3.0
1002
}
  0
LINE
  5
C988
330
1F
100
AcDbEntity
  8
0
100
AcDbLine
 10
12.32344602859456
 20
6.690548766083121
 30
0.0
 11
12.19499269496705
 21
6.764711332831275
 31
0.0
1001
ACAD
1000
TCW40_DEV_WIDTH
1002
{
1040
-3.0
1002
}
  0
LINE
  5
C989
330
1F
100
AcDbEntity
  8
0
100
AcDbLine
 10
12.19499269496705
 20
6.764711332831275
 30
0.0
 11
12.06653936133953
 21
6.690548766083121
 31
0.0
1001
ACAD
1000
TCW40_DEV_WIDTH
1002
{
1040
-3.0
1002
}
  0
LINE
  5
C98A
330
1F
100
AcDbEntity
  8
0
100
AcDbLine
 10
12.06653936133953
 20
6.690548766083121
 30
0.0
 11
12.06653936133953
 21
6.542223632586814
 31
0.0
1001
ACAD
1000
TCW40_DEV_WIDTH
1002
{
1040
-3.0
1002
}
  0
LINE
  5
C98B
330
1F
100
AcDbEntity
  8
0
100
AcDbLine
 10
12.06653936133953
 20
6.542223632586814
 30
0.0
 11
12.19499269496705
 21
6.468061065838663
 31
0.0
1001
ACAD
1000
TCW40_DEV_WIDTH
1002
{
1040
-3.0
1002
}
  0
LINE
  5
C98C
330
1F
100
AcDbEntity
  8
0
100
AcDbLine
 10
12.19499269496705
 20
6.468061065838663
 30
0.0
 11
12.32344602859456
 21
6.542223632586814
 31
0.0
1001
ACAD
1000
TCW40_DEV_WIDTH
1002
{
1040
-3.0
1002
}
  0
LINE
  5
C98D
330
1F
100
AcDbEntity
  8
0
100
AcDbLine
 10
12.32344602859456
 20
6.542223632586814
 30
0.0
 11
12.32344602859456
 21
6.690548766083121
 31
0.0
1001
ACAD
1000
TCW40_DEV_WIDTH
1002
{
1040
-3.0
1002
}
  0
ARC
  5
C98E
330
1F
100
AcDbEntity
  8
0
100
AcDbCircle
 10
9.523978194967035
 20
8.209797949334962
 30
0.0
 40
0.0393435000000011
100
AcDbArc
 50
180.0
 51
270.0
  0
LINE
  5
C98F
330
1F
100
AcDbEntity
  8
0
100
AcDbLine
 10
9.523978194967035
 20
8.170454449334961
 30
0.0
 11
10.4683040537536
 21
8.170454449334961
 31
0.0
  0
ARC
  5
C990
330
1F
100
AcDbEntity
  8
0
100
AcDbCircle
 10
10.4683040537536
 20
8.209797949334962
 30
0.0
 40
0.0393435000000011
100
AcDbArc
 50
270.0
 51
0.0
  0
LINE
  5
C991
330
1F
100
AcDbEntity
  8
0
100
AcDbLine
 10
10.5076475537536
 20
8.209797949334962
 30
0.0
 11
10.5076475537536
 21
9.016339699334963
 31
0.0
  0
ARC
  5
C992
330
1F
100
AcDbEntity
  8
0
100
AcDbCircle
 10
10.4683040537536
 20
9.016339699334963
 30
0.0
 40
0.0393435000000011
100
AcDbArc
 50
0.0
 51
90.0
  0
LINE
  5
C993
330
1F
100
AcDbEntity
  8
0
100
AcDbLine
 10
10.4683040537536
 20
9.055683199334964
 30
0.0
 11
9.523978194967035
 21
9.055683199334964
 31
0.0
  0
ARC
  5
C994
330
1F
100
AcDbEntity
  8
0
100
AcDbCircle
 10
9.523978194967035
 20
9.016339699334963
 30
0.0
 40
0.0393435000000011
100
AcDbArc
 50
90.0
 51
180.0
  0
LINE
  5
C995
330
1F
100
AcDbEntity
  8
0
100
AcDbLine
 10
9.484634694967034
 20
9.016339699334963
 30
0.0
 11
9.484634694967034
 21
8.209797949334962
 31
0.0
  0
ARC
  5
C996
330
1F
100
AcDbEntity
  8
0
100
AcDbCircle
 10
9.995313592853433
 20
6.633641966054163
 30
0.0
 40
1.399102369151787
100
AcDbArc
 50
61.40144366923856
 51
118.5213884935842
  0
LINE
  5
C997
330
1F
100
AcDbEntity
  8
0
100
AcDbLine
 10
9.32726069496703
 20
8.89830919933496
 30
0.0
 11
9.287917194967043
 21
8.89830919933496
 31
0.0
1001
ACAD
1000
TCW40_DEV_WIDTH
1002
{
1040
-3.0
1002
}
  0
LINE
  5
C998
330
1F
100
AcDbEntity
  8
0
100
AcDbLine
 10
9.287917194967043
 20
8.89830919933496
 30
0.0
 11
9.287917194967043
 21
8.563889449334965
 31
0.0
1001
ACAD
1000
TCW40_DEV_WIDTH
1002
{
1040
-3.0
1002
}
  0
LINE
  5
C999
330
1F
100
AcDbEntity
  8
0
100
AcDbLine
 10
9.287917194967043
 20
8.563889449334965
 30
0.0
 11
9.32726069496703
 21
8.563889449334965
 31
0.0
1001
ACAD
1000
TCW40_DEV_WIDTH
1002
{
1040
-3.0
1002
}
  0
LINE
  5
C99A
330
1F
100
AcDbEntity
  8
0
100
AcDbLine
 10
10.66493969496704
 20
8.89830919933496
 30
0.0
 11
10.70428319496704
 21
8.89830919933496
 31
0.0
1001
ACAD
1000
TCW40_DEV_WIDTH
1002
{
1040
-3.0
1002
}
  0
LINE
  5
C99B
330
1F
100
AcDbEntity
  8
0
100
AcDbLine
 10
10.70428319496704
 20
8.89830919933496
 30
0.0
 11
10.70428319496704
 21
8.563889449334965
 31
0.0
1001
ACAD
1000
TCW40_DEV_WIDTH
1002
{
1040
-3.0
1002
}
  0
LINE
  5
C99C
330
1F
100
AcDbEntity
  8
0
100
AcDbLine
 10
10.70428319496704
 20
8.563889449334965
 30
0.0
 11
10.66493969496704
 21
8.563889449334965
 31
0.0
1001
ACAD
1000
TCW40_DEV_WIDTH
1002
{
1040
-3.0
1002
}
  0
ARC
  5
C99D
330
1F
100
AcDbEntity
  8
0
100
AcDbCircle
 10
9.214823694967043
 20
9.213057199334963
 30
0.0
 40
0.0393434999999993
100
AcDbArc
 50
89.9999999999974
 51
180.0000000000026
  0
LINE
  5
C99E
330
1F
100
AcDbEntity
  8
0
100
AcDbLine
 10
9.175480194967043
 20
9.213057199334961
 30
0.0
 11
9.1754801949671
 21
7.627014186438579
 31
0.0
  0
ARC
  5
C99F
330
1F
100
AcDbEntity
  8
0
100
AcDbCircle
 10
9.239679193015833
 20
7.658702667076898
 30
0.0
 40
0.0715937927171502
100
AcDbArc
 50
206.2708425428106
 51
294.1745006618583
  0
ARC
  5
C9A0
330
1F
100
AcDbEntity
  8
0
100
AcDbCircle
 10
9.995313592853428
 20
6.397580966054164
 30
0.0
 40
1.399102369151791
100
AcDbArc
 50
58.6527666810334
 51
121.2738881046906
  0
ARC
  5
C9A1
330
1F
100
AcDbEntity
  8
0
100
AcDbCircle
 10
10.75287098969019
 20
7.659183595316875
 30
0.0
 40
0.0730428656163912
100
AcDbArc
 50
245.9978607478397
 51
333.0303138406363
  0
LINE
  5
C9A2
330
1F
100
AcDbEntity
  8
0
100
AcDbLine
 10
10.81797019496698
 20
7.626057266063767
 30
0.0
 11
10.81797019496704
 21
9.213057199334954
 31
0.0
  0
ARC
  5
C9A3
330
1F
100
AcDbEntity
  8
0
100
AcDbCircle
 10
10.77862669496703
 20
9.21305719933496
 30
0.0
 40
0.0393435000000047
100
AcDbArc
 50
359.9999999999921
 51
89.99999999999481
  0
LINE
  5
C9A4
330
1F
100
AcDbEntity
  8
0
100
AcDbLine
 10
10.77862669496704
 20
9.252400699334963
 30
0.0
 11
9.214823694967044
 21
9.252400699334963
 31
0.0
  0
ARC
  5
C9A5
330
1F
100
AcDbEntity
  8
0
100
AcDbCircle
 10
11.16771819496704
 20
8.209797949334962
 30
0.0
 40
0.0393435000000011
100
AcDbArc
 50
180.0
 51
270.0
  0
LINE
  5
C9A6
330
1F
100
AcDbEntity
  8
0
100
AcDbLine
 10
11.16771819496704
 20
8.170454449334961
 30
0.0
 11
12.11204405375361
 21
8.170454449334961
 31
0.0
  0
ARC
  5
C9A7
330
1F
100
AcDbEntity
  8
0
100
AcDbCircle
 10
12.11204405375361
 20
8.209797949334962
 30
0.0
 40
0.0393435000000011
100
AcDbArc
 50
270.0
 51
0.0
  0
LINE
  5
C9A8
330
1F
100
AcDbEntity
  8
0
100
AcDbLine
 10
12.15138755375361
 20
8.209797949334962
 30
0.0
 11
12.15138755375361
 21
9.016339699334963
 31
0.0
  0
ARC
  5
C9A9
330
1F
100
AcDbEntity
  8
0
100
AcDbCircle
 10
12.11204405375361
 20
9.016339699334963
 30
0.0
 40
0.0393435000000011
100
AcDbArc
 50
0.0
 51
90.0
  0
LINE
  5
C9AA
330
1F
100
AcDbEntity
  8
0
100
AcDbLine
 10
12.11204405375361
 20
9.055683199334964
 30
0.0
 11
11.16771819496704
 21
9.055683199334964
 31
0.0
  0
ARC
  5
C9AB
330
1F
100
AcDbEntity
  8
0
100
AcDbCircle
 10
11.16771819496704
 20
9.016339699334963
 30
0.0
 40
0.0393435000000011
100
AcDbArc
 50
90.0
 51
180.0
  0
LINE
  5
C9AC
330
1F
100
AcDbEntity
  8
0
100
AcDbLine
 10
11.12837469496704
 20
9.016339699334963
 30
0.0
 11
11.12837469496704
 21
8.209797949334962
 31
0.0
  0
LINE
  5
C9AD
330
1F
100
AcDbEntity
  8
0
100
AcDbLine
 10
11.4149300279063
 20
9.974656349759476
 30
0.0
 11
11.56037191824992
 21
9.974656349759476
 31
0.0
1001
ACAD
1000
TCW40_DEV_WIDTH
1002
{
1040
-3.0
1002
}
  0
LINE
  5
C9AE
330
1F
100
AcDbEntity
  8
0
100
AcDbLine
 10
11.56037191824992
 20
9.974656349759476
 30
0.0
 11
11.56037191824992
 21
9.95042673144486
 31
0.0
1001
ACAD
1000
TCW40_DEV_WIDTH
1002
{
1040
-3.0
1002
}
  0
LINE
  5
C9AF
330
1F
100
AcDbEntity
  8
0
100
AcDbLine
 10
11.56037191824992
 20
9.95042673144486
 30
0.0
 11
11.4149300279063
 21
9.95042673144486
 31
0.0
1001
ACAD
1000
TCW40_DEV_WIDTH
1002
{
1040
-3.0
1002
}
  0
LINE
  5
C9B0
330
1F
100
AcDbEntity
  8
0
100
AcDbLine
 10
11.4149300279063
 20
9.95042673144486
 30
0.0
 11
11.4149300279063
 21
9.974656349759476
 31
0.0
1001
ACAD
1000
TCW40_DEV_WIDTH
1002
{
1040
-3.0
1002
}
  0
LINE
  5
C9B1
330
1F
100
AcDbEntity
  8
0
100
AcDbLine
 10
11.22128623884379
 20
9.974656349759476
 30
0.0
 11
11.36672812918743
 21
9.974656349759476
 31
0.0
1001
ACAD
1000
TCW40_DEV_WIDTH
1002
{
1040
-3.0
1002
}
  0
LINE
  5
C9B2
330
1F
100
AcDbEntity
  8
0
100
AcDbLine
 10
11.36672812918743
 20
9.974656349759476
 30
0.0
 11
11.36672812918743
 21
9.95042673144486
 31
0.0
1001
ACAD
1000
TCW40_DEV_WIDTH
1002
{
1040
-3.0
1002
}
  0
LINE
  5
C9B3
330
1F
100
AcDbEntity
  8
0
100
AcDbLine
 10
11.36672812918743
 20
9.95042673144486
 30
0.0
 11
11.22128623884379
 21
9.95042673144486
 31
0.0
1001
ACAD
1000
TCW40_DEV_WIDTH
1002
{
1040
-3.0
1002
}
  0
LINE
  5
C9B4
330
1F
100
AcDbEntity
  8
0
100
AcDbLine
 10
11.22128623884379
 20
9.95042673144486
 30
0.0
 11
11.22128623884379
 21
9.974656349759476
 31
0.0
1001
ACAD
1000
TCW40_DEV_WIDTH
1002
{
1040
-3.0
1002
}
  0
LINE
  5
C9B5
330
1F
100
AcDbEntity
  8
0
100
AcDbLine
 10
11.0276424497813
 20
9.974656349759476
 30
0.0
 11
11.17308434012493
 21
9.974656349759476
 31
0.0
1001
ACAD
1000
TCW40_DEV_WIDTH
1002
{
1040
-3.0
1002
}
  0
LINE
  5
C9B6
330
1F
100
AcDbEntity
  8
0
100
AcDbLine
 10
11.17308434012493
 20
9.974656349759476
 30
0.0
 11
11.17308434012493
 21
9.95042673144486
 31
0.0
1001
ACAD
1000
TCW40_DEV_WIDTH
1002
{
1040
-3.0
1002
}
  0
LINE
  5
C9B7
330
1F
100
AcDbEntity
  8
0
100
AcDbLine
 10
11.17308434012493
 20
9.95042673144486
 30
0.0
 11
11.0276424497813
 21
9.95042673144486
 31
0.0
1001
ACAD
1000
TCW40_DEV_WIDTH
1002
{
1040
-3.0
1002
}
  0
LINE
  5
C9B8
330
1F
100
AcDbEntity
  8
0
100
AcDbLine
 10
11.0276424497813
 20
9.95042673144486
 30
0.0
 11
11.0276424497813
 21
9.974656349759476
 31
0.0
1001
ACAD
1000
TCW40_DEV_WIDTH
1002
{
1040
-3.0
1002
}
  0
LINE
  5
C9B9
330
1F
100
AcDbEntity
  8
0
100
AcDbLine
 10
10.83399866071879
 20
9.974656349759476
 30
0.0
 11
10.97944055106242
 21
9.974656349759476
 31
0.0
1001
ACAD
1000
TCW40_DEV_WIDTH
1002
{
1040
-3.0
1002
}
  0
LINE
  5
C9BA
330
1F
100
AcDbEntity
  8
0
100
AcDbLine
 10
10.97944055106242
 20
9.974656349759476
 30
0.0
 11
10.97944055106242
 21
9.95042673144486
 31
0.0
1001
ACAD
1000
TCW40_DEV_WIDTH
1002
{
1040
-3.0
1002
}
  0
LINE
  5
C9BB
330
1F
100
AcDbEntity
  8
0
100
AcDbLine
 10
10.97944055106242
 20
9.95042673144486
 30
0.0
 11
10.83399866071879
 21
9.95042673144486
 31
0.0
1001
ACAD
1000
TCW40_DEV_WIDTH
1002
{
1040
-3.0
1002
}
  0
LINE
  5
C9BC
330
1F
100
AcDbEntity
  8
0
100
AcDbLine
 10
10.83399866071879
 20
9.95042673144486
 30
0.0
 11
10.83399866071879
 21
9.974656349759476
 31
0.0
1001
ACAD
1000
TCW40_DEV_WIDTH
1002
{
1040
-3.0
1002
}
  0
LINE
  5
C9BD
330
1F
100
AcDbEntity
  8
0
100
AcDbLine
 10
10.64035487165629
 20
9.974656349759476
 30
0.0
 11
10.78579676199993
 21
9.974656349759476
 31
0.0
1001
ACAD
1000
TCW40_DEV_WIDTH
1002
{
1040
-3.0
1002
}
  0
LINE
  5
C9BE
330
1F
100
AcDbEntity
  8
0
100
AcDbLine
 10
10.78579676199993
 20
9.974656349759476
 30
0.0
 11
10.78579676199993
 21
9.95042673144486
 31
0.0
1001
ACAD
1000
TCW40_DEV_WIDTH
1002
{
1040
-3.0
1002
}
  0
LINE
  5
C9BF
330
1F
100
AcDbEntity
  8
0
100
AcDbLine
 10
10.78579676199993
 20
9.95042673144486
 30
0.0
 11
10.64035487165629
 21
9.95042673144486
 31
0.0
1001
ACAD
1000
TCW40_DEV_WIDTH
1002
{
1040
-3.0
1002
}
  0
LINE
  5
C9C0
330
1F
100
AcDbEntity
  8
0
100
AcDbLine
 10
10.64035487165629
 20
9.95042673144486
 30
0.0
 11
10.64035487165629
 21
9.974656349759476
 31
0.0
1001
ACAD
1000
TCW40_DEV_WIDTH
1002
{
1040
-3.0
1002
}
  0
LINE
  5
C9C1
330
1F
100
AcDbEntity
  8
0
100
AcDbLine
 10
10.4467110825938
 20
9.974656349759476
 30
0.0
 11
10.59215297293742
 21
9.974656349759476
 31
0.0
1001
ACAD
1000
TCW40_DEV_WIDTH
1002
{
1040
-3.0
1002
}
  0
LINE
  5
C9C2
330
1F
100
AcDbEntity
  8
0
100
AcDbLine
 10
10.59215297293742
 20
9.974656349759476
 30
0.0
 11
10.59215297293742
 21
9.95042673144486
 31
0.0
1001
ACAD
1000
TCW40_DEV_WIDTH
1002
{
1040
-3.0
1002
}
  0
LINE
  5
C9C3
330
1F
100
AcDbEntity
  8
0
100
AcDbLine
 10
10.59215297293742
 20
9.95042673144486
 30
0.0
 11
10.4467110825938
 21
9.95042673144486
 31
0.0
1001
ACAD
1000
TCW40_DEV_WIDTH
1002
{
1040
-3.0
1002
}
  0
LINE
  5
C9C4
330
1F
100
AcDbEntity
  8
0
100
AcDbLine
 10
10.4467110825938
 20
9.95042673144486
 30
0.0
 11
10.4467110825938
 21
9.974656349759476
 31
0.0
1001
ACAD
1000
TCW40_DEV_WIDTH
1002
{
1040
-3.0
1002
}
  0
LINE
  5
C9C5
330
1F
100
AcDbEntity
  8
0
100
AcDbLine
 10
10.2530672935313
 20
9.974656349759476
 30
0.0
 11
10.39850918387491
 21
9.974656349759476
 31
0.0
1001
ACAD
1000
TCW40_DEV_WIDTH
1002
{
1040
-3.0
1002
}
  0
LINE
  5
C9C6
330
1F
100
AcDbEntity
  8
0
100
AcDbLine
 10
10.39850918387491
 20
9.974656349759476
 30
0.0
 11
10.39850918387491
 21
9.95042673144486
 31
0.0
1001
ACAD
1000
TCW40_DEV_WIDTH
1002
{
1040
-3.0
1002
}
  0
LINE
  5
C9C7
330
1F
100
AcDbEntity
  8
0
100
AcDbLine
 10
10.39850918387491
 20
9.95042673144486
 30
0.0
 11
10.2530672935313
 21
9.95042673144486
 31
0.0
1001
ACAD
1000
TCW40_DEV_WIDTH
1002
{
1040
-3.0
1002
}
  0
LINE
  5
C9C8
330
1F
100
AcDbEntity
  8
0
100
AcDbLine
 10
10.2530672935313
 20
9.95042673144486
 30
0.0
 11
10.2530672935313
 21
9.974656349759476
 31
0.0
1001
ACAD
1000
TCW40_DEV_WIDTH
1002
{
1040
-3.0
1002
}
  0
LINE
  5
C9C9
330
1F
100
AcDbEntity
  8
0
100
AcDbLine
 10
10.05942350446879
 20
9.974656349759476
 30
0.0
 11
10.20486539481243
 21
9.974656349759476
 31
0.0
1001
ACAD
1000
TCW40_DEV_WIDTH
1002
{
1040
-3.0
1002
}
  0
LINE
  5
C9CA
330
1F
100
AcDbEntity
  8
0
100
AcDbLine
 10
10.20486539481243
 20
9.974656349759476
 30
0.0
 11
10.20486539481243
 21
9.95042673144486
 31
0.0
1001
ACAD
1000
TCW40_DEV_WIDTH
1002
{
1040
-3.0
1002
}
  0
LINE
  5
C9CB
330
1F
100
AcDbEntity
  8
0
100
AcDbLine
 10
10.20486539481243
 20
9.95042673144486
 30
0.0
 11
10.05942350446879
 21
9.95042673144486
 31
0.0
1001
ACAD
1000
TCW40_DEV_WIDTH
1002
{
1040
-3.0
1002
}
  0
LINE
  5
C9CC
330
1F
100
AcDbEntity
  8
0
100
AcDbLine
 10
10.05942350446879
 20
9.95042673144486
 30
0.0
 11
10.05942350446879
 21
9.974656349759476
 31
0.0
1001
ACAD
1000
TCW40_DEV_WIDTH
1002
{
1040
-3.0
1002
}
  0
LINE
  5
C9CD
330
1F
100
AcDbEntity
  8
0
100
AcDbLine
 10
9.558978194967053
 20
5.337722449334961
 30
0.0
 11
9.598321694967054
 21
5.475424699334965
 31
0.0
1001
ACAD
1000
TCW40_DEV_WIDTH
1002
{
1040
-3.0
1002
}
  0
LINE
  5
C9CE
330
1F
100
AcDbEntity
  8
0
100
AcDbLine
 10
9.598321694967054
 20
5.475424699334965
 30
0.0
 11
9.677008694967057
 21
5.475424699334965
 31
0.0
1001
ACAD
1000
TCW40_DEV_WIDTH
1002
{
1040
-3.0
1002
}
  0
LINE
  5
C9CF
330
1F
100
AcDbEntity
  8
0
100
AcDbLine
 10
9.677008694967057
 20
5.475424699334965
 30
0.0
 11
9.716352194967058
 21
5.337722449334961
 31
0.0
1001
ACAD
1000
TCW40_DEV_WIDTH
1002
{
1040
-3.0
1002
}
  0
LINE
  5
C9D0
330
1F
100
AcDbEntity
  8
0
100
AcDbLine
 10
9.716352194967058
 20
5.337722449334961
 30
0.0
 11
9.716352194967058
 21
5.278707199334959
 31
0.0
1001
ACAD
1000
TCW40_DEV_WIDTH
1002
{
1040
-3.0
1002
}
  0
LINE
  5
C9D1
330
1F
100
AcDbEntity
  8
0
100
AcDbLine
 10
9.558978194967053
 20
7.226210449334963
 30
0.0
 11
9.598321694967054
 21
7.088508199334967
 31
0.0
1001
ACAD
1000
TCW40_DEV_WIDTH
1002
{
1040
-3.0
1002
}
  0
LINE
  5
C9D2
330
1F
100
AcDbEntity
  8
0
100
AcDbLine
 10
9.598321694967054
 20
7.088508199334967
 30
0.0
 11
9.677008694967057
 21
7.088508199334967
 31
0.0
1001
ACAD
1000
TCW40_DEV_WIDTH
1002
{
1040
-3.0
1002
}
  0
LINE
  5
C9D3
330
1F
100
AcDbEntity
  8
0
100
AcDbLine
 10
9.677008694967057
 20
7.088508199334967
 30
0.0
 11
9.716352194967058
 21
7.226210449334963
 31
0.0
1001
ACAD
1000
TCW40_DEV_WIDTH
1002
{
1040
-3.0
1002
}
  0
LINE
  5
C9D4
330
1F
100
AcDbEntity
  8
0
100
AcDbLine
 10
9.716352194967058
 20
7.226210449334963
 30
0.0
 11
9.716352194967058
 21
7.285225699334965
 31
0.0
1001
ACAD
1000
TCW40_DEV_WIDTH
1002
{
1040
-3.0
1002
}
  0
LINE
  5
C9D5
330
1F
100
AcDbEntity
  8
0
100
AcDbLine
 10
10.75895494496706
 20
6.302453630440481
 30
0.0
 11
10.62125269496705
 21
6.381956061545999
 31
0.0
1001
ACAD
1000
TCW40_DEV_WIDTH
1002
{
1040
-3.0
1002
}
  0
LINE
  5
C9D6
330
1F
100
AcDbEntity
  8
0
100
AcDbLine
 10
10.62125269496705
 20
6.381956061545999
 30
0.0
 11
10.48355044496705
 21
6.302453630440481
 31
0.0
1001
ACAD
1000
TCW40_DEV_WIDTH
1002
{
1040
-3.0
1002
}
  0
LINE
  5
C9D7
330
1F
100
AcDbEntity
  8
0
100
AcDbLine
 10
10.48355044496705
 20
6.302453630440481
 30
0.0
 11
10.48355044496705
 21
6.143448768229447
 31
0.0
1001
ACAD
1000
TCW40_DEV_WIDTH
1002
{
1040
-3.0
1002
}
  0
LINE
  5
C9D8
330
1F
100
AcDbEntity
  8
0
100
AcDbLine
 10
10.48355044496705
 20
6.143448768229447
 30
0.0
 11
10.62125269496705
 21
6.06394633712393
 31
0.0
1001
ACAD
1000
TCW40_DEV_WIDTH
1002
{
1040
-3.0
1002
}
  0
LINE
  5
C9D9
330
1F
100
AcDbEntity
  8
0
100
AcDbLine
 10
10.62125269496705
 20
6.06394633712393
 30
0.0
 11
10.75895494496706
 21
6.143448768229447
 31
0.0
1001
ACAD
1000
TCW40_DEV_WIDTH
1002
{
1040
-3.0
1002
}
  0
LINE
  5
C9DA
330
1F
100
AcDbEntity
  8
0
100
AcDbLine
 10
10.75895494496706
 20
6.143448768229447
 30
0.0
 11
10.75895494496706
 21
6.302453630440481
 31
0.0
1001
ACAD
1000
TCW40_DEV_WIDTH
1002
{
1040
-3.0
1002
}
  0
LINE
  5
C9DB
330
1F
100
AcDbEntity
  8
0
100
AcDbLine
 10
10.75895494496706
 20
6.695888630440478
 30
0.0
 11
10.62125269496705
 21
6.775391061546002
 31
0.0
1001
ACAD
1000
TCW40_DEV_WIDTH
1002
{
1040
-3.0
1002
}
  0
LINE
  5
C9DC
330
1F
100
AcDbEntity
  8
0
100
AcDbLine
 10
10.62125269496705
 20
6.775391061546002
 30
0.0
 11
10.48355044496705
 21
6.695888630440478
 31
0.0
1001
ACAD
1000
TCW40_DEV_WIDTH
1002
{
1040
-3.0
1002
}
  0
LINE
  5
C9DD
330
1F
100
AcDbEntity
  8
0
100
AcDbLine
 10
10.48355044496705
 20
6.695888630440478
 30
0.0
 11
10.48355044496705
 21
6.536883768229451
 31
0.0
1001
ACAD
1000
TCW40_DEV_WIDTH
1002
{
1040
-3.0
1002
}
  0
LINE
  5
C9DE
330
1F
100
AcDbEntity
  8
0
100
AcDbLine
 10
10.48355044496705
 20
6.536883768229451
 30
0.0
 11
10.62125269496705
 21
6.457381337123933
 31
0.0
1001
ACAD
1000
TCW40_DEV_WIDTH
1002
{
1040
-3.0
1002
}
  0
LINE
  5
C9DF
330
1F
100
AcDbEntity
  8
0
100
AcDbLine
 10
10.62125269496705
 20
6.457381337123933
 30
0.0
 11
10.75895494496706
 21
6.536883768229444
 31
0.0
1001
ACAD
1000
TCW40_DEV_WIDTH
1002
{
1040
-3.0
1002
}
  0
LINE
  5
C9E0
330
1F
100
AcDbEntity
  8
0
100
AcDbLine
 10
10.75895494496706
 20
6.536883768229444
 30
0.0
 11
10.75895494496706
 21
6.695888630440478
 31
0.0
1001
ACAD
1000
TCW40_DEV_WIDTH
1002
{
1040
-3.0
1002
}
  0
LINE
  5
C9E1
330
1F
100
AcDbEntity
  8
0
100
AcDbLine
 10
10.75895494496706
 20
7.089323630440482
 30
0.0
 11
10.62125269496705
 21
7.168826061545999
 31
0.0
1001
ACAD
1000
TCW40_DEV_WIDTH
1002
{
1040
-3.0
1002
}
  0
LINE
  5
C9E2
330
1F
100
AcDbEntity
  8
0
100
AcDbLine
 10
10.62125269496705
 20
7.168826061545999
 30
0.0
 11
10.48355044496705
 21
7.089323630440482
 31
0.0
1001
ACAD
1000
TCW40_DEV_WIDTH
1002
{
1040
-3.0
1002
}
  0
LINE
  5
C9E3
330
1F
100
AcDbEntity
  8
0
100
AcDbLine
 10
10.48355044496705
 20
7.089323630440482
 30
0.0
 11
10.48355044496705
 21
6.930318768229447
 31
0.0
1001
ACAD
1000
TCW40_DEV_WIDTH
1002
{
1040
-3.0
1002
}
  0
LINE
  5
C9E4
330
1F
100
AcDbEntity
  8
0
100
AcDbLine
 10
10.48355044496705
 20
6.930318768229447
 30
0.0
 11
10.62125269496705
 21
6.85081633712393
 31
0.0
1001
ACAD
1000
TCW40_DEV_WIDTH
1002
{
1040
-3.0
1002
}
  0
LINE
  5
C9E5
330
1F
100
AcDbEntity
  8
0
100
AcDbLine
 10
10.62125269496705
 20
6.85081633712393
 30
0.0
 11
10.75895494496706
 21
6.930318768229447
 31
0.0
1001
ACAD
1000
TCW40_DEV_WIDTH
1002
{
1040
-3.0
1002
}
  0
LINE
  5
C9E6
330
1F
100
AcDbEntity
  8
0
100
AcDbLine
 10
10.75895494496706
 20
6.930318768229447
 30
0.0
 11
10.75895494496706
 21
7.089323630440482
 31
0.0
1001
ACAD
1000
TCW40_DEV_WIDTH
1002
{
1040
-3.0
1002
}
  0
ARC
  5
C9E7
330
1F
100
AcDbEntity
  8
0
100
AcDbCircle
 10
11.63905359285343
 20
6.633641966054163
 30
0.0
 40
1.399102369151786
100
AcDbArc
 50
61.4014436692385
 51
118.5213884935842
  0
LINE
  5
C9E8
330
1F
100
AcDbEntity
  8
0
100
AcDbLine
 10
10.97100069496703
 20
8.89830919933496
 30
0.0
 11
10.93165719496705
 21
8.89830919933496
 31
0.0
1001
ACAD
1000
TCW40_DEV_WIDTH
1002
{
1040
-3.0
1002
}
  0
LINE
  5
C9E9
330
1F
100
AcDbEntity
  8
0
100
AcDbLine
 10
10.93165719496705
 20
8.89830919933496
 30
0.0
 11
10.93165719496705
 21
8.563889449334965
 31
0.0
1001
ACAD
1000
TCW40_DEV_WIDTH
1002
{
1040
-3.0
1002
}
  0
LINE
  5
C9EA
330
1F
100
AcDbEntity
  8
0
100
AcDbLine
 10
10.93165719496705
 20
8.563889449334965
 30
0.0
 11
10.97100069496703
 21
8.563889449334965
 31
0.0
1001
ACAD
1000
TCW40_DEV_WIDTH
1002
{
1040
-3.0
1002
}
  0
LINE
  5
C9EB
330
1F
100
AcDbEntity
  8
0
100
AcDbLine
 10
12.30867969496704
 20
8.89830919933496
 30
0.0
 11
12.34802319496704
 21
8.89830919933496
 31
0.0
1001
ACAD
1000
TCW40_DEV_WIDTH
1002
{
1040
-3.0
1002
}
  0
LINE
  5
C9EC
330
1F
100
AcDbEntity
  8
0
100
AcDbLine
 10
12.34802319496704
 20
8.89830919933496
 30
0.0
 11
12.34802319496704
 21
8.563889449334965
 31
0.0
1001
ACAD
1000
TCW40_DEV_WIDTH
1002
{
1040
-3.0
1002
}
  0
LINE
  5
C9ED
330
1F
100
AcDbEntity
  8
0
100
AcDbLine
 10
12.34802319496704
 20
8.563889449334965
 30
0.0
 11
12.30867969496704
 21
8.563889449334965
 31
0.0
1001
ACAD
1000
TCW40_DEV_WIDTH
1002
{
1040
-3.0
1002
}
  0
ARC
  5
C9EE
330
1F
100
AcDbEntity
  8
0
100
AcDbCircle
 10
10.85731369496705
 20
9.213057199334963
 30
0.0
 40
0.0393434999999993
100
AcDbArc
 50
90.0
 51
180.0000000000026
  0
LINE
  5
C9EF
330
1F
100
AcDbEntity
  8
0
100
AcDbLine
 10
10.81797019496704
 20
9.213057199334961
 30
0.0
 11
10.8179701949671
 21
7.627014186438579
 31
0.0
  0
ARC
  5
C9F0
330
1F
100
AcDbEntity
  8
0
100
AcDbCircle
 10
10.88308066723064
 20
7.660158314198614
 30
0.0
 40
0.073060980032812
100
AcDbArc
 50
206.9781189136409
 51
293.9492141395131
  0
ARC
  5
C9F1
330
1F
100
AcDbEntity
  8
0
100
AcDbCircle
 10
11.63905359285343
 20
6.397580966054164
 30
0.0
 40
1.399102369151791
100
AcDbArc
 50
58.6527666810334
 51
121.2738881046906
  0
ARC
  5
C9F2
330
1F
100
AcDbEntity
  8
0
100
AcDbCircle
 10
12.39627202948538
 20
7.657728876637349
 30
0.0
 40
0.0715766128300241
100
AcDbArc
 50
245.772054956994
 51
333.7374287802703
  0
LINE
  5
C9F3
330
1F
100
AcDbEntity
  8
0
100
AcDbLine
 10
12.46046019496699
 20
7.626057266063767
 30
0.0
 11
12.46046019496705
 21
9.213057199334954
 31
0.0
  0
ARC
  5
C9F4
330
1F
100
AcDbEntity
  8
0
100
AcDbCircle
 10
12.39121779034925
 20
9.171986010074196
 30
0.0
 40
0.0805068517863428
100
AcDbArc
 50
30.67433373590909
 51
92.74182562883021
  0
LINE
  5
C9F5
330
1F
100
AcDbEntity
  8
0
100
AcDbLine
 10
12.38736669496704
 20
9.252400699334963
 30
0.0
 11
10.85731369496705
 21
9.252400699334963
 31
0.0
  0
LINE
  5
C9F6
330
1F
100
AcDbEntity
  8
0
100
AcDbLine
 10
11.13271819496705
 20
5.337722449334961
 30
0.0
 11
11.17206169496705
 21
5.475424699334965
 31
0.0
1001
ACAD
1000
TCW40_DEV_WIDTH
1002
{
1040
-3.0
1002
}
  0
LINE
  5
C9F7
330
1F
100
AcDbEntity
  8
0
100
AcDbLine
 10
11.17206169496705
 20
5.475424699334965
 30
0.0
 11
11.25074869496706
 21
5.475424699334965
 31
0.0
1001
ACAD
1000
TCW40_DEV_WIDTH
1002
{
1040
-3.0
1002
}
  0
LINE
  5
C9F8
330
1F
100
AcDbEntity
  8
0
100
AcDbLine
 10
11.25074869496706
 20
5.475424699334965
 30
0.0
 11
11.29009219496706
 21
5.337722449334961
 31
0.0
1001
ACAD
1000
TCW40_DEV_WIDTH
1002
{
1040
-3.0
1002
}
  0
LINE
  5
C9F9
330
1F
100
AcDbEntity
  8
0
100
AcDbLine
 10
11.29009219496706
 20
5.337722449334961
 30
0.0
 11
11.29009219496706
 21
5.278707199334959
 31
0.0
1001
ACAD
1000
TCW40_DEV_WIDTH
1002
{
1040
-3.0
1002
}
  0
LINE
  5
C9FA
330
1F
100
AcDbEntity
  8
0
100
AcDbLine
 10
11.13271819496705
 20
7.226210449334963
 30
0.0
 11
11.17206169496705
 21
7.088508199334967
 31
0.0
1001
ACAD
1000
TCW40_DEV_WIDTH
1002
{
1040
-3.0
1002
}
  0
LINE
  5
C9FB
330
1F
100
AcDbEntity
  8
0
100
AcDbLine
 10
11.17206169496705
 20
7.088508199334967
 30
0.0
 11
11.25074869496706
 21
7.088508199334967
 31
0.0
1001
ACAD
1000
TCW40_DEV_WIDTH
1002
{
1040
-3.0
1002
}
  0
LINE
  5
C9FC
330
1F
100
AcDbEntity
  8
0
100
AcDbLine
 10
11.25074869496706
 20
7.088508199334967
 30
0.0
 11
11.29009219496706
 21
7.226210449334963
 31
0.0
1001
ACAD
1000
TCW40_DEV_WIDTH
1002
{
1040
-3.0
1002
}
  0
LINE
  5
C9FD
330
1F
100
AcDbEntity
  8
0
100
AcDbLine
 10
11.29009219496706
 20
7.226210449334963
 30
0.0
 11
11.29009219496706
 21
7.285225699334965
 31
0.0
1001
ACAD
1000
TCW40_DEV_WIDTH
1002
{
1040
-3.0
1002
}
  0
LINE
  5
C9FE
330
1F
100
AcDbEntity
  8
0
100
AcDbLine
 10
12.33269494496704
 20
6.302453630440481
 30
0.0
 11
12.19499269496705
 21
6.381956061545999
 31
0.0
1001
ACAD
1000
TCW40_DEV_WIDTH
1002
{
1040
-3.0
1002
}
  0
LINE
  5
C9FF
330
1F
100
AcDbEntity
  8
0
100
AcDbLine
 10
12.19499269496705
 20
6.381956061545999
 30
0.0
 11
12.05729044496705
 21
6.302453630440481
 31
0.0
1001
ACAD
1000
TCW40_DEV_WIDTH
1002
{
1040
-3.0
1002
}
  0
LINE
  5
CA00
330
1F
100
AcDbEntity
  8
0
100
AcDbLine
 10
12.05729044496705
 20
6.302453630440481
 30
0.0
 11
12.05729044496705
 21
6.143448768229447
 31
0.0
1001
ACAD
1000
TCW40_DEV_WIDTH
1002
{
1040
-3.0
1002
}
  0
LINE
  5
CA01
330
1F
100
AcDbEntity
  8
0
100
AcDbLine
 10
12.05729044496705
 20
6.143448768229447
 30
0.0
 11
12.19499269496705
 21
6.06394633712393
 31
0.0
1001
ACAD
1000
TCW40_DEV_WIDTH
1002
{
1040
-3.0
1002
}
  0
LINE
  5
CA02
330
1F
100
AcDbEntity
  8
0
100
AcDbLine
 10
12.19499269496705
 20
6.06394633712393
 30
0.0
 11
12.33269494496704
 21
6.143448768229447
 31
0.0
1001
ACAD
1000
TCW40_DEV_WIDTH
1002
{
1040
-3.0
1002
}
  0
LINE
  5
CA03
330
1F
100
AcDbEntity
  8
0
100
AcDbLine
 10
12.33269494496704
 20
6.143448768229447
 30
0.0
 11
12.33269494496704
 21
6.302453630440481
 31
0.0
1001
ACAD
1000
TCW40_DEV_WIDTH
1002
{
1040
-3.0
1002
}
  0
LINE
  5
CA04
330
1F
100
AcDbEntity
  8
0
100
AcDbLine
 10
12.33269494496704
 20
6.695888630440478
 30
0.0
 11
12.19499269496705
 21
6.775391061546002
 31
0.0
1001
ACAD
1000
TCW40_DEV_WIDTH
1002
{
1040
-3.0
1002
}
  0
LINE
  5
CA05
330
1F
100
AcDbEntity
  8
0
100
AcDbLine
 10
12.19499269496705
 20
6.775391061546002
 30
0.0
 11
12.05729044496705
 21
6.695888630440478
 31
0.0
1001
ACAD
1000
TCW40_DEV_WIDTH
1002
{
1040
-3.0
1002
}
  0
LINE
  5
CA06
330
1F
100
AcDbEntity
  8
0
100
AcDbLine
 10
12.05729044496705
 20
6.695888630440478
 30
0.0
 11
12.05729044496705
 21
6.536883768229451
 31
0.0
1001
ACAD
1000
TCW40_DEV_WIDTH
1002
{
1040
-3.0
1002
}
  0
LINE
  5
CA07
330
1F
100
AcDbEntity
  8
0
100
AcDbLine
 10
12.05729044496705
 20
6.536883768229451
 30
0.0
 11
12.19499269496705
 21
6.457381337123933
 31
0.0
1001
ACAD
1000
TCW40_DEV_WIDTH
1002
{
1040
-3.0
1002
}
  0
LINE
  5
CA08
330
1F
100
AcDbEntity
  8
0
100
AcDbLine
 10
12.19499269496705
 20
6.457381337123933
 30
0.0
 11
12.33269494496704
 21
6.536883768229444
 31
0.0
1001
ACAD
1000
TCW40_DEV_WIDTH
1002
{
1040
-3.0
1002
}
  0
LINE
  5
CA09
330
1F
100
AcDbEntity
  8
0
100
AcDbLine
 10
12.33269494496704
 20
6.536883768229444
 30
0.0
 11
12.33269494496704
 21
6.695888630440478
 31
0.0
1001
ACAD
1000
TCW40_DEV_WIDTH
1002
{
1040
-3.0
1002
}
  0
LINE
  5
CA0A
330
1F
100
AcDbEntity
  8
0
100
AcDbLine
 10
12.32344602859456
 20
7.083983766083118
 30
0.0
 11
12.19499269496705
 21
7.158146332831272
 31
0.0
1001
ACAD
1000
TCW40_DEV_WIDTH
1002
{
1040
-3.0
1002
}
  0
LINE
  5
CA0B
330
1F
100
AcDbEntity
  8
0
100
AcDbLine
 10
12.19499269496705
 20
7.158146332831272
 30
0.0
 11
12.06653936133953
 21
7.083983766083118
 31
0.0
1001
ACAD
1000
TCW40_DEV_WIDTH
1002
{
1040
-3.0
1002
}
  0
LINE
  5
CA0C
330
1F
100
AcDbEntity
  8
0
100
AcDbLine
 10
12.06653936133953
 20
7.083983766083118
 30
0.0
 11
12.06653936133953
 21
6.935658632586811
 31
0.0
1001
ACAD
1000
TCW40_DEV_WIDTH
1002
{
1040
-3.0
1002
}
  0
LINE
  5
CA0D
330
1F
100
AcDbEntity
  8
0
100
AcDbLine
 10
12.06653936133953
 20
6.935658632586811
 30
0.0
 11
12.19499269496705
 21
6.861496065838659
 31
0.0
1001
ACAD
1000
TCW40_DEV_WIDTH
1002
{
1040
-3.0
1002
}
  0
LINE
  5
CA0E
330
1F
100
AcDbEntity
  8
0
100
AcDbLine
 10
12.19499269496705
 20
6.861496065838659
 30
0.0
 11
12.32344602859456
 21
6.935658632586811
 31
0.0
1001
ACAD
1000
TCW40_DEV_WIDTH
1002
{
1040
-3.0
1002
}
  0
LINE
  5
CA0F
330
1F
100
AcDbEntity
  8
0
100
AcDbLine
 10
12.32344602859456
 20
6.935658632586811
 30
0.0
 11
12.32344602859456
 21
7.083983766083118
 31
0.0
1001
ACAD
1000
TCW40_DEV_WIDTH
1002
{
1040
-3.0
1002
}
  0
LINE
  5
CA10
330
1F
100
AcDbEntity
  8
0
100
AcDbLine
 10
12.33269494496704
 20
7.089323630440482
 30
0.0
 11
12.19499269496705
 21
7.168826061545999
 31
0.0
1001
ACAD
1000
TCW40_DEV_WIDTH
1002
{
1040
-3.0
1002
}
  0
LINE
  5
CA11
330
1F
100
AcDbEntity
  8
0
100
AcDbLine
 10
12.19499269496705
 20
7.168826061545999
 30
0.0
 11
12.05729044496705
 21
7.089323630440482
 31
0.0
1001
ACAD
1000
TCW40_DEV_WIDTH
1002
{
1040
-3.0
1002
}
  0
LINE
  5
CA12
330
1F
100
AcDbEntity
  8
0
100
AcDbLine
 10
12.05729044496705
 20
7.089323630440482
 30
0.0
 11
12.05729044496705
 21
6.930318768229447
 31
0.0
1001
ACAD
1000
TCW40_DEV_WIDTH
1002
{
1040
-3.0
1002
}
  0
LINE
  5
CA13
330
1F
100
AcDbEntity
  8
0
100
AcDbLine
 10
12.05729044496705
 20
6.930318768229447
 30
0.0
 11
12.19499269496705
 21
6.85081633712393
 31
0.0
1001
ACAD
1000
TCW40_DEV_WIDTH
1002
{
1040
-3.0
1002
}
  0
LINE
  5
CA14
330
1F
100
AcDbEntity
  8
0
100
AcDbLine
 10
12.19499269496705
 20
6.85081633712393
 30
0.0
 11
12.33269494496704
 21
6.930318768229447
 31
0.0
1001
ACAD
1000
TCW40_DEV_WIDTH
1002
{
1040
-3.0
1002
}
  0
LINE
  5
CA15
330
1F
100
AcDbEntity
  8
0
100
AcDbLine
 10
12.33269494496704
 20
6.930318768229447
 30
0.0
 11
12.33269494496704
 21
7.089323630440482
 31
0.0
1001
ACAD
1000
TCW40_DEV_WIDTH
1002
{
1040
-3.0
1002
}
  0
LINE
  5
CA16
330
1F
100
AcDbEntity
  8
0
100
AcDbLine
 10
6.525098890861634
 20
7.803636038433044
 30
0.0
 11
6.263902950554218
 21
7.803636038433044
 31
0.0
  0
LINE
  5
CA17
330
1F
100
AcDbEntity
  8
0
100
AcDbLine
 10
6.263902950554218
 20
7.803636038433044
 30
0.0
 11
6.263902950554218
 21
6.130521914051957
 31
0.0
  0
LINE
  5
CA18
330
1F
100
AcDbEntity
  8
0
100
AcDbLine
 10
6.263902950554218
 20
6.130521914051957
 30
0.0
 11
6.525098890861634
 21
6.130521914051957
 31
0.0
  0
LINE
  5
CA19
330
1F
100
AcDbEntity
  8
0
100
AcDbLine
 10
6.664215063868478
 20
9.348646701191796
 30
0.0
 11
6.525098890861634
 21
9.348646701191796
 31
0.0
  0
LINE
  5
CA1A
330
1F
100
AcDbEntity
  8
0
100
AcDbLine
 10
6.525098890861634
 20
9.348646701191796
 30
0.0
 11
6.525098890861634
 21
6.080521914051956
 31
0.0
  0
LINE
  5
CA1B
330
1F
100
AcDbEntity
  8
0
100
AcDbLine
 10
6.525098890861634
 20
6.080521914051956
 30
0.0
 11
6.664215063868478
 21
6.080521914051956
 31
0.0
  0
LINE
  5
CA1C
330
1F
100
AcDbEntity
  8
0
100
AcDbLine
 10
6.664215063868478
 20
8.843875182190144
 30
0.0
 11
6.664215063868478
 21
10.39336219933496
 31
0.0
  0
LINE
  5
CA1D
330
1F
100
AcDbEntity
  8
0
100
AcDbLine
 10
6.664215063868478
 20
10.39336219933496
 30
0.0
 11
7.2252989718258
 21
10.39336219933496
 31
0.0
  0
LINE
  5
CA1E
330
1F
100
AcDbEntity
  8
0
100
AcDbLine
 10
6.726715063868478
 20
8.850050623112725
 30
0.0
 11
6.726715063868478
 21
10.39336219933496
 31
0.0
  0
LINE
  5
CA1F
330
1F
100
AcDbEntity
  8
0
100
AcDbLine
 10
6.664215063868478
 20
8.611677309225493
 30
0.0
 11
6.664215063868478
 21
5.236040620707822
 31
0.0
  0
LINE
  5
CA20
330
1F
100
AcDbEntity
  8
0
100
AcDbLine
 10
6.664215063868478
 20
5.236040620707822
 30
0.0
 11
6.726715063868478
 21
5.236040620707822
 31
0.0
  0
LINE
  5
CA21
330
1F
100
AcDbEntity
  8
0
100
AcDbLine
 10
6.726715063868478
 20
5.236040620707822
 30
0.0
 11
6.726715063868478
 21
8.605501868302912
 31
0.0
  0
LINE
  5
CA22
330
1F
100
AcDbEntity
  8
0
100
AcDbLine
 10
7.700669267415609
 20
9.794605710972987
 30
0.0
 11
7.700669267415609
 21
9.828537649135414
 31
0.0
  0
LINE
  5
CA23
330
1F
100
AcDbEntity
  8
0
100
AcDbLine
 10
7.972447934030853
 20
9.516040656725255
 30
0.0
 11
7.972447934030853
 21
9.719955447015649
 31
0.0
  0
LINE
  5
CA24
330
1F
100
AcDbEntity
  8
0
100
AcDbLine
 10
7.972447934030853
 20
9.719955447015649
 30
0.0
 11
7.700669267415609
 21
9.794605710972987
 31
0.0
  0
LINE
  5
CA25
330
1F
100
AcDbEntity
  8
0
100
AcDbLine
 10
7.700669267415609
 20
9.516040656725255
 30
0.0
 11
7.972447934030853
 21
9.516040656725255
 31
0.0
  0
LINE
  5
CA26
330
1F
100
AcDbEntity
  8
0
100
AcDbLine
 10
7.700669267415609
 20
9.441390392767917
 30
0.0
 11
7.700669267415609
 21
9.516040656725255
 31
0.0
  0
LINE
  5
CA27
330
1F
100
AcDbEntity
  8
0
100
AcDbLine
 10
6.726715063868478
 20
9.441390392767917
 30
0.0
 11
7.700669267415609
 21
9.441390392767917
 31
0.0
  0
LINE
  5
CA28
330
1F
100
AcDbEntity
  8
0
100
AcDbLine
 10
6.726715063868478
 20
9.828537649135414
 30
0.0
 11
7.700669267415609
 21
9.828537649135414
 31
0.0
  0
LINE
  5
CA29
330
1F
100
AcDbEntity
  8
0
100
AcDbLine
 10
7.463145700278619
 20
10.0041037149966
 30
0.0
 11
7.463145700278619
 21
10.26090112652906
 31
0.0
  0
LINE
  5
CA2A
330
1F
100
AcDbEntity
  8
0
100
AcDbLine
 10
7.463145700278619
 20
10.26090112652906
 30
0.0
 11
7.2252989718258
 21
10.35943026117253
 31
0.0
  0
LINE
  5
CA2B
330
1F
100
AcDbEntity
  8
0
100
AcDbLine
 10
7.381385887372964
 20
10.0041037149966
 30
0.0
 11
7.463145700278619
 21
10.0041037149966
 31
0.0
  0
LINE
  5
CA2C
330
1F
100
AcDbEntity
  8
0
100
AcDbLine
 10
7.2252989718258
 20
10.35943026117253
 30
0.0
 11
7.2252989718258
 21
10.39336219933496
 31
0.0
  0
LINE
  5
CA2D
330
1F
100
AcDbEntity
  8
0
100
AcDbLine
 10
7.381385887372964
 20
9.828537649135414
 30
0.0
 11
7.381385887372964
 21
10.0041037149966
 31
0.0
  0
LWPOLYLINE
  5
CC35
330
1F
100
AcDbEntity
  8
0
100
AcDbPolyline
 90
        4
 70
     1
 43
0.0
 10
0.0
 20
0.0
 10
22.0
 20
0.0
 10
22.0
 20
17.0
 10
0.0
 20
17.0
  0
ENDSEC
  0
SECTION
  2
OBJECTS
  0
DICTIONARY
  5
C
330
0
100
AcDbDictionary
281
     1
  3
ACAD_ASSOCPERSSUBENTMANAGER
350
3F01
  3
ACAD_BACKGROUND
350
5499
  3
ACAD_COLOR
350
5D
  3
ACAD_GROUP
350
D
  3
ACAD_LAYOUT
350
1A
  3
ACAD_MATERIAL
350
33
  3
ACAD_MLEADERSTYLE
350
82
  3
ACAD_MLINESTYLE
350
17
  3
ACAD_PERSUBENTMGR
350
58ED
  3
ACAD_PLOTSETTINGS
350
19
  3
ACAD_PLOTSTYLENAME
350
E
  3
ACAD_SCALELIST
350
60
  3
ACAD_TABLESTYLE
350
5E
  3
ACAD_VISUALSTYLE
350
4C
  3
ACAD_WIPEOUT_VARS
350
5C61
  3
ACADE_WIRETYPE
350
226D
  3
ACDB_RECOMPOSE_DATA
350
CE68
  3
AcDbVariableDictionary
350
8A
  3
AEC_PROPERTY_SET_DEFS
350
2A20
  3
ASE_INDEX_DICTIONARY
350
2834
  3
BNS_VARIABLES
350
C0C0
  3
DWGPROPS
350
CEB0
  0
DICTIONARY
  5
181
330
8
100
AcDbDictionary
280
     1
281
     1
  0
DICTIONARY
  5
107
330
2
100
AcDbDictionary
280
     1
281
     1
  3
ACAD_LAYERSTATES
360
108
  0
DICTIONARY
  5
17C
330
10
100
AcDbDictionary
280
     1
281
     1
  3
ADSK_XREC_LAYER_RECONCILED
360
284E
  0
DICTIONARY
  5
17A
330
1F
100
AcDbDictionary
280
     1
281
     1
  3
ACAD_SORTENTS
360
17B
  0
ACAD_PROXY_OBJECT
  5
3F01
102
{ACAD_REACTORS
330
C
102
}
330
C
100
AcDbProxyObject
 90
      499
 91
      519
 95
   983063
 70
     0
 93
       73
310
40503902218040002A7F
 94
        0
1001
ACAD
1000
AcRTDxfName
1000
ACDBASSOCPERSSUBENTMANAGER
  0
DICTIONARY
  5
5499
102
{ACAD_REACTORS
330
C
102
}
330
C
100
AcDbDictionary
281
     1
  0
DICTIONARY
  5
5D
102
{ACAD_REACTORS
330
C
102
}
330
C
100
AcDbDictionary
281
     1
  0
DICTIONARY
  5
D
102
{ACAD_REACTORS
330
C
102
}
330
C
100
AcDbDictionary
281
     1
  3
*A1
350
334E
  3
*A10
350
3363
  3
*A11
350
3378
  3
*A12
350
338D
  3
*A13
350
33A2
  3
*A14
350
33B7
  3
*A15
350
33CC
  3
*A16
350
33E1
  3
*A2
350
33F6
  3
*A3
350
340B
  3
*A4
350
3420
  3
*A5
350
3435
  3
*A6
350
344A
  3
*A7
350
345F
  3
*A8
350
3474
  3
*A9
350
3489
  0
DICTIONARY
  5
1A
102
{ACAD_REACTORS
330
C
102
}
330
C
100
AcDbDictionary
281
     1
  3
Layout1
350
1E
  3
Layout2
350
26
  3
Model
350
22
  0
DICTIONARY
  5
33
102
{ACAD_REACTORS
330
C
102
}
330
C
100
AcDbDictionary
281
     1
  3
ByBlock
350
3C
  3
ByLayer
350
34
  3
Global
350
44
  0
DICTIONARY
  5
82
102
{ACAD_REACTORS
330
C
102
}
330
C
100
AcDbDictionary
281
     1
  3
Standard
350
83
  0
DICTIONARY
  5
17
102
{ACAD_REACTORS
330
C
102
}
330
C
100
AcDbDictionary
281
     1
  3
Standard
350
18
  0
ACDBPERSSUBENTMANAGER
  5
58ED
102
{ACAD_REACTORS
330
C
102
}
330
C
100
AcDbPersSubentManager
 90
        2
 90
        0
 90
        2
 90
      390
 90
        0
 90
        0
  0
DICTIONARY
  5
19
102
{ACAD_REACTORS
330
C
102
}
330
C
100
AcDbDictionary
281
     1
  0
ACDBDICTIONARYWDFLT
  5
E
102
{ACAD_REACTORS
330
C
102
}
330
C
100
AcDbDictionary
281
     1
  3
Normal
350
F
100
AcDbDictionaryWithDefault
340
F
  0
DICTIONARY
  5
60
102
{ACAD_REACTORS
330
C
102
}
330
C
100
AcDbDictionary
281
     1
  3
A0
350
61
  3
A1
350
62
  3
A2
350
63
  3
A3
350
64
  3
A4
350
65
  3
A5
350
66
  3
A6
350
67
  3
A7
350
68
  3
A8
350
69
  3
A9
350
6A
  3
B0
350
6B
  3
B1
350
6C
  3
B2
350
6D
  3
B3
350
6E
  3
B4
350
6F
  3
B5
350
70
  3
B6
350
71
  3
B7
350
72
  3
B8
350
73
  3
B9
350
74
  3
C0
350
75
  3
C1
350
76
  3
C2
350
77
  3
C3
350
78
  3
C4
350
79
  3
C5
350
7A
  3
C6
350
7B
  3
C7
350
7C
  3
C8
350
7D
  3
C9
350
7E
  3
D0
350
7F
  3
D1
350
80
  3
D2
350
81
  0
DICTIONARY
  5
5E
102
{ACAD_REACTORS
330
C
102
}
330
C
100
AcDbDictionary
281
     1
  3
Standard
350
5F
  0
DICTIONARY
  5
4C
102
{ACAD_REACTORS
330
C
102
}
330
C
100
AcDbDictionary
281
     1
  3
2dWireframe
350
52
  3
3D Hidden
350
54
  3
3dWireframe
350
53
  3
Basic
350
51
  3
Brighten
350
58
  3
ColorChange
350
5C
  3
Conceptual
350
55
  3
Dim
350
57
  3
EdgeColorOff
350
2848
  3
Facepattern
350
5B
  3
Flat
350
4D
  3
FlatWithEdges
350
4E
  3
Gouraud
350
4F
  3
GouraudWithEdges
350
50
  3
Hidden
350
2840
  3
JitterOff
350
2846
  3
Linepattern
350
5A
  3
OverhangOff
350
2847
  3
Realistic
350
56
  3
Shaded
350
2845
  3
Shaded with edges
350
2844
  3
Shades of Gray
350
2841
  3
Sketchy
350
2842
  3
Thicken
350
59
  3
Wireframe
350
283F
  3
X-Ray
350
2843
  0
WIPEOUTVARIABLES
  5
5C61
102
{ACAD_REACTORS
330
C
102
}
330
C
100
AcDbWipeoutVariables
 70
     1
  0
DICTIONARY
  5
226D
102
{ACAD_REACTORS
330
C
102
}
330
C
100
AcDbDictionary
281
     1
  3
CURRENT_WIRELAY
350
226E
  0
XRECORD
  5
CE68
102
{ACAD_REACTORS
330
C
102
}
330
C
100
AcDbXrecord
280
     1
 90
        1
330
5F
  0
DICTIONARY
  5
8A
102
{ACAD_REACTORS
330
C
102
}
330
C
100
AcDbDictionary
281
     1
  3
CANNOSCALE
350
8E
  3
CMLEADERSTYLE
350
8C
  3
CTABLESTYLE
350
8B
  3
DIMASSOC
350
18F
  3
INDEXCTL
350
18E
  3
LAYEREVAL
350
217D
  3
LAYERNOTIFY
350
217E
  3
LIGHTINGUNITS
350
8F
  3
MSLTSCALE
350
8D
  3
SORTENTS
350
18D
  3
XCLIPFRAME
350
CEAB
  0
DICTIONARY
  5
2A20
102
{ACAD_REACTORS
330
C
102
}
330
C
100
AcDbDictionary
281
     1
  0
DICTIONARY
  5
2834
102
{ACAD_REACTORS
330
C
102
}
330
C
100
AcDbDictionary
281
     1
  3
ASEBlockHierarchyIndexRecord
350
2835
1001
DCO15
1040
1674887783.539
  0
DICTIONARY
  5
C0C0
102
{ACAD_REACTORS
330
C
102
}
330
C
100
AcDbDictionary
281
     1
  3
ACET-OVERKILL-FUZZ
350
C51E
  3
ACET-OVERKILL-NO-ENDTOEND
350
C521
  3
ACET-OVERKILL-NO-PARTIAL
350
C520
  3
ACET-OVERKILL-NO-PLINES
350
C51F
  0
XRECORD
  5
CEB0
102
{ACAD_REACTORS
330
C
102
}
330
C
100
AcDbXrecord
280
     1
  1
DWGPROPS COOKIE
  2

  3

  4

  6

  7

  8
dan
  9

300
Drawing Description 1=LINE 1 LINE 2 LINE 3
301
Drawing Description 2=
302
Drawing Description 3=
303
Project Code=
304
Installation Code=
305
Location Code=
306
Sheet=A02
307
Drawing=
308
Section=A
309
Sub-Section=12
 40
1.831768067129629
 41
2455646.34385588
 42
2456008.635105278
  1

 90
       10
  0
DICTIONARY
  5
108
102
{ACAD_REACTORS
330
107
102
}
330
107
100
AcDbDictionary
281
     1
  0
XRECORD
  5
284E
102
{ACAD_REACTORS
330
17C
102
}
330
17C
100
AcDbXrecord
280
     1
290
     1
  0
SORTENTSTABLE
  5
17B
102
{ACAD_REACTORS
330
17A
102
}
330
17A
100
AcDbSortentsTable
330
1F
331
7370
  5
C407
331
72AA
  5
7327
331
C90B
  5
C9F5
331
9B25
  5
C9A0
331
7341
  5
739B
331
72B2
  5
7333
331
C913
  5
C9ED
331
7380
  5
C648
331
7349
  5
73A5
331
C91B
  5
C9E5
331
9736
  5
C95F
331
7388
  5
C8ED
331
9557
  5
C947
331
C999
  5
C8EA
331
C9D8
  5
7366
331
C962
  5
C93E
331
C923
  5
C9DD
331
CA17
  5
C9AA
331
C9A1
  5
C64D
331
C9E0
  5
7362
331
C96A
  5
C936
331
C92B
  5
C9D5
331
CA1F
  5
C989
331
C9A9
  5
C584
331
C9E8
  5
734F
331
C972
  5
C92B
331
C933
  5
C9CD
331
CA27
  5
C983
331
C9B1
  5
C55E
331
C9F0
  5
7344
331
C97A
  5
C922
331
C93B
  5
C9C5
331
7351
  5
73AE
331
7390
  5
C8FC
331
BD15
  5
CA1B
331
C8EC
  5
CA14
331
95A7
  5
C950
331
7359
  5
C393
331
7398
  5
C90E
331
BD1D
  5
CA22
331
C8F4
  5
CA0C
331
97CE
  5
C969
331
7361
  5
C3AA
331
73A0
  5
C91B
331
732A
  5
736F
331
C8FC
  5
CA04
331
9B16
  5
C994
331
95EF
  5
C94B
331
7369
  5
C3E9
331
73A8
  5
C928
331
7332
  5
7388
331
C904
  5
C9FC
331
C9B9
  5
C460
331
C9F8
  5
733C
331
C982
  5
C908
331
C943
  5
C9BD
331
C9C1
  5
C433
331
CA00
  5
72BE
331
C98A
  5
C8FF
331
C94B
  5
C9B5
331
C9C9
  5
C410
331
CA08
  5
72B7
331
C992
  5
C8F3
331
C953
  5
C9AE
331
C9D1
  5
7370
331
C95B
  5
C945
331
7371
  5
C40A
331
733A
  5
7393
331
72AB
  5
7328
331
C90C
  5
C9F4
331
9B26
  5
C9A1
331
7342
  5
739C
331
72B3
  5
7334
331
963F
  5
C95D
331
734A
  5
73A6
331
72BB
  5
7340
331
C914
  5
C9EC
331
C91C
  5
C9E4
331
9B36
  5
C9A8
331
7389
  5
C8EE
331
72C3
  5
7353
331
9737
  5
C960
331
C8E5
  5
CA25
331
977F
  5
C961
331
CA10
  5
72A5
331
C99A
  5
C8E5
331
C9D9
  5
7367
331
C963
  5
C93D
331
C924
  5
C9DC
331
CA18
  5
C9AB
331
C9A2
  5
C64E
331
C9E1
  5
7357
331
C96B
  5
C935
331
C92C
  5
C9D4
331
CA20
  5
C98A
331
C9AA
  5
C645
331
C9E9
  5
7350
331
C973
  5
C92C
331
C934
  5
C9CC
331
CA28
  5
C982
331
C9B2
  5
C560
331
C9F1
  5
7345
331
C97B
  5
C923
331
C93C
  5
C9C4
331
7352
  5
73AF
331
95A8
  5
C94D
331
735A
  5
C396
331
7399
  5
C90F
331
BD16
  5
CA1C
331
C8ED
  5
CA13
331
BD1E
  5
CA23
331
C8F5
  5
CA0B
331
7362
  5
C3AD
331
73A1
  5
C91C
331
97CF
  5
C958
331
C8FD
  5
CA03
331
95F0
  5
C951
331
736A
  5
C3EC
331
7333
  5
7389
331
9B17
  5
C995
331
C905
  5
C9FB
331
C9BA
  5
C54A
331
C9F9
  5
733D
331
C944
  5
C9BC
331
C983
  5
C909
331
C9C2
  5
C437
331
CA01
  5
72BF
331
C94C
  5
C9B4
331
C98B
  5
C900
331
CA09
  5
72B8
331
C9CA
  5
C413
331
C993
  5
C8F4
331
C954
  5
C9AF
331
C9D2
  5
7371
331
C95C
  5
C942
331
7372
  5
C40D
331
733B
  5
7394
331
C90D
  5
C9F3
331
9640
  5
C95C
331
7343
  5
739E
331
72B4
  5
7336
331
C915
  5
C9EB
331
7382
  5
C653
331
734B
  5
73A7
331
72BC
  5
7341
331
C91D
  5
C9E3
331
72C4
  5
7354
331
C8E6
  5
CA18
331
CA11
  5
72A6
331
C99B
  5
C8E6
331
C9DA
  5
7368
331
C925
  5
C9DB
331
C964
  5
C93C
331
CA19
  5
C9A2
331
C9A3
  5
C651
331
C9E2
  5
7358
331
C92D
  5
C9D3
331
C96C
  5
C96A
331
CA21
  5
C98B
331
C9AB
  5
C646
331
C9EA
  5
7351
331
C935
  5
C9CB
331
C974
  5
C92D
331
CA29
  5
C981
331
C9B3
  5
C562
331
C9F2
  5
7346
331
C93D
  5
C9C3
331
C97C
  5
C913
331
9780
  5
C962
331
95A1
  5
C94C
331
7353
  5
C281
331
7392
  5
C903
331
BD17
  5
CA1D
331
C8EE
  5
CA12
331
97C8
  5
C964
331
735B
  5
C399
331
739A
  5
C910
331
7324
  5
7369
331
BD1F
  5
CA24
331
C8F6
  5
CA0A
331
7363
  5
C3BF
331
73A2
  5
C91D
331
732C
  5
737C
331
C8FE
  5
CA02
331
9B18
  5
C996
331
95F1
  5
C952
331
736B
  5
C3F9
331
73AA
  5
C92F
331
72A5
  5
72C5
331
7334
  5
738B
331
C906
  5
C9FA
331
C9FA
  5
7329
331
C9BB
  5
C550
331
C984
  5
C90A
331
C945
  5
C9BB
331
CA02
  5
72C3
331
C9C3
  5
C43E
331
C98C
  5
C901
331
C94D
  5
C9B3
331
CA0A
  5
72AB
331
C9CB
  5
C416
331
C994
  5
C8F5
331
C955
  5
CA2B
331
C9D3
  5
7372
331
C95D
  5
C943
331
733C
  5
7395
331
72AD
  5
732E
331
C90E
  5
C9F2
331
9B28
  5
C9A5
331
737B
  5
C56E
331
72B5
  5
7337
331
7344
  5
739F
331
C916
  5
C9EA
331
7383
  5
C8E2
331
734C
  5
73A8
331
C91E
  5
C9E2
331
738B
  5
C8F7
331
72C5
  5
7355
331
C8E7
  5
CA19
331
CA12
  5
72A7
331
C99C
  5
C8E7
331
C9DB
  5
735D
331
C926
  5
C9DA
331
C965
  5
C93B
331
CA1A
  5
C9A3
331
C9A4
  5
C652
331
C9E3
  5
7359
331
C92E
  5
C9D2
331
C96D
  5
C96B
331
CA22
  5
C988
331
C9AC
  5
C647
331
C9EB
  5
734C
331
C936
  5
C9CA
331
C975
  5
C92E
331
CA2A
  5
C980
331
C9B4
  5
C564
331
C9F3
  5
7347
331
C93E
  5
C9C2
331
C97D
  5
C914
331
9781
  5
C963
331
95A2
  5
C94E
331
7354
  5
C282
331
7393
  5
C904
331
BD18
  5
CA1E
331
C8EF
  5
CA11
331
97C9
  5
C965
331
735C
  5
C39B
331
739B
  5
C911
331
7325
  5
736A
331
C8F7
  5
CA09
331
9B11
  5
C990
331
7364
  5
C3C2
331
732D
  5
737D
331
C8FF
  5
CA01
331
9B19
  5
C997
331
95F2
  5
C949
331
72A6
  5
7306
331
736C
  5
C3FC
331
73AB
  5
C930
331
C907
  5
C9F9
331
C9BC
  5
C554
331
C9FB
  5
732A
331
C985
  5
C90B
331
C946
  5
C9BA
331
CA03
  5
72C4
331
C9C4
  5
C446
331
C98D
  5
C902
331
C94E
  5
C9B2
331
CA0B
  5
72AD
331
C9CC
  5
C41B
331
C995
  5
C8F6
331
C956
  5
CA2C
331
C9D4
  5
737B
331
C95E
  5
C944
331
9B21
  5
C99C
331
733D
  5
7396
331
72AE
  5
732F
331
C90F
  5
C9F1
331
9B29
  5
C9A6
331
737C
  5
C570
331
7345
  5
73A0
331
C917
  5
C9E9
331
72BE
  5
734A
331
734D
  5
73AA
331
C91F
  5
C9E1
331
738C
  5
C8F8
331
CA13
  5
72A8
331
C99D
  5
C649
331
C9DC
  5
735E
331
C966
  5
C93A
331
C927
  5
C9D9
331
CA1B
  5
C9A4
331
C9A5
  5
C57A
331
C9E4
  5
735A
331
C96E
  5
C96C
331
C92F
  5
C9D1
331
CA23
  5
C987
331
C9AD
  5
C566
331
C9EC
  5
734D
331
C976
  5
C91E
331
C937
  5
C9C9
331
CA2B
  5
C97F
331
C9B5
  5
C556
331
C9F4
  5
7348
331
C97E
  5
C915
331
C93F
  5
C9C1
331
C8E8
  5
CA1A
331
9782
  5
C957
331
7355
  5
C283
331
7394
  5
C905
331
7306
  5
7356
331
C8F0
  5
CA10
331
97CA
  5
C966
331
735D
  5
C39E
331
739C
  5
C912
331
7326
  5
736B
331
C8F8
  5
CA08
331
9B12
  5
C991
331
7365
  5
C3C4
331
73A4
  5
C924
331
732E
  5
7380
331
C900
  5
CA00
331
9B1A
  5
C998
331
95F3
  5
C94A
331
736D
  5
C3FF
331
73AC
  5
C931
331
72A7
  5
7324
331
7336
  5
7390
331
C9BD
  5
C44C
331
C9FC
  5
732C
331
C986
  5
C90C
331
C947
  5
C9B9
331
C9C5
  5
C421
331
CA04
  5
72B2
331
C98E
  5
C8EF
331
C94F
  5
C9B1
331
C9CD
  5
738C
331
CA0C
  5
72AE
331
C996
  5
C8EB
331
C957
  5
CA2D
331
C9D5
  5
7363
331
C95F
  5
C941
331
C908
  5
C9F8
331
9B22
  5
C99D
331
733E
  5
7398
331
72AF
  5
7330
331
963B
  5
C959
331
C910
  5
C9F0
331
737D
  5
C574
331
72B7
  5
733E
331
7346
  5
73A1
331
9B2A
  5
C9A7
331
72BF
  5
734B
331
734E
  5
73AB
331
C918
  5
C9E8
331
738D
  5
C8F9
331
C920
  5
C9E0
331
CA14
  5
72A9
331
C99E
  5
C64A
331
C9DD
  5
735F
331
C967
  5
C939
331
C928
  5
C9D8
331
CA1C
  5
C98D
331
C9A6
  5
C57C
331
C9E5
  5
735B
331
C96F
  5
C96D
331
C930
  5
C9D0
331
CA24
  5
C986
331
C9AE
  5
C568
331
C9ED
  5
734E
331
C977
  5
C91F
331
C938
  5
C9C8
331
CA2C
  5
C97E
331
C9B6
  5
C558
331
C9F5
  5
7349
331
C97F
  5
C916
331
95A4
  5
C94F
331
7356
  5
C38B
331
7395
  5
C906
331
C8E9
  5
CA15
331
BD1A
  5
CA1F
331
C8F1
  5
CA0F
331
735E
  5
C3A1
331
7327
  5
736C
331
97CB
  5
C956
331
7366
  5
C3C7
331
73A5
  5
C925
331
732F
  5
7382
331
BFCA
  5
CA27
331
C8F9
  5
CA07
331
C901
  5
C9FF
331
95F4
  5
C955
331
736E
  5
C401
331
73AD
  5
C932
331
7337
  5
7392
331
9B1B
  5
C999
331
C940
  5
C9C0
331
C9BE
  5
C450
331
C9FD
  5
732D
331
C987
  5
C90D
331
C948
  5
C9B8
331
C9C6
  5
C425
331
CA05
  5
72B3
331
C98F
  5
C8F0
331
C950
  5
C9B0
331
CA0D
  5
72AF
331
C9CE
  5
738D
331
C997
  5
C8E8
331
C958
  5
CA28
331
C9D6
  5
7364
331
72A8
  5
7325
331
C909
  5
C9F7
331
9B23
  5
C99E
331
963C
  5
C95A
331
72B0
  5
7331
331
733F
  5
7399
331
C911
  5
C9EF
331
7347
  5
73A2
331
72B8
  5
733F
331
C919
  5
C9E7
331
734F
  5
73AC
331
C8E2
  5
CA26
331
738E
  5
C8FA
331
C921
  5
C9DF
331
C960
  5
C940
331
CA15
  5
72AA
331
C99F
  5
C64B
331
C9DE
  5
7360
331
C929
  5
C9D7
331
C968
  5
C938
331
CA1D
  5
C98F
331
C9A7
  5
C57E
331
C9E6
  5
735C
331
C931
  5
C9CF
331
C970
  5
C929
331
CA25
  5
C985
331
C9AF
  5
C56A
331
C9EE
  5
7342
331
C939
  5
C9C7
331
C978
  5
C920
331
CA2D
  5
C97D
331
C9B7
  5
C55A
331
C9F6
  5
733A
331
C8EA
  5
CA16
331
7357
  5
C38E
331
7396
  5
C907
331
BD1B
  5
CA20
331
C8F2
  5
CA0E
331
97CC
  5
C967
331
735F
  5
C3A4
331
739E
  5
C919
331
7328
  5
736D
331
C8FA
  5
CA06
331
9B14
  5
C992
331
7367
  5
C3DC
331
73A6
  5
C926
331
7330
  5
7383
331
C902
  5
C9FE
331
9B1C
  5
C99A
331
736F
  5
C404
331
73AE
  5
C933
331
C980
  5
C917
331
C941
  5
C9BF
331
C9FE
  5
72BB
331
C9BF
  5
C454
331
C988
  5
C8FD
331
C949
  5
C9B7
331
CA06
  5
72B4
331
C9C7
  5
C429
331
C990
  5
C8F1
331
C951
  5
C9AC
331
CA0E
  5
72B0
331
C9CF
  5
738E
331
C959
  5
CA29
331
C9D7
  5
7365
331
72A9
  5
7326
331
C22B
  5
C946
331
C90A
  5
C9F6
331
9B24
  5
C99F
331
963D
  5
C95B
331
7340
  5
739A
331
72B1
  5
7332
331
C912
  5
C9EE
331
7348
  5
73A4
331
C91A
  5
C9E6
331
9735
  5
C95E
331
7387
  5
C8EC
331
738F
  5
C8FB
331
C998
  5
C8E9
331
C922
  5
C9DE
331
C961
  5
C93F
331
CA16
  5
C9A9
331
C9A0
  5
C64C
331
C9DF
  5
7361
331
C92A
  5
C9D6
331
C969
  5
C937
331
CA1E
  5
C98C
331
C9A8
  5
C580
331
C9E7
  5
7352
331
C932
  5
C9CE
331
C971
  5
C92A
331
CA26
  5
C984
331
C9B0
  5
C56C
331
C9EF
  5
7343
331
C93A
  5
C9C6
331
C979
  5
C921
331
C9F7
  5
733B
331
7350
  5
73AD
331
C8EB
  5
CA17
331
95A6
  5
C948
331
7358
  5
C391
331
BD1C
  5
CA21
331
C8F3
  5
CA0D
331
97CD
  5
C968
331
7360
  5
C3A7
331
739F
  5
C91A
331
7329
  5
736E
331
C8FB
  5
CA05
331
7368
  5
C3E6
331
73A7
  5
C927
331
7331
  5
7387
331
C903
  5
C9FD
331
9B1D
  5
C99B
331
73AF
  5
C934
331
C9B8
  5
C55C
331
C981
  5
C918
331
C942
  5
C9BE
331
C9C0
  5
C458
331
C9FF
  5
72BC
331
C989
  5
C8FE
331
C94A
  5
C9B6
331
CA07
  5
72B5
331
C9C8
  5
C42F
331
C991
  5
C8F2
331
C952
  5
C9AD
331
CA0F
  5
72B1
331
C9D0
  5
738F
331
C95A
  5
CA2A
  0
GROUP
  5
334E
102
{ACAD_REACTORS
330
D
102
}
330
D
100
AcDbGroup
300

 70
     1
 71
     1
  0
GROUP
  5
3363
102
{ACAD_REACTORS
330
D
102
}
330
D
100
AcDbGroup
300

 70
     1
 71
     1
  0
GROUP
  5
3378
102
{ACAD_REACTORS
330
D
102
}
330
D
100
AcDbGroup
300

 70
     1
 71
     1
  0
GROUP
  5
338D
102
{ACAD_REACTORS
330
D
102
}
330
D
100
AcDbGroup
300

 70
     1
 71
     1
  0
GROUP
  5
33A2
102
{ACAD_REACTORS
330
D
102
}
330
D
100
AcDbGroup
300

 70
     1
 71
     1
  0
GROUP
  5
33B7
102
{ACAD_REACTORS
330
D
102
}
330
D
100
AcDbGroup
300

 70
     1
 71
     1
  0
GROUP
  5
33CC
102
{ACAD_REACTORS
330
D
102
}
330
D
100
AcDbGroup
300

 70
     1
 71
     1
  0
GROUP
  5
33E1
102
{ACAD_REACTORS
330
D
102
}
330
D
100
AcDbGroup
300

 70
     1
 71
     1
  0
GROUP
  5
33F6
102
{ACAD_REACTORS
330
D
102
}
330
D
100
AcDbGroup
300

 70
     1
 71
     1
  0
GROUP
  5
340B
102
{ACAD_REACTORS
330
D
102
}
330
D
100
AcDbGroup
300

 70
     1
 71
     1
  0
GROUP
  5
3420
102
{ACAD_REACTORS
330
D
102
}
330
D
100
AcDbGroup
300

 70
     1
 71
     1
  0
GROUP
  5
3435
102
{ACAD_REACTORS
330
D
102
}
330
D
100
AcDbGroup
300

 70
     1
 71
     1
  0
GROUP
  5
344A
102
{ACAD_REACTORS
330
D
102
}
330
D
100
AcDbGroup
300

 70
     1
 71
     1
  0
GROUP
  5
345F
102
{ACAD_REACTORS
330
D
102
}
330
D
100
AcDbGroup
300

 70
     1
 71
     1
  0
GROUP
  5
3474
102
{ACAD_REACTORS
330
D
102
}
330
D
100
AcDbGroup
300

 70
     1
 71
     1
  0
GROUP
  5
3489
102
{ACAD_REACTORS
330
D
102
}
330
D
100
AcDbGroup
300

 70
     1
 71
     1
  0
LAYOUT
  5
1E
102
{ACAD_XDICTIONARY
360
CEB1
102
}
102
{ACAD_REACTORS
330
1A
102
}
330
1A
100
AcDbPlotSettings
  1

  2
Microsoft Office Document Image Writer
  4

  6

 40
0.0
 41
0.0
 42
0.0
 43
0.0
 44
0.0
 45
0.0
 46
0.0
 47
0.0
 48
0.0
 49
0.0
140
0.0
141
0.0
142
1.0
143
1.0
 70
   688
 72
     0
 73
     0
 74
     5
  7
monochromeII.ctb
 75
    16
147
1.0
148
0.0
149
0.0
100
AcDbLayout
  1
Layout1
 70
     1
 71
     1
 10
0.0
 20
0.0
 11
12.0
 21
9.0
 12
0.0
 22
0.0
 32
0.0
 14
1.000000000000000E+20
 24
1.000000000000000E+20
 34
1.000000000000000E+20
 15
-1.000000000000000E+20
 25
-1.000000000000000E+20
 35
-1.000000000000000E+20
146
0.0
 13
0.0
 23
0.0
 33
0.0
 16
1.0
 26
0.0
 36
0.0
 17
0.0
 27
1.0
 37
0.0
 76
     0
330
1B
  0
LAYOUT
  5
26
102
{ACAD_XDICTIONARY
360
CEB5
102
}
102
{ACAD_REACTORS
330
1A
102
}
330
1A
100
AcDbPlotSettings
  1

  2
Microsoft Office Document Image Writer
  4

  6

 40
0.0
 41
0.0
 42
0.0
 43
0.0
 44
0.0
 45
0.0
 46
0.0
 47
0.0
 48
0.0
 49
0.0
140
0.0
141
0.0
142
1.0
143
1.0
 70
   688
 72
     0
 73
     0
 74
     5
  7
monochromeII.ctb
 75
    16
147
1.0
148
0.0
149
0.0
100
AcDbLayout
  1
Layout2
 70
     1
 71
     2
 10
0.0
 20
0.0
 11
12.0
 21
9.0
 12
0.0
 22
0.0
 32
0.0
 14
0.0
 24
0.0
 34
0.0
 15
0.0
 25
0.0
 35
0.0
146
0.0
 13
0.0
 23
0.0
 33
0.0
 16
1.0
 26
0.0
 36
0.0
 17
0.0
 27
1.0
 37
0.0
 76
     0
330
23
  0
LAYOUT
  5
22
102
{ACAD_XDICTIONARY
360
CEB3
102
}
102
{ACAD_REACTORS
330
1A
102
}
330
1A
100
AcDbPlotSettings
  1

  2
Default Windows System Printer.pc3
  4
11x17
  6

 40
4.857749938964843
 41
4.857734680175781
 42
4.85772705078125
 43
4.857757568359375
 44
279.3999938964844
 45
431.7999877929687
 46
0.0
 47
2.649666526100765
 48
0.0
 49
0.0
140
0.0
141
0.0
142
1.0
143
2.072177197471839
 70
 11956
 72
     0
 73
     1
 74
     1
  7
monochromeII.ctb
 75
     0
147
0.4825842120162553
148
0.0263525400471963
149
0.0170517658604823
100
AcDbLayout
  1
Model
 70
     1
 71
     0
 10
0.0
 20
0.0
 11
12.0
 21
9.0
 12
0.0
 22
0.0
 32
0.0
 14
0.0
 24
0.0
 34
0.0
 15
0.0
 25
0.0
 35
0.0
146
0.0
 13
0.0
 23
0.0
 33
0.0
 16
1.0
 26
0.0
 36
0.0
 17
0.0
 27
1.0
 37
0.0
 76
     0
330
1F
331
31
1001
ACAD_PSEXT
1000
Default Windows System Printer.pc3
1000
Xerox WorkCentre 7335 PS
1000
Engineering Office
1000

1070
     0
  0
MATERIAL
  5
3C
102
{ACAD_XDICTIONARY
360
3D
102
}
102
{ACAD_REACTORS
330
33
102
}
330
33
100
AcDbMaterial
  1
ByBlock
 72
     0
 43
0.0208333333333333
 43
0.0
 43
0.0
 43
0.0
 43
0.0
 43
0.0208333333333333
 43
0.0
 43
0.0
 43
0.0
 43
0.0
 43
1.0
 43
0.0
 43
0.0
 43
0.0
 43
0.0
 43
1.0
 77
     0
 47
0.0208333333333333
 47
0.0
 47
0.0
 47
0.0
 47
0.0
 47
0.0208333333333333
 47
0.0
 47
0.0
 47
0.0
 47
0.0
 47
1.0
 47
0.0
 47
0.0
 47
0.0
 47
0.0
 47
1.0
171
     0
 49
0.0208333333333333
 49
0.0
 49
0.0
 49
0.0
 49
0.0
 49
0.0208333333333333
 49
0.0
 49
0.0
 49
0.0
 49
0.0
 49
1.0
 49
0.0
 49
0.0
 49
0.0
 49
0.0
 49
1.0
175
     0
142
0.0208333333333333
142
0.0
142
0.0
142
0.0
142
0.0
142
0.0208333333333333
142
0.0
142
0.0
142
0.0
142
0.0
142
1.0
142
0.0
142
0.0
142
0.0
142
0.0
142
1.0
179
     0
144
0.0208333333333333
144
0.0
144
0.0
144
0.0
144
0.0
144
0.0208333333333333
144
0.0
144
0.0
144
0.0
144
0.0
144
1.0
144
0.0
144
0.0
144
0.0
144
0.0
144
1.0
147
0.0208333333333333
147
0.0
147
0.0
147
0.0
147
0.0
147
0.0208333333333333
147
0.0
147
0.0
147
0.0
147
0.0
147
1.0
147
0.0
147
0.0
147
0.0
147
0.0
147
1.0
  0
MATERIAL
  5
34
102
{ACAD_XDICTIONARY
360
35
102
}
102
{ACAD_REACTORS
330
33
102
}
330
33
100
AcDbMaterial
  1
ByLayer
 72
     0
 43
0.0208333333333333
 43
0.0
 43
0.0
 43
0.0
 43
0.0
 43
0.0208333333333333
 43
0.0
 43
0.0
 43
0.0
 43
0.0
 43
1.0
 43
0.0
 43
0.0
 43
0.0
 43
0.0
 43
1.0
 77
     0
 47
0.0208333333333333
 47
0.0
 47
0.0
 47
0.0
 47
0.0
 47
0.0208333333333333
 47
0.0
 47
0.0
 47
0.0
 47
0.0
 47
1.0
 47
0.0
 47
0.0
 47
0.0
 47
0.0
 47
1.0
171
     0
 49
0.0208333333333333
 49
0.0
 49
0.0
 49
0.0
 49
0.0
 49
0.0208333333333333
 49
0.0
 49
0.0
 49
0.0
 49
0.0
 49
1.0
 49
0.0
 49
0.0
 49
0.0
 49
0.0
 49
1.0
175
     0
142
0.0208333333333333
142
0.0
142
0.0
142
0.0
142
0.0
142
0.0208333333333333
142
0.0
142
0.0
142
0.0
142
0.0
142
1.0
142
0.0
142
0.0
142
0.0
142
0.0
142
1.0
179
     0
144
0.0208333333333333
144
0.0
144
0.0
144
0.0
144
0.0
144
0.0208333333333333
144
0.0
144
0.0
144
0.0
144
0.0
144
1.0
144
0.0
144
0.0
144
0.0
144
0.0
144
1.0
147
0.0208333333333333
147
0.0
147
0.0
147
0.0
147
0.0
147
0.0208333333333333
147
0.0
147
0.0
147
0.0
147
0.0
147
1.0
147
0.0
147
0.0
147
0.0
147
0.0
147
1.0
  0
MATERIAL
  5
44
102
{ACAD_XDICTIONARY
360
45
102
}
102
{ACAD_REACTORS
330
33
102
}
330
33
100
AcDbMaterial
  1
Global
 72
     0
 43
0.0208333333333333
 43
0.0
 43
0.0
 43
0.0
 43
0.0
 43
0.0208333333333333
 43
0.0
 43
0.0
 43
0.0
 43
0.0
 43
1.0
 43
0.0
 43
0.0
 43
0.0
 43
0.0
 43
1.0
 77
     0
 47
0.0208333333333333
 47
0.0
 47
0.0
 47
0.0
 47
0.0
 47
0.0208333333333333
 47
0.0
 47
0.0
 47
0.0
 47
0.0
 47
1.0
 47
0.0
 47
0.0
 47
0.0
 47
0.0
 47
1.0
171
     0
 49
0.0208333333333333
 49
0.0
 49
0.0
 49
0.0
 49
0.0
 49
0.0208333333333333
 49
0.0
 49
0.0
 49
0.0
 49
0.0
 49
1.0
 49
0.0
 49
0.0
 49
0.0
 49
0.0
 49
1.0
175
     0
142
0.0208333333333333
142
0.0
142
0.0
142
0.0
142
0.0
142
0.0208333333333333
142
0.0
142
0.0
142
0.0
142
0.0
142
1.0
142
0.0
142
0.0
142
0.0
142
0.0
142
1.0
179
     0
144
0.0208333333333333
144
0.0
144
0.0
144
0.0
144
0.0
144
0.0208333333333333
144
0.0
144
0.0
144
0.0
144
0.0
144
1.0
144
0.0
144
0.0
144
0.0
144
0.0
144
1.0
147
0.0208333333333333
147
0.0
147
0.0
147
0.0
147
0.0
147
0.0208333333333333
147
0.0
147
0.0
147
0.0
147
0.0
147
1.0
147
0.0
147
0.0
147
0.0
147
0.0
147
1.0
  0
MLEADERSTYLE
  5
83
102
{ACAD_REACTORS
330
82
102
}
330
82
100
AcDbMLeaderStyle
170
     2
171
     1
172
     0
 90
        2
 40
0.0
 41
0.0
173
     1
 91
-1056964608
340
14
 92
       -2
290
     1
 42
0.09
291
     1
 43
0.36
  3
Standard
 44
0.18
300

342
11
174
     1
178
     6
175
     1
176
     0
 93
-1056964608
 45
0.18
292
     0
297
     0
 46
0.18
 94
-1056964608
 47
1.0
 49
1.0
140
1.0
293
     1
141
0.0
294
     1
177
     0
142
1.0
295
     0
296
     0
143
0.125
1001
ACAD_MLEADERVER
1070
     2
  0
MLINESTYLE
  5
18
102
{ACAD_REACTORS
330
17
102
}
330
17
100
AcDbMlineStyle
  2
STANDARD
 70
     0
  3

 62
   256
 51
90.0
 52
90.0
 71
     2
 49
0.5
 62
   256
  6
BYLAYER
 49
-0.5
 62
   256
  6
BYLAYER
  0
ACDBPLACEHOLDER
  5
F
102
{ACAD_REACTORS
330
E
102
}
330
E
  0
SCALE
  5
61
102
{ACAD_REACTORS
330
60
102
}
330
60
100
AcDbScale
 70
     0
300
1:1
140
1.0
141
1.0
290
     1
  0
SCALE
  5
62
102
{ACAD_REACTORS
330
60
102
}
330
60
100
AcDbScale
 70
     0
300
1:2
140
1.0
141
2.0
290
     0
  0
SCALE
  5
63
102
{ACAD_REACTORS
330
60
102
}
330
60
100
AcDbScale
 70
     0
300
1:4
140
1.0
141
4.0
290
     0
  0
SCALE
  5
64
102
{ACAD_REACTORS
330
60
102
}
330
60
100
AcDbScale
 70
     0
300
1:5
140
1.0
141
5.0
290
     0
  0
SCALE
  5
65
102
{ACAD_REACTORS
330
60
102
}
330
60
100
AcDbScale
 70
     0
300
1:8
140
1.0
141
8.0
290
     0
  0
SCALE
  5
66
102
{ACAD_REACTORS
330
60
102
}
330
60
100
AcDbScale
 70
     0
300
1:10
140
1.0
141
10.0
290
     0
  0
SCALE
  5
67
102
{ACAD_REACTORS
330
60
102
}
330
60
100
AcDbScale
 70
     0
300
1:16
140
1.0
141
16.0
290
     0
  0
SCALE
  5
68
102
{ACAD_REACTORS
330
60
102
}
330
60
100
AcDbScale
 70
     0
300
1:20
140
1.0
141
20.0
290
     0
  0
SCALE
  5
69
102
{ACAD_REACTORS
330
60
102
}
330
60
100
AcDbScale
 70
     0
300
1:30
140
1.0
141
30.0
290
     0
  0
SCALE
  5
6A
102
{ACAD_REACTORS
330
60
102
}
330
60
100
AcDbScale
 70
     0
300
1:40
140
1.0
141
40.0
290
     0
  0
SCALE
  5
6B
102
{ACAD_REACTORS
330
60
102
}
330
60
100
AcDbScale
 70
     0
300
1:50
140
1.0
141
50.0
290
     0
  0
SCALE
  5
6C
102
{ACAD_REACTORS
330
60
102
}
330
60
100
AcDbScale
 70
     0
300
1:100
140
1.0
141
100.0
290
     0
  0
SCALE
  5
6D
102
{ACAD_REACTORS
330
60
102
}
330
60
100
AcDbScale
 70
     0
300
2:1
140
2.0
141
1.0
290
     0
  0
SCALE
  5
6E
102
{ACAD_REACTORS
330
60
102
}
330
60
100
AcDbScale
 70
     0
300
4:1
140
4.0
141
1.0
290
     0
  0
SCALE
  5
6F
102
{ACAD_REACTORS
330
60
102
}
330
60
100
AcDbScale
 70
     0
300
8:1
140
8.0
141
1.0
290
     0
  0
SCALE
  5
70
102
{ACAD_REACTORS
330
60
102
}
330
60
100
AcDbScale
 70
     0
300
10:1
140
10.0
141
1.0
290
     0
  0
SCALE
  5
71
102
{ACAD_REACTORS
330
60
102
}
330
60
100
AcDbScale
 70
     0
300
100:1
140
100.0
141
1.0
290
     0
  0
SCALE
  5
72
102
{ACAD_REACTORS
330
60
102
}
330
60
100
AcDbScale
 70
     0
300
1/128" = 1'-0"
140
0.0078125
141
12.0
290
     0
  0
SCALE
  5
73
102
{ACAD_REACTORS
330
60
102
}
330
60
100
AcDbScale
 70
     0
300
1/64" = 1'-0"
140
0.015625
141
12.0
290
     0
  0
SCALE
  5
74
102
{ACAD_REACTORS
330
60
102
}
330
60
100
AcDbScale
 70
     0
300
1/32" = 1'-0"
140
0.03125
141
12.0
290
     0
  0
SCALE
  5
75
102
{ACAD_REACTORS
330
60
102
}
330
60
100
AcDbScale
 70
     0
300
1/16" = 1'-0"
140
0.0625
141
12.0
290
     0
  0
SCALE
  5
76
102
{ACAD_REACTORS
330
60
102
}
330
60
100
AcDbScale
 70
     0
300
3/32" = 1'-0"
140
0.09375
141
12.0
290
     0
  0
SCALE
  5
77
102
{ACAD_REACTORS
330
60
102
}
330
60
100
AcDbScale
 70
     0
300
1/8" = 1'-0"
140
0.125
141
12.0
290
     0
  0
SCALE
  5
78
102
{ACAD_REACTORS
330
60
102
}
330
60
100
AcDbScale
 70
     0
300
3/16" = 1'-0"
140
0.1875
141
12.0
290
     0
  0
SCALE
  5
79
102
{ACAD_REACTORS
330
60
102
}
330
60
100
AcDbScale
 70
     0
300
1/4" = 1'-0"
140
0.25
141
12.0
290
     0
  0
SCALE
  5
7A
102
{ACAD_REACTORS
330
60
102
}
330
60
100
AcDbScale
 70
     0
300
3/8" = 1'-0"
140
0.375
141
12.0
290
     0
  0
SCALE
  5
7B
102
{ACAD_REACTORS
330
60
102
}
330
60
100
AcDbScale
 70
     0
300
1/2" = 1'-0"
140
0.5
141
12.0
290
     0
  0
SCALE
  5
7C
102
{ACAD_REACTORS
330
60
102
}
330
60
100
AcDbScale
 70
     0
300
3/4" = 1'-0"
140
0.75
141
12.0
290
     0
  0
SCALE
  5
7D
102
{ACAD_REACTORS
330
60
102
}
330
60
100
AcDbScale
 70
     0
300
1" = 1'-0"
140
1.0
141
12.0
290
     0
  0
SCALE
  5
7E
102
{ACAD_REACTORS
330
60
102
}
330
60
100
AcDbScale
 70
     0
300
1-1/2" = 1'-0"
140
1.5
141
12.0
290
     0
  0
SCALE
  5
7F
102
{ACAD_REACTORS
330
60
102
}
330
60
100
AcDbScale
 70
     0
300
3" = 1'-0"
140
3.0
141
12.0
290
     0
  0
SCALE
  5
80
102
{ACAD_REACTORS
330
60
102
}
330
60
100
AcDbScale
 70
     0
300
6" = 1'-0"
140
6.0
141
12.0
290
     0
  0
SCALE
  5
81
102
{ACAD_REACTORS
330
60
102
}
330
60
100
AcDbScale
 70
     0
300
1'-0" = 1'-0"
140
12.0
141
12.0
290
     0
  0
TABLESTYLE
  5
5F
102
{ACAD_XDICTIONARY
360
87
102
}
102
{ACAD_REACTORS
330
5E
102
}
330
5E
100
AcDbTableStyle
  3
Standard
 70
     0
 71
     0
 40
0.06
 41
0.06
280
     0
281
     0
  7
Standard
140
0.18
170
     2
 62
     0
 63
     7
283
     0
274
    -2
284
     1
 64
     0
275
    -2
285
     1
 65
     0
276
    -2
286
     1
 66
     0
277
    -2
287
     1
 67
     0
278
    -2
288
     1
 68
     0
279
    -2
289
     1
 69
     0
  7
Standard
140
0.25
170
     5
 62
     0
 63
     7
283
     0
274
    -2
284
     1
 64
     0
275
    -2
285
     1
 65
     0
276
    -2
286
     1
 66
     0
277
    -2
287
     1
 67
     0
278
    -2
288
     1
 68
     0
279
    -2
289
     1
 69
     0
  7
Standard
140
0.18
170
     5
 62
     0
 63
     7
283
     0
274
    -2
284
     1
 64
     0
275
    -2
285
     1
 65
     0
276
    -2
286
     1
 66
     0
277
    -2
287
     1
 67
     0
278
    -2
288
     1
 68
     0
279
    -2
289
     1
 69
     0
  0
VISUALSTYLE
  5
52
102
{ACAD_XDICTIONARY
360
CE80
102
}
102
{ACAD_REACTORS
330
4C
102
}
330
4C
100
AcDbVisualStyle
  2
2dWireframe
 70
     4
 71
     0
 72
     2
 73
     0
 90
        0
 40
-0.6
 41
-30.0
 62
     5
 63
     7
 74
     1
 91
        4
 64
     7
 65
   257
 75
     1
175
     1
 42
1.0
 92
        0
 66
   257
 43
1.0
 76
     1
 77
     6
 78
     2
 67
     7
 79
     5
170
     0
171
     0
290
     0
174
     0
 93
        1
 44
0.0
173
     0
291
     0
 45
0.0
1001
ACAD
1000
AcDbSavedByObjectVersion
1070
     0
  0
VISUALSTYLE
  5
54
102
{ACAD_XDICTIONARY
360
CE84
102
}
102
{ACAD_REACTORS
330
4C
102
}
330
4C
100
AcDbVisualStyle
  2
3D Hidden
 70
     6
 71
     1
 72
     2
 73
     2
 90
        0
 40
-0.6
 41
-30.0
 62
     5
 63
     7
 74
     2
 91
        2
 64
     7
 65
   257
 75
     2
175
     1
 42
40.0
 92
        0
 66
   257
 43
1.0
 76
     1
 77
     6
 78
     2
 67
     7
 79
     3
170
     0
171
     0
290
     0
174
     0
 93
        1
 44
0.0
173
     0
291
     0
 45
0.0
1001
ACAD
1000
AcDbSavedByObjectVersion
1070
     0
  0
VISUALSTYLE
  5
53
102
{ACAD_XDICTIONARY
360
CE82
102
}
102
{ACAD_REACTORS
330
4C
102
}
330
4C
100
AcDbVisualStyle
  2
3dWireframe
 70
     5
 71
     0
 72
     2
 73
     0
 90
        0
 40
-0.6
 41
-30.0
 62
     5
 63
     7
 74
     1
 91
        4
 64
     7
 65
   257
 75
     1
175
     1
 42
1.0
 92
        0
 66
   257
 43
1.0
 76
     1
 77
     6
 78
     2
 67
     7
 79
     5
170
     0
171
     0
290
     0
174
     0
 93
        1
 44
0.0
173
     0
291
     0
 45
0.0
1001
ACAD
1000
AcDbSavedByObjectVersion
1070
     0
  0
VISUALSTYLE
  5
51
102
{ACAD_XDICTIONARY
360
CE7E
102
}
102
{ACAD_REACTORS
330
4C
102
}
330
4C
100
AcDbVisualStyle
  2
Basic
 70
     7
 71
     1
 72
     0
 73
     1
 90
        0
 40
-0.6
 41
-30.0
 62
     5
 63
     7
 74
     0
 91
        4
 64
     7
 65
   257
 75
     1
175
     1
 42
1.0
 92
        8
 66
     7
 43
1.0
 76
     1
 77
     6
 78
     2
 67
     7
 79
     5
170
     0
171
     0
290
     0
174
     0
 93
        1
 44
0.0
173
     0
291
     1
 45
0.0
1001
ACAD
1000
AcDbSavedByObjectVersion
1070
     0
  0
VISUALSTYLE
  5
58
102
{ACAD_XDICTIONARY
360
CE8C
102
}
102
{ACAD_REACTORS
330
4C
102
}
330
4C
100
AcDbVisualStyle
  2
Brighten
 70
    12
 71
     2
 72
     2
 73
     0
 90
        0
 40
-0.6
 41
-30.0
 62
     5
 63
     7
 74
     1
 91
        4
 64
     7
 65
   257
 75
     1
175
     1
 42
1.0
 92
        8
 66
     7
 43
1.0
 76
     1
 77
     6
 78
     2
 67
     7
 79
     5
170
     0
171
     0
290
     0
174
     0
 93
        1
 44
50.0
173
     0
291
     1
 45
0.0
1001
ACAD
1000
AcDbSavedByObjectVersion
1070
     0
  0
VISUALSTYLE
  5
5C
102
{ACAD_XDICTIONARY
360
CE94
102
}
102
{ACAD_REACTORS
330
4C
102
}
330
4C
100
AcDbVisualStyle
  2
ColorChange
 70
    16
 71
     2
 72
     2
 73
     3
 90
        0
 40
-0.6
 41
-30.0
 62
     5
 63
     8
 74
     1
 91
        4
 64
     7
 65
   257
 75
     1
175
     1
 42
1.0
 92
        8
 66
     8
 43
1.0
 76
     1
 77
     6
 78
     2
 67
     7
 79
     5
170
     0
171
     0
290
     0
174
     0
 93
        1
 44
0.0
173
     0
291
     1
 45
0.0
1001
ACAD
1000
AcDbSavedByObjectVersion
1070
     0
  0
VISUALSTYLE
  5
55
102
{ACAD_XDICTIONARY
360
CE86
102
}
102
{ACAD_REACTORS
330
4C
102
}
330
4C
100
AcDbVisualStyle
  2
Conceptual
 70
     9
 71
     3
 72
     2
 73
     0
 90
        0
 40
-0.6
 41
-30.0
 62
     5
 63
     7
 74
     2
 91
        2
 64
     7
 65
   257
 75
     1
175
     1
 42
40.0
 92
        8
 66
     7
 43
1.0
 76
     1
 77
     6
 78
     2
 67
     7
 79
     3
170
     0
171
     0
290
     0
174
     0
 93
        1
 44
0.0
173
     0
291
     0
 45
0.0
1001
ACAD
1000
AcDbSavedByObjectVersion
1070
     0
  0
VISUALSTYLE
  5
57
102
{ACAD_XDICTIONARY
360
CE8A
102
}
102
{ACAD_REACTORS
330
4C
102
}
330
4C
100
AcDbVisualStyle
  2
Dim
 70
    11
 71
     2
 72
     2
 73
     0
 90
        0
 40
-0.6
 41
-30.0
 62
     5
 63
     7
 74
     1
 91
        4
 64
     7
 65
   257
 75
     1
175
     1
 42
1.0
 92
        8
 66
     7
 43
1.0
 76
     1
 77
     6
 78
     2
 67
     7
 79
     5
170
     0
171
     0
290
     0
174
     0
 93
        1
 44
-50.0
173
     0
291
     1
 45
0.0
1001
ACAD
1000
AcDbSavedByObjectVersion
1070
     0
  0
VISUALSTYLE
  5
2848
102
{ACAD_XDICTIONARY
360
CEA9
102
}
102
{ACAD_REACTORS
330
4C
102
}
330
4C
100
AcDbVisualStyle
  2
EdgeColorOff
 70
    22
 71
     2
 72
     2
 73
     0
 90
        0
 40
-0.6
 41
-30.0
 62
     5
 63
     7
 74
     1
 91
        4
 64
     7
 65
   257
 75
     1
175
     1
 42
1.0
 92
        8
 66
     7
 43
1.0
 76
     1
 77
     6
 78
     2
 67
     7
 79
     5
170
     0
171
     0
290
     0
174
     0
 93
        1
 44
0.0
173
     0
291
     1
 45
0.0
1001
ACAD
1000
AcDbSavedByObjectVersion
1070
     0
  0
VISUALSTYLE
  5
5B
102
{ACAD_XDICTIONARY
360
CE92
102
}
102
{ACAD_REACTORS
330
4C
102
}
330
4C
100
AcDbVisualStyle
  2
Facepattern
 70
    15
 71
     2
 72
     2
 73
     0
 90
        0
 40
-0.6
 41
-30.0
 62
     5
 63
     7
 74
     1
 91
        4
 64
     7
 65
   257
 75
     1
175
     1
 42
1.0
 92
        8
 66
     7
 43
1.0
 76
     1
 77
     6
 78
     2
 67
     7
 79
     5
170
     0
171
     0
290
     0
174
     0
 93
        1
 44
0.0
173
     0
291
     1
 45
0.0
1001
ACAD
1000
AcDbSavedByObjectVersion
1070
     0
  0
VISUALSTYLE
  5
4D
102
{ACAD_XDICTIONARY
360
CE76
102
}
102
{ACAD_REACTORS
330
4C
102
}
330
4C
100
AcDbVisualStyle
  2
Flat
 70
     0
 71
     2
 72
     1
 73
     1
 90
        2
 40
-0.6
 41
30.0
 62
     5
 63
     7
 74
     0
 91
        4
 64
     7
 65
   257
 75
     1
175
     1
 42
1.0
 92
        8
 66
     7
 43
1.0
 76
     1
 77
     6
 78
     2
 67
     7
 79
     5
170
     0
171
     0
290
     0
174
     0
 93
       13
 44
0.0
173
     0
291
     1
 45
0.0
1001
ACAD
1000
AcDbSavedByObjectVersion
1070
     0
  0
VISUALSTYLE
  5
4E
102
{ACAD_XDICTIONARY
360
CE78
102
}
102
{ACAD_REACTORS
330
4C
102
}
330
4C
100
AcDbVisualStyle
  2
FlatWithEdges
 70
     1
 71
     2
 72
     1
 73
     1
 90
        2
 40
-0.6
 41
30.0
 62
     5
 63
     7
 74
     1
 91
        4
 64
     7
 65
   257
 75
     1
175
     1
 42
1.0
 92
        0
 66
   257
 43
1.0
 76
     1
 77
     6
 78
     2
 67
     7
 79
     5
170
     0
171
     0
290
     0
174
     0
 93
       13
 44
0.0
173
     0
291
     1
 45
0.0
1001
ACAD
1000
AcDbSavedByObjectVersion
1070
     0
  0
VISUALSTYLE
  5
4F
102
{ACAD_XDICTIONARY
360
CE7A
102
}
102
{ACAD_REACTORS
330
4C
102
}
330
4C
100
AcDbVisualStyle
  2
Gouraud
 70
     2
 71
     2
 72
     2
 73
     1
 90
        2
 40
-0.6
 41
30.0
 62
     5
 63
     7
 74
     0
 91
        4
 64
     7
 65
   257
 75
     1
175
     1
 42
1.0
 92
        0
 66
     7
 43
1.0
 76
     1
 77
     6
 78
     2
 67
     7
 79
     5
170
     0
171
     0
290
     0
174
     0
 93
       13
 44
0.0
173
     0
291
     1
 45
0.0
1001
ACAD
1000
AcDbSavedByObjectVersion
1070
     0
  0
VISUALSTYLE
  5
50
102
{ACAD_XDICTIONARY
360
CE7C
102
}
102
{ACAD_REACTORS
330
4C
102
}
330
4C
100
AcDbVisualStyle
  2
GouraudWithEdges
 70
     3
 71
     2
 72
     2
 73
     1
 90
        2
 40
-0.6
 41
30.0
 62
     5
 63
     7
 74
     1
 91
        4
 64
     7
 65
   257
 75
     1
175
     1
 42
1.0
 92
        0
 66
   257
 43
1.0
 76
     1
 77
     6
 78
     2
 67
     7
 79
     5
170
     0
171
     0
290
     0
174
     0
 93
       13
 44
0.0
173
     0
291
     1
 45
0.0
1001
ACAD
1000
AcDbSavedByObjectVersion
1070
     0
  0
VISUALSTYLE
  5
2840
102
{ACAD_XDICTIONARY
360
CE99
102
}
102
{ACAD_REACTORS
330
4C
102
}
330
4C
100
AcDbVisualStyle
  2
Hidden
 70
     6
 71
     1
 72
     2
 73
     2
 90
        0
 40
-0.6
 41
-30.0
 62
     5
 63
     7
 74
     2
 91
        2
 64
     7
 65
   257
 75
     2
175
     1
 42
40.0
 92
        0
 66
   257
 43
1.0
 76
     1
 77
     6
 78
     2
 67
     7
 79
     3
170
     0
171
     0
290
     0
174
     0
 93
        1
 44
0.0
173
     0
291
     0
 45
0.0
1001
ACAD
1000
AcDbSavedByObjectVersion
1070
     0
  0
VISUALSTYLE
  5
2846
102
{ACAD_XDICTIONARY
360
CEA5
102
}
102
{ACAD_REACTORS
330
4C
102
}
330
4C
100
AcDbVisualStyle
  2
JitterOff
 70
    20
 71
     2
 72
     2
 73
     0
 90
        0
 40
-0.6
 41
-30.0
 62
     5
 63
     7
 74
     1
 91
        4
 64
     7
 65
   257
 75
     1
175
     1
 42
1.0
 92
       10
 66
     7
 43
1.0
 76
     1
 77
     6
 78
     2
 67
     7
 79
     5
170
     0
171
     0
290
     0
174
     0
 93
        1
 44
0.0
173
     0
291
     1
 45
0.0
1001
ACAD
1000
AcDbSavedByObjectVersion
1070
     0
  0
VISUALSTYLE
  5
5A
102
{ACAD_XDICTIONARY
360
CE90
102
}
102
{ACAD_REACTORS
330
4C
102
}
330
4C
100
AcDbVisualStyle
  2
Linepattern
 70
    14
 71
     2
 72
     2
 73
     0
 90
        0
 40
-0.6
 41
-30.0
 62
     5
 63
     7
 74
     1
 91
        4
 64
     7
 65
   257
 75
     7
175
     7
 42
1.0
 92
        8
 66
     7
 43
1.0
 76
     1
 77
     6
 78
     2
 67
     7
 79
     5
170
     0
171
     0
290
     0
174
     0
 93
        1
 44
0.0
173
     0
291
     1
 45
0.0
1001
ACAD
1000
AcDbSavedByObjectVersion
1070
     0
  0
VISUALSTYLE
  5
2847
102
{ACAD_XDICTIONARY
360
CEA7
102
}
102
{ACAD_REACTORS
330
4C
102
}
330
4C
100
AcDbVisualStyle
  2
OverhangOff
 70
    21
 71
     2
 72
     2
 73
     0
 90
        0
 40
-0.6
 41
-30.0
 62
     5
 63
     7
 74
     1
 91
        4
 64
     7
 65
   257
 75
     1
175
     1
 42
1.0
 92
        9
 66
     7
 43
1.0
 76
     1
 77
     6
 78
     2
 67
     7
 79
     5
170
     0
171
     0
290
     0
174
     0
 93
        1
 44
0.0
173
     0
291
     1
 45
0.0
1001
ACAD
1000
AcDbSavedByObjectVersion
1070
     0
  0
VISUALSTYLE
  5
56
102
{ACAD_XDICTIONARY
360
CE88
102
}
102
{ACAD_REACTORS
330
4C
102
}
330
4C
100
AcDbVisualStyle
  2
Realistic
 70
     8
 71
     2
 72
     2
 73
     0
 90
        0
 40
-0.6
 41
-30.0
 62
     5
 63
     7
 74
     1
 91
        0
 64
     7
 65
   257
 75
     1
175
     1
 42
1.0
 92
        8
 66
     8
 43
1.0
 76
     1
 77
     6
 78
     2
 67
     7
 79
     5
170
     0
171
     0
290
     0
174
     0
 93
       13
 44
0.0
173
     0
291
     0
 45
0.0
1001
ACAD
1000
AcDbSavedByObjectVersion
1070
     0
  0
VISUALSTYLE
  5
2845
102
{ACAD_XDICTIONARY
360
CEA3
102
}
102
{ACAD_REACTORS
330
4C
102
}
330
4C
100
AcDbVisualStyle
  2
Shaded
 70
    27
 71
     2
 72
     2
 73
     1
 90
        2
 40
-0.6
 41
30.0
 62
     5
 63
     7
 74
     0
 91
        4
 64
     7
 65
   257
 75
     1
175
     1
 42
1.0
 92
        8
 66
   257
 43
1.0
 76
     1
 77
     6
 78
     2
 67
     8
 79
     3
170
     0
171
     0
290
     0
174
     0
 93
        5
 44
0.0
173
     0
291
     0
 45
0.0
1001
ACAD
1000
AcDbSavedByObjectVersion
1070
     0
  0
VISUALSTYLE
  5
2844
102
{ACAD_XDICTIONARY
360
CEA1
102
}
102
{ACAD_REACTORS
330
4C
102
}
330
4C
100
AcDbVisualStyle
  2
Shaded with edges
 70
    26
 71
     2
 72
     2
 73
     1
 90
        2
 40
-0.6
 41
30.0
 62
     5
 63
     7
 74
     1
 91
       10
 64
     7
 65
   257
 75
     2
175
     1
 42
1.0
 92
        8
 66
   257
 43
1.0
 76
     1
 77
     6
 78
     2
 67
     7
 79
     3
170
     0
171
     0
290
     0
174
     0
 93
        5
 44
0.0
173
     0
291
     0
 45
0.0
1001
ACAD
1000
AcDbSavedByObjectVersion
1070
     0
  0
VISUALSTYLE
  5
2841
102
{ACAD_XDICTIONARY
360
CE9B
102
}
102
{ACAD_REACTORS
330
4C
102
}
330
4C
100
AcDbVisualStyle
  2
Shades of Gray
 70
    23
 71
     2
 72
     2
 73
     3
 90
        0
 40
-0.6
 41
-30.0
 62
     5
 63
     7
 74
     2
 91
        2
 64
     7
 65
     7
 75
     1
175
     1
 42
40.0
 92
        8
 66
     7
 43
1.0
 76
     1
 77
     6
 78
     2
 67
     7
 79
     3
170
     0
171
     0
290
     0
174
     0
 93
        1
 44
0.0
173
     0
291
     0
 45
0.0
1001
ACAD
1000
AcDbSavedByObjectVersion
1070
     0
  0
VISUALSTYLE
  5
2842
102
{ACAD_XDICTIONARY
360
CE9D
102
}
102
{ACAD_REACTORS
330
4C
102
}
330
4C
100
AcDbVisualStyle
  2
Sketchy
 70
    24
 71
     1
 72
     2
 73
     2
 90
        0
 40
-0.6
 41
-30.0
 62
     5
 63
     7
 74
     2
 91
        2
 64
     7
 65
     7
 75
     1
175
     1
 42
40.0
 92
       11
 66
     7
 43
1.0
 76
     1
 77
     6
 78
     2
 67
     7
 79
     6
170
     0
171
     0
290
     0
174
     0
 93
        1
 44
0.0
173
     0
291
     0
 45
0.0
1001
ACAD
1000
AcDbSavedByObjectVersion
1070
     0
  0
VISUALSTYLE
  5
59
102
{ACAD_XDICTIONARY
360
CE8E
102
}
102
{ACAD_REACTORS
330
4C
102
}
330
4C
100
AcDbVisualStyle
  2
Thicken
 70
    13
 71
     2
 72
     2
 73
     0
 90
        0
 40
-0.6
 41
-30.0
 62
     5
 63
     7
 74
     1
 91
        4
 64
     7
 65
   257
 75
     1
175
     1
 42
1.0
 92
       12
 66
     7
 43
1.0
 76
     1
 77
     6
 78
     2
 67
     7
 79
     5
170
     0
171
     0
290
     0
174
     0
 93
        1
 44
0.0
173
     0
291
     1
 45
0.0
1001
ACAD
1000
AcDbSavedByObjectVersion
1070
     0
  0
VISUALSTYLE
  5
283F
102
{ACAD_XDICTIONARY
360
CE97
102
}
102
{ACAD_REACTORS
330
4C
102
}
330
4C
100
AcDbVisualStyle
  2
Wireframe
 70
     5
 71
     0
 72
     2
 73
     0
 90
        0
 40
-0.6
 41
-30.0
 62
     5
 63
     7
 74
     1
 91
        4
 64
     7
 65
   257
 75
     1
175
     1
 42
1.0
 92
        0
 66
   257
 43
1.0
 76
     1
 77
     6
 78
     2
 67
     7
 79
     3
170
     0
171
     0
290
     0
174
     0
 93
        1
 44
0.0
173
     0
291
     0
 45
0.0
1001
ACAD
1000
AcDbSavedByObjectVersion
1070
     0
  0
VISUALSTYLE
  5
2843
102
{ACAD_XDICTIONARY
360
CE9F
102
}
102
{ACAD_REACTORS
330
4C
102
}
330
4C
100
AcDbVisualStyle
  2
X-Ray
 70
    25
 71
     2
 72
     2
 73
     1
 90
        1
 40
0.5
 41
-30.0
 62
     5
 63
     7
 74
     1
 91
        0
 64
     7
 65
   257
 75
     1
175
     1
 42
1.0
 92
        8
 66
     7
 43
1.0
 76
     1
 77
     6
 78
     2
 67
     7
 79
     3
170
     0
171
     0
290
     0
174
     0
 93
       13
 44
0.0
173
     0
291
     0
 45
0.0
1001
ACAD
1000
AcDbSavedByObjectVersion
1070
     0
  0
XRECORD
  5
226E
102
{ACAD_REACTORS
330
226D
102
}
330
226D
100
AcDbXrecord
280
     1
  1
WIRES
  1
WIRES
  1

290
     0
  0
DICTIONARYVAR
  5
8E
102
{ACAD_REACTORS
330
8A
102
}
330
8A
100
DictionaryVariables
280
     0
  1
1:1
  0
DICTIONARYVAR
  5
8C
102
{ACAD_REACTORS
330
8A
102
}
330
8A
100
DictionaryVariables
280
     0
  1
STANDARD
  0
DICTIONARYVAR
  5
8B
102
{ACAD_REACTORS
330
8A
102
}
330
8A
100
DictionaryVariables
280
     0
  1
STANDARD
  0
DICTIONARYVAR
  5
18F
102
{ACAD_REACTORS
330
8A
102
}
330
8A
100
DictionaryVariables
280
     0
  1
1
  0
DICTIONARYVAR
  5
18E
102
{ACAD_REACTORS
330
8A
102
}
330
8A
100
DictionaryVariables
280
     0
  1
0
  0
DICTIONARYVAR
  5
217D
102
{ACAD_REACTORS
330
8A
102
}
330
8A
100
DictionaryVariables
280
     0
  1
1
  0
DICTIONARYVAR
  5
217E
102
{ACAD_REACTORS
330
8A
102
}
330
8A
100
DictionaryVariables
280
     0
  1
15
  0
DICTIONARYVAR
  5
8F
102
{ACAD_REACTORS
330
8A
102
}
330
8A
100
DictionaryVariables
280
     0
  1
0
  0
DICTIONARYVAR
  5
8D
102
{ACAD_REACTORS
330
8A
102
}
330
8A
100
DictionaryVariables
280
     0
  1
0
  0
DICTIONARYVAR
  5
18D
102
{ACAD_REACTORS
330
8A
102
}
330
8A
100
DictionaryVariables
280
     0
  1
127
  0
DICTIONARYVAR
  5
CEAB
102
{ACAD_REACTORS
330
8A
102
}
330
8A
100
DictionaryVariables
280
     0
  1
0
  0
XRECORD
  5
2835
102
{ACAD_REACTORS
330
2834
102
}
330
2834
100
AcDbXrecord
280
     1
330
0
330
0
330
0
330
0
330
0
330
0
  0
XRECORD
  5
C51E
102
{ACAD_REACTORS
330
C0C0
102
}
330
C0C0
100
AcDbXrecord
280
     1
 40
0.000001
  0
XRECORD
  5
C521
102
{ACAD_REACTORS
330
C0C0
102
}
330
C0C0
100
AcDbXrecord
280
     1
 70
     0
  0
XRECORD
  5
C520
102
{ACAD_REACTORS
330
C0C0
102
}
330
C0C0
100
AcDbXrecord
280
     1
 70
     0
  0
XRECORD
  5
C51F
102
{ACAD_REACTORS
330
C0C0
102
}
330
C0C0
100
AcDbXrecord
280
     1
 70
     0
  0
DICTIONARY
  5
CEB1
330
1E
100
AcDbDictionary
280
     1
281
     1
  3
ACAD_XREC_ROUNDTRIP
360
CEB2
  0
DICTIONARY
  5
CEB5
330
26
100
AcDbDictionary
280
     1
281
     1
  3
ACAD_XREC_ROUNDTRIP
360
CEB6
  0
DICTIONARY
  5
CEB3
330
22
100
AcDbDictionary
280
     1
281
     1
  3
ACAD_XREC_ROUNDTRIP
360
CEB4
  0
DICTIONARY
  5
3D
330
3C
100
AcDbDictionary
280
     1
281
     1
  3
ACAD_XREC_ROUNDTRIP
360
CEB8
  3
BUMPTILE
360
3F
  3
DIFFUSETILE
360
3E
  3
OPACITYTILE
360
42
  3
REFLECTIONTILE
360
41
  3
REFRACTIONTILE
360
43
  3
SPECULARTILE
360
40
  0
DICTIONARY
  5
35
330
34
100
AcDbDictionary
280
     1
281
     1
  3
ACAD_XREC_ROUNDTRIP
360
CEB7
  3
BUMPTILE
360
37
  3
DIFFUSETILE
360
36
  3
OPACITYTILE
360
3A
  3
REFLECTIONTILE
360
39
  3
REFRACTIONTILE
360
3B
  3
SPECULARTILE
360
38
  0
DICTIONARY
  5
45
330
44
100
AcDbDictionary
280
     1
281
     1
  3
ACAD_XREC_ROUNDTRIP
360
CEB9
  3
BUMPTILE
360
47
  3
DIFFUSETILE
360
46
  3
OPACITYTILE
360
4A
  3
REFLECTIONTILE
360
49
  3
REFRACTIONTILE
360
4B
  3
SPECULARTILE
360
48
  0
DICTIONARY
  5
87
330
5F
100
AcDbDictionary
280
     1
281
     1
  3
ACAD_ROUNDTRIP_2008_TABLESTYLE_CELLSTYLEMAP
360
CEAF
  3
ACAD_XREC_ROUNDTRIP
360
CEBA
  0
DICTIONARY
  5
CE80
330
52
100
AcDbDictionary
280
     1
281
     1
  3
ACAD_XREC_ROUNDTRIP
360
CE81
  0
DICTIONARY
  5
CE84
330
54
100
AcDbDictionary
280
     1
281
     1
  3
ACAD_XREC_ROUNDTRIP
360
CE85
  0
DICTIONARY
  5
CE82
330
53
100
AcDbDictionary
280
     1
281
     1
  3
ACAD_XREC_ROUNDTRIP
360
CE83
  0
DICTIONARY
  5
CE7E
330
51
100
AcDbDictionary
280
     1
281
     1
  3
ACAD_XREC_ROUNDTRIP
360
CE7F
  0
DICTIONARY
  5
CE8C
330
58
100
AcDbDictionary
280
     1
281
     1
  3
ACAD_XREC_ROUNDTRIP
360
CE8D
  0
DICTIONARY
  5
CE94
330
5C
100
AcDbDictionary
280
     1
281
     1
  3
ACAD_XREC_ROUNDTRIP
360
CE95
  0
DICTIONARY
  5
CE86
330
55
100
AcDbDictionary
280
     1
281
     1
  3
ACAD_XREC_ROUNDTRIP
360
CE87
  0
DICTIONARY
  5
CE8A
330
57
100
AcDbDictionary
280
     1
281
     1
  3
ACAD_XREC_ROUNDTRIP
360
CE8B
  0
DICTIONARY
  5
CEA9
330
2848
100
AcDbDictionary
280
     1
281
     1
  3
ACAD_XREC_ROUNDTRIP
360
CEAA
  0
DICTIONARY
  5
CE92
330
5B
100
AcDbDictionary
280
     1
281
     1
  3
ACAD_XREC_ROUNDTRIP
360
CE93
  0
DICTIONARY
  5
CE76
330
4D
100
AcDbDictionary
280
     1
281
     1
  3
ACAD_XREC_ROUNDTRIP
360
CE77
  0
DICTIONARY
  5
CE78
330
4E
100
AcDbDictionary
280
     1
281
     1
  3
ACAD_XREC_ROUNDTRIP
360
CE79
  0
DICTIONARY
  5
CE7A
330
4F
100
AcDbDictionary
280
     1
281
     1
  3
ACAD_XREC_ROUNDTRIP
360
CE7B
  0
DICTIONARY
  5
CE7C
330
50
100
AcDbDictionary
280
     1
281
     1
  3
ACAD_XREC_ROUNDTRIP
360
CE7D
  0
DICTIONARY
  5
CE99
330
2840
100
AcDbDictionary
280
     1
281
     1
  3
ACAD_XREC_ROUNDTRIP
360
CE9A
  0
DICTIONARY
  5
CEA5
330
2846
100
AcDbDictionary
280
     1
281
     1
  3
ACAD_XREC_ROUNDTRIP
360
CEA6
  0
DICTIONARY
  5
CE90
330
5A
100
AcDbDictionary
280
     1
281
     1
  3
ACAD_XREC_ROUNDTRIP
360
CE91
  0
DICTIONARY
  5
CEA7
330
2847
100
AcDbDictionary
280
     1
281
     1
  3
ACAD_XREC_ROUNDTRIP
360
CEA8
  0
DICTIONARY
  5
CE88
330
56
100
AcDbDictionary
280
     1
281
     1
  3
ACAD_XREC_ROUNDTRIP
360
CE89
  0
DICTIONARY
  5
CEA3
330
2845
100
AcDbDictionary
280
     1
281
     1
  3
ACAD_XREC_ROUNDTRIP
360
CEA4
  0
DICTIONARY
  5
CEA1
330
2844
100
AcDbDictionary
280
     1
281
     1
  3
ACAD_XREC_ROUNDTRIP
360
CEA2
  0
DICTIONARY
  5
CE9B
330
2841
100
AcDbDictionary
280
     1
281
     1
  3
ACAD_XREC_ROUNDTRIP
360
CE9C
  0
DICTIONARY
  5
CE9D
330
2842
100
AcDbDictionary
280
     1
281
     1
  3
ACAD_XREC_ROUNDTRIP
360
CE9E
  0
DICTIONARY
  5
CE8E
330
59
100
AcDbDictionary
280
     1
281
     1
  3
ACAD_XREC_ROUNDTRIP
360
CE8F
  0
DICTIONARY
  5
CE97
330
283F
100
AcDbDictionary
280
     1
281
     1
  3
ACAD_XREC_ROUNDTRIP
360
CE98
  0
DICTIONARY
  5
CE9F
330
2843
100
AcDbDictionary
280
     1
281
     1
  3
ACAD_XREC_ROUNDTRIP
360
CEA0
  0
XRECORD
  5
CEB2
102
{ACAD_REACTORS
330
CEB1
102
}
330
CEB1
100
AcDbXrecord
280
     1
102
SHADEPLOT
 70
     0
102
SHADEPLOTRESLEVEL
 70
     2
102
SHADEPLOTCUSTOMDPI
 70
   300
  0
XRECORD
  5
CEB6
102
{ACAD_REACTORS
330
CEB5
102
}
330
CEB5
100
AcDbXrecord
280
     1
102
SHADEPLOT
 70
     0
102
SHADEPLOTRESLEVEL
 70
     2
102
SHADEPLOTCUSTOMDPI
 70
   300
  0
XRECORD
  5
CEB4
102
{ACAD_REACTORS
330
CEB3
102
}
330
CEB3
100
AcDbXrecord
280
     1
102
SHADEPLOT
 70
     0
102
SHADEPLOTRESLEVEL
 70
     2
102
SHADEPLOTCUSTOMDPI
 70
   300
  0
XRECORD
  5
CEB8
102
{ACAD_REACTORS
330
3D
102
}
330
3D
100
AcDbXrecord
280
     1
102
MATERIAL
148
0.0
149
0.0
149
0.0
 93
        0
 94
      127
282
     0
 72
     0
 77
     0
171
     0
175
     0
179
     0
273
     0
  0
XRECORD
  5
3F
102
{ACAD_REACTORS
330
3D
102
}
330
3D
100
AcDbXrecord
280
     1
270
     1
271
     1
  0
XRECORD
  5
3E
102
{ACAD_REACTORS
330
3D
102
}
330
3D
100
AcDbXrecord
280
     1
270
     1
271
     1
  0
XRECORD
  5
42
102
{ACAD_REACTORS
330
3D
102
}
330
3D
100
AcDbXrecord
280
     1
270
     1
271
     1
  0
XRECORD
  5
41
102
{ACAD_REACTORS
330
3D
102
}
330
3D
100
AcDbXrecord
280
     1
270
     1
271
     1
  0
XRECORD
  5
43
102
{ACAD_REACTORS
330
3D
102
}
330
3D
100
AcDbXrecord
280
     1
270
     1
271
     1
  0
XRECORD
  5
40
102
{ACAD_REACTORS
330
3D
102
}
330
3D
100
AcDbXrecord
280
     1
270
     1
271
     1
  0
XRECORD
  5
CEB7
102
{ACAD_REACTORS
330
35
102
}
330
35
100
AcDbXrecord
280
     1
102
MATERIAL
148
0.0
149
0.0
149
0.0
 93
        0
 94
      127
282
     0
 72
     0
 77
     0
171
     0
175
     0
179
     0
273
     0
  0
XRECORD
  5
37
102
{ACAD_REACTORS
330
35
102
}
330
35
100
AcDbXrecord
280
     1
270
     1
271
     1
  0
XRECORD
  5
36
102
{ACAD_REACTORS
330
35
102
}
330
35
100
AcDbXrecord
280
     1
270
     1
271
     1
  0
XRECORD
  5
3A
102
{ACAD_REACTORS
330
35
102
}
330
35
100
AcDbXrecord
280
     1
270
     1
271
     1
  0
XRECORD
  5
39
102
{ACAD_REACTORS
330
35
102
}
330
35
100
AcDbXrecord
280
     1
270
     1
271
     1
  0
XRECORD
  5
3B
102
{ACAD_REACTORS
330
35
102
}
330
35
100
AcDbXrecord
280
     1
270
     1
271
     1
  0
XRECORD
  5
38
102
{ACAD_REACTORS
330
35
102
}
330
35
100
AcDbXrecord
280
     1
270
     1
271
     1
  0
XRECORD
  5
CEB9
102
{ACAD_REACTORS
330
45
102
}
330
45
100
AcDbXrecord
280
     1
102
MATERIAL
148
0.0
149
0.0
149
0.0
 93
        0
 94
      127
282
     0
 72
     0
 77
     0
171
     0
175
     0
179
     0
273
     0
  0
XRECORD
  5
47
102
{ACAD_REACTORS
330
45
102
}
330
45
100
AcDbXrecord
280
     1
270
     1
271
     1
  0
XRECORD
  5
46
102
{ACAD_REACTORS
330
45
102
}
330
45
100
AcDbXrecord
280
     1
270
     1
271
     1
  0
XRECORD
  5
4A
102
{ACAD_REACTORS
330
45
102
}
330
45
100
AcDbXrecord
280
     1
270
     1
271
     1
  0
XRECORD
  5
49
102
{ACAD_REACTORS
330
45
102
}
330
45
100
AcDbXrecord
280
     1
270
     1
271
     1
  0
XRECORD
  5
4B
102
{ACAD_REACTORS
330
45
102
}
330
45
100
AcDbXrecord
280
     1
270
     1
271
     1
  0
XRECORD
  5
48
102
{ACAD_REACTORS
330
45
102
}
330
45
100
AcDbXrecord
280
     1
270
     1
271
     1
  0
CELLSTYLEMAP
  5
CEAF
102
{ACAD_REACTORS
330
87
102
}
330
87
100
AcDbCellStyleMap
 90
        3
300
CELLSTYLE
  1
TABLEFORMAT_BEGIN
 90
        5
170
     1
 91
        0
 92
    32768
 62
   257
 93
        1
300
CONTENTFORMAT
  1
CONTENTFORMAT_BEGIN
 90
        0
 91
        0
 92
      512
 93
        0
300

 40
0.0
140
1.0
 94
        5
 62
     0
340
11
144
0.25
309
CONTENTFORMAT_END
171
     0
 94
        0
309
TABLEFORMAT_END
  1
CELLSTYLE_BEGIN
 90
        1
 91
        1
300
_TITLE
309
CELLSTYLE_END
300
CELLSTYLE
  1
TABLEFORMAT_BEGIN
 90
        5
170
     1
 91
        0
 92
        0
 62
   257
 93
        1
300
CONTENTFORMAT
  1
CONTENTFORMAT_BEGIN
 90
        0
 91
        0
 92
      512
 93
        0
300

 40
0.0
140
1.0
 94
        5
 62
     0
340
11
144
0.18
309
CONTENTFORMAT_END
171
     0
 94
        0
309
TABLEFORMAT_END
  1
CELLSTYLE_BEGIN
 90
        2
 91
        1
300
_HEADER
309
CELLSTYLE_END
300
CELLSTYLE
  1
TABLEFORMAT_BEGIN
 90
        5
170
     1
 91
        0
 92
        0
 62
   257
 93
        1
300
CONTENTFORMAT
  1
CONTENTFORMAT_BEGIN
 90
        0
 91
        0
 92
      512
 93
        0
300

 40
0.0
140
1.0
 94
        2
 62
     0
340
11
144
0.18
309
CONTENTFORMAT_END
171
     0
 94
        0
309
TABLEFORMAT_END
  1
CELLSTYLE_BEGIN
 90
        3
 91
        2
300
_DATA
309
CELLSTYLE_END
  0
XRECORD
  5
CEBA
102
{ACAD_REACTORS
330
87
102
}
330
87
100
AcDbXrecord
280
     1
102
ACAD_ROUNDTRIP_PRE2007_TABLESTYLE
 90
      512
 91
        0
  1

 92
      512
 93
        0
  2

 94
      512
 95
        0
  3

  0
XRECORD
  5
CE81
102
{ACAD_REACTORS
330
CE80
102
}
330
CE80
100
AcDbXrecord
280
     1
102
RTVSPropertyOp0
 70
     1
102
RTVSPropertyOp1
 70
     1
102
RTVSPropertyOp2
 70
     1
102
RTVSPropertyOp3
 70
     1
102
RTVSPropertyOp4
 70
     1
102
RTVSPropertyOp5
 70
     1
102
RTVSPropertyOp6
 70
     1
102
RTVSPropertyOp7
 70
     1
102
RTVSPropertyOp8
 70
     1
102
RTVSPropertyOp9
 70
     1
102
RTVSPropertyOp10
 70
     1
102
RTVSPropertyOp11
 70
     1
102
RTVSPropertyOp12
 70
     1
102
RTVSPropertyOp13
 70
     1
102
RTVSPropertyOp14
 70
     1
102
RTVSPropertyOp15
 70
     1
102
RTVSPropertyOp16
 70
     1
102
RTVSPropertyOp17
 70
     1
102
RTVSPropertyOp18
 70
     1
102
RTVSPropertyOp19
 70
     1
102
RTVSPropertyOp20
 70
     1
102
RTVSPropertyOp21
 70
     1
102
RTVSPropertyOp22
 70
     1
102
RTVSPropertyOp23
 70
     1
102
RTVSPropertyOp24
 70
     1
102
RTVSPropertyOp25
 70
     1
102
RTVSPropertyOp26
 70
     1
102
RTVSPropertyOp27
 70
     1
102
RTVSPropertyOp28
 70
     1
102
RTVSPropertyOp29
 70
     1
102
RTVSPropertyOp30
 70
     1
102
RTVSPropertyOp31
 70
     1
102
RTVSPropertyOp32
 70
     1
  0
XRECORD
  5
CE85
102
{ACAD_REACTORS
330
CE84
102
}
330
CE84
100
AcDbXrecord
280
     1
102
RTVSPropertyOp0
 70
     1
102
RTVSPropertyOp1
 70
     1
102
RTVSPropertyOp2
 70
     1
102
RTVSPropertyOp3
 70
     1
102
RTVSPropertyOp4
 70
     1
102
RTVSPropertyOp5
 70
     1
102
RTVSPropertyOp6
 70
     1
102
RTVSPropertyOp7
 70
     1
102
RTVSPropertyOp8
 70
     1
102
RTVSPropertyOp9
 70
     1
102
RTVSPropertyOp10
 70
     1
102
RTVSPropertyOp11
 70
     1
102
RTVSPropertyOp12
 70
     1
102
RTVSPropertyOp13
 70
     1
102
RTVSPropertyOp14
 70
     1
102
RTVSPropertyOp15
 70
     1
102
RTVSPropertyOp16
 70
     1
102
RTVSPropertyOp17
 70
     1
102
RTVSPropertyOp18
 70
     1
102
RTVSPropertyOp19
 70
     1
102
RTVSPropertyOp20
 70
     1
102
RTVSPropertyOp21
 70
     1
102
RTVSPropertyOp22
 70
     1
102
RTVSPropertyOp23
 70
     1
102
RTVSPropertyOp24
 70
     1
102
RTVSPropertyOp25
 70
     1
102
RTVSPropertyOp26
 70
     1
102
RTVSPropertyOp27
 70
     1
102
RTVSPropertyOp28
 70
     1
102
RTVSPropertyOp29
 70
     1
102
RTVSPropertyOp30
 70
     1
102
RTVSPropertyOp31
 70
     1
102
RTVSPropertyOp32
 70
     1
  0
XRECORD
  5
CE83
102
{ACAD_REACTORS
330
CE82
102
}
330
CE82
100
AcDbXrecord
280
     1
102
RTVSPropertyOp0
 70
     1
102
RTVSPropertyOp1
 70
     1
102
RTVSPropertyOp2
 70
     1
102
RTVSPropertyOp3
 70
     1
102
RTVSPropertyOp4
 70
     1
102
RTVSPropertyOp5
 70
     1
102
RTVSPropertyOp6
 70
     1
102
RTVSPropertyOp7
 70
     1
102
RTVSPropertyOp8
 70
     1
102
RTVSPropertyOp9
 70
     1
102
RTVSPropertyOp10
 70
     1
102
RTVSPropertyOp11
 70
     1
102
RTVSPropertyOp12
 70
     1
102
RTVSPropertyOp13
 70
     1
102
RTVSPropertyOp14
 70
     1
102
RTVSPropertyOp15
 70
     1
102
RTVSPropertyOp16
 70
     1
102
RTVSPropertyOp17
 70
     1
102
RTVSPropertyOp18
 70
     1
102
RTVSPropertyOp19
 70
     1
102
RTVSPropertyOp20
 70
     1
102
RTVSPropertyOp21
 70
     1
102
RTVSPropertyOp22
 70
     1
102
RTVSPropertyOp23
 70
     1
102
RTVSPropertyOp24
 70
     1
102
RTVSPropertyOp25
 70
     1
102
RTVSPropertyOp26
 70
     1
102
RTVSPropertyOp27
 70
     1
102
RTVSPropertyOp28
 70
     1
102
RTVSPropertyOp29
 70
     1
102
RTVSPropertyOp30
 70
     1
102
RTVSPropertyOp31
 70
     1
102
RTVSPropertyOp32
 70
     1
  0
XRECORD
  5
CE7F
102
{ACAD_REACTORS
330
CE7E
102
}
330
CE7E
100
AcDbXrecord
280
     1
102
RTVSPropertyOp0
 70
     1
102
RTVSPropertyOp1
 70
     1
102
RTVSPropertyOp2
 70
     1
102
RTVSPropertyOp3
 70
     1
102
RTVSPropertyOp4
 70
     1
102
RTVSPropertyOp5
 70
     1
102
RTVSPropertyOp6
 70
     1
102
RTVSPropertyOp7
 70
     1
102
RTVSPropertyOp8
 70
     1
102
RTVSPropertyOp9
 70
     1
102
RTVSPropertyOp10
 70
     1
102
RTVSPropertyOp11
 70
     1
102
RTVSPropertyOp12
 70
     1
102
RTVSPropertyOp13
 70
     1
102
RTVSPropertyOp14
 70
     1
102
RTVSPropertyOp15
 70
     1
102
RTVSPropertyOp16
 70
     1
102
RTVSPropertyOp17
 70
     1
102
RTVSPropertyOp18
 70
     1
102
RTVSPropertyOp19
 70
     1
102
RTVSPropertyOp20
 70
     1
102
RTVSPropertyOp21
 70
     1
102
RTVSPropertyOp22
 70
     1
102
RTVSPropertyOp23
 70
     1
102
RTVSPropertyOp24
 70
     1
102
RTVSPropertyOp25
 70
     1
102
RTVSPropertyOp26
 70
     1
102
RTVSPropertyOp27
 70
     1
102
RTVSPropertyOp28
 70
     1
102
RTVSPropertyOp29
 70
     1
102
RTVSPropertyOp30
 70
     1
102
RTVSPropertyOp31
 70
     1
102
RTVSPropertyOp32
 70
     1
  0
XRECORD
  5
CE8D
102
{ACAD_REACTORS
330
CE8C
102
}
330
CE8C
100
AcDbXrecord
280
     1
102
RTVSPropertyOp0
 70
     1
102
RTVSPropertyOp1
 70
     1
102
RTVSPropertyOp2
 70
     1
102
RTVSPropertyOp3
 70
     1
102
RTVSPropertyOp4
 70
     1
102
RTVSPropertyOp5
 70
     1
102
RTVSPropertyOp6
 70
     1
102
RTVSPropertyOp7
 70
     1
102
RTVSPropertyOp8
 70
     1
102
RTVSPropertyOp9
 70
     1
102
RTVSPropertyOp10
 70
     1
102
RTVSPropertyOp11
 70
     1
102
RTVSPropertyOp12
 70
     1
102
RTVSPropertyOp13
 70
     1
102
RTVSPropertyOp14
 70
     1
102
RTVSPropertyOp15
 70
     1
102
RTVSPropertyOp16
 70
     1
102
RTVSPropertyOp17
 70
     1
102
RTVSPropertyOp18
 70
     1
102
RTVSPropertyOp19
 70
     1
102
RTVSPropertyOp20
 70
     1
102
RTVSPropertyOp21
 70
     1
102
RTVSPropertyOp22
 70
     1
102
RTVSPropertyOp23
 70
     1
102
RTVSPropertyOp24
 70
     1
102
RTVSPropertyOp25
 70
     1
102
RTVSPropertyOp26
 70
     1
102
RTVSPropertyOp27
 70
     1
102
RTVSPropertyOp28
 70
     1
102
RTVSPropertyOp29
 70
     1
102
RTVSPropertyOp30
 70
     1
102
RTVSPropertyOp31
 70
     1
102
RTVSPropertyOp32
 70
     1
  0
XRECORD
  5
CE95
102
{ACAD_REACTORS
330
CE94
102
}
330
CE94
100
AcDbXrecord
280
     1
102
RTVSPropertyOp0
 70
     1
102
RTVSPropertyOp1
 70
     1
102
RTVSPropertyOp2
 70
     1
102
RTVSPropertyOp3
 70
     1
102
RTVSPropertyOp4
 70
     1
102
RTVSPropertyOp5
 70
     1
102
RTVSPropertyOp6
 70
     1
102
RTVSPropertyOp7
 70
     1
102
RTVSPropertyOp8
 70
     1
102
RTVSPropertyOp9
 70
     1
102
RTVSPropertyOp10
 70
     1
102
RTVSPropertyOp11
 70
     1
102
RTVSPropertyOp12
 70
     1
102
RTVSPropertyOp13
 70
     1
102
RTVSPropertyOp14
 70
     1
102
RTVSPropertyOp15
 70
     1
102
RTVSPropertyOp16
 70
     1
102
RTVSPropertyOp17
 70
     1
102
RTVSPropertyOp18
 70
     1
102
RTVSPropertyOp19
 70
     1
102
RTVSPropertyOp20
 70
     1
102
RTVSPropertyOp21
 70
     1
102
RTVSPropertyOp22
 70
     1
102
RTVSPropertyOp23
 70
     1
102
RTVSPropertyOp24
 70
     1
102
RTVSPropertyOp25
 70
     1
102
RTVSPropertyOp26
 70
     1
102
RTVSPropertyOp27
 70
     1
102
RTVSPropertyOp28
 70
     1
102
RTVSPropertyOp29
 70
     1
102
RTVSPropertyOp30
 70
     1
102
RTVSPropertyOp31
 70
     1
102
RTVSPropertyOp32
 70
     1
  0
XRECORD
  5
CE87
102
{ACAD_REACTORS
330
CE86
102
}
330
CE86
100
AcDbXrecord
280
     1
102
RTVSPropertyOp0
 70
     1
102
RTVSPropertyOp1
 70
     1
102
RTVSPropertyOp2
 70
     1
102
RTVSPropertyOp3
 70
     1
102
RTVSPropertyOp4
 70
     1
102
RTVSPropertyOp5
 70
     1
102
RTVSPropertyOp6
 70
     1
102
RTVSPropertyOp7
 70
     1
102
RTVSPropertyOp8
 70
     1
102
RTVSPropertyOp9
 70
     1
102
RTVSPropertyOp10
 70
     1
102
RTVSPropertyOp11
 70
     1
102
RTVSPropertyOp12
 70
     1
102
RTVSPropertyOp13
 70
     1
102
RTVSPropertyOp14
 70
     1
102
RTVSPropertyOp15
 70
     1
102
RTVSPropertyOp16
 70
     1
102
RTVSPropertyOp17
 70
     1
102
RTVSPropertyOp18
 70
     1
102
RTVSPropertyOp19
 70
     1
102
RTVSPropertyOp20
 70
     1
102
RTVSPropertyOp21
 70
     1
102
RTVSPropertyOp22
 70
     1
102
RTVSPropertyOp23
 70
     1
102
RTVSPropertyOp24
 70
     1
102
RTVSPropertyOp25
 70
     1
102
RTVSPropertyOp26
 70
     1
102
RTVSPropertyOp27
 70
     1
102
RTVSPropertyOp28
 70
     1
102
RTVSPropertyOp29
 70
     1
102
RTVSPropertyOp30
 70
     1
102
RTVSPropertyOp31
 70
     1
102
RTVSPropertyOp32
 70
     1
  0
XRECORD
  5
CE8B
102
{ACAD_REACTORS
330
CE8A
102
}
330
CE8A
100
AcDbXrecord
280
     1
102
RTVSPropertyOp0
 70
     1
102
RTVSPropertyOp1
 70
     1
102
RTVSPropertyOp2
 70
     1
102
RTVSPropertyOp3
 70
     1
102
RTVSPropertyOp4
 70
     1
102
RTVSPropertyOp5
 70
     1
102
RTVSPropertyOp6
 70
     1
102
RTVSPropertyOp7
 70
     1
102
RTVSPropertyOp8
 70
     1
102
RTVSPropertyOp9
 70
     1
102
RTVSPropertyOp10
 70
     1
102
RTVSPropertyOp11
 70
     1
102
RTVSPropertyOp12
 70
     1
102
RTVSPropertyOp13
 70
     1
102
RTVSPropertyOp14
 70
     1
102
RTVSPropertyOp15
 70
     1
102
RTVSPropertyOp16
 70
     1
102
RTVSPropertyOp17
 70
     1
102
RTVSPropertyOp18
 70
     1
102
RTVSPropertyOp19
 70
     1
102
RTVSPropertyOp20
 70
     1
102
RTVSPropertyOp21
 70
     1
102
RTVSPropertyOp22
 70
     1
102
RTVSPropertyOp23
 70
     1
102
RTVSPropertyOp24
 70
     1
102
RTVSPropertyOp25
 70
     1
102
RTVSPropertyOp26
 70
     1
102
RTVSPropertyOp27
 70
     1
102
RTVSPropertyOp28
 70
     1
102
RTVSPropertyOp29
 70
     1
102
RTVSPropertyOp30
 70
     1
102
RTVSPropertyOp31
 70
     1
102
RTVSPropertyOp32
 70
     1
  0
XRECORD
  5
CEAA
102
{ACAD_REACTORS
330
CEA9
102
}
330
CEA9
100
AcDbXrecord
280
     1
102
RTVSPropertyOp0
 70
     0
102
RTVSPropertyOp1
 70
     0
102
RTVSPropertyOp2
 70
     0
102
RTVSPropertyOp3
 70
     0
102
RTVSPropertyOp4
 70
     0
102
RTVSPropertyOp5
 70
     0
102
RTVSPropertyOp6
 70
     0
102
RTVSPropertyOp7
 70
     0
102
RTVSPropertyOp8
 70
     0
102
RTVSPropertyOp9
 70
     0
102
RTVSPropertyOp10
 70
     0
102
RTVSPropertyOp11
 70
     0
102
RTVSPropertyOp12
 70
     0
102
RTVSPropertyOp13
 70
     0
102
RTVSPropertyOp14
 70
     2
102
RTVSPropertyOp15
 70
     0
102
RTVSPropertyOp16
 70
     0
102
RTVSPropertyOp17
 70
     0
102
RTVSPropertyOp18
 70
     0
102
RTVSPropertyOp19
 70
     0
102
RTVSPropertyOp20
 70
     0
102
RTVSPropertyOp21
 70
     0
102
RTVSPropertyOp22
 70
     0
102
RTVSPropertyOp23
 70
     0
102
RTVSPropertyOp24
 70
     0
102
RTVSPropertyOp25
 70
     0
102
RTVSPropertyOp26
 70
     0
102
RTVSPropertyOp27
 70
     0
102
RTVSPropertyOp28
 70
     0
102
RTVSPropertyOp29
 70
     0
102
RTVSPropertyOp30
 70
     0
102
RTVSPropertyOp31
 70
     0
102
RTVSPropertyOp32
 70
     0
  0
XRECORD
  5
CE93
102
{ACAD_REACTORS
330
CE92
102
}
330
CE92
100
AcDbXrecord
280
     1
102
RTVSPropertyOp0
 70
     1
102
RTVSPropertyOp1
 70
     1
102
RTVSPropertyOp2
 70
     1
102
RTVSPropertyOp3
 70
     1
102
RTVSPropertyOp4
 70
     1
102
RTVSPropertyOp5
 70
     1
102
RTVSPropertyOp6
 70
     1
102
RTVSPropertyOp7
 70
     1
102
RTVSPropertyOp8
 70
     1
102
RTVSPropertyOp9
 70
     1
102
RTVSPropertyOp10
 70
     1
102
RTVSPropertyOp11
 70
     1
102
RTVSPropertyOp12
 70
     1
102
RTVSPropertyOp13
 70
     1
102
RTVSPropertyOp14
 70
     1
102
RTVSPropertyOp15
 70
     1
102
RTVSPropertyOp16
 70
     1
102
RTVSPropertyOp17
 70
     1
102
RTVSPropertyOp18
 70
     1
102
RTVSPropertyOp19
 70
     1
102
RTVSPropertyOp20
 70
     1
102
RTVSPropertyOp21
 70
     1
102
RTVSPropertyOp22
 70
     1
102
RTVSPropertyOp23
 70
     1
102
RTVSPropertyOp24
 70
     1
102
RTVSPropertyOp25
 70
     1
102
RTVSPropertyOp26
 70
     1
102
RTVSPropertyOp27
 70
     1
102
RTVSPropertyOp28
 70
     1
102
RTVSPropertyOp29
 70
     1
102
RTVSPropertyOp30
 70
     1
102
RTVSPropertyOp31
 70
     1
102
RTVSPropertyOp32
 70
     1
  0
XRECORD
  5
CE77
102
{ACAD_REACTORS
330
CE76
102
}
330
CE76
100
AcDbXrecord
280
     1
102
RTVSPropertyOp0
 70
     1
102
RTVSPropertyOp1
 70
     1
102
RTVSPropertyOp2
 70
     1
102
RTVSPropertyOp3
 70
     1
102
RTVSPropertyOp4
 70
     1
102
RTVSPropertyOp5
 70
     1
102
RTVSPropertyOp6
 70
     1
102
RTVSPropertyOp7
 70
     1
102
RTVSPropertyOp8
 70
     1
102
RTVSPropertyOp9
 70
     1
102
RTVSPropertyOp10
 70
     1
102
RTVSPropertyOp11
 70
     1
102
RTVSPropertyOp12
 70
     1
102
RTVSPropertyOp13
 70
     1
102
RTVSPropertyOp14
 70
     1
102
RTVSPropertyOp15
 70
     1
102
RTVSPropertyOp16
 70
     1
102
RTVSPropertyOp17
 70
     1
102
RTVSPropertyOp18
 70
     1
102
RTVSPropertyOp19
 70
     1
102
RTVSPropertyOp20
 70
     1
102
RTVSPropertyOp21
 70
     1
102
RTVSPropertyOp22
 70
     1
102
RTVSPropertyOp23
 70
     1
102
RTVSPropertyOp24
 70
     1
102
RTVSPropertyOp25
 70
     1
102
RTVSPropertyOp26
 70
     1
102
RTVSPropertyOp27
 70
     1
102
RTVSPropertyOp28
 70
     1
102
RTVSPropertyOp29
 70
     1
102
RTVSPropertyOp30
 70
     1
102
RTVSPropertyOp31
 70
     1
102
RTVSPropertyOp32
 70
     1
  0
XRECORD
  5
CE79
102
{ACAD_REACTORS
330
CE78
102
}
330
CE78
100
AcDbXrecord
280
     1
102
RTVSPropertyOp0
 70
     1
102
RTVSPropertyOp1
 70
     1
102
RTVSPropertyOp2
 70
     1
102
RTVSPropertyOp3
 70
     1
102
RTVSPropertyOp4
 70
     1
102
RTVSPropertyOp5
 70
     1
102
RTVSPropertyOp6
 70
     1
102
RTVSPropertyOp7
 70
     1
102
RTVSPropertyOp8
 70
     1
102
RTVSPropertyOp9
 70
     1
102
RTVSPropertyOp10
 70
     1
102
RTVSPropertyOp11
 70
     1
102
RTVSPropertyOp12
 70
     1
102
RTVSPropertyOp13
 70
     1
102
RTVSPropertyOp14
 70
     1
102
RTVSPropertyOp15
 70
     1
102
RTVSPropertyOp16
 70
     1
102
RTVSPropertyOp17
 70
     1
102
RTVSPropertyOp18
 70
     1
102
RTVSPropertyOp19
 70
     1
102
RTVSPropertyOp20
 70
     1
102
RTVSPropertyOp21
 70
     1
102
RTVSPropertyOp22
 70
     1
102
RTVSPropertyOp23
 70
     1
102
RTVSPropertyOp24
 70
     1
102
RTVSPropertyOp25
 70
     1
102
RTVSPropertyOp26
 70
     1
102
RTVSPropertyOp27
 70
     1
102
RTVSPropertyOp28
 70
     1
102
RTVSPropertyOp29
 70
     1
102
RTVSPropertyOp30
 70
     1
102
RTVSPropertyOp31
 70
     1
102
RTVSPropertyOp32
 70
     1
  0
XRECORD
  5
CE7B
102
{ACAD_REACTORS
330
CE7A
102
}
330
CE7A
100
AcDbXrecord
280
     1
102
RTVSPropertyOp0
 70
     1
102
RTVSPropertyOp1
 70
     1
102
RTVSPropertyOp2
 70
     1
102
RTVSPropertyOp3
 70
     1
102
RTVSPropertyOp4
 70
     1
102
RTVSPropertyOp5
 70
     1
102
RTVSPropertyOp6
 70
     1
102
RTVSPropertyOp7
 70
     1
102
RTVSPropertyOp8
 70
     1
102
RTVSPropertyOp9
 70
     1
102
RTVSPropertyOp10
 70
     1
102
RTVSPropertyOp11
 70
     1
102
RTVSPropertyOp12
 70
     1
102
RTVSPropertyOp13
 70
     1
102
RTVSPropertyOp14
 70
     1
102
RTVSPropertyOp15
 70
     1
102
RTVSPropertyOp16
 70
     1
102
RTVSPropertyOp17
 70
     1
102
RTVSPropertyOp18
 70
     1
102
RTVSPropertyOp19
 70
     1
102
RTVSPropertyOp20
 70
     1
102
RTVSPropertyOp21
 70
     1
102
RTVSPropertyOp22
 70
     1
102
RTVSPropertyOp23
 70
     1
102
RTVSPropertyOp24
 70
     1
102
RTVSPropertyOp25
 70
     1
102
RTVSPropertyOp26
 70
     1
102
RTVSPropertyOp27
 70
     1
102
RTVSPropertyOp28
 70
     1
102
RTVSPropertyOp29
 70
     1
102
RTVSPropertyOp30
 70
     1
102
RTVSPropertyOp31
 70
     1
102
RTVSPropertyOp32
 70
     1
  0
XRECORD
  5
CE7D
102
{ACAD_REACTORS
330
CE7C
102
}
330
CE7C
100
AcDbXrecord
280
     1
102
RTVSPropertyOp0
 70
     1
102
RTVSPropertyOp1
 70
     1
102
RTVSPropertyOp2
 70
     1
102
RTVSPropertyOp3
 70
     1
102
RTVSPropertyOp4
 70
     1
102
RTVSPropertyOp5
 70
     1
102
RTVSPropertyOp6
 70
     1
102
RTVSPropertyOp7
 70
     1
102
RTVSPropertyOp8
 70
     1
102
RTVSPropertyOp9
 70
     1
102
RTVSPropertyOp10
 70
     1
102
RTVSPropertyOp11
 70
     1
102
RTVSPropertyOp12
 70
     1
102
RTVSPropertyOp13
 70
     1
102
RTVSPropertyOp14
 70
     1
102
RTVSPropertyOp15
 70
     1
102
RTVSPropertyOp16
 70
     1
102
RTVSPropertyOp17
 70
     1
102
RTVSPropertyOp18
 70
     1
102
RTVSPropertyOp19
 70
     1
102
RTVSPropertyOp20
 70
     1
102
RTVSPropertyOp21
 70
     1
102
RTVSPropertyOp22
 70
     1
102
RTVSPropertyOp23
 70
     1
102
RTVSPropertyOp24
 70
     1
102
RTVSPropertyOp25
 70
     1
102
RTVSPropertyOp26
 70
     1
102
RTVSPropertyOp27
 70
     1
102
RTVSPropertyOp28
 70
     1
102
RTVSPropertyOp29
 70
     1
102
RTVSPropertyOp30
 70
     1
102
RTVSPropertyOp31
 70
     1
102
RTVSPropertyOp32
 70
     1
  0
XRECORD
  5
CE9A
102
{ACAD_REACTORS
330
CE99
102
}
330
CE99
100
AcDbXrecord
280
     1
102
RTVSPropertyOp0
 70
     1
102
RTVSPropertyOp1
 70
     1
102
RTVSPropertyOp2
 70
     1
102
RTVSPropertyOp3
 70
     1
102
RTVSPropertyOp4
 70
     1
102
RTVSPropertyOp5
 70
     1
102
RTVSPropertyOp6
 70
     1
102
RTVSPropertyOp7
 70
     1
102
RTVSPropertyOp8
 70
     1
102
RTVSPropertyOp9
 70
     1
102
RTVSPropertyOp10
 70
     1
102
RTVSPropertyOp11
 70
     1
102
RTVSPropertyOp12
 70
     1
102
RTVSPropertyOp13
 70
     1
102
RTVSPropertyOp14
 70
     1
102
RTVSPropertyOp15
 70
     1
102
RTVSPropertyOp16
 70
     1
102
RTVSPropertyOp17
 70
     1
102
RTVSPropertyOp18
 70
     1
102
RTVSPropertyOp19
 70
     1
102
RTVSPropertyOp20
 70
     1
102
RTVSPropertyOp21
 70
     1
102
RTVSPropertyOp22
 70
     1
102
RTVSPropertyOp23
 70
     1
102
RTVSPropertyOp24
 70
     1
102
RTVSPropertyOp25
 70
     1
102
RTVSPropertyOp26
 70
     1
102
RTVSPropertyOp27
 70
     1
102
RTVSPropertyOp28
 70
     1
102
RTVSPropertyOp29
 70
     1
102
RTVSPropertyOp30
 70
     1
102
RTVSPropertyOp31
 70
     1
102
RTVSPropertyOp32
 70
     1
  0
XRECORD
  5
CEA6
102
{ACAD_REACTORS
330
CEA5
102
}
330
CEA5
100
AcDbXrecord
280
     1
102
RTVSPropertyOp0
 70
     0
102
RTVSPropertyOp1
 70
     0
102
RTVSPropertyOp2
 70
     0
102
RTVSPropertyOp3
 70
     0
102
RTVSPropertyOp4
 70
     0
102
RTVSPropertyOp5
 70
     0
102
RTVSPropertyOp6
 70
     0
102
RTVSPropertyOp7
 70
     0
102
RTVSPropertyOp8
 70
     0
102
RTVSPropertyOp9
 70
     0
102
RTVSPropertyOp10
 70
     0
102
RTVSPropertyOp11
 70
     0
102
RTVSPropertyOp12
 70
     0
102
RTVSPropertyOp13
 70
     0
102
RTVSPropertyOp14
 70
     2
102
RTVSPropertyOp15
 70
     0
102
RTVSPropertyOp16
 70
     0
102
RTVSPropertyOp17
 70
     0
102
RTVSPropertyOp18
 70
     0
102
RTVSPropertyOp19
 70
     0
102
RTVSPropertyOp20
 70
     0
102
RTVSPropertyOp21
 70
     0
102
RTVSPropertyOp22
 70
     0
102
RTVSPropertyOp23
 70
     0
102
RTVSPropertyOp24
 70
     0
102
RTVSPropertyOp25
 70
     0
102
RTVSPropertyOp26
 70
     0
102
RTVSPropertyOp27
 70
     0
102
RTVSPropertyOp28
 70
     0
102
RTVSPropertyOp29
 70
     0
102
RTVSPropertyOp30
 70
     0
102
RTVSPropertyOp31
 70
     0
102
RTVSPropertyOp32
 70
     0
  0
XRECORD
  5
CE91
102
{ACAD_REACTORS
330
CE90
102
}
330
CE90
100
AcDbXrecord
280
     1
102
RTVSPropertyOp0
 70
     1
102
RTVSPropertyOp1
 70
     1
102
RTVSPropertyOp2
 70
     1
102
RTVSPropertyOp3
 70
     1
102
RTVSPropertyOp4
 70
     1
102
RTVSPropertyOp5
 70
     1
102
RTVSPropertyOp6
 70
     1
102
RTVSPropertyOp7
 70
     1
102
RTVSPropertyOp8
 70
     1
102
RTVSPropertyOp9
 70
     1
102
RTVSPropertyOp10
 70
     1
102
RTVSPropertyOp11
 70
     1
102
RTVSPropertyOp12
 70
     1
102
RTVSPropertyOp13
 70
     1
102
RTVSPropertyOp14
 70
     1
102
RTVSPropertyOp15
 70
     1
102
RTVSPropertyOp16
 70
     1
102
RTVSPropertyOp17
 70
     1
102
RTVSPropertyOp18
 70
     1
102
RTVSPropertyOp19
 70
     1
102
RTVSPropertyOp20
 70
     1
102
RTVSPropertyOp21
 70
     1
102
RTVSPropertyOp22
 70
     1
102
RTVSPropertyOp23
 70
     1
102
RTVSPropertyOp24
 70
     1
102
RTVSPropertyOp25
 70
     1
102
RTVSPropertyOp26
 70
     1
102
RTVSPropertyOp27
 70
     1
102
RTVSPropertyOp28
 70
     1
102
RTVSPropertyOp29
 70
     1
102
RTVSPropertyOp30
 70
     1
102
RTVSPropertyOp31
 70
     1
102
RTVSPropertyOp32
 70
     1
  0
XRECORD
  5
CEA8
102
{ACAD_REACTORS
330
CEA7
102
}
330
CEA7
100
AcDbXrecord
280
     1
102
RTVSPropertyOp0
 70
     0
102
RTVSPropertyOp1
 70
     0
102
RTVSPropertyOp2
 70
     0
102
RTVSPropertyOp3
 70
     0
102
RTVSPropertyOp4
 70
     0
102
RTVSPropertyOp5
 70
     0
102
RTVSPropertyOp6
 70
     0
102
RTVSPropertyOp7
 70
     0
102
RTVSPropertyOp8
 70
     0
102
RTVSPropertyOp9
 70
     0
102
RTVSPropertyOp10
 70
     0
102
RTVSPropertyOp11
 70
     0
102
RTVSPropertyOp12
 70
     0
102
RTVSPropertyOp13
 70
     0
102
RTVSPropertyOp14
 70
     2
102
RTVSPropertyOp15
 70
     0
102
RTVSPropertyOp16
 70
     0
102
RTVSPropertyOp17
 70
     0
102
RTVSPropertyOp18
 70
     0
102
RTVSPropertyOp19
 70
     0
102
RTVSPropertyOp20
 70
     0
102
RTVSPropertyOp21
 70
     0
102
RTVSPropertyOp22
 70
     0
102
RTVSPropertyOp23
 70
     0
102
RTVSPropertyOp24
 70
     0
102
RTVSPropertyOp25
 70
     0
102
RTVSPropertyOp26
 70
     0
102
RTVSPropertyOp27
 70
     0
102
RTVSPropertyOp28
 70
     0
102
RTVSPropertyOp29
 70
     0
102
RTVSPropertyOp30
 70
     0
102
RTVSPropertyOp31
 70
     0
102
RTVSPropertyOp32
 70
     0
  0
XRECORD
  5
CE89
102
{ACAD_REACTORS
330
CE88
102
}
330
CE88
100
AcDbXrecord
280
     1
102
RTVSPropertyOp0
 70
     1
102
RTVSPropertyOp1
 70
     1
102
RTVSPropertyOp2
 70
     1
102
RTVSPropertyOp3
 70
     1
102
RTVSPropertyOp4
 70
     1
102
RTVSPropertyOp5
 70
     1
102
RTVSPropertyOp6
 70
     1
102
RTVSPropertyOp7
 70
     1
102
RTVSPropertyOp8
 70
     1
102
RTVSPropertyOp9
 70
     1
102
RTVSPropertyOp10
 70
     1
102
RTVSPropertyOp11
 70
     1
102
RTVSPropertyOp12
 70
     1
102
RTVSPropertyOp13
 70
     1
102
RTVSPropertyOp14
 70
     1
102
RTVSPropertyOp15
 70
     1
102
RTVSPropertyOp16
 70
     1
102
RTVSPropertyOp17
 70
     1
102
RTVSPropertyOp18
 70
     1
102
RTVSPropertyOp19
 70
     1
102
RTVSPropertyOp20
 70
     1
102
RTVSPropertyOp21
 70
     1
102
RTVSPropertyOp22
 70
     1
102
RTVSPropertyOp23
 70
     1
102
RTVSPropertyOp24
 70
     1
102
RTVSPropertyOp25
 70
     1
102
RTVSPropertyOp26
 70
     1
102
RTVSPropertyOp27
 70
     1
102
RTVSPropertyOp28
 70
     1
102
RTVSPropertyOp29
 70
     1
102
RTVSPropertyOp30
 70
     1
102
RTVSPropertyOp31
 70
     1
102
RTVSPropertyOp32
 70
     1
  0
XRECORD
  5
CEA4
102
{ACAD_REACTORS
330
CEA3
102
}
330
CEA3
100
AcDbXrecord
280
     1
102
RTVSPropertyOp0
 70
     1
102
RTVSPropertyOp1
 70
     1
102
RTVSPropertyOp2
 70
     1
102
RTVSPropertyOp3
 70
     1
102
RTVSPropertyOp4
 70
     1
102
RTVSPropertyOp5
 70
     1
102
RTVSPropertyOp6
 70
     1
102
RTVSPropertyOp7
 70
     1
102
RTVSPropertyOp8
 70
     1
102
RTVSPropertyOp9
 70
     1
102
RTVSPropertyOp10
 70
     1
102
RTVSPropertyOp11
 70
     1
102
RTVSPropertyOp12
 70
     1
102
RTVSPropertyOp13
 70
     1
102
RTVSPropertyOp14
 70
     1
102
RTVSPropertyOp15
 70
     1
102
RTVSPropertyOp16
 70
     1
102
RTVSPropertyOp17
 70
     1
102
RTVSPropertyOp18
 70
     1
102
RTVSPropertyOp19
 70
     1
102
RTVSPropertyOp20
 70
     1
102
RTVSPropertyOp21
 70
     1
102
RTVSPropertyOp22
 70
     1
102
RTVSPropertyOp23
 70
     1
102
RTVSPropertyOp24
 70
     1
102
RTVSPropertyOp25
 70
     1
102
RTVSPropertyOp26
 70
     1
102
RTVSPropertyOp27
 70
     1
102
RTVSPropertyOp28
 70
     1
102
RTVSPropertyOp29
 70
     1
102
RTVSPropertyOp30
 70
     1
102
RTVSPropertyOp31
 70
     1
102
RTVSPropertyOp32
 70
     1
  0
XRECORD
  5
CEA2
102
{ACAD_REACTORS
330
CEA1
102
}
330
CEA1
100
AcDbXrecord
280
     1
102
RTVSPropertyOp0
 70
     1
102
RTVSPropertyOp1
 70
     1
102
RTVSPropertyOp2
 70
     1
102
RTVSPropertyOp3
 70
     1
102
RTVSPropertyOp4
 70
     1
102
RTVSPropertyOp5
 70
     1
102
RTVSPropertyOp6
 70
     1
102
RTVSPropertyOp7
 70
     1
102
RTVSPropertyOp8
 70
     1
102
RTVSPropertyOp9
 70
     1
102
RTVSPropertyOp10
 70
     1
102
RTVSPropertyOp11
 70
     1
102
RTVSPropertyOp12
 70
     1
102
RTVSPropertyOp13
 70
     1
102
RTVSPropertyOp14
 70
     1
102
RTVSPropertyOp15
 70
     1
102
RTVSPropertyOp16
 70
     1
102
RTVSPropertyOp17
 70
     1
102
RTVSPropertyOp18
 70
     1
102
RTVSPropertyOp19
 70
     1
102
RTVSPropertyOp20
 70
     1
102
RTVSPropertyOp21
 70
     1
102
RTVSPropertyOp22
 70
     1
102
RTVSPropertyOp23
 70
     1
102
RTVSPropertyOp24
 70
     1
102
RTVSPropertyOp25
 70
     1
102
RTVSPropertyOp26
 70
     1
102
RTVSPropertyOp27
 70
     1
102
RTVSPropertyOp28
 70
     1
102
RTVSPropertyOp29
 70
     1
102
RTVSPropertyOp30
 70
     1
102
RTVSPropertyOp31
 70
     1
102
RTVSPropertyOp32
 70
     1
  0
XRECORD
  5
CE9C
102
{ACAD_REACTORS
330
CE9B
102
}
330
CE9B
100
AcDbXrecord
280
     1
102
RTVSPropertyOp0
 70
     1
102
RTVSPropertyOp1
 70
     1
102
RTVSPropertyOp2
 70
     1
102
RTVSPropertyOp3
 70
     1
102
RTVSPropertyOp4
 70
     1
102
RTVSPropertyOp5
 70
     1
102
RTVSPropertyOp6
 70
     1
102
RTVSPropertyOp7
 70
     1
102
RTVSPropertyOp8
 70
     1
102
RTVSPropertyOp9
 70
     1
102
RTVSPropertyOp10
 70
     1
102
RTVSPropertyOp11
 70
     1
102
RTVSPropertyOp12
 70
     1
102
RTVSPropertyOp13
 70
     1
102
RTVSPropertyOp14
 70
     1
102
RTVSPropertyOp15
 70
     1
102
RTVSPropertyOp16
 70
     1
102
RTVSPropertyOp17
 70
     1
102
RTVSPropertyOp18
 70
     1
102
RTVSPropertyOp19
 70
     1
102
RTVSPropertyOp20
 70
     1
102
RTVSPropertyOp21
 70
     1
102
RTVSPropertyOp22
 70
     1
102
RTVSPropertyOp23
 70
     1
102
RTVSPropertyOp24
 70
     1
102
RTVSPropertyOp25
 70
     1
102
RTVSPropertyOp26
 70
     1
102
RTVSPropertyOp27
 70
     1
102
RTVSPropertyOp28
 70
     1
102
RTVSPropertyOp29
 70
     1
102
RTVSPropertyOp30
 70
     1
102
RTVSPropertyOp31
 70
     1
102
RTVSPropertyOp32
 70
     1
  0
XRECORD
  5
CE9E
102
{ACAD_REACTORS
330
CE9D
102
}
330
CE9D
100
AcDbXrecord
280
     1
102
RTVSPropertyOp0
 70
     1
102
RTVSPropertyOp1
 70
     1
102
RTVSPropertyOp2
 70
     1
102
RTVSPropertyOp3
 70
     1
102
RTVSPropertyOp4
 70
     1
102
RTVSPropertyOp5
 70
     1
102
RTVSPropertyOp6
 70
     1
102
RTVSPropertyOp7
 70
     1
102
RTVSPropertyOp8
 70
     1
102
RTVSPropertyOp9
 70
     1
102
RTVSPropertyOp10
 70
     1
102
RTVSPropertyOp11
 70
     1
102
RTVSPropertyOp12
 70
     1
102
RTVSPropertyOp13
 70
     1
102
RTVSPropertyOp14
 70
     1
102
RTVSPropertyOp15
 70
     1
102
RTVSPropertyOp16
 70
     1
102
RTVSPropertyOp17
 70
     1
102
RTVSPropertyOp18
 70
     1
102
RTVSPropertyOp19
 70
     1
102
RTVSPropertyOp20
 70
     1
102
RTVSPropertyOp21
 70
     1
102
RTVSPropertyOp22
 70
     1
102
RTVSPropertyOp23
 70
     1
102
RTVSPropertyOp24
 70
     1
102
RTVSPropertyOp25
 70
     1
102
RTVSPropertyOp26
 70
     1
102
RTVSPropertyOp27
 70
     1
102
RTVSPropertyOp28
 70
     1
102
RTVSPropertyOp29
 70
     1
102
RTVSPropertyOp30
 70
     1
102
RTVSPropertyOp31
 70
     1
102
RTVSPropertyOp32
 70
     1
  0
XRECORD
  5
CE8F
102
{ACAD_REACTORS
330
CE8E
102
}
330
CE8E
100
AcDbXrecord
280
     1
102
RTVSPropertyOp0
 70
     1
102
RTVSPropertyOp1
 70
     1
102
RTVSPropertyOp2
 70
     1
102
RTVSPropertyOp3
 70
     1
102
RTVSPropertyOp4
 70
     1
102
RTVSPropertyOp5
 70
     1
102
RTVSPropertyOp6
 70
     1
102
RTVSPropertyOp7
 70
     1
102
RTVSPropertyOp8
 70
     1
102
RTVSPropertyOp9
 70
     1
102
RTVSPropertyOp10
 70
     1
102
RTVSPropertyOp11
 70
     1
102
RTVSPropertyOp12
 70
     1
102
RTVSPropertyOp13
 70
     1
102
RTVSPropertyOp14
 70
     1
102
RTVSPropertyOp15
 70
     1
102
RTVSPropertyOp16
 70
     1
102
RTVSPropertyOp17
 70
     1
102
RTVSPropertyOp18
 70
     1
102
RTVSPropertyOp19
 70
     1
102
RTVSPropertyOp20
 70
     1
102
RTVSPropertyOp21
 70
     1
102
RTVSPropertyOp22
 70
     1
102
RTVSPropertyOp23
 70
     1
102
RTVSPropertyOp24
 70
     1
102
RTVSPropertyOp25
 70
     1
102
RTVSPropertyOp26
 70
     1
102
RTVSPropertyOp27
 70
     1
102
RTVSPropertyOp28
 70
     1
102
RTVSPropertyOp29
 70
     1
102
RTVSPropertyOp30
 70
     1
102
RTVSPropertyOp31
 70
     1
102
RTVSPropertyOp32
 70
     1
  0
XRECORD
  5
CE98
102
{ACAD_REACTORS
330
CE97
102
}
330
CE97
100
AcDbXrecord
280
     1
102
RTVSPropertyOp0
 70
     1
102
RTVSPropertyOp1
 70
     1
102
RTVSPropertyOp2
 70
     1
102
RTVSPropertyOp3
 70
     1
102
RTVSPropertyOp4
 70
     1
102
RTVSPropertyOp5
 70
     1
102
RTVSPropertyOp6
 70
     1
102
RTVSPropertyOp7
 70
     1
102
RTVSPropertyOp8
 70
     1
102
RTVSPropertyOp9
 70
     1
102
RTVSPropertyOp10
 70
     1
102
RTVSPropertyOp11
 70
     1
102
RTVSPropertyOp12
 70
     1
102
RTVSPropertyOp13
 70
     1
102
RTVSPropertyOp14
 70
     1
102
RTVSPropertyOp15
 70
     1
102
RTVSPropertyOp16
 70
     1
102
RTVSPropertyOp17
 70
     1
102
RTVSPropertyOp18
 70
     1
102
RTVSPropertyOp19
 70
     1
102
RTVSPropertyOp20
 70
     1
102
RTVSPropertyOp21
 70
     1
102
RTVSPropertyOp22
 70
     1
102
RTVSPropertyOp23
 70
     1
102
RTVSPropertyOp24
 70
     1
102
RTVSPropertyOp25
 70
     1
102
RTVSPropertyOp26
 70
     1
102
RTVSPropertyOp27
 70
     1
102
RTVSPropertyOp28
 70
     1
102
RTVSPropertyOp29
 70
     1
102
RTVSPropertyOp30
 70
     1
102
RTVSPropertyOp31
 70
     1
102
RTVSPropertyOp32
 70
     1
  0
XRECORD
  5
CEA0
102
{ACAD_REACTORS
330
CE9F
102
}
330
CE9F
100
AcDbXrecord
280
     1
102
RTVSPropertyOp0
 70
     1
102
RTVSPropertyOp1
 70
     1
102
RTVSPropertyOp2
 70
     1
102
RTVSPropertyOp3
 70
     1
102
RTVSPropertyOp4
 70
     1
102
RTVSPropertyOp5
 70
     1
102
RTVSPropertyOp6
 70
     1
102
RTVSPropertyOp7
 70
     1
102
RTVSPropertyOp8
 70
     1
102
RTVSPropertyOp9
 70
     1
102
RTVSPropertyOp10
 70
     1
102
RTVSPropertyOp11
 70
     1
102
RTVSPropertyOp12
 70
     1
102
RTVSPropertyOp13
 70
     1
102
RTVSPropertyOp14
 70
     1
102
RTVSPropertyOp15
 70
     1
102
RTVSPropertyOp16
 70
     1
102
RTVSPropertyOp17
 70
     1
102
RTVSPropertyOp18
 70
     1
102
RTVSPropertyOp19
 70
     1
102
RTVSPropertyOp20
 70
     1
102
RTVSPropertyOp21
 70
     1
102
RTVSPropertyOp22
 70
     1
102
RTVSPropertyOp23
 70
     1
102
RTVSPropertyOp24
 70
     1
102
RTVSPropertyOp25
 70
     1
102
RTVSPropertyOp26
 70
     1
102
RTVSPropertyOp27
 70
     1
102
RTVSPropertyOp28
 70
     1
102
RTVSPropertyOp29
 70
     1
102
RTVSPropertyOp30
 70
     1
102
RTVSPropertyOp31
 70
     1
102
RTVSPropertyOp32
 70
     1
  0
ENDSEC
  0
EOF
