  0
SECTION
  2
HEADER
  9
$ACADVER
  1
AC1015
  9
$ACADMAINTVER
 70
    20
  9
$DWGCODEPAGE
  3
ANSI_1252
  9
$INSBASE
 10
0.0
 20
0.0
 30
0.0
  9
$EXTMIN
 10
136.1293378873478
 20
-165.2723066616443
 30
-47.81220490584312
  9
$EXTMAX
 10
318.9873757286857
 20
-54.16536980516996
 30
0.0
  9
$LIMMIN
 10
0.0
 20
0.0
  9
$LIMMAX
 10
12.0
 20
9.0
  9
$ORTHOMODE
 70
     0
  9
$REGENMODE
 70
     1
  9
$FILLMODE
 70
     1
  9
$QTEXTMODE
 70
     0
  9
$MIRRTEXT
 70
     1
  9
$LTSCALE
 40
1.0
  9
$ATTMODE
 70
     1
  9
$TEXTSIZE
 40
0.12
  9
$TRACEWID
 40
0.05
  9
$TEXTSTYLE
  7
STANDARD
  9
$CLAYER
  8
0
  9
$CELTYPE
  6
BYLAYER
  9
$CECOLOR
 62
   256
  9
$CELTSCALE
 40
1.0
  9
$DISPSILH
 70
     0
  9
$DIMSCALE
 40
1.0
  9
$DIMASZ
 40
4.572
  9
$DIMEXO
 40
1.587499999999999
  9
$DIMDLI
 40
9.525
  9
$DIMRND
 40
0.0
  9
$DIMDLE
 40
0.0
  9
$DIMEXE
 40
4.572
  9
$DIMTP
 40
0.0
  9
$DIMTM
 40
0.0
  9
$DIMTXT
 40
4.572
  9
$DIMCEN
 40
2.286
  9
$DIMTSZ
 40
0.0
  9
$DIMTOL
 70
     0
  9
$DIMLIM
 70
     0
  9
$DIMTIH
 70
     0
  9
$DIMTOH
 70
     1
  9
$DIMSE1
 70
     0
  9
$DIMSE2
 70
     0
  9
$DIMTAD
 70
     0
  9
$DIMZIN
 70
     4
  9
$DIMBLK
  1

  9
$DIMASO
 70
     1
  9
$DIMSHO
 70
     1
  9
$DIMPOST
  1

  9
$DIMAPOST
  1

  9
$DIMALT
 70
     1
  9
$DIMALTD
 70
     6
  9
$DIMALTF
 40
0.03937
  9
$DIMLFAC
 40
1.0
  9
$DIMTOFL
 70
     0
  9
$DIMTVP
 40
0.0
  9
$DIMTIX
 70
     0
  9
$DIMSOXD
 70
     0
  9
$DIMSAH
 70
     0
  9
$DIMBLK1
  1

  9
$DIMBLK2
  1

  9
$DIMSTYLE
  2
ABECAD_3D
  9
$DIMCLRD
 70
     0
  9
$DIMCLRE
 70
     0
  9
$DIMCLRT
 70
     0
  9
$DIMTFAC
 40
1.5
  9
$DIMGAP
 40
2.286
  9
$DIMJUST
 70
     0
  9
$DIMSD1
 70
     0
  9
$DIMSD2
 70
     0
  9
$DIMTOLJ
 70
     1
  9
$DIMTZIN
 70
     4
  9
$DIMALTZ
 70
     4
  9
$DIMALTTZ
 70
     4
  9
$DIMUPT
 70
     1
  9
$DIMDEC
 70
     2
  9
$DIMTDEC
 70
     2
  9
$DIMALTU
 70
     7
  9
$DIMALTTD
 70
     6
  9
$DIMTXSTY
  7
STANDARD
  9
$DIMAUNIT
 70
     0
  9
$DIMADEC
 70
     0
  9
$DIMALTRND
 40
0.0
  9
$DIMAZIN
 70
     0
  9
$DIMDSEP
 70
    46
  9
$DIMATFIT
 70
     2
  9
$DIMFRAC
 70
     2
  9
$DIMLDRBLK
  1

  9
$DIMLUNIT
 70
     2
  9
$DIMLWD
 70
    -2
  9
$DIMLWE
 70
    -2
  9
$DIMTMOVE
 70
     2
  9
$LUNITS
 70
     2
  9
$LUPREC
 70
     2
  9
$SKETCHINC
 40
0.1
  9
$FILLETRAD
 40
0.0
  9
$AUNITS
 70
     0
  9
$AUPREC
 70
     0
  9
$MENU
  1
ACAD
  9
$ELEVATION
 40
0.0
  9
$PELEVATION
 40
0.0
  9
$THICKNESS
 40
0.0
  9
$LIMCHECK
 70
     0
  9
$CHAMFERA
 40
0.0
  9
$CHAMFERB
 40
0.0
  9
$CHAMFERC
 40
0.0
  9
$CHAMFERD
 40
0.0
  9
$SKPOLY
 70
     0
  9
$TDCREATE
 40
2454543.468356331
  9
$TDUCREATE
 40
2454543.676689664
  9
$TDUPDATE
 40
2454631.581777488
  9
$TDUUPDATE
 40
2454631.790110822
  9
$TDINDWG
 40
0.0068514468
  9
$TDUSRTIMER
 40
0.0068509838
  9
$USRTIMER
 70
     1
  9
$ANGBASE
 50
0.0
  9
$ANGDIR
 70
     0
  9
$PDMODE
 70
     3
  9
$PDSIZE
 40
2.286
  9
$PLINEWID
 40
0.0
  9
$SPLFRAME
 70
     1
  9
$SPLINETYPE
 70
     6
  9
$SPLINESEGS
 70
     8
  9
$HANDSEED
  5
45E93
  9
$SURFTAB1
 70
     6
  9
$SURFTAB2
 70
     6
  9
$SURFTYPE
 70
     6
  9
$SURFU
 70
     6
  9
$SURFV
 70
     6
  9
$UCSBASE
  2

  9
$UCSNAME
  2

  9
$UCSORG
 10
0.0
 20
0.0
 30
0.0
  9
$UCSXDIR
 10
1.0
 20
0.0
 30
0.0
  9
$UCSYDIR
 10
0.0
 20
1.0
 30
0.0
  9
$UCSORTHOREF
  2

  9
$UCSORTHOVIEW
 70
     0
  9
$UCSORGTOP
 10
0.0
 20
0.0
 30
0.0
  9
$UCSORGBOTTOM
 10
0.0
 20
0.0
 30
0.0
  9
$UCSORGLEFT
 10
0.0
 20
0.0
 30
0.0
  9
$UCSORGRIGHT
 10
0.0
 20
0.0
 30
0.0
  9
$UCSORGFRONT
 10
0.0
 20
0.0
 30
0.0
  9
$UCSORGBACK
 10
0.0
 20
0.0
 30
0.0
  9
$PUCSBASE
  2

  9
$PUCSNAME
  2

  9
$PUCSORG
 10
0.0
 20
0.0
 30
0.0
  9
$PUCSXDIR
 10
1.0
 20
0.0
 30
0.0
  9
$PUCSYDIR
 10
0.0
 20
1.0
 30
0.0
  9
$PUCSORTHOREF
  2

  9
$PUCSORTHOVIEW
 70
     0
  9
$PUCSORGTOP
 10
0.0
 20
0.0
 30
0.0
  9
$PUCSORGBOTTOM
 10
0.0
 20
0.0
 30
0.0
  9
$PUCSORGLEFT
 10
0.0
 20
0.0
 30
0.0
  9
$PUCSORGRIGHT
 10
0.0
 20
0.0
 30
0.0
  9
$PUCSORGFRONT
 10
0.0
 20
0.0
 30
0.0
  9
$PUCSORGBACK
 10
0.0
 20
0.0
 30
0.0
  9
$USERI1
 70
     0
  9
$USERI2
 70
     0
  9
$USERI3
 70
     0
  9
$USERI4
 70
     0
  9
$USERI5
 70
     0
  9
$USERR1
 40
0.0
  9
$USERR2
 40
0.0
  9
$USERR3
 40
0.0
  9
$USERR4
 40
0.0
  9
$USERR5
 40
0.0
  9
$WORLDVIEW
 70
     1
  9
$SHADEDGE
 70
     3
  9
$SHADEDIF
 70
    70
  9
$TILEMODE
 70
     1
  9
$MAXACTVP
 70
    16
  9
$PINSBASE
 10
0.0
 20
0.0
 30
0.0
  9
$PLIMCHECK
 70
     0
  9
$PEXTMIN
 10
26.66076962115563
 20
20.31135699206658
 30
-0.0015258207003583
  9
$PEXTMAX
 10
240.039213369355
 20
182.8886381005154
 30
0.0000000349246037
  9
$PLIMMIN
 10
-6.350006103515625
 20
-6.349999904632567
  9
$PLIMMAX
 10
273.0499877929688
 20
209.5499939918518
  9
$UNITMODE
 70
     0
  9
$VISRETAIN
 70
     0
  9
$PLINEGEN
 70
     0
  9
$PSLTSCALE
 70
     1
  9
$TREEDEPTH
 70
  3020
  9
$CMLSTYLE
  2
STANDARD
  9
$CMLJUST
 70
     0
  9
$CMLSCALE
 40
1.0
  9
$PROXYGRAPHICS
 70
     1
  9
$MEASUREMENT
 70
     1
  9
$CELWEIGHT
370
    -1
  9
$ENDCAPS
280
     0
  9
$JOINSTYLE
280
     0
  9
$LWDISPLAY
290
     0
  9
$INSUNITS
 70
     0
  9
$HYPERLINKBASE
  1

  9
$STYLESHEET
  1

  9
$XEDIT
290
     1
  9
$CEPSNTYPE
380
     0
  9
$PSTYLEMODE
290
     1
  9
$FINGERPRINTGUID
  2
{EAEDEA11-BCC4-4E19-9D50-D922E8A1F8D7}
  9
$VERSIONGUID
  2
{46F18CA5-A177-47B2-B4B5-0B29B8C14DCD}
  9
$EXTNAMES
290
     1
  9
$PSVPSCALE
 40
0.0
  9
$OLESTARTUP
290
     0
  0
ENDSEC
  0
SECTION
  2
CLASSES
  0
CLASS
  1
DICTIONARYVAR
  2
AcDbDictionaryVar
  3
ObjectDBX Classes
 90
        0
280
     0
281
     0
  0
CLASS
  1
ACDBDICTIONARYWDFLT
  2
AcDbDictionaryWithDefault
  3
ObjectDBX Classes
 90
        0
280
     0
281
     0
  0
CLASS
  1
ACDBPLACEHOLDER
  2
AcDbPlaceHolder
  3
ObjectDBX Classes
 90
        0
280
     0
281
     0
  0
CLASS
  1
LAYOUT
  2
AcDbLayout
  3
ObjectDBX Classes
 90
        0
280
     0
281
     0
  0
CLASS
  1
TABLESTYLE
  2
AcDbTableStyle
  3
ObjectDBX Classes
 90
     2047
280
     0
281
     0
  0
CLASS
  1
ACME_DOCUMENT
  2
AcMeDbDoc
  3
AcMeServices
 90
        0
280
     0
281
     0
  0
CLASS
  1
AMGSETTINGSOBJ
  2
AmgSettingsObj
  3
"AcadM|Product Description: AutoCAD Mechanical 2000|Company: Autodesk"
 90
        0
280
     0
281
     0
  0
CLASS
  1
ACMESCOPE
  2
AcMeScope
  3
AcMeServices
 90
        0
280
     0
281
     0
  0
CLASS
  1
ACMECOMMANDHISTORY
  2
AcMeCommandHistory
  3
AcMeServices
 90
        0
280
     0
281
     0
  0
CLASS
  1
ACIMSYSVARMAN
  2
AcImSysVarManager
  3
AcMeServices
 90
        0
280
     0
281
     0
  0
CLASS
  1
ACIMINTSYSVAR
  2
AcImIntSysVar
  3
AcMeServices
 90
        0
280
     0
281
     0
  0
CLASS
  1
ACMEDRAWINGMAN
  2
AcMeDrawingMan
  3
AcMeServices
 90
        0
280
     0
281
     0
  0
CLASS
  1
ACMEVIEW
  2
AcMeView
  3
AcMeServices
 90
        0
280
     0
281
     0
  0
CLASS
  1
ACDBENTITYCACHE
  2
AcMeEntityCache
  3
AcMeServices
 90
        0
280
     0
281
     0
  0
CLASS
  1
GSMANAGER
  2
AcMeGSManager
  3
AcMeServices
 90
        0
280
     0
281
     0
  0
CLASS
  1
AMDTINTERNALREACTOR
  2
AmdtInternalReactor
  3
AcMeServices
 90
        0
280
     0
281
     0
  0
CLASS
  1
ACMESTATEMGR
  2
AcMeStateMgr
  3
AcMeServices
 90
        0
280
     0
281
     0
  0
CLASS
  1
ACGREFMASTER
  2
AcGrefMaster
  3
AcAttribServices
 90
        0
280
     0
281
     0
  0
CLASS
  1
AM_DRAWING_MGR
  2
AcDmDwgMgr
  3
AcMechDwgViewMgmt
 90
        0
280
     0
281
     0
  0
CLASS
  1
AM_DWG_DOCUMENT
  2
AcDmDwgDocument
  3
AcMechDwgViewMgmt
 90
        0
280
     0
281
     0
  0
CLASS
  1
AM_DWG_SHEET
  2
AcDmSheet
  3
AcMechDwgViewMgmt
 90
        0
280
     0
281
     0
  0
CLASS
  1
AM_VIEWDIMPARMAP
  2
AcDmViewDimParMap
  3
AcMechDwgViewMgmt
 90
        0
280
     0
281
     0
  0
CLASS
  1
ACIMREALSYSVAR
  2
AcImRealSysVar
  3
AcMeServices
 90
        0
280
     0
281
     0
  0
CLASS
  1
AM_DWGMGR_NAME
  2
AcDmDwgMgrName
  3
AcMechDwgViewMgmt
 90
        0
280
     0
281
     0
  0
CLASS
  1
ACME_DATABASE
  2
AcMeDbDatabase
  3
AcMeServices
 90
        0
280
     0
281
     0
  0
CLASS
  1
ACRFINSADJUSTERMGR
  2
AcRfInsAdjusterMgr
  3
AcMeServices
 90
        0
280
     0
281
     0
  0
CLASS
  1
ACGREFACADMASTER
  2
AcGrefacadMaster
  3
AcGrefServices
 90
        0
280
     0
281
     0
  0
CLASS
  1
AMDTMENUSTATEMGR
  2
AmdtMenuStateMgr
  3
McadcomServices
 90
        0
280
     0
281
     0
  0
CLASS
  1
AMDTMCOMMENUSTATE
  2
AmdtMcomMenuState
  3
McadcomServices
 90
        0
280
     0
281
     0
  0
CLASS
  1
AMIMASTER
  2
AmiMaster
  3
AmiServices
 90
        0
280
     0
281
     0
  0
CLASS
  1
MAPIAMMOUDLE
  2
MApiAmModule
  3
MApiAmServices
 90
        0
280
     0
281
     0
  0
CLASS
  1
ACIMSTRSYSVAR
  2
AcImStrSysVar
  3
AcMeServices
 90
        0
280
     0
281
     0
  0
CLASS
  1
AMDTADMENUSTATE
  2
AmdtAdMenuState
  3
DesignerServices
 90
        0
280
     0
281
     0
  0
CLASS
  1
ADAPPL
  2
AcAdAppl
  3
DesignerServices
 90
        0
280
     0
281
     0
  0
CLASS
  1
DEPMGR
  2
AcAdDepMgr
  3
DesignerServices
 90
        0
280
     0
281
     0
  0
CLASS
  1
PARAMMGR
  2
AcAdParamMgr
  3
DesignerServices
 90
        0
280
     0
281
     0
  0
CLASS
  1
PARAMSCOPE
  2
AcAdParamScope
  3
DesignerServices
 90
        0
280
     0
281
     0
  0
CLASS
  1
NAMEDAPPL
  2
AcAdNamedAppl
  3
DesignerServices
 90
        0
280
     0
281
     0
  0
CLASS
  1
AMDTDMMENUSTATE
  2
AmdtDmMenuState
  3
AcMechDwgViewMgmt
 90
        0
280
     0
281
     0
  0
CLASS
  1
AMDTAMMENUSTATE
  2
AmdtAmMenuState
  3
DesignerAssemblies
 90
        0
280
     0
281
     0
  0
CLASS
  1
ACAMPROJECT
  2
AcAmProject
  3
DesignerAssemblies
 90
        0
280
     0
281
     0
  0
CLASS
  1
ACAMGRCOMPDEF
  2
AcAmGrCompDef
  3
DesignerAssemblies
 90
        0
280
     0
281
     0
  0
CLASS
  1
ACCMCONTEXT
  2
AcCmContext
  3
DesignerAssemblies
 90
        0
280
     0
281
     0
  0
CLASS
  1
ACAMCOMPDEF
  2
AcAmCompDef
  3
DesignerAssemblies
 90
        0
280
     0
281
     0
  0
CLASS
  1
ACAMCOMPDEFMGR
  2
AcAmCompDefMgr
  3
DesignerAssemblies
 90
        0
280
     0
281
     0
  0
CLASS
  1
AMCONTEXTMGR
  2
AcAmContextMgr
  3
DesignerAssemblies
 90
        0
280
     0
281
     0
  0
CLASS
  1
ACAMCONTEXTMODELER
  2
AcAmContextModeler
  3
DesignerAssemblies
 90
        0
280
     0
281
     0
  0
CLASS
  1
ACMDATADICTIONARY
  2
AcmDataDictionary
  3
"AcmSymBB|Product Description: AutoCAD Mechanical 2004 DX|Company: Autodesk"
 90
        0
280
     0
281
     0
  0
CLASS
  1
CATALOGSTATE
  2
AcAmCatalogState
  3
DesignerAssemblies
 90
        0
280
     0
281
     0
  0
CLASS
  1
ACAMGRCOMPDEFSET
  2
AcAmGrCompDefSet
  3
DesignerAssemblies
 90
        0
280
     0
281
     0
  0
CLASS
  1
AMDTBROWSERDBTAB
  2
AmdtBrowserDbTab
  3
McadcomServices
 90
        0
280
     0
281
     0
  0
CLASS
  1
CBROWSERAPPOBJECT
  2
CBrowserAppObject
  3
McadcomServices
 90
        0
280
     0
281
     0
  0
CLASS
  1
DM_PLACEHOLDER
  2
AcDmSelsetPlaceholder
  3
AcMechDwgViewMgmt
 90
        0
280
     0
281
     0
  0
CLASS
  1
ACMSTANDARDISO
  2
AcmStandardISO
  3
"Amdt_StdImp|Product Description: AutoCAD Mechanical 2004 DX|Company: Autodesk"
 90
        0
280
     0
281
     0
  0
CLASS
  1
AMGOBJPROPCFG
  2
AmgObjPropCfg
  3
"AmgLay|Product Description: AutoCAD Mechanical 2000|Company: Autodesk"
 90
        1
280
     0
281
     0
  0
CLASS
  1
AMDTEDGESTANDARDISO13715
  2
AmdtEdgeStdISO13715
  3
"Amdt_StdImp|Product Description: AutoCAD Mechanical 2004 DX|Company: Autodesk"
 90
        0
280
     0
281
     0
  0
CLASS
  1
ACMSURFSTANDARDISO
  2
AcmSurfTextStdISO
  3
"Amdt_StdImp|Product Description: AutoCAD Mechanical 2004 DX|Company: Autodesk"
 90
        0
280
     0
281
     0
  0
CLASS
  1
ACMFCFSTANDARDISO
  2
AcmFCFStdISO
  3
"Amdt_StdImp|Product Description: AutoCAD Mechanical 2004 DX|Company: Autodesk"
 90
        0
280
     0
281
     0
  0
CLASS
  1
ACMWELDSTANDARDISO
  2
AcmWeldingStdISO
  3
"Amdt_StdImp|Product Description: AutoCAD Mechanical 2004 DX|Company: Autodesk"
 90
        0
280
     0
281
     0
  0
CLASS
  1
ACMIDSTANDARDISO
  2
AcmIdStdISO
  3
"Amdt_StdImp|Product Description: AutoCAD Mechanical 2004 DX|Company: Autodesk"
 90
        0
280
     0
281
     0
  0
CLASS
  1
ACMDATUMSTANDARDISO
  2
AcmDatumStdISO
  3
"Amdt_StdImp|Product Description: AutoCAD Mechanical 2004 DX|Company: Autodesk"
 90
        0
280
     0
281
     0
  0
CLASS
  1
ACMBOMSTANDARDISO
  2
AcmBOMStdISO
  3
"Amdt_StdImp|Product Description: AutoCAD Mechanical 2004 DX|Company: Autodesk"
 90
        0
280
     0
281
     0
  0
CLASS
  1
ACMDETAILSTANDARDISO
  2
AmdtDetailSymStdISO
  3
"Amdt_StdImp|Product Description: AutoCAD Mechanical 2004 DX|Company: Autodesk"
 90
        0
280
     0
281
     0
  0
CLASS
  1
ACMSECTIONSTANDARDISO
  2
AmdtSectionSymStdISO
  3
"Amdt_StdImp|Product Description: AutoCAD Mechanical 2004 DX|Company: Autodesk"
 90
        0
280
     0
281
     0
  0
CLASS
  1
ACMCENTERLINESTANDARDISO
  2
AmdtCenterLineStdISO
  3
"Amdt_StdImp|Product Description: AutoCAD Mechanical 2004 DX|Company: Autodesk"
 90
        0
280
     0
281
     0
  0
CLASS
  1
ACMTHREADLINESTANDARDISO
  2
AmdtThreadLineStdISO
  3
"Amdt_StdImp|Product Description: AutoCAD Mechanical 2004 DX|Company: Autodesk"
 90
        0
280
     0
281
     0
  0
CLASS
  1
ACMNOTESTANDARDISO
  2
AmdtNoteStdISO
  3
"Amdt_StdImp|Product Description: AutoCAD Mechanical 2004 DX|Company: Autodesk"
 90
        0
280
     0
281
     0
  0
CLASS
  1
AMDTNOTETEMPLATEDB
  2
AmdtNoteTemplateDB
  3
AMDT_STDIMP_MODULE_NAME
 90
        0
280
     0
281
     0
  0
CLASS
  1
ACAMGLAYSTD
  2
AcAmgLayStd
  3
"AcAmgLayStd|Product Description: AutoCAD Mechanical 2000|Company: Autodesk"
 90
        0
280
     0
281
     0
  0
CLASS
  1
ACAMGDIMSTD
  2
AcAmgDimStd
  3
"AcAmgDimStd|Product Description: AutoCAD Mechanical 2000|Company: Autodesk"
 90
        0
280
     0
281
     0
  0
CLASS
  1
ACAMGHOLECHARTSTDISO
  2
AcAmgHoleChartStdISO
  3
ACMSYMBB_MODULE_NAME
 90
        0
280
     0
281
     0
  0
CLASS
  1
ACAMGTITLESTD
  2
AcAmgTitleStd
  3
"TITLEAPP"
 90
        0
280
     0
281
     0
  0
CLASS
  1
ACAMGFILTERDAT
  2
AcAmgFilterDat
  3
"AcadM|Product Description: AutoCAD Mechanical 2000|Company: Autodesk"
 90
    32768
280
     0
281
     0
  0
CLASS
  1
SORTENTSTABLE
  2
AcDbSortentsTable
  3
ObjectDBX Classes
 90
    32768
280
     0
281
     0
  0
CLASS
  1
ACMDATAENTRYBLOCK
  2
AcmDataEntryBlock
  3
"AcmSymBB|Product Description: AutoCAD Mechanical 2004 DX|Company: Autodesk"
 90
    32768
280
     0
281
     0
  0
ENDSEC
  0
SECTION
  2
TABLES
  0
TABLE
  2
VPORT
  5
458C7
330
0
100
AcDbSymbolTable
 70
    35
  0
VPORT
  5
45E88
330
458C7
100
AcDbSymbolTableRecord
100
AcDbViewportTableRecord
  2
*Active
 70
     0
 10
0.0
 20
0.0
 11
1.0
 21
1.0
 12
191.8708065269531
 22
-108.4364076692427
 13
0.0
 23
0.0
 14
0.25
 24
0.25
 15
0.25
 25
0.25
 16
0.0
 26
0.0
 36
1.0
 17
0.0
 27
0.0
 37
0.0
 40
122.5357517417033
 41
1.978586723768736
 42
50.0
 43
0.0
 44
0.0
 50
0.0
 51
0.0
 71
     0
 72
 20000
 73
     1
 74
     1
 75
     0
 76
     0
 77
     0
 78
     0
281
     0
 65
     0
110
0.0
120
0.0
130
0.0
111
1.0
121
0.0
131
0.0
112
0.0
122
1.0
132
0.0
 79
     1
146
0.0
  0
ENDTAB
  0
TABLE
  2
LTYPE
  5
458C4
330
0
100
AcDbSymbolTable
 70
    14
  0
LTYPE
  5
458D0
330
458C4
100
AcDbSymbolTableRecord
100
AcDbLinetypeTableRecord
  2
BYBLOCK
 70
     0
  3

 72
    65
 73
     0
 40
0.0
  0
LTYPE
  5
458D1
330
458C4
100
AcDbSymbolTableRecord
100
AcDbLinetypeTableRecord
  2
BYLAYER
 70
     0
  3

 72
    65
 73
     0
 40
0.0
  0
LTYPE
  5
458D2
330
458C4
100
AcDbSymbolTableRecord
100
AcDbLinetypeTableRecord
  2
CONTINUOUS
 70
     0
  3
Solid line
 72
    65
 73
     0
 40
0.0
  0
LTYPE
  5
45A1F
330
458C4
100
AcDbSymbolTableRecord
100
AcDbLinetypeTableRecord
  2
HIDDEN
 70
     0
  3
Hidden __ __ __ __ __ __ __ __ __ __ __ __ __ _
 72
    65
 73
     2
 40
9.524999999999996
 49
6.349999999999998
 74
     0
 49
-3.174999999999998
 74
     0
  0
LTYPE
  5
45A20
330
458C4
100
AcDbSymbolTableRecord
100
AcDbLinetypeTableRecord
  2
PHANTOM2
 70
     0
  3
Phantom (.5x) ___ _ _ ___ _ _ ___ _ _ ___ _ _
 72
    65
 73
     6
 40
31.75
 49
15.875
 74
     0
 49
-3.174999999999998
 74
     0
 49
3.174999999999998
 74
     0
 49
-3.174999999999998
 74
     0
 49
3.174999999999998
 74
     0
 49
-3.174999999999998
 74
     0
  0
LTYPE
  5
45A21
330
458C4
100
AcDbSymbolTableRecord
100
AcDbLinetypeTableRecord
  2
CENTER
 70
     0
  3
Center ____ _ ____ _ ____ _ ____ _ ____ _ ____
 72
    65
 73
     4
 40
50.8
 49
31.75
 74
     0
 49
-6.349999999999998
 74
     0
 49
6.349999999999998
 74
     0
 49
-6.349999999999998
 74
     0
  0
LTYPE
  5
45A55
330
458C4
100
AcDbSymbolTableRecord
100
AcDbLinetypeTableRecord
  2
AM_ISO02W050
 70
     0
  3
__ __ __ __ __ __ __ __ __ __ __ __ __ __ __
 72
    65
 73
     2
 40
7.5
 49
6.0
 74
     0
 49
-1.5
 74
     0
  0
LTYPE
  5
45A56
330
458C4
100
AcDbSymbolTableRecord
100
AcDbLinetypeTableRecord
  2
AM_ISO08W050
 70
     0
  3
____ . ____ . ____ . ____ . ____ . ____ . ____
 72
    65
 73
     4
 40
18.0
 49
12.0
 74
     0
 49
-1.5
 74
     0
 49
3.0
 74
     0
 49
-1.5
 74
     0
  0
LTYPE
  5
45A57
330
458C4
100
AcDbSymbolTableRecord
100
AcDbLinetypeTableRecord
  2
AM_ISO09W050
 70
     0
  3
_____ . . _____ . . _____ . . ____ .. ____
 72
    65
 73
     6
 40
22.5
 49
12.0
 74
     0
 49
-1.5
 74
     0
 49
3.0
 74
     0
 49
-1.5
 74
     0
 49
3.0
 74
     0
 49
-1.5
 74
     0
  0
LTYPE
  5
45A58
330
458C4
100
AcDbSymbolTableRecord
100
AcDbLinetypeTableRecord
  2
Amconstr
 70
     0
  3
_______________________
 72
    65
 73
     2
 40
9999.0
 49
9999.0
 74
     0
 49
0.0
 74
     0
  0
LTYPE
  5
45A59
330
458C4
100
AcDbSymbolTableRecord
100
AcDbLinetypeTableRecord
  2
AM_ISO08W050x2
 70
     0
  3
__ . __ . __ . __ . __ . __
 72
    65
 73
     4
 40
9.0
 49
6.0
 74
     0
 49
-0.75
 74
     0
 49
1.5
 74
     0
 49
-0.75
 74
     0
  0
LTYPE
  5
45A5A
330
458C4
100
AcDbSymbolTableRecord
100
AcDbLinetypeTableRecord
  2
AM_ISO02W050x2
 70
     0
  3
 _ _ _ _ _ _ _ _ _ _ _ _
 72
    65
 73
     2
 40
3.75
 49
3.0
 74
     0
 49
-0.75
 74
     0
  0
LTYPE
  5
45A5D
330
458C4
100
AcDbSymbolTableRecord
100
AcDbLinetypeTableRecord
  2
Amzigzag
 70
     0
  3
/\/-/\/-/\/-/\/-/\/-/\/
 72
    65
 73
     2
 40
11.0001
 49
0.0001
 74
     4
 75
   136
340
45A5C
 46
0.04
 50
0.0
 44
0.0
 45
0.0
 49
-11.0
 74
     0
  0
LTYPE
  5
45A6C
330
458C4
100
AcDbSymbolTableRecord
100
AcDbLinetypeTableRecord
  2
ACISOWELD
 70
     0
  3
_ _ _ _ _
 72
    65
 73
     2
 40
2.0
 49
2.0
 74
     0
 49
-1.0
 74
     0
  0
LTYPE
  5
45A6D
330
458C4
100
AcDbSymbolTableRecord
100
AcDbLinetypeTableRecord
  2
ACISOTGB
 70
     0
  3
__ . . __ . .
 72
    65
 73
     6
 40
9.0
 49
4.0
 74
     0
 49
-1.0
 74
     0
 49
1.0
 74
     0
 49
-1.0
 74
     0
 49
1.0
 74
     0
 49
-1.0
 74
     0
  0
LTYPE
  5
45A6E
330
458C4
100
AcDbSymbolTableRecord
100
AcDbLinetypeTableRecord
  2
ACISOTGL
 70
     0
  3
_ _ _ _ _
 72
    65
 73
     2
 40
3.0
 49
2.0
 74
     0
 49
-1.0
 74
     0
  0
ENDTAB
  0
TABLE
  2
LAYER
  5
458C1
330
0
100
AcDbSymbolTable
 70
     3
  0
LAYER
  5
458CD
330
458C1
100
AcDbSymbolTableRecord
100
AcDbLayerTableRecord
  2
0
 70
     0
 62
     7
  6
CONTINUOUS
370
    -3
390
458FA
  0
LAYER
  5
45946
330
458C1
100
AcDbSymbolTableRecord
100
AcDbLayerTableRecord
  2
Defpoints
 70
     0
 62
     7
  6
CONTINUOUS
290
     0
370
    -3
390
458FA
  0
ENDTAB
  0
TABLE
  2
STYLE
  5
458C2
330
0
100
AcDbSymbolTable
 70
     4
  0
STYLE
  5
458CE
330
458C2
100
AcDbSymbolTableRecord
100
AcDbTextStyleTableRecord
  2
STANDARD
 70
     0
 40
0.0
 41
1.0
 50
0.0
 71
     0
 42
0.12
  3
txt
  4

  0
STYLE
  5
45A5C
330
458C2
100
AcDbSymbolTableRecord
100
AcDbTextStyleTableRecord
  2

 70
     1
 40
0.0
 41
1.0
 50
0.0
 71
     0
 42
0.12
  3
genltshp.shx
  4

  0
STYLE
  5
45A5E
330
458C2
100
AcDbSymbolTableRecord
100
AcDbTextStyleTableRecord
  2
ACISOTS
 70
     0
 40
1.0
 41
1.0
 50
0.0
 71
     0
 42
0.12
  3
isocp.shx
  4

  0
STYLE
  5
45A6B
330
458C2
100
AcDbSymbolTableRecord
100
AcDbTextStyleTableRecord
  2
ACISOGDT
 70
     0
 40
0.0
 41
1.0
 50
0.0
 71
     0
 42
0.12
  3
amgdt.shx
  4

  0
ENDTAB
  0
TABLE
  2
VIEW
  5
458C5
330
0
100
AcDbSymbolTable
 70
     0
  0
ENDTAB
  0
TABLE
  2
UCS
  5
458C6
330
0
100
AcDbSymbolTable
 70
     0
  0
ENDTAB
  0
TABLE
  2
APPID
  5
458C8
330
0
100
AcDbSymbolTable
 70
    14
  0
APPID
  5
458CF
330
458C8
100
AcDbSymbolTableRecord
100
AcDbRegAppTableRecord
  2
ACAD
 70
     0
  0
APPID
  5
459F2
330
458C8
100
AcDbSymbolTableRecord
100
AcDbRegAppTableRecord
  2
MCAD_NO_VIS
 70
     0
  0
APPID
  5
459F3
330
458C8
100
AcDbSymbolTableRecord
100
AcDbRegAppTableRecord
  2
ACAD_TEMP_GRAPHIC
 70
     0
  0
APPID
  5
45A23
330
458C8
100
AcDbSymbolTableRecord
100
AcDbRegAppTableRecord
  2
AD_DRAW
 70
     0
  0
APPID
  5
45A26
330
458C8
100
AcDbSymbolTableRecord
100
AcDbRegAppTableRecord
  2
ACATTRIBSERVICES
 70
     0
  0
APPID
  5
45A46
330
458C8
100
AcDbSymbolTableRecord
100
AcDbRegAppTableRecord
  2
DESIGNERASSEMBLIES
 70
     0
  0
APPID
  5
45A4C
330
458C8
100
AcDbSymbolTableRecord
100
AcDbRegAppTableRecord
  2
ACADM_DIM_EDIT
 70
     0
  0
APPID
  5
45A4D
330
458C8
100
AcDbSymbolTableRecord
100
AcDbRegAppTableRecord
  2
AMDT_DM_ADJ
 70
     0
  0
APPID
  5
45A7A
330
458C8
100
AcDbSymbolTableRecord
100
AcDbRegAppTableRecord
  2
ACAD_DSTYLE_DIMARC_LENGTH_SYMBOL
 70
     0
  0
APPID
  5
45A7B
330
458C8
100
AcDbSymbolTableRecord
100
AcDbRegAppTableRecord
  2
ACAD_DSTYLE_DIMJOGGED_JOGANGLE_SYMBOL
 70
     0
  0
APPID
  5
45D1B
330
458C8
100
AcDbSymbolTableRecord
100
AcDbRegAppTableRecord
  2
AcAecLayerStandard
 70
     0
  0
APPID
  5
45DDC
330
458C8
100
AcDbSymbolTableRecord
100
AcDbRegAppTableRecord
  2
GENIUS_GENSCREG_15
 70
     0
  0
APPID
  5
45DDD
330
458C8
100
AcDbSymbolTableRecord
100
AcDbRegAppTableRecord
  2
GENIUS_GENOBJ-N-SDF_13
 70
     0
  0
APPID
  5
45DDE
330
458C8
100
AcDbSymbolTableRecord
100
AcDbRegAppTableRecord
  2
GENIUS_GENODEF_13
 70
     0
  0
ENDTAB
  0
TABLE
  2
DIMSTYLE
  5
458C9
330
0
100
AcDbSymbolTable
 70
     9
100
AcDbDimStyleTable
 71
     1
340
458F6
  0
DIMSTYLE
105
458F6
330
458C9
100
AcDbSymbolTableRecord
100
AcDbDimStyleTableRecord
  2
ABECAD_3D
 70
     0
 41
4.572
 42
1.587499999999999
 43
9.525
 44
4.572
 73
     0
 78
     4
140
4.572
141
2.286
143
0.03937
146
1.5
147
2.286
170
     1
171
     6
271
     2
272
     2
273
     7
274
     6
276
     2
279
     2
284
     4
285
     4
286
     4
288
     1
289
     2
340
458CE
  0
DIMSTYLE
105
45A79
330
458C9
100
AcDbSymbolTableRecord
100
AcDbDimStyleTableRecord
  2
AM_ISO
 70
     0
  4
"
 41
2.5
 42
1.0
 43
10.0
 44
1.0
 47
0.1
 48
0.1
 73
     0
 74
     0
 77
     1
 78
     8
 79
     2
140
3.5
141
0.0
143
0.0393701
146
0.71
147
1.5
172
     1
176
   256
177
   256
178
     2
271
     2
272
     3
274
     4
283
     0
284
     8
340
458CE
371
    -1
372
    -1
1001
ACAD_DSTYLE_DIMARC_LENGTH_SYMBOL
1070
   379
1070
     1
1001
ACAD_DSTYLE_DIMJOGGED_JOGANGLE_SYMBOL
1070
   384
1040
0.7853981633974483
  0
DIMSTYLE
105
45A82
330
458C9
100
AcDbSymbolTableRecord
100
AcDbDimStyleTableRecord
  2
AM_ISO$3
 70
     0
  4
"
 41
2.5
 42
1.0
 43
10.0
 44
1.0
 47
0.1
 48
0.1
 73
     0
 77
     1
 78
     8
 79
     2
140
3.5
141
0.0
143
0.0393701
146
0.71
147
1.5
176
   256
177
   256
178
     2
271
     2
272
     3
274
     4
283
     0
284
     8
288
     1
289
     0
340
458CE
371
    -1
372
    -1
1001
ACAD_DSTYLE_DIMARC_LENGTH_SYMBOL
1070
   379
1070
     1
1001
ACAD_DSTYLE_DIMJOGGED_JOGANGLE_SYMBOL
1070
   384
1040
0.7853981633974483
  0
DIMSTYLE
105
45A85
330
458C9
100
AcDbSymbolTableRecord
100
AcDbDimStyleTableRecord
  2
AM_ISO$4
 70
     0
  4
"
 41
2.5
 42
1.0
 43
10.0
 44
1.0
 47
0.1
 48
0.1
 73
     0
 77
     1
 78
     8
 79
     2
140
3.5
141
0.0
143
0.0393701
146
0.71
147
1.5
176
   256
177
   256
178
     2
271
     2
272
     3
274
     4
283
     0
284
     8
288
     1
289
     0
340
458CE
371
    -1
372
    -1
1001
ACAD_DSTYLE_DIMARC_LENGTH_SYMBOL
1070
   379
1070
     1
1001
ACAD_DSTYLE_DIMJOGGED_JOGANGLE_SYMBOL
1070
   384
1040
0.7853981633974483
  0
DIMSTYLE
105
45A88
330
458C9
100
AcDbSymbolTableRecord
100
AcDbDimStyleTableRecord
  2
AM_ISO$6
 70
     0
  4
"
 41
2.5
 42
1.0
 43
10.0
 44
1.0
 47
0.1
 48
0.1
 73
     0
 74
     0
 78
     8
 79
     2
140
3.5
141
0.0
143
0.0393701
146
0.71
147
1.5
172
     1
176
   256
177
   256
178
     2
271
     2
272
     3
274
     4
283
     0
284
     8
340
458CE
371
    -1
372
    -1
1001
ACAD_DSTYLE_DIMARC_LENGTH_SYMBOL
1070
   379
1070
     1
1001
ACAD_DSTYLE_DIMJOGGED_JOGANGLE_SYMBOL
1070
   384
1040
0.7853981633974483
  0
DIMSTYLE
105
45A8B
330
458C9
100
AcDbSymbolTableRecord
100
AcDbDimStyleTableRecord
  2
AM_ISO$7
 70
     0
  4
"
 41
2.5
 42
1.0
 43
10.0
 44
1.0
 47
0.1
 48
0.1
 73
     0
 74
     0
 77
     1
 78
     8
 79
     2
140
5.0
141
0.0
143
0.0393701
146
0.71
147
1.5
172
     1
176
   256
177
   256
178
     2
271
     2
272
     3
274
     4
283
     0
284
     8
340
458CE
371
    -1
372
    -1
1001
ACAD_DSTYLE_DIMARC_LENGTH_SYMBOL
1070
   379
1070
     1
1001
ACAD_DSTYLE_DIMJOGGED_JOGANGLE_SYMBOL
1070
   384
1040
0.7853981633974483
  0
DIMSTYLE
105
45A8E
330
458C9
100
AcDbSymbolTableRecord
100
AcDbDimStyleTableRecord
  2
AM_ISO$SF
 70
     0
  4
"
 41
2.5
 42
1.0
 43
10.0
 44
1.0
 47
0.1
 48
0.1
 73
     0
 74
     0
 75
     1
 76
     1
 77
     1
 78
     8
 79
     2
140
3.5
141
0.0
143
0.0393701
146
0.71
147
1.5
172
     1
176
   256
177
   256
178
     2
271
     2
272
     3
274
     4
283
     0
284
     8
340
458CE
371
    -1
372
    -1
1001
ACAD_DSTYLE_DIMARC_LENGTH_SYMBOL
1070
   379
1070
     1
1001
ACAD_DSTYLE_DIMJOGGED_JOGANGLE_SYMBOL
1070
   384
1040
0.7853981633974483
  0
DIMSTYLE
105
45A95
330
458C9
100
AcDbSymbolTableRecord
100
AcDbDimStyleTableRecord
  2
AM_ISO$SH
 70
     0
  4
"
 41
2.5
 42
1.0
 43
10.0
 44
1.0
 47
0.1
 48
0.1
 73
     0
 74
     0
 75
     1
 76
     1
 77
     1
 78
     8
 79
     2
140
3.5
141
0.0
143
0.0393701
144
2.0
146
0.71
147
1.5
172
     1
173
     1
176
   256
177
   256
178
     2
271
     2
272
     3
274
     4
283
     0
284
     8
340
458CE
343
45A8F
371
    -1
372
    -1
1001
ACAD_DSTYLE_DIMARC_LENGTH_SYMBOL
1070
   379
1070
     1
1001
ACAD_DSTYLE_DIMJOGGED_JOGANGLE_SYMBOL
1070
   384
1040
0.7853981633974483
  0
DIMSTYLE
105
45E20
102
{ACAD_REACTORS
330
45E24
330
45E54
102
}
330
458C9
100
AcDbSymbolTableRecord
100
AcDbDimStyleTableRecord
  2
ABECAD_3D$0
 70
     0
 41
4.572
 42
1.587499999999999
 43
9.525
 44
4.572
 73
     0
 78
     4
140
4.572
141
2.286
143
0.03937
146
1.5
147
2.286
170
     1
171
     6
271
     2
272
     2
273
     7
274
     6
276
     2
279
     2
284
     4
285
     4
286
     4
288
     1
289
     2
340
458CE
  0
ENDTAB
  0
TABLE
  2
BLOCK_RECORD
  5
458C0
330
0
100
AcDbSymbolTable
 70
     4
  0
BLOCK_RECORD
  5
458D6
102
{ACAD_XDICTIONARY
360
45930
102
}
330
458C0
100
AcDbSymbolTableRecord
100
AcDbBlockTableRecord
  2
*MODEL_SPACE
340
458FD
  0
BLOCK_RECORD
  5
458D3
102
{ACAD_XDICTIONARY
360
4592E
102
}
330
458C0
100
AcDbSymbolTableRecord
100
AcDbBlockTableRecord
  2
*PAPER_SPACE
340
458FE
  0
BLOCK_RECORD
  5
45A8F
330
458C0
100
AcDbSymbolTableRecord
100
AcDbBlockTableRecord
  2
GENAXEH
340
0
  0
BLOCK_RECORD
  5
45E25
330
458C0
100
AcDbSymbolTableRecord
100
AcDbBlockTableRecord
  2
*D2
340
0
  0
BLOCK_RECORD
  5
45E55
330
458C0
100
AcDbSymbolTableRecord
100
AcDbBlockTableRecord
  2
*D3
340
0
  0
ENDTAB
  0
ENDSEC
  0
SECTION
  2
BLOCKS
  0
BLOCK
  5
458DF
330
458D6
100
AcDbEntity
  8
0
100
AcDbBlockBegin
  2
*MODEL_SPACE
 70
     0
 10
0.0
 20
0.0
 30
0.0
  3
*MODEL_SPACE
  1

  0
ENDBLK
  5
458E0
330
458D6
100
AcDbEntity
  8
0
100
AcDbBlockEnd
  0
BLOCK
  5
458DD
330
458D3
100
AcDbEntity
 67
     1
  8
0
100
AcDbBlockBegin
  2
*PAPER_SPACE
 70
     0
 10
0.0
 20
0.0
 30
0.0
  3
*PAPER_SPACE
  1

  0
ENDBLK
  5
458DE
330
458D3
100
AcDbEntity
 67
     1
  8
0
100
AcDbBlockEnd
  0
BLOCK
  5
45A91
330
45A8F
100
AcDbEntity
  8
0
100
AcDbBlockBegin
  2
GENAXEH
 70
     0
 10
0.0
 20
0.0
 30
0.0
  3
GENAXEH
  1

  0
LINE
  5
45A90
330
45A8F
100
AcDbEntity
  8
0
100
AcDbLine
 10
-1.0
 20
0.0
 30
0.0
 11
1.0
 21
0.0
 31
0.0
  0
ENDBLK
  5
45A92
330
45A8F
100
AcDbEntity
  8
0
100
AcDbBlockEnd
  0
BLOCK
  5
45E30
330
45E25
100
AcDbEntity
  8
0
100
AcDbBlockBegin
  2
*D2
 70
     1
 10
0.0
 20
0.0
 30
0.0
  3
*D2
  1

  0
LINE
  5
45E76
330
45E25
100
AcDbEntity
  8
0
 62
     0
370
    -2
100
AcDbLine
 10
136.1293378873478
 20
-80.39234829341044
 30
0.0
 11
136.1293378873478
 21
-65.80836980516998
 31
0.0
  0
LINE
  5
45E77
330
45E25
100
AcDbEntity
  8
0
 62
     0
370
    -2
100
AcDbLine
 10
241.7723757286857
 20
-80.39234829341044
 30
0.0
 11
241.7723757286857
 21
-65.80836980516998
 31
0.0
  0
LINE
  5
45E78
330
45E25
100
AcDbEntity
  8
0
 62
     0
370
    -2
100
AcDbLine
 10
140.7013378873478
 20
-70.38036980516999
 30
0.0
 11
237.2003757286857
 21
-70.38036980516999
 31
0.0
  0
MTEXT
  5
45E79
330
45E25
100
AcDbEntity
  8
0
 62
     0
100
AcDbMText
 10
188.9508568080167
 20
-57.66536980516999
 30
0.0
 40
7.0
 41
0.0
 71
     5
 72
     1
  1
\A1;105.64 [4 5/32]
 73
     1
 44
1.0
1001
ACAD
1000
MTEXTBEGIN
1070
    73
1070
     1
1070
    44
1040
1.0
1070
    74
1070
     0
1000
MTEXTEND
  0
SOLID
  5
45E7A
330
45E25
100
AcDbEntity
  8
0
 62
     0
100
AcDbTrace
 10
140.7013378873478
 20
-69.61836980516999
 30
0.0
 11
140.7013378873478
 21
-71.14236980516999
 31
0.0
 12
136.1293378873478
 22
-70.38036980516999
 32
0.0
 13
136.1293378873478
 23
-70.38036980516999
 33
0.0
  0
SOLID
  5
45E7B
330
45E25
100
AcDbEntity
  8
0
 62
     0
100
AcDbTrace
 10
237.2003757286857
 20
-69.61836980516999
 30
0.0
 11
237.2003757286857
 21
-71.14236980516999
 31
0.0
 12
241.7723757286857
 22
-70.38036980516999
 32
0.0
 13
241.7723757286857
 23
-70.38036980516999
 33
0.0
  0
POINT
  5
45E7C
330
45E25
100
AcDbEntity
  8
Defpoints
 62
     0
100
AcDbPoint
 10
136.1293378873478
 20
-81.97984829341043
 30
0.0
  0
POINT
  5
45E7D
330
45E25
100
AcDbEntity
  8
Defpoints
 62
     0
100
AcDbPoint
 10
241.7723757286857
 20
-81.97984829341043
 30
0.0
  0
POINT
  5
45E7E
330
45E25
100
AcDbEntity
  8
Defpoints
 62
     0
100
AcDbPoint
 10
241.7723757286857
 20
-70.38036980516999
 30
0.0
  0
ENDBLK
  5
45E31
330
45E25
100
AcDbEntity
  8
0
100
AcDbBlockEnd
  0
BLOCK
  5
45E5F
330
45E55
100
AcDbEntity
  8
0
100
AcDbBlockBegin
  2
*D3
 70
     1
 10
0.0
 20
0.0
 30
0.0
  3
*D3
  1

  0
LINE
  5
45E7F
330
45E55
100
AcDbEntity
  8
0
 62
     0
370
    -2
100
AcDbLine
 10
243.3598757286857
 20
-81.97984829341043
 30
0.0
 11
258.3443757286858
 21
-81.97984829341043
 31
0.0
  0
LINE
  5
45E80
330
45E55
100
AcDbEntity
  8
0
 62
     0
370
    -2
100
AcDbLine
 10
243.3598757286857
 20
-157.5647650298783
 30
0.0
 11
258.3443757286857
 21
-157.5647650298783
 31
0.0
  0
LINE
  5
45E81
330
45E55
100
AcDbEntity
  8
0
 62
     0
370
    -2
100
AcDbLine
 10
253.7723757286857
 20
-86.55184829341044
 30
0.0
 11
253.7723757286857
 21
-152.9927650298783
 31
0.0
  0
MTEXT
  5
45E82
330
45E55
100
AcDbEntity
  8
0
 62
     0
100
AcDbMText
 10
263.7398027903361
 20
-119.7723066616443
 30
0.0
 40
7.0
 41
0.0
 71
     5
 72
     1
  1
\A1;75.58 [2 31/32]
 11
0.0000000000000001
 21
1.0
 31
0.0
 73
     1
 44
1.0
1001
ACAD
1000
MTEXTBEGIN
1070
    73
1070
     1
1070
    44
1040
1.0
1070
    74
1070
     0
1000
MTEXTEND
  0
SOLID
  5
45E83
330
45E55
100
AcDbEntity
  8
0
 62
     0
100
AcDbTrace
 10
253.0103757286857
 20
-86.55184829341044
 30
0.0
 11
254.5343757286857
 21
-86.55184829341044
 31
0.0
 12
253.7723757286857
 22
-81.97984829341043
 32
0.0
 13
253.7723757286857
 23
-81.97984829341043
 33
0.0
  0
SOLID
  5
45E84
330
45E55
100
AcDbEntity
  8
0
 62
     0
100
AcDbTrace
 10
253.0103757286857
 20
-152.9927650298783
 30
0.0
 11
254.5343757286857
 21
-152.9927650298783
 31
0.0
 12
253.7723757286857
 22
-157.5647650298783
 32
0.0
 13
253.7723757286857
 23
-157.5647650298783
 33
0.0
  0
POINT
  5
45E85
330
45E55
100
AcDbEntity
  8
Defpoints
 62
     0
100
AcDbPoint
 10
241.7723757286857
 20
-81.97984829341043
 30
0.0
  0
POINT
  5
45E86
330
45E55
100
AcDbEntity
  8
Defpoints
 62
     0
100
AcDbPoint
 10
241.7723757286857
 20
-157.5647650298783
 30
0.0
  0
POINT
  5
45E87
330
45E55
100
AcDbEntity
  8
Defpoints
 62
     0
100
AcDbPoint
 10
253.7723757286857
 20
-157.5647650298783
 30
0.0
  0
ENDBLK
  5
45E60
330
45E55
100
AcDbEntity
  8
0
100
AcDbBlockEnd
  0
ENDSEC
  0
SECTION
  2
ENTITIES
  0
LINE
  5
45BE1
330
458D6
100
AcDbEntity
  8
0
100
AcDbLine
 10
141.1817492384495
 20
-149.4282514644563
 30
-47.81220490584312
 11
139.8653641469714
 21
-148.9894564339636
 31
-47.81220490584312
  0
LINE
  5
45BE2
330
458D6
100
AcDbEntity
  8
0
100
AcDbLine
 10
139.8653641469714
 20
-148.9894564339636
 30
-47.81220490584312
 11
138.7683765707395
 21
-147.8924688577318
 31
-47.81220490584312
  0
LINE
  5
45BE3
330
458D6
100
AcDbEntity
  8
0
100
AcDbLine
 10
138.7683765707395
 20
-147.8924688577318
 30
-47.81220490584312
 11
138.5489790554933
 21
-146.5760837662537
 31
-47.81220490584312
  0
LINE
  5
45BE4
330
458D6
100
AcDbEntity
  8
0
100
AcDbLine
 10
138.5489790554933
 20
-146.5760837662537
 30
-47.81220490584312
 11
138.7683765707395
 21
-145.2534301743399
 31
-47.81220490584312
  0
LINE
  5
45BE5
330
458D6
100
AcDbEntity
  8
0
100
AcDbLine
 10
138.7683765707395
 20
-145.2534301743399
 30
-47.81220490584312
 11
139.8653641469714
 21
-144.1564425981081
 31
-47.81220490584312
  0
LINE
  5
45BE6
330
458D6
100
AcDbEntity
  8
0
100
AcDbLine
 10
139.8653641469714
 20
-144.1564425981081
 30
-47.81220490584312
 11
141.1817492384495
 21
-143.9370450828618
 31
-47.81220490584312
  0
LINE
  5
45BE7
330
458D6
100
AcDbEntity
  8
0
100
AcDbLine
 10
141.1817492384495
 20
-143.9370450828618
 30
-47.81220490584312
 11
142.9369293604203
 21
-143.9370450828618
 31
-47.81220490584312
  0
LINE
  5
45BE8
330
458D6
100
AcDbEntity
  8
0
100
AcDbLine
 10
142.9369293604203
 20
-143.9370450828618
 30
-47.81220490584312
 11
144.6983779828268
 21
-141.956198945209
 31
-47.81220490584312
  0
LINE
  5
45BE9
330
458D6
100
AcDbEntity
  8
0
100
AcDbLine
 10
144.6983779828268
 20
-141.956198945209
 30
-47.81220490584312
 11
147.1117506505368
 21
-141.0786088842235
 31
-47.81220490584312
  0
LINE
  5
45BEA
330
458D6
100
AcDbEntity
  8
0
100
AcDbLine
 10
147.1117506505368
 20
-141.0786088842235
 30
-47.81220490584312
 11
149.7445208334929
 21
-141.5174039147163
 31
-47.81220490584312
  0
LINE
  5
45BEB
330
458D6
100
AcDbEntity
  8
0
100
AcDbLine
 10
149.7445208334929
 20
-141.5174039147163
 30
-47.81220490584312
 11
151.9447644863921
 21
-143.0531865214407
 31
-47.81220490584312
  0
LINE
  5
45BEC
330
458D6
100
AcDbEntity
  8
0
100
AcDbLine
 10
151.9447644863921
 20
-143.0531865214407
 30
-47.81220490584312
 11
153.0417520626239
 21
-145.2534301743399
 31
-47.81220490584312
  0
LINE
  5
45BED
330
458D6
100
AcDbEntity
  8
0
100
AcDbLine
 10
153.0417520626239
 20
-145.2534301743399
 30
-47.81220490584312
 11
153.0417520626239
 21
-147.8924688577318
 31
-47.81220490584312
  0
LINE
  5
45BEE
330
458D6
100
AcDbEntity
  8
0
100
AcDbLine
 10
153.0417520626239
 20
-147.8924688577318
 30
-47.81220490584312
 11
151.9447644863921
 21
-150.092712510631
 31
-47.81220490584312
  0
LINE
  5
45BEF
330
458D6
100
AcDbEntity
  8
0
100
AcDbLine
 10
151.9447644863921
 20
-150.092712510631
 30
-47.81220490584312
 11
149.7445208334929
 21
-151.6284951173554
 31
-47.81220490584312
  0
LINE
  5
45BF0
330
458D6
100
AcDbEntity
  8
0
100
AcDbLine
 10
149.7445208334929
 20
-151.6284951173554
 30
-47.81220490584312
 11
147.1117506505368
 21
-152.0672901478482
 31
-47.81220490584312
  0
LINE
  5
45BF1
330
458D6
100
AcDbEntity
  8
0
100
AcDbLine
 10
147.1117506505368
 20
-152.0672901478482
 30
-47.81220490584312
 11
144.6983779828268
 21
-151.1897000868628
 31
-47.81220490584312
  0
LINE
  5
45BF2
330
458D6
100
AcDbEntity
  8
0
100
AcDbLine
 10
144.6983779828268
 20
-151.1897000868628
 30
-47.81220490584312
 11
142.9369293604203
 21
-149.4282514644563
 31
-47.81220490584312
  0
LINE
  5
45BF3
330
458D6
100
AcDbEntity
  8
0
100
AcDbLine
 10
142.9369293604203
 20
-149.4282514644563
 30
-47.81220490584312
 11
141.1817492384495
 21
-149.4282514644563
 31
-47.81220490584312
  0
LINE
  5
45BF4
330
458D6
100
AcDbEntity
  8
0
100
AcDbLine
 10
141.1817492384495
 20
-149.4282514644563
 30
-47.81220490584312
 11
141.1817492384495
 21
-143.9370450828618
 31
-47.81220490584312
  0
LINE
  5
45BF5
330
458D6
100
AcDbEntity
  8
0
100
AcDbLine
 10
141.1817492384495
 20
-143.9370450828618
 30
-47.81220490584312
 11
142.4981343299276
 21
-148.9894564339636
 31
-47.81220490584312
  0
LINE
  5
45BF6
330
458D6
100
AcDbEntity
  8
0
100
AcDbLine
 10
142.4981343299276
 20
-148.9894564339636
 30
-47.81220490584312
 11
143.5951219061595
 21
-147.8924688577318
 31
-47.81220490584312
  0
LINE
  5
45BF7
330
458D6
100
AcDbEntity
  8
0
100
AcDbLine
 10
143.5951219061595
 20
-147.8924688577318
 30
-47.81220490584312
 11
144.0339169366521
 21
-146.5760837662537
 31
-47.81220490584312
  0
LINE
  5
45BF8
330
458D6
100
AcDbEntity
  8
0
100
AcDbLine
 10
144.0339169366521
 20
-146.5760837662537
 30
-47.81220490584312
 11
143.5951219061595
 21
-145.2534301743399
 31
-47.81220490584312
  0
LINE
  5
45BF9
330
458D6
100
AcDbEntity
  8
0
100
AcDbLine
 10
143.5951219061595
 20
-145.2534301743399
 30
-47.81220490584312
 11
142.9369293604203
 21
-144.5952376286009
 31
-47.81220490584312
  0
LINE
  5
45BFA
330
458D6
100
AcDbEntity
  8
0
100
AcDbLine
 10
142.9369293604203
 20
-144.5952376286009
 30
-47.81220490584312
 11
142.9369293604203
 21
-144.3758401133545
 31
-47.81220490584312
  0
LINE
  5
45BFB
330
458D6
100
AcDbEntity
  8
0
100
AcDbLine
 10
142.9369293604203
 20
-144.3758401133545
 30
-47.81220490584312
 11
142.4981343299276
 21
-144.1564425981081
 31
-47.81220490584312
  0
LINE
  5
45BFC
330
458D6
100
AcDbEntity
  8
0
100
AcDbLine
 10
142.4981343299276
 20
-144.1564425981081
 30
-47.81220490584312
 11
142.0593392994348
 21
-143.9370450828618
 31
-47.81220490584312
  0
LINE
  5
45BFD
330
458D6
100
AcDbEntity
  8
0
100
AcDbLine
 10
142.0593392994348
 20
-143.9370450828618
 30
-47.81220490584312
 11
141.8399417841885
 21
-143.9370450828618
 31
-47.81220490584312
  0
LINE
  5
45BFE
330
458D6
100
AcDbEntity
  8
0
100
AcDbLine
 10
141.8399417841885
 20
-143.9370450828618
 30
-47.81220490584312
 11
141.6205442689422
 21
-143.9370450828618
 31
-47.81220490584312
  0
LINE
  5
45BFF
330
458D6
100
AcDbEntity
  8
0
100
AcDbLine
 10
141.6205442689422
 20
-143.9370450828618
 30
-47.81220490584312
 11
141.4011467536958
 21
-143.9370450828618
 31
-47.81220490584312
  0
LINE
  5
45C00
330
458D6
100
AcDbEntity
  8
0
100
AcDbLine
 10
142.9369293604203
 20
-149.2088539492099
 30
-47.81220490584312
 11
142.9369293604203
 21
-143.9370450828618
 31
-47.81220490584312
  0
LINE
  5
45C01
330
458D6
100
AcDbEntity
  8
0
100
AcDbLine
 10
142.9369293604203
 20
-143.9370450828618
 30
-47.81220490584312
 11
142.9369293604203
 21
-149.2088539492099
 31
-47.81220490584312
  0
LINE
  5
45C02
330
458D6
100
AcDbEntity
  8
0
100
AcDbLine
 10
142.9369293604203
 20
-149.2088539492099
 30
-47.81220490584312
 11
142.9369293604203
 21
-143.9370450828618
 31
-47.81220490584312
  0
LINE
  5
45C03
330
458D6
100
AcDbEntity
  8
0
100
AcDbLine
 10
142.9369293604203
 20
-143.9370450828618
 30
-47.81220490584312
 11
142.9369293604203
 21
-149.2088539492099
 31
-47.81220490584312
  0
LINE
  5
45C04
330
458D6
100
AcDbEntity
  8
0
100
AcDbLine
 10
142.9369293604203
 20
-143.9370450828618
 30
-47.81220490584312
 11
142.9369293604203
 21
-149.2088539492099
 31
-47.81220490584312
  0
LINE
  5
45C05
330
458D6
100
AcDbEntity
  8
0
100
AcDbLine
 10
142.9369293604203
 20
-149.2088539492099
 30
-47.81220490584312
 11
142.9369293604203
 21
-143.9370450828618
 31
-47.81220490584312
  0
LINE
  5
45C06
330
458D6
100
AcDbEntity
  8
0
100
AcDbLine
 10
142.9369293604203
 20
-143.9370450828618
 30
-47.81220490584312
 11
142.9369293604203
 21
-149.2088539492099
 31
-47.81220490584312
  0
LINE
  5
45C07
330
458D6
100
AcDbEntity
  8
0
100
AcDbLine
 10
142.9369293604203
 20
-149.2088539492099
 30
-47.81220490584312
 11
142.9369293604203
 21
-143.9370450828618
 31
-47.81220490584312
  0
LINE
  5
45C08
330
458D6
100
AcDbEntity
  8
0
100
AcDbLine
 10
142.9369293604203
 20
-143.9370450828618
 30
-47.81220490584312
 11
142.9369293604203
 21
-143.9370450828618
 31
-47.81220490584312
  0
LINE
  5
45C09
330
458D6
100
AcDbEntity
  8
0
100
AcDbLine
 10
142.9369293604203
 20
-143.9370450828618
 30
-47.81220490584312
 11
142.9369293604203
 21
-149.4282514644563
 31
-47.81220490584312
  0
LINE
  5
45C0A
330
458D6
100
AcDbEntity
  8
0
100
AcDbLine
 10
142.9369293604203
 20
-149.4282514644563
 30
-47.81220490584312
 11
142.7175318451739
 21
-144.1564425981081
 31
-47.81220490584312
  0
LINE
  5
45C0B
330
458D6
100
AcDbEntity
  8
0
100
AcDbLine
 10
142.7175318451739
 20
-144.1564425981081
 30
-47.81220490584312
 11
142.2787368146813
 21
-145.6922252048326
 31
-47.81220490584312
  0
LINE
  5
45C0C
330
458D6
100
AcDbEntity
  8
0
100
AcDbLine
 10
142.2787368146813
 20
-145.6922252048326
 30
-47.81220490584312
 11
142.2787368146813
 21
-147.4536738272391
 31
-47.81220490584312
  0
LINE
  5
45C0D
330
458D6
100
AcDbEntity
  8
0
100
AcDbLine
 10
142.2787368146813
 20
-147.4536738272391
 30
-47.81220490584312
 11
142.4981343299276
 21
-148.1118663729781
 31
-47.81220490584312
  0
LINE
  5
45C0E
330
458D6
100
AcDbEntity
  8
0
100
AcDbLine
 10
142.4981343299276
 20
-148.1118663729781
 30
-47.81220490584312
 11
142.4981343299276
 21
-148.3312638882245
 31
-47.81220490584312
  0
LINE
  5
45C0F
330
458D6
100
AcDbEntity
  8
0
100
AcDbLine
 10
142.4981343299276
 20
-148.3312638882245
 30
-47.81220490584312
 11
142.7175318451739
 21
-148.5506614034709
 31
-47.81220490584312
  0
LINE
  5
45C10
330
458D6
100
AcDbEntity
  8
0
100
AcDbLine
 10
142.7175318451739
 20
-148.5506614034709
 30
-47.81220490584312
 11
142.7175318451739
 21
-148.7700589187172
 31
-47.81220490584312
  0
LINE
  5
45C11
330
458D6
100
AcDbEntity
  8
0
100
AcDbLine
 10
142.7175318451739
 20
-148.7700589187172
 30
-47.81220490584312
 11
142.7175318451739
 21
-148.9894564339636
 31
-47.81220490584312
  0
LINE
  5
45C12
330
458D6
100
AcDbEntity
  8
0
100
AcDbLine
 10
142.7175318451739
 20
-148.9894564339636
 30
-47.81220490584312
 11
142.9369293604203
 21
-148.9894564339636
 31
-47.81220490584312
  0
LINE
  5
45C13
330
458D6
100
AcDbEntity
  8
0
100
AcDbLine
 10
142.9369293604203
 20
-148.9894564339636
 30
-47.81220490584312
 11
142.9369293604203
 21
-149.2088539492099
 31
-47.81220490584312
  0
LINE
  5
45C14
330
458D6
100
AcDbEntity
  8
0
100
AcDbLine
 10
228.5959878130333
 20
-129.6448640896707
 30
-47.81220490584312
 11
240.017195606715
 21
-126.7864278910324
 31
-47.81220490584312
  0
LINE
  5
45C15
330
458D6
100
AcDbEntity
  8
0
100
AcDbLine
 10
240.017195606715
 20
-126.7864278910324
 30
-47.81220490584312
 11
240.8947856677004
 21
-126.3476328605397
 31
-47.81220490584312
  0
LINE
  5
45C16
330
458D6
100
AcDbEntity
  8
0
100
AcDbLine
 10
240.8947856677004
 20
-126.3476328605397
 30
-47.81220490584312
 11
241.5529782134395
 21
-125.4700427995543
 31
-47.81220490584312
  0
LINE
  5
45C17
330
458D6
100
AcDbEntity
  8
0
100
AcDbLine
 10
241.5529782134395
 20
-125.4700427995543
 30
-47.81220490584312
 11
241.7723757286857
 21
-124.3667867228869
 31
-47.81220490584312
  0
LINE
  5
45C18
330
458D6
100
AcDbEntity
  8
0
100
AcDbLine
 10
241.7723757286857
 20
-124.3667867228869
 30
-47.81220490584312
 11
241.7723757286857
 21
-115.5720806117258
 31
-47.81220490584312
  0
LINE
  5
45C19
330
458D6
100
AcDbEntity
  8
0
100
AcDbLine
 10
241.7723757286857
 20
-115.5720806117258
 30
-47.81220490584312
 11
241.5529782134395
 21
-114.4750930354941
 31
-47.81220490584312
  0
LINE
  5
45C1A
330
458D6
100
AcDbEntity
  8
0
100
AcDbLine
 10
241.5529782134395
 20
-114.4750930354941
 30
-47.81220490584312
 11
240.8947856677004
 21
-113.5975029745086
 31
-47.81220490584312
  0
LINE
  5
45C1B
330
458D6
100
AcDbEntity
  8
0
100
AcDbLine
 10
240.8947856677004
 20
-113.5975029745086
 30
-47.81220490584312
 11
240.017195606715
 21
-113.1587079440159
 31
-47.81220490584312
  0
LINE
  5
45C1C
330
458D6
100
AcDbEntity
  8
0
100
AcDbLine
 10
240.017195606715
 20
-113.1587079440159
 30
-47.81220490584312
 11
228.5959878130333
 21
-110.519669260624
 31
-47.81220490584312
  0
LINE
  5
45C1D
330
458D6
100
AcDbEntity
  8
0
100
AcDbLine
 10
233.4227331484531
 20
-122.3922090856697
 30
-47.81220490584312
 11
234.7453867403669
 21
-122.8310041161624
 31
-47.81220490584312
  0
LINE
  5
45C1E
330
458D6
100
AcDbEntity
  8
0
100
AcDbLine
 10
234.7453867403669
 20
-122.8310041161624
 30
-47.81220490584312
 11
236.2811693470912
 21
-122.3922090856697
 31
-47.81220490584312
  0
LINE
  5
45C1F
330
458D6
100
AcDbEntity
  8
0
100
AcDbLine
 10
236.2811693470912
 20
-122.3922090856697
 30
-47.81220490584312
 11
237.1587594080768
 21
-121.2889530090023
 31
-47.81220490584312
  0
LINE
  5
45C20
330
458D6
100
AcDbEntity
  8
0
100
AcDbLine
 10
237.1587594080768
 20
-121.2889530090023
 30
-47.81220490584312
 11
237.5975544385695
 21
-119.9725679175242
 31
-47.81220490584312
  0
LINE
  5
45C21
330
458D6
100
AcDbEntity
  8
0
100
AcDbLine
 10
237.5975544385695
 20
-119.9725679175242
 30
-47.81220490584312
 11
237.1587594080768
 21
-118.6499143256104
 31
-47.81220490584312
  0
LINE
  5
45C22
330
458D6
100
AcDbEntity
  8
0
100
AcDbLine
 10
237.1587594080768
 20
-118.6499143256104
 30
-47.81220490584312
 11
236.2811693470912
 21
-117.5529267493787
 31
-47.81220490584312
  0
LINE
  5
45C23
330
458D6
100
AcDbEntity
  8
0
100
AcDbLine
 10
236.2811693470912
 20
-117.5529267493787
 30
-47.81220490584312
 11
234.7453867403669
 21
-117.1141317188859
 31
-47.81220490584312
  0
LINE
  5
45C24
330
458D6
100
AcDbEntity
  8
0
100
AcDbLine
 10
234.7453867403669
 20
-117.1141317188859
 30
-47.81220490584312
 11
233.4227331484531
 21
-117.5529267493787
 31
-47.81220490584312
  0
LINE
  5
45C25
330
458D6
100
AcDbEntity
  8
0
100
AcDbLine
 10
233.4227331484531
 20
-117.5529267493787
 30
-47.81220490584312
 11
232.5451430874677
 21
-118.6499143256104
 31
-47.81220490584312
  0
LINE
  5
45C26
330
458D6
100
AcDbEntity
  8
0
100
AcDbLine
 10
232.5451430874677
 20
-118.6499143256104
 30
-47.81220490584312
 11
232.106348056975
 21
-119.9725679175242
 31
-47.81220490584312
  0
LINE
  5
45C27
330
458D6
100
AcDbEntity
  8
0
100
AcDbLine
 10
232.106348056975
 20
-119.9725679175242
 30
-47.81220490584312
 11
232.5451430874677
 21
-121.2889530090023
 31
-47.81220490584312
  0
LINE
  5
45C28
330
458D6
100
AcDbEntity
  8
0
100
AcDbLine
 10
232.5451430874677
 20
-121.2889530090023
 30
-47.81220490584312
 11
233.4227331484531
 21
-122.3922090856697
 31
-47.81220490584312
  0
LINE
  5
45C29
330
458D6
100
AcDbEntity
  8
0
100
AcDbLine
 10
155.6745222455802
 20
-135.8005315174399
 30
-47.81220490584312
 11
155.4551247303339
 21
-136.6781215784253
 31
-47.81220490584312
  0
LINE
  5
45C2A
330
458D6
100
AcDbEntity
  8
0
100
AcDbLine
 10
155.4551247303339
 20
-136.6781215784253
 30
-47.81220490584312
 11
154.7969321845948
 21
-137.5619801398463
 31
-47.81220490584312
  0
LINE
  5
45C2B
330
458D6
100
AcDbEntity
  8
0
100
AcDbLine
 10
154.7969321845948
 20
-137.5619801398463
 30
-47.81220490584312
 11
153.6999446083629
 21
-138.000775170339
 31
-47.81220490584312
  0
LINE
  5
45C2C
330
458D6
100
AcDbEntity
  8
0
100
AcDbLine
 10
153.6999446083629
 20
-138.000775170339
 30
-47.81220490584312
 11
138.3295815402467
 21
-139.9753528075562
 31
-47.81220490584312
  0
LINE
  5
45C2D
330
458D6
100
AcDbEntity
  8
0
100
AcDbLine
 10
138.3295815402467
 20
-139.9753528075562
 30
-47.81220490584312
 11
137.2263254635795
 21
-140.4204163384845
 31
-47.81220490584312
  0
LINE
  5
45C2E
330
458D6
100
AcDbEntity
  8
0
100
AcDbLine
 10
137.2263254635795
 20
-140.4204163384845
 30
-47.81220490584312
 11
136.348735402594
 21
-141.2980063994699
 31
-47.81220490584312
  0
LINE
  5
45C2F
330
458D6
100
AcDbEntity
  8
0
100
AcDbLine
 10
136.348735402594
 20
-141.2980063994699
 30
-47.81220490584312
 11
136.1293378873478
 21
-142.3949939757017
 31
-47.81220490584312
  0
LINE
  5
45C30
330
458D6
100
AcDbEntity
  8
0
100
AcDbLine
 10
136.1293378873478
 20
-142.3949939757017
 30
-47.81220490584312
 11
136.1293378873478
 21
-151.1897000868628
 31
-47.81220490584312
  0
LINE
  5
45C31
330
458D6
100
AcDbEntity
  8
0
100
AcDbLine
 10
136.1293378873478
 20
-151.1897000868628
 30
-47.81220490584312
 11
136.5681329178404
 21
-152.2866876630945
 31
-47.81220490584312
  0
LINE
  5
45C32
330
458D6
100
AcDbEntity
  8
0
100
AcDbLine
 10
136.5681329178404
 20
-152.2866876630945
 30
-47.81220490584312
 11
137.4457229788258
 21
-153.1705462245155
 31
-47.81220490584312
  0
LINE
  5
45C33
330
458D6
100
AcDbEntity
  8
0
100
AcDbLine
 10
137.4457229788258
 20
-153.1705462245155
 30
-47.81220490584312
 11
138.5489790554933
 21
-153.6093412550083
 31
-47.81220490584312
  0
LINE
  5
45C34
330
458D6
100
AcDbEntity
  8
0
100
AcDbLine
 10
138.5489790554933
 20
-153.6093412550083
 30
-47.81220490584312
 11
155.6745222455802
 21
-153.6093412550083
 31
-47.81220490584312
  0
LINE
  5
45C5E
330
458D6
100
AcDbEntity
  8
0
100
AcDbLine
 10
155.6745222455802
 20
-86.33579458004009
 30
-47.81220490584312
 11
138.5489790554933
 21
-86.33579458004009
 31
-47.81220490584312
  0
LINE
  5
45C5F
330
458D6
100
AcDbEntity
  8
0
100
AcDbLine
 10
138.5489790554933
 20
-86.33579458004009
 30
-47.81220490584312
 11
137.4457229788258
 21
-86.55519209528639
 31
-47.81220490584312
  0
LINE
  5
45C60
330
458D6
100
AcDbEntity
  8
0
100
AcDbLine
 10
137.4457229788258
 20
-86.55519209528639
 30
-47.81220490584312
 11
136.5681329178404
 21
-87.65217967151819
 31
-47.81220490584312
  0
LINE
  5
45C61
330
458D6
100
AcDbEntity
  8
0
100
AcDbLine
 10
136.5681329178404
 20
-87.65217967151819
 30
-47.81220490584312
 11
136.1293378873478
 21
-88.75543574818559
 31
-47.81220490584312
  0
LINE
  5
45C62
330
458D6
100
AcDbEntity
  8
0
100
AcDbLine
 10
136.1293378873478
 20
-88.75543574818559
 30
-47.81220490584312
 11
136.1293378873478
 21
-97.55014185934662
 31
-47.81220490584312
  0
LINE
  5
45C63
330
458D6
100
AcDbEntity
  8
0
100
AcDbLine
 10
136.1293378873478
 20
-97.55014185934662
 30
-47.81220490584312
 11
136.348735402594
 21
-98.6471294355784
 31
-47.81220490584312
  0
LINE
  5
45C64
330
458D6
100
AcDbEntity
  8
0
100
AcDbLine
 10
136.348735402594
 20
-98.6471294355784
 30
-47.81220490584312
 11
137.2263254635795
 21
-99.52471949656393
 31
-47.81220490584312
  0
LINE
  5
45C65
330
458D6
100
AcDbEntity
  8
0
100
AcDbLine
 10
137.2263254635795
 20
-99.52471949656393
 30
-47.81220490584312
 11
138.3295815402467
 21
-99.9635145270566
 31
-47.81220490584312
  0
LINE
  5
45C66
330
458D6
100
AcDbEntity
  8
0
100
AcDbLine
 10
138.3295815402467
 20
-99.9635145270566
 30
-47.81220490584312
 11
153.6999446083629
 21
-101.9443606647094
 31
-47.81220490584312
  0
LINE
  5
45C67
330
458D6
100
AcDbEntity
  8
0
100
AcDbLine
 10
153.6999446083629
 20
-101.9443606647094
 30
-47.81220490584312
 11
154.7969321845948
 21
-102.3831556952021
 31
-47.81220490584312
  0
LINE
  5
45C68
330
458D6
100
AcDbEntity
  8
0
100
AcDbLine
 10
154.7969321845948
 20
-102.3831556952021
 30
-47.81220490584312
 11
155.4551247303339
 21
-103.2607457561875
 31
-47.81220490584312
  0
LINE
  5
45C69
330
458D6
100
AcDbEntity
  8
0
100
AcDbLine
 10
155.4551247303339
 20
-103.2607457561875
 30
-47.81220490584312
 11
155.6745222455802
 21
-104.1446043176085
 31
-47.81220490584312
  0
LINE
  5
45C6A
330
458D6
100
AcDbEntity
  8
0
100
AcDbLine
 10
228.8153853282795
 20
-151.4090976021091
 30
-47.81220490584312
 11
229.034782843526
 21
-150.5315075411237
 31
-47.81220490584312
  0
LINE
  5
45C6B
330
458D6
100
AcDbEntity
  8
0
100
AcDbLine
 10
229.034782843526
 20
-150.5315075411237
 30
-47.81220490584312
 11
228.8153853282795
 21
-149.4282514644563
 31
-47.81220490584312
  0
LINE
  5
45C6C
330
458D6
100
AcDbEntity
  8
0
100
AcDbLine
 10
228.5959878130333
 20
-148.9894564339636
 30
-47.81220490584312
 11
228.5959878130333
 21
-149.2088539492099
 31
-47.81220490584312
  0
LINE
  5
45C6D
330
458D6
100
AcDbEntity
  8
0
100
AcDbLine
 10
228.5959878130333
 20
-149.2088539492099
 30
-47.81220490584312
 11
228.8153853282795
 21
-149.4282514644563
 31
-47.81220490584312
  0
LINE
  5
45C6E
330
458D6
100
AcDbEntity
  8
0
100
AcDbLine
 10
228.8153853282795
 20
-149.4282514644563
 30
-47.81220490584312
 11
228.5959878130333
 21
-148.9894564339636
 31
-47.81220490584312
  0
LINE
  5
45C6F
330
458D6
100
AcDbEntity
  8
0
100
AcDbLine
 10
228.5959878130333
 20
-151.8478926326018
 30
-47.81220490584312
 11
228.5959878130333
 21
-152.0672901478482
 31
-47.81220490584312
  0
LINE
  5
45C70
330
458D6
100
AcDbEntity
  8
0
100
AcDbLine
 10
228.5959878130333
 20
-152.0672901478482
 30
-47.81220490584312
 11
228.8153853282795
 21
-151.4090976021091
 31
-47.81220490584312
  0
LINE
  5
45C71
330
458D6
100
AcDbEntity
  8
0
100
AcDbLine
 10
228.8153853282795
 20
-151.4090976021091
 30
-47.81220490584312
 11
228.5959878130333
 21
-151.8478926326018
 31
-47.81220490584312
  0
LINE
  5
45C72
330
458D6
100
AcDbEntity
  8
0
100
AcDbLine
 10
228.5959878130333
 20
-149.6539174801382
 30
-47.81220490584312
 11
229.034782843526
 21
-150.5315075411237
 31
-47.81220490584312
  0
LINE
  5
45C73
330
458D6
100
AcDbEntity
  8
0
100
AcDbLine
 10
229.034782843526
 20
-150.5315075411237
 30
-47.81220490584312
 11
228.5959878130333
 21
-150.5315075411237
 31
-47.81220490584312
  0
LINE
  5
45C74
330
458D6
100
AcDbEntity
  8
0
100
AcDbLine
 10
228.5959878130333
 20
-149.2088539492099
 30
-47.81220490584312
 11
229.034782843526
 21
-150.5315075411237
 31
-47.81220490584312
  0
LINE
  5
45C75
330
458D6
100
AcDbEntity
  8
0
100
AcDbLine
 10
228.5959878130333
 20
-151.4090976021091
 30
-47.81220490584312
 11
229.034782843526
 21
-150.5315075411237
 31
-47.81220490584312
  0
LINE
  5
45C76
330
458D6
100
AcDbEntity
  8
0
100
AcDbLine
 10
229.034782843526
 20
-150.5315075411237
 30
-47.81220490584312
 11
228.5959878130333
 21
-151.8478926326018
 31
-47.81220490584312
  0
LINE
  5
45C77
330
458D6
100
AcDbEntity
  8
0
100
AcDbLine
 10
228.5959878130333
 20
-151.8478926326018
 30
-47.81220490584312
 11
228.5959878130333
 21
-151.4090976021091
 31
-47.81220490584312
  0
LINE
  5
45C78
330
458D6
100
AcDbEntity
  8
0
100
AcDbLine
 10
228.5959878130333
 20
-151.4090976021091
 30
-47.81220490584312
 11
228.5959878130333
 21
-150.5315075411237
 31
-47.81220490584312
  0
LINE
  5
45C79
330
458D6
100
AcDbEntity
  8
0
100
AcDbLine
 10
228.5959878130333
 20
-150.5315075411237
 30
-47.81220490584312
 11
228.5959878130333
 21
-149.6539174801382
 31
-47.81220490584312
  0
LINE
  5
45C7A
330
458D6
100
AcDbEntity
  8
0
100
AcDbLine
 10
228.5959878130333
 20
-149.6539174801382
 30
-47.81220490584312
 11
228.5959878130333
 21
-149.2088539492099
 31
-47.81220490584312
  0
LINE
  5
45C7B
330
458D6
100
AcDbEntity
  8
0
100
AcDbLine
 10
228.8153853282795
 20
-90.51061587015638
 30
-47.81220490584312
 11
229.034782843526
 21
-89.41362829392469
 31
-47.81220490584312
  0
LINE
  5
45C7C
330
458D6
100
AcDbEntity
  8
0
100
AcDbLine
 10
229.034782843526
 20
-89.41362829392469
 30
-47.81220490584312
 11
228.8153853282795
 21
-88.3166407176929
 31
-47.81220490584312
  0
LINE
  5
45C7D
330
458D6
100
AcDbEntity
  8
0
100
AcDbLine
 10
228.5959878130333
 20
-87.87157718676452
 30
-47.81220490584312
 11
228.5959878130333
 21
-88.09724320244647
 31
-47.81220490584312
  0
LINE
  5
45C7E
330
458D6
100
AcDbEntity
  8
0
100
AcDbLine
 10
228.5959878130333
 20
-88.09724320244647
 30
-47.81220490584312
 11
228.8153853282795
 21
-88.3166407176929
 31
-47.81220490584312
  0
LINE
  5
45C7F
330
458D6
100
AcDbEntity
  8
0
100
AcDbLine
 10
228.8153853282795
 20
-88.3166407176929
 30
-47.81220490584312
 11
228.5959878130333
 21
-87.87157718676452
 31
-47.81220490584312
  0
LINE
  5
45C80
330
458D6
100
AcDbEntity
  8
0
100
AcDbLine
 10
228.5959878130333
 20
-90.73001338540279
 30
-47.81220490584312
 11
228.5959878130333
 21
-90.94941090064908
 31
-47.81220490584312
  0
LINE
  5
45C81
330
458D6
100
AcDbEntity
  8
0
100
AcDbLine
 10
228.5959878130333
 20
-90.94941090064908
 30
-47.81220490584312
 11
228.8153853282795
 21
-90.51061587015638
 31
-47.81220490584312
  0
LINE
  5
45C82
330
458D6
100
AcDbEntity
  8
0
100
AcDbLine
 10
228.8153853282795
 20
-90.51061587015638
 30
-47.81220490584312
 11
228.5959878130333
 21
-90.73001338540279
 31
-47.81220490584312
  0
LINE
  5
45C83
330
458D6
100
AcDbEntity
  8
0
100
AcDbLine
 10
228.5959878130333
 20
-88.53603823293919
 30
-47.81220490584312
 11
229.034782843526
 21
-89.41362829392469
 31
-47.81220490584312
  0
LINE
  5
45C84
330
458D6
100
AcDbEntity
  8
0
100
AcDbLine
 10
228.5959878130333
 20
-90.73001338540279
 30
-47.81220490584312
 11
229.034782843526
 21
-89.41362829392469
 31
-47.81220490584312
  0
LINE
  5
45C85
330
458D6
100
AcDbEntity
  8
0
100
AcDbLine
 10
229.034782843526
 20
-89.41362829392469
 30
-47.81220490584312
 11
228.5959878130333
 21
-89.41362829392469
 31
-47.81220490584312
  0
LINE
  5
45C86
330
458D6
100
AcDbEntity
  8
0
100
AcDbLine
 10
228.5959878130333
 20
-90.29121835491013
 30
-47.81220490584312
 11
229.034782843526
 21
-89.41362829392469
 31
-47.81220490584312
  0
LINE
  5
45C87
330
458D6
100
AcDbEntity
  8
0
100
AcDbLine
 10
229.034782843526
 20
-89.41362829392469
 30
-47.81220490584312
 11
228.5959878130333
 21
-88.09724320244647
 31
-47.81220490584312
  0
LINE
  5
45C88
330
458D6
100
AcDbEntity
  8
0
100
AcDbLine
 10
228.5959878130333
 20
-90.73001338540279
 30
-47.81220490584312
 11
228.5959878130333
 21
-90.29121835491013
 31
-47.81220490584312
  0
LINE
  5
45C89
330
458D6
100
AcDbEntity
  8
0
100
AcDbLine
 10
228.5959878130333
 20
-90.29121835491013
 30
-47.81220490584312
 11
228.5959878130333
 21
-89.41362829392469
 31
-47.81220490584312
  0
LINE
  5
45C8A
330
458D6
100
AcDbEntity
  8
0
100
AcDbLine
 10
228.5959878130333
 20
-89.41362829392469
 30
-47.81220490584312
 11
228.5959878130333
 21
-88.53603823293919
 31
-47.81220490584312
  0
LINE
  5
45C8B
330
458D6
100
AcDbEntity
  8
0
100
AcDbLine
 10
228.5959878130333
 20
-88.53603823293919
 30
-47.81220490584312
 11
228.5959878130333
 21
-88.09724320244647
 31
-47.81220490584312
  0
LINE
  5
45C8C
330
458D6
100
AcDbEntity
  8
0
100
AcDbLine
 10
155.4551247303339
 20
-90.51061587015638
 30
-47.81220490584312
 11
155.6745222455802
 21
-90.94941090064908
 31
-47.81220490584312
  0
LINE
  5
45C8D
330
458D6
100
AcDbEntity
  8
0
100
AcDbLine
 10
155.6745222455802
 20
-90.94941090064908
 30
-47.81220490584312
 11
155.6745222455802
 21
-90.73001338540279
 31
-47.81220490584312
  0
LINE
  5
45C8E
330
458D6
100
AcDbEntity
  8
0
100
AcDbLine
 10
155.6745222455802
 20
-90.73001338540279
 30
-47.81220490584312
 11
155.6745222455802
 21
-90.94941090064908
 31
-47.81220490584312
  0
LINE
  5
45C8F
330
458D6
100
AcDbEntity
  8
0
100
AcDbLine
 10
155.6745222455802
 20
-88.53603823293919
 30
-47.81220490584312
 11
155.6745222455802
 21
-88.09724320244647
 31
-47.81220490584312
  0
LINE
  5
45C90
330
458D6
100
AcDbEntity
  8
0
100
AcDbLine
 10
155.6745222455802
 20
-88.09724320244647
 30
-47.81220490584312
 11
155.6745222455802
 21
-87.87157718676452
 31
-47.81220490584312
  0
LINE
  5
45C91
330
458D6
100
AcDbEntity
  8
0
100
AcDbLine
 10
155.6745222455802
 20
-87.87157718676452
 30
-47.81220490584312
 11
155.4551247303339
 21
-88.3166407176929
 31
-47.81220490584312
  0
LINE
  5
45C92
330
458D6
100
AcDbEntity
  8
0
100
AcDbLine
 10
155.6745222455802
 20
-89.41362829392469
 30
-47.81220490584312
 11
155.6745222455802
 21
-88.53603823293919
 31
-47.81220490584312
  0
LINE
  5
45C93
330
458D6
100
AcDbEntity
  8
0
100
AcDbLine
 10
155.6745222455802
 20
-88.53603823293919
 30
-47.81220490584312
 11
155.2357272150875
 21
-89.41362829392469
 31
-47.81220490584312
  0
LINE
  5
45C94
330
458D6
100
AcDbEntity
  8
0
100
AcDbLine
 10
155.2357272150875
 20
-89.41362829392469
 30
-47.81220490584312
 11
155.6745222455802
 21
-89.41362829392469
 31
-47.81220490584312
  0
LINE
  5
45C95
330
458D6
100
AcDbEntity
  8
0
100
AcDbLine
 10
155.6745222455802
 20
-89.41362829392469
 30
-47.81220490584312
 11
155.6745222455802
 21
-90.29121835491013
 31
-47.81220490584312
  0
LINE
  5
45C96
330
458D6
100
AcDbEntity
  8
0
100
AcDbLine
 10
155.6745222455802
 20
-90.29121835491013
 30
-47.81220490584312
 11
155.2357272150875
 21
-89.41362829392469
 31
-47.81220490584312
  0
LINE
  5
45C97
330
458D6
100
AcDbEntity
  8
0
100
AcDbLine
 10
155.6745222455802
 20
-90.73001338540279
 30
-47.81220490584312
 11
155.6745222455802
 21
-90.29121835491013
 31
-47.81220490584312
  0
LINE
  5
45C98
330
458D6
100
AcDbEntity
  8
0
100
AcDbLine
 10
155.4551247303339
 20
-88.3166407176929
 30
-47.81220490584312
 11
155.2357272150875
 21
-89.41362829392469
 31
-47.81220490584312
  0
LINE
  5
45C99
330
458D6
100
AcDbEntity
  8
0
100
AcDbLine
 10
155.2357272150875
 20
-89.41362829392469
 30
-47.81220490584312
 11
155.6745222455802
 21
-88.09724320244647
 31
-47.81220490584312
  0
LINE
  5
45C9A
330
458D6
100
AcDbEntity
  8
0
100
AcDbLine
 10
155.6745222455802
 20
-88.09724320244647
 30
-47.81220490584312
 11
155.4551247303339
 21
-88.3166407176929
 31
-47.81220490584312
  0
LINE
  5
45C9B
330
458D6
100
AcDbEntity
  8
0
100
AcDbLine
 10
155.2357272150875
 20
-89.41362829392469
 30
-47.81220490584312
 11
155.4551247303339
 21
-90.51061587015638
 31
-47.81220490584312
  0
LINE
  5
45C9C
330
458D6
100
AcDbEntity
  8
0
100
AcDbLine
 10
155.4551247303339
 20
-90.51061587015638
 30
-47.81220490584312
 11
155.6745222455802
 21
-90.73001338540279
 31
-47.81220490584312
  0
LINE
  5
45C9D
330
458D6
100
AcDbEntity
  8
0
100
AcDbLine
 10
155.6745222455802
 20
-90.73001338540279
 30
-47.81220490584312
 11
155.2357272150875
 21
-89.41362829392469
 31
-47.81220490584312
  0
LINE
  5
45C9E
330
458D6
100
AcDbEntity
  8
0
100
AcDbLine
 10
155.6745222455802
 20
-149.2088539492099
 30
-47.81220490584312
 11
155.6745222455802
 21
-149.6539174801382
 31
-47.81220490584312
  0
LINE
  5
45C9F
330
458D6
100
AcDbEntity
  8
0
100
AcDbLine
 10
155.6745222455802
 20
-149.6539174801382
 30
-47.81220490584312
 11
155.6745222455802
 21
-149.8733149953846
 31
-47.81220490584312
  0
LINE
  5
45CA0
330
458D6
100
AcDbEntity
  8
0
100
AcDbLine
 10
155.6745222455802
 20
-148.9894564339636
 30
-47.81220490584312
 11
155.6745222455802
 21
-149.2088539492099
 31
-47.81220490584312
  0
LINE
  5
45CA1
330
458D6
100
AcDbEntity
  8
0
100
AcDbLine
 10
155.6745222455802
 20
-149.2088539492099
 30
-47.81220490584312
 11
155.6745222455802
 21
-148.9894564339636
 31
-47.81220490584312
  0
LINE
  5
45CA2
330
458D6
100
AcDbEntity
  8
0
100
AcDbLine
 10
155.6745222455802
 20
-148.9894564339636
 30
-47.81220490584312
 11
155.4551247303339
 21
-149.4282514644563
 31
-47.81220490584312
  0
LINE
  5
45CA3
330
458D6
100
AcDbEntity
  8
0
100
AcDbLine
 10
155.6745222455802
 20
-151.1897000868628
 30
-47.81220490584312
 11
155.6745222455802
 21
-151.4090976021091
 31
-47.81220490584312
  0
LINE
  5
45CA4
330
458D6
100
AcDbEntity
  8
0
100
AcDbLine
 10
155.6745222455802
 20
-151.4090976021091
 30
-47.81220490584312
 11
155.6745222455802
 21
-150.5315075411237
 31
-47.81220490584312
  0
LINE
  5
45CA5
330
458D6
100
AcDbEntity
  8
0
100
AcDbLine
 10
155.6745222455802
 20
-150.5315075411237
 30
-47.81220490584312
 11
155.2357272150875
 21
-150.5315075411237
 31
-47.81220490584312
  0
LINE
  5
45CA6
330
458D6
100
AcDbEntity
  8
0
100
AcDbLine
 10
155.2357272150875
 20
-150.5315075411237
 30
-47.81220490584312
 11
155.6745222455802
 21
-149.2088539492099
 31
-47.81220490584312
  0
LINE
  5
45CA7
330
458D6
100
AcDbEntity
  8
0
100
AcDbLine
 10
155.6745222455802
 20
-149.2088539492099
 30
-47.81220490584312
 11
155.4551247303339
 21
-149.4282514644563
 31
-47.81220490584312
  0
LINE
  5
45CA8
330
458D6
100
AcDbEntity
  8
0
100
AcDbLine
 10
155.4551247303339
 20
-149.4282514644563
 30
-47.81220490584312
 11
155.2357272150875
 21
-150.5315075411237
 31
-47.81220490584312
  0
LINE
  5
45CA9
330
458D6
100
AcDbEntity
  8
0
100
AcDbLine
 10
155.2357272150875
 20
-150.5315075411237
 30
-47.81220490584312
 11
155.6745222455802
 21
-149.6539174801382
 31
-47.81220490584312
  0
LINE
  5
45CAA
330
458D6
100
AcDbEntity
  8
0
100
AcDbLine
 10
155.6745222455802
 20
-149.6539174801382
 30
-47.81220490584312
 11
155.6745222455802
 21
-150.5315075411237
 31
-47.81220490584312
  0
LINE
  5
45CAB
330
458D6
100
AcDbEntity
  8
0
100
AcDbLine
 10
155.4551247303339
 20
-151.4090976021091
 30
-47.81220490584312
 11
155.6745222455802
 21
-152.0672901478482
 31
-47.81220490584312
  0
LINE
  5
45CAC
330
458D6
100
AcDbEntity
  8
0
100
AcDbLine
 10
155.6745222455802
 20
-152.0672901478482
 30
-47.81220490584312
 11
155.6745222455802
 21
-151.8478926326018
 31
-47.81220490584312
  0
LINE
  5
45CAD
330
458D6
100
AcDbEntity
  8
0
100
AcDbLine
 10
155.6745222455802
 20
-151.8478926326018
 30
-47.81220490584312
 11
155.6745222455802
 21
-151.4090976021091
 31
-47.81220490584312
  0
LINE
  5
45CAE
330
458D6
100
AcDbEntity
  8
0
100
AcDbLine
 10
155.6745222455802
 20
-151.4090976021091
 30
-47.81220490584312
 11
155.2357272150875
 21
-150.5315075411237
 31
-47.81220490584312
  0
LINE
  5
45CAF
330
458D6
100
AcDbEntity
  8
0
100
AcDbLine
 10
155.2357272150875
 20
-150.5315075411237
 30
-47.81220490584312
 11
155.4551247303339
 21
-151.4090976021091
 31
-47.81220490584312
  0
LINE
  5
45CB0
330
458D6
100
AcDbEntity
  8
0
100
AcDbLine
 10
155.4551247303339
 20
-151.4090976021091
 30
-47.81220490584312
 11
155.6745222455802
 21
-151.8478926326018
 31
-47.81220490584312
  0
LINE
  5
45CB1
330
458D6
100
AcDbEntity
  8
0
100
AcDbLine
 10
155.6745222455802
 20
-151.8478926326018
 30
-47.81220490584312
 11
155.2357272150875
 21
-150.5315075411237
 31
-47.81220490584312
  0
LINE
  5
45CB2
330
458D6
100
AcDbEntity
  8
0
100
AcDbLine
 10
226.1763466448877
 20
-82.38037080517001
 30
-47.81220490584312
 11
158.0941634137257
 21
-82.38037080517001
 31
-47.81220490584312
  0
LINE
  5
45CB3
330
458D6
100
AcDbEntity
  8
0
100
AcDbLine
 10
158.0941634137257
 20
-82.38037080517001
 30
-47.81220490584312
 11
158.0941634137257
 21
-82.81916583566269
 31
-47.81220490584312
  0
LINE
  5
45CB4
330
458D6
100
AcDbEntity
  8
0
100
AcDbLine
 10
158.0941634137257
 20
-82.81916583566269
 30
-47.81220490584312
 11
158.0941634137257
 21
-83.6967558966482
 31
-47.81220490584312
  0
LINE
  5
45CB5
330
458D6
100
AcDbEntity
  8
0
100
AcDbLine
 10
158.0941634137257
 20
-83.6967558966482
 30
-47.81220490584312
 11
158.0941634137257
 21
-84.79374347287999
 31
-47.81220490584312
  0
LINE
  5
45CB6
330
458D6
100
AcDbEntity
  8
0
100
AcDbLine
 10
158.0941634137257
 20
-84.79374347287999
 30
-47.81220490584312
 11
226.1763466448877
 21
-84.79374347287999
 31
-47.81220490584312
  0
LINE
  5
45CB7
330
458D6
100
AcDbEntity
  8
0
100
AcDbLine
 10
226.1763466448877
 20
-84.79374347287999
 30
-47.81220490584312
 11
226.1763466448877
 21
-155.1451238617327
 31
-47.81220490584312
  0
LINE
  5
45CB8
330
458D6
100
AcDbEntity
  8
0
100
AcDbLine
 10
226.1763466448877
 20
-155.1451238617327
 30
-47.81220490584312
 11
158.0941634137257
 21
-155.1451238617327
 31
-47.81220490584312
  0
LINE
  5
45CB9
330
458D6
100
AcDbEntity
  8
0
100
AcDbLine
 10
158.0941634137257
 20
-155.1451238617327
 30
-47.81220490584312
 11
158.0941634137257
 21
-156.2483799384001
 31
-47.81220490584312
  0
LINE
  5
45CBA
330
458D6
100
AcDbEntity
  8
0
100
AcDbLine
 10
158.0941634137257
 20
-156.2483799384001
 30
-47.81220490584312
 11
158.0941634137257
 21
-157.1259699993855
 31
-47.81220490584312
  0
LINE
  5
45CBB
330
458D6
100
AcDbEntity
  8
0
100
AcDbLine
 10
158.0941634137257
 20
-157.1259699993855
 30
-47.81220490584312
 11
158.0941634137257
 21
-157.5647650298783
 31
-47.81220490584312
  0
LINE
  5
45CBC
330
458D6
100
AcDbEntity
  8
0
100
AcDbLine
 10
158.0941634137257
 20
-157.5647650298783
 30
-47.81220490584312
 11
226.1763466448877
 21
-157.5647650298783
 31
-47.81220490584312
  0
LINE
  5
45CBD
330
458D6
100
AcDbEntity
  8
0
100
AcDbLine
 10
155.6745222455802
 20
-84.79374347287999
 30
-47.81220490584312
 11
155.8939197608265
 21
-84.79374347287999
 31
-47.81220490584312
  0
LINE
  5
45CBE
330
458D6
100
AcDbEntity
  8
0
100
AcDbLine
 10
155.8939197608265
 20
-84.79374347287999
 30
-47.81220490584312
 11
156.3389832917548
 21
-84.79374347287999
 31
-47.81220490584312
  0
LINE
  5
45CBF
330
458D6
100
AcDbEntity
  8
0
100
AcDbLine
 10
156.3389832917548
 20
-84.79374347287999
 30
-47.81220490584312
 11
157.2165733527404
 21
-84.79374347287999
 31
-47.81220490584312
  0
LINE
  5
45CC0
330
458D6
100
AcDbEntity
  8
0
100
AcDbLine
 10
157.2165733527404
 20
-84.79374347287999
 30
-47.81220490584312
 11
158.0941634137257
 21
-84.79374347287999
 31
-47.81220490584312
  0
LINE
  5
45CC1
330
458D6
100
AcDbEntity
  8
0
100
AcDbLine
 10
158.0941634137257
 20
-84.79374347287999
 30
-47.81220490584312
 11
158.0941634137257
 21
-83.6967558966482
 31
-47.81220490584312
  0
LINE
  5
45CC3
330
458D6
100
AcDbEntity
  8
0
100
AcDbLine
 10
226.1763466448877
 20
-84.79374347287999
 30
-47.81220490584312
 11
226.1763466448877
 21
-83.6967558966482
 31
-47.81220490584312
  0
LINE
  5
45CC5
330
458D6
100
AcDbEntity
  8
0
100
AcDbLine
 10
158.0941634137257
 20
-83.6967558966482
 30
-47.81220490584312
 11
158.0941634137257
 21
-82.81916583566269
 31
-47.81220490584312
  0
LINE
  5
45CC6
330
458D6
100
AcDbEntity
  8
0
100
AcDbLine
 10
158.0941634137257
 20
-82.81916583566269
 30
-47.81220490584312
 11
158.0941634137257
 21
-82.38037080517001
 31
-47.81220490584312
  0
LINE
  5
45CC7
330
458D6
100
AcDbEntity
  8
0
100
AcDbLine
 10
226.1763466448877
 20
-82.38037080517001
 30
-47.81220490584312
 11
158.0941634137257
 21
-82.38037080517001
 31
-47.81220490584312
  0
LINE
  5
45CC9
330
458D6
100
AcDbEntity
  8
0
100
AcDbLine
 10
226.1763466448877
 20
-82.81916583566269
 30
-47.81220490584312
 11
226.1763466448877
 21
-82.38037080517001
 31
-47.81220490584312
  0
LINE
  5
45CCC
330
458D6
100
AcDbEntity
  8
0
100
AcDbLine
 10
226.1763466448877
 20
-83.6967558966482
 30
-47.81220490584312
 11
226.1763466448877
 21
-82.81916583566269
 31
-47.81220490584312
  0
LINE
  5
45CCD
330
458D6
100
AcDbEntity
  8
0
100
AcDbLine
 10
226.1763466448877
 20
-155.1451238617327
 30
-47.81220490584312
 11
226.1763466448877
 21
-156.2483799384001
 31
-47.81220490584312
  0
LINE
  5
45CCF
330
458D6
100
AcDbEntity
  8
0
100
AcDbLine
 10
158.0941634137257
 20
-156.2483799384001
 30
-47.81220490584312
 11
158.0941634137257
 21
-157.1259699993855
 31
-47.81220490584312
  0
LINE
  5
45CD1
330
458D6
100
AcDbEntity
  8
0
100
AcDbLine
 10
226.1763466448877
 20
-156.2483799384001
 30
-47.81220490584312
 11
226.1763466448877
 21
-157.1259699993855
 31
-47.81220490584312
  0
LINE
  5
45CD2
330
458D6
100
AcDbEntity
  8
0
100
AcDbLine
 10
226.1763466448877
 20
-157.1259699993855
 30
-47.81220490584312
 11
226.1763466448877
 21
-157.5647650298783
 31
-47.81220490584312
  0
LINE
  5
45CD3
330
458D6
100
AcDbEntity
  8
0
100
AcDbLine
 10
226.1763466448877
 20
-157.5647650298783
 30
-47.81220490584312
 11
158.0941634137257
 21
-157.5647650298783
 31
-47.81220490584312
  0
LINE
  5
45CD6
330
458D6
100
AcDbEntity
  8
0
100
AcDbLine
 10
158.0941634137257
 20
-157.1259699993855
 30
-47.81220490584312
 11
158.0941634137257
 21
-157.5647650298783
 31
-47.81220490584312
  0
LINE
  5
45CD7
330
458D6
100
AcDbEntity
  8
0
100
AcDbLine
 10
158.0941634137257
 20
-155.1451238617327
 30
-47.81220490584312
 11
158.0941634137257
 21
-156.2483799384001
 31
-47.81220490584312
  0
LINE
  5
45CD9
330
458D6
100
AcDbEntity
  8
0
100
AcDbLine
 10
226.1763466448877
 20
-155.1451238617327
 30
-47.81220490584312
 11
227.0539367058732
 21
-155.1451238617327
 31
-47.81220490584312
  0
LINE
  5
45CDA
330
458D6
100
AcDbEntity
  8
0
100
AcDbLine
 10
227.0539367058732
 20
-155.1451238617327
 30
-47.81220490584312
 11
227.9377952672942
 21
-155.1451238617327
 31
-47.81220490584312
  0
LINE
  5
45CDB
330
458D6
100
AcDbEntity
  8
0
100
AcDbLine
 10
227.9377952672942
 20
-155.1451238617327
 30
-47.81220490584312
 11
228.3765902977869
 21
-155.1451238617327
 31
-47.81220490584312
  0
LINE
  5
45CDC
330
458D6
100
AcDbEntity
  8
0
100
AcDbLine
 10
228.3765902977869
 20
-155.1451238617327
 30
-47.81220490584312
 11
228.5959878130333
 21
-155.1451238617327
 31
-47.81220490584312
  0
LINE
  5
45CDD
330
458D6
100
AcDbEntity
  8
0
100
AcDbLine
 10
228.5959878130333
 20
-155.1451238617327
 30
-47.81220490584312
 11
228.5959878130333
 21
-84.79374347287999
 31
-47.81220490584312
  0
LINE
  5
45CDE
330
458D6
100
AcDbEntity
  8
0
100
AcDbLine
 10
228.5959878130333
 20
-84.79374347287999
 30
-47.81220490584312
 11
228.3765902977869
 21
-84.79374347287999
 31
-47.81220490584312
  0
LINE
  5
45CDF
330
458D6
100
AcDbEntity
  8
0
100
AcDbLine
 10
228.3765902977869
 20
-84.79374347287999
 30
-47.81220490584312
 11
227.9377952672942
 21
-84.79374347287999
 31
-47.81220490584312
  0
LINE
  5
45CE0
330
458D6
100
AcDbEntity
  8
0
100
AcDbLine
 10
227.9377952672942
 20
-84.79374347287999
 30
-47.81220490584312
 11
227.0539367058732
 21
-84.79374347287999
 31
-47.81220490584312
  0
LINE
  5
45CE1
330
458D6
100
AcDbEntity
  8
0
100
AcDbLine
 10
227.0539367058732
 20
-84.79374347287999
 30
-47.81220490584312
 11
226.1763466448877
 21
-84.79374347287999
 31
-47.81220490584312
  0
LINE
  5
45CE2
330
458D6
100
AcDbEntity
  8
0
100
AcDbLine
 10
226.1763466448877
 20
-84.79374347287999
 30
-47.81220490584312
 11
227.0539367058732
 21
-84.79374347287999
 31
-47.81220490584312
  0
LINE
  5
45CE3
330
458D6
100
AcDbEntity
  8
0
100
AcDbLine
 10
155.6745222455802
 20
-155.1451238617327
 30
-47.81220490584312
 11
155.8939197608265
 21
-155.1451238617327
 31
-47.81220490584312
  0
LINE
  5
45CE4
330
458D6
100
AcDbEntity
  8
0
100
AcDbLine
 10
155.8939197608265
 20
-155.1451238617327
 30
-47.81220490584312
 11
156.3389832917548
 21
-155.1451238617327
 31
-47.81220490584312
  0
LINE
  5
45CE5
330
458D6
100
AcDbEntity
  8
0
100
AcDbLine
 10
156.3389832917548
 20
-155.1451238617327
 30
-47.81220490584312
 11
157.2165733527404
 21
-155.1451238617327
 31
-47.81220490584312
  0
LINE
  5
45CE6
330
458D6
100
AcDbEntity
  8
0
100
AcDbLine
 10
155.6745222455802
 20
-155.1451238617327
 30
-47.81220490584312
 11
155.6745222455802
 21
-84.79374347287999
 31
-47.81220490584312
  0
LINE
  5
45CE7
330
458D6
100
AcDbEntity
  8
0
100
AcDbLine
 10
155.6745222455802
 20
-84.79374347287999
 30
-47.81220490584312
 11
155.6745222455802
 21
-155.1451238617327
 31
-47.81220490584312
  0
LINE
  5
45CE8
330
458D6
100
AcDbEntity
  8
0
100
AcDbLine
 10
228.5959878130333
 20
-155.1451238617327
 30
-47.81220490584312
 11
228.5959878130333
 21
-84.79374347287999
 31
-47.81220490584312
  0
LINE
  5
45CEA
330
458D6
100
AcDbEntity
  8
0
100
AcDbLine
 10
228.3765902977869
 20
-155.1451238617327
 30
-47.81220490584312
 11
228.5959878130333
 21
-155.1451238617327
 31
-47.81220490584312
  0
LINE
  5
45CEB
330
458D6
100
AcDbEntity
  8
0
100
AcDbLine
 10
228.5959878130333
 20
-84.79374347287999
 30
-47.81220490584312
 11
228.3765902977869
 21
-84.79374347287999
 31
-47.81220490584312
  0
LINE
  5
45CEC
330
458D6
100
AcDbEntity
  8
0
100
AcDbLine
 10
228.3765902977869
 20
-84.79374347287999
 30
-47.81220490584312
 11
227.9377952672942
 21
-84.79374347287999
 31
-47.81220490584312
  0
LINE
  5
45CEF
330
458D6
100
AcDbEntity
  8
0
100
AcDbLine
 10
227.9377952672942
 20
-155.1451238617327
 30
-47.81220490584312
 11
228.3765902977869
 21
-155.1451238617327
 31
-47.81220490584312
  0
LINE
  5
45CF0
330
458D6
100
AcDbEntity
  8
0
100
AcDbLine
 10
227.0539367058732
 20
-155.1451238617327
 30
-47.81220490584312
 11
227.9377952672942
 21
-155.1451238617327
 31
-47.81220490584312
  0
LINE
  5
45CF1
330
458D6
100
AcDbEntity
  8
0
100
AcDbLine
 10
227.9377952672942
 20
-84.79374347287999
 30
-47.81220490584312
 11
227.0539367058732
 21
-84.79374347287999
 31
-47.81220490584312
  0
LINE
  5
45CF5
330
458D6
100
AcDbEntity
  8
0
100
AcDbLine
 10
226.1763466448877
 20
-155.1451238617327
 30
-47.81220490584312
 11
227.0539367058732
 21
-155.1451238617327
 31
-47.81220490584312
  0
LINE
  5
45CF7
330
458D6
100
AcDbEntity
  8
0
100
AcDbLine
 10
157.2165733527404
 20
-84.79374347287999
 30
-47.81220490584312
 11
158.0941634137257
 21
-84.79374347287999
 31
-47.81220490584312
  0
LINE
  5
45CF8
330
458D6
100
AcDbEntity
  8
0
100
AcDbLine
 10
158.0941634137257
 20
-84.79374347287999
 30
-47.81220490584312
 11
158.0941634137257
 21
-155.1451238617327
 31
-47.81220490584312
  0
LINE
  5
45CF9
330
458D6
100
AcDbEntity
  8
0
100
AcDbLine
 10
158.0941634137257
 20
-155.1451238617327
 30
-47.81220490584312
 11
157.2165733527404
 21
-155.1451238617327
 31
-47.81220490584312
  0
LINE
  5
45CFA
330
458D6
100
AcDbEntity
  8
0
100
AcDbLine
 10
157.2165733527404
 20
-155.1451238617327
 30
-47.81220490584312
 11
158.0941634137257
 21
-155.1451238617327
 31
-47.81220490584312
  0
LINE
  5
45CFD
330
458D6
100
AcDbEntity
  8
0
100
AcDbLine
 10
157.2165733527404
 20
-84.79374347287999
 30
-47.81220490584312
 11
156.3389832917548
 21
-84.79374347287999
 31
-47.81220490584312
  0
LINE
  5
45CFF
330
458D6
100
AcDbEntity
  8
0
100
AcDbLine
 10
157.2165733527404
 20
-155.1451238617327
 30
-47.81220490584312
 11
156.3389832917548
 21
-155.1451238617327
 31
-47.81220490584312
  0
LINE
  5
45D00
330
458D6
100
AcDbEntity
  8
0
100
AcDbLine
 10
156.3389832917548
 20
-155.1451238617327
 30
-47.81220490584312
 11
155.8939197608265
 21
-155.1451238617327
 31
-47.81220490584312
  0
LINE
  5
45D02
330
458D6
100
AcDbEntity
  8
0
100
AcDbLine
 10
155.6745222455802
 20
-84.79374347287999
 30
-47.81220490584312
 11
155.8939197608265
 21
-84.79374347287999
 31
-47.81220490584312
  0
LINE
  5
45D05
330
458D6
100
AcDbEntity
  8
0
100
AcDbLine
 10
156.3389832917548
 20
-84.79374347287999
 30
-47.81220490584312
 11
155.8939197608265
 21
-84.79374347287999
 31
-47.81220490584312
  0
LINE
  5
45D07
330
458D6
100
AcDbEntity
  8
0
100
AcDbLine
 10
155.8939197608265
 20
-155.1451238617327
 30
-47.81220490584312
 11
155.6745222455802
 21
-155.1451238617327
 31
-47.81220490584312
  0
LINE
  5
45D08
330
458D6
100
AcDbEntity
  8
0
100
AcDbLine
 10
167.7539225850009
 20
-114.9138880659868
 30
-47.81220490584312
 11
164.6823573715519
 21
-114.2556955202477
 31
-47.81220490584312
  0
LINE
  5
45D09
330
458D6
100
AcDbEntity
  8
0
100
AcDbLine
 10
164.6823573715519
 20
-114.2556955202477
 30
-47.81220490584312
 11
161.8239211729138
 21
-114.9138880659868
 31
-47.81220490584312
  0
LINE
  5
45D0A
330
458D6
100
AcDbEntity
  8
0
100
AcDbLine
 10
164.6823573715519
 20
-125.6894403148007
 30
-47.81220490584312
 11
161.8239211729138
 21
-125.0312477690616
 31
-47.81220490584312
  0
LINE
  5
45D0B
330
458D6
100
AcDbEntity
  8
0
100
AcDbLine
 10
161.8239211729138
 20
-125.0312477690616
 30
-47.81220490584312
 11
164.6823573715519
 21
-125.6894403148007
 31
-47.81220490584312
  0
LINE
  5
45D0C
330
458D6
100
AcDbEntity
  8
0
100
AcDbLine
 10
164.6823573715519
 20
-125.6894403148007
 30
-47.81220490584312
 11
167.7539225850009
 21
-125.0312477690616
 31
-47.81220490584312
  0
LINE
  5
45D0D
330
458D6
100
AcDbEntity
  8
0
100
AcDbLine
 10
167.7539225850009
 20
-125.0312477690616
 30
-47.81220490584312
 11
169.7347687226538
 21
-122.8310041161624
 31
-47.81220490584312
  0
LINE
  5
45D0E
330
458D6
100
AcDbEntity
  8
0
100
AcDbLine
 10
169.7347687226538
 20
-122.8310041161624
 30
-47.81220490584312
 11
170.6123587836392
 21
-119.9725679175242
 31
-47.81220490584312
  0
LINE
  5
45D0F
330
458D6
100
AcDbEntity
  8
0
100
AcDbLine
 10
170.6123587836392
 20
-119.9725679175242
 30
-47.81220490584312
 11
169.7347687226538
 21
-117.1141317188859
 31
-47.81220490584312
  0
LINE
  5
45D10
330
458D6
100
AcDbEntity
  8
0
100
AcDbLine
 10
169.7347687226538
 20
-117.1141317188859
 30
-47.81220490584312
 11
167.7539225850009
 21
-114.9138880659868
 31
-47.81220490584312
  0
LINE
  5
45D11
330
458D6
100
AcDbEntity
  8
0
100
AcDbLine
 10
167.7539225850009
 20
-114.9138880659868
 30
-47.81220490584312
 11
164.6823573715519
 21
-114.2556955202477
 31
-47.81220490584312
  0
LINE
  5
45D12
330
458D6
100
AcDbEntity
  8
0
100
AcDbLine
 10
164.6823573715519
 20
-114.2556955202477
 30
-47.81220490584312
 11
161.8239211729138
 21
-114.9138880659868
 31
-47.81220490584312
  0
LINE
  5
45D13
330
458D6
100
AcDbEntity
  8
0
100
AcDbLine
 10
161.8239211729138
 20
-114.9138880659868
 30
-47.81220490584312
 11
159.8493435356967
 21
-117.1141317188859
 31
-47.81220490584312
  0
LINE
  5
45D14
330
458D6
100
AcDbEntity
  8
0
100
AcDbLine
 10
159.8493435356967
 20
-117.1141317188859
 30
-47.81220490584312
 11
158.9717534747111
 21
-119.9725679175242
 31
-47.81220490584312
  0
LINE
  5
45D15
330
458D6
100
AcDbEntity
  8
0
100
AcDbLine
 10
158.9717534747111
 20
-119.9725679175242
 30
-47.81220490584312
 11
159.8493435356967
 21
-122.8310041161624
 31
-47.81220490584312
  0
LINE
  5
45D16
330
458D6
100
AcDbEntity
  8
0
100
AcDbLine
 10
159.8493435356967
 20
-122.8310041161624
 30
-47.81220490584312
 11
161.8239211729138
 21
-125.0312477690616
 31
-47.81220490584312
  0
LINE
  5
45DE0
330
458D6
100
AcDbEntity
  8
0
100
AcDbLine
 10
141.1817492384495
 20
-90.51061587015636
 30
-47.81220490584312
 11
139.8653641469714
 21
-90.94941090064907
 31
-47.81220490584312
  0
LINE
  5
45DE1
330
458D6
100
AcDbEntity
  8
0
100
AcDbLine
 10
139.8653641469714
 20
-90.94941090064907
 30
-47.81220490584312
 11
138.7683765707395
 21
-92.04639847688085
 31
-47.81220490584312
  0
LINE
  5
45DE2
330
458D6
100
AcDbEntity
  8
0
100
AcDbLine
 10
138.7683765707395
 20
-92.04639847688085
 30
-47.81220490584312
 11
138.5489790554933
 21
-93.36278356835899
 31
-47.81220490584312
  0
LINE
  5
45DE3
330
458D6
100
AcDbEntity
  8
0
100
AcDbLine
 10
138.5489790554933
 20
-93.36278356835899
 30
-47.81220490584312
 11
138.7683765707395
 21
-94.68543716027275
 31
-47.81220490584312
  0
LINE
  5
45DE4
330
458D6
100
AcDbEntity
  8
0
100
AcDbLine
 10
138.7683765707395
 20
-94.68543716027275
 30
-47.81220490584312
 11
139.8653641469714
 21
-95.78242473650457
 31
-47.81220490584312
  0
LINE
  5
45DE5
330
458D6
100
AcDbEntity
  8
0
100
AcDbLine
 10
139.8653641469714
 20
-95.78242473650457
 30
-47.81220490584312
 11
141.1817492384495
 21
-96.00182225175087
 31
-47.81220490584312
  0
LINE
  5
45DE6
330
458D6
100
AcDbEntity
  8
0
100
AcDbLine
 10
141.1817492384495
 20
-96.00182225175087
 30
-47.81220490584312
 11
142.9369293604203
 21
-96.00182225175087
 31
-47.81220490584312
  0
LINE
  5
45DE7
330
458D6
100
AcDbEntity
  8
0
100
AcDbLine
 10
142.9369293604203
 20
-96.00182225175087
 30
-47.81220490584312
 11
144.6983779828268
 21
-97.98266838940367
 31
-47.81220490584312
  0
LINE
  5
45DE8
330
458D6
100
AcDbEntity
  8
0
100
AcDbLine
 10
144.6983779828268
 20
-97.98266838940367
 30
-47.81220490584312
 11
147.1117506505368
 21
-98.86025845038915
 31
-47.81220490584312
  0
LINE
  5
45DE9
330
458D6
100
AcDbEntity
  8
0
100
AcDbLine
 10
147.1117506505368
 20
-98.86025845038915
 30
-47.81220490584312
 11
149.7445208334929
 21
-98.42146341989636
 31
-47.81220490584312
  0
LINE
  5
45DEA
330
458D6
100
AcDbEntity
  8
0
100
AcDbLine
 10
149.7445208334929
 20
-98.42146341989636
 30
-47.81220490584312
 11
151.9447644863921
 21
-96.88568081317198
 31
-47.81220490584312
  0
LINE
  5
45DEB
330
458D6
100
AcDbEntity
  8
0
100
AcDbLine
 10
151.9447644863921
 20
-96.88568081317198
 30
-47.81220490584312
 11
153.0417520626239
 21
-94.68543716027275
 31
-47.81220490584312
  0
LINE
  5
45DEC
330
458D6
100
AcDbEntity
  8
0
100
AcDbLine
 10
153.0417520626239
 20
-94.68543716027275
 30
-47.81220490584312
 11
153.0417520626239
 21
-92.04639847688085
 31
-47.81220490584312
  0
LINE
  5
45DED
330
458D6
100
AcDbEntity
  8
0
100
AcDbLine
 10
153.0417520626239
 20
-92.04639847688085
 30
-47.81220490584312
 11
151.9447644863921
 21
-89.84615482398167
 31
-47.81220490584312
  0
LINE
  5
45DEE
330
458D6
100
AcDbEntity
  8
0
100
AcDbLine
 10
151.9447644863921
 20
-89.84615482398167
 30
-47.81220490584312
 11
149.7445208334929
 21
-88.31037221725726
 31
-47.81220490584312
  0
LINE
  5
45DEF
330
458D6
100
AcDbEntity
  8
0
100
AcDbLine
 10
149.7445208334929
 20
-88.31037221725726
 30
-47.81220490584312
 11
147.1117506505368
 21
-87.87157718676448
 31
-47.81220490584312
  0
LINE
  5
45DF0
330
458D6
100
AcDbEntity
  8
0
100
AcDbLine
 10
147.1117506505368
 20
-87.87157718676448
 30
-47.81220490584312
 11
144.6983779828268
 21
-88.74916724774985
 31
-47.81220490584312
  0
LINE
  5
45DF1
330
458D6
100
AcDbEntity
  8
0
100
AcDbLine
 10
144.6983779828268
 20
-88.74916724774985
 30
-47.81220490584312
 11
142.9369293604203
 21
-90.51061587015636
 31
-47.81220490584312
  0
LINE
  5
45DF2
330
458D6
100
AcDbEntity
  8
0
100
AcDbLine
 10
142.9369293604203
 20
-90.51061587015636
 30
-47.81220490584312
 11
141.1817492384495
 21
-90.51061587015636
 31
-47.81220490584312
  0
LINE
  5
45DF3
330
458D6
100
AcDbEntity
  8
0
100
AcDbLine
 10
141.1817492384495
 20
-90.51061587015636
 30
-47.81220490584312
 11
141.1817492384495
 21
-96.00182225175087
 31
-47.81220490584312
  0
LINE
  5
45DF4
330
458D6
100
AcDbEntity
  8
0
100
AcDbLine
 10
141.1817492384495
 20
-96.00182225175087
 30
-47.81220490584312
 11
142.4981343299276
 21
-90.94941090064907
 31
-47.81220490584312
  0
LINE
  5
45DF5
330
458D6
100
AcDbEntity
  8
0
100
AcDbLine
 10
142.4981343299276
 20
-90.94941090064907
 30
-47.81220490584312
 11
143.5951219061595
 21
-92.04639847688085
 31
-47.81220490584312
  0
LINE
  5
45DF6
330
458D6
100
AcDbEntity
  8
0
100
AcDbLine
 10
143.5951219061595
 20
-92.04639847688085
 30
-47.81220490584312
 11
144.0339169366521
 21
-93.36278356835899
 31
-47.81220490584312
  0
LINE
  5
45DF7
330
458D6
100
AcDbEntity
  8
0
100
AcDbLine
 10
144.0339169366521
 20
-93.36278356835899
 30
-47.81220490584312
 11
143.5951219061595
 21
-94.68543716027275
 31
-47.81220490584312
  0
LINE
  5
45DF8
330
458D6
100
AcDbEntity
  8
0
100
AcDbLine
 10
143.5951219061595
 20
-94.68543716027275
 30
-47.81220490584312
 11
142.9369293604203
 21
-95.34362970601177
 31
-47.81220490584312
  0
LINE
  5
45DF9
330
458D6
100
AcDbEntity
  8
0
100
AcDbLine
 10
142.9369293604203
 20
-95.34362970601177
 30
-47.81220490584312
 11
142.9369293604203
 21
-95.56302722125819
 31
-47.81220490584312
  0
LINE
  5
45DFA
330
458D6
100
AcDbEntity
  8
0
100
AcDbLine
 10
142.9369293604203
 20
-95.56302722125819
 30
-47.81220490584312
 11
142.4981343299276
 21
-95.78242473650457
 31
-47.81220490584312
  0
LINE
  5
45DFB
330
458D6
100
AcDbEntity
  8
0
100
AcDbLine
 10
142.4981343299276
 20
-95.78242473650457
 30
-47.81220490584312
 11
142.0593392994348
 21
-96.00182225175087
 31
-47.81220490584312
  0
LINE
  5
45DFC
330
458D6
100
AcDbEntity
  8
0
100
AcDbLine
 10
142.0593392994348
 20
-96.00182225175087
 30
-47.81220490584312
 11
141.8399417841885
 21
-96.00182225175087
 31
-47.81220490584312
  0
LINE
  5
45DFD
330
458D6
100
AcDbEntity
  8
0
100
AcDbLine
 10
141.8399417841885
 20
-96.00182225175087
 30
-47.81220490584312
 11
141.6205442689422
 21
-96.00182225175087
 31
-47.81220490584312
  0
LINE
  5
45DFE
330
458D6
100
AcDbEntity
  8
0
100
AcDbLine
 10
141.6205442689422
 20
-96.00182225175087
 30
-47.81220490584312
 11
141.4011467536958
 21
-96.00182225175087
 31
-47.81220490584312
  0
LINE
  5
45DFF
330
458D6
100
AcDbEntity
  8
0
100
AcDbLine
 10
142.9369293604203
 20
-90.73001338540278
 30
-47.81220490584312
 11
142.9369293604203
 21
-96.00182225175087
 31
-47.81220490584312
  0
LINE
  5
45E00
330
458D6
100
AcDbEntity
  8
0
100
AcDbLine
 10
142.9369293604203
 20
-96.00182225175087
 30
-47.81220490584312
 11
142.9369293604203
 21
-90.73001338540278
 31
-47.81220490584312
  0
LINE
  5
45E01
330
458D6
100
AcDbEntity
  8
0
100
AcDbLine
 10
142.9369293604203
 20
-90.73001338540278
 30
-47.81220490584312
 11
142.9369293604203
 21
-96.00182225175087
 31
-47.81220490584312
  0
LINE
  5
45E02
330
458D6
100
AcDbEntity
  8
0
100
AcDbLine
 10
142.9369293604203
 20
-96.00182225175087
 30
-47.81220490584312
 11
142.9369293604203
 21
-90.73001338540278
 31
-47.81220490584312
  0
LINE
  5
45E03
330
458D6
100
AcDbEntity
  8
0
100
AcDbLine
 10
142.9369293604203
 20
-96.00182225175087
 30
-47.81220490584312
 11
142.9369293604203
 21
-90.73001338540278
 31
-47.81220490584312
  0
LINE
  5
45E04
330
458D6
100
AcDbEntity
  8
0
100
AcDbLine
 10
142.9369293604203
 20
-90.73001338540278
 30
-47.81220490584312
 11
142.9369293604203
 21
-96.00182225175087
 31
-47.81220490584312
  0
LINE
  5
45E05
330
458D6
100
AcDbEntity
  8
0
100
AcDbLine
 10
142.9369293604203
 20
-96.00182225175087
 30
-47.81220490584312
 11
142.9369293604203
 21
-90.73001338540278
 31
-47.81220490584312
  0
LINE
  5
45E06
330
458D6
100
AcDbEntity
  8
0
100
AcDbLine
 10
142.9369293604203
 20
-90.73001338540278
 30
-47.81220490584312
 11
142.9369293604203
 21
-96.00182225175087
 31
-47.81220490584312
  0
LINE
  5
45E07
330
458D6
100
AcDbEntity
  8
0
100
AcDbLine
 10
142.9369293604203
 20
-96.00182225175087
 30
-47.81220490584312
 11
142.9369293604203
 21
-96.00182225175087
 31
-47.81220490584312
  0
LINE
  5
45E08
330
458D6
100
AcDbEntity
  8
0
100
AcDbLine
 10
142.9369293604203
 20
-96.00182225175087
 30
-47.81220490584312
 11
142.9369293604203
 21
-90.51061587015636
 31
-47.81220490584312
  0
LINE
  5
45E09
330
458D6
100
AcDbEntity
  8
0
100
AcDbLine
 10
142.9369293604203
 20
-90.51061587015636
 30
-47.81220490584312
 11
142.7175318451739
 21
-95.78242473650457
 31
-47.81220490584312
  0
LINE
  5
45E0A
330
458D6
100
AcDbEntity
  8
0
100
AcDbLine
 10
142.7175318451739
 20
-95.78242473650457
 30
-47.81220490584312
 11
142.2787368146813
 21
-94.24664212978006
 31
-47.81220490584312
  0
LINE
  5
45E0B
330
458D6
100
AcDbEntity
  8
0
100
AcDbLine
 10
142.2787368146813
 20
-94.24664212978006
 30
-47.81220490584312
 11
142.2787368146813
 21
-92.48519350737357
 31
-47.81220490584312
  0
LINE
  5
45E0C
330
458D6
100
AcDbEntity
  8
0
100
AcDbLine
 10
142.2787368146813
 20
-92.48519350737357
 30
-47.81220490584312
 11
142.4981343299276
 21
-91.82700096163458
 31
-47.81220490584312
  0
LINE
  5
45E0D
330
458D6
100
AcDbEntity
  8
0
100
AcDbLine
 10
142.4981343299276
 20
-91.82700096163458
 30
-47.81220490584312
 11
142.4981343299276
 21
-91.60760344638816
 31
-47.81220490584312
  0
LINE
  5
45E0E
330
458D6
100
AcDbEntity
  8
0
100
AcDbLine
 10
142.4981343299276
 20
-91.60760344638816
 30
-47.81220490584312
 11
142.7175318451739
 21
-91.38820593114175
 31
-47.81220490584312
  0
LINE
  5
45E0F
330
458D6
100
AcDbEntity
  8
0
100
AcDbLine
 10
142.7175318451739
 20
-91.38820593114175
 30
-47.81220490584312
 11
142.7175318451739
 21
-91.16880841589548
 31
-47.81220490584312
  0
LINE
  5
45E10
330
458D6
100
AcDbEntity
  8
0
100
AcDbLine
 10
142.7175318451739
 20
-91.16880841589548
 30
-47.81220490584312
 11
142.7175318451739
 21
-90.94941090064907
 31
-47.81220490584312
  0
LINE
  5
45E11
330
458D6
100
AcDbEntity
  8
0
100
AcDbLine
 10
142.7175318451739
 20
-90.94941090064907
 30
-47.81220490584312
 11
142.9369293604203
 21
-90.94941090064907
 31
-47.81220490584312
  0
LINE
  5
45E12
330
458D6
100
AcDbEntity
  8
0
100
AcDbLine
 10
142.9369293604203
 20
-90.94941090064907
 30
-47.81220490584312
 11
142.9369293604203
 21
-90.73001338540278
 31
-47.81220490584312
  0
DIMENSION
  5
45E24
330
458D6
100
AcDbEntity
  8
0
100
AcDbDimension
  2
*D2
 10
241.7723757286857
 20
-70.38036980516999
 30
0.0
 11
188.9508568080167
 21
-57.66536980516999
 31
0.0
 70
    32
  1
<>[]
 71
     5
 42
105.6430378413379
  3
ABECAD_3D$0
100
AcDbAlignedDimension
 13
136.1293378873478
 23
-81.97984829341043
 33
0.0
 14
241.7723757286857
 24
-81.97984829341043
 34
0.0
 50
0.0000000000000114
100
AcDbRotatedDimension
1001
ACAD
1000
DSTYLE
1002
{
1070
   140
1040
7.0
1002
}
  0
DIMENSION
  5
45E54
330
458D6
100
AcDbEntity
  8
0
100
AcDbDimension
  2
*D3
 10
253.7723757286857
 20
-157.5647650298783
 30
0.0
 11
263.7398027903361
 21
-119.7723066616443
 31
0.0
 70
   160
 71
     5
 42
75.5849167364679
  3
ABECAD_3D$0
100
AcDbAlignedDimension
 13
241.7723757286857
 23
-81.97984829341043
 33
0.0
 14
241.7723757286857
 24
-157.5647650298783
 34
0.0
 50
90.0
100
AcDbRotatedDimension
1001
ACAD
1000
DSTYLE
1002
{
1070
   140
1040
7.0
1002
}
  0
VIEWPORT
  5
459DC
102
{ACAD_XDICTIONARY
360
45E8F
102
}
330
458D3
100
AcDbEntity
 67
     1
  8
0
100
AcDbViewport
 10
133.3499908447265
 20
101.5999970436096
 30
0.0
 40
364.1398508409046
 41
218.1766194911749
 68
     2
 69
     1
 12
133.3499908447265
 22
101.5999970436096
 13
0.0
 23
0.0
 14
0.5
 24
0.5
 15
0.5
 25
0.5
 16
0.0
 26
0.0
 36
1.0
 17
0.0
 27
0.0
 37
0.0
 42
50.0
 43
0.0
 44
0.0
 45
218.1766194911749
 50
0.0
 51
0.0
 72
 20000
 90
    32800
  1

281
     0
 71
     1
 74
     0
110
0.0
120
0.0
130
0.0
111
1.0
121
0.0
131
0.0
112
0.0
122
1.0
132
0.0
 79
     0
146
0.0
1001
GENIUS_GENSCREG_15
1000
PF
1040
1.0
1000
DF
1040
1.0
1000
MIN
1011
-48.7199345757258
1021
-7.488312701977832
1031
0.0
1000
MAX
1011
315.4199162651788
1021
210.688306789197
1031
0.0
1000
FLAGS
1070
     4
1001
GENIUS_GENOBJ-N-SDF_13
1002
{
1000
OWNER
1000
GEN
1002
}
1001
GENIUS_GENODEF_13
1002
{
1000
HIER
1070
     0
1002
}
1002
{
1000
MANEDIT
1070
     0
1002
}
1002
{
1000
NOSEL
1070
     0
1002
}
1002
{
1000
BEHIND
1070
     0
1002
}
1002
{
1000
OTHER
1070
     0
1002
}
1002
{
1000
REACTOR
1002
}
  0
VIEWPORT
  5
459DE
102
{ACAD_XDICTIONARY
360
45E91
102
}
330
458D3
100
AcDbEntity
 67
     1
  8
0
100
AcDbViewport
 10
133.3499939441681
 20
101.5999939441681
 30
0.0
 40
213.3599903106689
 41
162.5599903106689
 68
     1
 69
     2
 12
-10.66162453721698
 22
-4.21420189015922
 13
0.0
 23
0.0
 14
0.25
 24
0.25
 15
0.25
 25
0.25
 16
-1.0
 26
-1.0
 36
1.0
 17
0.0
 27
0.0
 37
0.0
 42
50.0
 43
0.0
 44
0.0
 45
76.56993723903744
 50
0.0
 51
0.0
 72
 20000
 90
    32800
  1

281
     0
 71
     1
 74
     0
110
0.0
120
0.0
130
0.0
111
1.0
121
0.0
131
0.0
112
0.0
122
1.0
132
0.0
 79
     1
146
0.0
1001
GENIUS_GENSCREG_15
1000
PF
1040
0.0
1000
DF
1040
0.0
1000
MIN
1011
26.66999878883363
1021
20.31999878883366
1031
0.0
1000
MAX
1011
240.0299890995025
1021
182.8799890995025
1031
0.0
1000
FLAGS
1070
     4
1001
GENIUS_GENOBJ-N-SDF_13
1002
{
1000
OWNER
1000
GEN
1002
}
1001
GENIUS_GENODEF_13
1002
{
1000
HIER
1070
     0
1002
}
1002
{
1000
MANEDIT
1070
     0
1002
}
1002
{
1000
NOSEL
1070
     0
1002
}
1002
{
1000
BEHIND
1070
     0
1002
}
1002
{
1000
OTHER
1070
     0
1002
}
1002
{
1000
REACTOR
1002
}
  0
ENDSEC
  0
SECTION
  2
OBJECTS
  0
DICTIONARY
  5
458CB
330
0
100
AcDbDictionary
281
     1
  3
ACAD_COLOR
350
459E7
  3
ACAD_GROUP
350
458CC
  3
ACAD_LAYOUT
350
458FB
  3
ACAD_MATERIAL
350
459E6
  3
ACAD_MLINESTYLE
350
458D9
  3
ACAD_PLOTSETTINGS
350
458FC
  3
ACAD_PLOTSTYLENAME
350
458F9
  3
ACAD_TABLESTYLE
350
459E8
  3
ACDBHEADERROUNDTRIPXREC
350
45E8A
  3
ACDBVARIABLEDICTIONARY
350
458E1
  3
AcmDictionary
350
45A47
  3
AMG
350
459ED
  3
AMGSNAPSETTINGS
350
45A9B
  3
DWGPROPS
350
45E89
  0
DICTIONARY
  5
45930
330
458D6
100
AcDbDictionary
280
     1
281
     1
  3
ACAD_LAYOUTSELFREF
360
459C8
  0
DICTIONARY
  5
4592E
330
458D3
100
AcDbDictionary
280
     1
281
     1
  3
ACAD_LAYOUTSELFREF
360
459C7
  0
DICTIONARY
  5
45E8F
330
459DC
100
AcDbDictionary
280
     1
281
     1
  3
ACAD_XREC_ROUNDTRIP
360
45E90
  0
DICTIONARY
  5
45E91
330
459DE
100
AcDbDictionary
280
     1
281
     1
  3
ACAD_XREC_ROUNDTRIP
360
45E92
  0
DICTIONARY
  5
459E7
102
{ACAD_REACTORS
330
458CB
102
}
330
458CB
100
AcDbDictionary
281
     1
  0
DICTIONARY
  5
458CC
102
{ACAD_REACTORS
330
458CB
102
}
330
458CB
100
AcDbDictionary
281
     1
  0
DICTIONARY
  5
458FB
102
{ACAD_REACTORS
330
458CB
102
}
330
458CB
100
AcDbDictionary
281
     1
  3
Layout1
350
458FE
  3
Model
350
458FD
  0
DICTIONARY
  5
459E6
102
{ACAD_REACTORS
330
458CB
102
}
330
458CB
100
AcDbDictionary
281
     1
  0
DICTIONARY
  5
458D9
102
{ACAD_REACTORS
330
458CB
102
}
330
458CB
100
AcDbDictionary
281
     1
  3
STANDARD
350
458DA
  0
DICTIONARY
  5
458FC
102
{ACAD_REACTORS
330
458CB
102
}
330
458CB
100
AcDbDictionary
281
     1
  0
ACDBDICTIONARYWDFLT
  5
458F9
102
{ACAD_REACTORS
330
458CB
102
}
330
458CB
100
AcDbDictionary
281
     1
  3
Normal
350
458FA
100
AcDbDictionaryWithDefault
340
458FA
  0
DICTIONARY
  5
459E8
102
{ACAD_REACTORS
330
458CB
102
}
330
458CB
100
AcDbDictionary
281
     1
  3
Standard
350
459E9
  0
DICTIONARY
  5
45E8A
102
{ACAD_REACTORS
330
458CB
102
}
330
458CB
100
AcDbDictionary
281
     1
  0
DICTIONARY
  5
458E1
102
{ACAD_REACTORS
330
458CB
102
}
330
458CB
100
AcDbDictionary
281
     1
  3
CTABLESTYLE
350
45D4D
  3
DIMADEC
350
458E2
  3
DIMASSOC
350
45D4E
  3
PROJECTNAME
350
45D4F
  0
DICTIONARY
  5
45A47
102
{ACAD_REACTORS
330
458CB
102
}
330
458CB
100
AcDbDictionary
281
     1
  3
AcmStdDictionary
350
45A52
  3
AMDTSECTSYM_ARROWCOLOR
350
45A70
  0
DICTIONARY
  5
459ED
102
{ACAD_REACTORS
330
458CB
102
}
330
458CB
100
AcDbDictionary
281
     1
  0
DICTIONARY
  5
45A9B
102
{ACAD_REACTORS
330
458CB
102
}
330
458CB
100
AcDbDictionary
281
     1
  0
XRECORD
  5
45E89
102
{ACAD_REACTORS
330
458CB
102
}
330
458CB
100
AcDbXrecord
280
     1
  1
DWGPROPS COOKIE
  2

  3

  4

  6

  7

  8
colin
  9

300
=
301
=
302
=
303
=
304
=
305
=
306
=
307
=
308
=
309
=
 40
0.0068513310185185
 41
2454543.468356331
 42
2454631.581777488
  1

 90
        0
  0
XRECORD
  5
459C8
102
{ACAD_REACTORS
330
45930
102
}
330
45930
100
AcDbXrecord
280
     1
340
458D6
  0
XRECORD
  5
459C7
102
{ACAD_REACTORS
330
4592E
102
}
330
4592E
100
AcDbXrecord
280
     1
340
458D3
  0
XRECORD
  5
45E90
102
{ACAD_REACTORS
330
45E8F
102
}
330
45E8F
100
AcDbXrecord
280
     1
102
SHADEPLOT
 70
     0
  0
XRECORD
  5
45E92
102
{ACAD_REACTORS
330
45E91
102
}
330
45E91
100
AcDbXrecord
280
     1
102
SHADEPLOT
 70
     0
  0
LAYOUT
  5
458FE
102
{ACAD_XDICTIONARY
360
45E8D
102
}
102
{ACAD_REACTORS
330
458FB
102
}
330
458FB
100
AcDbPlotSettings
  1

  2
none_device
  4
Letter_(8.50_x_11.00_Inches)
  6

 40
6.349999904632567
 41
6.349999904632567
 42
6.350006103515625
 43
6.350006103515625
 44
215.8999938964844
 45
279.3999938964844
 46
0.0
 47
0.0
 48
0.0
 49
0.0
140
0.0
141
0.0
142
1.0
143
1.0
 70
   688
 72
     1
 73
     1
 74
     5
  7
Default R14 pen assignments.ctb
 75
    16
147
1.0
148
0.0
149
0.0
100
AcDbLayout
  1
Layout1
 70
     1
 71
     1
 10
-6.350006103515625
 20
-6.349999904632567
 11
273.0499877929688
 21
209.5499939918518
 12
0.0
 22
0.0
 32
0.0
 14
26.66076962115563
 24
20.31135699206658
 34
-0.0015258207003583
 15
240.039213369355
 25
182.8886381005154
 35
0.0000000349246037
146
0.0
 13
0.0
 23
0.0
 33
0.0
 16
1.0
 26
0.0
 36
0.0
 17
0.0
 27
1.0
 37
0.0
 76
     0
330
458D3
331
459DE
  0
LAYOUT
  5
458FD
102
{ACAD_XDICTIONARY
360
45E8B
102
}
102
{ACAD_REACTORS
330
458FB
102
}
330
458FB
100
AcDbPlotSettings
  1

  2
HP LaserJet 5000 Series PCL 6
  4

  6

 40
0.0
 41
0.0
 42
0.0
 43
0.0
 44
0.0
 45
0.0
 46
0.0
 47
0.0
 48
0.0
 49
0.0
140
0.0
141
0.0
142
1.0
143
1.0
 70
  1712
 72
     0
 73
     0
 74
     0
  7
Default R14 pen assignments.ctb
 75
     0
147
1.0
148
0.0
149
0.0
100
AcDbLayout
  1
Model
 70
     1
 71
     0
 10
0.0
 20
0.0
 11
12.0
 21
9.0
 12
0.0
 22
0.0
 32
0.0
 14
0.0
 24
0.0
 34
0.0
 15
0.0
 25
0.0
 35
0.0
146
0.0
 13
0.0
 23
0.0
 33
0.0
 16
1.0
 26
0.0
 36
0.0
 17
0.0
 27
1.0
 37
0.0
 76
     0
330
458D6
  0
MLINESTYLE
  5
458DA
102
{ACAD_REACTORS
330
458D9
102
}
330
458D9
100
AcDbMlineStyle
  2
STANDARD
 70
     0
  3

 62
   256
 51
90.0
 52
90.0
 71
     2
 49
0.5
 62
   256
  6
BYLAYER
 49
-0.5
 62
   256
  6
BYLAYER
  0
ACDBPLACEHOLDER
  5
458FA
102
{ACAD_REACTORS
330
458F9
102
}
330
458F9
  0
TABLESTYLE
  5
459E9
102
{ACAD_REACTORS
330
459E8
102
}
330
459E8
100
AcDbTableStyle
  3
Standard
 70
     0
 71
     0
 40
1.5
 41
1.5
280
     0
281
     0
  7
STANDARD
140
4.5
170
     2
 62
     0
 63
     7
283
     0
274
    -2
284
     1
 64
     0
275
    -2
285
     1
 65
     0
276
    -2
286
     1
 66
     0
277
    -2
287
     1
 67
     0
278
    -2
288
     1
 68
     0
279
    -2
289
     1
 69
     0
  7
STANDARD
140
6.0
170
     5
 62
     0
 63
     7
283
     0
274
    -2
284
     1
 64
     0
275
    -2
285
     1
 65
     0
276
    -2
286
     1
 66
     0
277
    -2
287
     1
 67
     0
278
    -2
288
     1
 68
     0
279
    -2
289
     1
 69
     0
  7
STANDARD
140
4.5
170
     5
 62
     0
 63
     7
283
     0
274
    -2
284
     1
 64
     0
275
    -2
285
     1
 65
     0
276
    -2
286
     1
 66
     0
277
    -2
287
     1
 67
     0
278
    -2
288
     1
 68
     0
279
    -2
289
     1
 69
     0
  0
DICTIONARYVAR
  5
45D4D
102
{ACAD_REACTORS
330
458E1
102
}
330
458E1
100
DictionaryVariables
280
     0
  1
STANDARD
  0
DICTIONARYVAR
  5
458E2
102
{ACAD_REACTORS
330
458E1
102
}
330
458E1
100
DictionaryVariables
280
     0
  1
0
  0
DICTIONARYVAR
  5
45D4E
102
{ACAD_REACTORS
330
458E1
102
}
330
458E1
100
DictionaryVariables
280
     0
  1
1
  0
DICTIONARYVAR
  5
45D4F
102
{ACAD_REACTORS
330
458E1
102
}
330
458E1
100
DictionaryVariables
280
     0
  1

  0
DICTIONARY
  5
45A52
102
{ACAD_REACTORS
330
45A47
102
}
330
45A47
100
AcDbDictionary
281
     1
  0
XRECORD
  5
45A70
102
{ACAD_REACTORS
330
45A47
102
}
330
45A47
100
AcDbXrecord
280
     1
 90
-1023410169
  0
DICTIONARY
  5
45E8D
330
458FE
100
AcDbDictionary
280
     1
281
     1
  3
ACAD_XREC_ROUNDTRIP
360
45E8E
  0
DICTIONARY
  5
45E8B
330
458FD
100
AcDbDictionary
280
     1
281
     1
  3
ACAD_XREC_ROUNDTRIP
360
45E8C
  0
XRECORD
  5
45E8E
102
{ACAD_REACTORS
330
45E8D
102
}
330
45E8D
100
AcDbXrecord
280
     1
102
SHADEPLOT
 70
     0
102
SHADEPLOTRESLEVEL
 70
     2
102
SHADEPLOTCUSTOMDPI
 70
   300
  0
XRECORD
  5
45E8C
102
{ACAD_REACTORS
330
45E8B
102
}
330
45E8B
100
AcDbXrecord
280
     1
102
SHADEPLOT
 70
     0
102
SHADEPLOTRESLEVEL
 70
     2
102
SHADEPLOTCUSTOMDPI
 70
   300
  0
ENDSEC
  0
EOF
