  0
SECTION
  2
HEADER
  9
$ACADVER
  1
AC1015
  9
$ACADMAINTVER
 70
    20
  9
$DWGCODEPAGE
  3
ANSI_1252
  9
$INSBASE
 10
0.0
 20
0.0
 30
0.0
  9
$EXTMIN
 10
134.9807784383115
 20
-168.79314452842
 30
-52.3034049058431
  9
$EXTMAX
 10
225.9807784383115
 20
4.841632287811362
 30
0.0
  9
$LIMMIN
 10
0.0
 20
0.0
  9
$LIMMAX
 10
12.0
 20
9.0
  9
$ORTHOMODE
 70
     0
  9
$REGENMODE
 70
     1
  9
$FILLMODE
 70
     1
  9
$QTEXTMODE
 70
     0
  9
$MIRRTEXT
 70
     1
  9
$LTSCALE
 40
1.0
  9
$ATTMODE
 70
     1
  9
$TEXTSIZE
 40
0.12
  9
$TRACEWID
 40
0.05
  9
$TEXTSTYLE
  7
STANDARD
  9
$CLAYER
  8
0
  9
$CELTYPE
  6
BYLAYER
  9
$CECOLOR
 62
   256
  9
$CELTSCALE
 40
1.0
  9
$DISPSILH
 70
     0
  9
$DIMSCALE
 40
1.0
  9
$DIMASZ
 40
4.572
  9
$DIMEXO
 40
1.587499999999999
  9
$DIMDLI
 40
9.525
  9
$DIMRND
 40
0.0
  9
$DIMDLE
 40
0.0
  9
$DIMEXE
 40
4.572
  9
$DIMTP
 40
0.0
  9
$DIMTM
 40
0.0
  9
$DIMTXT
 40
4.572
  9
$DIMCEN
 40
2.286
  9
$DIMTSZ
 40
0.0
  9
$DIMTOL
 70
     0
  9
$DIMLIM
 70
     0
  9
$DIMTIH
 70
     0
  9
$DIMTOH
 70
     1
  9
$DIMSE1
 70
     0
  9
$DIMSE2
 70
     0
  9
$DIMTAD
 70
     0
  9
$DIMZIN
 70
     4
  9
$DIMBLK
  1

  9
$DIMASO
 70
     1
  9
$DIMSHO
 70
     1
  9
$DIMPOST
  1

  9
$DIMAPOST
  1

  9
$DIMALT
 70
     1
  9
$DIMALTD
 70
     6
  9
$DIMALTF
 40
0.03937
  9
$DIMLFAC
 40
1.0
  9
$DIMTOFL
 70
     0
  9
$DIMTVP
 40
0.0
  9
$DIMTIX
 70
     0
  9
$DIMSOXD
 70
     0
  9
$DIMSAH
 70
     0
  9
$DIMBLK1
  1

  9
$DIMBLK2
  1

  9
$DIMSTYLE
  2
ABECAD_3D
  9
$DIMCLRD
 70
     0
  9
$DIMCLRE
 70
     0
  9
$DIMCLRT
 70
     0
  9
$DIMTFAC
 40
1.5
  9
$DIMGAP
 40
2.286
  9
$DIMJUST
 70
     0
  9
$DIMSD1
 70
     0
  9
$DIMSD2
 70
     0
  9
$DIMTOLJ
 70
     1
  9
$DIMTZIN
 70
     4
  9
$DIMALTZ
 70
     4
  9
$DIMALTTZ
 70
     4
  9
$DIMUPT
 70
     1
  9
$DIMDEC
 70
     2
  9
$DIMTDEC
 70
     2
  9
$DIMALTU
 70
     7
  9
$DIMALTTD
 70
     6
  9
$DIMTXSTY
  7
STANDARD
  9
$DIMAUNIT
 70
     0
  9
$DIMADEC
 70
     0
  9
$DIMALTRND
 40
0.0
  9
$DIMAZIN
 70
     0
  9
$DIMDSEP
 70
    46
  9
$DIMATFIT
 70
     2
  9
$DIMFRAC
 70
     2
  9
$DIMLDRBLK
  1

  9
$DIMLUNIT
 70
     2
  9
$DIMLWD
 70
    -2
  9
$DIMLWE
 70
    -2
  9
$DIMTMOVE
 70
     2
  9
$LUNITS
 70
     2
  9
$LUPREC
 70
     2
  9
$SKETCHINC
 40
0.1
  9
$FILLETRAD
 40
0.0
  9
$AUNITS
 70
     0
  9
$AUPREC
 70
     0
  9
$MENU
  1
ACAD
  9
$ELEVATION
 40
0.0
  9
$PELEVATION
 40
0.0
  9
$THICKNESS
 40
0.0
  9
$LIMCHECK
 70
     0
  9
$CHAMFERA
 40
0.0
  9
$CHAMFERB
 40
0.0
  9
$CHAMFERC
 40
0.0
  9
$CHAMFERD
 40
0.0
  9
$SKPOLY
 70
     0
  9
$TDCREATE
 40
2454543.495352107
  9
$TDUCREATE
 40
2454543.703685440
  9
$TDUPDATE
 40
2454631.595959028
  9
$TDUUPDATE
 40
2454631.804292361
  9
$TDINDWG
 40
0.0036325926
  9
$TDUSRTIMER
 40
0.0036323611
  9
$USRTIMER
 70
     1
  9
$ANGBASE
 50
0.0
  9
$ANGDIR
 70
     0
  9
$PDMODE
 70
     3
  9
$PDSIZE
 40
2.286
  9
$PLINEWID
 40
0.0
  9
$SPLFRAME
 70
     1
  9
$SPLINETYPE
 70
     6
  9
$SPLINESEGS
 70
     8
  9
$HANDSEED
  5
462B7
  9
$SURFTAB1
 70
     6
  9
$SURFTAB2
 70
     6
  9
$SURFTYPE
 70
     6
  9
$SURFU
 70
     6
  9
$SURFV
 70
     6
  9
$UCSBASE
  2

  9
$UCSNAME
  2

  9
$UCSORG
 10
0.0
 20
0.0
 30
0.0
  9
$UCSXDIR
 10
1.0
 20
0.0
 30
0.0
  9
$UCSYDIR
 10
0.0
 20
1.0
 30
0.0
  9
$UCSORTHOREF
  2

  9
$UCSORTHOVIEW
 70
     0
  9
$UCSORGTOP
 10
0.0
 20
0.0
 30
0.0
  9
$UCSORGBOTTOM
 10
0.0
 20
0.0
 30
0.0
  9
$UCSORGLEFT
 10
0.0
 20
0.0
 30
0.0
  9
$UCSORGRIGHT
 10
0.0
 20
0.0
 30
0.0
  9
$UCSORGFRONT
 10
0.0
 20
0.0
 30
0.0
  9
$UCSORGBACK
 10
0.0
 20
0.0
 30
0.0
  9
$PUCSBASE
  2

  9
$PUCSNAME
  2

  9
$PUCSORG
 10
0.0
 20
0.0
 30
0.0
  9
$PUCSXDIR
 10
1.0
 20
0.0
 30
0.0
  9
$PUCSYDIR
 10
0.0
 20
1.0
 30
0.0
  9
$PUCSORTHOREF
  2

  9
$PUCSORTHOVIEW
 70
     0
  9
$PUCSORGTOP
 10
0.0
 20
0.0
 30
0.0
  9
$PUCSORGBOTTOM
 10
0.0
 20
0.0
 30
0.0
  9
$PUCSORGLEFT
 10
0.0
 20
0.0
 30
0.0
  9
$PUCSORGRIGHT
 10
0.0
 20
0.0
 30
0.0
  9
$PUCSORGFRONT
 10
0.0
 20
0.0
 30
0.0
  9
$PUCSORGBACK
 10
0.0
 20
0.0
 30
0.0
  9
$USERI1
 70
     0
  9
$USERI2
 70
     0
  9
$USERI3
 70
     0
  9
$USERI4
 70
     0
  9
$USERI5
 70
     0
  9
$USERR1
 40
0.0
  9
$USERR2
 40
0.0
  9
$USERR3
 40
0.0
  9
$USERR4
 40
0.0
  9
$USERR5
 40
0.0
  9
$WORLDVIEW
 70
     1
  9
$SHADEDGE
 70
     3
  9
$SHADEDIF
 70
    70
  9
$TILEMODE
 70
     1
  9
$MAXACTVP
 70
    16
  9
$PINSBASE
 10
0.0
 20
0.0
 30
0.0
  9
$PLIMCHECK
 70
     0
  9
$PEXTMIN
 10
26.66076962115563
 20
20.31135699206658
 30
-0.0015258207003583
  9
$PEXTMAX
 10
240.039213369355
 20
182.8886381005154
 30
0.0000000349246037
  9
$PLIMMIN
 10
-6.350006103515625
 20
-6.349999904632567
  9
$PLIMMAX
 10
273.0499877929688
 20
209.5499939918518
  9
$UNITMODE
 70
     0
  9
$VISRETAIN
 70
     0
  9
$PLINEGEN
 70
     0
  9
$PSLTSCALE
 70
     1
  9
$TREEDEPTH
 70
  3020
  9
$CMLSTYLE
  2
STANDARD
  9
$CMLJUST
 70
     0
  9
$CMLSCALE
 40
1.0
  9
$PROXYGRAPHICS
 70
     1
  9
$MEASUREMENT
 70
     1
  9
$CELWEIGHT
370
    -1
  9
$ENDCAPS
280
     0
  9
$JOINSTYLE
280
     0
  9
$LWDISPLAY
290
     0
  9
$INSUNITS
 70
     0
  9
$HYPERLINKBASE
  1

  9
$STYLESHEET
  1

  9
$XEDIT
290
     1
  9
$CEPSNTYPE
380
     0
  9
$PSTYLEMODE
290
     1
  9
$FINGERPRINTGUID
  2
{BED58CF6-BF2B-4894-A8CD-45C6976C3B11}
  9
$VERSIONGUID
  2
{DAB17A60-739B-4790-865B-51F2638711EA}
  9
$EXTNAMES
290
     1
  9
$PSVPSCALE
 40
0.0
  9
$OLESTARTUP
290
     0
  0
ENDSEC
  0
SECTION
  2
CLASSES
  0
CLASS
  1
DICTIONARYVAR
  2
AcDbDictionaryVar
  3
ObjectDBX Classes
 90
        0
280
     0
281
     0
  0
CLASS
  1
ACDBDICTIONARYWDFLT
  2
AcDbDictionaryWithDefault
  3
ObjectDBX Classes
 90
        0
280
     0
281
     0
  0
CLASS
  1
ACDBPLACEHOLDER
  2
AcDbPlaceHolder
  3
ObjectDBX Classes
 90
        0
280
     0
281
     0
  0
CLASS
  1
LAYOUT
  2
AcDbLayout
  3
ObjectDBX Classes
 90
        0
280
     0
281
     0
  0
CLASS
  1
TABLESTYLE
  2
AcDbTableStyle
  3
ObjectDBX Classes
 90
     2047
280
     0
281
     0
  0
CLASS
  1
ACME_DOCUMENT
  2
AcMeDbDoc
  3
AcMeServices
 90
        0
280
     0
281
     0
  0
CLASS
  1
AMGSETTINGSOBJ
  2
AmgSettingsObj
  3
"AcadM|Product Description: AutoCAD Mechanical 2000|Company: Autodesk"
 90
        0
280
     0
281
     0
  0
CLASS
  1
ACMESCOPE
  2
AcMeScope
  3
AcMeServices
 90
        0
280
     0
281
     0
  0
CLASS
  1
ACMECOMMANDHISTORY
  2
AcMeCommandHistory
  3
AcMeServices
 90
        0
280
     0
281
     0
  0
CLASS
  1
ACIMSYSVARMAN
  2
AcImSysVarManager
  3
AcMeServices
 90
        0
280
     0
281
     0
  0
CLASS
  1
ACIMINTSYSVAR
  2
AcImIntSysVar
  3
AcMeServices
 90
        0
280
     0
281
     0
  0
CLASS
  1
ACMEDRAWINGMAN
  2
AcMeDrawingMan
  3
AcMeServices
 90
        0
280
     0
281
     0
  0
CLASS
  1
ACMEVIEW
  2
AcMeView
  3
AcMeServices
 90
        0
280
     0
281
     0
  0
CLASS
  1
ACDBENTITYCACHE
  2
AcMeEntityCache
  3
AcMeServices
 90
        0
280
     0
281
     0
  0
CLASS
  1
GSMANAGER
  2
AcMeGSManager
  3
AcMeServices
 90
        0
280
     0
281
     0
  0
CLASS
  1
AMDTINTERNALREACTOR
  2
AmdtInternalReactor
  3
AcMeServices
 90
        0
280
     0
281
     0
  0
CLASS
  1
ACMESTATEMGR
  2
AcMeStateMgr
  3
AcMeServices
 90
        0
280
     0
281
     0
  0
CLASS
  1
ACGREFMASTER
  2
AcGrefMaster
  3
AcAttribServices
 90
        0
280
     0
281
     0
  0
CLASS
  1
AM_DRAWING_MGR
  2
AcDmDwgMgr
  3
AcMechDwgViewMgmt
 90
        0
280
     0
281
     0
  0
CLASS
  1
AM_DWG_DOCUMENT
  2
AcDmDwgDocument
  3
AcMechDwgViewMgmt
 90
        0
280
     0
281
     0
  0
CLASS
  1
AM_DWG_SHEET
  2
AcDmSheet
  3
AcMechDwgViewMgmt
 90
        0
280
     0
281
     0
  0
CLASS
  1
AM_VIEWDIMPARMAP
  2
AcDmViewDimParMap
  3
AcMechDwgViewMgmt
 90
        0
280
     0
281
     0
  0
CLASS
  1
ACIMREALSYSVAR
  2
AcImRealSysVar
  3
AcMeServices
 90
        0
280
     0
281
     0
  0
CLASS
  1
AM_DWGMGR_NAME
  2
AcDmDwgMgrName
  3
AcMechDwgViewMgmt
 90
        0
280
     0
281
     0
  0
CLASS
  1
ACME_DATABASE
  2
AcMeDbDatabase
  3
AcMeServices
 90
        0
280
     0
281
     0
  0
CLASS
  1
ACRFINSADJUSTERMGR
  2
AcRfInsAdjusterMgr
  3
AcMeServices
 90
        0
280
     0
281
     0
  0
CLASS
  1
ACGREFACADMASTER
  2
AcGrefacadMaster
  3
AcGrefServices
 90
        0
280
     0
281
     0
  0
CLASS
  1
AMDTMENUSTATEMGR
  2
AmdtMenuStateMgr
  3
McadcomServices
 90
        0
280
     0
281
     0
  0
CLASS
  1
AMDTMCOMMENUSTATE
  2
AmdtMcomMenuState
  3
McadcomServices
 90
        0
280
     0
281
     0
  0
CLASS
  1
AMIMASTER
  2
AmiMaster
  3
AmiServices
 90
        0
280
     0
281
     0
  0
CLASS
  1
MAPIAMMOUDLE
  2
MApiAmModule
  3
MApiAmServices
 90
        0
280
     0
281
     0
  0
CLASS
  1
ACIMSTRSYSVAR
  2
AcImStrSysVar
  3
AcMeServices
 90
        0
280
     0
281
     0
  0
CLASS
  1
AMDTADMENUSTATE
  2
AmdtAdMenuState
  3
DesignerServices
 90
        0
280
     0
281
     0
  0
CLASS
  1
ADAPPL
  2
AcAdAppl
  3
DesignerServices
 90
        0
280
     0
281
     0
  0
CLASS
  1
DEPMGR
  2
AcAdDepMgr
  3
DesignerServices
 90
        0
280
     0
281
     0
  0
CLASS
  1
PARAMMGR
  2
AcAdParamMgr
  3
DesignerServices
 90
        0
280
     0
281
     0
  0
CLASS
  1
PARAMSCOPE
  2
AcAdParamScope
  3
DesignerServices
 90
        0
280
     0
281
     0
  0
CLASS
  1
NAMEDAPPL
  2
AcAdNamedAppl
  3
DesignerServices
 90
        0
280
     0
281
     0
  0
CLASS
  1
AMDTDMMENUSTATE
  2
AmdtDmMenuState
  3
AcMechDwgViewMgmt
 90
        0
280
     0
281
     0
  0
CLASS
  1
AMDTAMMENUSTATE
  2
AmdtAmMenuState
  3
DesignerAssemblies
 90
        0
280
     0
281
     0
  0
CLASS
  1
ACAMPROJECT
  2
AcAmProject
  3
DesignerAssemblies
 90
        0
280
     0
281
     0
  0
CLASS
  1
ACAMGRCOMPDEF
  2
AcAmGrCompDef
  3
DesignerAssemblies
 90
        0
280
     0
281
     0
  0
CLASS
  1
ACCMCONTEXT
  2
AcCmContext
  3
DesignerAssemblies
 90
        0
280
     0
281
     0
  0
CLASS
  1
ACAMCOMPDEF
  2
AcAmCompDef
  3
DesignerAssemblies
 90
        0
280
     0
281
     0
  0
CLASS
  1
ACAMCOMPDEFMGR
  2
AcAmCompDefMgr
  3
DesignerAssemblies
 90
        0
280
     0
281
     0
  0
CLASS
  1
AMCONTEXTMGR
  2
AcAmContextMgr
  3
DesignerAssemblies
 90
        0
280
     0
281
     0
  0
CLASS
  1
ACAMCONTEXTMODELER
  2
AcAmContextModeler
  3
DesignerAssemblies
 90
        0
280
     0
281
     0
  0
CLASS
  1
ACMDATADICTIONARY
  2
AcmDataDictionary
  3
"AcmSymBB|Product Description: AutoCAD Mechanical 2004 DX|Company: Autodesk"
 90
        0
280
     0
281
     0
  0
CLASS
  1
CATALOGSTATE
  2
AcAmCatalogState
  3
DesignerAssemblies
 90
        0
280
     0
281
     0
  0
CLASS
  1
ACAMGRCOMPDEFSET
  2
AcAmGrCompDefSet
  3
DesignerAssemblies
 90
        0
280
     0
281
     0
  0
CLASS
  1
AMDTBROWSERDBTAB
  2
AmdtBrowserDbTab
  3
McadcomServices
 90
        0
280
     0
281
     0
  0
CLASS
  1
CBROWSERAPPOBJECT
  2
CBrowserAppObject
  3
McadcomServices
 90
        0
280
     0
281
     0
  0
CLASS
  1
DM_PLACEHOLDER
  2
AcDmSelsetPlaceholder
  3
AcMechDwgViewMgmt
 90
        0
280
     0
281
     0
  0
CLASS
  1
ACMSTANDARDISO
  2
AcmStandardISO
  3
"Amdt_StdImp|Product Description: AutoCAD Mechanical 2004 DX|Company: Autodesk"
 90
        0
280
     0
281
     0
  0
CLASS
  1
AMGOBJPROPCFG
  2
AmgObjPropCfg
  3
"AmgLay|Product Description: AutoCAD Mechanical 2000|Company: Autodesk"
 90
        1
280
     0
281
     0
  0
CLASS
  1
AMDTEDGESTANDARDISO13715
  2
AmdtEdgeStdISO13715
  3
"Amdt_StdImp|Product Description: AutoCAD Mechanical 2004 DX|Company: Autodesk"
 90
        0
280
     0
281
     0
  0
CLASS
  1
ACMSURFSTANDARDISO
  2
AcmSurfTextStdISO
  3
"Amdt_StdImp|Product Description: AutoCAD Mechanical 2004 DX|Company: Autodesk"
 90
        0
280
     0
281
     0
  0
CLASS
  1
ACMFCFSTANDARDISO
  2
AcmFCFStdISO
  3
"Amdt_StdImp|Product Description: AutoCAD Mechanical 2004 DX|Company: Autodesk"
 90
        0
280
     0
281
     0
  0
CLASS
  1
ACMWELDSTANDARDISO
  2
AcmWeldingStdISO
  3
"Amdt_StdImp|Product Description: AutoCAD Mechanical 2004 DX|Company: Autodesk"
 90
        0
280
     0
281
     0
  0
CLASS
  1
ACMIDSTANDARDISO
  2
AcmIdStdISO
  3
"Amdt_StdImp|Product Description: AutoCAD Mechanical 2004 DX|Company: Autodesk"
 90
        0
280
     0
281
     0
  0
CLASS
  1
ACMDATUMSTANDARDISO
  2
AcmDatumStdISO
  3
"Amdt_StdImp|Product Description: AutoCAD Mechanical 2004 DX|Company: Autodesk"
 90
        0
280
     0
281
     0
  0
CLASS
  1
ACMBOMSTANDARDISO
  2
AcmBOMStdISO
  3
"Amdt_StdImp|Product Description: AutoCAD Mechanical 2004 DX|Company: Autodesk"
 90
        0
280
     0
281
     0
  0
CLASS
  1
ACMDETAILSTANDARDISO
  2
AmdtDetailSymStdISO
  3
"Amdt_StdImp|Product Description: AutoCAD Mechanical 2004 DX|Company: Autodesk"
 90
        0
280
     0
281
     0
  0
CLASS
  1
ACMSECTIONSTANDARDISO
  2
AmdtSectionSymStdISO
  3
"Amdt_StdImp|Product Description: AutoCAD Mechanical 2004 DX|Company: Autodesk"
 90
        0
280
     0
281
     0
  0
CLASS
  1
ACMCENTERLINESTANDARDISO
  2
AmdtCenterLineStdISO
  3
"Amdt_StdImp|Product Description: AutoCAD Mechanical 2004 DX|Company: Autodesk"
 90
        0
280
     0
281
     0
  0
CLASS
  1
ACMTHREADLINESTANDARDISO
  2
AmdtThreadLineStdISO
  3
"Amdt_StdImp|Product Description: AutoCAD Mechanical 2004 DX|Company: Autodesk"
 90
        0
280
     0
281
     0
  0
CLASS
  1
ACMNOTESTANDARDISO
  2
AmdtNoteStdISO
  3
"Amdt_StdImp|Product Description: AutoCAD Mechanical 2004 DX|Company: Autodesk"
 90
        0
280
     0
281
     0
  0
CLASS
  1
AMDTNOTETEMPLATEDB
  2
AmdtNoteTemplateDB
  3
AMDT_STDIMP_MODULE_NAME
 90
        0
280
     0
281
     0
  0
CLASS
  1
ACAMGLAYSTD
  2
AcAmgLayStd
  3
"AcAmgLayStd|Product Description: AutoCAD Mechanical 2000|Company: Autodesk"
 90
        0
280
     0
281
     0
  0
CLASS
  1
ACAMGDIMSTD
  2
AcAmgDimStd
  3
"AcAmgDimStd|Product Description: AutoCAD Mechanical 2000|Company: Autodesk"
 90
        0
280
     0
281
     0
  0
CLASS
  1
ACAMGHOLECHARTSTDISO
  2
AcAmgHoleChartStdISO
  3
ACMSYMBB_MODULE_NAME
 90
        0
280
     0
281
     0
  0
CLASS
  1
ACAMGTITLESTD
  2
AcAmgTitleStd
  3
"TITLEAPP"
 90
        0
280
     0
281
     0
  0
CLASS
  1
ACAMGFILTERDAT
  2
AcAmgFilterDat
  3
"AcadM|Product Description: AutoCAD Mechanical 2000|Company: Autodesk"
 90
    32768
280
     0
281
     0
  0
CLASS
  1
SORTENTSTABLE
  2
AcDbSortentsTable
  3
ObjectDBX Classes
 90
    32768
280
     0
281
     0
  0
CLASS
  1
ACMDATAENTRYBLOCK
  2
AcmDataEntryBlock
  3
"AcmSymBB|Product Description: AutoCAD Mechanical 2004 DX|Company: Autodesk"
 90
    32768
280
     0
281
     0
  0
ENDSEC
  0
SECTION
  2
TABLES
  0
TABLE
  2
VPORT
  5
458C7
330
0
100
AcDbSymbolTable
 70
     3
  0
VPORT
  5
462AC
330
458C7
100
AcDbSymbolTableRecord
100
AcDbViewportTableRecord
  2
*Active
 70
     0
 10
0.0
 20
0.0
 11
1.0
 21
1.0
 12
183.1579702571009
 22
-82.49133842870111
 13
0.0
 23
0.0
 14
0.25
 24
0.25
 15
0.25
 25
0.25
 16
0.0
 26
0.0
 36
1.0
 17
0.0
 27
0.0
 37
0.0
 40
195.3194334495671
 41
1.978586723768736
 42
50.0
 43
0.0
 44
0.0
 50
0.0
 51
0.0
 71
     0
 72
 20000
 73
     1
 74
     1
 75
     0
 76
     0
 77
     0
 78
     0
281
     0
 65
     0
110
0.0
120
0.0
130
0.0
111
1.0
121
0.0
131
0.0
112
0.0
122
1.0
132
0.0
 79
     1
146
0.0
  0
ENDTAB
  0
TABLE
  2
LTYPE
  5
458C4
330
0
100
AcDbSymbolTable
 70
    14
  0
LTYPE
  5
458D0
330
458C4
100
AcDbSymbolTableRecord
100
AcDbLinetypeTableRecord
  2
BYBLOCK
 70
     0
  3

 72
    65
 73
     0
 40
0.0
  0
LTYPE
  5
458D1
330
458C4
100
AcDbSymbolTableRecord
100
AcDbLinetypeTableRecord
  2
BYLAYER
 70
     0
  3

 72
    65
 73
     0
 40
0.0
  0
LTYPE
  5
458D2
330
458C4
100
AcDbSymbolTableRecord
100
AcDbLinetypeTableRecord
  2
CONTINUOUS
 70
     0
  3
Solid line
 72
    65
 73
     0
 40
0.0
  0
LTYPE
  5
45A1F
330
458C4
100
AcDbSymbolTableRecord
100
AcDbLinetypeTableRecord
  2
HIDDEN
 70
     0
  3
Hidden __ __ __ __ __ __ __ __ __ __ __ __ __ _
 72
    65
 73
     2
 40
9.524999999999996
 49
6.349999999999997
 74
     0
 49
-3.174999999999998
 74
     0
  0
LTYPE
  5
45A20
330
458C4
100
AcDbSymbolTableRecord
100
AcDbLinetypeTableRecord
  2
PHANTOM2
 70
     0
  3
Phantom (.5x) ___ _ _ ___ _ _ ___ _ _ ___ _ _
 72
    65
 73
     6
 40
31.75
 49
15.875
 74
     0
 49
-3.174999999999998
 74
     0
 49
3.174999999999998
 74
     0
 49
-3.174999999999998
 74
     0
 49
3.174999999999998
 74
     0
 49
-3.174999999999998
 74
     0
  0
LTYPE
  5
45A21
330
458C4
100
AcDbSymbolTableRecord
100
AcDbLinetypeTableRecord
  2
CENTER
 70
     0
  3
Center ____ _ ____ _ ____ _ ____ _ ____ _ ____
 72
    65
 73
     4
 40
50.8
 49
31.75
 74
     0
 49
-6.349999999999997
 74
     0
 49
6.349999999999997
 74
     0
 49
-6.349999999999997
 74
     0
  0
LTYPE
  5
45A55
330
458C4
100
AcDbSymbolTableRecord
100
AcDbLinetypeTableRecord
  2
AM_ISO02W050
 70
     0
  3
__ __ __ __ __ __ __ __ __ __ __ __ __ __ __
 72
    65
 73
     2
 40
7.5
 49
6.0
 74
     0
 49
-1.5
 74
     0
  0
LTYPE
  5
45A56
330
458C4
100
AcDbSymbolTableRecord
100
AcDbLinetypeTableRecord
  2
AM_ISO08W050
 70
     0
  3
____ . ____ . ____ . ____ . ____ . ____ . ____
 72
    65
 73
     4
 40
18.0
 49
12.0
 74
     0
 49
-1.5
 74
     0
 49
3.0
 74
     0
 49
-1.5
 74
     0
  0
LTYPE
  5
45A57
330
458C4
100
AcDbSymbolTableRecord
100
AcDbLinetypeTableRecord
  2
AM_ISO09W050
 70
     0
  3
_____ . . _____ . . _____ . . ____ .. ____
 72
    65
 73
     6
 40
22.5
 49
12.0
 74
     0
 49
-1.5
 74
     0
 49
3.0
 74
     0
 49
-1.5
 74
     0
 49
3.0
 74
     0
 49
-1.5
 74
     0
  0
LTYPE
  5
45A58
330
458C4
100
AcDbSymbolTableRecord
100
AcDbLinetypeTableRecord
  2
Amconstr
 70
     0
  3
_______________________
 72
    65
 73
     2
 40
9999.0
 49
9999.0
 74
     0
 49
0.0
 74
     0
  0
LTYPE
  5
45A59
330
458C4
100
AcDbSymbolTableRecord
100
AcDbLinetypeTableRecord
  2
AM_ISO08W050x2
 70
     0
  3
__ . __ . __ . __ . __ . __
 72
    65
 73
     4
 40
9.0
 49
6.0
 74
     0
 49
-0.75
 74
     0
 49
1.5
 74
     0
 49
-0.75
 74
     0
  0
LTYPE
  5
45A5A
330
458C4
100
AcDbSymbolTableRecord
100
AcDbLinetypeTableRecord
  2
AM_ISO02W050x2
 70
     0
  3
 _ _ _ _ _ _ _ _ _ _ _ _
 72
    65
 73
     2
 40
3.75
 49
3.0
 74
     0
 49
-0.75
 74
     0
  0
LTYPE
  5
45A5D
330
458C4
100
AcDbSymbolTableRecord
100
AcDbLinetypeTableRecord
  2
Amzigzag
 70
     0
  3
/\/-/\/-/\/-/\/-/\/-/\/
 72
    65
 73
     2
 40
11.0001
 49
0.0001
 74
     4
 75
   136
340
45A5C
 46
0.04
 50
0.0
 44
0.0
 45
0.0
 49
-11.0
 74
     0
  0
LTYPE
  5
45A6C
330
458C4
100
AcDbSymbolTableRecord
100
AcDbLinetypeTableRecord
  2
ACISOWELD
 70
     0
  3
_ _ _ _ _
 72
    65
 73
     2
 40
2.0
 49
2.0
 74
     0
 49
-1.0
 74
     0
  0
LTYPE
  5
45A6D
330
458C4
100
AcDbSymbolTableRecord
100
AcDbLinetypeTableRecord
  2
ACISOTGB
 70
     0
  3
__ . . __ . .
 72
    65
 73
     6
 40
9.0
 49
4.0
 74
     0
 49
-1.0
 74
     0
 49
1.0
 74
     0
 49
-1.0
 74
     0
 49
1.0
 74
     0
 49
-1.0
 74
     0
  0
LTYPE
  5
45A6E
330
458C4
100
AcDbSymbolTableRecord
100
AcDbLinetypeTableRecord
  2
ACISOTGL
 70
     0
  3
_ _ _ _ _
 72
    65
 73
     2
 40
3.0
 49
2.0
 74
     0
 49
-1.0
 74
     0
  0
ENDTAB
  0
TABLE
  2
LAYER
  5
458C1
330
0
100
AcDbSymbolTable
 70
     2
  0
LAYER
  5
458CD
330
458C1
100
AcDbSymbolTableRecord
100
AcDbLayerTableRecord
  2
0
 70
     0
 62
     7
  6
CONTINUOUS
370
    -3
390
458FA
  0
LAYER
  5
45946
330
458C1
100
AcDbSymbolTableRecord
100
AcDbLayerTableRecord
  2
Defpoints
 70
     0
 62
     7
  6
CONTINUOUS
290
     0
370
    -3
390
458FA
  0
ENDTAB
  0
TABLE
  2
STYLE
  5
458C2
330
0
100
AcDbSymbolTable
 70
     4
  0
STYLE
  5
458CE
330
458C2
100
AcDbSymbolTableRecord
100
AcDbTextStyleTableRecord
  2
STANDARD
 70
     0
 40
0.0
 41
1.0
 50
0.0
 71
     0
 42
0.12
  3
txt
  4

  0
STYLE
  5
45A5C
330
458C2
100
AcDbSymbolTableRecord
100
AcDbTextStyleTableRecord
  2

 70
     1
 40
0.0
 41
1.0
 50
0.0
 71
     0
 42
0.12
  3
genltshp.shx
  4

  0
STYLE
  5
45A5E
330
458C2
100
AcDbSymbolTableRecord
100
AcDbTextStyleTableRecord
  2
ACISOTS
 70
     0
 40
1.0
 41
1.0
 50
0.0
 71
     0
 42
0.12
  3
isocp.shx
  4

  0
STYLE
  5
45A6B
330
458C2
100
AcDbSymbolTableRecord
100
AcDbTextStyleTableRecord
  2
ACISOGDT
 70
     0
 40
0.0
 41
1.0
 50
0.0
 71
     0
 42
0.12
  3
amgdt.shx
  4

  0
ENDTAB
  0
TABLE
  2
VIEW
  5
458C5
330
0
100
AcDbSymbolTable
 70
     0
  0
ENDTAB
  0
TABLE
  2
UCS
  5
458C6
330
0
100
AcDbSymbolTable
 70
     0
  0
ENDTAB
  0
TABLE
  2
APPID
  5
458C8
330
0
100
AcDbSymbolTable
 70
    14
  0
APPID
  5
458CF
330
458C8
100
AcDbSymbolTableRecord
100
AcDbRegAppTableRecord
  2
ACAD
 70
     0
  0
APPID
  5
459F2
330
458C8
100
AcDbSymbolTableRecord
100
AcDbRegAppTableRecord
  2
MCAD_NO_VIS
 70
     0
  0
APPID
  5
459F3
330
458C8
100
AcDbSymbolTableRecord
100
AcDbRegAppTableRecord
  2
ACAD_TEMP_GRAPHIC
 70
     0
  0
APPID
  5
45A23
330
458C8
100
AcDbSymbolTableRecord
100
AcDbRegAppTableRecord
  2
AD_DRAW
 70
     0
  0
APPID
  5
45A26
330
458C8
100
AcDbSymbolTableRecord
100
AcDbRegAppTableRecord
  2
ACATTRIBSERVICES
 70
     0
  0
APPID
  5
45A46
330
458C8
100
AcDbSymbolTableRecord
100
AcDbRegAppTableRecord
  2
DESIGNERASSEMBLIES
 70
     0
  0
APPID
  5
45A4C
330
458C8
100
AcDbSymbolTableRecord
100
AcDbRegAppTableRecord
  2
ACADM_DIM_EDIT
 70
     0
  0
APPID
  5
45A4D
330
458C8
100
AcDbSymbolTableRecord
100
AcDbRegAppTableRecord
  2
AMDT_DM_ADJ
 70
     0
  0
APPID
  5
45A7A
330
458C8
100
AcDbSymbolTableRecord
100
AcDbRegAppTableRecord
  2
ACAD_DSTYLE_DIMARC_LENGTH_SYMBOL
 70
     0
  0
APPID
  5
45A7B
330
458C8
100
AcDbSymbolTableRecord
100
AcDbRegAppTableRecord
  2
ACAD_DSTYLE_DIMJOGGED_JOGANGLE_SYMBOL
 70
     0
  0
APPID
  5
46122
330
458C8
100
AcDbSymbolTableRecord
100
AcDbRegAppTableRecord
  2
GENIUS_GENSCREG_15
 70
     0
  0
APPID
  5
46123
330
458C8
100
AcDbSymbolTableRecord
100
AcDbRegAppTableRecord
  2
GENIUS_GENOBJ-N-SDF_13
 70
     0
  0
APPID
  5
46124
330
458C8
100
AcDbSymbolTableRecord
100
AcDbRegAppTableRecord
  2
GENIUS_GENODEF_13
 70
     0
  0
APPID
  5
46128
330
458C8
100
AcDbSymbolTableRecord
100
AcDbRegAppTableRecord
  2
AcAecLayerStandard
 70
     0
  0
ENDTAB
  0
TABLE
  2
DIMSTYLE
  5
458C9
330
0
100
AcDbSymbolTable
 70
     9
100
AcDbDimStyleTable
 71
     1
340
458F6
  0
DIMSTYLE
105
458F6
330
458C9
100
AcDbSymbolTableRecord
100
AcDbDimStyleTableRecord
  2
ABECAD_3D
 70
     0
 41
4.572
 42
1.587499999999999
 43
9.525
 44
4.572
 73
     0
 78
     4
140
4.572
141
2.286
143
0.03937
146
1.5
147
2.286
170
     1
171
     6
271
     2
272
     2
273
     7
274
     6
276
     2
279
     2
284
     4
285
     4
286
     4
288
     1
289
     2
340
458CE
  0
DIMSTYLE
105
45A79
330
458C9
100
AcDbSymbolTableRecord
100
AcDbDimStyleTableRecord
  2
AM_ISO
 70
     0
  4
"
 41
2.5
 42
1.0
 43
10.0
 44
1.0
 47
0.1
 48
0.1
 73
     0
 74
     0
 77
     1
 78
     8
 79
     2
140
3.5
141
0.0
143
0.0393701
146
0.71
147
1.5
172
     1
176
   256
177
   256
178
     2
271
     2
272
     3
274
     4
283
     0
284
     8
340
458CE
371
    -1
372
    -1
1001
ACAD_DSTYLE_DIMARC_LENGTH_SYMBOL
1070
   379
1070
     1
1001
ACAD_DSTYLE_DIMJOGGED_JOGANGLE_SYMBOL
1070
   384
1040
0.7853981633974483
  0
DIMSTYLE
105
45A82
330
458C9
100
AcDbSymbolTableRecord
100
AcDbDimStyleTableRecord
  2
AM_ISO$3
 70
     0
  4
"
 41
2.5
 42
1.0
 43
10.0
 44
1.0
 47
0.1
 48
0.1
 73
     0
 77
     1
 78
     8
 79
     2
140
3.5
141
0.0
143
0.0393701
146
0.71
147
1.5
176
   256
177
   256
178
     2
271
     2
272
     3
274
     4
283
     0
284
     8
288
     1
289
     0
340
458CE
371
    -1
372
    -1
1001
ACAD_DSTYLE_DIMARC_LENGTH_SYMBOL
1070
   379
1070
     1
1001
ACAD_DSTYLE_DIMJOGGED_JOGANGLE_SYMBOL
1070
   384
1040
0.7853981633974483
  0
DIMSTYLE
105
45A85
330
458C9
100
AcDbSymbolTableRecord
100
AcDbDimStyleTableRecord
  2
AM_ISO$4
 70
     0
  4
"
 41
2.5
 42
1.0
 43
10.0
 44
1.0
 47
0.1
 48
0.1
 73
     0
 77
     1
 78
     8
 79
     2
140
3.5
141
0.0
143
0.0393701
146
0.71
147
1.5
176
   256
177
   256
178
     2
271
     2
272
     3
274
     4
283
     0
284
     8
288
     1
289
     0
340
458CE
371
    -1
372
    -1
1001
ACAD_DSTYLE_DIMARC_LENGTH_SYMBOL
1070
   379
1070
     1
1001
ACAD_DSTYLE_DIMJOGGED_JOGANGLE_SYMBOL
1070
   384
1040
0.7853981633974483
  0
DIMSTYLE
105
45A88
330
458C9
100
AcDbSymbolTableRecord
100
AcDbDimStyleTableRecord
  2
AM_ISO$6
 70
     0
  4
"
 41
2.5
 42
1.0
 43
10.0
 44
1.0
 47
0.1
 48
0.1
 73
     0
 74
     0
 78
     8
 79
     2
140
3.5
141
0.0
143
0.0393701
146
0.71
147
1.5
172
     1
176
   256
177
   256
178
     2
271
     2
272
     3
274
     4
283
     0
284
     8
340
458CE
371
    -1
372
    -1
1001
ACAD_DSTYLE_DIMARC_LENGTH_SYMBOL
1070
   379
1070
     1
1001
ACAD_DSTYLE_DIMJOGGED_JOGANGLE_SYMBOL
1070
   384
1040
0.7853981633974483
  0
DIMSTYLE
105
45A8B
330
458C9
100
AcDbSymbolTableRecord
100
AcDbDimStyleTableRecord
  2
AM_ISO$7
 70
     0
  4
"
 41
2.5
 42
1.0
 43
10.0
 44
1.0
 47
0.1
 48
0.1
 73
     0
 74
     0
 77
     1
 78
     8
 79
     2
140
5.0
141
0.0
143
0.0393701
146
0.71
147
1.5
172
     1
176
   256
177
   256
178
     2
271
     2
272
     3
274
     4
283
     0
284
     8
340
458CE
371
    -1
372
    -1
1001
ACAD_DSTYLE_DIMARC_LENGTH_SYMBOL
1070
   379
1070
     1
1001
ACAD_DSTYLE_DIMJOGGED_JOGANGLE_SYMBOL
1070
   384
1040
0.7853981633974483
  0
DIMSTYLE
105
45A8E
330
458C9
100
AcDbSymbolTableRecord
100
AcDbDimStyleTableRecord
  2
AM_ISO$SF
 70
     0
  4
"
 41
2.5
 42
1.0
 43
10.0
 44
1.0
 47
0.1
 48
0.1
 73
     0
 74
     0
 75
     1
 76
     1
 77
     1
 78
     8
 79
     2
140
3.5
141
0.0
143
0.0393701
146
0.71
147
1.5
172
     1
176
   256
177
   256
178
     2
271
     2
272
     3
274
     4
283
     0
284
     8
340
458CE
371
    -1
372
    -1
1001
ACAD_DSTYLE_DIMARC_LENGTH_SYMBOL
1070
   379
1070
     1
1001
ACAD_DSTYLE_DIMJOGGED_JOGANGLE_SYMBOL
1070
   384
1040
0.7853981633974483
  0
DIMSTYLE
105
45A95
330
458C9
100
AcDbSymbolTableRecord
100
AcDbDimStyleTableRecord
  2
AM_ISO$SH
 70
     0
  4
"
 41
2.5
 42
1.0
 43
10.0
 44
1.0
 47
0.1
 48
0.1
 73
     0
 74
     0
 75
     1
 76
     1
 77
     1
 78
     8
 79
     2
140
3.5
141
0.0
143
0.0393701
144
2.0
146
0.71
147
1.5
172
     1
173
     1
176
   256
177
   256
178
     2
271
     2
272
     3
274
     4
283
     0
284
     8
340
458CE
343
45A8F
371
    -1
372
    -1
1001
ACAD_DSTYLE_DIMARC_LENGTH_SYMBOL
1070
   379
1070
     1
1001
ACAD_DSTYLE_DIMJOGGED_JOGANGLE_SYMBOL
1070
   384
1040
0.7853981633974483
  0
DIMSTYLE
105
46134
102
{ACAD_REACTORS
330
46138
330
46165
102
}
330
458C9
100
AcDbSymbolTableRecord
100
AcDbDimStyleTableRecord
  2
ABECAD_3D$0
 70
     0
 41
4.572
 42
1.587499999999999
 43
9.525
 44
4.572
 73
     0
 78
     4
140
4.572
141
2.286
143
0.03937
146
1.5
147
2.286
170
     1
171
     6
271
     2
272
     2
273
     7
274
     6
276
     2
279
     2
284
     4
285
     4
286
     4
288
     1
289
     2
340
458CE
  0
ENDTAB
  0
TABLE
  2
BLOCK_RECORD
  5
458C0
330
0
100
AcDbSymbolTable
 70
     4
  0
BLOCK_RECORD
  5
458D6
102
{ACAD_XDICTIONARY
360
45930
102
}
330
458C0
100
AcDbSymbolTableRecord
100
AcDbBlockTableRecord
  2
*MODEL_SPACE
340
458FD
  0
BLOCK_RECORD
  5
458D3
102
{ACAD_XDICTIONARY
360
4592E
102
}
330
458C0
100
AcDbSymbolTableRecord
100
AcDbBlockTableRecord
  2
*PAPER_SPACE
340
458FE
  0
BLOCK_RECORD
  5
45A8F
330
458C0
100
AcDbSymbolTableRecord
100
AcDbBlockTableRecord
  2
GENAXEH
340
0
  0
BLOCK_RECORD
  5
46139
330
458C0
100
AcDbSymbolTableRecord
100
AcDbBlockTableRecord
  2
*D1
340
0
  0
BLOCK_RECORD
  5
46166
330
458C0
100
AcDbSymbolTableRecord
100
AcDbBlockTableRecord
  2
*D2
340
0
  0
ENDTAB
  0
ENDSEC
  0
SECTION
  2
BLOCKS
  0
BLOCK
  5
458DF
330
458D6
100
AcDbEntity
  8
0
100
AcDbBlockBegin
  2
*MODEL_SPACE
 70
     0
 10
0.0
 20
0.0
 30
0.0
  3
*MODEL_SPACE
  1

  0
ENDBLK
  5
458E0
330
458D6
100
AcDbEntity
  8
0
100
AcDbBlockEnd
  0
BLOCK
  5
458DD
330
458D3
100
AcDbEntity
 67
     1
  8
0
100
AcDbBlockBegin
  2
*PAPER_SPACE
 70
     0
 10
0.0
 20
0.0
 30
0.0
  3
*PAPER_SPACE
  1

  0
ENDBLK
  5
458DE
330
458D3
100
AcDbEntity
 67
     1
  8
0
100
AcDbBlockEnd
  0
BLOCK
  5
45A91
330
45A8F
100
AcDbEntity
  8
0
100
AcDbBlockBegin
  2
GENAXEH
 70
     0
 10
0.0
 20
0.0
 30
0.0
  3
GENAXEH
  1

  0
LINE
  5
45A90
330
45A8F
100
AcDbEntity
  8
0
100
AcDbLine
 10
-1.0
 20
0.0
 30
0.0
 11
1.0
 21
0.0
 31
0.0
  0
ENDBLK
  5
45A92
330
45A8F
100
AcDbEntity
  8
0
100
AcDbBlockEnd
  0
BLOCK
  5
46143
330
46139
100
AcDbEntity
  8
0
100
AcDbBlockBegin
  2
*D1
 70
     1
 10
0.0
 20
0.0
 30
0.0
  3
*D1
  1

  0
LINE
  5
4618A
330
46139
100
AcDbEntity
  8
0
 62
     0
370
    -2
100
AcDbLine
 10
163.1844139453015
 20
-21.78586771218864
 30
0.0
 11
163.1844139453015
 21
-6.801367712188638
 31
0.0
  0
LINE
  5
4618B
330
46139
100
AcDbEntity
  8
0
 62
     0
370
    -2
100
AcDbLine
 10
197.7771429313215
 20
-21.78586771218864
 30
0.0
 11
197.7771429313215
 21
-6.801367712188638
 31
0.0
  0
LINE
  5
4618C
330
46139
100
AcDbEntity
  8
0
 62
     0
370
    -2
100
AcDbLine
 10
167.7564139453015
 20
-11.37336771218864
 30
0.0
 11
193.2051429313215
 21
-11.37336771218864
 31
0.0
  0
MTEXT
  5
4618D
330
46139
100
AcDbEntity
  8
0
 62
     0
100
AcDbMText
 10
180.4807784383115
 20
1.341632287811362
 30
0.0
 40
7.0
 41
0.0
 71
     5
 72
     1
  1
\A1;34.59 [1 23/64]
 73
     1
 44
1.0
1001
ACAD
1000
MTEXTBEGIN
1070
    73
1070
     1
1070
    44
1040
1.0
1070
    74
1070
     0
1000
MTEXTEND
  0
SOLID
  5
4618E
330
46139
100
AcDbEntity
  8
0
 62
     0
100
AcDbTrace
 10
167.7564139453015
 20
-10.61136771218864
 30
0.0
 11
167.7564139453015
 21
-12.13536771218864
 31
0.0
 12
163.1844139453015
 22
-11.37336771218864
 32
0.0
 13
163.1844139453015
 23
-11.37336771218864
 33
0.0
  0
SOLID
  5
4618F
330
46139
100
AcDbEntity
  8
0
 62
     0
100
AcDbTrace
 10
193.2051429313215
 20
-10.61136771218864
 30
0.0
 11
193.2051429313215
 21
-12.13536771218864
 31
0.0
 12
197.7771429313215
 22
-11.37336771218864
 32
0.0
 13
197.7771429313215
 23
-11.37336771218864
 33
0.0
  0
POINT
  5
46190
330
46139
100
AcDbEntity
  8
Defpoints
 62
     0
100
AcDbPoint
 10
163.1844139453015
 20
-23.37336771218864
 30
0.0
  0
POINT
  5
46191
330
46139
100
AcDbEntity
  8
Defpoints
 62
     0
100
AcDbPoint
 10
197.7771429313215
 20
-23.37336771218864
 30
0.0
  0
POINT
  5
46192
330
46139
100
AcDbEntity
  8
Defpoints
 62
     0
100
AcDbPoint
 10
197.7771429313215
 20
-11.37336771218864
 30
0.0
  0
ENDBLK
  5
46144
330
46139
100
AcDbEntity
  8
0
100
AcDbBlockEnd
  0
BLOCK
  5
46171
330
46166
100
AcDbEntity
  8
0
100
AcDbBlockBegin
  2
*D2
 70
     1
 10
0.0
 20
0.0
 30
0.0
  3
*D2
  1

  0
LINE
  5
46180
330
46166
100
AcDbEntity
  8
0
 62
     0
370
    -2
100
AcDbLine
 10
199.3646429313215
 20
-23.37336771218864
 30
0.0
 11
214.3491429313216
 21
-23.37336771218864
 31
0.0
  0
LINE
  5
46181
330
46166
100
AcDbEntity
  8
0
 62
     0
370
    -2
100
AcDbLine
 10
199.3646429313215
 20
-168.79314452842
 30
0.0
 11
214.3491429313215
 21
-168.79314452842
 31
0.0
  0
LINE
  5
46182
330
46166
100
AcDbEntity
  8
0
 62
     0
370
    -2
100
AcDbLine
 10
209.7771429313215
 20
-27.94536771218864
 30
0.0
 11
209.7771429313215
 21
-44.7972561203043
 31
0.0
  0
LINE
  5
46183
330
46166
100
AcDbEntity
  8
0
 62
     0
370
    -2
100
AcDbLine
 10
209.7771429313215
 20
-164.22114452842
 30
0.0
 11
209.7771429313215
 21
-147.3692561203043
 31
0.0
  0
SOLID
  5
46184
330
46166
100
AcDbEntity
  8
0
 62
     0
100
AcDbTrace
 10
209.0151429313216
 20
-27.94536771218864
 30
0.0
 11
210.5391429313216
 21
-27.94536771218864
 31
0.0
 12
209.7771429313215
 22
-23.37336771218864
 32
0.0
 13
209.7771429313215
 23
-23.37336771218864
 33
0.0
  0
SOLID
  5
46185
330
46166
100
AcDbEntity
  8
0
 62
     0
100
AcDbTrace
 10
209.0151429313215
 20
-164.22114452842
 30
0.0
 11
210.5391429313215
 21
-164.22114452842
 31
0.0
 12
209.7771429313215
 22
-168.79314452842
 32
0.0
 13
209.7771429313215
 23
-168.79314452842
 33
0.0
  0
MTEXT
  5
46186
330
46166
100
AcDbEntity
  8
0
 62
     0
100
AcDbMText
 10
209.7771429313215
 20
-96.08325612030428
 30
0.0
 40
7.0
 41
0.0
 71
     5
 72
     1
  1
\A1;145.42 [5 23/32]
 11
0.0000000000000001
 21
1.0
 31
0.0
 73
     1
 44
1.0
1001
ACAD
1000
MTEXTBEGIN
1070
    73
1070
     1
1070
    44
1040
1.0
1070
    74
1070
     0
1000
MTEXTEND
  0
POINT
  5
46187
330
46166
100
AcDbEntity
  8
Defpoints
 62
     0
100
AcDbPoint
 10
197.7771429313215
 20
-23.37336771218864
 30
0.0
  0
POINT
  5
46188
330
46166
100
AcDbEntity
  8
Defpoints
 62
     0
100
AcDbPoint
 10
197.7771429313215
 20
-168.79314452842
 30
0.0
  0
POINT
  5
46189
330
46166
100
AcDbEntity
  8
Defpoints
 62
     0
100
AcDbPoint
 10
209.7771429313215
 20
-168.79314452842
 30
0.0
  0
ENDBLK
  5
46172
330
46166
100
AcDbEntity
  8
0
100
AcDbBlockEnd
  0
ENDSEC
  0
SECTION
  2
ENTITIES
  0
LINE
  5
45D97
330
458D6
100
AcDbEntity
  8
0
100
AcDbLine
 10
166.6397379022384
 20
-164.2913510302393
 30
-52.3034049058431
 11
166.6397379022384
 21
-167.4110149456452
 31
-52.3034049058431
  0
LINE
  5
45D98
330
458D6
100
AcDbEntity
  8
0
100
AcDbLine
 10
166.6397379022384
 20
-167.4110149456452
 30
-52.3034049058431
 11
163.1844139453015
 21
-167.4110149456452
 31
-52.3034049058431
  0
LINE
  5
45D99
330
458D6
100
AcDbEntity
  8
0
100
AcDbLine
 10
163.1844139453015
 20
-167.4110149456452
 30
-52.3034049058431
 11
163.1844139453015
 21
-168.79314452842
 31
-52.3034049058431
  0
LINE
  5
45D9A
330
458D6
100
AcDbEntity
  8
0
100
AcDbLine
 10
163.1844139453015
 20
-168.79314452842
 30
-52.3034049058431
 11
197.7771429313215
 21
-168.79314452842
 31
-52.3034049058431
  0
LINE
  5
45D9B
330
458D6
100
AcDbEntity
  8
0
100
AcDbLine
 10
197.7771429313215
 20
-168.79314452842
 30
-52.3034049058431
 11
197.7771429313215
 21
-167.4110149456452
 31
-52.3034049058431
  0
LINE
  5
45D9C
330
458D6
100
AcDbEntity
  8
0
100
AcDbLine
 10
197.7771429313215
 20
-167.4110149456452
 30
-52.3034049058431
 11
191.5476874546725
 21
-167.4110149456452
 31
-52.3034049058431
  0
LINE
  5
45D9D
330
458D6
100
AcDbEntity
  8
0
100
AcDbLine
 10
191.5476874546725
 20
-167.4110149456452
 30
-52.3034049058431
 11
191.2021550589787
 21
-164.2913510302393
 31
-52.3034049058431
  0
LINE
  5
45D9E
330
458D6
100
AcDbEntity
  8
0
100
AcDbLine
 10
195.7039485571594
 20
-92.27252741351104
 30
-52.3034049058431
 11
195.7039485571594
 21
-91.9269950178173
 31
-52.3034049058431
  0
LINE
  5
45D9F
330
458D6
100
AcDbEntity
  8
0
100
AcDbLine
 10
195.7039485571594
 20
-100.2395172227912
 30
-52.3034049058431
 11
195.7039485571594
 21
-99.89398482709765
 31
-52.3034049058431
  0
LINE
  5
45DA0
330
458D6
100
AcDbEntity
  8
0
100
AcDbLine
 10
195.7039485571594
 20
-108.2065070320716
 30
-52.3034049058431
 11
195.7039485571594
 21
-107.8609746363779
 31
-52.3034049058431
  0
LINE
  5
45DA1
330
458D6
100
AcDbEntity
  8
0
100
AcDbLine
 10
195.7039485571594
 20
-116.5091568828829
 30
-52.3034049058431
 11
195.7039485571594
 21
-115.8180920914955
 31
-52.3034049058431
  0
LINE
  5
45DA2
330
458D6
100
AcDbEntity
  8
0
100
AcDbLine
 10
195.7039485571594
 20
-124.4761466921632
 30
-52.3034049058431
 11
195.7039485571594
 21
-124.1306142964695
 31
-52.3034049058431
  0
LINE
  5
45DA3
330
458D6
100
AcDbEntity
  8
0
100
AcDbLine
 10
195.7039485571594
 20
-133.4797336885245
 30
-52.3034049058431
 11
195.7039485571594
 21
-131.7421993558934
 31
-52.3034049058431
  0
LINE
  5
45DA4
330
458D6
100
AcDbEntity
  8
0
100
AcDbLine
 10
195.7039485571594
 20
-140.4002539565611
 30
-52.3034049058431
 11
195.7039485571594
 21
-140.0547215608674
 31
-52.3034049058431
  0
LINE
  5
45DA5
330
458D6
100
AcDbEntity
  8
0
100
AcDbLine
 10
195.7039485571594
 20
-148.3672437658414
 30
-52.3034049058431
 11
195.7039485571594
 21
-148.0217113701477
 31
-52.3034049058431
  0
LINE
  5
45DA6
330
458D6
100
AcDbEntity
  8
0
100
AcDbLine
 10
195.7039485571594
 20
-156.3342335751217
 30
-52.3034049058431
 11
195.7039485571594
 21
-155.9788288252653
 31
-52.3034049058431
  0
LINE
  5
45DA7
330
458D6
100
AcDbEntity
  8
0
100
AcDbLine
 10
191.2021550589787
 20
-148.0217113701477
 30
-52.3034049058431
 11
191.2021550589787
 21
-148.3672437658414
 31
-52.3034049058431
  0
LINE
  5
45DA8
330
458D6
100
AcDbEntity
  8
0
100
AcDbLine
 10
191.2021550589787
 20
-140.0547215608674
 30
-52.3034049058431
 11
191.2021550589787
 21
-140.4002539565611
 31
-52.3034049058431
  0
LINE
  5
45DA9
330
458D6
100
AcDbEntity
  8
0
100
AcDbLine
 10
191.2021550589787
 20
-131.7421993558934
 30
-52.3034049058431
 11
191.2021550589787
 21
-133.4797336885245
 31
-52.3034049058431
  0
LINE
  5
45DAA
330
458D6
100
AcDbEntity
  8
0
100
AcDbLine
 10
191.2021550589787
 20
-124.1306142964695
 30
-52.3034049058431
 11
191.2021550589787
 21
-124.4761466921632
 31
-52.3034049058431
  0
LINE
  5
45DAB
330
458D6
100
AcDbEntity
  8
0
100
AcDbLine
 10
191.2021550589787
 20
-107.8609746363779
 30
-52.3034049058431
 11
191.2021550589787
 21
-108.2065070320716
 31
-52.3034049058431
  0
LINE
  5
45DAC
330
458D6
100
AcDbEntity
  8
0
100
AcDbLine
 10
185.6637643737169
 20
-99.89398482709765
 30
-52.3034049058431
 11
185.6637643737169
 21
-100.2395172227912
 31
-52.3034049058431
  0
LINE
  5
45DAD
330
458D6
100
AcDbEntity
  8
0
100
AcDbLine
 10
185.6637643737169
 20
-91.9269950178173
 30
-52.3034049058431
 11
185.6637643737169
 21
-92.27252741351104
 31
-52.3034049058431
  0
LINE
  5
45DAE
330
458D6
100
AcDbEntity
  8
0
100
AcDbLine
 10
185.6637643737169
 20
-115.8180920914955
 30
-52.3034049058431
 11
185.6637643737169
 21
-116.5091568828829
 31
-52.3034049058431
  0
LINE
  5
45DAF
330
458D6
100
AcDbEntity
  8
0
100
AcDbLine
 10
185.6637643737169
 20
-107.8609746363779
 30
-52.3034049058431
 11
185.6637643737169
 21
-108.2065070320716
 31
-52.3034049058431
  0
LINE
  5
45DB0
330
458D6
100
AcDbEntity
  8
0
100
AcDbLine
 10
185.6637643737169
 20
-108.2065070320716
 30
-52.3034049058431
 11
185.6637643737169
 21
-107.8609746363779
 31
-52.3034049058431
  0
LINE
  5
45DB1
330
458D6
100
AcDbEntity
  8
0
100
AcDbLine
 10
172.1781285875002
 20
-124.1306142964695
 30
-52.3034049058431
 11
172.1781285875002
 21
-124.4761466921632
 31
-52.3034049058431
  0
LINE
  5
45DB2
330
458D6
100
AcDbEntity
  8
0
100
AcDbLine
 10
177.7165192727619
 20
-124.4761466921632
 30
-52.3034049058431
 11
177.7165192727619
 21
-124.1306142964695
 31
-52.3034049058431
  0
LINE
  5
45DB3
330
458D6
100
AcDbEntity
  8
0
100
AcDbLine
 10
177.7165192727619
 20
-133.4797336885245
 30
-52.3034049058431
 11
177.7165192727619
 21
-131.7421993558934
 31
-52.3034049058431
  0
LINE
  5
45DB4
330
458D6
100
AcDbEntity
  8
0
100
AcDbLine
 10
177.7165192727619
 20
-140.4002539565611
 30
-52.3034049058431
 11
177.7165192727619
 21
-140.0547215608674
 31
-52.3034049058431
  0
LINE
  5
45DB5
330
458D6
100
AcDbEntity
  8
0
100
AcDbLine
 10
177.7165192727619
 20
-148.3672437658414
 30
-52.3034049058431
 11
177.7165192727619
 21
-148.0217113701477
 31
-52.3034049058431
  0
LINE
  5
45DB6
330
458D6
100
AcDbEntity
  8
0
100
AcDbLine
 10
164.5665435280763
 20
-90.54486543504262
 30
-52.3034049058431
 11
165.2576083194636
 21
-90.54486543504262
 31
-52.3034049058431
  0
LINE
  5
45DB7
330
458D6
100
AcDbEntity
  8
0
100
AcDbLine
 10
165.2576083194636
 20
-90.54486543504262
 30
-52.3034049058431
 11
165.2576083194636
 21
-91.23593022642991
 31
-52.3034049058431
  0
LINE
  5
45DB8
330
458D6
100
AcDbEntity
  8
0
100
AcDbLine
 10
165.2576083194636
 20
-91.23593022642991
 30
-52.3034049058431
 11
165.9486731108511
 21
-91.23593022642991
 31
-52.3034049058431
  0
LINE
  5
45DB9
330
458D6
100
AcDbEntity
  8
0
100
AcDbLine
 10
183.5905699995548
 20
-100.2395172227912
 30
-52.3034049058431
 11
165.2576083194636
 21
-100.2395172227912
 31
-52.3034049058431
  0
LINE
  5
45DBA
330
458D6
100
AcDbEntity
  8
0
100
AcDbLine
 10
165.2576083194636
 20
-100.2395172227912
 30
-52.3034049058431
 11
165.2576083194636
 21
-100.585049618485
 31
-52.3034049058431
  0
LINE
  5
45DBB
330
458D6
100
AcDbEntity
  8
0
100
AcDbLine
 10
165.2576083194636
 20
-100.585049618485
 30
-52.3034049058431
 11
164.5665435280763
 21
-100.585049618485
 31
-52.3034049058431
  0
LINE
  5
45DBC
330
458D6
100
AcDbEntity
  8
0
100
AcDbLine
 10
183.5905699995548
 20
-116.5091568828829
 30
-52.3034049058431
 11
183.5905699995548
 21
-116.1636244871892
 31
-52.3034049058431
  0
LINE
  5
45DBD
330
458D6
100
AcDbEntity
  8
0
100
AcDbLine
 10
183.5905699995548
 20
-116.1636244871892
 30
-52.3034049058431
 11
165.2576083194636
 21
-116.1636244871892
 31
-52.3034049058431
  0
LINE
  5
45DBE
330
458D6
100
AcDbEntity
  8
0
100
AcDbLine
 10
165.2576083194636
 20
-116.1636244871892
 30
-52.3034049058431
 11
165.2576083194636
 21
-116.5091568828829
 31
-52.3034049058431
  0
LINE
  5
45DBF
330
458D6
100
AcDbEntity
  8
0
100
AcDbLine
 10
165.2576083194636
 20
-116.5091568828829
 30
-52.3034049058431
 11
164.5665435280763
 21
-116.5091568828829
 31
-52.3034049058431
  0
LINE
  5
45DC0
330
458D6
100
AcDbEntity
  8
0
100
AcDbLine
 10
164.5665435280763
 20
-106.8145050951341
 30
-52.3034049058431
 11
165.2576083194636
 21
-106.8145050951341
 31
-52.3034049058431
  0
LINE
  5
45DC1
330
458D6
100
AcDbEntity
  8
0
100
AcDbLine
 10
165.2576083194636
 20
-106.8145050951341
 30
-52.3034049058431
 11
165.2576083194636
 21
-107.1600374908278
 31
-52.3034049058431
  0
LINE
  5
45DC2
330
458D6
100
AcDbEntity
  8
0
100
AcDbLine
 10
165.2576083194636
 20
-107.1600374908278
 30
-52.3034049058431
 11
165.9486731108511
 21
-107.1600374908278
 31
-52.3034049058431
  0
LINE
  5
45DC3
330
458D6
100
AcDbEntity
  8
0
100
AcDbLine
 10
164.2210111323826
 20
-87.07966912394303
 30
-52.3034049058431
 11
163.1844139453015
 21
-87.07966912394303
 31
-52.3034049058431
  0
LINE
  5
45DC4
330
458D6
100
AcDbEntity
  8
0
100
AcDbLine
 10
163.1844139453015
 20
-87.07966912394303
 30
-52.3034049058431
 11
163.1844139453015
 21
-90.54486543504262
 31
-52.3034049058431
  0
LINE
  5
45DC5
330
458D6
100
AcDbEntity
  8
0
100
AcDbLine
 10
163.1844139453015
 20
-90.54486543504262
 30
-52.3034049058431
 11
164.2210111323826
 21
-90.54486543504262
 31
-52.3034049058431
  0
LINE
  5
45DC6
330
458D6
100
AcDbEntity
  8
0
100
AcDbLine
 10
165.9486731108511
 20
-87.07966912394303
 30
-52.3034049058431
 11
164.5665435280763
 21
-87.07966912394303
 31
-52.3034049058431
  0
LINE
  5
45DC7
330
458D6
100
AcDbEntity
  8
0
100
AcDbLine
 10
164.5665435280763
 20
-122.402952318001
 30
-52.3034049058431
 11
165.9486731108511
 21
-122.402952318001
 31
-52.3034049058431
  0
LINE
  5
45DC8
330
458D6
100
AcDbEntity
  8
0
100
AcDbLine
 10
164.2210111323826
 20
-116.5091568828829
 30
-52.3034049058431
 11
163.1844139453015
 21
-116.5091568828829
 31
-52.3034049058431
  0
LINE
  5
45DC9
330
458D6
100
AcDbEntity
  8
0
100
AcDbLine
 10
163.1844139453015
 20
-116.5091568828829
 30
-52.3034049058431
 11
163.1844139453015
 21
-122.402952318001
 31
-52.3034049058431
  0
LINE
  5
45DCA
330
458D6
100
AcDbEntity
  8
0
100
AcDbLine
 10
163.1844139453015
 20
-122.402952318001
 30
-52.3034049058431
 11
164.2210111323826
 21
-122.402952318001
 31
-52.3034049058431
  0
LINE
  5
45DCB
330
458D6
100
AcDbEntity
  8
0
100
AcDbLine
 10
164.2210111323826
 20
-100.585049618485
 30
-52.3034049058431
 11
163.1844139453015
 21
-100.585049618485
 31
-52.3034049058431
  0
LINE
  5
45DCC
330
458D6
100
AcDbEntity
  8
0
100
AcDbLine
 10
163.1844139453015
 20
-100.585049618485
 30
-52.3034049058431
 11
163.1844139453015
 21
-106.8145050951341
 31
-52.3034049058431
  0
LINE
  5
45DCD
330
458D6
100
AcDbEntity
  8
0
100
AcDbLine
 10
163.1844139453015
 20
-106.8145050951341
 30
-52.3034049058431
 11
164.2210111323826
 21
-106.8145050951341
 31
-52.3034049058431
  0
LINE
  5
45DCE
330
458D6
100
AcDbEntity
  8
0
100
AcDbLine
 10
165.9486731108511
 20
-126.894873462019
 30
-52.3034049058431
 11
164.5665435280763
 21
-126.894873462019
 31
-52.3034049058431
  0
LINE
  5
45DCF
330
458D6
100
AcDbEntity
  8
0
100
AcDbLine
 10
164.5665435280763
 20
-158.4074279492838
 30
-52.3034049058431
 11
165.9486731108511
 21
-158.4074279492838
 31
-52.3034049058431
  0
LINE
  5
45DD0
330
458D6
100
AcDbEntity
  8
0
100
AcDbLine
 10
164.2210111323826
 20
-126.894873462019
 30
-52.3034049058431
 11
163.1844139453015
 21
-126.894873462019
 31
-52.3034049058431
  0
LINE
  5
45DD1
330
458D6
100
AcDbEntity
  8
0
100
AcDbLine
 10
163.1844139453015
 20
-126.894873462019
 30
-52.3034049058431
 11
163.1844139453015
 21
-158.4074279492838
 31
-52.3034049058431
  0
LINE
  5
45DD2
330
458D6
100
AcDbEntity
  8
0
100
AcDbLine
 10
163.1844139453015
 20
-158.4074279492838
 30
-52.3034049058431
 11
164.2210111323826
 21
-158.4074279492838
 31
-52.3034049058431
  0
LINE
  5
45DD3
330
458D6
100
AcDbEntity
  8
0
100
AcDbLine
 10
195.348543807303
 20
-23.37336771218864
 30
-52.3034049058431
 11
197.0860781399342
 21
-23.37336771218864
 31
-52.3034049058431
  0
LINE
  5
45DD4
330
458D6
100
AcDbEntity
  8
0
100
AcDbLine
 10
197.0860781399342
 20
-23.37336771218864
 30
-52.3034049058431
 11
195.348543807303
 21
-23.37336771218864
 31
-52.3034049058431
  0
LINE
  5
45DD5
330
458D6
100
AcDbEntity
  8
0
100
AcDbLine
 10
195.348543807303
 20
-23.37336771218864
 30
-52.3034049058431
 11
195.348543807303
 21
-23.37336771218864
 31
-52.3034049058431
  0
LINE
  5
45DD6
330
458D6
100
AcDbEntity
  8
0
100
AcDbLine
 10
197.7771429313215
 20
-23.37336771218864
 30
-52.3034049058431
 11
163.1844139453015
 21
-23.37336771218864
 31
-52.3034049058431
  0
LINE
  5
45DD7
330
458D6
100
AcDbEntity
  8
0
100
AcDbLine
 10
163.1844139453015
 20
-23.37336771218864
 30
-52.3034049058431
 11
165.6031407151574
 21
-23.37336771218864
 31
-52.3034049058431
  0
LINE
  5
45DD8
330
458D6
100
AcDbEntity
  8
0
100
AcDbLine
 10
165.6031407151574
 20
-23.37336771218864
 30
-52.3034049058431
 11
163.8754787366889
 21
-23.37336771218864
 31
-52.3034049058431
  0
LINE
  5
45DD9
330
458D6
100
AcDbEntity
  8
0
100
AcDbLine
 10
163.8754787366889
 20
-23.37336771218864
 30
-52.3034049058431
 11
165.6031407151574
 21
-23.37336771218864
 31
-52.3034049058431
  0
LINE
  5
45DDA
330
458D6
100
AcDbEntity
  8
0
100
AcDbLine
 10
165.6031407151574
 20
-23.37336771218864
 30
-52.3034049058431
 11
195.348543807303
 21
-23.37336771218864
 31
-52.3034049058431
  0
LINE
  5
45DDB
330
458D6
100
AcDbEntity
  8
0
100
AcDbLine
 10
195.348543807303
 20
-23.37336771218864
 30
-52.3034049058431
 11
197.7771429313215
 21
-23.37336771218864
 31
-52.3034049058431
  0
LINE
  5
45DDC
330
458D6
100
AcDbEntity
  8
0
100
AcDbLine
 10
163.1844139453015
 20
-168.79314452842
 30
-52.3034049058431
 11
197.7771429313215
 21
-168.79314452842
 31
-52.3034049058431
  0
LINE
  5
45DDD
330
458D6
100
AcDbEntity
  8
0
100
AcDbLine
 10
193.2753494331409
 20
-166.0288853628704
 30
-52.3034049058431
 11
192.2387522460598
 21
-167.0654825499515
 31
-52.3034049058431
  0
LINE
  5
45DDE
330
458D6
100
AcDbEntity
  8
0
100
AcDbLine
 10
192.2387522460598
 20
-167.0654825499515
 30
-52.3034049058431
 11
197.4316105356278
 21
-167.0654825499515
 31
-52.3034049058431
  0
LINE
  5
45DDF
330
458D6
100
AcDbEntity
  8
0
100
AcDbLine
 10
197.4316105356278
 20
-167.0654825499515
 30
-52.3034049058431
 11
196.3950133485468
 21
-166.0288853628704
 31
-52.3034049058431
  0
LINE
  5
45DE0
330
458D6
100
AcDbEntity
  8
0
100
AcDbLine
 10
196.3950133485468
 20
-166.0288853628704
 30
-52.3034049058431
 11
193.2753494331409
 21
-166.0288853628704
 31
-52.3034049058431
  0
LINE
  5
45DE1
330
458D6
100
AcDbEntity
  8
0
100
AcDbLine
 10
165.9486731108511
 20
-158.7529603449775
 30
-52.3034049058431
 11
165.6031407151574
 21
-158.7529603449775
 31
-52.3034049058431
  0
LINE
  5
45DE2
330
458D6
100
AcDbEntity
  8
0
100
AcDbLine
 10
165.6031407151574
 20
-158.7529603449775
 30
-52.3034049058431
 11
165.9486731108511
 21
-158.7529603449775
 31
-52.3034049058431
  0
LINE
  5
45DE3
330
458D6
100
AcDbEntity
  8
0
100
AcDbLine
 10
165.9486731108511
 20
-158.7529603449775
 30
-52.3034049058431
 11
165.9486731108511
 21
-158.7529603449775
 31
-52.3034049058431
  0
LINE
  5
45DE4
330
458D6
100
AcDbEntity
  8
0
100
AcDbLine
 10
165.2576083194636
 20
-158.7529603449775
 30
-52.3034049058431
 11
165.6031407151574
 21
-158.7529603449775
 31
-52.3034049058431
  0
LINE
  5
45DE5
330
458D6
100
AcDbEntity
  8
0
100
AcDbLine
 10
165.6031407151574
 20
-158.7529603449775
 30
-52.3034049058431
 11
165.2576083194636
 21
-158.7529603449775
 31
-52.3034049058431
  0
LINE
  5
45DE6
330
458D6
100
AcDbEntity
  8
0
100
AcDbLine
 10
165.2576083194636
 20
-158.7529603449775
 30
-52.3034049058431
 11
165.2576083194636
 21
-158.7529603449775
 31
-52.3034049058431
  0
LINE
  5
45DE7
330
458D6
100
AcDbEntity
  8
0
100
AcDbLine
 10
165.9486731108511
 20
-158.7529603449775
 30
-52.3034049058431
 11
165.2576083194636
 21
-158.7529603449775
 31
-52.3034049058431
  0
LINE
  5
45DE8
330
458D6
100
AcDbEntity
  8
0
100
AcDbLine
 10
165.2576083194636
 20
-158.7529603449775
 30
-52.3034049058431
 11
164.5665435280763
 21
-158.7529603449775
 31
-52.3034049058431
  0
LINE
  5
45DE9
330
458D6
100
AcDbEntity
  8
0
100
AcDbLine
 10
164.5665435280763
 20
-158.7529603449775
 30
-52.3034049058431
 11
165.2576083194636
 21
-158.7529603449775
 31
-52.3034049058431
  0
LINE
  5
45DEA
330
458D6
100
AcDbEntity
  8
0
100
AcDbLine
 10
164.2210111323826
 20
-158.7529603449775
 30
-52.3034049058431
 11
163.8754787366889
 21
-158.7529603449775
 31
-52.3034049058431
  0
LINE
  5
45DEB
330
458D6
100
AcDbEntity
  8
0
100
AcDbLine
 10
163.8754787366889
 20
-158.7529603449775
 30
-52.3034049058431
 11
164.2210111323826
 21
-158.7529603449775
 31
-52.3034049058431
  0
LINE
  5
45DEC
330
458D6
100
AcDbEntity
  8
0
100
AcDbLine
 10
163.8754787366889
 20
-158.7529603449775
 30
-52.3034049058431
 11
163.5299463409952
 21
-158.7529603449775
 31
-52.3034049058431
  0
LINE
  5
45DED
330
458D6
100
AcDbEntity
  8
0
100
AcDbLine
 10
163.5299463409952
 20
-158.7529603449775
 30
-52.3034049058431
 11
163.1844139453015
 21
-158.7529603449775
 31
-52.3034049058431
  0
LINE
  5
45DEE
330
458D6
100
AcDbEntity
  8
0
100
AcDbLine
 10
163.1844139453015
 20
-166.7199501542578
 30
-52.3034049058431
 11
163.5299463409952
 21
-166.7199501542578
 31
-52.3034049058431
  0
LINE
  5
45DEF
330
458D6
100
AcDbEntity
  8
0
100
AcDbLine
 10
163.5299463409952
 20
-166.7199501542578
 30
-52.3034049058431
 11
163.8754787366889
 21
-166.7199501542578
 31
-52.3034049058431
  0
LINE
  5
45DF0
330
458D6
100
AcDbEntity
  8
0
100
AcDbLine
 10
163.8754787366889
 20
-166.7199501542578
 30
-52.3034049058431
 11
166.9852702979321
 21
-166.7199501542578
 31
-52.3034049058431
  0
LINE
  5
45DF1
330
458D6
100
AcDbEntity
  8
0
100
AcDbLine
 10
166.9852702979321
 20
-166.7199501542578
 30
-52.3034049058431
 11
166.6397379022384
 21
-166.7199501542578
 31
-52.3034049058431
  0
LINE
  5
45DF2
330
458D6
100
AcDbEntity
  8
0
100
AcDbLine
 10
166.6397379022384
 20
-166.7199501542578
 30
-52.3034049058431
 11
166.2942055065447
 21
-166.7199501542578
 31
-52.3034049058431
  0
LINE
  5
45DF3
330
458D6
100
AcDbEntity
  8
0
100
AcDbLine
 10
166.2942055065447
 20
-166.7199501542578
 30
-52.3034049058431
 11
165.6031407151574
 21
-166.7199501542578
 31
-52.3034049058431
  0
LINE
  5
45DF4
330
458D6
100
AcDbEntity
  8
0
100
AcDbLine
 10
165.6031407151574
 20
-166.7199501542578
 30
-52.3034049058431
 11
165.2576083194636
 21
-166.7199501542578
 31
-52.3034049058431
  0
LINE
  5
45DF5
330
458D6
100
AcDbEntity
  8
0
100
AcDbLine
 10
165.2576083194636
 20
-166.7199501542578
 30
-52.3034049058431
 11
166.2942055065447
 21
-166.7199501542578
 31
-52.3034049058431
  0
LINE
  5
45DF6
330
458D6
100
AcDbEntity
  8
0
100
AcDbLine
 10
165.2576083194636
 20
-166.7199501542578
 30
-52.3034049058431
 11
163.8754787366889
 21
-166.7199501542578
 31
-52.3034049058431
  0
LINE
  5
45DF7
330
458D6
100
AcDbEntity
  8
0
100
AcDbLine
 10
165.9486731108511
 20
-158.7529603449775
 30
-52.3034049058431
 11
165.2576083194636
 21
-158.7529603449775
 31
-52.3034049058431
  0
LINE
  5
45DF8
330
458D6
100
AcDbEntity
  8
0
100
AcDbLine
 10
165.2576083194636
 20
-158.7529603449775
 30
-52.3034049058431
 11
165.2576083194636
 21
-166.7199501542578
 31
-52.3034049058431
  0
LINE
  5
45DF9
330
458D6
100
AcDbEntity
  8
0
100
AcDbLine
 10
165.2576083194636
 20
-166.7199501542578
 30
-52.3034049058431
 11
166.2942055065447
 21
-166.7199501542578
 31
-52.3034049058431
  0
LINE
  5
45DFA
330
458D6
100
AcDbEntity
  8
0
100
AcDbLine
 10
166.2942055065447
 20
-166.7199501542578
 30
-52.3034049058431
 11
166.2942055065447
 21
-164.2913510302393
 31
-52.3034049058431
  0
LINE
  5
45DFB
330
458D6
100
AcDbEntity
  8
0
100
AcDbLine
 10
163.5299463409952
 20
-158.7529603449775
 30
-52.3034049058431
 11
163.8754787366889
 21
-166.7199501542578
 31
-52.3034049058431
  0
LINE
  5
45DFC
330
458D6
100
AcDbEntity
  8
0
100
AcDbLine
 10
163.8754787366889
 20
-166.7199501542578
 30
-52.3034049058431
 11
163.8754787366889
 21
-158.7529603449775
 31
-52.3034049058431
  0
LINE
  5
45DFD
330
458D6
100
AcDbEntity
  8
0
100
AcDbLine
 10
163.8754787366889
 20
-158.7529603449775
 30
-52.3034049058431
 11
163.5299463409952
 21
-158.7529603449775
 31
-52.3034049058431
  0
LINE
  5
45DFE
330
458D6
100
AcDbEntity
  8
0
100
AcDbLine
 10
163.5299463409952
 20
-166.7199501542578
 30
-52.3034049058431
 11
163.8754787366889
 21
-166.7199501542578
 31
-52.3034049058431
  0
LINE
  5
45DFF
330
458D6
100
AcDbEntity
  8
0
100
AcDbLine
 10
163.5299463409952
 20
-166.7199501542578
 30
-52.3034049058431
 11
163.1844139453015
 21
-158.7529603449775
 31
-52.3034049058431
  0
LINE
  5
45E00
330
458D6
100
AcDbEntity
  8
0
100
AcDbLine
 10
163.1844139453015
 20
-158.7529603449775
 30
-52.3034049058431
 11
163.5299463409952
 21
-158.7529603449775
 31
-52.3034049058431
  0
LINE
  5
45E01
330
458D6
100
AcDbEntity
  8
0
100
AcDbLine
 10
163.5299463409952
 20
-158.7529603449775
 30
-52.3034049058431
 11
163.5299463409952
 21
-166.7199501542578
 31
-52.3034049058431
  0
LINE
  5
45E02
330
458D6
100
AcDbEntity
  8
0
100
AcDbLine
 10
163.5299463409952
 20
-166.7199501542578
 30
-52.3034049058431
 11
163.5299463409952
 21
-158.7529603449775
 31
-52.3034049058431
  0
LINE
  5
45E03
330
458D6
100
AcDbEntity
  8
0
100
AcDbLine
 10
163.5299463409952
 20
-158.7529603449775
 30
-52.3034049058431
 11
163.5299463409952
 21
-166.7199501542578
 31
-52.3034049058431
  0
LINE
  5
45E04
330
458D6
100
AcDbEntity
  8
0
100
AcDbLine
 10
163.5299463409952
 20
-166.7199501542578
 30
-52.3034049058431
 11
163.5299463409952
 21
-166.7199501542578
 31
-52.3034049058431
  0
LINE
  5
45E05
330
458D6
100
AcDbEntity
  8
0
100
AcDbLine
 10
163.5299463409952
 20
-166.7199501542578
 30
-52.3034049058431
 11
163.1844139453015
 21
-166.7199501542578
 31
-52.3034049058431
  0
LINE
  5
45E06
330
458D6
100
AcDbEntity
  8
0
100
AcDbLine
 10
163.1844139453015
 20
-166.7199501542578
 30
-52.3034049058431
 11
163.1844139453015
 21
-158.7529603449775
 31
-52.3034049058431
  0
LINE
  5
45E07
330
458D6
100
AcDbEntity
  8
0
100
AcDbLine
 10
164.2210111323826
 20
-86.38860433255551
 30
-52.3034049058431
 11
163.1844139453015
 21
-86.38860433255551
 31
-52.3034049058431
  0
LINE
  5
45E08
330
458D6
100
AcDbEntity
  8
0
100
AcDbLine
 10
163.1844139453015
 20
-86.38860433255551
 30
-52.3034049058431
 11
164.2210111323826
 21
-86.38860433255551
 31
-52.3034049058431
  0
LINE
  5
45E09
330
458D6
100
AcDbEntity
  8
0
100
AcDbLine
 10
165.9486731108511
 20
-86.38860433255551
 30
-52.3034049058431
 11
164.5665435280763
 21
-86.38860433255551
 31
-52.3034049058431
  0
LINE
  5
45E0A
330
458D6
100
AcDbEntity
  8
0
100
AcDbLine
 10
164.5665435280763
 20
-86.38860433255551
 30
-52.3034049058431
 11
165.9486731108511
 21
-86.38860433255551
 31
-52.3034049058431
  0
LINE
  5
45E0B
330
458D6
100
AcDbEntity
  8
0
100
AcDbLine
 10
164.2210111323826
 20
-125.8582762749379
 30
-52.3034049058431
 11
163.1844139453015
 21
-125.8582762749379
 31
-52.3034049058431
  0
LINE
  5
45E0C
330
458D6
100
AcDbEntity
  8
0
100
AcDbLine
 10
163.1844139453015
 20
-125.8582762749379
 30
-52.3034049058431
 11
164.2210111323826
 21
-125.8582762749379
 31
-52.3034049058431
  0
LINE
  5
45E0D
330
458D6
100
AcDbEntity
  8
0
100
AcDbLine
 10
165.9486731108511
 20
-125.8582762749379
 30
-52.3034049058431
 11
164.5665435280763
 21
-125.8582762749379
 31
-52.3034049058431
  0
LINE
  5
45E0E
330
458D6
100
AcDbEntity
  8
0
100
AcDbLine
 10
164.5665435280763
 20
-125.8582762749379
 30
-52.3034049058431
 11
165.9486731108511
 21
-125.8582762749379
 31
-52.3034049058431
  0
LINE
  5
45E0F
330
458D6
100
AcDbEntity
  8
0
100
AcDbLine
 10
164.2210111323826
 20
-123.4395495050821
 30
-52.3034049058431
 11
163.1844139453015
 21
-123.4395495050821
 31
-52.3034049058431
  0
LINE
  5
45E10
330
458D6
100
AcDbEntity
  8
0
100
AcDbLine
 10
163.1844139453015
 20
-123.4395495050821
 30
-52.3034049058431
 11
164.2210111323826
 21
-123.4395495050821
 31
-52.3034049058431
  0
LINE
  5
45E11
330
458D6
100
AcDbEntity
  8
0
100
AcDbLine
 10
165.9486731108511
 20
-123.4395495050821
 30
-52.3034049058431
 11
164.5665435280763
 21
-123.4395495050821
 31
-52.3034049058431
  0
LINE
  5
45E12
330
458D6
100
AcDbEntity
  8
0
100
AcDbLine
 10
164.5665435280763
 20
-123.4395495050821
 30
-52.3034049058431
 11
165.9486731108511
 21
-123.4395495050821
 31
-52.3034049058431
  0
LINE
  5
45E13
330
458D6
100
AcDbEntity
  8
0
100
AcDbLine
 10
164.5665435280763
 20
-99.54845243140391
 30
-52.3034049058431
 11
165.6031407151574
 21
-99.20292003571024
 31
-52.3034049058431
  0
LINE
  5
45E14
330
458D6
100
AcDbEntity
  8
0
100
AcDbLine
 10
165.6031407151574
 20
-99.20292003571024
 30
-52.3034049058431
 11
165.9486731108511
 21
-99.20292003571024
 31
-52.3034049058431
  0
LINE
  5
45E15
330
458D6
100
AcDbEntity
  8
0
100
AcDbLine
 10
169.7594018176444
 20
-92.27252741351104
 30
-52.3034049058431
 11
165.6031407151574
 21
-91.9269950178173
 31
-52.3034049058431
  0
LINE
  5
45E16
330
458D6
100
AcDbEntity
  8
0
100
AcDbLine
 10
165.6031407151574
 20
-91.9269950178173
 30
-52.3034049058431
 11
165.9486731108511
 21
-92.61805980920474
 31
-52.3034049058431
  0
LINE
  5
45E17
330
458D6
100
AcDbEntity
  8
0
100
AcDbLine
 10
165.6031407151574
 20
-91.9269950178173
 30
-52.3034049058431
 11
165.6031407151574
 21
-99.20292003571024
 31
-52.3034049058431
  0
LINE
  5
45E18
330
458D6
100
AcDbEntity
  8
0
100
AcDbLine
 10
165.6031407151574
 20
-99.20292003571024
 30
-52.3034049058431
 11
164.5665435280763
 21
-91.9269950178173
 31
-52.3034049058431
  0
LINE
  5
45E19
330
458D6
100
AcDbEntity
  8
0
100
AcDbLine
 10
168.3772722348696
 20
-92.27252741351104
 30
-52.3034049058431
 11
164.5665435280763
 21
-91.9269950178173
 31
-52.3034049058431
  0
LINE
  5
45E1A
330
458D6
100
AcDbEntity
  8
0
100
AcDbLine
 10
164.5665435280763
 20
-91.9269950178173
 30
-52.3034049058431
 11
165.6031407151574
 21
-91.9269950178173
 31
-52.3034049058431
  0
LINE
  5
45E1B
330
458D6
100
AcDbEntity
  8
0
100
AcDbLine
 10
165.6031407151574
 20
-91.9269950178173
 30
-52.3034049058431
 11
168.3772722348696
 21
-92.27252741351104
 31
-52.3034049058431
  0
LINE
  5
45E1C
330
458D6
100
AcDbEntity
  8
0
100
AcDbLine
 10
170.104934213338
 20
-108.2065070320716
 30
-52.3034049058431
 11
165.6031407151574
 21
-108.2065070320716
 31
-52.3034049058431
  0
LINE
  5
45E1D
330
458D6
100
AcDbEntity
  8
0
100
AcDbLine
 10
165.6031407151574
 20
-108.2065070320716
 30
-52.3034049058431
 11
165.6031407151574
 21
-115.1270273001081
 31
-52.3034049058431
  0
LINE
  5
45E1E
330
458D6
100
AcDbEntity
  8
0
100
AcDbLine
 10
165.6031407151574
 20
-115.1270273001081
 30
-52.3034049058431
 11
165.9486731108511
 21
-115.1270273001081
 31
-52.3034049058431
  0
LINE
  5
45E1F
330
458D6
100
AcDbEntity
  8
0
100
AcDbLine
 10
165.6031407151574
 20
-115.1270273001081
 30
-52.3034049058431
 11
164.5665435280763
 21
-115.4725596958018
 31
-52.3034049058431
  0
LINE
  5
45E20
330
458D6
100
AcDbEntity
  8
0
100
AcDbLine
 10
164.5665435280763
 20
-115.4725596958018
 30
-52.3034049058431
 11
165.6031407151574
 21
-108.2065070320716
 31
-52.3034049058431
  0
LINE
  5
45E21
330
458D6
100
AcDbEntity
  8
0
100
AcDbLine
 10
165.6031407151574
 20
-108.2065070320716
 30
-52.3034049058431
 11
164.5665435280763
 21
-107.8609746363779
 31
-52.3034049058431
  0
LINE
  5
45E22
330
458D6
100
AcDbEntity
  8
0
100
AcDbLine
 10
164.5665435280763
 20
-107.8609746363779
 30
-52.3034049058431
 11
166.9852702979321
 21
-108.2065070320716
 31
-52.3034049058431
  0
LINE
  5
45E23
330
458D6
100
AcDbEntity
  8
0
100
AcDbLine
 10
165.9486731108511
 20
-108.897571823459
 30
-52.3034049058431
 11
165.6031407151574
 21
-108.2065070320716
 31
-52.3034049058431
  0
LINE
  5
45E24
330
458D6
100
AcDbEntity
  8
0
100
AcDbLine
 10
165.6031407151574
 20
-108.2065070320716
 30
-52.3034049058431
 11
168.3772722348696
 21
-108.2065070320716
 31
-52.3034049058431
  0
LINE
  5
45E25
330
458D6
100
AcDbEntity
  8
0
100
AcDbLine
 10
168.3772722348696
 20
-108.2065070320716
 30
-52.3034049058431
 11
167.3406750477885
 21
-108.2065070320716
 31
-52.3034049058431
  0
LINE
  5
45E26
330
458D6
100
AcDbEntity
  8
0
100
AcDbLine
 10
171.1415314004191
 20
-124.1306142964695
 30
-52.3034049058431
 11
171.1415314004191
 21
-124.4761466921632
 31
-52.3034049058431
  0
LINE
  5
45E27
330
458D6
100
AcDbEntity
  8
0
100
AcDbLine
 10
171.1415314004191
 20
-124.4761466921632
 30
-52.3034049058431
 11
171.1415314004191
 21
-124.1306142964695
 31
-52.3034049058431
  0
LINE
  5
45E28
330
458D6
100
AcDbEntity
  8
0
100
AcDbLine
 10
171.1415314004191
 20
-124.1306142964695
 30
-52.3034049058431
 11
171.1415314004191
 21
-124.1306142964695
 31
-52.3034049058431
  0
LINE
  5
45E29
330
458D6
100
AcDbEntity
  8
0
100
AcDbLine
 10
163.1844139453015
 20
-87.07966912394303
 30
-52.3034049058431
 11
163.1844139453015
 21
-86.73413672824922
 31
-52.3034049058431
  0
LINE
  5
45E2A
330
458D6
100
AcDbEntity
  8
0
100
AcDbLine
 10
163.1844139453015
 20
-86.73413672824922
 30
-52.3034049058431
 11
163.1844139453015
 21
-86.38860433255551
 31
-52.3034049058431
  0
LINE
  5
45E2B
330
458D6
100
AcDbEntity
  8
0
100
AcDbLine
 10
163.1844139453015
 20
-86.38860433255551
 30
-52.3034049058431
 11
163.1844139453015
 21
-58.34124615639044
 31
-52.3034049058431
  0
LINE
  5
45E2C
330
458D6
100
AcDbEntity
  8
0
100
AcDbLine
 10
163.1844139453015
 20
-58.34124615639044
 30
-52.3034049058431
 11
163.1844139453015
 21
-57.99571376069671
 31
-52.3034049058431
  0
LINE
  5
45E2D
330
458D6
100
AcDbEntity
  8
0
100
AcDbLine
 10
163.1844139453015
 20
-57.99571376069671
 30
-52.3034049058431
 11
163.1844139453015
 21
-25.80196683620724
 31
-52.3034049058431
  0
LINE
  5
45E2E
330
458D6
100
AcDbEntity
  8
0
100
AcDbLine
 10
163.1844139453015
 20
-25.80196683620724
 30
-52.3034049058431
 11
163.1844139453015
 21
-23.37336771218864
 31
-52.3034049058431
  0
LINE
  5
45E2F
330
458D6
100
AcDbEntity
  8
0
100
AcDbLine
 10
163.1844139453015
 20
-23.37336771218864
 30
-52.3034049058431
 11
163.1844139453015
 21
-24.064432503576
 31
-52.3034049058431
  0
LINE
  5
45E30
330
458D6
100
AcDbEntity
  8
0
100
AcDbLine
 10
163.1844139453015
 20
-24.064432503576
 30
-52.3034049058431
 11
163.1844139453015
 21
-26.83856402328834
 31
-52.3034049058431
  0
LINE
  5
45E31
330
458D6
100
AcDbEntity
  8
0
100
AcDbLine
 10
163.1844139453015
 20
-26.83856402328834
 30
-52.3034049058431
 11
163.1844139453015
 21
-27.18409641898194
 31
-52.3034049058431
  0
LINE
  5
45E32
330
458D6
100
AcDbEntity
  8
0
100
AcDbLine
 10
163.1844139453015
 20
-27.18409641898194
 30
-52.3034049058431
 11
163.1844139453015
 21
-27.52962881467565
 31
-52.3034049058431
  0
LINE
  5
45E33
330
458D6
100
AcDbEntity
  8
0
100
AcDbLine
 10
163.1844139453015
 20
-27.52962881467565
 30
-52.3034049058431
 11
163.1844139453015
 21
-27.87516121036933
 31
-52.3034049058431
  0
LINE
  5
45E34
330
458D6
100
AcDbEntity
  8
0
100
AcDbLine
 10
163.1844139453015
 20
-27.87516121036933
 30
-52.3034049058431
 11
163.1844139453015
 21
-28.22069360606301
 31
-52.3034049058431
  0
LINE
  5
45E35
330
458D6
100
AcDbEntity
  8
0
100
AcDbLine
 10
163.1844139453015
 20
-28.22069360606301
 30
-52.3034049058431
 11
163.1844139453015
 21
-28.56622600175675
 31
-52.3034049058431
  0
LINE
  5
45E36
330
458D6
100
AcDbEntity
  8
0
100
AcDbLine
 10
163.1844139453015
 20
-28.56622600175675
 30
-52.3034049058431
 11
163.1844139453015
 21
-31.340357521469
 31
-52.3034049058431
  0
LINE
  5
45E37
330
458D6
100
AcDbEntity
  8
0
100
AcDbLine
 10
163.1844139453015
 20
-31.340357521469
 30
-52.3034049058431
 11
163.1844139453015
 21
-33.41355189563115
 31
-52.3034049058431
  0
LINE
  5
45E38
330
458D6
100
AcDbEntity
  8
0
100
AcDbLine
 10
163.1844139453015
 20
-33.41355189563115
 30
-52.3034049058431
 11
163.1844139453015
 21
-59.73324809332783
 31
-52.3034049058431
  0
LINE
  5
45E39
330
458D6
100
AcDbEntity
  8
0
100
AcDbLine
 10
163.1844139453015
 20
-59.73324809332783
 30
-52.3034049058431
 11
163.1844139453015
 21
-61.11537767610264
 31
-52.3034049058431
  0
LINE
  5
45E3A
330
458D6
100
AcDbEntity
  8
0
100
AcDbLine
 10
163.1844139453015
 20
-61.11537767610264
 30
-52.3034049058431
 11
163.1844139453015
 21
-60.07878048902151
 31
-52.3034049058431
  0
LINE
  5
45E3B
330
458D6
100
AcDbEntity
  8
0
100
AcDbLine
 10
163.1844139453015
 20
-60.07878048902151
 30
-52.3034049058431
 11
163.1844139453015
 21
-59.73324809332783
 31
-52.3034049058431
  0
LINE
  5
45E3C
330
458D6
100
AcDbEntity
  8
0
100
AcDbLine
 10
163.1844139453015
 20
-59.73324809332783
 30
-52.3034049058431
 11
163.1844139453015
 21
-62.84303965457112
 31
-52.3034049058431
  0
LINE
  5
45E3D
330
458D6
100
AcDbEntity
  8
0
100
AcDbLine
 10
163.1844139453015
 20
-62.84303965457112
 30
-52.3034049058431
 11
163.1844139453015
 21
-69.08236748538293
 31
-52.3034049058431
  0
LINE
  5
45E3E
330
458D6
100
AcDbEntity
  8
0
100
AcDbLine
 10
163.1844139453015
 20
-69.08236748538293
 30
-52.3034049058431
 11
163.1844139453015
 21
-73.57428862940089
 31
-52.3034049058431
  0
LINE
  5
45E3F
330
458D6
100
AcDbEntity
  8
0
100
AcDbLine
 10
163.1844139453015
 20
-73.57428862940089
 30
-52.3034049058431
 11
163.1844139453015
 21
-86.38860433255551
 31
-52.3034049058431
  0
LINE
  5
45E40
330
458D6
100
AcDbEntity
  8
0
100
AcDbLine
 10
163.1844139453015
 20
-86.38860433255551
 30
-52.3034049058431
 11
163.1844139453015
 21
-87.07966912394303
 31
-52.3034049058431
  0
LINE
  5
45E41
330
458D6
100
AcDbEntity
  8
0
100
AcDbLine
 10
163.1844139453015
 20
-87.07966912394303
 30
-52.3034049058431
 11
163.1844139453015
 21
-90.54486543504262
 31
-52.3034049058431
  0
LINE
  5
45E42
330
458D6
100
AcDbEntity
  8
0
100
AcDbLine
 10
163.1844139453015
 20
-90.54486543504262
 30
-52.3034049058431
 11
163.1844139453015
 21
-100.585049618485
 31
-52.3034049058431
  0
LINE
  5
45E43
330
458D6
100
AcDbEntity
  8
0
100
AcDbLine
 10
163.1844139453015
 20
-100.585049618485
 30
-52.3034049058431
 11
163.1844139453015
 21
-90.89039783073623
 31
-52.3034049058431
  0
LINE
  5
45E44
330
458D6
100
AcDbEntity
  8
0
100
AcDbLine
 10
163.1844139453015
 20
-90.89039783073623
 30
-52.3034049058431
 11
163.1844139453015
 21
-90.54486543504262
 31
-52.3034049058431
  0
LINE
  5
45E45
330
458D6
100
AcDbEntity
  8
0
100
AcDbLine
 10
163.1844139453015
 20
-158.7529603449775
 30
-52.3034049058431
 11
163.1844139453015
 21
-166.7199501542578
 31
-52.3034049058431
  0
LINE
  5
45E46
330
458D6
100
AcDbEntity
  8
0
100
AcDbLine
 10
163.1844139453015
 20
-166.7199501542578
 30
-52.3034049058431
 11
163.1844139453015
 21
-167.0654825499515
 31
-52.3034049058431
  0
LINE
  5
45E47
330
458D6
100
AcDbEntity
  8
0
100
AcDbLine
 10
163.1844139453015
 20
-167.0654825499515
 30
-52.3034049058431
 11
163.1844139453015
 21
-167.4110149456452
 31
-52.3034049058431
  0
LINE
  5
45E48
330
458D6
100
AcDbEntity
  8
0
100
AcDbLine
 10
163.1844139453015
 20
-167.4110149456452
 30
-52.3034049058431
 11
163.1844139453015
 21
-168.79314452842
 31
-52.3034049058431
  0
LINE
  5
45E49
330
458D6
100
AcDbEntity
  8
0
100
AcDbLine
 10
163.1844139453015
 20
-158.7529603449775
 30
-52.3034049058431
 11
163.1844139453015
 21
-158.4074279492838
 31
-52.3034049058431
  0
LINE
  5
45E4A
330
458D6
100
AcDbEntity
  8
0
100
AcDbLine
 10
163.1844139453015
 20
-158.4074279492838
 30
-52.3034049058431
 11
163.1844139453015
 21
-158.7529603449775
 31
-52.3034049058431
  0
LINE
  5
45E4B
330
458D6
100
AcDbEntity
  8
0
100
AcDbLine
 10
163.1844139453015
 20
-116.5091568828829
 30
-52.3034049058431
 11
163.1844139453015
 21
-106.8145050951341
 31
-52.3034049058431
  0
LINE
  5
45E4C
330
458D6
100
AcDbEntity
  8
0
100
AcDbLine
 10
163.1844139453015
 20
-100.585049618485
 30
-52.3034049058431
 11
163.1844139453015
 21
-106.8145050951341
 31
-52.3034049058431
  0
LINE
  5
45E4D
330
458D6
100
AcDbEntity
  8
0
100
AcDbLine
 10
163.1844139453015
 20
-106.8145050951341
 30
-52.3034049058431
 11
163.1844139453015
 21
-116.5091568828829
 31
-52.3034049058431
  0
LINE
  5
45E4E
330
458D6
100
AcDbEntity
  8
0
100
AcDbLine
 10
163.1844139453015
 20
-116.5091568828829
 30
-52.3034049058431
 11
163.1844139453015
 21
-122.402952318001
 31
-52.3034049058431
  0
LINE
  5
45E4F
330
458D6
100
AcDbEntity
  8
0
100
AcDbLine
 10
163.1844139453015
 20
-122.402952318001
 30
-52.3034049058431
 11
163.1844139453015
 21
-122.7484847136947
 31
-52.3034049058431
  0
LINE
  5
45E50
330
458D6
100
AcDbEntity
  8
0
100
AcDbLine
 10
163.1844139453015
 20
-122.7484847136947
 30
-52.3034049058431
 11
163.1844139453015
 21
-123.0940171093884
 31
-52.3034049058431
  0
LINE
  5
45E51
330
458D6
100
AcDbEntity
  8
0
100
AcDbLine
 10
163.1844139453015
 20
-123.0940171093884
 30
-52.3034049058431
 11
163.1844139453015
 21
-123.4395495050821
 31
-52.3034049058431
  0
LINE
  5
45E52
330
458D6
100
AcDbEntity
  8
0
100
AcDbLine
 10
163.1844139453015
 20
-123.4395495050821
 30
-52.3034049058431
 11
163.1844139453015
 21
-122.402952318001
 31
-52.3034049058431
  0
LINE
  5
45E53
330
458D6
100
AcDbEntity
  8
0
100
AcDbLine
 10
163.1844139453015
 20
-125.8582762749379
 30
-52.3034049058431
 11
163.1844139453015
 21
-123.4395495050821
 31
-52.3034049058431
  0
LINE
  5
45E54
330
458D6
100
AcDbEntity
  8
0
100
AcDbLine
 10
163.1844139453015
 20
-123.4395495050821
 30
-52.3034049058431
 11
163.1844139453015
 21
-125.8582762749379
 31
-52.3034049058431
  0
LINE
  5
45E55
330
458D6
100
AcDbEntity
  8
0
100
AcDbLine
 10
163.1844139453015
 20
-126.894873462019
 30
-52.3034049058431
 11
163.1844139453015
 21
-125.8582762749379
 31
-52.3034049058431
  0
LINE
  5
45E56
330
458D6
100
AcDbEntity
  8
0
100
AcDbLine
 10
163.1844139453015
 20
-125.8582762749379
 30
-52.3034049058431
 11
163.1844139453015
 21
-126.2038086706317
 31
-52.3034049058431
  0
LINE
  5
45E57
330
458D6
100
AcDbEntity
  8
0
100
AcDbLine
 10
163.1844139453015
 20
-126.2038086706317
 30
-52.3034049058431
 11
163.1844139453015
 21
-126.894873462019
 31
-52.3034049058431
  0
LINE
  5
45E58
330
458D6
100
AcDbEntity
  8
0
100
AcDbLine
 10
163.1844139453015
 20
-126.894873462019
 30
-52.3034049058431
 11
163.1844139453015
 21
-158.4074279492838
 31
-52.3034049058431
  0
LINE
  5
45E59
330
458D6
100
AcDbEntity
  8
0
100
AcDbLine
 10
163.1844139453015
 20
-27.18409641898194
 30
-52.3034049058431
 11
163.1844139453015
 21
-27.52962881467565
 31
-52.3034049058431
  0
LINE
  5
45E5A
330
458D6
100
AcDbEntity
  8
0
100
AcDbLine
 10
163.1844139453015
 20
-27.52962881467565
 30
-52.3034049058431
 11
163.1844139453015
 21
-27.87516121036933
 31
-52.3034049058431
  0
LINE
  5
45E5B
330
458D6
100
AcDbEntity
  8
0
100
AcDbLine
 10
163.1844139453015
 20
-27.87516121036933
 30
-52.3034049058431
 11
163.1844139453015
 21
-28.56622600175675
 31
-52.3034049058431
  0
LINE
  5
45E5C
330
458D6
100
AcDbEntity
  8
0
100
AcDbLine
 10
163.1844139453015
 20
-28.91175839745043
 30
-52.3034049058431
 11
163.1844139453015
 21
-28.56622600175675
 31
-52.3034049058431
  0
LINE
  5
45E5D
330
458D6
100
AcDbEntity
  8
0
100
AcDbLine
 10
163.1844139453015
 20
-28.56622600175675
 30
-52.3034049058431
 11
163.1844139453015
 21
-28.91175839745043
 31
-52.3034049058431
  0
LINE
  5
45E5E
330
458D6
100
AcDbEntity
  8
0
100
AcDbLine
 10
163.1844139453015
 20
-28.91175839745043
 30
-52.3034049058431
 11
163.1844139453015
 21
-29.60282318883782
 31
-52.3034049058431
  0
LINE
  5
45E5F
330
458D6
100
AcDbEntity
  8
0
100
AcDbLine
 10
197.7771429313215
 20
-163.6002862388519
 30
-52.3034049058431
 11
197.7771429313215
 21
-163.9458186345455
 31
-52.3034049058431
  0
LINE
  5
45E60
330
458D6
100
AcDbEntity
  8
0
100
AcDbLine
 10
197.7771429313215
 20
-163.9458186345455
 30
-52.3034049058431
 11
197.7771429313215
 21
-164.636883425933
 31
-52.3034049058431
  0
LINE
  5
45E61
330
458D6
100
AcDbEntity
  8
0
100
AcDbLine
 10
197.7771429313215
 20
-164.636883425933
 30
-52.3034049058431
 11
197.7771429313215
 21
-163.9458186345455
 31
-52.3034049058431
  0
LINE
  5
45E62
330
458D6
100
AcDbEntity
  8
0
100
AcDbLine
 10
197.7771429313215
 20
-163.9458186345455
 30
-52.3034049058431
 11
197.7771429313215
 21
-163.6002862388519
 31
-52.3034049058431
  0
LINE
  5
45E63
330
458D6
100
AcDbEntity
  8
0
100
AcDbLine
 10
197.7771429313215
 20
-163.6002862388519
 30
-52.3034049058431
 11
197.7771429313215
 21
-163.9458186345455
 31
-52.3034049058431
  0
LINE
  5
45E64
330
458D6
100
AcDbEntity
  8
0
100
AcDbLine
 10
197.7771429313215
 20
-163.9458186345455
 30
-52.3034049058431
 11
197.7771429313215
 21
-164.2913510302393
 31
-52.3034049058431
  0
LINE
  5
45E65
330
458D6
100
AcDbEntity
  8
0
100
AcDbLine
 10
197.7771429313215
 20
-164.2913510302393
 30
-52.3034049058431
 11
197.7771429313215
 21
-58.34124615639044
 31
-52.3034049058431
  0
LINE
  5
45E66
330
458D6
100
AcDbEntity
  8
0
100
AcDbLine
 10
197.7771429313215
 20
-58.34124615639044
 30
-52.3034049058431
 11
197.7771429313215
 21
-57.99571376069671
 31
-52.3034049058431
  0
LINE
  5
45E67
330
458D6
100
AcDbEntity
  8
0
100
AcDbLine
 10
197.7771429313215
 20
-57.99571376069671
 30
-52.3034049058431
 11
197.7771429313215
 21
-54.54038980375974
 31
-52.3034049058431
  0
LINE
  5
45E68
330
458D6
100
AcDbEntity
  8
0
100
AcDbLine
 10
197.7771429313215
 20
-54.54038980375974
 30
-52.3034049058431
 11
197.7771429313215
 21
-50.7296610969665
 31
-52.3034049058431
  0
LINE
  5
45E69
330
458D6
100
AcDbEntity
  8
0
100
AcDbLine
 10
197.7771429313215
 20
-50.7296610969665
 30
-52.3034049058431
 11
197.7771429313215
 21
-43.45373607907349
 31
-52.3034049058431
  0
LINE
  5
45E6A
330
458D6
100
AcDbEntity
  8
0
100
AcDbLine
 10
197.7771429313215
 20
-43.45373607907349
 30
-52.3034049058431
 11
197.7771429313215
 21
-28.56622600175675
 31
-52.3034049058431
  0
LINE
  5
45E6B
330
458D6
100
AcDbEntity
  8
0
100
AcDbLine
 10
197.7771429313215
 20
-28.56622600175675
 30
-52.3034049058431
 11
197.7771429313215
 21
-28.22069360606301
 31
-52.3034049058431
  0
LINE
  5
45E6C
330
458D6
100
AcDbEntity
  8
0
100
AcDbLine
 10
197.7771429313215
 20
-28.22069360606301
 30
-52.3034049058431
 11
197.7771429313215
 21
-27.87516121036933
 31
-52.3034049058431
  0
LINE
  5
45E6D
330
458D6
100
AcDbEntity
  8
0
100
AcDbLine
 10
197.7771429313215
 20
-27.87516121036933
 30
-52.3034049058431
 11
197.7771429313215
 21
-28.56622600175675
 31
-52.3034049058431
  0
LINE
  5
45E6E
330
458D6
100
AcDbEntity
  8
0
100
AcDbLine
 10
197.7771429313215
 20
-28.56622600175675
 30
-52.3034049058431
 11
197.7771429313215
 21
-25.80196683620724
 31
-52.3034049058431
  0
LINE
  5
45E6F
330
458D6
100
AcDbEntity
  8
0
100
AcDbLine
 10
197.7771429313215
 20
-25.80196683620724
 30
-52.3034049058431
 11
197.7771429313215
 21
-23.37336771218864
 31
-52.3034049058431
  0
LINE
  5
45E70
330
458D6
100
AcDbEntity
  8
0
100
AcDbLine
 10
197.7771429313215
 20
-23.37336771218864
 30
-52.3034049058431
 11
197.7771429313215
 21
-24.064432503576
 31
-52.3034049058431
  0
LINE
  5
45E71
330
458D6
100
AcDbEntity
  8
0
100
AcDbLine
 10
197.7771429313215
 20
-24.064432503576
 30
-52.3034049058431
 11
197.7771429313215
 21
-26.83856402328834
 31
-52.3034049058431
  0
LINE
  5
45E72
330
458D6
100
AcDbEntity
  8
0
100
AcDbLine
 10
197.7771429313215
 20
-26.83856402328834
 30
-52.3034049058431
 11
197.7771429313215
 21
-27.18409641898194
 31
-52.3034049058431
  0
LINE
  5
45E73
330
458D6
100
AcDbEntity
  8
0
100
AcDbLine
 10
197.7771429313215
 20
-27.18409641898194
 30
-52.3034049058431
 11
197.7771429313215
 21
-27.52962881467565
 31
-52.3034049058431
  0
LINE
  5
45E74
330
458D6
100
AcDbEntity
  8
0
100
AcDbLine
 10
197.7771429313215
 20
-27.52962881467565
 30
-52.3034049058431
 11
197.7771429313215
 21
-27.87516121036933
 31
-52.3034049058431
  0
LINE
  5
45E75
330
458D6
100
AcDbEntity
  8
0
100
AcDbLine
 10
197.7771429313215
 20
-27.87516121036933
 30
-52.3034049058431
 11
197.7771429313215
 21
-27.52962881467565
 31
-52.3034049058431
  0
LINE
  5
45E76
330
458D6
100
AcDbEntity
  8
0
100
AcDbLine
 10
197.7771429313215
 20
-27.52962881467565
 30
-52.3034049058431
 11
197.7771429313215
 21
-27.18409641898194
 31
-52.3034049058431
  0
LINE
  5
45E77
330
458D6
100
AcDbEntity
  8
0
100
AcDbLine
 10
197.7771429313215
 20
-27.18409641898194
 30
-52.3034049058431
 11
197.7771429313215
 21
-27.52962881467565
 31
-52.3034049058431
  0
LINE
  5
45E78
330
458D6
100
AcDbEntity
  8
0
100
AcDbLine
 10
197.7771429313215
 20
-27.52962881467565
 30
-52.3034049058431
 11
197.7771429313215
 21
-27.87516121036933
 31
-52.3034049058431
  0
LINE
  5
45E79
330
458D6
100
AcDbEntity
  8
0
100
AcDbLine
 10
197.7771429313215
 20
-27.87516121036933
 30
-52.3034049058431
 11
197.7771429313215
 21
-28.22069360606301
 31
-52.3034049058431
  0
LINE
  5
45E7A
330
458D6
100
AcDbEntity
  8
0
100
AcDbLine
 10
197.7771429313215
 20
-28.22069360606301
 30
-52.3034049058431
 11
197.7771429313215
 21
-28.56622600175675
 31
-52.3034049058431
  0
LINE
  5
45E7B
330
458D6
100
AcDbEntity
  8
0
100
AcDbLine
 10
197.7771429313215
 20
-28.56622600175675
 30
-52.3034049058431
 11
197.7771429313215
 21
-28.91175839745043
 31
-52.3034049058431
  0
LINE
  5
45E7C
330
458D6
100
AcDbEntity
  8
0
100
AcDbLine
 10
197.7771429313215
 20
-28.91175839745043
 30
-52.3034049058431
 11
197.7771429313215
 21
-29.60282318883782
 31
-52.3034049058431
  0
LINE
  5
45E7D
330
458D6
100
AcDbEntity
  8
0
100
AcDbLine
 10
197.7771429313215
 20
-29.60282318883782
 30
-52.3034049058431
 11
197.7771429313215
 21
-28.91175839745043
 31
-52.3034049058431
  0
LINE
  5
45E7E
330
458D6
100
AcDbEntity
  8
0
100
AcDbLine
 10
197.7771429313215
 20
-28.91175839745043
 30
-52.3034049058431
 11
197.7771429313215
 21
-28.56622600175675
 31
-52.3034049058431
  0
LINE
  5
45E7F
330
458D6
100
AcDbEntity
  8
0
100
AcDbLine
 10
197.7771429313215
 20
-28.56622600175675
 30
-52.3034049058431
 11
197.7771429313215
 21
-31.340357521469
 31
-52.3034049058431
  0
LINE
  5
45E80
330
458D6
100
AcDbEntity
  8
0
100
AcDbLine
 10
197.7771429313215
 20
-31.340357521469
 30
-52.3034049058431
 11
197.7771429313215
 21
-33.41355189563115
 31
-52.3034049058431
  0
LINE
  5
45E81
330
458D6
100
AcDbEntity
  8
0
100
AcDbLine
 10
197.7771429313215
 20
-33.41355189563115
 30
-52.3034049058431
 11
197.7771429313215
 21
-35.84215101964972
 31
-52.3034049058431
  0
LINE
  5
45E82
330
458D6
100
AcDbEntity
  8
0
100
AcDbLine
 10
197.7771429313215
 20
-35.84215101964972
 30
-52.3034049058431
 11
197.7771429313215
 21
-36.53321581103702
 31
-52.3034049058431
  0
LINE
  5
45E83
330
458D6
100
AcDbEntity
  8
0
100
AcDbLine
 10
197.7771429313215
 20
-36.53321581103702
 30
-52.3034049058431
 11
197.7771429313215
 21
-37.91534539381185
 31
-52.3034049058431
  0
LINE
  5
45E84
330
458D6
100
AcDbEntity
  8
0
100
AcDbLine
 10
197.7771429313215
 20
-37.91534539381185
 30
-52.3034049058431
 11
197.7771429313215
 21
-39.99841212213664
 31
-52.3034049058431
  0
LINE
  5
45E85
330
458D6
100
AcDbEntity
  8
0
100
AcDbLine
 10
197.7771429313215
 20
-39.99841212213664
 30
-52.3034049058431
 11
197.7771429313215
 21
-41.72607410060513
 31
-52.3034049058431
  0
LINE
  5
45E86
330
458D6
100
AcDbEntity
  8
0
100
AcDbLine
 10
197.7771429313215
 20
-41.72607410060513
 30
-52.3034049058431
 11
197.7771429313215
 21
-43.10820368337992
 31
-52.3034049058431
  0
LINE
  5
45E87
330
458D6
100
AcDbEntity
  8
0
100
AcDbLine
 10
197.7771429313215
 20
-43.10820368337992
 30
-52.3034049058431
 11
197.7771429313215
 21
-43.79926847476724
 31
-52.3034049058431
  0
LINE
  5
45E88
330
458D6
100
AcDbEntity
  8
0
100
AcDbLine
 10
197.7771429313215
 20
-43.79926847476724
 30
-52.3034049058431
 11
197.7771429313215
 21
-51.76625828404752
 31
-52.3034049058431
  0
LINE
  5
45E89
330
458D6
100
AcDbEntity
  8
0
100
AcDbLine
 10
197.7771429313215
 20
-51.76625828404752
 30
-52.3034049058431
 11
197.7771429313215
 21
-53.14838786682233
 31
-52.3034049058431
  0
LINE
  5
45E8A
330
458D6
100
AcDbEntity
  8
0
100
AcDbLine
 10
197.7771429313215
 20
-53.14838786682233
 30
-52.3034049058431
 11
197.7771429313215
 21
-54.18498505390342
 31
-52.3034049058431
  0
LINE
  5
45E8B
330
458D6
100
AcDbEntity
  8
0
100
AcDbLine
 10
197.7771429313215
 20
-54.18498505390342
 30
-52.3034049058431
 11
197.7771429313215
 21
-54.88592219945343
 31
-52.3034049058431
  0
LINE
  5
45E8C
330
458D6
100
AcDbEntity
  8
0
100
AcDbLine
 10
197.7771429313215
 20
-54.88592219945343
 30
-52.3034049058431
 11
197.7771429313215
 21
-55.23145459514714
 31
-52.3034049058431
  0
LINE
  5
45E8D
330
458D6
100
AcDbEntity
  8
0
100
AcDbLine
 10
197.7771429313215
 20
-55.23145459514714
 30
-52.3034049058431
 11
197.7771429313215
 21
-56.26805178222824
 31
-52.3034049058431
  0
LINE
  5
45E8E
330
458D6
100
AcDbEntity
  8
0
100
AcDbLine
 10
197.7771429313215
 20
-56.26805178222824
 30
-52.3034049058431
 11
197.7771429313215
 21
-57.65018136500302
 31
-52.3034049058431
  0
LINE
  5
45E8F
330
458D6
100
AcDbEntity
  8
0
100
AcDbLine
 10
197.7771429313215
 20
-57.65018136500302
 30
-52.3034049058431
 11
197.7771429313215
 21
-69.08236748538293
 31
-52.3034049058431
  0
LINE
  5
45E90
330
458D6
100
AcDbEntity
  8
0
100
AcDbLine
 10
197.7771429313215
 20
-69.08236748538293
 30
-52.3034049058431
 11
197.7771429313215
 21
-73.57428862940089
 31
-52.3034049058431
  0
LINE
  5
45E91
330
458D6
100
AcDbEntity
  8
0
100
AcDbLine
 10
197.7771429313215
 20
-73.57428862940089
 30
-52.3034049058431
 11
197.7771429313215
 21
-100.9305820141787
 31
-52.3034049058431
  0
LINE
  5
45E92
330
458D6
100
AcDbEntity
  8
0
100
AcDbLine
 10
197.7771429313215
 20
-100.9305820141787
 30
-52.3034049058431
 11
197.7771429313215
 21
-105.777907908053
 31
-52.3034049058431
  0
LINE
  5
45E93
330
458D6
100
AcDbEntity
  8
0
100
AcDbLine
 10
197.7771429313215
 20
-105.777907908053
 30
-52.3034049058431
 11
197.7771429313215
 21
-139.0181243737863
 31
-52.3034049058431
  0
LINE
  5
45E94
330
458D6
100
AcDbEntity
  8
0
100
AcDbLine
 10
197.7771429313215
 20
-139.0181243737863
 30
-52.3034049058431
 11
197.7771429313215
 21
-146.9851141830666
 31
-52.3034049058431
  0
LINE
  5
45E95
330
458D6
100
AcDbEntity
  8
0
100
AcDbLine
 10
197.7771429313215
 20
-146.9851141830666
 30
-52.3034049058431
 11
197.7771429313215
 21
-147.3306465787603
 31
-52.3034049058431
  0
LINE
  5
45E96
330
458D6
100
AcDbEntity
  8
0
100
AcDbLine
 10
197.7771429313215
 20
-147.3306465787603
 30
-52.3034049058431
 11
197.7771429313215
 21
-148.3672437658414
 31
-52.3034049058431
  0
LINE
  5
45E97
330
458D6
100
AcDbEntity
  8
0
100
AcDbLine
 10
197.7771429313215
 20
-148.3672437658414
 30
-52.3034049058431
 11
197.7771429313215
 21
-148.7127761615351
 31
-52.3034049058431
  0
LINE
  5
45E98
330
458D6
100
AcDbEntity
  8
0
100
AcDbLine
 10
197.7771429313215
 20
-148.7127761615351
 30
-52.3034049058431
 11
197.7771429313215
 21
-150.0949057443099
 31
-52.3034049058431
  0
LINE
  5
45E99
330
458D6
100
AcDbEntity
  8
0
100
AcDbLine
 10
197.7771429313215
 20
-150.0949057443099
 30
-52.3034049058431
 11
197.7771429313215
 21
-152.1779724726347
 31
-52.3034049058431
  0
LINE
  5
45E9A
330
458D6
100
AcDbEntity
  8
0
100
AcDbLine
 10
197.7771429313215
 20
-152.1779724726347
 30
-52.3034049058431
 11
197.7771429313215
 21
-154.2511668467968
 31
-52.3034049058431
  0
LINE
  5
45E9B
330
458D6
100
AcDbEntity
  8
0
100
AcDbLine
 10
197.7771429313215
 20
-154.2511668467968
 30
-52.3034049058431
 11
197.7771429313215
 21
-155.6332964295716
 31
-52.3034049058431
  0
LINE
  5
45E9C
330
458D6
100
AcDbEntity
  8
0
100
AcDbLine
 10
197.7771429313215
 20
-155.6332964295716
 30
-52.3034049058431
 11
197.7771429313215
 21
-155.9788288252653
 31
-52.3034049058431
  0
LINE
  5
45E9D
330
458D6
100
AcDbEntity
  8
0
100
AcDbLine
 10
197.7771429313215
 20
-155.9788288252653
 30
-52.3034049058431
 11
197.7771429313215
 21
-158.0618955535901
 31
-52.3034049058431
  0
LINE
  5
45E9E
330
458D6
100
AcDbEntity
  8
0
100
AcDbLine
 10
197.7771429313215
 20
-158.0618955535901
 30
-52.3034049058431
 11
197.7771429313215
 21
-158.4074279492838
 31
-52.3034049058431
  0
LINE
  5
45E9F
330
458D6
100
AcDbEntity
  8
0
100
AcDbLine
 10
197.7771429313215
 20
-158.4074279492838
 30
-52.3034049058431
 11
197.7771429313215
 21
-159.0984927406712
 31
-52.3034049058431
  0
LINE
  5
45EA0
330
458D6
100
AcDbEntity
  8
0
100
AcDbLine
 10
197.7771429313215
 20
-159.0984927406712
 30
-52.3034049058431
 11
197.7771429313215
 21
-160.1350899277523
 31
-52.3034049058431
  0
LINE
  5
45EA1
330
458D6
100
AcDbEntity
  8
0
100
AcDbLine
 10
197.7771429313215
 20
-160.1350899277523
 30
-52.3034049058431
 11
197.7771429313215
 21
-160.480622323446
 31
-52.3034049058431
  0
LINE
  5
45EA2
330
458D6
100
AcDbEntity
  8
0
100
AcDbLine
 10
197.7771429313215
 20
-160.480622323446
 30
-52.3034049058431
 11
197.7771429313215
 21
-163.2547538431582
 31
-52.3034049058431
  0
LINE
  5
45EA3
330
458D6
100
AcDbEntity
  8
0
100
AcDbLine
 10
197.7771429313215
 20
-163.2547538431582
 30
-52.3034049058431
 11
197.7771429313215
 21
-163.6002862388519
 31
-52.3034049058431
  0
LINE
  5
45EA4
330
458D6
100
AcDbEntity
  8
0
100
AcDbLine
 10
197.7771429313215
 20
-163.6002862388519
 30
-52.3034049058431
 11
197.7771429313215
 21
-162.9092214474645
 31
-52.3034049058431
  0
LINE
  5
45EA5
330
458D6
100
AcDbEntity
  8
0
100
AcDbLine
 10
197.7771429313215
 20
-162.9092214474645
 30
-52.3034049058431
 11
197.7771429313215
 21
-162.5636890517708
 31
-52.3034049058431
  0
LINE
  5
45EA6
330
458D6
100
AcDbEntity
  8
0
100
AcDbLine
 10
197.7771429313215
 20
-162.5636890517708
 30
-52.3034049058431
 11
197.7771429313215
 21
-162.2181566560771
 31
-52.3034049058431
  0
LINE
  5
45EA7
330
458D6
100
AcDbEntity
  8
0
100
AcDbLine
 10
197.7771429313215
 20
-162.2181566560771
 30
-52.3034049058431
 11
197.7771429313215
 21
-162.5636890517708
 31
-52.3034049058431
  0
LINE
  5
45EA8
330
458D6
100
AcDbEntity
  8
0
100
AcDbLine
 10
197.7771429313215
 20
-162.5636890517708
 30
-52.3034049058431
 11
197.7771429313215
 21
-162.9092214474645
 31
-52.3034049058431
  0
LINE
  5
45EA9
330
458D6
100
AcDbEntity
  8
0
100
AcDbLine
 10
197.7771429313215
 20
-162.9092214474645
 30
-52.3034049058431
 11
197.7771429313215
 21
-163.2547538431582
 31
-52.3034049058431
  0
LINE
  5
45EAA
330
458D6
100
AcDbEntity
  8
0
100
AcDbLine
 10
197.7771429313215
 20
-164.2913510302393
 30
-52.3034049058431
 11
197.7771429313215
 21
-164.636883425933
 31
-52.3034049058431
  0
LINE
  5
45EAB
330
458D6
100
AcDbEntity
  8
0
100
AcDbLine
 10
197.7771429313215
 20
-164.636883425933
 30
-52.3034049058431
 11
197.7771429313215
 21
-164.2913510302393
 31
-52.3034049058431
  0
LINE
  5
45EAC
330
458D6
100
AcDbEntity
  8
0
100
AcDbLine
 10
197.7771429313215
 20
-164.636883425933
 30
-52.3034049058431
 11
197.7771429313215
 21
-164.9824158216267
 31
-52.3034049058431
  0
LINE
  5
45EAD
330
458D6
100
AcDbEntity
  8
0
100
AcDbLine
 10
197.7771429313215
 20
-164.9824158216267
 30
-52.3034049058431
 11
197.7771429313215
 21
-167.0654825499515
 31
-52.3034049058431
  0
LINE
  5
45EAE
330
458D6
100
AcDbEntity
  8
0
100
AcDbLine
 10
197.7771429313215
 20
-168.79314452842
 30
-52.3034049058431
 11
197.7771429313215
 21
-167.4110149456452
 31
-52.3034049058431
  0
LINE
  5
45EAF
330
458D6
100
AcDbEntity
  8
0
100
AcDbLine
 10
197.7771429313215
 20
-167.4110149456452
 30
-52.3034049058431
 11
197.7771429313215
 21
-167.0654825499515
 31
-52.3034049058431
  0
LINE
  5
45EB0
330
458D6
100
AcDbEntity
  8
0
100
AcDbLine
 10
197.7771429313215
 20
-167.0654825499515
 30
-52.3034049058431
 11
197.7771429313215
 21
-164.636883425933
 31
-52.3034049058431
  0
LINE
  5
45EB1
330
458D6
100
AcDbEntity
  8
0
100
AcDbLine
 10
164.2210111323826
 20
-91.58146262212364
 30
-52.3034049058431
 11
163.5299463409952
 21
-91.23593022642991
 31
-52.3034049058431
  0
LINE
  5
45EB2
330
458D6
100
AcDbEntity
  8
0
100
AcDbLine
 10
163.5299463409952
 20
-91.23593022642991
 30
-52.3034049058431
 11
163.5299463409952
 21
-100.2395172227912
 31
-52.3034049058431
  0
LINE
  5
45EB3
330
458D6
100
AcDbEntity
  8
0
100
AcDbLine
 10
163.5299463409952
 20
-100.2395172227912
 30
-52.3034049058431
 11
164.2210111323826
 21
-99.54845243140391
 31
-52.3034049058431
  0
LINE
  5
45EB4
330
458D6
100
AcDbEntity
  8
0
100
AcDbLine
 10
164.5665435280763
 20
-99.54845243140391
 30
-52.3034049058431
 11
164.5665435280763
 21
-91.9269950178173
 31
-52.3034049058431
  0
LINE
  5
45EB5
330
458D6
100
AcDbEntity
  8
0
100
AcDbLine
 10
164.5665435280763
 20
-91.9269950178173
 30
-52.3034049058431
 11
164.5665435280763
 21
-91.58146262212364
 31
-52.3034049058431
  0
LINE
  5
45EB6
330
458D6
100
AcDbEntity
  8
0
100
AcDbLine
 10
164.2210111323826
 20
-107.8609746363779
 30
-52.3034049058431
 11
163.5299463409952
 21
-107.1600374908278
 31
-52.3034049058431
  0
LINE
  5
45EB7
330
458D6
100
AcDbEntity
  8
0
100
AcDbLine
 10
163.5299463409952
 20
-107.1600374908278
 30
-52.3034049058431
 11
163.5299463409952
 21
-116.1636244871892
 31
-52.3034049058431
  0
LINE
  5
45EB8
330
458D6
100
AcDbEntity
  8
0
100
AcDbLine
 10
163.5299463409952
 20
-116.1636244871892
 30
-52.3034049058431
 11
164.2210111323826
 21
-115.4725596958018
 31
-52.3034049058431
  0
LINE
  5
45EB9
330
458D6
100
AcDbEntity
  8
0
100
AcDbLine
 10
164.5665435280763
 20
-115.4725596958018
 30
-52.3034049058431
 11
164.5665435280763
 21
-107.8609746363779
 31
-52.3034049058431
  0
LINE
  5
45EBA
330
458D6
100
AcDbEntity
  8
0
100
AcDbLine
 10
192.2387522460598
 20
-167.0654825499515
 30
-52.3034049058431
 11
191.8932198503661
 21
-167.0654825499515
 31
-52.3034049058431
  0
LINE
  5
45EBB
330
458D6
100
AcDbEntity
  8
0
100
AcDbLine
 10
191.8932198503661
 20
-167.0654825499515
 30
-52.3034049058431
 11
192.2387522460598
 21
-167.0654825499515
 31
-52.3034049058431
  0
LINE
  5
45EBC
330
458D6
100
AcDbEntity
  8
0
100
AcDbLine
 10
192.2387522460598
 20
-167.0654825499515
 30
-52.3034049058431
 11
197.4316105356278
 21
-167.0654825499515
 31
-52.3034049058431
  0
LINE
  5
45EBD
330
458D6
100
AcDbEntity
  8
0
100
AcDbLine
 10
197.4316105356278
 20
-167.0654825499515
 30
-52.3034049058431
 11
197.7771429313215
 21
-167.0654825499515
 31
-52.3034049058431
  0
LINE
  5
45EBE
330
458D6
100
AcDbEntity
  8
0
100
AcDbLine
 10
197.7771429313215
 20
-167.0654825499515
 30
-52.3034049058431
 11
197.4316105356278
 21
-167.0654825499515
 31
-52.3034049058431
  0
LINE
  5
45EBF
330
458D6
100
AcDbEntity
  8
0
100
AcDbLine
 10
191.8932198503661
 20
-167.0654825499515
 30
-52.3034049058431
 11
191.8932198503661
 21
-164.636883425933
 31
-52.3034049058431
  0
LINE
  5
45EC0
330
458D6
100
AcDbEntity
  8
0
100
AcDbLine
 10
191.8932198503661
 20
-164.636883425933
 30
-52.3034049058431
 11
191.8932198503661
 21
-167.0654825499515
 31
-52.3034049058431
  0
LINE
  5
45EC1
330
458D6
100
AcDbEntity
  8
0
100
AcDbLine
 10
191.8932198503661
 20
-167.0654825499515
 30
-52.3034049058431
 11
191.8932198503661
 21
-167.0654825499515
 31
-52.3034049058431
  0
LINE
  5
45EC2
330
458D6
100
AcDbEntity
  8
0
100
AcDbLine
 10
163.1844139453015
 20
-167.4110149456452
 30
-52.3034049058431
 11
163.1844139453015
 21
-167.0654825499515
 31
-52.3034049058431
  0
LINE
  5
45EC3
330
458D6
100
AcDbEntity
  8
0
100
AcDbLine
 10
163.1844139453015
 20
-167.0654825499515
 30
-52.3034049058431
 11
166.6397379022384
 21
-167.4110149456452
 31
-52.3034049058431
  0
LINE
  5
45EC4
330
458D6
100
AcDbEntity
  8
0
100
AcDbLine
 10
166.6397379022384
 20
-167.4110149456452
 30
-52.3034049058431
 11
166.2942055065447
 21
-167.0654825499515
 31
-52.3034049058431
  0
LINE
  5
45EC5
330
458D6
100
AcDbEntity
  8
0
100
AcDbLine
 10
166.2942055065447
 20
-167.0654825499515
 30
-52.3034049058431
 11
163.1844139453015
 21
-167.0654825499515
 31
-52.3034049058431
  0
LINE
  5
45EC6
330
458D6
100
AcDbEntity
  8
0
100
AcDbLine
 10
163.1844139453015
 20
-167.0654825499515
 30
-52.3034049058431
 11
163.1844139453015
 21
-166.7199501542578
 31
-52.3034049058431
  0
LINE
  5
45EC7
330
458D6
100
AcDbEntity
  8
0
100
AcDbLine
 10
163.1844139453015
 20
-166.7199501542578
 30
-52.3034049058431
 11
166.2942055065447
 21
-166.7199501542578
 31
-52.3034049058431
  0
LINE
  5
45EC8
330
458D6
100
AcDbEntity
  8
0
100
AcDbLine
 10
166.2942055065447
 20
-166.7199501542578
 30
-52.3034049058431
 11
163.1844139453015
 21
-166.7199501542578
 31
-52.3034049058431
  0
LINE
  5
45EC9
330
458D6
100
AcDbEntity
  8
0
100
AcDbLine
 10
163.1844139453015
 20
-166.7199501542578
 30
-52.3034049058431
 11
166.2942055065447
 21
-167.0654825499515
 31
-52.3034049058431
  0
LINE
  5
45ECA
330
458D6
100
AcDbEntity
  8
0
100
AcDbLine
 10
166.2942055065447
 20
-167.0654825499515
 30
-52.3034049058431
 11
166.2942055065447
 21
-166.7199501542578
 31
-52.3034049058431
  0
LINE
  5
45ECB
330
458D6
100
AcDbEntity
  8
0
100
AcDbLine
 10
166.2942055065447
 20
-166.7199501542578
 30
-52.3034049058431
 11
163.1844139453015
 21
-166.7199501542578
 31
-52.3034049058431
  0
LINE
  5
45ECC
330
458D6
100
AcDbEntity
  8
0
100
AcDbLine
 10
165.2576083194636
 20
-166.7199501542578
 30
-52.3034049058431
 11
163.8754787366889
 21
-166.7199501542578
 31
-52.3034049058431
  0
LINE
  5
45ECD
330
458D6
100
AcDbEntity
  8
0
100
AcDbLine
 10
163.8754787366889
 20
-166.7199501542578
 30
-52.3034049058431
 11
165.2576083194636
 21
-166.7199501542578
 31
-52.3034049058431
  0
LINE
  5
45ECE
330
458D6
100
AcDbEntity
  8
0
100
AcDbLine
 10
192.2387522460598
 20
-167.0654825499515
 30
-52.3034049058431
 11
191.8932198503661
 21
-167.0654825499515
 31
-52.3034049058431
  0
LINE
  5
45ECF
330
458D6
100
AcDbEntity
  8
0
100
AcDbLine
 10
191.8932198503661
 20
-167.0654825499515
 30
-52.3034049058431
 11
197.7771429313215
 21
-167.0654825499515
 31
-52.3034049058431
  0
LINE
  5
45ED0
330
458D6
100
AcDbEntity
  8
0
100
AcDbLine
 10
197.7771429313215
 20
-167.0654825499515
 30
-52.3034049058431
 11
191.8932198503661
 21
-167.0654825499515
 31
-52.3034049058431
  0
LINE
  5
45ED1
330
458D6
100
AcDbEntity
  8
0
100
AcDbLine
 10
191.8932198503661
 20
-167.0654825499515
 30
-52.3034049058431
 11
191.5476874546725
 21
-167.4110149456452
 31
-52.3034049058431
  0
LINE
  5
45ED2
330
458D6
100
AcDbEntity
  8
0
100
AcDbLine
 10
191.5476874546725
 20
-167.4110149456452
 30
-52.3034049058431
 11
197.7771429313215
 21
-167.4110149456452
 31
-52.3034049058431
  0
LINE
  5
45ED3
330
458D6
100
AcDbEntity
  8
0
100
AcDbLine
 10
197.7771429313215
 20
-167.4110149456452
 30
-52.3034049058431
 11
197.7771429313215
 21
-167.0654825499515
 31
-52.3034049058431
  0
LINE
  5
45ED4
330
458D6
100
AcDbEntity
  8
0
100
AcDbLine
 10
197.7771429313215
 20
-167.0654825499515
 30
-52.3034049058431
 11
191.5476874546725
 21
-167.4110149456452
 31
-52.3034049058431
  0
LINE
  5
45ED5
330
458D6
100
AcDbEntity
  8
0
100
AcDbLine
 10
191.8932198503661
 20
-167.0654825499515
 30
-52.3034049058431
 11
197.7771429313215
 21
-167.0654825499515
 31
-52.3034049058431
  0
LINE
  5
45ED6
330
458D6
100
AcDbEntity
  8
0
100
AcDbLine
 10
197.7771429313215
 20
-167.0654825499515
 30
-52.3034049058431
 11
197.4316105356278
 21
-167.0654825499515
 31
-52.3034049058431
  0
LINE
  5
45ED7
330
458D6
100
AcDbEntity
  8
0
100
AcDbLine
 10
197.7771429313215
 20
-167.0654825499515
 30
-52.3034049058431
 11
191.8932198503661
 21
-167.0654825499515
 31
-52.3034049058431
  0
LINE
  5
45ED8
330
458D6
100
AcDbEntity
  8
0
100
AcDbLine
 10
191.8932198503661
 20
-167.0654825499515
 30
-52.3034049058431
 11
197.7771429313215
 21
-167.0654825499515
 31
-52.3034049058431
  0
LINE
  5
45ED9
330
458D6
100
AcDbEntity
  8
0
100
AcDbLine
 10
197.7771429313215
 20
-167.0654825499515
 30
-52.3034049058431
 11
197.7771429313215
 21
-167.0654825499515
 31
-52.3034049058431
  0
LINE
  5
45EDA
330
458D6
100
AcDbEntity
  8
0
100
AcDbLine
 10
166.6397379022384
 20
-167.0654825499515
 30
-52.3034049058431
 11
166.2942055065447
 21
-166.7199501542578
 31
-52.3034049058431
  0
LINE
  5
45EDB
330
458D6
100
AcDbEntity
  8
0
100
AcDbLine
 10
166.6397379022384
 20
-164.636883425933
 30
-52.3034049058431
 11
166.6397379022384
 21
-164.2913510302393
 31
-52.3034049058431
  0
LINE
  5
45EDC
330
458D6
100
AcDbEntity
  8
0
100
AcDbLine
 10
166.2942055065447
 20
-166.0288853628704
 30
-52.3034049058431
 11
166.6397379022384
 21
-166.0288853628704
 31
-52.3034049058431
  0
LINE
  5
45EDD
330
458D6
100
AcDbEntity
  8
0
100
AcDbLine
 10
166.6397379022384
 20
-165.6734806130141
 30
-52.3034049058431
 11
166.2942055065447
 21
-166.0288853628704
 31
-52.3034049058431
  0
LINE
  5
45EDE
330
458D6
100
AcDbEntity
  8
0
100
AcDbLine
 10
166.2942055065447
 20
-166.0288853628704
 30
-52.3034049058431
 11
166.6397379022384
 21
-166.0288853628704
 31
-52.3034049058431
  0
LINE
  5
45EDF
330
458D6
100
AcDbEntity
  8
0
100
AcDbLine
 10
166.6397379022384
 20
-166.0288853628704
 30
-52.3034049058431
 11
166.2942055065447
 21
-166.0288853628704
 31
-52.3034049058431
  0
LINE
  5
45EE0
330
458D6
100
AcDbEntity
  8
0
100
AcDbLine
 10
166.2942055065447
 20
-166.0288853628704
 30
-52.3034049058431
 11
166.6397379022384
 21
-166.0288853628704
 31
-52.3034049058431
  0
LINE
  5
45EE1
330
458D6
100
AcDbEntity
  8
0
100
AcDbLine
 10
166.6397379022384
 20
-166.0288853628704
 30
-52.3034049058431
 11
166.6397379022384
 21
-166.0288853628704
 31
-52.3034049058431
  0
LINE
  5
45EE2
330
458D6
100
AcDbEntity
  8
0
100
AcDbLine
 10
166.2942055065447
 20
-165.3279482173203
 30
-52.3034049058431
 11
166.6397379022384
 21
-165.3279482173203
 31
-52.3034049058431
  0
LINE
  5
45EE3
330
458D6
100
AcDbEntity
  8
0
100
AcDbLine
 10
166.6397379022384
 20
-165.3279482173203
 30
-52.3034049058431
 11
166.2942055065447
 21
-165.3279482173203
 31
-52.3034049058431
  0
LINE
  5
45EE4
330
458D6
100
AcDbEntity
  8
0
100
AcDbLine
 10
166.2942055065447
 20
-165.3279482173203
 30
-52.3034049058431
 11
166.2942055065447
 21
-165.3279482173203
 31
-52.3034049058431
  0
LINE
  5
45EE5
330
458D6
100
AcDbEntity
  8
0
100
AcDbLine
 10
166.6397379022384
 20
-164.636883425933
 30
-52.3034049058431
 11
166.2942055065447
 21
-164.636883425933
 31
-52.3034049058431
  0
LINE
  5
45EE6
330
458D6
100
AcDbEntity
  8
0
100
AcDbLine
 10
165.9486731108511
 20
-26.14749923190093
 30
-52.3034049058431
 11
168.7228046305633
 21
-26.14749923190093
 31
-52.3034049058431
  0
LINE
  5
45EE7
330
458D6
100
AcDbEntity
  8
0
100
AcDbLine
 10
168.7228046305633
 20
-26.14749923190093
 30
-52.3034049058431
 11
168.7228046305633
 21
-26.49303162759463
 31
-52.3034049058431
  0
LINE
  5
45EE8
330
458D6
100
AcDbEntity
  8
0
100
AcDbLine
 10
168.7228046305633
 20
-26.49303162759463
 30
-52.3034049058431
 11
165.9486731108511
 21
-26.14749923190093
 31
-52.3034049058431
  0
LINE
  5
45EE9
330
458D6
100
AcDbEntity
  8
0
100
AcDbLine
 10
165.9486731108511
 20
-26.14749923190093
 30
-52.3034049058431
 11
165.9486731108511
 21
-26.49303162759463
 31
-52.3034049058431
  0
LINE
  5
45EEA
330
458D6
100
AcDbEntity
  8
0
100
AcDbLine
 10
165.9486731108511
 20
-26.49303162759463
 30
-52.3034049058431
 11
168.7228046305633
 21
-26.49303162759463
 31
-52.3034049058431
  0
LINE
  5
45EEB
330
458D6
100
AcDbEntity
  8
0
100
AcDbLine
 10
168.7228046305633
 20
-26.49303162759463
 30
-52.3034049058431
 11
168.7228046305633
 21
-27.18409641898194
 31
-52.3034049058431
  0
LINE
  5
45EEC
330
458D6
100
AcDbEntity
  8
0
100
AcDbLine
 10
168.7228046305633
 20
-27.18409641898194
 30
-52.3034049058431
 11
165.9486731108511
 21
-26.49303162759463
 31
-52.3034049058431
  0
LINE
  5
45EED
330
458D6
100
AcDbEntity
  8
0
100
AcDbLine
 10
165.9486731108511
 20
-26.49303162759463
 30
-52.3034049058431
 11
165.9486731108511
 21
-27.18409641898194
 31
-52.3034049058431
  0
LINE
  5
45EEE
330
458D6
100
AcDbEntity
  8
0
100
AcDbLine
 10
165.9486731108511
 20
-27.18409641898194
 30
-52.3034049058431
 11
168.7228046305633
 21
-27.18409641898194
 31
-52.3034049058431
  0
LINE
  5
45EEF
330
458D6
100
AcDbEntity
  8
0
100
AcDbLine
 10
165.9486731108511
 20
-26.14749923190093
 30
-52.3034049058431
 11
168.7228046305633
 21
-26.14749923190093
 31
-52.3034049058431
  0
LINE
  5
45EF0
330
458D6
100
AcDbEntity
  8
0
100
AcDbLine
 10
168.7228046305633
 20
-26.14749923190093
 30
-52.3034049058431
 11
165.9486731108511
 21
-26.14749923190093
 31
-52.3034049058431
  0
LINE
  5
45EF1
330
458D6
100
AcDbEntity
  8
0
100
AcDbLine
 10
165.9486731108511
 20
-26.14749923190093
 30
-52.3034049058431
 11
165.9486731108511
 21
-26.14749923190093
 31
-52.3034049058431
  0
LINE
  5
45EF2
330
458D6
100
AcDbEntity
  8
0
100
AcDbLine
 10
168.7228046305633
 20
-26.14749923190093
 30
-52.3034049058431
 11
165.9486731108511
 21
-26.14749923190093
 31
-52.3034049058431
  0
LINE
  5
45EF3
330
458D6
100
AcDbEntity
  8
0
100
AcDbLine
 10
173.2147257745813
 20
-27.52962881467565
 30
-52.3034049058431
 11
173.2147257745813
 21
-27.18409641898194
 31
-52.3034049058431
  0
LINE
  5
45EF4
330
458D6
100
AcDbEntity
  8
0
100
AcDbLine
 10
173.2147257745813
 20
-27.18409641898194
 30
-52.3034049058431
 11
170.4504666090317
 21
-27.18409641898194
 31
-52.3034049058431
  0
LINE
  5
45EF5
330
458D6
100
AcDbEntity
  8
0
100
AcDbLine
 10
171.4870637961127
 20
-27.52962881467565
 30
-52.3034049058431
 11
170.4504666090317
 21
-27.18409641898194
 31
-52.3034049058431
  0
LINE
  5
45EF6
330
458D6
100
AcDbEntity
  8
0
100
AcDbLine
 10
170.4504666090317
 20
-27.18409641898194
 30
-52.3034049058431
 11
170.4504666090317
 21
-27.52962881467565
 31
-52.3034049058431
  0
LINE
  5
45EF7
330
458D6
100
AcDbEntity
  8
0
100
AcDbLine
 10
189.8200254762039
 20
-27.52962881467565
 30
-52.3034049058431
 11
189.8200254762039
 21
-27.18409641898194
 31
-52.3034049058431
  0
LINE
  5
45EF8
330
458D6
100
AcDbEntity
  8
0
100
AcDbLine
 10
189.8200254762039
 20
-27.18409641898194
 30
-52.3034049058431
 11
187.0557663106543
 21
-27.18409641898194
 31
-52.3034049058431
  0
LINE
  5
45EF9
330
458D6
100
AcDbEntity
  8
0
100
AcDbLine
 10
187.0557663106543
 20
-27.18409641898194
 30
-52.3034049058431
 11
187.0557663106543
 21
-27.52962881467565
 31
-52.3034049058431
  0
LINE
  5
45EFA
330
458D6
100
AcDbEntity
  8
0
100
AcDbLine
 10
189.8200254762039
 20
-27.18409641898194
 30
-52.3034049058431
 11
188.4378958934291
 21
-27.52962881467565
 31
-52.3034049058431
  0
LINE
  5
45EFB
330
458D6
100
AcDbEntity
  8
0
100
AcDbLine
 10
197.7771429313215
 20
-138.6725919780926
 30
-52.3034049058431
 11
197.7771429313215
 21
-146.9851141830666
 31
-52.3034049058431
  0
LINE
  5
45EFC
330
458D6
100
AcDbEntity
  8
0
100
AcDbLine
 10
197.7771429313215
 20
-146.9851141830666
 30
-52.3034049058431
 11
197.7771429313215
 21
-147.3306465787603
 31
-52.3034049058431
  0
LINE
  5
45EFD
330
458D6
100
AcDbEntity
  8
0
100
AcDbLine
 10
197.7771429313215
 20
-147.3306465787603
 30
-52.3034049058431
 11
197.7771429313215
 21
-146.9851141830666
 31
-52.3034049058431
  0
LINE
  5
45EFE
330
458D6
100
AcDbEntity
  8
0
100
AcDbLine
 10
197.7771429313215
 20
-146.9851141830666
 30
-52.3034049058431
 11
197.7771429313215
 21
-147.3306465787603
 31
-52.3034049058431
  0
LINE
  5
45EFF
330
458D6
100
AcDbEntity
  8
0
100
AcDbLine
 10
197.7771429313215
 20
-147.3306465787603
 30
-52.3034049058431
 11
197.7771429313215
 21
-148.3672437658414
 31
-52.3034049058431
  0
LINE
  5
45F00
330
458D6
100
AcDbEntity
  8
0
100
AcDbLine
 10
197.7771429313215
 20
-148.3672437658414
 30
-52.3034049058431
 11
197.7771429313215
 21
-150.7859705356972
 31
-52.3034049058431
  0
LINE
  5
45F01
330
458D6
100
AcDbEntity
  8
0
100
AcDbLine
 10
197.7771429313215
 20
-150.7859705356972
 30
-52.3034049058431
 11
197.7771429313215
 21
-153.5601020554095
 31
-52.3034049058431
  0
LINE
  5
45F02
330
458D6
100
AcDbEntity
  8
0
100
AcDbLine
 10
197.7771429313215
 20
-153.5601020554095
 30
-52.3034049058431
 11
197.7771429313215
 21
-155.9788288252653
 31
-52.3034049058431
  0
LINE
  5
45F03
330
458D6
100
AcDbEntity
  8
0
100
AcDbLine
 10
197.7771429313215
 20
-155.9788288252653
 30
-52.3034049058431
 11
197.7771429313215
 21
-157.7163631578964
 31
-52.3034049058431
  0
LINE
  5
45F04
330
458D6
100
AcDbEntity
  8
0
100
AcDbLine
 10
197.7771429313215
 20
-157.7163631578964
 30
-52.3034049058431
 11
197.7771429313215
 21
-33.75908429132483
 31
-52.3034049058431
  0
LINE
  5
45F05
330
458D6
100
AcDbEntity
  8
0
100
AcDbLine
 10
197.7771429313215
 20
-33.75908429132483
 30
-52.3034049058431
 11
197.7771429313215
 21
-35.84215101964972
 31
-52.3034049058431
  0
LINE
  5
45F06
330
458D6
100
AcDbEntity
  8
0
100
AcDbLine
 10
197.7771429313215
 20
-35.84215101964972
 30
-52.3034049058431
 11
197.7771429313215
 21
-36.18768341534334
 31
-52.3034049058431
  0
LINE
  5
45F07
330
458D6
100
AcDbEntity
  8
0
100
AcDbLine
 10
197.7771429313215
 20
-36.18768341534334
 30
-52.3034049058431
 11
197.7771429313215
 21
-38.60641018519923
 31
-52.3034049058431
  0
LINE
  5
45F08
330
458D6
100
AcDbEntity
  8
0
100
AcDbLine
 10
197.7771429313215
 20
-38.60641018519923
 30
-52.3034049058431
 11
197.7771429313215
 21
-41.38054170491142
 31
-52.3034049058431
  0
LINE
  5
45F09
330
458D6
100
AcDbEntity
  8
0
100
AcDbLine
 10
197.7771429313215
 20
-41.38054170491142
 30
-52.3034049058431
 11
197.7771429313215
 21
-41.72607410060513
 31
-52.3034049058431
  0
LINE
  5
45F0A
330
458D6
100
AcDbEntity
  8
0
100
AcDbLine
 10
197.7771429313215
 20
-41.72607410060513
 30
-52.3034049058431
 11
197.7771429313215
 21
-42.76267128768623
 31
-52.3034049058431
  0
LINE
  5
45F0B
330
458D6
100
AcDbEntity
  8
0
100
AcDbLine
 10
197.7771429313215
 20
-42.76267128768623
 30
-52.3034049058431
 11
197.7771429313215
 21
-43.79926847476724
 31
-52.3034049058431
  0
LINE
  5
45F0C
330
458D6
100
AcDbEntity
  8
0
100
AcDbLine
 10
197.7771429313215
 20
-43.79926847476724
 30
-52.3034049058431
 11
197.7771429313215
 21
-141.4368511436421
 31
-52.3034049058431
  0
LINE
  5
45F0D
330
458D6
100
AcDbEntity
  8
0
100
AcDbLine
 10
197.7771429313215
 20
-141.4368511436421
 30
-52.3034049058431
 11
197.7771429313215
 21
-142.8288530805796
 31
-52.3034049058431
  0
LINE
  5
45F0E
330
458D6
100
AcDbEntity
  8
0
100
AcDbLine
 10
197.7771429313215
 20
-142.8288530805796
 30
-52.3034049058431
 11
197.7771429313215
 21
-143.519917871967
 31
-52.3034049058431
  0
LINE
  5
45F0F
330
458D6
100
AcDbEntity
  8
0
100
AcDbLine
 10
197.7771429313215
 20
-143.519917871967
 30
-52.3034049058431
 11
197.7771429313215
 21
-143.8654502676607
 31
-52.3034049058431
  0
LINE
  5
45F10
330
458D6
100
AcDbEntity
  8
0
100
AcDbLine
 10
197.7771429313215
 20
-143.8654502676607
 30
-52.3034049058431
 11
197.7771429313215
 21
-140.0547215608674
 31
-52.3034049058431
  0
LINE
  5
45F11
330
458D6
100
AcDbEntity
  8
0
100
AcDbLine
 10
197.7771429313215
 20
-140.0547215608674
 30
-52.3034049058431
 11
197.7771429313215
 21
-43.79926847476724
 31
-52.3034049058431
  0
LINE
  5
45F12
330
458D6
100
AcDbEntity
  8
0
100
AcDbLine
 10
197.7771429313215
 20
-43.79926847476724
 30
-52.3034049058431
 11
197.7771429313215
 21
-42.76267128768623
 31
-52.3034049058431
  0
LINE
  5
45F13
330
458D6
100
AcDbEntity
  8
0
100
AcDbLine
 10
197.7771429313215
 20
-42.76267128768623
 30
-52.3034049058431
 11
197.7771429313215
 21
-41.72607410060513
 31
-52.3034049058431
  0
LINE
  5
45F14
330
458D6
100
AcDbEntity
  8
0
100
AcDbLine
 10
197.7771429313215
 20
-41.72607410060513
 30
-52.3034049058431
 11
197.7771429313215
 21
-41.38054170491142
 31
-52.3034049058431
  0
LINE
  5
45F15
330
458D6
100
AcDbEntity
  8
0
100
AcDbLine
 10
197.7771429313215
 20
-41.38054170491142
 30
-52.3034049058431
 11
197.7771429313215
 21
-43.79926847476724
 31
-52.3034049058431
  0
LINE
  5
45F16
330
458D6
100
AcDbEntity
  8
0
100
AcDbLine
 10
197.7771429313215
 20
-43.79926847476724
 30
-52.3034049058431
 11
197.7771429313215
 21
-51.76625828404752
 31
-52.3034049058431
  0
LINE
  5
45F17
330
458D6
100
AcDbEntity
  8
0
100
AcDbLine
 10
197.7771429313215
 20
-51.76625828404752
 30
-52.3034049058431
 11
197.7771429313215
 21
-53.14838786682233
 31
-52.3034049058431
  0
LINE
  5
45F18
330
458D6
100
AcDbEntity
  8
0
100
AcDbLine
 10
197.7771429313215
 20
-53.14838786682233
 30
-52.3034049058431
 11
197.7771429313215
 21
-54.18498505390342
 31
-52.3034049058431
  0
LINE
  5
45F19
330
458D6
100
AcDbEntity
  8
0
100
AcDbLine
 10
197.7771429313215
 20
-54.18498505390342
 30
-52.3034049058431
 11
197.7771429313215
 21
-54.54038980375974
 31
-52.3034049058431
  0
LINE
  5
45F1A
330
458D6
100
AcDbEntity
  8
0
100
AcDbLine
 10
197.7771429313215
 20
-54.54038980375974
 30
-52.3034049058431
 11
197.7771429313215
 21
-54.88592219945343
 31
-52.3034049058431
  0
LINE
  5
45F1B
330
458D6
100
AcDbEntity
  8
0
100
AcDbLine
 10
197.7771429313215
 20
-54.88592219945343
 30
-52.3034049058431
 11
197.7771429313215
 21
-55.92251938653451
 31
-52.3034049058431
  0
LINE
  5
45F1C
330
458D6
100
AcDbEntity
  8
0
100
AcDbLine
 10
197.7771429313215
 20
-55.92251938653451
 30
-52.3034049058431
 11
197.7771429313215
 21
-57.65018136500302
 31
-52.3034049058431
  0
LINE
  5
45F1D
330
458D6
100
AcDbEntity
  8
0
100
AcDbLine
 10
197.7771429313215
 20
-57.65018136500302
 30
-52.3034049058431
 11
197.7771429313215
 21
-68.72696273552654
 31
-52.3034049058431
  0
LINE
  5
45F1E
330
458D6
100
AcDbEntity
  8
0
100
AcDbLine
 10
197.7771429313215
 20
-68.72696273552654
 30
-52.3034049058431
 11
197.7771429313215
 21
-73.92969337925723
 31
-52.3034049058431
  0
LINE
  5
45F1F
330
458D6
100
AcDbEntity
  8
0
100
AcDbLine
 10
197.7771429313215
 20
-73.92969337925723
 30
-52.3034049058431
 11
197.7771429313215
 21
-100.9305820141787
 31
-52.3034049058431
  0
LINE
  5
45F20
330
458D6
100
AcDbEntity
  8
0
100
AcDbLine
 10
197.7771429313215
 20
-100.9305820141787
 30
-52.3034049058431
 11
197.7771429313215
 21
-106.1234403037468
 31
-52.3034049058431
  0
LINE
  5
45F21
330
458D6
100
AcDbEntity
  8
0
100
AcDbLine
 10
197.7771429313215
 20
-106.1234403037468
 30
-52.3034049058431
 11
197.7771429313215
 21
-138.6725919780926
 31
-52.3034049058431
  0
LINE
  5
45F22
330
458D6
100
AcDbEntity
  8
0
100
AcDbLine
 10
194.6574790159156
 20
-57.30464896930931
 30
-52.3034049058431
 11
194.6574790159156
 21
-60.07878048902151
 31
-52.3034049058431
  0
LINE
  5
45F23
330
458D6
100
AcDbEntity
  8
0
100
AcDbLine
 10
195.7039485571594
 20
-60.07878048902151
 30
-52.3034049058431
 11
195.7039485571594
 21
-57.30464896930931
 31
-52.3034049058431
  0
LINE
  5
45F24
330
458D6
100
AcDbEntity
  8
0
100
AcDbLine
 10
195.7039485571594
 20
-92.27252741351104
 30
-52.3034049058431
 11
195.7039485571594
 21
-91.9269950178173
 31
-52.3034049058431
  0
LINE
  5
45F25
330
458D6
100
AcDbEntity
  8
0
100
AcDbLine
 10
195.7039485571594
 20
-100.2395172227912
 30
-52.3034049058431
 11
195.7039485571594
 21
-99.89398482709765
 31
-52.3034049058431
  0
LINE
  5
45F26
330
458D6
100
AcDbEntity
  8
0
100
AcDbLine
 10
195.7039485571594
 20
-108.2065070320716
 30
-52.3034049058431
 11
195.7039485571594
 21
-107.8609746363779
 31
-52.3034049058431
  0
LINE
  5
45F27
330
458D6
100
AcDbEntity
  8
0
100
AcDbLine
 10
195.7039485571594
 20
-116.5091568828829
 30
-52.3034049058431
 11
195.7039485571594
 21
-115.8180920914955
 31
-52.3034049058431
  0
LINE
  5
45F28
330
458D6
100
AcDbEntity
  8
0
100
AcDbLine
 10
195.7039485571594
 20
-124.4761466921632
 30
-52.3034049058431
 11
195.7039485571594
 21
-124.1306142964695
 31
-52.3034049058431
  0
LINE
  5
45F29
330
458D6
100
AcDbEntity
  8
0
100
AcDbLine
 10
195.7039485571594
 20
-133.4797336885245
 30
-52.3034049058431
 11
195.7039485571594
 21
-131.7421993558934
 31
-52.3034049058431
  0
LINE
  5
45F2A
330
458D6
100
AcDbEntity
  8
0
100
AcDbLine
 10
195.7039485571594
 20
-140.4002539565611
 30
-52.3034049058431
 11
195.7039485571594
 21
-140.0547215608674
 31
-52.3034049058431
  0
LINE
  5
45F2B
330
458D6
100
AcDbEntity
  8
0
100
AcDbLine
 10
195.7039485571594
 20
-148.3672437658414
 30
-52.3034049058431
 11
195.7039485571594
 21
-148.0217113701477
 31
-52.3034049058431
  0
LINE
  5
45F2C
330
458D6
100
AcDbEntity
  8
0
100
AcDbLine
 10
175.6334525444371
 20
-60.07878048902151
 30
-52.3034049058431
 11
175.6334525444371
 21
-57.30464896930931
 31
-52.3034049058431
  0
LINE
  5
45F2D
330
458D6
100
AcDbEntity
  8
0
100
AcDbLine
 10
175.6334525444371
 20
-67.69036554844543
 30
-52.3034049058431
 11
175.6334525444371
 21
-67.34483315275172
 31
-52.3034049058431
  0
LINE
  5
45F2E
330
458D6
100
AcDbEntity
  8
0
100
AcDbLine
 10
175.6334525444371
 20
-75.31182296203201
 30
-52.3034049058431
 11
175.6334525444371
 21
-69.08236748538293
 31
-52.3034049058431
  0
LINE
  5
45F2F
330
458D6
100
AcDbEntity
  8
0
100
AcDbLine
 10
175.6334525444371
 20
-92.27252741351104
 30
-52.3034049058431
 11
175.6334525444371
 21
-91.9269950178173
 31
-52.3034049058431
  0
LINE
  5
45F30
330
458D6
100
AcDbEntity
  8
0
100
AcDbLine
 10
175.6334525444371
 20
-100.2395172227912
 30
-52.3034049058431
 11
175.6334525444371
 21
-99.89398482709765
 31
-52.3034049058431
  0
LINE
  5
45F31
330
458D6
100
AcDbEntity
  8
0
100
AcDbLine
 10
175.6334525444371
 20
-108.2065070320716
 30
-52.3034049058431
 11
175.6334525444371
 21
-107.8609746363779
 31
-52.3034049058431
  0
LINE
  5
45F32
330
458D6
100
AcDbEntity
  8
0
100
AcDbLine
 10
175.6334525444371
 20
-116.1636244871892
 30
-52.3034049058431
 11
175.6334525444371
 21
-115.8180920914955
 31
-52.3034049058431
  0
LINE
  5
45F33
330
458D6
100
AcDbEntity
  8
0
100
AcDbLine
 10
164.5665435280763
 20
-85.35200714547455
 30
-52.3034049058431
 11
164.5665435280763
 21
-86.38860433255551
 31
-52.3034049058431
  0
LINE
  5
45F34
330
458D6
100
AcDbEntity
  8
0
100
AcDbLine
 10
164.5665435280763
 20
-86.38860433255551
 30
-52.3034049058431
 11
164.5665435280763
 21
-87.07966912394303
 31
-52.3034049058431
  0
LINE
  5
45F35
330
458D6
100
AcDbEntity
  8
0
100
AcDbLine
 10
164.5665435280763
 20
-57.99571376069671
 30
-52.3034049058431
 11
164.5665435280763
 21
-59.73324809332783
 31
-52.3034049058431
  0
LINE
  5
45F36
330
458D6
100
AcDbEntity
  8
0
100
AcDbLine
 10
164.5665435280763
 20
-122.402952318001
 30
-52.3034049058431
 11
164.5665435280763
 21
-123.4395495050821
 31
-52.3034049058431
  0
LINE
  5
45F37
330
458D6
100
AcDbEntity
  8
0
100
AcDbLine
 10
164.5665435280763
 20
-123.4395495050821
 30
-52.3034049058431
 11
164.5665435280763
 21
-125.8582762749379
 31
-52.3034049058431
  0
LINE
  5
45F38
330
458D6
100
AcDbEntity
  8
0
100
AcDbLine
 10
164.5665435280763
 20
-125.8582762749379
 30
-52.3034049058431
 11
164.5665435280763
 21
-126.894873462019
 31
-52.3034049058431
  0
LINE
  5
45F39
330
458D6
100
AcDbEntity
  8
0
100
AcDbLine
 10
164.5665435280763
 20
-115.4725596958018
 30
-52.3034049058431
 11
164.5665435280763
 21
-116.5091568828829
 31
-52.3034049058431
  0
LINE
  5
45F3A
330
458D6
100
AcDbEntity
  8
0
100
AcDbLine
 10
164.5665435280763
 20
-106.8145050951341
 30
-52.3034049058431
 11
164.5665435280763
 21
-107.8609746363779
 31
-52.3034049058431
  0
LINE
  5
45F3B
330
458D6
100
AcDbEntity
  8
0
100
AcDbLine
 10
164.5665435280763
 20
-99.89398482709765
 30
-52.3034049058431
 11
164.5665435280763
 21
-100.585049618485
 31
-52.3034049058431
  0
LINE
  5
45F3C
330
458D6
100
AcDbEntity
  8
0
100
AcDbLine
 10
163.8754787366889
 20
-41.72607410060513
 30
-52.3034049058431
 11
163.1844139453015
 21
-41.72607410060513
 31
-52.3034049058431
  0
LINE
  5
45F3D
330
458D6
100
AcDbEntity
  8
0
100
AcDbLine
 10
163.1844139453015
 20
-41.72607410060513
 30
-52.3034049058431
 11
163.1844139453015
 21
-51.42072588835384
 31
-52.3034049058431
  0
LINE
  5
45F3E
330
458D6
100
AcDbEntity
  8
0
100
AcDbLine
 10
163.1844139453015
 20
-51.42072588835384
 30
-52.3034049058431
 11
163.8754787366889
 21
-51.42072588835384
 31
-52.3034049058431
  0
LINE
  5
45F3F
330
458D6
100
AcDbEntity
  8
0
100
AcDbLine
 10
163.1844139453015
 20
-90.54486543504262
 30
-52.3034049058431
 11
163.1844139453015
 21
-99.89398482709765
 31
-52.3034049058431
  0
LINE
  5
45F40
330
458D6
100
AcDbEntity
  8
0
100
AcDbLine
 10
163.1844139453015
 20
-99.89398482709765
 30
-52.3034049058431
 11
163.5299463409952
 21
-99.89398482709765
 31
-52.3034049058431
  0
LINE
  5
45F41
330
458D6
100
AcDbEntity
  8
0
100
AcDbLine
 10
163.8754787366889
 20
-99.89398482709765
 30
-52.3034049058431
 11
164.2210111323826
 21
-99.89398482709765
 31
-52.3034049058431
  0
LINE
  5
45F42
330
458D6
100
AcDbEntity
  8
0
100
AcDbLine
 10
195.7039485571594
 20
-156.3342335751217
 30
-52.3034049058431
 11
195.7039485571594
 21
-155.9788288252653
 31
-52.3034049058431
  0
LINE
  5
45F43
330
458D6
100
AcDbEntity
  8
0
100
AcDbLine
 10
197.7771429313215
 20
-157.7163631578964
 30
-52.3034049058431
 11
197.4316105356278
 21
-157.7163631578964
 31
-52.3034049058431
  0
LINE
  5
45F44
330
458D6
100
AcDbEntity
  8
0
100
AcDbLine
 10
197.0860781399342
 20
-33.75908429132483
 30
-52.3034049058431
 11
197.7771429313215
 21
-33.75908429132483
 31
-52.3034049058431
  0
LINE
  5
45F45
330
458D6
100
AcDbEntity
  8
0
100
AcDbLine
 10
196.3950133485468
 20
-57.99571376069671
 30
-52.3034049058431
 11
196.3950133485468
 21
-58.34124615639044
 31
-52.3034049058431
  0
LINE
  5
45F46
330
458D6
100
AcDbEntity
  8
0
100
AcDbLine
 10
197.4316105356278
 20
-157.7163631578964
 30
-52.3034049058431
 11
197.7771429313215
 21
-157.7163631578964
 31
-52.3034049058431
  0
LINE
  5
45F47
330
458D6
100
AcDbEntity
  8
0
100
AcDbLine
 10
197.7771429313215
 20
-157.7163631578964
 30
-52.3034049058431
 11
197.7771429313215
 21
-33.75908429132483
 31
-52.3034049058431
  0
LINE
  5
45F48
330
458D6
100
AcDbEntity
  8
0
100
AcDbLine
 10
197.7771429313215
 20
-33.75908429132483
 30
-52.3034049058431
 11
197.0860781399342
 21
-33.75908429132483
 31
-52.3034049058431
  0
LINE
  5
45F49
330
458D6
100
AcDbEntity
  8
0
100
AcDbLine
 10
197.4316105356278
 20
-41.72607410060513
 30
-52.3034049058431
 11
197.4316105356278
 21
-42.76267128768623
 31
-52.3034049058431
  0
LINE
  5
45F4A
330
458D6
100
AcDbEntity
  8
0
100
AcDbLine
 10
197.4316105356278
 20
-42.76267128768623
 30
-52.3034049058431
 11
197.4316105356278
 21
-43.79926847476724
 31
-52.3034049058431
  0
LINE
  5
45F4B
330
458D6
100
AcDbEntity
  8
0
100
AcDbLine
 10
197.4316105356278
 20
-43.79926847476724
 30
-52.3034049058431
 11
197.4316105356278
 21
-140.0547215608674
 31
-52.3034049058431
  0
LINE
  5
45F4C
330
458D6
100
AcDbEntity
  8
0
100
AcDbLine
 10
197.4316105356278
 20
-140.0547215608674
 30
-52.3034049058431
 11
197.4316105356278
 21
-143.8654502676607
 31
-52.3034049058431
  0
LINE
  5
45F4D
330
458D6
100
AcDbEntity
  8
0
100
AcDbLine
 10
197.4316105356278
 20
-143.8654502676607
 30
-52.3034049058431
 11
197.4316105356278
 21
-143.519917871967
 31
-52.3034049058431
  0
LINE
  5
45F4E
330
458D6
100
AcDbEntity
  8
0
100
AcDbLine
 10
197.4316105356278
 20
-143.519917871967
 30
-52.3034049058431
 11
197.4316105356278
 21
-142.8288530805796
 31
-52.3034049058431
  0
LINE
  5
45F4F
330
458D6
100
AcDbEntity
  8
0
100
AcDbLine
 10
197.4316105356278
 20
-142.8288530805796
 30
-52.3034049058431
 11
197.4316105356278
 21
-141.4368511436421
 31
-52.3034049058431
  0
LINE
  5
45F50
330
458D6
100
AcDbEntity
  8
0
100
AcDbLine
 10
197.4316105356278
 20
-141.4368511436421
 30
-52.3034049058431
 11
197.4316105356278
 21
-43.79926847476724
 31
-52.3034049058431
  0
LINE
  5
45F51
330
458D6
100
AcDbEntity
  8
0
100
AcDbLine
 10
197.4316105356278
 20
-43.79926847476724
 30
-52.3034049058431
 11
197.4316105356278
 21
-42.76267128768623
 31
-52.3034049058431
  0
LINE
  5
45F52
330
458D6
100
AcDbEntity
  8
0
100
AcDbLine
 10
197.4316105356278
 20
-42.76267128768623
 30
-52.3034049058431
 11
197.4316105356278
 21
-41.72607410060513
 31
-52.3034049058431
  0
LINE
  5
45F53
330
458D6
100
AcDbEntity
  8
0
100
AcDbLine
 10
197.4316105356278
 20
-41.72607410060513
 30
-52.3034049058431
 11
197.4316105356278
 21
-41.38054170491142
 31
-52.3034049058431
  0
LINE
  5
45F54
330
458D6
100
AcDbEntity
  8
0
100
AcDbLine
 10
163.1844139453015
 20
-41.03500930921774
 30
-52.3034049058431
 11
163.1844139453015
 21
-45.19127041170475
 31
-52.3034049058431
  0
LINE
  5
45F55
330
458D6
100
AcDbEntity
  8
0
100
AcDbLine
 10
163.1844139453015
 20
-45.19127041170475
 30
-52.3034049058431
 11
163.1844139453015
 21
-86.38860433255551
 31
-52.3034049058431
  0
LINE
  5
45F56
330
458D6
100
AcDbEntity
  8
0
100
AcDbLine
 10
163.1844139453015
 20
-86.38860433255551
 30
-52.3034049058431
 11
163.1844139453015
 21
-73.92969337925723
 31
-52.3034049058431
  0
LINE
  5
45F57
330
458D6
100
AcDbEntity
  8
0
100
AcDbLine
 10
163.1844139453015
 20
-73.92969337925723
 30
-52.3034049058431
 11
163.1844139453015
 21
-68.72696273552654
 31
-52.3034049058431
  0
LINE
  5
45F58
330
458D6
100
AcDbEntity
  8
0
100
AcDbLine
 10
163.1844139453015
 20
-68.72696273552654
 30
-52.3034049058431
 11
163.1844139453015
 21
-73.22875623370723
 31
-52.3034049058431
  0
LINE
  5
45F59
330
458D6
100
AcDbEntity
  8
0
100
AcDbLine
 10
163.1844139453015
 20
-73.22875623370723
 30
-52.3034049058431
 11
163.1844139453015
 21
-68.72696273552654
 31
-52.3034049058431
  0
LINE
  5
45F5A
330
458D6
100
AcDbEntity
  8
0
100
AcDbLine
 10
163.1844139453015
 20
-68.72696273552654
 30
-52.3034049058431
 11
163.1844139453015
 21
-62.49750725887742
 31
-52.3034049058431
  0
LINE
  5
45F5B
330
458D6
100
AcDbEntity
  8
0
100
AcDbLine
 10
163.1844139453015
 20
-62.49750725887742
 30
-52.3034049058431
 11
163.1844139453015
 21
-61.11537767610264
 31
-52.3034049058431
  0
LINE
  5
45F5C
330
458D6
100
AcDbEntity
  8
0
100
AcDbLine
 10
163.1844139453015
 20
-61.11537767610264
 30
-52.3034049058431
 11
163.1844139453015
 21
-60.07878048902151
 31
-52.3034049058431
  0
LINE
  5
45F5D
330
458D6
100
AcDbEntity
  8
0
100
AcDbLine
 10
163.1844139453015
 20
-60.07878048902151
 30
-52.3034049058431
 11
163.1844139453015
 21
-59.3877156976341
 31
-52.3034049058431
  0
LINE
  5
45F5E
330
458D6
100
AcDbEntity
  8
0
100
AcDbLine
 10
163.1844139453015
 20
-59.3877156976341
 30
-52.3034049058431
 11
163.1844139453015
 21
-33.75908429132483
 31
-52.3034049058431
  0
LINE
  5
45F5F
330
458D6
100
AcDbEntity
  8
0
100
AcDbLine
 10
163.1844139453015
 20
-33.75908429132483
 30
-52.3034049058431
 11
163.1844139453015
 21
-33.41355189563115
 31
-52.3034049058431
  0
LINE
  5
45F60
330
458D6
100
AcDbEntity
  8
0
100
AcDbLine
 10
163.1844139453015
 20
-33.41355189563115
 30
-52.3034049058431
 11
163.1844139453015
 21
-33.75908429132483
 31
-52.3034049058431
  0
LINE
  5
45F61
330
458D6
100
AcDbEntity
  8
0
100
AcDbLine
 10
163.1844139453015
 20
-33.75908429132483
 30
-52.3034049058431
 11
163.1844139453015
 21
-33.06801949993744
 31
-52.3034049058431
  0
LINE
  5
45F62
330
458D6
100
AcDbEntity
  8
0
100
AcDbLine
 10
163.1844139453015
 20
-33.06801949993744
 30
-52.3034049058431
 11
163.1844139453015
 21
-30.99482512577524
 31
-52.3034049058431
  0
LINE
  5
45F63
330
458D6
100
AcDbEntity
  8
0
100
AcDbLine
 10
163.1844139453015
 20
-30.99482512577524
 30
-52.3034049058431
 11
163.1844139453015
 21
-28.56622600175675
 31
-52.3034049058431
  0
LINE
  5
45F64
330
458D6
100
AcDbEntity
  8
0
100
AcDbLine
 10
163.1844139453015
 20
-28.56622600175675
 30
-52.3034049058431
 11
163.1844139453015
 21
-33.41355189563115
 31
-52.3034049058431
  0
LINE
  5
45F65
330
458D6
100
AcDbEntity
  8
0
100
AcDbLine
 10
163.1844139453015
 20
-33.41355189563115
 30
-52.3034049058431
 11
163.1844139453015
 21
-33.75908429132483
 31
-52.3034049058431
  0
LINE
  5
45F66
330
458D6
100
AcDbEntity
  8
0
100
AcDbLine
 10
163.1844139453015
 20
-33.75908429132483
 30
-52.3034049058431
 11
163.1844139453015
 21
-41.72607410060513
 31
-52.3034049058431
  0
LINE
  5
45F67
330
458D6
100
AcDbEntity
  8
0
100
AcDbLine
 10
163.1844139453015
 20
-41.72607410060513
 30
-52.3034049058431
 11
163.1844139453015
 21
-41.38054170491142
 31
-52.3034049058431
  0
LINE
  5
45F68
330
458D6
100
AcDbEntity
  8
0
100
AcDbLine
 10
163.1844139453015
 20
-41.38054170491142
 30
-52.3034049058431
 11
163.1844139453015
 21
-51.76625828404752
 31
-52.3034049058431
  0
LINE
  5
45F69
330
458D6
100
AcDbEntity
  8
0
100
AcDbLine
 10
163.1844139453015
 20
-51.76625828404752
 30
-52.3034049058431
 11
163.1844139453015
 21
-51.42072588835384
 31
-52.3034049058431
  0
LINE
  5
45F6A
330
458D6
100
AcDbEntity
  8
0
100
AcDbLine
 10
163.1844139453015
 20
-51.42072588835384
 30
-52.3034049058431
 11
163.1844139453015
 21
-86.38860433255551
 31
-52.3034049058431
  0
LINE
  5
45F6B
330
458D6
100
AcDbEntity
  8
0
100
AcDbLine
 10
163.1844139453015
 20
-86.38860433255551
 30
-52.3034049058431
 11
163.1844139453015
 21
-87.07966912394303
 31
-52.3034049058431
  0
LINE
  5
45F6C
330
458D6
100
AcDbEntity
  8
0
100
AcDbLine
 10
163.1844139453015
 20
-87.07966912394303
 30
-52.3034049058431
 11
163.1844139453015
 21
-86.38860433255551
 31
-52.3034049058431
  0
LINE
  5
45F6D
330
458D6
100
AcDbEntity
  8
0
100
AcDbLine
 10
163.1844139453015
 20
-86.38860433255551
 30
-52.3034049058431
 11
163.1844139453015
 21
-43.79926847476724
 31
-52.3034049058431
  0
LINE
  5
45F6E
330
458D6
100
AcDbEntity
  8
0
100
AcDbLine
 10
163.1844139453015
 20
-43.79926847476724
 30
-52.3034049058431
 11
163.1844139453015
 21
-42.41713889199242
 31
-52.3034049058431
  0
LINE
  5
45F6F
330
458D6
100
AcDbEntity
  8
0
100
AcDbLine
 10
163.1844139453015
 20
-42.41713889199242
 30
-52.3034049058431
 11
163.1844139453015
 21
-41.38054170491142
 31
-52.3034049058431
  0
LINE
  5
45F70
330
458D6
100
AcDbEntity
  8
0
100
AcDbLine
 10
163.1844139453015
 20
-41.38054170491142
 30
-52.3034049058431
 11
163.1844139453015
 21
-41.03500930921774
 31
-52.3034049058431
  0
LINE
  5
45F71
330
458D6
100
AcDbEntity
  8
0
100
AcDbLine
 10
163.1844139453015
 20
-41.03500930921774
 30
-52.3034049058431
 11
163.1844139453015
 21
-41.38054170491142
 31
-52.3034049058431
  0
LINE
  5
45F72
330
458D6
100
AcDbEntity
  8
0
100
AcDbLine
 10
163.1844139453015
 20
-41.38054170491142
 30
-52.3034049058431
 11
163.1844139453015
 21
-42.41713889199242
 31
-52.3034049058431
  0
LINE
  5
45F73
330
458D6
100
AcDbEntity
  8
0
100
AcDbLine
 10
163.1844139453015
 20
-42.41713889199242
 30
-52.3034049058431
 11
163.1844139453015
 21
-43.79926847476724
 31
-52.3034049058431
  0
LINE
  5
45F74
330
458D6
100
AcDbEntity
  8
0
100
AcDbLine
 10
163.1844139453015
 20
-43.79926847476724
 30
-52.3034049058431
 11
163.1844139453015
 21
-86.38860433255551
 31
-52.3034049058431
  0
LINE
  5
45F75
330
458D6
100
AcDbEntity
  8
0
100
AcDbLine
 10
163.1844139453015
 20
-86.38860433255551
 30
-52.3034049058431
 11
163.1844139453015
 21
-45.19127041170475
 31
-52.3034049058431
  0
LINE
  5
45F76
330
458D6
100
AcDbEntity
  8
0
100
AcDbLine
 10
163.1844139453015
 20
-45.19127041170475
 30
-52.3034049058431
 11
163.1844139453015
 21
-41.03500930921774
 31
-52.3034049058431
  0
LINE
  5
45F77
330
458D6
100
AcDbEntity
  8
0
100
AcDbLine
 10
163.1844139453015
 20
-123.4395495050821
 30
-52.3034049058431
 11
163.1844139453015
 21
-125.8582762749379
 31
-52.3034049058431
  0
LINE
  5
45F78
330
458D6
100
AcDbEntity
  8
0
100
AcDbLine
 10
163.1844139453015
 20
-158.4074279492838
 30
-52.3034049058431
 11
163.1844139453015
 21
-158.7529603449775
 31
-52.3034049058431
  0
LINE
  5
45F79
330
458D6
100
AcDbEntity
  8
0
100
AcDbLine
 10
163.1844139453015
 20
-158.7529603449775
 30
-52.3034049058431
 11
163.1844139453015
 21
-158.4074279492838
 31
-52.3034049058431
  0
LINE
  5
45F7A
330
458D6
100
AcDbEntity
  8
0
100
AcDbLine
 10
163.1844139453015
 20
-100.585049618485
 30
-52.3034049058431
 11
163.1844139453015
 21
-99.89398482709765
 31
-52.3034049058431
  0
LINE
  5
45F7B
330
458D6
100
AcDbEntity
  8
0
100
AcDbLine
 10
163.1844139453015
 20
-99.89398482709765
 30
-52.3034049058431
 11
163.1844139453015
 21
-100.2395172227912
 31
-52.3034049058431
  0
LINE
  5
45F7C
330
458D6
100
AcDbEntity
  8
0
100
AcDbLine
 10
163.1844139453015
 20
-100.2395172227912
 30
-52.3034049058431
 11
163.1844139453015
 21
-90.54486543504262
 31
-52.3034049058431
  0
LINE
  5
45F7D
330
458D6
100
AcDbEntity
  8
0
100
AcDbLine
 10
163.1844139453015
 20
-116.5091568828829
 30
-52.3034049058431
 11
163.1844139453015
 21
-106.8145050951341
 31
-52.3034049058431
  0
LINE
  5
45F7E
330
458D6
100
AcDbEntity
  8
0
100
AcDbLine
 10
163.1844139453015
 20
-106.8145050951341
 30
-52.3034049058431
 11
163.1844139453015
 21
-116.5091568828829
 31
-52.3034049058431
  0
LINE
  5
45F7F
330
458D6
100
AcDbEntity
  8
0
100
AcDbLine
 10
163.1844139453015
 20
-123.4395495050821
 30
-52.3034049058431
 11
163.1844139453015
 21
-122.402952318001
 31
-52.3034049058431
  0
LINE
  5
45F80
330
458D6
100
AcDbEntity
  8
0
100
AcDbLine
 10
163.1844139453015
 20
-122.402952318001
 30
-52.3034049058431
 11
163.1844139453015
 21
-123.4395495050821
 31
-52.3034049058431
  0
LINE
  5
45F81
330
458D6
100
AcDbEntity
  8
0
100
AcDbLine
 10
163.1844139453015
 20
-125.8582762749379
 30
-52.3034049058431
 11
163.1844139453015
 21
-123.4395495050821
 31
-52.3034049058431
  0
LINE
  5
45F82
330
458D6
100
AcDbEntity
  8
0
100
AcDbLine
 10
163.1844139453015
 20
-126.894873462019
 30
-52.3034049058431
 11
163.1844139453015
 21
-125.8582762749379
 31
-52.3034049058431
  0
LINE
  5
45F83
330
458D6
100
AcDbEntity
  8
0
100
AcDbLine
 10
163.1844139453015
 20
-125.8582762749379
 30
-52.3034049058431
 11
163.1844139453015
 21
-126.894873462019
 31
-52.3034049058431
  0
LINE
  5
45F84
330
458D6
100
AcDbEntity
  8
0
100
AcDbLine
 10
163.1844139453015
 20
-125.8582762749379
 30
-52.3034049058431
 11
163.1844139453015
 21
-126.894873462019
 31
-52.3034049058431
  0
LINE
  5
45F85
330
458D6
100
AcDbEntity
  8
0
100
AcDbLine
 10
163.1844139453015
 20
-126.894873462019
 30
-52.3034049058431
 11
163.1844139453015
 21
-125.8582762749379
 31
-52.3034049058431
  0
LINE
  5
45F86
330
458D6
100
AcDbEntity
  8
0
100
AcDbLine
 10
163.1844139453015
 20
-123.4395495050821
 30
-52.3034049058431
 11
163.1844139453015
 21
-125.8582762749379
 31
-52.3034049058431
  0
LINE
  5
45F87
330
458D6
100
AcDbEntity
  8
0
100
AcDbLine
 10
163.1844139453015
 20
-122.402952318001
 30
-52.3034049058431
 11
163.1844139453015
 21
-123.4395495050821
 31
-52.3034049058431
  0
LINE
  5
45F88
330
458D6
100
AcDbEntity
  8
0
100
AcDbLine
 10
163.1844139453015
 20
-123.4395495050821
 30
-52.3034049058431
 11
163.1844139453015
 21
-122.402952318001
 31
-52.3034049058431
  0
LINE
  5
45F89
330
458D6
100
AcDbEntity
  8
0
100
AcDbLine
 10
163.1844139453015
 20
-106.8145050951341
 30
-52.3034049058431
 11
163.1844139453015
 21
-116.5091568828829
 31
-52.3034049058431
  0
LINE
  5
45F8A
330
458D6
100
AcDbEntity
  8
0
100
AcDbLine
 10
163.1844139453015
 20
-116.5091568828829
 30
-52.3034049058431
 11
163.1844139453015
 21
-106.8145050951341
 31
-52.3034049058431
  0
LINE
  5
45F8B
330
458D6
100
AcDbEntity
  8
0
100
AcDbLine
 10
163.1844139453015
 20
-100.585049618485
 30
-52.3034049058431
 11
163.1844139453015
 21
-90.54486543504262
 31
-52.3034049058431
  0
LINE
  5
45F8C
330
458D6
100
AcDbEntity
  8
0
100
AcDbLine
 10
163.1844139453015
 20
-90.54486543504262
 30
-52.3034049058431
 11
163.1844139453015
 21
-100.585049618485
 31
-52.3034049058431
  0
LINE
  5
45F8D
330
458D6
100
AcDbEntity
  8
0
100
AcDbLine
 10
163.1844139453015
 20
-87.07966912394303
 30
-52.3034049058431
 11
163.1844139453015
 21
-86.38860433255551
 31
-52.3034049058431
  0
LINE
  5
45F8E
330
458D6
100
AcDbEntity
  8
0
100
AcDbLine
 10
163.1844139453015
 20
-86.38860433255551
 30
-52.3034049058431
 11
163.1844139453015
 21
-87.07966912394303
 31
-52.3034049058431
  0
LINE
  5
45F8F
330
458D6
100
AcDbEntity
  8
0
100
AcDbLine
 10
163.1844139453015
 20
-100.585049618485
 30
-52.3034049058431
 11
163.1844139453015
 21
-90.54486543504262
 31
-52.3034049058431
  0
LINE
  5
45F90
330
458D6
100
AcDbEntity
  8
0
100
AcDbLine
 10
163.1844139453015
 20
-125.8582762749379
 30
-52.3034049058431
 11
163.1844139453015
 21
-123.4395495050821
 31
-52.3034049058431
  0
LINE
  5
45F91
330
458D6
100
AcDbEntity
  8
0
100
AcDbLine
 10
163.1844139453015
 20
-125.8582762749379
 30
-52.3034049058431
 11
163.1844139453015
 21
-126.894873462019
 31
-52.3034049058431
  0
LINE
  5
45F92
330
458D6
100
AcDbEntity
  8
0
100
AcDbLine
 10
163.1844139453015
 20
-126.894873462019
 30
-52.3034049058431
 11
163.1844139453015
 21
-125.8582762749379
 31
-52.3034049058431
  0
LINE
  5
45F93
330
458D6
100
AcDbEntity
  8
0
100
AcDbLine
 10
163.1844139453015
 20
-123.4395495050821
 30
-52.3034049058431
 11
163.1844139453015
 21
-125.8582762749379
 31
-52.3034049058431
  0
LINE
  5
45F94
330
458D6
100
AcDbEntity
  8
0
100
AcDbLine
 10
163.1844139453015
 20
-122.402952318001
 30
-52.3034049058431
 11
163.1844139453015
 21
-123.4395495050821
 31
-52.3034049058431
  0
LINE
  5
45F95
330
458D6
100
AcDbEntity
  8
0
100
AcDbLine
 10
163.1844139453015
 20
-123.4395495050821
 30
-52.3034049058431
 11
163.1844139453015
 21
-122.402952318001
 31
-52.3034049058431
  0
LINE
  5
45F96
330
458D6
100
AcDbEntity
  8
0
100
AcDbLine
 10
163.1844139453015
 20
-106.8145050951341
 30
-52.3034049058431
 11
163.1844139453015
 21
-116.5091568828829
 31
-52.3034049058431
  0
LINE
  5
45F97
330
458D6
100
AcDbEntity
  8
0
100
AcDbLine
 10
163.1844139453015
 20
-116.5091568828829
 30
-52.3034049058431
 11
163.1844139453015
 21
-106.8145050951341
 31
-52.3034049058431
  0
LINE
  5
45F98
330
458D6
100
AcDbEntity
  8
0
100
AcDbLine
 10
163.1844139453015
 20
-90.54486543504262
 30
-52.3034049058431
 11
163.1844139453015
 21
-100.585049618485
 31
-52.3034049058431
  0
LINE
  5
45F99
330
458D6
100
AcDbEntity
  8
0
100
AcDbLine
 10
163.1844139453015
 20
-100.585049618485
 30
-52.3034049058431
 11
163.1844139453015
 21
-90.54486543504262
 31
-52.3034049058431
  0
LINE
  5
45F9A
330
458D6
100
AcDbEntity
  8
0
100
AcDbLine
 10
163.1844139453015
 20
-86.38860433255551
 30
-52.3034049058431
 11
163.1844139453015
 21
-87.07966912394303
 31
-52.3034049058431
  0
LINE
  5
45F9B
330
458D6
100
AcDbEntity
  8
0
100
AcDbLine
 10
163.1844139453015
 20
-87.07966912394303
 30
-52.3034049058431
 11
163.1844139453015
 21
-86.38860433255551
 31
-52.3034049058431
  0
LINE
  5
45F9C
330
458D6
100
AcDbEntity
  8
0
100
AcDbLine
 10
163.1844139453015
 20
-125.8582762749379
 30
-52.3034049058431
 11
163.1844139453015
 21
-123.4395495050821
 31
-52.3034049058431
  0
LINE
  5
45F9D
330
458D6
100
AcDbEntity
  8
0
100
AcDbLine
 10
163.1844139453015
 20
-35.49661862395594
 30
-52.3034049058431
 11
163.1844139453015
 21
-35.84215101964972
 31
-52.3034049058431
  0
LINE
  5
45F9E
330
458D6
100
AcDbEntity
  8
0
100
AcDbLine
 10
163.1844139453015
 20
-35.84215101964972
 30
-52.3034049058431
 11
163.1844139453015
 21
-36.18768341534334
 31
-52.3034049058431
  0
LINE
  5
45F9F
330
458D6
100
AcDbEntity
  8
0
100
AcDbLine
 10
163.1844139453015
 20
-36.18768341534334
 30
-52.3034049058431
 11
163.1844139453015
 21
-37.91534539381185
 31
-52.3034049058431
  0
LINE
  5
45FA0
330
458D6
100
AcDbEntity
  8
0
100
AcDbLine
 10
163.1844139453015
 20
-37.91534539381185
 30
-52.3034049058431
 11
163.1844139453015
 21
-39.99841212213664
 31
-52.3034049058431
  0
LINE
  5
45FA1
330
458D6
100
AcDbEntity
  8
0
100
AcDbLine
 10
163.1844139453015
 20
-39.99841212213664
 30
-52.3034049058431
 11
163.1844139453015
 21
-42.07160649629881
 31
-52.3034049058431
  0
LINE
  5
45FA2
330
458D6
100
AcDbEntity
  8
0
100
AcDbLine
 10
163.1844139453015
 20
-42.07160649629881
 30
-52.3034049058431
 11
163.1844139453015
 21
-43.45373607907349
 31
-52.3034049058431
  0
LINE
  5
45FA3
330
458D6
100
AcDbEntity
  8
0
100
AcDbLine
 10
163.1844139453015
 20
-43.45373607907349
 30
-52.3034049058431
 11
163.1844139453015
 21
-35.15108622826222
 31
-52.3034049058431
  0
LINE
  5
45FA4
330
458D6
100
AcDbEntity
  8
0
100
AcDbLine
 10
163.1844139453015
 20
-35.15108622826222
 30
-52.3034049058431
 11
163.1844139453015
 21
-38.26087778950551
 31
-52.3034049058431
  0
LINE
  5
45FA5
330
458D6
100
AcDbEntity
  8
0
100
AcDbLine
 10
163.1844139453015
 20
-38.26087778950551
 30
-52.3034049058431
 11
163.1844139453015
 21
-41.72607410060513
 31
-52.3034049058431
  0
LINE
  5
45FA6
330
458D6
100
AcDbEntity
  8
0
100
AcDbLine
 10
163.1844139453015
 20
-41.72607410060513
 30
-52.3034049058431
 11
163.1844139453015
 21
-44.49033326615463
 31
-52.3034049058431
  0
LINE
  5
45FA7
330
458D6
100
AcDbEntity
  8
0
100
AcDbLine
 10
163.1844139453015
 20
-44.49033326615463
 30
-52.3034049058431
 11
163.1844139453015
 21
-35.15108622826222
 31
-52.3034049058431
  0
LINE
  5
45FA8
330
458D6
100
AcDbEntity
  8
0
100
AcDbLine
 10
163.8754787366889
 20
-33.75908429132483
 30
-52.3034049058431
 11
163.1844139453015
 21
-33.75908429132483
 31
-52.3034049058431
  0
LINE
  5
45FA9
330
458D6
100
AcDbEntity
  8
0
100
AcDbLine
 10
163.1844139453015
 20
-33.75908429132483
 30
-52.3034049058431
 11
163.1844139453015
 21
-41.72607410060513
 31
-52.3034049058431
  0
LINE
  5
45FAA
330
458D6
100
AcDbEntity
  8
0
100
AcDbLine
 10
163.1844139453015
 20
-122.402952318001
 30
-52.3034049058431
 11
163.1844139453015
 21
-123.4395495050821
 31
-52.3034049058431
  0
LINE
  5
45FAB
330
458D6
100
AcDbEntity
  8
0
100
AcDbLine
 10
163.1844139453015
 20
-123.4395495050821
 30
-52.3034049058431
 11
163.1844139453015
 21
-125.8582762749379
 31
-52.3034049058431
  0
LINE
  5
45FAC
330
458D6
100
AcDbEntity
  8
0
100
AcDbLine
 10
163.1844139453015
 20
-125.8582762749379
 30
-52.3034049058431
 11
163.1844139453015
 21
-126.894873462019
 31
-52.3034049058431
  0
LINE
  5
45FAD
330
458D6
100
AcDbEntity
  8
0
100
AcDbLine
 10
163.1844139453015
 20
-106.8145050951341
 30
-52.3034049058431
 11
163.1844139453015
 21
-116.5091568828829
 31
-52.3034049058431
  0
LINE
  5
45FAE
330
458D6
100
AcDbEntity
  8
0
100
AcDbLine
 10
163.1844139453015
 20
-99.89398482709765
 30
-52.3034049058431
 11
163.1844139453015
 21
-100.585049618485
 31
-52.3034049058431
  0
LINE
  5
45FAF
330
458D6
100
AcDbEntity
  8
0
100
AcDbLine
 10
163.1844139453015
 20
-51.42072588835384
 30
-52.3034049058431
 11
163.1844139453015
 21
-86.38860433255551
 31
-52.3034049058431
  0
LINE
  5
45FB0
330
458D6
100
AcDbEntity
  8
0
100
AcDbLine
 10
163.1844139453015
 20
-86.38860433255551
 30
-52.3034049058431
 11
163.1844139453015
 21
-87.07966912394303
 31
-52.3034049058431
  0
LINE
  5
45FB1
330
458D6
100
AcDbEntity
  8
0
100
AcDbLine
 10
163.1844139453015
 20
-33.75908429132483
 30
-52.3034049058431
 11
163.8754787366889
 21
-33.75908429132483
 31
-52.3034049058431
  0
LINE
  5
45FB2
330
458D6
100
AcDbEntity
  8
0
100
AcDbLine
 10
196.049480952853
 20
-85.00647474978086
 30
-52.3034049058431
 11
196.049480952853
 21
-60.07878048902151
 31
-52.3034049058431
  0
LINE
  5
45FB3
330
458D6
100
AcDbEntity
  8
0
100
AcDbLine
 10
196.049480952853
 20
-60.07878048902151
 30
-52.3034049058431
 11
193.6208818288345
 21
-60.07878048902151
 31
-52.3034049058431
  0
LINE
  5
45FB4
330
458D6
100
AcDbEntity
  8
0
100
AcDbLine
 10
193.6208818288345
 20
-60.07878048902151
 30
-52.3034049058431
 11
193.6208818288345
 21
-67.69036554844543
 31
-52.3034049058431
  0
LINE
  5
45FB5
330
458D6
100
AcDbEntity
  8
0
100
AcDbLine
 10
193.6208818288345
 20
-67.69036554844543
 30
-52.3034049058431
 11
187.401298706348
 21
-67.69036554844543
 31
-52.3034049058431
  0
LINE
  5
45FB6
330
458D6
100
AcDbEntity
  8
0
100
AcDbLine
 10
187.401298706348
 20
-67.69036554844543
 30
-52.3034049058431
 11
188.7834282891228
 21
-70.8100294638513
 31
-52.3034049058431
  0
LINE
  5
45FB7
330
458D6
100
AcDbEntity
  8
0
100
AcDbLine
 10
188.7834282891228
 20
-70.8100294638513
 30
-52.3034049058431
 11
188.4378958934291
 21
-74.27522577495103
 31
-52.3034049058431
  0
LINE
  5
45FB8
330
458D6
100
AcDbEntity
  8
0
100
AcDbLine
 10
188.4378958934291
 20
-74.27522577495103
 30
-52.3034049058431
 11
186.7102339149606
 21
-77.38501733619424
 31
-52.3034049058431
  0
LINE
  5
45FB9
330
458D6
100
AcDbEntity
  8
0
100
AcDbLine
 10
186.7102339149606
 20
-77.38501733619424
 30
-52.3034049058431
 11
183.5905699995548
 21
-78.77701927313163
 31
-52.3034049058431
  0
LINE
  5
45FBA
330
458D6
100
AcDbEntity
  8
0
100
AcDbLine
 10
183.5905699995548
 20
-78.77701927313163
 30
-52.3034049058431
 11
180.1352460426178
 21
-79.12255166882534
 31
-52.3034049058431
  0
LINE
  5
45FBB
330
458D6
100
AcDbEntity
  8
0
100
AcDbLine
 10
180.1352460426178
 20
-79.12255166882534
 30
-52.3034049058431
 11
177.0254544813746
 21
-77.38501733619424
 31
-52.3034049058431
  0
LINE
  5
45FBC
330
458D6
100
AcDbEntity
  8
0
100
AcDbLine
 10
177.0254544813746
 20
-77.38501733619424
 30
-52.3034049058431
 11
175.2879201487435
 21
-74.27522577495103
 31
-52.3034049058431
  0
LINE
  5
45FBD
330
458D6
100
AcDbEntity
  8
0
100
AcDbLine
 10
175.2879201487435
 20
-74.27522577495103
 30
-52.3034049058431
 11
174.9423877530497
 21
-71.15556185954503
 31
-52.3034049058431
  0
LINE
  5
45FBE
330
458D6
100
AcDbEntity
  8
0
100
AcDbLine
 10
174.9423877530497
 20
-71.15556185954503
 30
-52.3034049058431
 11
176.3245173358245
 21
-67.69036554844543
 31
-52.3034049058431
  0
LINE
  5
45FBF
330
458D6
100
AcDbEntity
  8
0
100
AcDbLine
 10
176.3245173358245
 20
-67.69036554844543
 30
-52.3034049058431
 11
171.1415314004191
 21
-67.69036554844543
 31
-52.3034049058431
  0
LINE
  5
45FC0
330
458D6
100
AcDbEntity
  8
0
100
AcDbLine
 10
171.1415314004191
 20
-67.69036554844543
 30
-52.3034049058431
 11
171.1415314004191
 21
-60.07878048902151
 31
-52.3034049058431
  0
LINE
  5
45FC1
330
458D6
100
AcDbEntity
  8
0
100
AcDbLine
 10
171.1415314004191
 20
-60.07878048902151
 30
-52.3034049058431
 11
165.2576083194636
 21
-60.07878048902151
 31
-52.3034049058431
  0
LINE
  5
45FC2
330
458D6
100
AcDbEntity
  8
0
100
AcDbLine
 10
165.2576083194636
 20
-85.35200714547455
 30
-52.3034049058431
 11
165.9486731108511
 21
-85.35200714547455
 31
-52.3034049058431
  0
LINE
  5
45FC3
330
458D6
100
AcDbEntity
  8
0
100
AcDbLine
 10
171.8325961918065
 20
-67.34483315275172
 30
-52.3034049058431
 11
176.6700497315181
 21
-67.34483315275172
 31
-52.3034049058431
  0
LINE
  5
45FC4
330
458D6
100
AcDbEntity
  8
0
100
AcDbLine
 10
176.6700497315181
 20
-67.34483315275172
 30
-52.3034049058431
 11
178.4075840641494
 21
-66.30823596567072
 31
-52.3034049058431
  0
LINE
  5
45FC5
330
458D6
100
AcDbEntity
  8
0
100
AcDbLine
 10
178.4075840641494
 20
-66.30823596567072
 30
-52.3034049058431
 11
180.1352460426178
 21
-65.61717117428333
 31
-52.3034049058431
  0
LINE
  5
45FC6
330
458D6
100
AcDbEntity
  8
0
100
AcDbLine
 10
180.1352460426178
 20
-65.61717117428333
 30
-52.3034049058431
 11
181.862908021086
 21
-65.27163877858962
 31
-52.3034049058431
  0
LINE
  5
45FC7
330
458D6
100
AcDbEntity
  8
0
100
AcDbLine
 10
181.862908021086
 20
-65.27163877858962
 30
-52.3034049058431
 11
181.862908021086
 21
-60.07878048902151
 31
-52.3034049058431
  0
LINE
  5
45FC8
330
458D6
100
AcDbEntity
  8
0
100
AcDbLine
 10
181.862908021086
 20
-60.07878048902151
 30
-52.3034049058431
 11
171.8325961918065
 21
-60.07878048902151
 31
-52.3034049058431
  0
LINE
  5
45FC9
330
458D6
100
AcDbEntity
  8
0
100
AcDbLine
 10
171.8325961918065
 20
-60.07878048902151
 30
-52.3034049058431
 11
171.8325961918065
 21
-67.34483315275172
 31
-52.3034049058431
  0
LINE
  5
45FCA
330
458D6
100
AcDbEntity
  8
0
100
AcDbLine
 10
182.5539728124737
 20
-65.27163877858962
 30
-52.3034049058431
 11
184.281634790942
 21
-65.61717117428333
 31
-52.3034049058431
  0
LINE
  5
45FCB
330
458D6
100
AcDbEntity
  8
0
100
AcDbLine
 10
184.281634790942
 20
-65.61717117428333
 30
-52.3034049058431
 11
185.6637643737169
 21
-66.30823596567072
 31
-52.3034049058431
  0
LINE
  5
45FCC
330
458D6
100
AcDbEntity
  8
0
100
AcDbLine
 10
185.6637643737169
 20
-66.30823596567072
 30
-52.3034049058431
 11
186.7102339149606
 21
-67.34483315275172
 31
-52.3034049058431
  0
LINE
  5
45FCD
330
458D6
100
AcDbEntity
  8
0
100
AcDbLine
 10
186.7102339149606
 20
-67.34483315275172
 30
-52.3034049058431
 11
192.9298170374471
 21
-67.34483315275172
 31
-52.3034049058431
  0
LINE
  5
45FCE
330
458D6
100
AcDbEntity
  8
0
100
AcDbLine
 10
192.9298170374471
 20
-67.34483315275172
 30
-52.3034049058431
 11
192.9298170374471
 21
-60.07878048902151
 31
-52.3034049058431
  0
LINE
  5
45FCF
330
458D6
100
AcDbEntity
  8
0
100
AcDbLine
 10
192.9298170374471
 20
-60.07878048902151
 30
-52.3034049058431
 11
182.5539728124737
 21
-60.07878048902151
 31
-52.3034049058431
  0
LINE
  5
45FD0
330
458D6
100
AcDbEntity
  8
0
100
AcDbLine
 10
182.5539728124737
 20
-60.07878048902151
 30
-52.3034049058431
 11
182.5539728124737
 21
-65.27163877858962
 31
-52.3034049058431
  0
LINE
  5
45FD1
330
458D6
100
AcDbEntity
  8
0
100
AcDbLine
 10
163.5299463409952
 20
-58.34124615639044
 30
-52.3034049058431
 11
163.5299463409952
 21
-85.35200714547455
 31
-52.3034049058431
  0
LINE
  5
45FD2
330
458D6
100
AcDbEntity
  8
0
100
AcDbLine
 10
163.5299463409952
 20
-85.35200714547455
 30
-52.3034049058431
 11
165.2576083194636
 21
-85.35200714547455
 31
-52.3034049058431
  0
LINE
  5
45FD3
330
458D6
100
AcDbEntity
  8
0
100
AcDbLine
 10
165.2576083194636
 20
-85.35200714547455
 30
-52.3034049058431
 11
165.2576083194636
 21
-60.07878048902151
 31
-52.3034049058431
  0
LINE
  5
45FD4
330
458D6
100
AcDbEntity
  8
0
100
AcDbLine
 10
165.2576083194636
 20
-60.07878048902151
 30
-52.3034049058431
 11
164.5665435280763
 21
-59.3877156976341
 31
-52.3034049058431
  0
LINE
  5
45FD5
330
458D6
100
AcDbEntity
  8
0
100
AcDbLine
 10
164.5665435280763
 20
-59.3877156976341
 30
-52.3034049058431
 11
164.5665435280763
 21
-58.34124615639044
 31
-52.3034049058431
  0
LINE
  5
45FD6
330
458D6
100
AcDbEntity
  8
0
100
AcDbLine
 10
164.5665435280763
 20
-58.34124615639044
 30
-52.3034049058431
 11
163.5299463409952
 21
-58.34124615639044
 31
-52.3034049058431
  0
LINE
  5
45FD7
330
458D6
100
AcDbEntity
  8
0
100
AcDbLine
 10
197.4316105356278
 20
-85.00647474978086
 30
-52.3034049058431
 11
197.4316105356278
 21
-58.34124615639044
 31
-52.3034049058431
  0
LINE
  5
45FD8
330
458D6
100
AcDbEntity
  8
0
100
AcDbLine
 10
197.4316105356278
 20
-58.34124615639044
 30
-52.3034049058431
 11
196.3950133485468
 21
-58.34124615639044
 31
-52.3034049058431
  0
LINE
  5
45FD9
330
458D6
100
AcDbEntity
  8
0
100
AcDbLine
 10
196.3950133485468
 20
-58.34124615639044
 30
-52.3034049058431
 11
196.3950133485468
 21
-59.3877156976341
 31
-52.3034049058431
  0
LINE
  5
45FDA
330
458D6
100
AcDbEntity
  8
0
100
AcDbLine
 10
196.3950133485468
 20
-59.3877156976341
 30
-52.3034049058431
 11
196.049480952853
 21
-60.07878048902151
 31
-52.3034049058431
  0
LINE
  5
45FDB
330
458D6
100
AcDbEntity
  8
0
100
AcDbLine
 10
165.9486731108511
 20
-164.2913510302393
 30
-52.3034049058431
 11
191.5476874546725
 21
-164.2913510302393
 31
-52.3034049058431
  0
LINE
  5
45FDC
330
458D6
100
AcDbEntity
  8
0
100
AcDbLine
 10
191.5476874546725
 20
-164.2913510302393
 30
-52.3034049058431
 11
196.049480952853
 21
-164.2913510302393
 31
-52.3034049058431
  0
LINE
  5
45FDD
330
458D6
100
AcDbEntity
  8
0
100
AcDbLine
 10
196.049480952853
 20
-164.2913510302393
 30
-52.3034049058431
 11
196.049480952853
 21
-156.3342335751217
 31
-52.3034049058431
  0
LINE
  5
45FDE
330
458D6
100
AcDbEntity
  8
0
100
AcDbLine
 10
196.049480952853
 20
-156.3342335751217
 30
-52.3034049058431
 11
165.9486731108511
 21
-156.3342335751217
 31
-52.3034049058431
  0
LINE
  5
45FDF
330
458D6
100
AcDbEntity
  8
0
100
AcDbLine
 10
165.9486731108511
 20
-156.3342335751217
 30
-52.3034049058431
 11
165.9486731108511
 21
-164.2913510302393
 31
-52.3034049058431
  0
LINE
  5
45FE0
330
458D6
100
AcDbEntity
  8
0
100
AcDbLine
 10
165.9486731108511
 20
-155.9788288252653
 30
-52.3034049058431
 11
196.049480952853
 21
-155.9788288252653
 31
-52.3034049058431
  0
LINE
  5
45FE1
330
458D6
100
AcDbEntity
  8
0
100
AcDbLine
 10
196.049480952853
 20
-155.9788288252653
 30
-52.3034049058431
 11
196.049480952853
 21
-148.3672437658414
 31
-52.3034049058431
  0
LINE
  5
45FE2
330
458D6
100
AcDbEntity
  8
0
100
AcDbLine
 10
196.049480952853
 20
-148.3672437658414
 30
-52.3034049058431
 11
165.9486731108511
 21
-148.3672437658414
 31
-52.3034049058431
  0
LINE
  5
45FE3
330
458D6
100
AcDbEntity
  8
0
100
AcDbLine
 10
165.9486731108511
 20
-148.3672437658414
 30
-52.3034049058431
 11
165.9486731108511
 21
-155.9788288252653
 31
-52.3034049058431
  0
LINE
  5
45FE4
330
458D6
100
AcDbEntity
  8
0
100
AcDbLine
 10
165.9486731108511
 20
-148.0217113701477
 30
-52.3034049058431
 11
196.049480952853
 21
-148.0217113701477
 31
-52.3034049058431
  0
LINE
  5
45FE5
330
458D6
100
AcDbEntity
  8
0
100
AcDbLine
 10
196.049480952853
 20
-148.0217113701477
 30
-52.3034049058431
 11
196.049480952853
 21
-140.4002539565611
 31
-52.3034049058431
  0
LINE
  5
45FE6
330
458D6
100
AcDbEntity
  8
0
100
AcDbLine
 10
196.049480952853
 20
-140.4002539565611
 30
-52.3034049058431
 11
165.9486731108511
 21
-140.4002539565611
 31
-52.3034049058431
  0
LINE
  5
45FE7
330
458D6
100
AcDbEntity
  8
0
100
AcDbLine
 10
165.9486731108511
 20
-140.4002539565611
 30
-52.3034049058431
 11
165.9486731108511
 21
-148.0217113701477
 31
-52.3034049058431
  0
LINE
  5
45FE8
330
458D6
100
AcDbEntity
  8
0
100
AcDbLine
 10
165.9486731108511
 20
-124.1306142964695
 30
-52.3034049058431
 11
196.049480952853
 21
-124.1306142964695
 31
-52.3034049058431
  0
LINE
  5
45FE9
330
458D6
100
AcDbEntity
  8
0
100
AcDbLine
 10
196.049480952853
 20
-124.1306142964695
 30
-52.3034049058431
 11
196.049480952853
 21
-116.5091568828829
 31
-52.3034049058431
  0
LINE
  5
45FEA
330
458D6
100
AcDbEntity
  8
0
100
AcDbLine
 10
196.049480952853
 20
-116.5091568828829
 30
-52.3034049058431
 11
165.9486731108511
 21
-116.5091568828829
 31
-52.3034049058431
  0
LINE
  5
45FEB
330
458D6
100
AcDbEntity
  8
0
100
AcDbLine
 10
165.9486731108511
 20
-116.5091568828829
 30
-52.3034049058431
 11
165.9486731108511
 21
-124.1306142964695
 31
-52.3034049058431
  0
LINE
  5
45FEC
330
458D6
100
AcDbEntity
  8
0
100
AcDbLine
 10
165.9486731108511
 20
-115.8180920914955
 30
-52.3034049058431
 11
196.049480952853
 21
-115.8180920914955
 31
-52.3034049058431
  0
LINE
  5
45FED
330
458D6
100
AcDbEntity
  8
0
100
AcDbLine
 10
196.049480952853
 20
-115.8180920914955
 30
-52.3034049058431
 11
196.049480952853
 21
-108.2065070320716
 31
-52.3034049058431
  0
LINE
  5
45FEE
330
458D6
100
AcDbEntity
  8
0
100
AcDbLine
 10
196.049480952853
 20
-108.2065070320716
 30
-52.3034049058431
 11
165.9486731108511
 21
-108.2065070320716
 31
-52.3034049058431
  0
LINE
  5
45FEF
330
458D6
100
AcDbEntity
  8
0
100
AcDbLine
 10
165.9486731108511
 20
-108.2065070320716
 30
-52.3034049058431
 11
165.9486731108511
 21
-115.8180920914955
 31
-52.3034049058431
  0
LINE
  5
45FF0
330
458D6
100
AcDbEntity
  8
0
100
AcDbLine
 10
165.9486731108511
 20
-107.8609746363779
 30
-52.3034049058431
 11
196.049480952853
 21
-107.8609746363779
 31
-52.3034049058431
  0
LINE
  5
45FF1
330
458D6
100
AcDbEntity
  8
0
100
AcDbLine
 10
196.049480952853
 20
-107.8609746363779
 30
-52.3034049058431
 11
196.049480952853
 21
-100.2395172227912
 31
-52.3034049058431
  0
LINE
  5
45FF2
330
458D6
100
AcDbEntity
  8
0
100
AcDbLine
 10
196.049480952853
 20
-100.2395172227912
 30
-52.3034049058431
 11
165.9486731108511
 21
-100.2395172227912
 31
-52.3034049058431
  0
LINE
  5
45FF3
330
458D6
100
AcDbEntity
  8
0
100
AcDbLine
 10
165.9486731108511
 20
-100.2395172227912
 30
-52.3034049058431
 11
165.9486731108511
 21
-107.8609746363779
 31
-52.3034049058431
  0
LINE
  5
45FF4
330
458D6
100
AcDbEntity
  8
0
100
AcDbLine
 10
165.9486731108511
 20
-91.9269950178173
 30
-52.3034049058431
 11
196.049480952853
 21
-91.9269950178173
 31
-52.3034049058431
  0
LINE
  5
45FF5
330
458D6
100
AcDbEntity
  8
0
100
AcDbLine
 10
196.049480952853
 20
-91.9269950178173
 30
-52.3034049058431
 11
196.049480952853
 21
-85.00647474978086
 31
-52.3034049058431
  0
LINE
  5
45FF6
330
458D6
100
AcDbEntity
  8
0
100
AcDbLine
 10
196.049480952853
 20
-85.00647474978086
 30
-52.3034049058431
 11
165.9486731108511
 21
-85.00647474978086
 31
-52.3034049058431
  0
LINE
  5
45FF7
330
458D6
100
AcDbEntity
  8
0
100
AcDbLine
 10
165.9486731108511
 20
-85.00647474978086
 30
-52.3034049058431
 11
165.9486731108511
 21
-91.9269950178173
 31
-52.3034049058431
  0
LINE
  5
45FF8
330
458D6
100
AcDbEntity
  8
0
100
AcDbLine
 10
165.9486731108511
 20
-99.89398482709765
 30
-52.3034049058431
 11
196.049480952853
 21
-99.89398482709765
 31
-52.3034049058431
  0
LINE
  5
45FF9
330
458D6
100
AcDbEntity
  8
0
100
AcDbLine
 10
196.049480952853
 20
-99.89398482709765
 30
-52.3034049058431
 11
196.049480952853
 21
-92.27252741351104
 31
-52.3034049058431
  0
LINE
  5
45FFA
330
458D6
100
AcDbEntity
  8
0
100
AcDbLine
 10
196.049480952853
 20
-92.27252741351104
 30
-52.3034049058431
 11
165.9486731108511
 21
-92.27252741351104
 31
-52.3034049058431
  0
LINE
  5
45FFB
330
458D6
100
AcDbEntity
  8
0
100
AcDbLine
 10
165.9486731108511
 20
-92.27252741351104
 30
-52.3034049058431
 11
165.9486731108511
 21
-99.89398482709765
 31
-52.3034049058431
  0
LINE
  5
45FFC
330
458D6
100
AcDbEntity
  8
0
100
AcDbLine
 10
165.9486731108511
 20
-134.1707984799119
 30
-52.3034049058431
 11
165.9486731108511
 21
-140.0547215608674
 31
-52.3034049058431
  0
LINE
  5
45FFD
330
458D6
100
AcDbEntity
  8
0
100
AcDbLine
 10
165.9486731108511
 20
-140.0547215608674
 30
-52.3034049058431
 11
196.049480952853
 21
-140.0547215608674
 31
-52.3034049058431
  0
LINE
  5
45FFE
330
458D6
100
AcDbEntity
  8
0
100
AcDbLine
 10
196.049480952853
 20
-140.0547215608674
 30
-52.3034049058431
 11
196.049480952853
 21
-134.1707984799119
 31
-52.3034049058431
  0
LINE
  5
45FFF
330
458D6
100
AcDbEntity
  8
0
100
AcDbLine
 10
196.049480952853
 20
-124.4761466921632
 30
-52.3034049058431
 11
165.9486731108511
 21
-124.4761466921632
 31
-52.3034049058431
  0
LINE
  5
46000
330
458D6
100
AcDbEntity
  8
0
100
AcDbLine
 10
165.9486731108511
 20
-124.4761466921632
 30
-52.3034049058431
 11
165.9486731108511
 21
-131.7421993558934
 31
-52.3034049058431
  0
LINE
  5
46001
330
458D6
100
AcDbEntity
  8
0
100
AcDbLine
 10
165.9486731108511
 20
-131.7421993558934
 30
-52.3034049058431
 11
196.049480952853
 21
-131.7421993558934
 31
-52.3034049058431
  0
LINE
  5
46002
330
458D6
100
AcDbEntity
  8
0
100
AcDbLine
 10
196.049480952853
 20
-131.7421993558934
 30
-52.3034049058431
 11
196.049480952853
 21
-124.4761466921632
 31
-52.3034049058431
  0
LINE
  5
46003
330
458D6
100
AcDbEntity
  8
0
100
AcDbLine
 10
164.2210111323826
 20
-166.0288853628704
 30
-52.3034049058431
 11
191.5476874546725
 21
-166.0288853628704
 31
-52.3034049058431
  0
LINE
  5
46004
330
458D6
100
AcDbEntity
  8
0
100
AcDbLine
 10
191.5476874546725
 20
-166.0288853628704
 30
-52.3034049058431
 11
164.5665435280763
 21
-166.0288853628704
 31
-52.3034049058431
  0
LINE
  5
46005
330
458D6
100
AcDbEntity
  8
0
100
AcDbLine
 10
164.5665435280763
 20
-166.0288853628704
 30
-52.3034049058431
 11
164.2210111323826
 21
-166.0288853628704
 31
-52.3034049058431
  0
LINE
  5
46006
330
458D6
100
AcDbEntity
  8
0
100
AcDbLine
 10
197.4316105356278
 20
-164.2913510302393
 30
-52.3034049058431
 11
197.4316105356278
 21
-85.00647474978086
 31
-52.3034049058431
  0
LINE
  5
46007
330
458D6
100
AcDbEntity
  8
0
100
AcDbLine
 10
196.3950133485468
 20
-133.4797336885245
 30
-52.3034049058431
 11
165.2576083194636
 21
-133.4797336885245
 31
-52.3034049058431
  0
LINE
  5
46008
330
458D6
100
AcDbEntity
  8
0
100
AcDbLine
 10
165.2576083194636
 20
-133.4797336885245
 30
-52.3034049058431
 11
165.9486731108511
 21
-134.1707984799119
 31
-52.3034049058431
  0
LINE
  5
46009
330
458D6
100
AcDbEntity
  8
0
100
AcDbLine
 10
165.9486731108511
 20
-134.1707984799119
 30
-52.3034049058431
 11
196.049480952853
 21
-134.1707984799119
 31
-52.3034049058431
  0
LINE
  5
4600A
330
458D6
100
AcDbEntity
  8
0
100
AcDbLine
 10
196.049480952853
 20
-134.1707984799119
 30
-52.3034049058431
 11
196.3950133485468
 21
-133.4797336885245
 31
-52.3034049058431
  0
LINE
  5
4600B
330
458D6
100
AcDbEntity
  8
0
100
AcDbLine
 10
196.049480952853
 20
-164.2913510302393
 30
-52.3034049058431
 11
197.4316105356278
 21
-164.2913510302393
 31
-52.3034049058431
  0
LINE
  5
4600C
330
458D6
100
AcDbEntity
  8
0
100
AcDbLine
 10
197.4316105356278
 20
-164.2913510302393
 30
-52.3034049058431
 11
197.4316105356278
 21
-85.00647474978086
 31
-52.3034049058431
  0
LINE
  5
4600D
330
458D6
100
AcDbEntity
  8
0
100
AcDbLine
 10
197.4316105356278
 20
-85.00647474978086
 30
-52.3034049058431
 11
196.049480952853
 21
-85.00647474978086
 31
-52.3034049058431
  0
LINE
  5
4600E
330
458D6
100
AcDbEntity
  8
0
100
AcDbLine
 10
196.049480952853
 20
-131.7421993558934
 30
-52.3034049058431
 11
196.3950133485468
 21
-132.0976041057498
 31
-52.3034049058431
  0
LINE
  5
4600F
330
458D6
100
AcDbEntity
  8
0
100
AcDbLine
 10
196.3950133485468
 20
-132.0976041057498
 30
-52.3034049058431
 11
196.3950133485468
 21
-133.4797336885245
 31
-52.3034049058431
  0
LINE
  5
46010
330
458D6
100
AcDbEntity
  8
0
100
AcDbLine
 10
196.049480952853
 20
-99.89398482709765
 30
-52.3034049058431
 11
196.3950133485468
 21
-99.89398482709765
 31
-52.3034049058431
  0
LINE
  5
46011
330
458D6
100
AcDbEntity
  8
0
100
AcDbLine
 10
196.3950133485468
 20
-99.89398482709765
 30
-52.3034049058431
 11
196.3950133485468
 21
-100.2395172227912
 31
-52.3034049058431
  0
LINE
  5
46012
330
458D6
100
AcDbEntity
  8
0
100
AcDbLine
 10
196.3950133485468
 20
-100.2395172227912
 30
-52.3034049058431
 11
196.049480952853
 21
-100.2395172227912
 31
-52.3034049058431
  0
LINE
  5
46013
330
458D6
100
AcDbEntity
  8
0
100
AcDbLine
 10
196.049480952853
 20
-91.9269950178173
 30
-52.3034049058431
 11
196.3950133485468
 21
-91.9269950178173
 31
-52.3034049058431
  0
LINE
  5
46014
330
458D6
100
AcDbEntity
  8
0
100
AcDbLine
 10
196.3950133485468
 20
-91.9269950178173
 30
-52.3034049058431
 11
196.3950133485468
 21
-92.27252741351104
 31
-52.3034049058431
  0
LINE
  5
46015
330
458D6
100
AcDbEntity
  8
0
100
AcDbLine
 10
196.3950133485468
 20
-92.27252741351104
 30
-52.3034049058431
 11
196.049480952853
 21
-92.27252741351104
 31
-52.3034049058431
  0
LINE
  5
46016
330
458D6
100
AcDbEntity
  8
0
100
AcDbLine
 10
196.049480952853
 20
-107.8609746363779
 30
-52.3034049058431
 11
196.3950133485468
 21
-107.8609746363779
 31
-52.3034049058431
  0
LINE
  5
46017
330
458D6
100
AcDbEntity
  8
0
100
AcDbLine
 10
196.3950133485468
 20
-107.8609746363779
 30
-52.3034049058431
 11
196.3950133485468
 21
-108.2065070320716
 31
-52.3034049058431
  0
LINE
  5
46018
330
458D6
100
AcDbEntity
  8
0
100
AcDbLine
 10
196.3950133485468
 20
-108.2065070320716
 30
-52.3034049058431
 11
196.049480952853
 21
-108.2065070320716
 31
-52.3034049058431
  0
LINE
  5
46019
330
458D6
100
AcDbEntity
  8
0
100
AcDbLine
 10
196.049480952853
 20
-124.1306142964695
 30
-52.3034049058431
 11
196.3950133485468
 21
-124.1306142964695
 31
-52.3034049058431
  0
LINE
  5
4601A
330
458D6
100
AcDbEntity
  8
0
100
AcDbLine
 10
196.3950133485468
 20
-124.1306142964695
 30
-52.3034049058431
 11
196.3950133485468
 21
-124.4761466921632
 31
-52.3034049058431
  0
LINE
  5
4601B
330
458D6
100
AcDbEntity
  8
0
100
AcDbLine
 10
196.3950133485468
 20
-124.4761466921632
 30
-52.3034049058431
 11
196.049480952853
 21
-124.4761466921632
 31
-52.3034049058431
  0
LINE
  5
4601C
330
458D6
100
AcDbEntity
  8
0
100
AcDbLine
 10
196.049480952853
 20
-115.8180920914955
 30
-52.3034049058431
 11
196.3950133485468
 21
-115.8180920914955
 31
-52.3034049058431
  0
LINE
  5
4601D
330
458D6
100
AcDbEntity
  8
0
100
AcDbLine
 10
196.3950133485468
 20
-115.8180920914955
 30
-52.3034049058431
 11
196.3950133485468
 21
-116.5091568828829
 31
-52.3034049058431
  0
LINE
  5
4601E
330
458D6
100
AcDbEntity
  8
0
100
AcDbLine
 10
196.3950133485468
 20
-116.5091568828829
 30
-52.3034049058431
 11
196.049480952853
 21
-116.5091568828829
 31
-52.3034049058431
  0
LINE
  5
4601F
330
458D6
100
AcDbEntity
  8
0
100
AcDbLine
 10
196.049480952853
 20
-140.0547215608674
 30
-52.3034049058431
 11
196.3950133485468
 21
-140.0547215608674
 31
-52.3034049058431
  0
LINE
  5
46020
330
458D6
100
AcDbEntity
  8
0
100
AcDbLine
 10
196.3950133485468
 20
-140.0547215608674
 30
-52.3034049058431
 11
196.3950133485468
 21
-140.4002539565611
 31
-52.3034049058431
  0
LINE
  5
46021
330
458D6
100
AcDbEntity
  8
0
100
AcDbLine
 10
196.3950133485468
 20
-140.4002539565611
 30
-52.3034049058431
 11
196.049480952853
 21
-140.4002539565611
 31
-52.3034049058431
  0
LINE
  5
46022
330
458D6
100
AcDbEntity
  8
0
100
AcDbLine
 10
196.049480952853
 20
-148.0217113701477
 30
-52.3034049058431
 11
196.3950133485468
 21
-148.0217113701477
 31
-52.3034049058431
  0
LINE
  5
46023
330
458D6
100
AcDbEntity
  8
0
100
AcDbLine
 10
196.3950133485468
 20
-148.0217113701477
 30
-52.3034049058431
 11
196.3950133485468
 21
-148.3672437658414
 31
-52.3034049058431
  0
LINE
  5
46024
330
458D6
100
AcDbEntity
  8
0
100
AcDbLine
 10
196.3950133485468
 20
-148.3672437658414
 30
-52.3034049058431
 11
196.049480952853
 21
-148.3672437658414
 31
-52.3034049058431
  0
LINE
  5
46025
330
458D6
100
AcDbEntity
  8
0
100
AcDbLine
 10
196.049480952853
 20
-155.9788288252653
 30
-52.3034049058431
 11
196.3950133485468
 21
-155.9788288252653
 31
-52.3034049058431
  0
LINE
  5
46026
330
458D6
100
AcDbEntity
  8
0
100
AcDbLine
 10
196.3950133485468
 20
-155.9788288252653
 30
-52.3034049058431
 11
196.3950133485468
 21
-156.3342335751217
 31
-52.3034049058431
  0
LINE
  5
46027
330
458D6
100
AcDbEntity
  8
0
100
AcDbLine
 10
196.3950133485468
 20
-156.3342335751217
 30
-52.3034049058431
 11
196.049480952853
 21
-156.3342335751217
 31
-52.3034049058431
  0
LINE
  5
46028
330
458D6
100
AcDbEntity
  8
0
100
AcDbLine
 10
164.2210111323826
 20
-85.35200714547455
 30
-52.3034049058431
 11
164.2210111323826
 21
-166.0288853628704
 31
-52.3034049058431
  0
LINE
  5
46029
330
458D6
100
AcDbEntity
  8
0
100
AcDbLine
 10
164.2210111323826
 20
-166.0288853628704
 30
-52.3034049058431
 11
164.5665435280763
 21
-166.0288853628704
 31
-52.3034049058431
  0
LINE
  5
4602A
330
458D6
100
AcDbEntity
  8
0
100
AcDbLine
 10
164.5665435280763
 20
-166.0288853628704
 30
-52.3034049058431
 11
164.5665435280763
 21
-85.35200714547455
 31
-52.3034049058431
  0
LINE
  5
4602B
330
458D6
100
AcDbEntity
  8
0
100
AcDbLine
 10
165.2576083194636
 20
-57.30464896930931
 30
-52.3034049058431
 11
195.7039485571594
 21
-57.30464896930931
 31
-52.3034049058431
  0
LINE
  5
4602C
330
458D6
100
AcDbEntity
  8
0
100
AcDbLine
 10
195.7039485571594
 20
-57.30464896930931
 30
-52.3034049058431
 11
195.7039485571594
 21
-27.52962881467565
 31
-52.3034049058431
  0
LINE
  5
4602D
330
458D6
100
AcDbEntity
  8
0
100
AcDbLine
 10
195.7039485571594
 20
-27.52962881467565
 30
-52.3034049058431
 11
165.2576083194636
 21
-27.52962881467565
 31
-52.3034049058431
  0
LINE
  5
4602E
330
458D6
100
AcDbEntity
  8
0
100
AcDbLine
 10
197.7771429313215
 20
-57.99571376069671
 30
-52.3034049058431
 11
197.7771429313215
 21
-26.14749923190093
 31
-52.3034049058431
  0
LINE
  5
4602F
330
458D6
100
AcDbEntity
  8
0
100
AcDbLine
 10
197.7771429313215
 20
-26.14749923190093
 30
-52.3034049058431
 11
197.7771429313215
 21
-57.99571376069671
 31
-52.3034049058431
  0
LINE
  5
46030
330
458D6
100
AcDbEntity
  8
0
100
AcDbLine
 10
197.7771429313215
 20
-38.26087778950551
 30
-52.3034049058431
 11
197.7771429313215
 21
-48.3010619729479
 31
-52.3034049058431
  0
LINE
  5
46031
330
458D6
100
AcDbEntity
  8
0
100
AcDbLine
 10
197.7771429313215
 20
-48.3010619729479
 30
-52.3034049058431
 11
197.7771429313215
 21
-38.26087778950551
 31
-52.3034049058431
  0
LINE
  5
46032
330
458D6
100
AcDbEntity
  8
0
100
AcDbLine
 10
163.1844139453015
 20
-57.99571376069671
 30
-52.3034049058431
 11
163.1844139453015
 21
-26.14749923190093
 31
-52.3034049058431
  0
LINE
  5
46033
330
458D6
100
AcDbEntity
  8
0
100
AcDbLine
 10
163.1844139453015
 20
-26.14749923190093
 30
-52.3034049058431
 11
163.1844139453015
 21
-57.99571376069671
 31
-52.3034049058431
  0
LINE
  5
46034
330
458D6
100
AcDbEntity
  8
0
100
AcDbLine
 10
163.1844139453015
 20
-38.26087778950551
 30
-52.3034049058431
 11
163.1844139453015
 21
-48.3010619729479
 31
-52.3034049058431
  0
LINE
  5
46035
330
458D6
100
AcDbEntity
  8
0
100
AcDbLine
 10
163.1844139453015
 20
-48.3010619729479
 30
-52.3034049058431
 11
163.1844139453015
 21
-38.26087778950551
 31
-52.3034049058431
  0
LINE
  5
46036
330
458D6
100
AcDbEntity
  8
0
100
AcDbLine
 10
163.5299463409952
 20
-25.80196683620724
 30
-52.3034049058431
 11
197.4316105356278
 21
-25.80196683620724
 31
-52.3034049058431
  0
LINE
  5
46037
330
458D6
100
AcDbEntity
  8
0
100
AcDbLine
 10
197.4316105356278
 20
-25.80196683620724
 30
-52.3034049058431
 11
163.5299463409952
 21
-25.80196683620724
 31
-52.3034049058431
  0
LINE
  5
46038
330
458D6
100
AcDbEntity
  8
0
100
AcDbLine
 10
163.5299463409952
 20
-25.80196683620724
 30
-52.3034049058431
 11
163.5299463409952
 21
-25.80196683620724
 31
-52.3034049058431
  0
LINE
  5
46039
330
458D6
100
AcDbEntity
  8
0
100
AcDbLine
 10
197.4316105356278
 20
-26.14749923190093
 30
-52.3034049058431
 11
197.4316105356278
 21
-57.99571376069671
 31
-52.3034049058431
  0
LINE
  5
4603A
330
458D6
100
AcDbEntity
  8
0
100
AcDbLine
 10
197.4316105356278
 20
-57.99571376069671
 30
-52.3034049058431
 11
197.4316105356278
 21
-25.80196683620724
 31
-52.3034049058431
  0
LINE
  5
4603B
330
458D6
100
AcDbEntity
  8
0
100
AcDbLine
 10
197.4316105356278
 20
-25.80196683620724
 30
-52.3034049058431
 11
197.4316105356278
 21
-26.14749923190093
 31
-52.3034049058431
  0
LINE
  5
4603C
330
458D6
100
AcDbEntity
  8
0
100
AcDbLine
 10
195.7039485571594
 20
-57.30464896930931
 30
-52.3034049058431
 11
196.3950133485468
 21
-57.99571376069671
 31
-52.3034049058431
  0
LINE
  5
4603D
330
458D6
100
AcDbEntity
  8
0
100
AcDbLine
 10
196.3950133485468
 20
-57.99571376069671
 30
-52.3034049058431
 11
197.0860781399342
 21
-57.99571376069671
 31
-52.3034049058431
  0
LINE
  5
4603E
330
458D6
100
AcDbEntity
  8
0
100
AcDbLine
 10
197.0860781399342
 20
-57.99571376069671
 30
-52.3034049058431
 11
197.0860781399342
 21
-25.80196683620724
 31
-52.3034049058431
  0
LINE
  5
4603F
330
458D6
100
AcDbEntity
  8
0
100
AcDbLine
 10
197.0860781399342
 20
-25.80196683620724
 30
-52.3034049058431
 11
195.7039485571594
 21
-27.52962881467565
 31
-52.3034049058431
  0
LINE
  5
46040
330
458D6
100
AcDbEntity
  8
0
100
AcDbLine
 10
163.8754787366889
 20
-57.99571376069671
 30
-52.3034049058431
 11
164.91207592377
 21
-57.99571376069671
 31
-52.3034049058431
  0
LINE
  5
46041
330
458D6
100
AcDbEntity
  8
0
100
AcDbLine
 10
164.91207592377
 20
-57.99571376069671
 30
-52.3034049058431
 11
165.2576083194636
 21
-57.30464896930931
 31
-52.3034049058431
  0
LINE
  5
46042
330
458D6
100
AcDbEntity
  8
0
100
AcDbLine
 10
165.2576083194636
 20
-57.30464896930931
 30
-52.3034049058431
 11
165.2576083194636
 21
-27.52962881467565
 31
-52.3034049058431
  0
LINE
  5
46043
330
458D6
100
AcDbEntity
  8
0
100
AcDbLine
 10
165.2576083194636
 20
-27.52962881467565
 30
-52.3034049058431
 11
163.8754787366889
 21
-25.80196683620724
 31
-52.3034049058431
  0
LINE
  5
46044
330
458D6
100
AcDbEntity
  8
0
100
AcDbLine
 10
163.8754787366889
 20
-25.80196683620724
 30
-52.3034049058431
 11
163.8754787366889
 21
-57.99571376069671
 31
-52.3034049058431
  0
LINE
  5
46045
330
458D6
100
AcDbEntity
  8
0
100
AcDbLine
 10
170.4504666090317
 20
-23.37336771218864
 30
-52.3034049058431
 11
173.560258170275
 21
-23.37336771218864
 31
-52.3034049058431
  0
LINE
  5
46046
330
458D6
100
AcDbEntity
  8
0
100
AcDbLine
 10
173.560258170275
 20
-23.37336771218864
 30
-52.3034049058431
 11
171.8325961918065
 21
-23.37336771218864
 31
-52.3034049058431
  0
LINE
  5
46047
330
458D6
100
AcDbEntity
  8
0
100
AcDbLine
 10
171.8325961918065
 20
-23.37336771218864
 30
-52.3034049058431
 11
172.1781285875002
 21
-23.37336771218864
 31
-52.3034049058431
  0
LINE
  5
46048
330
458D6
100
AcDbEntity
  8
0
100
AcDbLine
 10
172.1781285875002
 20
-23.37336771218864
 30
-52.3034049058431
 11
173.2147257745813
 21
-23.37336771218864
 31
-52.3034049058431
  0
LINE
  5
46049
330
458D6
100
AcDbEntity
  8
0
100
AcDbLine
 10
173.2147257745813
 20
-23.37336771218864
 30
-52.3034049058431
 11
174.596855357356
 21
-23.37336771218864
 31
-52.3034049058431
  0
LINE
  5
4604A
330
458D6
100
AcDbEntity
  8
0
100
AcDbLine
 10
174.596855357356
 20
-23.37336771218864
 30
-52.3034049058431
 11
186.364701519267
 21
-23.37336771218864
 31
-52.3034049058431
  0
LINE
  5
4604B
330
458D6
100
AcDbEntity
  8
0
100
AcDbLine
 10
186.364701519267
 20
-23.37336771218864
 30
-52.3034049058431
 11
187.7468311020417
 21
-23.37336771218864
 31
-52.3034049058431
  0
LINE
  5
4604C
330
458D6
100
AcDbEntity
  8
0
100
AcDbLine
 10
187.7468311020417
 20
-23.37336771218864
 30
-52.3034049058431
 11
188.7834282891228
 21
-23.37336771218864
 31
-52.3034049058431
  0
LINE
  5
4604D
330
458D6
100
AcDbEntity
  8
0
100
AcDbLine
 10
188.7834282891228
 20
-23.37336771218864
 30
-52.3034049058431
 11
189.1289606848165
 21
-23.37336771218864
 31
-52.3034049058431
  0
LINE
  5
4604E
330
458D6
100
AcDbEntity
  8
0
100
AcDbLine
 10
189.1289606848165
 20
-23.37336771218864
 30
-52.3034049058431
 11
187.401298706348
 21
-23.37336771218864
 31
-52.3034049058431
  0
LINE
  5
4604F
330
458D6
100
AcDbEntity
  8
0
100
AcDbLine
 10
187.401298706348
 20
-23.37336771218864
 30
-52.3034049058431
 11
190.5110902675913
 21
-23.37336771218864
 31
-52.3034049058431
  0
LINE
  5
46050
330
458D6
100
AcDbEntity
  8
0
100
AcDbLine
 10
190.5110902675913
 20
-23.37336771218864
 30
-52.3034049058431
 11
194.6574790159156
 21
-23.37336771218864
 31
-52.3034049058431
  0
LINE
  5
46051
330
458D6
100
AcDbEntity
  8
0
100
AcDbLine
 10
194.6574790159156
 20
-23.37336771218864
 30
-52.3034049058431
 11
166.2942055065447
 21
-23.37336771218864
 31
-52.3034049058431
  0
LINE
  5
46052
330
458D6
100
AcDbEntity
  8
0
100
AcDbLine
 10
166.2942055065447
 20
-23.37336771218864
 30
-52.3034049058431
 11
170.4504666090317
 21
-23.37336771218864
 31
-52.3034049058431
  0
LINE
  5
46053
330
458D6
100
AcDbEntity
  8
0
100
AcDbLine
 10
186.364701519267
 20
-27.52962881467565
 30
-52.3034049058431
 11
186.364701519267
 21
-26.83856402328834
 31
-52.3034049058431
  0
LINE
  5
46054
330
458D6
100
AcDbEntity
  8
0
100
AcDbLine
 10
186.364701519267
 20
-26.83856402328834
 30
-52.3034049058431
 11
174.596855357356
 21
-26.83856402328834
 31
-52.3034049058431
  0
LINE
  5
46055
330
458D6
100
AcDbEntity
  8
0
100
AcDbLine
 10
174.596855357356
 20
-26.83856402328834
 30
-52.3034049058431
 11
174.596855357356
 21
-27.52962881467565
 31
-52.3034049058431
  0
LINE
  5
46056
330
458D6
100
AcDbEntity
  8
0
100
AcDbLine
 10
172.8691933788876
 20
-24.40996489926974
 30
-52.3034049058431
 11
188.0923634977354
 21
-24.40996489926974
 31
-52.3034049058431
  0
LINE
  5
46057
330
458D6
100
AcDbEntity
  8
0
100
AcDbLine
 10
188.0923634977354
 20
-24.40996489926974
 30
-52.3034049058431
 11
187.7468311020417
 21
-24.064432503576
 31
-52.3034049058431
  0
LINE
  5
46058
330
458D6
100
AcDbEntity
  8
0
100
AcDbLine
 10
187.7468311020417
 20
-24.064432503576
 30
-52.3034049058431
 11
173.2147257745813
 21
-24.064432503576
 31
-52.3034049058431
  0
LINE
  5
46059
330
458D6
100
AcDbEntity
  8
0
100
AcDbLine
 10
173.2147257745813
 20
-24.064432503576
 30
-52.3034049058431
 11
172.8691933788876
 21
-24.40996489926974
 31
-52.3034049058431
  0
LINE
  5
4605A
330
458D6
100
AcDbEntity
  8
0
100
AcDbLine
 10
188.0923634977354
 20
-24.40996489926974
 30
-52.3034049058431
 11
188.4378958934291
 21
-24.40996489926974
 31
-52.3034049058431
  0
LINE
  5
4605B
330
458D6
100
AcDbEntity
  8
0
100
AcDbLine
 10
188.4378958934291
 20
-24.40996489926974
 30
-52.3034049058431
 11
188.4378958934291
 21
-24.064432503576
 31
-52.3034049058431
  0
LINE
  5
4605C
330
458D6
100
AcDbEntity
  8
0
100
AcDbLine
 10
188.4378958934291
 20
-24.064432503576
 30
-52.3034049058431
 11
187.7468311020417
 21
-24.064432503576
 31
-52.3034049058431
  0
LINE
  5
4605D
330
458D6
100
AcDbEntity
  8
0
100
AcDbLine
 10
173.2147257745813
 20
-24.064432503576
 30
-52.3034049058431
 11
172.523660983194
 21
-24.064432503576
 31
-52.3034049058431
  0
LINE
  5
4605E
330
458D6
100
AcDbEntity
  8
0
100
AcDbLine
 10
172.523660983194
 20
-24.064432503576
 30
-52.3034049058431
 11
172.523660983194
 21
-24.40996489926974
 31
-52.3034049058431
  0
LINE
  5
4605F
330
458D6
100
AcDbEntity
  8
0
100
AcDbLine
 10
172.523660983194
 20
-24.40996489926974
 30
-52.3034049058431
 11
172.8691933788876
 21
-24.40996489926974
 31
-52.3034049058431
  0
LINE
  5
46060
330
458D6
100
AcDbEntity
  8
0
100
AcDbLine
 10
186.364701519267
 20
-69.42789988107661
 30
-52.3034049058431
 11
184.6271671866358
 21
-67.69036554844543
 31
-52.3034049058431
  0
LINE
  5
46061
330
458D6
100
AcDbEntity
  8
0
100
AcDbLine
 10
184.6271671866358
 20
-67.69036554844543
 30
-52.3034049058431
 11
186.364701519267
 21
-69.42789988107661
 31
-52.3034049058431
  0
LINE
  5
46062
330
458D6
100
AcDbEntity
  8
0
100
AcDbLine
 10
186.364701519267
 20
-69.42789988107661
 30
-52.3034049058431
 11
187.0557663106543
 21
-72.19215904662611
 31
-52.3034049058431
  0
LINE
  5
46063
330
458D6
100
AcDbEntity
  8
0
100
AcDbLine
 10
187.0557663106543
 20
-72.19215904662611
 30
-52.3034049058431
 11
186.364701519267
 21
-74.96629056633833
 31
-52.3034049058431
  0
LINE
  5
46064
330
458D6
100
AcDbEntity
  8
0
100
AcDbLine
 10
186.364701519267
 20
-74.96629056633833
 30
-52.3034049058431
 11
187.0557663106543
 21
-72.19215904662611
 31
-52.3034049058431
  0
LINE
  5
46065
330
458D6
100
AcDbEntity
  8
0
100
AcDbLine
 10
187.0557663106543
 20
-72.19215904662611
 30
-52.3034049058431
 11
186.364701519267
 21
-69.42789988107661
 31
-52.3034049058431
  0
LINE
  5
46066
330
458D6
100
AcDbEntity
  8
0
100
AcDbLine
 10
179.0986488555368
 20
-67.69036554844543
 30
-52.3034049058431
 11
181.862908021086
 21
-66.99930075705805
 31
-52.3034049058431
  0
LINE
  5
46067
330
458D6
100
AcDbEntity
  8
0
100
AcDbLine
 10
181.862908021086
 20
-66.99930075705805
 30
-52.3034049058431
 11
184.6271671866358
 21
-67.69036554844543
 31
-52.3034049058431
  0
LINE
  5
46068
330
458D6
100
AcDbEntity
  8
0
100
AcDbLine
 10
184.6271671866358
 20
-67.69036554844543
 30
-52.3034049058431
 11
181.862908021086
 21
-66.99930075705805
 31
-52.3034049058431
  0
LINE
  5
46069
330
458D6
100
AcDbEntity
  8
0
100
AcDbLine
 10
181.862908021086
 20
-66.99930075705805
 30
-52.3034049058431
 11
179.0986488555368
 21
-67.69036554844543
 31
-52.3034049058431
  0
LINE
  5
4606A
330
458D6
100
AcDbEntity
  8
0
100
AcDbLine
 10
186.364701519267
 20
-74.96629056633833
 30
-52.3034049058431
 11
184.6271671866358
 21
-76.69395254480682
 31
-52.3034049058431
  0
LINE
  5
4606B
330
458D6
100
AcDbEntity
  8
0
100
AcDbLine
 10
184.6271671866358
 20
-76.69395254480682
 30
-52.3034049058431
 11
181.862908021086
 21
-77.38501733619424
 31
-52.3034049058431
  0
LINE
  5
4606C
330
458D6
100
AcDbEntity
  8
0
100
AcDbLine
 10
181.862908021086
 20
-77.38501733619424
 30
-52.3034049058431
 11
179.0986488555368
 21
-76.69395254480682
 31
-52.3034049058431
  0
LINE
  5
4606D
330
458D6
100
AcDbEntity
  8
0
100
AcDbLine
 10
179.0986488555368
 20
-76.69395254480682
 30
-52.3034049058431
 11
177.3709868770681
 21
-74.96629056633833
 31
-52.3034049058431
  0
LINE
  5
4606E
330
458D6
100
AcDbEntity
  8
0
100
AcDbLine
 10
177.3709868770681
 20
-74.96629056633833
 30
-52.3034049058431
 11
176.6700497315181
 21
-72.19215904662611
 31
-52.3034049058431
  0
LINE
  5
4606F
330
458D6
100
AcDbEntity
  8
0
100
AcDbLine
 10
176.6700497315181
 20
-72.19215904662611
 30
-52.3034049058431
 11
177.3709868770681
 21
-69.42789988107661
 31
-52.3034049058431
  0
LINE
  5
46070
330
458D6
100
AcDbEntity
  8
0
100
AcDbLine
 10
177.3709868770681
 20
-69.42789988107661
 30
-52.3034049058431
 11
179.0986488555368
 21
-67.69036554844543
 31
-52.3034049058431
  0
LINE
  5
46071
330
458D6
100
AcDbEntity
  8
0
100
AcDbLine
 10
179.0986488555368
 20
-67.69036554844543
 30
-52.3034049058431
 11
177.3709868770681
 21
-69.42789988107661
 31
-52.3034049058431
  0
LINE
  5
46072
330
458D6
100
AcDbEntity
  8
0
100
AcDbLine
 10
177.3709868770681
 20
-69.42789988107661
 30
-52.3034049058431
 11
176.6700497315181
 21
-72.19215904662611
 31
-52.3034049058431
  0
LINE
  5
46073
330
458D6
100
AcDbEntity
  8
0
100
AcDbLine
 10
184.6271671866358
 20
-76.69395254480682
 30
-52.3034049058431
 11
186.364701519267
 21
-74.96629056633833
 31
-52.3034049058431
  0
LINE
  5
46074
330
458D6
100
AcDbEntity
  8
0
100
AcDbLine
 10
186.364701519267
 20
-74.96629056633833
 30
-52.3034049058431
 11
187.0557663106543
 21
-72.19215904662611
 31
-52.3034049058431
  0
LINE
  5
46075
330
458D6
100
AcDbEntity
  8
0
100
AcDbLine
 10
187.0557663106543
 20
-72.19215904662611
 30
-52.3034049058431
 11
186.364701519267
 21
-69.42789988107661
 31
-52.3034049058431
  0
LINE
  5
46076
330
458D6
100
AcDbEntity
  8
0
100
AcDbLine
 10
186.364701519267
 20
-69.42789988107661
 30
-52.3034049058431
 11
184.6271671866358
 21
-67.69036554844543
 31
-52.3034049058431
  0
LINE
  5
46077
330
458D6
100
AcDbEntity
  8
0
100
AcDbLine
 10
184.6271671866358
 20
-67.69036554844543
 30
-52.3034049058431
 11
181.862908021086
 21
-66.99930075705805
 31
-52.3034049058431
  0
LINE
  5
46078
330
458D6
100
AcDbEntity
  8
0
100
AcDbLine
 10
181.862908021086
 20
-66.99930075705805
 30
-52.3034049058431
 11
179.0986488555368
 21
-67.69036554844543
 31
-52.3034049058431
  0
LINE
  5
46079
330
458D6
100
AcDbEntity
  8
0
100
AcDbLine
 10
179.0986488555368
 20
-67.69036554844543
 30
-52.3034049058431
 11
177.3709868770681
 21
-69.42789988107661
 31
-52.3034049058431
  0
LINE
  5
4607A
330
458D6
100
AcDbEntity
  8
0
100
AcDbLine
 10
177.3709868770681
 20
-69.42789988107661
 30
-52.3034049058431
 11
176.6700497315181
 21
-72.19215904662611
 31
-52.3034049058431
  0
LINE
  5
4607B
330
458D6
100
AcDbEntity
  8
0
100
AcDbLine
 10
176.6700497315181
 20
-72.19215904662611
 30
-52.3034049058431
 11
177.3709868770681
 21
-74.96629056633833
 31
-52.3034049058431
  0
LINE
  5
4607C
330
458D6
100
AcDbEntity
  8
0
100
AcDbLine
 10
177.3709868770681
 20
-74.96629056633833
 30
-52.3034049058431
 11
179.0986488555368
 21
-76.69395254480682
 31
-52.3034049058431
  0
LINE
  5
4607D
330
458D6
100
AcDbEntity
  8
0
100
AcDbLine
 10
179.0986488555368
 20
-76.69395254480682
 30
-52.3034049058431
 11
181.862908021086
 21
-77.38501733619424
 31
-52.3034049058431
  0
LINE
  5
4607E
330
458D6
100
AcDbEntity
  8
0
100
AcDbLine
 10
181.862908021086
 20
-77.38501733619424
 30
-52.3034049058431
 11
184.6271671866358
 21
-76.69395254480682
 31
-52.3034049058431
  0
LINE
  5
4607F
330
458D6
100
AcDbEntity
  8
0
100
AcDbLine
 10
181.1718432296989
 20
-70.11896467246413
 30
-52.3034049058431
 11
181.1718432296989
 21
-74.27522577495103
 31
-52.3034049058431
  0
LINE
  5
46080
330
458D6
100
AcDbEntity
  8
0
100
AcDbLine
 10
181.1718432296989
 20
-74.27522577495103
 30
-52.3034049058431
 11
182.5539728124737
 21
-74.27522577495103
 31
-52.3034049058431
  0
LINE
  5
46081
330
458D6
100
AcDbEntity
  8
0
100
AcDbLine
 10
182.5539728124737
 20
-74.27522577495103
 30
-52.3034049058431
 11
182.5539728124737
 21
-70.11896467246413
 31
-52.3034049058431
  0
LINE
  5
46082
330
458D6
100
AcDbEntity
  8
0
100
AcDbLine
 10
182.5539728124737
 20
-70.11896467246413
 30
-52.3034049058431
 11
181.1718432296989
 21
-70.11896467246413
 31
-52.3034049058431
  0
DIMENSION
  5
46138
330
458D6
100
AcDbEntity
  8
0
100
AcDbDimension
  2
*D1
 10
197.7771429313215
 20
-11.37336771218864
 30
0.0
 11
180.4807784383115
 21
1.341632287811362
 31
0.0
 70
    32
  1
<>[]
 71
     5
 42
34.59272898602002
  3
ABECAD_3D$0
100
AcDbAlignedDimension
 13
163.1844139453015
 23
-23.37336771218864
 33
0.0
 14
197.7771429313215
 24
-23.37336771218864
 34
0.0
100
AcDbRotatedDimension
1001
ACAD
1000
DSTYLE
1002
{
1070
   140
1040
7.0
1002
}
  0
DIMENSION
  5
46165
330
458D6
100
AcDbEntity
  8
0
100
AcDbDimension
  2
*D2
 10
209.7771429313215
 20
-168.79314452842
 30
0.0
 11
209.7771429313215
 21
-96.08325612030428
 31
0.0
 70
    32
 71
     5
 42
145.4197768162313
  3
ABECAD_3D$0
100
AcDbAlignedDimension
 13
197.7771429313215
 23
-23.37336771218864
 33
0.0
 14
197.7771429313215
 24
-168.79314452842
 34
0.0
 50
90.0
100
AcDbRotatedDimension
1001
ACAD
1000
DSTYLE
1002
{
1070
   140
1040
7.0
1002
}
  0
VIEWPORT
  5
459DC
102
{ACAD_XDICTIONARY
360
462B3
102
}
330
458D3
100
AcDbEntity
 67
     1
  8
0
100
AcDbViewport
 10
133.3499908447265
 20
101.5999970436096
 30
0.0
 40
364.1398508409046
 41
218.1766194911749
 68
     2
 69
     1
 12
133.3499908447265
 22
101.5999970436096
 13
0.0
 23
0.0
 14
0.5
 24
0.5
 15
0.5
 25
0.5
 16
0.0
 26
0.0
 36
1.0
 17
0.0
 27
0.0
 37
0.0
 42
50.0
 43
0.0
 44
0.0
 45
218.1766194911749
 50
0.0
 51
0.0
 72
 20000
 90
    32800
  1

281
     0
 71
     1
 74
     0
110
0.0
120
0.0
130
0.0
111
1.0
121
0.0
131
0.0
112
0.0
122
1.0
132
0.0
 79
     0
146
0.0
1001
GENIUS_GENOBJ-N-SDF_13
1002
{
1000
OWNER
1000
GEN
1002
}
1001
GENIUS_GENODEF_13
1002
{
1000
HIER
1070
     0
1002
}
1002
{
1000
MANEDIT
1070
     0
1002
}
1002
{
1000
NOSEL
1070
     0
1002
}
1002
{
1000
BEHIND
1070
     0
1002
}
1002
{
1000
OTHER
1070
     0
1002
}
1002
{
1000
REACTOR
1002
}
1001
GENIUS_GENSCREG_15
1000
PF
1040
1.0
1000
DF
1040
1.0
1000
MIN
1011
-48.7199345757258
1021
-7.488312701977832
1031
0.0
1000
MAX
1011
315.4199162651788
1021
210.688306789197
1031
0.0
1000
FLAGS
1070
     2
  0
VIEWPORT
  5
459DE
102
{ACAD_XDICTIONARY
360
462B5
102
}
330
458D3
100
AcDbEntity
 67
     1
  8
0
100
AcDbViewport
 10
133.3499939441681
 20
101.5999939441681
 30
0.0
 40
213.3599903106689
 41
162.5599903106689
 68
     1
 69
     2
 12
-10.66162453721698
 22
-4.21420189015922
 13
0.0
 23
0.0
 14
0.25
 24
0.25
 15
0.25
 25
0.25
 16
-1.0
 26
-1.0
 36
1.0
 17
0.0
 27
0.0
 37
0.0
 42
50.0
 43
0.0
 44
0.0
 45
76.56993723903744
 50
0.0
 51
0.0
 72
 20000
 90
    32800
  1

281
     0
 71
     1
 74
     0
110
0.0
120
0.0
130
0.0
111
1.0
121
0.0
131
0.0
112
0.0
122
1.0
132
0.0
 79
     1
146
0.0
1001
GENIUS_GENODEF_13
1002
{
1000
HIER
1070
     0
1002
}
1002
{
1000
MANEDIT
1070
     0
1002
}
1002
{
1000
NOSEL
1070
     0
1002
}
1002
{
1000
BEHIND
1070
     0
1002
}
1002
{
1000
OTHER
1070
     0
1002
}
1002
{
1000
REACTOR
1002
}
1001
GENIUS_GENOBJ-N-SDF_13
1002
{
1000
OWNER
1000
GEN
1002
}
1001
GENIUS_GENSCREG_15
1000
PF
1040
0.0
1000
DF
1040
0.0
1000
MIN
1011
26.66999878883363
1021
20.31999878883366
1031
0.0
1000
MAX
1011
240.0299890995025
1021
182.8799890995025
1031
0.0
1000
FLAGS
1070
     2
  0
ENDSEC
  0
SECTION
  2
OBJECTS
  0
DICTIONARY
  5
458CB
330
0
100
AcDbDictionary
281
     1
  3
ACAD_COLOR
350
459E7
  3
ACAD_GROUP
350
458CC
  3
ACAD_LAYOUT
350
458FB
  3
ACAD_MATERIAL
350
459E6
  3
ACAD_MLINESTYLE
350
458D9
  3
ACAD_PLOTSETTINGS
350
458FC
  3
ACAD_PLOTSTYLENAME
350
458F9
  3
ACAD_TABLESTYLE
350
459E8
  3
ACDBHEADERROUNDTRIPXREC
350
462AE
  3
ACDBVARIABLEDICTIONARY
350
458E1
  3
AcmDictionary
350
45A47
  3
AMG
350
459ED
  3
AMGSNAPSETTINGS
350
45A9B
  3
DWGPROPS
350
462AD
  0
DICTIONARY
  5
45930
330
458D6
100
AcDbDictionary
280
     1
281
     1
  3
ACAD_LAYOUTSELFREF
360
459C8
  0
DICTIONARY
  5
4592E
330
458D3
100
AcDbDictionary
280
     1
281
     1
  3
ACAD_LAYOUTSELFREF
360
459C7
  0
DICTIONARY
  5
462B3
330
459DC
100
AcDbDictionary
280
     1
281
     1
  3
ACAD_XREC_ROUNDTRIP
360
462B4
  0
DICTIONARY
  5
462B5
330
459DE
100
AcDbDictionary
280
     1
281
     1
  3
ACAD_XREC_ROUNDTRIP
360
462B6
  0
DICTIONARY
  5
459E7
102
{ACAD_REACTORS
330
458CB
102
}
330
458CB
100
AcDbDictionary
281
     1
  0
DICTIONARY
  5
458CC
102
{ACAD_REACTORS
330
458CB
102
}
330
458CB
100
AcDbDictionary
281
     1
  0
DICTIONARY
  5
458FB
102
{ACAD_REACTORS
330
458CB
102
}
330
458CB
100
AcDbDictionary
281
     1
  3
Layout1
350
458FE
  3
Model
350
458FD
  0
DICTIONARY
  5
459E6
102
{ACAD_REACTORS
330
458CB
102
}
330
458CB
100
AcDbDictionary
281
     1
  0
DICTIONARY
  5
458D9
102
{ACAD_REACTORS
330
458CB
102
}
330
458CB
100
AcDbDictionary
281
     1
  3
STANDARD
350
458DA
  0
DICTIONARY
  5
458FC
102
{ACAD_REACTORS
330
458CB
102
}
330
458CB
100
AcDbDictionary
281
     1
  0
ACDBDICTIONARYWDFLT
  5
458F9
102
{ACAD_REACTORS
330
458CB
102
}
330
458CB
100
AcDbDictionary
281
     1
  3
Normal
350
458FA
100
AcDbDictionaryWithDefault
340
458FA
  0
DICTIONARY
  5
459E8
102
{ACAD_REACTORS
330
458CB
102
}
330
458CB
100
AcDbDictionary
281
     1
  3
Standard
350
459E9
  0
DICTIONARY
  5
462AE
102
{ACAD_REACTORS
330
458CB
102
}
330
458CB
100
AcDbDictionary
281
     1
  0
DICTIONARY
  5
458E1
102
{ACAD_REACTORS
330
458CB
102
}
330
458CB
100
AcDbDictionary
281
     1
  3
CTABLESTYLE
350
46093
  3
DIMADEC
350
458E2
  3
DIMASSOC
350
46094
  3
PROJECTNAME
350
46095
  0
DICTIONARY
  5
45A47
102
{ACAD_REACTORS
330
458CB
102
}
330
458CB
100
AcDbDictionary
281
     1
  3
AcmStdDictionary
350
45A52
  3
AMDTSECTSYM_ARROWCOLOR
350
45A70
  0
DICTIONARY
  5
459ED
102
{ACAD_REACTORS
330
458CB
102
}
330
458CB
100
AcDbDictionary
281
     1
  0
DICTIONARY
  5
45A9B
102
{ACAD_REACTORS
330
458CB
102
}
330
458CB
100
AcDbDictionary
281
     1
  0
XRECORD
  5
462AD
102
{ACAD_REACTORS
330
458CB
102
}
330
458CB
100
AcDbXrecord
280
     1
  1
DWGPROPS COOKIE
  2

  3

  4

  6

  7

  8
colin
  9

300
=
301
=
302
=
303
=
304
=
305
=
306
=
307
=
308
=
309
=
 40
0.0036324768518519
 41
2454543.495352107
 42
2454631.595959028
  1

 90
        0
  0
XRECORD
  5
459C8
102
{ACAD_REACTORS
330
45930
102
}
330
45930
100
AcDbXrecord
280
     1
340
458D6
  0
XRECORD
  5
459C7
102
{ACAD_REACTORS
330
4592E
102
}
330
4592E
100
AcDbXrecord
280
     1
340
458D3
  0
XRECORD
  5
462B4
102
{ACAD_REACTORS
330
462B3
102
}
330
462B3
100
AcDbXrecord
280
     1
102
SHADEPLOT
 70
     0
  0
XRECORD
  5
462B6
102
{ACAD_REACTORS
330
462B5
102
}
330
462B5
100
AcDbXrecord
280
     1
102
SHADEPLOT
 70
     0
  0
LAYOUT
  5
458FE
102
{ACAD_XDICTIONARY
360
462B1
102
}
102
{ACAD_REACTORS
330
458FB
102
}
330
458FB
100
AcDbPlotSettings
  1

  2
none_device
  4
Letter_(8.50_x_11.00_Inches)
  6

 40
6.349999904632567
 41
6.349999904632567
 42
6.350006103515625
 43
6.350006103515625
 44
215.8999938964844
 45
279.3999938964844
 46
0.0
 47
0.0
 48
0.0
 49
0.0
140
0.0
141
0.0
142
1.0
143
1.0
 70
   688
 72
     1
 73
     1
 74
     5
  7
Default R14 pen assignments.ctb
 75
    16
147
1.0
148
0.0
149
0.0
100
AcDbLayout
  1
Layout1
 70
     1
 71
     1
 10
-6.350006103515625
 20
-6.349999904632567
 11
273.0499877929688
 21
209.5499939918518
 12
0.0
 22
0.0
 32
0.0
 14
26.66076962115563
 24
20.31135699206658
 34
-0.0015258207003583
 15
240.039213369355
 25
182.8886381005154
 35
0.0000000349246037
146
0.0
 13
0.0
 23
0.0
 33
0.0
 16
1.0
 26
0.0
 36
0.0
 17
0.0
 27
1.0
 37
0.0
 76
     0
330
458D3
331
459DE
  0
LAYOUT
  5
458FD
102
{ACAD_XDICTIONARY
360
462AF
102
}
102
{ACAD_REACTORS
330
458FB
102
}
330
458FB
100
AcDbPlotSettings
  1

  2
HP LaserJet 5000 Series PCL 6
  4

  6

 40
0.0
 41
0.0
 42
0.0
 43
0.0
 44
0.0
 45
0.0
 46
0.0
 47
0.0
 48
0.0
 49
0.0
140
0.0
141
0.0
142
1.0
143
1.0
 70
  1712
 72
     0
 73
     0
 74
     0
  7
Default R14 pen assignments.ctb
 75
     0
147
1.0
148
0.0
149
0.0
100
AcDbLayout
  1
Model
 70
     1
 71
     0
 10
0.0
 20
0.0
 11
12.0
 21
9.0
 12
0.0
 22
0.0
 32
0.0
 14
0.0
 24
0.0
 34
0.0
 15
0.0
 25
0.0
 35
0.0
146
0.0
 13
0.0
 23
0.0
 33
0.0
 16
1.0
 26
0.0
 36
0.0
 17
0.0
 27
1.0
 37
0.0
 76
     0
330
458D6
  0
MLINESTYLE
  5
458DA
102
{ACAD_REACTORS
330
458D9
102
}
330
458D9
100
AcDbMlineStyle
  2
STANDARD
 70
     0
  3

 62
   256
 51
90.0
 52
90.0
 71
     2
 49
0.5
 62
   256
  6
BYLAYER
 49
-0.5
 62
   256
  6
BYLAYER
  0
ACDBPLACEHOLDER
  5
458FA
102
{ACAD_REACTORS
330
458F9
102
}
330
458F9
  0
TABLESTYLE
  5
459E9
102
{ACAD_REACTORS
330
459E8
102
}
330
459E8
100
AcDbTableStyle
  3
Standard
 70
     0
 71
     0
 40
1.5
 41
1.5
280
     0
281
     0
  7
STANDARD
140
4.5
170
     2
 62
     0
 63
     7
283
     0
274
    -2
284
     1
 64
     0
275
    -2
285
     1
 65
     0
276
    -2
286
     1
 66
     0
277
    -2
287
     1
 67
     0
278
    -2
288
     1
 68
     0
279
    -2
289
     1
 69
     0
  7
STANDARD
140
6.0
170
     5
 62
     0
 63
     7
283
     0
274
    -2
284
     1
 64
     0
275
    -2
285
     1
 65
     0
276
    -2
286
     1
 66
     0
277
    -2
287
     1
 67
     0
278
    -2
288
     1
 68
     0
279
    -2
289
     1
 69
     0
  7
STANDARD
140
4.5
170
     5
 62
     0
 63
     7
283
     0
274
    -2
284
     1
 64
     0
275
    -2
285
     1
 65
     0
276
    -2
286
     1
 66
     0
277
    -2
287
     1
 67
     0
278
    -2
288
     1
 68
     0
279
    -2
289
     1
 69
     0
  0
DICTIONARYVAR
  5
46093
102
{ACAD_REACTORS
330
458E1
102
}
330
458E1
100
DictionaryVariables
280
     0
  1
STANDARD
  0
DICTIONARYVAR
  5
458E2
102
{ACAD_REACTORS
330
458E1
102
}
330
458E1
100
DictionaryVariables
280
     0
  1
0
  0
DICTIONARYVAR
  5
46094
102
{ACAD_REACTORS
330
458E1
102
}
330
458E1
100
DictionaryVariables
280
     0
  1
1
  0
DICTIONARYVAR
  5
46095
102
{ACAD_REACTORS
330
458E1
102
}
330
458E1
100
DictionaryVariables
280
     0
  1

  0
DICTIONARY
  5
45A52
102
{ACAD_REACTORS
330
45A47
102
}
330
45A47
100
AcDbDictionary
281
     1
  0
XRECORD
  5
45A70
102
{ACAD_REACTORS
330
45A47
102
}
330
45A47
100
AcDbXrecord
280
     1
 90
-1023410169
  0
DICTIONARY
  5
462B1
330
458FE
100
AcDbDictionary
280
     1
281
     1
  3
ACAD_XREC_ROUNDTRIP
360
462B2
  0
DICTIONARY
  5
462AF
330
458FD
100
AcDbDictionary
280
     1
281
     1
  3
ACAD_XREC_ROUNDTRIP
360
462B0
  0
XRECORD
  5
462B2
102
{ACAD_REACTORS
330
462B1
102
}
330
462B1
100
AcDbXrecord
280
     1
102
SHADEPLOT
 70
     0
102
SHADEPLOTRESLEVEL
 70
     2
102
SHADEPLOTCUSTOMDPI
 70
   300
  0
XRECORD
  5
462B0
102
{ACAD_REACTORS
330
462AF
102
}
330
462AF
100
AcDbXrecord
280
     1
102
SHADEPLOT
 70
     0
102
SHADEPLOTRESLEVEL
 70
     2
102
SHADEPLOTCUSTOMDPI
 70
   300
  0
ENDSEC
  0
EOF
