999
DXF file: 1768-case.dxf
999
Pro/ENGINEER 2005110 by Parametric Technology Corporation
0
SECTION
2
HEADER
9
$ACADVER
1
AC1015
9
$DWGCODEPAGE
3
ANSI_1252
9
$EXTMAX
10
17.0000000000
20
11.0000000000
30
0.0000000000
9
$EXTMIN
10
0.0000000000
20
0.0000000000
30
0.0000000000
9
$LIMMIN
10
0.0000000000
20
0.0000000000
9
$LIMMAX
10
17.0000000000
20
11.0000000000
9
$VIEWCTR
10
8.5000000000
20
5.5000000000
9
$VIEWSIZE
40
11.0000000000
9
$CLAYER
8
0
9
$LTSCALE
40
0.9350000000
9
$CELTYPE
6
BYLAYER
9
$DIMSCALE
40
1
9
$DIMASZ
40
0.1875000000
9
$DIMEXO
40
0.1062500000
9
$DIMDLI
40
0.6460000000
9
$DIMEXE
40
0.3060000000
9
$DIMCEN
40
0.1530000000
9
$DIMLFAC
40
1.0000000000
9
$DIMBLK
1
_CLOSED
9
$DIMTXT
40
0.1562500000
9
$DIMTOL
70
0
9
$DIMLIM
70
0
9
$DIMTFAC
40
1.0000000000
9
$PDMODE
70
3
9
$PDSIZE
40
0.3125000000
9
$HANDSEED
5
6AF
9
$MEASUREMENT
70
0
9
$INSUNITS
70
1
0
ENDSEC
0
SECTION
2
CLASSES
0
CLASS
1
ACDBDICTIONARYWDFLT
2
AcDbDictionaryWithDefault
3
AutoCAD 2000
90
0
280
0
281
0
0
CLASS
1
ACDBPLACEHOLDER
2
AcDbPlaceHolder
3
AutoCAD 2000
90
0
280
0
281
0
0
CLASS
1
LAYOUT
2
AcDbLayout
3
AutoCAD 2000
90
0
280
0
281
0
0
ENDSEC
0
SECTION
2
TABLES
0
TABLE
2
VPORT
5
8
100
AcDbSymbolTable
70
2
0
VPORT
5
1F4
100
AcDbSymbolTableRecord
100
AcDbViewportTableRecord
2
*ACTIVE
70
0
10
0.0
20
0.0
11
1.0
21
1.0
12
8.5000000000
22
5.5000000000
13
0.0
23
0.0
14
1.0
24
1.0
15
0.0
25
0.0
16
0.0
26
0.0
36
1.0
17
0.0
27
0.0
37
0.0
40
11.0000000000
41
1.5454545455
42
50.0
43
0.0
44
0.0
50
0.0
51
0.0
71
0
72
100
73
1
74
1
75
0
76
0
77
0
78
0
0
ENDTAB
0
TABLE
2
LTYPE
5
5
100
AcDbSymbolTable
70
6
0
LTYPE
5
14
100
AcDbSymbolTableRecord
100
AcDbLinetypeTableRecord
2
BYBLOCK
70
0
3

72
65
73
0
40
0.0
0
LTYPE
5
15
100
AcDbSymbolTableRecord
100
AcDbLinetypeTableRecord
2
BYLAYER
70
0
3

72
65
73
0
40
0.0
0
LTYPE
5
16
100
AcDbSymbolTableRecord
100
AcDbLinetypeTableRecord
2
CONTINUOUS
70
64
3
Solid line
72
65
73
0
40
0
0
LTYPE
5
1F5
100
AcDbSymbolTableRecord
100
AcDbLinetypeTableRecord
2
CENTER
70
64
3
____ _ ____ _ ____ _ ____ _ ____ _ ____ _ ____
72
65
73
4
40
0.6
49
0.375
74
0
49
-0.075
74
0
49
0.075
74
0
49
-0.075
74
0
0
LTYPE
5
1F6
100
AcDbSymbolTableRecord
100
AcDbLinetypeTableRecord
2
HIDDEN
70
64
3
- - - - - - - - - - - - - - - - - - - -
72
65
73
2
40
0.2
49
0.1
74
0
49
-0.1
74
0
0
LTYPE
5
1F7
100
AcDbSymbolTableRecord
100
AcDbLinetypeTableRecord
2
PHANTOM
70
64
3
_____ _ _ _____ _ _ _____ _ _ _____
72
65
73
6
40
0.8
49
0.45
74
0
49
-0.05
74
0
49
0.1
74
0
49
-0.05
74
0
49
0.1
74
0
49
-0.05
74
0
0
LTYPE
5
1F8
100
AcDbSymbolTableRecord
100
AcDbLinetypeTableRecord
2
DOT
70
64
3
. . . . . . . . . . . . . . . . . . . .
72
65
73
2
40
0.2
49
0.1
74
0
49
-0.1
74
0
0
LTYPE
5
1F9
100
AcDbSymbolTableRecord
100
AcDbLinetypeTableRecord
2
DASHED
70
64
3
- - - - - - - - - - - - - - - - - - - -
72
65
73
2
40
0.2
49
0.1
74
0
49
-0.1
74
0
0
ENDTAB
0
TABLE
2
LAYER
5
2
100
AcDbSymbolTable
70
36
0
LAYER
5
10
100
AcDbSymbolTableRecord
100
AcDbLayerTableRecord
2
0
70
0
62
7
6
CONTINUOUS
370
-3
390
F
0
LAYER
5
1FA
100
AcDbSymbolTableRecord
100
AcDbLayerTableRecord
2
DEFAULT_1
70
0
62
7
6
CENTER
370
-3
390
F
0
LAYER
5
1FB
100
AcDbSymbolTableRecord
100
AcDbLayerTableRecord
2
DEFAULT_2
70
0
62
8
6
HIDDEN
370
-3
390
F
0
LAYER
5
1FC
100
AcDbSymbolTableRecord
100
AcDbLayerTableRecord
2
DEFAULT_3
70
0
62
7
6
PHANTOM
370
-3
390
F
0
LAYER
5
1FD
100
AcDbSymbolTableRecord
100
AcDbLayerTableRecord
2
_2D_DELETED_OBJS
70
0
62
7
6
CONTINUOUS
370
-3
390
F
0
LAYER
5
1FE
100
AcDbSymbolTableRecord
100
AcDbLayerTableRecord
2
01___PRT_ALL_DTM_PLN
70
0
62
7
6
CONTINUOUS
370
-3
390
F
0
LAYER
5
1FF
100
AcDbSymbolTableRecord
100
AcDbLayerTableRecord
2
01___PRT_DEF_DTM_PLN
70
0
62
7
6
CONTINUOUS
370
-3
390
F
0
LAYER
5
200
100
AcDbSymbolTableRecord
100
AcDbLayerTableRecord
2
02___PRT_ALL_AXES
70
0
62
7
6
CONTINUOUS
370
-3
390
F
0
LAYER
5
201
100
AcDbSymbolTableRecord
100
AcDbLayerTableRecord
2
03___PRT_ALL_CURVES
70
0
62
7
6
CONTINUOUS
370
-3
390
F
0
LAYER
5
202
100
AcDbSymbolTableRecord
100
AcDbLayerTableRecord
2
04___PRT_ALL_DTM_PNT
70
0
62
7
6
CONTINUOUS
370
-3
390
F
0
LAYER
5
203
100
AcDbSymbolTableRecord
100
AcDbLayerTableRecord
2
05___PRT_ALL_DTM_CSYS
70
0
62
7
6
CONTINUOUS
370
-3
390
F
0
LAYER
5
204
100
AcDbSymbolTableRecord
100
AcDbLayerTableRecord
2
05___PRT_DEF_DTM_CSYS
70
0
62
7
6
CONTINUOUS
370
-3
390
F
0
LAYER
5
205
100
AcDbSymbolTableRecord
100
AcDbLayerTableRecord
2
06___PRT_ALL_SURFS
70
0
62
7
6
CONTINUOUS
370
-3
390
F
0
LAYER
5
206
100
AcDbSymbolTableRecord
100
AcDbLayerTableRecord
2
AXIS_PART
70
0
62
7
6
CONTINUOUS
370
-3
390
F
0
LAYER
5
207
100
AcDbSymbolTableRecord
100
AcDbLayerTableRecord
2
DATUM_PART
70
0
62
7
6
CONTINUOUS
370
-3
390
F
0
ENDTAB
0
TABLE
2
STYLE
5
3
100
AcDbSymbolTable
70
1
0
STYLE
5
11
100
AcDbSymbolTableRecord
100
AcDbTextStyleTableRecord
2
STANDARD
70
0
40
0.0
41
0.8000000000
50
0.0
71
0
42
0.2
3
txt
4

0
STYLE
5
208
100
AcDbSymbolTableRecord
100
AcDbTextStyleTableRecord
2
TEXTSTYLE_1
70
0
40
0.0
41
0.8000000000
50
0.0
71
0
42
0.2
3
txt
4

0
STYLE
5
209
100
AcDbSymbolTableRecord
100
AcDbTextStyleTableRecord
2
TEXTSTYLE_2
70
0
40
0.0
41
1.0000000000
50
0.0
71
0
42
0.2
3
txt
4

0
STYLE
5
20A
100
AcDbSymbolTableRecord
100
AcDbTextStyleTableRecord
2
TEXTSTYLE_3
70
0
40
0.0
41
1.0000000000
50
0.0
71
0
42
0.2
3
txt
4

0
STYLE
5
20B
100
AcDbSymbolTableRecord
100
AcDbTextStyleTableRecord
2
TEXTSTYLE_4
70
0
40
0.0
41
0.7500000000
50
0.0
71
0
42
0.2
3
txt
4

0
ENDTAB
0
TABLE
2
VIEW
5
6
100
AcDbSymbolTable
70
0
0
ENDTAB
0
TABLE
2
UCS
5
7
100
AcDbSymbolTable
70
0
0
ENDTAB
0
TABLE
2
APPID
5
9
100
AcDbSymbolTable
70
1
0
APPID
5
20C
100
AcDbSymbolTableRecord
100
AcDbRegAppTableRecord
2
ACAD
70
0
0
ENDTAB
0
TABLE
2
BLOCK_RECORD
5
1
100
AcDbSymbolTable
70
0
0
BLOCK_RECORD
5
1F
100
AcDbSymbolTableRecord
100
AcDbBlockTableRecord
2
*MODEL_SPACE
0
BLOCK_RECORD
5
1B
100
AcDbSymbolTableRecord
100
AcDbBlockTableRecord
2
*PAPER_SPACE
0
BLOCK_RECORD
5
20D
100
AcDbSymbolTableRecord
100
AcDbBlockTableRecord
2
_CLOSED
0
BLOCK_RECORD
5
20E
100
AcDbSymbolTableRecord
100
AcDbBlockTableRecord
2
RA_LOGO_BL0
0
BLOCK_RECORD
5
20F
100
AcDbSymbolTableRecord
100
AcDbBlockTableRecord
2
*D0
0
BLOCK_RECORD
5
210
100
AcDbSymbolTableRecord
100
AcDbBlockTableRecord
2
*D1
0
BLOCK_RECORD
5
211
100
AcDbSymbolTableRecord
100
AcDbBlockTableRecord
2
*D2
0
BLOCK_RECORD
5
212
100
AcDbSymbolTableRecord
100
AcDbBlockTableRecord
2
*D3
0
BLOCK_RECORD
5
213
100
AcDbSymbolTableRecord
100
AcDbBlockTableRecord
2
*D4
0
BLOCK_RECORD
5
214
100
AcDbSymbolTableRecord
100
AcDbBlockTableRecord
2
*D5
0
ENDTAB
0
TABLE
2
DIMSTYLE
5
A
100
AcDbSymbolTable
70
1
100
AcDbDimStyleTable
71
0
0
DIMSTYLE
105
215
100
AcDbSymbolTableRecord
100
AcDbDimStyleTableRecord
2
STANDARD
70
0
3

4

40
1.0
41
0.1875000000
42
0.0625
43
0.38
44
0.18
45
0.0
46
0.0
47
0.0500000000
48
0.0500000000
140
0.1562500000
141
0.09
142
0.0
143
25.4
144
1.0000000000
145
0.0
146
1.0000000000
147
0.09
71
0
72
0
73
1
74
1
75
0
76
0
77
0
78
4
170
0
171
2
172
0
173
0
174
0
175
0
176
0
177
0
178
0
270
2
271
2
272
2
273
2
274
2
275
0
280
0
281
0
282
0
283
1
284
4
285
0
286
0
287
3
288
0
340
11
341
20D
342
20D
343
20D
344
20D
0
DIMSTYLE
105
216
100
AcDbSymbolTableRecord
100
AcDbDimStyleTableRecord
2
DIMSTYLE_1
70
0
3

4

40
1.0
41
0.1875000000
42
0.0625
43
0.38
44
0.18
45
0.0
46
0.0
47
0.0000000000
48
0.0000000000
140
0.1562500000
141
0.09
142
0.0
143
25.4
144
1.0000000000
145
0.0
146
1.0000000000
147
0.09
71
0
72
0
73
1
74
1
75
0
76
0
77
0
78
4
170
0
171
2
172
0
173
0
174
0
175
0
176
0
177
0
178
0
270
2
271
2
272
2
273
2
274
2
275
0
280
0
281
0
282
0
283
1
284
4
285
0
286
0
287
3
288
0
340
11
341
20D
342
20D
343
20D
344
20D
0
ENDTAB
0
ENDSEC
0
SECTION
2
BLOCKS
0
BLOCK
5
20
100
AcDbEntity
8
0
100
AcDbBlockBegin
2
*MODEL_SPACE
70
0
10
0.0
20
0.0
30
0.0
3
*MODEL_SPACE
1

0
ENDBLK
5
21
100
AcDbEntity
8
0
100
AcDbBlockEnd
0
BLOCK
5
1C
100
AcDbEntity
8
0
100
AcDbBlockBegin
2
*PAPER_SPACE
70
0
10
0.0
20
0.0
30
0.0
3
*PAPER_SPACE
1

0
ENDBLK
5
1D
100
AcDbEntity
8
0
100
AcDbBlockEnd
0
BLOCK
5
217
100
AcDbEntity
8
0
100
AcDbBlockBegin
62
2
6
CONTINUOUS
2
RA_LOGO_BL0
70
64
10
11.3182009361
20
1.7343886760
3
RA_LOGO_BL0
1

0
SPLINE
5
218
100
AcDbEntity
8
0
100
AcDbSpline
62
2
6
CONTINUOUS
70
0
71
3
72
29
73
25
74
0
42
0.0000001000
43
0.0000001000
44
0.0000000001
40
0.0000000000
40
0.0000000000
40
0.0000000000
40
0.0000000000
40
1.0000000000
40
1.0000000000
40
1.0000000000
40
2.0000000000
40
2.0000000000
40
2.0000000000
40
3.0000000000
40
3.0000000000
40
3.0000000000
40
4.0000000000
40
4.0000000000
40
4.0000000000
40
5.0000000000
40
5.0000000000
40
5.0000000000
40
6.0000000000
40
6.0000000000
40
6.0000000000
40
7.0000000000
40
7.0000000000
40
7.0000000000
40
8.0000000000
40
8.0000000000
40
8.0000000000
40
8.0000000000
10
10.2570114165
20
1.4881584216
30
0.0000000000
10
10.2570114165
20
1.4881584216
30
0.0000000000
10
10.3444920041
20
1.4881584216
30
0.0000000000
10
10.3444920041
20
1.4881584216
30
0.0000000000
10
10.3444920041
20
1.4881584216
30
0.0000000000
10
10.3585840314
20
1.5376018607
30
0.0000000000
10
10.3585840314
20
1.5376018607
30
0.0000000000
10
10.3585840314
20
1.5376018607
30
0.0000000000
10
10.4326278466
20
1.5376018607
30
0.0000000000
10
10.4326278466
20
1.5376018607
30
0.0000000000
10
10.4326278466
20
1.5376018607
30
0.0000000000
10
10.4476987117
20
1.4881584216
30
0.0000000000
10
10.4476987117
20
1.4881584216
30
0.0000000000
10
10.4476987117
20
1.4881584216
30
0.0000000000
10
10.5397660843
20
1.4881584216
30
0.0000000000
10
10.5397660843
20
1.4881584216
30
0.0000000000
10
10.5397660843
20
1.4881584216
30
0.0000000000
10
10.4581827917
20
1.7168828652
30
0.0000000000
10
10.4581827917
20
1.7168828652
30
0.0000000000
10
10.4581827917
20
1.7168828652
30
0.0000000000
10
10.3372841990
20
1.7168828652
30
0.0000000000
10
10.3372841990
20
1.7168828652
30
0.0000000000
10
10.3372841990
20
1.7168828652
30
0.0000000000
10
10.2570114165
20
1.4881584216
30
0.0000000000
10
10.2570114165
20
1.4881584216
30
0.0000000000
0
SPLINE
5
219
100
AcDbEntity
8
0
100
AcDbSpline
62
2
6
CONTINUOUS
70
0
71
3
72
17
73
13
74
0
42
0.0000001000
43
0.0000001000
44
0.0000000001
40
0.0000000000
40
0.0000000000
40
0.0000000000
40
0.0000000000
40
1.0000000000
40
1.0000000000
40
1.0000000000
40
2.0000000000
40
2.0000000000
40
2.0000000000
40
3.0000000000
40
3.0000000000
40
3.0000000000
40
4.0000000000
40
4.0000000000
40
4.0000000000
40
4.0000000000
10
10.3961115370
20
1.6678762627
30
0.0000000000
10
10.3961115370
20
1.6678762627
30
0.0000000000
10
10.3967667920
20
1.6678762627
30
0.0000000000
10
10.3967667920
20
1.6678762627
30
0.0000000000
10
10.3967667920
20
1.6678762627
30
0.0000000000
10
10.4216826612
20
1.5924653104
30
0.0000000000
10
10.4216826612
20
1.5924653104
30
0.0000000000
10
10.4216826612
20
1.5924653104
30
0.0000000000
10
10.3708720851
20
1.5924653104
30
0.0000000000
10
10.3708720851
20
1.5924653104
30
0.0000000000
10
10.3708720851
20
1.5924653104
30
0.0000000000
10
10.3961115370
20
1.6678762627
30
0.0000000000
10
10.3961115370
20
1.6678762627
30
0.0000000000
0
SPLINE
5
21A
100
AcDbEntity
8
0
100
AcDbSpline
62
2
6
CONTINUOUS
70
0
71
3
72
44
73
40
74
0
42
0.0000001000
43
0.0000001000
44
0.0000000001
40
0.0000000000
40
0.0000000000
40
0.0000000000
40
0.0000000000
40
1.0000000000
40
1.0000000000
40
1.0000000000
40
2.0000000000
40
2.0000000000
40
2.0000000000
40
3.0000000000
40
3.0000000000
40
3.0000000000
40
4.0000000000
40
4.0000000000
40
4.0000000000
40
5.0000000000
40
5.0000000000
40
5.0000000000
40
6.0000000000
40
6.0000000000
40
6.0000000000
40
7.0000000000
40
7.0000000000
40
7.0000000000
40
8.0000000000
40
8.0000000000
40
8.0000000000
40
9.0000000000
40
9.0000000000
40
9.0000000000
40
10.0000000000
40
10.0000000000
40
10.0000000000
40
11.0000000000
40
11.0000000000
40
11.0000000000
40
12.0000000000
40
12.0000000000
40
12.0000000000
40
13.0000000000
40
13.0000000000
40
13.0000000000
40
13.0000000000
10
10.7376207367
20
1.4881584216
30
0.0000000000
10
10.7376207367
20
1.4881584216
30
0.0000000000
10
10.6596777497
20
1.4881584216
30
0.0000000000
10
10.6596777497
20
1.4881584216
30
0.0000000000
10
10.6596777497
20
1.4881584216
30
0.0000000000
10
10.6596777497
20
1.5175073740
30
0.0000000000
10
10.6596777497
20
1.5175073740
30
0.0000000000
10
10.6596777497
20
1.5175073740
30
0.0000000000
10
10.6590224947
20
1.5175073740
30
0.0000000000
10
10.6590224947
20
1.5175073740
30
0.0000000000
10
10.6491613114
20
1.4935784321
30
0.0000000000
10
10.6264377151
20
1.4840651002
30
0.0000000000
10
10.6031802073
20
1.4844372203
30
0.0000000000
10
10.5592943013
20
1.4844372203
30
0.0000000000
10
10.5432526881
20
1.5073954141
30
0.0000000000
10
10.5432526881
20
1.5401419851
30
0.0000000000
10
10.5432526881
20
1.5401419851
30
0.0000000000
10
10.5432526881
20
1.6590748128
30
0.0000000000
10
10.5432526881
20
1.6590748128
30
0.0000000000
10
10.5432526881
20
1.6590748128
30
0.0000000000
10
10.6257743705
20
1.6590748128
30
0.0000000000
10
10.6257743705
20
1.6590748128
30
0.0000000000
10
10.6257743705
20
1.6590748128
30
0.0000000000
10
10.6257743705
20
1.5605115171
30
0.0000000000
10
10.6257743705
20
1.5605115171
30
0.0000000000
10
10.6257743705
20
1.5506422442
30
0.0000000000
10
10.6257743705
20
1.5371812032
30
0.0000000000
10
10.6402627866
20
1.5371812032
30
0.0000000000
10
10.6550909647
20
1.5371812032
30
0.0000000000
10
10.6550909647
20
1.5506422442
30
0.0000000000
10
10.6550909647
20
1.5605115171
30
0.0000000000
10
10.6550909647
20
1.5605115171
30
0.0000000000
10
10.6550909647
20
1.6590748128
30
0.0000000000
10
10.6550909647
20
1.6590748128
30
0.0000000000
10
10.6550909647
20
1.6590748128
30
0.0000000000
10
10.7376207367
20
1.6590748128
30
0.0000000000
10
10.7376207367
20
1.6590748128
30
0.0000000000
10
10.7376207367
20
1.6590748128
30
0.0000000000
10
10.7376207367
20
1.4881584216
30
0.0000000000
10
10.7376207367
20
1.4881584216
30
0.0000000000
0
SPLINE
5
21B
100
AcDbEntity
8
0
100
AcDbSpline
62
2
6
CONTINUOUS
70
0
71
3
72
17
73
13
74
0
42
0.0000001000
43
0.0000001000
44
0.0000000001
40
0.0000000000
40
0.0000000000
40
0.0000000000
40
0.0000000000
40
1.0000000000
40
1.0000000000
40
1.0000000000
40
2.0000000000
40
2.0000000000
40
2.0000000000
40
3.0000000000
40
3.0000000000
40
3.0000000000
40
4.0000000000
40
4.0000000000
40
4.0000000000
40
4.0000000000
10
10.9121450752
20
1.5767391904
30
0.0000000000
10
10.9121450752
20
1.5177177028
30
0.0000000000
10
10.9488798031
20
1.4843886829
30
0.0000000000
10
11.0179242654
20
1.4843886829
30
0.0000000000
10
11.0866451449
20
1.4843886829
30
0.0000000000
10
11.1240270383
20
1.5177177028
30
0.0000000000
10
11.1240270383
20
1.5767391904
30
0.0000000000
10
11.1240270383
20
1.6340942270
30
0.0000000000
10
11.0866451449
20
1.6628607306
30
0.0000000000
10
11.0179242654
20
1.6628607306
30
0.0000000000
10
10.9488798031
20
1.6628607306
30
0.0000000000
10
10.9121450752
20
1.6340942270
30
0.0000000000
10
10.9121450752
20
1.5767391904
30
0.0000000000
0
SPLINE
5
21C
100
AcDbEntity
8
0
100
AcDbSpline
62
2
6
CONTINUOUS
70
0
71
3
72
17
73
13
74
0
42
0.0000001000
43
0.0000001000
44
0.0000000001
40
0.0000000000
40
0.0000000000
40
0.0000000000
40
0.0000000000
40
1.0000000000
40
1.0000000000
40
1.0000000000
40
2.0000000000
40
2.0000000000
40
2.0000000000
40
3.0000000000
40
3.0000000000
40
3.0000000000
40
4.0000000000
40
4.0000000000
40
4.0000000000
40
4.0000000000
10
11.0000382307
20
1.5767391904
30
0.0000000000
10
11.0000382307
20
1.5970925433
30
0.0000000000
10
11.0019878166
20
1.6138379489
30
0.0000000000
10
11.0179242654
20
1.6138379489
30
0.0000000000
10
11.0338607142
20
1.6138379489
30
0.0000000000
10
11.0361419724
20
1.5970925433
30
0.0000000000
10
11.0361419724
20
1.5767391904
30
0.0000000000
10
11.0361419724
20
1.5518071420
30
0.0000000000
10
11.0338607142
20
1.5334114646
30
0.0000000000
10
11.0179242654
20
1.5334114646
30
0.0000000000
10
11.0019878166
20
1.5334114646
30
0.0000000000
10
11.0000382307
20
1.5518071420
30
0.0000000000
10
11.0000382307
20
1.5767391904
30
0.0000000000
0
SPLINE
5
21D
100
AcDbEntity
8
0
100
AcDbSpline
62
2
6
CONTINUOUS
70
0
71
3
72
68
73
64
74
0
42
0.0000001000
43
0.0000001000
44
0.0000000001
40
0.0000000000
40
0.0000000000
40
0.0000000000
40
0.0000000000
40
1.0000000000
40
1.0000000000
40
1.0000000000
40
2.0000000000
40
2.0000000000
40
2.0000000000
40
3.0000000000
40
3.0000000000
40
3.0000000000
40
4.0000000000
40
4.0000000000
40
4.0000000000
40
5.0000000000
40
5.0000000000
40
5.0000000000
40
6.0000000000
40
6.0000000000
40
6.0000000000
40
7.0000000000
40
7.0000000000
40
7.0000000000
40
8.0000000000
40
8.0000000000
40
8.0000000000
40
9.0000000000
40
9.0000000000
40
9.0000000000
40
10.0000000000
40
10.0000000000
40
10.0000000000
40
11.0000000000
40
11.0000000000
40
11.0000000000
40
12.0000000000
40
12.0000000000
40
12.0000000000
40
13.0000000000
40
13.0000000000
40
13.0000000000
40
14.0000000000
40
14.0000000000
40
14.0000000000
40
15.0000000000
40
15.0000000000
40
15.0000000000
40
16.0000000000
40
16.0000000000
40
16.0000000000
40
17.0000000000
40
17.0000000000
40
17.0000000000
40
18.0000000000
40
18.0000000000
40
18.0000000000
40
19.0000000000
40
19.0000000000
40
19.0000000000
40
20.0000000000
40
20.0000000000
40
20.0000000000
40
21.0000000000
40
21.0000000000
40
21.0000000000
40
21.0000000000
10
11.1446068991
20
1.6590748128
30
0.0000000000
10
11.1446068991
20
1.6590748128
30
0.0000000000
10
11.2225417966
20
1.6590748128
30
0.0000000000
10
11.2225417966
20
1.6590748128
30
0.0000000000
10
11.2225417966
20
1.6590748128
30
0.0000000000
10
11.2225417966
20
1.6293375611
30
0.0000000000
10
11.2225417966
20
1.6293375611
30
0.0000000000
10
11.2225417966
20
1.6293375611
30
0.0000000000
10
11.2232051411
20
1.6293375611
30
0.0000000000
10
11.2232051411
20
1.6293375611
30
0.0000000000
10
11.2330663244
20
1.6532665030
30
0.0000000000
10
11.2557980103
20
1.6627636557
30
0.0000000000
10
11.2816684486
20
1.6628121931
30
0.0000000000
10
11.3045942841
20
1.6628121931
30
0.0000000000
10
11.3284908677
20
1.6539622058
30
0.0000000000
10
11.3350434177
20
1.6336250321
30
0.0000000000
10
11.3350434177
20
1.6336250321
30
0.0000000000
10
11.3357067623
20
1.6336250321
30
0.0000000000
10
11.3357067623
20
1.6336250321
30
0.0000000000
10
11.3412723851
20
1.6532988613
30
0.0000000000
10
11.3702653965
20
1.6628121931
30
0.0000000000
10
11.3905540329
20
1.6628121931
30
0.0000000000
10
11.4508213139
20
1.6628121931
30
0.0000000000
10
11.4508213139
20
1.6237881175
30
0.0000000000
10
11.4508213139
20
1.5906856055
30
0.0000000000
10
11.4508213139
20
1.5906856055
30
0.0000000000
10
11.4508213139
20
1.4881584216
30
0.0000000000
10
11.4508213139
20
1.4881584216
30
0.0000000000
10
11.4508213139
20
1.4881584216
30
0.0000000000
10
11.3682915419
20
1.4881584216
30
0.0000000000
10
11.3682915419
20
1.4881584216
30
0.0000000000
10
11.3682915419
20
1.4881584216
30
0.0000000000
10
11.3682915419
20
1.5867378963
30
0.0000000000
10
11.3682915419
20
1.5867378963
30
0.0000000000
10
11.3682915419
20
1.5965909901
30
0.0000000000
10
11.3682915419
20
1.6100682102
30
0.0000000000
10
11.3534714535
20
1.6100682102
30
0.0000000000
10
11.3389749478
20
1.6100682102
30
0.0000000000
10
11.3389749478
20
1.5965909901
30
0.0000000000
10
11.3389749478
20
1.5867378963
30
0.0000000000
10
11.3389749478
20
1.5867378963
30
0.0000000000
10
11.3389749478
20
1.4881584216
30
0.0000000000
10
11.3389749478
20
1.4881584216
30
0.0000000000
10
11.3389749478
20
1.4881584216
30
0.0000000000
10
11.2564532653
20
1.4881584216
30
0.0000000000
10
11.2564532653
20
1.4881584216
30
0.0000000000
10
11.2564532653
20
1.4881584216
30
0.0000000000
10
11.2564532653
20
1.5867378963
30
0.0000000000
10
11.2564532653
20
1.5867378963
30
0.0000000000
10
11.2564532653
20
1.5965909901
30
0.0000000000
10
11.2564532653
20
1.6100682102
30
0.0000000000
10
11.2419648492
20
1.6100682102
30
0.0000000000
10
11.2271366711
20
1.6100682102
30
0.0000000000
10
11.2271366711
20
1.5965909901
30
0.0000000000
10
11.2271366711
20
1.5867378963
30
0.0000000000
10
11.2271366711
20
1.5867378963
30
0.0000000000
10
11.2271366711
20
1.4881584216
30
0.0000000000
10
11.2271366711
20
1.4881584216
30
0.0000000000
10
11.2271366711
20
1.4881584216
30
0.0000000000
10
11.1446068991
20
1.4881584216
30
0.0000000000
10
11.1446068991
20
1.4881584216
30
0.0000000000
10
11.1446068991
20
1.4881584216
30
0.0000000000
10
11.1446068991
20
1.6590748128
30
0.0000000000
10
11.1446068991
20
1.6590748128
30
0.0000000000
0
SPLINE
5
21E
100
AcDbEntity
8
0
100
AcDbSpline
62
2
6
CONTINUOUS
70
0
71
3
72
44
73
40
74
0
42
0.0000001000
43
0.0000001000
44
0.0000000001
40
0.0000000000
40
0.0000000000
40
0.0000000000
40
0.0000000000
40
1.0000000000
40
1.0000000000
40
1.0000000000
40
2.0000000000
40
2.0000000000
40
2.0000000000
40
3.0000000000
40
3.0000000000
40
3.0000000000
40
4.0000000000
40
4.0000000000
40
4.0000000000
40
5.0000000000
40
5.0000000000
40
5.0000000000
40
6.0000000000
40
6.0000000000
40
6.0000000000
40
7.0000000000
40
7.0000000000
40
7.0000000000
40
8.0000000000
40
8.0000000000
40
8.0000000000
40
9.0000000000
40
9.0000000000
40
9.0000000000
40
10.0000000000
40
10.0000000000
40
10.0000000000
40
11.0000000000
40
11.0000000000
40
11.0000000000
40
12.0000000000
40
12.0000000000
40
12.0000000000
40
13.0000000000
40
13.0000000000
40
13.0000000000
40
13.0000000000
10
11.4894085530
20
1.6050688573
30
0.0000000000
10
11.5058141967
20
1.6133849331
30
0.0000000000
10
11.5267823568
20
1.6196947961
30
0.0000000000
10
11.5464561860
20
1.6196947961
30
0.0000000000
10
11.5670684051
20
1.6196947961
30
0.0000000000
10
11.5896544787
20
1.6170414178
30
0.0000000000
10
11.5899780614
20
1.5947951060
30
0.0000000000
10
11.5824385841
20
1.5954422714
30
0.0000000000
10
11.5693658424
20
1.5970925433
30
0.0000000000
10
11.5579110142
20
1.5970925433
30
0.0000000000
10
11.5169454422
20
1.5970925433
30
0.0000000000
10
11.4697509029
20
1.5866408215
30
0.0000000000
10
11.4697509029
20
1.5343983918
30
0.0000000000
10
11.4697509029
20
1.4987881138
30
0.0000000000
10
11.5005721567
20
1.4843886829
30
0.0000000000
10
11.5323479795
20
1.4843886829
30
0.0000000000
10
11.5555488603
20
1.4843725038
30
0.0000000000
10
11.5765331995
20
1.4935460738
30
0.0000000000
10
11.5880042069
20
1.5128801412
30
0.0000000000
10
11.5880042069
20
1.5128801412
30
0.0000000000
10
11.5886675514
20
1.5128801412
30
0.0000000000
10
11.5886675514
20
1.5128801412
30
0.0000000000
10
11.5886675514
20
1.5128801412
30
0.0000000000
10
11.5886675514
20
1.4881907798
30
0.0000000000
10
11.5886675514
20
1.4881907798
30
0.0000000000
10
11.5886675514
20
1.4881907798
30
0.0000000000
10
11.6653728345
20
1.4881907798
30
0.0000000000
10
11.6653728345
20
1.4881907798
30
0.0000000000
10
11.6653728345
20
1.4881907798
30
0.0000000000
10
11.6653728345
20
1.5918505033
30
0.0000000000
10
11.6653728345
20
1.5918505033
30
0.0000000000
10
11.6653728345
20
1.6543505051
30
0.0000000000
10
11.6080016188
20
1.6628607306
30
0.0000000000
10
11.5608556169
20
1.6628607306
30
0.0000000000
10
11.5287562114
20
1.6628607306
30
0.0000000000
10
11.5140008395
20
1.6599161278
30
0.0000000000
10
11.4894085530
20
1.6530399951
30
0.0000000000
10
11.4894085530
20
1.6530399951
30
0.0000000000
10
11.4894085530
20
1.6050688573
30
0.0000000000
10
11.4894085530
20
1.6050688573
30
0.0000000000
0
SPLINE
5
21F
100
AcDbEntity
8
0
100
AcDbSpline
62
2
6
CONTINUOUS
70
0
71
3
72
20
73
16
74
0
42
0.0000001000
43
0.0000001000
44
0.0000000001
40
0.0000000000
40
0.0000000000
40
0.0000000000
40
0.0000000000
40
1.0000000000
40
1.0000000000
40
1.0000000000
40
2.0000000000
40
2.0000000000
40
2.0000000000
40
3.0000000000
40
3.0000000000
40
3.0000000000
40
4.0000000000
40
4.0000000000
40
4.0000000000
40
5.0000000000
40
5.0000000000
40
5.0000000000
40
5.0000000000
10
11.5899780614
20
1.5579228554
30
0.0000000000
10
11.5899780614
20
1.5432160209
30
0.0000000000
10
11.5814678360
20
1.5275222591
30
0.0000000000
10
11.5644473851
20
1.5275222591
30
0.0000000000
10
11.5516982260
20
1.5275222591
30
0.0000000000
10
11.5451456760
20
1.5321009546
30
0.0000000000
10
11.5451456760
20
1.5438631863
30
0.0000000000
10
11.5451456760
20
1.5615146235
30
0.0000000000
10
11.5647709678
20
1.5631487163
30
0.0000000000
10
11.5817914187
20
1.5631487163
30
0.0000000000
10
11.5817914187
20
1.5631487163
30
0.0000000000
10
11.5899780614
20
1.5631487163
30
0.0000000000
10
11.5899780614
20
1.5631487163
30
0.0000000000
10
11.5899780614
20
1.5631487163
30
0.0000000000
10
11.5899780614
20
1.5579228554
30
0.0000000000
10
11.5899780614
20
1.5579228554
30
0.0000000000
0
SPLINE
5
220
100
AcDbEntity
8
0
100
AcDbSpline
62
2
6
CONTINUOUS
70
0
71
3
72
17
73
13
74
0
42
0.0000001000
43
0.0000001000
44
0.0000000001
40
0.0000000000
40
0.0000000000
40
0.0000000000
40
0.0000000000
40
1.0000000000
40
1.0000000000
40
1.0000000000
40
2.0000000000
40
2.0000000000
40
2.0000000000
40
3.0000000000
40
3.0000000000
40
3.0000000000
40
4.0000000000
40
4.0000000000
40
4.0000000000
40
4.0000000000
10
11.9327815920
20
1.6789751499
30
0.0000000000
10
11.9327815920
20
1.6789751499
30
0.0000000000
10
11.8502679991
20
1.6789751499
30
0.0000000000
10
11.8502679991
20
1.6789751499
30
0.0000000000
10
11.8502679991
20
1.6789751499
30
0.0000000000
10
11.8502679991
20
1.7167372530
30
0.0000000000
10
11.8502679991
20
1.7167372530
30
0.0000000000
10
11.8502679991
20
1.7167372530
30
0.0000000000
10
11.9327815920
20
1.7167372530
30
0.0000000000
10
11.9327815920
20
1.7167372530
30
0.0000000000
10
11.9327815920
20
1.7167372530
30
0.0000000000
10
11.9327815920
20
1.6789751499
30
0.0000000000
10
11.9327815920
20
1.6789751499
30
0.0000000000
0
SPLINE
5
221
100
AcDbEntity
8
0
100
AcDbSpline
62
2
6
CONTINUOUS
70
0
71
3
72
17
73
13
74
0
42
0.0000001000
43
0.0000001000
44
0.0000000001
40
0.0000000000
40
0.0000000000
40
0.0000000000
40
0.0000000000
40
1.0000000000
40
1.0000000000
40
1.0000000000
40
2.0000000000
40
2.0000000000
40
2.0000000000
40
3.0000000000
40
3.0000000000
40
3.0000000000
40
4.0000000000
40
4.0000000000
40
4.0000000000
40
4.0000000000
10
11.8502679991
20
1.6586865135
30
0.0000000000
10
11.8502679991
20
1.6586865135
30
0.0000000000
10
11.9327815920
20
1.6586865135
30
0.0000000000
10
11.9327815920
20
1.6586865135
30
0.0000000000
10
11.9327815920
20
1.6586865135
30
0.0000000000
10
11.9327815920
20
1.4881584216
30
0.0000000000
10
11.9327815920
20
1.4881584216
30
0.0000000000
10
11.9327815920
20
1.4881584216
30
0.0000000000
10
11.8502679991
20
1.4881584216
30
0.0000000000
10
11.8502679991
20
1.4881584216
30
0.0000000000
10
11.8502679991
20
1.4881584216
30
0.0000000000
10
11.8502679991
20
1.6586865135
30
0.0000000000
10
11.8502679991
20
1.6586865135
30
0.0000000000
0
SPLINE
5
222
100
AcDbEntity
8
0
100
AcDbSpline
62
2
6
CONTINUOUS
70
0
71
3
72
17
73
13
74
0
42
0.0000001000
43
0.0000001000
44
0.0000000001
40
0.0000000000
40
0.0000000000
40
0.0000000000
40
0.0000000000
40
1.0000000000
40
1.0000000000
40
1.0000000000
40
2.0000000000
40
2.0000000000
40
2.0000000000
40
3.0000000000
40
3.0000000000
40
3.0000000000
40
4.0000000000
40
4.0000000000
40
4.0000000000
40
4.0000000000
10
11.9506109997
20
1.5767391904
30
0.0000000000
10
11.9506109997
20
1.5177177028
30
0.0000000000
10
11.9873376381
20
1.4843886829
30
0.0000000000
10
12.0563901899
20
1.4843886829
30
0.0000000000
10
12.1251029799
20
1.4843886829
30
0.0000000000
10
12.1624929629
20
1.5177177028
30
0.0000000000
10
12.1624929629
20
1.5767391904
30
0.0000000000
10
12.1624929629
20
1.6340942270
30
0.0000000000
10
12.1251029799
20
1.6628607306
30
0.0000000000
10
12.0563901899
20
1.6628607306
30
0.0000000000
10
11.9873376381
20
1.6628607306
30
0.0000000000
10
11.9506109997
20
1.6340942270
30
0.0000000000
10
11.9506109997
20
1.5767391904
30
0.0000000000
0
SPLINE
5
223
100
AcDbEntity
8
0
100
AcDbSpline
62
2
6
CONTINUOUS
70
0
71
3
72
17
73
13
74
0
42
0.0000001000
43
0.0000001000
44
0.0000000001
40
0.0000000000
40
0.0000000000
40
0.0000000000
40
0.0000000000
40
1.0000000000
40
1.0000000000
40
1.0000000000
40
2.0000000000
40
2.0000000000
40
2.0000000000
40
3.0000000000
40
3.0000000000
40
3.0000000000
40
4.0000000000
40
4.0000000000
40
4.0000000000
40
4.0000000000
10
12.0384960657
20
1.5767391904
30
0.0000000000
10
12.0384960657
20
1.5970925433
30
0.0000000000
10
12.0404537411
20
1.6138379489
30
0.0000000000
10
12.0563901899
20
1.6138379489
30
0.0000000000
10
12.0723266387
20
1.6138379489
30
0.0000000000
10
12.0746078969
20
1.5970925433
30
0.0000000000
10
12.0746078969
20
1.5767391904
30
0.0000000000
10
12.0746078969
20
1.5518071420
30
0.0000000000
10
12.0723266387
20
1.5334114646
30
0.0000000000
10
12.0563901899
20
1.5334114646
30
0.0000000000
10
12.0404537411
20
1.5334114646
30
0.0000000000
10
12.0384960657
20
1.5518071420
30
0.0000000000
10
12.0384960657
20
1.5767391904
30
0.0000000000
0
SPLINE
5
224
100
AcDbEntity
8
0
100
AcDbSpline
62
2
6
CONTINUOUS
70
0
71
3
72
44
73
40
74
0
42
0.0000001000
43
0.0000001000
44
0.0000000001
40
0.0000000000
40
0.0000000000
40
0.0000000000
40
0.0000000000
40
1.0000000000
40
1.0000000000
40
1.0000000000
40
2.0000000000
40
2.0000000000
40
2.0000000000
40
3.0000000000
40
3.0000000000
40
3.0000000000
40
4.0000000000
40
4.0000000000
40
4.0000000000
40
5.0000000000
40
5.0000000000
40
5.0000000000
40
6.0000000000
40
6.0000000000
40
6.0000000000
40
7.0000000000
40
7.0000000000
40
7.0000000000
40
8.0000000000
40
8.0000000000
40
8.0000000000
40
9.0000000000
40
9.0000000000
40
9.0000000000
40
10.0000000000
40
10.0000000000
40
10.0000000000
40
11.0000000000
40
11.0000000000
40
11.0000000000
40
12.0000000000
40
12.0000000000
40
12.0000000000
40
13.0000000000
40
13.0000000000
40
13.0000000000
40
13.0000000000
10
12.1839141387
20
1.6590748128
30
0.0000000000
10
12.1839141387
20
1.6590748128
30
0.0000000000
10
12.2618490362
20
1.6590748128
30
0.0000000000
10
12.2618490362
20
1.6590748128
30
0.0000000000
10
12.2618490362
20
1.6590748128
30
0.0000000000
10
12.2618490362
20
1.6293375611
30
0.0000000000
10
12.2618490362
20
1.6293375611
30
0.0000000000
10
12.2618490362
20
1.6293375611
30
0.0000000000
10
12.2625123807
20
1.6293375611
30
0.0000000000
10
12.2625123807
20
1.6293375611
30
0.0000000000
10
12.2723654745
20
1.6532665030
30
0.0000000000
10
12.2950971604
20
1.6627636557
30
0.0000000000
10
12.3183465786
20
1.6628121931
30
0.0000000000
10
12.3622405742
20
1.6628121931
30
0.0000000000
10
12.3782740978
20
1.6398539994
30
0.0000000000
10
12.3782740978
20
1.6071074284
30
0.0000000000
10
12.3782740978
20
1.6071074284
30
0.0000000000
10
12.3782740978
20
1.4881584216
30
0.0000000000
10
12.3782740978
20
1.4881584216
30
0.0000000000
10
12.3782740978
20
1.4881584216
30
0.0000000000
10
12.2957605049
20
1.4881584216
30
0.0000000000
10
12.2957605049
20
1.4881584216
30
0.0000000000
10
12.2957605049
20
1.4881584216
30
0.0000000000
10
12.2957605049
20
1.5867378963
30
0.0000000000
10
12.2957605049
20
1.5867378963
30
0.0000000000
10
12.2957605049
20
1.5965909901
30
0.0000000000
10
12.2957605049
20
1.6100682102
30
0.0000000000
10
12.2812478201
20
1.6100682102
30
0.0000000000
10
12.2664277316
20
1.6100682102
30
0.0000000000
10
12.2664277316
20
1.5965909901
30
0.0000000000
10
12.2664277316
20
1.5867378963
30
0.0000000000
10
12.2664277316
20
1.5867378963
30
0.0000000000
10
12.2664277316
20
1.4881584216
30
0.0000000000
10
12.2664277316
20
1.4881584216
30
0.0000000000
10
12.2664277316
20
1.4881584216
30
0.0000000000
10
12.1839141387
20
1.4881584216
30
0.0000000000
10
12.1839141387
20
1.4881584216
30
0.0000000000
10
12.1839141387
20
1.4881584216
30
0.0000000000
10
12.1839141387
20
1.6590748128
30
0.0000000000
10
12.1839141387
20
1.6590748128
30
0.0000000000
0
LINE
5
225
100
AcDbEntity
8
0
100
AcDbLine
62
2
6
CONTINUOUS
10
11.7951295118
20
1.6592851254
11
11.7951295118
21
1.7168181325
0
LINE
5
226
100
AcDbEntity
8
0
100
AcDbLine
62
2
6
CONTINUOUS
10
11.7951295118
20
1.7168181325
11
11.7124864858
21
1.7168181325
0
LINE
5
227
100
AcDbEntity
8
0
100
AcDbLine
62
2
6
CONTINUOUS
10
11.7124864858
20
1.7168181325
11
11.7124864858
21
1.6592851254
0
LINE
5
228
100
AcDbEntity
8
0
100
AcDbLine
62
2
6
CONTINUOUS
10
11.7124864858
20
1.6592851254
11
11.6773454028
21
1.6592851254
0
LINE
5
229
100
AcDbEntity
8
0
100
AcDbLine
62
2
6
CONTINUOUS
10
11.6773454028
20
1.6592851254
11
11.6773454028
21
1.6112978085
0
LINE
5
22A
100
AcDbEntity
8
0
100
AcDbLine
62
2
6
CONTINUOUS
10
11.6773454028
20
1.6112978085
11
11.7124864858
21
1.6112978085
0
LINE
5
22B
100
AcDbEntity
8
0
100
AcDbLine
62
2
6
CONTINUOUS
10
11.7124864858
20
1.6112978085
11
11.7124864858
21
1.4881584054
0
LINE
5
22C
100
AcDbEntity
8
0
100
AcDbLine
62
2
6
CONTINUOUS
10
11.7124864858
20
1.4881584054
11
11.7951295118
21
1.4881584054
0
LINE
5
22D
100
AcDbEntity
8
0
100
AcDbLine
62
2
6
CONTINUOUS
10
11.7951295118
20
1.4881584054
11
11.7951295118
21
1.6112978085
0
LINE
5
22E
100
AcDbEntity
8
0
100
AcDbLine
62
2
6
CONTINUOUS
10
11.7951295118
20
1.6112978085
11
11.8306588941
21
1.6112978085
0
LINE
5
22F
100
AcDbEntity
8
0
100
AcDbLine
62
2
6
CONTINUOUS
10
11.8306588941
20
1.6112978085
11
11.8306588941
21
1.6592851254
0
LINE
5
230
100
AcDbEntity
8
0
100
AcDbLine
62
2
6
CONTINUOUS
10
11.8306588941
20
1.6592851254
11
11.7951295118
21
1.6592851254
0
LINE
5
231
100
AcDbEntity
8
0
100
AcDbLine
62
2
6
CONTINUOUS
10
10.7909148179
20
1.7168181325
11
10.7909148179
21
1.6589291844
0
LINE
5
232
100
AcDbEntity
8
0
100
AcDbLine
62
2
6
CONTINUOUS
10
10.7909148179
20
1.6589291844
11
10.7557818244
21
1.6589291844
0
LINE
5
233
100
AcDbEntity
8
0
100
AcDbLine
62
2
6
CONTINUOUS
10
10.7557818244
20
1.6589291844
11
10.7557818244
21
1.6112978085
0
LINE
5
234
100
AcDbEntity
8
0
100
AcDbLine
62
2
6
CONTINUOUS
10
10.7557818244
20
1.6112978085
11
10.7909148179
21
1.6112978085
0
LINE
5
235
100
AcDbEntity
8
0
100
AcDbLine
62
2
6
CONTINUOUS
10
10.7909148179
20
1.6112978085
11
10.7909148179
21
1.4881584054
0
LINE
5
236
100
AcDbEntity
8
0
100
AcDbLine
62
2
6
CONTINUOUS
10
10.7909148179
20
1.4881584054
11
10.8735740230
21
1.4881584054
0
LINE
5
237
100
AcDbEntity
8
0
100
AcDbLine
62
2
6
CONTINUOUS
10
10.8735740230
20
1.4881584054
11
10.8735740230
21
1.6112978085
0
LINE
5
238
100
AcDbEntity
8
0
100
AcDbLine
62
2
6
CONTINUOUS
10
10.8735740230
20
1.6112978085
11
10.9090953157
21
1.6112978085
0
LINE
5
239
100
AcDbEntity
8
0
100
AcDbLine
62
2
6
CONTINUOUS
10
10.9090953157
20
1.6112978085
11
10.9090953157
21
1.6589291844
0
LINE
5
23A
100
AcDbEntity
8
0
100
AcDbLine
62
2
6
CONTINUOUS
10
10.9090953157
20
1.6589291844
11
10.8735740230
21
1.6589291844
0
LINE
5
23B
100
AcDbEntity
8
0
100
AcDbLine
62
2
6
CONTINUOUS
10
10.8735740230
20
1.6589291844
11
10.8735740230
21
1.7168181325
0
LINE
5
23C
100
AcDbEntity
8
0
100
AcDbLine
62
2
6
CONTINUOUS
10
10.8735740230
20
1.7168181325
11
10.7909148179
21
1.7168181325
0
SPLINE
5
23D
100
AcDbEntity
8
0
100
AcDbSpline
62
2
6
CONTINUOUS
70
0
71
3
72
44
73
40
74
0
42
0.0000001000
43
0.0000001000
44
0.0000000001
40
0.0000000000
40
0.0000000000
40
0.0000000000
40
0.0000000000
40
1.0000000000
40
1.0000000000
40
1.0000000000
40
2.0000000000
40
2.0000000000
40
2.0000000000
40
3.0000000000
40
3.0000000000
40
3.0000000000
40
4.0000000000
40
4.0000000000
40
4.0000000000
40
5.0000000000
40
5.0000000000
40
5.0000000000
40
6.0000000000
40
6.0000000000
40
6.0000000000
40
7.0000000000
40
7.0000000000
40
7.0000000000
40
8.0000000000
40
8.0000000000
40
8.0000000000
40
9.0000000000
40
9.0000000000
40
9.0000000000
40
10.0000000000
40
10.0000000000
40
10.0000000000
40
11.0000000000
40
11.0000000000
40
11.0000000000
40
12.0000000000
40
12.0000000000
40
12.0000000000
40
13.0000000000
40
13.0000000000
40
13.0000000000
40
13.0000000000
10
10.8071748393
20
1.7592721797
30
0.0000000000
10
10.8071748393
20
1.7592721797
30
0.0000000000
10
10.8936765891
20
1.7592721797
30
0.0000000000
10
10.8936765891
20
1.7592721797
30
0.0000000000
10
10.8936765891
20
1.7592721797
30
0.0000000000
10
10.8936765891
20
1.8359612837
30
0.0000000000
10
10.8936765891
20
1.8359612837
30
0.0000000000
10
10.8936765891
20
1.8359612837
30
0.0000000000
10
10.9129702086
20
1.8359612837
30
0.0000000000
10
10.9129702086
20
1.8359612837
30
0.0000000000
10
10.9235675426
20
1.8359612837
30
0.0000000000
10
10.9322476490
20
1.8346669528
30
0.0000000000
10
10.9373926142
20
1.8242961267
30
0.0000000000
10
10.9444709861
20
1.8107218317
30
0.0000000000
10
10.9454336447
20
1.7754513156
30
0.0000000000
10
10.9493004582
20
1.7592721797
30
0.0000000000
10
10.9493004582
20
1.7592721797
30
0.0000000000
10
11.0393454388
20
1.7592721797
30
0.0000000000
10
11.0393454388
20
1.7592721797
30
0.0000000000
10
11.0303174810
20
1.7811787297
30
0.0000000000
10
11.0312801396
20
1.8159800509
30
0.0000000000
10
11.0180456064
20
1.8398280971
30
0.0000000000
10
11.0099803072
20
1.8517521203
30
0.0000000000
10
10.9986791808
20
1.8607800781
30
0.0000000000
10
10.9799599206
20
1.8639835470
30
0.0000000000
10
10.9799599206
20
1.8639835470
30
0.0000000000
10
10.9799599206
20
1.8646468916
30
0.0000000000
10
10.9799599206
20
1.8646468916
30
0.0000000000
10
11.0122372967
20
1.8723966976
30
0.0000000000
10
11.0338607117
20
1.8898378061
30
0.0000000000
10
11.0338607117
20
1.9243964403
30
0.0000000000
10
11.0338607117
20
1.9676270913
30
0.0000000000
10
11.0006125876
20
1.9843886760
30
0.0000000000
10
10.9467198860
20
1.9843886760
30
0.0000000000
10
10.9467198860
20
1.9843886760
30
0.0000000000
10
10.8071748393
20
1.9843886760
30
0.0000000000
10
10.8071748393
20
1.9843886760
30
0.0000000000
10
10.8071748393
20
1.9843886760
30
0.0000000000
10
10.8071748393
20
1.7592721797
30
0.0000000000
10
10.8071748393
20
1.7592721797
30
0.0000000000
0
SPLINE
5
23E
100
AcDbEntity
8
0
100
AcDbSpline
62
2
6
CONTINUOUS
70
0
71
3
72
20
73
16
74
0
42
0.0000001000
43
0.0000001000
44
0.0000000001
40
0.0000000000
40
0.0000000000
40
0.0000000000
40
0.0000000000
40
1.0000000000
40
1.0000000000
40
1.0000000000
40
2.0000000000
40
2.0000000000
40
2.0000000000
40
3.0000000000
40
3.0000000000
40
3.0000000000
40
4.0000000000
40
4.0000000000
40
4.0000000000
40
5.0000000000
40
5.0000000000
40
5.0000000000
40
5.0000000000
10
10.8898016861
20
1.9340877427
30
0.0000000000
10
10.8898016861
20
1.9340877427
30
0.0000000000
10
10.9136092845
20
1.9340877427
30
0.0000000000
10
10.9136092845
20
1.9340877427
30
0.0000000000
10
10.9309614077
20
1.9340877427
30
0.0000000000
10
10.9473589619
20
1.9311754982
30
0.0000000000
10
10.9473589619
20
1.9108383244
30
0.0000000000
10
10.9473589619
20
1.8882037134
30
0.0000000000
10
10.9299987491
20
1.8862622171
30
0.0000000000
10
10.9123230432
20
1.8862622171
30
0.0000000000
10
10.9123230432
20
1.8862622171
30
0.0000000000
10
10.8898016861
20
1.8862622171
30
0.0000000000
10
10.8898016861
20
1.8862622171
30
0.0000000000
10
10.8898016861
20
1.8862622171
30
0.0000000000
10
10.8898016861
20
1.9340877427
30
0.0000000000
10
10.8898016861
20
1.9340877427
30
0.0000000000
0
SPLINE
5
23F
100
AcDbEntity
8
0
100
AcDbSpline
62
2
6
CONTINUOUS
70
0
71
3
72
17
73
13
74
0
42
0.0000001000
43
0.0000001000
44
0.0000000001
40
0.0000000000
40
0.0000000000
40
0.0000000000
40
0.0000000000
40
1.0000000000
40
1.0000000000
40
1.0000000000
40
2.0000000000
40
2.0000000000
40
2.0000000000
40
3.0000000000
40
3.0000000000
40
3.0000000000
40
4.0000000000
40
4.0000000000
40
4.0000000000
40
4.0000000000
10
11.0416186074
20
1.8464453637
30
0.0000000000
10
11.0416186074
20
1.7883622660
30
0.0000000000
10
11.0777708865
20
1.7555509785
30
0.0000000000
10
11.1457394362
20
1.7555509785
30
0.0000000000
10
11.2133682241
20
1.7555509785
30
0.0000000000
10
11.2501757582
20
1.7883622660
30
0.0000000000
10
11.2501757582
20
1.8464453637
30
0.0000000000
10
11.2501757582
20
1.9028943687
30
0.0000000000
10
11.2133682241
20
1.9312078565
30
0.0000000000
10
11.1457394362
20
1.9312078565
30
0.0000000000
10
11.0777708865
20
1.9312078565
30
0.0000000000
10
11.0416186074
20
1.9028943687
30
0.0000000000
10
11.0416186074
20
1.8464453637
30
0.0000000000
0
SPLINE
5
240
100
AcDbEntity
8
0
100
AcDbSpline
62
2
6
CONTINUOUS
70
0
71
3
72
17
73
13
74
0
42
0.0000001000
43
0.0000001000
44
0.0000000001
40
0.0000000000
40
0.0000000000
40
0.0000000000
40
0.0000000000
40
1.0000000000
40
1.0000000000
40
1.0000000000
40
2.0000000000
40
2.0000000000
40
2.0000000000
40
3.0000000000
40
3.0000000000
40
3.0000000000
40
4.0000000000
40
4.0000000000
40
4.0000000000
40
4.0000000000
10
11.1281284468
20
1.8464453637
30
0.0000000000
10
11.1281284468
20
1.8664751339
30
0.0000000000
10
11.1300456744
20
1.8829616733
30
0.0000000000
10
11.1457394362
20
1.8829616733
30
0.0000000000
10
11.1614251084
20
1.8829616733
30
0.0000000000
10
11.1636578292
20
1.8664751339
30
0.0000000000
10
11.1636578292
20
1.8464453637
30
0.0000000000
10
11.1636578292
20
1.8218854355
30
0.0000000000
10
11.1614251084
20
1.8037971616
30
0.0000000000
10
11.1457394362
20
1.8037971616
30
0.0000000000
10
11.1300456744
20
1.8037971616
30
0.0000000000
10
11.1281284468
20
1.8218854355
30
0.0000000000
10
11.1281284468
20
1.8464453637
30
0.0000000000
0
SPLINE
5
241
100
AcDbEntity
8
0
100
AcDbSpline
62
2
6
CONTINUOUS
70
0
71
3
72
35
73
31
74
0
42
0.0000001000
43
0.0000001000
44
0.0000000001
40
0.0000000000
40
0.0000000000
40
0.0000000000
40
0.0000000000
40
1.0000000000
40
1.0000000000
40
1.0000000000
40
2.0000000000
40
2.0000000000
40
2.0000000000
40
3.0000000000
40
3.0000000000
40
3.0000000000
40
4.0000000000
40
4.0000000000
40
4.0000000000
40
5.0000000000
40
5.0000000000
40
5.0000000000
40
6.0000000000
40
6.0000000000
40
6.0000000000
40
7.0000000000
40
7.0000000000
40
7.0000000000
40
8.0000000000
40
8.0000000000
40
8.0000000000
40
9.0000000000
40
9.0000000000
40
9.0000000000
40
10.0000000000
40
10.0000000000
40
10.0000000000
40
10.0000000000
10
11.4272159523
20
1.7639317708
30
0.0000000000
10
11.4091438575
20
1.7581396402
30
0.0000000000
10
11.3910717628
20
1.7555509785
30
0.0000000000
10
11.3668677755
20
1.7555509785
30
0.0000000000
10
11.2987859718
20
1.7555509785
30
0.0000000000
10
11.2626336928
20
1.7883622660
30
0.0000000000
10
11.2626336928
20
1.8464453637
30
0.0000000000
10
11.2626336928
20
1.9028943687
30
0.0000000000
10
11.2987859718
20
1.9312078565
30
0.0000000000
10
11.3668677755
20
1.9312078565
30
0.0000000000
10
11.3910717628
20
1.9312078565
30
0.0000000000
10
11.4091438575
20
1.9289427774
30
0.0000000000
10
11.4259216214
20
1.9241861115
30
0.0000000000
10
11.4259216214
20
1.9241861115
30
0.0000000000
10
11.4259216214
20
1.8745485227
30
0.0000000000
10
11.4259216214
20
1.8745485227
30
0.0000000000
10
11.4159229154
20
1.8790786807
30
0.0000000000
10
11.4039827132
20
1.8829616733
30
0.0000000000
10
11.3894538492
20
1.8829616733
30
0.0000000000
10
11.3652822202
20
1.8829616733
30
0.0000000000
10
11.3491354426
20
1.8703581265
30
0.0000000000
10
11.3491354426
20
1.8451510328
30
0.0000000000
10
11.3491354426
20
1.8189731910
30
0.0000000000
10
11.3652822202
20
1.8037971616
30
0.0000000000
10
11.3894538492
20
1.8037971616
30
0.0000000000
10
11.4039827132
20
1.8037971616
30
0.0000000000
10
11.4159229154
20
1.8070329888
30
0.0000000000
10
11.4272159523
20
1.8138120467
30
0.0000000000
10
11.4272159523
20
1.8138120467
30
0.0000000000
10
11.4272159523
20
1.7639317708
30
0.0000000000
10
11.4272159523
20
1.7639317708
30
0.0000000000
0
SPLINE
5
242
100
AcDbEntity
8
0
100
AcDbSpline
62
2
6
CONTINUOUS
70
0
71
3
72
44
73
40
74
0
42
0.0000001000
43
0.0000001000
44
0.0000000001
40
0.0000000000
40
0.0000000000
40
0.0000000000
40
0.0000000000
40
1.0000000000
40
1.0000000000
40
1.0000000000
40
2.0000000000
40
2.0000000000
40
2.0000000000
40
3.0000000000
40
3.0000000000
40
3.0000000000
40
4.0000000000
40
4.0000000000
40
4.0000000000
40
5.0000000000
40
5.0000000000
40
5.0000000000
40
6.0000000000
40
6.0000000000
40
6.0000000000
40
7.0000000000
40
7.0000000000
40
7.0000000000
40
8.0000000000
40
8.0000000000
40
8.0000000000
40
9.0000000000
40
9.0000000000
40
9.0000000000
40
10.0000000000
40
10.0000000000
40
10.0000000000
40
11.0000000000
40
11.0000000000
40
11.0000000000
40
12.0000000000
40
12.0000000000
40
12.0000000000
40
13.0000000000
40
13.0000000000
40
13.0000000000
40
13.0000000000
10
11.5291445082
20
1.8532729590
30
0.0000000000
10
11.5291445082
20
1.8532729590
30
0.0000000000
10
11.5297916736
20
1.8532729590
30
0.0000000000
10
11.5297916736
20
1.8532729590
30
0.0000000000
10
11.5297916736
20
1.8532729590
30
0.0000000000
10
11.5696570643
20
1.9274866552
30
0.0000000000
10
11.5696570643
20
1.9274866552
30
0.0000000000
10
11.5696570643
20
1.9274866552
30
0.0000000000
10
11.6583187288
20
1.9274866552
30
0.0000000000
10
11.6583187288
20
1.9274866552
30
0.0000000000
10
11.6583187288
20
1.9274866552
30
0.0000000000
10
11.6114315931
20
1.8532729590
30
0.0000000000
10
11.6114315931
20
1.8532729590
30
0.0000000000
10
11.6114315931
20
1.8532729590
30
0.0000000000
10
11.6671525370
20
1.7592721797
30
0.0000000000
10
11.6671525370
20
1.7592721797
30
0.0000000000
10
11.6671525370
20
1.7592721797
30
0.0000000000
10
11.5756109863
20
1.7592721797
30
0.0000000000
10
11.5756109863
20
1.7592721797
30
0.0000000000
10
11.5756109863
20
1.7592721797
30
0.0000000000
10
11.5297916736
20
1.8532729590
30
0.0000000000
10
11.5297916736
20
1.8532729590
30
0.0000000000
10
11.5297916736
20
1.8532729590
30
0.0000000000
10
11.5291445082
20
1.8532729590
30
0.0000000000
10
11.5291445082
20
1.8532729590
30
0.0000000000
10
11.5291445082
20
1.8532729590
30
0.0000000000
10
11.5291445082
20
1.7592721797
30
0.0000000000
10
11.5291445082
20
1.7592721797
30
0.0000000000
10
11.5291445082
20
1.7592721797
30
0.0000000000
10
11.4479252462
20
1.7592721797
30
0.0000000000
10
11.4479252462
20
1.7592721797
30
0.0000000000
10
11.4479252462
20
1.7592721797
30
0.0000000000
10
11.4479252462
20
1.9842107055
30
0.0000000000
10
11.4479252462
20
1.9842107055
30
0.0000000000
10
11.4479252462
20
1.9842107055
30
0.0000000000
10
11.5291445082
20
1.9842107055
30
0.0000000000
10
11.5291445082
20
1.9842107055
30
0.0000000000
10
11.5291445082
20
1.9842107055
30
0.0000000000
10
11.5291445082
20
1.8532729590
30
0.0000000000
10
11.5291445082
20
1.8532729590
30
0.0000000000
0
SPLINE
5
243
100
AcDbEntity
8
0
100
AcDbSpline
62
2
6
CONTINUOUS
70
0
71
3
72
53
73
49
74
0
42
0.0000001000
43
0.0000001000
44
0.0000000001
40
0.0000000000
40
0.0000000000
40
0.0000000000
40
0.0000000000
40
1.0000000000
40
1.0000000000
40
1.0000000000
40
2.0000000000
40
2.0000000000
40
2.0000000000
40
3.0000000000
40
3.0000000000
40
3.0000000000
40
4.0000000000
40
4.0000000000
40
4.0000000000
40
5.0000000000
40
5.0000000000
40
5.0000000000
40
6.0000000000
40
6.0000000000
40
6.0000000000
40
7.0000000000
40
7.0000000000
40
7.0000000000
40
8.0000000000
40
8.0000000000
40
8.0000000000
40
9.0000000000
40
9.0000000000
40
9.0000000000
40
10.0000000000
40
10.0000000000
40
10.0000000000
40
11.0000000000
40
11.0000000000
40
11.0000000000
40
12.0000000000
40
12.0000000000
40
12.0000000000
40
13.0000000000
40
13.0000000000
40
13.0000000000
40
14.0000000000
40
14.0000000000
40
14.0000000000
40
15.0000000000
40
15.0000000000
40
15.0000000000
40
16.0000000000
40
16.0000000000
40
16.0000000000
40
16.0000000000
10
11.7548434534
20
1.8173714566
30
0.0000000000
10
11.7548434534
20
1.8173714566
30
0.0000000000
10
11.7554906188
20
1.8173714566
30
0.0000000000
10
11.7554906188
20
1.8173714566
30
0.0000000000
10
11.7554906188
20
1.8173714566
30
0.0000000000
10
11.7728993690
20
1.9274866552
30
0.0000000000
10
11.7728993690
20
1.9274866552
30
0.0000000000
10
11.7728993690
20
1.9274866552
30
0.0000000000
10
11.8706698870
20
1.9274866552
30
0.0000000000
10
11.8706698870
20
1.9274866552
30
0.0000000000
10
11.8706698870
20
1.9274866552
30
0.0000000000
10
11.8893891472
20
1.8173714566
30
0.0000000000
10
11.8893891472
20
1.8173714566
30
0.0000000000
10
11.8893891472
20
1.8173714566
30
0.0000000000
10
11.8900363126
20
1.8173714566
30
0.0000000000
10
11.8900363126
20
1.8173714566
30
0.0000000000
10
11.8900363126
20
1.8173714566
30
0.0000000000
10
11.9047916845
20
1.9274866552
30
0.0000000000
10
11.9047916845
20
1.9274866552
30
0.0000000000
10
11.9047916845
20
1.9274866552
30
0.0000000000
10
11.9790215598
20
1.9274866552
30
0.0000000000
10
11.9790215598
20
1.9274866552
30
0.0000000000
10
11.9790215598
20
1.9274866552
30
0.0000000000
10
11.9413241733
20
1.7592721797
30
0.0000000000
10
11.9413241733
20
1.7592721797
30
0.0000000000
10
11.9413241733
20
1.7592721797
30
0.0000000000
10
11.8400104245
20
1.7592721797
30
0.0000000000
10
11.8400104245
20
1.7592721797
30
0.0000000000
10
11.8400104245
20
1.7592721797
30
0.0000000000
10
11.8200130126
20
1.8734806997
30
0.0000000000
10
11.8200130126
20
1.8734806997
30
0.0000000000
10
11.8200130126
20
1.8734806997
30
0.0000000000
10
11.8193658472
20
1.8734806997
30
0.0000000000
10
11.8193658472
20
1.8734806997
30
0.0000000000
10
11.8193658472
20
1.8734806997
30
0.0000000000
10
11.7986080159
20
1.7592721797
30
0.0000000000
10
11.7986080159
20
1.7592721797
30
0.0000000000
10
11.7986080159
20
1.7592721797
30
0.0000000000
10
11.6966471017
20
1.7592721797
30
0.0000000000
10
11.6966471017
20
1.7592721797
30
0.0000000000
10
11.6966471017
20
1.7592721797
30
0.0000000000
10
11.6589658943
20
1.9274866552
30
0.0000000000
10
11.6589658943
20
1.9274866552
30
0.0000000000
10
11.6589658943
20
1.9274866552
30
0.0000000000
10
11.7386643175
20
1.9274866552
30
0.0000000000
10
11.7386643175
20
1.9274866552
30
0.0000000000
10
11.7386643175
20
1.9274866552
30
0.0000000000
10
11.7548434534
20
1.8173714566
30
0.0000000000
10
11.7548434534
20
1.8173714566
30
0.0000000000
0
SPLINE
5
244
100
AcDbEntity
8
0
100
AcDbSpline
62
2
6
CONTINUOUS
70
0
71
3
72
32
73
28
74
0
42
0.0000001000
43
0.0000001000
44
0.0000000001
40
0.0000000000
40
0.0000000000
40
0.0000000000
40
0.0000000000
40
1.0000000000
40
1.0000000000
40
1.0000000000
40
2.0000000000
40
2.0000000000
40
2.0000000000
40
3.0000000000
40
3.0000000000
40
3.0000000000
40
4.0000000000
40
4.0000000000
40
4.0000000000
40
5.0000000000
40
5.0000000000
40
5.0000000000
40
6.0000000000
40
6.0000000000
40
6.0000000000
40
7.0000000000
40
7.0000000000
40
7.0000000000
40
8.0000000000
40
8.0000000000
40
8.0000000000
40
9.0000000000
40
9.0000000000
40
9.0000000000
40
9.0000000000
10
12.1749347159
20
1.8240049023
30
0.0000000000
10
12.1749347159
20
1.8240049023
30
0.0000000000
10
12.1749347159
20
1.8340036082
30
0.0000000000
10
12.1749347159
20
1.8340036082
30
0.0000000000
10
12.1749347159
20
1.8905496881
30
0.0000000000
10
12.1520088804
20
1.9311916773
30
0.0000000000
10
12.0866613507
20
1.9311916773
30
0.0000000000
10
12.0185148304
20
1.9311916773
30
0.0000000000
10
11.9824191783
20
1.9027811148
30
0.0000000000
10
11.9824191783
20
1.8465747968
30
0.0000000000
10
11.9824191783
20
1.7883784451
30
0.0000000000
10
12.0185148304
20
1.7555509785
30
0.0000000000
10
12.0866613507
20
1.7555509785
30
0.0000000000
10
12.1151689880
20
1.7555509785
30
0.0000000000
10
12.1410070680
20
1.7584632229
30
0.0000000000
10
12.1626547518
20
1.7652099226
30
0.0000000000
10
12.1626547518
20
1.7652099226
30
0.0000000000
10
12.1626547518
20
1.8087479772
30
0.0000000000
10
12.1626547518
20
1.8087479772
30
0.0000000000
10
12.1497438014
20
1.8019203818
30
0.0000000000
10
12.1297140312
20
1.7980373892
30
0.0000000000
10
12.1074191820
20
1.7980373892
30
0.0000000000
10
12.0834093443
20
1.7980373892
30
0.0000000000
10
12.0636222612
20
1.8028911300
30
0.0000000000
10
12.0623279303
20
1.8240049023
30
0.0000000000
10
12.0623279303
20
1.8240049023
30
0.0000000000
10
12.1749347159
20
1.8240049023
30
0.0000000000
10
12.1749347159
20
1.8240049023
30
0.0000000000
0
SPLINE
5
245
100
AcDbEntity
8
0
100
AcDbSpline
62
2
6
CONTINUOUS
70
0
71
3
72
14
73
10
74
0
42
0.0000001000
43
0.0000001000
44
0.0000000001
40
0.0000000000
40
0.0000000000
40
0.0000000000
40
0.0000000000
40
1.0000000000
40
1.0000000000
40
1.0000000000
40
2.0000000000
40
2.0000000000
40
2.0000000000
40
3.0000000000
40
3.0000000000
40
3.0000000000
40
3.0000000000
10
12.0620043476
20
1.8594695681
30
0.0000000000
10
12.0610335995
20
1.8726070264
30
0.0000000000
10
12.0652563539
20
1.8924588261
30
0.0000000000
10
12.0840565098
20
1.8924588261
30
0.0000000000
10
12.1025654412
20
1.8924588261
30
0.0000000000
10
12.1045069375
20
1.8722672645
30
0.0000000000
10
12.1045069375
20
1.8594695681
30
0.0000000000
10
12.1045069375
20
1.8594695681
30
0.0000000000
10
12.0620043476
20
1.8594695681
30
0.0000000000
10
12.0620043476
20
1.8594695681
30
0.0000000000
0
SPLINE
5
246
100
AcDbEntity
8
0
100
AcDbSpline
62
2
6
CONTINUOUS
70
0
71
3
72
17
73
13
74
0
42
0.0000001000
43
0.0000001000
44
0.0000000001
40
0.0000000000
40
0.0000000000
40
0.0000000000
40
0.0000000000
40
1.0000000000
40
1.0000000000
40
1.0000000000
40
2.0000000000
40
2.0000000000
40
2.0000000000
40
3.0000000000
40
3.0000000000
40
3.0000000000
40
4.0000000000
40
4.0000000000
40
4.0000000000
40
4.0000000000
10
12.2752615373
20
1.9842107055
30
0.0000000000
10
12.2752615373
20
1.9842107055
30
0.0000000000
10
12.2752615373
20
1.7592721797
30
0.0000000000
10
12.2752615373
20
1.7592721797
30
0.0000000000
10
12.2752615373
20
1.7592721797
30
0.0000000000
10
12.1960161299
20
1.7592721797
30
0.0000000000
10
12.1960161299
20
1.7592721797
30
0.0000000000
10
12.1960161299
20
1.7592721797
30
0.0000000000
10
12.1960161299
20
1.9842107055
30
0.0000000000
10
12.1960161299
20
1.9842107055
30
0.0000000000
10
12.1960161299
20
1.9842107055
30
0.0000000000
10
12.2752615373
20
1.9842107055
30
0.0000000000
10
12.2752615373
20
1.9842107055
30
0.0000000000
0
SPLINE
5
247
100
AcDbEntity
8
0
100
AcDbSpline
62
2
6
CONTINUOUS
70
0
71
3
72
17
73
13
74
0
42
0.0000001000
43
0.0000001000
44
0.0000000001
40
0.0000000000
40
0.0000000000
40
0.0000000000
40
0.0000000000
40
1.0000000000
40
1.0000000000
40
1.0000000000
40
2.0000000000
40
2.0000000000
40
2.0000000000
40
3.0000000000
40
3.0000000000
40
3.0000000000
40
4.0000000000
40
4.0000000000
40
4.0000000000
40
4.0000000000
10
12.3793904557
20
1.9842107055
30
0.0000000000
10
12.3793904557
20
1.9842107055
30
0.0000000000
10
12.3793904557
20
1.7592721797
30
0.0000000000
10
12.3793904557
20
1.7592721797
30
0.0000000000
10
12.3793904557
20
1.7592721797
30
0.0000000000
10
12.3001450483
20
1.7592721797
30
0.0000000000
10
12.3001450483
20
1.7592721797
30
0.0000000000
10
12.3001450483
20
1.7592721797
30
0.0000000000
10
12.3001450483
20
1.9842107055
30
0.0000000000
10
12.3001450483
20
1.9842107055
30
0.0000000000
10
12.3001450483
20
1.9842107055
30
0.0000000000
10
12.3793904557
20
1.9842107055
30
0.0000000000
10
12.3793904557
20
1.9842107055
30
0.0000000000
0
LINE
5
248
100
AcDbEntity
8
0
100
AcDbLine
62
2
6
CONTINUOUS
10
12.3712123782
20
1.4881584216
11
12.3782740978
21
1.4952201412
0
LINE
5
249
100
AcDbEntity
8
0
100
AcDbLine
62
2
6
CONTINUOUS
10
12.3612500622
20
1.4881584216
11
12.3782740978
21
1.5051824572
0
LINE
5
24A
100
AcDbEntity
8
0
100
AcDbLine
62
2
6
CONTINUOUS
10
12.3512877461
20
1.4881584216
11
12.3782740978
21
1.5151447733
0
LINE
5
24B
100
AcDbEntity
8
0
100
AcDbLine
62
2
6
CONTINUOUS
10
12.3413254301
20
1.4881584216
11
12.3782740978
21
1.5251070893
0
LINE
5
24C
100
AcDbEntity
8
0
100
AcDbLine
62
2
6
CONTINUOUS
10
12.3313631140
20
1.4881584216
11
12.3782740978
21
1.5350694053
0
LINE
5
24D
100
AcDbEntity
8
0
100
AcDbLine
62
2
6
CONTINUOUS
10
12.3214007980
20
1.4881584216
11
12.3782740978
21
1.5450317214
0
LINE
5
24E
100
AcDbEntity
8
0
100
AcDbLine
62
2
6
CONTINUOUS
10
12.3114384819
20
1.4881584216
11
12.3782740978
21
1.5549940374
0
LINE
5
24F
100
AcDbEntity
8
0
100
AcDbLine
62
2
6
CONTINUOUS
10
12.3014761659
20
1.4881584216
11
12.3782740978
21
1.5649563535
0
LINE
5
250
100
AcDbEntity
8
0
100
AcDbLine
62
2
6
CONTINUOUS
10
12.2957605049
20
1.4924050766
11
12.3782740978
21
1.5749186695
0
LINE
5
251
100
AcDbEntity
8
0
100
AcDbLine
62
2
6
CONTINUOUS
10
12.2957605049
20
1.5023673927
11
12.3782740978
21
1.5848809856
0
LINE
5
252
100
AcDbEntity
8
0
100
AcDbLine
62
2
6
CONTINUOUS
10
12.2957605049
20
1.5123297087
11
12.3782740978
21
1.5948433016
0
LINE
5
253
100
AcDbEntity
8
0
100
AcDbLine
62
2
6
CONTINUOUS
10
12.2616269017
20
1.4881584216
11
12.2664277316
21
1.4929592515
0
LINE
5
254
100
AcDbEntity
8
0
100
AcDbLine
62
2
6
CONTINUOUS
10
12.2957605049
20
1.5222920248
11
12.3782740978
21
1.6048056176
0
LINE
5
255
100
AcDbEntity
8
0
100
AcDbLine
62
2
6
CONTINUOUS
10
12.2516645857
20
1.4881584216
11
12.2664277316
21
1.5029215675
0
LINE
5
256
100
AcDbEntity
8
0
100
AcDbLine
62
2
6
CONTINUOUS
10
12.2957605049
20
1.5322543408
11
12.3778533079
21
1.6143471438
0
LINE
5
257
100
AcDbEntity
8
0
100
AcDbLine
62
2
6
CONTINUOUS
10
12.2417022696
20
1.4881584216
11
12.2664277316
21
1.5128838836
0
LINE
5
258
100
AcDbEntity
8
0
100
AcDbLine
62
2
6
CONTINUOUS
10
12.2957605049
20
1.5422166569
11
12.3765729947
21
1.6230291466
0
LINE
5
259
100
AcDbEntity
8
0
100
AcDbLine
62
2
6
CONTINUOUS
10
12.2317399536
20
1.4881584216
11
12.2664277316
21
1.5228461996
0
LINE
5
25A
100
AcDbEntity
8
0
100
AcDbLine
62
2
6
CONTINUOUS
10
12.2957605049
20
1.5521789729
11
12.3743584008
21
1.6307768688
0
LINE
5
25B
100
AcDbEntity
8
0
100
AcDbLine
62
2
6
CONTINUOUS
10
12.2217776375
20
1.4881584216
11
12.2664277316
21
1.5328085156
0
LINE
5
25C
100
AcDbEntity
8
0
100
AcDbLine
62
2
6
CONTINUOUS
10
12.2957605049
20
1.5621412890
11
12.3714554082
21
1.6378361922
0
LINE
5
25D
100
AcDbEntity
8
0
100
AcDbLine
62
2
6
CONTINUOUS
10
12.2118153215
20
1.4881584216
11
12.2664277316
21
1.5427708317
0
LINE
5
25E
100
AcDbEntity
8
0
100
AcDbLine
62
2
6
CONTINUOUS
10
12.2957605049
20
1.5721036050
11
12.3674570142
21
1.6438001143
0
LINE
5
25F
100
AcDbEntity
8
0
100
AcDbLine
62
2
6
CONTINUOUS
10
12.2018530054
20
1.4881584216
11
12.2664277316
21
1.5527331477
0
LINE
5
260
100
AcDbEntity
8
0
100
AcDbLine
62
2
6
CONTINUOUS
10
12.2957605049
20
1.5820659210
11
12.3625810577
21
1.6488864738
0
LINE
5
261
100
AcDbEntity
8
0
100
AcDbLine
62
2
6
CONTINUOUS
10
12.1918906894
20
1.4881584216
11
12.2664277316
21
1.5626954638
0
LINE
5
262
100
AcDbEntity
8
0
100
AcDbLine
62
2
6
CONTINUOUS
10
12.2956737169
20
1.5919414491
11
12.3570900821
21
1.6533578143
0
LINE
5
263
100
AcDbEntity
8
0
100
AcDbLine
62
2
6
CONTINUOUS
10
12.1839141387
20
1.4901441870
11
12.2664277316
21
1.5726577798
0
LINE
5
264
100
AcDbEntity
8
0
100
AcDbLine
62
2
6
CONTINUOUS
10
12.2944113991
20
1.6006414473
11
12.3505109889
21
1.6567410371
0
LINE
5
265
100
AcDbEntity
8
0
100
AcDbLine
62
2
6
CONTINUOUS
10
12.1839141387
20
1.5001065030
11
12.2664277316
21
1.5826200959
0
LINE
5
266
100
AcDbEntity
8
0
100
AcDbLine
62
2
6
CONTINUOUS
10
12.2905306366
20
1.6067230009
11
12.3431684776
21
1.6593608419
0
LINE
5
267
100
AcDbEntity
8
0
100
AcDbLine
62
2
6
CONTINUOUS
10
12.1839141387
20
1.5100688190
11
12.2665346439
21
1.5926893242
0
LINE
5
268
100
AcDbEntity
8
0
100
AcDbLine
62
2
6
CONTINUOUS
10
12.2834953148
20
1.6096499951
11
12.3352726595
21
1.6614273398
0
LINE
5
269
100
AcDbEntity
8
0
100
AcDbLine
62
2
6
CONTINUOUS
10
12.1839141387
20
1.5200311351
11
12.3261095173
21
1.6622265136
0
LINE
5
26A
100
AcDbEntity
8
0
100
AcDbLine
62
2
6
CONTINUOUS
10
12.1839141387
20
1.5299934511
11
12.3166486043
21
1.6627279166
0
LINE
5
26B
100
AcDbEntity
8
0
100
AcDbLine
62
2
6
CONTINUOUS
10
12.1839141387
20
1.5399557672
11
12.3054109566
21
1.6614525851
0
LINE
5
26C
100
AcDbEntity
8
0
100
AcDbLine
62
2
6
CONTINUOUS
10
12.1839141387
20
1.5499180832
11
12.2915891092
21
1.6575930537
0
LINE
5
26D
100
AcDbEntity
8
0
100
AcDbLine
62
2
6
CONTINUOUS
10
12.1252980639
20
1.5012643245
11
12.1489316551
21
1.5248979156
0
LINE
5
26E
100
AcDbEntity
8
0
100
AcDbLine
62
2
6
CONTINUOUS
10
12.1839141387
20
1.5598803993
11
12.2618490362
21
1.6378152967
0
LINE
5
26F
100
AcDbEntity
8
0
100
AcDbLine
62
2
6
CONTINUOUS
10
12.1062961711
20
1.4922247476
11
12.1576339592
21
1.5435625357
0
LINE
5
270
100
AcDbEntity
8
0
100
AcDbLine
62
2
6
CONTINUOUS
10
12.1839141387
20
1.5698427153
11
12.2618490362
21
1.6477776127
0
LINE
5
271
100
AcDbEntity
8
0
100
AcDbLine
62
2
6
CONTINUOUS
10
12.3733436032
20
1.7592721797
11
12.3793904557
21
1.7653190323
0
LINE
5
272
100
AcDbEntity
8
0
100
AcDbLine
62
2
6
CONTINUOUS
10
12.0924041887
20
1.4882950813
11
12.1606755688
21
1.5565664614
0
LINE
5
273
100
AcDbEntity
8
0
100
AcDbLine
62
2
6
CONTINUOUS
10
12.1839141387
20
1.5798050313
11
12.2618490362
21
1.6577399288
0
LINE
5
274
100
AcDbEntity
8
0
100
AcDbLine
62
2
6
CONTINUOUS
10
12.3633812871
20
1.7592721797
11
12.3793904557
21
1.7752813483
0
LINE
5
275
100
AcDbEntity
8
0
100
AcDbLine
62
2
6
CONTINUOUS
10
12.0802148356
20
1.4860680443
11
12.1619116215
21
1.5677648301
0
LINE
5
276
100
AcDbEntity
8
0
100
AcDbLine
62
2
6
CONTINUOUS
10
12.1839141387
20
1.5897673474
11
12.2532216041
21
1.6590748128
0
LINE
5
277
100
AcDbEntity
8
0
100
AcDbLine
62
2
6
CONTINUOUS
10
12.3534189711
20
1.7592721797
11
12.3793904557
21
1.7852436644
0
LINE
5
278
100
AcDbEntity
8
0
100
AcDbLine
62
2
6
CONTINUOUS
10
12.0691641315
20
1.4849796562
11
12.1623948468
21
1.5782103715
0
LINE
5
279
100
AcDbEntity
8
0
100
AcDbLine
62
2
6
CONTINUOUS
10
12.1839141387
20
1.5997296634
11
12.2432592881
21
1.6590748128
0
LINE
5
27A
100
AcDbEntity
8
0
100
AcDbLine
62
2
6
CONTINUOUS
10
12.3434566550
20
1.7592721797
11
12.3793904557
21
1.7952059804
0
LINE
5
27B
100
AcDbEntity
8
0
100
AcDbLine
62
2
6
CONTINUOUS
10
12.0586584820
20
1.4844363227
11
12.1617719800
21
1.5875498208
0
LINE
5
27C
100
AcDbEntity
8
0
100
AcDbLine
62
2
6
CONTINUOUS
10
12.1839141387
20
1.6096919795
11
12.2332969720
21
1.6590748128
0
LINE
5
27D
100
AcDbEntity
8
0
100
AcDbLine
62
2
6
CONTINUOUS
10
12.3334943390
20
1.7592721797
11
12.3793904557
21
1.8051682964
0
LINE
5
27E
100
AcDbEntity
8
0
100
AcDbLine
62
2
6
CONTINUOUS
10
12.0488054569
20
1.4845456136
11
12.1606327156
21
1.5963728724
0
LINE
5
27F
100
AcDbEntity
8
0
100
AcDbLine
62
2
6
CONTINUOUS
10
12.1839141387
20
1.6196542955
11
12.2233346560
21
1.6590748128
0
LINE
5
280
100
AcDbEntity
8
0
100
AcDbLine
62
2
6
CONTINUOUS
10
12.3235320229
20
1.7592721797
11
12.3793904557
21
1.8151306125
0
LINE
5
281
100
AcDbEntity
8
0
100
AcDbLine
62
2
6
CONTINUOUS
10
12.0396610270
20
1.4853634998
11
12.1588442678
21
1.6045467406
0
LINE
5
282
100
AcDbEntity
8
0
100
AcDbLine
62
2
6
CONTINUOUS
10
12.1839141387
20
1.6296166116
11
12.2133723399
21
1.6590748128
0
LINE
5
283
100
AcDbEntity
8
0
100
AcDbLine
62
2
6
CONTINUOUS
10
12.3135697069
20
1.7592721797
11
12.3793904557
21
1.8250929285
0
LINE
5
284
100
AcDbEntity
8
0
100
AcDbLine
62
2
6
CONTINUOUS
10
12.0305849853
20
1.4862497742
11
12.1562719480
21
1.6119367369
0
LINE
5
285
100
AcDbEntity
8
0
100
AcDbLine
62
2
6
CONTINUOUS
10
12.1839141387
20
1.6395789276
11
12.2034100239
21
1.6590748128
0
LINE
5
286
100
AcDbEntity
8
0
100
AcDbLine
62
2
6
CONTINUOUS
10
12.3036073909
20
1.7592721797
11
12.3793904557
21
1.8350552446
0
LINE
5
287
100
AcDbEntity
8
0
100
AcDbLine
62
2
6
CONTINUOUS
10
12.0222305829
20
1.4878576878
11
12.1533973258
21
1.6190244307
0
LINE
5
288
100
AcDbEntity
8
0
100
AcDbLine
62
2
6
CONTINUOUS
10
12.1839141387
20
1.6495412437
11
12.1934477078
21
1.6590748128
0
LINE
5
289
100
AcDbEntity
8
0
100
AcDbLine
62
2
6
CONTINUOUS
10
12.3001450483
20
1.7657721532
11
12.3793904557
21
1.8450175606
0
LINE
5
28A
100
AcDbEntity
8
0
100
AcDbLine
62
2
6
CONTINUOUS
10
12.0140933999
20
1.4896828209
11
12.0579757974
21
1.5335652183
0
LINE
5
28B
100
AcDbEntity
8
0
100
AcDbLine
62
2
6
CONTINUOUS
10
12.0719436959
20
1.5475331168
11
12.1495470683
21
1.6251364892
0
LINE
5
28C
100
AcDbEntity
8
0
100
AcDbLine
62
2
6
CONTINUOUS
10
12.3001450483
20
1.7757344692
11
12.3793904557
21
1.8549798767
0
LINE
5
28D
100
AcDbEntity
8
0
100
AcDbLine
62
2
6
CONTINUOUS
10
12.0065998338
20
1.4921515708
11
12.0494370420
21
1.5349887790
0
LINE
5
28E
100
AcDbEntity
8
0
100
AcDbLine
62
2
6
CONTINUOUS
10
12.0739557412
20
1.5595074782
11
12.1454347054
21
1.6309864424
0
LINE
5
28F
100
AcDbEntity
8
0
100
AcDbLine
62
2
6
CONTINUOUS
10
12.2737204427
20
1.7592721797
11
12.2752615373
21
1.7608132743
0
LINE
5
290
100
AcDbEntity
8
0
100
AcDbLine
62
2
6
CONTINUOUS
10
12.3001450483
20
1.7856967853
11
12.3793904557
21
1.8649421927
0
LINE
5
291
100
AcDbEntity
8
0
100
AcDbLine
62
2
6
CONTINUOUS
10
11.9993630113
20
1.4948770644
11
12.0442871734
21
1.5398012264
0
LINE
5
292
100
AcDbEntity
8
0
100
AcDbLine
62
2
6
CONTINUOUS
10
12.0744989532
20
1.5700130063
11
12.1406404980
21
1.6361545511
0
LINE
5
293
100
AcDbEntity
8
0
100
AcDbLine
62
2
6
CONTINUOUS
10
12.2637581267
20
1.7592721797
11
12.2752615373
21
1.7707755904
0
LINE
5
294
100
AcDbEntity
8
0
100
AcDbLine
62
2
6
CONTINUOUS
10
12.3001450483
20
1.7956591013
11
12.3793904557
21
1.8749045088
0
LINE
5
295
100
AcDbEntity
8
0
100
AcDbLine
62
2
6
CONTINUOUS
10
11.9927694178
20
1.4982457869
11
12.0412265711
21
1.5467029402
0
LINE
5
296
100
AcDbEntity
8
0
100
AcDbLine
62
2
6
CONTINUOUS
10
12.0745673256
20
1.5800436947
11
12.1353906442
21
1.6408670133
0
LINE
5
297
100
AcDbEntity
8
0
100
AcDbLine
62
2
6
CONTINUOUS
10
12.2537958106
20
1.7592721797
11
12.2752615373
21
1.7807379064
0
LINE
5
298
100
AcDbEntity
8
0
100
AcDbLine
62
2
6
CONTINUOUS
10
12.3001450483
20
1.8056214174
11
12.3793904557
21
1.8848668248
0
LINE
5
299
100
AcDbEntity
8
0
100
AcDbLine
62
2
6
CONTINUOUS
10
11.9864102228
20
1.5018489079
11
12.0395888304
21
1.5550275155
0
LINE
5
29A
100
AcDbEntity
8
0
100
AcDbLine
62
2
6
CONTINUOUS
10
12.0741137804
20
1.5895524655
11
12.1296893590
21
1.6451280442
0
LINE
5
29B
100
AcDbEntity
8
0
100
AcDbLine
62
2
6
CONTINUOUS
10
12.2438334946
20
1.7592721797
11
12.2752615373
21
1.7907002225
0
LINE
5
29C
100
AcDbEntity
8
0
100
AcDbLine
62
2
6
CONTINUOUS
10
12.3001450483
20
1.8155837334
11
12.3793904557
21
1.8948291408
0
LINE
5
29D
100
AcDbEntity
8
0
100
AcDbLine
62
2
6
CONTINUOUS
10
11.9807583272
20
1.5061593284
11
12.0388056130
21
1.5642066142
0
LINE
5
29E
100
AcDbEntity
8
0
100
AcDbLine
62
2
6
CONTINUOUS
10
12.0728133957
20
1.5982143969
11
12.1233862042
21
1.6487872054
0
LINE
5
29F
100
AcDbEntity
8
0
100
AcDbLine
62
2
6
CONTINUOUS
10
12.2338711785
20
1.7592721797
11
12.2752615373
21
1.8006625385
0
LINE
5
2A0
100
AcDbEntity
8
0
100
AcDbLine
62
2
6
CONTINUOUS
10
12.3001450483
20
1.8255460495
11
12.3793904557
21
1.9047914569
0
LINE
5
2A1
100
AcDbEntity
8
0
100
AcDbLine
62
2
6
CONTINUOUS
10
11.9752707028
20
1.5106340200
11
12.0385363332
21
1.5738996504
0
LINE
5
2A2
100
AcDbEntity
8
0
100
AcDbLine
62
2
6
CONTINUOUS
10
12.0702525345
20
1.6056158517
11
12.1167981468
21
1.6521614640
0
LINE
5
2A3
100
AcDbEntity
8
0
100
AcDbLine
62
2
6
CONTINUOUS
10
12.2239088625
20
1.7592721797
11
12.2752615373
21
1.8106248546
0
LINE
5
2A4
100
AcDbEntity
8
0
100
AcDbLine
62
2
6
CONTINUOUS
10
12.3001450483
20
1.8355083655
11
12.3793904557
21
1.9147537729
0
LINE
5
2A5
100
AcDbEntity
8
0
100
AcDbLine
62
2
6
CONTINUOUS
10
11.9704039495
20
1.5157295828
11
12.0386504340
21
1.5839760672
0
LINE
5
2A6
100
AcDbEntity
8
0
100
AcDbLine
62
2
6
CONTINUOUS
10
12.0657195961
20
1.6110452293
11
12.1095205357
21
1.6548461689
0
LINE
5
2A7
100
AcDbEntity
8
0
100
AcDbLine
62
2
6
CONTINUOUS
10
12.2139465465
20
1.7592721797
11
12.2752615373
21
1.8205871706
0
LINE
5
2A8
100
AcDbEntity
8
0
100
AcDbLine
62
2
6
CONTINUOUS
10
12.3001450483
20
1.8454706815
11
12.3793904557
21
1.9247160890
0
LINE
5
2A9
100
AcDbEntity
8
0
100
AcDbLine
62
2
6
CONTINUOUS
10
11.9660838167
20
1.5213717660
11
12.0395855955
21
1.5948735448
0
LINE
5
2AA
100
AcDbEntity
8
0
100
AcDbLine
62
2
6
CONTINUOUS
10
12.0583668663
20
1.6136548157
11
12.1020500863
21
1.6573380356
0
LINE
5
2AB
100
AcDbEntity
8
0
100
AcDbLine
62
2
6
CONTINUOUS
10
12.2039842304
20
1.7592721797
11
12.2752615373
21
1.8305494866
0
LINE
5
2AC
100
AcDbEntity
8
0
100
AcDbLine
62
2
6
CONTINUOUS
10
12.3001450483
20
1.8554329976
11
12.3793904557
21
1.9346784050
0
LINE
5
2AD
100
AcDbEntity
8
0
100
AcDbLine
62
2
6
CONTINUOUS
10
11.9229081562
20
1.4881584216
11
11.9327815920
21
1.4980318573
0
LINE
5
2AE
100
AcDbEntity
8
0
100
AcDbLine
62
2
6
CONTINUOUS
10
11.9623902374
20
1.5276405028
11
12.0938781192
21
1.6591283846
0
LINE
5
2AF
100
AcDbEntity
8
0
100
AcDbLine
62
2
6
CONTINUOUS
10
12.1960161299
20
1.7612663953
11
12.2752615373
21
1.8405118027
0
LINE
5
2B0
100
AcDbEntity
8
0
100
AcDbLine
62
2
6
CONTINUOUS
10
12.3001450483
20
1.8653953136
11
12.3793904557
21
1.9446407211
0
LINE
5
2B1
100
AcDbEntity
8
0
100
AcDbLine
62
2
6
CONTINUOUS
10
11.9129458402
20
1.4881584216
11
11.9327815920
21
1.5079941734
0
LINE
5
2B2
100
AcDbEntity
8
0
100
AcDbLine
62
2
6
CONTINUOUS
10
11.9589542685
20
1.5341668499
11
12.0855168765
21
1.6607294579
0
LINE
5
2B3
100
AcDbEntity
8
0
100
AcDbLine
62
2
6
CONTINUOUS
10
12.1960161299
20
1.7712287113
11
12.2752615373
21
1.8504741187
0
LINE
5
2B4
100
AcDbEntity
8
0
100
AcDbLine
62
2
6
CONTINUOUS
10
12.3001450483
20
1.8753576297
11
12.3793904557
21
1.9546030371
0
LINE
5
2B5
100
AcDbEntity
8
0
100
AcDbLine
62
2
6
CONTINUOUS
10
11.9029835241
20
1.4881584216
11
11.9327815920
21
1.5179564894
0
LINE
5
2B6
100
AcDbEntity
8
0
100
AcDbLine
62
2
6
CONTINUOUS
10
11.9562140027
20
1.5413889002
11
12.0765390320
21
1.6617139294
0
LINE
5
2B7
100
AcDbEntity
8
0
100
AcDbLine
62
2
6
CONTINUOUS
10
12.1960161299
20
1.7811910273
11
12.2752615373
21
1.8604364348
0
LINE
5
2B8
100
AcDbEntity
8
0
100
AcDbLine
62
2
6
CONTINUOUS
10
12.3001450483
20
1.8853199457
11
12.3793904557
21
1.9645653531
0
LINE
5
2B9
100
AcDbEntity
8
0
100
AcDbLine
62
2
6
CONTINUOUS
10
11.8930212081
20
1.4881584216
11
11.9327815920
21
1.5279188055
0
LINE
5
2BA
100
AcDbEntity
8
0
100
AcDbLine
62
2
6
CONTINUOUS
10
11.9539556452
20
1.5490928586
11
12.0672683200
21
1.6624055335
0
LINE
5
2BB
100
AcDbEntity
8
0
100
AcDbLine
62
2
6
CONTINUOUS
10
12.1960161299
20
1.7911533434
11
12.2752615373
21
1.8703987508
0
LINE
5
2BC
100
AcDbEntity
8
0
100
AcDbLine
62
2
6
CONTINUOUS
10
12.3001450483
20
1.8952822618
11
12.3793904557
21
1.9745276692
0
LINE
5
2BD
100
AcDbEntity
8
0
100
AcDbLine
62
2
6
CONTINUOUS
10
11.8830588920
20
1.4881584216
11
11.9327815920
21
1.5378811215
0
LINE
5
2BE
100
AcDbEntity
8
0
100
AcDbLine
62
2
6
CONTINUOUS
10
11.9522365832
20
1.5573361127
11
12.0577451761
21
1.6628447057
0
LINE
5
2BF
100
AcDbEntity
8
0
100
AcDbLine
62
2
6
CONTINUOUS
10
12.1592584728
20
1.7643580023
11
12.1626547518
21
1.7677542813
0
LINE
5
2C0
100
AcDbEntity
8
0
100
AcDbLine
62
2
6
CONTINUOUS
10
12.1960161299
20
1.8011156594
11
12.2752615373
21
1.8803610669
0
LINE
5
2C1
100
AcDbEntity
8
0
100
AcDbLine
62
2
6
CONTINUOUS
10
12.3001450483
20
1.9052445778
11
12.3791111760
21
1.9842107055
0
LINE
5
2C2
100
AcDbEntity
8
0
100
AcDbLine
62
2
6
CONTINUOUS
10
11.8730965760
20
1.4881584216
11
11.9327815920
21
1.5478434375
0
LINE
5
2C3
100
AcDbEntity
8
0
100
AcDbLine
62
2
6
CONTINUOUS
10
11.9512780448
20
1.5663398904
11
12.0474905337
21
1.6625523792
0
LINE
5
2C4
100
AcDbEntity
8
0
100
AcDbLine
62
2
6
CONTINUOUS
10
12.1459605034
20
1.7610223490
11
12.1626547518
21
1.7777165973
0
LINE
5
2C5
100
AcDbEntity
8
0
100
AcDbLine
62
2
6
CONTINUOUS
10
12.1960161299
20
1.8110779755
11
12.2752615373
21
1.8903233829
0
LINE
5
2C6
100
AcDbEntity
8
0
100
AcDbLine
62
2
6
CONTINUOUS
10
12.3001450483
20
1.9152068939
11
12.3691488600
21
1.9842107055
0
LINE
5
2C7
100
AcDbEntity
8
0
100
AcDbLine
62
2
6
CONTINUOUS
10
11.8631342600
20
1.4881584216
11
11.9327815920
21
1.5578057536
0
LINE
5
2C8
100
AcDbEntity
8
0
100
AcDbLine
62
2
6
CONTINUOUS
10
11.9506775472
20
1.5757017088
11
12.0367342091
21
1.6617583707
0
LINE
5
2C9
100
AcDbEntity
8
0
100
AcDbLine
62
2
6
CONTINUOUS
10
12.1340174423
20
1.7590416040
11
12.1626547518
21
1.7876789134
0
LINE
5
2CA
100
AcDbEntity
8
0
100
AcDbLine
62
2
6
CONTINUOUS
10
12.1960161299
20
1.8210402915
11
12.2752615373
21
1.9002856989
0
LINE
5
2CB
100
AcDbEntity
8
0
100
AcDbLine
62
2
6
CONTINUOUS
10
12.3001450483
20
1.9251692099
11
12.3591865439
21
1.9842107055
0
LINE
5
2CC
100
AcDbEntity
8
0
100
AcDbLine
62
2
6
CONTINUOUS
10
11.8531719439
20
1.4881584216
11
11.9327815920
21
1.5677680696
0
LINE
5
2CD
100
AcDbEntity
8
0
100
AcDbLine
62
2
6
CONTINUOUS
10
11.9512373439
20
1.5862238215
11
12.0254004252
21
1.6603869029
0
LINE
5
2CE
100
AcDbEntity
8
0
100
AcDbLine
62
2
6
CONTINUOUS
10
12.1223394140
20
1.7573258916
11
12.1626547518
21
1.7976412294
0
LINE
5
2CF
100
AcDbEntity
8
0
100
AcDbLine
62
2
6
CONTINUOUS
10
12.1960161299
20
1.8310026076
11
12.2752615373
21
1.9102480150
0
LINE
5
2D0
100
AcDbEntity
8
0
100
AcDbLine
62
2
6
CONTINUOUS
10
12.3001450483
20
1.9351315259
11
12.3492242279
21
1.9842107055
0
LINE
5
2D1
100
AcDbEntity
8
0
100
AcDbLine
62
2
6
CONTINUOUS
10
11.8502679991
20
1.4952167928
11
11.9327815920
21
1.5777303857
0
LINE
5
2D2
100
AcDbEntity
8
0
100
AcDbLine
62
2
6
CONTINUOUS
10
11.9527212615
20
1.5976700552
11
12.0130935191
21
1.6580423128
0
LINE
5
2D3
100
AcDbEntity
8
0
100
AcDbLine
62
2
6
CONTINUOUS
10
12.1116682184
20
1.7566170121
11
12.1626547518
21
1.8076035455
0
LINE
5
2D4
100
AcDbEntity
8
0
100
AcDbLine
62
2
6
CONTINUOUS
10
12.1960161299
20
1.8409649236
11
12.2752615373
21
1.9202103310
0
LINE
5
2D5
100
AcDbEntity
8
0
100
AcDbLine
62
2
6
CONTINUOUS
10
12.3001450483
20
1.9450938420
11
12.3392619118
21
1.9842107055
0
LINE
5
2D6
100
AcDbEntity
8
0
100
AcDbLine
62
2
6
CONTINUOUS
10
11.8502679991
20
1.5051791089
11
11.9327815920
21
1.5876927017
0
LINE
5
2D7
100
AcDbEntity
8
0
100
AcDbLine
62
2
6
CONTINUOUS
10
11.9565546993
20
1.6114658090
11
11.9983203056
21
1.6532314154
0
LINE
5
2D8
100
AcDbEntity
8
0
100
AcDbLine
62
2
6
CONTINUOUS
10
12.1010686700
20
1.7559797797
11
12.1484768357
21
1.8033879455
0
LINE
5
2D9
100
AcDbEntity
8
0
100
AcDbLine
62
2
6
CONTINUOUS
10
12.1690937925
20
1.8240049023
11
12.1749347159
21
1.8298458256
0
LINE
5
2DA
100
AcDbEntity
8
0
100
AcDbLine
62
2
6
CONTINUOUS
10
12.1960161299
20
1.8509272397
11
12.2752615373
21
1.9301726471
0
LINE
5
2DB
100
AcDbEntity
8
0
100
AcDbLine
62
2
6
CONTINUOUS
10
12.3001450483
20
1.9550561580
11
12.3292995958
21
1.9842107055
0
LINE
5
2DC
100
AcDbEntity
8
0
100
AcDbLine
62
2
6
CONTINUOUS
10
11.8502679991
20
1.5151414249
11
11.9327815920
21
1.5976550178
0
LINE
5
2DD
100
AcDbEntity
8
0
100
AcDbLine
62
2
6
CONTINUOUS
10
12.0907220787
20
1.7555955045
11
12.1354818521
21
1.8003552779
0
LINE
5
2DE
100
AcDbEntity
8
0
100
AcDbLine
62
2
6
CONTINUOUS
10
12.1591314765
20
1.8240049023
11
12.1748435088
21
1.8397169346
0
LINE
5
2DF
100
AcDbEntity
8
0
100
AcDbLine
62
2
6
CONTINUOUS
10
12.1960161299
20
1.8608895557
11
12.2752615373
21
1.9401349631
0
LINE
5
2E0
100
AcDbEntity
8
0
100
AcDbLine
62
2
6
CONTINUOUS
10
12.3001450483
20
1.9650184741
11
12.3193372797
21
1.9842107055
0
LINE
5
2E1
100
AcDbEntity
8
0
100
AcDbLine
62
2
6
CONTINUOUS
10
11.8502679991
20
1.5251037409
11
11.9327815920
21
1.6076173338
0
LINE
5
2E2
100
AcDbEntity
8
0
100
AcDbLine
62
2
6
CONTINUOUS
10
12.0808657049
20
1.7557014468
11
12.1241882848
21
1.7990240266
0
LINE
5
2E3
100
AcDbEntity
8
0
100
AcDbLine
62
2
6
CONTINUOUS
10
12.1491691604
20
1.8240049023
11
12.1741004694
21
1.8489362113
0
LINE
5
2E4
100
AcDbEntity
8
0
100
AcDbLine
62
2
6
CONTINUOUS
10
12.1960161299
20
1.8708518717
11
12.2752615373
21
1.9500972792
0
LINE
5
2E5
100
AcDbEntity
8
0
100
AcDbLine
62
2
6
CONTINUOUS
10
12.3001450483
20
1.9749807901
11
12.3093749637
21
1.9842107055
0
LINE
5
2E6
100
AcDbEntity
8
0
100
AcDbLine
62
2
6
CONTINUOUS
10
11.8502679991
20
1.5350660570
11
11.9327815920
21
1.6175796499
0
LINE
5
2E7
100
AcDbEntity
8
0
100
AcDbLine
62
2
6
CONTINUOUS
10
12.0715283891
20
1.7563264470
11
12.1134202880
21
1.7982183458
0
LINE
5
2E8
100
AcDbEntity
8
0
100
AcDbLine
62
2
6
CONTINUOUS
10
12.1392068444
20
1.8240049023
11
12.1733089428
21
1.8581070007
0
LINE
5
2E9
100
AcDbEntity
8
0
100
AcDbLine
62
2
6
CONTINUOUS
10
12.1960161299
20
1.8808141878
11
12.2752615373
21
1.9600595952
0
LINE
5
2EA
100
AcDbEntity
8
0
100
AcDbLine
62
2
6
CONTINUOUS
10
11.7933980315
20
1.4881584054
11
11.7951295118
21
1.4898898857
0
LINE
5
2EB
100
AcDbEntity
8
0
100
AcDbLine
62
2
6
CONTINUOUS
10
11.8502679991
20
1.5450283730
11
11.9327815920
21
1.6275419659
0
LINE
5
2EC
100
AcDbEntity
8
0
100
AcDbLine
62
2
6
CONTINUOUS
10
12.0625442777
20
1.7573046516
11
12.1033392678
21
1.7980996417
0
LINE
5
2ED
100
AcDbEntity
8
0
100
AcDbLine
62
2
6
CONTINUOUS
10
12.1292445284
20
1.8240049023
11
12.1716429600
21
1.8664033340
0
LINE
5
2EE
100
AcDbEntity
8
0
100
AcDbLine
62
2
6
CONTINUOUS
10
12.1960161299
20
1.8907765038
11
12.2752615373
21
1.9700219113
0
LINE
5
2EF
100
AcDbEntity
8
0
100
AcDbLine
62
2
6
CONTINUOUS
10
11.7834357155
20
1.4881584054
11
11.7951295118
21
1.4998522018
0
LINE
5
2F0
100
AcDbEntity
8
0
100
AcDbLine
62
2
6
CONTINUOUS
10
11.8502679991
20
1.5549906891
11
11.9327815920
21
1.6375042819
0
LINE
5
2F1
100
AcDbEntity
8
0
100
AcDbLine
62
2
6
CONTINUOUS
10
12.0539671681
20
1.7586898581
11
12.0941525577
21
1.7988752477
0
LINE
5
2F2
100
AcDbEntity
8
0
100
AcDbLine
62
2
6
CONTINUOUS
10
12.1192822123
20
1.8240049023
11
12.1698826818
21
1.8746053717
0
LINE
5
2F3
100
AcDbEntity
8
0
100
AcDbLine
62
2
6
CONTINUOUS
10
12.1960161299
20
1.9007388199
11
12.2752615373
21
1.9799842273
0
LINE
5
2F4
100
AcDbEntity
8
0
100
AcDbLine
62
2
6
CONTINUOUS
10
11.7734733994
20
1.4881584054
11
11.7951295118
21
1.5098145178
0
LINE
5
2F5
100
AcDbEntity
8
0
100
AcDbLine
62
2
6
CONTINUOUS
10
11.8502679991
20
1.5649530051
11
11.9327815920
21
1.6474665980
0
LINE
5
2F6
100
AcDbEntity
8
0
100
AcDbLine
62
2
6
CONTINUOUS
10
12.0459080239
20
1.7605930299
11
12.0855608525
21
1.8002458585
0
LINE
5
2F7
100
AcDbEntity
8
0
100
AcDbLine
62
2
6
CONTINUOUS
10
12.1093198963
20
1.8240049023
11
12.1672292405
21
1.8819142465
0
LINE
5
2F8
100
AcDbEntity
8
0
100
AcDbLine
62
2
6
CONTINUOUS
10
12.1960161299
20
1.9107011359
11
12.2695256995
21
1.9842107055
0
LINE
5
2F9
100
AcDbEntity
8
0
100
AcDbLine
62
2
6
CONTINUOUS
10
11.7635110834
20
1.4881584054
11
11.7951295118
21
1.5197768338
0
LINE
5
2FA
100
AcDbEntity
8
0
100
AcDbLine
62
2
6
CONTINUOUS
10
11.8502679991
20
1.5749153212
11
11.9327815920
21
1.6574289140
0
LINE
5
2FB
100
AcDbEntity
8
0
100
AcDbLine
62
2
6
CONTINUOUS
10
12.0382424156
20
1.7628897377
11
12.0779188724
21
1.8025661945
0
LINE
5
2FC
100
AcDbEntity
8
0
100
AcDbLine
62
2
6
CONTINUOUS
10
12.0993575802
20
1.8240049023
11
12.1643863598
21
1.8890336819
0
LINE
5
2FD
100
AcDbEntity
8
0
100
AcDbLine
62
2
6
CONTINUOUS
10
12.1960161299
20
1.9206634520
11
12.2595633835
21
1.9842107055
0
LINE
5
2FE
100
AcDbEntity
8
0
100
AcDbLine
62
2
6
CONTINUOUS
10
11.7535487673
20
1.4881584054
11
11.7951295118
21
1.5297391499
0
LINE
5
2FF
100
AcDbEntity
8
0
100
AcDbLine
62
2
6
CONTINUOUS
10
11.8502679991
20
1.5848776372
11
11.9240768754
21
1.6586865135
0
LINE
5
300
100
AcDbEntity
8
0
100
AcDbLine
62
2
6
CONTINUOUS
10
12.0310723869
20
1.7656820250
11
12.0715179588
21
1.8061275969
0
LINE
5
301
100
AcDbEntity
8
0
100
AcDbLine
62
2
6
CONTINUOUS
10
12.0893952642
20
1.8240049023
11
12.1608303980
21
1.8954400361
0
LINE
5
302
100
AcDbEntity
8
0
100
AcDbLine
62
2
6
CONTINUOUS
10
12.1960161299
20
1.9306257680
11
12.2496010674
21
1.9842107055
0
LINE
5
303
100
AcDbEntity
8
0
100
AcDbLine
62
2
6
CONTINUOUS
10
11.7435864513
20
1.4881584054
11
11.7951295118
21
1.5397014659
0
LINE
5
304
100
AcDbEntity
8
0
100
AcDbLine
62
2
6
CONTINUOUS
10
11.8502679991
20
1.5948399532
11
11.9141145594
21
1.6586865135
0
LINE
5
305
100
AcDbEntity
8
0
100
AcDbLine
62
2
6
CONTINUOUS
10
12.0243494723
20
1.7689214264
11
12.0666191016
21
1.8111910557
0
LINE
5
306
100
AcDbEntity
8
0
100
AcDbLine
62
2
6
CONTINUOUS
10
12.0794329481
20
1.8240049023
11
12.1568660523
21
1.9014380064
0
LINE
5
307
100
AcDbEntity
8
0
100
AcDbLine
62
2
6
CONTINUOUS
10
12.1960161299
20
1.9405880841
11
12.2396387514
21
1.9842107055
0
LINE
5
308
100
AcDbEntity
8
0
100
AcDbLine
62
2
6
CONTINUOUS
10
11.7336241353
20
1.4881584054
11
11.7951295118
21
1.5496637820
0
LINE
5
309
100
AcDbEntity
8
0
100
AcDbLine
62
2
6
CONTINUOUS
10
11.8502679991
20
1.6048022693
11
11.9041522433
21
1.6586865135
0
LINE
5
30A
100
AcDbEntity
8
0
100
AcDbLine
62
2
6
CONTINUOUS
10
11.9244408797
20
1.6789751499
11
11.9327815920
21
1.6873158622
0
LINE
5
30B
100
AcDbEntity
8
0
100
AcDbLine
62
2
6
CONTINUOUS
10
12.0180478071
20
1.7725820773
11
12.0634939573
21
1.8180282275
0
LINE
5
30C
100
AcDbEntity
8
0
100
AcDbLine
62
2
6
CONTINUOUS
10
12.0694706321
20
1.8240049023
11
12.1524108584
21
1.9069451286
0
LINE
5
30D
100
AcDbEntity
8
0
100
AcDbLine
62
2
6
CONTINUOUS
10
12.1960161299
20
1.9505504001
11
12.2296764354
21
1.9842107055
0
LINE
5
30E
100
AcDbEntity
8
0
100
AcDbLine
62
2
6
CONTINUOUS
10
11.7236618192
20
1.4881584054
11
11.7951295118
21
1.5596260980
0
LINE
5
30F
100
AcDbEntity
8
0
100
AcDbLine
62
2
6
CONTINUOUS
10
11.8502679991
20
1.6147645853
11
11.8941899273
21
1.6586865135
0
LINE
5
310
100
AcDbEntity
8
0
100
AcDbLine
62
2
6
CONTINUOUS
10
11.9144785636
20
1.6789751499
11
11.9327815920
21
1.6972781782
0
LINE
5
311
100
AcDbEntity
8
0
100
AcDbLine
62
2
6
CONTINUOUS
10
12.0123034381
20
1.7768000244
11
12.0949729819
21
1.8594695681
0
LINE
5
312
100
AcDbEntity
8
0
100
AcDbLine
62
2
6
CONTINUOUS
10
12.1040419399
20
1.8685385261
11
12.1472858487
21
1.9117824349
0
LINE
5
313
100
AcDbEntity
8
0
100
AcDbLine
62
2
6
CONTINUOUS
10
12.1960161299
20
1.9605127161
11
12.2197141193
21
1.9842107055
0
LINE
5
314
100
AcDbEntity
8
0
100
AcDbLine
62
2
6
CONTINUOUS
10
11.7136995032
20
1.4881584054
11
11.7951295118
21
1.5695884141
0
LINE
5
315
100
AcDbEntity
8
0
100
AcDbLine
62
2
6
CONTINUOUS
10
11.8502679991
20
1.6247269014
11
11.8842276112
21
1.6586865135
0
LINE
5
316
100
AcDbEntity
8
0
100
AcDbLine
62
2
6
CONTINUOUS
10
11.9045162476
20
1.6789751499
11
11.9327815920
21
1.7072404942
0
LINE
5
317
100
AcDbEntity
8
0
100
AcDbLine
62
2
6
CONTINUOUS
10
12.0068654835
20
1.7813243857
11
12.0850106658
21
1.8594695681
0
LINE
5
318
100
AcDbEntity
8
0
100
AcDbLine
62
2
6
CONTINUOUS
10
12.1024892653
20
1.8769481675
11
12.1419006175
21
1.9163595198
0
LINE
5
319
100
AcDbEntity
8
0
100
AcDbLine
62
2
6
CONTINUOUS
10
12.1960161299
20
1.9704750322
11
12.2097518033
21
1.9842107055
0
LINE
5
31A
100
AcDbEntity
8
0
100
AcDbLine
62
2
6
CONTINUOUS
10
11.7124864858
20
1.4969077042
11
11.7951295118
21
1.5795507301
0
LINE
5
31B
100
AcDbEntity
8
0
100
AcDbLine
62
2
6
CONTINUOUS
10
11.8268765901
20
1.6112978085
11
11.8306588941
21
1.6150801124
0
LINE
5
31C
100
AcDbEntity
8
0
100
AcDbLine
62
2
6
CONTINUOUS
10
11.8502679991
20
1.6346892174
11
11.8742652952
21
1.6586865135
0
LINE
5
31D
100
AcDbEntity
8
0
100
AcDbLine
62
2
6
CONTINUOUS
10
11.8945539315
20
1.6789751499
11
11.9323160346
21
1.7167372530
0
LINE
5
31E
100
AcDbEntity
8
0
100
AcDbLine
62
2
6
CONTINUOUS
10
12.0019636153
20
1.7863848336
11
12.0750483498
21
1.8594695681
0
LINE
5
31F
100
AcDbEntity
8
0
100
AcDbLine
62
2
6
CONTINUOUS
10
12.0995469337
20
1.8839681520
11
12.1357557777
21
1.9201769960
0
LINE
5
320
100
AcDbEntity
8
0
100
AcDbLine
62
2
6
CONTINUOUS
10
12.1960161299
20
1.9804373482
11
12.1997894872
21
1.9842107055
0
LINE
5
321
100
AcDbEntity
8
0
100
AcDbLine
62
2
6
CONTINUOUS
10
11.7124864858
20
1.5068700202
11
11.7951295118
21
1.5895130462
0
LINE
5
322
100
AcDbEntity
8
0
100
AcDbLine
62
2
6
CONTINUOUS
10
11.8169142741
20
1.6112978085
11
11.8306588941
21
1.6250424285
0
LINE
5
323
100
AcDbEntity
8
0
100
AcDbLine
62
2
6
CONTINUOUS
10
11.8502679991
20
1.6446515335
11
11.8643029791
21
1.6586865135
0
LINE
5
324
100
AcDbEntity
8
0
100
AcDbLine
62
2
6
CONTINUOUS
10
11.8845916155
20
1.6789751499
11
11.9223537186
21
1.7167372530
0
LINE
5
325
100
AcDbEntity
8
0
100
AcDbLine
62
2
6
CONTINUOUS
10
11.9975990374
20
1.7919825718
11
12.0650860337
21
1.8594695681
0
LINE
5
326
100
AcDbEntity
8
0
100
AcDbLine
62
2
6
CONTINUOUS
10
12.0948425232
20
1.8892260576
11
12.1289882333
21
1.9233717677
0
LINE
5
327
100
AcDbEntity
8
0
100
AcDbLine
62
2
6
CONTINUOUS
10
11.7124864858
20
1.5168323362
11
11.7951295118
21
1.5994753622
0
LINE
5
328
100
AcDbEntity
8
0
100
AcDbLine
62
2
6
CONTINUOUS
10
11.8069519580
20
1.6112978085
11
11.8306588941
21
1.6350047445
0
LINE
5
329
100
AcDbEntity
8
0
100
AcDbLine
62
2
6
CONTINUOUS
10
11.8502679991
20
1.6546138495
11
11.8543406631
21
1.6586865135
0
LINE
5
32A
100
AcDbEntity
8
0
100
AcDbLine
62
2
6
CONTINUOUS
10
11.8746292995
20
1.6789751499
11
11.9123914025
21
1.7167372530
0
LINE
5
32B
100
AcDbEntity
8
0
100
AcDbLine
62
2
6
CONTINUOUS
10
11.9939403406
20
1.7982861910
11
12.0620001913
21
1.8663460417
0
LINE
5
32C
100
AcDbEntity
8
0
100
AcDbLine
62
2
6
CONTINUOUS
10
12.0877829742
20
1.8921288247
11
12.1217077842
21
1.9260536346
0
LINE
5
32D
100
AcDbEntity
8
0
100
AcDbLine
62
2
6
CONTINUOUS
10
11.7124864858
20
1.5267946523
11
11.7951295118
21
1.6094376782
0
LINE
5
32E
100
AcDbEntity
8
0
100
AcDbLine
62
2
6
CONTINUOUS
10
11.7969896420
20
1.6112978085
11
11.8306588941
21
1.6449670606
0
LINE
5
32F
100
AcDbEntity
8
0
100
AcDbLine
62
2
6
CONTINUOUS
10
11.8646669834
20
1.6789751499
11
11.9024290865
21
1.7167372530
0
LINE
5
330
100
AcDbEntity
8
0
100
AcDbLine
62
2
6
CONTINUOUS
10
11.9905165806
20
1.8048247471
11
12.0648653585
21
1.8791735249
0
LINE
5
331
100
AcDbEntity
8
0
100
AcDbLine
62
2
6
CONTINUOUS
10
12.0770334675
20
1.8913416340
11
12.1138468275
21
1.9281549939
0
LINE
5
332
100
AcDbEntity
8
0
100
AcDbLine
62
2
6
CONTINUOUS
10
11.6639202973
20
1.4881907798
11
11.6653728345
21
1.4896433170
0
LINE
5
333
100
AcDbEntity
8
0
100
AcDbLine
62
2
6
CONTINUOUS
10
11.7124864858
20
1.5367569683
11
11.8306588941
21
1.6549293766
0
LINE
5
334
100
AcDbEntity
8
0
100
AcDbLine
62
2
6
CONTINUOUS
10
11.8547046674
20
1.6789751499
11
11.8924667705
21
1.7167372530
0
LINE
5
335
100
AcDbEntity
8
0
100
AcDbLine
62
2
6
CONTINUOUS
10
11.9350016972
20
1.7592721797
11
11.9431503006
21
1.7674207831
0
LINE
5
336
100
AcDbEntity
8
0
100
AcDbLine
62
2
6
CONTINUOUS
10
11.9878034469
20
1.8120739294
11
12.1055415985
21
1.9298120810
0
LINE
5
337
100
AcDbEntity
8
0
100
AcDbLine
62
2
6
CONTINUOUS
10
11.6539579813
20
1.4881907798
11
11.6653728345
21
1.4996056331
0
LINE
5
338
100
AcDbEntity
8
0
100
AcDbLine
62
2
6
CONTINUOUS
10
11.7124864858
20
1.5467192844
11
11.8250523269
21
1.6592851254
0
LINE
5
339
100
AcDbEntity
8
0
100
AcDbLine
62
2
6
CONTINUOUS
10
11.8502679991
20
1.6845007976
11
11.8825044544
21
1.7167372530
0
LINE
5
33A
100
AcDbEntity
8
0
100
AcDbLine
62
2
6
CONTINUOUS
10
11.9250393812
20
1.7592721797
11
11.9460277267
21
1.7802605252
0
LINE
5
33B
100
AcDbEntity
8
0
100
AcDbLine
62
2
6
CONTINUOUS
10
11.9855910349
20
1.8198238334
11
12.0963724491
21
1.9306052477
0
LINE
5
33C
100
AcDbEntity
8
0
100
AcDbLine
62
2
6
CONTINUOUS
10
11.6439956653
20
1.4881907798
11
11.6653728345
21
1.5095679491
0
LINE
5
33D
100
AcDbEntity
8
0
100
AcDbLine
62
2
6
CONTINUOUS
10
11.7124864858
20
1.5566816004
11
11.8150900108
21
1.6592851254
0
LINE
5
33E
100
AcDbEntity
8
0
100
AcDbLine
62
2
6
CONTINUOUS
10
11.8502679991
20
1.6944631137
11
11.8725421384
21
1.7167372530
0
LINE
5
33F
100
AcDbEntity
8
0
100
AcDbLine
62
2
6
CONTINUOUS
10
11.9150770651
20
1.7592721797
11
11.9489051528
21
1.7931002674
0
LINE
5
340
100
AcDbEntity
8
0
100
AcDbLine
62
2
6
CONTINUOUS
10
11.9838901578
20
1.8280852724
11
12.0869774729
21
1.9311725875
0
LINE
5
341
100
AcDbEntity
8
0
100
AcDbLine
62
2
6
CONTINUOUS
10
11.6340333492
20
1.4881907798
11
11.6653728345
21
1.5195302652
0
LINE
5
342
100
AcDbEntity
8
0
100
AcDbLine
62
2
6
CONTINUOUS
10
11.7124864858
20
1.5666439165
11
11.8051276948
21
1.6592851254
0
LINE
5
343
100
AcDbEntity
8
0
100
AcDbLine
62
2
6
CONTINUOUS
10
11.8502679991
20
1.7044254297
11
11.8625798223
21
1.7167372530
0
LINE
5
344
100
AcDbEntity
8
0
100
AcDbLine
62
2
6
CONTINUOUS
10
11.9051147491
20
1.7592721797
11
11.9517825789
21
1.8059400095
0
LINE
5
345
100
AcDbEntity
8
0
100
AcDbLine
62
2
6
CONTINUOUS
10
11.9830149173
20
1.8371723479
11
12.0767134903
21
1.9308709209
0
LINE
5
346
100
AcDbEntity
8
0
100
AcDbLine
62
2
6
CONTINUOUS
10
11.6240710332
20
1.4881907798
11
11.6653728345
21
1.5294925812
0
LINE
5
347
100
AcDbEntity
8
0
100
AcDbLine
62
2
6
CONTINUOUS
10
11.7124864858
20
1.5766062325
11
11.7951653787
21
1.6592851254
0
LINE
5
348
100
AcDbEntity
8
0
100
AcDbLine
62
2
6
CONTINUOUS
10
11.8502679991
20
1.7143877458
11
11.8526175063
21
1.7167372530
0
LINE
5
349
100
AcDbEntity
8
0
100
AcDbLine
62
2
6
CONTINUOUS
10
11.8951524331
20
1.7592721797
11
11.9546600050
21
1.8187797517
0
LINE
5
34A
100
AcDbEntity
8
0
100
AcDbLine
62
2
6
CONTINUOUS
10
11.9824213157
20
1.8465410624
11
12.0658489742
21
1.9299687209
0
LINE
5
34B
100
AcDbEntity
8
0
100
AcDbLine
62
2
6
CONTINUOUS
10
11.6141087171
20
1.4881907798
11
11.6653728345
21
1.5394548972
0
LINE
5
34C
100
AcDbEntity
8
0
100
AcDbLine
62
2
6
CONTINUOUS
10
11.7124864858
20
1.5865685485
11
11.7951295118
21
1.6692115745
0
LINE
5
34D
100
AcDbEntity
8
0
100
AcDbLine
62
2
6
CONTINUOUS
10
11.8851901170
20
1.7592721797
11
11.9575374311
21
1.8316194938
0
LINE
5
34E
100
AcDbEntity
8
0
100
AcDbLine
62
2
6
CONTINUOUS
10
11.9831164865
20
1.8571985493
11
12.0543811915
21
1.9284632542
0
LINE
5
34F
100
AcDbEntity
8
0
100
AcDbLine
62
2
6
CONTINUOUS
10
11.6041464011
20
1.4881907798
11
11.6653728345
21
1.5494172133
0
LINE
5
350
100
AcDbEntity
8
0
100
AcDbLine
62
2
6
CONTINUOUS
10
11.7124864858
20
1.5965308646
11
11.7951295118
21
1.6791738905
0
LINE
5
351
100
AcDbEntity
8
0
100
AcDbLine
62
2
6
CONTINUOUS
10
11.8752278010
20
1.7592721797
11
11.9604148572
21
1.8444592360
0
LINE
5
352
100
AcDbEntity
8
0
100
AcDbLine
62
2
6
CONTINUOUS
10
11.9848892342
20
1.8689336130
11
12.0418846711
21
1.9259290498
0
LINE
5
353
100
AcDbEntity
8
0
100
AcDbLine
62
2
6
CONTINUOUS
10
11.5941840850
20
1.4881907798
11
11.6653728345
21
1.5593795293
0
LINE
5
354
100
AcDbEntity
8
0
100
AcDbLine
62
2
6
CONTINUOUS
10
11.7124864858
20
1.6064931806
11
11.7951295118
21
1.6891362066
0
LINE
5
355
100
AcDbEntity
8
0
100
AcDbLine
62
2
6
CONTINUOUS
10
11.8652654849
20
1.7592721797
11
11.9632922833
21
1.8572989781
0
LINE
5
356
100
AcDbEntity
8
0
100
AcDbLine
62
2
6
CONTINUOUS
10
11.9893356050
20
1.8833422998
11
12.0263194895
21
1.9203261843
0
LINE
5
357
100
AcDbEntity
8
0
100
AcDbLine
62
2
6
CONTINUOUS
10
11.5886675514
20
1.4926365623
11
11.6653728345
21
1.5693418454
0
LINE
5
358
100
AcDbEntity
8
0
100
AcDbLine
62
2
6
CONTINUOUS
10
11.7073287976
20
1.6112978085
11
11.7951295118
21
1.6990985226
0
LINE
5
359
100
AcDbEntity
8
0
100
AcDbLine
62
2
6
CONTINUOUS
10
11.8553031689
20
1.7592721797
11
11.9661697094
21
1.8701387203
0
LINE
5
35A
100
AcDbEntity
8
0
100
AcDbLine
62
2
6
CONTINUOUS
10
11.5886675514
20
1.5025988783
11
11.6653728345
21
1.5793041614
0
LINE
5
35B
100
AcDbEntity
8
0
100
AcDbLine
62
2
6
CONTINUOUS
10
11.6973664816
20
1.6112978085
11
11.7951295118
21
1.7090608387
0
LINE
5
35C
100
AcDbEntity
8
0
100
AcDbLine
62
2
6
CONTINUOUS
10
11.8453408528
20
1.7592721797
11
11.9690471355
21
1.8829784624
0
LINE
5
35D
100
AcDbEntity
8
0
100
AcDbLine
62
2
6
CONTINUOUS
10
11.5716887610
20
1.4955824039
11
11.5851057608
21
1.5089994038
0
LINE
5
35E
100
AcDbEntity
8
0
100
AcDbLine
62
2
6
CONTINUOUS
10
11.5886675514
20
1.5125611944
11
11.6653728345
21
1.5892664775
0
LINE
5
35F
100
AcDbEntity
8
0
100
AcDbLine
62
2
6
CONTINUOUS
10
11.6874041655
20
1.6112978085
11
11.7929244896
21
1.7168181325
0
LINE
5
360
100
AcDbEntity
8
0
100
AcDbLine
62
2
6
CONTINUOUS
10
11.8393202481
20
1.7632138910
11
11.9719245616
21
1.8958182046
0
LINE
5
361
100
AcDbEntity
8
0
100
AcDbLine
62
2
6
CONTINUOUS
10
11.5536382214
20
1.4874941804
11
11.6648202588
21
1.5986762178
0
LINE
5
362
100
AcDbEntity
8
0
100
AcDbLine
62
2
6
CONTINUOUS
10
11.6774418495
20
1.6112978085
11
11.7829621735
21
1.7168181325
0
LINE
5
363
100
AcDbEntity
8
0
100
AcDbLine
62
2
6
CONTINUOUS
10
11.8378358090
20
1.7716917680
11
11.8885357235
21
1.8223916825
0
LINE
5
364
100
AcDbEntity
8
0
100
AcDbLine
62
2
6
CONTINUOUS
10
11.8910453019
20
1.8249012609
11
11.9748019877
21
1.9086579467
0
LINE
5
365
100
AcDbEntity
8
0
100
AcDbLine
62
2
6
CONTINUOUS
10
11.5413368086
20
1.4851550836
11
11.6639261628
21
1.6077444378
0
LINE
5
366
100
AcDbEntity
8
0
100
AcDbLine
62
2
6
CONTINUOUS
10
11.6773454028
20
1.6211636778
11
11.7729998575
21
1.7168181325
0
LINE
5
367
100
AcDbEntity
8
0
100
AcDbLine
62
2
6
CONTINUOUS
10
11.8363513698
20
1.7801696449
11
11.8870882289
21
1.8309065039
0
LINE
5
368
100
AcDbEntity
8
0
100
AcDbLine
62
2
6
CONTINUOUS
10
11.8925868072
20
1.8364050823
11
11.9776794138
21
1.9214976888
0
LINE
5
369
100
AcDbEntity
8
0
100
AcDbLine
62
2
6
CONTINUOUS
10
11.5306784099
20
1.4844590009
11
11.5777737970
21
1.5315543881
0
LINE
5
36A
100
AcDbEntity
8
0
100
AcDbLine
62
2
6
CONTINUOUS
10
11.5837886200
20
1.5375692111
11
11.6619054725
21
1.6156860636
0
LINE
5
36B
100
AcDbEntity
8
0
100
AcDbLine
62
2
6
CONTINUOUS
10
11.6773454028
20
1.6311259938
11
11.7055045343
21
1.6592851254
0
LINE
5
36C
100
AcDbEntity
8
0
100
AcDbLine
62
2
6
CONTINUOUS
10
11.7124864858
20
1.6662670769
11
11.7630375414
21
1.7168181325
0
LINE
5
36D
100
AcDbEntity
8
0
100
AcDbLine
62
2
6
CONTINUOUS
10
11.8348669307
20
1.7886475218
11
11.8856407343
21
1.8394213253
0
LINE
5
36E
100
AcDbEntity
8
0
100
AcDbLine
62
2
6
CONTINUOUS
10
11.8941283125
20
1.8479089036
11
11.9737060642
21
1.9274866552
0
LINE
5
36F
100
AcDbEntity
8
0
100
AcDbLine
62
2
6
CONTINUOUS
10
11.5213937802
20
1.4851366873
11
11.5637968824
21
1.5275397895
0
LINE
5
370
100
AcDbEntity
8
0
100
AcDbLine
62
2
6
CONTINUOUS
10
11.5896791691
20
1.5534220762
11
11.6589682760
21
1.6227111831
0
LINE
5
371
100
AcDbEntity
8
0
100
AcDbLine
62
2
6
CONTINUOUS
10
11.6773454028
20
1.6410883099
11
11.6955422183
21
1.6592851254
0
LINE
5
372
100
AcDbEntity
8
0
100
AcDbLine
62
2
6
CONTINUOUS
10
11.7124864858
20
1.6762293929
11
11.7530752254
21
1.7168181325
0
LINE
5
373
100
AcDbEntity
8
0
100
AcDbLine
62
2
6
CONTINUOUS
10
11.7955292726
20
1.7592721797
11
11.7992918849
21
1.7630347920
0
LINE
5
374
100
AcDbEntity
8
0
100
AcDbLine
62
2
6
CONTINUOUS
10
11.8333824916
20
1.7971253987
11
11.8841932396
21
1.8479361467
0
LINE
5
375
100
AcDbEntity
8
0
100
AcDbLine
62
2
6
CONTINUOUS
10
11.8956698178
20
1.8594127249
11
11.9637437481
21
1.9274866552
0
LINE
5
376
100
AcDbEntity
8
0
100
AcDbLine
62
2
6
CONTINUOUS
10
11.5128501708
20
1.4865553939
11
11.5550275740
21
1.5287327971
0
LINE
5
377
100
AcDbEntity
8
0
100
AcDbLine
62
2
6
CONTINUOUS
10
11.5894434931
20
1.5631487163
11
11.6556083785
21
1.6293136017
0
LINE
5
378
100
AcDbEntity
8
0
100
AcDbLine
62
2
6
CONTINUOUS
10
11.6773454028
20
1.6510506259
11
11.6855799023
21
1.6592851254
0
LINE
5
379
100
AcDbEntity
8
0
100
AcDbLine
62
2
6
CONTINUOUS
10
11.7124864858
20
1.6861917090
11
11.7431129094
21
1.7168181325
0
LINE
5
37A
100
AcDbEntity
8
0
100
AcDbLine
62
2
6
CONTINUOUS
10
11.7855669566
20
1.7592721797
11
11.8015047747
21
1.7752099979
0
LINE
5
37B
100
AcDbEntity
8
0
100
AcDbLine
62
2
6
CONTINUOUS
10
11.8318980524
20
1.8056032756
11
11.8827457450
21
1.8564509682
0
LINE
5
37C
100
AcDbEntity
8
0
100
AcDbLine
62
2
6
CONTINUOUS
10
11.8972113231
20
1.8709165463
11
11.9537814321
21
1.9274866552
0
LINE
5
37D
100
AcDbEntity
8
0
100
AcDbLine
62
2
6
CONTINUOUS
10
11.5050128716
20
1.4886804108
11
11.5488114110
21
1.5324789502
0
LINE
5
37E
100
AcDbEntity
8
0
100
AcDbLine
62
2
6
CONTINUOUS
10
11.5794440011
20
1.5631115403
11
11.6512107027
21
1.6348782419
0
LINE
5
37F
100
AcDbEntity
8
0
100
AcDbLine
62
2
6
CONTINUOUS
10
11.7124864858
20
1.6961540250
11
11.7331505933
21
1.7168181325
0
LINE
5
380
100
AcDbEntity
8
0
100
AcDbLine
62
2
6
CONTINUOUS
10
11.7756046405
20
1.7592721797
11
11.8037176645
21
1.7873852037
0
LINE
5
381
100
AcDbEntity
8
0
100
AcDbLine
62
2
6
CONTINUOUS
10
11.8304136133
20
1.8140811525
11
11.8812982504
21
1.8649657896
0
LINE
5
382
100
AcDbEntity
8
0
100
AcDbLine
62
2
6
CONTINUOUS
10
11.8987528284
20
1.8824203676
11
11.9438191160
21
1.9274866552
0
LINE
5
383
100
AcDbEntity
8
0
100
AcDbLine
62
2
6
CONTINUOUS
10
11.4976401881
20
1.4912700434
11
11.5456062647
21
1.5392361200
0
LINE
5
384
100
AcDbEntity
8
0
100
AcDbLine
62
2
6
CONTINUOUS
10
11.5689971598
20
1.5626270150
11
11.6464256605
21
1.6400555157
0
LINE
5
385
100
AcDbEntity
8
0
100
AcDbLine
62
2
6
CONTINUOUS
10
11.7124864858
20
1.7061163411
11
11.7231882773
21
1.7168181325
0
LINE
5
386
100
AcDbEntity
8
0
100
AcDbLine
62
2
6
CONTINUOUS
10
11.7656423245
20
1.7592721797
11
11.8059305543
21
1.7995604095
0
LINE
5
387
100
AcDbEntity
8
0
100
AcDbLine
62
2
6
CONTINUOUS
10
11.8289291742
20
1.8225590294
11
11.8798507558
21
1.8734806110
0
LINE
5
388
100
AcDbEntity
8
0
100
AcDbLine
62
2
6
CONTINUOUS
10
11.9002943337
20
1.8939241890
11
11.9338568000
21
1.9274866552
0
LINE
5
389
100
AcDbEntity
8
0
100
AcDbLine
62
2
6
CONTINUOUS
10
11.4913396563
20
1.4949318276
11
11.5459713539
21
1.5495635252
0
LINE
5
38A
100
AcDbEntity
8
0
100
AcDbLine
62
2
6
CONTINUOUS
10
11.5561506634
20
1.5597428346
11
11.6409153745
21
1.6445075458
0
LINE
5
38B
100
AcDbEntity
8
0
100
AcDbLine
62
2
6
CONTINUOUS
10
11.7124864858
20
1.7160786571
11
11.7132259612
21
1.7168181325
0
LINE
5
38C
100
AcDbEntity
8
0
100
AcDbLine
62
2
6
CONTINUOUS
10
11.7556800084
20
1.7592721797
11
11.8081434441
21
1.8117356154
0
LINE
5
38D
100
AcDbEntity
8
0
100
AcDbLine
62
2
6
CONTINUOUS
10
11.8274447350
20
1.8310369063
11
11.8784032612
21
1.8819954324
0
LINE
5
38E
100
AcDbEntity
8
0
100
AcDbLine
62
2
6
CONTINUOUS
10
11.9018358390
20
1.9054280103
11
11.9238944839
21
1.9274866552
0
LINE
5
38F
100
AcDbEntity
8
0
100
AcDbLine
62
2
6
CONTINUOUS
10
11.4855284017
20
1.4990828891
11
11.5820036179
21
1.5955581053
0
LINE
5
390
100
AcDbEntity
8
0
100
AcDbLine
62
2
6
CONTINUOUS
10
11.5887668262
20
1.6023213135
11
11.6348124635
21
1.6483669508
0
LINE
5
391
100
AcDbEntity
8
0
100
AcDbLine
62
2
6
CONTINUOUS
10
11.7457176924
20
1.7592721797
11
11.8103563339
21
1.8239108212
0
LINE
5
392
100
AcDbEntity
8
0
100
AcDbLine
62
2
6
CONTINUOUS
10
11.8259602959
20
1.8395147832
11
11.8769557665
21
1.8905102539
0
LINE
5
393
100
AcDbEntity
8
0
100
AcDbLine
62
2
6
CONTINUOUS
10
11.9033773443
20
1.9169318317
11
11.9139321679
21
1.9274866552
0
LINE
5
394
100
AcDbEntity
8
0
100
AcDbLine
62
2
6
CONTINUOUS
10
11.4803901536
20
1.5039069570
11
11.5727966710
21
1.5963134743
0
LINE
5
395
100
AcDbEntity
8
0
100
AcDbLine
62
2
6
CONTINUOUS
10
11.5853303110
20
1.6088471144
11
11.6283237597
21
1.6518405630
0
LINE
5
396
100
AcDbEntity
8
0
100
AcDbLine
62
2
6
CONTINUOUS
10
11.7357553763
20
1.7592721797
11
11.8125692237
21
1.8360860271
0
LINE
5
397
100
AcDbEntity
8
0
100
AcDbLine
62
2
6
CONTINUOUS
10
11.8244758568
20
1.8479926601
11
11.8755082719
21
1.8990250753
0
LINE
5
398
100
AcDbEntity
8
0
100
AcDbLine
62
2
6
CONTINUOUS
10
11.4763593908
20
1.5098385102
11
11.5633298204
21
1.5968089398
0
LINE
5
399
100
AcDbEntity
8
0
100
AcDbLine
62
2
6
CONTINUOUS
10
11.5799792525
20
1.6134583720
11
11.6210719642
21
1.6545510836
0
LINE
5
39A
100
AcDbEntity
8
0
100
AcDbLine
62
2
6
CONTINUOUS
10
11.7257930603
20
1.7592721797
11
11.8147821135
21
1.8482612329
0
LINE
5
39B
100
AcDbEntity
8
0
100
AcDbLine
62
2
6
CONTINUOUS
10
11.8229914176
20
1.8564705370
11
11.8740607773
21
1.9075398967
0
LINE
5
39C
100
AcDbEntity
8
0
100
AcDbLine
62
2
6
CONTINUOUS
10
11.4447169861
20
1.4881584216
11
11.4508213139
21
1.4942627494
0
LINE
5
39D
100
AcDbEntity
8
0
100
AcDbLine
62
2
6
CONTINUOUS
10
11.4731228593
20
1.5165642947
11
11.5534762054
21
1.5969176408
0
LINE
5
39E
100
AcDbEntity
8
0
100
AcDbLine
62
2
6
CONTINUOUS
10
11.5730782896
20
1.6165197250
11
11.6136444513
21
1.6570858868
0
LINE
5
39F
100
AcDbEntity
8
0
100
AcDbLine
62
2
6
CONTINUOUS
10
11.7158307443
20
1.7592721797
11
11.8169950033
21
1.8604364388
0
LINE
5
3A0
100
AcDbEntity
8
0
100
AcDbLine
62
2
6
CONTINUOUS
10
11.8215069785
20
1.8649484139
11
11.8726132827
21
1.9160547181
0
LINE
5
3A1
100
AcDbEntity
8
0
100
AcDbLine
62
2
6
CONTINUOUS
10
11.4347546701
20
1.4881584216
11
11.4508213139
21
1.5042250654
0
LINE
5
3A2
100
AcDbEntity
8
0
100
AcDbLine
62
2
6
CONTINUOUS
10
11.4708169055
20
1.5242206570
11
11.5431048583
21
1.5965086098
0
LINE
5
3A3
100
AcDbEntity
8
0
100
AcDbLine
62
2
6
CONTINUOUS
10
11.5649088675
20
1.6183126190
11
11.6054192568
21
1.6588230083
0
LINE
5
3A4
100
AcDbEntity
8
0
100
AcDbLine
62
2
6
CONTINUOUS
10
11.7058684282
20
1.7592721797
11
11.8192078931
21
1.8726116446
0
LINE
5
3A5
100
AcDbEntity
8
0
100
AcDbLine
62
2
6
CONTINUOUS
10
11.8200225394
20
1.8734262909
11
11.8711657881
21
1.9245695396
0
LINE
5
3A6
100
AcDbEntity
8
0
100
AcDbLine
62
2
6
CONTINUOUS
10
11.4247923540
20
1.4881584216
11
11.4508213139
21
1.5141873815
0
LINE
5
3A7
100
AcDbEntity
8
0
100
AcDbLine
62
2
6
CONTINUOUS
10
11.4698723926
20
1.5332384602
11
11.5317800323
21
1.5951460999
0
LINE
5
3A8
100
AcDbEntity
8
0
100
AcDbLine
62
2
6
CONTINUOUS
10
11.5558779950
20
1.6192440625
11
11.5970882563
21
1.6604543238
0
LINE
5
3A9
100
AcDbEntity
8
0
100
AcDbLine
62
2
6
CONTINUOUS
10
11.6965114923
20
1.7598775599
11
11.7547360918
21
1.8181021594
0
LINE
5
3AA
100
AcDbEntity
8
0
100
AcDbLine
62
2
6
CONTINUOUS
10
11.7557695206
20
1.8191355881
11
11.8641205877
21
1.9274866552
0
LINE
5
3AB
100
AcDbEntity
8
0
100
AcDbLine
62
2
6
CONTINUOUS
10
11.4148300380
20
1.4881584216
11
11.4508213139
21
1.5241496975
0
LINE
5
3AC
100
AcDbEntity
8
0
100
AcDbLine
62
2
6
CONTINUOUS
10
11.4705889278
20
1.5439173114
11
11.5196194427
21
1.5929478262
0
LINE
5
3AD
100
AcDbEntity
8
0
100
AcDbLine
62
2
6
CONTINUOUS
10
11.5463588560
20
1.6196872396
11
11.5880907347
21
1.6614191183
0
LINE
5
3AE
100
AcDbEntity
8
0
100
AcDbLine
62
2
6
CONTINUOUS
10
11.6946882773
20
1.7680166609
11
11.7534598535
21
1.8267882371
0
LINE
5
3AF
100
AcDbEntity
8
0
100
AcDbLine
62
2
6
CONTINUOUS
10
11.7576402801
20
1.8309686637
11
11.8541582716
21
1.9274866552
0
LINE
5
3B0
100
AcDbEntity
8
0
100
AcDbLine
62
2
6
CONTINUOUS
10
11.4048677219
20
1.4881584216
11
11.4508213139
21
1.5341120136
0
LINE
5
3B1
100
AcDbEntity
8
0
100
AcDbLine
62
2
6
CONTINUOUS
10
11.4733143851
20
1.5566050848
11
11.5048279823
21
1.5881186819
0
LINE
5
3B2
100
AcDbEntity
8
0
100
AcDbLine
62
2
6
CONTINUOUS
10
11.5355579859
20
1.6188486855
11
11.5789042880
21
1.6621949876
0
LINE
5
3B3
100
AcDbEntity
8
0
100
AcDbLine
62
2
6
CONTINUOUS
10
11.6928650623
20
1.7761557620
11
11.7521836152
21
1.8354743149
0
LINE
5
3B4
100
AcDbEntity
8
0
100
AcDbLine
62
2
6
CONTINUOUS
10
11.7595110396
20
1.8428017393
11
11.8441959556
21
1.9274866552
0
LINE
5
3B5
100
AcDbEntity
8
0
100
AcDbLine
62
2
6
CONTINUOUS
10
11.3949054059
20
1.4881584216
11
11.4508213139
21
1.5440743296
0
LINE
5
3B6
100
AcDbEntity
8
0
100
AcDbLine
62
2
6
CONTINUOUS
10
11.5236150630
20
1.6168680787
11
11.5694462437
21
1.6626992594
0
LINE
5
3B7
100
AcDbEntity
8
0
100
AcDbLine
62
2
6
CONTINUOUS
10
11.6660191640
20
1.7592721797
11
11.6667307371
21
1.7599837528
0
LINE
5
3B8
100
AcDbEntity
8
0
100
AcDbLine
62
2
6
CONTINUOUS
10
11.6910418473
20
1.7842948630
11
11.7509073770
21
1.8441603926
0
LINE
5
3B9
100
AcDbEntity
8
0
100
AcDbLine
62
2
6
CONTINUOUS
10
11.7613817992
20
1.8546348148
11
11.8342336395
21
1.9274866552
0
LINE
5
3BA
100
AcDbEntity
8
0
100
AcDbLine
62
2
6
CONTINUOUS
10
11.3849430898
20
1.4881584216
11
11.4508213139
21
1.5540366457
0
LINE
5
3BB
100
AcDbEntity
8
0
100
AcDbLine
62
2
6
CONTINUOUS
10
11.5101310127
20
1.6133463444
11
11.5595999314
21
1.6628152631
0
LINE
5
3BC
100
AcDbEntity
8
0
100
AcDbLine
62
2
6
CONTINUOUS
10
11.6560568480
20
1.7592721797
11
11.6630231278
21
1.7662384595
0
LINE
5
3BD
100
AcDbEntity
8
0
100
AcDbLine
62
2
6
CONTINUOUS
10
11.6892186323
20
1.7924339641
11
11.7496311387
21
1.8528464704
0
LINE
5
3BE
100
AcDbEntity
8
0
100
AcDbLine
62
2
6
CONTINUOUS
10
11.7632525587
20
1.8664678904
11
11.8242713235
21
1.9274866552
0
LINE
5
3BF
100
AcDbEntity
8
0
100
AcDbLine
62
2
6
CONTINUOUS
10
11.3749807738
20
1.4881584216
11
11.4508213139
21
1.5639989617
0
LINE
5
3C0
100
AcDbEntity
8
0
100
AcDbLine
62
2
6
CONTINUOUS
10
11.4941023726
20
1.6072800204
11
11.5492633349
21
1.6624409826
0
LINE
5
3C1
100
AcDbEntity
8
0
100
AcDbLine
62
2
6
CONTINUOUS
10
11.6460945320
20
1.7592721797
11
11.6593155185
21
1.7724931663
0
LINE
5
3C2
100
AcDbEntity
8
0
100
AcDbLine
62
2
6
CONTINUOUS
10
11.6873954173
20
1.8005730651
11
11.7483549004
21
1.8615325482
0
LINE
5
3C3
100
AcDbEntity
8
0
100
AcDbLine
62
2
6
CONTINUOUS
10
11.7651233182
20
1.8783009660
11
11.8143090075
21
1.9274866552
0
LINE
5
3C4
100
AcDbEntity
8
0
100
AcDbLine
62
2
6
CONTINUOUS
10
11.3682915419
20
1.4914315057
11
11.4508213139
21
1.5739612777
0
LINE
5
3C5
100
AcDbEntity
8
0
100
AcDbLine
62
2
6
CONTINUOUS
10
11.4894085530
20
1.6125485168
11
11.5389267383
21
1.6620667022
0
LINE
5
3C6
100
AcDbEntity
8
0
100
AcDbLine
62
2
6
CONTINUOUS
10
11.6361322159
20
1.7592721797
11
11.6556079092
21
1.7787478730
0
LINE
5
3C7
100
AcDbEntity
8
0
100
AcDbLine
62
2
6
CONTINUOUS
10
11.6855722024
20
1.8087121662
11
11.7470786621
21
1.8702186259
0
LINE
5
3C8
100
AcDbEntity
8
0
100
AcDbLine
62
2
6
CONTINUOUS
10
11.7669940777
20
1.8901340415
11
11.8043466914
21
1.9274866552
0
LINE
5
3C9
100
AcDbEntity
8
0
100
AcDbLine
62
2
6
CONTINUOUS
10
11.3682915419
20
1.5013938218
11
11.4508213139
21
1.5839235938
0
LINE
5
3CA
100
AcDbEntity
8
0
100
AcDbLine
62
2
6
CONTINUOUS
10
11.4894085530
20
1.6225108328
11
11.5279048547
21
1.6610071346
0
LINE
5
3CB
100
AcDbEntity
8
0
100
AcDbLine
62
2
6
CONTINUOUS
10
11.6261698999
20
1.7592721797
11
11.6519002999
21
1.7850025798
0
LINE
5
3CC
100
AcDbEntity
8
0
100
AcDbLine
62
2
6
CONTINUOUS
10
11.6837489874
20
1.8168512672
11
11.7458024238
21
1.8789047037
0
LINE
5
3CD
100
AcDbEntity
8
0
100
AcDbLine
62
2
6
CONTINUOUS
10
11.7688648372
20
1.9019671171
11
11.7943843754
21
1.9274866552
0
LINE
5
3CE
100
AcDbEntity
8
0
100
AcDbLine
62
2
6
CONTINUOUS
10
11.3682915419
20
1.5113561378
11
11.4508178471
21
1.5938824430
0
LINE
5
3CF
100
AcDbEntity
8
0
100
AcDbLine
62
2
6
CONTINUOUS
10
11.4894085530
20
1.6324731489
11
11.5162825658
21
1.6593471617
0
LINE
5
3D0
100
AcDbEntity
8
0
100
AcDbLine
62
2
6
CONTINUOUS
10
11.6162075838
20
1.7592721797
11
11.6481926906
21
1.7912572865
0
LINE
5
3D1
100
AcDbEntity
8
0
100
AcDbLine
62
2
6
CONTINUOUS
10
11.6819257724
20
1.8249903683
11
11.7445261855
21
1.8875907814
0
LINE
5
3D2
100
AcDbEntity
8
0
100
AcDbLine
62
2
6
CONTINUOUS
10
11.7707355968
20
1.9138001927
11
11.7844220593
21
1.9274866552
0
LINE
5
3D3
100
AcDbEntity
8
0
100
AcDbLine
62
2
6
CONTINUOUS
10
11.3351315096
20
1.4881584216
11
11.3389749478
21
1.4920018597
0
LINE
5
3D4
100
AcDbEntity
8
0
100
AcDbLine
62
2
6
CONTINUOUS
10
11.3682915419
20
1.5213184539
11
11.4504518828
21
1.6034787947
0
LINE
5
3D5
100
AcDbEntity
8
0
100
AcDbLine
62
2
6
CONTINUOUS
10
11.4894085530
20
1.6424354649
11
11.5035338941
21
1.6565608061
0
LINE
5
3D6
100
AcDbEntity
8
0
100
AcDbLine
62
2
6
CONTINUOUS
10
11.6062452678
20
1.7592721797
11
11.6444850813
21
1.7975119932
0
LINE
5
3D7
100
AcDbEntity
8
0
100
AcDbLine
62
2
6
CONTINUOUS
10
11.6801025574
20
1.8331294693
11
11.7432499473
21
1.8962768592
0
LINE
5
3D8
100
AcDbEntity
8
0
100
AcDbLine
62
2
6
CONTINUOUS
10
11.7726063563
20
1.9256332682
11
11.7744597433
21
1.9274866552
0
LINE
5
3D9
100
AcDbEntity
8
0
100
AcDbLine
62
2
6
CONTINUOUS
10
11.3251691936
20
1.4881584216
11
11.3389749478
21
1.5019641757
0
LINE
5
3DA
100
AcDbEntity
8
0
100
AcDbLine
62
2
6
CONTINUOUS
10
11.3682915419
20
1.5312807699
11
11.4500442986
21
1.6130335265
0
LINE
5
3DB
100
AcDbEntity
8
0
100
AcDbLine
62
2
6
CONTINUOUS
10
11.4894085530
20
1.6523977809
11
11.4902639887
21
1.6532532167
0
LINE
5
3DC
100
AcDbEntity
8
0
100
AcDbLine
62
2
6
CONTINUOUS
10
11.5962829517
20
1.7592721797
11
11.6407774720
21
1.8037667000
0
LINE
5
3DD
100
AcDbEntity
8
0
100
AcDbLine
62
2
6
CONTINUOUS
10
11.6782793424
20
1.8412685703
11
11.7419737090
21
1.9049629370
0
LINE
5
3DE
100
AcDbEntity
8
0
100
AcDbLine
62
2
6
CONTINUOUS
10
11.3152068775
20
1.4881584216
11
11.3389749478
21
1.5119264918
0
LINE
5
3DF
100
AcDbEntity
8
0
100
AcDbLine
62
2
6
CONTINUOUS
10
11.3682915419
20
1.5412430860
11
11.4487054044
21
1.6216569485
0
LINE
5
3E0
100
AcDbEntity
8
0
100
AcDbLine
62
2
6
CONTINUOUS
10
11.5863206357
20
1.7592721797
11
11.6370698627
21
1.8100214067
0
LINE
5
3E1
100
AcDbEntity
8
0
100
AcDbLine
62
2
6
CONTINUOUS
10
11.6764561274
20
1.8494076714
11
11.7406974707
21
1.9136490147
0
LINE
5
3E2
100
AcDbEntity
8
0
100
AcDbLine
62
2
6
CONTINUOUS
10
11.3052445615
20
1.4881584216
11
11.3389749478
21
1.5218888078
0
LINE
5
3E3
100
AcDbEntity
8
0
100
AcDbLine
62
2
6
CONTINUOUS
10
11.3682915419
20
1.5512054020
11
11.4470755833
21
1.6299894434
0
LINE
5
3E4
100
AcDbEntity
8
0
100
AcDbLine
62
2
6
CONTINUOUS
10
11.5763583196
20
1.7592721797
11
11.6333622534
21
1.8162761135
0
LINE
5
3E5
100
AcDbEntity
8
0
100
AcDbLine
62
2
6
CONTINUOUS
10
11.6746329124
20
1.8575467724
11
11.7394212324
21
1.9223350925
0
LINE
5
3E6
100
AcDbEntity
8
0
100
AcDbLine
62
2
6
CONTINUOUS
10
11.2952822455
20
1.4881584216
11
11.3389749478
21
1.5318511239
0
LINE
5
3E7
100
AcDbEntity
8
0
100
AcDbLine
62
2
6
CONTINUOUS
10
11.3682915419
20
1.5611677181
11
11.4440109493
21
1.6368871254
0
LINE
5
3E8
100
AcDbEntity
8
0
100
AcDbLine
62
2
6
CONTINUOUS
10
11.5725912188
20
1.7654673949
11
11.6296546441
21
1.8225308202
0
LINE
5
3E9
100
AcDbEntity
8
0
100
AcDbLine
62
2
6
CONTINUOUS
10
11.6728096974
20
1.8656858735
11
11.7346104791
21
1.9274866552
0
LINE
5
3EA
100
AcDbEntity
8
0
100
AcDbLine
62
2
6
CONTINUOUS
10
11.2853199294
20
1.4881584216
11
11.3389749478
21
1.5418134399
0
LINE
5
3EB
100
AcDbEntity
8
0
100
AcDbLine
62
2
6
CONTINUOUS
10
11.3682915419
20
1.5711300341
11
11.4404088042
21
1.6432472964
0
LINE
5
3EC
100
AcDbEntity
8
0
100
AcDbLine
62
2
6
CONTINUOUS
10
11.5693265487
20
1.7721650409
11
11.6259470348
21
1.8287855270
0
LINE
5
3ED
100
AcDbEntity
8
0
100
AcDbLine
62
2
6
CONTINUOUS
10
11.6709864824
20
1.8738249745
11
11.7246481631
21
1.9274866552
0
LINE
5
3EE
100
AcDbEntity
8
0
100
AcDbLine
62
2
6
CONTINUOUS
10
11.2753576134
20
1.4881584216
11
11.3389749478
21
1.5517757560
0
LINE
5
3EF
100
AcDbEntity
8
0
100
AcDbLine
62
2
6
CONTINUOUS
10
11.3682915419
20
1.5810923501
11
11.4358379042
21
1.6486387124
0
LINE
5
3F0
100
AcDbEntity
8
0
100
AcDbLine
62
2
6
CONTINUOUS
10
11.5660618786
20
1.7788626868
11
11.6222394255
21
1.8350402337
0
LINE
5
3F1
100
AcDbEntity
8
0
100
AcDbLine
62
2
6
CONTINUOUS
10
11.6691632674
20
1.8819640756
11
11.7146858470
21
1.9274866552
0
LINE
5
3F2
100
AcDbEntity
8
0
100
AcDbLine
62
2
6
CONTINUOUS
10
11.2653952973
20
1.4881584216
11
11.3389749478
21
1.5617380720
0
LINE
5
3F3
100
AcDbEntity
8
0
100
AcDbLine
62
2
6
CONTINUOUS
10
11.3680691175
20
1.5908322418
11
11.4301736364
21
1.6529367607
0
LINE
5
3F4
100
AcDbEntity
8
0
100
AcDbLine
62
2
6
CONTINUOUS
10
11.5627972085
20
1.7855603327
11
11.6185318162
21
1.8412949405
0
LINE
5
3F5
100
AcDbEntity
8
0
100
AcDbLine
62
2
6
CONTINUOUS
10
11.6673400524
20
1.8901031766
11
11.7047235310
21
1.9274866552
0
LINE
5
3F6
100
AcDbEntity
8
0
100
AcDbLine
62
2
6
CONTINUOUS
10
11.2564532653
20
1.4891787056
11
11.3389749478
21
1.5717003881
0
LINE
5
3F7
100
AcDbEntity
8
0
100
AcDbLine
62
2
6
CONTINUOUS
10
11.3669408235
20
1.5996662638
11
11.4240830339
21
1.6568084742
0
LINE
5
3F8
100
AcDbEntity
8
0
100
AcDbLine
62
2
6
CONTINUOUS
10
11.5265467394
20
1.7592721797
11
11.5291445082
21
1.7618699485
0
LINE
5
3F9
100
AcDbEntity
8
0
100
AcDbLine
62
2
6
CONTINUOUS
10
11.5595325384
20
1.7922579787
11
11.6148242069
21
1.8475496472
0
LINE
5
3FA
100
AcDbEntity
8
0
100
AcDbLine
62
2
6
CONTINUOUS
10
11.6655168374
20
1.8982422777
11
11.6947612149
21
1.9274866552
0
LINE
5
3FB
100
AcDbEntity
8
0
100
AcDbLine
62
2
6
CONTINUOUS
10
11.2564532653
20
1.4991410217
11
11.3389749478
21
1.5816627041
0
LINE
5
3FC
100
AcDbEntity
8
0
100
AcDbLine
62
2
6
CONTINUOUS
10
11.3634254251
20
1.6061131814
11
11.4164642105
21
1.6591519669
0
LINE
5
3FD
100
AcDbEntity
8
0
100
AcDbLine
62
2
6
CONTINUOUS
10
11.5165844234
20
1.7592721797
11
11.5291445082
21
1.7718322645
0
LINE
5
3FE
100
AcDbEntity
8
0
100
AcDbLine
62
2
6
CONTINUOUS
10
11.5562678683
20
1.7989556246
11
11.6128838367
21
1.8555715931
0
LINE
5
3FF
100
AcDbEntity
8
0
100
AcDbLine
62
2
6
CONTINUOUS
10
11.6636936224
20
1.9063813787
11
11.6847988989
21
1.9274866552
0
LINE
5
400
100
AcDbEntity
8
0
100
AcDbLine
62
2
6
CONTINUOUS
10
11.2564532653
20
1.5091033377
11
11.3392534159
21
1.5919034883
0
LINE
5
401
100
AcDbEntity
8
0
100
AcDbLine
62
2
6
CONTINUOUS
10
11.3570574887
20
1.6097075611
11
11.4086508204
21
1.6613008928
0
LINE
5
402
100
AcDbEntity
8
0
100
AcDbLine
62
2
6
CONTINUOUS
10
11.5066221073
20
1.7592721797
11
11.5291445082
21
1.7817945805
0
LINE
5
403
100
AcDbEntity
8
0
100
AcDbLine
62
2
6
CONTINUOUS
10
11.5530031982
20
1.8056532706
11
11.6299772600
21
1.8826273324
0
LINE
5
404
100
AcDbEntity
8
0
100
AcDbLine
62
2
6
CONTINUOUS
10
11.6618704074
20
1.9145204798
11
11.6748365828
21
1.9274866552
0
LINE
5
405
100
AcDbEntity
8
0
100
AcDbLine
62
2
6
CONTINUOUS
10
11.2255460331
20
1.4881584216
11
11.2271366711
21
1.4897490596
0
LINE
5
406
100
AcDbEntity
8
0
100
AcDbLine
62
2
6
CONTINUOUS
10
11.2564532653
20
1.5190656537
11
11.3994563534
21
1.6620687419
0
LINE
5
407
100
AcDbEntity
8
0
100
AcDbLine
62
2
6
CONTINUOUS
10
11.4966597913
20
1.7592721797
11
11.5291445082
21
1.7917568966
0
LINE
5
408
100
AcDbEntity
8
0
100
AcDbLine
62
2
6
CONTINUOUS
10
11.5497385281
20
1.8123509165
11
11.6470706833
21
1.9096830717
0
LINE
5
409
100
AcDbEntity
8
0
100
AcDbLine
62
2
6
CONTINUOUS
10
11.6600471924
20
1.9226595808
11
11.6648742668
21
1.9274866552
0
LINE
5
40A
100
AcDbEntity
8
0
100
AcDbLine
62
2
6
CONTINUOUS
10
11.2155837171
20
1.4881584216
11
11.2271366711
21
1.4997113756
0
LINE
5
40B
100
AcDbEntity
8
0
100
AcDbLine
62
2
6
CONTINUOUS
10
11.2564532653
20
1.5290279698
11
11.3901994728
21
1.6627741772
0
LINE
5
40C
100
AcDbEntity
8
0
100
AcDbLine
62
2
6
CONTINUOUS
10
11.4866974752
20
1.7592721797
11
11.5291445082
21
1.8017192126
0
LINE
5
40D
100
AcDbEntity
8
0
100
AcDbLine
62
2
6
CONTINUOUS
10
11.5464738580
20
1.8190485624
11
11.6549119508
21
1.9274866552
0
LINE
5
40E
100
AcDbEntity
8
0
100
AcDbLine
62
2
6
CONTINUOUS
10
11.2056214011
20
1.4881584216
11
11.2271366711
21
1.5096736917
0
LINE
5
40F
100
AcDbEntity
8
0
100
AcDbLine
62
2
6
CONTINUOUS
10
11.2564532653
20
1.5389902858
11
11.3790407153
21
1.6615777358
0
LINE
5
410
100
AcDbEntity
8
0
100
AcDbLine
62
2
6
CONTINUOUS
10
11.4767351592
20
1.7592721797
11
11.5291445082
21
1.8116815287
0
LINE
5
411
100
AcDbEntity
8
0
100
AcDbLine
62
2
6
CONTINUOUS
10
11.5432091879
20
1.8257462084
11
11.6449496347
21
1.9274866552
0
LINE
5
412
100
AcDbEntity
8
0
100
AcDbLine
62
2
6
CONTINUOUS
10
11.1956590850
20
1.4881584216
11
11.2271366711
21
1.5196360077
0
LINE
5
413
100
AcDbEntity
8
0
100
AcDbLine
62
2
6
CONTINUOUS
10
11.2564532653
20
1.5489526019
11
11.3658925182
21
1.6583918547
0
LINE
5
414
100
AcDbEntity
8
0
100
AcDbLine
62
2
6
CONTINUOUS
10
11.4667728432
20
1.7592721797
11
11.5291445082
21
1.8216438447
0
LINE
5
415
100
AcDbEntity
8
0
100
AcDbLine
62
2
6
CONTINUOUS
10
11.5399445178
20
1.8324438543
11
11.6349873187
21
1.9274866552
0
LINE
5
416
100
AcDbEntity
8
0
100
AcDbLine
62
2
6
CONTINUOUS
10
11.1856967690
20
1.4881584216
11
11.2271366711
21
1.5295983238
0
LINE
5
417
100
AcDbEntity
8
0
100
AcDbLine
62
2
6
CONTINUOUS
10
11.2564532653
20
1.5589149179
11
11.3337288119
21
1.6361904645
0
LINE
5
418
100
AcDbEntity
8
0
100
AcDbLine
62
2
6
CONTINUOUS
10
11.4568105271
20
1.7592721797
11
11.5291445082
21
1.8316061608
0
LINE
5
419
100
AcDbEntity
8
0
100
AcDbLine
62
2
6
CONTINUOUS
10
11.5366798477
20
1.8391415003
11
11.6250250026
21
1.9274866552
0
LINE
5
41A
100
AcDbEntity
8
0
100
AcDbLine
62
2
6
CONTINUOUS
10
11.1757344529
20
1.4881584216
11
11.2271366711
21
1.5395606398
0
LINE
5
41B
100
AcDbEntity
8
0
100
AcDbLine
62
2
6
CONTINUOUS
10
11.2564532653
20
1.5688772340
11
11.3303534538
21
1.6427774224
0
LINE
5
41C
100
AcDbEntity
8
0
100
AcDbLine
62
2
6
CONTINUOUS
10
11.4479252462
20
1.7603492148
11
11.5291445082
21
1.8415684768
0
LINE
5
41D
100
AcDbEntity
8
0
100
AcDbLine
62
2
6
CONTINUOUS
10
11.5334151776
20
1.8458391462
11
11.6150626866
21
1.9274866552
0
LINE
5
41E
100
AcDbEntity
8
0
100
AcDbLine
62
2
6
CONTINUOUS
10
11.1657721369
20
1.4881584216
11
11.2271366711
21
1.5495229558
0
LINE
5
41F
100
AcDbEntity
8
0
100
AcDbLine
62
2
6
CONTINUOUS
10
11.2564532653
20
1.5788395500
11
11.3254772586
21
1.6478635433
0
LINE
5
420
100
AcDbEntity
8
0
100
AcDbLine
62
2
6
CONTINUOUS
10
11.4479252462
20
1.7703115309
11
11.5291445082
21
1.8515307929
0
LINE
5
421
100
AcDbEntity
8
0
100
AcDbLine
62
2
6
CONTINUOUS
10
11.5301505075
20
1.8525367921
11
11.6051003705
21
1.9274866552
0
LINE
5
422
100
AcDbEntity
8
0
100
AcDbLine
62
2
6
CONTINUOUS
10
11.1558098208
20
1.4881584216
11
11.2271366711
21
1.5594852719
0
LINE
5
423
100
AcDbEntity
8
0
100
AcDbLine
62
2
6
CONTINUOUS
10
11.2563477975
20
1.5886963982
11
11.3200327439
21
1.6523813446
0
LINE
5
424
100
AcDbEntity
8
0
100
AcDbLine
62
2
6
CONTINUOUS
10
11.4479252462
20
1.7802738469
11
11.5291445082
21
1.8614931089
0
LINE
5
425
100
AcDbEntity
8
0
100
AcDbLine
62
2
6
CONTINUOUS
10
11.5400832727
20
1.8724318734
11
11.5951380545
21
1.9274866552
0
LINE
5
426
100
AcDbEntity
8
0
100
AcDbLine
62
2
6
CONTINUOUS
10
11.1458475048
20
1.4881584216
11
11.2271366711
21
1.5694475879
0
LINE
5
427
100
AcDbEntity
8
0
100
AcDbLine
62
2
6
CONTINUOUS
10
11.2556818596
20
1.5979927764
11
11.3136182438
21
1.6559291606
0
LINE
5
428
100
AcDbEntity
8
0
100
AcDbLine
62
2
6
CONTINUOUS
10
11.4196593401
20
1.7619702569
11
11.4272159523
21
1.7695268690
0
LINE
5
429
100
AcDbEntity
8
0
100
AcDbLine
62
2
6
CONTINUOUS
10
11.4479252462
20
1.7902361629
11
11.5291445082
21
1.8714554249
0
LINE
5
42A
100
AcDbEntity
8
0
100
AcDbLine
62
2
6
CONTINUOUS
10
11.5516457535
20
1.8939566703
11
11.5851757384
21
1.9274866552
0
LINE
5
42B
100
AcDbEntity
8
0
100
AcDbLine
62
2
6
CONTINUOUS
10
11.1446068991
20
1.4968801320
11
11.2271366711
21
1.5794099040
0
LINE
5
42C
100
AcDbEntity
8
0
100
AcDbLine
62
2
6
CONTINUOUS
10
11.2527816020
20
1.6050548348
11
11.3064505928
21
1.6587238257
0
LINE
5
42D
100
AcDbEntity
8
0
100
AcDbLine
62
2
6
CONTINUOUS
10
11.4065877933
20
1.7588610261
11
11.4272159523
21
1.7794891851
0
LINE
5
42E
100
AcDbEntity
8
0
100
AcDbLine
62
2
6
CONTINUOUS
10
11.4479252462
20
1.8001984790
11
11.5291445082
21
1.8814177410
0
LINE
5
42F
100
AcDbEntity
8
0
100
AcDbLine
62
2
6
CONTINUOUS
10
11.5632082343
20
1.9154814671
11
11.5752134224
21
1.9274866552
0
LINE
5
430
100
AcDbEntity
8
0
100
AcDbLine
62
2
6
CONTINUOUS
10
11.1446068991
20
1.5068424480
11
11.2272836912
21
1.5895192401
0
LINE
5
431
100
AcDbEntity
8
0
100
AcDbLine
62
2
6
CONTINUOUS
10
11.2470447343
20
1.6092802831
11
11.2986549927
21
1.6608905416
0
LINE
5
432
100
AcDbEntity
8
0
100
AcDbLine
62
2
6
CONTINUOUS
10
11.3950010606
20
1.7572366095
11
11.4272159523
21
1.7894515011
0
LINE
5
433
100
AcDbEntity
8
0
100
AcDbLine
62
2
6
CONTINUOUS
10
11.4479252462
20
1.8101607950
11
11.5291445082
21
1.8913800570
0
LINE
5
434
100
AcDbEntity
8
0
100
AcDbLine
62
2
6
CONTINUOUS
10
11.1446068991
20
1.5168047641
11
11.2290264158
21
1.6012242807
0
LINE
5
435
100
AcDbEntity
8
0
100
AcDbLine
62
2
6
CONTINUOUS
10
11.2372579981
20
1.6094558630
11
11.2899322106
21
1.6621300755
0
LINE
5
436
100
AcDbEntity
8
0
100
AcDbLine
62
2
6
CONTINUOUS
10
11.3840360589
20
1.7562339238
11
11.4272159523
21
1.7994138172
0
LINE
5
437
100
AcDbEntity
8
0
100
AcDbLine
62
2
6
CONTINUOUS
10
11.4479252462
20
1.8201231111
11
11.5291445082
21
1.9013423731
0
LINE
5
438
100
AcDbEntity
8
0
100
AcDbLine
62
2
6
CONTINUOUS
10
11.1446068991
20
1.5267670801
11
11.2805592591
21
1.6627194400
0
LINE
5
439
100
AcDbEntity
8
0
100
AcDbLine
62
2
6
CONTINUOUS
10
11.3736610296
20
1.7558212106
11
11.4272159523
21
1.8093761332
0
LINE
5
43A
100
AcDbEntity
8
0
100
AcDbLine
62
2
6
CONTINUOUS
10
11.4479252462
20
1.8300854271
11
11.5291445082
21
1.9113046891
0
LINE
5
43B
100
AcDbEntity
8
0
100
AcDbLine
62
2
6
CONTINUOUS
10
11.1446068991
20
1.5367293961
11
11.2696878494
21
1.6618103464
0
LINE
5
43C
100
AcDbEntity
8
0
100
AcDbLine
62
2
6
CONTINUOUS
10
11.3635268322
20
1.7556493292
11
11.4163792111
21
1.8085017081
0
LINE
5
43D
100
AcDbEntity
8
0
100
AcDbLine
62
2
6
CONTINUOUS
10
11.4479252462
20
1.8400477432
11
11.5291445082
21
1.9212670052
0
LINE
5
43E
100
AcDbEntity
8
0
100
AcDbLine
62
2
6
CONTINUOUS
10
11.1446068991
20
1.5466917122
11
11.2568007984
21
1.6588856114
0
LINE
5
43F
100
AcDbEntity
8
0
100
AcDbLine
62
2
6
CONTINUOUS
10
11.3539411755
20
1.7560259885
11
11.4028683872
21
1.8049532003
0
LINE
5
440
100
AcDbEntity
8
0
100
AcDbLine
62
2
6
CONTINUOUS
10
11.4479252462
20
1.8500100592
11
11.5291445082
21
1.9312293212
0
LINE
5
441
100
AcDbEntity
8
0
100
AcDbLine
62
2
6
CONTINUOUS
10
11.0964487066
20
1.5084958357
11
11.1052392772
21
1.5172864062
0
LINE
5
442
100
AcDbEntity
8
0
100
AcDbLine
62
2
6
CONTINUOUS
10
11.1446068991
20
1.5566540282
11
11.2225417966
21
1.6345889257
0
LINE
5
443
100
AcDbEntity
8
0
100
AcDbLine
62
2
6
CONTINUOUS
10
11.3450174120
20
1.7570645410
11
11.3918024668
21
1.8038495959
0
LINE
5
444
100
AcDbEntity
8
0
100
AcDbLine
62
2
6
CONTINUOUS
10
11.4479252462
20
1.8599723752
11
11.5291445082
21
1.9411916372
0
LINE
5
445
100
AcDbEntity
8
0
100
AcDbLine
62
2
6
CONTINUOUS
10
11.0716586970
20
1.4936681421
11
11.1176955616
21
1.5397050067
0
LINE
5
446
100
AcDbEntity
8
0
100
AcDbLine
62
2
6
CONTINUOUS
10
11.1446068991
20
1.5666163443
11
11.2225417966
21
1.6445512417
0
LINE
5
447
100
AcDbEntity
8
0
100
AcDbLine
62
2
6
CONTINUOUS
10
11.3361558591
20
1.7581653042
11
11.3823727742
21
1.8043822193
0
LINE
5
448
100
AcDbEntity
8
0
100
AcDbLine
62
2
6
CONTINUOUS
10
11.4479252462
20
1.8699346913
11
11.5291445082
21
1.9511539533
0
LINE
5
449
100
AcDbEntity
8
0
100
AcDbLine
62
2
6
CONTINUOUS
10
11.0570159825
20
1.4889877436
11
11.1215752105
21
1.5535469717
0
LINE
5
44A
100
AcDbEntity
8
0
100
AcDbLine
62
2
6
CONTINUOUS
10
11.1446068991
20
1.5765786603
11
11.2225417966
21
1.6545135577
0
LINE
5
44B
100
AcDbEntity
8
0
100
AcDbLine
62
2
6
CONTINUOUS
10
11.3281479477
20
1.7601197089
11
11.3743595589
21
1.8063313200
0
LINE
5
44C
100
AcDbEntity
8
0
100
AcDbLine
62
2
6
CONTINUOUS
10
11.4479252462
20
1.8798970073
11
11.5291445082
21
1.9611162693
0
LINE
5
44D
100
AcDbEntity
8
0
100
AcDbLine
62
2
6
CONTINUOUS
10
11.0443942890
20
1.4863283662
11
11.1232805925
21
1.5652146697
0
LINE
5
44E
100
AcDbEntity
8
0
100
AcDbLine
62
2
6
CONTINUOUS
10
11.1446068991
20
1.5865409764
11
11.2171407355
21
1.6590748128
0
LINE
5
44F
100
AcDbEntity
8
0
100
AcDbLine
62
2
6
CONTINUOUS
10
11.3202178489
20
1.7621519261
11
11.3675004057
21
1.8094344829
0
LINE
5
450
100
AcDbEntity
8
0
100
AcDbLine
62
2
6
CONTINUOUS
10
11.4479252462
20
1.8898593234
11
11.5291445082
21
1.9710785854
0
LINE
5
451
100
AcDbEntity
8
0
100
AcDbLine
62
2
6
CONTINUOUS
10
11.0333436376
20
1.4852400309
11
11.1239705422
21
1.5758669354
0
LINE
5
452
100
AcDbEntity
8
0
100
AcDbLine
62
2
6
CONTINUOUS
10
11.1446068991
20
1.5965032924
11
11.2071784195
21
1.6590748128
0
LINE
5
453
100
AcDbEntity
8
0
100
AcDbLine
62
2
6
CONTINUOUS
10
11.3130909885
20
1.7649873818
11
11.3617058165
21
1.8136022097
0
LINE
5
454
100
AcDbEntity
8
0
100
AcDbLine
62
2
6
CONTINUOUS
10
11.4235677455
20
1.8754641388
11
11.4259216214
21
1.8778180147
0
LINE
5
455
100
AcDbEntity
8
0
100
AcDbLine
62
2
6
CONTINUOUS
10
11.4479252462
20
1.8998216394
11
11.5291445082
21
1.9810409014
0
LINE
5
456
100
AcDbEntity
8
0
100
AcDbLine
62
2
6
CONTINUOUS
10
11.0226287804
20
1.4844874897
11
11.1234552393
21
1.5853139486
0
LINE
5
457
100
AcDbEntity
8
0
100
AcDbLine
62
2
6
CONTINUOUS
10
11.1446068991
20
1.6064656084
11
11.1972161035
21
1.6590748128
0
LINE
5
458
100
AcDbEntity
8
0
100
AcDbLine
62
2
6
CONTINUOUS
10
11.3061162735
20
1.7679749828
11
11.3569174647
21
1.8187761740
0
LINE
5
459
100
AcDbEntity
8
0
100
AcDbLine
62
2
6
CONTINUOUS
10
11.4163953605
20
1.8782540698
11
11.4259216214
21
1.8877803307
0
LINE
5
45A
100
AcDbEntity
8
0
100
AcDbLine
62
2
6
CONTINUOUS
10
11.4479252462
20
1.9097839555
11
11.5223519962
21
1.9842107055
0
LINE
5
45B
100
AcDbEntity
8
0
100
AcDbLine
62
2
6
CONTINUOUS
10
11.0126762344
20
1.4844972598
11
11.1225952313
21
1.5944162566
0
LINE
5
45C
100
AcDbEntity
8
0
100
AcDbLine
62
2
6
CONTINUOUS
10
11.1446068991
20
1.6164279245
11
11.1872537874
21
1.6590748128
0
LINE
5
45D
100
AcDbEntity
8
0
100
AcDbLine
62
2
6
CONTINUOUS
10
11.2998506125
20
1.7716716378
11
11.3531565691
21
1.8249775945
0
LINE
5
45E
100
AcDbEntity
8
0
100
AcDbLine
62
2
6
CONTINUOUS
10
11.4085847682
20
1.8804057936
11
11.4259216214
21
1.8977426467
0
LINE
5
45F
100
AcDbEntity
8
0
100
AcDbLine
62
2
6
CONTINUOUS
10
11.4479252462
20
1.9197462715
11
11.5123896802
21
1.9842107055
0
LINE
5
460
100
AcDbEntity
8
0
100
AcDbLine
62
2
6
CONTINUOUS
10
11.0033681411
20
1.4851514825
11
11.1208069265
21
1.6025902679
0
LINE
5
461
100
AcDbEntity
8
0
100
AcDbLine
62
2
6
CONTINUOUS
10
11.1446068991
20
1.6263902405
11
11.1772914714
21
1.6590748128
0
LINE
5
462
100
AcDbEntity
8
0
100
AcDbLine
62
2
6
CONTINUOUS
10
11.2938607310
20
1.7756440723
11
11.3507291530
21
1.8325124944
0
LINE
5
463
100
AcDbEntity
8
0
100
AcDbLine
62
2
6
CONTINUOUS
10
11.4003137289
20
1.8820970703
11
11.4259216214
21
1.9077049628
0
LINE
5
464
100
AcDbEntity
8
0
100
AcDbLine
62
2
6
CONTINUOUS
10
11.4479252462
20
1.9297085876
11
11.5024273641
21
1.9842107055
0
LINE
5
465
100
AcDbEntity
8
0
100
AcDbLine
62
2
6
CONTINUOUS
10
10.9942921126
20
1.4860377700
11
11.1184902096
21
1.6102358670
0
LINE
5
466
100
AcDbEntity
8
0
100
AcDbLine
62
2
6
CONTINUOUS
10
11.1446068991
20
1.6363525566
11
11.1673291553
21
1.6590748128
0
LINE
5
467
100
AcDbEntity
8
0
100
AcDbLine
62
2
6
CONTINUOUS
10
11.2884523402
20
1.7801979976
11
11.3495049427
21
1.8412506001
0
LINE
5
468
100
AcDbEntity
8
0
100
AcDbLine
62
2
6
CONTINUOUS
10
11.3910860678
20
1.8828317252
11
11.4259216214
21
1.9176672788
0
LINE
5
469
100
AcDbEntity
8
0
100
AcDbLine
62
2
6
CONTINUOUS
10
11.4479252462
20
1.9396709036
11
11.4924650481
21
1.9842107055
0
LINE
5
46A
100
AcDbEntity
8
0
100
AcDbLine
62
2
6
CONTINUOUS
10
10.9857133017
20
1.4874212751
11
11.1156354699
21
1.6173434434
0
LINE
5
46B
100
AcDbEntity
8
0
100
AcDbLine
62
2
6
CONTINUOUS
10
11.1446068991
20
1.6463148726
11
11.1573668393
21
1.6590748128
0
LINE
5
46C
100
AcDbEntity
8
0
100
AcDbLine
62
2
6
CONTINUOUS
10
11.2833747642
20
1.7850827377
11
11.3497578041
21
1.8514657776
0
LINE
5
46D
100
AcDbEntity
8
0
100
AcDbLine
62
2
6
CONTINUOUS
10
11.3805767096
20
1.8822846831
11
11.4231034712
21
1.9248114447
0
LINE
5
46E
100
AcDbEntity
8
0
100
AcDbLine
62
2
6
CONTINUOUS
10
11.4479252462
20
1.9496332196
11
11.4825027321
21
1.9842107055
0
LINE
5
46F
100
AcDbEntity
8
0
100
AcDbLine
62
2
6
CONTINUOUS
10
10.9775761652
20
1.4892464547
11
11.0223811965
21
1.5340514860
0
LINE
5
470
100
AcDbEntity
8
0
100
AcDbLine
62
2
6
CONTINUOUS
10
11.0322678378
20
1.5439381273
11
11.1120040134
21
1.6236743029
0
LINE
5
471
100
AcDbEntity
8
0
100
AcDbLine
62
2
6
CONTINUOUS
10
11.1446068991
20
1.6562771887
11
11.1474045232
21
1.6590748128
0
LINE
5
472
100
AcDbEntity
8
0
100
AcDbLine
62
2
6
CONTINUOUS
10
11.2788867884
20
1.7905570779
11
11.3540386131
21
1.8657089026
0
LINE
5
473
100
AcDbEntity
8
0
100
AcDbLine
62
2
6
CONTINUOUS
10
11.3653553443
20
1.8770256338
11
11.4149503018
21
1.9266205914
0
LINE
5
474
100
AcDbEntity
8
0
100
AcDbLine
62
2
6
CONTINUOUS
10
11.4479252462
20
1.9595955357
11
11.4725404160
21
1.9842107055
0
LINE
5
475
100
AcDbEntity
8
0
100
AcDbLine
62
2
6
CONTINUOUS
10
10.9698674135
20
1.4915000191
11
11.0126812459
21
1.5343138514
0
LINE
5
476
100
AcDbEntity
8
0
100
AcDbLine
62
2
6
CONTINUOUS
10
11.0352433937
20
1.5568759992
11
11.1081177778
21
1.6297503834
0
LINE
5
477
100
AcDbEntity
8
0
100
AcDbLine
62
2
6
CONTINUOUS
10
11.2750581116
20
1.7966907171
11
11.4067631468
21
1.9283957523
0
LINE
5
478
100
AcDbEntity
8
0
100
AcDbLine
62
2
6
CONTINUOUS
10
11.4479252462
20
1.9695578517
11
11.4625781000
21
1.9842107055
0
LINE
5
479
100
AcDbEntity
8
0
100
AcDbLine
62
2
6
CONTINUOUS
10
10.9626306278
20
1.4942255495
11
11.0067957666
21
1.5383906882
0
LINE
5
47A
100
AcDbEntity
8
0
100
AcDbLine
62
2
6
CONTINUOUS
10
11.0359937470
20
1.5675886686
11
11.1033236597
21
1.6349185814
0
LINE
5
47B
100
AcDbEntity
8
0
100
AcDbLine
62
2
6
CONTINUOUS
10
11.2714173518
20
1.8030122734
11
11.3977812191
21
1.9293761407
0
LINE
5
47C
100
AcDbEntity
8
0
100
AcDbLine
62
2
6
CONTINUOUS
10
11.4479252462
20
1.9795201678
11
11.4526157839
21
1.9842107055
0
LINE
5
47D
100
AcDbEntity
8
0
100
AcDbLine
62
2
6
CONTINUOUS
10
10.9558272101
20
1.4973844478
11
11.0033363742
21
1.5448936119
0
LINE
5
47E
100
AcDbEntity
8
0
100
AcDbLine
62
2
6
CONTINUOUS
10
11.0361303269
20
1.5776875645
11
11.0982909718
21
1.6398482094
0
LINE
5
47F
100
AcDbEntity
8
0
100
AcDbLine
62
2
6
CONTINUOUS
10
11.2686849202
20
1.8102421579
11
11.3887992914
21
1.9303565291
0
LINE
5
480
100
AcDbEntity
8
0
100
AcDbLine
62
2
6
CONTINUOUS
10
10.9494680157
20
1.5009875694
11
11.0014230092
21
1.5529425629
0
LINE
5
481
100
AcDbEntity
8
0
100
AcDbLine
62
2
6
CONTINUOUS
10
11.0357804102
20
1.5872999639
11
11.0925897164
21
1.6441092701
0
LINE
5
482
100
AcDbEntity
8
0
100
AcDbLine
62
2
6
CONTINUOUS
10
11.2662121333
20
1.8177316870
11
11.3793323974
21
1.9308519511
0
LINE
5
483
100
AcDbEntity
8
0
100
AcDbLine
62
2
6
CONTINUOUS
10
10.9436076156
20
1.5050894853
11
11.0004854335
21
1.5619673032
0
LINE
5
484
100
AcDbEntity
8
0
100
AcDbLine
62
2
6
CONTINUOUS
10
11.0347723091
20
1.5962541789
11
11.0864987166
21
1.6479805863
0
LINE
5
485
100
AcDbEntity
8
0
100
AcDbLine
62
2
6
CONTINUOUS
10
11.2069130166
20
1.7683948863
11
11.2410168301
21
1.8024986998
0
LINE
5
486
100
AcDbEntity
8
0
100
AcDbLine
62
2
6
CONTINUOUS
10
11.2645188089
20
1.8260006787
11
11.3696466411
21
1.9311285108
0
LINE
5
487
100
AcDbEntity
8
0
100
AcDbLine
62
2
6
CONTINUOUS
10
10.9381199401
20
1.5095641258
11
11.0001114874
21
1.5715556732
0
LINE
5
488
100
AcDbEntity
8
0
100
AcDbLine
62
2
6
CONTINUOUS
10
11.0325026274
20
1.6039468132
11
11.0799106370
21
1.6513548228
0
LINE
5
489
100
AcDbEntity
8
0
100
AcDbLine
62
2
6
CONTINUOUS
10
11.1899788143
20
1.7614230001
11
11.2465859588
21
1.8180301446
0
LINE
5
48A
100
AcDbEntity
8
0
100
AcDbLine
62
2
6
CONTINUOUS
10
11.2633675416
20
1.8348117274
11
11.3596221526
21
1.9310663384
0
LINE
5
48B
100
AcDbEntity
8
0
100
AcDbLine
62
2
6
CONTINUOUS
10
10.9330919621
20
1.5144984639
11
11.0000877237
21
1.5814942255
0
LINE
5
48C
100
AcDbEntity
8
0
100
AcDbLine
62
2
6
CONTINUOUS
10
11.0285103317
20
1.6099168335
11
11.0728440081
21
1.6542505100
0
LINE
5
48D
100
AcDbEntity
8
0
100
AcDbLine
62
2
6
CONTINUOUS
10
11.1770605468
20
1.7584670486
11
11.2491459899
21
1.8305524918
0
LINE
5
48E
100
AcDbEntity
8
0
100
AcDbLine
62
2
6
CONTINUOUS
10
11.2627764082
20
1.8441829100
11
11.3488162615
21
1.9302227633
0
LINE
5
48F
100
AcDbEntity
8
0
100
AcDbLine
62
2
6
CONTINUOUS
10
10.9286085687
20
1.5199773865
11
11.0007473648
21
1.5921161827
0
LINE
5
490
100
AcDbEntity
8
0
100
AcDbLine
62
2
6
CONTINUOUS
10
11.0220107930
20
1.6133796109
11
11.0653735005
21
1.6567423184
0
LINE
5
491
100
AcDbEntity
8
0
100
AcDbLine
62
2
6
CONTINUOUS
10
11.1654689117
20
1.7568377296
11
11.2498362143
21
1.8412050322
0
LINE
5
492
100
AcDbEntity
8
0
100
AcDbLine
62
2
6
CONTINUOUS
10
11.2631584937
20
1.8545273116
11
11.3378334115
21
1.9292022293
0
LINE
5
493
100
AcDbEntity
8
0
100
AcDbLine
62
2
6
CONTINUOUS
10
10.9248097377
20
1.5261408716
11
11.0041334163
21
1.6054645502
0
LINE
5
494
100
AcDbEntity
8
0
100
AcDbLine
62
2
6
CONTINUOUS
10
11.0112209400
20
1.6125520739
11
11.0574144597
21
1.6587455937
0
LINE
5
495
100
AcDbEntity
8
0
100
AcDbLine
62
2
6
CONTINUOUS
10
11.1544181831
20
1.7557493170
11
11.2498592560
21
1.8511903899
0
LINE
5
496
100
AcDbEntity
8
0
100
AcDbLine
62
2
6
CONTINUOUS
10
11.2644385182
20
1.8657696522
11
11.3252427997
21
1.9265739337
0
LINE
5
497
100
AcDbEntity
8
0
100
AcDbLine
62
2
6
CONTINUOUS
10
10.9211453078
20
1.5324387578
11
11.0490531504
21
1.6603466004
0
LINE
5
498
100
AcDbEntity
8
0
100
AcDbLine
62
2
6
CONTINUOUS
10
11.1442875705
20
1.7555810205
11
11.2492363029
21
1.8605297529
0
LINE
5
499
100
AcDbEntity
8
0
100
AcDbLine
62
2
6
CONTINUOUS
10
11.2679449147
20
1.8792383647
11
11.3107210793
21
1.9220145292
0
LINE
5
49A
100
AcDbEntity
8
0
100
AcDbLine
62
2
6
CONTINUOUS
10
10.8669026394
20
1.4881584054
11
10.8735740230
21
1.4948297890
0
LINE
5
49B
100
AcDbEntity
8
0
100
AcDbLine
62
2
6
CONTINUOUS
10
10.9184048837
20
1.5396606497
11
11.0402927287
21
1.6615484947
0
LINE
5
49C
100
AcDbEntity
8
0
100
AcDbLine
62
2
6
CONTINUOUS
10
11.1347226350
20
1.7559784010
11
11.2476566269
21
1.8689123929
0
LINE
5
49D
100
AcDbEntity
8
0
100
AcDbLine
62
2
6
CONTINUOUS
10
11.2854944857
20
1.9067502517
11
11.2856499565
21
1.9069057225
0
LINE
5
49E
100
AcDbEntity
8
0
100
AcDbLine
62
2
6
CONTINUOUS
10
10.8569403234
20
1.4881584054
11
10.8735740230
21
1.5047921050
0
LINE
5
49F
100
AcDbEntity
8
0
100
AcDbLine
62
2
6
CONTINUOUS
10
10.9159017485
20
1.5471198306
11
11.0310219857
21
1.6622400678
0
LINE
5
4A0
100
AcDbEntity
8
0
100
AcDbLine
62
2
6
CONTINUOUS
10
11.1256466417
20
1.7568647237
11
11.2457189956
21
1.8769370777
0
LINE
5
4A1
100
AcDbEntity
8
0
100
AcDbLine
62
2
6
CONTINUOUS
10
10.8469780073
20
1.4881584054
11
10.8735740230
21
1.5147544211
0
LINE
5
4A2
100
AcDbEntity
8
0
100
AcDbLine
62
2
6
CONTINUOUS
10
10.9141825440
20
1.5553629421
11
11.0216364283
21
1.6628168264
0
LINE
5
4A3
100
AcDbEntity
8
0
100
AcDbLine
62
2
6
CONTINUOUS
10
11.1167468252
20
1.7579272233
11
11.2428638678
21
1.8840442659
0
LINE
5
4A4
100
AcDbEntity
8
0
100
AcDbLine
62
2
6
CONTINUOUS
10
10.8370156913
20
1.4881584054
11
10.8735740230
21
1.5247167371
0
LINE
5
4A5
100
AcDbEntity
8
0
100
AcDbLine
62
2
6
CONTINUOUS
10
10.9129559782
20
1.5640986924
11
11.0115996509
21
1.6627423651
0
LINE
5
4A6
100
AcDbEntity
8
0
100
AcDbLine
62
2
6
CONTINUOUS
10
11.1086096867
20
1.7597524008
11
11.2395593201
21
1.8907020342
0
LINE
5
4A7
100
AcDbEntity
8
0
100
AcDbLine
62
2
6
CONTINUOUS
10
10.8270533753
20
1.4881584054
11
10.8735740230
21
1.5346790531
0
LINE
5
4A8
100
AcDbEntity
8
0
100
AcDbLine
62
2
6
CONTINUOUS
10
10.9123554109
20
1.5734604410
11
11.0008432919
21
1.6619483221
0
LINE
5
4A9
100
AcDbEntity
8
0
100
AcDbLine
62
2
6
CONTINUOUS
10
11.1006220745
20
1.7617271047
11
11.1429612403
21
1.8040662705
0
LINE
5
4AA
100
AcDbEntity
8
0
100
AcDbLine
62
2
6
CONTINUOUS
10
11.1622534501
20
1.8233584803
11
11.2357088287
21
1.8968138589
0
LINE
5
4AB
100
AcDbEntity
8
0
100
AcDbLine
62
2
6
CONTINUOUS
10
10.8170910592
20
1.4881584054
11
10.8735740230
21
1.5446413692
0
LINE
5
4AC
100
AcDbEntity
8
0
100
AcDbLine
62
2
6
CONTINUOUS
10
10.9126028395
20
1.5836701857
11
10.9898802393
21
1.6609475855
0
LINE
5
4AD
100
AcDbEntity
8
0
100
AcDbLine
62
2
6
CONTINUOUS
10
11.0933852560
20
1.7644526022
11
11.1361881454
21
1.8072554916
0
LINE
5
4AE
100
AcDbEntity
8
0
100
AcDbLine
62
2
6
CONTINUOUS
10
11.1633493543
20
1.8344167006
11
11.2311628980
21
1.9022302443
0
LINE
5
4AF
100
AcDbEntity
8
0
100
AcDbLine
62
2
6
CONTINUOUS
10
10.8071287432
20
1.4881584054
11
10.8735740230
21
1.5546036852
0
LINE
5
4B0
100
AcDbEntity
8
0
100
AcDbLine
62
2
6
CONTINUOUS
10
10.9135946723
20
1.5946243346
11
10.9775731986
21
1.6586028609
0
LINE
5
4B1
100
AcDbEntity
8
0
100
AcDbLine
62
2
6
CONTINUOUS
10
11.0863372831
20
1.7673669453
11
11.1321529623
21
1.8131826246
0
LINE
5
4B2
100
AcDbEntity
8
0
100
AcDbLine
62
2
6
CONTINUOUS
10
11.1636290808
20
1.8446587431
11
11.2263684847
21
1.9073981470
0
LINE
5
4B3
100
AcDbEntity
8
0
100
AcDbLine
62
2
6
CONTINUOUS
10
10.7971664271
20
1.4881584054
11
10.8735740230
21
1.5645660013
0
LINE
5
4B4
100
AcDbEntity
8
0
100
AcDbLine
62
2
6
CONTINUOUS
10
10.9165067022
20
1.6074986805
11
10.9634270938
21
1.6544190721
0
LINE
5
4B5
100
AcDbEntity
8
0
100
AcDbLine
62
2
6
CONTINUOUS
10
11.0799780298
20
1.7709700081
11
11.1298189564
21
1.8208109347
0
LINE
5
4B6
100
AcDbEntity
8
0
100
AcDbLine
62
2
6
CONTINUOUS
10
11.1634439765
20
1.8544359548
11
11.2206767366
21
1.9116687150
0
LINE
5
4B7
100
AcDbEntity
8
0
100
AcDbLine
62
2
6
CONTINUOUS
10
10.7909148179
20
1.4918691122
11
10.8735740230
21
1.5745283173
0
LINE
5
4B8
100
AcDbEntity
8
0
100
AcDbLine
62
2
6
CONTINUOUS
10
10.9261874357
20
1.6271417300
11
10.9427724620
21
1.6437267564
0
LINE
5
4B9
100
AcDbEntity
8
0
100
AcDbLine
62
2
6
CONTINUOUS
10
11.0739010213
20
1.7748553157
11
11.1287066356
21
1.8296609299
0
LINE
5
4BA
100
AcDbEntity
8
0
100
AcDbLine
62
2
6
CONTINUOUS
10
11.1626149917
20
1.8635692861
11
11.2148029744
21
1.9157572687
0
LINE
5
4BB
100
AcDbEntity
8
0
100
AcDbLine
62
2
6
CONTINUOUS
10
10.7909148179
20
1.5018314283
11
10.8735740230
21
1.5844906334
0
LINE
5
4BC
100
AcDbEntity
8
0
100
AcDbLine
62
2
6
CONTINUOUS
10
10.9003811980
20
1.6112978085
11
10.9090953157
21
1.6200119261
0
LINE
5
4BD
100
AcDbEntity
8
0
100
AcDbLine
62
2
6
CONTINUOUS
10
11.0684132656
20
1.7793298760
11
11.1282315104
21
1.8391481208
0
LINE
5
4BE
100
AcDbEntity
8
0
100
AcDbLine
62
2
6
CONTINUOUS
10
11.1607501187
20
1.8716667291
11
11.2082148040
21
1.9191314144
0
LINE
5
4BF
100
AcDbEntity
8
0
100
AcDbLine
62
2
6
CONTINUOUS
10
10.7909148179
20
1.5117937443
11
10.8735740230
21
1.5944529494
0
LINE
5
4C0
100
AcDbEntity
8
0
100
AcDbLine
62
2
6
CONTINUOUS
10
10.8904188820
20
1.6112978085
11
10.9090953157
21
1.6299742422
0
LINE
5
4C1
100
AcDbEntity
8
0
100
AcDbLine
62
2
6
CONTINUOUS
10
11.0383932533
20
1.7592721797
11
11.0391238842
21
1.7600028106
0
LINE
5
4C2
100
AcDbEntity
8
0
100
AcDbLine
62
2
6
CONTINUOUS
10
11.0632405018
20
1.7841194282
11
11.1281554264
21
1.8490343528
0
LINE
5
4C3
100
AcDbEntity
8
0
100
AcDbLine
62
2
6
CONTINUOUS
10
11.1572034335
20
1.8780823599
11
11.2013382497
21
1.9222171761
0
LINE
5
4C4
100
AcDbEntity
8
0
100
AcDbLine
62
2
6
CONTINUOUS
10
10.7909148179
20
1.5217560604
11
10.8735740230
21
1.6044152654
0
LINE
5
4C5
100
AcDbEntity
8
0
100
AcDbLine
62
2
6
CONTINUOUS
10
10.8804565660
20
1.6112978085
11
10.9090953157
21
1.6399365582
0
LINE
5
4C6
100
AcDbEntity
8
0
100
AcDbLine
62
2
6
CONTINUOUS
10
11.0284309372
20
1.7592721797
11
11.0368058517
21
1.7676470942
0
LINE
5
4C7
100
AcDbEntity
8
0
100
AcDbLine
62
2
6
CONTINUOUS
10
11.0586655034
20
1.7895067458
11
11.1285928239
21
1.8594340664
0
LINE
5
4C8
100
AcDbEntity
8
0
100
AcDbLine
62
2
6
CONTINUOUS
10
11.1512130969
20
1.8820543394
11
11.1938677300
21
1.9247089725
0
LINE
5
4C9
100
AcDbEntity
8
0
100
AcDbLine
62
2
6
CONTINUOUS
10
10.7909148179
20
1.5317183764
11
10.9090953157
21
1.6498988743
0
LINE
5
4CA
100
AcDbEntity
8
0
100
AcDbLine
62
2
6
CONTINUOUS
10
11.0184686212
20
1.7592721797
11
11.0346189905
21
1.7754225490
0
LINE
5
4CB
100
AcDbEntity
8
0
100
AcDbLine
62
2
6
CONTINUOUS
10
11.0547363654
20
1.7955399240
11
11.1308956260
21
1.8716991845
0
LINE
5
4CC
100
AcDbEntity
8
0
100
AcDbLine
62
2
6
CONTINUOUS
10
11.1416984981
20
1.8825020567
11
11.1860728052
21
1.9268763638
0
LINE
5
4CD
100
AcDbEntity
8
0
100
AcDbLine
62
2
6
CONTINUOUS
10
10.7373925470
20
1.4881584216
11
10.7376207367
21
1.4883866112
0
LINE
5
4CE
100
AcDbEntity
8
0
100
AcDbLine
62
2
6
CONTINUOUS
10
10.7909148179
20
1.5416806924
11
10.9081633098
21
1.6589291844
0
LINE
5
4CF
100
AcDbEntity
8
0
100
AcDbLine
62
2
6
CONTINUOUS
10
11.0085063051
20
1.7592721797
11
11.0330573039
21
1.7838231784
0
LINE
5
4D0
100
AcDbEntity
8
0
100
AcDbLine
62
2
6
CONTINUOUS
10
11.0510425242
20
1.8018083987
11
11.1777115231
21
1.9284773977
0
LINE
5
4D1
100
AcDbEntity
8
0
100
AcDbLine
62
2
6
CONTINUOUS
10
10.7274302309
20
1.4881584216
11
10.7376207367
21
1.4983489273
0
LINE
5
4D2
100
AcDbEntity
8
0
100
AcDbLine
62
2
6
CONTINUOUS
10
10.7909148179
20
1.5516430085
11
10.8982009938
21
1.6589291844
0
LINE
5
4D3
100
AcDbEntity
8
0
100
AcDbLine
62
2
6
CONTINUOUS
10
10.9985439891
20
1.7592721797
11
11.0314956172
21
1.7922238078
0
LINE
5
4D4
100
AcDbEntity
8
0
100
AcDbLine
62
2
6
CONTINUOUS
10
11.0481774857
20
1.8089056763
11
11.1690885121
21
1.9298167027
0
LINE
5
4D5
100
AcDbEntity
8
0
100
AcDbLine
62
2
6
CONTINUOUS
10
10.7174679149
20
1.4881584216
11
10.7376207367
21
1.5083112433
0
LINE
5
4D6
100
AcDbEntity
8
0
100
AcDbLine
62
2
6
CONTINUOUS
10
10.7909148179
20
1.5616053245
11
10.8882386777
21
1.6589291844
0
LINE
5
4D7
100
AcDbEntity
8
0
100
AcDbLine
62
2
6
CONTINUOUS
10
10.9885816731
20
1.7592721797
11
11.0299356274
21
1.8006261341
0
LINE
5
4D8
100
AcDbEntity
8
0
100
AcDbLine
62
2
6
CONTINUOUS
10
11.0455384495
20
1.8162289561
11
11.1598177692
21
1.9305082759
0
LINE
5
4D9
100
AcDbEntity
8
0
100
AcDbLine
62
2
6
CONTINUOUS
10
10.7075055989
20
1.4881584216
11
10.7376207367
21
1.5182735594
0
LINE
5
4DA
100
AcDbEntity
8
0
100
AcDbLine
62
2
6
CONTINUOUS
10
10.7909148179
20
1.5715676406
11
10.8782763617
21
1.6589291844
0
LINE
5
4DB
100
AcDbEntity
8
0
100
AcDbLine
62
2
6
CONTINUOUS
10
10.9786193570
20
1.7592721797
11
11.0282677733
21
1.8089205960
0
LINE
5
4DC
100
AcDbEntity
8
0
100
AcDbLine
62
2
6
CONTINUOUS
10
11.0438191357
20
1.8244719584
11
11.1504987567
21
1.9311515795
0
LINE
5
4DD
100
AcDbEntity
8
0
100
AcDbLine
62
2
6
CONTINUOUS
10
10.6975432828
20
1.4881584216
11
10.7376207367
21
1.5282358754
0
LINE
5
4DE
100
AcDbEntity
8
0
100
AcDbLine
62
2
6
CONTINUOUS
10
10.7909148179
20
1.5815299566
11
10.8735740230
21
1.6641891617
0
LINE
5
4DF
100
AcDbEntity
8
0
100
AcDbLine
62
2
6
CONTINUOUS
10
10.9686570410
20
1.7592721797
11
11.0262630557
21
1.8168781945
0
LINE
5
4E0
100
AcDbEntity
8
0
100
AcDbLine
62
2
6
CONTINUOUS
10
11.0424754136
20
1.8330905523
11
11.1405325573
21
1.9311476961
0
LINE
5
4E1
100
AcDbEntity
8
0
100
AcDbLine
62
2
6
CONTINUOUS
10
10.6875809668
20
1.4881584216
11
10.7376207367
21
1.5381981915
0
LINE
5
4E2
100
AcDbEntity
8
0
100
AcDbLine
62
2
6
CONTINUOUS
10
10.7909148179
20
1.5914922727
11
10.8735740230
21
1.6741514778
0
LINE
5
4E3
100
AcDbEntity
8
0
100
AcDbLine
62
2
6
CONTINUOUS
10
10.9586947249
20
1.7592721797
11
11.0242583382
21
1.8248357930
0
LINE
5
4E4
100
AcDbEntity
8
0
100
AcDbLine
62
2
6
CONTINUOUS
10
11.0418747941
20
1.8424522489
11
11.1297967183
21
1.9303741731
0
LINE
5
4E5
100
AcDbEntity
8
0
100
AcDbLine
62
2
6
CONTINUOUS
10
10.6776186507
20
1.4881584216
11
10.7376207367
21
1.5481605075
0
LINE
5
4E6
100
AcDbEntity
8
0
100
AcDbLine
62
2
6
CONTINUOUS
10
10.7909148179
20
1.6014545887
11
10.8735740230
21
1.6841137938
0
LINE
5
4E7
100
AcDbEntity
8
0
100
AcDbLine
62
2
6
CONTINUOUS
10
10.9492219412
20
1.7597617120
11
11.0214124164
21
1.8319521873
0
LINE
5
4E8
100
AcDbEntity
8
0
100
AcDbLine
62
2
6
CONTINUOUS
10
11.0420226066
20
1.8525623775
11
11.1189386213
21
1.9294783922
0
LINE
5
4E9
100
AcDbEntity
8
0
100
AcDbLine
62
2
6
CONTINUOUS
10
10.6676563347
20
1.4881584216
11
10.7376207367
21
1.5581228236
0
LINE
5
4EA
100
AcDbEntity
8
0
100
AcDbLine
62
2
6
CONTINUOUS
10
10.7907957216
20
1.6112978085
11
10.8735740230
21
1.6940761098
0
LINE
5
4EB
100
AcDbEntity
8
0
100
AcDbLine
62
2
6
CONTINUOUS
10
10.9478449284
20
1.7683470153
11
11.0184290436
21
1.8389311305
0
LINE
5
4EC
100
AcDbEntity
8
0
100
AcDbLine
62
2
6
CONTINUOUS
10
11.0429064206
20
1.8634085075
11
11.1066318076
21
1.9271338944
0
LINE
5
4ED
100
AcDbEntity
8
0
100
AcDbLine
62
2
6
CONTINUOUS
10
10.6596777497
20
1.4901421526
11
10.7376207367
21
1.5680851396
0
LINE
5
4EE
100
AcDbEntity
8
0
100
AcDbLine
62
2
6
CONTINUOUS
10
10.7808334055
20
1.6112978085
11
10.8735740230
21
1.7040384259
0
LINE
5
4EF
100
AcDbEntity
8
0
100
AcDbLine
62
2
6
CONTINUOUS
10
10.9464775930
20
1.7769419959
11
11.0142670457
21
1.8447314486
0
LINE
5
4F0
100
AcDbEntity
8
0
100
AcDbLine
62
2
6
CONTINUOUS
10
11.0456830731
20
1.8761474760
11
11.0926048719
21
1.9230692749
0
LINE
5
4F1
100
AcDbEntity
8
0
100
AcDbLine
62
2
6
CONTINUOUS
10
10.6596777497
20
1.5001044687
11
10.7376207367
21
1.5780474556
0
LINE
5
4F2
100
AcDbEntity
8
0
100
AcDbLine
62
2
6
CONTINUOUS
10
10.7708710895
20
1.6112978085
11
10.8735740230
21
1.7140007419
0
LINE
5
4F3
100
AcDbEntity
8
0
100
AcDbLine
62
2
6
CONTINUOUS
10
10.9453875674
20
1.7858142864
11
11.0092641177
21
1.8496908367
0
LINE
5
4F4
100
AcDbEntity
8
0
100
AcDbLine
62
2
6
CONTINUOUS
10
11.0551266201
20
1.8955533391
11
11.0725010888
21
1.9129278078
0
LINE
5
4F5
100
AcDbEntity
8
0
100
AcDbLine
62
2
6
CONTINUOUS
10
10.6596777497
20
1.5100667847
11
10.7376207367
21
1.5880097717
0
LINE
5
4F6
100
AcDbEntity
8
0
100
AcDbLine
62
2
6
CONTINUOUS
10
10.7609087734
20
1.6112978085
11
10.8664290975
21
1.7168181325
0
LINE
5
4F7
100
AcDbEntity
8
0
100
AcDbLine
62
2
6
CONTINUOUS
10
10.9442975419
20
1.7946865769
11
11.0038951919
21
1.8542842270
0
LINE
5
4F8
100
AcDbEntity
8
0
100
AcDbLine
62
2
6
CONTINUOUS
10
10.6283283163
20
1.4886796674
11
10.7376207367
21
1.5979720877
0
LINE
5
4F9
100
AcDbEntity
8
0
100
AcDbLine
62
2
6
CONTINUOUS
10
10.7557818244
20
1.6161331754
11
10.8564667814
21
1.7168181325
0
LINE
5
4FA
100
AcDbEntity
8
0
100
AcDbLine
62
2
6
CONTINUOUS
10
10.9428243922
20
1.8031757432
11
10.9976040269
21
1.8579553780
0
LINE
5
4FB
100
AcDbEntity
8
0
100
AcDbLine
62
2
6
CONTINUOUS
10
10.6150964502
20
1.4854101173
11
10.7376207367
21
1.6079344038
0
LINE
5
4FC
100
AcDbEntity
8
0
100
AcDbLine
62
2
6
CONTINUOUS
10
10.7557818244
20
1.6260954915
11
10.7886155173
21
1.6589291844
0
LINE
5
4FD
100
AcDbEntity
8
0
100
AcDbLine
62
2
6
CONTINUOUS
10
10.7909148179
20
1.6612284850
11
10.8465044654
21
1.7168181325
0
LINE
5
4FE
100
AcDbEntity
8
0
100
AcDbLine
62
2
6
CONTINUOUS
10
10.8889585126
20
1.7592721797
11
10.8936765891
21
1.7639902562
0
LINE
5
4FF
100
AcDbEntity
8
0
100
AcDbLine
62
2
6
CONTINUOUS
10
10.9413399536
20
1.8116536207
11
10.9907972341
21
1.8611109012
0
LINE
5
500
100
AcDbEntity
8
0
100
AcDbLine
62
2
6
CONTINUOUS
10
11.0030603618
20
1.8733740289
11
11.0288808852
21
1.8991945523
0
LINE
5
501
100
AcDbEntity
8
0
100
AcDbLine
62
2
6
CONTINUOUS
10
10.6041972639
20
1.4844732471
11
10.7376207367
21
1.6178967198
0
LINE
5
502
100
AcDbEntity
8
0
100
AcDbLine
62
2
6
CONTINUOUS
10
10.7557818244
20
1.6360578075
11
10.7786532013
21
1.6589291844
0
LINE
5
503
100
AcDbEntity
8
0
100
AcDbLine
62
2
6
CONTINUOUS
10
10.7909148179
20
1.6711908010
11
10.8365421494
21
1.7168181325
0
LINE
5
504
100
AcDbEntity
8
0
100
AcDbLine
62
2
6
CONTINUOUS
10
10.8789961966
20
1.7592721797
11
10.8936765891
21
1.7739525723
0
LINE
5
505
100
AcDbEntity
8
0
100
AcDbLine
62
2
6
CONTINUOUS
10
10.9391030327
20
1.8193790158
11
10.9830133101
21
1.8632892933
0
LINE
5
506
100
AcDbEntity
8
0
100
AcDbLine
62
2
6
CONTINUOUS
10
10.9864129551
20
1.8666889383
11
11.0326577521
21
1.9129337353
0
LINE
5
507
100
AcDbEntity
8
0
100
AcDbLine
62
2
6
CONTINUOUS
10
10.5948290928
20
1.4850673920
11
10.7376207367
21
1.6278590359
0
LINE
5
508
100
AcDbEntity
8
0
100
AcDbLine
62
2
6
CONTINUOUS
10
10.7557818244
20
1.6460201235
11
10.7686908852
21
1.6589291844
0
LINE
5
509
100
AcDbEntity
8
0
100
AcDbLine
62
2
6
CONTINUOUS
10
10.7909148179
20
1.6811531171
11
10.8265798333
21
1.7168181325
0
LINE
5
50A
100
AcDbEntity
8
0
100
AcDbLine
62
2
6
CONTINUOUS
10
10.8690338805
20
1.7592721797
11
10.8936765891
21
1.7839148883
0
LINE
5
50B
100
AcDbEntity
8
0
100
AcDbLine
62
2
6
CONTINUOUS
10
10.9361207639
20
1.8263590631
11
11.0338258380
21
1.9240641372
0
LINE
5
50C
100
AcDbEntity
8
0
100
AcDbLine
62
2
6
CONTINUOUS
10
10.5857531944
20
1.4859538096
11
10.6374960133
21
1.5376966286
0
LINE
5
50D
100
AcDbEntity
8
0
100
AcDbLine
62
2
6
CONTINUOUS
10
10.6549955174
20
1.5551961326
11
10.7376207367
21
1.6378213519
0
LINE
5
50E
100
AcDbEntity
8
0
100
AcDbLine
62
2
6
CONTINUOUS
10
10.7557818244
20
1.6559824396
11
10.7587285692
21
1.6589291844
0
LINE
5
50F
100
AcDbEntity
8
0
100
AcDbLine
62
2
6
CONTINUOUS
10
10.7909148179
20
1.6911154331
11
10.8166175173
21
1.7168181325
0
LINE
5
510
100
AcDbEntity
8
0
100
AcDbLine
62
2
6
CONTINUOUS
10
10.8590715645
20
1.7592721797
11
10.8936765891
21
1.7938772044
0
LINE
5
511
100
AcDbEntity
8
0
100
AcDbLine
62
2
6
CONTINUOUS
10
10.9313488620
20
1.8315494772
11
11.0329563084
21
1.9331569236
0
LINE
5
512
100
AcDbEntity
8
0
100
AcDbLine
62
2
6
CONTINUOUS
10
10.5778575878
20
1.4880205190
11
10.6306374695
21
1.5408004008
0
LINE
5
513
100
AcDbEntity
8
0
100
AcDbLine
62
2
6
CONTINUOUS
10
10.6550909647
20
1.5652538959
11
10.7376207367
21
1.6477836679
0
LINE
5
514
100
AcDbEntity
8
0
100
AcDbLine
62
2
6
CONTINUOUS
10
10.7909148179
20
1.7010777491
11
10.8066552012
21
1.7168181325
0
LINE
5
515
100
AcDbEntity
8
0
100
AcDbLine
62
2
6
CONTINUOUS
10
10.8491092484
20
1.7592721797
11
10.8936765891
21
1.8038395204
0
LINE
5
516
100
AcDbEntity
8
0
100
AcDbLine
62
2
6
CONTINUOUS
10
10.9245678392
20
1.8347307704
11
11.0315202338
21
1.9416831651
0
LINE
5
517
100
AcDbEntity
8
0
100
AcDbLine
62
2
6
CONTINUOUS
10
10.5705991520
20
1.4907243993
11
10.6269774574
21
1.5471027048
0
LINE
5
518
100
AcDbEntity
8
0
100
AcDbLine
62
2
6
CONTINUOUS
10
10.6550909647
20
1.5752162120
11
10.7376207367
21
1.6577459840
0
LINE
5
519
100
AcDbEntity
8
0
100
AcDbLine
62
2
6
CONTINUOUS
10
10.7909148179
20
1.7110400652
11
10.7966928852
21
1.7168181325
0
LINE
5
51A
100
AcDbEntity
8
0
100
AcDbLine
62
2
6
CONTINUOUS
10
10.8391469324
20
1.7592721797
11
10.8936765891
21
1.8138018364
0
LINE
5
51B
100
AcDbEntity
8
0
100
AcDbLine
62
2
6
CONTINUOUS
10
10.9157932701
20
1.8359185174
11
11.0288942215
21
1.9490194688
0
LINE
5
51C
100
AcDbEntity
8
0
100
AcDbLine
62
2
6
CONTINUOUS
10
10.5640202279
20
1.4941077912
11
10.6258500186
21
1.5559375819
0
LINE
5
51D
100
AcDbEntity
8
0
100
AcDbLine
62
2
6
CONTINUOUS
10
10.6550909647
20
1.5851785280
11
10.7289872494
21
1.6590748128
0
LINE
5
51E
100
AcDbEntity
8
0
100
AcDbLine
62
2
6
CONTINUOUS
10
10.8291846163
20
1.7592721797
11
10.8936765891
21
1.8237641525
0
LINE
5
51F
100
AcDbEntity
8
0
100
AcDbLine
62
2
6
CONTINUOUS
10
10.9058737203
20
1.8359612837
11
11.0253832370
21
1.9554708004
0
LINE
5
520
100
AcDbEntity
8
0
100
AcDbLine
62
2
6
CONTINUOUS
10
10.5586114952
20
1.4986613746
11
10.6257743705
21
1.5658242499
0
LINE
5
521
100
AcDbEntity
8
0
100
AcDbLine
62
2
6
CONTINUOUS
10
10.6550909647
20
1.5951408441
11
10.7190249333
21
1.6590748128
0
LINE
5
522
100
AcDbEntity
8
0
100
AcDbLine
62
2
6
CONTINUOUS
10
10.8192223003
20
1.7592721797
11
10.8936765891
21
1.8337264685
0
LINE
5
523
100
AcDbEntity
8
0
100
AcDbLine
62
2
6
CONTINUOUS
10
10.8959114043
20
1.8359612837
11
11.0212656340
21
1.9613155134
0
LINE
5
524
100
AcDbEntity
8
0
100
AcDbLine
62
2
6
CONTINUOUS
10
10.5381462261
20
1.4881584216
11
10.5393402059
21
1.4893524013
0
LINE
5
525
100
AcDbEntity
8
0
100
AcDbLine
62
2
6
CONTINUOUS
10
10.5538173203
20
1.5038295158
11
10.6257743705
21
1.5757865659
0
LINE
5
526
100
AcDbEntity
8
0
100
AcDbLine
62
2
6
CONTINUOUS
10
10.6550909647
20
1.6051031601
11
10.7090626173
21
1.6590748128
0
LINE
5
527
100
AcDbEntity
8
0
100
AcDbLine
62
2
6
CONTINUOUS
10
10.8092599843
20
1.7592721797
11
11.0160302648
21
1.9660424602
0
LINE
5
528
100
AcDbEntity
8
0
100
AcDbLine
62
2
6
CONTINUOUS
10
10.5281839101
20
1.4881584216
11
10.5367210042
21
1.4966955157
0
LINE
5
529
100
AcDbEntity
8
0
100
AcDbLine
62
2
6
CONTINUOUS
10
10.5498188524
20
1.5097933640
11
10.6257743705
21
1.5857488820
0
LINE
5
52A
100
AcDbEntity
8
0
100
AcDbLine
62
2
6
CONTINUOUS
10
10.6550909647
20
1.6150654762
11
10.6991003013
21
1.6590748128
0
LINE
5
52B
100
AcDbEntity
8
0
100
AcDbLine
62
2
6
CONTINUOUS
10
10.8071748393
20
1.7671493508
11
10.9273142410
21
1.8872887525
0
LINE
5
52C
100
AcDbEntity
8
0
100
AcDbLine
62
2
6
CONTINUOUS
10
10.9471145130
20
1.9070890245
11
11.0105710124
21
1.9705455239
0
LINE
5
52D
100
AcDbEntity
8
0
100
AcDbLine
62
2
6
CONTINUOUS
10
10.5182215940
20
1.4881584216
11
10.5341018025
21
1.5040386301
0
LINE
5
52E
100
AcDbEntity
8
0
100
AcDbLine
62
2
6
CONTINUOUS
10
10.5469992630
20
1.5169360905
11
10.6257743705
21
1.5957111980
0
LINE
5
52F
100
AcDbEntity
8
0
100
AcDbLine
62
2
6
CONTINUOUS
10
10.6550909647
20
1.6250277922
11
10.6891379852
21
1.6590748128
0
LINE
5
530
100
AcDbEntity
8
0
100
AcDbLine
62
2
6
CONTINUOUS
10
10.8071748393
20
1.7771116668
11
10.9163864885
21
1.8863233161
0
LINE
5
531
100
AcDbEntity
8
0
100
AcDbLine
62
2
6
CONTINUOUS
10
10.9467600775
20
1.9166969051
11
11.0038874057
21
1.9738242333
0
LINE
5
532
100
AcDbEntity
8
0
100
AcDbLine
62
2
6
CONTINUOUS
10
10.5082592780
20
1.4881584216
11
10.5314826008
21
1.5113817444
0
LINE
5
533
100
AcDbEntity
8
0
100
AcDbLine
62
2
6
CONTINUOUS
10
10.5448728609
20
1.5247720045
11
10.6257743705
21
1.6056735141
0
LINE
5
534
100
AcDbEntity
8
0
100
AcDbLine
62
2
6
CONTINUOUS
10
10.6550909647
20
1.6349901083
11
10.6791756692
21
1.6590748128
0
LINE
5
535
100
AcDbEntity
8
0
100
AcDbLine
62
2
6
CONTINUOUS
10
10.8071748393
20
1.7870739828
11
10.9063630735
21
1.8862622171
0
LINE
5
536
100
AcDbEntity
8
0
100
AcDbLine
62
2
6
CONTINUOUS
10
10.9439479460
20
1.9238470896
11
10.9971876713
21
1.9770868149
0
LINE
5
537
100
AcDbEntity
8
0
100
AcDbLine
62
2
6
CONTINUOUS
10
10.4982969619
20
1.4881584216
11
10.5288633991
21
1.5187248588
0
LINE
5
538
100
AcDbEntity
8
0
100
AcDbLine
62
2
6
CONTINUOUS
10
10.5435924608
20
1.5334539204
11
10.6257743705
21
1.6156358301
0
LINE
5
539
100
AcDbEntity
8
0
100
AcDbLine
62
2
6
CONTINUOUS
10
10.6550909647
20
1.6449524243
11
10.6692133531
21
1.6590748128
0
LINE
5
53A
100
AcDbEntity
8
0
100
AcDbLine
62
2
6
CONTINUOUS
10
10.8071748393
20
1.7970362989
11
10.8964007574
21
1.8862622171
0
LINE
5
53B
100
AcDbEntity
8
0
100
AcDbLine
62
2
6
CONTINUOUS
10
10.9389709672
20
1.9288324268
11
10.9893283069
21
1.9791897665
0
LINE
5
53C
100
AcDbEntity
8
0
100
AcDbLine
62
2
6
CONTINUOUS
10
10.4883346459
20
1.4881584216
11
10.5262441975
21
1.5260679731
0
LINE
5
53D
100
AcDbEntity
8
0
100
AcDbLine
62
2
6
CONTINUOUS
10
10.5432526881
20
1.5430764637
11
10.6257743705
21
1.6255981462
0
LINE
5
53E
100
AcDbEntity
8
0
100
AcDbLine
62
2
6
CONTINUOUS
10
10.6550909647
20
1.6549147403
11
10.6592510371
21
1.6590748128
0
LINE
5
53F
100
AcDbEntity
8
0
100
AcDbLine
62
2
6
CONTINUOUS
10
10.8071748393
20
1.8069986149
11
10.8898016861
21
1.8896254618
0
LINE
5
540
100
AcDbEntity
8
0
100
AcDbLine
62
2
6
CONTINUOUS
10
10.9321545055
20
1.9319782812
11
10.9814488064
21
1.9812725821
0
LINE
5
541
100
AcDbEntity
8
0
100
AcDbLine
62
2
6
CONTINUOUS
10
10.4783723298
20
1.4881584216
11
10.5236249958
21
1.5334110875
0
LINE
5
542
100
AcDbEntity
8
0
100
AcDbLine
62
2
6
CONTINUOUS
10
10.5432526881
20
1.5530387798
11
10.6257743705
21
1.6355604622
0
LINE
5
543
100
AcDbEntity
8
0
100
AcDbLine
62
2
6
CONTINUOUS
10
10.8071748393
20
1.8169609310
11
10.8898016861
21
1.8995877778
0
LINE
5
544
100
AcDbEntity
8
0
100
AcDbLine
62
2
6
CONTINUOUS
10
10.9237764320
20
1.9335625238
11
10.9727166924
21
1.9825027842
0
LINE
5
545
100
AcDbEntity
8
0
100
AcDbLine
62
2
6
CONTINUOUS
10
10.4684100138
20
1.4881584216
11
10.5210057941
21
1.5407542019
0
LINE
5
546
100
AcDbEntity
8
0
100
AcDbLine
62
2
6
CONTINUOUS
10
10.5432526881
20
1.5630010958
11
10.6257743705
21
1.6455227783
0
LINE
5
547
100
AcDbEntity
8
0
100
AcDbLine
62
2
6
CONTINUOUS
10
10.8071748393
20
1.8269232470
11
10.8898016861
21
1.9095500938
0
LINE
5
548
100
AcDbEntity
8
0
100
AcDbLine
62
2
6
CONTINUOUS
10
10.9143369696
20
1.9340853773
11
10.9636986763
21
1.9834470841
0
LINE
5
549
100
AcDbEntity
8
0
100
AcDbLine
62
2
6
CONTINUOUS
10
10.4584476978
20
1.4881584216
11
10.5183865924
21
1.5480973162
0
LINE
5
54A
100
AcDbEntity
8
0
100
AcDbLine
62
2
6
CONTINUOUS
10
10.5432526881
20
1.5729634119
11
10.6257743705
21
1.6554850943
0
LINE
5
54B
100
AcDbEntity
8
0
100
AcDbLine
62
2
6
CONTINUOUS
10
10.8071748393
20
1.8368855631
11
10.8898016861
21
1.9195124099
0
LINE
5
54C
100
AcDbEntity
8
0
100
AcDbLine
62
2
6
CONTINUOUS
10
10.9043770188
20
1.9340877427
11
10.9545199748
21
1.9842306986
0
LINE
5
54D
100
AcDbEntity
8
0
100
AcDbLine
62
2
6
CONTINUOUS
10
10.4484853817
20
1.4881584216
11
10.5157673907
21
1.5554404306
0
LINE
5
54E
100
AcDbEntity
8
0
100
AcDbLine
62
2
6
CONTINUOUS
10
10.5432526881
20
1.5829257279
11
10.6194017729
21
1.6590748128
0
LINE
5
54F
100
AcDbEntity
8
0
100
AcDbLine
62
2
6
CONTINUOUS
10
10.8071748393
20
1.8468478791
11
10.8898016861
21
1.9294747259
0
LINE
5
550
100
AcDbEntity
8
0
100
AcDbLine
62
2
6
CONTINUOUS
10
10.8944147028
20
1.9340877427
11
10.9447156362
21
1.9843886760
0
LINE
5
551
100
AcDbEntity
8
0
100
AcDbLine
62
2
6
CONTINUOUS
10
10.4455552348
20
1.4951905906
11
10.5131481891
21
1.5627835450
0
LINE
5
552
100
AcDbEntity
8
0
100
AcDbLine
62
2
6
CONTINUOUS
10
10.5432526881
20
1.5928880439
11
10.6094394569
21
1.6590748128
0
LINE
5
553
100
AcDbEntity
8
0
100
AcDbLine
62
2
6
CONTINUOUS
10
10.8071748393
20
1.8568101952
11
10.9347533201
21
1.9843886760
0
LINE
5
554
100
AcDbEntity
8
0
100
AcDbLine
62
2
6
CONTINUOUS
10
10.4432279878
20
1.5028256597
11
10.5105289874
21
1.5701266593
0
LINE
5
555
100
AcDbEntity
8
0
100
AcDbLine
62
2
6
CONTINUOUS
10
10.5432526881
20
1.6028503600
11
10.5994771408
21
1.6590748128
0
LINE
5
556
100
AcDbEntity
8
0
100
AcDbLine
62
2
6
CONTINUOUS
10
10.8071748393
20
1.8667725112
11
10.9247910041
21
1.9843886760
0
LINE
5
557
100
AcDbEntity
8
0
100
AcDbLine
62
2
6
CONTINUOUS
10
10.4409007408
20
1.5104607287
11
10.5079097857
21
1.5774697737
0
LINE
5
558
100
AcDbEntity
8
0
100
AcDbLine
62
2
6
CONTINUOUS
10
10.5432526881
20
1.6128126760
11
10.5895148248
21
1.6590748128
0
LINE
5
559
100
AcDbEntity
8
0
100
AcDbLine
62
2
6
CONTINUOUS
10
10.8071748393
20
1.8767348272
11
10.9148286880
21
1.9843886760
0
LINE
5
55A
100
AcDbEntity
8
0
100
AcDbLine
62
2
6
CONTINUOUS
10
10.4385734938
20
1.5180957978
11
10.5052905840
21
1.5848128880
0
LINE
5
55B
100
AcDbEntity
8
0
100
AcDbLine
62
2
6
CONTINUOUS
10
10.5432526881
20
1.6227749921
11
10.5795525087
21
1.6590748128
0
LINE
5
55C
100
AcDbEntity
8
0
100
AcDbLine
62
2
6
CONTINUOUS
10
10.8071748393
20
1.8866971433
11
10.9048663720
21
1.9843886760
0
LINE
5
55D
100
AcDbEntity
8
0
100
AcDbLine
62
2
6
CONTINUOUS
10
10.4362462468
20
1.5257308668
11
10.5026713823
21
1.5921560024
0
LINE
5
55E
100
AcDbEntity
8
0
100
AcDbLine
62
2
6
CONTINUOUS
10
10.5432526881
20
1.6327373081
11
10.5695901927
21
1.6590748128
0
LINE
5
55F
100
AcDbEntity
8
0
100
AcDbLine
62
2
6
CONTINUOUS
10
10.8071748393
20
1.8966594593
11
10.8949040560
21
1.9843886760
0
LINE
5
560
100
AcDbEntity
8
0
100
AcDbLine
62
2
6
CONTINUOUS
10
10.4339189998
20
1.5333659359
11
10.5000521806
21
1.5994991168
0
LINE
5
561
100
AcDbEntity
8
0
100
AcDbLine
62
2
6
CONTINUOUS
10
10.5432526881
20
1.6426996242
11
10.5596278766
21
1.6590748128
0
LINE
5
562
100
AcDbEntity
8
0
100
AcDbLine
62
2
6
CONTINUOUS
10
10.8071748393
20
1.9066217754
11
10.8849417399
21
1.9843886760
0
LINE
5
563
100
AcDbEntity
8
0
100
AcDbLine
62
2
6
CONTINUOUS
10
10.4281926086
20
1.5376018607
11
10.4974329790
21
1.6068422311
0
LINE
5
564
100
AcDbEntity
8
0
100
AcDbLine
62
2
6
CONTINUOUS
10
10.5432526881
20
1.6526619402
11
10.5496655606
21
1.6590748128
0
LINE
5
565
100
AcDbEntity
8
0
100
AcDbLine
62
2
6
CONTINUOUS
10
10.8071748393
20
1.9165840914
11
10.8749794239
21
1.9843886760
0
LINE
5
566
100
AcDbEntity
8
0
100
AcDbLine
62
2
6
CONTINUOUS
10
10.4182302925
20
1.5376018607
11
10.4948137773
21
1.6141853455
0
LINE
5
567
100
AcDbEntity
8
0
100
AcDbLine
62
2
6
CONTINUOUS
10
10.8071748393
20
1.9265464075
11
10.8650171078
21
1.9843886760
0
LINE
5
568
100
AcDbEntity
8
0
100
AcDbLine
62
2
6
CONTINUOUS
10
10.4082679765
20
1.5376018607
11
10.4921945756
21
1.6215284599
0
LINE
5
569
100
AcDbEntity
8
0
100
AcDbLine
62
2
6
CONTINUOUS
10
10.8071748393
20
1.9365087235
11
10.8550547918
21
1.9843886760
0
LINE
5
56A
100
AcDbEntity
8
0
100
AcDbLine
62
2
6
CONTINUOUS
10
10.3983056605
20
1.5376018607
11
10.4895753739
21
1.6288715742
0
LINE
5
56B
100
AcDbEntity
8
0
100
AcDbLine
62
2
6
CONTINUOUS
10
10.8071748393
20
1.9464710396
11
10.8450924757
21
1.9843886760
0
LINE
5
56C
100
AcDbEntity
8
0
100
AcDbLine
62
2
6
CONTINUOUS
10
10.3388999052
20
1.4881584216
11
10.3467211656
21
1.4959796820
0
LINE
5
56D
100
AcDbEntity
8
0
100
AcDbLine
62
2
6
CONTINUOUS
10
10.3883433444
20
1.5376018607
11
10.4869561722
21
1.6362146886
0
LINE
5
56E
100
AcDbEntity
8
0
100
AcDbLine
62
2
6
CONTINUOUS
10
10.8071748393
20
1.9564333556
11
10.8351301597
21
1.9843886760
0
LINE
5
56F
100
AcDbEntity
8
0
100
AcDbLine
62
2
6
CONTINUOUS
10
10.3289375892
20
1.4881584216
11
10.3506924138
21
1.5099132462
0
LINE
5
570
100
AcDbEntity
8
0
100
AcDbLine
62
2
6
CONTINUOUS
10
10.3783810284
20
1.5376018607
11
10.4843369706
21
1.6435578029
0
LINE
5
571
100
AcDbEntity
8
0
100
AcDbLine
62
2
6
CONTINUOUS
10
10.8071748393
20
1.9663956716
11
10.8251678436
21
1.9843886760
0
LINE
5
572
100
AcDbEntity
8
0
100
AcDbLine
62
2
6
CONTINUOUS
10
10.3189752731
20
1.4881584216
11
10.3546636620
21
1.5238468104
0
LINE
5
573
100
AcDbEntity
8
0
100
AcDbLine
62
2
6
CONTINUOUS
10
10.3684187123
20
1.5376018607
11
10.4817177689
21
1.6509009173
0
LINE
5
574
100
AcDbEntity
8
0
100
AcDbLine
62
2
6
CONTINUOUS
10
10.8071748393
20
1.9763579877
11
10.8152055276
21
1.9843886760
0
LINE
5
575
100
AcDbEntity
8
0
100
AcDbLine
62
2
6
CONTINUOUS
10
10.3090129571
20
1.4881584216
11
10.4133198460
21
1.5924653104
0
LINE
5
576
100
AcDbEntity
8
0
100
AcDbLine
62
2
6
CONTINUOUS
10
10.4196057808
20
1.5987512453
11
10.4790985672
21
1.6582440317
0
LINE
5
577
100
AcDbEntity
8
0
100
AcDbLine
62
2
6
CONTINUOUS
10
10.2990506411
20
1.4881584216
11
10.4033575299
21
1.5924653104
0
LINE
5
578
100
AcDbEntity
8
0
100
AcDbLine
62
2
6
CONTINUOUS
10
10.4171316691
20
1.6062394496
11
10.4764793655
21
1.6655871460
0
LINE
5
579
100
AcDbEntity
8
0
100
AcDbLine
62
2
6
CONTINUOUS
10
10.2890883250
20
1.4881584216
11
10.3933952139
21
1.5924653104
0
LINE
5
57A
100
AcDbEntity
8
0
100
AcDbLine
62
2
6
CONTINUOUS
10
10.4146575574
20
1.6137276539
11
10.4738601638
21
1.6729302604
0
LINE
5
57B
100
AcDbEntity
8
0
100
AcDbLine
62
2
6
CONTINUOUS
10
10.2791260090
20
1.4881584216
11
10.3834328978
21
1.5924653104
0
LINE
5
57C
100
AcDbEntity
8
0
100
AcDbLine
62
2
6
CONTINUOUS
10
10.4121834457
20
1.6212158583
11
10.4712409622
21
1.6802733748
0
LINE
5
57D
100
AcDbEntity
8
0
100
AcDbLine
62
2
6
CONTINUOUS
10
10.2691636929
20
1.4881584216
11
10.3734705818
21
1.5924653104
0
LINE
5
57E
100
AcDbEntity
8
0
100
AcDbLine
62
2
6
CONTINUOUS
10
10.4097093340
20
1.6287040626
11
10.4686217605
21
1.6876164891
0
LINE
5
57F
100
AcDbEntity
8
0
100
AcDbLine
62
2
6
CONTINUOUS
10
10.2592013769
20
1.4881584216
11
10.3745765540
21
1.6035335987
0
LINE
5
580
100
AcDbEntity
8
0
100
AcDbLine
62
2
6
CONTINUOUS
10
10.4072352223
20
1.6361922669
11
10.4660025588
21
1.6949596035
0
LINE
5
581
100
AcDbEntity
8
0
100
AcDbLine
62
2
6
CONTINUOUS
10
10.2612141893
20
1.5001335501
11
10.3795882318
21
1.6185075926
0
LINE
5
582
100
AcDbEntity
8
0
100
AcDbLine
62
2
6
CONTINUOUS
10
10.4047611105
20
1.6436804713
11
10.4633833571
21
1.7023027178
0
LINE
5
583
100
AcDbEntity
8
0
100
AcDbLine
62
2
6
CONTINUOUS
10
10.2666011471
20
1.5154828239
11
10.3845999097
21
1.6334815865
0
LINE
5
584
100
AcDbEntity
8
0
100
AcDbLine
62
2
6
CONTINUOUS
10
10.4022869988
20
1.6511686756
11
10.4607641554
21
1.7096458322
0
LINE
5
585
100
AcDbEntity
8
0
100
AcDbLine
62
2
6
CONTINUOUS
10
10.2719881049
20
1.5308320977
11
10.3896115876
21
1.6484555804
0
LINE
5
586
100
AcDbEntity
8
0
100
AcDbLine
62
2
6
CONTINUOUS
10
10.3998128871
20
1.6586568800
11
10.4580388724
21
1.7168828652
0
LINE
5
587
100
AcDbEntity
8
0
100
AcDbLine
62
2
6
CONTINUOUS
10
10.2773750627
20
1.5461813715
11
10.3946232654
21
1.6634295743
0
LINE
5
588
100
AcDbEntity
8
0
100
AcDbLine
62
2
6
CONTINUOUS
10
10.3973387754
20
1.6661450843
11
10.4480765563
21
1.7168828652
0
LINE
5
589
100
AcDbEntity
8
0
100
AcDbLine
62
2
6
CONTINUOUS
10
10.2827620204
20
1.5615306453
11
10.4381142403
21
1.7168828652
0
LINE
5
58A
100
AcDbEntity
8
0
100
AcDbLine
62
2
6
CONTINUOUS
10
10.2881489782
20
1.5768799192
11
10.4281519242
21
1.7168828652
0
LINE
5
58B
100
AcDbEntity
8
0
100
AcDbLine
62
2
6
CONTINUOUS
10
10.2935359360
20
1.5922291930
11
10.4181896082
21
1.7168828652
0
LINE
5
58C
100
AcDbEntity
8
0
100
AcDbLine
62
2
6
CONTINUOUS
10
10.2989228938
20
1.6075784668
11
10.4082272921
21
1.7168828652
0
LINE
5
58D
100
AcDbEntity
8
0
100
AcDbLine
62
2
6
CONTINUOUS
10
10.3043098515
20
1.6229277406
11
10.3982649761
21
1.7168828652
0
LINE
5
58E
100
AcDbEntity
8
0
100
AcDbLine
62
2
6
CONTINUOUS
10
10.3096968093
20
1.6382770144
11
10.3883026600
21
1.7168828652
0
LINE
5
58F
100
AcDbEntity
8
0
100
AcDbLine
62
2
6
CONTINUOUS
10
10.3150837671
20
1.6536262883
11
10.3783403440
21
1.7168828652
0
LINE
5
590
100
AcDbEntity
8
0
100
AcDbLine
62
2
6
CONTINUOUS
10
10.3204707249
20
1.6689755621
11
10.3683780280
21
1.7168828652
0
LINE
5
591
100
AcDbEntity
8
0
100
AcDbLine
62
2
6
CONTINUOUS
10
10.3258576826
20
1.6843248359
11
10.3584157119
21
1.7168828652
0
LINE
5
592
100
AcDbEntity
8
0
100
AcDbLine
62
2
6
CONTINUOUS
10
10.3312446404
20
1.6996741097
11
10.3484533959
21
1.7168828652
0
LINE
5
593
100
AcDbEntity
8
0
100
AcDbLine
62
2
6
CONTINUOUS
10
10.3366315982
20
1.7150233835
11
10.3384910798
21
1.7168828652
0
ENDBLK
5
594
100
AcDbEntity
8
0
6
BYBLOCK
62
0
100
AcDbBlockEnd
0
BLOCK
5
595
100
AcDbEntity
8
0
100
AcDbBlockBegin
62
2
6
CONTINUOUS
2
*D0
70
65
10
0.0000000000
20
0.0000000000
3
*D0
1

0
TEXT
5
596
100
AcDbEntity
8
0
100
AcDbText
62
2
6
CONTINUOUS
10
5.3479518488
20
9.4905074147
7
STANDARD
40
0.1562500000
1
1.36
41
0.8000000000
72
0
100
AcDbText
0
TEXT
5
597
100
AcDbEntity
8
0
100
AcDbText
62
2
6
CONTINUOUS
10
5.4729518488
20
9.2561324147
7
STANDARD
40
0.1562500000
1
34,5
41
0.8000000000
72
0
100
AcDbText
0
TEXT
5
598
100
AcDbEntity
8
0
100
AcDbText
62
2
6
CONTINUOUS
10
5.3479518488
20
9.2561324147
7
STANDARD
40
0.1562500000
1
[
41
0.8000000000
72
0
100
AcDbText
0
TEXT
5
599
100
AcDbEntity
8
0
100
AcDbText
62
2
6
CONTINUOUS
10
5.9729518488
20
9.2561324147
7
STANDARD
40
0.1562500000
1
]
41
0.8000000000
72
0
100
AcDbText
0
LINE
5
59A
100
AcDbEntity
8
0
100
AcDbLine
62
2
6
CONTINUOUS
10
4.9625887131
20
8.6852605853
11
4.9625887131
21
9.6936324147
0
LINE
5
59B
100
AcDbEntity
8
0
100
AcDbLine
62
2
6
CONTINUOUS
10
6.3225887131
20
8.6852605853
11
6.3225887131
21
9.6936324147
0
LINE
5
59C
100
AcDbEntity
8
0
100
AcDbLine
62
2
6
CONTINUOUS
10
4.9625887131
20
9.5686324147
11
5.2698268488
21
9.5686324147
0
LINE
5
59D
100
AcDbEntity
8
0
100
AcDbLine
62
2
6
CONTINUOUS
10
6.3225887131
20
9.5686324147
11
6.1760768488
21
9.5686324147
0
INSERT
5
59E
100
AcDbEntity
8
0
100
AcDbBlockReference
62
2
6
CONTINUOUS
2
_CLOSED
10
4.9625887131
20
9.5686324147
41
  0.187500
42
  0.187500
43
  0.187500
50
180.000000
0
INSERT
5
59F
100
AcDbEntity
8
0
100
AcDbBlockReference
62
2
6
CONTINUOUS
2
_CLOSED
10
6.3225887131
20
9.5686324147
41
  0.187500
42
  0.187500
43
  0.187500
0
ENDBLK
5
5A0
100
AcDbEntity
8
0
6
BYBLOCK
62
0
100
AcDbBlockEnd
0
BLOCK
5
5A1
100
AcDbEntity
8
0
100
AcDbBlockBegin
62
2
6
CONTINUOUS
2
*D1
70
65
10
0.0000000000
20
0.0000000000
3
*D1
1

0
TEXT
5
5A2
100
AcDbEntity
8
0
100
AcDbText
62
2
6
CONTINUOUS
10
10.5570836861
20
9.4905074147
7
STANDARD
40
0.1562500000
1
4.13
41
0.8000000000
72
0
100
AcDbText
0
TEXT
5
5A3
100
AcDbEntity
8
0
100
AcDbText
62
2
6
CONTINUOUS
10
10.6820836861
20
9.2561324147
7
STANDARD
40
0.1562500000
1
104,8
41
0.8000000000
72
0
100
AcDbText
0
TEXT
5
5A4
100
AcDbEntity
8
0
100
AcDbText
62
2
6
CONTINUOUS
10
10.5570836861
20
9.2561324147
7
STANDARD
40
0.1562500000
1
[
41
0.8000000000
72
0
100
AcDbText
0
TEXT
5
5A5
100
AcDbEntity
8
0
100
AcDbText
62
2
6
CONTINUOUS
10
11.3070836861
20
9.2561324147
7
STANDARD
40
0.1562500000
1
]
41
0.8000000000
72
0
100
AcDbText
0
LINE
5
5A6
100
AcDbEntity
8
0
100
AcDbLine
62
2
6
CONTINUOUS
10
8.8015774199
20
8.6852605853
11
8.8015774199
21
9.6936324147
0
LINE
5
5A7
100
AcDbEntity
8
0
100
AcDbLine
62
2
6
CONTINUOUS
10
12.9275616719
20
9.0522684593
11
12.9275616719
21
9.6936324147
0
LINE
5
5A8
100
AcDbEntity
8
0
100
AcDbLine
62
2
6
CONTINUOUS
10
8.8015774199
20
9.5686324147
11
10.4789586861
21
9.5686324147
0
LINE
5
5A9
100
AcDbEntity
8
0
100
AcDbLine
62
2
6
CONTINUOUS
10
12.9275616719
20
9.5686324147
11
11.5102086861
21
9.5686324147
0
INSERT
5
5AA
100
AcDbEntity
8
0
100
AcDbBlockReference
62
2
6
CONTINUOUS
2
_CLOSED
10
8.8015774199
20
9.5686324147
41
  0.187500
42
  0.187500
43
  0.187500
50
180.000000
0
INSERT
5
5AB
100
AcDbEntity
8
0
100
AcDbBlockReference
62
2
6
CONTINUOUS
2
_CLOSED
10
12.9275616719
20
9.5686324147
41
  0.187500
42
  0.187500
43
  0.187500
0
ENDBLK
5
5AC
100
AcDbEntity
8
0
6
BYBLOCK
62
0
100
AcDbBlockEnd
0
BLOCK
5
5AD
100
AcDbEntity
8
0
100
AcDbBlockBegin
62
2
6
CONTINUOUS
2
*D2
70
65
10
0.0000000000
20
0.0000000000
3
*D2
1

0
TEXT
5
5AE
100
AcDbEntity
8
0
100
AcDbText
62
2
6
CONTINUOUS
10
7.9890774199
20
6.6952318238
7
STANDARD
40
0.1562500000
1
4.65
41
0.8000000000
72
0
100
AcDbText
0
TEXT
5
5AF
100
AcDbEntity
8
0
100
AcDbText
62
2
6
CONTINUOUS
10
8.1140774199
20
6.4608568238
7
STANDARD
40
0.1562500000
1
118
41
0.8000000000
72
0
100
AcDbText
0
TEXT
5
5B0
100
AcDbEntity
8
0
100
AcDbText
62
2
6
CONTINUOUS
10
7.9890774199
20
6.4608568238
7
STANDARD
40
0.1562500000
1
[
41
0.8000000000
72
0
100
AcDbText
0
TEXT
5
5B1
100
AcDbEntity
8
0
100
AcDbText
62
2
6
CONTINUOUS
10
8.4890774199
20
6.4608568238
7
STANDARD
40
0.1562500000
1
]
41
0.8000000000
72
0
100
AcDbText
0
LINE
5
5B2
100
AcDbEntity
8
0
100
AcDbLine
62
2
6
CONTINUOUS
10
8.9190774199
20
8.8027605853
11
8.1765774199
21
8.8027605853
0
LINE
5
5B3
100
AcDbEntity
8
0
100
AcDbLine
62
2
6
CONTINUOUS
10
8.7990774199
20
4.1570912940
11
8.1765774199
21
4.1570912940
0
LINE
5
5B4
100
AcDbEntity
8
0
100
AcDbLine
62
2
6
CONTINUOUS
10
8.3015774199
20
8.8027605853
11
8.3015774199
21
6.9296068238
0
LINE
5
5B5
100
AcDbEntity
8
0
100
AcDbLine
62
2
6
CONTINUOUS
10
8.3015774199
20
4.1570912940
11
8.3015774199
21
6.3827318238
0
INSERT
5
5B6
100
AcDbEntity
8
0
100
AcDbBlockReference
62
2
6
CONTINUOUS
2
_CLOSED
10
8.3015774199
20
8.8027605853
41
  0.187500
42
  0.187500
43
  0.187500
50
 90.000000
0
INSERT
5
5B7
100
AcDbEntity
8
0
100
AcDbBlockReference
62
2
6
CONTINUOUS
2
_CLOSED
10
8.3015774199
20
4.1570912940
41
  0.187500
42
  0.187500
43
  0.187500
50
270.000000
0
ENDBLK
5
5B8
100
AcDbEntity
8
0
6
BYBLOCK
62
0
100
AcDbBlockEnd
0
BLOCK
5
5B9
100
AcDbEntity
8
0
100
AcDbBlockBegin
62
2
6
CONTINUOUS
2
*D3
70
65
10
0.0000000000
20
0.0000000000
3
*D3
1

0
TEXT
5
5BA
100
AcDbEntity
8
0
100
AcDbText
62
2
6
CONTINUOUS
10
8.5515774199
20
3.3974523984
7
STANDARD
40
0.1562500000
1
.44
41
0.8000000000
72
0
100
AcDbText
0
TEXT
5
5BB
100
AcDbEntity
8
0
100
AcDbText
62
2
6
CONTINUOUS
10
8.6765774199
20
3.1630773984
7
STANDARD
40
0.1562500000
1
11,3
41
0.8000000000
72
0
100
AcDbText
0
TEXT
5
5BC
100
AcDbEntity
8
0
100
AcDbText
62
2
6
CONTINUOUS
10
8.5515774199
20
3.1630773984
7
STANDARD
40
0.1562500000
1
[
41
0.8000000000
72
0
100
AcDbText
0
TEXT
5
5BD
100
AcDbEntity
8
0
100
AcDbText
62
2
6
CONTINUOUS
10
9.1765774199
20
3.1630773984
7
STANDARD
40
0.1562500000
1
]
41
0.8000000000
72
0
100
AcDbText
0
LINE
5
5BE
100
AcDbEntity
8
0
100
AcDbLine
62
2
6
CONTINUOUS
10
8.7990774199
20
4.1570912940
11
8.1765774199
21
4.1570912940
0
LINE
5
5BF
100
AcDbEntity
8
0
100
AcDbLine
62
2
6
CONTINUOUS
10
10.6062270228
20
3.7124613729
11
8.1765774199
21
3.7124613729
0
LINE
5
5C0
100
AcDbEntity
8
0
100
AcDbLine
62
2
6
CONTINUOUS
10
8.3015774199
20
4.1570912940
11
8.3015774199
21
3.9347763334
0
LINE
5
5C1
100
AcDbEntity
8
0
100
AcDbLine
62
2
6
CONTINUOUS
10
8.3015774199
20
3.7124613729
11
8.3015774199
21
3.9347763334
0
LINE
5
5C2
100
AcDbEntity
8
0
100
AcDbLine
62
2
6
CONTINUOUS
10
8.3015774199
20
3.9347763334
11
8.3015774199
21
3.4755773984
0
LINE
5
5C3
100
AcDbEntity
8
0
100
AcDbLine
62
2
6
CONTINUOUS
10
8.3015774199
20
3.4755773984
11
8.4734524199
21
3.4755773984
0
INSERT
5
5C4
100
AcDbEntity
8
0
100
AcDbBlockReference
62
2
6
CONTINUOUS
2
_CLOSED
10
8.3015774199
20
4.1570912940
41
  0.187500
42
  0.187500
43
  0.187500
50
 90.000000
0
INSERT
5
5C5
100
AcDbEntity
8
0
100
AcDbBlockReference
62
2
6
CONTINUOUS
2
_CLOSED
10
8.3015774199
20
3.7124613729
41
  0.187500
42
  0.187500
43
  0.187500
50
270.000000
0
ENDBLK
5
5C6
100
AcDbEntity
8
0
6
BYBLOCK
62
0
100
AcDbBlockEnd
0
BLOCK
5
5C7
100
AcDbEntity
8
0
100
AcDbBlockBegin
62
2
6
CONTINUOUS
2
*D4
70
65
10
0.0000000000
20
0.0000000000
3
*D4
1

0
TEXT
5
5C8
100
AcDbEntity
8
0
100
AcDbText
62
2
6
CONTINUOUS
10
6.9122438468
20
9.4905074147
7
STANDARD
40
0.1562500000
1
.44
41
0.8000000000
72
0
100
AcDbText
0
TEXT
5
5C9
100
AcDbEntity
8
0
100
AcDbText
62
2
6
CONTINUOUS
10
7.0372438468
20
9.2561324147
7
STANDARD
40
0.1562500000
1
11,2
41
0.8000000000
72
0
100
AcDbText
0
TEXT
5
5CA
100
AcDbEntity
8
0
100
AcDbText
62
2
6
CONTINUOUS
10
6.9122438468
20
9.2561324147
7
STANDARD
40
0.1562500000
1
[
41
0.8000000000
72
0
100
AcDbText
0
TEXT
5
5CB
100
AcDbEntity
8
0
100
AcDbText
62
2
6
CONTINUOUS
10
7.5372438468
20
9.2561324147
7
STANDARD
40
0.1562500000
1
]
41
0.8000000000
72
0
100
AcDbText
0
LINE
5
5CC
100
AcDbEntity
8
0
100
AcDbLine
62
2
6
CONTINUOUS
10
6.7618800517
20
8.5128132358
11
6.7618800517
21
9.6936324147
0
LINE
5
5CD
100
AcDbEntity
8
0
100
AcDbLine
62
2
6
CONTINUOUS
10
6.3225887131
20
8.6852605853
11
6.3225887131
21
9.6936324147
0
LINE
5
5CE
100
AcDbEntity
8
0
100
AcDbLine
62
2
6
CONTINUOUS
10
6.7618800517
20
9.5686324147
11
6.5422343824
21
9.5686324147
0
LINE
5
5CF
100
AcDbEntity
8
0
100
AcDbLine
62
2
6
CONTINUOUS
10
6.5422343824
20
9.5686324147
11
6.8341188468
21
9.5686324147
0
LINE
5
5D0
100
AcDbEntity
8
0
100
AcDbLine
62
2
6
CONTINUOUS
10
6.3225887131
20
9.5686324147
11
6.5422343824
21
9.5686324147
0
INSERT
5
5D1
100
AcDbEntity
8
0
100
AcDbBlockReference
62
2
6
CONTINUOUS
2
_CLOSED
10
6.7618800517
20
9.5686324147
41
  0.187500
42
  0.187500
43
  0.187500
0
INSERT
5
5D2
100
AcDbEntity
8
0
100
AcDbBlockReference
62
2
6
CONTINUOUS
2
_CLOSED
10
6.3225887131
20
9.5686324147
41
  0.187500
42
  0.187500
43
  0.187500
50
180.000000
0
ENDBLK
5
5D3
100
AcDbEntity
8
0
6
BYBLOCK
62
0
100
AcDbBlockEnd
0
BLOCK
5
5D4
100
AcDbEntity
8
0
100
AcDbBlockBegin
62
2
6
CONTINUOUS
2
*D5
70
65
10
0.0000000000
20
0.0000000000
3
*D5
1

0
TEXT
5
5D5
100
AcDbEntity
8
0
100
AcDbText
62
2
6
CONTINUOUS
10
13.4876502011
20
6.8024725622
7
STANDARD
40
0.1562500000
1
5.18
41
0.8000000000
72
0
100
AcDbText
0
TEXT
5
5D6
100
AcDbEntity
8
0
100
AcDbText
62
2
6
CONTINUOUS
10
13.6126502011
20
6.5680975622
7
STANDARD
40
0.1562500000
1
131,5
41
0.8000000000
72
0
100
AcDbText
0
TEXT
5
5D7
100
AcDbEntity
8
0
100
AcDbText
62
2
6
CONTINUOUS
10
13.4876502011
20
6.5680975622
7
STANDARD
40
0.1562500000
1
[
41
0.8000000000
72
0
100
AcDbText
0
TEXT
5
5D8
100
AcDbEntity
8
0
100
AcDbText
62
2
6
CONTINUOUS
10
14.2376502011
20
6.5680975622
7
STANDARD
40
0.1562500000
1
]
41
0.8000000000
72
0
100
AcDbText
0
LINE
5
5D9
100
AcDbEntity
8
0
100
AcDbLine
62
2
6
CONTINUOUS
10
12.9900616719
20
9.0686324147
11
14.0501502011
21
9.0686324147
0
LINE
5
5DA
100
AcDbEntity
8
0
100
AcDbLine
62
2
6
CONTINUOUS
10
12.9900616719
20
3.8912194652
11
14.0501502011
21
3.8912194652
0
LINE
5
5DB
100
AcDbEntity
8
0
100
AcDbLine
62
2
6
CONTINUOUS
10
13.9251502011
20
9.0686324147
11
13.9251502011
21
7.0368475622
0
LINE
5
5DC
100
AcDbEntity
8
0
100
AcDbLine
62
2
6
CONTINUOUS
10
13.9251502011
20
3.8912194652
11
13.9251502011
21
6.4899725622
0
INSERT
5
5DD
100
AcDbEntity
8
0
100
AcDbBlockReference
62
2
6
CONTINUOUS
2
_CLOSED
10
13.9251502011
20
9.0686324147
41
  0.187500
42
  0.187500
43
  0.187500
50
 90.000000
0
INSERT
5
5DE
100
AcDbEntity
8
0
100
AcDbBlockReference
62
2
6
CONTINUOUS
2
_CLOSED
10
13.9251502011
20
3.8912194652
41
  0.187500
42
  0.187500
43
  0.187500
50
270.000000
0
ENDBLK
5
5DF
100
AcDbEntity
8
0
6
BYBLOCK
62
0
100
AcDbBlockEnd
0
BLOCK
5
5E0
100
AcDbEntity
8
0
100
AcDbBlockBegin
2
_CLOSED
70
64
10
0.0000000000
20
0.0000000000
3
_CLOSED
1

0
LINE
5
5E1
100
AcDbEntity
8
0
6
BYBLOCK
62
0
100
AcDbLine
10
0.0000000000
20
0.0000000000
11
-1.0000000000
21
0.1666666667
0
LINE
5
5E2
100
AcDbEntity
8
0
6
BYBLOCK
62
0
100
AcDbLine
10
-1.0000000000
20
0.1666666667
11
-1.0000000000
21
-0.1666666667
0
LINE
5
5E3
100
AcDbEntity
8
0
6
BYBLOCK
62
0
100
AcDbLine
10
-1.0000000000
20
-0.1666666667
11
0.0000000000
21
0.0000000000
0
LINE
5
5E4
100
AcDbEntity
8
0
6
BYBLOCK
62
0
100
AcDbLine
10
-1.0000000000
20
0.0000000000
11
0.0000000000
21
0.0000000000
0
ENDBLK
5
5E5
100
AcDbEntity
8
0
6
BYBLOCK
62
0
100
AcDbBlockEnd
0
ENDSEC
0
SECTION
2
ENTITIES
0
TEXT
5
5E6
100
AcDbEntity
8
0
100
AcDbText
62
2
6
CONTINUOUS
10
0.0920000000
20
9.8951250000
7
TEXTSTYLE_1
40
0.1560000000
1
A
41
1.0000000000
72
1
11
0.1700000000
21
9.8951250000
100
AcDbText
0
TEXT
5
5E7
100
AcDbEntity
8
0
100
AcDbText
62
2
6
CONTINUOUS
10
0.0985000000
20
8.5351250000
7
TEXTSTYLE_1
40
0.1560000000
1
B
41
0.9166666667
72
1
11
0.1700000000
21
8.5351250000
100
AcDbText
0
TEXT
5
5E8
100
AcDbEntity
8
0
100
AcDbText
62
2
6
CONTINUOUS
10
0.0920000000
20
7.3451250000
7
TEXTSTYLE_1
40
0.1560000000
1
C
41
1.0000000000
72
1
11
0.1700000000
21
7.3451250000
100
AcDbText
0
TEXT
5
5E9
100
AcDbEntity
8
0
100
AcDbText
62
2
6
CONTINUOUS
10
0.0920000000
20
6.0701250000
7
TEXTSTYLE_1
40
0.1560000000
1
D
41
1.0000000000
72
1
11
0.1700000000
21
6.0701250000
100
AcDbText
0
TEXT
5
5EA
100
AcDbEntity
8
0
100
AcDbText
62
2
6
CONTINUOUS
10
0.0985000000
20
4.7951250000
7
TEXTSTYLE_1
40
0.1560000000
1
E
41
0.9166666667
72
1
11
0.1700000000
21
4.7951250000
100
AcDbText
0
TEXT
5
5EB
100
AcDbEntity
8
0
100
AcDbText
62
2
6
CONTINUOUS
10
0.0985000000
20
3.5201250000
7
TEXTSTYLE_1
40
0.1560000000
1
F
41
0.9166666667
72
1
11
0.1700000000
21
3.5201250000
100
AcDbText
0
TEXT
5
5EC
100
AcDbEntity
8
0
100
AcDbText
62
2
6
CONTINUOUS
10
0.0920000000
20
2.2451250000
7
TEXTSTYLE_1
40
0.1560000000
1
G
41
1.0000000000
72
1
11
0.1700000000
21
2.2451250000
100
AcDbText
0
TEXT
5
5ED
100
AcDbEntity
8
0
100
AcDbText
62
2
6
CONTINUOUS
10
0.0920000000
20
0.8851250000
7
TEXTSTYLE_1
40
0.1560000000
1
H
41
1.0000000000
72
1
11
0.1700000000
21
0.8851250000
100
AcDbText
0
TEXT
5
5EE
100
AcDbEntity
8
0
100
AcDbText
62
2
6
CONTINUOUS
10
1.3275000000
20
10.7451250000
7
TEXTSTYLE_1
40
0.1560000000
1
1
41
0.4166666667
72
1
11
1.3600000000
21
10.7451250000
100
AcDbText
0
TEXT
5
5EF
100
AcDbEntity
8
0
100
AcDbText
62
2
6
CONTINUOUS
10
3.4135000000
20
10.7451250000
7
TEXTSTYLE_1
40
0.1560000000
1
2
41
0.9166666667
72
1
11
3.4850000000
21
10.7451250000
100
AcDbText
0
TEXT
5
5F0
100
AcDbEntity
8
0
100
AcDbText
62
2
6
CONTINUOUS
10
5.3685000000
20
10.7451250000
7
TEXTSTYLE_1
40
0.1560000000
1
3
41
0.9166666667
72
1
11
5.4400000000
21
10.7451250000
100
AcDbText
0
TEXT
5
5F1
100
AcDbEntity
8
0
100
AcDbText
62
2
6
CONTINUOUS
10
7.4020000000
20
10.7451250000
7
TEXTSTYLE_1
40
0.1560000000
1
4
41
1.0000000000
72
1
11
7.4800000000
21
10.7451250000
100
AcDbText
0
TEXT
5
5F2
100
AcDbEntity
8
0
100
AcDbText
62
2
6
CONTINUOUS
10
9.3778000000
20
10.7451250000
7
TEXTSTYLE_1
40
0.1560000000
1
5
41
0.7333333333
72
1
11
9.4350000000
21
10.7451250000
100
AcDbText
0
TEXT
5
5F3
100
AcDbEntity
8
0
100
AcDbText
62
2
6
CONTINUOUS
10
11.4178000000
20
10.7451250000
7
TEXTSTYLE_1
40
0.1560000000
1
6
41
0.7333333333
72
1
11
11.4750000000
21
10.7451250000
100
AcDbText
0
TEXT
5
5F4
100
AcDbEntity
8
0
100
AcDbText
62
2
6
CONTINUOUS
10
13.4578000000
20
10.7451250000
7
TEXTSTYLE_1
40
0.1560000000
1
7
41
0.7333333333
72
1
11
13.5150000000
21
10.7451250000
100
AcDbText
0
TEXT
5
5F5
100
AcDbEntity
8
0
100
AcDbText
62
2
6
CONTINUOUS
10
15.4978000000
20
10.7451250000
7
TEXTSTYLE_1
40
0.1560000000
1
8
41
0.7333333333
72
1
11
15.5550000000
21
10.7451250000
100
AcDbText
0
INSERT
5
5F6
100
AcDbEntity
8
0
100
AcDbBlockReference
62
2
6
CONTINUOUS
2
RA_LOGO_BL0
10
11.3182009361
20
1.7343886760
0
DIMENSION
5
5F7
100
AcDbEntity
8
0
100
AcDbDimension
62
2
6
CONTINUOUS
2
*D0
10
6.3225887131
20
9.5686324147
11
5.7229518488
21
9.4514449147
70
160
3
DIMSTYLE_1
100
AcDbAlignedDimension
13
4.9625887131
23
8.6852605853
14
6.3225887131
24
8.6852605853
100
AcDbRotatedDimension
0
DIMENSION
5
5F8
100
AcDbEntity
8
0
100
AcDbDimension
62
2
6
CONTINUOUS
2
*D1
10
12.9275616719
20
9.5686324147
11
10.9945836861
21
9.4514449147
70
160
3
DIMSTYLE_1
100
AcDbAlignedDimension
13
8.8015774199
23
8.6852605853
14
12.9275616719
24
9.0522684593
100
AcDbRotatedDimension
0
DIMENSION
5
5F9
100
AcDbEntity
8
0
100
AcDbDimension
62
2
6
CONTINUOUS
2
*D2
10
8.3015774199
20
4.1570912940
11
8.3015774199
21
6.6561693238
70
160
3
DIMSTYLE_1
100
AcDbAlignedDimension
13
8.9190774199
23
8.8027605853
14
8.7990774199
24
4.1570912940
50
270.000000
100
AcDbRotatedDimension
0
DIMENSION
5
5FA
100
AcDbEntity
8
0
100
AcDbDimension
62
2
6
CONTINUOUS
2
*D3
10
8.3015774199
20
3.7124613729
11
8.9265774199
21
3.3583898984
70
160
3
DIMSTYLE_1
100
AcDbAlignedDimension
13
8.7990774199
23
4.1570912940
14
10.6062270228
24
3.7124613729
50
270.000000
100
AcDbRotatedDimension
0
DIMENSION
5
5FB
100
AcDbEntity
8
0
100
AcDbDimension
62
2
6
CONTINUOUS
2
*D4
10
6.3225887131
20
9.5686324147
11
7.2872438468
21
9.4514449147
70
160
3
DIMSTYLE_1
100
AcDbAlignedDimension
13
6.7618800517
23
8.5128132358
14
6.3225887131
24
8.6852605853
50
180.000000
100
AcDbRotatedDimension
0
DIMENSION
5
5FC
100
AcDbEntity
8
0
100
AcDbDimension
62
2
6
CONTINUOUS
2
*D5
10
13.9251502011
20
3.8912194652
11
13.9251502011
21
6.7634100622
70
160
3
DIMSTYLE_1
100
AcDbAlignedDimension
13
12.9900616719
23
9.0686324147
14
12.9900616719
24
3.8912194652
50
270.000000
100
AcDbRotatedDimension
0
LINE
5
5FD
100
AcDbEntity
8
0
100
AcDbLine
62
2
6
CONTINUOUS
10
16.6249993029
20
0.3749996280
11
8.9449993029
21
0.3749996280
0
LINE
5
5FE
100
AcDbEntity
8
0
100
AcDbLine
62
2
6
CONTINUOUS
10
16.6249993029
20
0.3749996280
11
16.6249993029
21
2.1869996280
0
LINE
5
5FF
100
AcDbEntity
8
0
100
AcDbLine
62
2
6
CONTINUOUS
10
13.5529993029
20
0.6014996280
11
8.9449993029
21
0.6014996280
0
LINE
5
600
100
AcDbEntity
8
0
100
AcDbLine
62
2
6
CONTINUOUS
10
16.6249993029
20
1.0544996280
11
13.5529993029
21
1.0544996280
0
LINE
5
601
100
AcDbEntity
8
0
100
AcDbLine
62
2
6
CONTINUOUS
10
16.6249993029
20
1.2809996280
11
8.9449993029
21
1.2809996280
0
LINE
5
602
100
AcDbEntity
8
0
100
AcDbLine
62
2
6
CONTINUOUS
10
16.6249993029
20
2.1869996280
11
8.9449993029
21
2.1869996280
0
LINE
5
603
100
AcDbEntity
8
0
100
AcDbLine
62
2
6
CONTINUOUS
10
16.2409993029
20
0.3749996280
11
16.2409993029
21
1.0544996280
0
LINE
5
604
100
AcDbEntity
8
0
100
AcDbLine
62
2
6
CONTINUOUS
10
13.9369993029
20
0.3749996280
11
13.9369993029
21
1.0544996280
0
LINE
5
605
100
AcDbEntity
8
0
100
AcDbLine
62
2
6
CONTINUOUS
10
13.5529993029
20
0.3749996280
11
13.5529993029
21
2.1869996280
0
LINE
5
606
100
AcDbEntity
8
0
100
AcDbLine
62
2
6
CONTINUOUS
10
11.2489993029
20
0.3749996280
11
11.2489993029
21
0.6014996280
0
LINE
5
607
100
AcDbEntity
8
0
100
AcDbLine
62
2
6
CONTINUOUS
10
8.9449993029
20
0.3749996280
11
8.9449993029
21
2.1869996280
0
MTEXT
5
608
100
AcDbEntity
8
0
100
AcDbMText
62
2
6
CONTINUOUS
7
TEXTSTYLE_2
71
2
72
1
10
16.4329993029
20
0.9944996280
30
0.0000000000
11
1.0000000000
21
0.0000000000
31
0.0000000000
1
Ver\P 
40
0.1200000000
41
0.1950000000
0
TEXT
5
609
100
AcDbEntity
8
0
100
AcDbText
62
2
6
CONTINUOUS
10
15.0289993029
20
0.8444996280
7
TEXTSTYLE_1
40
0.1500000000
1
 
41
0.8000000000
72
1
11
15.0889993029
21
0.8444996280
100
AcDbText
0
MTEXT
5
60A
100
AcDbEntity
8
0
100
AcDbMText
62
2
6
CONTINUOUS
7
TEXTSTYLE_2
71
2
72
1
10
13.7449993029
20
0.9944996280
30
0.0000000000
11
1.0000000000
21
0.0000000000
31
0.0000000000
1
Size\P \P \PB
40
0.1500000000
41
0.2600000000
0
MTEXT
5
60B
100
AcDbEntity
8
0
100
AcDbMText
62
2
6
CONTINUOUS
7
STANDARD
71
1
72
1
10
11.2969993029
20
0.5414996280
30
0.0000000000
11
1.0000000000
21
0.0000000000
31
0.0000000000
1
Date: 04-05-10
40
0.1200000000
41
1.3440000000
0
MTEXT
5
60C
100
AcDbEntity
8
0
100
AcDbMText
62
2
6
CONTINUOUS
7
STANDARD
71
1
72
1
10
8.9929993029
20
0.5414996280
30
0.0000000000
11
1.0000000000
21
0.0000000000
31
0.0000000000
1
Drawn by: Soon Seng
40
0.1200000000
41
1.8240000000
0
TEXT
5
60D
100
AcDbEntity
8
0
100
AcDbText
62
2
6
CONTINUOUS
10
10.2627493029
20
1.0709996280
7
TEXTSTYLE_1
40
0.1500000000
1
1768-case Overall Size
41
0.5977272727
72
1
11
11.2489993029
21
1.0709996280
100
AcDbText
0
MTEXT
5
60E
100
AcDbEntity
8
0
100
AcDbMText
62
2
6
CONTINUOUS
7
STANDARD
71
2
72
1
10
15.0889993029
20
1.2209996280
30
0.0000000000
11
1.0000000000
21
0.0000000000
31
0.0000000000
1
Sheet 1 Of 1
40
0.1200000000
41
1.1520000000
0
MTEXT
5
60F
100
AcDbEntity
8
0
100
AcDbMText
62
2
6
CONTINUOUS
7
TEXTSTYLE_4
71
2
72
1
10
15.0889993029
20
2.1269996280
30
0.0000000000
11
1.0000000000
21
0.0000000000
31
0.0000000000
3
 \PCONFIDENTIAL AND PROPRIETARY INFORMATION.\PTHIS DOCUMENT CONTAINS CONFIDENTIAL AND PROPRIETARY \PINFORMATION OF ROCKWELL AUTOMATION, INC. AND MAY \PNOT BE USED, COPIED OR DISCLOSED TO OTHERS, EXCEPT \PWITH THE AUTHORIZED WRITTEN PERMISSION OF ROCKWELL 
1
\PAUTOMATION, INC.
40
0.0750000000
41
2.9250000000
0
TEXT
5
610
100
AcDbEntity
8
0
100
AcDbText
62
2
6
CONTINUOUS
10
11.1489993029
20
1.6089996280
7
STANDARD
40
0.2500000000
1
 
41
0.8000000000
72
1
11
11.2489993029
21
1.6089996280
100
AcDbText
0
MTEXT
5
611
100
AcDbEntity
8
0
100
AcDbMText
62
2
6
CONTINUOUS
7
STANDARD
71
1
72
1
10
2.3317886932
20
2.8445754171
30
0.0000000000
11
1.0000000000
21
0.0000000000
31
0.0000000000
1
Note:\P1) Dimensions in inches. [Dimensions in mm]
40
0.1562500000
41
5.3750000000
0
LINE
5
612
100
AcDbEntity
8
DEFAULT_2
100
AcDbLine
62
8
6
HIDDEN
10
0.0000000000
20
0.0000000000
11
0.0000000000
21
11.0000000000
0
LINE
5
613
100
AcDbEntity
8
0
100
AcDbLine
62
7
6
CONTINUOUS
10
0.3750000000
20
0.3750000000
11
0.3750000000
21
10.6250000000
0
LINE
5
614
100
AcDbEntity
8
0
100
AcDbLine
62
7
6
CONTINUOUS
10
2.5000000000
20
0.3750000000
11
2.5000000000
21
0.1000000000
0
LINE
5
615
100
AcDbEntity
8
0
100
AcDbLine
62
7
6
CONTINUOUS
10
2.5000000000
20
10.6250000000
11
2.5000000000
21
10.9000000000
0
LINE
5
616
100
AcDbEntity
8
DEFAULT_2
100
AcDbLine
62
8
6
HIDDEN
10
0.0000000000
20
0.0000000000
11
17.0000000000
21
0.0000000000
0
LINE
5
617
100
AcDbEntity
8
0
100
AcDbLine
62
7
6
CONTINUOUS
10
0.3750000000
20
0.3750000000
11
16.6250000000
21
0.3750000000
0
LINE
5
618
100
AcDbEntity
8
0
100
AcDbLine
62
7
6
CONTINUOUS
10
4.5000000000
20
0.3750000000
11
4.5000000000
21
0.1000000000
0
LINE
5
619
100
AcDbEntity
8
0
100
AcDbLine
62
7
6
CONTINUOUS
10
4.5000000000
20
10.6250000000
11
4.5000000000
21
10.9000000000
0
LINE
5
61A
100
AcDbEntity
8
0
100
AcDbLine
62
7
6
CONTINUOUS
10
16.9000000000
20
1.7500000000
11
16.6250000000
21
1.7500000000
0
LINE
5
61B
100
AcDbEntity
8
0
100
AcDbLine
62
7
6
CONTINUOUS
10
0.1000000000
20
1.7500000000
11
0.3750000000
21
1.7500000000
0
LINE
5
61C
100
AcDbEntity
8
0
100
AcDbLine
62
7
6
CONTINUOUS
10
16.9000000000
20
3.0000000000
11
16.6250000000
21
3.0000000000
0
LINE
5
61D
100
AcDbEntity
8
0
100
AcDbLine
62
7
6
CONTINUOUS
10
0.1000000000
20
3.0000000000
11
0.3750000000
21
3.0000000000
0
LINE
5
61E
100
AcDbEntity
8
0
100
AcDbLine
62
7
6
CONTINUOUS
10
6.5000000000
20
0.3750000000
11
6.5000000000
21
0.1000000000
0
LINE
5
61F
100
AcDbEntity
8
0
100
AcDbLine
62
7
6
CONTINUOUS
10
6.5000000000
20
10.6250000000
11
6.5000000000
21
10.9000000000
0
LINE
5
620
100
AcDbEntity
8
0
100
AcDbLine
62
7
6
CONTINUOUS
10
16.9000000000
20
4.2500000000
11
16.6250000000
21
4.2500000000
0
LINE
5
621
100
AcDbEntity
8
0
100
AcDbLine
62
7
6
CONTINUOUS
10
0.1000000000
20
4.2500000000
11
0.3750000000
21
4.2500000000
0
LINE
5
622
100
AcDbEntity
8
0
100
AcDbLine
62
7
6
CONTINUOUS
10
8.5000000000
20
11.0000000000
11
8.5000000000
21
10.6250000000
0
LINE
5
623
100
AcDbEntity
8
0
100
AcDbLine
62
7
6
CONTINUOUS
10
8.5000000000
20
0.0000000000
11
8.5000000000
21
0.3750000000
0
LINE
5
624
100
AcDbEntity
8
0
100
AcDbLine
62
7
6
CONTINUOUS
10
17.0000000000
20
5.5000000000
11
16.6250000000
21
5.5000000000
0
LINE
5
625
100
AcDbEntity
8
0
100
AcDbLine
62
7
6
CONTINUOUS
10
0.3750000000
20
5.5000000000
11
0.0000000000
21
5.5000000000
0
LINE
5
626
100
AcDbEntity
8
0
100
AcDbLine
62
7
6
CONTINUOUS
10
16.9000000000
20
6.7500000000
11
16.6250000000
21
6.7500000000
0
LINE
5
627
100
AcDbEntity
8
0
100
AcDbLine
62
7
6
CONTINUOUS
10
0.1000000000
20
6.7500000000
11
0.3750000000
21
6.7500000000
0
LINE
5
628
100
AcDbEntity
8
0
100
AcDbLine
62
7
6
CONTINUOUS
10
10.5000000000
20
0.3750000000
11
10.5000000000
21
0.1000000000
0
LINE
5
629
100
AcDbEntity
8
0
100
AcDbLine
62
7
6
CONTINUOUS
10
10.5000000000
20
10.6250000000
11
10.5000000000
21
10.9000000000
0
LINE
5
62A
100
AcDbEntity
8
0
100
AcDbLine
62
7
6
CONTINUOUS
10
16.9000000000
20
8.0000000000
11
16.6250000000
21
8.0000000000
0
LINE
5
62B
100
AcDbEntity
8
0
100
AcDbLine
62
7
6
CONTINUOUS
10
0.1000000000
20
8.0000000000
11
0.3750000000
21
8.0000000000
0
LINE
5
62C
100
AcDbEntity
8
0
100
AcDbLine
62
7
6
CONTINUOUS
10
12.5000000000
20
0.3750000000
11
12.5000000000
21
0.1000000000
0
LINE
5
62D
100
AcDbEntity
8
0
100
AcDbLine
62
7
6
CONTINUOUS
10
12.5000000000
20
10.6250000000
11
12.5000000000
21
10.9000000000
0
LINE
5
62E
100
AcDbEntity
8
0
100
AcDbLine
62
7
6
CONTINUOUS
10
16.9000000000
20
9.2500000000
11
16.6250000000
21
9.2500000000
0
LINE
5
62F
100
AcDbEntity
8
0
100
AcDbLine
62
7
6
CONTINUOUS
10
0.1000000000
20
9.2500000000
11
0.3750000000
21
9.2500000000
0
LINE
5
630
100
AcDbEntity
8
0
100
AcDbLine
62
7
6
CONTINUOUS
10
16.6250000000
20
10.6250000000
11
0.3750000000
21
10.6250000000
0
LINE
5
631
100
AcDbEntity
8
0
100
AcDbLine
62
7
6
CONTINUOUS
10
14.5000000000
20
0.3750000000
11
14.5000000000
21
0.1000000000
0
LINE
5
632
100
AcDbEntity
8
0
100
AcDbLine
62
7
6
CONTINUOUS
10
14.5000000000
20
10.6250000000
11
14.5000000000
21
10.9000000000
0
LINE
5
633
100
AcDbEntity
8
DEFAULT_2
100
AcDbLine
62
8
6
HIDDEN
10
0.0000000000
20
11.0000000000
11
17.0000000000
21
11.0000000000
0
LINE
5
634
100
AcDbEntity
8
0
100
AcDbLine
62
7
6
CONTINUOUS
10
16.6250000000
20
10.6250000000
11
16.6250000000
21
0.3750000000
0
LINE
5
635
100
AcDbEntity
8
DEFAULT_2
100
AcDbLine
62
8
6
HIDDEN
10
17.0000000000
20
0.0000000000
11
17.0000000000
21
11.0000000000
0
LINE
5
636
100
AcDbEntity
8
0
100
AcDbLine
62
7
6
CONTINUOUS
10
5.9666044611
20
3.7124613729
11
5.5984942249
21
3.7124613729
0
LINE
5
637
100
AcDbEntity
8
0
100
AcDbLine
62
7
6
CONTINUOUS
10
6.2626771933
20
3.8912194646
11
6.2299902879
21
3.8912194646
0
LINE
5
638
100
AcDbEntity
8
0
100
AcDbLine
62
7
6
CONTINUOUS
10
5.9937698155
20
3.8912194646
11
5.9666044611
21
3.8912194646
0
LINE
5
639
100
AcDbEntity
8
0
100
AcDbLine
62
7
6
CONTINUOUS
10
5.5984942249
20
3.8942208334
11
5.3996753273
21
3.8942208334
0
LINE
5
63A
100
AcDbEntity
8
0
100
AcDbLine
62
7
6
CONTINUOUS
10
6.2625887131
20
4.1570912940
11
5.0225887131
21
4.1570912940
0
LINE
5
63B
100
AcDbEntity
8
0
100
AcDbLine
62
7
6
CONTINUOUS
10
6.3123401245
20
4.1835532996
11
6.3412916871
21
4.1835532996
0
LINE
5
63C
100
AcDbEntity
8
0
100
AcDbLine
62
7
6
CONTINUOUS
10
4.9625887131
20
4.2170912940
11
6.3225887131
21
4.2170912940
0
LINE
5
63D
100
AcDbEntity
8
0
100
AcDbLine
62
7
6
CONTINUOUS
10
4.9425887131
20
4.6511731774
11
4.9625887131
21
4.6511731774
0
LINE
5
63E
100
AcDbEntity
8
0
100
AcDbLine
62
7
6
CONTINUOUS
10
4.9448438740
20
4.6307881911
11
4.5476635389
21
4.6759223201
0
LINE
5
63F
100
AcDbEntity
8
0
100
AcDbLine
62
7
6
CONTINUOUS
10
4.9425887131
20
4.6511731774
11
4.5499217326
21
4.6957944252
0
LINE
5
640
100
AcDbEntity
8
0
100
AcDbLine
62
7
6
CONTINUOUS
10
4.5299217326
20
4.6957944252
11
4.5499217326
21
4.6957944252
0
LINE
5
641
100
AcDbEntity
8
0
100
AcDbLine
62
7
6
CONTINUOUS
10
4.5499217326
20
4.8971283202
11
4.9425887131
21
4.9417495680
0
LINE
5
642
100
AcDbEntity
8
0
100
AcDbLine
62
7
6
CONTINUOUS
10
4.5476635389
20
4.9170004253
11
4.9448438808
21
4.9621345550
0
LINE
5
643
100
AcDbEntity
8
0
100
AcDbLine
62
7
6
CONTINUOUS
10
4.5499217326
20
4.8971283202
11
4.5299217328
21
4.8971283202
0
LINE
5
644
100
AcDbEntity
8
0
100
AcDbLine
62
7
6
CONTINUOUS
10
4.9625887131
20
4.9417495679
11
4.9425887131
21
4.9417495680
0
LINE
5
645
100
AcDbEntity
8
0
100
AcDbLine
62
7
6
CONTINUOUS
10
4.5499217326
20
8.0627235591
11
4.5476635389
21
8.0428514540
0
LINE
5
646
100
AcDbEntity
8
0
100
AcDbLine
62
7
6
CONTINUOUS
10
4.5476635389
20
4.9170004251
11
4.5499217326
21
4.8971283202
0
LINE
5
647
100
AcDbEntity
8
0
100
AcDbLine
62
7
6
CONTINUOUS
10
4.5299217326
20
8.2640574540
11
4.5299217326
21
8.0627235591
0
LINE
5
648
100
AcDbEntity
8
0
100
AcDbLine
62
7
6
CONTINUOUS
10
4.5299217326
20
4.8971283202
11
4.5299217326
21
4.6957944252
0
LINE
5
649
100
AcDbEntity
8
0
100
AcDbLine
62
7
6
CONTINUOUS
10
4.5499217326
20
8.2640574540
11
4.5499217326
21
8.0627235591
0
LINE
5
64A
100
AcDbEntity
8
0
100
AcDbLine
62
7
6
CONTINUOUS
10
4.5499217326
20
4.8971283202
11
4.5499217326
21
4.6957944252
0
LINE
5
64B
100
AcDbEntity
8
0
100
AcDbLine
62
7
6
CONTINUOUS
10
4.5499217326
20
4.6957944252
11
4.5476635389
21
4.6759223201
0
LINE
5
64C
100
AcDbEntity
8
0
100
AcDbLine
62
7
6
CONTINUOUS
10
4.5476635389
20
8.2839295590
11
4.5499217326
21
8.2640574540
0
LINE
5
64D
100
AcDbEntity
8
0
100
AcDbLine
62
7
6
CONTINUOUS
10
4.9425887131
20
4.6511731774
11
4.9425887131
21
4.9417495680
0
LINE
5
64E
100
AcDbEntity
8
0
100
AcDbLine
62
7
6
CONTINUOUS
10
4.9425887131
20
8.0181023113
11
4.9425887131
21
8.3086787018
0
LINE
5
64F
100
AcDbEntity
8
0
100
AcDbLine
62
7
6
CONTINUOUS
10
4.9625887131
20
4.2170912940
11
4.9625887131
21
8.7427605853
0
LINE
5
650
100
AcDbEntity
8
0
100
AcDbLine
62
7
6
CONTINUOUS
10
5.0225887131
20
4.1570912940
11
5.0225887131
21
8.8027605853
0
LINE
5
651
100
AcDbEntity
8
0
100
AcDbLine
62
7
6
CONTINUOUS
10
5.3017654966
20
3.9921306640
11
5.3017654966
21
4.1570912940
0
LINE
5
652
100
AcDbEntity
8
0
100
AcDbLine
62
7
6
CONTINUOUS
10
5.3017654966
20
8.8027605853
11
5.3017654966
21
8.9616188530
0
LINE
5
653
100
AcDbEntity
8
0
100
AcDbLine
62
7
6
CONTINUOUS
10
5.5984942249
20
4.1570912940
11
5.5984942249
21
3.7124613729
0
LINE
5
654
100
AcDbEntity
8
0
100
AcDbLine
62
7
6
CONTINUOUS
10
5.8113646855
20
9.0398443938
11
5.8113646855
21
8.8027605853
0
LINE
5
655
100
AcDbEntity
8
0
100
AcDbLine
62
7
6
CONTINUOUS
10
5.8412838129
20
8.8027605853
11
5.8412838129
21
8.9897684593
0
LINE
5
656
100
AcDbEntity
8
0
100
AcDbLine
62
7
6
CONTINUOUS
10
6.3225887131
20
6.4780425805
11
6.7618800517
21
6.4780425805
0
LINE
5
657
100
AcDbEntity
8
0
100
AcDbLine
62
7
6
CONTINUOUS
10
5.9666044611
20
4.1570912940
11
5.9666044611
21
3.7124613729
0
LINE
5
658
100
AcDbEntity
8
0
100
AcDbLine
62
7
6
CONTINUOUS
10
5.9937698155
20
4.0665401129
11
5.9937698155
21
3.8912194646
0
LINE
5
659
100
AcDbEntity
8
0
100
AcDbLine
62
7
6
CONTINUOUS
10
6.2299902879
20
3.8912194646
11
6.2299902879
21
4.0665401129
0
LINE
5
65A
100
AcDbEntity
8
0
100
AcDbLine
62
7
6
CONTINUOUS
10
6.3412916871
20
4.1835532996
11
6.3415314081
21
3.9700741664
0
LINE
5
65B
100
AcDbEntity
8
0
100
AcDbLine
62
7
6
CONTINUOUS
10
6.2625887131
20
4.1570912940
11
6.2625887131
21
8.8027605853
0
LINE
5
65C
100
AcDbEntity
8
0
100
AcDbLine
62
7
6
CONTINUOUS
10
6.3225887131
20
4.2170912940
11
6.3225887131
21
8.7427605853
0
LINE
5
65D
100
AcDbEntity
8
0
100
AcDbLine
62
7
6
CONTINUOUS
10
6.3415314087
20
8.9897684593
11
6.3415314087
21
8.6814680437
0
LINE
5
65E
100
AcDbEntity
8
0
100
AcDbLine
62
7
6
CONTINUOUS
10
6.7618800517
20
8.4503132358
11
6.7618800517
21
6.4780425805
0
LINE
5
65F
100
AcDbEntity
8
0
100
AcDbLine
62
7
6
CONTINUOUS
10
4.9448438740
20
7.9977173250
11
4.5476635389
21
8.0428514540
0
LINE
5
660
100
AcDbEntity
8
0
100
AcDbLine
62
7
6
CONTINUOUS
10
4.9425887131
20
8.0181023113
11
4.5499217326
21
8.0627235591
0
LINE
5
661
100
AcDbEntity
8
0
100
AcDbLine
62
7
6
CONTINUOUS
10
4.9425887131
20
8.0181023113
11
4.9625887131
21
8.0181023113
0
LINE
5
662
100
AcDbEntity
8
0
100
AcDbLine
62
7
6
CONTINUOUS
10
4.5299217326
20
8.0627235591
11
4.5499217326
21
8.0627235591
0
LINE
5
663
100
AcDbEntity
8
0
100
AcDbLine
62
7
6
CONTINUOUS
10
4.5499217326
20
8.2640574540
11
4.5299217328
21
8.2640574540
0
LINE
5
664
100
AcDbEntity
8
0
100
AcDbLine
62
7
6
CONTINUOUS
10
4.9625887131
20
8.3086787018
11
4.9425887131
21
8.3086787018
0
LINE
5
665
100
AcDbEntity
8
0
100
AcDbLine
62
7
6
CONTINUOUS
10
4.5499217326
20
8.2640574540
11
4.9425887131
21
8.3086787018
0
LINE
5
666
100
AcDbEntity
8
0
100
AcDbLine
62
7
6
CONTINUOUS
10
4.5476635389
20
8.2839295591
11
4.9448438808
21
8.3290636889
0
LINE
5
667
100
AcDbEntity
8
0
100
AcDbLine
62
7
6
CONTINUOUS
10
6.3225887131
20
8.4503132358
11
6.7618800517
21
8.4503132358
0
LINE
5
668
100
AcDbEntity
8
0
100
AcDbLine
62
7
6
CONTINUOUS
10
6.3225887131
20
8.6227605853
11
4.9625887131
21
8.6227605853
0
LINE
5
669
100
AcDbEntity
8
0
100
AcDbLine
62
7
6
CONTINUOUS
10
6.3415314087
20
8.6814680437
11
6.3225887131
21
8.6814680437
0
LINE
5
66A
100
AcDbEntity
8
0
100
AcDbLine
62
7
6
CONTINUOUS
10
6.2625887131
20
8.8027605853
11
5.0225887131
21
8.8027605853
0
LINE
5
66B
100
AcDbEntity
8
0
100
AcDbLine
62
7
6
CONTINUOUS
10
6.1374706029
20
8.9858314514
11
6.0862895005
21
8.9858314514
0
LINE
5
66C
100
AcDbEntity
8
0
100
AcDbLine
62
7
6
CONTINUOUS
10
5.3996753273
20
9.0595286837
11
5.7916803957
21
9.0595286837
0
LINE
5
66D
100
AcDbEntity
8
0
100
AcDbLine
62
7
6
CONTINUOUS
10
5.9201477682
20
9.0686324147
11
6.2626674533
21
9.0686324147
0
LINE
5
66E
100
AcDbEntity
8
0
100
AcDbLine
62
7
6
CONTINUOUS
10
10.8527860777
20
3.7124613729
11
10.4846679679
21
3.7124613729
0
LINE
5
66F
100
AcDbEntity
8
0
100
AcDbLine
62
7
6
CONTINUOUS
10
12.9275616719
20
3.8912194646
11
12.7440971049
21
3.8912194646
0
LINE
5
670
100
AcDbEntity
8
0
100
AcDbLine
62
7
6
CONTINUOUS
10
12.9275616719
20
3.9700741664
11
12.7440971049
21
3.9700741664
0
LINE
5
671
100
AcDbEntity
8
0
100
AcDbLine
62
7
6
CONTINUOUS
10
8.8615774199
20
4.1570912940
11
12.7440971049
21
4.1570912940
0
LINE
5
672
100
AcDbEntity
8
0
100
AcDbLine
62
7
6
CONTINUOUS
10
8.8015774199
20
8.6227605853
11
8.8015774199
21
4.2170912940
0
LINE
5
673
100
AcDbEntity
8
0
100
AcDbLine
62
7
6
CONTINUOUS
10
8.8615774199
20
8.6227605853
11
8.8615774199
21
4.1570912940
0
LINE
5
674
100
AcDbEntity
8
0
100
AcDbLine
62
7
6
CONTINUOUS
10
12.9275616719
20
4.1835532996
11
12.7440971049
21
4.1835532996
0
LINE
5
675
100
AcDbEntity
8
0
100
AcDbLine
62
7
6
CONTINUOUS
10
8.8015774199
20
4.2170912940
11
12.9275616719
21
4.2170912940
0
LINE
5
676
100
AcDbEntity
8
0
100
AcDbLine
62
7
6
CONTINUOUS
10
8.9815774199
20
8.8027605853
11
8.9815774199
21
8.7427605853
0
LINE
5
677
100
AcDbEntity
8
0
100
AcDbLine
62
7
6
CONTINUOUS
10
12.8860141814
20
5.7737932811
11
12.7464593097
21
5.7811070420
0
LINE
5
678
100
AcDbEntity
8
0
100
AcDbLine
62
7
6
CONTINUOUS
10
10.4846719047
20
4.1570912940
11
10.4846719047
21
3.7124613729
0
LINE
5
679
100
AcDbEntity
8
0
100
AcDbLine
62
7
6
CONTINUOUS
10
10.8527821409
20
4.1570912940
11
10.8527821409
21
3.7124613729
0
LINE
5
67A
100
AcDbEntity
8
0
100
AcDbLine
62
7
6
CONTINUOUS
10
12.0956719081
20
6.4780425805
11
12.5790513302
21
6.4780425805
0
LINE
5
67B
100
AcDbEntity
8
0
100
AcDbLine
62
7
6
CONTINUOUS
10
12.1756719081
20
6.5580425805
11
12.4990513302
21
6.5580425805
0
LINE
5
67C
100
AcDbEntity
8
0
100
AcDbLine
62
7
6
CONTINUOUS
10
12.7464593097
20
7.1787448373
11
12.8860141814
21
7.1860585982
0
LINE
5
67D
100
AcDbEntity
8
0
100
AcDbLine
62
7
6
CONTINUOUS
10
12.8860141814
20
7.1860585982
11
12.9275616719
21
7.2276060886
0
LINE
5
67E
100
AcDbEntity
8
0
100
AcDbLine
62
7
6
CONTINUOUS
10
12.9275616719
20
5.7322457906
11
12.8860141814
21
5.7737932811
0
LINE
5
67F
100
AcDbEntity
8
0
100
AcDbLine
62
7
6
CONTINUOUS
10
12.0956719081
20
8.4503132358
11
12.0956719081
21
6.4780425805
0
LINE
5
680
100
AcDbEntity
8
0
100
AcDbLine
62
7
6
CONTINUOUS
10
12.1756719081
20
8.3703132358
11
12.1756719081
21
6.5580425805
0
LINE
5
681
100
AcDbEntity
8
0
100
AcDbLine
62
7
6
CONTINUOUS
10
12.4990513302
20
6.5580425805
11
12.4990513302
21
8.3703132358
0
LINE
5
682
100
AcDbEntity
8
0
100
AcDbLine
62
7
6
CONTINUOUS
10
12.5790513302
20
6.4780425805
11
12.5790513302
21
8.4503132358
0
LINE
5
683
100
AcDbEntity
8
0
100
AcDbLine
62
7
6
CONTINUOUS
10
12.7440971049
20
9.0686324147
11
12.7440971049
21
8.6814680437
0
LINE
5
684
100
AcDbEntity
8
0
100
AcDbLine
62
7
6
CONTINUOUS
10
12.7440971049
20
4.1835532996
11
12.7440971049
21
3.8912194646
0
LINE
5
685
100
AcDbEntity
8
0
100
AcDbLine
62
7
6
CONTINUOUS
10
12.7464593097
20
5.7811070420
11
12.7464593097
21
7.1787448373
0
LINE
5
686
100
AcDbEntity
8
0
100
AcDbLine
62
7
6
CONTINUOUS
10
12.4990513302
20
8.3703132358
11
12.1756719081
21
8.3703132358
0
LINE
5
687
100
AcDbEntity
8
0
100
AcDbLine
62
7
6
CONTINUOUS
10
12.9275616719
20
3.8912194646
11
12.9275616719
21
5.7322457906
0
LINE
5
688
100
AcDbEntity
8
0
100
AcDbLine
62
7
6
CONTINUOUS
10
12.9275616719
20
7.2276060886
11
12.9275616719
21
9.0686324147
0
LINE
5
689
100
AcDbEntity
8
0
100
AcDbLine
62
7
6
CONTINUOUS
10
12.5790513302
20
8.4503132358
11
12.0956719081
21
8.4503132358
0
LINE
5
68A
100
AcDbEntity
8
0
100
AcDbLine
62
7
6
CONTINUOUS
10
8.8615774199
20
8.6227605853
11
8.8015774199
21
8.6227605853
0
LINE
5
68B
100
AcDbEntity
8
0
100
AcDbLine
62
7
6
CONTINUOUS
10
12.9275616719
20
8.6814680437
11
12.7440971049
21
8.6814680437
0
LINE
5
68C
100
AcDbEntity
8
0
100
AcDbLine
62
7
6
CONTINUOUS
10
12.7440971049
20
8.7427605853
11
8.9815774199
21
8.7427605853
0
LINE
5
68D
100
AcDbEntity
8
0
100
AcDbLine
62
7
6
CONTINUOUS
10
12.7440971049
20
8.8027605853
11
8.9815774199
21
8.8027605853
0
LINE
5
68E
100
AcDbEntity
8
0
100
AcDbLine
62
7
6
CONTINUOUS
10
12.9275616719
20
8.9897684593
11
12.7440971049
21
8.9897684593
0
LINE
5
68F
100
AcDbEntity
8
0
100
AcDbLine
62
7
6
CONTINUOUS
10
12.9275616719
20
9.0686324147
11
12.7440971049
21
9.0686324147
0
ARC
5
690
100
AcDbEntity
8
0
100
AcDbCircle
62
7
6
CONTINUOUS
10
4.5499217326
20
8.2640574540
40
0.0200000000
100
AcDbArc
50
96.5254405671
51
179.9576331258
0
ARC
5
691
100
AcDbEntity
8
0
100
AcDbCircle
62
7
6
CONTINUOUS
10
4.5499217326
20
4.8971283202
40
0.0200000000
100
AcDbArc
50
96.5254405671
51
179.9576331258
0
ARC
5
692
100
AcDbEntity
8
0
100
AcDbCircle
62
7
6
CONTINUOUS
10
5.3996753273
20
3.9921306640
40
0.0979098306
100
AcDbArc
50
180.0000000000
51
270.0000000000
0
ARC
5
693
100
AcDbEntity
8
0
100
AcDbCircle
62
7
6
CONTINUOUS
10
6.0843209966
20
4.0665401129
40
0.0905511811
100
AcDbArc
50
90.0000000000
51
180.0000000000
0
ARC
5
694
100
AcDbEntity
8
0
100
AcDbCircle
62
7
6
CONTINUOUS
10
6.1394391068
20
4.0665401129
40
0.0905511811
100
AcDbArc
50
0.0000000000
51
90.0000000000
0
ARC
5
695
100
AcDbEntity
8
0
100
AcDbCircle
62
7
6
CONTINUOUS
10
6.2626674533
20
3.9700834199
40
0.0788639554
100
AcDbArc
50
270.0070762730
51
359.9932771679
0
ARC
5
696
100
AcDbEntity
8
0
100
AcDbCircle
62
7
6
CONTINUOUS
10
5.3996753273
20
8.9616188530
40
0.0979098306
100
AcDbArc
50
90.0000000000
51
180.0000000000
0
ARC
5
697
100
AcDbEntity
8
0
100
AcDbCircle
62
7
6
CONTINUOUS
10
6.2626674533
20
8.9897684593
40
0.0788639554
100
AcDbArc
50
0.0000000000
51
90.0000000000
0
ARC
5
698
100
AcDbEntity
8
0
100
AcDbCircle
62
7
6
CONTINUOUS
10
5.9201477682
20
8.9897684593
40
0.0788639554
100
AcDbArc
50
90.0000000000
51
180.0000000000
0
ARC
5
699
100
AcDbEntity
8
0
100
AcDbCircle
62
7
6
CONTINUOUS
10
6.0862895005
20
8.8933117664
40
0.0925196850
100
AcDbArc
50
90.0000000000
51
258.1597261181
0
ARC
5
69A
100
AcDbEntity
8
0
100
AcDbCircle
62
7
6
CONTINUOUS
10
6.1374706029
20
8.8933117664
40
0.0925196850
100
AcDbArc
50
281.8402738819
51
90.0000000000
0
ARC
5
69B
100
AcDbEntity
8
0
100
AcDbCircle
62
7
6
CONTINUOUS
10
6.2625887131
20
8.7427605853
40
0.0600000000
100
AcDbArc
50
0.0000000000
51
90.0000000000
0
ARC
5
69C
100
AcDbEntity
8
0
100
AcDbCircle
62
7
6
CONTINUOUS
10
5.0225887131
20
8.7427605853
40
0.0600000000
100
AcDbArc
50
90.0000000000
51
180.0000000000
0
ARC
5
69D
100
AcDbEntity
8
0
100
AcDbCircle
62
7
6
CONTINUOUS
10
5.0225887131
20
4.2170912940
40
0.0600000000
100
AcDbArc
50
180.0000000000
51
270.0000000000
0
ARC
5
69E
100
AcDbEntity
8
0
100
AcDbCircle
62
7
6
CONTINUOUS
10
6.2625887131
20
4.2170912940
40
0.0600000000
100
AcDbArc
50
270.0000000000
51
360.0000000000
0
ARC
5
69F
100
AcDbEntity
8
0
100
AcDbCircle
62
7
6
CONTINUOUS
10
8.9815774199
20
8.6227605853
40
0.1800000000
100
AcDbArc
50
90.0000000000
51
180.0000000000
0
ARC
5
6A0
100
AcDbEntity
8
0
100
AcDbCircle
62
7
6
CONTINUOUS
10
8.8615774199
20
4.2170912940
40
0.0600000000
100
AcDbArc
50
180.0000000000
51
270.0000000000
0
ARC
5
6A1
100
AcDbEntity
8
0
100
AcDbCircle
62
7
6
CONTINUOUS
10
8.9815774199
20
8.6227605853
40
0.1200000000
100
AcDbArc
50
90.0000000000
51
180.0000000000
0
SPLINE
5
6A2
100
AcDbEntity
8
0
100
AcDbSpline
62
7
6
CONTINUOUS
70
0
71
3
72
12
73
8
74
6
42
0.0000001000
43
0.0000001000
44
0.0000000001
12
0.0307931107
22
0.0000000000
32
0.0000000000
13
0.0000000000
23
-0.0307931107
33
0.0000000000
40
0.0000000000
40
0.0000000000
40
0.0000000000
40
0.0000000000
40
0.1992028033
40
0.4000743864
40
0.5996334387
40
0.8009671934
40
1.0000000000
40
1.0000000000
40
1.0000000000
40
1.0000000000
10
5.7916803957
20
9.0595286837
30
0.0000000000
10
5.7937250870
20
9.0595286837
30
0.0000000000
10
5.7978601704
20
9.0588784111
30
0.0000000000
10
5.8034329783
20
9.0560408545
30
0.0000000000
10
5.8078748292
20
9.0516011096
30
0.0000000000
10
5.8107145490
20
9.0460253430
30
0.0000000000
10
5.8113646855
20
9.0418873402
30
0.0000000000
10
5.8113646855
20
9.0398443938
30
0.0000000000
11
5.7916803957
21
9.0595286837
31
0.0000000000
11
5.7977395610
21
9.0585729753
31
0.0000000000
11
5.8032524824
21
9.0557680467
31
0.0000000000
11
5.8075986903
21
9.0514238503
31
0.0000000000
11
5.8104106076
21
9.0458985169
31
0.0000000000
11
5.8113646855
21
9.0398443938
31
0.0000000000
0
SPLINE
5
6A3
100
AcDbEntity
8
0
100
AcDbSpline
62
7
6
CONTINUOUS
70
0
71
3
72
9
73
5
74
3
42
0.0000001000
43
0.0000001000
44
0.0000000001
12
-0.0106190370
22
0.0012068916
32
0.0000000000
13
-0.0085499850
23
0.0065073277
33
0.0000000000
40
0.0000000000
40
0.0000000000
40
0.0000000000
40
0.0000000000
40
0.6626092195
40
1.0000000000
40
1.0000000000
40
1.0000000000
40
1.0000000000
10
4.5476635604
20
8.0428516431
30
0.0000000000
10
4.5453181364
20
8.0431182090
30
0.0000000000
10
4.5418194977
20
8.0441636992
30
0.0000000000
10
4.5387725989
20
8.0460762703
30
0.0000000000
10
4.5378110369
20
8.0468081077
30
0.0000000000
11
4.5476635604
21
8.0428516431
31
0.0000000000
11
4.5408800127
21
8.0448844046
31
0.0000000000
11
4.5378110369
21
8.0468081077
31
0.0000000000
0
SPLINE
5
6A4
100
AcDbEntity
8
0
100
AcDbSpline
62
7
6
CONTINUOUS
70
0
71
3
72
10
73
6
74
4
42
0.0000001000
43
0.0000001000
44
0.0000000001
12
-0.0146432550
22
0.0111448685
32
0.0000000000
13
-0.0000003111
23
0.0183039308
33
0.0000000000
40
0.0000000000
40
0.0000000000
40
0.0000000000
40
0.0000000000
40
0.1971310022
40
0.6013245654
40
1.0000000000
40
1.0000000000
40
1.0000000000
40
1.0000000000
10
4.5378110369
20
8.0468081077
30
0.0000000000
10
4.5368488237
20
8.0475404408
30
0.0000000000
10
4.5341166295
20
8.0500387143
30
0.0000000000
10
4.5308351278
20
8.0553461011
30
0.0000000000
10
4.5299219644
20
8.0602911165
30
0.0000000000
10
4.5299219230
20
8.0627235591
30
0.0000000000
11
4.5378110369
21
8.0468081077
31
0.0000000000
11
4.5351390093
21
8.0492529464
31
0.0000000000
11
4.5312533193
21
8.0555487160
31
0.0000000000
11
4.5299219230
21
8.0627235591
31
0.0000000000
0
SPLINE
5
6A5
100
AcDbEntity
8
0
100
AcDbSpline
62
7
6
CONTINUOUS
70
0
71
3
72
11
73
7
74
5
42
0.0000001000
43
0.0000001000
44
0.0000000001
12
0.0288063498
22
0.0032733857
32
0.0000000000
13
0.0000000000
23
0.0289917375
33
0.0000000000
40
0.0000000000
40
0.0000000000
40
0.0000000000
40
0.0000000000
40
0.2499902141
40
0.4999885509
40
0.7499929115
40
1.0000000000
40
1.0000000000
40
1.0000000000
40
1.0000000000
10
4.9448468854
20
8.3290638387
30
0.0000000000
10
4.9472473206
20
8.3293366102
30
0.0000000000
10
4.9519925638
20
8.3307761907
30
0.0000000000
10
4.9578398999
20
8.3353191676
30
0.0000000000
10
4.9616939792
20
8.3416420365
30
0.0000000000
10
4.9625887131
20
8.3465197080
30
0.0000000000
10
4.9625887131
20
8.3489357547
30
0.0000000000
11
4.9448468854
21
8.3290638387
31
0.0000000000
11
4.9517807257
21
8.3311734119
31
0.0000000000
11
4.9575076321
21
8.3356157533
31
0.0000000000
11
4.9612753003
21
8.3418076077
31
0.0000000000
11
4.9625887131
21
8.3489357547
31
0.0000000000
0
SPLINE
5
6A6
100
AcDbEntity
8
0
100
AcDbSpline
62
7
6
CONTINUOUS
70
0
71
3
72
11
73
7
74
5
42
0.0000001000
43
0.0000001000
44
0.0000000001
12
0.0000000000
22
0.0289917375
32
0.0000000000
13
-0.0288063498
23
0.0032733857
33
0.0000000000
40
0.0000000000
40
0.0000000000
40
0.0000000000
40
0.0000000000
40
0.2500093921
40
0.5000150084
40
0.7500127322
40
1.0000000000
40
1.0000000000
40
1.0000000000
40
1.0000000000
10
4.9625887131
20
7.9778452585
30
0.0000000000
10
4.9625887131
20
7.9802613273
30
0.0000000000
10
4.9616939641
20
7.9851390345
30
0.0000000000
10
4.9578398414
20
7.9914619129
30
0.0000000000
10
4.9519925017
20
7.9960048471
30
0.0000000000
10
4.9472472923
20
7.9974444061
30
0.0000000000
10
4.9448468854
20
7.9977171744
30
0.0000000000
11
4.9625887131
21
7.9778452585
31
0.0000000000
11
4.9612752761
21
7.9849734688
31
0.0000000000
11
4.9575075622
21
7.9911653381
31
0.0000000000
11
4.9517806485
21
7.9956076411
31
0.0000000000
11
4.9448468854
21
7.9977171744
31
0.0000000000
0
SPLINE
5
6A7
100
AcDbEntity
8
0
100
AcDbSpline
62
7
6
CONTINUOUS
70
0
71
3
72
11
73
7
74
5
42
0.0000001000
43
0.0000001000
44
0.0000000001
12
0.0288063498
22
0.0032733857
32
0.0000000000
13
-0.0000000000
23
0.0289917375
33
0.0000000000
40
0.0000000000
40
0.0000000000
40
0.0000000000
40
0.0000000000
40
0.2499902141
40
0.4999885509
40
0.7499929115
40
1.0000000000
40
1.0000000000
40
1.0000000000
40
1.0000000000
10
4.9448468854
20
4.9621347049
30
0.0000000000
10
4.9472473206
20
4.9624074763
30
0.0000000000
10
4.9519925638
20
4.9638470568
30
0.0000000000
10
4.9578398999
20
4.9683900337
30
0.0000000000
10
4.9616939792
20
4.9747129027
30
0.0000000000
10
4.9625887131
20
4.9795905742
30
0.0000000000
10
4.9625887131
20
4.9820066208
30
0.0000000000
11
4.9448468854
21
4.9621347049
31
0.0000000000
11
4.9517807257
21
4.9642442780
31
0.0000000000
11
4.9575076321
21
4.9686866194
31
0.0000000000
11
4.9612753003
21
4.9748784739
31
0.0000000000
11
4.9625887131
21
4.9820066208
31
0.0000000000
0
SPLINE
5
6A8
100
AcDbEntity
8
0
100
AcDbSpline
62
7
6
CONTINUOUS
70
0
71
3
72
9
73
5
74
3
42
0.0000001000
43
0.0000001000
44
0.0000000001
12
-0.0106190370
22
0.0012068916
32
0.0000000000
13
-0.0085499850
23
0.0065073277
33
0.0000000000
40
0.0000000000
40
0.0000000000
40
0.0000000000
40
0.0000000000
40
0.6626092195
40
1.0000000000
40
1.0000000000
40
1.0000000000
40
1.0000000000
10
4.5476635604
20
4.6759225093
30
0.0000000000
10
4.5453181364
20
4.6761890751
30
0.0000000000
10
4.5418194977
20
4.6772345654
30
0.0000000000
10
4.5387725989
20
4.6791471364
30
0.0000000000
10
4.5378110369
20
4.6798789739
30
0.0000000000
11
4.5476635604
21
4.6759225093
31
0.0000000000
11
4.5408800127
21
4.6779552707
31
0.0000000000
11
4.5378110369
21
4.6798789739
31
0.0000000000
0
SPLINE
5
6A9
100
AcDbEntity
8
0
100
AcDbSpline
62
7
6
CONTINUOUS
70
0
71
3
72
10
73
6
74
4
42
0.0000001000
43
0.0000001000
44
0.0000000001
12
-0.0146432550
22
0.0111448685
32
0.0000000000
13
-0.0000003111
23
0.0183039308
33
0.0000000000
40
0.0000000000
40
0.0000000000
40
0.0000000000
40
0.0000000000
40
0.1971310022
40
0.6013245654
40
1.0000000000
40
1.0000000000
40
1.0000000000
40
1.0000000000
10
4.5378110369
20
4.6798789739
30
0.0000000000
10
4.5368488237
20
4.6806113069
30
0.0000000000
10
4.5341166295
20
4.6831095805
30
0.0000000000
10
4.5308351278
20
4.6884169673
30
0.0000000000
10
4.5299219644
20
4.6933619827
30
0.0000000000
10
4.5299219230
20
4.6957944252
30
0.0000000000
11
4.5378110369
21
4.6798789739
31
0.0000000000
11
4.5351390093
21
4.6823238125
31
0.0000000000
11
4.5312533193
21
4.6886195821
31
0.0000000000
11
4.5299219230
21
4.6957944252
31
0.0000000000
0
SPLINE
5
6AA
100
AcDbEntity
8
0
100
AcDbSpline
62
7
6
CONTINUOUS
70
0
71
3
72
11
73
7
74
5
42
0.0000001000
43
0.0000001000
44
0.0000000001
12
0.0000000000
22
0.0289917375
32
0.0000000000
13
-0.0288063498
23
0.0032733857
33
0.0000000000
40
0.0000000000
40
0.0000000000
40
0.0000000000
40
0.0000000000
40
0.2500093921
40
0.5000150084
40
0.7500127322
40
1.0000000000
40
1.0000000000
40
1.0000000000
40
1.0000000000
10
4.9625887131
20
4.6109161246
30
0.0000000000
10
4.9625887131
20
4.6133321935
30
0.0000000000
10
4.9616939641
20
4.6182099006
30
0.0000000000
10
4.9578398414
20
4.6245327790
30
0.0000000000
10
4.9519925017
20
4.6290757133
30
0.0000000000
10
4.9472472923
20
4.6305152723
30
0.0000000000
10
4.9448468854
20
4.6307880405
30
0.0000000000
11
4.9625887131
21
4.6109161246
31
0.0000000000
11
4.9612752761
21
4.6180443350
31
0.0000000000
11
4.9575075622
21
4.6242362042
31
0.0000000000
11
4.9517806485
21
4.6286785073
31
0.0000000000
11
4.9448468854
21
4.6307880405
31
0.0000000000
0
SPLINE
5
6AB
100
AcDbEntity
8
0
100
AcDbSpline
62
7
6
CONTINUOUS
70
0
71
3
72
12
73
8
74
6
42
0.0000001000
43
0.0000001000
44
0.0000000001
12
0.0021614495
22
-0.0203771424
32
0.0000000000
13
-0.0022598087
23
0.0203889960
33
0.0000000000
40
0.0000000000
40
0.0000000000
40
0.0000000000
40
0.0000000000
40
0.0477410329
40
0.1882671787
40
0.4091091798
40
0.6886118678
40
1.0000000000
40
1.0000000000
40
1.0000000000
40
1.0000000000
10
4.9448469744
20
4.6307878766
30
0.0000000000
10
4.9448813710
20
4.6304636013
30
0.0000000000
10
4.9445700386
20
4.6333065129
30
0.0000000000
10
4.9444213181
20
4.6346241836
30
0.0000000000
10
4.9438544702
20
4.6397532664
30
0.0000000000
10
4.9432741482
20
4.6449656546
30
0.0000000000
10
4.9428228283
20
4.6490610314
30
0.0000000000
10
4.9425882691
20
4.6511773285
30
0.0000000000
11
4.9448469744
21
4.6307878766
31
0.0000000000
11
4.9447390937
21
4.6317616027
31
0.0000000000
11
4.9444220452
21
4.6346268466
31
0.0000000000
11
4.9439228851
21
4.6391295823
31
0.0000000000
11
4.9432904815
21
4.6448282749
31
0.0000000000
11
4.9425882691
21
4.6511773285
31
0.0000000000
0
SPLINE
5
6AC
100
AcDbEntity
8
0
100
AcDbSpline
62
7
6
CONTINUOUS
70
0
71
3
72
12
73
8
74
6
42
0.0000001000
43
0.0000001000
44
0.0000000001
12
0.0021614495
22
-0.0203771424
32
0.0000000000
13
-0.0022598087
23
0.0203889960
33
0.0000000000
40
0.0000000000
40
0.0000000000
40
0.0000000000
40
0.0000000000
40
0.0477410329
40
0.1882671787
40
0.4091091798
40
0.6886118678
40
1.0000000000
40
1.0000000000
40
1.0000000000
40
1.0000000000
10
4.9448469744
20
7.9977170105
30
0.0000000000
10
4.9448813710
20
7.9973927352
30
0.0000000000
10
4.9445700386
20
8.0002356468
30
0.0000000000
10
4.9444213181
20
8.0015533175
30
0.0000000000
10
4.9438544702
20
8.0066824003
30
0.0000000000
10
4.9432741482
20
8.0118947885
30
0.0000000000
10
4.9428228283
20
8.0159901652
30
0.0000000000
10
4.9425882691
20
8.0181064623
30
0.0000000000
11
4.9448469744
21
7.9977170105
31
0.0000000000
11
4.9447390937
21
7.9986907366
31
0.0000000000
11
4.9444220452
21
8.0015559805
31
0.0000000000
11
4.9439228851
21
8.0060587161
31
0.0000000000
11
4.9432904815
21
8.0117574087
31
0.0000000000
11
4.9425882691
21
8.0181064623
31
0.0000000000
0
SPLINE
5
6AD
100
AcDbEntity
8
0
100
AcDbSpline
62
7
6
CONTINUOUS
70
0
71
3
72
12
73
8
74
6
42
0.0000001000
43
0.0000001000
44
0.0000000001
12
0.0022611611
22
0.0203890866
32
0.0000000000
13
-0.0021388317
23
-0.0203787316
33
0.0000000000
40
0.0000000000
40
0.0000000000
40
0.0000000000
40
0.0000000000
40
0.3120413855
40
0.5910893487
40
0.8118295858
40
0.9524651097
40
1.0000000000
40
1.0000000000
40
1.0000000000
40
1.0000000000
10
4.9425882431
20
4.9417451736
30
0.0000000000
10
4.9428234350
20
4.9438659199
30
0.0000000000
10
4.9432748112
20
4.9479628953
30
0.0000000000
10
4.9438551593
20
4.9531760788
30
0.0000000000
10
4.9444213874
20
4.9583022956
30
0.0000000000
10
4.9445707049
20
4.9596173068
30
0.0000000000
10
4.9448808791
20
4.9624577757
30
0.0000000000
10
4.9448469894
20
4.9621348754
30
0.0000000000
11
4.9425882431
21
4.9417451736
31
0.0000000000
11
4.9432919723
21
4.9481076170
31
0.0000000000
11
4.9439232158
21
4.9537971200
31
0.0000000000
11
4.9444222338
21
4.9582978241
31
0.0000000000
11
4.9447395779
21
4.9611653266
31
0.0000000000
11
4.9448469894
21
4.9621348754
31
0.0000000000
0
SPLINE
5
6AE
100
AcDbEntity
8
0
100
AcDbSpline
62
7
6
CONTINUOUS
70
0
71
3
72
12
73
8
74
6
42
0.0000001000
43
0.0000001000
44
0.0000000001
12
0.0022611611
22
0.0203890866
32
0.0000000000
13
-0.0021388317
23
-0.0203787316
33
0.0000000000
40
0.0000000000
40
0.0000000000
40
0.0000000000
40
0.0000000000
40
0.3120413855
40
0.5910893487
40
0.8118295858
40
0.9524651097
40
1.0000000000
40
1.0000000000
40
1.0000000000
40
1.0000000000
10
4.9425882431
20
8.3086743075
30
0.0000000000
10
4.9428234350
20
8.3107950538
30
0.0000000000
10
4.9432748112
20
8.3148920292
30
0.0000000000
10
4.9438551593
20
8.3201052127
30
0.0000000000
10
4.9444213874
20
8.3252314295
30
0.0000000000
10
4.9445707049
20
8.3265464407
30
0.0000000000
10
4.9448808791
20
8.3293869096
30
0.0000000000
10
4.9448469894
20
8.3290640093
30
0.0000000000
11
4.9425882431
21
8.3086743075
31
0.0000000000
11
4.9432919723
21
8.3150367508
31
0.0000000000
11
4.9439232158
21
8.3207262538
31
0.0000000000
11
4.9444222338
21
8.3252269580
31
0.0000000000
11
4.9447395779
21
8.3280944605
31
0.0000000000
11
4.9448469894
21
8.3290640093
31
0.0000000000
0
ENDSEC
0
SECTION
2
OBJECTS
0
DICTIONARY
5
C
100
AcDbDictionary
280
0
281
1
3
ACAD_GROUP
350
D
3
ACAD_MLINESTYLE
350
17
3
ACAD_LAYOUT
350
1A
3
ACAD_PLOTSETTINGS
350
19
3
ACAD_PLOTSTYLENAME
350
E
0
DICTIONARY
5
D
102
{ACAD_REACTORS
330
C
102
}
100
AcDbDictionary
280
0
281
1
0
ACDBDICTIONARYWDFLT
5
E
102
{ACAD_REACTORS
330
C
102
}
100
AcDbDictionary
281
1
3
Normal
350
F
100
AcDbDictionaryWithDefault
340
F
0
DICTIONARY
5
17
102
{ACAD_REACTORS
330
C
102
}
100
AcDbDictionary
280
0
281
1
3
Standard
350
18
0
DICTIONARY
5
19
102
{ACAD_REACTORS
330
C
102
}
100
AcDbDictionary
281
1
0
DICTIONARY
5
1A
102
{ACAD_REACTORS
330
C
102
}
100
AcDbDictionary
281
1
3
Layout1
350
1E
3
Model
350
22
0
ACDBPLACEHOLDER
5
F
102
{ACAD_REACTORS
330
E
102
}
0
MLINESTYLE
5
18
102
{ACAD_REACTORS
330
17
102
}
100
AcDbMlineStyle
2
STANDARD
70
0
3

62
256
51
90.0
52
90.0
71
2
49
0.5
62
256
6
BYLAYER
49
-0.5
62
256
6
BYLAYER
0
LAYOUT
5
1E
102
{ACAD_REACTORS
330
1A
102
}
100
AcDbPlotSettings
1

2

4

6

40
0.0
41
0.0
42
0.0
43
0.0
44
0.0
45
0.0
46
0.0
47
0.0
48
0.0
49
0.0
140
0.0
141
0.0
142
1.0
143
1.0
70
0
72
0
73
0
74
0
7

75
0
147
1.0
148
0.0
149
0.0
100
AcDbLayout
1
Layout1
70
0
71
0
10
0.0
20
0.0
11
0.0
21
0.0
12
0.0
22
0.0
32
0.0
14
0.0
24
0.0
34
0.0
15
0.0
25
0.0
35
0.0
146
0.0
13
0.0
23
0.0
33
0.0
16
0.0
26
0.0
36
0.0
17
0.0
27
0.0
37
0.0
76
0
330
1B
331
0
345
0
346
0
0
LAYOUT
5
22
102
{ACAD_REACTORS
330
1A
102
}
100
AcDbPlotSettings
1

2

4

6

40
0.0
41
0.0
42
0.0
43
0.0
44
0.0
45
0.0
46
0.0
47
0.0
48
0.0
49
0.0
140
0.0
141
0.0
142
1.0
143
1.0
70
0
72
0
73
0
74
0
7

75
0
147
1.0
148
0.0
149
0.0
100
AcDbLayout
1
Model
70
0
71
0
10
0.0
20
0.0
11
0.0
21
0.0
12
0.0
22
0.0
32
0.0
14
0.0
24
0.0
34
0.0
15
0.0
25
0.0
35
0.0
146
0.0
13
0.0
23
0.0
33
0.0
16
0.0
26
0.0
36
0.0
17
0.0
27
0.0
37
0.0
76
0
330
1F
331
0
345
0
346
0
0
ENDSEC
0
EOF
