999
DXF file: C:\SIC\2022\AUGUST\TYM\deliverable\PRN-16065\193-CBCT4\193-cbct4.dxf
999
Pro/ENGINEER 2020281 by Parametric Technology Corporation
  0
SECTION
  2
HEADER
  9
$ACADVER
  1
AC1032
  9
$DWGCODEPAGE
  3
ANSI_1252
  9
$EXTMAX
 10
22.0
 20
17.0
 30
0.0
  9
$EXTMIN
 10
0.0
 20
0.0
 30
0.0
  9
$LIMMIN
 10
0.0
 20
0.0
  9
$LIMMAX
 10
22.0
 20
17.0
  9
$VIEWCTR
 10
11.0
 20
8.5
  9
$VIEWSIZE
 40
17.0
  9
$CLAYER
  8
0
  9
$LTSCALE
 40
1.21
  9
$CELTYPE
  6
BYLAYER
  9
$DIMSCALE
 40
1.0
  9
$DIMASZ
 40
0.1875
  9
$DIMEXO
 40
0.0625
  9
$DIMDLI
 40
0.836
  9
$DIMEXE
 40
0.125
  9
$DIMCEN
 40
0.198
  9
$DIMLFAC
 40
1.0
  9
$DIMBLK
  1
_FILLED
  9
$DIMALT
 70
1
  9
$DIMALTD
 70
1
  9
$DIMALTTD
 70
2
  9
$DIMALTF
 40
25.4
  9
$DIMTXT
 40
0.15625
  9
$DIMTOL
 70
0
  9
$DIMLIM
 70
0
  9
$DIMTFAC
 40
1.0
  9
$DIMGAP
 40
0.09
  9
$DIMDSEP
 70
46
  9
$AUNITS
 70
0
  9
$PDMODE
 70
3
  9
$PDSIZE
 40
0.3125
  9
$HANDSEED
  5
6E2
  9
$TILEMODE
 70
1
  9
$MEASUREMENT
 70
0
  9
$INSUNITS
 70
1
  0
ENDSEC
  0
SECTION
  2
CLASSES
  0
CLASS
  1
ACDBDICTIONARYWDFLT
  2
AcDbDictionaryWithDefault
  3
AutoCAD 2000
 90
0
 91
1
280
0
281
0
  0
CLASS
  1
ACDBPLACEHOLDER
  2
AcDbPlaceHolder
  3
AutoCAD 2000
 90
0
 91
1
280
0
281
0
  0
CLASS
  1
LAYOUT
  2
AcDbLayout
  3
AutoCAD 2000
 90
0
 91
0
280
0
281
0
  0
ENDSEC
  0
SECTION
  2
TABLES
  0
TABLE
  2
VPORT
  5
8
100
AcDbSymbolTable
 70
2
  0
VPORT
  5
1F4
100
AcDbSymbolTableRecord
100
AcDbViewportTableRecord
  2
*ACTIVE
 70
0
 10
0.0
 20
0.0
 11
1.0
 21
1.0
 12
11.0
 22
8.5
 13
0.0
 23
0.0
 14
1.0
 24
1.0
 15
0.0
 25
0.0
 16
0.0
 26
0.0
 36
1.0
 17
0.0
 27
0.0
 37
0.0
 40
17.0
 41
1.2941176471
 42
50.0
 43
0.0
 44
0.0
 50
0.0
 51
0.0
 71
0
 72
100
 73
1
 74
1
 75
0
 76
0
 77
0
 78
0
  0
ENDTAB
  0
TABLE
  2
LTYPE
  5
5
100
AcDbSymbolTable
 70
6
  0
LTYPE
  5
14
100
AcDbSymbolTableRecord
100
AcDbLinetypeTableRecord
  2
BYBLOCK
 70
0
  3

 72
65
 73
0
 40
0.0
  0
LTYPE
  5
15
100
AcDbSymbolTableRecord
100
AcDbLinetypeTableRecord
  2
BYLAYER
 70
0
  3

 72
65
 73
0
 40
0.0
  0
LTYPE
  5
16
100
AcDbSymbolTableRecord
100
AcDbLinetypeTableRecord
  2
CONTINUOUS
 70
64
  3
Solid line
 72
65
 73
0
 40
0.0
  0
LTYPE
  5
1F5
100
AcDbSymbolTableRecord
100
AcDbLinetypeTableRecord
  2
CENTER
 70
64
  3
____ _ ____ _ ____ _ ____ _ ____ _ ____ _ ____
 72
65
 73
4
 40
0.6
 49
0.375
 74
0
 49
-0.075
 74
0
 49
0.075
 74
0
 49
-0.075
 74
0
  0
LTYPE
  5
1F6
100
AcDbSymbolTableRecord
100
AcDbLinetypeTableRecord
  2
HIDDEN
 70
64
  3
- - - - - - - - - - - - - - - - - - - -
 72
65
 73
2
 40
0.2
 49
0.1
 74
0
 49
-0.1
 74
0
  0
LTYPE
  5
1F7
100
AcDbSymbolTableRecord
100
AcDbLinetypeTableRecord
  2
PHANTOM
 70
64
  3
_____ _ _ _____ _ _ _____ _ _ _____
 72
65
 73
6
 40
0.8
 49
0.45
 74
0
 49
-0.05
 74
0
 49
0.1
 74
0
 49
-0.05
 74
0
 49
0.1
 74
0
 49
-0.05
 74
0
  0
LTYPE
  5
1F8
100
AcDbSymbolTableRecord
100
AcDbLinetypeTableRecord
  2
DOT
 70
64
  3
. . . . . . . . . . . . . . . . . . . .
 72
65
 73
2
 40
0.2
 49
0.1
 74
0
 49
-0.1
 74
0
  0
LTYPE
  5
1F9
100
AcDbSymbolTableRecord
100
AcDbLinetypeTableRecord
  2
DASHED
 70
64
  3
- - - - - - - - - - - - - - - - - - - -
 72
65
 73
2
 40
0.2
 49
0.1
 74
0
 49
-0.1
 74
0
  0
ENDTAB
  0
TABLE
  2
LAYER
  5
2
100
AcDbSymbolTable
 70
36
  0
LAYER
  5
10
100
AcDbSymbolTableRecord
100
AcDbLayerTableRecord
  2
0
 70
0
 62
7
  6
CONTINUOUS
370
-3
390
F
  0
LAYER
  5
1FA
100
AcDbSymbolTableRecord
100
AcDbLayerTableRecord
  2
DEFAULT_1
 70
0
 62
7
  6
CENTER
370
-3
390
F
  0
LAYER
  5
1FB
100
AcDbSymbolTableRecord
100
AcDbLayerTableRecord
  2
DEFAULT_2
 70
0
 62
8
  6
HIDDEN
370
-3
390
F
  0
LAYER
  5
1FC
100
AcDbSymbolTableRecord
100
AcDbLayerTableRecord
  2
DEFAULT_3
 70
0
 62
7
  6
PHANTOM
370
-3
390
F
  0
LAYER
  5
1FD
100
AcDbSymbolTableRecord
100
AcDbLayerTableRecord
  2
01___PRT_ALL_DTM_PLN
 70
0
 62
7
  6
CONTINUOUS
370
-3
390
F
  0
LAYER
  5
1FE
100
AcDbSymbolTableRecord
100
AcDbLayerTableRecord
  2
01___PRT_DEF_DTM_PLN
 70
0
 62
7
  6
CONTINUOUS
370
-3
390
F
  0
LAYER
  5
1FF
100
AcDbSymbolTableRecord
100
AcDbLayerTableRecord
  2
02___PRT_ALL_AXES
 70
0
 62
7
  6
CONTINUOUS
370
-3
390
F
  0
LAYER
  5
200
100
AcDbSymbolTableRecord
100
AcDbLayerTableRecord
  2
03___PRT_ALL_CURVES
 70
0
 62
7
  6
CONTINUOUS
370
-3
390
F
  0
LAYER
  5
201
100
AcDbSymbolTableRecord
100
AcDbLayerTableRecord
  2
04___PRT_ALL_DTM_PNT
 70
0
 62
7
  6
CONTINUOUS
370
-3
390
F
  0
LAYER
  5
202
100
AcDbSymbolTableRecord
100
AcDbLayerTableRecord
  2
05___PRT_ALL_DTM_CSYS
 70
0
 62
7
  6
CONTINUOUS
370
-3
390
F
  0
LAYER
  5
203
100
AcDbSymbolTableRecord
100
AcDbLayerTableRecord
  2
05___PRT_DEF_DTM_CSYS
 70
0
 62
7
  6
CONTINUOUS
370
-3
390
F
  0
LAYER
  5
204
100
AcDbSymbolTableRecord
100
AcDbLayerTableRecord
  2
06___PRT_ALL_SURFS
 70
0
 62
7
  6
CONTINUOUS
370
-3
390
F
  0
LAYER
  5
205
100
AcDbSymbolTableRecord
100
AcDbLayerTableRecord
  2
AXIS_PART
 70
0
 62
7
  6
CONTINUOUS
370
-3
390
F
  0
ENDTAB
  0
TABLE
  2
STYLE
  5
3
100
AcDbSymbolTable
 70
1
  0
STYLE
  5
11
100
AcDbSymbolTableRecord
100
AcDbTextStyleTableRecord
  2
STANDARD
 70
0
 40
0.0
 41
0.8
 50
0.0
 71
0
 42
0.2
  3
txt
  4

  0
STYLE
  5
206
100
AcDbSymbolTableRecord
100
AcDbTextStyleTableRecord
  2
TEXTSTYLE_1
 70
0
 40
0.0
 41
0.8
 50
0.0
 71
0
 42
0.2
  3
gdt
  4

  0
STYLE
  5
207
100
AcDbSymbolTableRecord
100
AcDbTextStyleTableRecord
  2
TEXTSTYLE_2
 70
0
 40
0.0
 41
1.0
 50
0.0
 71
0
 42
0.2
  3
symbol_asme.ttf
  4

  0
ENDTAB
  0
TABLE
  2
VIEW
  5
6
100
AcDbSymbolTable
 70
0
  0
ENDTAB
  0
TABLE
  2
UCS
  5
7
100
AcDbSymbolTable
 70
0
  0
ENDTAB
  0
TABLE
  2
APPID
  5
9
100
AcDbSymbolTable
 70
1
  0
APPID
  5
208
100
AcDbSymbolTableRecord
100
AcDbRegAppTableRecord
  2
ACAD
 70
0
  0
ENDTAB
  0
TABLE
  2
BLOCK_RECORD
  5
1
100
AcDbSymbolTable
 70
0
  0
BLOCK_RECORD
  5
209
100
AcDbSymbolTableRecord
100
AcDbBlockTableRecord
  2
*Model_Space
  0
BLOCK_RECORD
  5
20A
100
AcDbSymbolTableRecord
100
AcDbBlockTableRecord
  2
*Paper_Space
  0
BLOCK_RECORD
  5
20B
100
AcDbSymbolTableRecord
100
AcDbBlockTableRecord
  2
_FILLED
  0
BLOCK_RECORD
  5
20C
100
AcDbSymbolTableRecord
100
AcDbBlockTableRecord
  2
*D0
  0
BLOCK_RECORD
  5
20D
100
AcDbSymbolTableRecord
100
AcDbBlockTableRecord
  2
*D1
  0
BLOCK_RECORD
  5
20E
100
AcDbSymbolTableRecord
100
AcDbBlockTableRecord
  2
*D2
  0
BLOCK_RECORD
  5
20F
100
AcDbSymbolTableRecord
100
AcDbBlockTableRecord
  2
*D3
  0
BLOCK_RECORD
  5
210
100
AcDbSymbolTableRecord
100
AcDbBlockTableRecord
  2
*D4
  0
BLOCK_RECORD
  5
211
100
AcDbSymbolTableRecord
100
AcDbBlockTableRecord
  2
*D5
  0
BLOCK_RECORD
  5
212
100
AcDbSymbolTableRecord
100
AcDbBlockTableRecord
  2
*D6
  0
BLOCK_RECORD
  5
213
100
AcDbSymbolTableRecord
100
AcDbBlockTableRecord
  2
*D7
  0
BLOCK_RECORD
  5
214
100
AcDbSymbolTableRecord
100
AcDbBlockTableRecord
  2
*D8
  0
ENDTAB
  0
TABLE
  2
DIMSTYLE
  5
A
100
AcDbSymbolTable
 70
1
100
AcDbDimStyleTable
 71
0
  0
DIMSTYLE
105
215
100
AcDbSymbolTableRecord
100
AcDbDimStyleTableRecord
  2
STANDARD
 70
0
  3

  4

 40
1.0
 41
0.1875
 42
0.0625
 43
0.38
 44
0.125
 45
0.0
 46
0.0
 47
0.05
 48
0.05
140
0.15625
141
0.09
142
0.0
143
25.4
144
1.0
145
0.0
146
1.0
147
0.09
 71
0
 72
0
 73
1
 74
1
 75
0
 76
0
 77
0
 78
4
 79
1
170
1
171
1
172
0
173
0
174
0
175
0
176
0
177
0
178
0
270
2
179
2
271
2
272
2
273
2
274
2
275
0
280
0
281
0
282
0
283
1
284
4
285
0
286
0
287
3
288
0
340
11
278
46
341
20B
342
20B
343
20B
344
20B
  0
DIMSTYLE
105
216
100
AcDbSymbolTableRecord
100
AcDbDimStyleTableRecord
  2
DIMSTYLE_1
 70
0
  3

  4

 40
1.0
 41
0.1875
 42
0.0625
 43
0.38
 44
0.125
 45
0.0
 46
0.0
 47
0.0
 48
0.0
140
0.15625
141
0.09
142
0.0
143
25.4
144
1.0
145
0.0
146
1.0
147
0.078125
 71
0
 72
0
 73
1
 74
1
 75
0
 76
0
 77
0
 78
4
 79
1
170
1
171
1
172
0
173
0
174
0
175
0
176
0
177
0
178
0
270
2
179
2
271
2
272
2
273
2
274
2
275
0
280
0
281
0
282
0
283
1
284
4
285
0
286
0
287
3
288
0
340
11
278
46
341
20B
342
20B
343
20B
344
20B
  0
DIMSTYLE
105
217
100
AcDbSymbolTableRecord
100
AcDbDimStyleTableRecord
  2
DIMSTYLE_2
 70
0
  3
<>
  4

 40
1.0
 41
0.1875
 42
0.0625
 43
0.38
 44
0.125
 45
0.0
 46
0.0
 47
0.0
 48
0.0
140
0.15625
141
0.09
142
0.0
143
25.4
144
1.0
145
0.0
146
1.0
147
0.09
 71
0
 72
0
 73
1
 74
1
 75
0
 76
0
 77
0
 78
4
 79
1
170
1
171
1
172
0
173
0
174
0
175
0
176
0
177
0
178
0
270
2
179
2
271
2
272
2
273
2
274
2
275
0
280
0
281
0
282
0
283
1
284
4
285
0
286
0
287
3
288
1
340
11
278
46
289
1
341
20B
342
20B
343
20B
344
20B
  0
ENDTAB
  0
ENDSEC
  0
SECTION
  2
BLOCKS
  0
BLOCK
  5
20
100
AcDbEntity
  8
0
100
AcDbBlockBegin
  2
*Model_Space
 70
0
 10
0.0
 20
0.0
 30
0.0
  3
*Model_Space
  1

  0
ENDBLK
  5
21
100
AcDbEntity
  8
0
100
AcDbBlockEnd
  0
BLOCK
  5
1C
100
AcDbEntity
  8
0
100
AcDbBlockBegin
  2
*Paper_Space
 70
0
 10
0.0
 20
0.0
 30
0.0
  3
*Paper_Space
  1

  0
ENDBLK
  5
1D
100
AcDbEntity
  8
0
100
AcDbBlockEnd
  0
BLOCK
  5
218
100
AcDbEntity
  8
0
100
AcDbBlockBegin
  2
_FILLED
 70
64
 10
0.0
 20
0.0
  3
_FILLED
  1

  0
SOLID
  5
219
100
AcDbEntity
  8
0
  6
BYBLOCK
 62
0
100
AcDbTrace
 10
0.0
 20
0.0
 11
-1.0
 21
0.1666666667
 12
-1.0
 22
-0.1666666667
 13
-1.0
 23
-0.1666666667
  0
ENDBLK
  5
21A
100
AcDbEntity
  8
0
  6
BYBLOCK
 62
0
100
AcDbBlockEnd
  0
BLOCK
  5
21B
100
AcDbEntity
  8
0
100
AcDbBlockBegin
 62
2
  6
CONTINUOUS
  2
*D0
 70
65
 10
0.0
 20
0.0
  3
*D0
  1

  0
LINE
  5
21C
100
AcDbEntity
  8
0
100
AcDbLine
 62
2
  6
CONTINUOUS
 10
1.377565802
 20
8.0403178849
 11
1.377565802
 21
10.2995206159
  0
LINE
  5
21D
100
AcDbEntity
  8
0
100
AcDbLine
 62
2
  6
CONTINUOUS
 10
7.0271721012
 20
8.0403178847
 11
7.0271721012
 21
10.2995206159
  0
LINE
  5
21E
100
AcDbEntity
  8
0
100
AcDbLine
 62
2
  6
CONTINUOUS
 10
1.377565802
 20
10.1745206159
 11
3.9398927578
 21
10.1745206159
  0
LINE
  5
21F
100
AcDbEntity
  8
0
100
AcDbLine
 62
2
  6
CONTINUOUS
 10
7.0271721012
 20
10.1745206159
 11
5.1600163841
 21
10.1745206159
  0
INSERT
  5
220
100
AcDbEntity
  8
0
100
AcDbBlockReference
 62
2
  6
CONTINUOUS
  2
_FILLED
 10
1.377565802
 20
10.1745206159
 41
0.1875
 42
0.1875
 43
0.1875
 50
180.0
  0
INSERT
  5
221
100
AcDbEntity
  8
0
100
AcDbBlockReference
 62
2
  6
CONTINUOUS
  2
_FILLED
 10
7.0271721012
 20
10.1745206159
 41
0.1875
 42
0.1875
 43
0.1875
  0
ENDBLK
  5
222
100
AcDbEntity
  8
0
  6
BYBLOCK
 62
0
100
AcDbBlockEnd
  0
BLOCK
  5
223
100
AcDbEntity
  8
0
100
AcDbBlockBegin
 62
2
  6
CONTINUOUS
  2
*D1
 70
65
 10
0.0
 20
0.0
  3
*D1
  1

  0
LINE
  5
224
100
AcDbEntity
  8
0
100
AcDbLine
 62
2
  6
CONTINUOUS
 10
2.2205747051
 20
8.9187627667
 11
0.569755099
 21
8.9187627667
  0
LINE
  5
225
100
AcDbEntity
  8
0
100
AcDbLine
 62
2
  6
CONTINUOUS
 10
1.815065802
 20
2.8282115856
 11
0.569755099
 21
2.8282115856
  0
LINE
  5
226
100
AcDbEntity
  8
0
100
AcDbLine
 62
2
  6
CONTINUOUS
 10
0.694755099
 20
8.9187627667
 11
0.694755099
 21
5.8750621916
  0
LINE
  5
227
100
AcDbEntity
  8
0
100
AcDbLine
 62
2
  6
CONTINUOUS
 10
0.694755099
 20
2.8282115856
 11
0.694755099
 21
5.3281871916
  0
INSERT
  5
228
100
AcDbEntity
  8
0
100
AcDbBlockReference
 62
2
  6
CONTINUOUS
  2
_FILLED
 10
0.694755099
 20
8.9187627667
 41
0.1875
 42
0.1875
 43
0.1875
 50
90.0
  0
INSERT
  5
229
100
AcDbEntity
  8
0
100
AcDbBlockReference
 62
2
  6
CONTINUOUS
  2
_FILLED
 10
0.694755099
 20
2.8282115856
 41
0.1875
 42
0.1875
 43
0.1875
 50
270.0
  0
ENDBLK
  5
22A
100
AcDbEntity
  8
0
  6
BYBLOCK
 62
0
100
AcDbBlockEnd
  0
BLOCK
  5
22B
100
AcDbEntity
  8
0
100
AcDbBlockBegin
 62
2
  6
CONTINUOUS
  2
*D2
 70
65
 10
0.0
 20
0.0
  3
*D2
  1

  0
LINE
  5
22C
100
AcDbEntity
  8
0
100
AcDbLine
 62
2
  6
CONTINUOUS
 10
10.1155594975
 20
8.4812627667
 11
10.1155594975
 21
9.4937146948
  0
LINE
  5
22D
100
AcDbEntity
  8
0
100
AcDbLine
 62
2
  6
CONTINUOUS
 10
11.1116224896
 20
8.3710265463
 11
11.1116224896
 21
9.4937146948
  0
LINE
  5
22E
100
AcDbEntity
  8
0
100
AcDbLine
 62
2
  6
CONTINUOUS
 10
10.1155594975
 20
9.3687146948
 11
9.6155594975
 21
9.3687146948
  0
LINE
  5
22F
100
AcDbEntity
  8
0
100
AcDbLine
 62
2
  6
CONTINUOUS
 10
11.1116224896
 20
9.3687146948
 11
12.1413623571
 21
9.3687146948
  0
INSERT
  5
230
100
AcDbEntity
  8
0
100
AcDbBlockReference
 62
2
  6
CONTINUOUS
  2
_FILLED
 10
10.1155594975
 20
9.3687146948
 41
0.1875
 42
0.1875
 43
0.1875
  0
INSERT
  5
231
100
AcDbEntity
  8
0
100
AcDbBlockReference
 62
2
  6
CONTINUOUS
  2
_FILLED
 10
11.1116224896
 20
9.3687146948
 41
0.1875
 42
0.1875
 43
0.1875
 50
180.0
  0
ENDBLK
  5
232
100
AcDbEntity
  8
0
  6
BYBLOCK
 62
0
100
AcDbBlockEnd
  0
BLOCK
  5
233
100
AcDbEntity
  8
0
100
AcDbBlockBegin
 62
2
  6
CONTINUOUS
  2
*D3
 70
65
 10
0.0
 20
0.0
  3
*D3
  1

  0
LINE
  5
234
100
AcDbEntity
  8
0
100
AcDbLine
 62
2
  6
CONTINUOUS
 10
18.7269211626
 20
5.0162977524
 11
20.5799502603
 21
4.2271308239
  0
LINE
  5
235
100
AcDbEntity
  8
0
100
AcDbLine
 62
2
  6
CONTINUOUS
 10
20.5799502603
 20
4.2271308239
 11
20.7518252603
 21
4.2271308239
  0
INSERT
  5
236
100
AcDbEntity
  8
0
100
AcDbBlockReference
 62
2
  6
CONTINUOUS
  2
_FILLED
 10
18.7269211626
 20
5.0162977524
 41
0.1875
 42
0.1875
 43
0.1875
 50
156.9318439737
  0
ENDBLK
  5
237
100
AcDbEntity
  8
0
  6
BYBLOCK
 62
0
100
AcDbBlockEnd
  0
BLOCK
  5
238
100
AcDbEntity
  8
0
100
AcDbBlockBegin
 62
2
  6
CONTINUOUS
  2
*D4
 70
65
 10
0.0
 20
0.0
  3
*D4
  1

  0
LINE
  5
239
100
AcDbEntity
  8
0
100
AcDbLine
 62
2
  6
CONTINUOUS
 10
19.8301743528
 20
5.104844552
 11
20.4670310345
 21
4.9704861142
  0
LINE
  5
23A
100
AcDbEntity
  8
0
100
AcDbLine
 62
2
  6
CONTINUOUS
 10
20.4670310345
 20
4.9704861142
 11
20.6389060345
 21
4.9704861142
  0
INSERT
  5
23B
100
AcDbEntity
  8
0
100
AcDbBlockReference
 62
2
  6
CONTINUOUS
  2
_FILLED
 10
19.8301743528
 20
5.104844552
 41
0.1875
 42
0.1875
 43
0.1875
 50
168.0869342934
  0
ENDBLK
  5
23C
100
AcDbEntity
  8
0
  6
BYBLOCK
 62
0
100
AcDbBlockEnd
  0
BLOCK
  5
23D
100
AcDbEntity
  8
0
100
AcDbBlockBegin
 62
2
  6
CONTINUOUS
  2
*D5
 70
65
 10
0.0
 20
0.0
  3
*D5
  1

  0
LINE
  5
23E
100
AcDbEntity
  8
0
100
AcDbLine
 62
2
  6
CONTINUOUS
 10
6.6607499371
 20
8.1842501073
 11
7.3903370345
 21
9.4060583077
  0
LINE
  5
23F
100
AcDbEntity
  8
0
100
AcDbLine
 62
2
  6
CONTINUOUS
 10
7.3903370345
 20
9.4060583077
 11
7.5622120345
 21
9.4060583077
  0
INSERT
  5
240
100
AcDbEntity
  8
0
100
AcDbBlockReference
 62
2
  6
CONTINUOUS
  2
_FILLED
 10
6.6607499371
 20
8.1842501073
 41
0.1875
 42
0.1875
 43
0.1875
 50
239.157004474
  0
ENDBLK
  5
241
100
AcDbEntity
  8
0
  6
BYBLOCK
 62
0
100
AcDbBlockEnd
  0
BLOCK
  5
242
100
AcDbEntity
  8
0
100
AcDbBlockBegin
 62
2
  6
CONTINUOUS
  2
*D6
 70
65
 10
0.0
 20
0.0
  3
*D6
  1

  0
LINE
  5
243
100
AcDbEntity
  8
0
100
AcDbLine
 62
2
  6
CONTINUOUS
 10
1.8519752508
 20
8.1554984104
 11
1.8519752508
 21
9.591408815
  0
LINE
  5
244
100
AcDbEntity
  8
0
100
AcDbLine
 62
2
  6
CONTINUOUS
 10
6.5527626524
 20
8.1335238439
 11
6.5527626524
 21
9.591408815
  0
LINE
  5
245
100
AcDbEntity
  8
0
100
AcDbLine
 62
2
  6
CONTINUOUS
 10
1.8519752508
 20
9.466408815
 11
4.0863640896
 21
9.466408815
  0
LINE
  5
246
100
AcDbEntity
  8
0
100
AcDbLine
 62
2
  6
CONTINUOUS
 10
6.5527626524
 20
9.466408815
 11
5.1176140896
 21
9.466408815
  0
INSERT
  5
247
100
AcDbEntity
  8
0
100
AcDbBlockReference
 62
2
  6
CONTINUOUS
  2
_FILLED
 10
1.8519752508
 20
9.466408815
 41
0.1875
 42
0.1875
 43
0.1875
 50
180.0
  0
INSERT
  5
248
100
AcDbEntity
  8
0
100
AcDbBlockReference
 62
2
  6
CONTINUOUS
  2
_FILLED
 10
6.5527626524
 20
9.466408815
 41
0.1875
 42
0.1875
 43
0.1875
  0
ENDBLK
  5
249
100
AcDbEntity
  8
0
  6
BYBLOCK
 62
0
100
AcDbBlockEnd
  0
BLOCK
  5
24A
100
AcDbEntity
  8
0
100
AcDbBlockBegin
 62
2
  6
CONTINUOUS
  2
*D7
 70
65
 10
0.0
 20
0.0
  3
*D7
  1

  0
LINE
  5
24B
100
AcDbEntity
  8
0
100
AcDbLine
 62
2
  6
CONTINUOUS
 10
6.6262341763
 20
8.003408436
 11
8.2441214595
 21
8.003408436
  0
LINE
  5
24C
100
AcDbEntity
  8
0
100
AcDbLine
 62
2
  6
CONTINUOUS
 10
6.6749902457
 20
3.3026210345
 11
8.2441214595
 21
3.3026210345
  0
LINE
  5
24D
100
AcDbEntity
  8
0
100
AcDbLine
 62
2
  6
CONTINUOUS
 10
8.1191214595
 20
8.003408436
 11
8.1191214595
 21
5.8092647353
  0
LINE
  5
24E
100
AcDbEntity
  8
0
100
AcDbLine
 62
2
  6
CONTINUOUS
 10
8.1191214595
 20
3.3026210345
 11
8.1191214595
 21
5.2623895264
  0
INSERT
  5
24F
100
AcDbEntity
  8
0
100
AcDbBlockReference
 62
2
  6
CONTINUOUS
  2
_FILLED
 10
8.1191214595
 20
8.003408436
 41
0.1875
 42
0.1875
 43
0.1875
 50
90.0
  0
INSERT
  5
250
100
AcDbEntity
  8
0
100
AcDbBlockReference
 62
2
  6
CONTINUOUS
  2
_FILLED
 10
8.1191214595
 20
3.3026210345
 41
0.1875
 42
0.1875
 43
0.1875
 50
270.0
  0
ENDBLK
  5
251
100
AcDbEntity
  8
0
  6
BYBLOCK
 62
0
100
AcDbBlockEnd
  0
BLOCK
  5
252
100
AcDbEntity
  8
0
100
AcDbBlockBegin
 62
2
  6
CONTINUOUS
  2
*D8
 70
65
 10
0.0
 20
0.0
  3
*D8
  1

  0
LINE
  5
253
100
AcDbEntity
  8
0
100
AcDbLine
 62
2
  6
CONTINUOUS
 10
14.407053973
 20
3.2657115856
 11
14.407053973
 21
2.2698903179
  0
LINE
  5
254
100
AcDbEntity
  8
0
100
AcDbLine
 62
2
  6
CONTINUOUS
 10
14.533038225
 20
3.2657115856
 11
14.533038225
 21
2.2698903179
  0
LINE
  5
255
100
AcDbEntity
  8
0
100
AcDbLine
 62
2
  6
CONTINUOUS
 10
14.407053973
 20
2.3948903179
 11
13.4587817197
 21
2.3948903179
  0
LINE
  5
256
100
AcDbEntity
  8
0
100
AcDbLine
 62
2
  6
CONTINUOUS
 10
14.533038225
 20
2.3948903179
 11
15.033038225
 21
2.3948903179
  0
INSERT
  5
257
100
AcDbEntity
  8
0
100
AcDbBlockReference
 62
2
  6
CONTINUOUS
  2
_FILLED
 10
14.407053973
 20
2.3948903179
 41
0.1875
 42
0.1875
 43
0.1875
  0
INSERT
  5
258
100
AcDbEntity
  8
0
100
AcDbBlockReference
 62
2
  6
CONTINUOUS
  2
_FILLED
 10
14.533038225
 20
2.3948903179
 41
0.1875
 42
0.1875
 43
0.1875
 50
180.0
  0
ENDBLK
  5
259
100
AcDbEntity
  8
0
  6
BYBLOCK
 62
0
100
AcDbBlockEnd
  0
ENDSEC
  0
SECTION
  2
ENTITIES
  0
SOLID
  5
25A
100
AcDbEntity
  8
0
100
AcDbTrace
 62
2
  6
CONTINUOUS
 10
4.0488115534
 20
10.1112222756
 11
4.1742677578
 21
10.1112222756
 12
4.0328444001
 22
10.0963956159
 13
4.0328444001
 23
10.0963956159
  0
SOLID
  5
25B
100
AcDbEntity
  8
0
100
AcDbTrace
 62
2
  6
CONTINUOUS
 10
4.0488115534
 20
10.2378190083
 11
4.0488115534
 21
10.1112222756
 12
4.0328444001
 22
10.0963956159
 13
4.0328444001
 23
10.0963956159
  0
SOLID
  5
25C
100
AcDbEntity
  8
0
100
AcDbTrace
 62
2
  6
CONTINUOUS
 10
4.0328444001
 20
10.2537861268
 11
4.190234911
 21
10.2537861268
 12
4.0488115534
 22
10.2378190083
 13
4.0488115534
 23
10.2378190083
  0
SOLID
  5
25D
100
AcDbEntity
  8
0
100
AcDbTrace
 62
2
  6
CONTINUOUS
 10
4.0488115534
 20
10.2378190083
 11
4.0328444001
 21
10.0963956159
 12
4.0328444001
 22
10.2537861268
 13
4.0328444001
 23
10.2537861268
  0
SOLID
  5
25E
100
AcDbEntity
  8
0
100
AcDbTrace
 62
2
  6
CONTINUOUS
 10
4.1742677578
 20
10.2378190083
 11
4.0488115534
 21
10.2378190083
 12
4.190234911
 22
10.2537861268
 13
4.190234911
 23
10.2537861268
  0
SOLID
  5
25F
100
AcDbEntity
  8
0
100
AcDbTrace
 62
2
  6
CONTINUOUS
 10
4.1742677578
 20
10.1112222756
 11
4.1742677578
 21
10.2378190083
 12
4.190234911
 22
10.2537861268
 13
4.190234911
 23
10.2537861268
  0
SOLID
  5
260
100
AcDbEntity
  8
0
100
AcDbTrace
 62
2
  6
CONTINUOUS
 10
4.190234911
 20
10.0963956159
 11
4.0328444001
 21
10.0963956159
 12
4.1742677578
 22
10.1112222756
 13
4.1742677578
 23
10.1112222756
  0
SOLID
  5
261
100
AcDbEntity
  8
0
100
AcDbTrace
 62
2
  6
CONTINUOUS
 10
4.1742677578
 20
10.1112222756
 11
4.190234911
 21
10.2537861268
 12
4.190234911
 22
10.0963956159
 13
4.190234911
 23
10.0963956159
  0
DIMENSION
  5
262
100
AcDbEntity
  8
0
100
AcDbDimension
 62
2
  6
CONTINUOUS
  2
*D0
 10
7.0271721012
 20
10.1745206159
 11
4.0180177578
 21
10.0963956159
 70
160
 71
2
 72
2
 41
0.9
 42
5.6496062992
  1
{\fSymbol_ASME;\W1.0;□}<>\P[]
  3
DIMSTYLE_1
100
AcDbAlignedDimension
 13
1.377565802
 23
7.9778178849
 14
7.0271721012
 24
7.9778178847
100
AcDbRotatedDimension
  0
DIMENSION
  5
263
100
AcDbEntity
  8
0
100
AcDbDimension
 62
2
  6
CONTINUOUS
  2
*D1
 10
0.694755099
 20
2.8282115856
 11
0.257255099
 21
5.6406871916
 70
160
 71
2
 72
2
 41
0.9
 42
6.0905511811
  1
<>\P[]
  3
DIMSTYLE_1
100
AcDbAlignedDimension
 13
2.2830747051
 23
8.9187627667
 14
1.877565802
 24
2.8282115856
 50
270.0
100
AcDbRotatedDimension
  0
DIMENSION
  5
264
100
AcDbEntity
  8
0
100
AcDbDimension
 62
2
  6
CONTINUOUS
  2
*D2
 10
11.1116224896
 20
9.3687146948
 11
12.2194873571
 21
9.2905896948
 70
160
 71
1
 72
2
 41
0.9
 42
0.9960629921
  1
<>\P[]
  3
DIMSTYLE_1
100
AcDbAlignedDimension
 13
10.1155594975
 23
8.4187627667
 14
11.1116224896
 24
8.3085265463
100
AcDbRotatedDimension
  0
SOLID
  5
265
100
AcDbEntity
  8
0
100
AcDbTrace
 62
2
  6
CONTINUOUS
 10
20.9109265377
 20
4.3018343954
 11
20.9211911362
 21
4.302974802
 12
20.9291747129
 22
4.3018343954
 13
20.9291747129
 23
4.3018343954
  0
SOLID
  5
266
100
AcDbEntity
  8
0
100
AcDbTrace
 62
2
  6
CONTINUOUS
 10
20.9291747129
 20
4.3018343954
 11
20.9371582895
 21
4.3006937801
 12
20.9018024501
 22
4.2995532691
 13
20.9018024501
 23
4.2995532691
  0
SOLID
  5
267
100
AcDbEntity
  8
0
100
AcDbTrace
 62
2
  6
CONTINUOUS
 10
20.9291747129
 20
4.3018343954
 11
20.9018024501
 21
4.2995532691
 12
20.9109265377
 22
4.3018343954
 13
20.9109265377
 23
4.3018343954
  0
SOLID
  5
268
100
AcDbEntity
  8
0
100
AcDbTrace
 62
2
  6
CONTINUOUS
 10
20.9018024501
 20
4.2995532691
 11
20.9371582895
 21
4.3006937801
 12
20.9451418662
 22
4.2984127582
 13
20.9451418662
 23
4.2984127582
  0
SOLID
  5
269
100
AcDbEntity
  8
0
100
AcDbTrace
 62
2
  6
CONTINUOUS
 10
20.9451418662
 20
4.2984127582
 11
20.8915378516
 21
4.2961317363
 12
20.9018024501
 22
4.2995532691
 13
20.9018024501
 23
4.2995532691
  0
SOLID
  5
26A
100
AcDbEntity
  8
0
100
AcDbTrace
 62
2
  6
CONTINUOUS
 10
20.8915378516
 20
4.2961317363
 11
20.9451418662
 21
4.2984127582
 12
20.9531254428
 22
4.2961317363
 13
20.9531254428
 23
4.2961317363
  0
SOLID
  5
26B
100
AcDbEntity
  8
0
100
AcDbTrace
 62
2
  6
CONTINUOUS
 10
20.9919028151
 20
4.3337685976
 11
20.9531254428
 21
4.2961317363
 12
20.9793571946
 22
4.3417521742
 13
20.9793571946
 23
4.3417521742
  0
SOLID
  5
26C
100
AcDbEntity
  8
0
100
AcDbTrace
 62
2
  6
CONTINUOUS
 10
20.9531254428
 20
4.2961317363
 11
20.882413764
 21
4.2915696925
 12
20.8915378516
 22
4.2961317363
 13
20.8915378516
 23
4.2961317363
  0
SOLID
  5
26D
100
AcDbEntity
  8
0
100
AcDbTrace
 62
2
  6
CONTINUOUS
 10
20.9656710633
 20
4.2881481596
 11
20.882413764
 21
4.2915696925
 12
20.9531254428
 22
4.2961317363
 13
20.9531254428
 23
4.2961317363
  0
SOLID
  5
26E
100
AcDbEntity
  8
0
100
AcDbTrace
 62
2
  6
CONTINUOUS
 10
20.9531254428
 20
4.2961317363
 11
20.9919028151
 21
4.3337685976
 12
20.9656710633
 22
4.2881481596
 13
20.9656710633
 23
4.2881481596
  0
SOLID
  5
26F
100
AcDbEntity
  8
0
100
AcDbTrace
 62
2
  6
CONTINUOUS
 10
20.9656710633
 20
4.2881481596
 11
20.8744301873
 21
4.2870076139
 12
20.882413764
 22
4.2915696925
 13
20.882413764
 23
4.2915696925
  0
SOLID
  5
270
100
AcDbEntity
  8
0
100
AcDbTrace
 62
2
  6
CONTINUOUS
 10
20.9132075596
 20
4.2870076139
 11
20.8744301873
 21
4.2870076139
 12
20.9656710633
 22
4.2881481596
 13
20.9656710633
 23
4.2881481596
  0
SOLID
  5
271
100
AcDbEntity
  8
0
100
AcDbTrace
 62
2
  6
CONTINUOUS
 10
20.9211911362
 20
4.2870076139
 11
20.9132075596
 21
4.2870076139
 12
20.9656710633
 22
4.2881481596
 13
20.9656710633
 23
4.2881481596
  0
SOLID
  5
272
100
AcDbEntity
  8
0
100
AcDbTrace
 62
2
  6
CONTINUOUS
 10
20.9280342019
 20
4.2870076139
 11
20.9211911362
 21
4.2870076139
 12
20.9656710633
 22
4.2881481596
 13
20.9656710633
 23
4.2881481596
  0
SOLID
  5
273
100
AcDbEntity
  8
0
100
AcDbTrace
 62
2
  6
CONTINUOUS
 10
20.9337367567
 20
4.2858671377
 11
20.9280342019
 21
4.2870076139
 12
20.9656710633
 22
4.2881481596
 13
20.9656710633
 23
4.2881481596
  0
SOLID
  5
274
100
AcDbEntity
  8
0
100
AcDbTrace
 62
2
  6
CONTINUOUS
 10
20.9394393114
 20
4.2847266616
 11
20.9337367567
 21
4.2858671377
 12
20.9656710633
 22
4.2881481596
 13
20.9656710633
 23
4.2881481596
  0
SOLID
  5
275
100
AcDbEntity
  8
0
100
AcDbTrace
 62
2
  6
CONTINUOUS
 10
20.9451418662
 20
4.2824456745
 11
20.9394393114
 21
4.2847266616
 12
20.9656710633
 22
4.2881481596
 13
20.9656710633
 23
4.2881481596
  0
SOLID
  5
276
100
AcDbEntity
  8
0
100
AcDbTrace
 62
2
  6
CONTINUOUS
 10
20.9451418662
 20
4.2824456745
 11
20.9656710633
 21
4.2881481596
 12
20.9736546399
 22
4.2824456745
 13
20.9736546399
 23
4.2824456745
  0
SOLID
  5
277
100
AcDbEntity
  8
0
100
AcDbTrace
 62
2
  6
CONTINUOUS
 10
20.905223983
 20
4.2847266616
 11
20.8983809173
 21
4.2824456745
 12
20.8675871216
 22
4.280164583
 13
20.8675871216
 23
4.280164583
  0
SOLID
  5
278
100
AcDbEntity
  8
0
100
AcDbTrace
 62
2
  6
CONTINUOUS
 10
20.9132075596
 20
4.2870076139
 11
20.905223983
 21
4.2847266616
 12
20.8675871216
 22
4.280164583
 13
20.8675871216
 23
4.280164583
  0
SOLID
  5
279
100
AcDbEntity
  8
0
100
AcDbTrace
 62
2
  6
CONTINUOUS
 10
20.9132075596
 20
4.2870076139
 11
20.8675871216
 21
4.280164583
 12
20.8744301873
 22
4.2870076139
 13
20.8744301873
 23
4.2870076139
  0
SOLID
  5
27A
100
AcDbEntity
  8
0
100
AcDbTrace
 62
2
  6
CONTINUOUS
 10
20.8675871216
 20
4.280164583
 11
20.8983809173
 21
4.2824456745
 12
20.8903973406
 22
4.279024072
 13
20.8903973406
 23
4.279024072
  0
SOLID
  5
27B
100
AcDbEntity
  8
0
100
AcDbTrace
 62
2
  6
CONTINUOUS
 10
20.8903973406
 20
4.279024072
 11
20.8835542749
 21
4.2744620456
 12
20.860744056
 22
4.2721810063
 13
20.860744056
 23
4.2721810063
  0
SOLID
  5
27C
100
AcDbEntity
  8
0
100
AcDbTrace
 62
2
  6
CONTINUOUS
 10
20.8903973406
 20
4.279024072
 11
20.860744056
 21
4.2721810063
 12
20.8675871216
 22
4.280164583
 13
20.8675871216
 23
4.280164583
  0
SOLID
  5
27D
100
AcDbEntity
  8
0
100
AcDbTrace
 62
2
  6
CONTINUOUS
 10
20.860744056
 20
4.2721810063
 11
20.8835542749
 21
4.2744620456
 12
20.8778517202
 22
4.2687593865
 13
20.8778517202
 23
4.2687593865
  0
SOLID
  5
27E
100
AcDbEntity
  8
0
100
AcDbTrace
 62
2
  6
CONTINUOUS
 10
20.9633900414
 20
4.2698999844
 11
20.9588279976
 21
4.2744620456
 12
20.9793571946
 22
4.2756025392
 13
20.9793571946
 23
4.2756025392
  0
SOLID
  5
27F
100
AcDbEntity
  8
0
100
AcDbTrace
 62
2
  6
CONTINUOUS
 10
20.9633900414
 20
4.2698999844
 11
20.9793571946
 21
4.2756025392
 12
20.9850597494
 22
4.2687593865
 13
20.9850597494
 23
4.2687593865
  0
SOLID
  5
280
100
AcDbEntity
  8
0
100
AcDbTrace
 62
2
  6
CONTINUOUS
 10
20.9850597494
 20
4.2687593865
 11
20.9690925961
 21
4.2653379407
 12
20.9633900414
 22
4.2698999844
 13
20.9633900414
 23
4.2698999844
  0
SOLID
  5
281
100
AcDbEntity
  8
0
100
AcDbTrace
 62
2
  6
CONTINUOUS
 10
20.8778517202
 20
4.2687593865
 11
20.8550415012
 21
4.2641974297
 12
20.860744056
 22
4.2721810063
 13
20.860744056
 23
4.2721810063
  0
SOLID
  5
282
100
AcDbEntity
  8
0
100
AcDbTrace
 62
2
  6
CONTINUOUS
 10
20.8550415012
 20
4.2641974297
 11
20.8778517202
 21
4.2687593865
 12
20.8732896764
 22
4.2630569188
 13
20.8732896764
 23
4.2630569188
  0
SOLID
  5
283
100
AcDbEntity
  8
0
100
AcDbTrace
 62
2
  6
CONTINUOUS
 10
20.9690925961
 20
4.2653379407
 11
20.9850597494
 21
4.2687593865
 12
20.9896217932
 22
4.2607758969
 13
20.9896217932
 23
4.2607758969
  0
SOLID
  5
284
100
AcDbEntity
  8
0
100
AcDbTrace
 62
2
  6
CONTINUOUS
 10
20.9896217932
 20
4.2607758969
 11
20.9725141289
 21
4.2596353859
 12
20.9690925961
 22
4.2653379407
 13
20.9690925961
 23
4.2653379407
  0
SOLID
  5
285
100
AcDbEntity
  8
0
100
AcDbTrace
 62
2
  6
CONTINUOUS
 10
20.8732896764
 20
4.2630569188
 11
20.8687276326
 21
4.2562138531
 12
20.8504794574
 22
4.2550733421
 13
20.8504794574
 23
4.2550733421
  0
SOLID
  5
286
100
AcDbEntity
  8
0
100
AcDbTrace
 62
2
  6
CONTINUOUS
 10
20.8732896764
 20
4.2630569188
 11
20.8504794574
 21
4.2550733421
 12
20.8550415012
 22
4.2641974297
 13
20.8550415012
 23
4.2641974297
  0
SOLID
  5
287
100
AcDbEntity
  8
0
100
AcDbTrace
 62
2
  6
CONTINUOUS
 10
20.9759356618
 20
4.252792355
 11
20.9725141289
 21
4.2596353859
 12
20.9896217932
 22
4.2607758969
 13
20.9896217932
 23
4.2607758969
  0
SOLID
  5
288
100
AcDbEntity
  8
0
100
AcDbTrace
 62
2
  6
CONTINUOUS
 10
20.9759356618
 20
4.252792355
 11
20.9896217932
 21
4.2607758969
 12
20.993043326
 22
4.252792355
 13
20.993043326
 23
4.252792355
  0
SOLID
  5
289
100
AcDbEntity
  8
0
100
AcDbTrace
 62
2
  6
CONTINUOUS
 10
20.8504794574
 20
4.2550733421
 11
20.8687276326
 21
4.2562138531
 12
20.8641655888
 22
4.2493707874
 13
20.8641655888
 23
4.2493707874
  0
SOLID
  5
28A
100
AcDbEntity
  8
0
100
AcDbTrace
 62
2
  6
CONTINUOUS
 10
20.993043326
 20
4.252792355
 11
20.9793571946
 21
4.2470897655
 12
20.9759356618
 22
4.252792355
 13
20.9759356618
 23
4.252792355
  0
SOLID
  5
28B
100
AcDbEntity
  8
0
100
AcDbTrace
 62
2
  6
CONTINUOUS
 10
20.8641655888
 20
4.2493707874
 11
20.8470579246
 21
4.2459492545
 12
20.8504794574
 22
4.2550733421
 13
20.8504794574
 23
4.2550733421
  0
SOLID
  5
28C
100
AcDbEntity
  8
0
100
AcDbTrace
 62
2
  6
CONTINUOUS
 10
20.9793571946
 20
4.2470897655
 11
20.993043326
 21
4.252792355
 12
20.9964648589
 22
4.2436682326
 13
20.9964648589
 23
4.2436682326
  0
SOLID
  5
28D
100
AcDbEntity
  8
0
100
AcDbTrace
 62
2
  6
CONTINUOUS
 10
20.8470579246
 20
4.2459492545
 11
20.8641655888
 21
4.2493707874
 12
20.8618845669
 22
4.2413872107
 13
20.8618845669
 23
4.2413872107
  0
SOLID
  5
28E
100
AcDbEntity
  8
0
100
AcDbTrace
 62
2
  6
CONTINUOUS
 10
20.9964648589
 20
4.2436682326
 11
20.9816382165
 21
4.2402466998
 12
20.9793571946
 22
4.2470897655
 13
20.9793571946
 23
4.2470897655
  0
SOLID
  5
28F
100
AcDbEntity
  8
0
100
AcDbTrace
 62
2
  6
CONTINUOUS
 10
20.8618845669
 20
4.2413872107
 11
20.8447769027
 21
4.235684656
 12
20.8470579246
 22
4.2459492545
 13
20.8470579246
 23
4.2459492545
  0
SOLID
  5
290
100
AcDbEntity
  8
0
100
AcDbTrace
 62
2
  6
CONTINUOUS
 10
20.9816382165
 20
4.2402466998
 11
20.9964648589
 21
4.2436682326
 12
20.9976053698
 22
4.234544145
 13
20.9976053698
 23
4.234544145
  0
SOLID
  5
291
100
AcDbEntity
  8
0
100
AcDbTrace
 62
2
  6
CONTINUOUS
 10
20.8447769027
 20
4.235684656
 11
20.8618845669
 21
4.2413872107
 12
20.860744056
 22
4.2334036341
 13
20.860744056
 23
4.2334036341
  0
SOLID
  5
292
100
AcDbEntity
  8
0
100
AcDbTrace
 62
2
  6
CONTINUOUS
 10
20.9976053698
 20
4.234544145
 11
20.9827787275
 21
4.2322631231
 12
20.9816382165
 22
4.2402466998
 13
20.9816382165
 23
4.2402466998
  0
SOLID
  5
293
100
AcDbEntity
  8
0
100
AcDbTrace
 62
2
  6
CONTINUOUS
 10
20.860744056
 20
4.2334036341
 11
20.8447769027
 21
4.2254199965
 12
20.8447769027
 22
4.235684656
 13
20.8447769027
 23
4.235684656
  0
SOLID
  5
294
100
AcDbEntity
  8
0
100
AcDbTrace
 62
2
  6
CONTINUOUS
 10
20.8447769027
 20
4.2254199965
 11
20.860744056
 21
4.2334036341
 12
20.859603545
 22
4.2254199965
 13
20.859603545
 23
4.2254199965
  0
SOLID
  5
295
100
AcDbEntity
  8
0
100
AcDbTrace
 62
2
  6
CONTINUOUS
 10
20.9827787275
 20
4.2254199965
 11
20.9827787275
 21
4.2322631231
 12
20.9976053698
 22
4.234544145
 13
20.9976053698
 23
4.234544145
  0
SOLID
  5
296
100
AcDbEntity
  8
0
100
AcDbTrace
 62
2
  6
CONTINUOUS
 10
20.9827787275
 20
4.2254199965
 11
20.9976053698
 21
4.234544145
 12
20.9976053698
 22
4.2254199965
 13
20.9976053698
 23
4.2254199965
  0
SOLID
  5
297
100
AcDbEntity
  8
0
100
AcDbTrace
 62
2
  6
CONTINUOUS
 10
20.9976053698
 20
4.2254199965
 11
20.9827787275
 21
4.2174364808
 12
20.9827787275
 22
4.2254199965
 13
20.9827787275
 23
4.2254199965
  0
SOLID
  5
298
100
AcDbEntity
  8
0
100
AcDbTrace
 62
2
  6
CONTINUOUS
 10
20.859603545
 20
4.2254199965
 11
20.860744056
 21
4.2185769917
 12
20.8447769027
 22
4.2162959698
 13
20.8447769027
 23
4.2162959698
  0
SOLID
  5
299
100
AcDbEntity
  8
0
100
AcDbTrace
 62
2
  6
CONTINUOUS
 10
20.859603545
 20
4.2254199965
 11
20.8447769027
 21
4.2162959698
 12
20.8447769027
 22
4.2254199965
 13
20.8447769027
 23
4.2254199965
  0
SOLID
  5
29A
100
AcDbEntity
  8
0
100
AcDbTrace
 62
2
  6
CONTINUOUS
 10
20.9827787275
 20
4.2174364808
 11
20.9976053698
 21
4.2254199965
 12
20.9976053698
 22
4.2151554589
 13
20.9976053698
 23
4.2151554589
  0
SOLID
  5
29B
100
AcDbEntity
  8
0
100
AcDbTrace
 62
2
  6
CONTINUOUS
 10
20.8447769027
 20
4.2162959698
 11
20.860744056
 21
4.2185769917
 12
20.8618845669
 22
4.2105934151
 13
20.8618845669
 23
4.2105934151
  0
SOLID
  5
29C
100
AcDbEntity
  8
0
100
AcDbTrace
 62
2
  6
CONTINUOUS
 10
20.9976053698
 20
4.2151554589
 11
20.9804977056
 21
4.2094529042
 12
20.9827787275
 22
4.2174364808
 13
20.9827787275
 23
4.2174364808
  0
SOLID
  5
29D
100
AcDbEntity
  8
0
100
AcDbTrace
 62
2
  6
CONTINUOUS
 10
20.8618845669
 20
4.2105934151
 11
20.8470579246
 21
4.2071718823
 12
20.8447769027
 22
4.2162959698
 13
20.8447769027
 23
4.2162959698
  0
SOLID
  5
29E
100
AcDbEntity
  8
0
100
AcDbTrace
 62
2
  6
CONTINUOUS
 10
20.9804977056
 20
4.2094529042
 11
20.9976053698
 21
4.2151554589
 12
20.9953243479
 22
4.2048908604
 13
20.9953243479
 23
4.2048908604
  0
SOLID
  5
29F
100
AcDbEntity
  8
0
100
AcDbTrace
 62
2
  6
CONTINUOUS
 10
20.8470579246
 20
4.2071718823
 11
20.8618845669
 21
4.2105934151
 12
20.8641655888
 22
4.2037503494
 13
20.8641655888
 23
4.2037503494
  0
SOLID
  5
2A0
100
AcDbEntity
  8
0
100
AcDbTrace
 62
2
  6
CONTINUOUS
 10
20.9953243479
 20
4.2048908604
 11
20.9782166837
 21
4.2014693275
 12
20.9804977056
 22
4.2094529042
 13
20.9804977056
 23
4.2094529042
  0
SOLID
  5
2A1
100
AcDbEntity
  8
0
100
AcDbTrace
 62
2
  6
CONTINUOUS
 10
20.8641655888
 20
4.2037503494
 11
20.8493389465
 21
4.198047873
 12
20.8470579246
 22
4.2071718823
 13
20.8470579246
 23
4.2071718823
  0
SOLID
  5
2A2
100
AcDbEntity
  8
0
100
AcDbTrace
 62
2
  6
CONTINUOUS
 10
20.8493389465
 20
4.198047873
 11
20.8641655888
 21
4.2037503494
 12
20.8664466107
 22
4.198047873
 13
20.8664466107
 23
4.198047873
  0
SOLID
  5
2A3
100
AcDbEntity
  8
0
100
AcDbTrace
 62
2
  6
CONTINUOUS
 10
20.9782166837
 20
4.2014693275
 11
20.9953243479
 21
4.2048908604
 12
20.9919028151
 22
4.1957667728
 13
20.9919028151
 23
4.1957667728
  0
SOLID
  5
2A4
100
AcDbEntity
  8
0
100
AcDbTrace
 62
2
  6
CONTINUOUS
 10
20.9919028151
 20
4.1957667728
 11
20.9747951508
 21
4.1946262618
 12
20.9782166837
 22
4.2014693275
 13
20.9782166837
 23
4.2014693275
  0
SOLID
  5
2A5
100
AcDbEntity
  8
0
100
AcDbTrace
 62
2
  6
CONTINUOUS
 10
20.8664466107
 20
4.198047873
 11
20.8698681435
 21
4.191204729
 12
20.8527604793
 22
4.190064218
 13
20.8527604793
 23
4.190064218
  0
SOLID
  5
2A6
100
AcDbEntity
  8
0
100
AcDbTrace
 62
2
  6
CONTINUOUS
 10
20.8664466107
 20
4.198047873
 11
20.8527604793
 21
4.190064218
 12
20.8493389465
 22
4.198047873
 13
20.8493389465
 23
4.198047873
  0
SOLID
  5
2A7
100
AcDbEntity
  8
0
100
AcDbTrace
 62
2
  6
CONTINUOUS
 10
20.9702331071
 20
4.1877831961
 11
20.9747951508
 21
4.1946262618
 12
20.9919028151
 22
4.1957667728
 13
20.9919028151
 23
4.1957667728
  0
SOLID
  5
2A8
100
AcDbEntity
  8
0
100
AcDbTrace
 62
2
  6
CONTINUOUS
 10
20.9702331071
 20
4.1877831961
 11
20.9919028151
 21
4.1957667728
 12
20.9873407713
 22
4.1866426852
 13
20.9873407713
 23
4.1866426852
  0
SOLID
  5
2A9
100
AcDbEntity
  8
0
100
AcDbTrace
 62
2
  6
CONTINUOUS
 10
20.8527604793
 20
4.190064218
 11
20.8698681435
 21
4.191204729
 12
20.8744301873
 22
4.1855021742
 13
20.8744301873
 23
4.1855021742
  0
SOLID
  5
2AA
100
AcDbEntity
  8
0
100
AcDbTrace
 62
2
  6
CONTINUOUS
 10
20.8744301873
 20
4.1855021742
 11
20.8584630341
 21
4.1820806066
 12
20.8527604793
 22
4.190064218
 13
20.8527604793
 23
4.190064218
  0
SOLID
  5
2AB
100
AcDbEntity
  8
0
100
AcDbTrace
 62
2
  6
CONTINUOUS
 10
20.9873407713
 20
4.1866426852
 11
20.9645305523
 21
4.1820806066
 12
20.9702331071
 22
4.1877831961
 13
20.9702331071
 23
4.1877831961
  0
SOLID
  5
2AC
100
AcDbEntity
  8
0
100
AcDbTrace
 62
2
  6
CONTINUOUS
 10
20.8584630341
 20
4.1820806066
 11
20.8744301873
 21
4.1855021742
 12
20.8789922311
 22
4.1809401304
 13
20.8789922311
 23
4.1809401304
  0
SOLID
  5
2AD
100
AcDbEntity
  8
0
100
AcDbTrace
 62
2
  6
CONTINUOUS
 10
20.9645305523
 20
4.1820806066
 11
20.9873407713
 21
4.1866426852
 12
20.9816382165
 22
4.1786591085
 13
20.9816382165
 23
4.1786591085
  0
SOLID
  5
2AE
100
AcDbEntity
  8
0
100
AcDbTrace
 62
2
  6
CONTINUOUS
 10
20.9736546399
 20
4.2824456745
 11
20.9793571946
 21
4.2756025392
 12
20.9588279976
 22
4.2744620456
 13
20.9588279976
 23
4.2744620456
  0
SOLID
  5
2AF
100
AcDbEntity
  8
0
100
AcDbTrace
 62
2
  6
CONTINUOUS
 10
20.9451418662
 20
4.2824456745
 11
20.9736546399
 21
4.2824456745
 12
20.9588279976
 22
4.2744620456
 13
20.9588279976
 23
4.2744620456
  0
SOLID
  5
2B0
100
AcDbEntity
  8
0
100
AcDbTrace
 62
2
  6
CONTINUOUS
 10
20.9588279976
 20
4.2744620456
 11
20.8846947859
 21
4.1763781737
 12
20.9451418662
 22
4.2824456745
 13
20.9451418662
 23
4.2824456745
  0
SOLID
  5
2B1
100
AcDbEntity
  8
0
100
AcDbTrace
 62
2
  6
CONTINUOUS
 10
20.9816382165
 20
4.1786591085
 11
20.9588279976
 21
4.1763781737
 12
20.9645305523
 22
4.1820806066
 13
20.9645305523
 23
4.1820806066
  0
SOLID
  5
2B2
100
AcDbEntity
  8
0
100
AcDbTrace
 62
2
  6
CONTINUOUS
 10
20.8789922311
 20
4.1809401304
 11
20.8846947859
 21
4.1763781737
 12
20.8630250779
 22
4.1752375757
 13
20.8630250779
 23
4.1752375757
  0
SOLID
  5
2B3
100
AcDbEntity
  8
0
100
AcDbTrace
 62
2
  6
CONTINUOUS
 10
20.8789922311
 20
4.1809401304
 11
20.8630250779
 21
4.1752375757
 12
20.8584630341
 22
4.1820806066
 13
20.8584630341
 23
4.1820806066
  0
SOLID
  5
2B4
100
AcDbEntity
  8
0
100
AcDbTrace
 62
2
  6
CONTINUOUS
 10
20.9519849319
 20
4.1718160428
 11
20.9588279976
 21
4.1763781737
 12
20.9816382165
 22
4.1786591085
 13
20.9816382165
 23
4.1786591085
  0
SOLID
  5
2B5
100
AcDbEntity
  8
0
100
AcDbTrace
 62
2
  6
CONTINUOUS
 10
20.9519849319
 20
4.1718160428
 11
20.9816382165
 21
4.1786591085
 12
20.9759356618
 22
4.1706755319
 13
20.9759356618
 23
4.1706755319
  0
SOLID
  5
2B6
100
AcDbEntity
  8
0
100
AcDbTrace
 62
2
  6
CONTINUOUS
 10
20.8698681435
 20
4.1683945448
 11
20.8630250779
 21
4.1752375757
 12
20.8846947859
 22
4.1763781737
 13
20.8846947859
 23
4.1763781737
  0
SOLID
  5
2B7
100
AcDbEntity
  8
0
100
AcDbTrace
 62
2
  6
CONTINUOUS
 10
20.8972404063
 20
4.1683945448
 11
20.8698681435
 21
4.1683945448
 12
20.8846947859
 22
4.1763781737
 13
20.8846947859
 23
4.1763781737
  0
SOLID
  5
2B8
100
AcDbEntity
  8
0
100
AcDbTrace
 62
2
  6
CONTINUOUS
 10
20.8846947859
 20
4.1763781737
 11
20.9588279976
 21
4.2744620456
 12
20.8972404063
 22
4.1683945448
 13
20.8972404063
 23
4.1683945448
  0
SOLID
  5
2B9
100
AcDbEntity
  8
0
100
AcDbTrace
 62
2
  6
CONTINUOUS
 10
20.9759356618
 20
4.1706755319
 11
20.9451418662
 21
4.1683945448
 12
20.9519849319
 22
4.1718160428
 13
20.9519849319
 23
4.1718160428
  0
SOLID
  5
2BA
100
AcDbEntity
  8
0
100
AcDbTrace
 62
2
  6
CONTINUOUS
 10
20.9371582895
 20
4.1661135751
 11
20.9451418662
 21
4.1683945448
 12
20.9759356618
 22
4.1706755319
 13
20.9759356618
 23
4.1706755319
  0
SOLID
  5
2BB
100
AcDbEntity
  8
0
100
AcDbTrace
 62
2
  6
CONTINUOUS
 10
20.9371582895
 20
4.1661135751
 11
20.9759356618
 21
4.1706755319
 12
20.9679520852
 22
4.1649730903
 13
20.9679520852
 23
4.1649730903
  0
SOLID
  5
2BC
100
AcDbEntity
  8
0
100
AcDbTrace
 62
2
  6
CONTINUOUS
 10
20.9679520852
 20
4.1649730903
 11
20.9291747129
 21
4.1638323705
 12
20.9371582895
 22
4.1661135751
 13
20.9371582895
 23
4.1661135751
  0
SOLID
  5
2BD
100
AcDbEntity
  8
0
100
AcDbTrace
 62
2
  6
CONTINUOUS
 10
20.9211911362
 20
4.1638323705
 11
20.9291747129
 21
4.1638323705
 12
20.8767112092
 22
4.1626919553
 13
20.8767112092
 23
4.1626919553
  0
SOLID
  5
2BE
100
AcDbEntity
  8
0
100
AcDbTrace
 62
2
  6
CONTINUOUS
 10
20.9154885815
 20
4.1638323705
 11
20.9211911362
 21
4.1638323705
 12
20.8767112092
 22
4.1626919553
 13
20.8767112092
 23
4.1626919553
  0
SOLID
  5
2BF
100
AcDbEntity
  8
0
100
AcDbTrace
 62
2
  6
CONTINUOUS
 10
20.9086455158
 20
4.1649730903
 11
20.9154885815
 21
4.1638323705
 12
20.8767112092
 22
4.1626919553
 13
20.8767112092
 23
4.1626919553
  0
SOLID
  5
2C0
100
AcDbEntity
  8
0
100
AcDbTrace
 62
2
  6
CONTINUOUS
 10
20.9029429611
 20
4.1661135751
 11
20.9086455158
 21
4.1649730903
 12
20.8767112092
 22
4.1626919553
 13
20.8767112092
 23
4.1626919553
  0
SOLID
  5
2C1
100
AcDbEntity
  8
0
100
AcDbTrace
 62
2
  6
CONTINUOUS
 10
20.8972404063
 20
4.1683945448
 11
20.9029429611
 21
4.1661135751
 12
20.8767112092
 22
4.1626919553
 13
20.8767112092
 23
4.1626919553
  0
SOLID
  5
2C2
100
AcDbEntity
  8
0
100
AcDbTrace
 62
2
  6
CONTINUOUS
 10
20.8972404063
 20
4.1683945448
 11
20.8767112092
 21
4.1626919553
 12
20.8698681435
 22
4.1683945448
 13
20.8698681435
 23
4.1683945448
  0
SOLID
  5
2C3
100
AcDbEntity
  8
0
100
AcDbTrace
 62
2
  6
CONTINUOUS
 10
20.9599685085
 20
4.1592704224
 11
20.8767112092
 21
4.1626919553
 12
20.9291747129
 22
4.1638323705
 13
20.9291747129
 23
4.1638323705
  0
SOLID
  5
2C4
100
AcDbEntity
  8
0
100
AcDbTrace
 62
2
  6
CONTINUOUS
 10
20.9291747129
 20
4.1638323705
 11
20.9679520852
 21
4.1649730903
 12
20.9599685085
 22
4.1592704224
 13
20.9599685085
 23
4.1592704224
  0
SOLID
  5
2C5
100
AcDbEntity
  8
0
100
AcDbTrace
 62
2
  6
CONTINUOUS
 10
20.8892568297
 20
4.154708483
 11
20.9599685085
 21
4.1592704224
 12
20.9508444209
 22
4.154708483
 13
20.9508444209
 23
4.154708483
  0
SOLID
  5
2C6
100
AcDbEntity
  8
0
100
AcDbTrace
 62
2
  6
CONTINUOUS
 10
20.9508444209
 20
4.154708483
 11
20.8972404063
 21
4.1524273567
 12
20.8892568297
 22
4.154708483
 13
20.8892568297
 23
4.154708483
  0
SOLID
  5
2C7
100
AcDbEntity
  8
0
100
AcDbTrace
 62
2
  6
CONTINUOUS
 10
20.8972404063
 20
4.1524273567
 11
20.9508444209
 21
4.154708483
 12
20.9417203333
 22
4.1512868458
 13
20.9417203333
 23
4.1512868458
  0
SOLID
  5
2C8
100
AcDbEntity
  8
0
100
AcDbTrace
 62
2
  6
CONTINUOUS
 10
20.9417203333
 20
4.1512868458
 11
20.905223983
 21
4.1501463348
 12
20.8972404063
 22
4.1524273567
 13
20.8972404063
 23
4.1524273567
  0
SOLID
  5
2C9
100
AcDbEntity
  8
0
100
AcDbTrace
 62
2
  6
CONTINUOUS
 10
20.9132075596
 20
4.1490058239
 11
20.905223983
 21
4.1501463348
 12
20.9417203333
 22
4.1512868458
 13
20.9417203333
 23
4.1512868458
  0
SOLID
  5
2CA
100
AcDbEntity
  8
0
100
AcDbTrace
 62
2
  6
CONTINUOUS
 10
20.9211911362
 20
4.1490058239
 11
20.9132075596
 21
4.1490058239
 12
20.9417203333
 22
4.1512868458
 13
20.9417203333
 23
4.1512868458
  0
SOLID
  5
2CB
100
AcDbEntity
  8
0
100
AcDbTrace
 62
2
  6
CONTINUOUS
 10
20.9211911362
 20
4.1490058239
 11
20.9417203333
 21
4.1512868458
 12
20.9314557348
 22
4.1490058239
 13
20.9314557348
 23
4.1490058239
  0
SOLID
  5
2CC
100
AcDbEntity
  8
0
100
AcDbTrace
 62
2
  6
CONTINUOUS
 10
20.8767112092
 20
4.1626919553
 11
20.9599685085
 21
4.1592704224
 12
20.8892568297
 22
4.154708483
 13
20.8892568297
 23
4.154708483
  0
SOLID
  5
2CD
100
AcDbEntity
  8
0
100
AcDbTrace
 62
2
  6
CONTINUOUS
 10
20.8892568297
 20
4.154708483
 11
20.8504794574
 21
4.1182120282
 12
20.8767112092
 22
4.1626919553
 13
20.8767112092
 23
4.1626919553
  0
SOLID
  5
2CE
100
AcDbEntity
  8
0
100
AcDbTrace
 62
2
  6
CONTINUOUS
 10
20.8504794574
 20
4.1182120282
 11
20.8892568297
 21
4.154708483
 12
20.8641655888
 22
4.1102284516
 13
20.8641655888
 23
4.1102284516
  0
DIMENSION
  5
2CF
100
AcDbEntity
  8
0
100
AcDbDimension
 62
2
  6
CONTINUOUS
  2
*D3
 10
18.7269211626
 20
5.0162977524
 11
20.8299502603
 21
4.1490058239
 70
163
 71
1
 72
2
 41
0.9
 42
3.25
  1
{\fSymbol_ASME;\W1.0;⌀}<>\P[]
  3
DIMSTYLE_2
100
AcDbDiametricDimension
 15
15.7367930826
 25
6.2897317182
  0
SOLID
  5
2D0
100
AcDbEntity
  8
0
100
AcDbTrace
 62
2
  6
CONTINUOUS
 10
20.7980073119
 20
5.0451896858
 11
20.8082719104
 21
5.0463300923
 12
20.8162554871
 22
5.0451896858
 13
20.8162554871
 23
5.0451896858
  0
SOLID
  5
2D1
100
AcDbEntity
  8
0
100
AcDbTrace
 62
2
  6
CONTINUOUS
 10
20.8162554871
 20
5.0451896858
 11
20.8242390637
 21
5.0440490704
 12
20.7888832243
 22
5.0429085594
 13
20.7888832243
 23
5.0429085594
  0
SOLID
  5
2D2
100
AcDbEntity
  8
0
100
AcDbTrace
 62
2
  6
CONTINUOUS
 10
20.8162554871
 20
5.0451896858
 11
20.7888832243
 21
5.0429085594
 12
20.7980073119
 22
5.0451896858
 13
20.7980073119
 23
5.0451896858
  0
SOLID
  5
2D3
100
AcDbEntity
  8
0
100
AcDbTrace
 62
2
  6
CONTINUOUS
 10
20.7888832243
 20
5.0429085594
 11
20.8242390637
 21
5.0440490704
 12
20.8322226404
 22
5.0417680485
 13
20.8322226404
 23
5.0417680485
  0
SOLID
  5
2D4
100
AcDbEntity
  8
0
100
AcDbTrace
 62
2
  6
CONTINUOUS
 10
20.8322226404
 20
5.0417680485
 11
20.7786186258
 21
5.0394870266
 12
20.7888832243
 22
5.0429085594
 13
20.7888832243
 23
5.0429085594
  0
SOLID
  5
2D5
100
AcDbEntity
  8
0
100
AcDbTrace
 62
2
  6
CONTINUOUS
 10
20.7786186258
 20
5.0394870266
 11
20.8322226404
 21
5.0417680485
 12
20.840206217
 22
5.0394870266
 13
20.840206217
 23
5.0394870266
  0
SOLID
  5
2D6
100
AcDbEntity
  8
0
100
AcDbTrace
 62
2
  6
CONTINUOUS
 10
20.8789835893
 20
5.0771238879
 11
20.840206217
 21
5.0394870266
 12
20.8664379688
 22
5.0851074646
 13
20.8664379688
 23
5.0851074646
  0
SOLID
  5
2D7
100
AcDbEntity
  8
0
100
AcDbTrace
 62
2
  6
CONTINUOUS
 10
20.840206217
 20
5.0394870266
 11
20.7694945382
 21
5.0349249828
 12
20.7786186258
 22
5.0394870266
 13
20.7786186258
 23
5.0394870266
  0
SOLID
  5
2D8
100
AcDbEntity
  8
0
100
AcDbTrace
 62
2
  6
CONTINUOUS
 10
20.8527518374
 20
5.03150345
 11
20.7694945382
 21
5.0349249828
 12
20.840206217
 22
5.0394870266
 13
20.840206217
 23
5.0394870266
  0
SOLID
  5
2D9
100
AcDbEntity
  8
0
100
AcDbTrace
 62
2
  6
CONTINUOUS
 10
20.840206217
 20
5.0394870266
 11
20.8789835893
 21
5.0771238879
 12
20.8527518374
 22
5.03150345
 13
20.8527518374
 23
5.03150345
  0
SOLID
  5
2DA
100
AcDbEntity
  8
0
100
AcDbTrace
 62
2
  6
CONTINUOUS
 10
20.8527518374
 20
5.03150345
 11
20.7615109615
 21
5.0303629042
 12
20.7694945382
 22
5.0349249828
 13
20.7694945382
 23
5.0349249828
  0
SOLID
  5
2DB
100
AcDbEntity
  8
0
100
AcDbTrace
 62
2
  6
CONTINUOUS
 10
20.8002883338
 20
5.0303629042
 11
20.7615109615
 21
5.0303629042
 12
20.8527518374
 22
5.03150345
 13
20.8527518374
 23
5.03150345
  0
SOLID
  5
2DC
100
AcDbEntity
  8
0
100
AcDbTrace
 62
2
  6
CONTINUOUS
 10
20.8082719104
 20
5.0303629042
 11
20.8002883338
 21
5.0303629042
 12
20.8527518374
 22
5.03150345
 13
20.8527518374
 23
5.03150345
  0
SOLID
  5
2DD
100
AcDbEntity
  8
0
100
AcDbTrace
 62
2
  6
CONTINUOUS
 10
20.8151149761
 20
5.0303629042
 11
20.8082719104
 21
5.0303629042
 12
20.8527518374
 22
5.03150345
 13
20.8527518374
 23
5.03150345
  0
SOLID
  5
2DE
100
AcDbEntity
  8
0
100
AcDbTrace
 62
2
  6
CONTINUOUS
 10
20.8208175309
 20
5.0292224281
 11
20.8151149761
 21
5.0303629042
 12
20.8527518374
 22
5.03150345
 13
20.8527518374
 23
5.03150345
  0
SOLID
  5
2DF
100
AcDbEntity
  8
0
100
AcDbTrace
 62
2
  6
CONTINUOUS
 10
20.8265200856
 20
5.0280819519
 11
20.8208175309
 21
5.0292224281
 12
20.8527518374
 22
5.03150345
 13
20.8527518374
 23
5.03150345
  0
SOLID
  5
2E0
100
AcDbEntity
  8
0
100
AcDbTrace
 62
2
  6
CONTINUOUS
 10
20.8322226404
 20
5.0258009648
 11
20.8265200856
 21
5.0280819519
 12
20.8527518374
 22
5.03150345
 13
20.8527518374
 23
5.03150345
  0
SOLID
  5
2E1
100
AcDbEntity
  8
0
100
AcDbTrace
 62
2
  6
CONTINUOUS
 10
20.8322226404
 20
5.0258009648
 11
20.8527518374
 21
5.03150345
 12
20.8607354141
 22
5.0258009648
 13
20.8607354141
 23
5.0258009648
  0
SOLID
  5
2E2
100
AcDbEntity
  8
0
100
AcDbTrace
 62
2
  6
CONTINUOUS
 10
20.7923047572
 20
5.0280819519
 11
20.7854616915
 21
5.0258009648
 12
20.7546678958
 22
5.0235198733
 13
20.7546678958
 23
5.0235198733
  0
SOLID
  5
2E3
100
AcDbEntity
  8
0
100
AcDbTrace
 62
2
  6
CONTINUOUS
 10
20.8002883338
 20
5.0303629042
 11
20.7923047572
 21
5.0280819519
 12
20.7546678958
 22
5.0235198733
 13
20.7546678958
 23
5.0235198733
  0
SOLID
  5
2E4
100
AcDbEntity
  8
0
100
AcDbTrace
 62
2
  6
CONTINUOUS
 10
20.8002883338
 20
5.0303629042
 11
20.7546678958
 21
5.0235198733
 12
20.7615109615
 22
5.0303629042
 13
20.7615109615
 23
5.0303629042
  0
SOLID
  5
2E5
100
AcDbEntity
  8
0
100
AcDbTrace
 62
2
  6
CONTINUOUS
 10
20.7546678958
 20
5.0235198733
 11
20.7854616915
 21
5.0258009648
 12
20.7774781148
 22
5.0223793624
 13
20.7774781148
 23
5.0223793624
  0
SOLID
  5
2E6
100
AcDbEntity
  8
0
100
AcDbTrace
 62
2
  6
CONTINUOUS
 10
20.7774781148
 20
5.0223793624
 11
20.7706350491
 21
5.017817336
 12
20.7478248302
 22
5.0155362967
 13
20.7478248302
 23
5.0155362967
  0
SOLID
  5
2E7
100
AcDbEntity
  8
0
100
AcDbTrace
 62
2
  6
CONTINUOUS
 10
20.7774781148
 20
5.0223793624
 11
20.7478248302
 21
5.0155362967
 12
20.7546678958
 22
5.0235198733
 13
20.7546678958
 23
5.0235198733
  0
SOLID
  5
2E8
100
AcDbEntity
  8
0
100
AcDbTrace
 62
2
  6
CONTINUOUS
 10
20.7478248302
 20
5.0155362967
 11
20.7706350491
 21
5.017817336
 12
20.7649324944
 22
5.0121146768
 13
20.7649324944
 23
5.0121146768
  0
SOLID
  5
2E9
100
AcDbEntity
  8
0
100
AcDbTrace
 62
2
  6
CONTINUOUS
 10
20.8504708156
 20
5.0132552748
 11
20.8459087718
 21
5.017817336
 12
20.8664379688
 22
5.0189578295
 13
20.8664379688
 23
5.0189578295
  0
SOLID
  5
2EA
100
AcDbEntity
  8
0
100
AcDbTrace
 62
2
  6
CONTINUOUS
 10
20.8504708156
 20
5.0132552748
 11
20.8664379688
 21
5.0189578295
 12
20.8721405236
 22
5.0121146768
 13
20.8721405236
 23
5.0121146768
  0
SOLID
  5
2EB
100
AcDbEntity
  8
0
100
AcDbTrace
 62
2
  6
CONTINUOUS
 10
20.8721405236
 20
5.0121146768
 11
20.8561733703
 21
5.008693231
 12
20.8504708156
 22
5.0132552748
 13
20.8504708156
 23
5.0132552748
  0
SOLID
  5
2EC
100
AcDbEntity
  8
0
100
AcDbTrace
 62
2
  6
CONTINUOUS
 10
20.7649324944
 20
5.0121146768
 11
20.7421222754
 21
5.00755272
 12
20.7478248302
 22
5.0155362967
 13
20.7478248302
 23
5.0155362967
  0
SOLID
  5
2ED
100
AcDbEntity
  8
0
100
AcDbTrace
 62
2
  6
CONTINUOUS
 10
20.7421222754
 20
5.00755272
 11
20.7649324944
 21
5.0121146768
 12
20.7603704506
 22
5.0064122091
 13
20.7603704506
 23
5.0064122091
  0
SOLID
  5
2EE
100
AcDbEntity
  8
0
100
AcDbTrace
 62
2
  6
CONTINUOUS
 10
20.8561733703
 20
5.008693231
 11
20.8721405236
 21
5.0121146768
 12
20.8767025674
 22
5.0041311872
 13
20.8767025674
 23
5.0041311872
  0
SOLID
  5
2EF
100
AcDbEntity
  8
0
100
AcDbTrace
 62
2
  6
CONTINUOUS
 10
20.8767025674
 20
5.0041311872
 11
20.8595949031
 21
5.0029906762
 12
20.8561733703
 22
5.008693231
 13
20.8561733703
 23
5.008693231
  0
SOLID
  5
2F0
100
AcDbEntity
  8
0
100
AcDbTrace
 62
2
  6
CONTINUOUS
 10
20.7603704506
 20
5.0064122091
 11
20.7558084068
 21
4.9995691434
 12
20.7375602316
 22
4.9984286324
 13
20.7375602316
 23
4.9984286324
  0
SOLID
  5
2F1
100
AcDbEntity
  8
0
100
AcDbTrace
 62
2
  6
CONTINUOUS
 10
20.7603704506
 20
5.0064122091
 11
20.7375602316
 21
4.9984286324
 12
20.7421222754
 22
5.00755272
 13
20.7421222754
 23
5.00755272
  0
SOLID
  5
2F2
100
AcDbEntity
  8
0
100
AcDbTrace
 62
2
  6
CONTINUOUS
 10
20.863016436
 20
4.9961476453
 11
20.8595949031
 21
5.0029906762
 12
20.8767025674
 22
5.0041311872
 13
20.8767025674
 23
5.0041311872
  0
SOLID
  5
2F3
100
AcDbEntity
  8
0
100
AcDbTrace
 62
2
  6
CONTINUOUS
 10
20.863016436
 20
4.9961476453
 11
20.8767025674
 21
5.0041311872
 12
20.8801241002
 22
4.9961476453
 13
20.8801241002
 23
4.9961476453
  0
SOLID
  5
2F4
100
AcDbEntity
  8
0
100
AcDbTrace
 62
2
  6
CONTINUOUS
 10
20.7375602316
 20
4.9984286324
 11
20.7558084068
 21
4.9995691434
 12
20.751246363
 22
4.9927260777
 13
20.751246363
 23
4.9927260777
  0
SOLID
  5
2F5
100
AcDbEntity
  8
0
100
AcDbTrace
 62
2
  6
CONTINUOUS
 10
20.8801241002
 20
4.9961476453
 11
20.8664379688
 21
4.9904450558
 12
20.863016436
 22
4.9961476453
 13
20.863016436
 23
4.9961476453
  0
SOLID
  5
2F6
100
AcDbEntity
  8
0
100
AcDbTrace
 62
2
  6
CONTINUOUS
 10
20.751246363
 20
4.9927260777
 11
20.7341386988
 21
4.9893045448
 12
20.7375602316
 22
4.9984286324
 13
20.7375602316
 23
4.9984286324
  0
SOLID
  5
2F7
100
AcDbEntity
  8
0
100
AcDbTrace
 62
2
  6
CONTINUOUS
 10
20.8664379688
 20
4.9904450558
 11
20.8801241002
 21
4.9961476453
 12
20.8835456331
 22
4.9870235229
 13
20.8835456331
 23
4.9870235229
  0
SOLID
  5
2F8
100
AcDbEntity
  8
0
100
AcDbTrace
 62
2
  6
CONTINUOUS
 10
20.7341386988
 20
4.9893045448
 11
20.751246363
 21
4.9927260777
 12
20.7489653411
 22
4.984742501
 13
20.7489653411
 23
4.984742501
  0
SOLID
  5
2F9
100
AcDbEntity
  8
0
100
AcDbTrace
 62
2
  6
CONTINUOUS
 10
20.8835456331
 20
4.9870235229
 11
20.8687189907
 21
4.9836019901
 12
20.8664379688
 22
4.9904450558
 13
20.8664379688
 23
4.9904450558
  0
SOLID
  5
2FA
100
AcDbEntity
  8
0
100
AcDbTrace
 62
2
  6
CONTINUOUS
 10
20.7489653411
 20
4.984742501
 11
20.7318576769
 21
4.9790399463
 12
20.7341386988
 22
4.9893045448
 13
20.7341386988
 23
4.9893045448
  0
SOLID
  5
2FB
100
AcDbEntity
  8
0
100
AcDbTrace
 62
2
  6
CONTINUOUS
 10
20.8687189907
 20
4.9836019901
 11
20.8835456331
 21
4.9870235229
 12
20.884686144
 22
4.9778994354
 13
20.884686144
 23
4.9778994354
  0
SOLID
  5
2FC
100
AcDbEntity
  8
0
100
AcDbTrace
 62
2
  6
CONTINUOUS
 10
20.7318576769
 20
4.9790399463
 11
20.7489653411
 21
4.984742501
 12
20.7478248302
 22
4.9767589244
 13
20.7478248302
 23
4.9767589244
  0
SOLID
  5
2FD
100
AcDbEntity
  8
0
100
AcDbTrace
 62
2
  6
CONTINUOUS
 10
20.884686144
 20
4.9778994354
 11
20.8698595017
 21
4.9756184135
 12
20.8687189907
 22
4.9836019901
 13
20.8687189907
 23
4.9836019901
  0
SOLID
  5
2FE
100
AcDbEntity
  8
0
100
AcDbTrace
 62
2
  6
CONTINUOUS
 10
20.7478248302
 20
4.9767589244
 11
20.7318576769
 21
4.9687752869
 12
20.7318576769
 22
4.9790399463
 13
20.7318576769
 23
4.9790399463
  0
SOLID
  5
2FF
100
AcDbEntity
  8
0
100
AcDbTrace
 62
2
  6
CONTINUOUS
 10
20.7318576769
 20
4.9687752869
 11
20.7478248302
 21
4.9767589244
 12
20.7466843192
 22
4.9687752869
 13
20.7466843192
 23
4.9687752869
  0
SOLID
  5
300
100
AcDbEntity
  8
0
100
AcDbTrace
 62
2
  6
CONTINUOUS
 10
20.8698595017
 20
4.9687752869
 11
20.8698595017
 21
4.9756184135
 12
20.884686144
 22
4.9778994354
 13
20.884686144
 23
4.9778994354
  0
SOLID
  5
301
100
AcDbEntity
  8
0
100
AcDbTrace
 62
2
  6
CONTINUOUS
 10
20.8698595017
 20
4.9687752869
 11
20.884686144
 21
4.9778994354
 12
20.884686144
 22
4.9687752869
 13
20.884686144
 23
4.9687752869
  0
SOLID
  5
302
100
AcDbEntity
  8
0
100
AcDbTrace
 62
2
  6
CONTINUOUS
 10
20.884686144
 20
4.9687752869
 11
20.8698595017
 21
4.9607917711
 12
20.8698595017
 22
4.9687752869
 13
20.8698595017
 23
4.9687752869
  0
SOLID
  5
303
100
AcDbEntity
  8
0
100
AcDbTrace
 62
2
  6
CONTINUOUS
 10
20.7466843192
 20
4.9687752869
 11
20.7478248302
 21
4.9619322821
 12
20.7318576769
 22
4.9596512602
 13
20.7318576769
 23
4.9596512602
  0
SOLID
  5
304
100
AcDbEntity
  8
0
100
AcDbTrace
 62
2
  6
CONTINUOUS
 10
20.7466843192
 20
4.9687752869
 11
20.7318576769
 21
4.9596512602
 12
20.7318576769
 22
4.9687752869
 13
20.7318576769
 23
4.9687752869
  0
SOLID
  5
305
100
AcDbEntity
  8
0
100
AcDbTrace
 62
2
  6
CONTINUOUS
 10
20.8698595017
 20
4.9607917711
 11
20.884686144
 21
4.9687752869
 12
20.884686144
 22
4.9585107492
 13
20.884686144
 23
4.9585107492
  0
SOLID
  5
306
100
AcDbEntity
  8
0
100
AcDbTrace
 62
2
  6
CONTINUOUS
 10
20.7318576769
 20
4.9596512602
 11
20.7478248302
 21
4.9619322821
 12
20.7489653411
 22
4.9539487054
 13
20.7489653411
 23
4.9539487054
  0
SOLID
  5
307
100
AcDbEntity
  8
0
100
AcDbTrace
 62
2
  6
CONTINUOUS
 10
20.884686144
 20
4.9585107492
 11
20.8675784798
 21
4.9528081945
 12
20.8698595017
 22
4.9607917711
 13
20.8698595017
 23
4.9607917711
  0
SOLID
  5
308
100
AcDbEntity
  8
0
100
AcDbTrace
 62
2
  6
CONTINUOUS
 10
20.7489653411
 20
4.9539487054
 11
20.7341386988
 21
4.9505271726
 12
20.7318576769
 22
4.9596512602
 13
20.7318576769
 23
4.9596512602
  0
SOLID
  5
309
100
AcDbEntity
  8
0
100
AcDbTrace
 62
2
  6
CONTINUOUS
 10
20.8675784798
 20
4.9528081945
 11
20.884686144
 21
4.9585107492
 12
20.8824051221
 22
4.9482461507
 13
20.8824051221
 23
4.9482461507
  0
SOLID
  5
30A
100
AcDbEntity
  8
0
100
AcDbTrace
 62
2
  6
CONTINUOUS
 10
20.7341386988
 20
4.9505271726
 11
20.7489653411
 21
4.9539487054
 12
20.751246363
 22
4.9471056397
 13
20.751246363
 23
4.9471056397
  0
SOLID
  5
30B
100
AcDbEntity
  8
0
100
AcDbTrace
 62
2
  6
CONTINUOUS
 10
20.8824051221
 20
4.9482461507
 11
20.8652974579
 21
4.9448246178
 12
20.8675784798
 22
4.9528081945
 13
20.8675784798
 23
4.9528081945
  0
SOLID
  5
30C
100
AcDbEntity
  8
0
100
AcDbTrace
 62
2
  6
CONTINUOUS
 10
20.751246363
 20
4.9471056397
 11
20.7364197207
 21
4.9414031633
 12
20.7341386988
 22
4.9505271726
 13
20.7341386988
 23
4.9505271726
  0
SOLID
  5
30D
100
AcDbEntity
  8
0
100
AcDbTrace
 62
2
  6
CONTINUOUS
 10
20.7364197207
 20
4.9414031633
 11
20.751246363
 21
4.9471056397
 12
20.7535273849
 22
4.9414031633
 13
20.7535273849
 23
4.9414031633
  0
SOLID
  5
30E
100
AcDbEntity
  8
0
100
AcDbTrace
 62
2
  6
CONTINUOUS
 10
20.8652974579
 20
4.9448246178
 11
20.8824051221
 21
4.9482461507
 12
20.8789835893
 22
4.9391220631
 13
20.8789835893
 23
4.9391220631
  0
SOLID
  5
30F
100
AcDbEntity
  8
0
100
AcDbTrace
 62
2
  6
CONTINUOUS
 10
20.8789835893
 20
4.9391220631
 11
20.861875925
 21
4.9379815521
 12
20.8652974579
 22
4.9448246178
 13
20.8652974579
 23
4.9448246178
  0
SOLID
  5
310
100
AcDbEntity
  8
0
100
AcDbTrace
 62
2
  6
CONTINUOUS
 10
20.7535273849
 20
4.9414031633
 11
20.7569489177
 21
4.9345600193
 12
20.7398412535
 22
4.9334195083
 13
20.7398412535
 23
4.9334195083
  0
SOLID
  5
311
100
AcDbEntity
  8
0
100
AcDbTrace
 62
2
  6
CONTINUOUS
 10
20.7535273849
 20
4.9414031633
 11
20.7398412535
 21
4.9334195083
 12
20.7364197207
 22
4.9414031633
 13
20.7364197207
 23
4.9414031633
  0
SOLID
  5
312
100
AcDbEntity
  8
0
100
AcDbTrace
 62
2
  6
CONTINUOUS
 10
20.8573138812
 20
4.9311384864
 11
20.861875925
 21
4.9379815521
 12
20.8789835893
 22
4.9391220631
 13
20.8789835893
 23
4.9391220631
  0
SOLID
  5
313
100
AcDbEntity
  8
0
100
AcDbTrace
 62
2
  6
CONTINUOUS
 10
20.8573138812
 20
4.9311384864
 11
20.8789835893
 21
4.9391220631
 12
20.8744215455
 22
4.9299979755
 13
20.8744215455
 23
4.9299979755
  0
SOLID
  5
314
100
AcDbEntity
  8
0
100
AcDbTrace
 62
2
  6
CONTINUOUS
 10
20.7398412535
 20
4.9334195083
 11
20.7569489177
 21
4.9345600193
 12
20.7615109615
 22
4.9288574646
 13
20.7615109615
 23
4.9288574646
  0
SOLID
  5
315
100
AcDbEntity
  8
0
100
AcDbTrace
 62
2
  6
CONTINUOUS
 10
20.7615109615
 20
4.9288574646
 11
20.7455438083
 21
4.9254358969
 12
20.7398412535
 22
4.9334195083
 13
20.7398412535
 23
4.9334195083
  0
SOLID
  5
316
100
AcDbEntity
  8
0
100
AcDbTrace
 62
2
  6
CONTINUOUS
 10
20.8744215455
 20
4.9299979755
 11
20.8516113265
 21
4.9254358969
 12
20.8573138812
 22
4.9311384864
 13
20.8573138812
 23
4.9311384864
  0
SOLID
  5
317
100
AcDbEntity
  8
0
100
AcDbTrace
 62
2
  6
CONTINUOUS
 10
20.7455438083
 20
4.9254358969
 11
20.7615109615
 21
4.9288574646
 12
20.7660730053
 22
4.9242954208
 13
20.7660730053
 23
4.9242954208
  0
SOLID
  5
318
100
AcDbEntity
  8
0
100
AcDbTrace
 62
2
  6
CONTINUOUS
 10
20.8516113265
 20
4.9254358969
 11
20.8744215455
 21
4.9299979755
 12
20.8687189907
 22
4.9220143989
 13
20.8687189907
 23
4.9220143989
  0
SOLID
  5
319
100
AcDbEntity
  8
0
100
AcDbTrace
 62
2
  6
CONTINUOUS
 10
20.8607354141
 20
5.0258009648
 11
20.8664379688
 21
5.0189578295
 12
20.8459087718
 22
5.017817336
 13
20.8459087718
 23
5.017817336
  0
SOLID
  5
31A
100
AcDbEntity
  8
0
100
AcDbTrace
 62
2
  6
CONTINUOUS
 10
20.8322226404
 20
5.0258009648
 11
20.8607354141
 21
5.0258009648
 12
20.8459087718
 22
5.017817336
 13
20.8459087718
 23
5.017817336
  0
SOLID
  5
31B
100
AcDbEntity
  8
0
100
AcDbTrace
 62
2
  6
CONTINUOUS
 10
20.8459087718
 20
5.017817336
 11
20.7717755601
 21
4.919733464
 12
20.8322226404
 22
5.0258009648
 13
20.8322226404
 23
5.0258009648
  0
SOLID
  5
31C
100
AcDbEntity
  8
0
100
AcDbTrace
 62
2
  6
CONTINUOUS
 10
20.8687189907
 20
4.9220143989
 11
20.8459087718
 21
4.919733464
 12
20.8516113265
 22
4.9254358969
 13
20.8516113265
 23
4.9254358969
  0
SOLID
  5
31D
100
AcDbEntity
  8
0
100
AcDbTrace
 62
2
  6
CONTINUOUS
 10
20.7660730053
 20
4.9242954208
 11
20.7717755601
 21
4.919733464
 12
20.750105852
 22
4.918592866
 13
20.750105852
 23
4.918592866
  0
SOLID
  5
31E
100
AcDbEntity
  8
0
100
AcDbTrace
 62
2
  6
CONTINUOUS
 10
20.7660730053
 20
4.9242954208
 11
20.750105852
 21
4.918592866
 12
20.7455438083
 22
4.9254358969
 13
20.7455438083
 23
4.9254358969
  0
SOLID
  5
31F
100
AcDbEntity
  8
0
100
AcDbTrace
 62
2
  6
CONTINUOUS
 10
20.8390657061
 20
4.9151713332
 11
20.8459087718
 21
4.919733464
 12
20.8687189907
 22
4.9220143989
 13
20.8687189907
 23
4.9220143989
  0
SOLID
  5
320
100
AcDbEntity
  8
0
100
AcDbTrace
 62
2
  6
CONTINUOUS
 10
20.8390657061
 20
4.9151713332
 11
20.8687189907
 21
4.9220143989
 12
20.863016436
 22
4.9140308222
 13
20.863016436
 23
4.9140308222
  0
SOLID
  5
321
100
AcDbEntity
  8
0
100
AcDbTrace
 62
2
  6
CONTINUOUS
 10
20.7569489177
 20
4.9117498351
 11
20.750105852
 21
4.918592866
 12
20.7717755601
 22
4.919733464
 13
20.7717755601
 23
4.919733464
  0
SOLID
  5
322
100
AcDbEntity
  8
0
100
AcDbTrace
 62
2
  6
CONTINUOUS
 10
20.7843211805
 20
4.9117498351
 11
20.7569489177
 21
4.9117498351
 12
20.7717755601
 22
4.919733464
 13
20.7717755601
 23
4.919733464
  0
SOLID
  5
323
100
AcDbEntity
  8
0
100
AcDbTrace
 62
2
  6
CONTINUOUS
 10
20.7717755601
 20
4.919733464
 11
20.8459087718
 21
5.017817336
 12
20.7843211805
 22
4.9117498351
 13
20.7843211805
 23
4.9117498351
  0
SOLID
  5
324
100
AcDbEntity
  8
0
100
AcDbTrace
 62
2
  6
CONTINUOUS
 10
20.863016436
 20
4.9140308222
 11
20.8322226404
 21
4.9117498351
 12
20.8390657061
 22
4.9151713332
 13
20.8390657061
 23
4.9151713332
  0
SOLID
  5
325
100
AcDbEntity
  8
0
100
AcDbTrace
 62
2
  6
CONTINUOUS
 10
20.8242390637
 20
4.9094688654
 11
20.8322226404
 21
4.9117498351
 12
20.863016436
 22
4.9140308222
 13
20.863016436
 23
4.9140308222
  0
SOLID
  5
326
100
AcDbEntity
  8
0
100
AcDbTrace
 62
2
  6
CONTINUOUS
 10
20.8242390637
 20
4.9094688654
 11
20.863016436
 21
4.9140308222
 12
20.8550328593
 22
4.9083283806
 13
20.8550328593
 23
4.9083283806
  0
SOLID
  5
327
100
AcDbEntity
  8
0
100
AcDbTrace
 62
2
  6
CONTINUOUS
 10
20.8550328593
 20
4.9083283806
 11
20.8162554871
 21
4.9071876608
 12
20.8242390637
 22
4.9094688654
 13
20.8242390637
 23
4.9094688654
  0
SOLID
  5
328
100
AcDbEntity
  8
0
100
AcDbTrace
 62
2
  6
CONTINUOUS
 10
20.8082719104
 20
4.9071876608
 11
20.8162554871
 21
4.9071876608
 12
20.7637919834
 22
4.9060472456
 13
20.7637919834
 23
4.9060472456
  0
SOLID
  5
329
100
AcDbEntity
  8
0
100
AcDbTrace
 62
2
  6
CONTINUOUS
 10
20.8025693557
 20
4.9071876608
 11
20.8082719104
 21
4.9071876608
 12
20.7637919834
 22
4.9060472456
 13
20.7637919834
 23
4.9060472456
  0
SOLID
  5
32A
100
AcDbEntity
  8
0
100
AcDbTrace
 62
2
  6
CONTINUOUS
 10
20.79572629
 20
4.9083283806
 11
20.8025693557
 21
4.9071876608
 12
20.7637919834
 22
4.9060472456
 13
20.7637919834
 23
4.9060472456
  0
SOLID
  5
32B
100
AcDbEntity
  8
0
100
AcDbTrace
 62
2
  6
CONTINUOUS
 10
20.7900237353
 20
4.9094688654
 11
20.79572629
 21
4.9083283806
 12
20.7637919834
 22
4.9060472456
 13
20.7637919834
 23
4.9060472456
  0
SOLID
  5
32C
100
AcDbEntity
  8
0
100
AcDbTrace
 62
2
  6
CONTINUOUS
 10
20.7843211805
 20
4.9117498351
 11
20.7900237353
 21
4.9094688654
 12
20.7637919834
 22
4.9060472456
 13
20.7637919834
 23
4.9060472456
  0
SOLID
  5
32D
100
AcDbEntity
  8
0
100
AcDbTrace
 62
2
  6
CONTINUOUS
 10
20.7843211805
 20
4.9117498351
 11
20.7637919834
 21
4.9060472456
 12
20.7569489177
 22
4.9117498351
 13
20.7569489177
 23
4.9117498351
  0
SOLID
  5
32E
100
AcDbEntity
  8
0
100
AcDbTrace
 62
2
  6
CONTINUOUS
 10
20.8470492827
 20
4.9026257127
 11
20.7637919834
 21
4.9060472456
 12
20.8162554871
 22
4.9071876608
 13
20.8162554871
 23
4.9071876608
  0
SOLID
  5
32F
100
AcDbEntity
  8
0
100
AcDbTrace
 62
2
  6
CONTINUOUS
 10
20.8162554871
 20
4.9071876608
 11
20.8550328593
 21
4.9083283806
 12
20.8470492827
 22
4.9026257127
 13
20.8470492827
 23
4.9026257127
  0
SOLID
  5
330
100
AcDbEntity
  8
0
100
AcDbTrace
 62
2
  6
CONTINUOUS
 10
20.7763376039
 20
4.8980637733
 11
20.8470492827
 21
4.9026257127
 12
20.8379251951
 22
4.8980637733
 13
20.8379251951
 23
4.8980637733
  0
SOLID
  5
331
100
AcDbEntity
  8
0
100
AcDbTrace
 62
2
  6
CONTINUOUS
 10
20.8379251951
 20
4.8980637733
 11
20.7843211805
 21
4.895782647
 12
20.7763376039
 22
4.8980637733
 13
20.7763376039
 23
4.8980637733
  0
SOLID
  5
332
100
AcDbEntity
  8
0
100
AcDbTrace
 62
2
  6
CONTINUOUS
 10
20.7843211805
 20
4.895782647
 11
20.8379251951
 21
4.8980637733
 12
20.8288011075
 22
4.8946421361
 13
20.8288011075
 23
4.8946421361
  0
SOLID
  5
333
100
AcDbEntity
  8
0
100
AcDbTrace
 62
2
  6
CONTINUOUS
 10
20.8288011075
 20
4.8946421361
 11
20.7923047572
 21
4.8935016251
 12
20.7843211805
 22
4.895782647
 13
20.7843211805
 23
4.895782647
  0
SOLID
  5
334
100
AcDbEntity
  8
0
100
AcDbTrace
 62
2
  6
CONTINUOUS
 10
20.8002883338
 20
4.8923611142
 11
20.7923047572
 21
4.8935016251
 12
20.8288011075
 22
4.8946421361
 13
20.8288011075
 23
4.8946421361
  0
SOLID
  5
335
100
AcDbEntity
  8
0
100
AcDbTrace
 62
2
  6
CONTINUOUS
 10
20.8082719104
 20
4.8923611142
 11
20.8002883338
 21
4.8923611142
 12
20.8288011075
 22
4.8946421361
 13
20.8288011075
 23
4.8946421361
  0
SOLID
  5
336
100
AcDbEntity
  8
0
100
AcDbTrace
 62
2
  6
CONTINUOUS
 10
20.8082719104
 20
4.8923611142
 11
20.8288011075
 21
4.8946421361
 12
20.818536509
 22
4.8923611142
 13
20.818536509
 23
4.8923611142
  0
SOLID
  5
337
100
AcDbEntity
  8
0
100
AcDbTrace
 62
2
  6
CONTINUOUS
 10
20.7637919834
 20
4.9060472456
 11
20.8470492827
 21
4.9026257127
 12
20.7763376039
 22
4.8980637733
 13
20.7763376039
 23
4.8980637733
  0
SOLID
  5
338
100
AcDbEntity
  8
0
100
AcDbTrace
 62
2
  6
CONTINUOUS
 10
20.7763376039
 20
4.8980637733
 11
20.7375602316
 21
4.8615673186
 12
20.7637919834
 22
4.9060472456
 13
20.7637919834
 23
4.9060472456
  0
SOLID
  5
339
100
AcDbEntity
  8
0
100
AcDbTrace
 62
2
  6
CONTINUOUS
 10
20.7375602316
 20
4.8615673186
 11
20.7763376039
 21
4.8980637733
 12
20.751246363
 22
4.8535837419
 13
20.751246363
 23
4.8535837419
  0
DIMENSION
  5
33A
100
AcDbEntity
  8
0
100
AcDbDimension
 62
2
  6
CONTINUOUS
  2
*D4
 10
19.8301743528
 20
5.104844552
 11
20.7170310345
 21
4.8923611142
 70
163
 71
1
 72
2
 41
0.9
 42
5.311023622
  1
{\fSymbol_ASME;\W1.0;⌀}<>\P[]
  3
DIMSTYLE_2
100
AcDbDiametricDimension
 15
14.6335398924
 25
6.2011849185
  0
SOLID
  5
33B
100
AcDbEntity
  8
0
100
AcDbTrace
 62
2
  6
CONTINUOUS
 10
7.7213133119
 20
9.4807618793
 11
7.7315779104
 21
9.4819022858
 12
7.7395614871
 22
9.4807618793
 13
7.7395614871
 23
9.4807618793
  0
SOLID
  5
33C
100
AcDbEntity
  8
0
100
AcDbTrace
 62
2
  6
CONTINUOUS
 10
7.7395614871
 20
9.4807618793
 11
7.7475450637
 21
9.4796212639
 12
7.7121892243
 22
9.478480753
 13
7.7121892243
 23
9.478480753
  0
SOLID
  5
33D
100
AcDbEntity
  8
0
100
AcDbTrace
 62
2
  6
CONTINUOUS
 10
7.7395614871
 20
9.4807618793
 11
7.7121892243
 21
9.478480753
 12
7.7213133119
 22
9.4807618793
 13
7.7213133119
 23
9.4807618793
  0
SOLID
  5
33E
100
AcDbEntity
  8
0
100
AcDbTrace
 62
2
  6
CONTINUOUS
 10
7.7121892243
 20
9.478480753
 11
7.7475450637
 21
9.4796212639
 12
7.7555286404
 22
9.477340242
 13
7.7555286404
 23
9.477340242
  0
SOLID
  5
33F
100
AcDbEntity
  8
0
100
AcDbTrace
 62
2
  6
CONTINUOUS
 10
7.7555286404
 20
9.477340242
 11
7.7019246258
 21
9.4750592201
 12
7.7121892243
 22
9.478480753
 13
7.7121892243
 23
9.478480753
  0
SOLID
  5
340
100
AcDbEntity
  8
0
100
AcDbTrace
 62
2
  6
CONTINUOUS
 10
7.7019246258
 20
9.4750592201
 11
7.7555286404
 21
9.477340242
 12
7.763512217
 22
9.4750592201
 13
7.763512217
 23
9.4750592201
  0
SOLID
  5
341
100
AcDbEntity
  8
0
100
AcDbTrace
 62
2
  6
CONTINUOUS
 10
7.8022895893
 20
9.5126960815
 11
7.763512217
 21
9.4750592201
 12
7.7897439688
 22
9.5206796581
 13
7.7897439688
 23
9.5206796581
  0
SOLID
  5
342
100
AcDbEntity
  8
0
100
AcDbTrace
 62
2
  6
CONTINUOUS
 10
7.763512217
 20
9.4750592201
 11
7.6928005382
 21
9.4704971763
 12
7.7019246258
 22
9.4750592201
 13
7.7019246258
 23
9.4750592201
  0
SOLID
  5
343
100
AcDbEntity
  8
0
100
AcDbTrace
 62
2
  6
CONTINUOUS
 10
7.7760578374
 20
9.4670756435
 11
7.6928005382
 21
9.4704971763
 12
7.763512217
 22
9.4750592201
 13
7.763512217
 23
9.4750592201
  0
SOLID
  5
344
100
AcDbEntity
  8
0
100
AcDbTrace
 62
2
  6
CONTINUOUS
 10
7.763512217
 20
9.4750592201
 11
7.8022895893
 21
9.5126960815
 12
7.7760578374
 22
9.4670756435
 13
7.7760578374
 23
9.4670756435
  0
SOLID
  5
345
100
AcDbEntity
  8
0
100
AcDbTrace
 62
2
  6
CONTINUOUS
 10
7.7760578374
 20
9.4670756435
 11
7.6848169615
 21
9.4659350977
 12
7.6928005382
 22
9.4704971763
 13
7.6928005382
 23
9.4704971763
  0
SOLID
  5
346
100
AcDbEntity
  8
0
100
AcDbTrace
 62
2
  6
CONTINUOUS
 10
7.7235943338
 20
9.4659350977
 11
7.6848169615
 21
9.4659350977
 12
7.7760578374
 22
9.4670756435
 13
7.7760578374
 23
9.4670756435
  0
SOLID
  5
347
100
AcDbEntity
  8
0
100
AcDbTrace
 62
2
  6
CONTINUOUS
 10
7.7315779104
 20
9.4659350977
 11
7.7235943338
 21
9.4659350977
 12
7.7760578374
 22
9.4670756435
 13
7.7760578374
 23
9.4670756435
  0
SOLID
  5
348
100
AcDbEntity
  8
0
100
AcDbTrace
 62
2
  6
CONTINUOUS
 10
7.7384209761
 20
9.4659350977
 11
7.7315779104
 21
9.4659350977
 12
7.7760578374
 22
9.4670756435
 13
7.7760578374
 23
9.4670756435
  0
SOLID
  5
349
100
AcDbEntity
  8
0
100
AcDbTrace
 62
2
  6
CONTINUOUS
 10
7.7441235309
 20
9.4647946216
 11
7.7384209761
 21
9.4659350977
 12
7.7760578374
 22
9.4670756435
 13
7.7760578374
 23
9.4670756435
  0
SOLID
  5
34A
100
AcDbEntity
  8
0
100
AcDbTrace
 62
2
  6
CONTINUOUS
 10
7.7498260856
 20
9.4636541455
 11
7.7441235309
 21
9.4647946216
 12
7.7760578374
 22
9.4670756435
 13
7.7760578374
 23
9.4670756435
  0
SOLID
  5
34B
100
AcDbEntity
  8
0
100
AcDbTrace
 62
2
  6
CONTINUOUS
 10
7.7555286404
 20
9.4613731584
 11
7.7498260856
 21
9.4636541455
 12
7.7760578374
 22
9.4670756435
 13
7.7760578374
 23
9.4670756435
  0
SOLID
  5
34C
100
AcDbEntity
  8
0
100
AcDbTrace
 62
2
  6
CONTINUOUS
 10
7.7555286404
 20
9.4613731584
 11
7.7760578374
 21
9.4670756435
 12
7.7840414141
 22
9.4613731584
 13
7.7840414141
 23
9.4613731584
  0
SOLID
  5
34D
100
AcDbEntity
  8
0
100
AcDbTrace
 62
2
  6
CONTINUOUS
 10
7.7156107572
 20
9.4636541455
 11
7.7087676915
 21
9.4613731584
 12
7.6779738958
 22
9.4590920669
 13
7.6779738958
 23
9.4590920669
  0
SOLID
  5
34E
100
AcDbEntity
  8
0
100
AcDbTrace
 62
2
  6
CONTINUOUS
 10
7.7235943338
 20
9.4659350977
 11
7.7156107572
 21
9.4636541455
 12
7.6779738958
 22
9.4590920669
 13
7.6779738958
 23
9.4590920669
  0
SOLID
  5
34F
100
AcDbEntity
  8
0
100
AcDbTrace
 62
2
  6
CONTINUOUS
 10
7.7235943338
 20
9.4659350977
 11
7.6779738958
 21
9.4590920669
 12
7.6848169615
 22
9.4659350977
 13
7.6848169615
 23
9.4659350977
  0
SOLID
  5
350
100
AcDbEntity
  8
0
100
AcDbTrace
 62
2
  6
CONTINUOUS
 10
7.6779738958
 20
9.4590920669
 11
7.7087676915
 21
9.4613731584
 12
7.7007841148
 22
9.4579515559
 13
7.7007841148
 23
9.4579515559
  0
SOLID
  5
351
100
AcDbEntity
  8
0
100
AcDbTrace
 62
2
  6
CONTINUOUS
 10
7.7007841148
 20
9.4579515559
 11
7.6939410491
 21
9.4533895295
 12
7.6711308302
 22
9.4511084902
 13
7.6711308302
 23
9.4511084902
  0
SOLID
  5
352
100
AcDbEntity
  8
0
100
AcDbTrace
 62
2
  6
CONTINUOUS
 10
7.7007841148
 20
9.4579515559
 11
7.6711308302
 21
9.4511084902
 12
7.6779738958
 22
9.4590920669
 13
7.6779738958
 23
9.4590920669
  0
SOLID
  5
353
100
AcDbEntity
  8
0
100
AcDbTrace
 62
2
  6
CONTINUOUS
 10
7.6711308302
 20
9.4511084902
 11
7.6939410491
 21
9.4533895295
 12
7.6882384944
 22
9.4476868704
 13
7.6882384944
 23
9.4476868704
  0
SOLID
  5
354
100
AcDbEntity
  8
0
100
AcDbTrace
 62
2
  6
CONTINUOUS
 10
7.7737768156
 20
9.4488274683
 11
7.7692147718
 21
9.4533895295
 12
7.7897439688
 22
9.4545300231
 13
7.7897439688
 23
9.4545300231
  0
SOLID
  5
355
100
AcDbEntity
  8
0
100
AcDbTrace
 62
2
  6
CONTINUOUS
 10
7.7737768156
 20
9.4488274683
 11
7.7897439688
 21
9.4545300231
 12
7.7954465236
 22
9.4476868704
 13
7.7954465236
 23
9.4476868704
  0
SOLID
  5
356
100
AcDbEntity
  8
0
100
AcDbTrace
 62
2
  6
CONTINUOUS
 10
7.7954465236
 20
9.4476868704
 11
7.7794793703
 21
9.4442654245
 12
7.7737768156
 22
9.4488274683
 13
7.7737768156
 23
9.4488274683
  0
SOLID
  5
357
100
AcDbEntity
  8
0
100
AcDbTrace
 62
2
  6
CONTINUOUS
 10
7.6882384944
 20
9.4476868704
 11
7.6654282754
 21
9.4431249136
 12
7.6711308302
 22
9.4511084902
 13
7.6711308302
 23
9.4511084902
  0
SOLID
  5
358
100
AcDbEntity
  8
0
100
AcDbTrace
 62
2
  6
CONTINUOUS
 10
7.6654282754
 20
9.4431249136
 11
7.6882384944
 21
9.4476868704
 12
7.6836764506
 22
9.4419844026
 13
7.6836764506
 23
9.4419844026
  0
SOLID
  5
359
100
AcDbEntity
  8
0
100
AcDbTrace
 62
2
  6
CONTINUOUS
 10
7.7794793703
 20
9.4442654245
 11
7.7954465236
 21
9.4476868704
 12
7.8000085674
 22
9.4397033807
 13
7.8000085674
 23
9.4397033807
  0
SOLID
  5
35A
100
AcDbEntity
  8
0
100
AcDbTrace
 62
2
  6
CONTINUOUS
 10
7.8000085674
 20
9.4397033807
 11
7.7829009031
 21
9.4385628698
 12
7.7794793703
 22
9.4442654245
 13
7.7794793703
 23
9.4442654245
  0
SOLID
  5
35B
100
AcDbEntity
  8
0
100
AcDbTrace
 62
2
  6
CONTINUOUS
 10
7.6836764506
 20
9.4419844026
 11
7.6791144068
 21
9.4351413369
 12
7.6608662316
 22
9.434000826
 13
7.6608662316
 23
9.434000826
  0
SOLID
  5
35C
100
AcDbEntity
  8
0
100
AcDbTrace
 62
2
  6
CONTINUOUS
 10
7.6836764506
 20
9.4419844026
 11
7.6608662316
 21
9.434000826
 12
7.6654282754
 22
9.4431249136
 13
7.6654282754
 23
9.4431249136
  0
SOLID
  5
35D
100
AcDbEntity
  8
0
100
AcDbTrace
 62
2
  6
CONTINUOUS
 10
7.786322436
 20
9.4317198389
 11
7.7829009031
 21
9.4385628698
 12
7.8000085674
 22
9.4397033807
 13
7.8000085674
 23
9.4397033807
  0
SOLID
  5
35E
100
AcDbEntity
  8
0
100
AcDbTrace
 62
2
  6
CONTINUOUS
 10
7.786322436
 20
9.4317198389
 11
7.8000085674
 21
9.4397033807
 12
7.8034301002
 22
9.4317198389
 13
7.8034301002
 23
9.4317198389
  0
SOLID
  5
35F
100
AcDbEntity
  8
0
100
AcDbTrace
 62
2
  6
CONTINUOUS
 10
7.6608662316
 20
9.434000826
 11
7.6791144068
 21
9.4351413369
 12
7.674552363
 22
9.4282982712
 13
7.674552363
 23
9.4282982712
  0
SOLID
  5
360
100
AcDbEntity
  8
0
100
AcDbTrace
 62
2
  6
CONTINUOUS
 10
7.8034301002
 20
9.4317198389
 11
7.7897439688
 21
9.4260172493
 12
7.786322436
 22
9.4317198389
 13
7.786322436
 23
9.4317198389
  0
SOLID
  5
361
100
AcDbEntity
  8
0
100
AcDbTrace
 62
2
  6
CONTINUOUS
 10
7.674552363
 20
9.4282982712
 11
7.6574446988
 21
9.4248767384
 12
7.6608662316
 22
9.434000826
 13
7.6608662316
 23
9.434000826
  0
SOLID
  5
362
100
AcDbEntity
  8
0
100
AcDbTrace
 62
2
  6
CONTINUOUS
 10
7.7897439688
 20
9.4260172493
 11
7.8034301002
 21
9.4317198389
 12
7.8068516331
 22
9.4225957165
 13
7.8068516331
 23
9.4225957165
  0
SOLID
  5
363
100
AcDbEntity
  8
0
100
AcDbTrace
 62
2
  6
CONTINUOUS
 10
7.6574446988
 20
9.4248767384
 11
7.674552363
 21
9.4282982712
 12
7.6722713411
 22
9.4203146946
 13
7.6722713411
 23
9.4203146946
  0
SOLID
  5
364
100
AcDbEntity
  8
0
100
AcDbTrace
 62
2
  6
CONTINUOUS
 10
7.8068516331
 20
9.4225957165
 11
7.7920249907
 21
9.4191741836
 12
7.7897439688
 22
9.4260172493
 13
7.7897439688
 23
9.4260172493
  0
SOLID
  5
365
100
AcDbEntity
  8
0
100
AcDbTrace
 62
2
  6
CONTINUOUS
 10
7.6722713411
 20
9.4203146946
 11
7.6551636769
 21
9.4146121399
 12
7.6574446988
 22
9.4248767384
 13
7.6574446988
 23
9.4248767384
  0
SOLID
  5
366
100
AcDbEntity
  8
0
100
AcDbTrace
 62
2
  6
CONTINUOUS
 10
7.7920249907
 20
9.4191741836
 11
7.8068516331
 21
9.4225957165
 12
7.807992144
 22
9.4134716289
 13
7.807992144
 23
9.4134716289
  0
SOLID
  5
367
100
AcDbEntity
  8
0
100
AcDbTrace
 62
2
  6
CONTINUOUS
 10
7.6551636769
 20
9.4146121399
 11
7.6722713411
 21
9.4203146946
 12
7.6711308302
 22
9.412331118
 13
7.6711308302
 23
9.412331118
  0
SOLID
  5
368
100
AcDbEntity
  8
0
100
AcDbTrace
 62
2
  6
CONTINUOUS
 10
7.807992144
 20
9.4134716289
 11
7.7931655017
 21
9.411190607
 12
7.7920249907
 22
9.4191741836
 13
7.7920249907
 23
9.4191741836
  0
SOLID
  5
369
100
AcDbEntity
  8
0
100
AcDbTrace
 62
2
  6
CONTINUOUS
 10
7.6711308302
 20
9.412331118
 11
7.6551636769
 21
9.4043474804
 12
7.6551636769
 22
9.4146121399
 13
7.6551636769
 23
9.4146121399
  0
SOLID
  5
36A
100
AcDbEntity
  8
0
100
AcDbTrace
 62
2
  6
CONTINUOUS
 10
7.6551636769
 20
9.4043474804
 11
7.6711308302
 21
9.412331118
 12
7.6699903192
 22
9.4043474804
 13
7.6699903192
 23
9.4043474804
  0
SOLID
  5
36B
100
AcDbEntity
  8
0
100
AcDbTrace
 62
2
  6
CONTINUOUS
 10
7.7931655017
 20
9.4043474804
 11
7.7931655017
 21
9.411190607
 12
7.807992144
 22
9.4134716289
 13
7.807992144
 23
9.4134716289
  0
SOLID
  5
36C
100
AcDbEntity
  8
0
100
AcDbTrace
 62
2
  6
CONTINUOUS
 10
7.7931655017
 20
9.4043474804
 11
7.807992144
 21
9.4134716289
 12
7.807992144
 22
9.4043474804
 13
7.807992144
 23
9.4043474804
  0
SOLID
  5
36D
100
AcDbEntity
  8
0
100
AcDbTrace
 62
2
  6
CONTINUOUS
 10
7.807992144
 20
9.4043474804
 11
7.7931655017
 21
9.3963639647
 12
7.7931655017
 22
9.4043474804
 13
7.7931655017
 23
9.4043474804
  0
SOLID
  5
36E
100
AcDbEntity
  8
0
100
AcDbTrace
 62
2
  6
CONTINUOUS
 10
7.6699903192
 20
9.4043474804
 11
7.6711308302
 21
9.3975044756
 12
7.6551636769
 22
9.3952234537
 13
7.6551636769
 23
9.3952234537
  0
SOLID
  5
36F
100
AcDbEntity
  8
0
100
AcDbTrace
 62
2
  6
CONTINUOUS
 10
7.6699903192
 20
9.4043474804
 11
7.6551636769
 21
9.3952234537
 12
7.6551636769
 22
9.4043474804
 13
7.6551636769
 23
9.4043474804
  0
SOLID
  5
370
100
AcDbEntity
  8
0
100
AcDbTrace
 62
2
  6
CONTINUOUS
 10
7.7931655017
 20
9.3963639647
 11
7.807992144
 21
9.4043474804
 12
7.807992144
 22
9.3940829428
 13
7.807992144
 23
9.3940829428
  0
SOLID
  5
371
100
AcDbEntity
  8
0
100
AcDbTrace
 62
2
  6
CONTINUOUS
 10
7.6551636769
 20
9.3952234537
 11
7.6711308302
 21
9.3975044756
 12
7.6722713411
 22
9.389520899
 13
7.6722713411
 23
9.389520899
  0
SOLID
  5
372
100
AcDbEntity
  8
0
100
AcDbTrace
 62
2
  6
CONTINUOUS
 10
7.807992144
 20
9.3940829428
 11
7.7908844798
 21
9.388380388
 12
7.7931655017
 22
9.3963639647
 13
7.7931655017
 23
9.3963639647
  0
SOLID
  5
373
100
AcDbEntity
  8
0
100
AcDbTrace
 62
2
  6
CONTINUOUS
 10
7.6722713411
 20
9.389520899
 11
7.6574446988
 21
9.3860993661
 12
7.6551636769
 22
9.3952234537
 13
7.6551636769
 23
9.3952234537
  0
SOLID
  5
374
100
AcDbEntity
  8
0
100
AcDbTrace
 62
2
  6
CONTINUOUS
 10
7.7908844798
 20
9.388380388
 11
7.807992144
 21
9.3940829428
 12
7.8057111221
 22
9.3838183442
 13
7.8057111221
 23
9.3838183442
  0
SOLID
  5
375
100
AcDbEntity
  8
0
100
AcDbTrace
 62
2
  6
CONTINUOUS
 10
7.6574446988
 20
9.3860993661
 11
7.6722713411
 21
9.389520899
 12
7.674552363
 22
9.3826778333
 13
7.674552363
 23
9.3826778333
  0
SOLID
  5
376
100
AcDbEntity
  8
0
100
AcDbTrace
 62
2
  6
CONTINUOUS
 10
7.8057111221
 20
9.3838183442
 11
7.7886034579
 21
9.3803968114
 12
7.7908844798
 22
9.388380388
 13
7.7908844798
 23
9.388380388
  0
SOLID
  5
377
100
AcDbEntity
  8
0
100
AcDbTrace
 62
2
  6
CONTINUOUS
 10
7.674552363
 20
9.3826778333
 11
7.6597257207
 21
9.3769753569
 12
7.6574446988
 22
9.3860993661
 13
7.6574446988
 23
9.3860993661
  0
SOLID
  5
378
100
AcDbEntity
  8
0
100
AcDbTrace
 62
2
  6
CONTINUOUS
 10
7.6597257207
 20
9.3769753569
 11
7.674552363
 21
9.3826778333
 12
7.6768333849
 22
9.3769753569
 13
7.6768333849
 23
9.3769753569
  0
SOLID
  5
379
100
AcDbEntity
  8
0
100
AcDbTrace
 62
2
  6
CONTINUOUS
 10
7.7886034579
 20
9.3803968114
 11
7.8057111221
 21
9.3838183442
 12
7.8022895893
 22
9.3746942566
 13
7.8022895893
 23
9.3746942566
  0
SOLID
  5
37A
100
AcDbEntity
  8
0
100
AcDbTrace
 62
2
  6
CONTINUOUS
 10
7.8022895893
 20
9.3746942566
 11
7.785181925
 21
9.3735537457
 12
7.7886034579
 22
9.3803968114
 13
7.7886034579
 23
9.3803968114
  0
SOLID
  5
37B
100
AcDbEntity
  8
0
100
AcDbTrace
 62
2
  6
CONTINUOUS
 10
7.6768333849
 20
9.3769753569
 11
7.6802549177
 21
9.3701322128
 12
7.6631472535
 22
9.3689917019
 13
7.6631472535
 23
9.3689917019
  0
SOLID
  5
37C
100
AcDbEntity
  8
0
100
AcDbTrace
 62
2
  6
CONTINUOUS
 10
7.6768333849
 20
9.3769753569
 11
7.6631472535
 21
9.3689917019
 12
7.6597257207
 22
9.3769753569
 13
7.6597257207
 23
9.3769753569
  0
SOLID
  5
37D
100
AcDbEntity
  8
0
100
AcDbTrace
 62
2
  6
CONTINUOUS
 10
7.7806198812
 20
9.36671068
 11
7.785181925
 21
9.3735537457
 12
7.8022895893
 22
9.3746942566
 13
7.8022895893
 23
9.3746942566
  0
SOLID
  5
37E
100
AcDbEntity
  8
0
100
AcDbTrace
 62
2
  6
CONTINUOUS
 10
7.7806198812
 20
9.36671068
 11
7.8022895893
 21
9.3746942566
 12
7.7977275455
 22
9.365570169
 13
7.7977275455
 23
9.365570169
  0
SOLID
  5
37F
100
AcDbEntity
  8
0
100
AcDbTrace
 62
2
  6
CONTINUOUS
 10
7.6631472535
 20
9.3689917019
 11
7.6802549177
 21
9.3701322128
 12
7.6848169615
 22
9.3644296581
 13
7.6848169615
 23
9.3644296581
  0
SOLID
  5
380
100
AcDbEntity
  8
0
100
AcDbTrace
 62
2
  6
CONTINUOUS
 10
7.6848169615
 20
9.3644296581
 11
7.6688498083
 21
9.3610080904
 12
7.6631472535
 22
9.3689917019
 13
7.6631472535
 23
9.3689917019
  0
SOLID
  5
381
100
AcDbEntity
  8
0
100
AcDbTrace
 62
2
  6
CONTINUOUS
 10
7.7977275455
 20
9.365570169
 11
7.7749173265
 21
9.3610080904
 12
7.7806198812
 22
9.36671068
 13
7.7806198812
 23
9.36671068
  0
SOLID
  5
382
100
AcDbEntity
  8
0
100
AcDbTrace
 62
2
  6
CONTINUOUS
 10
7.6688498083
 20
9.3610080904
 11
7.6848169615
 21
9.3644296581
 12
7.6893790053
 22
9.3598676143
 13
7.6893790053
 23
9.3598676143
  0
SOLID
  5
383
100
AcDbEntity
  8
0
100
AcDbTrace
 62
2
  6
CONTINUOUS
 10
7.7749173265
 20
9.3610080904
 11
7.7977275455
 21
9.365570169
 12
7.7920249907
 22
9.3575865924
 13
7.7920249907
 23
9.3575865924
  0
SOLID
  5
384
100
AcDbEntity
  8
0
100
AcDbTrace
 62
2
  6
CONTINUOUS
 10
7.7840414141
 20
9.4613731584
 11
7.7897439688
 21
9.4545300231
 12
7.7692147718
 22
9.4533895295
 13
7.7692147718
 23
9.4533895295
  0
SOLID
  5
385
100
AcDbEntity
  8
0
100
AcDbTrace
 62
2
  6
CONTINUOUS
 10
7.7555286404
 20
9.4613731584
 11
7.7840414141
 21
9.4613731584
 12
7.7692147718
 22
9.4533895295
 13
7.7692147718
 23
9.4533895295
  0
SOLID
  5
386
100
AcDbEntity
  8
0
100
AcDbTrace
 62
2
  6
CONTINUOUS
 10
7.7692147718
 20
9.4533895295
 11
7.6950815601
 21
9.3553056575
 12
7.7555286404
 22
9.4613731584
 13
7.7555286404
 23
9.4613731584
  0
SOLID
  5
387
100
AcDbEntity
  8
0
100
AcDbTrace
 62
2
  6
CONTINUOUS
 10
7.7920249907
 20
9.3575865924
 11
7.7692147718
 21
9.3553056575
 12
7.7749173265
 22
9.3610080904
 13
7.7749173265
 23
9.3610080904
  0
SOLID
  5
388
100
AcDbEntity
  8
0
100
AcDbTrace
 62
2
  6
CONTINUOUS
 10
7.6893790053
 20
9.3598676143
 11
7.6950815601
 21
9.3553056575
 12
7.673411852
 22
9.3541650596
 13
7.673411852
 23
9.3541650596
  0
SOLID
  5
389
100
AcDbEntity
  8
0
100
AcDbTrace
 62
2
  6
CONTINUOUS
 10
7.6893790053
 20
9.3598676143
 11
7.673411852
 21
9.3541650596
 12
7.6688498083
 22
9.3610080904
 13
7.6688498083
 23
9.3610080904
  0
SOLID
  5
38A
100
AcDbEntity
  8
0
100
AcDbTrace
 62
2
  6
CONTINUOUS
 10
7.7623717061
 20
9.3507435267
 11
7.7692147718
 21
9.3553056575
 12
7.7920249907
 22
9.3575865924
 13
7.7920249907
 23
9.3575865924
  0
SOLID
  5
38B
100
AcDbEntity
  8
0
100
AcDbTrace
 62
2
  6
CONTINUOUS
 10
7.7623717061
 20
9.3507435267
 11
7.7920249907
 21
9.3575865924
 12
7.786322436
 22
9.3496030158
 13
7.786322436
 23
9.3496030158
  0
SOLID
  5
38C
100
AcDbEntity
  8
0
100
AcDbTrace
 62
2
  6
CONTINUOUS
 10
7.6802549177
 20
9.3473220287
 11
7.673411852
 21
9.3541650596
 12
7.6950815601
 22
9.3553056575
 13
7.6950815601
 23
9.3553056575
  0
SOLID
  5
38D
100
AcDbEntity
  8
0
100
AcDbTrace
 62
2
  6
CONTINUOUS
 10
7.7076271805
 20
9.3473220287
 11
7.6802549177
 21
9.3473220287
 12
7.6950815601
 22
9.3553056575
 13
7.6950815601
 23
9.3553056575
  0
SOLID
  5
38E
100
AcDbEntity
  8
0
100
AcDbTrace
 62
2
  6
CONTINUOUS
 10
7.6950815601
 20
9.3553056575
 11
7.7692147718
 21
9.4533895295
 12
7.7076271805
 22
9.3473220287
 13
7.7076271805
 23
9.3473220287
  0
SOLID
  5
38F
100
AcDbEntity
  8
0
100
AcDbTrace
 62
2
  6
CONTINUOUS
 10
7.786322436
 20
9.3496030158
 11
7.7555286404
 21
9.3473220287
 12
7.7623717061
 22
9.3507435267
 13
7.7623717061
 23
9.3507435267
  0
SOLID
  5
390
100
AcDbEntity
  8
0
100
AcDbTrace
 62
2
  6
CONTINUOUS
 10
7.7475450637
 20
9.345041059
 11
7.7555286404
 21
9.3473220287
 12
7.786322436
 22
9.3496030158
 13
7.786322436
 23
9.3496030158
  0
SOLID
  5
391
100
AcDbEntity
  8
0
100
AcDbTrace
 62
2
  6
CONTINUOUS
 10
7.7475450637
 20
9.345041059
 11
7.786322436
 21
9.3496030158
 12
7.7783388593
 22
9.3439005741
 13
7.7783388593
 23
9.3439005741
  0
SOLID
  5
392
100
AcDbEntity
  8
0
100
AcDbTrace
 62
2
  6
CONTINUOUS
 10
7.7783388593
 20
9.3439005741
 11
7.7395614871
 21
9.3427598544
 12
7.7475450637
 22
9.345041059
 13
7.7475450637
 23
9.345041059
  0
SOLID
  5
393
100
AcDbEntity
  8
0
100
AcDbTrace
 62
2
  6
CONTINUOUS
 10
7.7315779104
 20
9.3427598544
 11
7.7395614871
 21
9.3427598544
 12
7.6870979834
 22
9.3416194391
 13
7.6870979834
 23
9.3416194391
  0
SOLID
  5
394
100
AcDbEntity
  8
0
100
AcDbTrace
 62
2
  6
CONTINUOUS
 10
7.7258753557
 20
9.3427598544
 11
7.7315779104
 21
9.3427598544
 12
7.6870979834
 22
9.3416194391
 13
7.6870979834
 23
9.3416194391
  0
SOLID
  5
395
100
AcDbEntity
  8
0
100
AcDbTrace
 62
2
  6
CONTINUOUS
 10
7.71903229
 20
9.3439005741
 11
7.7258753557
 21
9.3427598544
 12
7.6870979834
 22
9.3416194391
 13
7.6870979834
 23
9.3416194391
  0
SOLID
  5
396
100
AcDbEntity
  8
0
100
AcDbTrace
 62
2
  6
CONTINUOUS
 10
7.7133297353
 20
9.345041059
 11
7.71903229
 21
9.3439005741
 12
7.6870979834
 22
9.3416194391
 13
7.6870979834
 23
9.3416194391
  0
SOLID
  5
397
100
AcDbEntity
  8
0
100
AcDbTrace
 62
2
  6
CONTINUOUS
 10
7.7076271805
 20
9.3473220287
 11
7.7133297353
 21
9.345041059
 12
7.6870979834
 22
9.3416194391
 13
7.6870979834
 23
9.3416194391
  0
SOLID
  5
398
100
AcDbEntity
  8
0
100
AcDbTrace
 62
2
  6
CONTINUOUS
 10
7.7076271805
 20
9.3473220287
 11
7.6870979834
 21
9.3416194391
 12
7.6802549177
 22
9.3473220287
 13
7.6802549177
 23
9.3473220287
  0
SOLID
  5
399
100
AcDbEntity
  8
0
100
AcDbTrace
 62
2
  6
CONTINUOUS
 10
7.7703552827
 20
9.3381979063
 11
7.6870979834
 21
9.3416194391
 12
7.7395614871
 22
9.3427598544
 13
7.7395614871
 23
9.3427598544
  0
SOLID
  5
39A
100
AcDbEntity
  8
0
100
AcDbTrace
 62
2
  6
CONTINUOUS
 10
7.7395614871
 20
9.3427598544
 11
7.7783388593
 21
9.3439005741
 12
7.7703552827
 22
9.3381979063
 13
7.7703552827
 23
9.3381979063
  0
SOLID
  5
39B
100
AcDbEntity
  8
0
100
AcDbTrace
 62
2
  6
CONTINUOUS
 10
7.6996436039
 20
9.3336359669
 11
7.7703552827
 21
9.3381979063
 12
7.7612311951
 22
9.3336359669
 13
7.7612311951
 23
9.3336359669
  0
SOLID
  5
39C
100
AcDbEntity
  8
0
100
AcDbTrace
 62
2
  6
CONTINUOUS
 10
7.7612311951
 20
9.3336359669
 11
7.7076271805
 21
9.3313548406
 12
7.6996436039
 22
9.3336359669
 13
7.6996436039
 23
9.3336359669
  0
SOLID
  5
39D
100
AcDbEntity
  8
0
100
AcDbTrace
 62
2
  6
CONTINUOUS
 10
7.7076271805
 20
9.3313548406
 11
7.7612311951
 21
9.3336359669
 12
7.7521071075
 22
9.3302143296
 13
7.7521071075
 23
9.3302143296
  0
SOLID
  5
39E
100
AcDbEntity
  8
0
100
AcDbTrace
 62
2
  6
CONTINUOUS
 10
7.7521071075
 20
9.3302143296
 11
7.7156107572
 21
9.3290738187
 12
7.7076271805
 22
9.3313548406
 13
7.7076271805
 23
9.3313548406
  0
SOLID
  5
39F
100
AcDbEntity
  8
0
100
AcDbTrace
 62
2
  6
CONTINUOUS
 10
7.7235943338
 20
9.3279333077
 11
7.7156107572
 21
9.3290738187
 12
7.7521071075
 22
9.3302143296
 13
7.7521071075
 23
9.3302143296
  0
SOLID
  5
3A0
100
AcDbEntity
  8
0
100
AcDbTrace
 62
2
  6
CONTINUOUS
 10
7.7315779104
 20
9.3279333077
 11
7.7235943338
 21
9.3279333077
 12
7.7521071075
 22
9.3302143296
 13
7.7521071075
 23
9.3302143296
  0
SOLID
  5
3A1
100
AcDbEntity
  8
0
100
AcDbTrace
 62
2
  6
CONTINUOUS
 10
7.7315779104
 20
9.3279333077
 11
7.7521071075
 21
9.3302143296
 12
7.741842509
 22
9.3279333077
 13
7.741842509
 23
9.3279333077
  0
SOLID
  5
3A2
100
AcDbEntity
  8
0
100
AcDbTrace
 62
2
  6
CONTINUOUS
 10
7.6870979834
 20
9.3416194391
 11
7.7703552827
 21
9.3381979063
 12
7.6996436039
 22
9.3336359669
 13
7.6996436039
 23
9.3336359669
  0
SOLID
  5
3A3
100
AcDbEntity
  8
0
100
AcDbTrace
 62
2
  6
CONTINUOUS
 10
7.6996436039
 20
9.3336359669
 11
7.6608662316
 21
9.2971395121
 12
7.6870979834
 22
9.3416194391
 13
7.6870979834
 23
9.3416194391
  0
SOLID
  5
3A4
100
AcDbEntity
  8
0
100
AcDbTrace
 62
2
  6
CONTINUOUS
 10
7.6608662316
 20
9.2971395121
 11
7.6996436039
 21
9.3336359669
 12
7.674552363
 22
9.2891559355
 13
7.674552363
 23
9.2891559355
  0
DIMENSION
  5
3A5
100
AcDbEntity
  8
0
100
AcDbDimension
 62
2
  6
CONTINUOUS
  2
*D5
 10
6.6607499371
 20
8.1842501073
 11
7.6403370345
 21
9.3279333077
 70
163
 71
1
 72
2
 41
0.9
 42
0.4212598425
  1
{\fSymbol_ASME;\W1.0;⌀}<> X4 \PTHRU\P[]
  3
DIMSTYLE_2
100
AcDbDiametricDimension
 15
6.4447753677
 25
7.8225667648
  0
DIMENSION
  5
3A6
100
AcDbEntity
  8
0
100
AcDbDimension
 62
2
  6
CONTINUOUS
  2
*D6
 10
6.5527626524
 20
9.466408815
 11
4.1644890896
 21
9.388283815
 70
160
 71
2
 72
2
 41
0.9
 42
4.7007874016
  1
<>\P[]
  3
DIMSTYLE_1
100
AcDbAlignedDimension
 13
1.8519752508
 23
8.0929984104
 14
6.5527626524
 24
8.0710238439
100
AcDbRotatedDimension
  0
DIMENSION
  5
3A7
100
AcDbEntity
  8
0
100
AcDbDimension
 62
2
  6
CONTINUOUS
  2
*D7
 10
8.1191214595
 20
3.3026210345
 11
7.6816214595
 21
5.5748897353
 70
160
 71
2
 72
2
 41
0.9
 42
4.7007874016
  1
<>\P[]
  3
DIMSTYLE_1
100
AcDbAlignedDimension
 13
6.5637341763
 23
8.003408436
 14
6.6124902457
 24
3.3026210345
 50
270.0
100
AcDbRotatedDimension
  0
DIMENSION
  5
3A8
100
AcDbEntity
  8
0
100
AcDbDimension
 62
2
  6
CONTINUOUS
  2
*D8
 10
14.533038225
 20
2.3948903179
 11
12.7556567197
 21
2.3167653179
 70
160
 71
3
 72
2
 41
0.9
 42
0.125984252
  1
<>\PALL AROUND\P[]
  3
DIMSTYLE_1
100
AcDbAlignedDimension
 13
14.407053973
 23
3.3282115856
 14
14.533038225
 24
3.3282115856
100
AcDbRotatedDimension
  0
SOLID
  5
3A9
100
AcDbEntity
  8
0
100
AcDbTrace
 62
2
  6
CONTINUOUS
 10
4.1953410322
 20
2.4919964648
 11
4.2033246089
 21
2.493136941
 12
4.2124486964
 22
2.4919964648
 13
4.2124486964
 23
2.4919964648
  0
SOLID
  5
3AA
100
AcDbEntity
  8
0
100
AcDbTrace
 62
2
  6
CONTINUOUS
 10
4.2124486964
 20
2.4919964648
 11
4.1873574556
 21
2.4908559887
 12
4.1953410322
 22
2.4919964648
 13
4.1953410322
 23
2.4919964648
  0
SOLID
  5
3AB
100
AcDbEntity
  8
0
100
AcDbTrace
 62
2
  6
CONTINUOUS
 10
4.1873574556
 20
2.4908559887
 11
4.2124486964
 21
2.4919964648
 12
4.2204322731
 22
2.4908559887
 13
4.2204322731
 23
2.4908559887
  0
SOLID
  5
3AC
100
AcDbEntity
  8
0
100
AcDbTrace
 62
2
  6
CONTINUOUS
 10
4.2204322731
 20
2.4908559887
 11
4.1805143899
 21
2.4885748972
 12
4.1873574556
 22
2.4908559887
 13
4.1873574556
 23
2.4908559887
  0
SOLID
  5
3AD
100
AcDbEntity
  8
0
100
AcDbTrace
 62
2
  6
CONTINUOUS
 10
4.1805143899
 20
2.4885748972
 11
4.2204322731
 21
2.4908559887
 12
4.2272753388
 22
2.4874343862
 13
4.2272753388
 23
2.4874343862
  0
SOLID
  5
3AE
100
AcDbEntity
  8
0
100
AcDbTrace
 62
2
  6
CONTINUOUS
 10
4.2272753388
 20
2.4874343862
 11
4.1736713242
 21
2.4851533643
 12
4.1805143899
 22
2.4885748972
 13
4.1805143899
 23
2.4885748972
  0
SOLID
  5
3AF
100
AcDbEntity
  8
0
100
AcDbTrace
 62
2
  6
CONTINUOUS
 10
4.1736713242
 20
2.4851533643
 11
4.2272753388
 21
2.4874343862
 12
4.2341184045
 22
2.4828723424
 13
4.2341184045
 23
2.4828723424
  0
SOLID
  5
3B0
100
AcDbEntity
  8
0
100
AcDbTrace
 62
2
  6
CONTINUOUS
 10
4.2341184045
 20
2.4828723424
 11
4.1679687694
 21
2.4805913205
 12
4.1736713242
 22
2.4851533643
 13
4.1736713242
 23
2.4851533643
  0
SOLID
  5
3B1
100
AcDbEntity
  8
0
100
AcDbTrace
 62
2
  6
CONTINUOUS
 10
4.1976220541
 20
2.4783103334
 11
4.1679687694
 21
2.4805913205
 12
4.2341184045
 22
2.4828723424
 13
4.2341184045
 23
2.4828723424
  0
SOLID
  5
3B2
100
AcDbEntity
  8
0
100
AcDbTrace
 62
2
  6
CONTINUOUS
 10
4.2033246089
 20
2.4783103334
 11
4.1976220541
 21
2.4783103334
 12
4.2341184045
 22
2.4828723424
 13
4.2341184045
 23
2.4828723424
  0
SOLID
  5
3B3
100
AcDbEntity
  8
0
100
AcDbTrace
 62
2
  6
CONTINUOUS
 10
4.2090271636
 20
2.4783103334
 11
4.2033246089
 21
2.4783103334
 12
4.2341184045
 22
2.4828723424
 13
4.2341184045
 23
2.4828723424
  0
SOLID
  5
3B4
100
AcDbEntity
  8
0
100
AcDbTrace
 62
2
  6
CONTINUOUS
 10
4.2090271636
 20
2.4783103334
 11
4.2341184045
 21
2.4828723424
 12
4.2398209592
 22
2.4783103334
 13
4.2398209592
 23
2.4783103334
  0
SOLID
  5
3B5
100
AcDbEntity
  8
0
100
AcDbTrace
 62
2
  6
CONTINUOUS
 10
4.2398209592
 20
2.4783103334
 11
4.2147297183
 21
2.4771698573
 12
4.2090271636
 22
2.4783103334
 13
4.2090271636
 23
2.4783103334
  0
SOLID
  5
3B6
100
AcDbEntity
  8
0
100
AcDbTrace
 62
2
  6
CONTINUOUS
 10
4.1976220541
 20
2.4783103334
 11
4.1919194994
 21
2.4771698573
 12
4.1622662147
 22
2.4760292245
 13
4.1622662147
 23
2.4760292245
  0
SOLID
  5
3B7
100
AcDbEntity
  8
0
100
AcDbTrace
 62
2
  6
CONTINUOUS
 10
4.1976220541
 20
2.4783103334
 11
4.1622662147
 21
2.4760292245
 12
4.1679687694
 22
2.4805913205
 13
4.1679687694
 23
2.4805913205
  0
SOLID
  5
3B8
100
AcDbEntity
  8
0
100
AcDbTrace
 62
2
  6
CONTINUOUS
 10
4.1622662147
 20
2.4760292245
 11
4.1919194994
 21
2.4771698573
 12
4.1862169446
 22
2.4760292245
 13
4.1862169446
 23
2.4760292245
  0
SOLID
  5
3B9
100
AcDbEntity
  8
0
100
AcDbTrace
 62
2
  6
CONTINUOUS
 10
4.2192917621
 20
2.4748887658
 11
4.2147297183
 21
2.4771698573
 12
4.2398209592
 22
2.4783103334
 13
4.2398209592
 23
2.4783103334
  0
SOLID
  5
3BA
100
AcDbEntity
  8
0
100
AcDbTrace
 62
2
  6
CONTINUOUS
 10
4.2238538059
 20
2.4726078135
 11
4.2192917621
 21
2.4748887658
 12
4.2398209592
 22
2.4783103334
 13
4.2398209592
 23
2.4783103334
  0
SOLID
  5
3BB
100
AcDbEntity
  8
0
100
AcDbTrace
 62
2
  6
CONTINUOUS
 10
4.2238538059
 20
2.4726078135
 11
4.2398209592
 21
2.4783103334
 12
4.244383003
 22
2.4726078135
 13
4.244383003
 23
2.4726078135
  0
SOLID
  5
3BC
100
AcDbEntity
  8
0
100
AcDbTrace
 62
2
  6
CONTINUOUS
 10
4.1862169446
 20
2.4760292245
 11
4.1816549008
 21
2.4726078135
 12
4.1577041709
 22
2.4703267046
 13
4.1577041709
 23
2.4703267046
  0
SOLID
  5
3BD
100
AcDbEntity
  8
0
100
AcDbTrace
 62
2
  6
CONTINUOUS
 10
4.1862169446
 20
2.4760292245
 11
4.1577041709
 21
2.4703267046
 12
4.1622662147
 22
2.4760292245
 13
4.1622662147
 23
2.4760292245
  0
SOLID
  5
3BE
100
AcDbEntity
  8
0
100
AcDbTrace
 62
2
  6
CONTINUOUS
 10
4.1577041709
 20
2.4703267046
 11
4.1816549008
 21
2.4726078135
 12
4.177092857
 22
2.4703267046
 13
4.177092857
 23
2.4703267046
  0
SOLID
  5
3BF
100
AcDbEntity
  8
0
100
AcDbTrace
 62
2
  6
CONTINUOUS
 10
4.244383003
 20
2.4726078135
 11
4.2272753388
 21
2.469186211
 12
4.2238538059
 22
2.4726078135
 13
4.2238538059
 23
2.4726078135
  0
SOLID
  5
3C0
100
AcDbEntity
  8
0
100
AcDbTrace
 62
2
  6
CONTINUOUS
 10
4.2272753388
 20
2.469186211
 11
4.244383003
 21
2.4726078135
 12
4.2489450468
 22
2.4657646608
 13
4.2489450468
 23
2.4657646608
  0
SOLID
  5
3C1
100
AcDbEntity
  8
0
100
AcDbTrace
 62
2
  6
CONTINUOUS
 10
4.2489450468
 20
2.4657646608
 11
4.2306968716
 21
2.4646241673
 12
4.2272753388
 22
2.469186211
 13
4.2272753388
 23
2.469186211
  0
SOLID
  5
3C2
100
AcDbEntity
  8
0
100
AcDbTrace
 62
2
  6
CONTINUOUS
 10
4.177092857
 20
2.4703267046
 11
4.1736713242
 21
2.4657646608
 12
4.1542826381
 22
2.4634836563
 13
4.1542826381
 23
2.4634836563
  0
SOLID
  5
3C3
100
AcDbEntity
  8
0
100
AcDbTrace
 62
2
  6
CONTINUOUS
 10
4.177092857
 20
2.4703267046
 11
4.1542826381
 21
2.4634836563
 12
4.1577041709
 22
2.4703267046
 13
4.1577041709
 23
2.4703267046
  0
SOLID
  5
3C4
100
AcDbEntity
  8
0
100
AcDbTrace
 62
2
  6
CONTINUOUS
 10
4.1542826381
 20
2.4634836563
 11
4.1736713242
 21
2.4657646608
 12
4.1702497913
 22
2.4612026344
 13
4.1702497913
 23
2.4612026344
  0
SOLID
  5
3C5
100
AcDbEntity
  8
0
100
AcDbTrace
 62
2
  6
CONTINUOUS
 10
4.2329778935
 20
2.4600621235
 11
4.2306968716
 21
2.4646241673
 12
4.2489450468
 22
2.4657646608
 13
4.2489450468
 23
2.4657646608
  0
SOLID
  5
3C6
100
AcDbEntity
  8
0
100
AcDbTrace
 62
2
  6
CONTINUOUS
 10
4.2329778935
 20
2.4600621235
 11
4.2489450468
 21
2.4657646608
 12
4.2512260687
 22
2.4577811016
 13
4.2512260687
 23
2.4577811016
  0
SOLID
  5
3C7
100
AcDbEntity
  8
0
100
AcDbTrace
 62
2
  6
CONTINUOUS
 10
4.1702497913
 20
2.4612026344
 11
4.1679687694
 21
2.4566405906
 12
4.1508611052
 22
2.4555000797
 13
4.1508611052
 23
2.4555000797
  0
SOLID
  5
3C8
100
AcDbEntity
  8
0
100
AcDbTrace
 62
2
  6
CONTINUOUS
 10
4.1702497913
 20
2.4612026344
 11
4.1508611052
 21
2.4555000797
 12
4.1542826381
 22
2.4634836563
 13
4.1542826381
 23
2.4634836563
  0
SOLID
  5
3C9
100
AcDbEntity
  8
0
100
AcDbTrace
 62
2
  6
CONTINUOUS
 10
4.2512260687
 20
2.4577811016
 11
4.2352589154
 21
2.4543595687
 12
4.2329778935
 22
2.4600621235
 13
4.2329778935
 23
2.4600621235
  0
SOLID
  5
3CA
100
AcDbEntity
  8
0
100
AcDbTrace
 62
2
  6
CONTINUOUS
 10
4.1508611052
 20
2.4555000797
 11
4.1679687694
 21
2.4566405906
 12
4.1656877475
 22
2.4509380359
 13
4.1656877475
 23
2.4509380359
  0
SOLID
  5
3CB
100
AcDbEntity
  8
0
100
AcDbTrace
 62
2
  6
CONTINUOUS
 10
4.1656877475
 20
2.4509380359
 11
4.1485800833
 21
2.448657014
 12
4.1508611052
 22
2.4555000797
 13
4.1508611052
 23
2.4555000797
  0
SOLID
  5
3CC
100
AcDbEntity
  8
0
100
AcDbTrace
 62
2
  6
CONTINUOUS
 10
4.1485800833
 20
2.448657014
 11
4.1656877475
 21
2.4509380359
 12
4.1645472366
 22
2.4440949702
 13
4.1645472366
 23
2.4440949702
  0
SOLID
  5
3CD
100
AcDbEntity
  8
0
100
AcDbTrace
 62
2
  6
CONTINUOUS
 10
4.1645472366
 20
2.4440949702
 11
4.1474395724
 21
2.4395329264
 12
4.1485800833
 22
2.448657014
 13
4.1485800833
 23
2.448657014
  0
SOLID
  5
3CE
100
AcDbEntity
  8
0
100
AcDbTrace
 62
2
  6
CONTINUOUS
 10
4.1474395724
 20
2.4395329264
 11
4.1645472366
 21
2.4440949702
 12
4.1634067256
 22
2.4372519045
 13
4.1634067256
 23
2.4372519045
  0
SOLID
  5
3CF
100
AcDbEntity
  8
0
100
AcDbTrace
 62
2
  6
CONTINUOUS
 10
4.1634067256
 20
2.4372519045
 11
4.1462990614
 21
2.4304089084
 12
4.1474395724
 22
2.4395329264
 13
4.1474395724
 23
2.4395329264
  0
SOLID
  5
3D0
100
AcDbEntity
  8
0
100
AcDbTrace
 62
2
  6
CONTINUOUS
 10
4.1462990614
 20
2.4304089084
 11
4.1634067256
 21
2.4372519045
 12
4.1634067256
 22
2.4304089084
 13
4.1634067256
 23
2.4304089084
  0
SOLID
  5
3D1
100
AcDbEntity
  8
0
100
AcDbTrace
 62
2
  6
CONTINUOUS
 10
4.1634067256
 20
2.4304089084
 11
4.1462990614
 21
2.4235657731
 12
4.1462990614
 22
2.4304089084
 13
4.1462990614
 23
2.4304089084
  0
SOLID
  5
3D2
100
AcDbEntity
  8
0
100
AcDbTrace
 62
2
  6
CONTINUOUS
 10
4.1462990614
 20
2.4235657731
 11
4.1634067256
 21
2.4304089084
 12
4.1634067256
 22
2.4201442402
 13
4.1634067256
 23
2.4201442402
  0
SOLID
  5
3D3
100
AcDbEntity
  8
0
100
AcDbTrace
 62
2
  6
CONTINUOUS
 10
4.1634067256
 20
2.4201442402
 11
4.1474395724
 21
2.4167227074
 12
4.1462990614
 22
2.4235657731
 13
4.1462990614
 23
2.4235657731
  0
SOLID
  5
3D4
100
AcDbEntity
  8
0
100
AcDbTrace
 62
2
  6
CONTINUOUS
 10
4.1474395724
 20
2.4167227074
 11
4.1634067256
 21
2.4201442402
 12
4.1656877475
 22
2.4110201527
 13
4.1656877475
 23
2.4110201527
  0
SOLID
  5
3D5
100
AcDbEntity
  8
0
100
AcDbTrace
 62
2
  6
CONTINUOUS
 10
4.1656877475
 20
2.4110201527
 11
4.1485800833
 21
2.4098796417
 12
4.1474395724
 22
2.4167227074
 13
4.1474395724
 23
2.4167227074
  0
SOLID
  5
3D6
100
AcDbEntity
  8
0
100
AcDbTrace
 62
2
  6
CONTINUOUS
 10
4.2535070906
 20
2.4075986198
 11
4.2363994264
 21
2.4053175979
 12
4.2375399373
 22
2.4121606636
 13
4.2375399373
 23
2.4121606636
  0
SOLID
  5
3D7
100
AcDbEntity
  8
0
100
AcDbTrace
 62
2
  6
CONTINUOUS
 10
4.1508611052
 20
2.404177087
 11
4.1485800833
 21
2.4098796417
 12
4.1656877475
 22
2.4110201527
 13
4.1656877475
 23
2.4110201527
  0
SOLID
  5
3D8
100
AcDbEntity
  8
0
100
AcDbTrace
 62
2
  6
CONTINUOUS
 10
4.1508611052
 20
2.404177087
 11
4.1656877475
 21
2.4110201527
 12
4.1679687694
 22
2.403036576
 13
4.1679687694
 23
2.403036576
  0
SOLID
  5
3D9
100
AcDbEntity
  8
0
100
AcDbTrace
 62
2
  6
CONTINUOUS
 10
4.2341184045
 20
2.3996150519
 11
4.2363994264
 21
2.4053175979
 12
4.2535070906
 22
2.4075986198
 13
4.2535070906
 23
2.4075986198
  0
SOLID
  5
3DA
100
AcDbEntity
  8
0
100
AcDbTrace
 62
2
  6
CONTINUOUS
 10
4.2341184045
 20
2.3996150519
 11
4.2535070906
 21
2.4075986198
 12
4.2512260687
 22
2.3996150519
 13
4.2512260687
 23
2.3996150519
  0
SOLID
  5
3DB
100
AcDbEntity
  8
0
100
AcDbTrace
 62
2
  6
CONTINUOUS
 10
4.1679687694
 20
2.403036576
 11
4.1531421271
 21
2.3984745322
 12
4.1508611052
 22
2.404177087
 13
4.1508611052
 23
2.404177087
  0
SOLID
  5
3DC
100
AcDbEntity
  8
0
100
AcDbTrace
 62
2
  6
CONTINUOUS
 10
4.1531421271
 20
2.3984745322
 11
4.1679687694
 21
2.403036576
 12
4.1713903023
 22
2.3961935103
 13
4.1713903023
 23
2.3961935103
  0
SOLID
  5
3DD
100
AcDbEntity
  8
0
100
AcDbTrace
 62
2
  6
CONTINUOUS
 10
4.2512260687
 20
2.3996150519
 11
4.2306968716
 21
2.3950529994
 12
4.2341184045
 22
2.3996150519
 13
4.2341184045
 23
2.3996150519
  0
SOLID
  5
3DE
100
AcDbEntity
  8
0
100
AcDbTrace
 62
2
  6
CONTINUOUS
 10
4.1713903023
 20
2.3961935103
 11
4.155423149
 21
2.3927719775
 12
4.1531421271
 22
2.3984745322
 13
4.1531421271
 23
2.3984745322
  0
SOLID
  5
3DF
100
AcDbEntity
  8
0
100
AcDbTrace
 62
2
  6
CONTINUOUS
 10
4.2306968716
 20
2.3950529994
 11
4.2512260687
 21
2.3996150519
 12
4.2478045359
 22
2.3916314665
 13
4.2478045359
 23
2.3916314665
  0
SOLID
  5
3E0
100
AcDbEntity
  8
0
100
AcDbTrace
 62
2
  6
CONTINUOUS
 10
4.155423149
 20
2.3927719775
 11
4.1713903023
 21
2.3961935103
 12
4.1759523461
 22
2.3904909556
 13
4.1759523461
 23
2.3904909556
  0
SOLID
  5
3E1
100
AcDbEntity
  8
0
100
AcDbTrace
 62
2
  6
CONTINUOUS
 10
4.2478045359
 20
2.3916314665
 11
4.2272753388
 21
2.3904909556
 12
4.2306968716
 22
2.3950529994
 13
4.2306968716
 23
2.3950529994
  0
SOLID
  5
3E2
100
AcDbEntity
  8
0
100
AcDbTrace
 62
2
  6
CONTINUOUS
 10
4.1759523461
 20
2.3904909556
 11
4.1588446818
 21
2.3882099337
 12
4.155423149
 22
2.3927719775
 13
4.155423149
 23
2.3927719775
  0
SOLID
  5
3E3
100
AcDbEntity
  8
0
100
AcDbTrace
 62
2
  6
CONTINUOUS
 10
4.1588446818
 20
2.3882099337
 11
4.1759523461
 21
2.3904909556
 12
4.1816549008
 22
2.3859289118
 13
4.1816549008
 23
2.3859289118
  0
SOLID
  5
3E4
100
AcDbEntity
  8
0
100
AcDbTrace
 62
2
  6
CONTINUOUS
 10
4.2238538059
 20
2.3870694227
 11
4.2272753388
 21
2.3904909556
 12
4.2478045359
 22
2.3916314665
 13
4.2478045359
 23
2.3916314665
  0
SOLID
  5
3E5
100
AcDbEntity
  8
0
100
AcDbTrace
 62
2
  6
CONTINUOUS
 10
4.2192917621
 20
2.3847884356
 11
4.2238538059
 21
2.3870694227
 12
4.2478045359
 22
2.3916314665
 13
4.2478045359
 23
2.3916314665
  0
SOLID
  5
3E6
100
AcDbEntity
  8
0
100
AcDbTrace
 62
2
  6
CONTINUOUS
 10
4.2192917621
 20
2.3847884356
 11
4.2478045359
 21
2.3916314665
 12
4.2432424921
 22
2.3847884356
 13
4.2432424921
 23
2.3847884356
  0
SOLID
  5
3E7
100
AcDbEntity
  8
0
100
AcDbTrace
 62
2
  6
CONTINUOUS
 10
4.1816549008
 20
2.3859289118
 11
4.1622662147
 21
2.3836479682
 12
4.1588446818
 22
2.3882099337
 13
4.1588446818
 23
2.3882099337
  0
SOLID
  5
3E8
100
AcDbEntity
  8
0
100
AcDbTrace
 62
2
  6
CONTINUOUS
 10
4.1622662147
 20
2.3836479682
 11
4.1816549008
 21
2.3859289118
 12
4.1873574556
 22
2.3836479682
 13
4.1873574556
 23
2.3836479682
  0
SOLID
  5
3E9
100
AcDbEntity
  8
0
100
AcDbTrace
 62
2
  6
CONTINUOUS
 10
4.2432424921
 20
2.3847884356
 11
4.2147297183
 21
2.3825073789
 12
4.2192917621
 22
2.3847884356
 13
4.2192917621
 23
2.3847884356
  0
SOLID
  5
3EA
100
AcDbEntity
  8
0
100
AcDbTrace
 62
2
  6
CONTINUOUS
 10
4.2101676745
 20
2.4555000797
 11
4.1942005213
 21
2.381366868
 12
4.1942005213
 22
2.4555000797
 13
4.1942005213
 23
2.4555000797
  0
SOLID
  5
3EB
100
AcDbEntity
  8
0
100
AcDbTrace
 62
2
  6
CONTINUOUS
 10
4.1942005213
 20
2.381366868
 11
4.2101676745
 21
2.4555000797
 12
4.2101676745
 22
2.381366868
 13
4.2101676745
 23
2.381366868
  0
SOLID
  5
3EC
100
AcDbEntity
  8
0
100
AcDbTrace
 62
2
  6
CONTINUOUS
 10
4.2101676745
 20
2.381366868
 11
4.2147297183
 21
2.3825073789
 12
4.2432424921
 22
2.3847884356
 13
4.2432424921
 23
2.3847884356
  0
SOLID
  5
3ED
100
AcDbEntity
  8
0
100
AcDbTrace
 62
2
  6
CONTINUOUS
 10
4.2101676745
 20
2.381366868
 11
4.2432424921
 21
2.3847884356
 12
4.2375399373
 22
2.3790858461
 13
4.2375399373
 23
2.3790858461
  0
SOLID
  5
3EE
100
AcDbEntity
  8
0
100
AcDbTrace
 62
2
  6
CONTINUOUS
 10
4.2101676745
 20
2.381366868
 11
4.2375399373
 21
2.3790858461
 12
4.1691092804
 22
2.3768048242
 13
4.1691092804
 23
2.3768048242
  0
SOLID
  5
3EF
100
AcDbEntity
  8
0
100
AcDbTrace
 62
2
  6
CONTINUOUS
 10
4.1942005213
 20
2.381366868
 11
4.2101676745
 21
2.381366868
 12
4.1691092804
 22
2.3768048242
 13
4.1691092804
 23
2.3768048242
  0
SOLID
  5
3F0
100
AcDbEntity
  8
0
100
AcDbTrace
 62
2
  6
CONTINUOUS
 10
4.1873574556
 20
2.3836479682
 11
4.1942005213
 21
2.381366868
 12
4.1691092804
 22
2.3768048242
 13
4.1691092804
 23
2.3768048242
  0
SOLID
  5
3F1
100
AcDbEntity
  8
0
100
AcDbTrace
 62
2
  6
CONTINUOUS
 10
4.1873574556
 20
2.3836479682
 11
4.1691092804
 21
2.3768048242
 12
4.1622662147
 22
2.3836479682
 13
4.1622662147
 23
2.3836479682
  0
SOLID
  5
3F2
100
AcDbEntity
  8
0
100
AcDbTrace
 62
2
  6
CONTINUOUS
 10
4.1691092804
 20
2.3768048242
 11
4.2375399373
 21
2.3790858461
 12
4.2318373826
 22
2.3745238023
 13
4.2318373826
 23
2.3745238023
  0
SOLID
  5
3F3
100
AcDbEntity
  8
0
100
AcDbTrace
 62
2
  6
CONTINUOUS
 10
4.2318373826
 20
2.3745238023
 11
4.1759523461
 21
2.3722427804
 12
4.1691092804
 22
2.3768048242
 13
4.1691092804
 23
2.3768048242
  0
SOLID
  5
3F4
100
AcDbEntity
  8
0
100
AcDbTrace
 62
2
  6
CONTINUOUS
 10
4.1759523461
 20
2.3722427804
 11
4.2318373826
 21
2.3745238023
 12
4.2249943169
 22
2.3711022694
 13
4.2249943169
 23
2.3711022694
  0
SOLID
  5
3F5
100
AcDbEntity
  8
0
100
AcDbTrace
 62
2
  6
CONTINUOUS
 10
4.2249943169
 20
2.3711022694
 11
4.1850764337
 21
2.3688211953
 12
4.1759523461
 22
2.3722427804
 13
4.1759523461
 23
2.3722427804
  0
SOLID
  5
3F6
100
AcDbEntity
  8
0
100
AcDbTrace
 62
2
  6
CONTINUOUS
 10
4.1850764337
 20
2.3688211953
 11
4.2249943169
 21
2.3711022694
 12
4.2181512512
 22
2.3688211953
 13
4.2181512512
 23
2.3688211953
  0
SOLID
  5
3F7
100
AcDbEntity
  8
0
100
AcDbTrace
 62
2
  6
CONTINUOUS
 10
4.2181512512
 20
2.3688211953
 11
4.1942005213
 21
2.3676807192
 12
4.1850764337
 22
2.3688211953
 13
4.1850764337
 23
2.3688211953
  0
SOLID
  5
3F8
100
AcDbEntity
  8
0
100
AcDbTrace
 62
2
  6
CONTINUOUS
 10
4.1942005213
 20
2.3676807192
 11
4.2181512512
 21
2.3688211953
 12
4.2101676745
 22
2.3676807192
 13
4.2101676745
 23
2.3676807192
  0
SOLID
  5
3F9
100
AcDbEntity
  8
0
100
AcDbTrace
 62
2
  6
CONTINUOUS
 10
4.2101676745
 20
2.3482920592
 11
4.2694742439
 21
2.3482920592
 12
4.1942005213
 22
2.3346059191
 13
4.1942005213
 23
2.3346059191
  0
SOLID
  5
3FA
100
AcDbEntity
  8
0
100
AcDbTrace
 62
2
  6
CONTINUOUS
 10
4.2101676745
 20
2.3676807192
 11
4.2101676745
 21
2.3482920592
 12
4.1942005213
 22
2.3346059191
 13
4.1942005213
 23
2.3346059191
  0
SOLID
  5
3FB
100
AcDbEntity
  8
0
100
AcDbTrace
 62
2
  6
CONTINUOUS
 10
4.2101676745
 20
2.3676807192
 11
4.1942005213
 21
2.3346059191
 12
4.1942005213
 22
2.3676807192
 13
4.1942005213
 23
2.3676807192
  0
SOLID
  5
3FC
100
AcDbEntity
  8
0
100
AcDbTrace
 62
2
  6
CONTINUOUS
 10
4.1942005213
 20
2.3346059191
 11
4.2694742439
 21
2.3482920592
 12
4.2694742439
 22
2.3346059191
 13
4.2694742439
 23
2.3346059191
  0
SOLID
  5
3FD
100
AcDbEntity
  8
0
100
AcDbTrace
 62
2
  6
CONTINUOUS
 10
7.2888106276
 20
5.656718592
 11
7.2967942042
 21
5.6578590681
 12
7.3059182918
 22
5.656718592
 13
7.3059182918
 23
5.656718592
  0
SOLID
  5
3FE
100
AcDbEntity
  8
0
100
AcDbTrace
 62
2
  6
CONTINUOUS
 10
7.3059182918
 20
5.656718592
 11
7.2808270509
 21
5.6555781159
 12
7.2888106276
 22
5.656718592
 13
7.2888106276
 23
5.656718592
  0
SOLID
  5
3FF
100
AcDbEntity
  8
0
100
AcDbTrace
 62
2
  6
CONTINUOUS
 10
7.2808270509
 20
5.6555781159
 11
7.3059182918
 21
5.656718592
 12
7.3139018685
 22
5.6555781159
 13
7.3139018685
 23
5.6555781159
  0
SOLID
  5
400
100
AcDbEntity
  8
0
100
AcDbTrace
 62
2
  6
CONTINUOUS
 10
7.3139018685
 20
5.6555781159
 11
7.2739839853
 21
5.6532970243
 12
7.2808270509
 22
5.6555781159
 13
7.2808270509
 23
5.6555781159
  0
SOLID
  5
401
100
AcDbEntity
  8
0
100
AcDbTrace
 62
2
  6
CONTINUOUS
 10
7.2739839853
 20
5.6532970243
 11
7.3139018685
 21
5.6555781159
 12
7.3207449342
 22
5.6521565134
 13
7.3207449342
 23
5.6521565134
  0
SOLID
  5
402
100
AcDbEntity
  8
0
100
AcDbTrace
 62
2
  6
CONTINUOUS
 10
7.3207449342
 20
5.6521565134
 11
7.2671409196
 21
5.6498754915
 12
7.2739839853
 22
5.6532970243
 13
7.2739839853
 23
5.6532970243
  0
SOLID
  5
403
100
AcDbEntity
  8
0
100
AcDbTrace
 62
2
  6
CONTINUOUS
 10
7.2671409196
 20
5.6498754915
 11
7.3207449342
 21
5.6521565134
 12
7.3275879999
 22
5.6475944696
 13
7.3275879999
 23
5.6475944696
  0
SOLID
  5
404
100
AcDbEntity
  8
0
100
AcDbTrace
 62
2
  6
CONTINUOUS
 10
7.3275879999
 20
5.6475944696
 11
7.2614383648
 21
5.6453134477
 12
7.2671409196
 22
5.6498754915
 13
7.2671409196
 23
5.6498754915
  0
SOLID
  5
405
100
AcDbEntity
  8
0
100
AcDbTrace
 62
2
  6
CONTINUOUS
 10
7.2910916495
 20
5.6430324606
 11
7.2614383648
 21
5.6453134477
 12
7.3275879999
 22
5.6475944696
 13
7.3275879999
 23
5.6475944696
  0
SOLID
  5
406
100
AcDbEntity
  8
0
100
AcDbTrace
 62
2
  6
CONTINUOUS
 10
7.2967942042
 20
5.6430324606
 11
7.2910916495
 21
5.6430324606
 12
7.3275879999
 22
5.6475944696
 13
7.3275879999
 23
5.6475944696
  0
SOLID
  5
407
100
AcDbEntity
  8
0
100
AcDbTrace
 62
2
  6
CONTINUOUS
 10
7.302496759
 20
5.6430324606
 11
7.2967942042
 21
5.6430324606
 12
7.3275879999
 22
5.6475944696
 13
7.3275879999
 23
5.6475944696
  0
SOLID
  5
408
100
AcDbEntity
  8
0
100
AcDbTrace
 62
2
  6
CONTINUOUS
 10
7.302496759
 20
5.6430324606
 11
7.3275879999
 21
5.6475944696
 12
7.3332905546
 22
5.6430324606
 13
7.3332905546
 23
5.6430324606
  0
SOLID
  5
409
100
AcDbEntity
  8
0
100
AcDbTrace
 62
2
  6
CONTINUOUS
 10
7.3332905546
 20
5.6430324606
 11
7.3081993137
 21
5.6418919845
 12
7.302496759
 22
5.6430324606
 13
7.302496759
 23
5.6430324606
  0
SOLID
  5
40A
100
AcDbEntity
  8
0
100
AcDbTrace
 62
2
  6
CONTINUOUS
 10
7.2910916495
 20
5.6430324606
 11
7.2853890947
 21
5.6418919845
 12
7.2557358101
 22
5.6407513517
 13
7.2557358101
 23
5.6407513517
  0
SOLID
  5
40B
100
AcDbEntity
  8
0
100
AcDbTrace
 62
2
  6
CONTINUOUS
 10
7.2910916495
 20
5.6430324606
 11
7.2557358101
 21
5.6407513517
 12
7.2614383648
 22
5.6453134477
 13
7.2614383648
 23
5.6453134477
  0
SOLID
  5
40C
100
AcDbEntity
  8
0
100
AcDbTrace
 62
2
  6
CONTINUOUS
 10
7.2557358101
 20
5.6407513517
 11
7.2853890947
 21
5.6418919845
 12
7.27968654
 22
5.6407513517
 13
7.27968654
 23
5.6407513517
  0
SOLID
  5
40D
100
AcDbEntity
  8
0
100
AcDbTrace
 62
2
  6
CONTINUOUS
 10
7.3127613575
 20
5.639610893
 11
7.3081993137
 21
5.6418919845
 12
7.3332905546
 22
5.6430324606
 13
7.3332905546
 23
5.6430324606
  0
SOLID
  5
40E
100
AcDbEntity
  8
0
100
AcDbTrace
 62
2
  6
CONTINUOUS
 10
7.3173234013
 20
5.6373299407
 11
7.3127613575
 21
5.639610893
 12
7.3332905546
 22
5.6430324606
 13
7.3332905546
 23
5.6430324606
  0
SOLID
  5
40F
100
AcDbEntity
  8
0
100
AcDbTrace
 62
2
  6
CONTINUOUS
 10
7.3173234013
 20
5.6373299407
 11
7.3332905546
 21
5.6430324606
 12
7.3378525984
 22
5.6373299407
 13
7.3378525984
 23
5.6373299407
  0
SOLID
  5
410
100
AcDbEntity
  8
0
100
AcDbTrace
 62
2
  6
CONTINUOUS
 10
7.27968654
 20
5.6407513517
 11
7.2751244962
 21
5.6373299407
 12
7.2511737663
 22
5.6350488318
 13
7.2511737663
 23
5.6350488318
  0
SOLID
  5
411
100
AcDbEntity
  8
0
100
AcDbTrace
 62
2
  6
CONTINUOUS
 10
7.27968654
 20
5.6407513517
 11
7.2511737663
 21
5.6350488318
 12
7.2557358101
 22
5.6407513517
 13
7.2557358101
 23
5.6407513517
  0
SOLID
  5
412
100
AcDbEntity
  8
0
100
AcDbTrace
 62
2
  6
CONTINUOUS
 10
7.2511737663
 20
5.6350488318
 11
7.2751244962
 21
5.6373299407
 12
7.2705624524
 22
5.6350488318
 13
7.2705624524
 23
5.6350488318
  0
SOLID
  5
413
100
AcDbEntity
  8
0
100
AcDbTrace
 62
2
  6
CONTINUOUS
 10
7.3378525984
 20
5.6373299407
 11
7.3207449342
 21
5.6339083382
 12
7.3173234013
 22
5.6373299407
 13
7.3173234013
 23
5.6373299407
  0
SOLID
  5
414
100
AcDbEntity
  8
0
100
AcDbTrace
 62
2
  6
CONTINUOUS
 10
7.3207449342
 20
5.6339083382
 11
7.3378525984
 21
5.6373299407
 12
7.3424146422
 22
5.630486788
 13
7.3424146422
 23
5.630486788
  0
SOLID
  5
415
100
AcDbEntity
  8
0
100
AcDbTrace
 62
2
  6
CONTINUOUS
 10
7.3424146422
 20
5.630486788
 11
7.324166467
 21
5.6293462944
 12
7.3207449342
 22
5.6339083382
 13
7.3207449342
 23
5.6339083382
  0
SOLID
  5
416
100
AcDbEntity
  8
0
100
AcDbTrace
 62
2
  6
CONTINUOUS
 10
7.2705624524
 20
5.6350488318
 11
7.2671409196
 21
5.630486788
 12
7.2477522334
 22
5.6282057835
 13
7.2477522334
 23
5.6282057835
  0
SOLID
  5
417
100
AcDbEntity
  8
0
100
AcDbTrace
 62
2
  6
CONTINUOUS
 10
7.2705624524
 20
5.6350488318
 11
7.2477522334
 21
5.6282057835
 12
7.2511737663
 22
5.6350488318
 13
7.2511737663
 23
5.6350488318
  0
SOLID
  5
418
100
AcDbEntity
  8
0
100
AcDbTrace
 62
2
  6
CONTINUOUS
 10
7.2477522334
 20
5.6282057835
 11
7.2671409196
 21
5.630486788
 12
7.2637193867
 22
5.6259247616
 13
7.2637193867
 23
5.6259247616
  0
SOLID
  5
419
100
AcDbEntity
  8
0
100
AcDbTrace
 62
2
  6
CONTINUOUS
 10
7.3264474889
 20
5.6247842506
 11
7.324166467
 21
5.6293462944
 12
7.3424146422
 22
5.630486788
 13
7.3424146422
 23
5.630486788
  0
SOLID
  5
41A
100
AcDbEntity
  8
0
100
AcDbTrace
 62
2
  6
CONTINUOUS
 10
7.3264474889
 20
5.6247842506
 11
7.3424146422
 21
5.630486788
 12
7.3446956641
 22
5.6225032287
 13
7.3446956641
 23
5.6225032287
  0
SOLID
  5
41B
100
AcDbEntity
  8
0
100
AcDbTrace
 62
2
  6
CONTINUOUS
 10
7.2637193867
 20
5.6259247616
 11
7.2614383648
 21
5.6213627178
 12
7.2443307006
 22
5.6202222068
 13
7.2443307006
 23
5.6202222068
  0
SOLID
  5
41C
100
AcDbEntity
  8
0
100
AcDbTrace
 62
2
  6
CONTINUOUS
 10
7.2637193867
 20
5.6259247616
 11
7.2443307006
 21
5.6202222068
 12
7.2477522334
 22
5.6282057835
 13
7.2477522334
 23
5.6282057835
  0
SOLID
  5
41D
100
AcDbEntity
  8
0
100
AcDbTrace
 62
2
  6
CONTINUOUS
 10
7.3446956641
 20
5.6225032287
 11
7.3287285108
 21
5.6190816959
 12
7.3264474889
 22
5.6247842506
 13
7.3264474889
 23
5.6247842506
  0
SOLID
  5
41E
100
AcDbEntity
  8
0
100
AcDbTrace
 62
2
  6
CONTINUOUS
 10
7.2443307006
 20
5.6202222068
 11
7.2614383648
 21
5.6213627178
 12
7.2591573429
 22
5.615660163
 13
7.2591573429
 23
5.615660163
  0
SOLID
  5
41F
100
AcDbEntity
  8
0
100
AcDbTrace
 62
2
  6
CONTINUOUS
 10
7.2591573429
 20
5.615660163
 11
7.2420496787
 21
5.6133791411
 12
7.2443307006
 22
5.6202222068
 13
7.2443307006
 23
5.6202222068
  0
SOLID
  5
420
100
AcDbEntity
  8
0
100
AcDbTrace
 62
2
  6
CONTINUOUS
 10
7.2420496787
 20
5.6133791411
 11
7.2591573429
 21
5.615660163
 12
7.258016832
 22
5.6088170973
 13
7.258016832
 23
5.6088170973
  0
SOLID
  5
421
100
AcDbEntity
  8
0
100
AcDbTrace
 62
2
  6
CONTINUOUS
 10
7.258016832
 20
5.6088170973
 11
7.2409091677
 21
5.6042550535
 12
7.2420496787
 22
5.6133791411
 13
7.2420496787
 23
5.6133791411
  0
SOLID
  5
422
100
AcDbEntity
  8
0
100
AcDbTrace
 62
2
  6
CONTINUOUS
 10
7.2409091677
 20
5.6042550535
 11
7.258016832
 21
5.6088170973
 12
7.256876321
 22
5.6019740316
 13
7.256876321
 23
5.6019740316
  0
SOLID
  5
423
100
AcDbEntity
  8
0
100
AcDbTrace
 62
2
  6
CONTINUOUS
 10
7.256876321
 20
5.6019740316
 11
7.2397686568
 21
5.5951310356
 12
7.2409091677
 22
5.6042550535
 13
7.2409091677
 23
5.6042550535
  0
SOLID
  5
424
100
AcDbEntity
  8
0
100
AcDbTrace
 62
2
  6
CONTINUOUS
 10
7.2397686568
 20
5.5951310356
 11
7.256876321
 21
5.6019740316
 12
7.256876321
 22
5.5951310356
 13
7.256876321
 23
5.5951310356
  0
SOLID
  5
425
100
AcDbEntity
  8
0
100
AcDbTrace
 62
2
  6
CONTINUOUS
 10
7.256876321
 20
5.5951310356
 11
7.2397686568
 21
5.5882879003
 12
7.2397686568
 22
5.5951310356
 13
7.2397686568
 23
5.5951310356
  0
SOLID
  5
426
100
AcDbEntity
  8
0
100
AcDbTrace
 62
2
  6
CONTINUOUS
 10
7.2397686568
 20
5.5882879003
 11
7.256876321
 21
5.5951310356
 12
7.256876321
 22
5.5848663674
 13
7.256876321
 23
5.5848663674
  0
SOLID
  5
427
100
AcDbEntity
  8
0
100
AcDbTrace
 62
2
  6
CONTINUOUS
 10
7.256876321
 20
5.5848663674
 11
7.2409091677
 21
5.5814448346
 12
7.2397686568
 22
5.5882879003
 13
7.2397686568
 23
5.5882879003
  0
SOLID
  5
428
100
AcDbEntity
  8
0
100
AcDbTrace
 62
2
  6
CONTINUOUS
 10
7.2409091677
 20
5.5814448346
 11
7.256876321
 21
5.5848663674
 12
7.2591573429
 22
5.5757422798
 13
7.2591573429
 23
5.5757422798
  0
SOLID
  5
429
100
AcDbEntity
  8
0
100
AcDbTrace
 62
2
  6
CONTINUOUS
 10
7.2591573429
 20
5.5757422798
 11
7.2420496787
 21
5.5746017689
 12
7.2409091677
 22
5.5814448346
 13
7.2409091677
 23
5.5814448346
  0
SOLID
  5
42A
100
AcDbEntity
  8
0
100
AcDbTrace
 62
2
  6
CONTINUOUS
 10
7.346976686
 20
5.572320747
 11
7.3298690218
 21
5.5700397251
 12
7.3310095327
 22
5.5768827908
 13
7.3310095327
 23
5.5768827908
  0
SOLID
  5
42B
100
AcDbEntity
  8
0
100
AcDbTrace
 62
2
  6
CONTINUOUS
 10
7.2443307006
 20
5.5688992141
 11
7.2420496787
 21
5.5746017689
 12
7.2591573429
 22
5.5757422798
 13
7.2591573429
 23
5.5757422798
  0
SOLID
  5
42C
100
AcDbEntity
  8
0
100
AcDbTrace
 62
2
  6
CONTINUOUS
 10
7.2443307006
 20
5.5688992141
 11
7.2591573429
 21
5.5757422798
 12
7.2614383648
 22
5.5677587032
 13
7.2614383648
 23
5.5677587032
  0
SOLID
  5
42D
100
AcDbEntity
  8
0
100
AcDbTrace
 62
2
  6
CONTINUOUS
 10
7.3275879999
 20
5.564337179
 11
7.3298690218
 21
5.5700397251
 12
7.346976686
 22
5.572320747
 13
7.346976686
 23
5.572320747
  0
SOLID
  5
42E
100
AcDbEntity
  8
0
100
AcDbTrace
 62
2
  6
CONTINUOUS
 10
7.3275879999
 20
5.564337179
 11
7.346976686
 21
5.572320747
 12
7.3446956641
 22
5.564337179
 13
7.3446956641
 23
5.564337179
  0
SOLID
  5
42F
100
AcDbEntity
  8
0
100
AcDbTrace
 62
2
  6
CONTINUOUS
 10
7.2614383648
 20
5.5677587032
 11
7.2466117225
 21
5.5631966594
 12
7.2443307006
 22
5.5688992141
 13
7.2443307006
 23
5.5688992141
  0
SOLID
  5
430
100
AcDbEntity
  8
0
100
AcDbTrace
 62
2
  6
CONTINUOUS
 10
7.2466117225
 20
5.5631966594
 11
7.2614383648
 21
5.5677587032
 12
7.2648598977
 22
5.5609156375
 13
7.2648598977
 23
5.5609156375
  0
SOLID
  5
431
100
AcDbEntity
  8
0
100
AcDbTrace
 62
2
  6
CONTINUOUS
 10
7.3446956641
 20
5.564337179
 11
7.324166467
 21
5.5597751265
 12
7.3275879999
 22
5.564337179
 13
7.3275879999
 23
5.564337179
  0
SOLID
  5
432
100
AcDbEntity
  8
0
100
AcDbTrace
 62
2
  6
CONTINUOUS
 10
7.2648598977
 20
5.5609156375
 11
7.2488927444
 21
5.5574941046
 12
7.2466117225
 22
5.5631966594
 13
7.2466117225
 23
5.5631966594
  0
SOLID
  5
433
100
AcDbEntity
  8
0
100
AcDbTrace
 62
2
  6
CONTINUOUS
 10
7.324166467
 20
5.5597751265
 11
7.3446956641
 21
5.564337179
 12
7.3412741312
 22
5.5563535937
 13
7.3412741312
 23
5.5563535937
  0
SOLID
  5
434
100
AcDbEntity
  8
0
100
AcDbTrace
 62
2
  6
CONTINUOUS
 10
7.2488927444
 20
5.5574941046
 11
7.2648598977
 21
5.5609156375
 12
7.2694219415
 22
5.5552130827
 13
7.2694219415
 23
5.5552130827
  0
SOLID
  5
435
100
AcDbEntity
  8
0
100
AcDbTrace
 62
2
  6
CONTINUOUS
 10
7.3412741312
 20
5.5563535937
 11
7.3207449342
 21
5.5552130827
 12
7.324166467
 22
5.5597751265
 13
7.324166467
 23
5.5597751265
  0
SOLID
  5
436
100
AcDbEntity
  8
0
100
AcDbTrace
 62
2
  6
CONTINUOUS
 10
7.2694219415
 20
5.5552130827
 11
7.2523142772
 21
5.5529320608
 12
7.2488927444
 22
5.5574941046
 13
7.2488927444
 23
5.5574941046
  0
SOLID
  5
437
100
AcDbEntity
  8
0
100
AcDbTrace
 62
2
  6
CONTINUOUS
 10
7.2523142772
 20
5.5529320608
 11
7.2694219415
 21
5.5552130827
 12
7.2751244962
 22
5.5506510389
 13
7.2751244962
 23
5.5506510389
  0
SOLID
  5
438
100
AcDbEntity
  8
0
100
AcDbTrace
 62
2
  6
CONTINUOUS
 10
7.3173234013
 20
5.5517915499
 11
7.3207449342
 21
5.5552130827
 12
7.3412741312
 22
5.5563535937
 13
7.3412741312
 23
5.5563535937
  0
SOLID
  5
439
100
AcDbEntity
  8
0
100
AcDbTrace
 62
2
  6
CONTINUOUS
 10
7.3127613575
 20
5.5495105628
 11
7.3173234013
 21
5.5517915499
 12
7.3412741312
 22
5.5563535937
 13
7.3412741312
 23
5.5563535937
  0
SOLID
  5
43A
100
AcDbEntity
  8
0
100
AcDbTrace
 62
2
  6
CONTINUOUS
 10
7.3127613575
 20
5.5495105628
 11
7.3412741312
 21
5.5563535937
 12
7.3367120874
 22
5.5495105628
 13
7.3367120874
 23
5.5495105628
  0
SOLID
  5
43B
100
AcDbEntity
  8
0
100
AcDbTrace
 62
2
  6
CONTINUOUS
 10
7.2751244962
 20
5.5506510389
 11
7.2557358101
 21
5.5483700954
 12
7.2523142772
 22
5.5529320608
 13
7.2523142772
 23
5.5529320608
  0
SOLID
  5
43C
100
AcDbEntity
  8
0
100
AcDbTrace
 62
2
  6
CONTINUOUS
 10
7.2557358101
 20
5.5483700954
 11
7.2751244962
 21
5.5506510389
 12
7.2808270509
 22
5.5483700954
 13
7.2808270509
 23
5.5483700954
  0
SOLID
  5
43D
100
AcDbEntity
  8
0
100
AcDbTrace
 62
2
  6
CONTINUOUS
 10
7.3367120874
 20
5.5495105628
 11
7.3081993137
 21
5.5472295061
 12
7.3127613575
 22
5.5495105628
 13
7.3127613575
 23
5.5495105628
  0
SOLID
  5
43E
100
AcDbEntity
  8
0
100
AcDbTrace
 62
2
  6
CONTINUOUS
 10
7.3036372699
 20
5.6202222068
 11
7.2876701166
 21
5.5460889951
 12
7.2876701166
 22
5.6202222068
 13
7.2876701166
 23
5.6202222068
  0
SOLID
  5
43F
100
AcDbEntity
  8
0
100
AcDbTrace
 62
2
  6
CONTINUOUS
 10
7.2876701166
 20
5.5460889951
 11
7.3036372699
 21
5.6202222068
 12
7.3036372699
 22
5.5460889951
 13
7.3036372699
 23
5.5460889951
  0
SOLID
  5
440
100
AcDbEntity
  8
0
100
AcDbTrace
 62
2
  6
CONTINUOUS
 10
7.3036372699
 20
5.5460889951
 11
7.3081993137
 21
5.5472295061
 12
7.3367120874
 22
5.5495105628
 13
7.3367120874
 23
5.5495105628
  0
SOLID
  5
441
100
AcDbEntity
  8
0
100
AcDbTrace
 62
2
  6
CONTINUOUS
 10
7.3036372699
 20
5.5460889951
 11
7.3367120874
 21
5.5495105628
 12
7.3310095327
 22
5.5438079733
 13
7.3310095327
 23
5.5438079733
  0
SOLID
  5
442
100
AcDbEntity
  8
0
100
AcDbTrace
 62
2
  6
CONTINUOUS
 10
7.3036372699
 20
5.5460889951
 11
7.3310095327
 21
5.5438079733
 12
7.2625788758
 22
5.5415269514
 13
7.2625788758
 23
5.5415269514
  0
SOLID
  5
443
100
AcDbEntity
  8
0
100
AcDbTrace
 62
2
  6
CONTINUOUS
 10
7.2876701166
 20
5.5460889951
 11
7.3036372699
 21
5.5460889951
 12
7.2625788758
 22
5.5415269514
 13
7.2625788758
 23
5.5415269514
  0
SOLID
  5
444
100
AcDbEntity
  8
0
100
AcDbTrace
 62
2
  6
CONTINUOUS
 10
7.2808270509
 20
5.5483700954
 11
7.2876701166
 21
5.5460889951
 12
7.2625788758
 22
5.5415269514
 13
7.2625788758
 23
5.5415269514
  0
SOLID
  5
445
100
AcDbEntity
  8
0
100
AcDbTrace
 62
2
  6
CONTINUOUS
 10
7.2808270509
 20
5.5483700954
 11
7.2625788758
 21
5.5415269514
 12
7.2557358101
 22
5.5483700954
 13
7.2557358101
 23
5.5483700954
  0
SOLID
  5
446
100
AcDbEntity
  8
0
100
AcDbTrace
 62
2
  6
CONTINUOUS
 10
7.2625788758
 20
5.5415269514
 11
7.3310095327
 21
5.5438079733
 12
7.325306978
 22
5.5392459295
 13
7.325306978
 23
5.5392459295
  0
SOLID
  5
447
100
AcDbEntity
  8
0
100
AcDbTrace
 62
2
  6
CONTINUOUS
 10
7.325306978
 20
5.5392459295
 11
7.2694219415
 21
5.5369649076
 12
7.2625788758
 22
5.5415269514
 13
7.2625788758
 23
5.5415269514
  0
SOLID
  5
448
100
AcDbEntity
  8
0
100
AcDbTrace
 62
2
  6
CONTINUOUS
 10
7.2694219415
 20
5.5369649076
 11
7.325306978
 21
5.5392459295
 12
7.3184639123
 22
5.5358243966
 13
7.3184639123
 23
5.5358243966
  0
SOLID
  5
449
100
AcDbEntity
  8
0
100
AcDbTrace
 62
2
  6
CONTINUOUS
 10
7.3184639123
 20
5.5358243966
 11
7.278546029
 21
5.5335433225
 12
7.2694219415
 22
5.5369649076
 13
7.2694219415
 23
5.5369649076
  0
SOLID
  5
44A
100
AcDbEntity
  8
0
100
AcDbTrace
 62
2
  6
CONTINUOUS
 10
7.278546029
 20
5.5335433225
 11
7.3184639123
 21
5.5358243966
 12
7.3116208466
 22
5.5335433225
 13
7.3116208466
 23
5.5335433225
  0
SOLID
  5
44B
100
AcDbEntity
  8
0
100
AcDbTrace
 62
2
  6
CONTINUOUS
 10
7.3116208466
 20
5.5335433225
 11
7.2876701166
 21
5.5324028464
 12
7.278546029
 22
5.5335433225
 13
7.278546029
 23
5.5335433225
  0
SOLID
  5
44C
100
AcDbEntity
  8
0
100
AcDbTrace
 62
2
  6
CONTINUOUS
 10
7.2876701166
 20
5.5324028464
 11
7.3116208466
 21
5.5335433225
 12
7.3036372699
 22
5.5324028464
 13
7.3036372699
 23
5.5324028464
  0
SOLID
  5
44D
100
AcDbEntity
  8
0
100
AcDbTrace
 62
2
  6
CONTINUOUS
 10
7.3036372699
 20
5.5130141863
 11
7.3629438393
 21
5.5130141863
 12
7.2876701166
 22
5.4993280462
 13
7.2876701166
 23
5.4993280462
  0
SOLID
  5
44E
100
AcDbEntity
  8
0
100
AcDbTrace
 62
2
  6
CONTINUOUS
 10
7.3036372699
 20
5.5324028464
 11
7.3036372699
 21
5.5130141863
 12
7.2876701166
 22
5.4993280462
 13
7.2876701166
 23
5.4993280462
  0
SOLID
  5
44F
100
AcDbEntity
  8
0
100
AcDbTrace
 62
2
  6
CONTINUOUS
 10
7.3036372699
 20
5.5324028464
 11
7.2876701166
 21
5.4993280462
 12
7.2876701166
 22
5.5324028464
 13
7.2876701166
 23
5.5324028464
  0
SOLID
  5
450
100
AcDbEntity
  8
0
100
AcDbTrace
 62
2
  6
CONTINUOUS
 10
7.2876701166
 20
5.4993280462
 11
7.3629438393
 21
5.5130141863
 12
7.3629438393
 22
5.4993280462
 13
7.3629438393
 23
5.4993280462
  0
LWPOLYLINE
  5
451
100
AcDbEntity
  8
0
100
AcDbPolyline
 62
2
  6
CONTINUOUS
 90
10
 70
0
 10
2.4546871948
 20
0.4997566986
 10
2.5015622406
 20
0.4606942444
 10
2.5093746643
 20
0.4476733704
 10
2.5093746643
 20
0.4216317062
 10
2.5015622406
 20
0.4086109161
 10
2.4859372253
 20
0.3955900421
 10
2.4703122101
 20
0.3955900421
 10
2.4546871948
 20
0.4086109161
 10
2.4468747711
 20
0.4216317062
 10
2.4390621796
 20
0.4346525803
  0
LINE
  5
452
100
AcDbEntity
  8
0
100
AcDbLine
 62
7
  6
CONTINUOUS
 10
0.0
 20
0.0
 11
0.0
 21
17.0
  0
LWPOLYLINE
  5
453
100
AcDbEntity
  8
0
100
AcDbPolyline
 62
2
  6
CONTINUOUS
 90
8
 70
0
 10
2.5093746643
 20
0.5257983627
 10
2.5015622406
 20
0.5388192368
 10
2.4859372253
 20
0.5518400269
 10
2.4703122101
 20
0.5518400269
 10
2.4546871948
 20
0.5388192368
 10
2.4468747711
 20
0.5257983627
 10
2.4468747711
 20
0.5127775726
 10
2.4546871948
 20
0.4997566986
  0
LWPOLYLINE
  5
454
100
AcDbEntity
  8
0
100
AcDbPolyline
 62
2
  6
CONTINUOUS
 90
19
 70
0
 10
3.0093748169
 20
0.5257983627
 10
3.0015622253
 20
0.5388192368
 10
2.9859373779
 20
0.5518400269
 10
2.9703121948
 20
0.5518400269
 10
2.9546873474
 20
0.5388192368
 10
2.9468747559
 20
0.5257983627
 10
2.9468747559
 20
0.5127775726
 10
2.9546873474
 20
0.4997566986
 10
2.9703121948
 20
0.4867359085
 10
2.9859373779
 20
0.4737150345
 10
3.0015622253
 20
0.4606942444
 10
3.0093748169
 20
0.4476733704
 10
3.0093748169
 20
0.4216317062
 10
3.0015622253
 20
0.4086109161
 10
2.9859373779
 20
0.3955900421
 10
2.9703121948
 20
0.3955900421
 10
2.9546873474
 20
0.4086109161
 10
2.9468747559
 20
0.4216317062
 10
2.9390621643
 20
0.4346525803
  0
LINE
  5
455
100
AcDbEntity
  8
0
100
AcDbLine
 62
2
  6
CONTINUOUS
 10
2.4468747711
 20
0.7862150879
 11
2.5093746643
 21
0.6299651031
  0
LINE
  5
456
100
AcDbEntity
  8
0
100
AcDbLine
 62
2
  6
CONTINUOUS
 10
3.9546873169
 20
0.7341317596
 11
4.0015621948
 21
0.6950691376
  0
LWPOLYLINE
  5
457
100
AcDbEntity
  8
0
100
AcDbPolyline
 62
2
  6
CONTINUOUS
 90
10
 70
0
 10
3.3619404602
 20
1.7495101776
 10
3.4088156738
 20
1.7104477234
 10
3.4166279297
 20
1.6974268494
 10
3.4166279297
 20
1.6713851013
 10
3.4088156738
 20
1.6583643951
 10
3.3931904907
 20
1.6453435211
 10
3.3775656433
 20
1.6453435211
 10
3.3619404602
 20
1.6583643951
 10
3.3541282043
 20
1.6713851013
 10
3.3463156128
 20
1.6844059753
  0
LINE
  5
458
100
AcDbEntity
  8
0
100
AcDbLine
 62
2
  6
CONTINUOUS
 10
3.9546873169
 20
0.6429858093
 11
3.9390621338
 21
0.6690275574
  0
LWPOLYLINE
  5
459
100
AcDbEntity
  8
0
100
AcDbPolyline
 62
2
  6
CONTINUOUS
 90
7
 70
0
 10
4.0015621948
 20
0.6950691376
 10
4.0093747864
 20
0.6820484314
 10
4.0093747864
 20
0.6560066833
 10
4.0015621948
 20
0.6429858093
 10
3.9859373474
 20
0.6299651031
 10
3.9703121643
 20
0.6299651031
 10
3.9546873169
 20
0.6429858093
  0
LWPOLYLINE
  5
45A
100
AcDbEntity
  8
0
100
AcDbPolyline
 62
2
  6
CONTINUOUS
 90
8
 70
0
 10
4.0093747864
 20
0.7601733398
 10
4.0015621948
 20
0.7731942139
 10
3.9859373474
 20
0.7862150879
 10
3.9703121643
 20
0.7862150879
 10
3.9546873169
 20
0.7731942139
 10
3.9468747253
 20
0.7601733398
 10
3.9468747253
 20
0.7471526337
 10
3.9546873169
 20
0.7341317596
  0
LWPOLYLINE
  5
45B
100
AcDbEntity
  8
0
100
AcDbPolyline
 62
2
  6
CONTINUOUS
 90
8
 70
0
 10
3.4166279297
 20
1.7755519257
 10
3.4088156738
 20
1.7885726318
 10
3.3931904907
 20
1.8015935059
 10
3.3775656433
 20
1.8015935059
 10
3.3619404602
 20
1.7885726318
 10
3.3541282043
 20
1.7755519257
 10
3.3541282043
 20
1.7625310516
 10
3.3619404602
 20
1.7495101776
  0
LINE
  5
45C
100
AcDbEntity
  8
0
100
AcDbLine
 62
2
  6
CONTINUOUS
 10
2.235937149
 20
0.7080900116
 11
2.2593747559
 21
0.6299651031
  0
LWPOLYLINE
  5
45D
100
AcDbEntity
  8
0
100
AcDbPolyline
 62
2
  6
CONTINUOUS
 90
4
 70
0
 10
1.4468748016
 20
0.8643399963
 10
1.4468748016
 20
1.0205899811
 10
1.5093746948
 20
0.8643399963
 10
1.5093746948
 20
1.0205899811
  0
LINE
  5
45E
100
AcDbEntity
  8
0
100
AcDbLine
 62
2
  6
CONTINUOUS
 10
1.4781246643
 20
0.7862150879
 11
1.4781246643
 21
0.6299651031
  0
LINE
  5
45F
100
AcDbEntity
  8
0
100
AcDbLine
 62
2
  6
CONTINUOUS
 10
1.7281247406
 20
1.0205899811
 11
1.7281247406
 21
0.8643399963
  0
LWPOLYLINE
  5
460
100
AcDbEntity
  8
0
100
AcDbPolyline
 62
2
  6
CONTINUOUS
 90
10
 70
0
 10
5.2046871948
 20
0.7341317596
 10
5.2515620728
 20
0.6950691376
 10
5.2593746643
 20
0.6820484314
 10
5.2593746643
 20
0.6560066833
 10
5.2515620728
 20
0.6429858093
 10
5.2359372253
 20
0.6299651031
 10
5.2203123779
 20
0.6299651031
 10
5.2046871948
 20
0.6429858093
 10
5.1968746033
 20
0.6560066833
 10
5.1890623474
 20
0.6690275574
  0
LWPOLYLINE
  5
461
100
AcDbEntity
  8
0
100
AcDbPolyline
 62
2
  6
CONTINUOUS
 90
15
 70
0
 10
4.5103779907
 20
1.6453435211
 10
4.4947531433
 20
1.6583643951
 10
4.4869405518
 20
1.6713851013
 10
4.4791279602
 20
1.6974268494
 10
4.4791279602
 20
1.7495101776
 10
4.4869405518
 20
1.7755519257
 10
4.4947531433
 20
1.7885726318
 10
4.5103779907
 20
1.8015935059
 10
4.5260031738
 20
1.7885726318
 10
4.5338154297
 20
1.7755519257
 10
4.5416280212
 20
1.7495101776
 10
4.5416280212
 20
1.6974268494
 10
4.5338154297
 20
1.6713851013
 10
4.5260031738
 20
1.6583643951
 10
4.5103779907
 20
1.6453435211
  0
LWPOLYLINE
  5
462
100
AcDbEntity
  8
0
100
AcDbPolyline
 62
2
  6
CONTINUOUS
 90
15
 70
0
 10
4.6353781128
 20
1.6453435211
 10
4.6197529297
 20
1.6583643951
 10
4.6119406738
 20
1.6713851013
 10
4.6041280823
 20
1.6974268494
 10
4.6041280823
 20
1.7495101776
 10
4.6119406738
 20
1.7755519257
 10
4.6197529297
 20
1.7885726318
 10
4.6353781128
 20
1.8015935059
 10
4.6510029602
 20
1.7885726318
 10
4.6588155518
 20
1.7755519257
 10
4.6666281433
 20
1.7495101776
 10
4.6666281433
 20
1.6974268494
 10
4.6588155518
 20
1.6713851013
 10
4.6510029602
 20
1.6583643951
 10
4.6353781128
 20
1.6453435211
  0
LWPOLYLINE
  5
463
100
AcDbEntity
  8
0
100
AcDbPolyline
 62
2
  6
CONTINUOUS
 90
15
 70
0
 10
4.7603782349
 20
1.6453435211
 10
4.7447530518
 20
1.6583643951
 10
4.7369404602
 20
1.6713851013
 10
4.7291282043
 20
1.6974268494
 10
4.7291282043
 20
1.7495101776
 10
4.7369404602
 20
1.7755519257
 10
4.7447530518
 20
1.7885726318
 10
4.7603782349
 20
1.8015935059
 10
4.7760030823
 20
1.7885726318
 10
4.7838156738
 20
1.7755519257
 10
4.7916279297
 20
1.7495101776
 10
4.7916279297
 20
1.6974268494
 10
4.7838156738
 20
1.6713851013
 10
4.7760030823
 20
1.6583643951
 10
4.7603782349
 20
1.6453435211
  0
LWPOLYLINE
  5
464
100
AcDbEntity
  8
0
100
AcDbPolyline
 62
2
  6
CONTINUOUS
 90
9
 70
0
 10
4.5015623474
 20
0.6950691376
 10
4.5093746033
 20
0.6820484314
 10
4.5093746033
 20
0.6560066833
 10
4.5015623474
 20
0.6429858093
 10
4.4859371643
 20
0.6299651031
 10
4.4703123169
 20
0.6299651031
 10
4.4546871338
 20
0.6429858093
 10
4.4468748779
 20
0.6560066833
 10
4.4390622864
 20
0.6690275574
  0
LWPOLYLINE
  5
465
100
AcDbEntity
  8
0
100
AcDbPolyline
 62
2
  6
CONTINUOUS
 90
9
 70
0
 10
4.5093746033
 20
0.7601733398
 10
4.5015623474
 20
0.7731942139
 10
4.4859371643
 20
0.7862150879
 10
4.4703123169
 20
0.7862150879
 10
4.4546871338
 20
0.7731942139
 10
4.4468748779
 20
0.7601733398
 10
4.4468748779
 20
0.7471526337
 10
4.4546871338
 20
0.7341317596
 10
4.5015623474
 20
0.6950691376
  0
LINE
  5
466
100
AcDbEntity
  8
0
100
AcDbLine
 62
2
  6
CONTINUOUS
 10
3.3609370728
 20
0.4737150345
 11
3.3843748474
 21
0.3955900421
  0
LWPOLYLINE
  5
467
100
AcDbEntity
  8
0
100
AcDbPolyline
 62
2
  6
CONTINUOUS
 90
9
 70
0
 10
1.9468747864
 20
0.6299651031
 10
1.9468747864
 20
0.7862150879
 10
1.9859372406
 20
0.7862150879
 10
2.0015622559
 20
0.7731942139
 10
2.0093746796
 20
0.7601733398
 10
2.0093746796
 20
0.7341317596
 10
2.0015622559
 20
0.7211108856
 10
1.9859372406
 20
0.7080900116
 10
1.9468747864
 20
0.7080900116
  0
LWPOLYLINE
  5
468
100
AcDbEntity
  8
0
100
AcDbPolyline
 62
2
  6
CONTINUOUS
 90
4
 70
0
 10
1.978124649
 20
0.9685066528
 10
1.978124649
 20
0.9554859467
 10
1.9703122253
 20
0.9685066528
 10
1.978124649
 20
0.9685066528
  0
LINE
  5
469
100
AcDbEntity
  8
0
100
AcDbLine
 62
2
  6
CONTINUOUS
 10
1.978124649
 20
0.5518400269
 11
1.978124649
 21
0.3955900421
  0
LWPOLYLINE
  5
46A
100
AcDbEntity
  8
0
100
AcDbPolyline
 62
2
  6
CONTINUOUS
 90
5
 70
0
 10
2.064062149
 20
0.3955900421
 10
2.064062149
 20
0.5518400269
 10
2.1031247711
 20
0.4216317062
 10
2.1421872253
 20
0.5518400269
 10
2.1421872253
 20
0.3955900421
  0
LWPOLYLINE
  5
46B
100
AcDbEntity
  8
0
100
AcDbPolyline
 62
2
  6
CONTINUOUS
 90
9
 70
0
 10
2.0718747406
 20
0.6299651031
 10
2.0718747406
 20
0.7862150879
 10
2.1109371948
 20
0.7862150879
 10
2.1265622101
 20
0.7731942139
 10
2.1343748016
 20
0.7601733398
 10
2.1343748016
 20
0.7341317596
 10
2.1265622101
 20
0.7211108856
 10
2.1109371948
 20
0.7080900116
 10
2.0718747406
 20
0.7080900116
  0
LWPOLYLINE
  5
46C
100
AcDbEntity
  8
0
100
AcDbPolyline
 62
2
  6
CONTINUOUS
 90
9
 70
0
 10
2.1968746948
 20
0.6299651031
 10
2.1968746948
 20
0.7862150879
 10
2.235937149
 20
0.7862150879
 10
2.2515621643
 20
0.7731942139
 10
2.2593747559
 20
0.7601733398
 10
2.2593747559
 20
0.7341317596
 10
2.2515621643
 20
0.7211108856
 10
2.235937149
 20
0.7080900116
 10
2.1968746948
 20
0.7080900116
  0
LWPOLYLINE
  5
46D
100
AcDbEntity
  8
0
100
AcDbPolyline
 62
2
  6
CONTINUOUS
 90
4
 70
0
 10
2.321874649
 20
0.3955900421
 10
2.321874649
 20
0.5518400269
 10
2.3843747101
 20
0.3955900421
 10
2.3843747101
 20
0.5518400269
  0
LINE
  5
46E
100
AcDbEntity
  8
0
100
AcDbLine
 62
2
  6
CONTINUOUS
 10
2.6031247559
 20
0.7862150879
 11
2.6031247559
 21
0.6299651031
  0
LINE
  5
46F
100
AcDbEntity
  8
0
100
AcDbLine
 62
2
  6
CONTINUOUS
 10
2.6031247559
 20
0.5518400269
 11
2.6031247559
 21
0.3955900421
  0
LINE
  5
470
100
AcDbEntity
  8
0
100
AcDbLine
 62
7
  6
CONTINUOUS
 10
0.0
 20
0.0
 11
22.0
 21
0.0
  0
LWPOLYLINE
  5
471
100
AcDbEntity
  8
0
100
AcDbPolyline
 62
2
  6
CONTINUOUS
 90
10
 70
0
 10
6.9703120728
 20
0.7211108856
 10
7.001562439
 20
0.6950691376
 10
7.0093746948
 20
0.6820484314
 10
7.0093746948
 20
0.6560066833
 10
7.001562439
 20
0.6429858093
 10
6.9859372559
 20
0.6299651031
 10
6.9703120728
 20
0.6299651031
 10
6.954687561
 20
0.6429858093
 10
6.9468746338
 20
0.6560066833
 10
6.9390623779
 20
0.6690275574
  0
LWPOLYLINE
  5
472
100
AcDbEntity
  8
0
100
AcDbPolyline
 62
2
  6
CONTINUOUS
 90
8
 70
0
 10
5.2593746643
 20
0.7601733398
 10
5.2515620728
 20
0.7731942139
 10
5.2359372253
 20
0.7862150879
 10
5.2203123779
 20
0.7862150879
 10
5.2046871948
 20
0.7731942139
 10
5.1968746033
 20
0.7601733398
 10
5.1968746033
 20
0.7471526337
 10
5.2046871948
 20
0.7341317596
  0
LWPOLYLINE
  5
473
100
AcDbEntity
  8
0
100
AcDbPolyline
 62
2
  6
CONTINUOUS
 90
5
 70
0
 10
2.6890622559
 20
0.6299651031
 10
2.6890622559
 20
0.7862150879
 10
2.7281247101
 20
0.6560066833
 10
2.7671871643
 20
0.7862150879
 10
2.7671871643
 20
0.6299651031
  0
LWPOLYLINE
  5
474
100
AcDbEntity
  8
0
100
AcDbPolyline
 62
2
  6
CONTINUOUS
 90
4
 70
0
 10
2.8218746338
 20
0.3955900421
 10
2.8218746338
 20
0.5518400269
 10
2.8843746948
 20
0.3955900421
 10
2.8843746948
 20
0.5518400269
  0
LINE
  5
475
100
AcDbEntity
  8
0
100
AcDbLine
 62
2
  6
CONTINUOUS
 10
2.9781247864
 20
0.7862150879
 11
2.9781247864
 21
0.6299651031
  0
LWPOLYLINE
  5
476
100
AcDbEntity
  8
0
100
AcDbPolyline
 62
2
  6
CONTINUOUS
 90
9
 70
0
 10
3.3218747864
 20
0.3955900421
 10
3.3218747864
 20
0.5518400269
 10
3.3609370728
 20
0.5518400269
 10
3.3765622559
 20
0.5388192368
 10
3.3843748474
 20
0.5257983627
 10
3.3843748474
 20
0.4997566986
 10
3.3765622559
 20
0.4867359085
 10
3.3609370728
 20
0.4737150345
 10
3.3218747864
 20
0.4737150345
  0
LWPOLYLINE
  5
477
100
AcDbEntity
  8
0
100
AcDbPolyline
 62
2
  6
CONTINUOUS
 90
4
 70
0
 10
9.9781245728
 20
0.3955900421
 10
9.9703123169
 20
0.3955900421
 10
9.9703123169
 20
0.4086109161
 10
9.9781245728
 20
0.3955900421
  0
LWPOLYLINE
  5
478
100
AcDbEntity
  8
0
100
AcDbPolyline
 62
2
  6
CONTINUOUS
 90
4
 70
0
 10
9.7593746948
 20
0.3955900421
 10
9.6968746338
 20
0.3955900421
 10
9.6968746338
 20
0.5518400269
 10
9.7593746948
 20
0.5518400269
  0
LWPOLYLINE
  5
479
100
AcDbEntity
  8
0
100
AcDbPolyline
 62
2
  6
CONTINUOUS
 90
4
 70
0
 10
6.3843747559
 20
0.3955900421
 10
6.3218746948
 20
0.3955900421
 10
6.3218746948
 20
0.5518400269
 10
6.3843747559
 20
0.5518400269
  0
LWPOLYLINE
  5
47A
100
AcDbEntity
  8
0
100
AcDbPolyline
 62
2
  6
CONTINUOUS
 90
4
 70
0
 10
5.884374939
 20
0.3955900421
 10
5.8218748779
 20
0.3955900421
 10
5.8218748779
 20
0.5518400269
 10
5.884374939
 20
0.5518400269
  0
LWPOLYLINE
  5
47B
100
AcDbEntity
  8
0
100
AcDbPolyline
 62
2
  6
CONTINUOUS
 90
4
 70
0
 10
5.0093747559
 20
0.3955900421
 10
4.9468746948
 20
0.3955900421
 10
4.9468746948
 20
0.5518400269
 10
5.0093747559
 20
0.5518400269
  0
LWPOLYLINE
  5
47C
100
AcDbEntity
  8
0
100
AcDbPolyline
 62
2
  6
CONTINUOUS
 90
4
 70
0
 10
4.6343747253
 20
0.3955900421
 10
4.5718746643
 20
0.3955900421
 10
4.5718746643
 20
0.5518400269
 10
4.6343747253
 20
0.5518400269
  0
LWPOLYLINE
  5
47D
100
AcDbEntity
  8
0
100
AcDbPolyline
 62
2
  6
CONTINUOUS
 90
4
 70
0
 10
3.5093746338
 20
0.3955900421
 10
3.4468745728
 20
0.3955900421
 10
3.4468745728
 20
0.5518400269
 10
3.5093746338
 20
0.5518400269
  0
LWPOLYLINE
  5
47E
100
AcDbEntity
  8
0
100
AcDbPolyline
 62
2
  6
CONTINUOUS
 90
4
 70
0
 10
2.2593747559
 20
0.3955900421
 10
2.1968746948
 20
0.3955900421
 10
2.1968746948
 20
0.5518400269
 10
2.2593747559
 20
0.5518400269
  0
LINE
  5
47F
100
AcDbEntity
  8
0
100
AcDbLine
 62
2
  6
CONTINUOUS
 10
3.2046872559
 20
0.4476733704
 11
3.2515621338
 21
0.4476733704
  0
LINE
  5
480
100
AcDbEntity
  8
0
100
AcDbLine
 62
2
  6
CONTINUOUS
 10
7.3296872559
 20
0.4476733704
 11
7.3765621338
 21
0.4476733704
  0
LINE
  5
481
100
AcDbEntity
  8
0
100
AcDbLine
 62
2
  6
CONTINUOUS
 10
7.8296870728
 20
0.4476733704
 11
7.8765619507
 21
0.4476733704
  0
LINE
  5
482
100
AcDbEntity
  8
0
100
AcDbLine
 62
2
  6
CONTINUOUS
 10
2.1968746948
 20
0.4737150345
 11
2.235937149
 21
0.4737150345
  0
LINE
  5
483
100
AcDbEntity
  8
0
100
AcDbLine
 62
2
  6
CONTINUOUS
 10
3.4468745728
 20
0.4737150345
 11
3.4859371948
 21
0.4737150345
  0
LINE
  5
484
100
AcDbEntity
  8
0
100
AcDbLine
 62
2
  6
CONTINUOUS
 10
4.5718746643
 20
0.4737150345
 11
4.6109372864
 21
0.4737150345
  0
LINE
  5
485
100
AcDbEntity
  8
0
100
AcDbLine
 62
2
  6
CONTINUOUS
 10
4.9468746948
 20
0.4737150345
 11
4.9859373169
 21
0.4737150345
  0
LINE
  5
486
100
AcDbEntity
  8
0
100
AcDbLine
 62
2
  6
CONTINUOUS
 10
5.8218748779
 20
0.4737150345
 11
5.8609375
 21
0.4737150345
  0
LINE
  5
487
100
AcDbEntity
  8
0
100
AcDbLine
 62
2
  6
CONTINUOUS
 10
6.3218746948
 20
0.4737150345
 11
6.3609373169
 21
0.4737150345
  0
LINE
  5
488
100
AcDbEntity
  8
0
100
AcDbLine
 62
2
  6
CONTINUOUS
 10
6.696875061
 20
0.4737150345
 11
6.7359370117
 21
0.4737150345
  0
LINE
  5
489
100
AcDbEntity
  8
0
100
AcDbLine
 62
2
  6
CONTINUOUS
 10
7.6968746948
 20
0.4737150345
 11
7.7359373169
 21
0.4737150345
  0
LWPOLYLINE
  5
48A
100
AcDbEntity
  8
0
100
AcDbPolyline
 62
2
  6
CONTINUOUS
 90
17
 70
0
 10
8.7281246948
 20
0.4737150345
 10
8.759375061
 20
0.4737150345
 10
8.759375061
 20
0.4216317062
 10
8.7515621338
 20
0.4086109161
 10
8.7359369507
 20
0.3955900421
 10
8.720312439
 20
0.3955900421
 10
8.7046872559
 20
0.4086109161
 10
8.696875
 20
0.4216317062
 10
8.6890620728
 20
0.4346525803
 10
8.6812498169
 20
0.4737150345
 10
8.6890620728
 20
0.5127775726
 10
8.696875
 20
0.5257983627
 10
8.7046872559
 20
0.5388192368
 10
8.720312439
 20
0.5518400269
 10
8.7359369507
 20
0.5518400269
 10
8.7515621338
 20
0.5388192368
 10
8.759375061
 20
0.5257983627
  0
LINE
  5
48B
100
AcDbEntity
  8
0
100
AcDbLine
 62
2
  6
CONTINUOUS
 10
9.6968746338
 20
0.4737150345
 11
9.7359372559
 21
0.4737150345
  0
LINE
  5
48C
100
AcDbEntity
  8
0
100
AcDbLine
 62
2
  6
CONTINUOUS
 10
5.6890625
 20
0.4867359085
 11
5.7437496338
 21
0.4867359085
  0
LWPOLYLINE
  5
48D
100
AcDbEntity
  8
0
100
AcDbPolyline
 62
2
  6
CONTINUOUS
 90
12
 70
0
 10
1.8218746643
 20
0.5518400269
 10
1.8531246948
 20
0.5518400269
 10
1.8687497101
 20
0.5388192368
 10
1.8765623016
 20
0.5257983627
 10
1.8843747253
 20
0.5127775726
 10
1.892187149
 20
0.4737150345
 10
1.8843747253
 20
0.4346525803
 10
1.8765623016
 20
0.4216317062
 10
1.8687497101
 20
0.4086109161
 10
1.8531246948
 20
0.3955900421
 10
1.8218746643
 20
0.3955900421
 10
1.8218746643
 20
0.5518400269
  0
LINE
  5
48E
100
AcDbEntity
  8
0
100
AcDbLine
 62
2
  6
CONTINUOUS
 10
3.9390621338
 20
0.5518400269
 11
4.0171873779
 21
0.5518400269
  0
LINE
  5
48F
100
AcDbEntity
  8
0
100
AcDbLine
 62
2
  6
CONTINUOUS
 10
4.4390622864
 20
0.5518400269
 11
4.5171871948
 21
0.5518400269
  0
LWPOLYLINE
  5
490
100
AcDbEntity
  8
0
100
AcDbPolyline
 62
2
  6
CONTINUOUS
 90
12
 70
0
 10
4.8218745728
 20
0.5518400269
 10
4.8531246033
 20
0.5518400269
 10
4.8687497864
 20
0.5388192368
 10
4.8765623779
 20
0.5257983627
 10
4.8843746338
 20
0.5127775726
 10
4.8921872253
 20
0.4737150345
 10
4.8843746338
 20
0.4346525803
 10
4.8765623779
 20
0.4216317062
 10
4.8687497864
 20
0.4086109161
 10
4.8531246033
 20
0.3955900421
 10
4.8218745728
 20
0.3955900421
 10
4.8218745728
 20
0.5518400269
  0
LWPOLYLINE
  5
491
100
AcDbEntity
  8
0
100
AcDbPolyline
 62
2
  6
CONTINUOUS
 90
12
 70
0
 10
5.0718748169
 20
0.5518400269
 10
5.1031248474
 20
0.5518400269
 10
5.1187496948
 20
0.5388192368
 10
5.1265622864
 20
0.5257983627
 10
5.1343748779
 20
0.5127775726
 10
5.1421871338
 20
0.4737150345
 10
5.1343748779
 20
0.4346525803
 10
5.1265622864
 20
0.4216317062
 10
5.1187496948
 20
0.4086109161
 10
5.1031248474
 20
0.3955900421
 10
5.0718748169
 20
0.3955900421
 10
5.0718748169
 20
0.5518400269
  0
LINE
  5
492
100
AcDbEntity
  8
0
100
AcDbLine
 62
2
  6
CONTINUOUS
 10
5.3140621338
 20
0.5518400269
 11
5.3921873779
 21
0.5518400269
  0
LWPOLYLINE
  5
493
100
AcDbEntity
  8
0
100
AcDbPolyline
 62
2
  6
CONTINUOUS
 90
12
 70
0
 10
6.4468748169
 20
0.5518400269
 10
6.4781245117
 20
0.5518400269
 10
6.4937496948
 20
0.5388192368
 10
6.5015619507
 20
0.5257983627
 10
6.5093748779
 20
0.5127775726
 10
6.5171871338
 20
0.4737150345
 10
6.5093748779
 20
0.4346525803
 10
6.5015619507
 20
0.4216317062
 10
6.4937496948
 20
0.4086109161
 10
6.4781245117
 20
0.3955900421
 10
6.4468748169
 20
0.3955900421
 10
6.4468748169
 20
0.5518400269
  0
LINE
  5
494
100
AcDbEntity
  8
0
100
AcDbLine
 62
2
  6
CONTINUOUS
 10
8.0640621338
 20
0.5518400269
 11
8.1421873779
 21
0.5518400269
  0
LWPOLYLINE
  5
495
100
AcDbEntity
  8
0
100
AcDbPolyline
 62
2
  6
CONTINUOUS
 90
4
 70
0
 10
8.8531248169
 20
0.6299651031
 10
8.845312561
 20
0.6299651031
 10
8.845312561
 20
0.6429858093
 10
8.8531248169
 20
0.6299651031
  0
LWPOLYLINE
  5
496
100
AcDbEntity
  8
0
100
AcDbPolyline
 62
2
  6
CONTINUOUS
 90
4
 70
0
 10
8.3843746948
 20
0.6299651031
 10
8.3218746338
 20
0.6299651031
 10
8.3218746338
 20
0.7862150879
 10
8.3843746948
 20
0.7862150879
  0
LWPOLYLINE
  5
497
100
AcDbEntity
  8
0
100
AcDbPolyline
 62
2
  6
CONTINUOUS
 90
4
 70
0
 10
8.1343744507
 20
0.6299651031
 10
8.071875061
 20
0.6299651031
 10
8.071875061
 20
0.7862150879
 10
8.1343744507
 20
0.7862150879
  0
LWPOLYLINE
  5
498
100
AcDbEntity
  8
0
100
AcDbPolyline
 62
2
  6
CONTINUOUS
 90
4
 70
0
 10
6.8843745728
 20
0.6299651031
 10
6.8218745117
 20
0.6299651031
 10
6.8218745117
 20
0.7862150879
 10
6.8843745728
 20
0.7862150879
  0
LWPOLYLINE
  5
499
100
AcDbEntity
  8
0
100
AcDbPolyline
 62
2
  6
CONTINUOUS
 90
4
 70
0
 10
5.0093747559
 20
0.6299651031
 10
4.9468746948
 20
0.6299651031
 10
4.9468746948
 20
0.7862150879
 10
5.0093747559
 20
0.7862150879
  0
LWPOLYLINE
  5
49A
100
AcDbEntity
  8
0
100
AcDbPolyline
 62
2
  6
CONTINUOUS
 90
4
 70
0
 10
3.7593748779
 20
0.6299651031
 10
3.6968748169
 20
0.6299651031
 10
3.6968748169
 20
0.7862150879
 10
3.7593748779
 20
0.7862150879
  0
LWPOLYLINE
  5
49B
100
AcDbEntity
  8
0
100
AcDbPolyline
 62
2
  6
CONTINUOUS
 90
4
 70
0
 10
3.1343746033
 20
0.6299651031
 10
3.0718748779
 20
0.6299651031
 10
3.0718748779
 20
0.7862150879
 10
3.1343746033
 20
0.7862150879
  0
LWPOLYLINE
  5
49C
100
AcDbEntity
  8
0
100
AcDbPolyline
 62
2
  6
CONTINUOUS
 90
4
 70
0
 10
1.6031247864
 20
0.6299651031
 10
1.5953121948
 20
0.6299651031
 10
1.5953121948
 20
0.6429858093
 10
1.6031247864
 20
0.6299651031
  0
LWPOLYLINE
  5
49D
100
AcDbEntity
  8
0
100
AcDbPolyline
 62
2
  6
CONTINUOUS
 90
4
 70
0
 10
8.7124995117
 20
0.6299651031
 10
8.7437498779
 20
0.6299651031
 10
8.7437498779
 20
0.7862150879
 10
8.7124995117
 20
0.7862150879
  0
LINE
  5
49E
100
AcDbEntity
  8
0
100
AcDbLine
 62
2
  6
CONTINUOUS
 10
1.8296872559
 20
0.6820484314
 11
1.8765623016
 21
0.6820484314
  0
LINE
  5
49F
100
AcDbEntity
  8
0
100
AcDbLine
 62
2
  6
CONTINUOUS
 10
2.8296872253
 20
0.6820484314
 11
2.8765621033
 21
0.6820484314
  0
LINE
  5
4A0
100
AcDbEntity
  8
0
100
AcDbLine
 62
2
  6
CONTINUOUS
 10
4.7046873779
 20
0.6820484314
 11
4.7515622559
 21
0.6820484314
  0
LINE
  5
4A1
100
AcDbEntity
  8
0
100
AcDbLine
 62
2
  6
CONTINUOUS
 10
3.0718748779
 20
0.7080900116
 11
3.1109371643
 21
0.7080900116
  0
LINE
  5
4A2
100
AcDbEntity
  8
0
100
AcDbLine
 62
2
  6
CONTINUOUS
 10
3.6968748169
 20
0.7080900116
 11
3.7359371033
 21
0.7080900116
  0
LINE
  5
4A3
100
AcDbEntity
  8
0
100
AcDbLine
 62
2
  6
CONTINUOUS
 10
4.9468746948
 20
0.7080900116
 11
4.9859373169
 21
0.7080900116
  0
LINE
  5
4A4
100
AcDbEntity
  8
0
100
AcDbLine
 62
2
  6
CONTINUOUS
 10
5.3218747253
 20
0.7080900116
 11
5.3843747864
 21
0.7080900116
  0
LINE
  5
4A5
100
AcDbEntity
  8
0
100
AcDbLine
 62
2
  6
CONTINUOUS
 10
6.696875061
 20
0.7080900116
 11
6.7593744507
 21
0.7080900116
  0
LINE
  5
4A6
100
AcDbEntity
  8
0
100
AcDbLine
 62
2
  6
CONTINUOUS
 10
6.8218745117
 20
0.7080900116
 11
6.8609371338
 21
0.7080900116
  0
LINE
  5
4A7
100
AcDbEntity
  8
0
100
AcDbLine
 62
2
  6
CONTINUOUS
 10
8.071875061
 20
0.7080900116
 11
8.1109370117
 21
0.7080900116
  0
LINE
  5
4A8
100
AcDbEntity
  8
0
100
AcDbLine
 62
2
  6
CONTINUOUS
 10
8.3218746338
 20
0.7080900116
 11
8.3609372559
 21
0.7080900116
  0
LWPOLYLINE
  5
4A9
100
AcDbEntity
  8
0
100
AcDbPolyline
 62
2
  6
CONTINUOUS
 90
4
 70
0
 10
7.2437497559
 20
0.7862150879
 10
7.212500061
 20
0.7862150879
 10
7.212500061
 20
0.6299651031
 10
7.2437497559
 20
0.6299651031
  0
LINE
  5
4AA
100
AcDbEntity
  8
0
100
AcDbLine
 62
2
  6
CONTINUOUS
 10
2.9390621643
 20
0.7862150879
 11
3.0171870728
 21
0.7862150879
  0
LWPOLYLINE
  5
4AB
100
AcDbEntity
  8
0
100
AcDbPolyline
 62
2
  6
CONTINUOUS
 90
7
 70
0
 10
3.3218747864
 20
0.7862150879
 10
3.3531248169
 20
0.7862150879
 10
3.3687496643
 20
0.7731942139
 10
3.3765622559
 20
0.7601733398
 10
3.3843748474
 20
0.7471526337
 10
3.3921871033
 20
0.7080900116
 10
3.3843748474
 20
0.6690275574
  0
LINE
  5
4AC
100
AcDbEntity
  8
0
100
AcDbLine
 62
2
  6
CONTINUOUS
 10
8.1890622559
 20
0.7862150879
 11
8.2671875
 21
0.7862150879
  0
LWPOLYLINE
  5
4AD
100
AcDbEntity
  8
0
100
AcDbPolyline
 62
2
  6
CONTINUOUS
 90
4
 70
0
 10
1.978124649
 20
0.8643399963
 10
1.9703122253
 20
0.8643399963
 10
1.9703122253
 20
0.8773608704
 10
1.978124649
 20
0.8643399963
  0
LWPOLYLINE
  5
4AE
100
AcDbEntity
  8
0
100
AcDbPolyline
 62
2
  6
CONTINUOUS
 90
4
 70
0
 10
1.8843747253
 20
0.8643399963
 10
1.8218746643
 20
0.8643399963
 10
1.8218746643
 20
1.0205899811
 10
1.8843747253
 20
1.0205899811
  0
LWPOLYLINE
  5
4AF
100
AcDbEntity
  8
0
100
AcDbPolyline
 62
2
  6
CONTINUOUS
 90
9
 70
0
 10
6.2515623779
 20
0.4606942444
 10
6.2593746338
 20
0.4476733704
 10
6.2593746338
 20
0.4216317062
 10
6.2515623779
 20
0.4086109161
 10
6.2359371948
 20
0.3955900421
 10
6.2203120117
 20
0.3955900421
 10
6.2046875
 20
0.4086109161
 10
6.1968745728
 20
0.4216317062
 10
6.1890623169
 20
0.4346525803
  0
LWPOLYLINE
  5
4B0
100
AcDbEntity
  8
0
100
AcDbPolyline
 62
2
  6
CONTINUOUS
 90
10
 70
0
 10
6.2593746338
 20
0.5257983627
 10
6.2515623779
 20
0.5388192368
 10
6.2359371948
 20
0.5518400269
 10
6.2203120117
 20
0.5518400269
 10
6.2046875
 20
0.5388192368
 10
6.1968745728
 20
0.5257983627
 10
6.1968745728
 20
0.5127775726
 10
6.2046875
 20
0.4997566986
 10
6.2203120117
 20
0.4867359085
 10
6.2515623779
 20
0.4606942444
  0
LINE
  5
4B1
100
AcDbEntity
  8
0
100
AcDbLine
 62
2
  6
CONTINUOUS
 10
4.8609371948
 20
0.7080900116
 11
4.8843746338
 21
0.6299651031
  0
LINE
  5
4B2
100
AcDbEntity
  8
0
100
AcDbLine
 62
2
  6
CONTINUOUS
 10
3.4781246033
 20
0.7862150879
 11
3.4781246033
 21
0.6299651031
  0
LWPOLYLINE
  5
4B3
100
AcDbEntity
  8
0
100
AcDbPolyline
 62
2
  6
CONTINUOUS
 90
5
 70
0
 10
3.5640621033
 20
0.6299651031
 10
3.5640621033
 20
0.7862150879
 10
3.6031247253
 20
0.6560066833
 10
3.6421873474
 20
0.7862150879
 10
3.6421873474
 20
0.6299651031
  0
LWPOLYLINE
  5
4B4
100
AcDbEntity
  8
0
100
AcDbPolyline
 62
2
  6
CONTINUOUS
 90
4
 70
0
 10
3.6968748169
 20
0.3955900421
 10
3.6968748169
 20
0.5518400269
 10
3.7593748779
 20
0.3955900421
 10
3.7593748779
 20
0.5518400269
  0
LWPOLYLINE
  5
4B5
100
AcDbEntity
  8
0
100
AcDbPolyline
 62
2
  6
CONTINUOUS
 90
3
 70
0
 10
3.7291282349
 20
1.8015935059
 10
3.7291282349
 20
1.6453435211
 10
3.7916279602
 20
1.6453435211
  0
LWPOLYLINE
  5
4B6
100
AcDbEntity
  8
0
100
AcDbPolyline
 62
2
  6
CONTINUOUS
 90
4
 70
0
 10
3.8218746033
 20
0.6299651031
 10
3.8218746033
 20
0.7862150879
 10
3.8843746643
 20
0.6299651031
 10
3.8843746643
 20
0.7862150879
  0
LINE
  5
4B7
100
AcDbEntity
  8
0
100
AcDbLine
 62
2
  6
CONTINUOUS
 10
3.9781247559
 20
0.5518400269
 11
3.9781247559
 21
0.3955900421
  0
LWPOLYLINE
  5
4B8
100
AcDbEntity
  8
0
100
AcDbPolyline
 62
2
  6
CONTINUOUS
 90
4
 70
0
 10
4.0103781738
 20
1.7495101776
 10
4.0103781738
 20
1.7364893036
 10
4.0025655823
 20
1.7495101776
 10
4.0103781738
 20
1.7495101776
  0
LINE
  5
4B9
100
AcDbEntity
  8
0
100
AcDbLine
 62
2
  6
CONTINUOUS
 10
4.1031248779
 20
0.7862150879
 11
4.1031248779
 21
0.6299651031
  0
LWPOLYLINE
  5
4BA
100
AcDbEntity
  8
0
100
AcDbPolyline
 62
2
  6
CONTINUOUS
 90
3
 70
0
 10
1.8140622406
 20
0.6299651031
 10
1.8531246948
 20
0.7862150879
 10
1.892187149
 20
0.6299651031
  0
LINE
  5
4BB
100
AcDbEntity
  8
0
100
AcDbLine
 62
2
  6
CONTINUOUS
 10
1.8218746643
 20
0.9424650726
 11
1.8609372864
 21
0.9424650726
  0
LINE
  5
4BC
100
AcDbEntity
  8
0
100
AcDbLine
 62
2
  6
CONTINUOUS
 10
1.6890622864
 20
1.0205899811
 11
1.7671871948
 21
1.0205899811
  0
LWPOLYLINE
  5
4BD
100
AcDbEntity
  8
0
100
AcDbPolyline
 62
2
  6
CONTINUOUS
 90
4
 70
0
 10
4.3853782043
 20
1.6453435211
 10
4.3775656128
 20
1.6453435211
 10
4.3775656128
 20
1.6583643951
 10
4.3853782043
 20
1.6453435211
  0
LWPOLYLINE
  5
4BE
100
AcDbEntity
  8
0
100
AcDbPolyline
 62
2
  6
CONTINUOUS
 90
4
 70
0
 10
4.0103781738
 20
1.6453435211
 10
4.0025655823
 20
1.6453435211
 10
4.0025655823
 20
1.6583643951
 10
4.0103781738
 20
1.6453435211
  0
LWPOLYLINE
  5
4BF
100
AcDbEntity
  8
0
100
AcDbPolyline
 62
2
  6
CONTINUOUS
 90
4
 70
0
 10
3.9166280823
 20
1.6453435211
 10
3.8541280212
 20
1.6453435211
 10
3.8541280212
 20
1.8015935059
 10
3.9166280823
 20
1.8015935059
  0
LWPOLYLINE
  5
4C0
100
AcDbEntity
  8
0
100
AcDbPolyline
 62
2
  6
CONTINUOUS
 90
11
 70
0
 10
8.5796871338
 20
0.7341317596
 10
8.6109375
 20
0.7080900116
 10
8.6265620117
 20
0.6950691376
 10
8.634374939
 20
0.6820484314
 10
8.634374939
 20
0.6560066833
 10
8.6265620117
 20
0.6429858093
 10
8.6109375
 20
0.6299651031
 10
8.5953123169
 20
0.6299651031
 10
8.5796871338
 20
0.6429858093
 10
8.5718748779
 20
0.6560066833
 10
8.5640619507
 20
0.6690275574
  0
LWPOLYLINE
  5
4C1
100
AcDbEntity
  8
0
100
AcDbPolyline
 62
2
  6
CONTINUOUS
 90
9
 70
0
 10
7.0093746948
 20
0.7601733398
 10
7.001562439
 20
0.7731942139
 10
6.9859372559
 20
0.7862150879
 10
6.9703120728
 20
0.7862150879
 10
6.954687561
 20
0.7731942139
 10
6.9468746338
 20
0.7601733398
 10
6.9468746338
 20
0.7471526337
 10
6.954687561
 20
0.7341317596
 10
6.9703120728
 20
0.7211108856
  0
LINE
  5
4C2
100
AcDbEntity
  8
0
100
AcDbLine
 62
2
  6
CONTINUOUS
 10
4.2281246643
 20
0.5518400269
 11
4.2281246643
 21
0.3955900421
  0
LINE
  5
4C3
100
AcDbEntity
  8
0
100
AcDbLine
 62
2
  6
CONTINUOUS
 10
4.2603780823
 20
1.8015935059
 11
4.2603780823
 21
1.6453435211
  0
LWPOLYLINE
  5
4C4
100
AcDbEntity
  8
0
100
AcDbPolyline
 62
2
  6
CONTINUOUS
 90
4
 70
0
 10
4.3218747559
 20
0.3955900421
 10
4.3218747559
 20
0.5518400269
 10
4.3843748169
 20
0.3955900421
 10
4.3843748169
 20
0.5518400269
  0
LWPOLYLINE
  5
4C5
100
AcDbEntity
  8
0
100
AcDbPolyline
 62
2
  6
CONTINUOUS
 90
4
 70
0
 10
4.3218747559
 20
0.6299651031
 10
4.3218747559
 20
0.7862150879
 10
4.3843748169
 20
0.6299651031
 10
4.3843748169
 20
0.7862150879
  0
LINE
  5
4C6
100
AcDbEntity
  8
0
100
AcDbLine
 62
2
  6
CONTINUOUS
 10
4.4781245728
 20
0.5518400269
 11
4.4781245728
 21
0.3955900421
  0
LWPOLYLINE
  5
4C7
100
AcDbEntity
  8
0
100
AcDbPolyline
 62
2
  6
CONTINUOUS
 90
4
 70
0
 10
4.6968747864
 20
0.3955900421
 10
4.6968747864
 20
0.5518400269
 10
4.7593748474
 20
0.3955900421
 10
4.7593748474
 20
0.5518400269
  0
LWPOLYLINE
  5
4C8
100
AcDbEntity
  8
0
100
AcDbPolyline
 62
2
  6
CONTINUOUS
 90
9
 70
0
 10
4.8218745728
 20
0.6299651031
 10
4.8218745728
 20
0.7862150879
 10
4.8609371948
 20
0.7862150879
 10
4.8765623779
 20
0.7731942139
 10
4.8843746338
 20
0.7601733398
 10
4.8843746338
 20
0.7341317596
 10
4.8765623779
 20
0.7211108856
 10
4.8609371948
 20
0.7080900116
 10
4.8218745728
 20
0.7080900116
  0
LINE
  5
4C9
100
AcDbEntity
  8
0
100
AcDbLine
 62
2
  6
CONTINUOUS
 10
3.6119407043
 20
1.6974268494
 11
3.6588155823
 21
1.6974268494
  0
LINE
  5
4CA
100
AcDbEntity
  8
0
100
AcDbLine
 62
2
  6
CONTINUOUS
 10
3.8541280212
 20
1.7234685974
 11
3.8931906433
 21
1.7234685974
  0
LINE
  5
4CB
100
AcDbEntity
  8
0
100
AcDbLine
 62
2
  6
CONTINUOUS
 10
6.9859372559
 20
0.4737150345
 11
7.0093746948
 21
0.3955900421
  0
LWPOLYLINE
  5
4CC
100
AcDbEntity
  8
0
100
AcDbPolyline
 62
2
  6
CONTINUOUS
 90
5
 70
0
 10
5.5562497864
 20
0.7862150879
 10
5.5796872253
 20
0.6299651031
 10
5.6031246643
 20
0.7862150879
 10
5.6265621033
 20
0.6299651031
 10
5.6499998779
 20
0.7862150879
  0
LINE
  5
4CD
100
AcDbEntity
  8
0
100
AcDbLine
 62
2
  6
CONTINUOUS
 10
5.3218747253
 20
0.7862150879
 11
5.3218747253
 21
0.6299651031
  0
LINE
  5
4CE
100
AcDbEntity
  8
0
100
AcDbLine
 62
2
  6
CONTINUOUS
 10
5.3531247559
 20
0.5518400269
 11
5.3531247559
 21
0.3955900421
  0
LINE
  5
4CF
100
AcDbEntity
  8
0
100
AcDbLine
 62
2
  6
CONTINUOUS
 10
5.3843747864
 20
0.7862150879
 11
5.3843747864
 21
0.6299651031
  0
LWPOLYLINE
  5
4D0
100
AcDbEntity
  8
0
100
AcDbPolyline
 62
2
  6
CONTINUOUS
 90
12
 70
0
 10
5.6890625
 20
0.5518400269
 10
5.6890625
 20
0.3955900421
 10
5.7437496338
 20
0.3955900421
 10
5.751562561
 20
0.4086109161
 10
5.7593748169
 20
0.4216317062
 10
5.7593748169
 20
0.4606942444
 10
5.751562561
 20
0.4737150345
 10
5.7437496338
 20
0.4867359085
 10
5.751562561
 20
0.4997566986
 10
5.751562561
 20
0.5388192368
 10
5.7437496338
 20
0.5518400269
 10
5.6890625
 20
0.5518400269
  0
LWPOLYLINE
  5
4D1
100
AcDbEntity
  8
0
100
AcDbPolyline
 62
2
  6
CONTINUOUS
 90
4
 70
0
 10
5.6968747559
 20
0.6299651031
 10
5.6968747559
 20
0.7862150879
 10
5.7593748169
 20
0.6299651031
 10
5.7593748169
 20
0.7862150879
  0
LWPOLYLINE
  5
4D2
100
AcDbEntity
  8
0
100
AcDbPolyline
 62
2
  6
CONTINUOUS
 90
3
 70
0
 10
2.8140622101
 20
0.6299651031
 10
2.8531246643
 20
0.7862150879
 10
2.8921872864
 20
0.6299651031
  0
LWPOLYLINE
  5
4D3
100
AcDbEntity
  8
0
100
AcDbPolyline
 62
2
  6
CONTINUOUS
 90
3
 70
0
 10
3.1890620728
 20
0.3955900421
 10
3.2281246948
 20
0.5518400269
 10
3.2671873169
 20
0.3955900421
  0
LWPOLYLINE
  5
4D4
100
AcDbEntity
  8
0
100
AcDbPolyline
 62
2
  6
CONTINUOUS
 90
3
 70
0
 10
3.5963155212
 20
1.6453435211
 10
3.6353781433
 20
1.8015935059
 10
3.6744404297
 20
1.6453435211
  0
LWPOLYLINE
  5
4D5
100
AcDbEntity
  8
0
100
AcDbPolyline
 62
2
  6
CONTINUOUS
 90
8
 70
0
 10
8.634374939
 20
0.7601733398
 10
8.6265620117
 20
0.7731942139
 10
8.6109375
 20
0.7862150879
 10
8.5953123169
 20
0.7862150879
 10
8.5796871338
 20
0.7731942139
 10
8.5718748779
 20
0.7601733398
 10
8.5718748779
 20
0.7471526337
 10
8.5796871338
 20
0.7341317596
  0
LWPOLYLINE
  5
4D6
100
AcDbEntity
  8
0
100
AcDbPolyline
 62
2
  6
CONTINUOUS
 90
19
 70
0
 10
9.6343745728
 20
0.5257983627
 10
9.6265623169
 20
0.5388192368
 10
9.6109371338
 20
0.5518400269
 10
9.5953119507
 20
0.5518400269
 10
9.579687439
 20
0.5388192368
 10
9.5718745117
 20
0.5257983627
 10
9.5718745117
 20
0.5127775726
 10
9.579687439
 20
0.4997566986
 10
9.5953119507
 20
0.4867359085
 10
9.6109371338
 20
0.4737150345
 10
9.6265623169
 20
0.4606942444
 10
9.6343745728
 20
0.4476733704
 10
9.6343745728
 20
0.4216317062
 10
9.6265623169
 20
0.4086109161
 10
9.6109371338
 20
0.3955900421
 10
9.5953119507
 20
0.3955900421
 10
9.579687439
 20
0.4086109161
 10
9.5718745117
 20
0.4216317062
 10
9.5640622559
 20
0.4346525803
  0
LINE
  5
4D7
100
AcDbEntity
  8
0
100
AcDbLine
 62
2
  6
CONTINUOUS
 10
5.9781246948
 20
0.7862150879
 11
5.9781246948
 21
0.6299651031
  0
LWPOLYLINE
  5
4D8
100
AcDbEntity
  8
0
100
AcDbPolyline
 62
2
  6
CONTINUOUS
 90
4
 70
0
 10
6.0718744507
 20
0.6299651031
 10
6.0718744507
 20
0.7862150879
 10
6.1343745117
 20
0.6299651031
 10
6.1343745117
 20
0.7862150879
  0
LWPOLYLINE
  5
4D9
100
AcDbEntity
  8
0
100
AcDbPolyline
 62
2
  6
CONTINUOUS
 90
8
 70
0
 10
6.1343745117
 20
0.5518400269
 10
6.1343745117
 20
0.4216317062
 10
6.1265622559
 20
0.4086109161
 10
6.1109370728
 20
0.3955900421
 10
6.095312561
 20
0.3955900421
 10
6.0796873779
 20
0.4086109161
 10
6.0718744507
 20
0.4216317062
 10
6.0718744507
 20
0.5518400269
  0
LINE
  5
4DA
100
AcDbEntity
  8
0
100
AcDbLine
 62
2
  6
CONTINUOUS
 10
6.353125061
 20
0.7862150879
 11
6.353125061
 21
0.6299651031
  0
LWPOLYLINE
  5
4DB
100
AcDbEntity
  8
0
100
AcDbPolyline
 62
2
  6
CONTINUOUS
 90
4
 70
0
 10
6.4468748169
 20
0.6299651031
 10
6.4468748169
 20
0.7862150879
 10
6.5093748779
 20
0.6299651031
 10
6.5093748779
 20
0.7862150879
  0
LINE
  5
4DC
100
AcDbEntity
  8
0
100
AcDbLine
 62
2
  6
CONTINUOUS
 10
2.4468747711
 20
0.6299651031
 11
2.5093746643
 21
0.7862150879
  0
LWPOLYLINE
  5
4DD
100
AcDbEntity
  8
0
100
AcDbPolyline
 62
2
  6
CONTINUOUS
 90
19
 70
0
 10
9.8843748169
 20
0.5257983627
 10
9.876562561
 20
0.5388192368
 10
9.8609373779
 20
0.5518400269
 10
9.8453121948
 20
0.5518400269
 10
9.8296870117
 20
0.5388192368
 10
9.8218747559
 20
0.5257983627
 10
9.8218747559
 20
0.5127775726
 10
9.8296870117
 20
0.4997566986
 10
9.8453121948
 20
0.4867359085
 10
9.8609373779
 20
0.4737150345
 10
9.876562561
 20
0.4606942444
 10
9.8843748169
 20
0.4476733704
 10
9.8843748169
 20
0.4216317062
 10
9.876562561
 20
0.4086109161
 10
9.8609373779
 20
0.3955900421
 10
9.8453121948
 20
0.3955900421
 10
9.8296870117
 20
0.4086109161
 10
9.8218747559
 20
0.4216317062
 10
9.8140625
 20
0.4346525803
  0
LINE
  5
4DE
100
AcDbEntity
  8
0
100
AcDbLine
 62
2
  6
CONTINUOUS
 10
8.3609372559
 20
0.4737150345
 11
8.3843746948
 21
0.3955900421
  0
LINE
  5
4DF
100
AcDbEntity
  8
0
100
AcDbLine
 62
2
  6
CONTINUOUS
 10
8.4859373779
 20
0.7080900116
 11
8.5093748169
 21
0.6299651031
  0
LINE
  5
4E0
100
AcDbEntity
  8
0
100
AcDbLine
 62
2
  6
CONTINUOUS
 10
6.696875061
 20
0.7862150879
 11
6.696875061
 21
0.6299651031
  0
LWPOLYLINE
  5
4E1
100
AcDbEntity
  8
0
100
AcDbPolyline
 62
2
  6
CONTINUOUS
 90
3
 70
0
 10
6.696875061
 20
0.3955900421
 10
6.696875061
 20
0.5518400269
 10
6.7593744507
 20
0.5518400269
  0
LINE
  5
4E2
100
AcDbEntity
  8
0
100
AcDbLine
 62
2
  6
CONTINUOUS
 10
6.7593744507
 20
0.7862150879
 11
6.7593744507
 21
0.6299651031
  0
LWPOLYLINE
  5
4E3
100
AcDbEntity
  8
0
100
AcDbPolyline
 62
2
  6
CONTINUOUS
 90
9
 70
0
 10
6.9468746338
 20
0.3955900421
 10
6.9468746338
 20
0.5518400269
 10
6.9859372559
 20
0.5518400269
 10
7.001562439
 20
0.5388192368
 10
7.0093746948
 20
0.5257983627
 10
7.0093746948
 20
0.4997566986
 10
7.001562439
 20
0.4867359085
 10
6.9859372559
 20
0.4737150345
 10
6.9468746338
 20
0.4737150345
  0
LWPOLYLINE
  5
4E4
100
AcDbEntity
  8
0
100
AcDbPolyline
 62
2
  6
CONTINUOUS
 90
5
 70
0
 10
7.1890619507
 20
0.3955900421
 10
7.1890619507
 20
0.5518400269
 10
7.2281245728
 20
0.4216317062
 10
7.2671871948
 20
0.5518400269
 10
7.2671871948
 20
0.3955900421
  0
LWPOLYLINE
  5
4E5
100
AcDbEntity
  8
0
100
AcDbPolyline
 62
2
  6
CONTINUOUS
 90
3
 70
0
 10
4.6890621948
 20
0.6299651031
 10
4.7281248169
 20
0.7862150879
 10
4.7671871033
 20
0.6299651031
  0
LWPOLYLINE
  5
4E6
100
AcDbEntity
  8
0
100
AcDbPolyline
 62
2
  6
CONTINUOUS
 90
19
 70
0
 10
1.634374649
 20
0.8903817444
 10
1.6265622253
 20
0.8773608704
 10
1.6109372101
 20
0.8643399963
 10
1.5953121948
 20
0.8643399963
 10
1.5796871796
 20
0.8773608704
 10
1.5718747559
 20
0.8903817444
 10
1.5640621643
 20
0.9034026184
 10
1.5562497406
 20
0.9424650726
 10
1.5640621643
 20
0.9815275269
 10
1.5718747559
 20
0.9945484009
 10
1.5796871796
 20
1.0075692749
 10
1.5953121948
 20
1.0205899811
 10
1.6109372101
 20
1.0205899811
 10
1.6265622253
 20
1.0075692749
 10
1.634374649
 20
0.9945484009
 10
1.6421872406
 20
0.9815275269
 10
1.6499996643
 20
0.9424650726
 10
1.6421872406
 20
0.9034026184
 10
1.634374649
 20
0.8903817444
  0
LINE
  5
4E7
100
AcDbEntity
  8
0
100
AcDbLine
 62
2
  6
CONTINUOUS
 10
9.235937439
 20
0.4737150345
 11
9.2593748779
 21
0.3955900421
  0
LWPOLYLINE
  5
4E8
100
AcDbEntity
  8
0
100
AcDbPolyline
 62
2
  6
CONTINUOUS
 90
5
 70
0
 10
7.3140620728
 20
0.6299651031
 10
7.3140620728
 20
0.7862150879
 10
7.3531246948
 20
0.6560066833
 10
7.3921873169
 20
0.7862150879
 10
7.3921873169
 20
0.6299651031
  0
LWPOLYLINE
  5
4E9
100
AcDbEntity
  8
0
100
AcDbPolyline
 62
2
  6
CONTINUOUS
 90
4
 70
0
 10
7.4468744507
 20
0.3955900421
 10
7.4468744507
 20
0.5518400269
 10
7.5093745117
 20
0.3955900421
 10
7.5093745117
 20
0.5518400269
  0
LINE
  5
4EA
100
AcDbEntity
  8
0
100
AcDbLine
 62
2
  6
CONTINUOUS
 10
7.4781248169
 20
0.7862150879
 11
7.4781248169
 21
0.6299651031
  0
LWPOLYLINE
  5
4EB
100
AcDbEntity
  8
0
100
AcDbPolyline
 62
2
  6
CONTINUOUS
 90
3
 70
0
 10
7.5718745728
 20
0.7862150879
 10
7.5718745728
 20
0.6299651031
 10
7.6343746338
 20
0.6299651031
  0
LWPOLYLINE
  5
4EC
100
AcDbEntity
  8
0
100
AcDbPolyline
 62
2
  6
CONTINUOUS
 90
8
 70
0
 10
7.6343746338
 20
0.5518400269
 10
7.6343746338
 20
0.4216317062
 10
7.6265623779
 20
0.4086109161
 10
7.6109371948
 20
0.3955900421
 10
7.5953120117
 20
0.3955900421
 10
7.5796875
 20
0.4086109161
 10
7.5718745728
 20
0.4216317062
 10
7.5718745728
 20
0.5518400269
  0
LWPOLYLINE
  5
4ED
100
AcDbEntity
  8
0
100
AcDbPolyline
 62
2
  6
CONTINUOUS
 90
3
 70
0
 10
7.6968746948
 20
0.7862150879
 10
7.6968746948
 20
0.6299651031
 10
7.7593747559
 20
0.6299651031
  0
LWPOLYLINE
  5
4EE
100
AcDbEntity
  8
0
100
AcDbPolyline
 62
2
  6
CONTINUOUS
 90
3
 70
0
 10
7.6968746948
 20
0.3955900421
 10
7.6968746948
 20
0.5518400269
 10
7.7593747559
 20
0.5518400269
  0
LINE
  5
4EF
100
AcDbEntity
  8
0
100
AcDbLine
 62
2
  6
CONTINUOUS
 10
7.8531245117
 20
0.7862150879
 11
7.8531245117
 21
0.6299651031
  0
LWPOLYLINE
  5
4F0
100
AcDbEntity
  8
0
100
AcDbPolyline
 62
2
  6
CONTINUOUS
 90
5
 70
0
 10
7.9390620117
 20
0.6299651031
 10
7.9390620117
 20
0.7862150879
 10
7.9781246338
 20
0.6560066833
 10
8.0171872559
 20
0.7862150879
 10
8.0171872559
 20
0.6299651031
  0
LWPOLYLINE
  5
4F1
100
AcDbEntity
  8
0
100
AcDbPolyline
 62
2
  6
CONTINUOUS
 90
19
 70
0
 10
2.3843747101
 20
0.6560066833
 10
2.3765622864
 20
0.6429858093
 10
2.3609372711
 20
0.6299651031
 10
2.3453122559
 20
0.6299651031
 10
2.3296872406
 20
0.6429858093
 10
2.321874649
 20
0.6560066833
 10
2.3140622253
 20
0.6690275574
 10
2.3062498016
 20
0.7080900116
 10
2.3140622253
 20
0.7471526337
 10
2.321874649
 20
0.7601733398
 10
2.3296872406
 20
0.7731942139
 10
2.3453122559
 20
0.7862150879
 10
2.3609372711
 20
0.7862150879
 10
2.3765622864
 20
0.7731942139
 10
2.3843747101
 20
0.7601733398
 10
2.3921873016
 20
0.7471526337
 10
2.3999997253
 20
0.7080900116
 10
2.3921873016
 20
0.6690275574
 10
2.3843747101
 20
0.6560066833
  0
LINE
  5
4F2
100
AcDbEntity
  8
0
100
AcDbLine
 62
2
  6
CONTINUOUS
 10
8.1031247559
 20
0.5518400269
 11
8.1031247559
 21
0.3955900421
  0
LINE
  5
4F3
100
AcDbEntity
  8
0
100
AcDbLine
 62
2
  6
CONTINUOUS
 10
8.2281248779
 20
0.7862150879
 11
8.2281248779
 21
0.6299651031
  0
LWPOLYLINE
  5
4F4
100
AcDbEntity
  8
0
100
AcDbPolyline
 62
2
  6
CONTINUOUS
 90
8
 70
0
 10
8.2593745728
 20
0.5518400269
 10
8.2593745728
 20
0.4216317062
 10
8.2515623169
 20
0.4086109161
 10
8.2359371338
 20
0.3955900421
 10
8.2203119507
 20
0.3955900421
 10
8.204687439
 20
0.4086109161
 10
8.1968745117
 20
0.4216317062
 10
8.1968745117
 20
0.5518400269
  0
LWPOLYLINE
  5
4F5
100
AcDbEntity
  8
0
100
AcDbPolyline
 62
2
  6
CONTINUOUS
 90
9
 70
0
 10
8.3218746338
 20
0.3955900421
 10
8.3218746338
 20
0.5518400269
 10
8.3609372559
 20
0.5518400269
 10
8.376562439
 20
0.5388192368
 10
8.3843746948
 20
0.5257983627
 10
8.3843746948
 20
0.4997566986
 10
8.376562439
 20
0.4867359085
 10
8.3609372559
 20
0.4737150345
 10
8.3218746338
 20
0.4737150345
  0
LWPOLYLINE
  5
4F6
100
AcDbEntity
  8
0
100
AcDbPolyline
 62
2
  6
CONTINUOUS
 90
9
 70
0
 10
8.4468747559
 20
0.6299651031
 10
8.4468747559
 20
0.7862150879
 10
8.4859373779
 20
0.7862150879
 10
8.501562561
 20
0.7731942139
 10
8.5093748169
 20
0.7601733398
 10
8.5093748169
 20
0.7341317596
 10
8.501562561
 20
0.7211108856
 10
8.4859373779
 20
0.7080900116
 10
8.4468747559
 20
0.7080900116
  0
LINE
  5
4F7
100
AcDbEntity
  8
0
100
AcDbLine
 62
2
  6
CONTINUOUS
 10
8.4781244507
 20
0.5518400269
 11
8.4781244507
 21
0.3955900421
  0
LWPOLYLINE
  5
4F8
100
AcDbEntity
  8
0
100
AcDbPolyline
 62
2
  6
CONTINUOUS
 90
4
 70
0
 10
8.5718748779
 20
0.3955900421
 10
8.5718748779
 20
0.5518400269
 10
8.634374939
 20
0.3955900421
 10
8.634374939
 20
0.5518400269
  0
LWPOLYLINE
  5
4F9
100
AcDbEntity
  8
0
100
AcDbPolyline
 62
2
  6
CONTINUOUS
 90
19
 70
0
 10
2.7593747406
 20
0.4216317062
 10
2.751562149
 20
0.4086109161
 10
2.7359373016
 20
0.3955900421
 10
2.7203122864
 20
0.3955900421
 10
2.7046872711
 20
0.4086109161
 10
2.6968746796
 20
0.4216317062
 10
2.6890622559
 20
0.4346525803
 10
2.6812496643
 20
0.4737150345
 10
2.6890622559
 20
0.5127775726
 10
2.6968746796
 20
0.5257983627
 10
2.7046872711
 20
0.5388192368
 10
2.7203122864
 20
0.5518400269
 10
2.7359373016
 20
0.5518400269
 10
2.751562149
 20
0.5388192368
 10
2.7593747406
 20
0.5257983627
 10
2.7671871643
 20
0.5127775726
 10
2.7749997559
 20
0.4737150345
 10
2.7671871643
 20
0.4346525803
 10
2.7593747406
 20
0.4216317062
  0
LWPOLYLINE
  5
4FA
100
AcDbEntity
  8
0
100
AcDbPolyline
 62
2
  6
CONTINUOUS
 90
15
 70
0
 10
3.5416280518
 20
1.6713851013
 10
3.5338154602
 20
1.6583643951
 10
3.5181906128
 20
1.6453435211
 10
3.5025654297
 20
1.6453435211
 10
3.4869405823
 20
1.6583643951
 10
3.4791279907
 20
1.6713851013
 10
3.4713157349
 20
1.6844059753
 10
3.4635031433
 20
1.7234685974
 10
3.4713157349
 20
1.7625310516
 10
3.4791279907
 20
1.7755519257
 10
3.4869405823
 20
1.7885726318
 10
3.5025654297
 20
1.8015935059
 10
3.5181906128
 20
1.8015935059
 10
3.5338154602
 20
1.7885726318
 10
3.5416280518
 20
1.7755519257
  0
LWPOLYLINE
  5
4FB
100
AcDbEntity
  8
0
100
AcDbPolyline
 62
2
  6
CONTINUOUS
 90
5
 70
0
 10
3.3843748474
 20
0.6690275574
 10
3.3687496643
 20
0.6429858093
 10
3.3531248169
 20
0.6299651031
 10
3.3218747864
 20
0.6299651031
 10
3.3218747864
 20
0.7862150879
  0
LWPOLYLINE
  5
4FC
100
AcDbEntity
  8
0
100
AcDbPolyline
 62
2
  6
CONTINUOUS
 90
9
 70
0
 10
8.9468745728
 20
0.3955900421
 10
8.9468745728
 20
0.5518400269
 10
8.9859371948
 20
0.5518400269
 10
9.0015623779
 20
0.5388192368
 10
9.0093746338
 20
0.5257983627
 10
9.0093746338
 20
0.4997566986
 10
9.0015623779
 20
0.4867359085
 10
8.9859371948
 20
0.4737150345
 10
8.9468745728
 20
0.4737150345
  0
LWPOLYLINE
  5
4FD
100
AcDbEntity
  8
0
100
AcDbPolyline
 62
2
  6
CONTINUOUS
 90
8
 70
0
 10
9.1343747559
 20
0.5518400269
 10
9.1343747559
 20
0.4216317062
 10
9.1265625
 20
0.4086109161
 10
9.1109373169
 20
0.3955900421
 10
9.0953121338
 20
0.3955900421
 10
9.0796869507
 20
0.4086109161
 10
9.0718746948
 20
0.4216317062
 10
9.0718746948
 20
0.5518400269
  0
LWPOLYLINE
  5
4FE
100
AcDbEntity
  8
0
100
AcDbPolyline
 62
2
  6
CONTINUOUS
 90
9
 70
0
 10
9.1968748169
 20
0.3955900421
 10
9.1968748169
 20
0.5518400269
 10
9.235937439
 20
0.5518400269
 10
9.2515619507
 20
0.5388192368
 10
9.2593748779
 20
0.5257983627
 10
9.2593748779
 20
0.4997566986
 10
9.2515619507
 20
0.4867359085
 10
9.235937439
 20
0.4737150345
 10
9.1968748169
 20
0.4737150345
  0
LWPOLYLINE
  5
4FF
100
AcDbEntity
  8
0
100
AcDbPolyline
 62
2
  6
CONTINUOUS
 90
9
 70
0
 10
9.321874939
 20
0.3955900421
 10
9.321874939
 20
0.5518400269
 10
9.360937561
 20
0.5518400269
 10
9.3765620728
 20
0.5388192368
 10
9.384375
 20
0.5257983627
 10
9.384375
 20
0.4997566986
 10
9.3765620728
 20
0.4867359085
 10
9.360937561
 20
0.4737150345
 10
9.321874939
 20
0.4737150345
  0
LWPOLYLINE
  5
500
100
AcDbEntity
  8
0
100
AcDbPolyline
 62
2
  6
CONTINUOUS
 90
3
 70
0
 10
7.3140620728
 20
0.3955900421
 10
7.3531246948
 20
0.5518400269
 10
7.3921873169
 20
0.3955900421
  0
LWPOLYLINE
  5
501
100
AcDbEntity
  8
0
100
AcDbPolyline
 62
2
  6
CONTINUOUS
 90
19
 70
0
 10
3.8843746643
 20
0.4216317062
 10
3.8765620728
 20
0.4086109161
 10
3.8609372253
 20
0.3955900421
 10
3.8453123779
 20
0.3955900421
 10
3.8296871948
 20
0.4086109161
 10
3.8218746033
 20
0.4216317062
 10
3.8140623474
 20
0.4346525803
 10
3.8062497559
 20
0.4737150345
 10
3.8140623474
 20
0.5127775726
 10
3.8218746033
 20
0.5257983627
 10
3.8296871948
 20
0.5388192368
 10
3.8453123779
 20
0.5518400269
 10
3.8609372253
 20
0.5518400269
 10
3.8765620728
 20
0.5388192368
 10
3.8843746643
 20
0.5257983627
 10
3.8921872559
 20
0.5127775726
 10
3.8999998474
 20
0.4737150345
 10
3.8921872559
 20
0.4346525803
 10
3.8843746643
 20
0.4216317062
  0
LWPOLYLINE
  5
502
100
AcDbEntity
  8
0
100
AcDbPolyline
 62
2
  6
CONTINUOUS
 90
18
 70
0
 10
4.2671872864
 20
0.6690275574
 10
4.2515621033
 20
0.6429858093
 10
4.2359372559
 20
0.6299651031
 10
4.2203120728
 20
0.6299651031
 10
4.2046872253
 20
0.6429858093
 10
4.1968746338
 20
0.6560066833
 10
4.1890623779
 20
0.6690275574
 10
4.1812497864
 20
0.7080900116
 10
4.1890623779
 20
0.7471526337
 10
4.1968746338
 20
0.7601733398
 10
4.2046872253
 20
0.7731942139
 10
4.2203120728
 20
0.7862150879
 10
4.2359372559
 20
0.7862150879
 10
4.2515621033
 20
0.7731942139
 10
4.2593746948
 20
0.7601733398
 10
4.2671872864
 20
0.7471526337
 10
4.2749998779
 20
0.7080900116
 10
4.2671872864
 20
0.6690275574
  0
LWPOLYLINE
  5
503
100
AcDbEntity
  8
0
100
AcDbPolyline
 62
2
  6
CONTINUOUS
 90
3
 70
0
 10
7.814062561
 20
0.3955900421
 10
7.8531245117
 20
0.5518400269
 10
7.8921871338
 20
0.3955900421
  0
LWPOLYLINE
  5
504
100
AcDbEntity
  8
0
100
AcDbPolyline
 62
2
  6
CONTINUOUS
 90
19
 70
0
 10
5.5093745728
 20
0.6560066833
 10
5.5015623169
 20
0.6429858093
 10
5.4859371338
 20
0.6299651031
 10
5.4703122864
 20
0.6299651031
 10
5.4546871033
 20
0.6429858093
 10
5.4468748474
 20
0.6560066833
 10
5.4390622559
 20
0.6690275574
 10
5.4312496643
 20
0.7080900116
 10
5.4390622559
 20
0.7471526337
 10
5.4468748474
 20
0.7601733398
 10
5.4546871033
 20
0.7731942139
 10
5.4703122864
 20
0.7862150879
 10
5.4859371338
 20
0.7862150879
 10
5.5015623169
 20
0.7731942139
 10
5.5093745728
 20
0.7601733398
 10
5.5171871643
 20
0.7471526337
 10
5.5249997559
 20
0.7080900116
 10
5.5171871643
 20
0.6690275574
 10
5.5093745728
 20
0.6560066833
  0
LWPOLYLINE
  5
505
100
AcDbEntity
  8
0
100
AcDbPolyline
 62
2
  6
CONTINUOUS
 90
19
 70
0
 10
5.5093745728
 20
0.4216317062
 10
5.5015623169
 20
0.4086109161
 10
5.4859371338
 20
0.3955900421
 10
5.4703122864
 20
0.3955900421
 10
5.4546871033
 20
0.4086109161
 10
5.4468748474
 20
0.4216317062
 10
5.4390622559
 20
0.4346525803
 10
5.4312496643
 20
0.4737150345
 10
5.4390622559
 20
0.5127775726
 10
5.4468748474
 20
0.5257983627
 10
5.4546871033
 20
0.5388192368
 10
5.4703122864
 20
0.5518400269
 10
5.4859371338
 20
0.5518400269
 10
5.5015623169
 20
0.5388192368
 10
5.5093745728
 20
0.5257983627
 10
5.5171871643
 20
0.5127775726
 10
5.5249997559
 20
0.4737150345
 10
5.5171871643
 20
0.4346525803
 10
5.5093745728
 20
0.4216317062
  0
LWPOLYLINE
  5
506
100
AcDbEntity
  8
0
100
AcDbPolyline
 62
2
  6
CONTINUOUS
 90
15
 70
0
 10
6.634375
 20
0.6560066833
 10
6.6265620728
 20
0.6429858093
 10
6.610937561
 20
0.6299651031
 10
6.5953123779
 20
0.6299651031
 10
6.5796871948
 20
0.6429858093
 10
6.571874939
 20
0.6560066833
 10
6.5640620117
 20
0.6690275574
 10
6.5562497559
 20
0.7080900116
 10
6.5640620117
 20
0.7471526337
 10
6.571874939
 20
0.7601733398
 10
6.5796871948
 20
0.7731942139
 10
6.5953123779
 20
0.7862150879
 10
6.610937561
 20
0.7862150879
 10
6.6265620728
 20
0.7731942139
 10
6.634375
 20
0.7601733398
  0
LWPOLYLINE
  5
507
100
AcDbEntity
  8
0
100
AcDbPolyline
 62
2
  6
CONTINUOUS
 90
19
 70
0
 10
6.8843745728
 20
0.4216317062
 10
6.8765623169
 20
0.4086109161
 10
6.8609371338
 20
0.3955900421
 10
6.8453119507
 20
0.3955900421
 10
6.829687439
 20
0.4086109161
 10
6.8218745117
 20
0.4216317062
 10
6.8140622559
 20
0.4346525803
 10
6.80625
 20
0.4737150345
 10
6.8140622559
 20
0.5127775726
 10
6.8218745117
 20
0.5257983627
 10
6.829687439
 20
0.5388192368
 10
6.8453119507
 20
0.5518400269
 10
6.8609371338
 20
0.5518400269
 10
6.8765623169
 20
0.5388192368
 10
6.8843745728
 20
0.5257983627
 10
6.8921875
 20
0.5127775726
 10
6.8999997559
 20
0.4737150345
 10
6.8921875
 20
0.4346525803
 10
6.8843745728
 20
0.4216317062
  0
LWPOLYLINE
  5
508
100
AcDbEntity
  8
0
100
AcDbPolyline
 62
2
  6
CONTINUOUS
 90
15
 70
0
 10
8.009375
 20
0.4216317062
 10
8.0015620728
 20
0.4086109161
 10
7.985937561
 20
0.3955900421
 10
7.9703123779
 20
0.3955900421
 10
7.9546871948
 20
0.4086109161
 10
7.946874939
 20
0.4216317062
 10
7.9390620117
 20
0.4346525803
 10
7.9312497559
 20
0.4737150345
 10
7.9390620117
 20
0.5127775726
 10
7.946874939
 20
0.5257983627
 10
7.9546871948
 20
0.5388192368
 10
7.9703123779
 20
0.5518400269
 10
7.985937561
 20
0.5518400269
 10
8.0015620728
 20
0.5388192368
 10
8.009375
 20
0.5257983627
  0
LWPOLYLINE
  5
509
100
AcDbEntity
  8
0
100
AcDbPolyline
 62
2
  6
CONTINUOUS
 90
4
 70
0
 10
16.5677858887
 20
9.7890880127
 10
16.5599736328
 20
9.7890880127
 10
16.5599736328
 20
9.8021088867
 10
16.5677858887
 20
9.7890880127
  0
LWPOLYLINE
  5
50A
100
AcDbEntity
  8
0
100
AcDbPolyline
 62
2
  6
CONTINUOUS
 90
4
 70
0
 10
16.1927868652
 20
9.7890880127
 10
16.1849732666
 20
9.7890880127
 10
16.1849732666
 20
9.8021088867
 10
16.1927868652
 20
9.7890880127
  0
LWPOLYLINE
  5
50B
100
AcDbEntity
  8
0
100
AcDbPolyline
 62
2
  6
CONTINUOUS
 90
4
 70
0
 10
16.0990357666
 20
9.7890880127
 10
16.036536377
 20
9.7890880127
 10
16.036536377
 20
9.9453378296
 10
16.0990357666
 20
9.9453378296
  0
LINE
  5
50C
100
AcDbEntity
  8
0
100
AcDbLine
 62
2
  6
CONTINUOUS
 10
15.7943483887
 20
9.8411715088
 11
15.8412232666
 21
9.8411715088
  0
LINE
  5
50D
100
AcDbEntity
  8
0
100
AcDbLine
 62
2
  6
CONTINUOUS
 10
16.036536377
 20
9.8672132568
 11
16.075598999
 21
9.8672132568
  0
LWPOLYLINE
  5
50E
100
AcDbEntity
  8
0
100
AcDbPolyline
 62
2
  6
CONTINUOUS
 90
4
 70
0
 10
16.9740366211
 20
10.0234630737
 10
16.9115358887
 20
10.0234630737
 10
16.9115358887
 20
10.1797128906
 10
16.9740366211
 20
10.1797128906
  0
LWPOLYLINE
  5
50F
100
AcDbEntity
  8
0
100
AcDbPolyline
 62
2
  6
CONTINUOUS
 90
4
 70
0
 10
15.9740369873
 20
10.0234630737
 10
15.9115362549
 20
10.0234630737
 10
15.9115362549
 20
10.1797128906
 10
15.9740369873
 20
10.1797128906
  0
LINE
  5
510
100
AcDbEntity
  8
0
100
AcDbLine
 62
2
  6
CONTINUOUS
 10
15.9115362549
 20
10.1015876465
 11
15.950598877
 21
10.1015876465
  0
LINE
  5
511
100
AcDbEntity
  8
0
100
AcDbLine
 62
2
  6
CONTINUOUS
 10
16.9115358887
 20
10.1015876465
 11
16.9505985107
 21
10.1015876465
  0
LINE
  5
512
100
AcDbEntity
  8
0
100
AcDbLine
 62
2
  6
CONTINUOUS
 10
16.0287241211
 20
10.1797128906
 11
16.1068493652
 21
10.1797128906
  0
LWPOLYLINE
  5
513
100
AcDbEntity
  8
0
100
AcDbPolyline
 62
2
  6
CONTINUOUS
 90
19
 70
0
 10
9.5093744507
 20
0.4216317062
 10
9.5015621948
 20
0.4086109161
 10
9.4859370117
 20
0.3955900421
 10
9.4703125
 20
0.3955900421
 10
9.4546873169
 20
0.4086109161
 10
9.446875061
 20
0.4216317062
 10
9.4390621338
 20
0.4346525803
 10
9.4312498779
 20
0.4737150345
 10
9.4390621338
 20
0.5127775726
 10
9.446875061
 20
0.5257983627
 10
9.4546873169
 20
0.5388192368
 10
9.4703125
 20
0.5518400269
 10
9.4859370117
 20
0.5518400269
 10
9.5015621948
 20
0.5388192368
 10
9.5093744507
 20
0.5257983627
 10
9.5171873779
 20
0.5127775726
 10
9.5249996338
 20
0.4737150345
 10
9.5171873779
 20
0.4346525803
 10
9.5093744507
 20
0.4216317062
  0
LWPOLYLINE
  5
514
100
AcDbEntity
  8
0
100
AcDbPolyline
 62
2
  6
CONTINUOUS
 90
5
 70
0
 10
15.6537237549
 20
10.1406502686
 10
15.6693482666
 20
10.1666920166
 10
15.6849741211
 20
10.1797128906
 10
15.7005986328
 20
10.1797128906
 10
15.7162244873
 20
10.1666920166
  0
LWPOLYLINE
  5
515
100
AcDbEntity
  8
0
100
AcDbPolyline
 62
2
  6
CONTINUOUS
 90
5
 70
0
 10
15.731848999
 20
10.0625256958
 10
15.7162244873
 20
10.0364839478
 10
15.7005986328
 20
10.0234630737
 10
15.6849741211
 20
10.0234630737
 10
15.6693482666
 20
10.0364839478
  0
LWPOLYLINE
  5
516
100
AcDbEntity
  8
0
100
AcDbPolyline
 62
2
  6
CONTINUOUS
 90
6
 70
0
 10
15.6537237549
 20
9.9062752075
 10
15.6693482666
 20
9.9323169556
 10
15.6849741211
 20
9.9453378296
 10
15.7005986328
 20
9.9453378296
 10
15.7162244873
 20
9.9323169556
 10
15.7240367432
 20
9.9192960815
  0
LWPOLYLINE
  5
517
100
AcDbEntity
  8
0
100
AcDbPolyline
 62
2
  6
CONTINUOUS
 90
5
 70
0
 10
15.7240367432
 20
9.8151297607
 10
15.7162244873
 20
9.8021088867
 10
15.7005986328
 20
9.7890880127
 10
15.6849741211
 20
9.7890880127
 10
15.6693482666
 20
9.8021088867
  0
LWPOLYLINE
  5
518
100
AcDbEntity
  8
0
100
AcDbPolyline
 62
2
  6
CONTINUOUS
 90
6
 70
0
 10
16.4037244873
 20
10.1406502686
 10
16.419348999
 20
10.1666920166
 10
16.4349735107
 20
10.1797128906
 10
16.4505993652
 20
10.1797128906
 10
16.466223877
 20
10.1666920166
 10
16.4740361328
 20
10.1536711426
  0
LWPOLYLINE
  5
519
100
AcDbEntity
  8
0
100
AcDbPolyline
 62
2
  6
CONTINUOUS
 90
5
 70
0
 10
16.4740361328
 20
10.0495048218
 10
16.466223877
 20
10.0364839478
 10
16.4505993652
 20
10.0234630737
 10
16.4349735107
 20
10.0234630737
 10
16.419348999
 20
10.0364839478
  0
LINE
  5
51A
100
AcDbEntity
  8
0
100
AcDbLine
 62
2
  6
CONTINUOUS
 10
15.4427861328
 20
10.1797128906
 11
15.4427861328
 21
10.0234630737
  0
LWPOLYLINE
  5
51B
100
AcDbEntity
  8
0
100
AcDbPolyline
 62
2
  6
CONTINUOUS
 90
3
 70
0
 10
15.778723877
 20
9.7890880127
 10
15.817786499
 20
9.9453378296
 10
15.8568491211
 20
9.7890880127
  0
LINE
  5
51C
100
AcDbEntity
  8
0
100
AcDbLine
 62
2
  6
CONTINUOUS
 10
15.5443494873
 20
10.1276293945
 11
15.5912243652
 21
10.0885674438
  0
LWPOLYLINE
  5
51D
100
AcDbEntity
  8
0
100
AcDbPolyline
 62
2
  6
CONTINUOUS
 90
15
 70
0
 10
16.6927860107
 20
9.7890880127
 10
16.677161499
 20
9.8021088867
 10
16.6693492432
 20
9.8151297607
 10
16.6615369873
 20
9.8411715088
 10
16.6615369873
 20
9.8932543335
 10
16.6693492432
 20
9.9192960815
 10
16.677161499
 20
9.9323169556
 10
16.6927860107
 20
9.9453378296
 10
16.7084118652
 20
9.9323169556
 10
16.7162241211
 20
9.9192960815
 10
16.724036377
 20
9.8932543335
 10
16.724036377
 20
9.8411715088
 10
16.7162241211
 20
9.8151297607
 10
16.7084118652
 20
9.8021088867
 10
16.6927860107
 20
9.7890880127
  0
LWPOLYLINE
  5
51E
100
AcDbEntity
  8
0
100
AcDbPolyline
 62
2
  6
CONTINUOUS
 90
19
 70
0
 10
15.5990366211
 20
9.9192960815
 10
15.5912243652
 20
9.9323169556
 10
15.5755985107
 20
9.9453378296
 10
15.559973999
 20
9.9453378296
 10
15.5443494873
 20
9.9323169556
 10
15.5365358887
 20
9.9192960815
 10
15.5365358887
 20
9.9062752075
 10
15.5443494873
 20
9.8932543335
 10
15.559973999
 20
9.8802334595
 10
15.5755985107
 20
9.8672132568
 10
15.5912243652
 20
9.8541923828
 10
15.5990366211
 20
9.8411715088
 10
15.5990366211
 20
9.8151297607
 10
15.5912243652
 20
9.8021088867
 10
15.5755985107
 20
9.7890880127
 10
15.559973999
 20
9.7890880127
 10
15.5443494873
 20
9.8021088867
 10
15.5365358887
 20
9.8151297607
 10
15.5287236328
 20
9.8281506348
  0
LWPOLYLINE
  5
51F
100
AcDbEntity
  8
0
100
AcDbPolyline
 62
2
  6
CONTINUOUS
 90
4
 70
0
 10
15.6693482666
 20
9.8021088867
 10
15.6537237549
 20
9.8281506348
 10
15.645911499
 20
9.8672132568
 10
15.6537237549
 20
9.9062752075
  0
LWPOLYLINE
  5
520
100
AcDbEntity
  8
0
100
AcDbPolyline
 62
2
  6
CONTINUOUS
 90
5
 70
0
 10
15.778723877
 20
10.0234630737
 10
15.778723877
 20
10.1797128906
 10
15.817786499
 20
10.0495048218
 10
15.8568491211
 20
10.1797128906
 10
15.8568491211
 20
10.0234630737
  0
LWPOLYLINE
  5
521
100
AcDbEntity
  8
0
100
AcDbPolyline
 62
2
  6
CONTINUOUS
 90
3
 70
0
 10
15.9115362549
 20
9.9453378296
 10
15.9115362549
 20
9.7890880127
 10
15.9740369873
 20
9.7890880127
  0
LINE
  5
522
100
AcDbEntity
  8
0
100
AcDbLine
 62
2
  6
CONTINUOUS
 10
16.0677867432
 20
10.1797128906
 11
16.0677867432
 21
10.0234630737
  0
LWPOLYLINE
  5
523
100
AcDbEntity
  8
0
100
AcDbPolyline
 62
2
  6
CONTINUOUS
 90
9
 70
0
 10
16.161536499
 20
10.0234630737
 10
16.161536499
 20
10.1797128906
 10
16.2005991211
 20
10.1797128906
 10
16.2162236328
 20
10.1666920166
 10
16.2240358887
 20
10.1536711426
 10
16.2240358887
 20
10.1276293945
 10
16.2162236328
 20
10.1146085205
 10
16.2005991211
 20
10.1015876465
 10
16.161536499
 20
10.1015876465
  0
LWPOLYLINE
  5
524
100
AcDbEntity
  8
0
100
AcDbPolyline
 62
2
  6
CONTINUOUS
 90
4
 70
0
 10
16.1927868652
 20
9.8932543335
 10
16.1927868652
 20
9.8802334595
 10
16.1849732666
 20
9.8932543335
 10
16.1927868652
 20
9.8932543335
  0
LINE
  5
525
100
AcDbEntity
  8
0
100
AcDbLine
 62
2
  6
CONTINUOUS
 10
16.3177869873
 20
10.1797128906
 11
16.3177869873
 21
10.0234630737
  0
LINE
  5
526
100
AcDbEntity
  8
0
100
AcDbLine
 62
2
  6
CONTINUOUS
 10
16.4427857666
 20
9.9453378296
 11
16.4427857666
 21
9.7890880127
  0
LWPOLYLINE
  5
527
100
AcDbEntity
  8
0
100
AcDbPolyline
 62
2
  6
CONTINUOUS
 90
15
 70
0
 10
16.8177861328
 20
9.7890880127
 10
16.8021616211
 20
9.8021088867
 10
16.7943493652
 20
9.8151297607
 10
16.7865357666
 20
9.8411715088
 10
16.7865357666
 20
9.8932543335
 10
16.7943493652
 20
9.9192960815
 10
16.8021616211
 20
9.9323169556
 10
16.8177861328
 20
9.9453378296
 10
16.8334119873
 20
9.9323169556
 10
16.8412242432
 20
9.9192960815
 10
16.849036499
 20
9.8932543335
 10
16.849036499
 20
9.8411715088
 10
16.8412242432
 20
9.8151297607
 10
16.8334119873
 20
9.8021088867
 10
16.8177861328
 20
9.7890880127
  0
LWPOLYLINE
  5
528
100
AcDbEntity
  8
0
100
AcDbPolyline
 62
2
  6
CONTINUOUS
 90
15
 70
0
 10
16.9427862549
 20
9.7890880127
 10
16.9271617432
 20
9.8021088867
 10
16.9193494873
 20
9.8151297607
 10
16.9115358887
 20
9.8411715088
 10
16.9115358887
 20
9.8932543335
 10
16.9193494873
 20
9.9192960815
 10
16.9271617432
 20
9.9323169556
 10
16.9427862549
 20
9.9453378296
 10
16.9584107666
 20
9.9323169556
 10
16.9662243652
 20
9.9192960815
 10
16.9740366211
 20
9.8932543335
 10
16.9740366211
 20
9.8411715088
 10
16.9662243652
 20
9.8151297607
 10
16.9584107666
 20
9.8021088867
 10
16.9427862549
 20
9.7890880127
  0
LWPOLYLINE
  5
529
100
AcDbEntity
  8
0
100
AcDbPolyline
 62
2
  6
CONTINUOUS
 90
9
 70
0
 10
15.5912243652
 20
10.0885674438
 10
15.5990366211
 20
10.0755465698
 10
15.5990366211
 20
10.0495048218
 10
15.5912243652
 20
10.0364839478
 10
15.5755985107
 20
10.0234630737
 10
15.559973999
 20
10.0234630737
 10
15.5443494873
 20
10.0364839478
 10
15.5365358887
 20
10.0495048218
 10
15.5287236328
 20
10.0625256958
  0
LWPOLYLINE
  5
52A
100
AcDbEntity
  8
0
100
AcDbPolyline
 62
2
  6
CONTINUOUS
 90
8
 70
0
 10
15.5990366211
 20
10.1536711426
 10
15.5912243652
 20
10.1666920166
 10
15.5755985107
 20
10.1797128906
 10
15.559973999
 20
10.1797128906
 10
15.5443494873
 20
10.1666920166
 10
15.5365358887
 20
10.1536711426
 10
15.5365358887
 20
10.1406502686
 10
15.5443494873
 20
10.1276293945
  0
LWPOLYLINE
  5
52B
100
AcDbEntity
  8
0
100
AcDbPolyline
 62
2
  6
CONTINUOUS
 90
4
 70
0
 10
15.6693482666
 20
10.0364839478
 10
15.6537237549
 20
10.0625256958
 10
15.645911499
 20
10.1015876465
 10
15.6537237549
 20
10.1406502686
  0
LWPOLYLINE
  5
52C
100
AcDbEntity
  8
0
100
AcDbPolyline
 62
2
  6
CONTINUOUS
 90
4
 70
0
 10
15.7162244873
 20
10.1666920166
 10
15.731848999
 20
10.1406502686
 10
15.7396612549
 20
10.1015876465
 10
15.731848999
 20
10.0625256958
  0
LWPOLYLINE
  5
52D
100
AcDbEntity
  8
0
100
AcDbPolyline
 62
2
  6
CONTINUOUS
 90
4
 70
0
 10
16.419348999
 20
10.0364839478
 10
16.4037244873
 20
10.0625256958
 10
16.3959108887
 20
10.1015876465
 10
16.4037244873
 20
10.1406502686
  0
LINE
  5
52E
100
AcDbEntity
  8
0
100
AcDbLine
 62
2
  6
CONTINUOUS
 10
16.2005991211
 20
10.1015876465
 11
16.2240358887
 21
10.0234630737
  0
LINE
  5
52F
100
AcDbEntity
  8
0
100
AcDbLine
 62
2
  6
CONTINUOUS
 10
16.8177861328
 20
10.1797128906
 11
16.8177861328
 21
10.0234630737
  0
LWPOLYLINE
  5
530
100
AcDbEntity
  8
0
100
AcDbPolyline
 62
2
  6
CONTINUOUS
 90
3
 70
0
 10
16.6537233887
 20
10.1797128906
 10
16.6927860107
 20
10.0234630737
 10
16.7318486328
 20
10.1797128906
  0
LWPOLYLINE
  5
531
100
AcDbEntity
  8
0
100
AcDbPolyline
 62
2
  6
CONTINUOUS
 90
5
 70
0
 10
17.020911499
 20
10.1797128906
 10
17.0443482666
 20
10.0234630737
 10
17.067786377
 20
10.1797128906
 10
17.0912244873
 20
10.0234630737
 10
17.1146612549
 20
10.1797128906
  0
LINE
  5
532
100
AcDbEntity
  8
0
100
AcDbLine
 62
7
  6
CONTINUOUS
 10
0.0
 20
17.0
 11
22.0
 21
17.0
  0
LINE
  5
533
100
AcDbEntity
  8
0
100
AcDbLine
 62
7
  6
CONTINUOUS
 10
22.0
 20
0.0
 11
22.0
 21
17.0
  0
LINE
  5
534
100
AcDbEntity
  8
0
100
AcDbLine
 62
2
  6
CONTINUOUS
 10
0.4447550964
 20
5.5625622559
 11
0.4447550964
 21
5.406312439
  0
LWPOLYLINE
  5
535
100
AcDbEntity
  8
0
100
AcDbPolyline
 62
2
  6
CONTINUOUS
 90
17
 70
0
 10
0.2885050907
 20
5.6927703247
 10
0.2963175983
 20
5.7188120728
 10
0.3197551003
 20
5.7318329468
 10
0.3431926022
 20
5.7188120728
 10
0.3510050888
 20
5.6927703247
 10
0.3431926022
 20
5.6667285767
 10
0.3353800945
 20
5.6537077026
 10
0.3197551003
 20
5.6406875
 10
0.304130106
 20
5.6537077026
 10
0.2963175983
 20
5.6667285767
 10
0.2885050907
 20
5.6927703247
 10
0.2885050907
 20
5.7448538208
 10
0.2963175983
 20
5.7708955688
 10
0.304130106
 20
5.7839164429
 10
0.3197551003
 20
5.7969373169
 10
0.3353800945
 20
5.7839164429
 10
0.3431926022
 20
5.7708955688
  0
LWPOLYLINE
  5
536
100
AcDbEntity
  8
0
100
AcDbPolyline
 62
2
  6
CONTINUOUS
 90
4
 70
0
 10
0.7181926117
 20
5.406312439
 10
0.7181926117
 20
5.5625622559
 10
0.6635051003
 20
5.4453743896
 10
0.733817627
 20
5.4453743896
  0
LWPOLYLINE
  5
537
100
AcDbEntity
  8
0
100
AcDbPolyline
 62
2
  6
CONTINUOUS
 90
17
 70
0
 10
0.7260051193
 20
5.7448538208
 10
0.7181926117
 20
5.7188120728
 10
0.6947550888
 20
5.7057911987
 10
0.6713176079
 20
5.7188120728
 10
0.6635051003
 20
5.7448538208
 10
0.6713176079
 20
5.7708955688
 10
0.6791301155
 20
5.7839164429
 10
0.6947550888
 20
5.7969373169
 10
0.7103801041
 20
5.7839164429
 10
0.7181926117
 20
5.7708955688
 10
0.7260051193
 20
5.7448538208
 10
0.7260051193
 20
5.6927703247
 10
0.7181926117
 20
5.6667285767
 10
0.7103801041
 20
5.6537077026
 10
0.6947550888
 20
5.6406875
 10
0.6791301155
 20
5.6537077026
 10
0.6713176079
 20
5.6667285767
  0
LINE
  5
538
100
AcDbEntity
  8
0
100
AcDbLine
 62
7
  6
CONTINUOUS
 10
2.2830761593
 20
8.9187642208
 11
2.2633906353
 21
8.8990796661
  0
LWPOLYLINE
  5
539
100
AcDbEntity
  8
0
100
AcDbPolyline
 62
2
  6
CONTINUOUS
 90
3
 70
0
 10
0.9447550812
 20
5.406312439
 10
0.9525675888
 20
5.4714161377
 10
0.9603800964
 20
5.5104787598
  0
LINE
  5
53A
100
AcDbEntity
  8
0
100
AcDbLine
 62
7
  6
CONTINUOUS
 10
2.9129974191
 20
8.9187642208
 11
2.8933118951
 21
8.8990796661
  0
LINE
  5
53B
100
AcDbEntity
  8
0
100
AcDbLine
 62
7
  6
CONTINUOUS
 10
1.877565802
 20
2.8282115856
 11
6.5271721012
 21
2.8282115856
  0
LWPOLYLINE
  5
53C
100
AcDbEntity
  8
0
100
AcDbPolyline
 62
2
  6
CONTINUOUS
 90
5
 70
0
 10
0.819755127
 20
5.406312439
 10
0.8119426193
 20
5.419333313
 10
0.819755127
 20
5.419333313
 10
0.819755127
 20
5.406312439
 10
0.8041301117
 20
5.3802706909
  0
LINE
  5
53D
100
AcDbEntity
  8
0
100
AcDbLine
 62
7
  6
CONTINUOUS
 10
1.377565802
 20
7.9778178849
 11
1.377565802
 21
3.3282115856
  0
LINE
  5
53E
100
AcDbEntity
  8
0
100
AcDbLine
 62
7
  6
CONTINUOUS
 10
1.4366209201
 20
7.9778178849
 11
1.4366209201
 21
3.3282115856
  0
LWPOLYLINE
  5
53F
100
AcDbEntity
  8
0
100
AcDbPolyline
 62
2
  6
CONTINUOUS
 90
3
 70
0
 10
0.9603800964
 20
5.5104787598
 10
0.9760051117
 20
5.5625622559
 10
0.9135051346
 20
5.5625622559
  0
LWPOLYLINE
  5
540
100
AcDbEntity
  8
0
100
AcDbPolyline
 62
2
  6
CONTINUOUS
 90
9
 70
0
 10
4.6209540405
 20
10.0052496948
 10
4.6365788879
 20
10.0182705688
 10
4.6522037354
 20
10.0182705688
 10
4.6678289185
 20
10.0052496948
 10
4.67564151
 20
9.9922288208
 10
4.67564151
 20
9.9792079468
 10
4.6678289185
 20
9.9661870728
 10
4.6522037354
 20
9.9531661987
 10
4.6678289185
 20
9.9401453247
  0
LWPOLYLINE
  5
541
100
AcDbEntity
  8
0
100
AcDbPolyline
 62
2
  6
CONTINUOUS
 90
5
 70
0
 10
4.6678289185
 20
9.875041626
 10
4.6522037354
 20
9.862020752
 10
4.6365788879
 20
9.862020752
 10
4.6209540405
 20
9.875041626
 10
4.613141449
 20
9.8880625
  0
LINE
  5
542
100
AcDbEntity
  8
0
100
AcDbLine
 62
7
  6
CONTINUOUS
 10
1.877565802
 20
2.8872667038
 11
6.5271721012
 21
2.8872667038
  0
LINE
  5
543
100
AcDbEntity
  8
02___PRT_ALL_AXES
100
AcDbLine
 62
7
  6
CENTER
 10
6.5527626524
 20
3.3026210345
 11
6.4526626524
 21
3.3026210345
  0
LINE
  5
544
100
AcDbEntity
  8
02___PRT_ALL_AXES
100
AcDbLine
 62
7
  6
CENTER
 10
1.8519752508
 20
3.3026210345
 11
1.7518752508
 21
3.3026210345
  0
LINE
  5
545
100
AcDbEntity
  8
02___PRT_ALL_AXES
100
AcDbLine
 62
7
  6
CENTER
 10
1.8519752508
 20
3.3026210345
 11
1.9520752508
 21
3.3026210345
  0
LINE
  5
546
100
AcDbEntity
  8
02___PRT_ALL_AXES
100
AcDbLine
 62
7
  6
CENTER
 10
6.5527626524
 20
3.3026210345
 11
6.6528626524
 21
3.3026210345
  0
LINE
  5
547
100
AcDbEntity
  8
0
100
AcDbLine
 62
7
  6
CONTINUOUS
 10
1.4366209201
 20
3.3282115856
 11
1.377565802
 21
3.3282115858
  0
LINE
  5
548
100
AcDbEntity
  8
0
100
AcDbLine
 62
7
  6
CONTINUOUS
 10
6.9681169831
 20
3.3282115856
 11
7.0271721012
 21
3.3282115856
  0
LWPOLYLINE
  5
549
100
AcDbEntity
  8
0
100
AcDbPolyline
 62
2
  6
CONTINUOUS
 90
15
 70
0
 10
0.5697550926
 20
5.6406875
 10
0.5541301193
 20
5.6537077026
 10
0.5463176117
 20
5.6667285767
 10
0.5385051041
 20
5.6927703247
 10
0.5385051041
 20
5.7448538208
 10
0.5463176117
 20
5.7708955688
 10
0.5541301193
 20
5.7839164429
 10
0.5697550926
 20
5.7969373169
 10
0.5853801079
 20
5.7839164429
 10
0.5931926155
 20
5.7708955688
 10
0.6010050812
 20
5.7448538208
 10
0.6010050812
 20
5.6927703247
 10
0.5931926155
 20
5.6667285767
 10
0.5853801079
 20
5.6537077026
 10
0.5697550926
 20
5.6406875
  0
LINE
  5
54A
100
AcDbEntity
  8
02___PRT_ALL_AXES
100
AcDbLine
 62
7
  6
CENTER
 10
1.8519752508
 20
8.003408436
 11
1.8519752508
 21
7.903308436
  0
LINE
  5
54B
100
AcDbEntity
  8
02___PRT_ALL_AXES
100
AcDbLine
 62
7
  6
CENTER
 10
1.8519752508
 20
3.3026210345
 11
1.8519752508
 21
3.2025210345
  0
LINE
  5
54C
100
AcDbEntity
  8
02___PRT_ALL_AXES
100
AcDbLine
 62
7
  6
CENTER
 10
1.8519752508
 20
3.3026210345
 11
1.8519752508
 21
3.4027210345
  0
LINE
  5
54D
100
AcDbEntity
  8
02___PRT_ALL_AXES
100
AcDbLine
 62
7
  6
CENTER
 10
1.8519752508
 20
8.003408436
 11
1.8519752508
 21
8.103508436
  0
LINE
  5
54E
100
AcDbEntity
  8
0
100
AcDbLine
 62
7
  6
CONTINUOUS
 10
1.877565802
 20
8.4187627667
 11
1.8775658022
 21
8.4778178849
  0
LINE
  5
54F
100
AcDbEntity
  8
0
100
AcDbLine
 62
7
  6
CONTINUOUS
 10
1.877565802
 20
2.8872667038
 11
1.877565802
 21
2.8282115856
  0
LINE
  5
550
100
AcDbEntity
  8
0
100
AcDbLine
 62
7
  6
CONTINUOUS
 10
2.1846524162
 20
8.4778178849
 11
2.1846524162
 21
8.5211249715
  0
LINE
  5
551
100
AcDbEntity
  8
0
100
AcDbLine
 62
7
  6
CONTINUOUS
 10
2.2633925737
 20
8.5211249715
 11
2.2633925737
 21
8.8990777274
  0
LINE
  5
552
100
AcDbEntity
  8
0
100
AcDbLine
 62
7
  6
CONTINUOUS
 10
2.4208728886
 20
8.5211249715
 11
2.4208728886
 21
8.8990777274
  0
LINE
  5
553
100
AcDbEntity
  8
0
100
AcDbLine
 62
7
  6
CONTINUOUS
 10
2.4996130461
 20
8.4778178849
 11
2.4996130461
 21
8.5211249715
  0
LINE
  5
554
100
AcDbEntity
  8
0
100
AcDbLine
 62
7
  6
CONTINUOUS
 10
2.814573676
 20
8.4778178849
 11
2.814573676
 21
8.5211249715
  0
LINE
  5
555
100
AcDbEntity
  8
0
100
AcDbLine
 62
7
  6
CONTINUOUS
 10
2.8933138335
 20
8.5211249715
 11
2.8933138335
 21
8.8990777274
  0
LINE
  5
556
100
AcDbEntity
  8
0
100
AcDbLine
 62
7
  6
CONTINUOUS
 10
3.0507941485
 20
8.5211249715
 11
3.0507941485
 21
8.8990777274
  0
LINE
  5
557
100
AcDbEntity
  8
0
100
AcDbLine
 62
7
  6
CONTINUOUS
 10
3.1295343059
 20
8.4778178849
 11
3.1295343059
 21
8.5211249715
  0
LWPOLYLINE
  5
558
100
AcDbEntity
  8
0
100
AcDbPolyline
 62
2
  6
CONTINUOUS
 90
17
 70
0
 10
4.4881413269
 20
10.1484786377
 10
4.4959539185
 20
10.1745203857
 10
4.5193913574
 20
10.1875412598
 10
4.5428287964
 20
10.1745203857
 10
4.5506413879
 20
10.1484786377
 10
4.5428287964
 20
10.122437561
 10
4.5350165405
 20
10.109416687
 10
4.5193913574
 20
10.096395813
 10
4.50376651
 20
10.109416687
 10
4.4959539185
 20
10.122437561
 10
4.4881413269
 20
10.1484786377
 10
4.4881413269
 20
10.2005621338
 10
4.4959539185
 20
10.2266038818
 10
4.50376651
 20
10.2396247559
 10
4.5193913574
 20
10.2526456299
 10
4.5350165405
 20
10.2396247559
 10
4.5428287964
 20
10.2266038818
  0
LWPOLYLINE
  5
559
100
AcDbEntity
  8
0
100
AcDbPolyline
 62
2
  6
CONTINUOUS
 90
3
 70
0
 10
4.4926141052
 20
9.4924505615
 10
4.5082389526
 20
9.5445340576
 10
4.4457392273
 20
9.5445340576
  0
LWPOLYLINE
  5
55A
100
AcDbEntity
  8
0
100
AcDbPolyline
 62
2
  6
CONTINUOUS
 90
17
 70
0
 10
4.6332390747
 20
9.2580755005
 10
4.6254264832
 20
9.2320337524
 10
4.6019890442
 20
9.2190128784
 10
4.5785516052
 20
9.2320337524
 10
4.5707390137
 20
9.2580755005
 10
4.5785516052
 20
9.2841172485
 10
4.5863641968
 20
9.2971381226
 10
4.6019890442
 20
9.3101589966
 10
4.6176142273
 20
9.2971381226
 10
4.6254264832
 20
9.2841172485
 10
4.6332390747
 20
9.2580755005
 10
4.6332390747
 20
9.2059920044
 10
4.6254264832
 20
9.1799502563
 10
4.6176142273
 20
9.1669293823
 10
4.6019890442
 20
9.1539085083
 10
4.5863641968
 20
9.1669293823
 10
4.5785516052
 20
9.1799502563
  0
LWPOLYLINE
  5
55B
100
AcDbEntity
  8
0
100
AcDbPolyline
 62
2
  6
CONTINUOUS
 90
4
 70
0
 10
8.4784963989
 20
5.3405145264
 10
8.5097467651
 20
5.3405145264
 10
8.5097467651
 20
5.4967650146
 10
8.4784963989
 20
5.4967650146
  0
LWPOLYLINE
  5
55C
100
AcDbEntity
  8
0
100
AcDbPolyline
 62
2
  6
CONTINUOUS
 90
4
 70
0
 10
1.0541301041
 20
5.406312439
 10
1.0853801346
 20
5.406312439
 10
1.0853801346
 20
5.5625622559
 10
1.0541301041
 20
5.5625622559
  0
LWPOLYLINE
  5
55D
100
AcDbEntity
  8
0
100
AcDbPolyline
 62
2
  6
CONTINUOUS
 90
4
 70
0
 10
7.7597467041
 20
5.4967650146
 10
7.7284963379
 20
5.4967650146
 10
7.7284963379
 20
5.3405145264
 10
7.7597467041
 20
5.3405145264
  0
LWPOLYLINE
  5
55E
100
AcDbEntity
  8
0
100
AcDbPolyline
 62
2
  6
CONTINUOUS
 90
14
 70
0
 10
0.6010050812
 20
5.5625622559
 10
0.5541301193
 20
5.5625622559
 10
0.5463176117
 20
5.4974578857
 10
0.561942585
 20
5.5104787598
 10
0.5775676003
 20
5.5104787598
 10
0.5931926155
 20
5.4974578857
 10
0.6010050812
 20
5.4844370117
 10
0.6088175888
 20
5.4583952637
 10
0.6010050812
 20
5.432354187
 10
0.5931926155
 20
5.419333313
 10
0.5775676003
 20
5.406312439
 10
0.561942585
 20
5.406312439
 10
0.5463176117
 20
5.419333313
 10
0.5385051041
 20
5.432354187
  0
LWPOLYLINE
  5
55F
100
AcDbEntity
  8
0
100
AcDbPolyline
 62
2
  6
CONTINUOUS
 90
4
 70
0
 10
0.3353800945
 20
5.5625622559
 10
0.304130106
 20
5.5625622559
 10
0.304130106
 20
5.406312439
 10
0.3353800945
 20
5.406312439
  0
LWPOLYLINE
  5
560
100
AcDbEntity
  8
0
100
AcDbPolyline
 62
2
  6
CONTINUOUS
 90
4
 70
0
 10
7.8691216431
 20
5.5748895874
 10
7.8613087158
 20
5.5748895874
 10
7.8613087158
 20
5.5879104614
 10
7.8691216431
 20
5.5748895874
  0
LINE
  5
561
100
AcDbEntity
  8
02___PRT_ALL_AXES
100
AcDbLine
 62
7
  6
CENTER
 10
4.2023689516
 20
5.6530147353
 11
4.2023689516
 21
2.5955593121
  0
LINE
  5
562
100
AcDbEntity
  8
02___PRT_ALL_AXES
100
AcDbLine
 62
7
  6
CENTER
 10
4.2023689516
 20
5.6530147353
 11
4.2023689516
 21
5.7531147353
  0
LINE
  5
563
100
AcDbEntity
  8
02___PRT_ALL_AXES
100
AcDbLine
 62
7
  6
CENTER
 10
4.2023689516
 20
5.7531147353
 11
4.2023689516
 21
8.5414262027
  0
LWPOLYLINE
  5
564
100
AcDbEntity
  8
0
100
AcDbPolyline
 62
2
  6
CONTINUOUS
 90
3
 70
0
 10
4.4769889221
 20
9.3882835693
 10
4.4848015137
 20
9.4533879395
 10
4.4926141052
 20
9.4924505615
  0
LWPOLYLINE
  5
565
100
AcDbEntity
  8
0
100
AcDbPolyline
 62
2
  6
CONTINUOUS
 90
5
 70
0
 10
8.1605692749
 20
9.4190794067
 10
8.1293195801
 20
9.3930376587
 10
8.113694397
 20
9.3669959106
 10
8.1058821411
 20
9.3279332886
 10
8.1683822021
 20
9.3279332886
  0
LWPOLYLINE
  5
566
100
AcDbEntity
  8
0
100
AcDbPolyline
 62
2
  6
CONTINUOUS
 90
4
 70
0
 10
0.4447550964
 20
5.6406875
 10
0.4369425888
 20
5.6406875
 10
0.4369425888
 20
5.6537077026
 10
0.4447550964
 20
5.6406875
  0
LINE
  5
567
100
AcDbEntity
  8
02___PRT_ALL_AXES
100
AcDbLine
 62
7
  6
CENTER
 10
4.2023689516
 20
5.6530147353
 11
4.1022689516
 21
5.6530147353
  0
LINE
  5
568
100
AcDbEntity
  8
02___PRT_ALL_AXES
100
AcDbLine
 62
7
  6
CENTER
 10
4.1022689516
 20
5.6530147353
 11
1.3139574842
 21
5.6530147353
  0
LINE
  5
569
100
AcDbEntity
  8
02___PRT_ALL_AXES
100
AcDbLine
 62
7
  6
CENTER
 10
4.2023689516
 20
5.6530147353
 11
7.0907804191
 21
5.6530147353
  0
LWPOLYLINE
  5
56A
100
AcDbEntity
  8
0
100
AcDbPolyline
 62
2
  6
CONTINUOUS
 90
4
 70
0
 10
4.2504264526
 20
9.3882835693
 10
4.2504264526
 20
9.5445340576
 10
4.1957389832
 20
9.4273461914
 10
4.2660516357
 20
9.4273461914
  0
LINE
  5
56B
100
AcDbEntity
  8
0
100
AcDbLine
 62
2
  6
CONTINUOUS
 10
4.3519891357
 20
9.3101589966
 11
4.3519891357
 21
9.1539085083
  0
LINE
  5
56C
100
AcDbEntity
  8
0
100
AcDbLine
 62
2
  6
CONTINUOUS
 10
4.3943912354
 20
10.0182705688
 11
4.3943912354
 21
9.862020752
  0
LINE
  5
56D
100
AcDbEntity
  8
0
100
AcDbLine
 62
2
  6
CONTINUOUS
 10
4.4769889221
 20
9.3101589966
 11
4.4769889221
 21
9.1539085083
  0
LWPOLYLINE
  5
56E
100
AcDbEntity
  8
0
100
AcDbPolyline
 62
2
  6
CONTINUOUS
 90
4
 70
0
 10
4.5428287964
 20
9.862020752
 10
4.5428287964
 20
10.0182705688
 10
4.4881413269
 20
9.901083374
 10
4.5584539795
 20
9.901083374
  0
LWPOLYLINE
  5
56F
100
AcDbEntity
  8
0
100
AcDbPolyline
 62
2
  6
CONTINUOUS
 90
4
 70
0
 10
4.8754267273
 20
9.1539085083
 10
4.8754267273
 20
9.3101589966
 10
4.8207389221
 20
9.1929711304
 10
4.8910515747
 20
9.1929711304
  0
LINE
  5
570
100
AcDbEntity
  8
0
100
AcDbLine
 62
7
  6
CONTINUOUS
 10
2.401189303
 20
8.9187642208
 11
2.420874827
 21
8.8990796661
  0
LINE
  5
571
100
AcDbEntity
  8
0
100
AcDbLine
 62
7
  6
CONTINUOUS
 10
3.0311105629
 20
8.9187642208
 11
3.0507960868
 21
8.8990796661
  0
LWPOLYLINE
  5
572
100
AcDbEntity
  8
0
100
AcDbPolyline
 62
2
  6
CONTINUOUS
 90
8
 70
0
 10
8.1058821411
 20
9.4581413574
 10
8.113694397
 20
9.4711622314
 10
8.1293195801
 20
9.4841831055
 10
8.1449440918
 20
9.4841831055
 10
8.1605692749
 20
9.4711622314
 10
8.1683822021
 20
9.4581413574
 10
8.1683822021
 20
9.4321002808
 10
8.1605692749
 20
9.4190794067
  0
LINE
  5
573
100
AcDbEntity
  8
0
100
AcDbLine
 62
7
  6
CONTINUOUS
 10
1.4366209201
 20
7.9778178849
 11
1.377565802
 21
7.9778178849
  0
LINE
  5
574
100
AcDbEntity
  8
0
100
AcDbLine
 62
7
  6
CONTINUOUS
 10
6.9681169831
 20
7.9778178849
 11
7.0271721012
 21
7.9778178847
  0
LINE
  5
575
100
AcDbEntity
  8
02___PRT_ALL_AXES
100
AcDbLine
 62
7
  6
CENTER
 10
6.5527626524
 20
8.003408436
 11
6.4526626524
 21
8.003408436
  0
LINE
  5
576
100
AcDbEntity
  8
02___PRT_ALL_AXES
100
AcDbLine
 62
7
  6
CENTER
 10
1.8519752508
 20
8.003408436
 11
1.7518752508
 21
8.003408436
  0
LINE
  5
577
100
AcDbEntity
  8
02___PRT_ALL_AXES
100
AcDbLine
 62
7
  6
CENTER
 10
1.8519752508
 20
8.003408436
 11
1.9520752508
 21
8.003408436
  0
LINE
  5
578
100
AcDbEntity
  8
02___PRT_ALL_AXES
100
AcDbLine
 62
7
  6
CENTER
 10
6.5527626524
 20
8.003408436
 11
6.6528626524
 21
8.003408436
  0
LWPOLYLINE
  5
579
100
AcDbEntity
  8
0
100
AcDbPolyline
 62
2
  6
CONTINUOUS
 90
5
 70
0
 10
4.7269891663
 20
9.1539085083
 10
4.7191765747
 20
9.1669293823
 10
4.7269891663
 20
9.1669293823
 10
4.7269891663
 20
9.1539085083
 10
4.7113639832
 20
9.1278674316
  0
LINE
  5
57A
100
AcDbEntity
  8
0
100
AcDbLine
 62
7
  6
CONTINUOUS
 10
6.5271721012
 20
8.4187627667
 11
6.5271721012
 21
8.4778178849
  0
LINE
  5
57B
100
AcDbEntity
  8
0
100
AcDbLine
 62
7
  6
CONTINUOUS
 10
6.5271721012
 20
2.8872667038
 11
6.5271721011
 21
2.8282115856
  0
LINE
  5
57C
100
AcDbEntity
  8
02___PRT_ALL_AXES
100
AcDbLine
 62
7
  6
CENTER
 10
6.5527626524
 20
8.003408436
 11
6.5527626524
 21
7.903308436
  0
LINE
  5
57D
100
AcDbEntity
  8
02___PRT_ALL_AXES
100
AcDbLine
 62
7
  6
CENTER
 10
6.5527626524
 20
3.3026210345
 11
6.5527626524
 21
3.2025210345
  0
LINE
  5
57E
100
AcDbEntity
  8
02___PRT_ALL_AXES
100
AcDbLine
 62
7
  6
CENTER
 10
6.5527626524
 20
3.3026210345
 11
6.5527626524
 21
3.4027210345
  0
LINE
  5
57F
100
AcDbEntity
  8
02___PRT_ALL_AXES
100
AcDbLine
 62
7
  6
CENTER
 10
6.5527626524
 20
8.003408436
 11
6.5527626524
 21
8.103508436
  0
LWPOLYLINE
  5
580
100
AcDbEntity
  8
0
100
AcDbPolyline
 62
2
  6
CONTINUOUS
 90
15
 70
0
 10
8.1191212158
 20
5.5748895874
 10
8.1034967041
 20
5.5879104614
 10
8.0956837769
 20
5.6009313354
 10
8.087871521
 20
5.6269730835
 10
8.087871521
 20
5.6790565796
 10
8.0956837769
 20
5.7050983276
 10
8.1034967041
 20
5.7181192017
 10
8.1191212158
 20
5.7311394043
 10
8.1347463989
 20
5.7181192017
 10
8.1425586548
 20
5.7050983276
 10
8.150371582
 20
5.6790565796
 10
8.150371582
 20
5.6269730835
 10
8.1425586548
 20
5.6009313354
 10
8.1347463989
 20
5.5879104614
 10
8.1191212158
 20
5.5748895874
  0
LWPOLYLINE
  5
581
100
AcDbEntity
  8
0
100
AcDbPolyline
 62
2
  6
CONTINUOUS
 90
4
 70
0
 10
4.6678289185
 20
9.9401453247
 10
4.6834537659
 20
9.914104248
 10
4.6834537659
 20
9.901083374
 10
4.6678289185
 20
9.875041626
  0
LINE
  5
582
100
AcDbEntity
  8
0
100
AcDbLine
 62
7
  6
CONTINUOUS
 10
6.9681169831
 20
3.3282115856
 11
6.9681169831
 21
7.9778178849
  0
LINE
  5
583
100
AcDbEntity
  8
0
100
AcDbLine
 62
7
  6
CONTINUOUS
 10
6.5271721012
 20
8.4187627667
 11
1.877565802
 21
8.4187627667
  0
LINE
  5
584
100
AcDbEntity
  8
0
100
AcDbLine
 62
7
  6
CONTINUOUS
 10
6.5271721012
 20
8.4778178849
 11
1.877565802
 21
8.4778178849
  0
LINE
  5
585
100
AcDbEntity
  8
0
100
AcDbLine
 62
7
  6
CONTINUOUS
 10
2.1846524162
 20
8.5211249715
 11
2.4996130461
 21
8.5211249715
  0
LINE
  5
586
100
AcDbEntity
  8
0
100
AcDbLine
 62
7
  6
CONTINUOUS
 10
2.814573676
 20
8.5211249715
 11
3.1295343059
 21
8.5211249715
  0
LWPOLYLINE
  5
587
100
AcDbEntity
  8
0
100
AcDbPolyline
 62
2
  6
CONTINUOUS
 90
5
 70
0
 10
4.7693912659
 20
9.862020752
 10
4.76157901
 20
9.875041626
 10
4.7693912659
 20
9.875041626
 10
4.7693912659
 20
9.862020752
 10
4.7537664185
 20
9.8359790039
  0
LINE
  5
588
100
AcDbEntity
  8
0
100
AcDbLine
 62
7
  6
CONTINUOUS
 10
7.0271721012
 20
3.3282115856
 11
7.0271721012
 21
7.9778178849
  0
LWPOLYLINE
  5
589
100
AcDbEntity
  8
0
100
AcDbPolyline
 62
2
  6
CONTINUOUS
 90
3
 70
0
 10
8.4027565918
 20
9.1977252197
 10
8.4183817749
 20
9.2498080444
 10
8.3558817139
 20
9.2498080444
  0
LINE
  5
58A
100
AcDbEntity
  8
0
100
AcDbLine
 62
2
  6
CONTINUOUS
 10
8.7308820801
 20
9.3279332886
 11
8.7933821411
 21
9.4841831055
  0
LINE
  5
58B
100
AcDbEntity
  8
0
100
AcDbLine
 62
7
  6
CONTINUOUS
 10
2.2633925737
 20
8.8990777274
 11
2.4208728886
 21
8.8990777274
  0
LINE
  5
58C
100
AcDbEntity
  8
0
100
AcDbLine
 62
7
  6
CONTINUOUS
 10
2.8933138335
 20
8.8990777274
 11
3.0507941485
 21
8.8990777274
  0
LINE
  5
58D
100
AcDbEntity
  8
0
100
AcDbLine
 62
7
  6
CONTINUOUS
 10
2.283077613
 20
8.9187627667
 11
2.4011878493
 21
8.9187627667
  0
LINE
  5
58E
100
AcDbEntity
  8
0
100
AcDbLine
 62
7
  6
CONTINUOUS
 10
2.9129988729
 20
8.9187627667
 11
3.0311091091
 21
8.9187627667
  0
LINE
  5
58F
100
AcDbEntity
  8
0
100
AcDbLine
 62
2
  6
CONTINUOUS
 10
7.7965870361
 20
8.9373084106
 11
7.8590870972
 21
8.9373084106
  0
LWPOLYLINE
  5
590
100
AcDbEntity
  8
0
100
AcDbPolyline
 62
2
  6
CONTINUOUS
 90
15
 70
0
 10
4.6019890442
 20
9.3882835693
 10
4.5863641968
 20
9.4013044434
 10
4.5785516052
 20
9.4143253174
 10
4.5707390137
 20
9.4403670654
 10
4.5707390137
 20
9.4924505615
 10
4.5785516052
 20
9.5184923096
 10
4.5863641968
 20
9.5315131836
 10
4.6019890442
 20
9.5445340576
 10
4.6176142273
 20
9.5315131836
 10
4.6254264832
 20
9.5184923096
 10
4.6332390747
 20
9.4924505615
 10
4.6332390747
 20
9.4403670654
 10
4.6254264832
 20
9.4143253174
 10
4.6176142273
 20
9.4013044434
 10
4.6019890442
 20
9.3882835693
  0
LINE
  5
591
100
AcDbEntity
  8
0
100
AcDbLine
 62
2
  6
CONTINUOUS
 10
7.6637746582
 20
9.0154329834
 11
7.741899231
 21
9.0154329834
  0
LWPOLYLINE
  5
592
100
AcDbEntity
  8
0
100
AcDbPolyline
 62
2
  6
CONTINUOUS
 90
4
 70
0
 10
8.496507019
 20
9.0935582275
 10
8.5277567139
 20
9.0935582275
 10
8.5277567139
 20
9.2498080444
 10
8.496507019
 20
9.2498080444
  0
LWPOLYLINE
  5
593
100
AcDbEntity
  8
0
100
AcDbPolyline
 62
2
  6
CONTINUOUS
 90
4
 70
0
 10
4.9613642273
 20
9.1539085083
 10
4.9926139221
 20
9.1539085083
 10
4.9926139221
 20
9.3101589966
 10
4.9613642273
 20
9.3101589966
  0
LWPOLYLINE
  5
594
100
AcDbEntity
  8
0
100
AcDbPolyline
 62
2
  6
CONTINUOUS
 90
5
 70
0
 10
8.2441213379
 20
5.3405145264
 10
8.236309082
 20
5.3535354004
 10
8.2441213379
 20
5.3535354004
 10
8.2441213379
 20
5.3405145264
 10
8.2284961548
 20
5.3144727783
  0
LINE
  5
595
100
AcDbEntity
  8
0
100
AcDbLine
 62
2
  6
CONTINUOUS
 10
7.7028372803
 20
9.0154329834
 11
7.7028372803
 21
8.8591831665
  0
LWPOLYLINE
  5
596
100
AcDbEntity
  8
0
100
AcDbPolyline
 62
2
  6
CONTINUOUS
 90
4
 70
0
 10
7.76755896
 20
5.5748895874
 10
7.76755896
 20
5.7311394043
 10
7.7128711548
 20
5.6139522095
 10
7.7831841431
 20
5.6139522095
  0
LINE
  5
597
100
AcDbEntity
  8
0
100
AcDbLine
 62
2
  6
CONTINUOUS
 10
7.7965870361
 20
9.0154329834
 11
7.7965870361
 21
8.8591831665
  0
LWPOLYLINE
  5
598
100
AcDbEntity
  8
0
100
AcDbPolyline
 62
2
  6
CONTINUOUS
 90
4
 70
0
 10
7.9027567749
 20
9.2498080444
 10
7.8715070801
 20
9.2498080444
 10
7.8715070801
 20
9.0935582275
 10
7.9027567749
 20
9.0935582275
  0
LWPOLYLINE
  5
599
100
AcDbEntity
  8
0
100
AcDbPolyline
 62
2
  6
CONTINUOUS
 90
4
 70
0
 10
4.2426141968
 20
9.3101589966
 10
4.2113641663
 20
9.3101589966
 10
4.2113641663
 20
9.1539085083
 10
4.2426141968
 20
9.1539085083
  0
LWPOLYLINE
  5
59A
100
AcDbEntity
  8
0
100
AcDbPolyline
 62
2
  6
CONTINUOUS
 90
4
 70
0
 10
7.8871315918
 20
9.3279332886
 10
7.8793193359
 20
9.3279332886
 10
7.8793193359
 20
9.3409541626
 10
7.8871315918
 20
9.3279332886
  0
LWPOLYLINE
  5
59B
100
AcDbEntity
  8
0
100
AcDbPolyline
 62
2
  6
CONTINUOUS
 90
4
 70
0
 10
4.3519891357
 20
9.3882835693
 10
4.3441765442
 20
9.3882835693
 10
4.3441765442
 20
9.4013044434
 10
4.3519891357
 20
9.3882835693
  0
LINE
  5
59C
100
AcDbEntity
  8
0
100
AcDbLine
 62
2
  6
CONTINUOUS
 10
7.8590870972
 20
9.0154329834
 11
7.8590870972
 21
8.8591831665
  0
LINE
  5
59D
100
AcDbEntity
  8
0
100
AcDbLine
 62
2
  6
CONTINUOUS
 10
7.8691216431
 20
5.4967650146
 11
7.8691216431
 21
5.3405145264
  0
LWPOLYLINE
  5
59E
100
AcDbEntity
  8
0
100
AcDbPolyline
 62
2
  6
CONTINUOUS
 90
9
 70
0
 10
7.9215871582
 20
8.8591831665
 10
7.9215871582
 20
9.0154329834
 10
7.9606497803
 20
9.0154329834
 10
7.976274292
 20
9.0024127808
 10
7.9840872192
 20
8.9893919067
 10
7.9840872192
 20
8.9633501587
 10
7.976274292
 20
8.9503292847
 10
7.9606497803
 20
8.9373084106
 10
7.9215871582
 20
8.9373084106
  0
LINE
  5
59F
100
AcDbEntity
  8
0
100
AcDbLine
 62
2
  6
CONTINUOUS
 10
7.9941217651
 20
5.4967650146
 11
7.9941217651
 21
5.3405145264
  0
LINE
  5
5A0
100
AcDbEntity
  8
0
100
AcDbLine
 62
2
  6
CONTINUOUS
 10
8.0121317139
 20
9.2498080444
 11
8.0121317139
 21
9.0935582275
  0
LWPOLYLINE
  5
5A1
100
AcDbEntity
  8
0
100
AcDbPolyline
 62
2
  6
CONTINUOUS
 90
4
 70
0
 10
8.0355691528
 20
9.3279332886
 10
8.0355691528
 20
9.4841831055
 10
7.980882019
 20
9.3669959106
 10
8.0511943359
 20
9.3669959106
  0
LWPOLYLINE
  5
5A2
100
AcDbEntity
  8
0
100
AcDbPolyline
 62
2
  6
CONTINUOUS
 90
8
 70
0
 10
8.1090873413
 20
9.0154329834
 10
8.1090873413
 20
8.8852249146
 10
8.1012744141
 20
8.8722040405
 10
8.085649231
 20
8.8591831665
 10
8.0700247192
 20
8.8591831665
 10
8.0543995361
 20
8.8722040405
 10
8.0465872803
 20
8.8852249146
 10
8.0465872803
 20
9.0154329834
  0
LWPOLYLINE
  5
5A3
100
AcDbEntity
  8
0
100
AcDbPolyline
 62
2
  6
CONTINUOUS
 90
4
 70
0
 10
8.3925588989
 20
5.3405145264
 10
8.3925588989
 20
5.4967650146
 10
8.3378717651
 20
5.3795771484
 10
8.408184082
 20
5.3795771484
  0
LWPOLYLINE
  5
5A4
100
AcDbEntity
  8
0
100
AcDbPolyline
 62
2
  6
CONTINUOUS
 90
4
 70
0
 10
8.9105693359
 20
9.3279332886
 10
8.9105693359
 20
9.4841831055
 10
8.8558822021
 20
9.3669959106
 10
8.926194519
 20
9.3669959106
  0
LWPOLYLINE
  5
5A5
100
AcDbEntity
  8
0
100
AcDbPolyline
 62
2
  6
CONTINUOUS
 90
3
 70
0
 10
8.3871320801
 20
9.0935582275
 10
8.3949443359
 20
9.1586625977
 10
8.4027565918
 20
9.1977252197
  0
LWPOLYLINE
  5
5A6
100
AcDbEntity
  8
0
100
AcDbPolyline
 62
2
  6
CONTINUOUS
 90
3
 70
0
 10
7.9941217651
 20
5.5748895874
 10
8.001934021
 20
5.6399939575
 10
8.0097462769
 20
5.6790565796
  0
LWPOLYLINE
  5
5A7
100
AcDbEntity
  8
0
100
AcDbPolyline
 62
2
  6
CONTINUOUS
 90
3
 70
0
 10
8.0097462769
 20
5.6790565796
 10
8.02537146
 20
5.7311394043
 10
7.9628713989
 20
5.7311394043
  0
LWPOLYLINE
  5
5A8
100
AcDbEntity
  8
0
100
AcDbPolyline
 62
2
  6
CONTINUOUS
 90
17
 70
0
 10
8.150371582
 20
5.4446815186
 10
8.1425586548
 20
5.4186397705
 10
8.1191212158
 20
5.4056188965
 10
8.0956837769
 20
5.4186397705
 10
8.087871521
 20
5.4446815186
 10
8.0956837769
 20
5.4707232666
 10
8.1034967041
 20
5.4837441406
 10
8.1191212158
 20
5.4967650146
 10
8.1347463989
 20
5.4837441406
 10
8.1425586548
 20
5.4707232666
 10
8.150371582
 20
5.4446815186
 10
8.150371582
 20
5.3925980225
 10
8.1425586548
 20
5.3665562744
 10
8.1347463989
 20
5.3535354004
 10
8.1191212158
 20
5.3405145264
 10
8.1034967041
 20
5.3535354004
 10
8.0956837769
 20
5.3665562744
  0
LWPOLYLINE
  5
5A9
100
AcDbEntity
  8
0
100
AcDbPolyline
 62
2
  6
CONTINUOUS
 90
4
 70
0
 10
5.0037663269
 20
9.862020752
 10
5.0350163574
 20
9.862020752
 10
5.0350163574
 20
10.0182705688
 10
5.0037663269
 20
10.0182705688
  0
LINE
  5
5AA
100
AcDbEntity
  8
0
100
AcDbLine
 62
2
  6
CONTINUOUS
 10
4.6365788879
 20
9.9531661987
 11
4.6522037354
 21
9.9531661987
  0
LWPOLYLINE
  5
5AB
100
AcDbEntity
  8
0
100
AcDbPolyline
 62
2
  6
CONTINUOUS
 90
14
 70
0
 10
4.9256414185
 20
10.0182705688
 10
4.8787665405
 20
10.0182705688
 10
4.870953949
 20
9.9531661987
 10
4.8865787964
 20
9.9661870728
 10
4.9022039795
 20
9.9661870728
 10
4.9178288269
 20
9.9531661987
 10
4.9256414185
 20
9.9401453247
 10
4.93345401
 20
9.914104248
 10
4.9256414185
 20
9.8880625
 10
4.9178288269
 20
9.875041626
 10
4.9022039795
 20
9.862020752
 10
4.8865787964
 20
9.862020752
 10
4.870953949
 20
9.875041626
 10
4.8631413574
 20
9.8880625
  0
LWPOLYLINE
  5
5AC
100
AcDbEntity
  8
0
100
AcDbPolyline
 62
2
  6
CONTINUOUS
 90
4
 70
0
 10
4.2850162964
 20
10.0182705688
 10
4.2537662659
 20
10.0182705688
 10
4.2537662659
 20
9.862020752
 10
4.2850162964
 20
9.862020752
  0
LWPOLYLINE
  5
5AD
100
AcDbEntity
  8
0
100
AcDbPolyline
 62
2
  6
CONTINUOUS
 90
4
 70
0
 10
4.3943912354
 20
10.096395813
 10
4.3865789795
 20
10.096395813
 10
4.3865789795
 20
10.109416687
 10
4.3943912354
 20
10.096395813
  0
LWPOLYLINE
  5
5AE
100
AcDbEntity
  8
0
100
AcDbPolyline
 62
2
  6
CONTINUOUS
 90
14
 70
0
 10
4.67564151
 20
10.2526456299
 10
4.6287662964
 20
10.2526456299
 10
4.6209540405
 20
10.1875412598
 10
4.6365788879
 20
10.2005621338
 10
4.6522037354
 20
10.2005621338
 10
4.6678289185
 20
10.1875412598
 10
4.67564151
 20
10.1745203857
 10
4.6834537659
 20
10.1484786377
 10
4.67564151
 20
10.122437561
 10
4.6678289185
 20
10.109416687
 10
4.6522037354
 20
10.096395813
 10
4.6365788879
 20
10.096395813
 10
4.6209540405
 20
10.109416687
 10
4.613141449
 20
10.122437561
  0
LWPOLYLINE
  5
5AF
100
AcDbEntity
  8
0
100
AcDbPolyline
 62
2
  6
CONTINUOUS
 90
14
 70
0
 10
4.3006414795
 20
10.2526456299
 10
4.2537662659
 20
10.2526456299
 10
4.24595401
 20
10.1875412598
 10
4.2615788574
 20
10.2005621338
 10
4.2772040405
 20
10.2005621338
 10
4.2928288879
 20
10.1875412598
 10
4.3006414795
 20
10.1745203857
 10
4.3084537354
 20
10.1484786377
 10
4.3006414795
 20
10.122437561
 10
4.2928288879
 20
10.109416687
 10
4.2772040405
 20
10.096395813
 10
4.2615788574
 20
10.096395813
 10
4.24595401
 20
10.109416687
 10
4.2381414185
 20
10.122437561
  0
LWPOLYLINE
  5
5B0
100
AcDbEntity
  8
0
100
AcDbPolyline
 62
2
  6
CONTINUOUS
 90
15
 70
0
 10
8.1371318359
 20
9.0935582275
 10
8.1215066528
 20
9.1065791016
 10
8.113694397
 20
9.1195999756
 10
8.1058821411
 20
9.1456417236
 10
8.1058821411
 20
9.1977252197
 10
8.113694397
 20
9.2237669678
 10
8.1215066528
 20
9.2367871704
 10
8.1371318359
 20
9.2498080444
 10
8.152757019
 20
9.2367871704
 10
8.1605692749
 20
9.2237669678
 10
8.1683822021
 20
9.1977252197
 10
8.1683822021
 20
9.1456417236
 10
8.1605692749
 20
9.1195999756
 10
8.152757019
 20
9.1065791016
 10
8.1371318359
 20
9.0935582275
  0
LWPOLYLINE
  5
5B1
100
AcDbEntity
  8
0
100
AcDbPolyline
 62
2
  6
CONTINUOUS
 90
5
 70
0
 10
8.262131958
 20
9.0935582275
 10
8.2543197021
 20
9.1065791016
 10
8.262131958
 20
9.1065791016
 10
8.262131958
 20
9.0935582275
 10
8.2465067749
 20
9.0675164795
  0
LINE
  5
5B2
100
AcDbEntity
  8
0
100
AcDbLine
 62
2
  6
CONTINUOUS
 10
8.7308820801
 20
9.4841831055
 11
8.7933821411
 21
9.3279332886
  0
LINE
  5
5B3
100
AcDbEntity
  8
0
100
AcDbLine
 62
2
  6
CONTINUOUS
 10
7.9606497803
 20
8.9373084106
 11
7.9840872192
 21
8.8591831665
  0
LINE
  5
5B4
100
AcDbEntity
  8
0
100
AcDbLine
 62
7
  6
CONTINUOUS
 10
10.8478429621
 20
2.8282115856
 11
10.1746146156
 21
2.8282115856
  0
LINE
  5
5B5
100
AcDbEntity
  8
0
100
AcDbLine
 62
7
  6
CONTINUOUS
 10
11.1116224896
 20
2.9975029242
 11
10.8478429621
 21
2.9975029242
  0
LINE
  5
5B6
100
AcDbEntity
  8
0
100
AcDbLine
 62
7
  6
CONTINUOUS
 10
10.1155594975
 20
3.3282115856
 11
10.8478429621
 21
3.3282115856
  0
LINE
  5
5B7
100
AcDbEntity
  8
0
100
AcDbLine
 62
7
  6
CONTINUOUS
 10
10.6313046211
 20
8.9187627667
 11
10.6116224896
 21
8.8990816044
  0
LWPOLYLINE
  5
5B8
100
AcDbEntity
  8
0
100
AcDbPolyline
 62
2
  6
CONTINUOUS
 90
5
 70
0
 10
12.4304243164
 20
9.1473604736
 10
12.399175293
 20
9.1213187256
 10
12.3835494385
 20
9.0952769775
 10
12.3757371826
 20
9.0562150269
 10
12.438237915
 20
9.0562150269
  0
LWPOLYLINE
  5
5B9
100
AcDbEntity
  8
0
100
AcDbPolyline
 62
2
  6
CONTINUOUS
 90
9
 70
0
 10
12.7585498047
 20
9.1994439697
 10
12.7741743164
 20
9.2124648438
 10
12.7898001709
 20
9.2124648438
 10
12.8054246826
 20
9.1994439697
 10
12.8132369385
 20
9.1864230957
 10
12.8132369385
 20
9.1734022217
 10
12.8054246826
 20
9.1603813477
 10
12.7898001709
 20
9.1473604736
 10
12.8054246826
 20
9.1343395996
  0
LINE
  5
5BA
100
AcDbEntity
  8
0
100
AcDbLine
 62
7
  6
CONTINUOUS
 10
10.1155594975
 20
2.8872667038
 11
10.1155594975
 21
8.4187627667
  0
LINE
  5
5BB
100
AcDbEntity
  8
0
100
AcDbLine
 62
7
  6
CONTINUOUS
 10
10.1746146156
 20
2.8282115856
 11
10.1746146156
 21
8.4778178849
  0
LWPOLYLINE
  5
5BC
100
AcDbEntity
  8
0
100
AcDbPolyline
 62
2
  6
CONTINUOUS
 90
8
 70
0
 10
12.3757371826
 20
9.1864230957
 10
12.3835494385
 20
9.1994439697
 10
12.399175293
 20
9.2124648438
 10
12.4147998047
 20
9.2124648438
 10
12.4304243164
 20
9.1994439697
 10
12.438237915
 20
9.1864230957
 10
12.438237915
 20
9.1603813477
 10
12.4304243164
 20
9.1473604736
  0
LINE
  5
5BD
100
AcDbEntity
  8
02___PRT_ALL_AXES
100
AcDbLine
 62
7
  6
CENTER
 10
11.2116224896
 20
5.6530147353
 11
9.7660933549
 21
5.6530147353
  0
LINE
  5
5BE
100
AcDbEntity
  8
0
100
AcDbLine
 62
7
  6
CONTINUOUS
 10
10.5328823322
 20
8.4778178849
 11
10.5328823322
 21
8.5211249715
  0
LINE
  5
5BF
100
AcDbEntity
  8
0
100
AcDbLine
 62
7
  6
CONTINUOUS
 10
10.6116224896
 20
8.5211249715
 11
10.6116224896
 21
8.8990816044
  0
LINE
  5
5C0
100
AcDbEntity
  8
0
100
AcDbLine
 62
7
  6
CONTINUOUS
 10
10.7691028046
 20
8.5211249715
 11
10.7691028046
 21
8.8990816044
  0
LINE
  5
5C1
100
AcDbEntity
  8
0
100
AcDbLine
 62
7
  6
CONTINUOUS
 10
10.8478429621
 20
2.8282115856
 11
10.8478429621
 21
8.5211249715
  0
LWPOLYLINE
  5
5C2
100
AcDbEntity
  8
0
100
AcDbPolyline
 62
2
  6
CONTINUOUS
 90
6
 70
0
 10
12.8210491943
 20
9.0952769775
 10
12.8054246826
 20
9.0692352295
 10
12.7898001709
 20
9.0562150269
 10
12.7741743164
 20
9.0562150269
 10
12.7585498047
 20
9.0692352295
 10
12.7507375488
 20
9.0822561035
  0
LINE
  5
5C3
100
AcDbEntity
  8
0
100
AcDbLine
 62
7
  6
CONTINUOUS
 10
11.1116224896
 20
2.9975029242
 11
11.1116224896
 21
8.3085265463
  0
LINE
  5
5C4
100
AcDbEntity
  8
0
100
AcDbLine
 62
2
  6
CONTINUOUS
 10
12.2819874268
 20
9.4468399048
 11
12.2819874268
 21
9.2905894165
  0
LINE
  5
5C5
100
AcDbEntity
  8
0
100
AcDbLine
 62
7
  6
CONTINUOUS
 10
10.1155594975
 20
7.9778178849
 11
10.8478429621
 21
7.9778178849
  0
LINE
  5
5C6
100
AcDbEntity
  8
0
100
AcDbLine
 62
7
  6
CONTINUOUS
 10
10.7494206731
 20
8.9187627667
 11
10.7691028046
 21
8.8990816044
  0
LINE
  5
5C7
100
AcDbEntity
  8
0
100
AcDbLine
 62
7
  6
CONTINUOUS
 10
11.1116224896
 20
8.3085265463
 11
10.8478429621
 21
8.3085265463
  0
LINE
  5
5C8
100
AcDbEntity
  8
0
100
AcDbLine
 62
7
  6
CONTINUOUS
 10
10.8478429621
 20
8.4778178849
 11
10.1746146156
 21
8.4778178849
  0
LINE
  5
5C9
100
AcDbEntity
  8
0
100
AcDbLine
 62
7
  6
CONTINUOUS
 10
10.5328823322
 20
8.5211249715
 11
10.8478429621
 21
8.5211249715
  0
LINE
  5
5CA
100
AcDbEntity
  8
0
100
AcDbLine
 62
7
  6
CONTINUOUS
 10
10.6313137218
 20
8.9187627667
 11
10.7494115724
 21
8.9187627667
  0
LWPOLYLINE
  5
5CB
100
AcDbEntity
  8
0
100
AcDbPolyline
 62
2
  6
CONTINUOUS
 90
4
 70
0
 10
12.8913621826
 20
9.0562150269
 10
12.9226125488
 20
9.0562150269
 10
12.9226125488
 20
9.2124648438
 10
12.8913621826
 20
9.2124648438
  0
LINE
  5
5CC
100
AcDbEntity
  8
0
100
AcDbLine
 62
2
  6
CONTINUOUS
 10
12.7741743164
 20
9.1473604736
 11
12.7898001709
 21
9.1473604736
  0
LWPOLYLINE
  5
5CD
100
AcDbEntity
  8
0
100
AcDbPolyline
 62
2
  6
CONTINUOUS
 90
14
 70
0
 10
12.5632366943
 20
9.2124648438
 10
12.5163618164
 20
9.2124648438
 10
12.5085495605
 20
9.1473604736
 10
12.524175415
 20
9.1603813477
 10
12.5397999268
 20
9.1603813477
 10
12.5554244385
 20
9.1473604736
 10
12.5632366943
 20
9.1343395996
 10
12.571050293
 20
9.1082978516
 10
12.5632366943
 20
9.0822561035
 10
12.5554244385
 20
9.0692352295
 10
12.5397999268
 20
9.0562150269
 10
12.524175415
 20
9.0562150269
 10
12.5085495605
 20
9.0692352295
 10
12.5007373047
 20
9.0822561035
  0
LWPOLYLINE
  5
5CE
100
AcDbEntity
  8
0
100
AcDbPolyline
 62
2
  6
CONTINUOUS
 90
4
 70
0
 10
12.2976119385
 20
9.2124648438
 10
12.266362915
 20
9.2124648438
 10
12.266362915
 20
9.0562150269
 10
12.2976119385
 20
9.0562150269
  0
LWPOLYLINE
  5
5CF
100
AcDbEntity
  8
0
100
AcDbPolyline
 62
2
  6
CONTINUOUS
 90
4
 70
0
 10
12.4069875488
 20
9.2905894165
 10
12.399175293
 20
9.2905894165
 10
12.399175293
 20
9.3036102905
 10
12.4069875488
 20
9.2905894165
  0
LINE
  5
5D0
100
AcDbEntity
  8
0
100
AcDbLine
 62
7
  6
CONTINUOUS
 10
10.6116224896
 20
8.8990816044
 11
10.7691028046
 21
8.8990816044
  0
LWPOLYLINE
  5
5D1
100
AcDbEntity
  8
0
100
AcDbPolyline
 62
2
  6
CONTINUOUS
 90
15
 70
0
 10
12.5319876709
 20
9.2905894165
 10
12.5163618164
 20
9.3036102905
 10
12.5085495605
 20
9.3166311646
 10
12.5007373047
 20
9.3426729126
 10
12.5007373047
 20
9.3947564087
 10
12.5085495605
 20
9.4207981567
 10
12.5163618164
 20
9.4338190308
 10
12.5319876709
 20
9.4468399048
 10
12.5476121826
 20
9.4338190308
 10
12.5554244385
 20
9.4207981567
 10
12.5632366943
 20
9.3947564087
 10
12.5632366943
 20
9.3426729126
 10
12.5554244385
 20
9.3166311646
 10
12.5476121826
 20
9.3036102905
 10
12.5319876709
 20
9.2905894165
  0
LWPOLYLINE
  5
5D2
100
AcDbEntity
  8
0
100
AcDbPolyline
 62
2
  6
CONTINUOUS
 90
15
 70
0
 10
12.656987793
 20
9.2905894165
 10
12.6413619385
 20
9.3036102905
 10
12.6335496826
 20
9.3166311646
 10
12.6257374268
 20
9.3426729126
 10
12.6257374268
 20
9.3947564087
 10
12.6335496826
 20
9.4207981567
 10
12.6413619385
 20
9.4338190308
 10
12.656987793
 20
9.4468399048
 10
12.6726123047
 20
9.4338190308
 10
12.6804245605
 20
9.4207981567
 10
12.6882368164
 20
9.3947564087
 10
12.6882368164
 20
9.3426729126
 10
12.6804245605
 20
9.3166311646
 10
12.6726123047
 20
9.3036102905
 10
12.656987793
 20
9.2905894165
  0
LWPOLYLINE
  5
5D3
100
AcDbEntity
  8
0
100
AcDbPolyline
 62
2
  6
CONTINUOUS
 90
5
 70
0
 10
12.656987793
 20
9.0562150269
 10
12.6491741943
 20
9.0692352295
 10
12.656987793
 20
9.0692352295
 10
12.656987793
 20
9.0562150269
 10
12.6413619385
 20
9.0301732788
  0
LWPOLYLINE
  5
5D4
100
AcDbEntity
  8
0
100
AcDbPolyline
 62
2
  6
CONTINUOUS
 90
3
 70
0
 10
12.8054246826
 20
9.1343395996
 10
12.8210491943
 20
9.1082978516
 10
12.8210491943
 20
9.0952769775
  0
LWPOLYLINE
  5
5D5
100
AcDbEntity
  8
0
100
AcDbPolyline
 62
2
  6
CONTINUOUS
 90
3
 70
0
 10
12.2869073486
 20
2.0042653503
 10
12.2869073486
 20
1.8480153656
 10
12.3494067383
 20
1.8480153656
  0
LWPOLYLINE
  5
5D6
100
AcDbEntity
  8
0
100
AcDbPolyline
 62
2
  6
CONTINUOUS
 90
3
 70
0
 10
12.4119061279
 20
2.0042653503
 10
12.4119061279
 20
1.8480153656
 10
12.4744068604
 20
1.8480153656
  0
LWPOLYLINE
  5
5D7
100
AcDbEntity
  8
0
100
AcDbPolyline
 62
2
  6
CONTINUOUS
 90
9
 70
0
 10
12.7869064941
 20
1.8480153656
 10
12.7869064941
 20
2.0042653503
 10
12.8259691162
 20
2.0042653503
 10
12.8415936279
 20
1.9912444763
 10
12.8494072266
 20
1.9782236023
 10
12.8494072266
 20
1.9521820221
 10
12.8415936279
 20
1.9391611481
 10
12.8259691162
 20
1.926140274
 10
12.7869064941
 20
1.926140274
  0
LINE
  5
5D8
100
AcDbEntity
  8
0
100
AcDbLine
 62
2
  6
CONTINUOUS
 10
12.9431569824
 20
2.4730154724
 11
12.9431569824
 21
2.3167653198
  0
LWPOLYLINE
  5
5D9
100
AcDbEntity
  8
0
100
AcDbPolyline
 62
2
  6
CONTINUOUS
 90
8
 70
0
 10
13.0994061279
 20
2.0042653503
 10
13.0994061279
 20
1.8740569458
 10
13.0915938721
 20
1.8610360718
 10
13.0759693604
 20
1.8480153656
 10
13.0603448486
 20
1.8480153656
 10
13.0447189941
 20
1.8610360718
 10
13.0369067383
 20
1.8740569458
 10
13.0369067383
 20
2.0042653503
  0
LWPOLYLINE
  5
5DA
100
AcDbEntity
  8
0
100
AcDbPolyline
 62
2
  6
CONTINUOUS
 90
3
 70
0
 10
13.1072197266
 20
2.3688488159
 10
13.1072197266
 20
2.3558279419
 10
13.0915938721
 20
2.3297861938
  0
LWPOLYLINE
  5
5DB
100
AcDbEntity
  8
0
100
AcDbPolyline
 62
2
  6
CONTINUOUS
 90
5
 70
0
 10
12.9197188721
 20
1.8610360718
 10
12.9040943604
 20
1.8870778198
 10
12.8962821045
 20
1.926140274
 10
12.9040943604
 20
1.9652028961
 10
12.9197188721
 20
1.9912444763
  0
LWPOLYLINE
  5
5DC
100
AcDbEntity
  8
0
100
AcDbPolyline
 62
2
  6
CONTINUOUS
 90
4
 70
0
 10
12.96659375
 20
1.9912444763
 10
12.9822196045
 20
1.9652028961
 10
12.9900318604
 20
1.926140274
 10
12.9822196045
 20
1.8870778198
  0
LWPOLYLINE
  5
5DD
100
AcDbEntity
  8
0
100
AcDbPolyline
 62
2
  6
CONTINUOUS
 90
3
 70
0
 10
12.96659375
 20
2.1605151672
 10
12.9822196045
 20
2.1344737549
 10
12.9822196045
 20
2.1214528809
  0
LWPOLYLINE
  5
5DE
100
AcDbEntity
  8
0
100
AcDbPolyline
 62
2
  6
CONTINUOUS
 90
5
 70
0
 10
13.0681571045
 20
2.0823902588
 10
13.0603448486
 20
2.0954111328
 10
13.0681571045
 20
2.0954111328
 10
13.0681571045
 20
2.0823902588
 10
13.05253125
 20
2.0563485107
  0
LINE
  5
5DF
100
AcDbEntity
  8
0
100
AcDbLine
 62
2
  6
CONTINUOUS
 10
12.8259691162
 20
1.926140274
 11
12.8494072266
 21
1.8480153656
  0
LWPOLYLINE
  5
5E0
100
AcDbEntity
  8
0
100
AcDbPolyline
 62
2
  6
CONTINUOUS
 90
3
 70
0
 10
13.3494063721
 20
1.9652028961
 10
13.3572186279
 20
1.926140274
 10
13.3494063721
 20
1.8870778198
  0
LWPOLYLINE
  5
5E1
100
AcDbEntity
  8
0
100
AcDbPolyline
 62
2
  6
CONTINUOUS
 90
4
 70
0
 10
13.1619068604
 20
1.8480153656
 10
13.1619068604
 20
2.0042653503
 10
13.22440625
 20
1.8480153656
 10
13.22440625
 20
2.0042653503
  0
LWPOLYLINE
  5
5E2
100
AcDbEntity
  8
0
100
AcDbPolyline
 62
2
  6
CONTINUOUS
 90
3
 70
0
 10
12.1540936279
 20
1.8480153656
 10
12.19315625
 20
2.0042653503
 10
12.2322188721
 20
1.8480153656
  0
LINE
  5
5E3
100
AcDbEntity
  8
0
100
AcDbLine
 62
2
  6
CONTINUOUS
 10
12.1697194824
 20
1.9000986938
 11
12.2165943604
 21
1.9000986938
  0
LINE
  5
5E4
100
AcDbEntity
  8
0
100
AcDbLine
 62
2
  6
CONTINUOUS
 10
12.6697186279
 20
1.9000986938
 11
12.7165948486
 21
1.9000986938
  0
LWPOLYLINE
  5
5E5
100
AcDbEntity
  8
0
100
AcDbPolyline
 62
2
  6
CONTINUOUS
 90
4
 70
0
 10
13.2869069824
 20
2.0042653503
 10
13.3181573486
 20
2.0042653503
 10
13.3337818604
 20
1.9912444763
 10
13.3494063721
 20
1.9652028961
  0
LWPOLYLINE
  5
5E6
100
AcDbEntity
  8
0
100
AcDbPolyline
 62
2
  6
CONTINUOUS
 90
4
 70
0
 10
13.3025314941
 20
2.0823902588
 10
13.3337818604
 20
2.0823902588
 10
13.3337818604
 20
2.2386404114
 10
13.3025314941
 20
2.2386404114
  0
LINE
  5
5E7
100
AcDbEntity
  8
0
100
AcDbLine
 62
2
  6
CONTINUOUS
 10
12.9353447266
 20
2.1735360413
 11
12.9509692383
 21
2.1735360413
  0
LWPOLYLINE
  5
5E8
100
AcDbEntity
  8
0
100
AcDbPolyline
 62
2
  6
CONTINUOUS
 90
4
 70
0
 10
12.8337813721
 20
2.2386404114
 10
12.8025323486
 20
2.2386404114
 10
12.8025323486
 20
2.0823902588
 10
12.8337813721
 20
2.0823902588
  0
LWPOLYLINE
  5
5E9
100
AcDbEntity
  8
0
100
AcDbPolyline
 62
2
  6
CONTINUOUS
 90
3
 70
0
 10
12.6540941162
 20
1.8480153656
 10
12.6931567383
 20
2.0042653503
 10
12.7322193604
 20
1.8480153656
  0
LWPOLYLINE
  5
5EA
100
AcDbEntity
  8
0
100
AcDbPolyline
 62
2
  6
CONTINUOUS
 90
4
 70
0
 10
12.8181568604
 20
2.3167653198
 10
12.8103446045
 20
2.3167653198
 10
12.8103446045
 20
2.3297861938
 10
12.8181568604
 20
2.3167653198
  0
LINE
  5
5EB
100
AcDbEntity
  8
0
100
AcDbLine
 62
2
  6
CONTINUOUS
 10
13.0603448486
 20
2.4079111023
 11
13.0759693604
 21
2.4079111023
  0
LINE
  5
5EC
100
AcDbEntity
  8
0
100
AcDbLine
 62
7
  6
CONTINUOUS
 10
14.907053973
 20
2.8282115856
 11
19.5566602722
 21
2.8282115856
  0
LINE
  5
5ED
100
AcDbEntity
  8
0
100
AcDbLine
 62
7
  6
CONTINUOUS
 10
14.407053973
 20
7.9778178849
 11
14.407053973
 21
3.3282115856
  0
LINE
  5
5EE
100
AcDbEntity
  8
0
100
AcDbLine
 62
7
  6
CONTINUOUS
 10
14.907053973
 20
2.9541958376
 11
19.5566602722
 21
2.9541958376
  0
LINE
  5
5EF
100
AcDbEntity
  8
0
100
AcDbLine
 62
7
  6
CONTINUOUS
 10
14.533038225
 20
7.9778178849
 11
14.533038225
 21
3.3282115856
  0
LINE
  5
5F0
100
AcDbEntity
  8
02___PRT_ALL_AXES
100
AcDbLine
 62
7
  6
CENTER
 10
19.5822508234
 20
3.3026210345
 11
19.4821508234
 21
3.3026210345
  0
LINE
  5
5F1
100
AcDbEntity
  8
02___PRT_ALL_AXES
100
AcDbLine
 62
7
  6
CENTER
 10
14.8814634218
 20
3.3026210345
 11
14.7813634218
 21
3.3026210345
  0
LINE
  5
5F2
100
AcDbEntity
  8
02___PRT_ALL_AXES
100
AcDbLine
 62
7
  6
CENTER
 10
14.8814634218
 20
3.3026210345
 11
14.9815634218
 21
3.3026210345
  0
LINE
  5
5F3
100
AcDbEntity
  8
02___PRT_ALL_AXES
100
AcDbLine
 62
7
  6
CENTER
 10
19.5822508234
 20
3.3026210345
 11
19.6823508234
 21
3.3026210345
  0
LINE
  5
5F4
100
AcDbEntity
  8
02___PRT_ALL_AXES
100
AcDbLine
 62
7
  6
CENTER
 10
14.8814634218
 20
8.003408436
 11
14.8814634218
 21
7.903308436
  0
LINE
  5
5F5
100
AcDbEntity
  8
02___PRT_ALL_AXES
100
AcDbLine
 62
7
  6
CENTER
 10
14.8814634218
 20
3.3026210345
 11
14.8814634218
 21
3.2025210345
  0
LINE
  5
5F6
100
AcDbEntity
  8
02___PRT_ALL_AXES
100
AcDbLine
 62
7
  6
CENTER
 10
14.8814634218
 20
3.3026210345
 11
14.8814634218
 21
3.4027210345
  0
LINE
  5
5F7
100
AcDbEntity
  8
02___PRT_ALL_AXES
100
AcDbLine
 62
7
  6
CENTER
 10
14.8814634218
 20
8.003408436
 11
14.8814634218
 21
8.103508436
  0
LWPOLYLINE
  5
5F8
100
AcDbEntity
  8
0
100
AcDbPolyline
 62
2
  6
CONTINUOUS
 90
4
 70
0
 10
21.6861199951
 20
3.9146307983
 10
21.7173703613
 20
3.9146307983
 10
21.7173703613
 20
4.0708809509
 10
21.6861199951
 20
4.0708809509
  0
LWPOLYLINE
  5
5F9
100
AcDbEntity
  8
0
100
AcDbPolyline
 62
2
  6
CONTINUOUS
 90
6
 70
0
 10
12.9822196045
 20
2.1214528809
 10
12.96659375
 20
2.0954111328
 10
12.9509692383
 20
2.0823902588
 10
12.9353447266
 20
2.0823902588
 10
12.9197188721
 20
2.0954111328
 10
12.9119066162
 20
2.1084320068
  0
LWPOLYLINE
  5
5FA
100
AcDbEntity
  8
0
100
AcDbPolyline
 62
2
  6
CONTINUOUS
 90
4
 70
0
 10
21.092369751
 20
4.0708809509
 10
21.0611207275
 20
4.0708809509
 10
21.0611207275
 20
3.9146307983
 10
21.092369751
 20
3.9146307983
  0
LWPOLYLINE
  5
5FB
100
AcDbEntity
  8
0
100
AcDbPolyline
 62
2
  6
CONTINUOUS
 90
4
 70
0
 10
21.2017453613
 20
4.1490058594
 10
21.1939331055
 20
4.1490058594
 10
21.1939331055
 20
4.1620267334
 10
21.2017453613
 20
4.1490058594
  0
LINE
  5
5FC
100
AcDbEntity
  8
0
100
AcDbLine
 62
2
  6
CONTINUOUS
 10
21.0689329834
 20
4.2401516418
 11
21.0845574951
 21
4.2401516418
  0
LWPOLYLINE
  5
5FD
100
AcDbEntity
  8
0
100
AcDbPolyline
 62
2
  6
CONTINUOUS
 90
8
 70
0
 10
13.1619068604
 20
2.2125986633
 10
13.1697191162
 20
2.2256195374
 10
13.1853436279
 20
2.2386404114
 10
13.2009694824
 20
2.2386404114
 10
13.2165939941
 20
2.2256195374
 10
13.22440625
 20
2.2125986633
 10
13.22440625
 20
2.1865569153
 10
13.2165939941
 20
2.1735360413
  0
LWPOLYLINE
  5
5FE
100
AcDbEntity
  8
0
100
AcDbPolyline
 62
2
  6
CONTINUOUS
 90
5
 70
0
 10
12.9822196045
 20
1.8870778198
 10
12.96659375
 20
1.8610360718
 10
12.9509692383
 20
1.8480153656
 10
12.9353447266
 20
1.8480153656
 10
12.9197188721
 20
1.8610360718
  0
LWPOLYLINE
  5
5FF
100
AcDbEntity
  8
0
100
AcDbPolyline
 62
2
  6
CONTINUOUS
 90
14
 70
0
 10
21.4829946289
 20
4.3052556763
 10
21.436119751
 20
4.3052556763
 10
21.4283074951
 20
4.2401516418
 10
21.4439320068
 20
4.2531725159
 10
21.4595578613
 20
4.2531725159
 10
21.475182373
 20
4.2401516418
 10
21.4829946289
 20
4.2271307678
 10
21.4908082275
 20
4.2010890198
 10
21.4829946289
 20
4.1750476074
 10
21.475182373
 20
4.1620267334
 10
21.4595578613
 20
4.1490058594
 10
21.4439320068
 20
4.1490058594
 10
21.4283074951
 20
4.1620267334
 10
21.4204952393
 20
4.1750476074
  0
LWPOLYLINE
  5
600
100
AcDbEntity
  8
0
100
AcDbPolyline
 62
2
  6
CONTINUOUS
 90
5
 70
0
 10
13.3494063721
 20
1.8870778198
 10
13.3337818604
 20
1.8610360718
 10
13.3181573486
 20
1.8480153656
 10
13.2869069824
 20
1.8480153656
 10
13.2869069824
 20
2.0042653503
  0
LINE
  5
601
100
AcDbEntity
  8
0
100
AcDbLine
 62
7
  6
CONTINUOUS
 10
18.4031155114
 20
8.9187642208
 11
18.3834299874
 21
8.8990796661
  0
LWPOLYLINE
  5
602
100
AcDbEntity
  8
0
100
AcDbPolyline
 62
2
  6
CONTINUOUS
 90
4
 70
0
 10
21.6982009277
 20
4.657986145
 10
21.7294512939
 20
4.657986145
 10
21.7294512939
 20
4.8142359619
 10
21.6982009277
 20
4.8142359619
  0
LINE
  5
603
100
AcDbEntity
  8
0
100
AcDbLine
 62
2
  6
CONTINUOUS
 10
21.2060140381
 20
4.7491319275
 11
21.2216385498
 21
4.7491319275
  0
LINE
  5
604
100
AcDbEntity
  8
0
100
AcDbLine
 62
7
  6
CONTINUOUS
 10
19.0330367712
 20
8.9187642208
 11
19.0133512472
 21
8.8990796661
  0
LWPOLYLINE
  5
605
100
AcDbEntity
  8
0
100
AcDbPolyline
 62
2
  6
CONTINUOUS
 90
4
 70
0
 10
20.9794505615
 20
4.8142359619
 10
20.9482015381
 20
4.8142359619
 10
20.9482015381
 20
4.657986145
 10
20.9794505615
 20
4.657986145
  0
LWPOLYLINE
  5
606
100
AcDbEntity
  8
0
100
AcDbPolyline
 62
2
  6
CONTINUOUS
 90
4
 70
0
 10
21.0888261719
 20
4.8923612061
 10
21.081013916
 20
4.8923612061
 10
21.081013916
 20
4.9053820801
 10
21.0888261719
 20
4.8923612061
  0
LINE
  5
607
100
AcDbEntity
  8
0
100
AcDbLine
 62
2
  6
CONTINUOUS
 10
21.2060140381
 20
4.9835066528
 11
21.2216385498
 21
4.9835066528
  0
LWPOLYLINE
  5
608
100
AcDbEntity
  8
0
100
AcDbPolyline
 62
2
  6
CONTINUOUS
 90
14
 70
0
 10
20.995076416
 20
5.0486110229
 10
20.9482015381
 20
5.0486110229
 10
20.9403879395
 20
4.9835066528
 10
20.9560137939
 20
4.9965275269
 10
20.9716383057
 20
4.9965275269
 10
20.9872628174
 20
4.9835066528
 10
20.995076416
 20
4.9704857788
 10
21.0028886719
 20
4.9444447021
 10
20.995076416
 20
4.9184029541
 10
20.9872628174
 20
4.9053820801
 10
20.9716383057
 20
4.8923612061
 10
20.9560137939
 20
4.8923612061
 10
20.9403879395
 20
4.9053820801
 10
20.9325756836
 20
4.9184029541
  0
LINE
  5
609
100
AcDbEntity
  8
02___PRT_ALL_AXES
100
AcDbLine
 62
7
  6
CENTER
 10
17.2318571226
 20
5.6530147353
 11
17.2318571226
 21
2.6811276721
  0
LINE
  5
60A
100
AcDbEntity
  8
02___PRT_ALL_AXES
100
AcDbLine
 62
7
  6
CENTER
 10
17.2318571226
 20
5.6530147353
 11
17.2318571226
 21
5.7531147353
  0
LINE
  5
60B
100
AcDbEntity
  8
02___PRT_ALL_AXES
100
AcDbLine
 62
7
  6
CENTER
 10
17.2318571226
 20
5.7531147353
 11
17.2318571226
 21
8.6249017984
  0
LWPOLYLINE
  5
60C
100
AcDbEntity
  8
0
100
AcDbPolyline
 62
2
  6
CONTINUOUS
 90
10
 70
0
 10
13.0447189941
 20
2.4599945984
 10
13.0603448486
 20
2.4730154724
 10
13.0759693604
 20
2.4730154724
 10
13.0915938721
 20
2.4599945984
 10
13.0994061279
 20
2.4469737244
 10
13.0994061279
 20
2.4339528503
 10
13.0915938721
 20
2.4209319763
 10
13.0759693604
 20
2.4079111023
 10
13.0915938721
 20
2.3948902283
 10
13.1072197266
 20
2.3688488159
  0
LINE
  5
60D
100
AcDbEntity
  8
02___PRT_ALL_AXES
100
AcDbLine
 62
7
  6
CENTER
 10
17.2318571226
 20
5.6530147353
 11
17.1317571226
 21
5.6530147353
  0
LINE
  5
60E
100
AcDbEntity
  8
02___PRT_ALL_AXES
100
AcDbLine
 62
7
  6
CENTER
 10
17.1317571226
 20
5.6530147353
 11
14.2599700594
 21
5.6530147353
  0
LINE
  5
60F
100
AcDbEntity
  8
02___PRT_ALL_AXES
100
AcDbLine
 62
7
  6
CENTER
 10
17.2318571226
 20
5.6530147353
 11
20.2037441858
 21
5.6530147353
  0
LWPOLYLINE
  5
610
100
AcDbEntity
  8
0
100
AcDbPolyline
 62
2
  6
CONTINUOUS
 90
9
 70
0
 10
12.9197188721
 20
2.2256195374
 10
12.9353447266
 20
2.2386404114
 10
12.9509692383
 20
2.2386404114
 10
12.96659375
 20
2.2256195374
 10
12.9744073486
 20
2.2125986633
 10
12.9744073486
 20
2.1995777893
 10
12.96659375
 20
2.1865569153
 10
12.9509692383
 20
2.1735360413
 10
12.96659375
 20
2.1605151672
  0
LWPOLYLINE
  5
611
100
AcDbEntity
  8
0
100
AcDbPolyline
 62
2
  6
CONTINUOUS
 90
5
 70
0
 10
13.0915938721
 20
2.3297861938
 10
13.0759693604
 20
2.3167653198
 10
13.0603448486
 20
2.3167653198
 10
13.0447189941
 20
2.3297861938
 10
13.0369067383
 20
2.3428070679
  0
LWPOLYLINE
  5
612
100
AcDbEntity
  8
0
100
AcDbPolyline
 62
2
  6
CONTINUOUS
 90
4
 70
0
 10
12.9197188721
 20
1.9912444763
 10
12.9353447266
 20
2.0042653503
 10
12.9509692383
 20
2.0042653503
 10
12.96659375
 20
1.9912444763
  0
LWPOLYLINE
  5
613
100
AcDbEntity
  8
0
100
AcDbPolyline
 62
2
  6
CONTINUOUS
 90
5
 70
0
 10
13.2165939941
 20
2.1735360413
 10
13.1853436279
 20
2.1474946289
 10
13.1697191162
 20
2.1214528809
 10
13.1619068604
 20
2.0823902588
 10
13.22440625
 20
2.0823902588
  0
LINE
  5
614
100
AcDbEntity
  8
0
100
AcDbLine
 62
7
  6
CONTINUOUS
 10
18.3046917683
 20
8.4778178849
 11
18.3046917683
 21
8.5211249715
  0
LINE
  5
615
100
AcDbEntity
  8
0
100
AcDbLine
 62
2
  6
CONTINUOUS
 10
21.1939331055
 20
3.9146307983
 11
21.178307251
 21
3.9276516724
  0
LWPOLYLINE
  5
616
100
AcDbEntity
  8
0
100
AcDbPolyline
 62
2
  6
CONTINUOUS
 90
12
 70
0
 10
21.1939331055
 20
4.0057765808
 10
21.178307251
 20
4.0187974548
 10
21.1704949951
 20
4.0318183289
 10
21.1704949951
 20
4.0448392029
 10
21.178307251
 20
4.0578600769
 10
21.1939331055
 20
4.0708809509
 10
21.2095576172
 20
4.0708809509
 10
21.2251821289
 20
4.0578600769
 10
21.2329957275
 20
4.0448392029
 10
21.2329957275
 20
4.0318183289
 10
21.2251821289
 20
4.0187974548
 10
21.2095576172
 20
4.0057765808
  0
LINE
  5
617
100
AcDbEntity
  8
0
100
AcDbLine
 62
7
  6
CONTINUOUS
 10
18.3834319258
 20
8.5211249715
 11
18.3834319258
 21
8.8990777274
  0
LINE
  5
618
100
AcDbEntity
  8
0
100
AcDbLine
 62
7
  6
CONTINUOUS
 10
18.5409122407
 20
8.5211249715
 11
18.5409122407
 21
8.8990777274
  0
LINE
  5
619
100
AcDbEntity
  8
0
100
AcDbLine
 62
7
  6
CONTINUOUS
 10
18.6196523982
 20
8.4778178849
 11
18.6196523982
 21
8.5211249715
  0
LINE
  5
61A
100
AcDbEntity
  8
0
100
AcDbLine
 62
7
  6
CONTINUOUS
 10
18.9346130281
 20
8.4778178849
 11
18.9346130281
 21
8.5211249715
  0
LINE
  5
61B
100
AcDbEntity
  8
0
100
AcDbLine
 62
7
  6
CONTINUOUS
 10
19.0133531856
 20
8.5211249715
 11
19.0133531856
 21
8.8990777274
  0
LINE
  5
61C
100
AcDbEntity
  8
0
100
AcDbLine
 62
7
  6
CONTINUOUS
 10
19.1708335006
 20
8.5211249715
 11
19.1708335006
 21
8.8990777274
  0
LINE
  5
61D
100
AcDbEntity
  8
0
100
AcDbLine
 62
7
  6
CONTINUOUS
 10
19.249573658
 20
8.4778178849
 11
19.249573658
 21
8.5211249715
  0
LINE
  5
61E
100
AcDbEntity
  8
02___PRT_ALL_AXES
100
AcDbLine
 62
7
  6
CENTER
 10
19.5822508234
 20
8.003408436
 11
19.4821508234
 21
8.003408436
  0
LINE
  5
61F
100
AcDbEntity
  8
02___PRT_ALL_AXES
100
AcDbLine
 62
7
  6
CENTER
 10
14.8814634218
 20
8.003408436
 11
14.7813634218
 21
8.003408436
  0
LINE
  5
620
100
AcDbEntity
  8
02___PRT_ALL_AXES
100
AcDbLine
 62
7
  6
CENTER
 10
14.8814634218
 20
8.003408436
 11
14.9815634218
 21
8.003408436
  0
LINE
  5
621
100
AcDbEntity
  8
02___PRT_ALL_AXES
100
AcDbLine
 62
7
  6
CENTER
 10
19.5822508234
 20
8.003408436
 11
19.6823508234
 21
8.003408436
  0
LINE
  5
622
100
AcDbEntity
  8
02___PRT_ALL_AXES
100
AcDbLine
 62
7
  6
CENTER
 10
19.5822508234
 20
8.003408436
 11
19.5822508234
 21
7.903308436
  0
LINE
  5
623
100
AcDbEntity
  8
02___PRT_ALL_AXES
100
AcDbLine
 62
7
  6
CENTER
 10
19.5822508234
 20
3.3026210345
 11
19.5822508234
 21
3.2025210345
  0
LINE
  5
624
100
AcDbEntity
  8
02___PRT_ALL_AXES
100
AcDbLine
 62
7
  6
CENTER
 10
19.5822508234
 20
3.3026210345
 11
19.5822508234
 21
3.4027210345
  0
LINE
  5
625
100
AcDbEntity
  8
02___PRT_ALL_AXES
100
AcDbLine
 62
7
  6
CENTER
 10
19.5822508234
 20
8.003408436
 11
19.5822508234
 21
8.103508436
  0
LINE
  5
626
100
AcDbEntity
  8
0
100
AcDbLine
 62
7
  6
CONTINUOUS
 10
19.5566602722
 20
8.3518336329
 11
14.907053973
 21
8.3518336329
  0
LWPOLYLINE
  5
627
100
AcDbEntity
  8
0
100
AcDbPolyline
 62
2
  6
CONTINUOUS
 90
3
 70
0
 10
21.178307251
 20
3.9276516724
 10
21.1626827393
 20
3.9536934204
 10
21.1626827393
 20
3.9667142944
  0
LWPOLYLINE
  5
628
100
AcDbEntity
  8
0
100
AcDbPolyline
 62
2
  6
CONTINUOUS
 90
4
 70
0
 10
21.2251821289
 20
3.9927557068
 10
21.2408079834
 20
3.9667142944
 10
21.2408079834
 20
3.9536934204
 10
21.2251821289
 20
3.9276516724
  0
LWPOLYLINE
  5
629
100
AcDbEntity
  8
0
100
AcDbPolyline
 62
2
  6
CONTINUOUS
 90
4
 70
0
 10
21.1001820068
 20
4.2271307678
 10
21.1158078613
 20
4.2010890198
 10
21.1158078613
 20
4.1880684814
 10
21.1001820068
 20
4.1620267334
  0
LINE
  5
62A
100
AcDbEntity
  8
0
100
AcDbLine
 62
7
  6
CONTINUOUS
 10
19.9306760202
 20
3.3282115856
 11
19.9306760202
 21
7.9778178849
  0
LINE
  5
62B
100
AcDbEntity
  8
0
100
AcDbLine
 62
7
  6
CONTINUOUS
 10
19.5566602722
 20
8.4778178849
 11
19.249573658
 21
8.4778178849
  0
LINE
  5
62C
100
AcDbEntity
  8
0
100
AcDbLine
 62
7
  6
CONTINUOUS
 10
18.9346130281
 20
8.4778178849
 11
18.6196523982
 21
8.4778178849
  0
LINE
  5
62D
100
AcDbEntity
  8
0
100
AcDbLine
 62
7
  6
CONTINUOUS
 10
18.3046917683
 20
8.4778178849
 11
14.907053973
 21
8.4778178849
  0
LINE
  5
62E
100
AcDbEntity
  8
0
100
AcDbLine
 62
7
  6
CONTINUOUS
 10
18.3046917683
 20
8.5211249715
 11
18.6196523982
 21
8.5211249715
  0
LINE
  5
62F
100
AcDbEntity
  8
0
100
AcDbLine
 62
7
  6
CONTINUOUS
 10
18.9346130281
 20
8.5211249715
 11
19.249573658
 21
8.5211249715
  0
LWPOLYLINE
  5
630
100
AcDbEntity
  8
0
100
AcDbPolyline
 62
2
  6
CONTINUOUS
 90
5
 70
0
 10
21.4517456055
 20
3.9146307983
 10
21.4439320068
 20
3.9276516724
 10
21.4517456055
 20
3.9276516724
 10
21.4517456055
 20
3.9146307983
 10
21.436119751
 20
3.8885890503
  0
LINE
  5
631
100
AcDbEntity
  8
0
100
AcDbLine
 62
7
  6
CONTINUOUS
 10
20.0566602722
 20
3.3282115856
 11
20.0566602722
 21
7.9778178849
  0
LINE
  5
632
100
AcDbEntity
  8
0
100
AcDbLine
 62
7
  6
CONTINUOUS
 10
18.3834319258
 20
8.8990777274
 11
18.5409122407
 21
8.8990777274
  0
LINE
  5
633
100
AcDbEntity
  8
0
100
AcDbLine
 62
7
  6
CONTINUOUS
 10
19.0133531856
 20
8.8990777274
 11
19.1708335006
 21
8.8990777274
  0
LINE
  5
634
100
AcDbEntity
  8
0
100
AcDbLine
 62
7
  6
CONTINUOUS
 10
18.4031169651
 20
8.9187627667
 11
18.5212272013
 21
8.9187627667
  0
LINE
  5
635
100
AcDbEntity
  8
0
100
AcDbLine
 62
7
  6
CONTINUOUS
 10
19.033038225
 20
8.9187627667
 11
19.1511484612
 21
8.9187627667
  0
LINE
  5
636
100
AcDbEntity
  8
0
100
AcDbLine
 62
7
  6
CONTINUOUS
 10
18.5212286551
 20
8.9187642208
 11
18.5409141791
 21
8.8990796661
  0
LWPOLYLINE
  5
637
100
AcDbEntity
  8
0
100
AcDbPolyline
 62
2
  6
CONTINUOUS
 90
5
 70
0
 10
21.4638265381
 20
4.657986145
 10
21.4560129395
 20
4.671007019
 10
21.4638265381
 20
4.671007019
 10
21.4638265381
 20
4.657986145
 10
21.4482006836
 20
4.631944397
  0
LWPOLYLINE
  5
638
100
AcDbEntity
  8
0
100
AcDbPolyline
 62
2
  6
CONTINUOUS
 90
10
 70
0
 10
21.1903881836
 20
5.0355901489
 10
21.2060140381
 20
5.0486110229
 10
21.2216385498
 20
5.0486110229
 10
21.2372630615
 20
5.0355901489
 10
21.2450753174
 20
5.0225692749
 10
21.2450753174
 20
5.0095484009
 10
21.2372630615
 20
4.9965275269
 10
21.2216385498
 20
4.9835066528
 10
21.2372630615
 20
4.9704857788
 10
21.252888916
 20
4.9444447021
  0
LWPOLYLINE
  5
639
100
AcDbEntity
  8
0
100
AcDbPolyline
 62
2
  6
CONTINUOUS
 90
10
 70
0
 10
21.1903881836
 20
4.8012154236
 10
21.2060140381
 20
4.8142359619
 10
21.2216385498
 20
4.8142359619
 10
21.2372630615
 20
4.8012154236
 10
21.2450753174
 20
4.7881945496
 10
21.2450753174
 20
4.7751736755
 10
21.2372630615
 20
4.7621528015
 10
21.2216385498
 20
4.7491319275
 10
21.2372630615
 20
4.7361110535
 10
21.252888916
 20
4.7100693054
  0
LINE
  5
63A
100
AcDbEntity
  8
0
100
AcDbLine
 62
7
  6
CONTINUOUS
 10
19.151149915
 20
8.9187642208
 11
19.1708354389
 21
8.8990796661
  0
LINE
  5
63B
100
AcDbEntity
  8
0
100
AcDbLine
 62
2
  6
CONTINUOUS
 10
21.0888261719
 20
4.8142359619
 11
21.0888261719
 21
4.657986145
  0
LINE
  5
63C
100
AcDbEntity
  8
0
100
AcDbLine
 62
2
  6
CONTINUOUS
 10
21.252888916
 20
4.9444447021
 11
21.252888916
 21
4.9314238281
  0
LINE
  5
63D
100
AcDbEntity
  8
0
100
AcDbLine
 62
2
  6
CONTINUOUS
 10
21.252888916
 20
4.7100693054
 11
21.252888916
 21
4.6970487671
  0
LINE
  5
63E
100
AcDbEntity
  8
0
100
AcDbLine
 62
2
  6
CONTINUOUS
 10
21.338826416
 20
5.0486110229
 11
21.338826416
 21
4.8923612061
  0
LWPOLYLINE
  5
63F
100
AcDbEntity
  8
0
100
AcDbPolyline
 62
2
  6
CONTINUOUS
 90
4
 70
0
 10
21.3622631836
 20
4.657986145
 10
21.3622631836
 20
4.8142359619
 10
21.3075760498
 20
4.6970487671
 10
21.3778890381
 20
4.6970487671
  0
LWPOLYLINE
  5
640
100
AcDbEntity
  8
0
100
AcDbPolyline
 62
2
  6
CONTINUOUS
 90
17
 70
0
 10
21.6200756836
 20
4.7621528015
 10
21.6122634277
 20
4.7361110535
 10
21.5888253174
 20
4.7230901794
 10
21.5653885498
 20
4.7361110535
 10
21.5575762939
 20
4.7621528015
 10
21.5653885498
 20
4.7881945496
 10
21.5732008057
 20
4.8012154236
 10
21.5888253174
 20
4.8142359619
 10
21.6044511719
 20
4.8012154236
 10
21.6122634277
 20
4.7881945496
 10
21.6200756836
 20
4.7621528015
 10
21.6200756836
 20
4.7100693054
 10
21.6122634277
 20
4.6840278931
 10
21.6044511719
 20
4.671007019
 10
21.5888253174
 20
4.657986145
 10
21.5732008057
 20
4.671007019
 10
21.5653885498
 20
4.6840278931
  0
LWPOLYLINE
  5
641
100
AcDbEntity
  8
0
100
AcDbPolyline
 62
2
  6
CONTINUOUS
 90
17
 70
0
 10
21.5454953613
 20
3.9667142944
 10
21.5533076172
 20
3.9927557068
 10
21.5767457275
 20
4.0057765808
 10
21.6001824951
 20
3.9927557068
 10
21.607994751
 20
3.9667142944
 10
21.6001824951
 20
3.9406725464
 10
21.5923702393
 20
3.9276516724
 10
21.5767457275
 20
3.9146307983
 10
21.561119873
 20
3.9276516724
 10
21.5533076172
 20
3.9406725464
 10
21.5454953613
 20
3.9667142944
 10
21.5454953613
 20
4.0187974548
 10
21.5533076172
 20
4.0448392029
 10
21.561119873
 20
4.0578600769
 10
21.5767457275
 20
4.0708809509
 10
21.5923702393
 20
4.0578600769
 10
21.6001824951
 20
4.0448392029
  0
LWPOLYLINE
  5
642
100
AcDbEntity
  8
0
100
AcDbPolyline
 62
2
  6
CONTINUOUS
 90
6
 70
0
 10
21.252888916
 20
4.9314238281
 10
21.2372630615
 20
4.9053820801
 10
21.2216385498
 20
4.8923612061
 10
21.2060140381
 20
4.8923612061
 10
21.1903881836
 20
4.9053820801
 10
21.1825759277
 20
4.9184029541
  0
LWPOLYLINE
  5
643
100
AcDbEntity
  8
0
100
AcDbPolyline
 62
2
  6
CONTINUOUS
 90
6
 70
0
 10
21.252888916
 20
4.6970487671
 10
21.2372630615
 20
4.671007019
 10
21.2216385498
 20
4.657986145
 10
21.2060140381
 20
4.657986145
 10
21.1903881836
 20
4.671007019
 10
21.1825759277
 20
4.6840278931
  0
LWPOLYLINE
  5
644
100
AcDbEntity
  8
0
100
AcDbPolyline
 62
2
  6
CONTINUOUS
 90
8
 70
0
 10
21.2954951172
 20
4.2792142639
 10
21.303307373
 20
4.2922351379
 10
21.3189332275
 20
4.3052556763
 10
21.3345577393
 20
4.3052556763
 10
21.350182251
 20
4.2922351379
 10
21.3579945068
 20
4.2792142639
 10
21.3579945068
 20
4.2531725159
 10
21.350182251
 20
4.2401516418
  0
LWPOLYLINE
  5
645
100
AcDbEntity
  8
0
100
AcDbPolyline
 62
2
  6
CONTINUOUS
 90
5
 70
0
 10
21.1626827393
 20
3.9667142944
 10
21.178307251
 20
3.9927557068
 10
21.1939331055
 20
4.0057765808
 10
21.2095576172
 20
4.0057765808
 10
21.2251821289
 20
3.9927557068
  0
LWPOLYLINE
  5
646
100
AcDbEntity
  8
0
100
AcDbPolyline
 62
2
  6
CONTINUOUS
 90
8
 70
0
 10
21.2954951172
 20
4.0448392029
 10
21.303307373
 20
4.0578600769
 10
21.3189332275
 20
4.0708809509
 10
21.3345577393
 20
4.0708809509
 10
21.350182251
 20
4.0578600769
 10
21.3579945068
 20
4.0448392029
 10
21.3579945068
 20
4.0187974548
 10
21.350182251
 20
4.0057765808
  0
LWPOLYLINE
  5
647
100
AcDbEntity
  8
0
100
AcDbPolyline
 62
2
  6
CONTINUOUS
 90
9
 70
0
 10
21.0533071289
 20
4.2922351379
 10
21.0689329834
 20
4.3052556763
 10
21.0845574951
 20
4.3052556763
 10
21.1001820068
 20
4.2922351379
 10
21.1079956055
 20
4.2792142639
 10
21.1079956055
 20
4.2661933899
 10
21.1001820068
 20
4.2531725159
 10
21.0845574951
 20
4.2401516418
 10
21.1001820068
 20
4.2271307678
  0
LWPOLYLINE
  5
648
100
AcDbEntity
  8
0
100
AcDbPolyline
 62
2
  6
CONTINUOUS
 90
5
 70
0
 10
21.1001820068
 20
4.1620267334
 10
21.0845574951
 20
4.1490058594
 10
21.0689329834
 20
4.1490058594
 10
21.0533071289
 20
4.1620267334
 10
21.045494873
 20
4.1750476074
  0
LWPOLYLINE
  5
649
100
AcDbEntity
  8
0
100
AcDbPolyline
 62
2
  6
CONTINUOUS
 90
5
 70
0
 10
21.350182251
 20
4.2401516418
 10
21.3189332275
 20
4.2141098938
 10
21.303307373
 20
4.1880684814
 10
21.2954951172
 20
4.1490058594
 10
21.3579945068
 20
4.1490058594
  0
LWPOLYLINE
  5
64A
100
AcDbEntity
  8
0
100
AcDbPolyline
 62
2
  6
CONTINUOUS
 90
3
 70
0
 10
21.2251821289
 20
3.9276516724
 10
21.2095576172
 20
3.9146307983
 10
21.1939331055
 20
3.9146307983
  0
LWPOLYLINE
  5
64B
100
AcDbEntity
  8
0
100
AcDbPolyline
 62
2
  6
CONTINUOUS
 90
5
 70
0
 10
21.350182251
 20
4.0057765808
 10
21.3189332275
 20
3.9797348328
 10
21.303307373
 20
3.9536934204
 10
21.2954951172
 20
3.9146307983
 10
21.3579945068
 20
3.9146307983
  0
LINE
  5
64C
100
AcDbEntity
  8
0
100
AcDbLine
 62
7
  6
CONTINUOUS
 10
14.982685753
 20
16.3366330401
 11
14.6139803502
 21
16.0869387195
  0
LINE
  5
64D
100
AcDbEntity
  8
0
100
AcDbLine
 62
7
  6
CONTINUOUS
 10
15.4970869276
 20
16.6193835564
 11
15.480090477
 21
16.6054080281
  0
LINE
  5
64E
100
AcDbEntity
  8
0
100
AcDbLine
 62
7
  6
CONTINUOUS
 10
15.4997096282
 20
16.6213335267
 11
15.4970990624
 21
16.6193809217
  0
LINE
  5
64F
100
AcDbEntity
  8
0
100
AcDbLine
 62
7
  6
CONTINUOUS
 10
15.2543841857
 20
16.3732457247
 11
14.8856787828
 21
16.1235514041
  0
LINE
  5
650
100
AcDbEntity
  8
0
100
AcDbLine
 62
7
  6
CONTINUOUS
 10
15.4758978585
 20
16.3199991308
 11
15.3380225489
 21
16.2266273454
  0
LINE
  5
651
100
AcDbEntity
  8
0
100
AcDbLine
 62
7
  6
CONTINUOUS
 10
16.0240263316
 20
16.4781905686
 11
16.0070298809
 21
16.4642150403
  0
LINE
  5
652
100
AcDbEntity
  8
0
100
AcDbLine
 62
7
  6
CONTINUOUS
 10
16.0266490321
 20
16.4801405389
 11
16.0240384663
 21
16.478187934
  0
LINE
  5
653
100
AcDbEntity
  8
0
100
AcDbLine
 62
7
  6
CONTINUOUS
 10
15.6014922509
 20
16.1560308516
 11
15.7739860066
 21
16.272846908
  0
LINE
  5
654
100
AcDbEntity
  8
0
100
AcDbLine
 62
7
  6
CONTINUOUS
 10
15.6022430914
 20
16.1170015929
 11
15.7747368471
 21
16.2338176493
  0
LINE
  5
655
100
AcDbEntity
  8
0
100
AcDbLine
 62
7
  6
CONTINUOUS
 10
16.0028372624
 20
16.1788061431
 11
15.8649619529
 21
16.0854343577
  0
LINE
  5
656
100
AcDbEntity
  8
0
100
AcDbLine
 62
7
  6
CONTINUOUS
 10
14.4664458012
 20
15.7706400775
 11
14.5470587621
 21
11.5803169366
  0
LINE
  5
657
100
AcDbEntity
  8
0
100
AcDbLine
 62
7
  6
CONTINUOUS
 10
14.4931474152
 20
15.7498729524
 11
14.573760376
 21
11.5595498115
  0
LINE
  5
658
100
AcDbEntity
  8
0
100
AcDbLine
 62
7
  6
CONTINUOUS
 10
16.1284316548
 20
16.0148378638
 11
16.3009254106
 21
16.1316539202
  0
LINE
  5
659
100
AcDbEntity
  8
0
100
AcDbLine
 62
7
  6
CONTINUOUS
 10
16.1291824953
 20
15.9758086051
 11
16.301676251
 21
16.0926246615
  0
LINE
  5
65A
100
AcDbEntity
  8
0
100
AcDbLine
 62
7
  6
CONTINUOUS
 10
14.9673208696
 20
11.0281860509
 11
18.8567923448
 21
9.9860053101
  0
LINE
  5
65B
100
AcDbEntity
  8
0
100
AcDbLine
 62
7
  6
CONTINUOUS
 10
14.9502628797
 20
11.0633259041
 11
18.8397343549
 21
10.0211451633
  0
LINE
  5
65C
100
AcDbEntity
  8
0
100
AcDbLine
 62
7
  6
CONTINUOUS
 10
15.3387733894
 20
16.1875980867
 11
15.3380225489
 21
16.2266273454
  0
LINE
  5
65D
100
AcDbEntity
  8
0
100
AcDbLine
 62
7
  6
CONTINUOUS
 10
15.477278687
 20
16.2482226127
 11
15.4707258304
 21
16.588845092
  0
LINE
  5
65E
100
AcDbEntity
  8
0
100
AcDbLine
 62
7
  6
CONTINUOUS
 10
15.6022430914
 20
16.1170015929
 11
15.6014922509
 21
16.1560308516
  0
LINE
  5
65F
100
AcDbEntity
  8
0
100
AcDbLine
 62
7
  6
CONTINUOUS
 10
15.6347298686
 20
16.2512516407
 11
15.628177012
 21
16.5918741199
  0
LINE
  5
660
100
AcDbEntity
  8
0
100
AcDbLine
 62
7
  6
CONTINUOUS
 10
15.7747368471
 20
16.2338176493
 11
15.7739860066
 21
16.272846908
  0
LINE
  5
661
100
AcDbEntity
  8
0
100
AcDbLine
 62
7
  6
CONTINUOUS
 10
15.8657127933
 20
16.046405099
 11
15.8649619529
 21
16.0854343577
  0
LINE
  5
662
100
AcDbEntity
  8
0
100
AcDbLine
 62
7
  6
CONTINUOUS
 10
16.0042180909
 20
16.107029625
 11
15.9976652343
 21
16.4476521042
  0
LINE
  5
663
100
AcDbEntity
  8
0
100
AcDbLine
 62
7
  6
CONTINUOUS
 10
16.1291824953
 20
15.9758086051
 11
16.1284316548
 21
16.0148378638
  0
LINE
  5
664
100
AcDbEntity
  8
0
100
AcDbLine
 62
7
  6
CONTINUOUS
 10
16.1616692725
 20
16.110058653
 11
16.1551164159
 21
16.4506811322
  0
LINE
  5
665
100
AcDbEntity
  8
0
100
AcDbLine
 62
7
  6
CONTINUOUS
 10
16.301676251
 20
16.0926246615
 11
16.3009254106
 21
16.1316539202
  0
LINE
  5
666
100
AcDbEntity
  8
0
100
AcDbLine
 62
7
  6
CONTINUOUS
 10
19.1438556609
 20
15.3310649839
 11
18.7751502581
 21
15.0813706633
  0
LINE
  5
667
100
AcDbEntity
  8
0
100
AcDbLine
 62
7
  6
CONTINUOUS
 10
19.5707826071
 20
14.7683825174
 11
19.2020772042
 21
14.5186881968
  0
LINE
  5
668
100
AcDbEntity
  8
0
100
AcDbLine
 62
7
  6
CONTINUOUS
 10
15.6006608635
 20
16.6213761
 11
15.6181822585
 21
16.6080646221
  0
LINE
  5
669
100
AcDbEntity
  8
0
100
AcDbLine
 62
7
  6
CONTINUOUS
 10
16.1276002674
 20
16.4801831123
 11
16.1451216624
 21
16.4668716343
  0
LINE
  5
66A
100
AcDbEntity
  8
0
100
AcDbLine
 62
7
  6
CONTINUOUS
 10
19.2009470168
 20
10.3196988879
 11
19.1203340559
 21
14.5100220288
  0
LINE
  5
66B
100
AcDbEntity
  8
0
100
AcDbLine
 62
7
  6
CONTINUOUS
 10
19.2826901651
 20
10.3283650559
 11
19.2020772042
 21
14.5186881968
  0
LINE
  5
66C
100
AcDbEntity
  8
0
100
AcDbLine
 62
7
  6
CONTINUOUS
 10
18.7438315522
 20
15.0062459363
 11
14.854360077
 21
16.0484266771
  0
LINE
  5
66D
100
AcDbEntity
  8
0
100
AcDbLine
 62
7
  6
CONTINUOUS
 10
18.7751502581
 20
15.0813706633
 11
14.8856787828
 21
16.1235514041
  0
LINE
  5
66E
100
AcDbEntity
  8
0
100
AcDbLine
 62
7
  6
CONTINUOUS
 10
19.5707826071
 20
14.7683825174
 11
19.6513955679
 21
10.5780593765
  0
LINE
  5
66F
100
AcDbEntity
  8
0
100
AcDbLine
 62
7
  6
CONTINUOUS
 10
15.3387733894
 20
16.1875980867
 11
15.6022430914
 21
16.1170015929
  0
LINE
  5
670
100
AcDbEntity
  8
0
100
AcDbLine
 62
7
  6
CONTINUOUS
 10
15.8657127933
 20
16.046405099
 11
16.1291824953
 21
15.9758086051
  0
LINE
  5
671
100
AcDbEntity
  8
0
100
AcDbLine
 62
7
  6
CONTINUOUS
 10
15.3380225489
 20
16.2266273454
 11
15.6014922509
 21
16.1560308516
  0
LINE
  5
672
100
AcDbEntity
  8
0
100
AcDbLine
 62
7
  6
CONTINUOUS
 10
15.8649619529
 20
16.0854343577
 11
16.1284316548
 21
16.0148378638
  0
LINE
  5
673
100
AcDbEntity
  8
0
100
AcDbLine
 62
7
  6
CONTINUOUS
 10
15.2543841857
 20
16.3732457247
 11
15.4694357117
 21
16.3156228419
  0
LINE
  5
674
100
AcDbEntity
  8
0
100
AcDbLine
 62
7
  6
CONTINUOUS
 10
15.7747368471
 20
16.2338176493
 11
15.9963751156
 21
16.1744298542
  0
LINE
  5
675
100
AcDbEntity
  8
0
100
AcDbLine
 62
7
  6
CONTINUOUS
 10
16.301676251
 20
16.0926246615
 11
19.1438556609
 21
15.3310649839
  0
LINE
  5
676
100
AcDbEntity
  8
0
100
AcDbLine
 62
7
  6
CONTINUOUS
 10
16.3009254106
 20
16.1316539202
 11
16.1605301189
 21
16.1692727253
  0
LINE
  5
677
100
AcDbEntity
  8
0
100
AcDbLine
 62
7
  6
CONTINUOUS
 10
15.7739860066
 20
16.272846908
 11
15.633590715
 21
16.310465713
  0
LINE
  5
678
100
AcDbEntity
  8
0
100
AcDbLine
 62
7
  6
CONTINUOUS
 10
19.6513955679
 20
10.5780593765
 11
19.2826901651
 21
10.3283650559
  0
LINE
  5
679
100
AcDbEntity
  8
0
100
AcDbLine
 62
7
  6
CONTINUOUS
 10
19.513504643
 20
10.2761334626
 11
19.1447992401
 21
10.026439142
  0
CIRCLE
  5
67A
100
AcDbEntity
  8
0
100
AcDbCircle
 62
7
  6
CONTINUOUS
 10
4.2023689516
 20
5.6530147353
 40
1.6840551181
  0
CIRCLE
  5
67B
100
AcDbEntity
  8
0
100
AcDbCircle
 62
7
  6
CONTINUOUS
 10
4.2023689516
 20
5.6530147353
 40
1.625
  0
ARC
  5
67C
100
AcDbEntity
  8
0
100
AcDbCircle
 62
7
  6
CONTINUOUS
 10
1.877565802
 20
7.9778178849
 40
0.5
100
AcDbArc
 50
90.0
 51
180.0
  0
ARC
  5
67D
100
AcDbEntity
  8
0
100
AcDbCircle
 62
7
  6
CONTINUOUS
 10
6.5271721012
 20
7.9778178849
 40
0.5
100
AcDbArc
 50
0.0
 51
90.0
  0
ARC
  5
67E
100
AcDbEntity
  8
0
100
AcDbCircle
 62
7
  6
CONTINUOUS
 10
6.5271721012
 20
3.3282115856
 40
0.5
100
AcDbArc
 50
270.0
 51
360.0
  0
ARC
  5
67F
100
AcDbEntity
  8
0
100
AcDbCircle
 62
7
  6
CONTINUOUS
 10
1.877565802
 20
3.3282115856
 40
0.5
100
AcDbArc
 50
180.0
 51
270.0
  0
ARC
  5
680
100
AcDbEntity
  8
0
100
AcDbCircle
 62
7
  6
CONTINUOUS
 10
1.877565802
 20
7.9778178849
 40
0.4409448819
100
AcDbArc
 50
90.0
 51
180.0
  0
ARC
  5
681
100
AcDbEntity
  8
0
100
AcDbCircle
 62
7
  6
CONTINUOUS
 10
6.5271721012
 20
7.9778178849
 40
0.4409448819
100
AcDbArc
 50
0.0
 51
90.0
  0
ARC
  5
682
100
AcDbEntity
  8
0
100
AcDbCircle
 62
7
  6
CONTINUOUS
 10
6.5271721012
 20
3.3282115856
 40
0.4409448819
100
AcDbArc
 50
270.0
 51
360.0
  0
ARC
  5
683
100
AcDbEntity
  8
0
100
AcDbCircle
 62
7
  6
CONTINUOUS
 10
1.877565802
 20
3.3282115856
 40
0.4409448819
100
AcDbArc
 50
180.0
 51
270.0
  0
CIRCLE
  5
684
100
AcDbEntity
  8
0
100
AcDbCircle
 62
7
  6
CONTINUOUS
 10
6.5527626524
 20
8.003408436
 40
0.2106299213
  0
CIRCLE
  5
685
100
AcDbEntity
  8
0
100
AcDbCircle
 62
7
  6
CONTINUOUS
 10
1.8519752508
 20
8.003408436
 40
0.2106299213
  0
CIRCLE
  5
686
100
AcDbEntity
  8
0
100
AcDbCircle
 62
7
  6
CONTINUOUS
 10
6.5527626524
 20
3.3026210345
 40
0.2106299213
  0
CIRCLE
  5
687
100
AcDbEntity
  8
0
100
AcDbCircle
 62
7
  6
CONTINUOUS
 10
1.8519752508
 20
3.3026210345
 40
0.2106299213
  0
ARC
  5
688
100
AcDbEntity
  8
0
100
AcDbCircle
 62
7
  6
CONTINUOUS
 10
10.1746146156
 20
8.4187627667
 40
0.0590551181
100
AcDbArc
 50
90.0
 51
180.0
  0
ARC
  5
689
100
AcDbEntity
  8
0
100
AcDbCircle
 62
7
  6
CONTINUOUS
 10
10.1746146156
 20
2.8872667038
 40
0.0590551181
100
AcDbArc
 50
180.0
 51
270.0
  0
CIRCLE
  5
68A
100
AcDbEntity
  8
0
100
AcDbCircle
 62
7
  6
CONTINUOUS
 10
17.2318571226
 20
5.6530147353
 40
2.655511811
  0
CIRCLE
  5
68B
100
AcDbEntity
  8
02___PRT_ALL_AXES
100
AcDbCircle
 62
7
  6
CONTINUOUS
 10
17.2318571226
 20
5.6530147353
 40
1.750984252
  0
CIRCLE
  5
68C
100
AcDbEntity
  8
0
100
AcDbCircle
 62
7
  6
CONTINUOUS
 10
17.2318571226
 20
5.6530147353
 40
1.625
  0
ARC
  5
68D
100
AcDbEntity
  8
0
100
AcDbCircle
 62
7
  6
CONTINUOUS
 10
19.5566602722
 20
3.3282115856
 40
0.5
100
AcDbArc
 50
270.0
 51
360.0
  0
ARC
  5
68E
100
AcDbEntity
  8
0
100
AcDbCircle
 62
7
  6
CONTINUOUS
 10
14.907053973
 20
3.3282115856
 40
0.5
100
AcDbArc
 50
180.0
 51
270.0
  0
ARC
  5
68F
100
AcDbEntity
  8
0
100
AcDbCircle
 62
7
  6
CONTINUOUS
 10
14.907053973
 20
7.9778178849
 40
0.5
100
AcDbArc
 50
90.0
 51
180.0
  0
ARC
  5
690
100
AcDbEntity
  8
0
100
AcDbCircle
 62
7
  6
CONTINUOUS
 10
19.5566602722
 20
7.9778178849
 40
0.5
100
AcDbArc
 50
0.0
 51
90.0
  0
ARC
  5
691
100
AcDbEntity
  8
0
100
AcDbCircle
 62
7
  6
CONTINUOUS
 10
19.5566602722
 20
7.9778178849
 40
0.374015748
100
AcDbArc
 50
0.0
 51
90.0
  0
ARC
  5
692
100
AcDbEntity
  8
0
100
AcDbCircle
 62
7
  6
CONTINUOUS
 10
19.5566602722
 20
3.3282115856
 40
0.374015748
100
AcDbArc
 50
270.0
 51
360.0
  0
ARC
  5
693
100
AcDbEntity
  8
0
100
AcDbCircle
 62
7
  6
CONTINUOUS
 10
14.907053973
 20
7.9778178849
 40
0.374015748
100
AcDbArc
 50
90.0
 51
180.0
  0
ARC
  5
694
100
AcDbEntity
  8
0
100
AcDbCircle
 62
7
  6
CONTINUOUS
 10
14.907053973
 20
3.3282115856
 40
0.374015748
100
AcDbArc
 50
180.0
 51
270.0
  0
CIRCLE
  5
695
100
AcDbEntity
  8
0
100
AcDbCircle
 62
7
  6
CONTINUOUS
 10
19.5822508234
 20
8.003408436
 40
0.3090551181
  0
CIRCLE
  5
696
100
AcDbEntity
  8
0
100
AcDbCircle
 62
7
  6
CONTINUOUS
 10
19.5822508234
 20
3.3026210345
 40
0.3090551181
  0
CIRCLE
  5
697
100
AcDbEntity
  8
0
100
AcDbCircle
 62
7
  6
CONTINUOUS
 10
14.8814634218
 20
8.003408436
 40
0.3090551181
  0
CIRCLE
  5
698
100
AcDbEntity
  8
0
100
AcDbCircle
 62
7
  6
CONTINUOUS
 10
14.8814634218
 20
3.3026210345
 40
0.3090551181
  0
CIRCLE
  5
699
100
AcDbEntity
  8
0
100
AcDbCircle
 62
7
  6
CONTINUOUS
 10
19.5822508234
 20
8.003408436
 40
0.2106299213
  0
CIRCLE
  5
69A
100
AcDbEntity
  8
0
100
AcDbCircle
 62
7
  6
CONTINUOUS
 10
19.5822508234
 20
3.3026210345
 40
0.2106299213
  0
CIRCLE
  5
69B
100
AcDbEntity
  8
0
100
AcDbCircle
 62
7
  6
CONTINUOUS
 10
14.8814634218
 20
8.003408436
 40
0.2106299213
  0
CIRCLE
  5
69C
100
AcDbEntity
  8
0
100
AcDbCircle
 62
7
  6
CONTINUOUS
 10
14.8814634218
 20
3.3026210345
 40
0.2106299213
  0
ARC
  5
69D
100
AcDbEntity
  8
0
100
AcDbCircle
 62
7
  6
CONTINUOUS
 10
16.9847372241
 20
12.7582495679
 40
2.6296901815
100
AcDbArc
 50
1.1058210087
 51
3.4178744434
  0
ARC
  5
69E
100
AcDbEntity
  8
0
100
AcDbCircle
 62
7
  6
CONTINUOUS
 10
17.0748291153
 20
12.7597266463
 40
2.5395865766
100
AcDbArc
 50
358.7456076556
 51
1.1117293441
  0
SPLINE
  5
69F
100
AcDbEntity
  8
0
100
AcDbSpline
 62
7
  6
CONTINUOUS
 70
0
 71
3
 72
22
 73
18
 74
0
 42
0.0000001
 43
0.0000001
 44
0.0000000001
 40
0.0
 40
0.0
 40
0.0
 40
0.0
 40
0.1285049027
 40
0.1956008051
 40
0.2638861363
 40
0.3327801765
 40
0.4016720557
 40
0.4699559855
 40
0.5370563986
 40
0.6024682719
 40
0.6657875011
 40
0.7267474023
 40
0.7852546627
 40
0.8414129559
 40
0.8955412073
 40
0.9481700089
 40
1.0
 40
1.0
 40
1.0
 40
1.0
 10
18.9486350712
 20
14.5789724936
 30
0.0
 10
18.9482761297
 20
14.5976305431
 30
0.0
 10
18.9438592941
 20
14.626070066
 30
0.0
 10
18.9316434559
 20
14.6624369969
 30
0.0
 10
18.919131204
 20
14.6894074813
 30
0.0
 10
18.9036639428
 20
14.71509024
 30
0.0
 10
18.8855497436
 20
14.7389830422
 30
0.0
 10
18.8651504709
 20
14.7606015985
 30
0.0
 10
18.8428739312
 20
14.7795131972
 30
0.0
 10
18.8191646614
 20
14.7953381062
 30
0.0
 10
18.7944909849
 20
14.8077523116
 30
0.0
 10
18.769341775
 20
14.8164991623
 30
0.0
 10
18.7442156293
 20
14.8213926316
 30
0.0
 10
18.7196141217
 20
14.8223114574
 30
0.0
 10
18.6960374575
 20
14.8192079061
 30
0.0
 10
18.6739908041
 20
14.8121300364
 30
0.0
 10
18.6605791374
 20
14.804812916
 30
0.0
 10
18.6543460935
 20
14.800593761
 30
0.0
  0
SPLINE
  5
6A0
100
AcDbEntity
  8
0
100
AcDbSpline
 62
7
  6
CONTINUOUS
 70
0
 71
3
 72
22
 73
18
 74
0
 42
0.0000001
 43
0.0000001
 44
0.0000000001
 40
0.0
 40
0.0
 40
0.0
 40
0.0
 40
0.1285049027
 40
0.1956008051
 40
0.2638861363
 40
0.3327801765
 40
0.4016720557
 40
0.4699559855
 40
0.5370563986
 40
0.6024682719
 40
0.6657875011
 40
0.7267474023
 40
0.7852546627
 40
0.8414129559
 40
0.8955412073
 40
0.9481700089
 40
1.0
 40
1.0
 40
1.0
 40
1.0
 10
15.0163497694
 20
15.6326251646
 30
0.0
 10
15.0159908279
 20
15.6512832141
 30
0.0
 10
15.0115739923
 20
15.6797227371
 30
0.0
 10
14.9993581541
 20
15.7160896679
 30
0.0
 10
14.9868459022
 20
15.7430601523
 30
0.0
 10
14.9713786409
 20
15.768742911
 30
0.0
 10
14.9532644417
 20
15.7926357132
 30
0.0
 10
14.9328651691
 20
15.8142542695
 30
0.0
 10
14.9105886294
 20
15.8331658683
 30
0.0
 10
14.8868793596
 20
15.8489907772
 30
0.0
 10
14.8622056831
 20
15.8614049826
 30
0.0
 10
14.8370564732
 20
15.8701518333
 30
0.0
 10
14.8119303275
 20
15.8750453027
 30
0.0
 10
14.7873288199
 20
15.8759641284
 30
0.0
 10
14.7637521557
 20
15.8728605771
 30
0.0
 10
14.7417055023
 20
15.8657827074
 30
0.0
 10
14.7282938356
 20
15.858465587
 30
0.0
 10
14.7220607917
 20
15.854246432
 30
0.0
  0
SPLINE
  5
6A1
100
AcDbEntity
  8
0
100
AcDbSpline
 62
7
  6
CONTINUOUS
 70
0
 71
3
 72
22
 73
18
 74
0
 42
0.0000001
 43
0.0000001
 44
0.0000000001
 40
0.0
 40
0.0
 40
0.0
 40
0.0
 40
0.1285049027
 40
0.1956008051
 40
0.2638861363
 40
0.3327801765
 40
0.4016720557
 40
0.4699559855
 40
0.5370563986
 40
0.6024682719
 40
0.6657875011
 40
0.7267474023
 40
0.7852546627
 40
0.8414129559
 40
0.8955412073
 40
0.9481700089
 40
1.0
 40
1.0
 40
1.0
 40
1.0
 10
19.0301353889
 20
10.3425238651
 30
0.0
 10
19.0297764475
 20
10.3611819146
 30
0.0
 10
19.0253596118
 20
10.3896214376
 30
0.0
 10
19.0131437737
 20
10.4259883684
 30
0.0
 10
19.0006315217
 20
10.4529588529
 30
0.0
 10
18.9851642605
 20
10.4786416115
 30
0.0
 10
18.9670500613
 20
10.5025344137
 30
0.0
 10
18.9466507887
 20
10.52415297
 30
0.0
 10
18.924374249
 20
10.5430645688
 30
0.0
 10
18.9006649792
 20
10.5588894777
 30
0.0
 10
18.8759913026
 20
10.5713036831
 30
0.0
 10
18.8508420927
 20
10.5800505339
 30
0.0
 10
18.825715947
 20
10.5849440032
 30
0.0
 10
18.8011144394
 20
10.5858628289
 30
0.0
 10
18.7775377752
 20
10.5827592776
 30
0.0
 10
18.7554911219
 20
10.575681408
 30
0.0
 10
18.7420794551
 20
10.5683642876
 30
0.0
 10
18.7358464112
 20
10.5641451325
 30
0.0
  0
SPLINE
  5
6A2
100
AcDbEntity
  8
0
100
AcDbSpline
 62
7
  6
CONTINUOUS
 70
0
 71
3
 72
22
 73
18
 74
0
 42
0.0000001
 43
0.0000001
 44
0.0000000001
 40
0.0
 40
0.0
 40
0.0
 40
0.0
 40
0.1285049027
 40
0.1956008051
 40
0.2638861363
 40
0.3327801765
 40
0.4016720557
 40
0.4699559855
 40
0.5370563986
 40
0.6024682719
 40
0.6657875011
 40
0.7267474023
 40
0.7852546627
 40
0.8414129559
 40
0.8955412073
 40
0.9481700089
 40
1.0
 40
1.0
 40
1.0
 40
1.0
 10
15.0978500871
 20
11.3961765362
 30
0.0
 10
15.0974911457
 20
11.4148345856
 30
0.0
 10
15.09307431
 20
11.4432741086
 30
0.0
 10
15.0808584718
 20
11.4796410395
 30
0.0
 10
15.0683462199
 20
11.5066115239
 30
0.0
 10
15.0528789587
 20
11.5322942826
 30
0.0
 10
15.0347647595
 20
11.5561870848
 30
0.0
 10
15.0143654869
 20
11.577805641
 30
0.0
 10
14.9920889472
 20
11.5967172398
 30
0.0
 10
14.9683796774
 20
11.6125421488
 30
0.0
 10
14.9437060008
 20
11.6249563542
 30
0.0
 10
14.9185567909
 20
11.6337032049
 30
0.0
 10
14.8934306452
 20
11.6385966742
 30
0.0
 10
14.8688291376
 20
11.6395154999
 30
0.0
 10
14.8452524734
 20
11.6364119487
 30
0.0
 10
14.82320582
 20
11.629334079
 30
0.0
 10
14.8097941533
 20
11.6220169586
 30
0.0
 10
14.8035611094
 20
11.6177978035
 30
0.0
  0
SPLINE
  5
6A3
100
AcDbEntity
  8
02___PRT_ALL_AXES
100
AcDbSpline
 62
7
  6
CONTINUOUS
 70
0
 71
3
 72
11
 73
7
 74
0
 42
0.0000001
 43
0.0000001
 44
0.0000000001
 40
0.0
 40
0.0
 40
0.0
 40
0.0
 40
0.2439494337
 40
0.4919719576
 40
0.744052279
 40
1.0
 40
1.0
 40
1.0
 40
1.0
 10
15.958295706
 20
14.1404077351
 30
0.0
 10
15.9526226561
 20
14.1128723134
 30
0.0
 10
15.9428391688
 20
14.056987247
 30
0.0
 10
15.9329158027
 20
13.9717717675
 30
0.0
 10
15.9276564883
 20
13.8847581056
 30
0.0
 10
15.9272644991
 20
13.8261801077
 30
0.0
 10
15.9278318441
 20
13.7966890817
 30
0.0
  0
SPLINE
  5
6A4
100
AcDbEntity
  8
0
100
AcDbSpline
 62
7
  6
CONTINUOUS
 70
0
 71
3
 72
17
 73
13
 74
0
 42
0.0000001
 43
0.0000001
 44
0.0000000001
 40
0.0
 40
0.0
 40
0.0
 40
0.0
 40
0.1353386323
 40
0.2675546487
 40
0.3965666423
 40
0.5224791097
 40
0.584339556
 40
0.6454946112
 40
0.765805025
 40
0.8838093753
 40
0.9421053438
 40
1.0
 40
1.0
 40
1.0
 40
1.0
 10
15.8887562044
 20
13.6706170369
 30
0.0
 10
15.8879776941
 20
13.7110845982
 30
0.0
 10
15.8895024709
 20
13.7911842411
 30
0.0
 10
15.901353208
 20
13.9093219646
 30
0.0
 10
15.9226795828
 20
14.0232675102
 30
0.0
 10
15.948387463
 20
14.1146024567
 30
0.0
 10
15.9735746249
 20
14.1846846396
 30
0.0
 10
16.0014550709
 20
14.2519281966
 30
0.0
 10
16.041782144
 20
14.3320722378
 30
0.0
 10
16.0896474825
 20
14.4069628954
 30
0.0
 10
16.1319665599
 20
14.4628054085
 30
0.0
 10
16.1544281096
 20
14.4893458716
 30
0.0
 10
16.1659701059
 20
14.5022519213
 30
0.0
  0
SPLINE
  5
6A5
100
AcDbEntity
  8
0
100
AcDbSpline
 62
7
  6
CONTINUOUS
 70
0
 71
3
 72
17
 73
13
 74
0
 42
0.0000001
 43
0.0000001
 44
0.0000000001
 40
0.0
 40
0.0
 40
0.0
 40
0.0
 40
0.1193500139
 40
0.1792436974
 40
0.2393639257
 40
0.2997816002
 40
0.3605611554
 40
0.4834126604
 40
0.6084643482
 40
0.7360872168
 40
0.866582481
 40
1.0
 40
1.0
 40
1.0
 40
1.0
 10
14.6139803502
 20
16.0869387195
 30
0.0
 10
14.6019938526
 20
16.078821235
 30
0.0
 10
14.5848268538
 20
16.065325744
 30
0.0
 10
14.5640021978
 20
16.0450725037
 30
0.0
 10
14.5493983066
 20
16.0287470656
 30
0.0
 10
14.5358799204
 20
16.0113777145
 30
0.0
 10
14.5193049547
 20
15.9868287603
 30
0.0
 10
14.5014837567
 20
15.9537699356
 30
0.0
 10
14.4850499743
 20
15.9111696393
 30
0.0
 10
14.4735735571
 20
15.866023089
 30
0.0
 10
14.4671077222
 20
15.81888288
 30
0.0
 10
14.4661345353
 20
15.7868199189
 30
0.0
 10
14.4664458012
 20
15.7706400775
 30
0.0
  0
SPLINE
  5
6A6
100
AcDbEntity
  8
0
100
AcDbSpline
 62
7
  6
CONTINUOUS
 70
0
 71
3
 72
17
 73
13
 74
0
 42
0.0000001
 43
0.0000001
 44
0.0000000001
 40
0.0
 40
0.0
 40
0.0
 40
0.0
 40
0.1214155892
 40
0.1837376548
 40
0.2469201966
 40
0.3750958152
 40
0.5043986919
 40
0.6330386062
 40
0.7593181166
 40
0.821173172
 40
0.8819748629
 40
1.0
 40
1.0
 40
1.0
 40
1.0
 10
14.5470587621
 20
11.5803169366
 30
0.0
 10
14.5476340686
 20
11.5504120685
 30
0.0
 10
14.5526611756
 20
11.5051348613
 30
0.0
 10
14.5667028369
 20
11.4459082164
 30
0.0
 10
14.5859095099
 20
11.3863754234
 30
0.0
 10
14.6188245839
 20
11.3142083377
 30
0.0
 10
14.6708152035
 20
11.234152456
 30
0.0
 10
14.7336834085
 20
11.1629375017
 30
0.0
 10
14.7938370185
 20
11.1126851369
 30
0.0
 10
14.8453748885
 20
11.0793257587
 30
0.0
 10
14.8977083238
 20
11.0513656009
 30
0.0
 10
14.9392364093
 20
11.0357112593
 30
0.0
 10
14.9673208696
 20
11.0281860509
 30
0.0
  0
SPLINE
  5
6A7
100
AcDbEntity
  8
0
100
AcDbSpline
 62
7
  6
CONTINUOUS
 70
0
 71
3
 72
15
 73
11
 74
0
 42
0.0000001
 43
0.0000001
 44
0.0000000001
 40
0.0
 40
0.0
 40
0.0
 40
0.0
 40
0.1314224418
 40
0.2605202119
 40
0.3874000553
 40
0.5123579524
 40
0.6357200399
 40
0.7578487578
 40
0.8791292747
 40
1.0
 40
1.0
 40
1.0
 40
1.0
 10
18.8567923448
 20
9.9860053101
 30
0.0
 10
18.8694837274
 20
9.9826046644
 30
0.0
 10
18.8949609368
 20
9.9769862615
 30
0.0
 10
18.9334600649
 20
9.9722525011
 30
0.0
 10
18.9716013572
 20
9.9713856306
 30
0.0
 10
19.0090580728
 20
9.9744492266
 30
0.0
 10
19.0455001084
 20
9.9814663497
 30
0.0
 10
19.080576071
 20
9.992429432
 30
0.0
 10
19.1139237385
 20
10.0072629234
 30
0.0
 10
19.1347936011
 20
10.0196631327
 30
0.0
 10
19.1447992401
 20
10.026439142
 30
0.0
  0
SPLINE
  5
6A8
100
AcDbEntity
  8
0
100
AcDbSpline
 62
7
  6
CONTINUOUS
 70
0
 71
3
 72
14
 73
10
 74
0
 42
0.0000001
 43
0.0000001
 44
0.0000000001
 40
0.0
 40
0.0
 40
0.0
 40
0.0
 40
0.1184173548
 40
0.2375595519
 40
0.3581171917
 40
0.4807112809
 40
0.605857947
 40
0.7339951223
 40
1.0
 40
1.0
 40
1.0
 40
1.0
 10
14.9826905967
 20
16.3366353381
 30
0.0
 10
14.9919284144
 20
16.3428909685
 30
0.0
 10
15.0112280435
 20
16.3543477688
 30
0.0
 10
15.0421437635
 20
16.3680441447
 30
0.0
 10
15.0748173506
 20
16.3781796616
 30
0.0
 10
15.1089755993
 20
16.3846683611
 30
0.0
 10
15.1443485244
 20
16.3874691473
 30
0.0
 10
15.1933221224
 20
16.3862506905
 30
0.0
 10
15.2301766437
 20
16.379732116
 30
0.0
 10
15.2543841857
 20
16.3732457247
 30
0.0
  0
SPLINE
  5
6A9
100
AcDbEntity
  8
0
100
AcDbSpline
 62
7
  6
CONTINUOUS
 70
0
 71
3
 72
18
 73
14
 74
0
 42
0.0000001
 43
0.0000001
 44
0.0000000001
 40
0.0
 40
0.0
 40
0.0
 40
0.0
 40
0.1374221489
 40
0.2046481286
 40
0.2708223266
 40
0.4000394045
 40
0.5254035667
 40
0.5867999038
 40
0.6474109562
 40
0.7665683788
 40
0.8837574391
 40
0.9419431945
 40
1.0
 40
1.0
 40
1.0
 40
1.0
 10
19.6513955679
 20
10.5780593765
 30
0.0
 10
19.6517004729
 20
10.5622101812
 30
0.0
 10
19.6510019087
 20
10.53855971
 30
0.0
 10
19.6476165566
 20
10.5074917766
 30
0.0
 10
19.6427058482
 20
10.4775853621
 30
0.0
 10
19.6336847308
 20
10.4416140145
 30
0.0
 10
19.6206519518
 20
10.4074691325
 30
0.0
 10
19.6079847213
 20
10.3818797889
 30
0.0
 10
19.5940469149
 20
10.357784702
 30
0.0
 10
19.5739883427
 20
10.3298807161
 30
0.0
 10
19.5504521773
 20
10.305211255
 30
0.0
 10
19.5298838262
 20
10.2878045392
 30
0.0
 10
19.5190450436
 20
10.279886272
 30
0.0
 10
19.5134997993
 20
10.2761311646
 30
0.0
  0
SPLINE
  5
6AA
100
AcDbEntity
  8
0
100
AcDbSpline
 62
7
  6
CONTINUOUS
 70
0
 71
3
 72
19
 73
15
 74
0
 42
0.0000001
 43
0.0000001
 44
0.0000000001
 40
0.0
 40
0.0
 40
0.0
 40
0.0
 40
0.1160833598
 40
0.1764517863
 40
0.2381709068
 40
0.3648283309
 40
0.4294124798
 40
0.4944664386
 40
0.5597206867
 40
0.6249002753
 40
0.7538663731
 40
0.81723036
 40
0.879512638
 40
1.0
 40
1.0
 40
1.0
 40
1.0
 10
19.1438556609
 20
15.3310649839
 30
0.0
 10
19.1719572881
 20
15.3235351756
 30
0.0
 10
19.2136216338
 20
15.3077477298
 30
0.0
 10
19.2662597396
 20
15.279510104
 30
0.0
 10
19.3185878973
 20
15.2455064684
 30
0.0
 10
19.3674005632
 20
15.2045748597
 30
0.0
 10
19.4116924192
 20
15.1579965916
 30
0.0
 10
19.442658384
 20
15.1201614369
 30
0.0
 10
19.470837573
 20
15.0800261147
 30
0.0
 10
19.5042106459
 20
15.0241850405
 30
0.0
 10
19.5311360213
 20
14.9652140802
 30
0.0
 10
19.5507840495
 20
14.9044418506
 30
0.0
 10
19.5650673691
 20
14.8443898656
 30
0.0
 10
19.5702017942
 20
14.7985736123
 30
0.0
 10
19.5707826071
 20
14.7683825174
 30
0.0
  0
SPLINE
  5
6AB
100
AcDbEntity
  8
0
100
AcDbSpline
 62
7
  6
CONTINUOUS
 70
0
 71
3
 72
12
 73
8
 74
0
 42
0.0000001
 43
0.0000001
 44
0.0000000001
 40
0.0
 40
0.0
 40
0.0
 40
0.0
 40
0.2897779647
 40
0.5477458665
 40
0.7805956877
 40
0.8912047375
 40
1.0
 40
1.0
 40
1.0
 40
1.0
 10
16.0070313639
 20
16.46421193
 30
0.0
 10
16.0055644271
 20
16.4630055539
 30
0.0
 10
16.0029364033
 20
16.4605335294
 30
0.0
 10
15.9998807861
 20
16.4563890393
 30
0.0
 10
15.9983093712
 20
16.4527224513
 30
0.0
 10
15.9977287004
 20
16.4498069856
 30
0.0
 10
15.9976521123
 20
16.44836494
 30
0.0
 10
15.9976661267
 20
16.4476520071
 30
0.0
  0
SPLINE
  5
6AC
100
AcDbEntity
  8
0
100
AcDbSpline
 62
7
  6
CONTINUOUS
 70
0
 71
3
 72
21
 73
17
 74
0
 42
0.0000001
 43
0.0000001
 44
0.0000000001
 40
0.0
 40
0.0
 40
0.0
 40
0.0
 40
0.0466099851
 40
0.0984126407
 40
0.1551489371
 40
0.2163524991
 40
0.2813642624
 40
0.3494311527
 40
0.4911566882
 40
0.6341791968
 40
0.7038280838
 40
0.770989343
 40
0.834844631
 40
0.8946937379
 40
0.9499175391
 40
1.0
 40
1.0
 40
1.0
 40
1.0
 10
16.1275999876
 20
16.4801830427
 30
0.0
 10
16.1262969644
 20
16.4811733772
 30
0.0
 10
16.1233815828
 20
16.483051214
 30
0.0
 10
16.1184818746
 20
16.4854529458
 30
0.0
 10
16.1128959382
 20
16.4875549405
 30
0.0
 10
16.1067131853
 20
16.4893212648
 30
0.0
 10
16.100032252
 20
16.4907272791
 30
0.0
 10
16.0904758499
 20
16.4921025175
 30
0.0
 10
16.0780768401
 20
16.4927688097
 30
0.0
 10
16.0656244107
 20
16.4920832556
 30
0.0
 10
16.0558909942
 20
16.490702215
 30
0.0
 10
16.0489827863
 20
16.4892905663
 30
0.0
 10
16.0425144758
 20
16.4875160651
 30
0.0
 10
16.0365886704
 20
16.4854074593
 30
0.0
 10
16.0313059251
 20
16.4829972156
 30
0.0
 10
16.0281051324
 20
16.4811266377
 30
0.0
 10
16.0266490321
 20
16.4801405389
 30
0.0
  0
SPLINE
  5
6AD
100
AcDbEntity
  8
0
100
AcDbSpline
 62
7
  6
CONTINUOUS
 70
0
 71
3
 72
15
 73
11
 74
0
 42
0.0000001
 43
0.0000001
 44
0.0000000001
 40
0.0
 40
0.0
 40
0.0
 40
0.0
 40
0.1161898507
 40
0.2334008663
 40
0.3525857191
 40
0.474545732
 40
0.599915159
 40
0.7291807814
 40
0.862607129
 40
1.0
 40
1.0
 40
1.0
 40
1.0
 10
15.0397483384
 20
11.2689780794
 30
0.0
 10
15.0444235559
 20
11.2721427398
 30
0.0
 10
15.0533697784
 20
11.2791865346
 30
0.0
 10
15.0652342029
 20
11.2916195923
 30
0.0
 10
15.0754293
 20
11.3058020571
 30
0.0
 10
15.0838464211
 20
11.3215522633
 30
0.0
 10
15.0903863818
 20
11.3386911265
 30
0.0
 10
15.0949862883
 20
11.3570205653
 30
0.0
 10
15.0975872349
 20
11.3763222983
 30
0.0
 10
15.0979784923
 20
11.3895019351
 30
0.0
 10
15.0978500871
 20
11.3961765362
 30
0.0
  0
SPLINE
  5
6AE
100
AcDbEntity
  8
0
100
AcDbSpline
 62
7
  6
CONTINUOUS
 70
0
 71
3
 72
15
 73
11
 74
0
 42
0.0000001
 43
0.0000001
 44
0.0000000001
 40
0.0
 40
0.0
 40
0.0
 40
0.0
 40
0.1161898507
 40
0.2334008663
 40
0.3525857191
 40
0.474545732
 40
0.599915159
 40
0.7291807814
 40
0.862607129
 40
1.0
 40
1.0
 40
1.0
 40
1.0
 10
18.9720336402
 20
10.2153254083
 30
0.0
 10
18.9767088577
 20
10.2184900688
 30
0.0
 10
18.9856550802
 20
10.2255338636
 30
0.0
 10
18.9975195047
 20
10.2379669213
 30
0.0
 10
19.0077146019
 20
10.252149386
 30
0.0
 10
19.0161317229
 20
10.2678995923
 30
0.0
 10
19.0226716836
 20
10.2850384555
 30
0.0
 10
19.0272715901
 20
10.3033678942
 30
0.0
 10
19.0298725367
 20
10.3226696272
 30
0.0
 10
19.0302637941
 20
10.3358492641
 30
0.0
 10
19.0301353889
 20
10.3425238651
 30
0.0
  0
SPLINE
  5
6AF
100
AcDbEntity
  8
0
100
AcDbSpline
 62
7
  6
CONTINUOUS
 70
0
 71
3
 72
15
 73
11
 74
0
 42
0.0000001
 43
0.0000001
 44
0.0000000001
 40
0.0
 40
0.0
 40
0.0
 40
0.0
 40
0.1161898507
 40
0.2334008663
 40
0.3525857191
 40
0.474545732
 40
0.599915159
 40
0.7291807814
 40
0.862607129
 40
1.0
 40
1.0
 40
1.0
 40
1.0
 10
14.9582480207
 20
15.5054267078
 30
0.0
 10
14.9629232382
 20
15.5085913683
 30
0.0
 10
14.9718694606
 20
15.5156351631
 30
0.0
 10
14.9837338851
 20
15.5280682208
 30
0.0
 10
14.9939289823
 20
15.5422506855
 30
0.0
 10
15.0023461034
 20
15.5580008917
 30
0.0
 10
15.008886064
 20
15.575139755
 30
0.0
 10
15.0134859705
 20
15.5934691937
 30
0.0
 10
15.0160869172
 20
15.6127709267
 30
0.0
 10
15.0164781746
 20
15.6259505635
 30
0.0
 10
15.0163497694
 20
15.6326251646
 30
0.0
  0
SPLINE
  5
6B0
100
AcDbEntity
  8
0
100
AcDbSpline
 62
7
  6
CONTINUOUS
 70
0
 71
3
 72
15
 73
11
 74
0
 42
0.0000001
 43
0.0000001
 44
0.0000000001
 40
0.0
 40
0.0
 40
0.0
 40
0.0
 40
0.1161898507
 40
0.2334008663
 40
0.3525857191
 40
0.474545732
 40
0.599915159
 40
0.7291807814
 40
0.862607129
 40
1.0
 40
1.0
 40
1.0
 40
1.0
 10
18.8905333225
 20
14.4517740368
 30
0.0
 10
18.89520854
 20
14.4549386972
 30
0.0
 10
18.9041547625
 20
14.461982492
 30
0.0
 10
18.9160191869
 20
14.4744155497
 30
0.0
 10
18.9262142841
 20
14.4885980145
 30
0.0
 10
18.9346314052
 20
14.5043482207
 30
0.0
 10
18.9411713659
 20
14.521487084
 30
0.0
 10
18.9457712724
 20
14.5398165227
 30
0.0
 10
18.948372219
 20
14.5591182557
 30
0.0
 10
18.9487634764
 20
14.5722978925
 30
0.0
 10
18.9486350712
 20
14.5789724936
 30
0.0
  0
SPLINE
  5
6B1
100
AcDbEntity
  8
0
100
AcDbSpline
 62
7
  6
CONTINUOUS
 70
0
 71
3
 72
13
 73
9
 74
0
 42
0.0000001
 43
0.0000001
 44
0.0000000001
 40
0.0
 40
0.0
 40
0.0
 40
0.0
 40
0.1087759025
 40
0.2193750501
 40
0.3334925294
 40
0.4526503085
 40
0.7104369819
 40
1.0
 40
1.0
 40
1.0
 40
1.0
 10
16.155115528
 20
16.4506810006
 30
0.0
 10
16.155101509
 20
16.4513941682
 30
0.0
 10
16.1549683482
 20
16.4528324824
 30
0.0
 10
16.1544575644
 20
16.4549658141
 30
0.0
 10
16.1536378831
 20
16.4570737073
 30
0.0
 10
16.1520971143
 20
16.4599098049
 30
0.0
 10
16.149351947
 20
16.4633542322
 30
0.0
 10
16.1466335567
 20
16.4657231254
 30
0.0
 10
16.1451213872
 20
16.466871557
 30
0.0
  0
SPLINE
  5
6B2
100
AcDbEntity
  8
0
100
AcDbSpline
 62
7
  6
CONTINUOUS
 70
0
 71
3
 72
35
 73
31
 74
0
 42
0.0000001
 43
0.0000001
 44
0.0000000001
 40
0.0
 40
0.0
 40
0.0
 40
0.0
 40
0.0253139345
 40
0.0507606015
 40
0.0764299643
 40
0.1024321554
 40
0.1288651871
 40
0.1558065772
 40
0.1833198592
 40
0.2114541204
 40
0.2402414267
 40
0.2696992686
 40
0.2998297877
 40
0.3306226491
 40
0.3620545241
 40
0.3940916155
 40
0.426690208
 40
0.4597979583
 40
0.4933553595
 40
0.5272964075
 40
0.5615503365
 40
0.5960419365
 40
0.6653993785
 40
0.7347513359
 40
0.8034549509
 40
0.8709008673
 40
0.9039908803
 40
0.9365712615
 40
0.9685943499
 40
1.0
 40
1.0
 40
1.0
 40
1.0
 10
15.9681963076
 20
14.4021819364
 30
0.0
 10
15.9916649992
 20
14.4180753813
 30
0.0
 10
16.0402886424
 20
14.4477030811
 30
0.0
 10
16.1173864816
 20
14.4851272668
 30
0.0
 10
16.1983972609
 20
14.5153850374
 30
0.0
 10
16.2829168002
 20
14.5383148976
 30
0.0
 10
16.370554294
 20
14.5537976296
 30
0.0
 10
16.4608876462
 20
14.5617281892
 30
0.0
 10
16.5534668968
 20
14.562045264
 30
0.0
 10
16.647823179
 20
14.5547159393
 30
0.0
 10
16.7434734869
 20
14.5397634844
 30
0.0
 10
16.8399179256
 20
14.5172310247
 30
0.0
 10
16.9366532671
 20
14.4872260005
 30
0.0
 10
17.0331670464
 20
14.4498793058
 30
0.0
 10
17.1289511663
 20
14.4053757751
 30
0.0
 10
17.2234991441
 20
14.3539342047
 30
0.0
 10
17.3163103391
 20
14.2958104106
 30
0.0
 10
17.4068993107
 20
14.2313043101
 30
0.0
 10
17.4947850126
 20
14.1607380029
 30
0.0
 10
17.5795120598
 20
14.0844809836
 30
0.0
 10
17.6606347254
 20
14.0029156816
 30
0.0
 10
17.763600059
 20
13.8874643201
 30
0.0
 10
17.8808300764
 20
13.732468924
 30
0.0
 10
18.0006887853
 20
13.5330432065
 30
0.0
 10
18.0976033765
 20
13.3238617207
 30
0.0
 10
18.1579979448
 20
13.1437799599
 30
0.0
 10
18.1929467481
 20
12.998811027
 30
0.0
 10
18.2122407343
 20
12.8910677358
 30
0.0
 10
18.2246760013
 20
12.7842226338
 30
0.0
 10
18.2284087922
 20
12.7132407749
 30
0.0
 10
18.2290851647
 20
12.6780824171
 30
0.0
  0
SPLINE
  5
6B3
100
AcDbEntity
  8
0
100
AcDbSpline
 62
7
  6
CONTINUOUS
 70
0
 71
3
 72
22
 73
18
 74
0
 42
0.0000001
 43
0.0000001
 44
0.0000000001
 40
0.0
 40
0.0
 40
0.0
 40
0.0
 40
0.1388633625
 40
0.2066310757
 40
0.2732459397
 40
0.3387223322
 40
0.4030837542
 40
0.4663623039
 40
0.5286047072
 40
0.5898776694
 40
0.6502597899
 40
0.7098445848
 40
0.7687362137
 40
0.827061512
 40
0.8849642085
 40
0.9425756506
 40
1.0
 40
1.0
 40
1.0
 40
1.0
 10
18.2290851647
 20
12.6780824171
 30
0.0
 10
18.230070844
 20
12.6268460578
 30
0.0
 10
18.2278388952
 20
12.5504494978
 30
0.0
 10
18.2169423034
 20
12.4501672462
 30
0.0
 10
18.2050249731
 20
12.3773408751
 30
0.0
 10
18.1893428813
 20
12.306519812
 30
0.0
 10
18.1699509847
 20
12.2378993498
 30
0.0
 10
18.1469195292
 20
12.1716737605
 30
0.0
 10
18.1203178821
 20
12.1080313333
 30
0.0
 10
18.0902399832
 20
12.0471440551
 30
0.0
 10
18.0567723278
 20
11.9891798197
 30
0.0
 10
18.0200257168
 20
11.9342894038
 30
0.0
 10
17.9801051966
 20
11.882616014
 30
0.0
 10
17.9371205794
 20
11.834288342
 30
0.0
 10
17.8911854135
 20
11.7894266921
 30
0.0
 10
17.8424380927
 20
11.7481550145
 30
0.0
 10
17.8081299684
 20
11.7230788748
 30
0.0
 10
17.7905832827
 20
11.7111959251
 30
0.0
  0
SPLINE
  5
6B4
100
AcDbEntity
  8
02___PRT_ALL_AXES
100
AcDbSpline
 62
7
  6
CONTINUOUS
 70
0
 71
3
 72
25
 73
21
 74
0
 42
0.0000001
 43
0.0000001
 44
0.0000000001
 40
0.0
 40
0.0
 40
0.0
 40
0.0
 40
0.0297733902
 40
0.059954714
 40
0.121408032
 40
0.1841860429
 40
0.2480762353
 40
0.312818631
 40
0.3781316278
 40
0.4437158546
 40
0.5092637586
 40
0.5744693774
 40
0.6390364979
 40
0.7026877546
 40
0.7340978305
 40
0.7651885911
 40
0.8262980504
 40
0.8858655152
 40
0.943781272
 40
1.0
 40
1.0
 40
1.0
 40
1.0
 10
15.9278318441
 20
13.7966890817
 30
0.0
 10
15.9283599134
 20
13.7692396369
 30
0.0
 10
15.93075797
 20
13.7139811298
 30
0.0
 10
15.940806289
 20
13.6024491383
 30
0.0
 10
15.9632867411
 20
13.4616393217
 30
0.0
 10
16.0053904439
 20
13.2931493488
 30
0.0
 10
16.0623232385
 20
13.125870606
 30
0.0
 10
16.1334798439
 20
12.9615895321
 30
0.0
 10
16.2180956382
 20
12.8020530739
 30
0.0
 10
16.3152687018
 20
12.6489612637
 30
0.0
 10
16.4239612547
 20
12.5039451396
 30
0.0
 10
16.5430173666
 20
12.368549376
 30
0.0
 10
16.6711637167
 20
12.2442236398
 30
0.0
 10
16.7849167512
 20
12.150517614
 30
0.0
 10
16.8792258778
 20
12.0823633242
 30
0.0
 10
16.9744068159
 20
12.0195985505
 30
0.0
 10
17.0961884703
 20
11.950239538
 30
0.0
 10
17.2463759156
 20
11.8820892705
 30
0.0
 10
17.3981864182
 20
11.8302295606
 30
0.0
 10
17.5009720578
 20
11.806542701
 30
0.0
 10
17.5520551634
 20
11.7977153389
 30
0.0
  0
SPLINE
  5
6B5
100
AcDbEntity
  8
0
100
AcDbSpline
 62
7
  6
CONTINUOUS
 70
0
 71
3
 72
12
 73
8
 74
0
 42
0.0000001
 43
0.0000001
 44
0.0000000001
 40
0.0
 40
0.0
 40
0.0
 40
0.0
 40
0.2897779647
 40
0.5477458665
 40
0.7805956877
 40
0.8912047375
 40
1.0
 40
1.0
 40
1.0
 40
1.0
 10
15.48009196
 20
16.6054049177
 30
0.0
 10
15.4786250231
 20
16.6041985416
 30
0.0
 10
15.4759969994
 20
16.6017265171
 30
0.0
 10
15.4729413821
 20
16.597582027
 30
0.0
 10
15.4713699673
 20
16.593915439
 30
0.0
 10
15.4707892964
 20
16.5909999734
 30
0.0
 10
15.4707127083
 20
16.5895579278
 30
0.0
 10
15.4707267227
 20
16.5888449948
 30
0.0
  0
SPLINE
  5
6B6
100
AcDbEntity
  8
0
100
AcDbSpline
 62
7
  6
CONTINUOUS
 70
0
 71
3
 72
21
 73
17
 74
0
 42
0.0000001
 43
0.0000001
 44
0.0000000001
 40
0.0
 40
0.0
 40
0.0
 40
0.0
 40
0.0466099851
 40
0.0984126407
 40
0.1551489371
 40
0.2163524991
 40
0.2813642624
 40
0.3494311527
 40
0.4911566882
 40
0.6341791968
 40
0.7038280838
 40
0.770989343
 40
0.834844631
 40
0.8946937379
 40
0.9499175391
 40
1.0
 40
1.0
 40
1.0
 40
1.0
 10
15.6006605836
 20
16.6213760304
 30
0.0
 10
15.5993575605
 20
16.6223663649
 30
0.0
 10
15.5964421789
 20
16.6242442017
 30
0.0
 10
15.5915424707
 20
16.6266459335
 30
0.0
 10
15.5859565343
 20
16.6287479283
 30
0.0
 10
15.5797737814
 20
16.6305142525
 30
0.0
 10
15.5730928481
 20
16.6319202668
 30
0.0
 10
15.563536446
 20
16.6332955052
 30
0.0
 10
15.5511374362
 20
16.6339617975
 30
0.0
 10
15.5386850068
 20
16.6332762434
 30
0.0
 10
15.5289515903
 20
16.6318952028
 30
0.0
 10
15.5220433824
 20
16.6304835541
 30
0.0
 10
15.5155750719
 20
16.6287090528
 30
0.0
 10
15.5096492664
 20
16.626600447
 30
0.0
 10
15.5043665212
 20
16.6241902033
 30
0.0
 10
15.5011657285
 20
16.6223196255
 30
0.0
 10
15.4997096282
 20
16.6213335267
 30
0.0
  0
SPLINE
  5
6B7
100
AcDbEntity
  8
0
100
AcDbSpline
 62
7
  6
CONTINUOUS
 70
0
 71
3
 72
13
 73
9
 74
0
 42
0.0000001
 43
0.0000001
 44
0.0000000001
 40
0.0
 40
0.0
 40
0.0
 40
0.0
 40
0.1087759025
 40
0.2193750501
 40
0.3334925294
 40
0.4526503085
 40
0.7104369819
 40
1.0
 40
1.0
 40
1.0
 40
1.0
 10
15.6281761241
 20
16.5918739884
 30
0.0
 10
15.628162105
 20
16.592587156
 30
0.0
 10
15.6280289443
 20
16.5940254701
 30
0.0
 10
15.6275181605
 20
16.5961588019
 30
0.0
 10
15.6266984792
 20
16.598266695
 30
0.0
 10
15.6251577104
 20
16.6011027927
 30
0.0
 10
15.6224125431
 20
16.6045472199
 30
0.0
 10
15.6196941528
 20
16.6069161131
 30
0.0
 10
15.6181819832
 20
16.6080645447
 30
0.0
  0
SPLINE
  5
6B8
100
AcDbEntity
  8
0
100
AcDbSpline
 62
7
  6
CONTINUOUS
 70
0
 71
3
 72
33
 73
29
 74
0
 42
0.0000001
 43
0.0000001
 44
0.0000000001
 40
0.0
 40
0.0
 40
0.0
 40
0.0
 40
0.0259444222
 40
0.0521945344
 40
0.0788155366
 40
0.1058638206
 40
0.1195655557
 40
0.1333906258
 40
0.1614227324
 40
0.1899905442
 40
0.2191097657
 40
0.2487854665
 40
0.2790137458
 40
0.3410391077
 40
0.4050135677
 40
0.470624884
 40
0.5374752785
 40
0.6051058558
 40
0.6730206801
 40
0.740710628
 40
0.7743247878
 40
0.8076982394
 40
0.8407743572
 40
0.8734992732
 40
0.9058231193
 40
0.9377068693
 40
0.9691152056
 40
1.0
 40
1.0
 40
1.0
 40
1.0
 10
17.9570446163
 20
11.857750678
 30
0.0
 10
17.9315636311
 20
11.8484630196
 30
0.0
 10
17.879476226
 20
11.831964093
 30
0.0
 10
17.7990434661
 20
11.8137085205
 30
0.0
 10
17.7162515986
 20
11.8018816678
 30
0.0
 10
17.6458890151
 20
11.7974491212
 30
0.0
 10
17.5888289562
 20
11.797109813
 30
0.0
 10
17.5307675596
 20
11.7989390324
 30
0.0
 10
17.457357882
 20
11.8053431451
 30
0.0
 10
17.3687964969
 20
11.8194408121
 30
0.0
 10
17.2797312069
 20
11.8399332223
 30
0.0
 10
17.1905406997
 20
11.8667206227
 30
0.0
 10
17.070966198
 20
11.9110556135
 30
0.0
 10
16.9233369912
 20
11.9818603962
 30
0.0
 10
16.7534168758
 20
12.0886558001
 30
0.0
 10
16.5919974116
 20
12.2161969657
 30
0.0
 10
16.4418192467
 20
12.3622986932
 30
0.0
 10
16.30541026
 20
12.5244813957
 30
0.0
 10
16.1850870785
 20
12.6999774907
 30
0.0
 10
16.0996951104
 20
12.8552544411
 30
0.0
 10
16.0412641765
 20
12.9833946118
 30
0.0
 10
16.0027106862
 20
13.0806823756
 30
0.0
 10
15.9695057603
 20
13.1789409195
 30
0.0
 10
15.9417837482
 20
13.2777481342
 30
0.0
 10
15.9196700162
 20
13.3766842777
 30
0.0
 10
15.903254723
 20
13.4753322379
 30
0.0
 10
15.8926207514
 20
13.5732551557
 30
0.0
 10
15.8893771896
 20
13.638337755
 30
0.0
 10
15.8887562044
 20
13.6706170369
 30
0.0
  0
SPLINE
  5
6B9
100
AcDbEntity
  8
0
100
AcDbSpline
 62
7
  6
CONTINUOUS
 70
0
 71
3
 72
13
 73
9
 74
0
 42
0.0000001
 43
0.0000001
 44
0.0000000001
 40
0.0
 40
0.0
 40
0.0
 40
0.0
 40
0.2982573895
 40
0.4332799964
 40
0.5593402348
 40
0.7884221069
 40
0.8954018704
 40
1.0
 40
1.0
 40
1.0
 40
1.0
 10
16.1422583178
 20
16.4315140007
 30
0.0
 10
16.1442354633
 20
16.4328529613
 30
0.0
 10
16.1469871376
 20
16.4350000044
 30
0.0
 10
16.1500899851
 20
16.4382397785
 30
0.0
 10
16.1524854472
 20
16.441353346
 30
0.0
 10
16.1541992059
 20
16.4446985288
 30
0.0
 10
16.1550196987
 20
16.4481437169
 30
0.0
 10
16.1551319863
 20
16.4498437425
 30
0.0
 10
16.155115528
 20
16.4506810006
 30
0.0
  0
SPLINE
  5
6BA
100
AcDbEntity
  8
0
100
AcDbSpline
 62
7
  6
CONTINUOUS
 70
0
 71
3
 72
13
 73
9
 74
0
 42
0.0000001
 43
0.0000001
 44
0.0000000001
 40
0.0
 40
0.0
 40
0.0
 40
0.0
 40
0.298256865
 40
0.4332542835
 40
0.5592951489
 40
0.7883841576
 40
0.895382309
 40
1.0
 40
1.0
 40
1.0
 40
1.0
 10
16.1488111072
 20
16.0908950155
 30
0.0
 10
16.1507888576
 20
16.0922343857
 30
0.0
 10
16.153541699
 20
16.0943812686
 30
0.0
 10
16.156645864
 20
16.0976212281
 30
0.0
 10
16.1590418431
 20
16.100735586
 30
0.0
 10
16.1607549291
 20
16.1040826267
 30
0.0
 10
16.1615739045
 20
16.1075296753
 30
0.0
 10
16.1616852028
 20
16.1092306075
 30
0.0
 10
16.1616681903
 20
16.1100682689
 30
0.0
  0
SPLINE
  5
6BB
100
AcDbEntity
  8
0
100
AcDbSpline
 62
7
  6
CONTINUOUS
 70
0
 71
3
 72
17
 73
13
 74
0
 42
0.0000001
 43
0.0000001
 44
0.0000000001
 40
0.0
 40
0.0
 40
0.0
 40
0.0
 40
0.1526006222
 40
0.2874605455
 40
0.4067419341
 40
0.462231721
 40
0.5160341702
 40
0.5691656715
 40
0.6226927912
 40
0.7346337451
 40
0.8589863819
 40
1.0
 40
1.0
 40
1.0
 40
1.0
 10
15.5985107664
 20
16.5948598415
 30
0.0
 10
15.5998903599
 20
16.5957941284
 30
0.0
 10
15.6023838454
 20
16.5977225957
 30
0.0
 10
15.6054129917
 20
16.6010040749
 30
0.0
 10
15.6071218538
 20
16.6039676861
 30
0.0
 10
15.6078848827
 20
16.6063525079
 30
0.0
 10
15.6081686411
 20
16.608110296
 30
0.0
 10
15.6081722936
 20
16.6098697954
 30
0.0
 10
15.6078008562
 20
16.6122365054
 30
0.0
 10
15.6065841533
 20
16.6152093028
 30
0.0
 10
15.6040733396
 20
16.6185176829
 30
0.0
 10
15.6018863944
 20
16.6204443795
 30
0.0
 10
15.6006605836
 20
16.6213760304
 30
0.0
  0
SPLINE
  5
6BC
100
AcDbEntity
  8
0
100
AcDbSpline
 62
7
  6
CONTINUOUS
 70
0
 71
3
 72
25
 73
21
 74
0
 42
0.0000001
 43
0.0000001
 44
0.0000000001
 40
0.0
 40
0.0
 40
0.0
 40
0.0
 40
0.0666040087
 40
0.1313817293
 40
0.1943774261
 40
0.2558070522
 40
0.3159568771
 40
0.3751629424
 40
0.4338214329
 40
0.4923620602
 40
0.5512203022
 40
0.6108132575
 40
0.6410186256
 40
0.6715438662
 40
0.7024256632
 40
0.7336947626
 40
0.797473829
 40
0.8630797759
 40
0.9306124822
 40
1.0
 40
1.0
 40
1.0
 40
1.0
 10
14.854360077
 20
16.0484266771
 30
0.0
 10
14.8424689185
 20
16.0516129034
 30
0.0
 10
14.8186884553
 20
16.0567642288
 30
0.0
 10
14.7829119043
 20
16.0607055344
 30
0.0
 10
14.7478654624
 20
16.0606898221
 30
0.0
 10
14.7139015289
 20
16.056714815
 30
0.0
 10
14.6813455016
 20
16.0488132676
 30
0.0
 10
14.6505207945
 20
16.0370494159
 30
0.0
 10
14.6217346296
 20
16.0215398994
 30
0.0
 10
14.5952801428
 20
16.002429323
 30
0.0
 10
14.571415978
 20
15.9799213377
 30
0.0
 10
14.5539606365
 20
15.9585989053
 30
0.0
 10
14.541518807
 20
15.9401515888
 30
0.0
 10
14.5329179163
 20
15.9255530591
 30
0.0
 10
14.5251124232
 20
15.9102938756
 30
0.0
 10
14.5157260775
 20
15.8889823434
 30
0.0
 10
14.5061011236
 20
15.8608213153
 30
0.0
 10
14.4980672519
 20
15.825255958
 30
0.0
 10
14.4935480703
 20
15.7880374323
 30
0.0
 10
14.4929007326
 20
15.7626956979
 30
0.0
 10
14.4931474152
 20
15.7498729524
 30
0.0
  0
SPLINE
  5
6BD
100
AcDbEntity
  8
0
100
AcDbSpline
 62
7
  6
CONTINUOUS
 70
0
 71
3
 72
32
 73
28
 74
0
 42
0.0000001
 43
0.0000001
 44
0.0000000001
 40
0.0
 40
0.0
 40
0.0
 40
0.0
 40
0.0244998854
 40
0.0469295668
 40
0.0675037289
 40
0.0866467491
 40
0.1049347965
 40
0.1230502798
 40
0.1416944343
 40
0.1614899405
 40
0.1829344357
 40
0.2063568415
 40
0.231948007
 40
0.2597984409
 40
0.2898887862
 40
0.3221345736
 40
0.3564089807
 40
0.3925226699
 40
0.4693451308
 40
0.550584557
 40
0.6339116506
 40
0.7168743128
 40
0.7970418154
 40
0.8721372205
 40
0.9402818949
 40
0.9712773465
 40
1.0
 40
1.0
 40
1.0
 40
1.0
 10
16.0240298291
 20
16.478189807
 30
0.0
 10
16.0231793341
 20
16.4774901626
 30
0.0
 10
16.0216179318
 20
16.4760632284
 30
0.0
 10
16.0196549733
 20
16.4737362086
 30
0.0
 10
16.0182046256
 20
16.4713325565
 30
0.0
 10
16.0172860758
 20
16.4688741981
 30
0.0
 10
16.016915265
 20
16.4663847841
 30
0.0
 10
16.017106448
 20
16.4638970236
 30
0.0
 10
16.0178500635
 20
16.4614467345
 30
0.0
 10
16.0191296078
 20
16.459061016
 30
0.0
 10
16.0209283733
 20
16.4567627007
 30
0.0
 10
16.0232215233
 20
16.4545653516
 30
0.0
 10
16.025988022
 20
16.4524840569
 30
0.0
 10
16.0292051291
 20
16.4505375033
 30
0.0
 10
16.032842901
 20
16.4487389018
 30
0.0
 10
16.0368697554
 20
16.4471037907
 30
0.0
 10
16.0412509717
 20
16.4456490482
 30
0.0
 10
16.0476437684
 20
16.4439286332
 30
0.0
 10
16.0562417316
 20
16.4423381561
 30
0.0
 10
16.0670581484
 20
16.4413298949
 30
0.0
 10
16.0781970814
 20
16.4412248949
 30
0.0
 10
16.0892590492
 20
16.4420256439
 30
0.0
 10
16.0998500079
 20
16.4437020474
 30
0.0
 10
16.109594162
 20
16.4461936115
 30
0.0
 10
16.1169464209
 20
16.4489591616
 30
0.0
 10
16.1220837747
 20
16.4515463905
 30
0.0
 10
16.1243811375
 20
16.4529428844
 30
0.0
 10
16.1254501704
 20
16.4536668537
 30
0.0
  0
SPLINE
  5
6BE
100
AcDbEntity
  8
0
100
AcDbSpline
 62
7
  6
CONTINUOUS
 70
0
 71
3
 72
22
 73
18
 74
0
 42
0.0000001
 43
0.0000001
 44
0.0000000001
 40
0.0
 40
0.0
 40
0.0
 40
0.0
 40
0.0692191391
 40
0.1374503359
 40
0.270744577
 40
0.3358662485
 40
0.3999885668
 40
0.4631455082
 40
0.5253826619
 40
0.5867621884
 40
0.6473579938
 40
0.7072565779
 40
0.7665547786
 40
0.8253595077
 40
0.8837865175
 40
0.9419577081
 40
1.0
 40
1.0
 40
1.0
 40
1.0
 10
15.5200508016
 20
13.4209227163
 30
0.0
 10
15.5195515509
 20
13.446874149
 30
0.0
 10
15.5198279043
 20
13.4984433173
 30
0.0
 10
15.5255255789
 20
13.5998373795
 30
0.0
 10
15.5389371843
 20
13.6991605577
 30
0.0
 10
15.5602916061
 20
13.7953082178
 30
0.0
 10
15.5799743984
 20
13.8647639814
 30
0.0
 10
15.6033840943
 20
13.9319087676
 30
0.0
 10
15.6304649509
 20
13.9965478987
 30
0.0
 10
15.661131647
 20
14.0584969564
 30
0.0
 10
15.6953034047
 20
14.1175751448
 30
0.0
 10
15.7328803895
 20
14.1736126453
 30
0.0
 10
15.7737545552
 20
14.2264481597
 30
0.0
 10
15.8178130922
 20
14.2759238857
 30
0.0
 10
15.8649236689
 20
14.3219025967
 30
0.0
 10
15.9149538622
 20
14.3642407916
 30
0.0
 10
15.9501753878
 20
14.3899768277
 30
0.0
 10
15.9681965152
 20
14.4021816299
 30
0.0
  0
SPLINE
  5
6BF
100
AcDbEntity
  8
0
100
AcDbSpline
 62
7
  6
CONTINUOUS
 70
0
 71
3
 72
13
 73
9
 74
0
 42
0.0000001
 43
0.0000001
 44
0.0000000001
 40
0.0
 40
0.0
 40
0.0
 40
0.0
 40
0.2982573895
 40
0.4332799964
 40
0.5593402348
 40
0.7884221069
 40
0.8954018704
 40
1.0
 40
1.0
 40
1.0
 40
1.0
 10
15.6153189139
 20
16.5727069885
 30
0.0
 10
15.6172960594
 20
16.574045949
 30
0.0
 10
15.6200477337
 20
16.5761929922
 30
0.0
 10
15.6231505812
 20
16.5794327662
 30
0.0
 10
15.6255460432
 20
16.5825463337
 30
0.0
 10
15.627259802
 20
16.5858915165
 30
0.0
 10
15.6280802948
 20
16.5893367046
 30
0.0
 10
15.6281925824
 20
16.5910367303
 30
0.0
 10
15.6281761241
 20
16.5918739884
 30
0.0
  0
SPLINE
  5
6C0
100
AcDbEntity
  8
0
100
AcDbSpline
 62
7
  6
CONTINUOUS
 70
0
 71
3
 72
13
 73
9
 74
0
 42
0.0000001
 43
0.0000001
 44
0.0000000001
 40
0.0
 40
0.0
 40
0.0
 40
0.0
 40
0.298256865
 40
0.4332542835
 40
0.5592951489
 40
0.7883841576
 40
0.895382309
 40
1.0
 40
1.0
 40
1.0
 40
1.0
 10
15.6218717033
 20
16.2320880033
 30
0.0
 10
15.6238494536
 20
16.2334273735
 30
0.0
 10
15.6266022951
 20
16.2355742563
 30
0.0
 10
15.6297064601
 20
16.2388142158
 30
0.0
 10
15.6321024391
 20
16.2419285737
 30
0.0
 10
15.6338155252
 20
16.2452756144
 30
0.0
 10
15.6346345006
 20
16.2487226631
 30
0.0
 10
15.6347457988
 20
16.2504235952
 30
0.0
 10
15.6347287863
 20
16.2512612566
 30
0.0
  0
SPLINE
  5
6C1
100
AcDbEntity
  8
0
100
AcDbSpline
 62
7
  6
CONTINUOUS
 70
0
 71
3
 72
15
 73
11
 74
0
 42
0.0000001
 43
0.0000001
 44
0.0000000001
 40
0.0
 40
0.0
 40
0.0
 40
0.0
 40
0.1161898507
 40
0.2334008663
 40
0.3525857191
 40
0.474545732
 40
0.599915159
 40
0.7291807814
 40
0.862607129
 40
1.0
 40
1.0
 40
1.0
 40
1.0
 10
14.8035611094
 20
11.6177978035
 30
0.0
 10
14.7988858919
 20
11.6146331431
 30
0.0
 10
14.7899396695
 20
11.6075893483
 30
0.0
 10
14.778075245
 20
11.5951562906
 30
0.0
 10
14.7678801478
 20
11.5809738258
 30
0.0
 10
14.7594630267
 20
11.5652236196
 30
0.0
 10
14.7529230661
 20
11.5480847564
 30
0.0
 10
14.7483231596
 20
11.5297553177
 30
0.0
 10
14.7457222129
 20
11.5104535846
 30
0.0
 10
14.7453309555
 20
11.4972739478
 30
0.0
 10
14.7454593607
 20
11.4905993467
 30
0.0
  0
SPLINE
  5
6C2
100
AcDbEntity
  8
0
100
AcDbSpline
 62
7
  6
CONTINUOUS
 70
0
 71
3
 72
15
 73
11
 74
0
 42
0.0000001
 43
0.0000001
 44
0.0000000001
 40
0.0
 40
0.0
 40
0.0
 40
0.0
 40
0.1161898507
 40
0.2334008663
 40
0.3525857191
 40
0.474545732
 40
0.599915159
 40
0.7291807814
 40
0.862607129
 40
1.0
 40
1.0
 40
1.0
 40
1.0
 10
18.7358464112
 20
10.5641451325
 30
0.0
 10
18.7311711937
 20
10.5609804721
 30
0.0
 10
18.7222249713
 20
10.5539366773
 30
0.0
 10
18.7103605468
 20
10.5415036196
 30
0.0
 10
18.7001654496
 20
10.5273211548
 30
0.0
 10
18.6917483285
 20
10.5115709486
 30
0.0
 10
18.6852083679
 20
10.4944320853
 30
0.0
 10
18.6806084614
 20
10.4761026466
 30
0.0
 10
18.6780075147
 20
10.4568009136
 30
0.0
 10
18.6776162573
 20
10.4436212768
 30
0.0
 10
18.6777446625
 20
10.4369466757
 30
0.0
  0
SPLINE
  5
6C3
100
AcDbEntity
  8
0
100
AcDbSpline
 62
7
  6
CONTINUOUS
 70
0
 71
3
 72
15
 73
11
 74
0
 42
0.0000001
 43
0.0000001
 44
0.0000000001
 40
0.0
 40
0.0
 40
0.0
 40
0.0
 40
0.1161898507
 40
0.2334008663
 40
0.3525857191
 40
0.474545732
 40
0.599915159
 40
0.7291807814
 40
0.862607129
 40
1.0
 40
1.0
 40
1.0
 40
1.0
 10
14.7220607917
 20
15.854246432
 30
0.0
 10
14.7173855742
 20
15.8510817715
 30
0.0
 10
14.7084393517
 20
15.8440379767
 30
0.0
 10
14.6965749272
 20
15.8316049191
 30
0.0
 10
14.68637983
 20
15.8174224543
 30
0.0
 10
14.677962709
 20
15.8016722481
 30
0.0
 10
14.6714227483
 20
15.7845333848
 30
0.0
 10
14.6668228418
 20
15.7662039461
 30
0.0
 10
14.6642218952
 20
15.7469022131
 30
0.0
 10
14.6638306378
 20
15.7337225763
 30
0.0
 10
14.663959043
 20
15.7270479752
 30
0.0
  0
SPLINE
  5
6C4
100
AcDbEntity
  8
0
100
AcDbSpline
 62
7
  6
CONTINUOUS
 70
0
 71
3
 72
15
 73
11
 74
0
 42
0.0000001
 43
0.0000001
 44
0.0000000001
 40
0.0
 40
0.0
 40
0.0
 40
0.0
 40
0.1161898507
 40
0.2334008663
 40
0.3525857191
 40
0.474545732
 40
0.599915159
 40
0.7291807814
 40
0.862607129
 40
1.0
 40
1.0
 40
1.0
 40
1.0
 10
18.6543460935
 20
14.800593761
 30
0.0
 10
18.649670876
 20
14.7974291005
 30
0.0
 10
18.6407246535
 20
14.7903853057
 30
0.0
 10
18.628860229
 20
14.777952248
 30
0.0
 10
18.6186651319
 20
14.7637697833
 30
0.0
 10
18.6102480108
 20
14.748019577
 30
0.0
 10
18.6037080501
 20
14.7308807138
 30
0.0
 10
18.5991081436
 20
14.7125512751
 30
0.0
 10
18.596507197
 20
14.6932495421
 30
0.0
 10
18.5961159396
 20
14.6800699052
 30
0.0
 10
18.5962443448
 20
14.6733953042
 30
0.0
  0
SPLINE
  5
6C5
100
AcDbEntity
  8
0
100
AcDbSpline
 62
7
  6
CONTINUOUS
 70
0
 71
3
 72
26
 73
22
 74
0
 42
0.0000001
 43
0.0000001
 44
0.0000000001
 40
0.0
 40
0.0
 40
0.0
 40
0.0
 40
0.0170467153
 40
0.034550749
 40
0.0529270509
 40
0.0725154585
 40
0.1161738712
 40
0.1405884025
 40
0.1667710929
 40
0.224346328
 40
0.2884428709
 40
0.3581267493
 40
0.4321574959
 40
0.5091073959
 40
0.587411684
 40
0.6654631673
 40
0.7416559565
 40
0.8144564121
 40
0.8824915552
 40
0.9446470273
 40
1.0
 40
1.0
 40
1.0
 40
1.0
 10
15.9976661267
 20
16.4476520071
 30
0.0
 10
15.9976840081
 20
16.4467423523
 30
0.0
 10
15.9978925797
 20
16.4448978042
 30
0.0
 10
15.9987128063
 20
16.4421804195
 30
0.0
 10
16.0000344759
 20
16.4395170339
 30
0.0
 10
16.0025359556
 20
16.435934584
 30
0.0
 10
16.0059501604
 20
16.4326669125
 30
0.0
 10
16.0100275531
 20
16.429716908
 30
0.0
 10
16.0149737379
 20
16.4267259595
 30
0.0
 10
16.0221581395
 20
16.4234041338
 30
0.0
 10
16.0318643522
 20
16.4201746894
 30
0.0
 10
16.0426828047
 20
16.4176656795
 30
0.0
 10
16.0543441869
 20
16.4159366868
 30
0.0
 10
16.0665589443
 20
16.4150354367
 30
0.0
 10
16.0790207711
 20
16.4149834577
 30
0.0
 10
16.0914167798
 20
16.4157816495
 30
0.0
 10
16.1034353124
 20
16.4174125283
 30
0.0
 10
16.1147757194
 20
16.4198301331
 30
0.0
 10
16.1251590044
 20
16.4229772125
 30
0.0
 10
16.1343237912
 20
16.4267722669
 30
0.0
 10
16.1398121355
 20
16.4298573993
 30
0.0
 10
16.1422583178
 20
16.4315140007
 30
0.0
  0
SPLINE
  5
6C6
100
AcDbEntity
  8
0
100
AcDbSpline
 62
7
  6
CONTINUOUS
 70
0
 71
3
 72
26
 73
22
 74
0
 42
0.0000001
 43
0.0000001
 44
0.0000000001
 40
0.0
 40
0.0
 40
0.0
 40
0.0
 40
0.0170465134
 40
0.0345522133
 40
0.0529311758
 40
0.0725226872
 40
0.1161880359
 40
0.1406060219
 40
0.1667919221
 40
0.2243724081
 40
0.2884721218
 40
0.3581570008
 40
0.4321866496
 40
0.5091336275
 40
0.5874335394
 40
0.6654796162
 40
0.7416665455
 40
0.8144606119
 40
0.882489707
 40
0.9446450119
 40
1.0
 40
1.0
 40
1.0
 40
1.0
 10
16.0042191732
 20
16.107020009
 30
0.0
 10
16.0042376464
 20
16.1061104219
 30
0.0
 10
16.0044474099
 20
16.1042660283
 30
0.0
 10
16.0052692346
 20
16.1015490545
 30
0.0
 10
16.0065923617
 20
16.0988861256
 30
0.0
 10
16.0090956509
 20
16.0953043906
 30
0.0
 10
16.0125112535
 20
16.0920375403
 30
0.0
 10
16.0165897667
 20
16.0890882758
 30
0.0
 10
16.0215368632
 20
16.0860981709
 30
0.0
 10
16.0287219775
 20
16.0827773831
 30
0.0
 10
16.0384285551
 20
16.0795490761
 30
0.0
 10
16.049246849
 20
16.0770411225
 30
0.0
 10
16.0609076144
 20
16.0753130768
 30
0.0
 10
16.0731213701
 20
16.0744126367
 30
0.0
 10
16.0855818993
 20
16.074361235
 30
0.0
 10
16.0979764324
 20
16.0751598159
 30
0.0
 10
16.1099933432
 20
16.0767911892
 30
0.0
 10
16.1213321665
 20
16.0792085955
 30
0.0
 10
16.1317145162
 20
16.0823547097
 30
0.0
 10
16.1408778438
 20
16.0861517562
 30
0.0
 10
16.1463649569
 20
16.0892384359
 30
0.0
 10
16.1488111072
 20
16.0908950155
 30
0.0
  0
SPLINE
  5
6C7
100
AcDbEntity
  8
0
100
AcDbSpline
 62
7
  6
CONTINUOUS
 70
0
 71
3
 72
52
 73
48
 74
0
 42
0.0000001
 43
0.0000001
 44
0.0000000001
 40
0.0
 40
0.0
 40
0.0
 40
0.0
 40
0.0315980704
 40
0.0623339662
 40
0.0922000209
 40
0.1212386997
 40
0.1495207276
 40
0.1634170883
 40
0.1771682608
 40
0.1907929866
 40
0.2043117858
 40
0.2177468309
 40
0.2311213693
 40
0.244459685
 40
0.2577865072
 40
0.2711268044
 40
0.2845053009
 40
0.2979461518
 40
0.3114726371
 40
0.3251066478
 40
0.3388687407
 40
0.3527774887
 40
0.3668495956
 40
0.3810997199
 40
0.3955400582
 40
0.4250192537
 40
0.4553516487
 40
0.4708490585
 40
0.4865634705
 40
0.5186208158
 40
0.5349603832
 40
0.5514937343
 40
0.5850938453
 40
0.619332897
 40
0.6540964402
 40
0.6892553811
 40
0.7246698873
 40
0.7601933625
 40
0.7956764834
 40
0.8309708804
 40
0.8485052603
 40
0.865939479
 40
0.9004354694
 40
0.9174726741
 40
0.9343483067
 40
0.9675653052
 40
1.0
 40
1.0
 40
1.0
 40
1.0
 10
15.4383076533
 20
13.4122565483
 30
0.0
 10
15.4373652566
 20
13.4612430475
 30
0.0
 10
15.4398271858
 20
13.5580296686
 30
0.0
 10
15.4571030584
 20
13.7001680347
 30
0.0
 10
15.4877856573
 20
13.8359971052
 30
0.0
 10
15.5315843353
 20
13.9641761418
 30
0.0
 10
15.5789987341
 20
14.06421111
 30
0.0
 10
15.6230486728
 20
14.1389663071
 30
0.0
 10
15.6588534293
 20
14.1920595217
 30
0.0
 10
15.6975254047
 20
14.2423648634
 30
0.0
 10
15.7389772532
 20
14.2897579796
 30
0.0
 10
15.7831021981
 20
14.3341283749
 30
0.0
 10
15.8297989546
 20
14.3753631023
 30
0.0
 10
15.8789520009
 20
14.4133632704
 30
0.0
 10
15.9304404577
 20
14.448039037
 30
0.0
 10
15.9841431237
 20
14.4792994339
 30
0.0
 10
16.0399247471
 20
14.5070761642
 30
0.0
 10
16.0976524347
 20
14.5312971328
 30
0.0
 10
16.1571850168
 20
14.5519042705
 30
0.0
 10
16.2183765559
 20
14.568853322
 30
0.0
 10
16.2810804763
 20
14.5820959306
 30
0.0
 10
16.3451431158
 20
14.5916087087
 30
0.0
 10
16.4104098516
 20
14.5973661888
 30
0.0
 10
16.4767245789
 20
14.599353476
 30
0.0
 10
16.5669305326
 20
14.596964264
 30
0.0
 10
16.6816115862
 20
14.584349906
 30
0.0
 10
16.7959353387
 20
14.5595658966
 30
0.0
 10
16.8875055553
 20
14.5325893117
 30
0.0
 10
16.9802100458
 20
14.5003963926
 30
0.0
 10
17.0717560026
 20
14.4612318435
 30
0.0
 10
17.1615429151
 20
14.4156306512
 30
0.0
 10
17.2513779684
 20
14.3650394914
 30
0.0
 10
17.3612124951
 20
14.2936649411
 30
0.0
 10
17.4873327718
 20
14.1964223361
 30
0.0
 10
17.6072994866
 20
14.0880449137
 30
0.0
 10
17.719962499
 20
13.9695747983
 30
0.0
 10
17.8242472525
 20
13.8421446844
 30
0.0
 10
17.9191591456
 20
13.7069737428
 30
0.0
 10
18.0037880721
 20
13.5653597061
 30
0.0
 10
18.0652135351
 20
13.4428197843
 30
0.0
 10
18.1084655042
 20
13.3427987113
 30
0.0
 10
18.1474413992
 20
13.2423655528
 30
0.0
 10
18.1803758218
 20
13.1404870915
 30
0.0
 10
18.2069334642
 20
13.0377675897
 30
0.0
 10
18.2288998479
 20
12.935995057
 30
0.0
 10
18.2481893109
 20
12.8093362627
 30
0.0
 10
18.25481943
 20
12.7075988103
 30
0.0
 10
18.2557867786
 20
12.657315292
 30
0.0
  0
SPLINE
  5
6C8
100
AcDbEntity
  8
0
100
AcDbSpline
 62
7
  6
CONTINUOUS
 70
0
 71
3
 72
52
 73
48
 74
0
 42
0.0000001
 43
0.0000001
 44
0.0000000001
 40
0.0
 40
0.0
 40
0.0
 40
0.0
 40
0.0315980704
 40
0.0623339662
 40
0.0922000209
 40
0.1212386997
 40
0.1495207276
 40
0.1634170883
 40
0.1771682608
 40
0.1907929866
 40
0.2043117858
 40
0.2177468309
 40
0.2311213693
 40
0.244459685
 40
0.2577865072
 40
0.2711268044
 40
0.2845053009
 40
0.2979461518
 40
0.3114726371
 40
0.3251066478
 40
0.3388687407
 40
0.3527774887
 40
0.3668495956
 40
0.3810997199
 40
0.3955400582
 40
0.4250192537
 40
0.4553516487
 40
0.4708490585
 40
0.4865634705
 40
0.5186208158
 40
0.5349603832
 40
0.5514937343
 40
0.5850938453
 40
0.619332897
 40
0.6540964402
 40
0.6892553811
 40
0.7246698873
 40
0.7601933625
 40
0.7956764834
 40
0.8309708804
 40
0.8485052603
 40
0.865939479
 40
0.9004354694
 40
0.9174726741
 40
0.9343483067
 40
0.9675653052
 40
1.0
 40
1.0
 40
1.0
 40
1.0
 10
18.2557867786
 20
12.657315292
 30
0.0
 10
18.2567291754
 20
12.6083287929
 30
0.0
 10
18.2542672461
 20
12.5115421717
 30
0.0
 10
18.2369913735
 20
12.3694038056
 30
0.0
 10
18.2063087746
 20
12.2335747352
 30
0.0
 10
18.1625100966
 20
12.1053956985
 30
0.0
 10
18.1150956978
 20
12.0053607304
 30
0.0
 10
18.0710457591
 20
11.9306055332
 30
0.0
 10
18.0352410027
 20
11.8775123186
 30
0.0
 10
17.9965690272
 20
11.827206977
 30
0.0
 10
17.9551171787
 20
11.7798138607
 30
0.0
 10
17.9109922338
 20
11.7354434655
 30
0.0
 10
17.8642954773
 20
11.694208738
 30
0.0
 10
17.815142431
 20
11.65620857
 30
0.0
 10
17.7636539742
 20
11.6215328034
 30
0.0
 10
17.7099513082
 20
11.5902724064
 30
0.0
 10
17.6541696848
 20
11.5624956761
 30
0.0
 10
17.5964419972
 20
11.5382747075
 30
0.0
 10
17.5369094151
 20
11.5176675698
 30
0.0
 10
17.475717876
 20
11.5007185184
 30
0.0
 10
17.4130139556
 20
11.4874759097
 30
0.0
 10
17.3489513161
 20
11.4779631316
 30
0.0
 10
17.2836845803
 20
11.4722056515
 30
0.0
 10
17.217369853
 20
11.4702183644
 30
0.0
 10
17.1271638994
 20
11.4726075764
 30
0.0
 10
17.0124828457
 20
11.4852219343
 30
0.0
 10
16.8981590932
 20
11.5100059437
 30
0.0
 10
16.8065888766
 20
11.5369825286
 30
0.0
 10
16.7138843861
 20
11.5691754478
 30
0.0
 10
16.6223384294
 20
11.6083399968
 30
0.0
 10
16.5325515168
 20
11.6539411891
 30
0.0
 10
16.4427164635
 20
11.7045323489
 30
0.0
 10
16.3328819368
 20
11.7759068992
 30
0.0
 10
16.2067616601
 20
11.8731495043
 30
0.0
 10
16.0867949453
 20
11.9815269267
 30
0.0
 10
15.9741319329
 20
12.099997042
 30
0.0
 10
15.8698471795
 20
12.2274271559
 30
0.0
 10
15.7749352863
 20
12.3625980975
 30
0.0
 10
15.6903063598
 20
12.5042121342
 30
0.0
 10
15.6288808968
 20
12.6267520561
 30
0.0
 10
15.5856289277
 20
12.726773129
 30
0.0
 10
15.5466530327
 20
12.8272062875
 30
0.0
 10
15.5137186101
 20
12.9290847488
 30
0.0
 10
15.4871609677
 20
13.0318042506
 30
0.0
 10
15.465194584
 20
13.1335767834
 30
0.0
 10
15.445905121
 20
13.2602355776
 30
0.0
 10
15.4392750019
 20
13.36197303
 30
0.0
 10
15.4383076533
 20
13.4122565483
 30
0.0
  0
SPLINE
  5
6C9
100
AcDbEntity
  8
0
100
AcDbSpline
 62
7
  6
CONTINUOUS
 70
0
 71
3
 72
18
 73
14
 74
0
 42
0.0000001
 43
0.0000001
 44
0.0000000001
 40
0.0
 40
0.0
 40
0.0
 40
0.0
 40
0.0595682671
 40
0.1206050154
 40
0.1828949646
 40
0.2462604612
 40
0.3752362713
 40
0.5055906117
 40
0.6351475895
 40
0.7618145804
 40
0.8235351689
 40
0.8839110422
 40
1.0
 40
1.0
 40
1.0
 40
1.0
 10
19.1203340559
 20
14.5100220288
 30
0.0
 10
19.1200808377
 20
14.523184502
 30
0.0
 10
19.1183420022
 20
14.5498234163
 30
0.0
 10
19.1122543811
 20
14.5898280941
 30
0.0
 10
19.102696979
 20
14.630014583
 30
0.0
 10
19.0853693678
 20
14.6836058974
 30
0.0
 10
19.0556273136
 20
14.7487495599
 30
0.0
 10
19.0086793625
 20
14.8210987189
 30
0.0
 10
18.9520087964
 20
14.885442841
 30
0.0
 10
18.8979283687
 20
14.9307908639
 30
0.0
 10
18.8517774846
 20
14.96078072
 30
0.0
 10
18.8053575897
 20
14.9856828087
 30
0.0
 10
18.768613622
 20
14.9996056007
 30
0.0
 10
18.7438315522
 20
15.0062459363
 30
0.0
  0
SPLINE
  5
6CA
100
AcDbEntity
  8
0
100
AcDbSpline
 62
7
  6
CONTINUOUS
 70
0
 71
3
 72
22
 73
18
 74
0
 42
0.0000001
 43
0.0000001
 44
0.0000000001
 40
0.0
 40
0.0
 40
0.0
 40
0.0
 40
0.1285049027
 40
0.1956008051
 40
0.2638861363
 40
0.3327801765
 40
0.4016720557
 40
0.4699559855
 40
0.5370563986
 40
0.6024682719
 40
0.6657875011
 40
0.7267474023
 40
0.7852546627
 40
0.8414129559
 40
0.8955412073
 40
0.9481700089
 40
1.0
 40
1.0
 40
1.0
 40
1.0
 10
18.5962443448
 20
14.6733953042
 30
0.0
 10
18.5966032862
 20
14.6547372547
 30
0.0
 10
18.6010201219
 20
14.6262977317
 30
0.0
 10
18.6132359601
 20
14.5899308009
 30
0.0
 10
18.625748212
 20
14.5629603164
 30
0.0
 10
18.6412154732
 20
14.5372775578
 30
0.0
 10
18.6593296724
 20
14.5133847556
 30
0.0
 10
18.6797289451
 20
14.4917661993
 30
0.0
 10
18.7020054847
 20
14.4728546005
 30
0.0
 10
18.7257147546
 20
14.4570296916
 30
0.0
 10
18.7503884311
 20
14.4446154862
 30
0.0
 10
18.775537641
 20
14.4358686354
 30
0.0
 10
18.8006637867
 20
14.4309751661
 30
0.0
 10
18.8252652943
 20
14.4300563404
 30
0.0
 10
18.8488419585
 20
14.4331598917
 30
0.0
 10
18.8708886119
 20
14.4402377613
 30
0.0
 10
18.8843002786
 20
14.4475548817
 30
0.0
 10
18.8905333225
 20
14.4517740368
 30
0.0
  0
SPLINE
  5
6CB
100
AcDbEntity
  8
0
100
AcDbSpline
 62
7
  6
CONTINUOUS
 70
0
 71
3
 72
19
 73
15
 74
0
 42
0.0000001
 43
0.0000001
 44
0.0000000001
 40
0.0
 40
0.0
 40
0.0
 40
0.0
 40
0.120487323
 40
0.1827696141
 40
0.2461336272
 40
0.3750997663
 40
0.4402793449
 40
0.5055335614
 40
0.570587489
 40
0.6351716279
 40
0.7618290928
 40
0.8235482388
 40
0.8839166778
 40
1.0
 40
1.0
 40
1.0
 40
1.0
 10
19.2020772042
 20
14.5186881968
 30
0.0
 10
19.2014963916
 20
14.548879282
 30
0.0
 10
19.196361967
 20
14.5946955285
 30
0.0
 10
19.1820786515
 20
14.6547475144
 30
0.0
 10
19.1624306176
 20
14.7155197636
 30
0.0
 10
19.1355052329
 20
14.7744907354
 30
0.0
 10
19.1021321615
 20
14.8303318104
 30
0.0
 10
19.0739529799
 20
14.8704671154
 30
0.0
 10
19.0429870296
 20
14.9083022584
 30
0.0
 10
18.9986951724
 20
14.9548805253
 30
0.0
 10
18.9498824982
 20
14.9958121459
 30
0.0
 10
18.8975543234
 20
15.0298157919
 30
0.0
 10
18.8449162156
 20
15.0580534139
 30
0.0
 10
18.8032518761
 20
15.0738408575
 30
0.0
 10
18.7751502581
 20
15.0813706633
 30
0.0
  0
SPLINE
  5
6CC
100
AcDbEntity
  8
0
100
AcDbSpline
 62
7
  6
CONTINUOUS
 70
0
 71
3
 72
14
 73
10
 74
0
 42
0.0000001
 43
0.0000001
 44
0.0000000001
 40
0.0
 40
0.0
 40
0.0
 40
0.0
 40
0.2660049184
 40
0.3941420855
 40
0.5192887402
 40
0.6418828002
 40
0.7624404165
 40
0.8815826119
 40
1.0
 40
1.0
 40
1.0
 40
1.0
 10
14.8856787828
 20
16.1235514041
 30
0.0
 10
14.8614707844
 20
16.1300379177
 30
0.0
 10
14.8246155483
 20
16.136556556
 30
0.0
 10
14.7756410236
 20
16.1377747955
 30
0.0
 10
14.7402674587
 20
16.1349737001
 30
0.0
 10
14.7061086375
 20
16.1284845448
 30
0.0
 10
14.6734345677
 20
16.1183484298
 30
0.0
 10
14.6425184734
 20
16.104651328
 30
0.0
 10
14.6232186806
 20
16.0931939704
 30
0.0
 10
14.6139808055
 20
16.086938047
 30
0.0
  0
SPLINE
  5
6CD
100
AcDbEntity
  8
0
100
AcDbSpline
 62
7
  6
CONTINUOUS
 70
0
 71
3
 72
16
 73
12
 74
0
 42
0.0000001
 43
0.0000001
 44
0.0000000001
 40
0.0
 40
0.0
 40
0.0
 40
0.0
 40
0.1245320606
 40
0.2573783945
 40
0.3943747402
 40
0.53138036
 40
0.6641068686
 40
0.7885460087
 40
0.9013602532
 40
0.9525974209
 40
1.0
 40
1.0
 40
1.0
 40
1.0
 10
19.2009470168
 20
10.3196988879
 30
0.0
 10
19.2043217159
 20
10.31879464
 30
0.0
 10
19.2114087379
 20
10.3173328363
 30
0.0
 10
19.2224208812
 20
10.3161290132
 30
0.0
 10
19.233846248
 20
10.3158753816
 30
0.0
 10
19.2452487605
 20
10.3165783573
 30
0.0
 10
19.2562012001
 20
10.3182141476
 30
0.0
 10
19.2662915413
 20
10.3207163329
 30
0.0
 10
19.2739064377
 20
10.3235308868
 30
0.0
 10
19.2792183717
 20
10.3261830401
 30
0.0
 10
19.2815890311
 20
10.327619347
 30
0.0
 10
19.2826901651
 20
10.3283650559
 30
0.0
  0
SPLINE
  5
6CE
100
AcDbEntity
  8
0
100
AcDbSpline
 62
7
  6
CONTINUOUS
 70
0
 71
3
 72
15
 73
11
 74
0
 42
0.0000001
 43
0.0000001
 44
0.0000000001
 40
0.0
 40
0.0
 40
0.0
 40
0.0
 40
0.1626812253
 40
0.3153294413
 40
0.4563416941
 40
0.585205523
 40
0.7021840594
 40
0.8084996057
 40
0.9065339881
 40
1.0
 40
1.0
 40
1.0
 40
1.0
 10
18.8397343549
 20
10.0211451633
 30
0.0
 10
18.8397777304
 20
10.0188904739
 30
0.0
 10
18.8400336351
 20
10.0145208041
 30
0.0
 10
18.8409650404
 20
10.00825439
 30
0.0
 10
18.8424270626
 20
10.0025699773
 30
0.0
 10
18.8443927042
 20
9.9975632201
 30
0.0
 10
18.84684042
 20
9.9933149595
 30
0.0
 10
18.8497388801
 20
9.9898932714
 30
0.0
 10
18.8530589113
 20
9.9873782018
 30
0.0
 10
18.8555409153
 20
9.9863408683
 30
0.0
 10
18.8567923448
 20
9.9860053101
 30
0.0
  0
SPLINE
  5
6CF
100
AcDbEntity
  8
0
100
AcDbSpline
 62
7
  6
CONTINUOUS
 70
0
 71
3
 72
15
 73
11
 74
0
 42
0.0000001
 43
0.0000001
 44
0.0000000001
 40
0.0
 40
0.0
 40
0.0
 40
0.0
 40
0.1626812253
 40
0.3153294413
 40
0.4563416941
 40
0.585205523
 40
0.7021840594
 40
0.8084996057
 40
0.9065339882
 40
1.0
 40
1.0
 40
1.0
 40
1.0
 10
14.9502628797
 20
11.0633259041
 30
0.0
 10
14.9503062551
 20
11.0610712147
 30
0.0
 10
14.9505621599
 20
11.0567015449
 30
0.0
 10
14.9514935651
 20
11.0504351308
 30
0.0
 10
14.9529555874
 20
11.044750718
 30
0.0
 10
14.9549212289
 20
11.0397439608
 30
0.0
 10
14.9573689447
 20
11.0354957003
 30
0.0
 10
14.9602674048
 20
11.0320740122
 30
0.0
 10
14.963587436
 20
11.0295589426
 30
0.0
 10
14.96606944
 20
11.028521609
 30
0.0
 10
14.9673208696
 20
11.0281860509
 30
0.0
  0
SPLINE
  5
6D0
100
AcDbEntity
  8
0
100
AcDbSpline
 62
7
  6
CONTINUOUS
 70
0
 71
3
 72
15
 73
11
 74
0
 42
0.0000001
 43
0.0000001
 44
0.0000000001
 40
0.0
 40
0.0
 40
0.0
 40
0.0
 40
0.1690813996
 40
0.3262052076
 40
0.4697767486
 40
0.5992677127
 40
0.7149868472
 40
0.8182937411
 40
0.9118636742
 40
1.0
 40
1.0
 40
1.0
 40
1.0
 10
14.573760376
 20
11.5595498115
 30
0.0
 10
14.57180539
 20
11.5600736485
 30
0.0
 10
14.5680666151
 20
11.5612146149
 30
0.0
 10
14.562829686
 20
11.563281846
 30
0.0
 10
14.5582329652
 20
11.5656232611
 30
0.0
 10
14.554344241
 20
11.568202572
 30
0.0
 10
14.5512182584
 20
11.5709914305
 30
0.0
 10
14.5488993512
 20
11.5739607369
 30
0.0
 10
14.5474420004
 20
11.5770829277
 30
0.0
 10
14.5470800695
 20
11.5792621356
 30
0.0
 10
14.5470593727
 20
11.5803169484
 30
0.0
  0
SPLINE
  5
6D1
100
AcDbEntity
  8
0
100
AcDbSpline
 62
7
  6
CONTINUOUS
 70
0
 71
3
 72
15
 73
11
 74
0
 42
0.0000001
 43
0.0000001
 44
0.0000000001
 40
0.0
 40
0.0
 40
0.0
 40
0.0
 40
0.1690813996
 40
0.3262052076
 40
0.4697767486
 40
0.5992677128
 40
0.7149868473
 40
0.8182937413
 40
0.9118636742
 40
1.0
 40
1.0
 40
1.0
 40
1.0
 10
14.4931474152
 20
15.7498729524
 30
0.0
 10
14.4911924292
 20
15.7503967893
 30
0.0
 10
14.4874536542
 20
15.7515377557
 30
0.0
 10
14.4822167252
 20
15.7536049869
 30
0.0
 10
14.4776200044
 20
15.755946402
 30
0.0
 10
14.4737312802
 20
15.7585257129
 30
0.0
 10
14.4706052976
 20
15.7613145714
 30
0.0
 10
14.4682863903
 20
15.7642838778
 30
0.0
 10
14.4668290396
 20
15.7674060685
 30
0.0
 10
14.4664671087
 20
15.7695852765
 30
0.0
 10
14.4664464119
 20
15.7706400893
 30
0.0
  0
SPLINE
  5
6D2
100
AcDbEntity
  8
0
100
AcDbSpline
 62
7
  6
CONTINUOUS
 70
0
 71
3
 72
16
 73
12
 74
0
 42
0.0000001
 43
0.0000001
 44
0.0000000001
 40
0.0
 40
0.0
 40
0.0
 40
0.0
 40
0.1285578039
 40
0.2636174546
 40
0.4012259742
 40
0.5375458223
 40
0.6686762661
 40
0.7911038612
 40
0.9021157496
 40
0.9527884543
 40
1.0
 40
1.0
 40
1.0
 40
1.0
 10
14.854360077
 20
16.0484266771
 30
0.0
 10
14.8542907761
 20
16.0520289918
 30
0.0
 10
14.8546066837
 20
16.0594290211
 30
0.0
 10
14.8562598031
 20
16.0705694623
 30
0.0
 10
14.8590529988
 20
16.0817053816
 30
0.0
 10
14.8628758089
 20
16.0924140097
 30
0.0
 10
14.8675890733
 20
16.1022957106
 30
0.0
 10
14.8730118941
 20
16.1109824802
 30
0.0
 10
14.8781105499
 20
16.1171437562
 30
0.0
 10
14.88240035
 20
16.1211379037
 30
0.0
 10
14.8845832137
 20
16.1228094636
 30
0.0
 10
14.885678783
 20
16.123551404
 30
0.0
  0
SPLINE
  5
6D3
100
AcDbEntity
  8
0
100
AcDbSpline
 62
7
  6
CONTINUOUS
 70
0
 71
3
 72
16
 73
12
 74
0
 42
0.0000001
 43
0.0000001
 44
0.0000000001
 40
0.0
 40
0.0
 40
0.0
 40
0.0
 40
0.128557804
 40
0.2636174549
 40
0.4012259746
 40
0.5375458228
 40
0.6686762667
 40
0.791103862
 40
0.9021157502
 40
0.9527884546
 40
1.0
 40
1.0
 40
1.0
 40
1.0
 10
18.7438315522
 20
15.0062459363
 30
0.0
 10
18.7437622513
 20
15.009848251
 30
0.0
 10
18.744078159
 20
15.0172482803
 30
0.0
 10
18.7457312784
 20
15.0283887215
 30
0.0
 10
18.7485244741
 20
15.0395246408
 30
0.0
 10
18.7523472841
 20
15.0502332689
 30
0.0
 10
18.7570605485
 20
15.0601149698
 30
0.0
 10
18.7624833694
 20
15.0688017394
 30
0.0
 10
18.7675820251
 20
15.0749630154
 30
0.0
 10
18.7718718252
 20
15.078957163
 30
0.0
 10
18.7740546888
 20
15.0806287229
 30
0.0
 10
18.7751502581
 20
15.0813706633
 30
0.0
  0
SPLINE
  5
6D4
100
AcDbEntity
  8
0
100
AcDbSpline
 62
7
  6
CONTINUOUS
 70
0
 71
3
 72
16
 73
12
 74
0
 42
0.0000001
 43
0.0000001
 44
0.0000000001
 40
0.0
 40
0.0
 40
0.0
 40
0.0
 40
0.1245320607
 40
0.2573783947
 40
0.3943747405
 40
0.5313803604
 40
0.6641068692
 40
0.7885460094
 40
0.9013602537
 40
0.952597421
 40
1.0
 40
1.0
 40
1.0
 40
1.0
 10
19.1203340559
 20
14.5100220288
 30
0.0
 10
19.123708755
 20
14.5091177809
 30
0.0
 10
19.1307957771
 20
14.5076559772
 30
0.0
 10
19.1418079203
 20
14.506452154
 30
0.0
 10
19.1532332872
 20
14.5061985225
 30
0.0
 10
19.1646357996
 20
14.5069014982
 30
0.0
 10
19.1755882393
 20
14.5085372884
 30
0.0
 10
19.1856785804
 20
14.5110394738
 30
0.0
 10
19.1932934769
 20
14.5138540277
 30
0.0
 10
19.1986054109
 20
14.5165061808
 30
0.0
 10
19.2009760703
 20
14.5179424877
 30
0.0
 10
19.2020772042
 20
14.5186881966
 30
0.0
  0
SPLINE
  5
6D5
100
AcDbEntity
  8
0
100
AcDbSpline
 62
7
  6
CONTINUOUS
 70
0
 71
3
 72
22
 73
18
 74
0
 42
0.0000001
 43
0.0000001
 44
0.0000000001
 40
0.0
 40
0.0
 40
0.0
 40
0.0
 40
0.1285049027
 40
0.1956008051
 40
0.2638861363
 40
0.3327801765
 40
0.4016720557
 40
0.4699559855
 40
0.5370563986
 40
0.6024682719
 40
0.6657875011
 40
0.7267474023
 40
0.7852546627
 40
0.8414129559
 40
0.8955412073
 40
0.9481700089
 40
1.0
 40
1.0
 40
1.0
 40
1.0
 10
14.663959043
 20
15.7270479752
 30
0.0
 10
14.6643179844
 20
15.7083899257
 30
0.0
 10
14.6687348201
 20
15.6799504028
 30
0.0
 10
14.6809506582
 20
15.6435834719
 30
0.0
 10
14.6934629102
 20
15.6166129875
 30
0.0
 10
14.7089301714
 20
15.5909302288
 30
0.0
 10
14.7270443706
 20
15.5670374266
 30
0.0
 10
14.7474436432
 20
15.5454188703
 30
0.0
 10
14.7697201829
 20
15.5265072715
 30
0.0
 10
14.7934294527
 20
15.5106823626
 30
0.0
 10
14.8181031293
 20
15.4982681572
 30
0.0
 10
14.8432523392
 20
15.4895213065
 30
0.0
 10
14.8683784849
 20
15.4846278371
 30
0.0
 10
14.8929799925
 20
15.4837090114
 30
0.0
 10
14.9165566567
 20
15.4868125627
 30
0.0
 10
14.93860331
 20
15.4938904324
 30
0.0
 10
14.9520149768
 20
15.5012075528
 30
0.0
 10
14.9582480207
 20
15.5054267078
 30
0.0
  0
SPLINE
  5
6D6
100
AcDbEntity
  8
0
100
AcDbSpline
 62
7
  6
CONTINUOUS
 70
0
 71
3
 72
25
 73
21
 74
0
 42
0.0000001
 43
0.0000001
 44
0.0000000001
 40
0.0
 40
0.0
 40
0.0
 40
0.0
 40
0.0666040087
 40
0.1313817293
 40
0.1943774261
 40
0.2558070522
 40
0.3159568771
 40
0.3751629424
 40
0.4338214329
 40
0.4923620602
 40
0.5512203022
 40
0.6108132575
 40
0.6410186256
 40
0.6715438662
 40
0.7024256632
 40
0.7336947626
 40
0.797473829
 40
0.8630797759
 40
0.9306124822
 40
1.0
 40
1.0
 40
1.0
 40
1.0
 10
18.8397343549
 20
10.0211451633
 30
0.0
 10
18.8516255134
 20
10.017958937
 30
0.0
 10
18.8754059766
 20
10.0128076116
 30
0.0
 10
18.9111825276
 20
10.0088663059
 30
0.0
 10
18.9462289695
 20
10.0088820182
 30
0.0
 10
18.980192903
 20
10.0128570254
 30
0.0
 10
19.0127489303
 20
10.0207585727
 30
0.0
 10
19.0435736374
 20
10.0325224244
 30
0.0
 10
19.0723598023
 20
10.0480319409
 30
0.0
 10
19.0988142891
 20
10.0671425174
 30
0.0
 10
19.1226784539
 20
10.0896505027
 30
0.0
 10
19.1401337954
 20
10.1109729351
 30
0.0
 10
19.1525756249
 20
10.1294202516
 30
0.0
 10
19.1611765156
 20
10.1440187813
 30
0.0
 10
19.1689820087
 20
10.1592779647
 30
0.0
 10
19.1783683544
 20
10.180589497
 30
0.0
 10
19.1879933083
 20
10.2087505251
 30
0.0
 10
19.19602718
 20
10.2443158823
 30
0.0
 10
19.2005463616
 20
10.2815344081
 30
0.0
 10
19.2011936993
 20
10.3068761425
 30
0.0
 10
19.2009470168
 20
10.3196988879
 30
0.0
  0
SPLINE
  5
6D7
100
AcDbEntity
  8
0
100
AcDbSpline
 62
7
  6
CONTINUOUS
 70
0
 71
3
 72
22
 73
18
 74
0
 42
0.0000001
 43
0.0000001
 44
0.0000000001
 40
0.0
 40
0.0
 40
0.0
 40
0.0
 40
0.1285049027
 40
0.1956008051
 40
0.2638861363
 40
0.3327801765
 40
0.4016720557
 40
0.4699559855
 40
0.5370563986
 40
0.6024682719
 40
0.6657875011
 40
0.7267474023
 40
0.7852546627
 40
0.8414129559
 40
0.8955412073
 40
0.9481700089
 40
1.0
 40
1.0
 40
1.0
 40
1.0
 10
18.6777446625
 20
10.4369466757
 30
0.0
 10
18.678103604
 20
10.4182886262
 30
0.0
 10
18.6825204396
 20
10.3898491033
 30
0.0
 10
18.6947362778
 20
10.3534821724
 30
0.0
 10
18.7072485297
 20
10.326511688
 30
0.0
 10
18.722715791
 20
10.3008289293
 30
0.0
 10
18.7408299902
 20
10.2769361271
 30
0.0
 10
18.7612292628
 20
10.2553175708
 30
0.0
 10
18.7835058025
 20
10.2364059721
 30
0.0
 10
18.8072150723
 20
10.2205810631
 30
0.0
 10
18.8318887488
 20
10.2081668577
 30
0.0
 10
18.8570379587
 20
10.199420007
 30
0.0
 10
18.8821641044
 20
10.1945265377
 30
0.0
 10
18.906765612
 20
10.1936077119
 30
0.0
 10
18.9303422762
 20
10.1967112632
 30
0.0
 10
18.9523889296
 20
10.2037891329
 30
0.0
 10
18.9658005963
 20
10.2111062533
 30
0.0
 10
18.9720336402
 20
10.2153254083
 30
0.0
  0
SPLINE
  5
6D8
100
AcDbEntity
  8
0
100
AcDbSpline
 62
7
  6
CONTINUOUS
 70
0
 71
3
 72
32
 73
28
 74
0
 42
0.0000001
 43
0.0000001
 44
0.0000000001
 40
0.0
 40
0.0
 40
0.0
 40
0.0
 40
0.0244998854
 40
0.0469295668
 40
0.0675037289
 40
0.0866467491
 40
0.1049347965
 40
0.1230502798
 40
0.1416944343
 40
0.1614899405
 40
0.1829344357
 40
0.2063568415
 40
0.231948007
 40
0.2597984409
 40
0.2898887862
 40
0.3221345736
 40
0.3564089807
 40
0.3925226699
 40
0.4693451308
 40
0.550584557
 40
0.6339116506
 40
0.7168743128
 40
0.7970418154
 40
0.8721372205
 40
0.9402818949
 40
0.9712773465
 40
1.0
 40
1.0
 40
1.0
 40
1.0
 10
15.4970904252
 20
16.6193827947
 30
0.0
 10
15.4962399302
 20
16.6186831504
 30
0.0
 10
15.4946785279
 20
16.6172562161
 30
0.0
 10
15.4927155693
 20
16.6149291964
 30
0.0
 10
15.4912652216
 20
16.6125255442
 30
0.0
 10
15.4903466719
 20
16.6100671858
 30
0.0
 10
15.4899758611
 20
16.6075777718
 30
0.0
 10
15.4901670441
 20
16.6050900113
 30
0.0
 10
15.4909106596
 20
16.6026397222
 30
0.0
 10
15.4921902039
 20
16.6002540038
 30
0.0
 10
15.4939889694
 20
16.5979556884
 30
0.0
 10
15.4962821194
 20
16.5957583393
 30
0.0
 10
15.499048618
 20
16.5936770446
 30
0.0
 10
15.5022657252
 20
16.5917304911
 30
0.0
 10
15.5059034971
 20
16.5899318895
 30
0.0
 10
15.5099303515
 20
16.5882967784
 30
0.0
 10
15.5143115678
 20
16.5868420359
 30
0.0
 10
15.5207043644
 20
16.5851216209
 30
0.0
 10
15.5293023277
 20
16.5835311439
 30
0.0
 10
15.5401187445
 20
16.5825228826
 30
0.0
 10
15.5512576775
 20
16.5824178827
 30
0.0
 10
15.5623196452
 20
16.5832186316
 30
0.0
 10
15.572910604
 20
16.5848950352
 30
0.0
 10
15.5826547581
 20
16.5873865993
 30
0.0
 10
15.590007017
 20
16.5901521493
 30
0.0
 10
15.5951443708
 20
16.5927393782
 30
0.0
 10
15.5974417336
 20
16.5941358721
 30
0.0
 10
15.5985107664
 20
16.5948598415
 30
0.0
  0
SPLINE
  5
6D9
100
AcDbEntity
  8
0
100
AcDbSpline
 62
7
  6
CONTINUOUS
 70
0
 71
3
 72
22
 73
18
 74
0
 42
0.0000001
 43
0.0000001
 44
0.0000000001
 40
0.0
 40
0.0
 40
0.0
 40
0.0
 40
0.1285049027
 40
0.1956008051
 40
0.2638861363
 40
0.3327801765
 40
0.4016720557
 40
0.4699559855
 40
0.5370563986
 40
0.6024682719
 40
0.6657875011
 40
0.7267474023
 40
0.7852546627
 40
0.8414129559
 40
0.8955412073
 40
0.9481700089
 40
1.0
 40
1.0
 40
1.0
 40
1.0
 10
14.7454593607
 20
11.4905993467
 30
0.0
 10
14.7458183022
 20
11.4719412973
 30
0.0
 10
14.7502351378
 20
11.4435017743
 30
0.0
 10
14.762450976
 20
11.4071348435
 30
0.0
 10
14.7749632279
 20
11.380164359
 30
0.0
 10
14.7904304891
 20
11.3544816003
 30
0.0
 10
14.8085446883
 20
11.3305887981
 30
0.0
 10
14.828943961
 20
11.3089702419
 30
0.0
 10
14.8512205007
 20
11.2900586431
 30
0.0
 10
14.8749297705
 20
11.2742337341
 30
0.0
 10
14.899603447
 20
11.2618195288
 30
0.0
 10
14.9247526569
 20
11.253072678
 30
0.0
 10
14.9498788026
 20
11.2481792087
 30
0.0
 10
14.9744803102
 20
11.247260383
 30
0.0
 10
14.9980569744
 20
11.2503639342
 30
0.0
 10
15.0201036278
 20
11.2574418039
 30
0.0
 10
15.0335152945
 20
11.2647589243
 30
0.0
 10
15.0397483384
 20
11.2689780794
 30
0.0
  0
SPLINE
  5
6DA
100
AcDbEntity
  8
0
100
AcDbSpline
 62
7
  6
CONTINUOUS
 70
0
 71
3
 72
26
 73
22
 74
0
 42
0.0000001
 43
0.0000001
 44
0.0000000001
 40
0.0
 40
0.0
 40
0.0
 40
0.0
 40
0.0170467153
 40
0.034550749
 40
0.0529270509
 40
0.0725154585
 40
0.1161738712
 40
0.1405884025
 40
0.1667710929
 40
0.224346328
 40
0.2884428709
 40
0.3581267493
 40
0.4321574959
 40
0.5091073959
 40
0.587411684
 40
0.6654631673
 40
0.7416559565
 40
0.8144564121
 40
0.8824915552
 40
0.9446470273
 40
1.0
 40
1.0
 40
1.0
 40
1.0
 10
15.4707267227
 20
16.5888449948
 30
0.0
 10
15.4707446042
 20
16.58793534
 30
0.0
 10
15.4709531758
 20
16.586090792
 30
0.0
 10
15.4717734024
 20
16.5833734072
 30
0.0
 10
15.473095072
 20
16.5807100217
 30
0.0
 10
15.4755965517
 20
16.5771275718
 30
0.0
 10
15.4790107564
 20
16.5738599002
 30
0.0
 10
15.4830881492
 20
16.5709098957
 30
0.0
 10
15.488034334
 20
16.5679189472
 30
0.0
 10
15.4952187355
 20
16.5645971215
 30
0.0
 10
15.5049249482
 20
16.5613676772
 30
0.0
 10
15.5157434007
 20
16.5588586673
 30
0.0
 10
15.5274047829
 20
16.5571296745
 30
0.0
 10
15.5396195403
 20
16.5562284245
 30
0.0
 10
15.5520813672
 20
16.5561764454
 30
0.0
 10
15.5644773759
 20
16.5569746372
 30
0.0
 10
15.5764959085
 20
16.558605516
 30
0.0
 10
15.5878363155
 20
16.5610231209
 30
0.0
 10
15.5982196004
 20
16.5641702002
 30
0.0
 10
15.6073843873
 20
16.5679652546
 30
0.0
 10
15.6128727315
 20
16.5710503871
 30
0.0
 10
15.6153189139
 20
16.5727069885
 30
0.0
  0
SPLINE
  5
6DB
100
AcDbEntity
  8
0
100
AcDbSpline
 62
7
  6
CONTINUOUS
 70
0
 71
3
 72
17
 73
13
 74
0
 42
0.0000001
 43
0.0000001
 44
0.0000000001
 40
0.0
 40
0.0
 40
0.0
 40
0.0
 40
0.1526006222
 40
0.2874605455
 40
0.4067419341
 40
0.462231721
 40
0.5160341702
 40
0.5691656715
 40
0.6226927912
 40
0.7346337451
 40
0.8589863819
 40
1.0
 40
1.0
 40
1.0
 40
1.0
 10
16.1254501704
 20
16.4536668537
 30
0.0
 10
16.1268297638
 20
16.4546011407
 30
0.0
 10
16.1293232493
 20
16.456529608
 30
0.0
 10
16.1323523956
 20
16.4598110872
 30
0.0
 10
16.1340612577
 20
16.4627746984
 30
0.0
 10
16.1348242866
 20
16.4651595201
 30
0.0
 10
16.1351080451
 20
16.4669173083
 30
0.0
 10
16.1351116975
 20
16.4686768077
 30
0.0
 10
16.1347402602
 20
16.4710435176
 30
0.0
 10
16.1335235572
 20
16.4740163151
 30
0.0
 10
16.1310127435
 20
16.4773246951
 30
0.0
 10
16.1288257983
 20
16.4792513918
 30
0.0
 10
16.1275999876
 20
16.4801830427
 30
0.0
  0
SPLINE
  5
6DC
100
AcDbEntity
  8
0
100
AcDbSpline
 62
7
  6
CONTINUOUS
 70
0
 71
3
 72
26
 73
22
 74
0
 42
0.0000001
 43
0.0000001
 44
0.0000000001
 40
0.0
 40
0.0
 40
0.0
 40
0.0
 40
0.0170465134
 40
0.0345522133
 40
0.0529311758
 40
0.0725226872
 40
0.1161880359
 40
0.1406060219
 40
0.1667919221
 40
0.2243724081
 40
0.2884721218
 40
0.3581570008
 40
0.4321866496
 40
0.5091336275
 40
0.5874335394
 40
0.6654796162
 40
0.7416665455
 40
0.8144606119
 40
0.882489707
 40
0.9446450119
 40
1.0
 40
1.0
 40
1.0
 40
1.0
 10
15.4772797692
 20
16.2482129968
 30
0.0
 10
15.4772982425
 20
16.2473034096
 30
0.0
 10
15.477508006
 20
16.2454590161
 30
0.0
 10
15.4783298306
 20
16.2427420423
 30
0.0
 10
15.4796529578
 20
16.2400791133
 30
0.0
 10
15.482156247
 20
16.2364973783
 30
0.0
 10
15.4855718496
 20
16.2332305281
 30
0.0
 10
15.4896503627
 20
16.2302812636
 30
0.0
 10
15.4945974593
 20
16.2272911586
 30
0.0
 10
15.5017825736
 20
16.2239703708
 30
0.0
 10
15.5114891512
 20
16.2207420638
 30
0.0
 10
15.522307445
 20
16.2182341103
 30
0.0
 10
15.5339682105
 20
16.2165060645
 30
0.0
 10
15.5461819662
 20
16.2156056245
 30
0.0
 10
15.5586424953
 20
16.2155542227
 30
0.0
 10
15.5710370284
 20
16.2163528036
 30
0.0
 10
15.5830539393
 20
16.2179841769
 30
0.0
 10
15.5943927625
 20
16.2204015832
 30
0.0
 10
15.6047751123
 20
16.2235476974
 30
0.0
 10
15.6139384398
 20
16.2273447439
 30
0.0
 10
15.6194255529
 20
16.2304314236
 30
0.0
 10
15.6218717033
 20
16.2320880033
 30
0.0
  0
SPLINE
  5
6DD
100
AcDbEntity
  8
0
100
AcDbSpline
 62
7
  6
CONTINUOUS
 70
0
 71
3
 72
18
 73
14
 74
0
 42
0.0000001
 43
0.0000001
 44
0.0000000001
 40
0.0
 40
0.0
 40
0.0
 40
0.0
 40
0.0595682671
 40
0.1206050154
 40
0.1828949646
 40
0.2462604612
 40
0.3752362713
 40
0.5055906117
 40
0.6351475895
 40
0.7618145804
 40
0.8235351689
 40
0.8839110422
 40
1.0
 40
1.0
 40
1.0
 40
1.0
 10
14.573760376
 20
11.5595498115
 30
0.0
 10
14.5740135942
 20
11.5463873383
 30
0.0
 10
14.5757524297
 20
11.519748424
 30
0.0
 10
14.5818400508
 20
11.4797437463
 30
0.0
 10
14.591397453
 20
11.4395572574
 30
0.0
 10
14.6087250641
 20
11.385965943
 30
0.0
 10
14.6384671183
 20
11.3208222805
 30
0.0
 10
14.6854150694
 20
11.2484731215
 30
0.0
 10
14.7420856355
 20
11.1841289994
 30
0.0
 10
14.7961660632
 20
11.1387809765
 30
0.0
 10
14.8423169473
 20
11.1087911203
 30
0.0
 10
14.8887368422
 20
11.0838890317
 30
0.0
 10
14.9254808099
 20
11.0699662396
 30
0.0
 10
14.9502628797
 20
11.0633259041
 30
0.0
  0
SPLINE
  5
6DE
100
AcDbEntity
  8
0
100
AcDbSpline
 62
7
  6
CONTINUOUS
 70
0
 71
3
 72
34
 73
30
 74
0
 42
0.0000001
 43
0.0000001
 44
0.0000000001
 40
0.0
 40
0.0
 40
0.0
 40
0.0
 40
0.0258756719
 40
0.0518531853
 40
0.0780311703
 40
0.1045018535
 40
0.1313488832
 40
0.1586446208
 40
0.1864493553
 40
0.2148098782
 40
0.2437593104
 40
0.2733174093
 40
0.3034902992
 40
0.3342721469
 40
0.3975481732
 40
0.4300076646
 40
0.4629445884
 40
0.4963046996
 40
0.5300271174
 40
0.5640459314
 40
0.5982906598
 40
0.6671372346
 40
0.7359846388
 40
0.804224946
 40
0.871284974
 40
0.9042229245
 40
0.9366850718
 40
0.9686292519
 40
1.0
 40
1.0
 40
1.0
 40
1.0
 10
17.7905830751
 20
11.7111962316
 30
0.0
 10
17.7665625316
 20
11.6949283267
 30
0.0
 10
17.7168379786
 20
11.6646076701
 30
0.0
 10
17.6380516532
 20
11.626291056
 30
0.0
 10
17.5553903466
 20
11.595294491
 30
0.0
 10
17.4692964161
 20
11.5717693242
 30
0.0
 10
17.3802106247
 20
11.5558391459
 30
0.0
 10
17.2885943602
 20
11.5475725655
 30
0.0
 10
17.1949166245
 20
11.5470085668
 30
0.0
 10
17.0996563999
 20
11.554144014
 30
0.0
 10
17.0032972735
 20
11.5689322107
 30
0.0
 10
16.906331279
 20
11.5912993582
 30
0.0
 10
16.8092418929
 20
11.6211211122
 30
0.0
 10
16.6791311
 20
11.6710674318
 30
0.0
 10
16.5520038691
 20
11.7350171391
 30
0.0
 10
16.4295143099
 20
11.8113391119
 30
0.0
 10
16.3391284193
 20
11.8754108896
 30
0.0
 10
16.2515040194
 20
11.9454846243
 30
0.0
 10
16.1670720378
 20
12.0212018046
 30
0.0
 10
16.0862654597
 20
12.1021855576
 30
0.0
 10
15.9837384926
 20
12.2168074144
 30
0.0
 10
15.8670222894
 20
12.3707351578
 30
0.0
 10
15.7476851039
 20
12.5688945688
 30
0.0
 10
15.6511602097
 20
12.7769158382
 30
0.0
 10
15.5909883254
 20
12.9561495859
 30
0.0
 10
15.5561402762
 20
13.1005866618
 30
0.0
 10
15.5368806075
 20
13.2080838555
 30
0.0
 10
15.524456617
 20
13.3148100781
 30
0.0
 10
15.5207273068
 20
13.385757458
 30
0.0
 10
15.5200508016
 20
13.4209227163
 30
0.0
  0
SPLINE
  5
6DF
100
AcDbEntity
  8
0
100
AcDbSpline
 62
7
  6
CONTINUOUS
 70
0
 71
3
 72
18
 73
14
 74
0
 42
0.0000001
 43
0.0000001
 44
0.0000000001
 40
0.0
 40
0.0
 40
0.0
 40
0.0
 40
0.0580567261
 40
0.1162424296
 40
0.2334314714
 40
0.3525889836
 40
0.4132001011
 40
0.474596506
 40
0.5999607874
 40
0.729177925
 40
0.7953520989
 40
0.862578014
 40
1.0
 40
1.0
 40
1.0
 40
1.0
 10
19.1447987848
 20
10.0264398145
 30
0.0
 10
19.1503438658
 20
10.030194964
 30
0.0
 10
19.1611823252
 20
10.0381132993
 30
0.0
 10
19.1817500529
 20
10.0555200861
 30
0.0
 10
19.2052854892
 20
10.0801895191
 30
0.0
 10
19.2253434194
 20
10.1080933334
 30
0.0
 10
19.2392807819
 20
10.1321882143
 30
0.0
 10
19.2519476024
 20
10.1577773055
 30
0.0
 10
19.2649799539
 20
10.191921779
 30
0.0
 10
19.2740007644
 20
10.2278926343
 30
0.0
 10
19.2789113033
 20
10.2577986031
 30
0.0
 10
19.2822965345
 20
10.2888660395
 30
0.0
 10
19.2829950651
 20
10.3125161217
 30
0.0
 10
19.2826901651
 20
10.3283650559
 30
0.0
  0
ENDSEC
  0
SECTION
  2
OBJECTS
  0
DICTIONARY
  5
C
100
AcDbDictionary
280
0
281
1
  3
ACAD_GROUP
350
D
  3
ACAD_MLINESTYLE
350
17
  3
ACAD_LAYOUT
350
1A
  3
ACAD_PLOTSETTINGS
350
19
  3
ACAD_PLOTSTYLENAME
350
E
  0
DICTIONARY
  5
D
102
{ACAD_REACTORS
330
C
102
}
100
AcDbDictionary
280
0
281
1
  0
ACDBDICTIONARYWDFLT
  5
E
102
{ACAD_REACTORS
330
C
102
}
100
AcDbDictionary
281
1
  3
Normal
350
F
100
AcDbDictionaryWithDefault
340
F
  0
DICTIONARY
  5
17
102
{ACAD_REACTORS
330
C
102
}
100
AcDbDictionary
280
0
281
1
  3
Standard
350
18
  0
DICTIONARY
  5
19
102
{ACAD_REACTORS
330
C
102
}
100
AcDbDictionary
281
1
  0
DICTIONARY
  5
1A
102
{ACAD_REACTORS
330
C
102
}
100
AcDbDictionary
281
1
  3
Model
350
6E0
  3
Layout1
350
6E1
  0
ACDBPLACEHOLDER
  5
F
102
{ACAD_REACTORS
330
E
102
}
  0
MLINESTYLE
  5
18
102
{ACAD_REACTORS
330
17
102
}
100
AcDbMlineStyle
  2
STANDARD
 70
0
  3

 62
256
 51
90.0
 52
90.0
 71
2
 49
0.5
 62
256
  6
BYLAYER
 49
-0.5
 62
256
  6
BYLAYER
  0
LAYOUT
  5
6E0
102
{ACAD_REACTORS
330
1A
102
}
100
AcDbPlotSettings
  1

  2
none_device
  4
ANSI_C_(22.00_x_17.00_Inches)
  6

 40
0.0
 41
0.0
 42
0.0
 43
0.0
 44
558.8
 45
431.8
 46
0.0
 47
0.0
 48
0.0
 49
0.0
140
0.0
141
0.0
142
1.0
143
1.0
 70
1024
 72
0
 73
0
 74
0
  7

 75
0
147
1.0
148
0.0
149
0.0
100
AcDbLayout
  1
Model
 70
0
 71
0
 10
0.0
 20
0.0
 11
22.0
 21
17.0
 12
0.0
 22
0.0
 32
0.0
 14
0.0
 24
0.0
 34
0.0
 15
0.0
 25
0.0
 35
0.0
146
0.0
 13
0.0
 23
0.0
 33
0.0
 16
1.0
 26
0.0
 36
0.0
 17
0.0
 27
1.0
 37
0.0
 76
0
330
209
345
0
346
0
  0
LAYOUT
  5
6E1
102
{ACAD_REACTORS
330
1A
102
}
100
AcDbPlotSettings
  1

  2
none_device
  4
ANSI_C_(22.00_x_17.00_Inches)
  6

 40
0.0
 41
0.0
 42
0.0
 43
0.0
 44
558.8
 45
431.8
 46
0.0
 47
0.0
 48
0.0
 49
0.0
140
0.0
141
0.0
142
1.0
143
1.0
 70
0
 72
0
 73
0
 74
0
  7

 75
0
147
1.0
148
0.0
149
0.0
100
AcDbLayout
  1
Layout1
 70
0
 71
1
 10
0.0
 20
0.0
 11
22.0
 21
17.0
 12
0.0
 22
0.0
 32
0.0
 14
0.0
 24
0.0
 34
0.0
 15
0.0
 25
0.0
 35
0.0
146
0.0
 13
0.0
 23
0.0
 33
0.0
 16
1.0
 26
0.0
 36
0.0
 17
0.0
 27
1.0
 37
0.0
 76
0
330
20A
345
0
346
0
  0
ENDSEC
  0
EOF
