999
DXF file: C:\SAP\Working\ProE\work\PRN-14589\193-ct-ce-300a.dxf
999
Pro/ENGINEER 2019444 by Parametric Technology Corporation
  0
SECTION
  2
HEADER
  9
$ACADVER
  1
AC1032
  9
$DWGCODEPAGE
  3
ANSI_1252
  9
$EXTMAX
 10
22.0
 20
17.0
 30
0.0
  9
$EXTMIN
 10
0.0
 20
0.0
 30
0.0
  9
$LIMMIN
 10
0.0
 20
0.0
  9
$LIMMAX
 10
22.0
 20
17.0
  9
$VIEWCTR
 10
11.0
 20
8.5
  9
$VIEWSIZE
 40
17.0
  9
$CLAYER
  8
0
  9
$LTSCALE
 40
1.21
  9
$CELTYPE
  6
BYLAYER
  9
$DIMSCALE
 40
1.0
  9
$DIMASZ
 40
0.1875
  9
$DIMEXO
 40
0.0625
  9
$DIMDLI
 40
0.836
  9
$DIMEXE
 40
0.125
  9
$DIMCEN
 40
0.198
  9
$DIMLFAC
 40
1.0
  9
$DIMBLK
  1
_CLOSED
  9
$DIMALT
 70
2
  9
$DIMALTD
 70
1
  9
$DIMALTTD
 70
2
  9
$DIMALTF
 40
25.4
  9
$DIMTXT
 40
0.15625
  9
$DIMTOL
 70
0
  9
$DIMLIM
 70
0
  9
$DIMTFAC
 40
1.0
  9
$DIMGAP
 40
0.09
  9
$DIMDSEP
 70
46
  9
$AUNITS
 70
0
  9
$PDMODE
 70
3
  9
$PDSIZE
 40
0.3125
  9
$HANDSEED
  5
31E
  9
$TILEMODE
 70
1
  9
$MEASUREMENT
 70
0
  9
$INSUNITS
 70
1
  0
ENDSEC
  0
SECTION
  2
CLASSES
  0
CLASS
  1
ACDBDICTIONARYWDFLT
  2
AcDbDictionaryWithDefault
  3
AutoCAD 2000
 90
0
 91
1
280
0
281
0
  0
CLASS
  1
ACDBPLACEHOLDER
  2
AcDbPlaceHolder
  3
AutoCAD 2000
 90
0
 91
1
280
0
281
0
  0
CLASS
  1
LAYOUT
  2
AcDbLayout
  3
AutoCAD 2000
 90
0
 91
0
280
0
281
0
  0
ENDSEC
  0
SECTION
  2
TABLES
  0
TABLE
  2
VPORT
  5
8
100
AcDbSymbolTable
 70
2
  0
VPORT
  5
1F4
100
AcDbSymbolTableRecord
100
AcDbViewportTableRecord
  2
*ACTIVE
 70
0
 10
0.0
 20
0.0
 11
1.0
 21
1.0
 12
11.0
 22
8.5
 13
0.0
 23
0.0
 14
1.0
 24
1.0
 15
0.0
 25
0.0
 16
0.0
 26
0.0
 36
1.0
 17
0.0
 27
0.0
 37
0.0
 40
17.0
 41
1.2941176471
 42
50.0
 43
0.0
 44
0.0
 50
0.0
 51
0.0
 71
0
 72
100
 73
1
 74
1
 75
0
 76
0
 77
0
 78
0
  0
ENDTAB
  0
TABLE
  2
LTYPE
  5
5
100
AcDbSymbolTable
 70
6
  0
LTYPE
  5
14
100
AcDbSymbolTableRecord
100
AcDbLinetypeTableRecord
  2
BYBLOCK
 70
0
  3

 72
65
 73
0
 40
0.0
  0
LTYPE
  5
15
100
AcDbSymbolTableRecord
100
AcDbLinetypeTableRecord
  2
BYLAYER
 70
0
  3

 72
65
 73
0
 40
0.0
  0
LTYPE
  5
16
100
AcDbSymbolTableRecord
100
AcDbLinetypeTableRecord
  2
CONTINUOUS
 70
64
  3
Solid line
 72
65
 73
0
 40
0.0
  0
LTYPE
  5
1F5
100
AcDbSymbolTableRecord
100
AcDbLinetypeTableRecord
  2
CENTER
 70
64
  3
____ _ ____ _ ____ _ ____ _ ____ _ ____ _ ____
 72
65
 73
4
 40
0.6
 49
0.375
 74
0
 49
-0.075
 74
0
 49
0.075
 74
0
 49
-0.075
 74
0
  0
LTYPE
  5
1F6
100
AcDbSymbolTableRecord
100
AcDbLinetypeTableRecord
  2
HIDDEN
 70
64
  3
- - - - - - - - - - - - - - - - - - - -
 72
65
 73
2
 40
0.2
 49
0.1
 74
0
 49
-0.1
 74
0
  0
LTYPE
  5
1F7
100
AcDbSymbolTableRecord
100
AcDbLinetypeTableRecord
  2
PHANTOM
 70
64
  3
_____ _ _ _____ _ _ _____ _ _ _____
 72
65
 73
6
 40
0.8
 49
0.45
 74
0
 49
-0.05
 74
0
 49
0.1
 74
0
 49
-0.05
 74
0
 49
0.1
 74
0
 49
-0.05
 74
0
  0
LTYPE
  5
1F8
100
AcDbSymbolTableRecord
100
AcDbLinetypeTableRecord
  2
DOT
 70
64
  3
. . . . . . . . . . . . . . . . . . . .
 72
65
 73
2
 40
0.2
 49
0.1
 74
0
 49
-0.1
 74
0
  0
LTYPE
  5
1F9
100
AcDbSymbolTableRecord
100
AcDbLinetypeTableRecord
  2
DASHED
 70
64
  3
- - - - - - - - - - - - - - - - - - - -
 72
65
 73
2
 40
0.2
 49
0.1
 74
0
 49
-0.1
 74
0
  0
ENDTAB
  0
TABLE
  2
LAYER
  5
2
100
AcDbSymbolTable
 70
36
  0
LAYER
  5
10
100
AcDbSymbolTableRecord
100
AcDbLayerTableRecord
  2
0
 70
0
 62
7
  6
CONTINUOUS
370
-3
390
F
  0
LAYER
  5
1FA
100
AcDbSymbolTableRecord
100
AcDbLayerTableRecord
  2
DEFAULT_1
 70
0
 62
7
  6
CENTER
370
-3
390
F
  0
LAYER
  5
1FB
100
AcDbSymbolTableRecord
100
AcDbLayerTableRecord
  2
DEFAULT_2
 70
0
 62
8
  6
HIDDEN
370
-3
390
F
  0
LAYER
  5
1FC
100
AcDbSymbolTableRecord
100
AcDbLayerTableRecord
  2
DEFAULT_3
 70
0
 62
7
  6
PHANTOM
370
-3
390
F
  0
LAYER
  5
1FD
100
AcDbSymbolTableRecord
100
AcDbLayerTableRecord
  2
CSYS_PART
 70
0
 62
7
  6
CONTINUOUS
370
-3
390
F
  0
ENDTAB
  0
TABLE
  2
STYLE
  5
3
100
AcDbSymbolTable
 70
1
  0
STYLE
  5
11
100
AcDbSymbolTableRecord
100
AcDbTextStyleTableRecord
  2
STANDARD
 70
0
 40
0.0
 41
0.8
 50
0.0
 71
0
 42
0.2
  3
txt
  4

  0
STYLE
  5
1FE
100
AcDbSymbolTableRecord
100
AcDbTextStyleTableRecord
  2
TEXTSTYLE_1
 70
0
 40
0.0
 41
0.8
 50
0.0
 71
0
 42
0.2
  3
gdt
  4

  0
ENDTAB
  0
TABLE
  2
VIEW
  5
6
100
AcDbSymbolTable
 70
0
  0
ENDTAB
  0
TABLE
  2
UCS
  5
7
100
AcDbSymbolTable
 70
0
  0
ENDTAB
  0
TABLE
  2
APPID
  5
9
100
AcDbSymbolTable
 70
1
  0
APPID
  5
1FF
100
AcDbSymbolTableRecord
100
AcDbRegAppTableRecord
  2
ACAD
 70
0
  0
ENDTAB
  0
TABLE
  2
BLOCK_RECORD
  5
1
100
AcDbSymbolTable
 70
0
  0
BLOCK_RECORD
  5
200
100
AcDbSymbolTableRecord
100
AcDbBlockTableRecord
  2
*Model_Space
  0
BLOCK_RECORD
  5
201
100
AcDbSymbolTableRecord
100
AcDbBlockTableRecord
  2
*Paper_Space
  0
BLOCK_RECORD
  5
202
100
AcDbSymbolTableRecord
100
AcDbBlockTableRecord
  2
_CLOSED
  0
BLOCK_RECORD
  5
203
100
AcDbSymbolTableRecord
100
AcDbBlockTableRecord
  2
*D0
  0
BLOCK_RECORD
  5
204
100
AcDbSymbolTableRecord
100
AcDbBlockTableRecord
  2
*D1
  0
BLOCK_RECORD
  5
205
100
AcDbSymbolTableRecord
100
AcDbBlockTableRecord
  2
*D2
  0
BLOCK_RECORD
  5
206
100
AcDbSymbolTableRecord
100
AcDbBlockTableRecord
  2
*D3
  0
BLOCK_RECORD
  5
207
100
AcDbSymbolTableRecord
100
AcDbBlockTableRecord
  2
*D4
  0
BLOCK_RECORD
  5
208
100
AcDbSymbolTableRecord
100
AcDbBlockTableRecord
  2
*D5
  0
BLOCK_RECORD
  5
209
100
AcDbSymbolTableRecord
100
AcDbBlockTableRecord
  2
*D6
  0
BLOCK_RECORD
  5
20A
100
AcDbSymbolTableRecord
100
AcDbBlockTableRecord
  2
*D7
  0
ENDTAB
  0
TABLE
  2
DIMSTYLE
  5
A
100
AcDbSymbolTable
 70
1
100
AcDbDimStyleTable
 71
0
  0
DIMSTYLE
105
20B
100
AcDbSymbolTableRecord
100
AcDbDimStyleTableRecord
  2
STANDARD
 70
0
  3

  4

 40
1.0
 41
0.1875
 42
0.0625
 43
0.38
 44
0.125
 45
0.0
 46
0.0
 47
0.05
 48
0.05
140
0.15625
141
0.09
142
0.0
143
1.0
144
1.0
145
0.0
146
1.0
147
0.09
 71
0
 72
0
 73
1
 74
1
 75
0
 76
0
 77
0
 78
4
 79
1
170
2
171
1
172
0
173
0
174
0
175
0
176
0
177
0
178
0
270
2
179
2
271
2
272
2
273
2
274
2
275
0
280
0
281
0
282
0
283
1
284
4
285
0
286
0
287
3
288
0
340
11
278
46
341
202
342
202
343
202
344
202
  0
DIMSTYLE
105
20C
100
AcDbSymbolTableRecord
100
AcDbDimStyleTableRecord
  2
DIMSTYLE_1
 70
0
  3

  4

 40
1.0
 41
0.1875
 42
0.0625
 43
0.38
 44
0.125
 45
0.0
 46
0.0
 47
0.0
 48
0.0
140
0.15625
141
0.09
142
0.0
143
1.0
144
1.0
145
0.0
146
1.0
147
0.078125
 71
0
 72
0
 73
1
 74
1
 75
0
 76
0
 77
0
 78
4
 79
1
170
2
171
1
172
0
173
0
174
0
175
0
176
0
177
0
178
0
270
2
179
2
271
2
272
2
273
2
274
2
275
0
280
0
281
0
282
0
283
1
284
4
285
0
286
0
287
3
288
0
340
11
278
46
341
202
342
202
343
202
344
202
  0
ENDTAB
  0
ENDSEC
  0
SECTION
  2
BLOCKS
  0
BLOCK
  5
20
100
AcDbEntity
  8
0
100
AcDbBlockBegin
  2
*Model_Space
 70
0
 10
0.0
 20
0.0
 30
0.0
  3
*Model_Space
  1

  0
ENDBLK
  5
21
100
AcDbEntity
  8
0
100
AcDbBlockEnd
  0
BLOCK
  5
1C
100
AcDbEntity
  8
0
100
AcDbBlockBegin
  2
*Paper_Space
 70
0
 10
0.0
 20
0.0
 30
0.0
  3
*Paper_Space
  1

  0
ENDBLK
  5
1D
100
AcDbEntity
  8
0
100
AcDbBlockEnd
  0
BLOCK
  5
20D
100
AcDbEntity
  8
0
100
AcDbBlockBegin
  2
_CLOSED
 70
64
 10
0.0
 20
0.0
  3
_CLOSED
  1

  0
LINE
  5
20E
100
AcDbEntity
  8
0
  6
BYBLOCK
 62
0
100
AcDbLine
 10
0.0
 20
0.0
 11
-1.0
 21
0.1666666667
  0
LINE
  5
20F
100
AcDbEntity
  8
0
  6
BYBLOCK
 62
0
100
AcDbLine
 10
-1.0
 20
0.1666666667
 11
-1.0
 21
-0.1666666667
  0
LINE
  5
210
100
AcDbEntity
  8
0
  6
BYBLOCK
 62
0
100
AcDbLine
 10
-1.0
 20
-0.1666666667
 11
0.0
 21
0.0
  0
LINE
  5
211
100
AcDbEntity
  8
0
  6
BYBLOCK
 62
0
100
AcDbLine
 10
-1.0
 20
0.0
 11
0.0
 21
0.0
  0
ENDBLK
  5
212
100
AcDbEntity
  8
0
  6
BYBLOCK
 62
0
100
AcDbBlockEnd
  0
BLOCK
  5
213
100
AcDbEntity
  8
0
100
AcDbBlockBegin
 62
2
  6
CONTINUOUS
  2
*D0
 70
65
 10
0.0
 20
0.0
  3
*D0
  1

  0
MTEXT
  5
214
100
AcDbEntity
  8
0
100
AcDbMText
 62
2
  6
CONTINUOUS
  7
STANDARD
 71
2
 72
1
 10
2.8352667429
 20
7.0038810935
 30
0.0
 11
1.0
 21
0.0
 31
0.0
 73
2
 44
0.9
  1
3.4\P[85,5]
 40
0.15625
 41
0.75
  0
LINE
  5
215
100
AcDbEntity
  8
0
100
AcDbLine
 62
2
  6
CONTINUOUS
 10
4.5188937085
 20
8.5953876028
 11
2.8977667429
 21
8.5953876028
  0
LINE
  5
216
100
AcDbEntity
  8
0
100
AcDbLine
 62
2
  6
CONTINUOUS
 10
3.9873976455
 20
5.2292458705
 11
2.8977667429
 21
5.2292458705
  0
LINE
  5
217
100
AcDbEntity
  8
0
100
AcDbLine
 62
2
  6
CONTINUOUS
 10
3.0227667429
 20
8.5953876028
 11
3.0227667429
 21
7.0820060935
  0
LINE
  5
218
100
AcDbEntity
  8
0
100
AcDbLine
 62
2
  6
CONTINUOUS
 10
3.0227667429
 20
5.2292458705
 11
3.0227667429
 21
6.5351310935
  0
INSERT
  5
219
100
AcDbEntity
  8
0
100
AcDbBlockReference
 62
2
  6
CONTINUOUS
  2
_CLOSED
 10
3.0227667429
 20
8.5953876028
 41
0.1875
 42
0.1875
 43
0.1875
 50
90.0
  0
INSERT
  5
21A
100
AcDbEntity
  8
0
100
AcDbBlockReference
 62
2
  6
CONTINUOUS
  2
_CLOSED
 10
3.0227667429
 20
5.2292458705
 41
0.1875
 42
0.1875
 43
0.1875
 50
270.0
  0
ENDBLK
  5
21B
100
AcDbEntity
  8
0
  6
BYBLOCK
 62
0
100
AcDbBlockEnd
  0
BLOCK
  5
21C
100
AcDbEntity
  8
0
100
AcDbBlockBegin
 62
2
  6
CONTINUOUS
  2
*D1
 70
65
 10
0.0
 20
0.0
  3
*D1
  1

  0
MTEXT
  5
21D
100
AcDbEntity
  8
0
100
AcDbMText
 62
2
  6
CONTINUOUS
  7
STANDARD
 71
2
 72
1
 10
12.9554402627
 20
4.4769288896
 30
0.0
 11
1.0
 21
0.0
 31
0.0
 73
2
 44
0.9
  1
2.8\P[71]
 40
0.15625
 41
0.5
  0
LINE
  5
21E
100
AcDbEntity
  8
0
100
AcDbLine
 62
2
  6
CONTINUOUS
 10
11.681026282
 20
5.1667458705
 11
11.681026282
 21
4.2738038896
  0
LINE
  5
21F
100
AcDbEntity
  8
0
100
AcDbLine
 62
2
  6
CONTINUOUS
 10
14.4763018725
 20
5.2848561067
 11
14.4763018725
 21
4.2738038896
  0
LINE
  5
220
100
AcDbEntity
  8
0
100
AcDbLine
 62
2
  6
CONTINUOUS
 10
11.681026282
 20
4.3988038896
 11
12.6898152627
 21
4.3988038896
  0
LINE
  5
221
100
AcDbEntity
  8
0
100
AcDbLine
 62
2
  6
CONTINUOUS
 10
14.4763018725
 20
4.3988038896
 11
13.3460652627
 21
4.3988038896
  0
INSERT
  5
222
100
AcDbEntity
  8
0
100
AcDbBlockReference
 62
2
  6
CONTINUOUS
  2
_CLOSED
 10
11.681026282
 20
4.3988038896
 41
0.1875
 42
0.1875
 43
0.1875
 50
180.0
  0
INSERT
  5
223
100
AcDbEntity
  8
0
100
AcDbBlockReference
 62
2
  6
CONTINUOUS
  2
_CLOSED
 10
14.4763018725
 20
4.3988038896
 41
0.1875
 42
0.1875
 43
0.1875
  0
ENDBLK
  5
224
100
AcDbEntity
  8
0
  6
BYBLOCK
 62
0
100
AcDbBlockEnd
  0
BLOCK
  5
225
100
AcDbEntity
  8
0
100
AcDbBlockBegin
 62
2
  6
CONTINUOUS
  2
*D2
 70
65
 10
0.0
 20
0.0
  3
*D2
  1

  0
MTEXT
  5
226
100
AcDbEntity
  8
0
100
AcDbMText
 62
2
  6
CONTINUOUS
  7
STANDARD
 71
2
 72
1
 10
13.0058992596
 20
15.1952705461
 30
0.0
 11
1.0
 21
0.0
 31
0.0
 73
2
 44
0.9
  1
2.0\P[50]
 40
0.15625
 41
0.5
  0
LINE
  5
227
100
AcDbEntity
  8
0
100
AcDbLine
 62
2
  6
CONTINUOUS
 10
12.0944121088
 20
13.4996624067
 11
12.0944121088
 21
15.2421455461
  0
LINE
  5
228
100
AcDbEntity
  8
0
100
AcDbLine
 62
2
  6
CONTINUOUS
 10
14.0629160458
 20
11.2555679185
 11
14.0629160458
 21
15.2421455461
  0
LINE
  5
229
100
AcDbEntity
  8
0
100
AcDbLine
 62
2
  6
CONTINUOUS
 10
12.0944121088
 20
15.1171455461
 11
12.7402742596
 21
15.1171455461
  0
LINE
  5
22A
100
AcDbEntity
  8
0
100
AcDbLine
 62
2
  6
CONTINUOUS
 10
14.0629160458
 20
15.1171455461
 11
13.3965242596
 21
15.1171455461
  0
INSERT
  5
22B
100
AcDbEntity
  8
0
100
AcDbBlockReference
 62
2
  6
CONTINUOUS
  2
_CLOSED
 10
12.0944121088
 20
15.1171455461
 41
0.1875
 42
0.1875
 43
0.1875
 50
180.0
  0
INSERT
  5
22C
100
AcDbEntity
  8
0
100
AcDbBlockReference
 62
2
  6
CONTINUOUS
  2
_CLOSED
 10
14.0629160458
 20
15.1171455461
 41
0.1875
 42
0.1875
 43
0.1875
  0
ENDBLK
  5
22D
100
AcDbEntity
  8
0
  6
BYBLOCK
 62
0
100
AcDbBlockEnd
  0
BLOCK
  5
22E
100
AcDbEntity
  8
0
100
AcDbBlockBegin
 62
2
  6
CONTINUOUS
  2
*D3
 70
65
 10
0.0
 20
0.0
  3
*D3
  1

  0
MTEXT
  5
22F
100
AcDbEntity
  8
0
100
AcDbMText
 62
2
  6
CONTINUOUS
  7
STANDARD
 71
2
 72
1
 10
9.0172082317
 20
12.4572165405
 30
0.0
 11
1.0
 21
0.0
 31
0.0
 73
2
 44
0.9
  1
2.4\P[60,25]
 40
0.15625
 41
0.875
  0
LINE
  5
230
100
AcDbEntity
  8
0
100
AcDbLine
 62
2
  6
CONTINUOUS
 10
14.0004160458
 20
11.1930679185
 11
9.1422082317
 21
11.1930679185
  0
LINE
  5
231
100
AcDbEntity
  8
0
100
AcDbLine
 62
2
  6
CONTINUOUS
 10
12.0319121088
 20
13.5651151626
 11
9.1422082317
 21
13.5651151626
  0
LINE
  5
232
100
AcDbEntity
  8
0
100
AcDbLine
 62
2
  6
CONTINUOUS
 10
9.2672082317
 20
11.1930679185
 11
9.2672082317
 21
11.9884665405
  0
LINE
  5
233
100
AcDbEntity
  8
0
100
AcDbLine
 62
2
  6
CONTINUOUS
 10
9.2672082317
 20
13.5651151626
 11
9.2672082317
 21
12.5353415405
  0
INSERT
  5
234
100
AcDbEntity
  8
0
100
AcDbBlockReference
 62
2
  6
CONTINUOUS
  2
_CLOSED
 10
9.2672082317
 20
11.1930679185
 41
0.1875
 42
0.1875
 43
0.1875
 50
270.0
  0
INSERT
  5
235
100
AcDbEntity
  8
0
100
AcDbBlockReference
 62
2
  6
CONTINUOUS
  2
_CLOSED
 10
9.2672082317
 20
13.5651151626
 41
0.1875
 42
0.1875
 43
0.1875
 50
90.0
  0
ENDBLK
  5
236
100
AcDbEntity
  8
0
  6
BYBLOCK
 62
0
100
AcDbBlockEnd
  0
BLOCK
  5
237
100
AcDbEntity
  8
0
100
AcDbBlockBegin
 62
2
  6
CONTINUOUS
  2
*D4
 70
65
 10
0.0
 20
0.0
  3
*D4
  1

  0
MTEXT
  5
238
100
AcDbEntity
  8
0
100
AcDbMText
 62
2
  6
CONTINUOUS
  7
STANDARD
 71
2
 72
1
 10
10.6637374575
 20
12.4841721358
 30
0.0
 11
1.0
 21
0.0
 31
0.0
 73
2
 44
0.9
  1
2.0\P[51]
 40
0.15625
 41
0.5
  0
LINE
  5
239
100
AcDbEntity
  8
0
100
AcDbLine
 62
2
  6
CONTINUOUS
 10
12.9177388804
 20
13.3190521705
 11
10.6012374575
 21
13.3190521705
  0
LINE
  5
23A
100
AcDbEntity
  8
0
100
AcDbLine
 62
2
  6
CONTINUOUS
 10
12.9177388804
 20
11.3111781547
 11
10.6012374575
 21
11.3111781547
  0
LINE
  5
23B
100
AcDbEntity
  8
0
100
AcDbLine
 62
2
  6
CONTINUOUS
 10
10.7262374575
 20
13.3190521705
 11
10.7262374575
 21
12.5622971358
  0
LINE
  5
23C
100
AcDbEntity
  8
0
100
AcDbLine
 62
2
  6
CONTINUOUS
 10
10.7262374575
 20
11.3111781547
 11
10.7262374575
 21
12.0154221358
  0
INSERT
  5
23D
100
AcDbEntity
  8
0
100
AcDbBlockReference
 62
2
  6
CONTINUOUS
  2
_CLOSED
 10
10.7262374575
 20
13.3190521705
 41
0.1875
 42
0.1875
 43
0.1875
 50
90.0
  0
INSERT
  5
23E
100
AcDbEntity
  8
0
100
AcDbBlockReference
 62
2
  6
CONTINUOUS
  2
_CLOSED
 10
10.7262374575
 20
11.3111781547
 41
0.1875
 42
0.1875
 43
0.1875
 50
270.0
  0
ENDBLK
  5
23F
100
AcDbEntity
  8
0
  6
BYBLOCK
 62
0
100
AcDbBlockEnd
  0
BLOCK
  5
240
100
AcDbEntity
  8
0
100
AcDbBlockBegin
 62
2
  6
CONTINUOUS
  2
*D5
 70
65
 10
0.0
 20
0.0
  3
*D5
  1

  0
MTEXT
  5
241
100
AcDbEntity
  8
0
100
AcDbMText
 62
2
  6
CONTINUOUS
  7
STANDARD
 71
2
 72
1
 10
5.4076022325
 20
9.5148880621
 30
0.0
 11
1.0
 21
0.0
 31
0.0
 73
2
 44
0.9
  1
1.8\P[45]
 40
0.15625
 41
0.5
  0
LINE
  5
242
100
AcDbEntity
  8
0
100
AcDbLine
 62
2
  6
CONTINUOUS
 10
4.5813937085
 20
8.6578876028
 11
4.5813937085
 21
9.5617630621
  0
LINE
  5
243
100
AcDbEntity
  8
0
100
AcDbLine
 62
2
  6
CONTINUOUS
 10
6.3530472518
 20
8.6578876028
 11
6.3530472518
 21
9.5617630621
  0
LINE
  5
244
100
AcDbEntity
  8
0
100
AcDbLine
 62
2
  6
CONTINUOUS
 10
4.5813937085
 20
9.4367630621
 11
5.1419772325
 21
9.4367630621
  0
LINE
  5
245
100
AcDbEntity
  8
0
100
AcDbLine
 62
2
  6
CONTINUOUS
 10
6.3530472518
 20
9.4367630621
 11
5.7982272325
 21
9.4367630621
  0
INSERT
  5
246
100
AcDbEntity
  8
0
100
AcDbBlockReference
 62
2
  6
CONTINUOUS
  2
_CLOSED
 10
4.5813937085
 20
9.4367630621
 41
0.1875
 42
0.1875
 43
0.1875
 50
180.0
  0
INSERT
  5
247
100
AcDbEntity
  8
0
100
AcDbBlockReference
 62
2
  6
CONTINUOUS
  2
_CLOSED
 10
6.3530472518
 20
9.4367630621
 41
0.1875
 42
0.1875
 43
0.1875
  0
ENDBLK
  5
248
100
AcDbEntity
  8
0
  6
BYBLOCK
 62
0
100
AcDbBlockEnd
  0
BLOCK
  5
249
100
AcDbEntity
  8
0
100
AcDbBlockBegin
 62
2
  6
CONTINUOUS
  2
*D6
 70
65
 10
0.0
 20
0.0
  3
*D6
  1

  0
MTEXT
  5
24A
100
AcDbEntity
  8
0
100
AcDbMText
 62
2
  6
CONTINUOUS
  7
STANDARD
 71
2
 72
1
 10
5.3781364471
 20
11.2743235173
 30
0.0
 11
1.0
 21
0.0
 31
0.0
 73
2
 44
0.9
  1
2.8\P[72]
 40
0.15625
 41
0.5
  0
LINE
  5
24B
100
AcDbEntity
  8
0
100
AcDbLine
 62
2
  6
CONTINUOUS
 10
4.0498976455
 20
5.370486028
 11
4.0498976455
 21
11.3211985173
  0
LINE
  5
24C
100
AcDbEntity
  8
0
100
AcDbLine
 62
2
  6
CONTINUOUS
 10
6.8845433148
 20
5.370486028
 11
6.8845433148
 21
11.3211985173
  0
LINE
  5
24D
100
AcDbEntity
  8
0
100
AcDbLine
 62
2
  6
CONTINUOUS
 10
4.0498976455
 20
11.1961985173
 11
5.1125114471
 21
11.1961985173
  0
LINE
  5
24E
100
AcDbEntity
  8
0
100
AcDbLine
 62
2
  6
CONTINUOUS
 10
6.8845433148
 20
11.1961985173
 11
5.7687614471
 21
11.1961985173
  0
INSERT
  5
24F
100
AcDbEntity
  8
0
100
AcDbBlockReference
 62
2
  6
CONTINUOUS
  2
_CLOSED
 10
4.0498976455
 20
11.1961985173
 41
0.1875
 42
0.1875
 43
0.1875
 50
180.0
  0
INSERT
  5
250
100
AcDbEntity
  8
0
100
AcDbBlockReference
 62
2
  6
CONTINUOUS
  2
_CLOSED
 10
6.8845433148
 20
11.1961985173
 41
0.1875
 42
0.1875
 43
0.1875
  0
ENDBLK
  5
251
100
AcDbEntity
  8
0
  6
BYBLOCK
 62
0
100
AcDbBlockEnd
  0
BLOCK
  5
252
100
AcDbEntity
  8
0
100
AcDbBlockBegin
 62
2
  6
CONTINUOUS
  2
*D7
 70
65
 10
0.0
 20
0.0
  3
*D7
  1

  0
MTEXT
  5
253
100
AcDbEntity
  8
0
100
AcDbMText
 62
2
  6
CONTINUOUS
  7
STANDARD
 71
2
 72
1
 10
5.4047204802
 20
10.5386388857
 30
0.0
 11
1.0
 21
0.0
 31
0.0
 73
2
 44
0.9
  1
2.3\P[58]
 40
0.15625
 41
0.5
  0
LINE
  5
254
100
AcDbEntity
  8
0
100
AcDbLine
 62
2
  6
CONTINUOUS
 10
4.3254881967
 20
7.870486028
 11
4.3254881967
 21
10.5855138857
  0
LINE
  5
255
100
AcDbEntity
  8
0
100
AcDbLine
 62
2
  6
CONTINUOUS
 10
6.6089527636
 20
7.870486028
 11
6.6089527636
 21
10.5855138857
  0
LINE
  5
256
100
AcDbEntity
  8
0
100
AcDbLine
 62
2
  6
CONTINUOUS
 10
4.3254881967
 20
10.4605138857
 11
5.1390954802
 21
10.4605138857
  0
LINE
  5
257
100
AcDbEntity
  8
0
100
AcDbLine
 62
2
  6
CONTINUOUS
 10
6.6089527636
 20
10.4605138857
 11
5.7953454802
 21
10.4605138857
  0
INSERT
  5
258
100
AcDbEntity
  8
0
100
AcDbBlockReference
 62
2
  6
CONTINUOUS
  2
_CLOSED
 10
4.3254881967
 20
10.4605138857
 41
0.1875
 42
0.1875
 43
0.1875
 50
180.0
  0
INSERT
  5
259
100
AcDbEntity
  8
0
100
AcDbBlockReference
 62
2
  6
CONTINUOUS
  2
_CLOSED
 10
6.6089527636
 20
10.4605138857
 41
0.1875
 42
0.1875
 43
0.1875
  0
ENDBLK
  5
25A
100
AcDbEntity
  8
0
  6
BYBLOCK
 62
0
100
AcDbBlockEnd
  0
ENDSEC
  0
SECTION
  2
ENTITIES
  0
DIMENSION
  5
25B
100
AcDbEntity
  8
0
100
AcDbDimension
 62
2
  6
CONTINUOUS
  2
*D0
 10
3.0227667429
 20
5.2292458705
 11
3.0227667429
 21
6.8085685935
 70
160
 71
2
 72
2
 41
0.9
 42
85.5
  1
<>\P[]
  3
DIMSTYLE_1
100
AcDbAlignedDimension
 13
4.5813937085
 23
8.5953876028
 14
4.0498976455
 24
5.2292458705
 50
270.0
100
AcDbRotatedDimension
  0
DIMENSION
  5
25C
100
AcDbEntity
  8
0
100
AcDbDimension
 62
2
  6
CONTINUOUS
  2
*D1
 10
14.4763018725
 20
4.3988038896
 11
13.0179402627
 21
4.2816163896
 70
160
 71
2
 72
2
 41
0.9
 42
71.0
  1
<>\P[]
  3
DIMSTYLE_1
100
AcDbAlignedDimension
 13
11.681026282
 23
5.2292458705
 14
14.4763018725
 24
5.3473561067
100
AcDbRotatedDimension
  0
DIMENSION
  5
25D
100
AcDbEntity
  8
0
100
AcDbDimension
 62
2
  6
CONTINUOUS
  2
*D2
 10
14.0629160458
 20
15.1171455461
 11
13.0683992596
 21
14.9999580461
 70
160
 71
2
 72
2
 41
0.9
 42
50.0
  1
<>\P[]
  3
DIMSTYLE_1
100
AcDbAlignedDimension
 13
12.0944121088
 23
13.4371624067
 14
14.0629160458
 24
11.1930679185
100
AcDbRotatedDimension
  0
DIMENSION
  5
25E
100
AcDbEntity
  8
0
100
AcDbDimension
 62
2
  6
CONTINUOUS
  2
*D3
 10
9.2672082317
 20
13.5651151626
 11
9.2672082317
 21
12.2619040405
 70
160
 71
2
 72
2
 41
0.9
 42
60.25
  1
<>\P[]
  3
DIMSTYLE_1
100
AcDbAlignedDimension
 13
14.0629160458
 23
11.1930679185
 14
12.0944121088
 24
13.5651151626
 50
90.0
100
AcDbRotatedDimension
  0
DIMENSION
  5
25F
100
AcDbEntity
  8
0
100
AcDbDimension
 62
2
  6
CONTINUOUS
  2
*D4
 10
10.7262374575
 20
11.3111781547
 11
10.7262374575
 21
12.2888596358
 70
160
 71
2
 72
2
 41
0.9
 42
51.0
  1
<>\P[]
  3
DIMSTYLE_1
100
AcDbAlignedDimension
 13
12.9802388804
 23
13.3190521705
 14
12.9802388804
 24
11.3111781547
 50
270.0
100
AcDbRotatedDimension
  0
DIMENSION
  5
260
100
AcDbEntity
  8
0
100
AcDbDimension
 62
2
  6
CONTINUOUS
  2
*D5
 10
6.3530472518
 20
9.4367630621
 11
5.4701022325
 21
9.3195755621
 70
160
 71
2
 72
2
 41
0.9
 42
45.0
  1
<>\P[]
  3
DIMSTYLE_1
100
AcDbAlignedDimension
 13
4.5813937085
 23
8.5953876028
 14
6.3530472518
 24
8.5953876028
100
AcDbRotatedDimension
  0
DIMENSION
  5
261
100
AcDbEntity
  8
0
100
AcDbDimension
 62
2
  6
CONTINUOUS
  2
*D6
 10
6.8845433148
 20
11.1961985173
 11
5.4406364471
 21
11.0790110173
 70
160
 71
2
 72
2
 41
0.9
 42
72.0
  1
<>\P[]
  3
DIMSTYLE_1
100
AcDbAlignedDimension
 13
4.0498976455
 23
5.307986028
 14
6.8845433148
 24
5.307986028
100
AcDbRotatedDimension
  0
DIMENSION
  5
262
100
AcDbEntity
  8
0
100
AcDbDimension
 62
2
  6
CONTINUOUS
  2
*D7
 10
6.6089527636
 20
10.4605138857
 11
5.4672204802
 21
10.3433263857
 70
160
 71
2
 72
2
 41
0.9
 42
58.0
  1
<>\P[]
  3
DIMSTYLE_1
100
AcDbAlignedDimension
 13
4.3254881967
 23
7.807986028
 14
6.6089527636
 24
7.807986028
100
AcDbRotatedDimension
  0
MTEXT
  5
263
100
AcDbEntity
  8
0
100
AcDbMText
 62
2
  6
CONTINUOUS
  7
STANDARD
 71
1
 72
1
 10
12.2954693706
 20
2.4226299036
 30
0.0
 11
1.0
 21
0.0
 31
0.0
 73
2
 44
0.9
  1
DIMENSIONS IN INCHES [MILLIMETRES]
 40
0.15625
 41
4.25
  0
LINE
  5
264
100
AcDbEntity
  8
0
100
AcDbLine
 62
7
  6
CONTINUOUS
 10
0.0
 20
0.0
 11
0.0
 21
17.0
  0
LINE
  5
265
100
AcDbEntity
  8
0
100
AcDbLine
 62
7
  6
CONTINUOUS
 10
0.0
 20
0.0
 11
22.0
 21
0.0
  0
LINE
  5
266
100
AcDbEntity
  8
0
100
AcDbLine
 62
7
  6
CONTINUOUS
 10
0.0
 20
17.0
 11
22.0
 21
17.0
  0
LINE
  5
267
100
AcDbEntity
  8
0
100
AcDbLine
 62
7
  6
CONTINUOUS
 10
22.0
 20
0.0
 11
22.0
 21
17.0
  0
LINE
  5
268
100
AcDbEntity
  8
0
100
AcDbLine
 62
7
  6
CONTINUOUS
 10
11.681026282
 20
5.2292458705
 11
14.4763018725
 21
5.2292458705
  0
LINE
  5
269
100
AcDbEntity
  8
0
100
AcDbLine
 62
7
  6
CONTINUOUS
 10
13.8463806127
 20
5.307986028
 11
14.4763018725
 21
5.307986028
  0
LINE
  5
26A
100
AcDbEntity
  8
0
100
AcDbLine
 62
7
  6
CONTINUOUS
 10
13.8463806127
 20
5.3473561067
 11
14.4763018725
 21
5.3473561067
  0
LINE
  5
26B
100
AcDbEntity
  8
0
100
AcDbLine
 62
7
  6
CONTINUOUS
 10
11.681026282
 20
5.2292458705
 11
11.681026282
 21
8.5953876028
  0
LINE
  5
26C
100
AcDbEntity
  8
0
100
AcDbLine
 62
7
  6
CONTINUOUS
 10
13.2853569907
 20
5.8785999469
 11
12.8719711639
 21
5.8785999469
  0
LINE
  5
26D
100
AcDbEntity
  8
0
100
AcDbLine
 62
7
  6
CONTINUOUS
 10
12.2814199828
 20
6.4694033508
 11
12.2814199828
 21
6.8827891776
  0
LINE
  5
26E
100
AcDbEntity
  8
0
100
AcDbLine
 62
7
  6
CONTINUOUS
 10
13.3936247072
 20
6.0758440414
 11
13.2853569907
 21
6.0758440414
  0
LINE
  5
26F
100
AcDbEntity
  8
0
100
AcDbLine
 62
7
  6
CONTINUOUS
 10
12.8719711639
 20
6.0758440414
 11
12.7637034473
 21
6.0758440414
  0
LINE
  5
270
100
AcDbEntity
  8
0
100
AcDbLine
 62
7
  6
CONTINUOUS
 10
12.4784118544
 20
6.3611356343
 11
12.4784118544
 21
6.4694033508
  0
LINE
  5
271
100
AcDbEntity
  8
0
100
AcDbLine
 62
7
  6
CONTINUOUS
 10
12.4784118544
 20
6.8827891776
 11
12.4784118544
 21
6.9910568941
  0
LINE
  5
272
100
AcDbEntity
  8
0
100
AcDbLine
 62
7
  6
CONTINUOUS
 10
13.6789163001
 20
6.3611356343
 11
13.6241918907
 21
6.3611356343
  0
LINE
  5
273
100
AcDbEntity
  8
0
100
AcDbLine
 62
7
  6
CONTINUOUS
 10
12.5331362639
 20
6.3611356343
 11
12.4784118544
 21
6.3611356343
  0
LINE
  5
274
100
AcDbEntity
  8
0
100
AcDbLine
 62
7
  6
CONTINUOUS
 10
13.8759081718
 20
6.4694033508
 11
13.6789163001
 21
6.4694033508
  0
LINE
  5
275
100
AcDbEntity
  8
0
100
AcDbLine
 62
7
  6
CONTINUOUS
 10
12.4784118544
 20
6.4694033508
 11
12.2814199828
 21
6.4694033508
  0
LINE
  5
276
100
AcDbEntity
  8
0
100
AcDbLine
 62
7
  6
CONTINUOUS
 10
12.7637034473
 20
6.0758440414
 11
12.7637034473
 21
6.1305684508
  0
LINE
  5
277
100
AcDbEntity
  8
0
100
AcDbLine
 62
7
  6
CONTINUOUS
 10
12.7637034473
 20
7.2216240776
 11
12.7637034473
 21
7.2763484871
  0
LINE
  5
278
100
AcDbEntity
  8
0
100
AcDbLine
 62
7
  6
CONTINUOUS
 10
12.7637034473
 20
7.6111356343
 11
12.7637034473
 21
7.807986028
  0
LINE
  5
279
100
AcDbEntity
  8
0
100
AcDbLine
 62
7
  6
CONTINUOUS
 10
12.8719711639
 20
5.8785999469
 11
12.8719711639
 21
6.0758440414
  0
LINE
  5
27A
100
AcDbEntity
  8
0
100
AcDbLine
 62
7
  6
CONTINUOUS
 10
12.8719711639
 20
7.2763484871
 11
12.8719711639
 21
7.4735925816
  0
LINE
  5
27B
100
AcDbEntity
  8
0
100
AcDbLine
 62
7
  6
CONTINUOUS
 10
13.0196089592
 20
7.807986028
 11
13.0196089592
 21
7.6111356343
  0
LINE
  5
27C
100
AcDbEntity
  8
0
100
AcDbLine
 62
7
  6
CONTINUOUS
 10
12.2814199828
 20
6.8827891776
 11
12.4784118544
 21
6.8827891776
  0
LINE
  5
27D
100
AcDbEntity
  8
0
100
AcDbLine
 62
7
  6
CONTINUOUS
 10
13.6789163001
 20
6.8827891776
 11
13.8759081718
 21
6.8827891776
  0
LINE
  5
27E
100
AcDbEntity
  8
0
100
AcDbLine
 62
7
  6
CONTINUOUS
 10
13.1377191954
 20
7.6111356343
 11
13.1377191954
 21
7.807986028
  0
LINE
  5
27F
100
AcDbEntity
  8
0
100
AcDbLine
 62
7
  6
CONTINUOUS
 10
12.4784118544
 20
6.9910568941
 11
12.5331362639
 21
6.9910568941
  0
LINE
  5
280
100
AcDbEntity
  8
0
100
AcDbLine
 62
7
  6
CONTINUOUS
 10
13.6241918907
 20
6.9910568941
 11
13.6789163001
 21
6.9910568941
  0
LINE
  5
281
100
AcDbEntity
  8
0
100
AcDbLine
 62
7
  6
CONTINUOUS
 10
13.2853569907
 20
7.4735925816
 11
13.2853569907
 21
7.2763484871
  0
LINE
  5
282
100
AcDbEntity
  8
0
100
AcDbLine
 62
7
  6
CONTINUOUS
 10
13.2853569907
 20
6.0758440414
 11
13.2853569907
 21
5.8785999469
  0
LINE
  5
283
100
AcDbEntity
  8
0
100
AcDbLine
 62
7
  6
CONTINUOUS
 10
13.3936247072
 20
7.807986028
 11
13.3936247072
 21
7.6111356343
  0
LINE
  5
284
100
AcDbEntity
  8
0
100
AcDbLine
 62
7
  6
CONTINUOUS
 10
13.3936247072
 20
7.2763484871
 11
13.3936247072
 21
7.2216240776
  0
LINE
  5
285
100
AcDbEntity
  8
0
100
AcDbLine
 62
7
  6
CONTINUOUS
 10
13.3936247072
 20
6.1305684508
 11
13.3936247072
 21
6.0758440414
  0
LINE
  5
286
100
AcDbEntity
  8
0
100
AcDbLine
 62
7
  6
CONTINUOUS
 10
12.7637034473
 20
7.2763484871
 11
12.8719711639
 21
7.2763484871
  0
LINE
  5
287
100
AcDbEntity
  8
0
100
AcDbLine
 62
7
  6
CONTINUOUS
 10
13.2853569907
 20
7.2763484871
 11
13.3936247072
 21
7.2763484871
  0
LINE
  5
288
100
AcDbEntity
  8
0
100
AcDbLine
 62
7
  6
CONTINUOUS
 10
13.6789163001
 20
6.9910568941
 11
13.6789163001
 21
6.8827891776
  0
LINE
  5
289
100
AcDbEntity
  8
0
100
AcDbLine
 62
7
  6
CONTINUOUS
 10
13.6789163001
 20
6.4694033508
 11
13.6789163001
 21
6.3611356343
  0
LINE
  5
28A
100
AcDbEntity
  8
0
100
AcDbLine
 62
7
  6
CONTINUOUS
 10
12.8719711639
 20
7.4735925816
 11
13.2853569907
 21
7.4735925816
  0
LINE
  5
28B
100
AcDbEntity
  8
0
100
AcDbLine
 62
7
  6
CONTINUOUS
 10
12.7637034473
 20
7.6111356343
 11
13.3936247072
 21
7.6111356343
  0
LINE
  5
28C
100
AcDbEntity
  8
0
100
AcDbLine
 62
7
  6
CONTINUOUS
 10
13.8463806127
 20
5.3473561067
 11
13.8463806127
 21
5.2292458705
  0
LINE
  5
28D
100
AcDbEntity
  8
0
100
AcDbLine
 62
7
  6
CONTINUOUS
 10
13.8759081718
 20
6.8827891776
 11
13.8759081718
 21
6.4694033508
  0
LINE
  5
28E
100
AcDbEntity
  8
0
100
AcDbLine
 62
7
  6
CONTINUOUS
 10
12.7637034473
 20
7.807986028
 11
13.3936247072
 21
7.807986028
  0
LINE
  5
28F
100
AcDbEntity
  8
0
100
AcDbLine
 62
7
  6
CONTINUOUS
 10
14.4763018725
 20
5.2292458705
 11
14.4763018725
 21
8.5953876028
  0
LINE
  5
290
100
AcDbEntity
  8
0
100
AcDbLine
 62
7
  6
CONTINUOUS
 10
11.681026282
 20
8.5953876028
 11
14.4763018725
 21
8.5953876028
  0
LINE
  5
291
100
AcDbEntity
  8
0
100
AcDbLine
 62
7
  6
CONTINUOUS
 10
4.0498976455
 20
5.2292458705
 11
6.8845433148
 21
5.2292458705
  0
LINE
  5
292
100
AcDbEntity
  8
0
100
AcDbLine
 62
7
  6
CONTINUOUS
 10
4.0498976455
 20
5.307986028
 11
4.5420236298
 21
5.307986028
  0
LINE
  5
293
100
AcDbEntity
  8
0
100
AcDbLine
 62
7
  6
CONTINUOUS
 10
6.3924173306
 20
5.307986028
 11
6.8845433148
 21
5.307986028
  0
LINE
  5
294
100
AcDbEntity
  8
0
100
AcDbLine
 62
7
  6
CONTINUOUS
 10
4.0498976455
 20
5.307986028
 11
4.0498976455
 21
5.2292458705
  0
LINE
  5
295
100
AcDbEntity
  8
0
100
AcDbLine
 62
7
  6
CONTINUOUS
 10
4.3254881967
 20
7.6111356343
 11
4.3254881967
 21
7.807986028
  0
LINE
  5
296
100
AcDbEntity
  8
0
100
AcDbLine
 62
7
  6
CONTINUOUS
 10
4.5813937085
 20
5.3473561067
 11
4.5813937085
 21
8.5953876028
  0
LINE
  5
297
100
AcDbEntity
  8
0
100
AcDbLine
 62
7
  6
CONTINUOUS
 10
4.3254881967
 20
7.6111356343
 11
4.5813937085
 21
7.6111356343
  0
LINE
  5
298
100
AcDbEntity
  8
0
100
AcDbLine
 62
7
  6
CONTINUOUS
 10
6.3530472518
 20
7.6111356343
 11
6.6089527636
 21
7.6111356343
  0
LINE
  5
299
100
AcDbEntity
  8
0
100
AcDbLine
 62
7
  6
CONTINUOUS
 10
6.3530472518
 20
5.2292458705
 11
6.3530472518
 21
8.5953876028
  0
LINE
  5
29A
100
AcDbEntity
  8
0
100
AcDbLine
 62
7
  6
CONTINUOUS
 10
6.6089527636
 20
7.807986028
 11
6.3530472518
 21
7.807986028
  0
LINE
  5
29B
100
AcDbEntity
  8
0
100
AcDbLine
 62
7
  6
CONTINUOUS
 10
4.5813937085
 20
7.807986028
 11
4.3254881967
 21
7.807986028
  0
LINE
  5
29C
100
AcDbEntity
  8
0
100
AcDbLine
 62
7
  6
CONTINUOUS
 10
6.4613149684
 20
5.307986028
 11
6.4613149684
 21
5.2292458705
  0
LINE
  5
29D
100
AcDbEntity
  8
0
100
AcDbLine
 62
7
  6
CONTINUOUS
 10
6.6089527636
 20
7.807986028
 11
6.6089527636
 21
7.6111356343
  0
LINE
  5
29E
100
AcDbEntity
  8
0
100
AcDbLine
 62
7
  6
CONTINUOUS
 10
6.7172204802
 20
5.307986028
 11
6.7172204802
 21
5.2292458705
  0
LINE
  5
29F
100
AcDbEntity
  8
0
100
AcDbLine
 62
7
  6
CONTINUOUS
 10
6.8845433148
 20
5.307986028
 11
6.8845433148
 21
5.2292458705
  0
LINE
  5
2A0
100
AcDbEntity
  8
0
100
AcDbLine
 62
7
  6
CONTINUOUS
 10
6.3530472518
 20
8.5953876028
 11
4.5813937085
 21
8.5953876028
  0
LINE
  5
2A1
100
AcDbEntity
  8
0
100
AcDbLine
 62
7
  6
CONTINUOUS
 10
11.681026282
 20
11.4292883909
 11
11.681026282
 21
13.7324379972
  0
LINE
  5
2A2
100
AcDbEntity
  8
0
100
AcDbLine
 62
7
  6
CONTINUOUS
 10
13.8463806127
 20
10.8977923279
 11
14.4763018725
 21
10.8977923279
  0
LINE
  5
2A3
100
AcDbEntity
  8
0
100
AcDbLine
 62
7
  6
CONTINUOUS
 10
14.0629160458
 20
11.0651151626
 11
13.8463806127
 21
11.0651151626
  0
LINE
  5
2A4
100
AcDbEntity
  8
0
100
AcDbLine
 62
7
  6
CONTINUOUS
 10
13.0196089592
 20
11.1733828791
 11
13.1377191954
 21
11.1733828791
  0
LINE
  5
2A5
100
AcDbEntity
  8
0
100
AcDbLine
 62
7
  6
CONTINUOUS
 10
13.8463806127
 20
11.3210206744
 11
14.0629160458
 21
11.3210206744
  0
LINE
  5
2A6
100
AcDbEntity
  8
0
100
AcDbLine
 62
7
  6
CONTINUOUS
 10
14.4763018725
 20
11.3899183122
 11
13.8463806127
 21
11.3899183122
  0
LINE
  5
2A7
100
AcDbEntity
  8
0
100
AcDbLine
 62
7
  6
CONTINUOUS
 10
11.681026282
 20
11.4292883909
 11
14.4763018725
 21
11.4292883909
  0
LINE
  5
2A8
100
AcDbEntity
  8
0
100
AcDbLine
 62
7
  6
CONTINUOUS
 10
12.3109475418
 20
13.2009419342
 11
12.3109475418
 21
13.3092096508
  0
LINE
  5
2A9
100
AcDbEntity
  8
0
100
AcDbLine
 62
7
  6
CONTINUOUS
 10
12.3109475418
 20
13.5651151626
 11
12.3109475418
 21
13.7324379972
  0
LINE
  5
2AA
100
AcDbEntity
  8
0
100
AcDbLine
 62
7
  6
CONTINUOUS
 10
13.8463806127
 20
11.4292883909
 11
13.8463806127
 21
11.3210206744
  0
LINE
  5
2AB
100
AcDbEntity
  8
0
100
AcDbLine
 62
7
  6
CONTINUOUS
 10
13.8463806127
 20
11.0651151626
 11
13.8463806127
 21
10.8977923279
  0
LINE
  5
2AC
100
AcDbEntity
  8
0
100
AcDbLine
 62
7
  6
CONTINUOUS
 10
11.681026282
 20
13.2009419342
 11
14.4763018725
 21
13.2009419342
  0
LINE
  5
2AD
100
AcDbEntity
  8
0
100
AcDbLine
 62
7
  6
CONTINUOUS
 10
11.681026282
 20
13.240312013
 11
12.3109475418
 21
13.240312013
  0
LINE
  5
2AE
100
AcDbEntity
  8
0
100
AcDbLine
 62
7
  6
CONTINUOUS
 10
12.3109475418
 20
13.3092096508
 11
12.0944121088
 21
13.3092096508
  0
LINE
  5
2AF
100
AcDbEntity
  8
0
100
AcDbLine
 62
7
  6
CONTINUOUS
 10
13.0196089592
 20
13.4568474461
 11
13.1377191954
 21
13.4568474461
  0
LINE
  5
2B0
100
AcDbEntity
  8
0
100
AcDbLine
 62
7
  6
CONTINUOUS
 10
12.0944121088
 20
13.5651151626
 11
12.3109475418
 21
13.5651151626
  0
LINE
  5
2B1
100
AcDbEntity
  8
0
100
AcDbLine
 62
7
  6
CONTINUOUS
 10
14.4763018725
 20
10.8977923279
 11
14.4763018725
 21
13.2009419342
  0
LINE
  5
2B2
100
AcDbEntity
  8
0
100
AcDbLine
 62
7
  6
CONTINUOUS
 10
12.3109475418
 20
13.7324379972
 11
11.681026282
 21
13.7324379972
  0
LINE
  5
2B3
100
AcDbEntity
  8
0
100
AcDbLine
 62
7
  6
CONTINUOUS
 10
18.8824317382
 20
3.2427086294
 11
19.5088032475
 21
3.6043422303
  0
LINE
  5
2B4
100
AcDbEntity
  8
0
100
AcDbLine
 62
7
  6
CONTINUOUS
 10
19.4600918382
 20
1.3179941759
 11
19.6828035627
 21
1.1894144107
  0
LINE
  5
2B5
100
AcDbEntity
  8
0
100
AcDbLine
 62
7
  6
CONTINUOUS
 10
19.4600918382
 20
1.3501399403
 11
19.6828035627
 21
1.2215601751
  0
LINE
  5
2B6
100
AcDbEntity
  8
0
100
AcDbLine
 62
7
  6
CONTINUOUS
 10
19.5958063027
 20
1.3400949306
 11
19.5192491474
 21
1.3842942249
  0
LINE
  5
2B7
100
AcDbEntity
  8
0
100
AcDbLine
 62
7
  6
CONTINUOUS
 10
19.6097250321
 20
1.404384425
 11
19.6862821874
 21
1.3601851307
  0
LINE
  5
2B8
100
AcDbEntity
  8
0
100
AcDbLine
 62
7
  6
CONTINUOUS
 10
19.6097250321
 20
1.4365301894
 11
19.6862821874
 21
1.3923308951
  0
LINE
  5
2B9
100
AcDbEntity
  8
0
100
AcDbLine
 62
7
  6
CONTINUOUS
 10
19.6201638444
 20
1.4425570045
 11
18.8824317382
 21
1.868477199
  0
LINE
  5
2BA
100
AcDbEntity
  8
0
100
AcDbLine
 62
7
  6
CONTINUOUS
 10
18.8824317382
 20
1.868477199
 11
18.8824317382
 21
3.2427086294
  0
LINE
  5
2BB
100
AcDbEntity
  8
0
100
AcDbLine
 62
7
  6
CONTINUOUS
 10
19.8567956486
 20
1.3220139531
 11
19.6340839241
 21
1.4505937183
  0
LINE
  5
2BC
100
AcDbEntity
  8
0
100
AcDbLine
 62
7
  6
CONTINUOUS
 10
19.648003291
 20
1.4747029028
 11
19.8707150155
 21
1.3461231376
  0
LINE
  5
2BD
100
AcDbEntity
  8
0
100
AcDbLine
 62
7
  6
CONTINUOUS
 10
19.0947038506
 20
2.2522204005
 11
19.0947038506
 21
2.4209856638
  0
LINE
  5
2BE
100
AcDbEntity
  8
0
100
AcDbLine
 62
7
  6
CONTINUOUS
 10
19.4496506614
 20
1.806100196
 11
19.3034960922
 21
1.8904806669
  0
LINE
  5
2BF
100
AcDbEntity
  8
0
100
AcDbLine
 62
7
  6
CONTINUOUS
 10
19.1643512847
 20
2.1678099192
 11
19.1643512847
 21
2.2120103453
  0
LINE
  5
2C0
100
AcDbEntity
  8
0
100
AcDbLine
 62
7
  6
CONTINUOUS
 10
19.1643512847
 20
2.3807756087
 11
19.1643512847
 21
2.4249760348
  0
LINE
  5
2C1
100
AcDbEntity
  8
0
100
AcDbLine
 62
7
  6
CONTINUOUS
 10
19.487929239
 20
1.8645256888
 11
19.4496506614
 21
1.8866253359
  0
LINE
  5
2C2
100
AcDbEntity
  8
0
100
AcDbLine
 62
7
  6
CONTINUOUS
 10
19.3034960922
 20
1.9710058068
 11
19.2652175146
 21
1.993105454
  0
LINE
  5
2C3
100
AcDbEntity
  8
0
100
AcDbLine
 62
7
  6
CONTINUOUS
 10
19.2277413967
 20
2.6480189838
 11
19.2277413967
 21
2.5676545727
  0
LINE
  5
2C4
100
AcDbEntity
  8
0
100
AcDbLine
 62
7
  6
CONTINUOUS
 10
19.2652175146
 20
1.993105454
 11
19.2652175146
 21
2.0154467603
  0
LINE
  5
2C5
100
AcDbEntity
  8
0
100
AcDbLine
 62
7
  6
CONTINUOUS
 10
19.2652175146
 20
2.4608715385
 11
19.2652175146
 21
2.4832128448
  0
LINE
  5
2C6
100
AcDbEntity
  8
0
100
AcDbLine
 62
7
  6
CONTINUOUS
 10
19.265218268
 20
2.5957830193
 11
19.265218268
 21
2.5154186081
  0
LINE
  5
2C7
100
AcDbEntity
  8
0
100
AcDbLine
 62
7
  6
CONTINUOUS
 10
19.3034960922
 20
1.8904806669
 11
19.3034960922
 21
1.9710058068
  0
LINE
  5
2C8
100
AcDbEntity
  8
0
100
AcDbLine
 62
7
  6
CONTINUOUS
 10
19.3034960922
 20
2.4611131977
 11
19.3034960922
 21
2.4933193959
  0
LINE
  5
2C9
100
AcDbEntity
  8
0
100
AcDbLine
 62
7
  6
CONTINUOUS
 10
19.3069767163
 20
2.4913099021
 11
19.3069767163
 21
2.5716743133
  0
LINE
  5
2CA
100
AcDbEntity
  8
0
100
AcDbLine
 62
7
  6
CONTINUOUS
 10
19.588795469
 20
1.9227624988
 11
19.5694473879
 21
1.9339328659
  0
LINE
  5
2CB
100
AcDbEntity
  8
0
100
AcDbLine
 62
7
  6
CONTINUOUS
 10
19.1836993657
 20
2.1566395521
 11
19.1643512847
 21
2.1678099192
  0
LINE
  5
2CC
100
AcDbEntity
  8
0
100
AcDbLine
 62
7
  6
CONTINUOUS
 10
19.6584429031
 20
1.9267528698
 11
19.588795469
 21
1.9669629249
  0
LINE
  5
2CD
100
AcDbEntity
  8
0
100
AcDbLine
 62
7
  6
CONTINUOUS
 10
19.1643512847
 20
2.2120103453
 11
19.0947038506
 21
2.2522204005
  0
LINE
  5
2CE
100
AcDbEntity
  8
0
100
AcDbLine
 62
7
  6
CONTINUOUS
 10
19.4496506614
 20
2.4572578667
 11
19.4496506614
 21
2.3767327268
  0
LINE
  5
2CF
100
AcDbEntity
  8
0
100
AcDbLine
 62
7
  6
CONTINUOUS
 10
19.4496506614
 20
1.8866253359
 11
19.4496506614
 21
1.806100196
  0
LINE
  5
2D0
100
AcDbEntity
  8
0
100
AcDbLine
 62
7
  6
CONTINUOUS
 10
19.4600918382
 20
1.3501399403
 11
19.4600918382
 21
1.3179941759
  0
LINE
  5
2D1
100
AcDbEntity
  8
0
100
AcDbLine
 62
7
  6
CONTINUOUS
 10
19.487929239
 20
2.5716747482
 11
19.487929239
 21
2.4913103371
  0
LINE
  5
2D2
100
AcDbEntity
  8
0
100
AcDbLine
 62
7
  6
CONTINUOUS
 10
19.487929239
 20
2.3546330796
 11
19.487929239
 21
2.3322917733
  0
LINE
  5
2D3
100
AcDbEntity
  8
0
100
AcDbLine
 62
7
  6
CONTINUOUS
 10
19.487929239
 20
1.8868669951
 11
19.487929239
 21
1.8645256888
  0
LINE
  5
2D4
100
AcDbEntity
  8
0
100
AcDbLine
 62
7
  6
CONTINUOUS
 10
19.28456593
 20
2.4720422847
 11
19.1836993657
 21
2.4138056677
  0
LINE
  5
2D5
100
AcDbEntity
  8
0
100
AcDbLine
 62
7
  6
CONTINUOUS
 10
19.3351467907
 20
2.4793866279
 11
19.1643512847
 21
2.3807756087
  0
LINE
  5
2D6
100
AcDbEntity
  8
0
100
AcDbLine
 62
7
  6
CONTINUOUS
 10
19.0947038506
 20
2.4209856638
 11
19.1643512847
 21
2.3807756087
  0
LINE
  5
2D7
100
AcDbEntity
  8
0
100
AcDbLine
 62
7
  6
CONTINUOUS
 10
19.588795469
 20
2.1357281883
 11
19.6584429031
 21
2.0955181332
  0
LINE
  5
2D8
100
AcDbEntity
  8
0
100
AcDbLine
 62
7
  6
CONTINUOUS
 10
19.1643512847
 20
2.4249760348
 11
19.1836993657
 21
2.4138056677
  0
LINE
  5
2D9
100
AcDbEntity
  8
0
100
AcDbLine
 62
7
  6
CONTINUOUS
 10
19.5694473879
 20
2.1910989816
 11
19.588795469
 21
2.1799286145
  0
LINE
  5
2DA
100
AcDbEntity
  8
0
100
AcDbLine
 62
7
  6
CONTINUOUS
 10
19.588795469
 20
2.1799286145
 11
19.588795469
 21
2.1357281883
  0
LINE
  5
2DB
100
AcDbEntity
  8
0
100
AcDbLine
 62
7
  6
CONTINUOUS
 10
19.588795469
 20
1.9669629249
 11
19.588795469
 21
1.9227624988
  0
LINE
  5
2DC
100
AcDbEntity
  8
0
100
AcDbLine
 62
7
  6
CONTINUOUS
 10
19.4496983155
 20
2.4571753269
 11
19.0947038506
 21
2.2522204005
  0
LINE
  5
2DD
100
AcDbEntity
  8
0
100
AcDbLine
 62
7
  6
CONTINUOUS
 10
19.8707150155
 20
2.6721359213
 11
20.4970865248
 21
3.0337695222
  0
LINE
  5
2DE
100
AcDbEntity
  8
0
100
AcDbLine
 62
7
  6
CONTINUOUS
 10
19.4496531264
 20
2.3767284572
 11
19.1643512847
 21
2.2120103453
  0
LINE
  5
2DF
100
AcDbEntity
  8
0
100
AcDbLine
 62
7
  6
CONTINUOUS
 10
19.2652175146
 20
2.4832128448
 11
19.3034960922
 21
2.4611131977
  0
LINE
  5
2E0
100
AcDbEntity
  8
0
100
AcDbLine
 62
7
  6
CONTINUOUS
 10
19.4496506614
 20
2.3767327268
 11
19.487929239
 21
2.3546330796
  0
LINE
  5
2E1
100
AcDbEntity
  8
0
100
AcDbLine
 62
7
  6
CONTINUOUS
 10
19.3069767163
 20
2.4913099021
 11
19.265218268
 21
2.5154186081
  0
LINE
  5
2E2
100
AcDbEntity
  8
0
100
AcDbLine
 62
7
  6
CONTINUOUS
 10
19.6097250321
 20
1.4365301894
 11
19.6097250321
 21
1.404384425
  0
LINE
  5
2E3
100
AcDbEntity
  8
0
100
AcDbLine
 62
7
  6
CONTINUOUS
 10
19.6584429031
 20
2.0955181332
 11
19.6584429031
 21
1.9267528698
  0
LINE
  5
2E4
100
AcDbEntity
  8
0
100
AcDbLine
 62
7
  6
CONTINUOUS
 10
19.6828035627
 20
1.2215601751
 11
19.6828035627
 21
1.1894144107
  0
LINE
  5
2E5
100
AcDbEntity
  8
0
100
AcDbLine
 62
7
  6
CONTINUOUS
 10
19.6862821874
 20
1.3601851307
 11
19.6862821874
 21
1.3923308951
  0
LINE
  5
2E6
100
AcDbEntity
  8
0
100
AcDbLine
 62
7
  6
CONTINUOUS
 10
19.4879320348
 20
2.3546282372
 11
19.1643512847
 21
2.1678099192
  0
LINE
  5
2E7
100
AcDbEntity
  8
0
100
AcDbLine
 62
7
  6
CONTINUOUS
 10
19.1836993657
 20
2.1566395521
 11
19.4879318676
 21
2.3322872205
  0
LINE
  5
2E8
100
AcDbEntity
  8
0
100
AcDbLine
 62
7
  6
CONTINUOUS
 10
19.4244522362
 20
2.4718058552
 11
19.4496506614
 21
2.4572578667
  0
LINE
  5
2E9
100
AcDbEntity
  8
0
100
AcDbLine
 62
7
  6
CONTINUOUS
 10
19.265218268
 20
2.5957830193
 11
19.3069767163
 21
2.5716743133
  0
LINE
  5
2EA
100
AcDbEntity
  8
0
100
AcDbLine
 62
7
  6
CONTINUOUS
 10
19.2652175146
 20
2.7002545134
 11
19.487929239
 21
2.5716747482
  0
LINE
  5
2EB
100
AcDbEntity
  8
0
100
AcDbLine
 62
7
  6
CONTINUOUS
 10
19.8707150155
 20
2.6721359213
 11
19.8707150155
 21
1.3461231376
  0
LINE
  5
2EC
100
AcDbEntity
  8
0
100
AcDbLine
 62
7
  6
CONTINUOUS
 10
19.5694500165
 20
2.1910944287
 11
19.2652175146
 21
2.0154467603
  0
LINE
  5
2ED
100
AcDbEntity
  8
0
100
AcDbLine
 62
7
  6
CONTINUOUS
 10
19.5887982647
 20
2.179923772
 11
19.2652175146
 21
1.993105454
  0
LINE
  5
2EE
100
AcDbEntity
  8
0
100
AcDbLine
 62
7
  6
CONTINUOUS
 10
19.588797934
 20
2.1357239188
 11
19.3034960922
 21
1.9710058068
  0
LINE
  5
2EF
100
AcDbEntity
  8
0
100
AcDbLine
 62
7
  6
CONTINUOUS
 10
19.6584905572
 20
2.0954355934
 11
19.3034960922
 21
1.8904806669
  0
LINE
  5
2F0
100
AcDbEntity
  8
0
100
AcDbLine
 62
7
  6
CONTINUOUS
 10
19.6584429031
 20
2.0071736497
 11
19.4496506614
 21
1.8866253359
  0
LINE
  5
2F1
100
AcDbEntity
  8
0
100
AcDbLine
 62
7
  6
CONTINUOUS
 10
19.487929239
 20
1.8868669951
 11
19.588795469
 21
1.9451034191
  0
LINE
  5
2F2
100
AcDbEntity
  8
0
100
AcDbLine
 62
7
  6
CONTINUOUS
 10
18.8824317382
 20
3.2427086294
 11
19.8707150155
 21
2.6721359213
  0
LINE
  5
2F3
100
AcDbEntity
  8
0
100
AcDbLine
 62
7
  6
CONTINUOUS
 10
20.4970865248
 20
3.0337695222
 11
20.4970865248
 21
1.6595380918
  0
LINE
  5
2F4
100
AcDbEntity
  8
0
100
AcDbLine
 62
7
  6
CONTINUOUS
 10
19.6340839241
 20
1.4505937183
 11
19.6097250321
 21
1.4365301894
  0
LINE
  5
2F5
100
AcDbEntity
  8
0
100
AcDbLine
 62
7
  6
CONTINUOUS
 10
19.5192491474
 20
1.3842942249
 11
19.4600918382
 21
1.3501399403
  0
LINE
  5
2F6
100
AcDbEntity
  8
0
100
AcDbLine
 62
7
  6
CONTINUOUS
 10
19.5088032475
 20
3.6043422303
 11
20.4970865248
 21
3.0337695222
  0
LINE
  5
2F7
100
AcDbEntity
  8
0
100
AcDbLine
 62
7
  6
CONTINUOUS
 10
19.6828035627
 20
1.2215601751
 11
19.8567956486
 21
1.3220139531
  0
LINE
  5
2F8
100
AcDbEntity
  8
0
100
AcDbLine
 62
7
  6
CONTINUOUS
 10
19.6828035627
 20
1.1894144107
 11
20.4970865248
 21
1.6595380918
  0
ARC
  5
2F9
100
AcDbEntity
  8
0
100
AcDbCircle
 62
7
  6
CONTINUOUS
 10
13.0786640773
 20
6.6760962642
 40
0.6299212598
100
AcDbArc
 50
210.0
 51
240.0
  0
ARC
  5
2FA
100
AcDbEntity
  8
0
100
AcDbCircle
 62
7
  6
CONTINUOUS
 10
13.0786640773
 20
6.6760962642
 40
0.6299212598
100
AcDbArc
 50
300.0
 51
330.0
  0
ARC
  5
2FB
100
AcDbEntity
  8
0
100
AcDbCircle
 62
7
  6
CONTINUOUS
 10
13.0786640773
 20
6.6760962642
 40
0.6299212598
100
AcDbArc
 50
30.0
 51
60.0
  0
ARC
  5
2FC
100
AcDbEntity
  8
0
100
AcDbCircle
 62
7
  6
CONTINUOUS
 10
13.0786640773
 20
6.6760962642
 40
0.6299212598
100
AcDbArc
 50
120.0
 51
150.0
  0
ARC
  5
2FD
100
AcDbEntity
  8
0
100
AcDbCircle
 62
7
  6
CONTINUOUS
 10
4.5420236298
 20
5.3473561067
 40
0.0393700787
100
AcDbArc
 50
270.0
 51
360.0
  0
ARC
  5
2FE
100
AcDbEntity
  8
0
100
AcDbCircle
 62
7
  6
CONTINUOUS
 10
6.3924173306
 20
5.3473561067
 40
0.0393700787
100
AcDbArc
 50
180.0
 51
270.0
  0
ARC
  5
2FF
100
AcDbEntity
  8
0
100
AcDbCircle
 62
7
  6
CONTINUOUS
 10
13.1377191954
 20
13.2009419342
 40
0.2559055118
100
AcDbArc
 50
0.0
 51
90.0
  0
ARC
  5
300
100
AcDbEntity
  8
0
100
AcDbCircle
 62
7
  6
CONTINUOUS
 10
13.0196089592
 20
13.2009419342
 40
0.2559055118
100
AcDbArc
 50
90.0
 51
180.0
  0
ARC
  5
301
100
AcDbEntity
  8
0
100
AcDbCircle
 62
7
  6
CONTINUOUS
 10
13.1377191954
 20
11.4292883909
 40
0.2559055118
100
AcDbArc
 50
270.0
 51
360.0
  0
ARC
  5
302
100
AcDbEntity
  8
0
100
AcDbCircle
 62
7
  6
CONTINUOUS
 10
13.0196089592
 20
11.4292883909
 40
0.2559055118
100
AcDbArc
 50
180.0
 51
270.0
  0
ARC
  5
303
100
AcDbEntity
  8
0
100
AcDbCircle
 62
7
  6
CONTINUOUS
 10
12.0944121088
 20
13.4371624067
 40
0.1279527559
100
AcDbArc
 50
90.0
 51
270.0
  0
ARC
  5
304
100
AcDbEntity
  8
0
100
AcDbCircle
 62
7
  6
CONTINUOUS
 10
14.0629160458
 20
11.1930679185
 40
0.1279527559
100
AcDbArc
 50
270.0
 51
90.0
  0
CIRCLE
  5
305
100
AcDbEntity
  8
0
100
AcDbCircle
 62
7
  6
CONTINUOUS
 10
13.0786640773
 20
13.3190521705
 40
0.0984251969
  0
CIRCLE
  5
306
100
AcDbEntity
  8
0
100
AcDbCircle
 62
7
  6
CONTINUOUS
 10
13.0786640773
 20
11.3111781547
 40
0.0984251969
  0
SPLINE
  5
307
100
AcDbEntity
  8
0
100
AcDbSpline
 62
7
  6
CONTINUOUS
 70
0
 71
3
 72
15
 73
11
 74
0
 42
0.0000001
 43
0.0000001
 44
0.0000000001
 40
0.0
 40
0.0
 40
0.0
 40
0.0
 40
0.0869287048
 40
0.1863976548
 40
0.3037857072
 40
0.4375987829
 40
0.5820985487
 40
0.7294177134
 40
0.8711708202
 40
1.0
 40
1.0
 40
1.0
 40
1.0
 10
19.2856035581
 20
2.6118557225
 30
0.0
 10
19.2856024178
 20
2.609017369
 30
0.0
 10
19.2873171636
 20
2.6028753575
 30
0.0
 10
19.2940111137
 20
2.5952621341
 30
0.0
 10
19.3038931891
 20
2.5892406242
 30
0.0
 10
19.3162301038
 20
2.585118669
 30
0.0
 10
19.3300600815
 20
2.5831760093
 30
0.0
 10
19.3442795998
 20
2.5835689795
 30
0.0
 10
19.3577225785
 20
2.5862586911
 30
0.0
 10
19.3659710698
 20
2.5896619113
 30
0.0
 10
19.3696139831
 20
2.5917651358
 30
0.0
  0
SPLINE
  5
308
100
AcDbEntity
  8
0
100
AcDbSpline
 62
7
  6
CONTINUOUS
 70
0
 71
3
 72
11
 73
7
 74
0
 42
0.0000001
 43
0.0000001
 44
0.0000000001
 40
0.0
 40
0.0
 40
0.0
 40
0.0
 40
0.2177723091
 40
0.4509273687
 40
0.7102218233
 40
1.0
 40
1.0
 40
1.0
 40
1.0
 10
19.2277423373
 20
2.5676545727
 30
0.0
 10
19.2277423374
 20
2.5627812305
 30
0.0
 10
19.2295421074
 20
2.5526224596
 30
0.0
 10
19.237243563
 20
2.5384712604
 30
0.0
 10
19.2494149136
 20
2.5256746379
 30
0.0
 10
19.2596023208
 20
2.5186609034
 30
0.0
 10
19.265218268
 20
2.5154186081
 30
0.0
  0
SPLINE
  5
309
100
AcDbEntity
  8
0
100
AcDbSpline
 62
7
  6
CONTINUOUS
 70
0
 71
3
 72
11
 73
7
 74
0
 42
0.0000001
 43
0.0000001
 44
0.0000000001
 40
0.0
 40
0.0
 40
0.0
 40
0.0
 40
0.2177727701
 40
0.4509280213
 40
0.7102223029
 40
1.0
 40
1.0
 40
1.0
 40
1.0
 10
19.2277423373
 20
2.6480189838
 30
0.0
 10
19.2277423372
 20
2.6528922735
 30
0.0
 10
19.2295420662
 20
2.6630509273
 30
0.0
 10
19.2372433552
 20
2.6772019894
 30
0.0
 10
19.2494144586
 20
2.689998517
 30
0.0
 10
19.2596016725
 20
2.6970122248
 30
0.0
 10
19.2652175146
 20
2.7002545134
 30
0.0
  0
SPLINE
  5
30A
100
AcDbEntity
  8
0
100
AcDbSpline
 62
7
  6
CONTINUOUS
 70
0
 71
3
 72
9
 73
5
 74
0
 42
0.0000001
 43
0.0000001
 44
0.0000000001
 40
0.0
 40
0.0
 40
0.0
 40
0.0
 40
0.4919624518
 40
1.0
 40
1.0
 40
1.0
 40
1.0
 10
19.5340532384
 20
1.9011045173
 30
0.0
 10
19.5409502398
 20
1.9050864791
 30
0.0
 10
19.5540747156
 20
1.9148298671
 30
0.0
 10
19.5647180214
 20
1.9272045439
 30
0.0
 10
19.5694473879
 20
1.9339328659
 30
0.0
  0
SPLINE
  5
30B
100
AcDbEntity
  8
0
100
AcDbSpline
 62
7
  6
CONTINUOUS
 70
0
 71
3
 72
9
 73
5
 74
0
 42
0.0000001
 43
0.0000001
 44
0.0000000001
 40
0.0
 40
0.0
 40
0.0
 40
0.0
 40
0.2675262349
 40
1.0
 40
1.0
 40
1.0
 40
1.0
 10
19.6862821874
 20
1.3601851307
 30
0.0
 10
19.6875049552
 20
1.3594791813
 30
0.0
 10
19.6919768507
 20
1.3566816209
 30
0.0
 10
19.6960617855
 20
1.3532023241
 30
0.0
 10
19.6985550493
 20
1.3502480298
 30
0.0
  0
SPLINE
  5
30C
100
AcDbEntity
  8
0
100
AcDbSpline
 62
7
  6
CONTINUOUS
 70
0
 71
3
 72
9
 73
5
 74
0
 42
0.0000001
 43
0.0000001
 44
0.0000000001
 40
0.0
 40
0.0
 40
0.0
 40
0.0
 40
0.500000377
 40
1.0
 40
1.0
 40
1.0
 40
1.0
 10
19.5694473879
 20
2.1910989816
 30
0.0
 10
19.5595900573
 20
2.2165047054
 30
0.0
 10
19.5358128795
 20
2.2658087935
 30
0.0
 10
19.5050026622
 20
2.3110523348
 30
0.0
 10
19.487929239
 20
2.3322917733
 30
0.0
  0
SPLINE
  5
30D
100
AcDbEntity
  8
0
100
AcDbSpline
 62
7
  6
CONTINUOUS
 70
0
 71
3
 72
9
 73
5
 74
0
 42
0.0000001
 43
0.0000001
 44
0.0000000001
 40
0.0
 40
0.0
 40
0.0
 40
0.0
 40
0.5080365127
 40
1.0
 40
1.0
 40
1.0
 40
1.0
 10
19.2652175146
 20
2.4608715385
 30
0.0
 10
19.2570265271
 20
2.4601398258
 30
0.0
 10
19.2409892543
 20
2.4571097341
 30
0.0
 10
19.2259900586
 20
2.4506157137
 30
0.0
 10
19.2190935153
 20
2.4466340163
 30
0.0
  0
SPLINE
  5
30E
100
AcDbEntity
  8
0
100
AcDbSpline
 62
7
  6
CONTINUOUS
 70
0
 71
3
 72
11
 73
7
 74
0
 42
0.0000001
 43
0.0000001
 44
0.0000000001
 40
0.0
 40
0.0
 40
0.0
 40
0.0
 40
0.2372405738
 40
0.5000004574
 40
0.7627600882
 40
1.0
 40
1.0
 40
1.0
 40
1.0
 10
19.5958063027
 20
1.3400949306
 30
0.0
 10
19.6022288801
 20
1.3363869376
 30
0.0
 10
19.6171644496
 20
1.3309761233
 30
0.0
 10
19.641044499
 20
1.3283838148
 30
0.0
 10
19.6649245159
 20
1.3309762303
 30
0.0
 10
19.6798600313
 20
1.3363871192
 30
0.0
 10
19.6862825641
 20
1.340095148
 30
0.0
  0
SPLINE
  5
30F
100
AcDbEntity
  8
0
100
AcDbSpline
 62
7
  6
CONTINUOUS
 70
0
 71
3
 72
11
 73
7
 74
0
 42
0.0000001
 43
0.0000001
 44
0.0000000001
 40
0.0
 40
0.0
 40
0.0
 40
0.0
 40
0.2897048043
 40
0.5490913404
 40
0.7822177947
 40
1.0
 40
1.0
 40
1.0
 40
1.0
 10
19.6862825641
 20
1.340095148
 30
0.0
 10
19.6890897588
 20
1.341715873
 30
0.0
 10
19.6941827176
 20
1.3452237459
 30
0.0
 10
19.7002695129
 20
1.3516206904
 30
0.0
 10
19.7041198201
 20
1.358697261
 30
0.0
 10
19.7050203042
 20
1.3637761798
 30
0.0
 10
19.7050203038
 20
1.3662129128
 30
0.0
  0
SPLINE
  5
310
100
AcDbEntity
  8
0
100
AcDbSpline
 62
7
  6
CONTINUOUS
 70
0
 71
3
 72
9
 73
5
 74
0
 42
0.0000001
 43
0.0000001
 44
0.0000000001
 40
0.0
 40
0.0
 40
0.0
 40
0.0
 40
0.5000018373
 40
1.0
 40
1.0
 40
1.0
 40
1.0
 10
19.648003291
 20
1.4747029028
 30
0.0
 10
19.648003291
 20
1.4699322926
 30
0.0
 10
19.6447424051
 20
1.4605128066
 30
0.0
 10
19.6382153696
 20
1.4529789952
 30
0.0
 10
19.6340839241
 20
1.4505937183
 30
0.0
  0
SPLINE
  5
311
100
AcDbEntity
  8
0
100
AcDbSpline
 62
7
  6
CONTINUOUS
 70
0
 71
3
 72
11
 73
7
 74
0
 42
0.0000001
 43
0.0000001
 44
0.0000000001
 40
0.0
 40
0.0
 40
0.0
 40
0.0
 40
0.2896428702
 40
0.5491125874
 40
0.7822368
 40
1.0
 40
1.0
 40
1.0
 40
1.0
 10
19.3696139831
 20
2.5917651358
 30
0.0
 10
19.3717728979
 20
2.5930115784
 30
0.0
 10
19.3756902014
 20
2.595710752
 30
0.0
 10
19.380373122
 20
2.6006305993
 30
0.0
 10
19.3833363483
 20
2.6060745601
 30
0.0
 10
19.3840262414
 20
2.609981483
 30
0.0
 10
19.3840269943
 20
2.6118557257
 30
0.0
  0
SPLINE
  5
312
100
AcDbEntity
  8
0
100
AcDbSpline
 62
7
  6
CONTINUOUS
 70
0
 71
3
 72
11
 73
7
 74
0
 42
0.0000001
 43
0.0000001
 44
0.0000000001
 40
0.0
 40
0.0
 40
0.0
 40
0.0
 40
0.237228705
 40
0.5000005261
 40
0.7627720609
 40
1.0
 40
1.0
 40
1.0
 40
1.0
 10
19.3069767163
 20
2.4913099021
 30
0.0
 10
19.3198212329
 20
2.4838942848
 30
0.0
 10
19.3496921432
 20
2.4730719923
 30
0.0
 10
19.3974531199
 20
2.4678880097
 30
0.0
 10
19.4452140246
 20
2.4730722103
 30
0.0
 10
19.4750848174
 20
2.4838946511
 30
0.0
 10
19.487929239
 20
2.4913103371
 30
0.0
  0
SPLINE
  5
313
100
AcDbEntity
  8
0
100
AcDbSpline
 62
7
  6
CONTINUOUS
 70
0
 71
3
 72
9
 73
5
 74
0
 42
0.0000001
 43
0.0000001
 44
0.0000000001
 40
0.0
 40
0.0
 40
0.0
 40
0.0
 40
0.500000377
 40
1.0
 40
1.0
 40
1.0
 40
1.0
 10
19.1836993657
 20
2.1566395521
 30
0.0
 10
19.1935566963
 20
2.1312338283
 30
0.0
 10
19.2173338742
 20
2.0819297401
 30
0.0
 10
19.2481440914
 20
2.0366861988
 30
0.0
 10
19.2652175146
 20
2.0154467603
 30
0.0
  0
SPLINE
  5
314
100
AcDbEntity
  8
0
100
AcDbSpline
 62
7
  6
CONTINUOUS
 70
0
 71
3
 72
9
 73
5
 74
0
 42
0.0000001
 43
0.0000001
 44
0.0000000001
 40
0.0
 40
0.0
 40
0.0
 40
0.0
 40
0.5080365127
 40
1.0
 40
1.0
 40
1.0
 40
1.0
 10
19.487929239
 20
1.8868669951
 30
0.0
 10
19.4961202265
 20
1.8875987079
 30
0.0
 10
19.5121574993
 20
1.8906287995
 30
0.0
 10
19.527156695
 20
1.8971228199
 30
0.0
 10
19.5340532384
 20
1.9011045173
 30
0.0
  0
SPLINE
  5
315
100
AcDbEntity
  8
0
100
AcDbSpline
 62
7
  6
CONTINUOUS
 70
0
 71
3
 72
15
 73
11
 74
0
 42
0.0000001
 43
0.0000001
 44
0.0000000001
 40
0.0
 40
0.0
 40
0.0
 40
0.0
 40
0.0869287048
 40
0.1863976548
 40
0.3037857072
 40
0.4375987829
 40
0.5820985487
 40
0.7294177134
 40
0.8711708202
 40
1.0
 40
1.0
 40
1.0
 40
1.0
 10
19.3840269943
 20
2.6118557257
 30
0.0
 10
19.3840281346
 20
2.6146940793
 30
0.0
 10
19.3823133888
 20
2.6208360907
 30
0.0
 10
19.3756194387
 20
2.6284493141
 30
0.0
 10
19.3657373633
 20
2.6344708241
 30
0.0
 10
19.3534004486
 20
2.6385927792
 30
0.0
 10
19.3395704709
 20
2.6405354389
 30
0.0
 10
19.3253509526
 20
2.6401424688
 30
0.0
 10
19.3119079739
 20
2.6374527571
 30
0.0
 10
19.3036594826
 20
2.6340495369
 30
0.0
 10
19.3000165693
 20
2.6319463124
 30
0.0
  0
SPLINE
  5
316
100
AcDbEntity
  8
0
100
AcDbSpline
 62
7
  6
CONTINUOUS
 70
0
 71
3
 72
9
 73
5
 74
0
 42
0.0000001
 43
0.0000001
 44
0.0000000001
 40
0.0
 40
0.0
 40
0.0
 40
0.0
 40
0.4999984935
 40
1.0
 40
1.0
 40
1.0
 40
1.0
 10
19.8567956486
 20
1.3220139531
 30
0.0
 10
19.8609270968
 20
1.3243992316
 30
0.0
 10
19.8674541314
 20
1.3319330447
 30
0.0
 10
19.8707150155
 20
1.3413525306
 30
0.0
 10
19.8707150155
 20
1.3461231376
 30
0.0
  0
SPLINE
  5
317
100
AcDbEntity
  8
0
100
AcDbSpline
 62
7
  6
CONTINUOUS
 70
0
 71
3
 72
9
 73
5
 74
0
 42
0.0000001
 43
0.0000001
 44
0.0000000001
 40
0.0
 40
0.0
 40
0.0
 40
0.0
 40
0.4919624518
 40
1.0
 40
1.0
 40
1.0
 40
1.0
 10
19.2190935153
 20
2.4466340163
 30
0.0
 10
19.2121965138
 20
2.4426520545
 30
0.0
 10
19.1990720381
 20
2.4329086665
 30
0.0
 10
19.1884287322
 20
2.4205339897
 30
0.0
 10
19.1836993657
 20
2.4138056677
 30
0.0
  0
SPLINE
  5
318
100
AcDbEntity
  8
0
100
AcDbSpline
 62
7
  6
CONTINUOUS
 70
0
 71
3
 72
11
 73
7
 74
0
 42
0.0000001
 43
0.0000001
 44
0.0000000001
 40
0.0
 40
0.0
 40
0.0
 40
0.0
 40
0.2896428702
 40
0.5491125874
 40
0.7822368
 40
1.0
 40
1.0
 40
1.0
 40
1.0
 10
19.3000165693
 20
2.6319463124
 30
0.0
 10
19.2978576545
 20
2.6306998699
 30
0.0
 10
19.293940351
 20
2.6280006963
 30
0.0
 10
19.2892574304
 20
2.6230808489
 30
0.0
 10
19.2862942041
 20
2.6176368882
 30
0.0
 10
19.285604311
 20
2.6137299652
 30
0.0
 10
19.2856035581
 20
2.6118557225
 30
0.0
  0
SPLINE
  5
319
100
AcDbEntity
  8
0
100
AcDbSpline
 62
7
  6
CONTINUOUS
 70
0
 71
3
 72
11
 73
7
 74
0
 42
0.0000001
 43
0.0000001
 44
0.0000000001
 40
0.0
 40
0.0
 40
0.0
 40
0.0
 40
0.2372279391
 40
0.4999994739
 40
0.762771295
 40
1.0
 40
1.0
 40
1.0
 40
1.0
 10
19.487929239
 20
2.5716747482
 30
0.0
 10
19.4750848174
 20
2.5642590622
 30
0.0
 10
19.4452140246
 20
2.5534366214
 30
0.0
 10
19.3974531199
 20
2.5482524209
 30
0.0
 10
19.3496921432
 20
2.5534364035
 30
0.0
 10
19.3198212329
 20
2.564258696
 30
0.0
 10
19.3069767163
 20
2.5716743133
 30
0.0
  0
SPLINE
  5
31A
100
AcDbEntity
  8
0
100
AcDbSpline
 62
7
  6
CONTINUOUS
 70
0
 71
3
 72
11
 73
7
 74
0
 42
0.0000001
 43
0.0000001
 44
0.0000000001
 40
0.0
 40
0.0
 40
0.0
 40
0.0
 40
0.2177817009
 40
0.4509079353
 40
0.7102947134
 40
1.0
 40
1.0
 40
1.0
 40
1.0
 10
19.7050203038
 20
1.3662129128
 30
0.0
 10
19.7050203033
 20
1.3686496716
 30
0.0
 10
19.7041198003
 20
1.3737286482
 30
0.0
 10
19.7002694099
 20
1.3808052876
 30
0.0
 10
19.6941824901
 20
1.3872022793
 30
0.0
 10
19.6890894346
 20
1.3907101669
 30
0.0
 10
19.6862821874
 20
1.3923308951
 30
0.0
  0
SPLINE
  5
31B
100
AcDbEntity
  8
0
100
AcDbSpline
 62
7
  6
CONTINUOUS
 70
0
 71
3
 72
11
 73
7
 74
0
 42
0.0000001
 43
0.0000001
 44
0.0000000001
 40
0.0
 40
0.0
 40
0.0
 40
0.0
 40
0.2897781767
 40
0.5490726313
 40
0.7822276909
 40
1.0
 40
1.0
 40
1.0
 40
1.0
 10
19.265218268
 20
2.5957830193
 30
0.0
 10
19.2596023208
 20
2.5990253145
 30
0.0
 10
19.2494149136
 20
2.6060390491
 30
0.0
 10
19.237243563
 20
2.6188356715
 30
0.0
 10
19.2295421074
 20
2.6329868707
 30
0.0
 10
19.2277423374
 20
2.6431456417
 30
0.0
 10
19.2277423373
 20
2.6480189838
 30
0.0
  0
ENDSEC
  0
SECTION
  2
OBJECTS
  0
DICTIONARY
  5
C
100
AcDbDictionary
280
0
281
1
  3
ACAD_GROUP
350
D
  3
ACAD_MLINESTYLE
350
17
  3
ACAD_LAYOUT
350
1A
  3
ACAD_PLOTSETTINGS
350
19
  3
ACAD_PLOTSTYLENAME
350
E
  0
DICTIONARY
  5
D
102
{ACAD_REACTORS
330
C
102
}
100
AcDbDictionary
280
0
281
1
  0
ACDBDICTIONARYWDFLT
  5
E
102
{ACAD_REACTORS
330
C
102
}
100
AcDbDictionary
281
1
  3
Normal
350
F
100
AcDbDictionaryWithDefault
340
F
  0
DICTIONARY
  5
17
102
{ACAD_REACTORS
330
C
102
}
100
AcDbDictionary
280
0
281
1
  3
Standard
350
18
  0
DICTIONARY
  5
19
102
{ACAD_REACTORS
330
C
102
}
100
AcDbDictionary
281
1
  0
DICTIONARY
  5
1A
102
{ACAD_REACTORS
330
C
102
}
100
AcDbDictionary
281
1
  3
Model
350
31C
  3
Layout1
350
31D
  0
ACDBPLACEHOLDER
  5
F
102
{ACAD_REACTORS
330
E
102
}
  0
MLINESTYLE
  5
18
102
{ACAD_REACTORS
330
17
102
}
100
AcDbMlineStyle
  2
STANDARD
 70
0
  3

 62
256
 51
90.0
 52
90.0
 71
2
 49
0.5
 62
256
  6
BYLAYER
 49
-0.5
 62
256
  6
BYLAYER
  0
LAYOUT
  5
31C
102
{ACAD_REACTORS
330
1A
102
}
100
AcDbPlotSettings
  1

  2
none_device
  4
ANSI_C_(22.00_x_17.00_Inches)
  6

 40
0.0
 41
0.0
 42
0.0
 43
0.0
 44
558.8
 45
431.8
 46
0.0
 47
0.0
 48
0.0
 49
0.0
140
0.0
141
0.0
142
1.0
143
1.0
 70
1024
 72
0
 73
0
 74
0
  7

 75
0
147
1.0
148
0.0
149
0.0
100
AcDbLayout
  1
Model
 70
0
 71
0
 10
0.0
 20
0.0
 11
22.0
 21
17.0
 12
0.0
 22
0.0
 32
0.0
 14
0.0
 24
0.0
 34
0.0
 15
0.0
 25
0.0
 35
0.0
146
0.0
 13
0.0
 23
0.0
 33
0.0
 16
1.0
 26
0.0
 36
0.0
 17
0.0
 27
1.0
 37
0.0
 76
0
330
200
345
0
346
0
  0
LAYOUT
  5
31D
102
{ACAD_REACTORS
330
1A
102
}
100
AcDbPlotSettings
  1

  2
none_device
  4
ANSI_C_(22.00_x_17.00_Inches)
  6

 40
0.0
 41
0.0
 42
0.0
 43
0.0
 44
558.8
 45
431.8
 46
0.0
 47
0.0
 48
0.0
 49
0.0
140
0.0
141
0.0
142
1.0
143
1.0
 70
0
 72
0
 73
0
 74
0
  7

 75
0
147
1.0
148
0.0
149
0.0
100
AcDbLayout
  1
Layout1
 70
0
 71
1
 10
0.0
 20
0.0
 11
22.0
 21
17.0
 12
0.0
 22
0.0
 32
0.0
 14
0.0
 24
0.0
 34
0.0
 15
0.0
 25
0.0
 35
0.0
146
0.0
 13
0.0
 23
0.0
 33
0.0
 16
1.0
 26
0.0
 36
0.0
 17
0.0
 27
1.0
 37
0.0
 76
0
330
201
345
0
346
0
  0
ENDSEC
  0
EOF
