  0
SECTION
  2
HEADER
  9
$ACADVER
  1
AC1015
  9
$ACADMAINTVER
 70
    20
  9
$DWGCODEPAGE
  3
ANSI_1252
  9
$INSBASE
 10
0.0
 20
0.0
 30
0.0
  9
$EXTMIN
 10
-0.0003356677483914
 20
-0.0002593796237598
 30
-0.0015258207003583
  9
$EXTMAX
 10
11.00033571897113
 20
8.500259419204969
 30
0.0000000349246037
  9
$LIMMIN
 10
0.0
 20
0.0
  9
$LIMMAX
 10
11.0
 20
8.5
  9
$ORTHOMODE
 70
     0
  9
$REGENMODE
 70
     1
  9
$FILLMODE
 70
     1
  9
$QTEXTMODE
 70
     0
  9
$MIRRTEXT
 70
     0
  9
$LTSCALE
 40
0.605
  9
$ATTMODE
 70
     1
  9
$TEXTSIZE
 40
0.2
  9
$TRACEWID
 40
0.05
  9
$TEXTSTYLE
  7
STANDARD
  9
$CLAYER
  8
0
  9
$CELTYPE
  6
BYLAYER
  9
$CECOLOR
 62
   256
  9
$CELTSCALE
 40
1.0
  9
$DISPSILH
 70
     0
  9
$DIMSCALE
 40
1.0
  9
$DIMASZ
 40
0.1875
  9
$DIMEXO
 40
0.06875
  9
$DIMDLI
 40
0.418
  9
$DIMRND
 40
0.0
  9
$DIMDLE
 40
0.0
  9
$DIMEXE
 40
0.198
  9
$DIMTP
 40
0.0
  9
$DIMTM
 40
0.0
  9
$DIMTXT
 40
0.15625
  9
$DIMCEN
 40
0.099
  9
$DIMTSZ
 40
0.0
  9
$DIMTOL
 70
     0
  9
$DIMLIM
 70
     0
  9
$DIMTIH
 70
     1
  9
$DIMTOH
 70
     1
  9
$DIMSE1
 70
     0
  9
$DIMSE2
 70
     0
  9
$DIMTAD
 70
     0
  9
$DIMZIN
 70
     0
  9
$DIMBLK
  1

  9
$DIMASO
 70
     1
  9
$DIMSHO
 70
     1
  9
$DIMPOST
  1

  9
$DIMAPOST
  1

  9
$DIMALT
 70
     0
  9
$DIMALTD
 70
     2
  9
$DIMALTF
 40
25.4
  9
$DIMLFAC
 40
1.0
  9
$DIMTOFL
 70
     0
  9
$DIMTVP
 40
0.0
  9
$DIMTIX
 70
     0
  9
$DIMSOXD
 70
     0
  9
$DIMSAH
 70
     0
  9
$DIMBLK1
  1

  9
$DIMBLK2
  1

  9
$DIMSTYLE
  2
STANDARD
  9
$DIMCLRD
 70
     0
  9
$DIMCLRE
 70
     0
  9
$DIMCLRT
 70
     0
  9
$DIMTFAC
 40
1.0
  9
$DIMGAP
 40
0.09
  9
$DIMJUST
 70
     0
  9
$DIMSD1
 70
     0
  9
$DIMSD2
 70
     0
  9
$DIMTOLJ
 70
     1
  9
$DIMTZIN
 70
     0
  9
$DIMALTZ
 70
     0
  9
$DIMALTTZ
 70
     0
  9
$DIMUPT
 70
     0
  9
$DIMDEC
 70
     4
  9
$DIMTDEC
 70
     4
  9
$DIMALTU
 70
     2
  9
$DIMALTTD
 70
     2
  9
$DIMTXSTY
  7
STANDARD
  9
$DIMAUNIT
 70
     0
  9
$DIMADEC
 70
     0
  9
$DIMALTRND
 40
0.0
  9
$DIMAZIN
 70
     0
  9
$DIMDSEP
 70
    46
  9
$DIMATFIT
 70
     3
  9
$DIMFRAC
 70
     0
  9
$DIMLDRBLK
  1

  9
$DIMLUNIT
 70
     2
  9
$DIMLWD
 70
    -2
  9
$DIMLWE
 70
    -2
  9
$DIMTMOVE
 70
     0
  9
$LUNITS
 70
     2
  9
$LUPREC
 70
     4
  9
$SKETCHINC
 40
0.1
  9
$FILLETRAD
 40
0.0
  9
$AUNITS
 70
     0
  9
$AUPREC
 70
     0
  9
$MENU
  1
.
  9
$ELEVATION
 40
0.0
  9
$PELEVATION
 40
0.0
  9
$THICKNESS
 40
0.0
  9
$LIMCHECK
 70
     0
  9
$CHAMFERA
 40
0.0
  9
$CHAMFERB
 40
0.0
  9
$CHAMFERC
 40
0.0
  9
$CHAMFERD
 40
0.0
  9
$SKPOLY
 70
     0
  9
$TDCREATE
 40
2455546.470759734
  9
$TDUCREATE
 40
2455546.720759734
  9
$TDUPDATE
 40
2455546.473942303
  9
$TDUUPDATE
 40
2455546.723942303
  9
$TDINDWG
 40
0.0031854630
  9
$TDUSRTIMER
 40
0.0031854630
  9
$USRTIMER
 70
     1
  9
$ANGBASE
 50
0.0
  9
$ANGDIR
 70
     0
  9
$PDMODE
 70
     3
  9
$PDSIZE
 40
0.3125
  9
$PLINEWID
 40
0.0
  9
$SPLFRAME
 70
     0
  9
$SPLINETYPE
 70
     6
  9
$SPLINESEGS
 70
     8
  9
$HANDSEED
  5
476
  9
$SURFTAB1
 70
     6
  9
$SURFTAB2
 70
     6
  9
$SURFTYPE
 70
     6
  9
$SURFU
 70
     6
  9
$SURFV
 70
     6
  9
$UCSBASE
  2

  9
$UCSNAME
  2

  9
$UCSORG
 10
0.0
 20
0.0
 30
0.0
  9
$UCSXDIR
 10
1.0
 20
0.0
 30
0.0
  9
$UCSYDIR
 10
0.0
 20
1.0
 30
0.0
  9
$UCSORTHOREF
  2

  9
$UCSORTHOVIEW
 70
     0
  9
$UCSORGTOP
 10
0.0
 20
0.0
 30
0.0
  9
$UCSORGBOTTOM
 10
0.0
 20
0.0
 30
0.0
  9
$UCSORGLEFT
 10
0.0
 20
0.0
 30
0.0
  9
$UCSORGRIGHT
 10
0.0
 20
0.0
 30
0.0
  9
$UCSORGFRONT
 10
0.0
 20
0.0
 30
0.0
  9
$UCSORGBACK
 10
0.0
 20
0.0
 30
0.0
  9
$PUCSBASE
  2

  9
$PUCSNAME
  2

  9
$PUCSORG
 10
0.0
 20
0.0
 30
0.0
  9
$PUCSXDIR
 10
1.0
 20
0.0
 30
0.0
  9
$PUCSYDIR
 10
0.0
 20
1.0
 30
0.0
  9
$PUCSORTHOREF
  2

  9
$PUCSORTHOVIEW
 70
     0
  9
$PUCSORGTOP
 10
0.0
 20
0.0
 30
0.0
  9
$PUCSORGBOTTOM
 10
0.0
 20
0.0
 30
0.0
  9
$PUCSORGLEFT
 10
0.0
 20
0.0
 30
0.0
  9
$PUCSORGRIGHT
 10
0.0
 20
0.0
 30
0.0
  9
$PUCSORGFRONT
 10
0.0
 20
0.0
 30
0.0
  9
$PUCSORGBACK
 10
0.0
 20
0.0
 30
0.0
  9
$USERI1
 70
     0
  9
$USERI2
 70
     0
  9
$USERI3
 70
     0
  9
$USERI4
 70
     0
  9
$USERI5
 70
     0
  9
$USERR1
 40
0.0
  9
$USERR2
 40
0.0
  9
$USERR3
 40
0.0
  9
$USERR4
 40
0.0
  9
$USERR5
 40
0.0
  9
$WORLDVIEW
 70
     1
  9
$SHADEDGE
 70
     3
  9
$SHADEDIF
 70
    70
  9
$TILEMODE
 70
     1
  9
$MAXACTVP
 70
    64
  9
$PINSBASE
 10
0.0
 20
0.0
 30
0.0
  9
$PLIMCHECK
 70
     0
  9
$PEXTMIN
 10
1.000000000000000E+20
 20
1.000000000000000E+20
 30
1.000000000000000E+20
  9
$PEXTMAX
 10
-1.000000000000000E+20
 20
-1.000000000000000E+20
 30
-1.000000000000000E+20
  9
$PLIMMIN
 10
0.0
 20
0.0
  9
$PLIMMAX
 10
12.0
 20
9.0
  9
$UNITMODE
 70
     0
  9
$VISRETAIN
 70
     1
  9
$PLINEGEN
 70
     0
  9
$PSLTSCALE
 70
     1
  9
$TREEDEPTH
 70
  3020
  9
$CMLSTYLE
  2
Standard
  9
$CMLJUST
 70
     0
  9
$CMLSCALE
 40
1.0
  9
$PROXYGRAPHICS
 70
     1
  9
$MEASUREMENT
 70
     0
  9
$CELWEIGHT
370
    -1
  9
$ENDCAPS
280
     0
  9
$JOINSTYLE
280
     0
  9
$LWDISPLAY
290
     0
  9
$INSUNITS
 70
     1
  9
$HYPERLINKBASE
  1

  9
$STYLESHEET
  1

  9
$XEDIT
290
     1
  9
$CEPSNTYPE
380
     0
  9
$PSTYLEMODE
290
     1
  9
$FINGERPRINTGUID
  2
{63481AC5-5C4D-4A36-BD71-D85C59C78B2E}
  9
$VERSIONGUID
  2
{2D34279F-D921-49AA-9530-D947BF03A9DE}
  9
$EXTNAMES
290
     1
  9
$PSVPSCALE
 40
0.0
  9
$OLESTARTUP
290
     0
  0
ENDSEC
  0
SECTION
  2
CLASSES
  0
CLASS
  1
ACDBDICTIONARYWDFLT
  2
AcDbDictionaryWithDefault
  3
ObjectDBX Classes
 90
        0
280
     0
281
     0
  0
CLASS
  1
ACDBPLACEHOLDER
  2
AcDbPlaceHolder
  3
ObjectDBX Classes
 90
        0
280
     0
281
     0
  0
CLASS
  1
LAYOUT
  2
AcDbLayout
  3
ObjectDBX Classes
 90
        0
280
     0
281
     0
  0
CLASS
  1
TABLESTYLE
  2
AcDbTableStyle
  3
ObjectDBX Classes
 90
     2047
280
     0
281
     0
  0
CLASS
  1
AMGSETTINGSOBJ
  2
AmgSettingsObj
  3
"AcadM|Product Description: AutoCAD Mechanical 2000|Company: Autodesk"
 90
        0
280
     0
281
     0
  0
CLASS
  1
ACME_DOCUMENT
  2
AcMeDbDoc
  3
AcMeServices
 90
        0
280
     0
281
     0
  0
CLASS
  1
ACMESCOPE
  2
AcMeScope
  3
AcMeServices
 90
        0
280
     0
281
     0
  0
CLASS
  1
ACMECOMMANDHISTORY
  2
AcMeCommandHistory
  3
AcMeServices
 90
        0
280
     0
281
     0
  0
CLASS
  1
ACIMSYSVARMAN
  2
AcImSysVarManager
  3
AcMeServices
 90
        0
280
     0
281
     0
  0
CLASS
  1
ACIMINTSYSVAR
  2
AcImIntSysVar
  3
AcMeServices
 90
        0
280
     0
281
     0
  0
CLASS
  1
ACMEDRAWINGMAN
  2
AcMeDrawingMan
  3
AcMeServices
 90
        0
280
     0
281
     0
  0
CLASS
  1
ACMEVIEW
  2
AcMeView
  3
AcMeServices
 90
        0
280
     0
281
     0
  0
CLASS
  1
ACDBENTITYCACHE
  2
AcMeEntityCache
  3
AcMeServices
 90
        0
280
     0
281
     0
  0
CLASS
  1
GSMANAGER
  2
AcMeGSManager
  3
AcMeServices
 90
        0
280
     0
281
     0
  0
CLASS
  1
AMDTINTERNALREACTOR
  2
AmdtInternalReactor
  3
AcMeServices
 90
        0
280
     0
281
     0
  0
CLASS
  1
ACMESTATEMGR
  2
AcMeStateMgr
  3
AcMeServices
 90
        0
280
     0
281
     0
  0
CLASS
  1
ACGREFMASTER
  2
AcGrefMaster
  3
AcAttribServices
 90
        0
280
     0
281
     0
  0
CLASS
  1
AM_DRAWING_MGR
  2
AcDmDwgMgr
  3
AcMechDwgViewMgmt
 90
        0
280
     0
281
     0
  0
CLASS
  1
AM_DWG_DOCUMENT
  2
AcDmDwgDocument
  3
AcMechDwgViewMgmt
 90
        0
280
     0
281
     0
  0
CLASS
  1
AM_DWG_SHEET
  2
AcDmSheet
  3
AcMechDwgViewMgmt
 90
        0
280
     0
281
     0
  0
CLASS
  1
AM_VIEWDIMPARMAP
  2
AcDmViewDimParMap
  3
AcMechDwgViewMgmt
 90
        0
280
     0
281
     0
  0
CLASS
  1
ACIMREALSYSVAR
  2
AcImRealSysVar
  3
AcMeServices
 90
        0
280
     0
281
     0
  0
CLASS
  1
AM_DWGMGR_NAME
  2
AcDmDwgMgrName
  3
AcMechDwgViewMgmt
 90
        0
280
     0
281
     0
  0
CLASS
  1
ACME_DATABASE
  2
AcMeDbDatabase
  3
AcMeServices
 90
        0
280
     0
281
     0
  0
CLASS
  1
ACRFINSADJUSTERMGR
  2
AcRfInsAdjusterMgr
  3
AcMeServices
 90
        0
280
     0
281
     0
  0
CLASS
  1
ACGREFACADMASTER
  2
AcGrefacadMaster
  3
AcGrefServices
 90
        0
280
     0
281
     0
  0
CLASS
  1
AMDTMENUSTATEMGR
  2
AmdtMenuStateMgr
  3
McadcomServices
 90
        0
280
     0
281
     0
  0
CLASS
  1
AMDTMCOMMENUSTATE
  2
AmdtMcomMenuState
  3
McadcomServices
 90
        0
280
     0
281
     0
  0
CLASS
  1
AMIMASTER
  2
AmiMaster
  3
AmiServices
 90
        0
280
     0
281
     0
  0
CLASS
  1
MAPIAMMOUDLE
  2
MApiAmModule
  3
MApiAmServices
 90
        0
280
     0
281
     0
  0
CLASS
  1
ACIMSTRSYSVAR
  2
AcImStrSysVar
  3
AcMeServices
 90
        0
280
     0
281
     0
  0
CLASS
  1
AMDTADMENUSTATE
  2
AmdtAdMenuState
  3
DesignerServices
 90
        0
280
     0
281
     0
  0
CLASS
  1
ADAPPL
  2
AcAdAppl
  3
DesignerServices
 90
        0
280
     0
281
     0
  0
CLASS
  1
DEPMGR
  2
AcAdDepMgr
  3
DesignerServices
 90
        0
280
     0
281
     0
  0
CLASS
  1
PARAMMGR
  2
AcAdParamMgr
  3
DesignerServices
 90
        0
280
     0
281
     0
  0
CLASS
  1
PARAMSCOPE
  2
AcAdParamScope
  3
DesignerServices
 90
        0
280
     0
281
     0
  0
CLASS
  1
NAMEDAPPL
  2
AcAdNamedAppl
  3
DesignerServices
 90
        0
280
     0
281
     0
  0
CLASS
  1
AMDTDMMENUSTATE
  2
AmdtDmMenuState
  3
AcMechDwgViewMgmt
 90
        0
280
     0
281
     0
  0
CLASS
  1
AMDTAMMENUSTATE
  2
AmdtAmMenuState
  3
DesignerAssemblies
 90
        0
280
     0
281
     0
  0
CLASS
  1
ACAMPROJECT
  2
AcAmProject
  3
DesignerAssemblies
 90
        0
280
     0
281
     0
  0
CLASS
  1
ACAMGRCOMPDEF
  2
AcAmGrCompDef
  3
DesignerAssemblies
 90
        0
280
     0
281
     0
  0
CLASS
  1
ACCMCONTEXT
  2
AcCmContext
  3
DesignerAssemblies
 90
        0
280
     0
281
     0
  0
CLASS
  1
ACAMCOMPDEF
  2
AcAmCompDef
  3
DesignerAssemblies
 90
        0
280
     0
281
     0
  0
CLASS
  1
ACAMCOMPDEFMGR
  2
AcAmCompDefMgr
  3
DesignerAssemblies
 90
        0
280
     0
281
     0
  0
CLASS
  1
AMCONTEXTMGR
  2
AcAmContextMgr
  3
DesignerAssemblies
 90
        0
280
     0
281
     0
  0
CLASS
  1
ACAMCONTEXTMODELER
  2
AcAmContextModeler
  3
DesignerAssemblies
 90
        0
280
     0
281
     0
  0
CLASS
  1
ACMDATADICTIONARY
  2
AcmDataDictionary
  3
"AcmSymBB|Product Description: AutoCAD Mechanical 2004 DX|Company: Autodesk"
 90
        0
280
     0
281
     0
  0
CLASS
  1
CATALOGSTATE
  2
AcAmCatalogState
  3
DesignerAssemblies
 90
        0
280
     0
281
     0
  0
CLASS
  1
ACAMGRCOMPDEFSET
  2
AcAmGrCompDefSet
  3
DesignerAssemblies
 90
        0
280
     0
281
     0
  0
CLASS
  1
AMDTBROWSERDBTAB
  2
AmdtBrowserDbTab
  3
McadcomServices
 90
        0
280
     0
281
     0
  0
CLASS
  1
CBROWSERAPPOBJECT
  2
CBrowserAppObject
  3
McadcomServices
 90
        0
280
     0
281
     0
  0
CLASS
  1
DM_PLACEHOLDER
  2
AcDmSelsetPlaceholder
  3
AcMechDwgViewMgmt
 90
        0
280
     0
281
     0
  0
CLASS
  1
ACMSTANDARDANSI
  2
AcmStandardANSI
  3
"Amdt_StdImp|Product Description: AutoCAD Mechanical 2004 DX|Company: Autodesk"
 90
        0
280
     0
281
     0
  0
CLASS
  1
AMGOBJPROPCFG
  2
AmgObjPropCfg
  3
"AmgLay|Product Description: AutoCAD Mechanical 2000|Company: Autodesk"
 90
        1
280
     0
281
     0
  0
CLASS
  1
ACMSURFSTANDARDANSI
  2
AcmSurfTextStdANSI
  3
"Amdt_StdImp|Product Description: AutoCAD Mechanical 2004 DX|Company: Autodesk"
 90
        0
280
     0
281
     0
  0
CLASS
  1
ACMFCFSTANDARDANSI
  2
AcmFCFStdANSI
  3
"Amdt_StdImp|Product Description: AutoCAD Mechanical 2004 DX|Company: Autodesk"
 90
        0
280
     0
281
     0
  0
CLASS
  1
ACMWELDSTANDARDANSI
  2
AcmWeldingStdANSI
  3
"Amdt_StdImp|Product Description: AutoCAD Mechanical 2004 DX|Company: Autodesk"
 90
        0
280
     0
281
     0
  0
CLASS
  1
ACMIDSTANDARDANSI
  2
AcmIdStdANSI
  3
"Amdt_StdImp|Product Description: AutoCAD Mechanical 2004 DX|Company: Autodesk"
 90
        0
280
     0
281
     0
  0
CLASS
  1
ACMDATUMSTANDARDANSI
  2
AcmDatumStdANSI
  3
"Amdt_StdImp|Product Description: AutoCAD Mechanical 2004 DX|Company: Autodesk"
 90
        0
280
     0
281
     0
  0
CLASS
  1
ACMBOMSTANDARDANSI
  2
AcmBOMStdANSI
  3
"Amdt_StdImp|Product Description: AutoCAD Mechanical 2004 DX|Company: Autodesk"
 90
        0
280
     0
281
     0
  0
CLASS
  1
ACMDETAILSTANDARDANSI
  2
AmdtDetailSymStdANSI
  3
"Amdt_StdImp|Product Description: AutoCAD Mechanical 2004 DX|Company: Autodesk"
 90
        0
280
     0
281
     0
  0
CLASS
  1
ACMSECTIONSTANDARDANSI
  2
AmdtSectionSymStdANSI
  3
"Amdt_StdImp|Product Description: AutoCAD Mechanical 2004 DX|Company: Autodesk"
 90
        0
280
     0
281
     0
  0
CLASS
  1
ACMCENTERLINESTANDARDANSI
  2
AmdtCenterLineStdANSI
  3
"Amdt_StdImp|Product Description: AutoCAD Mechanical 2004 DX|Company: Autodesk"
 90
        0
280
     0
281
     0
  0
CLASS
  1
ACMTHREADLINESTANDARDANSI
  2
AmdtThreadLineStdANSI
  3
"Amdt_StdImp|Product Description: AutoCAD Mechanical 2004 DX|Company: Autodesk"
 90
        0
280
     0
281
     0
  0
CLASS
  1
ACMNOTESTANDARDANSI
  2
AmdtNoteStdANSI
  3
"Amdt_StdImp|Product Description: AutoCAD Mechanical 2004 DX|Company: Autodesk"
 90
        0
280
     0
281
     0
  0
CLASS
  1
AMDTNOTETEMPLATEDB
  2
AmdtNoteTemplateDB
  3
AMDT_STDIMP_MODULE_NAME
 90
        0
280
     0
281
     0
  0
CLASS
  1
ACAMGLAYSTD
  2
AcAmgLayStd
  3
"AcAmgLayStd|Product Description: AutoCAD Mechanical 2000|Company: Autodesk"
 90
        0
280
     0
281
     0
  0
CLASS
  1
ACAMGDIMSTD
  2
AcAmgDimStd
  3
"AcAmgDimStd|Product Description: AutoCAD Mechanical 2000|Company: Autodesk"
 90
        0
280
     0
281
     0
  0
CLASS
  1
ACAMGHOLECHARTSTDANSI
  2
AcAmgHoleChartStdANSI
  3
ACMSYMBB_MODULE_NAME
 90
        0
280
     0
281
     0
  0
CLASS
  1
ACAMGTITLESTD
  2
AcAmgTitleStd
  3
"TITLEAPP"
 90
        0
280
     0
281
     0
  0
CLASS
  1
ACAMGFILTERDAT
  2
AcAmgFilterDat
  3
"AcadM|Product Description: AutoCAD Mechanical 2000|Company: Autodesk"
 90
        0
280
     0
281
     0
  0
CLASS
  1
DICTIONARYVAR
  2
AcDbDictionaryVar
  3
ObjectDBX Classes
 90
        0
280
     0
281
     0
  0
ENDSEC
  0
SECTION
  2
TABLES
  0
TABLE
  2
VPORT
  5
8
330
0
100
AcDbSymbolTable
 70
     2
  0
VPORT
  5
470
330
8
100
AcDbSymbolTableRecord
100
AcDbViewportTableRecord
  2
*Active
 70
     0
 10
0.0
 20
0.0
 11
1.0
 21
1.0
 12
5.500000025611372
 22
4.250000019790604
 13
0.0
 23
0.0
 14
1.0
 24
1.0
 15
0.0
 25
0.0
 16
0.0
 26
0.0
 36
1.0
 17
0.0
 27
0.0
 37
0.0
 40
8.58121992666571
 41
1.814580031695721
 42
50.0
 43
0.0
 44
0.0
 50
0.0
 51
0.0
 71
     0
 72
   100
 73
     1
 74
     1
 75
     0
 76
     0
 77
     0
 78
     0
281
     0
 65
     0
110
0.0
120
0.0
130
0.0
111
1.0
121
0.0
131
0.0
112
0.0
122
1.0
132
0.0
 79
     0
146
0.0
  0
ENDTAB
  0
TABLE
  2
LTYPE
  5
5
330
0
100
AcDbSymbolTable
 70
    19
  0
LTYPE
  5
14
330
5
100
AcDbSymbolTableRecord
100
AcDbLinetypeTableRecord
  2
BYBLOCK
 70
     0
  3

 72
    65
 73
     0
 40
0.0
  0
LTYPE
  5
15
330
5
100
AcDbSymbolTableRecord
100
AcDbLinetypeTableRecord
  2
BYLAYER
 70
     0
  3

 72
    65
 73
     0
 40
0.0
  0
LTYPE
  5
16
330
5
100
AcDbSymbolTableRecord
100
AcDbLinetypeTableRecord
  2
CONTINUOUS
 70
     0
  3
Solid line
 72
    65
 73
     0
 40
0.0
  0
LTYPE
  5
1F5
330
5
100
AcDbSymbolTableRecord
100
AcDbLinetypeTableRecord
  2
CENTER
 70
     0
  3
____ _ ____ _ ____ _ ____ _ ____ _ ____ _ ____
 72
    65
 73
     4
 40
0.6
 49
0.375
 74
     0
 49
-0.075
 74
     0
 49
0.075
 74
     0
 49
-0.075
 74
     0
  0
LTYPE
  5
1F6
330
5
100
AcDbSymbolTableRecord
100
AcDbLinetypeTableRecord
  2
HIDDEN
 70
     0
  3
- - - - - - - - - - - - - - - - - - - -
 72
    65
 73
     2
 40
0.2
 49
0.1
 74
     0
 49
-0.1
 74
     0
  0
LTYPE
  5
1F7
330
5
100
AcDbSymbolTableRecord
100
AcDbLinetypeTableRecord
  2
PHANTOM
 70
     0
  3
_____ _ _ _____ _ _ _____ _ _ _____
 72
    65
 73
     6
 40
0.8
 49
0.45
 74
     0
 49
-0.05
 74
     0
 49
0.1
 74
     0
 49
-0.05
 74
     0
 49
0.1
 74
     0
 49
-0.05
 74
     0
  0
LTYPE
  5
1F8
330
5
100
AcDbSymbolTableRecord
100
AcDbLinetypeTableRecord
  2
DOT
 70
     0
  3
. . . . . . . . . . . . . . . . . . . .
 72
    65
 73
     2
 40
0.2
 49
0.1
 74
     0
 49
-0.1
 74
     0
  0
LTYPE
  5
1F9
330
5
100
AcDbSymbolTableRecord
100
AcDbLinetypeTableRecord
  2
DASHED
 70
     0
  3
- - - - - - - - - - - - - - - - - - - -
 72
    65
 73
     2
 40
0.2
 49
0.1
 74
     0
 49
-0.1
 74
     0
  0
LTYPE
  5
381
330
5
100
AcDbSymbolTableRecord
100
AcDbLinetypeTableRecord
  2
PHANTOM2
 70
     0
  3
Phantom (.5x) ___ _ _ ___ _ _ ___ _ _ ___ _ _
 72
    65
 73
     6
 40
1.25
 49
0.625
 74
     0
 49
-0.125
 74
     0
 49
0.125
 74
     0
 49
-0.125
 74
     0
 49
0.125
 74
     0
 49
-0.125
 74
     0
  0
LTYPE
  5
3B5
330
5
100
AcDbSymbolTableRecord
100
AcDbLinetypeTableRecord
  2
AM_ISO02W050
 70
     0
  3
__ __ __ __ __ __ __ __ __ __ __ __ __ __ __
 72
    65
 73
     2
 40
7.5
 49
6.0
 74
     0
 49
-1.5
 74
     0
  0
LTYPE
  5
3B6
330
5
100
AcDbSymbolTableRecord
100
AcDbLinetypeTableRecord
  2
AM_ISO08W050
 70
     0
  3
____ . ____ . ____ . ____ . ____ . ____ . ____
 72
    65
 73
     4
 40
18.0
 49
12.0
 74
     0
 49
-1.5
 74
     0
 49
3.0
 74
     0
 49
-1.5
 74
     0
  0
LTYPE
  5
3B7
330
5
100
AcDbSymbolTableRecord
100
AcDbLinetypeTableRecord
  2
AM_ISO09W050
 70
     0
  3
_____ . . _____ . . _____ . . ____ .. ____
 72
    65
 73
     6
 40
22.5
 49
12.0
 74
     0
 49
-1.5
 74
     0
 49
3.0
 74
     0
 49
-1.5
 74
     0
 49
3.0
 74
     0
 49
-1.5
 74
     0
  0
LTYPE
  5
3B8
330
5
100
AcDbSymbolTableRecord
100
AcDbLinetypeTableRecord
  2
Amconstr
 70
     0
  3
_______________________
 72
    65
 73
     2
 40
9999.0
 49
9999.0
 74
     0
 49
0.0
 74
     0
  0
LTYPE
  5
3B9
330
5
100
AcDbSymbolTableRecord
100
AcDbLinetypeTableRecord
  2
AM_ISO08W050x2
 70
     0
  3
__ . __ . __ . __ . __ . __
 72
    65
 73
     4
 40
9.0
 49
6.0
 74
     0
 49
-0.75
 74
     0
 49
1.5
 74
     0
 49
-0.75
 74
     0
  0
LTYPE
  5
3BA
330
5
100
AcDbSymbolTableRecord
100
AcDbLinetypeTableRecord
  2
AM_ISO02W050x2
 70
     0
  3
 _ _ _ _ _ _ _ _ _ _ _ _
 72
    65
 73
     2
 40
3.75
 49
3.0
 74
     0
 49
-0.75
 74
     0
  0
LTYPE
  5
3BD
330
5
100
AcDbSymbolTableRecord
100
AcDbLinetypeTableRecord
  2
Amzigzag
 70
     0
  3
/\/-/\/-/\/-/\/-/\/-/\/
 72
    65
 73
     2
 40
11.0001
 49
0.0001
 74
     4
 75
   136
340
3BC
 46
0.04
 50
0.0
 44
0.0
 45
0.0
 49
-11.0
 74
     0
  0
LTYPE
  5
3BE
330
5
100
AcDbSymbolTableRecord
100
AcDbLinetypeTableRecord
  2
CENTER2
 70
     0
  3
Center (.5x) ___ _ ___ _ ___ _ ___ _ ___ _ ___
 72
    65
 73
     4
 40
1.125
 49
0.75
 74
     0
 49
-0.125
 74
     0
 49
0.125
 74
     0
 49
-0.125
 74
     0
  0
LTYPE
  5
3BF
330
5
100
AcDbSymbolTableRecord
100
AcDbLinetypeTableRecord
  2
HIDDEN2
 70
     0
  3
Hidden (.5x) _ _ _ _ _ _ _ _ _ _ _ _ _ _ _ _ _
 72
    65
 73
     2
 40
0.1875
 49
0.125
 74
     0
 49
-0.0625
 74
     0
  0
LTYPE
  5
3C0
330
5
100
AcDbSymbolTableRecord
100
AcDbLinetypeTableRecord
  2
Amzigzag2
 70
     0
  3
/\/-/\/-/\/-/\/-/\/-/\/
 72
    65
 73
     2
 40
0.4401
 49
0.0001
 74
     4
 75
   136
340
3BC
 46
0.0016
 50
0.0
 44
0.0
 45
0.0
 49
-0.4400000000000001
 74
     0
  0
LTYPE
  5
3CE
330
5
100
AcDbSymbolTableRecord
100
AcDbLinetypeTableRecord
  2
ACANSTGB
 70
     0
  3
__ . . __ . .
 72
    65
 73
     6
 40
0.35433070866
 49
0.15748031496
 74
     0
 49
-0.03937007874
 74
     0
 49
0.03937007874
 74
     0
 49
-0.03937007874
 74
     0
 49
0.03937007874
 74
     0
 49
-0.03937007874
 74
     0
  0
LTYPE
  5
3CF
330
5
100
AcDbSymbolTableRecord
100
AcDbLinetypeTableRecord
  2
ACANSTGL
 70
     0
  3
_ _ _ _ _
 72
    65
 73
     2
 40
0.11811023622
 49
0.07874015748
 74
     0
 49
-0.03937007874
 74
     0
  0
ENDTAB
  0
TABLE
  2
LAYER
  5
2
330
0
100
AcDbSymbolTable
 70
     7
  0
LAYER
  5
10
330
2
100
AcDbSymbolTableRecord
100
AcDbLayerTableRecord
  2
0
 70
     0
 62
     7
  6
CONTINUOUS
370
    -3
390
F
  0
LAYER
  5
1FA
330
2
100
AcDbSymbolTableRecord
100
AcDbLayerTableRecord
  2
DEFAULT_1
 70
     0
 62
     7
  6
CENTER
370
    -3
390
F
  0
LAYER
  5
1FB
330
2
100
AcDbSymbolTableRecord
100
AcDbLayerTableRecord
  2
DEFAULT_2
 70
     0
 62
     8
  6
HIDDEN
370
    -3
390
F
  0
LAYER
  5
1FC
330
2
100
AcDbSymbolTableRecord
100
AcDbLayerTableRecord
  2
DEFAULT_3
 70
     0
 62
     7
  6
PHANTOM
370
    -3
390
F
  0
LAYER
  5
1FD
330
2
100
AcDbSymbolTableRecord
100
AcDbLayerTableRecord
  2
CSYS_PART
 70
     0
 62
     7
  6
CONTINUOUS
370
    -3
390
F
  0
LAYER
  5
3FA
330
2
100
AcDbSymbolTableRecord
100
AcDbLayerTableRecord
  2
AM_5
 70
     0
 62
     3
  6
CONTINUOUS
370
    15
390
F
1001
AcAecLayerStandard
1000

1000

  0
LAYER
  5
405
330
2
100
AcDbSymbolTableRecord
100
AcDbLayerTableRecord
  2
Defpoints
 70
     0
 62
     7
  6
CONTINUOUS
290
     0
370
    -3
390
F
  0
ENDTAB
  0
TABLE
  2
STYLE
  5
3
330
0
100
AcDbSymbolTable
 70
     4
  0
STYLE
  5
11
330
3
100
AcDbSymbolTableRecord
100
AcDbTextStyleTableRecord
  2
STANDARD
 70
     0
 40
0.0
 41
0.8
 50
0.0
 71
     0
 42
0.2
  3
txt
  4

  0
STYLE
  5
3BC
330
3
100
AcDbSymbolTableRecord
100
AcDbTextStyleTableRecord
  2

 70
     1
 40
0.0
 41
1.0
 50
0.0
 71
     0
 42
0.2
  3
genltshp.shx
  4

  0
STYLE
  5
3C1
330
3
100
AcDbSymbolTableRecord
100
AcDbTextStyleTableRecord
  2
ACANSTS
 70
     0
 40
1.0
 41
1.0
 50
0.0
 71
     0
 42
0.2
  3
romans.shx
  4

  0
STYLE
  5
3CD
330
3
100
AcDbSymbolTableRecord
100
AcDbTextStyleTableRecord
  2
ACANSGDT
 70
     0
 40
0.0
 41
1.0
 50
0.0
 71
     0
 42
0.2
  3
AMGDT
  4

  0
ENDTAB
  0
TABLE
  2
VIEW
  5
6
330
0
100
AcDbSymbolTable
 70
     1
  0
ENDTAB
  0
TABLE
  2
UCS
  5
7
330
0
100
AcDbSymbolTable
 70
     0
  0
ENDTAB
  0
TABLE
  2
APPID
  5
9
330
0
100
AcDbSymbolTable
 70
    11
  0
APPID
  5
1FE
330
9
100
AcDbSymbolTableRecord
100
AcDbRegAppTableRecord
  2
ACAD
 70
     0
  0
APPID
  5
352
330
9
100
AcDbSymbolTableRecord
100
AcDbRegAppTableRecord
  2
MCAD_NO_VIS
 70
     0
  0
APPID
  5
353
330
9
100
AcDbSymbolTableRecord
100
AcDbRegAppTableRecord
  2
ACAD_TEMP_GRAPHIC
 70
     0
  0
APPID
  5
383
330
9
100
AcDbSymbolTableRecord
100
AcDbRegAppTableRecord
  2
AD_DRAW
 70
     0
  0
APPID
  5
386
330
9
100
AcDbSymbolTableRecord
100
AcDbRegAppTableRecord
  2
ACATTRIBSERVICES
 70
     0
  0
APPID
  5
3A6
330
9
100
AcDbSymbolTableRecord
100
AcDbRegAppTableRecord
  2
DESIGNERASSEMBLIES
 70
     0
  0
APPID
  5
3AC
330
9
100
AcDbSymbolTableRecord
100
AcDbRegAppTableRecord
  2
ACADM_DIM_EDIT
 70
     0
  0
APPID
  5
3AD
330
9
100
AcDbSymbolTableRecord
100
AcDbRegAppTableRecord
  2
AMDT_DM_ADJ
 70
     0
  0
APPID
  5
3DB
330
9
100
AcDbSymbolTableRecord
100
AcDbRegAppTableRecord
  2
ACAD_DSTYLE_DIMARC_LENGTH_SYMBOL
 70
     0
  0
APPID
  5
3DC
330
9
100
AcDbSymbolTableRecord
100
AcDbRegAppTableRecord
  2
ACAD_DSTYLE_DIMJOGGED_JOGANGLE_SYMBOL
 70
     0
  0
APPID
  5
3FB
330
9
100
AcDbSymbolTableRecord
100
AcDbRegAppTableRecord
  2
AcAecLayerStandard
 70
     0
  0
ENDTAB
  0
TABLE
  2
DIMSTYLE
  5
A
330
0
100
AcDbSymbolTable
 70
     8
100
AcDbDimStyleTable
 71
     1
340
1FF
  0
DIMSTYLE
105
1FF
330
A
100
AcDbSymbolTableRecord
100
AcDbDimStyleTableRecord
  2
STANDARD
 70
     0
 41
0.1875
 47
0.05
 48
0.05
 78
     4
140
0.15625
271
     2
272
     2
284
     4
340
11
  0
DIMSTYLE
105
3DA
330
A
100
AcDbSymbolTableRecord
100
AcDbDimStyleTableRecord
  2
AM_ANSI
 70
     0
  4
mm
 41
0.1
 42
0.05
 43
0.5
 44
0.1
 47
0.1
 48
0.1
 78
     7
 79
     2
140
0.12
141
0.0
146
0.71
147
0.06
176
   256
177
   256
178
     2
274
     4
284
     7
340
11
371
    -1
372
    -1
1001
ACAD_DSTYLE_DIMARC_LENGTH_SYMBOL
1070
   379
1070
     1
1001
ACAD_DSTYLE_DIMJOGGED_JOGANGLE_SYMBOL
1070
   384
1040
0.7853981633974483
  0
DIMSTYLE
105
3E3
330
A
100
AcDbSymbolTableRecord
100
AcDbDimStyleTableRecord
  2
AM_ANSI$3
 70
     0
  4
mm
 41
0.1
 42
0.05
 43
0.5
 44
0.1
 47
0.1
 48
0.1
 78
     7
 79
     2
140
0.12
141
0.0
146
0.71
147
0.06
176
   256
177
   256
178
     2
274
     4
284
     7
288
     1
289
     0
340
11
371
    -1
372
    -1
1001
ACAD_DSTYLE_DIMARC_LENGTH_SYMBOL
1070
   379
1070
     1
1001
ACAD_DSTYLE_DIMJOGGED_JOGANGLE_SYMBOL
1070
   384
1040
0.7853981633974483
  0
DIMSTYLE
105
3E6
330
A
100
AcDbSymbolTableRecord
100
AcDbDimStyleTableRecord
  2
AM_ANSI$4
 70
     0
  4
mm
 41
0.1
 42
0.05
 43
0.5
 44
0.1
 47
0.1
 48
0.1
 78
     7
 79
     2
140
0.12
141
0.0
146
0.71
147
0.06
176
   256
177
   256
178
     2
274
     4
284
     7
288
     1
289
     0
340
11
371
    -1
372
    -1
1001
ACAD_DSTYLE_DIMARC_LENGTH_SYMBOL
1070
   379
1070
     1
1001
ACAD_DSTYLE_DIMJOGGED_JOGANGLE_SYMBOL
1070
   384
1040
0.7853981633974483
  0
DIMSTYLE
105
3EB
330
A
100
AcDbSymbolTableRecord
100
AcDbDimStyleTableRecord
  2
AM_ANSI$7
 70
     0
  4
mm
 41
0.1
 42
0.05
 43
0.5
 44
0.1
 47
0.1
 48
0.1
 78
     7
 79
     2
140
0.24
141
0.0
146
0.71
147
0.06
176
   256
177
   256
178
     2
274
     4
284
     7
340
11
371
    -1
372
    -1
1001
ACAD_DSTYLE_DIMARC_LENGTH_SYMBOL
1070
   379
1070
     1
1001
ACAD_DSTYLE_DIMJOGGED_JOGANGLE_SYMBOL
1070
   384
1040
0.7853981633974483
  0
DIMSTYLE
105
3EE
330
A
100
AcDbSymbolTableRecord
100
AcDbDimStyleTableRecord
  2
AM_ANSI$SF
 70
     0
  4
mm
 41
0.1
 42
0.05
 43
0.5
 44
0.1
 47
0.1
 48
0.1
 75
     1
 76
     1
 78
     7
 79
     2
140
0.12
141
0.0
146
0.71
147
0.06
176
   256
177
   256
178
     2
274
     4
284
     7
340
11
371
    -1
372
    -1
1001
ACAD_DSTYLE_DIMARC_LENGTH_SYMBOL
1070
   379
1070
     1
1001
ACAD_DSTYLE_DIMJOGGED_JOGANGLE_SYMBOL
1070
   384
1040
0.7853981633974483
  0
DIMSTYLE
105
3F5
330
A
100
AcDbSymbolTableRecord
100
AcDbDimStyleTableRecord
  2
AM_ANSI$SH
 70
     0
  4
mm
 41
0.1
 42
0.05
 43
0.5
 44
0.1
 47
0.1
 48
0.1
 75
     1
 76
     1
 78
     7
 79
     2
140
0.12
141
0.0
146
0.71
147
0.06
173
     1
176
   256
177
   256
178
     2
274
     4
284
     7
340
11
343
3EF
371
    -1
372
    -1
1001
ACAD_DSTYLE_DIMARC_LENGTH_SYMBOL
1070
   379
1070
     1
1001
ACAD_DSTYLE_DIMJOGGED_JOGANGLE_SYMBOL
1070
   384
1040
0.7853981633974483
  0
DIMSTYLE
105
403
102
{ACAD_REACTORS
330
404
330
427
330
449
102
}
330
A
100
AcDbSymbolTableRecord
100
AcDbDimStyleTableRecord
  2
STANDARD$0
 70
     0
 41
0.1875
 47
0.05
 48
0.05
 78
     4
140
0.15625
271
     2
272
     2
284
     4
340
11
  0
ENDTAB
  0
TABLE
  2
BLOCK_RECORD
  5
1
330
0
100
AcDbSymbolTable
 70
     5
  0
BLOCK_RECORD
  5
1F
330
1
100
AcDbSymbolTableRecord
100
AcDbBlockTableRecord
  2
*MODEL_SPACE
340
22
  0
BLOCK_RECORD
  5
1B
330
1
100
AcDbSymbolTableRecord
100
AcDbBlockTableRecord
  2
*PAPER_SPACE
340
1E
  0
BLOCK_RECORD
  5
3EF
330
1
100
AcDbSymbolTableRecord
100
AcDbBlockTableRecord
  2
GENAXEH
340
0
  0
BLOCK_RECORD
  5
406
330
1
100
AcDbSymbolTableRecord
100
AcDbBlockTableRecord
  2
*D2
340
0
  0
BLOCK_RECORD
  5
428
330
1
100
AcDbSymbolTableRecord
100
AcDbBlockTableRecord
  2
*D3
340
0
  0
BLOCK_RECORD
  5
44A
330
1
100
AcDbSymbolTableRecord
100
AcDbBlockTableRecord
  2
*D4
340
0
  0
ENDTAB
  0
ENDSEC
  0
SECTION
  2
BLOCKS
  0
BLOCK
  5
20
330
1F
100
AcDbEntity
  8
0
100
AcDbBlockBegin
  2
*MODEL_SPACE
 70
     0
 10
0.0
 20
0.0
 30
0.0
  3
*MODEL_SPACE
  1

  0
ENDBLK
  5
21
330
1F
100
AcDbEntity
  8
0
100
AcDbBlockEnd
  0
BLOCK
  5
1C
330
1B
100
AcDbEntity
 67
     1
  8
0
100
AcDbBlockBegin
  2
*PAPER_SPACE
 70
     0
 10
0.0
 20
0.0
 30
0.0
  3
*PAPER_SPACE
  1

  0
ENDBLK
  5
1D
330
1B
100
AcDbEntity
 67
     1
  8
0
100
AcDbBlockEnd
  0
BLOCK
  5
3F1
330
3EF
100
AcDbEntity
  8
0
100
AcDbBlockBegin
  2
GENAXEH
 70
     0
 10
0.0
 20
0.0
 30
0.0
  3
GENAXEH
  1

  0
LINE
  5
3F0
330
3EF
100
AcDbEntity
  8
0
100
AcDbLine
 10
-1.0
 20
0.0
 30
0.0
 11
1.0
 21
0.0
 31
0.0
  0
ENDBLK
  5
3F2
330
3EF
100
AcDbEntity
  8
0
100
AcDbBlockEnd
  0
BLOCK
  5
411
330
406
100
AcDbEntity
  8
0
100
AcDbBlockBegin
  2
*D2
 70
     1
 10
0.0
 20
0.0
 30
0.0
  3
*D2
  1

  0
LINE
  5
41D
330
406
100
AcDbEntity
  8
AM_5
 62
     0
370
    -2
100
AcDbLine
 10
4.466125476499999
 20
6.2011964061
 30
0.0
 11
4.466125476499999
 21
7.198395581475836
 31
0.0
  0
LINE
  5
41E
330
406
100
AcDbEntity
  8
AM_5
 62
     0
370
    -2
100
AcDbLine
 10
6.586125476499999
 20
6.2011964061
 30
0.0
 11
6.586125476499999
 21
7.198395581475836
 31
0.0
  0
LINE
  5
41F
330
406
100
AcDbEntity
  8
AM_5
 62
     0
370
    -2
100
AcDbLine
 10
4.653625476499999
 20
7.000395581475835
 30
0.0
 11
4.748625476499999
 21
7.000395581475835
 31
0.0
  0
LINE
  5
420
330
406
100
AcDbEntity
  8
AM_5
 62
     0
370
    -2
100
AcDbLine
 10
6.398625476499999
 20
7.000395581475835
 30
0.0
 11
6.303625476499998
 21
7.000395581475835
 31
0.0
  0
SOLID
  5
421
330
406
100
AcDbEntity
  8
AM_5
 62
     0
100
AcDbTrace
 10
4.653625476499999
 20
7.031645581475835
 30
0.0
 11
4.653625476499999
 21
6.969145581475835
 31
0.0
 12
4.466125476499999
 22
7.000395581475835
 32
0.0
 13
4.466125476499999
 23
7.000395581475835
 33
0.0
  0
SOLID
  5
422
330
406
100
AcDbEntity
  8
AM_5
 62
     0
100
AcDbTrace
 10
6.398625476499999
 20
7.031645581475835
 30
0.0
 11
6.398625476499999
 21
6.969145581475835
 31
0.0
 12
6.586125476499999
 22
7.000395581475835
 32
0.0
 13
6.586125476499999
 23
7.000395581475835
 33
0.0
  0
MTEXT
  5
423
330
406
100
AcDbEntity
  8
AM_5
 62
     0
100
AcDbMText
 10
5.526125476499998
 20
7.000395581475835
 30
0.0
 40
0.15625
 41
0.0
 71
     5
 72
     1
  1
\A1;2.1200 [53.85]
 73
     1
 44
1.0
1001
ACAD
1000
MTEXTBEGIN
1070
    73
1070
     1
1070
    44
1040
1.0
1070
    74
1070
     0
1000
MTEXTEND
  0
POINT
  5
424
330
406
100
AcDbEntity
  8
Defpoints
 62
     0
100
AcDbPoint
 10
4.466125476499999
 20
6.1324464061
 30
0.0
  0
POINT
  5
425
330
406
100
AcDbEntity
  8
Defpoints
 62
     0
100
AcDbPoint
 10
6.586125476499999
 20
6.1324464061
 30
0.0
  0
POINT
  5
426
330
406
100
AcDbEntity
  8
Defpoints
 62
     0
100
AcDbPoint
 10
6.586125476499999
 20
7.000395581475835
 30
0.0
  0
ENDBLK
  5
412
330
406
100
AcDbEntity
  8
0
100
AcDbBlockEnd
  0
BLOCK
  5
433
330
428
100
AcDbEntity
  8
0
100
AcDbBlockBegin
  2
*D3
 70
     1
 10
0.0
 20
0.0
 30
0.0
  3
*D3
  1

  0
LINE
  5
43F
330
428
100
AcDbEntity
  8
AM_5
 62
     0
370
    -2
100
AcDbLine
 10
4.4973754765
 20
6.2324464061
 30
0.0
 11
3.348427236993306
 21
6.2324464061
 31
0.0
  0
LINE
  5
440
330
428
100
AcDbEntity
  8
AM_5
 62
     0
370
    -2
100
AcDbLine
 10
4.4973754765
 20
4.1124464061
 30
0.0
 11
3.348427236993306
 21
4.1124464061
 31
0.0
  0
LINE
  5
441
330
428
100
AcDbEntity
  8
AM_5
 62
     0
370
    -2
100
AcDbLine
 10
3.546427236993306
 20
6.0449464061
 30
0.0
 11
3.546427236993306
 21
5.340571406099999
 31
0.0
  0
LINE
  5
442
330
428
100
AcDbEntity
  8
AM_5
 62
     0
370
    -2
100
AcDbLine
 10
3.546427236993306
 20
4.2999464061
 30
0.0
 11
3.546427236993306
 21
5.004321406099999
 31
0.0
  0
SOLID
  5
443
330
428
100
AcDbEntity
  8
AM_5
 62
     0
100
AcDbTrace
 10
3.515177236993306
 20
6.0449464061
 30
0.0
 11
3.577677236993306
 21
6.0449464061
 31
0.0
 12
3.546427236993306
 22
6.2324464061
 32
0.0
 13
3.546427236993306
 23
6.2324464061
 33
0.0
  0
SOLID
  5
444
330
428
100
AcDbEntity
  8
AM_5
 62
     0
100
AcDbTrace
 10
3.515177236993306
 20
4.2999464061
 30
0.0
 11
3.577677236993306
 21
4.2999464061
 31
0.0
 12
3.546427236993306
 22
4.1124464061
 32
0.0
 13
3.546427236993306
 23
4.1124464061
 33
0.0
  0
MTEXT
  5
445
330
428
100
AcDbEntity
  8
AM_5
 62
     0
100
AcDbMText
 10
3.546427236993305
 20
5.1724464061
 30
0.0
 40
0.15625
 41
0.0
 71
     5
 72
     1
  1
\A1;2.1200 [53.85]
 73
     1
 44
1.0
1001
ACAD
1000
MTEXTBEGIN
1070
    73
1070
     1
1070
    44
1040
1.0
1070
    74
1070
     0
1000
MTEXTEND
  0
POINT
  5
446
330
428
100
AcDbEntity
  8
Defpoints
 62
     0
100
AcDbPoint
 10
4.566125476499999
 20
6.2324464061
 30
0.0
  0
POINT
  5
447
330
428
100
AcDbEntity
  8
Defpoints
 62
     0
100
AcDbPoint
 10
4.566125476499999
 20
4.1124464061
 30
0.0
  0
POINT
  5
448
330
428
100
AcDbEntity
  8
Defpoints
 62
     0
100
AcDbPoint
 10
3.546427236993306
 20
4.1124464061
 30
0.0
  0
ENDBLK
  5
434
330
428
100
AcDbEntity
  8
0
100
AcDbBlockEnd
  0
BLOCK
  5
455
330
44A
100
AcDbEntity
  8
0
100
AcDbBlockBegin
  2
*D4
 70
     1
 10
0.0
 20
0.0
 30
0.0
  3
*D4
  1

  0
LINE
  5
461
330
44A
100
AcDbEntity
  8
AM_5
 62
     0
370
    -2
100
AcDbLine
 10
6.199875476499999
 20
3.247356268
 30
0.0
 11
7.539844639637204
 21
3.247356267999999
 31
0.0
  0
LINE
  5
462
330
44A
100
AcDbEntity
  8
AM_5
 62
     0
370
    -2
100
AcDbLine
 10
6.654875476499999
 20
1.972356268
 30
0.0
 11
7.539844639637204
 21
1.972356268
 31
0.0
  0
LINE
  5
463
330
44A
100
AcDbEntity
  8
AM_5
 62
     0
370
    -2
100
AcDbLine
 10
7.341844639637205
 20
3.059856267999999
 30
0.0
 11
7.341844639637205
 21
2.777981267999999
 31
0.0
  0
LINE
  5
464
330
44A
100
AcDbEntity
  8
AM_5
 62
     0
370
    -2
100
AcDbLine
 10
7.341844639637205
 20
2.159856267999999
 30
0.0
 11
7.341844639637205
 21
2.441731267999999
 31
0.0
  0
SOLID
  5
465
330
44A
100
AcDbEntity
  8
AM_5
 62
     0
100
AcDbTrace
 10
7.310594639637205
 20
3.059856267999999
 30
0.0
 11
7.373094639637205
 21
3.059856267999999
 31
0.0
 12
7.341844639637205
 22
3.247356267999999
 32
0.0
 13
7.341844639637205
 23
3.247356267999999
 33
0.0
  0
SOLID
  5
466
330
44A
100
AcDbEntity
  8
AM_5
 62
     0
100
AcDbTrace
 10
7.310594639637205
 20
2.159856267999999
 30
0.0
 11
7.373094639637205
 21
2.159856267999999
 31
0.0
 12
7.341844639637204
 22
1.972356268
 32
0.0
 13
7.341844639637204
 23
1.972356268
 33
0.0
  0
MTEXT
  5
467
330
44A
100
AcDbEntity
  8
AM_5
 62
     0
100
AcDbMText
 10
7.341844639637204
 20
2.609856268000001
 30
0.0
 40
0.15625
 41
0.0
 71
     5
 72
     1
  1
\A1;1.2750 [32.39]
 73
     1
 44
1.0
1001
ACAD
1000
MTEXTBEGIN
1070
    73
1070
     1
1070
    44
1040
1.0
1070
    74
1070
     0
1000
MTEXTEND
  0
POINT
  5
468
330
44A
100
AcDbEntity
  8
Defpoints
 62
     0
100
AcDbPoint
 10
6.131125476499999
 20
3.247356268
 30
0.0
  0
POINT
  5
469
330
44A
100
AcDbEntity
  8
Defpoints
 62
     0
100
AcDbPoint
 10
6.586125476499999
 20
1.972356268
 30
0.0
  0
POINT
  5
46A
330
44A
100
AcDbEntity
  8
Defpoints
 62
     0
100
AcDbPoint
 10
7.341844639637204
 20
1.972356268
 30
0.0
  0
ENDBLK
  5
456
330
44A
100
AcDbEntity
  8
0
100
AcDbBlockEnd
  0
ENDSEC
  0
SECTION
  2
ENTITIES
  0
LINE
  5
200
330
1F
100
AcDbEntity
  8
0
  6
Continuous
 62
     7
100
AcDbLine
 10
0.0
 20
0.0
 30
0.0
 11
0.0
 21
8.5
 31
0.0
  0
LINE
  5
201
330
1F
100
AcDbEntity
  8
0
  6
Continuous
 62
     7
100
AcDbLine
 10
0.0
 20
0.0
 30
0.0
 11
11.0
 21
0.0
 31
0.0
  0
LINE
  5
202
330
1F
100
AcDbEntity
  8
0
  6
Continuous
 62
     7
100
AcDbLine
 10
0.0
 20
8.5
 30
0.0
 11
11.0
 21
8.5
 31
0.0
  0
LINE
  5
203
330
1F
100
AcDbEntity
  8
0
  6
Continuous
 62
     7
100
AcDbLine
 10
11.0
 20
0.0
 30
0.0
 11
11.0
 21
8.5
 31
0.0
  0
LINE
  5
204
330
1F
100
AcDbEntity
  8
0
  6
Continuous
 62
     7
100
AcDbLine
 10
4.466125476499999
 20
1.972356268
 30
0.0
 11
4.466125476499999
 21
2.372356268
 31
0.0
  0
LINE
  5
205
330
1F
100
AcDbEntity
  8
0
  6
Continuous
 62
     7
100
AcDbLine
 10
4.508625476499999
 20
2.8661429047
 30
0.0
 11
4.508625476499999
 21
2.826356267999999
 31
0.0
  0
LINE
  5
206
330
1F
100
AcDbEntity
  8
0
  6
Continuous
 62
     7
100
AcDbLine
 10
4.508625476499999
 20
2.372356268
 30
0.0
 11
4.508625476499999
 21
2.822356268
 31
0.0
  0
LINE
  5
207
330
1F
100
AcDbEntity
  8
0
  6
Continuous
 62
     7
100
AcDbLine
 10
4.550125476499999
 20
2.826356267999999
 30
0.0
 11
4.550125476499999
 21
2.822356268
 31
0.0
  0
LINE
  5
208
330
1F
100
AcDbEntity
  8
0
  6
Continuous
 62
     7
100
AcDbLine
 10
4.566125476499999
 20
2.372356268
 30
0.0
 11
4.566125476499999
 21
1.972356268
 31
0.0
  0
LINE
  5
209
330
1F
100
AcDbEntity
  8
0
  6
Continuous
 62
     7
100
AcDbLine
 10
4.529232235
 20
2.892962868999999
 30
0.0
 11
4.513018879499999
 21
2.876749511
 31
0.0
  0
LINE
  5
20A
330
1F
100
AcDbEntity
  8
0
  6
Continuous
 62
     7
100
AcDbLine
 10
4.8861254765
 20
2.897356268
 30
0.0
 11
4.8861254765
 21
3.212356268
 31
0.0
  0
LINE
  5
20B
330
1F
100
AcDbEntity
  8
0
  6
Continuous
 62
     7
100
AcDbLine
 10
4.921125476499999
 20
3.247356268
 30
0.0
 11
4.921125476499999
 21
2.897356268
 31
0.0
  0
LINE
  5
20C
330
1F
100
AcDbEntity
  8
0
  6
Continuous
 62
     7
100
AcDbLine
 10
4.466125476499999
 20
1.972356268
 30
0.0
 11
6.586125476499999
 21
1.972356268
 31
0.0
  0
LINE
  5
20D
330
1F
100
AcDbEntity
  8
0
  6
Continuous
 62
     7
100
AcDbLine
 10
6.586125476499999
 20
2.372356268
 30
0.0
 11
4.466125476499999
 21
2.372356268
 31
0.0
  0
LINE
  5
20E
330
1F
100
AcDbEntity
  8
0
  6
Continuous
 62
     7
100
AcDbLine
 10
5.393625476499999
 20
2.382356268
 30
0.0
 11
5.6586254765
 21
2.382356268
 31
0.0
  0
LINE
  5
20F
330
1F
100
AcDbEntity
  8
0
  6
Continuous
 62
     7
100
AcDbLine
 10
5.393625476499999
 20
2.722356267999999
 30
0.0
 11
5.393625476499999
 21
2.372356268
 31
0.0
  0
LINE
  5
210
330
1F
100
AcDbEntity
  8
0
  6
Continuous
 62
     7
100
AcDbLine
 10
5.6586254765
 20
2.482356268
 30
0.0
 11
5.393625476499999
 21
2.482356268
 31
0.0
  0
LINE
  5
211
330
1F
100
AcDbEntity
  8
0
  6
Continuous
 62
     7
100
AcDbLine
 10
5.6586254765
 20
2.372356268
 30
0.0
 11
5.6586254765
 21
2.722356267999999
 31
0.0
  0
LINE
  5
212
330
1F
100
AcDbEntity
  8
0
  6
Continuous
 62
     7
100
AcDbLine
 10
5.418625476499999
 20
2.747356268
 30
0.0
 11
5.633625476499999
 21
2.747356268
 31
0.0
  0
LINE
  5
213
330
1F
100
AcDbEntity
  8
0
  6
Continuous
 62
     7
100
AcDbLine
 10
6.543625476499999
 20
2.822356268
 30
0.0
 11
4.508625476499999
 21
2.822356268
 31
0.0
  0
LINE
  5
214
330
1F
100
AcDbEntity
  8
0
  6
Continuous
 62
     7
100
AcDbLine
 10
4.508625476499999
 20
2.826356267999999
 30
0.0
 11
6.543625476499999
 21
2.826356267999999
 31
0.0
  0
LINE
  5
215
330
1F
100
AcDbEntity
  8
0
  6
Continuous
 62
     7
100
AcDbLine
 10
6.543625476499999
 20
2.8661429047
 30
0.0
 11
4.508637199999999
 21
2.8661429047
 31
0.0
  0
LINE
  5
216
330
1F
100
AcDbEntity
  8
0
  6
Continuous
 62
     7
100
AcDbLine
 10
4.5130305525
 20
2.876749511
 30
0.0
 11
6.5392320734
 21
2.876749511
 31
0.0
  0
LINE
  5
217
330
1F
100
AcDbEntity
  8
0
  6
Continuous
 62
     7
100
AcDbLine
 10
6.523018717999999
 20
2.892962868999999
 30
0.0
 11
4.529232235
 21
2.892962868999999
 31
0.0
  0
LINE
  5
218
330
1F
100
AcDbEntity
  8
0
  6
Continuous
 62
     7
100
AcDbLine
 10
6.512412115599999
 20
2.897356268
 30
0.0
 11
4.5398388374
 21
2.897356268
 31
0.0
  0
LINE
  5
219
330
1F
100
AcDbEntity
  8
0
  6
Continuous
 62
     7
100
AcDbLine
 10
6.131125476499999
 20
2.897356268
 30
0.0
 11
6.131125476499999
 21
3.247356268
 31
0.0
  0
LINE
  5
21A
330
1F
100
AcDbEntity
  8
0
  6
Continuous
 62
     7
100
AcDbLine
 10
6.166125476499999
 20
3.212356268
 30
0.0
 11
6.166125476499999
 21
2.897356268
 31
0.0
  0
LINE
  5
21B
330
1F
100
AcDbEntity
  8
0
  6
Continuous
 62
     7
100
AcDbLine
 10
6.166125476499999
 20
3.212356268
 30
0.0
 11
4.8861254765
 21
3.212356268
 31
0.0
  0
LINE
  5
21C
330
1F
100
AcDbEntity
  8
0
  6
Continuous
 62
     7
100
AcDbLine
 10
4.921125476499999
 20
3.247356268
 30
0.0
 11
6.131125476499999
 21
3.247356268
 31
0.0
  0
LINE
  5
21D
330
1F
100
AcDbEntity
  8
0
  6
Continuous
 62
     7
100
AcDbLine
 10
6.523018717999999
 20
2.892962868999999
 30
0.0
 11
6.5392320734
 21
2.876749511
 31
0.0
  0
LINE
  5
21E
330
1F
100
AcDbEntity
  8
0
  6
Continuous
 62
     7
100
AcDbLine
 10
6.486125476499999
 20
1.972356268
 30
0.0
 11
6.486125476499999
 21
2.372356268
 31
0.0
  0
LINE
  5
21F
330
1F
100
AcDbEntity
  8
0
  6
Continuous
 62
     7
100
AcDbLine
 10
6.502125476499999
 20
2.826356267999999
 30
0.0
 11
6.502125476499999
 21
2.822356268
 31
0.0
  0
LINE
  5
220
330
1F
100
AcDbEntity
  8
0
  6
Continuous
 62
     7
100
AcDbLine
 10
6.543625476499999
 20
2.8661429047
 30
0.0
 11
6.543625476499999
 21
2.826356267999999
 31
0.0
  0
LINE
  5
221
330
1F
100
AcDbEntity
  8
0
  6
Continuous
 62
     7
100
AcDbLine
 10
6.543625476499999
 20
2.372356268
 30
0.0
 11
6.543625476499999
 21
2.822356268
 31
0.0
  0
LINE
  5
222
330
1F
100
AcDbEntity
  8
0
  6
Continuous
 62
     7
100
AcDbLine
 10
6.586125476499999
 20
2.372356268
 30
0.0
 11
6.586125476499999
 21
1.972356268
 31
0.0
  0
LINE
  5
223
330
1F
100
AcDbEntity
  8
0
  6
Continuous
 62
     7
100
AcDbLine
 10
0.6900826790000001
 20
1.972356268
 30
0.0
 11
0.6900826790000001
 21
2.372356268
 31
0.0
  0
LINE
  5
224
330
1F
100
AcDbEntity
  8
0
  6
Continuous
 62
     7
100
AcDbLine
 10
0.7325826790000001
 20
2.8661429047
 30
0.0
 11
0.7325826790000001
 21
2.826356267999999
 31
0.0
  0
LINE
  5
225
330
1F
100
AcDbEntity
  8
0
  6
Continuous
 62
     7
100
AcDbLine
 10
0.7325826790000001
 20
2.372356268
 30
0.0
 11
0.7325826790000001
 21
2.822356268
 31
0.0
  0
LINE
  5
226
330
1F
100
AcDbEntity
  8
0
  6
Continuous
 62
     7
100
AcDbLine
 10
0.7740826790000001
 20
2.826356267999999
 30
0.0
 11
0.7740826790000001
 21
2.822356268
 31
0.0
  0
LINE
  5
227
330
1F
100
AcDbEntity
  8
0
  6
Continuous
 62
     7
100
AcDbLine
 10
0.7900826790000001
 20
2.372356268
 30
0.0
 11
0.7900826790000001
 21
1.972356268
 31
0.0
  0
LINE
  5
228
330
1F
100
AcDbEntity
  8
0
  6
Continuous
 62
     7
100
AcDbLine
 10
0.7531894375000001
 20
2.892962868999999
 30
0.0
 11
0.736976082
 21
2.876749511
 31
0.0
  0
LINE
  5
229
330
1F
100
AcDbEntity
  8
0
  6
Continuous
 62
     7
100
AcDbLine
 10
1.1309163315
 20
2.722356267999999
 30
0.0
 11
1.1309163315
 21
2.372356268
 31
0.0
  0
LINE
  5
22A
330
1F
100
AcDbEntity
  8
0
  6
Continuous
 62
     7
100
AcDbLine
 10
1.149833604899999
 20
2.372356268
 30
0.0
 11
1.149833604899999
 21
2.722356267999999
 31
0.0
  0
LINE
  5
22B
330
1F
100
AcDbEntity
  8
0
  6
Continuous
 62
     7
100
AcDbLine
 10
1.1518522166
 20
2.722356267999999
 30
0.0
 11
1.1518522166
 21
2.372356268
 31
0.0
  0
LINE
  5
22C
330
1F
100
AcDbEntity
  8
0
  6
Continuous
 62
     7
100
AcDbLine
 10
1.166996894499999
 20
2.382356268
 30
0.0
 11
1.166996894499999
 21
2.722356267999999
 31
0.0
  0
LINE
  5
22D
330
1F
100
AcDbEntity
  8
0
  6
Continuous
 62
     7
100
AcDbLine
 10
1.167834312999999
 20
2.372356268
 30
0.0
 11
1.167834312999999
 21
2.382356268
 31
0.0
  0
LINE
  5
22E
330
1F
100
AcDbEntity
  8
0
  6
Continuous
 62
     7
100
AcDbLine
 10
0.6900826790000001
 20
1.972356268
 30
0.0
 11
2.810082678999999
 21
1.972356268
 31
0.0
  0
LINE
  5
22F
330
1F
100
AcDbEntity
  8
0
  6
Continuous
 62
     7
100
AcDbLine
 10
1.3604130635
 20
2.372356268
 30
0.0
 11
1.3604130635
 21
2.722356267999999
 31
0.0
  0
LINE
  5
230
330
1F
100
AcDbEntity
  8
0
  6
Continuous
 62
     7
100
AcDbLine
 10
2.810082678999999
 20
2.372356268
 30
0.0
 11
0.6900826790000001
 21
2.372356268
 31
0.0
  0
LINE
  5
231
330
1F
100
AcDbEntity
  8
0
  6
Continuous
 62
     7
100
AcDbLine
 10
1.532582679
 20
2.897356268
 30
0.0
 11
1.532582679
 21
3.212356268
 31
0.0
  0
LINE
  5
232
330
1F
100
AcDbEntity
  8
0
  6
Continuous
 62
     7
100
AcDbLine
 10
1.567582679
 20
3.247356268
 30
0.0
 11
1.567582679
 21
2.897356268
 31
0.0
  0
LINE
  5
233
330
1F
100
AcDbEntity
  8
0
  6
Continuous
 62
     7
100
AcDbLine
 10
1.166996894499999
 20
2.382356268
 30
0.0
 11
1.3604130635
 21
2.382356268
 31
0.0
  0
LINE
  5
234
330
1F
100
AcDbEntity
  8
0
  6
Continuous
 62
     7
100
AcDbLine
 10
1.3604130635
 20
2.482356268
 30
0.0
 11
1.166996894499999
 21
2.482356268
 31
0.0
  0
LINE
  5
235
330
1F
100
AcDbEntity
  8
0
  6
Continuous
 62
     7
100
AcDbLine
 10
1.166996894499999
 20
2.722356267999999
 30
0.0
 11
1.1518522166
 21
2.722356267999999
 31
0.0
  0
LINE
  5
236
330
1F
100
AcDbEntity
  8
0
  6
Continuous
 62
     7
100
AcDbLine
 10
1.149833604899999
 20
2.722356267999999
 30
0.0
 11
1.1309163315
 21
2.722356267999999
 31
0.0
  0
LINE
  5
237
330
1F
100
AcDbEntity
  8
0
  6
Continuous
 62
     7
100
AcDbLine
 10
1.151082289399999
 20
2.747356268
 30
0.0
 11
1.3372777513
 21
2.747356268
 31
0.0
  0
LINE
  5
238
330
1F
100
AcDbEntity
  8
0
  6
Continuous
 62
     7
100
AcDbLine
 10
2.7618879962
 20
2.747356268
 30
0.0
 11
2.767582056399999
 21
2.747356268
 31
0.0
  0
LINE
  5
239
330
1F
100
AcDbEntity
  8
0
  6
Continuous
 62
     7
100
AcDbLine
 10
1.932582679
 20
2.897356268
 30
0.0
 11
1.932582679
 21
3.247356268
 31
0.0
  0
LINE
  5
23A
330
1F
100
AcDbEntity
  8
0
  6
Continuous
 62
     7
100
AcDbLine
 10
1.967582679
 20
3.212356268
 30
0.0
 11
1.967582679
 21
2.897356268
 31
0.0
  0
LINE
  5
23B
330
1F
100
AcDbEntity
  8
0
  6
Continuous
 62
     7
100
AcDbLine
 10
2.7675739422
 20
2.822356268
 30
0.0
 11
0.7325914158
 21
2.822356268
 31
0.0
  0
LINE
  5
23C
330
1F
100
AcDbEntity
  8
0
  6
Continuous
 62
     7
100
AcDbLine
 10
0.7325914158
 20
2.826356267999999
 30
0.0
 11
2.7675739422
 21
2.826356267999999
 31
0.0
  0
LINE
  5
23D
330
1F
100
AcDbEntity
  8
0
  6
Continuous
 62
     7
100
AcDbLine
 10
2.767582678999999
 20
2.8661429047
 30
0.0
 11
0.7325826790000001
 21
2.8661429047
 31
0.0
  0
LINE
  5
23E
330
1F
100
AcDbEntity
  8
0
  6
Continuous
 62
     7
100
AcDbLine
 10
0.736976082
 20
2.876749511
 30
0.0
 11
2.763189275899999
 21
2.876749511
 31
0.0
  0
LINE
  5
23F
330
1F
100
AcDbEntity
  8
0
  6
Continuous
 62
     7
100
AcDbLine
 10
2.7469759205
 20
2.892962868999999
 30
0.0
 11
0.7531894375000001
 21
2.892962868999999
 31
0.0
  0
LINE
  5
240
330
1F
100
AcDbEntity
  8
0
  6
Continuous
 62
     7
100
AcDbLine
 10
2.73636858
 20
2.897356268
 30
0.0
 11
0.7637960401
 21
2.897356268
 31
0.0
  0
LINE
  5
241
330
1F
100
AcDbEntity
  8
0
  6
Continuous
 62
     7
100
AcDbLine
 10
1.967582679
 20
3.212356268
 30
0.0
 11
1.532582679
 21
3.212356268
 31
0.0
  0
LINE
  5
242
330
1F
100
AcDbEntity
  8
0
  6
Continuous
 62
     7
100
AcDbLine
 10
1.567582679
 20
3.247356268
 30
0.0
 11
1.932582679
 21
3.247356268
 31
0.0
  0
LINE
  5
243
330
1F
100
AcDbEntity
  8
0
  6
Continuous
 62
     7
100
AcDbLine
 10
2.7469759205
 20
2.892962868999999
 30
0.0
 11
2.763189275899999
 21
2.876749511
 31
0.0
  0
LINE
  5
244
330
1F
100
AcDbEntity
  8
0
  6
Continuous
 62
     7
100
AcDbLine
 10
2.710082678999999
 20
1.972356268
 30
0.0
 11
2.710082678999999
 21
2.372356268
 31
0.0
  0
LINE
  5
245
330
1F
100
AcDbEntity
  8
0
  6
Continuous
 62
     7
100
AcDbLine
 10
2.726082678999999
 20
2.826356267999999
 30
0.0
 11
2.726082678999999
 21
2.822356268
 31
0.0
  0
LINE
  5
246
330
1F
100
AcDbEntity
  8
0
  6
Continuous
 62
     7
100
AcDbLine
 10
2.758918641899999
 20
2.722356267999999
 30
0.0
 11
2.758918641899999
 21
2.372356268
 31
0.0
  0
LINE
  5
247
330
1F
100
AcDbEntity
  8
0
  6
Continuous
 62
     7
100
AcDbLine
 10
2.767582678999999
 20
2.8661429047
 30
0.0
 11
2.767582678999999
 21
2.826356267999999
 31
0.0
  0
LINE
  5
248
330
1F
100
AcDbEntity
  8
0
  6
Continuous
 62
     7
100
AcDbLine
 10
2.767582678999999
 20
2.747356268
 30
0.0
 11
2.767582678999999
 21
2.822356268
 31
0.0
  0
LINE
  5
249
330
1F
100
AcDbEntity
  8
0
  6
Continuous
 62
     7
100
AcDbLine
 10
2.810082678999999
 20
2.372356268
 30
0.0
 11
2.810082678999999
 21
1.972356268
 31
0.0
  0
LINE
  5
24A
330
1F
100
AcDbEntity
  8
0
  6
Continuous
 62
     7
100
AcDbLine
 10
4.466125476499999
 20
4.212446406099999
 30
0.0
 11
4.466125476499999
 21
6.1324464061
 31
0.0
  0
LINE
  5
24B
330
1F
100
AcDbEntity
  8
0
  6
Continuous
 62
     7
100
AcDbLine
 10
6.486125476499999
 20
4.1124464061
 30
0.0
 11
4.566125476499999
 21
4.1124464061
 31
0.0
  0
LINE
  5
24C
330
1F
100
AcDbEntity
  8
0
  6
Continuous
 62
     7
100
AcDbLine
 10
4.872601456599999
 20
5.389946406099999
 30
0.0
 11
4.872601456599999
 21
4.9549464061
 31
0.0
  0
LINE
  5
24D
330
1F
100
AcDbEntity
  8
0
  6
Continuous
 62
     7
100
AcDbLine
 10
4.8861254765
 20
4.9899464061
 30
0.0
 11
4.8861254765
 21
5.354946406099999
 31
0.0
  0
LINE
  5
24E
330
1F
100
AcDbEntity
  8
0
  6
Continuous
 62
     7
100
AcDbLine
 10
4.921125476499999
 20
5.389946406099999
 30
0.0
 11
4.921125476499999
 21
4.9549464061
 31
0.0
  0
LINE
  5
24F
330
1F
100
AcDbEntity
  8
0
  6
Continuous
 62
     7
100
AcDbLine
 10
6.131125476499999
 20
4.9549464061
 30
0.0
 11
4.921125476499999
 21
4.9549464061
 31
0.0
  0
LINE
  5
250
330
1F
100
AcDbEntity
  8
0
  6
Continuous
 62
     7
100
AcDbLine
 10
4.872601456599999
 20
4.9549464061
 30
0.0
 11
4.605468238399999
 21
4.9549464061
 31
0.0
  0
LINE
  5
251
330
1F
100
AcDbEntity
  8
0
  6
Continuous
 62
     7
100
AcDbLine
 10
4.8861254765
 20
4.9899464061
 30
0.0
 11
6.166125476499999
 21
4.9899464061
 31
0.0
  0
LINE
  5
252
330
1F
100
AcDbEntity
  8
0
  6
Continuous
 62
     7
100
AcDbLine
 10
6.166125476499999
 20
5.354946406099999
 30
0.0
 11
4.8861254765
 21
5.354946406099999
 31
0.0
  0
LINE
  5
253
330
1F
100
AcDbEntity
  8
0
  6
Continuous
 62
     7
100
AcDbLine
 10
4.605468238399999
 20
5.389946406099999
 30
0.0
 11
4.872601456599999
 21
5.389946406099999
 31
0.0
  0
LINE
  5
254
330
1F
100
AcDbEntity
  8
0
  6
Continuous
 62
     7
100
AcDbLine
 10
4.921125476499999
 20
5.389946406099999
 30
0.0
 11
6.131125476499999
 21
5.389946406099999
 31
0.0
  0
LINE
  5
255
330
1F
100
AcDbEntity
  8
0
  6
Continuous
 62
     7
100
AcDbLine
 10
6.131125476499999
 20
4.9549464061
 30
0.0
 11
6.131125476499999
 21
5.389946406099999
 31
0.0
  0
LINE
  5
256
330
1F
100
AcDbEntity
  8
0
  6
Continuous
 62
     7
100
AcDbLine
 10
6.166125476499999
 20
5.354946406099999
 30
0.0
 11
6.166125476499999
 21
4.9899464061
 31
0.0
  0
LINE
  5
257
330
1F
100
AcDbEntity
  8
0
  6
Continuous
 62
     7
100
AcDbLine
 10
6.586125476499999
 20
6.1324464061
 30
0.0
 11
6.586125476499999
 21
4.212446406099999
 31
0.0
  0
LINE
  5
258
330
1F
100
AcDbEntity
  8
0
  6
Continuous
 62
     7
100
AcDbLine
 10
4.566125476499999
 20
6.2324464061
 30
0.0
 11
6.486125476499999
 21
6.2324464061
 31
0.0
  0
LINE
  5
259
330
1F
100
AcDbEntity
  8
0
  6
Continuous
 62
     7
100
AcDbLine
 10
7.4200346775
 20
5.713106044999999
 30
0.0
 11
7.4200346775
 21
6.0397070119
 31
0.0
  0
LINE
  5
25A
330
1F
100
AcDbEntity
  8
0
  6
Continuous
 62
     7
100
AcDbLine
 10
7.4493242938
 20
5.998882596499999
 30
0.0
 11
7.4493242938
 21
5.6722816296
 31
0.0
  0
LINE
  5
25B
330
1F
100
AcDbEntity
  8
0
  6
Continuous
 62
     7
100
AcDbLine
 10
8.172754499399999
 20
6.871752175599999
 30
0.0
 11
8.161289678099999
 21
6.865132766599999
 31
0.0
  0
LINE
  5
25C
330
1F
100
AcDbEntity
  8
0
  6
Continuous
 62
     7
100
AcDbLine
 10
8.561424842300001
 20
7.0773734546
 30
0.0
 11
8.303331941699999
 21
6.9283643384
 31
0.0
  0
LINE
  5
25D
330
1F
100
AcDbEntity
  8
0
  6
Continuous
 62
     7
100
AcDbLine
 10
8.578924763899999
 20
7.0756401048
 30
0.0
 11
8.3208318633
 21
6.9266309886
 31
0.0
  0
LINE
  5
25E
330
1F
100
AcDbEntity
  8
0
  6
Continuous
 62
     7
100
AcDbLine
 10
7.8601796974
 20
6.442888257699999
 30
0.0
 11
7.8601796974
 21
6.4104023726
 31
0.0
  0
LINE
  5
25F
330
1F
100
AcDbEntity
  8
0
  6
Continuous
 62
     7
100
AcDbLine
 10
7.8601796974
 20
6.0397102752
 30
0.0
 11
7.8601796974
 21
6.407136362899999
 31
0.0
  0
LINE
  5
260
330
1F
100
AcDbEntity
  8
0
  6
Continuous
 62
     7
100
AcDbLine
 10
8.806974966
 20
4.888459380899999
 30
0.0
 11
7.4493242938
 21
5.6722816296
 31
0.0
  0
LINE
  5
261
330
1F
100
AcDbEntity
  8
0
  6
Continuous
 62
     7
100
AcDbLine
 10
8.0706358783
 20
5.9677266371
 30
0.0
 11
8.0706358783
 21
5.6819507911
 31
0.0
  0
LINE
  5
262
330
1F
100
AcDbEntity
  8
0
  6
Continuous
 62
     7
100
AcDbLine
 10
8.097388831499999
 20
5.6973965237
 30
0.0
 11
8.097388831499999
 21
5.9692878844
 31
0.0
  0
LINE
  5
263
330
1F
100
AcDbEntity
  8
0
  6
Continuous
 62
     7
100
AcDbLine
 10
8.100243567699999
 20
5.967389026
 30
0.0
 11
8.100243567699999
 21
5.699044696499999
 31
0.0
  0
LINE
  5
264
330
1F
100
AcDbEntity
  8
0
  6
Continuous
 62
     7
100
AcDbLine
 10
8.1216612874
 20
5.7195751732
 30
0.0
 11
8.1216612874
 21
5.9531427998
 31
0.0
  0
LINE
  5
265
330
1F
100
AcDbEntity
  8
0
  6
Continuous
 62
     7
100
AcDbLine
 10
8.122845571
 20
5.7120938913
 30
0.0
 11
8.122845571
 21
5.7187496334
 31
0.0
  0
LINE
  5
266
330
1F
100
AcDbEntity
  8
0
  6
Continuous
 62
     7
100
AcDbLine
 10
7.449323705
 20
6.080531087299999
 30
0.0
 11
7.8601796974
 21
6.317737489199999
 31
0.0
  0
LINE
  5
267
330
1F
100
AcDbEntity
  8
0
  6
Continuous
 62
     7
100
AcDbLine
 10
8.2580199555
 20
5.5737669912
 30
0.0
 11
8.2580199555
 21
5.8595428372
 31
0.0
  0
LINE
  5
268
330
1F
100
AcDbEntity
  8
0
  6
Continuous
 62
     7
100
AcDbLine
 10
8.2858318633
 20
6.321418795599999
 30
0.0
 11
8.261771422699998
 21
6.3075275766
 31
0.0
  0
LINE
  5
269
330
1F
100
AcDbEntity
  8
0
  6
Continuous
 62
     7
100
AcDbLine
 10
8.806974966
 20
5.215060347799999
 30
0.0
 11
7.4493242938
 21
5.998882596499999
 31
0.0
  0
LINE
  5
26A
330
1F
100
AcDbEntity
  8
0
  6
Continuous
 62
     7
100
AcDbLine
 10
8.2858318633
 20
6.898053403999999
 30
0.0
 11
8.2858318633
 21
6.3020066395
 31
0.0
  0
LINE
  5
26B
330
1F
100
AcDbEntity
  8
0
  6
Continuous
 62
     7
100
AcDbLine
 10
8.296083229
 20
6.8837648586
 30
0.0
 11
8.296083229
 21
6.287718094099999
 31
0.0
  0
LINE
  5
26C
330
1F
100
AcDbEntity
  8
0
  6
Continuous
 62
     7
100
AcDbLine
 10
8.0862141323
 20
5.976720692599999
 30
0.0
 11
8.0706358783
 21
5.9677266371
 31
0.0
  0
LINE
  5
26D
330
1F
100
AcDbEntity
  8
0
  6
Continuous
 62
     7
100
AcDbLine
 10
9.176434630800001
 20
6.4326596757
 30
0.0
 11
9.4345275314
 21
6.581668791799999
 31
0.0
  0
LINE
  5
26E
330
1F
100
AcDbEntity
  8
0
  6
Continuous
 62
     7
100
AcDbLine
 10
9.459276371699999
 20
6.5388027808
 30
0.0
 11
9.2011834712
 21
6.389793664699999
 31
0.0
  0
LINE
  5
26F
330
1F
100
AcDbEntity
  8
0
  6
Continuous
 62
     7
100
AcDbLine
 10
8.122845571
 20
5.7120938913
 30
0.0
 11
8.100243567699999
 21
5.699044696499999
 31
0.0
  0
LINE
  5
270
330
1F
100
AcDbEntity
  8
0
  6
Continuous
 62
     7
100
AcDbLine
 10
8.097388831499999
 20
5.6973965237
 30
0.0
 11
8.0706358783
 21
5.6819507911
 31
0.0
  0
LINE
  5
271
330
1F
100
AcDbEntity
  8
0
  6
Continuous
 62
     7
100
AcDbLine
 10
8.806974966
 20
4.888459380899999
 30
0.0
 11
8.806974966
 21
5.215060347799999
 31
0.0
  0
LINE
  5
272
330
1F
100
AcDbEntity
  8
0
  6
Continuous
 62
     7
100
AcDbLine
 10
8.9359364176
 20
5.9183070407
 30
0.0
 11
8.296083229
 21
6.287718094099999
 31
0.0
  0
LINE
  5
273
330
1F
100
AcDbEntity
  8
0
  6
Continuous
 62
     7
100
AcDbLine
 10
8.261771422699998
 20
6.3075275766
 30
0.0
 11
8.072878926199999
 21
6.4165822432
 31
0.0
  0
LINE
  5
274
330
1F
100
AcDbEntity
  8
0
  6
Continuous
 62
     7
100
AcDbLine
 10
8.9483963223
 20
5.215060687699999
 30
0.0
 11
8.9483963223
 21
4.888459720899999
 31
0.0
  0
LINE
  5
275
330
1F
100
AcDbEntity
  8
0
  6
Continuous
 62
     7
100
AcDbLine
 10
9.8178485048
 20
5.973466435399999
 30
0.0
 11
9.8459894168
 21
5.9691131559
 31
0.0
  0
LINE
  5
276
330
1F
100
AcDbEntity
  8
0
  6
Continuous
 62
     7
100
AcDbLine
 10
9.8498890794
 20
5.9685098947
 30
0.0
 11
9.8864344861
 21
5.962856475599999
 31
0.0
  0
LINE
  5
277
330
1F
100
AcDbEntity
  8
0
  6
Continuous
 62
     7
100
AcDbLine
 10
9.151685996499999
 20
5.940891259899999
 30
0.0
 11
9.151685996499999
 21
6.3897935457
 31
0.0
  0
LINE
  5
278
330
1F
100
AcDbEntity
  8
0
  6
Continuous
 62
     7
100
AcDbLine
 10
9.2011834712
 20
6.389793664699999
 30
0.0
 11
9.2011834712
 21
5.9498093137
 31
0.0
  0
LINE
  5
279
330
1F
100
AcDbEntity
  8
0
  6
Continuous
 62
     7
100
AcDbLine
 10
9.8864344861
 20
6.248632321599999
 30
0.0
 11
9.881088577899999
 21
6.2494593109
 31
0.0
  0
LINE
  5
27A
330
1F
100
AcDbEntity
  8
0
  6
Continuous
 62
     7
100
AcDbLine
 10
9.151685996499999
 20
6.3897935457
 30
0.0
 11
8.296083229
 21
6.8837648586
 31
0.0
  0
LINE
  5
27B
330
1F
100
AcDbEntity
  8
0
  6
Continuous
 62
     7
100
AcDbLine
 10
9.459276371699999
 20
6.0313358184
 30
0.0
 11
9.459276371699999
 21
6.5388027808
 31
0.0
  0
LINE
  5
27C
330
1F
100
AcDbEntity
  8
0
  6
Continuous
 62
     7
100
AcDbLine
 10
9.4695275314
 20
6.5530912072
 30
0.0
 11
9.4695275314
 21
6.036489036199999
 31
0.0
  0
LINE
  5
27D
330
1F
100
AcDbEntity
  8
0
  6
Continuous
 62
     7
100
AcDbLine
 10
8.3208318633
 20
6.9266309886
 30
0.0
 11
9.176434630800001
 21
6.4326596757
 31
0.0
  0
LINE
  5
27E
330
1F
100
AcDbEntity
  8
0
  6
Continuous
 62
     7
100
AcDbLine
 10
10.3060356897
 20
5.9988894632
 30
0.0
 11
8.9483963223
 21
5.215060687699999
 31
0.0
  0
LINE
  5
27F
330
1F
100
AcDbEntity
  8
0
  6
Continuous
 62
     7
100
AcDbLine
 10
9.4345275314
 20
6.581668791799999
 30
0.0
 11
8.578924763899999
 21
7.0756401048
 31
0.0
  0
LINE
  5
280
330
1F
100
AcDbEntity
  8
0
  6
Continuous
 62
     7
100
AcDbLine
 10
9.895179697399999
 20
6.317740065599999
 30
0.0
 11
10.3060351009
 21
6.080537953999999
 31
0.0
  0
LINE
  5
281
330
1F
100
AcDbEntity
  8
0
  6
Continuous
 62
     7
100
AcDbLine
 10
9.4520272344
 20
6.583402267799999
 30
0.0
 11
8.596424467
 21
7.0773735808
 31
0.0
  0
LINE
  5
282
330
1F
100
AcDbEntity
  8
0
  6
Continuous
 62
     7
100
AcDbLine
 10
9.8178485048
 20
6.1008497224
 30
0.0
 11
9.8178485048
 21
5.815073876399999
 31
0.0
  0
LINE
  5
283
330
1F
100
AcDbEntity
  8
0
  6
Continuous
 62
     7
100
AcDbLine
 10
9.8459894168
 20
5.9691131559
 30
0.0
 11
9.8459894168
 21
6.1662102071
 31
0.0
  0
LINE
  5
284
330
1F
100
AcDbEntity
  8
0
  6
Continuous
 62
     7
100
AcDbLine
 10
9.8498890794
 20
6.172732998999999
 30
0.0
 11
9.8498890794
 21
5.9685098947
 31
0.0
  0
LINE
  5
285
330
1F
100
AcDbEntity
  8
0
  6
Continuous
 62
     7
100
AcDbLine
 10
10.3060356897
 20
5.6722884963
 30
0.0
 11
8.9483963223
 21
4.888459720899999
 31
0.0
  0
LINE
  5
286
330
1F
100
AcDbEntity
  8
0
  6
Continuous
 62
     7
100
AcDbLine
 10
9.8864344861
 20
5.962856475599999
 30
0.0
 11
9.8864344861
 21
6.248632321599999
 31
0.0
  0
LINE
  5
287
330
1F
100
AcDbEntity
  8
0
  6
Continuous
 62
     7
100
AcDbLine
 10
9.895179697399999
 20
6.442888257699999
 30
0.0
 11
9.895179697399999
 21
6.4104023726
 31
0.0
  0
LINE
  5
288
330
1F
100
AcDbEntity
  8
0
  6
Continuous
 62
     7
100
AcDbLine
 10
9.895179697399999
 20
6.0397102752
 30
0.0
 11
9.895179697399999
 21
6.407136362899999
 31
0.0
  0
LINE
  5
289
330
1F
100
AcDbEntity
  8
0
  6
Continuous
 62
     7
100
AcDbLine
 10
9.8864344861
 20
5.962856475599999
 30
0.0
 11
9.8951788913
 21
6.0397314969
 31
0.0
  0
LINE
  5
28A
330
1F
100
AcDbEntity
  8
0
  6
Continuous
 62
     7
100
AcDbLine
 10
9.582604895299999
 20
6.871752175599999
 30
0.0
 11
9.594069716599999
 21
6.865132766599999
 31
0.0
  0
LINE
  5
28B
330
1F
100
AcDbEntity
  8
0
  6
Continuous
 62
     7
100
AcDbLine
 10
10.3060356897
 20
5.6722884963
 30
0.0
 11
10.3060356897
 21
5.9988894632
 31
0.0
  0
LINE
  5
28C
330
1F
100
AcDbEntity
  8
0
  6
Continuous
 62
     7
100
AcDbLine
 10
10.3353247172
 20
5.713112571799999
 30
0.0
 11
10.3353247172
 21
6.0397135386
 31
0.0
  0
ARC
  5
28D
330
1F
100
AcDbEntity
  8
0
  6
Continuous
 62
     7
100
AcDbCircle
 10
6.512412115599999
 20
2.882356268
 30
0.0
 40
0.015
100
AcDbArc
 50
44.9999963688
 51
90.00000097250001
  0
ARC
  5
28E
330
1F
100
AcDbEntity
  8
0
  6
Continuous
 62
     7
100
AcDbCircle
 10
4.5398388374
 20
2.882356268
 30
0.0
 40
0.015
100
AcDbArc
 50
89.99999902749999
 51
135.0000036312
  0
ARC
  5
28F
330
1F
100
AcDbEntity
  8
0
  6
Continuous
 62
     7
100
AcDbCircle
 10
6.528625476499999
 20
2.866142904499999
 30
0.0
 40
0.015
100
AcDbArc
 50
0.0
 51
45.0000257719
  0
ARC
  5
290
330
1F
100
AcDbEntity
  8
0
  6
Continuous
 62
     7
100
AcDbCircle
 10
4.523625476499999
 20
2.866142904499999
 30
0.0
 40
0.015
100
AcDbArc
 50
134.9999742281
 51
180.0
  0
ARC
  5
291
330
1F
100
AcDbEntity
  8
0
  6
Continuous
 62
     7
100
AcDbCircle
 10
5.633625476499999
 20
2.722356267999999
 30
0.0
 40
0.025
100
AcDbArc
 50
0.0
 51
90.0
  0
ARC
  5
292
330
1F
100
AcDbEntity
  8
0
  6
Continuous
 62
     7
100
AcDbCircle
 10
5.418625476499999
 20
2.722356267999999
 30
0.0
 40
0.025
100
AcDbArc
 50
90.0
 51
180.0
  0
ARC
  5
293
330
1F
100
AcDbEntity
  8
0
  6
Continuous
 62
     7
100
AcDbCircle
 10
4.921125476499999
 20
3.212356268
 30
0.0
 40
0.035
100
AcDbArc
 50
90.0
 51
180.0
  0
ARC
  5
294
330
1F
100
AcDbEntity
  8
0
  6
Continuous
 62
     7
100
AcDbCircle
 10
6.131125476499999
 20
3.212356268
 30
0.0
 40
0.035
100
AcDbArc
 50
0.0
 51
90.0
  0
ARC
  5
295
330
1F
100
AcDbEntity
  8
0
  6
Continuous
 62
     7
100
AcDbCircle
 10
0.7637960399
 20
2.882356268
 30
0.0
 40
0.015
100
AcDbArc
 50
89.99999902749999
 51
135.0000036312
  0
ARC
  5
296
330
1F
100
AcDbEntity
  8
0
  6
Continuous
 62
     7
100
AcDbCircle
 10
2.736369318099999
 20
2.882356268
 30
0.0
 40
0.015
100
AcDbArc
 50
44.9999963688
 51
90.00000097250001
  0
ARC
  5
297
330
1F
100
AcDbEntity
  8
0
  6
Continuous
 62
     7
100
AcDbCircle
 10
0.7475826790000001
 20
2.866142904499999
 30
0.0
 40
0.015
100
AcDbArc
 50
134.9999742281
 51
180.0
  0
ARC
  5
298
330
1F
100
AcDbEntity
  8
0
  6
Continuous
 62
     7
100
AcDbCircle
 10
2.752582678999999
 20
2.866142904499999
 30
0.0
 40
0.015
100
AcDbArc
 50
0.0
 51
45.0000257719
  0
ARC
  5
299
330
1F
100
AcDbEntity
  8
0
  6
Continuous
 62
     7
100
AcDbCircle
 10
1.567582679
 20
3.212356268
 30
0.0
 40
0.035
100
AcDbArc
 50
90.0
 51
180.0
  0
ARC
  5
29A
330
1F
100
AcDbEntity
  8
0
  6
Continuous
 62
     7
100
AcDbCircle
 10
1.932582679
 20
3.212356268
 30
0.0
 40
0.035
100
AcDbArc
 50
0.0
 51
90.0
  0
CIRCLE
  5
29B
330
1F
100
AcDbEntity
  8
0
  6
Continuous
 62
     7
100
AcDbCircle
 10
5.526125476499999
 20
5.172446406099999
 30
0.0
 40
0.9459999999999999
  0
CIRCLE
  5
29C
330
1F
100
AcDbEntity
  8
0
  6
Continuous
 62
     7
100
AcDbCircle
 10
5.526125476499999
 20
5.172446406099999
 30
0.0
 40
1.0175
  0
ARC
  5
29D
330
1F
100
AcDbEntity
  8
0
  6
Continuous
 62
     7
100
AcDbCircle
 10
4.921125476499999
 20
5.354946406099999
 30
0.0
 40
0.035
100
AcDbArc
 50
90.0
 51
180.0
  0
ARC
  5
29E
330
1F
100
AcDbEntity
  8
0
  6
Continuous
 62
     7
100
AcDbCircle
 10
4.921125476499999
 20
4.9899464061
 30
0.0
 40
0.035
100
AcDbArc
 50
180.0
 51
270.0
  0
ARC
  5
29F
330
1F
100
AcDbEntity
  8
0
  6
Continuous
 62
     7
100
AcDbCircle
 10
4.566125476499999
 20
6.1324464061
 30
0.0
 40
0.1
100
AcDbArc
 50
90.0
 51
180.0
  0
ARC
  5
2A0
330
1F
100
AcDbEntity
  8
0
  6
Continuous
 62
     7
100
AcDbCircle
 10
6.486125476499999
 20
6.1324464061
 30
0.0
 40
0.1
100
AcDbArc
 50
0.0
 51
90.0
  0
ARC
  5
2A1
330
1F
100
AcDbEntity
  8
0
  6
Continuous
 62
     7
100
AcDbCircle
 10
6.486125476499999
 20
4.212446406099999
 30
0.0
 40
0.1
100
AcDbArc
 50
270.0
 51
360.0
  0
ARC
  5
2A2
330
1F
100
AcDbEntity
  8
0
  6
Continuous
 62
     7
100
AcDbCircle
 10
4.566125476499999
 20
4.212446406099999
 30
0.0
 40
0.1
100
AcDbArc
 50
180.0
 51
270.0
  0
CIRCLE
  5
2A3
330
1F
100
AcDbEntity
  8
0
  6
Continuous
 62
     7
100
AcDbCircle
 10
5.526125476499999
 20
5.172446406099999
 30
0.0
 40
0.1125
  0
ARC
  5
2A4
330
1F
100
AcDbEntity
  8
0
  6
Continuous
 62
     7
100
AcDbCircle
 10
6.131125476499999
 20
4.9899464061
 30
0.0
 40
0.035
100
AcDbArc
 50
270.0
 51
360.0
  0
ARC
  5
2A5
330
1F
100
AcDbEntity
  8
0
  6
Continuous
 62
     7
100
AcDbCircle
 10
6.131125476499999
 20
5.354946406099999
 30
0.0
 40
0.035
100
AcDbArc
 50
0.0
 51
90.0
  0
CIRCLE
  5
2A6
330
1F
100
AcDbEntity
  8
0
  6
Continuous
 62
     7
100
AcDbCircle
 10
5.526125476499999
 20
5.172446406099999
 30
0.0
 40
1.013106596899999
  0
CIRCLE
  5
2A7
330
1F
100
AcDbEntity
  8
0
  6
Continuous
 62
     7
100
AcDbCircle
 10
5.526125476499999
 20
5.172446406099999
 30
0.0
 40
0.9968932415000001
  0
CIRCLE
  5
2A8
330
1F
100
AcDbEntity
  8
0
  6
Continuous
 62
     7
100
AcDbCircle
 10
5.526125476499999
 20
5.172446406099999
 30
0.0
 40
0.9610000013
  0
CIRCLE
  5
2A9
330
1F
100
AcDbEntity
  8
0
  6
Continuous
 62
     7
100
AcDbCircle
 10
5.526125476499999
 20
5.172446406099999
 30
0.0
 40
0.9862866388
  0
SPLINE
  5
2AA
330
1F
100
AcDbEntity
  8
0
  6
Continuous
 62
     7
100
AcDbSpline
210
0.0
220
0.0
230
1.0
 70
     8
 71
     3
 72
     8
 73
     4
 74
     2
 42
0.0000000001
 43
0.0000000001
 44
0.0000000001
 12
0.0
 22
1.0
 32
0.0
 13
0.2522798930140736
 23
0.9676543058245583
 33
0.0
 40
0.0
 40
0.0
 40
0.0
 40
0.0
 40
0.0078270232925769
 40
0.0078270232925769
 40
0.0078270232925769
 40
0.0078270232925769
 10
1.149833604899999
 20
2.722356267999999
 30
0.0
 10
1.149833604899999
 20
2.724965275764192
 30
0.0
 10
1.150163164200376
 20
2.72759609660305
 30
0.0
 10
1.1508213644
 20
2.7301207142
 30
0.0
 11
1.149833604899999
 21
2.722356267999999
 31
0.0
 11
1.1508213644
 21
2.7301207142
 31
0.0
  0
SPLINE
  5
2AB
330
1F
100
AcDbEntity
  8
0
  6
Continuous
 62
     7
100
AcDbSpline
210
0.0
220
0.0
230
1.0
 70
     8
 71
     3
 72
     9
 73
     5
 74
     3
 42
0.0000000001
 43
0.0000000001
 44
0.0000000001
 12
0.2522798988278279
 22
0.9676543043088379
 32
0.0
 13
0.7397882487230056
 23
0.6728397632804921
 33
0.0
 40
0.0
 40
0.0
 40
0.0
 40
0.0
 40
0.0074778800351372
 40
0.014511151573018
 40
0.014511151573018
 40
0.014511151573018
 40
0.014511151573018
 10
1.1508213644
 20
2.7301207142
 30
0.0
 10
1.151450204006237
 20
2.732532715134369
 30
0.0
 10
1.153265085265642
 20
2.737084721254262
 30
0.0
 10
1.156301663188732
 20
2.740961776414455
 30
0.0
 10
1.1580360404
 20
2.742539198
 30
0.0
 11
1.1508213644
 21
2.7301207142
 31
0.0
 11
1.1536451183
 21
2.737044954499999
 31
0.0
 11
1.1580360404
 21
2.742539198
 31
0.0
  0
SPLINE
  5
2AC
330
1F
100
AcDbEntity
  8
0
  6
Continuous
 62
     7
100
AcDbSpline
210
0.0
220
0.0
230
1.0
 70
     8
 71
     3
 72
     9
 73
     5
 74
     3
 42
0.0000000001
 43
0.0000000001
 44
0.0000000001
 12
0.7397882469809955
 22
0.6728397651958344
 32
0.0
 13
1.0
 23
0.0
 33
0.0
 40
0.0
 40
0.0
 40
0.0
 40
0.0
 40
0.0066360887045573
 40
0.0130687396809263
 40
0.0130687396809263
 40
0.0130687396809263
 40
0.0130687396809263
 10
1.1580360404
 20
2.742539198
 30
0.0
 10
1.159672473876518
 20
2.744027539455264
 30
0.0
 10
1.163402046213606
 20
2.746469195162458
 30
0.0
 10
1.167797676007876
 20
2.747356268
 30
0.0
 10
1.169941893
 20
2.747356268
 30
0.0
 11
1.1580360404
 21
2.742539198
 31
0.0
 11
1.163631842399999
 21
2.746106363999999
 31
0.0
 11
1.169941893
 21
2.747356268
 31
0.0
  0
SPLINE
  5
2AD
330
1F
100
AcDbEntity
  8
0
  6
Continuous
 62
     7
100
AcDbSpline
210
0.0
220
0.0
230
1.0
 70
     8
 71
     3
 72
    12
 73
     8
 74
     6
 42
0.0000000001
 43
0.0000000001
 44
0.0000000001
 12
-1.0
 22
0.0
 32
0.0
 13
0.0
 23
-1.0
 33
0.0
 40
0.0
 40
0.0
 40
0.0
 40
0.0
 40
0.0015157472758524
 40
0.0051719755965612
 40
0.010712605405938
 40
0.0176604607700647
 40
0.0254175028580674
 40
0.0254175028580674
 40
0.0254175028580674
 40
0.0254175028580674
 10
2.7618879962
 20
2.747356268
 30
0.0
 10
2.761382747108049
 20
2.747356268
 30
0.0
 10
2.760731333055785
 20
2.745107775823395
 30
0.0
 10
2.760059041201029
 20
2.742116485493715
 30
0.0
 10
2.759434798570468
 20
2.736507688355913
 30
0.0
 10
2.759017982990687
 20
2.729870344865089
 30
0.0
 10
2.758918641899999
 20
2.724941948696
 30
0.0
 10
2.758918641899999
 20
2.722356267999999
 30
0.0
 11
2.7618879962
 21
2.747356268
 31
0.0
 11
2.761029
 21
2.7461074224
 31
0.0
 11
2.760212318899999
 21
2.742543570899999
 31
0.0
 11
2.7595336466
 21
2.7370446635
 31
0.0
 11
2.759080051
 21
2.7301116306
 31
0.0
 11
2.758918641899999
 21
2.722356267999999
 31
0.0
  0
SPLINE
  5
2AE
330
1F
100
AcDbEntity
  8
0
  6
Continuous
 62
     7
100
AcDbSpline
210
0.0
220
0.0
230
1.0
 70
     8
 71
     3
 72
    12
 73
     8
 74
     6
 42
0.0000000001
 43
0.0000000001
 44
0.0000000001
 12
0.0
 22
0.9999999999999998
 32
0.0
 13
-0.9999999999999998
 23
0.0
 33
0.0
 40
0.0
 40
0.0
 40
0.0
 40
0.0
 40
0.0078254197865533
 40
0.015500450495288
 40
0.0229835707943015
 40
0.0303234399529541
 40
0.0376440696644655
 40
0.0376440696644655
 40
0.0376440696644655
 40
0.0376440696644655
 10
1.3604130635
 20
2.722356267999999
 30
0.0
 10
1.3604130635
 20
2.724964741262184
 30
0.0
 10
1.359648674784804
 20
2.730163660397842
 30
0.0
 10
1.356340179382448
 20
2.737193328887618
 30
0.0
 10
1.351188390905052
 20
2.742810614385429
 30
0.0
 10
1.344643480307069
 20
2.746485832304116
 30
0.0
 10
1.339717961203837
 20
2.747356268
 30
0.0
 10
1.3372777513
 20
2.747356268
 30
0.0
 11
1.3604130635
 21
2.722356267999999
 31
0.0
 11
1.3592673808
 21
2.730097366499999
 31
0.0
 11
1.355982087299999
 21
2.737033715899999
 31
0.0
 11
1.350904075399999
 21
2.7425301588
 31
0.0
 11
1.344489312899999
 21
2.746097300699999
 31
0.0
 11
1.3372777513
 21
2.747356268
 31
0.0
  0
SPLINE
  5
2AF
330
1F
100
AcDbEntity
  8
0
  6
Continuous
 62
     7
100
AcDbSpline
210
0.0
220
0.0
230
1.0
 70
     8
 71
     3
 72
    10
 73
     6
 74
     4
 42
0.0000000001
 43
0.0000000001
 44
0.0000000001
 12
0.0
 22
1.0
 32
0.0
 13
0.7387249588551135
 23
0.6740069993438577
 33
0.0
 40
0.0
 40
0.0
 40
0.0
 40
0.0
 40
0.0078243083154173
 40
0.015297960976061
 40
0.0223232642759727
 40
0.0223232642759727
 40
0.0223232642759727
 40
0.0223232642759727
 10
1.166996894499999
 20
2.722356267999999
 30
0.0
 10
1.166996894499999
 20
2.724964370771805
 30
0.0
 10
1.167635094477978
 20
2.730089067933164
 30
0.0
 10
1.170414233228454
 20
2.737075790239469
 30
0.0
 10
1.173442411802942
 20
2.740958621634448
 30
0.0
 10
1.175172334099999
 20
2.7425369895
 30
0.0
 11
1.166996894499999
 21
2.722356267999999
 31
0.0
 11
1.167980983199999
 21
2.7301184436
 31
0.0
 11
1.170795036399999
 21
2.737042068999999
 31
0.0
 11
1.175172334099999
 21
2.7425369895
 31
0.0
  0
SPLINE
  5
2B0
330
1F
100
AcDbEntity
  8
0
  6
Continuous
 62
     7
100
AcDbSpline
210
0.0
220
0.0
230
1.0
 70
     8
 71
     3
 72
     9
 73
     5
 74
     3
 42
0.0000000001
 43
0.0000000001
 44
0.0000000001
 12
0.7387249583484176
 22
0.6740069998992063
 32
0.0
 13
1.0
 23
0.0
 33
0.0
 40
0.0
 40
0.0
 40
0.0
 40
0.0
 40
0.0066238508375414
 40
0.0130429513050713
 40
0.0130429513050713
 40
0.0130429513050713
 40
0.0130429513050713
 10
1.175172334099999
 20
2.7425369895
 30
0.0
 10
1.176803402078022
 20
2.744025163443597
 30
0.0
 10
1.180521988384014
 20
2.746468066221607
 30
0.0
 10
1.184909148544156
 20
2.747356268
 30
0.0
 10
1.187048848699999
 20
2.747356268
 30
0.0
 11
1.175172334099999
 21
2.7425369895
 31
0.0
 11
1.180752795699999
 21
2.7461054413
 31
0.0
 11
1.187048848699999
 21
2.747356268
 31
0.0
  0
SPLINE
  5
2B1
330
1F
100
AcDbEntity
  8
0
  6
Continuous
 62
     7
100
AcDbSpline
210
0.0
220
0.0
230
1.0
 70
     8
 71
     3
 72
     8
 73
     4
 74
     2
 42
0.0000000001
 43
0.0000000001
 44
0.0000000001
 12
-1.0
 22
0.0
 32
0.0
 13
-0.9265973653720616
 23
-0.3760549460990434
 33
0.0
 40
0.0
 40
0.0
 40
0.0
 40
0.0
 40
0.0064304124020326
 40
0.0064304124020326
 40
0.0064304124020326
 40
0.0064304124020326
 10
1.171954085599999
 20
2.747356268
 30
0.0
 10
1.169810614799322
 20
2.747356268
 30
0.0
 10
1.167632398896659
 20
2.746912692196413
 30
0.0
 10
1.1656462645
 20
2.746106629399999
 30
0.0
 11
1.171954085599999
 21
2.747356268
 31
0.0
 11
1.1656462645
 21
2.746106629399999
 31
0.0
  0
SPLINE
  5
2B2
330
1F
100
AcDbEntity
  8
0
  6
Continuous
 62
     7
100
AcDbSpline
210
0.0
220
0.0
230
1.0
 70
     8
 71
     3
 72
    10
 73
     6
 74
     4
 42
0.0000000001
 43
0.0000000001
 44
0.0000000001
 12
-0.9265973629505463
 22
-0.3760549520656434
 32
0.0
 13
-0.2517817014864169
 23
-0.967784053803639
 33
0.0
 40
0.0
 40
0.0
 40
0.0
 40
0.0
 40
0.006631723122983
 40
0.0136716271707871
 40
0.0211575358263729
 40
0.0211575358263729
 40
0.0211575358263729
 40
0.0211575358263729
 10
1.1656462645
 20
2.746106629399999
 30
0.0
 10
1.163597952114141
 20
2.745275331959624
 30
0.0
 10
1.159686302395974
 20
2.742721163844238
 30
0.0
 10
1.155285423512413
 20
2.73708510374429
 30
0.0
 10
1.153464807406158
 20
2.732523276541702
 30
0.0
 10
1.152836535799999
 20
2.7301083622
 30
0.0
 11
1.1656462645
 21
2.746106629399999
 31
0.0
 11
1.1600543553
 21
2.742541478199999
 31
0.0
 11
1.155660249899999
 21
2.7370412885
 31
0.0
 11
1.152836535799999
 21
2.7301083622
 31
0.0
  0
SPLINE
  5
2B3
330
1F
100
AcDbEntity
  8
0
  6
Continuous
 62
     7
100
AcDbSpline
210
0.0
220
0.0
230
1.0
 70
     8
 71
     3
 72
     8
 73
     4
 74
     2
 42
0.0000000001
 43
0.0000000001
 44
0.0000000001
 12
-0.2517816944553574
 22
-0.9677840556328611
 32
0.0
 13
0.0
 23
-1.0
 33
0.0
 40
0.0
 40
0.0
 40
0.0
 40
0.0
 40
0.0078143361057204
 40
0.0078143361057204
 40
0.0078143361057204
 40
0.0078143361057204
 10
1.152836535799999
 20
2.7301083622
 30
0.0
 10
1.152180700204752
 20
2.727587498903842
 30
0.0
 10
1.1518522166
 20
2.724961046701906
 30
0.0
 10
1.1518522166
 20
2.722356267999999
 30
0.0
 11
1.152836535799999
 21
2.7301083622
 31
0.0
 11
1.1518522166
 21
2.722356267999999
 31
0.0
  0
SPLINE
  5
2B4
330
1F
100
AcDbEntity
  8
0
  6
Continuous
 62
     7
100
AcDbSpline
210
0.0
220
0.0
230
1.0
 70
     8
 71
     3
 72
    12
 73
     8
 74
     6
 42
0.0000000001
 43
0.0000000001
 44
0.0000000001
 12
-1.0
 22
0.0
 32
0.0
 13
0.0
 23
-1.0
 33
0.0
 40
0.0
 40
0.0
 40
0.0
 40
0.0
 40
0.0064464814619618
 40
0.0130920863670139
 40
0.0201403641337253
 40
0.0276304987174791
 40
0.0354486252196016
 40
0.0354486252196016
 40
0.0354486252196016
 40
0.0354486252196016
 10
1.151082289399999
 20
2.747356268
 30
0.0
 10
1.148933462246012
 20
2.747356268
 30
0.0
 10
1.144526693809611
 20
2.74646761266275
 30
0.0
 10
1.138789417828194
 20
2.742729378391923
 30
0.0
 10
1.134361592834569
 20
2.737086029416677
 30
0.0
 10
1.13155782155266
 20
2.730089547982221
 30
0.0
 10
1.1309163315
 20
2.724962310167374
 30
0.0
 10
1.1309163315
 20
2.722356267999999
 30
0.0
 11
1.151082289399999
 21
2.747356268
 31
0.0
 11
1.1447579311
 21
2.7461074224
 31
0.0
 11
1.139148739799999
 21
2.742543570899999
 31
0.0
 11
1.1347396314
 21
2.7370446635
 31
0.0
 11
1.1319049937
 21
2.7301116306
 31
0.0
 11
1.1309163315
 21
2.722356267999999
 31
0.0
  0
SPLINE
  5
2B5
330
1F
100
AcDbEntity
  8
0
  6
Continuous
 62
     7
100
AcDbSpline
210
0.0
220
0.0
230
1.0
 70
     8
 71
     3
 72
    17
 73
    13
 74
    11
 42
0.0000000001
 43
0.0000000001
 44
0.0000000001
 12
0.0023869269375429
 22
-0.9999971512858397
 32
0.0
 13
0.8660266961309266
 23
0.4999977615835413
 33
0.0
 40
0.0
 40
0.0
 40
0.0
 40
0.0
 40
0.0117606252812742
 40
0.0286956956864317
 40
0.0480321287122326
 40
0.0700414237514606
 40
0.0944947372069803
 40
0.1207289499437936
 40
0.1477606485650007
 40
0.1748078559149927
 40
0.2006173076842002
 40
0.2241804467057971
 40
0.2241804467057971
 40
0.2241804467057971
 40
0.2241804467057971
 10
8.765188689299998
 20
6.7541586326
 30
0.0
 10
8.765198046551093
 20
6.750238435340461
 30
0.0
 10
8.766711327918832
 20
6.740616208670457
 30
0.0
 10
8.774768078370128
 20
6.726362641002712
 30
0.0
 10
8.789206371689914
 20
6.713035552133341
 30
0.0
 10
8.808438941606553
 20
6.702179930341819
 30
0.0
 10
8.831457531271908
 20
6.694260077616229
 30
0.0
 10
8.8570482669344
 20
6.689673503938536
 30
0.0
 10
8.883884444652718
 20
6.688674231345658
 30
0.0
 10
8.910470072188477
 20
6.691362382938375
 30
0.0
 10
8.935257991943677
 20
6.697618780733225
 30
0.0
 10
8.950427438920884
 20
6.70429563304444
 30
0.0
 10
8.9572295414
 20
6.7082228053
 30
0.0
 11
8.765188689299998
 21
6.7541586326
 31
0.0
 11
8.7669927531
 21
6.742537201499999
 31
0.0
 11
8.7749978371
 21
6.7276135545
 31
0.0
 11
8.788947132999998
 21
6.7142227074
 31
0.0
 11
8.807978395499999
 21
6.703167386699999
 31
0.0
 11
8.8310426682
 21
6.695043110499999
 31
0.0
 11
8.856848637
 21
6.6903223169
 31
0.0
 11
8.883860891199999
 21
6.689297205499999
 31
0.0
 11
8.910765448699999
 21
6.692071410099999
 31
0.0
 11
8.935755625399998
 21
6.698522678899999
 31
0.0
 11
8.9572295414
 21
6.7082228053
 31
0.0
  0
SPLINE
  5
2B6
330
1F
100
AcDbEntity
  8
0
  6
Continuous
 62
     7
100
AcDbSpline
210
0.0
220
0.0
230
1.0
 70
     8
 71
     3
 72
    14
 73
    10
 74
     8
 42
0.0000000001
 43
0.0000000001
 44
0.0000000001
 12
0.8660303017105825
 22
-0.4999915164471066
 32
0.0
 13
0.8660266960943379
 23
0.4999977616469151
 33
0.0
 40
0.0
 40
0.0
 40
0.0
 40
0.0
 40
0.0193731068157577
 40
0.0403206982199445
 40
0.0622786567693167
 40
0.0845836483693818
 40
0.1065415796867813
 40
0.127489119266302
 40
0.1468621553138636
 40
0.1468621553138636
 40
0.1468621553138636
 40
0.1468621553138636
 10
8.806974966
 20
4.888459380899999
 30
0.0
 10
8.812567531846907
 20
4.885230584548298
 30
0.0
 10
8.824901466312962
 20
4.879684806860849
 30
0.0
 10
8.844997105010165
 20
4.874220214344306
 30
0.0
 10
8.866619561068013
 20
4.871428734132239
 30
0.0
 10
8.888751959139039
 20
4.871428786636522
 30
0.0
 10
8.910374375695917
 20
4.874220368897637
 30
0.0
 10
8.930469937184518
 20
4.879685056621927
 30
0.0
 10
8.942803800166139
 20
4.885230896013304
 30
0.0
 10
8.9483963223
 20
4.888459720899999
 30
0.0
 11
8.806974966
 21
4.888459380899999
 31
0.0
 11
8.8245760044
 21
4.8803648942
 31
0.0
 11
8.844762171799999
 21
4.8747684461
 31
0.0
 11
8.866533267699999
 21
4.871909892799999
 31
0.0
 11
8.888838259299999
 21
4.871909946499999
 31
0.0
 11
8.910609314
 21
4.874768604399999
 31
0.0
 11
8.9307954007
 21
4.880365149599999
 31
0.0
 11
8.9483963223
 21
4.888459720899999
 31
0.0
  0
SPLINE
  5
2B7
330
1F
100
AcDbEntity
  8
0
  6
Continuous
 62
     7
100
AcDbSpline
210
0.0
220
0.0
230
1.0
 70
     8
 71
     3
 72
    11
 73
     7
 74
     5
 42
0.0000000001
 43
0.0000000001
 44
0.0000000001
 12
0.8660266960646234
 22
0.4999977616983826
 32
0.0
 13
-0.000000181906061
 23
0.9999999999999833
 33
0.0
 40
0.0
 40
0.0
 40
0.0
 40
0.0
 40
0.0173156094184819
 40
0.0324743236525921
 40
0.0459837167725037
 40
0.0524514463058206
 40
0.0524514463058206
 40
0.0524514463058206
 40
0.0524514463058206
 10
10.3060356897
 20
5.6722884963
 30
0.0
 10
10.31103428303834
 20
5.675174418283894
 30
0.0
 10
10.3199648973995
 20
5.681463898962157
 30
0.0
 10
10.33010996958838
 20
5.693202093108544
 30
0.0
 10
10.33468620742613
 20
5.704281947420553
 30
0.0
 10
10.33531417769217
 20
5.710956660955561
 30
0.0
 10
10.3353141773
 20
5.7131125708
 30
0.0
 11
10.3060356897
 21
5.6722884963
 31
0.0
 11
10.3200559524
 21
5.682450315199999
 31
0.0
 11
10.3297494235
 21
5.694104637799999
 31
0.0
 11
10.3347006537
 21
5.7066740062
 31
0.0
 11
10.3353141773
 21
5.7131125708
 31
0.0
  0
SPLINE
  5
2B8
330
1F
100
AcDbEntity
  8
0
  6
Continuous
 62
     7
100
AcDbSpline
210
0.0
220
0.0
230
1.0
 70
     8
 71
     3
 72
     9
 73
     5
 74
     3
 42
0.0000000001
 43
0.0000000001
 44
0.0000000001
 12
-0.8660303012009109
 22
0.4999915173299037
 32
0.0
 13
-0.9997909230638605
 23
0.0204477421519751
 33
0.0
 40
0.0
 40
0.0
 40
0.0
 40
0.0
 40
0.0098659743617289
 40
0.0175626122314869
 40
0.0175626122314869
 40
0.0175626122314869
 40
0.0175626122314869
 10
8.596424467
 20
7.0773735808
 30
0.0
 10
8.59357638941729
 20
7.079017881963687
 30
0.0
 10
8.588057508054754
 20
7.081238097162552
 30
0.0
 10
8.582204169560096
 20
7.082002741177801
 30
0.0
 10
8.579639159999999
 20
7.0820552008
 30
0.0
 11
8.596424467
 21
7.0773735808
 31
0.0
 11
8.587270268899999
 21
7.081052997499999
 31
0.0
 11
8.579639159999999
 21
7.0820552008
 31
0.0
  0
SPLINE
  5
2B9
330
1F
100
AcDbEntity
  8
0
  6
Continuous
 62
     7
100
AcDbSpline
210
0.0
220
0.0
230
1.0
 70
     8
 71
     3
 72
     9
 73
     5
 74
     3
 42
0.0000000001
 43
0.0000000001
 44
0.0000000001
 12
-0.9997909226153916
 22
0.0204477640798138
 32
0.0
 13
-0.9996782403669001
 23
-0.0253656408737935
 33
0.0
 40
0.0
 40
0.0
 40
0.0
 40
0.0
 40
0.0012406518577314
 40
0.001601348087546
 40
0.001601348087546
 40
0.001601348087546
 40
0.001601348087546
 10
8.579639159999999
 20
7.0820552008
 30
0.0
 10
8.579225695844836
 20
7.082063656985497
 30
0.0
 10
8.578691759239553
 20
7.082065111720829
 30
0.0
 10
8.578158083490775
 20
7.082054325763676
 30
0.0
 10
8.578037890099999
 20
7.082051276
 30
0.0
 11
8.579639159999999
 21
7.0820552008
 31
0.0
 11
8.578398512699999
 21
7.0820585637
 31
0.0
 11
8.578037890099999
 21
7.082051276
 31
0.0
  0
SPLINE
  5
2BA
330
1F
100
AcDbEntity
  8
0
  6
Continuous
 62
     7
100
AcDbSpline
210
0.0
220
0.0
230
1.0
 70
     8
 71
     3
 72
     9
 73
     5
 74
     3
 42
0.0000000001
 43
0.0000000001
 44
0.0000000001
 12
-0.9996782406390664
 22
-0.0253656301475195
 32
0.0
 13
-0.8660266958203248
 23
-0.4999977621215226
 33
0.0
 40
0.0
 40
0.0
 40
0.0
 40
0.0
 40
0.0082418519737625
 40
0.0173934617617974
 40
0.0173934617617974
 40
0.0173934617617974
 40
0.0173934617617974
 10
8.578037890099999
 20
7.082051276
 30
0.0
 10
8.575291490073086
 20
7.081981589410368
 30
0.0
 10
8.569494460646284
 20
7.081148139534711
 30
0.0
 10
8.564066688428724
 20
7.078898716071275
 30
0.0
 10
8.561424842300001
 20
7.0773734546
 30
0.0
 11
8.578037890099999
 21
7.082051276
 31
0.0
 11
8.569880581799999
 21
7.0808738019
 31
0.0
 11
8.561424842300001
 21
7.0773734546
 31
0.0
  0
SPLINE
  5
2BB
330
1F
100
AcDbEntity
  8
0
  6
Continuous
 62
     7
100
AcDbSpline
210
0.0
220
0.0
230
1.0
 70
     8
 71
     3
 72
    11
 73
     7
 74
     5
 42
0.0000000001
 43
0.0000000001
 44
0.0000000001
 12
-0.8660266963632619
 22
-0.4999977611811224
 32
0.0
 13
0.0
 23
-1.0
 33
0.0
 40
0.0
 40
0.0
 40
0.0
 40
0.0
 40
0.0090024109005417
 40
0.0181908650581557
 40
0.027465175001019
 40
0.0365473831213585
 40
0.0365473831213585
 40
0.0365473831213585
 40
0.0365473831213585
 10
8.303331941699999
 20
6.9283643384
 30
0.0
 10
8.300733165642832
 20
6.926863943301499
 30
0.0
 10
8.295851310638823
 20
6.923135370443844
 30
0.0
 10
8.290194309213307
 20
6.915806675287121
 30
0.0
 10
8.286634309724529
 20
6.907228829699365
 30
0.0
 10
8.2858318633
 20
6.901080806706779
 30
0.0
 10
8.2858318633
 20
6.898053403999999
 30
0.0
 11
8.303331941699999
 21
6.9283643384
 31
0.0
 11
8.2961792348
 21
6.9228978783
 31
0.0
 11
8.290562854099999
 21
6.915625742599999
 31
0.0
 11
8.287010242
 21
6.907058842799999
 31
0.0
 11
8.2858318633
 21
6.898053403999999
 31
0.0
  0
SPLINE
  5
2BC
330
1F
100
AcDbEntity
  8
0
  6
Continuous
 62
     7
100
AcDbSpline
210
0.0
220
0.0
230
1.0
 70
     8
 71
     3
 72
    11
 73
     7
 74
     5
 42
0.0000000001
 43
0.0000000001
 44
0.0000000001
 12
0.8660303016629997
 22
-0.4999915165295244
 32
0.0
 13
0.0000001819037017
 23
-0.9999999999999836
 33
0.0
 40
0.0
 40
0.0
 40
0.0
 40
0.0
 40
0.0173156885652066
 40
0.0324744744672504
 40
0.0459839118913569
 40
0.0524521276651163
 40
0.0524521276651163
 40
0.0524521276651163
 40
0.0524521276651163
 10
10.3060351009
 20
6.080537953999999
 30
0.0
 10
10.31103373789721
 20
6.077652054871509
 30
0.0
 10
10.31996444209166
 20
6.071362616790034
 30
0.0
 10
10.33010967609384
 20
6.059624480413495
 30
0.0
 10
10.33468614017641
 20
6.048544503097947
 30
0.0
 10
10.3353141769078
 20
6.041869609624586
 30
0.0
 10
10.3353141773
 20
6.039713537699999
 30
0.0
 11
10.3060351009
 21
6.080537953999999
 31
0.0
 11
10.3200555102
 21
6.0703762025
 31
0.0
 11
10.3297491494
 21
6.058721926499999
 31
0.0
 11
10.3347005609
 21
6.0461525819
 31
0.0
 11
10.3353141773
 21
6.039713537699999
 31
0.0
  0
SPLINE
  5
2BD
330
1F
100
AcDbEntity
  8
0
  6
Continuous
 62
     7
100
AcDbSpline
210
0.0
220
0.0
230
1.0
 70
     8
 71
     3
 72
    11
 73
     7
 74
     5
 42
0.0000000001
 43
0.0000000001
 44
0.0000000001
 12
0.0
 22
1.0
 32
0.0
 13
-0.8660303017095262
 23
0.4999915164489364
 33
0.0
 40
0.0
 40
0.0
 40
0.0
 40
0.0
 40
0.009002500092324
 40
0.0181910578173657
 40
0.0274654757700358
 40
0.0365476333591614
 40
0.0365476333591614
 40
0.0365476333591614
 40
0.0365476333591614
 10
9.4695275314
 20
6.5530912072
 30
0.0
 10
9.4695275314
 20
6.556092040564108
 30
0.0
 10
9.468739388009801
 20
6.562184200537506
 30
0.0
 10
9.465220956099191
 20
6.570747727477356
 30
0.0
 10
9.459572217480516
 20
6.578119691043529
 30
0.0
 10
9.454649042292361
 20
6.581888600551461
 30
0.0
 10
9.4520272344
 20
6.583402267799999
 30
0.0
 11
9.4695275314
 21
6.5530912072
 31
0.0
 11
9.468369745499998
 21
6.5620189471
 31
0.0
 11
9.464879985699999
 21
6.5705190159
 31
0.0
 11
9.4592370019
 21
6.577879149199999
 31
0.0
 11
9.4520272344
 21
6.583402267799999
 31
0.0
  0
SPLINE
  5
2BE
330
1F
100
AcDbEntity
  8
0
  6
Continuous
 62
     7
100
AcDbSpline
210
0.0
220
0.0
230
1.0
 70
     8
 71
     3
 72
    24
 73
    20
 74
    18
 42
0.0000000001
 43
0.0000000001
 44
0.0000000001
 12
-0.8660266961349002
 22
-0.4999977615766586
 32
0.0
 13
0.0
 23
0.9999999999999998
 33
0.0
 40
0.0
 40
0.0
 40
0.0
 40
0.0
 40
0.1101344683036699
 40
0.2271771584108996
 40
0.3500199820084165
 40
0.4773085059834191
 40
0.6075010012446
 40
0.7388911222005702
 40
0.8697622575352262
 40
0.9983950322249713
 40
1.123174021204706
 40
1.242642836529842
 40
1.35555574156948
 40
1.461076269834651
 40
1.558747072674977
 40
1.648762005118681
 40
1.732086071437711
 40
1.81022249497397
 40
1.885710050088492
 40
1.885710050088492
 40
1.885710050088492
 40
1.885710050088492
 10
9.549712176799999
 20
6.0767975433
 30
0.0
 10
9.5179190468948
 20
6.058441880758577
 30
0.0
 10
9.449970366129244
 20
6.024589302559278
 30
0.0
 10
9.340524286472247
 20
5.983661548668949
 30
0.0
 10
9.222205984445988
 20
5.951693882993064
 30
0.0
 10
9.097267235018277
 20
5.929336360295508
 30
0.0
 10
8.968086059660983
 20
5.917040764783246
 30
0.0
 10
8.837145686215498
 20
5.915061724411533
 30
0.0
 10
8.706978052453941
 20
5.923442292084708
 30
0.0
 10
8.580089735567263
 20
5.942014292721458
 30
0.0
 10
8.458918309389984
 20
5.970402492787822
 30
0.0
 10
8.345779797725928
 20
6.008034698586412
 30
0.0
 10
8.242796220015572
 20
6.054166659940388
 30
0.0
 10
8.15186894801654
 20
6.107909886588124
 30
0.0
 10
8.074620259435352
 20
6.168302927880954
 30
0.0
 10
8.012416900855942
 20
6.234371325645726
 30
0.0
 10
7.966514993282379
 20
6.305156841177021
 30
0.0
 10
7.938145291006926
 20
6.379551975651986
 30
0.0
 10
7.931679697399999
 20
6.430963989628492
 30
0.0
 10
7.931679697399999
 20
6.456126507999999
 30
0.0
 11
9.549712176799999
 21
6.0767975433
 31
0.0
 11
9.4513112611
 21
6.0273317885
 31
0.0
 11
9.3417922427
 21
5.9860452784
 31
0.0
 11
9.223260552000001
 21
5.9537869832
 31
0.0
 11
9.0979890655
 21
5.9312165821
 31
0.0
 11
8.9683899457
 21
5.918800706399999
 31
0.0
 11
8.837015023200001
 21
5.916802301299999
 31
0.0
 11
8.706417791199999
 21
5.9252649875
 31
0.0
 11
8.579159028599999
 21
5.9440159359
 31
0.0
 11
8.457714690899999
 21
5.972670236299999
 31
0.0
 11
8.344440025499999
 21
6.0106392765
 31
0.0
 11
8.2415426779
 21
6.0571307809
 31
0.0
 11
8.150936427999999
 21
6.1112148762
 31
0.0
 11
8.074328187599999
 21
6.171801700099999
 31
0.0
 11
8.013077906399999
 21
6.2377645011
 31
0.0
 11
7.968268562
 21
6.308014217699999
 31
0.0
 11
7.940913799099999
 21
6.381205867699999
 31
0.0
 11
7.931679697399999
 21
6.456126507999999
 31
0.0
  0
SPLINE
  5
2BF
330
1F
100
AcDbEntity
  8
0
  6
Continuous
 62
     7
100
AcDbSpline
210
0.0
220
0.0
230
1.0
 70
     8
 71
     3
 72
    13
 73
     9
 74
     7
 42
0.0000000001
 43
0.0000000001
 44
0.0000000001
 12
0.0
 22
-0.9999999999999998
 32
0.0
 13
-0.8626956194671437
 23
-0.5057235095901724
 33
0.0
 40
0.0
 40
0.0
 40
0.0
 40
0.0
 40
0.0707965754985827
 40
0.1437562199445984
 40
0.2208628555449285
 40
0.3036474999749133
 40
0.3930303952007738
 40
0.4834487553181263
 40
0.4834487553181263
 40
0.4834487553181263
 40
0.4834487553181263
 10
9.823679697399999
 20
6.456126507999999
 30
0.0
 10
9.823679697399999
 20
6.432527649500472
 30
0.0
 10
9.818019859338198
 20
6.384438483055664
 30
0.0
 10
9.793122892690188
 20
6.314587584414084
 30
0.0
 10
9.752745817702711
 20
6.24776152130422
 30
0.0
 10
9.697886719440715
 20
6.184882142980297
 30
0.0
 10
9.63101559753275
 20
6.127990904765119
 30
0.0
 10
9.580805531397547
 20
6.095002208436645
 30
0.0
 10
9.554804357
 20
6.0797599783
 30
0.0
 11
9.823679697399999
 21
6.456126507999999
 31
0.0
 11
9.815547457399999
 21
6.385798549299999
 31
0.0
 11
9.791438041099999
 21
6.316937487999999
 31
0.0
 11
9.7519949316
 21
6.250682870299999
 31
0.0
 11
9.697962004299998
 21
6.1879633349
 31
0.0
 11
9.630186688
 21
6.129689769199999
 31
0.0
 11
9.554804357
 21
6.0797599783
 31
0.0
  0
SPLINE
  5
2C0
330
1F
100
AcDbEntity
  8
0
  6
Continuous
 62
     7
100
AcDbSpline
210
0.0
220
0.0
230
1.0
 70
     8
 71
     3
 72
     8
 73
     4
 74
     2
 42
0.0000000001
 43
0.0000000001
 44
0.0000000001
 12
-0.862695619010147
 22
-0.5057235103697466
 32
0.0
 13
-0.8648980597732613
 23
-0.5019475532368374
 33
0.0
 40
0.0
 40
0.0
 40
0.0
 40
0.0
 40
0.0038788119347788
 40
0.0038788119347788
 40
0.0038788119347788
 40
0.0038788119347788
 10
9.554804357
 20
6.0797599783
 30
0.0
 10
9.553688945645633
 20
6.079106109504093
 30
0.0
 10
9.552572096272205
 20
6.078454687720042
 30
0.0
 10
9.5514538373
 20
6.077805700999999
 30
0.0
 11
9.554804357
 21
6.0797599783
 31
0.0
 11
9.5514538373
 21
6.077805700999999
 31
0.0
  0
SPLINE
  5
2C1
330
1F
100
AcDbEntity
  8
0
  6
Continuous
 62
     7
100
AcDbSpline
210
0.0
220
0.0
230
1.0
 70
     8
 71
     3
 72
     8
 73
     4
 74
     2
 42
0.0000000001
 43
0.0000000001
 44
0.0000000001
 12
-0.8648980500781517
 22
-0.5019475699423309
 32
0.0
 13
-0.8660266973139309
 23
-0.4999977595345053
 33
0.0
 40
0.0
 40
0.0
 40
0.0
 40
0.0
 40
0.0020124023567194
 40
0.0020124023567194
 40
0.0020124023567194
 40
0.0020124023567194
 10
9.5514538373
 20
6.077805700999999
 30
0.0
 10
9.550873663008566
 20
6.077468994175766
 30
0.0
 10
9.550293108188885
 20
6.077132942189881
 30
0.0
 10
9.549712176799999
 20
6.0767975433
 30
0.0
 11
9.5514538373
 21
6.077805700999999
 31
0.0
 11
9.549712176799999
 21
6.0767975433
 31
0.0
  0
SPLINE
  5
2C2
330
1F
100
AcDbEntity
  8
0
  6
Continuous
 62
     7
100
AcDbSpline
210
0.0
220
0.0
230
1.0
 70
     8
 71
     3
 72
     8
 73
     4
 74
     2
 42
0.0000000001
 43
0.0000000001
 44
0.0000000001
 12
0.8689422885177934
 22
0.4949134259903035
 32
0.0
 13
0.8693593102618706
 23
0.4941805233525545
 33
0.0
 40
0.0
 40
0.0
 40
0.0
 40
0.0
 40
0.0008080265531399
 40
0.0008080265531399
 40
0.0008080265531399
 40
0.0008080265531399
 10
8.1776147086
 20
6.8745392647
 30
0.0
 10
8.177848751414089
 20
6.874672565763235
 30
0.0
 10
8.178082850464363
 20
6.874805768138362
 30
0.0
 10
8.1783170056
 20
6.874938871799999
 30
0.0
 11
8.1776147086
 21
6.8745392647
 31
0.0
 11
8.1783170056
 21
6.874938871799999
 31
0.0
  0
SPLINE
  5
2C3
330
1F
100
AcDbEntity
  8
0
  6
Continuous
 62
     7
100
AcDbSpline
210
0.0
220
0.0
230
1.0
 70
     8
 71
     3
 72
     8
 73
     4
 74
     2
 42
0.0000000001
 43
0.0000000001
 44
0.0000000001
 12
0.8693592943207272
 22
0.4941805513961138
 32
0.0
 13
0.8721571360645727
 23
0.4892258476528425
 33
0.0
 40
0.0
 40
0.0
 40
0.0
 40
0.0
 40
0.0054793179790025
 40
0.0054793179790025
 40
0.0054793179790025
 40
0.0054793179790025
 10
8.1783170056
 20
6.874938871799999
 30
0.0
 10
8.179904837603862
 20
6.875841462593379
 30
0.0
 10
8.181495254907948
 20
6.876739520172387
 30
0.0
 10
8.183088197
 20
6.8776330615
 30
0.0
 11
8.1783170056
 21
6.874938871799999
 31
0.0
 11
8.183088197
 21
6.8776330615
 31
0.0
  0
SPLINE
  5
2C4
330
1F
100
AcDbEntity
  8
0
  6
Continuous
 62
     7
100
AcDbSpline
210
0.0
220
0.0
230
1.0
 70
     8
 71
     3
 72
     9
 73
     5
 74
     3
 42
0.0000000001
 43
0.0000000001
 44
0.0000000001
 12
0.8721571356148489
 22
0.4892258484545783
 32
0.0
 13
0.9252824116941397
 23
0.3792788665473945
 33
0.0
 40
0.0
 40
0.0
 40
0.0
 40
0.0
 40
0.1088617695766769
 40
0.1309442564552119
 40
0.1309442564552119
 40
0.1309442564552119
 40
0.1309442564552119
 10
8.183088197
 20
6.8776330615
 30
0.0
 10
8.214736386710653
 20
6.895385725361805
 30
0.0
 10
8.254042868661114
 20
6.914615556315915
 30
0.0
 10
8.294271286028275
 20
6.931544786835387
 30
0.0
 10
8.301082131599999
 20
6.9343365937
 30
0.0
 11
8.183088197
 21
6.8776330615
 31
0.0
 11
8.2807292357
 21
6.925769455599999
 31
0.0
 11
8.301082131599999
 21
6.9343365937
 31
0.0
  0
SPLINE
  5
2C5
330
1F
100
AcDbEntity
  8
0
  6
Continuous
 62
     7
100
AcDbSpline
210
0.0
220
0.0
230
1.0
 70
     8
 71
     3
 72
     8
 73
     4
 74
     2
 42
0.0000000001
 43
0.0000000001
 44
0.0000000001
 12
0.9252824114693376
 22
0.3792788670958183
 32
0.0
 13
0.9349939977857671
 23
0.3546635364744859
 33
0.0
 40
0.0
 40
0.0
 40
0.0
 40
0.0
 40
0.031959585275936
 40
0.031959585275936
 40
0.031959585275936
 40
0.031959585275936
 10
8.301082131599999
 20
6.9343365937
 30
0.0
 10
8.310939345644559
 20
6.938377125465437
 30
0.0
 10
8.32085189483176
 20
6.942285025053926
 30
0.0
 10
8.3308125683
 20
6.946063324899999
 30
0.0
 11
8.301082131599999
 21
6.9343365937
 31
0.0
 11
8.3308125683
 21
6.946063324899999
 31
0.0
  0
SPLINE
  5
2C6
330
1F
100
AcDbEntity
  8
0
  6
Continuous
 62
     7
100
AcDbSpline
210
0.0
220
0.0
230
1.0
 70
     8
 71
     3
 72
    14
 73
    10
 74
     8
 42
0.0000000001
 43
0.0000000001
 44
0.0000000001
 12
0.9932737118429288
 22
0.11579003999382
 32
0.0
 13
0.8660191587217511
 23
-0.5000108166098713
 33
0.0
 40
0.0
 40
0.0
 40
0.0
 40
0.0
 40
0.1264822385564303
 40
0.2683720701098534
 40
0.4093270371750221
 40
0.5475362325654786
 40
0.6813051353037807
 40
0.8091363892377227
 40
0.9298160681632687
 40
0.9298160681632687
 40
0.9298160681632687
 40
0.9298160681632687
 10
8.680762297399999
 20
7.0291891222
 30
0.0
 10
8.722639458257715
 20
7.034070916686985
 30
0.0
 10
8.811921106800053
 20
7.041044997574298
 30
0.0
 10
8.948512795128188
 20
7.041034897772791
 30
0.0
 10
9.08855149884874
 20
7.029484615138834
 30
0.0
 10
9.224454214582735
 20
7.006608714298165
 30
0.0
 10
9.353571719236079
 20
6.9728227335685
 30
0.0
 10
9.47335049249083
 20
6.928752404858802
 30
0.0
 10
9.547767901960696
 20
6.891865903235927
 30
0.0
 10
9.582604873300001
 20
6.8717521883
 30
0.0
 11
8.680762297399999
 21
7.0291891222
 31
0.0
 11
8.806856106899999
 21
7.039094064199999
 31
0.0
 11
8.9487459381
 21
7.0390840495
 31
0.0
 11
9.089217382200001
 21
7.027418882
 31
0.0
 11
9.2254823939
 21
7.004318486399999
 31
0.0
 11
9.354831221799999
 21
6.9702156997
 31
0.0
 11
9.4746789793
 21
6.925748357699999
 31
0.0
 11
9.582604873300001
 21
6.8717521883
 31
0.0
  0
SPLINE
  5
2C7
330
1F
100
AcDbEntity
  8
0
  6
Continuous
 62
     7
100
AcDbSpline
210
0.0
220
0.0
230
1.0
 70
     8
 71
     3
 72
    10
 73
     6
 74
     4
 42
0.0000000001
 43
0.0000000001
 44
0.0000000001
 12
-0.8660191519582024
 22
-0.5000108283243431
 32
0.0
 13
-0.8639355567259785
 23
-0.5036023767066367
 33
0.0
 40
0.0
 40
0.0
 40
0.0
 40
0.0
 40
0.0013086668140202
 40
0.0026306984654769
 40
0.0039516693484267
 40
0.0039516693484267
 40
0.0039516693484267
 40
0.0039516693484267
 10
8.161289678099999
 20
6.865132766599999
 30
0.0
 10
8.160911901258508
 20
6.864914650740773
 30
0.0
 10
8.1601527898294
 20
6.864475671096025
 30
0.0
 10
8.159013411795287
 20
6.863814690430158
 30
0.0
 10
8.158251974738393
 20
6.863371546325405
 30
0.0
 10
8.1578715635
 20
6.8631497983
 30
0.0
 11
8.161289678099999
 21
6.865132766599999
 31
0.0
 11
8.160156796499999
 21
6.8644776421
 31
0.0
 11
8.1590132599
 21
6.863814247999999
 31
0.0
 11
8.1578715635
 21
6.8631497983
 31
0.0
  0
SPLINE
  5
2C8
330
1F
100
AcDbEntity
  8
0
  6
Continuous
 62
     7
100
AcDbSpline
210
0.0
220
0.0
230
1.0
 70
     8
 71
     3
 72
    12
 73
     8
 74
     6
 42
0.0000000001
 43
0.0000000001
 44
0.0000000001
 12
-0.554959902282996
 22
-0.831877098409403
 32
0.0
 13
0.0
 23
-1.0
 33
0.0
 40
0.0
 40
0.0
 40
0.0
 40
0.0
 40
0.0059643900213695
 40
0.013111881417268
 40
0.0208416795335786
 40
0.0285261855141793
 40
0.0355390880744588
 40
0.0355390880744588
 40
0.0355390880744588
 40
0.0355390880744588
 10
9.827187059699999
 20
6.134760342399999
 30
0.0
 10
9.826083727265521
 20
6.133106462578413
 30
0.0
 10
9.824060654875292
 20
6.129206932860757
 30
0.0
 10
9.821580211477236
 20
6.122709917158045
 30
0.0
 10
9.819566447992999
 20
6.115451167421438
 30
0.0
 10
9.818228068866776
 20
6.108087241328218
 30
0.0
 10
9.8178485048
 20
6.10318735658676
 30
0.0
 10
9.8178485048
 20
6.1008497224
 30
0.0
 11
9.827187059699999
 21
6.134760342399999
 31
0.0
 11
9.8243389162
 21
6.129519919999999
 31
0.0
 11
9.8217516994
 21
6.1228571171
 31
0.0
 11
9.8196770607
 21
6.1154109333
 31
0.0
 11
9.8183239987
 21
6.107846486499999
 31
0.0
 11
9.8178485048
 21
6.1008497224
 31
0.0
  0
SPLINE
  5
2C9
330
1F
100
AcDbEntity
  8
0
  6
Continuous
 62
     7
100
AcDbSpline
210
0.0
220
0.0
230
1.0
 70
     8
 71
     3
 72
    13
 73
     9
 74
     7
 42
0.0000000001
 43
0.0000000001
 44
0.0000000001
 12
0.8660191387704722
 22
-0.5000108511655017
 32
0.0
 13
0.0
 23
-1.0
 33
0.0
 40
0.0
 40
0.0
 40
0.0
 40
0.0
 40
0.1064813882751385
 40
0.2056809801619532
 40
0.2977743687072967
 40
0.3835101644606751
 40
0.4643523993591287
 40
0.5425041567182023
 40
0.5425041567182023
 40
0.5425041567182023
 40
0.5425041567182023
 10
9.594069734699999
 20
6.8651327562
 30
0.0
 10
9.624808041423039
 20
6.847385473005088
 30
0.0
 10
9.682371228131312
 20
6.809779743207904
 30
0.0
 10
9.757906411360048
 20
6.744896870289251
 30
0.0
 10
9.818302751712991
 20
6.674498396169315
 30
0.0
 10
9.862351225935912
 20
6.599772453712436
 30
0.0
 10
9.889149769128053
 20
6.522114720238894
 30
0.0
 10
9.895179697399999
 20
6.468938843286357
 30
0.0
 10
9.895179697399999
 20
6.442888257499999
 30
0.0
 11
9.594069734699999
 21
6.8651327562
 31
0.0
 11
9.6829648385
 21
6.8065158084
 31
0.0
 11
9.757875033599999
 21
6.7414848796
 31
0.0
 11
9.817412545399999
 21
6.6712248134
 31
0.0
 11
9.860502273499999
 21
6.597103952599999
 31
0.0
 11
9.8865021994
 21
6.520556772399999
 31
0.0
 11
9.895179697399999
 21
6.442888257499999
 31
0.0
  0
SPLINE
  5
2CA
330
1F
100
AcDbEntity
  8
0
  6
Continuous
 62
     7
100
AcDbSpline
210
0.0
220
0.0
230
1.0
 70
     8
 71
     3
 72
    10
 73
     6
 74
     4
 42
0.0000000001
 43
0.0000000001
 44
0.0000000001
 12
0.5549599027379684
 22
0.8318770981058829
 32
0.0
 13
0.2627537922149286
 23
0.9648629149659935
 33
0.0
 40
0.0
 40
0.0
 40
0.0
 40
0.0
 40
0.0456442041989393
 40
0.0897786512122645
 40
0.1326945422751935
 40
0.1326945422751935
 40
0.1326945422751935
 40
0.1326945422751935
 10
9.827187059699999
 20
6.134760342399999
 30
0.0
 10
9.835630627407597
 20
6.147417131778121
 30
0.0
 10
9.85106472520783
 20
6.17312686595356
 30
0.0
 10
9.869785998371497
 20
6.213286613901397
 30
0.0
 10
9.879073518758977
 20
6.240856781616886
 30
0.0
 10
9.882832289799999
 20
6.2546594322
 30
0.0
 11
9.827187059699999
 21
6.134760342399999
 31
0.0
 11
9.850608896799998
 21
6.1739370054
 31
0.0
 11
9.8691883121
 21
6.2139701759
 31
0.0
 11
9.882832289799999
 21
6.2546594322
 31
0.0
  0
SPLINE
  5
2CB
330
1F
100
AcDbEntity
  8
0
  6
Continuous
 62
     7
100
AcDbSpline
210
0.0
220
0.0
230
1.0
 70
     8
 71
     3
 72
    13
 73
     9
 74
     7
 42
0.0000000001
 43
0.0000000001
 44
0.0000000001
 12
0.0
 22
1.0
 32
0.0
 13
0.8639440692577828
 23
0.5035877730786394
 33
0.0
 40
0.0
 40
0.0
 40
0.0
 40
0.0
 40
0.0781320139718504
 40
0.1589715559538372
 40
0.2447153313287741
 40
0.3368206025436716
 40
0.4360302812322687
 40
0.538538958302282
 40
0.538538958302282
 40
0.538538958302282
 40
0.538538958302282
 10
7.8601796974
 20
6.442888257499999
 30
0.0
 10
7.8601796974
 20
6.468932262157283
 30
0.0
 10
7.866207195804047
 20
6.522100541521347
 30
0.0
 10
7.892999821459413
 20
6.599755198622723
 30
0.0
 10
7.937048414985285
 20
6.674488036310265
 30
0.0
 10
7.997450016957874
 20
6.744894808864109
 30
0.0
 10
8.071984856801217
 20
6.808917595866107
 30
0.0
 10
8.128333364232632
 20
6.845932249264358
 30
0.0
 10
8.157853952099999
 20
6.8631396214
 30
0.0
 11
7.8601796974
 21
6.442888257499999
 31
0.0
 11
7.8688528458
 21
6.5205373921
 31
0.0
 11
7.8948477271
 21
6.597083441599999
 31
0.0
 11
7.9379384315
 21
6.6712129648
 31
0.0
 11
7.9974825234
 21
6.741483030299999
 31
0.0
 11
8.072400546
 21
6.806520329099999
 31
0.0
 11
8.157853952099999
 21
6.8631396214
 31
0.0
  0
SPLINE
  5
2CC
330
1F
100
AcDbEntity
  8
0
  6
Continuous
 62
     7
100
AcDbSpline
210
0.0
220
0.0
230
1.0
 70
     8
 71
     3
 72
     8
 73
     4
 74
     2
 42
0.0000000001
 43
0.0000000001
 44
0.0000000001
 12
-0.0002847513057069
 22
-0.9999999594583462
 32
0.0
 13
0.0069086159476151
 23
-0.9999761352280804
 33
0.0
 40
0.0
 40
0.0
 40
0.0
 40
0.0
 40
0.0024428066908261
 40
0.0024428066908261
 40
0.0024428066908261
 40
0.0024428066908261
 10
7.860185742599999
 20
6.4103748725
 30
0.0
 10
7.860185510735868
 20
6.409560603636069
 30
0.0
 10
7.860188205528912
 20
6.408746328664599
 30
0.0
 10
7.860193831
 20
6.407932079199999
 30
0.0
 11
7.860185742599999
 21
6.4103748725
 31
0.0
 11
7.860193831
 21
6.407932079199999
 31
0.0
  0
SPLINE
  5
2CD
330
1F
100
AcDbEntity
  8
0
  6
Continuous
 62
     7
100
AcDbSpline
210
0.0
220
0.0
230
1.0
 70
     8
 71
     3
 72
     8
 73
     4
 74
     2
 42
0.0000000001
 43
0.0000000001
 44
0.0000000001
 12
0.0069086621844054
 22
-0.9999761349086396
 32
0.0
 13
0.0093309306994887
 23
-0.9999564659185324
 33
0.0
 40
0.0
 40
0.0
 40
0.0
 40
0.0
 40
0.0008218495927505
 40
0.0008218495927505
 40
0.0008218495927505
 40
0.0008218495927505
 10
7.860193831
 20
6.407932079199999
 30
0.0
 10
7.860195723627067
 20
6.407658135873587
 30
0.0
 10
7.860197947992801
 20
6.407384194638093
 30
0.0
 10
7.860200504199999
 20
6.407110256699999
 30
0.0
 11
7.860193831
 21
6.407932079199999
 31
0.0
 11
7.860200504199999
 21
6.407110256699999
 31
0.0
  0
SPLINE
  5
2CE
330
1F
100
AcDbEntity
  8
0
  6
Continuous
 62
     7
100
AcDbSpline
210
0.0
220
0.0
230
1.0
 70
     8
 71
     3
 72
    25
 73
    21
 74
    19
 42
0.0000000001
 43
0.0000000001
 44
0.0000000001
 12
0.0093309374268884
 22
-0.999956465855757
 32
0.0
 13
0.8667853750303024
 23
0.4986813748613216
 33
0.0
 40
0.0
 40
0.0
 40
0.0
 40
0.0
 40
0.0167871602602826
 40
0.0977869800688805
 40
0.1822485964269282
 40
0.2725101578269342
 40
0.3701521559490672
 40
0.4756955170376445
 40
0.5891122083759442
 40
0.709872845651824
 40
0.8370821887194781
 40
0.9693379094495524
 40
1.105304358509439
 40
1.243479896354721
 40
1.382194839692489
 40
1.519703274349009
 40
1.654118374008022
 40
1.784536016545518
 40
1.909137205867984
 40
2.025144848572593
 40
2.025144848572593
 40
2.025144848572593
 40
2.025144848572593
 10
7.860200504199999
 20
6.407110256699999
 30
0.0
 10
7.860252717513987
 20
6.401514780218123
 30
0.0
 10
7.861361700557187
 20
6.36893189575037
 30
0.0
 10
7.872312401305871
 20
6.308532964286619
 30
0.0
 10
7.906193586130225
 20
6.229636522114807
 30
0.0
 10
7.958201773434868
 20
6.154574765621694
 30
0.0
 10
8.027167766808538
 20
6.084632889844476
 30
0.0
 10
8.111723550502672
 20
6.020944891041112
 30
0.0
 10
8.210246760172122
 20
5.964595226479572
 30
0.0
 10
8.320938655241864
 20
5.916531304845739
 30
0.0
 10
8.441746122650439
 20
5.877600493838214
 30
0.0
 10
8.570465543907804
 20
5.848477560258574
 30
0.0
 10
8.704769945814799
 20
5.829666760186983
 30
0.0
 10
8.84228967657946
 20
5.821501064702319
 30
0.0
 10
8.980539188386716
 20
5.824144500748409
 30
0.0
 10
9.116906656780672
 20
5.837560668808565
 30
0.0
 10
9.249018675728052
 20
5.861524849155558
 30
0.0
 10
9.374450833515448
 20
5.895639562117621
 30
0.0
 10
9.490414631736777
 20
5.939157082982871
 30
0.0
 10
9.562375858437301
 20
5.975001800680547
 30
0.0
 10
9.595893767799999
 20
5.994285417599999
 30
0.0
 11
7.860200504199999
 21
6.407110256699999
 31
0.0
 11
7.8607739561
 21
6.3903328939
 31
0.0
 11
7.874975442899999
 21
6.3105877462
 31
0.0
 11
7.9078119395
 21
6.2327704658
 31
0.0
 11
7.958703276299999
 21
6.1582236932
 31
0.0
 11
8.026814764999999
 21
6.088260953799999
 31
0.0
 11
8.110787832099999
 21
6.024324070299999
 31
0.0
 11
8.2090114741
 21
5.9676190262
 31
0.0
 11
8.319635513499999
 21
5.9191891447
 31
0.0
 11
8.4406286445
 21
5.8799096435
 31
0.0
 11
8.5695810291
 21
5.8505351959
 31
0.0
 11
8.704216418899999
 21
5.831556600499999
 31
0.0
 11
8.842145971399999
 21
5.8233153745
 31
0.0
 11
8.980835247499999
 21
5.8259837448
 31
0.0
 11
9.1176746625
 21
5.839531589799999
 31
0.0
 11
9.249903537199999
 21
5.8636758171
 31
0.0
 11
9.375687976
 21
5.898129212299999
 31
0.0
 11
9.492231445899999
 21
5.942209548099999
 31
0.0
 11
9.595893767799999
 21
5.994285417599999
 31
0.0
  0
SPLINE
  5
2CF
330
1F
100
AcDbEntity
  8
0
  6
Continuous
 62
     7
100
AcDbSpline
210
0.0
220
0.0
230
1.0
 70
     8
 71
     3
 72
     8
 73
     4
 74
     2
 42
0.0000000001
 43
0.0000000001
 44
0.0000000001
 12
0.8667853623472055
 22
0.4986813969065056
 32
0.0
 13
0.8660267004514935
 23
0.4999977541000551
 33
0.0
 40
0.0
 40
0.0
 40
0.0
 40
0.0
 40
0.0014659112043281
 40
0.0014659112043281
 40
0.0014659112043281
 40
0.0014659112043281
 10
9.595893767799999
 20
5.994285417599999
 30
0.0
 10
9.596317311258136
 20
5.994529091815704
 30
0.0
 10
9.596740669952186
 20
5.994773087463375
 30
0.0
 10
9.5971638427
 20
5.9950174049
 30
0.0
 11
9.595893767799999
 21
5.994285417599999
 31
0.0
 11
9.5971638427
 21
5.9950174049
 31
0.0
  0
SPLINE
  5
2D0
330
1F
100
AcDbEntity
  8
0
  6
Continuous
 62
     7
100
AcDbSpline
210
0.0
220
0.0
230
1.0
 70
     8
 71
     3
 72
    12
 73
     8
 74
     6
 42
0.0000000001
 43
0.0000000001
 44
0.0000000001
 12
0.0
 22
1.0
 32
0.0
 13
-0.9062617700200219
 23
0.4227169315276794
 33
0.0
 40
0.0
 40
0.0
 40
0.0
 40
0.0
 40
0.0068283518847269
 40
0.0143004409203274
 40
0.0220756400522788
 40
0.0297781226740708
 40
0.0370421523471798
 40
0.0370421523471798
 40
0.0370421523471798
 40
0.0370421523471798
 10
8.2580199555
 20
5.8595428372
 30
0.0
 10
8.2580199555
 20
5.861818954494909
 30
0.0
 10
8.257246209596907
 20
5.866593719833016
 30
0.0
 10
8.254395747859968
 20
5.873431059446926
 30
0.0
 10
8.250076647019461
 20
5.879807034232056
 30
0.0
 10
8.244672689459029
 20
5.885184958000078
 30
0.0
 10
8.240436941296342
 20
5.887925652122019
 30
0.0
 10
8.238242570499998
 20
5.8889491949
 30
0.0
 11
8.2580199555
 21
5.8595428372
 31
0.0
 11
8.257036451099999
 21
5.8662999896
 31
0.0
 11
8.2542185651
 21
5.8732203677
 31
0.0
 11
8.249869913899999
 21
5.8796657501
 31
0.0
 11
8.244388566499999
 21
5.8850771334
 31
0.0
 11
8.238242570499998
 21
5.8889491949
 31
0.0
  0
SPLINE
  5
2D1
330
1F
100
AcDbEntity
  8
0
  6
Continuous
 62
     7
100
AcDbSpline
210
0.0
220
0.0
230
1.0
 70
     8
 71
     3
 72
    10
 73
     6
 74
     4
 42
0.0000000001
 43
0.0000000001
 44
0.0000000001
 12
-0.8136125503564253
 22
0.5814074456889191
 32
0.0
 13
-0.8653902007282781
 23
-0.5010985935756262
 33
0.0
 40
0.0
 40
0.0
 40
0.0
 40
0.0
 40
0.0055139601936151
 40
0.0098575940487245
 40
0.0118058485207056
 40
0.0118058485207056
 40
0.0118058485207056
 40
0.0118058485207056
 10
8.0862139796
 20
5.9767209572
 30
0.0
 10
8.084718570528103
 20
5.9777895763706
 30
0.0
 10
8.081818854466746
 20
5.979429410356786
 30
0.0
 10
8.077703994446373
 20
5.97990663186032
 30
0.0
 10
8.075724846609524
 20
5.979095863825278
 30
0.0
 10
8.075162846499999
 20
5.9787704413
 30
0.0
 11
8.0862139796
 21
5.9767209572
 31
0.0
 11
8.081306855399999
 21
5.979235691599999
 31
0.0
 11
8.0769710191
 21
5.979495842799999
 31
0.0
 11
8.075162846499999
 21
5.9787704413
 31
0.0
  0
SPLINE
  5
2D2
330
1F
100
AcDbEntity
  8
0
  6
Continuous
 62
     7
100
AcDbSpline
210
0.0
220
0.0
230
1.0
 70
     8
 71
     3
 72
    10
 73
     6
 74
     4
 42
0.0000000001
 43
0.0000000001
 44
0.0000000001
 12
0.8136125517508643
 22
-0.5814074437375627
 32
0.0
 13
0.9062617702834687
 23
-0.4227169309628766
 33
0.0
 40
0.0
 40
0.0
 40
0.0
 40
0.0
 40
0.0565136948627458
 40
0.1151270095502859
 40
0.1757656442450972
 40
0.1757656442450972
 40
0.1757656442450972
 40
0.1757656442450972
 10
8.0862139796
 20
5.9767209572
 30
0.0
 10
8.101540730095383
 20
5.965768462911229
 30
0.0
 10
8.133547301658941
 20
5.944535733965353
 30
0.0
 10
8.184346481192246
 20
5.915280511218641
 30
0.0
 10
8.219924411691302
 20
5.897493520751989
 30
0.0
 10
8.238242570499998
 20
5.8889491949
 30
0.0
 11
8.0862139796
 21
5.9767209572
 31
0.0
 11
8.1332688957
 21
5.9454218745
 31
0.0
 11
8.184029802299999
 21
5.9161157144
 31
0.0
 11
8.238242570499998
 21
5.8889491949
 31
0.0
  0
SPLINE
  5
2D3
330
1F
100
AcDbEntity
  8
0
  6
Continuous
 62
     7
100
AcDbSpline
210
0.0
220
0.0
230
1.0
 70
     8
 71
     3
 72
     8
 73
     4
 74
     2
 42
0.0000000001
 43
0.0000000001
 44
0.0000000001
 12
0.0002778570383109
 22
0.9999999613977323
 32
0.0
 13
0.0027029963604962
 23
0.9999963468986651
 33
0.0
 40
0.0
 40
0.0
 40
0.0
 40
0.0
 40
0.0008245268159435
 40
0.0008245268159435
 40
0.0008245268159435
 40
0.0008245268159435
 10
7.860185901799999
 20
6.4071081884
 30
0.0
 10
7.860185978166859
 20
6.407383030661372
 30
0.0
 10
7.86018638790234
 20
6.407657873032045
 30
0.0
 10
7.8601871308
 20
6.407932714299999
 30
0.0
 11
7.860185901799999
 21
6.4071081884
 31
0.0
 11
7.8601871308
 21
6.407932714299999
 31
0.0
  0
SPLINE
  5
2D4
330
1F
100
AcDbEntity
  8
0
  6
Continuous
 62
     7
100
AcDbSpline
210
0.0
220
0.0
230
1.0
 70
     8
 71
     3
 72
    10
 73
     6
 74
     4
 42
0.0000000001
 43
0.0000000001
 44
0.0000000001
 12
0.7306238870942556
 22
0.6827801517379372
 32
0.0
 13
0.8660266960790472
 23
0.4999977616733993
 33
0.0
 40
0.0
 40
0.0
 40
0.0
 40
0.0
 40
0.0537914118436137
 40
0.1099699804793738
 40
0.1685200756171179
 40
0.1685200756171179
 40
0.1685200756171179
 40
0.1685200756171179
 10
8.072878926199999
 20
6.4165822432
 30
0.0
 10
8.085979356337823
 20
6.428824812646927
 30
0.0
 10
8.113874870013724
 20
6.452683418970071
 30
0.0
 10
8.159345142171037
 20
6.485747828196108
 30
0.0
 10
8.191851915584248
 20
6.505962989395121
 30
0.0
 10
8.208753897399999
 20
6.5157212949
 30
0.0
 11
8.072878926199999
 21
6.4165822432
 31
0.0
 11
8.113694434700001
 21
6.451619512699999
 31
0.0
 11
8.159077034099999
 21
6.484732217899999
 31
0.0
 11
8.208753897399999
 21
6.5157212949
 31
0.0
  0
SPLINE
  5
2D5
330
1F
100
AcDbEntity
  8
0
  6
Continuous
 62
     7
100
AcDbSpline
210
0.0
220
0.0
230
1.0
 70
     8
 71
     3
 72
     9
 73
     5
 74
     3
 42
0.0000000001
 43
0.0000000001
 44
0.0000000001
 12
0.8660266962231959
 22
0.4999977614237253
 32
0.0
 13
0.9073619971188477
 23
0.4203500995414373
 33
0.0
 40
0.0
 40
0.0
 40
0.0
 40
0.0
 40
0.0608571675457101
 40
0.0865883240393373
 40
0.0865883240393373
 40
0.0865883240393373
 40
0.0865883240393373
 10
8.208753897399999
 20
6.5157212949
 30
0.0
 10
8.22632187465037
 20
6.525864110746481
 30
0.0
 10
8.251818275449439
 20
6.539448709132398
 30
0.0
 10
8.277856378618587
 20
6.551904835368862
 30
0.0
 10
8.285638869799999
 20
6.555510200099999
 30
0.0
 11
8.208753897399999
 21
6.5157212949
 31
0.0
 11
8.2624289069
 21
6.5444020933
 31
0.0
 11
8.285638869799999
 21
6.555510200099999
 31
0.0
  0
SPLINE
  5
2D6
330
1F
100
AcDbEntity
  8
0
  6
Continuous
 62
     7
100
AcDbSpline
210
0.0
220
0.0
230
1.0
 70
     8
 71
     3
 72
     9
 73
     5
 74
     3
 42
0.0000000001
 43
0.0000000001
 44
0.0000000001
 12
-0.9958646322955367
 22
0.0908495137184312
 32
0.0
 13
-0.2627537893024431
 23
-0.9648629157591287
 33
0.0
 40
0.0
 40
0.0
 40
0.0
 40
0.0
 40
0.0014753097562379
 40
0.005141957375405
 40
0.005141957375405
 40
0.005141957375405
 40
0.005141957375405
 10
9.8850333249
 20
6.259203928499999
 30
0.0
 10
9.884543588630693
 20
6.259248605557979
 30
0.0
 10
9.883557178591992
 20
6.257192331987269
 30
0.0
 10
9.88315343165199
 20
6.255838702970963
 30
0.0
 10
9.882832289799999
 20
6.2546594322
 30
0.0
 11
9.8850333249
 21
6.259203928499999
 31
0.0
 11
9.884025520299999
 21
6.2581264923
 31
0.0
 11
9.882832289799999
 21
6.2546594322
 31
0.0
  0
SPLINE
  5
2D7
330
1F
100
AcDbEntity
  8
0
  6
Continuous
 62
     7
100
AcDbSpline
210
0.0
220
0.0
230
1.0
 70
     8
 71
     3
 72
    11
 73
     7
 74
     5
 42
0.0000000001
 43
0.0000000001
 44
0.0000000001
 12
-0.000000181906061
 22
0.9999999999999833
 32
0.0
 13
0.8660266960646234
 23
0.4999977616983826
 33
0.0
 40
0.0
 40
0.0
 40
0.0
 40
0.0
 40
0.006467729533316
 40
0.0199771226532276
 40
0.0351358368873378
 40
0.052451446305819
 40
0.052451446305819
 40
0.052451446305819
 40
0.052451446305819
 10
7.4200452174
 20
6.0397070128
 30
0.0
 10
7.420045217007826
 20
6.041862922644439
 30
0.0
 10
7.420673187273869
 20
6.048537636179447
 30
0.0
 10
7.425249425111616
 20
6.059617490491456
 30
0.0
 10
7.435394497300504
 20
6.071355684637842
 30
0.0
 10
7.444325111661656
 20
6.077645165316105
 30
0.0
 10
7.449323705
 20
6.080531087299999
 30
0.0
 11
7.4200452174
 21
6.0397070128
 31
0.0
 11
7.420658741
 21
6.046145577399999
 31
0.0
 11
7.4256099712
 21
6.0587149458
 31
0.0
 11
7.4353034423
 21
6.0703692684
 31
0.0
 11
7.449323705
 21
6.080531087299999
 31
0.0
  0
SPLINE
  5
2D8
330
1F
100
AcDbEntity
  8
0
  6
Continuous
 62
     7
100
AcDbSpline
210
0.0
220
0.0
230
1.0
 70
     8
 71
     3
 72
    11
 73
     7
 74
     5
 42
0.0000000001
 43
0.0000000001
 44
0.0000000001
 12
0.0000001819037017
 22
-0.9999999999999836
 32
0.0
 13
0.8660303016629997
 23
-0.4999915165295244
 33
0.0
 40
0.0
 40
0.0
 40
0.0
 40
0.0
 40
0.0064682158733082
 40
0.0199776532974151
 40
0.0351364391865244
 40
0.0524521277294475
 40
0.0524521277294475
 40
0.0524521277294475
 40
0.0524521277294475
 10
7.4200452174
 20
5.713106046
 30
0.0
 10
7.420045217792197
 20
5.71094997404223
 30
0.0
 10
7.420673254509831
 20
5.704275080538182
 30
0.0
 10
7.425249718562834
 20
5.69319510314992
 30
0.0
 10
7.435394952788827
 20
5.681456967000037
 30
0.0
 10
7.444325656809223
 20
5.675167528724776
 30
0.0
 10
7.4493242938
 20
5.6722816296
 30
0.0
 11
7.4200452174
 21
5.713106046
 31
0.0
 11
7.4206588338
 21
5.706667001699999
 31
0.0
 11
7.425610245299999
 21
5.6940976571
 31
0.0
 11
7.4353038846
 21
5.682443381199999
 31
0.0
 11
7.4493242938
 21
5.6722816296
 31
0.0
  0
SPLINE
  5
2D9
330
1F
100
AcDbEntity
  8
0
  6
Continuous
 62
     7
100
AcDbSpline
210
0.0
220
0.0
230
1.0
 70
     8
 71
     3
 72
    11
 73
     7
 74
     5
 42
0.0000000001
 43
0.0000000001
 44
0.0000000001
 12
0.8660266962993945
 22
0.4999977612917443
 32
0.0
 13
-0.0023869269941621
 23
0.9999971512857046
 33
0.0
 40
0.0
 40
0.0
 40
0.0
 40
0.0
 40
0.0208064891926813
 40
0.038925378342878
 40
0.0550652297949268
 40
0.0589569865445913
 40
0.0589569865445913
 40
0.0589569865445913
 40
0.0589569865445913
 10
8.9572295414
 20
6.7082228053
 30
0.0
 10
8.963235866432375
 20
6.711690537972227
 30
0.0
 10
8.973911268572329
 20
6.71930293167216
 30
0.0
 10
8.98568883191473
 20
6.733739071264508
 30
0.0
 10
8.989847499128547
 20
6.746163955529747
 30
0.0
 10
8.990173801946411
 20
6.752843899245612
 30
0.0
 10
8.990170705499998
 20
6.754141147799999
 30
0.0
 11
8.9572295414
 21
6.7082228053
 31
0.0
 11
8.973976953200001
 21
6.7205692295
 31
0.0
 11
8.985107102799998
 21
6.7348665689
 31
0.0
 11
8.989976910099999
 21
6.750254219199999
 31
0.0
 11
8.990170705499998
 21
6.754141147799999
 31
0.0
  0
SPLINE
  5
2DA
330
1F
100
AcDbEntity
  8
0
  6
Continuous
 62
     7
100
AcDbSpline
210
0.0
220
0.0
230
1.0
 70
     8
 71
     3
 72
    10
 73
     6
 74
     4
 42
0.0000000001
 43
0.0000000001
 44
0.0000000001
 12
0.8660266992544903
 22
0.499997756173338
 32
0.0
 13
0.8689544577880147
 23
0.4948920592314422
 33
0.0
 40
0.0
 40
0.0
 40
0.0
 40
0.0
 40
0.001851236258227
 40
0.0037045736517328
 40
0.0055600090559822
 40
0.0055600090559822
 40
0.0055600090559822
 40
0.0055600090559822
 10
8.1727667921
 20
6.871759272899999
 30
0.0
 10
8.173301198775417
 20
6.872067810891753
 30
0.0
 10
8.174371227056214
 20
6.872684184017712
 30
0.0
 10
8.175978992406051
 20
6.87360611144399
 30
0.0
 10
8.177052646478113
 20
6.874218975317339
 30
0.0
 10
8.177590076099999
 20
6.874525055399999
 30
0.0
 11
8.1727667921
 21
6.871759272899999
 31
0.0
 11
8.174370921900001
 21
6.872683309299999
 31
0.0
 11
8.1759786862
 21
6.8736052385
 31
0.0
 11
8.177590076099999
 21
6.874525055399999
 31
0.0
  0
SPLINE
  5
2DB
330
1F
100
AcDbEntity
  8
0
  6
Continuous
 62
     7
100
AcDbSpline
210
0.0
220
0.0
230
1.0
 70
     8
 71
     3
 72
     8
 73
     4
 74
     2
 42
0.0000000001
 43
0.0000000001
 44
0.0000000001
 12
0.7932536638999038
 22
-0.6088913077958812
 32
0.0
 13
0.793747466101122
 23
-0.6082474496930078
 33
0.0
 40
0.0
 40
0.0
 40
0.0
 40
0.0
 40
0.0005799438431478
 40
0.0005799438431478
 40
0.0005799438431478
 40
0.0005799438431478
 10
8.1216612874
 20
5.7195751732
 30
0.0
 10
8.121814634926144
 20
5.719457465611633
 30
0.0
 10
8.121968030214674
 20
5.719339820221186
 30
0.0
 10
8.122121473199999
 20
5.7192222371
 30
0.0
 11
8.1216612874
 21
5.7195751732
 31
0.0
 11
8.122121473199999
 21
5.7192222371
 31
0.0
  0
SPLINE
  5
2DC
330
1F
100
AcDbEntity
  8
0
  6
Continuous
 62
     7
100
AcDbSpline
210
0.0
220
0.0
230
1.0
 70
     8
 71
     3
 72
     8
 73
     4
 74
     2
 42
0.0000000001
 43
0.0000000001
 44
0.0000000001
 12
0.7937474732467437
 22
-0.6082474403681533
 32
0.0
 13
0.7976789931797766
 23
-0.6030822695451244
 33
0.0
 40
0.0
 40
0.0
 40
0.0
 40
0.0
 40
0.0046659143174933
 40
0.0046659143174933
 40
0.0046659143174933
 40
0.0046659143174933
 10
8.122121473199999
 20
5.7192222371
 30
0.0
 10
8.123355992433298
 20
5.718276226953135
 30
0.0
 10
8.124593603954986
 20
5.717334238832032
 30
0.0
 10
8.125834237899999
 20
5.716396262099999
 30
0.0
 11
8.122121473199999
 21
5.7192222371
 31
0.0
 11
8.125834237899999
 21
5.716396262099999
 31
0.0
  0
SPLINE
  5
2DD
330
1F
100
AcDbEntity
  8
0
  6
Continuous
 62
     7
100
AcDbSpline
210
0.0
220
0.0
230
1.0
 70
     8
 71
     3
 72
    10
 73
     6
 74
     4
 42
0.0000000001
 43
0.0000000001
 44
0.0000000001
 12
0.7976789914390988
 22
-0.6030822718474669
 32
0.0
 13
0.8941212273377237
 23
-0.4478250002222768
 33
0.0
 40
0.0
 40
0.0
 40
0.0
 40
0.0
 40
0.0636429474402034
 40
0.1359793991585532
 40
0.1550466430137742
 40
0.1550466430137742
 40
0.1550466430137742
 40
0.1550466430137742
 10
8.125834237899999
 20
5.716396262099999
 30
0.0
 10
8.142756451942103
 20
5.703602284323564
 30
0.0
 10
8.180127700865977
 20
5.677850014849214
 30
0.0
 10
8.224987866643683
 20
5.652064547169372
 30
0.0
 10
8.25209758134074
 20
5.6381578256279
 30
0.0
 10
8.257780390499998
 20
5.6353115628
 30
0.0
 11
8.125834237899999
 21
5.716396262099999
 31
0.0
 11
8.178170468599999
 21
5.680183782
 31
0.0
 11
8.240816027699999
 21
5.6440161698
 31
0.0
 11
8.257780390499998
 21
5.6353115628
 31
0.0
  0
SPLINE
  5
2DE
330
1F
100
AcDbEntity
  8
0
  6
Continuous
 62
     7
100
AcDbSpline
210
0.0
220
0.0
230
1.0
 70
     8
 71
     3
 72
    10
 73
     6
 74
     4
 42
0.0000000001
 43
0.0000000001
 44
0.0000000001
 12
0.8660266961110608
 22
0.4999977616179503
 32
0.0
 13
0.6624102113658816
 23
0.7491413163604103
 33
0.0
 40
0.0
 40
0.0
 40
0.0
 40
0.0
 40
0.1094862172317779
 40
0.2110319225383753
 40
0.2393621715736881
 40
0.2393621715736881
 40
0.2393621715736881
 40
0.2393621715736881
 10
9.5971638427
 20
5.9950174049
 30
0.0
 10
9.628769838359644
 20
6.013265026081302
 30
0.0
 10
9.687771730932624
 20
6.051936627367297
 30
0.0
 10
9.748204460913933
 20
6.104531171816137
 30
0.0
 10
9.777688064982823
 20
6.136252704248288
 30
0.0
 10
9.783943480399999
 20
6.143327157599999
 30
0.0
 11
9.5971638427
 21
5.9950174049
 31
0.0
 11
9.688451672599999
 21
6.055463776799999
 31
0.0
 11
9.7646680234
 21
6.1225651787
 31
0.0
 11
9.783943480399999
 21
6.143327157599999
 31
0.0
  0
SPLINE
  5
2DF
330
1F
100
AcDbEntity
  8
0
  6
Continuous
 62
     7
100
AcDbSpline
210
0.0
220
0.0
230
1.0
 70
     8
 71
     3
 72
     9
 73
     5
 74
     3
 42
0.0000000001
 43
0.0000000001
 44
0.0000000001
 12
0.6624102109615185
 22
0.7491413167179585
 32
0.0
 13
0.4427685442823847
 23
0.8966359440676344
 33
0.0
 40
0.0
 40
0.0
 40
0.0
 40
0.0
 40
0.0655837666076702
 40
0.128598891201426
 40
0.128598891201426
 40
0.128598891201426
 40
0.128598891201426
 10
9.783943480399999
 20
6.143327157599999
 30
0.0
 10
9.798424599291411
 20
6.159704327357264
 30
0.0
 10
9.825003372836224
 20
6.193489433488418
 30
0.0
 10
9.846901178338615
 20
6.230530366356445
 30
0.0
 10
9.856201549999999
 20
6.249364241599999
 30
0.0
 11
9.783943480399999
 21
6.143327157599999
 31
0.0
 11
9.824316801
 21
6.195011056699999
 31
0.0
 11
9.856201549999999
 21
6.249364241599999
 31
0.0
  0
SPLINE
  5
2E0
330
1F
100
AcDbEntity
  8
0
  6
Continuous
 62
     7
100
AcDbSpline
210
0.0
220
0.0
230
1.0
 70
     8
 71
     3
 72
     8
 73
     4
 74
     2
 42
0.0000000001
 43
0.0000000001
 44
0.0000000001
 12
0.4427685731310095
 22
0.8966359298218703
 32
0.0
 13
0.4398563472329136
 23
0.8980681454093106
 33
0.0
 40
0.0
 40
0.0
 40
0.0
 40
0.0
 40
0.0013539403894115
 40
0.0013539403894115
 40
0.0013539403894115
 40
0.0013539403894115
 10
9.856201549999999
 20
6.249364241599999
 30
0.0
 10
9.856401377418107
 20
6.24976890546666
 30
0.0
 10
9.856600549408648
 20
6.250173893655162
 30
0.0
 10
9.8567990625
 20
6.2505792039
 30
0.0
 11
9.856201549999999
 21
6.249364241599999
 31
0.0
 11
9.8567990625
 21
6.2505792039
 31
0.0
  0
SPLINE
  5
2E1
330
1F
100
AcDbEntity
  8
0
  6
Continuous
 62
     7
100
AcDbSpline
210
0.0
220
0.0
230
1.0
 70
     8
 71
     3
 72
    10
 73
     6
 74
     4
 42
0.0000000001
 43
0.0000000001
 44
0.0000000001
 12
0.4398563196386365
 22
0.8980681589244513
 32
0.0
 13
0.0098175963295087
 23
0.9999518062398362
 33
0.0
 40
0.0
 40
0.0
 40
0.0
 40
0.0
 40
0.0227181496389283
 40
0.1052032271719832
 40
0.1623554163643003
 40
0.1623554163643003
 40
0.1623554163643003
 40
0.1623554163643003
 10
9.8567990625
 20
6.2505792039
 30
0.0
 10
9.860129969729726
 20
6.257380019506801
 30
0.0
 10
9.874693591909553
 20
6.289284295883694
 30
0.0
 10
9.890607754751931
 20
6.341564914646845
 30
0.0
 10
9.89497023672572
 20
6.388137630995527
 30
0.0
 10
9.8951572691
 20
6.407187442599999
 30
0.0
 11
9.8567990625
 21
6.2505792039
 31
0.0
 11
9.866221603399999
 21
6.271251166699999
 31
0.0
 11
9.8898371094
 21
6.350283412599999
 31
0.0
 11
9.8951572691
 21
6.407187442599999
 31
0.0
  0
SPLINE
  5
2E2
330
1F
100
AcDbEntity
  8
0
  6
Continuous
 62
     7
100
AcDbSpline
210
0.0
220
0.0
230
1.0
 70
     8
 71
     3
 72
     8
 73
     4
 74
     2
 42
0.0000000001
 43
0.0000000001
 44
0.0000000001
 12
0.0098176100982913
 22
0.9999518061046533
 32
0.0
 13
0.002693733345568
 23
0.99999637189375
 33
0.0
 40
0.0
 40
0.0
 40
0.0
 40
0.0
 40
0.0024236402356666
 40
0.0024236402356666
 40
0.0024236402356666
 40
0.0024236402356666
 10
9.8951572691
 20
6.407187442599999
 30
0.0
 10
9.895165200551618
 20
6.407995283743667
 30
0.0
 10
9.895170256386494
 20
6.408803158252518
 30
0.0
 10
9.8951724326
 20
6.409611035399999
 30
0.0
 11
9.8951572691
 21
6.407187442599999
 31
0.0
 11
9.8951724326
 21
6.409611035399999
 31
0.0
  0
SPLINE
  5
2E3
330
1F
100
AcDbEntity
  8
0
  6
Continuous
 62
     7
100
AcDbSpline
210
0.0
220
0.0
230
1.0
 70
     8
 71
     3
 72
     8
 73
     4
 74
     2
 42
0.0000000001
 43
0.0000000001
 44
0.0000000001
 12
0.002693808220234
 22
0.9999963716920541
 32
0.0
 13
0.0002847945016375
 23
0.9999999594460449
 33
0.0
 40
0.0
 40
0.0
 40
0.0
 40
0.0
 40
0.000818838208105
 40
0.000818838208105
 40
0.000818838208105
 40
0.000818838208105
 10
9.8951724326
 20
6.409611035399999
 30
0.0
 10
9.895173167864365
 20
6.409883980479035
 30
0.0
 10
9.895173574366459
 20
6.4101569266417
 30
0.0
 10
9.8951736521
 20
6.410429872699999
 30
0.0
 11
9.8951724326
 21
6.409611035399999
 31
0.0
 11
9.8951736521
 21
6.410429872699999
 31
0.0
  0
SPLINE
  5
2E4
330
1F
100
AcDbEntity
  8
0
  6
Continuous
 62
     7
100
AcDbSpline
210
0.0
220
0.0
230
1.0
 70
     8
 71
     3
 72
     9
 73
     5
 74
     3
 42
0.0000000001
 43
0.0000000001
 44
0.0000000001
 12
0.6859393705284696
 22
0.7276586974392646
 32
0.0
 13
0.8660266968824283
 23
0.4999977602818944
 33
0.0
 40
0.0
 40
0.0
 40
0.0
 40
0.0
 40
0.0035431170815385
 40
0.0244234121305454
 40
0.0244234121305454
 40
0.0244234121305454
 40
0.0244234121305454
 10
8.778832235599999
 20
6.7239271709
 30
0.0
 10
8.779642356766872
 20
6.724786564220142
 30
0.0
 10
8.785383533764242
 20
6.730560992519851
 30
0.0
 10
8.792102222316259
 20
6.735359260213823
 30
0.0
 10
8.7981298533
 20
6.738839293799999
 30
0.0
 11
8.778832235599999
 21
6.7239271709
 31
0.0
 11
8.781328679999999
 21
6.726441419099999
 31
0.0
 11
8.7981298533
 21
6.738839293799999
 31
0.0
  0
SPLINE
  5
2E5
330
1F
100
AcDbEntity
  8
0
  6
Continuous
 62
     7
100
AcDbSpline
210
0.0
220
0.0
230
1.0
 70
     8
 71
     3
 72
     8
 73
     4
 74
     2
 42
0.0000000001
 43
0.0000000001
 44
0.0000000001
 12
0.866019206444864
 22
-0.5000107339533905
 32
0.0
 13
0.858852166089993
 23
-0.5122235418277131
 33
0.0
 40
0.0
 40
0.0
 40
0.0
 40
0.0
 40
0.013195149188821
 40
0.013195149188821
 40
0.013195149188821
 40
0.013195149188821
 10
9.582604895700001
 20
6.871752175399999
 30
0.0
 10
9.586413979909808
 20
6.86955293665649
 30
0.0
 10
9.590207807579099
 20
6.867327046950813
 30
0.0
 10
9.5939853684
 20
6.865074091599999
 30
0.0
 11
9.582604895700001
 21
6.871752175399999
 31
0.0
 11
9.5939853684
 21
6.865074091599999
 31
0.0
  0
SPLINE
  5
2E6
330
1F
100
AcDbEntity
  8
0
  6
Continuous
 62
     7
100
AcDbSpline
210
0.0
220
0.0
230
1.0
 70
     8
 71
     3
 72
    15
 73
    11
 74
     9
 42
0.0000000001
 43
0.0000000001
 44
0.0000000001
 12
0.8588521658404101
 22
-0.5122235422461922
 32
0.0
 13
-0.5290884066888086
 23
-0.848566707989123
 33
0.0
 40
0.0
 40
0.0
 40
0.0
 40
0.0
 40
0.0987343626787096
 40
0.2021061882475367
 40
0.2973478522466122
 40
0.385744597524857
 40
0.4695097349343955
 40
0.5516280337365309
 40
0.6353929821742109
 40
0.7165423119309266
 40
0.7165423119309266
 40
0.7165423119309266
 40
0.7165423119309266
 10
9.5939853684
 20
6.865074091599999
 30
0.0
 10
9.622251442143161
 20
6.848216069935762
 30
0.0
 10
9.678323631218827
 20
6.81056117291612
 30
0.0
 10
9.752770706518898
 20
6.744538819206324
 30
0.0
 10
9.813019881227756
 20
6.669535916085927
 30
0.0
 10
9.85432206079901
 20
6.589779464929095
 30
0.0
 10
9.87540322522722
 20
6.506837461923673
 30
0.0
 10
9.87540129626911
 20
6.422738961807539
 30
0.0
 10
9.854932368211709
 20
6.342173564037615
 30
0.0
 10
9.829934242294948
 20
6.29275810486906
 30
0.0
 10
9.815622519099999
 20
6.269804565
 30
0.0
 11
9.5939853684
 21
6.865074091599999
 31
0.0
 11
9.6757313627
 21
6.8097020157
 31
0.0
 11
9.7526299612
 21
6.740619891599999
 31
0.0
 11
9.811717095399998
 21
6.665922601599999
 31
0.0
 11
9.8517899217
 21
6.5871307672
 31
0.0
 11
9.872032672999999
 21
6.5058483628
 31
0.0
 11
9.8720332652
 21
6.423730063999999
 31
0.0
 11
9.8517916862
 21
6.3424475624
 31
0.0
 11
9.815622519099999
 21
6.269804565
 31
0.0
  0
SPLINE
  5
2E7
330
1F
100
AcDbEntity
  8
0
  6
Continuous
 62
     7
100
AcDbSpline
210
0.0
220
0.0
230
1.0
 70
     8
 71
     3
 72
     8
 73
     4
 74
     2
 42
0.0000000001
 43
0.0000000001
 44
0.0000000001
 12
-0.5290884131465007
 22
-0.8485667039626985
 32
0.0
 13
-0.5425395972881689
 23
-0.8400302288456003
 33
0.0
 40
0.0
 40
0.0
 40
0.0
 40
0.0
 40
0.0072828738308791
 40
0.0072828738308791
 40
0.0072828738308791
 40
0.0072828738308791
 10
9.815622519099999
 20
6.269804565
 30
0.0
 10
9.814338091047224
 20
6.267744563585985
 30
0.0
 10
9.813037078678435
 20
6.265694813356935
 30
0.0
 10
9.8117199962
 20
6.263655535299999
 30
0.0
 11
9.815622519099999
 21
6.269804565
 31
0.0
 11
9.8117199962
 21
6.263655535299999
 31
0.0
  0
SPLINE
  5
2E8
330
1F
100
AcDbEntity
  8
0
  6
Continuous
 62
     7
100
AcDbSpline
210
0.0
220
0.0
230
1.0
 70
     8
 71
     3
 72
    10
 73
     6
 74
     4
 42
0.0000000001
 43
0.0000000001
 44
0.0000000001
 12
-0.5425395990638925
 22
-0.8400302276987362
 32
0.0
 13
-0.8660266970057779
 23
-0.4999977600682455
 33
0.0
 40
0.0
 40
0.0
 40
0.0
 40
0.0
 40
0.0952412183955861
 40
0.1986125498842358
 40
0.3105381261742269
 40
0.3105381261742269
 40
0.3105381261742269
 40
0.3105381261742269
 10
9.8117199962
 20
6.263655535299999
 30
0.0
 10
9.794495952052434
 20
6.236987034508283
 30
0.0
 10
9.7527588280456
 20
6.185015314843195
 30
0.0
 10
9.675035371109997
 20
6.11609795186937
 30
0.0
 10
9.614902781648297
 20
6.076468552946447
 30
0.0
 10
9.5825926026
 20
6.0578143738
 30
0.0
 11
9.8117199962
 21
6.263655535299999
 31
0.0
 11
9.752633939299998
 21
6.188957961299999
 31
0.0
 11
9.6757363371
 21
6.119875467499999
 31
0.0
 11
9.5825926026
 21
6.0578143738
 31
0.0
  0
SPLINE
  5
2E9
330
1F
100
AcDbEntity
  8
0
  6
Continuous
 62
     7
100
AcDbSpline
210
0.0
220
0.0
230
1.0
 70
     8
 71
     3
 72
     9
 73
     5
 74
     3
 42
0.0000000001
 43
0.0000000001
 44
0.0000000001
 12
0.4820336054996791
 22
0.8761527282209305
 32
0.0
 13
0.7306238872074845
 23
0.6827801516167741
 33
0.0
 40
0.0
 40
0.0
 40
0.0
 40
0.0
 40
0.0687753702296071
 40
0.1559838686115988
 40
0.1559838686115988
 40
0.1559838686115988
 40
0.1559838686115988
 10
7.9760795045
 20
6.2948866157
 30
0.0
 10
7.987130184393784
 20
6.314972525120358
 30
0.0
 10
8.01609056665792
 20
6.358438579600606
 30
0.0
 10
8.051640055504872
 20
6.396734165950825
 30
0.0
 10
8.072878926199999
 20
6.4165822432
 30
0.0
 11
7.9760795045
 21
6.2948866157
 31
0.0
 11
8.0139491753
 21
6.352296889899999
 31
0.0
 11
8.072878926199999
 21
6.4165822432
 31
0.0
  0
SPLINE
  5
2EA
330
1F
100
AcDbEntity
  8
0
  6
Continuous
 62
     7
100
AcDbSpline
210
0.0
220
0.0
230
1.0
 70
     8
 71
     3
 72
    14
 73
    10
 74
     8
 42
0.0000000001
 43
0.0000000001
 44
0.0000000001
 12
-0.8660266960943379
 22
-0.4999977616469151
 32
0.0
 13
-0.8660303017105825
 23
0.4999915164471066
 33
0.0
 40
0.0
 40
0.0
 40
0.0
 40
0.0
 40
0.0193730360475612
 40
0.0403205756270821
 40
0.0622785069444817
 40
0.0845834985445466
 40
0.1065414570809003
 40
0.1274890485118036
 40
0.1468621553275613
 40
0.1468621553275613
 40
0.1468621553275613
 40
0.1468621553275613
 10
8.9483963223
 20
5.215060687699999
 30
0.0
 10
8.942803800166139
 20
5.211831862813304
 30
0.0
 10
8.930469937184383
 20
5.206286023418742
 30
0.0
 10
8.910374375696434
 20
5.20082133571001
 30
0.0
 10
8.888751959137005
 20
5.1980297533879
 30
0.0
 10
8.86661956108001
 20
5.198029701115288
 30
0.0
 10
8.844997104982443
 20
5.200821181066393
 30
0.0
 10
8.82490146633169
 20
5.206285773802243
 30
0.0
 10
8.812567531846907
 20
5.211831551448298
 30
0.0
 10
8.806974966
 20
5.215060347799999
 30
0.0
 11
8.9483963223
 21
5.215060687699999
 31
0.0
 11
8.9307954007
 21
5.2069661164
 31
0.0
 11
8.910609314
 21
5.201369571199999
 31
0.0
 11
8.888838259299999
 21
5.198510913299999
 31
0.0
 11
8.866533267699999
 21
5.1985108597
 31
0.0
 11
8.844762171799999
 21
5.2013694129
 31
0.0
 11
8.8245760044
 21
5.2069658611
 31
0.0
 11
8.806974966
 21
5.215060347799999
 31
0.0
  0
SPLINE
  5
2EB
330
1F
100
AcDbEntity
  8
0
  6
Continuous
 62
     7
100
AcDbSpline
210
0.0
220
0.0
230
1.0
 70
     8
 71
     3
 72
    11
 73
     7
 74
     5
 42
0.0000000001
 43
0.0000000001
 44
0.0000000001
 12
-0.8660303016629997
 22
0.4999915165295244
 32
0.0
 13
-0.0000001819037017
 23
0.9999999999999836
 33
0.0
 40
0.0
 40
0.0
 40
0.0
 40
0.0
 40
0.0173156884842384
 40
0.0324744744502284
 40
0.0459839118743368
 40
0.0524521276480952
 40
0.0524521276480952
 40
0.0524521276480952
 40
0.0524521276480952
 10
7.4493242938
 20
5.998882596499999
 30
0.0
 10
7.444325656826164
 20
6.001768495614995
 30
0.0
 10
7.435394952714635
 20
6.008057933785357
 30
0.0
 10
7.42524971859334
 20
6.019796070046886
 30
0.0
 10
7.420673254526196
 20
6.030876047404452
 30
0.0
 10
7.420045217792197
 20
6.037550940875414
 30
0.0
 10
7.4200452174
 20
6.0397070128
 30
0.0
 11
7.4493242938
 21
5.998882596499999
 31
0.0
 11
7.4353038846
 21
6.009044347999999
 31
0.0
 11
7.425610245299999
 21
6.020698623999999
 31
0.0
 11
7.4206588338
 21
6.0332679686
 31
0.0
 11
7.4200452174
 21
6.0397070128
 31
0.0
  0
SPLINE
  5
2EC
330
1F
100
AcDbEntity
  8
0
  6
Continuous
 62
     7
100
AcDbSpline
210
0.0
220
0.0
230
1.0
 70
     8
 71
     3
 72
    10
 73
     6
 74
     4
 42
0.0000000001
 43
0.0000000001
 44
0.0000000001
 12
-0.8653902003104565
 22
-0.501098594297198
 32
0.0
 13
0.0
 23
-0.9999999999999998
 33
0.0
 40
0.0
 40
0.0
 40
0.0
 40
0.0
 40
0.002021156197652
 40
0.0066046986333993
 40
0.0124167545356006
 40
0.0124167545356006
 40
0.0124167545356006
 40
0.0124167545356006
 10
8.075162846499999
 20
5.9787704413
 30
0.0
 10
8.074579816911084
 20
5.978432841790167
 30
0.0
 10
8.072815255112406
 20
5.977050173249148
 30
0.0
 10
8.070982752803688
 20
5.973142536702749
 30
0.0
 10
8.0706358783
 20
5.969663989067401
 30
0.0
 10
8.0706358783
 20
5.9677266371
 30
0.0
 11
8.075162846499999
 21
5.9787704413
 31
0.0
 11
8.0735738061
 21
5.977521432499999
 31
0.0
 11
8.071394883199999
 21
5.9734889201
 31
0.0
 11
8.0706358783
 21
5.9677266371
 31
0.0
  0
SPLINE
  5
2ED
330
1F
100
AcDbEntity
  8
0
  6
Continuous
 62
     7
100
AcDbSpline
210
0.0
220
0.0
230
1.0
 70
     8
 71
     3
 72
     9
 73
     5
 74
     3
 42
0.0000000001
 43
0.0000000001
 44
0.0000000001
 12
0.0
 22
1.0
 32
0.0
 13
-0.2794280137182073
 23
0.9601666444682908
 33
0.0
 40
0.0
 40
0.0
 40
0.0
 40
0.0
 40
0.0056129857174995
 40
0.0092703441674679
 40
0.0092703441674679
 40
0.0092703441674679
 40
0.0092703441674679
 10
9.8864344861
 20
6.248632321599999
 30
0.0
 10
9.8864344861
 20
6.250503316839166
 30
0.0
 10
9.886322430479125
 20
6.253576931324832
 30
0.0
 10
9.88613576293571
 20
6.256698588036491
 30
0.0
 10
9.885795106799999
 20
6.257869145899999
 30
0.0
 11
9.8864344861
 21
6.248632321599999
 31
0.0
 11
9.886271438799999
 21
6.2542429387
 31
0.0
 11
9.885795106799999
 21
6.257869145899999
 31
0.0
  0
SPLINE
  5
2EE
330
1F
100
AcDbEntity
  8
0
  6
Continuous
 62
     7
100
AcDbSpline
210
0.0
220
0.0
230
1.0
 70
     8
 71
     3
 72
     8
 73
     4
 74
     2
 42
0.0000000001
 43
0.0000000001
 44
0.0000000001
 12
-0.2794280101722078
 22
0.9601666455002487
 32
0.0
 13
-0.9958646320921586
 23
0.0908495159477993
 33
0.0
 40
0.0
 40
0.0
 40
0.0
 40
0.0
 40
0.0015368657236172
 40
0.0015368657236172
 40
0.0015368657236172
 40
0.0015368657236172
 10
9.885795106799999
 20
6.257869145899999
 30
0.0
 10
9.885651959022982
 20
6.258361028302143
 30
0.0
 10
9.885543494972807
 20
6.259157387330977
 30
0.0
 10
9.8850333249
 20
6.259203928499999
 30
0.0
 11
9.885795106799999
 21
6.257869145899999
 31
0.0
 11
9.8850333249
 21
6.259203928499999
 31
0.0
  0
SPLINE
  5
2EF
330
1F
100
AcDbEntity
  8
0
  6
Continuous
 62
     7
100
AcDbSpline
210
0.0
220
0.0
230
1.0
 70
     8
 71
     3
 72
    12
 73
     8
 74
     6
 42
0.0000000001
 43
0.0000000001
 44
0.0000000001
 12
-0.0000019412711307
 22
-0.9999999999981158
 32
0.0
 13
0.7992623634535703
 23
-0.6009822579466161
 33
0.0
 40
0.0
 40
0.0
 40
0.0
 40
0.0
 40
0.0772172664076438
 40
0.1569163084691723
 40
0.2413392856543846
 40
0.3320358972942591
 40
0.4298905421596785
 40
0.4298905421596785
 40
0.4298905421596785
 40
0.4298905421596785
 10
7.860180058099999
 20
6.039710058999999
 30
0.0
 10
7.860180008133449
 20
6.0139709701975
 30
0.0
 10
7.866239534835694
 20
5.961484778200398
 30
0.0
 10
7.89303747062081
 20
5.885024248130331
 30
0.0
 10
7.936817945886449
 20
5.81164084198389
 30
0.0
 10
7.996600771247369
 20
5.742535670452468
 30
0.0
 10
8.044565366723318
 20
5.701553759573927
 30
0.0
 10
8.0706358783
 20
5.6819507911
 30
0.0
 11
7.860180058099999
 21
6.039710058999999
 31
0.0
 11
7.868895594299999
 21
5.962986231799999
 31
0.0
 11
7.8948649588
 21
5.8876368495
 31
0.0
 11
7.937660874199999
 21
5.8148649545
 31
0.0
 11
7.9965766171
 21
5.7459098198
 31
0.0
 11
8.0706358783
 21
5.6819507911
 31
0.0
  0
SPLINE
  5
2F0
330
1F
100
AcDbEntity
  8
0
  6
Continuous
 62
     7
100
AcDbSpline
210
0.0
220
0.0
230
1.0
 70
     8
 71
     3
 72
     8
 73
     4
 74
     2
 42
0.0000000001
 43
0.0000000001
 44
0.0000000001
 12
-0.0003479371193561
 22
-0.9999999394698786
 32
0.0
 13
-0.0947788306791629
 23
-0.9954983542201818
 33
0.0
 40
0.0
 40
0.0
 40
0.0
 40
0.0
 40
0.0323748238906024
 40
0.0323748238906024
 40
0.0323748238906024
 40
0.0323748238906024
 10
9.895173167499999
 20
6.4428882599
 30
0.0
 10
9.895169412699011
 20
6.432096652589683
 30
0.0
 10
9.894651512583932
 20
6.421293325167088
 30
0.0
 10
9.8936286966
 20
6.4105502972
 30
0.0
 11
9.895173167499999
 21
6.4428882599
 31
0.0
 11
9.8936286966
 21
6.4105502972
 31
0.0
  0
SPLINE
  5
2F1
330
1F
100
AcDbEntity
  8
0
  6
Continuous
 62
     7
100
AcDbSpline
210
0.0
220
0.0
230
1.0
 70
     8
 71
     3
 72
    10
 73
     6
 74
     4
 42
0.0000000001
 43
0.0000000001
 44
0.0000000001
 12
-0.0947788300539727
 22
-0.9954983542797045
 32
0.0
 13
-0.4814063929558977
 23
-0.8764975098773479
 33
0.0
 40
0.0
 40
0.0
 40
0.0
 40
0.0
 40
0.0257636699135699
 40
0.1079978378945803
 40
0.1531929955543786
 40
0.1531929955543786
 40
0.1531929955543786
 40
0.1531929955543786
 10
9.8936286966
 20
6.4105502972
 30
0.0
 10
9.892814746435899
 20
6.402001066866945
 30
0.0
 10
9.88806444792484
 20
6.366291777589429
 30
0.0
 10
9.873377730490219
 20
6.316840647192016
 30
0.0
 10
9.854848104509359
 20
6.278550337449108
 30
0.0
 10
9.8475956919
 20
6.265345856399999
 30
0.0
 11
9.8936286966
 21
6.4105502972
 31
0.0
 11
9.8902294155
 21
6.385011863899999
 31
0.0
 11
9.867197754500001
 21
6.3060688403
 31
0.0
 11
9.8475956919
 21
6.265345856399999
 31
0.0
  0
SPLINE
  5
2F2
330
1F
100
AcDbEntity
  8
0
  6
Continuous
 62
     7
100
AcDbSpline
210
0.0
220
0.0
230
1.0
 70
     8
 71
     3
 72
     8
 73
     4
 74
     2
 42
0.0000000001
 43
0.0000000001
 44
0.0000000001
 12
-0.4814063855404022
 22
-0.8764975139502253
 32
0.0
 13
-0.484073344579907
 23
-0.875027426465721
 33
0.0
 40
0.0
 40
0.0
 40
0.0
 40
0.0
 40
0.0013324958801552
 40
0.0013324958801552
 40
0.0013324958801552
 40
0.0013324958801552
 10
9.8475956919
 20
6.265345856399999
 30
0.0
 10
9.847381867891529
 20
6.264956546624564
 30
0.0
 10
9.847167449879114
 20
6.264567562513597
 30
0.0
 10
9.846952441299999
 20
6.2641789057
 30
0.0
 11
9.8475956919
 21
6.265345856399999
 31
0.0
 11
9.846952441299999
 21
6.2641789057
 31
0.0
  0
SPLINE
  5
2F3
330
1F
100
AcDbEntity
  8
0
  6
Continuous
 62
     7
100
AcDbSpline
210
0.0
220
0.0
230
1.0
 70
     8
 71
     3
 72
     8
 73
     4
 74
     2
 42
0.0000000001
 43
0.0000000001
 44
0.0000000001
 12
-0.4840733603042361
 22
-0.875027417766875
 32
0.0
 13
-0.4940530968185088
 23
-0.8694317325265055
 33
0.0
 40
0.0
 40
0.0
 40
0.0
 40
0.0
 40
0.0050441920478434
 40
0.0050441920478434
 40
0.0050441920478434
 40
0.0050441920478434
 10
9.846952441299999
 20
6.2641789057
 30
0.0
 10
9.846138521635126
 20
6.262707636919219
 30
0.0
 10
9.845316121567394
 20
6.261241028510451
 30
0.0
 10
9.844485421999999
 20
6.2597791683
 30
0.0
 11
9.846952441299999
 21
6.2641789057
 31
0.0
 11
9.844485421999999
 21
6.2597791683
 31
0.0
  0
SPLINE
  5
2F4
330
1F
100
AcDbEntity
  8
0
  6
Continuous
 62
     7
100
AcDbSpline
210
0.0
220
0.0
230
1.0
 70
     8
 71
     3
 72
     8
 73
     4
 74
     2
 42
0.0000000001
 43
0.0000000001
 44
0.0000000001
 12
-0.4940530931802879
 22
-0.8694317345939184
 32
0.0
 13
-0.4985564748122983
 23
-0.8668572208978446
 33
0.0
 40
0.0
 40
0.0
 40
0.0
 40
0.0
 40
0.0023069386808787
 40
0.0023069386808787
 40
0.0023069386808787
 40
0.0023069386808787
 10
9.844485421999999
 20
6.2597791683
 30
0.0
 10
9.844105505269645
 20
6.259110593067028
 30
0.0
 10
9.843723848438781
 20
6.258443003684563
 30
0.0
 10
9.843340468699999
 20
6.2577764082
 30
0.0
 11
9.844485421999999
 21
6.2597791683
 31
0.0
 11
9.843340468699999
 21
6.2577764082
 31
0.0
  0
SPLINE
  5
2F5
330
1F
100
AcDbEntity
  8
0
  6
Continuous
 62
     7
100
AcDbSpline
210
0.0
220
0.0
230
1.0
 70
     8
 71
     3
 72
    11
 73
     7
 74
     5
 42
0.0000000001
 43
0.0000000001
 44
0.0000000001
 12
-0.4985564630356267
 22
-0.8668572276709733
 32
0.0
 13
-0.8639355562104068
 23
-0.5036023775911059
 33
0.0
 40
0.0
 40
0.0
 40
0.0
 40
0.0
 40
0.0331389841421032
 40
0.1265775729308362
 40
0.2276310924887702
 40
0.3366519762690264
 40
0.3366519762690264
 40
0.3366519762690264
 40
0.3366519762690264
 10
9.843340468699999
 20
6.2577764082
 30
0.0
 10
9.837833250459173
 20
6.248200818892915
 30
0.0
 10
9.815437538892656
 20
6.212401245569261
 30
0.0
 10
9.766843394575165
 20
6.15356015668821
 30
0.0
 10
9.690586354190644
 20
6.086570267172789
 30
0.0
 10
9.632004998922415
 20
6.047803159859607
 30
0.0
 10
9.6006093263
 20
6.0295021011
 30
0.0
 11
9.843340468699999
 21
6.2577764082
 31
0.0
 11
9.825789445399999
 21
6.229666732799999
 31
0.0
 11
9.7667734947
 21
6.1572244286
 31
0.0
 11
9.6912459063
 21
6.0900872764
 31
0.0
 11
9.6006093263
 21
6.0295021011
 31
0.0
  0
SPLINE
  5
2F6
330
1F
100
AcDbEntity
  8
0
  6
Continuous
 62
     7
100
AcDbSpline
210
0.0
220
0.0
230
1.0
 70
     8
 71
     3
 72
    10
 73
     6
 74
     4
 42
0.0000000001
 43
0.0000000001
 44
0.0000000001
 12
0.8660261415183564
 22
0.4999987222051949
 32
0.0
 13
0.8660303021986463
 23
-0.4999915156017366
 33
0.0
 40
0.0
 40
0.0
 40
0.0
 40
0.0
 40
0.0031875707884721
 40
0.0100871803301854
 40
0.0183084570115899
 40
0.0183084570115899
 40
0.0183084570115899
 40
0.0183084570115899
 10
8.303341919099999
 20
6.9283470569
 30
0.0
 10
8.304262092310251
 20
6.928878317340392
 30
0.0
 10
8.307407018620411
 20
6.930198963600548
 30
0.0
 10
8.313754215401983
 20
6.930027865537732
 30
0.0
 10
8.318458571723715
 20
6.928001178129372
 30
0.0
 10
8.3208318633
 20
6.9266309886
 30
0.0
 11
8.303341919099999
 21
6.9283470569
 31
0.0
 11
8.306284859999999
 21
6.9295716819
 31
0.0
 11
8.3131840511
 21
6.9296476687
 31
0.0
 11
8.3208318633
 21
6.9266309886
 31
0.0
  0
SPLINE
  5
2F7
330
1F
100
AcDbEntity
  8
0
  6
Continuous
 62
     7
100
AcDbSpline
210
0.0
220
0.0
230
1.0
 70
     8
 71
     3
 72
    10
 73
     6
 74
     4
 42
0.0000000001
 43
0.0000000001
 44
0.0000000001
 12
0.0000055479714689
 22
-0.9999999999846099
 32
0.0
 13
0.8660303019545491
 23
-0.4999915160245346
 33
0.0
 40
0.0
 40
0.0
 40
0.0
 40
0.0
 40
0.0031781082154331
 40
0.0100635212223249
 40
0.0183082994507921
 40
0.0183082994507921
 40
0.0183082994507921
 40
0.0183082994507921
 10
8.285851859500001
 20
6.302006622899999
 30
0.0
 10
8.285851865377352
 20
6.300947253494871
 30
0.0
 10
8.286278583904781
 20
6.297571438330071
 30
0.0
 10
8.289593227083422
 20
6.2921567212078
 30
0.0
 10
8.293703153073751
 20
6.289092200488578
 30
0.0
 10
8.296083229
 20
6.287718094099999
 30
0.0
 11
8.285851859500001
 21
6.302006622899999
 31
0.0
 11
8.286260536
 21
6.298854900299999
 31
0.0
 11
8.289630978699999
 21
6.292850816
 31
0.0
 11
8.296083229
 21
6.287718094099999
 31
0.0
  0
SPLINE
  5
2F8
330
1F
100
AcDbEntity
  8
0
  6
Continuous
 62
     7
100
AcDbSpline
210
0.0
220
0.0
230
1.0
 70
     8
 71
     3
 72
     8
 73
     4
 74
     2
 42
0.0000000001
 43
0.0000000001
 44
0.0000000001
 12
0.9072661219004512
 22
-0.4205569926320515
 32
0.0
 13
0.9070101051504694
 23
-0.4211088566569627
 33
0.0
 40
0.0
 40
0.0
 40
0.0
 40
0.0
 40
0.0006320416748338
 40
0.0006320416748338
 40
0.0006320416748338
 40
0.0006320416748338
 10
9.469889740800001
 20
6.555432645499999
 30
0.0
 10
9.47008088413307
 20
6.555344042318004
 30
0.0
 10
9.470272000504683
 20
6.555255380949016
 30
0.0
 10
9.4704630899
 20
6.555166661499999
 30
0.0
 11
9.469889740800001
 21
6.555432645499999
 31
0.0
 11
9.4704630899
 21
6.555166661499999
 31
0.0
  0
SPLINE
  5
2F9
330
1F
100
AcDbEntity
  8
0
  6
Continuous
 62
     7
100
AcDbSpline
210
0.0
220
0.0
230
1.0
 70
     8
 71
     3
 72
    12
 73
     8
 74
     6
 42
0.0000000001
 43
0.0000000001
 44
0.0000000001
 12
0.9070100844056511
 22
-0.4211089013384227
 32
0.0
 13
0.4832916948768077
 23
-0.8754593866440078
 33
0.0
 40
0.0
 40
0.0
 40
0.0
 40
0.0
 40
0.031082834851318
 40
0.1387280021910834
 40
0.238665495691788
 40
0.3309323420600537
 40
0.4095296355396229
 40
0.4095296355396229
 40
0.4095296355396229
 40
0.4095296355396229
 10
9.4704630899
 20
6.555166661499999
 30
0.0
 10
9.47986057145402
 20
6.550803575355091
 30
0.0
 10
9.521508730098574
 20
6.530704287850169
 30
0.0
 10
9.590750985239878
 20
6.491107028674448
 30
0.0
 10
9.670674745315469
 20
6.430560333871762
 30
0.0
 10
9.733912773025428
 20
6.365607327750919
 30
0.0
 10
9.766325243407175
 20
6.318353487913832
 30
0.0
 10
9.778987049799999
 20
6.295417241799999
 30
0.0
 11
9.4704630899
 21
6.555166661499999
 31
0.0
 11
9.498453324299999
 21
6.5416503972
 31
0.0
 11
9.5916710985
 21
6.4878179848
 31
0.0
 11
9.671003269299999
 21
6.427040445499999
 31
0.0
 11
9.734921399400001
 21
6.3604999046
 31
0.0
 11
9.778987049799999
 21
6.295417241799999
 31
0.0
  0
SPLINE
  5
2FA
330
1F
100
AcDbEntity
  8
0
  6
Continuous
 62
     7
100
AcDbSpline
210
0.0
220
0.0
230
1.0
 70
     8
 71
     3
 72
    10
 73
     6
 74
     4
 42
0.0000000001
 43
0.0000000001
 44
0.0000000001
 12
-0.0002778766086243
 22
-0.9999999613922943
 32
0.0
 13
-0.433613440340305
 23
-0.9010989869910211
 33
0.0
 40
0.0
 40
0.0
 40
0.0
 40
0.0
 40
0.0598089507222362
 40
0.1422232037300724
 40
0.1627069010401315
 40
0.1627069010401315
 40
0.1627069010401315
 40
0.1627069010401315
 10
9.895173492899999
 20
6.407164537499999
 30
0.0
 10
9.895167953063868
 20
6.387228221362283
 30
0.0
 10
9.890985048985154
 20
6.339743165641363
 30
0.0
 10
9.875123909245864
 20
6.28732513104789
 30
0.0
 10
9.861018699020501
 20
6.256059178265307
 30
0.0
 10
9.8580580302
 20
6.249906565299999
 30
0.0
 11
9.895173492899999
 21
6.407164537499999
 31
0.0
 11
9.8899377835
 21
6.347585195999999
 31
0.0
 11
9.8664730317
 21
6.2685819396
 31
0.0
 11
9.8580580302
 21
6.249906565299999
 31
0.0
  0
SPLINE
  5
2FB
330
1F
100
AcDbEntity
  8
0
  6
Continuous
 62
     7
100
AcDbSpline
210
0.0
220
0.0
230
1.0
 70
     8
 71
     3
 72
     9
 73
     5
 74
     3
 42
0.0000000001
 43
0.0000000001
 44
0.0000000001
 12
-0.4336134405257387
 22
-0.9010989869017898
 32
0.0
 13
-0.659075249342633
 23
-0.7520770011800295
 33
0.0
 40
0.0
 40
0.0
 40
0.0
 40
0.0
 40
0.0666421475807416
 40
0.130304190946074
 40
0.130304190946074
 40
0.130304190946074
 40
0.130304190946074
 10
9.8580580302
 20
6.249906565299999
 30
0.0
 10
9.848425719901163
 20
6.229889508076677
 30
0.0
 10
9.826415316941051
 20
6.192223449905827
 30
0.0
 10
9.799597619501556
 20
6.157915780521063
 30
0.0
 10
9.7856115938
 20
6.141956194299999
 30
0.0
 11
9.8580580302
 21
6.249906565299999
 31
0.0
 11
9.824654506499999
 21
6.1922404536
 31
0.0
 11
9.7856115938
 21
6.141956194299999
 31
0.0
  0
SPLINE
  5
2FC
330
1F
100
AcDbEntity
  8
0
  6
Continuous
 62
     7
100
AcDbSpline
210
0.0
220
0.0
230
1.0
 70
     8
 71
     3
 72
    10
 73
     6
 74
     4
 42
0.0000000001
 43
0.0000000001
 44
0.0000000001
 12
-0.6590752492044608
 22
-0.7520770013011154
 32
0.0
 13
-0.8650897557131733
 23
-0.5016170995491702
 33
0.0
 40
0.0
 40
0.0
 40
0.0
 40
0.0
 40
0.0304072865350502
 40
0.1321747988723776
 40
0.2400879377099781
 40
0.2400879377099781
 40
0.2400879377099781
 40
0.2400879377099781
 10
9.7856115938
 20
6.141956194299999
 30
0.0
 10
9.778931363816427
 20
6.134333320675004
 30
0.0
 10
9.749003170325556
 20
6.101974646079596
 30
0.0
 10
9.688410408107655
 20
6.049191624643538
 30
0.0
 10
9.62984029873842
 20
6.010696694102321
 30
0.0
 10
9.598722115099999
 20
5.992653002199999
 30
0.0
 11
9.7856115938
 21
6.141956194299999
 31
0.0
 11
9.7649796698
 21
6.1196195252
 31
0.0
 11
9.688630167499999
 21
6.052333716399999
 31
0.0
 11
9.598722115099999
 21
5.992653002199999
 31
0.0
  0
SPLINE
  5
2FD
330
1F
100
AcDbEntity
  8
0
  6
Continuous
 62
     7
100
AcDbSpline
210
0.0
220
0.0
230
1.0
 70
     8
 71
     3
 72
     8
 73
     4
 74
     2
 42
0.0000000001
 43
0.0000000001
 44
0.0000000001
 12
-0.8650897621935092
 22
-0.5016170883731711
 32
0.0
 13
-0.8660266782975439
 23
-0.4999977924720493
 33
0.0
 40
0.0
 40
0.0
 40
0.0
 40
0.0
 40
0.0018003077667575
 40
0.0018003077667575
 40
0.0018003077667575
 40
0.0018003077667575
 10
9.598722115099999
 20
5.992653002199999
 30
0.0
 10
9.598202972494059
 20
5.99235198048662
 30
0.0
 10
9.597683547551719
 20
5.992051445169716
 30
0.0
 10
9.5971638427
 20
5.991751395199999
 30
0.0
 11
9.598722115099999
 21
5.992653002199999
 31
0.0
 11
9.5971638427
 21
5.991751395199999
 31
0.0
  0
SPLINE
  5
2FE
330
1F
100
AcDbEntity
  8
0
  6
Continuous
 62
     7
100
AcDbSpline
210
0.0
220
0.0
230
1.0
 70
     8
 71
     3
 72
    10
 73
     6
 74
     4
 42
0.0000000001
 43
0.0000000001
 44
0.0000000001
 12
-0.894121227381648
 22
0.4478250001345784
 32
0.0
 13
-0.7932536896998216
 23
0.6088912741841676
 33
0.0
 40
0.0
 40
0.0
 40
0.0
 40
0.0
 40
0.0190672438552206
 40
0.0914036955735705
 40
0.1602874328456278
 40
0.1602874328456278
 40
0.1602874328456278
 40
0.1602874328456278
 10
8.257780390499998
 20
5.7169618045
 30
0.0
 10
8.252097581340461
 20
5.719808067327344
 30
0.0
 10
8.224987744939548
 20
5.733714872027412
 30
0.0
 10
8.178613076622838
 20
5.760370671705362
 30
0.0
 10
8.139875380317125
 20
5.787244512713949
 30
0.0
 10
8.1216612874
 20
5.8012254149
 30
0.0
 11
8.257780390499998
 21
5.7169618045
 31
0.0
 11
8.240816027699999
 21
5.725666411499999
 31
0.0
 11
8.178170468599999
 21
5.761834023699999
 31
0.0
 11
8.1216612874
 21
5.8012254149
 31
0.0
  0
SPLINE
  5
2FF
330
1F
100
AcDbEntity
  8
0
  6
Continuous
 62
     7
100
AcDbSpline
210
0.0
220
0.0
230
1.0
 70
     8
 71
     3
 72
    10
 73
     6
 74
     4
 42
0.0000000001
 43
0.0000000001
 44
0.0000000001
 12
0.0000005342512064
 22
-0.9999999999998573
 32
0.0
 13
-0.8660266959105667
 23
-0.4999977619652177
 33
0.0
 40
0.0
 40
0.0
 40
0.0
 40
0.0
 40
0.0031875819734092
 40
0.0100870726210436
 40
0.0183082886103801
 40
0.0183082886103801
 40
0.0183082886103801
 40
0.0183082886103801
 10
9.469507574499999
 20
6.5530912072
 30
0.0
 10
9.469507575067655
 20
6.55202867987553
 30
0.0
 10
9.469078815740779
 20
6.548644803168642
 30
0.0
 10
9.465756971049035
 20
6.543233623487277
 30
0.0
 10
9.461649635873204
 20
6.540172977331767
 30
0.0
 10
9.459276371699999
 20
6.5388027808
 30
0.0
 11
9.469507574499999
 21
6.5530912072
 31
0.0
 11
9.4690966461
 21
6.549930223699999
 31
0.0
 11
9.4657128259
 21
6.5439175095
 31
0.0
 11
9.459276371699999
 21
6.5388027808
 31
0.0
  0
SPLINE
  5
300
330
1F
100
AcDbEntity
  8
0
  6
Continuous
 62
     7
100
AcDbSpline
210
0.0
220
0.0
230
1.0
 70
     8
 71
     3
 72
    18
 73
    14
 74
    12
 42
0.0000000001
 43
0.0000000001
 44
0.0000000001
 12
-0.8639355562503451
 22
-0.5036023775225913
 32
0.0
 13
0.8660303017060494
 23
-0.4999915164549586
 33
0.0
 40
0.0
 40
0.0
 40
0.0
 40
0.0
 40
0.1131218726383571
 40
0.21760484212284
 40
0.3138990894633248
 40
0.4033229121264465
 40
0.488125914094213
 40
0.5713256501717698
 40
0.6562388408909286
 40
0.7458631446249587
 40
0.84241770113652
 40
0.9471896128054524
 40
1.060602196929274
 40
1.060602196929274
 40
1.060602196929274
 40
1.060602196929274
 10
8.1578715635
 20
6.8631497983
 30
0.0
 10
8.125294894179367
 20
6.844160316963171
 30
0.0
 10
8.06469331576269
 20
6.803853886454316
 30
0.0
 10
7.986425266400274
 20
6.733802663255961
 30
0.0
 10
7.925870808693566
 20
6.657670545193738
 30
0.0
 10
7.884489958365648
 20
6.576777201899266
 30
0.0
 10
7.863556432129287
 20
6.492707704847094
 30
0.0
 10
7.863918768693787
 20
6.407518645854918
 30
0.0
 10
7.885560565079734
 20
6.32352558993581
 30
0.0
 10
7.927611030719526
 20
6.24276949598783
 30
0.0
 10
7.988788613914794
 20
6.166822047450351
 30
0.0
 10
8.067628475007033
 20
6.096997234745402
 30
0.0
 10
8.128568556951329
 20
6.056855508540382
 30
0.0
 10
8.1613081351
 20
6.0379537319
 30
0.0
 11
8.1578715635
 21
6.8631497983
 31
0.0
 11
8.064001775700001
 21
6.800022775499999
 31
0.0
 11
7.9865952084
 21
6.7298450422
 31
0.0
 11
7.9272180357
 21
6.6540365108
 31
0.0
 11
7.887071641499999
 21
6.5741310223
 31
0.0
 11
7.866968311399999
 21
6.491745312
 31
0.0
 11
7.867314797999999
 21
6.4085462974
 31
0.0
 11
7.8881040907
 21
6.3262173519
 31
0.0
 11
7.928915557999999
 21
6.2464242447
 31
0.0
 11
7.988923457699999
 21
6.170781437
 31
0.0
 11
8.066913644199999
 21
6.100819416699999
 31
0.0
 11
8.1613081351
 21
6.0379537319
 31
0.0
  0
SPLINE
  5
301
330
1F
100
AcDbEntity
  8
0
  6
Continuous
 62
     7
100
AcDbSpline
210
0.0
220
0.0
230
1.0
 70
     8
 71
     3
 72
    10
 73
     6
 74
     4
 42
0.0000000001
 43
0.0000000001
 44
0.0000000001
 12
0.8660266961784778
 22
0.49999776150118
 32
0.0
 13
0.5825993661474013
 23
0.8127594838355602
 33
0.0
 40
0.0
 40
0.0
 40
0.0
 40
0.0
 40
0.1051428323867752
 40
0.2029367906331861
 40
0.293628473339856
 40
0.293628473339856
 40
0.293628473339856
 40
0.293628473339856
 10
9.5971638427
 20
5.6243253075
 30
0.0
 10
9.627516009286255
 20
5.64184903444376
 30
0.0
 10
9.684335669542157
 20
5.678918482739164
 30
0.0
 10
9.758937293076071
 20
5.742709340503249
 30
0.0
 10
9.800236199180085
 20
5.790503701325048
 30
0.0
 10
9.8178485048
 20
5.815073876399999
 30
0.0
 11
9.5971638427
 21
5.6243253075
 31
0.0
 11
9.6849813222
 21
5.6821449019
 31
0.0
 11
9.7589679514
 21
5.746095171399999
 31
0.0
 11
9.8178485048
 21
5.815073876399999
 31
0.0
  0
SPLINE
  5
302
330
1F
100
AcDbEntity
  8
0
  6
Continuous
 62
     7
100
AcDbSpline
210
0.0
220
0.0
230
1.0
 70
     8
 71
     3
 72
    11
 73
     7
 74
     5
 42
0.0000000001
 43
0.0000000001
 44
0.0000000001
 12
0.000000181906061
 22
-0.9999999999999833
 32
0.0
 13
-0.8660266960646234
 23
-0.4999977616983826
 33
0.0
 40
0.0
 40
0.0
 40
0.0
 40
0.0
 40
0.0064677295333169
 40
0.0199771226532269
 40
0.035135836887337
 40
0.0524514463058195
 40
0.0524514463058195
 40
0.0524514463058195
 40
0.0524514463058195
 10
10.3353141773
 20
6.039713537699999
 30
0.0
 10
10.33531417769217
 20
6.03755762785556
 30
0.0
 10
10.33468620742613
 20
6.030882914320552
 30
0.0
 10
10.33010996958838
 20
6.019803060008546
 30
0.0
 10
10.3199648973995
 20
6.008064865862158
 30
0.0
 10
10.31103428303834
 20
6.001775385183894
 30
0.0
 10
10.3060356897
 20
5.9988894632
 30
0.0
 11
10.3353141773
 21
6.039713537699999
 31
0.0
 11
10.3347006537
 21
6.033274973099999
 31
0.0
 11
10.3297494235
 21
6.0207056047
 31
0.0
 11
10.3200559524
 21
6.0090512821
 31
0.0
 11
10.3060356897
 21
5.9988894632
 31
0.0
  0
SPLINE
  5
303
330
1F
100
AcDbEntity
  8
0
  6
Continuous
 62
     7
100
AcDbSpline
210
0.0
220
0.0
230
1.0
 70
     8
 71
     3
 72
    15
 73
    11
 74
     9
 42
0.0000000001
 43
0.0000000001
 44
0.0000000001
 12
0.8660266961188593
 22
0.4999977616044423
 32
0.0
 13
0.6835317012953769
 23
-0.7299208267505785
 33
0.0
 40
0.0
 40
0.0
 40
0.0
 40
0.0
 40
0.0234691484466082
 40
0.0490532928406204
 40
0.0758537218715393
 40
0.1027314650135188
 40
0.1289903103847103
 40
0.1535427528398539
 40
0.1756199146043852
 40
0.1897653234172809
 40
0.1897653234172809
 40
0.1897653234172809
 40
0.1897653234172809
 10
8.7981298533
 20
6.738839293799999
 30
0.0
 10
8.804904822996647
 20
6.742750801030021
 30
0.0
 10
8.819972712203888
 20
6.74939053378973
 30
0.0
 10
8.844567411431309
 20
6.755632558699698
 30
0.0
 10
8.870937105062154
 20
6.758361243640706
 30
0.0
 10
8.897649442168582
 20
6.757454068169801
 30
0.0
 10
8.923248128737396
 20
6.752969410644652
 30
0.0
 10
8.946359380197888
 20
6.74513137113397
 30
0.0
 10
8.964180028811499
 20
6.735194183286737
 30
0.0
 10
8.973398436682867
 20
6.727270947965144
 30
0.0
 10
8.976621381799999
 20
6.723829271799999
 30
0.0
 11
8.7981298533
 21
6.738839293799999
 31
0.0
 11
8.8195146535
 21
6.748508381099999
 31
0.0
 11
8.8442786331
 21
6.754934403099999
 31
0.0
 11
8.8709311657
 21
6.757746075599999
 31
0.0
 11
8.8977928302
 21
6.756816529099999
 31
0.0
 11
8.9236417811
 21
6.752194982
 31
0.0
 11
8.946835856399999
 21
6.744141578899999
 31
0.0
 11
8.9659846657
 21
6.7331541236
 31
0.0
 11
8.976621381799999
 21
6.723829271799999
 31
0.0
  0
SPLINE
  5
304
330
1F
100
AcDbEntity
  8
0
  6
Continuous
 62
     7
100
AcDbSpline
210
0.0
220
0.0
230
1.0
 70
     8
 71
     3
 72
     8
 73
     4
 74
     2
 42
0.0000000001
 43
0.0000000001
 44
0.0000000001
 12
-0.8660294708079824
 22
0.499992955642423
 32
0.0
 13
-0.9668684614540234
 23
0.2552751030663381
 33
0.0
 40
0.0
 40
0.0
 40
0.0
 40
0.0
 40
0.0032377058424553
 40
0.0032377058424553
 40
0.0032377058424553
 40
0.0032377058424553
 10
8.5964144894
 20
7.077356298699999
 30
0.0
 10
8.595479839840876
 20
7.07789590873789
 30
0.0
 10
8.594466137955512
 20
7.078318412402456
 30
0.0
 10
8.593422659399999
 20
7.078593914299999
 30
0.0
 11
8.5964144894
 21
7.077356298699999
 31
0.0
 11
8.593422659399999
 21
7.078593914299999
 31
0.0
  0
SPLINE
  5
305
330
1F
100
AcDbEntity
  8
0
  6
Continuous
 62
     7
100
AcDbSpline
210
0.0
220
0.0
230
1.0
 70
     8
 71
     3
 72
     9
 73
     5
 74
     3
 42
0.0000000001
 43
0.0000000001
 44
0.0000000001
 12
-0.9668684589100811
 22
0.2552751127016593
 32
0.0
 13
-0.8660266962479109
 23
-0.4999977613809171
 33
0.0
 40
0.0
 40
0.0
 40
0.0
 40
0.0
 40
0.0068504357438027
 40
0.0150716667282845
 40
0.0150716667282845
 40
0.0150716667282845
 40
0.0150716667282845
 10
8.593422659399999
 20
7.078593914299999
 30
0.0
 10
8.591214835983175
 20
7.079176829552184
 30
0.0
 10
8.585984389237646
 20
7.07903077993543
 30
0.0
 10
8.581298032402861
 20
7.077010303829346
 30
0.0
 10
8.578924763899999
 20
7.0756401048
 30
0.0
 11
8.593422659399999
 21
7.078593914299999
 31
0.0
 11
8.5865725125
 21
7.0786568216
 31
0.0
 11
8.578924763899999
 21
7.0756401048
 31
0.0
  0
SPLINE
  5
306
330
1F
100
AcDbEntity
  8
0
  6
Continuous
 62
     7
100
AcDbSpline
210
0.0
220
0.0
230
1.0
 70
     8
 71
     3
 72
     9
 73
     5
 74
     3
 42
0.0000000001
 43
0.0000000001
 44
0.0000000001
 12
0.8103483734501697
 22
0.585948388210655
 32
0.0
 13
0.8660266963469469
 23
0.499997761209381
 33
0.0
 40
0.0
 40
0.0
 40
0.0
 40
0.0
 40
0.0266576773398116
 40
0.0852105341158145
 40
0.0852105341158145
 40
0.0852105341158145
 40
0.0852105341158145
 10
8.1255212782
 20
6.3864352191
 30
0.0
 10
8.132721946690759
 20
6.3916418934569
 30
0.0
 10
8.156030535422788
 20
6.407881395687045
 30
0.0
 10
8.180183807861535
 20
6.422883235733194
 30
0.0
 10
8.197086586900001
 20
6.432642001499999
 30
0.0
 11
8.1255212782
 21
6.3864352191
 31
0.0
 11
8.147388561699999
 21
6.401681650599999
 31
0.0
 11
8.197086586900001
 21
6.432642001499999
 31
0.0
  0
SPLINE
  5
307
330
1F
100
AcDbEntity
  8
0
  6
Continuous
 62
     7
100
AcDbSpline
210
0.0
220
0.0
230
1.0
 70
     8
 71
     3
 72
     9
 73
     5
 74
     3
 42
0.0000000001
 43
0.0000000001
 44
0.0000000001
 12
0.8660266962794803
 22
0.4999977613262371
 32
0.0
 13
0.911787428500436
 23
0.4106624955222503
 33
0.0
 40
0.0
 40
0.0
 40
0.0
 40
0.0
 40
0.0608190509455147
 40
0.0994638045443753
 40
0.0994638045443753
 40
0.0994638045443753
 40
0.0994638045443753
 10
8.197086586900001
 20
6.432642001499999
 30
0.0
 10
8.2146435608204
 20
6.442778464606247
 30
0.0
 10
8.24391945531239
 20
6.458399522377591
 30
0.0
 10
8.273905884663687
 20
6.472557499049416
 30
0.0
 10
8.285651151499999
 20
6.477847482699999
 30
0.0
 11
8.197086586900001
 21
6.432642001499999
 31
0.0
 11
8.250711840299999
 21
6.4613350173
 31
0.0
 11
8.285651151499999
 21
6.477847482699999
 31
0.0
  0
SPLINE
  5
308
330
1F
100
AcDbEntity
  8
0
  6
Continuous
 62
     7
100
AcDbSpline
210
0.0
220
0.0
230
1.0
 70
     8
 71
     3
 72
    10
 73
     6
 74
     4
 42
0.0000000001
 43
0.0000000001
 44
0.0000000001
 12
-0.8660303021986463
 22
0.4999915156017366
 32
0.0
 13
-0.8660261415183564
 23
-0.4999987222051949
 33
0.0
 40
0.0
 40
0.0
 40
0.0
 40
0.0
 40
0.008221276644711
 40
0.0151208862853169
 40
0.0183084569814618
 40
0.0183084569814618
 40
0.0183084569814618
 40
0.0183084569814618
 10
8.578924763899999
 20
7.0756401048
 30
0.0
 10
8.576551472334307
 20
7.077010294323256
 30
0.0
 10
8.571847115952188
 20
7.079036981541991
 30
0.0
 10
8.565499919168754
 20
7.079208079872517
 30
0.0
 10
8.5623549928836
 20
7.077887433525003
 30
0.0
 10
8.5614348197
 20
7.077356173099999
 30
0.0
 11
8.578924763899999
 21
7.0756401048
 31
0.0
 11
8.571276951699999
 21
7.0786567848
 31
0.0
 11
8.564377760499999
 21
7.078580798099999
 31
0.0
 11
8.5614348197
 21
7.077356173099999
 31
0.0
  0
SPLINE
  5
309
330
1F
100
AcDbEntity
  8
0
  6
Continuous
 62
     7
100
AcDbSpline
210
0.0
220
0.0
230
1.0
 70
     8
 71
     3
 72
    10
 73
     6
 74
     4
 42
0.0000000001
 43
0.0000000001
 44
0.0000000001
 12
-0.8660303021249712
 22
0.4999915157293482
 32
0.0
 13
-0.0000005342443073
 23
0.9999999999998573
 33
0.0
 40
0.0
 40
0.0
 40
0.0
 40
0.0
 40
0.0082212543875917
 40
0.0151207734013576
 40
0.0183085260665573
 40
0.0183085260665573
 40
0.0183085260665573
 40
0.0183085260665573
 10
8.296083229
 20
6.8837648586
 30
0.0
 10
8.293709943859623
 20
6.885135044414149
 30
0.0
 10
8.289602567973201
 20
6.888195670383774
 30
0.0
 10
8.28628061514081
 20
6.893606874805356
 30
0.0
 10
8.285851820767678
 20
6.896990819778266
 30
0.0
 10
8.285851820199999
 20
6.898053403999999
 30
0.0
 11
8.296083229
 21
6.8837648586
 31
0.0
 11
8.2896467012
 21
6.8888795564
 31
0.0
 11
8.286262794199998
 21
6.894892254299999
 31
0.0
 11
8.285851820199999
 21
6.898053403999999
 31
0.0
  0
SPLINE
  5
30A
330
1F
100
AcDbEntity
  8
0
  6
Continuous
 62
     7
100
AcDbSpline
210
0.0
220
0.0
230
1.0
 70
     8
 71
     3
 72
    12
 73
     8
 74
     6
 42
0.0000000001
 43
0.0000000001
 44
0.0000000001
 12
-0.8660266962949279
 22
-0.4999977612994812
 32
0.0
 13
0.0
 23
-1.0
 33
0.0
 40
0.0
 40
0.0
 40
0.0
 40
0.0
 40
0.0096068568473013
 40
0.0202029536393649
 40
0.0311533661899407
 40
0.0417495198561058
 40
0.0513564781110412
 40
0.0513564781110412
 40
0.0513564781110412
 40
0.0513564781110412
 10
8.3208318633
 20
6.9266309886
 30
0.0
 10
8.318058598467585
 20
6.925029852961075
 30
0.0
 10
8.31269891860059
 20
6.920829383253662
 30
0.0
 10
8.305953303424278
 20
6.912864408176809
 30
0.0
 10
8.300566138929434
 20
6.903533508853823
 30
0.0
 10
8.297041101173075
 20
6.893709082602318
 30
0.0
 10
8.296083229
 20
6.886967178018312
 30
0.0
 10
8.296083229
 20
6.8837648586
 30
0.0
 11
8.3208318633
 21
6.9266309886
 31
0.0
 11
8.3131841148
 21
6.9208168987
 31
0.0
 11
8.306284981100001
 21
6.9127745594
 31
0.0
 11
8.300809797599999
 21
6.9032912108
 31
0.0
 11
8.2972945134
 21
6.8932951491
 31
0.0
 11
8.296083229
 21
6.8837648586
 31
0.0
  0
SPLINE
  5
30B
330
1F
100
AcDbEntity
  8
0
  6
Continuous
 62
     7
100
AcDbSpline
210
0.0
220
0.0
230
1.0
 70
     8
 71
     3
 72
    11
 73
     7
 74
     5
 42
0.0000000001
 43
0.0000000001
 44
0.0000000001
 12
-0.8660266962993945
 22
-0.4999977612917443
 32
0.0
 13
0.0023869269941621
 23
-0.9999971512857046
 33
0.0
 40
0.0
 40
0.0
 40
0.0
 40
0.0
 40
0.0208064891926808
 40
0.0389253783428792
 40
0.0550652296995886
 40
0.0589569865441495
 40
0.0589569865441495
 40
0.0589569865441495
 40
0.0589569865441495
 10
8.7981298533
 20
6.800076975099999
 30
0.0
 10
8.792123528267625
 20
6.796609242427772
 30
0.0
 10
8.78144812609163
 20
6.788996848730416
 30
0.0
 10
8.769670562909393
 20
6.774560709153062
 30
0.0
 10
8.765511895348357
 20
6.762135824918765
 30
0.0
 10
8.765185592853509
 20
6.755455881186019
 30
0.0
 10
8.765188689299998
 20
6.7541586326
 30
0.0
 11
8.7981298533
 21
6.800076975099999
 31
0.0
 11
8.781382441499999
 21
6.7877305509
 31
0.0
 11
8.7702522919
 21
6.773433211499999
 31
0.0
 11
8.765382484599999
 21
6.7580455613
 31
0.0
 11
8.765188689299998
 21
6.7541586326
 31
0.0
  0
SPLINE
  5
30C
330
1F
100
AcDbEntity
  8
0
  6
Continuous
 62
     7
100
AcDbSpline
210
0.0
220
0.0
230
1.0
 70
     8
 71
     3
 72
    17
 73
    13
 74
    11
 42
0.0000000001
 43
0.0000000001
 44
0.0000000001
 12
-0.0023869269375429
 22
0.9999971512858397
 32
0.0
 13
-0.8660266961309266
 23
-0.4999977615835413
 33
0.0
 40
0.0
 40
0.0
 40
0.0
 40
0.0
 40
0.0117606253954293
 40
0.0286956957124648
 40
0.0480321287382664
 40
0.0700414237774944
 40
0.0944947372330141
 40
0.1207289499698258
 40
0.1477606485910346
 40
0.1748078559307699
 40
0.2006173076999789
 40
0.2241804467627391
 40
0.2241804467627391
 40
0.2241804467627391
 40
0.2241804467627391
 10
8.990170705499998
 20
6.754141147799999
 30
0.0
 10
8.990161348248813
 20
6.758061345097589
 30
0.0
 10
8.988648066759159
 20
6.76768357176317
 30
0.0
 10
8.98059131631296
 20
6.781937139412765
 30
0.0
 10
8.966153023008494
 20
6.795264228268077
 30
0.0
 10
8.946920453093916
 20
6.806119850058186
 30
0.0
 10
8.923901863428081
 20
6.814039702781807
 30
0.0
 10
8.898311127765062
 20
6.818626276470012
 30
0.0
 10
8.87147495005294
 20
6.819625549021171
 30
0.0
 10
8.844889322510141
 20
6.816937397583436
 30
0.0
 10
8.820101402724944
 20
6.810680999796319
 30
0.0
 10
8.804931955790999
 20
6.804004147362419
 30
0.0
 10
8.7981298533
 20
6.800076975099999
 30
0.0
 11
8.990170705499998
 21
6.754141147799999
 31
0.0
 11
8.988366641599998
 21
6.765762578999999
 31
0.0
 11
8.9803615576
 21
6.7806862259
 31
0.0
 11
8.9664122617
 21
6.794077072999999
 31
0.0
 11
8.947380999199999
 21
6.8051323937
 31
0.0
 11
8.924316726499998
 21
6.8132566699
 31
0.0
 11
8.8985107577
 21
6.8179774635
 31
0.0
 11
8.871498503499999
 21
6.819002574899999
 31
0.0
 11
8.844593945999999
 21
6.816228370399999
 31
0.0
 11
8.819603769299998
 21
6.809777101599999
 31
0.0
 11
8.7981298533
 21
6.800076975099999
 31
0.0
  0
SPLINE
  5
30D
330
1F
100
AcDbEntity
  8
0
  6
Continuous
 62
     7
100
AcDbSpline
210
0.0
220
0.0
230
1.0
 70
     8
 71
     3
 72
    12
 73
     8
 74
     6
 42
0.0000000001
 43
0.0000000001
 44
0.0000000001
 12
-0.8660266966215719
 22
-0.4999977607337134
 32
0.0
 13
-0.866030301627585
 23
0.4999915165908654
 33
0.0
 40
0.0
 40
0.0
 40
0.0
 40
0.0
 40
0.0096068663126829
 40
0.0202029760473946
 40
0.0311533886474259
 40
0.0417495168615575
 40
0.0513564160315392
 40
0.0513564160315392
 40
0.0513564160315392
 40
0.0513564160315392
 10
9.2011834712
 20
6.389793664699999
 30
0.0
 10
9.198410203634114
 20
6.38819252748533
 30
0.0
 10
9.192092639013605
 20
6.385651158742509
 30
0.0
 10
9.181821958378661
 20
6.383791755417871
 30
0.0
 10
9.171047586451765
 20
6.383791730380025
 30
0.0
 10
9.160776879944162
 20
6.385651085853283
 30
0.0
 10
9.154459285095294
 20
6.388192423004755
 30
0.0
 10
9.151685996499999
 20
6.3897935457
 30
0.0
 11
9.2011834712
 21
6.389793664699999
 31
0.0
 11
9.192324428099999
 21
6.386077586699999
 31
0.0
 11
9.181909981
 21
6.384123914999999
 31
0.0
 11
9.1709595684
 21
6.3841238887
 31
0.0
 11
9.160545093099999
 21
6.386077510299999
 31
0.0
 11
9.151685996499999
 21
6.3897935457
 31
0.0
  0
SPLINE
  5
30E
330
1F
100
AcDbEntity
  8
0
  6
Continuous
 62
     7
100
AcDbSpline
210
0.0
220
0.0
230
1.0
 70
     8
 71
     3
 72
    12
 73
     8
 74
     6
 42
0.0000000001
 43
0.0000000001
 44
0.0000000001
 12
0.8660303022305088
 22
-0.4999915155465476
 32
0.0
 13
0.0
 23
-1.0
 33
0.0
 40
0.0
 40
0.0
 40
0.0
 40
0.0
 40
0.0096068853464004
 40
0.0202029944544044
 40
0.0311534069785117
 40
0.041749554327793
 40
0.0513565080032677
 40
0.0513565080032677
 40
0.0513565080032677
 40
0.0513565080032677
 10
9.176434630800001
 20
6.4326596757
 30
0.0
 10
9.17920791540668
 20
6.431058555311991
 30
0.0
 10
9.184567636855366
 20
6.426858115832119
 30
0.0
 10
9.191313311206897
 20
6.418893171852819
 30
0.0
 10
9.196700522575923
 20
6.409562296174228
 30
0.0
 10
9.200225591368477
 20
6.399737883781439
 30
0.0
 10
9.2011834712
 20
6.392995982591824
 30
0.0
 10
9.2011834712
 20
6.389793664699999
 30
0.0
 11
9.176434630800001
 21
6.4326596757
 31
0.0
 11
9.184082442999999
 21
6.4268456225
 31
0.0
 11
9.190981634199999
 21
6.4188033163
 31
0.0
 11
9.196456863199999
 21
6.409319993999999
 31
0.0
 11
9.199972176699999
 21
6.399323949299999
 31
0.0
 11
9.2011834712
 21
6.389793664699999
 31
0.0
  0
SPLINE
  5
30F
330
1F
100
AcDbEntity
  8
0
  6
Continuous
 62
     7
100
AcDbSpline
210
0.0
220
0.0
230
1.0
 70
     8
 71
     3
 72
    12
 73
     8
 74
     6
 42
0.0000000001
 43
0.0000000001
 44
0.0000000001
 12
0.0
 22
1.0
 32
0.0
 13
0.8660266962949279
 23
0.4999977612994812
 33
0.0
 40
0.0
 40
0.0
 40
0.0
 40
0.0
 40
0.0096069582549345
 40
0.0202031117935876
 40
0.0311535243441625
 40
0.0417496212121276
 40
0.0513564781390362
 40
0.0513564781390362
 40
0.0513564781390362
 40
0.0513564781390362
 10
9.151685996499999
 20
6.3897935457
 30
0.0
 10
9.151685996499999
 20
6.392995865118312
 30
0.0
 10
9.152643868686542
 20
6.399737769651771
 30
0.0
 10
9.156168906319095
 20
6.4095621959062
 30
0.0
 10
9.161556070869304
 20
6.418893095172068
 30
0.0
 10
9.168301685961905
 20
6.426858070396512
 30
0.0
 10
9.173661365944605
 20
6.431058540047808
 30
0.0
 10
9.176434630800001
 20
6.4326596757
 30
0.0
 11
9.151685996499999
 21
6.3897935457
 31
0.0
 11
9.152897280899999
 21
6.399323836199999
 31
0.0
 11
9.156412565
 21
6.409319897799999
 31
0.0
 11
9.161887748499999
 21
6.418803246399999
 31
0.0
 11
9.1687868822
 21
6.4268455858
 31
0.0
 11
9.176434630800001
 21
6.4326596757
 31
0.0
  0
SPLINE
  5
310
330
1F
100
AcDbEntity
  8
0
  6
Continuous
 62
     7
100
AcDbSpline
210
0.0
220
0.0
230
1.0
 70
     8
 71
     3
 72
    10
 73
     6
 74
     4
 42
0.0000000001
 43
0.0000000001
 44
0.0000000001
 12
0.8660266958855372
 22
0.499997762008571
 32
0.0
 13
0.8660294770611095
 23
-0.4999929448114857
 33
0.0
 40
0.0
 40
0.0
 40
0.0
 40
0.0
 40
0.0082212308914578
 40
0.0151207826699886
 40
0.0183082418956415
 40
0.0183082418956415
 40
0.0183082418956415
 40
0.0183082418956415
 10
9.4345275314
 20
6.581668791799999
 30
0.0
 10
9.436900799875013
 20
6.583038990815561
 30
0.0
 10
9.44160510825543
 20
6.585065700182738
 30
0.0
 10
9.447952234661869
 20
6.585236831952802
 30
0.0
 10
9.451097112251217
 20
6.583916221408234
 30
0.0
 10
9.452017256799999
 20
6.5833849857
 30
0.0
 11
9.4345275314
 21
6.581668791799999
 31
0.0
 11
9.4421752799
 21
6.584685508599999
 31
0.0
 11
9.449074413599999
 21
6.5846095551
 31
0.0
 11
9.452017256799999
 21
6.5833849857
 31
0.0
  0
SPLINE
  5
311
330
1F
100
AcDbEntity
  8
0
  6
Continuous
 62
     7
100
AcDbSpline
210
0.0
220
0.0
230
1.0
 70
     8
 71
     3
 72
    12
 73
     8
 74
     6
 42
0.0000000001
 43
0.0000000001
 44
0.0000000001
 12
0.0
 22
1.0
 32
0.0
 13
-0.8660303022305088
 23
0.4999915155465476
 33
0.0
 40
0.0
 40
0.0
 40
0.0
 40
0.0
 40
0.009606953762068
 40
0.0202031011113499
 40
0.0311535136854565
 40
0.0417496227283498
 40
0.0513565080142309
 40
0.0513565080142309
 40
0.0513565080142309
 40
0.0513565080142309
 10
9.459276371699999
 20
6.5388027808
 30
0.0
 10
9.459276371699999
 20
6.542005098720689
 30
0.0
 10
9.458318492025284
 20
6.54874699995526
 30
0.0
 10
9.45479342318789
 20
6.558571412410583
 30
0.0
 10
9.449406211676246
 20
6.567902287977375
 30
0.0
 10
9.442660537503947
 20
6.575867232085744
 30
0.0
 10
9.437300815989209
 20
6.580067671422075
 30
0.0
 10
9.4345275314
 20
6.581668791799999
 30
0.0
 11
9.459276371699999
 21
6.5388027808
 31
0.0
 11
9.4580650773
 21
6.548333065499999
 31
0.0
 11
9.454549763799999
 21
6.558329110199999
 31
0.0
 11
9.449074534700001
 21
6.5678124325
 31
0.0
 11
9.4421753436
 21
6.5758547387
 31
0.0
 11
9.4345275314
 21
6.581668791799999
 31
0.0
  0
SPLINE
  5
312
330
1F
100
AcDbEntity
  8
0
  6
Continuous
 62
     7
100
AcDbSpline
210
0.0
220
0.0
230
1.0
 70
     8
 71
     3
 72
    10
 73
     6
 74
     4
 42
0.0000000001
 43
0.0000000001
 44
0.0000000001
 12
-0.8660266957483326
 22
-0.4999977622462174
 32
0.0
 13
-0.8681370298202597
 23
-0.4963245888074232
 33
0.0
 40
0.0
 40
0.0
 40
0.0
 40
0.0
 40
0.0013233967306025
 40
0.0026059239714628
 40
0.0038900758821864
 40
0.0038900758821864
 40
0.0038900758821864
 40
0.0038900758821864
 10
9.5572450065
 20
6.076076571499999
 30
0.0
 10
9.556862974200743
 20
6.075856006365378
 30
0.0
 10
9.556110638292782
 20
6.075421807531022
 30
0.0
 10
9.554987972528085
 20
6.074772938647265
 30
0.0
 10
9.554246296008537
 20
6.074346438456351
 30
0.0
 10
9.5538746894
 20
6.074133986399999
 30
0.0
 11
9.5572450065
 21
6.076076571499999
 31
0.0
 11
9.556098909600001
 21
6.075414876099999
 31
0.0
 11
9.554988206799999
 21
6.074773615299999
 31
0.0
 11
9.5538746894
 21
6.074133986399999
 31
0.0
  0
SPLINE
  5
313
330
1F
100
AcDbEntity
  8
0
  6
Continuous
 62
     7
100
AcDbSpline
210
0.0
220
0.0
230
1.0
 70
     8
 71
     3
 72
    13
 73
     9
 74
     7
 42
0.0000000001
 43
0.0000000001
 44
0.0000000001
 12
-0.8660266960990433
 22
-0.4999977616387651
 32
0.0
 13
-0.000019533142593
 23
-0.9999999998092281
 33
0.0
 40
0.0
 40
0.0
 40
0.0
 40
0.0
 40
0.1060523650758034
 40
0.2040123466915173
 40
0.294278756208533
 40
0.3780621666919695
 40
0.4574485243530577
 40
0.4970936345257867
 40
0.4970936345257867
 40
0.4970936345257867
 40
0.4970936345257867
 10
8.208753897399999
 20
6.842322261699999
 30
0.0
 10
8.178139170953302
 20
6.824646946648533
 30
0.0
 10
8.12116022049356
 20
6.787106648016571
 30
0.0
 10
8.047466584498671
 20
6.721796798806968
 30
0.0
 10
7.990317667148
 20
6.650748242656262
 30
0.0
 10
7.951089884653742
 20
6.575222921432022
 30
0.0
 10
7.934162440360136
 20
6.509047107125245
 30
0.0
 10
7.931691682631196
 20
6.469341544421721
 30
0.0
 10
7.9316914245
 20
6.456126507699999
 30
0.0
 11
8.208753897399999
 21
6.842322261699999
 31
0.0
 11
8.120491701499998
 21
6.783526947999999
 31
0.0
 11
8.047595669999999
 21
6.718087459999999
 31
0.0
 11
7.991545134799999
 21
6.647331808699999
 31
0.0
 11
7.953477570099999
 21
6.5726958898
 31
0.0
 11
7.9341655084
 21
6.495694343999999
 31
0.0
 11
7.9316914245
 21
6.456126507699999
 31
0.0
  0
SPLINE
  5
314
330
1F
100
AcDbEntity
  8
0
  6
Continuous
 62
     7
100
AcDbSpline
210
0.0
220
0.0
230
1.0
 70
     8
 71
     3
 72
    18
 73
    14
 74
    12
 42
0.0000000001
 43
0.0000000001
 44
0.0000000001
 12
0.9142032945253736
 22
-0.4052558898757087
 32
0.0
 13
0.8660266961445943
 23
0.4999977615598681
 33
0.0
 40
0.0
 40
0.0
 40
0.0
 40
0.0
 40
0.1187488446877834
 40
0.2429351678626644
 40
0.3713817229651639
 40
0.5027518301996289
 40
0.635606083206047
 40
0.7684525639647532
 40
0.8998015582093763
 40
1.028212854782219
 40
1.152352436975933
 40
1.271047133498852
 40
1.383348875872716
 40
1.383348875872716
 40
1.383348875872716
 40
1.383348875872716
 10
8.2580199555
 20
5.5737669912
 30
0.0
 10
8.294206817178217
 20
5.557725768291446
 30
0.0
 10
8.369960178546014
 20
5.528697147115321
 30
0.0
 10
8.48921682621966
 20
5.494957999282314
 30
0.0
 10
8.614995147678218
 20
5.470453463645568
 30
0.0
 10
8.745168483330946
 20
5.455587403522599
 30
0.0
 10
8.877557304146147
 20
5.450599085120891
 30
0.0
 10
9.009939391512874
 20
5.455568789618647
 30
0.0
 10
9.140094693853153
 20
5.470413227045303
 30
0.0
 10
9.265839770235812
 20
5.49488693672049
 30
0.0
 10
9.385073327192909
 20
5.528592743175354
 30
0.0
 10
9.495780111019353
 20
5.570974052507822
 30
0.0
 10
9.564745073726893
 20
5.605608434231265
 30
0.0
 10
9.5971638427
 20
5.6243253075
 30
0.0
 11
8.2580199555
 21
5.5737669912
 31
0.0
 11
8.3688039159
 21
5.5310095096
 31
0.0
 11
8.488241266799999
 21
5.4969953644
 31
0.0
 11
8.6142891601
 21
5.472288156699999
 31
0.0
 11
8.744800980299999
 21
5.4572958299
 31
0.0
 11
8.877559946699999
 21
5.452264986799999
 31
0.0
 11
9.0103118429
 21
5.457277122599999
 31
0.0
 11
9.140804967399999
 21
5.472247184299999
 31
0.0
 11
9.266822728799999
 21
5.496924803699999
 31
0.0
 11
9.3862229295
 21
5.530898733999999
 31
0.0
 11
9.496969362799999
 21
5.573603048699999
 31
0.0
 11
9.5971638427
 21
5.6243253075
 31
0.0
  0
SPLINE
  5
315
330
1F
100
AcDbEntity
  8
0
  6
Continuous
 62
     7
100
AcDbSpline
210
0.0
220
0.0
230
1.0
 70
     8
 71
     3
 72
    10
 73
     6
 74
     4
 42
0.0000000001
 43
0.0000000001
 44
0.0000000001
 12
0.8660266957483326
 22
0.4999977622462174
 32
0.0
 13
0.8681370298202597
 23
0.4963245888074232
 33
0.0
 40
0.0
 40
0.0
 40
0.0
 40
0.0
 40
0.0013233967306025
 40
0.0026059239214611
 40
0.003890075881996
 40
0.003890075881996
 40
0.003890075881996
 40
0.003890075881996
 10
8.1981143882
 20
6.860671517
 30
0.0
 10
8.198496420499257
 20
6.860892082134621
 30
0.0
 10
8.199248756368955
 20
6.861326281001968
 30
0.0
 10
8.200371422238118
 20
6.861975149704439
 30
0.0
 10
8.201113098677048
 20
6.862401650035407
 30
0.0
 10
8.2014847053
 20
6.8626141021
 30
0.0
 11
8.1981143882
 21
6.860671517
 31
0.0
 11
8.199260485099999
 21
6.861333212399999
 31
0.0
 11
8.2003711879
 21
6.861974473099999
 31
0.0
 11
8.2014847053
 21
6.8626141021
 31
0.0
  0
SPLINE
  5
316
330
1F
100
AcDbEntity
  8
0
  6
Continuous
 62
     7
100
AcDbSpline
210
0.0
220
0.0
230
1.0
 70
     8
 71
     3
 72
    10
 73
     6
 74
     4
 42
0.0000000001
 43
0.0000000001
 44
0.0000000001
 12
-0.8681370334170418
 22
-0.4963245825161778
 32
0.0
 13
-0.8660266992904796
 23
-0.4999977561110022
 33
0.0
 40
0.0
 40
0.0
 40
0.0
 40
0.0
 40
0.0012650893112105
 40
0.0025291485197669
 40
0.0037921766981426
 40
0.0037921766981426
 40
0.0037921766981426
 40
0.0037921766981426
 10
8.212042035099999
 20
6.8442113714
 30
0.0
 10
8.211675944806119
 20
6.844002073091922
 30
0.0
 10
8.210944356773662
 20
6.843583131584948
 30
0.0
 10
8.209848309442246
 20
6.842953428397421
 30
0.0
 10
8.209118502774808
 20
6.842532765451696
 30
0.0
 10
8.208753897399999
 20
6.842322261699999
 30
0.0
 11
8.212042035099999
 21
6.8442113714
 31
0.0
 11
8.2109442069
 21
6.8435827028
 31
0.0
 11
8.209848159999999
 21
6.842952998999999
 31
0.0
 11
8.208753897399999
 21
6.842322261699999
 31
0.0
  0
SPLINE
  5
317
330
1F
100
AcDbEntity
  8
0
  6
Continuous
 62
     7
100
AcDbSpline
210
0.0
220
0.0
230
1.0
 70
     8
 71
     3
 72
    10
 73
     6
 74
     4
 42
0.0000000001
 43
0.0000000001
 44
0.0000000001
 12
-0.8689544551870049
 22
-0.4948920637984157
 32
0.0
 13
-0.8660266947404597
 23
-0.4999977639919151
 33
0.0
 40
0.0
 40
0.0
 40
0.0
 40
0.0
 40
0.0018337111131864
 40
0.0036642005228105
 40
0.0054961498633263
 40
0.0054961498633263
 40
0.0054961498633263
 40
0.0054961498633263
 10
8.1850331916
 20
6.873756033899999
 30
0.0
 10
8.18450205445289
 20
6.873453537540927
 30
0.0
 10
8.183442653253631
 20
6.872845668385776
 30
0.0
 10
8.181857400761105
 20
6.871927306706647
 30
0.0
 10
8.180798173210765
 20
6.871320321324668
 30
0.0
 10
8.1802693342
 20
6.871014997799999
 30
0.0
 11
8.1850331916
 21
6.873756033899999
 31
0.0
 11
8.1834423572
 21
6.872844034799999
 31
0.0
 11
8.1818571045
 21
6.871928794199999
 31
0.0
 11
8.1802693342
 21
6.871014997799999
 31
0.0
  0
SPLINE
  5
318
330
1F
100
AcDbEntity
  8
0
  6
Continuous
 62
     7
100
AcDbSpline
210
0.0
220
0.0
230
1.0
 70
     8
 71
     3
 72
    20
 73
    16
 74
    14
 42
0.0000000001
 43
0.0000000001
 44
0.0000000001
 12
0.0000195330938385
 22
0.9999999998092292
 32
0.0
 13
-0.9963567971464225
 23
-0.085282664006953
 33
0.0
 40
0.0
 40
0.0
 40
0.0
 40
0.0
 40
0.0383063682472421
 40
0.1176402922413648
 40
0.2013283288224775
 40
0.2914709497346015
 40
0.389293589699838
 40
0.4952078482557136
 40
0.6089542023995868
 40
0.729749618615656
 40
0.8564153328142429
 40
0.987483722285985
 40
1.121289730400536
 40
1.256052540993133
 40
1.331003639144106
 40
1.331003639144106
 40
1.331003639144106
 40
1.331003639144106
 10
9.823667970199998
 20
6.4561265082
 30
0.0
 10
9.82366821961396
 20
6.468895297613311
 30
0.0
 10
9.821310568788762
 20
6.508133832662078
 30
0.0
 10
9.804778411149172
 20
6.573897682628113
 30
0.0
 10
9.765868129790959
 20
6.649487870857059
 30
0.0
 10
9.709017786604622
 20
6.720623070943936
 30
0.0
 10
9.635584788692915
 20
6.786046756534889
 30
0.0
 10
9.547090703450406
 20
6.844641921332547
 30
0.0
 10
9.445287949109815
 20
6.895350609505659
 30
0.0
 10
9.332179384525549
 20
6.937221273451334
 30
0.0
 10
9.210000799089296
 20
6.969444403379247
 30
0.0
 10
9.081179159637148
 20
6.991386155081669
 30
0.0
 10
8.948289491258167
 20
7.002610748836838
 30
0.0
 10
8.833646075533257
 20
7.00285177498589
 30
0.0
 10
8.76385104839877
 20
6.998519603940187
 30
0.0
 10
8.7389583697
 20
6.996388927499999
 30
0.0
 11
9.823667970199998
 21
6.4561265082
 31
0.0
 11
9.821358531199999
 21
6.494363196599999
 31
0.0
 11
9.8023724182
 21
6.571391756299999
 31
0.0
 11
9.764620845999999
 21
6.6460811549
 31
0.0
 11
9.7088699348
 21
6.7169156663
 31
0.0
 11
9.6362510782
 21
6.7824577944
 31
0.0
 11
9.548237983199999
 21
6.8413774454
 31
0.0
 11
9.446616763199999
 21
6.892478920199999
 31
0.0
 11
9.3334496913
 21
6.9347251794
 31
0.0
 11
9.211033348899999
 21
6.9672588891
 31
0.0
 11
9.081852019400001
 21
6.989419819299999
 31
0.0
 11
8.948527273099999
 21
7.0007582421
 31
0.0
 11
8.8137647656
 21
7.001044058699999
 31
0.0
 11
8.7389583697
 21
6.996388927499999
 31
0.0
  0
SPLINE
  5
319
330
1F
100
AcDbEntity
  8
0
  6
Continuous
 62
     7
100
AcDbSpline
210
0.0
220
0.0
230
1.0
 70
     8
 71
     3
 72
     8
 73
     4
 74
     2
 42
0.0000000001
 43
0.0000000001
 44
0.0000000001
 12
-0.9072287900125424
 22
-0.420637519216223
 32
0.0
 13
-0.8681370297690577
 23
-0.4963245888969822
 33
0.0
 40
0.0
 40
0.0
 40
0.0
 40
0.0
 40
0.0823937171148863
 40
0.0823937171148863
 40
0.0823937171148863
 40
0.0823937171148863
 10
8.285285706999999
 20
6.8819484771
 30
0.0
 10
8.260369056239074
 20
6.870395847511264
 30
0.0
 10
8.235885047382582
 20
6.85784271399158
 30
0.0
 10
8.212042035099999
 20
6.8442113714
 30
0.0
 11
8.285285706999999
 21
6.8819484771
 31
0.0
 11
8.212042035099999
 21
6.8442113714
 31
0.0
  0
SPLINE
  5
31A
330
1F
100
AcDbEntity
  8
0
  6
Continuous
 62
     7
100
AcDbSpline
210
0.0
220
0.0
230
1.0
 70
     8
 71
     3
 72
     8
 73
     4
 74
     2
 42
0.0000000001
 43
0.0000000001
 44
0.0000000001
 12
0.7927804567427332
 22
-0.609507298895414
 32
0.0
 13
0.7950529498604207
 23
-0.6065400291145208
 33
0.0
 40
0.0
 40
0.0
 40
0.0
 40
0.0
 40
0.0027652966012875
 40
0.0027652966012875
 40
0.0027652966012875
 40
0.0027652966012875
 10
8.097220680599999
 20
5.701356411299999
 30
0.0
 10
8.097951438300865
 20
5.700794588479301
 30
0.0
 10
8.098683250793303
 20
5.700234134993685
 30
0.0
 10
8.099416103200001
 20
5.6996750473
 30
0.0
 11
8.097220680599999
 21
5.701356411299999
 31
0.0
 11
8.099416103200001
 21
5.6996750473
 31
0.0
  0
SPLINE
  5
31B
330
1F
100
AcDbEntity
  8
0
  6
Continuous
 62
     7
100
AcDbSpline
210
0.0
220
0.0
230
1.0
 70
     8
 71
     3
 72
     8
 73
     4
 74
     2
 42
0.0000000001
 43
0.0000000001
 44
0.0000000001
 12
0.7950529461572961
 22
-0.6065400339685781
 32
0.0
 13
0.7959008595010192
 23
-0.6054269748248246
 33
0.0
 40
0.0
 40
0.0
 40
0.0
 40
0.0
 40
0.001040211339017
 40
0.001040211339017
 40
0.001040211339017
 40
0.001040211339017
 10
8.099416103200001
 20
5.6996750473
 30
0.0
 10
8.099691777563238
 20
5.699464737359699
 30
0.0
 10
8.099967599333737
 20
5.699254620501386
 30
0.0
 10
8.100243567699999
 20
5.699044696499999
 30
0.0
 11
8.099416103200001
 21
5.6996750473
 31
0.0
 11
8.100243567699999
 21
5.699044696499999
 31
0.0
  0
SPLINE
  5
31C
330
1F
100
AcDbEntity
  8
0
  6
Continuous
 62
     7
100
AcDbSpline
210
0.0
220
0.0
230
1.0
 70
     8
 71
     3
 72
     8
 73
     4
 74
     2
 42
0.0000000001
 43
0.0000000001
 44
0.0000000001
 12
-0.8660266965101291
 22
-0.4999977609267391
 32
0.0
 13
-0.8325893040596906
 23
-0.5538908292844359
 33
0.0
 40
0.0
 40
0.0
 40
0.0
 40
0.0
 40
0.0544017112924829
 40
0.0544017112924829
 40
0.0544017112924829
 40
0.0544017112924829
 10
8.1981143882
 20
6.860671517
 30
0.0
 10
8.182409943428291
 20
6.851604605721058
 30
0.0
 10
8.166967629014887
 20
6.842063325394095
 30
0.0
 10
8.151869534699999
 20
6.8320191224
 30
0.0
 11
8.1981143882
 21
6.860671517
 31
0.0
 11
8.151869534699999
 21
6.8320191224
 31
0.0
  0
SPLINE
  5
31D
330
1F
100
AcDbEntity
  8
0
  6
Continuous
 62
     7
100
AcDbSpline
210
0.0
220
0.0
230
1.0
 70
     8
 71
     3
 72
    29
 73
    25
 74
    23
 42
0.0000000001
 43
0.0000000001
 44
0.0000000001
 12
-0.832589303888324
 22
-0.553890829542028
 32
0.0
 13
0.8695084317618967
 23
0.4939180975576485
 33
0.0
 40
0.0
 40
0.0
 40
0.0
 40
0.0
 40
0.0534113279105753
 40
0.1530105726885252
 40
0.2447062188738089
 40
0.3296030918232331
 40
0.4102848859833141
 40
0.4893646123895943
 40
0.5699333960435253
 40
0.654862349186701
 40
0.7464037329568086
 40
0.845813651948799
 40
0.9534238088658742
 40
1.068940698203137
 40
1.191586807936291
 40
1.320120281730017
 40
1.45304356493545
 40
1.588774880352451
 40
1.725528532263789
 40
1.86151336081449
 40
1.994663347175045
 40
2.123932054161266
 40
2.247442016664665
 40
2.361166590280007
 40
2.361166590280007
 40
2.361166590280007
 40
2.361166590280007
 10
8.151869534699999
 20
6.8320191224
 30
0.0
 10
8.137046301258394
 20
6.82215777415889
 30
0.0
 10
8.095509284477058
 20
6.792505866507227
 30
0.0
 10
8.03421412265596
 20
6.738169827403078
 30
0.0
 10
7.976213931082909
 20
6.666021700529394
 30
0.0
 10
7.936399664068682
 20
6.589332508058484
 30
0.0
 10
7.915971649994165
 20
6.509568107781708
 30
0.0
 10
7.915792916248088
 20
6.428614045904153
 30
0.0
 10
7.935870228231149
 20
6.348787462684624
 30
0.0
 10
7.975364302288901
 20
6.27201653519404
 30
0.0
 10
8.033081500292158
 20
6.199766010974221
 30
0.0
 10
8.107673237335937
 20
6.133284827662516
 30
0.0
 10
8.197569631859881
 20
6.073747600478142
 30
0.0
 10
8.300957189221559
 20
6.022236669689728
 30
0.0
 10
8.415779144409134
 20
5.979715627398653
 30
0.0
 10
8.539750562505389
 20
5.946995515646031
 30
0.0
 10
8.670422922059028
 20
5.924700278258944
 30
0.0
 10
8.805229601856883
 20
5.913260774655497
 30
0.0
 10
8.941537602369107
 20
5.912907327782368
 30
0.0
 10
9.076561997767012
 20
5.923656584218111
 30
0.0
 10
9.207750410686404
 20
5.945313720247387
 30
0.0
 10
9.332496935818069
 20
5.977490964341729
 30
0.0
 10
9.447489398286831
 20
6.019316923614244
 30
0.0
 10
9.51870291541431
 20
6.054150860518118
 30
0.0
 10
9.5516644073
 20
6.0728744022
 30
0.0
 11
8.151869534699999
 21
6.8320191224
 31
0.0
 11
8.108438850499998
 21
6.800929805599999
 31
0.0
 11
8.034333828099999
 21
6.734383166199999
 31
0.0
 11
7.977416595299999
 21
6.662490745599999
 31
0.0
 11
7.9388491583
 21
6.5868598535
 31
0.0
 11
7.9192096645
 21
6.508604871599999
 31
0.0
 11
7.919038700099999
 21
6.429525329999999
 31
0.0
 11
7.9383191159
 21
6.351297493099999
 31
0.0
 11
7.976619263999999
 21
6.2754949487
 31
0.0
 11
8.0332181756
 21
6.2035478282
 31
0.0
 11
8.1070031053
 21
6.1369286407
 31
0.0
 11
8.196418781
 21
6.0770555849
 31
0.0
 11
8.2996167348
 21
6.0251486099
 31
0.0
 11
8.4145123874
 21
5.9822410669
 31
0.0
 11
8.5387278842
 21
5.9492052645
 31
0.0
 11
8.6697310669
 21
5.926693815399999
 31
0.0
 11
8.8049696497
 21
5.9151389157
 31
0.0
 11
8.9417228357
 21
5.9147819424
 31
0.0
 11
9.077272914099999
 21
5.925647016799999
 31
0.0
 11
9.2086198577
 21
5.947485040399999
 31
0.0
 11
9.333731576599999
 21
5.9800035951
 31
0.0
 11
9.4496867979
 21
6.022537081799999
 31
0.0
 11
9.5516644073
 21
6.0728744022
 31
0.0
  0
SPLINE
  5
31E
330
1F
100
AcDbEntity
  8
0
  6
Continuous
 62
     7
100
AcDbSpline
210
0.0
220
0.0
230
1.0
 70
     8
 71
     3
 72
     8
 73
     4
 74
     2
 42
0.0000000001
 43
0.0000000001
 44
0.0000000001
 12
0.8695084262016973
 22
0.4939181073459926
 32
0.0
 13
0.8681370271475516
 23
0.496324593482341
 33
0.0
 40
0.0
 40
0.0
 40
0.0
 40
0.0
 40
0.0025439927905695
 40
0.0025439927905695
 40
0.0025439927905695
 40
0.0025439927905695
 10
9.5516644073
 20
6.0728744022
 30
0.0
 10
9.552401748355865
 20
6.073293243568073
 30
0.0
 10
9.553138511287237
 20
6.073713104337465
 30
0.0
 10
9.5538746894
 20
6.074133986399999
 30
0.0
 11
9.5516644073
 21
6.0728744022
 31
0.0
 11
9.5538746894
 21
6.074133986399999
 31
0.0
  0
SPLINE
  5
31F
330
1F
100
AcDbEntity
  8
0
  6
Continuous
 62
     7
100
AcDbSpline
210
0.0
220
0.0
230
1.0
 70
     8
 71
     3
 72
    19
 73
    15
 74
    13
 42
0.0000000001
 43
0.0000000001
 44
0.0000000001
 12
-0.866026696128284
 22
-0.4999977615881186
 32
0.0
 13
-0.8459114433543453
 23
0.5333233822008637
 33
0.0
 40
0.0
 40
0.0
 40
0.0
 40
0.0
 40
0.1172145133223324
 40
0.241489762738856
 40
0.371611018338598
 40
0.5058623536056448
 40
0.6434293539144282
 40
0.7823488150563575
 40
0.9207166526550619
 40
1.056828950117855
 40
1.189250618559267
 40
1.316652398776602
 40
1.43754348173687
 40
1.531250983528436
 40
1.531250983528436
 40
1.531250983528436
 40
1.531250983528436
 10
9.5971638427
 20
5.991751395199999
 30
0.0
 10
9.563326876796391
 20
5.972215730437731
 30
0.0
 10
9.491124985783862
 20
5.936182875024072
 30
0.0
 10
9.374995087887935
 20
5.892558041934625
 30
0.0
 10
9.249833656196798
 20
5.85844867566082
 30
0.0
 10
9.117868107933102
 20
5.834429561095372
 30
0.0
 10
8.981475324453539
 20
5.820929763158429
 30
0.0
 10
8.843074784082057
 20
5.81821437490054
 30
0.0
 10
8.705370744612165
 20
5.826336941193589
 30
0.0
 10
8.570893705354004
 20
5.845129543953413
 30
0.0
 10
8.442002963274052
 20
5.874259254630666
 30
0.0
 10
8.321034460589693
 20
5.91322395260208
 30
0.0
 10
8.216279021968356
 20
5.958707033304704
 30
0.0
 10
8.153750621764544
 20
5.993713008602308
 30
0.0
 10
8.1273278724
 20
6.010371809199999
 30
0.0
 11
9.5971638427
 21
5.991751395199999
 31
0.0
 11
9.492466918799999
 21
5.9390465922
 31
0.0
 11
9.3762428546
 21
5.8950431319
 31
0.0
 11
9.2507616158
 21
5.860604783099999
 31
0.0
 11
9.118708332799998
 21
5.8364107452
 31
0.0
 11
8.9818187073
 21
5.8227758633
 31
0.0
 11
8.842926311199999
 21
5.8200337857
 31
0.0
 11
8.7048015709
 21
5.828232236699999
 31
0.0
 11
8.5700158872
 21
5.847189477799999
 31
0.0
 11
8.4408948198
 21
5.876570563999999
 31
0.0
 11
8.3197135011
 21
5.915893605599999
 31
0.0
 11
8.2089692879
 21
5.964374253099999
 31
0.0
 11
8.1273278724
 21
6.010371809199999
 31
0.0
  0
SPLINE
  5
320
330
1F
100
AcDbEntity
  8
0
  6
Continuous
 62
     7
100
AcDbSpline
210
0.0
220
0.0
230
1.0
 70
     8
 71
     3
 72
    14
 73
    10
 74
     8
 42
0.0000000001
 43
0.0000000001
 44
0.0000000001
 12
-0.8459114433809572
 22
0.5333233821586539
 32
0.0
 13
0.0002778766464637
 23
0.9999999613922838
 33
0.0
 40
0.0
 40
0.0
 40
0.0
 40
0.0
 40
0.0197359619745825
 40
0.1251673324473624
 40
0.222678875912833
 40
0.312853532743689
 40
0.397249610331271
 40
0.4781515279397249
 40
0.4986525828948484
 40
0.4986525828948484
 40
0.4986525828948484
 40
0.4986525828948484
 10
8.1273278724
 20
6.010371809199999
 30
0.0
 10
8.121762913706524
 20
6.013880359196812
 30
0.0
 10
8.086717408680227
 20
6.036517348001816
 30
0.0
 10
8.027221161025206
 20
6.081327064918646
 30
0.0
 10
7.958327766707206
 20
6.151170160270991
 30
0.0
 10
7.906336081615942
 20
6.226128001681704
 30
0.0
 10
7.872426275308889
 20
6.304920131393205
 30
0.0
 10
7.861191855221951
 20
6.366475737061328
 30
0.0
 10
7.860184002878533
 20
6.400274503678792
 30
0.0
 10
7.860185901799999
 20
6.4071081884
 30
0.0
 11
8.1273278724
 21
6.010371809199999
 31
0.0
 11
8.1107510485
 21
6.021082416299999
 31
0.0
 11
8.026865912799999
 21
6.084949918899999
 31
0.0
 11
7.9588298409
 21
6.1548040099
 31
0.0
 11
7.907950004099999
 21
6.229253394999999
 31
0.0
 11
7.875076521599999
 21
6.306983904199999
 31
0.0
 11
7.8608009469
 21
6.386616361399999
 31
0.0
 11
7.860185901799999
 21
6.4071081884
 31
0.0
  0
SPLINE
  5
321
330
1F
100
AcDbEntity
  8
0
  6
Continuous
 62
     7
100
AcDbSpline
210
0.0
220
0.0
230
1.0
 70
     8
 71
     3
 72
    25
 73
    21
 74
    19
 42
0.0000000001
 43
0.0000000001
 44
0.0000000001
 12
0.8660266961498711
 22
0.4999977615507284
 32
0.0
 13
-0.9946179319665681
 23
-0.1036106626296111
 33
0.0
 40
0.0
 40
0.0
 40
0.0
 40
0.0
 40
0.1077533021806601
 40
0.2073525469586106
 40
0.2990481931438936
 40
0.3839450661824042
 40
0.4646268602454922
 40
0.5437065867517731
 40
0.6242753704057032
 40
0.7092043234596264
 40
0.8007457072297345
 40
0.9001556262887389
 40
1.007765783205813
 40
1.123282672498143
 40
1.245928782231295
 40
1.374462256025024
 40
1.507385539230455
 40
1.643116854655969
 40
1.779870506567309
 40
1.886699907334029
 40
1.886699907334029
 40
1.886699907334029
 40
1.886699907334029
 10
9.5572450065
 20
6.076076571499999
 30
0.0
 10
9.588350751928919
 20
6.094035374796676
 30
0.0
 10
9.646261251574173
 20
6.132192288527683
 30
0.0
 10
9.721139831424654
 20
6.198574357064721
 30
0.0
 10
9.779146756616402
 20
6.270727315657946
 30
0.0
 10
9.818959413802822
 20
6.347415353083167
 30
0.0
 10
9.839387825876038
 20
6.427180038908144
 30
0.0
 10
9.83956645648033
 20
6.508134026798185
 30
0.0
 10
9.819489172766605
 20
6.587960630295281
 30
0.0
 10
9.779995090523026
 20
6.664731551889764
 30
0.0
 10
9.722277894926886
 20
6.736982077832498
 30
0.0
 10
9.64768615730164
 20
6.803463260713674
 30
0.0
 10
9.557789762601098
 20
6.863000488086533
 30
0.0
 10
9.454402206719606
 20
6.91451141861237
 30
0.0
 10
9.3395802450855
 20
6.957032461269764
 30
0.0
 10
9.215608852943544
 20
6.989752571728193
 30
0.0
 10
9.084936391665573
 20
7.012047814132358
 30
0.0
 10
8.950130102745541
 20
7.023487298474027
 30
0.0
 10
8.823550017439883
 20
7.023815585238209
 30
0.0
 10
8.742494489687942
 20
7.018076690300588
 30
0.0
 10
8.7070763438
 20
7.014387135299999
 30
0.0
 11
9.5572450065
 21
6.076076571499999
 31
0.0
 11
9.6469205442
 21
6.135818282799999
 31
0.0
 11
9.721025566599999
 21
6.2023649222
 31
0.0
 11
9.777942799399999
 21
6.274257342799999
 31
0.0
 11
9.816510236399999
 21
6.349888234999999
 31
0.0
 11
9.836149730199998
 21
6.428143216799999
 31
0.0
 11
9.836320694600001
 21
6.5072227585
 31
0.0
 11
9.8170402788
 21
6.585450595399999
 31
0.0
 11
9.778740130700001
 21
6.6612531397
 31
0.0
 11
9.722141219099999
 21
6.733200260199999
 31
0.0
 11
9.6483562894
 21
6.7998194478
 31
0.0
 11
9.5589406137
 21
6.859692503599999
 31
0.0
 11
9.4557426599
 21
6.9115994785
 31
0.0
 11
9.3408470073
 21
6.954507021499999
 31
0.0
 11
9.216631510499999
 21
6.9875428239
 31
0.0
 11
9.0856283278
 21
7.010054272999999
 31
0.0
 11
8.950389745
 21
7.021609172799999
 31
0.0
 11
8.813636558999998
 21
7.0219661461
 31
0.0
 11
8.7070763438
 21
7.014387135299999
 31
0.0
  0
SPLINE
  5
322
330
1F
100
AcDbEntity
  8
0
  6
Continuous
 62
     7
100
AcDbSpline
210
0.0
220
0.0
230
1.0
 70
     8
 71
     3
 72
     8
 73
     4
 74
     2
 42
0.0000000001
 43
0.0000000001
 44
0.0000000001
 12
-0.9117098852738859
 22
-0.4108346201257602
 32
0.0
 13
-0.9102501191183709
 23
-0.4140588371777517
 33
0.0
 40
0.0
 40
0.0
 40
0.0
 40
0.0
 40
0.0038000723495795
 40
0.0038000723495795
 40
0.0038000723495795
 40
0.0038000723495795
 10
8.2863169327
 20
6.9057136632
 30
0.0
 10
8.285162078191378
 20
6.90519326277327
 30
0.0
 10
8.284008139736288
 20
6.904670824612752
 30
0.0
 10
8.2828551343
 20
6.904146340099999
 30
0.0
 11
8.2863169327
 21
6.9057136632
 31
0.0
 11
8.2828551343
 21
6.904146340099999
 31
0.0
  0
SPLINE
  5
323
330
1F
100
AcDbEntity
  8
0
  6
Continuous
 62
     7
100
AcDbSpline
210
0.0
220
0.0
230
1.0
 70
     8
 71
     3
 72
     8
 73
     4
 74
     2
 42
0.0000000001
 43
0.0000000001
 44
0.0000000001
 12
-0.9102501151245068
 22
-0.4140588459576993
 32
0.0
 13
-0.8681370294639963
 23
-0.4963245894305746
 33
0.0
 40
0.0
 40
0.0
 40
0.0
 40
0.0
 40
0.0913568470829231
 40
0.0913568470829231
 40
0.0913568470829231
 40
0.0913568470829231
 10
8.2828551343
 20
6.904146340099999
 30
0.0
 10
8.255135940775119
 20
6.891537303208836
 30
0.0
 10
8.227921459249255
 20
6.877728318640034
 30
0.0
 10
8.2014847053
 20
6.8626141021
 30
0.0
 11
8.2828551343
 21
6.904146340099999
 31
0.0
 11
8.2014847053
 21
6.8626141021
 31
0.0
  0
SPLINE
  5
324
330
1F
100
AcDbEntity
  8
0
  6
Continuous
 62
     7
100
AcDbSpline
210
0.0
220
0.0
230
1.0
 70
     8
 71
     3
 72
    23
 73
    19
 74
    17
 42
0.0000000001
 43
0.0000000001
 44
0.0000000001
 12
-0.8689544537455805
 22
-0.4948920663293358
 32
0.0
 13
-0.1845676588936224
 23
0.9828198101842103
 33
0.0
 40
0.0
 40
0.0
 40
0.0
 40
0.0
 40
0.1191327261403248
 40
0.2455614505414158
 40
0.3778864976681712
 40
0.5143500112321506
 40
0.6539752344283944
 40
0.7944890537218887
 40
0.9338578809997313
 40
1.07025048730278
 40
1.202162045352853
 40
1.328023681716994
 40
1.446491945502886
 40
1.556746623403332
 40
1.658562873834817
 40
1.752353445247117
 40
1.839390183494254
 40
1.900577071281622
 40
1.900577071281622
 40
1.900577071281622
 40
1.900577071281622
 10
9.570326203099998
 20
6.0629920546
 30
0.0
 10
9.535819232111169
 20
6.043339440930989
 30
0.0
 10
9.462087532745439
 20
6.007299705446515
 30
0.0
 10
9.343487469988463
 20
5.96428569828336
 30
0.0
 10
9.215719796352981
 20
5.931408914776084
 30
0.0
 10
9.081227858122016
 20
5.909256584750904
 30
0.0
 10
8.942635702609621
 20
5.898266231388831
 30
0.0
 10
8.80264403057856
 20
5.898680583658151
 30
0.0
 10
8.664228825211175
 20
5.910487948567984
 30
0.0
 10
8.53011799861221
 20
5.933436499536899
 30
0.0
 10
8.402916029707288
 20
5.967080388565048
 30
0.0
 10
8.285130949415073
 20
6.010778445326053
 30
0.0
 10
8.17914370519083
 20
6.063673041736373
 30
0.0
 10
8.087058260167564
 20
6.124748255796682
 30
0.0
 10
8.010680384934376
 20
6.192898446765252
 30
0.0
 10
7.951576990022521
 20
6.2669332217623
 30
0.0
 10
7.914390321234099
 20
6.339237411899209
 30
0.0
 10
7.900888391944634
 20
6.387056778619686
 30
0.0
 10
7.8971240184
 20
6.4071020071
 30
0.0
 11
9.570326203099998
 21
6.0629920546
 31
0.0
 11
9.4634925608
 21
6.0102741325
 31
0.0
 11
9.344755286299999
 21
5.9668496924
 31
0.0
 11
9.216665630599999
 21
5.933638877899999
 31
0.0
 11
9.082041763300001
 21
5.911307176499999
 31
0.0
 11
8.942859484799999
 21
5.900194287399999
 31
0.0
 11
8.802346289299999
 21
5.900612979199999
 31
0.0
 11
8.663488704099998
 21
5.9125394644
 31
0.0
 11
8.529077563799999
 21
5.935703842599999
 31
0.0
 11
8.401615375599998
 21
5.969675149999999
 31
0.0
 11
8.283733931699998
 21
6.0137786271
 31
0.0
 11
8.1779350999
 21
6.0670828175
 31
0.0
 11
8.0863626796
 21
6.128487913699999
 31
0.0
 11
8.0108281794
 21
6.1967600759
 31
0.0
 11
7.952862379599999
 21
6.2704936323
 31
0.0
 11
7.913615841499999
 21
6.348179557999999
 31
0.0
 11
7.8971240184
 21
6.4071020071
 31
0.0
  0
SPLINE
  5
325
330
1F
100
AcDbEntity
  8
0
  6
Continuous
 62
     7
100
AcDbSpline
210
0.0
220
0.0
230
1.0
 70
     8
 71
     3
 72
     8
 73
     4
 74
     2
 42
0.0000000001
 43
0.0000000001
 44
0.0000000001
 12
-0.1845676508928024
 22
0.9828198116867163
 32
0.0
 13
-0.1781209914983258
 23
0.9840085936553874
 33
0.0
 40
0.0
 40
0.0
 40
0.0
 40
0.0
 40
0.0022274636766563
 40
0.0022274636766563
 40
0.0022274636766563
 40
0.0022274636766563
 10
7.8971240184
 20
6.4071020071
 30
0.0
 10
7.896986979153917
 20
6.40783173891041
 30
0.0
 10
7.896852326779537
 20
6.408561923033371
 30
0.0
 10
7.8967200741
 20
6.409292537499999
 30
0.0
 11
7.8971240184
 21
6.4071020071
 31
0.0
 11
7.8967200741
 21
6.409292537499999
 31
0.0
  0
SPLINE
  5
326
330
1F
100
AcDbEntity
  8
0
  6
Continuous
 62
     7
100
AcDbSpline
210
0.0
220
0.0
230
1.0
 70
     8
 71
     3
 72
    14
 73
    10
 74
     8
 42
0.0000000001
 43
0.0000000001
 44
0.0000000001
 12
-0.1781209793805852
 22
0.9840085958488884
 32
0.0
 13
0.8531517797429318
 23
0.5216627653201522
 33
0.0
 40
0.0
 40
0.0
 40
0.0
 40
0.0
 40
0.0192530586219164
 40
0.1002504668755322
 40
0.1829405268292088
 40
0.2700681390457518
 40
0.364269415710671
 40
0.4666638653677717
 40
0.554517572403938
 40
0.554517572403938
 40
0.554517572403938
 40
0.554517572403938
 10
7.8967200741
 20
6.409292537499999
 30
0.0
 10
7.895576949547397
 20
6.415607595893448
 30
0.0
 10
7.890556955964649
 20
6.448652546658778
 30
0.0
 10
7.890632576702073
 20
6.510346410959382
 30
0.0
 10
7.911483453900997
 20
6.59211396426108
 30
0.0
 10
7.952252195453243
 20
6.670867705305413
 30
0.0
 10
8.011782201923576
 20
6.74503234594397
 30
0.0
 10
8.082990842235062
 20
6.808211815555861
 30
0.0
 10
8.13550758172836
 20
6.843987836047961
 30
0.0
 10
8.160491763899999
 20
6.859264505299999
 30
0.0
 11
7.8967200741
 21
6.409292537499999
 31
0.0
 11
7.893835455399999
 21
6.4283282734
 31
0.0
 11
7.893947252
 21
6.5093256045
 31
0.0
 11
7.913984752999999
 21
6.589551189999999
 31
0.0
 11
7.9534792423
 21
6.667213317999999
 31
0.0
 11
8.011892176899999
 21
6.741117374699999
 31
0.0
 11
8.088047551499998
 21
6.8095643048
 31
0.0
 11
8.160491763899999
 21
6.859264505299999
 31
0.0
  0
SPLINE
  5
327
330
1F
100
AcDbEntity
  8
0
  6
Continuous
 62
     7
100
AcDbSpline
210
0.0
220
0.0
230
1.0
 70
     8
 71
     3
 72
     8
 73
     4
 74
     2
 42
0.0000000001
 43
0.0000000001
 44
0.0000000001
 12
0.8531517788068875
 22
0.5216627668510031
 32
0.0
 13
0.8660266980061134
 23
0.4999977583356027
 33
0.0
 40
0.0
 40
0.0
 40
0.0
 40
0.0
 40
0.0230049203642182
 40
0.0230049203642182
 40
0.0230049203642182
 40
0.0230049203642182
 10
8.160491763899999
 20
6.859264505299999
 30
0.0
 10
8.16703399347668
 20
6.863264775436127
 30
0.0
 10
8.173628375793027
 20
6.867180861595733
 30
0.0
 10
8.1802693342
 20
6.871014997799999
 30
0.0
 11
8.160491763899999
 21
6.859264505299999
 31
0.0
 11
8.1802693342
 21
6.871014997799999
 31
0.0
  0
SPLINE
  5
328
330
1F
100
AcDbEntity
  8
0
  6
Continuous
 62
     7
100
AcDbSpline
210
0.0
220
0.0
230
1.0
 70
     8
 71
     3
 72
     8
 73
     4
 74
     2
 42
0.0000000001
 43
0.0000000001
 44
0.0000000001
 12
-0.8660266957103281
 22
-0.4999977623120435
 32
0.0
 13
-0.8821686294376785
 23
-0.4709336569369912
 33
0.0
 40
0.0
 40
0.0
 40
0.0
 40
0.0
 40
0.032872568592275
 40
0.032872568592275
 40
0.032872568592275
 40
0.032872568592275
 10
9.5971638427
 20
6.0275032899
 30
0.0
 10
9.587674335380841
 20
6.02202455298747
 30
0.0
 10
9.578090125827047
 20
6.016706976713356
 30
0.0
 10
9.5684237429
 20
6.011546710399999
 30
0.0
 11
9.5971638427
 21
6.0275032899
 31
0.0
 11
9.5684237429
 21
6.011546710399999
 31
0.0
  0
SPLINE
  5
329
330
1F
100
AcDbEntity
  8
0
  6
Continuous
 62
     7
100
AcDbSpline
210
0.0
220
0.0
230
1.0
 70
     8
 71
     3
 72
     9
 73
     5
 74
     3
 42
0.0000000001
 43
0.0000000001
 44
0.0000000001
 12
-0.8821686290267802
 22
-0.4709336577066999
 32
0.0
 13
-0.9251911375787448
 23
-0.3795014610587787
 33
0.0
 40
0.0
 40
0.0
 40
0.0
 40
0.0
 40
0.0841656485851811
 40
0.1121129950093413
 40
0.1121129950093413
 40
0.1121129950093413
 40
0.1121129950093413
 10
9.5684237429
 20
6.011546710399999
 30
0.0
 10
9.543674311292154
 20
5.998334564819507
 30
0.0
 10
9.509960041935389
 20
5.982093383000463
 30
0.0
 10
9.475551197676825
 20
5.967511052033561
 30
0.0
 10
9.466932318599999
 20
5.963975699099999
 30
0.0
 11
9.5684237429
 21
6.011546710399999
 31
0.0
 11
9.492662799299999
 21
5.974884252399999
 31
0.0
 11
9.466932318599999
 21
5.963975699099999
 31
0.0
  0
SPLINE
  5
32A
330
1F
100
AcDbEntity
  8
0
  6
Continuous
 62
     7
100
AcDbSpline
210
0.0
220
0.0
230
1.0
 70
     8
 71
     3
 72
    23
 73
    19
 74
    17
 42
0.0000000001
 43
0.0000000001
 44
0.0000000001
 12
-0.9251911375906745
 22
-0.3795014610296952
 32
0.0
 13
-0.0947342781573385
 23
0.9955025949448891
 33
0.0
 40
0.0
 40
0.0
 40
0.0
 40
0.0
 40
0.0960457308941868
 40
0.225881675399818
 40
0.3602263895776305
 40
0.4975321786882203
 40
0.6361360352223614
 40
0.7743260078425707
 40
0.9104056494248586
 40
1.04275906484227
 40
1.169919200249046
 40
1.290642605498213
 40
1.403994819512163
 40
1.509451111455982
 40
1.607015460170606
 40
1.697351010125913
 40
1.781888518721674
 40
1.852858835953936
 40
1.852858835953936
 40
1.852858835953936
 40
1.852858835953936
 10
9.466932318599999
 20
5.963975699099999
 30
0.0
 10
9.437312098924426
 20
5.951825867366663
 30
0.0
 10
9.366492749884784
 20
5.926021246136984
 30
0.0
 10
9.250500419536844
 20
5.894353439931665
 30
0.0
 10
9.118694160906265
 20
5.870298944875256
 30
0.0
 10
8.982469239866077
 20
5.856747843439462
 30
0.0
 10
8.844322833659353
 20
5.853948648364311
 30
0.0
 10
8.706788157472473
 20
5.861952496242415
 30
0.0
 10
8.572386883709627
 20
5.880612818057646
 30
0.0
 10
8.44357921361243
 20
5.909588930915937
 30
0.0
 10
8.322715939918055
 20
5.948355488508044
 30
0.0
 10
8.211993194454581
 20
5.996218203624095
 30
0.0
 10
8.113413023631746
 20
6.052336739771451
 30
0.0
 10
8.028755875665769
 20
6.115756116683431
 30
0.0
 10
7.959575470479553
 20
6.185437933822917
 30
0.0
 10
7.907229824588438
 20
6.260282057204216
 30
0.0
 10
7.874264464236159
 20
6.335976254615446
 30
0.0
 10
7.863946290157865
 20
6.387194893877074
 30
0.0
 10
7.861705182899999
 20
6.4107452722
 30
0.0
 11
9.466932318599999
 21
5.963975699099999
 31
0.0
 11
9.3767407132
 21
5.930956663099999
 31
0.0
 11
9.2515504096
 21
5.8965363149
 31
0.0
 11
9.119416836399999
 21
5.872262438799999
 31
0.0
 11
8.982793887499999
 21
5.8585858326
 31
0.0
 11
8.844218830299999
 21
5.855760488699999
 31
0.0
 11
8.706265185299999
 21
5.8638388774
 31
0.0
 11
8.5714949325
 21
5.882670972699999
 31
0.0
 11
8.442410932399999
 21
5.911907037599999
 31
0.0
 11
8.321410444099999
 21
5.951004120199999
 31
0.0
 11
8.210740605399999
 21
5.999236136299999
 31
0.0
 11
8.112456700399999
 21
6.055707354099999
 31
0.0
 11
8.02838399
 21
6.119369029199999
 31
0.0
 11
7.960083814699999
 21
6.189038880599999
 31
0.0
 11
7.9088245984
 21
6.263423047799999
 31
0.0
 11
7.875558292
 21
6.3411401194
 31
0.0
 11
7.861705182899999
 21
6.4107452722
 31
0.0
  0
SPLINE
  5
32B
330
1F
100
AcDbEntity
  8
0
  6
Continuous
 62
     7
100
AcDbSpline
210
0.0
220
0.0
230
1.0
 70
     8
 71
     3
 72
     9
 73
     5
 74
     3
 42
0.0000000001
 43
0.0000000001
 44
0.0000000001
 12
-0.0947342790967601
 22
0.9955025948554915
 32
0.0
 13
0.0003479389172053
 23
0.9999999394692531
 33
0.0
 40
0.0
 40
0.0
 40
0.0
 40
0.0
 40
0.010033658061168
 40
0.0321867149708521
 40
0.0321867149708521
 40
0.0321867149708521
 40
0.0321867149708521
 10
7.861705182899999
 20
6.4107452722
 30
0.0
 10
7.86138833911229
 20
6.414074783078596
 30
0.0
 10
7.860529407689642
 20
6.424770332876059
 30
0.0
 10
7.860183657896455
 20
6.435503903543752
 30
0.0
 10
7.8601862272
 20
6.442888255399999
 30
0.0
 11
7.861705182899999
 21
6.4107452722
 31
0.0
 11
7.8609026944
 21
6.420746787399999
 31
0.0
 11
7.8601862272
 21
6.442888255399999
 31
0.0
  0
SPLINE
  5
32C
330
1F
100
AcDbEntity
  8
0
  6
Continuous
 62
     7
100
AcDbSpline
210
0.0
220
0.0
230
1.0
 70
     8
 71
     3
 72
     9
 73
     5
 74
     3
 42
0.0000000001
 43
0.0000000001
 44
0.0000000001
 12
0.8689544537962547
 22
0.4948920662403594
 32
0.0
 13
0.9237453580741828
 23
0.3830071976300182
 33
0.0
 40
0.0
 40
0.0
 40
0.0
 40
0.0
 40
0.1191327260960753
 40
0.1305394860244676
 40
0.1305394860244676
 40
0.1305394860244676
 40
0.1305394860244676
 10
8.1850331916
 20
6.873756033899999
 30
0.0
 10
8.219540162578025
 20
6.893408647558177
 30
0.0
 10
8.258759431907696
 20
6.912577223319461
 30
0.0
 10
8.298869863355159
 20
6.929438268115262
 30
0.0
 10
8.3023821772
 20
6.9308945585
 30
0.0
 11
8.1850331916
 21
6.873756033899999
 31
0.0
 11
8.2918668339
 21
6.9264739559
 31
0.0
 11
8.3023821772
 21
6.9308945585
 31
0.0
  0
SPLINE
  5
32D
330
1F
100
AcDbEntity
  8
0
  6
Continuous
 62
     7
100
AcDbSpline
210
0.0
220
0.0
230
1.0
 70
     8
 71
     3
 72
     8
 73
     4
 74
     2
 42
0.0000000001
 43
0.0000000001
 44
0.0000000001
 12
0.92374535764623
 22
0.3830071986621642
 32
0.0
 13
0.9277305362701577
 23
0.3732506558224453
 33
0.0
 40
0.0
 40
0.0
 40
0.0
 40
0.0
 40
0.0123757662366879
 40
0.0123757662366879
 40
0.0123757662366879
 40
0.0123757662366879
 10
8.3023821772
 20
6.9308945585
 30
0.0
 10
8.306192862736152
 20
6.932474561019204
 30
0.0
 10
8.310011987684161
 20
6.93403435651195
 30
0.0
 10
8.3138391131
 20
6.9355741108
 30
0.0
 11
8.3023821772
 21
6.9308945585
 31
0.0
 11
8.3138391131
 21
6.9355741108
 31
0.0
  0
SPLINE
  5
32E
330
1F
100
AcDbEntity
  8
0
  6
Continuous
 62
     7
100
AcDbSpline
210
0.0
220
0.0
230
1.0
 70
     8
 71
     3
 72
    14
 73
    10
 74
     8
 42
0.0000000001
 43
0.0000000001
 44
0.0000000001
 12
0.9934320268878622
 22
0.1144238085079916
 32
0.0
 13
0.8645739596954824
 23
-0.5025055902340534
 33
0.0
 40
0.0
 40
0.0
 40
0.0
 40
0.0
 40
0.12813267381791
 40
0.2686464931111062
 40
0.4080153203975046
 40
0.544407926700556
 40
0.6763194847248757
 40
0.8021811210890142
 40
0.9206493849199038
 40
0.9206493849199038
 40
0.9206493849199038
 40
0.9206493849199038
 10
8.684739251199999
 20
7.0267969476
 30
0.0
 10
8.727169618487161
 20
7.031684090444185
 30
0.0
 10
8.816562174041976
 20
7.038470959417508
 30
0.0
 10
8.952714369441714
 20
7.038067417559188
 30
0.0
 10
9.091131067300768
 20
7.026260024803027
 30
0.0
 10
9.225240412523893
 20
7.003312113484968
 30
0.0
 10
9.352446633137152
 20
6.96966582051936
 30
0.0
 10
9.470217192676967
 20
6.925976149950763
 30
0.0
 10
9.543282769480493
 20
6.889508925846782
 30
0.0
 10
9.5774242948
 20
6.8696652709
 30
0.0
 11
8.684739251199999
 21
7.0267969476
 31
0.0
 11
8.812499909899999
 21
7.036553801
 31
0.0
 11
8.9530131054
 21
7.036135109299999
 31
0.0
 11
9.091870690599998
 21
7.024208623999999
 31
0.0
 11
9.226281830899999
 21
7.0010442458
 31
0.0
 11
9.3537440191
 21
6.9670729385
 31
0.0
 11
9.471625462999998
 21
6.9229694614
 31
0.0
 11
9.5774242948
 21
6.8696652709
 31
0.0
  0
SPLINE
  5
32F
330
1F
100
AcDbEntity
  8
0
  6
Continuous
 62
     7
100
AcDbSpline
210
0.0
220
0.0
230
1.0
 70
     8
 71
     3
 72
     8
 73
     4
 74
     2
 42
0.0000000001
 43
0.0000000001
 44
0.0000000001
 12
0.8645739580826042
 22
-0.5025055930090521
 32
0.0
 13
0.8628717042927773
 23
-0.5054230128623725
 33
0.0
 40
0.0
 40
0.0
 40
0.0
 40
0.0
 40
0.0031346603939341
 40
0.0031346603939341
 40
0.0031346603939341
 40
0.0031346603939341
 10
9.5774242948
 20
6.8696652709
 30
0.0
 10
9.578327676714676
 20
6.869140209439954
 30
0.0
 10
9.579230176247836
 20
6.868613626833535
 30
0.0
 10
9.5801317795
 20
6.868085517
 30
0.0
 11
9.5774242948
 21
6.8696652709
 31
0.0
 11
9.5801317795
 21
6.868085517
 31
0.0
  0
SPLINE
  5
330
330
1F
100
AcDbEntity
  8
0
  6
Continuous
 62
     7
100
AcDbSpline
210
0.0
220
0.0
230
1.0
 70
     8
 71
     3
 72
     8
 73
     4
 74
     2
 42
0.0000000001
 43
0.0000000001
 44
0.0000000001
 12
0.8628716986149344
 22
-0.5054230225557376
 32
0.0
 13
0.8554632448570666
 23
-0.5178635309602504
 33
0.0
 40
0.0
 40
0.0
 40
0.0
 40
0.0
 40
0.0131977868415209
 40
0.0131977868415209
 40
0.0131977868415209
 40
0.0131977868415209
 10
9.5801317795
 20
6.868085517
 30
0.0
 10
9.583927778416633
 20
6.865862028561171
 30
0.0
 10
9.587708014314539
 20
6.863611394398204
 30
0.0
 10
9.591471421499999
 20
6.8613331769
 30
0.0
 11
9.5801317795
 21
6.868085517
 31
0.0
 11
9.591471421499999
 21
6.8613331769
 31
0.0
  0
SPLINE
  5
331
330
1F
100
AcDbEntity
  8
0
  6
Continuous
 62
     7
100
AcDbSpline
210
0.0
220
0.0
230
1.0
 70
     8
 71
     3
 72
    14
 73
    10
 74
     8
 42
0.0000000001
 43
0.0000000001
 44
0.0000000001
 12
0.8554632446882918
 22
-0.5178635312390514
 32
0.0
 13
-0.1781548793520935
 23
-0.9840024588196115
 33
0.0
 40
0.0
 40
0.0
 40
0.0
 40
0.0
 40
0.0939516616446599
 40
0.1957679120019582
 40
0.2895584833356422
 40
0.3765952215827796
 40
0.4591487209303859
 40
0.5401461291840009
 40
0.5584999673253311
 40
0.5584999673253311
 40
0.5584999673253311
 40
0.5584999673253311
 10
9.591471421499999
 20
6.8613331769
 30
0.0
 10
9.618262152604799
 20
6.845115130478307
 30
0.0
 10
9.672375122091363
 20
6.808365809591572
 30
0.0
 10
9.744677671590681
 20
6.74385088022335
 30
0.0
 10
9.803784694938574
 20
6.669811755126231
 30
0.0
 10
9.844244960433652
 20
6.591137429332894
 30
0.0
 10
9.864843707980545
 20
6.509385970985948
 30
0.0
 10
9.864746019921797
 20
6.448040014403009
 30
0.0
 10
9.859727321139905
 20
6.415299678853282
 30
0.0
 10
9.858637379199999
 20
6.4092796049
 30
0.0
 11
9.591471421499999
 21
6.8613331769
 31
0.0
 11
9.6689967152
 21
6.8082601747
 31
0.0
 11
9.7445312153
 21
6.739988012499999
 31
0.0
 11
9.8024970151
 21
6.666254456199999
 31
0.0
 11
9.8417435532
 21
6.588568530499999
 31
0.0
 11
9.861523939299999
 21
6.508419815099999
 31
0.0
 11
9.861412142699998
 21
6.427422484
 31
0.0
 11
9.858637379199999
 21
6.4092796049
 31
0.0
  0
SPLINE
  5
332
330
1F
100
AcDbEntity
  8
0
  6
Continuous
 62
     7
100
AcDbSpline
210
0.0
220
0.0
230
1.0
 70
     8
 71
     3
 72
     8
 73
     4
 74
     2
 42
0.0000000001
 43
0.0000000001
 44
0.0000000001
 12
-0.1781548627226317
 22
-0.9840024618303962
 32
0.0
 13
-0.1845408700160772
 23
-0.9828248405965883
 33
0.0
 40
0.0
 40
0.0
 40
0.0
 40
0.0
 40
0.0022053252303204
 40
0.0022053252303204
 40
0.0022053252303204
 40
0.0022053252303204
 10
9.858637379199999
 20
6.4092796049
 30
0.0
 10
9.858506416062111
 20
6.408556256414742
 30
0.0
 10
9.858373099445557
 20
6.407833330105984
 30
0.0
 10
9.8582374419
 20
6.4071108473
 30
0.0
 11
9.858637379199999
 21
6.4092796049
 31
0.0
 11
9.8582374419
 21
6.4071108473
 31
0.0
  0
SPLINE
  5
333
330
1F
100
AcDbEntity
  8
0
  6
Continuous
 62
     7
100
AcDbSpline
210
0.0
220
0.0
230
1.0
 70
     8
 71
     3
 72
    12
 73
     8
 74
     6
 42
0.0000000001
 43
0.0000000001
 44
0.0000000001
 12
-0.1845408526625947
 22
-0.9828248438549781
 32
0.0
 13
-0.8660266969855802
 23
-0.4999977601032285
 33
0.0
 40
0.0
 40
0.0
 40
0.0
 40
0.0
 40
0.0622417487816191
 40
0.1493693610872972
 40
0.2435706376737642
 40
0.3459650873977105
 40
0.4567849631522717
 40
0.4567849631522717
 40
0.4567849631522717
 40
0.4567849631522717
 10
9.8582374419
 20
6.4071108473
 30
0.0
 10
9.854408726769543
 20
6.386719934957481
 30
0.0
 10
9.840724357021887
 20
6.338542217498154
 30
0.0
 10
9.803105686910667
 20
6.265878195726431
 30
0.0
 10
9.743575752474759
 20
6.191715074779955
 30
0.0
 10
9.666627697626168
 20
6.123441049887445
 30
0.0
 10
9.607081050820024
 20
6.084202987250733
 30
0.0
 10
9.575090060499999
 20
6.0657330907
 30
0.0
 11
9.8582374419
 21
6.4071108473
 31
0.0
 11
9.841374641699999
 21
6.3471968985
 31
0.0
 11
9.8018801524
 21
6.269534770399999
 31
0.0
 11
9.743467217799999
 21
6.195630713799999
 31
0.0
 11
9.6673118432
 21
6.1271837836
 31
0.0
 11
9.575090060499999
 21
6.0657330907
 31
0.0
  0
SPLINE
  5
334
330
1F
100
AcDbEntity
  8
0
  6
Continuous
 62
     7
100
AcDbSpline
210
0.0
220
0.0
230
1.0
 70
     8
 71
     3
 72
    19
 73
    15
 74
    13
 42
0.0000000001
 43
0.0000000001
 44
0.0000000001
 12
0.8660303016870427
 22
-0.4999915164878795
 32
0.0
 13
0.8660266961280578
 23
0.4999977615885102
 33
0.0
 40
0.0
 40
0.0
 40
0.0
 40
0.0
 40
0.1116775950295129
 40
0.2297792840315928
 40
0.3533570403610343
 40
0.4812321858951011
 40
0.6120608577946585
 40
0.7443924721281183
 40
0.8767240383515309
 40
1.007552567740075
 40
1.135427481204747
 40
1.259004924584982
 40
1.377106232278462
 40
1.488783393871682
 40
1.488783393871682
 40
1.488783393871682
 40
1.488783393871682
 10
8.1613081351
 20
6.0379537319
 30
0.0
 10
8.19354686220503
 20
6.019341115201159
 30
0.0
 10
8.262145812484693
 20
5.984884924240581
 30
0.0
 10
8.372291994419754
 20
5.942700436589949
 30
0.0
 10
8.490977128297949
 20
5.909129324214116
 30
0.0
 10
8.616188693572192
 20
5.884740611288124
 30
0.0
 10
8.745821448236682
 20
5.86994051985278
 30
0.0
 10
8.87768390310816
 20
5.864979514431247
 30
0.0
 10
9.009546286861922
 20
5.869941150153089
 30
0.0
 10
9.139178829384171
 20
5.884741861238467
 30
0.0
 10
9.26439004536146
 20
5.909131172596731
 30
0.0
 10
9.383074698905859
 20
5.942702853037782
 30
0.0
 10
9.493220278008736
 20
5.984887867888997
 30
0.0
 10
9.561818756137487
 20
6.019344398460943
 30
0.0
 10
9.5940572239
 20
6.037957175399999
 30
0.0
 11
8.1613081351
 21
6.0379537319
 31
0.0
 11
8.260942823999998
 21
5.9875075824
 31
0.0
 11
8.371130051699999
 21
5.945001302899999
 31
0.0
 11
8.489984484299998
 21
5.911162187799999
 31
0.0
 11
8.6154724895
 21
5.8865692336
 31
0.0
 11
8.7454469327
 21
5.8716432326
 31
0.0
 11
8.8776839152
 21
5.866639572799999
 31
0.0
 11
9.0099208255
 21
5.8716438683
 31
0.0
 11
9.1398950535
 21
5.886570494099999
 31
0.0
 11
9.265382704
 21
5.9111640515
 31
0.0
 11
9.384236648499999
 21
5.945003738099999
 31
0.0
 11
9.494423263199999
 21
5.9875105472
 31
0.0
 11
9.5940572239
 21
6.037957175399999
 31
0.0
  0
SPLINE
  5
335
330
1F
100
AcDbEntity
  8
0
  6
Continuous
 62
     7
100
AcDbSpline
210
0.0
220
0.0
230
1.0
 70
     8
 71
     3
 72
    18
 73
    14
 74
    12
 42
0.0000000001
 43
0.0000000001
 44
0.0000000001
 12
-0.8660303016829459
 22
0.4999915164949758
 32
0.0
 13
0.8566256485181378
 23
0.5159384636765121
 33
0.0
 40
0.0
 40
0.0
 40
0.0
 40
0.0
 40
0.1119260721700904
 40
0.2152978977313553
 40
0.3105395617924711
 40
0.398936307070717
 40
0.4827014443832185
 40
0.5648197431853541
 40
0.648584691623034
 40
0.7369810935519772
 40
0.8322223119475621
 40
0.9355936435030413
 40
1.030377123766341
 40
1.030377123766341
 40
1.030377123766341
 40
1.030377123766341
 10
8.172772660999999
 20
6.057810985499999
 30
0.0
 10
8.140462204317449
 20
6.076465014353216
 30
0.0
 10
8.080333800783867
 20
6.116086755489625
 30
0.0
 10
8.002589806704424
 20
6.185034018845321
 30
0.0
 10
7.942339289550379
 20
6.260037985425559
 30
0.0
 10
7.901037244827206
 20
6.339793911098738
 30
0.0
 10
7.879956694651141
 20
6.422736982196586
 30
0.0
 10
7.879956103528491
 20
6.506831783871563
 30
0.0
 10
7.901035325884142
 20
6.589774915320516
 30
0.0
 10
7.942336672640396
 20
6.669531384151902
 30
0.0
 10
8.002584272810494
 20
6.744534376422586
 30
0.0
 10
8.076043156089024
 20
6.809681174050435
 30
0.0
 10
8.130909713183548
 20
6.846735723603678
 30
0.0
 10
8.157974366599999
 20
6.863036537999999
 30
0.0
 11
8.172772660999999
 21
6.057810985499999
 31
0.0
 11
8.079628032
 21
6.119871631
 31
0.0
 11
8.0027294336
 21
6.1889537552
 31
0.0
 11
7.943642299299999
 21
6.263651045199999
 31
0.0
 11
7.903569472999999
 21
6.3424428796
 31
0.0
 11
7.883326721699999
 21
6.423725283899999
 31
0.0
 11
7.8833261295
 21
6.505843582699999
 31
0.0
 11
7.9035677085
 21
6.587126084299999
 31
0.0
 11
7.9436393985
 21
6.665918111399999
 31
0.0
 11
8.0027254554
 21
6.740615685399999
 31
0.0
 11
8.079623057599999
 21
6.809698179299999
 31
0.0
 11
8.157974366599999
 21
6.863036537999999
 31
0.0
  0
SPLINE
  5
336
330
1F
100
AcDbEntity
  8
0
  6
Continuous
 62
     7
100
AcDbSpline
210
0.0
220
0.0
230
1.0
 70
     8
 71
     3
 72
     8
 73
     4
 74
     2
 42
0.0000000001
 43
0.0000000001
 44
0.0000000001
 12
0.8566256446303269
 22
0.5159384701315427
 32
0.0
 13
0.858852165245627
 23
0.5122235432434731
 33
0.0
 40
0.0
 40
0.0
 40
0.0
 40
0.0
 40
0.0039635031358588
 40
0.0039635031358588
 40
0.0039635031358588
 40
0.0039635031358588
 10
8.157974366599999
 20
6.863036537999999
 30
0.0
 10
8.159106112742916
 20
6.863718179248091
 30
0.0
 10
8.160239343749935
 20
6.864397361093364
 30
0.0
 10
8.161374031499999
 20
6.865074094299999
 30
0.0
 11
8.157974366599999
 21
6.863036537999999
 31
0.0
 11
8.161374031499999
 21
6.865074094299999
 31
0.0
  0
SPLINE
  5
337
330
1F
100
AcDbEntity
  8
0
  6
Continuous
 62
     7
100
AcDbSpline
210
0.0
220
0.0
230
1.0
 70
     8
 71
     3
 72
     8
 73
     4
 74
     2
 42
0.0000000001
 43
0.0000000001
 44
0.0000000001
 12
0.8588521619504998
 22
0.5122235487684574
 32
0.0
 13
0.8660191847808974
 23
0.5000107714754052
 33
0.0
 40
0.0
 40
0.0
 40
0.0
 40
0.0
 40
0.0131951437836935
 40
0.0131951437836935
 40
0.0131951437836935
 40
0.0131951437836935
 10
8.161374031499999
 20
6.865074094299999
 30
0.0
 10
8.165151590755289
 20
6.867327048758464
 30
0.0
 10
8.168945416845792
 20
6.869552937592327
 30
0.0
 10
8.172754499399999
 20
6.871752175599999
 30
0.0
 11
8.161374031499999
 21
6.865074094299999
 31
0.0
 11
8.172754499399999
 21
6.871752175599999
 31
0.0
  0
SPLINE
  5
338
330
1F
100
AcDbEntity
  8
0
  6
Continuous
 62
     7
100
AcDbSpline
210
0.0
220
0.0
230
1.0
 70
     8
 71
     3
 72
    10
 73
     6
 74
     4
 42
0.0000000001
 43
0.0000000001
 44
0.0000000001
 12
-0.8639355510271084
 22
-0.5036023864831125
 32
0.0
 13
-0.866026695836595
 23
-0.4999977620933415
 33
0.0
 40
0.0
 40
0.0
 40
0.0
 40
0.0
 40
0.0013266993956001
 40
0.0026544640430279
 40
0.003983293092504
 40
0.003983293092504
 40
0.003983293092504
 40
0.003983293092504
 10
9.6006093263
 20
6.0295021011
 30
0.0
 10
9.600227265375538
 20
6.02927939143941
 30
0.0
 10
9.599462526243293
 20
6.028834325732832
 30
0.0
 10
9.598314030307681
 20
6.028168055282499
 30
0.0
 10
9.597547443177017
 20
6.027724760416981
 30
0.0
 10
9.5971638427
 20
6.0275032899
 30
0.0
 11
9.6006093263
 21
6.0295021011
 31
0.0
 11
9.5994626788
 21
6.028834769999999
 31
0.0
 11
9.598314183300001
 21
6.028168498999999
 31
0.0
 11
9.5971638427
 21
6.0275032899
 31
0.0
  0
SPLINE
  5
339
330
1F
100
AcDbEntity
  8
0
  6
Continuous
 62
     7
100
AcDbSpline
210
0.0
220
0.0
230
1.0
 70
     8
 71
     3
 72
    10
 73
     6
 74
     4
 42
0.0000000001
 43
0.0000000001
 44
0.0000000001
 12
0.8660266937554636
 22
0.4999977656979883
 32
0.0
 13
0.8639355629141405
 23
0.5036023660907752
 33
0.0
 40
0.0
 40
0.0
 40
0.0
 40
0.0
 40
0.0013230921561267
 40
0.0026451238075845
 40
0.0039660946905347
 40
0.0039660946905347
 40
0.0039660946905347
 40
0.0039660946905347
 10
9.5940572239
 20
6.037957175399999
 30
0.0
 10
9.594439168275167
 20
6.038177689773958
 30
0.0
 10
9.595202445648567
 20
6.038619070713044
 30
0.0
 10
9.596345982902436
 20
6.039282464273243
 30
0.0
 10
9.597107419958883
 20
6.039725608379269
 30
0.0
 10
9.5974878312
 20
6.039947356399999
 30
0.0
 11
9.5940572239
 21
6.037957175399999
 31
0.0
 11
9.5952025982
 21
6.038619512599999
 31
0.0
 11
9.5963461348
 21
6.039282906699999
 31
0.0
 11
9.5974878312
 21
6.039947356399999
 31
0.0
  0
SPLINE
  5
33A
330
1F
100
AcDbEntity
  8
0
  6
Continuous
 62
     7
100
AcDbSpline
210
0.0
220
0.0
230
1.0
 70
     8
 71
     3
 72
    11
 73
     7
 74
     5
 42
0.0000000001
 43
0.0000000001
 44
0.0000000001
 12
0.8639355563053486
 22
0.5036023774282325
 32
0.0
 13
0.5067469560959961
 23
0.8620948454128713
 33
0.0
 40
0.0
 40
0.0
 40
0.0
 40
0.0
 40
0.1131218726383566
 40
0.2176048421228401
 40
0.3138990894633244
 40
0.3308928339139859
 40
0.3308928339139859
 40
0.3308928339139859
 40
0.3308928339139859
 10
9.5974878312
 20
6.039947356399999
 30
0.0
 10
9.630064500522706
 20
6.058936837733269
 30
0.0
 10
9.690670202894244
 20
6.099249975131574
 30
0.0
 10
9.768921314207355
 20
6.169273651599811
 30
0.0
 10
9.814403576752052
 20
6.226471503852782
 30
0.0
 10
9.83415491507565
 20
6.258663808101607
 30
0.0
 10
9.8370254245
 20
6.263547214599999
 30
0.0
 11
9.5974878312
 21
6.039947356399999
 31
0.0
 11
9.691357618999999
 21
6.103074379199999
 31
0.0
 11
9.7687641863
 21
6.1732521125
 31
0.0
 11
9.828141358999999
 21
6.2490606439
 31
0.0
 11
9.8370254245
 21
6.263547214599999
 31
0.0
  0
SPLINE
  5
33B
330
1F
100
AcDbEntity
  8
0
  6
Continuous
 62
     7
100
AcDbSpline
210
0.0
220
0.0
230
1.0
 70
     8
 71
     3
 72
    12
 73
     8
 74
     6
 42
0.0000000001
 43
0.0000000001
 44
0.0000000001
 12
0.5067469560874866
 22
0.8620948454178732
 32
0.0
 13
-0.5274399110129656
 23
0.8495923376953413
 33
0.0
 40
0.0
 40
0.0
 40
0.0
 40
0.0
 40
0.0725049515679446
 40
0.157307953535712
 40
0.240507689613268
 40
0.3254208803324264
 40
0.4059317464778024
 40
0.4059317464778024
 40
0.4059317464778024
 40
0.4059317464778024
 10
9.8370254245
 20
6.263547214599999
 30
0.0
 10
9.849272645669442
 20
6.284382596271332
 30
0.0
 10
9.87224740218326
 20
6.331846720005406
 30
0.0
 10
9.891802817123048
 20
6.410388411363168
 30
0.0
 10
9.891439016810466
 20
6.495581077788069
 30
0.0
 10
9.870570679366405
 20
6.576592370681488
 30
0.0
 10
9.845505282258431
 20
6.626140676540558
 30
0.0
 10
9.831350400899999
 20
6.6489411482
 30
0.0
 11
9.8370254245
 21
6.263547214599999
 31
0.0
 11
9.8682877532
 21
6.328966132399999
 31
0.0
 11
9.8883910833
 21
6.4113518427
 31
0.0
 11
9.8880445967
 21
6.4945508573
 31
0.0
 11
9.867255304
 21
6.576879802799999
 31
0.0
 11
9.831350400899999
 21
6.6489411482
 31
0.0
  0
SPLINE
  5
33C
330
1F
100
AcDbEntity
  8
0
  6
Continuous
 62
     7
100
AcDbSpline
210
0.0
220
0.0
230
1.0
 70
     8
 71
     3
 72
     9
 73
     5
 74
     3
 42
0.0000000001
 43
0.0000000001
 44
0.0000000001
 12
-0.5274399118608004
 22
0.8495923371689924
 32
0.0
 13
-0.5501709621054073
 23
0.8350520417650688
 33
0.0
 40
0.0
 40
0.0
 40
0.0
 40
0.0
 40
0.009157210971724
 40
0.0125862821928267
 40
0.0125862821928267
 40
0.0125862821928267
 40
0.0125862821928267
 10
9.831350400899999
 20
6.6489411482
 30
0.0
 10
9.829740441384061
 20
6.651534446957139
 30
0.0
 10
9.827492037640844
 20
6.655076958578849
 30
0.0
 10
9.825196536270945
 20
6.65858871439182
 30
0.0
 10
9.824567677799999
 20
6.659543198699999
 30
0.0
 11
9.831350400899999
 21
6.6489411482
 31
0.0
 11
9.826443836699999
 21
6.65667291
 31
0.0
 11
9.824567677799999
 21
6.659543198699999
 31
0.0
  0
SPLINE
  5
33D
330
1F
100
AcDbEntity
  8
0
  6
Continuous
 62
     7
100
AcDbSpline
210
0.0
220
0.0
230
1.0
 70
     8
 71
     3
 72
     8
 73
     4
 74
     2
 42
0.0000000001
 43
0.0000000001
 44
0.0000000001
 12
-0.5501709586117327
 22
0.8350520440668635
 32
0.0
 13
-0.6643549213666399
 23
0.7474172452224566
 33
0.0
 40
0.0
 40
0.0
 40
0.0
 40
0.0
 40
0.0745511020404799
 40
0.0745511020404799
 40
0.0745511020404799
 40
0.0745511020404799
 10
9.824567677799999
 20
6.659543198699999
 30
0.0
 10
9.810895727374942
 20
6.680294548748779
 30
0.0
 10
9.795554246444632
 20
6.700008006894869
 30
0.0
 10
9.779044782599999
 20
6.7185816
 30
0.0
 11
9.824567677799999
 21
6.659543198699999
 31
0.0
 11
9.779044782599999
 21
6.7185816
 31
0.0
  0
SPLINE
  5
33E
330
1F
100
AcDbEntity
  8
0
  6
Continuous
 62
     7
100
AcDbSpline
210
0.0
220
0.0
230
1.0
 70
     8
 71
     3
 72
     9
 73
     5
 74
     3
 42
0.0000000001
 43
0.0000000001
 44
0.0000000001
 12
-0.6643549220151911
 22
0.7474172446459804
 32
0.0
 13
-0.6931634851521468
 23
0.7207803984930013
 33
0.0
 40
0.0
 40
0.0
 40
0.0
 40
0.0
 40
0.0186442746268675
 40
0.0230632055829045
 40
0.0230632055829045
 40
0.0230632055829045
 40
0.0230632055829045
 10
9.779044782599999
 20
6.7185816
 30
0.0
 10
9.774915977394746
 20
6.723226617456679
 30
0.0
 10
9.769714169103433
 20
6.728889717905165
 30
0.0
 10
9.764405604660712
 20
6.734450309661531
 30
0.0
 10
9.763384590800001
 20
6.7355120026
 30
0.0
 11
9.779044782599999
 21
6.7185816
 31
0.0
 11
9.766435937
 21
6.732315717699999
 31
0.0
 11
9.763384590800001
 21
6.7355120026
 31
0.0
  0
SPLINE
  5
33F
330
1F
100
AcDbEntity
  8
0
  6
Continuous
 62
     7
100
AcDbSpline
210
0.0
220
0.0
230
1.0
 70
     8
 71
     3
 72
     8
 73
     4
 74
     2
 42
0.0000000001
 43
0.0000000001
 44
0.0000000001
 12
-0.6931634849227189
 22
0.7207803987136386
 32
0.0
 13
-0.7719129244294871
 23
0.6357282730056271
 33
0.0
 40
0.0
 40
0.0
 40
0.0
 40
0.0
 40
0.0762972463683377
 40
0.0762972463683377
 40
0.0762972463683377
 40
0.0762972463683377
 10
9.763384590800001
 20
6.7355120026
 30
0.0
 10
9.74575576907244
 20
6.753843189152707
 30
0.0
 10
9.726943112990033
 20
6.771084389943723
 30
0.0
 10
9.707311502799999
 20
6.787252495499999
 30
0.0
 11
9.763384590800001
 21
6.7355120026
 31
0.0
 11
9.707311502799999
 21
6.787252495499999
 31
0.0
  0
SPLINE
  5
340
330
1F
100
AcDbEntity
  8
0
  6
Continuous
 62
     7
100
AcDbSpline
210
0.0
220
0.0
230
1.0
 70
     8
 71
     3
 72
     9
 73
     5
 74
     3
 42
0.0000000001
 43
0.0000000001
 44
0.0000000001
 12
-0.7719129240439102
 22
0.6357282734738014
 32
0.0
 13
-0.7945827718215983
 23
0.6071558438525533
 33
0.0
 40
0.0
 40
0.0
 40
0.0
 40
0.0
 40
0.0241179294722571
 40
0.0272026973661562
 40
0.0272026973661562
 40
0.0272026973661562
 40
0.0272026973661562
 10
9.707311502799999
 20
6.787252495499999
 30
0.0
 10
9.701105855646394
 20
6.792363312054386
 30
0.0
 10
9.694009303570993
 20
6.798011460600947
 30
0.0
 10
9.68681544397452
 20
6.803531274882096
 30
0.0
 10
9.685998409499999
 20
6.804155586499999
 30
0.0
 11
9.707311502799999
 21
6.787252495499999
 31
0.0
 11
9.688445750499999
 21
6.802277737999999
 31
0.0
 11
9.685998409499999
 21
6.804155586499999
 31
0.0
  0
SPLINE
  5
341
330
1F
100
AcDbEntity
  8
0
  6
Continuous
 62
     7
100
AcDbSpline
210
0.0
220
0.0
230
1.0
 70
     8
 71
     3
 72
    18
 73
    14
 74
    12
 42
0.0000000001
 43
0.0000000001
 44
0.0000000001
 12
-0.8689544537543675
 22
-0.4948920663139074
 32
0.0
 13
-0.8660303016707091
 23
0.4999915165161709
 33
0.0
 40
0.0
 40
0.0
 40
0.0
 40
0.0
 40
0.1200329387886999
 40
0.2473870060392726
 40
0.380808970023931
 40
0.5187506319966261
 40
0.6594630909420576
 40
0.8010812052631827
 40
0.9417028540145325
 40
1.079466630216399
 40
1.212631262839304
 40
1.339660433446526
 40
1.459317648152108
 40
1.459317648152108
 40
1.459317648152108
 40
1.459317648152108
 10
9.577769318599999
 20
6.0550485913
 30
0.0
 10
9.543001599680778
 20
6.035247474932377
 30
0.0
 10
9.46873350988565
 20
5.998918657770422
 30
0.0
 10
9.349236618863386
 20
5.955517725210313
 30
0.0
 10
9.220360861359704
 20
5.922261771693602
 30
0.0
 10
9.084678191873198
 20
5.899815196618094
 30
0.0
 10
8.944874962908194
 20
5.888618011975304
 30
0.0
 10
8.803734508522101
 20
5.888893651562013
 30
0.0
 10
8.664065639293845
 20
5.900636638860209
 30
0.0
 10
8.5286488353118
 20
5.923612702295171
 30
0.0
 10
8.400164705673983
 20
5.957371609572757
 30
0.0
 10
8.281177072794481
 20
6.001239208828137
 30
0.0
 10
8.207314918916184
 20
6.037868454752418
 30
0.0
 10
8.172772660999999
 20
6.057810985499999
 30
0.0
 11
9.577769318599999
 21
6.0550485913
 31
0.0
 11
9.4701400566
 21
6.0019086971
 31
0.0
 11
9.3505543248
 21
5.9581101675
 31
0.0
 11
9.221425488499999
 21
5.924536902699999
 31
0.0
 11
9.085359502599999
 21
5.901866446399999
 31
0.0
 11
8.9451023211
 21
5.890556312
 31
0.0
 11
8.803484480499999
 21
5.890834749899999
 31
0.0
 11
8.663363977000001
 21
5.9026961409
 31
0.0
 11
8.527568588799999
 21
5.9259011097
 31
0.0
 11
8.398838808999999
 21
5.9599813558
 31
0.0
 11
8.279772539099999
 21
6.004249104299999
 31
0.0
 11
8.172772660999999
 21
6.057810985499999
 31
0.0
  0
SPLINE
  5
342
330
1F
100
AcDbEntity
  8
0
  6
Continuous
 62
     7
100
AcDbSpline
210
0.0
220
0.0
230
1.0
 70
     8
 71
     3
 72
    10
 73
     6
 74
     4
 42
0.0000000001
 43
0.0000000001
 44
0.0000000001
 12
-0.8660266992544903
 22
-0.499997756173338
 32
0.0
 13
-0.8689544577880147
 23
-0.4948920592314422
 33
0.0
 40
0.0
 40
0.0
 40
0.0
 40
0.0
 40
0.001851236258227
 40
0.0037045736517319
 40
0.0055600090559838
 40
0.0055600090559838
 40
0.0055600090559838
 40
0.0055600090559838
 10
9.5825926026
 20
6.0578143738
 30
0.0
 10
9.582058195924583
 20
6.057505835808246
 30
0.0
 10
9.580988167643784
 20
6.056889462682284
 30
0.0
 10
9.579380402293951
 20
6.055967535256015
 30
0.0
 10
9.578306748221887
 20
6.05535467138266
 30
0.0
 10
9.577769318599999
 20
6.0550485913
 30
0.0
 11
9.5825926026
 21
6.0578143738
 31
0.0
 11
9.580988472799999
 21
6.0568903374
 31
0.0
 11
9.5793807085
 21
6.0559684082
 31
0.0
 11
9.577769318599999
 21
6.0550485913
 31
0.0
  0
SPLINE
  5
343
330
1F
100
AcDbEntity
  8
0
  6
Continuous
 62
     7
100
AcDbSpline
210
0.0
220
0.0
230
1.0
 70
     8
 71
     3
 72
    10
 73
     6
 74
     4
 42
0.0000000001
 43
0.0000000001
 44
0.0000000001
 12
0.8689544551870049
 22
0.4948920637984157
 32
0.0
 13
0.8660266947404597
 23
0.4999977639919151
 33
0.0
 40
0.0
 40
0.0
 40
0.0
 40
0.0
 40
0.0018337111131879
 40
0.0036642004728119
 40
0.0054961498632077
 40
0.0054961498632077
 40
0.0054961498632077
 40
0.0054961498632077
 10
9.570326203099998
 20
6.0629920546
 30
0.0
 10
9.570857340247108
 20
6.063294550959072
 30
0.0
 10
9.571916741408797
 20
6.063902420145995
 30
0.0
 10
9.57350199400523
 20
6.064820781644924
 30
0.0
 10
9.574561221474834
 20
6.065427767167018
 30
0.0
 10
9.575090060499999
 20
6.0657330907
 30
0.0
 11
9.570326203099998
 21
6.0629920546
 31
0.0
 11
9.5719170375
 21
6.063904053699999
 31
0.0
 11
9.5735022902
 21
6.064819294199999
 31
0.0
 11
9.575090060499999
 21
6.0657330907
 31
0.0
  0
SPLINE
  5
344
330
1F
100
AcDbEntity
  8
0
  6
Continuous
 62
     7
100
AcDbSpline
210
0.0
220
0.0
230
1.0
 70
     8
 71
     3
 72
     8
 73
     4
 74
     2
 42
0.0000000001
 43
0.0000000001
 44
0.0000000001
 12
-0.7945827721020291
 22
0.6071558434855544
 32
0.0
 13
-0.866019194375735
 23
0.500010754857136
 33
0.0
 40
0.0
 40
0.0
 40
0.0
 40
0.0
 40
0.1103136277850878
 40
0.1103136277850878
 40
0.1103136277850878
 40
0.1103136277850878
 10
9.685998409499999
 20
6.804155586499999
 30
0.0
 10
9.656780640111296
 20
6.826481441075268
 30
0.0
 10
9.625914307721034
 20
6.846746756100049
 30
0.0
 10
9.594069734699999
 20
6.8651327562
 30
0.0
 11
9.685998409499999
 21
6.804155586499999
 31
0.0
 11
9.594069734699999
 21
6.8651327562
 31
0.0
  0
DIMENSION
  5
404
330
1F
100
AcDbEntity
  8
AM_5
100
AcDbDimension
  2
*D2
 10
6.586125476499999
 20
7.000395581475835
 30
0.0
 11
5.526125476499998
 21
7.000395581475835
 31
0.0
 70
    32
  1
<>[]
 71
     5
 42
2.12
  3
STANDARD$0
100
AcDbAlignedDimension
 13
4.466125476499999
 23
6.1324464061
 33
0.0
 14
6.586125476499999
 24
6.1324464061
 34
0.0
100
AcDbRotatedDimension
1001
ACAD
1000
DSTYLE
1002
{
1070
    42
1040
0.06875
1070
    43
1040
0.418
1070
    44
1040
0.198
1070
    47
1040
0.0
1070
    48
1040
0.0
1070
    78
1070
     0
1070
   141
1040
0.099
1070
   170
1070
     1
1070
   271
1070
     4
1070
   272
1070
     4
1070
   284
1070
     0
1002
}
  0
DIMENSION
  5
427
330
1F
100
AcDbEntity
  8
AM_5
100
AcDbDimension
  2
*D3
 10
3.546427236993306
 20
4.1124464061
 30
0.0
 11
3.546427236993305
 21
5.1724464061
 31
0.0
 70
    32
 71
     5
 42
2.12
  3
STANDARD$0
100
AcDbAlignedDimension
 13
4.566125476499999
 23
6.2324464061
 33
0.0
 14
4.566125476499999
 24
4.1124464061
 34
0.0
 50
90.00000000000003
100
AcDbRotatedDimension
1001
ACAD
1000
DSTYLE
1002
{
1070
    42
1040
0.06875
1070
    43
1040
0.418
1070
    44
1040
0.198
1070
    47
1040
0.0
1070
    48
1040
0.0
1070
    78
1070
     0
1070
   141
1040
0.099
1070
   170
1070
     1
1070
   271
1070
     4
1070
   272
1070
     4
1070
   284
1070
     0
1002
}
  0
DIMENSION
  5
449
330
1F
100
AcDbEntity
  8
AM_5
100
AcDbDimension
  2
*D4
 10
7.341844639637204
 20
1.972356268
 30
0.0
 11
7.341844639637204
 21
2.609856268000001
 31
0.0
 70
    32
 71
     5
 42
1.274999999999999
  3
STANDARD$0
100
AcDbAlignedDimension
 13
6.131125476499999
 23
3.247356268
 33
0.0
 14
6.586125476499999
 24
1.972356268
 34
0.0
 50
90.00000000000003
100
AcDbRotatedDimension
1001
ACAD
1000
DSTYLE
1002
{
1070
    42
1040
0.06875
1070
    43
1040
0.418
1070
    44
1040
0.198
1070
    47
1040
0.0
1070
    48
1040
0.0
1070
    78
1070
     0
1070
   141
1040
0.099
1070
   170
1070
     1
1070
   271
1070
     4
1070
   272
1070
     4
1070
   284
1070
     0
1002
}
  0
ENDSEC
  0
SECTION
  2
OBJECTS
  0
DICTIONARY
  5
C
330
0
100
AcDbDictionary
281
     1
  3
ACAD_COLOR
350
348
  3
ACAD_GROUP
350
D
  3
ACAD_LAYOUT
350
1A
  3
ACAD_MATERIAL
350
347
  3
ACAD_MLINESTYLE
350
17
  3
ACAD_PLOTSETTINGS
350
19
  3
ACAD_PLOTSTYLENAME
350
E
  3
ACAD_TABLESTYLE
350
349
  3
ACDBHEADERROUNDTRIPXREC
350
471
  3
AcDbVariableDictionary
350
46C
  3
AcmDictionary
350
3A7
  3
AMG
350
34D
  3
AMGSNAPSETTINGS
350
3FC
  0
DICTIONARY
  5
348
102
{ACAD_REACTORS
330
C
102
}
330
C
100
AcDbDictionary
281
     1
  0
DICTIONARY
  5
D
102
{ACAD_REACTORS
330
C
102
}
330
C
100
AcDbDictionary
281
     1
  0
DICTIONARY
  5
1A
102
{ACAD_REACTORS
330
C
102
}
330
C
100
AcDbDictionary
281
     1
  3
Layout1
350
1E
  3
Model
350
22
  0
DICTIONARY
  5
347
102
{ACAD_REACTORS
330
C
102
}
330
C
100
AcDbDictionary
281
     1
  0
DICTIONARY
  5
17
102
{ACAD_REACTORS
330
C
102
}
330
C
100
AcDbDictionary
281
     1
  3
Standard
350
18
  0
DICTIONARY
  5
19
102
{ACAD_REACTORS
330
C
102
}
330
C
100
AcDbDictionary
281
     1
  0
ACDBDICTIONARYWDFLT
  5
E
102
{ACAD_REACTORS
330
C
102
}
330
C
100
AcDbDictionary
281
     1
  3
Normal
350
F
100
AcDbDictionaryWithDefault
340
F
  0
DICTIONARY
  5
349
102
{ACAD_REACTORS
330
C
102
}
330
C
100
AcDbDictionary
281
     1
  3
Standard
350
34A
  0
DICTIONARY
  5
471
102
{ACAD_REACTORS
330
C
102
}
330
C
100
AcDbDictionary
281
     1
  0
DICTIONARY
  5
46C
102
{ACAD_REACTORS
330
C
102
}
330
C
100
AcDbDictionary
281
     1
  3
CTABLESTYLE
350
46D
  3
DIMASSOC
350
46E
  3
PROJECTNAME
350
46F
  0
DICTIONARY
  5
3A7
102
{ACAD_REACTORS
330
C
102
}
330
C
100
AcDbDictionary
281
     1
  3
AcmStdDictionary
350
3B2
  3
AMDTSECTSYM_ARROWCOLOR
350
3D1
  0
DICTIONARY
  5
34D
102
{ACAD_REACTORS
330
C
102
}
330
C
100
AcDbDictionary
281
     1
  0
DICTIONARY
  5
3FC
102
{ACAD_REACTORS
330
C
102
}
330
C
100
AcDbDictionary
281
     1
  0
LAYOUT
  5
1E
102
{ACAD_XDICTIONARY
360
472
102
}
102
{ACAD_REACTORS
330
1A
102
}
330
1A
100
AcDbPlotSettings
  1

  2

  4

  6

 40
0.0
 41
0.0
 42
0.0
 43
0.0
 44
0.0
 45
0.0
 46
0.0
 47
0.0
 48
0.0
 49
0.0
140
0.0
141
0.0
142
1.0
143
1.0
 70
     0
 72
     0
 73
     0
 74
     0
  7

 75
     0
147
1.0
148
0.0
149
0.0
100
AcDbLayout
  1
Layout1
 70
     1
 71
     1
 10
0.0
 20
0.0
 11
12.0
 21
9.0
 12
0.0
 22
0.0
 32
0.0
 14
1.000000000000000E+20
 24
1.000000000000000E+20
 34
1.000000000000000E+20
 15
-1.000000000000000E+20
 25
-1.000000000000000E+20
 35
-1.000000000000000E+20
146
0.0
 13
0.0
 23
0.0
 33
0.0
 16
1.0
 26
0.0
 36
0.0
 17
0.0
 27
1.0
 37
0.0
 76
     0
330
1B
  0
LAYOUT
  5
22
102
{ACAD_XDICTIONARY
360
474
102
}
102
{ACAD_REACTORS
330
1A
102
}
330
1A
100
AcDbPlotSettings
  1

  2

  4

  6

 40
0.0
 41
0.0
 42
0.0
 43
0.0
 44
0.0
 45
0.0
 46
0.0
 47
0.0
 48
0.0
 49
0.0
140
0.0
141
0.0
142
1.0
143
1.0
 70
     0
 72
     0
 73
     0
 74
     0
  7

 75
     0
147
1.0
148
0.0
149
0.0
100
AcDbLayout
  1
Model
 70
     0
 71
     0
 10
0.0
 20
0.0
 11
0.0
 21
0.0
 12
0.0
 22
0.0
 32
0.0
 14
0.0
 24
0.0
 34
0.0
 15
0.0
 25
0.0
 35
0.0
146
0.0
 13
0.0
 23
0.0
 33
0.0
 16
0.0
 26
0.0
 36
0.0
 17
0.0
 27
0.0
 37
0.0
 76
     0
330
1F
  0
MLINESTYLE
  5
18
102
{ACAD_REACTORS
330
17
102
}
330
17
100
AcDbMlineStyle
  2
STANDARD
 70
     0
  3

 62
   256
 51
90.0
 52
90.0
 71
     2
 49
0.5
 62
   256
  6
BYLAYER
 49
-0.5
 62
   256
  6
BYLAYER
  0
ACDBPLACEHOLDER
  5
F
102
{ACAD_REACTORS
330
E
102
}
330
E
  0
TABLESTYLE
  5
34A
102
{ACAD_REACTORS
330
349
102
}
330
349
100
AcDbTableStyle
  3
Standard
 70
     0
 71
     0
 40
0.06
 41
0.06
280
     0
281
     0
  7
STANDARD
140
0.18
170
     2
 62
     0
 63
     7
283
     0
274
    -2
284
     1
 64
     0
275
    -2
285
     1
 65
     0
276
    -2
286
     1
 66
     0
277
    -2
287
     1
 67
     0
278
    -2
288
     1
 68
     0
279
    -2
289
     1
 69
     0
  7
STANDARD
140
0.25
170
     5
 62
     0
 63
     7
283
     0
274
    -2
284
     1
 64
     0
275
    -2
285
     1
 65
     0
276
    -2
286
     1
 66
     0
277
    -2
287
     1
 67
     0
278
    -2
288
     1
 68
     0
279
    -2
289
     1
 69
     0
  7
STANDARD
140
0.18
170
     5
 62
     0
 63
     7
283
     0
274
    -2
284
     1
 64
     0
275
    -2
285
     1
 65
     0
276
    -2
286
     1
 66
     0
277
    -2
287
     1
 67
     0
278
    -2
288
     1
 68
     0
279
    -2
289
     1
 69
     0
  0
DICTIONARYVAR
  5
46D
102
{ACAD_REACTORS
330
46C
102
}
330
46C
100
DictionaryVariables
280
     0
  1
STANDARD
  0
DICTIONARYVAR
  5
46E
102
{ACAD_REACTORS
330
46C
102
}
330
46C
100
DictionaryVariables
280
     0
  1
1
  0
DICTIONARYVAR
  5
46F
102
{ACAD_REACTORS
330
46C
102
}
330
46C
100
DictionaryVariables
280
     0
  1

  0
DICTIONARY
  5
3B2
102
{ACAD_REACTORS
330
3A7
102
}
330
3A7
100
AcDbDictionary
281
     1
  0
XRECORD
  5
3D1
102
{ACAD_REACTORS
330
3A7
102
}
330
3A7
100
AcDbXrecord
280
     1
 90
-1023410169
  0
DICTIONARY
  5
472
330
1E
100
AcDbDictionary
280
     1
281
     1
  3
ACAD_XREC_ROUNDTRIP
360
473
  0
DICTIONARY
  5
474
330
22
100
AcDbDictionary
280
     1
281
     1
  3
ACAD_XREC_ROUNDTRIP
360
475
  0
XRECORD
  5
473
102
{ACAD_REACTORS
330
472
102
}
330
472
100
AcDbXrecord
280
     1
102
SHADEPLOT
 70
     0
102
SHADEPLOTRESLEVEL
 70
     2
102
SHADEPLOTCUSTOMDPI
 70
   300
  0
XRECORD
  5
475
102
{ACAD_REACTORS
330
474
102
}
330
474
100
AcDbXrecord
280
     1
102
SHADEPLOT
 70
     0
102
SHADEPLOTRESLEVEL
 70
     2
102
SHADEPLOTCUSTOMDPI
 70
   300
  0
ENDSEC
  0
EOF
