  0
SECTION
  2
HEADER
  9
$ACADVER
  1
AC1018
  9
$DWGCODEPAGE
  3
ANSI_1252
  9
$EXTMAX
 10
691.7282139732
 20
429.5408721046
 30
0.0
  9
$EXTMIN
 10
0.0
 20
0.0
 30
0.0
  9
$LIMMIN
 10
0.0
 20
0.0
  9
$LIMMAX
 10
691.7282139732
 20
429.5408721046
  9
$VIEWCTR
 10
345.8641069866
 20
214.7704360523
  9
$VIEWSIZE
 40
429.5408721046
  9
$CLAYER
  8
0
  9
$LTSCALE
 40
38.0450517685
  9
$CELTYPE
  6
BYLAYER
  9
$DIMSCALE
 40
1.0
  9
$DIMASZ
 40
0.1875
  9
$DIMEXO
 40
4.3233013373
  9
$DIMDLI
 40
26.285672131
  9
$DIMEXE
 40
12.4511078515
  9
$DIMCEN
 40
6.2255539258
  9
$DIMLFAC
 40
1.0
  9
$DIMBLK
  1
_CLOSED
  9
$DIMTXT
 40
0.15625
  9
$DIMTOL
 70
0
  9
$DIMLIM
 70
0
  9
$DIMTFAC
 40
1.0
  9
$PDMODE
 70
3
  9
$PDSIZE
 40
0.3125
  9
$HANDSEED
  5
A52
  9
$TILEMODE
 70
1
  9
$MEASUREMENT
 70
1
  9
$INSUNITS
 70
4
  0
ENDSEC
  0
SECTION
  2
CLASSES
  0
CLASS
  1
ACDBDICTIONARYWDFLT
  2
AcDbDictionaryWithDefault
  3
AutoCAD 2000
 90
0
 91
1
280
0
281
0
  0
CLASS
  1
ACDBPLACEHOLDER
  2
AcDbPlaceHolder
  3
AutoCAD 2000
 90
0
 91
1
280
0
281
0
  0
CLASS
  1
LAYOUT
  2
AcDbLayout
  3
AutoCAD 2000
 90
0
 91
0
280
0
281
0
  0
ENDSEC
  0
SECTION
  2
TABLES
  0
TABLE
  2
VPORT
  5
8
100
AcDbSymbolTable
 70
2
  0
VPORT
  5
1F4
100
AcDbSymbolTableRecord
100
AcDbViewportTableRecord
  2
*ACTIVE
 70
0
 10
0.0
 20
0.0
 11
1.0
 21
1.0
 12
345.8641069866
 22
214.7704360523
 13
0.0
 23
0.0
 14
1.0
 24
1.0
 15
0.0
 25
0.0
 16
0.0
 26
0.0
 36
1.0
 17
0.0
 27
0.0
 37
0.0
 40
429.5408721046
 41
1.6103897415
 42
50.0
 43
0.0
 44
0.0
 50
0.0
 51
0.0
 71
0
 72
100
 73
1
 74
1
 75
0
 76
0
 77
0
 78
0
  0
ENDTAB
  0
TABLE
  2
LTYPE
  5
5
100
AcDbSymbolTable
 70
6
  0
LTYPE
  5
14
100
AcDbSymbolTableRecord
100
AcDbLinetypeTableRecord
  2
BYBLOCK
 70
0
  3

 72
65
 73
0
 40
0.0
  0
LTYPE
  5
15
100
AcDbSymbolTableRecord
100
AcDbLinetypeTableRecord
  2
BYLAYER
 70
0
  3

 72
65
 73
0
 40
0.0
  0
LTYPE
  5
16
100
AcDbSymbolTableRecord
100
AcDbLinetypeTableRecord
  2
CONTINUOUS
 70
64
  3
Solid line
 72
65
 73
0
 40
0.0
  0
LTYPE
  5
1F5
100
AcDbSymbolTableRecord
100
AcDbLinetypeTableRecord
  2
CENTER
 70
64
  3
____ _ ____ _ ____ _ ____ _ ____ _ ____ _ ____
 72
65
 73
4
 40
0.6
 49
0.375
 74
0
 49
-0.075
 74
0
 49
0.075
 74
0
 49
-0.075
 74
0
  0
LTYPE
  5
1F6
100
AcDbSymbolTableRecord
100
AcDbLinetypeTableRecord
  2
HIDDEN
 70
64
  3
- - - - - - - - - - - - - - - - - - - -
 72
65
 73
2
 40
0.2
 49
0.1
 74
0
 49
-0.1
 74
0
  0
LTYPE
  5
1F7
100
AcDbSymbolTableRecord
100
AcDbLinetypeTableRecord
  2
PHANTOM
 70
64
  3
_____ _ _ _____ _ _ _____ _ _ _____
 72
65
 73
6
 40
0.8
 49
0.45
 74
0
 49
-0.05
 74
0
 49
0.1
 74
0
 49
-0.05
 74
0
 49
0.1
 74
0
 49
-0.05
 74
0
  0
LTYPE
  5
1F8
100
AcDbSymbolTableRecord
100
AcDbLinetypeTableRecord
  2
DOT
 70
64
  3
. . . . . . . . . . . . . . . . . . . .
 72
65
 73
2
 40
0.2
 49
0.1
 74
0
 49
-0.1
 74
0
  0
LTYPE
  5
1F9
100
AcDbSymbolTableRecord
100
AcDbLinetypeTableRecord
  2
DASHED
 70
64
  3
- - - - - - - - - - - - - - - - - - - -
 72
65
 73
2
 40
0.2
 49
0.1
 74
0
 49
-0.1
 74
0
  0
LTYPE
  5
1FA
100
AcDbSymbolTableRecord
100
AcDbLinetypeTableRecord
  2
SOLIDFONT
 70
64
  3
Solid line
 72
65
 73
0
 40
0.0
  0
LTYPE
  5
1FB
100
AcDbSymbolTableRecord
100
AcDbLinetypeTableRecord
  2
SOLIDFONT
 70
64
  3
Solid line
 72
65
 73
0
 40
0.0
  0
ENDTAB
  0
TABLE
  2
LAYER
  5
2
100
AcDbSymbolTable
 70
36
  0
LAYER
  5
10
100
AcDbSymbolTableRecord
100
AcDbLayerTableRecord
  2
0
 70
0
 62
7
  6
CONTINUOUS
370
-3
390
F
  0
LAYER
  5
1FC
100
AcDbSymbolTableRecord
100
AcDbLayerTableRecord
  2
DEFAULT_1
 70
0
 62
7
  6
CENTER
370
-3
390
F
  0
LAYER
  5
1FD
100
AcDbSymbolTableRecord
100
AcDbLayerTableRecord
  2
DEFAULT_2
 70
0
 62
8
  6
HIDDEN
370
-3
390
F
  0
LAYER
  5
1FE
100
AcDbSymbolTableRecord
100
AcDbLayerTableRecord
  2
DEFAULT_3
 70
0
 62
7
  6
PHANTOM
370
-3
390
F
  0
LAYER
  5
1FF
100
AcDbSymbolTableRecord
100
AcDbLayerTableRecord
  2
AXIS
 70
0
 62
7
  6
CONTINUOUS
370
-3
390
F
  0
LAYER
  5
200
100
AcDbSymbolTableRecord
100
AcDbLayerTableRecord
  2
Defpoints
 70
0
 62
7
  6
CONTINUOUS
290
0
370
-3
390
F
  0
LAYER
  5
201
100
AcDbSymbolTableRecord
100
AcDbLayerTableRecord
  2
HANDLE_FIXING_HOLES
 70
0
 62
7
  6
CONTINUOUS
370
-3
390
F
  0
LAYER
  5
202
100
AcDbSymbolTableRecord
100
AcDbLayerTableRecord
  2
MOVING_S3_0-1_FRONT
 70
0
 62
7
  6
CONTINUOUS
370
-3
390
F
  0
LAYER
  5
203
100
AcDbSymbolTableRecord
100
AcDbLayerTableRecord
  2
POINT_D_ACCROCHAGE
 70
0
 62
7
  6
CONTINUOUS
370
-3
390
F
  0
LAYER
  5
204
100
AcDbSymbolTableRecord
100
AcDbLayerTableRecord
  2
QUOTATION
 70
0
 62
7
  6
CONTINUOUS
370
-3
390
F
  0
LAYER
  5
205
100
AcDbSymbolTableRecord
100
AcDbLayerTableRecord
  2
S3_EXTERN_HANDLE_FRONT
 70
0
 62
7
  6
CONTINUOUS
370
-3
390
F
  0
ENDTAB
  0
TABLE
  2
STYLE
  5
3
100
AcDbSymbolTable
 70
1
  0
STYLE
  5
11
100
AcDbSymbolTableRecord
100
AcDbTextStyleTableRecord
  2
STANDARD
 70
0
 40
0.0
 41
0.8
 50
0.0
 71
0
 42
0.2
  3
txt
  4

  0
STYLE
  5
206
100
AcDbSymbolTableRecord
100
AcDbTextStyleTableRecord
  2
TEXTSTYLE_1
 70
0
 40
0.0
 41
0.8
 50
0.0
 71
0
 42
0.2
  3
gdt
  4

  0
ENDTAB
  0
TABLE
  2
VIEW
  5
6
100
AcDbSymbolTable
 70
0
  0
ENDTAB
  0
TABLE
  2
UCS
  5
7
100
AcDbSymbolTable
 70
0
  0
ENDTAB
  0
TABLE
  2
APPID
  5
9
100
AcDbSymbolTable
 70
1
  0
APPID
  5
207
100
AcDbSymbolTableRecord
100
AcDbRegAppTableRecord
  2
ACAD
 70
0
  0
ENDTAB
  0
TABLE
  2
BLOCK_RECORD
  5
1
100
AcDbSymbolTable
 70
0
  0
BLOCK_RECORD
  5
208
100
AcDbSymbolTableRecord
100
AcDbBlockTableRecord
  2
*Model_Space
  0
BLOCK_RECORD
  5
209
100
AcDbSymbolTableRecord
100
AcDbBlockTableRecord
  2
*Paper_Space
  0
BLOCK_RECORD
  5
20A
100
AcDbSymbolTableRecord
100
AcDbBlockTableRecord
  2
_CLOSED
  0
BLOCK_RECORD
  5
20B
100
AcDbSymbolTableRecord
100
AcDbBlockTableRecord
  2
*D0
  0
BLOCK_RECORD
  5
20C
100
AcDbSymbolTableRecord
100
AcDbBlockTableRecord
  2
*D1
  0
BLOCK_RECORD
  5
20D
100
AcDbSymbolTableRecord
100
AcDbBlockTableRecord
  2
*D2
  0
BLOCK_RECORD
  5
20E
100
AcDbSymbolTableRecord
100
AcDbBlockTableRecord
  2
*D3
  0
BLOCK_RECORD
  5
20F
100
AcDbSymbolTableRecord
100
AcDbBlockTableRecord
  2
*D4
  0
BLOCK_RECORD
  5
210
100
AcDbSymbolTableRecord
100
AcDbBlockTableRecord
  2
*D5
  0
BLOCK_RECORD
  5
211
100
AcDbSymbolTableRecord
100
AcDbBlockTableRecord
  2
*D6
  0
BLOCK_RECORD
  5
212
100
AcDbSymbolTableRecord
100
AcDbBlockTableRecord
  2
*D7
  0
ENDTAB
  0
TABLE
  2
DIMSTYLE
  5
A
100
AcDbSymbolTable
 70
1
100
AcDbDimStyleTable
 71
0
  0
DIMSTYLE
105
213
100
AcDbSymbolTableRecord
100
AcDbDimStyleTableRecord
  2
STANDARD
 70
0
  3

  4

 40
1.0
 41
0.1875
 42
0.0625
 43
0.38
 44
0.18
 45
0.0
 46
0.0
 47
0.1
 48
0.1
140
0.15625
141
0.09
142
0.0
143
25.4
144
1.0
145
0.0
146
1.0
147
0.09
 71
0.0
 72
0.0
 73
1
 74
1
 75
0
 76
0
 77
0
 78
8
170
0
171
2
172
0
173
0
174
0
175
0
176
0
177
0
178
0
270
2
271
1
272
1
273
2
274
2
275
0
280
0
281
0
282
0
283
1
284
8
285
0
286
0
287
3
288
0
340
11
341
20A
342
20A
343
20A
344
20A
  0
DIMSTYLE
105
214
100
AcDbSymbolTableRecord
100
AcDbDimStyleTableRecord
  2
DIMSTYLE_1
 70
0
  3

  4

 40
1.0
 41
0.1875
 42
0.0625
 43
0.38
 44
0.18
 45
0.0
 46
0.0
 47
0.0
 48
0.0
140
10.5
141
0.09
142
0.0
143
25.4
144
1.0
145
0.0
146
1.0
147
0.09
 71
0.0
 72
0.0
 73
1
 74
1
 75
0
 76
0
 77
0
 78
8
170
0
171
2
172
0
173
0
174
0
175
0
176
0
177
0
178
0
270
2
271
1
272
1
273
2
274
2
275
0
280
0
281
0
282
0
283
1
284
8
285
0
286
0
287
3
288
0
340
11
341
20A
342
20A
343
20A
344
20A
  0
DIMSTYLE
105
215
100
AcDbSymbolTableRecord
100
AcDbDimStyleTableRecord
  2
DIMSTYLE_2
 70
0
  3

  4

 40
1.0
 41
0.1875
 42
0.0625
 43
0.38
 44
0.18
 45
0.0
 46
0.0
 47
0.0
 48
0.0
140
10.5
141
0.09
142
0.0
143
25.4
144
1.0
145
0.0
146
1.0
147
0.09
 71
0.0
 72
0.0
 73
1
 74
1
 75
0
 76
0
 77
0
 78
8
170
0
171
2
172
0
173
0
174
0
175
0
176
0
177
0
178
0
270
2
271
1
272
1
273
2
274
2
275
0
280
0
281
0
282
0
283
1
284
8
285
0
286
0
287
3
288
0
340
11
341
20A
342
20A
343
20A
344
20A
  0
ENDTAB
  0
ENDSEC
  0
SECTION
  2
BLOCKS
  0
BLOCK
  5
20
100
AcDbEntity
  8
0
100
AcDbBlockBegin
  2
*Model_Space
 70
0
 10
0.0
 20
0.0
 30
0.0
  3
*Model_Space
  1

  0
ENDBLK
  5
21
100
AcDbEntity
  8
0
100
AcDbBlockEnd
  0
BLOCK
  5
1C
100
AcDbEntity
  8
0
100
AcDbBlockBegin
  2
*Paper_Space
 70
0
 10
0.0
 20
0.0
 30
0.0
  3
*Paper_Space
  1

  0
ENDBLK
  5
1D
100
AcDbEntity
  8
0
100
AcDbBlockEnd
  0
BLOCK
  5
216
100
AcDbEntity
  8
0
100
AcDbBlockBegin
  2
_CLOSED
 70
64
 10
0.0
 20
0.0
  3
_CLOSED
  1

  0
LINE
  5
217
100
AcDbEntity
  8
0
  6
BYBLOCK
 62
0
100
AcDbLine
 10
0.0
 20
0.0
 11
-1.0
 21
0.1666666667
  0
LINE
  5
218
100
AcDbEntity
  8
0
  6
BYBLOCK
 62
0
100
AcDbLine
 10
-1.0
 20
0.1666666667
 11
-1.0
 21
-0.1666666667
  0
LINE
  5
219
100
AcDbEntity
  8
0
  6
BYBLOCK
 62
0
100
AcDbLine
 10
-1.0
 20
-0.1666666667
 11
0.0
 21
0.0
  0
LINE
  5
21A
100
AcDbEntity
  8
0
  6
BYBLOCK
 62
0
100
AcDbLine
 10
-1.0
 20
0.0
 11
0.0
 21
0.0
  0
ENDBLK
  5
21B
100
AcDbEntity
  8
0
  6
BYBLOCK
 62
0
100
AcDbBlockEnd
  0
BLOCK
  5
21C
100
AcDbEntity
  8
QUOTATION
100
AcDbBlockBegin
 62
3
  6
CONTINUOUS
  2
*D0
 70
65
 10
0.0
 20
0.0
  3
*D0
  1

  0
MTEXT
  5
21D
100
AcDbEntity
  8
QUOTATION
100
AcDbMText
 62
3
  6
CONTINUOUS
  7
STANDARD
 71
2
 72
1
 10
468.0302476706
 20
149.8819056366
 30
0.0
 11
1.0
 21
0.0
 31
0.0
 44
0.9
  1
209.8
 40
10.5
 41
42.0
  0
LINE
  5
21E
100
AcDbEntity
  8
QUOTATION
100
AcDbLine
 62
3
  6
CONTINUOUS
 10
385.6877675899
 20
252.9087842276
 11
468.1552476706
 21
252.9087842276
  0
LINE
  5
21F
100
AcDbEntity
  8
QUOTATION
100
AcDbLine
 62
3
  6
CONTINUOUS
 10
385.8750667886
 20
43.0920513147
 11
468.1552476706
 21
43.0920513147
  0
LINE
  5
220
100
AcDbEntity
  8
QUOTATION
100
AcDbLine
 62
3
  6
CONTINUOUS
 10
468.0302476706
 20
252.9087842276
 11
468.0302476706
 21
155.1319056366
  0
LINE
  5
221
100
AcDbEntity
  8
QUOTATION
100
AcDbLine
 62
3
  6
CONTINUOUS
 10
468.0302476706
 20
43.0920513147
 11
468.0302476706
 21
134.1319056366
  0
INSERT
  5
222
100
AcDbEntity
  8
QUOTATION
100
AcDbBlockReference
 62
3
  6
CONTINUOUS
  2
_CLOSED
 10
468.0302476706
 20
252.9087842276
 41
0.1875
 42
0.1875
 43
0.1875
 50
90.0
  0
INSERT
  5
223
100
AcDbEntity
  8
QUOTATION
100
AcDbBlockReference
 62
3
  6
CONTINUOUS
  2
_CLOSED
 10
468.0302476706
 20
43.0920513147
 41
0.1875
 42
0.1875
 43
0.1875
 50
270.0
  0
ENDBLK
  5
224
100
AcDbEntity
  8
0
  6
BYBLOCK
 62
0
100
AcDbBlockEnd
  0
BLOCK
  5
225
100
AcDbEntity
  8
QUOTATION
100
AcDbBlockBegin
 62
3
  6
CONTINUOUS
  2
*D1
 70
65
 10
0.0
 20
0.0
  3
*D1
  1

  0
MTEXT
  5
226
100
AcDbEntity
  8
QUOTATION
100
AcDbMText
 62
3
  6
CONTINUOUS
  7
STANDARD
 71
2
 72
1
 10
468.0302476706
 20
362.264615548
 30
0.0
 11
1.0
 21
0.0
 31
0.0
 44
0.9
  1
61.1
 40
10.5
 41
33.6
  0
LINE
  5
227
100
AcDbEntity
  8
QUOTATION
100
AcDbLine
 62
3
  6
CONTINUOUS
 10
424.8663584486
 20
330.6533963395
 11
468.1552476706
 21
330.6533963395
  0
LINE
  5
228
100
AcDbEntity
  8
QUOTATION
100
AcDbLine
 62
3
  6
CONTINUOUS
 10
387.6877675899
 20
391.76445191
 11
468.1552476706
 21
391.76445191
  0
LINE
  5
229
100
AcDbEntity
  8
QUOTATION
100
AcDbLine
 62
3
  6
CONTINUOUS
 10
468.0302476706
 20
330.6533963395
 11
468.0302476706
 21
346.514615548
  0
LINE
  5
22A
100
AcDbEntity
  8
QUOTATION
100
AcDbLine
 62
3
  6
CONTINUOUS
 10
468.0302476706
 20
391.76445191
 11
468.0302476706
 21
367.514615548
  0
INSERT
  5
22B
100
AcDbEntity
  8
QUOTATION
100
AcDbBlockReference
 62
3
  6
CONTINUOUS
  2
_CLOSED
 10
468.0302476706
 20
330.6533963395
 41
0.1875
 42
0.1875
 43
0.1875
 50
270.0
  0
INSERT
  5
22C
100
AcDbEntity
  8
QUOTATION
100
AcDbBlockReference
 62
3
  6
CONTINUOUS
  2
_CLOSED
 10
468.0302476706
 20
391.76445191
 41
0.1875
 42
0.1875
 43
0.1875
 50
90.0
  0
ENDBLK
  5
22D
100
AcDbEntity
  8
0
  6
BYBLOCK
 62
0
100
AcDbBlockEnd
  0
BLOCK
  5
22E
100
AcDbEntity
  8
QUOTATION
100
AcDbBlockBegin
 62
3
  6
CONTINUOUS
  2
*D2
 70
65
 10
0.0
 20
0.0
  3
*D2
  1

  0
MTEXT
  5
22F
100
AcDbEntity
  8
QUOTATION
100
AcDbMText
 62
3
  6
CONTINUOUS
  7
STANDARD
 71
2
 72
1
 10
385.6253278431
 20
311.5979046927
 30
0.0
 11
1.0
 21
0.0
 31
0.0
 44
0.9
  1
78
 40
10.5
 41
16.8
  0
LINE
  5
230
100
AcDbEntity
  8
QUOTATION
100
AcDbLine
 62
3
  6
CONTINUOUS
 10
346.6253278431
 20
330.5908963395
 11
346.6253278431
 21
306.2229046927
  0
LINE
  5
231
100
AcDbEntity
  8
QUOTATION
100
AcDbLine
 62
3
  6
CONTINUOUS
 10
424.6253278431
 20
330.5908963395
 11
424.6253278431
 21
306.2229046927
  0
LINE
  5
232
100
AcDbEntity
  8
QUOTATION
100
AcDbLine
 62
3
  6
CONTINUOUS
 10
346.6253278431
 20
306.3479046927
 11
371.9753278431
 21
306.3479046927
  0
LINE
  5
233
100
AcDbEntity
  8
QUOTATION
100
AcDbLine
 62
3
  6
CONTINUOUS
 10
424.6253278431
 20
306.3479046927
 11
399.2753278431
 21
306.3479046927
  0
INSERT
  5
234
100
AcDbEntity
  8
QUOTATION
100
AcDbBlockReference
 62
3
  6
CONTINUOUS
  2
_CLOSED
 10
346.6253278431
 20
306.3479046927
 41
0.1875
 42
0.1875
 43
0.1875
 50
180.0
  0
INSERT
  5
235
100
AcDbEntity
  8
QUOTATION
100
AcDbBlockReference
 62
3
  6
CONTINUOUS
  2
_CLOSED
 10
424.6253278431
 20
306.3479046927
 41
0.1875
 42
0.1875
 43
0.1875
  0
ENDBLK
  5
236
100
AcDbEntity
  8
0
  6
BYBLOCK
 62
0
100
AcDbBlockEnd
  0
BLOCK
  5
237
100
AcDbEntity
  8
QUOTATION
100
AcDbBlockBegin
 62
3
  6
CONTINUOUS
  2
*D3
 70
65
 10
0.0
 20
0.0
  3
*D3
  1

  0
MTEXT
  5
238
100
AcDbEntity
  8
QUOTATION
100
AcDbMText
 62
3
  6
CONTINUOUS
  7
TEXTSTYLE_1
 71
2
 72
1
 10
477.5661991277
 20
286.9860850363
 30
0.0
 11
1.0
 21
0.0
 31
0.0
 44
0.9
  1
{\Fgdt;n}\Ftxt;78
 40
10.5
 41
30.8
  0
LINE
  5
239
100
AcDbEntity
  8
QUOTATION
100
AcDbLine
 62
3
  6
CONTINUOUS
 10
418.7464820436
 20
273.7062488606
 11
431.4161991277
 21
281.7360850363
  0
LINE
  5
23A
100
AcDbEntity
  8
QUOTATION
100
AcDbLine
 62
3
  6
CONTINUOUS
 10
431.4161991277
 20
281.7360850363
 11
456.9161991277
 21
281.7360850363
  0
INSERT
  5
23B
100
AcDbEntity
  8
QUOTATION
100
AcDbBlockReference
 62
3
  6
CONTINUOUS
  2
_CLOSED
 10
418.7464820436
 20
273.7062488606
 41
0.1875
 42
0.1875
 43
0.1875
 50
212.3657792223
  0
ENDBLK
  5
23C
100
AcDbEntity
  8
0
  6
BYBLOCK
 62
0
100
AcDbBlockEnd
  0
BLOCK
  5
23D
100
AcDbEntity
  8
QUOTATION
100
AcDbBlockBegin
 62
3
  6
CONTINUOUS
  2
*D4
 70
65
 10
0.0
 20
0.0
  3
*D4
  1

  0
MTEXT
  5
23E
100
AcDbEntity
  8
QUOTATION
100
AcDbMText
 62
3
  6
CONTINUOUS
  7
STANDARD
 71
2
 72
1
 10
564.4649412931
 20
291.3980646818
 30
0.0
 11
1.0
 21
0.0
 31
0.0
 44
0.9
  1
40
 40
10.5
 41
16.8
  0
LINE
  5
23F
100
AcDbEntity
  8
QUOTATION
100
AcDbLine
 62
3
  6
CONTINUOUS
 10
544.4649412931
 20
266.8958583395
 11
544.4649412931
 21
286.2730646818
  0
LINE
  5
240
100
AcDbEntity
  8
QUOTATION
100
AcDbLine
 62
3
  6
CONTINUOUS
 10
584.4649412931
 20
266.8958583395
 11
584.4649412931
 21
286.2730646818
  0
LINE
  5
241
100
AcDbEntity
  8
QUOTATION
100
AcDbLine
 62
3
  6
CONTINUOUS
 10
544.4649412931
 20
286.1480646818
 11
550.8149412931
 21
286.1480646818
  0
LINE
  5
242
100
AcDbEntity
  8
QUOTATION
100
AcDbLine
 62
3
  6
CONTINUOUS
 10
584.4649412931
 20
286.1480646818
 11
578.1149412931
 21
286.1480646818
  0
INSERT
  5
243
100
AcDbEntity
  8
QUOTATION
100
AcDbBlockReference
 62
3
  6
CONTINUOUS
  2
_CLOSED
 10
544.4649412931
 20
286.1480646818
 41
0.1875
 42
0.1875
 43
0.1875
 50
180.0
  0
INSERT
  5
244
100
AcDbEntity
  8
QUOTATION
100
AcDbBlockReference
 62
3
  6
CONTINUOUS
  2
_CLOSED
 10
584.4649412931
 20
286.1480646818
 41
0.1875
 42
0.1875
 43
0.1875
  0
ENDBLK
  5
245
100
AcDbEntity
  8
0
  6
BYBLOCK
 62
0
100
AcDbBlockEnd
  0
BLOCK
  5
246
100
AcDbEntity
  8
QUOTATION
100
AcDbBlockBegin
 62
3
  6
CONTINUOUS
  2
*D5
 70
65
 10
0.0
 20
0.0
  3
*D5
  1

  0
MTEXT
  5
247
100
AcDbEntity
  8
QUOTATION
100
AcDbMText
 62
3
  6
CONTINUOUS
  7
STANDARD
 71
2
 72
1
 10
620.4649412931
 20
258.0833583395
 30
0.0
 11
1.0
 21
0.0
 31
0.0
 44
0.9
  1
28
 40
10.5
 41
16.8
  0
LINE
  5
248
100
AcDbEntity
  8
QUOTATION
100
AcDbLine
 62
3
  6
CONTINUOUS
 10
584.5274412931
 20
266.8333583395
 11
620.5899412931
 21
266.8333583395
  0
LINE
  5
249
100
AcDbEntity
  8
QUOTATION
100
AcDbLine
 62
3
  6
CONTINUOUS
 10
584.5274412931
 20
238.8333583395
 11
620.5899412931
 21
238.8333583395
  0
LINE
  5
24A
100
AcDbEntity
  8
QUOTATION
100
AcDbLine
 62
3
  6
CONTINUOUS
 10
620.4649412931
 20
266.8333583395
 11
620.4649412931
 21
263.3333583395
  0
LINE
  5
24B
100
AcDbEntity
  8
QUOTATION
100
AcDbLine
 62
3
  6
CONTINUOUS
 10
620.4649412931
 20
238.8333583395
 11
620.4649412931
 21
242.3333583395
  0
INSERT
  5
24C
100
AcDbEntity
  8
QUOTATION
100
AcDbBlockReference
 62
3
  6
CONTINUOUS
  2
_CLOSED
 10
620.4649412931
 20
266.8333583395
 41
0.1875
 42
0.1875
 43
0.1875
 50
90.0
  0
INSERT
  5
24D
100
AcDbEntity
  8
QUOTATION
100
AcDbBlockReference
 62
3
  6
CONTINUOUS
  2
_CLOSED
 10
620.4649412931
 20
238.8333583395
 41
0.1875
 42
0.1875
 43
0.1875
 50
270.0
  0
ENDBLK
  5
24E
100
AcDbEntity
  8
0
  6
BYBLOCK
 62
0
100
AcDbBlockEnd
  0
BLOCK
  5
24F
100
AcDbEntity
  8
QUOTATION
100
AcDbBlockBegin
 62
3
  6
CONTINUOUS
  2
*D6
 70
65
 10
0.0
 20
0.0
  3
*D6
  1

  0
MTEXT
  5
250
100
AcDbEntity
  8
QUOTATION
100
AcDbMText
 62
3
  6
CONTINUOUS
  7
STANDARD
 71
2
 72
1
 10
667.9282139732
 20
216.2204597213
 30
0.0
 11
1.0
 21
0.0
 31
0.0
 44
0.9
  1
4x \Fgdt;{\Fgdt;n}\Ftxt;7
 40
10.5
 41
47.6
  0
LINE
  5
251
100
AcDbEntity
  8
QUOTATION
100
AcDbLine
 62
3
  6
CONTINUOUS
 10
586.2333335718
 20
235.8129628772
 11
600.7782139732
 21
210.9704597213
  0
LINE
  5
252
100
AcDbEntity
  8
QUOTATION
100
AcDbLine
 62
3
  6
CONTINUOUS
 10
600.7782139732
 20
210.9704597213
 11
638.8782139732
 21
210.9704597213
  0
INSERT
  5
253
100
AcDbEntity
  8
QUOTATION
100
AcDbBlockReference
 62
3
  6
CONTINUOUS
  2
_CLOSED
 10
586.2333335718
 20
235.8129628772
 41
0.1875
 42
0.1875
 43
0.1875
 50
120.3482770951
  0
ENDBLK
  5
254
100
AcDbEntity
  8
0
  6
BYBLOCK
 62
0
100
AcDbBlockEnd
  0
BLOCK
  5
255
100
AcDbEntity
  8
QUOTATION
100
AcDbBlockBegin
 62
3
  6
CONTINUOUS
  2
*D7
 70
65
 10
0.0
 20
0.0
  3
*D7
  1

  0
MTEXT
  5
256
100
AcDbEntity
  8
QUOTATION
100
AcDbMText
 62
3
  6
CONTINUOUS
  7
TEXTSTYLE_1
 71
2
 72
1
 10
499.1597277296
 20
218.8965209747
 30
0.0
 11
1.0
 21
0.0
 31
0.0
 44
0.9
  1
{\Fgdt;n}\Ftxt;31
 40
10.5
 41
30.8
  0
LINE
  5
257
100
AcDbEntity
  8
QUOTATION
100
AcDbLine
 62
3
  6
CONTINUOUS
 10
557.0747553317
 20
239.208559205
 11
543.2097277296
 21
213.6465209747
  0
LINE
  5
258
100
AcDbEntity
  8
QUOTATION
100
AcDbLine
 62
3
  6
CONTINUOUS
 10
543.2097277296
 20
213.6465209747
 11
519.8097277296
 21
213.6465209747
  0
INSERT
  5
259
100
AcDbEntity
  8
QUOTATION
100
AcDbBlockReference
 62
3
  6
CONTINUOUS
  2
_CLOSED
 10
557.0747553317
 20
239.208559205
 41
0.1875
 42
0.1875
 43
0.1875
 50
61.5242874051
  0
ENDBLK
  5
25A
100
AcDbEntity
  8
0
  6
BYBLOCK
 62
0
100
AcDbBlockEnd
  0
ENDSEC
  0
SECTION
  2
ENTITIES
  0
DIMENSION
  5
25B
100
AcDbEntity
  8
QUOTATION
100
AcDbDimension
 62
3
  6
CONTINUOUS
  2
*D0
 10
468.0302476706
 20
43.0920513147
 11
447.0302476706
 21
144.6319056366
 70
160
 71
2
  1
209.8
  3
DIMSTYLE_1
100
AcDbAlignedDimension
 13
385.6877675899
 23
252.9087842276
 14
385.8750667886
 24
43.0920513147
 50
270.0
100
AcDbRotatedDimension
  0
DIMENSION
  5
25C
100
AcDbEntity
  8
QUOTATION
100
AcDbDimension
 62
3
  6
CONTINUOUS
  2
*D1
 10
468.0302476706
 20
391.76445191
 11
451.2302476706
 21
357.014615548
 70
160
 71
2
  1
61.1
  3
DIMSTYLE_1
100
AcDbAlignedDimension
 13
424.8663584486
 23
330.6533963395
 14
387.6877675899
 24
391.76445191
 50
90.0
100
AcDbRotatedDimension
  0
DIMENSION
  5
25D
100
AcDbEntity
  8
QUOTATION
100
AcDbDimension
 62
3
  6
CONTINUOUS
  2
*D2
 10
424.6253278431
 20
306.3479046927
 11
377.2253278431
 21
306.3479046927
 70
160
 71
2
  1
78
  3
DIMSTYLE_1
100
AcDbAlignedDimension
 13
346.6253278431
 23
330.5908963395
 14
424.6253278431
 24
330.5908963395
100
AcDbRotatedDimension
  0
DIMENSION
  5
25E
100
AcDbEntity
  8
QUOTATION
100
AcDbDimension
 62
3
  6
CONTINUOUS
  2
*D3
 10
418.7464820436
 20
273.7062488606
 11
469.8661991277
 21
281.7360850363
 70
163
 71
2
  1
%%c78
  3
DIMSTYLE_2
100
AcDbDiametricDimension
 15
352.8787328536
 25
231.9604678185
  0
DIMENSION
  5
25F
100
AcDbEntity
  8
QUOTATION
100
AcDbDimension
 62
3
  6
CONTINUOUS
  2
*D4
 10
584.4649412931
 20
286.1480646818
 11
556.0649412931
 21
286.1480646818
 70
160
 71
2
  1
40
  3
DIMSTYLE_1
100
AcDbAlignedDimension
 13
544.4649412931
 23
266.8958583395
 14
584.4649412931
 24
266.8958583395
100
AcDbRotatedDimension
  0
DIMENSION
  5
260
100
AcDbEntity
  8
QUOTATION
100
AcDbDimension
 62
3
  6
CONTINUOUS
  2
*D5
 10
620.4649412931
 20
238.8333583395
 11
612.0649412931
 21
252.8333583395
 70
160
 71
2
  1
28
  3
DIMSTYLE_1
100
AcDbAlignedDimension
 13
584.5274412931
 23
266.8333583395
 14
584.5274412931
 24
238.8333583395
 50
270.0
100
AcDbRotatedDimension
  0
DIMENSION
  5
261
100
AcDbEntity
  8
QUOTATION
100
AcDbDimension
 62
3
  6
CONTINUOUS
  2
*D6
 10
586.2333335718
 20
235.8129628772
 11
659.5282139732
 21
210.9704597213
 70
163
 71
2
  1
4x %%c7
  3
DIMSTYLE_2
100
AcDbDiametricDimension
 15
582.6965490144
 25
241.8537538018
  0
DIMENSION
  5
262
100
AcDbEntity
  8
QUOTATION
100
AcDbDimension
 62
3
  6
CONTINUOUS
  2
*D7
 10
557.0747553317
 20
239.208559205
 11
491.4597277296
 21
213.6465209747
 70
163
 71
2
  1
%%c31
  3
DIMSTYLE_2
100
AcDbDiametricDimension
 15
571.8551272545
 25
266.458157474
  0
LINE
  5
263
100
AcDbEntity
  8
0
100
AcDbLine
 62
7
  6
CONTINUOUS
 10
0.0
 20
429.5408721046
 11
0.0
 21
0.0
  0
LINE
  5
264
100
AcDbEntity
  8
0
100
AcDbLine
 62
7
  6
CONTINUOUS
 10
0.0
 20
0.0
 11
0.0
 21
429.5408721046
  0
LINE
  5
265
100
AcDbEntity
  8
S3_EXTERN_HANDLE_FRONT
100
AcDbLine
 62
5
  6
CONTINUOUS
 10
46.8430683573
 20
44.9670109994
 11
46.7831946224
 21
45.0805344659
  0
LINE
  5
266
100
AcDbEntity
  8
MOVING_S3_0-1_FRONT
100
AcDbLine
 62
1
  6
CONTINUOUS
 10
27.1785359446
 20
250.9086085363
 11
27.1785244448
 21
254.9086085363
  0
LINE
  5
267
100
AcDbEntity
  8
S3_EXTERN_HANDLE_FRONT
100
AcDbLine
 62
5
  6
CONTINUOUS
 10
32.0462328199
 20
53.2988455954
 11
32.028729739
 21
43.0920537631
  0
LINE
  5
268
100
AcDbEntity
  8
S3_EXTERN_HANDLE_FRONT
100
AcDbLine
 62
5
  6
CONTINUOUS
 10
27.2013887924
 20
52.6167882214
 11
27.177428816
 21
46.2905007074
  0
LINE
  5
269
100
AcDbEntity
  8
S3_EXTERN_HANDLE_FRONT
100
AcDbLine
 62
5
  6
CONTINUOUS
 10
32.1676575604
 20
63.7001920242
 11
32.0462328199
 21
53.2988455954
  0
LINE
  5
26A
100
AcDbEntity
  8
S3_EXTERN_HANDLE_FRONT
100
AcDbLine
 62
5
  6
CONTINUOUS
 10
27.4371867361
 20
69.0541215508
 11
27.2013887924
 21
52.6167882214
  0
LINE
  5
26B
100
AcDbEntity
  8
S3_EXTERN_HANDLE_FRONT
100
AcDbLine
 62
5
  6
CONTINUOUS
 10
28.2166766187
 20
88.8922099209
 11
27.4371867361
 21
69.0541215508
  0
LINE
  5
26C
100
AcDbEntity
  8
S3_EXTERN_HANDLE_FRONT
100
AcDbLine
 62
5
  6
CONTINUOUS
 10
46.8584847588
 20
44.912919318
 11
46.8430683573
 21
44.9670109994
  0
LINE
  5
26D
100
AcDbEntity
  8
S3_EXTERN_HANDLE_FRONT
100
AcDbLine
 62
5
  6
CONTINUOUS
 10
48.8176274048
 20
66.166440499
 11
48.70813853
 21
68.1599684513
  0
LINE
  5
26E
100
AcDbEntity
  8
S3_EXTERN_HANDLE_FRONT
100
AcDbLine
 62
5
  6
CONTINUOUS
 10
49.2478851304
 20
83.3577087643
 11
49.1727251441
 21
84.7475296702
  0
LINE
  5
26F
100
AcDbEntity
  8
S3_EXTERN_HANDLE_FRONT
100
AcDbLine
 62
5
  6
CONTINUOUS
 10
46.4042329506
 20
203.653536478
 11
46.4364139204
 21
202.9505503823
  0
LINE
  5
270
100
AcDbEntity
  8
S3_EXTERN_HANDLE_FRONT
100
AcDbLine
 62
5
  6
CONTINUOUS
 10
48.9670133835
 20
74.7148720104
 11
48.9143458316
 21
76.1240476468
  0
LINE
  5
271
100
AcDbEntity
  8
S3_EXTERN_HANDLE_FRONT
100
AcDbLine
 62
5
  6
CONTINUOUS
 10
49.5830176262
 20
91.9529173423
 11
49.5173363697
 21
93.7415037941
  0
LINE
  5
272
100
AcDbEntity
  8
S3_EXTERN_HANDLE_FRONT
100
AcDbLine
 62
5
  6
CONTINUOUS
 10
50.0285302823
 20
100.5461564147
 11
49.974504063
 21
102.2657347265
  0
LINE
  5
273
100
AcDbEntity
  8
S3_EXTERN_HANDLE_FRONT
100
AcDbLine
 62
5
  6
CONTINUOUS
 10
48.6337534953
 20
58.6702887007
 11
48.5610842085
 21
61.6635268167
  0
LINE
  5
274
100
AcDbEntity
  8
S3_EXTERN_HANDLE_FRONT
100
AcDbLine
 62
5
  6
CONTINUOUS
 10
49.1727251441
 20
84.7475296702
 11
49.1520591038
 21
85.8818200255
  0
LINE
  5
275
100
AcDbEntity
  8
S3_EXTERN_HANDLE_FRONT
100
AcDbLine
 62
5
  6
CONTINUOUS
 10
48.6147366145
 20
46.8890286151
 11
48.5415956905
 21
51.5026612088
  0
LINE
  5
276
100
AcDbEntity
  8
S3_EXTERN_HANDLE_FRONT
100
AcDbLine
 62
5
  6
CONTINUOUS
 10
48.70813853
 20
68.1599684513
 11
48.6857630798
 21
69.8653528248
  0
LINE
  5
277
100
AcDbEntity
  8
S3_EXTERN_HANDLE_FRONT
100
AcDbLine
 62
5
  6
CONTINUOUS
 10
48.9143458316
 20
76.1240476468
 11
48.8876436814
 21
78.5883727312
  0
LINE
  5
278
100
AcDbEntity
  8
S3_EXTERN_HANDLE_FRONT
100
AcDbLine
 62
5
  6
CONTINUOUS
 10
46.3377963524
 20
203.9802643961
 11
46.3363702922
 21
204.446420706
  0
LINE
  5
279
100
AcDbEntity
  8
S3_EXTERN_HANDLE_FRONT
100
AcDbLine
 62
5
  6
CONTINUOUS
 10
46.3363702922
 20
204.446420706
 11
46.3322258608
 21
205.9497903174
  0
LINE
  5
27A
100
AcDbEntity
  8
S3_EXTERN_HANDLE_FRONT
100
AcDbLine
 62
5
  6
CONTINUOUS
 10
51.2240308762
 20
117.7336895994
 11
51.2224331911
 21
119.2368457667
  0
LINE
  5
27B
100
AcDbEntity
  8
S3_EXTERN_HANDLE_FRONT
100
AcDbLine
 62
5
  6
CONTINUOUS
 10
46.3322258608
 20
205.9497903174
 11
46.3317671615
 21
209.2001105342
  0
LINE
  5
27C
100
AcDbEntity
  8
S3_EXTERN_HANDLE_FRONT
100
AcDbLine
 62
5
  6
CONTINUOUS
 10
48.6339517658
 20
55.0758406041
 11
48.6337534953
 21
58.6702887007
  0
LINE
  5
27D
100
AcDbEntity
  8
S3_EXTERN_HANDLE_FRONT
100
AcDbLine
 62
5
  6
CONTINUOUS
 10
46.3317671615
 20
209.2001105342
 11
46.357886463
 21
212.8244321969
  0
LINE
  5
27E
100
AcDbEntity
  8
S3_EXTERN_HANDLE_FRONT
100
AcDbLine
 62
5
  6
CONTINUOUS
 10
50.525637771
 20
109.0884782194
 11
50.5388792391
 21
110.6158085888
  0
LINE
  5
27F
100
AcDbEntity
  8
S3_EXTERN_HANDLE_FRONT
100
AcDbLine
 62
5
  6
CONTINUOUS
 10
49.1520591038
 20
85.8818200255
 11
49.1757438575
 21
87.3024214654
  0
LINE
  5
280
100
AcDbEntity
  8
S3_EXTERN_HANDLE_FRONT
100
AcDbLine
 62
5
  6
CONTINUOUS
 10
49.5173363697
 20
93.7415037941
 11
49.5559450976
 21
95.8990414682
  0
LINE
  5
281
100
AcDbEntity
  8
S3_EXTERN_HANDLE_FRONT
100
AcDbLine
 62
5
  6
CONTINUOUS
 10
46.357886463
 20
212.8244321969
 11
46.5012638602
 21
219.0225301932
  0
LINE
  5
282
100
AcDbEntity
  8
S3_EXTERN_HANDLE_FRONT
100
AcDbLine
 62
5
  6
CONTINUOUS
 10
49.974504063
 20
102.2657347265
 11
50.0214029809
 21
104.1514787588
  0
LINE
  5
283
100
AcDbEntity
  8
S3_EXTERN_HANDLE_FRONT
100
AcDbLine
 62
5
  6
CONTINUOUS
 10
48.5415956905
 20
51.5026612088
 11
48.6339517658
 21
55.0758406041
  0
LINE
  5
284
100
AcDbEntity
  8
S3_EXTERN_HANDLE_FRONT
100
AcDbLine
 62
5
  6
CONTINUOUS
 10
32.4882678413
 20
75.2397640432
 11
32.1676575604
 21
63.7001920242
  0
LINE
  5
285
100
AcDbEntity
  8
S3_EXTERN_HANDLE_FRONT
100
AcDbLine
 62
5
  6
CONTINUOUS
 10
48.6857630798
 20
69.8653528248
 11
48.7351437198
 21
71.321791493
  0
LINE
  5
286
100
AcDbEntity
  8
S3_EXTERN_HANDLE_FRONT
100
AcDbLine
 62
5
  6
CONTINUOUS
 10
50.5388792391
 20
110.6158085888
 11
50.6080820164
 21
112.6251796934
  0
LINE
  5
287
100
AcDbEntity
  8
S3_EXTERN_HANDLE_FRONT
100
AcDbLine
 62
5
  6
CONTINUOUS
 10
49.2197454667
 20
82.6360053127
 11
49.2478851304
 21
83.3577087643
  0
LINE
  5
288
100
AcDbEntity
  8
S3_EXTERN_HANDLE_FRONT
100
AcDbLine
 62
5
  6
CONTINUOUS
 10
49.5548749113
 20
91.2311356371
 11
49.5830176262
 21
91.9529173423
  0
LINE
  5
289
100
AcDbEntity
  8
S3_EXTERN_HANDLE_FRONT
100
AcDbLine
 62
5
  6
CONTINUOUS
 10
51.9825847683
 20
126.5792211864
 11
52.06503823
 21
128.4789400777
  0
LINE
  5
28A
100
AcDbEntity
  8
S3_EXTERN_HANDLE_FRONT
100
AcDbLine
 62
5
  6
CONTINUOUS
 10
46.5012638602
 20
219.0225301932
 11
46.8411150795
 21
225.9920283253
  0
LINE
  5
28B
100
AcDbEntity
  8
S3_EXTERN_HANDLE_FRONT
100
AcDbLine
 62
5
  6
CONTINUOUS
 10
51.2224331911
 20
119.2368457667
 11
51.3137256983
 21
121.1063479652
  0
LINE
  5
28C
100
AcDbEntity
  8
S3_EXTERN_HANDLE_FRONT
100
AcDbLine
 62
5
  6
CONTINUOUS
 10
48.5610842085
 20
61.6635268167
 11
48.6796135335
 21
64.0604819654
  0
LINE
  5
28D
100
AcDbEntity
  8
S3_EXTERN_HANDLE_FRONT
100
AcDbLine
 62
5
  6
CONTINUOUS
 10
52.9183492526
 20
134.9195756471
 11
53.033426081
 21
137.2410082648
  0
LINE
  5
28E
100
AcDbEntity
  8
S3_EXTERN_HANDLE_FRONT
100
AcDbLine
 62
5
  6
CONTINUOUS
 10
48.8876436814
 20
78.5883727312
 11
48.9760907565
 21
80.3197396107
  0
LINE
  5
28F
100
AcDbEntity
  8
S3_EXTERN_HANDLE_FRONT
100
AcDbLine
 62
5
  6
CONTINUOUS
 10
33.4587827015
 20
92.8644383127
 11
32.4882678413
 21
75.2397640432
  0
LINE
  5
290
100
AcDbEntity
  8
S3_EXTERN_HANDLE_FRONT
100
AcDbLine
 62
5
  6
CONTINUOUS
 10
48.8826937825
 20
73.2361800847
 11
48.9670133835
 21
74.7148720104
  0
LINE
  5
291
100
AcDbEntity
  8
S3_EXTERN_HANDLE_FRONT
100
AcDbLine
 62
5
  6
CONTINUOUS
 10
49.1757438575
 20
87.3024214654
 11
49.2864995227
 21
89.0091773227
  0
LINE
  5
292
100
AcDbEntity
  8
S3_EXTERN_HANDLE_FRONT
100
AcDbLine
 62
5
  6
CONTINUOUS
 10
53.9780019558
 20
143.5103517242
 11
54.1208042951
 21
145.7087296025
  0
LINE
  5
293
100
AcDbEntity
  8
S3_EXTERN_HANDLE_FRONT
100
AcDbLine
 62
5
  6
CONTINUOUS
 10
48.6796135335
 20
64.0604819654
 11
48.8176274048
 21
66.166440499
  0
LINE
  5
294
100
AcDbEntity
  8
S3_EXTERN_HANDLE_FRONT
100
AcDbLine
 62
5
  6
CONTINUOUS
 10
49.5559450976
 20
95.8990414682
 11
49.6439216211
 21
97.1559516096
  0
LINE
  5
295
100
AcDbEntity
  8
S3_EXTERN_HANDLE_FRONT
100
AcDbLine
 62
5
  6
CONTINUOUS
 10
29.6684339277
 20
108.1406872266
 11
28.2166766187
 21
88.8922099209
  0
LINE
  5
296
100
AcDbEntity
  8
S3_EXTERN_HANDLE_FRONT
100
AcDbLine
 62
5
  6
CONTINUOUS
 10
50.0214029809
 20
104.1514787588
 11
50.1435475315
 21
105.7360421282
  0
LINE
  5
297
100
AcDbEntity
  8
S3_EXTERN_HANDLE_FRONT
100
AcDbLine
 62
5
  6
CONTINUOUS
 10
46.8411150795
 20
225.9920283253
 11
47.5368850961
 21
234.8519635045
  0
LINE
  5
298
100
AcDbEntity
  8
S3_EXTERN_HANDLE_FRONT
100
AcDbLine
 62
5
  6
CONTINUOUS
 10
50.8347218163
 20
266.0292806908
 11
51.2822876787
 21
270.7640329105
  0
LINE
  5
299
100
AcDbEntity
  8
S3_EXTERN_HANDLE_FRONT
100
AcDbLine
 62
5
  6
CONTINUOUS
 10
35.5979075234
 20
115.0121950874
 11
33.4587827015
 21
92.8644383127
  0
LINE
  5
29A
100
AcDbEntity
  8
S3_EXTERN_HANDLE_FRONT
100
AcDbLine
 62
5
  6
CONTINUOUS
 10
47.5368850961
 20
234.8519635045
 11
48.3340019983
 21
242.7633855985
  0
LINE
  5
29B
100
AcDbEntity
  8
S3_EXTERN_HANDLE_FRONT
100
AcDbLine
 62
5
  6
CONTINUOUS
 10
50.0887238263
 20
258.6572523515
 11
50.8347218163
 21
266.0292806908
  0
LINE
  5
29C
100
AcDbEntity
  8
S3_EXTERN_HANDLE_FRONT
100
AcDbLine
 62
5
  6
CONTINUOUS
 10
48.3340019983
 20
242.7633855985
 11
49.0007059603
 21
248.8108417935
  0
LINE
  5
29D
100
AcDbEntity
  8
S3_EXTERN_HANDLE_FRONT
100
AcDbLine
 62
5
  6
CONTINUOUS
 10
49.0007059603
 20
248.8108417935
 11
50.0887238263
 21
258.6572523515
  0
LINE
  5
29E
100
AcDbEntity
  8
S3_EXTERN_HANDLE_FRONT
100
AcDbLine
 62
5
  6
CONTINUOUS
 10
31.1910208669
 20
121.7876847438
 11
29.6684339277
 21
108.1406872266
  0
LINE
  5
29F
100
AcDbEntity
  8
S3_EXTERN_HANDLE_FRONT
100
AcDbLine
 62
5
  6
CONTINUOUS
 10
38.5266649155
 20
135.6375299682
 11
35.5979075234
 21
115.0121950874
  0
LINE
  5
2A0
100
AcDbEntity
  8
S3_EXTERN_HANDLE_FRONT
100
AcDbLine
 62
5
  6
CONTINUOUS
 10
33.1208571599
 20
135.1313794518
 11
31.1910208669
 21
121.7876847438
  0
LINE
  5
2A1
100
AcDbEntity
  8
S3_EXTERN_HANDLE_FRONT
100
AcDbLine
 62
5
  6
CONTINUOUS
 10
49.6093547562
 20
202.4790917122
 11
48.080494882
 21
192.5749489595
  0
LINE
  5
2A2
100
AcDbEntity
  8
S3_EXTERN_HANDLE_FRONT
100
AcDbLine
 62
5
  6
CONTINUOUS
 10
46.6646339446
 20
204.0878735709
 11
46.7356970466
 21
204.5422219616
  0
LINE
  5
2A3
100
AcDbEntity
  8
S3_EXTERN_HANDLE_FRONT
100
AcDbLine
 62
5
  6
CONTINUOUS
 10
46.7356970466
 20
204.5422219616
 11
46.8200938997
 21
205.0765938136
  0
LINE
  5
2A4
100
AcDbEntity
  8
S3_EXTERN_HANDLE_FRONT
100
AcDbLine
 62
5
  6
CONTINUOUS
 10
44.533598959
 20
189.9921098659
 11
43.8215348042
 21
185.5451757992
  0
LINE
  5
2A5
100
AcDbEntity
  8
S3_EXTERN_HANDLE_FRONT
100
AcDbLine
 62
5
  6
CONTINUOUS
 10
46.8200938997
 20
205.0765938136
 11
46.9823128459
 21
206.0886751094
  0
LINE
  5
2A6
100
AcDbEntity
  8
S3_EXTERN_HANDLE_FRONT
100
AcDbLine
 62
5
  6
CONTINUOUS
 10
50.6862015755
 20
198.9599793714
 11
50.6880419819
 21
198.9714029222
  0
LINE
  5
2A7
100
AcDbEntity
  8
S3_EXTERN_HANDLE_FRONT
100
AcDbLine
 62
5
  6
CONTINUOUS
 10
46.9196617653
 20
192.746509478
 11
47.1745913
 21
194.3021919558
  0
LINE
  5
2A8
100
AcDbEntity
  8
S3_EXTERN_HANDLE_FRONT
100
AcDbLine
 62
5
  6
CONTINUOUS
 10
46.531763423
 20
195.7362515166
 11
46.0498559736
 21
192.8104484172
  0
LINE
  5
2A9
100
AcDbEntity
  8
S3_EXTERN_HANDLE_FRONT
100
AcDbLine
 62
5
  6
CONTINUOUS
 10
46.9823128459
 20
206.0886751094
 11
47.3864899414
 21
208.5317442897
  0
LINE
  5
2AA
100
AcDbEntity
  8
S3_EXTERN_HANDLE_FRONT
100
AcDbLine
 62
5
  6
CONTINUOUS
 10
47.3864899414
 20
208.5317442897
 11
47.635063188
 21
209.9821772195
  0
LINE
  5
2AB
100
AcDbEntity
  8
S3_EXTERN_HANDLE_FRONT
100
AcDbLine
 62
5
  6
CONTINUOUS
 10
47.1745913
 20
194.3021919558
 11
47.6313896537
 21
196.894464885
  0
LINE
  5
2AC
100
AcDbEntity
  8
S3_EXTERN_HANDLE_FRONT
100
AcDbLine
 62
5
  6
CONTINUOUS
 10
40.9231904933
 20
149.1493643335
 11
38.5266649155
 21
135.6375299682
  0
LINE
  5
2AD
100
AcDbEntity
  8
S3_EXTERN_HANDLE_FRONT
100
AcDbLine
 62
5
  6
CONTINUOUS
 10
47.635063188
 20
209.9821772195
 11
48.1539543694
 21
212.8857517661
  0
LINE
  5
2AE
100
AcDbEntity
  8
S3_EXTERN_HANDLE_FRONT
100
AcDbLine
 62
5
  6
CONTINUOUS
 10
35.7889009637
 20
149.882383003
 11
33.1208571599
 21
135.1313794518
  0
LINE
  5
2AF
100
AcDbEntity
  8
S3_EXTERN_HANDLE_FRONT
100
AcDbLine
 62
5
  6
CONTINUOUS
 10
47.1498078992
 20
199.0835655249
 11
46.531763423
 21
195.7362515166
  0
LINE
  5
2B0
100
AcDbEntity
  8
S3_EXTERN_HANDLE_FRONT
100
AcDbLine
 62
5
  6
CONTINUOUS
 10
43.8215348042
 20
185.5451757992
 11
43.2027850632
 21
182.2725981085
  0
LINE
  5
2B1
100
AcDbEntity
  8
S3_EXTERN_HANDLE_FRONT
100
AcDbLine
 62
5
  6
CONTINUOUS
 10
47.6313896537
 20
196.894464885
 11
48.1301679577
 21
199.5211660177
  0
LINE
  5
2B2
100
AcDbEntity
  8
S3_EXTERN_HANDLE_FRONT
100
AcDbLine
 62
5
  6
CONTINUOUS
 10
48.1539543694
 20
212.8857517661
 11
48.766623063
 21
216.0980448093
  0
LINE
  5
2B3
100
AcDbEntity
  8
S3_EXTERN_HANDLE_FRONT
100
AcDbLine
 62
5
  6
CONTINUOUS
 10
47.9336437653
 20
203.121750478
 11
47.1498078992
 21
199.0835655249
  0
LINE
  5
2B4
100
AcDbEntity
  8
S3_EXTERN_HANDLE_FRONT
100
AcDbLine
 62
5
  6
CONTINUOUS
 10
48.1301679577
 20
199.5211660177
 11
48.6223532586
 21
202.0415309273
  0
LINE
  5
2B5
100
AcDbEntity
  8
S3_EXTERN_HANDLE_FRONT
100
AcDbLine
 62
5
  6
CONTINUOUS
 10
48.6223532586
 20
202.0415309273
 11
48.8013107653
 21
202.952661478
  0
LINE
  5
2B6
100
AcDbEntity
  8
S3_EXTERN_HANDLE_FRONT
100
AcDbLine
 62
5
  6
CONTINUOUS
 10
48.766623063
 20
216.0980448093
 11
50.028819171
 21
222.0033274464
  0
LINE
  5
2B7
100
AcDbEntity
  8
S3_EXTERN_HANDLE_FRONT
100
AcDbLine
 62
5
  6
CONTINUOUS
 10
38.6809755993
 20
163.2834875581
 11
35.7889009637
 21
149.882383003
  0
LINE
  5
2B8
100
AcDbEntity
  8
S3_EXTERN_HANDLE_FRONT
100
AcDbLine
 62
5
  6
CONTINUOUS
 10
43.2027850632
 20
182.2725981085
 11
42.6421175539
 21
179.6769634788
  0
LINE
  5
2B9
100
AcDbEntity
  8
S3_EXTERN_HANDLE_FRONT
100
AcDbLine
 62
5
  6
CONTINUOUS
 10
40.9317538524
 20
172.7134447847
 11
38.6809755993
 21
163.2834875581
  0
LINE
  5
2BA
100
AcDbEntity
  8
S3_EXTERN_HANDLE_FRONT
100
AcDbLine
 62
5
  6
CONTINUOUS
 10
42.6421175539
 20
179.6769634788
 11
42.2009166809
 21
177.8333649011
  0
LINE
  5
2BB
100
AcDbEntity
  8
S3_EXTERN_HANDLE_FRONT
100
AcDbLine
 62
5
  6
CONTINUOUS
 10
50.028819171
 20
222.0033274464
 11
50.9551912364
 21
225.7926125144
  0
LINE
  5
2BC
100
AcDbEntity
  8
S3_EXTERN_HANDLE_FRONT
100
AcDbLine
 62
5
  6
CONTINUOUS
 10
50.9551912364
 20
225.7926125144
 11
52.116926287
 21
230.0082197747
  0
LINE
  5
2BD
100
AcDbEntity
  8
S3_EXTERN_HANDLE_FRONT
100
AcDbLine
 62
5
  6
CONTINUOUS
 10
71.7663012623
 20
265.1082817885
 11
71.7895822692
 21
264.6258648772
  0
LINE
  5
2BE
100
AcDbEntity
  8
S3_EXTERN_HANDLE_FRONT
100
AcDbLine
 62
6
  6
CONTINUOUS
 10
64.7896245772
 20
258.9087842276
 11
64.7896245772
 21
246.9087842276
  0
LINE
  5
2BF
100
AcDbEntity
  8
S3_EXTERN_HANDLE_FRONT
100
AcDbLine
 62
5
  6
CONTINUOUS
 10
66.7895857653
 20
203.464277478
 11
66.7895857653
 21
205.133364478
  0
LINE
  5
2C0
100
AcDbEntity
  8
S3_EXTERN_HANDLE_FRONT
100
AcDbLine
 62
6
  6
CONTINUOUS
 10
69.7896245772
 20
264.9087842276
 11
69.7896245772
 21
258.9087842276
  0
LINE
  5
2C1
100
AcDbEntity
  8
S3_EXTERN_HANDLE_FRONT
100
AcDbLine
 62
6
  6
CONTINUOUS
 10
69.7896245772
 20
246.9087842276
 11
69.7896245772
 21
240.9087842276
  0
LINE
  5
2C2
100
AcDbEntity
  8
S3_EXTERN_HANDLE_FRONT
100
AcDbLine
 62
5
  6
CONTINUOUS
 10
71.2895859162
 20
286.4424623428
 11
71.2895859163
 21
289.0658545671
  0
LINE
  5
2C3
100
AcDbEntity
  8
S3_EXTERN_HANDLE_FRONT
100
AcDbLine
 62
5
  6
CONTINUOUS
 10
71.789571773
 20
242.7386942763
 11
71.7895927653
 21
286.513035478
  0
LINE
  5
2C4
100
AcDbEntity
  8
S3_EXTERN_HANDLE_FRONT
100
AcDbLine
 62
5
  6
CONTINUOUS
 10
71.7895857144
 20
219.1599233489
 11
71.7895726369
 21
241.7239138503
  0
LINE
  5
2C5
100
AcDbEntity
  8
S3_EXTERN_HANDLE_FRONT
100
AcDbLine
 62
5
  6
CONTINUOUS
 10
72.0894864577
 20
218.3664195487
 11
72.0896850728
 21
287.4511215484
  0
LINE
  5
2C6
100
AcDbEntity
  8
S3_EXTERN_HANDLE_FRONT
100
AcDbLine
 62
5
  6
CONTINUOUS
 10
72.2408514992
 20
218.1058272306
 11
72.241051822
 21
287.7117131132
  0
LINE
  5
2C7
100
AcDbEntity
  8
S3_EXTERN_HANDLE_FRONT
100
AcDbLine
 62
5
  6
CONTINUOUS
 10
48.7351437198
 20
71.321791493
 11
48.8826937825
 21
73.2361800847
  0
LINE
  5
2C8
100
AcDbEntity
  8
S3_EXTERN_HANDLE_FRONT
100
AcDbLine
 62
5
  6
CONTINUOUS
 10
50.6080820164
 20
112.6251796934
 11
50.7249917231
 21
114.0159477865
  0
LINE
  5
2C9
100
AcDbEntity
  8
S3_EXTERN_HANDLE_FRONT
100
AcDbLine
 62
5
  6
CONTINUOUS
 10
51.1622587723
 20
117.0134794886
 11
51.2240308762
 21
117.7336895994
  0
LINE
  5
2CA
100
AcDbEntity
  8
S3_EXTERN_HANDLE_FRONT
100
AcDbLine
 62
5
  6
CONTINUOUS
 10
52.06503823
 20
128.4789400777
 11
52.2579511062
 21
130.6844539694
  0
LINE
  5
2CB
100
AcDbEntity
  8
S3_EXTERN_HANDLE_FRONT
100
AcDbLine
 62
5
  6
CONTINUOUS
 10
51.3137256983
 20
121.1063479652
 11
51.4701476541
 21
122.7001872684
  0
LINE
  5
2CC
100
AcDbEntity
  8
S3_EXTERN_HANDLE_FRONT
100
AcDbLine
 62
5
  6
CONTINUOUS
 10
55.1281082893
 20
152.0507835199
 11
55.2992324427
 21
153.7010190434
  0
LINE
  5
2CD
100
AcDbEntity
  8
S3_EXTERN_HANDLE_FRONT
100
AcDbLine
 62
5
  6
CONTINUOUS
 10
48.9760907565
 20
80.3197396107
 11
49.2197454667
 21
82.6360053127
  0
LINE
  5
2CE
100
AcDbEntity
  8
S3_EXTERN_HANDLE_FRONT
100
AcDbLine
 62
5
  6
CONTINUOUS
 10
56.5251874121
 20
160.6931064354
 11
56.7298659089
 21
162.6208472674
  0
LINE
  5
2CF
100
AcDbEntity
  8
S3_EXTERN_HANDLE_FRONT
100
AcDbLine
 62
5
  6
CONTINUOUS
 10
53.033426081
 20
137.2410082648
 11
53.2625486146
 21
139.3639147601
  0
LINE
  5
2D0
100
AcDbEntity
  8
S3_EXTERN_HANDLE_FRONT
100
AcDbLine
 62
5
  6
CONTINUOUS
 10
50.3215146077
 20
107.2312360449
 11
50.525637771
 21
109.0884782194
  0
LINE
  5
2D1
100
AcDbEntity
  8
S3_EXTERN_HANDLE_FRONT
100
AcDbLine
 62
5
  6
CONTINUOUS
 10
49.6439216211
 20
97.1559516096
 11
49.8425111695
 21
98.963723893
  0
LINE
  5
2D2
100
AcDbEntity
  8
S3_EXTERN_HANDLE_FRONT
100
AcDbLine
 62
5
  6
CONTINUOUS
 10
54.1208042951
 20
145.7087296025
 11
54.2531954196
 21
146.904035899
  0
LINE
  5
2D3
100
AcDbEntity
  8
S3_EXTERN_HANDLE_FRONT
100
AcDbLine
 62
5
  6
CONTINUOUS
 10
49.8425111695
 20
98.963723893
 11
49.9489548042
 21
99.8780459299
  0
LINE
  5
2D4
100
AcDbEntity
  8
S3_EXTERN_HANDLE_FRONT
100
AcDbLine
 62
5
  6
CONTINUOUS
 10
51.7602522507
 20
124.7078544553
 11
51.9825847683
 21
126.5792211864
  0
LINE
  5
2D5
100
AcDbEntity
  8
S3_EXTERN_HANDLE_FRONT
100
AcDbLine
 62
5
  6
CONTINUOUS
 10
50.1435475315
 20
105.7360421282
 11
50.3215146077
 21
107.2312360449
  0
LINE
  5
2D6
100
AcDbEntity
  8
S3_EXTERN_HANDLE_FRONT
100
AcDbLine
 62
5
  6
CONTINUOUS
 10
49.9489548042
 20
99.8780459299
 11
50.0285302823
 21
100.5461564147
  0
LINE
  5
2D7
100
AcDbEntity
  8
S3_EXTERN_HANDLE_FRONT
100
AcDbLine
 62
5
  6
CONTINUOUS
 10
49.2864995227
 20
89.0091773227
 11
49.5548749113
 21
91.2311356371
  0
LINE
  5
2D8
100
AcDbEntity
  8
S3_EXTERN_HANDLE_FRONT
100
AcDbLine
 62
5
  6
CONTINUOUS
 10
50.7249917231
 20
114.0159477865
 11
50.9313440507
 21
115.6528994323
  0
LINE
  5
2D9
100
AcDbEntity
  8
S3_EXTERN_HANDLE_FRONT
100
AcDbLine
 62
5
  6
CONTINUOUS
 10
55.2992324427
 20
153.7010190434
 11
55.589231463
 21
155.9429070064
  0
LINE
  5
2DA
100
AcDbEntity
  8
S3_EXTERN_HANDLE_FRONT
100
AcDbLine
 62
5
  6
CONTINUOUS
 10
58.0393578448
 20
169.2823068399
 11
58.3062129008
 21
171.3267156987
  0
LINE
  5
2DB
100
AcDbEntity
  8
S3_EXTERN_HANDLE_FRONT
100
AcDbLine
 62
5
  6
CONTINUOUS
 10
51.4701476541
 20
122.7001872684
 11
51.7602522507
 21
124.7078544553
  0
LINE
  5
2DC
100
AcDbEntity
  8
S3_EXTERN_HANDLE_FRONT
100
AcDbLine
 62
5
  6
CONTINUOUS
 10
54.2531954196
 20
146.904035899
 11
54.5078701405
 21
148.6241215864
  0
LINE
  5
2DD
100
AcDbEntity
  8
S3_EXTERN_HANDLE_FRONT
100
AcDbLine
 62
5
  6
CONTINUOUS
 10
52.2579511062
 20
130.6844539694
 11
52.643430084
 21
133.2488670949
  0
LINE
  5
2DE
100
AcDbEntity
  8
S3_EXTERN_HANDLE_FRONT
100
AcDbLine
 62
5
  6
CONTINUOUS
 10
53.2625486146
 20
139.3639147601
 11
53.4378543204
 21
140.5188340227
  0
LINE
  5
2DF
100
AcDbEntity
  8
S3_EXTERN_HANDLE_FRONT
100
AcDbLine
 62
5
  6
CONTINUOUS
 10
56.7298659089
 20
162.6208472674
 11
57.0902647227
 21
164.9063333923
  0
LINE
  5
2E0
100
AcDbEntity
  8
S3_EXTERN_HANDLE_FRONT
100
AcDbLine
 62
5
  6
CONTINUOUS
 10
56.4099327861
 20
159.9780844516
 11
56.5251874121
 21
160.6931064354
  0
LINE
  5
2E1
100
AcDbEntity
  8
S3_EXTERN_HANDLE_FRONT
100
AcDbLine
 62
5
  6
CONTINUOUS
 10
52.8098643707
 20
134.2501371688
 11
52.9183492526
 21
134.9195756471
  0
LINE
  5
2E2
100
AcDbEntity
  8
S3_EXTERN_HANDLE_FRONT
100
AcDbLine
 62
5
  6
CONTINUOUS
 10
52.643430084
 20
133.2488670949
 11
52.8098643707
 21
134.2501371688
  0
LINE
  5
2E3
100
AcDbEntity
  8
S3_EXTERN_HANDLE_FRONT
100
AcDbLine
 62
5
  6
CONTINUOUS
 10
50.9313440507
 20
115.6528994323
 11
51.1622587723
 21
117.0134794886
  0
LINE
  5
2E4
100
AcDbEntity
  8
S3_EXTERN_HANDLE_FRONT
100
AcDbLine
 62
5
  6
CONTINUOUS
 10
54.8544227416
 20
150.4782890483
 11
55.1281082893
 21
152.0507835199
  0
LINE
  5
2E5
100
AcDbEntity
  8
S3_EXTERN_HANDLE_FRONT
100
AcDbLine
 62
5
  6
CONTINUOUS
 10
55.589231463
 20
155.9429070064
 11
55.8942490678
 21
157.6768957724
  0
LINE
  5
2E6
100
AcDbEntity
  8
S3_EXTERN_HANDLE_FRONT
100
AcDbLine
 62
5
  6
CONTINUOUS
 10
53.4378543204
 20
140.5188340227
 11
53.8512861624
 21
142.8422314442
  0
LINE
  5
2E7
100
AcDbEntity
  8
S3_EXTERN_HANDLE_FRONT
100
AcDbLine
 62
5
  6
CONTINUOUS
 10
58.3062129008
 20
171.3267156987
 11
58.6963250278
 21
173.4900247719
  0
LINE
  5
2E8
100
AcDbEntity
  8
S3_EXTERN_HANDLE_FRONT
100
AcDbLine
 62
5
  6
CONTINUOUS
 10
59.6664266827
 20
177.8333649113
 11
60.1774557985
 21
180.6425472004
  0
LINE
  5
2E9
100
AcDbEntity
  8
S3_EXTERN_HANDLE_FRONT
100
AcDbLine
 62
5
  6
CONTINUOUS
 10
54.5078701405
 20
148.6241215864
 11
54.8544227416
 21
150.4782890483
  0
LINE
  5
2EA
100
AcDbEntity
  8
S3_EXTERN_HANDLE_FRONT
100
AcDbLine
 62
5
  6
CONTINUOUS
 10
53.8512861624
 20
142.8422314442
 11
53.9780019558
 21
143.5103517242
  0
LINE
  5
2EB
100
AcDbEntity
  8
S3_EXTERN_HANDLE_FRONT
100
AcDbLine
 62
5
  6
CONTINUOUS
 10
57.903930666
 20
168.5705694857
 11
58.0393578448
 21
169.2823068399
  0
LINE
  5
2EC
100
AcDbEntity
  8
S3_EXTERN_HANDLE_FRONT
100
AcDbLine
 62
5
  6
CONTINUOUS
 10
57.0902647227
 20
164.9063333923
 11
57.3850965241
 21
166.3929660887
  0
LINE
  5
2ED
100
AcDbEntity
  8
S3_EXTERN_HANDLE_FRONT
100
AcDbLine
 62
5
  6
CONTINUOUS
 10
61.524295038
 20
186.4136556369
 11
61.8897897396
 21
188.2067186032
  0
LINE
  5
2EE
100
AcDbEntity
  8
S3_EXTERN_HANDLE_FRONT
100
AcDbLine
 62
5
  6
CONTINUOUS
 10
60.1774557985
 20
180.6425472004
 11
60.5556159021
 21
182.4259095183
  0
LINE
  5
2EF
100
AcDbEntity
  8
S3_EXTERN_HANDLE_FRONT
100
AcDbLine
 62
5
  6
CONTINUOUS
 10
45.4781387302
 20
170.5464100872
 11
40.9231904933
 21
149.1493643335
  0
LINE
  5
2F0
100
AcDbEntity
  8
S3_EXTERN_HANDLE_FRONT
100
AcDbLine
 62
5
  6
CONTINUOUS
 10
49.2869030899
 20
195.2292940431
 11
48.8111153419
 21
193.0285020317
  0
LINE
  5
2F1
100
AcDbEntity
  8
S3_EXTERN_HANDLE_FRONT
100
AcDbLine
 62
5
  6
CONTINUOUS
 10
59.3539369724
 20
176.408005409
 11
59.6664266827
 21
177.8333649113
  0
LINE
  5
2F2
100
AcDbEntity
  8
S3_EXTERN_HANDLE_FRONT
100
AcDbLine
 62
5
  6
CONTINUOUS
 10
61.8897897396
 20
188.2067186032
 11
62.3835506991
 21
190.4225489446
  0
LINE
  5
2F3
100
AcDbEntity
  8
S3_EXTERN_HANDLE_FRONT
100
AcDbLine
 62
5
  6
CONTINUOUS
 10
55.8942490678
 20
157.6768957724
 11
56.4099327861
 21
159.9780844516
  0
LINE
  5
2F4
100
AcDbEntity
  8
S3_EXTERN_HANDLE_FRONT
100
AcDbLine
 62
5
  6
CONTINUOUS
 10
58.6963250278
 20
173.4900247719
 11
59.3539369724
 21
176.408005409
  0
LINE
  5
2F5
100
AcDbEntity
  8
S3_EXTERN_HANDLE_FRONT
100
AcDbLine
 62
5
  6
CONTINUOUS
 10
51.3177936297
 20
203.9092683197
 11
50.2102657075
 21
199.1331506868
  0
LINE
  5
2F6
100
AcDbEntity
  8
S3_EXTERN_HANDLE_FRONT
100
AcDbLine
 62
5
  6
CONTINUOUS
 10
63.5210556167
 20
194.7053607301
 11
64.0969698391
 21
197.170599877
  0
LINE
  5
2F7
100
AcDbEntity
  8
S3_EXTERN_HANDLE_FRONT
100
AcDbLine
 62
5
  6
CONTINUOUS
 10
50.2102657075
 20
199.1331506868
 11
49.2869030899
 21
195.2292940431
  0
LINE
  5
2F8
100
AcDbEntity
  8
S3_EXTERN_HANDLE_FRONT
100
AcDbLine
 62
5
  6
CONTINUOUS
 10
57.3850965241
 20
166.3929660887
 11
57.903930666
 21
168.5705694857
  0
LINE
  5
2F9
100
AcDbEntity
  8
S3_EXTERN_HANDLE_FRONT
100
AcDbLine
 62
5
  6
CONTINUOUS
 10
60.5556159021
 20
182.4259095183
 11
61.524295038
 21
186.4136556369
  0
LINE
  5
2FA
100
AcDbEntity
  8
S3_EXTERN_HANDLE_FRONT
100
AcDbLine
 62
5
  6
CONTINUOUS
 10
47.9674117983
 20
180.6639998736
 11
45.4781387302
 21
170.5464100872
  0
LINE
  5
2FB
100
AcDbEntity
  8
S3_EXTERN_HANDLE_FRONT
100
AcDbLine
 62
5
  6
CONTINUOUS
 10
42.2009166809
 20
177.8333649011
 11
40.9317538524
 21
172.7134447847
  0
LINE
  5
2FC
100
AcDbEntity
  8
S3_EXTERN_HANDLE_FRONT
100
AcDbLine
 62
5
  6
CONTINUOUS
 10
62.3835506991
 20
190.4225489446
 11
62.7261868171
 21
191.7870640618
  0
LINE
  5
2FD
100
AcDbEntity
  8
S3_EXTERN_HANDLE_FRONT
100
AcDbLine
 62
5
  6
CONTINUOUS
 10
64.0969698391
 20
197.170599877
 11
64.555311163
 21
198.9599761117
  0
LINE
  5
2FE
100
AcDbEntity
  8
S3_EXTERN_HANDLE_FRONT
100
AcDbLine
 62
5
  6
CONTINUOUS
 10
49.3199883367
 20
185.7864214753
 11
47.9674117983
 21
180.6639998736
  0
LINE
  5
2FF
100
AcDbEntity
  8
S3_EXTERN_HANDLE_FRONT
100
AcDbLine
 62
5
  6
CONTINUOUS
 10
62.7261868171
 20
191.7870640618
 11
63.5210556167
 21
194.7053607301
  0
LINE
  5
300
100
AcDbEntity
  8
S3_EXTERN_HANDLE_FRONT
100
AcDbLine
 62
5
  6
CONTINUOUS
 10
51.4043437229
 20
193.1765522847
 11
49.3199883367
 21
185.7864214753
  0
LINE
  5
301
100
AcDbEntity
  8
S3_EXTERN_HANDLE_FRONT
100
AcDbLine
 62
5
  6
CONTINUOUS
 10
65.1068782759
 20
200.6857305918
 11
65.8967918807
 21
203.4486942083
  0
LINE
  5
302
100
AcDbEntity
  8
S3_EXTERN_HANDLE_FRONT
100
AcDbLine
 62
5
  6
CONTINUOUS
 10
64.555311163
 20
198.9599761117
 11
65.0166165261
 21
200.5439103822
  0
LINE
  5
303
100
AcDbEntity
  8
S3_EXTERN_HANDLE_FRONT
100
AcDbLine
 62
5
  6
CONTINUOUS
 10
65.790936068
 20
203.4468462005
 11
65.1163870878
 21
201.1529180906
  0
LINE
  5
304
100
AcDbEntity
  8
S3_EXTERN_HANDLE_FRONT
100
AcDbLine
 62
5
  6
CONTINUOUS
 10
66.3831668749
 20
205.1285870869
 11
67.2126087653
 21
207.830214478
  0
LINE
  5
305
100
AcDbEntity
  8
S3_EXTERN_HANDLE_FRONT
100
AcDbLine
 62
5
  6
CONTINUOUS
 10
67.462759168
 20
208.8905803984
 11
66.2933188295
 21
205.1364423753
  0
LINE
  5
306
100
AcDbEntity
  8
S3_EXTERN_HANDLE_FRONT
100
AcDbLine
 62
5
  6
CONTINUOUS
 10
67.2126087653
 20
207.830214478
 11
67.4155471698
 21
208.4765355595
  0
LINE
  5
307
100
AcDbEntity
  8
S3_EXTERN_HANDLE_FRONT
100
AcDbLine
 62
5
  6
CONTINUOUS
 10
52.116926287
 20
230.0082197747
 11
53.6579361234
 21
234.861242996
  0
LINE
  5
308
100
AcDbEntity
  8
S3_EXTERN_HANDLE_FRONT
100
AcDbLine
 62
5
  6
CONTINUOUS
 10
53.2900151999
 20
198.9599761187
 11
51.4043437229
 21
193.1765522847
  0
LINE
  5
309
100
AcDbEntity
  8
S3_EXTERN_HANDLE_FRONT
100
AcDbLine
 62
5
  6
CONTINUOUS
 10
67.4155471698
 20
208.4765355595
 11
67.6638250798
 21
209.2364258905
  0
LINE
  5
30A
100
AcDbEntity
  8
S3_EXTERN_HANDLE_FRONT
100
AcDbLine
 62
5
  6
CONTINUOUS
 10
55.2377116498
 20
204.2112936512
 11
53.2900151999
 21
198.9599761187
  0
LINE
  5
30B
100
AcDbEntity
  8
S3_EXTERN_HANDLE_FRONT
100
AcDbLine
 62
5
  6
CONTINUOUS
 10
53.6579361234
 20
234.861242996
 11
55.4745717411
 21
239.7471399541
  0
LINE
  5
30C
100
AcDbEntity
  8
S3_EXTERN_HANDLE_FRONT
100
AcDbLine
 62
5
  6
CONTINUOUS
 10
53.1892216138
 20
204.896744476
 11
53.2728192761
 21
205.1133438773
  0
LINE
  5
30D
100
AcDbEntity
  8
S3_EXTERN_HANDLE_FRONT
100
AcDbLine
 62
5
  6
CONTINUOUS
 10
56.5213134163
 20
207.4955497557
 11
55.2377116498
 21
204.2112936512
  0
LINE
  5
30E
100
AcDbEntity
  8
S3_EXTERN_HANDLE_FRONT
100
AcDbLine
 62
5
  6
CONTINUOUS
 10
58.5728676214
 20
212.5382687549
 11
56.5213134163
 21
207.4955497557
  0
LINE
  5
30F
100
AcDbEntity
  8
S3_EXTERN_HANDLE_FRONT
100
AcDbLine
 62
5
  6
CONTINUOUS
 10
60.3159712644
 20
216.6939739405
 11
58.5728676214
 21
212.5382687549
  0
LINE
  5
310
100
AcDbEntity
  8
S3_EXTERN_HANDLE_FRONT
100
AcDbLine
 62
5
  6
CONTINUOUS
 10
62.6844571795
 20
222.2065706492
 11
60.3159712644
 21
216.6939739405
  0
LINE
  5
311
100
AcDbEntity
  8
S3_EXTERN_HANDLE_FRONT
100
AcDbLine
 62
5
  6
CONTINUOUS
 10
55.4745717411
 20
239.7471399541
 11
58.7609796795
 21
246.9438555264
  0
LINE
  5
312
100
AcDbEntity
  8
S3_EXTERN_HANDLE_FRONT
100
AcDbLine
 62
5
  6
CONTINUOUS
 10
58.7609796795
 20
246.9438555264
 11
60.947672291
 21
250.8887357081
  0
LINE
  5
313
100
AcDbEntity
  8
S3_EXTERN_HANDLE_FRONT
100
AcDbLine
 62
5
  6
CONTINUOUS
 10
87.3896976367
 20
291.821237332
 11
87.3894738936
 21
213.9962157917
  0
LINE
  5
314
100
AcDbEntity
  8
S3_EXTERN_HANDLE_FRONT
100
AcDbLine
 62
5
  6
CONTINUOUS
 10
88.2896978884
 20
291.9087842274
 11
88.2894736423
 21
213.9087842277
  0
LINE
  5
315
100
AcDbEntity
  8
S3_EXTERN_HANDLE_FRONT
100
AcDbLine
 62
6
  6
CONTINUOUS
 10
88.2896245772
 20
240.9087842276
 11
88.2895469535
 21
264.9087842276
  0
LINE
  5
316
100
AcDbEntity
  8
S3_EXTERN_HANDLE_FRONT
100
AcDbLine
 62
5
  6
CONTINUOUS
 10
65.1163870878
 20
201.1529180906
 11
65.0508451826
 21
200.9577428627
  0
LINE
  5
317
100
AcDbEntity
  8
S3_EXTERN_HANDLE_FRONT
100
AcDbLine
 62
5
  6
CONTINUOUS
 10
67.6638250798
 20
209.2364258905
 11
68.0211450853
 21
210.2903482533
  0
LINE
  5
318
100
AcDbEntity
  8
S3_EXTERN_HANDLE_FRONT
100
AcDbLine
 62
5
  6
CONTINUOUS
 10
68.0211450853
 20
210.2903482533
 11
68.256715375
 21
210.9668295366
  0
LINE
  5
319
100
AcDbEntity
  8
S3_EXTERN_HANDLE_FRONT
100
AcDbLine
 62
5
  6
CONTINUOUS
 10
68.256715375
 20
210.9668295366
 11
68.7838703023
 21
212.4243927749
  0
LINE
  5
31A
100
AcDbEntity
  8
S3_EXTERN_HANDLE_FRONT
100
AcDbLine
 62
5
  6
CONTINUOUS
 10
65.0508451826
 20
200.9577428627
 11
64.9930768181
 21
200.7987308006
  0
LINE
  5
31B
100
AcDbEntity
  8
S3_EXTERN_HANDLE_FRONT
100
AcDbLine
 62
5
  6
CONTINUOUS
 10
68.7838703023
 20
212.4243927749
 11
69.2909527851
 21
213.7499008402
  0
LINE
  5
31C
100
AcDbEntity
  8
S3_EXTERN_HANDLE_FRONT
100
AcDbLine
 62
5
  6
CONTINUOUS
 10
69.2909527851
 20
213.7499008402
 11
69.9260682256
 21
215.2975155701
  0
LINE
  5
31D
100
AcDbEntity
  8
S3_EXTERN_HANDLE_FRONT
100
AcDbLine
 62
5
  6
CONTINUOUS
 10
64.9930768181
 20
200.7987308006
 11
64.9307676463
 21
200.6504521574
  0
LINE
  5
31E
100
AcDbEntity
  8
S3_EXTERN_HANDLE_FRONT
100
AcDbLine
 62
5
  6
CONTINUOUS
 10
65.2695018228
 20
228.0754173554
 11
62.6844571795
 21
222.2065706492
  0
LINE
  5
31F
100
AcDbEntity
  8
S3_EXTERN_HANDLE_FRONT
100
AcDbLine
 62
5
  6
CONTINUOUS
 10
67.9491036394
 20
233.9844820623
 11
65.2695018228
 21
228.0754173554
  0
LINE
  5
320
100
AcDbEntity
  8
S3_EXTERN_HANDLE_FRONT
100
AcDbLine
 62
5
  6
CONTINUOUS
 10
69.9260682256
 20
215.2975155701
 11
70.7034381875
 21
216.9692931794
  0
LINE
  5
321
100
AcDbEntity
  8
S3_EXTERN_HANDLE_FRONT
100
AcDbLine
 62
5
  6
CONTINUOUS
 10
69.0535615638
 20
236.3476684762
 11
67.9491036394
 21
233.9844820623
  0
LINE
  5
322
100
AcDbEntity
  8
S3_EXTERN_HANDLE_FRONT
100
AcDbLine
 62
5
  6
CONTINUOUS
 10
69.9698306466
 20
238.2547235927
 11
69.0535615638
 21
236.3476684762
  0
LINE
  5
323
100
AcDbEntity
  8
S3_EXTERN_HANDLE_FRONT
100
AcDbLine
 62
5
  6
CONTINUOUS
 10
70.7034381875
 20
216.9692931794
 11
70.9218663876
 21
217.4224599151
  0
LINE
  5
324
100
AcDbEntity
  8
S3_EXTERN_HANDLE_FRONT
100
AcDbLine
 62
5
  6
CONTINUOUS
 10
70.9218663876
 20
217.4224599151
 11
71.7895860297
 21
219.1599230518
  0
LINE
  5
325
100
AcDbEntity
  8
S3_EXTERN_HANDLE_FRONT
100
AcDbLine
 62
5
  6
CONTINUOUS
 10
70.989112595
 20
240.2728951933
 11
69.9698306466
 21
238.2547235927
  0
LINE
  5
326
100
AcDbEntity
  8
S3_EXTERN_HANDLE_FRONT
100
AcDbLine
 62
5
  6
CONTINUOUS
 10
72.0895827602
 20
242.2498159849
 11
70.989112595
 21
240.2728951933
  0
LINE
  5
327
100
AcDbEntity
  8
S3_EXTERN_HANDLE_FRONT
100
AcDbLine
 62
5
  6
CONTINUOUS
 10
60.947672291
 20
250.8887357081
 11
63.3558014452
 21
254.6683415172
  0
LINE
  5
328
100
AcDbEntity
  8
S3_EXTERN_HANDLE_FRONT
100
AcDbLine
 62
5
  6
CONTINUOUS
 10
63.3558014452
 20
254.6683415172
 11
65.3308730199
 21
257.426421517
  0
LINE
  5
329
100
AcDbEntity
  8
S3_EXTERN_HANDLE_FRONT
100
AcDbLine
 62
5
  6
CONTINUOUS
 10
65.3308730199
 20
257.426421517
 11
67.5768576737
 21
260.2801934485
  0
LINE
  5
32A
100
AcDbEntity
  8
S3_EXTERN_HANDLE_FRONT
100
AcDbLine
 62
5
  6
CONTINUOUS
 10
67.5768576737
 20
260.2801934485
 11
69.894680798
 21
263.0027719292
  0
LINE
  5
32B
100
AcDbEntity
  8
S3_EXTERN_HANDLE_FRONT
100
AcDbLine
 62
5
  6
CONTINUOUS
 10
69.894680798
 20
263.0027719292
 11
71.0655519757
 21
264.3248475648
  0
LINE
  5
32C
100
AcDbEntity
  8
S3_EXTERN_HANDLE_FRONT
100
AcDbLine
 62
5
  6
CONTINUOUS
 10
64.9307676463
 20
200.6504521574
 11
64.8937003626
 21
200.5846767315
  0
LINE
  5
32D
100
AcDbEntity
  8
S3_EXTERN_HANDLE_FRONT
100
AcDbLine
 62
5
  6
CONTINUOUS
 10
65.0166165261
 20
200.5439103822
 11
65.1068782759
 21
200.6857305918
  0
LINE
  5
32E
100
AcDbEntity
  8
S3_EXTERN_HANDLE_FRONT
100
AcDbLine
 62
5
  6
CONTINUOUS
 10
71.0655519757
 20
264.3248475648
 11
71.7663012623
 21
265.1082817885
  0
LINE
  5
32F
100
AcDbEntity
  8
MOVING_S3_0-1_FRONT
100
AcDbLine
 62
1
  6
CONTINUOUS
 10
177.6834943617
 20
372.0999137583
 11
177.7970178282
 21
372.1597874932
  0
LINE
  5
330
100
AcDbEntity
  8
0
100
AcDbLine
 62
7
  6
CONTINUOUS
 10
0.0
 20
0.0
 11
691.7282139732
 21
0.0
  0
LINE
  5
331
100
AcDbEntity
  8
0
100
AcDbLine
 62
7
  6
CONTINUOUS
 10
0.0
 20
0.0
 11
662.3168968863
 21
0.0
  0
LINE
  5
332
100
AcDbEntity
  8
S3_EXTERN_HANDLE_FRONT
100
AcDbLine
 62
5
  6
CONTINUOUS
 10
50.2138650698
 20
199.1297086908
 11
50.2102657075
 21
199.1331506868
  0
LINE
  5
333
100
AcDbEntity
  8
S3_EXTERN_HANDLE_FRONT
100
AcDbLine
 62
5
  6
CONTINUOUS
 10
49.4260696748
 20
202.8925584536
 11
49.5234413324
 21
202.7934425541
  0
LINE
  5
334
100
AcDbEntity
  8
S3_EXTERN_HANDLE_FRONT
100
AcDbLine
 62
5
  6
CONTINUOUS
 10
51.2381029665
 20
271.0481925163
 11
46.9780736009
 21
279.1383104413
  0
LINE
  5
335
100
AcDbEntity
  8
S3_EXTERN_HANDLE_FRONT
100
AcDbLine
 62
5
  6
CONTINUOUS
 10
64.8937003626
 20
200.5846767315
 11
64.883179164
 21
200.5721256866
  0
LINE
  5
336
100
AcDbEntity
  8
MOVING_S3_0-1_FRONT
100
AcDbLine
 62
1
  6
CONTINUOUS
 10
177.6294026803
 20
372.0844973568
 11
177.6834943617
 21
372.0999137583
  0
LINE
  5
337
100
AcDbEntity
  8
S3_EXTERN_HANDLE_FRONT
100
AcDbLine
 62
5
  6
CONTINUOUS
 10
72.0219395282
 20
219.3333649011
 11
72.0895857653
 21
219.3915434272
  0
LINE
  5
338
100
AcDbEntity
  8
S3_EXTERN_HANDLE_FRONT
100
AcDbLine
 62
5
  6
CONTINUOUS
 10
71.7895860297
 20
219.1599230518
 11
72.0219395282
 21
219.3333649011
  0
LINE
  5
339
100
AcDbEntity
  8
S3_EXTERN_HANDLE_FRONT
100
AcDbLine
 62
5
  6
CONTINUOUS
 10
367.4969792752
 20
49.2502041174
 11
367.5211698155
 21
49.254429677
  0
LINE
  5
33A
100
AcDbEntity
  8
S3_EXTERN_HANDLE_FRONT
100
AcDbLine
 62
5
  6
CONTINUOUS
 10
367.5211698155
 20
49.254429677
 11
367.5498708302
 21
49.258342584
  0
LINE
  5
33B
100
AcDbEntity
  8
S3_EXTERN_HANDLE_FRONT
100
AcDbLine
 62
5
  6
CONTINUOUS
 10
49.2577049323
 20
203.0078040759
 11
49.4260696748
 21
202.8925584536
  0
LINE
  5
33C
100
AcDbEntity
  8
S3_EXTERN_HANDLE_FRONT
100
AcDbLine
 62
5
  6
CONTINUOUS
 10
50.2211121811
 20
199.1245722442
 11
50.2138650698
 21
199.1297086908
  0
LINE
  5
33D
100
AcDbEntity
  8
MOVING_S3_0-1_FRONT
100
AcDbLine
 62
1
  6
CONTINUOUS
 10
181.9752529236
 20
234.8140224746
 11
181.9731833009
 21
234.7955169818
  0
LINE
  5
33E
100
AcDbEntity
  8
MOVING_S3_0-1_FRONT
100
AcDbLine
 62
1
  6
CONTINUOUS
 10
181.9731833009
 20
234.7955169818
 11
181.9697349529
 21
234.7735702251
  0
LINE
  5
33F
100
AcDbEntity
  8
MOVING_S3_0-1_FRONT
100
AcDbLine
 62
1
  6
CONTINUOUS
 10
181.9697349529
 20
234.7735702251
 11
181.966682077
 21
234.7563438178
  0
LINE
  5
340
100
AcDbEntity
  8
S3_EXTERN_HANDLE_FRONT
100
AcDbLine
 62
5
  6
CONTINUOUS
 10
48.6359797653
 20
203.653655478
 11
48.6839151931
 21
203.6876135695
  0
LINE
  5
341
100
AcDbEntity
  8
S3_EXTERN_HANDLE_FRONT
100
AcDbLine
 62
5
  6
CONTINUOUS
 10
403.7200293429
 20
49.2587695613
 11
403.7385348357
 21
49.2566999386
  0
LINE
  5
342
100
AcDbEntity
  8
S3_EXTERN_HANDLE_FRONT
100
AcDbLine
 62
5
  6
CONTINUOUS
 10
403.7385348357
 20
49.2566999386
 11
403.7604815924
 21
49.2532515905
  0
LINE
  5
343
100
AcDbEntity
  8
S3_EXTERN_HANDLE_FRONT
100
AcDbLine
 62
5
  6
CONTINUOUS
 10
403.7604815924
 20
49.2532515905
 11
403.7777079996
 21
49.2501987147
  0
LINE
  5
344
100
AcDbEntity
  8
S3_EXTERN_HANDLE_FRONT
100
AcDbLine
 62
5
  6
CONTINUOUS
 10
49.0518460283
 20
203.1115695841
 11
49.2577049323
 21
203.0078040759
  0
LINE
  5
345
100
AcDbEntity
  8
S3_EXTERN_HANDLE_FRONT
100
AcDbLine
 62
5
  6
CONTINUOUS
 10
50.2524325975
 20
199.1085927655
 11
50.2211121811
 21
199.1245722442
  0
LINE
  5
346
100
AcDbEntity
  8
MOVING_S3_0-1_FRONT
100
AcDbLine
 62
1
  6
CONTINUOUS
 10
181.9666874797
 20
271.0370725423
 11
181.9709130393
 21
271.012882002
  0
LINE
  5
347
100
AcDbEntity
  8
MOVING_S3_0-1_FRONT
100
AcDbLine
 62
1
  6
CONTINUOUS
 10
181.9709130393
 20
271.012882002
 11
181.9748259463
 21
270.9841809872
  0
LINE
  5
348
100
AcDbEntity
  8
MOVING_S3_0-1_FRONT
100
AcDbLine
 62
1
  6
CONTINUOUS
 10
175.8083868403
 20
386.9154763503
 11
177.6294026803
 21
372.0844973568
  0
LINE
  5
349
100
AcDbEntity
  8
MOVING_S3_0-1_FRONT
100
AcDbLine
 62
1
  6
CONTINUOUS
 10
335.6090418159
 20
369.5169124408
 11
335.5099259164
 21
369.4195407831
  0
LINE
  5
34A
100
AcDbEntity
  8
S3_EXTERN_HANDLE_FRONT
100
AcDbLine
 62
5
  6
CONTINUOUS
 10
32.0275057653
 20
43.091903478
 11
46.8584847588
 21
44.912919318
  0
LINE
  5
34B
100
AcDbEntity
  8
S3_EXTERN_HANDLE_FRONT
100
AcDbLine
 62
5
  6
CONTINUOUS
 10
50.2928624983
 20
199.0921317967
 11
50.2524325975
 21
199.1085927655
  0
LINE
  5
34C
100
AcDbEntity
  8
MOVING_S3_0-1_FRONT
100
AcDbLine
 62
1
  6
CONTINUOUS
 10
335.7242874382
 20
369.6852771833
 11
335.6090418159
 21
369.5169124408
  0
LINE
  5
34D
100
AcDbEntity
  8
MOVING_S3_0-1_FRONT
100
AcDbLine
 62
1
  6
CONTINUOUS
 10
331.8410556065
 20
368.7218699345
 11
331.8461920531
 21
368.7291170457
  0
LINE
  5
34E
100
AcDbEntity
  8
MOVING_S3_0-1_FRONT
100
AcDbLine
 62
1
  6
CONTINUOUS
 10
331.8461920531
 20
368.7291170457
 11
331.8496340491
 21
368.7327164081
  0
LINE
  5
34F
100
AcDbEntity
  8
S3_EXTERN_HANDLE_FRONT
100
AcDbLine
 62
5
  6
CONTINUOUS
 10
67.4155471698
 20
208.4765355595
 11
74.9655127653
 21
211.997142478
  0
LINE
  5
350
100
AcDbEntity
  8
S3_EXTERN_HANDLE_FRONT
100
AcDbLine
 62
5
  6
CONTINUOUS
 10
67.2126087653
 20
207.830214478
 11
75.1768227653
 21
211.543988478
  0
LINE
  5
351
100
AcDbEntity
  8
S3_EXTERN_HANDLE_FRONT
100
AcDbLine
 62
5
  6
CONTINUOUS
 10
46.8614522711
 20
203.8633514606
 11
46.7955780817
 21
203.8339243982
  0
LINE
  5
352
100
AcDbEntity
  8
S3_EXTERN_HANDLE_FRONT
100
AcDbLine
 62
5
  6
CONTINUOUS
 10
47.0923870567
 20
203.963521034
 11
46.8614522711
 21
203.8633514606
  0
LINE
  5
353
100
AcDbEntity
  8
S3_EXTERN_HANDLE_FRONT
100
AcDbLine
 62
5
  6
CONTINUOUS
 10
47.4123507611
 20
204.0857081428
 11
47.0923870567
 21
203.963521034
  0
LINE
  5
354
100
AcDbEntity
  8
S3_EXTERN_HANDLE_FRONT
100
AcDbLine
 62
5
  6
CONTINUOUS
 10
50.6880419819
 20
198.9714029222
 11
50.4800942681
 21
199.0303658848
  0
LINE
  5
355
100
AcDbEntity
  8
S3_EXTERN_HANDLE_FRONT
100
AcDbLine
 62
5
  6
CONTINUOUS
 10
50.4800942681
 20
199.0303658848
 11
50.3830206055
 21
199.0606711136
  0
LINE
  5
356
100
AcDbEntity
  8
S3_EXTERN_HANDLE_FRONT
100
AcDbLine
 62
5
  6
CONTINUOUS
 10
50.3830206055
 20
199.0606711136
 11
50.2928624983
 21
199.0921317967
  0
LINE
  5
357
100
AcDbEntity
  8
S3_EXTERN_HANDLE_FRONT
100
AcDbLine
 62
5
  6
CONTINUOUS
 10
48.6446954197
 20
203.2623850881
 11
48.7696223794
 21
203.2168334176
  0
LINE
  5
358
100
AcDbEntity
  8
S3_EXTERN_HANDLE_FRONT
100
AcDbLine
 62
5
  6
CONTINUOUS
 10
48.7696223794
 20
203.2168334176
 11
49.0518460283
 21
203.1115695841
  0
LINE
  5
359
100
AcDbEntity
  8
S3_EXTERN_HANDLE_FRONT
100
AcDbLine
 62
5
  6
CONTINUOUS
 10
72.0895818997
 20
286.0866025074
 11
71.7895927653
 21
286.310631478
  0
LINE
  5
35A
100
AcDbEntity
  8
MOVING_S3_0-1_FRONT
100
AcDbLine
 62
1
  6
CONTINUOUS
 10
331.808615159
 20
368.6501196173
 11
331.8250761278
 21
368.6905495181
  0
LINE
  5
35B
100
AcDbEntity
  8
MOVING_S3_0-1_FRONT
100
AcDbLine
 62
1
  6
CONTINUOUS
 10
335.8280529464
 20
369.8911360873
 11
335.7242874382
 21
369.6852771833
  0
LINE
  5
35C
100
AcDbEntity
  8
MOVING_S3_0-1_FRONT
100
AcDbLine
 62
1
  6
CONTINUOUS
 10
331.8250761278
 20
368.6905495181
 11
331.8410556065
 21
368.7218699345
  0
LINE
  5
35D
100
AcDbEntity
  8
S3_EXTERN_HANDLE_FRONT
100
AcDbLine
 62
5
  6
CONTINUOUS
 10
351.858914319
 20
347.1534055762
 11
355.6272860967
 21
352.7077849622
  0
LINE
  5
35E
100
AcDbEntity
  8
S3_EXTERN_HANDLE_FRONT
100
AcDbLine
 62
5
  6
CONTINUOUS
 10
355.6272860967
 20
352.7077849622
 11
358.5408889527
 21
356.9493658696
  0
LINE
  5
35F
100
AcDbEntity
  8
S3_EXTERN_HANDLE_FRONT
100
AcDbLine
 62
5
  6
CONTINUOUS
 10
353.7332066316
 20
347.1523840906
 11
360.9845710511
 21
357.3059691531
  0
LINE
  5
360
100
AcDbEntity
  8
S3_EXTERN_HANDLE_FRONT
100
AcDbLine
 62
5
  6
CONTINUOUS
 10
358.5408889527
 20
356.9493658696
 11
360.7597727306
 21
359.9782906913
  0
LINE
  5
361
100
AcDbEntity
  8
S3_EXTERN_HANDLE_FRONT
100
AcDbLine
 62
5
  6
CONTINUOUS
 10
360.7597727306
 20
359.9782906913
 11
361.9741126901
 21
361.5391385266
  0
LINE
  5
362
100
AcDbEntity
  8
S3_EXTERN_HANDLE_FRONT
100
AcDbLine
 62
5
  6
CONTINUOUS
 10
363.7058232591
 20
363.6936870389
 11
364.3411435356
 21
364.5032302775
  0
LINE
  5
363
100
AcDbEntity
  8
S3_EXTERN_HANDLE_FRONT
100
AcDbLine
 62
5
  6
CONTINUOUS
 10
361.9741126901
 20
361.5391385266
 11
363.7058232591
 21
363.6936870389
  0
LINE
  5
364
100
AcDbEntity
  8
S3_EXTERN_HANDLE_FRONT
100
AcDbLine
 62
5
  6
CONTINUOUS
 10
47.9505242658
 20
204.2624526144
 11
47.4123507611
 21
204.0857081428
  0
LINE
  5
365
100
AcDbEntity
  8
MOVING_S3_0-1_FRONT
100
AcDbLine
 62
1
  6
CONTINUOUS
 10
331.6878862846
 20
368.2549401336
 11
331.7468492471
 21
368.4628878475
  0
LINE
  5
366
100
AcDbEntity
  8
MOVING_S3_0-1_FRONT
100
AcDbLine
 62
1
  6
CONTINUOUS
 10
331.7468492471
 20
368.4628878475
 11
331.7771544759
 21
368.5599615101
  0
LINE
  5
367
100
AcDbEntity
  8
MOVING_S3_0-1_FRONT
100
AcDbLine
 62
1
  6
CONTINUOUS
 10
331.7771544759
 20
368.5599615101
 11
331.808615159
 21
368.6501196173
  0
LINE
  5
368
100
AcDbEntity
  8
MOVING_S3_0-1_FRONT
100
AcDbLine
 62
1
  6
CONTINUOUS
 10
335.9788684504
 20
370.2982866959
 11
335.9333167799
 21
370.1733597362
  0
LINE
  5
369
100
AcDbEntity
  8
MOVING_S3_0-1_FRONT
100
AcDbLine
 62
1
  6
CONTINUOUS
 10
335.9333167799
 20
370.1733597362
 11
335.8280529464
 21
369.8911360873
  0
LINE
  5
36A
100
AcDbEntity
  8
S3_EXTERN_HANDLE_FRONT
100
AcDbLine
 62
5
  6
CONTINUOUS
 10
364.3411435356
 20
364.5032302775
 11
364.61108658
 21
364.9186561835
  0
LINE
  5
36B
100
AcDbEntity
  8
MOVING_S3_0-1_FRONT
100
AcDbLine
 62
1
  6
CONTINUOUS
 10
338.7659090048
 20
273.9785976821
 11
338.5834232609
 21
273.906412481
  0
LINE
  5
36C
100
AcDbEntity
  8
MOVING_S3_0-1_FRONT
100
AcDbLine
 62
1
  6
CONTINUOUS
 10
338.9431201203
 20
274.0379048747
 11
338.7659090048
 21
273.9785976821
  0
LINE
  5
36D
100
AcDbEntity
  8
MOVING_S3_0-1_FRONT
100
AcDbLine
 62
1
  6
CONTINUOUS
 10
310.5498421216
 20
272.0766066714
 11
310.5498421216
 21
233.740904752
  0
LINE
  5
36E
100
AcDbEntity
  8
MOVING_S3_0-1_FRONT
100
AcDbLine
 62
1
  6
CONTINUOUS
 10
324.6936577208
 20
271.6622123733
 11
324.6628228086
 21
271.1601280077
  0
LINE
  5
36F
100
AcDbEntity
  8
MOVING_S3_0-1_FRONT
100
AcDbLine
 62
1
  6
CONTINUOUS
 10
324.6628228086
 20
271.1601280077
 11
324.6416332739
 21
270.9030736732
  0
LINE
  5
370
100
AcDbEntity
  8
MOVING_S3_0-1_FRONT
100
AcDbLine
 62
1
  6
CONTINUOUS
 10
324.6416332739
 20
270.9030736732
 11
324.5822538704
 21
270.3445858982
  0
LINE
  5
371
100
AcDbEntity
  8
MOVING_S3_0-1_FRONT
100
AcDbLine
 62
1
  6
CONTINUOUS
 10
324.7352418326
 20
272.0267080132
 11
324.6936577208
 21
271.6622123733
  0
LINE
  5
372
100
AcDbEntity
  8
MOVING_S3_0-1_FRONT
100
AcDbLine
 62
1
  6
CONTINUOUS
 10
324.5822538704
 20
270.3445858982
 11
324.4509221762
 21
269.3815505621
  0
LINE
  5
373
100
AcDbEntity
  8
MOVING_S3_0-1_FRONT
100
AcDbLine
 62
1
  6
CONTINUOUS
 10
324.4509221762
 20
269.3815505621
 11
324.2721679544
 21
268.2705153349
  0
LINE
  5
374
100
AcDbEntity
  8
MOVING_S3_0-1_FRONT
100
AcDbLine
 62
1
  6
CONTINUOUS
 10
324.2721679544
 20
268.2705153349
 11
323.9726204894
 21
266.5876823142
  0
LINE
  5
375
100
AcDbEntity
  8
S3_EXTERN_HANDLE_FRONT
100
AcDbLine
 62
5
  6
CONTINUOUS
 10
361.974398285
 20
361.5394938562
 11
363.6172671373
 21
367.3317126439
  0
LINE
  5
376
100
AcDbEntity
  8
S3_EXTERN_HANDLE_FRONT
100
AcDbLine
 62
5
  6
CONTINUOUS
 10
363.8874975444
 20
270.6596311853
 11
363.8374226796
 21
270.6240127694
  0
LINE
  5
377
100
AcDbEntity
  8
S3_EXTERN_HANDLE_FRONT
100
AcDbLine
 62
5
  6
CONTINUOUS
 10
364.1077288908
 20
270.7640374762
 11
363.8874975444
 21
270.6596311853
  0
LINE
  5
378
100
AcDbEntity
  8
S3_EXTERN_HANDLE_FRONT
100
AcDbLine
 62
5
  6
CONTINUOUS
 10
366.4574451461
 20
177.8333587593
 11
404.7931470654
 21
177.8333587593
  0
LINE
  5
379
100
AcDbEntity
  8
S3_EXTERN_HANDLE_FRONT
100
AcDbLine
 62
5
  6
CONTINUOUS
 10
366.8718394442
 20
191.9771743585
 11
367.3739238097
 21
191.9463394463
  0
LINE
  5
37A
100
AcDbEntity
  8
S3_EXTERN_HANDLE_FRONT
100
AcDbLine
 62
5
  6
CONTINUOUS
 10
367.3739238097
 20
191.9463394463
 11
367.6309781443
 21
191.9251499116
  0
LINE
  5
37B
100
AcDbEntity
  8
S3_EXTERN_HANDLE_FRONT
100
AcDbLine
 62
5
  6
CONTINUOUS
 10
88.2894736423
 20
213.9087842277
 11
87.3894738936
 21
213.996215562
  0
LINE
  5
37C
100
AcDbEntity
  8
MOVING_S3_0-1_FRONT
100
AcDbLine
 62
1
  6
CONTINUOUS
 10
336.5037707244
 20
238.3077756385
 11
336.1214929189
 21
242.5859062389
  0
LINE
  5
37D
100
AcDbEntity
  8
MOVING_S3_0-1_FRONT
100
AcDbLine
 62
1
  6
CONTINUOUS
 10
336.6535264403
 20
236.607860416
 11
336.5037707244
 21
238.3077756385
  0
LINE
  5
37E
100
AcDbEntity
  8
MOVING_S3_0-1_FRONT
100
AcDbLine
 62
1
  6
CONTINUOUS
 10
337.0604622856
 20
238.4076685496
 11
336.6785140984
 21
242.7487705491
  0
LINE
  5
37F
100
AcDbEntity
  8
MOVING_S3_0-1_FRONT
100
AcDbLine
 62
1
  6
CONTINUOUS
 10
336.7004361505
 20
245.2428029302
 11
336.8043527321
 21
243.9924996414
  0
LINE
  5
380
100
AcDbEntity
  8
MOVING_S3_0-1_FRONT
100
AcDbLine
 62
1
  6
CONTINUOUS
 10
337.8161811161
 20
365.8752874919
 11
337.7904217956
 21
366.2264398603
  0
LINE
  5
381
100
AcDbEntity
  8
MOVING_S3_0-1_FRONT
100
AcDbLine
 62
1
  6
CONTINUOUS
 10
336.6785140984
 20
242.7487705491
 11
336.5795339527
 21
244.1942012758
  0
LINE
  5
382
100
AcDbEntity
  8
MOVING_S3_0-1_FRONT
100
AcDbLine
 62
1
  6
CONTINUOUS
 10
337.8298272396
 20
365.6701628395
 11
337.8161811161
 21
365.8752874919
  0
LINE
  5
383
100
AcDbEntity
  8
MOVING_S3_0-1_FRONT
100
AcDbLine
 62
1
  6
CONTINUOUS
 10
336.5795339527
 20
244.1942012758
 11
336.5004879482
 21
245.5507137496
  0
LINE
  5
384
100
AcDbEntity
  8
MOVING_S3_0-1_FRONT
100
AcDbLine
 62
1
  6
CONTINUOUS
 10
335.6670337446
 20
372.5065681952
 11
335.6533448103
 21
372.806167808
  0
LINE
  5
385
100
AcDbEntity
  8
MOVING_S3_0-1_FRONT
100
AcDbLine
 62
1
  6
CONTINUOUS
 10
336.5004879482
 20
245.5507137496
 11
336.3742356449
 21
248.6579617221
  0
LINE
  5
386
100
AcDbEntity
  8
MOVING_S3_0-1_FRONT
100
AcDbLine
 62
1
  6
CONTINUOUS
 10
331.6764547754
 20
272.5697161907
 11
331.6821683694
 21
272.3825382239
  0
LINE
  5
387
100
AcDbEntity
  8
MOVING_S3_0-1_FRONT
100
AcDbLine
 62
1
  6
CONTINUOUS
 10
333.2800714542
 20
354.0747157197
 11
333.270037602
 21
354.4558123391
  0
LINE
  5
388
100
AcDbEntity
  8
MOVING_S3_0-1_FRONT
100
AcDbLine
 62
1
  6
CONTINUOUS
 10
336.622616068
 20
248.4763349842
 11
336.7004361505
 21
245.2428029302
  0
LINE
  5
389
100
AcDbEntity
  8
MOVING_S3_0-1_FRONT
100
AcDbLine
 62
1
  6
CONTINUOUS
 10
336.1513989563
 20
353.8355585799
 11
336.1807608403
 21
352.1533963503
  0
LINE
  5
38A
100
AcDbEntity
  8
MOVING_S3_0-1_FRONT
100
AcDbLine
 62
1
  6
CONTINUOUS
 10
335.6223391718
 20
249.2343320064
 11
335.5639056321
 21
252.7214129424
  0
LINE
  5
38B
100
AcDbEntity
  8
MOVING_S3_0-1_FRONT
100
AcDbLine
 62
1
  6
CONTINUOUS
 10
342.2303984781
 20
351.6248647029
 11
342.2327891063
 21
351.3434106355
  0
LINE
  5
38C
100
AcDbEntity
  8
MOVING_S3_0-1_FRONT
100
AcDbLine
 62
1
  6
CONTINUOUS
 10
331.6764533425
 20
273.4318409646
 11
331.6764547754
 21
272.5697161907
  0
LINE
  5
38D
100
AcDbEntity
  8
MOVING_S3_0-1_FRONT
100
AcDbLine
 62
1
  6
CONTINUOUS
 10
335.4010154082
 20
257.3217087422
 11
335.4010717018
 21
256.3179613689
  0
LINE
  5
38E
100
AcDbEntity
  8
MOVING_S3_0-1_FRONT
100
AcDbLine
 62
1
  6
CONTINUOUS
 10
336.0498400695
 20
242.9166305947
 11
336.0498408036
 21
247.3262615947
  0
LINE
  5
38F
100
AcDbEntity
  8
MOVING_S3_0-1_FRONT
100
AcDbLine
 62
1
  6
CONTINUOUS
 10
336.0498417018
 20
262.5262593689
 11
336.0498417018
 21
258.1166283689
  0
LINE
  5
390
100
AcDbEntity
  8
MOVING_S3_0-1_FRONT
100
AcDbLine
 62
1
  6
CONTINUOUS
 10
337.8498478403
 20
352.1533963503
 11
337.8498478403
 21
353.288592321
  0
LINE
  5
391
100
AcDbEntity
  8
MOVING_S3_0-1_FRONT
100
AcDbLine
 62
1
  6
CONTINUOUS
 10
335.4010146423
 20
248.1211813294
 11
335.4010711031
 21
249.1249287027
  0
LINE
  5
392
100
AcDbEntity
  8
MOVING_S3_0-1_FRONT
100
AcDbLine
 62
1
  6
CONTINUOUS
 10
336.3707828403
 20
372.6336808503
 11
336.3700188403
 21
370.3073483503
  0
LINE
  5
393
100
AcDbEntity
  8
MOVING_S3_0-1_FRONT
100
AcDbLine
 62
1
  6
CONTINUOUS
 10
335.6202071599
 20
256.2085603792
 11
335.5639056225
 21
252.7214443689
  0
LINE
  5
394
100
AcDbEntity
  8
MOVING_S3_0-1_FRONT
100
AcDbLine
 62
1
  6
CONTINUOUS
 10
331.6764533425
 20
232.3857274905
 11
331.6882902168
 21
233.0611220767
  0
LINE
  5
395
100
AcDbEntity
  8
MOVING_S3_0-1_FRONT
100
AcDbLine
 62
1
  6
CONTINUOUS
 10
336.6943507018
 20
260.2010643689
 11
336.5747996138
 21
256.9749873522
  0
LINE
  5
396
100
AcDbEntity
  8
MOVING_S3_0-1_FRONT
100
AcDbLine
 62
1
  6
CONTINUOUS
 10
336.5007368063
 20
260.2685159685
 11
336.3743794244
 21
257.1612722673
  0
LINE
  5
397
100
AcDbEntity
  8
MOVING_S3_0-1_FRONT
100
AcDbLine
 62
1
  6
CONTINUOUS
 10
336.5798286844
 20
261.6250257684
 11
336.5007368063
 21
260.2685159685
  0
LINE
  5
398
100
AcDbEntity
  8
MOVING_S3_0-1_FRONT
100
AcDbLine
 62
1
  6
CONTINUOUS
 10
336.6788577106
 20
263.070453147
 11
336.5798286844
 21
261.6250257684
  0
LINE
  5
399
100
AcDbEntity
  8
MOVING_S3_0-1_FRONT
100
AcDbLine
 62
1
  6
CONTINUOUS
 10
336.6436491758
 20
268.835662592
 11
336.4949354772
 21
267.1356558938
  0
LINE
  5
39A
100
AcDbEntity
  8
MOVING_S3_0-1_FRONT
100
AcDbLine
 62
1
  6
CONTINUOUS
 10
337.0609527018
 20
267.4115422276
 11
336.6788577106
 21
263.070453147
  0
LINE
  5
39B
100
AcDbEntity
  8
MOVING_S3_0-1_FRONT
100
AcDbLine
 62
1
  6
CONTINUOUS
 10
336.4949354772
 20
267.1356558938
 11
336.1152800895
 21
262.857291774
  0
LINE
  5
39C
100
AcDbEntity
  8
S3_EXTERN_HANDLE_FRONT
100
AcDbLine
 62
5
  6
CONTINUOUS
 10
346.6253278431
 20
330.6533963395
 11
346.7127565899
 21
331.5533963395
  0
LINE
  5
39D
100
AcDbEntity
  8
MOVING_S3_0-1_FRONT
100
AcDbLine
 62
1
  6
CONTINUOUS
 10
337.4574844426
 20
270.7166606726
 11
337.0609527018
 21
267.4115422276
  0
LINE
  5
39E
100
AcDbEntity
  8
MOVING_S3_0-1_FRONT
100
AcDbLine
 62
1
  6
CONTINUOUS
 10
337.8366062018
 20
273.4055392276
 11
337.4574844426
 21
270.7166606726
  0
LINE
  5
39F
100
AcDbEntity
  8
S3_EXTERN_HANDLE_FRONT
100
AcDbLine
 62
5
  6
CONTINUOUS
 10
376.2693143701
 20
354.4147922681
 11
376.2698289192
 21
354.416353177
  0
LINE
  5
3A0
100
AcDbEntity
  8
S3_EXTERN_HANDLE_FRONT
100
AcDbLine
 62
5
  6
CONTINUOUS
 10
354.3634940232
 20
265.1272316916
 11
354.6346069995
 21
265.742421221
  0
LINE
  5
3A1
100
AcDbEntity
  8
S3_EXTERN_HANDLE_FRONT
100
AcDbLine
 62
5
  6
CONTINUOUS
 10
354.6346069995
 20
265.742421221
 11
355.2326658853
 21
267.0288310324
  0
LINE
  5
3A2
100
AcDbEntity
  8
S3_EXTERN_HANDLE_FRONT
100
AcDbLine
 62
5
  6
CONTINUOUS
 10
355.2326658853
 20
267.0288310324
 11
355.7472870508
 21
267.9665266996
  0
LINE
  5
3A3
100
AcDbEntity
  8
S3_EXTERN_HANDLE_FRONT
100
AcDbLine
 62
5
  6
CONTINUOUS
 10
355.7472870508
 20
267.9665266996
 11
356.4343098943
 21
269.0228035705
  0
LINE
  5
3A4
100
AcDbEntity
  8
S3_EXTERN_HANDLE_FRONT
100
AcDbLine
 62
5
  6
CONTINUOUS
 10
418.9723455297
 20
346.8534003395
 11
419.1957435297
 21
347.1534033395
  0
LINE
  5
3A5
100
AcDbEntity
  8
S3_EXTERN_HANDLE_FRONT
100
AcDbLine
 62
5
  6
CONTINUOUS
 10
406.1204064949
 20
205.119429722
 11
403.4315151206
 21
204.7403988936
  0
LINE
  5
3A6
100
AcDbEntity
  8
S3_EXTERN_HANDLE_FRONT
100
AcDbLine
 62
5
  6
CONTINUOUS
 10
403.4315151206
 20
204.7403988936
 11
400.1263832678
 21
204.3439789232
  0
LINE
  5
3A7
100
AcDbEntity
  8
S3_EXTERN_HANDLE_FRONT
100
AcDbLine
 62
5
  6
CONTINUOUS
 10
400.226276179
 20
203.7872873621
 11
395.9481455785
 21
203.4050095566
  0
LINE
  5
3A8
100
AcDbEntity
  8
S3_EXTERN_HANDLE_FRONT
100
AcDbLine
 62
5
  6
CONTINUOUS
 10
401.9261914015
 20
203.937043078
 11
400.226276179
 21
203.7872873621
  0
LINE
  5
3A9
100
AcDbEntity
  8
S3_EXTERN_HANDLE_FRONT
100
AcDbLine
 62
5
  6
CONTINUOUS
 10
400.1263832678
 20
204.3439789232
 11
395.7852812683
 21
203.9620307361
  0
LINE
  5
3AA
100
AcDbEntity
  8
S3_EXTERN_HANDLE_FRONT
100
AcDbLine
 62
5
  6
CONTINUOUS
 10
393.2912488873
 20
203.9839527882
 11
394.5415521761
 21
204.0878693698
  0
LINE
  5
3AB
100
AcDbEntity
  8
S3_EXTERN_HANDLE_FRONT
100
AcDbLine
 62
5
  6
CONTINUOUS
 10
395.7852812683
 20
203.9620307361
 11
394.3398505417
 21
203.8630505904
  0
LINE
  5
3AC
100
AcDbEntity
  8
S3_EXTERN_HANDLE_FRONT
100
AcDbLine
 62
5
  6
CONTINUOUS
 10
394.3398505417
 20
203.8630505904
 11
392.9833380679
 21
203.7840045859
  0
LINE
  5
3AD
100
AcDbEntity
  8
S3_EXTERN_HANDLE_FRONT
100
AcDbLine
 62
5
  6
CONTINUOUS
 10
46.4364139204
 20
202.9505503823
 11
46.1368143075
 21
202.936861448
  0
LINE
  5
3AE
100
AcDbEntity
  8
S3_EXTERN_HANDLE_FRONT
100
AcDbLine
 62
5
  6
CONTINUOUS
 10
392.9833380679
 20
203.7840045859
 11
389.8760900953
 21
203.6577522826
  0
LINE
  5
3AF
100
AcDbEntity
  8
S3_EXTERN_HANDLE_FRONT
100
AcDbLine
 62
5
  6
CONTINUOUS
 10
365.9643356267
 20
198.9599714131
 11
366.1515135936
 21
198.9656850071
  0
LINE
  5
3B0
100
AcDbEntity
  8
S3_EXTERN_HANDLE_FRONT
100
AcDbLine
 62
5
  6
CONTINUOUS
 10
64.8682663959
 20
200.5635880919
 11
64.4871697765
 21
200.5535542397
  0
LINE
  5
3B1
100
AcDbEntity
  8
S3_EXTERN_HANDLE_FRONT
100
AcDbLine
 62
5
  6
CONTINUOUS
 10
390.0577168332
 20
203.9061327057
 11
393.2912488873
 21
203.9839527882
  0
LINE
  5
3B2
100
AcDbEntity
  8
S3_EXTERN_HANDLE_FRONT
100
AcDbLine
 62
5
  6
CONTINUOUS
 10
65.1074235357
 20
203.434915594
 11
66.7895857653
 21
203.464277478
  0
LINE
  5
3B3
100
AcDbEntity
  8
S3_EXTERN_HANDLE_FRONT
100
AcDbLine
 62
5
  6
CONTINUOUS
 10
389.2997198111
 20
202.9058558095
 11
385.8126388751
 21
202.8474222698
  0
LINE
  5
3B4
100
AcDbEntity
  8
S3_EXTERN_HANDLE_FRONT
100
AcDbLine
 62
5
  6
CONTINUOUS
 10
67.3181174127
 20
209.5139151158
 11
67.5995714801
 21
209.516305744
  0
LINE
  5
3B5
100
AcDbEntity
  8
S3_EXTERN_HANDLE_FRONT
100
AcDbLine
 62
5
  6
CONTINUOUS
 10
365.1022108528
 20
198.9599699802
 11
365.9643356267
 21
198.9599714131
  0
LINE
  5
3B6
100
AcDbEntity
  8
S3_EXTERN_HANDLE_FRONT
100
AcDbLine
 62
5
  6
CONTINUOUS
 10
381.2123430752
 20
202.6845320459
 11
382.2160904486
 21
202.6845883395
  0
LINE
  5
3B7
100
AcDbEntity
  8
S3_EXTERN_HANDLE_FRONT
100
AcDbLine
 62
5
  6
CONTINUOUS
 10
376.0077924486
 20
203.3333583395
 11
380.4174234486
 21
203.3333583395
  0
LINE
  5
3B8
100
AcDbEntity
  8
S3_EXTERN_HANDLE_FRONT
100
AcDbLine
 62
5
  6
CONTINUOUS
 10
395.6174212227
 20
203.3333567072
 11
391.2077902227
 21
203.3333574413
  0
LINE
  5
3B9
100
AcDbEntity
  8
S3_EXTERN_HANDLE_FRONT
100
AcDbLine
 62
5
  6
CONTINUOUS
 10
66.7895857653
 20
205.133364478
 11
65.6543897946
 21
205.133364478
  0
LINE
  5
3BA
100
AcDbEntity
  8
S3_EXTERN_HANDLE_FRONT
100
AcDbLine
 62
5
  6
CONTINUOUS
 10
390.4128704881
 20
202.68453128
 11
389.4091231147
 21
202.6845877408
  0
LINE
  5
3BB
100
AcDbEntity
  8
S3_EXTERN_HANDLE_FRONT
100
AcDbLine
 62
5
  6
CONTINUOUS
 10
46.3093012653
 20
203.654299478
 11
48.6356337653
 21
203.653535478
  0
LINE
  5
3BC
100
AcDbEntity
  8
S3_EXTERN_HANDLE_FRONT
100
AcDbLine
 62
5
  6
CONTINUOUS
 10
382.3254914382
 20
202.9037237976
 11
385.8126074486
 21
202.8474222602
  0
LINE
  5
3BD
100
AcDbEntity
  8
S3_EXTERN_HANDLE_FRONT
100
AcDbLine
 62
5
  6
CONTINUOUS
 10
406.1483243269
 20
198.9599699802
 11
405.4729297407
 21
198.9718068545
  0
LINE
  5
3BE
100
AcDbEntity
  8
S3_EXTERN_HANDLE_FRONT
100
AcDbLine
 62
5
  6
CONTINUOUS
 10
378.3329874486
 20
203.9778673395
 11
381.5590644652
 21
203.8583162515
  0
LINE
  5
3BF
100
AcDbEntity
  8
S3_EXTERN_HANDLE_FRONT
100
AcDbLine
 62
5
  6
CONTINUOUS
 10
378.2655358489
 20
203.784253444
 11
381.3727795502
 21
203.6578960621
  0
LINE
  5
3C0
100
AcDbEntity
  8
S3_EXTERN_HANDLE_FRONT
100
AcDbLine
 62
5
  6
CONTINUOUS
 10
376.909026049
 20
203.8633453221
 11
378.2655358489
 21
203.784253444
  0
LINE
  5
3C1
100
AcDbEntity
  8
S3_EXTERN_HANDLE_FRONT
100
AcDbLine
 62
5
  6
CONTINUOUS
 10
375.4635986704
 20
203.9623743483
 11
376.909026049
 21
203.8633453221
  0
LINE
  5
3C2
100
AcDbEntity
  8
S3_EXTERN_HANDLE_FRONT
100
AcDbLine
 62
5
  6
CONTINUOUS
 10
369.6983892254
 20
203.9271658135
 11
371.3983959237
 21
203.7784521148
  0
LINE
  5
3C3
100
AcDbEntity
  8
S3_EXTERN_HANDLE_FRONT
100
AcDbLine
 62
5
  6
CONTINUOUS
 10
371.1225095899
 20
204.3444693395
 11
375.4635986704
 21
203.9623743483
  0
LINE
  5
3C4
100
AcDbEntity
  8
S3_EXTERN_HANDLE_FRONT
100
AcDbLine
 62
5
  6
CONTINUOUS
 10
371.3983959237
 20
203.7784521148
 11
375.6767600435
 21
203.3987967272
  0
LINE
  5
3C5
100
AcDbEntity
  8
S3_EXTERN_HANDLE_FRONT
100
AcDbLine
 62
5
  6
CONTINUOUS
 10
367.6309781443
 20
191.9251499116
 11
368.1894659192
 21
191.8657705081
  0
LINE
  5
3C6
100
AcDbEntity
  8
S3_EXTERN_HANDLE_FRONT
100
AcDbLine
 62
5
  6
CONTINUOUS
 10
366.5073438043
 20
192.0187584703
 11
366.8718394442
 21
191.9771743585
  0
LINE
  5
3C7
100
AcDbEntity
  8
S3_EXTERN_HANDLE_FRONT
100
AcDbLine
 62
5
  6
CONTINUOUS
 10
367.8173911448
 20
204.7410010803
 11
371.1225095899
 21
204.3444693395
  0
LINE
  5
3C8
100
AcDbEntity
  8
S3_EXTERN_HANDLE_FRONT
100
AcDbLine
 62
5
  6
CONTINUOUS
 10
368.1894659192
 20
191.8657705081
 11
369.1525012553
 21
191.7344388139
  0
LINE
  5
3C9
100
AcDbEntity
  8
S3_EXTERN_HANDLE_FRONT
100
AcDbLine
 62
5
  6
CONTINUOUS
 10
365.1285125899
 20
205.1201228395
 11
367.8173911448
 21
204.7410010803
  0
LINE
  5
3CA
100
AcDbEntity
  8
S3_EXTERN_HANDLE_FRONT
100
AcDbLine
 62
5
  6
CONTINUOUS
 10
369.1525012553
 20
191.7344388139
 11
370.2635364826
 21
191.5556845921
  0
LINE
  5
3CB
100
AcDbEntity
  8
S3_EXTERN_HANDLE_FRONT
100
AcDbLine
 62
5
  6
CONTINUOUS
 10
370.2635364826
 20
191.5556845921
 11
371.9463695032
 21
191.2561371271
  0
LINE
  5
3CC
100
AcDbEntity
  8
MOVING_S3_0-1_FRONT
100
AcDbLine
 62
1
  6
CONTINUOUS
 10
337.8359130843
 20
232.4136453226
 11
337.4568822559
 21
235.1025366968
  0
LINE
  5
3CD
100
AcDbEntity
  8
MOVING_S3_0-1_FRONT
100
AcDbLine
 62
1
  6
CONTINUOUS
 10
337.4568822559
 20
235.1025366968
 11
337.0604622856
 21
238.4076685496
  0
LINE
  5
3CE
100
AcDbEntity
  8
MOVING_S3_0-1_FRONT
100
AcDbLine
 62
1
  6
CONTINUOUS
 10
337.7384438353
 20
366.8271842886
 11
337.6813743051
 21
367.3734064957
  0
LINE
  5
3CF
100
AcDbEntity
  8
S3_EXTERN_HANDLE_FRONT
100
AcDbLine
 62
5
  6
CONTINUOUS
 10
372.1196974486
 20
192.8104423395
 11
371.14106792
 21
203.0464129933
  0
LINE
  5
3D0
100
AcDbEntity
  8
MOVING_S3_0-1_FRONT
100
AcDbLine
 62
1
  6
CONTINUOUS
 10
337.7904217956
 20
366.2264398603
 11
337.7384438353
 21
366.8271842886
  0
LINE
  5
3D1
100
AcDbEntity
  8
S3_EXTERN_HANDLE_FRONT
100
AcDbLine
 62
5
  6
CONTINUOUS
 10
365.1022108528
 20
198.9599699802
 11
365.8994508465
 21
189.6422854504
  0
LINE
  5
3D2
100
AcDbEntity
  8
S3_EXTERN_HANDLE_FRONT
100
AcDbLine
 62
5
  6
CONTINUOUS
 10
367.2063108391
 20
203.8380687436
 11
367.5408863053
 21
199.138391029
  0
LINE
  5
3D3
100
AcDbEntity
  8
S3_EXTERN_HANDLE_FRONT
100
AcDbLine
 62
5
  6
CONTINUOUS
 10
367.5408863053
 20
199.138391029
 11
367.9144208469
 21
193.1615680442
  0
LINE
  5
3D4
100
AcDbEntity
  8
S3_EXTERN_HANDLE_FRONT
100
AcDbLine
 62
5
  6
CONTINUOUS
 10
365.8490318131
 20
204.0280835553
 11
366.1515135936
 21
198.9656850071
  0
LINE
  5
3D5
100
AcDbEntity
  8
S3_EXTERN_HANDLE_FRONT
100
AcDbLine
 62
5
  6
CONTINUOUS
 10
371.3983594486
 20
203.7791253395
 11
371.4247911556
 21
203.2912721191
  0
LINE
  5
3D6
100
AcDbEntity
  8
S3_EXTERN_HANDLE_FRONT
100
AcDbLine
 62
5
  6
CONTINUOUS
 10
366.1515135936
 20
198.9656850071
 11
366.5073438043
 21
192.0187584703
  0
LINE
  5
3D7
100
AcDbEntity
  8
S3_EXTERN_HANDLE_FRONT
100
AcDbLine
 62
5
  6
CONTINUOUS
 10
365.8994508465
 20
189.6422854504
 11
366.4574451461
 21
177.8333587593
  0
LINE
  5
3D8
100
AcDbEntity
  8
S3_EXTERN_HANDLE_FRONT
100
AcDbLine
 62
5
  6
CONTINUOUS
 10
366.4574451461
 20
177.8333587593
 11
366.8287489959
 21
142.910948548
  0
LINE
  5
3D9
100
AcDbEntity
  8
S3_EXTERN_HANDLE_FRONT
100
AcDbLine
 62
5
  6
CONTINUOUS
 10
366.6076557028
 20
89.9458216086
 11
366.5252675899
 21
51.209021757
  0
LINE
  5
3DA
100
AcDbEntity
  8
S3_EXTERN_HANDLE_FRONT
100
AcDbLine
 62
5
  6
CONTINUOUS
 10
366.8287489959
 20
142.910948548
 11
366.6076557028
 21
89.9458216086
  0
LINE
  5
3DB
100
AcDbEntity
  8
S3_EXTERN_HANDLE_FRONT
100
AcDbLine
 62
5
  6
CONTINUOUS
 10
379.4818721531
 20
353.1010603833
 11
379.5310403985
 21
354.0392463942
  0
LINE
  5
3DC
100
AcDbEntity
  8
S3_EXTERN_HANDLE_FRONT
100
AcDbLine
 62
5
  6
CONTINUOUS
 10
379.564053874
 20
351.3434107756
 11
379.6252655297
 21
352.2898391269
  0
LINE
  5
3DD
100
AcDbEntity
  8
S3_EXTERN_HANDLE_FRONT
100
AcDbLine
 62
5
  6
CONTINUOUS
 10
376.3201180979
 20
351.624864843
 11
376.4252655297
 21
352.5666163242
  0
LINE
  5
3DE
100
AcDbEntity
  8
S3_EXTERN_HANDLE_FRONT
100
AcDbLine
 62
5
  6
CONTINUOUS
 10
386.5104157706
 20
281.9314370455
 11
386.7374386832
 21
283.1212223319
  0
LINE
  5
3DF
100
AcDbEntity
  8
S3_EXTERN_HANDLE_FRONT
100
AcDbLine
 62
5
  6
CONTINUOUS
 10
386.7374386832
 20
283.1212223319
 11
386.9893387618
 21
284.3918743945
  0
LINE
  5
3E0
100
AcDbEntity
  8
S3_EXTERN_HANDLE_FRONT
100
AcDbLine
 62
5
  6
CONTINUOUS
 10
387.2383614028
 20
285.4737458585
 11
387.4573828385
 21
286.485500171
  0
LINE
  5
3E1
100
AcDbEntity
  8
S3_EXTERN_HANDLE_FRONT
100
AcDbLine
 62
5
  6
CONTINUOUS
 10
386.9893387618
 20
284.3918743945
 11
387.2383614028
 21
285.4737458585
  0
LINE
  5
3E2
100
AcDbEntity
  8
S3_EXTERN_HANDLE_FRONT
100
AcDbLine
 62
5
  6
CONTINUOUS
 10
383.7931532301
 20
286.4855001753
 11
383.8667355889
 21
286.7277022536
  0
LINE
  5
3E3
100
AcDbEntity
  8
S3_EXTERN_HANDLE_FRONT
100
AcDbLine
 62
5
  6
CONTINUOUS
 10
383.8667355889
 20
286.7277022536
 11
383.9977127332
 21
287.0381515421
  0
LINE
  5
3E4
100
AcDbEntity
  8
S3_EXTERN_HANDLE_FRONT
100
AcDbLine
 62
5
  6
CONTINUOUS
 10
383.9977127332
 20
287.0381515421
 11
384.2426213801
 21
287.6088458373
  0
LINE
  5
3E5
100
AcDbEntity
  8
S3_EXTERN_HANDLE_FRONT
100
AcDbLine
 62
5
  6
CONTINUOUS
 10
51.5695756199
 20
204.9648909428
 11
51.071003985
 21
204.903726109
  0
LINE
  5
3E6
100
AcDbEntity
  8
S3_EXTERN_HANDLE_FRONT
100
AcDbLine
 62
5
  6
CONTINUOUS
 10
52.115797827
 20
205.021960473
 11
51.5695756199
 21
204.9648909428
  0
LINE
  5
3E7
100
AcDbEntity
  8
S3_EXTERN_HANDLE_FRONT
100
AcDbLine
 62
5
  6
CONTINUOUS
 10
52.7165422553
 20
205.0739384333
 11
52.115797827
 21
205.021960473
  0
LINE
  5
3E8
100
AcDbEntity
  8
S3_EXTERN_HANDLE_FRONT
100
AcDbLine
 62
5
  6
CONTINUOUS
 10
53.0676946237
 20
205.0996977538
 11
52.7165422553
 21
205.0739384333
  0
LINE
  5
3E9
100
AcDbEntity
  8
S3_EXTERN_HANDLE_FRONT
100
AcDbLine
 62
5
  6
CONTINUOUS
 10
53.2728192761
 20
205.1133438773
 11
53.0676946237
 21
205.0996977538
  0
LINE
  5
3EA
100
AcDbEntity
  8
MOVING_S3_0-1_FRONT
100
AcDbLine
 62
1
  6
CONTINUOUS
 10
275.6287053717
 20
234.1122161403
 11
222.6635782988
 21
233.891154813
  0
LINE
  5
3EB
100
AcDbEntity
  8
MOVING_S3_0-1_FRONT
100
AcDbLine
 62
1
  6
CONTINUOUS
 10
222.6635782988
 20
233.891154813
 11
183.9267926288
 21
233.8087842333
  0
LINE
  5
3EC
100
AcDbEntity
  8
AXIS
100
AcDbLine
 62
4
  6
CONTINUOUS
 10
539.4649412931
 20
238.8333583395
 11
549.4649412931
 21
238.8333583395
  0
LINE
  5
3ED
100
AcDbEntity
  8
AXIS
100
AcDbLine
 62
4
  6
CONTINUOUS
 10
579.4649412931
 20
238.8333583395
 11
589.4649412931
 21
238.8333583395
  0
LINE
  5
3EE
100
AcDbEntity
  8
S3_EXTERN_HANDLE_FRONT
100
AcDbLine
 62
6
  6
CONTINUOUS
 10
69.7896245772
 20
240.9087842276
 11
88.2896245772
 21
240.9087842276
  0
LINE
  5
3EF
100
AcDbEntity
  8
MOVING_S3_0-1_FRONT
100
AcDbLine
 62
1
  6
CONTINUOUS
 10
310.5511153589
 20
233.7408912139
 11
275.6287053717
 21
234.1122161403
  0
LINE
  5
3F0
100
AcDbEntity
  8
MOVING_S3_0-1_FRONT
100
AcDbLine
 62
1
  6
CONTINUOUS
 10
336.398326523
 20
242.583257483
 11
336.59465392
 21
242.574294819
  0
LINE
  5
3F1
100
AcDbEntity
  8
MOVING_S3_0-1_FRONT
100
AcDbLine
 62
1
  6
CONTINUOUS
 10
322.3600417133
 20
233.1828897873
 11
310.5511153589
 21
233.7408912139
  0
LINE
  5
3F2
100
AcDbEntity
  8
MOVING_S3_0-1_FRONT
100
AcDbLine
 62
1
  6
CONTINUOUS
 10
324.7352301814
 20
233.4161721632
 11
331.6882902168
 21
233.0611220767
  0
LINE
  5
3F3
100
AcDbEntity
  8
MOVING_S3_0-1_FRONT
100
AcDbLine
 62
1
  6
CONTINUOUS
 10
336.5044182156
 20
238.3080910581
 11
336.0165489317
 21
238.3342245911
  0
LINE
  5
3F4
100
AcDbEntity
  8
MOVING_S3_0-1_FRONT
100
AcDbLine
 62
1
  6
CONTINUOUS
 10
331.6882902168
 20
233.0611220767
 11
336.7441024151
 21
232.761071073
  0
LINE
  5
3F5
100
AcDbEntity
  8
MOVING_S3_0-1_FRONT
100
AcDbLine
 62
1
  6
CONTINUOUS
 10
331.8660356436
 20
234.4477788943
 11
325.8889856129
 21
234.8176626277
  0
LINE
  5
3F6
100
AcDbEntity
  8
MOVING_S3_0-1_FRONT
100
AcDbLine
 62
1
  6
CONTINUOUS
 10
336.5659168455
 20
234.1160741282
 11
331.8660356436
 21
234.4477788943
  0
LINE
  5
3F7
100
AcDbEntity
  8
MOVING_S3_0-1_FRONT
100
AcDbLine
 62
1
  6
CONTINUOUS
 10
331.6764533425
 20
232.3857274905
 11
322.3600417133
 21
233.1828897873
  0
LINE
  5
3F8
100
AcDbEntity
  8
MOVING_S3_0-1_FRONT
100
AcDbLine
 62
1
  6
CONTINUOUS
 10
335.7942992018
 20
238.0523858689
 11
325.5269174378
 21
239.0285253298
  0
LINE
  5
3F9
100
AcDbEntity
  8
MOVING_S3_0-1_FRONT
100
AcDbLine
 62
1
  6
CONTINUOUS
 10
333.9511410609
 20
232.1168639496
 11
331.6764533425
 21
232.3857274905
  0
LINE
  5
3FA
100
AcDbEntity
  8
MOVING_S3_0-1_FRONT
100
AcDbLine
 62
1
  6
CONTINUOUS
 10
336.6502907041
 20
231.7603360378
 11
333.9511410609
 21
232.1168639496
  0
LINE
  5
3FB
100
AcDbEntity
  8
MOVING_S3_0-1_FRONT
100
AcDbLine
 62
1
  6
CONTINUOUS
 10
339.8609604539
 20
231.2524621194
 11
336.6502907041
 21
231.7603360378
  0
LINE
  5
3FC
100
AcDbEntity
  8
MOVING_S3_0-1_FRONT
100
AcDbLine
 62
1
  6
CONTINUOUS
 10
339.8741955934
 20
231.0680751584
 11
338.7595636898
 21
231.2805326194
  0
LINE
  5
3FD
100
AcDbEntity
  8
MOVING_S3_0-1_FRONT
100
AcDbLine
 62
1
  6
CONTINUOUS
 10
338.7595636898
 20
231.2805326194
 11
337.9133871141
 21
231.5093924935
  0
LINE
  5
3FE
100
AcDbEntity
  8
S3_EXTERN_HANDLE_FRONT
100
AcDbLine
 62
5
  6
CONTINUOUS
 10
364.5554541353
 20
206.0494256425
 11
364.6276393365
 21
205.8669398986
  0
LINE
  5
3FF
100
AcDbEntity
  8
S3_EXTERN_HANDLE_FRONT
100
AcDbLine
 62
5
  6
CONTINUOUS
 10
364.4961469428
 20
206.226636758
 11
364.5554541353
 21
206.0494256425
  0
LINE
  5
400
100
AcDbEntity
  8
S3_EXTERN_HANDLE_FRONT
100
AcDbLine
 62
5
  6
CONTINUOUS
 10
364.3694240092
 20
206.0299752473
 11
364.5988010118
 21
205.1839387055
  0
LINE
  5
401
100
AcDbEntity
  8
MOVING_S3_0-1_FRONT
100
AcDbLine
 62
1
  6
CONTINUOUS
 10
337.3444912348
 20
369.5264905499
 11
337.1531026794
 21
370.363624947
  0
LINE
  5
402
100
AcDbEntity
  8
S3_EXTERN_HANDLE_FRONT
100
AcDbLine
 62
5
  6
CONTINUOUS
 10
364.1562853404
 20
207.1444770916
 11
364.3694240092
 21
206.0299752473
  0
LINE
  5
403
100
AcDbEntity
  8
MOVING_S3_0-1_FRONT
100
AcDbLine
 62
1
  6
CONTINUOUS
 10
337.5014232039
 20
368.6748660788
 11
337.3444912348
 21
369.5264905499
  0
LINE
  5
404
100
AcDbEntity
  8
S3_EXTERN_HANDLE_FRONT
100
AcDbLine
 62
5
  6
CONTINUOUS
 10
363.9689454817
 20
207.1444770916
 11
364.4768194001
 21
203.9338073418
  0
LINE
  5
405
100
AcDbEntity
  8
MOVING_S3_0-1_FRONT
100
AcDbLine
 62
1
  6
CONTINUOUS
 10
337.6202094713
 20
367.8719781306
 11
337.5014232039
 21
368.6748660788
  0
LINE
  5
406
100
AcDbEntity
  8
S3_EXTERN_HANDLE_FRONT
100
AcDbLine
 62
5
  6
CONTINUOUS
 10
364.4768194001
 20
203.9338073418
 11
364.8333473119
 21
201.2346576986
  0
LINE
  5
407
100
AcDbEntity
  8
MOVING_S3_0-1_FRONT
100
AcDbLine
 62
1
  6
CONTINUOUS
 10
337.6813743051
 20
367.3734064957
 11
337.6202094713
 21
367.8719781306
  0
LINE
  5
408
100
AcDbEntity
  8
S3_EXTERN_HANDLE_FRONT
100
AcDbLine
 62
5
  6
CONTINUOUS
 10
364.8333473119
 20
201.2346576986
 11
365.1022108528
 21
198.9599699802
  0
LINE
  5
409
100
AcDbEntity
  8
S3_EXTERN_HANDLE_FRONT
100
AcDbLine
 62
5
  6
CONTINUOUS
 10
365.0801034687
 20
365.9644708077
 11
365.1924140375
 21
364.3817518876
  0
LINE
  5
40A
100
AcDbEntity
  8
S3_EXTERN_HANDLE_FRONT
100
AcDbLine
 62
5
  6
CONTINUOUS
 10
376.6025233163
 20
354.3630026152
 11
376.6686589063
 21
353.1010603833
  0
LINE
  5
40B
100
AcDbEntity
  8
S3_EXTERN_HANDLE_FRONT
100
AcDbLine
 62
5
  6
CONTINUOUS
 10
375.6744193949
 20
203.6818448486
 11
375.6654567636
 21
203.878172247
  0
LINE
  5
40C
100
AcDbEntity
  8
S3_EXTERN_HANDLE_FRONT
100
AcDbLine
 62
5
  6
CONTINUOUS
 10
390.844893727
 20
203.2524659846
 11
390.837701974
 21
203.5289736311
  0
LINE
  5
40D
100
AcDbEntity
  8
S3_EXTERN_HANDLE_FRONT
100
AcDbLine
 62
5
  6
CONTINUOUS
 10
374.740933269
 20
354.275629105
 11
374.7829516441
 21
352.3309281219
  0
LINE
  5
40E
100
AcDbEntity
  8
S3_EXTERN_HANDLE_FRONT
100
AcDbLine
 62
5
  6
CONTINUOUS
 10
383.0447469205
 20
346.9210500667
 11
383.0009397579
 21
352.0777166687
  0
LINE
  5
40F
100
AcDbEntity
  8
S3_EXTERN_HANDLE_FRONT
100
AcDbLine
 62
5
  6
CONTINUOUS
 10
375.6767600435
 20
203.3987967272
 11
375.6744193949
 21
203.6818448486
  0
LINE
  5
410
100
AcDbEntity
  8
S3_EXTERN_HANDLE_FRONT
100
AcDbLine
 62
5
  6
CONTINUOUS
 10
395.9518973698
 20
202.9178093677
 11
395.9484536387
 21
203.3987950398
  0
LINE
  5
411
100
AcDbEntity
  8
S3_EXTERN_HANDLE_FRONT
100
AcDbLine
 62
5
  6
CONTINUOUS
 10
380.7833137308
 20
202.6461706099
 11
380.7803199309
 21
203.2524668224
  0
LINE
  5
412
100
AcDbEntity
  8
S3_EXTERN_HANDLE_FRONT
100
AcDbLine
 62
5
  6
CONTINUOUS
 10
381.0801214508
 20
351.7479973187
 11
381.0760822375
 21
353.5528576153
  0
LINE
  5
413
100
AcDbEntity
  8
S3_EXTERN_HANDLE_FRONT
100
AcDbLine
 62
5
  6
CONTINUOUS
 10
382.6053734671
 20
202.8844717208
 11
382.5880474486
 21
226.0344203395
  0
LINE
  5
414
100
AcDbEntity
  8
S3_EXTERN_HANDLE_FRONT
100
AcDbLine
 62
5
  6
CONTINUOUS
 10
389.0230218076
 20
226.0363875022
 11
389.0013078576
 21
261.5353192844
  0
LINE
  5
415
100
AcDbEntity
  8
S3_EXTERN_HANDLE_FRONT
100
AcDbLine
 62
5
  6
CONTINUOUS
 10
389.3125347713
 20
202.8989594975
 11
389.2984717562
 21
226.0365559116
  0
LINE
  5
416
100
AcDbEntity
  8
S3_EXTERN_HANDLE_FRONT
100
AcDbLine
 62
5
  6
CONTINUOUS
 10
389.2984717562
 20
226.0365559116
 11
389.2767578061
 21
261.5354876937
  0
LINE
  5
417
100
AcDbEntity
  8
S3_EXTERN_HANDLE_FRONT
100
AcDbLine
 62
5
  6
CONTINUOUS
 10
381.5590644652
 20
203.8583162515
 11
381.5375365909
 21
261.2926675046
  0
LINE
  5
418
100
AcDbEntity
  8
S3_EXTERN_HANDLE_FRONT
100
AcDbLine
 62
5
  6
CONTINUOUS
 10
390.4128874038
 20
202.6220646635
 11
390.4126058337
 21
203.6618530062
  0
LINE
  5
419
100
AcDbEntity
  8
S3_EXTERN_HANDLE_FRONT
100
AcDbLine
 62
5
  6
CONTINUOUS
 10
375.9252655297
 20
353.2687241251
 11
375.9252655297
 21
354.4585384572
  0
LINE
  5
41A
100
AcDbEntity
  8
S3_EXTERN_HANDLE_FRONT
100
AcDbLine
 62
5
  6
CONTINUOUS
 10
376.1126074486
 20
203.3333583395
 11
376.1126074486
 21
203.9290930555
  0
LINE
  5
41B
100
AcDbEntity
  8
S3_EXTERN_HANDLE_FRONT
100
AcDbLine
 62
5
  6
CONTINUOUS
 10
376.4252655297
 20
352.5666163242
 11
376.4252655297
 21
354.3911097372
  0
LINE
  5
41C
100
AcDbEntity
  8
S3_EXTERN_HANDLE_FRONT
100
AcDbLine
 62
5
  6
CONTINUOUS
 10
376.5126074486
 20
203.3333583395
 11
376.5126074486
 21
203.9015053395
  0
LINE
  5
41D
100
AcDbEntity
  8
S3_EXTERN_HANDLE_FRONT
100
AcDbLine
 62
5
  6
CONTINUOUS
 10
379.6252655297
 20
352.2898391269
 11
379.6252655297
 21
354.0282723874
  0
LINE
  5
41E
100
AcDbEntity
  8
S3_EXTERN_HANDLE_FRONT
100
AcDbLine
 62
6
  6
CONTINUOUS
 10
379.6252675899
 20
330.6533963449
 11
379.6252675899
 21
349.1533963449
  0
LINE
  5
41F
100
AcDbEntity
  8
S3_EXTERN_HANDLE_FRONT
100
AcDbLine
 62
5
  6
CONTINUOUS
 10
380.0126074486
 20
203.3333583395
 11
380.0126074486
 21
203.7098513395
  0
LINE
  5
420
100
AcDbEntity
  8
S3_EXTERN_HANDLE_FRONT
100
AcDbLine
 62
5
  6
CONTINUOUS
 10
380.1252655297
 20
352.7653483919
 11
380.1252655297
 21
353.955162724
  0
LINE
  5
421
100
AcDbEntity
  8
S3_EXTERN_HANDLE_FRONT
100
AcDbLine
 62
5
  6
CONTINUOUS
 10
380.3126074486
 20
203.3333583395
 11
380.3126074486
 21
203.6975674804
  0
LINE
  5
422
100
AcDbEntity
  8
S3_EXTERN_HANDLE_FRONT
100
AcDbLine
 62
5
  6
CONTINUOUS
 10
381.6252680336
 20
203.9035304111
 11
381.6252680336
 21
261.2833587627
  0
LINE
  5
423
100
AcDbEntity
  8
S3_EXTERN_HANDLE_FRONT
100
AcDbLine
 62
5
  6
CONTINUOUS
 10
382.3125974486
 20
226.0344203395
 11
382.3126074486
 21
261.5333587627
  0
LINE
  5
424
100
AcDbEntity
  8
S3_EXTERN_HANDLE_FRONT
100
AcDbLine
 62
5
  6
CONTINUOUS
 10
382.3126806968
 20
202.8968196518
 11
382.3125974486
 21
226.0344203395
  0
LINE
  5
425
100
AcDbEntity
  8
S3_EXTERN_HANDLE_FRONT
100
AcDbLine
 62
5
  6
CONTINUOUS
 10
382.5880474486
 20
226.0344203395
 11
382.5880574486
 21
261.5333587627
  0
LINE
  5
426
100
AcDbEntity
  8
S3_EXTERN_HANDLE_FRONT
100
AcDbLine
 62
5
  6
CONTINUOUS
 10
383.4252655297
 20
352.4147743473
 11
383.4252655297
 21
349.5819029866
  0
LINE
  5
427
100
AcDbEntity
  8
S3_EXTERN_HANDLE_FRONT
100
AcDbLine
 62
6
  6
CONTINUOUS
 10
383.6252675899
 20
349.1533963449
 11
383.6252675899
 21
354.1533963449
  0
LINE
  5
428
100
AcDbEntity
  8
S3_EXTERN_HANDLE_FRONT
100
AcDbLine
 62
5
  6
CONTINUOUS
 10
384.6252655297
 20
351.5697032926
 11
384.6252655297
 21
343.1113964437
  0
LINE
  5
429
100
AcDbEntity
  8
S3_EXTERN_HANDLE_FRONT
100
AcDbLine
 62
5
  6
CONTINUOUS
 10
385.1252655297
 20
342.6113964437
 11
385.1252655297
 21
352.635253157
  0
LINE
  5
42A
100
AcDbEntity
  8
S3_EXTERN_HANDLE_FRONT
100
AcDbLine
 62
5
  6
CONTINUOUS
 10
385.6252675899
 20
191.5341728065
 11
385.6252675899
 21
202.8504469723
  0
LINE
  5
42B
100
AcDbEntity
  8
AXIS
100
AcDbLine
 62
4
  6
CONTINUOUS
 10
385.6252675899
 20
235.2828919688
 11
385.6252675899
 21
270.5346764864
  0
LINE
  5
42C
100
AcDbEntity
  8
AXIS
100
AcDbLine
 62
4
  6
CONTINUOUS
 10
385.6252939118
 20
321.4977930331
 11
385.625207784
 21
351.4557931372
  0
LINE
  5
42D
100
AcDbEntity
  8
S3_EXTERN_HANDLE_FRONT
100
AcDbLine
 62
5
  6
CONTINUOUS
 10
386.1252655297
 20
342.6113964437
 11
386.1252655297
 21
352.6352219368
  0
LINE
  5
42E
100
AcDbEntity
  8
S3_EXTERN_HANDLE_FRONT
100
AcDbLine
 62
5
  6
CONTINUOUS
 10
386.6252655297
 20
343.1113964437
 11
386.6252655297
 21
351.5697032926
  0
LINE
  5
42F
100
AcDbEntity
  8
S3_EXTERN_HANDLE_FRONT
100
AcDbLine
 62
6
  6
CONTINUOUS
 10
387.6252675899
 20
354.1533963449
 11
387.6252675899
 21
349.1533963449
  0
LINE
  5
430
100
AcDbEntity
  8
S3_EXTERN_HANDLE_FRONT
100
AcDbLine
 62
5
  6
CONTINUOUS
 10
387.8252655297
 20
349.5819029866
 11
387.8252655297
 21
352.4136449948
  0
LINE
  5
431
100
AcDbEntity
  8
S3_EXTERN_HANDLE_FRONT
100
AcDbLine
 62
5
  6
CONTINUOUS
 10
389.6236099187
 20
203.9033951699
 11
389.6255503493
 21
261.2832234887
  0
LINE
  5
432
100
AcDbEntity
  8
S3_EXTERN_HANDLE_FRONT
100
AcDbLine
 62
5
  6
CONTINUOUS
 10
391.1251120205
 20
352.7654988348
 11
391.1250794748
 21
353.9553131665
  0
LINE
  5
433
100
AcDbEntity
  8
S3_EXTERN_HANDLE_FRONT
100
AcDbLine
 62
5
  6
CONTINUOUS
 10
391.3126062227
 20
203.3333574239
 11
391.3126062834
 21
203.6975665647
  0
LINE
  5
434
100
AcDbEntity
  8
S3_EXTERN_HANDLE_FRONT
100
AcDbLine
 62
5
  6
CONTINUOUS
 10
391.6126062227
 20
203.3333573739
 11
391.6126062854
 21
203.7098503739
  0
LINE
  5
435
100
AcDbEntity
  8
S3_EXTERN_HANDLE_FRONT
100
AcDbLine
 62
6
  6
CONTINUOUS
 10
391.6252675899
 20
349.1533963449
 11
391.6252675899
 21
330.6533963449
  0
LINE
  5
436
100
AcDbEntity
  8
S3_EXTERN_HANDLE_FRONT
100
AcDbLine
 62
5
  6
CONTINUOUS
 10
391.6251250273
 20
352.2900032468
 11
391.6250774748
 21
354.0284365066
  0
LINE
  5
437
100
AcDbEntity
  8
S3_EXTERN_HANDLE_FRONT
100
AcDbLine
 62
5
  6
CONTINUOUS
 10
394.8251174552
 20
352.5668679757
 11
394.8250675487
 21
354.391361388
  0
LINE
  5
438
100
AcDbEntity
  8
S3_EXTERN_HANDLE_FRONT
100
AcDbLine
 62
5
  6
CONTINUOUS
 10
395.1126062227
 20
203.3333567912
 11
395.1126063173
 21
203.9015037912
  0
LINE
  5
439
100
AcDbEntity
  8
S3_EXTERN_HANDLE_FRONT
100
AcDbLine
 62
5
  6
CONTINUOUS
 10
395.3250982498
 20
353.2689894531
 11
395.3250657041
 21
354.4588037848
  0
LINE
  5
43A
100
AcDbEntity
  8
S3_EXTERN_HANDLE_FRONT
100
AcDbLine
 62
5
  6
CONTINUOUS
 10
395.5126062227
 20
203.3333567246
 11
395.5126063219
 21
203.9290914406
  0
LINE
  5
43B
100
AcDbEntity
  8
S3_EXTERN_HANDLE_FRONT
100
AcDbLine
 62
5
  6
CONTINUOUS
 10
389.0198496052
 20
202.8864326172
 11
389.0230218076
 21
226.0363875022
  0
LINE
  5
43C
100
AcDbEntity
  8
S3_EXTERN_HANDLE_FRONT
100
AcDbLine
 62
5
  6
CONTINUOUS
 10
381.2123261491
 20
202.6220654293
 11
381.2126078923
 21
203.661853772
  0
LINE
  5
43D
100
AcDbEntity
  8
S3_EXTERN_HANDLE_FRONT
100
AcDbLine
 62
5
  6
CONTINUOUS
 10
390.0876795673
 20
261.2926677072
 11
390.0577168332
 21
203.9061327057
  0
LINE
  5
43E
100
AcDbEntity
  8
S3_EXTERN_HANDLE_FRONT
100
AcDbLine
 62
5
  6
CONTINUOUS
 10
390.170283928
 20
351.7481216432
 11
390.1742737718
 21
353.5529820496
  0
LINE
  5
43F
100
AcDbEntity
  8
S3_EXTERN_HANDLE_FRONT
100
AcDbLine
 62
5
  6
CONTINUOUS
 10
390.8418998261
 20
202.6461697726
 11
390.844893727
 21
203.2524659846
  0
LINE
  5
440
100
AcDbEntity
  8
S3_EXTERN_HANDLE_FRONT
100
AcDbLine
 62
5
  6
CONTINUOUS
 10
375.6733162323
 20
202.9178110557
 11
375.6767600435
 21
203.3987967272
  0
LINE
  5
441
100
AcDbEntity
  8
S3_EXTERN_HANDLE_FRONT
100
AcDbLine
 62
5
  6
CONTINUOUS
 10
395.9484536387
 20
203.3987950398
 11
395.9507943345
 21
203.6818431607
  0
LINE
  5
442
100
AcDbEntity
  8
S3_EXTERN_HANDLE_FRONT
100
AcDbLine
 62
5
  6
CONTINUOUS
 10
388.2505962875
 20
352.0560136881
 11
388.2057841389
 21
346.9210500667
  0
LINE
  5
443
100
AcDbEntity
  8
S3_EXTERN_HANDLE_FRONT
100
AcDbLine
 62
5
  6
CONTINUOUS
 10
396.5094029676
 20
354.2759268284
 11
396.4674377871
 21
352.3312246967
  0
LINE
  5
444
100
AcDbEntity
  8
S3_EXTERN_HANDLE_FRONT
100
AcDbLine
 62
5
  6
CONTINUOUS
 10
380.7803199309
 20
203.2524668224
 11
380.7875117299
 21
203.5289744677
  0
LINE
  5
445
100
AcDbEntity
  8
S3_EXTERN_HANDLE_FRONT
100
AcDbLine
 62
5
  6
CONTINUOUS
 10
395.9507943345
 20
203.6818431607
 11
395.9597569985
 21
203.8781705577
  0
LINE
  5
446
100
AcDbEntity
  8
S3_EXTERN_HANDLE_FRONT
100
AcDbLine
 62
5
  6
CONTINUOUS
 10
394.6478105309
 20
354.3632494174
 11
394.5817094597
 21
353.1013053768
  0
LINE
  5
447
100
AcDbEntity
  8
S3_EXTERN_HANDLE_FRONT
100
AcDbLine
 62
5
  6
CONTINUOUS
 10
375.9472974486
 20
202.9004913395
 11
376.0077924486
 21
203.3333583395
  0
LINE
  5
448
100
AcDbEntity
  8
S3_EXTERN_HANDLE_FRONT
100
AcDbLine
 62
5
  6
CONTINUOUS
 10
391.2077902227
 20
203.3333574413
 11
391.1132371101
 21
202.6567874571
  0
LINE
  5
449
100
AcDbEntity
  8
S3_EXTERN_HANDLE_FRONT
100
AcDbLine
 62
5
  6
CONTINUOUS
 10
404.8051642849
 20
371.6952510053
 11
404.5460878889
 21
370.014175306
  0
LINE
  5
44A
100
AcDbEntity
  8
S3_EXTERN_HANDLE_FRONT
100
AcDbLine
 62
5
  6
CONTINUOUS
 10
417.5163890408
 20
347.1510912994
 11
417.4593247702
 21
346.8510826375
  0
LINE
  5
44B
100
AcDbEntity
  8
S3_EXTERN_HANDLE_FRONT
100
AcDbLine
 62
5
  6
CONTINUOUS
 10
50.2681160368
 20
204.7849398416
 11
49.4164915657
 21
204.6280078725
  0
LINE
  5
44C
100
AcDbEntity
  8
S3_EXTERN_HANDLE_FRONT
100
AcDbLine
 62
5
  6
CONTINUOUS
 10
51.071003985
 20
204.903726109
 11
50.2681160368
 21
204.7849398416
  0
LINE
  5
44D
100
AcDbEntity
  8
MOVING_S3_0-1_FRONT
100
AcDbLine
 62
1
  6
CONTINUOUS
 10
335.6169730594
 20
242.8561356668
 11
336.0498400695
 21
242.9166305947
  0
LINE
  5
44E
100
AcDbEntity
  8
MOVING_S3_0-1_FRONT
100
AcDbLine
 62
1
  6
CONTINUOUS
 10
336.0498417018
 20
258.1166283689
 11
335.3732717018
 21
258.0220753689
  0
LINE
  5
44F
100
AcDbEntity
  8
MOVING_S3_0-1_FRONT
100
AcDbLine
 62
1
  6
CONTINUOUS
 10
336.3983282109
 20
262.8596324226
 11
336.5946556093
 21
262.8685950539
  0
LINE
  5
450
100
AcDbEntity
  8
MOVING_S3_0-1_FRONT
100
AcDbLine
 62
1
  6
CONTINUOUS
 10
335.9689493469
 20
247.6891580905
 11
336.2454569934
 21
247.6963498435
  0
LINE
  5
451
100
AcDbEntity
  8
MOVING_S3_0-1_FRONT
100
AcDbLine
 62
1
  6
CONTINUOUS
 10
336.1152800895
 20
262.857291774
 11
336.3983282109
 21
262.8596324226
  0
LINE
  5
452
100
AcDbEntity
  8
MOVING_S3_0-1_FRONT
100
AcDbLine
 62
1
  6
CONTINUOUS
 10
335.63429273
 20
242.5821544476
 11
336.1152784021
 21
242.5855981787
  0
LINE
  5
453
100
AcDbEntity
  8
MOVING_S3_0-1_FRONT
100
AcDbLine
 62
1
  6
CONTINUOUS
 10
335.3626539722
 20
257.7507380867
 11
335.9689501847
 21
257.7537318865
  0
LINE
  5
454
100
AcDbEntity
  8
MOVING_S3_0-1_FRONT
100
AcDbLine
 62
1
  6
CONTINUOUS
 10
335.6009550831
 20
255.9286783504
 11
346.7430722004
 21
255.9370173981
  0
LINE
  5
455
100
AcDbEntity
  8
MOVING_S3_0-1_FRONT
100
AcDbLine
 62
1
  6
CONTINUOUS
 10
335.6154428598
 20
249.2215170462
 11
346.7993810602
 21
249.2283146361
  0
LINE
  5
456
100
AcDbEntity
  8
MOVING_S3_0-1_FRONT
100
AcDbLine
 62
1
  6
CONTINUOUS
 10
336.5747996138
 20
256.9749873522
 11
346.8382850088
 21
256.9788343709
  0
LINE
  5
457
100
AcDbEntity
  8
MOVING_S3_0-1_FRONT
100
AcDbLine
 62
1
  6
CONTINUOUS
 10
335.3385480258
 20
248.1211644137
 11
336.3783363685
 21
248.1214459838
  0
LINE
  5
458
100
AcDbEntity
  8
MOVING_S3_0-1_FRONT
100
AcDbLine
 62
1
  6
CONTINUOUS
 10
336.0498400869
 20
243.0214455947
 11
336.6455748029
 21
243.0214454956
  0
LINE
  5
459
100
AcDbEntity
  8
MOVING_S3_0-1_FRONT
100
AcDbLine
 62
1
  6
CONTINUOUS
 10
336.0498401535
 20
243.4214455947
 11
336.6179871535
 21
243.4214455001
  0
LINE
  5
45A
100
AcDbEntity
  8
S3_EXTERN_HANDLE_FRONT
100
AcDbLine
 62
6
  6
CONTINUOUS
 10
64.7896245772
 20
246.9087842276
 11
69.7896245772
 21
246.9087842276
  0
LINE
  5
45B
100
AcDbEntity
  8
MOVING_S3_0-1_FRONT
100
AcDbLine
 62
1
  6
CONTINUOUS
 10
336.0498407362
 20
246.9214455947
 11
336.4263337362
 21
246.9214455321
  0
LINE
  5
45C
100
AcDbEntity
  8
MOVING_S3_0-1_FRONT
100
AcDbLine
 62
1
  6
CONTINUOUS
 10
336.0498407862
 20
247.2214455947
 11
336.4140499271
 21
247.2214455341
  0
LINE
  5
45D
100
AcDbEntity
  8
MOVING_S3_0-1_FRONT
100
AcDbLine
 62
1
  6
CONTINUOUS
 10
336.6198785322
 20
248.9104418987
 11
346.830863068
 21
248.9100965908
  0
LINE
  5
45E
100
AcDbEntity
  8
AXIS
100
AcDbLine
 62
4
  6
CENTER
 10
555.5691537306
 20
252.8333583395
 11
573.3607288557
 21
252.8333583395
  0
LINE
  5
45F
100
AcDbEntity
  8
AXIS
100
AcDbLine
 62
4
  6
CONTINUOUS
 10
97.2895857653
 20
252.908758353
 11
67.3315856612
 21
252.9088444808
  0
LINE
  5
460
100
AcDbEntity
  8
MOVING_S3_0-1_FRONT
100
AcDbLine
 62
1
  6
CONTINUOUS
 10
324.2506561688
 20
252.9087842276
 11
335.5669303346
 21
252.9087842276
  0
LINE
  5
461
100
AcDbEntity
  8
AXIS
100
AcDbLine
 62
4
  6
CONTINUOUS
 10
367.9993753311
 20
252.9087842276
 11
403.2511598487
 21
252.9087842276
  0
LINE
  5
462
100
AcDbEntity
  8
MOVING_S3_0-1_FRONT
100
AcDbLine
 62
1
  6
CONTINUOUS
 10
335.6133030142
 20
256.2213711206
 11
346.7662683818
 21
256.2214112486
  0
LINE
  5
463
100
AcDbEntity
  8
MOVING_S3_0-1_FRONT
100
AcDbLine
 62
1
  6
CONTINUOUS
 10
336.6200137734
 20
256.9087837839
 11
346.8309983148
 21
256.9087837839
  0
LINE
  5
464
100
AcDbEntity
  8
MOVING_S3_0-1_FRONT
100
AcDbLine
 62
1
  6
CONTINUOUS
 10
336.0498417018
 20
258.2214443689
 11
336.4140508427
 21
258.2214443689
  0
LINE
  5
465
100
AcDbEntity
  8
MOVING_S3_0-1_FRONT
100
AcDbLine
 62
1
  6
CONTINUOUS
 10
336.0498417018
 20
258.5214443689
 11
336.4263347018
 21
258.5214443689
  0
LINE
  5
466
100
AcDbEntity
  8
S3_EXTERN_HANDLE_FRONT
100
AcDbLine
 62
6
  6
CONTINUOUS
 10
69.7896245772
 20
258.9087842276
 11
64.7896245772
 21
258.9087842276
  0
LINE
  5
467
100
AcDbEntity
  8
S3_EXTERN_HANDLE_FRONT
100
AcDbLine
 62
5
  6
CONTINUOUS
 10
381.8752680336
 20
261.5333587627
 11
385.6252675899
 21
261.5333587627
  0
LINE
  5
468
100
AcDbEntity
  8
S3_EXTERN_HANDLE_FRONT
100
AcDbLine
 62
5
  6
CONTINUOUS
 10
389.3755588038
 20
261.5332319429
 11
385.6255592497
 21
261.5333587577
  0
LINE
  5
469
100
AcDbEntity
  8
S3_EXTERN_HANDLE_FRONT
100
AcDbLine
 62
5
  6
CONTINUOUS
 10
382.0407365641
 20
261.7928466932
 11
389.5844763187
 21
261.7928471166
  0
LINE
  5
46A
100
AcDbEntity
  8
MOVING_S3_0-1_FRONT
100
AcDbLine
 62
1
  6
CONTINUOUS
 10
336.0498417018
 20
262.0214443689
 11
336.6179887018
 21
262.0214443689
  0
LINE
  5
46B
100
AcDbEntity
  8
MOVING_S3_0-1_FRONT
100
AcDbLine
 62
1
  6
CONTINUOUS
 10
336.0498417018
 20
262.4214443689
 11
336.6455764178
 21
262.4214443689
  0
LINE
  5
46C
100
AcDbEntity
  8
S3_EXTERN_HANDLE_FRONT
100
AcDbLine
 62
6
  6
CONTINUOUS
 10
88.2896245772
 20
264.9087842276
 11
69.7896245772
 21
264.9087842276
  0
LINE
  5
46D
100
AcDbEntity
  8
MOVING_S3_0-1_FRONT
100
AcDbLine
 62
1
  6
CONTINUOUS
 10
335.6029159795
 20
249.5142022122
 11
346.7734756539
 21
249.5126715278
  0
LINE
  5
46E
100
AcDbEntity
  8
MOVING_S3_0-1_FRONT
100
AcDbLine
 62
1
  6
CONTINUOUS
 10
335.3385487916
 20
257.3217256683
 11
336.3783371343
 21
257.3214439251
  0
LINE
  5
46F
100
AcDbEntity
  8
MOVING_S3_0-1_FRONT
100
AcDbLine
 62
1
  6
CONTINUOUS
 10
346.8786390234
 20
248.4709800959
 11
336.622616068
 21
248.4763349842
  0
LINE
  5
470
100
AcDbEntity
  8
MOVING_S3_0-1_FRONT
100
AcDbLine
 62
1
  6
CONTINUOUS
 10
335.3626531349
 20
247.6921519913
 11
335.9689493469
 21
247.6891580905
  0
LINE
  5
471
100
AcDbEntity
  8
MOVING_S3_0-1_FRONT
100
AcDbLine
 62
1
  6
CONTINUOUS
 10
335.634294418
 20
262.8607355851
 11
336.1152800895
 21
262.857291774
  0
LINE
  5
472
100
AcDbEntity
  8
MOVING_S3_0-1_FRONT
100
AcDbLine
 62
1
  6
CONTINUOUS
 10
336.1152784021
 20
242.5855981787
 11
336.398326523
 21
242.583257483
  0
LINE
  5
473
100
AcDbEntity
  8
MOVING_S3_0-1_FRONT
100
AcDbLine
 62
1
  6
CONTINUOUS
 10
335.9689501847
 20
257.7537318865
 11
336.24545783
 21
257.7465400875
  0
LINE
  5
474
100
AcDbEntity
  8
MOVING_S3_0-1_FRONT
100
AcDbLine
 62
1
  6
CONTINUOUS
 10
336.0498408036
 20
247.3262615947
 11
335.3732708194
 21
247.4208147074
  0
LINE
  5
475
100
AcDbEntity
  8
MOVING_S3_0-1_FRONT
100
AcDbLine
 62
1
  6
CONTINUOUS
 10
335.6169747018
 20
262.5867543689
 11
336.0498417018
 21
262.5262593689
  0
LINE
  5
476
100
AcDbEntity
  8
MOVING_S3_0-1_FRONT
100
AcDbLine
 62
1
  6
CONTINUOUS
 10
336.8021915051
 20
371.5306313545
 11
336.6800043963
 21
371.8505950589
  0
LINE
  5
477
100
AcDbEntity
  8
MOVING_S3_0-1_FRONT
100
AcDbLine
 62
1
  6
CONTINUOUS
 10
336.9789359768
 20
370.9924578497
 11
336.8021915051
 21
371.5306313545
  0
LINE
  5
478
100
AcDbEntity
  8
MOVING_S3_0-1_FRONT
100
AcDbLine
 62
1
  6
CONTINUOUS
 10
337.1531026794
 20
370.363624947
 11
336.9789359768
 21
370.9924578497
  0
LINE
  5
479
100
AcDbEntity
  8
S3_EXTERN_HANDLE_FRONT
100
AcDbLine
 62
5
  6
CONTINUOUS
 10
384.2739812766
 20
284.3317424902
 11
384.5260576655
 21
283.0523114868
  0
LINE
  5
47A
100
AcDbEntity
  8
S3_EXTERN_HANDLE_FRONT
100
AcDbLine
 62
5
  6
CONTINUOUS
 10
384.5260576655
 20
283.0523114868
 11
384.7731781621
 21
281.7693675266
  0
LINE
  5
47B
100
AcDbEntity
  8
S3_EXTERN_HANDLE_FRONT
100
AcDbLine
 62
5
  6
CONTINUOUS
 10
353.7902587407
 20
346.8523731157
 11
353.7332066316
 21
347.1523840906
  0
LINE
  5
47C
100
AcDbEntity
  8
S3_EXTERN_HANDLE_FRONT
100
AcDbLine
 62
5
  6
CONTINUOUS
 10
380.4174234486
 20
203.3333583395
 11
380.5119764486
 21
202.6567883395
  0
LINE
  5
47D
100
AcDbEntity
  8
S3_EXTERN_HANDLE_FRONT
100
AcDbLine
 62
5
  6
CONTINUOUS
 10
395.6779161507
 20
202.9004896971
 11
395.6174212227
 21
203.3333567072
  0
LINE
  5
47E
100
AcDbEntity
  8
S3_EXTERN_HANDLE_FRONT
100
AcDbLine
 62
5
  6
CONTINUOUS
 10
391.6863625712
 20
351.3435765702
 11
391.6251250273
 21
352.2900032468
  0
LINE
  5
47F
100
AcDbEntity
  8
S3_EXTERN_HANDLE_FRONT
100
AcDbLine
 62
5
  6
CONTINUOUS
 10
391.7684962139
 20
353.1012284252
 11
391.7193023058
 21
354.0394130908
  0
LINE
  5
480
100
AcDbEntity
  8
S3_EXTERN_HANDLE_FRONT
100
AcDbLine
 62
5
  6
CONTINUOUS
 10
404.4218356772
 20
142.9122220094
 11
404.6428970044
 21
89.9470949365
  0
LINE
  5
481
100
AcDbEntity
  8
S3_EXTERN_HANDLE_FRONT
100
AcDbLine
 62
5
  6
CONTINUOUS
 10
404.6428970044
 20
89.9470949365
 11
404.7252675841
 21
51.2103092665
  0
LINE
  5
482
100
AcDbEntity
  8
S3_EXTERN_HANDLE_FRONT
100
AcDbLine
 62
5
  6
CONTINUOUS
 10
404.7931606036
 20
177.8346319965
 11
404.4218356772
 21
142.9122220094
  0
LINE
  5
483
100
AcDbEntity
  8
S3_EXTERN_HANDLE_FRONT
100
AcDbLine
 62
5
  6
CONTINUOUS
 10
405.3511620302
 20
189.643558351
 11
404.7931606036
 21
177.8346319965
  0
LINE
  5
484
100
AcDbEntity
  8
S3_EXTERN_HANDLE_FRONT
100
AcDbLine
 62
5
  6
CONTINUOUS
 10
405.1178796543
 20
192.0187468191
 11
405.4729297407
 21
198.9718068545
  0
LINE
  5
485
100
AcDbEntity
  8
S3_EXTERN_HANDLE_FRONT
100
AcDbLine
 62
5
  6
CONTINUOUS
 10
400.2259607594
 20
203.7879348533
 11
400.1998272264
 21
203.3000655694
  0
LINE
  5
486
100
AcDbEntity
  8
S3_EXTERN_HANDLE_FRONT
100
AcDbLine
 62
5
  6
CONTINUOUS
 10
405.4729297407
 20
198.9718068545
 11
405.7729807444
 21
204.0276190528
  0
LINE
  5
487
100
AcDbEntity
  8
S3_EXTERN_HANDLE_FRONT
100
AcDbLine
 62
5
  6
CONTINUOUS
 10
404.0862729232
 20
199.1495522813
 11
403.7163891897
 21
193.1725022506
  0
LINE
  5
488
100
AcDbEntity
  8
S3_EXTERN_HANDLE_FRONT
100
AcDbLine
 62
5
  6
CONTINUOUS
 10
404.4179776892
 20
203.8494334832
 11
404.0862729232
 21
199.1495522813
  0
LINE
  5
489
100
AcDbEntity
  8
S3_EXTERN_HANDLE_FRONT
100
AcDbLine
 62
5
  6
CONTINUOUS
 10
406.1483243269
 20
198.9599699802
 11
405.3511620302
 21
189.643558351
  0
LINE
  5
48A
100
AcDbEntity
  8
S3_EXTERN_HANDLE_FRONT
100
AcDbLine
 62
5
  6
CONTINUOUS
 10
400.4816659486
 20
203.0778158395
 11
399.5055264877
 21
192.8104340755
  0
LINE
  5
48B
100
AcDbEntity
  8
S3_EXTERN_HANDLE_FRONT
100
AcDbLine
 62
5
  6
CONTINUOUS
 10
406.4171878679
 20
201.2346576986
 11
406.1483243269
 21
198.9599699802
  0
LINE
  5
48C
100
AcDbEntity
  8
S3_EXTERN_HANDLE_FRONT
100
AcDbLine
 62
5
  6
CONTINUOUS
 10
406.7737157797
 20
203.9338073418
 11
406.4171878679
 21
201.2346576986
  0
LINE
  5
48D
100
AcDbEntity
  8
S3_EXTERN_HANDLE_FRONT
100
AcDbLine
 62
5
  6
CONTINUOUS
 10
407.2815896981
 20
207.1444770916
 11
406.7737157797
 21
203.9338073418
  0
LINE
  5
48E
100
AcDbEntity
  8
S3_EXTERN_HANDLE_FRONT
100
AcDbLine
 62
5
  6
CONTINUOUS
 10
407.4659766591
 20
207.1577122311
 11
407.2535191981
 21
206.0430803275
  0
LINE
  5
48F
100
AcDbEntity
  8
S3_EXTERN_HANDLE_FRONT
100
AcDbLine
 62
5
  6
CONTINUOUS
 10
407.2535191981
 20
206.0430803275
 11
407.0246593239
 21
205.1969037518
  0
LINE
  5
490
100
AcDbEntity
  8
S3_EXTERN_HANDLE_FRONT
100
AcDbLine
 62
5
  6
CONTINUOUS
 10
48.5793571686
 20
204.4366193171
 11
47.9505242658
 21
204.2624526144
  0
LINE
  5
491
100
AcDbEntity
  8
MOVING_S3_0-1_FRONT
100
AcDbLine
 62
1
  6
CONTINUOUS
 10
338.7464586096
 20
274.1646278083
 11
337.9004220678
 21
273.9352508056
  0
LINE
  5
492
100
AcDbEntity
  8
S3_EXTERN_HANDLE_FRONT
100
AcDbLine
 62
5
  6
CONTINUOUS
 10
49.4164915657
 20
204.6280078725
 11
48.5793571686
 21
204.4366193171
  0
LINE
  5
493
100
AcDbEntity
  8
MOVING_S3_0-1_FRONT
100
AcDbLine
 62
1
  6
CONTINUOUS
 10
339.8609604539
 20
274.377766477
 11
338.7464586096
 21
274.1646278083
  0
LINE
  5
494
100
AcDbEntity
  8
MOVING_S3_0-1_FRONT
100
AcDbLine
 62
1
  6
CONTINUOUS
 10
339.8609604539
 20
274.5651063357
 11
336.6502907041
 21
274.0572324174
  0
LINE
  5
495
100
AcDbEntity
  8
MOVING_S3_0-1_FRONT
100
AcDbLine
 62
1
  6
CONTINUOUS
 10
336.6502907041
 20
274.0572324174
 11
333.9511410609
 21
273.7007045056
  0
LINE
  5
496
100
AcDbEntity
  8
MOVING_S3_0-1_FRONT
100
AcDbLine
 62
1
  6
CONTINUOUS
 10
333.9511410609
 20
273.7007045056
 11
331.6764533425
 21
273.4318409646
  0
LINE
  5
497
100
AcDbEntity
  8
MOVING_S3_0-1_FRONT
100
AcDbLine
 62
1
  6
CONTINUOUS
 10
325.5269257018
 20
266.4143543689
 11
335.7628963556
 21
267.3929838975
  0
LINE
  5
498
100
AcDbEntity
  8
MOVING_S3_0-1_FRONT
100
AcDbLine
 62
1
  6
CONTINUOUS
 10
331.6764533425
 20
273.4318409646
 11
322.3587688128
 21
272.634600971
  0
LINE
  5
499
100
AcDbEntity
  8
MOVING_S3_0-1_FRONT
100
AcDbLine
 62
1
  6
CONTINUOUS
 10
336.5545521059
 20
271.3277409783
 11
331.8548743913
 21
270.9931655121
  0
LINE
  5
49A
100
AcDbEntity
  8
MOVING_S3_0-1_FRONT
100
AcDbLine
 62
1
  6
CONTINUOUS
 10
331.8548743913
 20
270.9931655121
 11
325.8780514065
 21
270.6196309706
  0
LINE
  5
49B
100
AcDbEntity
  8
MOVING_S3_0-1_FRONT
100
AcDbLine
 62
1
  6
CONTINUOUS
 10
336.7445669176
 20
272.6850200043
 11
331.6821683694
 21
272.3825382239
  0
LINE
  5
49C
100
AcDbEntity
  8
MOVING_S3_0-1_FRONT
100
AcDbLine
 62
1
  6
CONTINUOUS
 10
336.4956087018
 20
267.1356923689
 11
336.0077554814
 21
267.1092606619
  0
LINE
  5
49D
100
AcDbEntity
  8
MOVING_S3_0-1_FRONT
100
AcDbLine
 62
1
  6
CONTINUOUS
 10
331.6821683694
 20
272.3825382239
 11
324.7352418326
 21
272.0267080132
  0
LINE
  5
49E
100
AcDbEntity
  8
MOVING_S3_0-1_FRONT
100
AcDbLine
 62
1
  6
CONTINUOUS
 10
322.3587688128
 20
272.634600971
 11
310.5498421216
 21
272.0766066714
  0
LINE
  5
49F
100
AcDbEntity
  8
MOVING_S3_0-1_FRONT
100
AcDbLine
 62
1
  6
CONTINUOUS
 10
310.5498421216
 20
272.0766066714
 11
275.6274319103
 21
271.7053028215
  0
LINE
  5
4A0
100
AcDbEntity
  8
AXIS
100
AcDbLine
 62
4
  6
CONTINUOUS
 10
539.4649412931
 20
266.8333583395
 11
549.4649412931
 21
266.8333583395
  0
LINE
  5
4A1
100
AcDbEntity
  8
AXIS
100
AcDbLine
 62
4
  6
CONTINUOUS
 10
579.4649412931
 20
266.8333583395
 11
589.4649412931
 21
266.8333583395
  0
LINE
  5
4A2
100
AcDbEntity
  8
MOVING_S3_0-1_FRONT
100
AcDbLine
 62
1
  6
CONTINUOUS
 10
222.6623049709
 20
271.9263961147
 11
183.9255051193
 21
272.0087842276
  0
LINE
  5
4A3
100
AcDbEntity
  8
MOVING_S3_0-1_FRONT
100
AcDbLine
 62
1
  6
CONTINUOUS
 10
275.6274319103
 20
271.7053028215
 11
222.6623049709
 21
271.9263961147
  0
LINE
  5
4A4
100
AcDbEntity
  8
MOVING_S3_0-1_FRONT
100
AcDbLine
 62
1
  6
CONTINUOUS
 10
340.5466978403
 20
351.7303733503
 11
344.2604718403
 21
343.7661593503
  0
LINE
  5
4A5
100
AcDbEntity
  8
MOVING_S3_0-1_FRONT
100
AcDbLine
 62
1
  6
CONTINUOUS
 10
341.1930189218
 20
351.5274349458
 11
344.7136258403
 21
343.9774693503
  0
LINE
  5
4A6
100
AcDbEntity
  8
MOVING_S3_0-1_FRONT
100
AcDbLine
 62
1
  6
CONTINUOUS
 10
336.5798348229
 20
372.0815298445
 11
336.5504077605
 21
372.1474040339
  0
LINE
  5
4A7
100
AcDbEntity
  8
MOVING_S3_0-1_FRONT
100
AcDbLine
 62
1
  6
CONTINUOUS
 10
336.6800043963
 20
371.8505950589
 11
336.5798348229
 21
372.0815298445
  0
LINE
  5
4A8
100
AcDbEntity
  8
S3_EXTERN_HANDLE_FRONT
100
AcDbLine
 62
5
  6
CONTINUOUS
 10
387.0075763649
 20
287.6095667878
 11
387.252823351
 21
287.038151499
  0
LINE
  5
4A9
100
AcDbEntity
  8
S3_EXTERN_HANDLE_FRONT
100
AcDbLine
 62
5
  6
CONTINUOUS
 10
387.252823351
 20
287.038151499
 11
387.3771450097
 21
286.7280468566
  0
LINE
  5
4AA
100
AcDbEntity
  8
S3_EXTERN_HANDLE_FRONT
100
AcDbLine
 62
5
  6
CONTINUOUS
 10
387.3771450097
 20
286.7280468566
 11
387.4573828385
 21
286.485500171
  0
LINE
  5
4AB
100
AcDbEntity
  8
S3_EXTERN_HANDLE_FRONT
100
AcDbLine
 62
5
  6
CONTINUOUS
 10
383.9947063875
 20
285.5452620676
 11
384.2739812766
 21
284.3317424902
  0
LINE
  5
4AC
100
AcDbEntity
  8
S3_EXTERN_HANDLE_FRONT
100
AcDbLine
 62
5
  6
CONTINUOUS
 10
383.7931532302
 20
286.4855001754
 11
383.9947063875
 21
285.5452620676
  0
LINE
  5
4AD
100
AcDbEntity
  8
S3_EXTERN_HANDLE_FRONT
100
AcDbLine
 62
5
  6
CONTINUOUS
 10
394.9302906472
 20
351.625119371
 11
394.8251174552
 21
352.5668679757
  0
LINE
  5
4AE
100
AcDbEntity
  8
S3_EXTERN_HANDLE_FRONT
100
AcDbLine
 62
5
  6
CONTINUOUS
 10
424.5377785899
 20
331.5533963395
 11
424.6253278431
 21
330.6533963395
  0
LINE
  5
4AF
100
AcDbEntity
  8
S3_EXTERN_HANDLE_FRONT
100
AcDbLine
 62
5
  6
CONTINUOUS
 10
407.5174860064
 20
270.7640374762
 11
407.7377173528
 21
270.6596311853
  0
LINE
  5
4B0
100
AcDbEntity
  8
S3_EXTERN_HANDLE_FRONT
100
AcDbLine
 62
5
  6
CONTINUOUS
 10
407.7377173528
 20
270.6596311853
 11
407.7877922176
 21
270.6240127694
  0
LINE
  5
4B1
100
AcDbEntity
  8
MOVING_S3_0-1_FRONT
100
AcDbLine
 62
1
  6
CONTINUOUS
 10
333.3011600938
 20
354.049281753
 11
333.2886090489
 21
354.0598029516
  0
LINE
  5
4B2
100
AcDbEntity
  8
S3_EXTERN_HANDLE_FRONT
100
AcDbLine
 62
5
  6
CONTINUOUS
 10
352.2781855297
 20
346.8534003395
 11
352.0547875297
 21
347.1534033395
  0
LINE
  5
4B3
100
AcDbEntity
  8
MOVING_S3_0-1_FRONT
100
AcDbLine
 62
1
  6
CONTINUOUS
 10
336.3701388403
 20
370.3070023503
 11
336.4040969318
 21
370.2590669225
  0
LINE
  5
4B4
100
AcDbEntity
  8
S3_EXTERN_HANDLE_FRONT
100
AcDbLine
 62
5
  6
CONTINUOUS
 10
415.8779260195
 20
267.9665268978
 11
415.1909031691
 21
269.0228037641
  0
LINE
  5
4B5
100
AcDbEntity
  8
S3_EXTERN_HANDLE_FRONT
100
AcDbLine
 62
5
  6
CONTINUOUS
 10
416.3925471912
 20
267.0288312339
 11
415.8779260195
 21
267.9665268978
  0
LINE
  5
4B6
100
AcDbEntity
  8
S3_EXTERN_HANDLE_FRONT
100
AcDbLine
 62
5
  6
CONTINUOUS
 10
416.9906060855
 20
265.7424214265
 11
416.3925471912
 21
267.0288312339
  0
LINE
  5
4B7
100
AcDbEntity
  8
S3_EXTERN_HANDLE_FRONT
100
AcDbLine
 62
5
  6
CONTINUOUS
 10
417.2617190659
 20
265.1272318988
 11
416.9906060855
 21
265.7424214265
  0
LINE
  5
4B8
100
AcDbEntity
  8
S3_EXTERN_HANDLE_FRONT
100
AcDbLine
 62
5
  6
CONTINUOUS
 10
394.9810180604
 20
354.4150481847
 11
394.9805034686
 21
354.4166090796
  0
LINE
  5
4B9
100
AcDbEntity
  8
S3_EXTERN_HANDLE_FRONT
100
AcDbLine
 62
5
  6
CONTINUOUS
 10
71.7895927653
 20
286.513035478
 11
71.2895859162
 21
286.4424623428
  0
LINE
  5
4BA
100
AcDbEntity
  8
S3_EXTERN_HANDLE_FRONT
100
AcDbLine
 62
5
  6
CONTINUOUS
 10
87.3896976367
 20
291.8212375617
 11
88.2896978884
 21
291.9087842274
  0
LINE
  5
4BB
100
AcDbEntity
  8
S3_EXTERN_HANDLE_FRONT
100
AcDbLine
 62
5
  6
CONTINUOUS
 10
424.6253278431
 20
330.6533963395
 11
346.6253278431
 21
330.6533963395
  0
LINE
  5
4BC
100
AcDbEntity
  8
S3_EXTERN_HANDLE_FRONT
100
AcDbLine
 62
5
  6
CONTINUOUS
 10
424.5377783602
 20
331.5533963395
 11
346.7127568196
 21
331.5533963395
  0
LINE
  5
4BD
100
AcDbEntity
  8
MOVING_S3_0-1_FRONT
100
AcDbLine
 62
1
  6
CONTINUOUS
 10
333.5152141629
 20
353.9499052975
 11
333.3669355197
 21
354.0122144693
  0
LINE
  5
4BE
100
AcDbEntity
  8
MOVING_S3_0-1_FRONT
100
AcDbLine
 62
1
  6
CONTINUOUS
 10
348.0139989324
 20
349.01691389
 11
349.6857765417
 21
348.2395439281
  0
LINE
  5
4BF
100
AcDbEntity
  8
MOVING_S3_0-1_FRONT
100
AcDbLine
 62
1
  6
CONTINUOUS
 10
349.6857765417
 20
348.2395439281
 11
350.1389432774
 21
348.021115728
  0
LINE
  5
4C0
100
AcDbEntity
  8
MOVING_S3_0-1_FRONT
100
AcDbLine
 62
1
  6
CONTINUOUS
 10
350.1389432774
 20
348.021115728
 11
351.8633363935
 21
347.159923484
  0
LINE
  5
4C1
100
AcDbEntity
  8
MOVING_S3_0-1_FRONT
100
AcDbLine
 62
1
  6
CONTINUOUS
 10
333.3669355197
 20
354.0122144693
 11
333.3011600938
 21
354.049281753
  0
LINE
  5
4C2
100
AcDbEntity
  8
MOVING_S3_0-1_FRONT
100
AcDbLine
 62
1
  6
CONTINUOUS
 10
333.2603937445
 20
353.9263655895
 11
333.4022139542
 21
353.8361038396
  0
LINE
  5
4C3
100
AcDbEntity
  8
S3_EXTERN_HANDLE_FRONT
100
AcDbLine
 62
5
  6
CONTINUOUS
 10
409.2759896077
 20
361.5399986115
 11
407.6332639219
 21
367.3317126425
  0
LINE
  5
4C4
100
AcDbEntity
  8
S3_EXTERN_HANDLE_FRONT
100
AcDbLine
 62
5
  6
CONTINUOUS
 10
363.9798884719
 20
367.7048792906
 11
365.7621867784
 21
368.1184498626
  0
LINE
  5
4C5
100
AcDbEntity
  8
S3_EXTERN_HANDLE_FRONT
100
AcDbLine
 62
5
  6
CONTINUOUS
 10
394.9805034686
 20
354.4166090796
 11
394.6478105309
 21
354.3632494174
  0
LINE
  5
4C6
100
AcDbEntity
  8
S3_EXTERN_HANDLE_FRONT
100
AcDbLine
 62
5
  6
CONTINUOUS
 10
395.1888984872
 20
354.446301243
 11
394.9810180604
 21
354.4150481847
  0
LINE
  5
4C7
100
AcDbEntity
  8
S3_EXTERN_HANDLE_FRONT
100
AcDbLine
 62
5
  6
CONTINUOUS
 10
394.8251174552
 20
352.5668679757
 11
394.3535942458
 21
352.5161930604
  0
LINE
  5
4C8
100
AcDbEntity
  8
S3_EXTERN_HANDLE_FRONT
100
AcDbLine
 62
5
  6
CONTINUOUS
 10
388.2057841389
 20
346.9210500667
 11
387.4352327371
 21
346.8533963395
  0
LINE
  5
4C9
100
AcDbEntity
  8
S3_EXTERN_HANDLE_FRONT
100
AcDbLine
 62
5
  6
CONTINUOUS
 10
394.9302906472
 20
351.625119371
 11
391.6863625712
 21
351.3435765702
  0
LINE
  5
4CA
100
AcDbEntity
  8
S3_EXTERN_HANDLE_FRONT
100
AcDbLine
 62
5
  6
CONTINUOUS
 10
391.6251250273
 20
352.2900032468
 11
392.2009642563
 21
352.3292963707
  0
LINE
  5
4CB
100
AcDbEntity
  8
MOVING_S3_0-1_FRONT
100
AcDbLine
 62
1
  6
CONTINUOUS
 10
397.342464069
 20
347.1534054362
 11
397.3423482395
 21
347.1533998464
  0
LINE
  5
4CC
100
AcDbEntity
  8
S3_EXTERN_HANDLE_FRONT
100
AcDbLine
 62
5
  6
CONTINUOUS
 10
385.1252655297
 20
342.6113964437
 11
386.1252655297
 21
342.6113964437
  0
LINE
  5
4CD
100
AcDbEntity
  8
S3_EXTERN_HANDLE_FRONT
100
AcDbLine
 62
5
  6
CONTINUOUS
 10
386.6262434264
 20
346.7020304411
 11
420.4282105899
 21
346.7020303395
  0
LINE
  5
4CE
100
AcDbEntity
  8
S3_EXTERN_HANDLE_FRONT
100
AcDbLine
 62
5
  6
CONTINUOUS
 10
350.8223373115
 20
346.7020530766
 11
384.6252675899
 21
346.7020304411
  0
LINE
  5
4CF
100
AcDbEntity
  8
S3_EXTERN_HANDLE_FRONT
100
AcDbLine
 62
5
  6
CONTINUOUS
 10
351.0829165899
 20
346.8533963395
 11
420.1676185899
 21
346.8533963395
  0
LINE
  5
4D0
100
AcDbEntity
  8
S3_EXTERN_HANDLE_FRONT
100
AcDbLine
 62
5
  6
CONTINUOUS
 10
419.3916208608
 20
347.1534053604
 11
351.858914319
 21
347.1534055762
  0
LINE
  5
4D1
100
AcDbEntity
  8
S3_EXTERN_HANDLE_FRONT
100
AcDbLine
 62
6
  6
CONTINUOUS
 10
379.6252675899
 20
349.1533963449
 11
383.0252655297
 21
349.1533963395
  0
LINE
  5
4D2
100
AcDbEntity
  8
S3_EXTERN_HANDLE_FRONT
100
AcDbLine
 62
5
  6
CONTINUOUS
 10
383.0252655297
 20
349.1533963395
 11
384.6252655297
 21
349.1533963395
  0
LINE
  5
4D3
100
AcDbEntity
  8
S3_EXTERN_HANDLE_FRONT
100
AcDbLine
 62
5
  6
CONTINUOUS
 10
386.6252655297
 20
349.1533963395
 11
388.2252655297
 21
349.1533963395
  0
LINE
  5
4D4
100
AcDbEntity
  8
S3_EXTERN_HANDLE_FRONT
100
AcDbLine
 62
6
  6
CONTINUOUS
 10
388.2252655297
 20
349.1533963395
 11
391.6252675899
 21
349.1533963449
  0
LINE
  5
4D5
100
AcDbEntity
  8
S3_EXTERN_HANDLE_FRONT
100
AcDbLine
 62
5
  6
CONTINUOUS
 10
383.4252655297
 20
349.5819029866
 11
384.6252655297
 21
349.5819029866
  0
LINE
  5
4D6
100
AcDbEntity
  8
S3_EXTERN_HANDLE_FRONT
100
AcDbLine
 62
5
  6
CONTINUOUS
 10
386.6252655297
 20
349.5819029866
 11
387.8252655297
 21
349.5819029866
  0
LINE
  5
4D7
100
AcDbEntity
  8
S3_EXTERN_HANDLE_FRONT
100
AcDbLine
 62
5
  6
CONTINUOUS
 10
393.5831058474
 20
352.1536140173
 11
392.7671516704
 21
352.153591698
  0
LINE
  5
4D8
100
AcDbEntity
  8
MOVING_S3_0-1_FRONT
100
AcDbLine
 62
1
  6
CONTINUOUS
 10
336.1807608403
 20
352.1533963503
 11
337.8498478403
 21
352.1533963503
  0
LINE
  5
4D9
100
AcDbEntity
  8
S3_EXTERN_HANDLE_FRONT
100
AcDbLine
 62
5
  6
CONTINUOUS
 10
377.667288441
 20
352.1533963395
 11
378.4832426183
 21
352.1533963395
  0
LINE
  5
4DA
100
AcDbEntity
  8
S3_EXTERN_HANDLE_FRONT
100
AcDbLine
 62
6
  6
CONTINUOUS
 10
383.6252675899
 20
354.1533963449
 11
387.6252675899
 21
354.1533963449
  0
LINE
  5
4DB
100
AcDbEntity
  8
S3_EXTERN_HANDLE_FRONT
100
AcDbLine
 62
5
  6
CONTINUOUS
 10
385.0238843907
 20
343.7705758571
 11
386.1331182194
 21
343.7662120544
  0
LINE
  5
4DC
100
AcDbEntity
  8
MOVING_S3_0-1_FRONT
100
AcDbLine
 62
1
  6
CONTINUOUS
 10
194.380010179
 20
370.3818979071
 11
196.7769653277
 21
370.2633685821
  0
LINE
  5
4DD
100
AcDbEntity
  8
MOVING_S3_0-1_FRONT
100
AcDbLine
 62
1
  6
CONTINUOUS
 10
267.6360590094
 20
366.024632863
 11
269.9574916271
 21
365.9095560346
  0
LINE
  5
4DE
100
AcDbEntity
  8
MOVING_S3_0-1_FRONT
100
AcDbLine
 62
1
  6
CONTINUOUS
 10
205.952663447
 20
370.0602883331
 11
207.4313553727
 21
369.9759687321
  0
LINE
  5
4DF
100
AcDbEntity
  8
MOVING_S3_0-1_FRONT
100
AcDbLine
 62
1
  6
CONTINUOUS
 10
276.2268350865
 20
364.9649801598
 11
278.4252129648
 21
364.8221778204
  0
LINE
  5
4E0
100
AcDbEntity
  8
MOVING_S3_0-1_FRONT
100
AcDbLine
 62
1
  6
CONTINUOUS
 10
220.0189048277
 20
369.7672382581
 11
221.725660685
 21
369.6564825929
  0
LINE
  5
4E1
100
AcDbEntity
  8
MOVING_S3_0-1_FRONT
100
AcDbLine
 62
1
  6
CONTINUOUS
 10
196.7769653277
 20
370.2633685821
 11
198.8829238613
 21
370.1253547108
  0
LINE
  5
4E2
100
AcDbEntity
  8
S3_EXTERN_HANDLE_FRONT
100
AcDbLine
 62
5
  6
CONTINUOUS
 10
379.6252655297
 20
352.2898391269
 11
379.0494252261
 21
352.3291164995
  0
LINE
  5
4E3
100
AcDbEntity
  8
MOVING_S3_0-1_FRONT
100
AcDbLine
 62
1
  6
CONTINUOUS
 10
228.6155248305
 20
369.3870370179
 11
229.8724349719
 21
369.2990604945
  0
LINE
  5
4E4
100
AcDbEntity
  8
MOVING_S3_0-1_FRONT
100
AcDbLine
 62
1
  6
CONTINUOUS
 10
204.0382748553
 20
370.2078383958
 11
205.952663447
 21
370.0602883331
  0
LINE
  5
4E5
100
AcDbEntity
  8
MOVING_S3_0-1_FRONT
100
AcDbLine
 62
1
  6
CONTINUOUS
 10
236.8679621211
 20
368.9215791347
 11
238.4525254905
 21
368.7994345841
  0
LINE
  5
4E6
100
AcDbEntity
  8
MOVING_S3_0-1_FRONT
100
AcDbLine
 62
1
  6
CONTINUOUS
 10
245.3416630557
 20
368.3349000991
 11
246.7324311488
 21
368.2179903925
  0
LINE
  5
4E7
100
AcDbEntity
  8
MOVING_S3_0-1_FRONT
100
AcDbLine
 62
1
  6
CONTINUOUS
 10
249.7299628509
 20
367.7807233433
 11
250.4501729617
 21
367.7189512393
  0
LINE
  5
4E8
100
AcDbEntity
  8
S3_EXTERN_HANDLE_FRONT
100
AcDbLine
 62
5
  6
CONTINUOUS
 10
376.3201180979
 20
351.624864843
 11
379.564053874
 21
351.3434107756
  0
LINE
  5
4E9
100
AcDbEntity
  8
MOVING_S3_0-1_FRONT
100
AcDbLine
 62
1
  6
CONTINUOUS
 10
261.19542344
 20
366.8779438856
 11
263.4009373317
 21
366.6850310094
  0
LINE
  5
4EA
100
AcDbEntity
  8
S3_EXTERN_HANDLE_FRONT
100
AcDbLine
 62
5
  6
CONTINUOUS
 10
383.8152983222
 20
346.8533963395
 11
383.0447469205
 21
346.9210500667
  0
LINE
  5
4EB
100
AcDbEntity
  8
MOVING_S3_0-1_FRONT
100
AcDbLine
 62
1
  6
CONTINUOUS
 10
253.8228313275
 20
367.6292564173
 11
255.4166706308
 21
367.4728344615
  0
LINE
  5
4EC
100
AcDbEntity
  8
MOVING_S3_0-1_FRONT
100
AcDbLine
 62
1
  6
CONTINUOUS
 10
284.7672668822
 20
363.8148738263
 11
286.4175024057
 21
363.6437496729
  0
LINE
  5
4ED
100
AcDbEntity
  8
MOVING_S3_0-1_FRONT
100
AcDbLine
 62
1
  6
CONTINUOUS
 10
213.036222973
 20
369.9668913591
 11
215.352488675
 21
369.7232366489
  0
LINE
  5
4EE
100
AcDbEntity
  8
MOVING_S3_0-1_FRONT
100
AcDbLine
 62
1
  6
CONTINUOUS
 10
293.4095897977
 20
362.4177947035
 11
295.3373306297
 21
362.2131162067
  0
LINE
  5
4EF
100
AcDbEntity
  8
S3_EXTERN_HANDLE_FRONT
100
AcDbLine
 62
5
  6
CONTINUOUS
 10
376.4252655297
 20
352.5666163242
 11
376.896790125
 21
352.5159543068
  0
LINE
  5
4F0
100
AcDbEntity
  8
MOVING_S3_0-1_FRONT
100
AcDbLine
 62
1
  6
CONTINUOUS
 10
269.9574916271
 20
365.9095560346
 11
272.0803981224
 21
365.680433501
  0
LINE
  5
4F1
100
AcDbEntity
  8
MOVING_S3_0-1_FRONT
100
AcDbLine
 62
1
  6
CONTINUOUS
 10
229.8724349719
 20
369.2990604945
 11
231.6802072553
 21
369.100470946
  0
LINE
  5
4F2
100
AcDbEntity
  8
MOVING_S3_0-1_FRONT
100
AcDbLine
 62
1
  6
CONTINUOUS
 10
239.9477194072
 20
368.6214675079
 11
241.8049615817
 21
368.4173443446
  0
LINE
  5
4F3
100
AcDbEntity
  8
MOVING_S3_0-1_FRONT
100
AcDbLine
 62
1
  6
CONTINUOUS
 10
278.4252129648
 20
364.8221778204
 11
279.6205192613
 21
364.689786696
  0
LINE
  5
4F4
100
AcDbEntity
  8
MOVING_S3_0-1_FRONT
100
AcDbLine
 62
1
  6
CONTINUOUS
 10
231.6802072553
 20
369.100470946
 11
232.5945292922
 21
368.9940273114
  0
LINE
  5
4F5
100
AcDbEntity
  8
MOVING_S3_0-1_FRONT
100
AcDbLine
 62
1
  6
CONTINUOUS
 10
257.4243378176
 20
367.1827298649
 11
259.2957045487
 21
366.9603973472
  0
LINE
  5
4F6
100
AcDbEntity
  8
MOVING_S3_0-1_FRONT
100
AcDbLine
 62
1
  6
CONTINUOUS
 10
232.5945292922
 20
368.9940273114
 11
233.262639777
 21
368.9144518333
  0
LINE
  5
4F7
100
AcDbEntity
  8
MOVING_S3_0-1_FRONT
100
AcDbLine
 62
1
  6
CONTINUOUS
 10
238.4525254905
 20
368.7994345841
 11
239.9477194072
 21
368.6214675079
  0
LINE
  5
4F8
100
AcDbEntity
  8
MOVING_S3_0-1_FRONT
100
AcDbLine
 62
1
  6
CONTINUOUS
 10
221.725660685
 20
369.6564825929
 11
223.9476189994
 21
369.3881072043
  0
LINE
  5
4F9
100
AcDbEntity
  8
MOVING_S3_0-1_FRONT
100
AcDbLine
 62
1
  6
CONTINUOUS
 10
246.7324311488
 20
368.2179903925
 11
248.3693827946
 21
368.0116380649
  0
LINE
  5
4FA
100
AcDbEntity
  8
MOVING_S3_0-1_FRONT
100
AcDbLine
 62
1
  6
CONTINUOUS
 10
286.4175024057
 20
363.6437496729
 11
288.6593903687
 21
363.3537506526
  0
LINE
  5
4FB
100
AcDbEntity
  8
MOVING_S3_0-1_FRONT
100
AcDbLine
 62
1
  6
CONTINUOUS
 10
301.9987902022
 20
360.9036242708
 11
304.043199061
 21
360.6367692148
  0
LINE
  5
4FC
100
AcDbEntity
  8
MOVING_S3_0-1_FRONT
100
AcDbLine
 62
1
  6
CONTINUOUS
 10
255.4166706308
 20
367.4728344615
 11
257.4243378176
 21
367.1827298649
  0
LINE
  5
4FD
100
AcDbEntity
  8
MOVING_S3_0-1_FRONT
100
AcDbLine
 62
1
  6
CONTINUOUS
 10
279.6205192613
 20
364.689786696
 11
281.3406049487
 21
364.4351119751
  0
LINE
  5
4FE
100
AcDbEntity
  8
MOVING_S3_0-1_FRONT
100
AcDbLine
 62
1
  6
CONTINUOUS
 10
263.4009373317
 20
366.6850310094
 11
265.9653504572
 21
366.2995520316
  0
LINE
  5
4FF
100
AcDbEntity
  8
S3_EXTERN_HANDLE_FRONT
100
AcDbLine
 62
5
  6
CONTINUOUS
 10
376.0614330885
 20
354.4460396401
 11
376.2693143701
 21
354.4147922681
  0
LINE
  5
500
100
AcDbEntity
  8
MOVING_S3_0-1_FRONT
100
AcDbLine
 62
1
  6
CONTINUOUS
 10
272.0803981224
 20
365.680433501
 11
273.235317385
 21
365.5051277952
  0
LINE
  5
501
100
AcDbEntity
  8
MOVING_S3_0-1_FRONT
100
AcDbLine
 62
1
  6
CONTINUOUS
 10
295.3373306297
 20
362.2131162067
 11
297.6228167546
 21
361.8527173929
  0
LINE
  5
502
100
AcDbEntity
  8
S3_EXTERN_HANDLE_FRONT
100
AcDbLine
 62
5
  6
CONTINUOUS
 10
376.2698289192
 20
354.416353177
 11
376.6025233163
 21
354.3630026152
  0
LINE
  5
503
100
AcDbEntity
  8
MOVING_S3_0-1_FRONT
100
AcDbLine
 62
1
  6
CONTINUOUS
 10
292.694567814
 20
362.5330493295
 11
293.4095897977
 21
362.4177947035
  0
LINE
  5
504
100
AcDbEntity
  8
MOVING_S3_0-1_FRONT
100
AcDbLine
 62
1
  6
CONTINUOUS
 10
266.9666205311
 20
366.1331177449
 11
267.6360590094
 21
366.024632863
  0
LINE
  5
505
100
AcDbEntity
  8
MOVING_S3_0-1_FRONT
100
AcDbLine
 62
1
  6
CONTINUOUS
 10
265.9653504572
 20
366.2995520316
 11
266.9666205311
 21
366.1331177449
  0
LINE
  5
506
100
AcDbEntity
  8
MOVING_S3_0-1_FRONT
100
AcDbLine
 62
1
  6
CONTINUOUS
 10
248.3693827946
 20
368.0116380649
 11
249.7299628509
 21
367.7807233433
  0
LINE
  5
507
100
AcDbEntity
  8
MOVING_S3_0-1_FRONT
100
AcDbLine
 62
1
  6
CONTINUOUS
 10
283.1947724106
 20
364.088559374
 11
284.7672668822
 21
363.8148738263
  0
LINE
  5
508
100
AcDbEntity
  8
MOVING_S3_0-1_FRONT
100
AcDbLine
 62
1
  6
CONTINUOUS
 10
288.6593903687
 20
363.3537506526
 11
290.3933791347
 21
363.0487330478
  0
LINE
  5
509
100
AcDbEntity
  8
MOVING_S3_0-1_FRONT
100
AcDbLine
 62
1
  6
CONTINUOUS
 10
273.235317385
 20
365.5051277952
 11
275.5587148065
 21
365.0916959532
  0
LINE
  5
50A
100
AcDbEntity
  8
MOVING_S3_0-1_FRONT
100
AcDbLine
 62
1
  6
CONTINUOUS
 10
304.043199061
 20
360.6367692148
 11
306.2065081342
 21
360.2466570878
  0
LINE
  5
50B
100
AcDbEntity
  8
MOVING_S3_0-1_FRONT
100
AcDbLine
 62
1
  6
CONTINUOUS
 10
310.5498482736
 20
359.2765554329
 11
313.3590305627
 21
358.7655263171
  0
LINE
  5
50C
100
AcDbEntity
  8
MOVING_S3_0-1_FRONT
100
AcDbLine
 62
1
  6
CONTINUOUS
 10
281.3406049487
 20
364.4351119751
 11
283.1947724106
 21
364.088559374
  0
LINE
  5
50D
100
AcDbEntity
  8
MOVING_S3_0-1_FRONT
100
AcDbLine
 62
1
  6
CONTINUOUS
 10
275.5587148065
 20
365.0916959532
 11
276.2268350865
 21
364.9649801598
  0
LINE
  5
50E
100
AcDbEntity
  8
MOVING_S3_0-1_FRONT
100
AcDbLine
 62
1
  6
CONTINUOUS
 10
301.287052848
 20
361.0390514496
 11
301.9987902022
 21
360.9036242708
  0
LINE
  5
50F
100
AcDbEntity
  8
MOVING_S3_0-1_FRONT
100
AcDbLine
 62
1
  6
CONTINUOUS
 10
297.6228167546
 20
361.8527173929
 11
299.109449451
 21
361.5578855915
  0
LINE
  5
510
100
AcDbEntity
  8
MOVING_S3_0-1_FRONT
100
AcDbLine
 62
1
  6
CONTINUOUS
 10
319.1301389992
 20
357.4186870776
 11
320.9232019655
 21
357.053192376
  0
LINE
  5
511
100
AcDbEntity
  8
MOVING_S3_0-1_FRONT
100
AcDbLine
 62
1
  6
CONTINUOUS
 10
313.3590305627
 20
358.7655263171
 11
315.1423928806
 21
358.3873662135
  0
LINE
  5
512
100
AcDbEntity
  8
MOVING_S3_0-1_FRONT
100
AcDbLine
 62
1
  6
CONTINUOUS
 10
303.2628934495
 20
373.4648433854
 11
281.8658476958
 21
378.0197916223
  0
LINE
  5
513
100
AcDbEntity
  8
MOVING_S3_0-1_FRONT
100
AcDbLine
 62
1
  6
CONTINUOUS
 10
327.9457774054
 20
369.6560790257
 11
325.744985394
 21
370.1318667737
  0
LINE
  5
514
100
AcDbEntity
  8
MOVING_S3_0-1_FRONT
100
AcDbLine
 62
1
  6
CONTINUOUS
 10
309.1244887713
 20
359.5890451432
 11
310.5498482736
 21
359.2765554329
  0
LINE
  5
515
100
AcDbEntity
  8
MOVING_S3_0-1_FRONT
100
AcDbLine
 62
1
  6
CONTINUOUS
 10
320.9232019655
 20
357.053192376
 11
323.1390323069
 21
356.5594314165
  0
LINE
  5
516
100
AcDbEntity
  8
MOVING_S3_0-1_FRONT
100
AcDbLine
 62
1
  6
CONTINUOUS
 10
290.3933791347
 20
363.0487330478
 11
292.694567814
 21
362.5330493295
  0
LINE
  5
517
100
AcDbEntity
  8
MOVING_S3_0-1_FRONT
100
AcDbLine
 62
1
  6
CONTINUOUS
 10
306.2065081342
 20
360.2466570878
 11
309.1244887713
 21
359.5890451432
  0
LINE
  5
518
100
AcDbEntity
  8
MOVING_S3_0-1_FRONT
100
AcDbLine
 62
1
  6
CONTINUOUS
 10
336.625751682
 20
367.6251884859
 11
331.8496340491
 21
368.7327164081
  0
LINE
  5
519
100
AcDbEntity
  8
MOVING_S3_0-1_FRONT
100
AcDbLine
 62
1
  6
CONTINUOUS
 10
327.4218440924
 20
355.4219264989
 11
329.8870832393
 21
354.8460122764
  0
LINE
  5
51A
100
AcDbEntity
  8
MOVING_S3_0-1_FRONT
100
AcDbLine
 62
1
  6
CONTINUOUS
 10
331.8496340491
 20
368.7327164081
 11
327.9457774054
 21
369.6560790257
  0
LINE
  5
51B
100
AcDbEntity
  8
MOVING_S3_0-1_FRONT
100
AcDbLine
 62
1
  6
CONTINUOUS
 10
299.109449451
 20
361.5578855915
 11
301.287052848
 21
361.0390514496
  0
LINE
  5
51C
100
AcDbEntity
  8
MOVING_S3_0-1_FRONT
100
AcDbLine
 62
1
  6
CONTINUOUS
 10
315.1423928806
 20
358.3873662135
 11
319.1301389992
 21
357.4186870776
  0
LINE
  5
51D
100
AcDbEntity
  8
MOVING_S3_0-1_FRONT
100
AcDbLine
 62
1
  6
CONTINUOUS
 10
313.3804832359
 20
370.9755703173
 11
303.2628934495
 21
373.4648433854
  0
LINE
  5
51E
100
AcDbEntity
  8
MOVING_S3_0-1_FRONT
100
AcDbLine
 62
1
  6
CONTINUOUS
 10
323.1390323069
 20
356.5594314165
 11
324.5035474241
 21
356.2167952985
  0
LINE
  5
51F
100
AcDbEntity
  8
MOVING_S3_0-1_FRONT
100
AcDbLine
 62
1
  6
CONTINUOUS
 10
329.8870832393
 20
354.8460122764
 11
331.676459474
 21
354.3876709526
  0
LINE
  5
520
100
AcDbEntity
  8
MOVING_S3_0-1_FRONT
100
AcDbLine
 62
1
  6
CONTINUOUS
 10
318.5029048376
 20
369.6229937789
 11
313.3804832359
 21
370.9755703173
  0
LINE
  5
521
100
AcDbEntity
  8
MOVING_S3_0-1_FRONT
100
AcDbLine
 62
1
  6
CONTINUOUS
 10
324.5035474241
 20
356.2167952985
 11
327.4218440924
 21
355.4219264989
  0
LINE
  5
522
100
AcDbEntity
  8
MOVING_S3_0-1_FRONT
100
AcDbLine
 62
1
  6
CONTINUOUS
 10
325.893035647
 20
367.5386383927
 11
318.5029048376
 21
369.6229937789
  0
LINE
  5
523
100
AcDbEntity
  8
MOVING_S3_0-1_FRONT
100
AcDbLine
 62
1
  6
CONTINUOUS
 10
333.4022139542
 20
353.8361038396
 11
336.1651775706
 21
353.0461902349
  0
LINE
  5
524
100
AcDbEntity
  8
MOVING_S3_0-1_FRONT
100
AcDbLine
 62
1
  6
CONTINUOUS
 10
331.676459474
 20
354.3876709526
 11
333.2603937445
 21
353.9263655895
  0
LINE
  5
525
100
AcDbEntity
  8
MOVING_S3_0-1_FRONT
100
AcDbLine
 62
1
  6
CONTINUOUS
 10
336.1633295628
 20
353.1520460476
 11
333.869401453
 21
353.8265950278
  0
LINE
  5
526
100
AcDbEntity
  8
MOVING_S3_0-1_FRONT
100
AcDbLine
 62
1
  6
CONTINUOUS
 10
337.8450704492
 20
352.5598152407
 11
340.5466978403
 21
351.7303733503
  0
LINE
  5
527
100
AcDbEntity
  8
MOVING_S3_0-1_FRONT
100
AcDbLine
 62
1
  6
CONTINUOUS
 10
341.6070637607
 20
351.4802229476
 11
337.8529257376
 21
352.6496632861
  0
LINE
  5
528
100
AcDbEntity
  8
MOVING_S3_0-1_FRONT
100
AcDbLine
 62
1
  6
CONTINUOUS
 10
340.5466978403
 20
351.7303733503
 11
341.1930189218
 21
351.5274349458
  0
LINE
  5
529
100
AcDbEntity
  8
MOVING_S3_0-1_FRONT
100
AcDbLine
 62
1
  6
CONTINUOUS
 10
331.676459481
 20
365.6529669157
 11
325.893035647
 21
367.5386383927
  0
LINE
  5
52A
100
AcDbEntity
  8
MOVING_S3_0-1_FRONT
100
AcDbLine
 62
1
  6
CONTINUOUS
 10
341.1930189218
 20
351.5274349458
 11
341.9529092528
 21
351.2791570358
  0
LINE
  5
52B
100
AcDbEntity
  8
MOVING_S3_0-1_FRONT
100
AcDbLine
 62
1
  6
CONTINUOUS
 10
333.869401453
 20
353.8265950278
 11
333.674226225
 21
353.8921369329
  0
LINE
  5
52C
100
AcDbEntity
  8
MOVING_S3_0-1_FRONT
100
AcDbLine
 62
1
  6
CONTINUOUS
 10
341.9529092528
 20
351.2791570358
 11
343.0068316156
 21
350.9218370303
  0
LINE
  5
52D
100
AcDbEntity
  8
MOVING_S3_0-1_FRONT
100
AcDbLine
 62
1
  6
CONTINUOUS
 10
343.0068316156
 20
350.9218370303
 11
343.6833128989
 21
350.6862667406
  0
LINE
  5
52E
100
AcDbEntity
  8
MOVING_S3_0-1_FRONT
100
AcDbLine
 62
1
  6
CONTINUOUS
 10
343.6833128989
 20
350.6862667406
 11
345.1408761372
 21
350.1591118133
  0
LINE
  5
52F
100
AcDbEntity
  8
MOVING_S3_0-1_FRONT
100
AcDbLine
 62
1
  6
CONTINUOUS
 10
333.674226225
 20
353.8921369329
 11
333.5152141629
 21
353.9499052975
  0
LINE
  5
530
100
AcDbEntity
  8
MOVING_S3_0-1_FRONT
100
AcDbLine
 62
1
  6
CONTINUOUS
 10
336.9277770135
 20
363.7052704658
 11
331.676459481
 21
365.6529669157
  0
LINE
  5
531
100
AcDbEntity
  8
MOVING_S3_0-1_FRONT
100
AcDbLine
 62
1
  6
CONTINUOUS
 10
345.1408761372
 20
350.1591118133
 11
346.4663842025
 21
349.6520293304
  0
LINE
  5
532
100
AcDbEntity
  8
MOVING_S3_0-1_FRONT
100
AcDbLine
 62
1
  6
CONTINUOUS
 10
337.6132278383
 20
365.7537605018
 11
337.8298272396
 21
365.6701628395
  0
LINE
  5
533
100
AcDbEntity
  8
MOVING_S3_0-1_FRONT
100
AcDbLine
 62
1
  6
CONTINUOUS
 10
340.212033118
 20
362.4216686993
 11
336.9277770135
 21
363.7052704658
  0
LINE
  5
534
100
AcDbEntity
  8
MOVING_S3_0-1_FRONT
100
AcDbLine
 62
1
  6
CONTINUOUS
 10
345.2547521172
 20
360.3701144942
 11
340.212033118
 21
362.4216686993
  0
LINE
  5
535
100
AcDbEntity
  8
MOVING_S3_0-1_FRONT
100
AcDbLine
 62
1
  6
CONTINUOUS
 10
346.4663842025
 20
349.6520293304
 11
348.0139989324
 21
349.01691389
  0
LINE
  5
536
100
AcDbEntity
  8
MOVING_S3_0-1_FRONT
100
AcDbLine
 62
1
  6
CONTINUOUS
 10
349.4104573028
 20
358.6270108512
 11
345.2547521172
 21
360.3701144942
  0
LINE
  5
537
100
AcDbEntity
  8
MOVING_S3_0-1_FRONT
100
AcDbLine
 62
1
  6
CONTINUOUS
 10
354.9230540115
 20
356.2585249361
 11
349.4104573028
 21
358.6270108512
  0
LINE
  5
538
100
AcDbEntity
  8
MOVING_S3_0-1_FRONT
100
AcDbLine
 62
1
  6
CONTINUOUS
 10
357.3362063185
 20
355.1956063156
 11
354.9230540115
 21
356.2585249361
  0
LINE
  5
539
100
AcDbEntity
  8
S3_EXTERN_HANDLE_FRONT
100
AcDbLine
 62
5
  6
CONTINUOUS
 10
407.2774297048
 20
364.0269766387
 11
408.3207413036
 21
362.7350657091
  0
LINE
  5
53A
100
AcDbEntity
  8
S3_EXTERN_HANDLE_FRONT
100
AcDbLine
 62
5
  6
CONTINUOUS
 10
408.3207413036
 20
362.7350657091
 11
409.2762490479
 21
361.5396740379
  0
LINE
  5
53B
100
AcDbEntity
  8
S3_EXTERN_HANDLE_FRONT
100
AcDbLine
 62
5
  6
CONTINUOUS
 10
409.2762490479
 20
361.5396740379
 11
410.8886856084
 21
359.4510142916
  0
LINE
  5
53C
100
AcDbEntity
  8
S3_EXTERN_HANDLE_FRONT
100
AcDbLine
 62
5
  6
CONTINUOUS
 10
410.8886856084
 20
359.4510142916
 11
413.0022512525
 21
356.5347851259
  0
LINE
  5
53D
100
AcDbEntity
  8
S3_EXTERN_HANDLE_FRONT
100
AcDbLine
 62
5
  6
CONTINUOUS
 10
410.2654362237
 20
357.3049703025
 11
417.5163890408
 21
347.1510912994
  0
LINE
  5
53E
100
AcDbEntity
  8
S3_EXTERN_HANDLE_FRONT
100
AcDbLine
 62
5
  6
CONTINUOUS
 10
413.0022512525
 20
356.5347851259
 11
415.7509613559
 21
352.5175560814
  0
LINE
  5
53F
100
AcDbEntity
  8
S3_EXTERN_HANDLE_FRONT
100
AcDbLine
 62
5
  6
CONTINUOUS
 10
415.7509613559
 20
352.5175560814
 11
419.3916208608
 21
347.1534053604
  0
LINE
  5
540
100
AcDbEntity
  8
MOVING_S3_0-1_FRONT
100
AcDbLine
 62
1
  6
CONTINUOUS
 10
198.8829238613
 20
370.1253547108
 11
200.8764518136
 21
370.2348435856
  0
LINE
  5
541
100
AcDbEntity
  8
MOVING_S3_0-1_FRONT
100
AcDbLine
 62
1
  6
CONTINUOUS
 10
216.0741921266
 20
369.6950969852
 11
217.4640130325
 21
369.7702569715
  0
LINE
  5
542
100
AcDbEntity
  8
MOVING_S3_0-1_FRONT
100
AcDbLine
 62
1
  6
CONTINUOUS
 10
336.3700198403
 20
372.538749165
 11
335.6670337446
 21
372.5065681952
  0
LINE
  5
543
100
AcDbEntity
  8
MOVING_S3_0-1_FRONT
100
AcDbLine
 62
1
  6
CONTINUOUS
 10
207.4313553727
 20
369.9759687321
 11
208.8405310091
 21
370.028636284
  0
LINE
  5
544
100
AcDbEntity
  8
MOVING_S3_0-1_FRONT
100
AcDbLine
 62
1
  6
CONTINUOUS
 10
224.6694007046
 20
369.3599644894
 11
226.4579871565
 21
369.4256457459
  0
LINE
  5
545
100
AcDbEntity
  8
MOVING_S3_0-1_FRONT
100
AcDbLine
 62
1
  6
CONTINUOUS
 10
233.262639777
 20
368.9144518333
 11
234.9822180888
 21
368.9684780526
  0
LINE
  5
546
100
AcDbEntity
  8
MOVING_S3_0-1_FRONT
100
AcDbLine
 62
1
  6
CONTINUOUS
 10
191.386772063
 20
370.3092286203
 11
194.380010179
 21
370.3818979071
  0
LINE
  5
547
100
AcDbEntity
  8
MOVING_S3_0-1_FRONT
100
AcDbLine
 62
1
  6
CONTINUOUS
 10
217.4640130325
 20
369.7702569715
 11
218.5983033878
 21
369.7909230118
  0
LINE
  5
548
100
AcDbEntity
  8
MOVING_S3_0-1_FRONT
100
AcDbLine
 62
1
  6
CONTINUOUS
 10
179.6055119775
 20
370.3282455011
 11
184.2191445711
 21
370.4013864251
  0
LINE
  5
549
100
AcDbEntity
  8
MOVING_S3_0-1_FRONT
100
AcDbLine
 62
1
  6
CONTINUOUS
 10
200.8764518136
 20
370.2348435856
 11
202.5818361871
 21
370.2572190357
  0
LINE
  5
54A
100
AcDbEntity
  8
MOVING_S3_0-1_FRONT
100
AcDbLine
 62
1
  6
CONTINUOUS
 10
208.8405310091
 20
370.028636284
 11
211.3048560935
 21
370.0553384342
  0
LINE
  5
54B
100
AcDbEntity
  8
MOVING_S3_0-1_FRONT
100
AcDbLine
 62
1
  6
CONTINUOUS
 10
336.6967477584
 20
372.6051857632
 11
337.1629040683
 21
372.6066118234
  0
LINE
  5
54C
100
AcDbEntity
  8
MOVING_S3_0-1_FRONT
100
AcDbLine
 62
1
  6
CONTINUOUS
 10
337.1629040683
 20
372.6066118234
 11
338.6662736797
 21
372.6107562548
  0
LINE
  5
54D
100
AcDbEntity
  8
MOVING_S3_0-1_FRONT
100
AcDbLine
 62
1
  6
CONTINUOUS
 10
250.4501729617
 20
367.7189512393
 11
251.953329129
 21
367.7205489244
  0
LINE
  5
54E
100
AcDbEntity
  8
MOVING_S3_0-1_FRONT
100
AcDbLine
 62
1
  6
CONTINUOUS
 10
338.6662736797
 20
372.6107562548
 11
341.9165938965
 21
372.6112149541
  0
LINE
  5
54F
100
AcDbEntity
  8
MOVING_S3_0-1_FRONT
100
AcDbLine
 62
1
  6
CONTINUOUS
 10
187.7923239664
 20
370.3090303498
 11
191.386772063
 21
370.3092286203
  0
LINE
  5
550
100
AcDbEntity
  8
S3_EXTERN_HANDLE_FRONT
100
AcDbLine
 62
5
  6
CONTINUOUS
 10
366.5138653836
 20
386.9076530287
 11
404.7373418632
 21
386.9069954722
  0
LINE
  5
551
100
AcDbEntity
  8
MOVING_S3_0-1_FRONT
100
AcDbLine
 62
1
  6
CONTINUOUS
 10
186.0153289577
 20
386.8967492957
 11
175.8085371254
 21
386.9142523766
  0
LINE
  5
552
100
AcDbEntity
  8
MOVING_S3_0-1_FRONT
100
AcDbLine
 62
1
  6
CONTINUOUS
 10
341.9165938965
 20
372.6112149541
 11
345.5409155592
 21
372.5850956525
  0
LINE
  5
553
100
AcDbEntity
  8
MOVING_S3_0-1_FRONT
100
AcDbLine
 62
1
  6
CONTINUOUS
 10
241.8049615817
 20
368.4173443446
 11
243.3322919511
 21
368.4041028765
  0
LINE
  5
554
100
AcDbEntity
  8
MOVING_S3_0-1_FRONT
100
AcDbLine
 62
1
  6
CONTINUOUS
 10
196.4166753865
 20
386.7753245552
 11
186.0153289577
 21
386.8967492957
  0
LINE
  5
555
100
AcDbEntity
  8
MOVING_S3_0-1_FRONT
100
AcDbLine
 62
1
  6
CONTINUOUS
 10
218.5983033878
 20
369.7909230118
 11
220.0189048277
 21
369.7672382581
  0
LINE
  5
556
100
AcDbEntity
  8
MOVING_S3_0-1_FRONT
100
AcDbLine
 62
1
  6
CONTINUOUS
 10
226.4579871565
 20
369.4256457459
 11
228.6155248305
 21
369.3870370179
  0
LINE
  5
557
100
AcDbEntity
  8
MOVING_S3_0-1_FRONT
100
AcDbLine
 62
1
  6
CONTINUOUS
 10
345.5409155592
 20
372.5850956525
 11
351.7390135555
 21
372.4417182554
  0
LINE
  5
558
100
AcDbEntity
  8
MOVING_S3_0-1_FRONT
100
AcDbLine
 62
1
  6
CONTINUOUS
 10
234.9822180888
 20
368.9684780526
 11
236.8679621211
 21
368.9215791347
  0
LINE
  5
559
100
AcDbEntity
  8
MOVING_S3_0-1_FRONT
100
AcDbLine
 62
1
  6
CONTINUOUS
 10
184.2191445711
 20
370.4013864251
 11
187.7923239664
 21
370.3090303498
  0
LINE
  5
55A
100
AcDbEntity
  8
MOVING_S3_0-1_FRONT
100
AcDbLine
 62
1
  6
CONTINUOUS
 10
207.9562474055
 20
386.4547142743
 11
196.4166753865
 21
386.7753245552
  0
LINE
  5
55B
100
AcDbEntity
  8
MOVING_S3_0-1_FRONT
100
AcDbLine
 62
1
  6
CONTINUOUS
 10
202.5818361871
 20
370.2572190357
 11
204.0382748553
 21
370.2078383958
  0
LINE
  5
55C
100
AcDbEntity
  8
MOVING_S3_0-1_FRONT
100
AcDbLine
 62
1
  6
CONTINUOUS
 10
243.3322919511
 20
368.4041028765
 11
245.3416630557
 21
368.3349000991
  0
LINE
  5
55D
100
AcDbEntity
  8
MOVING_S3_0-1_FRONT
100
AcDbLine
 62
1
  6
CONTINUOUS
 10
215.352488675
 20
369.7232366489
 11
216.0741921266
 21
369.6950969852
  0
LINE
  5
55E
100
AcDbEntity
  8
MOVING_S3_0-1_FRONT
100
AcDbLine
 62
1
  6
CONTINUOUS
 10
223.9476189994
 20
369.3881072043
 11
224.6694007046
 21
369.3599644894
  0
LINE
  5
55F
100
AcDbEntity
  8
MOVING_S3_0-1_FRONT
100
AcDbLine
 62
1
  6
CONTINUOUS
 10
221.6086932832
 20
390.7263054969
 11
201.7706049131
 21
391.5057953795
  0
LINE
  5
560
100
AcDbEntity
  8
MOVING_S3_0-1_FRONT
100
AcDbLine
 62
1
  6
CONTINUOUS
 10
259.2957045487
 20
366.9603973472
 11
261.19542344
 21
366.8779438856
  0
LINE
  5
561
100
AcDbEntity
  8
MOVING_S3_0-1_FRONT
100
AcDbLine
 62
1
  6
CONTINUOUS
 10
351.7390135555
 20
372.4417182554
 11
358.7085116876
 21
372.1018670361
  0
LINE
  5
562
100
AcDbEntity
  8
MOVING_S3_0-1_FRONT
100
AcDbLine
 62
1
  6
CONTINUOUS
 10
251.953329129
 20
367.7205489244
 11
253.8228313275
 21
367.6292564173
  0
LINE
  5
563
100
AcDbEntity
  8
MOVING_S3_0-1_FRONT
100
AcDbLine
 62
1
  6
CONTINUOUS
 10
211.3048560935
 20
370.0553384342
 11
213.036222973
 21
369.9668913591
  0
LINE
  5
564
100
AcDbEntity
  8
MOVING_S3_0-1_FRONT
100
AcDbLine
 62
1
  6
CONTINUOUS
 10
225.580921675
 20
385.4841994141
 11
207.9562474055
 21
386.4547142743
  0
LINE
  5
565
100
AcDbEntity
  8
MOVING_S3_0-1_FRONT
100
AcDbLine
 62
1
  6
CONTINUOUS
 10
240.8571705889
 20
389.2745481879
 11
221.6086932832
 21
390.7263054969
  0
LINE
  5
566
100
AcDbEntity
  8
MOVING_S3_0-1_FRONT
100
AcDbLine
 62
1
  6
CONTINUOUS
 10
358.7085116876
 20
372.1018670361
 11
366.4212458036
 21
371.4961866293
  0
LINE
  5
567
100
AcDbEntity
  8
MOVING_S3_0-1_FRONT
100
AcDbLine
 62
1
  6
CONTINUOUS
 10
247.7286784497
 20
383.3450745922
 11
225.580921675
 21
385.4841994141
  0
LINE
  5
568
100
AcDbEntity
  8
MOVING_S3_0-1_FRONT
100
AcDbLine
 62
1
  6
CONTINUOUS
 10
254.5041681061
 20
387.7519612487
 11
240.8571705889
 21
389.2745481879
  0
LINE
  5
569
100
AcDbEntity
  8
MOVING_S3_0-1_FRONT
100
AcDbLine
 62
1
  6
CONTINUOUS
 10
268.3540133305
 20
380.4163172001
 11
247.7286784497
 21
383.3450745922
  0
LINE
  5
56A
100
AcDbEntity
  8
MOVING_S3_0-1_FRONT
100
AcDbLine
 62
1
  6
CONTINUOUS
 10
267.8478628141
 20
385.8221249557
 11
254.5041681061
 21
387.7519612487
  0
LINE
  5
56B
100
AcDbEntity
  8
MOVING_S3_0-1_FRONT
100
AcDbLine
 62
1
  6
CONTINUOUS
 10
335.1955750745
 20
369.3336273594
 11
325.2914323218
 21
370.8624872336
  0
LINE
  5
56C
100
AcDbEntity
  8
MOVING_S3_0-1_FRONT
100
AcDbLine
 62
1
  6
CONTINUOUS
 10
336.8043569332
 20
372.278348171
 11
337.2587053239
 21
372.207285069
  0
LINE
  5
56D
100
AcDbEntity
  8
MOVING_S3_0-1_FRONT
100
AcDbLine
 62
1
  6
CONTINUOUS
 10
337.2587053239
 20
372.207285069
 11
337.7930771759
 21
372.1228882159
  0
LINE
  5
56E
100
AcDbEntity
  8
MOVING_S3_0-1_FRONT
100
AcDbLine
 62
1
  6
CONTINUOUS
 10
322.7085932282
 20
374.4093831566
 11
318.2616591615
 21
375.1214473114
  0
LINE
  5
56F
100
AcDbEntity
  8
MOVING_S3_0-1_FRONT
100
AcDbLine
 62
1
  6
CONTINUOUS
 10
337.7930771759
 20
372.1228882159
 11
338.8051584717
 21
371.9606692697
  0
LINE
  5
570
100
AcDbEntity
  8
MOVING_S3_0-1_FRONT
100
AcDbLine
 62
1
  6
CONTINUOUS
 10
331.6764627337
 20
368.2567805401
 11
331.6878862846
 21
368.2549401336
  0
LINE
  5
571
100
AcDbEntity
  8
MOVING_S3_0-1_FRONT
100
AcDbLine
 62
1
  6
CONTINUOUS
 10
325.4629928403
 20
372.0233203503
 11
327.0186753181
 21
371.7683908156
  0
LINE
  5
572
100
AcDbEntity
  8
MOVING_S3_0-1_FRONT
100
AcDbLine
 62
1
  6
CONTINUOUS
 10
328.4527348789
 20
372.4112186926
 11
325.5269317795
 21
372.893126142
  0
LINE
  5
573
100
AcDbEntity
  8
MOVING_S3_0-1_FRONT
100
AcDbLine
 62
1
  6
CONTINUOUS
 10
338.8051584717
 20
371.9606692697
 11
341.248227652
 21
371.5564921741
  0
LINE
  5
574
100
AcDbEntity
  8
MOVING_S3_0-1_FRONT
100
AcDbLine
 62
1
  6
CONTINUOUS
 10
341.248227652
 20
371.5564921741
 11
342.6986605818
 21
371.3079189276
  0
LINE
  5
575
100
AcDbEntity
  8
MOVING_S3_0-1_FRONT
100
AcDbLine
 62
1
  6
CONTINUOUS
 10
327.0186753181
 20
371.7683908156
 11
329.6109482473
 21
371.3115924619
  0
LINE
  5
576
100
AcDbEntity
  8
MOVING_S3_0-1_FRONT
100
AcDbLine
 62
1
  6
CONTINUOUS
 10
281.8658476958
 20
378.0197916223
 11
268.3540133305
 21
380.4163172001
  0
LINE
  5
577
100
AcDbEntity
  8
MOVING_S3_0-1_FRONT
100
AcDbLine
 62
1
  6
CONTINUOUS
 10
342.6986605818
 20
371.3079189276
 11
345.6022351284
 21
370.7890277462
  0
LINE
  5
578
100
AcDbEntity
  8
MOVING_S3_0-1_FRONT
100
AcDbLine
 62
1
  6
CONTINUOUS
 10
282.5988663653
 20
383.1540811519
 11
267.8478628141
 21
385.8221249557
  0
LINE
  5
579
100
AcDbEntity
  8
MOVING_S3_0-1_FRONT
100
AcDbLine
 62
1
  6
CONTINUOUS
 10
331.8000488872
 20
371.7931742163
 11
328.4527348789
 21
372.4112186926
  0
LINE
  5
57A
100
AcDbEntity
  8
MOVING_S3_0-1_FRONT
100
AcDbLine
 62
1
  6
CONTINUOUS
 10
318.2616591615
 20
375.1214473114
 11
314.9890814708
 21
375.7401970524
  0
LINE
  5
57B
100
AcDbEntity
  8
MOVING_S3_0-1_FRONT
100
AcDbLine
 62
1
  6
CONTINUOUS
 10
329.6109482473
 20
371.3115924619
 11
332.23764938
 21
370.8128141579
  0
LINE
  5
57C
100
AcDbEntity
  8
MOVING_S3_0-1_FRONT
100
AcDbLine
 62
1
  6
CONTINUOUS
 10
345.6022351284
 20
370.7890277462
 11
348.8145281716
 21
370.1763590526
  0
LINE
  5
57D
100
AcDbEntity
  8
MOVING_S3_0-1_FRONT
100
AcDbLine
 62
1
  6
CONTINUOUS
 10
335.8382338403
 20
371.0093383503
 11
331.8000488872
 21
371.7931742163
  0
LINE
  5
57E
100
AcDbEntity
  8
MOVING_S3_0-1_FRONT
100
AcDbLine
 62
1
  6
CONTINUOUS
 10
332.23764938
 20
370.8128141579
 11
334.7580142896
 21
370.320628857
  0
LINE
  5
57F
100
AcDbEntity
  8
MOVING_S3_0-1_FRONT
100
AcDbLine
 62
1
  6
CONTINUOUS
 10
334.7580142896
 20
370.320628857
 11
335.6691448403
 21
370.1416713503
  0
LINE
  5
580
100
AcDbEntity
  8
MOVING_S3_0-1_FRONT
100
AcDbLine
 62
1
  6
CONTINUOUS
 10
348.8145281716
 20
370.1763590526
 11
354.7198108087
 21
368.9141629446
  0
LINE
  5
581
100
AcDbEntity
  8
MOVING_S3_0-1_FRONT
100
AcDbLine
 62
1
  6
CONTINUOUS
 10
295.9999709204
 20
380.2620065163
 11
282.5988663653
 21
383.1540811519
  0
LINE
  5
582
100
AcDbEntity
  8
MOVING_S3_0-1_FRONT
100
AcDbLine
 62
1
  6
CONTINUOUS
 10
314.9890814708
 20
375.7401970524
 11
312.3934468411
 21
376.3008645617
  0
LINE
  5
583
100
AcDbEntity
  8
S3_EXTERN_HANDLE_FRONT
100
AcDbLine
 62
5
  6
CONTINUOUS
 10
407.2706425873
 20
367.7048792892
 11
405.4883442813
 21
368.1184498612
  0
LINE
  5
584
100
AcDbEntity
  8
MOVING_S3_0-1_FRONT
100
AcDbLine
 62
1
  6
CONTINUOUS
 10
305.429928147
 20
378.0112282632
 11
295.9999709204
 21
380.2620065163
  0
LINE
  5
585
100
AcDbEntity
  8
MOVING_S3_0-1_FRONT
100
AcDbLine
 62
1
  6
CONTINUOUS
 10
312.3934468411
 20
376.3008645617
 11
310.5498482634
 21
376.7420654347
  0
LINE
  5
586
100
AcDbEntity
  8
MOVING_S3_0-1_FRONT
100
AcDbLine
 62
1
  6
CONTINUOUS
 10
354.7198108087
 20
368.9141629446
 11
358.5090958767
 21
367.9877908791
  0
LINE
  5
587
100
AcDbEntity
  8
MOVING_S3_0-1_FRONT
100
AcDbLine
 62
1
  6
CONTINUOUS
 10
310.5498482634
 20
376.7420654347
 11
305.429928147
 21
378.0112282632
  0
LINE
  5
588
100
AcDbEntity
  8
MOVING_S3_0-1_FRONT
100
AcDbLine
 62
1
  6
CONTINUOUS
 10
358.5090958767
 20
367.9877908791
 11
362.724703137
 21
366.8260558286
  0
LINE
  5
589
100
AcDbEntity
  8
MOVING_S3_0-1_FRONT
100
AcDbLine
 62
1
  6
CONTINUOUS
 10
362.724703137
 20
366.8260558286
 11
365.1175838839
 21
366.0662299221
  0
LINE
  5
58A
100
AcDbEntity
  8
S3_EXTERN_HANDLE_FRONT
100
AcDbLine
 62
5
  6
CONTINUOUS
 10
383.6252675899
 20
390.1329606414
 11
387.6252675899
 21
390.1329606414
  0
LINE
  5
58B
100
AcDbEntity
  8
S3_EXTERN_HANDLE_FRONT
100
AcDbLine
 62
5
  6
CONTINUOUS
 10
383.6252675899
 20
391.76445191
 11
387.6252675899
 21
391.76445191
  0
LINE
  5
58C
100
AcDbEntity
  8
MOVING_S3_0-1_FRONT
100
AcDbLine
 62
1
  6
CONTINUOUS
 10
185.3332715837
 20
391.7415933232
 11
179.0069840697
 21
391.7655532996
  0
LINE
  5
58D
100
AcDbEntity
  8
MOVING_S3_0-1_FRONT
100
AcDbLine
 62
1
  6
CONTINUOUS
 10
201.7706049131
 20
391.5057953795
 11
185.3332715837
 21
391.7415933232
  0
LINE
  5
58E
100
AcDbEntity
  8
AXIS
100
AcDbLine
 62
4
  6
CONTINUOUS
 10
544.4649412931
 20
233.8333583395
 11
544.4649412931
 21
243.8333583395
  0
LINE
  5
58F
100
AcDbEntity
  8
AXIS
100
AcDbLine
 62
4
  6
CONTINUOUS
 10
544.4649412931
 20
261.8333583395
 11
544.4649412931
 21
271.8333583395
  0
LINE
  5
590
100
AcDbEntity
  8
AXIS
100
AcDbLine
 62
4
  6
CENTER
 10
564.4649412931
 20
243.937570777
 11
564.4649412931
 21
261.729145902
  0
LINE
  5
591
100
AcDbEntity
  8
0
100
AcDbLine
 62
7
  6
CONTINUOUS
 10
0.0
 20
429.5408721046
 11
691.7282139732
 21
429.5408721046
  0
LINE
  5
592
100
AcDbEntity
  8
0
100
AcDbLine
 62
7
  6
CONTINUOUS
 10
662.3168968863
 20
429.5408721046
 11
0.0
 21
429.5408721046
  0
LINE
  5
593
100
AcDbEntity
  8
AXIS
100
AcDbLine
 62
4
  6
CONTINUOUS
 10
584.4649412931
 20
233.8333583395
 11
584.4649412931
 21
243.8333583395
  0
LINE
  5
594
100
AcDbEntity
  8
AXIS
100
AcDbLine
 62
4
  6
CONTINUOUS
 10
584.4649412931
 20
261.8333583395
 11
584.4649412931
 21
271.8333583395
  0
LINE
  5
595
100
AcDbEntity
  8
0
100
AcDbLine
 62
7
  6
CONTINUOUS
 10
691.7282139732
 20
0.0
 11
691.7282139732
 21
429.5408721046
  0
ARC
  5
596
100
AcDbEntity
  8
MOVING_S3_0-1_FRONT
100
AcDbCircle
 62
1
  6
CONTINUOUS
 10
8356.6128304068
 20
-145928.441343825
 40
146520.9853821074
100
AcDbArc
 50
93.1375908157
 51
93.1381118413
  0
ARC
  5
597
100
AcDbEntity
  8
S3_EXTERN_HANDLE_FRONT
100
AcDbCircle
 62
5
  6
CONTINUOUS
 10
-42617.8192319245
 20
2183.907962679
 40
42707.500087005
100
AcDbArc
 50
357.4086817024
 51
357.4119321452
  0
ARC
  5
598
100
AcDbEntity
  8
S3_EXTERN_HANDLE_FRONT
100
AcDbCircle
 62
5
  6
CONTINUOUS
 10
-3061.6427326707
 20
395.9079421062
 40
3110.9340325021
100
AcDbArc
 50
357.4122862396
 51
357.4523373378
  0
ARC
  5
599
100
AcDbEntity
  8
S3_EXTERN_HANDLE_FRONT
100
AcDbCircle
 62
5
  6
CONTINUOUS
 10
-1421.8442221346
 20
317.1211244825
 40
1469.3070127327
100
AcDbArc
 50
358.3225780213
 51
358.4272564404
  0
ARC
  5
59A
100
AcDbEntity
  8
S3_EXTERN_HANDLE_FRONT
100
AcDbCircle
 62
5
  6
CONTINUOUS
 10
-1267.4306707711
 20
312.856653381
 40
1314.8345884285
100
AcDbArc
 50
358.4283377388
 51
358.4839551871
  0
ARC
  5
59B
100
AcDbEntity
  8
S3_EXTERN_HANDLE_FRONT
100
AcDbCircle
 62
5
  6
CONTINUOUS
 10
-1190.8072476256
 20
310.826601078
 40
1238.1842780437
100
AcDbArc
 50
358.4840534968
 51
358.5335336051
  0
ARC
  5
59C
100
AcDbEntity
  8
S3_EXTERN_HANDLE_FRONT
100
AcDbCircle
 62
5
  6
CONTINUOUS
 10
-1026.3890006887
 20
305.3528511119
 40
1073.6767858717
100
AcDbArc
 50
358.1379448645
 51
358.3325744457
  0
ARC
  5
59D
100
AcDbEntity
  8
S3_EXTERN_HANDLE_FRONT
100
AcDbCircle
 62
5
  6
CONTINUOUS
 10
-957.5385143282
 20
324.1503442662
 40
1011.0015196239
100
AcDbArc
 50
352.9962054774
 51
353.0790908463
  0
ARC
  5
59E
100
AcDbEntity
  8
S3_EXTERN_HANDLE_FRONT
100
AcDbCircle
 62
5
  6
CONTINUOUS
 10
-891.5768735549
 20
301.2080712175
 40
938.801198394
100
AcDbArc
 50
357.8422402734
 51
358.1234258885
  0
ARC
  5
59F
100
AcDbEntity
  8
S3_EXTERN_HANDLE_FRONT
100
AcDbCircle
 62
5
  6
CONTINUOUS
 10
-494.9784972092
 20
175.6752929635
 40
873.7703846433
100
AcDbArc
 50
1.8566130004
 51
2.2203871139
  0
ARC
  5
5A0
100
AcDbEntity
  8
S3_EXTERN_HANDLE_FRONT
100
AcDbCircle
 62
5
  6
CONTINUOUS
 10
-704.3560798943
 20
293.8577927955
 40
751.4364666209
100
AcDbArc
 50
357.5544840482
 51
357.8648094706
  0
ARC
  5
5A1
100
AcDbEntity
  8
S3_EXTERN_HANDLE_FRONT
100
AcDbCircle
 62
5
  6
CONTINUOUS
 10
-277.1237803167
 20
23.0034822563
 40
687.129673673
100
AcDbArc
 50
20.1243645804
 51
21.12288585
  0
ARC
  5
5A2
100
AcDbEntity
  8
S3_EXTERN_HANDLE_FRONT
100
AcDbCircle
 62
5
  6
CONTINUOUS
 10
-423.7915579942
 20
522.4874522232
 40
569.0870072471
100
AcDbArc
 50
330.4041538748
 51
330.5558679403
  0
ARC
  5
5A3
100
AcDbEntity
  8
S3_EXTERN_HANDLE_FRONT
100
AcDbCircle
 62
5
  6
CONTINUOUS
 10
-19.8694390614
 20
419.8019753932
 40
155.4706548047
100
AcDbArc
 50
295.5819257526
 51
295.7913910202
  0
ARC
  5
5A4
100
AcDbEntity
  8
S3_EXTERN_HANDLE_FRONT
100
AcDbCircle
 62
5
  6
CONTINUOUS
 10
-52.7095689309
 20
206.8722184219
 40
98.7227299273
100
AcDbArc
 50
359.9155059938
 51
4.0181057822
  0
ARC
  5
5A5
100
AcDbEntity
  8
S3_EXTERN_HANDLE_FRONT
100
AcDbCircle
 62
5
  6
CONTINUOUS
 10
-12.7919180096
 20
250.037547969
 40
58.9363305052
100
AcDbArc
 50
355.7092266195
 51
359.9590188084
  0
ARC
  5
5A6
100
AcDbEntity
  8
MOVING_S3_0-1_FRONT
100
AcDbCircle
 62
1
  6
CONTINUOUS
 10
416.6949666407
 20
-1076.8081718014
 40
1451.9055607234
100
AcDbArc
 50
93.0235215838
 51
93.1487451869
  0
ARC
  5
5A7
100
AcDbEntity
  8
MOVING_S3_0-1_FRONT
100
AcDbCircle
 62
1
  6
CONTINUOUS
 10
219.4930505821
 20
-555.5910471594
 40
935.5982399623
100
AcDbArc
 50
82.9952807995
 51
83.0764913779
  0
ARC
  5
5A8
100
AcDbEntity
  8
MOVING_S3_0-1_FRONT
100
AcDbCircle
 62
1
  6
CONTINUOUS
 10
308.3917821302
 20
-628.0696590703
 40
873.7703846433
100
AcDbArc
 50
87.7796132636
 51
88.1433873771
  0
ARC
  5
5A9
100
AcDbEntity
  8
MOVING_S3_0-1_FRONT
100
AcDbCircle
 62
1
  6
CONTINUOUS
 10
254.883319151
 20
-271.3218765721
 40
649.1364562817
100
AcDbArc
 50
83.1528591083
 51
83.3601878479
  0
ARC
  5
5AA
100
AcDbEntity
  8
MOVING_S3_0-1_FRONT
100
AcDbCircle
 62
1
  6
CONTINUOUS
 10
86.0042669266
 20
-262.1067899107
 40
674.809377963
100
AcDbArc
 50
66.2641850006
 51
67.04258064
  0
ARC
  5
5AB
100
AcDbEntity
  8
MOVING_S3_0-1_FRONT
100
AcDbCircle
 62
1
  6
CONTINUOUS
 10
372.3567430369
 20
-236.5985031884
 40
610.5268342983
100
AcDbArc
 50
92.6472921764
 51
93.0273812327
  0
ARC
  5
5AC
100
AcDbEntity
  8
MOVING_S3_0-1_FRONT
100
AcDbCircle
 62
1
  6
CONTINUOUS
 10
143.3737054785
 20
-126.7651648997
 40
527.8107171117
100
AcDbArc
 50
67.046478378
 51
67.5963575033
  0
ARC
  5
5AD
100
AcDbEntity
  8
MOVING_S3_0-1_FRONT
100
AcDbCircle
 62
1
  6
CONTINUOUS
 10
358.2337937761
 20
-123.5231959925
 40
496.8826960598
100
AcDbArc
 50
89.0369109807
 51
89.7150386577
  0
ARC
  5
5AE
100
AcDbEntity
  8
MOVING_S3_0-1_FRONT
100
AcDbCircle
 62
1
  6
CONTINUOUS
 10
242.708613968
 20
-134.9449544781
 40
379.4723691228
100
AcDbArc
 50
72.5683341508
 51
72.5822997048
  0
ARC
  5
5AF
100
AcDbEntity
  8
MOVING_S3_0-1_FRONT
100
AcDbCircle
 62
1
  6
CONTINUOUS
 10
204.3837884607
 20
21.4091212697
 40
367.5676436531
100
AcDbArc
 50
67.5856973074
 51
68.4163407307
  0
ARC
  5
5B0
100
AcDbEntity
  8
S3_EXTERN_HANDLE_FRONT
100
AcDbCircle
 62
5
  6
CONTINUOUS
 10
36.4780826015
 20
-49.7507013504
 40
99.1022627743
100
AcDbArc
 50
91.6820519531
 51
92.5671361983
  0
ARC
  5
5B1
100
AcDbEntity
  8
S3_EXTERN_HANDLE_FRONT
100
AcDbCircle
 62
5
  6
CONTINUOUS
 10
32.8049176303
 20
-21.1544232312
 40
72.3881213684
100
AcDbArc
 50
90.1029346726
 51
92.0529057146
  0
ARC
  5
5B2
100
AcDbEntity
  8
S3_EXTERN_HANDLE_FRONT
100
AcDbCircle
 62
5
  6
CONTINUOUS
 10
34.1671733108
 20
1.4007000378
 40
49.8552206808
100
AcDbArc
 50
88.5598537322
 51
91.7152770891
  0
ARC
  5
5B3
100
AcDbEntity
  8
S3_EXTERN_HANDLE_FRONT
100
AcDbCircle
 62
5
  6
CONTINUOUS
 10
34.6277404221
 20
21.6085759848
 40
29.6421906105
100
AcDbArc
 50
82.6081363851
 51
88.4681257675
  0
ARC
  5
5B4
100
AcDbEntity
  8
S3_EXTERN_HANDLE_FRONT
100
AcDbCircle
 62
5
  6
CONTINUOUS
 10
34.5083343483
 20
20.23329671
 40
29.0907274638
100
AcDbArc
 50
86.8634965705
 51
91.8501532088
  0
ARC
  5
5B5
100
AcDbEntity
  8
S3_EXTERN_HANDLE_FRONT
100
AcDbCircle
 62
5
  6
CONTINUOUS
 10
56.0726331668
 20
36.4848880072
 40
28.2339810124
100
AcDbArc
 50
160.9418737386
 51
163.5691408344
  0
ARC
  5
5B6
100
AcDbEntity
  8
S3_EXTERN_HANDLE_FRONT
100
AcDbCircle
 62
5
  6
CONTINUOUS
 10
35.1081059522
 20
25.5217350797
 40
25.6997649929
100
AcDbArc
 50
75.1491322581
 51
82.5477787003
  0
ARC
  5
5B7
100
AcDbEntity
  8
S3_EXTERN_HANDLE_FRONT
100
AcDbCircle
 62
5
  6
CONTINUOUS
 10
35.2878623202
 20
26.2228719988
 40
24.9759771279
100
AcDbArc
 50
66.4225535086
 51
75.1354772874
  0
ARC
  5
5B8
100
AcDbEntity
  8
S3_EXTERN_HANDLE_FRONT
100
AcDbCircle
 62
5
  6
CONTINUOUS
 10
48.2240770348
 20
40.8909866818
 40
21.7282340046
100
AcDbArc
 50
158.9578395038
 51
165.6111020117
  0
ARC
  5
5B9
100
AcDbEntity
  8
S3_EXTERN_HANDLE_FRONT
100
AcDbCircle
 62
5
  6
CONTINUOUS
 10
34.7374856059
 20
29.2594486152
 40
20.0958481132
100
AcDbArc
 50
65.7688591652
 51
74.9377804994
  0
ARC
  5
5BA
100
AcDbEntity
  8
S3_EXTERN_HANDLE_FRONT
100
AcDbCircle
 62
5
  6
CONTINUOUS
 10
35.0307054163
 20
30.1669793759
 40
19.143356362
100
AcDbArc
 50
75.0793726702
 51
86.7978525151
  0
ARC
  5
5BB
100
AcDbEntity
  8
S3_EXTERN_HANDLE_FRONT
100
AcDbCircle
 62
5
  6
CONTINUOUS
 10
35.825388596
 20
31.4803708188
 40
17.62428372
100
AcDbArc
 50
57.815108876
 51
66.0307169037
  0
ARC
  5
5BC
100
AcDbEntity
  8
S3_EXTERN_HANDLE_FRONT
100
AcDbCircle
 62
5
  6
CONTINUOUS
 10
45.8668160986
 20
40.0481410482
 40
17.4241042311
100
AcDbArc
 50
156.3823045336
 51
161.0584979628
  0
ARC
  5
5BD
100
AcDbEntity
  8
S3_EXTERN_HANDLE_FRONT
100
AcDbCircle
 62
5
  6
CONTINUOUS
 10
39.2422979119
 20
34.97771625
 40
15.3707451917
100
AcDbArc
 50
56.7269592265
 51
66.8791321394
  0
ARC
  5
5BE
100
AcDbEntity
  8
S3_EXTERN_HANDLE_FRONT
100
AcDbCircle
 62
5
  6
CONTINUOUS
 10
39.5451511453
 20
37.4303917126
 40
10.6072587282
100
AcDbArc
 50
52.3653535384
 51
57.7009363031
  0
ARC
  5
5BF
100
AcDbEntity
  8
S3_EXTERN_HANDLE_FRONT
100
AcDbCircle
 62
5
  6
CONTINUOUS
 10
38.1379347421
 20
41.6700100937
 40
9.5655687872
100
AcDbArc
 50
162.9725239248
 51
166.3776042354
  0
ARC
  5
5C0
100
AcDbEntity
  8
S3_EXTERN_HANDLE_FRONT
100
AcDbCircle
 62
5
  6
CONTINUOUS
 10
38.3898692433
 20
43.3610408173
 40
9.2462659763
100
AcDbArc
 50
148.2819343921
 51
156.6295743604
  0
ARC
  5
5C1
100
AcDbEntity
  8
S3_EXTERN_HANDLE_FRONT
100
AcDbCircle
 62
5
  6
CONTINUOUS
 10
42.5760566676
 20
41.3634803095
 40
5.6418211343
100
AcDbArc
 50
46.4664347694
 51
52.3511103234
  0
ARC
  5
5C2
100
AcDbEntity
  8
S3_EXTERN_HANDLE_FRONT
100
AcDbCircle
 62
5
  6
CONTINUOUS
 10
45.0007687584
 20
43.8095560411
 40
4.8275800611
100
AcDbArc
 50
46.22357629
 51
56.3596484114
  0
ARC
  5
5C3
100
AcDbEntity
  8
S3_EXTERN_HANDLE_FRONT
100
AcDbCircle
 62
5
  6
CONTINUOUS
 10
44.9624475818
 20
43.8380121884
 40
2.2043097323
100
AcDbArc
 50
34.3105828532
 51
47.1333582168
  0
ARC
  5
5C4
100
AcDbEntity
  8
S3_EXTERN_HANDLE_FRONT
100
AcDbCircle
 62
5
  6
CONTINUOUS
 10
-2.2284711157
 20
109.9921306058
 40
379.4723691227
100
AcDbArc
 50
17.4177002952
 51
19.0745470082
  0
ARC
  5
5C5
100
AcDbEntity
  8
MOVING_S3_0-1_FRONT
100
AcDbCircle
 62
1
  6
CONTINUOUS
 10
244.657554168
 20
67.5695322287
 40
300.5331709962
100
AcDbArc
 50
71.6363619008
 51
71.9333154161
  0
ARC
  5
5C6
100
AcDbEntity
  8
MOVING_S3_0-1_FRONT
100
AcDbCircle
 62
1
  6
CONTINUOUS
 10
247.7997668482
 20
76.4020970826
 40
291.1620450103
100
AcDbArc
 50
72.1851512489
 51
72.6038927884
  0
ARC
  5
5C7
100
AcDbEntity
  8
S3_EXTERN_HANDLE_FRONT
100
AcDbCircle
 62
5
  6
CONTINUOUS
 10
120.7670759992
 20
141.597730953
 40
264.2476566904
100
AcDbArc
 50
25.102361447
 51
27.8705980714
  0
ARC
  5
5C8
100
AcDbEntity
  8
S3_EXTERN_HANDLE_FRONT
100
AcDbCircle
 62
5
  6
CONTINUOUS
 10
102.9666720402
 20
56.859434366
 40
231.8007133347
100
AcDbArc
 50
97.8544211591
 51
98.773404015
  0
ARC
  5
5C9
100
AcDbEntity
  8
S3_EXTERN_HANDLE_FRONT
100
AcDbCircle
 62
5
  6
CONTINUOUS
 10
143.4515786092
 20
72.6068754412
 40
228.2338601241
100
AcDbArc
 50
114.4651114503
 51
114.784298362
  0
ARC
  5
5CA
100
AcDbEntity
  8
S3_EXTERN_HANDLE_FRONT
100
AcDbCircle
 62
5
  6
CONTINUOUS
 10
220.5452903545
 20
141.768722487
 40
167.6135036774
100
AcDbArc
 50
156.3013817819
 51
156.5374454445
  0
ARC
  5
5CB
100
AcDbEntity
  8
S3_EXTERN_HANDLE_FRONT
100
AcDbCircle
 62
5
  6
CONTINUOUS
 10
78.0841965336
 20
76.3083520453
 40
130.9341772767
100
AcDbArc
 50
101.7429618917
 51
101.9604893829
  0
ARC
  5
5CC
100
AcDbEntity
  8
S3_EXTERN_HANDLE_FRONT
100
AcDbCircle
 62
5
  6
CONTINUOUS
 10
42.568710935
 20
81.6269481372
 40
40.1377545076
100
AcDbArc
 50
249.9932994757
 51
252.3530498172
  0
ARC
  5
5CD
100
AcDbEntity
  8
S3_EXTERN_HANDLE_FRONT
100
AcDbCircle
 62
5
  6
CONTINUOUS
 10
32.2759835208
 20
49.2721729097
 40
6.1852624394
100
AcDbArc
 50
252.3530498172
 51
267.6976629689
  0
ARC
  5
5CE
100
AcDbEntity
  8
S3_EXTERN_HANDLE_FRONT
100
AcDbCircle
 62
5
  6
CONTINUOUS
 10
33.5258511006
 20
46.7426646648
 40
5.9119284661
100
AcDbArc
 50
137.8491108683
 51
160.7413602396
  0
ARC
  5
5CF
100
AcDbEntity
  8
S3_EXTERN_HANDLE_FRONT
100
AcDbCircle
 62
5
  6
CONTINUOUS
 10
31.78538139
 20
45.9009973283
 40
3.3607131531
100
AcDbArc
 50
85.6670041706
 51
93.4399470359
  0
ARC
  5
5D0
100
AcDbEntity
  8
S3_EXTERN_HANDLE_FRONT
100
AcDbCircle
 62
5
  6
CONTINUOUS
 10
32.8648046069
 20
46.9773854722
 40
2.650691167
100
AcDbArc
 50
122.8440700194
 51
151.9911357613
  0
ARC
  5
5D1
100
AcDbEntity
  8
S3_EXTERN_HANDLE_FRONT
100
AcDbCircle
 62
5
  6
CONTINUOUS
 10
29.6991383637
 20
46.2809500664
 40
2.5217276335
100
AcDbArc
 50
179.7830008578
 51
249.9932994757
  0
ARC
  5
5D2
100
AcDbEntity
  8
S3_EXTERN_HANDLE_FRONT
100
AcDbCircle
 62
5
  6
CONTINUOUS
 10
46.6147444875
 20
46.8980238752
 40
2.0000123556
100
AcDbArc
 50
277.0000022706
 51
359.7423055053
  0
ARC
  5
5D3
100
AcDbEntity
  8
S3_EXTERN_HANDLE_FRONT
100
AcDbCircle
 62
5
  6
CONTINUOUS
 10
30.3344040743
 20
49.4766934166
 40
1.7149318488
100
AcDbArc
 50
94.0993991797
 51
134.0114847262
  0
ARC
  5
5D4
100
AcDbEntity
  8
S3_EXTERN_HANDLE_FRONT
100
AcDbCircle
 62
5
  6
CONTINUOUS
 10
47.4076908544
 20
46.3173456776
 40
1.3516265561
100
AcDbArc
 50
30.3041550532
 51
46.3465701071
  0
ARC
  5
5D5
100
AcDbEntity
  8
S3_EXTERN_HANDLE_FRONT
100
AcDbCircle
 62
5
  6
CONTINUOUS
 10
48.2768074017
 20
46.8286474302
 40
0.3432812846
100
AcDbArc
 50
10.1306988735
 51
29.8219195172
  0
ARC
  5
5D6
100
AcDbEntity
  8
S3_EXTERN_HANDLE_FRONT
100
AcDbCircle
 62
5
  6
CONTINUOUS
 10
31.6032036553
 20
48.9317040615
 40
0.3245359466
100
AcDbArc
 50
93.4399470359
 51
122.8440700194
  0
ARC
  5
5D7
100
AcDbEntity
  8
S3_EXTERN_HANDLE_FRONT
100
AcDbCircle
 62
5
  6
CONTINUOUS
 10
515.8757549193
 20
27.3596221191
 40
493.7873007467
100
AcDbArc
 50
155.2847113111
 51
155.8863520181
  0
ARC
  5
5D8
100
AcDbEntity
  8
MOVING_S3_0-1_FRONT
100
AcDbCircle
 62
1
  6
CONTINUOUS
 10
359.0261491474
 20
-52.2558081568
 40
425.6124741464
100
AcDbArc
 50
89.7739882805
 51
91.6856505192
  0
ARC
  5
5D9
100
AcDbEntity
  8
MOVING_S3_0-1_FRONT
100
AcDbCircle
 62
1
  6
CONTINUOUS
 10
362.8262211046
 20
-29.1988415216
 40
402.9083253783
100
AcDbArc
 50
91.8010014604
 51
92.655671871
  0
ARC
  5
5DA
100
AcDbEntity
  8
MOVING_S3_0-1_FRONT
100
AcDbCircle
 62
1
  6
CONTINUOUS
 10
359.6024426595
 20
-23.1375288189
 40
396.8123149986
100
AcDbArc
 50
88.9881011734
 51
89.349244831
  0
ARC
  5
5DB
100
AcDbEntity
  8
MOVING_S3_0-1_FRONT
100
AcDbCircle
 62
1
  6
CONTINUOUS
 10
360.3588152649
 20
35.3868040613
 40
338.28317875
100
AcDbArc
 50
89.3647642831
 51
90.1278802113
  0
ARC
  5
5DC
100
AcDbEntity
  8
MOVING_S3_0-1_FRONT
100
AcDbCircle
 62
1
  6
CONTINUOUS
 10
360.6193001396
 20
36.9009907185
 40
336.7718105864
100
AcDbArc
 50
90.995840885
 51
91.7791513467
  0
ARC
  5
5DD
100
AcDbEntity
  8
MOVING_S3_0-1_FRONT
100
AcDbCircle
 62
1
  6
CONTINUOUS
 10
295.3537725449
 20
40.3493265436
 40
334.9371312435
100
AcDbArc
 50
84.8910185503
 51
85.0503155777
  0
ARC
  5
5DE
100
AcDbEntity
  8
MOVING_S3_0-1_FRONT
100
AcDbCircle
 62
1
  6
CONTINUOUS
 10
360.4462711646
 20
39.4371853027
 40
334.233016722
100
AcDbArc
 50
90.1444219784
 51
90.9737400951
  0
ARC
  5
5DF
100
AcDbEntity
  8
MOVING_S3_0-1_FRONT
100
AcDbCircle
 62
1
  6
CONTINUOUS
 10
282.2169105662
 20
2.3031649808
 40
247.777164668
100
AcDbArc
 50
76.1983484588
 51
77.2728403508
  0
ARC
  5
5E0
100
AcDbEntity
  8
MOVING_S3_0-1_FRONT
100
AcDbCircle
 62
1
  6
CONTINUOUS
 10
282.7407474986
 20
4.3802593965
 40
245.6350744168
100
AcDbArc
 50
74.4792767462
 51
76.2014269077
  0
ARC
  5
5E1
100
AcDbEntity
  8
MOVING_S3_0-1_FRONT
100
AcDbCircle
 62
1
  6
CONTINUOUS
 10
296.6896995344
 20
-0.7901668501
 40
236.1605742407
100
AcDbArc
 50
78.5668496584
 51
79.2729360512
  0
ARC
  5
5E2
100
AcDbEntity
  8
MOVING_S3_0-1_FRONT
100
AcDbCircle
 62
1
  6
CONTINUOUS
 10
334.7331009777
 20
41.5288521639
 40
203.6544134174
100
AcDbArc
 50
86.4111683893
 51
87.8862533055
  0
ARC
  5
5E3
100
AcDbEntity
  8
S3_EXTERN_HANDLE_FRONT
100
AcDbCircle
 62
5
  6
CONTINUOUS
 10
417.8127215805
 20
19.2270783148
 40
33.1997171167
100
AcDbArc
 50
115.2750643075
 51
115.4428801136
  0
ARC
  5
5E4
100
AcDbEntity
  8
S3_EXTERN_HANDLE_FRONT
100
AcDbCircle
 62
5
  6
CONTINUOUS
 10
406.1322483813
 20
41.152306103
 40
10.3069984533
100
AcDbArc
 50
104.66513645
 51
115.5676374216
  0
ARC
  5
5E5
100
AcDbEntity
  8
S3_EXTERN_HANDLE_FRONT
100
AcDbCircle
 62
5
  6
CONTINUOUS
 10
365.5529232997
 20
42.5751065183
 40
8.8322064869
100
AcDbArc
 50
66.2644954652
 51
74.1641229909
  0
ARC
  5
5E6
100
AcDbEntity
  8
MOVING_S3_0-1_FRONT
100
AcDbCircle
 62
1
  6
CONTINUOUS
 10
303.5682242417
 20
57.802212273
 40
177.3460106825
100
AcDbArc
 50
72.7028017701
 51
75.6448122455
  0
ARC
  5
5E7
100
AcDbEntity
  8
MOVING_S3_0-1_FRONT
100
AcDbCircle
 62
1
  6
CONTINUOUS
 10
313.8378348876
 20
92.2131023817
 40
141.6129756578
100
AcDbArc
 50
72.6084957374
 51
77.9082913079
  0
ARC
  5
5E8
100
AcDbEntity
  8
S3_EXTERN_HANDLE_FRONT
100
AcDbCircle
 62
5
  6
CONTINUOUS
 10
310.714075929
 20
125.2867419992
 40
257.7396610721
100
AcDbArc
 50
161.9507091738
 51
162.18004831
  0
ARC
  5
5E9
100
AcDbEntity
  8
MOVING_S3_0-1_FRONT
100
AcDbCircle
 62
1
  6
CONTINUOUS
 10
258.0032253615
 20
108.2289061866
 40
257.7396610721
100
AcDbArc
 50
71.9507091738
 51
72.18004831
  0
ARC
  5
5EA
100
AcDbEntity
  8
S3_EXTERN_HANDLE_FRONT
100
AcDbCircle
 62
5
  6
CONTINUOUS
 10
284.446445244
 20
134.1562044304
 40
238.9051607444
100
AcDbArc
 50
154.1665498446
 51
155.3448760305
  0
ARC
  5
5EB
100
AcDbEntity
  8
MOVING_S3_0-1_FRONT
100
AcDbCircle
 62
1
  6
CONTINUOUS
 10
320.5224147818
 20
122.0324212492
 40
110.9188743019
100
AcDbArc
 50
75.9031401322
 51
79.9592496138
  0
ARC
  5
5EC
100
AcDbEntity
  8
S3_EXTERN_HANDLE_FRONT
100
AcDbCircle
 62
5
  6
CONTINUOUS
 10
397.5338608459
 20
71.6673050984
 40
367.5676436531
100
AcDbArc
 50
157.5856973074
 51
158.4163407307
  0
ARC
  5
5ED
100
AcDbEntity
  8
S3_EXTERN_HANDLE_FRONT
100
AcDbCircle
 62
5
  6
CONTINUOUS
 10
352.491292489
 20
88.0084969855
 40
105.2818098024
100
AcDbArc
 50
79.4923251051
 51
80.5363973673
  0
ARC
  5
5EE
100
AcDbEntity
  8
S3_EXTERN_HANDLE_FRONT
100
AcDbCircle
 62
5
  6
CONTINUOUS
 10
387.3598841045
 20
80.4109787088
 40
36.8279370814
100
AcDbArc
 50
240.5324409156
 51
248.3891974932
  0
ARC
  5
5EF
100
AcDbEntity
  8
S3_EXTERN_HANDLE_FRONT
100
AcDbCircle
 62
5
  6
CONTINUOUS
 10
384.3630117901
 20
79.3871346029
 40
35.7112058342
100
AcDbArc
 50
291.825087334
 51
297.6920379218
  0
ARC
  5
5F0
100
AcDbEntity
  8
S3_EXTERN_HANDLE_FRONT
100
AcDbCircle
 62
5
  6
CONTINUOUS
 10
384.8662022953
 20
80.257129457
 40
34.0784466126
100
AcDbArc
 50
282.7805255036
 51
291.442811644
  0
ARC
  5
5F1
100
AcDbEntity
  8
S3_EXTERN_HANDLE_FRONT
100
AcDbCircle
 62
5
  6
CONTINUOUS
 10
385.3967001804
 20
76.8416111116
 40
32.9638413289
100
AcDbArc
 50
284.289110004
 51
291.8020804068
  0
ARC
  5
5F2
100
AcDbEntity
  8
S3_EXTERN_HANDLE_FRONT
100
AcDbCircle
 62
5
  6
CONTINUOUS
 10
385.8359907021
 20
76.7146113908
 40
32.8301953201
100
AcDbArc
 50
248.4858876454
 51
257.1077114512
  0
ARC
  5
5F3
100
AcDbEntity
  8
S3_EXTERN_HANDLE_FRONT
100
AcDbCircle
 62
5
  6
CONTINUOUS
 10
385.9731129575
 20
78.7473149421
 40
32.5086414205
100
AcDbArc
 50
250.3495012213
 51
261.4048458808
  0
ARC
  5
5F4
100
AcDbEntity
  8
S3_EXTERN_HANDLE_FRONT
100
AcDbCircle
 62
5
  6
CONTINUOUS
 10
385.588210877
 20
76.1252438593
 40
32.2223700886
100
AcDbArc
 50
277.3144371127
 51
284.2735054267
  0
ARC
  5
5F5
100
AcDbEntity
  8
S3_EXTERN_HANDLE_FRONT
100
AcDbCircle
 62
5
  6
CONTINUOUS
 10
385.6804358964
 20
76.0886473426
 40
32.1853060592
100
AcDbArc
 50
257.1290185462
 51
266.3347800034
  0
ARC
  5
5F6
100
AcDbEntity
  8
S3_EXTERN_HANDLE_FRONT
100
AcDbCircle
 62
5
  6
CONTINUOUS
 10
385.605059067
 20
75.9752578148
 40
32.0714596405
100
AcDbArc
 50
270.0361026021
 51
277.3186967051
  0
ARC
  5
5F7
100
AcDbEntity
  8
S3_EXTERN_HANDLE_FRONT
100
AcDbCircle
 62
5
  6
CONTINUOUS
 10
385.648717742
 20
75.3218861853
 40
31.4180903958
100
AcDbArc
 50
266.3031156738
 51
269.9572349926
  0
ARC
  5
5F8
100
AcDbEntity
  8
S3_EXTERN_HANDLE_FRONT
100
AcDbCircle
 62
5
  6
CONTINUOUS
 10
385.5943782576
 20
77.2572334547
 40
30.9918241964
100
AcDbArc
 50
270.0571063082
 51
282.6945461768
  0
ARC
  5
5F9
100
AcDbEntity
  8
S3_EXTERN_HANDLE_FRONT
100
AcDbCircle
 62
5
  6
CONTINUOUS
 10
385.6747767054
 20
77.160518771
 40
30.8951337879
100
AcDbArc
 50
261.5121046476
 51
269.9081840979
  0
ARC
  5
5FA
100
AcDbEntity
  8
S3_EXTERN_HANDLE_FRONT
100
AcDbCircle
 62
5
  6
CONTINUOUS
 10
385.6373471576
 20
72.8896062475
 40
29.7975549328
100
AcDbArc
 50
232.4981440183
 51
307.5018389176
  0
ARC
  5
5FB
100
AcDbEntity
  8
S3_EXTERN_HANDLE_FRONT
100
AcDbCircle
 62
5
  6
CONTINUOUS
 10
366.8018710718
 20
45.8213575213
 40
5.3947599949
100
AcDbArc
 50
85.5367048891
 51
92.9389934312
  0
ARC
  5
5FC
100
AcDbEntity
  8
S3_EXTERN_HANDLE_FRONT
100
AcDbCircle
 62
5
  6
CONTINUOUS
 10
404.4644911781
 20
46.3783871968
 40
4.8376683011
100
AcDbArc
 50
86.9099507377
 51
101.2243575604
  0
ARC
  5
5FD
100
AcDbEntity
  8
S3_EXTERN_HANDLE_FRONT
100
AcDbCircle
 62
5
  6
CONTINUOUS
 10
366.9459431435
 20
47.3814230337
 40
3.828278343
100
AcDbArc
 50
74.5920230411
 51
85.8694139359
  0
ARC
  5
5FE
100
AcDbEntity
  8
S3_EXTERN_HANDLE_FRONT
100
AcDbCircle
 62
5
  6
CONTINUOUS
 10
366.2060441347
 20
46.1615025736
 40
3.4024538318
100
AcDbArc
 50
59.9334941054
 51
65.1609430224
  0
ARC
  5
5FF
100
AcDbEntity
  8
S3_EXTERN_HANDLE_FRONT
100
AcDbCircle
 62
5
  6
CONTINUOUS
 10
401.9361153645
 20
51.2064013714
 40
2.7891534563
100
AcDbArc
 50
341.0089476832
 51
0.0538288984
  0
ARC
  5
600
100
AcDbEntity
  8
S3_EXTERN_HANDLE_FRONT
100
AcDbCircle
 62
5
  6
CONTINUOUS
 10
369.0134787737
 20
51.229156362
 40
2.4931952822
100
AcDbArc
 50
215.3628784894
 51
232.5365362112
  0
ARC
  5
601
100
AcDbEntity
  8
S3_EXTERN_HANDLE_FRONT
100
AcDbCircle
 62
5
  6
CONTINUOUS
 10
402.2693914269
 20
51.221078166
 40
2.4818107693
100
AcDbArc
 50
307.4268764958
 51
338.1835937183
  0
ARC
  5
602
100
AcDbEntity
  8
S3_EXTERN_HANDLE_FRONT
100
AcDbCircle
 62
5
  6
CONTINUOUS
 10
368.9928750965
 20
51.2143958411
 40
2.4678502307
100
AcDbArc
 50
191.6948810907
 51
215.360259407
  0
ARC
  5
603
100
AcDbEntity
  8
S3_EXTERN_HANDLE_FRONT
100
AcDbCircle
 62
5
  6
CONTINUOUS
 10
368.9864670144
 20
51.212554367
 40
2.4612019598
100
AcDbArc
 50
180.0822377516
 51
191.6831404982
  0
ARC
  5
604
100
AcDbEntity
  8
S3_EXTERN_HANDLE_FRONT
100
AcDbCircle
 62
5
  6
CONTINUOUS
 10
367.5740810845
 20
49.0807613455
 40
0.1792239735
100
AcDbArc
 50
70.021663575
 51
97.7634653228
  0
ARC
  5
605
100
AcDbEntity
  8
S3_EXTERN_HANDLE_FRONT
100
AcDbCircle
 62
5
  6
CONTINUOUS
 10
403.6943958207
 20
49.1283016792
 40
0.1329621966
100
AcDbArc
 50
78.8844636682
 51
115.2750643075
  0
ARC
  5
606
100
AcDbEntity
  8
S3_EXTERN_HANDLE_FRONT
100
AcDbCircle
 62
5
  6
CONTINUOUS
 10
351.3734498869
 20
111.9410708057
 40
300.5331709961
100
AcDbArc
 50
161.6363619008
 51
161.9333154161
  0
ARC
  5
607
100
AcDbEntity
  8
S3_EXTERN_HANDLE_FRONT
100
AcDbCircle
 62
5
  6
CONTINUOUS
 10
342.540885033
 20
115.0832834859
 40
291.1620450103
100
AcDbArc
 50
162.1851512489
 51
162.6038927884
  0
ARC
  5
608
100
AcDbEntity
  8
S3_EXTERN_HANDLE_FRONT
100
AcDbCircle
 62
5
  6
CONTINUOUS
 10
417.5802521113
 20
103.7630613411
 40
102.1588503247
100
AcDbArc
 50
96.2630823672
 51
98.1417178144
  0
ARC
  5
609
100
AcDbEntity
  8
S3_EXTERN_HANDLE_FRONT
100
AcDbCircle
 62
5
  6
CONTINUOUS
 10
359.2502158449
 20
125.8372875677
 40
88.5136559295
100
AcDbArc
 50
298.1128338048
 51
300.0319300594
  0
ARC
  5
60A
100
AcDbEntity
  8
S3_EXTERN_HANDLE_FRONT
100
AcDbCircle
 62
5
  6
CONTINUOUS
 10
415.8896556712
 20
106.0962614202
 40
86.6867369258
100
AcDbArc
 50
98.8040449618
 51
100.4049407389
  0
ARC
  5
60B
100
AcDbEntity
  8
S3_EXTERN_HANDLE_FRONT
100
AcDbCircle
 62
5
  6
CONTINUOUS
 10
367.9707595289
 20
121.3754327744
 40
78.5302370985
100
AcDbArc
 50
291.9493615175
 51
295.423307659
  0
ARC
  5
60C
100
AcDbEntity
  8
S3_EXTERN_HANDLE_FRONT
100
AcDbCircle
 62
5
  6
CONTINUOUS
 10
387.195727198
 20
125.0615878861
 40
77.2727453967
100
AcDbArc
 50
88.3061330327
 51
91.0256034762
  0
ARC
  5
60D
100
AcDbEntity
  8
S3_EXTERN_HANDLE_FRONT
100
AcDbCircle
 62
5
  6
CONTINUOUS
 10
399.9064599579
 20
114.7079206178
 40
71.0679328237
100
AcDbArc
 50
244.3186217698
 51
249.5198857294
  0
ARC
  5
60E
100
AcDbEntity
  8
S3_EXTERN_HANDLE_FRONT
100
AcDbCircle
 62
5
  6
CONTINUOUS
 10
411.5472100307
 20
133.8347176995
 40
58.8347233906
100
AcDbArc
 50
98.1911434889
 51
99.9475671239
  0
ARC
  5
60F
100
AcDbEntity
  8
S3_EXTERN_HANDLE_FRONT
100
AcDbCircle
 62
5
  6
CONTINUOUS
 10
409.5847284596
 20
141.9783380838
 40
51.5037360701
100
AcDbArc
 50
100.6700376656
 51
101.1512255882
  0
ARC
  5
610
100
AcDbEntity
  8
S3_EXTERN_HANDLE_FRONT
100
AcDbCircle
 62
5
  6
CONTINUOUS
 10
974.5340292751
 20
86.7765672198
 40
935.5982399623
100
AcDbArc
 50
172.9952807995
 51
173.0764913779
  0
ARC
  5
611
100
AcDbEntity
  8
S3_EXTERN_HANDLE_FRONT
100
AcDbCircle
 62
5
  6
CONTINUOUS
 10
1048.7489950014
 20
23.0034866251
 40
687.129673673
100
AcDbArc
 50
158.8771145275
 51
159.8756357971
  0
ARC
  5
612
100
AcDbEntity
  8
S3_EXTERN_HANDLE_FRONT
100
AcDbCircle
 62
5
  6
CONTINUOUS
 10
681.0497720263
 20
-46.7122164357
 40
674.809377963
100
AcDbArc
 50
156.2564486644
 51
157.04258064
  0
ARC
  5
613
100
AcDbEntity
  8
S3_EXTERN_HANDLE_FRONT
100
AcDbCircle
 62
5
  6
CONTINUOUS
 10
690.2648586877
 20
122.1668357887
 40
649.1364562817
100
AcDbArc
 50
173.1528591083
 51
173.3601878479
  0
ARC
  5
614
100
AcDbEntity
  8
S3_EXTERN_HANDLE_FRONT
100
AcDbCircle
 62
5
  6
CONTINUOUS
 10
656.3244853045
 20
-35.6990821346
 40
647.7425619187
100
AcDbArc
 50
155.8707863867
 51
156.267546814
  0
ARC
  5
615
100
AcDbEntity
  8
S3_EXTERN_HANDLE_FRONT
100
AcDbCircle
 62
5
  6
CONTINUOUS
 10
545.7081470153
 20
10.6572221162
 40
527.8107171117
100
AcDbArc
 50
157.046478378
 51
157.5963575033
  0
ARC
  5
616
100
AcDbEntity
  8
S3_EXTERN_HANDLE_FRONT
100
AcDbCircle
 62
5
  6
CONTINUOUS
 10
773.4790062955
 20
109.9921306058
 40
379.4723691227
100
AcDbArc
 50
160.9254529918
 51
162.5822997048
  0
ARC
  5
617
100
AcDbEntity
  8
S3_EXTERN_HANDLE_FRONT
100
AcDbCircle
 62
5
  6
CONTINUOUS
 10
651.3645750758
 20
141.3461020057
 40
264.8131443994
100
AcDbArc
 50
152.7137205318
 51
154.4342501124
  0
ARC
  5
618
100
AcDbEntity
  8
S3_EXTERN_HANDLE_FRONT
100
AcDbCircle
 62
5
  6
CONTINUOUS
 10
130.3693846305
 20
146.0634604894
 40
253.6577486586
100
AcDbArc
 50
22.5881152738
 51
25.1090711412
  0
ARC
  5
619
100
AcDbEntity
  8
S3_EXTERN_HANDLE_FRONT
100
AcDbCircle
 62
5
  6
CONTINUOUS
 10
135.1767652259
 20
149.4495726847
 40
248.0005869193
100
AcDbArc
 50
12.7275463433
 51
13.6976857634
  0
ARC
  5
61A
100
AcDbEntity
  8
S3_EXTERN_HANDLE_FRONT
100
AcDbCircle
 62
5
  6
CONTINUOUS
 10
138.2404879452
 20
150.2158802901
 40
244.84254044
100
AcDbArc
 50
13.6932333285
 51
16.8264789776
  0
ARC
  5
61B
100
AcDbEntity
  8
S3_EXTERN_HANDLE_FRONT
100
AcDbCircle
 62
5
  6
CONTINUOUS
 10
145.8685091079
 20
152.4508352514
 40
236.8941549783
100
AcDbArc
 50
16.8431307236
 51
22.6016291324
  0
ARC
  5
61C
100
AcDbEntity
  8
S3_EXTERN_HANDLE_FRONT
100
AcDbCircle
 62
5
  6
CONTINUOUS
 10
131.9233090969
 20
163.9817956353
 40
236.1605742407
100
AcDbArc
 50
10.7251263605
 51
11.4312127533
  0
ARC
  5
61D
100
AcDbEntity
  8
S3_EXTERN_HANDLE_FRONT
100
AcDbCircle
 62
5
  6
CONTINUOUS
 10
155.7077961878
 20
181.6508650197
 40
226.1392612938
100
AcDbArc
 50
17.0121681586
 51
20.1137117646
  0
ARC
  5
61E
100
AcDbEntity
  8
S3_EXTERN_HANDLE_FRONT
100
AcDbCircle
 62
5
  6
CONTINUOUS
 10
158.2513225737
 20
163.2686593996
 40
210.5794423515
100
AcDbArc
 50
16.9441653135
 51
19.5414381403
  0
ARC
  5
61F
100
AcDbEntity
  8
S3_EXTERN_HANDLE_FRONT
100
AcDbCircle
 62
5
  6
CONTINUOUS
 10
190.5186956353
 20
170.8517408794
 40
177.3460106825
100
AcDbArc
 50
14.3551877545
 51
17.2971982299
  0
ARC
  5
620
100
AcDbEntity
  8
S3_EXTERN_HANDLE_FRONT
100
AcDbCircle
 62
5
  6
CONTINUOUS
 10
204.4705264806
 20
178.2875180015
 40
160.1121342512
100
AcDbArc
 50
174.2420163098
 51
174.9204739409
  0
ARC
  5
621
100
AcDbEntity
  8
S3_EXTERN_HANDLE_FRONT
100
AcDbCircle
 62
5
  6
CONTINUOUS
 10
161.6582628845
 20
193.4134418968
 40
102.5662805127
100
AcDbArc
 50
153.2684058815
 51
154.0713443001
  0
ARC
  5
622
100
AcDbEntity
  8
S3_EXTERN_HANDLE_FRONT
100
AcDbCircle
 62
5
  6
CONTINUOUS
 10
87.5448565458
 20
196.0874543949
 40
92.6873377547
100
AcDbArc
 50
113.3918668689
 51
114.6203152014
  0
ARC
  5
623
100
AcDbEntity
  8
S3_EXTERN_HANDLE_FRONT
100
AcDbCircle
 62
5
  6
CONTINUOUS
 10
81.6172903218
 20
195.3275623101
 40
91.6964040247
100
AcDbArc
 50
98.7862524853
 51
101.3224059908
  0
ARC
  5
624
100
AcDbEntity
  8
MOVING_S3_0-1_FRONT
100
AcDbCircle
 62
1
  6
CONTINUOUS
 10
39.2744967483
 20
152.1866816681
 40
81.9309756305
100
AcDbArc
 50
85.7613605372
 51
95.0690496711
  0
ARC
  5
625
100
AcDbEntity
  8
S3_EXTERN_HANDLE_FRONT
100
AcDbCircle
 62
5
  6
CONTINUOUS
 10
55.0289474096
 20
168.5019482209
 40
35.6700308541
100
AcDbArc
 50
94.1746697113
 51
94.9308131225
  0
ARC
  5
626
100
AcDbEntity
  8
S3_EXTERN_HANDLE_FRONT
100
AcDbCircle
 62
5
  6
CONTINUOUS
 10
54.705332634
 20
173.8365367856
 40
31.5118967247
100
AcDbArc
 50
92.7487077137
 51
97.634649822
  0
ARC
  5
627
100
AcDbEntity
  8
S3_EXTERN_HANDLE_FRONT
100
AcDbCircle
 62
5
  6
CONTINUOUS
 10
55.3896312432
 20
175.3109332136
 40
29.6675248477
100
AcDbArc
 50
94.2534745467
 51
94.4054870051
  0
ARC
  5
628
100
AcDbEntity
  8
S3_EXTERN_HANDLE_FRONT
100
AcDbCircle
 62
5
  6
CONTINUOUS
 10
53.2726346855
 20
184.8469152024
 40
20.4088237934
100
AcDbArc
 50
97.7547929463
 51
103.4462807658
  0
ARC
  5
629
100
AcDbEntity
  8
S3_EXTERN_HANDLE_FRONT
100
AcDbCircle
 62
5
  6
CONTINUOUS
 10
54.02894757
 20
190.348559029
 40
14.384907976
100
AcDbArc
 50
102.360138651
 51
104.2536758955
  0
ARC
  5
62A
100
AcDbEntity
  8
S3_EXTERN_HANDLE_FRONT
100
AcDbCircle
 62
5
  6
CONTINUOUS
 10
51.4898340542
 20
192.2216878739
 40
12.821658811
100
AcDbArc
 50
103.3611579334
 51
109.8574829781
  0
ARC
  5
62B
100
AcDbEntity
  8
S3_EXTERN_HANDLE_FRONT
100
AcDbCircle
 62
5
  6
CONTINUOUS
 10
53.4892442349
 20
192.4634658166
 40
12.2022252662
100
AcDbArc
 50
104.2425669972
 51
106.4768905446
  0
ARC
  5
62C
100
AcDbEntity
  8
S3_EXTERN_HANDLE_FRONT
100
AcDbCircle
 62
5
  6
CONTINUOUS
 10
52.8063251118
 20
194.7695179615
 40
9.7971776155
100
AcDbArc
 50
106.4721407584
 51
108.6508845138
  0
ARC
  5
62D
100
AcDbEntity
  8
S3_EXTERN_HANDLE_FRONT
100
AcDbCircle
 62
5
  6
CONTINUOUS
 10
46.7573869056
 20
183.9637872005
 40
7.4054271737
100
AcDbArc
 50
98.21074296
 51
101.7892376551
  0
ARC
  5
62E
100
AcDbEntity
  8
S3_EXTERN_HANDLE_FRONT
100
AcDbCircle
 62
5
  6
CONTINUOUS
 10
48.5635575635
 20
186.8059569446
 40
5.3838946642
100
AcDbArc
 50
97.3849093348
 51
111.2900528329
  0
ARC
  5
62F
100
AcDbEntity
  8
S3_EXTERN_HANDLE_FRONT
100
AcDbCircle
 62
5
  6
CONTINUOUS
 10
48.1733711157
 20
187.6703442534
 40
4.3322968756
100
AcDbArc
 50
129.2607995333
 51
134.4019008398
  0
ARC
  5
630
100
AcDbEntity
  8
S3_EXTERN_HANDLE_FRONT
100
AcDbCircle
 62
5
  6
CONTINUOUS
 10
48.0640829551
 20
187.7790938651
 40
4.1781337375
100
AcDbArc
 50
134.3746090941
 51
140.9653870756
  0
ARC
  5
631
100
AcDbEntity
  8
S3_EXTERN_HANDLE_FRONT
100
AcDbCircle
 62
5
  6
CONTINUOUS
 10
48.1649607583
 20
188.1038062268
 40
4.0311283387
100
AcDbArc
 50
112.7092734907
 51
127.700581234
  0
ARC
  5
632
100
AcDbEntity
  8
S3_EXTERN_HANDLE_FRONT
100
AcDbCircle
 62
5
  6
CONTINUOUS
 10
46.8449137204
 20
188.7234453563
 40
2.6366049314
100
AcDbArc
 50
140.220420101
 51
151.237924622
  0
ARC
  5
633
100
AcDbEntity
  8
S3_EXTERN_HANDLE_FRONT
100
AcDbCircle
 62
5
  6
CONTINUOUS
 10
44.2304322176
 20
192.4919968786
 40
1.8962749106
100
AcDbArc
 50
309.3068338609
 51
320.7925625358
  0
ARC
  5
634
100
AcDbEntity
  8
S3_EXTERN_HANDLE_FRONT
100
AcDbCircle
 62
5
  6
CONTINUOUS
 10
47.5786607395
 20
193.4087098094
 40
1.289768313
100
AcDbArc
 50
316.7217580399
 51
342.8551952668
  0
ARC
  5
635
100
AcDbEntity
  8
S3_EXTERN_HANDLE_FRONT
100
AcDbCircle
 62
5
  6
CONTINUOUS
 10
47.5895665019
 20
193.3654149534
 40
1.2523789397
100
AcDbArc
 50
283.0118045759
 51
317.8218157022
  0
ARC
  5
636
100
AcDbEntity
  8
S3_EXTERN_HANDLE_FRONT
100
AcDbCircle
 62
5
  6
CONTINUOUS
 10
47.5104475312
 20
192.6629447147
 40
0.5767991289
100
AcDbArc
 50
286.9665392501
 51
351.2247607903
  0
ARC
  5
637
100
AcDbEntity
  8
S3_EXTERN_HANDLE_FRONT
100
AcDbCircle
 62
5
  6
CONTINUOUS
 10
46.3765384826
 20
192.9138941505
 40
0.4364232543
100
AcDbArc
 50
250.9490060701
 51
270.6203703485
  0
ARC
  5
638
100
AcDbEntity
  8
S3_EXTERN_HANDLE_FRONT
100
AcDbCircle
 62
5
  6
CONTINUOUS
 10
46.3773416137
 20
192.8397219704
 40
0.3622467262
100
AcDbArc
 50
270.6203703485
 51
302.2756349825
  0
ARC
  5
639
100
AcDbEntity
  8
S3_EXTERN_HANDLE_FRONT
100
AcDbCircle
 62
5
  6
CONTINUOUS
 10
45.2035620238
 20
191.5093959005
 40
0.299188999
100
AcDbArc
 50
174.9063443608
 51
277.8389134806
  0
ARC
  5
63A
100
AcDbEntity
  8
S3_EXTERN_HANDLE_FRONT
100
AcDbCircle
 62
5
  6
CONTINUOUS
 10
46.3251576267
 20
192.7651036305
 40
0.279011021
100
AcDbArc
 50
170.6468211637
 51
250.9490060702
  0
ARC
  5
63B
100
AcDbEntity
  8
S3_EXTERN_HANDLE_FRONT
100
AcDbCircle
 62
5
  6
CONTINUOUS
 10
46.689456253
 20
192.3455402799
 40
0.2222454391
100
AcDbArc
 50
72.3285085045
 51
122.2756349825
  0
ARC
  5
63C
100
AcDbEntity
  8
S3_EXTERN_HANDLE_FRONT
100
AcDbCircle
 62
5
  6
CONTINUOUS
 10
47.0639768405
 20
192.579081594
 40
0.2210405783
100
AcDbArc
 50
130.7598145999
 51
171.3615907142
  0
ARC
  5
63D
100
AcDbEntity
  8
S3_EXTERN_HANDLE_FRONT
100
AcDbCircle
 62
5
  6
CONTINUOUS
 10
46.7777161035
 20
192.6225707695
 40
0.0685047859
100
AcDbArc
 50
252.3285085045
 51
351.3615907142
  0
ARC
  5
63E
100
AcDbEntity
  8
S3_EXTERN_HANDLE_FRONT
100
AcDbCircle
 62
5
  6
CONTINUOUS
 10
52.0307535396
 20
197.0583969392
 40
7.3804717159
100
AcDbArc
 50
108.6287075192
 51
111.2375763679
  0
ARC
  5
63F
100
AcDbEntity
  8
S3_EXTERN_HANDLE_FRONT
100
AcDbCircle
 62
5
  6
CONTINUOUS
 10
51.3554312444
 20
197.5243602393
 40
6.7173424525
100
AcDbArc
 50
107.3051900465
 51
113.4347420961
  0
ARC
  5
640
100
AcDbEntity
  8
S3_EXTERN_HANDLE_FRONT
100
AcDbCircle
 62
5
  6
CONTINUOUS
 10
49.353806892
 20
198.2120831582
 40
6.4619319181
100
AcDbArc
 50
110.0863120627
 51
114.5921482071
  0
ARC
  5
641
100
AcDbEntity
  8
S3_EXTERN_HANDLE_FRONT
100
AcDbCircle
 62
5
  6
CONTINUOUS
 10
52.2756688323
 20
199.5025458402
 40
4.5481854783
100
AcDbArc
 50
93.9418208297
 51
98.9810349331
  0
ARC
  5
642
100
AcDbEntity
  8
S3_EXTERN_HANDLE_FRONT
100
AcDbCircle
 62
5
  6
CONTINUOUS
 10
52.126401424
 20
208.5791834503
 40
4.5122241743
100
AcDbArc
 50
273.8868210604
 51
305.5879496963
  0
ARC
  5
643
100
AcDbEntity
  8
S3_EXTERN_HANDLE_FRONT
100
AcDbCircle
 62
5
  6
CONTINUOUS
 10
52.1822412509
 20
208.4734710818
 40
4.3937898619
100
AcDbArc
 50
305.7980179314
 51
338.3953837272
  0
ARC
  5
644
100
AcDbEntity
  8
S3_EXTERN_HANDLE_FRONT
100
AcDbCircle
 62
5
  6
CONTINUOUS
 10
53.0289225937
 20
208.4939652238
 40
3.1860748725
100
AcDbArc
 50
272.9728418794
 51
289.1556690124
  0
ARC
  5
645
100
AcDbEntity
  8
S3_EXTERN_HANDLE_FRONT
100
AcDbCircle
 62
5
  6
CONTINUOUS
 10
53.0664233622
 20
208.3827101181
 40
3.0686747459
100
AcDbArc
 50
289.1758790548
 51
306.3228943807
  0
ARC
  5
646
100
AcDbEntity
  8
S3_EXTERN_HANDLE_FRONT
100
AcDbCircle
 62
5
  6
CONTINUOUS
 10
53.0770646853
 20
208.3657853906
 40
3.0487357498
100
AcDbArc
 50
306.3501725816
 51
330.8446676907
  0
ARC
  5
647
100
AcDbEntity
  8
S3_EXTERN_HANDLE_FRONT
100
AcDbCircle
 62
5
  6
CONTINUOUS
 10
43.0732364815
 20
202.6866587152
 40
3.0445306547
100
AcDbArc
 50
353.1881602122
 51
3.9682905998
  0
ARC
  5
648
100
AcDbEntity
  8
S3_EXTERN_HANDLE_FRONT
100
AcDbCircle
 62
5
  6
CONTINUOUS
 10
46.2779870815
 20
206.295406723
 40
2.5246880088
100
AcDbArc
 50
275.5290710543
 51
277.727340583
  0
ARC
  5
649
100
AcDbEntity
  8
S3_EXTERN_HANDLE_FRONT
100
AcDbCircle
 62
5
  6
CONTINUOUS
 10
48.3520790397
 20
202.3725135484
 40
0.9367474062
100
AcDbArc
 50
71.7975884024
 51
85.807788564
  0
ARC
  5
64A
100
AcDbEntity
  8
S3_EXTERN_HANDLE_FRONT
100
AcDbCircle
 62
5
  6
CONTINUOUS
 10
48.2885015376
 20
202.4342949083
 40
0.8823971779
100
AcDbArc
 50
81.3929973908
 51
100.7346333305
  0
ARC
  5
64B
100
AcDbEntity
  8
S3_EXTERN_HANDLE_FRONT
100
AcDbCircle
 62
5
  6
CONTINUOUS
 10
46.5421726398
 20
204.5405462627
 40
0.7506855383
100
AcDbArc
 50
275.7555128828
 51
289.7286125229
  0
ARC
  5
64C
100
AcDbEntity
  8
S3_EXTERN_HANDLE_FRONT
100
AcDbCircle
 62
5
  6
CONTINUOUS
 10
46.2977985219
 20
204.7108390078
 40
0.7316687021
100
AcDbArc
 50
273.1337268363
 51
285.2468503572
  0
ARC
  5
64D
100
AcDbEntity
  8
S3_EXTERN_HANDLE_FRONT
100
AcDbCircle
 62
5
  6
CONTINUOUS
 10
46.346624314
 20
204.5317092734
 40
0.5460038974
100
AcDbArc
 50
285.2468503572
 51
305.6217129692
  0
ARC
  5
64E
100
AcDbEntity
  8
S3_EXTERN_HANDLE_FRONT
100
AcDbCircle
 62
5
  6
CONTINUOUS
 10
51.6128581316
 20
203.4571771095
 40
0.5398606511
100
AcDbArc
 50
95.0152709384
 51
123.1311132077
  0
ARC
  5
64F
100
AcDbEntity
  8
S3_EXTERN_HANDLE_FRONT
100
AcDbCircle
 62
5
  6
CONTINUOUS
 10
53.6600480134
 20
205.3344657533
 40
0.4664200963
100
AcDbArc
 50
182.738896368
 51
195.707501772
  0
ARC
  5
650
100
AcDbEntity
  8
S3_EXTERN_HANDLE_FRONT
100
AcDbCircle
 62
5
  6
CONTINUOUS
 10
49.2852292159
 20
202.559422495
 40
0.3339317304
100
AcDbArc
 50
346.0803763511
 51
44.4913923665
  0
ARC
  5
651
100
AcDbEntity
  8
S3_EXTERN_HANDLE_FRONT
100
AcDbCircle
 62
5
  6
CONTINUOUS
 10
48.4810547503
 20
203.0104479034
 40
0.3254412235
100
AcDbArc
 50
348.9724122981
 51
21.4028605139
  0
ARC
  5
652
100
AcDbEntity
  8
S3_EXTERN_HANDLE_FRONT
100
AcDbCircle
 62
5
  6
CONTINUOUS
 10
48.2044775076
 20
203.029438947
 40
0.2861334212
100
AcDbArc
 50
134.9106852756
 51
161.1787307126
  0
ARC
  5
653
100
AcDbEntity
  8
S3_EXTERN_HANDLE_FRONT
100
AcDbCircle
 62
5
  6
CONTINUOUS
 10
48.1899134978
 20
203.0439442227
 40
0.2655784321
100
AcDbArc
 50
104.3378787645
 51
134.8948125993
  0
ARC
  5
654
100
AcDbEntity
  8
S3_EXTERN_HANDLE_FRONT
100
AcDbCircle
 62
5
  6
CONTINUOUS
 10
48.5778258223
 20
203.0529110118
 40
0.2198884528
100
AcDbArc
 50
20.3030067712
 51
72.2955585849
  0
ARC
  5
655
100
AcDbEntity
  8
S3_EXTERN_HANDLE_FRONT
100
AcDbCircle
 62
5
  6
CONTINUOUS
 10
46.3337411255
 20
203.8623628674
 40
0.2094938682
100
AcDbArc
 50
184.5313007943
 51
263.3005352994
  0
ARC
  5
656
100
AcDbEntity
  8
S3_EXTERN_HANDLE_FRONT
100
AcDbCircle
 62
5
  6
CONTINUOUS
 10
46.5393807184
 20
203.9827743027
 40
0.2015999907
100
AcDbArc
 50
180.7133471091
 51
221.4676125461
  0
ARC
  5
657
100
AcDbEntity
  8
S3_EXTERN_HANDLE_FRONT
100
AcDbCircle
 62
5
  6
CONTINUOUS
 10
46.5380343837
 20
203.9815156448
 40
0.1997576693
100
AcDbArc
 50
221.45280883
 51
265.1780298642
  0
ARC
  5
658
100
AcDbEntity
  8
S3_EXTERN_HANDLE_FRONT
100
AcDbCircle
 62
5
  6
CONTINUOUS
 10
53.3630750005
 20
205.2396674422
 40
0.1552530153
100
AcDbArc
 50
191.6964668526
 51
234.4549507581
  0
ARC
  5
659
100
AcDbEntity
  8
S3_EXTERN_HANDLE_FRONT
100
AcDbCircle
 62
5
  6
CONTINUOUS
 10
46.5791397616
 20
203.9756996596
 40
0.1410398585
100
AcDbArc
 50
341.8690452357
 51
52.6868922078
  0
ARC
  5
65A
100
AcDbEntity
  8
S3_EXTERN_HANDLE_FRONT
100
AcDbCircle
 62
5
  6
CONTINUOUS
 10
46.7913061171
 20
203.9062261118
 40
0.0822114265
100
AcDbArc
 50
161.8690452357
 51
328.5659403302
  0
ARC
  5
65B
100
AcDbEntity
  8
S3_EXTERN_HANDLE_FRONT
100
AcDbCircle
 62
5
  6
CONTINUOUS
 10
46.138064081
 20
202.9095085784
 40
0.0273814063
100
AcDbArc
 50
92.6160683051
 51
184.4080932338
  0
ARC
  5
65C
100
AcDbEntity
  8
S3_EXTERN_HANDLE_FRONT
100
AcDbCircle
 62
5
  6
CONTINUOUS
 10
56.5630334455
 20
212.1097681433
 40
11.3651744625
100
AcDbArc
 50
343.545718049
 51
345.170513979
  0
ARC
  5
65D
100
AcDbEntity
  8
S3_EXTERN_HANDLE_FRONT
100
AcDbCircle
 62
5
  6
CONTINUOUS
 10
57.250861987
 20
210.1457958979
 40
9.5659750736
100
AcDbArc
 50
338.3919737297
 51
344.6160950482
  0
ARC
  5
65E
100
AcDbEntity
  8
S3_EXTERN_HANDLE_FRONT
100
AcDbCircle
 62
5
  6
CONTINUOUS
 10
81.8092051191
 20
206.6738436294
 40
35.7961903942
100
AcDbArc
 50
179.9155059938
 51
184.5313007943
  0
ARC
  5
65F
100
AcDbEntity
  8
S3_EXTERN_HANDLE_FRONT
100
AcDbCircle
 62
5
  6
CONTINUOUS
 10
73.3395747249
 20
199.3538528326
 40
9.0792144966
100
AcDbArc
 50
162.1707755487
 51
164.6491104796
  0
ARC
  5
660
100
AcDbEntity
  8
S3_EXTERN_HANDLE_FRONT
100
AcDbCircle
 62
5
  6
CONTINUOUS
 10
72.975421854
 20
205.8192824763
 40
6.7429335777
100
AcDbArc
 50
156.5374454445
 51
164.6160950482
  0
ARC
  5
661
100
AcDbEntity
  8
S3_EXTERN_HANDLE_FRONT
100
AcDbCircle
 62
5
  6
CONTINUOUS
 10
70.0899347781
 20
200.2289697522
 40
5.7138671112
100
AcDbArc
 50
164.4848500335
 51
171.0766935376
  0
ARC
  5
662
100
AcDbEntity
  8
S3_EXTERN_HANDLE_FRONT
100
AcDbCircle
 62
5
  6
CONTINUOUS
 10
67.1781285436
 20
200.6948276358
 40
2.7650558928
100
AcDbArc
 50
171.2541251922
 51
176.678485926
  0
ARC
  5
663
100
AcDbEntity
  8
S3_EXTERN_HANDLE_FRONT
100
AcDbCircle
 62
5
  6
CONTINUOUS
 10
68.6102201734
 20
208.4591852066
 40
1.6861600336
100
AcDbArc
 50
145.8158550361
 51
156.3013817819
  0
ARC
  5
664
100
AcDbEntity
  8
S3_EXTERN_HANDLE_FRONT
100
AcDbCircle
 62
5
  6
CONTINUOUS
 10
65.7025808009
 20
200.7816185171
 40
1.2869588258
100
AcDbArc
 50
176.729839337
 51
182.9476630154
  0
ARC
  5
665
100
AcDbEntity
  8
S3_EXTERN_HANDLE_FRONT
100
AcDbCircle
 62
5
  6
CONTINUOUS
 10
67.8195745722
 20
208.9961876239
 40
0.7303922465
100
AcDbArc
 50
136.130660104
 51
145.8158550361
  0
ARC
  5
666
100
AcDbEntity
  8
S3_EXTERN_HANDLE_FRONT
100
AcDbCircle
 62
5
  6
CONTINUOUS
 10
65.0600169963
 20
200.7524883443
 40
0.6437593263
100
AcDbArc
 50
183.2993470597
 51
187.8812395681
  0
ARC
  5
667
100
AcDbEntity
  8
S3_EXTERN_HANDLE_FRONT
100
AcDbCircle
 62
5
  6
CONTINUOUS
 10
64.8044899899
 20
200.7169443769
 40
0.3857721634
100
AcDbArc
 50
187.8559438696
 51
193.538439504
  0
ARC
  5
668
100
AcDbEntity
  8
S3_EXTERN_HANDLE_FRONT
100
AcDbCircle
 62
5
  6
CONTINUOUS
 10
64.5979065495
 20
200.6639904229
 40
0.1725608835
100
AcDbArc
 50
192.5018364195
 51
208.942508006
  0
ARC
  5
669
100
AcDbEntity
  8
S3_EXTERN_HANDLE_FRONT
100
AcDbCircle
 62
5
  6
CONTINUOUS
 10
64.486065874
 20
200.5954816571
 40
0.0419419472
100
AcDbArc
 50
200.9535880127
 51
271.5081860319
  0
ARC
  5
66A
100
AcDbEntity
  8
S3_EXTERN_HANDLE_FRONT
100
AcDbCircle
 62
5
  6
CONTINUOUS
 10
64.8641433442
 20
200.5880828951
 40
0.0248393828
100
AcDbArc
 50
279.5546628425
 51
320.0278139847
  0
ARC
  5
66B
100
AcDbEntity
  8
S3_EXTERN_HANDLE_FRONT
100
AcDbCircle
 62
5
  6
CONTINUOUS
 10
81.252408024
 20
211.1461384715
 40
76.3683696698
100
AcDbArc
 50
111.3887019779
 51
113.5443822368
  0
ARC
  5
66C
100
AcDbEntity
  8
S3_EXTERN_HANDLE_FRONT
100
AcDbCircle
 62
5
  6
CONTINUOUS
 10
76.4543888391
 20
221.3420939327
 40
65.1745534486
100
AcDbArc
 50
101.3619677287
 51
104.7280386634
  0
ARC
  5
66D
100
AcDbEntity
  8
S3_EXTERN_HANDLE_FRONT
100
AcDbCircle
 62
5
  6
CONTINUOUS
 10
64.7484119776
 20
209.9613190717
 40
2.9026115105
100
AcDbArc
 50
344.8131395691
 51
349.5387591792
  0
ARC
  5
66E
100
AcDbEntity
  8
S3_EXTERN_HANDLE_FRONT
100
AcDbCircle
 62
5
  6
CONTINUOUS
 10
74.3315865749
 20
213.3566033278
 40
1.9999992029
100
AcDbArc
 50
295.0000001218
 51
66.2357446177
  0
ARC
  5
66F
100
AcDbEntity
  8
S3_EXTERN_HANDLE_FRONT
100
AcDbCircle
 62
5
  6
CONTINUOUS
 10
74.3315862619
 20
213.3566048057
 40
1.4999994999
100
AcDbArc
 50
295.0000008883
 51
66.2357804438
  0
ARC
  5
670
100
AcDbEntity
  8
S3_EXTERN_HANDLE_FRONT
100
AcDbCircle
 62
5
  6
CONTINUOUS
 10
67.264711338
 20
209.4968264548
 40
0.3438001158
100
AcDbArc
 50
349.519840807
 51
359.9641196911
  0
ARC
  5
671
100
AcDbEntity
  8
S3_EXTERN_HANDLE_FRONT
100
AcDbCircle
 62
5
  6
CONTINUOUS
 10
72.3852705778
 20
218.3639693982
 40
0.2957942679
100
AcDbArc
 50
179.5253968605
 51
240.7749713753
  0
ARC
  5
672
100
AcDbEntity
  8
S3_EXTERN_HANDLE_FRONT
100
AcDbCircle
 62
5
  6
CONTINUOUS
 10
67.3202997446
 20
209.4761362012
 40
0.0378418943
100
AcDbArc
 50
93.3060665027
 51
136.130660104
  0
ARC
  5
673
100
AcDbEntity
  8
S3_EXTERN_HANDLE_FRONT
100
AcDbCircle
 62
5
  6
CONTINUOUS
 10
67.590235283
 20
209.5001914651
 40
0.0186234949
100
AcDbArc
 50
348.9160634678
 51
59.9131050708
  0
ARC
  5
674
100
AcDbEntity
  8
S3_EXTERN_HANDLE_FRONT
100
AcDbCircle
 62
5
  6
CONTINUOUS
 10
83.8762596828
 20
222.5215814027
 40
67.7287440553
100
AcDbArc
 50
111.4734216561
 51
114.290535342
  0
ARC
  5
675
100
AcDbEntity
  8
S3_EXTERN_HANDLE_FRONT
100
AcDbCircle
 62
5
  6
CONTINUOUS
 10
83.813186711
 20
222.6261542542
 40
67.6097208583
100
AcDbArc
 50
100.6747596807
 51
104.1765496286
  0
ARC
  5
676
100
AcDbEntity
  8
S3_EXTERN_HANDLE_FRONT
100
AcDbCircle
 62
5
  6
CONTINUOUS
 10
83.7909403753
 20
222.7287283964
 40
67.5048222732
100
AcDbArc
 50
104.1795650002
 51
108.0218764565
  0
ARC
  5
677
100
AcDbEntity
  8
S3_EXTERN_HANDLE_FRONT
100
AcDbCircle
 62
5
  6
CONTINUOUS
 10
83.7671018568
 20
222.7990355794
 40
67.4305893119
100
AcDbArc
 50
108.021097009
 51
111.4734102951
  0
ARC
  5
678
100
AcDbEntity
  8
S3_EXTERN_HANDLE_FRONT
100
AcDbCircle
 62
5
  6
CONTINUOUS
 10
83.6104588432
 20
223.0942525343
 40
67.0974302785
100
AcDbArc
 50
114.2848195069
 51
117.5669330261
  0
ARC
  5
679
100
AcDbEntity
  8
S3_EXTERN_HANDLE_FRONT
100
AcDbCircle
 62
5
  6
CONTINUOUS
 10
83.1675660537
 20
223.95652195
 40
66.1280900013
100
AcDbArc
 50
117.5725071525
 51
120.0697180229
  0
ARC
  5
67A
100
AcDbEntity
  8
S3_EXTERN_HANDLE_FRONT
100
AcDbCircle
 62
5
  6
CONTINUOUS
 10
81.5364866193
 20
226.6933017092
 40
62.9423909994
100
AcDbArc
 50
120.0330424917
 51
122.4607654073
  0
ARC
  5
67B
100
AcDbEntity
  8
S3_EXTERN_HANDLE_FRONT
100
AcDbCircle
 62
5
  6
CONTINUOUS
 10
75.9663050336
 20
224.5495418254
 40
61.9602924477
100
AcDbArc
 50
108.8821659414
 51
111.3573472814
  0
ARC
  5
67C
100
AcDbEntity
  8
S3_EXTERN_HANDLE_FRONT
100
AcDbCircle
 62
5
  6
CONTINUOUS
 10
74.7095880457
 20
228.1438708521
 40
58.1526914891
100
AcDbArc
 50
104.7691751009
 51
108.8566663779
  0
ARC
  5
67D
100
AcDbEntity
  8
S3_EXTERN_HANDLE_FRONT
100
AcDbCircle
 62
5
  6
CONTINUOUS
 10
98.0219564007
 20
241.7233564685
 40
52.1890065793
100
AcDbArc
 50
175.7092266195
 51
180.4519399887
  0
ARC
  5
67E
100
AcDbEntity
  8
S3_EXTERN_HANDLE_FRONT
100
AcDbCircle
 62
5
  6
CONTINUOUS
 10
66.2040219998
 20
225.3303160717
 40
48.3365777788
100
AcDbArc
 50
106.5935126265
 51
107.7036263556
  0
ARC
  5
67F
100
AcDbEntity
  8
S3_EXTERN_HANDLE_FRONT
100
AcDbCircle
 62
5
  6
CONTINUOUS
 10
42.4668681832
 20
246.9319361633
 40
43.3674755158
100
AcDbArc
 50
281.9362618505
 51
282.6190694032
  0
ARC
  5
680
100
AcDbEntity
  8
S3_EXTERN_HANDLE_FRONT
100
AcDbCircle
 62
5
  6
CONTINUOUS
 10
88.3553481049
 20
245.2063917271
 40
33.3005053734
100
AcDbArc
 50
237.9891843167
 51
240.0074699892
  0
ARC
  5
681
100
AcDbEntity
  8
S3_EXTERN_HANDLE_FRONT
100
AcDbCircle
 62
5
  6
CONTINUOUS
 10
88.3550402556
 20
245.2058841801
 40
33.2999122612
100
AcDbArc
 50
243.196565867
 51
246.2357804438
  0
ARC
  5
682
100
AcDbEntity
  8
S3_EXTERN_HANDLE_FRONT
100
AcDbCircle
 62
5
  6
CONTINUOUS
 10
88.3549356181
 20
245.2056770638
 40
33.2996802134
100
AcDbArc
 50
240.0074699892
 51
243.196565867
  0
ARC
  5
683
100
AcDbEntity
  8
S3_EXTERN_HANDLE_FRONT
100
AcDbCircle
 62
5
  6
CONTINUOUS
 10
88.3550315028
 20
245.2058611117
 40
32.7998876216
100
AcDbArc
 50
237.893088851
 51
246.2357790041
  0
ARC
  5
684
100
AcDbEntity
  8
S3_EXTERN_HANDLE_FRONT
100
AcDbCircle
 62
5
  6
CONTINUOUS
 10
61.4468841102
 20
241.5115990887
 40
31.4706840081
100
AcDbArc
 50
102.2046235618
 51
106.7064305108
  0
ARC
  5
685
100
AcDbEntity
  8
S3_EXTERN_HANDLE_FRONT
100
AcDbCircle
 62
5
  6
CONTINUOUS
 10
87.7484252257
 20
245.2941700979
 40
31.3000132688
100
AcDbArc
 50
240.300609829
 51
269.3429149471
  0
ARC
  5
686
100
AcDbEntity
  8
MOVING_S3_0-1_FRONT
100
AcDbCircle
 62
1
  6
CONTINUOUS
 10
36.6222414702
 20
239.8220445213
 40
8.2836701024
100
AcDbArc
 50
193.4554972973
 51
216.3108094409
  0
ARC
  5
687
100
AcDbEntity
  8
MOVING_S3_0-1_FRONT
100
AcDbCircle
 62
1
  6
CONTINUOUS
 10
32.3917480313
 20
236.9693433062
 40
3.1920776492
100
AcDbArc
 50
220.0180938839
 51
263.5901286277
  0
ARC
  5
688
100
AcDbEntity
  8
S3_EXTERN_HANDLE_FRONT
100
AcDbCircle
 62
5
  6
CONTINUOUS
 10
73.2387695886
 20
242.768377865
 40
1.4495017848
100
AcDbArc
 50
181.1734123164
 51
189.4125337656
  0
ARC
  5
689
100
AcDbEntity
  8
S3_EXTERN_HANDLE_FRONT
100
AcDbCircle
 62
5
  6
CONTINUOUS
 10
70.5567323773
 20
242.3237666721
 40
1.2691380802
100
AcDbArc
 50
0.0000339243
 51
9.4125337656
  0
ARC
  5
68A
100
AcDbEntity
  8
S3_EXTERN_HANDLE_FRONT
100
AcDbCircle
 62
5
  6
CONTINUOUS
 10
174.6200138514
 20
202.0166162236
 40
203.6544134174
100
AcDbArc
 50
2.113747072
 51
4.9131773098
  0
ARC
  5
68B
100
AcDbEntity
  8
S3_EXTERN_HANDLE_FRONT
100
AcDbCircle
 62
5
  6
CONTINUOUS
 10
113.244163284
 20
217.9155485839
 40
48.3052970046
100
AcDbArc
 50
150.8737914179
 51
153.3943546317
  0
ARC
  5
68C
100
AcDbEntity
  8
MOVING_S3_0-1_FRONT
100
AcDbCircle
 62
1
  6
CONTINUOUS
 10
151.9435616771
 20
220.721330237
 40
33.1997171167
100
AcDbArc
 50
25.2750643075
 51
25.4428801136
  0
ARC
  5
68D
100
AcDbEntity
  8
MOVING_S3_0-1_FRONT
100
AcDbCircle
 62
1
  6
CONTINUOUS
 10
173.8687894653
 20
232.4018034361
 40
10.3069984533
100
AcDbArc
 50
14.66513645
 51
25.5676374216
  0
ARC
  5
68E
100
AcDbEntity
  8
MOVING_S3_0-1_FRONT
100
AcDbCircle
 62
1
  6
CONTINUOUS
 10
179.0948705591
 20
234.0695606394
 40
4.8376683011
100
AcDbArc
 50
356.9099507377
 51
11.2243575604
  0
ARC
  5
68F
100
AcDbEntity
  8
MOVING_S3_0-1_FRONT
100
AcDbCircle
 62
1
  6
CONTINUOUS
 10
183.9228847337
 20
236.5979364529
 40
2.7891534563
100
AcDbArc
 50
251.0089476832
 51
270.0538288984
  0
ARC
  5
690
100
AcDbEntity
  8
MOVING_S3_0-1_FRONT
100
AcDbCircle
 62
1
  6
CONTINUOUS
 10
183.9375615283
 20
236.2646603905
 40
2.4818107693
100
AcDbArc
 50
217.4268764958
 51
248.1835937183
  0
ARC
  5
691
100
AcDbEntity
  8
MOVING_S3_0-1_FRONT
100
AcDbCircle
 62
1
  6
CONTINUOUS
 10
181.8447850415
 20
234.8396559968
 40
0.1329621966
100
AcDbArc
 50
348.8844636681
 51
25.2750643075
  0
ARC
  5
692
100
AcDbEntity
  8
S3_EXTERN_HANDLE_FRONT
100
AcDbCircle
 62
5
  6
CONTINUOUS
 10
227.0631191946
 20
175.7941693311
 40
182.8410119599
100
AcDbArc
 50
173.2689479926
 51
174.1749162069
  0
ARC
  5
693
100
AcDbEntity
  8
S3_EXTERN_HANDLE_FRONT
100
AcDbCircle
 62
5
  6
CONTINUOUS
 10
224.9271581791
 20
181.1267858596
 40
141.6129756578
100
AcDbArc
 50
12.0897711038
 51
17.8946372811
  0
ARC
  5
694
100
AcDbEntity
  8
S3_EXTERN_HANDLE_FRONT
100
AcDbCircle
 62
5
  6
CONTINUOUS
 10
229.225511977
 20
192.5997689555
 40
133.8925323425
100
AcDbArc
 50
20.2483866315
 51
20.2688543611
  0
ARC
  5
695
100
AcDbEntity
  8
S3_EXTERN_HANDLE_FRONT
100
AcDbCircle
 62
5
  6
CONTINUOUS
 10
254.7489046115
 20
187.8059314195
 40
110.9188743019
100
AcDbArc
 50
10.0407503862
 51
14.0968598678
  0
ARC
  5
696
100
AcDbEntity
  8
S3_EXTERN_HANDLE_FRONT
100
AcDbCircle
 62
5
  6
CONTINUOUS
 10
378.593655572
 20
162.6372891826
 40
334.9371312435
100
AcDbArc
 50
174.8910185503
 51
175.0503155777
  0
ARC
  5
697
100
AcDbEntity
  8
MOVING_S3_0-1_FRONT
100
AcDbCircle
 62
1
  6
CONTINUOUS
 10
376.3211315879
 20
158.9707295589
 40
224.2676547894
100
AcDbArc
 50
150.1418524722
 51
150.5335884367
  0
ARC
  5
698
100
AcDbEntity
  8
S3_EXTERN_HANDLE_FRONT
100
AcDbCircle
 62
5
  6
CONTINUOUS
 10
373.6322811784
 20
157.7400933539
 40
46.4761055015
100
AcDbArc
 50
84.195039509
 51
85.7412120972
  0
ARC
  5
699
100
AcDbEntity
  8
S3_EXTERN_HANDLE_FRONT
100
AcDbCircle
 62
5
  6
CONTINUOUS
 10
362.8017958667
 20
149.930767127
 40
42.5070241651
100
AcDbArc
 50
80.5213769139
 51
82.3550481216
  0
ARC
  5
69A
100
AcDbEntity
  8
S3_EXTERN_HANDLE_FRONT
100
AcDbCircle
 62
5
  6
CONTINUOUS
 10
371.4012625075
 20
162.5344026237
 40
29.7962848803
100
AcDbArc
 50
96.0767879094
 51
96.72676181
  0
ARC
  5
69B
100
AcDbEntity
  8
S3_EXTERN_HANDLE_FRONT
100
AcDbCircle
 62
5
  6
CONTINUOUS
 10
369.836337893
 20
168.8681383936
 40
23.3887454041
100
AcDbArc
 50
97.3708899351
 51
98.1828788521
  0
ARC
  5
69C
100
AcDbEntity
  8
S3_EXTERN_HANDLE_FRONT
100
AcDbCircle
 62
5
  6
CONTINUOUS
 10
365.4796215589
 20
169.6033178224
 40
22.6531216371
100
AcDbArc
 50
82.448391609
 51
83.8383083457
  0
ARC
  5
69D
100
AcDbEntity
  8
MOVING_S3_0-1_FRONT
100
AcDbCircle
 62
1
  6
CONTINUOUS
 10
308.5106526934
 20
191.879862921
 40
182.8410119599
100
AcDbArc
 50
83.2689479926
 51
84.1749162069
  0
ARC
  5
69E
100
AcDbEntity
  8
S3_EXTERN_HANDLE_FRONT
100
AcDbCircle
 62
5
  6
CONTINUOUS
 10
368.4975120167
 20
179.4222355095
 40
12.75012907
100
AcDbArc
 50
95.3001195585
 51
97.4888106704
  0
ARC
  5
69F
100
AcDbEntity
  8
S3_EXTERN_HANDLE_FRONT
100
AcDbCircle
 62
5
  6
CONTINUOUS
 10
367.3295043453
 20
180.507353808
 40
12.7227260468
100
AcDbArc
 50
76.8219257905
 51
82.1012734623
  0
ARC
  5
6A0
100
AcDbEntity
  8
S3_EXTERN_HANDLE_FRONT
100
AcDbCircle
 62
5
  6
CONTINUOUS
 10
369.7471566541
 20
180.3852298392
 40
11.8903234333
100
AcDbArc
 50
79.9555375522
 51
84.9207624354
  0
ARC
  5
6A1
100
AcDbEntity
  8
S3_EXTERN_HANDLE_FRONT
100
AcDbCircle
 62
5
  6
CONTINUOUS
 10
369.7306811197
 20
180.438392067
 40
11.8388474307
100
AcDbArc
 50
84.8185613992
 51
89.8671459856
  0
ARC
  5
6A2
100
AcDbEntity
  8
S3_EXTERN_HANDLE_FRONT
100
AcDbCircle
 62
5
  6
CONTINUOUS
 10
370.0269146128
 20
193.8494523059
 40
10.5796251299
100
AcDbArc
 50
83.1615134669
 51
86.4988145492
  0
ARC
  5
6A3
100
AcDbEntity
  8
S3_EXTERN_HANDLE_FRONT
100
AcDbCircle
 62
5
  6
CONTINUOUS
 10
369.7366994881
 20
182.3366537898
 40
9.9405769873
100
AcDbArc
 50
89.8764648331
 51
96.6716950588
  0
ARC
  5
6A4
100
AcDbEntity
  8
S3_EXTERN_HANDLE_FRONT
100
AcDbCircle
 62
5
  6
CONTINUOUS
 10
368.2385301463
 20
187.3927165202
 40
5.7779490084
100
AcDbArc
 50
81.6470777933
 51
93.2156475229
  0
ARC
  5
6A5
100
AcDbEntity
  8
S3_EXTERN_HANDLE_FRONT
100
AcDbCircle
 62
5
  6
CONTINUOUS
 10
372.4329205641
 20
193.7959020279
 40
4.9107544804
100
AcDbArc
 50
187.0871531648
 51
190.726404624
  0
ARC
  5
6A6
100
AcDbEntity
  8
S3_EXTERN_HANDLE_FRONT
100
AcDbCircle
 62
5
  6
CONTINUOUS
 10
367.6735595002
 20
187.668012058
 40
4.4638831698
100
AcDbArc
 50
86.9498075202
 51
94.5460769529
  0
ARC
  5
6A7
100
AcDbEntity
  8
S3_EXTERN_HANDLE_FRONT
100
AcDbCircle
 62
5
  6
CONTINUOUS
 10
367.0903182739
 20
194.7635120894
 40
4.3827907556
100
AcDbArc
 50
84.0866878289
 51
96.5853177868
  0
ARC
  5
6A8
100
AcDbEntity
  8
S3_EXTERN_HANDLE_FRONT
100
AcDbCircle
 62
5
  6
CONTINUOUS
 10
371.057051457
 20
193.5290583484
 40
3.5092662748
100
AcDbArc
 50
190.6267253269
 51
195.7113926087
  0
ARC
  5
6A9
100
AcDbEntity
  8
S3_EXTERN_HANDLE_FRONT
100
AcDbCircle
 62
5
  6
CONTINUOUS
 10
368.0202799074
 20
195.0148817393
 40
2.8606200188
100
AcDbArc
 50
274.5456001683
 51
281.3203250332
  0
ARC
  5
6AA
100
AcDbEntity
  8
S3_EXTERN_HANDLE_FRONT
100
AcDbCircle
 62
5
  6
CONTINUOUS
 10
368.6168457388
 20
191.3227474157
 40
2.2213576479
100
AcDbArc
 50
150.3169603995
 51
161.7401615997
  0
ARC
  5
6AB
100
AcDbEntity
  8
S3_EXTERN_HANDLE_FRONT
100
AcDbCircle
 62
5
  6
CONTINUOUS
 10
368.5781253278
 20
191.3495167685
 40
2.174465809
100
AcDbArc
 50
135.9213749961
 51
150.4245243995
  0
ARC
  5
6AC
100
AcDbEntity
  8
S3_EXTERN_HANDLE_FRONT
100
AcDbCircle
 62
5
  6
CONTINUOUS
 10
369.6945072327
 20
193.4947095366
 40
1.8109916606
100
AcDbArc
 50
190.6002295112
 51
204.531956483
  0
ARC
  5
6AD
100
AcDbEntity
  8
S3_EXTERN_HANDLE_FRONT
100
AcDbCircle
 62
5
  6
CONTINUOUS
 10
369.380965687
 20
193.0435679576
 40
1.7643872093
100
AcDbArc
 50
195.2736109934
 51
204.8917247569
  0
ARC
  5
6AE
100
AcDbEntity
  8
S3_EXTERN_HANDLE_FRONT
100
AcDbCircle
 62
5
  6
CONTINUOUS
 10
370.321625546
 20
192.844476481
 40
1.7071978616
100
AcDbArc
 50
340.987161144
 51
348.7040698973
  0
ARC
  5
6AF
100
AcDbEntity
  8
S3_EXTERN_HANDLE_FRONT
100
AcDbCircle
 62
5
  6
CONTINUOUS
 10
367.987905951
 20
191.9276519049
 40
1.3482921603
100
AcDbArc
 50
117.3221012753
 51
136.122846576
  0
ARC
  5
6B0
100
AcDbEntity
  8
S3_EXTERN_HANDLE_FRONT
100
AcDbCircle
 62
5
  6
CONTINUOUS
 10
373.3502580662
 20
192.5540996105
 40
1.2569769402
100
AcDbArc
 50
168.2327850058
 51
170.2928569851
  0
ARC
  5
6B1
100
AcDbEntity
  8
S3_EXTERN_HANDLE_FRONT
100
AcDbCircle
 62
5
  6
CONTINUOUS
 10
369.1522751089
 20
193.2333836212
 40
1.2092698685
100
AcDbArc
 50
203.9349127615
 51
225.4462131898
  0
ARC
  5
6B2
100
AcDbEntity
  8
S3_EXTERN_HANDLE_FRONT
100
AcDbCircle
 62
5
  6
CONTINUOUS
 10
373.2301531535
 20
192.5733410299
 40
1.1353480231
100
AcDbArc
 50
170.2279972461
 51
175.3879189611
  0
ARC
  5
6B3
100
AcDbEntity
  8
S3_EXTERN_HANDLE_FRONT
100
AcDbCircle
 62
5
  6
CONTINUOUS
 10
367.9620838122
 20
194.0683195163
 40
0.9234841501
100
AcDbArc
 50
254.8737584214
 51
261.7782438482
  0
ARC
  5
6B4
100
AcDbEntity
  8
S3_EXTERN_HANDLE_FRONT
100
AcDbCircle
 62
5
  6
CONTINUOUS
 10
367.69509735
 20
192.4757180264
 40
0.7270219553
100
AcDbArc
 50
100.7342939935
 51
116.6455256859
  0
ARC
  5
6B5
100
AcDbEntity
  8
S3_EXTERN_HANDLE_FRONT
100
AcDbCircle
 62
5
  6
CONTINUOUS
 10
368.7570823294
 20
192.830726039
 40
0.6450810753
100
AcDbArc
 50
225.3676399507
 51
254.2334992561
  0
ARC
  5
6B6
100
AcDbEntity
  8
S3_EXTERN_HANDLE_FRONT
100
AcDbCircle
 62
5
  6
CONTINUOUS
 10
372.7284674602
 20
192.6073571246
 40
0.632584334
100
AcDbArc
 50
174.8051417945
 51
185.3428085605
  0
ARC
  5
6B7
100
AcDbEntity
  8
S3_EXTERN_HANDLE_FRONT
100
AcDbCircle
 62
5
  6
CONTINUOUS
 10
371.3479168383
 20
192.4759999069
 40
0.6170124888
100
AcDbArc
 50
324.8435400322
 51
342.2900397014
  0
ARC
  5
6B8
100
AcDbEntity
  8
S3_EXTERN_HANDLE_FRONT
100
AcDbCircle
 62
5
  6
CONTINUOUS
 10
368.1916473493
 20
192.4708456575
 40
0.4448921381
100
AcDbArc
 50
202.4531570564
 51
230.9035634044
  0
ARC
  5
6B9
100
AcDbEntity
  8
S3_EXTERN_HANDLE_FRONT
100
AcDbCircle
 62
5
  6
CONTINUOUS
 10
367.6087387877
 20
192.7959347869
 40
0.3971245271
100
AcDbArc
 50
73.563872596
 51
97.0952790425
  0
ARC
  5
6BA
100
AcDbEntity
  8
S3_EXTERN_HANDLE_FRONT
100
AcDbCircle
 62
5
  6
CONTINUOUS
 10
367.856220353
 20
193.3477651215
 40
0.1952043243
100
AcDbArc
 50
262.2868238324
 51
284.9456691146
  0
ARC
  5
6BB
100
AcDbEntity
  8
S3_EXTERN_HANDLE_FRONT
100
AcDbCircle
 62
5
  6
CONTINUOUS
 10
372.2662772854
 20
192.5616481496
 40
0.168164215
100
AcDbArc
 50
184.4999308997
 51
203.8418742837
  0
ARC
  5
6BC
100
AcDbEntity
  8
S3_EXTERN_HANDLE_FRONT
100
AcDbCircle
 62
5
  6
CONTINUOUS
 10
371.767708442
 20
192.186016457
 40
0.1069229393
100
AcDbArc
 50
299.8800445728
 51
322.3589145117
  0
ARC
  5
6BD
100
AcDbEntity
  8
S3_EXTERN_HANDLE_FRONT
100
AcDbCircle
 62
5
  6
CONTINUOUS
 10
372.1411499003
 20
192.5057245927
 40
0.0311148383
100
AcDbArc
 50
202.7865541163
 51
249.1756591176
  0
ARC
  5
6BE
100
AcDbEntity
  8
S3_EXTERN_HANDLE_FRONT
100
AcDbCircle
 62
5
  6
CONTINUOUS
 10
372.134734478
 20
192.4975208405
 40
0.0213891887
100
AcDbArc
 50
257.4545546797
 51
298.6413943
  0
ARC
  5
6BF
100
AcDbEntity
  8
S3_EXTERN_HANDLE_FRONT
100
AcDbCircle
 62
5
  6
CONTINUOUS
 10
367.9072948086
 20
193.1708183782
 40
0.0116768617
100
AcDbArc
 50
266.4123840446
 51
307.6090271517
  0
ARC
  5
6C0
100
AcDbEntity
  8
MOVING_S3_0-1_FRONT
100
AcDbCircle
 62
1
  6
CONTINUOUS
 10
274.4852058493
 20
198.3976917611
 40
167.6135036774
100
AcDbArc
 50
66.3013817819
 51
66.5374454445
  0
ARC
  5
6C1
100
AcDbEntity
  8
S3_EXTERN_HANDLE_FRONT
100
AcDbCircle
 62
5
  6
CONTINUOUS
 10
231.8849310883
 20
204.9600336359
 40
146.4757613789
100
AcDbArc
 50
11.2479362495
 51
17.0114986754
  0
ARC
  5
6C2
100
AcDbEntity
  8
S3_EXTERN_HANDLE_FRONT
100
AcDbCircle
 62
5
  6
CONTINUOUS
 10
244.379132484
 20
207.9100711443
 40
133.6469042371
100
AcDbArc
 50
4.9572461611
 51
11.052307854
  0
ARC
  5
6C3
100
AcDbEntity
  8
S3_EXTERN_HANDLE_FRONT
100
AcDbCircle
 62
5
  6
CONTINUOUS
 10
249.6670106643
 20
198.6590337743
 40
112.6258167382
100
AcDbArc
 50
18.129891477
 51
20.9554344717
  0
ARC
  5
6C4
100
AcDbEntity
  8
MOVING_S3_0-1_FRONT
100
AcDbCircle
 62
1
  6
CONTINUOUS
 10
236.4795447034
 20
220.9537997062
 40
102.1588503247
100
AcDbArc
 50
6.2630823672
 51
8.1417178144
  0
ARC
  5
6C5
100
AcDbEntity
  8
MOVING_S3_0-1_FRONT
100
AcDbCircle
 62
1
  6
CONTINUOUS
 10
238.8127447825
 20
222.6443961463
 40
86.6867369258
100
AcDbArc
 50
8.8040449618
 51
10.4049407389
  0
ARC
  5
6C6
100
AcDbEntity
  8
MOVING_S3_0-1_FRONT
100
AcDbCircle
 62
1
  6
CONTINUOUS
 10
247.4244039801
 20
238.6275918595
 40
71.0679328237
100
AcDbArc
 50
154.3186217698
 51
159.5198857294
  0
ARC
  5
6C7
100
AcDbEntity
  8
MOVING_S3_0-1_FRONT
100
AcDbCircle
 62
1
  6
CONTINUOUS
 10
266.5512010618
 20
226.9868417868
 40
58.8347233906
100
AcDbArc
 50
8.1911434889
 51
9.9475671239
  0
ARC
  5
6C8
100
AcDbEntity
  8
MOVING_S3_0-1_FRONT
100
AcDbCircle
 62
1
  6
CONTINUOUS
 10
274.6948214462
 20
228.9493233579
 40
51.5037360701
100
AcDbArc
 50
10.6700376656
 51
11.1512255882
  0
ARC
  5
6C9
100
AcDbEntity
  8
MOVING_S3_0-1_FRONT
100
AcDbCircle
 62
1
  6
CONTINUOUS
 10
298.1207250771
 20
239.5116356365
 40
34.1817283734
100
AcDbArc
 50
349.1223532909
 51
350.5020086606
  0
ARC
  5
6CA
100
AcDbEntity
  8
MOVING_S3_0-1_FRONT
100
AcDbCircle
 62
1
  6
CONTINUOUS
 10
295.2596960876
 20
238.2857960788
 40
29.7962848803
100
AcDbArc
 50
353.3082353642
 51
353.9582092648
  0
ARC
  5
6CB
100
AcDbEntity
  8
MOVING_S3_0-1_FRONT
100
AcDbCircle
 62
1
  6
CONTINUOUS
 10
301.5943865568
 20
236.7247405027
 40
23.3887454041
100
AcDbArc
 50
351.8521183222
 51
352.6641072391
  0
ARC
  5
6CC
100
AcDbEntity
  8
MOVING_S3_0-1_FRONT
100
AcDbCircle
 62
1
  6
CONTINUOUS
 10
304.2358837133
 20
232.5658077856
 40
20.5169765119
100
AcDbArc
 50
2.375410928
 51
9.3873309779
  0
ARC
  5
6CD
100
AcDbEntity
  8
MOVING_S3_0-1_FRONT
100
AcDbCircle
 62
1
  6
CONTINUOUS
 10
311.0040013638
 20
214.472455635
 40
160.1121342512
100
AcDbArc
 50
84.2420163098
 51
84.9204739409
  0
ARC
  5
6CE
100
AcDbEntity
  8
S3_EXTERN_HANDLE_FRONT
100
AcDbCircle
 62
5
  6
CONTINUOUS
 10
373.1569028333
 20
200.3117545451
 40
7.8876136668
100
AcDbArc
 50
258.4861232972
 51
261.5346158195
  0
ARC
  5
6CF
100
AcDbEntity
  8
S3_EXTERN_HANDLE_FRONT
100
AcDbCircle
 62
5
  6
CONTINUOUS
 10
370.5384810077
 20
202.1998833142
 40
2.2135390597
100
AcDbArc
 50
86.515833658
 51
97.2190009745
  0
ARC
  5
6D0
100
AcDbEntity
  8
S3_EXTERN_HANDLE_FRONT
100
AcDbCircle
 62
5
  6
CONTINUOUS
 10
366.5049749369
 20
198.6523047401
 40
0.4723792046
100
AcDbArc
 50
79.9155305644
 51
138.4396728573
  0
ARC
  5
6D1
100
AcDbEntity
  8
S3_EXTERN_HANDLE_FRONT
100
AcDbCircle
 62
5
  6
CONTINUOUS
 10
367.7346458339
 20
206.1492590155
 40
3.2810617258
100
AcDbArc
 50
197.1101558472
 51
209.7074835221
  0
ARC
  5
6D2
100
AcDbEntity
  8
S3_EXTERN_HANDLE_FRONT
100
AcDbCircle
 62
5
  6
CONTINUOUS
 10
368.9968314131
 20
206.3374058983
 40
2.7088045811
100
AcDbArc
 50
254.3342690483
 51
263.7082106888
  0
ARC
  5
6D3
100
AcDbEntity
  8
S3_EXTERN_HANDLE_FRONT
100
AcDbCircle
 62
5
  6
CONTINUOUS
 10
366.0234474413
 20
206.3960350671
 40
2.3743662677
100
AcDbArc
 50
257.5692059766
 51
265.7873859795
  0
ARC
  5
6D4
100
AcDbEntity
  8
S3_EXTERN_HANDLE_FRONT
100
AcDbCircle
 62
5
  6
CONTINUOUS
 10
369.4529840382
 20
205.4299466918
 40
2.2524211023
100
AcDbArc
 50
195.2575798034
 51
209.7943090215
  0
ARC
  5
6D5
100
AcDbEntity
  8
S3_EXTERN_HANDLE_FRONT
100
AcDbCircle
 62
5
  6
CONTINUOUS
 10
366.0761479914
 20
206.526946806
 40
1.7920606582
100
AcDbArc
 50
193.3387122839
 51
214.3843522475
  0
ARC
  5
6D6
100
AcDbEntity
  8
S3_EXTERN_HANDLE_FRONT
100
AcDbCircle
 62
5
  6
CONTINUOUS
 10
369.0910572116
 20
205.3859848812
 40
1.781063687
100
AcDbArc
 50
258.6904814104
 51
275.6299093563
  0
ARC
  5
6D7
100
AcDbEntity
  8
S3_EXTERN_HANDLE_FRONT
100
AcDbCircle
 62
5
  6
CONTINUOUS
 10
369.1709477444
 20
205.5060853169
 40
1.417663213
100
AcDbArc
 50
233.3435281668
 51
258.2501168628
  0
ARC
  5
6D8
100
AcDbEntity
  8
S3_EXTERN_HANDLE_FRONT
100
AcDbCircle
 62
5
  6
CONTINUOUS
 10
368.6348112495
 20
205.0856560806
 40
1.4058383636
100
AcDbArc
 50
236.4947281151
 51
254.7650232481
  0
ARC
  5
6D9
100
AcDbEntity
  8
S3_EXTERN_HANDLE_FRONT
100
AcDbCircle
 62
5
  6
CONTINUOUS
 10
370.0863199787
 20
203.9785647538
 40
1.3271110166
100
AcDbArc
 50
351.3567955663
 51
3.4724647569
  0
ARC
  5
6DA
100
AcDbEntity
  8
S3_EXTERN_HANDLE_FRONT
100
AcDbCircle
 62
5
  6
CONTINUOUS
 10
369.1382412766
 20
205.3915309011
 40
1.3069179725
100
AcDbArc
 50
209.851828742
 51
231.495216742
  0
ARC
  5
6DB
100
AcDbEntity
  8
S3_EXTERN_HANDLE_FRONT
100
AcDbCircle
 62
5
  6
CONTINUOUS
 10
368.5409302297
 20
204.8944786647
 40
1.1949151136
100
AcDbArc
 50
209.2429414528
 51
235.1879254829
  0
ARC
  5
6DC
100
AcDbEntity
  8
S3_EXTERN_HANDLE_FRONT
100
AcDbCircle
 62
5
  6
CONTINUOUS
 10
365.71230694
 20
206.2747594132
 40
1.1588013491
100
AcDbArc
 50
200.6055430643
 51
226.2969865033
  0
ARC
  5
6DD
100
AcDbEntity
  8
S3_EXTERN_HANDLE_FRONT
100
AcDbCircle
 62
5
  6
CONTINUOUS
 10
370.3540642496
 20
203.5464323374
 40
0.85460033
100
AcDbArc
 50
96.2974734653
 51
122.738518948
  0
ARC
  5
6DE
100
AcDbEntity
  8
S3_EXTERN_HANDLE_FRONT
100
AcDbCircle
 62
5
  6
CONTINUOUS
 10
365.632484078
 20
204.9108909139
 40
0.8421729808
100
AcDbArc
 50
207.4051176686
 51
261.7982817961
  0
ARC
  5
6DF
100
AcDbEntity
  8
S3_EXTERN_HANDLE_FRONT
100
AcDbCircle
 62
5
  6
CONTINUOUS
 10
365.2819061031
 20
205.8814642146
 40
0.7766403668
100
AcDbArc
 50
208.1637332989
 51
258.6086663637
  0
ARC
  5
6E0
100
AcDbEntity
  8
S3_EXTERN_HANDLE_FRONT
100
AcDbCircle
 62
5
  6
CONTINUOUS
 10
369.1493603117
 20
204.3631799475
 40
0.758653921
100
AcDbArc
 50
278.8275313889
 51
297.8693211528
  0
ARC
  5
6E1
100
AcDbEntity
  8
S3_EXTERN_HANDLE_FRONT
100
AcDbCircle
 62
5
  6
CONTINUOUS
 10
368.4101811225
 20
204.1791936029
 40
0.6819595248
100
AcDbArc
 50
330.9800919414
 51
351.559057553
  0
ARC
  5
6E2
100
AcDbEntity
  8
S3_EXTERN_HANDLE_FRONT
100
AcDbCircle
 62
5
  6
CONTINUOUS
 10
370.7441646499
 20
204.0288359261
 40
0.6675092639
100
AcDbArc
 50
2.5854101333
 51
21.1115201437
  0
ARC
  5
6E3
100
AcDbEntity
  8
S3_EXTERN_HANDLE_FRONT
100
AcDbCircle
 62
5
  6
CONTINUOUS
 10
367.436168102
 20
204.8974063633
 40
0.5899410773
100
AcDbArc
 50
276.0455006162
 51
306.6281684045
  0
ARC
  5
6E4
100
AcDbEntity
  8
S3_EXTERN_HANDLE_FRONT
100
AcDbCircle
 62
5
  6
CONTINUOUS
 10
371.6930243962
 20
203.0037248163
 40
0.5536047616
100
AcDbArc
 50
161.0255630636
 51
175.5775621152
  0
ARC
  5
6E5
100
AcDbEntity
  8
S3_EXTERN_HANDLE_FRONT
100
AcDbCircle
 62
5
  6
CONTINUOUS
 10
367.4697652067
 20
204.8739739771
 40
0.5512442246
100
AcDbArc
 50
305.2786790202
 51
346.0412540361
  0
ARC
  5
6E6
100
AcDbEntity
  8
S3_EXTERN_HANDLE_FRONT
100
AcDbCircle
 62
5
  6
CONTINUOUS
 10
365.2499500624
 20
205.8184180646
 40
0.509798877
100
AcDbArc
 50
228.4279760042
 51
263.2314187613
  0
ARC
  5
6E7
100
AcDbEntity
  8
S3_EXTERN_HANDLE_FRONT
100
AcDbCircle
 62
5
  6
CONTINUOUS
 10
368.6035249034
 20
204.067162844
 40
0.4585611678
100
AcDbArc
 50
306.2408442135
 51
331.5013469538
  0
ARC
  5
6E8
100
AcDbEntity
  8
S3_EXTERN_HANDLE_FRONT
100
AcDbCircle
 62
5
  6
CONTINUOUS
 10
370.1227398638
 20
203.9087353206
 40
0.4247506885
100
AcDbArc
 50
122.9216627254
 51
177.5130797126
  0
ARC
  5
6E9
100
AcDbEntity
  8
S3_EXTERN_HANDLE_FRONT
100
AcDbCircle
 62
5
  6
CONTINUOUS
 10
369.3526934224
 20
204.0157085292
 40
0.3568548735
100
AcDbArc
 50
295.087056537
 51
345.6337278188
  0
ARC
  5
6EA
100
AcDbEntity
  8
S3_EXTERN_HANDLE_FRONT
100
AcDbCircle
 62
5
  6
CONTINUOUS
 10
371.5017814337
 20
203.0794384942
 40
0.348262568
100
AcDbArc
 50
146.6325077679
 51
162.5751489209
  0
ARC
  5
6EB
100
AcDbEntity
  8
S3_EXTERN_HANDLE_FRONT
100
AcDbCircle
 62
5
  6
CONTINUOUS
 10
368.715470507
 20
203.9105094003
 40
0.2660440877
100
AcDbArc
 50
266.6595540246
 51
306.7409208662
  0
ARC
  5
6EC
100
AcDbEntity
  8
S3_EXTERN_HANDLE_FRONT
100
AcDbCircle
 62
5
  6
CONTINUOUS
 10
371.2386926518
 20
204.2279710213
 40
0.1346654258
100
AcDbArc
 50
17.8557453554
 51
69.1421115437
  0
ARC
  5
6ED
100
AcDbEntity
  8
S3_EXTERN_HANDLE_FRONT
100
AcDbCircle
 62
5
  6
CONTINUOUS
 10
371.2958675448
 20
203.2165432374
 40
0.1008906949
100
AcDbArc
 50
118.1485395963
 51
147.3425862791
  0
ARC
  5
6EE
100
AcDbEntity
  8
S3_EXTERN_HANDLE_FRONT
100
AcDbCircle
 62
5
  6
CONTINUOUS
 10
371.2647392176
 20
203.2716325473
 40
0.0376600917
100
AcDbArc
 50
66.6520343147
 51
115.9300638016
  0
ARC
  5
6EF
100
AcDbEntity
  8
S3_EXTERN_HANDLE_FRONT
100
AcDbCircle
 62
5
  6
CONTINUOUS
 10
381.8400765767
 20
203.5015978835
 40
1.0529208109
100
AcDbArc
 50
173.3072557632
 51
178.5101068336
  0
ARC
  5
6F0
100
AcDbEntity
  8
S3_EXTERN_HANDLE_FRONT
100
AcDbCircle
 62
5
  6
CONTINUOUS
 10
381.8181338759
 20
203.5041727414
 40
1.0308275537
100
AcDbArc
 50
171.2586668312
 51
173.3072557632
  0
ARC
  5
6F1
100
AcDbEntity
  8
S3_EXTERN_HANDLE_FRONT
100
AcDbCircle
 62
5
  6
CONTINUOUS
 10
382.0392659632
 20
202.9098593691
 40
0.5666764849
100
AcDbArc
 50
279.1471963851
 51
357.432234845
  0
ARC
  5
6F2
100
AcDbEntity
  8
S3_EXTERN_HANDLE_FRONT
100
AcDbCircle
 62
5
  6
CONTINUOUS
 10
375.1862608554
 20
203.8562962568
 40
0.4796949836
100
AcDbArc
 50
2.6138208965
 51
11.0548190074
  0
ARC
  5
6F3
100
AcDbEntity
  8
S3_EXTERN_HANDLE_FRONT
100
AcDbCircle
 62
5
  6
CONTINUOUS
 10
378.7299539345
 20
203.963793741
 40
0.3972787998
100
AcDbArc
 50
177.0842458236
 51
195.2055594609
  0
ARC
  5
6F4
100
AcDbEntity
  8
S3_EXTERN_HANDLE_FRONT
100
AcDbCircle
 62
5
  6
CONTINUOUS
 10
382.0048355505
 20
202.9088298311
 40
0.308079338
100
AcDbArc
 50
269.5419139483
 51
357.7658125174
  0
ARC
  5
6F5
100
AcDbEntity
  8
S3_EXTERN_HANDLE_FRONT
100
AcDbCircle
 62
5
  6
CONTINUOUS
 10
381.3795406523
 20
203.9035304111
 40
0.2457273813
100
AcDbArc
 50
268.4233278685
 51
360.0
  0
ARC
  5
6F6
100
AcDbEntity
  8
S3_EXTERN_HANDLE_FRONT
100
AcDbCircle
 62
5
  6
CONTINUOUS
 10
378.5120788515
 20
203.9058518029
 40
0.1718385327
100
AcDbArc
 50
195.6161589535
 51
212.2823058256
  0
ARC
  5
6F7
100
AcDbEntity
  8
S3_EXTERN_HANDLE_FRONT
100
AcDbCircle
 62
5
  6
CONTINUOUS
 10
380.8702278696
 20
203.6499226518
 40
0.0717817607
100
AcDbArc
 50
156.2453916487
 51
171.2586668312
  0
ARC
  5
6F8
100
AcDbEntity
  8
S3_EXTERN_HANDLE_FRONT
100
AcDbCircle
 62
5
  6
CONTINUOUS
 10
375.5985269773
 20
203.9368420977
 40
0.0596342883
100
AcDbArc
 50
11.0548190074
 51
21.9919151181
  0
ARC
  5
6F9
100
AcDbEntity
  8
S3_EXTERN_HANDLE_FRONT
100
AcDbCircle
 62
5
  6
CONTINUOUS
 10
378.4157770475
 20
203.8417164096
 40
0.0562373928
100
AcDbArc
 50
209.4408478845
 51
255.706814605
  0
ARC
  5
6FA
100
AcDbEntity
  8
S3_EXTERN_HANDLE_FRONT
100
AcDbCircle
 62
5
  6
CONTINUOUS
 10
377.057033258
 20
204.0280950645
 40
0.049949245
100
AcDbArc
 50
296.3572924383
 51
59.4359496328
  0
ARC
  5
6FB
100
AcDbEntity
  8
S3_EXTERN_HANDLE_FRONT
100
AcDbCircle
 62
5
  6
CONTINUOUS
 10
377.0994625891
 20
203.94246152
 40
0.0456193277
100
AcDbArc
 50
116.3572924382
 51
249.1901402944
  0
ARC
  5
6FC
100
AcDbEntity
  8
S3_EXTERN_HANDLE_FRONT
100
AcDbCircle
 62
5
  6
CONTINUOUS
 10
377.0741905513
 20
203.8759668831
 40
0.0255158439
100
AcDbArc
 50
330.3529132005
 51
69.1901402943
  0
ARC
  5
6FD
100
AcDbEntity
  8
S3_EXTERN_HANDLE_FRONT
100
AcDbCircle
 62
5
  6
CONTINUOUS
 10
377.0872025822
 20
204.0791817351
 40
0.0093806466
100
AcDbArc
 50
112.1620188703
 51
239.4359496328
  0
ARC
  5
6FE
100
AcDbEntity
  8
S3_EXTERN_HANDLE_FRONT
100
AcDbCircle
 62
5
  6
CONTINUOUS
 10
375.6488028995
 20
203.9571466368
 40
0.0054130502
100
AcDbArc
 50
21.9919151188
 51
92.951162221
  0
ARC
  5
6FF
100
AcDbEntity
  8
S3_EXTERN_HANDLE_FRONT
100
AcDbCircle
 62
5
  6
CONTINUOUS
 10
382.2275659472
 20
219.9485432352
 40
171.9006738113
100
AcDbArc
 50
86.1798999587
 51
88.2006099228
  0
ARC
  5
700
100
AcDbEntity
  8
S3_EXTERN_HANDLE_FRONT
100
AcDbCircle
 62
5
  6
CONTINUOUS
 10
380.5301834727
 20
212.4910202641
 40
27.1462834301
100
AcDbArc
 50
346.4108565141
 51
350.3274025792
  0
ARC
  5
701
100
AcDbEntity
  8
S3_EXTERN_HANDLE_FRONT
100
AcDbCircle
 62
5
  6
CONTINUOUS
 10
371.1927263641
 20
216.3685871301
 40
12.466436004
100
AcDbArc
 50
259.3193156811
 51
263.1509506721
  0
ARC
  5
702
100
AcDbEntity
  8
MOVING_S3_0-1_FRONT
100
AcDbCircle
 62
1
  6
CONTINUOUS
 10
313.2351310137
 20
234.2250168403
 40
12.7227260468
100
AcDbArc
 50
7.9337237119
 51
13.2130713837
  0
ARC
  5
703
100
AcDbEntity
  8
MOVING_S3_0-1_FRONT
100
AcDbCircle
 62
1
  6
CONTINUOUS
 10
315.4975175296
 20
233.962850423
 40
9.3940830249
100
AcDbArc
 50
5.1963101084
 51
8.6109571218
  0
ARC
  5
704
100
AcDbEntity
  8
MOVING_S3_0-1_FRONT
100
AcDbCircle
 62
1
  6
CONTINUOUS
 10
320.3955777735
 20
234.5734457748
 40
4.4638831698
100
AcDbArc
 50
355.4889202213
 51
3.085189654
  0
ARC
  5
705
100
AcDbEntity
  8
MOVING_S3_0-1_FRONT
100
AcDbCircle
 62
1
  6
CONTINUOUS
 10
325.5235391393
 20
234.511757291
 40
0.3971245271
100
AcDbArc
 50
352.9397181317
 51
16.4711245782
  0
ARC
  5
706
100
AcDbEntity
  8
MOVING_S3_0-1_FRONT
100
AcDbCircle
 62
1
  6
CONTINUOUS
 10
312.14929948
 20
235.3923614863
 40
12.75012907
100
AcDbArc
 50
352.5461865038
 51
354.7348776157
  0
ARC
  5
707
100
AcDbEntity
  8
MOVING_S3_0-1_FRONT
100
AcDbCircle
 62
1
  6
CONTINUOUS
 10
313.1647026086
 20
236.6261510438
 40
11.8388474307
100
AcDbArc
 50
0.1678511886
 51
5.2164357751
  0
ARC
  5
708
100
AcDbEntity
  8
MOVING_S3_0-1_FRONT
100
AcDbCircle
 62
1
  6
CONTINUOUS
 10
315.0629603012
 20
236.6333288995
 40
9.9405769873
100
AcDbArc
 50
353.3633021154
 51
0.1585323411
  0
ARC
  5
709
100
AcDbEntity
  8
MOVING_S3_0-1_FRONT
100
AcDbCircle
 62
1
  6
CONTINUOUS
 10
315.8929387803
 20
236.9523938315
 40
9.0925739402
100
AcDbArc
 50
4.7321994647
 51
11.3029769435
  0
ARC
  5
70A
100
AcDbEntity
  8
MOVING_S3_0-1_FRONT
100
AcDbCircle
 62
1
  6
CONTINUOUS
 10
320.119937194
 20
235.1382481605
 40
5.7779490084
100
AcDbArc
 50
356.8193496513
 51
8.3879193809
  0
ARC
  5
70B
100
AcDbEntity
  8
MOVING_S3_0-1_FRONT
100
AcDbCircle
 62
1
  6
CONTINUOUS
 10
324.0497362752
 20
235.5189642078
 40
2.2213576479
100
AcDbArc
 50
288.2948355745
 51
299.7180367747
  0
ARC
  5
70C
100
AcDbEntity
  8
MOVING_S3_0-1_FRONT
100
AcDbCircle
 62
1
  6
CONTINUOUS
 10
324.076529274
 20
235.4802601552
 40
2.174465809
100
AcDbArc
 50
299.6104727747
 51
314.1136221781
  0
ARC
  5
70D
100
AcDbEntity
  8
MOVING_S3_0-1_FRONT
100
AcDbCircle
 62
1
  6
CONTINUOUS
 10
325.770066131
 20
236.284130716
 40
1.7643872093
100
AcDbArc
 50
245.1431900363
 51
254.7613037998
  0
ARC
  5
70E
100
AcDbEntity
  8
MOVING_S3_0-1_FRONT
100
AcDbCircle
 62
1
  6
CONTINUOUS
 10
324.655024818
 20
234.8903940226
 40
1.3482921603
100
AcDbArc
 50
313.9121505983
 51
332.7128958989
  0
ARC
  5
70F
100
AcDbEntity
  8
MOVING_S3_0-1_FRONT
100
AcDbCircle
 62
1
  6
CONTINUOUS
 10
325.2032696893
 20
234.5979202436
 40
0.7270219553
100
AcDbArc
 50
333.3894714883
 51
349.3007031807
  0
ARC
  5
710
100
AcDbEntity
  8
MOVING_S3_0-1_FRONT
100
AcDbCircle
 62
1
  6
CONTINUOUS
 10
325.5576289585
 20
235.6601218695
 40
0.6450810753
100
AcDbArc
 50
195.8014979181
 51
224.6673572235
  0
ARC
  5
711
100
AcDbEntity
  8
MOVING_S3_0-1_FRONT
100
AcDbCircle
 62
1
  6
CONTINUOUS
 10
325.1980686817
 20
235.0944635948
 40
0.4448921381
100
AcDbArc
 50
219.1313513888
 51
247.5817577368
  0
ARC
  5
712
100
AcDbEntity
  8
MOVING_S3_0-1_FRONT
100
AcDbCircle
 62
1
  6
CONTINUOUS
 10
327.4799954517
 20
234.3738349116
 40
4.3827907556
100
AcDbArc
 50
353.4146822132
 51
0.9698452606
  0
ARC
  5
713
100
AcDbEntity
  8
MOVING_S3_0-1_FRONT
100
AcDbCircle
 62
1
  6
CONTINUOUS
 10
339.1246125253
 20
232.9347794732
 40
2.3743662677
100
AcDbArc
 50
184.2476324002
 51
192.4658124031
  0
ARC
  5
714
100
AcDbEntity
  8
MOVING_S3_0-1_FRONT
100
AcDbCircle
 62
1
  6
CONTINUOUS
 10
339.5169877094
 20
233.5638416597
 40
2.2353158338
100
AcDbArc
 50
238.8295474174
 51
240.3529132004
  0
ARC
  5
715
100
AcDbEntity
  8
MOVING_S3_0-1_FRONT
100
AcDbCircle
 62
1
  6
CONTINUOUS
 10
339.2427690964
 20
233.3612331486
 40
1.7920606582
100
AcDbArc
 50
235.6137101641
 51
256.6593501278
  0
ARC
  5
716
100
AcDbEntity
  8
MOVING_S3_0-1_FRONT
100
AcDbCircle
 62
1
  6
CONTINUOUS
 10
338.850928048
 20
232.4627653613
 40
0.9484574549
100
AcDbArc
 50
223.377836195
 51
238.8295474174
  0
ARC
  5
717
100
AcDbEntity
  8
MOVING_S3_0-1_FRONT
100
AcDbCircle
 62
1
  6
CONTINUOUS
 10
337.6397076008
 20
232.5429084836
 40
0.8421729808
100
AcDbArc
 50
188.2367365836
 51
242.6299007112
  0
ARC
  5
718
100
AcDbEntity
  8
MOVING_S3_0-1_FRONT
100
AcDbCircle
 62
1
  6
CONTINUOUS
 10
338.5972596464
 20
232.5670130892
 40
0.7766403668
100
AcDbArc
 50
191.389396048
 51
241.8343291128
  0
ARC
  5
719
100
AcDbEntity
  8
MOVING_S3_0-1_FRONT
100
AcDbCircle
 62
1
  6
CONTINUOUS
 10
337.6138866662
 20
234.3450059878
 40
0.5899410773
100
AcDbArc
 50
143.3718220567
 51
173.954489845
  0
ARC
  5
71A
100
AcDbEntity
  8
MOVING_S3_0-1_FRONT
100
AcDbCircle
 62
1
  6
CONTINUOUS
 10
337.5904542857
 20
234.3786030963
 40
0.5512442246
100
AcDbArc
 50
103.9587364251
 51
144.721311441
  0
ARC
  5
71B
100
AcDbEntity
  8
MOVING_S3_0-1_FRONT
100
AcDbCircle
 62
1
  6
CONTINUOUS
 10
338.5230668975
 20
232.152962639
 40
0.4973802323
100
AcDbArc
 50
186.2630823672
 51
223.3778361951
  0
ARC
  5
71C
100
AcDbEntity
  8
MOVING_S3_0-1_FRONT
100
AcDbCircle
 62
1
  6
CONTINUOUS
 10
326.5755852445
 20
236.9305776014
 40
10.5796251299
100
AcDbArc
 50
3.5362038306
 51
6.8735049128
  0
ARC
  5
71D
100
AcDbEntity
  8
MOVING_S3_0-1_FRONT
100
AcDbCircle
 62
1
  6
CONTINUOUS
 10
338.8767906593
 20
234.6458267201
 40
3.2810617258
100
AcDbArc
 50
240.3275348577
 51
252.9248625325
  0
ARC
  5
71E
100
AcDbEntity
  8
MOVING_S3_0-1_FRONT
100
AcDbCircle
 62
1
  6
CONTINUOUS
 10
327.742234302
 20
234.924653702
 40
2.8606200188
100
AcDbArc
 50
168.7146721411
 51
175.4893970059
  0
ARC
  5
71F
100
AcDbEntity
  8
MOVING_S3_0-1_FRONT
100
AcDbCircle
 62
1
  6
CONTINUOUS
 10
339.053886461
 20
235.9056690591
 40
2.7088045811
100
AcDbArc
 50
186.2917797724
 51
195.6657214129
  0
ARC
  5
720
100
AcDbEntity
  8
MOVING_S3_0-1_FRONT
100
AcDbCircle
 62
1
  6
CONTINUOUS
 10
338.1464273305
 20
236.3618218353
 40
2.2524211023
100
AcDbArc
 50
240.2056814397
 51
254.7424106578
  0
ARC
  5
721
100
AcDbEntity
  8
MOVING_S3_0-1_FRONT
100
AcDbCircle
 62
1
  6
CONTINUOUS
 10
326.2210397382
 20
236.5979521696
 40
1.8109916606
100
AcDbArc
 50
245.5030406912
 51
259.4347676631
  0
ARC
  5
722
100
AcDbEntity
  8
MOVING_S3_0-1_FRONT
100
AcDbCircle
 62
1
  6
CONTINUOUS
 10
338.112687648
 20
236.0017713421
 40
1.781063687
100
AcDbArc
 50
174.4051090234
 51
191.3445369694
  0
ARC
  5
723
100
AcDbEntity
  8
MOVING_S3_0-1_FRONT
100
AcDbCircle
 62
1
  6
CONTINUOUS
 10
338.2225659087
 20
236.0797855288
 40
1.417663213
100
AcDbArc
 50
191.7498735984
 51
216.6564622944
  0
ARC
  5
724
100
AcDbEntity
  8
MOVING_S3_0-1_FRONT
100
AcDbCircle
 62
1
  6
CONTINUOUS
 10
337.8021365831
 20
235.5436491039
 40
1.4058383636
100
AcDbArc
 50
195.2349672131
 51
213.5052623461
  0
ARC
  5
725
100
AcDbEntity
  8
MOVING_S3_0-1_FRONT
100
AcDbCircle
 62
1
  6
CONTINUOUS
 10
336.7046594928
 20
236.9961737278
 40
1.3271110166
100
AcDbArc
 50
86.5625536229
 51
98.6782228134
  0
ARC
  5
726
100
AcDbEntity
  8
MOVING_S3_0-1_FRONT
100
AcDbCircle
 62
1
  6
CONTINUOUS
 10
338.1080114874
 20
236.0470790801
 40
1.3069179725
100
AcDbArc
 50
218.5047737191
 51
240.1481617192
  0
ARC
  5
727
100
AcDbEntity
  8
MOVING_S3_0-1_FRONT
100
AcDbCircle
 62
1
  6
CONTINUOUS
 10
325.9600450755
 20
236.0555605249
 40
1.2092698685
100
AcDbArc
 50
224.5887839844
 51
246.1000844128
  0
ARC
  5
728
100
AcDbEntity
  8
MOVING_S3_0-1_FRONT
100
AcDbCircle
 62
1
  6
CONTINUOUS
 10
337.6109591516
 20
235.4497681159
 40
1.1949151136
100
AcDbArc
 50
214.8120649783
 51
240.7570490084
  0
ARC
  5
729
100
AcDbEntity
  8
MOVING_S3_0-1_FRONT
100
AcDbCircle
 62
1
  6
CONTINUOUS
 10
326.7957078026
 20
234.8658794423
 40
0.9234841501
100
AcDbArc
 50
188.256753326
 51
195.1612387528
  0
ARC
  5
72A
100
AcDbEntity
  8
MOVING_S3_0-1_FRONT
100
AcDbCircle
 62
1
  6
CONTINUOUS
 10
337.0898472713
 20
236.0594493072
 40
0.758653921
100
AcDbArc
 50
152.1656972269
 51
171.2074869908
  0
ARC
  5
72B
100
AcDbEntity
  8
MOVING_S3_0-1_FRONT
100
AcDbCircle
 62
1
  6
CONTINUOUS
 10
336.8956740679
 20
235.3190191278
 40
0.6819595248
100
AcDbArc
 50
98.4409329082
 51
119.0198985198
  0
ARC
  5
72C
100
AcDbEntity
  8
MOVING_S3_0-1_FRONT
100
AcDbCircle
 62
1
  6
CONTINUOUS
 10
336.7836433412
 20
235.5123629273
 40
0.4585611678
100
AcDbArc
 50
118.4986435074
 51
143.7591462477
  0
ARC
  5
72D
100
AcDbEntity
  8
MOVING_S3_0-1_FRONT
100
AcDbCircle
 62
1
  6
CONTINUOUS
 10
336.7422516436
 20
236.2625700103
 40
0.3568548735
100
AcDbArc
 50
104.4012905609
 51
154.9479618427
  0
ARC
  5
72E
100
AcDbEntity
  8
MOVING_S3_0-1_FRONT
100
AcDbCircle
 62
1
  6
CONTINUOUS
 10
336.6269899162
 20
235.6243085571
 40
0.2660440877
100
AcDbArc
 50
143.259069595
 51
183.3404364366
  0
ARC
  5
72F
100
AcDbEntity
  8
MOVING_S3_0-1_FRONT
100
AcDbCircle
 62
1
  6
CONTINUOUS
 10
326.0752182053
 20
234.7595758768
 40
0.1952043243
100
AcDbArc
 50
165.0893280596
 51
187.7481733419
  0
ARC
  5
730
100
AcDbEntity
  8
MOVING_S3_0-1_FRONT
100
AcDbCircle
 62
1
  6
CONTINUOUS
 10
325.8982402979
 20
234.8105422411
 40
0.0116768617
100
AcDbArc
 50
142.4259700222
 51
183.6226131294
  0
ARC
  5
731
100
AcDbEntity
  8
MOVING_S3_0-1_FRONT
100
AcDbCircle
 62
1
  6
CONTINUOUS
 10
326.5205402673
 20
239.3365434824
 40
4.9107544804
100
AcDbArc
 50
259.3085101691
 51
262.9477616283
  0
ARC
  5
732
100
AcDbEntity
  8
MOVING_S3_0-1_FRONT
100
AcDbCircle
 62
1
  6
CONTINUOUS
 10
326.2545350618
 20
237.960512022
 40
3.5092662748
100
AcDbArc
 50
254.3235221844
 51
259.4081894662
  0
ARC
  5
733
100
AcDbEntity
  8
MOVING_S3_0-1_FRONT
100
AcDbCircle
 62
1
  6
CONTINUOUS
 10
334.9257020309
 20
237.4472475672
 40
2.2135390597
100
AcDbArc
 50
352.8160174052
 51
3.5191847217
  0
ARC
  5
734
100
AcDbEntity
  8
MOVING_S3_0-1_FRONT
100
AcDbCircle
 62
1
  6
CONTINUOUS
 10
325.5376328881
 20
237.3254280997
 40
1.6149951747
100
AcDbArc
 50
101.1193903602
 51
109.2885927342
  0
ARC
  5
735
100
AcDbEntity
  8
MOVING_S3_0-1_FRONT
100
AcDbCircle
 62
1
  6
CONTINUOUS
 10
336.688323898
 20
245.4585462856
 40
1.4706309711
100
AcDbArc
 50
272.6000580632
 51
274.5251861563
  0
ARC
  5
736
100
AcDbEntity
  8
MOVING_S3_0-1_FRONT
100
AcDbCircle
 62
1
  6
CONTINUOUS
 10
336.6983194657
 20
245.1646355299
 40
1.1765741132
100
AcDbArc
 50
268.3290289523
 51
272.7630811773
  0
ARC
  5
737
100
AcDbEntity
  8
MOVING_S3_0-1_FRONT
100
AcDbCircle
 62
1
  6
CONTINUOUS
 10
325.2891388137
 20
240.1548944213
 40
1.1511932958
100
AcDbArc
 50
273.6742874492
 51
281.9202317765
  0
ARC
  5
738
100
AcDbEntity
  8
MOVING_S3_0-1_FRONT
100
AcDbCircle
 62
1
  6
CONTINUOUS
 10
336.2723635156
 20
237.2636538355
 40
0.85460033
100
AcDbArc
 50
327.2964994318
 51
353.7375449144
  0
ARC
  5
739
100
AcDbEntity
  8
MOVING_S3_0-1_FRONT
100
AcDbCircle
 62
1
  6
CONTINUOUS
 10
336.7545285902
 20
237.6540490012
 40
0.6675092639
100
AcDbArc
 50
68.923498236
 51
87.4496082465
  0
ARC
  5
73A
100
AcDbEntity
  8
MOVING_S3_0-1_FRONT
100
AcDbCircle
 62
1
  6
CONTINUOUS
 10
325.1777336322
 20
238.2918370049
 40
0.584308249
100
AcDbArc
 50
107.2812908682
 51
125.5862179109
  0
ARC
  5
73B
100
AcDbEntity
  8
MOVING_S3_0-1_FRONT
100
AcDbCircle
 62
1
  6
CONTINUOUS
 10
335.728840832
 20
238.6019280919
 40
0.5536047616
100
AcDbArc
 50
274.4574683638
 51
289.0094674154
  0
ARC
  5
73C
100
AcDbEntity
  8
MOVING_S3_0-1_FRONT
100
AcDbCircle
 62
1
  6
CONTINUOUS
 10
325.3229818819
 20
239.5340294777
 40
0.5294698984
100
AcDbArc
 50
261.8021917545
 51
274.3251294376
  0
ARC
  5
73D
100
AcDbEntity
  8
MOVING_S3_0-1_FRONT
100
AcDbCircle
 62
1
  6
CONTINUOUS
 10
336.6760470068
 20
244.4693733683
 40
0.4809622564
100
AcDbArc
 50
262.2742914739
 51
268.5660065992
  0
ARC
  5
73E
100
AcDbEntity
  8
MOVING_S3_0-1_FRONT
100
AcDbCircle
 62
1
  6
CONTINUOUS
 10
336.57277785
 20
242.0950989145
 40
0.4796949836
100
AcDbArc
 50
78.9451714538
 51
87.3861695648
  0
ARC
  5
73F
100
AcDbEntity
  8
MOVING_S3_0-1_FRONT
100
AcDbCircle
 62
1
  6
CONTINUOUS
 10
336.6348078134
 20
237.0325509274
 40
0.4247506885
100
AcDbArc
 50
272.5219386672
 51
327.1133556544
  0
ARC
  5
740
100
AcDbEntity
  8
MOVING_S3_0-1_FRONT
100
AcDbCircle
 62
1
  6
CONTINUOUS
 10
336.68027715
 20
245.6387922598
 40
0.3972787998
100
AcDbArc
 50
254.7944409167
 51
272.915754554
  0
ARC
  5
741
100
AcDbEntity
  8
MOVING_S3_0-1_FRONT
100
AcDbCircle
 62
1
  6
CONTINUOUS
 10
335.8046714211
 20
238.4107314563
 40
0.348262568
100
AcDbArc
 50
287.4598815581
 51
303.402522711
  0
ARC
  5
742
100
AcDbEntity
  8
MOVING_S3_0-1_FRONT
100
AcDbCircle
 62
1
  6
CONTINUOUS
 10
336.6223352133
 20
245.4209171765
 40
0.1718385327
100
AcDbArc
 50
237.717694552
 51
254.3838414241
  0
ARC
  5
743
100
AcDbEntity
  8
MOVING_S3_0-1_FRONT
100
AcDbCircle
 62
1
  6
CONTINUOUS
 10
324.9451132874
 20
238.643897867
 40
0.1633856878
100
AcDbArc
 50
131.099492643
 51
146.3166912803
  0
ARC
  5
744
100
AcDbEntity
  8
MOVING_S3_0-1_FRONT
100
AcDbCircle
 62
1
  6
CONTINUOUS
 10
336.9533613997
 20
238.1486986193
 40
0.1346654258
100
AcDbArc
 50
20.892906836
 51
72.1792730243
  0
ARC
  5
745
100
AcDbEntity
  8
MOVING_S3_0-1_FRONT
100
AcDbCircle
 62
1
  6
CONTINUOUS
 10
325.2648510774
 20
239.1326264266
 40
0.12387994
100
AcDbArc
 50
241.8830335293
 51
261.9410905701
  0
ARC
  5
746
100
AcDbEntity
  8
MOVING_S3_0-1_FRONT
100
AcDbCircle
 62
1
  6
CONTINUOUS
 10
335.9419020338
 20
238.2049014313
 40
0.1008906949
100
AcDbArc
 50
302.6924441999
 51
331.8864908827
  0
ARC
  5
747
100
AcDbEntity
  8
MOVING_S3_0-1_FRONT
100
AcDbCircle
 62
1
  6
CONTINUOUS
 10
336.6224492113
 20
244.0903412554
 40
0.0981891399
100
AcDbArc
 50
247.9697679262
 51
263.5334567583
  0
ARC
  5
748
100
AcDbEntity
  8
MOVING_S3_0-1_FRONT
100
AcDbCircle
 62
1
  6
CONTINUOUS
 10
336.6533237595
 20
242.507365023
 40
0.0596342883
100
AcDbArc
 50
68.0080753428
 51
78.9451714534
  0
ARC
  5
749
100
AcDbEntity
  8
MOVING_S3_0-1_FRONT
100
AcDbCircle
 62
1
  6
CONTINUOUS
 10
336.5581998207
 20
245.3246153721
 40
0.0562373928
100
AcDbArc
 50
194.2931857728
 51
240.5591524933
  0
ARC
  5
74A
100
AcDbEntity
  8
MOVING_S3_0-1_FRONT
100
AcDbCircle
 62
1
  6
CONTINUOUS
 10
335.9970103652
 20
238.1738067914
 40
0.0376600917
100
AcDbArc
 50
334.1049666774
 51
23.3829961644
  0
ARC
  5
74B
100
AcDbEntity
  8
MOVING_S3_0-1_FRONT
100
AcDbCircle
 62
1
  6
CONTINUOUS
 10
325.2186888175
 20
239.047198555
 40
0.0267824672
100
AcDbArc
 50
196.5146247649
 51
242.8557639096
  0
ARC
  5
74C
100
AcDbEntity
  8
MOVING_S3_0-1_FRONT
100
AcDbCircle
 62
1
  6
CONTINUOUS
 10
325.2138306551
 20
239.0436194461
 40
0.0212066832
100
AcDbArc
 50
151.6598428506
 51
190.9660141748
  0
ARC
  5
74D
100
AcDbEntity
  8
MOVING_S3_0-1_FRONT
100
AcDbCircle
 62
1
  6
CONTINUOUS
 10
336.673628307
 20
242.5576409418
 40
0.0054130502
100
AcDbArc
 50
357.0488282405
 51
68.0080753427
  0
ARC
  5
74E
100
AcDbEntity
  8
S3_EXTERN_HANDLE_FRONT
100
AcDbCircle
 62
5
  6
CONTINUOUS
 10
383.5561780543
 20
227.6423319026
 40
338.28317875
100
AcDbArc
 50
179.3647642831
 51
180.1278802113
  0
ARC
  5
74F
100
AcDbEntity
  8
S3_EXTERN_HANDLE_FRONT
100
AcDbCircle
 62
5
  6
CONTINUOUS
 10
382.0419913971
 20
227.9028167773
 40
336.7718105864
100
AcDbArc
 50
180.995840885
 51
181.7791513467
  0
ARC
  5
750
100
AcDbEntity
  8
S3_EXTERN_HANDLE_FRONT
100
AcDbCircle
 62
5
  6
CONTINUOUS
 10
379.5057968129
 20
227.7297878023
 40
334.233016722
100
AcDbArc
 50
180.1444219784
 51
180.9737400951
  0
ARC
  5
751
100
AcDbEntity
  8
S3_EXTERN_HANDLE_FRONT
100
AcDbCircle
 62
5
  6
CONTINUOUS
 10
382.4977030573
 20
235.6279689616
 40
33.0309228115
100
AcDbArc
 50
266.553459996
 51
269.1407622093
  0
ARC
  5
752
100
AcDbEntity
  8
S3_EXTERN_HANDLE_FRONT
100
AcDbCircle
 62
5
  6
CONTINUOUS
 10
383.2829292973
 20
246.191023397
 40
54.8549194984
100
AcDbArc
 50
258.2850005975
 51
262.4772330263
  0
ARC
  5
753
100
AcDbEntity
  8
S3_EXTERN_HANDLE_FRONT
100
AcDbCircle
 62
5
  6
CONTINUOUS
 10
383.2668267905
 20
246.4053574894
 40
54.7468769284
100
AcDbArc
 50
258.286446215
 51
262.4792978223
  0
ARC
  5
754
100
AcDbEntity
  8
MOVING_S3_0-1_FRONT
100
AcDbCircle
 62
1
  6
CONTINUOUS
 10
356.7210365837
 20
245.8663028585
 40
32.2536580025
100
AcDbArc
 50
189.0270771031
 51
192.1940962662
  0
ARC
  5
755
100
AcDbEntity
  8
MOVING_S3_0-1_FRONT
100
AcDbCircle
 62
1
  6
CONTINUOUS
 10
349.0850680584
 20
238.1015623401
 40
12.466436004
100
AcDbArc
 50
186.8490397891
 51
190.6806747801
  0
ARC
  5
756
100
AcDbEntity
  8
S3_EXTERN_HANDLE_FRONT
100
AcDbCircle
 62
5
  6
CONTINUOUS
 10
126.2517509428
 20
249.9380960329
 40
80.1073740141
100
AcDbArc
 50
175.4636179966
 51
179.9590188084
  0
ARC
  5
757
100
AcDbEntity
  8
S3_EXTERN_HANDLE_FRONT
100
AcDbCircle
 62
5
  6
CONTINUOUS
 10
42.3424432268
 20
247.4692399708
 40
43.9190101062
100
AcDbArc
 50
283.3933244867
 51
284.1927791385
  0
ARC
  5
758
100
AcDbEntity
  8
S3_EXTERN_HANDLE_FRONT
100
AcDbCircle
 62
5
  6
CONTINUOUS
 10
42.4101860704
 20
247.1848234826
 40
43.6266373456
100
AcDbArc
 50
282.6191549125
 51
283.3932985571
  0
ARC
  5
759
100
AcDbEntity
  8
MOVING_S3_0-1_FRONT
100
AcDbCircle
 62
1
  6
CONTINUOUS
 10
65.9078687169
 20
247.3110236603
 40
38.510900684
100
AcDbArc
 50
183.6572990672
 51
194.1531946533
  0
ARC
  5
75A
100
AcDbEntity
  8
MOVING_S3_0-1_FRONT
100
AcDbCircle
 62
1
  6
CONTINUOUS
 10
65.9080634326
 20
258.5057150862
 40
38.510900684
100
AcDbArc
 50
165.8448121897
 51
176.3407077758
  0
ARC
  5
75B
100
AcDbEntity
  8
S3_EXTERN_HANDLE_FRONT
100
AcDbCircle
 62
5
  6
CONTINUOUS
 10
11.9823255047
 20
259.0043073982
 40
34.5211467757
100
AcDbArc
 50
355.4636179966
 51
0.446495613
  0
ARC
  5
75C
100
AcDbEntity
  8
S3_EXTERN_HANDLE_FRONT
100
AcDbCircle
 62
5
  6
CONTINUOUS
 10
87.7484690086
 20
260.5232809623
 40
31.3000132688
100
AcDbArc
 50
90.6567556079
 51
119.699060726
  0
ARC
  5
75D
100
AcDbEntity
  8
S3_EXTERN_HANDLE_FRONT
100
AcDbCircle
 62
5
  6
CONTINUOUS
 10
59.9367719548
 20
248.4694060397
 40
24.3508888573
100
AcDbArc
 50
92.8037020291
 51
102.1926802548
  0
ARC
  5
75E
100
AcDbEntity
  8
S3_EXTERN_HANDLE_FRONT
100
AcDbCircle
 62
5
  6
CONTINUOUS
 10
70.1611610249
 20
259.4576936842
 40
23.6594553318
100
AcDbArc
 50
174.9989209385
 51
180.446495613
  0
ARC
  5
75F
100
AcDbEntity
  8
S3_EXTERN_HANDLE_FRONT
100
AcDbCircle
 62
5
  6
CONTINUOUS
 10
59.8061190009
 20
250.7711332489
 40
22.04553334
100
AcDbArc
 50
83.5331944824
 51
92.7571565409
  0
ARC
  5
760
100
AcDbEntity
  8
S3_EXTERN_HANDLE_FRONT
100
AcDbCircle
 62
5
  6
CONTINUOUS
 10
60.3050403004
 20
254.4877797116
 40
18.2965052483
100
AcDbArc
 50
69.5174988774
 51
83.7747914357
  0
ARC
  5
761
100
AcDbEntity
  8
S3_EXTERN_HANDLE_FRONT
100
AcDbCircle
 62
5
  6
CONTINUOUS
 10
62.7216642069
 20
260.8601612679
 40
11.4814135793
100
AcDbArc
 50
53.9488232989
 51
69.6872233748
  0
ARC
  5
762
100
AcDbEntity
  8
MOVING_S3_0-1_FRONT
100
AcDbCircle
 62
1
  6
CONTINUOUS
 10
175.2915898806
 20
272.9811285177
 40
8.8322064869
100
AcDbArc
 50
336.2644954652
 51
344.1641229909
  0
ARC
  5
763
100
AcDbEntity
  8
MOVING_S3_0-1_FRONT
100
AcDbCircle
 62
1
  6
CONTINUOUS
 10
36.6226967239
 20
265.9957129842
 40
8.2836701024
100
AcDbArc
 50
143.6871974021
 51
166.5425095457
  0
ARC
  5
764
100
AcDbEntity
  8
S3_EXTERN_HANDLE_FRONT
100
AcDbCircle
 62
5
  6
CONTINUOUS
 10
52.7895858884
 20
257.3333649188
 40
6.5796531734
100
AcDbArc
 50
168.1973293572
 51
177.4550528744
  0
ARC
  5
765
100
AcDbEntity
  8
S3_EXTERN_HANDLE_FRONT
100
AcDbCircle
 62
5
  6
CONTINUOUS
 10
52.7894378036
 20
257.3334031482
 40
6.5795004
100
AcDbArc
 50
162.8518866047
 51
168.1973914611
  0
ARC
  5
766
100
AcDbEntity
  8
S3_EXTERN_HANDLE_FRONT
100
AcDbCircle
 62
5
  6
CONTINUOUS
 10
65.9029485946
 20
265.1860296272
 40
6.1118312479
100
AcDbArc
 50
30.4820844747
 51
54.1947691167
  0
ARC
  5
767
100
AcDbEntity
  8
MOVING_S3_0-1_FRONT
100
AcDbCircle
 62
1
  6
CONTINUOUS
 10
178.5378408836
 20
271.7321807456
 40
5.3947599949
100
AcDbArc
 50
355.536704889
 51
2.9389934312
  0
ARC
  5
768
100
AcDbEntity
  8
S3_EXTERN_HANDLE_FRONT
100
AcDbCircle
 62
5
  6
CONTINUOUS
 10
66.7626777477
 20
265.8455228172
 40
5.038122267
100
AcDbArc
 50
3.8236905958
 51
28.9781408356
  0
ARC
  5
769
100
AcDbEntity
  8
MOVING_S3_0-1_FRONT
100
AcDbCircle
 62
1
  6
CONTINUOUS
 10
180.0979063961
 20
271.588108674
 40
3.828278343
100
AcDbArc
 50
344.5920230411
 51
355.8694139359
  0
ARC
  5
76A
100
AcDbEntity
  8
MOVING_S3_0-1_FRONT
100
AcDbCircle
 62
1
  6
CONTINUOUS
 10
178.8779859359
 20
272.3280076828
 40
3.4024538318
100
AcDbArc
 50
329.9334941054
 51
335.1609430224
  0
ARC
  5
76B
100
AcDbEntity
  8
MOVING_S3_0-1_FRONT
100
AcDbCircle
 62
1
  6
CONTINUOUS
 10
32.3923025249
 20
268.8485613644
 40
3.1920776492
100
AcDbArc
 50
96.4078782153
 51
139.9799129591
  0
ARC
  5
76C
100
AcDbEntity
  8
MOVING_S3_0-1_FRONT
100
AcDbCircle
 62
1
  6
CONTINUOUS
 10
183.9456397243
 20
269.5205730437
 40
2.4931952822
100
AcDbArc
 50
125.3628784894
 51
142.5365362112
  0
ARC
  5
76D
100
AcDbEntity
  8
MOVING_S3_0-1_FRONT
100
AcDbCircle
 62
1
  6
CONTINUOUS
 10
183.9308792034
 20
269.541176721
 40
2.4678502307
100
AcDbArc
 50
101.6948810907
 51
125.360259407
  0
ARC
  5
76E
100
AcDbEntity
  8
MOVING_S3_0-1_FRONT
100
AcDbCircle
 62
1
  6
CONTINUOUS
 10
183.9290377293
 20
269.547584803
 40
2.4612019598
100
AcDbArc
 50
90.0822377516
 51
101.6831404982
  0
ARC
  5
76F
100
AcDbEntity
  8
S3_EXTERN_HANDLE_FRONT
100
AcDbCircle
 62
5
  6
CONTINUOUS
 10
47.8445540811
 20
279.007387439
 40
0.8829470812
100
AcDbArc
 50
153.5947304854
 51
171.4178803765
  0
ARC
  5
770
100
AcDbEntity
  8
S3_EXTERN_HANDLE_FRONT
100
AcDbCircle
 62
5
  6
CONTINUOUS
 10
50.700275213
 20
270.8190492871
 40
0.5846069721
100
AcDbArc
 50
354.5999999538
 51
23.0765839047
  0
ARC
  5
771
100
AcDbEntity
  8
S3_EXTERN_HANDLE_FRONT
100
AcDbCircle
 62
5
  6
CONTINUOUS
 10
51.7820827225
 20
270.8803814533
 40
0.5692772653
100
AcDbArc
 50
119.103824543
 51
162.8555314244
  0
ARC
  5
772
100
AcDbEntity
  8
S3_EXTERN_HANDLE_FRONT
100
AcDbCircle
 62
5
  6
CONTINUOUS
 10
47.3890653573
 20
279.2058896449
 40
0.3874942665
100
AcDbArc
 50
108.9886091014
 51
149.929506949
  0
ARC
  5
773
100
AcDbEntity
  8
S3_EXTERN_HANDLE_FRONT
100
AcDbCircle
 62
5
  6
CONTINUOUS
 10
72.3896855318
 20
287.4511206859
 40
0.300000459
100
AcDbArc
 50
119.6991852105
 51
179.9998352775
  0
ARC
  5
774
100
AcDbEntity
  8
S3_EXTERN_HANDLE_FRONT
100
AcDbCircle
 62
5
  6
CONTINUOUS
 10
46.3334078892
 20
261.5428041488
 40
0.2593553648
100
AcDbArc
 50
354.9989209385
 51
76.0311109331
  0
ARC
  5
775
100
AcDbEntity
  8
MOVING_S3_0-1_FRONT
100
AcDbCircle
 62
1
  6
CONTINUOUS
 10
181.7972447079
 20
270.9599707329
 40
0.1792239735
100
AcDbArc
 50
340.0216635749
 51
7.7634653227
  0
ARC
  5
776
100
AcDbEntity
  8
MOVING_S3_0-1_FRONT
100
AcDbCircle
 62
1
  6
CONTINUOUS
 10
198.9944486371
 20
249.5114008558
 40
171.9006738113
100
AcDbArc
 50
176.1800646813
 51
178.2007746453
  0
ARC
  5
777
100
AcDbEntity
  8
MOVING_S3_0-1_FRONT
100
AcDbCircle
 62
1
  6
CONTINUOUS
 10
198.7174372674
 20
256.2855926983
 40
171.6231529419
100
AcDbArc
 50
181.7953808481
 51
183.8190675906
  0
ARC
  5
778
100
AcDbEntity
  8
MOVING_S3_0-1_FRONT
100
AcDbCircle
 62
1
  6
CONTINUOUS
 10
257.7780712484
 20
251.3383246195
 40
77.2727453967
100
AcDbArc
 50
358.3061330327
 51
1.0256034762
  0
ARC
  5
779
100
AcDbEntity
  8
MOVING_S3_0-1_FRONT
100
AcDbCircle
 62
1
  6
CONTINUOUS
 10
290.4565767162
 20
264.9017706391
 40
46.4761055015
100
AcDbArc
 50
354.195039509
 51
355.7412120972
  0
ARC
  5
77A
100
AcDbEntity
  8
MOVING_S3_0-1_FRONT
100
AcDbCircle
 62
1
  6
CONTINUOUS
 10
213.1274620711
 20
251.174167713
 40
36.8279370814
100
AcDbArc
 50
150.5324409156
 51
158.3891974932
  0
ARC
  5
77B
100
AcDbEntity
  8
MOVING_S3_0-1_FRONT
100
AcDbCircle
 62
1
  6
CONTINUOUS
 10
212.1036179652
 20
254.1710400274
 40
35.7112058342
100
AcDbArc
 50
201.825087334
 51
207.6920379218
  0
ARC
  5
77C
100
AcDbEntity
  8
MOVING_S3_0-1_FRONT
100
AcDbCircle
 62
1
  6
CONTINUOUS
 10
212.9736128193
 20
253.6678495221
 40
34.0784466126
100
AcDbArc
 50
192.7805255036
 51
201.442811644
  0
ARC
  5
77D
100
AcDbEntity
  8
MOVING_S3_0-1_FRONT
100
AcDbCircle
 62
1
  6
CONTINUOUS
 10
209.5580944739
 20
253.137351637
 40
32.9638413289
100
AcDbArc
 50
194.289110004
 51
201.8020804068
  0
ARC
  5
77E
100
AcDbEntity
  8
MOVING_S3_0-1_FRONT
100
AcDbCircle
 62
1
  6
CONTINUOUS
 10
209.4310947531
 20
252.6980611153
 40
32.8301953201
100
AcDbArc
 50
158.4858876454
 51
167.1077114512
  0
ARC
  5
77F
100
AcDbEntity
  8
MOVING_S3_0-1_FRONT
100
AcDbCircle
 62
1
  6
CONTINUOUS
 10
211.4637983045
 20
252.5609388599
 40
32.5086414205
100
AcDbArc
 50
160.3495012213
 51
171.4048458808
  0
ARC
  5
780
100
AcDbEntity
  8
MOVING_S3_0-1_FRONT
100
AcDbCircle
 62
1
  6
CONTINUOUS
 10
208.8417272216
 20
252.9458409405
 40
32.2223700886
100
AcDbArc
 50
187.3144371127
 51
194.2735054267
  0
ARC
  5
781
100
AcDbEntity
  8
MOVING_S3_0-1_FRONT
100
AcDbCircle
 62
1
  6
CONTINUOUS
 10
208.8051307049
 20
252.853615921
 40
32.1853060592
100
AcDbArc
 50
167.1290185462
 51
176.3347800034
  0
ARC
  5
782
100
AcDbEntity
  8
MOVING_S3_0-1_FRONT
100
AcDbCircle
 62
1
  6
CONTINUOUS
 10
208.6917411771
 20
252.9289927505
 40
32.0714596405
100
AcDbArc
 50
180.0361026021
 51
187.3186967051
  0
ARC
  5
783
100
AcDbEntity
  8
MOVING_S3_0-1_FRONT
100
AcDbCircle
 62
1
  6
CONTINUOUS
 10
208.0383695476
 20
252.8853340755
 40
31.4180903958
100
AcDbArc
 50
176.3031156738
 51
179.9572349926
  0
ARC
  5
784
100
AcDbEntity
  8
MOVING_S3_0-1_FRONT
100
AcDbCircle
 62
1
  6
CONTINUOUS
 10
209.973716817
 20
252.9396735598
 40
30.9918241964
100
AcDbArc
 50
180.0571063082
 51
192.6945461768
  0
ARC
  5
785
100
AcDbEntity
  8
MOVING_S3_0-1_FRONT
100
AcDbCircle
 62
1
  6
CONTINUOUS
 10
209.8770021333
 20
252.8592751121
 40
30.8951337879
100
AcDbArc
 50
171.5121046476
 51
179.9081840979
  0
ARC
  5
786
100
AcDbEntity
  8
MOVING_S3_0-1_FRONT
100
AcDbCircle
 62
1
  6
CONTINUOUS
 10
205.6060896098
 20
252.8967046599
 40
29.7975549328
100
AcDbArc
 50
142.4981440183
 51
217.5018389176
  0
ARC
  5
787
100
AcDbEntity
  8
MOVING_S3_0-1_FRONT
100
AcDbCircle
 62
1
  6
CONTINUOUS
 10
220.7249803479
 20
286.0427593284
 40
105.2818098024
100
AcDbArc
 50
349.4923251051
 51
350.5363973673
  0
ARC
  5
788
100
AcDbEntity
  8
MOVING_S3_0-1_FRONT
100
AcDbCircle
 62
1
  6
CONTINUOUS
 10
258.55377093
 20
279.2838359725
 40
88.5136559295
100
AcDbArc
 50
208.1128338048
 51
210.0319300594
  0
ARC
  5
789
100
AcDbEntity
  8
MOVING_S3_0-1_FRONT
100
AcDbCircle
 62
1
  6
CONTINUOUS
 10
254.0919161367
 20
270.5632922886
 40
78.5302370985
100
AcDbArc
 50
201.9493615175
 51
205.423307659
  0
ARC
  5
78A
100
AcDbEntity
  8
MOVING_S3_0-1_FRONT
100
AcDbCircle
 62
1
  6
CONTINUOUS
 10
282.6472504893
 20
275.7322559507
 40
42.5070241651
100
AcDbArc
 50
350.5213769139
 51
352.3550481216
  0
ARC
  5
78B
100
AcDbEntity
  8
MOVING_S3_0-1_FRONT
100
AcDbCircle
 62
1
  6
CONTINUOUS
 10
336.2180812458
 20
256.6939752408
 40
1.0529208109
100
AcDbArc
 50
83.3072557632
 51
88.5101068336
  0
ARC
  5
78C
100
AcDbEntity
  8
MOVING_S3_0-1_FRONT
100
AcDbCircle
 62
1
  6
CONTINUOUS
 10
336.2180805844
 20
248.7489146948
 40
1.0529208109
100
AcDbArc
 50
271.4898836277
 51
276.692734698
  0
ARC
  5
78D
100
AcDbEntity
  8
MOVING_S3_0-1_FRONT
100
AcDbCircle
 62
1
  6
CONTINUOUS
 10
336.2206561037
 20
256.7159179416
 40
1.0308275537
100
AcDbArc
 50
81.2586668313
 51
83.3072557633
  0
ARC
  5
78E
100
AcDbEntity
  8
MOVING_S3_0-1_FRONT
100
AcDbCircle
 62
1
  6
CONTINUOUS
 10
336.2206554386
 20
248.7269719936
 40
1.0308275537
100
AcDbArc
 50
276.6927346979
 51
278.7413236299
  0
ARC
  5
78F
100
AcDbEntity
  8
MOVING_S3_0-1_FRONT
100
AcDbCircle
 62
1
  6
CONTINUOUS
 10
335.6263427314
 20
256.4947858542
 40
0.5666764849
100
AcDbArc
 50
189.1471963851
 51
267.432234845
  0
ARC
  5
790
100
AcDbEntity
  8
MOVING_S3_0-1_FRONT
100
AcDbCircle
 62
1
  6
CONTINUOUS
 10
335.6286497396
 20
248.9481103362
 40
0.5666764849
100
AcDbArc
 50
92.602795634
 51
170.8878340939
  0
ARC
  5
791
100
AcDbEntity
  8
MOVING_S3_0-1_FRONT
100
AcDbCircle
 62
1
  6
CONTINUOUS
 10
335.6253131934
 20
256.5292162669
 40
0.308079338
100
AcDbArc
 50
179.5419139483
 51
267.7658125174
  0
ARC
  5
792
100
AcDbEntity
  8
MOVING_S3_0-1_FRONT
100
AcDbCircle
 62
1
  6
CONTINUOUS
 10
335.6276412525
 20
248.9136793004
 40
0.308079338
100
AcDbArc
 50
92.2692179616
 51
180.4931165307
  0
ARC
  5
793
100
AcDbEntity
  8
MOVING_S3_0-1_FRONT
100
AcDbCircle
 62
1
  6
CONTINUOUS
 10
336.6200137734
 20
257.1545111651
 40
0.2457273813
100
AcDbArc
 50
178.4233278685
 51
270.0
  0
ARC
  5
794
100
AcDbEntity
  8
MOVING_S3_0-1_FRONT
100
AcDbCircle
 62
1
  6
CONTINUOUS
 10
336.6198702224
 20
248.6647145176
 40
0.2457273813
100
AcDbArc
 50
89.9980624117
 51
181.5747345432
  0
ARC
  5
795
100
AcDbEntity
  8
MOVING_S3_0-1_FRONT
100
AcDbCircle
 62
1
  6
CONTINUOUS
 10
336.3664060141
 20
257.6638239478
 40
0.0717817607
100
AcDbArc
 50
66.2453916488
 51
81.2586668313
  0
ARC
  5
796
100
AcDbEntity
  8
MOVING_S3_0-1_FRONT
100
AcDbCircle
 62
1
  6
CONTINUOUS
 10
336.3664051913
 20
247.779065963
 40
0.0717817607
100
AcDbArc
 50
278.7413236301
 51
293.7545988126
  0
ARC
  5
797
100
AcDbEntity
  8
MOVING_S3_0-1_FRONT
100
AcDbCircle
 62
1
  6
CONTINUOUS
 10
295.250885986
 20
267.13278931
 40
29.7962848803
100
AcDbArc
 50
6.0767879094
 51
6.72676181
  0
ARC
  5
798
100
AcDbEntity
  8
MOVING_S3_0-1_FRONT
100
AcDbCircle
 62
1
  6
CONTINUOUS
 10
301.5846217559
 20
268.6977139244
 40
23.3887454041
100
AcDbArc
 50
7.3708899351
 51
8.1828788521
  0
ARC
  5
799
100
AcDbEntity
  8
MOVING_S3_0-1_FRONT
100
AcDbCircle
 62
1
  6
CONTINUOUS
 10
313.1017132015
 20
268.7868951634
 40
11.8903234333
100
AcDbArc
 50
349.9555375522
 51
354.9207624354
  0
ARC
  5
79A
100
AcDbEntity
  8
MOVING_S3_0-1_FRONT
100
AcDbCircle
 62
1
  6
CONTINUOUS
 10
313.1548754293
 20
268.8033706978
 40
11.8388474307
100
AcDbArc
 50
354.8185613992
 51
359.8671459856
  0
ARC
  5
79B
100
AcDbEntity
  8
MOVING_S3_0-1_FRONT
100
AcDbCircle
 62
1
  6
CONTINUOUS
 10
315.0531371521
 20
268.7973523293
 40
9.9405769873
100
AcDbArc
 50
359.8764648331
 51
6.6716950588
  0
ARC
  5
79C
100
AcDbEntity
  8
MOVING_S3_0-1_FRONT
100
AcDbCircle
 62
1
  6
CONTINUOUS
 10
336.5727796191
 20
263.347790962
 40
0.4796949836
100
AcDbArc
 50
272.6138208965
 51
281.0548190074
  0
ARC
  5
79D
100
AcDbEntity
  8
MOVING_S3_0-1_FRONT
100
AcDbCircle
 62
1
  6
CONTINUOUS
 10
336.6802771033
 20
259.8040978829
 40
0.3972787998
100
AcDbArc
 50
87.0842458235
 51
105.2055594609
  0
ARC
  5
79E
100
AcDbEntity
  8
MOVING_S3_0-1_FRONT
100
AcDbCircle
 62
1
  6
CONTINUOUS
 10
336.6223351652
 20
260.0219729659
 40
0.1718385327
100
AcDbArc
 50
105.6161589535
 51
122.2823058256
  0
ARC
  5
79F
100
AcDbEntity
  8
MOVING_S3_0-1_FRONT
100
AcDbCircle
 62
1
  6
CONTINUOUS
 10
336.65332546
 20
262.9355248401
 40
0.0596342883
100
AcDbArc
 50
281.0548190073
 51
291.991915118
  0
ARC
  5
7A0
100
AcDbEntity
  8
MOVING_S3_0-1_FRONT
100
AcDbCircle
 62
1
  6
CONTINUOUS
 10
336.5581997719
 20
260.1182747699
 40
0.0562373928
100
AcDbArc
 50
119.4408478845
 51
165.706814605
  0
ARC
  5
7A1
100
AcDbEntity
  8
MOVING_S3_0-1_FRONT
100
AcDbCircle
 62
1
  6
CONTINUOUS
 10
336.7445784268
 20
261.4770185594
 40
0.049949245
100
AcDbArc
 50
206.3572924382
 51
329.4359496326
  0
ARC
  5
7A2
100
AcDbEntity
  8
MOVING_S3_0-1_FRONT
100
AcDbCircle
 62
1
  6
CONTINUOUS
 10
336.6589448823
 20
261.4345892284
 40
0.0456193277
100
AcDbArc
 50
26.3572924382
 51
159.1901402944
  0
ARC
  5
7A3
100
AcDbEntity
  8
MOVING_S3_0-1_FRONT
100
AcDbCircle
 62
1
  6
CONTINUOUS
 10
336.5924502454
 20
261.4598612661
 40
0.0255158439
100
AcDbArc
 50
240.3529132006
 51
339.1901402939
  0
ARC
  5
7A4
100
AcDbEntity
  8
MOVING_S3_0-1_FRONT
100
AcDbCircle
 62
1
  6
CONTINUOUS
 10
336.7956650974
 20
261.4468492353
 40
0.0093806466
100
AcDbArc
 50
22.1620188701
 51
149.4359496326
  0
ARC
  5
7A5
100
AcDbEntity
  8
MOVING_S3_0-1_FRONT
100
AcDbCircle
 62
1
  6
CONTINUOUS
 10
336.6736299991
 20
262.8852489179
 40
0.0054130502
100
AcDbArc
 50
291.9919151171
 51
2.9511622194
  0
ARC
  5
7A6
100
AcDbEntity
  8
MOVING_S3_0-1_FRONT
100
AcDbCircle
 62
1
  6
CONTINUOUS
 10
326.5659356682
 20
268.5071372047
 40
10.5796251299
100
AcDbArc
 50
353.1615134669
 51
356.4988145492
  0
ARC
  5
7A7
100
AcDbEntity
  8
MOVING_S3_0-1_FRONT
100
AcDbCircle
 62
1
  6
CONTINUOUS
 10
333.0282379074
 20
265.3771489841
 40
7.8876136668
100
AcDbArc
 50
168.4861232972
 51
171.5346158195
  0
ARC
  5
7A8
100
AcDbEntity
  8
MOVING_S3_0-1_FRONT
100
AcDbCircle
 62
1
  6
CONTINUOUS
 10
326.5123853902
 20
266.1011312533
 40
4.9107544804
100
AcDbArc
 50
97.0871531648
 51
100.726404624
  0
ARC
  5
7A9
100
AcDbEntity
  8
MOVING_S3_0-1_FRONT
100
AcDbCircle
 62
1
  6
CONTINUOUS
 10
326.2455417107
 20
267.4770003605
 40
3.5092662748
100
AcDbArc
 50
100.626725327
 51
105.7113926087
  0
ARC
  5
7AA
100
AcDbEntity
  8
MOVING_S3_0-1_FRONT
100
AcDbCircle
 62
1
  6
CONTINUOUS
 10
338.1464300541
 20
269.0810677793
 40
2.2524211023
100
AcDbArc
 50
105.2575798034
 51
119.7943090215
  0
ARC
  5
7AB
100
AcDbEntity
  8
MOVING_S3_0-1_FRONT
100
AcDbCircle
 62
1
  6
CONTINUOUS
 10
334.9163666765
 20
267.9955708097
 40
2.2135390597
100
AcDbArc
 50
356.515833658
 51
7.2190009745
  0
ARC
  5
7AC
100
AcDbEntity
  8
MOVING_S3_0-1_FRONT
100
AcDbCircle
 62
1
  6
CONTINUOUS
 10
326.2111928989
 20
268.8395445848
 40
1.8109916606
100
AcDbArc
 50
100.6002295112
 51
114.531956483
  0
ARC
  5
7AD
100
AcDbEntity
  8
MOVING_S3_0-1_FRONT
100
AcDbCircle
 62
1
  6
CONTINUOUS
 10
325.7600513199
 20
269.1530861305
 40
1.7643872093
100
AcDbArc
 50
105.2736109934
 51
114.8917247569
  0
ARC
  5
7AE
100
AcDbEntity
  8
MOVING_S3_0-1_FRONT
100
AcDbCircle
 62
1
  6
CONTINUOUS
 10
325.5609598433
 20
268.2124262715
 40
1.7071978616
100
AcDbArc
 50
250.987161144
 51
258.7040698973
  0
ARC
  5
7AF
100
AcDbEntity
  8
MOVING_S3_0-1_FRONT
100
AcDbCircle
 62
1
  6
CONTINUOUS
 10
336.6950481161
 20
268.4477318387
 40
1.3271110166
100
AcDbArc
 50
261.3567955663
 51
273.4724647569
  0
ARC
  5
7B0
100
AcDbEntity
  8
MOVING_S3_0-1_FRONT
100
AcDbCircle
 62
1
  6
CONTINUOUS
 10
325.2705829728
 20
265.1837937512
 40
1.2569769402
100
AcDbArc
 50
78.2327850058
 51
80.2928569852
  0
ARC
  5
7B1
100
AcDbEntity
  8
MOVING_S3_0-1_FRONT
100
AcDbCircle
 62
1
  6
CONTINUOUS
 10
325.2898243922
 20
265.3038986639
 40
1.1353480231
100
AcDbArc
 50
80.2279972461
 51
85.387918961
  0
ARC
  5
7B2
100
AcDbEntity
  8
MOVING_S3_0-1_FRONT
100
AcDbCircle
 62
1
  6
CONTINUOUS
 10
336.2629156998
 20
268.1799875678
 40
0.85460033
100
AcDbArc
 50
6.2974734653
 51
32.738518948
  0
ARC
  5
7B3
100
AcDbEntity
  8
MOVING_S3_0-1_FRONT
100
AcDbCircle
 62
1
  6
CONTINUOUS
 10
336.7453192884
 20
267.7898871675
 40
0.6675092639
100
AcDbArc
 50
272.5854101333
 51
291.1115201437
  0
ARC
  5
7B4
100
AcDbEntity
  8
MOVING_S3_0-1_FRONT
100
AcDbCircle
 62
1
  6
CONTINUOUS
 10
325.3238404869
 20
265.8055843573
 40
0.632584334
100
AcDbArc
 50
84.8051417945
 51
95.3428085605
  0
ARC
  5
7B5
100
AcDbEntity
  8
MOVING_S3_0-1_FRONT
100
AcDbCircle
 62
1
  6
CONTINUOUS
 10
325.1924832692
 20
267.1861349792
 40
0.6170124888
100
AcDbArc
 50
234.8435400323
 51
252.2900397014
  0
ARC
  5
7B6
100
AcDbEntity
  8
MOVING_S3_0-1_FRONT
100
AcDbCircle
 62
1
  6
CONTINUOUS
 10
335.7202081786
 20
266.8410274213
 40
0.5536047616
100
AcDbArc
 50
71.0255630636
 51
85.5775621152
  0
ARC
  5
7B7
100
AcDbEntity
  8
MOVING_S3_0-1_FRONT
100
AcDbCircle
 62
1
  6
CONTINUOUS
 10
336.6252186829
 20
268.4113119536
 40
0.4247506885
100
AcDbArc
 50
32.9216627254
 51
87.5130797126
  0
ARC
  5
7B8
100
AcDbEntity
  8
MOVING_S3_0-1_FRONT
100
AcDbCircle
 62
1
  6
CONTINUOUS
 10
336.7321918915
 20
269.181358395
 40
0.3568548735
100
AcDbArc
 50
205.0870565371
 51
255.6337278188
  0
ARC
  5
7B9
100
AcDbEntity
  8
MOVING_S3_0-1_FRONT
100
AcDbCircle
 62
1
  6
CONTINUOUS
 10
335.7959218565
 20
267.0322703838
 40
0.348262568
100
AcDbArc
 50
56.6325077679
 51
72.5751489209
  0
ARC
  5
7BA
100
AcDbEntity
  8
MOVING_S3_0-1_FRONT
100
AcDbCircle
 62
1
  6
CONTINUOUS
 10
325.2781315119
 20
266.2677745321
 40
0.168164215
100
AcDbArc
 50
94.4999308998
 51
113.8418742837
  0
ARC
  5
7BB
100
AcDbEntity
  8
MOVING_S3_0-1_FRONT
100
AcDbCircle
 62
1
  6
CONTINUOUS
 10
336.9444543836
 20
267.2953591656
 40
0.1346654258
100
AcDbArc
 50
287.8557453554
 51
339.1421115438
  0
ARC
  5
7BC
100
AcDbEntity
  8
MOVING_S3_0-1_FRONT
100
AcDbCircle
 62
1
  6
CONTINUOUS
 10
324.9024998193
 20
266.7663433754
 40
0.1069229393
100
AcDbArc
 50
209.8800445728
 51
232.3589145117
  0
ARC
  5
7BD
100
AcDbEntity
  8
MOVING_S3_0-1_FRONT
100
AcDbCircle
 62
1
  6
CONTINUOUS
 10
335.9330265997
 20
267.2381842727
 40
0.1008906949
100
AcDbArc
 50
28.1485395963
 51
57.3425862791
  0
ARC
  5
7BE
100
AcDbEntity
  8
MOVING_S3_0-1_FRONT
100
AcDbCircle
 62
1
  6
CONTINUOUS
 10
335.9881159096
 20
267.2693125998
 40
0.0376600917
100
AcDbArc
 50
336.6520343148
 51
25.9300638018
  0
ARC
  5
7BF
100
AcDbEntity
  8
MOVING_S3_0-1_FRONT
100
AcDbCircle
 62
1
  6
CONTINUOUS
 10
325.222207955
 20
266.3929019172
 40
0.0311148383
100
AcDbArc
 50
112.7865541162
 51
159.1756591175
  0
ARC
  5
7C0
100
AcDbEntity
  8
MOVING_S3_0-1_FRONT
100
AcDbCircle
 62
1
  6
CONTINUOUS
 10
325.2140042028
 20
266.3993173394
 40
0.0213891887
100
AcDbArc
 50
167.4545546795
 51
208.6413942998
  0
ARC
  5
7C1
100
AcDbEntity
  8
MOVING_S3_0-1_FRONT
100
AcDbCircle
 62
1
  6
CONTINUOUS
 10
381.8535138329
 20
254.1246638499
 40
59.137074251
100
AcDbArc
 50
174.5979814651
 51
178.8934292537
  0
ARC
  5
7C2
100
AcDbEntity
  8
MOVING_S3_0-1_FRONT
100
AcDbCircle
 62
1
  6
CONTINUOUS
 10
378.9997467686
 20
254.6762681332
 40
56.244751279
100
AcDbArc
 50
170.910160598
 51
174.8837152179
  0
ARC
  5
7C3
100
AcDbEntity
  8
MOVING_S3_0-1_FRONT
100
AcDbCircle
 62
1
  6
CONTINUOUS
 10
378.9075067593
 20
255.2511225201
 40
54.8549194984
100
AcDbArc
 50
168.2850005975
 51
172.4772330263
  0
ARC
  5
7C4
100
AcDbEntity
  8
MOVING_S3_0-1_FRONT
100
AcDbCircle
 62
1
  6
CONTINUOUS
 10
379.1218408517
 20
255.267225027
 40
54.7468769284
100
AcDbArc
 50
168.286446215
 51
172.4792978223
  0
ARC
  5
7C5
100
AcDbEntity
  8
MOVING_S3_0-1_FRONT
100
AcDbCircle
 62
1
  6
CONTINUOUS
 10
368.3444523239
 20
256.0363487602
 40
33.0309228115
100
AcDbArc
 50
176.553459996
 51
179.1407622093
  0
ARC
  5
7C6
100
AcDbEntity
  8
MOVING_S3_0-1_FRONT
100
AcDbCircle
 62
1
  6
CONTINUOUS
 10
368.3464729299
 20
249.4265511038
 40
33.0309228115
100
AcDbArc
 50
180.8942682697
 51
183.481570483
  0
ARC
  5
7C7
100
AcDbEntity
  8
MOVING_S3_0-1_FRONT
100
AcDbCircle
 62
1
  6
CONTINUOUS
 10
345.2073313476
 20
247.8150669328
 40
27.1462834301
100
AcDbArc
 50
99.6706598325
 51
103.5872058976
  0
ARC
  5
7C8
100
AcDbEntity
  8
MOVING_S3_0-1_FRONT
100
AcDbCircle
 62
1
  6
CONTINUOUS
 10
345.2075036264
 20
258.0038683447
 40
27.1462834301
100
AcDbArc
 50
256.4108565141
 51
260.3274025792
  0
ARC
  5
7C9
100
AcDbEntity
  8
S3_EXTERN_HANDLE_FRONT
100
AcDbCircle
 62
5
  6
CONTINUOUS
 10
383.7125617507
 20
260.4762828198
 40
129.7157020978
100
AcDbArc
 50
85.6849898149
 51
88.2714849738
  0
ARC
  5
7CA
100
AcDbEntity
  8
S3_EXTERN_HANDLE_FRONT
100
AcDbCircle
 62
5
  6
CONTINUOUS
 10
371.7617631424
 20
258.6976694674
 40
18.548289375
100
AcDbArc
 50
148.617059758
 51
159.7181156887
  0
ARC
  5
7CB
100
AcDbEntity
  8
S3_EXTERN_HANDLE_FRONT
100
AcDbCircle
 62
5
  6
CONTINUOUS
 10
350.978575448
 20
259.8702438546
 40
16.7628591669
100
AcDbArc
 50
39.9055201524
 51
44.6883547836
  0
ARC
  5
7CC
100
AcDbEntity
  8
S3_EXTERN_HANDLE_FRONT
100
AcDbCircle
 62
5
  6
CONTINUOUS
 10
368.0194421636
 20
260.9925581458
 40
14.1583758598
100
AcDbArc
 50
135.6504044942
 51
148.6588462854
  0
ARC
  5
7CD
100
AcDbEntity
  8
MOVING_S3_0-1_FRONT
100
AcDbCircle
 62
1
  6
CONTINUOUS
 10
349.0850704924
 20
267.3413254534
 40
12.466436004
100
AcDbArc
 50
169.3193156811
 51
173.1509506721
  0
ARC
  5
7CE
100
AcDbEntity
  8
S3_EXTERN_HANDLE_FRONT
100
AcDbCircle
 62
5
  6
CONTINUOUS
 10
366.3860006011
 20
261.9603763975
 40
12.2030334547
100
AcDbArc
 50
135.2191821663
 51
144.6377793615
  0
ARC
  5
7CF
100
AcDbEntity
  8
S3_EXTERN_HANDLE_FRONT
100
AcDbCircle
 62
5
  6
CONTINUOUS
 10
363.7124452011
 20
264.6372189231
 40
8.4197841285
100
AcDbArc
 50
124.398317126
 51
135.3334850364
  0
ARC
  5
7D0
100
AcDbEntity
  8
S3_EXTERN_HANDLE_FRONT
100
AcDbCircle
 62
5
  6
CONTINUOUS
 10
363.7854646877
 20
265.204477171
 40
8.1865992956
100
AcDbArc
 50
119.4040089098
 51
136.0157120808
  0
ARC
  5
7D1
100
AcDbEntity
  8
S3_EXTERN_HANDLE_FRONT
100
AcDbCircle
 62
5
  6
CONTINUOUS
 10
358.7035332015
 20
266.8585300308
 40
6.9693765854
100
AcDbArc
 50
40.4243647924
 51
48.5752685622
  0
ARC
  5
7D2
100
AcDbEntity
  8
S3_EXTERN_HANDLE_FRONT
100
AcDbCircle
 62
5
  6
CONTINUOUS
 10
361.7214298803
 20
267.5897273516
 40
4.8588359693
100
AcDbArc
 50
107.5551927569
 51
124.694908468
  0
ARC
  5
7D3
100
AcDbEntity
  8
S3_EXTERN_HANDLE_FRONT
100
AcDbCircle
 62
5
  6
CONTINUOUS
 10
361.1795197146
 20
268.8726995955
 40
3.4745839134
100
AcDbArc
 50
86.4344346618
 51
105.416012828
  0
ARC
  5
7D4
100
AcDbEntity
  8
S3_EXTERN_HANDLE_FRONT
100
AcDbCircle
 62
5
  6
CONTINUOUS
 10
382.0375385581
 20
261.2928549182
 40
0.5000020023
100
AcDbArc
 50
89.6335344853
 51
180.021475933
  0
ARC
  5
7D5
100
AcDbEntity
  8
S3_EXTERN_HANDLE_FRONT
100
AcDbCircle
 62
5
  6
CONTINUOUS
 10
381.8752680336
 20
261.2833587627
 40
0.25
100
AcDbArc
 50
90.0
 51
180.0
  0
ARC
  5
7D6
100
AcDbEntity
  8
MOVING_S3_0-1_FRONT
100
AcDbCircle
 62
1
  6
CONTINUOUS
 10
302.3198011847
 20
273.0544302585
 40
22.6531216371
100
AcDbArc
 50
352.448391609
 51
353.8383083457
  0
ARC
  5
7D7
100
AcDbEntity
  8
MOVING_S3_0-1_FRONT
100
AcDbCircle
 62
1
  6
CONTINUOUS
 10
312.1387188718
 20
270.0365398007
 40
12.75012907
100
AcDbArc
 50
5.3001195585
 51
7.4888106704
  0
ARC
  5
7D8
100
AcDbEntity
  8
MOVING_S3_0-1_FRONT
100
AcDbCircle
 62
1
  6
CONTINUOUS
 10
313.2238371703
 20
271.2045474721
 40
12.7227260468
100
AcDbArc
 50
346.8219257905
 51
352.1012734623
  0
ARC
  5
7D9
100
AcDbEntity
  8
MOVING_S3_0-1_FRONT
100
AcDbCircle
 62
1
  6
CONTINUOUS
 10
320.1091998825
 20
270.2955216712
 40
5.7779490084
100
AcDbArc
 50
351.6470777933
 51
3.2156475229
  0
ARC
  5
7DA
100
AcDbEntity
  8
MOVING_S3_0-1_FRONT
100
AcDbCircle
 62
1
  6
CONTINUOUS
 10
320.3844954203
 20
270.8604923172
 40
4.4638831698
100
AcDbArc
 50
356.9498075202
 51
4.5460769529
  0
ARC
  5
7DB
100
AcDbEntity
  8
MOVING_S3_0-1_FRONT
100
AcDbCircle
 62
1
  6
CONTINUOUS
 10
327.4799954517
 20
271.4437335436
 40
4.3827907556
100
AcDbArc
 50
354.0866878289
 51
6.5853177868
  0
ARC
  5
7DC
100
AcDbEntity
  8
MOVING_S3_0-1_FRONT
100
AcDbCircle
 62
1
  6
CONTINUOUS
 10
338.8657423778
 20
270.7994059836
 40
3.2810617258
100
AcDbArc
 50
107.1101558472
 51
119.7074835221
  0
ARC
  5
7DD
100
AcDbEntity
  8
MOVING_S3_0-1_FRONT
100
AcDbCircle
 62
1
  6
CONTINUOUS
 10
327.7313651016
 20
270.51377191
 40
2.8606200188
100
AcDbArc
 50
184.5456001683
 51
191.3203250332
  0
ARC
  5
7DE
100
AcDbEntity
  8
MOVING_S3_0-1_FRONT
100
AcDbCircle
 62
1
  6
CONTINUOUS
 10
339.0538892606
 20
269.5372204044
 40
2.7088045811
100
AcDbArc
 50
164.3342690483
 51
173.7082106888
  0
ARC
  5
7DF
100
AcDbEntity
  8
MOVING_S3_0-1_FRONT
100
AcDbCircle
 62
1
  6
CONTINUOUS
 10
339.1125184294
 20
272.5106043761
 40
2.3743662677
100
AcDbArc
 50
167.5692059766
 51
175.7873859795
  0
ARC
  5
7E0
100
AcDbEntity
  8
MOVING_S3_0-1_FRONT
100
AcDbCircle
 62
1
  6
CONTINUOUS
 10
324.039230778
 20
269.9172060786
 40
2.2213576479
100
AcDbArc
 50
60.3169603995
 51
71.7401615997
  0
ARC
  5
7E1
100
AcDbEntity
  8
MOVING_S3_0-1_FRONT
100
AcDbCircle
 62
1
  6
CONTINUOUS
 10
324.0660001308
 20
269.9559264896
 40
2.174465809
100
AcDbArc
 50
45.9213749961
 51
60.4245243995
  0
ARC
  5
7E2
100
AcDbEntity
  8
MOVING_S3_0-1_FRONT
100
AcDbCircle
 62
1
  6
CONTINUOUS
 10
339.2434301683
 20
272.457903826
 40
1.7920606582
100
AcDbArc
 50
103.3387122839
 51
124.3843522476
  0
ARC
  5
7E3
100
AcDbEntity
  8
MOVING_S3_0-1_FRONT
100
AcDbCircle
 62
1
  6
CONTINUOUS
 10
338.1024682435
 20
269.4429946058
 40
1.781063687
100
AcDbArc
 50
168.6904814104
 51
185.6299093563
  0
ARC
  5
7E4
100
AcDbEntity
  8
MOVING_S3_0-1_FRONT
100
AcDbCircle
 62
1
  6
CONTINUOUS
 10
338.2225686792
 20
269.3631040731
 40
1.417663213
100
AcDbArc
 50
143.3435281668
 51
168.2501168628
  0
ARC
  5
7E5
100
AcDbEntity
  8
MOVING_S3_0-1_FRONT
100
AcDbCircle
 62
1
  6
CONTINUOUS
 10
337.8021394429
 20
269.899240568
 40
1.4058383636
100
AcDbArc
 50
146.4947281151
 51
164.7650232481
  0
ARC
  5
7E6
100
AcDbEntity
  8
MOVING_S3_0-1_FRONT
100
AcDbCircle
 62
1
  6
CONTINUOUS
 10
324.6441352672
 20
270.5461458664
 40
1.3482921603
100
AcDbArc
 50
27.3221012754
 51
46.122846576
  0
ARC
  5
7E7
100
AcDbEntity
  8
MOVING_S3_0-1_FRONT
100
AcDbCircle
 62
1
  6
CONTINUOUS
 10
338.1080142634
 20
269.3958105408
 40
1.3069179725
100
AcDbArc
 50
119.851828742
 51
141.4952167421
  0
ARC
  5
7E8
100
AcDbEntity
  8
MOVING_S3_0-1_FRONT
100
AcDbCircle
 62
1
  6
CONTINUOUS
 10
325.9498669835
 20
269.3817767086
 40
1.2092698685
100
AcDbArc
 50
113.9349127615
 51
135.4462131898
  0
ARC
  5
7E9
100
AcDbEntity
  8
MOVING_S3_0-1_FRONT
100
AcDbCircle
 62
1
  6
CONTINUOUS
 10
337.6109620271
 20
269.9931215878
 40
1.1949151136
100
AcDbArc
 50
119.2429414528
 51
145.1879254829
  0
ARC
  5
7EA
100
AcDbEntity
  8
MOVING_S3_0-1_FRONT
100
AcDbCircle
 62
1
  6
CONTINUOUS
 10
338.9912427755
 20
272.8217448775
 40
1.1588013491
100
AcDbArc
 50
110.6055430643
 51
136.2969865033
  0
ARC
  5
7EB
100
AcDbEntity
  8
MOVING_S3_0-1_FRONT
100
AcDbCircle
 62
1
  6
CONTINUOUS
 10
326.7848028786
 20
270.5719680053
 40
0.9234841501
100
AcDbArc
 50
164.8737584214
 51
171.7782438482
  0
ARC
  5
7EC
100
AcDbEntity
  8
MOVING_S3_0-1_FRONT
100
AcDbCircle
 62
1
  6
CONTINUOUS
 10
337.6273742762
 20
272.9015677395
 40
0.8421729808
100
AcDbArc
 50
117.4051176685
 51
171.7982817961
  0
ARC
  5
7ED
100
AcDbEntity
  8
MOVING_S3_0-1_FRONT
100
AcDbCircle
 62
1
  6
CONTINUOUS
 10
338.597947577
 20
273.2521457144
 40
0.7766403668
100
AcDbArc
 50
118.1637332989
 51
168.6086663637
  0
ARC
  5
7EE
100
AcDbEntity
  8
MOVING_S3_0-1_FRONT
100
AcDbCircle
 62
1
  6
CONTINUOUS
 10
337.0796633098
 20
269.3846915058
 40
0.758653921
100
AcDbArc
 50
188.8275313889
 51
207.8693211528
  0
ARC
  5
7EF
100
AcDbEntity
  8
MOVING_S3_0-1_FRONT
100
AcDbCircle
 62
1
  6
CONTINUOUS
 10
325.1922013887
 20
270.8389544675
 40
0.7270219553
100
AcDbArc
 50
10.7342939935
 51
26.6455256859
  0
ARC
  5
7F0
100
AcDbEntity
  8
MOVING_S3_0-1_FRONT
100
AcDbCircle
 62
1
  6
CONTINUOUS
 10
336.8956769652
 20
270.1238706949
 40
0.6819595248
100
AcDbArc
 50
240.9800919414
 51
261.559057553
  0
ARC
  5
7F1
100
AcDbEntity
  8
MOVING_S3_0-1_FRONT
100
AcDbCircle
 62
1
  6
CONTINUOUS
 10
325.5472094013
 20
269.7769694881
 40
0.6450810753
100
AcDbArc
 50
135.3676399507
 51
164.2334992561
  0
ARC
  5
7F2
100
AcDbEntity
  8
MOVING_S3_0-1_FRONT
100
AcDbCircle
 62
1
  6
CONTINUOUS
 10
337.6138897256
 20
271.0978837154
 40
0.5899410773
100
AcDbArc
 50
186.0455006162
 51
216.6281684045
  0
ARC
  5
7F3
100
AcDbEntity
  8
MOVING_S3_0-1_FRONT
100
AcDbCircle
 62
1
  6
CONTINUOUS
 10
337.5904573394
 20
271.0642866108
 40
0.5512442246
100
AcDbArc
 50
215.2786790202
 51
256.0412540361
  0
ARC
  5
7F4
100
AcDbEntity
  8
MOVING_S3_0-1_FRONT
100
AcDbCircle
 62
1
  6
CONTINUOUS
 10
338.5349014269
 20
273.2841017551
 40
0.509798877
100
AcDbArc
 50
138.4279760042
 51
173.2314187613
  0
ARC
  5
7F5
100
AcDbEntity
  8
MOVING_S3_0-1_FRONT
100
AcDbCircle
 62
1
  6
CONTINUOUS
 10
331.3687881024
 20
272.0290768806
 40
0.4723792046
100
AcDbArc
 50
349.9155305644
 51
48.4396728573
  0
ARC
  5
7F6
100
AcDbEntity
  8
MOVING_S3_0-1_FRONT
100
AcDbCircle
 62
1
  6
CONTINUOUS
 10
336.7836462063
 20
269.9305269141
 40
0.4585611678
100
AcDbArc
 50
216.2408442135
 51
241.5013469538
  0
ARC
  5
7F7
100
AcDbEntity
  8
MOVING_S3_0-1_FRONT
100
AcDbCircle
 62
1
  6
CONTINUOUS
 10
325.1873290198
 20
270.3424044681
 40
0.4448921381
100
AcDbArc
 50
112.4531570564
 51
140.9035634044
  0
ARC
  5
7F8
100
AcDbEntity
  8
MOVING_S3_0-1_FRONT
100
AcDbCircle
 62
1
  6
CONTINUOUS
 10
325.5124181492
 20
270.9253130297
 40
0.3971245271
100
AcDbArc
 50
343.563872596
 51
7.0952790425
  0
ARC
  5
7F9
100
AcDbEntity
  8
MOVING_S3_0-1_FRONT
100
AcDbCircle
 62
1
  6
CONTINUOUS
 10
336.6269927626
 20
269.8185813104
 40
0.2660440877
100
AcDbArc
 50
176.6595540246
 51
216.7409208662
  0
ARC
  5
7FA
100
AcDbEntity
  8
MOVING_S3_0-1_FRONT
100
AcDbCircle
 62
1
  6
CONTINUOUS
 10
326.0642484838
 20
270.6778314645
 40
0.1952043243
100
AcDbArc
 50
172.2868238323
 51
194.9456691146
  0
ARC
  5
7FB
100
AcDbEntity
  8
MOVING_S3_0-1_FRONT
100
AcDbCircle
 62
1
  6
CONTINUOUS
 10
325.8873017405
 20
270.6267570088
 40
0.0116768617
100
AcDbArc
 50
176.4123840447
 51
217.6090271519
  0
ARC
  5
7FC
100
AcDbEntity
  8
S3_EXTERN_HANDLE_FRONT
100
AcDbCircle
 62
5
  6
CONTINUOUS
 10
382.1676649005
 20
270.257604624
 40
67.6210889188
100
AcDbArc
 50
266.6292460381
 51
268.5969844153
  0
ARC
  5
7FD
100
AcDbEntity
  8
S3_EXTERN_HANDLE_FRONT
100
AcDbCircle
 62
5
  6
CONTINUOUS
 10
361.5233090144
 20
269.3217142313
 40
3.4894762976
100
AcDbArc
 50
87.0742573897
 51
120.2360934538
  0
ARC
  5
7FE
100
AcDbEntity
  8
S3_EXTERN_HANDLE_FRONT
100
AcDbCircle
 62
5
  6
CONTINUOUS
 10
361.4089074973
 20
269.9904310997
 40
2.8313612458
100
AcDbArc
 50
47.6925655741
 51
84.0701475878
  0
ARC
  5
7FF
100
AcDbEntity
  8
S3_EXTERN_HANDLE_FRONT
100
AcDbCircle
 62
5
  6
CONTINUOUS
 10
361.2517753492
 20
270.0322905487
 40
2.3127439693
100
AcDbArc
 50
44.6883547836
 51
86.4344346618
  0
ARC
  5
800
100
AcDbEntity
  8
S3_EXTERN_HANDLE_FRONT
100
AcDbCircle
 62
5
  6
CONTINUOUS
 10
365.2179164542
 20
271.8352300185
 40
1.3127727244
100
AcDbArc
 50
213.4123013204
 51
216.8358995198
  0
ARC
  5
801
100
AcDbEntity
  8
S3_EXTERN_HANDLE_FRONT
100
AcDbCircle
 62
5
  6
CONTINUOUS
 10
364.9161886706
 20
271.6441880446
 40
0.9557357798
100
AcDbArc
 50
204.3961290642
 51
213.8128270981
  0
ARC
  5
802
100
AcDbEntity
  8
S3_EXTERN_HANDLE_FRONT
100
AcDbCircle
 62
5
  6
CONTINUOUS
 10
364.535884801
 20
270.8596443918
 40
0.7389234607
100
AcDbArc
 50
135.4769084217
 51
161.8830260069
  0
ARC
  5
803
100
AcDbEntity
  8
S3_EXTERN_HANDLE_FRONT
100
AcDbCircle
 62
5
  6
CONTINUOUS
 10
364.5359789805
 20
270.8624774091
 40
0.73813704
100
AcDbArc
 50
162.0943025082
 51
198.8482532537
  0
ARC
  5
804
100
AcDbEntity
  8
S3_EXTERN_HANDLE_FRONT
100
AcDbCircle
 62
5
  6
CONTINUOUS
 10
364.4141029381
 20
271.4242697498
 40
0.4077066444
100
AcDbArc
 50
186.5482322487
 51
205.3940701057
  0
ARC
  5
805
100
AcDbEntity
  8
S3_EXTERN_HANDLE_FRONT
100
AcDbCircle
 62
5
  6
CONTINUOUS
 10
364.3330586669
 20
270.8651589233
 40
0.2469798677
100
AcDbArc
 50
132.1768710178
 51
204.1691553309
  0
ARC
  5
806
100
AcDbEntity
  8
S3_EXTERN_HANDLE_FRONT
100
AcDbCircle
 62
5
  6
CONTINUOUS
 10
381.0090421048
 20
290.7345615556
 40
99.6556710235
100
AcDbArc
 50
279.65432548
 51
280.6963401739
  0
ARC
  5
807
100
AcDbEntity
  8
S3_EXTERN_HANDLE_FRONT
100
AcDbCircle
 62
5
  6
CONTINUOUS
 10
381.6714242139
 20
289.2600462347
 40
99.6466940446
100
AcDbArc
 50
278.1417159801
 51
280.735813584
  0
ARC
  5
808
100
AcDbEntity
  8
S3_EXTERN_HANDLE_FRONT
100
AcDbCircle
 62
5
  6
CONTINUOUS
 10
373.038768866
 20
284.5025997453
 40
13.7148149076
100
AcDbArc
 50
344.2399781475
 51
349.1946299031
  0
ARC
  5
809
100
AcDbEntity
  8
S3_EXTERN_HANDLE_FRONT
100
AcDbCircle
 62
5
  6
CONTINUOUS
 10
383.4437212922
 20
285.9256932987
 40
3.9873971103
100
AcDbArc
 50
39.9742199734
 51
47.7906037178
  0
ARC
  5
80A
100
AcDbEntity
  8
S3_EXTERN_HANDLE_FRONT
100
AcDbCircle
 62
5
  6
CONTINUOUS
 10
383.247329722
 20
281.5725489265
 40
3.0945488355
100
AcDbArc
 50
330.640140385
 51
345.1133436833
  0
ARC
  5
80B
100
AcDbEntity
  8
MOVING_S3_0-1_FRONT
100
AcDbCircle
 62
1
  6
CONTINUOUS
 10
209.0248354076
 20
340.858785582
 40
130.9341772767
100
AcDbArc
 50
11.7429618917
 51
11.9604893829
  0
ARC
  5
80C
100
AcDbEntity
  8
S3_EXTERN_HANDLE_FRONT
100
AcDbCircle
 62
5
  6
CONTINUOUS
 10
380.8150326718
 20
344.4805039218
 40
45.4456427405
100
AcDbArc
 50
93.8305952977
 51
102.9949706228
  0
ARC
  5
80D
100
AcDbEntity
  8
MOVING_S3_0-1_FRONT
100
AcDbCircle
 62
1
  6
CONTINUOUS
 10
339.3903269917
 20
337.1337769965
 40
35.7961903942
100
AcDbArc
 50
89.9155059938
 51
94.5313007943
  0
ARC
  5
80E
100
AcDbEntity
  8
MOVING_S3_0-1_FRONT
100
AcDbCircle
 62
1
  6
CONTINUOUS
 10
377.9228750894
 20
330.5876340107
 40
33.3005053734
100
AcDbArc
 50
147.9891843167
 51
150.0074699892
  0
ARC
  5
80F
100
AcDbEntity
  8
MOVING_S3_0-1_FRONT
100
AcDbCircle
 62
1
  6
CONTINUOUS
 10
377.9223675424
 20
330.5879418599
 40
33.2999122612
100
AcDbArc
 50
153.196565867
 51
156.2357804438
  0
ARC
  5
810
100
AcDbEntity
  8
MOVING_S3_0-1_FRONT
100
AcDbCircle
 62
1
  6
CONTINUOUS
 10
377.9221604261
 20
330.5880464975
 40
33.2996802134
100
AcDbArc
 50
150.0074699892
 51
153.196565867
  0
ARC
  5
811
100
AcDbEntity
  8
MOVING_S3_0-1_FRONT
100
AcDbCircle
 62
1
  6
CONTINUOUS
 10
377.922344474
 20
330.5879506128
 40
32.7998876216
100
AcDbArc
 50
147.893088851
 51
156.2357790041
  0
ARC
  5
812
100
AcDbEntity
  8
S3_EXTERN_HANDLE_FRONT
100
AcDbCircle
 62
5
  6
CONTINUOUS
 10
378.0107121576
 20
331.1945349876
 40
31.3000132688
100
AcDbArc
 50
150.3007745515
 51
179.3430796696
  0
ARC
  5
813
100
AcDbEntity
  8
MOVING_S3_0-1_FRONT
100
AcDbCircle
 62
1
  6
CONTINUOUS
 10
332.0703361949
 20
345.6034073907
 40
9.0792144966
100
AcDbArc
 50
72.1707755487
 51
74.6491104796
  0
ARC
  5
814
100
AcDbEntity
  8
S3_EXTERN_HANDLE_FRONT
100
AcDbCircle
 62
5
  6
CONTINUOUS
 10
375.1201609677
 20
346.7414115825
 40
7.8013687212
100
AcDbArc
 50
80.2117071385
 51
84.9111037364
  0
ARC
  5
815
100
AcDbEntity
  8
MOVING_S3_0-1_FRONT
100
AcDbCircle
 62
1
  6
CONTINUOUS
 10
338.5357658386
 20
345.9675602616
 40
6.7429335777
100
AcDbArc
 50
66.5374454445
 51
74.6160950482
  0
ARC
  5
816
100
AcDbEntity
  8
S3_EXTERN_HANDLE_FRONT
100
AcDbCircle
 62
5
  6
CONTINUOUS
 10
379.0841025478
 20
348.1684561663
 40
5.9245232662
100
AcDbArc
 50
79.7617000365
 51
85.4999698447
  0
ARC
  5
817
100
AcDbEntity
  8
MOVING_S3_0-1_FRONT
100
AcDbCircle
 62
1
  6
CONTINUOUS
 10
332.9454531145
 20
348.8530473374
 40
5.7138671112
100
AcDbArc
 50
74.4848500335
 51
81.0766935376
  0
ARC
  5
818
100
AcDbEntity
  8
S3_EXTERN_HANDLE_FRONT
100
AcDbCircle
 62
5
  6
CONTINUOUS
 10
379.0701775929
 20
348.6405400217
 40
5.4183415379
100
AcDbArc
 50
78.7713258047
 51
85.1207512151
  0
ARC
  5
819
100
AcDbEntity
  8
MOVING_S3_0-1_FRONT
100
AcDbCircle
 62
1
  6
CONTINUOUS
 10
346.0730866902
 20
344.6113955407
 40
1.9999992029
100
AcDbArc
 50
205.0000001218
 51
336.2357446177
  0
ARC
  5
81A
100
AcDbEntity
  8
MOVING_S3_0-1_FRONT
100
AcDbCircle
 62
1
  6
CONTINUOUS
 10
346.073088168
 20
344.6113958537
 40
1.4999994999
100
AcDbArc
 50
205.0000008883
 51
336.2357804438
  0
ARC
  5
81B
100
AcDbEntity
  8
S3_EXTERN_HANDLE_FRONT
100
AcDbCircle
 62
5
  6
CONTINUOUS
 10
351.0804672897
 20
346.5576122124
 40
0.2957942679
100
AcDbArc
 50
89.525561583
 51
150.7751360978
  0
ARC
  5
81C
100
AcDbEntity
  8
S3_EXTERN_HANDLE_FRONT
100
AcDbCircle
 62
5
  6
CONTINUOUS
 10
399.0224161809
 20
165.4042417148
 40
34.1817283734
100
AcDbArc
 50
79.1223532909
 51
80.5020086606
  0
ARC
  5
81D
100
AcDbEntity
  8
S3_EXTERN_HANDLE_FRONT
100
AcDbCircle
 62
5
  6
CONTINUOUS
 10
400.2482557386
 20
162.5432127253
 40
29.7962848803
100
AcDbArc
 50
83.3082353642
 51
83.9582092648
  0
ARC
  5
81E
100
AcDbEntity
  8
S3_EXTERN_HANDLE_FRONT
100
AcDbCircle
 62
5
  6
CONTINUOUS
 10
401.8093113147
 20
168.8779031945
 40
23.3887454041
100
AcDbArc
 50
81.8521183222
 51
82.6641072392
  0
ARC
  5
81F
100
AcDbEntity
  8
S3_EXTERN_HANDLE_FRONT
100
AcDbCircle
 62
5
  6
CONTINUOUS
 10
405.9682440318
 20
171.519400351
 40
20.5169765119
100
AcDbArc
 50
92.375410928
 51
99.3873309779
  0
ARC
  5
820
100
AcDbEntity
  8
S3_EXTERN_HANDLE_FRONT
100
AcDbCircle
 62
5
  6
CONTINUOUS
 10
403.1416903311
 20
179.4328161177
 40
12.75012907
100
AcDbArc
 50
82.5461865038
 51
84.7348776157
  0
ARC
  5
821
100
AcDbEntity
  8
S3_EXTERN_HANDLE_FRONT
100
AcDbCircle
 62
5
  6
CONTINUOUS
 10
404.3090349772
 20
180.5186476513
 40
12.7227260468
100
AcDbArc
 50
97.9337237119
 51
103.2130713837
  0
ARC
  5
822
100
AcDbEntity
  8
S3_EXTERN_HANDLE_FRONT
100
AcDbCircle
 62
5
  6
CONTINUOUS
 10
401.9079007737
 20
180.4482192463
 40
11.8388474307
100
AcDbArc
 50
90.1678511886
 51
95.2164357751
  0
ARC
  5
823
100
AcDbEntity
  8
S3_EXTERN_HANDLE_FRONT
100
AcDbCircle
 62
5
  6
CONTINUOUS
 10
401.6034742161
 20
193.8591018822
 40
10.5796251299
100
AcDbArc
 50
93.5362038306
 51
96.8735049128
  0
ARC
  5
824
100
AcDbEntity
  8
S3_EXTERN_HANDLE_FRONT
100
AcDbCircle
 62
5
  6
CONTINUOUS
 10
401.900722918
 20
182.3464769389
 40
9.9405769873
100
AcDbArc
 50
83.3633021154
 51
90.1585323411
  0
ARC
  5
825
100
AcDbEntity
  8
S3_EXTERN_HANDLE_FRONT
100
AcDbCircle
 62
5
  6
CONTINUOUS
 10
404.5712013945
 20
182.7810341673
 40
9.3940830249
100
AcDbArc
 50
95.1963101084
 51
98.6109571218
  0
ARC
  5
826
100
AcDbEntity
  8
S3_EXTERN_HANDLE_FRONT
100
AcDbCircle
 62
5
  6
CONTINUOUS
 10
401.581657986
 20
183.176455418
 40
9.0925739402
100
AcDbArc
 50
94.7321994647
 51
101.3029769435
  0
ARC
  5
827
100
AcDbEntity
  8
S3_EXTERN_HANDLE_FRONT
100
AcDbCircle
 62
5
  6
CONTINUOUS
 10
403.3958036569
 20
187.4034538317
 40
5.7779490084
100
AcDbArc
 50
86.8193496513
 51
98.3879193809
  0
ARC
  5
828
100
AcDbEntity
  8
S3_EXTERN_HANDLE_FRONT
100
AcDbCircle
 62
5
  6
CONTINUOUS
 10
399.1975083351
 20
193.804056905
 40
4.9107544804
100
AcDbArc
 50
349.3085101691
 51
352.9477616283
  0
ARC
  5
829
100
AcDbEntity
  8
S3_EXTERN_HANDLE_FRONT
100
AcDbCircle
 62
5
  6
CONTINUOUS
 10
403.9606060427
 20
187.6790944112
 40
4.4638831698
100
AcDbArc
 50
85.4889202214
 51
93.085189654
  0
ARC
  5
82A
100
AcDbEntity
  8
S3_EXTERN_HANDLE_FRONT
100
AcDbCircle
 62
5
  6
CONTINUOUS
 10
404.1602169059
 20
194.7635120894
 40
4.3827907556
100
AcDbArc
 50
83.4146822132
 51
90.9698452606
  0
ARC
  5
82B
100
AcDbEntity
  8
S3_EXTERN_HANDLE_FRONT
100
AcDbCircle
 62
5
  6
CONTINUOUS
 10
400.5735397955
 20
193.5380516995
 40
3.5092662748
100
AcDbArc
 50
344.3235221844
 51
349.4081894662
  0
ARC
  5
82C
100
AcDbEntity
  8
S3_EXTERN_HANDLE_FRONT
100
AcDbCircle
 62
5
  6
CONTINUOUS
 10
403.6093981155
 20
195.0257509397
 40
2.8606200188
100
AcDbArc
 50
258.7146721411
 51
265.4893970059
  0
ARC
  5
82D
100
AcDbEntity
  8
S3_EXTERN_HANDLE_FRONT
100
AcDbCircle
 62
5
  6
CONTINUOUS
 10
403.0150876097
 20
191.3332529129
 40
2.2213576479
100
AcDbArc
 50
18.2948355745
 51
29.7180367747
  0
ARC
  5
82E
100
AcDbEntity
  8
S3_EXTERN_HANDLE_FRONT
100
AcDbCircle
 62
5
  6
CONTINUOUS
 10
403.0537916623
 20
191.3600459117
 40
2.174465809
100
AcDbArc
 50
29.6104727747
 51
44.1136221781
  0
ARC
  5
82F
100
AcDbEntity
  8
S3_EXTERN_HANDLE_FRONT
100
AcDbCircle
 62
5
  6
CONTINUOUS
 10
401.9360996479
 20
193.5045563759
 40
1.8109916606
100
AcDbArc
 50
335.5030406912
 51
349.4347676631
  0
ARC
  5
830
100
AcDbEntity
  8
S3_EXTERN_HANDLE_FRONT
100
AcDbCircle
 62
5
  6
CONTINUOUS
 10
402.2499211014
 20
193.0535827687
 40
1.7643872093
100
AcDbArc
 50
335.1431900363
 51
344.7613037998
  0
ARC
  5
831
100
AcDbEntity
  8
S3_EXTERN_HANDLE_FRONT
100
AcDbCircle
 62
5
  6
CONTINUOUS
 10
401.2086237177
 20
192.8211495258
 40
1.6149951747
100
AcDbArc
 50
191.1193903602
 51
199.2885927342
  0
ARC
  5
832
100
AcDbEntity
  8
S3_EXTERN_HANDLE_FRONT
100
AcDbCircle
 62
5
  6
CONTINUOUS
 10
403.6436577949
 20
191.9385414557
 40
1.3482921603
100
AcDbArc
 50
43.9121505983
 51
62.7128958989
  0
ARC
  5
833
100
AcDbEntity
  8
S3_EXTERN_HANDLE_FRONT
100
AcDbCircle
 62
5
  6
CONTINUOUS
 10
402.4784912925
 20
193.2435617132
 40
1.2092698685
100
AcDbArc
 50
314.5887839844
 51
336.1000844128
  0
ARC
  5
834
100
AcDbEntity
  8
S3_EXTERN_HANDLE_FRONT
100
AcDbCircle
 62
5
  6
CONTINUOUS
 10
398.3791573962
 20
192.5726554514
 40
1.1511932958
100
AcDbArc
 50
3.6742874492
 51
11.9202317765
  0
ARC
  5
835
100
AcDbEntity
  8
S3_EXTERN_HANDLE_FRONT
100
AcDbCircle
 62
5
  6
CONTINUOUS
 10
403.6681723751
 20
194.0792244403
 40
0.9234841501
100
AcDbArc
 50
278.256753326
 51
285.1612387529
  0
ARC
  5
836
100
AcDbEntity
  8
S3_EXTERN_HANDLE_FRONT
100
AcDbCircle
 62
5
  6
CONTINUOUS
 10
403.9361315738
 20
192.486786327
 40
0.7270219553
100
AcDbArc
 50
63.3894714883
 51
79.3007031807
  0
ARC
  5
837
100
AcDbEntity
  8
S3_EXTERN_HANDLE_FRONT
100
AcDbCircle
 62
5
  6
CONTINUOUS
 10
402.873929948
 20
192.8411455962
 40
0.6450810753
100
AcDbArc
 50
285.8014979181
 51
314.6673572235
  0
ARC
  5
838
100
AcDbEntity
  8
S3_EXTERN_HANDLE_FRONT
100
AcDbCircle
 62
5
  6
CONTINUOUS
 10
400.2422148125
 20
192.4612502699
 40
0.584308249
100
AcDbArc
 50
197.2812908682
 51
215.5862179109
  0
ARC
  5
839
100
AcDbEntity
  8
S3_EXTERN_HANDLE_FRONT
100
AcDbCircle
 62
5
  6
CONTINUOUS
 10
399.0000223397
 20
192.6064985196
 40
0.5294698984
100
AcDbArc
 50
351.8021917545
 51
4.3251294376
  0
ARC
  5
83A
100
AcDbEntity
  8
S3_EXTERN_HANDLE_FRONT
100
AcDbCircle
 62
5
  6
CONTINUOUS
 10
403.4395882227
 20
192.4815853194
 40
0.4448921381
100
AcDbArc
 50
309.1313513888
 51
337.5817577368
  0
ARC
  5
83B
100
AcDbEntity
  8
S3_EXTERN_HANDLE_FRONT
100
AcDbCircle
 62
5
  6
CONTINUOUS
 10
404.0222945265
 20
192.807055777
 40
0.3971245271
100
AcDbArc
 50
82.9397181317
 51
106.4711245782
  0
ARC
  5
83C
100
AcDbEntity
  8
S3_EXTERN_HANDLE_FRONT
100
AcDbCircle
 62
5
  6
CONTINUOUS
 10
403.7744759406
 20
193.358734843
 40
0.1952043243
100
AcDbArc
 50
255.0893280596
 51
277.7481733419
  0
ARC
  5
83D
100
AcDbEntity
  8
S3_EXTERN_HANDLE_FRONT
100
AcDbCircle
 62
5
  6
CONTINUOUS
 10
399.8901539505
 20
192.2286299251
 40
0.1633856878
100
AcDbArc
 50
221.0994926429
 51
236.3166912801
  0
ARC
  5
83E
100
AcDbEntity
  8
S3_EXTERN_HANDLE_FRONT
100
AcDbCircle
 62
5
  6
CONTINUOUS
 10
399.4014253909
 20
192.5483677151
 40
0.12387994
100
AcDbArc
 50
331.8830335293
 51
351.94109057
  0
ARC
  5
83F
100
AcDbEntity
  8
S3_EXTERN_HANDLE_FRONT
100
AcDbCircle
 62
5
  6
CONTINUOUS
 10
399.4868532625
 20
192.5022054552
 40
0.0267824672
100
AcDbArc
 50
286.5146247651
 51
332.8557639098
  0
ARC
  5
840
100
AcDbEntity
  8
S3_EXTERN_HANDLE_FRONT
100
AcDbCircle
 62
5
  6
CONTINUOUS
 10
399.4904323713
 20
192.4973472928
 40
0.0212066832
100
AcDbArc
 50
241.6598428505
 51
280.9660141748
  0
ARC
  5
841
100
AcDbEntity
  8
S3_EXTERN_HANDLE_FRONT
100
AcDbCircle
 62
5
  6
CONTINUOUS
 10
403.7235095764
 20
193.1817569356
 40
0.0116768617
100
AcDbArc
 50
232.4259700215
 51
273.6226131287
  0
ARC
  5
842
100
AcDbEntity
  8
S3_EXTERN_HANDLE_FRONT
100
AcDbCircle
 62
5
  6
CONTINUOUS
 10
565.4163353723
 20
185.9679695122
 40
167.9725093761
100
AcDbArc
 50
151.8828359163
 51
152.8006432444
  0
ARC
  5
843
100
AcDbEntity
  8
S3_EXTERN_HANDLE_FRONT
100
AcDbCircle
 62
5
  6
CONTINUOUS
 10
546.3209494358
 20
181.1213515253
 40
141.6129756578
100
AcDbArc
 50
162.1034251306
 51
167.9082913079
  0
ARC
  5
844
100
AcDbEntity
  8
S3_EXTERN_HANDLE_FRONT
100
AcDbCircle
 62
5
  6
CONTINUOUS
 10
542.0229836255
 20
192.5944799733
 40
133.8925323425
100
AcDbArc
 50
159.7292080506
 51
159.7496757802
  0
ARC
  5
845
100
AcDbEntity
  8
S3_EXTERN_HANDLE_FRONT
100
AcDbCircle
 62
5
  6
CONTINUOUS
 10
516.5016305682
 20
187.8059314195
 40
110.9188743019
100
AcDbArc
 50
165.9031401322
 51
169.9592496138
  0
ARC
  5
846
100
AcDbEntity
  8
S3_EXTERN_HANDLE_FRONT
100
AcDbCircle
 62
5
  6
CONTINUOUS
 10
393.0755055319
 20
203.9718405357
 40
1.4706309711
100
AcDbArc
 50
2.6000580632
 51
4.5251861563
  0
ARC
  5
847
100
AcDbEntity
  8
S3_EXTERN_HANDLE_FRONT
100
AcDbCircle
 62
5
  6
CONTINUOUS
 10
393.3694162876
 20
203.9818361034
 40
1.1765741132
100
AcDbArc
 50
358.3290289523
 51
2.7630811773
  0
ARC
  5
848
100
AcDbEntity
  8
S3_EXTERN_HANDLE_FRONT
100
AcDbCircle
 62
5
  6
CONTINUOUS
 10
389.7851371226
 20
203.5015972221
 40
1.0529208109
100
AcDbArc
 50
1.4898836277
 51
6.692734698
  0
ARC
  5
849
100
AcDbEntity
  8
S3_EXTERN_HANDLE_FRONT
100
AcDbCircle
 62
5
  6
CONTINUOUS
 10
389.8070798239
 20
203.5041720763
 40
1.0308275537
100
AcDbArc
 50
6.6927346979
 51
8.7413236299
  0
ARC
  5
84A
100
AcDbEntity
  8
S3_EXTERN_HANDLE_FRONT
100
AcDbCircle
 62
5
  6
CONTINUOUS
 10
389.5859414813
 20
202.9121663773
 40
0.5666764849
100
AcDbArc
 50
182.602795634
 51
260.8878340939
  0
ARC
  5
84B
100
AcDbEntity
  8
S3_EXTERN_HANDLE_FRONT
100
AcDbCircle
 62
5
  6
CONTINUOUS
 10
394.0646784492
 20
203.9595636445
 40
0.4809622564
100
AcDbArc
 50
352.2742914739
 51
358.5660065992
  0
ARC
  5
84C
100
AcDbEntity
  8
S3_EXTERN_HANDLE_FRONT
100
AcDbCircle
 62
5
  6
CONTINUOUS
 10
396.438952903
 20
203.8562944877
 40
0.4796949836
100
AcDbArc
 50
168.9451714538
 51
177.3861695648
  0
ARC
  5
84D
100
AcDbEntity
  8
S3_EXTERN_HANDLE_FRONT
100
AcDbCircle
 62
5
  6
CONTINUOUS
 10
392.8952595576
 20
203.9637937877
 40
0.3972787998
100
AcDbArc
 50
344.7944409167
 51
2.915754554
  0
ARC
  5
84E
100
AcDbEntity
  8
S3_EXTERN_HANDLE_FRONT
100
AcDbCircle
 62
5
  6
CONTINUOUS
 10
389.620372517
 20
202.9111578901
 40
0.308079338
100
AcDbArc
 50
182.2692179616
 51
270.4931165307
  0
ARC
  5
84F
100
AcDbEntity
  8
S3_EXTERN_HANDLE_FRONT
100
AcDbCircle
 62
5
  6
CONTINUOUS
 10
389.8693372999
 20
203.9033868601
 40
0.2457273813
100
AcDbArc
 50
179.9980624117
 51
271.5747345432
  0
ARC
  5
850
100
AcDbEntity
  8
S3_EXTERN_HANDLE_FRONT
100
AcDbCircle
 62
5
  6
CONTINUOUS
 10
393.113134641
 20
203.905851851
 40
0.1718385327
100
AcDbArc
 50
327.7176945521
 51
344.3838414242
  0
ARC
  5
851
100
AcDbEntity
  8
S3_EXTERN_HANDLE_FRONT
100
AcDbCircle
 62
5
  6
CONTINUOUS
 10
394.443710562
 20
203.905965849
 40
0.0981891399
100
AcDbArc
 50
337.9697679262
 51
353.5334567582
  0
ARC
  5
852
100
AcDbEntity
  8
S3_EXTERN_HANDLE_FRONT
100
AcDbCircle
 62
5
  6
CONTINUOUS
 10
390.7549858544
 20
203.649921829
 40
0.0717817607
100
AcDbArc
 50
8.7413236301
 51
23.7545988126
  0
ARC
  5
853
100
AcDbEntity
  8
S3_EXTERN_HANDLE_FRONT
100
AcDbCircle
 62
5
  6
CONTINUOUS
 10
396.0266867945
 20
203.9368403972
 40
0.0596342883
100
AcDbArc
 50
158.0080753428
 51
168.9451714534
  0
ARC
  5
854
100
AcDbEntity
  8
S3_EXTERN_HANDLE_FRONT
100
AcDbCircle
 62
5
  6
CONTINUOUS
 10
393.2094364454
 20
203.8417164584
 40
0.0562373928
100
AcDbArc
 50
284.2931857726
 51
330.5591524931
  0
ARC
  5
855
100
AcDbEntity
  8
S3_EXTERN_HANDLE_FRONT
100
AcDbCircle
 62
5
  6
CONTINUOUS
 10
395.9764108757
 20
203.9571449447
 40
0.0054130502
100
AcDbArc
 50
87.0488282409
 51
158.0080753431
  0
ARC
  5
856
100
AcDbEntity
  8
S3_EXTERN_HANDLE_FRONT
100
AcDbCircle
 62
5
  6
CONTINUOUS
 10
389.001758586
 20
220.2255351293
 40
171.6231529419
100
AcDbArc
 50
91.7952161256
 51
93.818902868
  0
ARC
  5
857
100
AcDbEntity
  8
S3_EXTERN_HANDLE_FRONT
100
AcDbCircle
 62
5
  6
CONTINUOUS
 10
390.7189848847
 20
212.4908479853
 40
27.1462834301
100
AcDbArc
 50
189.6706598325
 51
193.5872058976
  0
ARC
  5
858
100
AcDbEntity
  8
S3_EXTERN_HANDLE_FRONT
100
AcDbCircle
 62
5
  6
CONTINUOUS
 10
403.8882250973
 20
206.160307297
 40
3.2810617258
100
AcDbArc
 50
330.3275348577
 51
342.9248625325
  0
ARC
  5
859
100
AcDbEntity
  8
S3_EXTERN_HANDLE_FRONT
100
AcDbCircle
 62
5
  6
CONTINUOUS
 10
402.6283827584
 20
206.3374030987
 40
2.7088045811
100
AcDbArc
 50
276.2917797724
 51
285.6657214129
  0
ARC
  5
85A
100
AcDbEntity
  8
S3_EXTERN_HANDLE_FRONT
100
AcDbCircle
 62
5
  6
CONTINUOUS
 10
405.5992723442
 20
206.408129163
 40
2.3743662677
100
AcDbArc
 50
274.2476324002
 51
282.4658124031
  0
ARC
  5
85B
100
AcDbEntity
  8
S3_EXTERN_HANDLE_FRONT
100
AcDbCircle
 62
5
  6
CONTINUOUS
 10
402.1722299822
 20
205.4299439682
 40
2.2524211023
100
AcDbArc
 50
330.2056814397
 51
344.7424106578
  0
ARC
  5
85C
100
AcDbEntity
  8
S3_EXTERN_HANDLE_FRONT
100
AcDbCircle
 62
5
  6
CONTINUOUS
 10
404.9702101578
 20
206.8005043471
 40
2.2353158338
100
AcDbArc
 50
328.8295474174
 51
330.3529132004
  0
ARC
  5
85D
100
AcDbEntity
  8
S3_EXTERN_HANDLE_FRONT
100
AcDbCircle
 62
5
  6
CONTINUOUS
 10
401.0868042502
 20
202.2092186686
 40
2.2135390597
100
AcDbArc
 50
82.8160174052
 51
93.5191847218
  0
ARC
  5
85E
100
AcDbEntity
  8
S3_EXTERN_HANDLE_FRONT
100
AcDbCircle
 62
5
  6
CONTINUOUS
 10
405.1728186689
 20
206.5262857341
 40
1.7920606582
100
AcDbArc
 50
325.6137101641
 51
346.6593501278
  0
ARC
  5
85F
100
AcDbEntity
  8
S3_EXTERN_HANDLE_FRONT
100
AcDbCircle
 62
5
  6
CONTINUOUS
 10
402.5322804754
 20
205.3962042857
 40
1.781063687
100
AcDbArc
 50
264.4051090234
 51
281.3445369694
  0
ARC
  5
860
100
AcDbEntity
  8
S3_EXTERN_HANDLE_FRONT
100
AcDbCircle
 62
5
  6
CONTINUOUS
 10
402.4542662887
 20
205.5060825464
 40
1.417663213
100
AcDbArc
 50
281.7498735983
 51
306.6564622943
  0
ARC
  5
861
100
AcDbEntity
  8
S3_EXTERN_HANDLE_FRONT
100
AcDbCircle
 62
5
  6
CONTINUOUS
 10
402.9904027136
 20
205.0856532208
 40
1.4058383636
100
AcDbArc
 50
285.2349672131
 51
303.5052623461
  0
ARC
  5
862
100
AcDbEntity
  8
S3_EXTERN_HANDLE_FRONT
100
AcDbCircle
 62
5
  6
CONTINUOUS
 10
401.5378780896
 20
203.9881761305
 40
1.3271110166
100
AcDbArc
 50
176.5625536229
 51
188.6782228134
  0
ARC
  5
863
100
AcDbEntity
  8
S3_EXTERN_HANDLE_FRONT
100
AcDbCircle
 62
5
  6
CONTINUOUS
 10
402.4869727374
 20
205.3915281251
 40
1.3069179725
100
AcDbArc
 50
308.5047737191
 51
330.1481617192
  0
ARC
  5
864
100
AcDbEntity
  8
S3_EXTERN_HANDLE_FRONT
100
AcDbCircle
 62
5
  6
CONTINUOUS
 10
403.0842837015
 20
204.8944757893
 40
1.1949151136
100
AcDbArc
 50
304.8120649783
 51
330.7570490084
  0
ARC
  5
865
100
AcDbEntity
  8
S3_EXTERN_HANDLE_FRONT
100
AcDbCircle
 62
5
  6
CONTINUOUS
 10
406.0712864562
 20
206.1344446857
 40
0.9484574549
100
AcDbArc
 50
313.3778361951
 51
328.8295474174
  0
ARC
  5
866
100
AcDbEntity
  8
S3_EXTERN_HANDLE_FRONT
100
AcDbCircle
 62
5
  6
CONTINUOUS
 10
401.270397982
 20
203.5558801533
 40
0.85460033
100
AcDbArc
 50
57.2964994317
 51
83.7375449144
  0
ARC
  5
867
100
AcDbEntity
  8
S3_EXTERN_HANDLE_FRONT
100
AcDbCircle
 62
5
  6
CONTINUOUS
 10
405.9911433338
 20
204.9232242385
 40
0.8421729808
100
AcDbArc
 50
278.2367365836
 51
332.6299007112
  0
ARC
  5
868
100
AcDbEntity
  8
S3_EXTERN_HANDLE_FRONT
100
AcDbCircle
 62
5
  6
CONTINUOUS
 10
405.9670387283
 20
205.8807762841
 40
0.7766403668
100
AcDbArc
 50
281.389396048
 51
331.8343291128
  0
ARC
  5
869
100
AcDbEntity
  8
S3_EXTERN_HANDLE_FRONT
100
AcDbCircle
 62
5
  6
CONTINUOUS
 10
402.4746025103
 20
204.373363909
 40
0.758653921
100
AcDbArc
 50
242.1656972269
 51
261.2074869908
  0
ARC
  5
86A
100
AcDbEntity
  8
S3_EXTERN_HANDLE_FRONT
100
AcDbCircle
 62
5
  6
CONTINUOUS
 10
403.2150326896
 20
204.1791907056
 40
0.6819595248
100
AcDbArc
 50
188.4409329082
 51
209.0198985198
  0
ARC
  5
86B
100
AcDbEntity
  8
S3_EXTERN_HANDLE_FRONT
100
AcDbCircle
 62
5
  6
CONTINUOUS
 10
400.8800028162
 20
204.0380452279
 40
0.6675092639
100
AcDbArc
 50
158.923498236
 51
177.4496082465
  0
ARC
  5
86C
100
AcDbEntity
  8
S3_EXTERN_HANDLE_FRONT
100
AcDbCircle
 62
5
  6
CONTINUOUS
 10
404.1890458297
 20
204.8974033039
 40
0.5899410773
100
AcDbArc
 50
233.3718220567
 51
263.954489845
  0
ARC
  5
86D
100
AcDbEntity
  8
S3_EXTERN_HANDLE_FRONT
100
AcDbCircle
 62
5
  6
CONTINUOUS
 10
399.9321237255
 20
203.0123574697
 40
0.5536047616
100
AcDbArc
 50
4.4574683638
 51
19.0094674154
  0
ARC
  5
86E
100
AcDbEntity
  8
S3_EXTERN_HANDLE_FRONT
100
AcDbCircle
 62
5
  6
CONTINUOUS
 10
404.1554487212
 20
204.8739709234
 40
0.5512442246
100
AcDbArc
 50
193.9587364251
 51
234.721311441
  0
ARC
  5
86F
100
AcDbEntity
  8
S3_EXTERN_HANDLE_FRONT
100
AcDbCircle
 62
5
  6
CONTINUOUS
 10
406.3810891784
 20
205.8065835352
 40
0.4973802323
100
AcDbArc
 50
276.2630823672
 51
313.3778361951
  0
ARC
  5
870
100
AcDbEntity
  8
S3_EXTERN_HANDLE_FRONT
100
AcDbCircle
 62
5
  6
CONTINUOUS
 10
403.0216888901
 20
204.0671599789
 40
0.4585611678
100
AcDbArc
 50
208.4986435074
 51
233.7591462477
  0
ARC
  5
871
100
AcDbEntity
  8
S3_EXTERN_HANDLE_FRONT
100
AcDbCircle
 62
5
  6
CONTINUOUS
 10
401.5015008901
 20
203.9183244511
 40
0.4247506885
100
AcDbArc
 50
2.5219386672
 51
57.1133556544
  0
ARC
  5
872
100
AcDbEntity
  8
S3_EXTERN_HANDLE_FRONT
100
AcDbCircle
 62
5
  6
CONTINUOUS
 10
402.2714818072
 20
204.0257682813
 40
0.3568548735
100
AcDbArc
 50
194.4012905609
 51
244.9479618427
  0
ARC
  5
873
100
AcDbEntity
  8
S3_EXTERN_HANDLE_FRONT
100
AcDbCircle
 62
5
  6
CONTINUOUS
 10
400.1233203612
 20
203.0881880588
 40
0.348262568
100
AcDbArc
 50
17.4598815581
 51
33.402522711
  0
ARC
  5
874
100
AcDbEntity
  8
S3_EXTERN_HANDLE_FRONT
100
AcDbCircle
 62
5
  6
CONTINUOUS
 10
402.9097432604
 20
203.9105065539
 40
0.2660440877
100
AcDbArc
 50
233.259069595
 51
273.3404364366
  0
ARC
  5
875
100
AcDbEntity
  8
S3_EXTERN_HANDLE_FRONT
100
AcDbCircle
 62
5
  6
CONTINUOUS
 10
400.3853531981
 20
204.2368780374
 40
0.1346654258
100
AcDbArc
 50
110.892906836
 51
162.1792730243
  0
ARC
  5
876
100
AcDbEntity
  8
S3_EXTERN_HANDLE_FRONT
100
AcDbCircle
 62
5
  6
CONTINUOUS
 10
400.3291503861
 20
203.2254186715
 40
0.1008906949
100
AcDbArc
 50
32.6924441998
 51
61.8864908827
  0
ARC
  5
877
100
AcDbEntity
  8
S3_EXTERN_HANDLE_FRONT
100
AcDbCircle
 62
5
  6
CONTINUOUS
 10
400.360245026
 20
203.2805270029
 40
0.0376600917
100
AcDbArc
 50
64.1049666774
 51
113.3829961644
  0
ARC
  5
878
100
AcDbEntity
  8
S3_EXTERN_HANDLE_FRONT
100
AcDbCircle
 62
5
  6
CONTINUOUS
 10
400.4324894774
 20
216.3685846961
 40
12.466436004
100
AcDbArc
 50
276.8490397891
 51
280.6806747801
  0
ARC
  5
879
100
AcDbEntity
  8
S3_EXTERN_HANDLE_FRONT
100
AcDbCircle
 62
5
  6
CONTINUOUS
 10
471.1987902724
 20
226.3096657851
 40
425.6124741464
100
AcDbArc
 50
179.7739882805
 51
181.6856505192
  0
ARC
  5
87A
100
AcDbEntity
  8
S3_EXTERN_HANDLE_FRONT
100
AcDbCircle
 62
5
  6
CONTINUOUS
 10
448.1418236372
 20
230.1097377423
 40
402.9083253783
100
AcDbArc
 50
181.8010014604
 51
182.655671871
  0
ARC
  5
87B
100
AcDbEntity
  8
S3_EXTERN_HANDLE_FRONT
100
AcDbCircle
 62
5
  6
CONTINUOUS
 10
442.0805109344
 20
226.8859592972
 40
396.8123149987
100
AcDbArc
 50
178.631495403
 51
179.349244831
  0
ARC
  5
87C
100
AcDbEntity
  8
S3_EXTERN_HANDLE_FRONT
100
AcDbCircle
 62
5
  6
CONTINUOUS
 10
383.8577836842
 20
246.2832634062
 40
56.244751279
100
AcDbArc
 50
260.910160598
 51
264.8837152179
  0
ARC
  5
87D
100
AcDbEntity
  8
S3_EXTERN_HANDLE_FRONT
100
AcDbCircle
 62
5
  6
CONTINUOUS
 10
386.249634476
 20
245.7897665888
 40
33.9026478664
100
AcDbArc
 50
124.8131132022
 51
130.9965003104
  0
ARC
  5
87E
100
AcDbEntity
  8
S3_EXTERN_HANDLE_FRONT
100
AcDbCircle
 62
5
  6
CONTINUOUS
 10
385.4279165717
 20
245.8557663603
 40
33.8185011731
100
AcDbArc
 50
48.997067304
 51
57.6784336103
  0
ARC
  5
87F
100
AcDbEntity
  8
S3_EXTERN_HANDLE_FRONT
100
AcDbCircle
 62
5
  6
CONTINUOUS
 10
386.225828852
 20
245.4719588886
 40
33.7746230041
100
AcDbArc
 50
124.9038160723
 51
130.7766159691
  0
ARC
  5
880
100
AcDbEntity
  8
S3_EXTERN_HANDLE_FRONT
100
AcDbCircle
 62
5
  6
CONTINUOUS
 10
385.9735686599
 20
246.1995834338
 40
33.4085750412
100
AcDbArc
 50
111.3526336747
 51
124.8256496716
  0
ARC
  5
881
100
AcDbEntity
  8
S3_EXTERN_HANDLE_FRONT
100
AcDbCircle
 62
5
  6
CONTINUOUS
 10
385.7220433761
 20
245.8988880555
 40
33.2530774673
100
AcDbArc
 50
57.6617367471
 51
74.8950398335
  0
ARC
  5
882
100
AcDbEntity
  8
S3_EXTERN_HANDLE_FRONT
100
AcDbCircle
 62
5
  6
CONTINUOUS
 10
385.7220436655
 20
246.3387660719
 40
33.2530774673
100
AcDbArc
 50
57.6617367471
 51
74.8950398335
  0
ARC
  5
883
100
AcDbEntity
  8
S3_EXTERN_HANDLE_FRONT
100
AcDbCircle
 62
5
  6
CONTINUOUS
 10
385.8326078877
 20
246.1066016179
 40
33.0341664703
100
AcDbArc
 50
97.6726425801
 51
111.3440009644
  0
ARC
  5
884
100
AcDbEntity
  8
S3_EXTERN_HANDLE_FRONT
100
AcDbCircle
 62
5
  6
CONTINUOUS
 10
385.8326081772
 20
246.5464796342
 40
33.0341664703
100
AcDbArc
 50
97.6726425801
 51
111.3440009644
  0
ARC
  5
885
100
AcDbEntity
  8
S3_EXTERN_HANDLE_FRONT
100
AcDbCircle
 62
5
  6
CONTINUOUS
 10
389.1075007137
 20
235.6299895676
 40
33.0309228115
100
AcDbArc
 50
270.8942682697
 51
273.481570483
  0
ARC
  5
886
100
AcDbEntity
  8
S3_EXTERN_HANDLE_FRONT
100
AcDbCircle
 62
5
  6
CONTINUOUS
 10
385.810620468
 20
246.1965398496
 40
32.942628345
100
AcDbArc
 50
74.9088708559
 51
89.9965446285
  0
ARC
  5
887
100
AcDbEntity
  8
S3_EXTERN_HANDLE_FRONT
100
AcDbCircle
 62
5
  6
CONTINUOUS
 10
385.8106207575
 20
246.636417866
 40
32.942628345
100
AcDbArc
 50
74.9088708559
 51
89.9965446285
  0
ARC
  5
888
100
AcDbEntity
  8
S3_EXTERN_HANDLE_FRONT
100
AcDbCircle
 62
5
  6
CONTINUOUS
 10
385.8128698169
 20
246.2222148447
 40
32.916953291
100
AcDbArc
 50
90.0004571863
 51
97.6654616882
  0
ARC
  5
889
100
AcDbEntity
  8
S3_EXTERN_HANDLE_FRONT
100
AcDbCircle
 62
5
  6
CONTINUOUS
 10
385.8128701063
 20
246.6620928611
 40
32.916953291
100
AcDbArc
 50
90.0004571863
 51
97.6654616882
  0
ARC
  5
88A
100
AcDbEntity
  8
S3_EXTERN_HANDLE_FRONT
100
AcDbCircle
 62
5
  6
CONTINUOUS
 10
385.5545079168
 20
246.6699339625
 40
32.4082978364
100
AcDbArc
 50
111.2485474776
 51
125.1423508434
  0
ARC
  5
88B
100
AcDbEntity
  8
S3_EXTERN_HANDLE_FRONT
100
AcDbCircle
 62
5
  6
CONTINUOUS
 10
392.6677489589
 20
224.0045532214
 40
32.2536580025
100
AcDbArc
 50
279.0270771031
 51
282.1940962662
  0
ARC
  5
88C
100
AcDbEntity
  8
S3_EXTERN_HANDLE_FRONT
100
AcDbCircle
 62
5
  6
CONTINUOUS
 10
539.7402823973
 20
204.9600346503
 40
146.4757613789
100
AcDbArc
 50
162.9885017022
 51
168.7520641281
  0
ARC
  5
88D
100
AcDbEntity
  8
S3_EXTERN_HANDLE_FRONT
100
AcDbCircle
 62
5
  6
CONTINUOUS
 10
527.2460809821
 20
207.9100720763
 40
133.6469042371
100
AcDbArc
 50
168.9476925235
 51
175.0427542164
  0
ARC
  5
88E
100
AcDbEntity
  8
S3_EXTERN_HANDLE_FRONT
100
AcDbCircle
 62
5
  6
CONTINUOUS
 10
521.5816898579
 20
198.6544360648
 40
112.6258167382
100
AcDbArc
 50
159.0426279401
 51
161.8681709347
  0
ARC
  5
88F
100
AcDbEntity
  8
S3_EXTERN_HANDLE_FRONT
100
AcDbCircle
 62
5
  6
CONTINUOUS
 10
542.4661781081
 20
225.5173104138
 40
496.8826960598
100
AcDbArc
 50
178.1784343485
 51
179.7150386577
  0
ARC
  5
890
100
AcDbEntity
  8
S3_EXTERN_HANDLE_FRONT
100
AcDbCircle
 62
5
  6
CONTINUOUS
 10
513.0067926052
 20
225.1327005579
 40
467.76024245
100
AcDbArc
 50
178.1469659546
 51
178.624286668
  0
ARC
  5
891
100
AcDbEntity
  8
MOVING_S3_0-1_FRONT
100
AcDbCircle
 62
1
  6
CONTINUOUS
 10
562.3525866161
 20
246.6108646458
 40
227.2977491366
100
AcDbArc
 50
175.457275503
 51
176.5365596947
  0
ARC
  5
892
100
AcDbEntity
  8
S3_EXTERN_HANDLE_FRONT
100
AcDbCircle
 62
5
  6
CONTINUOUS
 10
479.5633222585
 20
243.6046482255
 40
224.2676547894
100
AcDbArc
 50
240.1418524722
 51
240.5335884367
  0
ARC
  5
893
100
AcDbEntity
  8
MOVING_S3_0-1_FRONT
100
AcDbCircle
 62
1
  6
CONTINUOUS
 10
496.5185540523
 20
235.8741793305
 40
175.2581480407
100
AcDbArc
 50
169.9069549801
 51
170.910160598
  0
CIRCLE
  5
894
100
AcDbEntity
  8
HANDLE_FIXING_HOLES
100
AcDbCircle
 62
1
  6
CONTINUOUS
 10
544.4649412931
 20
238.8333583395
 40
3.5
  0
ARC
  5
895
100
AcDbEntity
  8
S3_EXTERN_HANDLE_FRONT
100
AcDbCircle
 62
5
  6
CONTINUOUS
 10
642.6174137803
 20
145.4653130616
 40
255.1447872957
100
AcDbArc
 50
154.4210221389
 51
157.2777507228
  0
ARC
  5
896
100
AcDbEntity
  8
S3_EXTERN_HANDLE_FRONT
100
AcDbCircle
 62
5
  6
CONTINUOUS
 10
636.2308868366
 20
149.5004272039
 40
247.777164668
100
AcDbArc
 50
166.1983484588
 51
167.2728403508
  0
ARC
  5
897
100
AcDbEntity
  8
S3_EXTERN_HANDLE_FRONT
100
AcDbCircle
 62
5
  6
CONTINUOUS
 10
634.1537924209
 20
150.0242641363
 40
245.6350744168
100
AcDbArc
 50
164.1065753233
 51
166.2014269077
  0
ARC
  5
898
100
AcDbEntity
  8
S3_EXTERN_HANDLE_FRONT
100
AcDbCircle
 62
5
  6
CONTINUOUS
 10
627.567818808
 20
151.7585967139
 40
238.8323486403
100
AcDbArc
 50
157.2757666921
 51
160.9704558073
  0
ARC
  5
899
100
AcDbEntity
  8
S3_EXTERN_HANDLE_FRONT
100
AcDbCircle
 62
5
  6
CONTINUOUS
 10
626.2470966162
 20
152.2974221807
 40
237.4081291266
100
AcDbArc
 50
160.9894612375
 51
164.1116487277
  0
ARC
  5
89A
100
AcDbEntity
  8
S3_EXTERN_HANDLE_FRONT
100
AcDbCircle
 62
5
  6
CONTINUOUS
 10
639.3242186676
 20
163.9732161721
 40
236.1605742407
100
AcDbArc
 50
168.5668496584
 51
169.2729360512
  0
ARC
  5
89B
100
AcDbEntity
  8
S3_EXTERN_HANDLE_FRONT
100
AcDbCircle
 62
5
  6
CONTINUOUS
 10
615.9174174514
 20
181.6508665361
 40
226.1392612938
100
AcDbArc
 50
159.8862886129
 51
162.987832219
  0
ARC
  5
89C
100
AcDbEntity
  8
S3_EXTERN_HANDLE_FRONT
100
AcDbCircle
 62
5
  6
CONTINUOUS
 10
612.9961810895
 20
163.260970279
 40
210.5794423515
100
AcDbArc
 50
160.4566242714
 51
163.0538970982
  0
ARC
  5
89D
100
AcDbEntity
  8
S3_EXTERN_HANDLE_FRONT
100
AcDbCircle
 62
5
  6
CONTINUOUS
 10
580.7318395444
 20
170.8517408794
 40
177.3460106825
100
AcDbArc
 50
162.7028017701
 51
165.6448122455
  0
ARC
  5
89E
100
AcDbEntity
  8
S3_EXTERN_HANDLE_FRONT
100
AcDbCircle
 62
5
  6
CONTINUOUS
 10
755.5161577825
 20
216.8170717688
 40
710.4127577927
100
AcDbArc
 50
177.7052744516
 51
177.9220000936
  0
ARC
  5
89F
100
AcDbEntity
  8
S3_EXTERN_HANDLE_FRONT
100
AcDbCircle
 62
5
  6
CONTINUOUS
 10
655.541485304
 20
239.6402596746
 40
610.5268342983
100
AcDbArc
 50
182.6472921764
 51
183.0273812327
  0
ARC
  5
8A0
100
AcDbEntity
  8
S3_EXTERN_HANDLE_FRONT
100
AcDbCircle
 62
5
  6
CONTINUOUS
 10
622.0332111845
 20
221.6710267389
 40
576.8415866101
100
AcDbArc
 50
177.9230601756
 51
178.1534822458
  0
ARC
  5
8A1
100
AcDbEntity
  8
MOVING_S3_0-1_FRONT
100
AcDbCircle
 62
1
  6
CONTINUOUS
 10
685.2086316632
 20
230.8745367966
 40
351.351337434
100
AcDbArc
 50
174.1187076641
 51
174.1650420358
  0
ARC
  5
8A2
100
AcDbEntity
  8
MOVING_S3_0-1_FRONT
100
AcDbCircle
 62
1
  6
CONTINUOUS
 10
685.2086316632
 20
230.8745367966
 40
351.075937434
100
AcDbArc
 50
174.0521118466
 51
174.1650215769
  0
ARC
  5
8A3
100
AcDbEntity
  8
MOVING_S3_0-1_FRONT
100
AcDbCircle
 62
1
  6
CONTINUOUS
 10
657.9675885601
 20
231.3811177026
 40
322.6791283773
100
AcDbArc
 50
172.5277604836
 51
173.4467053221
  0
ARC
  5
8A4
100
AcDbEntity
  8
S3_EXTERN_HANDLE_FRONT
100
AcDbCircle
 62
5
  6
CONTINUOUS
 10
597.0051996536
 20
202.0166176154
 40
203.6544134174
100
AcDbArc
 50
175.0868230677
 51
177.8862533055
  0
CIRCLE
  5
8A5
100
AcDbEntity
  8
HANDLE_FIXING_HOLES
100
AcDbCircle
 62
1
  6
CONTINUOUS
 10
584.4649412931
 20
238.8333583395
 40
3.5
  0
ARC
  5
8A6
100
AcDbEntity
  8
MOVING_S3_0-1_FRONT
100
AcDbCircle
 62
1
  6
CONTINUOUS
 10
402.2191353351
 20
252.1272405381
 40
78.2935685121
100
AcDbArc
 50
179.4280513781
 51
183.3565767526
  0
ARC
  5
8A7
100
AcDbEntity
  8
MOVING_S3_0-1_FRONT
100
AcDbCircle
 62
1
  6
CONTINUOUS
 10
401.2069685169
 20
252.1272407411
 40
78.2935627871
100
AcDbArc
 50
179.4280514849
 51
183.3565768218
  0
ARC
  5
8A8
100
AcDbEntity
  8
MOVING_S3_0-1_FRONT
100
AcDbCircle
 62
1
  6
CONTINUOUS
 10
402.5403032393
 20
252.1272412679
 40
78.2935479322
100
AcDbArc
 50
179.4280517619
 51
183.3565770016
  0
ARC
  5
8A9
100
AcDbEntity
  8
MOVING_S3_0-1_FRONT
100
AcDbCircle
 62
1
  6
CONTINUOUS
 10
401.7590706934
 20
252.1283217081
 40
78.2630191394
100
AcDbArc
 50
179.4286196709
 51
183.356946524
  0
ARC
  5
8AA
100
AcDbEntity
  8
MOVING_S3_0-1_FRONT
100
AcDbCircle
 62
1
  6
CONTINUOUS
 10
398.4797000655
 20
252.2084563768
 40
75.0842168474
100
AcDbArc
 50
168.8616924399
 51
172.1718492438
  0
ARC
  5
8AB
100
AcDbEntity
  8
MOVING_S3_0-1_FRONT
100
AcDbCircle
 62
1
  6
CONTINUOUS
 10
402.9763039042
 20
249.1176854695
 40
67.6210889188
100
AcDbArc
 50
181.4380460637
 51
183.4057844409
  0
ARC
  5
8AC
100
AcDbEntity
  8
MOVING_S3_0-1_FRONT
100
AcDbCircle
 62
1
  6
CONTINUOUS
 10
391.505004845
 20
252.3614128206
 40
67.2966437921
100
AcDbArc
 50
184.1057244066
 51
189.8816450917
  0
ARC
  5
8AD
100
AcDbEntity
  8
MOVING_S3_0-1_FRONT
100
AcDbCircle
 62
1
  6
CONTINUOUS
 10
389.9487588042
 20
252.0829621852
 40
67.0548941532
100
AcDbArc
 50
183.8820463843
 51
189.6924661261
  0
ARC
  5
8AE
100
AcDbEntity
  8
MOVING_S3_0-1_FRONT
100
AcDbCircle
 62
1
  6
CONTINUOUS
 10
390.6209283024
 20
252.5865986831
 40
66.882437581
100
AcDbArc
 50
166.4083149427
 51
167.5974235483
  0
ARC
  5
8AF
100
AcDbEntity
  8
MOVING_S3_0-1_FRONT
100
AcDbCircle
 62
1
  6
CONTINUOUS
 10
390.6208355686
 20
252.8902375285
 40
66.882437581
100
AcDbArc
 50
192.4375736259
 51
193.6266822315
  0
ARC
  5
8B0
100
AcDbEntity
  8
MOVING_S3_0-1_FRONT
100
AcDbCircle
 62
1
  6
CONTINUOUS
 10
388.4032224974
 20
251.8866057639
 40
64.9181864539
100
AcDbArc
 50
183.8342247999
 51
189.8258705265
  0
ARC
  5
8B1
100
AcDbEntity
  8
MOVING_S3_0-1_FRONT
100
AcDbCircle
 62
1
  6
CONTINUOUS
 10
388.8327605997
 20
251.8842401556
 40
64.9181864539
100
AcDbArc
 50
183.8342247999
 51
189.8258705265
  0
ARC
  5
8B2
100
AcDbEntity
  8
S3_EXTERN_HANDLE_FRONT
100
AcDbCircle
 62
5
  6
CONTINUOUS
 10
387.02741458
 20
251.77085886
 40
61.7768416928
100
AcDbArc
 50
272.798054692
 51
278.1484751874
  0
ARC
  5
8B3
100
AcDbEntity
  8
MOVING_S3_0-1_FRONT
100
AcDbCircle
 62
1
  6
CONTINUOUS
 10
384.4873422223
 20
251.5066372375
 40
61.7768416928
100
AcDbArc
 50
182.798054692
 51
188.1484751874
  0
ARC
  5
8B4
100
AcDbEntity
  8
S3_EXTERN_HANDLE_FRONT
100
AcDbCircle
 62
5
  6
CONTINUOUS
 10
384.6035618239
 20
252.4504984865
 40
61.2353748599
100
AcDbArc
 50
262.018963543
 51
266.8083396997
  0
ARC
  5
8B5
100
AcDbEntity
  8
S3_EXTERN_HANDLE_FRONT
100
AcDbCircle
 62
5
  6
CONTINUOUS
 10
384.6035602289
 20
252.7716869552
 40
61.2353748599
100
AcDbArc
 50
262.018963543
 51
266.8083396997
  0
ARC
  5
8B6
100
AcDbEntity
  8
S3_EXTERN_HANDLE_FRONT
100
AcDbCircle
 62
5
  6
CONTINUOUS
 10
384.6011962156
 20
252.0209603841
 40
61.2353748599
100
AcDbArc
 50
262.018963543
 51
266.8083396997
  0
ARC
  5
8B7
100
AcDbEntity
  8
S3_EXTERN_HANDLE_FRONT
100
AcDbCircle
 62
5
  6
CONTINUOUS
 10
384.6035613802
 20
251.438337389
 40
61.2353748599
100
AcDbArc
 50
262.018963543
 51
266.8083396997
  0
ARC
  5
8B8
100
AcDbEntity
  8
MOVING_S3_0-1_FRONT
100
AcDbCircle
 62
1
  6
CONTINUOUS
 10
384.1548207513
 20
253.9304904372
 40
61.2353748599
100
AcDbArc
 50
172.018963543
 51
176.8083396997
  0
ARC
  5
8B9
100
AcDbEntity
  8
MOVING_S3_0-1_FRONT
100
AcDbCircle
 62
1
  6
CONTINUOUS
 10
384.7374437464
 20
253.9328556018
 40
61.2353748599
100
AcDbArc
 50
172.018963543
 51
176.8083396997
  0
ARC
  5
8BA
100
AcDbEntity
  8
MOVING_S3_0-1_FRONT
100
AcDbCircle
 62
1
  6
CONTINUOUS
 10
385.4881703175
 20
253.9304915886
 40
61.2353748599
100
AcDbArc
 50
172.018963543
 51
176.8083396997
  0
ARC
  5
8BB
100
AcDbEntity
  8
MOVING_S3_0-1_FRONT
100
AcDbCircle
 62
1
  6
CONTINUOUS
 10
385.1669818488
 20
253.9304899935
 40
61.2353748599
100
AcDbArc
 50
172.018963543
 51
176.8083396997
  0
ARC
  5
8BC
100
AcDbEntity
  8
S3_EXTERN_HANDLE_FRONT
100
AcDbCircle
 62
5
  6
CONTINUOUS
 10
384.4093879676
 20
249.1370304706
 40
59.137074251
100
AcDbArc
 50
264.5979814651
 51
268.8934292537
  0
ARC
  5
8BD
100
AcDbEntity
  8
S3_EXTERN_HANDLE_FRONT
100
AcDbCircle
 62
5
  6
CONTINUOUS
 10
385.6253278431
 20
252.9087842276
 40
39.0
100
AcDbArc
 50
311.4326569475
 51
228.5655825029
  0
ARC
  5
8BE
100
AcDbEntity
  8
S3_EXTERN_HANDLE_FRONT
100
AcDbCircle
 62
5
  6
CONTINUOUS
 10
385.6252675899
 20
252.9087842276
 40
34.8
100
AcDbArc
 50
92.223522649
 51
212.9065489437
  0
ARC
  5
8BF
100
AcDbEntity
  8
S3_EXTERN_HANDLE_FRONT
100
AcDbCircle
 62
5
  6
CONTINUOUS
 10
385.6252675899
 20
252.9087842276
 40
34.8
100
AcDbArc
 50
327.0934510563
 51
87.776477351
  0
ARC
  5
8C0
100
AcDbEntity
  8
S3_EXTERN_HANDLE_FRONT
100
AcDbCircle
 62
5
  6
CONTINUOUS
 10
385.6252675899
 20
252.9087842276
 40
33.8
100
AcDbArc
 50
93.0162098146
 51
204.3297741766
  0
ARC
  5
8C1
100
AcDbEntity
  8
S3_EXTERN_HANDLE_FRONT
100
AcDbCircle
 62
5
  6
CONTINUOUS
 10
385.6252675899
 20
252.9087842276
 40
33.8
100
AcDbArc
 50
335.6682882351
 51
86.9818525971
  0
ARC
  5
8C2
100
AcDbEntity
  8
S3_EXTERN_HANDLE_FRONT
100
AcDbCircle
 62
5
  6
CONTINUOUS
 10
387.4165675097
 20
248.3102694774
 40
30.309592274
100
AcDbArc
 50
48.6067451409
 51
57.929833672
  0
ARC
  5
8C3
100
AcDbEntity
  8
MOVING_S3_0-1_FRONT
100
AcDbCircle
 62
1
  6
CONTINUOUS
 10
402.9740879863
 20
256.366386917
 40
67.6210889188
100
AcDbArc
 50
176.6292460381
 51
178.5969844153
  0
ARC
  5
8C4
100
AcDbEntity
  8
S3_EXTERN_HANDLE_FRONT
100
AcDbCircle
 62
5
  6
CONTINUOUS
 10
386.1726389969
 20
258.7885214827
 40
67.2966437921
100
AcDbArc
 50
274.1057244066
 51
279.8816450917
  0
ARC
  5
8C5
100
AcDbEntity
  8
S3_EXTERN_HANDLE_FRONT
100
AcDbCircle
 62
5
  6
CONTINUOUS
 10
386.4510896322
 20
257.2322754419
 40
67.0548941532
100
AcDbArc
 50
273.8820463843
 51
279.6924661261
  0
ARC
  5
8C6
100
AcDbEntity
  8
S3_EXTERN_HANDLE_FRONT
100
AcDbCircle
 62
5
  6
CONTINUOUS
 10
385.6438142889
 20
257.9043522063
 40
66.882437581
100
AcDbArc
 50
282.4375736259
 51
283.6266822315
  0
ARC
  5
8C7
100
AcDbEntity
  8
S3_EXTERN_HANDLE_FRONT
100
AcDbCircle
 62
5
  6
CONTINUOUS
 10
385.9474531343
 20
257.9044449401
 40
66.882437581
100
AcDbArc
 50
256.4083149427
 51
257.5974235483
  0
ARC
  5
8C8
100
AcDbEntity
  8
S3_EXTERN_HANDLE_FRONT
100
AcDbCircle
 62
5
  6
CONTINUOUS
 10
386.6498116619
 20
256.1162772374
 40
64.9181864539
100
AcDbArc
 50
273.8342247999
 51
279.8258705265
  0
ARC
  5
8C9
100
AcDbEntity
  8
S3_EXTERN_HANDLE_FRONT
100
AcDbCircle
 62
5
  6
CONTINUOUS
 10
386.6474460536
 20
255.6867391351
 40
64.9181864539
100
AcDbArc
 50
273.8342247999
 51
279.8258705265
  0
ARC
  5
8CA
100
AcDbEntity
  8
S3_EXTERN_HANDLE_FRONT
100
AcDbCircle
 62
5
  6
CONTINUOUS
 10
397.5272865601
 20
257.6251018722
 40
21.1180019662
100
AcDbArc
 50
20.8149485355
 51
26.3130142737
  0
ARC
  5
8CB
100
AcDbEntity
  8
S3_EXTERN_HANDLE_FRONT
100
AcDbCircle
 62
5
  6
CONTINUOUS
 10
401.4584467776
 20
259.5710664929
 40
16.7315688944
100
AcDbArc
 50
26.307019174
 51
34.6062919167
  0
ARC
  5
8CC
100
AcDbEntity
  8
MOVING_S3_0-1_FRONT
100
AcDbCircle
 62
1
  6
CONTINUOUS
 10
413.9044453056
 20
249.7620603419
 40
91.2756139775
100
AcDbArc
 50
169.2144406519
 51
172.0205590106
  0
ARC
  5
8CD
100
AcDbEntity
  8
MOVING_S3_0-1_FRONT
100
AcDbCircle
 62
1
  6
CONTINUOUS
 10
409.9159387439
 20
252.2007499819
 40
87.2107277744
100
AcDbArc
 50
179.5348299375
 51
182.4380047697
  0
ARC
  5
8CE
100
AcDbEntity
  8
MOVING_S3_0-1_FRONT
100
AcDbCircle
 62
1
  6
CONTINUOUS
 10
403.116125972
 20
253.3675279062
 40
80.2001313906
100
AcDbArc
 50
177.1609773402
 51
180.3277328794
  0
ARC
  5
8CF
100
AcDbEntity
  8
MOVING_S3_0-1_FRONT
100
AcDbCircle
 62
1
  6
CONTINUOUS
 10
403.6987489672
 20
253.3698930707
 40
80.2001313906
100
AcDbArc
 50
177.1609773402
 51
180.3294226046
  0
ARC
  5
8D0
100
AcDbEntity
  8
MOVING_S3_0-1_FRONT
100
AcDbCircle
 62
1
  6
CONTINUOUS
 10
404.4494755382
 20
253.3675290575
 40
80.2001313906
100
AcDbArc
 50
177.1609773402
 51
180.327733702
  0
ARC
  5
8D1
100
AcDbEntity
  8
MOVING_S3_0-1_FRONT
100
AcDbCircle
 62
1
  6
CONTINUOUS
 10
404.1282870695
 20
253.3675274625
 40
80.2001313905
100
AcDbArc
 50
177.1609773402
 51
180.3277325624
  0
ARC
  5
8D2
100
AcDbEntity
  8
MOVING_S3_0-1_FRONT
100
AcDbCircle
 62
1
  6
CONTINUOUS
 10
421.976529597
 20
256.8626276036
 40
99.6466940446
100
AcDbArc
 50
188.1417159801
 51
190.735813584
  0
ARC
  5
8D3
100
AcDbEntity
  8
S3_EXTERN_HANDLE_FRONT
100
AcDbCircle
 62
5
  6
CONTINUOUS
 10
420.6466376757
 20
259.8702440842
 40
16.7628591669
100
AcDbArc
 50
135.3116455939
 51
140.0944802251
  0
ARC
  5
8D4
100
AcDbEntity
  8
S3_EXTERN_HANDLE_FRONT
100
AcDbCircle
 62
5
  6
CONTINUOUS
 10
387.5261099427
 20
260.5928003257
 40
129.5988800325
100
AcDbArc
 50
91.7248263624
 51
94.3132970012
  0
ARC
  5
8D5
100
AcDbEntity
  8
S3_EXTERN_HANDLE_FRONT
100
AcDbCircle
 62
5
  6
CONTINUOUS
 10
385.166524355
 20
271.4118037072
 40
80.2001313905
100
AcDbArc
 50
267.1609773402
 51
270.3277325624
  0
ARC
  5
8D6
100
AcDbEntity
  8
S3_EXTERN_HANDLE_FRONT
100
AcDbCircle
 62
5
  6
CONTINUOUS
 10
385.16652276
 20
271.7329921759
 40
80.2001313906
100
AcDbArc
 50
267.1609773402
 51
270.327733702
  0
ARC
  5
8D7
100
AcDbEntity
  8
S3_EXTERN_HANDLE_FRONT
100
AcDbCircle
 62
5
  6
CONTINUOUS
 10
385.1641587467
 20
270.9822656049
 40
80.2001313906
100
AcDbArc
 50
267.1609773402
 51
270.3294226046
  0
ARC
  5
8D8
100
AcDbEntity
  8
S3_EXTERN_HANDLE_FRONT
100
AcDbCircle
 62
5
  6
CONTINUOUS
 10
385.1665239113
 20
270.3996426097
 40
80.2001313906
100
AcDbArc
 50
267.1609773402
 51
270.3277328794
  0
ARC
  5
8D9
100
AcDbEntity
  8
S3_EXTERN_HANDLE_FRONT
100
AcDbCircle
 62
5
  6
CONTINUOUS
 10
386.4068112793
 20
269.5026519728
 40
78.2935685121
100
AcDbArc
 50
269.4280513781
 51
273.3565767526
  0
ARC
  5
8DA
100
AcDbEntity
  8
S3_EXTERN_HANDLE_FRONT
100
AcDbCircle
 62
5
  6
CONTINUOUS
 10
386.4068110763
 20
268.4904851546
 40
78.2935627871
100
AcDbArc
 50
269.4280514849
 51
273.3565768218
  0
ARC
  5
8DB
100
AcDbEntity
  8
S3_EXTERN_HANDLE_FRONT
100
AcDbCircle
 62
5
  6
CONTINUOUS
 10
386.4068105496
 20
269.823819877
 40
78.2935479322
100
AcDbArc
 50
269.4280517619
 51
273.3565770016
  0
ARC
  5
8DC
100
AcDbEntity
  8
S3_EXTERN_HANDLE_FRONT
100
AcDbCircle
 62
5
  6
CONTINUOUS
 10
386.4057301093
 20
269.0425873311
 40
78.2630191394
100
AcDbArc
 50
269.4286196709
 51
273.356946524
  0
ARC
  5
8DD
100
AcDbEntity
  8
S3_EXTERN_HANDLE_FRONT
100
AcDbCircle
 62
5
  6
CONTINUOUS
 10
386.3255954406
 20
265.7632167032
 40
75.0842168474
100
AcDbArc
 50
258.8616924399
 51
262.1718492438
  0
ARC
  5
8DE
100
AcDbEntity
  8
S3_EXTERN_HANDLE_FRONT
100
AcDbCircle
 62
5
  6
CONTINUOUS
 10
389.416366348
 20
270.2598205419
 40
67.6210889188
100
AcDbArc
 50
271.4380460637
 51
273.4057844409
  0
ARC
  5
8DF
100
AcDbEntity
  8
S3_EXTERN_HANDLE_FRONT
100
AcDbCircle
 62
5
  6
CONTINUOUS
 10
404.4659213808
 20
261.6987018131
 40
13.0479093641
100
AcDbArc
 50
34.416795083
 51
46.8655935427
  0
ARC
  5
8E0
100
AcDbEntity
  8
S3_EXTERN_HANDLE_FRONT
100
AcDbCircle
 62
5
  6
CONTINUOUS
 10
405.2392125089
 20
261.9603765255
 40
12.2030334547
100
AcDbArc
 50
35.3622210161
 51
44.7808182113
  0
ARC
  5
8E1
100
AcDbEntity
  8
S3_EXTERN_HANDLE_FRONT
100
AcDbCircle
 62
5
  6
CONTINUOUS
 10
407.9127678912
 20
264.6372190687
 40
8.4197841285
100
AcDbArc
 50
44.6665153412
 51
55.6016832516
  0
ARC
  5
8E2
100
AcDbEntity
  8
S3_EXTERN_HANDLE_FRONT
100
AcDbCircle
 62
5
  6
CONTINUOUS
 10
408.8398327536
 20
266.5502310511
 40
6.5182029163
100
AcDbArc
 50
45.7651833928
 51
69.1559455417
  0
ARC
  5
8E3
100
AcDbEntity
  8
S3_EXTERN_HANDLE_FRONT
100
AcDbCircle
 62
5
  6
CONTINUOUS
 10
409.9037831926
 20
267.5897275104
 40
4.8588359693
100
AcDbArc
 50
55.3050919096
 51
72.4448076207
  0
ARC
  5
8E4
100
AcDbEntity
  8
S3_EXTERN_HANDLE_FRONT
100
AcDbCircle
 62
5
  6
CONTINUOUS
 10
411.0766274867
 20
268.6688438071
 40
4.3946768672
100
AcDbArc
 50
116.7842277423
 51
141.9453739805
  0
ARC
  5
8E5
100
AcDbEntity
  8
S3_EXTERN_HANDLE_FRONT
100
AcDbCircle
 62
5
  6
CONTINUOUS
 10
410.4456933498
 20
268.8726997578
 40
3.4745839134
100
AcDbArc
 50
74.5839875496
 51
93.5655657158
  0
ARC
  5
8E6
100
AcDbEntity
  8
S3_EXTERN_HANDLE_FRONT
100
AcDbCircle
 62
5
  6
CONTINUOUS
 10
410.1895419585
 20
270.0565409974
 40
2.7611457202
100
AcDbArc
 50
69.4410397103
 51
113.3256890443
  0
ARC
  5
8E7
100
AcDbEntity
  8
S3_EXTERN_HANDLE_FRONT
100
AcDbCircle
 62
5
  6
CONTINUOUS
 10
410.3734377075
 20
270.0322907105
 40
2.3127439693
100
AcDbArc
 50
93.5655657158
 51
135.3116455939
  0
ARC
  5
8E8
100
AcDbEntity
  8
S3_EXTERN_HANDLE_FRONT
100
AcDbCircle
 62
5
  6
CONTINUOUS
 10
406.407298443
 20
271.8352300185
 40
1.3127727244
100
AcDbArc
 50
323.1641004802
 51
326.5876986796
  0
ARC
  5
8E9
100
AcDbEntity
  8
S3_EXTERN_HANDLE_FRONT
100
AcDbCircle
 62
5
  6
CONTINUOUS
 10
406.7090262266
 20
271.6441880446
 40
0.9557357798
100
AcDbArc
 50
326.1871729019
 51
335.6038709358
  0
ARC
  5
8EA
100
AcDbEntity
  8
S3_EXTERN_HANDLE_FRONT
100
AcDbCircle
 62
5
  6
CONTINUOUS
 10
407.0893300962
 20
270.8596443918
 40
0.7389234607
100
AcDbArc
 50
18.1169739931
 51
44.5230915783
  0
ARC
  5
8EB
100
AcDbEntity
  8
S3_EXTERN_HANDLE_FRONT
100
AcDbCircle
 62
5
  6
CONTINUOUS
 10
407.0892359168
 20
270.8624774091
 40
0.73813704
100
AcDbArc
 50
341.1517467463
 51
17.9056974918
  0
ARC
  5
8EC
100
AcDbEntity
  8
S3_EXTERN_HANDLE_FRONT
100
AcDbCircle
 62
5
  6
CONTINUOUS
 10
389.5844763469
 20
261.289634756
 40
0.5032123606
100
AcDbArc
 50
0.3453340373
 51
90.0000032155
  0
ARC
  5
8ED
100
AcDbEntity
  8
S3_EXTERN_HANDLE_FRONT
100
AcDbCircle
 62
5
  6
CONTINUOUS
 10
407.2111119591
 20
271.4242697498
 40
0.4077066444
100
AcDbArc
 50
334.6059298943
 51
353.4517677513
  0
ARC
  5
8EE
100
AcDbEntity
  8
S3_EXTERN_HANDLE_FRONT
100
AcDbCircle
 62
5
  6
CONTINUOUS
 10
389.3755503495
 20
261.283231943
 40
0.25
100
AcDbArc
 50
359.9980624117
 51
89.9980624117
  0
ARC
  5
8EF
100
AcDbEntity
  8
S3_EXTERN_HANDLE_FRONT
100
AcDbCircle
 62
5
  6
CONTINUOUS
 10
407.2921562303
 20
270.8651589233
 40
0.2469798677
100
AcDbArc
 50
335.8308446691
 51
47.8231289823
  0
ARC
  5
8F0
100
AcDbEntity
  8
MOVING_S3_0-1_FRONT
100
AcDbCircle
 62
1
  6
CONTINUOUS
 10
460.3696092616
 20
253.9314790213
 40
125.0577659929
100
AcDbArc
 50
174.4984073384
 51
175.1000567731
  0
ARC
  5
8F1
100
AcDbEntity
  8
MOVING_S3_0-1_FRONT
100
AcDbCircle
 62
1
  6
CONTINUOUS
 10
460.3703257563
 20
251.5876843687
 40
125.0577659929
100
AcDbArc
 50
184.9349737059
 51
185.5366231406
  0
ARC
  5
8F2
100
AcDbEntity
  8
MOVING_S3_0-1_FRONT
100
AcDbCircle
 62
1
  6
CONTINUOUS
 10
441.0630953624
 20
253.1149071172
 40
118.3551896889
100
AcDbArc
 50
178.9582469432
 51
180.0997841974
  0
ARC
  5
8F3
100
AcDbEntity
  8
MOVING_S3_0-1_FRONT
100
AcDbCircle
 62
1
  6
CONTINUOUS
 10
448.8837226455
 20
254.3066232124
 40
113.837101787
100
AcDbArc
 50
175.7800465952
 51
178.8868683189
  0
ARC
  5
8F4
100
AcDbEntity
  8
MOVING_S3_0-1_FRONT
100
AcDbCircle
 62
1
  6
CONTINUOUS
 10
423.4510449179
 20
257.5250097126
 40
99.6556710235
100
AcDbArc
 50
189.65432548
 51
190.6963401739
  0
ARC
  5
8F5
100
AcDbEntity
  8
MOVING_S3_0-1_FRONT
100
AcDbCircle
 62
1
  6
CONTINUOUS
 10
428.7856400948
 20
249.1434651433
 40
93.650421892
100
AcDbArc
 50
183.5650362392
 51
186.8015389261
  0
ARC
  5
8F6
100
AcDbEntity
  8
S3_EXTERN_HANDLE_FRONT
100
AcDbCircle
 62
5
  6
CONTINUOUS
 10
389.3905866741
 20
296.0691567325
 40
93.650421892
100
AcDbArc
 50
273.5650362392
 51
276.8015389261
  0
ARC
  5
8F7
100
AcDbEntity
  8
S3_EXTERN_HANDLE_FRONT
100
AcDbCircle
 62
5
  6
CONTINUOUS
 10
388.7719914756
 20
281.1879619433
 40
91.2756139775
100
AcDbArc
 50
259.2144406519
 51
262.0205590106
  0
ARC
  5
8F8
100
AcDbEntity
  8
S3_EXTERN_HANDLE_FRONT
100
AcDbCircle
 62
5
  6
CONTINUOUS
 10
386.3333018355
 20
277.1994553816
 40
87.2107277744
100
AcDbArc
 50
269.5348299375
 51
272.4380047697
  0
ARC
  5
8F9
100
AcDbEntity
  8
S3_EXTERN_HANDLE_FRONT
100
AcDbCircle
 62
5
  6
CONTINUOUS
 10
395.4740943865
 20
283.8305766002
 40
10.897623176
100
AcDbArc
 50
190.9027745333
 51
196.6050799944
  0
ARC
  5
8FA
100
AcDbEntity
  8
S3_EXTERN_HANDLE_FRONT
100
AcDbCircle
 62
5
  6
CONTINUOUS
 10
388.1502324947
 20
285.9319274609
 40
4.2522323389
100
AcDbArc
 50
142.0932545186
 51
156.773817361
  0
ARC
  5
8FB
100
AcDbEntity
  8
S3_EXTERN_HANDLE_FRONT
100
AcDbCircle
 62
5
  6
CONTINUOUS
 10
388.4774971578
 20
281.7441248926
 40
3.5965510966
100
AcDbArc
 50
196.6050799944
 51
207.0321267346
  0
ARC
  5
8FC
100
AcDbEntity
  8
S3_EXTERN_HANDLE_FRONT
100
AcDbCircle
 62
5
  6
CONTINUOUS
 10
384.2404382708
 20
286.5936075707
 40
2.9477493724
100
AcDbArc
 50
20.1607921309
 51
39.9742199734
  0
ARC
  5
8FD
100
AcDbEntity
  8
S3_EXTERN_HANDLE_FRONT
100
AcDbCircle
 62
5
  6
CONTINUOUS
 10
386.2937010504
 20
287.3775488217
 40
1.8992491
100
AcDbArc
 50
125.7280036777
 51
142.0932545186
  0
ARC
  5
8FE
100
AcDbEntity
  8
S3_EXTERN_HANDLE_FRONT
100
AcDbCircle
 62
5
  6
CONTINUOUS
 10
385.639608284
 20
288.2868770309
 40
0.7791084217
100
AcDbArc
 50
91.0502451181
 51
125.7280036777
  0
ARC
  5
8FF
100
AcDbEntity
  8
S3_EXTERN_HANDLE_FRONT
100
AcDbCircle
 62
5
  6
CONTINUOUS
 10
385.638534733
 20
288.3454376965
 40
0.7205379167
100
AcDbArc
 50
47.7906037178
 51
91.0502451181
  0
ARC
  5
900
100
AcDbEntity
  8
S3_EXTERN_HANDLE_FRONT
100
AcDbCircle
 62
5
  6
CONTINUOUS
 10
385.7195050182
 20
280.2720977851
 40
0.474368964
100
AcDbArc
 50
200.0418784956
 51
258.5414770949
  0
ARC
  5
901
100
AcDbEntity
  8
S3_EXTERN_HANDLE_FRONT
100
AcDbCircle
 62
5
  6
CONTINUOUS
 10
385.5514557956
 20
280.2314196206
 40
0.4306093379
100
AcDbArc
 50
279.8699510464
 51
335.8597232836
  0
ARC
  5
902
100
AcDbEntity
  8
MOVING_S3_0-1_FRONT
100
AcDbCircle
 62
1
  6
CONTINUOUS
 10
511.1567690334
 20
249.8388167583
 40
176.2701317775
100
AcDbArc
 50
174.2846265766
 51
175.8212298544
  0
ARC
  5
903
100
AcDbEntity
  8
MOVING_S3_0-1_FRONT
100
AcDbCircle
 62
1
  6
CONTINUOUS
 10
484.8111399825
 20
268.4969069792
 40
162.7465347188
100
AcDbArc
 50
189.795666517
 51
190.537309295
  0
ARC
  5
904
100
AcDbEntity
  8
MOVING_S3_0-1_FRONT
100
AcDbCircle
 62
1
  6
CONTINUOUS
 10
491.732764956
 20
254.357371382
 40
155.2829045832
100
AcDbArc
 50
185.4428178725
 51
187.0042382675
  0
ARC
  5
905
100
AcDbEntity
  8
MOVING_S3_0-1_FRONT
100
AcDbCircle
 62
1
  6
CONTINUOUS
 10
481.5534946256
 20
252.1327103407
 40
145.0501791718
100
AcDbArc
 50
173.6372295315
 51
175.274203749
  0
ARC
  5
906
100
AcDbEntity
  8
MOVING_S3_0-1_FRONT
100
AcDbCircle
 62
1
  6
CONTINUOUS
 10
476.5144750416
 20
252.8614562068
 40
139.9913449692
100
AcDbArc
 50
183.6323268639
 51
185.4241214782
  0
ARC
  5
907
100
AcDbEntity
  8
MOVING_S3_0-1_FRONT
100
AcDbCircle
 62
1
  6
CONTINUOUS
 10
475.6631886094
 20
252.6424818668
 40
139.1379010749
100
AcDbArc
 50
175.2835730683
 51
176.3705539698
  0
ARC
  5
908
100
AcDbEntity
  8
MOVING_S3_0-1_FRONT
100
AcDbCircle
 62
1
  6
CONTINUOUS
 10
474.4411915696
 20
252.7159521656
 40
139.1370691994
100
AcDbArc
 50
172.3127387632
 51
172.950301487
  0
ARC
  5
909
100
AcDbEntity
  8
MOVING_S3_0-1_FRONT
100
AcDbCircle
 62
1
  6
CONTINUOUS
 10
474.4411621756
 20
252.8121389753
 40
139.1370691994
100
AcDbArc
 50
187.0847168927
 51
187.7222796166
  0
ARC
  5
90A
100
AcDbEntity
  8
MOVING_S3_0-1_FRONT
100
AcDbCircle
 62
1
  6
CONTINUOUS
 10
474.439983422
 20
252.7161528027
 40
139.1358450711
100
AcDbArc
 50
171.7483772016
 51
172.3127540924
  0
ARC
  5
90B
100
AcDbEntity
  8
MOVING_S3_0-1_FRONT
100
AcDbCircle
 62
1
  6
CONTINUOUS
 10
474.4399541509
 20
252.8119375999
 40
139.1358450711
100
AcDbArc
 50
187.7222642874
 51
188.2866411781
  0
ARC
  5
90C
100
AcDbEntity
  8
MOVING_S3_0-1_FRONT
100
AcDbCircle
 62
1
  6
CONTINUOUS
 10
470.6087678975
 20
252.9291619276
 40
135.6212548096
100
AcDbArc
 50
174.2171872837
 51
174.2288783974
  0
ARC
  5
90D
100
AcDbEntity
  8
MOVING_S3_0-1_FRONT
100
AcDbCircle
 62
1
  6
CONTINUOUS
 10
470.6087678976
 20
252.9291619284
 40
135.3458548096
100
AcDbArc
 50
174.2172403199
 51
174.49161851
  0
ARC
  5
90E
100
AcDbEntity
  8
MOVING_S3_0-1_FRONT
100
AcDbCircle
 62
1
  6
CONTINUOUS
 10
470.6088696648
 20
252.5962614667
 40
135.3458548096
100
AcDbArc
 50
185.5434119689
 51
185.8177901591
  0
CIRCLE
  5
90F
100
AcDbEntity
  8
HANDLE_FIXING_HOLES
100
AcDbCircle
 62
1
  6
CONTINUOUS
 10
544.4649412931
 20
266.8333583395
 40
3.5
  0
ARC
  5
910
100
AcDbEntity
  8
S3_EXTERN_HANDLE_FRONT
100
AcDbCircle
 62
5
  6
CONTINUOUS
 10
386.4013414768
 20
348.8370112632
 40
145.0501791718
100
AcDbArc
 50
263.6372295315
 51
265.274203749
  0
ARC
  5
911
100
AcDbEntity
  8
S3_EXTERN_HANDLE_FRONT
100
AcDbCircle
 62
5
  6
CONTINUOUS
 10
385.6725956107
 20
343.7979916793
 40
139.9913449692
100
AcDbArc
 50
273.6323268639
 51
275.4241214782
  0
ARC
  5
912
100
AcDbEntity
  8
S3_EXTERN_HANDLE_FRONT
100
AcDbCircle
 62
5
  6
CONTINUOUS
 10
385.8915699507
 20
342.9467052471
 40
139.1379010749
100
AcDbArc
 50
265.2835730683
 51
266.3705539698
  0
ARC
  5
913
100
AcDbEntity
  8
S3_EXTERN_HANDLE_FRONT
100
AcDbCircle
 62
5
  6
CONTINUOUS
 10
385.7219128422
 20
341.7246788133
 40
139.1370691994
100
AcDbArc
 50
277.0847168927
 51
277.7222796166
  0
ARC
  5
914
100
AcDbEntity
  8
S3_EXTERN_HANDLE_FRONT
100
AcDbCircle
 62
5
  6
CONTINUOUS
 10
385.8180996518
 20
341.7247082073
 40
139.1370691994
100
AcDbArc
 50
262.3127387632
 51
262.950301487
  0
ARC
  5
915
100
AcDbEntity
  8
S3_EXTERN_HANDLE_FRONT
100
AcDbCircle
 62
5
  6
CONTINUOUS
 10
385.7221142176
 20
341.7234707886
 40
139.1358450711
100
AcDbArc
 50
277.7222642874
 51
278.2866411781
  0
ARC
  5
916
100
AcDbEntity
  8
S3_EXTERN_HANDLE_FRONT
100
AcDbCircle
 62
5
  6
CONTINUOUS
 10
385.8178990148
 20
341.7235000597
 40
139.1358450711
100
AcDbArc
 50
261.7483772016
 51
262.3127540923
  0
ARC
  5
917
100
AcDbEntity
  8
S3_EXTERN_HANDLE_FRONT
100
AcDbCircle
 62
5
  6
CONTINUOUS
 10
385.6048898902
 20
337.8922845352
 40
135.6212548096
100
AcDbArc
 50
264.2171872836
 51
264.2288783972
  0
ARC
  5
918
100
AcDbEntity
  8
S3_EXTERN_HANDLE_FRONT
100
AcDbCircle
 62
5
  6
CONTINUOUS
 10
385.9377903507
 20
337.8923863025
 40
135.3458548096
100
AcDbArc
 50
275.5434119689
 51
275.8177901591
  0
ARC
  5
919
100
AcDbEntity
  8
S3_EXTERN_HANDLE_FRONT
100
AcDbCircle
 62
5
  6
CONTINUOUS
 10
385.604889889
 20
337.8922845353
 40
135.3458548096
100
AcDbArc
 50
264.2172403199
 51
264.49161851
  0
ARC
  5
91A
100
AcDbEntity
  8
S3_EXTERN_HANDLE_FRONT
100
AcDbCircle
 62
5
  6
CONTINUOUS
 10
386.9463674488
 20
327.653842394
 40
125.0577659929
100
AcDbArc
 50
274.9349737059
 51
275.5366231406
  0
ARC
  5
91B
100
AcDbEntity
  8
S3_EXTERN_HANDLE_FRONT
100
AcDbCircle
 62
5
  6
CONTINUOUS
 10
384.6025727961
 20
327.6531258993
 40
125.0577659929
100
AcDbArc
 50
264.4984073384
 51
265.1000567731
  0
ARC
  5
91C
100
AcDbEntity
  8
S3_EXTERN_HANDLE_FRONT
100
AcDbCircle
 62
5
  6
CONTINUOUS
 10
385.4191447002
 20
308.3466120001
 40
118.3551896889
100
AcDbArc
 50
268.9582469432
 51
270.0997841974
  0
ARC
  5
91D
100
AcDbEntity
  8
S3_EXTERN_HANDLE_FRONT
100
AcDbCircle
 62
5
  6
CONTINUOUS
 10
384.227428605
 20
316.1672392832
 40
113.837101787
100
AcDbArc
 50
265.7800465952
 51
268.8868683189
  0
ARC
  5
91E
100
AcDbEntity
  8
S3_EXTERN_HANDLE_FRONT
100
AcDbCircle
 62
5
  6
CONTINUOUS
 10
390.4344547127
 20
344.4803089503
 40
45.4456427405
100
AcDbArc
 50
77.0027067751
 51
86.1670821002
  0
ARC
  5
91F
100
AcDbEntity
  8
S3_EXTERN_HANDLE_FRONT
100
AcDbCircle
 62
5
  6
CONTINUOUS
 10
393.2398230221
 20
331.1945349876
 40
31.3000132688
100
AcDbArc
 50
0.6569203304
 51
29.6992254485
  0
ARC
  5
920
100
AcDbEntity
  8
S3_EXTERN_HANDLE_FRONT
100
AcDbCircle
 62
5
  6
CONTINUOUS
 10
396.1303813573
 20
346.7416989355
 40
7.8013687212
100
AcDbArc
 50
95.0904635117
 51
99.7898601096
  0
ARC
  5
921
100
AcDbEntity
  8
S3_EXTERN_HANDLE_FRONT
100
AcDbCircle
 62
5
  6
CONTINUOUS
 10
386.3452755488
 20
346.6579852964
 40
5.9783203322
100
AcDbArc
 50
80.3721973229
 51
89.8334098715
  0
ARC
  5
922
100
AcDbEntity
  8
S3_EXTERN_HANDLE_FRONT
100
AcDbCircle
 62
5
  6
CONTINUOUS
 10
392.1664007437
 20
348.1686350906
 40
5.9245232662
100
AcDbArc
 50
94.5015974034
 51
100.2398672116
  0
ARC
  5
923
100
AcDbEntity
  8
S3_EXTERN_HANDLE_FRONT
100
AcDbCircle
 62
5
  6
CONTINUOUS
 10
384.8965257919
 20
346.8023188942
 40
5.8339488292
100
AcDbArc
 50
90.0850699759
 51
100.4292708742
  0
ARC
  5
924
100
AcDbEntity
  8
S3_EXTERN_HANDLE_FRONT
100
AcDbCircle
 62
5
  6
CONTINUOUS
 10
392.1803127854
 20
348.6407193267
 40
5.4183415379
100
AcDbArc
 50
94.880816033
 51
101.2302414435
  0
ARC
  5
925
100
AcDbEntity
  8
S3_EXTERN_HANDLE_FRONT
100
AcDbCircle
 62
5
  6
CONTINUOUS
 10
386.1371091192
 20
344.7806577693
 40
1.0144535651
100
AcDbArc
 50
269.7745955969
 51
284.620845652
  0
ARC
  5
926
100
AcDbEntity
  8
S3_EXTERN_HANDLE_FRONT
100
AcDbCircle
 62
5
  6
CONTINUOUS
 10
385.0906915173
 20
344.6545028374
 40
0.8864480237
100
AcDbArc
 50
250.4876922465
 51
265.6778072359
  0
ARC
  5
927
100
AcDbEntity
  8
S3_EXTERN_HANDLE_FRONT
100
AcDbCircle
 62
5
  6
CONTINUOUS
 10
386.2508286051
 20
344.3447321904
 40
0.5639391572
100
AcDbArc
 50
284.620845652
 51
303.188679436
  0
ARC
  5
928
100
AcDbEntity
  8
S3_EXTERN_HANDLE_FRONT
100
AcDbCircle
 62
5
  6
CONTINUOUS
 10
385.1252655297
 20
343.1113964437
 40
0.5
100
AcDbArc
 50
180.0
 51
270.0
  0
ARC
  5
929
100
AcDbEntity
  8
S3_EXTERN_HANDLE_FRONT
100
AcDbCircle
 62
5
  6
CONTINUOUS
 10
386.1252655297
 20
343.1113964437
 40
0.5
100
AcDbArc
 50
270.0
 51
360.0
  0
ARC
  5
92A
100
AcDbEntity
  8
S3_EXTERN_HANDLE_FRONT
100
AcDbCircle
 62
5
  6
CONTINUOUS
 10
420.1676185899
 20
346.5533958805
 40
0.300000459
100
AcDbArc
 50
29.6993499331
 51
90.0
  0
ARC
  5
92B
100
AcDbEntity
  8
S3_EXTERN_HANDLE_FRONT
100
AcDbCircle
 62
5
  6
CONTINUOUS
 10
384.8423198223
 20
344.0396510797
 40
0.2257856741
100
AcDbArc
 50
195.9860255815
 51
257.801008995
  0
ARC
  5
92C
100
AcDbEntity
  8
S3_EXTERN_HANDLE_FRONT
100
AcDbCircle
 62
5
  6
CONTINUOUS
 10
386.4785125943
 20
343.9966444987
 40
0.1480004116
100
AcDbArc
 50
303.188679436
 51
352.5556320603
  0
ARC
  5
92D
100
AcDbEntity
  8
MOVING_S3_0-1_FRONT
100
AcDbCircle
 62
1
  6
CONTINUOUS
 10
685.1952091858
 20
274.7820882234
 40
351.075937434
100
AcDbArc
 50
185.8700089021
 51
185.9829186323
  0
ARC
  5
92E
100
AcDbEntity
  8
MOVING_S3_0-1_FRONT
100
AcDbCircle
 62
1
  6
CONTINUOUS
 10
652.3980593618
 20
262.750872857
 40
317.6764131262
100
AcDbArc
 50
182.471083274
 51
183.5066945235
  0
ARC
  5
92F
100
AcDbEntity
  8
MOVING_S3_0-1_FRONT
100
AcDbCircle
 62
1
  6
CONTINUOUS
 10
562.3488082471
 20
258.9706494785
 40
227.2977491366
100
AcDbArc
 50
183.4984707842
 51
184.577754976
  0
CIRCLE
  5
930
100
AcDbEntity
  8
HANDLE_FIXING_HOLES
100
AcDbCircle
 62
1
  6
CONTINUOUS
 10
564.4649412931
 20
252.8333583395
 40
15.5
  0
CIRCLE
  5
931
100
AcDbEntity
  8
HANDLE_FIXING_HOLES
100
AcDbCircle
 62
1
  6
CONTINUOUS
 10
584.4649412931
 20
266.8333583395
 40
3.5
  0
ARC
  5
932
100
AcDbEntity
  8
MOVING_S3_0-1_FRONT
100
AcDbCircle
 62
1
  6
CONTINUOUS
 10
716.6328014583
 20
309.0324039181
 40
398.6653366159
100
AcDbArc
 50
189.8557417796
 51
190.3876270386
  0
ARC
  5
933
100
AcDbEntity
  8
S3_EXTERN_HANDLE_FRONT
100
AcDbCircle
 62
5
  6
CONTINUOUS
 10
233.7082769613
 20
405.8034597636
 40
137.2624712203
100
AcDbArc
 50
341.6871850176
 51
343.0205483989
  0
ARC
  5
934
100
AcDbEntity
  8
MOVING_S3_0-1_FRONT
100
AcDbCircle
 62
1
  6
CONTINUOUS
 10
82.9657820119
 20
382.4648995141
 40
99.1022627743
100
AcDbArc
 50
1.6820519531
 51
2.5671361983
  0
ARC
  5
935
100
AcDbEntity
  8
MOVING_S3_0-1_FRONT
100
AcDbCircle
 62
1
  6
CONTINUOUS
 10
39.2780005851
 20
353.63098352
 40
81.9309756305
100
AcDbArc
 50
264.9289571719
 51
275.2472966495
  0
ARC
  5
936
100
AcDbEntity
  8
S3_EXTERN_HANDLE_FRONT
100
AcDbCircle
 62
5
  6
CONTINUOUS
 10
284.9033059467
 20
379.668774927
 40
81.9309756305
100
AcDbArc
 50
354.4151341205
 51
5.0688849485
  0
ARC
  5
937
100
AcDbEntity
  8
MOVING_S3_0-1_FRONT
100
AcDbCircle
 62
1
  6
CONTINUOUS
 10
111.5620601311
 20
386.1380644852
 40
72.3881213684
100
AcDbArc
 50
0.1029346726
 51
2.0529057146
  0
ARC
  5
938
100
AcDbEntity
  8
MOVING_S3_0-1_FRONT
100
AcDbCircle
 62
1
  6
CONTINUOUS
 10
134.1171834001
 20
384.7758088048
 40
49.8552206808
100
AcDbArc
 50
358.5598537322
 51
1.7152770891
  0
ARC
  5
939
100
AcDbEntity
  8
MOVING_S3_0-1_FRONT
100
AcDbCircle
 62
1
  6
CONTINUOUS
 10
214.3434314995
 20
376.3742711806
 40
40.1377545076
100
AcDbArc
 50
159.9932994757
 51
162.3530498172
  0
ARC
  5
93A
100
AcDbEntity
  8
MOVING_S3_0-1_FRONT
100
AcDbCircle
 62
1
  6
CONTINUOUS
 10
154.3250593471
 20
384.3152416935
 40
29.6421906105
100
AcDbArc
 50
352.6081363851
 51
358.4681257675
  0
ARC
  5
93B
100
AcDbEntity
  8
MOVING_S3_0-1_FRONT
100
AcDbCircle
 62
1
  6
CONTINUOUS
 10
152.9497800723
 20
384.4346477673
 40
29.0907274638
100
AcDbArc
 50
356.8634965705
 51
1.8501532088
  0
ARC
  5
93C
100
AcDbEntity
  8
MOVING_S3_0-1_FRONT
100
AcDbCircle
 62
1
  6
CONTINUOUS
 10
169.2013713695
 20
362.8703489488
 40
28.2339810124
100
AcDbArc
 50
70.9418737386
 51
73.5691408344
  0
ARC
  5
93D
100
AcDbEntity
  8
MOVING_S3_0-1_FRONT
100
AcDbCircle
 62
1
  6
CONTINUOUS
 10
158.238218442
 20
383.8348761634
 40
25.6997649929
100
AcDbArc
 50
345.1491322581
 51
352.5477787003
  0
ARC
  5
93E
100
AcDbEntity
  8
MOVING_S3_0-1_FRONT
100
AcDbCircle
 62
1
  6
CONTINUOUS
 10
158.9393553611
 20
383.6551197954
 40
24.9759771279
100
AcDbArc
 50
336.4225535086
 51
345.1354772874
  0
ARC
  5
93F
100
AcDbEntity
  8
MOVING_S3_0-1_FRONT
100
AcDbCircle
 62
1
  6
CONTINUOUS
 10
173.6074700441
 20
370.7189050808
 40
21.7282340046
100
AcDbArc
 50
68.9578395038
 51
75.6111020117
  0
ARC
  5
940
100
AcDbEntity
  8
MOVING_S3_0-1_FRONT
100
AcDbCircle
 62
1
  6
CONTINUOUS
 10
161.9759319775
 20
384.2054965097
 40
20.0958481132
100
AcDbArc
 50
335.7688591652
 51
344.9377804994
  0
ARC
  5
941
100
AcDbEntity
  8
MOVING_S3_0-1_FRONT
100
AcDbCircle
 62
1
  6
CONTINUOUS
 10
162.8834627382
 20
383.9122766993
 40
19.143356362
100
AcDbArc
 50
345.0793726702
 51
356.7978525151
  0
ARC
  5
942
100
AcDbEntity
  8
MOVING_S3_0-1_FRONT
100
AcDbCircle
 62
1
  6
CONTINUOUS
 10
164.1968541811
 20
383.1175935195
 40
17.62428372
100
AcDbArc
 50
327.815108876
 51
336.0307169037
  0
ARC
  5
943
100
AcDbEntity
  8
MOVING_S3_0-1_FRONT
100
AcDbCircle
 62
1
  6
CONTINUOUS
 10
172.7646244105
 20
373.076166017
 40
17.4241042311
100
AcDbArc
 50
66.3823045336
 51
71.0584979628
  0
ARC
  5
944
100
AcDbEntity
  8
MOVING_S3_0-1_FRONT
100
AcDbCircle
 62
1
  6
CONTINUOUS
 10
167.6941996123
 20
379.7006842037
 40
15.3707451917
100
AcDbArc
 50
326.7269592265
 51
336.8791321394
  0
ARC
  5
945
100
AcDbEntity
  8
MOVING_S3_0-1_FRONT
100
AcDbCircle
 62
1
  6
CONTINUOUS
 10
170.1468750749
 20
379.3978309703
 40
10.6072587282
100
AcDbArc
 50
322.3653535384
 51
327.7009363031
  0
ARC
  5
946
100
AcDbEntity
  8
MOVING_S3_0-1_FRONT
100
AcDbCircle
 62
1
  6
CONTINUOUS
 10
174.386493456
 20
380.8050473734
 40
9.5655687872
100
AcDbArc
 50
72.9725239248
 51
76.3776042354
  0
ARC
  5
947
100
AcDbEntity
  8
MOVING_S3_0-1_FRONT
100
AcDbCircle
 62
1
  6
CONTINUOUS
 10
176.0775241796
 20
380.5531128723
 40
9.2462659763
100
AcDbArc
 50
58.2819343921
 51
66.6295743604
  0
ARC
  5
948
100
AcDbEntity
  8
MOVING_S3_0-1_FRONT
100
AcDbCircle
 62
1
  6
CONTINUOUS
 10
181.988656272
 20
386.6669985948
 40
6.1852624394
100
AcDbArc
 50
162.3530498172
 51
177.6976629689
  0
ARC
  5
949
100
AcDbEntity
  8
MOVING_S3_0-1_FRONT
100
AcDbCircle
 62
1
  6
CONTINUOUS
 10
179.4591480271
 20
385.417131015
 40
5.9119284661
100
AcDbArc
 50
47.8491108683
 51
70.7413602396
  0
ARC
  5
94A
100
AcDbEntity
  8
MOVING_S3_0-1_FRONT
100
AcDbCircle
 62
1
  6
CONTINUOUS
 10
174.0799636719
 20
376.366925448
 40
5.6418211343
100
AcDbArc
 50
316.4664347694
 51
322.3511103234
  0
ARC
  5
94B
100
AcDbEntity
  8
MOVING_S3_0-1_FRONT
100
AcDbCircle
 62
1
  6
CONTINUOUS
 10
176.5260394034
 20
373.9422133572
 40
4.8275800611
100
AcDbArc
 50
316.22357629
 51
326.3596484114
  0
ARC
  5
94C
100
AcDbEntity
  8
MOVING_S3_0-1_FRONT
100
AcDbCircle
 62
1
  6
CONTINUOUS
 10
178.6174806906
 20
387.1576007256
 40
3.3607131531
100
AcDbArc
 50
355.6670041706
 51
3.4399470359
  0
ARC
  5
94D
100
AcDbEntity
  8
MOVING_S3_0-1_FRONT
100
AcDbCircle
 62
1
  6
CONTINUOUS
 10
179.6938688345
 20
386.0781775087
 40
2.650691167
100
AcDbArc
 50
32.8440700194
 51
61.9911357613
  0
ARC
  5
94E
100
AcDbEntity
  8
MOVING_S3_0-1_FRONT
100
AcDbCircle
 62
1
  6
CONTINUOUS
 10
178.9974334287
 20
389.2438437519
 40
2.5217276335
100
AcDbArc
 50
89.7830008578
 51
159.9932994757
  0
ARC
  5
94F
100
AcDbEntity
  8
MOVING_S3_0-1_FRONT
100
AcDbCircle
 62
1
  6
CONTINUOUS
 10
176.5544955507
 20
373.9805345338
 40
2.2043097323
100
AcDbArc
 50
304.3105828532
 51
317.1333582168
  0
ARC
  5
950
100
AcDbEntity
  8
MOVING_S3_0-1_FRONT
100
AcDbCircle
 62
1
  6
CONTINUOUS
 10
179.6145072375
 20
372.3282376281
 40
2.0000123556
100
AcDbArc
 50
187.0000022706
 51
269.7423055053
  0
ARC
  5
951
100
AcDbEntity
  8
MOVING_S3_0-1_FRONT
100
AcDbCircle
 62
1
  6
CONTINUOUS
 10
182.1931767789
 20
388.6085780413
 40
1.7149318488
100
AcDbArc
 50
4.0993991797
 51
44.0114847262
  0
ARC
  5
952
100
AcDbEntity
  8
MOVING_S3_0-1_FRONT
100
AcDbCircle
 62
1
  6
CONTINUOUS
 10
179.0338290399
 20
371.5352912612
 40
1.3516265561
100
AcDbArc
 50
300.3041550533
 51
316.3465701071
  0
ARC
  5
953
100
AcDbEntity
  8
MOVING_S3_0-1_FRONT
100
AcDbCircle
 62
1
  6
CONTINUOUS
 10
179.5451307925
 20
370.6661747139
 40
0.3432812846
100
AcDbArc
 50
280.1306988736
 51
299.8219195173
  0
ARC
  5
954
100
AcDbEntity
  8
MOVING_S3_0-1_FRONT
100
AcDbCircle
 62
1
  6
CONTINUOUS
 10
181.6481874238
 20
387.3397784603
 40
0.3245359466
100
AcDbArc
 50
3.4399470359
 51
32.8440700194
  0
ARC
  5
955
100
AcDbEntity
  8
MOVING_S3_0-1_FRONT
100
AcDbCircle
 62
1
  6
CONTINUOUS
 10
282.166056047
 20
503.3572865916
 40
248.0005869193
100
AcDbArc
 50
282.7275463433
 51
283.6976857634
  0
ARC
  5
956
100
AcDbEntity
  8
MOVING_S3_0-1_FRONT
100
AcDbCircle
 62
1
  6
CONTINUOUS
 10
282.9323636524
 20
500.2935638722
 40
244.84254044
100
AcDbArc
 50
283.6932333285
 51
285.494533934
  0
ARC
  5
957
100
AcDbEntity
  8
MOVING_S3_0-1_FRONT
100
AcDbCircle
 62
1
  6
CONTINUOUS
 10
301.2184315832
 20
363.914034706
 40
35.6700308541
100
AcDbArc
 50
4.1746697113
 51
4.9308131225
  0
ARC
  5
958
100
AcDbEntity
  8
MOVING_S3_0-1_FRONT
100
AcDbCircle
 62
1
  6
CONTINUOUS
 10
306.5530201479
 20
364.2376494816
 40
31.5118967247
100
AcDbArc
 50
2.7487077137
 51
7.634649822
  0
ARC
  5
959
100
AcDbEntity
  8
MOVING_S3_0-1_FRONT
100
AcDbCircle
 62
1
  6
CONTINUOUS
 10
308.027416576
 20
363.5533508724
 40
29.6675248477
100
AcDbArc
 50
4.2534745467
 51
4.4054870051
  0
ARC
  5
95A
100
AcDbEntity
  8
MOVING_S3_0-1_FRONT
100
AcDbCircle
 62
1
  6
CONTINUOUS
 10
317.5633985647
 20
365.67034743
 40
20.4088237934
100
AcDbArc
 50
7.7547929463
 51
13.4462807658
  0
ARC
  5
95B
100
AcDbEntity
  8
MOVING_S3_0-1_FRONT
100
AcDbCircle
 62
1
  6
CONTINUOUS
 10
316.6802705628
 20
372.18559521
 40
7.4054271737
100
AcDbArc
 50
8.21074296
 51
11.7892376551
  0
ARC
  5
95C
100
AcDbEntity
  8
MOVING_S3_0-1_FRONT
100
AcDbCircle
 62
1
  6
CONTINUOUS
 10
319.5224403069
 20
370.3794245521
 40
5.3838946642
100
AcDbArc
 50
7.3849093348
 51
21.2900528329
  0
ARC
  5
95D
100
AcDbEntity
  8
MOVING_S3_0-1_FRONT
100
AcDbCircle
 62
1
  6
CONTINUOUS
 10
320.3868276157
 20
370.7696109999
 40
4.3322968756
100
AcDbArc
 50
39.2607995333
 51
44.4019008397
  0
ARC
  5
95E
100
AcDbEntity
  8
MOVING_S3_0-1_FRONT
100
AcDbCircle
 62
1
  6
CONTINUOUS
 10
320.4955772274
 20
370.8788991605
 40
4.1781337375
100
AcDbArc
 50
44.3746090941
 51
50.9653870756
  0
ARC
  5
95F
100
AcDbEntity
  8
MOVING_S3_0-1_FRONT
100
AcDbCircle
 62
1
  6
CONTINUOUS
 10
320.8202895891
 20
370.7780213573
 40
4.0311283387
100
AcDbArc
 50
22.7092734907
 51
37.700581234
  0
ARC
  5
960
100
AcDbEntity
  8
MOVING_S3_0-1_FRONT
100
AcDbCircle
 62
1
  6
CONTINUOUS
 10
321.4399287186
 20
372.0980683952
 40
2.6366049314
100
AcDbArc
 50
50.220420101
 51
61.237924622
  0
ARC
  5
961
100
AcDbEntity
  8
MOVING_S3_0-1_FRONT
100
AcDbCircle
 62
1
  6
CONTINUOUS
 10
342.677802434
 20
354.194570138
 40
2.9026115105
100
AcDbArc
 50
254.8131395691
 51
259.5387591792
  0
ARC
  5
962
100
AcDbEntity
  8
MOVING_S3_0-1_FRONT
100
AcDbCircle
 62
1
  6
CONTINUOUS
 10
333.4113109981
 20
351.764853572
 40
2.7650558928
100
AcDbArc
 50
81.2541251922
 51
86.678485926
  0
ARC
  5
963
100
AcDbEntity
  8
MOVING_S3_0-1_FRONT
100
AcDbCircle
 62
1
  6
CONTINUOUS
 10
341.1756685689
 20
350.3327619422
 40
1.6861600336
100
AcDbArc
 50
55.8158550361
 51
66.3013817819
  0
ARC
  5
964
100
AcDbEntity
  8
MOVING_S3_0-1_FRONT
100
AcDbCircle
 62
1
  6
CONTINUOUS
 10
333.4981018794
 20
353.2404013147
 40
1.2869588258
100
AcDbArc
 50
86.729839337
 51
92.9476630154
  0
ARC
  5
965
100
AcDbEntity
  8
MOVING_S3_0-1_FRONT
100
AcDbCircle
 62
1
  6
CONTINUOUS
 10
341.7126709862
 20
351.1234075434
 40
0.7303922465
100
AcDbArc
 50
46.130660104
 51
55.815855036
  0
ARC
  5
966
100
AcDbEntity
  8
MOVING_S3_0-1_FRONT
100
AcDbCircle
 62
1
  6
CONTINUOUS
 10
333.4689717066
 20
353.8829651193
 40
0.6437593263
100
AcDbArc
 50
93.2993470597
 51
97.8812395681
  0
ARC
  5
967
100
AcDbEntity
  8
MOVING_S3_0-1_FRONT
100
AcDbCircle
 62
1
  6
CONTINUOUS
 10
333.4334277392
 20
354.1384921257
 40
0.3857721634
100
AcDbArc
 50
97.8559438696
 51
103.5384395039
  0
ARC
  5
968
100
AcDbEntity
  8
MOVING_S3_0-1_FRONT
100
AcDbCircle
 62
1
  6
CONTINUOUS
 10
342.2133098171
 20
351.6782707776
 40
0.3438001158
100
AcDbArc
 50
259.519840807
 51
269.9641196911
  0
ARC
  5
969
100
AcDbEntity
  8
MOVING_S3_0-1_FRONT
100
AcDbCircle
 62
1
  6
CONTINUOUS
 10
333.3804737852
 20
354.3450755661
 40
0.1725608835
100
AcDbArc
 50
102.5018364196
 51
118.942508006
  0
ARC
  5
96A
100
AcDbEntity
  8
MOVING_S3_0-1_FRONT
100
AcDbCircle
 62
1
  6
CONTINUOUS
 10
333.3119650194
 20
354.4569162416
 40
0.0419419472
100
AcDbArc
 50
110.9535880127
 51
181.5081860319
  0
ARC
  5
96B
100
AcDbEntity
  8
MOVING_S3_0-1_FRONT
100
AcDbCircle
 62
1
  6
CONTINUOUS
 10
342.1926195635
 20
351.622682371
 40
0.0378418943
100
AcDbArc
 50
3.3060665029
 51
46.1306601041
  0
ARC
  5
96C
100
AcDbEntity
  8
MOVING_S3_0-1_FRONT
100
AcDbCircle
 62
1
  6
CONTINUOUS
 10
333.3045662574
 20
354.0788387714
 40
0.0248393828
100
AcDbArc
 50
189.5546628425
 51
230.0278139847
  0
ARC
  5
96D
100
AcDbEntity
  8
MOVING_S3_0-1_FRONT
100
AcDbCircle
 62
1
  6
CONTINUOUS
 10
342.2166748274
 20
351.3527468326
 40
0.0186234949
100
AcDbArc
 50
258.9160634682
 51
329.9131050711
  0
ARC
  5
96E
100
AcDbEntity
  8
MOVING_S3_0-1_FRONT
100
AcDbCircle
 62
1
  6
CONTINUOUS
 10
323.0650423913
 20
364.9140345456
 40
14.384907976
100
AcDbArc
 50
12.360138651
 51
14.2536758955
  0
ARC
  5
96F
100
AcDbEntity
  8
MOVING_S3_0-1_FRONT
100
AcDbCircle
 62
1
  6
CONTINUOUS
 10
325.1799491789
 20
365.4537378807
 40
12.2022252662
100
AcDbArc
 50
14.2425669972
 51
16.4768905446
  0
ARC
  5
970
100
AcDbEntity
  8
MOVING_S3_0-1_FRONT
100
AcDbCircle
 62
1
  6
CONTINUOUS
 10
327.4860013238
 20
366.1366570038
 40
9.7971776155
100
AcDbArc
 50
16.4721407584
 51
18.6508845138
  0
ARC
  5
971
100
AcDbEntity
  8
MOVING_S3_0-1_FRONT
100
AcDbCircle
 62
1
  6
CONTINUOUS
 10
329.7748803015
 20
366.912228576
 40
7.3804717159
100
AcDbArc
 50
18.6287075192
 51
21.2375763679
  0
ARC
  5
972
100
AcDbEntity
  8
MOVING_S3_0-1_FRONT
100
AcDbCircle
 62
1
  6
CONTINUOUS
 10
332.2190292025
 20
366.6673132833
 40
4.5481854783
100
AcDbArc
 50
3.9418208297
 51
8.9810349331
  0
ARC
  5
973
100
AcDbEntity
  8
MOVING_S3_0-1_FRONT
100
AcDbCircle
 62
1
  6
CONTINUOUS
 10
324.9381712362
 20
367.4531480614
 40
12.821658811
100
AcDbArc
 50
13.3611579334
 51
19.8574829781
  0
ARC
  5
974
100
AcDbEntity
  8
MOVING_S3_0-1_FRONT
100
AcDbCircle
 62
1
  6
CONTINUOUS
 10
330.2408436016
 20
367.5875508712
 40
6.7173424525
100
AcDbArc
 50
17.3051900465
 51
23.4347420961
  0
ARC
  5
975
100
AcDbEntity
  8
MOVING_S3_0-1_FRONT
100
AcDbCircle
 62
1
  6
CONTINUOUS
 10
330.9285665205
 20
369.5891752235
 40
6.4619319181
100
AcDbArc
 50
20.0863120627
 51
24.5921482071
  0
ARC
  5
976
100
AcDbEntity
  8
MOVING_S3_0-1_FRONT
100
AcDbCircle
 62
1
  6
CONTINUOUS
 10
326.1251931717
 20
371.3643213761
 40
1.289768313
100
AcDbArc
 50
226.7217580399
 51
252.8551952668
  0
ARC
  5
977
100
AcDbEntity
  8
MOVING_S3_0-1_FRONT
100
AcDbCircle
 62
1
  6
CONTINUOUS
 10
326.0818983157
 20
371.3534156137
 40
1.2523789397
100
AcDbArc
 50
193.0118045759
 51
227.8218157022
  0
ARC
  5
978
100
AcDbEntity
  8
MOVING_S3_0-1_FRONT
100
AcDbCircle
 62
1
  6
CONTINUOUS
 10
325.379428077
 20
371.4325345844
 40
0.5767991289
100
AcDbArc
 50
196.9665392501
 51
261.2247607903
  0
ARC
  5
979
100
AcDbEntity
  8
MOVING_S3_0-1_FRONT
100
AcDbCircle
 62
1
  6
CONTINUOUS
 10
325.6303775128
 20
372.566443633
 40
0.4364232543
100
AcDbArc
 50
160.9490060702
 51
180.6203703485
  0
ARC
  5
97A
100
AcDbEntity
  8
MOVING_S3_0-1_FRONT
100
AcDbCircle
 62
1
  6
CONTINUOUS
 10
325.5562053327
 20
372.5656405019
 40
0.3622467262
100
AcDbArc
 50
180.6203703485
 51
212.2756349825
  0
ARC
  5
97B
100
AcDbEntity
  8
MOVING_S3_0-1_FRONT
100
AcDbCircle
 62
1
  6
CONTINUOUS
 10
325.4815869929
 20
372.6178244889
 40
0.279011021
100
AcDbArc
 50
80.6468211637
 51
160.9490060701
  0
ARC
  5
97C
100
AcDbEntity
  8
MOVING_S3_0-1_FRONT
100
AcDbCircle
 62
1
  6
CONTINUOUS
 10
325.0620236422
 20
372.2535258626
 40
0.2222454391
100
AcDbArc
 50
342.3285085045
 51
32.2756349825
  0
ARC
  5
97D
100
AcDbEntity
  8
MOVING_S3_0-1_FRONT
100
AcDbCircle
 62
1
  6
CONTINUOUS
 10
325.2955649563
 20
371.8790052751
 40
0.2210405783
100
AcDbArc
 50
40.7598145999
 51
81.3615907142
  0
ARC
  5
97E
100
AcDbEntity
  8
MOVING_S3_0-1_FRONT
100
AcDbCircle
 62
1
  6
CONTINUOUS
 10
325.3390541318
 20
372.1652660121
 40
0.0685047859
100
AcDbArc
 50
162.3285085046
 51
261.3615907142
  0
ARC
  5
97F
100
AcDbEntity
  8
MOVING_S3_0-1_FRONT
100
AcDbCircle
 62
1
  6
CONTINUOUS
 10
344.8262515056
 20
362.3799486701
 40
11.3651744625
100
AcDbArc
 50
253.545718049
 51
255.170513979
  0
ARC
  5
980
100
AcDbEntity
  8
MOVING_S3_0-1_FRONT
100
AcDbCircle
 62
1
  6
CONTINUOUS
 10
342.8622792602
 20
361.6921201286
 40
9.5659750736
100
AcDbArc
 50
248.3919737297
 51
254.6160950482
  0
ARC
  5
981
100
AcDbEntity
  8
MOVING_S3_0-1_FRONT
100
AcDbCircle
 62
1
  6
CONTINUOUS
 10
341.2956668126
 20
366.8165806916
 40
4.5122241743
100
AcDbArc
 50
183.8868210604
 51
215.5879496963
  0
ARC
  5
982
100
AcDbEntity
  8
MOVING_S3_0-1_FRONT
100
AcDbCircle
 62
1
  6
CONTINUOUS
 10
341.1899544441
 20
366.7607408647
 40
4.3937898619
100
AcDbArc
 50
215.7980179314
 51
248.3953837272
  0
ARC
  5
983
100
AcDbEntity
  8
MOVING_S3_0-1_FRONT
100
AcDbCircle
 62
1
  6
CONTINUOUS
 10
341.2104485861
 20
365.9140595218
 40
3.1860748725
100
AcDbArc
 50
182.9728418794
 51
199.1556690124
  0
ARC
  5
984
100
AcDbEntity
  8
MOVING_S3_0-1_FRONT
100
AcDbCircle
 62
1
  6
CONTINUOUS
 10
341.0991934804
 20
365.8765587534
 40
3.0686747459
100
AcDbArc
 50
199.1758790548
 51
216.3228943807
  0
ARC
  5
985
100
AcDbEntity
  8
MOVING_S3_0-1_FRONT
100
AcDbCircle
 62
1
  6
CONTINUOUS
 10
341.0822687529
 20
365.8659174303
 40
3.0487357498
100
AcDbArc
 50
216.3501725816
 51
240.8446676907
  0
ARC
  5
986
100
AcDbEntity
  8
MOVING_S3_0-1_FRONT
100
AcDbCircle
 62
1
  6
CONTINUOUS
 10
336.1736604718
 20
367.330123984
 40
0.5398606511
100
AcDbArc
 50
5.0152709384
 51
33.1311132077
  0
ARC
  5
987
100
AcDbEntity
  8
MOVING_S3_0-1_FRONT
100
AcDbCircle
 62
1
  6
CONTINUOUS
 10
338.0509491156
 20
365.2829341022
 40
0.4664200963
100
AcDbArc
 50
92.738896368
 51
105.707501772
  0
ARC
  5
988
100
AcDbEntity
  8
MOVING_S3_0-1_FRONT
100
AcDbCircle
 62
1
  6
CONTINUOUS
 10
337.9561508045
 20
365.5799071151
 40
0.1552530153
100
AcDbArc
 50
101.6964668526
 51
144.4549507581
  0
ARC
  5
989
100
AcDbEntity
  8
S3_EXTERN_HANDLE_FRONT
100
AcDbCircle
 62
5
  6
CONTINUOUS
 10
340.2048005455
 20
373.0418042184
 40
25.9729455508
100
AcDbArc
 50
331.1598764773
 51
336.4755003857
  0
ARC
  5
98A
100
AcDbEntity
  8
MOVING_S3_0-1_FRONT
100
AcDbCircle
 62
1
  6
CONTINUOUS
 10
339.0118900853
 20
372.6649950341
 40
2.5246880088
100
AcDbArc
 50
185.5290710543
 51
187.727340583
  0
ARC
  5
98B
100
AcDbEntity
  8
MOVING_S3_0-1_FRONT
100
AcDbCircle
 62
1
  6
CONTINUOUS
 10
335.0889969107
 20
370.5909030759
 40
0.9367474062
100
AcDbArc
 50
341.7975884024
 51
355.807788564
  0
ARC
  5
98C
100
AcDbEntity
  8
MOVING_S3_0-1_FRONT
100
AcDbCircle
 62
1
  6
CONTINUOUS
 10
335.1507782707
 20
370.654480578
 40
0.8823971779
100
AcDbArc
 50
351.3929973908
 51
10.7346333306
  0
ARC
  5
98D
100
AcDbEntity
  8
MOVING_S3_0-1_FRONT
100
AcDbCircle
 62
1
  6
CONTINUOUS
 10
337.257029625
 20
372.4008094758
 40
0.7506855383
100
AcDbArc
 50
185.7555128828
 51
199.7286125229
  0
ARC
  5
98E
100
AcDbEntity
  8
MOVING_S3_0-1_FRONT
100
AcDbCircle
 62
1
  6
CONTINUOUS
 10
337.4273223701
 20
372.6451835936
 40
0.7316687021
100
AcDbArc
 50
183.1337268363
 51
195.2468503572
  0
ARC
  5
98F
100
AcDbEntity
  8
MOVING_S3_0-1_FRONT
100
AcDbCircle
 62
1
  6
CONTINUOUS
 10
337.2481926357
 20
372.5963578015
 40
0.5460038974
100
AcDbArc
 50
195.2468503572
 51
215.6217129692
  0
ARC
  5
990
100
AcDbEntity
  8
MOVING_S3_0-1_FRONT
100
AcDbCircle
 62
1
  6
CONTINUOUS
 10
335.2759058573
 20
369.6577528997
 40
0.3339317304
100
AcDbArc
 50
256.0803763511
 51
314.4913923665
  0
ARC
  5
991
100
AcDbEntity
  8
MOVING_S3_0-1_FRONT
100
AcDbCircle
 62
1
  6
CONTINUOUS
 10
335.7269312657
 20
370.4619273653
 40
0.3254412235
100
AcDbArc
 50
258.9724122981
 51
291.4028605139
  0
ARC
  5
992
100
AcDbEntity
  8
MOVING_S3_0-1_FRONT
100
AcDbCircle
 62
1
  6
CONTINUOUS
 10
335.7459223093
 20
370.7385046079
 40
0.2861334212
100
AcDbArc
 50
44.9106852756
 51
71.1787307126
  0
ARC
  5
993
100
AcDbEntity
  8
MOVING_S3_0-1_FRONT
100
AcDbCircle
 62
1
  6
CONTINUOUS
 10
335.760427585
 20
370.7530686178
 40
0.2655784321
100
AcDbArc
 50
14.3378787645
 51
44.8948125993
  0
ARC
  5
994
100
AcDbEntity
  8
MOVING_S3_0-1_FRONT
100
AcDbCircle
 62
1
  6
CONTINUOUS
 10
335.7693943741
 20
370.3651562933
 40
0.2198884528
100
AcDbArc
 50
290.3030067712
 51
342.2955585849
  0
ARC
  5
995
100
AcDbEntity
  8
MOVING_S3_0-1_FRONT
100
AcDbCircle
 62
1
  6
CONTINUOUS
 10
336.5788462297
 20
372.6092409901
 40
0.2094938682
100
AcDbArc
 50
94.5313007943
 51
173.3005352994
  0
ARC
  5
996
100
AcDbEntity
  8
MOVING_S3_0-1_FRONT
100
AcDbCircle
 62
1
  6
CONTINUOUS
 10
336.699257665
 20
372.4036013972
 40
0.2015999907
100
AcDbArc
 50
90.7133471091
 51
131.4676125461
  0
ARC
  5
997
100
AcDbEntity
  8
MOVING_S3_0-1_FRONT
100
AcDbCircle
 62
1
  6
CONTINUOUS
 10
336.6979990071
 20
372.4049477318
 40
0.1997576693
100
AcDbArc
 50
131.45280883
 51
175.1780298642
  0
ARC
  5
998
100
AcDbEntity
  8
MOVING_S3_0-1_FRONT
100
AcDbCircle
 62
1
  6
CONTINUOUS
 10
336.6921830219
 20
372.363842354
 40
0.1410398585
100
AcDbArc
 50
251.8690452357
 51
322.6868922078
  0
ARC
  5
999
100
AcDbEntity
  8
MOVING_S3_0-1_FRONT
100
AcDbCircle
 62
1
  6
CONTINUOUS
 10
336.6227094741
 20
372.1516759985
 40
0.0822114265
100
AcDbArc
 50
71.8690452358
 51
238.5659403301
  0
ARC
  5
99A
100
AcDbEntity
  8
MOVING_S3_0-1_FRONT
100
AcDbCircle
 62
1
  6
CONTINUOUS
 10
335.6259919407
 20
372.8049180346
 40
0.0273814063
100
AcDbArc
 50
2.6160683052
 51
94.4080932339
  0
ARC
  5
99B
100
AcDbEntity
  8
MOVING_S3_0-1_FRONT
100
AcDbCircle
 62
1
  6
CONTINUOUS
 10
320.5224147818
 20
383.7851472059
 40
110.9188743019
100
AcDbArc
 50
280.0407503862
 51
284.0968598678
  0
ARC
  5
99C
100
AcDbEntity
  8
S3_EXTERN_HANDLE_FRONT
100
AcDbCircle
 62
5
  6
CONTINUOUS
 10
326.0764411252
 20
380.9756551422
 40
42.1761967198
100
AcDbArc
 50
325.860509841
 51
330.9768191338
  0
ARC
  5
99D
100
AcDbEntity
  8
S3_EXTERN_HANDLE_FRONT
100
AcDbCircle
 62
5
  6
CONTINUOUS
 10
341.7248716775
 20
374.5896820108
 40
24.8893673822
100
AcDbArc
 50
346.4398943378
 51
353.3218564273
  0
ARC
  5
99E
100
AcDbEntity
  8
S3_EXTERN_HANDLE_FRONT
100
AcDbCircle
 62
5
  6
CONTINUOUS
 10
343.2616992402
 20
374.0585147281
 40
23.2713624454
100
AcDbArc
 50
339.0001892981
 51
346.8240494547
  0
ARC
  5
99F
100
AcDbEntity
  8
MOVING_S3_0-1_FRONT
100
AcDbCircle
 62
1
  6
CONTINUOUS
 10
335.4031420775
 20
375.8697456341
 40
3.0445306547
100
AcDbArc
 50
263.1881602122
 51
273.9682905998
  0
ARC
  5
9A0
100
AcDbEntity
  8
MOVING_S3_0-1_FRONT
100
AcDbCircle
 62
1
  6
CONTINUOUS
 10
325.208480241
 20
374.712549898
 40
1.8962749106
100
AcDbArc
 50
219.3068338609
 51
230.7925625358
  0
ARC
  5
9A1
100
AcDbEntity
  8
MOVING_S3_0-1_FRONT
100
AcDbCircle
 62
1
  6
CONTINUOUS
 10
324.2258792628
 20
373.7394200918
 40
0.299188999
100
AcDbArc
 50
84.9063443608
 51
187.8389134806
  0
ARC
  5
9A2
100
AcDbEntity
  8
S3_EXTERN_HANDLE_FRONT
100
AcDbCircle
 62
5
  6
CONTINUOUS
 10
370.0371448383
 20
352.0946566202
 40
162.7465347188
100
AcDbArc
 50
279.795666517
 51
280.537309295
  0
ARC
  5
9A3
100
AcDbEntity
  8
S3_EXTERN_HANDLE_FRONT
100
AcDbCircle
 62
5
  6
CONTINUOUS
 10
375.6295080624
 20
350.4884439809
 40
3.981095657
100
AcDbArc
 50
83.771490965
 51
85.7395445074
  0
ARC
  5
9A4
100
AcDbEntity
  8
S3_EXTERN_HANDLE_FRONT
100
AcDbCircle
 62
5
  6
CONTINUOUS
 10
375.4704599332
 20
350.6383911869
 40
3.8886793396
100
AcDbArc
 50
84.9590063136
 51
92.5466337271
  0
ARC
  5
9A5
100
AcDbEntity
  8
S3_EXTERN_HANDLE_FRONT
100
AcDbCircle
 62
5
  6
CONTINUOUS
 10
375.9062048609
 20
353.239025508
 40
1.4985121654
100
AcDbArc
 50
225.1149181889
 51
257.5964183032
  0
ARC
  5
9A6
100
AcDbEntity
  8
S3_EXTERN_HANDLE_FRONT
100
AcDbCircle
 62
5
  6
CONTINUOUS
 10
375.3485824013
 20
353.052630914
 40
1.4714799289
100
AcDbArc
 50
91.9825588436
 51
106.026312207
  0
ARC
  5
9A7
100
AcDbEntity
  8
S3_EXTERN_HANDLE_FRONT
100
AcDbCircle
 62
5
  6
CONTINUOUS
 10
374.925203673
 20
353.3730996869
 40
1.0518351633
100
AcDbArc
 50
262.2274006152
 51
290.1810447074
  0
ARC
  5
9A8
100
AcDbEntity
  8
S3_EXTERN_HANDLE_FRONT
100
AcDbCircle
 62
5
  6
CONTINUOUS
 10
375.751765413
 20
353.4426646691
 40
1.0305832542
100
AcDbArc
 50
80.3080211711
 51
106.1897120185
  0
ARC
  5
9A9
100
AcDbEntity
  8
S3_EXTERN_HANDLE_FRONT
100
AcDbCircle
 62
5
  6
CONTINUOUS
 10
377.667288441
 20
353.1533963395
 40
1.0
100
AcDbArc
 50
183.0
 51
270.0
  0
ARC
  5
9AA
100
AcDbEntity
  8
S3_EXTERN_HANDLE_FRONT
100
AcDbCircle
 62
5
  6
CONTINUOUS
 10
378.4832426183
 20
353.1533963395
 40
1.0
100
AcDbArc
 50
270.0
 51
357.0
  0
ARC
  5
9AB
100
AcDbEntity
  8
S3_EXTERN_HANDLE_FRONT
100
AcDbCircle
 62
5
  6
CONTINUOUS
 10
374.9531125462
 20
353.3111455633
 40
0.9840681728
100
AcDbArc
 50
289.9002869765
 51
329.8652150176
  0
ARC
  5
9AC
100
AcDbEntity
  8
S3_EXTERN_HANDLE_FRONT
100
AcDbCircle
 62
5
  6
CONTINUOUS
 10
375.0147673185
 20
353.2708014782
 40
0.910500581
100
AcDbArc
 50
330.1130596171
 51
359.8692766707
  0
ARC
  5
9AD
100
AcDbEntity
  8
S3_EXTERN_HANDLE_FRONT
100
AcDbCircle
 62
5
  6
CONTINUOUS
 10
376.7015573908
 20
353.3010941904
 40
0.7769664567
100
AcDbArc
 50
182.3877544026
 51
215.998037083
  0
ARC
  5
9AE
100
AcDbEntity
  8
S3_EXTERN_HANDLE_FRONT
100
AcDbCircle
 62
5
  6
CONTINUOUS
 10
376.6820615675
 20
353.2545607247
 40
0.734310359
100
AcDbArc
 50
213.9542038698
 51
249.5303913858
  0
ARC
  5
9AF
100
AcDbEntity
  8
S3_EXTERN_HANDLE_FRONT
100
AcDbCircle
 62
5
  6
CONTINUOUS
 10
375.0470573588
 20
354.0906653342
 40
0.3905573723
100
AcDbArc
 50
105.5528963754
 51
132.1806159239
  0
ARC
  5
9B0
100
AcDbEntity
  8
S3_EXTERN_HANDLE_FRONT
100
AcDbCircle
 62
5
  6
CONTINUOUS
 10
375.0065548956
 20
352.3357594278
 40
0.2236554395
100
AcDbArc
 50
181.2377743639
 51
225.1149181889
  0
ARC
  5
9B1
100
AcDbEntity
  8
S3_EXTERN_HANDLE_FRONT
100
AcDbCircle
 62
5
  6
CONTINUOUS
 10
374.8822971619
 20
354.2776883352
 40
0.1413788905
100
AcDbArc
 50
133.5942286414
 51
180.8345614435
  0
ARC
  5
9B2
100
AcDbEntity
  8
S3_EXTERN_HANDLE_FRONT
100
AcDbCircle
 62
5
  6
CONTINUOUS
 10
374.9253159768
 20
355.3081550988
 40
1.0488598147
100
AcDbArc
 50
259.8751634598
 51
278.0358575376
  0
ARC
  5
9B3
100
AcDbEntity
  8
S3_EXTERN_HANDLE_FRONT
100
AcDbCircle
 62
5
  6
CONTINUOUS
 10
374.9867318504
 20
355.0295682172
 40
0.7647356801
100
AcDbArc
 50
276.397204692
 51
308.6560775535
  0
ARC
  5
9B4
100
AcDbEntity
  8
S3_EXTERN_HANDLE_FRONT
100
AcDbCircle
 62
5
  6
CONTINUOUS
 10
380.027571369
 20
353.0351294808
 40
38.510900684
100
AcDbArc
 50
93.6571343446
 51
104.1530299308
  0
ARC
  5
9B5
100
AcDbEntity
  8
S3_EXTERN_HANDLE_FRONT
100
AcDbCircle
 62
5
  6
CONTINUOUS
 10
387.3793981556
 20
351.4572118619
 40
2.756429002
100
AcDbArc
 50
154.6754466542
 51
177.661077193
  0
ARC
  5
9B6
100
AcDbEntity
  8
S3_EXTERN_HANDLE_FRONT
100
AcDbCircle
 62
5
  6
CONTINUOUS
 10
379.7328929787
 20
351.3852101637
 40
2.6445133305
100
AcDbArc
 50
63.4642223791
 51
81.2070893947
  0
ARC
  5
9B7
100
AcDbEntity
  8
S3_EXTERN_HANDLE_FRONT
100
AcDbCircle
 62
5
  6
CONTINUOUS
 10
386.9267350282
 20
349.9638706561
 40
2.6218300498
100
AcDbArc
 50
67.8428342032
 51
80.8173462519
  0
ARC
  5
9B8
100
AcDbEntity
  8
S3_EXTERN_HANDLE_FRONT
100
AcDbCircle
 62
5
  6
CONTINUOUS
 10
384.3280191281
 20
351.5697032926
 40
2.2972464015
100
AcDbArc
 50
0.0
 51
27.6639588705
  0
ARC
  5
9B9
100
AcDbEntity
  8
S3_EXTERN_HANDLE_FRONT
100
AcDbCircle
 62
5
  6
CONTINUOUS
 10
384.1744358317
 20
350.4967639076
 40
2.0702391313
100
AcDbArc
 50
99.283797583
 51
117.9526733326
  0
ARC
  5
9BA
100
AcDbEntity
  8
S3_EXTERN_HANDLE_FRONT
100
AcDbCircle
 62
5
  6
CONTINUOUS
 10
380.063376636
 20
353.3902390371
 40
2.0423082964
100
AcDbArc
 50
279.2749511879
 51
294.0452848841
  0
ARC
  5
9BB
100
AcDbEntity
  8
S3_EXTERN_HANDLE_FRONT
100
AcDbCircle
 62
5
  6
CONTINUOUS
 10
381.1241286689
 20
352.786918891
 40
1.0398531957
100
AcDbArc
 50
248.2929739593
 51
267.5744834518
  0
ARC
  5
9BC
100
AcDbEntity
  8
S3_EXTERN_HANDLE_FRONT
100
AcDbCircle
 62
5
  6
CONTINUOUS
 10
381.0964189726
 20
352.7338448717
 40
0.9803131456
100
AcDbArc
 50
206.8328280604
 51
248.6503603449
  0
ARC
  5
9BD
100
AcDbEntity
  8
S3_EXTERN_HANDLE_FRONT
100
AcDbCircle
 62
5
  6
CONTINUOUS
 10
381.0664363076
 20
352.7099394415
 40
0.9428003951
100
AcDbArc
 50
176.630750868
 51
206.3589459601
  0
ARC
  5
9BE
100
AcDbEntity
  8
S3_EXTERN_HANDLE_FRONT
100
AcDbCircle
 62
5
  6
CONTINUOUS
 10
379.970849334
 20
353.1773471596
 40
0.7929952167
100
AcDbArc
 50
55.2529726335
 51
78.7713258047
  0
ARC
  5
9BF
100
AcDbEntity
  8
S3_EXTERN_HANDLE_FRONT
100
AcDbCircle
 62
5
  6
CONTINUOUS
 10
387.6808463286
 20
351.7548223414
 40
0.679111678
100
AcDbArc
 50
38.2148438636
 51
69.7809460988
  0
ARC
  5
9C0
100
AcDbEntity
  8
S3_EXTERN_HANDLE_FRONT
100
AcDbCircle
 62
5
  6
CONTINUOUS
 10
379.6860904693
 20
352.7068776211
 40
0.4430502959
100
AcDbArc
 50
310.8176873797
 51
7.5836316333
  0
ARC
  5
9C1
100
AcDbEntity
  8
S3_EXTERN_HANDLE_FRONT
100
AcDbCircle
 62
5
  6
CONTINUOUS
 10
379.7133959785
 20
352.7040371213
 40
0.4234701342
100
AcDbArc
 50
257.9880960159
 51
308.2721261873
  0
ARC
  5
9C2
100
AcDbEntity
  8
S3_EXTERN_HANDLE_FRONT
100
AcDbCircle
 62
5
  6
CONTINUOUS
 10
383.3671889592
 20
351.9846216976
 40
0.3778956881
100
AcDbArc
 50
115.5794888411
 51
165.7383137977
  0
ARC
  5
9C3
100
AcDbEntity
  8
S3_EXTERN_HANDLE_FRONT
100
AcDbCircle
 62
5
  6
CONTINUOUS
 10
380.7452021821
 20
351.862085462
 40
0.3689465828
100
AcDbArc
 50
294.0452848841
 51
326.9991442578
  0
ARC
  5
9C4
100
AcDbEntity
  8
S3_EXTERN_HANDLE_FRONT
100
AcDbCircle
 62
5
  6
CONTINUOUS
 10
380.8020684437
 20
353.4944512373
 40
0.2801693492
100
AcDbArc
 50
12.0325953724
 51
66.3748517242
  0
ARC
  5
9C5
100
AcDbEntity
  8
S3_EXTERN_HANDLE_FRONT
100
AcDbCircle
 62
5
  6
CONTINUOUS
 10
388.033765307
 20
352.0550131593
 40
0.2168332889
100
AcDbArc
 50
0.2643795223
 51
33.5752856456
  0
ARC
  5
9C6
100
AcDbEntity
  8
S3_EXTERN_HANDLE_FRONT
100
AcDbCircle
 62
5
  6
CONTINUOUS
 10
380.9220725211
 20
351.7472207651
 40
0.1580508374
100
AcDbArc
 50
326.9991442578
 51
0.2815133726
  0
ARC
  5
9C7
100
AcDbEntity
  8
S3_EXTERN_HANDLE_FRONT
100
AcDbCircle
 62
5
  6
CONTINUOUS
 10
384.1766804355
 20
359.0162815937
 40
155.2829045832
100
AcDbArc
 50
275.4428178725
 51
277.0042382675
  0
ARC
  5
9C8
100
AcDbEntity
  8
S3_EXTERN_HANDLE_FRONT
100
AcDbCircle
 62
5
  6
CONTINUOUS
 10
379.8532700715
 20
354.67681
 40
3.3459223539
100
AcDbArc
 50
265.0412560236
 51
279.2749511879
  0
ARC
  5
9C9
100
AcDbEntity
  8
S3_EXTERN_HANDLE_FRONT
100
AcDbCircle
 62
5
  6
CONTINUOUS
 10
381.1242849651
 20
354.5834338388
 40
1.031702891
100
AcDbArc
 50
245.686112281
 51
267.3220792014
  0
ARC
  5
9CA
100
AcDbEntity
  8
S3_EXTERN_HANDLE_FRONT
100
AcDbCircle
 62
5
  6
CONTINUOUS
 10
381.1113157172
 20
354.5558004061
 40
1.0011806476
100
AcDbArc
 50
226.5529780684
 51
245.7113649428
  0
ARC
  5
9CB
100
AcDbEntity
  8
S3_EXTERN_HANDLE_FRONT
100
AcDbCircle
 62
5
  6
CONTINUOUS
 10
378.5522057666
 20
373.4541699863
 40
18.6341234198
100
AcDbArc
 50
242.7302427792
 51
258.9795111476
  0
ARC
  5
9CC
100
AcDbEntity
  8
S3_EXTERN_HANDLE_FRONT
100
AcDbCircle
 62
5
  6
CONTINUOUS
 10
376.7939631951
 20
370.9149467933
 40
10.0226369747
100
AcDbArc
 50
194.2585544485
 51
226.6454630558
  0
ARC
  5
9CD
100
AcDbEntity
  8
S3_EXTERN_HANDLE_FRONT
100
AcDbCircle
 62
5
  6
CONTINUOUS
 10
374.6649722121
 20
364.9891025165
 40
9.4920089106
100
AcDbArc
 50
183.668603452
 51
215.9059911672
  0
ARC
  5
9CE
100
AcDbEntity
  8
S3_EXTERN_HANDLE_FRONT
100
AcDbCircle
 62
5
  6
CONTINUOUS
 10
374.3933804403
 20
365.2344518138
 40
9.4227151929
100
AcDbArc
 50
218.0834011928
 51
242.3076128785
  0
ARC
  5
9CF
100
AcDbEntity
  8
S3_EXTERN_HANDLE_FRONT
100
AcDbCircle
 62
5
  6
CONTINUOUS
 10
361.8528231822
 20
366.7109710296
 40
3.2894390828
100
AcDbArc
 50
326.9842576145
 51
341.1326640801
  0
ARC
  5
9D0
100
AcDbEntity
  8
S3_EXTERN_HANDLE_FRONT
100
AcDbCircle
 62
5
  6
CONTINUOUS
 10
364.1444674237
 20
367.182180839
 40
0.5479962615
100
AcDbArc
 50
107.477340863
 51
164.1648727384
  0
ARC
  5
9D1
100
AcDbEntity
  8
S3_EXTERN_HANDLE_FRONT
100
AcDbCircle
 62
5
  6
CONTINUOUS
 10
391.2222627942
 20
353.0349025809
 40
38.510900684
100
AcDbArc
 50
75.8446474671
 51
86.3405430533
  0
ARC
  5
9D2
100
AcDbEntity
  8
S3_EXTERN_HANDLE_FRONT
100
AcDbCircle
 62
5
  6
CONTINUOUS
 10
395.6209317677
 20
350.4887174
 40
3.981095657
100
AcDbArc
 50
94.2620227407
 51
96.2300762831
  0
ARC
  5
9D3
100
AcDbEntity
  8
S3_EXTERN_HANDLE_FRONT
100
AcDbCircle
 62
5
  6
CONTINUOUS
 10
395.7799757953
 20
350.6386689565
 40
3.8886793396
100
AcDbArc
 50
87.454933521
 51
95.0425609345
  0
ARC
  5
9D4
100
AcDbEntity
  8
S3_EXTERN_HANDLE_FRONT
100
AcDbCircle
 62
5
  6
CONTINUOUS
 10
391.3970551931
 20
354.6769678823
 40
3.3459223539
100
AcDbArc
 50
260.7266160602
 51
274.9603112246
  0
ARC
  5
9D5
100
AcDbEntity
  8
S3_EXTERN_HANDLE_FRONT
100
AcDbCircle
 62
5
  6
CONTINUOUS
 10
391.5175223232
 20
351.3853713399
 40
2.6445133305
100
AcDbArc
 50
98.7944778534
 51
116.537344869
  0
ARC
  5
9D6
100
AcDbEntity
  8
S3_EXTERN_HANDLE_FRONT
100
AcDbCircle
 62
5
  6
CONTINUOUS
 10
391.1869838211
 20
353.3903911727
 40
2.0423082964
100
AcDbArc
 50
245.9562823641
 51
260.7266160602
  0
ARC
  5
9D7
100
AcDbEntity
  8
S3_EXTERN_HANDLE_FRONT
100
AcDbCircle
 62
5
  6
CONTINUOUS
 10
395.344159731
 20
353.2392913574
 40
1.4985121654
100
AcDbArc
 50
282.4051489449
 51
314.8866490592
  0
ARC
  5
9D8
100
AcDbEntity
  8
S3_EXTERN_HANDLE_FRONT
100
AcDbCircle
 62
5
  6
CONTINUOUS
 10
395.9017872889
 20
353.0529120165
 40
1.4714799289
100
AcDbArc
 50
73.9752550411
 51
88.0190084045
  0
ARC
  5
9D9
100
AcDbEntity
  8
S3_EXTERN_HANDLE_FRONT
100
AcDbCircle
 62
5
  6
CONTINUOUS
 10
396.3251572511
 20
353.3733923702
 40
1.0518351633
100
AcDbArc
 50
249.8205225408
 51
277.7741666329
  0
ARC
  5
9DA
100
AcDbEntity
  8
S3_EXTERN_HANDLE_FRONT
100
AcDbCircle
 62
5
  6
CONTINUOUS
 10
396.3249920164
 20
355.3084477783
 40
1.0488598147
100
AcDbArc
 50
261.9657097106
 51
280.1264037883
  0
ARC
  5
9DB
100
AcDbEntity
  8
S3_EXTERN_HANDLE_FRONT
100
AcDbCircle
 62
5
  6
CONTINUOUS
 10
390.1262482916
 20
352.7870420114
 40
1.0398531957
100
AcDbArc
 50
272.4270837963
 51
291.7085932888
  0
ARC
  5
9DC
100
AcDbEntity
  8
S3_EXTERN_HANDLE_FRONT
100
AcDbCircle
 62
5
  6
CONTINUOUS
 10
390.1260428543
 20
354.5835569542
 40
1.031702891
100
AcDbArc
 50
272.6794880467
 51
294.3154549671
  0
ARC
  5
9DD
100
AcDbEntity
  8
S3_EXTERN_HANDLE_FRONT
100
AcDbCircle
 62
5
  6
CONTINUOUS
 10
395.4985936085
 20
353.4429347429
 40
1.0305832542
100
AcDbArc
 50
73.8118552296
 51
99.693546077
  0
ARC
  5
9DE
100
AcDbEntity
  8
S3_EXTERN_HANDLE_FRONT
100
AcDbCircle
 62
5
  6
CONTINUOUS
 10
390.139012858
 20
354.5559238763
 40
1.0011806476
100
AcDbArc
 50
294.2902023053
 51
313.4485891797
  0
ARC
  5
9DF
100
AcDbEntity
  8
S3_EXTERN_HANDLE_FRONT
100
AcDbCircle
 62
5
  6
CONTINUOUS
 10
393.5830784938
 20
353.1536140169
 40
1.0
100
AcDbArc
 50
270.0015672481
 51
357.0015672481
  0
ARC
  5
9E0
100
AcDbEntity
  8
S3_EXTERN_HANDLE_FRONT
100
AcDbCircle
 62
5
  6
CONTINUOUS
 10
392.7671243167
 20
353.1535916976
 40
1.0
100
AcDbArc
 50
183.0015672481
 51
270.0015672481
  0
ARC
  5
9E1
100
AcDbEntity
  8
S3_EXTERN_HANDLE_FRONT
100
AcDbCircle
 62
5
  6
CONTINUOUS
 10
396.2972500725
 20
353.3114374832
 40
0.9840681728
100
AcDbArc
 50
210.1363522305
 51
250.1012802716
  0
ARC
  5
9E2
100
AcDbEntity
  8
S3_EXTERN_HANDLE_FRONT
100
AcDbCircle
 62
5
  6
CONTINUOUS
 10
390.1539594398
 20
352.7339687501
 40
0.9803131456
100
AcDbArc
 50
291.3512069032
 51
333.1687391877
  0
ARC
  5
9E3
100
AcDbEntity
  8
S3_EXTERN_HANDLE_FRONT
100
AcDbCircle
 62
5
  6
CONTINUOUS
 10
390.1839427586
 20
352.71006414
 40
0.9428003951
100
AcDbArc
 50
333.642621288
 51
3.3708163801
  0
ARC
  5
9E4
100
AcDbEntity
  8
S3_EXTERN_HANDLE_FRONT
100
AcDbCircle
 62
5
  6
CONTINUOUS
 10
396.2355964038
 20
353.2710917117
 40
0.910500581
100
AcDbArc
 50
180.1322905774
 51
209.8885076311
  0
ARC
  5
9E5
100
AcDbEntity
  8
S3_EXTERN_HANDLE_FRONT
100
AcDbCircle
 62
5
  6
CONTINUOUS
 10
391.2795169465
 20
353.1775018262
 40
0.7929952167
100
AcDbArc
 50
101.2302414435
 51
124.7485946146
  0
ARC
  5
9E6
100
AcDbEntity
  8
S3_EXTERN_HANDLE_FRONT
100
AcDbCircle
 62
5
  6
CONTINUOUS
 10
394.5488055035
 20
353.301338284
 40
0.7769664567
100
AcDbArc
 50
324.0035301651
 51
357.6138128455
  0
ARC
  5
9E7
100
AcDbEntity
  8
S3_EXTERN_HANDLE_FRONT
100
AcDbCircle
 62
5
  6
CONTINUOUS
 10
396.2635837632
 20
355.0298592168
 40
0.7647356801
100
AcDbArc
 50
231.3454896946
 51
263.6043625561
  0
ARC
  5
9E8
100
AcDbEntity
  8
S3_EXTERN_HANDLE_FRONT
100
AcDbCircle
 62
5
  6
CONTINUOUS
 10
394.5683025997
 20
353.2548053516
 40
0.734310359
100
AcDbArc
 50
290.4711758623
 51
326.0473633783
  0
ARC
  5
9E9
100
AcDbEntity
  8
S3_EXTERN_HANDLE_FRONT
100
AcDbCircle
 62
5
  6
CONTINUOUS
 10
391.5642886802
 20
352.707040077
 40
0.4430502959
100
AcDbArc
 50
172.4179356149
 51
229.1838798684
  0
ARC
  5
9EA
100
AcDbEntity
  8
S3_EXTERN_HANDLE_FRONT
100
AcDbCircle
 62
5
  6
CONTINUOUS
 10
391.5369832486
 20
352.7041988304
 40
0.4234701342
100
AcDbArc
 50
231.7294410608
 51
282.0134712322
  0
ARC
  5
9EB
100
AcDbEntity
  8
S3_EXTERN_HANDLE_FRONT
100
AcDbCircle
 62
5
  6
CONTINUOUS
 10
396.2032839372
 20
354.0909546841
 40
0.3905573723
100
AcDbArc
 50
47.8209513242
 51
74.4486708727
  0
ARC
  5
9EC
100
AcDbEntity
  8
S3_EXTERN_HANDLE_FRONT
100
AcDbCircle
 62
5
  6
CONTINUOUS
 10
390.5052000758
 20
351.8622189477
 40
0.3689465828
100
AcDbArc
 50
213.0024229903
 51
245.956282364
  0
ARC
  5
9ED
100
AcDbEntity
  8
S3_EXTERN_HANDLE_FRONT
100
AcDbCircle
 62
5
  6
CONTINUOUS
 10
390.4482891632
 20
353.4945831669
 40
0.2801693492
100
AcDbArc
 50
113.6267155239
 51
167.9689718757
  0
ARC
  5
9EE
100
AcDbEntity
  8
S3_EXTERN_HANDLE_FRONT
100
AcDbCircle
 62
5
  6
CONTINUOUS
 10
396.2438344035
 20
352.3360498862
 40
0.2236554395
100
AcDbArc
 50
314.8866490593
 51
358.7637928842
  0
ARC
  5
9EF
100
AcDbEntity
  8
S3_EXTERN_HANDLE_FRONT
100
AcDbCircle
 62
5
  6
CONTINUOUS
 10
390.3283328789
 20
351.7473494128
 40
0.1580508374
100
AcDbArc
 50
179.7200538755
 51
213.0024229904
  0
ARC
  5
9F0
100
AcDbEntity
  8
S3_EXTERN_HANDLE_FRONT
100
AcDbCircle
 62
5
  6
CONTINUOUS
 10
396.3680390183
 20
354.2779821918
 40
0.1413788905
100
AcDbArc
 50
359.1670058046
 51
46.4073386068
  0
ARC
  5
9F1
100
AcDbEntity
  8
S3_EXTERN_HANDLE_FRONT
100
AcDbCircle
 62
5
  6
CONTINUOUS
 10
402.659872487
 20
363.80207069
 40
175.2581480407
100
AcDbArc
 50
259.9069549801
 51
260.910160598
  0
ARC
  5
9F2
100
AcDbEntity
  8
S3_EXTERN_HANDLE_FRONT
100
AcDbCircle
 62
5
  6
CONTINUOUS
 10
393.942194302
 20
369.783986947
 40
14.7853822929
100
AcDbArc
 50
280.4913319555
 51
308.4127554855
  0
ARC
  5
9F3
100
AcDbEntity
  8
S3_EXTERN_HANDLE_FRONT
100
AcDbCircle
 62
5
  6
CONTINUOUS
 10
395.2539685986
 20
365.2347585185
 40
10.8330257626
100
AcDbArc
 50
340.2906940433
 51
353.9019414829
  0
ARC
  5
9F4
100
AcDbEntity
  8
S3_EXTERN_HANDLE_FRONT
100
AcDbCircle
 62
5
  6
CONTINUOUS
 10
393.8301814434
 20
371.4055936515
 40
10.8058639618
100
AcDbArc
 50
307.6130737932
 51
352.6017609715
  0
ARC
  5
9F5
100
AcDbEntity
  8
S3_EXTERN_HANDLE_FRONT
100
AcDbCircle
 62
5
  6
CONTINUOUS
 10
414.83668022
 20
363.6391407461
 40
8.8222052826
100
AcDbArc
 50
166.3648286385
 51
177.1098839309
  0
ARC
  5
9F6
100
AcDbEntity
  8
S3_EXTERN_HANDLE_FRONT
100
AcDbCircle
 62
5
  6
CONTINUOUS
 10
397.7486793199
 20
364.3840927119
 40
8.1976803108
100
AcDbArc
 50
311.017038186
 51
340.0075828073
  0
ARC
  5
9F7
100
AcDbEntity
  8
S3_EXTERN_HANDLE_FRONT
100
AcDbCircle
 62
5
  6
CONTINUOUS
 10
407.1060636354
 20
367.1821808377
 40
0.5479962615
100
AcDbArc
 50
15.835127258
 51
72.5226591334
  0
ARC
  5
9F8
100
AcDbEntity
  8
MOVING_S3_0-1_FRONT
100
AcDbCircle
 62
1
  6
CONTINUOUS
 10
380.1857233331
 20
376.6005388888
 40
43.9190101062
100
AcDbArc
 50
193.3933244867
 51
194.1927791385
  0
ARC
  5
9F9
100
AcDbEntity
  8
MOVING_S3_0-1_FRONT
100
AcDbCircle
 62
1
  6
CONTINUOUS
 10
379.901306845
 20
376.5327960452
 40
43.6266373456
100
AcDbArc
 50
192.6191549125
 51
193.3932985571
  0
ARC
  5
9FA
100
AcDbEntity
  8
MOVING_S3_0-1_FRONT
100
AcDbCircle
 62
1
  6
CONTINUOUS
 10
379.6484195256
 20
376.4761139324
 40
43.3674755158
100
AcDbArc
 50
191.9362618505
 51
192.6190694032
  0
ARC
  5
9FB
100
AcDbEntity
  8
S3_EXTERN_HANDLE_FRONT
100
AcDbCircle
 62
5
  6
CONTINUOUS
 10
379.8447200063
 20
374.6163098689
 40
14.8118651482
100
AcDbArc
 50
227.8940752533
 51
254.5281330491
  0
ARC
  5
9FC
100
AcDbEntity
  8
S3_EXTERN_HANDLE_FRONT
100
AcDbCircle
 62
5
  6
CONTINUOUS
 10
372.5392634785
 20
380.0827324214
 40
8.8944488412
100
AcDbArc
 50
102.6206292267
 51
121.3074553425
  0
ARC
  5
9FD
100
AcDbEntity
  8
S3_EXTERN_HANDLE_FRONT
100
AcDbCircle
 62
5
  6
CONTINUOUS
 10
372.5386764247
 20
382.3207782578
 40
8.2836701024
100
AcDbArc
 50
103.4553325747
 51
126.3106447184
  0
ARC
  5
9FE
100
AcDbEntity
  8
S3_EXTERN_HANDLE_FRONT
100
AcDbCircle
 62
5
  6
CONTINUOUS
 10
358.1465830176
 20
393.4005478241
 40
47.0411093091
100
AcDbArc
 50
348.3839491505
 51
352.0653139463
  0
ARC
  5
9FF
100
AcDbEntity
  8
S3_EXTERN_HANDLE_FRONT
100
AcDbCircle
 62
5
  6
CONTINUOUS
 10
368.7898271598
 20
391.4819258103
 40
35.275341001
100
AcDbArc
 50
346.9182210026
 51
352.5480492602
  0
ARC
  5
A00
100
AcDbEntity
  8
S3_EXTERN_HANDLE_FRONT
100
AcDbCircle
 62
5
  6
CONTINUOUS
 10
369.6859873721
 20
386.5512798981
 40
3.1920776492
100
AcDbArc
 50
130.0179291614
 51
173.5899639052
  0
ARC
  5
A01
100
AcDbEntity
  8
S3_EXTERN_HANDLE_FRONT
100
AcDbCircle
 62
5
  6
CONTINUOUS
 10
368.365916965
 20
386.9225259009
 40
0.8820671243
100
AcDbArc
 50
120.5599978914
 51
180.9672161
  0
ARC
  5
A02
100
AcDbEntity
  8
S3_EXTERN_HANDLE_FRONT
100
AcDbCircle
 62
5
  6
CONTINUOUS
 10
388.6952350592
 20
378.4402856711
 40
176.2701317775
100
AcDbArc
 50
264.2846265766
 51
265.8212298544
  0
ARC
  5
A03
100
AcDbEntity
  8
S3_EXTERN_HANDLE_FRONT
100
AcDbCircle
 62
5
  6
CONTINUOUS
 10
381.1244077868
 20
376.9657012672
 40
25.7922311964
100
AcDbArc
 50
257.5964183032
 51
259.2648808862
  0
ARC
  5
A04
100
AcDbEntity
  8
S3_EXTERN_HANDLE_FRONT
100
AcDbCircle
 62
5
  6
CONTINUOUS
 10
390.1253077961
 20
376.9658243708
 40
25.7922311964
100
AcDbArc
 50
280.7366863619
 51
282.4051489449
  0
ARC
  5
A05
100
AcDbEntity
  8
S3_EXTERN_HANDLE_FRONT
100
AcDbCircle
 62
5
  6
CONTINUOUS
 10
380.5185013067
 20
378.7830629177
 40
24.7320486171
100
AcDbArc
 50
260.8896649223
 51
263.6774770039
  0
ARC
  5
A06
100
AcDbEntity
  8
S3_EXTERN_HANDLE_FRONT
100
AcDbCircle
 62
5
  6
CONTINUOUS
 10
390.7311645645
 20
378.7832025945
 40
24.7320486171
100
AcDbArc
 50
276.3240902442
 51
279.1119023258
  0
ARC
  5
A07
100
AcDbEntity
  8
S3_EXTERN_HANDLE_FRONT
100
AcDbCircle
 62
5
  6
CONTINUOUS
 10
386.4668681203
 20
373.9203324775
 40
20.1447636794
100
AcDbArc
 50
186.341520943
 51
195.7672511607
  0
ARC
  5
A08
100
AcDbEntity
  8
S3_EXTERN_HANDLE_FRONT
100
AcDbCircle
 62
5
  6
CONTINUOUS
 10
390.5427959493
 20
376.36719422
 40
16.7479446934
100
AcDbArc
 50
281.5943811423
 51
306.1620807555
  0
ARC
  5
A09
100
AcDbEntity
  8
S3_EXTERN_HANDLE_FRONT
100
AcDbCircle
 62
5
  6
CONTINUOUS
 10
398.7116671086
 20
380.0822019453
 40
8.8944488412
100
AcDbArc
 50
58.6902220554
 51
77.3770481713
  0
ARC
  5
A0A
100
AcDbEntity
  8
S3_EXTERN_HANDLE_FRONT
100
AcDbCircle
 62
5
  6
CONTINUOUS
 10
398.7123448863
 20
382.3202477561
 40
8.2836701024
100
AcDbArc
 50
53.6870326795
 51
76.5423448232
  0
ARC
  5
A0B
100
AcDbEntity
  8
S3_EXTERN_HANDLE_FRONT
100
AcDbCircle
 62
5
  6
CONTINUOUS
 10
382.8545533618
 20
397.1527974096
 40
43.2030777009
100
AcDbArc
 50
262.7694026519
 51
264.1636885416
  0
ARC
  5
A0C
100
AcDbEntity
  8
S3_EXTERN_HANDLE_FRONT
100
AcDbCircle
 62
5
  6
CONTINUOUS
 10
388.3946100312
 20
397.15287318
 40
43.2030777009
100
AcDbArc
 50
275.8378787065
 51
277.2321645962
  0
ARC
  5
A0D
100
AcDbEntity
  8
S3_EXTERN_HANDLE_FRONT
100
AcDbCircle
 62
5
  6
CONTINUOUS
 10
382.4680499518
 20
396.378436135
 40
42.435096337
100
AcDbArc
 50
263.6774770039
 51
265.0403109136
  0
ARC
  5
A0E
100
AcDbEntity
  8
S3_EXTERN_HANDLE_FRONT
100
AcDbCircle
 62
5
  6
CONTINUOUS
 10
388.7811346226
 20
396.3785224779
 40
42.4350963371
100
AcDbArc
 50
274.9612563345
 51
276.3240902442
  0
ARC
  5
A0F
100
AcDbEntity
  8
S3_EXTERN_HANDLE_FRONT
100
AcDbCircle
 62
5
  6
CONTINUOUS
 10
382.7597087889
 20
393.4775563864
 40
39.0937309887
100
AcDbArc
 50
258.5365419428
 51
266.6757916948
  0
ARC
  5
A10
100
AcDbEntity
  8
S3_EXTERN_HANDLE_FRONT
100
AcDbCircle
 62
5
  6
CONTINUOUS
 10
382.1684952967
 20
391.748745754
 40
37.755651726
100
AcDbArc
 50
261.2829784403
 51
262.7700581775
  0
ARC
  5
A11
100
AcDbEntity
  8
S3_EXTERN_HANDLE_FRONT
100
AcDbCircle
 62
5
  6
CONTINUOUS
 10
389.0808159165
 20
391.7488402926
 40
37.755651726
100
AcDbArc
 50
277.2315090707
 51
278.7185888078
  0
ARC
  5
A12
100
AcDbEntity
  8
S3_EXTERN_HANDLE_FRONT
100
AcDbCircle
 62
5
  6
CONTINUOUS
 10
386.8377903489
 20
395.0708440916
 40
35.8148196293
100
AcDbArc
 50
268.0598580784
 51
281.3869063234
  0
ARC
  5
A13
100
AcDbEntity
  8
S3_EXTERN_HANDLE_FRONT
100
AcDbCircle
 62
5
  6
CONTINUOUS
 10
402.461565514
 20
391.4812433338
 40
35.275341001
100
AcDbArc
 50
187.4496281378
 51
193.0794563953
  0
ARC
  5
A14
100
AcDbEntity
  8
S3_EXTERN_HANDLE_FRONT
100
AcDbCircle
 62
5
  6
CONTINUOUS
 10
384.2228173327
 20
391.4680884913
 40
32.222067762
100
AcDbArc
 50
255.0189556193
 51
272.494556066
  0
ARC
  5
A15
100
AcDbEntity
  8
S3_EXTERN_HANDLE_FRONT
100
AcDbCircle
 62
5
  6
CONTINUOUS
 10
394.9167162346
 20
390.2440019816
 40
28.5981321208
100
AcDbArc
 50
186.6995638667
 51
197.7082011134
  0
ARC
  5
A16
100
AcDbEntity
  8
S3_EXTERN_HANDLE_FRONT
100
AcDbCircle
 62
5
  6
CONTINUOUS
 10
386.6198327838
 20
395.3546083731
 40
25.0461174594
100
AcDbArc
 50
267.7242184249
 51
283.5992196693
  0
ARC
  5
A17
100
AcDbEntity
  8
S3_EXTERN_HANDLE_FRONT
100
AcDbCircle
 62
5
  6
CONTINUOUS
 10
384.4740058859
 20
388.0264535718
 40
20.1708491567
100
AcDbArc
 50
338.3066019427
 51
348.2786758915
  0
ARC
  5
A18
100
AcDbEntity
  8
S3_EXTERN_HANDLE_FRONT
100
AcDbCircle
 62
5
  6
CONTINUOUS
 10
383.3229461667
 20
387.8232940522
 40
17.4244996541
100
AcDbArc
 50
247.2608057894
 51
264.4505263199
  0
ARC
  5
A19
100
AcDbEntity
  8
S3_EXTERN_HANDLE_FRONT
100
AcDbCircle
 62
5
  6
CONTINUOUS
 10
383.1265686756
 20
389.1789592022
 40
17.0075220431
100
AcDbArc
 50
247.3539125596
 51
264.9784940667
  0
ARC
  5
A1A
100
AcDbEntity
  8
S3_EXTERN_HANDLE_FRONT
100
AcDbCircle
 62
5
  6
CONTINUOUS
 10
388.1247306545
 20
389.1788578968
 40
17.0075220431
100
AcDbArc
 50
275.0191833313
 51
292.6437648383
  0
ARC
  5
A1B
100
AcDbEntity
  8
S3_EXTERN_HANDLE_FRONT
100
AcDbCircle
 62
5
  6
CONTINUOUS
 10
383.3750805381
 20
386.744183767
 40
16.5397681525
100
AcDbArc
 50
198.3200562488
 51
220.6967503463
  0
ARC
  5
A1C
100
AcDbEntity
  8
S3_EXTERN_HANDLE_FRONT
100
AcDbCircle
 62
5
  6
CONTINUOUS
 10
387.9377257487
 20
386.6904335454
 40
16.4586466757
100
AcDbArc
 50
321.4162779455
 51
338.1710728619
  0
ARC
  5
A1D
100
AcDbEntity
  8
S3_EXTERN_HANDLE_FRONT
100
AcDbCircle
 62
5
  6
CONTINUOUS
 10
388.3995367839
 20
386.4293732405
 40
15.9569104249
100
AcDbArc
 50
284.9234707559
 51
302.2586490991
  0
ARC
  5
A1E
100
AcDbEntity
  8
S3_EXTERN_HANDLE_FRONT
100
AcDbCircle
 62
5
  6
CONTINUOUS
 10
388.4176705189
 20
386.3093505318
 40
15.8458097289
100
AcDbArc
 50
302.4348359728
 51
321.411109246
  0
ARC
  5
A1F
100
AcDbEntity
  8
S3_EXTERN_HANDLE_FRONT
100
AcDbCircle
 62
5
  6
CONTINUOUS
 10
382.7171981667
 20
386.1730179747
 40
15.6685493928
100
AcDbArc
 50
220.6818828996
 51
246.9710912538
  0
ARC
  5
A20
100
AcDbEntity
  8
S3_EXTERN_HANDLE_FRONT
100
AcDbCircle
 62
5
  6
CONTINUOUS
 10
382.4528967235
 20
387.2248175567
 40
14.9452253756
100
AcDbArc
 50
219.3411221379
 51
246.8528927816
  0
ARC
  5
A21
100
AcDbEntity
  8
S3_EXTERN_HANDLE_FRONT
100
AcDbCircle
 62
5
  6
CONTINUOUS
 10
388.7983233909
 20
387.2246889442
 40
14.9452253756
100
AcDbArc
 50
293.1447846163
 51
320.65655526
  0
ARC
  5
A22
100
AcDbEntity
  8
S3_EXTERN_HANDLE_FRONT
100
AcDbCircle
 62
5
  6
CONTINUOUS
 10
382.1532053892
 20
386.7741275795
 40
14.4286112036
100
AcDbArc
 50
193.1224386639
 51
218.7114230337
  0
ARC
  5
A23
100
AcDbEntity
  8
S3_EXTERN_HANDLE_FRONT
100
AcDbCircle
 62
5
  6
CONTINUOUS
 10
389.0979964553
 20
386.7739868188
 40
14.4286112036
100
AcDbArc
 50
321.2862543642
 51
346.875238734
  0
ARC
  5
A24
100
AcDbEntity
  8
S3_EXTERN_HANDLE_FRONT
100
AcDbCircle
 62
5
  6
CONTINUOUS
 10
401.5652054286
 20
386.5506337533
 40
3.1920776492
100
AcDbArc
 50
6.4077134927
 51
49.9797482366
  0
ARC
  5
A25
100
AcDbEntity
  8
S3_EXTERN_HANDLE_FRONT
100
AcDbCircle
 62
5
  6
CONTINUOUS
 10
402.8852908838
 20
386.9218262441
 40
0.8820671243
100
AcDbArc
 50
359.030461298
 51
59.4376795065
  0
ARC
  5
A26
100
AcDbEntity
  8
S3_EXTERN_HANDLE_FRONT
100
AcDbCircle
 62
5
  6
CONTINUOUS
 10
379.5634023389
 20
429.6323248848
 40
227.2977491366
100
AcDbArc
 50
273.4984707842
 51
274.577754976
  0
ARC
  5
A27
100
AcDbEntity
  8
S3_EXTERN_HANDLE_FRONT
100
AcDbCircle
 62
5
  6
CONTINUOUS
 10
391.9231871716
 20
429.6361032538
 40
227.2977491366
100
AcDbArc
 50
265.457275503
 51
266.5365596947
  0
ARC
  5
A28
100
AcDbEntity
  8
MOVING_S3_0-1_FRONT
100
AcDbCircle
 62
1
  6
CONTINUOUS
 10
303.5682242417
 20
448.0153561821
 40
177.3460106825
100
AcDbArc
 50
284.3551877545
 51
287.2971982299
  0
ARC
  5
A29
100
AcDbEntity
  8
MOVING_S3_0-1_FRONT
100
AcDbCircle
 62
1
  6
CONTINUOUS
 10
313.843269222
 20
413.6068936384
 40
141.6129756578
100
AcDbArc
 50
282.0897711038
 51
287.3895666733
  0
ARC
  5
A2A
100
AcDbEntity
  8
S3_EXTERN_HANDLE_FRONT
100
AcDbCircle
 62
5
  6
CONTINUOUS
 10
385.2293928025
 20
432.9803665821
 40
78.6734751464
100
AcDbArc
 50
266.5483983577
 51
270.2883046944
  0
ARC
  5
A2B
100
AcDbEntity
  8
S3_EXTERN_HANDLE_FRONT
100
AcDbCircle
 62
5
  6
CONTINUOUS
 10
386.8346802683
 20
405.1942144442
 40
50.9006970611
100
AcDbArc
 50
268.6385081954
 51
281.1002687129
  0
ARC
  5
A2C
100
AcDbEntity
  8
S3_EXTERN_HANDLE_FRONT
100
AcDbCircle
 62
5
  6
CONTINUOUS
 10
383.460680253
 20
403.0959362364
 40
49.1770451693
100
AcDbArc
 50
264.1652657045
 51
265.4376411886
  0
ARC
  5
A2D
100
AcDbEntity
  8
S3_EXTERN_HANDLE_FRONT
100
AcDbCircle
 62
5
  6
CONTINUOUS
 10
387.7883205737
 20
403.0959954248
 40
49.1770451693
100
AcDbArc
 50
274.5639260595
 51
275.8363015436
  0
ARC
  5
A2E
100
AcDbEntity
  8
S3_EXTERN_HANDLE_FRONT
100
AcDbCircle
 62
5
  6
CONTINUOUS
 10
385.0374886025
 20
407.2324684243
 40
36.9089033582
100
AcDbArc
 50
264.7151450523
 51
270.9124779602
  0
ARC
  5
A2F
100
AcDbEntity
  8
S3_EXTERN_HANDLE_FRONT
100
AcDbCircle
 62
5
  6
CONTINUOUS
 10
385.0374886025
 20
408.988720046
 40
36.9089033582
100
AcDbArc
 50
264.7151450523
 51
270.9124779602
  0
ARC
  5
A30
100
AcDbEntity
  8
S3_EXTERN_HANDLE_FRONT
100
AcDbCircle
 62
5
  6
CONTINUOUS
 10
386.2146137585
 20
408.9886961874
 40
36.9089033582
100
AcDbArc
 50
269.0851994377
 51
275.2825323456
  0
ARC
  5
A31
100
AcDbEntity
  8
S3_EXTERN_HANDLE_FRONT
100
AcDbCircle
 62
5
  6
CONTINUOUS
 10
486.3476077878
 20
379.6646919478
 40
81.9309756305
100
AcDbArc
 50
174.9287924494
 51
185.5825432775
  0
ARC
  5
A32
100
AcDbEntity
  8
S3_EXTERN_HANDLE_FRONT
100
AcDbCircle
 62
5
  6
CONTINUOUS
 10
445.1745256202
 20
380.9732411994
 40
42.1761967198
100
AcDbArc
 50
209.0208582642
 51
214.1371675569
  0
ARC
  5
A33
100
AcDbEntity
  8
S3_EXTERN_HANDLE_FRONT
100
AcDbCircle
 62
5
  6
CONTINUOUS
 10
431.0458445966
 20
373.0399630043
 40
25.9729455508
100
AcDbArc
 50
203.5221770122
 51
208.8378009206
  0
ARC
  5
A34
100
AcDbEntity
  8
S3_EXTERN_HANDLE_FRONT
100
AcDbCircle
 62
5
  6
CONTINUOUS
 10
429.5258362123
 20
374.5879024146
 40
24.8893673822
100
AcDbArc
 50
186.6758209707
 51
193.5577830601
  0
ARC
  5
A35
100
AcDbEntity
  8
S3_EXTERN_HANDLE_FRONT
100
AcDbCircle
 62
5
  6
CONTINUOUS
 10
427.9889871189
 20
374.0567974308
 40
23.2713624454
100
AcDbArc
 50
193.1736279433
 51
200.9974880999
  0
ARC
  5
A36
100
AcDbEntity
  8
S3_EXTERN_HANDLE_FRONT
100
AcDbCircle
 62
5
  6
CONTINUOUS
 10
420.5259889695
 20
372.3498251194
 40
15.6458981661
100
AcDbArc
 50
199.1376205028
 51
212.1373594024
  0
ARC
  5
A37
100
AcDbEntity
  8
S3_EXTERN_HANDLE_FRONT
100
AcDbCircle
 62
5
  6
CONTINUOUS
 10
537.5436961543
 20
405.7973014673
 40
137.2624712203
100
AcDbArc
 50
196.977128999
 51
198.3104923803
  0
ARC
  5
A38
100
AcDbEntity
  8
S3_EXTERN_HANDLE_FRONT
100
AcDbCircle
 62
5
  6
CONTINUOUS
 10
407.6595150208
 20
552.4921483009
 40
351.351337434
100
AcDbArc
 50
264.1187076641
 51
264.1650420358
  0
ARC
  5
A39
100
AcDbEntity
  8
S3_EXTERN_HANDLE_FRONT
100
AcDbCircle
 62
5
  6
CONTINUOUS
 10
363.751963594
 20
552.4787258235
 40
351.075937434
100
AcDbArc
 50
275.8700089021
 51
275.9829186323
  0
ARC
  5
A3A
100
AcDbEntity
  8
S3_EXTERN_HANDLE_FRONT
100
AcDbCircle
 62
5
  6
CONTINUOUS
 10
407.6595150209
 20
552.4921483009
 40
351.075937434
100
AcDbArc
 50
264.0521118466
 51
264.1650215769
  0
ARC
  5
A3B
100
AcDbEntity
  8
S3_EXTERN_HANDLE_FRONT
100
AcDbCircle
 62
5
  6
CONTINUOUS
 10
407.1529341149
 20
525.2511051978
 40
322.6791283773
100
AcDbArc
 50
262.5277604836
 51
263.4467053221
  0
ARC
  5
A3C
100
AcDbEntity
  8
S3_EXTERN_HANDLE_FRONT
100
AcDbCircle
 62
5
  6
CONTINUOUS
 10
375.7831789605
 20
519.6815759995
 40
317.6764131262
100
AcDbArc
 50
272.471083274
 51
273.5066945235
  0
ARC
  5
A3D
100
AcDbEntity
  8
MOVING_S3_0-1_FRONT
100
AcDbCircle
 62
1
  6
CONTINUOUS
 10
296.6982789976
 20
506.6107427206
 40
236.1605742407
100
AcDbArc
 50
280.7251263605
 51
281.4312127533
  0
ARC
  5
A3E
100
AcDbEntity
  8
MOVING_S3_0-1_FRONT
100
AcDbCircle
 62
1
  6
CONTINUOUS
 10
334.7330995859
 20
463.9140379661
 40
203.6544134174
100
AcDbArc
 50
272.113747072
 51
273.5665943979
  0
ARC
  5
A3F
100
AcDbEntity
  8
MOVING_S3_0-1_FRONT
100
AcDbCircle
 62
1
  6
CONTINUOUS
 10
339.5887017842
 20
471.6525510465
 40
98.7227299273
100
AcDbArc
 50
269.9155059938
 51
274.0181057822
  0
ARC
  5
A40
100
AcDbEntity
  8
S3_EXTERN_HANDLE_FRONT
100
AcDbCircle
 62
5
  6
CONTINUOUS
 10
1513.8141296474
 20
185.1088730784
 40
1469.3739864025
100
AcDbArc
 50
177.4651195703
 51
177.5509121242
  0
ARC
  5
A41
100
AcDbEntity
  8
S3_EXTERN_HANDLE_FRONT
100
AcDbCircle
 62
5
  6
CONTINUOUS
 10
1495.751153917
 20
283.9784832784
 40
1451.9055607234
100
AcDbArc
 50
183.0235215838
 51
183.1487451869
  0
ARC
  5
A42
100
AcDbEntity
  8
S3_EXTERN_HANDLE_FRONT
100
AcDbCircle
 62
5
  6
CONTINUOUS
 10
1010.9475829927
 20
206.590987985
 40
966.0487992803
100
AcDbArc
 50
177.5493810364
 51
177.7058404052
  0
ARC
  5
A43
100
AcDbEntity
  8
S3_EXTERN_HANDLE_FRONT
100
AcDbCircle
 62
5
  6
CONTINUOUS
 10
1266.6037108878
 20
175.6752987679
 40
873.7703846433
100
AcDbArc
 50
177.7796132636
 51
178.1433873771
  0
ARC
  5
A44
100
AcDbEntity
  8
MOVING_S3_0-1_FRONT
100
AcDbCircle
 62
1
  6
CONTINUOUS
 10
940.470766221
 20
249.8891540855
 40
605.4389538195
100
AcDbArc
 50
179.3726574131
 51
179.7319648655
  0
ARC
  5
A45
100
AcDbEntity
  8
S3_EXTERN_HANDLE_FRONT
100
AcDbCircle
 62
5
  6
CONTINUOUS
 10
3039.168894911
 20
117.4690948092
 40
2996.2277100747
100
AcDbArc
 50
177.40678038
 51
177.4629999327
  0
ARC
  5
A46
100
AcDbEntity
  8
MOVING_S3_0-1_FRONT
100
AcDbCircle
 62
1
  6
CONTINUOUS
 10
456.8668276286
 20
1376.4814964438
 40
1011.001519624
100
AcDbArc
 50
262.9962054774
 51
263.0790908463
  0
ARC
  5
A47
100
AcDbEntity
  8
MOVING_S3_0-1_FRONT
100
AcDbCircle
 62
1
  6
CONTINUOUS
 10
308.3917763258
 20
1133.5125490267
 40
873.7703846433
100
AcDbArc
 50
271.8566130004
 51
272.2203871139
  0
ARC
  5
A48
100
AcDbEntity
  8
S3_EXTERN_HANDLE_FRONT
100
AcDbCircle
 62
5
  6
CONTINUOUS
 10
388.6448977319
 20
807.7542828587
 40
605.4389538195
100
AcDbArc
 50
269.3726574131
 51
269.7319648655
  0
ARC
  5
A49
100
AcDbEntity
  8
S3_EXTERN_HANDLE_FRONT
100
AcDbCircle
 62
5
  6
CONTINUOUS
 10
424.0244828673
 20
875.250827173
 40
523.1072340933
100
AcDbArc
 50
265.0403109136
 51
265.1207512151
  0
ARC
  5
A4A
100
AcDbEntity
  8
S3_EXTERN_HANDLE_FRONT
100
AcDbCircle
 62
5
  6
CONTINUOUS
 10
347.2116028198
 20
875.2497766171
 40
523.1072340932
100
AcDbArc
 50
274.880816033
 51
274.9612563345
  0
ARC
  5
A4B
100
AcDbEntity
  8
S3_EXTERN_HANDLE_FRONT
100
AcDbCircle
 62
5
  6
CONTINUOUS
 10
329.5016478993
 20
583.916318096
 40
398.6653366159
100
AcDbArc
 50
279.8557417796
 51
280.3876270386
  0
ARC
  5
A4C
100
AcDbEntity
  8
MOVING_S3_0-1_FRONT
100
AcDbCircle
 62
1
  6
CONTINUOUS
 10
242.7086139683
 20
640.7625229329
 40
379.4723691224
100
AcDbArc
 50
287.4177002952
 51
287.4316658491
  0
ARC
  5
A4D
100
AcDbEntity
  8
S3_EXTERN_HANDLE_FRONT
100
AcDbCircle
 62
5
  6
CONTINUOUS
 10
386.0661530998
 20
602.1537833269
 40
249.5203041189
100
AcDbArc
 50
269.7294358341
 51
269.8987617252
  0
ARC
  5
A4E
100
AcDbEntity
  8
S3_EXTERN_HANDLE_FRONT
100
AcDbCircle
 62
5
  6
CONTINUOUS
 10
385.3057397669
 20
563.0684521172
 40
210.4348259833
100
AcDbArc
 50
270.0869983836
 51
270.2877717366
  0
ARC
  5
A4F
100
AcDbEntity
  8
S3_EXTERN_HANDLE_FRONT
100
AcDbCircle
 62
5
  6
CONTINUOUS
 10
146347.3843259477
 20
8223.8963470461
 40
146520.9853821145
100
AcDbArc
 50
183.1375908157
 51
183.1381118413
  0
ENDSEC
  0
SECTION
  2
OBJECTS
  0
DICTIONARY
  5
C
100
AcDbDictionary
280
0
281
1
  3
ACAD_GROUP
350
D
  3
ACAD_MLINESTYLE
350
17
  3
ACAD_LAYOUT
350
1A
  3
ACAD_PLOTSETTINGS
350
19
  3
ACAD_PLOTSTYLENAME
350
E
  0
DICTIONARY
  5
D
102
{ACAD_REACTORS
330
C
102
}
100
AcDbDictionary
280
0
281
1
  0
ACDBDICTIONARYWDFLT
  5
E
102
{ACAD_REACTORS
330
C
102
}
100
AcDbDictionary
281
1
  3
Normal
350
F
100
AcDbDictionaryWithDefault
340
F
  0
DICTIONARY
  5
17
102
{ACAD_REACTORS
330
C
102
}
100
AcDbDictionary
280
0
281
1
  3
Standard
350
18
  0
DICTIONARY
  5
19
102
{ACAD_REACTORS
330
C
102
}
100
AcDbDictionary
281
1
  0
DICTIONARY
  5
1A
102
{ACAD_REACTORS
330
C
102
}
100
AcDbDictionary
281
1
  3
Model
350
A50
  3
Layout1
350
A51
  0
ACDBPLACEHOLDER
  5
F
102
{ACAD_REACTORS
330
E
102
}
  0
MLINESTYLE
  5
18
102
{ACAD_REACTORS
330
17
102
}
100
AcDbMlineStyle
  2
STANDARD
 70
0
  3

 62
256
 51
90.0
 52
90.0
 71
2
 49
0.5
 62
256
  6
BYLAYER
 49
-0.5
 62
256
  6
BYLAYER
  0
LAYOUT
  5
A50
102
{ACAD_REACTORS
330
1A
102
}
100
AcDbPlotSettings
  1

  2
none_device
  4

  6

 40
0.0
 41
0.0
 42
0.0
 43
0.0
 44
691.7282139732
 45
429.5408721046
 46
0.0
 47
0.0
 48
0.0
 49
0.0
140
0.0
141
0.0
142
1.0
143
1.0
 70
1024
 72
1
 73
0
 74
0
  7

 75
0
147
1.0
148
0.0
149
0.0
100
AcDbLayout
  1
Model
 70
0
 71
0
 10
0.0
 20
0.0
 11
691.7282139732
 21
429.5408721046
 12
0.0
 22
0.0
 32
0.0
 14
0.0
 24
0.0
 34
0.0
 15
0.0
 25
0.0
 35
0.0
146
0.0
 13
0.0
 23
0.0
 33
0.0
 16
1.0
 26
0.0
 36
0.0
 17
0.0
 27
1.0
 37
0.0
 76
0
330
208
345
0
346
0
  0
LAYOUT
  5
A51
102
{ACAD_REACTORS
330
1A
102
}
100
AcDbPlotSettings
  1

  2
none_device
  4

  6

 40
0.0
 41
0.0
 42
0.0
 43
0.0
 44
691.7282139732
 45
429.5408721046
 46
0.0
 47
0.0
 48
0.0
 49
0.0
140
0.0
141
0.0
142
1.0
143
1.0
 70
0
 72
1
 73
0
 74
0
  7

 75
0
147
1.0
148
0.0
149
0.0
100
AcDbLayout
  1
Layout1
 70
0
 71
1
 10
0.0
 20
0.0
 11
691.7282139732
 21
429.5408721046
 12
0.0
 22
0.0
 32
0.0
 14
0.0
 24
0.0
 34
0.0
 15
0.0
 25
0.0
 35
0.0
146
0.0
 13
0.0
 23
0.0
 33
0.0
 16
1.0
 26
0.0
 36
0.0
 17
0.0
 27
1.0
 37
0.0
 76
0
330
209
345
0
346
0
  0
ENDSEC
  0
EOF
