  0
SECTION
  2
HEADER
  9
$ACADVER
  1
AC1018
  9
$DWGCODEPAGE
  3
ANSI_1252
  9
$EXTMAX
 10
1345.8565105476
 20
1031.6467809131
 30
0.0
  9
$EXTMIN
 10
0.0
 20
0.0
 30
0.0
  9
$LIMMIN
 10
0.0
 20
0.0
  9
$LIMMAX
 10
1345.8565105476
 20
1031.6467809131
  9
$VIEWCTR
 10
672.9282552738
 20
515.8233904565
  9
$VIEWSIZE
 40
1031.6467809131
  9
$CLAYER
  8
0
  9
$LTSCALE
 40
74.0221080801
  9
$CELTYPE
  6
BYLAYER
  9
$DIMSCALE
 40
1.0
  9
$DIMASZ
 40
0.1875
  9
$DIMEXO
 40
8.4116031909
  9
$DIMDLI
 40
51.1425474008
  9
$DIMEXE
 40
24.2254171899
  9
$DIMCEN
 40
12.1127085949
  9
$DIMLFAC
 40
1.0
  9
$DIMBLK
  1
_CLOSED
  9
$DIMTXT
 40
0.15625
  9
$DIMTOL
 70
0
  9
$DIMLIM
 70
0
  9
$DIMTFAC
 40
1.0
  9
$PDMODE
 70
3
  9
$PDSIZE
 40
0.3125
  9
$HANDSEED
  5
6C1
  9
$TILEMODE
 70
1
  9
$MEASUREMENT
 70
1
  9
$INSUNITS
 70
4
  0
ENDSEC
  0
SECTION
  2
CLASSES
  0
CLASS
  1
ACDBDICTIONARYWDFLT
  2
AcDbDictionaryWithDefault
  3
AutoCAD 2000
 90
0
 91
1
280
0
281
0
  0
CLASS
  1
ACDBPLACEHOLDER
  2
AcDbPlaceHolder
  3
AutoCAD 2000
 90
0
 91
1
280
0
281
0
  0
CLASS
  1
LAYOUT
  2
AcDbLayout
  3
AutoCAD 2000
 90
0
 91
0
280
0
281
0
  0
ENDSEC
  0
SECTION
  2
TABLES
  0
TABLE
  2
VPORT
  5
8
100
AcDbSymbolTable
 70
2
  0
VPORT
  5
1F4
100
AcDbSymbolTableRecord
100
AcDbViewportTableRecord
  2
*ACTIVE
 70
0
 10
0.0
 20
0.0
 11
1.0
 21
1.0
 12
672.9282552738
 22
515.8233904565
 13
0.0
 23
0.0
 14
1.0
 24
1.0
 15
0.0
 25
0.0
 16
0.0
 26
0.0
 36
1.0
 17
0.0
 27
0.0
 37
0.0
 40
1031.6467809131
 41
1.3045710368
 42
50.0
 43
0.0
 44
0.0
 50
0.0
 51
0.0
 71
0
 72
100
 73
1
 74
1
 75
0
 76
0
 77
0
 78
0
  0
ENDTAB
  0
TABLE
  2
LTYPE
  5
5
100
AcDbSymbolTable
 70
6
  0
LTYPE
  5
14
100
AcDbSymbolTableRecord
100
AcDbLinetypeTableRecord
  2
BYBLOCK
 70
0
  3

 72
65
 73
0
 40
0.0
  0
LTYPE
  5
15
100
AcDbSymbolTableRecord
100
AcDbLinetypeTableRecord
  2
BYLAYER
 70
0
  3

 72
65
 73
0
 40
0.0
  0
LTYPE
  5
16
100
AcDbSymbolTableRecord
100
AcDbLinetypeTableRecord
  2
CONTINUOUS
 70
64
  3
Solid line
 72
65
 73
0
 40
0.0
  0
LTYPE
  5
1F5
100
AcDbSymbolTableRecord
100
AcDbLinetypeTableRecord
  2
CENTER
 70
64
  3
____ _ ____ _ ____ _ ____ _ ____ _ ____ _ ____
 72
65
 73
4
 40
0.6
 49
0.375
 74
0
 49
-0.075
 74
0
 49
0.075
 74
0
 49
-0.075
 74
0
  0
LTYPE
  5
1F6
100
AcDbSymbolTableRecord
100
AcDbLinetypeTableRecord
  2
HIDDEN
 70
64
  3
- - - - - - - - - - - - - - - - - - - -
 72
65
 73
2
 40
0.2
 49
0.1
 74
0
 49
-0.1
 74
0
  0
LTYPE
  5
1F7
100
AcDbSymbolTableRecord
100
AcDbLinetypeTableRecord
  2
PHANTOM
 70
64
  3
_____ _ _ _____ _ _ _____ _ _ _____
 72
65
 73
6
 40
0.8
 49
0.45
 74
0
 49
-0.05
 74
0
 49
0.1
 74
0
 49
-0.05
 74
0
 49
0.1
 74
0
 49
-0.05
 74
0
  0
LTYPE
  5
1F8
100
AcDbSymbolTableRecord
100
AcDbLinetypeTableRecord
  2
DOT
 70
64
  3
. . . . . . . . . . . . . . . . . . . .
 72
65
 73
2
 40
0.2
 49
0.1
 74
0
 49
-0.1
 74
0
  0
LTYPE
  5
1F9
100
AcDbSymbolTableRecord
100
AcDbLinetypeTableRecord
  2
DASHED
 70
64
  3
- - - - - - - - - - - - - - - - - - - -
 72
65
 73
2
 40
0.2
 49
0.1
 74
0
 49
-0.1
 74
0
  0
LTYPE
  5
1FA
100
AcDbSymbolTableRecord
100
AcDbLinetypeTableRecord
  2
SOLIDFONT
 70
64
  3
Solid line
 72
65
 73
0
 40
0.0
  0
LTYPE
  5
1FB
100
AcDbSymbolTableRecord
100
AcDbLinetypeTableRecord
  2
SOLIDFONT
 70
64
  3
Solid line
 72
65
 73
0
 40
0.0
  0
LTYPE
  5
1FC
100
AcDbSymbolTableRecord
100
AcDbLinetypeTableRecord
  2
SOLIDFONT
 70
64
  3
Solid line
 72
65
 73
0
 40
0.0
  0
LTYPE
  5
1FD
100
AcDbSymbolTableRecord
100
AcDbLinetypeTableRecord
  2
SOLIDFONT
 70
64
  3
Solid line
 72
65
 73
0
 40
0.0
  0
ENDTAB
  0
TABLE
  2
LAYER
  5
2
100
AcDbSymbolTable
 70
36
  0
LAYER
  5
10
100
AcDbSymbolTableRecord
100
AcDbLayerTableRecord
  2
0
 70
0
 62
7
  6
CONTINUOUS
370
-3
390
F
  0
LAYER
  5
1FE
100
AcDbSymbolTableRecord
100
AcDbLayerTableRecord
  2
DEFAULT_1
 70
0
 62
7
  6
CENTER
370
-3
390
F
  0
LAYER
  5
1FF
100
AcDbSymbolTableRecord
100
AcDbLayerTableRecord
  2
DEFAULT_2
 70
0
 62
8
  6
HIDDEN
370
-3
390
F
  0
LAYER
  5
200
100
AcDbSymbolTableRecord
100
AcDbLayerTableRecord
  2
DEFAULT_3
 70
0
 62
7
  6
PHANTOM
370
-3
390
F
  0
LAYER
  5
201
100
AcDbSymbolTableRecord
100
AcDbLayerTableRecord
  2
AM_12
 70
0
 62
7
  6
CONTINUOUS
370
-3
390
F
  0
LAYER
  5
202
100
AcDbSymbolTableRecord
100
AcDbLayerTableRecord
  2
AM_PAREF
 70
0
 62
7
  6
CONTINUOUS
370
-3
390
F
  0
LAYER
  5
203
100
AcDbSymbolTableRecord
100
AcDbLayerTableRecord
  2
AXIS
 70
0
 62
7
  6
CONTINUOUS
370
-3
390
F
  0
LAYER
  5
204
100
AcDbSymbolTableRecord
100
AcDbLayerTableRecord
  2
BASIC_DEVICE
 70
0
 62
7
  6
CONTINUOUS
370
-3
390
F
  0
LAYER
  5
205
100
AcDbSymbolTableRecord
100
AcDbLayerTableRecord
  2
DEVICE_FIXING_HOLES
 70
0
 62
7
  6
CONTINUOUS
370
-3
390
F
  0
LAYER
  5
206
100
AcDbSymbolTableRecord
100
AcDbLayerTableRecord
  2
Defpoints
 70
0
 62
7
  6
CONTINUOUS
290
0
370
-3
390
F
  0
LAYER
  5
207
100
AcDbSymbolTableRecord
100
AcDbLayerTableRecord
  2
HANDLE_FIXING_HOLES
 70
0
 62
7
  6
CONTINUOUS
370
-3
390
F
  0
LAYER
  5
208
100
AcDbSymbolTableRecord
100
AcDbLayerTableRecord
  2
H_EXTERN_HANDLE
 70
0
 62
7
  6
CONTINUOUS
370
-3
390
F
  0
LAYER
  5
209
100
AcDbSymbolTableRecord
100
AcDbLayerTableRecord
  2
H_MOVING
 70
0
 62
7
  6
CONTINUOUS
370
-3
390
F
  0
LAYER
  5
20A
100
AcDbSymbolTableRecord
100
AcDbLayerTableRecord
  2
INTER_PHASE_SCHIELDS
 70
0
 62
7
  6
CONTINUOUS
370
-3
390
F
  0
LAYER
  5
20B
100
AcDbSymbolTableRecord
100
AcDbLayerTableRecord
  2
POINT_D_ACCROCHAGE
 70
0
 62
7
  6
CONTINUOUS
370
-3
390
F
  0
LAYER
  5
20C
100
AcDbSymbolTableRecord
100
AcDbLayerTableRecord
  2
QUOTATION
 70
0
 62
7
  6
CONTINUOUS
370
-3
390
F
  0
LAYER
  5
20D
100
AcDbSymbolTableRecord
100
AcDbLayerTableRecord
  2
TERMINAL_SCHROUD
 70
0
 62
7
  6
CONTINUOUS
370
-3
390
F
  0
LAYER
  5
20E
100
AcDbSymbolTableRecord
100
AcDbLayerTableRecord
  2
TEXT
 70
0
 62
7
  6
CONTINUOUS
370
-3
390
F
  0
ENDTAB
  0
TABLE
  2
STYLE
  5
3
100
AcDbSymbolTable
 70
1
  0
STYLE
  5
11
100
AcDbSymbolTableRecord
100
AcDbTextStyleTableRecord
  2
STANDARD
 70
0
 40
0.0
 41
0.8
 50
0.0
 71
0
 42
0.2
  3
txt
  4

  0
STYLE
  5
20F
100
AcDbSymbolTableRecord
100
AcDbTextStyleTableRecord
  2
TEXTSTYLE_1
 70
0
 40
0.0
 41
0.8
 50
0.0
 71
0
 42
0.2
  3
gdt
  4

  0
STYLE
  5
210
100
AcDbSymbolTableRecord
100
AcDbTextStyleTableRecord
  2
TEXTSTYLE_2
 70
0
 40
0.0
 41
1.0
 50
0.0
 71
0
 42
0.2
  3
txt
  4

  0
STYLE
  5
211
100
AcDbSymbolTableRecord
100
AcDbTextStyleTableRecord
  2
TEXTSTYLE_3
 70
0
 40
0.0
 41
1.0
 50
0.0
 71
0
 42
0.2
  3
txt
  4

  0
ENDTAB
  0
TABLE
  2
VIEW
  5
6
100
AcDbSymbolTable
 70
0
  0
ENDTAB
  0
TABLE
  2
UCS
  5
7
100
AcDbSymbolTable
 70
0
  0
ENDTAB
  0
TABLE
  2
APPID
  5
9
100
AcDbSymbolTable
 70
1
  0
APPID
  5
212
100
AcDbSymbolTableRecord
100
AcDbRegAppTableRecord
  2
ACAD
 70
0
  0
ENDTAB
  0
TABLE
  2
BLOCK_RECORD
  5
1
100
AcDbSymbolTable
 70
0
  0
BLOCK_RECORD
  5
213
100
AcDbSymbolTableRecord
100
AcDbBlockTableRecord
  2
*Model_Space
  0
BLOCK_RECORD
  5
214
100
AcDbSymbolTableRecord
100
AcDbBlockTableRecord
  2
*Paper_Space
  0
BLOCK_RECORD
  5
215
100
AcDbSymbolTableRecord
100
AcDbBlockTableRecord
  2
_CLOSED
  0
BLOCK_RECORD
  5
216
100
AcDbSymbolTableRecord
100
AcDbBlockTableRecord
  2
*D0
  0
BLOCK_RECORD
  5
217
100
AcDbSymbolTableRecord
100
AcDbBlockTableRecord
  2
*D1
  0
BLOCK_RECORD
  5
218
100
AcDbSymbolTableRecord
100
AcDbBlockTableRecord
  2
*D2
  0
BLOCK_RECORD
  5
219
100
AcDbSymbolTableRecord
100
AcDbBlockTableRecord
  2
*D3
  0
BLOCK_RECORD
  5
21A
100
AcDbSymbolTableRecord
100
AcDbBlockTableRecord
  2
*D4
  0
BLOCK_RECORD
  5
21B
100
AcDbSymbolTableRecord
100
AcDbBlockTableRecord
  2
*D5
  0
BLOCK_RECORD
  5
21C
100
AcDbSymbolTableRecord
100
AcDbBlockTableRecord
  2
*D6
  0
BLOCK_RECORD
  5
21D
100
AcDbSymbolTableRecord
100
AcDbBlockTableRecord
  2
*D7
  0
BLOCK_RECORD
  5
21E
100
AcDbSymbolTableRecord
100
AcDbBlockTableRecord
  2
*D8
  0
BLOCK_RECORD
  5
21F
100
AcDbSymbolTableRecord
100
AcDbBlockTableRecord
  2
*D9
  0
BLOCK_RECORD
  5
220
100
AcDbSymbolTableRecord
100
AcDbBlockTableRecord
  2
*D10
  0
BLOCK_RECORD
  5
221
100
AcDbSymbolTableRecord
100
AcDbBlockTableRecord
  2
*D11
  0
BLOCK_RECORD
  5
222
100
AcDbSymbolTableRecord
100
AcDbBlockTableRecord
  2
*D12
  0
BLOCK_RECORD
  5
223
100
AcDbSymbolTableRecord
100
AcDbBlockTableRecord
  2
*D13
  0
BLOCK_RECORD
  5
224
100
AcDbSymbolTableRecord
100
AcDbBlockTableRecord
  2
*D14
  0
BLOCK_RECORD
  5
225
100
AcDbSymbolTableRecord
100
AcDbBlockTableRecord
  2
*D15
  0
BLOCK_RECORD
  5
226
100
AcDbSymbolTableRecord
100
AcDbBlockTableRecord
  2
*D16
  0
BLOCK_RECORD
  5
227
100
AcDbSymbolTableRecord
100
AcDbBlockTableRecord
  2
*D17
  0
BLOCK_RECORD
  5
228
100
AcDbSymbolTableRecord
100
AcDbBlockTableRecord
  2
*D18
  0
BLOCK_RECORD
  5
229
100
AcDbSymbolTableRecord
100
AcDbBlockTableRecord
  2
*D19
  0
BLOCK_RECORD
  5
22A
100
AcDbSymbolTableRecord
100
AcDbBlockTableRecord
  2
*D20
  0
BLOCK_RECORD
  5
22B
100
AcDbSymbolTableRecord
100
AcDbBlockTableRecord
  2
*D21
  0
BLOCK_RECORD
  5
22C
100
AcDbSymbolTableRecord
100
AcDbBlockTableRecord
  2
*D22
  0
BLOCK_RECORD
  5
22D
100
AcDbSymbolTableRecord
100
AcDbBlockTableRecord
  2
*D23
  0
BLOCK_RECORD
  5
22E
100
AcDbSymbolTableRecord
100
AcDbBlockTableRecord
  2
*D24
  0
BLOCK_RECORD
  5
22F
100
AcDbSymbolTableRecord
100
AcDbBlockTableRecord
  2
*D25
  0
ENDTAB
  0
TABLE
  2
DIMSTYLE
  5
A
100
AcDbSymbolTable
 70
1
100
AcDbDimStyleTable
 71
0
  0
DIMSTYLE
105
230
100
AcDbSymbolTableRecord
100
AcDbDimStyleTableRecord
  2
STANDARD
 70
0
  3

  4

 40
1.0
 41
0.1875
 42
0.0625
 43
0.38
 44
0.18
 45
0.0
 46
0.0
 47
0.1
 48
0.1
140
0.15625
141
0.09
142
0.0
143
25.4
144
1.0
145
0.0
146
1.0
147
0.09
 71
0.0
 72
0.0
 73
1
 74
1
 75
0
 76
0
 77
0
 78
8
170
0
171
2
172
0
173
0
174
0
175
0
176
0
177
0
178
0
270
2
271
1
272
1
273
2
274
2
275
0
280
0
281
0
282
0
283
1
284
8
285
0
286
0
287
3
288
0
340
11
341
215
342
215
343
215
344
215
  0
DIMSTYLE
105
231
100
AcDbSymbolTableRecord
100
AcDbDimStyleTableRecord
  2
DIMSTYLE_1
 70
0
  3

  4

 40
1.0
 41
0.1875
 42
0.0625
 43
0.38
 44
0.18
 45
0.0
 46
0.0
 47
0.0
 48
0.0
140
10.5
141
0.09
142
0.0
143
25.4
144
1.0
145
0.0
146
1.0
147
0.09
 71
0.0
 72
0.0
 73
1
 74
1
 75
0
 76
0
 77
0
 78
8
170
0
171
2
172
0
173
0
174
0
175
0
176
0
177
0
178
0
270
2
271
1
272
1
273
2
274
2
275
0
280
0
281
0
282
0
283
1
284
8
285
0
286
0
287
3
288
0
340
11
341
215
342
215
343
215
344
215
  0
DIMSTYLE
105
232
100
AcDbSymbolTableRecord
100
AcDbDimStyleTableRecord
  2
DIMSTYLE_2
 70
0
  3

  4

 40
1.0
 41
0.1875
 42
0.0625
 43
0.38
 44
0.18
 45
0.0
 46
0.0
 47
0.0
 48
0.0
140
10.5
141
0.09
142
0.0
143
25.4
144
1.0
145
0.0
146
1.0
147
0.09
 71
0.0
 72
0.0
 73
1
 74
1
 75
0
 76
0
 77
0
 78
8
170
0
171
2
172
0
173
0
174
0
175
0
176
0
177
0
178
0
270
2
271
1
272
1
273
2
274
2
275
0
280
0
281
0
282
0
283
1
284
8
285
0
286
0
287
3
288
0
340
11
341
215
342
215
343
215
344
215
  0
ENDTAB
  0
ENDSEC
  0
SECTION
  2
BLOCKS
  0
BLOCK
  5
20
100
AcDbEntity
  8
0
100
AcDbBlockBegin
  2
*Model_Space
 70
0
 10
0.0
 20
0.0
 30
0.0
  3
*Model_Space
  1

  0
ENDBLK
  5
21
100
AcDbEntity
  8
0
100
AcDbBlockEnd
  0
BLOCK
  5
1C
100
AcDbEntity
  8
0
100
AcDbBlockBegin
  2
*Paper_Space
 70
0
 10
0.0
 20
0.0
 30
0.0
  3
*Paper_Space
  1

  0
ENDBLK
  5
1D
100
AcDbEntity
  8
0
100
AcDbBlockEnd
  0
BLOCK
  5
233
100
AcDbEntity
  8
0
100
AcDbBlockBegin
  2
_CLOSED
 70
64
 10
0.0
 20
0.0
  3
_CLOSED
  1

  0
LINE
  5
234
100
AcDbEntity
  8
0
  6
BYBLOCK
 62
0
100
AcDbLine
 10
0.0
 20
0.0
 11
-1.0
 21
0.1666666667
  0
LINE
  5
235
100
AcDbEntity
  8
0
  6
BYBLOCK
 62
0
100
AcDbLine
 10
-1.0
 20
0.1666666667
 11
-1.0
 21
-0.1666666667
  0
LINE
  5
236
100
AcDbEntity
  8
0
  6
BYBLOCK
 62
0
100
AcDbLine
 10
-1.0
 20
-0.1666666667
 11
0.0
 21
0.0
  0
LINE
  5
237
100
AcDbEntity
  8
0
  6
BYBLOCK
 62
0
100
AcDbLine
 10
-1.0
 20
0.0
 11
0.0
 21
0.0
  0
ENDBLK
  5
238
100
AcDbEntity
  8
0
  6
BYBLOCK
 62
0
100
AcDbBlockEnd
  0
BLOCK
  5
239
100
AcDbEntity
  8
QUOTATION
100
AcDbBlockBegin
 62
3
  6
CONTINUOUS
  2
*D0
 70
65
 10
0.0
 20
0.0
  3
*D0
  1

  0
MTEXT
  5
23A
100
AcDbEntity
  8
QUOTATION
100
AcDbMText
 62
3
  6
CONTINUOUS
  7
STANDARD
 71
2
 72
1
 10
579.6247832339
 20
277.7399005928
 30
0.0
 11
1.0
 21
0.0
 31
0.0
 44
0.9
  1
175
 40
10.5
 41
25.2
  0
LINE
  5
23B
100
AcDbEntity
  8
QUOTATION
100
AcDbLine
 62
3
  6
CONTINUOUS
 10
624.5456718587
 20
157.6621310183
 11
579.4997832339
 21
157.6621310183
  0
LINE
  5
23C
100
AcDbEntity
  8
QUOTATION
100
AcDbLine
 62
3
  6
CONTINUOUS
 10
624.5456718587
 20
332.6621310183
 11
579.4997832339
 21
332.6621310183
  0
LINE
  5
23D
100
AcDbEntity
  8
QUOTATION
100
AcDbLine
 62
3
  6
CONTINUOUS
 10
579.6247832339
 20
157.6621310183
 11
579.6247832339
 21
261.9899005928
  0
LINE
  5
23E
100
AcDbEntity
  8
QUOTATION
100
AcDbLine
 62
3
  6
CONTINUOUS
 10
579.6247832339
 20
332.6621310183
 11
579.6247832339
 21
282.9899005928
  0
INSERT
  5
23F
100
AcDbEntity
  8
QUOTATION
100
AcDbBlockReference
 62
3
  6
CONTINUOUS
  2
_CLOSED
 10
579.6247832339
 20
157.6621310183
 41
0.1875
 42
0.1875
 43
0.1875
 50
270.0
  0
INSERT
  5
240
100
AcDbEntity
  8
QUOTATION
100
AcDbBlockReference
 62
3
  6
CONTINUOUS
  2
_CLOSED
 10
579.6247832339
 20
332.6621310183
 41
0.1875
 42
0.1875
 43
0.1875
 50
90.0
  0
ENDBLK
  5
241
100
AcDbEntity
  8
0
  6
BYBLOCK
 62
0
100
AcDbBlockEnd
  0
BLOCK
  5
242
100
AcDbEntity
  8
QUOTATION
100
AcDbBlockBegin
 62
3
  6
CONTINUOUS
  2
*D1
 70
65
 10
0.0
 20
0.0
  3
*D1
  1

  0
MTEXT
  5
243
100
AcDbEntity
  8
QUOTATION
100
AcDbMText
 62
3
  6
CONTINUOUS
  7
STANDARD
 71
2
 72
1
 10
552.1706708487
 20
255.6621310183
 30
0.0
 11
1.0
 21
0.0
 31
0.0
 44
0.9
  1
200
 40
10.5
 41
25.2
  0
LINE
  5
244
100
AcDbEntity
  8
QUOTATION
100
AcDbLine
 62
3
  6
CONTINUOUS
 10
612.0456718587
 20
145.1621310183
 11
552.0456708487
 21
145.1621310183
  0
LINE
  5
245
100
AcDbEntity
  8
QUOTATION
100
AcDbLine
 62
3
  6
CONTINUOUS
 10
612.0456718587
 20
345.1621310183
 11
552.0456708487
 21
345.1621310183
  0
LINE
  5
246
100
AcDbEntity
  8
QUOTATION
100
AcDbLine
 62
3
  6
CONTINUOUS
 10
552.1706708487
 20
145.1621310183
 11
552.1706708487
 21
239.9121310183
  0
LINE
  5
247
100
AcDbEntity
  8
QUOTATION
100
AcDbLine
 62
3
  6
CONTINUOUS
 10
552.1706708487
 20
345.1621310183
 11
552.1706708487
 21
260.9121310183
  0
INSERT
  5
248
100
AcDbEntity
  8
QUOTATION
100
AcDbBlockReference
 62
3
  6
CONTINUOUS
  2
_CLOSED
 10
552.1706708487
 20
145.1621310183
 41
0.1875
 42
0.1875
 43
0.1875
 50
270.0
  0
INSERT
  5
249
100
AcDbEntity
  8
QUOTATION
100
AcDbBlockReference
 62
3
  6
CONTINUOUS
  2
_CLOSED
 10
552.1706708487
 20
345.1621310183
 41
0.1875
 42
0.1875
 43
0.1875
 50
90.0
  0
ENDBLK
  5
24A
100
AcDbEntity
  8
0
  6
BYBLOCK
 62
0
100
AcDbBlockEnd
  0
BLOCK
  5
24B
100
AcDbEntity
  8
QUOTATION
100
AcDbBlockBegin
 62
3
  6
CONTINUOUS
  2
*D2
 70
65
 10
0.0
 20
0.0
  3
*D2
  1

  0
MTEXT
  5
24C
100
AcDbEntity
  8
QUOTATION
100
AcDbMText
 62
3
  6
CONTINUOUS
  7
STANDARD
 71
2
 72
1
 10
552.1706708487
 20
388.1626739871
 30
0.0
 11
1.0
 21
0.0
 31
0.0
 44
0.9
  1
65
 40
10.5
 41
16.8
  0
LINE
  5
24D
100
AcDbEntity
  8
QUOTATION
100
AcDbLine
 62
3
  6
CONTINUOUS
 10
653.5456718587
 20
345.1632169558
 11
552.0456708487
 21
345.1632169558
  0
LINE
  5
24E
100
AcDbEntity
  8
QUOTATION
100
AcDbLine
 62
3
  6
CONTINUOUS
 10
658.5456718587
 20
410.1621310183
 11
552.0456708487
 21
410.1621310183
  0
LINE
  5
24F
100
AcDbEntity
  8
QUOTATION
100
AcDbLine
 62
3
  6
CONTINUOUS
 10
552.1706708487
 20
345.1632169558
 11
552.1706708487
 21
372.4126739871
  0
LINE
  5
250
100
AcDbEntity
  8
QUOTATION
100
AcDbLine
 62
3
  6
CONTINUOUS
 10
552.1706708487
 20
410.1621310183
 11
552.1706708487
 21
393.4126739871
  0
INSERT
  5
251
100
AcDbEntity
  8
QUOTATION
100
AcDbBlockReference
 62
3
  6
CONTINUOUS
  2
_CLOSED
 10
552.1706708487
 20
345.1632169558
 41
0.1875
 42
0.1875
 43
0.1875
 50
270.0
  0
INSERT
  5
252
100
AcDbEntity
  8
QUOTATION
100
AcDbBlockReference
 62
3
  6
CONTINUOUS
  2
_CLOSED
 10
552.1706708487
 20
410.1621310183
 41
0.1875
 42
0.1875
 43
0.1875
 50
90.0
  0
ENDBLK
  5
253
100
AcDbEntity
  8
0
  6
BYBLOCK
 62
0
100
AcDbBlockEnd
  0
BLOCK
  5
254
100
AcDbEntity
  8
QUOTATION
100
AcDbBlockBegin
 62
3
  6
CONTINUOUS
  2
*D3
 70
65
 10
0.0
 20
0.0
  3
*D3
  1

  0
MTEXT
  5
255
100
AcDbEntity
  8
QUOTATION
100
AcDbMText
 62
3
  6
CONTINUOUS
  7
STANDARD
 71
2
 72
1
 10
552.1706708487
 20
453.4121310183
 30
0.0
 11
1.0
 21
0.0
 31
0.0
 44
0.9
  1
65.5
 40
10.5
 41
33.6
  0
LINE
  5
256
100
AcDbEntity
  8
QUOTATION
100
AcDbLine
 62
3
  6
CONTINUOUS
 10
658.5456718587
 20
410.1621310183
 11
552.0456708487
 21
410.1621310183
  0
LINE
  5
257
100
AcDbEntity
  8
QUOTATION
100
AcDbLine
 62
3
  6
CONTINUOUS
 10
617.0456718587
 20
475.6621310183
 11
552.0456708487
 21
475.6621310183
  0
LINE
  5
258
100
AcDbEntity
  8
QUOTATION
100
AcDbLine
 62
3
  6
CONTINUOUS
 10
552.1706708487
 20
410.1621310183
 11
552.1706708487
 21
437.6621310183
  0
LINE
  5
259
100
AcDbEntity
  8
QUOTATION
100
AcDbLine
 62
3
  6
CONTINUOUS
 10
552.1706708487
 20
475.6621310183
 11
552.1706708487
 21
458.6621310183
  0
INSERT
  5
25A
100
AcDbEntity
  8
QUOTATION
100
AcDbBlockReference
 62
3
  6
CONTINUOUS
  2
_CLOSED
 10
552.1706708487
 20
410.1621310183
 41
0.1875
 42
0.1875
 43
0.1875
 50
270.0
  0
INSERT
  5
25B
100
AcDbEntity
  8
QUOTATION
100
AcDbBlockReference
 62
3
  6
CONTINUOUS
  2
_CLOSED
 10
552.1706708487
 20
475.6621310183
 41
0.1875
 42
0.1875
 43
0.1875
 50
90.0
  0
ENDBLK
  5
25C
100
AcDbEntity
  8
0
  6
BYBLOCK
 62
0
100
AcDbBlockEnd
  0
BLOCK
  5
25D
100
AcDbEntity
  8
QUOTATION
100
AcDbBlockBegin
 62
3
  6
CONTINUOUS
  2
*D4
 70
65
 10
0.0
 20
0.0
  3
*D4
  1

  0
MTEXT
  5
25E
100
AcDbEntity
  8
QUOTATION
100
AcDbMText
 62
3
  6
CONTINUOUS
  7
STANDARD
 71
2
 72
1
 10
793.0941763114
 20
538.6368596727
 30
0.0
 11
1.0
 21
0.0
 31
0.0
 44
0.9
  1
347
 40
10.5
 41
25.2
  0
LINE
  5
25F
100
AcDbEntity
  8
QUOTATION
100
AcDbLine
 62
3
  6
CONTINUOUS
 10
624.6706718587
 20
332.7871310183
 11
624.6706718587
 21
533.5118596727
  0
LINE
  5
260
100
AcDbEntity
  8
QUOTATION
100
AcDbLine
 62
3
  6
CONTINUOUS
 10
971.6706718587
 20
332.7871310183
 11
971.6706718587
 21
533.5118596727
  0
LINE
  5
261
100
AcDbEntity
  8
QUOTATION
100
AcDbLine
 62
3
  6
CONTINUOUS
 10
624.6706718587
 20
533.3868596727
 11
775.2441763114
 21
533.3868596727
  0
LINE
  5
262
100
AcDbEntity
  8
QUOTATION
100
AcDbLine
 62
3
  6
CONTINUOUS
 10
971.6706718587
 20
533.3868596727
 11
810.9441763114
 21
533.3868596727
  0
INSERT
  5
263
100
AcDbEntity
  8
QUOTATION
100
AcDbBlockReference
 62
3
  6
CONTINUOUS
  2
_CLOSED
 10
624.6706718587
 20
533.3868596727
 41
0.1875
 42
0.1875
 43
0.1875
 50
180.0
  0
INSERT
  5
264
100
AcDbEntity
  8
QUOTATION
100
AcDbBlockReference
 62
3
  6
CONTINUOUS
  2
_CLOSED
 10
971.6706718587
 20
533.3868596727
 41
0.1875
 42
0.1875
 43
0.1875
  0
ENDBLK
  5
265
100
AcDbEntity
  8
0
  6
BYBLOCK
 62
0
100
AcDbBlockEnd
  0
BLOCK
  5
266
100
AcDbEntity
  8
QUOTATION
100
AcDbBlockBegin
 62
3
  6
CONTINUOUS
  2
*D5
 70
65
 10
0.0
 20
0.0
  3
*D5
  1

  0
MTEXT
  5
267
100
AcDbEntity
  8
QUOTATION
100
AcDbMText
 62
3
  6
CONTINUOUS
  7
STANDARD
 71
2
 72
1
 10
650.7206718587
 20
48.6121300183
 30
0.0
 11
1.0
 21
0.0
 31
0.0
 44
0.9
  1
60.5
 40
10.5
 41
33.6
  0
LINE
  5
268
100
AcDbEntity
  8
QUOTATION
100
AcDbLine
 62
3
  6
CONTINUOUS
 10
624.6706718587
 20
157.5371310183
 11
624.6706718587
 21
43.2371300183
  0
LINE
  5
269
100
AcDbEntity
  8
QUOTATION
100
AcDbLine
 62
3
  6
CONTINUOUS
 10
685.1706718587
 20
80.0371310183
 11
685.1706718587
 21
43.2371300183
  0
LINE
  5
26A
100
AcDbEntity
  8
QUOTATION
100
AcDbLine
 62
3
  6
CONTINUOUS
 10
624.6706718587
 20
43.3621300183
 11
628.6706718587
 21
43.3621300183
  0
LINE
  5
26B
100
AcDbEntity
  8
QUOTATION
100
AcDbLine
 62
3
  6
CONTINUOUS
 10
685.1706718587
 20
43.3621300183
 11
672.7706718587
 21
43.3621300183
  0
INSERT
  5
26C
100
AcDbEntity
  8
QUOTATION
100
AcDbBlockReference
 62
3
  6
CONTINUOUS
  2
_CLOSED
 10
624.6706718587
 20
43.3621300183
 41
0.1875
 42
0.1875
 43
0.1875
 50
180.0
  0
INSERT
  5
26D
100
AcDbEntity
  8
QUOTATION
100
AcDbBlockReference
 62
3
  6
CONTINUOUS
  2
_CLOSED
 10
685.1706718587
 20
43.3621300183
 41
0.1875
 42
0.1875
 43
0.1875
 50
360.0
  0
ENDBLK
  5
26E
100
AcDbEntity
  8
0
  6
BYBLOCK
 62
0
100
AcDbBlockEnd
  0
BLOCK
  5
26F
100
AcDbEntity
  8
QUOTATION
100
AcDbBlockBegin
 62
3
  6
CONTINUOUS
  2
*D6
 70
65
 10
0.0
 20
0.0
  3
*D6
  1

  0
MTEXT
  5
270
100
AcDbEntity
  8
QUOTATION
100
AcDbMText
 62
3
  6
CONTINUOUS
  7
STANDARD
 71
2
 72
1
 10
742.0206718587
 20
49.4121310183
 30
0.0
 11
1.0
 21
0.0
 31
0.0
 44
0.9
  1
120
 40
10.5
 41
25.2
  0
LINE
  5
271
100
AcDbEntity
  8
QUOTATION
100
AcDbLine
 62
3
  6
CONTINUOUS
 10
685.1706718587
 20
80.0371310183
 11
685.1706718587
 21
44.0371310183
  0
LINE
  5
272
100
AcDbEntity
  8
QUOTATION
100
AcDbLine
 62
3
  6
CONTINUOUS
 10
805.1706718587
 20
80.0371310183
 11
805.1706718587
 21
44.0371310183
  0
LINE
  5
273
100
AcDbEntity
  8
QUOTATION
100
AcDbLine
 62
3
  6
CONTINUOUS
 10
685.1706718587
 20
44.1621310183
 11
724.1706718587
 21
44.1621310183
  0
LINE
  5
274
100
AcDbEntity
  8
QUOTATION
100
AcDbLine
 62
3
  6
CONTINUOUS
 10
805.1706718587
 20
44.1621310183
 11
759.8706718587
 21
44.1621310183
  0
INSERT
  5
275
100
AcDbEntity
  8
QUOTATION
100
AcDbBlockReference
 62
3
  6
CONTINUOUS
  2
_CLOSED
 10
685.1706718587
 20
44.1621310183
 41
0.1875
 42
0.1875
 43
0.1875
 50
180.0
  0
INSERT
  5
276
100
AcDbEntity
  8
QUOTATION
100
AcDbBlockReference
 62
3
  6
CONTINUOUS
  2
_CLOSED
 10
805.1706718587
 20
44.1621310183
 41
0.1875
 42
0.1875
 43
0.1875
  0
ENDBLK
  5
277
100
AcDbEntity
  8
0
  6
BYBLOCK
 62
0
100
AcDbBlockEnd
  0
BLOCK
  5
278
100
AcDbEntity
  8
QUOTATION
100
AcDbBlockBegin
 62
3
  6
CONTINUOUS
  2
*D7
 70
65
 10
0.0
 20
0.0
  3
*D7
  1

  0
MTEXT
  5
279
100
AcDbEntity
  8
QUOTATION
100
AcDbMText
 62
3
  6
CONTINUOUS
  7
STANDARD
 71
2
 72
1
 10
923.0706718587
 20
43.8259853242
 30
0.0
 11
1.0
 21
0.0
 31
0.0
 44
0.9
  1
63
 40
10.5
 41
16.8
  0
LINE
  5
27A
100
AcDbEntity
  8
QUOTATION
100
AcDbLine
 62
3
  6
CONTINUOUS
 10
893.6706718587
 20
85.0371310183
 11
893.6706718587
 21
38.4509853242
  0
LINE
  5
27B
100
AcDbEntity
  8
QUOTATION
100
AcDbLine
 62
3
  6
CONTINUOUS
 10
956.6706718587
 20
85.0371310183
 11
956.6706718587
 21
38.4509853242
  0
LINE
  5
27C
100
AcDbEntity
  8
QUOTATION
100
AcDbLine
 62
3
  6
CONTINUOUS
 10
893.6706718587
 20
38.5759853242
 11
909.4206718587
 21
38.5759853242
  0
LINE
  5
27D
100
AcDbEntity
  8
QUOTATION
100
AcDbLine
 62
3
  6
CONTINUOUS
 10
956.6706718587
 20
38.5759853242
 11
936.7206718587
 21
38.5759853242
  0
INSERT
  5
27E
100
AcDbEntity
  8
QUOTATION
100
AcDbBlockReference
 62
3
  6
CONTINUOUS
  2
_CLOSED
 10
893.6706718587
 20
38.5759853242
 41
0.1875
 42
0.1875
 43
0.1875
 50
180.0
  0
INSERT
  5
27F
100
AcDbEntity
  8
QUOTATION
100
AcDbBlockReference
 62
3
  6
CONTINUOUS
  2
_CLOSED
 10
956.6706718587
 20
38.5759853242
 41
0.1875
 42
0.1875
 43
0.1875
  0
ENDBLK
  5
280
100
AcDbEntity
  8
0
  6
BYBLOCK
 62
0
100
AcDbBlockEnd
  0
BLOCK
  5
281
100
AcDbEntity
  8
QUOTATION
100
AcDbBlockBegin
 62
3
  6
CONTINUOUS
  2
*D8
 70
65
 10
0.0
 20
0.0
  3
*D8
  1

  0
MTEXT
  5
282
100
AcDbEntity
  8
QUOTATION
100
AcDbMText
 62
3
  6
CONTINUOUS
  7
STANDARD
 71
2
 72
1
 10
923.0706718587
 20
65.0423617852
 30
0.0
 11
1.0
 21
0.0
 31
0.0
 44
0.9
  1
40
 40
10.5
 41
16.8
  0
LINE
  5
283
100
AcDbEntity
  8
QUOTATION
100
AcDbLine
 62
3
  6
CONTINUOUS
 10
905.1706718587
 20
100.0371310183
 11
905.1706718587
 21
59.6673617852
  0
LINE
  5
284
100
AcDbEntity
  8
QUOTATION
100
AcDbLine
 62
3
  6
CONTINUOUS
 10
945.1706718587
 20
100.0371310183
 11
945.1706718587
 21
59.6673617852
  0
LINE
  5
285
100
AcDbEntity
  8
QUOTATION
100
AcDbLine
 62
3
  6
CONTINUOUS
 10
905.1706718587
 20
59.7923617852
 11
909.4206718587
 21
59.7923617852
  0
LINE
  5
286
100
AcDbEntity
  8
QUOTATION
100
AcDbLine
 62
3
  6
CONTINUOUS
 10
945.1706718587
 20
59.7923617852
 11
936.7206718587
 21
59.7923617852
  0
INSERT
  5
287
100
AcDbEntity
  8
QUOTATION
100
AcDbBlockReference
 62
3
  6
CONTINUOUS
  2
_CLOSED
 10
905.1706718587
 20
59.7923617852
 41
0.1875
 42
0.1875
 43
0.1875
 50
180.0
  0
INSERT
  5
288
100
AcDbEntity
  8
QUOTATION
100
AcDbBlockReference
 62
3
  6
CONTINUOUS
  2
_CLOSED
 10
945.1706718587
 20
59.7923617852
 41
0.1875
 42
0.1875
 43
0.1875
  0
ENDBLK
  5
289
100
AcDbEntity
  8
0
  6
BYBLOCK
 62
0
100
AcDbBlockEnd
  0
BLOCK
  5
28A
100
AcDbEntity
  8
QUOTATION
100
AcDbBlockBegin
 62
3
  6
CONTINUOUS
  2
*D9
 70
65
 10
0.0
 20
0.0
  3
*D9
  1

  0
MTEXT
  5
28B
100
AcDbEntity
  8
QUOTATION
100
AcDbMText
 62
3
  6
CONTINUOUS
  7
STANDARD
 71
2
 72
1
 10
706.1706718586
 20
518.3900996894
 30
0.0
 11
1.0
 21
0.0
 31
0.0
 44
0.9
  1
173.5
 40
10.5
 41
42.0
  0
LINE
  5
28C
100
AcDbEntity
  8
QUOTATION
100
AcDbLine
 62
3
  6
CONTINUOUS
 10
624.6706718587
 20
332.7871310183
 11
624.6706718587
 21
513.2650996894
  0
LINE
  5
28D
100
AcDbEntity
  8
QUOTATION
100
AcDbLine
 62
3
  6
CONTINUOUS
 10
798.1706718585
 20
273.2871310184
 11
798.1706718585
 21
513.2650996894
  0
LINE
  5
28E
100
AcDbEntity
  8
QUOTATION
100
AcDbLine
 62
3
  6
CONTINUOUS
 10
624.6706718587
 20
513.1400996894
 11
679.9206718586
 21
513.1400996894
  0
LINE
  5
28F
100
AcDbEntity
  8
QUOTATION
100
AcDbLine
 62
3
  6
CONTINUOUS
 10
798.1706718585
 20
513.1400996894
 11
732.4206718586
 21
513.1400996894
  0
INSERT
  5
290
100
AcDbEntity
  8
QUOTATION
100
AcDbBlockReference
 62
3
  6
CONTINUOUS
  2
_CLOSED
 10
624.6706718587
 20
513.1400996894
 41
0.1875
 42
0.1875
 43
0.1875
 50
180.0
  0
INSERT
  5
291
100
AcDbEntity
  8
QUOTATION
100
AcDbBlockReference
 62
3
  6
CONTINUOUS
  2
_CLOSED
 10
798.1706718585
 20
513.1400996894
 41
0.1875
 42
0.1875
 43
0.1875
  0
ENDBLK
  5
292
100
AcDbEntity
  8
0
  6
BYBLOCK
 62
0
100
AcDbBlockEnd
  0
BLOCK
  5
293
100
AcDbEntity
  8
QUOTATION
100
AcDbBlockBegin
 62
3
  6
CONTINUOUS
  2
*D10
 70
65
 10
0.0
 20
0.0
  3
*D10
  1

  0
MTEXT
  5
294
100
AcDbEntity
  8
QUOTATION
100
AcDbMText
 62
3
  6
CONTINUOUS
  7
STANDARD
 71
2
 72
1
 10
1041.0713512703
 20
313.4121310183
 30
0.0
 11
1.0
 21
0.0
 31
0.0
 44
0.9
  1
59.5
 40
10.5
 41
33.6
  0
LINE
  5
295
100
AcDbEntity
  8
QUOTATION
100
AcDbLine
 62
3
  6
CONTINUOUS
 10
971.7956718587
 20
332.6621310183
 11
1041.1963512703
 21
332.6621310183
  0
LINE
  5
296
100
AcDbEntity
  8
QUOTATION
100
AcDbLine
 62
3
  6
CONTINUOUS
 10
988.2956718584
 20
273.1621310184
 11
1041.1963512703
 21
273.1621310184
  0
LINE
  5
297
100
AcDbEntity
  8
QUOTATION
100
AcDbLine
 62
3
  6
CONTINUOUS
 10
1041.0713512703
 20
332.6621310183
 11
1041.0713512703
 21
318.6621310183
  0
LINE
  5
298
100
AcDbEntity
  8
QUOTATION
100
AcDbLine
 62
3
  6
CONTINUOUS
 10
1041.0713512703
 20
273.1621310184
 11
1041.0713512703
 21
297.6621310183
  0
INSERT
  5
299
100
AcDbEntity
  8
QUOTATION
100
AcDbBlockReference
 62
3
  6
CONTINUOUS
  2
_CLOSED
 10
1041.0713512703
 20
332.6621310183
 41
0.1875
 42
0.1875
 43
0.1875
 50
90.0
  0
INSERT
  5
29A
100
AcDbEntity
  8
QUOTATION
100
AcDbBlockReference
 62
3
  6
CONTINUOUS
  2
_CLOSED
 10
1041.0713512703
 20
273.1621310184
 41
0.1875
 42
0.1875
 43
0.1875
 50
270.0
  0
ENDBLK
  5
29B
100
AcDbEntity
  8
0
  6
BYBLOCK
 62
0
100
AcDbBlockEnd
  0
BLOCK
  5
29C
100
AcDbEntity
  8
QUOTATION
100
AcDbBlockBegin
 62
3
  6
CONTINUOUS
  2
*D11
 70
65
 10
0.0
 20
0.0
  3
*D11
  1

  0
MTEXT
  5
29D
100
AcDbEntity
  8
QUOTATION
100
AcDbMText
 62
3
  6
CONTINUOUS
  7
STANDARD
 71
2
 72
1
 10
1011.9440704861
 20
91.8893328166
 30
0.0
 11
1.0
 21
0.0
 31
0.0
 44
0.9
  1
20
 40
10.5
 41
16.8
  0
LINE
  5
29E
100
AcDbEntity
  8
QUOTATION
100
AcDbLine
 62
3
  6
CONTINUOUS
 10
945.2956718587
 20
120.1621310183
 11
1012.0690704861
 21
120.1621310183
  0
LINE
  5
29F
100
AcDbEntity
  8
QUOTATION
100
AcDbLine
 62
3
  6
CONTINUOUS
 10
945.2956718587
 20
100.1621310183
 11
1012.0690704861
 21
100.1621310183
  0
LINE
  5
2A0
100
AcDbEntity
  8
QUOTATION
100
AcDbLine
 62
3
  6
CONTINUOUS
 10
1011.9440704861
 20
120.1621310183
 11
1011.9440704861
 21
120.6621310183
  0
LINE
  5
2A1
100
AcDbEntity
  8
QUOTATION
100
AcDbLine
 62
3
  6
CONTINUOUS
 10
1011.9440704861
 20
100.1621310183
 11
1011.9440704861
 21
97.1393328166
  0
INSERT
  5
2A2
100
AcDbEntity
  8
QUOTATION
100
AcDbBlockReference
 62
3
  6
CONTINUOUS
  2
_CLOSED
 10
1011.9440704861
 20
120.1621310183
 41
0.1875
 42
0.1875
 43
0.1875
 50
270.0
  0
INSERT
  5
2A3
100
AcDbEntity
  8
QUOTATION
100
AcDbBlockReference
 62
3
  6
CONTINUOUS
  2
_CLOSED
 10
1011.9440704861
 20
100.1621310183
 41
0.1875
 42
0.1875
 43
0.1875
 50
90.0
  0
ENDBLK
  5
2A4
100
AcDbEntity
  8
0
  6
BYBLOCK
 62
0
100
AcDbBlockEnd
  0
BLOCK
  5
2A5
100
AcDbEntity
  8
QUOTATION
100
AcDbBlockBegin
 62
3
  6
CONTINUOUS
  2
*D12
 70
65
 10
0.0
 20
0.0
  3
*D12
  1

  0
MTEXT
  5
2A6
100
AcDbEntity
  8
QUOTATION
100
AcDbMText
 62
3
  6
CONTINUOUS
  7
STANDARD
 71
2
 72
1
 10
985.7660925999
 20
75.7496802309
 30
0.0
 11
1.0
 21
0.0
 31
0.0
 44
0.9
  1
20
 40
10.5
 41
16.8
  0
LINE
  5
2A7
100
AcDbEntity
  8
QUOTATION
100
AcDbLine
 62
3
  6
CONTINUOUS
 10
945.2956718587
 20
100.1621310183
 11
985.8910925999
 21
100.1621310183
  0
LINE
  5
2A8
100
AcDbEntity
  8
QUOTATION
100
AcDbLine
 62
3
  6
CONTINUOUS
 10
951.7956718587
 20
80.1621310183
 11
985.8910925999
 21
80.1621310183
  0
LINE
  5
2A9
100
AcDbEntity
  8
QUOTATION
100
AcDbLine
 62
3
  6
CONTINUOUS
 10
985.7660925999
 20
100.1621310183
 11
985.7660925999
 21
100.6621310183
  0
LINE
  5
2AA
100
AcDbEntity
  8
QUOTATION
100
AcDbLine
 62
3
  6
CONTINUOUS
 10
985.7660925999
 20
80.1621310183
 11
985.7660925999
 21
80.1619964326
  0
INSERT
  5
2AB
100
AcDbEntity
  8
QUOTATION
100
AcDbBlockReference
 62
3
  6
CONTINUOUS
  2
_CLOSED
 10
985.7660925999
 20
100.1621310183
 41
0.1875
 42
0.1875
 43
0.1875
 50
270.0
  0
INSERT
  5
2AC
100
AcDbEntity
  8
QUOTATION
100
AcDbBlockReference
 62
3
  6
CONTINUOUS
  2
_CLOSED
 10
985.7660925999
 20
80.1621310183
 41
0.1875
 42
0.1875
 43
0.1875
 50
90.0
  0
ENDBLK
  5
2AD
100
AcDbEntity
  8
0
  6
BYBLOCK
 62
0
100
AcDbBlockEnd
  0
BLOCK
  5
2AE
100
AcDbEntity
  8
QUOTATION
100
AcDbBlockBegin
 62
3
  6
CONTINUOUS
  2
*D13
 70
65
 10
0.0
 20
0.0
  3
*D13
  1

  0
MTEXT
  5
2AF
100
AcDbEntity
  8
QUOTATION
100
AcDbMText
 62
3
  6
CONTINUOUS
  7
TEXTSTYLE_1
 71
2
 72
1
 10
1038.98314501
 20
449.596536276
 30
0.0
 11
1.0
 21
0.0
 31
0.0
 44
0.9
  1
{\Fgdt;n}\Ftxt;11
 40
10.5
 41
30.8
  0
LINE
  5
2B0
100
AcDbEntity
  8
QUOTATION
100
AcDbLine
 62
3
  6
CONTINUOUS
 10
948.9736947932
 20
394.1354188961
 11
997.03314501
 21
444.346536276
  0
LINE
  5
2B1
100
AcDbEntity
  8
QUOTATION
100
AcDbLine
 62
3
  6
CONTINUOUS
 10
997.03314501
 20
444.346536276
 11
1018.33314501
 21
444.346536276
  0
INSERT
  5
2B2
100
AcDbEntity
  8
QUOTATION
100
AcDbBlockReference
 62
3
  6
CONTINUOUS
  2
_CLOSED
 10
948.9736947932
 20
394.1354188961
 41
0.1875
 42
0.1875
 43
0.1875
 50
226.2543099672
  0
ENDBLK
  5
2B3
100
AcDbEntity
  8
0
  6
BYBLOCK
 62
0
100
AcDbBlockEnd
  0
BLOCK
  5
2B4
100
AcDbEntity
  8
QUOTATION
100
AcDbBlockBegin
 62
3
  6
CONTINUOUS
  2
*D14
 70
65
 10
0.0
 20
0.0
  3
*D14
  1

  0
MTEXT
  5
2B5
100
AcDbEntity
  8
QUOTATION
100
AcDbMText
 62
3
  6
CONTINUOUS
  7
TEXTSTYLE_1
 71
2
 72
1
 10
1033.0231920369
 20
368.3528552735
 30
0.0
 11
1.0
 21
0.0
 31
0.0
 44
0.9
  1
{\Fgdt;n}\Ftxt;9
 40
10.5
 41
22.4
  0
LINE
  5
2B6
100
AcDbEntity
  8
QUOTATION
100
AcDbLine
 62
3
  6
CONTINUOUS
 10
974.5933150752
 20
336.083849392
 11
997.6714605074
 21
363.1028552735
  0
LINE
  5
2B7
100
AcDbEntity
  8
QUOTATION
100
AcDbLine
 62
3
  6
CONTINUOUS
 10
997.6714605074
 20
363.1028552735
 11
1016.5731920369
 21
363.1028552735
  0
INSERT
  5
2B8
100
AcDbEntity
  8
QUOTATION
100
AcDbBlockReference
 62
3
  6
CONTINUOUS
  2
_CLOSED
 10
974.5933150752
 20
336.083849392
 41
0.1875
 42
0.1875
 43
0.1875
 50
229.4978734683
  0
ENDBLK
  5
2B9
100
AcDbEntity
  8
0
  6
BYBLOCK
 62
0
100
AcDbBlockEnd
  0
BLOCK
  5
2BA
100
AcDbEntity
  8
QUOTATION
100
AcDbBlockBegin
 62
3
  6
CONTINUOUS
  2
*D15
 70
65
 10
0.0
 20
0.0
  3
*D15
  1

  0
MTEXT
  5
2BB
100
AcDbEntity
  8
QUOTATION
100
AcDbMText
 62
3
  6
CONTINUOUS
  7
STANDARD
 71
2
 72
1
 10
344.3547607982
 20
526.5107726034
 30
0.0
 11
1.0
 21
0.0
 31
0.0
 44
0.9
  1
47
 40
10.5
 41
16.8
  0
LINE
  5
2BC
100
AcDbEntity
  8
QUOTATION
100
AcDbLine
 62
3
  6
CONTINUOUS
 10
369.9547607982
 20
345.2871310183
 11
369.9547607982
 21
521.3857726034
  0
LINE
  5
2BD
100
AcDbEntity
  8
QUOTATION
100
AcDbLine
 62
3
  6
CONTINUOUS
 10
322.9547607982
 20
410.2871310183
 11
322.9547607982
 21
521.3857726034
  0
LINE
  5
2BE
100
AcDbEntity
  8
QUOTATION
100
AcDbLine
 62
3
  6
CONTINUOUS
 10
369.9547607982
 20
521.2607726034
 11
358.0047607982
 21
521.2607726034
  0
LINE
  5
2BF
100
AcDbEntity
  8
QUOTATION
100
AcDbLine
 62
3
  6
CONTINUOUS
 10
322.9547607982
 20
521.2607726034
 11
330.7047607982
 21
521.2607726034
  0
INSERT
  5
2C0
100
AcDbEntity
  8
QUOTATION
100
AcDbBlockReference
 62
3
  6
CONTINUOUS
  2
_CLOSED
 10
369.9547607982
 20
521.2607726034
 41
0.1875
 42
0.1875
 43
0.1875
  0
INSERT
  5
2C1
100
AcDbEntity
  8
QUOTATION
100
AcDbBlockReference
 62
3
  6
CONTINUOUS
  2
_CLOSED
 10
322.9547607982
 20
521.2607726034
 41
0.1875
 42
0.1875
 43
0.1875
 50
180.0
  0
ENDBLK
  5
2C2
100
AcDbEntity
  8
0
  6
BYBLOCK
 62
0
100
AcDbBlockEnd
  0
BLOCK
  5
2C3
100
AcDbEntity
  8
QUOTATION
100
AcDbBlockBegin
 62
3
  6
CONTINUOUS
  2
*D16
 70
65
 10
0.0
 20
0.0
  3
*D16
  1

  0
MTEXT
  5
2C4
100
AcDbEntity
  8
QUOTATION
100
AcDbMText
 62
3
  6
CONTINUOUS
  7
STANDARD
 71
2
 72
1
 10
300.3047607982
 20
449.5951903336
 30
0.0
 11
1.0
 21
0.0
 31
0.0
 44
0.9
  1
7
 40
10.5
 41
8.4
  0
LINE
  5
2C5
100
AcDbEntity
  8
QUOTATION
100
AcDbLine
 62
3
  6
CONTINUOUS
 10
329.9547607982
 20
410.2871310183
 11
329.9547607982
 21
444.4701903336
  0
LINE
  5
2C6
100
AcDbEntity
  8
QUOTATION
100
AcDbLine
 62
3
  6
CONTINUOUS
 10
322.9547607982
 20
410.2871310183
 11
322.9547607982
 21
444.4701903336
  0
LINE
  5
2C7
100
AcDbEntity
  8
QUOTATION
100
AcDbLine
 62
3
  6
CONTINUOUS
 10
329.9547607982
 20
444.3451903336
 11
330.4547607982
 21
444.3451903336
  0
LINE
  5
2C8
100
AcDbEntity
  8
QUOTATION
100
AcDbLine
 62
3
  6
CONTINUOUS
 10
322.9547607982
 20
444.3451903336
 11
309.7547607982
 21
444.3451903336
  0
INSERT
  5
2C9
100
AcDbEntity
  8
QUOTATION
100
AcDbBlockReference
 62
3
  6
CONTINUOUS
  2
_CLOSED
 10
329.9547607982
 20
444.3451903336
 41
0.1875
 42
0.1875
 43
0.1875
 50
180.0
  0
INSERT
  5
2CA
100
AcDbEntity
  8
QUOTATION
100
AcDbBlockReference
 62
3
  6
CONTINUOUS
  2
_CLOSED
 10
322.9547607982
 20
444.3451903336
 41
0.1875
 42
0.1875
 43
0.1875
  0
ENDBLK
  5
2CB
100
AcDbEntity
  8
0
  6
BYBLOCK
 62
0
100
AcDbBlockEnd
  0
BLOCK
  5
2CC
100
AcDbEntity
  8
QUOTATION
100
AcDbBlockBegin
 62
3
  6
CONTINUOUS
  2
*D17
 70
65
 10
0.0
 20
0.0
  3
*D17
  1

  0
MTEXT
  5
2CD
100
AcDbEntity
  8
QUOTATION
100
AcDbMText
 62
3
  6
CONTINUOUS
  7
STANDARD
 71
2
 72
1
 10
296.8047607982
 20
553.1000122982
 30
0.0
 11
1.0
 21
0.0
 31
0.0
 44
0.9
  1
140
 40
10.5
 41
25.2
  0
LINE
  5
2CE
100
AcDbEntity
  8
QUOTATION
100
AcDbLine
 62
3
  6
CONTINUOUS
 10
369.9547607982
 20
345.2871310183
 11
369.9547607982
 21
547.9750122982
  0
LINE
  5
2CF
100
AcDbEntity
  8
QUOTATION
100
AcDbLine
 62
3
  6
CONTINUOUS
 10
229.9547607982
 20
345.2871310183
 11
229.9547607982
 21
547.9750122982
  0
LINE
  5
2D0
100
AcDbEntity
  8
QUOTATION
100
AcDbLine
 62
3
  6
CONTINUOUS
 10
369.9547607982
 20
547.8500122982
 11
314.6547607982
 21
547.8500122982
  0
LINE
  5
2D1
100
AcDbEntity
  8
QUOTATION
100
AcDbLine
 62
3
  6
CONTINUOUS
 10
229.9547607982
 20
547.8500122982
 11
278.9547607982
 21
547.8500122982
  0
INSERT
  5
2D2
100
AcDbEntity
  8
QUOTATION
100
AcDbBlockReference
 62
3
  6
CONTINUOUS
  2
_CLOSED
 10
369.9547607982
 20
547.8500122982
 41
0.1875
 42
0.1875
 43
0.1875
  0
INSERT
  5
2D3
100
AcDbEntity
  8
QUOTATION
100
AcDbBlockReference
 62
3
  6
CONTINUOUS
  2
_CLOSED
 10
229.9547607982
 20
547.8500122982
 41
0.1875
 42
0.1875
 43
0.1875
 50
180.0
  0
ENDBLK
  5
2D4
100
AcDbEntity
  8
0
  6
BYBLOCK
 62
0
100
AcDbBlockEnd
  0
BLOCK
  5
2D5
100
AcDbEntity
  8
QUOTATION
100
AcDbBlockBegin
 62
3
  6
CONTINUOUS
  2
*D18
 70
65
 10
0.0
 20
0.0
  3
*D18
  1

  0
MTEXT
  5
2D6
100
AcDbEntity
  8
QUOTATION
100
AcDbMText
 62
3
  6
CONTINUOUS
  7
STANDARD
 71
2
 72
1
 10
260.8047607982
 20
576.3556357518
 30
0.0
 11
1.0
 21
0.0
 31
0.0
 44
0.9
  1
212
 40
10.5
 41
25.2
  0
LINE
  5
2D7
100
AcDbEntity
  8
QUOTATION
100
AcDbLine
 62
3
  6
CONTINUOUS
 10
369.9547607982
 20
345.2871310183
 11
369.9547607982
 21
571.2306357518
  0
LINE
  5
2D8
100
AcDbEntity
  8
QUOTATION
100
AcDbLine
 62
3
  6
CONTINUOUS
 10
157.9547607982
 20
313.2871310184
 11
157.9547607982
 21
571.2306357518
  0
LINE
  5
2D9
100
AcDbEntity
  8
QUOTATION
100
AcDbLine
 62
3
  6
CONTINUOUS
 10
369.9547607982
 20
571.1056357518
 11
278.6547607982
 21
571.1056357518
  0
LINE
  5
2DA
100
AcDbEntity
  8
QUOTATION
100
AcDbLine
 62
3
  6
CONTINUOUS
 10
157.9547607982
 20
571.1056357518
 11
242.9547607982
 21
571.1056357518
  0
INSERT
  5
2DB
100
AcDbEntity
  8
QUOTATION
100
AcDbBlockReference
 62
3
  6
CONTINUOUS
  2
_CLOSED
 10
369.9547607982
 20
571.1056357518
 41
0.1875
 42
0.1875
 43
0.1875
  0
INSERT
  5
2DC
100
AcDbEntity
  8
QUOTATION
100
AcDbBlockReference
 62
3
  6
CONTINUOUS
  2
_CLOSED
 10
157.9547607982
 20
571.1056357518
 41
0.1875
 42
0.1875
 43
0.1875
 50
180.0
  0
ENDBLK
  5
2DD
100
AcDbEntity
  8
0
  6
BYBLOCK
 62
0
100
AcDbBlockEnd
  0
BLOCK
  5
2DE
100
AcDbEntity
  8
QUOTATION
100
AcDbBlockBegin
 62
3
  6
CONTINUOUS
  2
*D19
 70
65
 10
0.0
 20
0.0
  3
*D19
  1

  0
MTEXT
  5
2DF
100
AcDbEntity
  8
QUOTATION
100
AcDbMText
 62
3
  6
CONTINUOUS
  7
STANDARD
 71
2
 72
1
 10
107.8547607982
 20
576.3556357518
 30
0.0
 11
1.0
 21
0.0
 31
0.0
 44
0.9
  1
96
 40
10.5
 41
16.8
  0
LINE
  5
2E0
100
AcDbEntity
  8
QUOTATION
100
AcDbLine
 62
3
  6
CONTINUOUS
 10
157.9547607982
 20
313.2871310184
 11
157.9547607982
 21
571.2306357518
  0
LINE
  5
2E1
100
AcDbEntity
  8
QUOTATION
100
AcDbLine
 62
3
  6
CONTINUOUS
 10
61.9547607982
 20
273.2871310184
 11
61.9547607982
 21
571.2306357518
  0
LINE
  5
2E2
100
AcDbEntity
  8
QUOTATION
100
AcDbLine
 62
3
  6
CONTINUOUS
 10
157.9547607982
 20
571.1056357518
 11
121.5047607982
 21
571.1056357518
  0
LINE
  5
2E3
100
AcDbEntity
  8
QUOTATION
100
AcDbLine
 62
3
  6
CONTINUOUS
 10
61.9547607982
 20
571.1056357518
 11
94.2047607982
 21
571.1056357518
  0
INSERT
  5
2E4
100
AcDbEntity
  8
QUOTATION
100
AcDbBlockReference
 62
3
  6
CONTINUOUS
  2
_CLOSED
 10
157.9547607982
 20
571.1056357518
 41
0.1875
 42
0.1875
 43
0.1875
  0
INSERT
  5
2E5
100
AcDbEntity
  8
QUOTATION
100
AcDbBlockReference
 62
3
  6
CONTINUOUS
  2
_CLOSED
 10
61.9547607982
 20
571.1056357518
 41
0.1875
 42
0.1875
 43
0.1875
 50
180.0
  0
ENDBLK
  5
2E6
100
AcDbEntity
  8
0
  6
BYBLOCK
 62
0
100
AcDbBlockEnd
  0
BLOCK
  5
2E7
100
AcDbEntity
  8
QUOTATION
100
AcDbBlockBegin
 62
3
  6
CONTINUOUS
  2
*D20
 70
65
 10
0.0
 20
0.0
  3
*D20
  1

  0
MTEXT
  5
2E8
100
AcDbEntity
  8
QUOTATION
100
AcDbMText
 62
3
  6
CONTINUOUS
  7
STANDARD
 71
2
 72
1
 10
1301.0565105479
 20
342.4849727874
 30
0.0
 11
1.0
 21
0.0
 31
0.0
 44
0.9
  1
4x \Fgdt;{\Fgdt;n}\Ftxt;4.5
 40
10.5
 41
64.4
  0
LINE
  5
2E9
100
AcDbEntity
  8
QUOTATION
100
AcDbLine
 62
3
  6
CONTINUOUS
 10
1193.646430562
 20
300.1453339286
 11
1213.5215863074
 21
337.2349727874
  0
LINE
  5
2EA
100
AcDbEntity
  8
QUOTATION
100
AcDbLine
 62
3
  6
CONTINUOUS
 10
1213.5215863074
 20
337.2349727874
 11
1263.6065105479
 21
337.2349727874
  0
INSERT
  5
2EB
100
AcDbEntity
  8
QUOTATION
100
AcDbBlockReference
 62
3
  6
CONTINUOUS
  2
_CLOSED
 10
1193.646430562
 20
300.1453339286
 41
0.1875
 42
0.1875
 43
0.1875
 50
241.814560908
  0
ENDBLK
  5
2EC
100
AcDbEntity
  8
0
  6
BYBLOCK
 62
0
100
AcDbBlockEnd
  0
BLOCK
  5
2ED
100
AcDbEntity
  8
QUOTATION
100
AcDbBlockBegin
 62
3
  6
CONTINUOUS
  2
*D21
 70
65
 10
0.0
 20
0.0
  3
*D21
  1

  0
MTEXT
  5
2EE
100
AcDbEntity
  8
QUOTATION
100
AcDbMText
 62
3
  6
CONTINUOUS
  7
TEXTSTYLE_1
 71
2
 72
1
 10
1256.1430625232
 20
301.8564179754
 30
0.0
 11
1.0
 21
0.0
 31
0.0
 44
0.9
  1
{\Fgdt;n}\Ftxt;31
 40
10.5
 41
30.8
  0
LINE
  5
2EF
100
AcDbEntity
  8
QUOTATION
100
AcDbLine
 62
3
  6
CONTINUOUS
 10
1202.4982917624
 20
285.0764407834
 11
1212.0930625232
 21
296.6064179754
  0
LINE
  5
2F0
100
AcDbEntity
  8
QUOTATION
100
AcDbLine
 62
3
  6
CONTINUOUS
 10
1212.0930625232
 20
296.6064179754
 11
1235.4930625232
 21
296.6064179754
  0
INSERT
  5
2F1
100
AcDbEntity
  8
QUOTATION
100
AcDbBlockReference
 62
3
  6
CONTINUOUS
  2
_CLOSED
 10
1202.4982917624
 20
285.0764407834
 41
0.1875
 42
0.1875
 43
0.1875
 50
230.2341710034
  0
ENDBLK
  5
2F2
100
AcDbEntity
  8
0
  6
BYBLOCK
 62
0
100
AcDbBlockEnd
  0
BLOCK
  5
2F3
100
AcDbEntity
  8
QUOTATION
100
AcDbBlockBegin
 62
3
  6
CONTINUOUS
  2
*D22
 70
65
 10
0.0
 20
0.0
  3
*D22
  1

  0
MTEXT
  5
2F4
100
AcDbEntity
  8
QUOTATION
100
AcDbMText
 62
3
  6
CONTINUOUS
  7
STANDARD
 71
2
 72
1
 10
1190.4836953095
 20
222.5338445234
 30
0.0
 11
1.0
 21
0.0
 31
0.0
 44
0.9
  1
50
 40
10.5
 41
16.8
  0
LINE
  5
2F5
100
AcDbEntity
  8
QUOTATION
100
AcDbLine
 62
3
  6
CONTINUOUS
 10
1167.5836953095
 20
273.0371310184
 11
1167.5836953095
 21
217.1588445234
  0
LINE
  5
2F6
100
AcDbEntity
  8
QUOTATION
100
AcDbLine
 62
3
  6
CONTINUOUS
 10
1217.5836953095
 20
273.0371310184
 11
1217.5836953095
 21
217.1588445234
  0
LINE
  5
2F7
100
AcDbEntity
  8
QUOTATION
100
AcDbLine
 62
3
  6
CONTINUOUS
 10
1167.5836953095
 20
217.2838445234
 11
1176.8336953095
 21
217.2838445234
  0
LINE
  5
2F8
100
AcDbEntity
  8
QUOTATION
100
AcDbLine
 62
3
  6
CONTINUOUS
 10
1217.5836953095
 20
217.2838445234
 11
1204.1336953095
 21
217.2838445234
  0
INSERT
  5
2F9
100
AcDbEntity
  8
QUOTATION
100
AcDbBlockReference
 62
3
  6
CONTINUOUS
  2
_CLOSED
 10
1167.5836953095
 20
217.2838445234
 41
0.1875
 42
0.1875
 43
0.1875
 50
180.0
  0
INSERT
  5
2FA
100
AcDbEntity
  8
QUOTATION
100
AcDbBlockReference
 62
3
  6
CONTINUOUS
  2
_CLOSED
 10
1217.5836953095
 20
217.2838445234
 41
0.1875
 42
0.1875
 43
0.1875
  0
ENDBLK
  5
2FB
100
AcDbEntity
  8
0
  6
BYBLOCK
 62
0
100
AcDbBlockEnd
  0
BLOCK
  5
2FC
100
AcDbEntity
  8
QUOTATION
100
AcDbBlockBegin
 62
3
  6
CONTINUOUS
  2
*D23
 70
65
 10
0.0
 20
0.0
  3
*D23
  1

  0
MTEXT
  5
2FD
100
AcDbEntity
  8
QUOTATION
100
AcDbMText
 62
3
  6
CONTINUOUS
  7
STANDARD
 71
2
 72
1
 10
1153.8808483267
 20
283.6621310184
 30
0.0
 11
1.0
 21
0.0
 31
0.0
 44
0.9
  1
50
 40
10.5
 41
16.8
  0
LINE
  5
2FE
100
AcDbEntity
  8
QUOTATION
100
AcDbLine
 62
3
  6
CONTINUOUS
 10
1192.4586953095
 20
248.1621310184
 11
1153.7558483267
 21
248.1621310184
  0
LINE
  5
2FF
100
AcDbEntity
  8
QUOTATION
100
AcDbLine
 62
3
  6
CONTINUOUS
 10
1192.4586953095
 20
298.1621310184
 11
1153.7558483267
 21
298.1621310184
  0
LINE
  5
300
100
AcDbEntity
  8
QUOTATION
100
AcDbLine
 62
3
  6
CONTINUOUS
 10
1153.8808483267
 20
248.1621310184
 11
1153.8808483267
 21
267.9121310184
  0
LINE
  5
301
100
AcDbEntity
  8
QUOTATION
100
AcDbLine
 62
3
  6
CONTINUOUS
 10
1153.8808483267
 20
298.1621310184
 11
1153.8808483267
 21
288.9121310184
  0
INSERT
  5
302
100
AcDbEntity
  8
QUOTATION
100
AcDbBlockReference
 62
3
  6
CONTINUOUS
  2
_CLOSED
 10
1153.8808483267
 20
248.1621310184
 41
0.1875
 42
0.1875
 43
0.1875
 50
270.0
  0
INSERT
  5
303
100
AcDbEntity
  8
QUOTATION
100
AcDbBlockReference
 62
3
  6
CONTINUOUS
  2
_CLOSED
 10
1153.8808483267
 20
298.1621310184
 41
0.1875
 42
0.1875
 43
0.1875
 50
90.0
  0
ENDBLK
  5
304
100
AcDbEntity
  8
0
  6
BYBLOCK
 62
0
100
AcDbBlockEnd
  0
BLOCK
  5
305
100
AcDbEntity
  8
QUOTATION
100
AcDbBlockBegin
 62
3
  6
CONTINUOUS
  2
*D24
 70
65
 10
0.0
 20
0.0
  3
*D24
  1

  0
MTEXT
  5
306
100
AcDbEntity
  8
QUOTATION
100
AcDbMText
 62
3
  6
CONTINUOUS
  7
STANDARD
 71
2
 72
1
 10
795.0206718587
 20
678.7755029307
 30
0.0
 11
1.0
 21
0.0
 31
0.0
 44
0.9
  1
372
 40
10.5
 41
25.2
  0
LINE
  5
307
100
AcDbEntity
  8
QUOTATION
100
AcDbLine
 62
3
  6
CONTINUOUS
 10
612.1706718587
 20
693.8673195264
 11
612.1706718587
 21
673.4005029307
  0
LINE
  5
308
100
AcDbEntity
  8
QUOTATION
100
AcDbLine
 62
3
  6
CONTINUOUS
 10
984.1706718587
 20
693.8673195264
 11
984.1706718587
 21
673.4005029307
  0
LINE
  5
309
100
AcDbEntity
  8
QUOTATION
100
AcDbLine
 62
3
  6
CONTINUOUS
 10
612.1706718587
 20
673.5255029307
 11
777.1706718587
 21
673.5255029307
  0
LINE
  5
30A
100
AcDbEntity
  8
QUOTATION
100
AcDbLine
 62
3
  6
CONTINUOUS
 10
984.1706718587
 20
673.5255029307
 11
812.8706718587
 21
673.5255029307
  0
INSERT
  5
30B
100
AcDbEntity
  8
QUOTATION
100
AcDbBlockReference
 62
3
  6
CONTINUOUS
  2
_CLOSED
 10
612.1706718587
 20
673.5255029307
 41
0.1875
 42
0.1875
 43
0.1875
 50
180.0
  0
INSERT
  5
30C
100
AcDbEntity
  8
QUOTATION
100
AcDbBlockReference
 62
3
  6
CONTINUOUS
  2
_CLOSED
 10
984.1706718587
 20
673.5255029307
 41
0.1875
 42
0.1875
 43
0.1875
  0
ENDBLK
  5
30D
100
AcDbEntity
  8
0
  6
BYBLOCK
 62
0
100
AcDbBlockEnd
  0
BLOCK
  5
30E
100
AcDbEntity
  8
QUOTATION
100
AcDbBlockBegin
 62
3
  6
CONTINUOUS
  2
*D25
 70
65
 10
0.0
 20
0.0
  3
*D25
  1

  0
MTEXT
  5
30F
100
AcDbEntity
  8
QUOTATION
100
AcDbMText
 62
3
  6
CONTINUOUS
  7
STANDARD
 71
2
 72
1
 10
795.0206718587
 20
565.0982078817
 30
0.0
 11
1.0
 21
0.0
 31
0.0
 44
0.9
  1
372
 40
10.5
 41
25.2
  0
LINE
  5
310
100
AcDbEntity
  8
QUOTATION
100
AcDbLine
 62
3
  6
CONTINUOUS
 10
612.1706718587
 20
470.7871310183
 11
612.1706718587
 21
559.9732078817
  0
LINE
  5
311
100
AcDbEntity
  8
QUOTATION
100
AcDbLine
 62
3
  6
CONTINUOUS
 10
984.1706718587
 20
470.7871310183
 11
984.1706718587
 21
559.9732078817
  0
LINE
  5
312
100
AcDbEntity
  8
QUOTATION
100
AcDbLine
 62
3
  6
CONTINUOUS
 10
612.1706718587
 20
559.8482078817
 11
777.1706718587
 21
559.8482078817
  0
LINE
  5
313
100
AcDbEntity
  8
QUOTATION
100
AcDbLine
 62
3
  6
CONTINUOUS
 10
984.1706718587
 20
559.8482078817
 11
812.8706718587
 21
559.8482078817
  0
INSERT
  5
314
100
AcDbEntity
  8
QUOTATION
100
AcDbBlockReference
 62
3
  6
CONTINUOUS
  2
_CLOSED
 10
612.1706718587
 20
559.8482078817
 41
0.1875
 42
0.1875
 43
0.1875
 50
180.0
  0
INSERT
  5
315
100
AcDbEntity
  8
QUOTATION
100
AcDbBlockReference
 62
3
  6
CONTINUOUS
  2
_CLOSED
 10
984.1706718587
 20
559.8482078817
 41
0.1875
 42
0.1875
 43
0.1875
  0
ENDBLK
  5
316
100
AcDbEntity
  8
0
  6
BYBLOCK
 62
0
100
AcDbBlockEnd
  0
ENDSEC
  0
SECTION
  2
ENTITIES
  0
DIMENSION
  5
317
100
AcDbEntity
  8
QUOTATION
100
AcDbDimension
 62
3
  6
CONTINUOUS
  2
*D0
 10
579.6247832339
 20
332.6621310183
 11
567.0247832339
 21
272.4899005928
 70
160
 71
2
  1
175
  3
DIMSTYLE_1
100
AcDbAlignedDimension
 13
624.5456718587
 23
157.6621310183
 14
624.5456718587
 24
332.6621310183
 50
90.0
100
AcDbRotatedDimension
  0
DIMENSION
  5
318
100
AcDbEntity
  8
QUOTATION
100
AcDbDimension
 62
3
  6
CONTINUOUS
  2
*D1
 10
552.1706708487
 20
345.1621310183
 11
539.5706708487
 21
250.4121310183
 70
160
 71
2
  1
200
  3
DIMSTYLE_1
100
AcDbAlignedDimension
 13
612.0456718587
 23
145.1621310183
 14
612.0456718587
 24
345.1621310183
 50
90.0
100
AcDbRotatedDimension
  0
DIMENSION
  5
319
100
AcDbEntity
  8
QUOTATION
100
AcDbDimension
 62
3
  6
CONTINUOUS
  2
*D2
 10
552.1706708487
 20
410.1621310183
 11
543.7706708487
 21
382.9126739871
 70
160
 71
2
  1
65
  3
DIMSTYLE_1
100
AcDbAlignedDimension
 13
653.5456718587
 23
345.1632169558
 14
658.5456718587
 24
410.1621310183
 50
90.0
100
AcDbRotatedDimension
  0
DIMENSION
  5
31A
100
AcDbEntity
  8
QUOTATION
100
AcDbDimension
 62
3
  6
CONTINUOUS
  2
*D3
 10
552.1706708487
 20
475.6621310183
 11
535.3706708487
 21
448.1621310183
 70
160
 71
2
  1
65.5
  3
DIMSTYLE_1
100
AcDbAlignedDimension
 13
658.5456718587
 23
410.1621310183
 14
617.0456718587
 24
475.6621310183
 50
90.0
100
AcDbRotatedDimension
  0
DIMENSION
  5
31B
100
AcDbEntity
  8
QUOTATION
100
AcDbDimension
 62
3
  6
CONTINUOUS
  2
*D4
 10
971.6706718587
 20
533.3868596727
 11
780.4941763114
 21
533.3868596727
 70
160
 71
2
  1
347
  3
DIMSTYLE_1
100
AcDbAlignedDimension
 13
624.6706718587
 23
332.7871310183
 14
971.6706718587
 24
332.7871310183
100
AcDbRotatedDimension
  0
DIMENSION
  5
31C
100
AcDbEntity
  8
QUOTATION
100
AcDbDimension
 62
3
  6
CONTINUOUS
  2
*D5
 10
685.1706718587
 20
43.3621300183
 11
633.9206718587
 21
43.3621300183
 70
160
 71
2
  1
60.5
  3
DIMSTYLE_1
100
AcDbAlignedDimension
 13
624.6706718587
 23
157.5371310183
 14
685.1706718587
 24
80.0371310183
100
AcDbRotatedDimension
  0
DIMENSION
  5
31D
100
AcDbEntity
  8
QUOTATION
100
AcDbDimension
 62
3
  6
CONTINUOUS
  2
*D6
 10
805.1706718587
 20
44.1621310183
 11
729.4206718587
 21
44.1621310183
 70
160
 71
2
  1
120
  3
DIMSTYLE_1
100
AcDbAlignedDimension
 13
685.1706718587
 23
80.0371310183
 14
805.1706718587
 24
80.0371310183
100
AcDbRotatedDimension
  0
DIMENSION
  5
31E
100
AcDbEntity
  8
QUOTATION
100
AcDbDimension
 62
3
  6
CONTINUOUS
  2
*D7
 10
956.6706718587
 20
38.5759853242
 11
914.6706718587
 21
38.5759853242
 70
160
 71
2
  1
63
  3
DIMSTYLE_1
100
AcDbAlignedDimension
 13
893.6706718587
 23
85.0371310183
 14
956.6706718587
 24
85.0371310183
100
AcDbRotatedDimension
  0
DIMENSION
  5
31F
100
AcDbEntity
  8
QUOTATION
100
AcDbDimension
 62
3
  6
CONTINUOUS
  2
*D8
 10
945.1706718587
 20
59.7923617852
 11
914.6706718587
 21
59.7923617852
 70
160
 71
2
  1
40
  3
DIMSTYLE_1
100
AcDbAlignedDimension
 13
905.1706718587
 23
100.0371310183
 14
945.1706718587
 24
100.0371310183
100
AcDbRotatedDimension
  0
DIMENSION
  5
320
100
AcDbEntity
  8
QUOTATION
100
AcDbDimension
 62
3
  6
CONTINUOUS
  2
*D9
 10
798.1706718585
 20
513.1400996894
 11
685.1706718586
 21
513.1400996894
 70
160
 71
2
  1
173.5
  3
DIMSTYLE_1
100
AcDbAlignedDimension
 13
624.6706718587
 23
332.7871310183
 14
798.1706718585
 24
273.2871310184
100
AcDbRotatedDimension
  0
DIMENSION
  5
321
100
AcDbEntity
  8
QUOTATION
100
AcDbDimension
 62
3
  6
CONTINUOUS
  2
*D10
 10
1041.0713512703
 20
273.1621310184
 11
1024.2713512703
 21
308.1621310183
 70
160
 71
2
  1
59.5
  3
DIMSTYLE_1
100
AcDbAlignedDimension
 13
971.7956718587
 23
332.6621310183
 14
988.2956718584
 24
273.1621310184
 50
270.0
100
AcDbRotatedDimension
  0
DIMENSION
  5
322
100
AcDbEntity
  8
QUOTATION
100
AcDbDimension
 62
3
  6
CONTINUOUS
  2
*D11
 10
1011.9440704861
 20
100.1621310183
 11
1003.5440704861
 21
86.6393328166
 70
160
 71
2
  1
20
  3
DIMSTYLE_1
100
AcDbAlignedDimension
 13
945.2956718587
 23
120.1621310183
 14
945.2956718587
 24
100.1621310183
 50
270.0
100
AcDbRotatedDimension
  0
DIMENSION
  5
323
100
AcDbEntity
  8
QUOTATION
100
AcDbDimension
 62
3
  6
CONTINUOUS
  2
*D12
 10
985.7660925999
 20
80.1621310183
 11
977.3660925999
 21
70.4996802309
 70
160
 71
2
  1
20
  3
DIMSTYLE_1
100
AcDbAlignedDimension
 13
945.2956718587
 23
100.1621310183
 14
951.7956718587
 24
80.1621310183
 50
270.0
100
AcDbRotatedDimension
  0
DIMENSION
  5
324
100
AcDbEntity
  8
QUOTATION
100
AcDbDimension
 62
3
  6
CONTINUOUS
  2
*D13
 10
948.9736947932
 20
394.1354188961
 11
1031.28314501
 21
444.346536276
 70
163
 71
2
  1
%%c11
  3
DIMSTYLE_2
100
AcDbDiametricDimension
 15
941.3676489243
 25
386.1888431405
  0
DIMENSION
  5
325
100
AcDbEntity
  8
QUOTATION
100
AcDbDimension
 62
3
  6
CONTINUOUS
  2
*D14
 10
974.5933150752
 20
336.083849392
 11
1027.4231920369
 21
363.1028552735
 70
163
 71
2
  1
%%c9
  3
DIMSTYLE_2
100
AcDbDiametricDimension
 15
968.7480286422
 25
329.2404126446
  0
DIMENSION
  5
326
100
AcDbEntity
  8
QUOTATION
100
AcDbDimension
 62
3
  6
CONTINUOUS
  2
*D15
 10
322.9547607982
 20
521.2607726034
 11
335.9547607982
 21
521.2607726034
 70
160
 71
2
  1
47
  3
DIMSTYLE_1
100
AcDbAlignedDimension
 13
369.9547607982
 23
345.2871310183
 14
322.9547607982
 24
410.2871310183
 50
180.0
100
AcDbRotatedDimension
  0
DIMENSION
  5
327
100
AcDbEntity
  8
QUOTATION
100
AcDbDimension
 62
3
  6
CONTINUOUS
  2
*D16
 10
322.9547607982
 20
444.3451903336
 11
296.1047607982
 21
444.3451903336
 70
160
 71
2
  1
7
  3
DIMSTYLE_1
100
AcDbAlignedDimension
 13
329.9547607982
 23
410.2871310183
 14
322.9547607982
 24
410.2871310183
 50
180.0
100
AcDbRotatedDimension
  0
DIMENSION
  5
328
100
AcDbEntity
  8
QUOTATION
100
AcDbDimension
 62
3
  6
CONTINUOUS
  2
*D17
 10
229.9547607982
 20
547.8500122982
 11
284.2047607982
 21
547.8500122982
 70
160
 71
2
  1
140
  3
DIMSTYLE_1
100
AcDbAlignedDimension
 13
369.9547607982
 23
345.2871310183
 14
229.9547607982
 24
345.2871310183
 50
180.0
100
AcDbRotatedDimension
  0
DIMENSION
  5
329
100
AcDbEntity
  8
QUOTATION
100
AcDbDimension
 62
3
  6
CONTINUOUS
  2
*D18
 10
157.9547607982
 20
571.1056357518
 11
248.2047607982
 21
571.1056357518
 70
160
 71
2
  1
212
  3
DIMSTYLE_1
100
AcDbAlignedDimension
 13
369.9547607982
 23
345.2871310183
 14
157.9547607982
 24
313.2871310184
 50
180.0
100
AcDbRotatedDimension
  0
DIMENSION
  5
32A
100
AcDbEntity
  8
QUOTATION
100
AcDbDimension
 62
3
  6
CONTINUOUS
  2
*D19
 10
61.9547607982
 20
571.1056357518
 11
99.4547607982
 21
571.1056357518
 70
160
 71
2
  1
96
  3
DIMSTYLE_1
100
AcDbAlignedDimension
 13
157.9547607982
 23
313.2871310184
 14
61.9547607982
 24
273.2871310184
 50
180.0
100
AcDbRotatedDimension
  0
DIMENSION
  5
32B
100
AcDbEntity
  8
QUOTATION
100
AcDbDimension
 62
3
  6
CONTINUOUS
  2
*D20
 10
1193.646430562
 20
300.1453339286
 11
1288.4565105479
 21
337.2349727874
 70
163
 71
2
  1
4x %%c4.5
  3
DIMSTYLE_2
100
AcDbDiametricDimension
 15
1191.5209600571
 25
296.1789281081
  0
DIMENSION
  5
32C
100
AcDbEntity
  8
QUOTATION
100
AcDbDimension
 62
3
  6
CONTINUOUS
  2
*D21
 10
1202.4982917624
 20
285.0764407834
 11
1248.4430625232
 21
296.6064179754
 70
163
 71
2
  1
%%c31
  3
DIMSTYLE_2
100
AcDbDiametricDimension
 15
1182.6690988567
 25
261.2478212533
  0
DIMENSION
  5
32D
100
AcDbEntity
  8
QUOTATION
100
AcDbDimension
 62
3
  6
CONTINUOUS
  2
*D22
 10
1217.5836953095
 20
217.2838445234
 11
1182.0836953095
 21
217.2838445234
 70
160
 71
2
  1
50
  3
DIMSTYLE_1
100
AcDbAlignedDimension
 13
1167.5836953095
 23
273.0371310184
 14
1217.5836953095
 24
273.0371310184
100
AcDbRotatedDimension
  0
DIMENSION
  5
32E
100
AcDbEntity
  8
QUOTATION
100
AcDbDimension
 62
3
  6
CONTINUOUS
  2
*D23
 10
1153.8808483267
 20
298.1621310184
 11
1145.4808483267
 21
278.4121310184
 70
160
 71
2
  1
50
  3
DIMSTYLE_1
100
AcDbAlignedDimension
 13
1192.4586953095
 23
248.1621310184
 14
1192.4586953095
 24
298.1621310184
 50
90.0
100
AcDbRotatedDimension
  0
DIMENSION
  5
32F
100
AcDbEntity
  8
QUOTATION
100
AcDbDimension
 62
3
  6
CONTINUOUS
  2
*D24
 10
984.1706718587
 20
673.5255029307
 11
782.4206718587
 21
673.5255029307
 70
160
 71
2
  1
372
  3
DIMSTYLE_1
100
AcDbAlignedDimension
 13
612.1706718587
 23
693.8673195264
 14
984.1706718587
 24
693.8673195264
100
AcDbRotatedDimension
  0
DIMENSION
  5
330
100
AcDbEntity
  8
QUOTATION
100
AcDbDimension
 62
3
  6
CONTINUOUS
  2
*D25
 10
984.1706718587
 20
559.8482078817
 11
782.4206718587
 21
559.8482078817
 70
160
 71
2
  1
372
  3
DIMSTYLE_1
100
AcDbAlignedDimension
 13
612.1706718587
 23
470.7871310183
 14
984.1706718587
 24
470.7871310183
100
AcDbRotatedDimension
  0
MTEXT
  5
331
100
AcDbEntity
  8
TEXT
100
AcDbMText
 62
2
  6
CONTINUOUS
  7
TEXTSTYLE_2
 71
1
 72
1
 10
1142.1405429977
 20
383.90051827
 30
0.0
 11
1.0
 21
0.0
 31
0.0
 44
0.9
  1
DOOR DRILLING
 40
10.0
 41
114.1666666667
  0
MTEXT
  5
332
100
AcDbEntity
  8
TEXT
100
AcDbMText
 62
2
  6
CONTINUOUS
  7
TEXTSTYLE_3
 71
1
 72
1
 10
762.2190411758
 20
278.4355012542
 30
0.0
 11
0.1736481777
 21
0.984807753
 31
0.0
 44
0.6
  1
OFF
 40
4.0
 41
12.0
  0
MTEXT
  5
333
100
AcDbEntity
  8
TEXT
100
AcDbMText
 62
2
  6
CONTINUOUS
  7
TEXTSTYLE_3
 71
1
 72
1
 10
803.6434780707
 20
304.7302851281
 30
0.0
 11
0.0
 21
1.0
 31
0.0
 44
0.6
  1
ON
 40
4.0
 41
8.0
  0
MTEXT
  5
334
100
AcDbEntity
  8
0
100
AcDbMText
 62
3
  6
CONTINUOUS
  7
STANDARD
 71
2
 72
1
 10
105.9444081136
 20
799.6345723936
 30
0.0
 11
1.0
 21
0.0
 31
0.0
  1
1
 40
10.0
 41
8.0
  0
MTEXT
  5
335
100
AcDbEntity
  8
0
100
AcDbMText
 62
3
  6
CONTINUOUS
  7
STANDARD
 71
1
 72
1
 10
124.1444081136
 20
799.5095723936
 30
0.0
 11
1.0
 21
0.0
 31
0.0
 44
1.0000002
  1
ECRAN DE PROTECTION DES PLAGES
 40
9.75
 41
234.0
  0
MTEXT
  5
336
100
AcDbEntity
  8
0
100
AcDbMText
 62
3
  6
CONTINUOUS
  7
STANDARD
 71
2
 72
1
 10
394.5444081136
 20
799.6345723936
 30
0.0
 11
1.0
 21
0.0
 31
0.0
  1
27983120
 40
10.0
 41
64.0
  0
MTEXT
  5
337
100
AcDbEntity
  8
0
100
AcDbMText
 62
3
  6
CONTINUOUS
  7
STANDARD
 71
2
 72
1
 10
461.3256265471
 20
799.6345723936
 30
0.0
 11
1.0
 21
0.0
 31
0.0
  1
/
 40
10.0
 41
8.0
  0
MTEXT
  5
338
100
AcDbEntity
  8
0
100
AcDbMText
 62
3
  6
CONTINUOUS
  7
STANDARD
 71
2
 72
1
 10
507.2068449807
 20
799.6345723936
 30
0.0
 11
1.0
 21
0.0
 31
0.0
  1
1
 40
10.0
 41
8.0
  0
MTEXT
  5
339
100
AcDbEntity
  8
0
100
AcDbMText
 62
3
  6
CONTINUOUS
  7
STANDARD
 71
2
 72
1
 10
105.9444081136
 20
779.9345723936
 30
0.0
 11
1.0
 21
0.0
 31
0.0
  1
2
 40
10.0
 41
8.0
  0
MTEXT
  5
33A
100
AcDbEntity
  8
0
100
AcDbMText
 62
3
  6
CONTINUOUS
  7
STANDARD
 71
1
 72
1
 10
124.1444081136
 20
779.9345723936
 30
0.0
 11
1.0
 21
0.0
 31
0.0
 44
1.0000002
  1
SIRCO 3x1250A F APPAREIL NU 
 40
10.0
 41
224.0
  0
MTEXT
  5
33B
100
AcDbEntity
  8
0
100
AcDbMText
 62
3
  6
CONTINUOUS
  7
STANDARD
 71
2
 72
1
 10
394.5444081136
 20
779.9345723936
 30
0.0
 11
1.0
 21
0.0
 31
0.0
  1
27983120
 40
10.0
 41
64.0
  0
MTEXT
  5
33C
100
AcDbEntity
  8
0
100
AcDbMText
 62
3
  6
CONTINUOUS
  7
STANDARD
 71
2
 72
1
 10
461.3256265471
 20
779.9345723936
 30
0.0
 11
1.0
 21
0.0
 31
0.0
  1
/
 40
10.0
 41
8.0
  0
MTEXT
  5
33D
100
AcDbEntity
  8
0
100
AcDbMText
 62
3
  6
CONTINUOUS
  7
STANDARD
 71
2
 72
1
 10
507.2068449807
 20
779.9345723936
 30
0.0
 11
1.0
 21
0.0
 31
0.0
  1
1
 40
10.0
 41
8.0
  0
MTEXT
  5
33E
100
AcDbEntity
  8
0
100
AcDbMText
 62
3
  6
CONTINUOUS
  7
STANDARD
 71
2
 72
1
 10
105.9444081136
 20
760.2345723936
 30
0.0
 11
1.0
 21
0.0
 31
0.0
  1
3
 40
10.0
 41
8.0
  0
MTEXT
  5
33F
100
AcDbEntity
  8
0
100
AcDbMText
 62
3
  6
CONTINUOUS
  7
STANDARD
 71
1
 72
1
 10
124.1444081136
 20
760.2345723936
 30
0.0
 11
1.0
 21
0.0
 31
0.0
  1
POIGNEE CDE TYPE H 
 40
10.0
 41
152.0
  0
MTEXT
  5
340
100
AcDbEntity
  8
0
100
AcDbMText
 62
3
  6
CONTINUOUS
  7
STANDARD
 71
2
 72
1
 10
461.3256265471
 20
760.2345723936
 30
0.0
 11
1.0
 21
0.0
 31
0.0
  1
/
 40
10.0
 41
8.0
  0
MTEXT
  5
341
100
AcDbEntity
  8
0
100
AcDbMText
 62
3
  6
CONTINUOUS
  7
STANDARD
 71
2
 72
1
 10
507.2068449807
 20
760.2345723936
 30
0.0
 11
1.0
 21
0.0
 31
0.0
  1
1
 40
10.0
 41
8.0
  0
MTEXT
  5
342
100
AcDbEntity
  8
0
100
AcDbMText
 62
3
  6
CONTINUOUS
  7
STANDARD
 71
2
 72
1
 10
105.9444081136
 20
819.3345723936
 30
0.0
 11
1.0
 21
0.0
 31
0.0
  1
Rep.
 40
10.0
 41
32.0
  0
MTEXT
  5
343
100
AcDbEntity
  8
0
100
AcDbMText
 62
3
  6
CONTINUOUS
  7
STANDARD
 71
2
 72
1
 10
240.5444081136
 20
819.3345723936
 30
0.0
 11
1.0
 21
0.0
 31
0.0
  1
Nom
 40
10.0
 41
24.0
  0
MTEXT
  5
344
100
AcDbEntity
  8
0
100
AcDbMText
 62
3
  6
CONTINUOUS
  7
STANDARD
 71
2
 72
1
 10
394.5444081136
 20
819.3345723936
 30
0.0
 11
1.0
 21
0.0
 31
0.0
  1
Code
 40
10.0
 41
32.0
  0
MTEXT
  5
345
100
AcDbEntity
  8
0
100
AcDbMText
 62
3
  6
CONTINUOUS
  7
STANDARD
 71
2
 72
1
 10
453.9922932138
 20
819.3345723936
 30
0.0
 11
1.0
 21
0.0
 31
0.0
  1
N\Fgdt;{\Fgdt;~}\Ftxt; \P{\W0.8;de }\Pplan
 40
10.0
 41
32.0
  0
MTEXT
  5
346
100
AcDbEntity
  8
0
100
AcDbMText
 62
3
  6
CONTINUOUS
  7
STANDARD
 71
2
 72
1
 10
507.2068449807
 20
819.3345723936
 30
0.0
 11
1.0
 21
0.0
 31
0.0
  1
Qté
 40
10.0
 41
24.0
  0
LINE
  5
347
100
AcDbEntity
  8
0
100
AcDbLine
 62
7
  6
CONTINUOUS
 10
0.0
 20
0.0
 11
0.0
 21
1031.6467809131
  0
LINE
  5
348
100
AcDbEntity
  8
0
100
AcDbLine
 62
7
  6
CONTINUOUS
 10
0.0
 20
0.0
 11
0.0
 21
1031.6467809131
  0
LINE
  5
349
100
AcDbEntity
  8
H_EXTERN_HANDLE
100
AcDbLine
 62
7
  6
CONTINUOUS
 10
65.9547607982
 20
283.4121307402
 11
65.9547607982
 21
280.6454455138
  0
LINE
  5
34A
100
AcDbEntity
  8
H_EXTERN_HANDLE
100
AcDbLine
 62
7
  6
CONTINUOUS
 10
65.9547607982
 20
265.6788159667
 11
65.9547607982
 21
262.9121307402
  0
LINE
  5
34B
100
AcDbEntity
  8
H_EXTERN_HANDLE
100
AcDbLine
 62
7
  6
CONTINUOUS
 10
67.4547607982
 20
287.4121307403
 11
67.4547607982
 21
281.4536927161
  0
LINE
  5
34C
100
AcDbEntity
  8
H_EXTERN_HANDLE
100
AcDbLine
 62
7
  6
CONTINUOUS
 10
67.4547607982
 20
258.9121307403
 11
67.4547607982
 21
264.8705687644
  0
LINE
  5
34D
100
AcDbEntity
  8
0
100
AcDbLine
 62
7
  6
CONTINUOUS
 10
91.3444081136
 20
745.9345723936
 11
91.3444081136
 21
824.7345723936
  0
LINE
  5
34E
100
AcDbEntity
  8
H_MOVING
100
AcDbLine
 62
1
  6
CONTINUOUS
 10
66.6181373942
 20
208.6086279744
 11
61.9547607982
 21
83.1621307402
  0
LINE
  5
34F
100
AcDbEntity
  8
INTER_PHASE_SCHIELDS
100
AcDbLine
 62
5
  6
CONTINUOUS
 10
285.2547607982
 20
85.3621310183
 11
291.2547607982
 21
79.3621310183
  0
LINE
  5
350
100
AcDbEntity
  8
H_EXTERN_HANDLE
100
AcDbLine
 62
7
  6
CONTINUOUS
 10
148.9547607982
 20
233.1621310184
 11
142.9547607982
 21
243.1621307403
  0
LINE
  5
351
100
AcDbEntity
  8
H_EXTERN_HANDLE
100
AcDbLine
 62
7
  6
CONTINUOUS
 10
116.9547607982
 20
248.9121307403
 11
116.9547607982
 21
243.1621307403
  0
LINE
  5
352
100
AcDbEntity
  8
H_EXTERN_HANDLE
100
AcDbLine
 62
7
  6
CONTINUOUS
 10
116.9547607982
 20
297.4121307403
 11
116.9547607982
 21
303.1621307403
  0
LINE
  5
353
100
AcDbEntity
  8
H_EXTERN_HANDLE
100
AcDbLine
 62
7
  6
CONTINUOUS
 10
118.4547607982
 20
283.6621310184
 11
118.4547607982
 21
281.6621307402
  0
LINE
  5
354
100
AcDbEntity
  8
H_EXTERN_HANDLE
100
AcDbLine
 62
7
  6
CONTINUOUS
 10
118.4547594241
 20
262.6621306584
 11
118.4547596858
 21
264.6621309365
  0
LINE
  5
355
100
AcDbEntity
  8
H_EXTERN_HANDLE
100
AcDbLine
 62
7
  6
CONTINUOUS
 10
119.9547607982
 20
281.6621307402
 11
119.9547607982
 21
264.6621307402
  0
LINE
  5
356
100
AcDbEntity
  8
0
100
AcDbLine
 62
1
  6
CONTINUOUS
 10
120.5444081136
 20
824.7345723936
 11
120.5444081136
 21
745.9345723936
  0
LINE
  5
357
100
AcDbEntity
  8
H_EXTERN_HANDLE
100
AcDbLine
 62
7
  6
CONTINUOUS
 10
142.9547607982
 20
233.1621310184
 11
142.9547607982
 21
313.1621310184
  0
LINE
  5
358
100
AcDbEntity
  8
H_EXTERN_HANDLE
100
AcDbLine
 62
7
  6
CONTINUOUS
 10
148.9547607982
 20
233.1621310184
 11
148.9547607982
 21
313.1621310184
  0
LINE
  5
359
100
AcDbEntity
  8
H_EXTERN_HANDLE
100
AcDbLine
 62
7
  6
CONTINUOUS
 10
157.9547607982
 20
313.1621310184
 11
157.9547607982
 21
233.1621310184
  0
LINE
  5
35A
100
AcDbEntity
  8
H_MOVING
100
AcDbLine
 62
1
  6
CONTINUOUS
 10
109.9884917466
 20
83.1621307402
 11
110.0628781185
 21
85.1532918187
  0
LINE
  5
35B
100
AcDbEntity
  8
H_MOVING
100
AcDbLine
 62
1
  6
CONTINUOUS
 10
110.287027855
 20
91.1532918187
 11
110.3614142269
 21
93.1444528971
  0
LINE
  5
35C
100
AcDbEntity
  8
H_MOVING
100
AcDbLine
 62
1
  6
CONTINUOUS
 10
110.5855639634
 20
99.1444528971
 11
110.6599503353
 21
101.1356139755
  0
LINE
  5
35D
100
AcDbEntity
  8
H_MOVING
100
AcDbLine
 62
1
  6
CONTINUOUS
 10
110.8841000718
 20
107.1356139755
 11
110.9584864437
 21
109.1267750539
  0
LINE
  5
35E
100
AcDbEntity
  8
H_MOVING
100
AcDbLine
 62
1
  6
CONTINUOUS
 10
111.1826361802
 20
115.1267750539
 11
111.2570225521
 21
117.1179361324
  0
LINE
  5
35F
100
AcDbEntity
  8
H_MOVING
100
AcDbLine
 62
1
  6
CONTINUOUS
 10
111.4811722887
 20
123.1179361324
 11
111.5555586605
 21
125.1090972108
  0
LINE
  5
360
100
AcDbEntity
  8
H_MOVING
100
AcDbLine
 62
1
  6
CONTINUOUS
 10
111.7797083971
 20
131.1090972108
 11
111.8540947689
 21
133.1002582892
  0
LINE
  5
361
100
AcDbEntity
  8
H_MOVING
100
AcDbLine
 62
1
  6
CONTINUOUS
 10
112.0782445055
 20
139.1002582892
 11
112.1526308773
 21
141.0914193676
  0
LINE
  5
362
100
AcDbEntity
  8
H_MOVING
100
AcDbLine
 62
1
  6
CONTINUOUS
 10
112.3767806139
 20
147.0914193676
 11
112.4511669857
 21
149.0825804461
  0
LINE
  5
363
100
AcDbEntity
  8
H_MOVING
100
AcDbLine
 62
1
  6
CONTINUOUS
 10
112.6753167223
 20
155.0825804461
 11
112.7497030942
 21
157.0737415245
  0
LINE
  5
364
100
AcDbEntity
  8
H_MOVING
100
AcDbLine
 62
1
  6
CONTINUOUS
 10
112.9738528307
 20
163.0737415245
 11
113.0482392026
 21
165.0649026029
  0
LINE
  5
365
100
AcDbEntity
  8
H_MOVING
100
AcDbLine
 62
1
  6
CONTINUOUS
 10
113.2723889391
 20
171.0649026029
 11
113.346775311
 21
173.0560636813
  0
LINE
  5
366
100
AcDbEntity
  8
H_MOVING
100
AcDbLine
 62
1
  6
CONTINUOUS
 10
113.5709250475
 20
179.0560636813
 11
113.6453114194
 21
181.0472247598
  0
LINE
  5
367
100
AcDbEntity
  8
H_MOVING
100
AcDbLine
 62
1
  6
CONTINUOUS
 10
113.8694611559
 20
187.0472247598
 11
113.9438475278
 21
189.0383858382
  0
LINE
  5
368
100
AcDbEntity
  8
H_MOVING
100
AcDbLine
 62
1
  6
CONTINUOUS
 10
114.1679972644
 20
195.0383858382
 11
114.2423836362
 21
197.0295469166
  0
LINE
  5
369
100
AcDbEntity
  8
H_MOVING
100
AcDbLine
 62
1
  6
CONTINUOUS
 10
114.4665333728
 20
203.0295469166
 11
114.5409197446
 21
205.020707995
  0
LINE
  5
36A
100
AcDbEntity
  8
0
100
AcDbLine
 62
7
  6
CONTINUOUS
 10
0.0
 20
0.0
 11
1345.8565105476
 21
0.0
  0
LINE
  5
36B
100
AcDbEntity
  8
0
100
AcDbLine
 62
7
  6
CONTINUOUS
 10
0.0
 20
0.0
 11
1345.8565105476
 21
0.0
  0
LINE
  5
36C
100
AcDbEntity
  8
INTER_PHASE_SCHIELDS
100
AcDbLine
 62
5
  6
CONTINUOUS
 10
291.8547607982
 20
153.3621310183
 11
289.8547607982
 21
155.3621310183
  0
LINE
  5
36D
100
AcDbEntity
  8
BASIC_DEVICE
100
AcDbLine
 62
7
  6
CONTINUOUS
 10
203.9547607982
 20
280.6621310183
 11
203.9547607982
 21
265.6621310183
  0
LINE
  5
36E
100
AcDbEntity
  8
BASIC_DEVICE
100
AcDbLine
 62
1
  6
CONTINUOUS
 10
218.6547607982
 20
270.6121310183
 11
217.6547607982
 21
271.6121310183
  0
LINE
  5
36F
100
AcDbEntity
  8
BASIC_DEVICE
100
AcDbLine
 62
1
  6
CONTINUOUS
 10
217.6547607982
 20
271.6121310183
 11
217.6547607982
 21
274.7121310183
  0
LINE
  5
370
100
AcDbEntity
  8
BASIC_DEVICE
100
AcDbLine
 62
1
  6
CONTINUOUS
 10
225.7547607982
 20
288.7621310183
 11
225.7547607982
 21
275.7121310183
  0
LINE
  5
371
100
AcDbEntity
  8
BASIC_DEVICE
100
AcDbLine
 62
1
  6
CONTINUOUS
 10
225.7547607982
 20
270.6121310183
 11
225.7547607982
 21
257.5621310183
  0
LINE
  5
372
100
AcDbEntity
  8
BASIC_DEVICE
100
AcDbLine
 62
1
  6
CONTINUOUS
 10
226.8547607982
 20
284.4127979287
 11
226.8547607982
 21
261.5688076627
  0
LINE
  5
373
100
AcDbEntity
  8
BASIC_DEVICE
100
AcDbLine
 62
1
  6
CONTINUOUS
 10
227.9547607982
 20
261.5688076627
 11
227.9547607982
 21
284.4127979287
  0
LINE
  5
374
100
AcDbEntity
  8
BASIC_DEVICE
100
AcDbLine
 62
7
  6
CONTINUOUS
 10
229.9547607982
 20
145.1621310183
 11
229.9547607982
 21
345.1621310183
  0
LINE
  5
375
100
AcDbEntity
  8
TERMINAL_SCHROUD
100
AcDbLine
 62
2
  6
CONTINUOUS
 10
231.9547607982
 20
475.6621310183
 11
231.9547607982
 21
430.5616259549
  0
LINE
  5
376
100
AcDbEntity
  8
TERMINAL_SCHROUD
100
AcDbLine
 62
2
  6
CONTINUOUS
 10
233.9547607982
 20
430.5616259549
 11
233.9547607982
 21
475.6621310183
  0
LINE
  5
377
100
AcDbEntity
  8
INTER_PHASE_SCHIELDS
100
AcDbLine
 62
5
  6
CONTINUOUS
 10
291.2547607982
 20
79.3621310183
 11
361.9547607982
 21
79.3621310183
  0
LINE
  5
378
100
AcDbEntity
  8
INTER_PHASE_SCHIELDS
100
AcDbLine
 62
5
  6
CONTINUOUS
 10
730.6706718587
 20
79.3621310183
 11
732.6706718587
 21
79.3621310183
  0
LINE
  5
379
100
AcDbEntity
  8
INTER_PHASE_SCHIELDS
100
AcDbLine
 62
5
  6
CONTINUOUS
 10
850.6706718587
 20
79.3621310183
 11
852.6706718587
 21
79.3621310183
  0
LINE
  5
37A
100
AcDbEntity
  8
BASIC_DEVICE
100
AcDbLine
 62
7
  6
CONTINUOUS
 10
322.9547607982
 20
80.1621310183
 11
329.9547607982
 21
80.1621310183
  0
LINE
  5
37B
100
AcDbEntity
  8
BASIC_DEVICE
100
AcDbLine
 62
7
  6
CONTINUOUS
 10
658.6706718587
 20
80.1621310183
 11
711.6706718587
 21
80.1621310183
  0
LINE
  5
37C
100
AcDbEntity
  8
BASIC_DEVICE
100
AcDbLine
 62
7
  6
CONTINUOUS
 10
778.6706718587
 20
80.1621310183
 11
831.6706718587
 21
80.1621310183
  0
LINE
  5
37D
100
AcDbEntity
  8
BASIC_DEVICE
100
AcDbLine
 62
7
  6
CONTINUOUS
 10
898.6706718587
 20
80.1621310183
 11
951.6706718587
 21
80.1621310183
  0
LINE
  5
37E
100
AcDbEntity
  8
H_MOVING
100
AcDbLine
 62
1
  6
CONTINUOUS
 10
61.9547607982
 20
83.1621307402
 11
109.9884917466
 21
83.1621307402
  0
LINE
  5
37F
100
AcDbEntity
  8
H_MOVING
100
AcDbLine
 62
1
  6
CONTINUOUS
 10
807.6706718584
 20
84.1621310183
 11
788.6706718584
 21
84.1621310183
  0
LINE
  5
380
100
AcDbEntity
  8
H_MOVING
100
AcDbLine
 62
1
  6
CONTINUOUS
 10
110.0628781185
 20
85.1532918187
 11
108.2905468561
 21
85.1532918187
  0
LINE
  5
381
100
AcDbEntity
  8
BASIC_DEVICE
100
AcDbLine
 62
7
  6
CONTINUOUS
 10
329.9547607982
 20
85.1621310183
 11
322.9547607982
 21
85.1621310183
  0
LINE
  5
382
100
AcDbEntity
  8
INTER_PHASE_SCHIELDS
100
AcDbLine
 62
5
  6
CONTINUOUS
 10
853.6706718587
 20
85.3621310183
 11
852.6706718587
 21
85.3621310183
  0
LINE
  5
383
100
AcDbEntity
  8
INTER_PHASE_SCHIELDS
100
AcDbLine
 62
5
  6
CONTINUOUS
 10
733.6706718587
 20
85.3621310183
 11
732.6706718587
 21
85.3621310183
  0
LINE
  5
384
100
AcDbEntity
  8
INTER_PHASE_SCHIELDS
100
AcDbLine
 62
5
  6
CONTINUOUS
 10
298.6547607982
 20
85.3621310183
 11
354.4547607982
 21
85.3621310183
  0
LINE
  5
385
100
AcDbEntity
  8
INTER_PHASE_SCHIELDS
100
AcDbLine
 62
5
  6
CONTINUOUS
 10
729.6706718587
 20
85.3621310183
 11
730.6706718587
 21
85.3621310183
  0
LINE
  5
386
100
AcDbEntity
  8
INTER_PHASE_SCHIELDS
100
AcDbLine
 62
5
  6
CONTINUOUS
 10
849.6706718587
 20
85.3621310183
 11
850.6706718587
 21
85.3621310183
  0
LINE
  5
387
100
AcDbEntity
  8
INTER_PHASE_SCHIELDS
100
AcDbLine
 62
5
  6
CONTINUOUS
 10
298.6547607982
 20
87.3621310183
 11
354.4547607982
 21
87.3621310183
  0
LINE
  5
388
100
AcDbEntity
  8
H_MOVING
100
AcDbLine
 62
1
  6
CONTINUOUS
 10
108.2905468561
 20
91.1532918187
 11
110.287027855
 21
91.1532918187
  0
LINE
  5
389
100
AcDbEntity
  8
H_MOVING
100
AcDbLine
 62
1
  6
CONTINUOUS
 10
110.3614142269
 20
93.1444528971
 11
108.5890829645
 21
93.1444528971
  0
LINE
  5
38A
100
AcDbEntity
  8
H_MOVING
100
AcDbLine
 62
1
  6
CONTINUOUS
 10
108.5890829645
 20
99.1444528971
 11
110.5855639634
 21
99.1444528971
  0
LINE
  5
38B
100
AcDbEntity
  8
TERMINAL_SCHROUD
100
AcDbLine
 62
2
  6
CONTINUOUS
 10
281.9547607982
 20
375.5910632065
 11
281.9547607982
 21
322.6621310183
  0
LINE
  5
38C
100
AcDbEntity
  8
BASIC_DEVICE
100
AcDbLine
 62
7
  6
CONTINUOUS
 10
283.9547607982
 20
345.1621310183
 11
283.9547607982
 21
145.1621310183
  0
LINE
  5
38D
100
AcDbEntity
  8
TERMINAL_SCHROUD
100
AcDbLine
 62
2
  6
CONTINUOUS
 10
283.9547607982
 20
322.6621310183
 11
283.9547607982
 21
375.5910632065
  0
LINE
  5
38E
100
AcDbEntity
  8
INTER_PHASE_SCHIELDS
100
AcDbLine
 62
5
  6
CONTINUOUS
 10
285.2547607982
 20
148.3621310183
 11
285.2547607982
 21
85.3621310183
  0
LINE
  5
38F
100
AcDbEntity
  8
INTER_PHASE_SCHIELDS
100
AcDbLine
 62
5
  6
CONTINUOUS
 10
285.2547607982
 20
341.9621310183
 11
285.2547607982
 21
404.9621310183
  0
LINE
  5
390
100
AcDbEntity
  8
INTER_PHASE_SCHIELDS
100
AcDbLine
 62
5
  6
CONTINUOUS
 10
287.2547607982
 20
155.3621310183
 11
287.2547607982
 21
148.3621310183
  0
LINE
  5
391
100
AcDbEntity
  8
INTER_PHASE_SCHIELDS
100
AcDbLine
 62
5
  6
CONTINUOUS
 10
287.2547607982
 20
334.9621310183
 11
287.2547607982
 21
341.9621310183
  0
LINE
  5
392
100
AcDbEntity
  8
INTER_PHASE_SCHIELDS
100
AcDbLine
 62
5
  6
CONTINUOUS
 10
290.3547607982
 20
351.4621310183
 11
290.3547607982
 21
338.7621310183
  0
LINE
  5
393
100
AcDbEntity
  8
INTER_PHASE_SCHIELDS
100
AcDbLine
 62
5
  6
CONTINUOUS
 10
290.3547607982
 20
138.8621310183
 11
290.3547607982
 21
151.5621310183
  0
LINE
  5
394
100
AcDbEntity
  8
INTER_PHASE_SCHIELDS
100
AcDbLine
 62
5
  6
CONTINUOUS
 10
291.8547607982
 20
338.7621310183
 11
291.8547607982
 21
336.9621310183
  0
LINE
  5
395
100
AcDbEntity
  8
INTER_PHASE_SCHIELDS
100
AcDbLine
 62
5
  6
CONTINUOUS
 10
291.8547607982
 20
151.5621310183
 11
291.8547607982
 21
153.3621310183
  0
LINE
  5
396
100
AcDbEntity
  8
INTER_PHASE_SCHIELDS
100
AcDbLine
 62
5
  6
CONTINUOUS
 10
294.8547607982
 20
148.3621310183
 11
294.8547607982
 21
138.8621310183
  0
LINE
  5
397
100
AcDbEntity
  8
INTER_PHASE_SCHIELDS
100
AcDbLine
 62
5
  6
CONTINUOUS
 10
294.8547607982
 20
341.9621310183
 11
294.8547607982
 21
351.4621310183
  0
LINE
  5
398
100
AcDbEntity
  8
INTER_PHASE_SCHIELDS
100
AcDbLine
 62
5
  6
CONTINUOUS
 10
295.6547607982
 20
141.6621310183
 11
295.6547607982
 21
88.3621310183
  0
LINE
  5
399
100
AcDbEntity
  8
INTER_PHASE_SCHIELDS
100
AcDbLine
 62
5
  6
CONTINUOUS
 10
295.6547607982
 20
348.6621310183
 11
295.6547607982
 21
401.9621310183
  0
LINE
  5
39A
100
AcDbEntity
  8
INTER_PHASE_SCHIELDS
100
AcDbLine
 62
5
  6
CONTINUOUS
 10
297.6547607982
 20
141.6621310183
 11
297.6547607982
 21
88.3621310183
  0
LINE
  5
39B
100
AcDbEntity
  8
INTER_PHASE_SCHIELDS
100
AcDbLine
 62
5
  6
CONTINUOUS
 10
297.6547607982
 20
348.6621310183
 11
297.6547607982
 21
401.9621310183
  0
LINE
  5
39C
100
AcDbEntity
  8
AXIS
100
AcDbLine
 62
4
  6
CONTINUOUS
 10
338.9547607982
 20
100.1621310183
 11
313.9547607982
 21
100.1621310183
  0
LINE
  5
39D
100
AcDbEntity
  8
H_MOVING
100
AcDbLine
 62
1
  6
CONTINUOUS
 10
110.6599503353
 20
101.1356139755
 11
108.887619073
 21
101.1356139755
  0
LINE
  5
39E
100
AcDbEntity
  8
H_MOVING
100
AcDbLine
 62
1
  6
CONTINUOUS
 10
108.887619073
 20
107.1356139755
 11
110.8841000718
 21
107.1356139755
  0
LINE
  5
39F
100
AcDbEntity
  8
H_MOVING
100
AcDbLine
 62
1
  6
CONTINUOUS
 10
110.9584864437
 20
109.1267750539
 11
109.1861551814
 21
109.1267750539
  0
LINE
  5
3A0
100
AcDbEntity
  8
H_MOVING
100
AcDbLine
 62
1
  6
CONTINUOUS
 10
109.1861551814
 20
115.1267750539
 11
111.1826361802
 21
115.1267750539
  0
LINE
  5
3A1
100
AcDbEntity
  8
H_MOVING
100
AcDbLine
 62
1
  6
CONTINUOUS
 10
111.2570225521
 20
117.1179361324
 11
109.4846912898
 21
117.1179361324
  0
LINE
  5
3A2
100
AcDbEntity
  8
AXIS
100
AcDbLine
 62
4
  6
CONTINUOUS
 10
338.9547607982
 20
120.1621310183
 11
313.9547607982
 21
120.1621310183
  0
LINE
  5
3A3
100
AcDbEntity
  8
H_MOVING
100
AcDbLine
 62
1
  6
CONTINUOUS
 10
109.4846912898
 20
123.1179361324
 11
111.4811722887
 21
123.1179361324
  0
LINE
  5
3A4
100
AcDbEntity
  8
H_MOVING
100
AcDbLine
 62
1
  6
CONTINUOUS
 10
111.5555586605
 20
125.1090972108
 11
109.7832273982
 21
125.1090972108
  0
LINE
  5
3A5
100
AcDbEntity
  8
INTER_PHASE_SCHIELDS
100
AcDbLine
 62
5
  6
CONTINUOUS
 10
367.9547607982
 20
130.1621310183
 11
365.9547607982
 21
130.1621310183
  0
LINE
  5
3A6
100
AcDbEntity
  8
H_MOVING
100
AcDbLine
 62
1
  6
CONTINUOUS
 10
109.7832273982
 20
131.1090972108
 11
111.7797083971
 21
131.1090972108
  0
LINE
  5
3A7
100
AcDbEntity
  8
H_MOVING
100
AcDbLine
 62
1
  6
CONTINUOUS
 10
111.8540947689
 20
133.1002582892
 11
110.0817635066
 21
133.1002582892
  0
LINE
  5
3A8
100
AcDbEntity
  8
H_MOVING
100
AcDbLine
 62
1
  6
CONTINUOUS
 10
110.0817635066
 20
139.1002582892
 11
112.0782445055
 21
139.1002582892
  0
LINE
  5
3A9
100
AcDbEntity
  8
H_MOVING
100
AcDbLine
 62
1
  6
CONTINUOUS
 10
112.1526308773
 20
141.0914193676
 11
110.380299615
 21
141.0914193676
  0
LINE
  5
3AA
100
AcDbEntity
  8
INTER_PHASE_SCHIELDS
100
AcDbLine
 62
5
  6
CONTINUOUS
 10
354.4547607982
 20
142.6621310183
 11
298.6547607982
 21
142.6621310183
  0
LINE
  5
3AB
100
AcDbEntity
  8
INTER_PHASE_SCHIELDS
100
AcDbLine
 62
5
  6
CONTINUOUS
 10
850.6706718587
 20
144.6621310183
 11
849.6706718587
 21
144.6621310183
  0
LINE
  5
3AC
100
AcDbEntity
  8
INTER_PHASE_SCHIELDS
100
AcDbLine
 62
5
  6
CONTINUOUS
 10
730.6706718587
 20
144.6621310183
 11
729.6706718587
 21
144.6621310183
  0
LINE
  5
3AD
100
AcDbEntity
  8
INTER_PHASE_SCHIELDS
100
AcDbLine
 62
5
  6
CONTINUOUS
 10
354.4547607982
 20
144.6621310183
 11
298.6547607982
 21
144.6621310183
  0
LINE
  5
3AE
100
AcDbEntity
  8
INTER_PHASE_SCHIELDS
100
AcDbLine
 62
5
  6
CONTINUOUS
 10
732.6706718587
 20
144.6621310183
 11
733.6706718587
 21
144.6621310183
  0
LINE
  5
3AF
100
AcDbEntity
  8
INTER_PHASE_SCHIELDS
100
AcDbLine
 62
5
  6
CONTINUOUS
 10
852.6706718587
 20
144.6621310183
 11
853.6706718587
 21
144.6621310183
  0
LINE
  5
3B0
100
AcDbEntity
  8
INTER_PHASE_SCHIELDS
100
AcDbLine
 62
5
  6
CONTINUOUS
 10
855.1706718587
 20
145.1621310183
 11
852.6706718587
 21
145.1621310183
  0
LINE
  5
3B1
100
AcDbEntity
  8
INTER_PHASE_SCHIELDS
100
AcDbLine
 62
5
  6
CONTINUOUS
 10
850.6706718587
 20
145.1621310183
 11
848.1706718587
 21
145.1621310183
  0
LINE
  5
3B2
100
AcDbEntity
  8
INTER_PHASE_SCHIELDS
100
AcDbLine
 62
5
  6
CONTINUOUS
 10
735.1706718587
 20
145.1621310183
 11
732.6706718587
 21
145.1621310183
  0
LINE
  5
3B3
100
AcDbEntity
  8
INTER_PHASE_SCHIELDS
100
AcDbLine
 62
5
  6
CONTINUOUS
 10
730.6706718587
 20
145.1621310183
 11
728.1706718587
 21
145.1621310183
  0
LINE
  5
3B4
100
AcDbEntity
  8
BASIC_DEVICE
100
AcDbLine
 62
7
  6
CONTINUOUS
 10
369.9547607982
 20
145.1621310183
 11
229.9547607982
 21
145.1621310183
  0
LINE
  5
3B5
100
AcDbEntity
  8
INTER_PHASE_SCHIELDS
100
AcDbLine
 62
5
  6
CONTINUOUS
 10
365.9547607982
 20
145.1621310183
 11
367.9547607982
 21
145.1621310183
  0
LINE
  5
3B6
100
AcDbEntity
  8
BASIC_DEVICE
100
AcDbLine
 62
7
  6
CONTINUOUS
 10
612.1706718587
 20
145.1621310183
 11
984.1706718587
 21
145.1621310183
  0
LINE
  5
3B7
100
AcDbEntity
  8
TERMINAL_SCHROUD
100
AcDbLine
 62
2
  6
CONTINUOUS
 10
234.0050133299
 20
425.6118784866
 11
280.4902947041
 21
379.1265971124
  0
LINE
  5
3B8
100
AcDbEntity
  8
TERMINAL_SCHROUD
100
AcDbLine
 62
2
  6
CONTINUOUS
 10
281.9045082665
 20
380.5408106748
 11
235.4192268922
 21
427.026092049
  0
LINE
  5
3B9
100
AcDbEntity
  8
BASIC_DEVICE
100
AcDbLine
 62
7
  6
CONTINUOUS
 10
322.9547607982
 20
410.1621310183
 11
322.9547607982
 21
145.1621310183
  0
LINE
  5
3BA
100
AcDbEntity
  8
BASIC_DEVICE
100
AcDbLine
 62
7
  6
CONTINUOUS
 10
322.9547607982
 20
145.1610450808
 11
322.9547607982
 21
80.1621310183
  0
LINE
  5
3BB
100
AcDbEntity
  8
BASIC_DEVICE
100
AcDbLine
 62
7
  6
CONTINUOUS
 10
329.9547607982
 20
80.1621310183
 11
329.9547607982
 21
145.1610450808
  0
LINE
  5
3BC
100
AcDbEntity
  8
BASIC_DEVICE
100
AcDbLine
 62
7
  6
CONTINUOUS
 10
329.9547607982
 20
345.1612560183
 11
329.9547607982
 21
410.1621310183
  0
LINE
  5
3BD
100
AcDbEntity
  8
BASIC_DEVICE
100
AcDbLine
 62
7
  6
CONTINUOUS
 10
344.9547607982
 20
167.6621310183
 11
344.9547607982
 21
145.1621310183
  0
LINE
  5
3BE
100
AcDbEntity
  8
BASIC_DEVICE
100
AcDbLine
 62
7
  6
CONTINUOUS
 10
344.9547607982
 20
322.6621310183
 11
344.9547607982
 21
345.1621310183
  0
LINE
  5
3BF
100
AcDbEntity
  8
H_MOVING
100
AcDbLine
 62
1
  6
CONTINUOUS
 10
110.380299615
 20
147.0914193676
 11
112.3767806139
 21
147.0914193676
  0
LINE
  5
3C0
100
AcDbEntity
  8
INTER_PHASE_SCHIELDS
100
AcDbLine
 62
5
  6
CONTINUOUS
 10
367.9547607982
 20
148.3621310183
 11
365.9547607982
 21
148.3621310183
  0
LINE
  5
3C1
100
AcDbEntity
  8
INTER_PHASE_SCHIELDS
100
AcDbLine
 62
5
  6
CONTINUOUS
 10
358.3547607982
 20
148.3621310183
 11
294.8547607982
 21
148.3621310183
  0
LINE
  5
3C2
100
AcDbEntity
  8
INTER_PHASE_SCHIELDS
100
AcDbLine
 62
5
  6
CONTINUOUS
 10
287.2547607982
 20
148.3621310183
 11
285.2547607982
 21
148.3621310183
  0
LINE
  5
3C3
100
AcDbEntity
  8
H_MOVING
100
AcDbLine
 62
1
  6
CONTINUOUS
 10
112.4511669857
 20
149.0825804461
 11
110.6788357234
 21
149.0825804461
  0
LINE
  5
3C4
100
AcDbEntity
  8
BASIC_DEVICE
100
AcDbLine
 62
7
  6
CONTINUOUS
 10
738.1706718584
 20
150.1621310184
 11
858.1706718584
 21
150.1621310184
  0
LINE
  5
3C5
100
AcDbEntity
  8
INTER_PHASE_SCHIELDS
100
AcDbLine
 62
5
  6
CONTINUOUS
 10
290.3547607982
 20
151.5621310183
 11
291.8547607982
 21
151.5621310183
  0
LINE
  5
3C6
100
AcDbEntity
  8
INTER_PHASE_SCHIELDS
100
AcDbLine
 62
5
  6
CONTINUOUS
 10
361.3547607982
 20
151.5621310183
 11
362.8547607982
 21
151.5621310183
  0
LINE
  5
3C7
100
AcDbEntity
  8
BASIC_DEVICE
100
AcDbLine
 62
7
  6
CONTINUOUS
 10
886.201760772
 20
152.4121310183
 11
880.1395829455
 21
152.4121310183
  0
LINE
  5
3C8
100
AcDbEntity
  8
BASIC_DEVICE
100
AcDbLine
 62
7
  6
CONTINUOUS
 10
710.1395829455
 20
152.4121310183
 11
716.201760772
 21
152.4121310183
  0
LINE
  5
3C9
100
AcDbEntity
  8
H_MOVING
100
AcDbLine
 62
1
  6
CONTINUOUS
 10
110.6788357234
 20
155.0825804461
 11
112.6753167223
 21
155.0825804461
  0
LINE
  5
3CA
100
AcDbEntity
  8
INTER_PHASE_SCHIELDS
100
AcDbLine
 62
5
  6
CONTINUOUS
 10
852.6706718587
 20
155.3621310183
 11
850.6706718587
 21
155.3621310183
  0
LINE
  5
3CB
100
AcDbEntity
  8
INTER_PHASE_SCHIELDS
100
AcDbLine
 62
5
  6
CONTINUOUS
 10
732.6706718587
 20
155.3621310183
 11
730.6706718587
 21
155.3621310183
  0
LINE
  5
3CC
100
AcDbEntity
  8
INTER_PHASE_SCHIELDS
100
AcDbLine
 62
5
  6
CONTINUOUS
 10
365.9547607982
 20
155.3621310183
 11
363.3547607982
 21
155.3621310183
  0
LINE
  5
3CD
100
AcDbEntity
  8
INTER_PHASE_SCHIELDS
100
AcDbLine
 62
5
  6
CONTINUOUS
 10
289.8547607982
 20
155.3621310183
 11
287.2547607982
 21
155.3621310183
  0
LINE
  5
3CE
100
AcDbEntity
  8
H_MOVING
100
AcDbLine
 62
1
  6
CONTINUOUS
 10
112.7497030942
 20
157.0737415245
 11
110.9773718318
 21
157.0737415245
  0
LINE
  5
3CF
100
AcDbEntity
  8
AXIS
100
AcDbLine
 62
4
  6
CONTINUOUS
 10
617.1706718587
 20
157.6621310183
 11
632.1706718587
 21
157.6621310183
  0
LINE
  5
3D0
100
AcDbEntity
  8
AXIS
100
AcDbLine
 62
4
  6
CONTINUOUS
 10
964.1706718587
 20
157.6621310183
 11
979.1706718587
 21
157.6621310183
  0
LINE
  5
3D1
100
AcDbEntity
  8
BASIC_DEVICE
100
AcDbLine
 62
7
  6
CONTINUOUS
 10
716.201760772
 20
162.9121310183
 11
710.1395829455
 21
162.9121310183
  0
LINE
  5
3D2
100
AcDbEntity
  8
BASIC_DEVICE
100
AcDbLine
 62
7
  6
CONTINUOUS
 10
880.1395829455
 20
162.9121310183
 11
886.201760772
 21
162.9121310183
  0
LINE
  5
3D3
100
AcDbEntity
  8
H_MOVING
100
AcDbLine
 62
1
  6
CONTINUOUS
 10
110.9773718318
 20
163.0737415245
 11
112.9738528307
 21
163.0737415245
  0
LINE
  5
3D4
100
AcDbEntity
  8
H_MOVING
100
AcDbLine
 62
1
  6
CONTINUOUS
 10
113.0482392026
 20
165.0649026029
 11
111.2759079402
 21
165.0649026029
  0
LINE
  5
3D5
100
AcDbEntity
  8
BASIC_DEVICE
100
AcDbLine
 62
7
  6
CONTINUOUS
 10
624.6706718587
 20
167.6621310183
 11
612.1706718587
 21
167.6621310183
  0
LINE
  5
3D6
100
AcDbEntity
  8
BASIC_DEVICE
100
AcDbLine
 62
7
  6
CONTINUOUS
 10
283.9547607982
 20
167.6621310183
 11
344.9547607982
 21
167.6621310183
  0
LINE
  5
3D7
100
AcDbEntity
  8
BASIC_DEVICE
100
AcDbLine
 62
7
  6
CONTINUOUS
 10
971.6706718587
 20
167.6621310183
 11
984.1706718587
 21
167.6621310183
  0
LINE
  5
3D8
100
AcDbEntity
  8
BASIC_DEVICE
100
AcDbLine
 62
7
  6
CONTINUOUS
 10
367.9547607982
 20
169.6621310183
 11
369.9547607982
 21
169.6621310183
  0
LINE
  5
3D9
100
AcDbEntity
  8
H_MOVING
100
AcDbLine
 62
1
  6
CONTINUOUS
 10
111.2759079402
 20
171.0649026029
 11
113.2723889391
 21
171.0649026029
  0
LINE
  5
3DA
100
AcDbEntity
  8
BASIC_DEVICE
100
AcDbLine
 62
7
  6
CONTINUOUS
 10
974.701760772
 20
172.4121310183
 11
968.6395829455
 21
172.4121310183
  0
LINE
  5
3DB
100
AcDbEntity
  8
BASIC_DEVICE
100
AcDbLine
 62
7
  6
CONTINUOUS
 10
621.6395829455
 20
172.4121310183
 11
627.701760772
 21
172.4121310183
  0
LINE
  5
3DC
100
AcDbEntity
  8
H_MOVING
100
AcDbLine
 62
1
  6
CONTINUOUS
 10
113.346775311
 20
173.0560636813
 11
111.5744440487
 21
173.0560636813
  0
LINE
  5
3DD
100
AcDbEntity
  8
H_MOVING
100
AcDbLine
 62
1
  6
CONTINUOUS
 10
111.5744440487
 20
179.0560636813
 11
113.5709250475
 21
179.0560636813
  0
LINE
  5
3DE
100
AcDbEntity
  8
H_MOVING
100
AcDbLine
 62
1
  6
CONTINUOUS
 10
113.6453114194
 20
181.0472247598
 11
111.8729801571
 21
181.0472247598
  0
LINE
  5
3DF
100
AcDbEntity
  8
BASIC_DEVICE
100
AcDbLine
 62
7
  6
CONTINUOUS
 10
627.701760772
 20
182.9121310183
 11
621.6395829455
 21
182.9121310183
  0
LINE
  5
3E0
100
AcDbEntity
  8
BASIC_DEVICE
100
AcDbLine
 62
7
  6
CONTINUOUS
 10
968.6395829455
 20
182.9121310183
 11
974.701760772
 21
182.9121310183
  0
LINE
  5
3E1
100
AcDbEntity
  8
H_MOVING
100
AcDbLine
 62
1
  6
CONTINUOUS
 10
111.8729801571
 20
187.0472247598
 11
113.8694611559
 21
187.0472247598
  0
LINE
  5
3E2
100
AcDbEntity
  8
H_MOVING
100
AcDbLine
 62
1
  6
CONTINUOUS
 10
113.9438475278
 20
189.0383858382
 11
112.1715162655
 21
189.0383858382
  0
LINE
  5
3E3
100
AcDbEntity
  8
INTER_PHASE_SCHIELDS
100
AcDbLine
 62
5
  6
CONTINUOUS
 10
363.3547607982
 20
334.9621310183
 11
361.3547607982
 21
336.9621310183
  0
LINE
  5
3E4
100
AcDbEntity
  8
INTER_PHASE_SCHIELDS
100
AcDbLine
 62
5
  6
CONTINUOUS
 10
355.4547607982
 20
401.9621310183
 11
355.4547607982
 21
348.6621310183
  0
LINE
  5
3E5
100
AcDbEntity
  8
INTER_PHASE_SCHIELDS
100
AcDbLine
 62
5
  6
CONTINUOUS
 10
355.4547607982
 20
88.3621310183
 11
355.4547607982
 21
141.6621310183
  0
LINE
  5
3E6
100
AcDbEntity
  8
INTER_PHASE_SCHIELDS
100
AcDbLine
 62
5
  6
CONTINUOUS
 10
357.4547607982
 20
401.9621310183
 11
357.4547607982
 21
348.6621310183
  0
LINE
  5
3E7
100
AcDbEntity
  8
INTER_PHASE_SCHIELDS
100
AcDbLine
 62
5
  6
CONTINUOUS
 10
357.4547607982
 20
88.3621310183
 11
357.4547607982
 21
141.6621310183
  0
LINE
  5
3E8
100
AcDbEntity
  8
INTER_PHASE_SCHIELDS
100
AcDbLine
 62
5
  6
CONTINUOUS
 10
358.3547607982
 20
351.4621310183
 11
358.3547607982
 21
341.9621310183
  0
LINE
  5
3E9
100
AcDbEntity
  8
INTER_PHASE_SCHIELDS
100
AcDbLine
 62
5
  6
CONTINUOUS
 10
358.3547607982
 20
138.8621310183
 11
358.3547607982
 21
148.3621310183
  0
LINE
  5
3EA
100
AcDbEntity
  8
0
100
AcDbLine
 62
1
  6
CONTINUOUS
 10
360.5444081136
 20
824.7345723936
 11
360.5444081136
 21
745.9345723936
  0
LINE
  5
3EB
100
AcDbEntity
  8
INTER_PHASE_SCHIELDS
100
AcDbLine
 62
5
  6
CONTINUOUS
 10
361.3547607982
 20
153.3621310183
 11
361.3547607982
 21
151.5621310183
  0
LINE
  5
3EC
100
AcDbEntity
  8
INTER_PHASE_SCHIELDS
100
AcDbLine
 62
5
  6
CONTINUOUS
 10
361.3547607982
 20
336.9621310183
 11
361.3547607982
 21
338.7621310183
  0
LINE
  5
3ED
100
AcDbEntity
  8
INTER_PHASE_SCHIELDS
100
AcDbLine
 62
5
  6
CONTINUOUS
 10
362.8547607982
 20
151.5621310183
 11
362.8547607982
 21
138.8621310183
  0
LINE
  5
3EE
100
AcDbEntity
  8
INTER_PHASE_SCHIELDS
100
AcDbLine
 62
5
  6
CONTINUOUS
 10
362.8547607982
 20
338.7621310183
 11
362.8547607982
 21
351.4621310183
  0
LINE
  5
3EF
100
AcDbEntity
  8
INTER_PHASE_SCHIELDS
100
AcDbLine
 62
5
  6
CONTINUOUS
 10
365.9547607982
 20
360.1621310183
 11
365.9547607982
 21
345.1621310183
  0
LINE
  5
3F0
100
AcDbEntity
  8
INTER_PHASE_SCHIELDS
100
AcDbLine
 62
5
  6
CONTINUOUS
 10
365.9547607982
 20
341.9621310183
 11
365.9547607982
 21
334.9621310183
  0
LINE
  5
3F1
100
AcDbEntity
  8
INTER_PHASE_SCHIELDS
100
AcDbLine
 62
5
  6
CONTINUOUS
 10
365.9547607982
 20
130.1621310183
 11
365.9547607982
 21
145.1621310183
  0
LINE
  5
3F2
100
AcDbEntity
  8
INTER_PHASE_SCHIELDS
100
AcDbLine
 62
5
  6
CONTINUOUS
 10
365.9547607982
 20
148.3621310183
 11
365.9547607982
 21
155.3621310183
  0
LINE
  5
3F3
100
AcDbEntity
  8
INTER_PHASE_SCHIELDS
100
AcDbLine
 62
5
  6
CONTINUOUS
 10
367.9547607982
 20
404.9621310183
 11
367.9547607982
 21
341.9621310183
  0
LINE
  5
3F4
100
AcDbEntity
  8
BASIC_DEVICE
100
AcDbLine
 62
7
  6
CONTINUOUS
 10
367.9547607982
 20
320.6621310183
 11
367.9547607982
 21
169.6621310183
  0
LINE
  5
3F5
100
AcDbEntity
  8
INTER_PHASE_SCHIELDS
100
AcDbLine
 62
5
  6
CONTINUOUS
 10
367.9547607982
 20
85.3621310183
 11
367.9547607982
 21
148.3621310183
  0
LINE
  5
3F6
100
AcDbEntity
  8
BASIC_DEVICE
100
AcDbLine
 62
7
  6
CONTINUOUS
 10
369.9547607982
 20
345.1621310183
 11
369.9547607982
 21
320.6621310183
  0
LINE
  5
3F7
100
AcDbEntity
  8
BASIC_DEVICE
100
AcDbLine
 62
7
  6
CONTINUOUS
 10
369.9547607982
 20
169.6621310183
 11
369.9547607982
 21
145.1621310183
  0
LINE
  5
3F8
100
AcDbEntity
  8
H_MOVING
100
AcDbLine
 62
1
  6
CONTINUOUS
 10
112.1715162655
 20
195.0383858382
 11
114.1679972644
 21
195.0383858382
  0
LINE
  5
3F9
100
AcDbEntity
  8
H_MOVING
100
AcDbLine
 62
1
  6
CONTINUOUS
 10
114.2423836362
 20
197.0295469166
 11
112.4700523739
 21
197.0295469166
  0
LINE
  5
3FA
100
AcDbEntity
  8
H_MOVING
100
AcDbLine
 62
1
  6
CONTINUOUS
 10
112.4700523739
 20
203.0295469166
 11
114.4665333728
 21
203.0295469166
  0
LINE
  5
3FB
100
AcDbEntity
  8
H_MOVING
100
AcDbLine
 62
1
  6
CONTINUOUS
 10
114.5409197446
 20
205.020707995
 11
112.7685884823
 21
205.020707995
  0
LINE
  5
3FC
100
AcDbEntity
  8
H_MOVING
100
AcDbLine
 62
1
  6
CONTINUOUS
 10
66.6181373942
 20
208.6086279744
 11
109.8267608025
 21
208.6086279744
  0
LINE
  5
3FD
100
AcDbEntity
  8
H_MOVING
100
AcDbLine
 62
1
  6
CONTINUOUS
 10
787.6706718584
 20
208.6086282525
 11
808.6706718584
 21
208.6086282525
  0
LINE
  5
3FE
100
AcDbEntity
  8
BASIC_DEVICE
100
AcDbLine
 62
7
  6
CONTINUOUS
 10
713.1706718587
 20
228.1621310183
 11
729.1706718587
 21
228.1621310183
  0
LINE
  5
3FF
100
AcDbEntity
  8
H_EXTERN_HANDLE
100
AcDbLine
 62
7
  6
CONTINUOUS
 10
157.9547607982
 20
233.1621310184
 11
142.9547607982
 21
233.1621310184
  0
LINE
  5
400
100
AcDbEntity
  8
BASIC_DEVICE
100
AcDbLine
 62
7
  6
CONTINUOUS
 10
893.1706718587
 20
236.1621310183
 11
875.1706718587
 21
236.1621310183
  0
LINE
  5
401
100
AcDbEntity
  8
BASIC_DEVICE
100
AcDbLine
 62
7
  6
CONTINUOUS
 10
878.1706718587
 20
239.1621310183
 11
890.1706718587
 21
239.1621310183
  0
LINE
  5
402
100
AcDbEntity
  8
H_EXTERN_HANDLE
100
AcDbLine
 62
7
  6
CONTINUOUS
 10
70.5605950996
 20
264.1707663609
 11
104.7444500469
 21
262.6722059091
  0
LINE
  5
403
100
AcDbEntity
  8
BASIC_DEVICE
100
AcDbLine
 62
7
  6
CONTINUOUS
 10
653.6706718587
 20
85.1621310183
 11
658.6706718587
 21
80.1621310183
  0
LINE
  5
404
100
AcDbEntity
  8
INTER_PHASE_SCHIELDS
100
AcDbLine
 62
5
  6
CONTINUOUS
 10
361.9547607982
 20
410.9621310183
 11
367.9547607982
 21
404.9621310183
  0
LINE
  5
405
100
AcDbEntity
  8
0
100
AcDbLine
 62
1
  6
CONTINUOUS
 10
428.5444081136
 20
824.7345723936
 11
428.5444081136
 21
745.9345723936
  0
LINE
  5
406
100
AcDbEntity
  8
H_EXTERN_HANDLE
100
AcDbLine
 62
7
  6
CONTINUOUS
 10
811.36307031
 20
996.4923195264
 11
799.6706718584
 21
986.4923195264
  0
LINE
  5
407
100
AcDbEntity
  8
H_EXTERN_HANDLE
100
AcDbLine
 62
7
  6
CONTINUOUS
 10
116.9547607982
 20
243.1621307403
 11
142.9547607982
 21
243.1621307403
  0
LINE
  5
408
100
AcDbEntity
  8
HANDLE_FIXING_HOLES
100
AcDbLine
 62
4
  6
CONTINUOUS
 10
1185.1366918087
 20
248.1621310184
 11
1200.0306988104
 21
248.1621310184
  0
LINE
  5
409
100
AcDbEntity
  8
BASIC_DEVICE
100
AcDbLine
 62
7
  6
CONTINUOUS
 10
890.1706718587
 20
251.1621310183
 11
878.1706718587
 21
251.1621310183
  0
LINE
  5
40A
100
AcDbEntity
  8
BASIC_DEVICE
100
AcDbLine
 62
7
  6
CONTINUOUS
 10
875.1706718587
 20
254.1621310183
 11
893.1706718587
 21
254.1621310183
  0
LINE
  5
40B
100
AcDbEntity
  8
BASIC_DEVICE
100
AcDbLine
 62
1
  6
CONTINUOUS
 10
225.7547607982
 20
257.5621310183
 11
229.9547607982
 21
257.5621310183
  0
LINE
  5
40C
100
AcDbEntity
  8
H_EXTERN_HANDLE
100
AcDbLine
 62
7
  6
CONTINUOUS
 10
67.4547607982
 20
258.9121307403
 11
106.9547607982
 21
258.9121307403
  0
LINE
  5
40D
100
AcDbEntity
  8
H_EXTERN_HANDLE
100
AcDbLine
 62
7
  6
CONTINUOUS
 10
771.6706718585
 20
258.9121310184
 11
824.6706718585
 21
258.9121310184
  0
LINE
  5
40E
100
AcDbEntity
  8
BASIC_DEVICE
100
AcDbLine
 62
1
  6
CONTINUOUS
 10
226.8547607982
 20
261.5688076627
 11
227.9547607982
 21
261.5688076627
  0
LINE
  5
40F
100
AcDbEntity
  8
BASIC_DEVICE
100
AcDbLine
 62
7
  6
CONTINUOUS
 10
729.1706718587
 20
262.1621310183
 11
713.1706718587
 21
262.1621310183
  0
LINE
  5
410
100
AcDbEntity
  8
H_EXTERN_HANDLE
100
AcDbLine
 62
7
  6
CONTINUOUS
 10
105.2043086545
 20
262.6621323925
 11
118.4547594241
 21
262.6621306584
  0
LINE
  5
411
100
AcDbEntity
  8
H_EXTERN_HANDLE
100
AcDbLine
 62
7
  6
CONTINUOUS
 10
753.1706718584
 20
262.6621310184
 11
771.6706718585
 21
262.6621310184
  0
LINE
  5
412
100
AcDbEntity
  8
H_EXTERN_HANDLE
100
AcDbLine
 62
7
  6
CONTINUOUS
 10
824.6706718584
 20
262.6621310184
 11
987.1706718584
 21
262.6621310184
  0
LINE
  5
413
100
AcDbEntity
  8
H_EXTERN_HANDLE
100
AcDbLine
 62
7
  6
CONTINUOUS
 10
65.9547607982
 20
262.9121307402
 11
67.4547607982
 21
262.9121307402
  0
LINE
  5
414
100
AcDbEntity
  8
H_EXTERN_HANDLE
100
AcDbLine
 62
7
  6
CONTINUOUS
 10
119.9547607982
 20
264.6621307402
 11
111.3687236481
 21
264.6621307402
  0
LINE
  5
415
100
AcDbEntity
  8
BASIC_DEVICE
100
AcDbLine
 62
1
  6
CONTINUOUS
 10
790.5206718585
 20
265.5121310184
 11
805.8206718585
 21
265.5121310184
  0
LINE
  5
416
100
AcDbEntity
  8
BASIC_DEVICE
100
AcDbLine
 62
7
  6
CONTINUOUS
 10
805.6706718584
 20
265.6621310184
 11
790.6706718584
 21
265.6621310184
  0
LINE
  5
417
100
AcDbEntity
  8
BASIC_DEVICE
100
AcDbLine
 62
7
  6
CONTINUOUS
 10
203.9547607982
 20
265.6621310183
 11
225.7547607982
 21
265.6621310183
  0
LINE
  5
418
100
AcDbEntity
  8
H_EXTERN_HANDLE
100
AcDbLine
 62
7
  6
CONTINUOUS
 10
142.9547607982
 20
266.6621307402
 11
119.9547607982
 21
266.6621307402
  0
LINE
  5
419
100
AcDbEntity
  8
H_EXTERN_HANDLE
100
AcDbLine
 62
7
  6
CONTINUOUS
 10
752.1706718584
 20
267.1621310184
 11
786.1256456009
 21
267.1621310184
  0
LINE
  5
41A
100
AcDbEntity
  8
H_EXTERN_HANDLE
100
AcDbLine
 62
7
  6
CONTINUOUS
 10
804.215698116
 20
267.1621310184
 11
861.1706718585
 21
267.1621310184
  0
LINE
  5
41B
100
AcDbEntity
  8
BASIC_DEVICE
100
AcDbLine
 62
7
  6
CONTINUOUS
 10
822.253861016
 20
269.1621310184
 11
829.347586395
 21
269.1621310184
  0
LINE
  5
41C
100
AcDbEntity
  8
BASIC_DEVICE
100
AcDbLine
 62
1
  6
CONTINUOUS
 10
226.8547607982
 20
270.6121310183
 11
218.6547607982
 21
270.6121310183
  0
LINE
  5
41D
100
AcDbEntity
  8
BASIC_DEVICE
100
AcDbLine
 62
1
  6
CONTINUOUS
 10
811.6706718585
 20
271.3621310184
 11
813.6664777426
 21
271.3621310184
  0
LINE
  5
41E
100
AcDbEntity
  8
AXIS
100
AcDbLine
 62
4
  6
CONTINUOUS
 10
232.9547607982
 20
273.1621310183
 11
214.6547607982
 21
273.1621310183
  0
LINE
  5
41F
100
AcDbEntity
  8
H_EXTERN_HANDLE
100
AcDbLine
 62
4
  6
CONTINUOUS
 10
163.0068096282
 20
273.1621310184
 11
58.6849643191
 21
273.1621310184
  0
LINE
  5
420
100
AcDbEntity
  8
BASIC_DEVICE
100
AcDbLine
 62
1
  6
CONTINUOUS
 10
226.8547607982
 20
273.1621310183
 11
227.9547607982
 21
273.1621310183
  0
LINE
  5
421
100
AcDbEntity
  8
H_EXTERN_HANDLE
100
AcDbLine
 62
4
  6
CONTINUOUS
 10
738.1790962822
 20
273.1621310184
 11
1005.0713502703
 21
273.1621310184
  0
LINE
  5
422
100
AcDbEntity
  8
AXIS
100
AcDbLine
 62
4
  6
CONTINUOUS
 10
779.5706718585
 20
273.1621310184
 11
816.7706718585
 21
273.1621310184
  0
LINE
  5
423
100
AcDbEntity
  8
HANDLE_FIXING_HOLES
100
AcDbLine
 62
4
  6
CONTINUOUS
 10
1160.4917657905
 20
273.1621310184
 11
1224.3749287888
 21
273.1621310184
  0
LINE
  5
424
100
AcDbEntity
  8
BASIC_DEVICE
100
AcDbLine
 62
1
  6
CONTINUOUS
 10
813.6664777426
 20
274.9621310184
 11
811.6706718585
 21
274.9621310184
  0
LINE
  5
425
100
AcDbEntity
  8
BASIC_DEVICE
100
AcDbLine
 62
1
  6
CONTINUOUS
 10
218.6547607982
 20
275.7121310183
 11
226.8547607982
 21
275.7121310183
  0
LINE
  5
426
100
AcDbEntity
  8
H_EXTERN_HANDLE
100
AcDbLine
 62
7
  6
CONTINUOUS
 10
861.1706718585
 20
279.1621310183
 11
804.215698116
 21
279.1621310184
  0
LINE
  5
427
100
AcDbEntity
  8
H_EXTERN_HANDLE
100
AcDbLine
 62
7
  6
CONTINUOUS
 10
786.1256456009
 20
279.1621310184
 11
752.1706718585
 21
279.1621310184
  0
LINE
  5
428
100
AcDbEntity
  8
H_EXTERN_HANDLE
100
AcDbLine
 62
7
  6
CONTINUOUS
 10
119.9547607982
 20
279.6621307402
 11
142.9547607982
 21
279.6621307402
  0
LINE
  5
429
100
AcDbEntity
  8
BASIC_DEVICE
100
AcDbLine
 62
7
  6
CONTINUOUS
 10
225.7547607982
 20
280.6621310183
 11
203.9547607982
 21
280.6621310183
  0
LINE
  5
42A
100
AcDbEntity
  8
BASIC_DEVICE
100
AcDbLine
 62
7
  6
CONTINUOUS
 10
790.6706718584
 20
280.6621310184
 11
805.6706718584
 21
280.6621310184
  0
LINE
  5
42B
100
AcDbEntity
  8
BASIC_DEVICE
100
AcDbLine
 62
1
  6
CONTINUOUS
 10
805.8206718585
 20
280.8121310184
 11
790.5206718585
 21
280.8121310184
  0
LINE
  5
42C
100
AcDbEntity
  8
H_EXTERN_HANDLE
100
AcDbLine
 62
7
  6
CONTINUOUS
 10
111.3687244151
 20
281.6621307402
 11
119.9547607982
 21
281.6621307402
  0
LINE
  5
42D
100
AcDbEntity
  8
H_EXTERN_HANDLE
100
AcDbLine
 62
7
  6
CONTINUOUS
 10
67.4547607982
 20
283.4121307402
 11
65.9547607982
 21
283.4121307402
  0
LINE
  5
42E
100
AcDbEntity
  8
H_EXTERN_HANDLE
100
AcDbLine
 62
7
  6
CONTINUOUS
 10
987.1706718584
 20
283.6621310184
 11
824.6706718585
 21
283.6621310183
  0
LINE
  5
42F
100
AcDbEntity
  8
H_EXTERN_HANDLE
100
AcDbLine
 62
7
  6
CONTINUOUS
 10
771.6706718585
 20
283.6621310183
 11
753.1706718584
 21
283.6621310183
  0
LINE
  5
430
100
AcDbEntity
  8
H_EXTERN_HANDLE
100
AcDbLine
 62
7
  6
CONTINUOUS
 10
105.2043100287
 20
283.6621310184
 11
118.4547607982
 21
283.6621310184
  0
LINE
  5
431
100
AcDbEntity
  8
BASIC_DEVICE
100
AcDbLine
 62
1
  6
CONTINUOUS
 10
227.9547607982
 20
284.4127979287
 11
226.8547607982
 21
284.4127979287
  0
LINE
  5
432
100
AcDbEntity
  8
AM_12
100
AcDbLine
 62
4
  6
CONTINUOUS
 10
730.9517703337
 20
84.2568298291
 11
734.4517703337
 21
80.7568298291
  0
LINE
  5
433
100
AcDbEntity
  8
BASIC_DEVICE
100
AcDbLine
 62
7
  6
CONTINUOUS
 10
773.6706718587
 20
85.1621310183
 11
778.6706718587
 21
80.1621310183
  0
LINE
  5
434
100
AcDbEntity
  8
INTER_PHASE_SCHIELDS
100
AcDbLine
 62
5
  6
CONTINUOUS
 10
285.2547607982
 20
404.9621310183
 11
291.2547607982
 21
410.9621310183
  0
LINE
  5
435
100
AcDbEntity
  8
H_EXTERN_HANDLE
100
AcDbLine
 62
7
  6
CONTINUOUS
 10
104.7444498766
 20
283.6520561201
 11
70.5605949535
 21
282.1534951132
  0
LINE
  5
436
100
AcDbEntity
  8
H_EXTERN_HANDLE
100
AcDbLine
 62
7
  6
CONTINUOUS
 10
824.6706718585
 20
287.4121310184
 11
771.6706718585
 21
287.4121310184
  0
LINE
  5
437
100
AcDbEntity
  8
H_EXTERN_HANDLE
100
AcDbLine
 62
7
  6
CONTINUOUS
 10
67.4547607982
 20
287.4121307403
 11
106.9547607982
 21
287.4121307403
  0
LINE
  5
438
100
AcDbEntity
  8
BASIC_DEVICE
100
AcDbLine
 62
1
  6
CONTINUOUS
 10
229.9547607982
 20
288.7621310183
 11
225.7547607982
 21
288.7621310183
  0
LINE
  5
439
100
AcDbEntity
  8
HANDLE_FIXING_HOLES
100
AcDbLine
 62
4
  6
CONTINUOUS
 10
1184.6550979044
 20
298.1621310184
 11
1200.5122927147
 21
298.1621310184
  0
LINE
  5
43A
100
AcDbEntity
  8
H_EXTERN_HANDLE
100
AcDbLine
 62
7
  6
CONTINUOUS
 10
142.9547607982
 20
303.1621307403
 11
116.9547607982
 21
303.1621307403
  0
LINE
  5
43B
100
AcDbEntity
  8
H_EXTERN_HANDLE
100
AcDbLine
 62
1
  6
CONTINUOUS
 10
798.1706718585
 20
303.6621310184
 11
814.1706718585
 21
303.6621310184
  0
LINE
  5
43C
100
AcDbEntity
  8
TEXT
100
AcDbLine
 62
2
  6
CONTINUOUS
 10
799.4866626267
 20
305.2112681179
 11
797.4866626267
 21
305.2112681179
  0
LINE
  5
43D
100
AcDbEntity
  8
TEXT
100
AcDbLine
 62
2
  6
CONTINUOUS
 10
797.4866626267
 20
305.2112681179
 11
799.4866626267
 21
305.2112681179
  0
LINE
  5
43E
100
AcDbEntity
  8
TEXT
100
AcDbLine
 62
2
  6
CONTINUOUS
 10
799.4866626267
 20
311.2112681179
 11
797.4866626267
 21
311.2112681179
  0
LINE
  5
43F
100
AcDbEntity
  8
TEXT
100
AcDbLine
 62
2
  6
CONTINUOUS
 10
797.4866626267
 20
311.2112681179
 11
797.4866626267
 21
305.2112681179
  0
LINE
  5
440
100
AcDbEntity
  8
TEXT
100
AcDbLine
 62
2
  6
CONTINUOUS
 10
799.4866626267
 20
305.2112681179
 11
799.4866626267
 21
311.2112681179
  0
HATCH
  5
441
100
AcDbEntity
  8
TEXT
100
AcDbHatch
 62
2
  6
CONTINUOUS
 10
0.0
 20
0.0
 30
0.0
210
0.0
220
0.0
230
1.0
  2
SOLID
 70
1
 71
1
 91
1
 92
1
 93
4
 72
1
 10
799.4866626267
 20
305.2112681179
 11
799.4866626267
 21
311.2112681179
 72
1
 10
799.4866626267
 20
311.2112681179
 11
797.4866626267
 21
311.2112681179
 72
1
 10
797.4866626267
 20
311.2112681179
 11
797.4866626267
 21
305.2112681179
 72
1
 10
797.4866626267
 20
305.2112681179
 11
799.4866626267
 21
305.2112681179
 97
4
330
43D
330
43E
330
43F
330
440
 75
0
 76
1
 98
1
 10
0.0
 20
0.0
  0
LINE
  5
442
100
AcDbEntity
  8
BASIC_DEVICE
100
AcDbLine
 62
7
  6
CONTINUOUS
 10
974.701760772
 20
307.4121310183
 11
968.6395829455
 21
307.4121310183
  0
LINE
  5
443
100
AcDbEntity
  8
BASIC_DEVICE
100
AcDbLine
 62
7
  6
CONTINUOUS
 10
621.6395829455
 20
307.4121310183
 11
627.701760772
 21
307.4121310183
  0
LINE
  5
444
100
AcDbEntity
  8
TEXT
100
AcDbLine
 62
2
  6
CONTINUOUS
 10
799.4866626267
 20
311.2112681179
 11
797.4866626267
 21
311.2112681179
  0
LINE
  5
445
100
AcDbEntity
  8
H_EXTERN_HANDLE
100
AcDbLine
 62
1
  6
CONTINUOUS
 10
814.1706718585
 20
312.6621310184
 11
798.1706718585
 21
312.6621310184
  0
LINE
  5
446
100
AcDbEntity
  8
H_EXTERN_HANDLE
100
AcDbLine
 62
7
  6
CONTINUOUS
 10
838.1706718585
 20
313.1621310184
 11
798.1706718585
 21
313.1621310184
  0
LINE
  5
447
100
AcDbEntity
  8
H_EXTERN_HANDLE
100
AcDbLine
 62
7
  6
CONTINUOUS
 10
142.9547607982
 20
313.1621310184
 11
157.9547607982
 21
313.1621310184
  0
LINE
  5
448
100
AcDbEntity
  8
BASIC_DEVICE
100
AcDbLine
 62
7
  6
CONTINUOUS
 10
627.701760772
 20
317.9121310183
 11
621.6395829455
 21
317.9121310183
  0
LINE
  5
449
100
AcDbEntity
  8
BASIC_DEVICE
100
AcDbLine
 62
7
  6
CONTINUOUS
 10
968.6395829455
 20
317.9121310183
 11
974.701760772
 21
317.9121310183
  0
LINE
  5
44A
100
AcDbEntity
  8
BASIC_DEVICE
100
AcDbLine
 62
7
  6
CONTINUOUS
 10
369.9547607982
 20
320.6621310183
 11
367.9547607982
 21
320.6621310183
  0
LINE
  5
44B
100
AcDbEntity
  8
TERMINAL_SCHROUD
100
AcDbLine
 62
2
  6
CONTINUOUS
 10
984.1706718587
 20
322.6621310183
 11
863.6706718587
 21
322.6621310183
  0
LINE
  5
44C
100
AcDbEntity
  8
TERMINAL_SCHROUD
100
AcDbLine
 62
2
  6
CONTINUOUS
 10
732.6706718587
 20
322.6621310183
 11
612.1706718587
 21
322.6621310183
  0
LINE
  5
44D
100
AcDbEntity
  8
BASIC_DEVICE
100
AcDbLine
 62
7
  6
CONTINUOUS
 10
624.6706718587
 20
322.6621310183
 11
612.1706718587
 21
322.6621310183
  0
LINE
  5
44E
100
AcDbEntity
  8
TERMINAL_SCHROUD
100
AcDbLine
 62
2
  6
CONTINUOUS
 10
281.9547607982
 20
322.6621310183
 11
283.9547607982
 21
322.6621310183
  0
LINE
  5
44F
100
AcDbEntity
  8
BASIC_DEVICE
100
AcDbLine
 62
7
  6
CONTINUOUS
 10
283.9547607982
 20
322.6621310183
 11
344.9547607982
 21
322.6621310183
  0
LINE
  5
450
100
AcDbEntity
  8
BASIC_DEVICE
100
AcDbLine
 62
7
  6
CONTINUOUS
 10
971.6706718587
 20
322.6621310183
 11
984.1706718587
 21
322.6621310183
  0
LINE
  5
451
100
AcDbEntity
  8
BASIC_DEVICE
100
AcDbLine
 62
7
  6
CONTINUOUS
 10
886.201760772
 20
327.4121310183
 11
880.1395829455
 21
327.4121310183
  0
LINE
  5
452
100
AcDbEntity
  8
BASIC_DEVICE
100
AcDbLine
 62
7
  6
CONTINUOUS
 10
710.1395829455
 20
327.4121310183
 11
716.201760772
 21
327.4121310183
  0
LINE
  5
453
100
AcDbEntity
  8
AXIS
100
AcDbLine
 62
4
  6
CONTINUOUS
 10
617.1706718587
 20
332.6621310183
 11
632.1706718587
 21
332.6621310183
  0
LINE
  5
454
100
AcDbEntity
  8
AXIS
100
AcDbLine
 62
4
  6
CONTINUOUS
 10
964.1706718587
 20
332.6621310183
 11
979.1706718587
 21
332.6621310183
  0
LINE
  5
455
100
AcDbEntity
  8
BASIC_DEVICE
100
AcDbLine
 62
7
  6
CONTINUOUS
 10
618.6084940322
 20
177.6621310183
 11
621.6395829455
 21
172.4121310183
  0
LINE
  5
456
100
AcDbEntity
  8
BASIC_DEVICE
100
AcDbLine
 62
7
  6
CONTINUOUS
 10
630.7328496852
 20
177.6621310183
 11
627.701760772
 21
182.9121310183
  0
LINE
  5
457
100
AcDbEntity
  8
0
100
AcDbLine
 62
1
  6
CONTINUOUS
 10
494.1068449807
 20
824.7345723936
 11
494.1068449807
 21
745.9345723936
  0
LINE
  5
458
100
AcDbEntity
  8
0
100
AcDbLine
 62
7
  6
CONTINUOUS
 10
520.3068449807
 20
824.7345723936
 11
520.3068449807
 21
745.9345723936
  0
LINE
  5
459
100
AcDbEntity
  8
BASIC_DEVICE
100
AcDbLine
 62
1
  6
CONTINUOUS
 10
780.9685621859
 20
846.2923195264
 11
779.9685621859
 21
845.2923195264
  0
LINE
  5
45A
100
AcDbEntity
  8
BASIC_DEVICE
100
AcDbLine
 62
1
  6
CONTINUOUS
 10
217.6547607982
 20
274.7121310183
 11
218.6547607982
 21
275.7121310183
  0
LINE
  5
45B
100
AcDbEntity
  8
INTER_PHASE_SCHIELDS
100
AcDbLine
 62
5
  6
CONTINUOUS
 10
291.8547607982
 20
336.9621310183
 11
289.8547607982
 21
334.9621310183
  0
LINE
  5
45C
100
AcDbEntity
  8
INTER_PHASE_SCHIELDS
100
AcDbLine
 62
5
  6
CONTINUOUS
 10
852.6706718587
 20
334.9621310183
 11
850.6706718587
 21
334.9621310183
  0
LINE
  5
45D
100
AcDbEntity
  8
INTER_PHASE_SCHIELDS
100
AcDbLine
 62
5
  6
CONTINUOUS
 10
732.6706718587
 20
334.9621310183
 11
730.6706718587
 21
334.9621310183
  0
LINE
  5
45E
100
AcDbEntity
  8
INTER_PHASE_SCHIELDS
100
AcDbLine
 62
5
  6
CONTINUOUS
 10
365.9547607982
 20
334.9621310183
 11
363.3547607982
 21
334.9621310183
  0
LINE
  5
45F
100
AcDbEntity
  8
INTER_PHASE_SCHIELDS
100
AcDbLine
 62
5
  6
CONTINUOUS
 10
289.8547607982
 20
334.9621310183
 11
287.2547607982
 21
334.9621310183
  0
LINE
  5
460
100
AcDbEntity
  8
BASIC_DEVICE
100
AcDbLine
 62
7
  6
CONTINUOUS
 10
716.201760772
 20
337.9121310183
 11
710.1395829455
 21
337.9121310183
  0
LINE
  5
461
100
AcDbEntity
  8
BASIC_DEVICE
100
AcDbLine
 62
7
  6
CONTINUOUS
 10
880.1395829455
 20
337.9121310183
 11
886.201760772
 21
337.9121310183
  0
LINE
  5
462
100
AcDbEntity
  8
INTER_PHASE_SCHIELDS
100
AcDbLine
 62
5
  6
CONTINUOUS
 10
290.3547607982
 20
338.7621310183
 11
291.8547607982
 21
338.7621310183
  0
LINE
  5
463
100
AcDbEntity
  8
INTER_PHASE_SCHIELDS
100
AcDbLine
 62
5
  6
CONTINUOUS
 10
361.3547607982
 20
338.7621310183
 11
362.8547607982
 21
338.7621310183
  0
LINE
  5
464
100
AcDbEntity
  8
BASIC_DEVICE
100
AcDbLine
 62
7
  6
CONTINUOUS
 10
858.1706718584
 20
340.1621310184
 11
738.1706718584
 21
340.1621310184
  0
LINE
  5
465
100
AcDbEntity
  8
INTER_PHASE_SCHIELDS
100
AcDbLine
 62
5
  6
CONTINUOUS
 10
367.9547607982
 20
341.9621310183
 11
365.9547607982
 21
341.9621310183
  0
LINE
  5
466
100
AcDbEntity
  8
INTER_PHASE_SCHIELDS
100
AcDbLine
 62
5
  6
CONTINUOUS
 10
358.3547607982
 20
341.9621310183
 11
294.8547607982
 21
341.9621310183
  0
LINE
  5
467
100
AcDbEntity
  8
INTER_PHASE_SCHIELDS
100
AcDbLine
 62
5
  6
CONTINUOUS
 10
287.2547607982
 20
341.9621310183
 11
285.2547607982
 21
341.9621310183
  0
LINE
  5
468
100
AcDbEntity
  8
INTER_PHASE_SCHIELDS
100
AcDbLine
 62
5
  6
CONTINUOUS
 10
855.1706718587
 20
345.1621310183
 11
852.6706718587
 21
345.1621310183
  0
LINE
  5
469
100
AcDbEntity
  8
INTER_PHASE_SCHIELDS
100
AcDbLine
 62
5
  6
CONTINUOUS
 10
850.6706718587
 20
345.1621310183
 11
848.1706718587
 21
345.1621310183
  0
LINE
  5
46A
100
AcDbEntity
  8
INTER_PHASE_SCHIELDS
100
AcDbLine
 62
5
  6
CONTINUOUS
 10
735.1706718587
 20
345.1621310183
 11
732.6706718587
 21
345.1621310183
  0
LINE
  5
46B
100
AcDbEntity
  8
INTER_PHASE_SCHIELDS
100
AcDbLine
 62
5
  6
CONTINUOUS
 10
730.6706718587
 20
345.1621310183
 11
728.1706718587
 21
345.1621310183
  0
LINE
  5
46C
100
AcDbEntity
  8
BASIC_DEVICE
100
AcDbLine
 62
7
  6
CONTINUOUS
 10
229.9547607982
 20
345.1621310183
 11
369.9547607982
 21
345.1621310183
  0
LINE
  5
46D
100
AcDbEntity
  8
INTER_PHASE_SCHIELDS
100
AcDbLine
 62
5
  6
CONTINUOUS
 10
365.9547607982
 20
345.1621310183
 11
367.9547607982
 21
345.1621310183
  0
LINE
  5
46E
100
AcDbEntity
  8
BASIC_DEVICE
100
AcDbLine
 62
7
  6
CONTINUOUS
 10
733.1706718584
 20
345.1621310184
 11
863.1706718584
 21
345.1621310184
  0
LINE
  5
46F
100
AcDbEntity
  8
BASIC_DEVICE
100
AcDbLine
 62
7
  6
CONTINUOUS
 10
798.1706718587
 20
345.1632169558
 11
612.1706718587
 21
345.1621310183
  0
LINE
  5
470
100
AcDbEntity
  8
BASIC_DEVICE
100
AcDbLine
 62
7
  6
CONTINUOUS
 10
984.1706718587
 20
345.1621310183
 11
798.1706718587
 21
345.1632169558
  0
LINE
  5
471
100
AcDbEntity
  8
INTER_PHASE_SCHIELDS
100
AcDbLine
 62
5
  6
CONTINUOUS
 10
850.6706718587
 20
345.6621310183
 11
849.6706718587
 21
345.6621310183
  0
LINE
  5
472
100
AcDbEntity
  8
TERMINAL_SCHROUD
100
AcDbLine
 62
2
  6
CONTINUOUS
 10
863.6706718587
 20
345.6621310183
 11
732.6706718587
 21
345.6621310183
  0
LINE
  5
473
100
AcDbEntity
  8
INTER_PHASE_SCHIELDS
100
AcDbLine
 62
5
  6
CONTINUOUS
 10
730.6706718587
 20
345.6621310183
 11
729.6706718587
 21
345.6621310183
  0
LINE
  5
474
100
AcDbEntity
  8
INTER_PHASE_SCHIELDS
100
AcDbLine
 62
5
  6
CONTINUOUS
 10
354.4547607982
 20
345.6621310183
 11
298.6547607982
 21
345.6621310183
  0
LINE
  5
475
100
AcDbEntity
  8
INTER_PHASE_SCHIELDS
100
AcDbLine
 62
5
  6
CONTINUOUS
 10
732.6706718587
 20
345.6621310183
 11
733.6706718587
 21
345.6621310183
  0
LINE
  5
476
100
AcDbEntity
  8
INTER_PHASE_SCHIELDS
100
AcDbLine
 62
5
  6
CONTINUOUS
 10
852.6706718587
 20
345.6621310183
 11
853.6706718587
 21
345.6621310183
  0
LINE
  5
477
100
AcDbEntity
  8
INTER_PHASE_SCHIELDS
100
AcDbLine
 62
5
  6
CONTINUOUS
 10
354.4547607982
 20
347.6621310183
 11
298.6547607982
 21
347.6621310183
  0
LINE
  5
478
100
AcDbEntity
  8
INTER_PHASE_SCHIELDS
100
AcDbLine
 62
5
  6
CONTINUOUS
 10
367.9547607982
 20
360.1621310183
 11
365.9547607982
 21
360.1621310183
  0
LINE
  5
479
100
AcDbEntity
  8
AXIS
100
AcDbLine
 62
4
  6
CONTINUOUS
 10
338.9547607982
 20
370.1621310183
 11
313.9547607982
 21
370.1621310183
  0
LINE
  5
47A
100
AcDbEntity
  8
TERMINAL_SCHROUD
100
AcDbLine
 62
2
  6
CONTINUOUS
 10
612.1706718587
 20
377.6621310183
 11
984.1706718587
 21
377.6621310183
  0
LINE
  5
47B
100
AcDbEntity
  8
AM_12
100
AcDbLine
 62
4
  6
CONTINUOUS
 10
850.9517703337
 20
84.2568298291
 11
854.4517703337
 21
80.7568298291
  0
LINE
  5
47C
100
AcDbEntity
  8
BASIC_DEVICE
100
AcDbLine
 62
7
  6
CONTINUOUS
 10
893.6706718587
 20
85.1621310183
 11
898.6706718587
 21
80.1621310183
  0
LINE
  5
47D
100
AcDbEntity
  8
BASIC_DEVICE
100
AcDbLine
 62
7
  6
CONTINUOUS
 10
707.1084940322
 20
157.6621310183
 11
710.1395829455
 21
152.4121310183
  0
LINE
  5
47E
100
AcDbEntity
  8
BASIC_DEVICE
100
AcDbLine
 62
7
  6
CONTINUOUS
 10
618.6084940322
 20
312.6621310183
 11
621.6395829455
 21
307.4121310183
  0
LINE
  5
47F
100
AcDbEntity
  8
BASIC_DEVICE
100
AcDbLine
 62
7
  6
CONTINUOUS
 10
719.2328496852
 20
157.6621310183
 11
716.201760772
 21
162.9121310183
  0
LINE
  5
480
100
AcDbEntity
  8
BASIC_DEVICE
100
AcDbLine
 62
7
  6
CONTINUOUS
 10
630.7328496852
 20
312.6621310183
 11
627.701760772
 21
317.9121310183
  0
LINE
  5
481
100
AcDbEntity
  8
AXIS
100
AcDbLine
 62
4
  6
CONTINUOUS
 10
338.9547607982
 20
390.1621310183
 11
313.9547607982
 21
390.1621310183
  0
LINE
  5
482
100
AcDbEntity
  8
INTER_PHASE_SCHIELDS
100
AcDbLine
 62
5
  6
CONTINUOUS
 10
298.6547607982
 20
402.9621310183
 11
354.4547607982
 21
402.9621310183
  0
LINE
  5
483
100
AcDbEntity
  8
INTER_PHASE_SCHIELDS
100
AcDbLine
 62
5
  6
CONTINUOUS
 10
853.6706718587
 20
404.9621310183
 11
852.6706718587
 21
404.9621310183
  0
LINE
  5
484
100
AcDbEntity
  8
INTER_PHASE_SCHIELDS
100
AcDbLine
 62
5
  6
CONTINUOUS
 10
733.6706718587
 20
404.9621310183
 11
732.6706718587
 21
404.9621310183
  0
LINE
  5
485
100
AcDbEntity
  8
INTER_PHASE_SCHIELDS
100
AcDbLine
 62
5
  6
CONTINUOUS
 10
298.6547607982
 20
404.9621310183
 11
354.4547607982
 21
404.9621310183
  0
LINE
  5
486
100
AcDbEntity
  8
INTER_PHASE_SCHIELDS
100
AcDbLine
 62
5
  6
CONTINUOUS
 10
729.6706718587
 20
404.9621310183
 11
730.6706718587
 21
404.9621310183
  0
LINE
  5
487
100
AcDbEntity
  8
INTER_PHASE_SCHIELDS
100
AcDbLine
 62
5
  6
CONTINUOUS
 10
849.6706718587
 20
404.9621310183
 11
850.6706718587
 21
404.9621310183
  0
LINE
  5
488
100
AcDbEntity
  8
BASIC_DEVICE
100
AcDbLine
 62
7
  6
CONTINUOUS
 10
329.9547607982
 20
405.1621310183
 11
322.9547607982
 21
405.1621310183
  0
LINE
  5
489
100
AcDbEntity
  8
BASIC_DEVICE
100
AcDbLine
 62
7
  6
CONTINUOUS
 10
329.9547607982
 20
410.1621310183
 11
322.9547607982
 21
410.1621310183
  0
LINE
  5
48A
100
AcDbEntity
  8
BASIC_DEVICE
100
AcDbLine
 62
7
  6
CONTINUOUS
 10
658.6706718587
 20
410.1621310183
 11
711.6706718587
 21
410.1621310183
  0
LINE
  5
48B
100
AcDbEntity
  8
BASIC_DEVICE
100
AcDbLine
 62
7
  6
CONTINUOUS
 10
778.6706718587
 20
410.1621310183
 11
831.6706718587
 21
410.1621310183
  0
LINE
  5
48C
100
AcDbEntity
  8
BASIC_DEVICE
100
AcDbLine
 62
7
  6
CONTINUOUS
 10
898.6706718587
 20
410.1621310183
 11
951.6706718587
 21
410.1621310183
  0
LINE
  5
48D
100
AcDbEntity
  8
INTER_PHASE_SCHIELDS
100
AcDbLine
 62
5
  6
CONTINUOUS
 10
291.2547607982
 20
410.9621310183
 11
361.9547607982
 21
410.9621310183
  0
LINE
  5
48E
100
AcDbEntity
  8
INTER_PHASE_SCHIELDS
100
AcDbLine
 62
5
  6
CONTINUOUS
 10
730.6706718587
 20
410.9621310183
 11
732.6706718587
 21
410.9621310183
  0
LINE
  5
48F
100
AcDbEntity
  8
INTER_PHASE_SCHIELDS
100
AcDbLine
 62
5
  6
CONTINUOUS
 10
850.6706718587
 20
410.9621310183
 11
852.6706718587
 21
410.9621310183
  0
LINE
  5
490
100
AcDbEntity
  8
TERMINAL_SCHROUD
100
AcDbLine
 62
2
  6
CONTINUOUS
 10
612.1706718587
 20
427.6621310183
 11
984.1706718587
 21
427.6621310183
  0
LINE
  5
491
100
AcDbEntity
  8
BASIC_DEVICE
100
AcDbLine
 62
1
  6
CONTINUOUS
 10
773.9360985754
 20
273.1453862488
 11
788.5660418468
 21
260.8694062456
  0
LINE
  5
492
100
AcDbEntity
  8
TERMINAL_SCHROUD
100
AcDbLine
 62
2
  6
CONTINUOUS
 10
612.1706718587
 20
831.9923195264
 11
612.1706718587
 21
779.9923195264
  0
LINE
  5
493
100
AcDbEntity
  8
BASIC_DEVICE
100
AcDbLine
 62
7
  6
CONTINUOUS
 10
612.1706718587
 20
345.1621310183
 11
612.1706718587
 21
145.1621310183
  0
LINE
  5
494
100
AcDbEntity
  8
TERMINAL_SCHROUD
100
AcDbLine
 62
2
  6
CONTINUOUS
 10
612.1706718587
 20
322.6621310183
 11
612.1706718587
 21
470.6621310183
  0
LINE
  5
495
100
AcDbEntity
  8
BASIC_DEVICE
100
AcDbLine
 62
7
  6
CONTINUOUS
 10
612.1706718587
 20
693.9923195264
 11
612.1706718587
 21
779.9923195264
  0
LINE
  5
496
100
AcDbEntity
  8
AXIS
100
AcDbLine
 62
4
  6
CONTINUOUS
 10
624.6706718587
 20
150.1621310183
 11
624.6706718587
 21
165.1621310183
  0
LINE
  5
497
100
AcDbEntity
  8
AXIS
100
AcDbLine
 62
4
  6
CONTINUOUS
 10
624.6706718587
 20
325.1621310183
 11
624.6706718587
 21
340.1621310183
  0
LINE
  5
498
100
AcDbEntity
  8
H_EXTERN_HANDLE
100
AcDbLine
 62
3
  6
CONTINUOUS
 10
776.253259815
 20
294.3724362806
 11
769.8886383803
 21
300.7370577153
  0
LINE
  5
499
100
AcDbEntity
  8
H_EXTERN_HANDLE
100
AcDbLine
 62
1
  6
CONTINUOUS
 10
770.5957451615
 20
301.4441644965
 11
776.9603665962
 21
295.0795430618
  0
LINE
  5
49A
100
AcDbEntity
  8
BASIC_DEVICE
100
AcDbLine
 62
7
  6
CONTINUOUS
 10
711.6706718587
 20
410.1621310183
 11
716.6706718587
 21
405.1621310183
  0
LINE
  5
49B
100
AcDbEntity
  8
BASIC_DEVICE
100
AcDbLine
 62
7
  6
CONTINUOUS
 10
893.1706718587
 20
236.1621310183
 11
890.1706718587
 21
239.1621310183
  0
LINE
  5
49C
100
AcDbEntity
  8
BASIC_DEVICE
100
AcDbLine
 62
7
  6
CONTINUOUS
 10
878.1706718587
 20
251.1621310183
 11
875.1706718587
 21
254.1621310183
  0
LINE
  5
49D
100
AcDbEntity
  8
BASIC_DEVICE
100
AcDbLine
 62
7
  6
CONTINUOUS
 10
707.1084940322
 20
332.6621310183
 11
710.1395829455
 21
327.4121310183
  0
LINE
  5
49E
100
AcDbEntity
  8
BASIC_DEVICE
100
AcDbLine
 62
7
  6
CONTINUOUS
 10
719.2328496852
 20
332.6621310183
 11
716.201760772
 21
337.9121310183
  0
LINE
  5
49F
100
AcDbEntity
  8
BASIC_DEVICE
100
AcDbLine
 62
7
  6
CONTINUOUS
 10
634.6706718587
 20
345.1621310183
 11
634.6706718587
 21
332.6621310183
  0
LINE
  5
4A0
100
AcDbEntity
  8
BASIC_DEVICE
100
AcDbLine
 62
7
  6
CONTINUOUS
 10
634.6706718587
 20
145.1621310183
 11
634.6706718587
 21
157.6621310183
  0
LINE
  5
4A1
100
AcDbEntity
  8
BASIC_DEVICE
100
AcDbLine
 62
7
  6
CONTINUOUS
 10
634.6706718587
 20
718.9923195264
 11
634.6706718587
 21
779.9923195264
  0
LINE
  5
4A2
100
AcDbEntity
  8
BASIC_DEVICE
100
AcDbLine
 62
7
  6
CONTINUOUS
 10
636.6706718587
 20
695.9923195264
 11
636.6706718587
 21
693.9923195264
  0
LINE
  5
4A3
100
AcDbEntity
  8
BASIC_DEVICE
100
AcDbLine
 62
7
  6
CONTINUOUS
 10
653.6706718587
 20
145.1610450808
 11
653.6706718587
 21
85.1621310183
  0
LINE
  5
4A4
100
AcDbEntity
  8
BASIC_DEVICE
100
AcDbLine
 62
7
  6
CONTINUOUS
 10
653.6706718587
 20
345.1632169558
 11
653.6706718587
 21
405.1621310183
  0
LINE
  5
4A5
100
AcDbEntity
  8
BASIC_DEVICE
100
AcDbLine
 62
7
  6
CONTINUOUS
 10
653.6706718587
 20
733.9923195264
 11
653.6706718587
 21
740.9923195264
  0
LINE
  5
4A6
100
AcDbEntity
  8
AXIS
100
AcDbLine
 62
4
  6
CONTINUOUS
 10
665.1706718587
 20
730.9923195264
 11
665.1706718587
 21
743.9923195264
  0
LINE
  5
4A7
100
AcDbEntity
  8
TERMINAL_SCHROUD
100
AcDbLine
 62
2
  6
CONTINUOUS
 10
233.9547607982
 20
475.6621310183
 11
231.9547607982
 21
475.6621310183
  0
LINE
  5
4A8
100
AcDbEntity
  8
TERMINAL_SCHROUD
100
AcDbLine
 62
2
  6
CONTINUOUS
 10
617.1706718587
 20
475.6621310183
 11
979.1706718587
 21
475.6621310183
  0
LINE
  5
4A9
100
AcDbEntity
  8
AM_12
100
AcDbLine
 62
4
  6
CONTINUOUS
 10
730.9517703337
 20
409.5674322076
 11
734.4517703337
 21
406.0674322076
  0
LINE
  5
4AA
100
AcDbEntity
  8
AM_12
100
AcDbLine
 62
4
  6
CONTINUOUS
 10
874.7663600149
 20
285.4687143117
 11
878.2663600149
 21
281.9687143117
  0
LINE
  5
4AB
100
AcDbEntity
  8
BASIC_DEVICE
100
AcDbLine
 62
7
  6
CONTINUOUS
 10
880.1395829455
 20
152.4121310183
 11
877.1084940322
 21
157.6621310183
  0
LINE
  5
4AC
100
AcDbEntity
  8
INTER_PHASE_SCHIELDS
100
AcDbLine
 62
5
  6
CONTINUOUS
 10
728.1706718587
 20
145.1621310183
 11
729.6706718587
 21
136.1621310183
  0
LINE
  5
4AD
100
AcDbEntity
  8
AXIS
100
AcDbLine
 62
4
  6
CONTINUOUS
 10
687.1706718587
 20
776.9923195264
 11
687.1706718587
 21
784.9923195264
  0
LINE
  5
4AE
100
AcDbEntity
  8
AXIS
100
AcDbLine
 62
4
  6
CONTINUOUS
 10
705.1706718587
 20
730.9923195264
 11
705.1706718587
 21
743.9923195264
  0
LINE
  5
4AF
100
AcDbEntity
  8
BASIC_DEVICE
100
AcDbLine
 62
7
  6
CONTINUOUS
 10
711.1706718587
 20
797.9923195264
 11
711.1706718587
 21
779.9923195264
  0
LINE
  5
4B0
100
AcDbEntity
  8
BASIC_DEVICE
100
AcDbLine
 62
7
  6
CONTINUOUS
 10
711.1706718587
 20
260.1621310183
 11
711.1706718587
 21
230.1621310183
  0
LINE
  5
4B1
100
AcDbEntity
  8
BASIC_DEVICE
100
AcDbLine
 62
7
  6
CONTINUOUS
 10
716.6706718587
 20
740.9923195264
 11
716.6706718587
 21
733.9923195264
  0
LINE
  5
4B2
100
AcDbEntity
  8
BASIC_DEVICE
100
AcDbLine
 62
7
  6
CONTINUOUS
 10
716.6706718587
 20
405.1621310183
 11
716.6706718587
 21
345.1612560183
  0
LINE
  5
4B3
100
AcDbEntity
  8
BASIC_DEVICE
100
AcDbLine
 62
7
  6
CONTINUOUS
 10
716.6706718587
 20
85.1621310183
 11
716.6706718587
 21
145.1630060183
  0
LINE
  5
4B4
100
AcDbEntity
  8
INTER_PHASE_SCHIELDS
100
AcDbLine
 62
5
  6
CONTINUOUS
 10
363.3547607982
 20
155.3621310183
 11
361.3547607982
 21
153.3621310183
  0
LINE
  5
4B5
100
AcDbEntity
  8
AM_12
100
AcDbLine
 62
4
  6
CONTINUOUS
 10
981.5118260518
 20
221.1919647405
 11
985.0118260518
 21
217.6919647405
  0
LINE
  5
4B6
100
AcDbEntity
  8
BASIC_DEVICE
100
AcDbLine
 62
7
  6
CONTINUOUS
 10
831.6706718587
 20
410.1621310183
 11
836.6706718587
 21
405.1621310183
  0
LINE
  5
4B7
100
AcDbEntity
  8
AM_12
100
AcDbLine
 62
4
  6
CONTINUOUS
 10
813.6287775437
 20
430.2063897244
 11
817.1287775437
 21
426.7063897244
  0
LINE
  5
4B8
100
AcDbEntity
  8
AM_12
100
AcDbLine
 62
4
  6
CONTINUOUS
 10
850.9517703337
 20
409.5674322076
 11
854.4517703337
 21
406.0674322076
  0
LINE
  5
4B9
100
AcDbEntity
  8
BASIC_DEVICE
100
AcDbLine
 62
7
  6
CONTINUOUS
 10
886.201760772
 20
162.9121310183
 11
889.2328496852
 21
157.6621310183
  0
LINE
  5
4BA
100
AcDbEntity
  8
INTER_PHASE_SCHIELDS
100
AcDbLine
 62
5
  6
CONTINUOUS
 10
733.6706718587
 20
354.1621310183
 11
735.1706718587
 21
345.1621310183
  0
LINE
  5
4BB
100
AcDbEntity
  8
INTER_PHASE_SCHIELDS
100
AcDbLine
 62
5
  6
CONTINUOUS
 10
728.1706718587
 20
697.9923195264
 11
728.1706718587
 21
695.9923195264
  0
LINE
  5
4BC
100
AcDbEntity
  8
INTER_PHASE_SCHIELDS
100
AcDbLine
 62
5
  6
CONTINUOUS
 10
729.6706718587
 20
768.2923195264
 11
729.6706718587
 21
706.4923195264
  0
LINE
  5
4BD
100
AcDbEntity
  8
INTER_PHASE_SCHIELDS
100
AcDbLine
 62
5
  6
CONTINUOUS
 10
729.6706718587
 20
144.6621310183
 11
729.6706718587
 21
85.3621310183
  0
LINE
  5
4BE
100
AcDbEntity
  8
INTER_PHASE_SCHIELDS
100
AcDbLine
 62
5
  6
CONTINUOUS
 10
729.6706718587
 20
345.6621310183
 11
729.6706718587
 21
404.9621310183
  0
LINE
  5
4BF
100
AcDbEntity
  8
INTER_PHASE_SCHIELDS
100
AcDbLine
 62
5
  6
CONTINUOUS
 10
730.6706718587
 20
155.3621310183
 11
730.6706718587
 21
79.3621310183
  0
LINE
  5
4C0
100
AcDbEntity
  8
INTER_PHASE_SCHIELDS
100
AcDbLine
 62
5
  6
CONTINUOUS
 10
730.6706718587
 20
334.9621310183
 11
730.6706718587
 21
410.9621310183
  0
LINE
  5
4C1
100
AcDbEntity
  8
INTER_PHASE_SCHIELDS
100
AcDbLine
 62
5
  6
CONTINUOUS
 10
730.6706718587
 20
695.9923195264
 11
730.6706718587
 21
778.6923195264
  0
LINE
  5
4C2
100
AcDbEntity
  8
BASIC_DEVICE
100
AcDbLine
 62
7
  6
CONTINUOUS
 10
731.1706718587
 20
230.1621310183
 11
731.1706718587
 21
260.1621310183
  0
LINE
  5
4C3
100
AcDbEntity
  8
BASIC_DEVICE
100
AcDbLine
 62
7
  6
CONTINUOUS
 10
731.1706718587
 20
779.9923195264
 11
731.1706718587
 21
797.9923195264
  0
LINE
  5
4C4
100
AcDbEntity
  8
INTER_PHASE_SCHIELDS
100
AcDbLine
 62
5
  6
CONTINUOUS
 10
732.6706718587
 20
778.6923195264
 11
732.6706718587
 21
695.9923195264
  0
LINE
  5
4C5
100
AcDbEntity
  8
TERMINAL_SCHROUD
100
AcDbLine
 62
2
  6
CONTINUOUS
 10
732.6706718587
 20
345.6621310183
 11
732.6706718587
 21
322.6621310183
  0
LINE
  5
4C6
100
AcDbEntity
  8
INTER_PHASE_SCHIELDS
100
AcDbLine
 62
5
  6
CONTINUOUS
 10
732.6706718587
 20
79.3621310183
 11
732.6706718587
 21
155.3621310183
  0
LINE
  5
4C7
100
AcDbEntity
  8
INTER_PHASE_SCHIELDS
100
AcDbLine
 62
5
  6
CONTINUOUS
 10
732.6706718587
 20
334.9621310183
 11
732.6706718587
 21
410.9621310183
  0
LINE
  5
4C8
100
AcDbEntity
  8
TERMINAL_SCHROUD
100
AcDbLine
 62
2
  6
CONTINUOUS
 10
732.6706718587
 20
779.9923195264
 11
732.6706718587
 21
781.9923195264
  0
LINE
  5
4C9
100
AcDbEntity
  8
BASIC_DEVICE
100
AcDbLine
 62
7
  6
CONTINUOUS
 10
733.1706718584
 20
145.1621310184
 11
733.1706718584
 21
345.1621310184
  0
LINE
  5
4CA
100
AcDbEntity
  8
BASIC_DEVICE
100
AcDbLine
 62
7
  6
CONTINUOUS
 10
733.1706718587
 20
779.9923195264
 11
733.1706718587
 21
833.9923195264
  0
LINE
  5
4CB
100
AcDbEntity
  8
INTER_PHASE_SCHIELDS
100
AcDbLine
 62
5
  6
CONTINUOUS
 10
733.6706718587
 20
144.6621310183
 11
733.6706718587
 21
85.3621310183
  0
LINE
  5
4CC
100
AcDbEntity
  8
INTER_PHASE_SCHIELDS
100
AcDbLine
 62
5
  6
CONTINUOUS
 10
733.6706718587
 20
345.6621310183
 11
733.6706718587
 21
404.9621310183
  0
LINE
  5
4CD
100
AcDbEntity
  8
INTER_PHASE_SCHIELDS
100
AcDbLine
 62
5
  6
CONTINUOUS
 10
733.6706718587
 20
706.4923195264
 11
733.6706718587
 21
768.2923195264
  0
LINE
  5
4CE
100
AcDbEntity
  8
INTER_PHASE_SCHIELDS
100
AcDbLine
 62
5
  6
CONTINUOUS
 10
735.1706718587
 20
695.9923195264
 11
735.1706718587
 21
697.9923195264
  0
LINE
  5
4CF
100
AcDbEntity
  8
BASIC_DEVICE
100
AcDbLine
 62
7
  6
CONTINUOUS
 10
738.1706718584
 20
340.1621310184
 11
738.1706718584
 21
150.1621310184
  0
LINE
  5
4D0
100
AcDbEntity
  8
H_EXTERN_HANDLE
100
AcDbLine
 62
7
  6
CONTINUOUS
 10
752.1706718584
 20
282.6621310183
 11
752.1706718584
 21
263.6621310184
  0
LINE
  5
4D1
100
AcDbEntity
  8
H_EXTERN_HANDLE
100
AcDbLine
 62
7
  6
CONTINUOUS
 10
752.1706718584
 20
905.9923195264
 11
752.1706718584
 21
920.9923195264
  0
LINE
  5
4D2
100
AcDbEntity
  8
H_EXTERN_HANDLE
100
AcDbLine
 62
7
  6
CONTINUOUS
 10
752.1706718584
 20
946.9923195264
 11
752.1706718584
 21
997.9923195264
  0
LINE
  5
4D3
100
AcDbEntity
  8
H_EXTERN_HANDLE
100
AcDbLine
 62
7
  6
CONTINUOUS
 10
756.1706718585
 20
982.4923195264
 11
756.1706718584
 21
957.4923195265
  0
LINE
  5
4D4
100
AcDbEntity
  8
H_EXTERN_HANDLE
100
AcDbLine
 62
7
  6
CONTINUOUS
 10
765.1706718584
 20
977.9923195264
 11
765.1706718584
 21
961.9923195264
  0
LINE
  5
4D5
100
AcDbEntity
  8
H_MOVING
100
AcDbLine
 62
1
  6
CONTINUOUS
 10
768.1706718584
 20
946.9923195264
 11
768.1706718584
 21
920.9923195264
  0
LINE
  5
4D6
100
AcDbEntity
  8
H_EXTERN_HANDLE
100
AcDbLine
 62
7
  6
CONTINUOUS
 10
768.1706718584
 20
920.9923195264
 11
768.1706718584
 21
946.9923195264
  0
LINE
  5
4D7
100
AcDbEntity
  8
H_EXTERN_HANDLE
100
AcDbLine
 62
7
  6
CONTINUOUS
 10
770.0681808657
 20
992.4923195264
 11
770.0681808657
 21
986.4923195264
  0
LINE
  5
4D8
100
AcDbEntity
  8
H_EXTERN_HANDLE
100
AcDbLine
 62
7
  6
CONTINUOUS
 10
770.5681808657
 20
996.4923195264
 11
770.5681808657
 21
986.4923195264
  0
LINE
  5
4D9
100
AcDbEntity
  8
H_EXTERN_HANDLE
100
AcDbLine
 62
7
  6
CONTINUOUS
 10
771.6706718584
 20
986.4923195264
 11
771.6706718584
 21
955.4923195264
  0
LINE
  5
4DA
100
AcDbEntity
  8
H_EXTERN_HANDLE
100
AcDbLine
 62
7
  6
CONTINUOUS
 10
771.6706718585
 20
287.4121310184
 11
771.6706718585
 21
279.1621310184
  0
LINE
  5
4DB
100
AcDbEntity
  8
H_EXTERN_HANDLE
100
AcDbLine
 62
7
  6
CONTINUOUS
 10
771.6706718585
 20
267.1621310184
 11
771.6706718585
 21
258.9121310184
  0
LINE
  5
4DC
100
AcDbEntity
  8
H_MOVING
100
AcDbLine
 62
1
  6
CONTINUOUS
 10
789.1793074791
 20
993.386485225
 11
787.6807470273
 21
959.2026302776
  0
LINE
  5
4DD
100
AcDbEntity
  8
H_EXTERN_HANDLE
100
AcDbLine
 62
7
  6
CONTINUOUS
 10
824.6706718584
 20
986.4923195264
 11
825.7731628512
 21
996.4923195264
  0
LINE
  5
4DE
100
AcDbEntity
  8
INTER_PHASE_SCHIELDS
100
AcDbLine
 62
5
  6
CONTINUOUS
 10
728.1706718587
 20
345.1621310183
 11
729.6706718587
 21
354.1621310183
  0
LINE
  5
4DF
100
AcDbEntity
  8
BASIC_DEVICE
100
AcDbLine
 62
7
  6
CONTINUOUS
 10
621.6395829455
 20
317.9121310183
 11
618.6084940322
 21
312.6621310183
  0
LINE
  5
4E0
100
AcDbEntity
  8
BASIC_DEVICE
100
AcDbLine
 62
7
  6
CONTINUOUS
 10
627.701760772
 20
307.4121310183
 11
630.7328496852
 21
312.6621310183
  0
LINE
  5
4E1
100
AcDbEntity
  8
BASIC_DEVICE
100
AcDbLine
 62
7
  6
CONTINUOUS
 10
653.6706718587
 20
405.1621310183
 11
658.6706718587
 21
410.1621310183
  0
LINE
  5
4E2
100
AcDbEntity
  8
INTER_PHASE_SCHIELDS
100
AcDbLine
 62
5
  6
CONTINUOUS
 10
361.9547607982
 20
79.3621310183
 11
367.9547607982
 21
85.3621310183
  0
LINE
  5
4E3
100
AcDbEntity
  8
BASIC_DEVICE
100
AcDbLine
 62
7
  6
CONTINUOUS
 10
968.6395829455
 20
172.4121310183
 11
965.6084940322
 21
177.6621310183
  0
LINE
  5
4E4
100
AcDbEntity
  8
BASIC_DEVICE
100
AcDbLine
 62
7
  6
CONTINUOUS
 10
880.1395829455
 20
327.4121310183
 11
877.1084940322
 21
332.6621310183
  0
LINE
  5
4E5
100
AcDbEntity
  8
BASIC_DEVICE
100
AcDbLine
 62
7
  6
CONTINUOUS
 10
974.701760772
 20
182.9121310183
 11
977.7328496852
 21
177.6621310183
  0
LINE
  5
4E6
100
AcDbEntity
  8
BASIC_DEVICE
100
AcDbLine
 62
7
  6
CONTINUOUS
 10
886.201760772
 20
337.9121310183
 11
889.2328496852
 21
332.6621310183
  0
LINE
  5
4E7
100
AcDbEntity
  8
BASIC_DEVICE
100
AcDbLine
 62
7
  6
CONTINUOUS
 10
773.6706718587
 20
145.1610450808
 11
773.6706718587
 21
85.1621310183
  0
LINE
  5
4E8
100
AcDbEntity
  8
BASIC_DEVICE
100
AcDbLine
 62
7
  6
CONTINUOUS
 10
773.6706718587
 20
345.1632169558
 11
773.6706718587
 21
405.1621310183
  0
LINE
  5
4E9
100
AcDbEntity
  8
BASIC_DEVICE
100
AcDbLine
 62
7
  6
CONTINUOUS
 10
773.6706718587
 20
733.9923195264
 11
773.6706718587
 21
740.9923195264
  0
LINE
  5
4EA
100
AcDbEntity
  8
BASIC_DEVICE
100
AcDbLine
 62
1
  6
CONTINUOUS
 10
773.8839889028
 20
837.0923195264
 11
773.8839889028
 21
835.9923195264
  0
LINE
  5
4EB
100
AcDbEntity
  8
BASIC_DEVICE
100
AcDbLine
 62
1
  6
CONTINUOUS
 10
779.9685621859
 20
845.2923195264
 11
779.9685621859
 21
837.0923195264
  0
LINE
  5
4EC
100
AcDbEntity
  8
BASIC_DEVICE
100
AcDbLine
 62
1
  6
CONTINUOUS
 10
782.7269756474
 20
833.9923195264
 11
782.7269756474
 21
838.1923195264
  0
LINE
  5
4ED
100
AcDbEntity
  8
H_MOVING
100
AcDbLine
 62
1
  6
CONTINUOUS
 10
783.9206718584
 20
956.9923195264
 11
783.9206718585
 21
996.4923195264
  0
LINE
  5
4EE
100
AcDbEntity
  8
BASIC_DEVICE
100
AcDbLine
 62
1
  6
CONTINUOUS
 10
785.0685621859
 20
838.1923195264
 11
785.0685621859
 21
845.2923195264
  0
LINE
  5
4EF
100
AcDbEntity
  8
AXIS
100
AcDbLine
 62
4
  6
CONTINUOUS
 10
785.1706718587
 20
730.9923195264
 11
785.1706718587
 21
743.9923195264
  0
LINE
  5
4F0
100
AcDbEntity
  8
H_EXTERN_HANDLE
100
AcDbLine
 62
7
  6
CONTINUOUS
 10
785.2808148754
 20
245.5197435137
 11
785.2808148754
 21
235.2958982119
  0
LINE
  5
4F1
100
AcDbEntity
  8
H_EXTERN_HANDLE
100
AcDbLine
 62
7
  6
CONTINUOUS
 10
785.2808148754
 20
914.9923195264
 11
785.2808148754
 21
920.9923195264
  0
LINE
  5
4F2
100
AcDbEntity
  8
H_EXTERN_HANDLE
100
AcDbLine
 62
7
  6
CONTINUOUS
 10
786.7635444123
 20
997.9923195264
 11
786.7635444123
 21
996.4923195264
  0
LINE
  5
4F3
100
AcDbEntity
  8
H_MOVING
100
AcDbLine
 62
1
  6
CONTINUOUS
 10
787.6706735107
 20
958.74277167
 11
787.6706717766
 21
945.4923209005
  0
LINE
  5
4F4
100
AcDbEntity
  8
H_MOVING
100
AcDbLine
 62
1
  6
CONTINUOUS
 10
787.6706718584
 20
85.1621310183
 11
787.6706718584
 21
208.6086282525
  0
LINE
  5
4F5
100
AcDbEntity
  8
H_MOVING
100
AcDbLine
 62
1
  6
CONTINUOUS
 10
787.9206718584
 20
997.9923195264
 11
787.9206718584
 21
996.4923195264
  0
LINE
  5
4F6
100
AcDbEntity
  8
H_MOVING
100
AcDbLine
 62
1
  6
CONTINUOUS
 10
789.6706718584
 20
943.9923195264
 11
789.6706718584
 21
952.5783566765
  0
LINE
  5
4F7
100
AcDbEntity
  8
BASIC_DEVICE
100
AcDbLine
 62
1
  6
CONTINUOUS
 10
790.5206718585
 20
280.8121310184
 11
790.5206718585
 21
265.5121310184
  0
LINE
  5
4F8
100
AcDbEntity
  8
BASIC_DEVICE
100
AcDbLine
 62
7
  6
CONTINUOUS
 10
790.6706718584
 20
265.6621310184
 11
790.6706718584
 21
280.6621310184
  0
LINE
  5
4F9
100
AcDbEntity
  8
BASIC_DEVICE
100
AcDbLine
 62
7
  6
CONTINUOUS
 10
790.6706718587
 20
838.1923195264
 11
790.6706718587
 21
859.9923195264
  0
LINE
  5
4FA
100
AcDbEntity
  8
H_MOVING
100
AcDbLine
 62
1
  6
CONTINUOUS
 10
791.6706718584
 20
920.9923195264
 11
791.6706718584
 21
943.9923195264
  0
LINE
  5
4FB
100
AcDbEntity
  8
BASIC_DEVICE
100
AcDbLine
 62
7
  6
CONTINUOUS
 10
794.1706718584
 20
241.8571793334
 11
794.1706718584
 21
248.9134197122
  0
LINE
  5
4FC
100
AcDbEntity
  8
TEXT
100
AcDbLine
 62
2
  6
CONTINUOUS
 10
797.4866626267
 20
311.2112681179
 11
797.4866626267
 21
305.2112681179
  0
LINE
  5
4FD
100
AcDbEntity
  8
AXIS
100
AcDbLine
 62
4
  6
CONTINUOUS
 10
798.1706718585
 20
254.5621310184
 11
798.1706718585
 21
291.7621310184
  0
LINE
  5
4FE
100
AcDbEntity
  8
H_EXTERN_HANDLE
100
AcDbLine
 62
4
  6
CONTINUOUS
 10
798.1706718585
 20
215.4038762205
 11
798.1706718585
 21
328.834327283
  0
LINE
  5
4FF
100
AcDbEntity
  8
AXIS
100
AcDbLine
 62
4
  6
CONTINUOUS
 10
798.1706718587
 20
830.9923195264
 11
798.1706718587
 21
841.1923195264
  0
LINE
  5
500
100
AcDbEntity
  8
H_EXTERN_HANDLE
100
AcDbLine
 62
4
  6
CONTINUOUS
 10
798.1706718584
 20
902.9923195264
 11
798.1706718585
 21
998.9923195264
  0
LINE
  5
501
100
AcDbEntity
  8
TEXT
100
AcDbLine
 62
2
  6
CONTINUOUS
 10
799.4866626267
 20
311.2112681179
 11
799.4866626267
 21
305.2112681179
  0
LINE
  5
502
100
AcDbEntity
  8
H_EXTERN_HANDLE
100
AcDbLine
 62
7
  6
CONTINUOUS
 10
803.5777993046
 20
997.9923195264
 11
803.5777993046
 21
996.4923195264
  0
LINE
  5
503
100
AcDbEntity
  8
H_MOVING
100
AcDbLine
 62
1
  6
CONTINUOUS
 10
804.6706718584
 20
943.9923195264
 11
804.6706718584
 21
920.9923195264
  0
LINE
  5
504
100
AcDbEntity
  8
BASIC_DEVICE
100
AcDbLine
 62
7
  6
CONTINUOUS
 10
805.6706718587
 20
859.9923195264
 11
805.6706718587
 21
838.1923195264
  0
LINE
  5
505
100
AcDbEntity
  8
BASIC_DEVICE
100
AcDbLine
 62
7
  6
CONTINUOUS
 10
805.6706718584
 20
280.6621310184
 11
805.6706718584
 21
265.6621310184
  0
LINE
  5
506
100
AcDbEntity
  8
BASIC_DEVICE
100
AcDbLine
 62
1
  6
CONTINUOUS
 10
805.8206718585
 20
265.5121310184
 11
805.8206718585
 21
280.8121310184
  0
LINE
  5
507
100
AcDbEntity
  8
H_MOVING
100
AcDbLine
 62
1
  6
CONTINUOUS
 10
806.6706718584
 20
952.5783559095
 11
806.6706718584
 21
943.9923195264
  0
LINE
  5
508
100
AcDbEntity
  8
H_MOVING
100
AcDbLine
 62
1
  6
CONTINUOUS
 10
808.4206718584
 20
996.4923195264
 11
808.4206718584
 21
997.9923195264
  0
LINE
  5
509
100
AcDbEntity
  8
H_MOVING
100
AcDbLine
 62
1
  6
CONTINUOUS
 10
808.6706721366
 20
958.7427702959
 11
808.6706721366
 21
945.4923195264
  0
LINE
  5
50A
100
AcDbEntity
  8
H_MOVING
100
AcDbLine
 62
1
  6
CONTINUOUS
 10
808.6706718584
 20
208.6086282525
 11
808.6706718584
 21
85.1621310183
  0
LINE
  5
50B
100
AcDbEntity
  8
BASIC_DEVICE
100
AcDbLine
 62
1
  6
CONTINUOUS
 10
811.6706718585
 20
274.9621310184
 11
811.6706718585
 21
271.3621310184
  0
LINE
  5
50C
100
AcDbEntity
  8
H_MOVING
100
AcDbLine
 62
1
  6
CONTINUOUS
 10
812.4206718584
 20
956.9923195264
 11
812.4206718585
 21
996.4923195264
  0
LINE
  5
50D
100
AcDbEntity
  8
BASIC_DEVICE
100
AcDbLine
 62
1
  6
CONTINUOUS
 10
813.61436807
 20
833.9923195264
 11
813.61436807
 21
838.1923195264
  0
LINE
  5
50E
100
AcDbEntity
  8
H_EXTERN_HANDLE
100
AcDbLine
 62
1
  6
CONTINUOUS
 10
814.1706718585
 20
303.6621310184
 11
814.1706718585
 21
312.6621310184
  0
LINE
  5
50F
100
AcDbEntity
  8
INTER_PHASE_SCHIELDS
100
AcDbLine
 62
5
  6
CONTINUOUS
 10
733.6706718587
 20
136.1621310183
 11
735.1706718587
 21
145.1621310183
  0
LINE
  5
510
100
AcDbEntity
  8
BASIC_DEVICE
100
AcDbLine
 62
7
  6
CONTINUOUS
 10
710.1395829455
 20
337.9121310183
 11
707.1084940322
 21
332.6621310183
  0
LINE
  5
511
100
AcDbEntity
  8
BASIC_DEVICE
100
AcDbLine
 62
7
  6
CONTINUOUS
 10
621.6395829455
 20
182.9121310183
 11
618.6084940322
 21
177.6621310183
  0
LINE
  5
512
100
AcDbEntity
  8
BASIC_DEVICE
100
AcDbLine
 62
7
  6
CONTINUOUS
 10
716.201760772
 20
327.4121310183
 11
719.2328496852
 21
332.6621310183
  0
LINE
  5
513
100
AcDbEntity
  8
BASIC_DEVICE
100
AcDbLine
 62
7
  6
CONTINUOUS
 10
627.701760772
 20
172.4121310183
 11
630.7328496852
 21
177.6621310183
  0
LINE
  5
514
100
AcDbEntity
  8
AM_12
100
AcDbLine
 62
4
  6
CONTINUOUS
 10
730.9517703337
 20
406.0674322076
 11
734.4517703337
 21
409.5674322076
  0
LINE
  5
515
100
AcDbEntity
  8
BASIC_DEVICE
100
AcDbLine
 62
7
  6
CONTINUOUS
 10
951.6706718587
 20
410.1621310183
 11
956.6706718587
 21
405.1621310183
  0
LINE
  5
516
100
AcDbEntity
  8
INTER_PHASE_SCHIELDS
100
AcDbLine
 62
5
  6
CONTINUOUS
 10
848.1706718587
 20
145.1621310183
 11
849.6706718587
 21
136.1621310183
  0
LINE
  5
517
100
AcDbEntity
  8
H_MOVING
100
AcDbLine
 62
1
  6
CONTINUOUS
 10
808.6605972383
 20
959.202630448
 11
807.1620362314
 21
993.386485371
  0
LINE
  5
518
100
AcDbEntity
  8
H_EXTERN_HANDLE
100
AcDbLine
 62
7
  6
CONTINUOUS
 10
824.6706718585
 20
258.9121310184
 11
824.6706718585
 21
267.1621310184
  0
LINE
  5
519
100
AcDbEntity
  8
H_EXTERN_HANDLE
100
AcDbLine
 62
7
  6
CONTINUOUS
 10
824.6706718585
 20
279.1621310183
 11
824.6706718585
 21
287.4121310184
  0
LINE
  5
51A
100
AcDbEntity
  8
H_EXTERN_HANDLE
100
AcDbLine
 62
7
  6
CONTINUOUS
 10
824.6706718584
 20
955.4923195264
 11
824.6706718584
 21
986.4923195264
  0
LINE
  5
51B
100
AcDbEntity
  8
AXIS
100
AcDbLine
 62
4
  6
CONTINUOUS
 10
825.1706718587
 20
730.9923195264
 11
825.1706718587
 21
743.9923195264
  0
LINE
  5
51C
100
AcDbEntity
  8
H_EXTERN_HANDLE
100
AcDbLine
 62
7
  6
CONTINUOUS
 10
825.7731628512
 20
986.4923195264
 11
825.7731628512
 21
996.4923195264
  0
LINE
  5
51D
100
AcDbEntity
  8
H_EXTERN_HANDLE
100
AcDbLine
 62
7
  6
CONTINUOUS
 10
826.2731628512
 20
986.4923195264
 11
826.2731628512
 21
992.4923195264
  0
LINE
  5
51E
100
AcDbEntity
  8
H_EXTERN_HANDLE
100
AcDbLine
 62
7
  6
CONTINUOUS
 10
828.1706718584
 20
943.9923195264
 11
828.1706718584
 21
920.9923195264
  0
LINE
  5
51F
100
AcDbEntity
  8
H_EXTERN_HANDLE
100
AcDbLine
 62
7
  6
CONTINUOUS
 10
828.1706718585
 20
313.1621310184
 11
828.1706718585
 21
283.6621310183
  0
LINE
  5
520
100
AcDbEntity
  8
H_MOVING
100
AcDbLine
 62
1
  6
CONTINUOUS
 10
828.1706718584
 20
920.9923195264
 11
828.1706718584
 21
946.9923195264
  0
LINE
  5
521
100
AcDbEntity
  8
H_EXTERN_HANDLE
100
AcDbLine
 62
7
  6
CONTINUOUS
 10
832.1706718584
 20
920.9923195264
 11
832.1706718584
 21
943.9923195264
  0
LINE
  5
522
100
AcDbEntity
  8
H_EXTERN_HANDLE
100
AcDbLine
 62
7
  6
CONTINUOUS
 10
835.1706718584
 20
948.2427702959
 11
835.1706718584
 21
943.9923195264
  0
LINE
  5
523
100
AcDbEntity
  8
H_EXTERN_HANDLE
100
AcDbLine
 62
7
  6
CONTINUOUS
 10
836.3386113684
 20
950.282883517
 11
836.3386113684
 21
948.2864025182
  0
LINE
  5
524
100
AcDbEntity
  8
BASIC_DEVICE
100
AcDbLine
 62
7
  6
CONTINUOUS
 10
836.6706718587
 20
740.9923195264
 11
836.6706718587
 21
733.9923195264
  0
LINE
  5
525
100
AcDbEntity
  8
BASIC_DEVICE
100
AcDbLine
 62
7
  6
CONTINUOUS
 10
836.6706718587
 20
405.1621310183
 11
836.6706718587
 21
345.1612560183
  0
LINE
  5
526
100
AcDbEntity
  8
BASIC_DEVICE
100
AcDbLine
 62
7
  6
CONTINUOUS
 10
836.6706718587
 20
85.1621310183
 11
836.6706718587
 21
145.1630060183
  0
LINE
  5
527
100
AcDbEntity
  8
H_EXTERN_HANDLE
100
AcDbLine
 62
7
  6
CONTINUOUS
 10
838.1706718584
 20
914.9923195264
 11
838.1706718584
 21
905.9923195264
  0
LINE
  5
528
100
AcDbEntity
  8
H_EXTERN_HANDLE
100
AcDbLine
 62
7
  6
CONTINUOUS
 10
838.1706718585
 20
283.6621310183
 11
838.1706718585
 21
313.1621310184
  0
LINE
  5
529
100
AcDbEntity
  8
H_EXTERN_HANDLE
100
AcDbLine
 62
7
  6
CONTINUOUS
 10
842.3386113684
 20
948.5105522547
 11
842.3386113684
 21
950.282883517
  0
LINE
  5
52A
100
AcDbEntity
  8
H_EXTERN_HANDLE
100
AcDbLine
 62
7
  6
CONTINUOUS
 10
844.3297724468
 20
950.5814196255
 11
844.3297724468
 21
948.5849386266
  0
LINE
  5
52B
100
AcDbEntity
  8
INTER_PHASE_SCHIELDS
100
AcDbLine
 62
5
  6
CONTINUOUS
 10
848.1706718587
 20
697.9923195264
 11
848.1706718587
 21
695.9923195264
  0
LINE
  5
52C
100
AcDbEntity
  8
INTER_PHASE_SCHIELDS
100
AcDbLine
 62
5
  6
CONTINUOUS
 10
849.6706718587
 20
768.2923195264
 11
849.6706718587
 21
706.4923195264
  0
LINE
  5
52D
100
AcDbEntity
  8
INTER_PHASE_SCHIELDS
100
AcDbLine
 62
5
  6
CONTINUOUS
 10
849.6706718587
 20
144.6621310183
 11
849.6706718587
 21
85.3621310183
  0
LINE
  5
52E
100
AcDbEntity
  8
INTER_PHASE_SCHIELDS
100
AcDbLine
 62
5
  6
CONTINUOUS
 10
849.6706718587
 20
345.6621310183
 11
849.6706718587
 21
404.9621310183
  0
LINE
  5
52F
100
AcDbEntity
  8
H_EXTERN_HANDLE
100
AcDbLine
 62
7
  6
CONTINUOUS
 10
850.3297724468
 20
948.8090883631
 11
850.3297724468
 21
950.5814196255
  0
LINE
  5
530
100
AcDbEntity
  8
INTER_PHASE_SCHIELDS
100
AcDbLine
 62
5
  6
CONTINUOUS
 10
850.6706718587
 20
155.3621310183
 11
850.6706718587
 21
79.3621310183
  0
LINE
  5
531
100
AcDbEntity
  8
INTER_PHASE_SCHIELDS
100
AcDbLine
 62
5
  6
CONTINUOUS
 10
850.6706718587
 20
334.9621310183
 11
850.6706718587
 21
410.9621310183
  0
LINE
  5
532
100
AcDbEntity
  8
INTER_PHASE_SCHIELDS
100
AcDbLine
 62
5
  6
CONTINUOUS
 10
850.6706718587
 20
695.9923195264
 11
850.6706718587
 21
778.6923195264
  0
LINE
  5
533
100
AcDbEntity
  8
H_EXTERN_HANDLE
100
AcDbLine
 62
7
  6
CONTINUOUS
 10
852.3209335252
 20
950.8799557339
 11
852.3209335252
 21
948.883474735
  0
LINE
  5
534
100
AcDbEntity
  8
INTER_PHASE_SCHIELDS
100
AcDbLine
 62
5
  6
CONTINUOUS
 10
852.6706718587
 20
778.6923195264
 11
852.6706718587
 21
695.9923195264
  0
LINE
  5
535
100
AcDbEntity
  8
INTER_PHASE_SCHIELDS
100
AcDbLine
 62
5
  6
CONTINUOUS
 10
852.6706718587
 20
79.3621310183
 11
852.6706718587
 21
155.3621310183
  0
LINE
  5
536
100
AcDbEntity
  8
INTER_PHASE_SCHIELDS
100
AcDbLine
 62
5
  6
CONTINUOUS
 10
852.6706718587
 20
334.9621310183
 11
852.6706718587
 21
410.9621310183
  0
LINE
  5
537
100
AcDbEntity
  8
INTER_PHASE_SCHIELDS
100
AcDbLine
 62
5
  6
CONTINUOUS
 10
853.6706718587
 20
144.6621310183
 11
853.6706718587
 21
85.3621310183
  0
LINE
  5
538
100
AcDbEntity
  8
INTER_PHASE_SCHIELDS
100
AcDbLine
 62
5
  6
CONTINUOUS
 10
853.6706718587
 20
345.6621310183
 11
853.6706718587
 21
404.9621310183
  0
LINE
  5
539
100
AcDbEntity
  8
INTER_PHASE_SCHIELDS
100
AcDbLine
 62
5
  6
CONTINUOUS
 10
853.6706718587
 20
706.4923195264
 11
853.6706718587
 21
768.2923195264
  0
LINE
  5
53A
100
AcDbEntity
  8
INTER_PHASE_SCHIELDS
100
AcDbLine
 62
5
  6
CONTINUOUS
 10
855.1706718587
 20
695.9923195264
 11
855.1706718587
 21
697.9923195264
  0
LINE
  5
53B
100
AcDbEntity
  8
BASIC_DEVICE
100
AcDbLine
 62
7
  6
CONTINUOUS
 10
858.1706718584
 20
150.1621310184
 11
858.1706718584
 21
340.1621310184
  0
LINE
  5
53C
100
AcDbEntity
  8
H_EXTERN_HANDLE
100
AcDbLine
 62
7
  6
CONTINUOUS
 10
858.3209335252
 20
949.1076244715
 11
858.3209335252
 21
950.8799557339
  0
LINE
  5
53D
100
AcDbEntity
  8
H_EXTERN_HANDLE
100
AcDbLine
 62
7
  6
CONTINUOUS
 10
860.3120946036
 20
951.1784918423
 11
860.3120946036
 21
949.1820108434
  0
LINE
  5
53E
100
AcDbEntity
  8
H_EXTERN_HANDLE
100
AcDbLine
 62
7
  6
CONTINUOUS
 10
861.1706718584
 20
997.9923195264
 11
861.1706718584
 21
996.3808911819
  0
LINE
  5
53F
100
AcDbEntity
  8
H_EXTERN_HANDLE
100
AcDbLine
 62
7
  6
CONTINUOUS
 10
861.1706718585
 20
267.1621310184
 11
861.1706718585
 21
279.1621310183
  0
LINE
  5
540
100
AcDbEntity
  8
H_EXTERN_HANDLE
100
AcDbLine
 62
7
  6
CONTINUOUS
 10
862.1706718584
 20
996.4923195264
 11
862.1706718584
 21
997.3083668927
  0
LINE
  5
541
100
AcDbEntity
  8
BASIC_DEVICE
100
AcDbLine
 62
7
  6
CONTINUOUS
 10
863.1706718587
 20
833.9923195264
 11
863.1706718587
 21
779.9923195264
  0
LINE
  5
542
100
AcDbEntity
  8
BASIC_DEVICE
100
AcDbLine
 62
7
  6
CONTINUOUS
 10
863.1706718584
 20
345.1621310184
 11
863.1706718584
 21
145.1621310184
  0
LINE
  5
543
100
AcDbEntity
  8
TERMINAL_SCHROUD
100
AcDbLine
 62
2
  6
CONTINUOUS
 10
863.6706718587
 20
322.6621310183
 11
863.6706718587
 21
345.6621310183
  0
LINE
  5
544
100
AcDbEntity
  8
TERMINAL_SCHROUD
100
AcDbLine
 62
2
  6
CONTINUOUS
 10
863.6706718587
 20
779.9923195264
 11
863.6706718587
 21
781.9923195264
  0
LINE
  5
545
100
AcDbEntity
  8
H_EXTERN_HANDLE
100
AcDbLine
 62
7
  6
CONTINUOUS
 10
866.3120946036
 20
949.40616058
 11
866.3120946036
 21
951.1784918423
  0
LINE
  5
546
100
AcDbEntity
  8
BASIC_DEVICE
100
AcDbLine
 62
7
  6
CONTINUOUS
 10
773.6706718587
 20
405.1621310183
 11
778.6706718587
 21
410.1621310183
  0
LINE
  5
547
100
AcDbEntity
  8
AM_12
100
AcDbLine
 62
4
  6
CONTINUOUS
 10
813.6287775437
 20
426.7063897244
 11
817.1287775437
 21
430.2063897244
  0
LINE
  5
548
100
AcDbEntity
  8
BASIC_DEVICE
100
AcDbLine
 62
7
  6
CONTINUOUS
 10
984.1706718587
 20
693.9923195264
 11
959.6706718587
 21
693.9923195264
  0
LINE
  5
549
100
AcDbEntity
  8
BASIC_DEVICE
100
AcDbLine
 62
7
  6
CONTINUOUS
 10
636.6706718587
 20
693.9923195264
 11
612.1706718587
 21
693.9923195264
  0
LINE
  5
54A
100
AcDbEntity
  8
BASIC_DEVICE
100
AcDbLine
 62
7
  6
CONTINUOUS
 10
959.6706718587
 20
695.9923195264
 11
636.6706718587
 21
695.9923195264
  0
LINE
  5
54B
100
AcDbEntity
  8
INTER_PHASE_SCHIELDS
100
AcDbLine
 62
5
  6
CONTINUOUS
 10
728.1706718587
 20
695.9923195264
 11
735.1706718587
 21
695.9923195264
  0
LINE
  5
54C
100
AcDbEntity
  8
INTER_PHASE_SCHIELDS
100
AcDbLine
 62
5
  6
CONTINUOUS
 10
848.1706718587
 20
695.9923195264
 11
855.1706718587
 21
695.9923195264
  0
LINE
  5
54D
100
AcDbEntity
  8
INTER_PHASE_SCHIELDS
100
AcDbLine
 62
5
  6
CONTINUOUS
 10
855.1706718587
 20
697.9923195264
 11
852.6706718587
 21
697.9923195264
  0
LINE
  5
54E
100
AcDbEntity
  8
INTER_PHASE_SCHIELDS
100
AcDbLine
 62
5
  6
CONTINUOUS
 10
850.6706718587
 20
697.9923195264
 11
848.1706718587
 21
697.9923195264
  0
LINE
  5
54F
100
AcDbEntity
  8
INTER_PHASE_SCHIELDS
100
AcDbLine
 62
5
  6
CONTINUOUS
 10
735.1706718587
 20
697.9923195264
 11
732.6706718587
 21
697.9923195264
  0
LINE
  5
550
100
AcDbEntity
  8
INTER_PHASE_SCHIELDS
100
AcDbLine
 62
5
  6
CONTINUOUS
 10
730.6706718587
 20
697.9923195264
 11
728.1706718587
 21
697.9923195264
  0
LINE
  5
551
100
AcDbEntity
  8
INTER_PHASE_SCHIELDS
100
AcDbLine
 62
5
  6
CONTINUOUS
 10
730.6706718587
 20
701.9923195264
 11
732.6706718587
 21
701.9923195264
  0
LINE
  5
552
100
AcDbEntity
  8
INTER_PHASE_SCHIELDS
100
AcDbLine
 62
5
  6
CONTINUOUS
 10
850.6706718587
 20
701.9923195264
 11
852.6706718587
 21
701.9923195264
  0
LINE
  5
553
100
AcDbEntity
  8
INTER_PHASE_SCHIELDS
100
AcDbLine
 62
5
  6
CONTINUOUS
 10
729.6706718587
 20
706.4923195264
 11
730.6706718587
 21
706.4923195264
  0
LINE
  5
554
100
AcDbEntity
  8
INTER_PHASE_SCHIELDS
100
AcDbLine
 62
5
  6
CONTINUOUS
 10
732.6706718587
 20
706.4923195264
 11
733.6706718587
 21
706.4923195264
  0
LINE
  5
555
100
AcDbEntity
  8
INTER_PHASE_SCHIELDS
100
AcDbLine
 62
5
  6
CONTINUOUS
 10
849.6706718587
 20
706.4923195264
 11
850.6706718587
 21
706.4923195264
  0
LINE
  5
556
100
AcDbEntity
  8
INTER_PHASE_SCHIELDS
100
AcDbLine
 62
5
  6
CONTINUOUS
 10
852.6706718587
 20
706.4923195264
 11
853.6706718587
 21
706.4923195264
  0
LINE
  5
557
100
AcDbEntity
  8
BASIC_DEVICE
100
AcDbLine
 62
7
  6
CONTINUOUS
 10
968.6395829455
 20
307.4121310183
 11
965.6084940322
 21
312.6621310183
  0
LINE
  5
558
100
AcDbEntity
  8
BASIC_DEVICE
100
AcDbLine
 62
7
  6
CONTINUOUS
 10
974.701760772
 20
317.9121310183
 11
977.7328496852
 21
312.6621310183
  0
LINE
  5
559
100
AcDbEntity
  8
INTER_PHASE_SCHIELDS
100
AcDbLine
 62
5
  6
CONTINUOUS
 10
853.6706718587
 20
354.1621310183
 11
855.1706718587
 21
345.1621310183
  0
LINE
  5
55A
100
AcDbEntity
  8
H_EXTERN_HANDLE
100
AcDbLine
 62
7
  6
CONTINUOUS
 10
770.5681808657
 20
996.4923195264
 11
771.6706718584
 21
986.4923195264
  0
LINE
  5
55B
100
AcDbEntity
  8
H_EXTERN_HANDLE
100
AcDbLine
 62
7
  6
CONTINUOUS
 10
868.3032556821
 20
951.4770279507
 11
868.3032556821
 21
949.4805469518
  0
LINE
  5
55C
100
AcDbEntity
  8
H_EXTERN_HANDLE
100
AcDbLine
 62
7
  6
CONTINUOUS
 10
874.3032556821
 20
949.7046966884
 11
874.3032556821
 21
951.4770279507
  0
LINE
  5
55D
100
AcDbEntity
  8
BASIC_DEVICE
100
AcDbLine
 62
7
  6
CONTINUOUS
 10
875.1706718587
 20
236.1621310183
 11
875.1706718587
 21
254.1621310183
  0
LINE
  5
55E
100
AcDbEntity
  8
H_EXTERN_HANDLE
100
AcDbLine
 62
7
  6
CONTINUOUS
 10
876.2944167605
 20
951.7755640591
 11
876.2944167605
 21
949.7790830602
  0
LINE
  5
55F
100
AcDbEntity
  8
BASIC_DEVICE
100
AcDbLine
 62
7
  6
CONTINUOUS
 10
878.1706718587
 20
251.1621310183
 11
878.1706718587
 21
239.1621310183
  0
LINE
  5
560
100
AcDbEntity
  8
H_EXTERN_HANDLE
100
AcDbLine
 62
7
  6
CONTINUOUS
 10
882.2944167605
 20
950.0032327968
 11
882.2944167605
 21
951.7755640591
  0
LINE
  5
561
100
AcDbEntity
  8
H_EXTERN_HANDLE
100
AcDbLine
 62
7
  6
CONTINUOUS
 10
884.2855778389
 20
952.0741001675
 11
884.2855778389
 21
950.0776191686
  0
LINE
  5
562
100
AcDbEntity
  8
BASIC_DEVICE
100
AcDbLine
 62
7
  6
CONTINUOUS
 10
890.1706718587
 20
239.1621310183
 11
890.1706718587
 21
251.1621310183
  0
LINE
  5
563
100
AcDbEntity
  8
H_EXTERN_HANDLE
100
AcDbLine
 62
7
  6
CONTINUOUS
 10
890.2855778389
 20
950.3017689052
 11
890.2855778389
 21
952.0741001675
  0
LINE
  5
564
100
AcDbEntity
  8
H_EXTERN_HANDLE
100
AcDbLine
 62
7
  6
CONTINUOUS
 10
892.2767389173
 20
952.3726362759
 11
892.2767389173
 21
950.376155277
  0
LINE
  5
565
100
AcDbEntity
  8
BASIC_DEVICE
100
AcDbLine
 62
7
  6
CONTINUOUS
 10
893.1706718587
 20
254.1621310183
 11
893.1706718587
 21
236.1621310183
  0
LINE
  5
566
100
AcDbEntity
  8
BASIC_DEVICE
100
AcDbLine
 62
7
  6
CONTINUOUS
 10
893.6706718587
 20
145.1610450808
 11
893.6706718587
 21
85.1621310183
  0
LINE
  5
567
100
AcDbEntity
  8
BASIC_DEVICE
100
AcDbLine
 62
7
  6
CONTINUOUS
 10
893.6706718587
 20
345.1632169558
 11
893.6706718587
 21
405.1621310183
  0
LINE
  5
568
100
AcDbEntity
  8
BASIC_DEVICE
100
AcDbLine
 62
7
  6
CONTINUOUS
 10
893.6706718587
 20
733.9923195264
 11
893.6706718587
 21
740.9923195264
  0
LINE
  5
569
100
AcDbEntity
  8
H_EXTERN_HANDLE
100
AcDbLine
 62
7
  6
CONTINUOUS
 10
898.2767389173
 20
950.6003050136
 11
898.2767389173
 21
952.3726362759
  0
LINE
  5
56A
100
AcDbEntity
  8
H_EXTERN_HANDLE
100
AcDbLine
 62
7
  6
CONTINUOUS
 10
900.2678999958
 20
952.6711723843
 11
900.2678999958
 21
950.6746913855
  0
LINE
  5
56B
100
AcDbEntity
  8
AXIS
100
AcDbLine
 62
4
  6
CONTINUOUS
 10
905.1706718587
 20
730.9923195264
 11
905.1706718587
 21
743.9923195264
  0
LINE
  5
56C
100
AcDbEntity
  8
H_EXTERN_HANDLE
100
AcDbLine
 62
7
  6
CONTINUOUS
 10
906.2678999958
 20
950.898841122
 11
906.2678999958
 21
952.6711723843
  0
LINE
  5
56D
100
AcDbEntity
  8
H_EXTERN_HANDLE
100
AcDbLine
 62
7
  6
CONTINUOUS
 10
908.2590610742
 20
952.9697084927
 11
908.2590610742
 21
950.9732274939
  0
LINE
  5
56E
100
AcDbEntity
  8
AXIS
100
AcDbLine
 62
4
  6
CONTINUOUS
 10
909.1706718587
 20
776.9923195264
 11
909.1706718587
 21
784.9923195264
  0
LINE
  5
56F
100
AcDbEntity
  8
INTER_PHASE_SCHIELDS
100
AcDbLine
 62
5
  6
CONTINUOUS
 10
848.1706718587
 20
345.1621310183
 11
849.6706718587
 21
354.1621310183
  0
LINE
  5
570
100
AcDbEntity
  8
INTER_PHASE_SCHIELDS
100
AcDbLine
 62
5
  6
CONTINUOUS
 10
853.6706718587
 20
136.1621310183
 11
855.1706718587
 21
145.1621310183
  0
LINE
  5
571
100
AcDbEntity
  8
H_EXTERN_HANDLE
100
AcDbLine
 62
3
  6
CONTINUOUS
 10
785.2808148754
 20
245.5197435137
 11
781.4772505197
 21
237.3629734304
  0
LINE
  5
572
100
AcDbEntity
  8
BASIC_DEVICE
100
AcDbLine
 62
7
  6
CONTINUOUS
 10
710.1395829455
 20
162.9121310183
 11
707.1084940322
 21
157.6621310183
  0
LINE
  5
573
100
AcDbEntity
  8
BASIC_DEVICE
100
AcDbLine
 62
7
  6
CONTINUOUS
 10
716.201760772
 20
152.4121310183
 11
719.2328496852
 21
157.6621310183
  0
LINE
  5
574
100
AcDbEntity
  8
AM_12
100
AcDbLine
 62
4
  6
CONTINUOUS
 10
850.9517703337
 20
406.0674322076
 11
854.4517703337
 21
409.5674322076
  0
LINE
  5
575
100
AcDbEntity
  8
BASIC_DEVICE
100
AcDbLine
 62
7
  6
CONTINUOUS
 10
893.6706718587
 20
405.1621310183
 11
898.6706718587
 21
410.1621310183
  0
LINE
  5
576
100
AcDbEntity
  8
BASIC_DEVICE
100
AcDbLine
 62
7
  6
CONTINUOUS
 10
984.1706718587
 20
718.9923195264
 11
961.6706718587
 21
718.9923195264
  0
LINE
  5
577
100
AcDbEntity
  8
BASIC_DEVICE
100
AcDbLine
 62
7
  6
CONTINUOUS
 10
612.1706718587
 20
718.9923195264
 11
634.6706718587
 21
718.9923195264
  0
LINE
  5
578
100
AcDbEntity
  8
BASIC_DEVICE
100
AcDbLine
 62
7
  6
CONTINUOUS
 10
956.6706718587
 20
733.9923195264
 11
893.6706718587
 21
733.9923195264
  0
LINE
  5
579
100
AcDbEntity
  8
BASIC_DEVICE
100
AcDbLine
 62
7
  6
CONTINUOUS
 10
836.6706718587
 20
733.9923195264
 11
773.6706718587
 21
733.9923195264
  0
LINE
  5
57A
100
AcDbEntity
  8
BASIC_DEVICE
100
AcDbLine
 62
7
  6
CONTINUOUS
 10
716.6706718587
 20
733.9923195264
 11
653.6706718587
 21
733.9923195264
  0
LINE
  5
57B
100
AcDbEntity
  8
BASIC_DEVICE
100
AcDbLine
 62
7
  6
CONTINUOUS
 10
984.1706718587
 20
740.9923195264
 11
612.1706718587
 21
740.9923195264
  0
LINE
  5
57C
100
AcDbEntity
  8
0
100
AcDbLine
 62
7
  6
CONTINUOUS
 10
520.3068449807
 20
745.9345723936
 11
91.3444081136
 21
745.9345723936
  0
LINE
  5
57D
100
AcDbEntity
  8
H_EXTERN_HANDLE
100
AcDbLine
 62
7
  6
CONTINUOUS
 10
914.2590610742
 20
951.1973772304
 11
914.2590610742
 21
952.9697084927
  0
LINE
  5
57E
100
AcDbEntity
  8
H_EXTERN_HANDLE
100
AcDbLine
 62
7
  6
CONTINUOUS
 10
916.2502221526
 20
953.2682446012
 11
916.2502221526
 21
951.2717636023
  0
LINE
  5
57F
100
AcDbEntity
  8
H_EXTERN_HANDLE
100
AcDbLine
 62
7
  6
CONTINUOUS
 10
922.2502221526
 20
951.4959133388
 11
922.2502221526
 21
953.2682446012
  0
LINE
  5
580
100
AcDbEntity
  8
H_EXTERN_HANDLE
100
AcDbLine
 62
7
  6
CONTINUOUS
 10
924.241383231
 20
953.5667807096
 11
924.241383231
 21
951.5702997107
  0
LINE
  5
581
100
AcDbEntity
  8
H_EXTERN_HANDLE
100
AcDbLine
 62
7
  6
CONTINUOUS
 10
930.241383231
 20
951.7944494472
 11
930.241383231
 21
953.5667807096
  0
LINE
  5
582
100
AcDbEntity
  8
H_EXTERN_HANDLE
100
AcDbLine
 62
7
  6
CONTINUOUS
 10
932.2325443095
 20
953.865316818
 11
932.2325443095
 21
951.8688358191
  0
LINE
  5
583
100
AcDbEntity
  8
H_EXTERN_HANDLE
100
AcDbLine
 62
7
  6
CONTINUOUS
 10
938.2325443095
 20
952.0929855557
 11
938.2325443095
 21
953.865316818
  0
LINE
  5
584
100
AcDbEntity
  8
H_EXTERN_HANDLE
100
AcDbLine
 62
7
  6
CONTINUOUS
 10
940.2237053879
 20
954.1638529264
 11
940.2237053879
 21
952.1673719275
  0
LINE
  5
585
100
AcDbEntity
  8
AXIS
100
AcDbLine
 62
4
  6
CONTINUOUS
 10
945.1706718587
 20
730.9923195264
 11
945.1706718587
 21
743.9923195264
  0
LINE
  5
586
100
AcDbEntity
  8
H_EXTERN_HANDLE
100
AcDbLine
 62
7
  6
CONTINUOUS
 10
946.2237053879
 20
952.3915216641
 11
946.2237053879
 21
954.1638529264
  0
LINE
  5
587
100
AcDbEntity
  8
H_EXTERN_HANDLE
100
AcDbLine
 62
7
  6
CONTINUOUS
 10
948.2148664663
 20
954.4623890348
 11
948.2148664663
 21
952.4659080359
  0
LINE
  5
588
100
AcDbEntity
  8
H_EXTERN_HANDLE
100
AcDbLine
 62
7
  6
CONTINUOUS
 10
954.2148664663
 20
952.6900577725
 11
954.2148664663
 21
954.4623890348
  0
LINE
  5
589
100
AcDbEntity
  8
H_EXTERN_HANDLE
100
AcDbLine
 62
7
  6
CONTINUOUS
 10
956.2060275447
 20
954.7609251432
 11
956.2060275447
 21
952.7644441443
  0
LINE
  5
58A
100
AcDbEntity
  8
BASIC_DEVICE
100
AcDbLine
 62
7
  6
CONTINUOUS
 10
956.6706718587
 20
740.9923195264
 11
956.6706718587
 21
733.9923195264
  0
LINE
  5
58B
100
AcDbEntity
  8
BASIC_DEVICE
100
AcDbLine
 62
7
  6
CONTINUOUS
 10
956.6706718587
 20
405.1621310183
 11
956.6706718587
 21
345.1612560183
  0
LINE
  5
58C
100
AcDbEntity
  8
BASIC_DEVICE
100
AcDbLine
 62
7
  6
CONTINUOUS
 10
956.6706718587
 20
85.1621310183
 11
956.6706718587
 21
145.1630060183
  0
LINE
  5
58D
100
AcDbEntity
  8
BASIC_DEVICE
100
AcDbLine
 62
7
  6
CONTINUOUS
 10
959.6706718587
 20
693.9923195264
 11
959.6706718587
 21
695.9923195264
  0
LINE
  5
58E
100
AcDbEntity
  8
BASIC_DEVICE
100
AcDbLine
 62
7
  6
CONTINUOUS
 10
877.1084940322
 20
332.6621310183
 11
880.1395829455
 21
337.9121310183
  0
LINE
  5
58F
100
AcDbEntity
  8
BASIC_DEVICE
100
AcDbLine
 62
7
  6
CONTINUOUS
 10
889.2328496852
 20
332.6621310183
 11
886.201760772
 21
327.4121310183
  0
LINE
  5
590
100
AcDbEntity
  8
BASIC_DEVICE
100
AcDbLine
 62
1
  6
CONTINUOUS
 10
788.9674733757
 20
285.7582072998
 11
773.9360985754
 21
273.1453862488
  0
LINE
  5
591
100
AcDbEntity
  8
0
100
AcDbLine
 62
1
  6
CONTINUOUS
 10
91.3444081136
 20
765.6345723936
 11
520.3068449807
 21
765.6345723936
  0
LINE
  5
592
100
AcDbEntity
  8
INTER_PHASE_SCHIELDS
100
AcDbLine
 62
5
  6
CONTINUOUS
 10
853.6706718587
 20
768.2923195264
 11
852.6706718587
 21
768.2923195264
  0
LINE
  5
593
100
AcDbEntity
  8
INTER_PHASE_SCHIELDS
100
AcDbLine
 62
5
  6
CONTINUOUS
 10
850.6706718587
 20
768.2923195264
 11
849.6706718587
 21
768.2923195264
  0
LINE
  5
594
100
AcDbEntity
  8
INTER_PHASE_SCHIELDS
100
AcDbLine
 62
5
  6
CONTINUOUS
 10
733.6706718587
 20
768.2923195264
 11
732.6706718587
 21
768.2923195264
  0
LINE
  5
595
100
AcDbEntity
  8
INTER_PHASE_SCHIELDS
100
AcDbLine
 62
5
  6
CONTINUOUS
 10
730.6706718587
 20
768.2923195264
 11
729.6706718587
 21
768.2923195264
  0
LINE
  5
596
100
AcDbEntity
  8
INTER_PHASE_SCHIELDS
100
AcDbLine
 62
5
  6
CONTINUOUS
 10
730.6706718587
 20
772.6923195264
 11
732.6706718587
 21
772.6923195264
  0
LINE
  5
597
100
AcDbEntity
  8
INTER_PHASE_SCHIELDS
100
AcDbLine
 62
5
  6
CONTINUOUS
 10
850.6706718587
 20
772.6923195264
 11
852.6706718587
 21
772.6923195264
  0
LINE
  5
598
100
AcDbEntity
  8
INTER_PHASE_SCHIELDS
100
AcDbLine
 62
5
  6
CONTINUOUS
 10
730.6706718587
 20
778.6923195264
 11
732.6706718587
 21
778.6923195264
  0
LINE
  5
599
100
AcDbEntity
  8
INTER_PHASE_SCHIELDS
100
AcDbLine
 62
5
  6
CONTINUOUS
 10
850.6706718587
 20
778.6923195264
 11
852.6706718587
 21
778.6923195264
  0
LINE
  5
59A
100
AcDbEntity
  8
TERMINAL_SCHROUD
100
AcDbLine
 62
2
  6
CONTINUOUS
 10
612.1706718587
 20
779.9923195264
 11
984.1706718587
 21
779.9923195264
  0
LINE
  5
59B
100
AcDbEntity
  8
BASIC_DEVICE
100
AcDbLine
 62
7
  6
CONTINUOUS
 10
612.1706718587
 20
779.9923195264
 11
984.1706718587
 21
779.9923195264
  0
LINE
  5
59C
100
AcDbEntity
  8
TERMINAL_SCHROUD
100
AcDbLine
 62
2
  6
CONTINUOUS
 10
612.1706718587
 20
781.9923195264
 11
984.1706718587
 21
781.9923195264
  0
LINE
  5
59D
100
AcDbEntity
  8
0
100
AcDbLine
 62
1
  6
CONTINUOUS
 10
91.3444081136
 20
785.3345723936
 11
520.3068449807
 21
785.3345723936
  0
LINE
  5
59E
100
AcDbEntity
  8
BASIC_DEVICE
100
AcDbLine
 62
7
  6
CONTINUOUS
 10
731.1706718587
 20
797.9923195264
 11
711.1706718587
 21
797.9923195264
  0
LINE
  5
59F
100
AcDbEntity
  8
BASIC_DEVICE
100
AcDbLine
 62
7
  6
CONTINUOUS
 10
961.6706718587
 20
345.1621310183
 11
961.6706718587
 21
332.6621310183
  0
LINE
  5
5A0
100
AcDbEntity
  8
BASIC_DEVICE
100
AcDbLine
 62
7
  6
CONTINUOUS
 10
961.6706718587
 20
145.1621310183
 11
961.6706718587
 21
157.6621310183
  0
LINE
  5
5A1
100
AcDbEntity
  8
BASIC_DEVICE
100
AcDbLine
 62
7
  6
CONTINUOUS
 10
961.6706718587
 20
718.9923195264
 11
961.6706718587
 21
779.9923195264
  0
LINE
  5
5A2
100
AcDbEntity
  8
H_EXTERN_HANDLE
100
AcDbLine
 62
7
  6
CONTINUOUS
 10
962.2060275447
 20
952.9885938809
 11
962.2060275447
 21
954.7609251432
  0
LINE
  5
5A3
100
AcDbEntity
  8
H_EXTERN_HANDLE
100
AcDbLine
 62
7
  6
CONTINUOUS
 10
964.1971886232
 20
955.0594612516
 11
964.1971886232
 21
953.0629802527
  0
LINE
  5
5A4
100
AcDbEntity
  8
H_EXTERN_HANDLE
100
AcDbLine
 62
7
  6
CONTINUOUS
 10
970.1971886232
 20
953.2871299893
 11
970.1971886232
 21
955.0594612516
  0
LINE
  5
5A5
100
AcDbEntity
  8
AXIS
100
AcDbLine
 62
4
  6
CONTINUOUS
 10
971.6706718587
 20
150.1621310183
 11
971.6706718587
 21
165.1621310183
  0
LINE
  5
5A6
100
AcDbEntity
  8
AXIS
100
AcDbLine
 62
4
  6
CONTINUOUS
 10
971.6706718587
 20
325.1621310183
 11
971.6706718587
 21
340.1621310183
  0
LINE
  5
5A7
100
AcDbEntity
  8
H_EXTERN_HANDLE
100
AcDbLine
 62
7
  6
CONTINUOUS
 10
972.1883497016
 20
955.35799736
 11
972.1883497016
 21
953.3615163612
  0
LINE
  5
5A8
100
AcDbEntity
  8
H_EXTERN_HANDLE
100
AcDbLine
 62
7
  6
CONTINUOUS
 10
978.1883497016
 20
953.5856660977
 11
978.1883497016
 21
955.35799736
  0
LINE
  5
5A9
100
AcDbEntity
  8
H_EXTERN_HANDLE
100
AcDbLine
 62
7
  6
CONTINUOUS
 10
980.17951078
 20
955.6565334684
 11
980.17951078
 21
953.6600524696
  0
LINE
  5
5AA
100
AcDbEntity
  8
BASIC_DEVICE
100
AcDbLine
 62
7
  6
CONTINUOUS
 10
984.1706718587
 20
779.9923195264
 11
984.1706718587
 21
693.9923195264
  0
LINE
  5
5AB
100
AcDbEntity
  8
TERMINAL_SCHROUD
100
AcDbLine
 62
2
  6
CONTINUOUS
 10
984.1706718587
 20
470.6621310183
 11
984.1706718587
 21
322.6621310183
  0
LINE
  5
5AC
100
AcDbEntity
  8
BASIC_DEVICE
100
AcDbLine
 62
7
  6
CONTINUOUS
 10
984.1706718587
 20
145.1621310183
 11
984.1706718587
 21
345.1621310183
  0
LINE
  5
5AD
100
AcDbEntity
  8
TERMINAL_SCHROUD
100
AcDbLine
 62
2
  6
CONTINUOUS
 10
984.1706718587
 20
779.9923195264
 11
984.1706718587
 21
831.9923195264
  0
LINE
  5
5AE
100
AcDbEntity
  8
H_EXTERN_HANDLE
100
AcDbLine
 62
7
  6
CONTINUOUS
 10
986.17951078
 20
953.8842022061
 11
986.17951078
 21
955.6565334684
  0
LINE
  5
5AF
100
AcDbEntity
  8
H_EXTERN_HANDLE
100
AcDbLine
 62
7
  6
CONTINUOUS
 10
988.1706718584
 20
1001.9923195264
 11
988.1706718584
 21
953.958588578
  0
LINE
  5
5B0
100
AcDbEntity
  8
H_EXTERN_HANDLE
100
AcDbLine
 62
7
  6
CONTINUOUS
 10
988.1706718584
 20
263.6621310184
 11
988.1706718584
 21
282.6621310184
  0
LINE
  5
5B1
100
AcDbEntity
  8
AM_12
100
AcDbLine
 62
4
  6
CONTINUOUS
 10
874.7663600149
 20
281.9687143117
 11
878.2663600149
 21
285.4687143117
  0
LINE
  5
5B2
100
AcDbEntity
  8
0
100
AcDbLine
 62
1
  6
CONTINUOUS
 10
91.3444081136
 20
805.0345723936
 11
520.3068449807
 21
805.0345723936
  0
LINE
  5
5B3
100
AcDbEntity
  8
0
100
AcDbLine
 62
7
  6
CONTINUOUS
 10
91.3444081136
 20
824.7345723936
 11
520.3068449807
 21
824.7345723936
  0
LINE
  5
5B4
100
AcDbEntity
  8
TERMINAL_SCHROUD
100
AcDbLine
 62
2
  6
CONTINUOUS
 10
984.1706718587
 20
831.9923195264
 11
612.1706718587
 21
831.9923195264
  0
LINE
  5
5B5
100
AcDbEntity
  8
BASIC_DEVICE
100
AcDbLine
 62
7
  6
CONTINUOUS
 10
733.1706718587
 20
833.9923195264
 11
863.1706718587
 21
833.9923195264
  0
LINE
  5
5B6
100
AcDbEntity
  8
BASIC_DEVICE
100
AcDbLine
 62
1
  6
CONTINUOUS
 10
773.8839889028
 20
835.9923195264
 11
782.7269756474
 21
835.9923195264
  0
LINE
  5
5B7
100
AcDbEntity
  8
BASIC_DEVICE
100
AcDbLine
 62
1
  6
CONTINUOUS
 10
773.8839889028
 20
837.0923195264
 11
782.7269756474
 21
837.0923195264
  0
LINE
  5
5B8
100
AcDbEntity
  8
BASIC_DEVICE
100
AcDbLine
 62
1
  6
CONTINUOUS
 10
782.7269756474
 20
838.1923195264
 11
813.61436807
 21
838.1923195264
  0
LINE
  5
5B9
100
AcDbEntity
  8
BASIC_DEVICE
100
AcDbLine
 62
1
  6
CONTINUOUS
 10
784.0685621859
 20
846.2923195264
 11
780.9685621859
 21
846.2923195264
  0
LINE
  5
5BA
100
AcDbEntity
  8
BASIC_DEVICE
100
AcDbLine
 62
1
  6
CONTINUOUS
 10
785.0685621859
 20
845.2923195264
 11
784.0685621859
 21
846.2923195264
  0
LINE
  5
5BB
100
AcDbEntity
  8
H_EXTERN_HANDLE
100
AcDbLine
 62
7
  6
CONTINUOUS
 10
785.2808148754
 20
914.9923195264
 11
781.6756511612
 21
920.9923195264
  0
LINE
  5
5BC
100
AcDbEntity
  8
BASIC_DEVICE
100
AcDbLine
 62
7
  6
CONTINUOUS
 10
965.6084940322
 20
312.6621310183
 11
968.6395829455
 21
317.9121310183
  0
LINE
  5
5BD
100
AcDbEntity
  8
BASIC_DEVICE
100
AcDbLine
 62
7
  6
CONTINUOUS
 10
877.1084940322
 20
157.6621310183
 11
880.1395829455
 21
162.9121310183
  0
LINE
  5
5BE
100
AcDbEntity
  8
BASIC_DEVICE
100
AcDbLine
 62
7
  6
CONTINUOUS
 10
977.7328496852
 20
312.6621310183
 11
974.701760772
 21
307.4121310183
  0
LINE
  5
5BF
100
AcDbEntity
  8
BASIC_DEVICE
100
AcDbLine
 62
7
  6
CONTINUOUS
 10
889.2328496852
 20
157.6621310183
 11
886.201760772
 21
152.4121310183
  0
LINE
  5
5C0
100
AcDbEntity
  8
BASIC_DEVICE
100
AcDbLine
 62
7
  6
CONTINUOUS
 10
711.6706718587
 20
80.1621310183
 11
716.6706718587
 21
85.1621310183
  0
LINE
  5
5C1
100
AcDbEntity
  8
BASIC_DEVICE
100
AcDbLine
 62
7
  6
CONTINUOUS
 10
875.1706718587
 20
236.1621310183
 11
878.1706718587
 21
239.1621310183
  0
LINE
  5
5C2
100
AcDbEntity
  8
BASIC_DEVICE
100
AcDbLine
 62
7
  6
CONTINUOUS
 10
890.1706718587
 20
251.1621310183
 11
893.1706718587
 21
254.1621310183
  0
LINE
  5
5C3
100
AcDbEntity
  8
AM_12
100
AcDbLine
 62
4
  6
CONTINUOUS
 10
730.9517703337
 20
80.7568298291
 11
734.4517703337
 21
84.2568298291
  0
LINE
  5
5C4
100
AcDbEntity
  8
BASIC_DEVICE
100
AcDbLine
 62
7
  6
CONTINUOUS
 10
790.6706718587
 20
859.9923195264
 11
805.6706718587
 21
859.9923195264
  0
LINE
  5
5C5
100
AcDbEntity
  8
BASIC_DEVICE
100
AcDbLine
 62
7
  6
CONTINUOUS
 10
965.6084940322
 20
177.6621310183
 11
968.6395829455
 21
182.9121310183
  0
LINE
  5
5C6
100
AcDbEntity
  8
BASIC_DEVICE
100
AcDbLine
 62
7
  6
CONTINUOUS
 10
831.6706718587
 20
80.1621310183
 11
836.6706718587
 21
85.1621310183
  0
LINE
  5
5C7
100
AcDbEntity
  8
H_EXTERN_HANDLE
100
AcDbLine
 62
7
  6
CONTINUOUS
 10
988.1706718584
 20
953.958588578
 11
986.17951078
 21
953.8842022061
  0
LINE
  5
5C8
100
AcDbEntity
  8
H_EXTERN_HANDLE
100
AcDbLine
 62
7
  6
CONTINUOUS
 10
980.17951078
 20
953.6600524696
 11
978.1883497016
 21
953.5856660977
  0
LINE
  5
5C9
100
AcDbEntity
  8
H_EXTERN_HANDLE
100
AcDbLine
 62
7
  6
CONTINUOUS
 10
972.1883497016
 20
953.3615163612
 11
970.1971886232
 21
953.2871299893
  0
LINE
  5
5CA
100
AcDbEntity
  8
H_EXTERN_HANDLE
100
AcDbLine
 62
7
  6
CONTINUOUS
 10
964.1971886232
 20
953.0629802527
 11
962.2060275447
 21
952.9885938809
  0
LINE
  5
5CB
100
AcDbEntity
  8
H_EXTERN_HANDLE
100
AcDbLine
 62
7
  6
CONTINUOUS
 10
956.2060275447
 20
952.7644441443
 11
954.2148664663
 21
952.6900577725
  0
LINE
  5
5CC
100
AcDbEntity
  8
H_EXTERN_HANDLE
100
AcDbLine
 62
7
  6
CONTINUOUS
 10
948.2148664663
 20
952.4659080359
 11
946.2237053879
 21
952.3915216641
  0
LINE
  5
5CD
100
AcDbEntity
  8
H_EXTERN_HANDLE
100
AcDbLine
 62
7
  6
CONTINUOUS
 10
940.2237053879
 20
952.1673719275
 11
938.2325443095
 21
952.0929855557
  0
LINE
  5
5CE
100
AcDbEntity
  8
H_EXTERN_HANDLE
100
AcDbLine
 62
7
  6
CONTINUOUS
 10
932.2325443095
 20
951.8688358191
 11
930.241383231
 21
951.7944494472
  0
LINE
  5
5CF
100
AcDbEntity
  8
H_EXTERN_HANDLE
100
AcDbLine
 62
7
  6
CONTINUOUS
 10
924.241383231
 20
951.5702997107
 11
922.2502221526
 21
951.4959133388
  0
LINE
  5
5D0
100
AcDbEntity
  8
H_EXTERN_HANDLE
100
AcDbLine
 62
7
  6
CONTINUOUS
 10
916.2502221526
 20
951.2717636023
 11
914.2590610742
 21
951.1973772304
  0
LINE
  5
5D1
100
AcDbEntity
  8
H_EXTERN_HANDLE
100
AcDbLine
 62
7
  6
CONTINUOUS
 10
908.2590610742
 20
950.9732274939
 11
906.2678999958
 21
950.898841122
  0
LINE
  5
5D2
100
AcDbEntity
  8
H_EXTERN_HANDLE
100
AcDbLine
 62
7
  6
CONTINUOUS
 10
900.2678999958
 20
950.6746913855
 11
898.2767389173
 21
950.6003050136
  0
LINE
  5
5D3
100
AcDbEntity
  8
H_EXTERN_HANDLE
100
AcDbLine
 62
7
  6
CONTINUOUS
 10
892.2767389173
 20
950.376155277
 11
890.2855778389
 21
950.3017689052
  0
LINE
  5
5D4
100
AcDbEntity
  8
H_EXTERN_HANDLE
100
AcDbLine
 62
7
  6
CONTINUOUS
 10
884.2855778389
 20
950.0776191686
 11
882.2944167605
 21
950.0032327968
  0
LINE
  5
5D5
100
AcDbEntity
  8
H_EXTERN_HANDLE
100
AcDbLine
 62
7
  6
CONTINUOUS
 10
876.2944167605
 20
949.7790830602
 11
874.3032556821
 21
949.7046966884
  0
LINE
  5
5D6
100
AcDbEntity
  8
H_EXTERN_HANDLE
100
AcDbLine
 62
7
  6
CONTINUOUS
 10
868.3032556821
 20
949.4805469518
 11
866.3120946036
 21
949.40616058
  0
LINE
  5
5D7
100
AcDbEntity
  8
H_EXTERN_HANDLE
100
AcDbLine
 62
7
  6
CONTINUOUS
 10
860.3120946036
 20
949.1820108434
 11
858.3209335252
 21
949.1076244715
  0
LINE
  5
5D8
100
AcDbEntity
  8
H_EXTERN_HANDLE
100
AcDbLine
 62
7
  6
CONTINUOUS
 10
852.3209335252
 20
948.883474735
 11
850.3297724468
 21
948.8090883631
  0
LINE
  5
5D9
100
AcDbEntity
  8
H_EXTERN_HANDLE
100
AcDbLine
 62
7
  6
CONTINUOUS
 10
844.3297724468
 20
948.5849386266
 11
842.3386113684
 21
948.5105522547
  0
LINE
  5
5DA
100
AcDbEntity
  8
H_EXTERN_HANDLE
100
AcDbLine
 62
7
  6
CONTINUOUS
 10
836.3386113684
 20
948.2864025182
 11
835.1706718584
 21
948.2427702959
  0
LINE
  5
5DB
100
AcDbEntity
  8
H_EXTERN_HANDLE
100
AcDbLine
 62
7
  6
CONTINUOUS
 10
838.1706718584
 20
905.9923195264
 11
752.1706718584
 21
905.9923195264
  0
LINE
  5
5DC
100
AcDbEntity
  8
H_EXTERN_HANDLE
100
AcDbLine
 62
7
  6
CONTINUOUS
 10
838.1706718584
 20
914.9923195264
 11
785.2808148754
 21
914.9923195264
  0
LINE
  5
5DD
100
AcDbEntity
  8
H_EXTERN_HANDLE
100
AcDbLine
 62
7
  6
CONTINUOUS
 10
752.1706718584
 20
920.9923195264
 11
832.1706718584
 21
920.9923195264
  0
LINE
  5
5DE
100
AcDbEntity
  8
H_MOVING
100
AcDbLine
 62
1
  6
CONTINUOUS
 10
768.1706718584
 20
920.9923195264
 11
828.1706718584
 21
920.9923195264
  0
LINE
  5
5DF
100
AcDbEntity
  8
H_EXTERN_HANDLE
100
AcDbLine
 62
7
  6
CONTINUOUS
 10
835.1706718584
 20
943.9923195264
 11
828.1706718584
 21
943.9923195264
  0
LINE
  5
5E0
100
AcDbEntity
  8
H_MOVING
100
AcDbLine
 62
1
  6
CONTINUOUS
 10
806.6706718584
 20
943.9923195264
 11
789.6706718584
 21
943.9923195264
  0
LINE
  5
5E1
100
AcDbEntity
  8
H_EXTERN_HANDLE
100
AcDbLine
 62
7
  6
CONTINUOUS
 10
828.1706718584
 20
920.9923195264
 11
838.1706718584
 21
914.9923195264
  0
LINE
  5
5E2
100
AcDbEntity
  8
BASIC_DEVICE
100
AcDbLine
 62
7
  6
CONTINUOUS
 10
977.7328496852
 20
177.6621310183
 11
974.701760772
 21
172.4121310183
  0
LINE
  5
5E3
100
AcDbEntity
  8
AM_12
100
AcDbLine
 62
4
  6
CONTINUOUS
 10
981.5118260518
 20
217.6919647405
 11
985.0118260518
 21
221.1919647405
  0
LINE
  5
5E4
100
AcDbEntity
  8
AM_12
100
AcDbLine
 62
4
  6
CONTINUOUS
 10
850.9517703337
 20
80.7568298291
 11
854.4517703337
 21
84.2568298291
  0
LINE
  5
5E5
100
AcDbEntity
  8
H_EXTERN_HANDLE
100
AcDbLine
 62
7
  6
CONTINUOUS
 10
826.2731628512
 20
992.4923195264
 11
862.1706718584
 21
996.4923195264
  0
LINE
  5
5E6
100
AcDbEntity
  8
H_EXTERN_HANDLE
100
AcDbLine
 62
7
  6
CONTINUOUS
 10
862.1706718584
 20
997.3083668927
 11
988.1706718584
 21
1001.9923195264
  0
LINE
  5
5E7
100
AcDbEntity
  8
H_MOVING
100
AcDbLine
 62
1
  6
CONTINUOUS
 10
808.6706721366
 20
945.4923195264
 11
806.6706718584
 21
945.4923195264
  0
LINE
  5
5E8
100
AcDbEntity
  8
H_MOVING
100
AcDbLine
 62
1
  6
CONTINUOUS
 10
787.6706717766
 20
945.4923209005
 11
789.6706720547
 21
945.4923206388
  0
LINE
  5
5E9
100
AcDbEntity
  8
H_MOVING
100
AcDbLine
 62
1
  6
CONTINUOUS
 10
773.9206718584
 20
946.9923195264
 11
768.1706718584
 21
946.9923195264
  0
LINE
  5
5EA
100
AcDbEntity
  8
H_EXTERN_HANDLE
100
AcDbLine
 62
7
  6
CONTINUOUS
 10
768.1706718584
 20
946.9923195264
 11
752.1706718584
 21
946.9923195264
  0
LINE
  5
5EB
100
AcDbEntity
  8
H_EXTERN_HANDLE
100
AcDbLine
 62
7
  6
CONTINUOUS
 10
780.1706718584
 20
946.9923195264
 11
816.1706718584
 21
946.9923195264
  0
LINE
  5
5EC
100
AcDbEntity
  8
H_MOVING
100
AcDbLine
 62
1
  6
CONTINUOUS
 10
822.4206718584
 20
946.9923195264
 11
828.1706718584
 21
946.9923195264
  0
LINE
  5
5ED
100
AcDbEntity
  8
H_EXTERN_HANDLE
100
AcDbLine
 62
7
  6
CONTINUOUS
 10
760.6706718584
 20
957.4923195264
 11
752.1706718584
 21
957.4923195265
  0
LINE
  5
5EE
100
AcDbEntity
  8
H_EXTERN_HANDLE
100
AcDbLine
 62
7
  6
CONTINUOUS
 10
752.1706718584
 20
982.4923195264
 11
760.6706718585
 21
982.4923195264
  0
LINE
  5
5EF
100
AcDbEntity
  8
H_EXTERN_HANDLE
100
AcDbLine
 62
7
  6
CONTINUOUS
 10
770.0681808657
 20
986.4923195264
 11
826.2731628512
 21
986.4923195264
  0
LINE
  5
5F0
100
AcDbEntity
  8
H_EXTERN_HANDLE
100
AcDbLine
 62
7
  6
CONTINUOUS
 10
784.9782734069
 20
996.4923195264
 11
796.6706718584
 21
986.4923195264
  0
LINE
  5
5F1
100
AcDbEntity
  8
HANDLE_FIXING_HOLES
100
AcDbLine
 62
4
  6
CONTINUOUS
 10
1167.5836953095
 20
266.0702014994
 11
1167.5836953095
 21
280.2540605374
  0
LINE
  5
5F2
100
AcDbEntity
  8
HANDLE_FIXING_HOLES
100
AcDbLine
 62
4
  6
CONTINUOUS
 10
1192.5836953095
 20
240.7151275175
 11
1192.5836953095
 21
306.0907284235
  0
LINE
  5
5F3
100
AcDbEntity
  8
BASIC_DEVICE
100
AcDbLine
 62
7
  6
CONTINUOUS
 10
951.6706718587
 20
80.1621310183
 11
956.6706718587
 21
85.1621310183
  0
LINE
  5
5F4
100
AcDbEntity
  8
H_EXTERN_HANDLE
100
AcDbLine
 62
7
  6
CONTINUOUS
 10
752.1706718584
 20
992.4923195264
 11
770.0681808657
 21
992.4923195264
  0
LINE
  5
5F5
100
AcDbEntity
  8
H_MOVING
100
AcDbLine
 62
1
  6
CONTINUOUS
 10
812.4206718585
 20
996.4923195264
 11
806.4622338343
 21
996.4923195264
  0
LINE
  5
5F6
100
AcDbEntity
  8
H_EXTERN_HANDLE
100
AcDbLine
 62
7
  6
CONTINUOUS
 10
825.7731628512
 20
996.4923195264
 11
770.5681808657
 21
996.4923195264
  0
LINE
  5
5F7
100
AcDbEntity
  8
H_MOVING
100
AcDbLine
 62
1
  6
CONTINUOUS
 10
783.9206718585
 20
996.4923195264
 11
789.8791098825
 21
996.4923195264
  0
LINE
  5
5F8
100
AcDbEntity
  8
H_MOVING
100
AcDbLine
 62
1
  6
CONTINUOUS
 10
808.4206718584
 20
997.9923195264
 11
805.653986632
 21
997.9923195264
  0
LINE
  5
5F9
100
AcDbEntity
  8
H_MOVING
100
AcDbLine
 62
1
  6
CONTINUOUS
 10
790.6873570849
 20
997.9923195264
 11
787.9206718584
 21
997.9923195264
  0
LINE
  5
5FA
100
AcDbEntity
  8
H_EXTERN_HANDLE
100
AcDbLine
 62
7
  6
CONTINUOUS
 10
752.1706718584
 20
997.9923195264
 11
861.1706718584
 21
997.9923195264
  0
LINE
  5
5FB
100
AcDbEntity
  8
0
100
AcDbLine
 62
7
  6
CONTINUOUS
 10
0.0
 20
1031.6467809131
 11
1345.8565105476
 21
1031.6467809131
  0
LINE
  5
5FC
100
AcDbEntity
  8
0
100
AcDbLine
 62
7
  6
CONTINUOUS
 10
0.0
 20
1031.6467809131
 11
1345.8565105476
 21
1031.6467809131
  0
LINE
  5
5FD
100
AcDbEntity
  8
HANDLE_FIXING_HOLES
100
AcDbLine
 62
4
  6
CONTINUOUS
 10
1217.5836953095
 20
266.3708975391
 11
1217.5836953095
 21
279.9533644976
  0
LINE
  5
5FE
100
AcDbEntity
  8
0
100
AcDbLine
 62
7
  6
CONTINUOUS
 10
1345.8565105476
 20
0.0
 11
1345.8565105476
 21
1031.6467809131
  0
LINE
  5
5FF
100
AcDbEntity
  8
0
100
AcDbLine
 62
7
  6
CONTINUOUS
 10
1345.8565105476
 20
0.0
 11
1345.8565105476
 21
1031.6467809131
  0
ARC
  5
600
100
AcDbEntity
  8
H_EXTERN_HANDLE
100
AcDbCircle
 62
7
  6
CONTINUOUS
 10
105.2043100287
 20
273.1621310184
 40
10.5
100
AcDbArc
 50
267.4898603379
 51
92.5101405927
  0
ARC
  5
601
100
AcDbEntity
  8
H_EXTERN_HANDLE
100
AcDbCircle
 62
7
  6
CONTINUOUS
 10
99.7283193139
 20
273.1621309739
 40
10.2601724327
100
AcDbArc
 50
267.4898603379
 51
92.5101405927
  0
ARC
  5
602
100
AcDbEntity
  8
H_EXTERN_HANDLE
100
AcDbCircle
 62
7
  6
CONTINUOUS
 10
77.4547607982
 20
277.4121307403
 40
10.0
100
AcDbArc
 50
90.0
 51
153.8844439374
  0
ARC
  5
603
100
AcDbEntity
  8
H_EXTERN_HANDLE
100
AcDbCircle
 62
7
  6
CONTINUOUS
 10
106.9547607982
 20
248.9121307403
 40
10.0
100
AcDbArc
 50
0.0
 51
90.0
  0
ARC
  5
604
100
AcDbEntity
  8
H_EXTERN_HANDLE
100
AcDbCircle
 62
7
  6
CONTINUOUS
 10
77.4547607982
 20
268.9121307403
 40
10.0
100
AcDbArc
 50
206.1155560628
 51
270.0
  0
ARC
  5
605
100
AcDbEntity
  8
H_EXTERN_HANDLE
100
AcDbCircle
 62
7
  6
CONTINUOUS
 10
70.9547607982
 20
273.1621307402
 40
9.0
100
AcDbArc
 50
92.5101405927
 51
267.4898603379
  0
ARC
  5
606
100
AcDbEntity
  8
H_MOVING
100
AcDbCircle
 62
1
  6
CONTINUOUS
 10
108.2905468561
 20
88.1532918187
 40
3.0
100
AcDbArc
 50
90.0
 51
270.0
  0
ARC
  5
607
100
AcDbEntity
  8
H_MOVING
100
AcDbCircle
 62
1
  6
CONTINUOUS
 10
108.5890829645
 20
96.1444528971
 40
3.0
100
AcDbArc
 50
90.0
 51
270.0
  0
ARC
  5
608
100
AcDbEntity
  8
H_MOVING
100
AcDbCircle
 62
1
  6
CONTINUOUS
 10
108.887619073
 20
104.1356139755
 40
3.0
100
AcDbArc
 50
90.0
 51
270.0
  0
ARC
  5
609
100
AcDbEntity
  8
H_MOVING
100
AcDbCircle
 62
1
  6
CONTINUOUS
 10
109.1861551814
 20
112.1267750539
 40
3.0
100
AcDbArc
 50
90.0
 51
270.0
  0
ARC
  5
60A
100
AcDbEntity
  8
H_MOVING
100
AcDbCircle
 62
1
  6
CONTINUOUS
 10
109.4846912898
 20
120.1179361324
 40
3.0
100
AcDbArc
 50
90.0
 51
270.0
  0
ARC
  5
60B
100
AcDbEntity
  8
H_MOVING
100
AcDbCircle
 62
1
  6
CONTINUOUS
 10
109.7832273982
 20
128.1090972108
 40
3.0
100
AcDbArc
 50
90.0
 51
270.0
  0
ARC
  5
60C
100
AcDbEntity
  8
H_MOVING
100
AcDbCircle
 62
1
  6
CONTINUOUS
 10
110.0817635066
 20
136.1002582892
 40
3.0
100
AcDbArc
 50
90.0
 51
270.0
  0
ARC
  5
60D
100
AcDbEntity
  8
H_MOVING
100
AcDbCircle
 62
1
  6
CONTINUOUS
 10
110.380299615
 20
144.0914193676
 40
3.0
100
AcDbArc
 50
90.0
 51
270.0
  0
ARC
  5
60E
100
AcDbEntity
  8
H_MOVING
100
AcDbCircle
 62
1
  6
CONTINUOUS
 10
110.6788357234
 20
152.0825804461
 40
3.0
100
AcDbArc
 50
90.0
 51
270.0
  0
ARC
  5
60F
100
AcDbEntity
  8
H_MOVING
100
AcDbCircle
 62
1
  6
CONTINUOUS
 10
110.9773718318
 20
160.0737415245
 40
3.0
100
AcDbArc
 50
90.0
 51
270.0
  0
ARC
  5
610
100
AcDbEntity
  8
H_MOVING
100
AcDbCircle
 62
1
  6
CONTINUOUS
 10
111.2759079402
 20
168.0649026029
 40
3.0
100
AcDbArc
 50
90.0
 51
270.0
  0
ARC
  5
611
100
AcDbEntity
  8
H_MOVING
100
AcDbCircle
 62
1
  6
CONTINUOUS
 10
111.5744440487
 20
176.0560636813
 40
3.0
100
AcDbArc
 50
90.0
 51
270.0
  0
ARC
  5
612
100
AcDbEntity
  8
H_MOVING
100
AcDbCircle
 62
1
  6
CONTINUOUS
 10
111.8729801571
 20
184.0472247598
 40
3.0
100
AcDbArc
 50
90.0
 51
270.0
  0
ARC
  5
613
100
AcDbEntity
  8
H_MOVING
100
AcDbCircle
 62
1
  6
CONTINUOUS
 10
112.1715162655
 20
192.0383858382
 40
3.0
100
AcDbArc
 50
90.0
 51
270.0
  0
ARC
  5
614
100
AcDbEntity
  8
H_MOVING
100
AcDbCircle
 62
1
  6
CONTINUOUS
 10
112.4700523739
 20
200.0295469166
 40
3.0
100
AcDbArc
 50
90.0
 51
270.0
  0
ARC
  5
615
100
AcDbEntity
  8
H_MOVING
100
AcDbCircle
 62
1
  6
CONTINUOUS
 10
112.7685884823
 20
208.020707995
 40
3.0
100
AcDbArc
 50
168.6984117818
 51
270.0
  0
ARC
  5
616
100
AcDbEntity
  8
INTER_PHASE_SCHIELDS
100
AcDbCircle
 62
5
  6
CONTINUOUS
 10
298.6547607982
 20
141.6621310183
 40
3.0
100
AcDbArc
 50
90.0
 51
180.0
  0
ARC
  5
617
100
AcDbEntity
  8
INTER_PHASE_SCHIELDS
100
AcDbCircle
 62
5
  6
CONTINUOUS
 10
298.6547607982
 20
88.3621310183
 40
3.0
100
AcDbArc
 50
180.0
 51
270.0
  0
ARC
  5
618
100
AcDbEntity
  8
INTER_PHASE_SCHIELDS
100
AcDbCircle
 62
5
  6
CONTINUOUS
 10
292.6047607982
 20
138.8621310183
 40
2.25
100
AcDbArc
 50
180.0
 51
360.0
  0
ARC
  5
619
100
AcDbEntity
  8
INTER_PHASE_SCHIELDS
100
AcDbCircle
 62
5
  6
CONTINUOUS
 10
298.6547607982
 20
141.6621310183
 40
1.0
100
AcDbArc
 50
90.0
 51
180.0
  0
ARC
  5
61A
100
AcDbEntity
  8
INTER_PHASE_SCHIELDS
100
AcDbCircle
 62
5
  6
CONTINUOUS
 10
298.6547607982
 20
88.3621310183
 40
1.0
100
AcDbArc
 50
180.0
 51
270.0
  0
ARC
  5
61B
100
AcDbEntity
  8
H_EXTERN_HANDLE
100
AcDbCircle
 62
7
  6
CONTINUOUS
 10
106.9547607982
 20
297.4121307403
 40
10.0
100
AcDbArc
 50
270.0
 51
360.0
  0
ARC
  5
61C
100
AcDbEntity
  8
TERMINAL_SCHROUD
100
AcDbCircle
 62
2
  6
CONTINUOUS
 10
238.9547607982
 20
430.5616259549
 40
7.0
100
AcDbArc
 50
180.0
 51
225.0
  0
ARC
  5
61D
100
AcDbEntity
  8
TERMINAL_SCHROUD
100
AcDbCircle
 62
2
  6
CONTINUOUS
 10
276.9547607982
 20
375.5910632065
 40
7.0
100
AcDbArc
 50
0.0
 51
45.0
  0
ARC
  5
61E
100
AcDbEntity
  8
TERMINAL_SCHROUD
100
AcDbCircle
 62
2
  6
CONTINUOUS
 10
276.9547607982
 20
375.5910632065
 40
5.0
100
AcDbArc
 50
0.0
 51
45.0
  0
ARC
  5
61F
100
AcDbEntity
  8
TERMINAL_SCHROUD
100
AcDbCircle
 62
2
  6
CONTINUOUS
 10
238.9547607982
 20
430.5616259549
 40
5.0
100
AcDbArc
 50
180.0
 51
225.0
  0
ARC
  5
620
100
AcDbEntity
  8
INTER_PHASE_SCHIELDS
100
AcDbCircle
 62
5
  6
CONTINUOUS
 10
298.6547607982
 20
348.6621310183
 40
3.0
100
AcDbArc
 50
180.0
 51
270.0
  0
ARC
  5
621
100
AcDbEntity
  8
INTER_PHASE_SCHIELDS
100
AcDbCircle
 62
5
  6
CONTINUOUS
 10
298.6547607982
 20
401.9621310183
 40
3.0
100
AcDbArc
 50
90.0
 51
180.0
  0
ARC
  5
622
100
AcDbEntity
  8
INTER_PHASE_SCHIELDS
100
AcDbCircle
 62
5
  6
CONTINUOUS
 10
292.6047607982
 20
351.4621310183
 40
2.25
100
AcDbArc
 50
0.0
 51
180.0
  0
ARC
  5
623
100
AcDbEntity
  8
INTER_PHASE_SCHIELDS
100
AcDbCircle
 62
5
  6
CONTINUOUS
 10
298.6547607982
 20
348.6621310183
 40
1.0
100
AcDbArc
 50
180.0
 51
270.0
  0
ARC
  5
624
100
AcDbEntity
  8
INTER_PHASE_SCHIELDS
100
AcDbCircle
 62
5
  6
CONTINUOUS
 10
298.6547607982
 20
401.9621310183
 40
1.0
100
AcDbArc
 50
90.0
 51
180.0
  0
ARC
  5
625
100
AcDbEntity
  8
BASIC_DEVICE
100
AcDbCircle
 62
7
  6
CONTINUOUS
 10
624.6706718587
 20
157.6621310183
 40
10.0
100
AcDbArc
 50
0.0
 51
90.0
  0
CIRCLE
  5
626
100
AcDbEntity
  8
BASIC_DEVICE
100
AcDbCircle
 62
7
  6
CONTINUOUS
 10
624.6706718587
 20
177.6621310183
 40
6.5
  0
CIRCLE
  5
627
100
AcDbEntity
  8
DEVICE_FIXING_HOLES
100
AcDbCircle
 62
1
  6
CONTINUOUS
 10
624.6706718587
 20
157.6621310183
 40
4.5
  0
CIRCLE
  5
628
100
AcDbEntity
  8
BASIC_DEVICE
100
AcDbCircle
 62
7
  6
CONTINUOUS
 10
624.6706718587
 20
157.6621310183
 40
4.5
  0
CIRCLE
  5
629
100
AcDbEntity
  8
BASIC_DEVICE
100
AcDbCircle
 62
7
  6
CONTINUOUS
 10
624.6706718587
 20
177.6621310183
 40
3.25
  0
ARC
  5
62A
100
AcDbEntity
  8
INTER_PHASE_SCHIELDS
100
AcDbCircle
 62
5
  6
CONTINUOUS
 10
354.4547607982
 20
88.3621310183
 40
3.0
100
AcDbArc
 50
270.0
 51
360.0
  0
ARC
  5
62B
100
AcDbEntity
  8
INTER_PHASE_SCHIELDS
100
AcDbCircle
 62
5
  6
CONTINUOUS
 10
354.4547607982
 20
141.6621310183
 40
3.0
100
AcDbArc
 50
0.0
 51
90.0
  0
ARC
  5
62C
100
AcDbEntity
  8
INTER_PHASE_SCHIELDS
100
AcDbCircle
 62
5
  6
CONTINUOUS
 10
360.6047607982
 20
138.8621310183
 40
2.25
100
AcDbArc
 50
180.0
 51
360.0
  0
ARC
  5
62D
100
AcDbEntity
  8
INTER_PHASE_SCHIELDS
100
AcDbCircle
 62
5
  6
CONTINUOUS
 10
354.4547607982
 20
88.3621310183
 40
1.0
100
AcDbArc
 50
270.0
 51
360.0
  0
ARC
  5
62E
100
AcDbEntity
  8
INTER_PHASE_SCHIELDS
100
AcDbCircle
 62
5
  6
CONTINUOUS
 10
354.4547607982
 20
141.6621310183
 40
1.0
100
AcDbArc
 50
0.0
 51
90.0
  0
ARC
  5
62F
100
AcDbEntity
  8
BASIC_DEVICE
100
AcDbCircle
 62
7
  6
CONTINUOUS
 10
624.6706718587
 20
332.6621310183
 40
10.0
100
AcDbArc
 50
270.0
 51
360.0
  0
CIRCLE
  5
630
100
AcDbEntity
  8
BASIC_DEVICE
100
AcDbCircle
 62
7
  6
CONTINUOUS
 10
624.6706718587
 20
312.6621310183
 40
6.5
  0
ARC
  5
631
100
AcDbEntity
  8
TERMINAL_SCHROUD
100
AcDbCircle
 62
2
  6
CONTINUOUS
 10
617.1706718587
 20
470.6621310183
 40
5.0
100
AcDbArc
 50
90.0
 51
180.0
  0
CIRCLE
  5
632
100
AcDbEntity
  8
DEVICE_FIXING_HOLES
100
AcDbCircle
 62
1
  6
CONTINUOUS
 10
624.6706718587
 20
332.6621310183
 40
4.5
  0
CIRCLE
  5
633
100
AcDbEntity
  8
BASIC_DEVICE
100
AcDbCircle
 62
7
  6
CONTINUOUS
 10
624.6706718587
 20
332.6621310183
 40
4.5
  0
CIRCLE
  5
634
100
AcDbEntity
  8
BASIC_DEVICE
100
AcDbCircle
 62
7
  6
CONTINUOUS
 10
624.6706718587
 20
312.6621310183
 40
3.25
  0
ARC
  5
635
100
AcDbEntity
  8
INTER_PHASE_SCHIELDS
100
AcDbCircle
 62
5
  6
CONTINUOUS
 10
354.4547607982
 20
401.9621310183
 40
3.0
100
AcDbArc
 50
0.0
 51
90.0
  0
ARC
  5
636
100
AcDbEntity
  8
INTER_PHASE_SCHIELDS
100
AcDbCircle
 62
5
  6
CONTINUOUS
 10
354.4547607982
 20
348.6621310183
 40
3.0
100
AcDbArc
 50
270.0
 51
360.0
  0
ARC
  5
637
100
AcDbEntity
  8
INTER_PHASE_SCHIELDS
100
AcDbCircle
 62
5
  6
CONTINUOUS
 10
360.6047607982
 20
351.4621310183
 40
2.25
100
AcDbArc
 50
0.0
 51
180.0
  0
ARC
  5
638
100
AcDbEntity
  8
INTER_PHASE_SCHIELDS
100
AcDbCircle
 62
5
  6
CONTINUOUS
 10
354.4547607982
 20
401.9621310183
 40
1.0
100
AcDbArc
 50
0.0
 51
90.0
  0
ARC
  5
639
100
AcDbEntity
  8
INTER_PHASE_SCHIELDS
100
AcDbCircle
 62
5
  6
CONTINUOUS
 10
354.4547607982
 20
348.6621310183
 40
1.0
100
AcDbArc
 50
270.0
 51
360.0
  0
CIRCLE
  5
63A
100
AcDbEntity
  8
BASIC_DEVICE
100
AcDbCircle
 62
7
  6
CONTINUOUS
 10
713.1706718587
 20
157.6621310183
 40
6.5
  0
CIRCLE
  5
63B
100
AcDbEntity
  8
BASIC_DEVICE
100
AcDbCircle
 62
7
  6
CONTINUOUS
 10
665.1706718587
 20
100.1621310183
 40
5.5
  0
CIRCLE
  5
63C
100
AcDbEntity
  8
BASIC_DEVICE
100
AcDbCircle
 62
7
  6
CONTINUOUS
 10
665.1706718587
 20
120.1621310183
 40
5.5
  0
CIRCLE
  5
63D
100
AcDbEntity
  8
BASIC_DEVICE
100
AcDbCircle
 62
7
  6
CONTINUOUS
 10
705.1706718587
 20
100.1621310183
 40
5.5
  0
CIRCLE
  5
63E
100
AcDbEntity
  8
BASIC_DEVICE
100
AcDbCircle
 62
7
  6
CONTINUOUS
 10
705.1706718587
 20
120.1621310183
 40
5.5
  0
CIRCLE
  5
63F
100
AcDbEntity
  8
BASIC_DEVICE
100
AcDbCircle
 62
7
  6
CONTINUOUS
 10
713.1706718587
 20
157.6621310183
 40
3.25
  0
CIRCLE
  5
640
100
AcDbEntity
  8
AM_12
100
AcDbCircle
 62
4
  6
CONTINUOUS
 10
732.7017703337
 20
82.5068298291
 40
1.75
  0
CIRCLE
  5
641
100
AcDbEntity
  8
BASIC_DEVICE
100
AcDbCircle
 62
1
  6
CONTINUOUS
 10
782.5706718585
 20
273.1621310184
 40
2.55
  0
LWPOLYLINE
  5
642
100
AcDbEntity
  8
TEXT
100
AcDbPolyline
 62
2
  6
CONTINUOUS
 90
2
 70
1
 43
1.0
 10
760.8658216271
 20
273.1621310184
 42
1.0
 10
765.8658216271
 20
273.1621310184
 42
1.0
  0
ARC
  5
643
100
AcDbEntity
  8
H_EXTERN_HANDLE
100
AcDbCircle
 62
7
  6
CONTINUOUS
 10
783.7376368346
 20
264.6621310184
 40
2.5
100
AcDbArc
 50
30.4949678746
 51
89.9999999997
  0
ARC
  5
644
100
AcDbEntity
  8
BASIC_DEVICE
100
AcDbCircle
 62
7
  6
CONTINUOUS
 10
729.1706718587
 20
230.1621310183
 40
2.0
100
AcDbArc
 50
270.0
 51
360.0
  0
ARC
  5
645
100
AcDbEntity
  8
BASIC_DEVICE
100
AcDbCircle
 62
7
  6
CONTINUOUS
 10
729.1706718587
 20
260.1621310183
 40
2.0
100
AcDbArc
 50
0.0
 51
90.0
  0
ARC
  5
646
100
AcDbEntity
  8
BASIC_DEVICE
100
AcDbCircle
 62
7
  6
CONTINUOUS
 10
713.1706718587
 20
260.1621310183
 40
2.0
100
AcDbArc
 50
90.0
 51
180.0
  0
ARC
  5
647
100
AcDbEntity
  8
BASIC_DEVICE
100
AcDbCircle
 62
7
  6
CONTINUOUS
 10
713.1706718587
 20
230.1621310183
 40
2.0
100
AcDbArc
 50
180.0
 51
270.0
  0
CIRCLE
  5
648
100
AcDbEntity
  8
BASIC_DEVICE
100
AcDbCircle
 62
1
  6
CONTINUOUS
 10
782.5706718585
 20
273.1621310184
 40
1.55
  0
ARC
  5
649
100
AcDbEntity
  8
H_EXTERN_HANDLE
100
AcDbCircle
 62
7
  6
CONTINUOUS
 10
753.1706718584
 20
263.6621310184
 40
1.0
100
AcDbArc
 50
180.0
 51
270.0
  0
CIRCLE
  5
64A
100
AcDbEntity
  8
BASIC_DEVICE
100
AcDbCircle
 62
7
  6
CONTINUOUS
 10
883.1706718587
 20
157.6621310183
 40
6.5
  0
CIRCLE
  5
64B
100
AcDbEntity
  8
BASIC_DEVICE
100
AcDbCircle
 62
7
  6
CONTINUOUS
 10
825.1706718587
 20
120.1621310183
 40
5.5
  0
CIRCLE
  5
64C
100
AcDbEntity
  8
BASIC_DEVICE
100
AcDbCircle
 62
7
  6
CONTINUOUS
 10
825.1706718587
 20
100.1621310183
 40
5.5
  0
CIRCLE
  5
64D
100
AcDbEntity
  8
BASIC_DEVICE
100
AcDbCircle
 62
7
  6
CONTINUOUS
 10
785.1706718587
 20
100.1621310183
 40
5.5
  0
CIRCLE
  5
64E
100
AcDbEntity
  8
BASIC_DEVICE
100
AcDbCircle
 62
7
  6
CONTINUOUS
 10
785.1706718587
 20
120.1621310183
 40
5.5
  0
CIRCLE
  5
64F
100
AcDbEntity
  8
BASIC_DEVICE
100
AcDbCircle
 62
7
  6
CONTINUOUS
 10
905.1706718587
 20
100.1621310183
 40
5.5
  0
CIRCLE
  5
650
100
AcDbEntity
  8
BASIC_DEVICE
100
AcDbCircle
 62
7
  6
CONTINUOUS
 10
905.1706718587
 20
120.1621310183
 40
5.5
  0
CIRCLE
  5
651
100
AcDbEntity
  8
BASIC_DEVICE
100
AcDbCircle
 62
7
  6
CONTINUOUS
 10
883.1706718587
 20
157.6621310183
 40
3.25
  0
ARC
  5
652
100
AcDbEntity
  8
BASIC_DEVICE
100
AcDbCircle
 62
7
  6
CONTINUOUS
 10
861.1706718585
 20
147.6621310184
 40
2.9
100
AcDbArc
 50
239.551875
 51
300.45375
  0
CIRCLE
  5
653
100
AcDbEntity
  8
AM_12
100
AcDbCircle
 62
4
  6
CONTINUOUS
 10
852.7017703337
 20
82.5068298291
 40
1.75
  0
ARC
  5
654
100
AcDbEntity
  8
H_MOVING
100
AcDbCircle
 62
1
  6
CONTINUOUS
 10
807.6706718584
 20
85.1621310183
 40
1.0
100
AcDbArc
 50
270.0
 51
360.0
  0
ARC
  5
655
100
AcDbEntity
  8
H_MOVING
100
AcDbCircle
 62
1
  6
CONTINUOUS
 10
788.6706718584
 20
85.1621310183
 40
1.0
100
AcDbArc
 50
180.0
 51
270.0
  0
ARC
  5
656
100
AcDbEntity
  8
H_EXTERN_HANDLE
100
AcDbCircle
 62
7
  6
CONTINUOUS
 10
798.1706718585
 20
273.1621310184
 40
40.0
100
AcDbArc
 50
90.0
 51
164.7815448422
  0
ARC
  5
657
100
AcDbEntity
  8
H_EXTERN_HANDLE
100
AcDbCircle
 62
7
  6
CONTINUOUS
 10
798.1706718585
 20
273.1621310184
 40
40.0
100
AcDbArc
 50
195.2184551578
 51
344.7815448422
  0
ARC
  5
658
100
AcDbEntity
  8
H_EXTERN_HANDLE
100
AcDbCircle
 62
3
  6
CONTINUOUS
 10
798.1706718585
 20
273.1621310184
 40
39.5
100
AcDbArc
 50
195.4158485295
 51
245.0
  0
ARC
  5
659
100
AcDbEntity
  8
H_EXTERN_HANDLE
100
AcDbCircle
 62
3
  6
CONTINUOUS
 10
798.1706718585
 20
273.1621310184
 40
39.5
100
AcDbArc
 50
135.7252824015
 51
164.5841514705
  0
ARC
  5
65A
100
AcDbEntity
  8
H_EXTERN_HANDLE
100
AcDbCircle
 62
1
  6
CONTINUOUS
 10
798.1706718585
 20
273.1621310184
 40
39.5
100
AcDbArc
 50
90.0
 51
134.2747175986
  0
ARC
  5
65B
100
AcDbEntity
  8
BASIC_DEVICE
100
AcDbCircle
 62
7
  6
CONTINUOUS
 10
798.1706718587
 20
273.1621310183
 40
32.0
100
AcDbArc
 50
263.6206297911
 51
351.7867892983
  0
ARC
  5
65C
100
AcDbEntity
  8
H_EXTERN_HANDLE
100
AcDbCircle
 62
3
  6
CONTINUOUS
 10
798.1706718585
 20
273.1621310184
 40
30.5
100
AcDbArc
 50
200.1367700284
 51
245.0
  0
ARC
  5
65D
100
AcDbEntity
  8
H_EXTERN_HANDLE
100
AcDbCircle
 62
3
  6
CONTINUOUS
 10
798.1706718585
 20
273.1621310184
 40
30.5
100
AcDbArc
 50
135.93931715
 51
159.8632299717
  0
ARC
  5
65E
100
AcDbEntity
  8
H_EXTERN_HANDLE
100
AcDbCircle
 62
1
  6
CONTINUOUS
 10
798.1706718585
 20
273.1621310184
 40
30.5
100
AcDbArc
 50
90.0
 51
134.06068285
  0
ARC
  5
65F
100
AcDbEntity
  8
H_EXTERN_HANDLE
100
AcDbCircle
 62
7
  6
CONTINUOUS
 10
798.1706718585
 20
273.1621310184
 40
30.0
100
AcDbArc
 50
208.3593500282
 51
331.6406499718
  0
ARC
  5
660
100
AcDbEntity
  8
H_EXTERN_HANDLE
100
AcDbCircle
 62
7
  6
CONTINUOUS
 10
798.1706718585
 20
273.1621310184
 40
30.0
100
AcDbArc
 50
332.0471134109
 51
339.5126848853
  0
ARC
  5
661
100
AcDbEntity
  8
H_EXTERN_HANDLE
100
AcDbCircle
 62
7
  6
CONTINUOUS
 10
798.1706718585
 20
273.1621310184
 40
30.0
100
AcDbArc
 50
28.3593500282
 51
151.6406499718
  0
ARC
  5
662
100
AcDbEntity
  8
BASIC_DEVICE
100
AcDbCircle
 62
7
  6
CONTINUOUS
 10
798.1706718584
 20
273.1621310184
 40
24.0
100
AcDbArc
 50
261.7867892983
 51
349.4161974035
  0
ARC
  5
663
100
AcDbEntity
  8
BASIC_DEVICE
100
AcDbCircle
 62
1
  6
CONTINUOUS
 10
798.1706718585
 20
273.1621310184
 40
15.6
100
AcDbArc
 50
6.6258095648
 51
170.6238852948
  0
ARC
  5
664
100
AcDbEntity
  8
BASIC_DEVICE
100
AcDbCircle
 62
1
  6
CONTINUOUS
 10
798.1706718585
 20
273.1621310184
 40
15.6
100
AcDbArc
 50
189.3761147052
 51
353.3741904352
  0
ARC
  5
665
100
AcDbEntity
  8
H_EXTERN_HANDLE
100
AcDbCircle
 62
7
  6
CONTINUOUS
 10
798.1706718585
 20
273.1621310184
 40
14.25
100
AcDbArc
 50
30.4949678748
 51
149.5050321252
  0
ARC
  5
666
100
AcDbEntity
  8
H_EXTERN_HANDLE
100
AcDbCircle
 62
7
  6
CONTINUOUS
 10
798.1706718585
 20
273.1621310184
 40
14.25
100
AcDbArc
 50
210.4949678748
 51
329.5050321252
  0
ARC
  5
667
100
AcDbEntity
  8
H_EXTERN_HANDLE
100
AcDbCircle
 62
7
  6
CONTINUOUS
 10
795.1706718584
 20
273.1621310183
 40
10.25
100
AcDbArc
 50
219.6650129075
 51
320.3349870925
  0
ARC
  5
668
100
AcDbEntity
  8
H_EXTERN_HANDLE
100
AcDbCircle
 62
7
  6
CONTINUOUS
 10
795.1706718584
 20
273.1621310183
 40
10.25
100
AcDbArc
 50
39.6650129077
 51
140.3349870923
  0
ARC
  5
669
100
AcDbEntity
  8
H_EXTERN_HANDLE
100
AcDbCircle
 62
7
  6
CONTINUOUS
 10
812.6037068823
 20
264.6621310184
 40
2.5
100
AcDbArc
 50
90.0000000002
 51
149.5050321252
  0
ARC
  5
66A
100
AcDbEntity
  8
H_EXTERN_HANDLE
100
AcDbCircle
 62
7
  6
CONTINUOUS
 10
786.1256456009
 20
265.6621310184
 40
1.5
100
AcDbArc
 50
39.6650129075
 51
89.9999999999
  0
ARC
  5
66B
100
AcDbEntity
  8
H_EXTERN_HANDLE
100
AcDbCircle
 62
7
  6
CONTINUOUS
 10
804.215698116
 20
265.6621310184
 40
1.5
100
AcDbArc
 50
90.0
 51
140.3349870925
  0
ARC
  5
66C
100
AcDbEntity
  8
BASIC_DEVICE
100
AcDbCircle
 62
7
  6
CONTINUOUS
 10
822.3412118505
 20
268.5569466849
 40
0.6114558412
100
AcDbArc
 50
98.2132107016
 51
161.2029867018
  0
ARC
  5
66D
100
AcDbEntity
  8
BASIC_DEVICE
100
AcDbCircle
 62
7
  6
CONTINUOUS
 10
829.347586395
 20
268.6621310184
 40
0.5
100
AcDbArc
 50
351.7867892983
 51
90.0
  0
ARC
  5
66E
100
AcDbEntity
  8
BASIC_DEVICE
100
AcDbCircle
 62
7
  6
CONTINUOUS
 10
794.6706718585
 20
241.8571793334
 40
0.5
100
AcDbArc
 50
180.0000000005
 51
263.6206297911
  0
ARC
  5
66F
100
AcDbEntity
  8
BASIC_DEVICE
100
AcDbCircle
 62
7
  6
CONTINUOUS
 10
794.6706718584
 20
248.9134197122
 40
0.5
100
AcDbArc
 50
81.7867892984
 51
180.0
  0
CIRCLE
  5
670
100
AcDbEntity
  8
BASIC_DEVICE
100
AcDbCircle
 62
7
  6
CONTINUOUS
 10
713.1706718587
 20
332.6621310183
 40
6.5
  0
CIRCLE
  5
671
100
AcDbEntity
  8
BASIC_DEVICE
100
AcDbCircle
 62
7
  6
CONTINUOUS
 10
883.1706718587
 20
332.6621310183
 40
6.5
  0
CIRCLE
  5
672
100
AcDbEntity
  8
BASIC_DEVICE
100
AcDbCircle
 62
7
  6
CONTINUOUS
 10
825.1706718587
 20
390.1621310183
 40
5.5
  0
CIRCLE
  5
673
100
AcDbEntity
  8
BASIC_DEVICE
100
AcDbCircle
 62
7
  6
CONTINUOUS
 10
825.1706718587
 20
370.1621310183
 40
5.5
  0
CIRCLE
  5
674
100
AcDbEntity
  8
BASIC_DEVICE
100
AcDbCircle
 62
7
  6
CONTINUOUS
 10
665.1706718587
 20
370.1621310183
 40
5.5
  0
CIRCLE
  5
675
100
AcDbEntity
  8
BASIC_DEVICE
100
AcDbCircle
 62
7
  6
CONTINUOUS
 10
665.1706718587
 20
390.1621310183
 40
5.5
  0
CIRCLE
  5
676
100
AcDbEntity
  8
BASIC_DEVICE
100
AcDbCircle
 62
7
  6
CONTINUOUS
 10
705.1706718587
 20
370.1621310183
 40
5.5
  0
CIRCLE
  5
677
100
AcDbEntity
  8
BASIC_DEVICE
100
AcDbCircle
 62
7
  6
CONTINUOUS
 10
705.1706718587
 20
390.1621310183
 40
5.5
  0
CIRCLE
  5
678
100
AcDbEntity
  8
BASIC_DEVICE
100
AcDbCircle
 62
7
  6
CONTINUOUS
 10
785.1706718587
 20
390.1621310183
 40
5.5
  0
CIRCLE
  5
679
100
AcDbEntity
  8
BASIC_DEVICE
100
AcDbCircle
 62
7
  6
CONTINUOUS
 10
785.1706718587
 20
370.1621310183
 40
5.5
  0
CIRCLE
  5
67A
100
AcDbEntity
  8
BASIC_DEVICE
100
AcDbCircle
 62
7
  6
CONTINUOUS
 10
905.1706718587
 20
390.1621310183
 40
5.5
  0
CIRCLE
  5
67B
100
AcDbEntity
  8
BASIC_DEVICE
100
AcDbCircle
 62
7
  6
CONTINUOUS
 10
905.1706718587
 20
370.1621310183
 40
5.5
  0
CIRCLE
  5
67C
100
AcDbEntity
  8
BASIC_DEVICE
100
AcDbCircle
 62
7
  6
CONTINUOUS
 10
713.1706718587
 20
332.6621310183
 40
3.25
  0
CIRCLE
  5
67D
100
AcDbEntity
  8
BASIC_DEVICE
100
AcDbCircle
 62
7
  6
CONTINUOUS
 10
883.1706718587
 20
332.6621310183
 40
3.25
  0
ARC
  5
67E
100
AcDbEntity
  8
BASIC_DEVICE
100
AcDbCircle
 62
7
  6
CONTINUOUS
 10
861.1706718585
 20
342.6621310184
 40
2.9
100
AcDbArc
 50
59.54625
 51
120.448125
  0
ARC
  5
67F
100
AcDbEntity
  8
H_EXTERN_HANDLE
100
AcDbCircle
 62
7
  6
CONTINUOUS
 10
783.7376368346
 20
281.6621310184
 40
2.5
100
AcDbArc
 50
270.0
 51
329.5050321252
  0
ARC
  5
680
100
AcDbEntity
  8
H_EXTERN_HANDLE
100
AcDbCircle
 62
7
  6
CONTINUOUS
 10
812.6037068823
 20
281.6621310184
 40
2.5
100
AcDbArc
 50
210.4949678747
 51
269.9999999999
  0
CIRCLE
  5
681
100
AcDbEntity
  8
TERMINAL_SCHROUD
100
AcDbCircle
 62
2
  6
CONTINUOUS
 10
687.1706718587
 20
332.6621310183
 40
2.25
  0
CIRCLE
  5
682
100
AcDbEntity
  8
TERMINAL_SCHROUD
100
AcDbCircle
 62
2
  6
CONTINUOUS
 10
909.1706718587
 20
332.6621310183
 40
2.25
  0
CIRCLE
  5
683
100
AcDbEntity
  8
AM_12
100
AcDbCircle
 62
4
  6
CONTINUOUS
 10
815.3787775437
 20
428.4563897244
 40
1.75
  0
CIRCLE
  5
684
100
AcDbEntity
  8
AM_12
100
AcDbCircle
 62
4
  6
CONTINUOUS
 10
732.7017703337
 20
407.8174322076
 40
1.75
  0
CIRCLE
  5
685
100
AcDbEntity
  8
AM_12
100
AcDbCircle
 62
4
  6
CONTINUOUS
 10
852.7017703337
 20
407.8174322076
 40
1.75
  0
CIRCLE
  5
686
100
AcDbEntity
  8
AM_12
100
AcDbCircle
 62
4
  6
CONTINUOUS
 10
876.5163600149
 20
283.7187143117
 40
1.75
  0
ARC
  5
687
100
AcDbEntity
  8
H_EXTERN_HANDLE
100
AcDbCircle
 62
7
  6
CONTINUOUS
 10
804.215698116
 20
280.6621310184
 40
1.5
100
AcDbArc
 50
219.6650129077
 51
269.9999999999
  0
ARC
  5
688
100
AcDbEntity
  8
H_EXTERN_HANDLE
100
AcDbCircle
 62
7
  6
CONTINUOUS
 10
786.1256456009
 20
280.6621310184
 40
1.5
100
AcDbArc
 50
270.0
 51
320.3349870923
  0
ARC
  5
689
100
AcDbEntity
  8
H_EXTERN_HANDLE
100
AcDbCircle
 62
7
  6
CONTINUOUS
 10
753.1706718584
 20
282.6621310183
 40
1.0
100
AcDbArc
 50
90.0
 51
180.0
  0
CIRCLE
  5
68A
100
AcDbEntity
  8
HANDLE_FIXING_HOLES
100
AcDbCircle
 62
1
  6
CONTINUOUS
 10
1192.5836953095
 20
273.1621310184
 40
15.5
  0
ARC
  5
68B
100
AcDbEntity
  8
BASIC_DEVICE
100
AcDbCircle
 62
7
  6
CONTINUOUS
 10
971.6706718587
 20
157.6621310183
 40
10.0
100
AcDbArc
 50
90.0
 51
180.0
  0
CIRCLE
  5
68C
100
AcDbEntity
  8
BASIC_DEVICE
100
AcDbCircle
 62
7
  6
CONTINUOUS
 10
971.6706718587
 20
177.6621310183
 40
6.5
  0
CIRCLE
  5
68D
100
AcDbEntity
  8
BASIC_DEVICE
100
AcDbCircle
 62
7
  6
CONTINUOUS
 10
945.1706718587
 20
100.1621310183
 40
5.5
  0
CIRCLE
  5
68E
100
AcDbEntity
  8
BASIC_DEVICE
100
AcDbCircle
 62
7
  6
CONTINUOUS
 10
945.1706718587
 20
120.1621310183
 40
5.5
  0
CIRCLE
  5
68F
100
AcDbEntity
  8
BASIC_DEVICE
100
AcDbCircle
 62
7
  6
CONTINUOUS
 10
971.6706718587
 20
157.6621310183
 40
4.5
  0
CIRCLE
  5
690
100
AcDbEntity
  8
DEVICE_FIXING_HOLES
100
AcDbCircle
 62
1
  6
CONTINUOUS
 10
971.6706718587
 20
157.6621310183
 40
4.5
  0
CIRCLE
  5
691
100
AcDbEntity
  8
BASIC_DEVICE
100
AcDbCircle
 62
7
  6
CONTINUOUS
 10
971.6706718587
 20
177.6621310183
 40
3.25
  0
CIRCLE
  5
692
100
AcDbEntity
  8
HANDLE_FIXING_HOLES
100
AcDbCircle
 62
1
  6
CONTINUOUS
 10
1192.5836953095
 20
248.1621310184
 40
2.25
  0
CIRCLE
  5
693
100
AcDbEntity
  8
HANDLE_FIXING_HOLES
100
AcDbCircle
 62
1
  6
CONTINUOUS
 10
1167.5836953095
 20
273.1621310184
 40
2.25
  0
CIRCLE
  5
694
100
AcDbEntity
  8
HANDLE_FIXING_HOLES
100
AcDbCircle
 62
1
  6
CONTINUOUS
 10
1217.5836953095
 20
273.1621310184
 40
2.25
  0
CIRCLE
  5
695
100
AcDbEntity
  8
AM_12
100
AcDbCircle
 62
4
  6
CONTINUOUS
 10
983.2618260518
 20
219.4419647405
 40
1.75
  0
ARC
  5
696
100
AcDbEntity
  8
H_EXTERN_HANDLE
100
AcDbCircle
 62
7
  6
CONTINUOUS
 10
987.1706718584
 20
263.6621310184
 40
1.0
100
AcDbArc
 50
270.0
 51
360.0
  0
ARC
  5
697
100
AcDbEntity
  8
BASIC_DEVICE
100
AcDbCircle
 62
7
  6
CONTINUOUS
 10
971.6706718587
 20
332.6621310183
 40
10.0
100
AcDbArc
 50
180.0
 51
270.0
  0
CIRCLE
  5
698
100
AcDbEntity
  8
BASIC_DEVICE
100
AcDbCircle
 62
7
  6
CONTINUOUS
 10
971.6706718587
 20
312.6621310183
 40
6.5
  0
CIRCLE
  5
699
100
AcDbEntity
  8
BASIC_DEVICE
100
AcDbCircle
 62
7
  6
CONTINUOUS
 10
945.1706718587
 20
390.1621310183
 40
5.5
  0
CIRCLE
  5
69A
100
AcDbEntity
  8
BASIC_DEVICE
100
AcDbCircle
 62
7
  6
CONTINUOUS
 10
945.1706718587
 20
370.1621310183
 40
5.5
  0
ARC
  5
69B
100
AcDbEntity
  8
TERMINAL_SCHROUD
100
AcDbCircle
 62
2
  6
CONTINUOUS
 10
979.1706718587
 20
470.6621310183
 40
5.0
100
AcDbArc
 50
0.0
 51
90.0
  0
CIRCLE
  5
69C
100
AcDbEntity
  8
DEVICE_FIXING_HOLES
100
AcDbCircle
 62
1
  6
CONTINUOUS
 10
971.6706718587
 20
332.6621310183
 40
4.5
  0
CIRCLE
  5
69D
100
AcDbEntity
  8
BASIC_DEVICE
100
AcDbCircle
 62
7
  6
CONTINUOUS
 10
971.6706718587
 20
332.6621310183
 40
4.5
  0
CIRCLE
  5
69E
100
AcDbEntity
  8
BASIC_DEVICE
100
AcDbCircle
 62
7
  6
CONTINUOUS
 10
971.6706718587
 20
312.6621310183
 40
3.25
  0
CIRCLE
  5
69F
100
AcDbEntity
  8
HANDLE_FIXING_HOLES
100
AcDbCircle
 62
1
  6
CONTINUOUS
 10
1192.5836953095
 20
298.1621310184
 40
2.25
  0
ARC
  5
6A0
100
AcDbEntity
  8
H_EXTERN_HANDLE
100
AcDbCircle
 62
7
  6
CONTINUOUS
 10
987.1706718584
 20
282.6621310184
 40
1.0
100
AcDbArc
 50
0.0
 51
90.0
  0
ARC
  5
6A1
100
AcDbEntity
  8
H_MOVING
100
AcDbCircle
 62
1
  6
CONTINUOUS
 10
798.1706721366
 20
958.7427702959
 40
10.5
100
AcDbArc
 50
177.4898603379
 51
2.5101405927
  0
ARC
  5
6A2
100
AcDbEntity
  8
H_MOVING
100
AcDbCircle
 62
1
  6
CONTINUOUS
 10
798.1706720921
 20
964.2187610107
 40
10.2601724327
100
AcDbArc
 50
177.4898603379
 51
2.5101405927
  0
ARC
  5
6A3
100
AcDbEntity
  8
H_MOVING
100
AcDbCircle
 62
1
  6
CONTINUOUS
 10
793.9206718584
 20
986.4923195264
 40
10.0
100
AcDbArc
 50
116.1155560628
 51
180.0
  0
ARC
  5
6A4
100
AcDbEntity
  8
H_MOVING
100
AcDbCircle
 62
1
  6
CONTINUOUS
 10
802.4206718584
 20
986.4923195264
 40
10.0
100
AcDbArc
 50
0.0
 51
63.8844439374
  0
ARC
  5
6A5
100
AcDbEntity
  8
H_MOVING
100
AcDbCircle
 62
1
  6
CONTINUOUS
 10
773.9206718584
 20
956.9923195264
 40
10.0
100
AcDbArc
 50
270.0
 51
360.0
  0
ARC
  5
6A6
100
AcDbEntity
  8
H_MOVING
100
AcDbCircle
 62
1
  6
CONTINUOUS
 10
822.4206718584
 20
956.9923195264
 40
10.0
100
AcDbArc
 50
180.0
 51
270.0
  0
ARC
  5
6A7
100
AcDbEntity
  8
H_MOVING
100
AcDbCircle
 62
1
  6
CONTINUOUS
 10
798.1706718584
 20
992.9923195264
 40
9.0
100
AcDbArc
 50
2.5101405927
 51
177.4898603379
  0
ARC
  5
6A8
100
AcDbEntity
  8
H_EXTERN_HANDLE
100
AcDbCircle
 62
7
  6
CONTINUOUS
 10
780.1706718584
 20
955.4923195264
 40
8.5
100
AcDbArc
 50
180.0
 51
270.0
  0
ARC
  5
6A9
100
AcDbEntity
  8
H_EXTERN_HANDLE
100
AcDbCircle
 62
7
  6
CONTINUOUS
 10
816.1706718584
 20
955.4923195264
 40
8.5
100
AcDbArc
 50
270.0
 51
360.0
  0
ARC
  5
6AA
100
AcDbEntity
  8
H_EXTERN_HANDLE
100
AcDbCircle
 62
7
  6
CONTINUOUS
 10
760.6706718584
 20
977.9923195264
 40
4.5
100
AcDbArc
 50
0.0
 51
89.9999999993
  0
ARC
  5
6AB
100
AcDbEntity
  8
H_EXTERN_HANDLE
100
AcDbCircle
 62
7
  6
CONTINUOUS
 10
760.6706718584
 20
961.9923195264
 40
4.5
100
AcDbArc
 50
269.9999999994
 51
360.0
  0
ARC
  5
6AC
100
AcDbEntity
  8
H_EXTERN_HANDLE
100
AcDbCircle
 62
7
  6
CONTINUOUS
 10
983.17951078
 20
955.6565334684
 40
3.0
100
AcDbArc
 50
0.0
 51
180.0
  0
ARC
  5
6AD
100
AcDbEntity
  8
H_EXTERN_HANDLE
100
AcDbCircle
 62
7
  6
CONTINUOUS
 10
975.1883497016
 20
955.35799736
 40
3.0
100
AcDbArc
 50
0.0
 51
180.0
  0
ARC
  5
6AE
100
AcDbEntity
  8
H_EXTERN_HANDLE
100
AcDbCircle
 62
7
  6
CONTINUOUS
 10
967.1971886232
 20
955.0594612516
 40
3.0
100
AcDbArc
 50
0.0
 51
180.0
  0
ARC
  5
6AF
100
AcDbEntity
  8
H_EXTERN_HANDLE
100
AcDbCircle
 62
7
  6
CONTINUOUS
 10
959.2060275447
 20
954.7609251432
 40
3.0
100
AcDbArc
 50
0.0
 51
180.0
  0
ARC
  5
6B0
100
AcDbEntity
  8
H_EXTERN_HANDLE
100
AcDbCircle
 62
7
  6
CONTINUOUS
 10
951.2148664663
 20
954.4623890348
 40
3.0
100
AcDbArc
 50
0.0
 51
180.0
  0
ARC
  5
6B1
100
AcDbEntity
  8
H_EXTERN_HANDLE
100
AcDbCircle
 62
7
  6
CONTINUOUS
 10
943.2237053879
 20
954.1638529264
 40
3.0
100
AcDbArc
 50
0.0
 51
180.0
  0
ARC
  5
6B2
100
AcDbEntity
  8
H_EXTERN_HANDLE
100
AcDbCircle
 62
7
  6
CONTINUOUS
 10
935.2325443095
 20
953.865316818
 40
3.0
100
AcDbArc
 50
0.0
 51
180.0
  0
ARC
  5
6B3
100
AcDbEntity
  8
H_EXTERN_HANDLE
100
AcDbCircle
 62
7
  6
CONTINUOUS
 10
927.241383231
 20
953.5667807096
 40
3.0
100
AcDbArc
 50
0.0
 51
180.0
  0
ARC
  5
6B4
100
AcDbEntity
  8
H_EXTERN_HANDLE
100
AcDbCircle
 62
7
  6
CONTINUOUS
 10
919.2502221526
 20
953.2682446012
 40
3.0
100
AcDbArc
 50
0.0
 51
180.0
  0
ARC
  5
6B5
100
AcDbEntity
  8
H_EXTERN_HANDLE
100
AcDbCircle
 62
7
  6
CONTINUOUS
 10
911.2590610742
 20
952.9697084927
 40
3.0
100
AcDbArc
 50
0.0
 51
180.0
  0
ARC
  5
6B6
100
AcDbEntity
  8
H_EXTERN_HANDLE
100
AcDbCircle
 62
7
  6
CONTINUOUS
 10
903.2678999958
 20
952.6711723843
 40
3.0
100
AcDbArc
 50
0.0
 51
180.0
  0
ARC
  5
6B7
100
AcDbEntity
  8
H_EXTERN_HANDLE
100
AcDbCircle
 62
7
  6
CONTINUOUS
 10
895.2767389173
 20
952.3726362759
 40
3.0
100
AcDbArc
 50
0.0
 51
180.0
  0
ARC
  5
6B8
100
AcDbEntity
  8
H_EXTERN_HANDLE
100
AcDbCircle
 62
7
  6
CONTINUOUS
 10
887.2855778389
 20
952.0741001675
 40
3.0
100
AcDbArc
 50
0.0
 51
180.0
  0
ARC
  5
6B9
100
AcDbEntity
  8
H_EXTERN_HANDLE
100
AcDbCircle
 62
7
  6
CONTINUOUS
 10
879.2944167605
 20
951.7755640591
 40
3.0
100
AcDbArc
 50
0.0
 51
180.0
  0
ARC
  5
6BA
100
AcDbEntity
  8
H_EXTERN_HANDLE
100
AcDbCircle
 62
7
  6
CONTINUOUS
 10
871.3032556821
 20
951.4770279507
 40
3.0
100
AcDbArc
 50
0.0
 51
180.0
  0
ARC
  5
6BB
100
AcDbEntity
  8
H_EXTERN_HANDLE
100
AcDbCircle
 62
7
  6
CONTINUOUS
 10
863.3120946036
 20
951.1784918423
 40
3.0
100
AcDbArc
 50
0.0
 51
180.0
  0
ARC
  5
6BC
100
AcDbEntity
  8
H_EXTERN_HANDLE
100
AcDbCircle
 62
7
  6
CONTINUOUS
 10
855.3209335252
 20
950.8799557339
 40
3.0
100
AcDbArc
 50
0.0
 51
180.0
  0
ARC
  5
6BD
100
AcDbEntity
  8
H_EXTERN_HANDLE
100
AcDbCircle
 62
7
  6
CONTINUOUS
 10
847.3297724468
 20
950.5814196255
 40
3.0
100
AcDbArc
 50
0.0
 51
180.0
  0
ARC
  5
6BE
100
AcDbEntity
  8
H_EXTERN_HANDLE
100
AcDbCircle
 62
7
  6
CONTINUOUS
 10
839.3386113684
 20
950.282883517
 40
3.0
100
AcDbArc
 50
0.0
 51
180.0
  0
ENDSEC
  0
SECTION
  2
OBJECTS
  0
DICTIONARY
  5
C
100
AcDbDictionary
280
0
281
1
  3
ACAD_GROUP
350
D
  3
ACAD_MLINESTYLE
350
17
  3
ACAD_LAYOUT
350
1A
  3
ACAD_PLOTSETTINGS
350
19
  3
ACAD_PLOTSTYLENAME
350
E
  0
DICTIONARY
  5
D
102
{ACAD_REACTORS
330
C
102
}
100
AcDbDictionary
280
0
281
1
  0
ACDBDICTIONARYWDFLT
  5
E
102
{ACAD_REACTORS
330
C
102
}
100
AcDbDictionary
281
1
  3
Normal
350
F
100
AcDbDictionaryWithDefault
340
F
  0
DICTIONARY
  5
17
102
{ACAD_REACTORS
330
C
102
}
100
AcDbDictionary
280
0
281
1
  3
Standard
350
18
  0
DICTIONARY
  5
19
102
{ACAD_REACTORS
330
C
102
}
100
AcDbDictionary
281
1
  0
DICTIONARY
  5
1A
102
{ACAD_REACTORS
330
C
102
}
100
AcDbDictionary
281
1
  3
Model
350
6BF
  3
Layout1
350
6C0
  0
ACDBPLACEHOLDER
  5
F
102
{ACAD_REACTORS
330
E
102
}
  0
MLINESTYLE
  5
18
102
{ACAD_REACTORS
330
17
102
}
100
AcDbMlineStyle
  2
STANDARD
 70
0
  3

 62
256
 51
90.0
 52
90.0
 71
2
 49
0.5
 62
256
  6
BYLAYER
 49
-0.5
 62
256
  6
BYLAYER
  0
LAYOUT
  5
6BF
102
{ACAD_REACTORS
330
1A
102
}
100
AcDbPlotSettings
  1

  2
none_device
  4

  6

 40
0.0
 41
0.0
 42
0.0
 43
0.0
 44
1345.8565105476
 45
1031.6467809131
 46
0.0
 47
0.0
 48
0.0
 49
0.0
140
0.0
141
0.0
142
1.0
143
1.0
 70
1024
 72
1
 73
0
 74
0
  7

 75
0
147
1.0
148
0.0
149
0.0
100
AcDbLayout
  1
Model
 70
0
 71
0
 10
0.0
 20
0.0
 11
1345.8565105476
 21
1031.6467809131
 12
0.0
 22
0.0
 32
0.0
 14
0.0
 24
0.0
 34
0.0
 15
0.0
 25
0.0
 35
0.0
146
0.0
 13
0.0
 23
0.0
 33
0.0
 16
1.0
 26
0.0
 36
0.0
 17
0.0
 27
1.0
 37
0.0
 76
0
330
213
345
0
346
0
  0
LAYOUT
  5
6C0
102
{ACAD_REACTORS
330
1A
102
}
100
AcDbPlotSettings
  1

  2
none_device
  4

  6

 40
0.0
 41
0.0
 42
0.0
 43
0.0
 44
1345.8565105476
 45
1031.6467809131
 46
0.0
 47
0.0
 48
0.0
 49
0.0
140
0.0
141
0.0
142
1.0
143
1.0
 70
0
 72
1
 73
0
 74
0
  7

 75
0
147
1.0
148
0.0
149
0.0
100
AcDbLayout
  1
Layout1
 70
0
 71
1
 10
0.0
 20
0.0
 11
1345.8565105476
 21
1031.6467809131
 12
0.0
 22
0.0
 32
0.0
 14
0.0
 24
0.0
 34
0.0
 15
0.0
 25
0.0
 35
0.0
146
0.0
 13
0.0
 23
0.0
 33
0.0
 16
1.0
 26
0.0
 36
0.0
 17
0.0
 27
1.0
 37
0.0
 76
0
330
214
345
0
346
0
  0
ENDSEC
  0
EOF
