  0
SECTION
  2
HEADER
  9
$ACADVER
  1
AC1018
  9
$DWGCODEPAGE
  3
ANSI_1252
  9
$EXTMAX
 10
1362.6671693775
 20
930.0767541345
 30
0.0
  9
$EXTMIN
 10
0.0
 20
0.0
 30
0.0
  9
$LIMMIN
 10
0.0
 20
0.0
  9
$LIMMAX
 10
1362.6671693775
 20
930.0767541345
  9
$VIEWCTR
 10
681.3335846887
 20
465.0383770672
  9
$VIEWSIZE
 40
930.0767541345
  9
$CLAYER
  8
0
  9
$LTSCALE
 40
74.9466943158
  9
$CELTYPE
  6
BYLAYER
  9
$DIMSCALE
 40
1.0
  9
$DIMASZ
 40
0.1875
  9
$DIMEXO
 40
8.5166698086
  9
$DIMDLI
 40
51.7813524363
  9
$DIMEXE
 40
24.5280090488
  9
$DIMCEN
 40
12.2640045244
  9
$DIMLFAC
 40
1.0
  9
$DIMBLK
  1
_CLOSED
  9
$DIMTXT
 40
0.15625
  9
$DIMTOL
 70
0
  9
$DIMLIM
 70
0
  9
$DIMTFAC
 40
1.0
  9
$PDMODE
 70
3
  9
$PDSIZE
 40
0.3125
  9
$HANDSEED
  5
708
  9
$TILEMODE
 70
1
  9
$MEASUREMENT
 70
1
  9
$INSUNITS
 70
4
  0
ENDSEC
  0
SECTION
  2
CLASSES
  0
CLASS
  1
ACDBDICTIONARYWDFLT
  2
AcDbDictionaryWithDefault
  3
AutoCAD 2000
 90
0
 91
1
280
0
281
0
  0
CLASS
  1
ACDBPLACEHOLDER
  2
AcDbPlaceHolder
  3
AutoCAD 2000
 90
0
 91
1
280
0
281
0
  0
CLASS
  1
LAYOUT
  2
AcDbLayout
  3
AutoCAD 2000
 90
0
 91
0
280
0
281
0
  0
ENDSEC
  0
SECTION
  2
TABLES
  0
TABLE
  2
VPORT
  5
8
100
AcDbSymbolTable
 70
2
  0
VPORT
  5
1F4
100
AcDbSymbolTableRecord
100
AcDbViewportTableRecord
  2
*ACTIVE
 70
0
 10
0.0
 20
0.0
 11
1.0
 21
1.0
 12
681.3335846887
 22
465.0383770672
 13
0.0
 23
0.0
 14
1.0
 24
1.0
 15
0.0
 25
0.0
 16
0.0
 26
0.0
 36
1.0
 17
0.0
 27
0.0
 37
0.0
 40
930.0767541345
 41
1.4651125978
 42
50.0
 43
0.0
 44
0.0
 50
0.0
 51
0.0
 71
0
 72
100
 73
1
 74
1
 75
0
 76
0
 77
0
 78
0
  0
ENDTAB
  0
TABLE
  2
LTYPE
  5
5
100
AcDbSymbolTable
 70
6
  0
LTYPE
  5
14
100
AcDbSymbolTableRecord
100
AcDbLinetypeTableRecord
  2
BYBLOCK
 70
0
  3

 72
65
 73
0
 40
0.0
  0
LTYPE
  5
15
100
AcDbSymbolTableRecord
100
AcDbLinetypeTableRecord
  2
BYLAYER
 70
0
  3

 72
65
 73
0
 40
0.0
  0
LTYPE
  5
16
100
AcDbSymbolTableRecord
100
AcDbLinetypeTableRecord
  2
CONTINUOUS
 70
64
  3
Solid line
 72
65
 73
0
 40
0.0
  0
LTYPE
  5
1F5
100
AcDbSymbolTableRecord
100
AcDbLinetypeTableRecord
  2
CENTER
 70
64
  3
____ _ ____ _ ____ _ ____ _ ____ _ ____ _ ____
 72
65
 73
4
 40
0.6
 49
0.375
 74
0
 49
-0.075
 74
0
 49
0.075
 74
0
 49
-0.075
 74
0
  0
LTYPE
  5
1F6
100
AcDbSymbolTableRecord
100
AcDbLinetypeTableRecord
  2
HIDDEN
 70
64
  3
- - - - - - - - - - - - - - - - - - - -
 72
65
 73
2
 40
0.2
 49
0.1
 74
0
 49
-0.1
 74
0
  0
LTYPE
  5
1F7
100
AcDbSymbolTableRecord
100
AcDbLinetypeTableRecord
  2
PHANTOM
 70
64
  3
_____ _ _ _____ _ _ _____ _ _ _____
 72
65
 73
6
 40
0.8
 49
0.45
 74
0
 49
-0.05
 74
0
 49
0.1
 74
0
 49
-0.05
 74
0
 49
0.1
 74
0
 49
-0.05
 74
0
  0
LTYPE
  5
1F8
100
AcDbSymbolTableRecord
100
AcDbLinetypeTableRecord
  2
DOT
 70
64
  3
. . . . . . . . . . . . . . . . . . . .
 72
65
 73
2
 40
0.2
 49
0.1
 74
0
 49
-0.1
 74
0
  0
LTYPE
  5
1F9
100
AcDbSymbolTableRecord
100
AcDbLinetypeTableRecord
  2
DASHED
 70
64
  3
- - - - - - - - - - - - - - - - - - - -
 72
65
 73
2
 40
0.2
 49
0.1
 74
0
 49
-0.1
 74
0
  0
LTYPE
  5
1FA
100
AcDbSymbolTableRecord
100
AcDbLinetypeTableRecord
  2
SOLIDFONT
 70
64
  3
Solid line
 72
65
 73
0
 40
0.0
  0
LTYPE
  5
1FB
100
AcDbSymbolTableRecord
100
AcDbLinetypeTableRecord
  2
SOLIDFONT
 70
64
  3
Solid line
 72
65
 73
0
 40
0.0
  0
LTYPE
  5
1FC
100
AcDbSymbolTableRecord
100
AcDbLinetypeTableRecord
  2
SOLIDFONT
 70
64
  3
Solid line
 72
65
 73
0
 40
0.0
  0
LTYPE
  5
1FD
100
AcDbSymbolTableRecord
100
AcDbLinetypeTableRecord
  2
SOLIDFONT
 70
64
  3
Solid line
 72
65
 73
0
 40
0.0
  0
ENDTAB
  0
TABLE
  2
LAYER
  5
2
100
AcDbSymbolTable
 70
36
  0
LAYER
  5
10
100
AcDbSymbolTableRecord
100
AcDbLayerTableRecord
  2
0
 70
0
 62
7
  6
CONTINUOUS
370
-3
390
F
  0
LAYER
  5
1FE
100
AcDbSymbolTableRecord
100
AcDbLayerTableRecord
  2
DEFAULT_1
 70
0
 62
7
  6
CENTER
370
-3
390
F
  0
LAYER
  5
1FF
100
AcDbSymbolTableRecord
100
AcDbLayerTableRecord
  2
DEFAULT_2
 70
0
 62
8
  6
HIDDEN
370
-3
390
F
  0
LAYER
  5
200
100
AcDbSymbolTableRecord
100
AcDbLayerTableRecord
  2
DEFAULT_3
 70
0
 62
7
  6
PHANTOM
370
-3
390
F
  0
LAYER
  5
201
100
AcDbSymbolTableRecord
100
AcDbLayerTableRecord
  2
AM_12
 70
0
 62
7
  6
CONTINUOUS
370
-3
390
F
  0
LAYER
  5
202
100
AcDbSymbolTableRecord
100
AcDbLayerTableRecord
  2
AM_PAREF
 70
0
 62
7
  6
CONTINUOUS
370
-3
390
F
  0
LAYER
  5
203
100
AcDbSymbolTableRecord
100
AcDbLayerTableRecord
  2
AXIS
 70
0
 62
7
  6
CONTINUOUS
370
-3
390
F
  0
LAYER
  5
204
100
AcDbSymbolTableRecord
100
AcDbLayerTableRecord
  2
BASIC_DEVICE
 70
0
 62
7
  6
CONTINUOUS
370
-3
390
F
  0
LAYER
  5
205
100
AcDbSymbolTableRecord
100
AcDbLayerTableRecord
  2
DEVICE_FIXING_HOLES
 70
0
 62
7
  6
CONTINUOUS
370
-3
390
F
  0
LAYER
  5
206
100
AcDbSymbolTableRecord
100
AcDbLayerTableRecord
  2
Defpoints
 70
0
 62
7
  6
CONTINUOUS
290
0
370
-3
390
F
  0
LAYER
  5
207
100
AcDbSymbolTableRecord
100
AcDbLayerTableRecord
  2
HANDLE_FIXING_HOLES
 70
0
 62
7
  6
CONTINUOUS
370
-3
390
F
  0
LAYER
  5
208
100
AcDbSymbolTableRecord
100
AcDbLayerTableRecord
  2
H_EXTERN_HANDLE
 70
0
 62
7
  6
CONTINUOUS
370
-3
390
F
  0
LAYER
  5
209
100
AcDbSymbolTableRecord
100
AcDbLayerTableRecord
  2
H_MOVING
 70
0
 62
7
  6
CONTINUOUS
370
-3
390
F
  0
LAYER
  5
20A
100
AcDbSymbolTableRecord
100
AcDbLayerTableRecord
  2
INTER_PHASE_SCHIELDS
 70
0
 62
7
  6
CONTINUOUS
370
-3
390
F
  0
LAYER
  5
20B
100
AcDbSymbolTableRecord
100
AcDbLayerTableRecord
  2
POINT_D_ACCROCHAGE
 70
0
 62
7
  6
CONTINUOUS
370
-3
390
F
  0
LAYER
  5
20C
100
AcDbSymbolTableRecord
100
AcDbLayerTableRecord
  2
QUOTATION
 70
0
 62
7
  6
CONTINUOUS
370
-3
390
F
  0
LAYER
  5
20D
100
AcDbSymbolTableRecord
100
AcDbLayerTableRecord
  2
TERMINAL_SCREEN
 70
0
 62
7
  6
CONTINUOUS
370
-3
390
F
  0
LAYER
  5
20E
100
AcDbSymbolTableRecord
100
AcDbLayerTableRecord
  2
TEXT
 70
0
 62
7
  6
CONTINUOUS
370
-3
390
F
  0
ENDTAB
  0
TABLE
  2
STYLE
  5
3
100
AcDbSymbolTable
 70
1
  0
STYLE
  5
11
100
AcDbSymbolTableRecord
100
AcDbTextStyleTableRecord
  2
STANDARD
 70
0
 40
0.0
 41
0.8
 50
0.0
 71
0
 42
0.2
  3
txt
  4

  0
STYLE
  5
20F
100
AcDbSymbolTableRecord
100
AcDbTextStyleTableRecord
  2
TEXTSTYLE_1
 70
0
 40
0.0
 41
0.8
 50
0.0
 71
0
 42
0.2
  3
gdt
  4

  0
STYLE
  5
210
100
AcDbSymbolTableRecord
100
AcDbTextStyleTableRecord
  2
TEXTSTYLE_2
 70
0
 40
0.0
 41
1.0
 50
0.0
 71
0
 42
0.2
  3
txt
  4

  0
STYLE
  5
211
100
AcDbSymbolTableRecord
100
AcDbTextStyleTableRecord
  2
TEXTSTYLE_3
 70
0
 40
0.0
 41
1.0
 50
0.0
 71
0
 42
0.2
  3
txt
  4

  0
ENDTAB
  0
TABLE
  2
VIEW
  5
6
100
AcDbSymbolTable
 70
0
  0
ENDTAB
  0
TABLE
  2
UCS
  5
7
100
AcDbSymbolTable
 70
0
  0
ENDTAB
  0
TABLE
  2
APPID
  5
9
100
AcDbSymbolTable
 70
1
  0
APPID
  5
212
100
AcDbSymbolTableRecord
100
AcDbRegAppTableRecord
  2
ACAD
 70
0
  0
ENDTAB
  0
TABLE
  2
BLOCK_RECORD
  5
1
100
AcDbSymbolTable
 70
0
  0
BLOCK_RECORD
  5
213
100
AcDbSymbolTableRecord
100
AcDbBlockTableRecord
  2
*Model_Space
  0
BLOCK_RECORD
  5
214
100
AcDbSymbolTableRecord
100
AcDbBlockTableRecord
  2
*Paper_Space
  0
BLOCK_RECORD
  5
215
100
AcDbSymbolTableRecord
100
AcDbBlockTableRecord
  2
_CLOSED
  0
BLOCK_RECORD
  5
216
100
AcDbSymbolTableRecord
100
AcDbBlockTableRecord
  2
*D0
  0
BLOCK_RECORD
  5
217
100
AcDbSymbolTableRecord
100
AcDbBlockTableRecord
  2
*D1
  0
BLOCK_RECORD
  5
218
100
AcDbSymbolTableRecord
100
AcDbBlockTableRecord
  2
*D2
  0
BLOCK_RECORD
  5
219
100
AcDbSymbolTableRecord
100
AcDbBlockTableRecord
  2
*D3
  0
BLOCK_RECORD
  5
21A
100
AcDbSymbolTableRecord
100
AcDbBlockTableRecord
  2
*D4
  0
BLOCK_RECORD
  5
21B
100
AcDbSymbolTableRecord
100
AcDbBlockTableRecord
  2
*D5
  0
BLOCK_RECORD
  5
21C
100
AcDbSymbolTableRecord
100
AcDbBlockTableRecord
  2
*D6
  0
BLOCK_RECORD
  5
21D
100
AcDbSymbolTableRecord
100
AcDbBlockTableRecord
  2
*D7
  0
BLOCK_RECORD
  5
21E
100
AcDbSymbolTableRecord
100
AcDbBlockTableRecord
  2
*D8
  0
BLOCK_RECORD
  5
21F
100
AcDbSymbolTableRecord
100
AcDbBlockTableRecord
  2
*D9
  0
BLOCK_RECORD
  5
220
100
AcDbSymbolTableRecord
100
AcDbBlockTableRecord
  2
*D10
  0
BLOCK_RECORD
  5
221
100
AcDbSymbolTableRecord
100
AcDbBlockTableRecord
  2
*D11
  0
BLOCK_RECORD
  5
222
100
AcDbSymbolTableRecord
100
AcDbBlockTableRecord
  2
*D12
  0
BLOCK_RECORD
  5
223
100
AcDbSymbolTableRecord
100
AcDbBlockTableRecord
  2
*D13
  0
BLOCK_RECORD
  5
224
100
AcDbSymbolTableRecord
100
AcDbBlockTableRecord
  2
*D14
  0
BLOCK_RECORD
  5
225
100
AcDbSymbolTableRecord
100
AcDbBlockTableRecord
  2
*D15
  0
BLOCK_RECORD
  5
226
100
AcDbSymbolTableRecord
100
AcDbBlockTableRecord
  2
*D16
  0
BLOCK_RECORD
  5
227
100
AcDbSymbolTableRecord
100
AcDbBlockTableRecord
  2
*D17
  0
BLOCK_RECORD
  5
228
100
AcDbSymbolTableRecord
100
AcDbBlockTableRecord
  2
*D18
  0
BLOCK_RECORD
  5
229
100
AcDbSymbolTableRecord
100
AcDbBlockTableRecord
  2
*D19
  0
BLOCK_RECORD
  5
22A
100
AcDbSymbolTableRecord
100
AcDbBlockTableRecord
  2
*D20
  0
BLOCK_RECORD
  5
22B
100
AcDbSymbolTableRecord
100
AcDbBlockTableRecord
  2
*D21
  0
BLOCK_RECORD
  5
22C
100
AcDbSymbolTableRecord
100
AcDbBlockTableRecord
  2
*D22
  0
BLOCK_RECORD
  5
22D
100
AcDbSymbolTableRecord
100
AcDbBlockTableRecord
  2
*D23
  0
ENDTAB
  0
TABLE
  2
DIMSTYLE
  5
A
100
AcDbSymbolTable
 70
1
100
AcDbDimStyleTable
 71
0
  0
DIMSTYLE
105
22E
100
AcDbSymbolTableRecord
100
AcDbDimStyleTableRecord
  2
STANDARD
 70
0
  3

  4

 40
1.0
 41
0.1875
 42
0.0625
 43
0.38
 44
0.18
 45
0.0
 46
0.0
 47
0.1
 48
0.1
140
0.15625
141
0.09
142
0.0
143
25.4
144
1.0
145
0.0
146
1.0
147
0.09
 71
0.0
 72
0.0
 73
1
 74
1
 75
0
 76
0
 77
0
 78
8
170
0
171
2
172
0
173
0
174
0
175
0
176
0
177
0
178
0
270
2
271
1
272
1
273
2
274
2
275
0
280
0
281
0
282
0
283
1
284
8
285
0
286
0
287
3
288
0
340
11
341
215
342
215
343
215
344
215
  0
DIMSTYLE
105
22F
100
AcDbSymbolTableRecord
100
AcDbDimStyleTableRecord
  2
DIMSTYLE_1
 70
0
  3

  4

 40
1.0
 41
0.1875
 42
0.0625
 43
0.38
 44
0.18
 45
0.0
 46
0.0
 47
0.0
 48
0.0
140
10.5
141
0.09
142
0.0
143
25.4
144
1.0
145
0.0
146
1.0
147
0.09
 71
0.0
 72
0.0
 73
1
 74
1
 75
0
 76
0
 77
0
 78
8
170
0
171
2
172
0
173
0
174
0
175
0
176
0
177
0
178
0
270
2
271
1
272
1
273
2
274
2
275
0
280
0
281
0
282
0
283
1
284
8
285
0
286
0
287
3
288
0
340
11
341
215
342
215
343
215
344
215
  0
DIMSTYLE
105
230
100
AcDbSymbolTableRecord
100
AcDbDimStyleTableRecord
  2
DIMSTYLE_2
 70
0
  3

  4

 40
1.0
 41
0.1875
 42
0.0625
 43
0.38
 44
0.18
 45
0.0
 46
0.0
 47
0.0
 48
0.0
140
10.5
141
0.09
142
0.0
143
25.4
144
1.0
145
0.0
146
1.0
147
0.09
 71
0.0
 72
0.0
 73
1
 74
1
 75
0
 76
0
 77
0
 78
8
170
0
171
2
172
0
173
0
174
0
175
0
176
0
177
0
178
0
270
2
271
1
272
1
273
2
274
2
275
0
280
0
281
0
282
0
283
1
284
8
285
0
286
0
287
3
288
0
340
11
341
215
342
215
343
215
344
215
  0
ENDTAB
  0
ENDSEC
  0
SECTION
  2
BLOCKS
  0
BLOCK
  5
20
100
AcDbEntity
  8
0
100
AcDbBlockBegin
  2
*Model_Space
 70
0
 10
0.0
 20
0.0
 30
0.0
  3
*Model_Space
  1

  0
ENDBLK
  5
21
100
AcDbEntity
  8
0
100
AcDbBlockEnd
  0
BLOCK
  5
1C
100
AcDbEntity
  8
0
100
AcDbBlockBegin
  2
*Paper_Space
 70
0
 10
0.0
 20
0.0
 30
0.0
  3
*Paper_Space
  1

  0
ENDBLK
  5
1D
100
AcDbEntity
  8
0
100
AcDbBlockEnd
  0
BLOCK
  5
231
100
AcDbEntity
  8
0
100
AcDbBlockBegin
  2
_CLOSED
 70
64
 10
0.0
 20
0.0
  3
_CLOSED
  1

  0
LINE
  5
232
100
AcDbEntity
  8
0
  6
BYBLOCK
 62
0
100
AcDbLine
 10
0.0
 20
0.0
 11
-1.0
 21
0.1666666667
  0
LINE
  5
233
100
AcDbEntity
  8
0
  6
BYBLOCK
 62
0
100
AcDbLine
 10
-1.0
 20
0.1666666667
 11
-1.0
 21
-0.1666666667
  0
LINE
  5
234
100
AcDbEntity
  8
0
  6
BYBLOCK
 62
0
100
AcDbLine
 10
-1.0
 20
-0.1666666667
 11
0.0
 21
0.0
  0
LINE
  5
235
100
AcDbEntity
  8
0
  6
BYBLOCK
 62
0
100
AcDbLine
 10
-1.0
 20
0.0
 11
0.0
 21
0.0
  0
ENDBLK
  5
236
100
AcDbEntity
  8
0
  6
BYBLOCK
 62
0
100
AcDbBlockEnd
  0
BLOCK
  5
237
100
AcDbEntity
  8
QUOTATION
100
AcDbBlockBegin
 62
3
  6
CONTINUOUS
  2
*D0
 70
65
 10
0.0
 20
0.0
  3
*D0
  1

  0
MTEXT
  5
238
100
AcDbEntity
  8
QUOTATION
100
AcDbMText
 62
3
  6
CONTINUOUS
  7
STANDARD
 71
2
 72
1
 10
457.6907109972
 20
260.7495437095
 30
0.0
 11
1.0
 21
0.0
 31
0.0
 44
0.9
  1
175
 40
10.5
 41
25.2
  0
LINE
  5
239
100
AcDbEntity
  8
QUOTATION
100
AcDbLine
 62
3
  6
CONTINUOUS
 10
521.3563306843
 20
162.7502443144
 11
457.5657109972
 21
162.7502443144
  0
LINE
  5
23A
100
AcDbEntity
  8
QUOTATION
100
AcDbLine
 62
3
  6
CONTINUOUS
 10
521.3563306843
 20
337.7502443144
 11
457.5657109972
 21
337.7502443144
  0
LINE
  5
23B
100
AcDbEntity
  8
QUOTATION
100
AcDbLine
 62
3
  6
CONTINUOUS
 10
457.6907109972
 20
162.7502443144
 11
457.6907109972
 21
244.9995437095
  0
LINE
  5
23C
100
AcDbEntity
  8
QUOTATION
100
AcDbLine
 62
3
  6
CONTINUOUS
 10
457.6907109972
 20
337.7502443144
 11
457.6907109972
 21
265.9995437095
  0
INSERT
  5
23D
100
AcDbEntity
  8
QUOTATION
100
AcDbBlockReference
 62
3
  6
CONTINUOUS
  2
_CLOSED
 10
457.6907109972
 20
162.7502443144
 41
0.1875
 42
0.1875
 43
0.1875
 50
270.0
  0
INSERT
  5
23E
100
AcDbEntity
  8
QUOTATION
100
AcDbBlockReference
 62
3
  6
CONTINUOUS
  2
_CLOSED
 10
457.6907109972
 20
337.7502443144
 41
0.1875
 42
0.1875
 43
0.1875
 50
90.0
  0
ENDBLK
  5
23F
100
AcDbEntity
  8
0
  6
BYBLOCK
 62
0
100
AcDbBlockEnd
  0
BLOCK
  5
240
100
AcDbEntity
  8
QUOTATION
100
AcDbBlockBegin
 62
3
  6
CONTINUOUS
  2
*D1
 70
65
 10
0.0
 20
0.0
  3
*D1
  1

  0
MTEXT
  5
241
100
AcDbEntity
  8
QUOTATION
100
AcDbMText
 62
3
  6
CONTINUOUS
  7
STANDARD
 71
2
 72
1
 10
438.1067593939
 20
259.1704175376
 30
0.0
 11
1.0
 21
0.0
 31
0.0
 44
0.9
  1
200
 40
10.5
 41
25.2
  0
LINE
  5
242
100
AcDbEntity
  8
QUOTATION
100
AcDbLine
 62
3
  6
CONTINUOUS
 10
508.8563306843
 20
150.2502443144
 11
437.9817593939
 21
150.2502443144
  0
LINE
  5
243
100
AcDbEntity
  8
QUOTATION
100
AcDbLine
 62
3
  6
CONTINUOUS
 10
508.8563306843
 20
350.2502443144
 11
437.9817593939
 21
350.2502443144
  0
LINE
  5
244
100
AcDbEntity
  8
QUOTATION
100
AcDbLine
 62
3
  6
CONTINUOUS
 10
438.1067593939
 20
150.2502443144
 11
438.1067593939
 21
243.4204175376
  0
LINE
  5
245
100
AcDbEntity
  8
QUOTATION
100
AcDbLine
 62
3
  6
CONTINUOUS
 10
438.1067593939
 20
350.2502443144
 11
438.1067593939
 21
264.4204175376
  0
INSERT
  5
246
100
AcDbEntity
  8
QUOTATION
100
AcDbBlockReference
 62
3
  6
CONTINUOUS
  2
_CLOSED
 10
438.1067593939
 20
150.2502443144
 41
0.1875
 42
0.1875
 43
0.1875
 50
270.0
  0
INSERT
  5
247
100
AcDbEntity
  8
QUOTATION
100
AcDbBlockReference
 62
3
  6
CONTINUOUS
  2
_CLOSED
 10
438.1067593939
 20
350.2502443144
 41
0.1875
 42
0.1875
 43
0.1875
 50
90.0
  0
ENDBLK
  5
248
100
AcDbEntity
  8
0
  6
BYBLOCK
 62
0
100
AcDbBlockEnd
  0
BLOCK
  5
249
100
AcDbEntity
  8
QUOTATION
100
AcDbBlockBegin
 62
3
  6
CONTINUOUS
  2
*D2
 70
65
 10
0.0
 20
0.0
  3
*D2
  1

  0
MTEXT
  5
24A
100
AcDbEntity
  8
QUOTATION
100
AcDbMText
 62
3
  6
CONTINUOUS
  7
STANDARD
 71
2
 72
1
 10
438.1067593939
 20
393.2498940119
 30
0.0
 11
1.0
 21
0.0
 31
0.0
 44
0.9
  1
65
 40
10.5
 41
16.8
  0
LINE
  5
24B
100
AcDbEntity
  8
QUOTATION
100
AcDbLine
 62
3
  6
CONTINUOUS
 10
508.8563306843
 20
350.2502443144
 11
437.9817593939
 21
350.2502443144
  0
LINE
  5
24C
100
AcDbEntity
  8
QUOTATION
100
AcDbLine
 62
3
  6
CONTINUOUS
 10
541.8563306843
 20
415.2495437095
 11
437.9817593939
 21
415.2495437095
  0
LINE
  5
24D
100
AcDbEntity
  8
QUOTATION
100
AcDbLine
 62
3
  6
CONTINUOUS
 10
438.1067593939
 20
350.2502443144
 11
438.1067593939
 21
377.4998940119
  0
LINE
  5
24E
100
AcDbEntity
  8
QUOTATION
100
AcDbLine
 62
3
  6
CONTINUOUS
 10
438.1067593939
 20
415.2495437095
 11
438.1067593939
 21
398.4998940119
  0
INSERT
  5
24F
100
AcDbEntity
  8
QUOTATION
100
AcDbBlockReference
 62
3
  6
CONTINUOUS
  2
_CLOSED
 10
438.1067593939
 20
350.2502443144
 41
0.1875
 42
0.1875
 43
0.1875
 50
270.0
  0
INSERT
  5
250
100
AcDbEntity
  8
QUOTATION
100
AcDbBlockReference
 62
3
  6
CONTINUOUS
  2
_CLOSED
 10
438.1067593939
 20
415.2495437095
 41
0.1875
 42
0.1875
 43
0.1875
 50
90.0
  0
ENDBLK
  5
251
100
AcDbEntity
  8
0
  6
BYBLOCK
 62
0
100
AcDbBlockEnd
  0
BLOCK
  5
252
100
AcDbEntity
  8
QUOTATION
100
AcDbBlockBegin
 62
3
  6
CONTINUOUS
  2
*D3
 70
65
 10
0.0
 20
0.0
  3
*D3
  1

  0
MTEXT
  5
253
100
AcDbEntity
  8
QUOTATION
100
AcDbMText
 62
3
  6
CONTINUOUS
  7
STANDARD
 71
2
 72
1
 10
438.1067593939
 20
458.4998940119
 30
0.0
 11
1.0
 21
0.0
 31
0.0
 44
0.9
  1
65.5
 40
10.5
 41
33.6
  0
LINE
  5
254
100
AcDbEntity
  8
QUOTATION
100
AcDbLine
 62
3
  6
CONTINUOUS
 10
541.8563306843
 20
415.2495437095
 11
437.9817593939
 21
415.2495437095
  0
LINE
  5
255
100
AcDbEntity
  8
QUOTATION
100
AcDbLine
 62
3
  6
CONTINUOUS
 10
513.8563306843
 20
480.7502443144
 11
437.9817593939
 21
480.7502443144
  0
LINE
  5
256
100
AcDbEntity
  8
QUOTATION
100
AcDbLine
 62
3
  6
CONTINUOUS
 10
438.1067593939
 20
415.2495437095
 11
438.1067593939
 21
442.7498940119
  0
LINE
  5
257
100
AcDbEntity
  8
QUOTATION
100
AcDbLine
 62
3
  6
CONTINUOUS
 10
438.1067593939
 20
480.7502443144
 11
438.1067593939
 21
463.7498940119
  0
INSERT
  5
258
100
AcDbEntity
  8
QUOTATION
100
AcDbBlockReference
 62
3
  6
CONTINUOUS
  2
_CLOSED
 10
438.1067593939
 20
415.2495437095
 41
0.1875
 42
0.1875
 43
0.1875
 50
270.0
  0
INSERT
  5
259
100
AcDbEntity
  8
QUOTATION
100
AcDbBlockReference
 62
3
  6
CONTINUOUS
  2
_CLOSED
 10
438.1067593939
 20
480.7502443144
 41
0.1875
 42
0.1875
 43
0.1875
 50
90.0
  0
ENDBLK
  5
25A
100
AcDbEntity
  8
0
  6
BYBLOCK
 62
0
100
AcDbBlockEnd
  0
BLOCK
  5
25B
100
AcDbEntity
  8
QUOTATION
100
AcDbBlockBegin
 62
3
  6
CONTINUOUS
  2
*D4
 70
65
 10
0.0
 20
0.0
  3
*D4
  1

  0
MTEXT
  5
25C
100
AcDbEntity
  8
QUOTATION
100
AcDbMText
 62
3
  6
CONTINUOUS
  7
STANDARD
 71
2
 72
1
 10
808.8775563345
 20
545.6873361054
 30
0.0
 11
1.0
 21
0.0
 31
0.0
 44
0.9
  1
467
 40
10.5
 41
25.2
  0
LINE
  5
25D
100
AcDbEntity
  8
QUOTATION
100
AcDbLine
 62
3
  6
CONTINUOUS
 10
521.4813306843
 20
337.8752443144
 11
521.4813306843
 21
540.5623361054
  0
LINE
  5
25E
100
AcDbEntity
  8
QUOTATION
100
AcDbLine
 62
3
  6
CONTINUOUS
 10
988.4813306886
 20
337.8745437095
 11
988.4813306886
 21
540.5623361054
  0
LINE
  5
25F
100
AcDbEntity
  8
QUOTATION
100
AcDbLine
 62
3
  6
CONTINUOUS
 10
521.4813306843
 20
540.4373361054
 11
791.0275563345
 21
540.4373361054
  0
LINE
  5
260
100
AcDbEntity
  8
QUOTATION
100
AcDbLine
 62
3
  6
CONTINUOUS
 10
988.4813306886
 20
540.4373361054
 11
826.7275563345
 21
540.4373361054
  0
INSERT
  5
261
100
AcDbEntity
  8
QUOTATION
100
AcDbBlockReference
 62
3
  6
CONTINUOUS
  2
_CLOSED
 10
521.4813306843
 20
540.4373361054
 41
0.1875
 42
0.1875
 43
0.1875
 50
180.0
  0
INSERT
  5
262
100
AcDbEntity
  8
QUOTATION
100
AcDbBlockReference
 62
3
  6
CONTINUOUS
  2
_CLOSED
 10
988.4813306886
 20
540.4373361054
 41
0.1875
 42
0.1875
 43
0.1875
  0
ENDBLK
  5
263
100
AcDbEntity
  8
0
  6
BYBLOCK
 62
0
100
AcDbBlockEnd
  0
BLOCK
  5
264
100
AcDbEntity
  8
QUOTATION
100
AcDbBlockBegin
 62
3
  6
CONTINUOUS
  2
*D5
 70
65
 10
0.0
 20
0.0
  3
*D5
  1

  0
MTEXT
  5
265
100
AcDbEntity
  8
QUOTATION
100
AcDbMText
 62
3
  6
CONTINUOUS
  7
STANDARD
 71
2
 72
1
 10
542.8813306843
 20
54.4995437095
 30
0.0
 11
1.0
 21
0.0
 31
0.0
 44
0.9
  1
47
 40
10.5
 41
16.8
  0
LINE
  5
266
100
AcDbEntity
  8
QUOTATION
100
AcDbLine
 62
3
  6
CONTINUOUS
 10
521.4813306843
 20
162.6252443144
 11
521.4813306843
 21
49.1245437095
  0
LINE
  5
267
100
AcDbEntity
  8
QUOTATION
100
AcDbLine
 62
3
  6
CONTINUOUS
 10
568.4813306843
 20
85.1245437095
 11
568.4813306843
 21
49.1245437095
  0
LINE
  5
268
100
AcDbEntity
  8
QUOTATION
100
AcDbLine
 62
3
  6
CONTINUOUS
 10
521.4813306843
 20
49.2495437095
 11
529.2313306843
 21
49.2495437095
  0
LINE
  5
269
100
AcDbEntity
  8
QUOTATION
100
AcDbLine
 62
3
  6
CONTINUOUS
 10
568.4813306843
 20
49.2495437095
 11
556.5313306843
 21
49.2495437095
  0
INSERT
  5
26A
100
AcDbEntity
  8
QUOTATION
100
AcDbBlockReference
 62
3
  6
CONTINUOUS
  2
_CLOSED
 10
521.4813306843
 20
49.2495437095
 41
0.1875
 42
0.1875
 43
0.1875
 50
180.0
  0
INSERT
  5
26B
100
AcDbEntity
  8
QUOTATION
100
AcDbBlockReference
 62
3
  6
CONTINUOUS
  2
_CLOSED
 10
568.4813306843
 20
49.2495437095
 41
0.1875
 42
0.1875
 43
0.1875
  0
ENDBLK
  5
26C
100
AcDbEntity
  8
0
  6
BYBLOCK
 62
0
100
AcDbBlockEnd
  0
BLOCK
  5
26D
100
AcDbEntity
  8
QUOTATION
100
AcDbBlockBegin
 62
3
  6
CONTINUOUS
  2
*D6
 70
65
 10
0.0
 20
0.0
  3
*D6
  1

  0
MTEXT
  5
26E
100
AcDbEntity
  8
QUOTATION
100
AcDbMText
 62
3
  6
CONTINUOUS
  7
STANDARD
 71
2
 72
1
 10
625.3313306843
 20
54.4995437095
 30
0.0
 11
1.0
 21
0.0
 31
0.0
 44
0.9
  1
120
 40
10.5
 41
25.2
  0
LINE
  5
26F
100
AcDbEntity
  8
QUOTATION
100
AcDbLine
 62
3
  6
CONTINUOUS
 10
568.4813306843
 20
85.1245437095
 11
568.4813306843
 21
49.1245437095
  0
LINE
  5
270
100
AcDbEntity
  8
QUOTATION
100
AcDbLine
 62
3
  6
CONTINUOUS
 10
688.4813306843
 20
85.1245437095
 11
688.4813306843
 21
49.1245437095
  0
LINE
  5
271
100
AcDbEntity
  8
QUOTATION
100
AcDbLine
 62
3
  6
CONTINUOUS
 10
568.4813306843
 20
49.2495437095
 11
607.4813306843
 21
49.2495437095
  0
LINE
  5
272
100
AcDbEntity
  8
QUOTATION
100
AcDbLine
 62
3
  6
CONTINUOUS
 10
688.4813306843
 20
49.2495437095
 11
643.1813306843
 21
49.2495437095
  0
INSERT
  5
273
100
AcDbEntity
  8
QUOTATION
100
AcDbBlockReference
 62
3
  6
CONTINUOUS
  2
_CLOSED
 10
568.4813306843
 20
49.2495437095
 41
0.1875
 42
0.1875
 43
0.1875
 50
180.0
  0
INSERT
  5
274
100
AcDbEntity
  8
QUOTATION
100
AcDbBlockReference
 62
3
  6
CONTINUOUS
  2
_CLOSED
 10
688.4813306843
 20
49.2495437095
 41
0.1875
 42
0.1875
 43
0.1875
  0
ENDBLK
  5
275
100
AcDbEntity
  8
0
  6
BYBLOCK
 62
0
100
AcDbBlockEnd
  0
BLOCK
  5
276
100
AcDbEntity
  8
QUOTATION
100
AcDbBlockBegin
 62
3
  6
CONTINUOUS
  2
*D7
 70
65
 10
0.0
 20
0.0
  3
*D7
  1

  0
MTEXT
  5
277
100
AcDbEntity
  8
QUOTATION
100
AcDbMText
 62
3
  6
CONTINUOUS
  7
STANDARD
 71
2
 72
1
 10
632.9813306843
 20
523.4775123806
 30
0.0
 11
1.0
 21
0.0
 31
0.0
 44
0.9
  1
233.5
 40
10.5
 41
42.0
  0
LINE
  5
278
100
AcDbEntity
  8
QUOTATION
100
AcDbLine
 62
3
  6
CONTINUOUS
 10
521.4813306843
 20
337.8752443144
 11
521.4813306843
 21
518.3525123806
  0
LINE
  5
279
100
AcDbEntity
  8
QUOTATION
100
AcDbLine
 62
3
  6
CONTINUOUS
 10
754.9813306843
 20
278.3745437095
 11
754.9813306843
 21
518.3525123806
  0
LINE
  5
27A
100
AcDbEntity
  8
QUOTATION
100
AcDbLine
 62
3
  6
CONTINUOUS
 10
521.4813306843
 20
518.2275123806
 11
606.7313306843
 21
518.2275123806
  0
LINE
  5
27B
100
AcDbEntity
  8
QUOTATION
100
AcDbLine
 62
3
  6
CONTINUOUS
 10
754.9813306843
 20
518.2275123806
 11
659.2313306843
 21
518.2275123806
  0
INSERT
  5
27C
100
AcDbEntity
  8
QUOTATION
100
AcDbBlockReference
 62
3
  6
CONTINUOUS
  2
_CLOSED
 10
521.4813306843
 20
518.2275123806
 41
0.1875
 42
0.1875
 43
0.1875
 50
180.0
  0
INSERT
  5
27D
100
AcDbEntity
  8
QUOTATION
100
AcDbBlockReference
 62
3
  6
CONTINUOUS
  2
_CLOSED
 10
754.9813306843
 20
518.2275123806
 41
0.1875
 42
0.1875
 43
0.1875
  0
ENDBLK
  5
27E
100
AcDbEntity
  8
0
  6
BYBLOCK
 62
0
100
AcDbBlockEnd
  0
BLOCK
  5
27F
100
AcDbEntity
  8
QUOTATION
100
AcDbBlockBegin
 62
3
  6
CONTINUOUS
  2
*D8
 70
65
 10
0.0
 20
0.0
  3
*D8
  1

  0
MTEXT
  5
280
100
AcDbEntity
  8
QUOTATION
100
AcDbMText
 62
3
  6
CONTINUOUS
  7
STANDARD
 71
2
 72
1
 10
1057.8820101002
 20
318.4995437095
 30
0.0
 11
1.0
 21
0.0
 31
0.0
 44
0.9
  1
59.5
 40
10.5
 41
33.6
  0
LINE
  5
281
100
AcDbEntity
  8
QUOTATION
100
AcDbLine
 62
3
  6
CONTINUOUS
 10
988.6063306886
 20
337.7495437095
 11
1058.0070101002
 21
337.7495437095
  0
LINE
  5
282
100
AcDbEntity
  8
QUOTATION
100
AcDbLine
 62
3
  6
CONTINUOUS
 10
945.1147551121
 20
278.2495437095
 11
1058.0070101002
 21
278.2495437095
  0
LINE
  5
283
100
AcDbEntity
  8
QUOTATION
100
AcDbLine
 62
3
  6
CONTINUOUS
 10
1057.8820101002
 20
337.7495437095
 11
1057.8820101002
 21
323.7495437095
  0
LINE
  5
284
100
AcDbEntity
  8
QUOTATION
100
AcDbLine
 62
3
  6
CONTINUOUS
 10
1057.8820101002
 20
278.2495437095
 11
1057.8820101002
 21
302.7495437095
  0
INSERT
  5
285
100
AcDbEntity
  8
QUOTATION
100
AcDbBlockReference
 62
3
  6
CONTINUOUS
  2
_CLOSED
 10
1057.8820101002
 20
337.7495437095
 41
0.1875
 42
0.1875
 43
0.1875
 50
90.0
  0
INSERT
  5
286
100
AcDbEntity
  8
QUOTATION
100
AcDbBlockReference
 62
3
  6
CONTINUOUS
  2
_CLOSED
 10
1057.8820101002
 20
278.2495437095
 41
0.1875
 42
0.1875
 43
0.1875
 50
270.0
  0
ENDBLK
  5
287
100
AcDbEntity
  8
0
  6
BYBLOCK
 62
0
100
AcDbBlockEnd
  0
BLOCK
  5
288
100
AcDbEntity
  8
QUOTATION
100
AcDbBlockBegin
 62
3
  6
CONTINUOUS
  2
*D9
 70
65
 10
0.0
 20
0.0
  3
*D9
  1

  0
MTEXT
  5
289
100
AcDbEntity
  8
QUOTATION
100
AcDbMText
 62
3
  6
CONTINUOUS
  7
TEXTSTYLE_1
 71
2
 72
1
 10
1049.8338508668
 20
363.2946263992
 30
0.0
 11
1.0
 21
0.0
 31
0.0
 44
0.9
  1
{\Fgdt;n}\Ftxt;9
 40
10.5
 41
22.4
  0
LINE
  5
28A
100
AcDbEntity
  8
QUOTATION
100
AcDbLine
 62
3
  6
CONTINUOUS
 10
992.0286336437
 20
340.5184138301
 11
1014.4821193373
 21
358.0446263992
  0
LINE
  5
28B
100
AcDbEntity
  8
QUOTATION
100
AcDbLine
 62
3
  6
CONTINUOUS
 10
1014.4821193373
 20
358.0446263992
 11
1033.3838508668
 21
358.0446263992
  0
INSERT
  5
28C
100
AcDbEntity
  8
QUOTATION
100
AcDbBlockReference
 62
3
  6
CONTINUOUS
  2
_CLOSED
 10
992.0286336437
 20
340.5184138301
 41
0.1875
 42
0.1875
 43
0.1875
 50
217.9740470423
  0
ENDBLK
  5
28D
100
AcDbEntity
  8
0
  6
BYBLOCK
 62
0
100
AcDbBlockEnd
  0
BLOCK
  5
28E
100
AcDbEntity
  8
QUOTATION
100
AcDbBlockBegin
 62
3
  6
CONTINUOUS
  2
*D10
 70
65
 10
0.0
 20
0.0
  3
*D10
  1

  0
MTEXT
  5
28F
100
AcDbEntity
  8
QUOTATION
100
AcDbMText
 62
3
  6
CONTINUOUS
  7
STANDARD
 71
2
 72
1
 10
361.165419628
 20
483.0380295218
 30
0.0
 11
1.0
 21
0.0
 31
0.0
 44
0.9
  1
47
 40
10.5
 41
16.8
  0
LINE
  5
290
100
AcDbEntity
  8
QUOTATION
100
AcDbLine
 62
3
  6
CONTINUOUS
 10
386.765419628
 20
350.3745437095
 11
386.765419628
 21
477.9130295218
  0
LINE
  5
291
100
AcDbEntity
  8
QUOTATION
100
AcDbLine
 62
3
  6
CONTINUOUS
 10
339.765419628
 20
415.3745437095
 11
339.765419628
 21
477.9130295218
  0
LINE
  5
292
100
AcDbEntity
  8
QUOTATION
100
AcDbLine
 62
3
  6
CONTINUOUS
 10
386.765419628
 20
477.7880295218
 11
374.815419628
 21
477.7880295218
  0
LINE
  5
293
100
AcDbEntity
  8
QUOTATION
100
AcDbLine
 62
3
  6
CONTINUOUS
 10
339.765419628
 20
477.7880295218
 11
347.515419628
 21
477.7880295218
  0
INSERT
  5
294
100
AcDbEntity
  8
QUOTATION
100
AcDbBlockReference
 62
3
  6
CONTINUOUS
  2
_CLOSED
 10
386.765419628
 20
477.7880295218
 41
0.1875
 42
0.1875
 43
0.1875
  0
INSERT
  5
295
100
AcDbEntity
  8
QUOTATION
100
AcDbBlockReference
 62
3
  6
CONTINUOUS
  2
_CLOSED
 10
339.765419628
 20
477.7880295218
 41
0.1875
 42
0.1875
 43
0.1875
 50
180.0
  0
ENDBLK
  5
296
100
AcDbEntity
  8
0
  6
BYBLOCK
 62
0
100
AcDbBlockEnd
  0
BLOCK
  5
297
100
AcDbEntity
  8
QUOTATION
100
AcDbBlockBegin
 62
3
  6
CONTINUOUS
  2
*D11
 70
65
 10
0.0
 20
0.0
  3
*D11
  1

  0
MTEXT
  5
298
100
AcDbEntity
  8
QUOTATION
100
AcDbMText
 62
3
  6
CONTINUOUS
  7
STANDARD
 71
2
 72
1
 10
317.115419628
 20
454.6826030248
 30
0.0
 11
1.0
 21
0.0
 31
0.0
 44
0.9
  1
7
 40
10.5
 41
8.4
  0
LINE
  5
299
100
AcDbEntity
  8
QUOTATION
100
AcDbLine
 62
3
  6
CONTINUOUS
 10
346.765419628
 20
415.3745437095
 11
346.765419628
 21
449.5576030248
  0
LINE
  5
29A
100
AcDbEntity
  8
QUOTATION
100
AcDbLine
 62
3
  6
CONTINUOUS
 10
339.765419628
 20
415.3745437095
 11
339.765419628
 21
449.5576030248
  0
LINE
  5
29B
100
AcDbEntity
  8
QUOTATION
100
AcDbLine
 62
3
  6
CONTINUOUS
 10
346.765419628
 20
449.4326030248
 11
347.265419628
 21
449.4326030248
  0
LINE
  5
29C
100
AcDbEntity
  8
QUOTATION
100
AcDbLine
 62
3
  6
CONTINUOUS
 10
339.765419628
 20
449.4326030248
 11
326.565419628
 21
449.4326030248
  0
INSERT
  5
29D
100
AcDbEntity
  8
QUOTATION
100
AcDbBlockReference
 62
3
  6
CONTINUOUS
  2
_CLOSED
 10
346.765419628
 20
449.4326030248
 41
0.1875
 42
0.1875
 43
0.1875
 50
180.0
  0
INSERT
  5
29E
100
AcDbEntity
  8
QUOTATION
100
AcDbBlockReference
 62
3
  6
CONTINUOUS
  2
_CLOSED
 10
339.765419628
 20
449.4326030248
 41
0.1875
 42
0.1875
 43
0.1875
  0
ENDBLK
  5
29F
100
AcDbEntity
  8
0
  6
BYBLOCK
 62
0
100
AcDbBlockEnd
  0
BLOCK
  5
2A0
100
AcDbEntity
  8
QUOTATION
100
AcDbBlockBegin
 62
3
  6
CONTINUOUS
  2
*D12
 70
65
 10
0.0
 20
0.0
  3
*D12
  1

  0
MTEXT
  5
2A1
100
AcDbEntity
  8
QUOTATION
100
AcDbMText
 62
3
  6
CONTINUOUS
  7
STANDARD
 71
2
 72
1
 10
313.615419628
 20
513.7217840567
 30
0.0
 11
1.0
 21
0.0
 31
0.0
 44
0.9
  1
140
 40
10.5
 41
25.2
  0
LINE
  5
2A2
100
AcDbEntity
  8
QUOTATION
100
AcDbLine
 62
3
  6
CONTINUOUS
 10
386.765419628
 20
350.3745437095
 11
386.765419628
 21
508.5967840567
  0
LINE
  5
2A3
100
AcDbEntity
  8
QUOTATION
100
AcDbLine
 62
3
  6
CONTINUOUS
 10
246.765419628
 20
350.3745437095
 11
246.765419628
 21
508.5967840567
  0
LINE
  5
2A4
100
AcDbEntity
  8
QUOTATION
100
AcDbLine
 62
3
  6
CONTINUOUS
 10
386.765419628
 20
508.4717840567
 11
331.465419628
 21
508.4717840567
  0
LINE
  5
2A5
100
AcDbEntity
  8
QUOTATION
100
AcDbLine
 62
3
  6
CONTINUOUS
 10
246.765419628
 20
508.4717840567
 11
295.765419628
 21
508.4717840567
  0
INSERT
  5
2A6
100
AcDbEntity
  8
QUOTATION
100
AcDbBlockReference
 62
3
  6
CONTINUOUS
  2
_CLOSED
 10
386.765419628
 20
508.4717840567
 41
0.1875
 42
0.1875
 43
0.1875
  0
INSERT
  5
2A7
100
AcDbEntity
  8
QUOTATION
100
AcDbBlockReference
 62
3
  6
CONTINUOUS
  2
_CLOSED
 10
246.765419628
 20
508.4717840567
 41
0.1875
 42
0.1875
 43
0.1875
 50
180.0
  0
ENDBLK
  5
2A8
100
AcDbEntity
  8
0
  6
BYBLOCK
 62
0
100
AcDbBlockEnd
  0
BLOCK
  5
2A9
100
AcDbEntity
  8
QUOTATION
100
AcDbBlockBegin
 62
3
  6
CONTINUOUS
  2
*D13
 70
65
 10
0.0
 20
0.0
  3
*D13
  1

  0
MTEXT
  5
2AA
100
AcDbEntity
  8
QUOTATION
100
AcDbMText
 62
3
  6
CONTINUOUS
  7
STANDARD
 71
2
 72
1
 10
277.615419628
 20
537.3572178274
 30
0.0
 11
1.0
 21
0.0
 31
0.0
 44
0.9
  1
212
 40
10.5
 41
25.2
  0
LINE
  5
2AB
100
AcDbEntity
  8
QUOTATION
100
AcDbLine
 62
3
  6
CONTINUOUS
 10
386.765419628
 20
350.3745437095
 11
386.765419628
 21
532.2322178274
  0
LINE
  5
2AC
100
AcDbEntity
  8
QUOTATION
100
AcDbLine
 62
3
  6
CONTINUOUS
 10
174.765419628
 20
318.3745437096
 11
174.765419628
 21
532.2322178274
  0
LINE
  5
2AD
100
AcDbEntity
  8
QUOTATION
100
AcDbLine
 62
3
  6
CONTINUOUS
 10
386.765419628
 20
532.1072178274
 11
295.465419628
 21
532.1072178274
  0
LINE
  5
2AE
100
AcDbEntity
  8
QUOTATION
100
AcDbLine
 62
3
  6
CONTINUOUS
 10
174.765419628
 20
532.1072178274
 11
259.765419628
 21
532.1072178274
  0
INSERT
  5
2AF
100
AcDbEntity
  8
QUOTATION
100
AcDbBlockReference
 62
3
  6
CONTINUOUS
  2
_CLOSED
 10
386.765419628
 20
532.1072178274
 41
0.1875
 42
0.1875
 43
0.1875
  0
INSERT
  5
2B0
100
AcDbEntity
  8
QUOTATION
100
AcDbBlockReference
 62
3
  6
CONTINUOUS
  2
_CLOSED
 10
174.765419628
 20
532.1072178274
 41
0.1875
 42
0.1875
 43
0.1875
 50
180.0
  0
ENDBLK
  5
2B1
100
AcDbEntity
  8
0
  6
BYBLOCK
 62
0
100
AcDbBlockEnd
  0
BLOCK
  5
2B2
100
AcDbEntity
  8
QUOTATION
100
AcDbBlockBegin
 62
3
  6
CONTINUOUS
  2
*D14
 70
65
 10
0.0
 20
0.0
  3
*D14
  1

  0
MTEXT
  5
2B3
100
AcDbEntity
  8
QUOTATION
100
AcDbMText
 62
3
  6
CONTINUOUS
  7
STANDARD
 71
2
 72
1
 10
124.665419628
 20
537.3572178274
 30
0.0
 11
1.0
 21
0.0
 31
0.0
 44
0.9
  1
96
 40
10.5
 41
16.8
  0
LINE
  5
2B4
100
AcDbEntity
  8
QUOTATION
100
AcDbLine
 62
3
  6
CONTINUOUS
 10
174.765419628
 20
318.3745437096
 11
174.765419628
 21
532.2322178274
  0
LINE
  5
2B5
100
AcDbEntity
  8
QUOTATION
100
AcDbLine
 62
3
  6
CONTINUOUS
 10
78.765419628
 20
278.3745437096
 11
78.765419628
 21
532.2322178274
  0
LINE
  5
2B6
100
AcDbEntity
  8
QUOTATION
100
AcDbLine
 62
3
  6
CONTINUOUS
 10
174.765419628
 20
532.1072178274
 11
138.315419628
 21
532.1072178274
  0
LINE
  5
2B7
100
AcDbEntity
  8
QUOTATION
100
AcDbLine
 62
3
  6
CONTINUOUS
 10
78.765419628
 20
532.1072178274
 11
111.015419628
 21
532.1072178274
  0
INSERT
  5
2B8
100
AcDbEntity
  8
QUOTATION
100
AcDbBlockReference
 62
3
  6
CONTINUOUS
  2
_CLOSED
 10
174.765419628
 20
532.1072178274
 41
0.1875
 42
0.1875
 43
0.1875
  0
INSERT
  5
2B9
100
AcDbEntity
  8
QUOTATION
100
AcDbBlockReference
 62
3
  6
CONTINUOUS
  2
_CLOSED
 10
78.765419628
 20
532.1072178274
 41
0.1875
 42
0.1875
 43
0.1875
 50
180.0
  0
ENDBLK
  5
2BA
100
AcDbEntity
  8
0
  6
BYBLOCK
 62
0
100
AcDbBlockEnd
  0
BLOCK
  5
2BB
100
AcDbEntity
  8
QUOTATION
100
AcDbBlockBegin
 62
3
  6
CONTINUOUS
  2
*D15
 70
65
 10
0.0
 20
0.0
  3
*D15
  1

  0
MTEXT
  5
2BC
100
AcDbEntity
  8
QUOTATION
100
AcDbMText
 62
3
  6
CONTINUOUS
  7
STANDARD
 71
2
 72
1
 10
1317.8671693777
 20
347.5723854787
 30
0.0
 11
1.0
 21
0.0
 31
0.0
 44
0.9
  1
4x \Fgdt;{\Fgdt;n}\Ftxt;4.5
 40
10.5
 41
64.4
  0
LINE
  5
2BD
100
AcDbEntity
  8
QUOTATION
100
AcDbLine
 62
3
  6
CONTINUOUS
 10
1210.4570893918
 20
305.2327466198
 11
1230.3322451372
 21
342.3223854787
  0
LINE
  5
2BE
100
AcDbEntity
  8
QUOTATION
100
AcDbLine
 62
3
  6
CONTINUOUS
 10
1230.3322451372
 20
342.3223854787
 11
1280.4171693777
 21
342.3223854787
  0
INSERT
  5
2BF
100
AcDbEntity
  8
QUOTATION
100
AcDbBlockReference
 62
3
  6
CONTINUOUS
  2
_CLOSED
 10
1210.4570893918
 20
305.2327466198
 41
0.1875
 42
0.1875
 43
0.1875
 50
241.814560908
  0
ENDBLK
  5
2C0
100
AcDbEntity
  8
0
  6
BYBLOCK
 62
0
100
AcDbBlockEnd
  0
BLOCK
  5
2C1
100
AcDbEntity
  8
QUOTATION
100
AcDbBlockBegin
 62
3
  6
CONTINUOUS
  2
*D16
 70
65
 10
0.0
 20
0.0
  3
*D16
  1

  0
MTEXT
  5
2C2
100
AcDbEntity
  8
QUOTATION
100
AcDbMText
 62
3
  6
CONTINUOUS
  7
TEXTSTYLE_1
 71
2
 72
1
 10
1264.7114181621
 20
313.8027349247
 30
0.0
 11
1.0
 21
0.0
 31
0.0
 44
0.9
  1
{\Fgdt;n}\Ftxt;31
 40
10.5
 41
30.8
  0
LINE
  5
2C3
100
AcDbEntity
  8
QUOTATION
100
AcDbLine
 62
3
  6
CONTINUOUS
 10
1214.7961292596
 20
292.7778204673
 11
1220.6614181621
 21
308.5527349247
  0
LINE
  5
2C4
100
AcDbEntity
  8
QUOTATION
100
AcDbLine
 62
3
  6
CONTINUOUS
 10
1220.6614181621
 20
308.5527349247
 11
1244.0614181621
 21
308.5527349247
  0
INSERT
  5
2C5
100
AcDbEntity
  8
QUOTATION
100
AcDbBlockReference
 62
3
  6
CONTINUOUS
  2
_CLOSED
 10
1214.7961292596
 20
292.7778204673
 41
0.1875
 42
0.1875
 43
0.1875
 50
249.6043051016
  0
ENDBLK
  5
2C6
100
AcDbEntity
  8
0
  6
BYBLOCK
 62
0
100
AcDbBlockEnd
  0
BLOCK
  5
2C7
100
AcDbEntity
  8
QUOTATION
100
AcDbBlockBegin
 62
3
  6
CONTINUOUS
  2
*D17
 70
65
 10
0.0
 20
0.0
  3
*D17
  1

  0
MTEXT
  5
2C8
100
AcDbEntity
  8
QUOTATION
100
AcDbMText
 62
3
  6
CONTINUOUS
  7
STANDARD
 71
2
 72
1
 10
1207.2943541394
 20
227.6212572146
 30
0.0
 11
1.0
 21
0.0
 31
0.0
 44
0.9
  1
50
 40
10.5
 41
16.8
  0
LINE
  5
2C9
100
AcDbEntity
  8
QUOTATION
100
AcDbLine
 62
3
  6
CONTINUOUS
 10
1184.3943541394
 20
278.1245437095
 11
1184.3943541394
 21
222.2462572146
  0
LINE
  5
2CA
100
AcDbEntity
  8
QUOTATION
100
AcDbLine
 62
3
  6
CONTINUOUS
 10
1234.3943541394
 20
278.1245437095
 11
1234.3943541394
 21
222.2462572146
  0
LINE
  5
2CB
100
AcDbEntity
  8
QUOTATION
100
AcDbLine
 62
3
  6
CONTINUOUS
 10
1184.3943541394
 20
222.3712572146
 11
1193.6443541394
 21
222.3712572146
  0
LINE
  5
2CC
100
AcDbEntity
  8
QUOTATION
100
AcDbLine
 62
3
  6
CONTINUOUS
 10
1234.3943541394
 20
222.3712572146
 11
1220.9443541394
 21
222.3712572146
  0
INSERT
  5
2CD
100
AcDbEntity
  8
QUOTATION
100
AcDbBlockReference
 62
3
  6
CONTINUOUS
  2
_CLOSED
 10
1184.3943541394
 20
222.3712572146
 41
0.1875
 42
0.1875
 43
0.1875
 50
180.0
  0
INSERT
  5
2CE
100
AcDbEntity
  8
QUOTATION
100
AcDbBlockReference
 62
3
  6
CONTINUOUS
  2
_CLOSED
 10
1234.3943541394
 20
222.3712572146
 41
0.1875
 42
0.1875
 43
0.1875
  0
ENDBLK
  5
2CF
100
AcDbEntity
  8
0
  6
BYBLOCK
 62
0
100
AcDbBlockEnd
  0
BLOCK
  5
2D0
100
AcDbEntity
  8
QUOTATION
100
AcDbBlockBegin
 62
3
  6
CONTINUOUS
  2
*D18
 70
65
 10
0.0
 20
0.0
  3
*D18
  1

  0
MTEXT
  5
2D1
100
AcDbEntity
  8
QUOTATION
100
AcDbMText
 62
3
  6
CONTINUOUS
  7
STANDARD
 71
2
 72
1
 10
1170.6915071565
 20
288.7495437095
 30
0.0
 11
1.0
 21
0.0
 31
0.0
 44
0.9
  1
50
 40
10.5
 41
16.8
  0
LINE
  5
2D2
100
AcDbEntity
  8
QUOTATION
100
AcDbLine
 62
3
  6
CONTINUOUS
 10
1209.2693541394
 20
253.2495437095
 11
1170.5665071565
 21
253.2495437095
  0
LINE
  5
2D3
100
AcDbEntity
  8
QUOTATION
100
AcDbLine
 62
3
  6
CONTINUOUS
 10
1209.2693541394
 20
303.2495437095
 11
1170.5665071565
 21
303.2495437095
  0
LINE
  5
2D4
100
AcDbEntity
  8
QUOTATION
100
AcDbLine
 62
3
  6
CONTINUOUS
 10
1170.6915071565
 20
253.2495437095
 11
1170.6915071565
 21
272.9995437095
  0
LINE
  5
2D5
100
AcDbEntity
  8
QUOTATION
100
AcDbLine
 62
3
  6
CONTINUOUS
 10
1170.6915071565
 20
303.2495437095
 11
1170.6915071565
 21
293.9995437095
  0
INSERT
  5
2D6
100
AcDbEntity
  8
QUOTATION
100
AcDbBlockReference
 62
3
  6
CONTINUOUS
  2
_CLOSED
 10
1170.6915071565
 20
253.2495437095
 41
0.1875
 42
0.1875
 43
0.1875
 50
270.0
  0
INSERT
  5
2D7
100
AcDbEntity
  8
QUOTATION
100
AcDbBlockReference
 62
3
  6
CONTINUOUS
  2
_CLOSED
 10
1170.6915071565
 20
303.2495437095
 41
0.1875
 42
0.1875
 43
0.1875
 50
90.0
  0
ENDBLK
  5
2D8
100
AcDbEntity
  8
0
  6
BYBLOCK
 62
0
100
AcDbBlockEnd
  0
BLOCK
  5
2D9
100
AcDbEntity
  8
QUOTATION
100
AcDbBlockBegin
 62
3
  6
CONTINUOUS
  2
*D19
 70
65
 10
0.0
 20
0.0
  3
*D19
  1

  0
MTEXT
  5
2DA
100
AcDbEntity
  8
QUOTATION
100
AcDbMText
 62
3
  6
CONTINUOUS
  7
STANDARD
 71
2
 72
1
 10
751.8313306886
 20
575.5775765623
 30
0.0
 11
1.0
 21
0.0
 31
0.0
 44
0.9
  1
492
 40
10.5
 41
25.2
  0
LINE
  5
2DB
100
AcDbEntity
  8
QUOTATION
100
AcDbLine
 62
3
  6
CONTINUOUS
 10
508.9813306886
 20
593.1093479559
 11
508.9813306886
 21
570.2025765623
  0
LINE
  5
2DC
100
AcDbEntity
  8
QUOTATION
100
AcDbLine
 62
3
  6
CONTINUOUS
 10
1000.9813306886
 20
593.1093479559
 11
1000.9813306886
 21
570.2025765623
  0
LINE
  5
2DD
100
AcDbEntity
  8
QUOTATION
100
AcDbLine
 62
3
  6
CONTINUOUS
 10
508.9813306886
 20
570.3275765623
 11
733.9813306886
 21
570.3275765623
  0
LINE
  5
2DE
100
AcDbEntity
  8
QUOTATION
100
AcDbLine
 62
3
  6
CONTINUOUS
 10
1000.9813306886
 20
570.3275765623
 11
769.6813306886
 21
570.3275765623
  0
INSERT
  5
2DF
100
AcDbEntity
  8
QUOTATION
100
AcDbBlockReference
 62
3
  6
CONTINUOUS
  2
_CLOSED
 10
508.9813306886
 20
570.3275765623
 41
0.1875
 42
0.1875
 43
0.1875
 50
180.0
  0
INSERT
  5
2E0
100
AcDbEntity
  8
QUOTATION
100
AcDbBlockReference
 62
3
  6
CONTINUOUS
  2
_CLOSED
 10
1000.9813306886
 20
570.3275765623
 41
0.1875
 42
0.1875
 43
0.1875
  0
ENDBLK
  5
2E1
100
AcDbEntity
  8
0
  6
BYBLOCK
 62
0
100
AcDbBlockEnd
  0
BLOCK
  5
2E2
100
AcDbEntity
  8
QUOTATION
100
AcDbBlockBegin
 62
3
  6
CONTINUOUS
  2
*D20
 70
65
 10
0.0
 20
0.0
  3
*D20
  1

  0
MTEXT
  5
2E3
100
AcDbEntity
  8
QUOTATION
100
AcDbMText
 62
3
  6
CONTINUOUS
  7
TEXTSTYLE_1
 71
2
 72
1
 10
1046.6186769474
 20
454.1026244555
 30
0.0
 11
1.0
 21
0.0
 31
0.0
 44
0.9
  1
{\Fgdt;n}\Ftxt;11
 40
10.5
 41
30.8
  0
LINE
  5
2E4
100
AcDbEntity
  8
QUOTATION
100
AcDbLine
 62
3
  6
CONTINUOUS
 10
952.4608577044
 20
399.0460374466
 11
1004.6686769474
 21
448.8526244555
  0
LINE
  5
2E5
100
AcDbEntity
  8
QUOTATION
100
AcDbLine
 62
3
  6
CONTINUOUS
 10
1004.6686769474
 20
448.8526244555
 11
1025.9686769474
 21
448.8526244555
  0
INSERT
  5
2E6
100
AcDbEntity
  8
QUOTATION
100
AcDbBlockReference
 62
3
  6
CONTINUOUS
  2
_CLOSED
 10
952.4608577044
 20
399.0460374466
 41
0.1875
 42
0.1875
 43
0.1875
 50
223.6516113015
  0
ENDBLK
  5
2E7
100
AcDbEntity
  8
0
  6
BYBLOCK
 62
0
100
AcDbBlockEnd
  0
BLOCK
  5
2E8
100
AcDbEntity
  8
QUOTATION
100
AcDbBlockBegin
 62
3
  6
CONTINUOUS
  2
*D21
 70
65
 10
0.0
 20
0.0
  3
*D21
  1

  0
MTEXT
  5
2E9
100
AcDbEntity
  8
QUOTATION
100
AcDbMText
 62
3
  6
CONTINUOUS
  7
STANDARD
 71
2
 72
1
 10
926.3813306843
 20
54.4995437095
 30
0.0
 11
1.0
 21
0.0
 31
0.0
 44
0.9
  1
63
 40
10.5
 41
16.8
  0
LINE
  5
2EA
100
AcDbEntity
  8
QUOTATION
100
AcDbLine
 62
3
  6
CONTINUOUS
 10
896.9813306843
 20
90.1245437095
 11
896.9813306843
 21
49.1245437095
  0
LINE
  5
2EB
100
AcDbEntity
  8
QUOTATION
100
AcDbLine
 62
3
  6
CONTINUOUS
 10
959.9813306843
 20
90.1245437095
 11
959.9813306843
 21
49.1245437095
  0
LINE
  5
2EC
100
AcDbEntity
  8
QUOTATION
100
AcDbLine
 62
3
  6
CONTINUOUS
 10
896.9813306843
 20
49.2495437095
 11
912.7313306843
 21
49.2495437095
  0
LINE
  5
2ED
100
AcDbEntity
  8
QUOTATION
100
AcDbLine
 62
3
  6
CONTINUOUS
 10
959.9813306843
 20
49.2495437095
 11
940.0313306843
 21
49.2495437095
  0
INSERT
  5
2EE
100
AcDbEntity
  8
QUOTATION
100
AcDbBlockReference
 62
3
  6
CONTINUOUS
  2
_CLOSED
 10
896.9813306843
 20
49.2495437095
 41
0.1875
 42
0.1875
 43
0.1875
 50
180.0
  0
INSERT
  5
2EF
100
AcDbEntity
  8
QUOTATION
100
AcDbBlockReference
 62
3
  6
CONTINUOUS
  2
_CLOSED
 10
959.9813306843
 20
49.2495437095
 41
0.1875
 42
0.1875
 43
0.1875
  0
ENDBLK
  5
2F0
100
AcDbEntity
  8
0
  6
BYBLOCK
 62
0
100
AcDbBlockEnd
  0
BLOCK
  5
2F1
100
AcDbEntity
  8
QUOTATION
100
AcDbBlockBegin
 62
3
  6
CONTINUOUS
  2
*D22
 70
65
 10
0.0
 20
0.0
  3
*D22
  1

  0
MTEXT
  5
2F2
100
AcDbEntity
  8
QUOTATION
100
AcDbMText
 62
3
  6
CONTINUOUS
  7
STANDARD
 71
2
 72
1
 10
1004.6323597837
 20
80.8370929221
 30
0.0
 11
1.0
 21
0.0
 31
0.0
 44
0.9
  1
20
 40
10.5
 41
16.8
  0
LINE
  5
2F3
100
AcDbEntity
  8
QUOTATION
100
AcDbLine
 62
3
  6
CONTINUOUS
 10
948.6063306843
 20
105.2495437095
 11
1004.7573597837
 21
105.2495437095
  0
LINE
  5
2F4
100
AcDbEntity
  8
QUOTATION
100
AcDbLine
 62
3
  6
CONTINUOUS
 10
955.1063306843
 20
85.2495437095
 11
1004.7573597837
 21
85.2495437095
  0
LINE
  5
2F5
100
AcDbEntity
  8
QUOTATION
100
AcDbLine
 62
3
  6
CONTINUOUS
 10
1004.6323597837
 20
105.2495437095
 11
1004.6323597837
 21
105.7495437095
  0
LINE
  5
2F6
100
AcDbEntity
  8
QUOTATION
100
AcDbLine
 62
3
  6
CONTINUOUS
 10
1004.6323597837
 20
85.2495437095
 11
1004.6323597837
 21
85.2494074428
  0
INSERT
  5
2F7
100
AcDbEntity
  8
QUOTATION
100
AcDbBlockReference
 62
3
  6
CONTINUOUS
  2
_CLOSED
 10
1004.6323597837
 20
105.2495437095
 41
0.1875
 42
0.1875
 43
0.1875
 50
270.0
  0
INSERT
  5
2F8
100
AcDbEntity
  8
QUOTATION
100
AcDbBlockReference
 62
3
  6
CONTINUOUS
  2
_CLOSED
 10
1004.6323597837
 20
85.2495437095
 41
0.1875
 42
0.1875
 43
0.1875
 50
90.0
  0
ENDBLK
  5
2F9
100
AcDbEntity
  8
0
  6
BYBLOCK
 62
0
100
AcDbBlockEnd
  0
BLOCK
  5
2FA
100
AcDbEntity
  8
QUOTATION
100
AcDbBlockBegin
 62
3
  6
CONTINUOUS
  2
*D23
 70
65
 10
0.0
 20
0.0
  3
*D23
  1

  0
MTEXT
  5
2FB
100
AcDbEntity
  8
QUOTATION
100
AcDbMText
 62
3
  6
CONTINUOUS
  7
STANDARD
 71
2
 72
1
 10
1004.6323597837
 20
100.8370929221
 30
0.0
 11
1.0
 21
0.0
 31
0.0
 44
0.9
  1
20
 40
10.5
 41
16.8
  0
LINE
  5
2FC
100
AcDbEntity
  8
QUOTATION
100
AcDbLine
 62
3
  6
CONTINUOUS
 10
948.6063306843
 20
125.2495437095
 11
1004.7573597837
 21
125.2495437095
  0
LINE
  5
2FD
100
AcDbEntity
  8
QUOTATION
100
AcDbLine
 62
3
  6
CONTINUOUS
 10
948.6063306843
 20
105.2495437095
 11
1004.7573597837
 21
105.2495437095
  0
LINE
  5
2FE
100
AcDbEntity
  8
QUOTATION
100
AcDbLine
 62
3
  6
CONTINUOUS
 10
1004.6323597837
 20
125.2495437095
 11
1004.6323597837
 21
125.7495437095
  0
LINE
  5
2FF
100
AcDbEntity
  8
QUOTATION
100
AcDbLine
 62
3
  6
CONTINUOUS
 10
1004.6323597837
 20
105.2495437095
 11
1004.6323597837
 21
105.2494074428
  0
INSERT
  5
300
100
AcDbEntity
  8
QUOTATION
100
AcDbBlockReference
 62
3
  6
CONTINUOUS
  2
_CLOSED
 10
1004.6323597837
 20
125.2495437095
 41
0.1875
 42
0.1875
 43
0.1875
 50
270.0
  0
INSERT
  5
301
100
AcDbEntity
  8
QUOTATION
100
AcDbBlockReference
 62
3
  6
CONTINUOUS
  2
_CLOSED
 10
1004.6323597837
 20
105.2495437095
 41
0.1875
 42
0.1875
 43
0.1875
 50
90.0
  0
ENDBLK
  5
302
100
AcDbEntity
  8
0
  6
BYBLOCK
 62
0
100
AcDbBlockEnd
  0
ENDSEC
  0
SECTION
  2
ENTITIES
  0
DIMENSION
  5
303
100
AcDbEntity
  8
QUOTATION
100
AcDbDimension
 62
3
  6
CONTINUOUS
  2
*D0
 10
457.6907109972
 20
337.7502443144
 11
445.0907109972
 21
255.4995437095
 70
160
 71
2
  1
175
  3
DIMSTYLE_1
100
AcDbAlignedDimension
 13
521.3563306843
 23
162.7502443144
 14
521.3563306843
 24
337.7502443144
 50
90.0
100
AcDbRotatedDimension
  0
DIMENSION
  5
304
100
AcDbEntity
  8
QUOTATION
100
AcDbDimension
 62
3
  6
CONTINUOUS
  2
*D1
 10
438.1067593939
 20
350.2502443144
 11
425.5067593939
 21
253.9204175376
 70
160
 71
2
  1
200
  3
DIMSTYLE_1
100
AcDbAlignedDimension
 13
508.8563306843
 23
150.2502443144
 14
508.8563306843
 24
350.2502443144
 50
90.0
100
AcDbRotatedDimension
  0
DIMENSION
  5
305
100
AcDbEntity
  8
QUOTATION
100
AcDbDimension
 62
3
  6
CONTINUOUS
  2
*D2
 10
438.1067593939
 20
415.2495437095
 11
429.7067593939
 21
387.9998940119
 70
160
 71
2
  1
65
  3
DIMSTYLE_1
100
AcDbAlignedDimension
 13
508.8563306843
 23
350.2502443144
 14
541.8563306843
 24
415.2495437095
 50
90.0
100
AcDbRotatedDimension
  0
DIMENSION
  5
306
100
AcDbEntity
  8
QUOTATION
100
AcDbDimension
 62
3
  6
CONTINUOUS
  2
*D3
 10
438.1067593939
 20
480.7502443144
 11
421.3067593939
 21
453.2498940119
 70
160
 71
2
  1
65.5
  3
DIMSTYLE_1
100
AcDbAlignedDimension
 13
541.8563306843
 23
415.2495437095
 14
513.8563306843
 24
480.7502443144
 50
90.0
100
AcDbRotatedDimension
  0
DIMENSION
  5
307
100
AcDbEntity
  8
QUOTATION
100
AcDbDimension
 62
3
  6
CONTINUOUS
  2
*D4
 10
988.4813306886
 20
540.4373361054
 11
796.2775563345
 21
540.4373361054
 70
160
 71
2
  1
467
  3
DIMSTYLE_1
100
AcDbAlignedDimension
 13
521.4813306843
 23
337.8752443144
 14
988.4813306886
 24
337.8745437095
100
AcDbRotatedDimension
  0
DIMENSION
  5
308
100
AcDbEntity
  8
QUOTATION
100
AcDbDimension
 62
3
  6
CONTINUOUS
  2
*D5
 10
568.4813306843
 20
49.2495437095
 11
534.4813306843
 21
49.2495437095
 70
160
 71
2
  1
47
  3
DIMSTYLE_1
100
AcDbAlignedDimension
 13
521.4813306843
 23
162.6252443144
 14
568.4813306843
 24
85.1245437095
100
AcDbRotatedDimension
  0
DIMENSION
  5
309
100
AcDbEntity
  8
QUOTATION
100
AcDbDimension
 62
3
  6
CONTINUOUS
  2
*D6
 10
688.4813306843
 20
49.2495437095
 11
612.7313306843
 21
49.2495437095
 70
160
 71
2
  1
120
  3
DIMSTYLE_1
100
AcDbAlignedDimension
 13
568.4813306843
 23
85.1245437095
 14
688.4813306843
 24
85.1245437095
100
AcDbRotatedDimension
  0
DIMENSION
  5
30A
100
AcDbEntity
  8
QUOTATION
100
AcDbDimension
 62
3
  6
CONTINUOUS
  2
*D7
 10
754.9813306843
 20
518.2275123806
 11
611.9813306843
 21
518.2275123806
 70
160
 71
2
  1
233.5
  3
DIMSTYLE_1
100
AcDbAlignedDimension
 13
521.4813306843
 23
337.8752443144
 14
754.9813306843
 24
278.3745437095
100
AcDbRotatedDimension
  0
DIMENSION
  5
30B
100
AcDbEntity
  8
QUOTATION
100
AcDbDimension
 62
3
  6
CONTINUOUS
  2
*D8
 10
1057.8820101002
 20
278.2495437095
 11
1041.0820101002
 21
313.2495437095
 70
160
 71
2
  1
59.5
  3
DIMSTYLE_1
100
AcDbAlignedDimension
 13
988.6063306886
 23
337.7495437095
 14
945.1147551121
 24
278.2495437095
 50
270.0
100
AcDbRotatedDimension
  0
DIMENSION
  5
30C
100
AcDbEntity
  8
QUOTATION
100
AcDbDimension
 62
3
  6
CONTINUOUS
  2
*D9
 10
992.0286336437
 20
340.5184138301
 11
1044.2338508668
 21
358.0446263992
 70
163
 71
2
  1
%%c9
  3
DIMSTYLE_2
100
AcDbDiametricDimension
 15
984.9340277334
 25
334.980673589
  0
DIMENSION
  5
30D
100
AcDbEntity
  8
QUOTATION
100
AcDbDimension
 62
3
  6
CONTINUOUS
  2
*D10
 10
339.765419628
 20
477.7880295218
 11
352.765419628
 21
477.7880295218
 70
160
 71
2
  1
47
  3
DIMSTYLE_1
100
AcDbAlignedDimension
 13
386.765419628
 23
350.3745437095
 14
339.765419628
 24
415.3745437095
 50
180.0
100
AcDbRotatedDimension
  0
DIMENSION
  5
30E
100
AcDbEntity
  8
QUOTATION
100
AcDbDimension
 62
3
  6
CONTINUOUS
  2
*D11
 10
339.765419628
 20
449.4326030248
 11
312.915419628
 21
449.4326030248
 70
160
 71
2
  1
7
  3
DIMSTYLE_1
100
AcDbAlignedDimension
 13
346.765419628
 23
415.3745437095
 14
339.765419628
 24
415.3745437095
 50
180.0
100
AcDbRotatedDimension
  0
DIMENSION
  5
30F
100
AcDbEntity
  8
QUOTATION
100
AcDbDimension
 62
3
  6
CONTINUOUS
  2
*D12
 10
246.765419628
 20
508.4717840567
 11
301.015419628
 21
508.4717840567
 70
160
 71
2
  1
140
  3
DIMSTYLE_1
100
AcDbAlignedDimension
 13
386.765419628
 23
350.3745437095
 14
246.765419628
 24
350.3745437095
 50
180.0
100
AcDbRotatedDimension
  0
DIMENSION
  5
310
100
AcDbEntity
  8
QUOTATION
100
AcDbDimension
 62
3
  6
CONTINUOUS
  2
*D13
 10
174.765419628
 20
532.1072178274
 11
265.015419628
 21
532.1072178274
 70
160
 71
2
  1
212
  3
DIMSTYLE_1
100
AcDbAlignedDimension
 13
386.765419628
 23
350.3745437095
 14
174.765419628
 24
318.3745437096
 50
180.0
100
AcDbRotatedDimension
  0
DIMENSION
  5
311
100
AcDbEntity
  8
QUOTATION
100
AcDbDimension
 62
3
  6
CONTINUOUS
  2
*D14
 10
78.765419628
 20
532.1072178274
 11
116.265419628
 21
532.1072178274
 70
160
 71
2
  1
96
  3
DIMSTYLE_1
100
AcDbAlignedDimension
 13
174.765419628
 23
318.3745437096
 14
78.765419628
 24
278.3745437096
 50
180.0
100
AcDbRotatedDimension
  0
DIMENSION
  5
312
100
AcDbEntity
  8
QUOTATION
100
AcDbDimension
 62
3
  6
CONTINUOUS
  2
*D15
 10
1210.4570893918
 20
305.2327466198
 11
1305.2671693777
 21
342.3223854787
 70
163
 71
2
  1
4x %%c4.5
  3
DIMSTYLE_2
100
AcDbDiametricDimension
 15
1208.3316188869
 25
301.2663407993
  0
DIMENSION
  5
313
100
AcDbEntity
  8
QUOTATION
100
AcDbDimension
 62
3
  6
CONTINUOUS
  2
*D16
 10
1214.7961292596
 20
292.7778204673
 11
1257.0114181621
 21
308.5527349247
 70
163
 71
2
  1
%%c31
  3
DIMSTYLE_2
100
AcDbDiametricDimension
 15
1203.9925790192
 25
263.7212669518
  0
DIMENSION
  5
314
100
AcDbEntity
  8
QUOTATION
100
AcDbDimension
 62
3
  6
CONTINUOUS
  2
*D17
 10
1234.3943541394
 20
222.3712572146
 11
1198.8943541394
 21
222.3712572146
 70
160
 71
2
  1
50
  3
DIMSTYLE_1
100
AcDbAlignedDimension
 13
1184.3943541394
 23
278.1245437095
 14
1234.3943541394
 24
278.1245437095
100
AcDbRotatedDimension
  0
DIMENSION
  5
315
100
AcDbEntity
  8
QUOTATION
100
AcDbDimension
 62
3
  6
CONTINUOUS
  2
*D18
 10
1170.6915071565
 20
303.2495437095
 11
1162.2915071565
 21
283.4995437095
 70
160
 71
2
  1
50
  3
DIMSTYLE_1
100
AcDbAlignedDimension
 13
1209.2693541394
 23
253.2495437095
 14
1209.2693541394
 24
303.2495437095
 50
90.0
100
AcDbRotatedDimension
  0
DIMENSION
  5
316
100
AcDbEntity
  8
QUOTATION
100
AcDbDimension
 62
3
  6
CONTINUOUS
  2
*D19
 10
1000.9813306886
 20
570.3275765623
 11
739.2313306886
 21
570.3275765623
 70
160
 71
2
  1
492
  3
DIMSTYLE_1
100
AcDbAlignedDimension
 13
508.9813306886
 23
593.1093479559
 14
1000.9813306886
 24
593.1093479559
100
AcDbRotatedDimension
  0
DIMENSION
  5
317
100
AcDbEntity
  8
QUOTATION
100
AcDbDimension
 62
3
  6
CONTINUOUS
  2
*D20
 10
952.4608577044
 20
399.0460374466
 11
1038.9186769474
 21
448.8526244555
 70
163
 71
2
  1
%%c11
  3
DIMSTYLE_2
100
AcDbDiametricDimension
 15
944.5018036641
 25
391.4530499724
  0
DIMENSION
  5
318
100
AcDbEntity
  8
QUOTATION
100
AcDbDimension
 62
3
  6
CONTINUOUS
  2
*D21
 10
959.9813306843
 20
49.2495437095
 11
917.9813306843
 21
49.2495437095
 70
160
 71
2
  1
63
  3
DIMSTYLE_1
100
AcDbAlignedDimension
 13
896.9813306843
 23
90.1245437095
 14
959.9813306843
 24
90.1245437095
100
AcDbRotatedDimension
  0
DIMENSION
  5
319
100
AcDbEntity
  8
QUOTATION
100
AcDbDimension
 62
3
  6
CONTINUOUS
  2
*D22
 10
1004.6323597837
 20
85.2495437095
 11
996.2323597837
 21
75.5870929221
 70
160
 71
2
  1
20
  3
DIMSTYLE_1
100
AcDbAlignedDimension
 13
948.6063306843
 23
105.2495437095
 14
955.1063306843
 24
85.2495437095
 50
270.0
100
AcDbRotatedDimension
  0
DIMENSION
  5
31A
100
AcDbEntity
  8
QUOTATION
100
AcDbDimension
 62
3
  6
CONTINUOUS
  2
*D23
 10
1004.6323597837
 20
105.2495437095
 11
996.2323597837
 21
95.5870929221
 70
160
 71
2
  1
20
  3
DIMSTYLE_1
100
AcDbAlignedDimension
 13
948.6063306843
 23
125.2495437095
 14
948.6063306843
 24
105.2495437095
 50
270.0
100
AcDbRotatedDimension
  0
MTEXT
  5
31B
100
AcDbEntity
  8
TEXT
100
AcDbMText
 62
2
  6
CONTINUOUS
  7
TEXTSTYLE_2
 71
1
 72
1
 10
711.1596624053
 20
284.9120993667
 30
0.0
 11
0.1736481777
 21
0.984807753
 31
0.0
 44
0.6
  1
OFF
 40
12.0
 41
36.0
  0
MTEXT
  5
31C
100
AcDbEntity
  8
TEXT
100
AcDbMText
 62
2
  6
CONTINUOUS
  7
TEXTSTYLE_2
 71
1
 72
1
 10
752.4625613244
 20
309.8176978193
 30
0.0
 11
0.0
 21
1.0
 31
0.0
 44
0.6
  1
ON
 40
12.0
 41
24.0
  0
MTEXT
  5
31D
100
AcDbEntity
  8
TEXT
100
AcDbMText
 62
2
  6
CONTINUOUS
  7
TEXTSTYLE_3
 71
1
 72
1
 10
1148.9423134665
 20
403.308810523
 30
0.0
 11
1.0
 21
0.0
 31
0.0
 44
1.0000002
  1
DOOR DRILLING
 40
10.0
 41
114.1666666667
  0
MTEXT
  5
31E
100
AcDbEntity
  8
TEXT
100
AcDbMText
 62
2
  6
CONTINUOUS
  7
TEXTSTYLE_2
 71
1
 72
1
 10
719.0381244294
 20
283.5229139454
 30
0.0
 11
0.1736481777
 21
0.984807753
 31
0.0
 44
0.6
  1
OFF
 40
4.0
 41
12.0
  0
MTEXT
  5
31F
100
AcDbEntity
  8
TEXT
100
AcDbMText
 62
2
  6
CONTINUOUS
  7
TEXTSTYLE_2
 71
1
 72
1
 10
760.4625613244
 20
309.8176978193
 30
0.0
 11
0.0
 21
1.0
 31
0.0
 44
0.6
  1
ON
 40
4.0
 41
8.0
  0
MTEXT
  5
320
100
AcDbEntity
  8
0
100
AcDbMText
 62
3
  6
CONTINUOUS
  7
STANDARD
 71
2
 72
1
 10
48.079757133
 20
752.6931876765
 30
0.0
 11
1.0
 21
0.0
 31
0.0
  1
1
 40
7.5
 41
6.0
  0
MTEXT
  5
321
100
AcDbEntity
  8
0
100
AcDbMText
 62
3
  6
CONTINUOUS
  7
STANDARD
 71
1
 72
1
 10
61.729757133
 20
752.3681876765
 30
0.0
 11
1.0
 21
0.0
 31
0.0
 44
1.0000002
  1
ECRAN DE PROTECTION DES PLAGES 
 40
6.85
 41
169.88
  0
MTEXT
  5
322
100
AcDbEntity
  8
0
100
AcDbMText
 62
3
  6
CONTINUOUS
  7
STANDARD
 71
2
 72
1
 10
264.529757133
 20
752.6931876765
 30
0.0
 11
1.0
 21
0.0
 31
0.0
  1
27984120 
 40
7.5
 41
54.0
  0
MTEXT
  5
323
100
AcDbEntity
  8
0
100
AcDbMText
 62
3
  6
CONTINUOUS
  7
STANDARD
 71
2
 72
1
 10
314.6156709582
 20
752.6931876765
 30
0.0
 11
1.0
 21
0.0
 31
0.0
  1
/
 40
7.5
 41
6.0
  0
MTEXT
  5
324
100
AcDbEntity
  8
0
100
AcDbMText
 62
3
  6
CONTINUOUS
  7
STANDARD
 71
2
 72
1
 10
349.0265847833
 20
752.6931876765
 30
0.0
 11
1.0
 21
0.0
 31
0.0
  1
1
 40
7.5
 41
6.0
  0
MTEXT
  5
325
100
AcDbEntity
  8
0
100
AcDbMText
 62
3
  6
CONTINUOUS
  7
STANDARD
 71
2
 72
1
 10
48.079757133
 20
737.9181876765
 30
0.0
 11
1.0
 21
0.0
 31
0.0
  1
2
 40
7.5
 41
6.0
  0
MTEXT
  5
326
100
AcDbEntity
  8
0
100
AcDbMText
 62
3
  6
CONTINUOUS
  7
STANDARD
 71
1
 72
1
 10
61.729757133
 20
737.5431876765
 30
0.0
 11
1.0
 21
0.0
 31
0.0
 44
1.0000002
  1
SIRCO UL 4x1200A F  APPAREIL NU 
 40
6.75
 41
172.8
  0
MTEXT
  5
327
100
AcDbEntity
  8
0
100
AcDbMText
 62
3
  6
CONTINUOUS
  7
STANDARD
 71
2
 72
1
 10
264.529757133
 20
737.9181876765
 30
0.0
 11
1.0
 21
0.0
 31
0.0
  1
27004120
 40
7.5
 41
48.0
  0
MTEXT
  5
328
100
AcDbEntity
  8
0
100
AcDbMText
 62
3
  6
CONTINUOUS
  7
STANDARD
 71
2
 72
1
 10
314.6156709582
 20
737.9181876765
 30
0.0
 11
1.0
 21
0.0
 31
0.0
  1
/
 40
7.5
 41
6.0
  0
MTEXT
  5
329
100
AcDbEntity
  8
0
100
AcDbMText
 62
3
  6
CONTINUOUS
  7
STANDARD
 71
2
 72
1
 10
349.0265847833
 20
737.9181876765
 30
0.0
 11
1.0
 21
0.0
 31
0.0
  1
1
 40
7.5
 41
6.0
  0
MTEXT
  5
32A
100
AcDbEntity
  8
0
100
AcDbMText
 62
3
  6
CONTINUOUS
  7
STANDARD
 71
2
 72
1
 10
48.079757133
 20
723.1431876765
 30
0.0
 11
1.0
 21
0.0
 31
0.0
  1
3
 40
7.5
 41
6.0
  0
MTEXT
  5
32B
100
AcDbEntity
  8
0
100
AcDbMText
 62
3
  6
CONTINUOUS
  7
STANDARD
 71
1
 72
1
 10
61.729757133
 20
723.1431876765
 30
0.0
 11
1.0
 21
0.0
 31
0.0
  1
POIGNEE CDE TYPE H 
 40
7.5
 41
114.0
  0
MTEXT
  5
32C
100
AcDbEntity
  8
0
100
AcDbMText
 62
3
  6
CONTINUOUS
  7
STANDARD
 71
2
 72
1
 10
314.6156709582
 20
723.1431876765
 30
0.0
 11
1.0
 21
0.0
 31
0.0
  1
/
 40
7.5
 41
6.0
  0
MTEXT
  5
32D
100
AcDbEntity
  8
0
100
AcDbMText
 62
3
  6
CONTINUOUS
  7
STANDARD
 71
2
 72
1
 10
349.0265847833
 20
723.1431876765
 30
0.0
 11
1.0
 21
0.0
 31
0.0
  1
1
 40
7.5
 41
6.0
  0
MTEXT
  5
32E
100
AcDbEntity
  8
0
100
AcDbMText
 62
3
  6
CONTINUOUS
  7
STANDARD
 71
2
 72
1
 10
48.079757133
 20
708.3681876765
 30
0.0
 11
1.0
 21
0.0
 31
0.0
  1
4
 40
7.5
 41
6.0
  0
MTEXT
  5
32F
100
AcDbEntity
  8
0
100
AcDbMText
 62
3
  6
CONTINUOUS
  7
STANDARD
 71
1
 72
1
 10
61.729757133
 20
707.9931876765
 30
0.0
 11
1.0
 21
0.0
 31
0.0
 44
1.0000002
  1
ECRAN DE SEPARATION ENTRE PHASES
 40
6.75
 41
172.8
  0
MTEXT
  5
330
100
AcDbEntity
  8
0
100
AcDbMText
 62
3
  6
CONTINUOUS
  7
STANDARD
 71
2
 72
1
 10
264.529757133
 20
708.3681876765
 30
0.0
 11
1.0
 21
0.0
 31
0.0
  1
1382101
 40
7.5
 41
42.0
  0
MTEXT
  5
331
100
AcDbEntity
  8
0
100
AcDbMText
 62
3
  6
CONTINUOUS
  7
STANDARD
 71
2
 72
1
 10
314.6156709582
 20
708.3681876765
 30
0.0
 11
1.0
 21
0.0
 31
0.0
  1
/
 40
7.5
 41
6.0
  0
MTEXT
  5
332
100
AcDbEntity
  8
0
100
AcDbMText
 62
3
  6
CONTINUOUS
  7
STANDARD
 71
2
 72
1
 10
349.0265847833
 20
708.3681876765
 30
0.0
 11
1.0
 21
0.0
 31
0.0
  1
6
 40
7.5
 41
6.0
  0
MTEXT
  5
333
100
AcDbEntity
  8
0
100
AcDbMText
 62
3
  6
CONTINUOUS
  7
STANDARD
 71
2
 72
1
 10
48.079757133
 20
767.4681876765
 30
0.0
 11
1.0
 21
0.0
 31
0.0
  1
Rep.
 40
7.5
 41
24.0
  0
MTEXT
  5
334
100
AcDbEntity
  8
0
100
AcDbMText
 62
3
  6
CONTINUOUS
  7
STANDARD
 71
2
 72
1
 10
149.029757133
 20
767.4681876765
 30
0.0
 11
1.0
 21
0.0
 31
0.0
  1
Nom
 40
7.5
 41
18.0
  0
MTEXT
  5
335
100
AcDbEntity
  8
0
100
AcDbMText
 62
3
  6
CONTINUOUS
  7
STANDARD
 71
2
 72
1
 10
264.529757133
 20
767.4681876765
 30
0.0
 11
1.0
 21
0.0
 31
0.0
  1
Code
 40
7.5
 41
24.0
  0
MTEXT
  5
336
100
AcDbEntity
  8
0
100
AcDbMText
 62
3
  6
CONTINUOUS
  7
STANDARD
 71
2
 72
1
 10
309.1156709582
 20
767.4681876765
 30
0.0
 11
1.0
 21
0.0
 31
0.0
  1
N\Fgdt;{\Fgdt;~}\Ftxt; \P{\W0.8;de }\Pplan
 40
7.5
 41
24.0
  0
MTEXT
  5
337
100
AcDbEntity
  8
0
100
AcDbMText
 62
3
  6
CONTINUOUS
  7
STANDARD
 71
2
 72
1
 10
349.0265847833
 20
767.4681876765
 30
0.0
 11
1.0
 21
0.0
 31
0.0
  1
Qté
 40
7.5
 41
18.0
  0
LINE
  5
338
100
AcDbEntity
  8
0
100
AcDbLine
 62
7
  6
CONTINUOUS
 10
0.0
 20
0.0
 11
0.0
 21
930.0767541345
  0
LINE
  5
339
100
AcDbEntity
  8
0
100
AcDbLine
 62
7
  6
CONTINUOUS
 10
0.0
 20
0.0
 11
0.0
 21
930.0767541345
  0
LINE
  5
33A
100
AcDbEntity
  8
0
100
AcDbLine
 62
7
  6
CONTINUOUS
 10
37.129757133
 20
697.6431876765
 11
37.129757133
 21
771.5181876765
  0
LINE
  5
33B
100
AcDbEntity
  8
0
100
AcDbLine
 62
1
  6
CONTINUOUS
 10
59.029757133
 20
771.5181876765
 11
59.029757133
 21
697.6431876765
  0
LINE
  5
33C
100
AcDbEntity
  8
H_EXTERN_HANDLE
100
AcDbLine
 62
7
  6
CONTINUOUS
 10
82.765419628
 20
288.4995434314
 11
82.765419628
 21
285.732858205
  0
LINE
  5
33D
100
AcDbEntity
  8
H_EXTERN_HANDLE
100
AcDbLine
 62
7
  6
CONTINUOUS
 10
82.765419628
 20
270.7662286579
 11
82.765419628
 21
267.9995434314
  0
LINE
  5
33E
100
AcDbEntity
  8
H_EXTERN_HANDLE
100
AcDbLine
 62
7
  6
CONTINUOUS
 10
84.265419628
 20
292.4995434314
 11
84.265419628
 21
286.5411054073
  0
LINE
  5
33F
100
AcDbEntity
  8
H_EXTERN_HANDLE
100
AcDbLine
 62
7
  6
CONTINUOUS
 10
84.265419628
 20
263.9995434314
 11
84.265419628
 21
269.9579814555
  0
LINE
  5
340
100
AcDbEntity
  8
H_MOVING
100
AcDbLine
 62
1
  6
CONTINUOUS
 10
83.4287962241
 20
213.6960406656
 11
78.765419628
 21
88.2495434314
  0
LINE
  5
341
100
AcDbEntity
  8
H_EXTERN_HANDLE
100
AcDbLine
 62
7
  6
CONTINUOUS
 10
133.765419628
 20
253.9995434314
 11
133.765419628
 21
248.2495434314
  0
LINE
  5
342
100
AcDbEntity
  8
H_EXTERN_HANDLE
100
AcDbLine
 62
7
  6
CONTINUOUS
 10
133.765419628
 20
302.4995434314
 11
133.765419628
 21
308.2495434314
  0
LINE
  5
343
100
AcDbEntity
  8
H_EXTERN_HANDLE
100
AcDbLine
 62
7
  6
CONTINUOUS
 10
135.265419628
 20
288.7495437096
 11
135.265419628
 21
286.7495434314
  0
LINE
  5
344
100
AcDbEntity
  8
H_EXTERN_HANDLE
100
AcDbLine
 62
7
  6
CONTINUOUS
 10
135.2654182539
 20
267.7495433496
 11
135.2654185156
 21
269.7495436277
  0
LINE
  5
345
100
AcDbEntity
  8
H_EXTERN_HANDLE
100
AcDbLine
 62
7
  6
CONTINUOUS
 10
136.765419628
 20
286.7495434314
 11
136.765419628
 21
269.7495434314
  0
LINE
  5
346
100
AcDbEntity
  8
H_EXTERN_HANDLE
100
AcDbLine
 62
7
  6
CONTINUOUS
 10
159.765419628
 20
238.2495437096
 11
159.765419628
 21
318.2495437096
  0
LINE
  5
347
100
AcDbEntity
  8
H_MOVING
100
AcDbLine
 62
1
  6
CONTINUOUS
 10
126.7991505765
 20
88.2495434314
 11
126.8735369483
 21
90.2407045099
  0
LINE
  5
348
100
AcDbEntity
  8
H_MOVING
100
AcDbLine
 62
1
  6
CONTINUOUS
 10
127.0976866849
 20
96.2407045099
 11
127.1720730567
 21
98.2318655883
  0
LINE
  5
349
100
AcDbEntity
  8
H_MOVING
100
AcDbLine
 62
1
  6
CONTINUOUS
 10
127.3962227933
 20
104.2318655883
 11
127.4706091651
 21
106.2230266667
  0
LINE
  5
34A
100
AcDbEntity
  8
H_MOVING
100
AcDbLine
 62
1
  6
CONTINUOUS
 10
127.6947589017
 20
112.2230266667
 11
127.7691452735
 21
114.2141877451
  0
LINE
  5
34B
100
AcDbEntity
  8
H_MOVING
100
AcDbLine
 62
1
  6
CONTINUOUS
 10
127.9932950101
 20
120.2141877451
 11
128.067681382
 21
122.2053488236
  0
LINE
  5
34C
100
AcDbEntity
  8
H_MOVING
100
AcDbLine
 62
1
  6
CONTINUOUS
 10
128.2918311185
 20
128.2053488236
 11
128.3662174904
 21
130.196509902
  0
LINE
  5
34D
100
AcDbEntity
  8
H_MOVING
100
AcDbLine
 62
1
  6
CONTINUOUS
 10
128.5903672269
 20
136.196509902
 11
128.6647535988
 21
138.1876709804
  0
LINE
  5
34E
100
AcDbEntity
  8
H_MOVING
100
AcDbLine
 62
1
  6
CONTINUOUS
 10
128.8889033353
 20
144.1876709804
 11
128.9632897072
 21
146.1788320588
  0
LINE
  5
34F
100
AcDbEntity
  8
H_MOVING
100
AcDbLine
 62
1
  6
CONTINUOUS
 10
129.1874394437
 20
152.1788320588
 11
129.2618258156
 21
154.1699931373
  0
LINE
  5
350
100
AcDbEntity
  8
H_MOVING
100
AcDbLine
 62
1
  6
CONTINUOUS
 10
129.4859755522
 20
160.1699931373
 11
129.560361924
 21
162.1611542157
  0
LINE
  5
351
100
AcDbEntity
  8
H_MOVING
100
AcDbLine
 62
1
  6
CONTINUOUS
 10
129.7845116606
 20
168.1611542157
 11
129.8588980324
 21
170.1523152941
  0
LINE
  5
352
100
AcDbEntity
  8
H_MOVING
100
AcDbLine
 62
1
  6
CONTINUOUS
 10
130.083047769
 20
176.1523152941
 11
130.1574341408
 21
178.1434763725
  0
LINE
  5
353
100
AcDbEntity
  8
H_MOVING
100
AcDbLine
 62
1
  6
CONTINUOUS
 10
130.3815838774
 20
184.1434763725
 11
130.4559702492
 21
186.134637451
  0
LINE
  5
354
100
AcDbEntity
  8
H_MOVING
100
AcDbLine
 62
1
  6
CONTINUOUS
 10
130.6801199858
 20
192.134637451
 11
130.7545063577
 21
194.1257985294
  0
LINE
  5
355
100
AcDbEntity
  8
H_MOVING
100
AcDbLine
 62
1
  6
CONTINUOUS
 10
130.9786560942
 20
200.1257985294
 11
131.0530424661
 21
202.1169596078
  0
LINE
  5
356
100
AcDbEntity
  8
H_MOVING
100
AcDbLine
 62
1
  6
CONTINUOUS
 10
131.2771922026
 20
208.1169596078
 11
131.3515785745
 21
210.1081206862
  0
LINE
  5
357
100
AcDbEntity
  8
INTER_PHASE_SCHIELDS
100
AcDbLine
 62
5
  6
CONTINUOUS
 10
302.065419628
 20
90.4495437095
 11
308.065419628
 21
84.4495437095
  0
LINE
  5
358
100
AcDbEntity
  8
H_EXTERN_HANDLE
100
AcDbLine
 62
7
  6
CONTINUOUS
 10
165.765419628
 20
238.2495437096
 11
159.765419628
 21
248.2495434314
  0
LINE
  5
359
100
AcDbEntity
  8
H_EXTERN_HANDLE
100
AcDbLine
 62
7
  6
CONTINUOUS
 10
165.765419628
 20
238.2495437096
 11
165.765419628
 21
318.2495437096
  0
LINE
  5
35A
100
AcDbEntity
  8
H_EXTERN_HANDLE
100
AcDbLine
 62
7
  6
CONTINUOUS
 10
174.765419628
 20
318.2495437096
 11
174.765419628
 21
238.2495437096
  0
LINE
  5
35B
100
AcDbEntity
  8
INTER_PHASE_SCHIELDS
100
AcDbLine
 62
5
  6
CONTINUOUS
 10
308.665419628
 20
158.4495437095
 11
306.665419628
 21
160.4495437095
  0
LINE
  5
35C
100
AcDbEntity
  8
BASIC_DEVICE
100
AcDbLine
 62
7
  6
CONTINUOUS
 10
220.765419628
 20
285.7495437095
 11
220.765419628
 21
270.7495437095
  0
LINE
  5
35D
100
AcDbEntity
  8
BASIC_DEVICE
100
AcDbLine
 62
1
  6
CONTINUOUS
 10
234.465419628
 20
276.6995437095
 11
234.465419628
 21
279.7995437095
  0
LINE
  5
35E
100
AcDbEntity
  8
0
100
AcDbLine
 62
1
  6
CONTINUOUS
 10
239.029757133
 20
771.5181876765
 11
239.029757133
 21
697.6431876765
  0
LINE
  5
35F
100
AcDbEntity
  8
BASIC_DEVICE
100
AcDbLine
 62
1
  6
CONTINUOUS
 10
242.565419628
 20
293.8495437095
 11
242.565419628
 21
280.7995437095
  0
LINE
  5
360
100
AcDbEntity
  8
BASIC_DEVICE
100
AcDbLine
 62
1
  6
CONTINUOUS
 10
242.565419628
 20
275.6995437095
 11
242.565419628
 21
262.6495437095
  0
LINE
  5
361
100
AcDbEntity
  8
BASIC_DEVICE
100
AcDbLine
 62
1
  6
CONTINUOUS
 10
243.665419628
 20
289.5002106199
 11
243.665419628
 21
266.6562203539
  0
LINE
  5
362
100
AcDbEntity
  8
BASIC_DEVICE
100
AcDbLine
 62
1
  6
CONTINUOUS
 10
244.765419628
 20
266.6562203539
 11
244.765419628
 21
289.5002106199
  0
LINE
  5
363
100
AcDbEntity
  8
BASIC_DEVICE
100
AcDbLine
 62
7
  6
CONTINUOUS
 10
246.765419628
 20
150.2495437095
 11
246.765419628
 21
350.2495437095
  0
LINE
  5
364
100
AcDbEntity
  8
TERMINAL_SCREEN
100
AcDbLine
 62
2
  6
CONTINUOUS
 10
248.765419628
 20
480.7495437095
 11
248.765419628
 21
435.6490386461
  0
LINE
  5
365
100
AcDbEntity
  8
TERMINAL_SCREEN
100
AcDbLine
 62
2
  6
CONTINUOUS
 10
250.765419628
 20
435.6490386461
 11
250.765419628
 21
480.7495437095
  0
LINE
  5
366
100
AcDbEntity
  8
0
100
AcDbLine
 62
7
  6
CONTINUOUS
 10
0.0
 20
0.0
 11
1362.6671693775
 21
0.0
  0
LINE
  5
367
100
AcDbEntity
  8
0
100
AcDbLine
 62
7
  6
CONTINUOUS
 10
0.0
 20
0.0
 11
1362.6671693775
 21
0.0
  0
LINE
  5
368
100
AcDbEntity
  8
BASIC_DEVICE
100
AcDbLine
 62
1
  6
CONTINUOUS
 10
235.465419628
 20
275.6995437095
 11
234.465419628
 21
276.6995437095
  0
LINE
  5
369
100
AcDbEntity
  8
0
100
AcDbLine
 62
1
  6
CONTINUOUS
 10
290.029757133
 20
771.5181876765
 11
290.029757133
 21
697.6431876765
  0
LINE
  5
36A
100
AcDbEntity
  8
TERMINAL_SCREEN
100
AcDbLine
 62
2
  6
CONTINUOUS
 10
298.765419628
 20
380.6784758977
 11
298.765419628
 21
327.7495437095
  0
LINE
  5
36B
100
AcDbEntity
  8
BASIC_DEVICE
100
AcDbLine
 62
7
  6
CONTINUOUS
 10
300.765419628
 20
350.2495437095
 11
300.765419628
 21
150.2495437095
  0
LINE
  5
36C
100
AcDbEntity
  8
TERMINAL_SCREEN
100
AcDbLine
 62
2
  6
CONTINUOUS
 10
300.765419628
 20
327.7495437095
 11
300.765419628
 21
380.6784758977
  0
LINE
  5
36D
100
AcDbEntity
  8
INTER_PHASE_SCHIELDS
100
AcDbLine
 62
5
  6
CONTINUOUS
 10
302.065419628
 20
153.4495437095
 11
302.065419628
 21
90.4495437095
  0
LINE
  5
36E
100
AcDbEntity
  8
INTER_PHASE_SCHIELDS
100
AcDbLine
 62
5
  6
CONTINUOUS
 10
302.065419628
 20
347.0495437095
 11
302.065419628
 21
410.0495437095
  0
LINE
  5
36F
100
AcDbEntity
  8
INTER_PHASE_SCHIELDS
100
AcDbLine
 62
5
  6
CONTINUOUS
 10
304.065419628
 20
160.4495437095
 11
304.065419628
 21
153.4495437095
  0
LINE
  5
370
100
AcDbEntity
  8
INTER_PHASE_SCHIELDS
100
AcDbLine
 62
5
  6
CONTINUOUS
 10
304.065419628
 20
340.0495437095
 11
304.065419628
 21
347.0495437095
  0
LINE
  5
371
100
AcDbEntity
  8
INTER_PHASE_SCHIELDS
100
AcDbLine
 62
5
  6
CONTINUOUS
 10
307.165419628
 20
356.5495437095
 11
307.165419628
 21
343.8495437095
  0
LINE
  5
372
100
AcDbEntity
  8
INTER_PHASE_SCHIELDS
100
AcDbLine
 62
5
  6
CONTINUOUS
 10
307.165419628
 20
143.9495437095
 11
307.165419628
 21
156.6495437095
  0
LINE
  5
373
100
AcDbEntity
  8
INTER_PHASE_SCHIELDS
100
AcDbLine
 62
5
  6
CONTINUOUS
 10
308.065419628
 20
84.4495437095
 11
378.765419628
 21
84.4495437095
  0
LINE
  5
374
100
AcDbEntity
  8
INTER_PHASE_SCHIELDS
100
AcDbLine
 62
5
  6
CONTINUOUS
 10
627.4813306886
 20
84.4495437095
 11
629.4813306886
 21
84.4495437095
  0
LINE
  5
375
100
AcDbEntity
  8
INTER_PHASE_SCHIELDS
100
AcDbLine
 62
5
  6
CONTINUOUS
 10
747.4813306886
 20
84.4495437095
 11
749.4813306886
 21
84.4495437095
  0
LINE
  5
376
100
AcDbEntity
  8
INTER_PHASE_SCHIELDS
100
AcDbLine
 62
5
  6
CONTINUOUS
 10
867.4813306886
 20
84.4495437095
 11
869.4813306886
 21
84.4495437095
  0
LINE
  5
377
100
AcDbEntity
  8
BASIC_DEVICE
100
AcDbLine
 62
7
  6
CONTINUOUS
 10
339.765419628
 20
85.2495437095
 11
346.765419628
 21
85.2495437095
  0
LINE
  5
378
100
AcDbEntity
  8
BASIC_DEVICE
100
AcDbLine
 62
7
  6
CONTINUOUS
 10
541.9813306843
 20
85.2495437095
 11
594.9813306843
 21
85.2495437095
  0
LINE
  5
379
100
AcDbEntity
  8
BASIC_DEVICE
100
AcDbLine
 62
7
  6
CONTINUOUS
 10
661.9813306843
 20
85.2495437095
 11
714.9813306843
 21
85.2495437095
  0
LINE
  5
37A
100
AcDbEntity
  8
BASIC_DEVICE
100
AcDbLine
 62
7
  6
CONTINUOUS
 10
781.9813306843
 20
85.2495437095
 11
834.9813306843
 21
85.2495437095
  0
LINE
  5
37B
100
AcDbEntity
  8
BASIC_DEVICE
100
AcDbLine
 62
7
  6
CONTINUOUS
 10
901.9813306843
 20
85.2495437095
 11
954.9813306843
 21
85.2495437095
  0
LINE
  5
37C
100
AcDbEntity
  8
H_MOVING
100
AcDbLine
 62
1
  6
CONTINUOUS
 10
78.765419628
 20
88.2495434314
 11
126.7991505765
 21
88.2495434314
  0
LINE
  5
37D
100
AcDbEntity
  8
H_MOVING
100
AcDbLine
 62
1
  6
CONTINUOUS
 10
764.4897551121
 20
89.2495437095
 11
745.4897551121
 21
89.2495437095
  0
LINE
  5
37E
100
AcDbEntity
  8
H_MOVING
100
AcDbLine
 62
1
  6
CONTINUOUS
 10
126.8735369483
 20
90.2407045099
 11
125.101205686
 21
90.2407045099
  0
LINE
  5
37F
100
AcDbEntity
  8
BASIC_DEVICE
100
AcDbLine
 62
7
  6
CONTINUOUS
 10
346.765419628
 20
90.2495437095
 11
339.765419628
 21
90.2495437095
  0
LINE
  5
380
100
AcDbEntity
  8
INTER_PHASE_SCHIELDS
100
AcDbLine
 62
5
  6
CONTINUOUS
 10
870.4813306886
 20
90.4495437095
 11
869.4813306886
 21
90.4495437095
  0
LINE
  5
381
100
AcDbEntity
  8
INTER_PHASE_SCHIELDS
100
AcDbLine
 62
5
  6
CONTINUOUS
 10
750.4813306886
 20
90.4495437095
 11
749.4813306886
 21
90.4495437095
  0
LINE
  5
382
100
AcDbEntity
  8
INTER_PHASE_SCHIELDS
100
AcDbLine
 62
5
  6
CONTINUOUS
 10
630.4813306886
 20
90.4495437095
 11
629.4813306886
 21
90.4495437095
  0
LINE
  5
383
100
AcDbEntity
  8
INTER_PHASE_SCHIELDS
100
AcDbLine
 62
5
  6
CONTINUOUS
 10
315.465419628
 20
90.4495437095
 11
371.265419628
 21
90.4495437095
  0
LINE
  5
384
100
AcDbEntity
  8
INTER_PHASE_SCHIELDS
100
AcDbLine
 62
5
  6
CONTINUOUS
 10
626.4813306886
 20
90.4495437095
 11
627.4813306886
 21
90.4495437095
  0
LINE
  5
385
100
AcDbEntity
  8
INTER_PHASE_SCHIELDS
100
AcDbLine
 62
5
  6
CONTINUOUS
 10
746.4813306886
 20
90.4495437095
 11
747.4813306886
 21
90.4495437095
  0
LINE
  5
386
100
AcDbEntity
  8
INTER_PHASE_SCHIELDS
100
AcDbLine
 62
5
  6
CONTINUOUS
 10
866.4813306886
 20
90.4495437095
 11
867.4813306886
 21
90.4495437095
  0
LINE
  5
387
100
AcDbEntity
  8
INTER_PHASE_SCHIELDS
100
AcDbLine
 62
5
  6
CONTINUOUS
 10
308.665419628
 20
343.8495437095
 11
308.665419628
 21
342.0495437095
  0
LINE
  5
388
100
AcDbEntity
  8
INTER_PHASE_SCHIELDS
100
AcDbLine
 62
5
  6
CONTINUOUS
 10
308.665419628
 20
156.6495437095
 11
308.665419628
 21
158.4495437095
  0
LINE
  5
389
100
AcDbEntity
  8
INTER_PHASE_SCHIELDS
100
AcDbLine
 62
5
  6
CONTINUOUS
 10
311.665419628
 20
153.4495437095
 11
311.665419628
 21
143.9495437095
  0
LINE
  5
38A
100
AcDbEntity
  8
INTER_PHASE_SCHIELDS
100
AcDbLine
 62
5
  6
CONTINUOUS
 10
311.665419628
 20
347.0495437095
 11
311.665419628
 21
356.5495437095
  0
LINE
  5
38B
100
AcDbEntity
  8
INTER_PHASE_SCHIELDS
100
AcDbLine
 62
5
  6
CONTINUOUS
 10
312.465419628
 20
146.7495437095
 11
312.465419628
 21
93.4495437095
  0
LINE
  5
38C
100
AcDbEntity
  8
INTER_PHASE_SCHIELDS
100
AcDbLine
 62
5
  6
CONTINUOUS
 10
312.465419628
 20
353.7495437095
 11
312.465419628
 21
407.0495437095
  0
LINE
  5
38D
100
AcDbEntity
  8
INTER_PHASE_SCHIELDS
100
AcDbLine
 62
5
  6
CONTINUOUS
 10
314.465419628
 20
146.7495437095
 11
314.465419628
 21
93.4495437095
  0
LINE
  5
38E
100
AcDbEntity
  8
INTER_PHASE_SCHIELDS
100
AcDbLine
 62
5
  6
CONTINUOUS
 10
314.465419628
 20
353.7495437095
 11
314.465419628
 21
407.0495437095
  0
LINE
  5
38F
100
AcDbEntity
  8
0
100
AcDbLine
 62
1
  6
CONTINUOUS
 10
339.2015847833
 20
771.5181876765
 11
339.2015847833
 21
697.6431876765
  0
LINE
  5
390
100
AcDbEntity
  8
BASIC_DEVICE
100
AcDbLine
 62
7
  6
CONTINUOUS
 10
339.765419628
 20
415.2495437095
 11
339.765419628
 21
150.2495437095
  0
LINE
  5
391
100
AcDbEntity
  8
BASIC_DEVICE
100
AcDbLine
 62
7
  6
CONTINUOUS
 10
339.765419628
 20
150.248457772
 11
339.765419628
 21
85.2495437095
  0
LINE
  5
392
100
AcDbEntity
  8
BASIC_DEVICE
100
AcDbLine
 62
7
  6
CONTINUOUS
 10
346.765419628
 20
85.2495437095
 11
346.765419628
 21
150.248457772
  0
LINE
  5
393
100
AcDbEntity
  8
BASIC_DEVICE
100
AcDbLine
 62
7
  6
CONTINUOUS
 10
346.765419628
 20
350.2486687095
 11
346.765419628
 21
415.2495437095
  0
LINE
  5
394
100
AcDbEntity
  8
INTER_PHASE_SCHIELDS
100
AcDbLine
 62
5
  6
CONTINUOUS
 10
315.465419628
 20
92.4495437095
 11
371.265419628
 21
92.4495437095
  0
LINE
  5
395
100
AcDbEntity
  8
H_MOVING
100
AcDbLine
 62
1
  6
CONTINUOUS
 10
125.101205686
 20
96.2407045099
 11
127.0976866849
 21
96.2407045099
  0
LINE
  5
396
100
AcDbEntity
  8
H_MOVING
100
AcDbLine
 62
1
  6
CONTINUOUS
 10
127.1720730567
 20
98.2318655883
 11
125.3997417944
 21
98.2318655883
  0
LINE
  5
397
100
AcDbEntity
  8
H_MOVING
100
AcDbLine
 62
1
  6
CONTINUOUS
 10
125.3997417944
 20
104.2318655883
 11
127.3962227933
 21
104.2318655883
  0
LINE
  5
398
100
AcDbEntity
  8
AXIS
100
AcDbLine
 62
4
  6
CONTINUOUS
 10
355.765419628
 20
105.2495437095
 11
330.765419628
 21
105.2495437095
  0
LINE
  5
399
100
AcDbEntity
  8
H_MOVING
100
AcDbLine
 62
1
  6
CONTINUOUS
 10
127.4706091651
 20
106.2230266667
 11
125.6982779028
 21
106.2230266667
  0
LINE
  5
39A
100
AcDbEntity
  8
H_MOVING
100
AcDbLine
 62
1
  6
CONTINUOUS
 10
125.6982779028
 20
112.2230266667
 11
127.6947589017
 21
112.2230266667
  0
LINE
  5
39B
100
AcDbEntity
  8
H_MOVING
100
AcDbLine
 62
1
  6
CONTINUOUS
 10
127.7691452735
 20
114.2141877451
 11
125.9968140112
 21
114.2141877451
  0
LINE
  5
39C
100
AcDbEntity
  8
H_MOVING
100
AcDbLine
 62
1
  6
CONTINUOUS
 10
125.9968140112
 20
120.2141877451
 11
127.9932950101
 21
120.2141877451
  0
LINE
  5
39D
100
AcDbEntity
  8
H_MOVING
100
AcDbLine
 62
1
  6
CONTINUOUS
 10
128.067681382
 20
122.2053488236
 11
126.2953501196
 21
122.2053488236
  0
LINE
  5
39E
100
AcDbEntity
  8
AXIS
100
AcDbLine
 62
4
  6
CONTINUOUS
 10
355.765419628
 20
125.2495437095
 11
330.765419628
 21
125.2495437095
  0
LINE
  5
39F
100
AcDbEntity
  8
H_MOVING
100
AcDbLine
 62
1
  6
CONTINUOUS
 10
126.2953501196
 20
128.2053488236
 11
128.2918311185
 21
128.2053488236
  0
LINE
  5
3A0
100
AcDbEntity
  8
H_MOVING
100
AcDbLine
 62
1
  6
CONTINUOUS
 10
128.3662174904
 20
130.196509902
 11
126.593886228
 21
130.196509902
  0
LINE
  5
3A1
100
AcDbEntity
  8
INTER_PHASE_SCHIELDS
100
AcDbLine
 62
5
  6
CONTINUOUS
 10
384.765419628
 20
135.2495437095
 11
382.765419628
 21
135.2495437095
  0
LINE
  5
3A2
100
AcDbEntity
  8
H_MOVING
100
AcDbLine
 62
1
  6
CONTINUOUS
 10
126.593886228
 20
136.196509902
 11
128.5903672269
 21
136.196509902
  0
LINE
  5
3A3
100
AcDbEntity
  8
H_MOVING
100
AcDbLine
 62
1
  6
CONTINUOUS
 10
128.6647535988
 20
138.1876709804
 11
126.8924223365
 21
138.1876709804
  0
LINE
  5
3A4
100
AcDbEntity
  8
BASIC_DEVICE
100
AcDbLine
 62
7
  6
CONTINUOUS
 10
536.9813306843
 20
90.2495437095
 11
541.9813306843
 21
85.2495437095
  0
LINE
  5
3A5
100
AcDbEntity
  8
TERMINAL_SCREEN
100
AcDbLine
 62
2
  6
CONTINUOUS
 10
250.8156721597
 20
430.6992911778
 11
297.300953534
 21
384.2140098036
  0
LINE
  5
3A6
100
AcDbEntity
  8
TERMINAL_SCREEN
100
AcDbLine
 62
2
  6
CONTINUOUS
 10
298.7151670963
 20
385.628223366
 11
252.2298857221
 21
432.1135047402
  0
LINE
  5
3A7
100
AcDbEntity
  8
0
100
AcDbLine
 62
7
  6
CONTINUOUS
 10
358.8515847833
 20
771.5181876765
 11
358.8515847833
 21
697.6431876765
  0
LINE
  5
3A8
100
AcDbEntity
  8
BASIC_DEVICE
100
AcDbLine
 62
7
  6
CONTINUOUS
 10
361.765419628
 20
172.7495437095
 11
361.765419628
 21
150.2495437095
  0
LINE
  5
3A9
100
AcDbEntity
  8
BASIC_DEVICE
100
AcDbLine
 62
7
  6
CONTINUOUS
 10
361.765419628
 20
327.7495437095
 11
361.765419628
 21
350.2495437095
  0
LINE
  5
3AA
100
AcDbEntity
  8
INTER_PHASE_SCHIELDS
100
AcDbLine
 62
5
  6
CONTINUOUS
 10
372.265419628
 20
407.0495437095
 11
372.265419628
 21
353.7495437095
  0
LINE
  5
3AB
100
AcDbEntity
  8
INTER_PHASE_SCHIELDS
100
AcDbLine
 62
5
  6
CONTINUOUS
 10
372.265419628
 20
93.4495437095
 11
372.265419628
 21
146.7495437095
  0
LINE
  5
3AC
100
AcDbEntity
  8
INTER_PHASE_SCHIELDS
100
AcDbLine
 62
5
  6
CONTINUOUS
 10
374.265419628
 20
407.0495437095
 11
374.265419628
 21
353.7495437095
  0
LINE
  5
3AD
100
AcDbEntity
  8
INTER_PHASE_SCHIELDS
100
AcDbLine
 62
5
  6
CONTINUOUS
 10
374.265419628
 20
93.4495437095
 11
374.265419628
 21
146.7495437095
  0
LINE
  5
3AE
100
AcDbEntity
  8
INTER_PHASE_SCHIELDS
100
AcDbLine
 62
5
  6
CONTINUOUS
 10
375.165419628
 20
356.5495437095
 11
375.165419628
 21
347.0495437095
  0
LINE
  5
3AF
100
AcDbEntity
  8
INTER_PHASE_SCHIELDS
100
AcDbLine
 62
5
  6
CONTINUOUS
 10
375.165419628
 20
143.9495437095
 11
375.165419628
 21
153.4495437095
  0
LINE
  5
3B0
100
AcDbEntity
  8
INTER_PHASE_SCHIELDS
100
AcDbLine
 62
5
  6
CONTINUOUS
 10
378.165419628
 20
158.4495437095
 11
378.165419628
 21
156.6495437095
  0
LINE
  5
3B1
100
AcDbEntity
  8
INTER_PHASE_SCHIELDS
100
AcDbLine
 62
5
  6
CONTINUOUS
 10
378.165419628
 20
342.0495437095
 11
378.165419628
 21
343.8495437095
  0
LINE
  5
3B2
100
AcDbEntity
  8
INTER_PHASE_SCHIELDS
100
AcDbLine
 62
5
  6
CONTINUOUS
 10
379.665419628
 20
156.6495437095
 11
379.665419628
 21
143.9495437095
  0
LINE
  5
3B3
100
AcDbEntity
  8
INTER_PHASE_SCHIELDS
100
AcDbLine
 62
5
  6
CONTINUOUS
 10
379.665419628
 20
343.8495437095
 11
379.665419628
 21
356.5495437095
  0
LINE
  5
3B4
100
AcDbEntity
  8
INTER_PHASE_SCHIELDS
100
AcDbLine
 62
5
  6
CONTINUOUS
 10
382.765419628
 20
365.2495437095
 11
382.765419628
 21
350.2495437095
  0
LINE
  5
3B5
100
AcDbEntity
  8
INTER_PHASE_SCHIELDS
100
AcDbLine
 62
5
  6
CONTINUOUS
 10
382.765419628
 20
347.0495437095
 11
382.765419628
 21
340.0495437095
  0
LINE
  5
3B6
100
AcDbEntity
  8
INTER_PHASE_SCHIELDS
100
AcDbLine
 62
5
  6
CONTINUOUS
 10
382.765419628
 20
135.2495437095
 11
382.765419628
 21
150.2495437095
  0
LINE
  5
3B7
100
AcDbEntity
  8
INTER_PHASE_SCHIELDS
100
AcDbLine
 62
5
  6
CONTINUOUS
 10
382.765419628
 20
153.4495437095
 11
382.765419628
 21
160.4495437095
  0
LINE
  5
3B8
100
AcDbEntity
  8
INTER_PHASE_SCHIELDS
100
AcDbLine
 62
5
  6
CONTINUOUS
 10
384.765419628
 20
410.0495437095
 11
384.765419628
 21
347.0495437095
  0
LINE
  5
3B9
100
AcDbEntity
  8
BASIC_DEVICE
100
AcDbLine
 62
7
  6
CONTINUOUS
 10
384.765419628
 20
325.7495437095
 11
384.765419628
 21
174.7495437095
  0
LINE
  5
3BA
100
AcDbEntity
  8
INTER_PHASE_SCHIELDS
100
AcDbLine
 62
5
  6
CONTINUOUS
 10
384.765419628
 20
90.4495437095
 11
384.765419628
 21
153.4495437095
  0
LINE
  5
3BB
100
AcDbEntity
  8
BASIC_DEVICE
100
AcDbLine
 62
7
  6
CONTINUOUS
 10
386.765419628
 20
350.2495437095
 11
386.765419628
 21
325.7495437095
  0
LINE
  5
3BC
100
AcDbEntity
  8
BASIC_DEVICE
100
AcDbLine
 62
7
  6
CONTINUOUS
 10
386.765419628
 20
174.7495437095
 11
386.765419628
 21
150.2495437095
  0
LINE
  5
3BD
100
AcDbEntity
  8
H_MOVING
100
AcDbLine
 62
1
  6
CONTINUOUS
 10
126.8924223365
 20
144.1876709804
 11
128.8889033353
 21
144.1876709804
  0
LINE
  5
3BE
100
AcDbEntity
  8
H_MOVING
100
AcDbLine
 62
1
  6
CONTINUOUS
 10
128.9632897072
 20
146.1788320588
 11
127.1909584449
 21
146.1788320588
  0
LINE
  5
3BF
100
AcDbEntity
  8
INTER_PHASE_SCHIELDS
100
AcDbLine
 62
5
  6
CONTINUOUS
 10
371.265419628
 20
147.7495437095
 11
315.465419628
 21
147.7495437095
  0
LINE
  5
3C0
100
AcDbEntity
  8
INTER_PHASE_SCHIELDS
100
AcDbLine
 62
5
  6
CONTINUOUS
 10
867.4813306886
 20
149.7495437095
 11
866.4813306886
 21
149.7495437095
  0
LINE
  5
3C1
100
AcDbEntity
  8
INTER_PHASE_SCHIELDS
100
AcDbLine
 62
5
  6
CONTINUOUS
 10
747.4813306886
 20
149.7495437095
 11
746.4813306886
 21
149.7495437095
  0
LINE
  5
3C2
100
AcDbEntity
  8
INTER_PHASE_SCHIELDS
100
AcDbLine
 62
5
  6
CONTINUOUS
 10
627.4813306886
 20
149.7495437095
 11
626.4813306886
 21
149.7495437095
  0
LINE
  5
3C3
100
AcDbEntity
  8
INTER_PHASE_SCHIELDS
100
AcDbLine
 62
5
  6
CONTINUOUS
 10
371.265419628
 20
149.7495437095
 11
315.465419628
 21
149.7495437095
  0
LINE
  5
3C4
100
AcDbEntity
  8
INTER_PHASE_SCHIELDS
100
AcDbLine
 62
5
  6
CONTINUOUS
 10
629.4813306886
 20
149.7495437095
 11
630.4813306886
 21
149.7495437095
  0
LINE
  5
3C5
100
AcDbEntity
  8
INTER_PHASE_SCHIELDS
100
AcDbLine
 62
5
  6
CONTINUOUS
 10
749.4813306886
 20
149.7495437095
 11
750.4813306886
 21
149.7495437095
  0
LINE
  5
3C6
100
AcDbEntity
  8
INTER_PHASE_SCHIELDS
100
AcDbLine
 62
5
  6
CONTINUOUS
 10
869.4813306886
 20
149.7495437095
 11
870.4813306886
 21
149.7495437095
  0
LINE
  5
3C7
100
AcDbEntity
  8
INTER_PHASE_SCHIELDS
100
AcDbLine
 62
5
  6
CONTINUOUS
 10
871.9813306886
 20
150.2495437095
 11
869.4813306886
 21
150.2495437095
  0
LINE
  5
3C8
100
AcDbEntity
  8
INTER_PHASE_SCHIELDS
100
AcDbLine
 62
5
  6
CONTINUOUS
 10
867.4813306886
 20
150.2495437095
 11
864.9813306886
 21
150.2495437095
  0
LINE
  5
3C9
100
AcDbEntity
  8
INTER_PHASE_SCHIELDS
100
AcDbLine
 62
5
  6
CONTINUOUS
 10
751.9813306886
 20
150.2495437095
 11
749.4813306886
 21
150.2495437095
  0
LINE
  5
3CA
100
AcDbEntity
  8
INTER_PHASE_SCHIELDS
100
AcDbLine
 62
5
  6
CONTINUOUS
 10
747.4813306886
 20
150.2495437095
 11
744.9813306886
 21
150.2495437095
  0
LINE
  5
3CB
100
AcDbEntity
  8
INTER_PHASE_SCHIELDS
100
AcDbLine
 62
5
  6
CONTINUOUS
 10
631.9813306886
 20
150.2495437095
 11
629.4813306886
 21
150.2495437095
  0
LINE
  5
3CC
100
AcDbEntity
  8
INTER_PHASE_SCHIELDS
100
AcDbLine
 62
5
  6
CONTINUOUS
 10
627.4813306886
 20
150.2495437095
 11
624.9813306886
 21
150.2495437095
  0
LINE
  5
3CD
100
AcDbEntity
  8
BASIC_DEVICE
100
AcDbLine
 62
7
  6
CONTINUOUS
 10
386.765419628
 20
150.2495437095
 11
246.765419628
 21
150.2495437095
  0
LINE
  5
3CE
100
AcDbEntity
  8
INTER_PHASE_SCHIELDS
100
AcDbLine
 62
5
  6
CONTINUOUS
 10
382.765419628
 20
150.2495437095
 11
384.765419628
 21
150.2495437095
  0
LINE
  5
3CF
100
AcDbEntity
  8
BASIC_DEVICE
100
AcDbLine
 62
7
  6
CONTINUOUS
 10
689.9897551121
 20
150.2495437096
 11
1000.9813306886
 21
150.2495437095
  0
LINE
  5
3D0
100
AcDbEntity
  8
BASIC_DEVICE
100
AcDbLine
 62
7
  6
CONTINUOUS
 10
508.9813306843
 20
150.2502443144
 11
814.9813306886
 21
150.2495437095
  0
LINE
  5
3D1
100
AcDbEntity
  8
H_MOVING
100
AcDbLine
 62
1
  6
CONTINUOUS
 10
127.1909584449
 20
152.1788320588
 11
129.1874394437
 21
152.1788320588
  0
LINE
  5
3D2
100
AcDbEntity
  8
INTER_PHASE_SCHIELDS
100
AcDbLine
 62
5
  6
CONTINUOUS
 10
384.765419628
 20
153.4495437095
 11
382.765419628
 21
153.4495437095
  0
LINE
  5
3D3
100
AcDbEntity
  8
INTER_PHASE_SCHIELDS
100
AcDbLine
 62
5
  6
CONTINUOUS
 10
375.165419628
 20
153.4495437095
 11
311.665419628
 21
153.4495437095
  0
LINE
  5
3D4
100
AcDbEntity
  8
INTER_PHASE_SCHIELDS
100
AcDbLine
 62
5
  6
CONTINUOUS
 10
304.065419628
 20
153.4495437095
 11
302.065419628
 21
153.4495437095
  0
LINE
  5
3D5
100
AcDbEntity
  8
H_MOVING
100
AcDbLine
 62
1
  6
CONTINUOUS
 10
129.2618258156
 20
154.1699931373
 11
127.4894945533
 21
154.1699931373
  0
LINE
  5
3D6
100
AcDbEntity
  8
BASIC_DEVICE
100
AcDbLine
 62
7
  6
CONTINUOUS
 10
694.9897551121
 20
155.2495437096
 11
814.9897551121
 21
155.2495437096
  0
LINE
  5
3D7
100
AcDbEntity
  8
INTER_PHASE_SCHIELDS
100
AcDbLine
 62
5
  6
CONTINUOUS
 10
307.165419628
 20
156.6495437095
 11
308.665419628
 21
156.6495437095
  0
LINE
  5
3D8
100
AcDbEntity
  8
INTER_PHASE_SCHIELDS
100
AcDbLine
 62
5
  6
CONTINUOUS
 10
378.165419628
 20
156.6495437095
 11
379.665419628
 21
156.6495437095
  0
LINE
  5
3D9
100
AcDbEntity
  8
BASIC_DEVICE
100
AcDbLine
 62
7
  6
CONTINUOUS
 10
866.0208440253
 20
157.4995437095
 11
859.9586661988
 21
157.4995437095
  0
LINE
  5
3DA
100
AcDbEntity
  8
BASIC_DEVICE
100
AcDbLine
 62
7
  6
CONTINUOUS
 10
641.9586661988
 20
157.4995437095
 11
648.0208440253
 21
157.4995437095
  0
LINE
  5
3DB
100
AcDbEntity
  8
H_MOVING
100
AcDbLine
 62
1
  6
CONTINUOUS
 10
127.4894945533
 20
160.1699931373
 11
129.4859755522
 21
160.1699931373
  0
LINE
  5
3DC
100
AcDbEntity
  8
INTER_PHASE_SCHIELDS
100
AcDbLine
 62
5
  6
CONTINUOUS
 10
869.4813306886
 20
160.4495437095
 11
867.4813306886
 21
160.4495437095
  0
LINE
  5
3DD
100
AcDbEntity
  8
INTER_PHASE_SCHIELDS
100
AcDbLine
 62
5
  6
CONTINUOUS
 10
749.4813306886
 20
160.4495437095
 11
747.4813306886
 21
160.4495437095
  0
LINE
  5
3DE
100
AcDbEntity
  8
INTER_PHASE_SCHIELDS
100
AcDbLine
 62
5
  6
CONTINUOUS
 10
629.4813306886
 20
160.4495437095
 11
627.4813306886
 21
160.4495437095
  0
LINE
  5
3DF
100
AcDbEntity
  8
INTER_PHASE_SCHIELDS
100
AcDbLine
 62
5
  6
CONTINUOUS
 10
382.765419628
 20
160.4495437095
 11
380.165419628
 21
160.4495437095
  0
LINE
  5
3E0
100
AcDbEntity
  8
INTER_PHASE_SCHIELDS
100
AcDbLine
 62
5
  6
CONTINUOUS
 10
306.665419628
 20
160.4495437095
 11
304.065419628
 21
160.4495437095
  0
LINE
  5
3E1
100
AcDbEntity
  8
H_MOVING
100
AcDbLine
 62
1
  6
CONTINUOUS
 10
129.560361924
 20
162.1611542157
 11
127.7880306617
 21
162.1611542157
  0
LINE
  5
3E2
100
AcDbEntity
  8
AXIS
100
AcDbLine
 62
4
  6
CONTINUOUS
 10
980.9813306886
 20
162.7495437095
 11
995.9813306886
 21
162.7495437095
  0
LINE
  5
3E3
100
AcDbEntity
  8
AXIS
100
AcDbLine
 62
4
  6
CONTINUOUS
 10
513.9813306843
 20
162.7502443144
 11
528.9813306843
 21
162.7502443144
  0
LINE
  5
3E4
100
AcDbEntity
  8
BASIC_DEVICE
100
AcDbLine
 62
7
  6
CONTINUOUS
 10
648.0208440253
 20
167.9995437095
 11
641.9586661988
 21
167.9995437095
  0
LINE
  5
3E5
100
AcDbEntity
  8
BASIC_DEVICE
100
AcDbLine
 62
7
  6
CONTINUOUS
 10
859.9586661988
 20
167.9995437095
 11
866.0208440253
 21
167.9995437095
  0
LINE
  5
3E6
100
AcDbEntity
  8
H_MOVING
100
AcDbLine
 62
1
  6
CONTINUOUS
 10
127.7880306617
 20
168.1611542157
 11
129.7845116606
 21
168.1611542157
  0
LINE
  5
3E7
100
AcDbEntity
  8
H_MOVING
100
AcDbLine
 62
1
  6
CONTINUOUS
 10
129.8588980324
 20
170.1523152941
 11
128.0865667701
 21
170.1523152941
  0
LINE
  5
3E8
100
AcDbEntity
  8
BASIC_DEVICE
100
AcDbLine
 62
7
  6
CONTINUOUS
 10
300.765419628
 20
172.7495437095
 11
361.765419628
 21
172.7495437095
  0
LINE
  5
3E9
100
AcDbEntity
  8
BASIC_DEVICE
100
AcDbLine
 62
7
  6
CONTINUOUS
 10
988.4813306886
 20
172.7495437095
 11
1000.9813306886
 21
172.7495437095
  0
LINE
  5
3EA
100
AcDbEntity
  8
BASIC_DEVICE
100
AcDbLine
 62
7
  6
CONTINUOUS
 10
521.4813306843
 20
172.7502443144
 11
508.9813306843
 21
172.7502443144
  0
LINE
  5
3EB
100
AcDbEntity
  8
BASIC_DEVICE
100
AcDbLine
 62
7
  6
CONTINUOUS
 10
384.765419628
 20
174.7495437095
 11
386.765419628
 21
174.7495437095
  0
LINE
  5
3EC
100
AcDbEntity
  8
H_MOVING
100
AcDbLine
 62
1
  6
CONTINUOUS
 10
128.0865667701
 20
176.1523152941
 11
130.083047769
 21
176.1523152941
  0
LINE
  5
3ED
100
AcDbEntity
  8
BASIC_DEVICE
100
AcDbLine
 62
7
  6
CONTINUOUS
 10
991.5124196018
 20
177.4995437095
 11
985.4502417753
 21
177.4995437095
  0
LINE
  5
3EE
100
AcDbEntity
  8
BASIC_DEVICE
100
AcDbLine
 62
7
  6
CONTINUOUS
 10
518.450241771
 20
177.5002443144
 11
524.5124195975
 21
177.5002443144
  0
LINE
  5
3EF
100
AcDbEntity
  8
H_MOVING
100
AcDbLine
 62
1
  6
CONTINUOUS
 10
130.1574341408
 20
178.1434763725
 11
128.3851028785
 21
178.1434763725
  0
LINE
  5
3F0
100
AcDbEntity
  8
H_MOVING
100
AcDbLine
 62
1
  6
CONTINUOUS
 10
128.3851028785
 20
184.1434763725
 11
130.3815838774
 21
184.1434763725
  0
LINE
  5
3F1
100
AcDbEntity
  8
H_MOVING
100
AcDbLine
 62
1
  6
CONTINUOUS
 10
130.4559702492
 20
186.134637451
 11
128.6836389869
 21
186.134637451
  0
LINE
  5
3F2
100
AcDbEntity
  8
AM_12
100
AcDbLine
 62
4
  6
CONTINUOUS
 10
625.7864584471
 20
89.0588935965
 11
629.2864584471
 21
85.5588935965
  0
LINE
  5
3F3
100
AcDbEntity
  8
INTER_PHASE_SCHIELDS
100
AcDbLine
 62
5
  6
CONTINUOUS
 10
380.165419628
 20
340.0495437095
 11
378.165419628
 21
342.0495437095
  0
LINE
  5
3F4
100
AcDbEntity
  8
BASIC_DEVICE
100
AcDbLine
 62
7
  6
CONTINUOUS
 10
656.9813306843
 20
90.2495437095
 11
661.9813306843
 21
85.2495437095
  0
LINE
  5
3F5
100
AcDbEntity
  8
BASIC_DEVICE
100
AcDbLine
 62
7
  6
CONTINUOUS
 10
515.4191528578
 20
182.7502443144
 11
518.450241771
 21
177.5002443144
  0
LINE
  5
3F6
100
AcDbEntity
  8
H_EXTERN_HANDLE
100
AcDbLine
 62
7
  6
CONTINUOUS
 10
768.1821535637
 20
895.7343479559
 11
756.4897551121
 21
885.7343479559
  0
LINE
  5
3F7
100
AcDbEntity
  8
BASIC_DEVICE
100
AcDbLine
 62
7
  6
CONTINUOUS
 10
985.4502417753
 20
187.9995437095
 11
991.5124196018
 21
187.9995437095
  0
LINE
  5
3F8
100
AcDbEntity
  8
BASIC_DEVICE
100
AcDbLine
 62
7
  6
CONTINUOUS
 10
524.5124195975
 20
188.0002443144
 11
518.450241771
 21
188.0002443144
  0
LINE
  5
3F9
100
AcDbEntity
  8
H_MOVING
100
AcDbLine
 62
1
  6
CONTINUOUS
 10
128.6836389869
 20
192.134637451
 11
130.6801199858
 21
192.134637451
  0
LINE
  5
3FA
100
AcDbEntity
  8
H_MOVING
100
AcDbLine
 62
1
  6
CONTINUOUS
 10
130.7545063577
 20
194.1257985294
 11
128.9821750953
 21
194.1257985294
  0
LINE
  5
3FB
100
AcDbEntity
  8
H_MOVING
100
AcDbLine
 62
1
  6
CONTINUOUS
 10
128.9821750953
 20
200.1257985294
 11
130.9786560942
 21
200.1257985294
  0
LINE
  5
3FC
100
AcDbEntity
  8
H_MOVING
100
AcDbLine
 62
1
  6
CONTINUOUS
 10
131.0530424661
 20
202.1169596078
 11
129.2807112037
 21
202.1169596078
  0
LINE
  5
3FD
100
AcDbEntity
  8
H_MOVING
100
AcDbLine
 62
1
  6
CONTINUOUS
 10
129.2807112037
 20
208.1169596078
 11
131.2771922026
 21
208.1169596078
  0
LINE
  5
3FE
100
AcDbEntity
  8
H_MOVING
100
AcDbLine
 62
1
  6
CONTINUOUS
 10
131.3515785745
 20
210.1081206862
 11
129.5792473122
 21
210.1081206862
  0
LINE
  5
3FF
100
AcDbEntity
  8
H_MOVING
100
AcDbLine
 62
1
  6
CONTINUOUS
 10
83.4287962241
 20
213.6960406656
 11
126.6374196323
 21
213.6960406656
  0
LINE
  5
400
100
AcDbEntity
  8
H_MOVING
100
AcDbLine
 62
1
  6
CONTINUOUS
 10
744.4897551121
 20
213.6960409437
 11
765.4897551121
 21
213.6960409437
  0
LINE
  5
401
100
AcDbEntity
  8
BASIC_DEVICE
100
AcDbLine
 62
7
  6
CONTINUOUS
 10
669.9897551124
 20
233.2495437095
 11
685.9897551124
 21
233.2495437095
  0
LINE
  5
402
100
AcDbEntity
  8
INTER_PHASE_SCHIELDS
100
AcDbLine
 62
5
  6
CONTINUOUS
 10
378.765419628
 20
416.0495437095
 11
384.765419628
 21
410.0495437095
  0
LINE
  5
403
100
AcDbEntity
  8
BASIC_DEVICE
100
AcDbLine
 62
7
  6
CONTINUOUS
 10
527.5435085108
 20
182.7502443144
 11
524.5124195975
 21
188.0002443144
  0
LINE
  5
404
100
AcDbEntity
  8
INTER_PHASE_SCHIELDS
100
AcDbLine
 62
5
  6
CONTINUOUS
 10
302.065419628
 20
410.0495437095
 11
308.065419628
 21
416.0495437095
  0
LINE
  5
405
100
AcDbEntity
  8
BASIC_DEVICE
100
AcDbLine
 62
1
  6
CONTINUOUS
 10
234.465419628
 20
279.7995437095
 11
235.465419628
 21
280.7995437095
  0
LINE
  5
406
100
AcDbEntity
  8
H_EXTERN_HANDLE
100
AcDbLine
 62
7
  6
CONTINUOUS
 10
174.765419628
 20
238.2495437096
 11
159.765419628
 21
238.2495437096
  0
LINE
  5
407
100
AcDbEntity
  8
BASIC_DEVICE
100
AcDbLine
 62
7
  6
CONTINUOUS
 10
909.9813306886
 20
241.2495437095
 11
891.9813306886
 21
241.2495437095
  0
LINE
  5
408
100
AcDbEntity
  8
BASIC_DEVICE
100
AcDbLine
 62
7
  6
CONTINUOUS
 10
894.9813306886
 20
244.2495437095
 11
906.9813306886
 21
244.2495437095
  0
LINE
  5
409
100
AcDbEntity
  8
H_EXTERN_HANDLE
100
AcDbLine
 62
7
  6
CONTINUOUS
 10
133.765419628
 20
248.2495434314
 11
159.765419628
 21
248.2495434314
  0
LINE
  5
40A
100
AcDbEntity
  8
HANDLE_FIXING_HOLES
100
AcDbLine
 62
4
  6
CONTINUOUS
 10
1201.9473506386
 20
253.2495437095
 11
1216.8413576402
 21
253.2495437095
  0
LINE
  5
40B
100
AcDbEntity
  8
BASIC_DEVICE
100
AcDbLine
 62
7
  6
CONTINUOUS
 10
906.9813306886
 20
256.2495437095
 11
894.9813306886
 21
256.2495437095
  0
LINE
  5
40C
100
AcDbEntity
  8
BASIC_DEVICE
100
AcDbLine
 62
7
  6
CONTINUOUS
 10
891.9813306886
 20
259.2495437095
 11
909.9813306886
 21
259.2495437095
  0
LINE
  5
40D
100
AcDbEntity
  8
BASIC_DEVICE
100
AcDbLine
 62
1
  6
CONTINUOUS
 10
242.565419628
 20
262.6495437095
 11
246.765419628
 21
262.6495437095
  0
LINE
  5
40E
100
AcDbEntity
  8
H_EXTERN_HANDLE
100
AcDbLine
 62
7
  6
CONTINUOUS
 10
84.265419628
 20
263.9995434314
 11
123.765419628
 21
263.9995434314
  0
LINE
  5
40F
100
AcDbEntity
  8
H_EXTERN_HANDLE
100
AcDbLine
 62
7
  6
CONTINUOUS
 10
728.4897551121
 20
263.9995437095
 11
781.4897551121
 21
263.9995437095
  0
LINE
  5
410
100
AcDbEntity
  8
BASIC_DEVICE
100
AcDbLine
 62
1
  6
CONTINUOUS
 10
243.665419628
 20
266.6562203539
 11
244.765419628
 21
266.6562203539
  0
LINE
  5
411
100
AcDbEntity
  8
BASIC_DEVICE
100
AcDbLine
 62
7
  6
CONTINUOUS
 10
685.9897551124
 20
267.2495437095
 11
669.9897551124
 21
267.2495437095
  0
LINE
  5
412
100
AcDbEntity
  8
H_EXTERN_HANDLE
100
AcDbLine
 62
7
  6
CONTINUOUS
 10
122.0149674844
 20
267.7495450837
 11
135.2654182539
 21
267.7495433496
  0
LINE
  5
413
100
AcDbEntity
  8
H_EXTERN_HANDLE
100
AcDbLine
 62
7
  6
CONTINUOUS
 10
709.9897551121
 20
267.7495437095
 11
728.4897551121
 21
267.7495437095
  0
LINE
  5
414
100
AcDbEntity
  8
H_EXTERN_HANDLE
100
AcDbLine
 62
7
  6
CONTINUOUS
 10
781.4897551121
 20
267.7495437095
 11
943.9897551121
 21
267.7495437095
  0
LINE
  5
415
100
AcDbEntity
  8
H_EXTERN_HANDLE
100
AcDbLine
 62
7
  6
CONTINUOUS
 10
82.765419628
 20
267.9995434314
 11
84.265419628
 21
267.9995434314
  0
LINE
  5
416
100
AcDbEntity
  8
H_EXTERN_HANDLE
100
AcDbLine
 62
7
  6
CONTINUOUS
 10
136.765419628
 20
269.7495434314
 11
128.179382478
 21
269.7495434314
  0
LINE
  5
417
100
AcDbEntity
  8
BASIC_DEVICE
100
AcDbLine
 62
1
  6
CONTINUOUS
 10
747.3397551121
 20
270.5995437095
 11
762.6397551121
 21
270.5995437095
  0
LINE
  5
418
100
AcDbEntity
  8
BASIC_DEVICE
100
AcDbLine
 62
7
  6
CONTINUOUS
 10
762.4897551121
 20
270.7495437096
 11
747.4897551121
 21
270.7495437096
  0
LINE
  5
419
100
AcDbEntity
  8
BASIC_DEVICE
100
AcDbLine
 62
7
  6
CONTINUOUS
 10
220.765419628
 20
270.7495437095
 11
242.565419628
 21
270.7495437095
  0
LINE
  5
41A
100
AcDbEntity
  8
H_EXTERN_HANDLE
100
AcDbLine
 62
7
  6
CONTINUOUS
 10
159.765419628
 20
271.7495434314
 11
136.765419628
 21
271.7495434314
  0
LINE
  5
41B
100
AcDbEntity
  8
H_EXTERN_HANDLE
100
AcDbLine
 62
7
  6
CONTINUOUS
 10
708.9897551121
 20
272.2495437096
 11
742.9447288545
 21
272.2495437096
  0
LINE
  5
41C
100
AcDbEntity
  8
H_EXTERN_HANDLE
100
AcDbLine
 62
7
  6
CONTINUOUS
 10
761.0347813696
 20
272.2495437095
 11
817.9897551121
 21
272.2495437095
  0
LINE
  5
41D
100
AcDbEntity
  8
BASIC_DEVICE
100
AcDbLine
 62
7
  6
CONTINUOUS
 10
779.0729442697
 20
274.2495437096
 11
786.1666696486
 21
274.2495437096
  0
LINE
  5
41E
100
AcDbEntity
  8
BASIC_DEVICE
100
AcDbLine
 62
1
  6
CONTINUOUS
 10
243.665419628
 20
275.6995437095
 11
235.465419628
 21
275.6995437095
  0
LINE
  5
41F
100
AcDbEntity
  8
BASIC_DEVICE
100
AcDbLine
 62
1
  6
CONTINUOUS
 10
768.4897551121
 20
276.4495437095
 11
770.4855609963
 21
276.4495437095
  0
LINE
  5
420
100
AcDbEntity
  8
AXIS
100
AcDbLine
 62
4
  6
CONTINUOUS
 10
249.765419628
 20
278.2495437095
 11
231.465419628
 21
278.2495437095
  0
LINE
  5
421
100
AcDbEntity
  8
H_EXTERN_HANDLE
100
AcDbLine
 62
4
  6
CONTINUOUS
 10
179.8174684581
 20
278.2495437096
 11
75.4956231489
 21
278.2495437096
  0
LINE
  5
422
100
AcDbEntity
  8
BASIC_DEVICE
100
AcDbLine
 62
1
  6
CONTINUOUS
 10
243.665419628
 20
278.2495437095
 11
244.765419628
 21
278.2495437095
  0
LINE
  5
423
100
AcDbEntity
  8
H_EXTERN_HANDLE
100
AcDbLine
 62
4
  6
CONTINUOUS
 10
694.9981795359
 20
278.2495437095
 11
961.890433524
 21
278.2495437095
  0
LINE
  5
424
100
AcDbEntity
  8
AXIS
100
AcDbLine
 62
4
  6
CONTINUOUS
 10
736.3897551121
 20
278.2495437095
 11
773.5897551121
 21
278.2495437095
  0
LINE
  5
425
100
AcDbEntity
  8
HANDLE_FIXING_HOLES
100
AcDbLine
 62
4
  6
CONTINUOUS
 10
1177.3024246204
 20
278.2495437095
 11
1241.1855876186
 21
278.2495437095
  0
LINE
  5
426
100
AcDbEntity
  8
BASIC_DEVICE
100
AcDbLine
 62
1
  6
CONTINUOUS
 10
770.4855609963
 20
280.0495437095
 11
768.4897551121
 21
280.0495437095
  0
LINE
  5
427
100
AcDbEntity
  8
BASIC_DEVICE
100
AcDbLine
 62
1
  6
CONTINUOUS
 10
235.465419628
 20
280.7995437095
 11
243.665419628
 21
280.7995437095
  0
LINE
  5
428
100
AcDbEntity
  8
H_EXTERN_HANDLE
100
AcDbLine
 62
7
  6
CONTINUOUS
 10
87.3712539294
 20
269.2581790521
 11
121.5551088768
 21
267.7596186003
  0
LINE
  5
429
100
AcDbEntity
  8
AM_12
100
AcDbLine
 62
4
  6
CONTINUOUS
 10
745.7864584471
 20
89.0588935965
 11
749.2864584471
 21
85.5588935965
  0
LINE
  5
42A
100
AcDbEntity
  8
BASIC_DEVICE
100
AcDbLine
 62
7
  6
CONTINUOUS
 10
776.9813306843
 20
90.2495437095
 11
781.9813306843
 21
85.2495437095
  0
LINE
  5
42B
100
AcDbEntity
  8
BASIC_DEVICE
100
AcDbLine
 62
7
  6
CONTINUOUS
 10
515.4191528578
 20
317.7502443144
 11
518.450241771
 21
312.5002443144
  0
LINE
  5
42C
100
AcDbEntity
  8
BASIC_DEVICE
100
AcDbLine
 62
7
  6
CONTINUOUS
 10
527.5435085108
 20
317.7502443144
 11
524.5124195975
 21
323.0002443144
  0
LINE
  5
42D
100
AcDbEntity
  8
BASIC_DEVICE
100
AcDbLine
 62
7
  6
CONTINUOUS
 10
638.9275772856
 20
162.7495437095
 11
641.9586661988
 21
157.4995437095
  0
LINE
  5
42E
100
AcDbEntity
  8
TERMINAL_SCREEN
100
AcDbLine
 62
2
  6
CONTINUOUS
 10
508.9813306843
 20
731.2343479559
 11
508.9813306843
 21
679.2343479559
  0
LINE
  5
42F
100
AcDbEntity
  8
BASIC_DEVICE
100
AcDbLine
 62
7
  6
CONTINUOUS
 10
508.9813306843
 20
350.2502443144
 11
508.9813306843
 21
150.2502443144
  0
LINE
  5
430
100
AcDbEntity
  8
TERMINAL_SCREEN
100
AcDbLine
 62
2
  6
CONTINUOUS
 10
508.9813306843
 20
327.7502443144
 11
508.9813306843
 21
475.7502443144
  0
LINE
  5
431
100
AcDbEntity
  8
BASIC_DEVICE
100
AcDbLine
 62
7
  6
CONTINUOUS
 10
508.9813306886
 20
593.2343479559
 11
508.9813306886
 21
679.2343479559
  0
LINE
  5
432
100
AcDbEntity
  8
AXIS
100
AcDbLine
 62
4
  6
CONTINUOUS
 10
521.4813306843
 20
155.2502443144
 11
521.4813306843
 21
170.2502443144
  0
LINE
  5
433
100
AcDbEntity
  8
AXIS
100
AcDbLine
 62
4
  6
CONTINUOUS
 10
521.4813306843
 20
330.2502443144
 11
521.4813306843
 21
345.2502443144
  0
LINE
  5
434
100
AcDbEntity
  8
BASIC_DEVICE
100
AcDbLine
 62
7
  6
CONTINUOUS
 10
531.4813306843
 20
350.2502443144
 11
531.4813306843
 21
337.7502443144
  0
LINE
  5
435
100
AcDbEntity
  8
BASIC_DEVICE
100
AcDbLine
 62
7
  6
CONTINUOUS
 10
531.4813306843
 20
150.2502443144
 11
531.4813306843
 21
162.7502443144
  0
LINE
  5
436
100
AcDbEntity
  8
BASIC_DEVICE
100
AcDbLine
 62
7
  6
CONTINUOUS
 10
531.4813306886
 20
618.2343479559
 11
531.4813306886
 21
679.2343479559
  0
LINE
  5
437
100
AcDbEntity
  8
BASIC_DEVICE
100
AcDbLine
 62
7
  6
CONTINUOUS
 10
533.4813306886
 20
595.2343479559
 11
533.4813306886
 21
593.2343479559
  0
LINE
  5
438
100
AcDbEntity
  8
BASIC_DEVICE
100
AcDbLine
 62
7
  6
CONTINUOUS
 10
536.9813306843
 20
150.248457772
 11
536.9813306843
 21
90.2495437095
  0
LINE
  5
439
100
AcDbEntity
  8
BASIC_DEVICE
100
AcDbLine
 62
7
  6
CONTINUOUS
 10
536.9813306843
 20
350.250629647
 11
536.9813306843
 21
410.2495437095
  0
LINE
  5
43A
100
AcDbEntity
  8
BASIC_DEVICE
100
AcDbLine
 62
7
  6
CONTINUOUS
 10
536.9813306843
 20
633.2343479559
 11
536.9813306843
 21
640.2343479559
  0
LINE
  5
43B
100
AcDbEntity
  8
INTER_PHASE_SCHIELDS
100
AcDbLine
 62
5
  6
CONTINUOUS
 10
308.665419628
 20
342.0495437095
 11
306.665419628
 21
340.0495437095
  0
LINE
  5
43C
100
AcDbEntity
  8
BASIC_DEVICE
100
AcDbLine
 62
1
  6
CONTINUOUS
 10
737.7876454392
 20
745.5343479559
 11
736.7876454392
 21
744.5343479559
  0
LINE
  5
43D
100
AcDbEntity
  8
H_EXTERN_HANDLE
100
AcDbLine
 62
7
  6
CONTINUOUS
 10
121.5551087064
 20
288.7394688113
 11
87.3712537834
 21
287.2409078044
  0
LINE
  5
43E
100
AcDbEntity
  8
H_EXTERN_HANDLE
100
AcDbLine
 62
7
  6
CONTINUOUS
 10
817.9897551121
 20
284.2495437095
 11
761.0347813696
 21
284.2495437096
  0
LINE
  5
43F
100
AcDbEntity
  8
H_EXTERN_HANDLE
100
AcDbLine
 62
7
  6
CONTINUOUS
 10
742.9447288545
 20
284.2495437095
 11
708.9897551121
 21
284.2495437095
  0
LINE
  5
440
100
AcDbEntity
  8
H_EXTERN_HANDLE
100
AcDbLine
 62
7
  6
CONTINUOUS
 10
136.765419628
 20
284.7495434314
 11
159.765419628
 21
284.7495434314
  0
LINE
  5
441
100
AcDbEntity
  8
BASIC_DEVICE
100
AcDbLine
 62
7
  6
CONTINUOUS
 10
242.565419628
 20
285.7495437095
 11
220.765419628
 21
285.7495437095
  0
LINE
  5
442
100
AcDbEntity
  8
BASIC_DEVICE
100
AcDbLine
 62
7
  6
CONTINUOUS
 10
747.4897551121
 20
285.7495437096
 11
762.4897551121
 21
285.7495437096
  0
LINE
  5
443
100
AcDbEntity
  8
BASIC_DEVICE
100
AcDbLine
 62
1
  6
CONTINUOUS
 10
762.6397551121
 20
285.8995437095
 11
747.3397551121
 21
285.8995437095
  0
LINE
  5
444
100
AcDbEntity
  8
H_EXTERN_HANDLE
100
AcDbLine
 62
7
  6
CONTINUOUS
 10
128.179383245
 20
286.7495434314
 11
136.765419628
 21
286.7495434314
  0
LINE
  5
445
100
AcDbEntity
  8
H_EXTERN_HANDLE
100
AcDbLine
 62
7
  6
CONTINUOUS
 10
84.265419628
 20
288.4995434314
 11
82.765419628
 21
288.4995434314
  0
LINE
  5
446
100
AcDbEntity
  8
H_EXTERN_HANDLE
100
AcDbLine
 62
7
  6
CONTINUOUS
 10
943.9897551121
 20
288.7495437095
 11
781.4897551121
 21
288.7495437095
  0
LINE
  5
447
100
AcDbEntity
  8
H_EXTERN_HANDLE
100
AcDbLine
 62
7
  6
CONTINUOUS
 10
728.4897551121
 20
288.7495437095
 11
709.9897551121
 21
288.7495437095
  0
LINE
  5
448
100
AcDbEntity
  8
H_EXTERN_HANDLE
100
AcDbLine
 62
7
  6
CONTINUOUS
 10
122.0149688585
 20
288.7495437096
 11
135.265419628
 21
288.7495437096
  0
LINE
  5
449
100
AcDbEntity
  8
BASIC_DEVICE
100
AcDbLine
 62
1
  6
CONTINUOUS
 10
244.765419628
 20
289.5002106199
 11
243.665419628
 21
289.5002106199
  0
LINE
  5
44A
100
AcDbEntity
  8
H_EXTERN_HANDLE
100
AcDbLine
 62
7
  6
CONTINUOUS
 10
781.4897551121
 20
292.4995437095
 11
728.4897551121
 21
292.4995437095
  0
LINE
  5
44B
100
AcDbEntity
  8
H_EXTERN_HANDLE
100
AcDbLine
 62
7
  6
CONTINUOUS
 10
84.265419628
 20
292.4995434314
 11
123.765419628
 21
292.4995434314
  0
LINE
  5
44C
100
AcDbEntity
  8
BASIC_DEVICE
100
AcDbLine
 62
1
  6
CONTINUOUS
 10
246.765419628
 20
293.8495437095
 11
242.565419628
 21
293.8495437095
  0
LINE
  5
44D
100
AcDbEntity
  8
HANDLE_FIXING_HOLES
100
AcDbLine
 62
4
  6
CONTINUOUS
 10
1201.4657567342
 20
303.2495437095
 11
1217.3229515445
 21
303.2495437095
  0
LINE
  5
44E
100
AcDbEntity
  8
H_EXTERN_HANDLE
100
AcDbLine
 62
7
  6
CONTINUOUS
 10
159.765419628
 20
308.2495434314
 11
133.765419628
 21
308.2495434314
  0
LINE
  5
44F
100
AcDbEntity
  8
H_EXTERN_HANDLE
100
AcDbLine
 62
1
  6
CONTINUOUS
 10
754.9897551121
 20
308.7495437095
 11
770.9897551121
 21
308.7495437095
  0
LINE
  5
450
100
AcDbEntity
  8
TEXT
100
AcDbLine
 62
2
  6
CONTINUOUS
 10
756.3057458803
 20
310.2986808091
 11
754.3057458803
 21
310.2986808091
  0
LINE
  5
451
100
AcDbEntity
  8
TEXT
100
AcDbLine
 62
2
  6
CONTINUOUS
 10
754.3057458803
 20
310.2986808091
 11
756.3057458803
 21
310.2986808091
  0
LINE
  5
452
100
AcDbEntity
  8
TEXT
100
AcDbLine
 62
2
  6
CONTINUOUS
 10
756.3057458803
 20
316.2986808091
 11
754.3057458803
 21
316.2986808091
  0
LINE
  5
453
100
AcDbEntity
  8
TEXT
100
AcDbLine
 62
2
  6
CONTINUOUS
 10
754.3057458803
 20
316.2986808091
 11
754.3057458803
 21
310.2986808091
  0
LINE
  5
454
100
AcDbEntity
  8
TEXT
100
AcDbLine
 62
2
  6
CONTINUOUS
 10
756.3057458803
 20
310.2986808091
 11
756.3057458803
 21
316.2986808091
  0
HATCH
  5
455
100
AcDbEntity
  8
TEXT
100
AcDbHatch
 62
2
  6
CONTINUOUS
 10
0.0
 20
0.0
 30
0.0
210
0.0
220
0.0
230
1.0
  2
SOLID
 70
1
 71
1
 91
1
 92
1
 93
4
 72
1
 10
756.3057458803
 20
310.2986808091
 11
756.3057458803
 21
316.2986808091
 72
1
 10
756.3057458803
 20
316.2986808091
 11
754.3057458803
 21
316.2986808091
 72
1
 10
754.3057458803
 20
316.2986808091
 11
754.3057458803
 21
310.2986808091
 72
1
 10
754.3057458803
 20
310.2986808091
 11
756.3057458803
 21
310.2986808091
 97
4
330
451
330
452
330
453
330
454
 75
0
 76
1
 98
1
 10
0.0
 20
0.0
  0
LINE
  5
456
100
AcDbEntity
  8
TEXT
100
AcDbLine
 62
2
  6
CONTINUOUS
 10
754.3057458803
 20
310.2986808091
 11
756.3057458803
 21
310.2986808091
  0
LINE
  5
457
100
AcDbEntity
  8
TEXT
100
AcDbLine
 62
2
  6
CONTINUOUS
 10
756.3057458803
 20
316.2986808091
 11
754.3057458803
 21
316.2986808091
  0
LINE
  5
458
100
AcDbEntity
  8
TEXT
100
AcDbLine
 62
2
  6
CONTINUOUS
 10
754.3057458803
 20
316.2986808091
 11
754.3057458803
 21
310.2986808091
  0
LINE
  5
459
100
AcDbEntity
  8
TEXT
100
AcDbLine
 62
2
  6
CONTINUOUS
 10
756.3057458803
 20
310.2986808091
 11
756.3057458803
 21
316.2986808091
  0
HATCH
  5
45A
100
AcDbEntity
  8
TEXT
100
AcDbHatch
 62
2
  6
CONTINUOUS
 10
0.0
 20
0.0
 30
0.0
210
0.0
220
0.0
230
1.0
  2
SOLID
 70
1
 71
1
 91
1
 92
1
 93
4
 72
1
 10
756.3057458803
 20
310.2986808091
 11
756.3057458803
 21
316.2986808091
 72
1
 10
756.3057458803
 20
316.2986808091
 11
754.3057458803
 21
316.2986808091
 72
1
 10
754.3057458803
 20
316.2986808091
 11
754.3057458803
 21
310.2986808091
 72
1
 10
754.3057458803
 20
310.2986808091
 11
756.3057458803
 21
310.2986808091
 97
4
330
456
330
457
330
458
330
459
 75
0
 76
1
 98
1
 10
0.0
 20
0.0
  0
LINE
  5
45B
100
AcDbEntity
  8
BASIC_DEVICE
100
AcDbLine
 62
7
  6
CONTINUOUS
 10
991.5124196018
 20
312.4995437095
 11
985.4502417753
 21
312.4995437095
  0
LINE
  5
45C
100
AcDbEntity
  8
BASIC_DEVICE
100
AcDbLine
 62
7
  6
CONTINUOUS
 10
518.450241771
 20
312.5002443144
 11
524.5124195975
 21
312.5002443144
  0
LINE
  5
45D
100
AcDbEntity
  8
TEXT
100
AcDbLine
 62
2
  6
CONTINUOUS
 10
756.3057458803
 20
316.2986808091
 11
754.3057458803
 21
316.2986808091
  0
LINE
  5
45E
100
AcDbEntity
  8
H_EXTERN_HANDLE
100
AcDbLine
 62
1
  6
CONTINUOUS
 10
770.9897551121
 20
317.7495437095
 11
754.9897551121
 21
317.7495437095
  0
LINE
  5
45F
100
AcDbEntity
  8
H_EXTERN_HANDLE
100
AcDbLine
 62
7
  6
CONTINUOUS
 10
794.9897551121
 20
318.2495437095
 11
754.9897551121
 21
318.2495437095
  0
LINE
  5
460
100
AcDbEntity
  8
H_EXTERN_HANDLE
100
AcDbLine
 62
7
  6
CONTINUOUS
 10
159.765419628
 20
318.2495437096
 11
174.765419628
 21
318.2495437096
  0
LINE
  5
461
100
AcDbEntity
  8
BASIC_DEVICE
100
AcDbLine
 62
7
  6
CONTINUOUS
 10
985.4502417753
 20
322.9995437095
 11
991.5124196018
 21
322.9995437095
  0
LINE
  5
462
100
AcDbEntity
  8
BASIC_DEVICE
100
AcDbLine
 62
7
  6
CONTINUOUS
 10
524.5124195975
 20
323.0002443144
 11
518.450241771
 21
323.0002443144
  0
LINE
  5
463
100
AcDbEntity
  8
BASIC_DEVICE
100
AcDbLine
 62
7
  6
CONTINUOUS
 10
386.765419628
 20
325.7495437095
 11
384.765419628
 21
325.7495437095
  0
LINE
  5
464
100
AcDbEntity
  8
TERMINAL_SCREEN
100
AcDbLine
 62
2
  6
CONTINUOUS
 10
298.765419628
 20
327.7495437095
 11
300.765419628
 21
327.7495437095
  0
LINE
  5
465
100
AcDbEntity
  8
BASIC_DEVICE
100
AcDbLine
 62
7
  6
CONTINUOUS
 10
300.765419628
 20
327.7495437095
 11
361.765419628
 21
327.7495437095
  0
LINE
  5
466
100
AcDbEntity
  8
BASIC_DEVICE
100
AcDbLine
 62
7
  6
CONTINUOUS
 10
988.4813306886
 20
327.7495437095
 11
1000.9813306886
 21
327.7495437095
  0
LINE
  5
467
100
AcDbEntity
  8
TERMINAL_SCREEN
100
AcDbLine
 62
2
  6
CONTINUOUS
 10
1000.9813306843
 20
327.7502443144
 11
820.4813306843
 21
327.7502443144
  0
LINE
  5
468
100
AcDbEntity
  8
TERMINAL_SCREEN
100
AcDbLine
 62
2
  6
CONTINUOUS
 10
689.4813306843
 20
327.7502443144
 11
508.9813306843
 21
327.7502443144
  0
LINE
  5
469
100
AcDbEntity
  8
BASIC_DEVICE
100
AcDbLine
 62
7
  6
CONTINUOUS
 10
521.4813306843
 20
327.7502443144
 11
508.9813306843
 21
327.7502443144
  0
LINE
  5
46A
100
AcDbEntity
  8
BASIC_DEVICE
100
AcDbLine
 62
7
  6
CONTINUOUS
 10
651.0519329386
 20
162.7495437095
 11
648.0208440253
 21
167.9995437095
  0
LINE
  5
46B
100
AcDbEntity
  8
AXIS
100
AcDbLine
 62
4
  6
CONTINUOUS
 10
548.4813306843
 20
630.2343479559
 11
548.4813306843
 21
643.2343479559
  0
LINE
  5
46C
100
AcDbEntity
  8
AXIS
100
AcDbLine
 62
4
  6
CONTINUOUS
 10
588.4813306843
 20
630.2343479559
 11
588.4813306843
 21
643.2343479559
  0
LINE
  5
46D
100
AcDbEntity
  8
BASIC_DEVICE
100
AcDbLine
 62
7
  6
CONTINUOUS
 10
866.0208440253
 20
332.4995437095
 11
859.9586661988
 21
332.4995437095
  0
LINE
  5
46E
100
AcDbEntity
  8
BASIC_DEVICE
100
AcDbLine
 62
7
  6
CONTINUOUS
 10
641.9586661988
 20
332.4995437095
 11
648.0208440253
 21
332.4995437095
  0
LINE
  5
46F
100
AcDbEntity
  8
AXIS
100
AcDbLine
 62
4
  6
CONTINUOUS
 10
980.9813306886
 20
337.7495437095
 11
995.9813306886
 21
337.7495437095
  0
LINE
  5
470
100
AcDbEntity
  8
AXIS
100
AcDbLine
 62
4
  6
CONTINUOUS
 10
513.9813306843
 20
337.7502443144
 11
528.9813306843
 21
337.7502443144
  0
LINE
  5
471
100
AcDbEntity
  8
INTER_PHASE_SCHIELDS
100
AcDbLine
 62
5
  6
CONTINUOUS
 10
869.4813306886
 20
340.0495437095
 11
867.4813306886
 21
340.0495437095
  0
LINE
  5
472
100
AcDbEntity
  8
INTER_PHASE_SCHIELDS
100
AcDbLine
 62
5
  6
CONTINUOUS
 10
749.4813306886
 20
340.0495437095
 11
747.4813306886
 21
340.0495437095
  0
LINE
  5
473
100
AcDbEntity
  8
INTER_PHASE_SCHIELDS
100
AcDbLine
 62
5
  6
CONTINUOUS
 10
629.4813306886
 20
340.0495437095
 11
627.4813306886
 21
340.0495437095
  0
LINE
  5
474
100
AcDbEntity
  8
INTER_PHASE_SCHIELDS
100
AcDbLine
 62
5
  6
CONTINUOUS
 10
382.765419628
 20
340.0495437095
 11
380.165419628
 21
340.0495437095
  0
LINE
  5
475
100
AcDbEntity
  8
INTER_PHASE_SCHIELDS
100
AcDbLine
 62
5
  6
CONTINUOUS
 10
306.665419628
 20
340.0495437095
 11
304.065419628
 21
340.0495437095
  0
LINE
  5
476
100
AcDbEntity
  8
BASIC_DEVICE
100
AcDbLine
 62
7
  6
CONTINUOUS
 10
648.0208440253
 20
342.9995437095
 11
641.9586661988
 21
342.9995437095
  0
LINE
  5
477
100
AcDbEntity
  8
BASIC_DEVICE
100
AcDbLine
 62
7
  6
CONTINUOUS
 10
859.9586661988
 20
342.9995437095
 11
866.0208440253
 21
342.9995437095
  0
LINE
  5
478
100
AcDbEntity
  8
INTER_PHASE_SCHIELDS
100
AcDbLine
 62
5
  6
CONTINUOUS
 10
307.165419628
 20
343.8495437095
 11
308.665419628
 21
343.8495437095
  0
LINE
  5
479
100
AcDbEntity
  8
INTER_PHASE_SCHIELDS
100
AcDbLine
 62
5
  6
CONTINUOUS
 10
378.165419628
 20
343.8495437095
 11
379.665419628
 21
343.8495437095
  0
LINE
  5
47A
100
AcDbEntity
  8
BASIC_DEVICE
100
AcDbLine
 62
7
  6
CONTINUOUS
 10
814.9897551121
 20
345.2495437096
 11
694.9897551121
 21
345.2495437096
  0
LINE
  5
47B
100
AcDbEntity
  8
INTER_PHASE_SCHIELDS
100
AcDbLine
 62
5
  6
CONTINUOUS
 10
384.765419628
 20
347.0495437095
 11
382.765419628
 21
347.0495437095
  0
LINE
  5
47C
100
AcDbEntity
  8
INTER_PHASE_SCHIELDS
100
AcDbLine
 62
5
  6
CONTINUOUS
 10
375.165419628
 20
347.0495437095
 11
311.665419628
 21
347.0495437095
  0
LINE
  5
47D
100
AcDbEntity
  8
INTER_PHASE_SCHIELDS
100
AcDbLine
 62
5
  6
CONTINUOUS
 10
304.065419628
 20
347.0495437095
 11
302.065419628
 21
347.0495437095
  0
LINE
  5
47E
100
AcDbEntity
  8
INTER_PHASE_SCHIELDS
100
AcDbLine
 62
5
  6
CONTINUOUS
 10
871.9813306886
 20
350.2495437095
 11
869.4813306886
 21
350.2495437095
  0
LINE
  5
47F
100
AcDbEntity
  8
INTER_PHASE_SCHIELDS
100
AcDbLine
 62
5
  6
CONTINUOUS
 10
867.4813306886
 20
350.2495437095
 11
864.9813306886
 21
350.2495437095
  0
LINE
  5
480
100
AcDbEntity
  8
INTER_PHASE_SCHIELDS
100
AcDbLine
 62
5
  6
CONTINUOUS
 10
751.9813306886
 20
350.2495437095
 11
749.4813306886
 21
350.2495437095
  0
LINE
  5
481
100
AcDbEntity
  8
INTER_PHASE_SCHIELDS
100
AcDbLine
 62
5
  6
CONTINUOUS
 10
747.4813306886
 20
350.2495437095
 11
744.9813306886
 21
350.2495437095
  0
LINE
  5
482
100
AcDbEntity
  8
INTER_PHASE_SCHIELDS
100
AcDbLine
 62
5
  6
CONTINUOUS
 10
631.9813306886
 20
350.2495437095
 11
629.4813306886
 21
350.2495437095
  0
LINE
  5
483
100
AcDbEntity
  8
INTER_PHASE_SCHIELDS
100
AcDbLine
 62
5
  6
CONTINUOUS
 10
627.4813306886
 20
350.2495437095
 11
624.9813306886
 21
350.2495437095
  0
LINE
  5
484
100
AcDbEntity
  8
BASIC_DEVICE
100
AcDbLine
 62
7
  6
CONTINUOUS
 10
246.765419628
 20
350.2495437095
 11
386.765419628
 21
350.2495437095
  0
LINE
  5
485
100
AcDbEntity
  8
INTER_PHASE_SCHIELDS
100
AcDbLine
 62
5
  6
CONTINUOUS
 10
382.765419628
 20
350.2495437095
 11
384.765419628
 21
350.2495437095
  0
LINE
  5
486
100
AcDbEntity
  8
BASIC_DEVICE
100
AcDbLine
 62
7
  6
CONTINUOUS
 10
689.9897551121
 20
350.2495437096
 11
819.9897551121
 21
350.2495437096
  0
LINE
  5
487
100
AcDbEntity
  8
BASIC_DEVICE
100
AcDbLine
 62
7
  6
CONTINUOUS
 10
814.9813306886
 20
350.250629647
 11
508.9813306843
 21
350.2502443144
  0
LINE
  5
488
100
AcDbEntity
  8
BASIC_DEVICE
100
AcDbLine
 62
7
  6
CONTINUOUS
 10
1000.9813306886
 20
350.2495437095
 11
814.9813306886
 21
350.250629647
  0
LINE
  5
489
100
AcDbEntity
  8
INTER_PHASE_SCHIELDS
100
AcDbLine
 62
5
  6
CONTINUOUS
 10
867.4813306886
 20
350.7495437095
 11
866.4813306886
 21
350.7495437095
  0
LINE
  5
48A
100
AcDbEntity
  8
INTER_PHASE_SCHIELDS
100
AcDbLine
 62
5
  6
CONTINUOUS
 10
747.4813306886
 20
350.7495437095
 11
746.4813306886
 21
350.7495437095
  0
LINE
  5
48B
100
AcDbEntity
  8
INTER_PHASE_SCHIELDS
100
AcDbLine
 62
5
  6
CONTINUOUS
 10
627.4813306886
 20
350.7495437095
 11
626.4813306886
 21
350.7495437095
  0
LINE
  5
48C
100
AcDbEntity
  8
INTER_PHASE_SCHIELDS
100
AcDbLine
 62
5
  6
CONTINUOUS
 10
371.265419628
 20
350.7495437095
 11
315.465419628
 21
350.7495437095
  0
LINE
  5
48D
100
AcDbEntity
  8
INTER_PHASE_SCHIELDS
100
AcDbLine
 62
5
  6
CONTINUOUS
 10
629.4813306886
 20
350.7495437095
 11
630.4813306886
 21
350.7495437095
  0
LINE
  5
48E
100
AcDbEntity
  8
INTER_PHASE_SCHIELDS
100
AcDbLine
 62
5
  6
CONTINUOUS
 10
749.4813306886
 20
350.7495437095
 11
750.4813306886
 21
350.7495437095
  0
LINE
  5
48F
100
AcDbEntity
  8
INTER_PHASE_SCHIELDS
100
AcDbLine
 62
5
  6
CONTINUOUS
 10
869.4813306886
 20
350.7495437095
 11
870.4813306886
 21
350.7495437095
  0
LINE
  5
490
100
AcDbEntity
  8
TERMINAL_SCREEN
100
AcDbLine
 62
2
  6
CONTINUOUS
 10
820.4813306843
 20
350.7502443144
 11
689.4813306843
 21
350.7502443144
  0
LINE
  5
491
100
AcDbEntity
  8
INTER_PHASE_SCHIELDS
100
AcDbLine
 62
5
  6
CONTINUOUS
 10
371.265419628
 20
352.7495437095
 11
315.465419628
 21
352.7495437095
  0
LINE
  5
492
100
AcDbEntity
  8
INTER_PHASE_SCHIELDS
100
AcDbLine
 62
5
  6
CONTINUOUS
 10
384.765419628
 20
365.2495437095
 11
382.765419628
 21
365.2495437095
  0
LINE
  5
493
100
AcDbEntity
  8
AXIS
100
AcDbLine
 62
4
  6
CONTINUOUS
 10
355.765419628
 20
375.2495437095
 11
330.765419628
 21
375.2495437095
  0
LINE
  5
494
100
AcDbEntity
  8
BASIC_DEVICE
100
AcDbLine
 62
1
  6
CONTINUOUS
 10
730.755181829
 20
278.2327989399
 11
745.3851251005
 21
265.9568189367
  0
LINE
  5
495
100
AcDbEntity
  8
AM_12
100
AcDbLine
 62
4
  6
CONTINUOUS
 10
865.7864584471
 20
89.0588935965
 11
869.2864584471
 21
85.5588935965
  0
LINE
  5
496
100
AcDbEntity
  8
AM_12
100
AcDbLine
 62
4
  6
CONTINUOUS
 10
552.0604677902
 20
434.6039115298
 11
555.5604677902
 21
431.1039115298
  0
LINE
  5
497
100
AcDbEntity
  8
BASIC_DEVICE
100
AcDbLine
 62
7
  6
CONTINUOUS
 10
896.9813306843
 20
90.2495437095
 11
901.9813306843
 21
85.2495437095
  0
LINE
  5
498
100
AcDbEntity
  8
BASIC_DEVICE
100
AcDbLine
 62
7
  6
CONTINUOUS
 10
594.9813306843
 20
415.2495437095
 11
599.9813306843
 21
410.2495437095
  0
LINE
  5
499
100
AcDbEntity
  8
BASIC_DEVICE
100
AcDbLine
 62
7
  6
CONTINUOUS
 10
638.9275772856
 20
337.7495437095
 11
641.9586661988
 21
332.4995437095
  0
LINE
  5
49A
100
AcDbEntity
  8
BASIC_DEVICE
100
AcDbLine
 62
7
  6
CONTINUOUS
 10
651.0519329386
 20
337.7495437095
 11
648.0208440253
 21
342.9995437095
  0
LINE
  5
49B
100
AcDbEntity
  8
INTER_PHASE_SCHIELDS
100
AcDbLine
 62
5
  6
CONTINUOUS
 10
624.9813306886
 20
150.2495437095
 11
626.4813306886
 21
141.2495437095
  0
LINE
  5
49C
100
AcDbEntity
  8
BASIC_DEVICE
100
AcDbLine
 62
7
  6
CONTINUOUS
 10
599.9813306843
 20
640.2343479559
 11
599.9813306843
 21
633.2343479559
  0
LINE
  5
49D
100
AcDbEntity
  8
BASIC_DEVICE
100
AcDbLine
 62
7
  6
CONTINUOUS
 10
599.9813306843
 20
410.2495437095
 11
599.9813306843
 21
350.2486687095
  0
LINE
  5
49E
100
AcDbEntity
  8
BASIC_DEVICE
100
AcDbLine
 62
7
  6
CONTINUOUS
 10
599.9813306843
 20
90.2495437095
 11
599.9813306843
 21
150.2504187095
  0
LINE
  5
49F
100
AcDbEntity
  8
AXIS
100
AcDbLine
 62
4
  6
CONTINUOUS
 10
608.9813306843
 20
676.2343479559
 11
608.9813306843
 21
684.2343479559
  0
LINE
  5
4A0
100
AcDbEntity
  8
INTER_PHASE_SCHIELDS
100
AcDbLine
 62
5
  6
CONTINUOUS
 10
624.9813306886
 20
597.2343479559
 11
624.9813306886
 21
595.2343479559
  0
LINE
  5
4A1
100
AcDbEntity
  8
INTER_PHASE_SCHIELDS
100
AcDbLine
 62
5
  6
CONTINUOUS
 10
626.4813306886
 20
667.5343479559
 11
626.4813306886
 21
605.7343479559
  0
LINE
  5
4A2
100
AcDbEntity
  8
INTER_PHASE_SCHIELDS
100
AcDbLine
 62
5
  6
CONTINUOUS
 10
626.4813306886
 20
149.7495437095
 11
626.4813306886
 21
90.4495437095
  0
LINE
  5
4A3
100
AcDbEntity
  8
INTER_PHASE_SCHIELDS
100
AcDbLine
 62
5
  6
CONTINUOUS
 10
626.4813306886
 20
350.7495437095
 11
626.4813306886
 21
410.0495437095
  0
LINE
  5
4A4
100
AcDbEntity
  8
INTER_PHASE_SCHIELDS
100
AcDbLine
 62
5
  6
CONTINUOUS
 10
627.4813306886
 20
160.4495437095
 11
627.4813306886
 21
84.4495437095
  0
LINE
  5
4A5
100
AcDbEntity
  8
INTER_PHASE_SCHIELDS
100
AcDbLine
 62
5
  6
CONTINUOUS
 10
627.4813306886
 20
340.0495437095
 11
627.4813306886
 21
416.0495437095
  0
LINE
  5
4A6
100
AcDbEntity
  8
INTER_PHASE_SCHIELDS
100
AcDbLine
 62
5
  6
CONTINUOUS
 10
627.4813306886
 20
595.2343479559
 11
627.4813306886
 21
677.9343479559
  0
LINE
  5
4A7
100
AcDbEntity
  8
INTER_PHASE_SCHIELDS
100
AcDbLine
 62
5
  6
CONTINUOUS
 10
629.4813306886
 20
677.9343479559
 11
629.4813306886
 21
595.2343479559
  0
LINE
  5
4A8
100
AcDbEntity
  8
INTER_PHASE_SCHIELDS
100
AcDbLine
 62
5
  6
CONTINUOUS
 10
629.4813306886
 20
84.4495437095
 11
629.4813306886
 21
160.4495437095
  0
LINE
  5
4A9
100
AcDbEntity
  8
INTER_PHASE_SCHIELDS
100
AcDbLine
 62
5
  6
CONTINUOUS
 10
629.4813306886
 20
340.0495437095
 11
629.4813306886
 21
416.0495437095
  0
LINE
  5
4AA
100
AcDbEntity
  8
INTER_PHASE_SCHIELDS
100
AcDbLine
 62
5
  6
CONTINUOUS
 10
630.4813306886
 20
149.7495437095
 11
630.4813306886
 21
90.4495437095
  0
LINE
  5
4AB
100
AcDbEntity
  8
INTER_PHASE_SCHIELDS
100
AcDbLine
 62
5
  6
CONTINUOUS
 10
630.4813306886
 20
350.7495437095
 11
630.4813306886
 21
410.0495437095
  0
LINE
  5
4AC
100
AcDbEntity
  8
INTER_PHASE_SCHIELDS
100
AcDbLine
 62
5
  6
CONTINUOUS
 10
630.4813306886
 20
605.7343479559
 11
630.4813306886
 21
667.5343479559
  0
LINE
  5
4AD
100
AcDbEntity
  8
INTER_PHASE_SCHIELDS
100
AcDbLine
 62
5
  6
CONTINUOUS
 10
631.9813306886
 20
595.2343479559
 11
631.9813306886
 21
597.2343479559
  0
LINE
  5
4AE
100
AcDbEntity
  8
BASIC_DEVICE
100
AcDbLine
 62
7
  6
CONTINUOUS
 10
518.450241771
 20
323.0002443144
 11
515.4191528578
 21
317.7502443144
  0
LINE
  5
4AF
100
AcDbEntity
  8
BASIC_DEVICE
100
AcDbLine
 62
7
  6
CONTINUOUS
 10
524.5124195975
 20
312.5002443144
 11
527.5435085108
 21
317.7502443144
  0
LINE
  5
4B0
100
AcDbEntity
  8
AM_12
100
AcDbLine
 62
4
  6
CONTINUOUS
 10
552.0604677902
 20
431.1039115298
 11
555.5604677902
 21
434.6039115298
  0
LINE
  5
4B1
100
AcDbEntity
  8
BASIC_DEVICE
100
AcDbLine
 62
7
  6
CONTINUOUS
 10
536.9813306843
 20
410.2495437095
 11
541.9813306843
 21
415.2495437095
  0
LINE
  5
4B2
100
AcDbEntity
  8
TERMINAL_SCREEN
100
AcDbLine
 62
2
  6
CONTINUOUS
 10
508.9813306843
 20
382.7502443144
 11
1000.9813306843
 21
382.7502443144
  0
LINE
  5
4B3
100
AcDbEntity
  8
AXIS
100
AcDbLine
 62
4
  6
CONTINUOUS
 10
355.765419628
 20
395.2495437095
 11
330.765419628
 21
395.2495437095
  0
LINE
  5
4B4
100
AcDbEntity
  8
INTER_PHASE_SCHIELDS
100
AcDbLine
 62
5
  6
CONTINUOUS
 10
315.465419628
 20
408.0495437095
 11
371.265419628
 21
408.0495437095
  0
LINE
  5
4B5
100
AcDbEntity
  8
INTER_PHASE_SCHIELDS
100
AcDbLine
 62
5
  6
CONTINUOUS
 10
870.4813306886
 20
410.0495437095
 11
869.4813306886
 21
410.0495437095
  0
LINE
  5
4B6
100
AcDbEntity
  8
INTER_PHASE_SCHIELDS
100
AcDbLine
 62
5
  6
CONTINUOUS
 10
750.4813306886
 20
410.0495437095
 11
749.4813306886
 21
410.0495437095
  0
LINE
  5
4B7
100
AcDbEntity
  8
INTER_PHASE_SCHIELDS
100
AcDbLine
 62
5
  6
CONTINUOUS
 10
630.4813306886
 20
410.0495437095
 11
629.4813306886
 21
410.0495437095
  0
LINE
  5
4B8
100
AcDbEntity
  8
INTER_PHASE_SCHIELDS
100
AcDbLine
 62
5
  6
CONTINUOUS
 10
315.465419628
 20
410.0495437095
 11
371.265419628
 21
410.0495437095
  0
LINE
  5
4B9
100
AcDbEntity
  8
INTER_PHASE_SCHIELDS
100
AcDbLine
 62
5
  6
CONTINUOUS
 10
626.4813306886
 20
410.0495437095
 11
627.4813306886
 21
410.0495437095
  0
LINE
  5
4BA
100
AcDbEntity
  8
INTER_PHASE_SCHIELDS
100
AcDbLine
 62
5
  6
CONTINUOUS
 10
746.4813306886
 20
410.0495437095
 11
747.4813306886
 21
410.0495437095
  0
LINE
  5
4BB
100
AcDbEntity
  8
INTER_PHASE_SCHIELDS
100
AcDbLine
 62
5
  6
CONTINUOUS
 10
866.4813306886
 20
410.0495437095
 11
867.4813306886
 21
410.0495437095
  0
LINE
  5
4BC
100
AcDbEntity
  8
BASIC_DEVICE
100
AcDbLine
 62
7
  6
CONTINUOUS
 10
346.765419628
 20
410.2495437095
 11
339.765419628
 21
410.2495437095
  0
LINE
  5
4BD
100
AcDbEntity
  8
BASIC_DEVICE
100
AcDbLine
 62
7
  6
CONTINUOUS
 10
346.765419628
 20
415.2495437095
 11
339.765419628
 21
415.2495437095
  0
LINE
  5
4BE
100
AcDbEntity
  8
BASIC_DEVICE
100
AcDbLine
 62
7
  6
CONTINUOUS
 10
541.9813306843
 20
415.2495437095
 11
594.9813306843
 21
415.2495437095
  0
LINE
  5
4BF
100
AcDbEntity
  8
BASIC_DEVICE
100
AcDbLine
 62
7
  6
CONTINUOUS
 10
661.9813306843
 20
415.2495437095
 11
714.9813306843
 21
415.2495437095
  0
LINE
  5
4C0
100
AcDbEntity
  8
BASIC_DEVICE
100
AcDbLine
 62
7
  6
CONTINUOUS
 10
781.9813306843
 20
415.2495437095
 11
834.9813306843
 21
415.2495437095
  0
LINE
  5
4C1
100
AcDbEntity
  8
BASIC_DEVICE
100
AcDbLine
 62
7
  6
CONTINUOUS
 10
901.9813306843
 20
415.2495437095
 11
954.9813306843
 21
415.2495437095
  0
LINE
  5
4C2
100
AcDbEntity
  8
INTER_PHASE_SCHIELDS
100
AcDbLine
 62
5
  6
CONTINUOUS
 10
308.065419628
 20
416.0495437095
 11
378.765419628
 21
416.0495437095
  0
LINE
  5
4C3
100
AcDbEntity
  8
INTER_PHASE_SCHIELDS
100
AcDbLine
 62
5
  6
CONTINUOUS
 10
627.4813306886
 20
416.0495437095
 11
629.4813306886
 21
416.0495437095
  0
LINE
  5
4C4
100
AcDbEntity
  8
INTER_PHASE_SCHIELDS
100
AcDbLine
 62
5
  6
CONTINUOUS
 10
747.4813306886
 20
416.0495437095
 11
749.4813306886
 21
416.0495437095
  0
LINE
  5
4C5
100
AcDbEntity
  8
INTER_PHASE_SCHIELDS
100
AcDbLine
 62
5
  6
CONTINUOUS
 10
867.4813306886
 20
416.0495437095
 11
869.4813306886
 21
416.0495437095
  0
LINE
  5
4C6
100
AcDbEntity
  8
H_EXTERN_HANDLE
100
AcDbLine
 62
3
  6
CONTINUOUS
 10
733.0723430686
 20
299.4598489718
 11
726.707721634
 21
305.8244704065
  0
LINE
  5
4C7
100
AcDbEntity
  8
H_EXTERN_HANDLE
100
AcDbLine
 62
1
  6
CONTINUOUS
 10
727.4148284151
 20
306.5315771877
 11
733.7794498498
 21
300.166955753
  0
LINE
  5
4C8
100
AcDbEntity
  8
AM_12
100
AcDbLine
 62
4
  6
CONTINUOUS
 10
625.7864584471
 20
414.9401938225
 11
629.2864584471
 21
411.4401938225
  0
LINE
  5
4C9
100
AcDbEntity
  8
INTER_PHASE_SCHIELDS
100
AcDbLine
 62
5
  6
CONTINUOUS
 10
630.4813306886
 20
359.2495437095
 11
631.9813306886
 21
350.2495437095
  0
LINE
  5
4CA
100
AcDbEntity
  8
BASIC_DEVICE
100
AcDbLine
 62
7
  6
CONTINUOUS
 10
656.9813306843
 20
150.248457772
 11
656.9813306843
 21
90.2495437095
  0
LINE
  5
4CB
100
AcDbEntity
  8
BASIC_DEVICE
100
AcDbLine
 62
7
  6
CONTINUOUS
 10
656.9813306843
 20
350.250629647
 11
656.9813306843
 21
410.2495437095
  0
LINE
  5
4CC
100
AcDbEntity
  8
BASIC_DEVICE
100
AcDbLine
 62
7
  6
CONTINUOUS
 10
656.9813306843
 20
633.2343479559
 11
656.9813306843
 21
640.2343479559
  0
LINE
  5
4CD
100
AcDbEntity
  8
BASIC_DEVICE
100
AcDbLine
 62
7
  6
CONTINUOUS
 10
667.9897551121
 20
697.2343479559
 11
667.9897551121
 21
679.2343479559
  0
LINE
  5
4CE
100
AcDbEntity
  8
BASIC_DEVICE
100
AcDbLine
 62
7
  6
CONTINUOUS
 10
667.9897551124
 20
265.2495437095
 11
667.9897551124
 21
235.2495437095
  0
LINE
  5
4CF
100
AcDbEntity
  8
AXIS
100
AcDbLine
 62
4
  6
CONTINUOUS
 10
668.4813306843
 20
630.2343479559
 11
668.4813306843
 21
643.2343479559
  0
LINE
  5
4D0
100
AcDbEntity
  8
INTER_PHASE_SCHIELDS
100
AcDbLine
 62
5
  6
CONTINUOUS
 10
624.9813306886
 20
350.2495437095
 11
626.4813306886
 21
359.2495437095
  0
LINE
  5
4D1
100
AcDbEntity
  8
INTER_PHASE_SCHIELDS
100
AcDbLine
 62
5
  6
CONTINUOUS
 10
630.4813306886
 20
141.2495437095
 11
631.9813306886
 21
150.2495437095
  0
LINE
  5
4D2
100
AcDbEntity
  8
BASIC_DEVICE
100
AcDbLine
 62
7
  6
CONTINUOUS
 10
518.450241771
 20
188.0002443144
 11
515.4191528578
 21
182.7502443144
  0
LINE
  5
4D3
100
AcDbEntity
  8
AM_12
100
AcDbLine
 62
4
  6
CONTINUOUS
 10
625.7864584471
 20
411.4401938225
 11
629.2864584471
 21
414.9401938225
  0
LINE
  5
4D4
100
AcDbEntity
  8
INTER_PHASE_SCHIELDS
100
AcDbLine
 62
5
  6
CONTINUOUS
 10
380.165419628
 20
160.4495437095
 11
378.165419628
 21
158.4495437095
  0
LINE
  5
4D5
100
AcDbEntity
  8
TERMINAL_SCREEN
100
AcDbLine
 62
2
  6
CONTINUOUS
 10
508.9813306843
 20
432.7502443144
 11
1000.9813306843
 21
432.7502443144
  0
LINE
  5
4D6
100
AcDbEntity
  8
AM_12
100
AcDbLine
 62
4
  6
CONTINUOUS
 10
684.1901136589
 20
417.477022132
 11
687.6901136589
 21
413.977022132
  0
LINE
  5
4D7
100
AcDbEntity
  8
AM_12
100
AcDbLine
 62
4
  6
CONTINUOUS
 10
831.5854432685
 20
290.5561270029
 11
835.0854432685
 21
287.0561270029
  0
LINE
  5
4D8
100
AcDbEntity
  8
BASIC_DEVICE
100
AcDbLine
 62
7
  6
CONTINUOUS
 10
714.9813306843
 20
415.2495437095
 11
719.9813306843
 21
410.2495437095
  0
LINE
  5
4D9
100
AcDbEntity
  8
BASIC_DEVICE
100
AcDbLine
 62
7
  6
CONTINUOUS
 10
909.9813306886
 20
241.2495437095
 11
906.9813306886
 21
244.2495437095
  0
LINE
  5
4DA
100
AcDbEntity
  8
BASIC_DEVICE
100
AcDbLine
 62
7
  6
CONTINUOUS
 10
894.9813306886
 20
256.2495437095
 11
891.9813306886
 21
259.2495437095
  0
LINE
  5
4DB
100
AcDbEntity
  8
BASIC_DEVICE
100
AcDbLine
 62
7
  6
CONTINUOUS
 10
859.9586661988
 20
157.4995437095
 11
856.9275772856
 21
162.7495437095
  0
LINE
  5
4DC
100
AcDbEntity
  8
BASIC_DEVICE
100
AcDbLine
 62
7
  6
CONTINUOUS
 10
687.9897551124
 20
235.2495437095
 11
687.9897551124
 21
265.2495437095
  0
LINE
  5
4DD
100
AcDbEntity
  8
BASIC_DEVICE
100
AcDbLine
 62
7
  6
CONTINUOUS
 10
687.9897551121
 20
679.2343479559
 11
687.9897551121
 21
697.2343479559
  0
LINE
  5
4DE
100
AcDbEntity
  8
TERMINAL_SCREEN
100
AcDbLine
 62
2
  6
CONTINUOUS
 10
689.4813306843
 20
350.7502443144
 11
689.4813306843
 21
327.7502443144
  0
LINE
  5
4DF
100
AcDbEntity
  8
TERMINAL_SCREEN
100
AcDbLine
 62
2
  6
CONTINUOUS
 10
689.4813306843
 20
679.2343479559
 11
689.4813306843
 21
681.2343479559
  0
LINE
  5
4E0
100
AcDbEntity
  8
BASIC_DEVICE
100
AcDbLine
 62
7
  6
CONTINUOUS
 10
689.9897551121
 20
150.2495437096
 11
689.9897551121
 21
350.2495437096
  0
LINE
  5
4E1
100
AcDbEntity
  8
BASIC_DEVICE
100
AcDbLine
 62
7
  6
CONTINUOUS
 10
689.9897551121
 20
679.2343479559
 11
689.9897551121
 21
733.2343479559
  0
LINE
  5
4E2
100
AcDbEntity
  8
BASIC_DEVICE
100
AcDbLine
 62
7
  6
CONTINUOUS
 10
694.9897551121
 20
345.2495437096
 11
694.9897551121
 21
155.2495437096
  0
LINE
  5
4E3
100
AcDbEntity
  8
AXIS
100
AcDbLine
 62
4
  6
CONTINUOUS
 10
708.4813306843
 20
630.2343479559
 11
708.4813306843
 21
643.2343479559
  0
LINE
  5
4E4
100
AcDbEntity
  8
H_EXTERN_HANDLE
100
AcDbLine
 62
7
  6
CONTINUOUS
 10
708.9897551121
 20
287.7495437095
 11
708.9897551121
 21
268.7495437095
  0
LINE
  5
4E5
100
AcDbEntity
  8
H_EXTERN_HANDLE
100
AcDbLine
 62
7
  6
CONTINUOUS
 10
708.9897551121
 20
805.2343479559
 11
708.9897551121
 21
820.2343479559
  0
LINE
  5
4E6
100
AcDbEntity
  8
H_EXTERN_HANDLE
100
AcDbLine
 62
7
  6
CONTINUOUS
 10
708.9897551121
 20
846.2343479559
 11
708.9897551121
 21
897.2343479559
  0
LINE
  5
4E7
100
AcDbEntity
  8
H_EXTERN_HANDLE
100
AcDbLine
 62
7
  6
CONTINUOUS
 10
712.9897551121
 20
881.7343479559
 11
712.9897551121
 21
856.734347956
  0
LINE
  5
4E8
100
AcDbEntity
  8
BASIC_DEVICE
100
AcDbLine
 62
7
  6
CONTINUOUS
 10
719.9813306843
 20
640.2343479559
 11
719.9813306843
 21
633.2343479559
  0
LINE
  5
4E9
100
AcDbEntity
  8
BASIC_DEVICE
100
AcDbLine
 62
7
  6
CONTINUOUS
 10
719.9813306843
 20
410.2495437095
 11
719.9813306843
 21
350.2486687095
  0
LINE
  5
4EA
100
AcDbEntity
  8
BASIC_DEVICE
100
AcDbLine
 62
7
  6
CONTINUOUS
 10
719.9813306843
 20
90.2495437095
 11
719.9813306843
 21
150.2504187095
  0
LINE
  5
4EB
100
AcDbEntity
  8
H_EXTERN_HANDLE
100
AcDbLine
 62
7
  6
CONTINUOUS
 10
721.9897551121
 20
877.2343479559
 11
721.9897551121
 21
861.234347956
  0
LINE
  5
4EC
100
AcDbEntity
  8
H_MOVING
100
AcDbLine
 62
1
  6
CONTINUOUS
 10
724.9897551121
 20
846.2343479559
 11
724.9897551121
 21
820.2343479559
  0
LINE
  5
4ED
100
AcDbEntity
  8
H_EXTERN_HANDLE
100
AcDbLine
 62
7
  6
CONTINUOUS
 10
724.9897551121
 20
820.2343479559
 11
724.9897551121
 21
846.2343479559
  0
LINE
  5
4EE
100
AcDbEntity
  8
H_EXTERN_HANDLE
100
AcDbLine
 62
7
  6
CONTINUOUS
 10
726.8872641193
 20
891.7343479559
 11
726.8872641193
 21
885.7343479559
  0
LINE
  5
4EF
100
AcDbEntity
  8
H_EXTERN_HANDLE
100
AcDbLine
 62
7
  6
CONTINUOUS
 10
727.3872641193
 20
895.7343479559
 11
727.3872641193
 21
885.7343479559
  0
LINE
  5
4F0
100
AcDbEntity
  8
H_EXTERN_HANDLE
100
AcDbLine
 62
7
  6
CONTINUOUS
 10
728.4897551121
 20
885.7343479559
 11
728.4897551121
 21
854.7343479559
  0
LINE
  5
4F1
100
AcDbEntity
  8
H_EXTERN_HANDLE
100
AcDbLine
 62
7
  6
CONTINUOUS
 10
728.4897551121
 20
292.4995437095
 11
728.4897551121
 21
284.2495437095
  0
LINE
  5
4F2
100
AcDbEntity
  8
H_EXTERN_HANDLE
100
AcDbLine
 62
7
  6
CONTINUOUS
 10
728.4897551121
 20
272.2495437096
 11
728.4897551121
 21
263.9995437095
  0
LINE
  5
4F3
100
AcDbEntity
  8
BASIC_DEVICE
100
AcDbLine
 62
1
  6
CONTINUOUS
 10
730.7030721562
 20
736.3343479559
 11
730.7030721562
 21
735.2343479559
  0
LINE
  5
4F4
100
AcDbEntity
  8
H_MOVING
100
AcDbLine
 62
1
  6
CONTINUOUS
 10
745.9983907327
 20
892.6285136545
 11
744.499830281
 21
858.4446587072
  0
LINE
  5
4F5
100
AcDbEntity
  8
H_EXTERN_HANDLE
100
AcDbLine
 62
7
  6
CONTINUOUS
 10
781.4897551121
 20
885.7343479559
 11
782.5922461049
 21
895.7343479559
  0
LINE
  5
4F6
100
AcDbEntity
  8
BASIC_DEVICE
100
AcDbLine
 62
7
  6
CONTINUOUS
 10
524.5124195975
 20
177.5002443144
 11
527.5435085108
 21
182.7502443144
  0
LINE
  5
4F7
100
AcDbEntity
  8
BASIC_DEVICE
100
AcDbLine
 62
7
  6
CONTINUOUS
 10
641.9586661988
 20
342.9995437095
 11
638.9275772856
 21
337.7495437095
  0
LINE
  5
4F8
100
AcDbEntity
  8
BASIC_DEVICE
100
AcDbLine
 62
7
  6
CONTINUOUS
 10
648.0208440253
 20
332.4995437095
 11
651.0519329386
 21
337.7495437095
  0
LINE
  5
4F9
100
AcDbEntity
  8
BASIC_DEVICE
100
AcDbLine
 62
7
  6
CONTINUOUS
 10
656.9813306843
 20
410.2495437095
 11
661.9813306843
 21
415.2495437095
  0
LINE
  5
4FA
100
AcDbEntity
  8
AM_12
100
AcDbLine
 62
4
  6
CONTINUOUS
 10
684.1901136589
 20
413.977022132
 11
687.6901136589
 21
417.477022132
  0
LINE
  5
4FB
100
AcDbEntity
  8
TERMINAL_SCREEN
100
AcDbLine
 62
2
  6
CONTINUOUS
 10
250.765419628
 20
480.7495437095
 11
248.765419628
 21
480.7495437095
  0
LINE
  5
4FC
100
AcDbEntity
  8
TERMINAL_SCREEN
100
AcDbLine
 62
2
  6
CONTINUOUS
 10
513.9813306843
 20
480.7502443144
 11
995.9813306843
 21
480.7502443144
  0
LINE
  5
4FD
100
AcDbEntity
  8
AM_12
100
AcDbLine
 62
4
  6
CONTINUOUS
 10
745.7864584471
 20
414.9401938225
 11
749.2864584471
 21
411.4401938225
  0
LINE
  5
4FE
100
AcDbEntity
  8
BASIC_DEVICE
100
AcDbLine
 62
7
  6
CONTINUOUS
 10
866.0208440253
 20
167.9995437095
 11
869.0519329386
 21
162.7495437095
  0
LINE
  5
4FF
100
AcDbEntity
  8
INTER_PHASE_SCHIELDS
100
AcDbLine
 62
5
  6
CONTINUOUS
 10
744.9813306886
 20
150.2495437095
 11
746.4813306886
 21
141.2495437095
  0
LINE
  5
500
100
AcDbEntity
  8
INTER_PHASE_SCHIELDS
100
AcDbLine
 62
5
  6
CONTINUOUS
 10
750.4813306886
 20
359.2495437095
 11
751.9813306886
 21
350.2495437095
  0
LINE
  5
501
100
AcDbEntity
  8
H_MOVING
100
AcDbLine
 62
1
  6
CONTINUOUS
 10
765.479680492
 20
858.4446588775
 11
763.981119485
 21
892.6285138006
  0
LINE
  5
502
100
AcDbEntity
  8
BASIC_DEVICE
100
AcDbLine
 62
1
  6
CONTINUOUS
 10
736.7876454392
 20
744.5343479559
 11
736.7876454392
 21
736.3343479559
  0
LINE
  5
503
100
AcDbEntity
  8
BASIC_DEVICE
100
AcDbLine
 62
1
  6
CONTINUOUS
 10
739.5460589008
 20
733.2343479559
 11
739.5460589008
 21
737.4343479559
  0
LINE
  5
504
100
AcDbEntity
  8
H_MOVING
100
AcDbLine
 62
1
  6
CONTINUOUS
 10
740.7397551121
 20
856.2343479559
 11
740.7397551121
 21
895.7343479559
  0
LINE
  5
505
100
AcDbEntity
  8
BASIC_DEVICE
100
AcDbLine
 62
1
  6
CONTINUOUS
 10
741.8876454392
 20
737.4343479559
 11
741.8876454392
 21
744.5343479559
  0
LINE
  5
506
100
AcDbEntity
  8
H_EXTERN_HANDLE
100
AcDbLine
 62
7
  6
CONTINUOUS
 10
742.099898129
 20
250.6071562049
 11
742.099898129
 21
240.3833109031
  0
LINE
  5
507
100
AcDbEntity
  8
H_EXTERN_HANDLE
100
AcDbLine
 62
7
  6
CONTINUOUS
 10
742.099898129
 20
814.2343479559
 11
742.099898129
 21
820.2343479559
  0
LINE
  5
508
100
AcDbEntity
  8
H_EXTERN_HANDLE
100
AcDbLine
 62
7
  6
CONTINUOUS
 10
743.5826276659
 20
897.2343479559
 11
743.5826276659
 21
895.7343479559
  0
LINE
  5
509
100
AcDbEntity
  8
H_MOVING
100
AcDbLine
 62
1
  6
CONTINUOUS
 10
744.4897567643
 20
857.9848000996
 11
744.4897550303
 21
844.7343493301
  0
LINE
  5
50A
100
AcDbEntity
  8
H_MOVING
100
AcDbLine
 62
1
  6
CONTINUOUS
 10
744.4897551121
 20
90.2495437095
 11
744.4897551121
 21
213.6960409437
  0
LINE
  5
50B
100
AcDbEntity
  8
H_MOVING
100
AcDbLine
 62
1
  6
CONTINUOUS
 10
744.7397551121
 20
897.2343479559
 11
744.7397551121
 21
895.7343479559
  0
LINE
  5
50C
100
AcDbEntity
  8
INTER_PHASE_SCHIELDS
100
AcDbLine
 62
5
  6
CONTINUOUS
 10
744.9813306886
 20
597.2343479559
 11
744.9813306886
 21
595.2343479559
  0
LINE
  5
50D
100
AcDbEntity
  8
INTER_PHASE_SCHIELDS
100
AcDbLine
 62
5
  6
CONTINUOUS
 10
746.4813306886
 20
667.5343479559
 11
746.4813306886
 21
605.7343479559
  0
LINE
  5
50E
100
AcDbEntity
  8
INTER_PHASE_SCHIELDS
100
AcDbLine
 62
5
  6
CONTINUOUS
 10
746.4813306886
 20
149.7495437095
 11
746.4813306886
 21
90.4495437095
  0
LINE
  5
50F
100
AcDbEntity
  8
INTER_PHASE_SCHIELDS
100
AcDbLine
 62
5
  6
CONTINUOUS
 10
746.4813306886
 20
350.7495437095
 11
746.4813306886
 21
410.0495437095
  0
LINE
  5
510
100
AcDbEntity
  8
H_MOVING
100
AcDbLine
 62
1
  6
CONTINUOUS
 10
746.4897551121
 20
843.2343479559
 11
746.4897551121
 21
851.820385106
  0
LINE
  5
511
100
AcDbEntity
  8
BASIC_DEVICE
100
AcDbLine
 62
1
  6
CONTINUOUS
 10
747.3397551121
 20
285.8995437095
 11
747.3397551121
 21
270.5995437095
  0
LINE
  5
512
100
AcDbEntity
  8
INTER_PHASE_SCHIELDS
100
AcDbLine
 62
5
  6
CONTINUOUS
 10
747.4813306886
 20
160.4495437095
 11
747.4813306886
 21
84.4495437095
  0
LINE
  5
513
100
AcDbEntity
  8
INTER_PHASE_SCHIELDS
100
AcDbLine
 62
5
  6
CONTINUOUS
 10
747.4813306886
 20
340.0495437095
 11
747.4813306886
 21
416.0495437095
  0
LINE
  5
514
100
AcDbEntity
  8
INTER_PHASE_SCHIELDS
100
AcDbLine
 62
5
  6
CONTINUOUS
 10
747.4813306886
 20
595.2343479559
 11
747.4813306886
 21
677.9343479559
  0
LINE
  5
515
100
AcDbEntity
  8
BASIC_DEVICE
100
AcDbLine
 62
7
  6
CONTINUOUS
 10
747.4897551121
 20
270.7495437096
 11
747.4897551121
 21
285.7495437096
  0
LINE
  5
516
100
AcDbEntity
  8
BASIC_DEVICE
100
AcDbLine
 62
7
  6
CONTINUOUS
 10
747.4897551121
 20
737.4343479559
 11
747.4897551121
 21
759.2343479559
  0
LINE
  5
517
100
AcDbEntity
  8
H_MOVING
100
AcDbLine
 62
1
  6
CONTINUOUS
 10
748.4897551121
 20
820.2343479559
 11
748.4897551121
 21
843.2343479559
  0
LINE
  5
518
100
AcDbEntity
  8
INTER_PHASE_SCHIELDS
100
AcDbLine
 62
5
  6
CONTINUOUS
 10
749.4813306886
 20
677.9343479559
 11
749.4813306886
 21
595.2343479559
  0
LINE
  5
519
100
AcDbEntity
  8
INTER_PHASE_SCHIELDS
100
AcDbLine
 62
5
  6
CONTINUOUS
 10
749.4813306886
 20
84.4495437095
 11
749.4813306886
 21
160.4495437095
  0
LINE
  5
51A
100
AcDbEntity
  8
INTER_PHASE_SCHIELDS
100
AcDbLine
 62
5
  6
CONTINUOUS
 10
749.4813306886
 20
340.0495437095
 11
749.4813306886
 21
416.0495437095
  0
LINE
  5
51B
100
AcDbEntity
  8
INTER_PHASE_SCHIELDS
100
AcDbLine
 62
5
  6
CONTINUOUS
 10
750.4813306886
 20
149.7495437095
 11
750.4813306886
 21
90.4495437095
  0
LINE
  5
51C
100
AcDbEntity
  8
INTER_PHASE_SCHIELDS
100
AcDbLine
 62
5
  6
CONTINUOUS
 10
750.4813306886
 20
350.7495437095
 11
750.4813306886
 21
410.0495437095
  0
LINE
  5
51D
100
AcDbEntity
  8
INTER_PHASE_SCHIELDS
100
AcDbLine
 62
5
  6
CONTINUOUS
 10
750.4813306886
 20
605.7343479559
 11
750.4813306886
 21
667.5343479559
  0
LINE
  5
51E
100
AcDbEntity
  8
BASIC_DEVICE
100
AcDbLine
 62
7
  6
CONTINUOUS
 10
750.9897551121
 20
246.9445920246
 11
750.9897551121
 21
254.0008324033
  0
LINE
  5
51F
100
AcDbEntity
  8
INTER_PHASE_SCHIELDS
100
AcDbLine
 62
5
  6
CONTINUOUS
 10
751.9813306886
 20
595.2343479559
 11
751.9813306886
 21
597.2343479559
  0
LINE
  5
520
100
AcDbEntity
  8
TEXT
100
AcDbLine
 62
2
  6
CONTINUOUS
 10
754.3057458803
 20
316.2986808091
 11
754.3057458803
 21
310.2986808091
  0
LINE
  5
521
100
AcDbEntity
  8
AXIS
100
AcDbLine
 62
4
  6
CONTINUOUS
 10
754.9897551121
 20
259.6495437095
 11
754.9897551121
 21
296.8495437095
  0
LINE
  5
522
100
AcDbEntity
  8
H_EXTERN_HANDLE
100
AcDbLine
 62
4
  6
CONTINUOUS
 10
754.9897551121
 20
220.4912889116
 11
754.9897551121
 21
333.9217399742
  0
LINE
  5
523
100
AcDbEntity
  8
AXIS
100
AcDbLine
 62
4
  6
CONTINUOUS
 10
754.9897551121
 20
730.2343479559
 11
754.9897551121
 21
740.4343479559
  0
LINE
  5
524
100
AcDbEntity
  8
H_EXTERN_HANDLE
100
AcDbLine
 62
4
  6
CONTINUOUS
 10
754.9897551121
 20
802.2343479559
 11
754.9897551121
 21
898.2343479559
  0
LINE
  5
525
100
AcDbEntity
  8
TEXT
100
AcDbLine
 62
2
  6
CONTINUOUS
 10
756.3057458803
 20
316.2986808091
 11
756.3057458803
 21
310.2986808091
  0
LINE
  5
526
100
AcDbEntity
  8
H_EXTERN_HANDLE
100
AcDbLine
 62
7
  6
CONTINUOUS
 10
760.3968825582
 20
897.2343479559
 11
760.3968825582
 21
895.7343479559
  0
LINE
  5
527
100
AcDbEntity
  8
H_MOVING
100
AcDbLine
 62
1
  6
CONTINUOUS
 10
761.4897551121
 20
843.2343479559
 11
761.4897551121
 21
820.2343479559
  0
LINE
  5
528
100
AcDbEntity
  8
BASIC_DEVICE
100
AcDbLine
 62
7
  6
CONTINUOUS
 10
762.4897551121
 20
759.2343479559
 11
762.4897551121
 21
737.4343479559
  0
LINE
  5
529
100
AcDbEntity
  8
BASIC_DEVICE
100
AcDbLine
 62
7
  6
CONTINUOUS
 10
762.4897551121
 20
285.7495437096
 11
762.4897551121
 21
270.7495437096
  0
LINE
  5
52A
100
AcDbEntity
  8
BASIC_DEVICE
100
AcDbLine
 62
1
  6
CONTINUOUS
 10
762.6397551121
 20
270.5995437095
 11
762.6397551121
 21
285.8995437095
  0
LINE
  5
52B
100
AcDbEntity
  8
H_MOVING
100
AcDbLine
 62
1
  6
CONTINUOUS
 10
763.4897551121
 20
851.820384339
 11
763.4897551121
 21
843.2343479559
  0
LINE
  5
52C
100
AcDbEntity
  8
H_MOVING
100
AcDbLine
 62
1
  6
CONTINUOUS
 10
765.2397551121
 20
895.7343479559
 11
765.2397551121
 21
897.2343479559
  0
LINE
  5
52D
100
AcDbEntity
  8
H_MOVING
100
AcDbLine
 62
1
  6
CONTINUOUS
 10
765.4897553902
 20
857.9847987255
 11
765.4897553902
 21
844.7343479559
  0
LINE
  5
52E
100
AcDbEntity
  8
H_MOVING
100
AcDbLine
 62
1
  6
CONTINUOUS
 10
765.4897551121
 20
213.6960409437
 11
765.4897551121
 21
90.2495437095
  0
LINE
  5
52F
100
AcDbEntity
  8
BASIC_DEVICE
100
AcDbLine
 62
1
  6
CONTINUOUS
 10
768.4897551121
 20
280.0495437095
 11
768.4897551121
 21
276.4495437095
  0
LINE
  5
530
100
AcDbEntity
  8
H_MOVING
100
AcDbLine
 62
1
  6
CONTINUOUS
 10
769.2397551121
 20
856.2343479559
 11
769.2397551121
 21
895.7343479559
  0
LINE
  5
531
100
AcDbEntity
  8
BASIC_DEVICE
100
AcDbLine
 62
1
  6
CONTINUOUS
 10
770.4334513234
 20
733.2343479559
 11
770.4334513234
 21
737.4343479559
  0
LINE
  5
532
100
AcDbEntity
  8
H_EXTERN_HANDLE
100
AcDbLine
 62
1
  6
CONTINUOUS
 10
770.9897551121
 20
308.7495437095
 11
770.9897551121
 21
317.7495437095
  0
LINE
  5
533
100
AcDbEntity
  8
BASIC_DEVICE
100
AcDbLine
 62
7
  6
CONTINUOUS
 10
776.9813306843
 20
150.248457772
 11
776.9813306843
 21
90.2495437095
  0
LINE
  5
534
100
AcDbEntity
  8
BASIC_DEVICE
100
AcDbLine
 62
7
  6
CONTINUOUS
 10
776.9813306843
 20
350.250629647
 11
776.9813306843
 21
410.2495437095
  0
LINE
  5
535
100
AcDbEntity
  8
BASIC_DEVICE
100
AcDbLine
 62
7
  6
CONTINUOUS
 10
776.9813306843
 20
633.2343479559
 11
776.9813306843
 21
640.2343479559
  0
LINE
  5
536
100
AcDbEntity
  8
H_EXTERN_HANDLE
100
AcDbLine
 62
7
  6
CONTINUOUS
 10
781.4897551121
 20
263.9995437095
 11
781.4897551121
 21
272.2495437095
  0
LINE
  5
537
100
AcDbEntity
  8
H_EXTERN_HANDLE
100
AcDbLine
 62
7
  6
CONTINUOUS
 10
781.4897551121
 20
284.2495437095
 11
781.4897551121
 21
292.4995437095
  0
LINE
  5
538
100
AcDbEntity
  8
H_EXTERN_HANDLE
100
AcDbLine
 62
7
  6
CONTINUOUS
 10
781.4897551121
 20
854.7343479559
 11
781.4897551121
 21
885.7343479559
  0
LINE
  5
539
100
AcDbEntity
  8
H_EXTERN_HANDLE
100
AcDbLine
 62
7
  6
CONTINUOUS
 10
782.5922461049
 20
885.7343479559
 11
782.5922461049
 21
895.7343479559
  0
LINE
  5
53A
100
AcDbEntity
  8
INTER_PHASE_SCHIELDS
100
AcDbLine
 62
5
  6
CONTINUOUS
 10
744.9813306886
 20
350.2495437095
 11
746.4813306886
 21
359.2495437095
  0
LINE
  5
53B
100
AcDbEntity
  8
INTER_PHASE_SCHIELDS
100
AcDbLine
 62
5
  6
CONTINUOUS
 10
378.765419628
 20
84.4495437095
 11
384.765419628
 21
90.4495437095
  0
LINE
  5
53C
100
AcDbEntity
  8
AM_12
100
AcDbLine
 62
4
  6
CONTINUOUS
 10
745.7864584471
 20
411.4401938225
 11
749.2864584471
 21
414.9401938225
  0
LINE
  5
53D
100
AcDbEntity
  8
BASIC_DEVICE
100
AcDbLine
 62
7
  6
CONTINUOUS
 10
834.9813306843
 20
415.2495437095
 11
839.9813306843
 21
410.2495437095
  0
LINE
  5
53E
100
AcDbEntity
  8
AM_12
100
AcDbLine
 62
4
  6
CONTINUOUS
 10
865.7864584471
 20
414.9401938225
 11
869.2864584471
 21
411.4401938225
  0
LINE
  5
53F
100
AcDbEntity
  8
BASIC_DEVICE
100
AcDbLine
 62
7
  6
CONTINUOUS
 10
859.9586661988
 20
332.4995437095
 11
856.9275772856
 21
337.7495437095
  0
LINE
  5
540
100
AcDbEntity
  8
BASIC_DEVICE
100
AcDbLine
 62
7
  6
CONTINUOUS
 10
866.0208440253
 20
342.9995437095
 11
869.0519329386
 21
337.7495437095
  0
LINE
  5
541
100
AcDbEntity
  8
H_EXTERN_HANDLE
100
AcDbLine
 62
7
  6
CONTINUOUS
 10
727.3872641193
 20
895.7343479559
 11
728.4897551121
 21
885.7343479559
  0
LINE
  5
542
100
AcDbEntity
  8
H_EXTERN_HANDLE
100
AcDbLine
 62
7
  6
CONTINUOUS
 10
783.0922461049
 20
885.7343479559
 11
783.0922461049
 21
891.7343479559
  0
LINE
  5
543
100
AcDbEntity
  8
H_EXTERN_HANDLE
100
AcDbLine
 62
7
  6
CONTINUOUS
 10
784.9897551121
 20
843.2343479559
 11
784.9897551121
 21
820.2343479559
  0
LINE
  5
544
100
AcDbEntity
  8
H_EXTERN_HANDLE
100
AcDbLine
 62
7
  6
CONTINUOUS
 10
784.9897551121
 20
318.2495437095
 11
784.9897551121
 21
288.7495437095
  0
LINE
  5
545
100
AcDbEntity
  8
H_MOVING
100
AcDbLine
 62
1
  6
CONTINUOUS
 10
784.9897551121
 20
820.2343479559
 11
784.9897551121
 21
846.2343479559
  0
LINE
  5
546
100
AcDbEntity
  8
AXIS
100
AcDbLine
 62
4
  6
CONTINUOUS
 10
788.4813306843
 20
630.2343479559
 11
788.4813306843
 21
643.2343479559
  0
LINE
  5
547
100
AcDbEntity
  8
H_EXTERN_HANDLE
100
AcDbLine
 62
7
  6
CONTINUOUS
 10
788.9897551121
 20
820.2343479559
 11
788.9897551121
 21
843.2343479559
  0
LINE
  5
548
100
AcDbEntity
  8
H_EXTERN_HANDLE
100
AcDbLine
 62
7
  6
CONTINUOUS
 10
791.9897551121
 20
847.4847987255
 11
791.9897551121
 21
843.2343479559
  0
LINE
  5
549
100
AcDbEntity
  8
H_EXTERN_HANDLE
100
AcDbLine
 62
7
  6
CONTINUOUS
 10
793.157694622
 20
849.5249119466
 11
793.157694622
 21
847.5284309477
  0
LINE
  5
54A
100
AcDbEntity
  8
H_EXTERN_HANDLE
100
AcDbLine
 62
7
  6
CONTINUOUS
 10
794.9897551121
 20
814.2343479559
 11
794.9897551121
 21
805.2343479559
  0
LINE
  5
54B
100
AcDbEntity
  8
H_EXTERN_HANDLE
100
AcDbLine
 62
7
  6
CONTINUOUS
 10
794.9897551121
 20
288.7495437095
 11
794.9897551121
 21
318.2495437095
  0
LINE
  5
54C
100
AcDbEntity
  8
H_EXTERN_HANDLE
100
AcDbLine
 62
7
  6
CONTINUOUS
 10
799.157694622
 20
847.7525806842
 11
799.157694622
 21
849.5249119466
  0
LINE
  5
54D
100
AcDbEntity
  8
H_EXTERN_HANDLE
100
AcDbLine
 62
7
  6
CONTINUOUS
 10
801.1488557004
 20
849.823448055
 11
801.1488557004
 21
847.8269670561
  0
LINE
  5
54E
100
AcDbEntity
  8
H_EXTERN_HANDLE
100
AcDbLine
 62
7
  6
CONTINUOUS
 10
807.1488557004
 20
848.0511167927
 11
807.1488557004
 21
849.823448055
  0
LINE
  5
54F
100
AcDbEntity
  8
H_EXTERN_HANDLE
100
AcDbLine
 62
7
  6
CONTINUOUS
 10
809.1400167789
 20
850.1219841634
 11
809.1400167789
 21
848.1255031645
  0
LINE
  5
550
100
AcDbEntity
  8
BASIC_DEVICE
100
AcDbLine
 62
7
  6
CONTINUOUS
 10
814.9897551121
 20
155.2495437096
 11
814.9897551121
 21
345.2495437096
  0
LINE
  5
551
100
AcDbEntity
  8
H_EXTERN_HANDLE
100
AcDbLine
 62
7
  6
CONTINUOUS
 10
815.1400167789
 20
848.3496529011
 11
815.1400167789
 21
850.1219841634
  0
LINE
  5
552
100
AcDbEntity
  8
H_EXTERN_HANDLE
100
AcDbLine
 62
7
  6
CONTINUOUS
 10
817.1311778573
 20
850.4205202718
 11
817.1311778573
 21
848.4240392729
  0
LINE
  5
553
100
AcDbEntity
  8
H_EXTERN_HANDLE
100
AcDbLine
 62
7
  6
CONTINUOUS
 10
817.9897551121
 20
897.2343479559
 11
817.9897551121
 21
895.6229196114
  0
LINE
  5
554
100
AcDbEntity
  8
H_EXTERN_HANDLE
100
AcDbLine
 62
7
  6
CONTINUOUS
 10
817.9897551121
 20
272.2495437095
 11
817.9897551121
 21
284.2495437095
  0
LINE
  5
555
100
AcDbEntity
  8
H_EXTERN_HANDLE
100
AcDbLine
 62
7
  6
CONTINUOUS
 10
818.9897551121
 20
895.7343479559
 11
818.9897551121
 21
896.5503953223
  0
LINE
  5
556
100
AcDbEntity
  8
BASIC_DEVICE
100
AcDbLine
 62
7
  6
CONTINUOUS
 10
819.9897551121
 20
733.2343479559
 11
819.9897551121
 21
679.2343479559
  0
LINE
  5
557
100
AcDbEntity
  8
BASIC_DEVICE
100
AcDbLine
 62
7
  6
CONTINUOUS
 10
819.9897551121
 20
350.2495437096
 11
819.9897551121
 21
150.2495437096
  0
LINE
  5
558
100
AcDbEntity
  8
TERMINAL_SCREEN
100
AcDbLine
 62
2
  6
CONTINUOUS
 10
820.4813306843
 20
327.7502443144
 11
820.4813306843
 21
350.7502443144
  0
LINE
  5
559
100
AcDbEntity
  8
TERMINAL_SCREEN
100
AcDbLine
 62
2
  6
CONTINUOUS
 10
820.4813306843
 20
679.2343479559
 11
820.4813306843
 21
681.2343479559
  0
LINE
  5
55A
100
AcDbEntity
  8
H_EXTERN_HANDLE
100
AcDbLine
 62
7
  6
CONTINUOUS
 10
823.1311778573
 20
848.6481890095
 11
823.1311778573
 21
850.4205202718
  0
LINE
  5
55B
100
AcDbEntity
  8
H_EXTERN_HANDLE
100
AcDbLine
 62
7
  6
CONTINUOUS
 10
825.1223389357
 20
850.7190563802
 11
825.1223389357
 21
848.7225753813
  0
LINE
  5
55C
100
AcDbEntity
  8
AXIS
100
AcDbLine
 62
4
  6
CONTINUOUS
 10
828.4813306843
 20
630.2343479559
 11
828.4813306843
 21
643.2343479559
  0
LINE
  5
55D
100
AcDbEntity
  8
INTER_PHASE_SCHIELDS
100
AcDbLine
 62
5
  6
CONTINUOUS
 10
750.4813306886
 20
141.2495437095
 11
751.9813306886
 21
150.2495437095
  0
LINE
  5
55E
100
AcDbEntity
  8
H_EXTERN_HANDLE
100
AcDbLine
 62
3
  6
CONTINUOUS
 10
742.099898129
 20
250.6071562049
 11
738.2963337733
 21
242.4503861216
  0
LINE
  5
55F
100
AcDbEntity
  8
BASIC_DEVICE
100
AcDbLine
 62
7
  6
CONTINUOUS
 10
641.9586661988
 20
167.9995437095
 11
638.9275772856
 21
162.7495437095
  0
LINE
  5
560
100
AcDbEntity
  8
BASIC_DEVICE
100
AcDbLine
 62
7
  6
CONTINUOUS
 10
648.0208440253
 20
157.4995437095
 11
651.0519329386
 21
162.7495437095
  0
LINE
  5
561
100
AcDbEntity
  8
BASIC_DEVICE
100
AcDbLine
 62
7
  6
CONTINUOUS
 10
776.9813306843
 20
410.2495437095
 11
781.9813306843
 21
415.2495437095
  0
LINE
  5
562
100
AcDbEntity
  8
BASIC_DEVICE
100
AcDbLine
 62
7
  6
CONTINUOUS
 10
1000.9813306886
 20
593.2343479559
 11
976.4813306886
 21
593.2343479559
  0
LINE
  5
563
100
AcDbEntity
  8
BASIC_DEVICE
100
AcDbLine
 62
7
  6
CONTINUOUS
 10
533.4813306886
 20
593.2343479559
 11
508.9813306886
 21
593.2343479559
  0
LINE
  5
564
100
AcDbEntity
  8
BASIC_DEVICE
100
AcDbLine
 62
7
  6
CONTINUOUS
 10
976.4813306886
 20
595.2343479559
 11
533.4813306886
 21
595.2343479559
  0
LINE
  5
565
100
AcDbEntity
  8
INTER_PHASE_SCHIELDS
100
AcDbLine
 62
5
  6
CONTINUOUS
 10
624.9813306886
 20
595.2343479559
 11
631.9813306886
 21
595.2343479559
  0
LINE
  5
566
100
AcDbEntity
  8
INTER_PHASE_SCHIELDS
100
AcDbLine
 62
5
  6
CONTINUOUS
 10
744.9813306886
 20
595.2343479559
 11
751.9813306886
 21
595.2343479559
  0
LINE
  5
567
100
AcDbEntity
  8
INTER_PHASE_SCHIELDS
100
AcDbLine
 62
5
  6
CONTINUOUS
 10
864.9813306886
 20
595.2343479559
 11
871.9813306886
 21
595.2343479559
  0
LINE
  5
568
100
AcDbEntity
  8
INTER_PHASE_SCHIELDS
100
AcDbLine
 62
5
  6
CONTINUOUS
 10
871.9813306886
 20
597.2343479559
 11
869.4813306886
 21
597.2343479559
  0
LINE
  5
569
100
AcDbEntity
  8
INTER_PHASE_SCHIELDS
100
AcDbLine
 62
5
  6
CONTINUOUS
 10
867.4813306886
 20
597.2343479559
 11
864.9813306886
 21
597.2343479559
  0
LINE
  5
56A
100
AcDbEntity
  8
INTER_PHASE_SCHIELDS
100
AcDbLine
 62
5
  6
CONTINUOUS
 10
751.9813306886
 20
597.2343479559
 11
749.4813306886
 21
597.2343479559
  0
LINE
  5
56B
100
AcDbEntity
  8
INTER_PHASE_SCHIELDS
100
AcDbLine
 62
5
  6
CONTINUOUS
 10
747.4813306886
 20
597.2343479559
 11
744.9813306886
 21
597.2343479559
  0
LINE
  5
56C
100
AcDbEntity
  8
INTER_PHASE_SCHIELDS
100
AcDbLine
 62
5
  6
CONTINUOUS
 10
631.9813306886
 20
597.2343479559
 11
629.4813306886
 21
597.2343479559
  0
LINE
  5
56D
100
AcDbEntity
  8
INTER_PHASE_SCHIELDS
100
AcDbLine
 62
5
  6
CONTINUOUS
 10
627.4813306886
 20
597.2343479559
 11
624.9813306886
 21
597.2343479559
  0
LINE
  5
56E
100
AcDbEntity
  8
INTER_PHASE_SCHIELDS
100
AcDbLine
 62
5
  6
CONTINUOUS
 10
627.4813306886
 20
601.2343479559
 11
629.4813306886
 21
601.2343479559
  0
LINE
  5
56F
100
AcDbEntity
  8
INTER_PHASE_SCHIELDS
100
AcDbLine
 62
5
  6
CONTINUOUS
 10
747.4813306886
 20
601.2343479559
 11
749.4813306886
 21
601.2343479559
  0
LINE
  5
570
100
AcDbEntity
  8
INTER_PHASE_SCHIELDS
100
AcDbLine
 62
5
  6
CONTINUOUS
 10
867.4813306886
 20
601.2343479559
 11
869.4813306886
 21
601.2343479559
  0
LINE
  5
571
100
AcDbEntity
  8
INTER_PHASE_SCHIELDS
100
AcDbLine
 62
5
  6
CONTINUOUS
 10
626.4813306886
 20
605.7343479559
 11
627.4813306886
 21
605.7343479559
  0
LINE
  5
572
100
AcDbEntity
  8
INTER_PHASE_SCHIELDS
100
AcDbLine
 62
5
  6
CONTINUOUS
 10
629.4813306886
 20
605.7343479559
 11
630.4813306886
 21
605.7343479559
  0
LINE
  5
573
100
AcDbEntity
  8
INTER_PHASE_SCHIELDS
100
AcDbLine
 62
5
  6
CONTINUOUS
 10
746.4813306886
 20
605.7343479559
 11
747.4813306886
 21
605.7343479559
  0
LINE
  5
574
100
AcDbEntity
  8
INTER_PHASE_SCHIELDS
100
AcDbLine
 62
5
  6
CONTINUOUS
 10
749.4813306886
 20
605.7343479559
 11
750.4813306886
 21
605.7343479559
  0
LINE
  5
575
100
AcDbEntity
  8
INTER_PHASE_SCHIELDS
100
AcDbLine
 62
5
  6
CONTINUOUS
 10
866.4813306886
 20
605.7343479559
 11
867.4813306886
 21
605.7343479559
  0
LINE
  5
576
100
AcDbEntity
  8
INTER_PHASE_SCHIELDS
100
AcDbLine
 62
5
  6
CONTINUOUS
 10
869.4813306886
 20
605.7343479559
 11
870.4813306886
 21
605.7343479559
  0
LINE
  5
577
100
AcDbEntity
  8
BASIC_DEVICE
100
AcDbLine
 62
7
  6
CONTINUOUS
 10
985.4502417753
 20
177.4995437095
 11
982.4191528621
 21
182.7495437095
  0
LINE
  5
578
100
AcDbEntity
  8
BASIC_DEVICE
100
AcDbLine
 62
7
  6
CONTINUOUS
 10
991.5124196018
 20
187.9995437095
 11
994.5435085151
 21
182.7495437095
  0
LINE
  5
579
100
AcDbEntity
  8
INTER_PHASE_SCHIELDS
100
AcDbLine
 62
5
  6
CONTINUOUS
 10
864.9813306886
 20
150.2495437095
 11
866.4813306886
 21
141.2495437095
  0
LINE
  5
57A
100
AcDbEntity
  8
H_EXTERN_HANDLE
100
AcDbLine
 62
7
  6
CONTINUOUS
 10
831.1223389357
 20
848.9467251179
 11
831.1223389357
 21
850.7190563802
  0
LINE
  5
57B
100
AcDbEntity
  8
H_EXTERN_HANDLE
100
AcDbLine
 62
7
  6
CONTINUOUS
 10
833.1135000141
 20
851.0175924886
 11
833.1135000141
 21
849.0211114898
  0
LINE
  5
57C
100
AcDbEntity
  8
H_EXTERN_HANDLE
100
AcDbLine
 62
7
  6
CONTINUOUS
 10
839.1135000141
 20
849.2452612263
 11
839.1135000141
 21
851.0175924886
  0
LINE
  5
57D
100
AcDbEntity
  8
BASIC_DEVICE
100
AcDbLine
 62
7
  6
CONTINUOUS
 10
839.9813306843
 20
640.2343479559
 11
839.9813306843
 21
633.2343479559
  0
LINE
  5
57E
100
AcDbEntity
  8
BASIC_DEVICE
100
AcDbLine
 62
7
  6
CONTINUOUS
 10
839.9813306843
 20
410.2495437095
 11
839.9813306843
 21
350.2486687095
  0
LINE
  5
57F
100
AcDbEntity
  8
BASIC_DEVICE
100
AcDbLine
 62
7
  6
CONTINUOUS
 10
839.9813306843
 20
90.2495437095
 11
839.9813306843
 21
150.2504187095
  0
LINE
  5
580
100
AcDbEntity
  8
H_EXTERN_HANDLE
100
AcDbLine
 62
7
  6
CONTINUOUS
 10
841.1046610926
 20
851.316128597
 11
841.1046610926
 21
849.3196475982
  0
LINE
  5
581
100
AcDbEntity
  8
H_EXTERN_HANDLE
100
AcDbLine
 62
7
  6
CONTINUOUS
 10
847.1046610926
 20
849.5437973347
 11
847.1046610926
 21
851.316128597
  0
LINE
  5
582
100
AcDbEntity
  8
H_EXTERN_HANDLE
100
AcDbLine
 62
7
  6
CONTINUOUS
 10
849.095822171
 20
851.6146647054
 11
849.095822171
 21
849.6181837066
  0
LINE
  5
583
100
AcDbEntity
  8
H_EXTERN_HANDLE
100
AcDbLine
 62
7
  6
CONTINUOUS
 10
855.095822171
 20
849.8423334431
 11
855.095822171
 21
851.6146647054
  0
LINE
  5
584
100
AcDbEntity
  8
H_EXTERN_HANDLE
100
AcDbLine
 62
7
  6
CONTINUOUS
 10
857.0869832494
 20
851.9132008139
 11
857.0869832494
 21
849.916719815
  0
LINE
  5
585
100
AcDbEntity
  8
H_EXTERN_HANDLE
100
AcDbLine
 62
7
  6
CONTINUOUS
 10
863.0869832494
 20
850.1408695515
 11
863.0869832494
 21
851.9132008139
  0
LINE
  5
586
100
AcDbEntity
  8
INTER_PHASE_SCHIELDS
100
AcDbLine
 62
5
  6
CONTINUOUS
 10
864.9813306886
 20
597.2343479559
 11
864.9813306886
 21
595.2343479559
  0
LINE
  5
587
100
AcDbEntity
  8
H_EXTERN_HANDLE
100
AcDbLine
 62
7
  6
CONTINUOUS
 10
865.0781443278
 20
852.2117369223
 11
865.0781443278
 21
850.2152559234
  0
LINE
  5
588
100
AcDbEntity
  8
INTER_PHASE_SCHIELDS
100
AcDbLine
 62
5
  6
CONTINUOUS
 10
866.4813306886
 20
667.5343479559
 11
866.4813306886
 21
605.7343479559
  0
LINE
  5
589
100
AcDbEntity
  8
INTER_PHASE_SCHIELDS
100
AcDbLine
 62
5
  6
CONTINUOUS
 10
866.4813306886
 20
149.7495437095
 11
866.4813306886
 21
90.4495437095
  0
LINE
  5
58A
100
AcDbEntity
  8
INTER_PHASE_SCHIELDS
100
AcDbLine
 62
5
  6
CONTINUOUS
 10
866.4813306886
 20
350.7495437095
 11
866.4813306886
 21
410.0495437095
  0
LINE
  5
58B
100
AcDbEntity
  8
INTER_PHASE_SCHIELDS
100
AcDbLine
 62
5
  6
CONTINUOUS
 10
867.4813306886
 20
160.4495437095
 11
867.4813306886
 21
84.4495437095
  0
LINE
  5
58C
100
AcDbEntity
  8
INTER_PHASE_SCHIELDS
100
AcDbLine
 62
5
  6
CONTINUOUS
 10
867.4813306886
 20
340.0495437095
 11
867.4813306886
 21
416.0495437095
  0
LINE
  5
58D
100
AcDbEntity
  8
INTER_PHASE_SCHIELDS
100
AcDbLine
 62
5
  6
CONTINUOUS
 10
867.4813306886
 20
595.2343479559
 11
867.4813306886
 21
677.9343479559
  0
LINE
  5
58E
100
AcDbEntity
  8
INTER_PHASE_SCHIELDS
100
AcDbLine
 62
5
  6
CONTINUOUS
 10
869.4813306886
 20
677.9343479559
 11
869.4813306886
 21
595.2343479559
  0
LINE
  5
58F
100
AcDbEntity
  8
INTER_PHASE_SCHIELDS
100
AcDbLine
 62
5
  6
CONTINUOUS
 10
869.4813306886
 20
84.4495437095
 11
869.4813306886
 21
160.4495437095
  0
LINE
  5
590
100
AcDbEntity
  8
INTER_PHASE_SCHIELDS
100
AcDbLine
 62
5
  6
CONTINUOUS
 10
869.4813306886
 20
340.0495437095
 11
869.4813306886
 21
416.0495437095
  0
LINE
  5
591
100
AcDbEntity
  8
INTER_PHASE_SCHIELDS
100
AcDbLine
 62
5
  6
CONTINUOUS
 10
870.4813306886
 20
149.7495437095
 11
870.4813306886
 21
90.4495437095
  0
LINE
  5
592
100
AcDbEntity
  8
INTER_PHASE_SCHIELDS
100
AcDbLine
 62
5
  6
CONTINUOUS
 10
870.4813306886
 20
350.7495437095
 11
870.4813306886
 21
410.0495437095
  0
LINE
  5
593
100
AcDbEntity
  8
INTER_PHASE_SCHIELDS
100
AcDbLine
 62
5
  6
CONTINUOUS
 10
870.4813306886
 20
605.7343479559
 11
870.4813306886
 21
667.5343479559
  0
LINE
  5
594
100
AcDbEntity
  8
H_EXTERN_HANDLE
100
AcDbLine
 62
7
  6
CONTINUOUS
 10
871.0781443278
 20
850.4394056599
 11
871.0781443278
 21
852.2117369223
  0
LINE
  5
595
100
AcDbEntity
  8
INTER_PHASE_SCHIELDS
100
AcDbLine
 62
5
  6
CONTINUOUS
 10
871.9813306886
 20
595.2343479559
 11
871.9813306886
 21
597.2343479559
  0
LINE
  5
596
100
AcDbEntity
  8
H_EXTERN_HANDLE
100
AcDbLine
 62
7
  6
CONTINUOUS
 10
873.0693054063
 20
852.5102730307
 11
873.0693054063
 21
850.5137920318
  0
LINE
  5
597
100
AcDbEntity
  8
AM_12
100
AcDbLine
 62
4
  6
CONTINUOUS
 10
865.7864584471
 20
411.4401938225
 11
869.2864584471
 21
414.9401938225
  0
LINE
  5
598
100
AcDbEntity
  8
BASIC_DEVICE
100
AcDbLine
 62
7
  6
CONTINUOUS
 10
896.9813306843
 20
410.2495437095
 11
901.9813306843
 21
415.2495437095
  0
LINE
  5
599
100
AcDbEntity
  8
BASIC_DEVICE
100
AcDbLine
 62
1
  6
CONTINUOUS
 10
745.7865566293
 20
290.8456199909
 11
730.755181829
 21
278.2327989399
  0
LINE
  5
59A
100
AcDbEntity
  8
BASIC_DEVICE
100
AcDbLine
 62
7
  6
CONTINUOUS
 10
1000.9813306886
 20
618.2343479559
 11
978.4813306886
 21
618.2343479559
  0
LINE
  5
59B
100
AcDbEntity
  8
BASIC_DEVICE
100
AcDbLine
 62
7
  6
CONTINUOUS
 10
508.9813306886
 20
618.2343479559
 11
531.4813306886
 21
618.2343479559
  0
LINE
  5
59C
100
AcDbEntity
  8
BASIC_DEVICE
100
AcDbLine
 62
7
  6
CONTINUOUS
 10
959.9813306843
 20
633.2343479559
 11
896.9813306843
 21
633.2343479559
  0
LINE
  5
59D
100
AcDbEntity
  8
BASIC_DEVICE
100
AcDbLine
 62
7
  6
CONTINUOUS
 10
839.9813306843
 20
633.2343479559
 11
776.9813306843
 21
633.2343479559
  0
LINE
  5
59E
100
AcDbEntity
  8
BASIC_DEVICE
100
AcDbLine
 62
7
  6
CONTINUOUS
 10
719.9813306843
 20
633.2343479559
 11
656.9813306843
 21
633.2343479559
  0
LINE
  5
59F
100
AcDbEntity
  8
BASIC_DEVICE
100
AcDbLine
 62
7
  6
CONTINUOUS
 10
599.9813306843
 20
633.2343479559
 11
536.9813306843
 21
633.2343479559
  0
LINE
  5
5A0
100
AcDbEntity
  8
BASIC_DEVICE
100
AcDbLine
 62
7
  6
CONTINUOUS
 10
1000.9813306886
 20
640.2343479559
 11
508.9813306886
 21
640.2343479559
  0
LINE
  5
5A1
100
AcDbEntity
  8
BASIC_DEVICE
100
AcDbLine
 62
7
  6
CONTINUOUS
 10
954.9813306843
 20
415.2495437095
 11
959.9813306843
 21
410.2495437095
  0
LINE
  5
5A2
100
AcDbEntity
  8
BASIC_DEVICE
100
AcDbLine
 62
7
  6
CONTINUOUS
 10
985.4502417753
 20
312.4995437095
 11
982.4191528621
 21
317.7495437095
  0
LINE
  5
5A3
100
AcDbEntity
  8
INTER_PHASE_SCHIELDS
100
AcDbLine
 62
5
  6
CONTINUOUS
 10
870.4813306886
 20
359.2495437095
 11
871.9813306886
 21
350.2495437095
  0
LINE
  5
5A4
100
AcDbEntity
  8
H_EXTERN_HANDLE
100
AcDbLine
 62
7
  6
CONTINUOUS
 10
879.0693054063
 20
850.7379417684
 11
879.0693054063
 21
852.5102730307
  0
LINE
  5
5A5
100
AcDbEntity
  8
H_EXTERN_HANDLE
100
AcDbLine
 62
7
  6
CONTINUOUS
 10
881.0604664847
 20
852.8088091391
 11
881.0604664847
 21
850.8123281402
  0
LINE
  5
5A6
100
AcDbEntity
  8
H_EXTERN_HANDLE
100
AcDbLine
 62
7
  6
CONTINUOUS
 10
887.0604664847
 20
851.0364778768
 11
887.0604664847
 21
852.8088091391
  0
LINE
  5
5A7
100
AcDbEntity
  8
H_EXTERN_HANDLE
100
AcDbLine
 62
7
  6
CONTINUOUS
 10
889.0516275631
 20
853.1073452475
 11
889.0516275631
 21
851.1108642486
  0
LINE
  5
5A8
100
AcDbEntity
  8
BASIC_DEVICE
100
AcDbLine
 62
7
  6
CONTINUOUS
 10
891.9813306886
 20
241.2495437095
 11
891.9813306886
 21
259.2495437095
  0
LINE
  5
5A9
100
AcDbEntity
  8
BASIC_DEVICE
100
AcDbLine
 62
7
  6
CONTINUOUS
 10
894.9813306886
 20
256.2495437095
 11
894.9813306886
 21
244.2495437095
  0
LINE
  5
5AA
100
AcDbEntity
  8
H_EXTERN_HANDLE
100
AcDbLine
 62
7
  6
CONTINUOUS
 10
895.0516275631
 20
851.3350139852
 11
895.0516275631
 21
853.1073452475
  0
LINE
  5
5AB
100
AcDbEntity
  8
BASIC_DEVICE
100
AcDbLine
 62
7
  6
CONTINUOUS
 10
896.9813306843
 20
150.248457772
 11
896.9813306843
 21
90.2495437095
  0
LINE
  5
5AC
100
AcDbEntity
  8
BASIC_DEVICE
100
AcDbLine
 62
7
  6
CONTINUOUS
 10
896.9813306843
 20
350.250629647
 11
896.9813306843
 21
410.2495437095
  0
LINE
  5
5AD
100
AcDbEntity
  8
BASIC_DEVICE
100
AcDbLine
 62
7
  6
CONTINUOUS
 10
896.9813306843
 20
633.2343479559
 11
896.9813306843
 21
640.2343479559
  0
LINE
  5
5AE
100
AcDbEntity
  8
H_EXTERN_HANDLE
100
AcDbLine
 62
7
  6
CONTINUOUS
 10
897.0427886415
 20
853.4058813559
 11
897.0427886415
 21
851.409400357
  0
LINE
  5
5AF
100
AcDbEntity
  8
AXIS
100
AcDbLine
 62
4
  6
CONTINUOUS
 10
900.9813306843
 20
676.2343479559
 11
900.9813306843
 21
684.2343479559
  0
LINE
  5
5B0
100
AcDbEntity
  8
H_EXTERN_HANDLE
100
AcDbLine
 62
7
  6
CONTINUOUS
 10
903.0427886415
 20
851.6335500936
 11
903.0427886415
 21
853.4058813559
  0
LINE
  5
5B1
100
AcDbEntity
  8
H_EXTERN_HANDLE
100
AcDbLine
 62
7
  6
CONTINUOUS
 10
905.03394972
 20
853.7044174643
 11
905.03394972
 21
851.7079364655
  0
LINE
  5
5B2
100
AcDbEntity
  8
BASIC_DEVICE
100
AcDbLine
 62
7
  6
CONTINUOUS
 10
906.9813306886
 20
244.2495437095
 11
906.9813306886
 21
256.2495437095
  0
LINE
  5
5B3
100
AcDbEntity
  8
AXIS
100
AcDbLine
 62
4
  6
CONTINUOUS
 10
908.4813306843
 20
630.2343479559
 11
908.4813306843
 21
643.2343479559
  0
LINE
  5
5B4
100
AcDbEntity
  8
BASIC_DEVICE
100
AcDbLine
 62
7
  6
CONTINUOUS
 10
909.9813306886
 20
259.2495437095
 11
909.9813306886
 21
241.2495437095
  0
LINE
  5
5B5
100
AcDbEntity
  8
H_EXTERN_HANDLE
100
AcDbLine
 62
7
  6
CONTINUOUS
 10
911.03394972
 20
851.932086202
 11
911.03394972
 21
853.7044174643
  0
LINE
  5
5B6
100
AcDbEntity
  8
H_EXTERN_HANDLE
100
AcDbLine
 62
7
  6
CONTINUOUS
 10
913.0251107984
 20
854.0029535727
 11
913.0251107984
 21
852.0064725739
  0
LINE
  5
5B7
100
AcDbEntity
  8
H_EXTERN_HANDLE
100
AcDbLine
 62
7
  6
CONTINUOUS
 10
919.0251107984
 20
852.2306223104
 11
919.0251107984
 21
854.0029535727
  0
LINE
  5
5B8
100
AcDbEntity
  8
H_EXTERN_HANDLE
100
AcDbLine
 62
7
  6
CONTINUOUS
 10
921.0162718768
 20
854.3014896811
 11
921.0162718768
 21
852.3050086823
  0
LINE
  5
5B9
100
AcDbEntity
  8
INTER_PHASE_SCHIELDS
100
AcDbLine
 62
5
  6
CONTINUOUS
 10
864.9813306886
 20
350.2495437095
 11
866.4813306886
 21
359.2495437095
  0
LINE
  5
5BA
100
AcDbEntity
  8
INTER_PHASE_SCHIELDS
100
AcDbLine
 62
5
  6
CONTINUOUS
 10
870.4813306886
 20
141.2495437095
 11
871.9813306886
 21
150.2495437095
  0
LINE
  5
5BB
100
AcDbEntity
  8
BASIC_DEVICE
100
AcDbLine
 62
7
  6
CONTINUOUS
 10
856.9275772856
 20
337.7495437095
 11
859.9586661988
 21
342.9995437095
  0
LINE
  5
5BC
100
AcDbEntity
  8
BASIC_DEVICE
100
AcDbLine
 62
7
  6
CONTINUOUS
 10
869.0519329386
 20
337.7495437095
 11
866.0208440253
 21
332.4995437095
  0
LINE
  5
5BD
100
AcDbEntity
  8
BASIC_DEVICE
100
AcDbLine
 62
7
  6
CONTINUOUS
 10
594.9813306843
 20
85.2495437095
 11
599.9813306843
 21
90.2495437095
  0
LINE
  5
5BE
100
AcDbEntity
  8
AM_12
100
AcDbLine
 62
4
  6
CONTINUOUS
 10
625.7864584471
 20
85.5588935965
 11
629.2864584471
 21
89.0588935965
  0
LINE
  5
5BF
100
AcDbEntity
  8
AM_12
100
AcDbLine
 62
4
  6
CONTINUOUS
 10
831.5854432685
 20
287.0561270029
 11
835.0854432685
 21
290.5561270029
  0
LINE
  5
5C0
100
AcDbEntity
  8
INTER_PHASE_SCHIELDS
100
AcDbLine
 62
5
  6
CONTINUOUS
 10
870.4813306886
 20
667.5343479559
 11
869.4813306886
 21
667.5343479559
  0
LINE
  5
5C1
100
AcDbEntity
  8
INTER_PHASE_SCHIELDS
100
AcDbLine
 62
5
  6
CONTINUOUS
 10
867.4813306886
 20
667.5343479559
 11
866.4813306886
 21
667.5343479559
  0
LINE
  5
5C2
100
AcDbEntity
  8
INTER_PHASE_SCHIELDS
100
AcDbLine
 62
5
  6
CONTINUOUS
 10
750.4813306886
 20
667.5343479559
 11
749.4813306886
 21
667.5343479559
  0
LINE
  5
5C3
100
AcDbEntity
  8
INTER_PHASE_SCHIELDS
100
AcDbLine
 62
5
  6
CONTINUOUS
 10
747.4813306886
 20
667.5343479559
 11
746.4813306886
 21
667.5343479559
  0
LINE
  5
5C4
100
AcDbEntity
  8
INTER_PHASE_SCHIELDS
100
AcDbLine
 62
5
  6
CONTINUOUS
 10
630.4813306886
 20
667.5343479559
 11
629.4813306886
 21
667.5343479559
  0
LINE
  5
5C5
100
AcDbEntity
  8
INTER_PHASE_SCHIELDS
100
AcDbLine
 62
5
  6
CONTINUOUS
 10
627.4813306886
 20
667.5343479559
 11
626.4813306886
 21
667.5343479559
  0
LINE
  5
5C6
100
AcDbEntity
  8
INTER_PHASE_SCHIELDS
100
AcDbLine
 62
5
  6
CONTINUOUS
 10
627.4813306886
 20
671.9343479559
 11
629.4813306886
 21
671.9343479559
  0
LINE
  5
5C7
100
AcDbEntity
  8
INTER_PHASE_SCHIELDS
100
AcDbLine
 62
5
  6
CONTINUOUS
 10
747.4813306886
 20
671.9343479559
 11
749.4813306886
 21
671.9343479559
  0
LINE
  5
5C8
100
AcDbEntity
  8
INTER_PHASE_SCHIELDS
100
AcDbLine
 62
5
  6
CONTINUOUS
 10
867.4813306886
 20
671.9343479559
 11
869.4813306886
 21
671.9343479559
  0
LINE
  5
5C9
100
AcDbEntity
  8
INTER_PHASE_SCHIELDS
100
AcDbLine
 62
5
  6
CONTINUOUS
 10
627.4813306886
 20
677.9343479559
 11
629.4813306886
 21
677.9343479559
  0
LINE
  5
5CA
100
AcDbEntity
  8
INTER_PHASE_SCHIELDS
100
AcDbLine
 62
5
  6
CONTINUOUS
 10
747.4813306886
 20
677.9343479559
 11
749.4813306886
 21
677.9343479559
  0
LINE
  5
5CB
100
AcDbEntity
  8
INTER_PHASE_SCHIELDS
100
AcDbLine
 62
5
  6
CONTINUOUS
 10
867.4813306886
 20
677.9343479559
 11
869.4813306886
 21
677.9343479559
  0
LINE
  5
5CC
100
AcDbEntity
  8
TERMINAL_SCREEN
100
AcDbLine
 62
2
  6
CONTINUOUS
 10
508.9813306843
 20
679.2343479559
 11
1000.9813306843
 21
679.2343479559
  0
LINE
  5
5CD
100
AcDbEntity
  8
BASIC_DEVICE
100
AcDbLine
 62
7
  6
CONTINUOUS
 10
508.9813306886
 20
679.2343479559
 11
1000.9813306886
 21
679.2343479559
  0
LINE
  5
5CE
100
AcDbEntity
  8
TERMINAL_SCREEN
100
AcDbLine
 62
2
  6
CONTINUOUS
 10
508.9813306843
 20
681.2343479559
 11
1000.9813306843
 21
681.2343479559
  0
LINE
  5
5CF
100
AcDbEntity
  8
BASIC_DEVICE
100
AcDbLine
 62
7
  6
CONTINUOUS
 10
687.9897551121
 20
697.2343479559
 11
667.9897551121
 21
697.2343479559
  0
LINE
  5
5D0
100
AcDbEntity
  8
0
100
AcDbLine
 62
7
  6
CONTINUOUS
 10
358.8515847833
 20
697.6431876765
 11
37.129757133
 21
697.6431876765
  0
LINE
  5
5D1
100
AcDbEntity
  8
BASIC_DEVICE
100
AcDbLine
 62
1
  6
CONTINUOUS
 10
741.8876454392
 20
744.5343479559
 11
740.8876454392
 21
745.5343479559
  0
LINE
  5
5D2
100
AcDbEntity
  8
H_EXTERN_HANDLE
100
AcDbLine
 62
7
  6
CONTINUOUS
 10
742.099898129
 20
814.2343479559
 11
738.4947344148
 21
820.2343479559
  0
LINE
  5
5D3
100
AcDbEntity
  8
BASIC_DEVICE
100
AcDbLine
 62
7
  6
CONTINUOUS
 10
991.5124196018
 20
322.9995437095
 11
994.5435085151
 21
317.7495437095
  0
LINE
  5
5D4
100
AcDbEntity
  8
H_EXTERN_HANDLE
100
AcDbLine
 62
7
  6
CONTINUOUS
 10
927.0162718768
 20
852.5291584188
 11
927.0162718768
 21
854.3014896811
  0
LINE
  5
5D5
100
AcDbEntity
  8
H_EXTERN_HANDLE
100
AcDbLine
 62
7
  6
CONTINUOUS
 10
929.0074329552
 20
854.6000257896
 11
929.0074329552
 21
852.6035447907
  0
LINE
  5
5D6
100
AcDbEntity
  8
H_EXTERN_HANDLE
100
AcDbLine
 62
7
  6
CONTINUOUS
 10
935.0074329552
 20
852.8276945272
 11
935.0074329552
 21
854.6000257896
  0
LINE
  5
5D7
100
AcDbEntity
  8
H_EXTERN_HANDLE
100
AcDbLine
 62
7
  6
CONTINUOUS
 10
936.9985940337
 20
854.898561898
 11
936.9985940337
 21
852.9020808991
  0
LINE
  5
5D8
100
AcDbEntity
  8
H_EXTERN_HANDLE
100
AcDbLine
 62
7
  6
CONTINUOUS
 10
942.9985940337
 20
853.1262306356
 11
942.9985940337
 21
854.898561898
  0
LINE
  5
5D9
100
AcDbEntity
  8
H_EXTERN_HANDLE
100
AcDbLine
 62
7
  6
CONTINUOUS
 10
944.9897551121
 20
901.2343479559
 11
944.9897551121
 21
853.2006170075
  0
LINE
  5
5DA
100
AcDbEntity
  8
H_EXTERN_HANDLE
100
AcDbLine
 62
7
  6
CONTINUOUS
 10
944.9897551121
 20
268.7495437095
 11
944.9897551121
 21
287.7495437095
  0
LINE
  5
5DB
100
AcDbEntity
  8
AXIS
100
AcDbLine
 62
4
  6
CONTINUOUS
 10
948.4813306843
 20
630.2343479559
 11
948.4813306843
 21
643.2343479559
  0
LINE
  5
5DC
100
AcDbEntity
  8
BASIC_DEVICE
100
AcDbLine
 62
7
  6
CONTINUOUS
 10
959.9813306843
 20
640.2343479559
 11
959.9813306843
 21
633.2343479559
  0
LINE
  5
5DD
100
AcDbEntity
  8
BASIC_DEVICE
100
AcDbLine
 62
7
  6
CONTINUOUS
 10
959.9813306843
 20
410.2495437095
 11
959.9813306843
 21
350.2486687095
  0
LINE
  5
5DE
100
AcDbEntity
  8
BASIC_DEVICE
100
AcDbLine
 62
7
  6
CONTINUOUS
 10
959.9813306843
 20
90.2495437095
 11
959.9813306843
 21
150.2504187095
  0
LINE
  5
5DF
100
AcDbEntity
  8
0
100
AcDbLine
 62
1
  6
CONTINUOUS
 10
37.129757133
 20
712.4181876765
 11
358.8515847833
 21
712.4181876765
  0
LINE
  5
5E0
100
AcDbEntity
  8
0
100
AcDbLine
 62
1
  6
CONTINUOUS
 10
37.129757133
 20
727.1931876765
 11
358.8515847833
 21
727.1931876765
  0
LINE
  5
5E1
100
AcDbEntity
  8
TERMINAL_SCREEN
100
AcDbLine
 62
2
  6
CONTINUOUS
 10
1000.9813306843
 20
731.2343479559
 11
508.9813306843
 21
731.2343479559
  0
LINE
  5
5E2
100
AcDbEntity
  8
BASIC_DEVICE
100
AcDbLine
 62
7
  6
CONTINUOUS
 10
689.9897551121
 20
733.2343479559
 11
819.9897551121
 21
733.2343479559
  0
LINE
  5
5E3
100
AcDbEntity
  8
BASIC_DEVICE
100
AcDbLine
 62
1
  6
CONTINUOUS
 10
730.7030721562
 20
735.2343479559
 11
739.5460589008
 21
735.2343479559
  0
LINE
  5
5E4
100
AcDbEntity
  8
BASIC_DEVICE
100
AcDbLine
 62
1
  6
CONTINUOUS
 10
730.7030721562
 20
736.3343479559
 11
739.5460589008
 21
736.3343479559
  0
LINE
  5
5E5
100
AcDbEntity
  8
BASIC_DEVICE
100
AcDbLine
 62
1
  6
CONTINUOUS
 10
739.5460589008
 20
737.4343479559
 11
770.4334513234
 21
737.4343479559
  0
LINE
  5
5E6
100
AcDbEntity
  8
0
100
AcDbLine
 62
1
  6
CONTINUOUS
 10
37.129757133
 20
741.9681876765
 11
358.8515847833
 21
741.9681876765
  0
LINE
  5
5E7
100
AcDbEntity
  8
BASIC_DEVICE
100
AcDbLine
 62
1
  6
CONTINUOUS
 10
740.8876454392
 20
745.5343479559
 11
737.7876454392
 21
745.5343479559
  0
LINE
  5
5E8
100
AcDbEntity
  8
BASIC_DEVICE
100
AcDbLine
 62
7
  6
CONTINUOUS
 10
976.4813306886
 20
593.2343479559
 11
976.4813306886
 21
595.2343479559
  0
LINE
  5
5E9
100
AcDbEntity
  8
BASIC_DEVICE
100
AcDbLine
 62
7
  6
CONTINUOUS
 10
978.4813306886
 20
350.2495437095
 11
978.4813306886
 21
337.7495437095
  0
LINE
  5
5EA
100
AcDbEntity
  8
BASIC_DEVICE
100
AcDbLine
 62
7
  6
CONTINUOUS
 10
978.4813306886
 20
150.2495437095
 11
978.4813306886
 21
162.7495437095
  0
LINE
  5
5EB
100
AcDbEntity
  8
BASIC_DEVICE
100
AcDbLine
 62
7
  6
CONTINUOUS
 10
978.4813306886
 20
618.2343479559
 11
978.4813306886
 21
679.2343479559
  0
LINE
  5
5EC
100
AcDbEntity
  8
AXIS
100
AcDbLine
 62
4
  6
CONTINUOUS
 10
988.4813306886
 20
155.2495437095
 11
988.4813306886
 21
170.2495437095
  0
LINE
  5
5ED
100
AcDbEntity
  8
AXIS
100
AcDbLine
 62
4
  6
CONTINUOUS
 10
988.4813306886
 20
330.2495437095
 11
988.4813306886
 21
345.2495437095
  0
LINE
  5
5EE
100
AcDbEntity
  8
BASIC_DEVICE
100
AcDbLine
 62
7
  6
CONTINUOUS
 10
1000.9813306886
 20
679.2343479559
 11
1000.9813306886
 21
593.2343479559
  0
LINE
  5
5EF
100
AcDbEntity
  8
TERMINAL_SCREEN
100
AcDbLine
 62
2
  6
CONTINUOUS
 10
1000.9813306843
 20
475.7502443144
 11
1000.9813306843
 21
327.7502443144
  0
LINE
  5
5F0
100
AcDbEntity
  8
BASIC_DEVICE
100
AcDbLine
 62
7
  6
CONTINUOUS
 10
1000.9813306886
 20
150.2495437095
 11
1000.9813306886
 21
350.2495437095
  0
LINE
  5
5F1
100
AcDbEntity
  8
TERMINAL_SCREEN
100
AcDbLine
 62
2
  6
CONTINUOUS
 10
1000.9813306843
 20
679.2343479559
 11
1000.9813306843
 21
731.2343479559
  0
LINE
  5
5F2
100
AcDbEntity
  8
BASIC_DEVICE
100
AcDbLine
 62
7
  6
CONTINUOUS
 10
856.9275772856
 20
162.7495437095
 11
859.9586661988
 21
167.9995437095
  0
LINE
  5
5F3
100
AcDbEntity
  8
BASIC_DEVICE
100
AcDbLine
 62
7
  6
CONTINUOUS
 10
869.0519329386
 20
162.7495437095
 11
866.0208440253
 21
157.4995437095
  0
LINE
  5
5F4
100
AcDbEntity
  8
BASIC_DEVICE
100
AcDbLine
 62
7
  6
CONTINUOUS
 10
982.4191528621
 20
317.7495437095
 11
985.4502417753
 21
322.9995437095
  0
LINE
  5
5F5
100
AcDbEntity
  8
BASIC_DEVICE
100
AcDbLine
 62
7
  6
CONTINUOUS
 10
714.9813306843
 20
85.2495437095
 11
719.9813306843
 21
90.2495437095
  0
LINE
  5
5F6
100
AcDbEntity
  8
BASIC_DEVICE
100
AcDbLine
 62
7
  6
CONTINUOUS
 10
891.9813306886
 20
241.2495437095
 11
894.9813306886
 21
244.2495437095
  0
LINE
  5
5F7
100
AcDbEntity
  8
BASIC_DEVICE
100
AcDbLine
 62
7
  6
CONTINUOUS
 10
906.9813306886
 20
256.2495437095
 11
909.9813306886
 21
259.2495437095
  0
LINE
  5
5F8
100
AcDbEntity
  8
AM_12
100
AcDbLine
 62
4
  6
CONTINUOUS
 10
745.7864584471
 20
85.5588935965
 11
749.2864584471
 21
89.0588935965
  0
LINE
  5
5F9
100
AcDbEntity
  8
0
100
AcDbLine
 62
1
  6
CONTINUOUS
 10
37.129757133
 20
756.7431876765
 11
358.8515847833
 21
756.7431876765
  0
LINE
  5
5FA
100
AcDbEntity
  8
BASIC_DEVICE
100
AcDbLine
 62
7
  6
CONTINUOUS
 10
747.4897551121
 20
759.2343479559
 11
762.4897551121
 21
759.2343479559
  0
LINE
  5
5FB
100
AcDbEntity
  8
0
100
AcDbLine
 62
7
  6
CONTINUOUS
 10
37.129757133
 20
771.5181876765
 11
358.8515847833
 21
771.5181876765
  0
LINE
  5
5FC
100
AcDbEntity
  8
BASIC_DEVICE
100
AcDbLine
 62
7
  6
CONTINUOUS
 10
994.5435085151
 20
317.7495437095
 11
991.5124196018
 21
312.4995437095
  0
LINE
  5
5FD
100
AcDbEntity
  8
BASIC_DEVICE
100
AcDbLine
 62
7
  6
CONTINUOUS
 10
834.9813306843
 20
85.2495437095
 11
839.9813306843
 21
90.2495437095
  0
LINE
  5
5FE
100
AcDbEntity
  8
H_EXTERN_HANDLE
100
AcDbLine
 62
7
  6
CONTINUOUS
 10
944.9897551121
 20
853.2006170075
 11
942.9985940337
 21
853.1262306356
  0
LINE
  5
5FF
100
AcDbEntity
  8
H_EXTERN_HANDLE
100
AcDbLine
 62
7
  6
CONTINUOUS
 10
936.9985940337
 20
852.9020808991
 11
935.0074329552
 21
852.8276945272
  0
LINE
  5
600
100
AcDbEntity
  8
H_EXTERN_HANDLE
100
AcDbLine
 62
7
  6
CONTINUOUS
 10
929.0074329552
 20
852.6035447907
 11
927.0162718768
 21
852.5291584188
  0
LINE
  5
601
100
AcDbEntity
  8
H_EXTERN_HANDLE
100
AcDbLine
 62
7
  6
CONTINUOUS
 10
921.0162718768
 20
852.3050086823
 11
919.0251107984
 21
852.2306223104
  0
LINE
  5
602
100
AcDbEntity
  8
H_EXTERN_HANDLE
100
AcDbLine
 62
7
  6
CONTINUOUS
 10
913.0251107984
 20
852.0064725739
 11
911.03394972
 21
851.932086202
  0
LINE
  5
603
100
AcDbEntity
  8
H_EXTERN_HANDLE
100
AcDbLine
 62
7
  6
CONTINUOUS
 10
905.03394972
 20
851.7079364655
 11
903.0427886415
 21
851.6335500936
  0
LINE
  5
604
100
AcDbEntity
  8
H_EXTERN_HANDLE
100
AcDbLine
 62
7
  6
CONTINUOUS
 10
897.0427886415
 20
851.409400357
 11
895.0516275631
 21
851.3350139852
  0
LINE
  5
605
100
AcDbEntity
  8
H_EXTERN_HANDLE
100
AcDbLine
 62
7
  6
CONTINUOUS
 10
889.0516275631
 20
851.1108642486
 11
887.0604664847
 21
851.0364778768
  0
LINE
  5
606
100
AcDbEntity
  8
H_EXTERN_HANDLE
100
AcDbLine
 62
7
  6
CONTINUOUS
 10
881.0604664847
 20
850.8123281402
 11
879.0693054063
 21
850.7379417684
  0
LINE
  5
607
100
AcDbEntity
  8
H_EXTERN_HANDLE
100
AcDbLine
 62
7
  6
CONTINUOUS
 10
873.0693054063
 20
850.5137920318
 11
871.0781443278
 21
850.4394056599
  0
LINE
  5
608
100
AcDbEntity
  8
H_EXTERN_HANDLE
100
AcDbLine
 62
7
  6
CONTINUOUS
 10
865.0781443278
 20
850.2152559234
 11
863.0869832494
 21
850.1408695515
  0
LINE
  5
609
100
AcDbEntity
  8
H_EXTERN_HANDLE
100
AcDbLine
 62
7
  6
CONTINUOUS
 10
857.0869832494
 20
849.916719815
 11
855.095822171
 21
849.8423334431
  0
LINE
  5
60A
100
AcDbEntity
  8
H_EXTERN_HANDLE
100
AcDbLine
 62
7
  6
CONTINUOUS
 10
849.095822171
 20
849.6181837066
 11
847.1046610926
 21
849.5437973347
  0
LINE
  5
60B
100
AcDbEntity
  8
H_EXTERN_HANDLE
100
AcDbLine
 62
7
  6
CONTINUOUS
 10
841.1046610926
 20
849.3196475982
 11
839.1135000141
 21
849.2452612263
  0
LINE
  5
60C
100
AcDbEntity
  8
H_EXTERN_HANDLE
100
AcDbLine
 62
7
  6
CONTINUOUS
 10
833.1135000141
 20
849.0211114898
 11
831.1223389357
 21
848.9467251179
  0
LINE
  5
60D
100
AcDbEntity
  8
H_EXTERN_HANDLE
100
AcDbLine
 62
7
  6
CONTINUOUS
 10
825.1223389357
 20
848.7225753813
 11
823.1311778573
 21
848.6481890095
  0
LINE
  5
60E
100
AcDbEntity
  8
H_EXTERN_HANDLE
100
AcDbLine
 62
7
  6
CONTINUOUS
 10
817.1311778573
 20
848.4240392729
 11
815.1400167789
 21
848.3496529011
  0
LINE
  5
60F
100
AcDbEntity
  8
H_EXTERN_HANDLE
100
AcDbLine
 62
7
  6
CONTINUOUS
 10
809.1400167789
 20
848.1255031645
 11
807.1488557004
 21
848.0511167927
  0
LINE
  5
610
100
AcDbEntity
  8
H_EXTERN_HANDLE
100
AcDbLine
 62
7
  6
CONTINUOUS
 10
801.1488557004
 20
847.8269670561
 11
799.157694622
 21
847.7525806842
  0
LINE
  5
611
100
AcDbEntity
  8
H_EXTERN_HANDLE
100
AcDbLine
 62
7
  6
CONTINUOUS
 10
793.157694622
 20
847.5284309477
 11
791.9897551121
 21
847.4847987255
  0
LINE
  5
612
100
AcDbEntity
  8
H_EXTERN_HANDLE
100
AcDbLine
 62
7
  6
CONTINUOUS
 10
794.9897551121
 20
805.2343479559
 11
708.9897551121
 21
805.2343479559
  0
LINE
  5
613
100
AcDbEntity
  8
H_EXTERN_HANDLE
100
AcDbLine
 62
7
  6
CONTINUOUS
 10
794.9897551121
 20
814.2343479559
 11
742.099898129
 21
814.2343479559
  0
LINE
  5
614
100
AcDbEntity
  8
H_EXTERN_HANDLE
100
AcDbLine
 62
7
  6
CONTINUOUS
 10
708.9897551121
 20
820.2343479559
 11
788.9897551121
 21
820.2343479559
  0
LINE
  5
615
100
AcDbEntity
  8
H_MOVING
100
AcDbLine
 62
1
  6
CONTINUOUS
 10
724.9897551121
 20
820.2343479559
 11
784.9897551121
 21
820.2343479559
  0
LINE
  5
616
100
AcDbEntity
  8
H_EXTERN_HANDLE
100
AcDbLine
 62
7
  6
CONTINUOUS
 10
791.9897551121
 20
843.2343479559
 11
784.9897551121
 21
843.2343479559
  0
LINE
  5
617
100
AcDbEntity
  8
H_MOVING
100
AcDbLine
 62
1
  6
CONTINUOUS
 10
763.4897551121
 20
843.2343479559
 11
746.4897551121
 21
843.2343479559
  0
LINE
  5
618
100
AcDbEntity
  8
H_MOVING
100
AcDbLine
 62
1
  6
CONTINUOUS
 10
765.4897553902
 20
844.7343479559
 11
763.4897551121
 21
844.7343479559
  0
LINE
  5
619
100
AcDbEntity
  8
H_MOVING
100
AcDbLine
 62
1
  6
CONTINUOUS
 10
744.4897550303
 20
844.7343493301
 11
746.4897553084
 21
844.7343490683
  0
LINE
  5
61A
100
AcDbEntity
  8
H_MOVING
100
AcDbLine
 62
1
  6
CONTINUOUS
 10
730.7397551121
 20
846.2343479559
 11
724.9897551121
 21
846.2343479559
  0
LINE
  5
61B
100
AcDbEntity
  8
H_EXTERN_HANDLE
100
AcDbLine
 62
7
  6
CONTINUOUS
 10
724.9897551121
 20
846.2343479559
 11
708.9897551121
 21
846.2343479559
  0
LINE
  5
61C
100
AcDbEntity
  8
H_EXTERN_HANDLE
100
AcDbLine
 62
7
  6
CONTINUOUS
 10
736.9897551121
 20
846.2343479559
 11
772.9897551121
 21
846.2343479559
  0
LINE
  5
61D
100
AcDbEntity
  8
H_MOVING
100
AcDbLine
 62
1
  6
CONTINUOUS
 10
779.2397551121
 20
846.2343479559
 11
784.9897551121
 21
846.2343479559
  0
LINE
  5
61E
100
AcDbEntity
  8
H_EXTERN_HANDLE
100
AcDbLine
 62
7
  6
CONTINUOUS
 10
784.9897551121
 20
820.2343479559
 11
794.9897551121
 21
814.2343479559
  0
LINE
  5
61F
100
AcDbEntity
  8
H_EXTERN_HANDLE
100
AcDbLine
 62
7
  6
CONTINUOUS
 10
741.7973566605
 20
895.7343479559
 11
753.4897551121
 21
885.7343479559
  0
LINE
  5
620
100
AcDbEntity
  8
BASIC_DEVICE
100
AcDbLine
 62
7
  6
CONTINUOUS
 10
982.4191528621
 20
182.7495437095
 11
985.4502417753
 21
187.9995437095
  0
LINE
  5
621
100
AcDbEntity
  8
BASIC_DEVICE
100
AcDbLine
 62
7
  6
CONTINUOUS
 10
994.5435085151
 20
182.7495437095
 11
991.5124196018
 21
177.4995437095
  0
LINE
  5
622
100
AcDbEntity
  8
AM_12
100
AcDbLine
 62
4
  6
CONTINUOUS
 10
865.7864584471
 20
85.5588935965
 11
869.2864584471
 21
89.0588935965
  0
LINE
  5
623
100
AcDbEntity
  8
H_EXTERN_HANDLE
100
AcDbLine
 62
7
  6
CONTINUOUS
 10
783.0922461049
 20
891.7343479559
 11
818.9897551121
 21
895.7343479559
  0
LINE
  5
624
100
AcDbEntity
  8
H_EXTERN_HANDLE
100
AcDbLine
 62
7
  6
CONTINUOUS
 10
818.9897551121
 20
896.5503953223
 11
944.9897551121
 21
901.2343479559
  0
LINE
  5
625
100
AcDbEntity
  8
H_EXTERN_HANDLE
100
AcDbLine
 62
7
  6
CONTINUOUS
 10
717.489755112
 20
856.734347956
 11
708.9897551121
 21
856.734347956
  0
LINE
  5
626
100
AcDbEntity
  8
H_EXTERN_HANDLE
100
AcDbLine
 62
7
  6
CONTINUOUS
 10
708.9897551121
 20
881.7343479559
 11
717.4897551121
 21
881.7343479559
  0
LINE
  5
627
100
AcDbEntity
  8
H_EXTERN_HANDLE
100
AcDbLine
 62
7
  6
CONTINUOUS
 10
726.8872641193
 20
885.7343479559
 11
783.0922461049
 21
885.7343479559
  0
LINE
  5
628
100
AcDbEntity
  8
H_EXTERN_HANDLE
100
AcDbLine
 62
7
  6
CONTINUOUS
 10
708.9897551121
 20
891.7343479559
 11
726.8872641193
 21
891.7343479559
  0
LINE
  5
629
100
AcDbEntity
  8
H_MOVING
100
AcDbLine
 62
1
  6
CONTINUOUS
 10
769.2397551121
 20
895.7343479559
 11
763.281317088
 21
895.7343479559
  0
LINE
  5
62A
100
AcDbEntity
  8
H_EXTERN_HANDLE
100
AcDbLine
 62
7
  6
CONTINUOUS
 10
782.5922461049
 20
895.7343479559
 11
727.3872641193
 21
895.7343479559
  0
LINE
  5
62B
100
AcDbEntity
  8
H_MOVING
100
AcDbLine
 62
1
  6
CONTINUOUS
 10
740.7397551121
 20
895.7343479559
 11
746.6981931362
 21
895.7343479559
  0
LINE
  5
62C
100
AcDbEntity
  8
H_MOVING
100
AcDbLine
 62
1
  6
CONTINUOUS
 10
765.2397551121
 20
897.2343479559
 11
762.4730698856
 21
897.2343479559
  0
LINE
  5
62D
100
AcDbEntity
  8
H_MOVING
100
AcDbLine
 62
1
  6
CONTINUOUS
 10
747.5064403385
 20
897.2343479559
 11
744.7397551121
 21
897.2343479559
  0
LINE
  5
62E
100
AcDbEntity
  8
H_EXTERN_HANDLE
100
AcDbLine
 62
7
  6
CONTINUOUS
 10
708.9897551121
 20
897.2343479559
 11
817.9897551121
 21
897.2343479559
  0
LINE
  5
62F
100
AcDbEntity
  8
BASIC_DEVICE
100
AcDbLine
 62
7
  6
CONTINUOUS
 10
954.9813306843
 20
85.2495437095
 11
959.9813306843
 21
90.2495437095
  0
LINE
  5
630
100
AcDbEntity
  8
0
100
AcDbLine
 62
7
  6
CONTINUOUS
 10
0.0
 20
930.0767541345
 11
1362.6671693775
 21
930.0767541345
  0
LINE
  5
631
100
AcDbEntity
  8
0
100
AcDbLine
 62
7
  6
CONTINUOUS
 10
0.0
 20
930.0767541345
 11
1362.6671693775
 21
930.0767541345
  0
LINE
  5
632
100
AcDbEntity
  8
HANDLE_FIXING_HOLES
100
AcDbLine
 62
4
  6
CONTINUOUS
 10
1184.3943541394
 20
271.1576141906
 11
1184.3943541394
 21
285.3414732285
  0
LINE
  5
633
100
AcDbEntity
  8
HANDLE_FIXING_HOLES
100
AcDbLine
 62
4
  6
CONTINUOUS
 10
1209.3943541394
 20
245.8025402087
 11
1209.3943541394
 21
311.1781411147
  0
LINE
  5
634
100
AcDbEntity
  8
HANDLE_FIXING_HOLES
100
AcDbLine
 62
4
  6
CONTINUOUS
 10
1234.3943541394
 20
271.4583102303
 11
1234.3943541394
 21
285.0407771888
  0
LINE
  5
635
100
AcDbEntity
  8
0
100
AcDbLine
 62
7
  6
CONTINUOUS
 10
1362.6671693775
 20
0.0
 11
1362.6671693775
 21
930.0767541345
  0
LINE
  5
636
100
AcDbEntity
  8
0
100
AcDbLine
 62
7
  6
CONTINUOUS
 10
1362.6671693775
 20
0.0
 11
1362.6671693775
 21
930.0767541345
  0
ARC
  5
637
100
AcDbEntity
  8
H_EXTERN_HANDLE
100
AcDbCircle
 62
7
  6
CONTINUOUS
 10
122.0149688585
 20
278.2495437096
 40
10.5
100
AcDbArc
 50
267.4898603379
 51
92.5101405927
  0
ARC
  5
638
100
AcDbEntity
  8
H_EXTERN_HANDLE
100
AcDbCircle
 62
7
  6
CONTINUOUS
 10
116.5389781437
 20
278.2495436651
 40
10.2601724327
100
AcDbArc
 50
267.4898603379
 51
92.5101405927
  0
ARC
  5
639
100
AcDbEntity
  8
H_EXTERN_HANDLE
100
AcDbCircle
 62
7
  6
CONTINUOUS
 10
123.765419628
 20
253.9995434314
 40
10.0
100
AcDbArc
 50
0.0
 51
90.0
  0
ARC
  5
63A
100
AcDbEntity
  8
H_EXTERN_HANDLE
100
AcDbCircle
 62
7
  6
CONTINUOUS
 10
94.265419628
 20
273.9995434314
 40
10.0
100
AcDbArc
 50
206.1155560628
 51
270.0
  0
ARC
  5
63B
100
AcDbEntity
  8
H_EXTERN_HANDLE
100
AcDbCircle
 62
7
  6
CONTINUOUS
 10
87.765419628
 20
278.2495434314
 40
9.0
100
AcDbArc
 50
92.5101405927
 51
267.4898603379
  0
ARC
  5
63C
100
AcDbEntity
  8
H_MOVING
100
AcDbCircle
 62
1
  6
CONTINUOUS
 10
125.101205686
 20
93.2407045099
 40
3.0
100
AcDbArc
 50
90.0
 51
270.0
  0
ARC
  5
63D
100
AcDbEntity
  8
H_MOVING
100
AcDbCircle
 62
1
  6
CONTINUOUS
 10
125.3997417944
 20
101.2318655883
 40
3.0
100
AcDbArc
 50
90.0
 51
270.0
  0
ARC
  5
63E
100
AcDbEntity
  8
H_MOVING
100
AcDbCircle
 62
1
  6
CONTINUOUS
 10
125.6982779028
 20
109.2230266667
 40
3.0
100
AcDbArc
 50
90.0
 51
270.0
  0
ARC
  5
63F
100
AcDbEntity
  8
H_MOVING
100
AcDbCircle
 62
1
  6
CONTINUOUS
 10
125.9968140112
 20
117.2141877451
 40
3.0
100
AcDbArc
 50
90.0
 51
270.0
  0
ARC
  5
640
100
AcDbEntity
  8
H_MOVING
100
AcDbCircle
 62
1
  6
CONTINUOUS
 10
126.2953501196
 20
125.2053488236
 40
3.0
100
AcDbArc
 50
90.0
 51
270.0
  0
ARC
  5
641
100
AcDbEntity
  8
H_MOVING
100
AcDbCircle
 62
1
  6
CONTINUOUS
 10
126.593886228
 20
133.196509902
 40
3.0
100
AcDbArc
 50
90.0
 51
270.0
  0
ARC
  5
642
100
AcDbEntity
  8
H_MOVING
100
AcDbCircle
 62
1
  6
CONTINUOUS
 10
126.8924223365
 20
141.1876709804
 40
3.0
100
AcDbArc
 50
90.0
 51
270.0
  0
ARC
  5
643
100
AcDbEntity
  8
H_MOVING
100
AcDbCircle
 62
1
  6
CONTINUOUS
 10
127.1909584449
 20
149.1788320588
 40
3.0
100
AcDbArc
 50
90.0
 51
270.0
  0
ARC
  5
644
100
AcDbEntity
  8
H_MOVING
100
AcDbCircle
 62
1
  6
CONTINUOUS
 10
127.4894945533
 20
157.1699931373
 40
3.0
100
AcDbArc
 50
90.0
 51
270.0
  0
ARC
  5
645
100
AcDbEntity
  8
H_MOVING
100
AcDbCircle
 62
1
  6
CONTINUOUS
 10
127.7880306617
 20
165.1611542157
 40
3.0
100
AcDbArc
 50
90.0
 51
270.0
  0
ARC
  5
646
100
AcDbEntity
  8
H_MOVING
100
AcDbCircle
 62
1
  6
CONTINUOUS
 10
128.0865667701
 20
173.1523152941
 40
3.0
100
AcDbArc
 50
90.0
 51
270.0
  0
ARC
  5
647
100
AcDbEntity
  8
H_MOVING
100
AcDbCircle
 62
1
  6
CONTINUOUS
 10
128.3851028785
 20
181.1434763725
 40
3.0
100
AcDbArc
 50
90.0
 51
270.0
  0
ARC
  5
648
100
AcDbEntity
  8
H_MOVING
100
AcDbCircle
 62
1
  6
CONTINUOUS
 10
128.6836389869
 20
189.134637451
 40
3.0
100
AcDbArc
 50
90.0
 51
270.0
  0
ARC
  5
649
100
AcDbEntity
  8
H_MOVING
100
AcDbCircle
 62
1
  6
CONTINUOUS
 10
128.9821750953
 20
197.1257985294
 40
3.0
100
AcDbArc
 50
90.0
 51
270.0
  0
ARC
  5
64A
100
AcDbEntity
  8
H_MOVING
100
AcDbCircle
 62
1
  6
CONTINUOUS
 10
129.2807112037
 20
205.1169596078
 40
3.0
100
AcDbArc
 50
90.0
 51
270.0
  0
ARC
  5
64B
100
AcDbEntity
  8
H_MOVING
100
AcDbCircle
 62
1
  6
CONTINUOUS
 10
129.5792473122
 20
213.1081206862
 40
3.0
100
AcDbArc
 50
168.6984117818
 51
270.0
  0
ARC
  5
64C
100
AcDbEntity
  8
INTER_PHASE_SCHIELDS
100
AcDbCircle
 62
5
  6
CONTINUOUS
 10
315.465419628
 20
146.7495437095
 40
3.0
100
AcDbArc
 50
90.0
 51
180.0
  0
ARC
  5
64D
100
AcDbEntity
  8
INTER_PHASE_SCHIELDS
100
AcDbCircle
 62
5
  6
CONTINUOUS
 10
315.465419628
 20
93.4495437095
 40
3.0
100
AcDbArc
 50
180.0
 51
270.0
  0
ARC
  5
64E
100
AcDbEntity
  8
INTER_PHASE_SCHIELDS
100
AcDbCircle
 62
5
  6
CONTINUOUS
 10
309.415419628
 20
143.9495437095
 40
2.25
100
AcDbArc
 50
180.0
 51
360.0
  0
ARC
  5
64F
100
AcDbEntity
  8
INTER_PHASE_SCHIELDS
100
AcDbCircle
 62
5
  6
CONTINUOUS
 10
315.465419628
 20
146.7495437095
 40
1.0
100
AcDbArc
 50
90.0
 51
180.0
  0
ARC
  5
650
100
AcDbEntity
  8
INTER_PHASE_SCHIELDS
100
AcDbCircle
 62
5
  6
CONTINUOUS
 10
315.465419628
 20
93.4495437095
 40
1.0
100
AcDbArc
 50
180.0
 51
270.0
  0
ARC
  5
651
100
AcDbEntity
  8
H_EXTERN_HANDLE
100
AcDbCircle
 62
7
  6
CONTINUOUS
 10
94.265419628
 20
282.4995434314
 40
10.0
100
AcDbArc
 50
90.0
 51
153.8844439374
  0
ARC
  5
652
100
AcDbEntity
  8
H_EXTERN_HANDLE
100
AcDbCircle
 62
7
  6
CONTINUOUS
 10
123.765419628
 20
302.4995434314
 40
10.0
100
AcDbArc
 50
270.0
 51
360.0
  0
ARC
  5
653
100
AcDbEntity
  8
TERMINAL_SCREEN
100
AcDbCircle
 62
2
  6
CONTINUOUS
 10
255.765419628
 20
435.6490386461
 40
7.0
100
AcDbArc
 50
180.0
 51
225.0
  0
ARC
  5
654
100
AcDbEntity
  8
TERMINAL_SCREEN
100
AcDbCircle
 62
2
  6
CONTINUOUS
 10
293.765419628
 20
380.6784758977
 40
7.0
100
AcDbArc
 50
0.0
 51
45.0
  0
ARC
  5
655
100
AcDbEntity
  8
TERMINAL_SCREEN
100
AcDbCircle
 62
2
  6
CONTINUOUS
 10
293.765419628
 20
380.6784758977
 40
5.0
100
AcDbArc
 50
0.0
 51
45.0
  0
ARC
  5
656
100
AcDbEntity
  8
TERMINAL_SCREEN
100
AcDbCircle
 62
2
  6
CONTINUOUS
 10
255.765419628
 20
435.6490386461
 40
5.0
100
AcDbArc
 50
180.0
 51
225.0
  0
ARC
  5
657
100
AcDbEntity
  8
INTER_PHASE_SCHIELDS
100
AcDbCircle
 62
5
  6
CONTINUOUS
 10
315.465419628
 20
353.7495437095
 40
3.0
100
AcDbArc
 50
180.0
 51
270.0
  0
ARC
  5
658
100
AcDbEntity
  8
INTER_PHASE_SCHIELDS
100
AcDbCircle
 62
5
  6
CONTINUOUS
 10
315.465419628
 20
407.0495437095
 40
3.0
100
AcDbArc
 50
90.0
 51
180.0
  0
ARC
  5
659
100
AcDbEntity
  8
INTER_PHASE_SCHIELDS
100
AcDbCircle
 62
5
  6
CONTINUOUS
 10
309.415419628
 20
356.5495437095
 40
2.25
100
AcDbArc
 50
0.0
 51
180.0
  0
ARC
  5
65A
100
AcDbEntity
  8
INTER_PHASE_SCHIELDS
100
AcDbCircle
 62
5
  6
CONTINUOUS
 10
315.465419628
 20
353.7495437095
 40
1.0
100
AcDbArc
 50
180.0
 51
270.0
  0
ARC
  5
65B
100
AcDbEntity
  8
INTER_PHASE_SCHIELDS
100
AcDbCircle
 62
5
  6
CONTINUOUS
 10
315.465419628
 20
407.0495437095
 40
1.0
100
AcDbArc
 50
90.0
 51
180.0
  0
ARC
  5
65C
100
AcDbEntity
  8
BASIC_DEVICE
100
AcDbCircle
 62
7
  6
CONTINUOUS
 10
521.4813306843
 20
162.7502443144
 40
10.0
100
AcDbArc
 50
0.0
 51
90.0
  0
CIRCLE
  5
65D
100
AcDbEntity
  8
BASIC_DEVICE
100
AcDbCircle
 62
7
  6
CONTINUOUS
 10
521.4813306843
 20
182.7502443144
 40
6.5
  0
CIRCLE
  5
65E
100
AcDbEntity
  8
BASIC_DEVICE
100
AcDbCircle
 62
7
  6
CONTINUOUS
 10
644.9897551121
 20
162.7495437095
 40
6.5
  0
CIRCLE
  5
65F
100
AcDbEntity
  8
BASIC_DEVICE
100
AcDbCircle
 62
7
  6
CONTINUOUS
 10
548.4813306843
 20
125.2495437095
 40
5.5
  0
CIRCLE
  5
660
100
AcDbEntity
  8
BASIC_DEVICE
100
AcDbCircle
 62
7
  6
CONTINUOUS
 10
548.4813306843
 20
105.2495437095
 40
5.5
  0
CIRCLE
  5
661
100
AcDbEntity
  8
BASIC_DEVICE
100
AcDbCircle
 62
7
  6
CONTINUOUS
 10
588.4813306843
 20
125.2495437095
 40
5.5
  0
CIRCLE
  5
662
100
AcDbEntity
  8
BASIC_DEVICE
100
AcDbCircle
 62
7
  6
CONTINUOUS
 10
588.4813306843
 20
105.2495437095
 40
5.5
  0
CIRCLE
  5
663
100
AcDbEntity
  8
DEVICE_FIXING_HOLES
100
AcDbCircle
 62
1
  6
CONTINUOUS
 10
521.4813306843
 20
162.7502443144
 40
4.5
  0
CIRCLE
  5
664
100
AcDbEntity
  8
BASIC_DEVICE
100
AcDbCircle
 62
7
  6
CONTINUOUS
 10
521.4813306843
 20
162.7502443144
 40
4.5
  0
CIRCLE
  5
665
100
AcDbEntity
  8
BASIC_DEVICE
100
AcDbCircle
 62
7
  6
CONTINUOUS
 10
521.4813306843
 20
182.7502443144
 40
3.25
  0
CIRCLE
  5
666
100
AcDbEntity
  8
BASIC_DEVICE
100
AcDbCircle
 62
7
  6
CONTINUOUS
 10
644.9897551121
 20
162.7495437095
 40
3.25
  0
ARC
  5
667
100
AcDbEntity
  8
INTER_PHASE_SCHIELDS
100
AcDbCircle
 62
5
  6
CONTINUOUS
 10
371.265419628
 20
93.4495437095
 40
3.0
100
AcDbArc
 50
270.0
 51
360.0
  0
ARC
  5
668
100
AcDbEntity
  8
INTER_PHASE_SCHIELDS
100
AcDbCircle
 62
5
  6
CONTINUOUS
 10
371.265419628
 20
146.7495437095
 40
3.0
100
AcDbArc
 50
0.0
 51
90.0
  0
ARC
  5
669
100
AcDbEntity
  8
INTER_PHASE_SCHIELDS
100
AcDbCircle
 62
5
  6
CONTINUOUS
 10
377.415419628
 20
143.9495437095
 40
2.25
100
AcDbArc
 50
180.0
 51
360.0
  0
ARC
  5
66A
100
AcDbEntity
  8
BASIC_DEVICE
100
AcDbCircle
 62
3
  6
CONTINUOUS
 10
608.981081485
 20
162.749959516
 40
2.0
100
AcDbArc
 50
344.9998368224
 51
284.9998368224
  0
CIRCLE
  5
66B
100
AcDbEntity
  8
AM_12
100
AcDbCircle
 62
4
  6
CONTINUOUS
 10
627.5364584471
 20
87.3088935965
 40
1.75
  0
CIRCLE
  5
66C
100
AcDbEntity
  8
BASIC_DEVICE
100
AcDbCircle
 62
7
  6
CONTINUOUS
 10
608.981081485
 20
162.749959516
 40
1.6
  0
ARC
  5
66D
100
AcDbEntity
  8
INTER_PHASE_SCHIELDS
100
AcDbCircle
 62
5
  6
CONTINUOUS
 10
371.265419628
 20
93.4495437095
 40
1.0
100
AcDbArc
 50
270.0
 51
360.0
  0
ARC
  5
66E
100
AcDbEntity
  8
INTER_PHASE_SCHIELDS
100
AcDbCircle
 62
5
  6
CONTINUOUS
 10
371.265419628
 20
146.7495437095
 40
1.0
100
AcDbArc
 50
0.0
 51
90.0
  0
ARC
  5
66F
100
AcDbEntity
  8
BASIC_DEVICE
100
AcDbCircle
 62
7
  6
CONTINUOUS
 10
521.4813306843
 20
337.7502443144
 40
10.0
100
AcDbArc
 50
270.0
 51
360.0
  0
CIRCLE
  5
670
100
AcDbEntity
  8
BASIC_DEVICE
100
AcDbCircle
 62
7
  6
CONTINUOUS
 10
521.4813306843
 20
317.7502443144
 40
6.5
  0
CIRCLE
  5
671
100
AcDbEntity
  8
BASIC_DEVICE
100
AcDbCircle
 62
7
  6
CONTINUOUS
 10
644.9897551121
 20
337.7495437095
 40
6.5
  0
CIRCLE
  5
672
100
AcDbEntity
  8
BASIC_DEVICE
100
AcDbCircle
 62
7
  6
CONTINUOUS
 10
548.4813306843
 20
375.2495437095
 40
5.5
  0
CIRCLE
  5
673
100
AcDbEntity
  8
BASIC_DEVICE
100
AcDbCircle
 62
7
  6
CONTINUOUS
 10
548.4813306843
 20
395.2495437095
 40
5.5
  0
CIRCLE
  5
674
100
AcDbEntity
  8
BASIC_DEVICE
100
AcDbCircle
 62
7
  6
CONTINUOUS
 10
588.4813306843
 20
375.2495437095
 40
5.5
  0
CIRCLE
  5
675
100
AcDbEntity
  8
BASIC_DEVICE
100
AcDbCircle
 62
7
  6
CONTINUOUS
 10
588.4813306843
 20
395.2495437095
 40
5.5
  0
ARC
  5
676
100
AcDbEntity
  8
TERMINAL_SCREEN
100
AcDbCircle
 62
2
  6
CONTINUOUS
 10
513.9813306843
 20
475.7502443144
 40
5.0
100
AcDbArc
 50
90.0
 51
180.0
  0
CIRCLE
  5
677
100
AcDbEntity
  8
DEVICE_FIXING_HOLES
100
AcDbCircle
 62
1
  6
CONTINUOUS
 10
521.4813306843
 20
337.7502443144
 40
4.5
  0
CIRCLE
  5
678
100
AcDbEntity
  8
BASIC_DEVICE
100
AcDbCircle
 62
7
  6
CONTINUOUS
 10
521.4813306843
 20
337.7502443144
 40
4.5
  0
CIRCLE
  5
679
100
AcDbEntity
  8
BASIC_DEVICE
100
AcDbCircle
 62
7
  6
CONTINUOUS
 10
521.4813306843
 20
317.7502443144
 40
3.25
  0
CIRCLE
  5
67A
100
AcDbEntity
  8
BASIC_DEVICE
100
AcDbCircle
 62
7
  6
CONTINUOUS
 10
644.9897551121
 20
337.7495437095
 40
3.25
  0
ARC
  5
67B
100
AcDbEntity
  8
INTER_PHASE_SCHIELDS
100
AcDbCircle
 62
5
  6
CONTINUOUS
 10
371.265419628
 20
407.0495437095
 40
3.0
100
AcDbArc
 50
0.0
 51
90.0
  0
ARC
  5
67C
100
AcDbEntity
  8
INTER_PHASE_SCHIELDS
100
AcDbCircle
 62
5
  6
CONTINUOUS
 10
371.265419628
 20
353.7495437095
 40
3.0
100
AcDbArc
 50
270.0
 51
360.0
  0
CIRCLE
  5
67D
100
AcDbEntity
  8
TERMINAL_SCREEN
100
AcDbCircle
 62
2
  6
CONTINUOUS
 10
608.9813306843
 20
337.7502443144
 40
2.25
  0
ARC
  5
67E
100
AcDbEntity
  8
INTER_PHASE_SCHIELDS
100
AcDbCircle
 62
5
  6
CONTINUOUS
 10
377.415419628
 20
356.5495437095
 40
2.25
100
AcDbArc
 50
0.0
 51
180.0
  0
ARC
  5
67F
100
AcDbEntity
  8
BASIC_DEVICE
100
AcDbCircle
 62
3
  6
CONTINUOUS
 10
608.9813306843
 20
337.7502443144
 40
2.0
100
AcDbArc
 50
75.0
 51
15.0
  0
CIRCLE
  5
680
100
AcDbEntity
  8
AM_12
100
AcDbCircle
 62
4
  6
CONTINUOUS
 10
553.8104677902
 20
432.8539115298
 40
1.75
  0
CIRCLE
  5
681
100
AcDbEntity
  8
AM_12
100
AcDbCircle
 62
4
  6
CONTINUOUS
 10
627.5364584471
 20
413.1901938225
 40
1.75
  0
CIRCLE
  5
682
100
AcDbEntity
  8
BASIC_DEVICE
100
AcDbCircle
 62
7
  6
CONTINUOUS
 10
608.9813306843
 20
337.7502443144
 40
1.6
  0
ARC
  5
683
100
AcDbEntity
  8
INTER_PHASE_SCHIELDS
100
AcDbCircle
 62
5
  6
CONTINUOUS
 10
371.265419628
 20
407.0495437095
 40
1.0
100
AcDbArc
 50
0.0
 51
90.0
  0
ARC
  5
684
100
AcDbEntity
  8
INTER_PHASE_SCHIELDS
100
AcDbCircle
 62
5
  6
CONTINUOUS
 10
371.265419628
 20
353.7495437095
 40
1.0
100
AcDbArc
 50
270.0
 51
360.0
  0
CIRCLE
  5
685
100
AcDbEntity
  8
BASIC_DEVICE
100
AcDbCircle
 62
7
  6
CONTINUOUS
 10
668.4813306843
 20
105.2495437095
 40
5.5
  0
CIRCLE
  5
686
100
AcDbEntity
  8
BASIC_DEVICE
100
AcDbCircle
 62
7
  6
CONTINUOUS
 10
668.4813306843
 20
125.2495437095
 40
5.5
  0
CIRCLE
  5
687
100
AcDbEntity
  8
BASIC_DEVICE
100
AcDbCircle
 62
7
  6
CONTINUOUS
 10
708.4813306843
 20
105.2495437095
 40
5.5
  0
CIRCLE
  5
688
100
AcDbEntity
  8
BASIC_DEVICE
100
AcDbCircle
 62
7
  6
CONTINUOUS
 10
708.4813306843
 20
125.2495437095
 40
5.5
  0
CIRCLE
  5
689
100
AcDbEntity
  8
BASIC_DEVICE
100
AcDbCircle
 62
7
  6
CONTINUOUS
 10
788.4813306843
 20
105.2495437095
 40
5.5
  0
CIRCLE
  5
68A
100
AcDbEntity
  8
BASIC_DEVICE
100
AcDbCircle
 62
7
  6
CONTINUOUS
 10
788.4813306843
 20
125.2495437095
 40
5.5
  0
CIRCLE
  5
68B
100
AcDbEntity
  8
AM_12
100
AcDbCircle
 62
4
  6
CONTINUOUS
 10
747.5364584471
 20
87.3088935965
 40
1.75
  0
ARC
  5
68C
100
AcDbEntity
  8
H_MOVING
100
AcDbCircle
 62
1
  6
CONTINUOUS
 10
764.4897551121
 20
90.2495437095
 40
1.0
100
AcDbArc
 50
270.0
 51
360.0
  0
ARC
  5
68D
100
AcDbEntity
  8
H_MOVING
100
AcDbCircle
 62
1
  6
CONTINUOUS
 10
745.4897551121
 20
90.2495437095
 40
1.0
100
AcDbArc
 50
180.0
 51
270.0
  0
ARC
  5
68E
100
AcDbEntity
  8
H_EXTERN_HANDLE
100
AcDbCircle
 62
7
  6
CONTINUOUS
 10
754.9897551121
 20
278.2495437095
 40
40.0
100
AcDbArc
 50
90.0
 51
164.7815448422
  0
ARC
  5
68F
100
AcDbEntity
  8
H_EXTERN_HANDLE
100
AcDbCircle
 62
7
  6
CONTINUOUS
 10
754.9897551121
 20
278.2495437095
 40
40.0
100
AcDbArc
 50
195.2184551578
 51
344.7815448422
  0
ARC
  5
690
100
AcDbEntity
  8
H_EXTERN_HANDLE
100
AcDbCircle
 62
3
  6
CONTINUOUS
 10
754.9897551121
 20
278.2495437095
 40
39.5
100
AcDbArc
 50
195.4158485295
 51
245.0
  0
ARC
  5
691
100
AcDbEntity
  8
H_EXTERN_HANDLE
100
AcDbCircle
 62
3
  6
CONTINUOUS
 10
754.9897551121
 20
278.2495437095
 40
39.5
100
AcDbArc
 50
135.7252824015
 51
164.5841514705
  0
ARC
  5
692
100
AcDbEntity
  8
H_EXTERN_HANDLE
100
AcDbCircle
 62
1
  6
CONTINUOUS
 10
754.9897551121
 20
278.2495437095
 40
39.5
100
AcDbArc
 50
90.0
 51
134.2747175986
  0
ARC
  5
693
100
AcDbEntity
  8
BASIC_DEVICE
100
AcDbCircle
 62
7
  6
CONTINUOUS
 10
754.9897551124
 20
278.2495437095
 40
32.0
100
AcDbArc
 50
263.6206297911
 51
351.7867892983
  0
ARC
  5
694
100
AcDbEntity
  8
H_EXTERN_HANDLE
100
AcDbCircle
 62
3
  6
CONTINUOUS
 10
754.9897551121
 20
278.2495437095
 40
30.5
100
AcDbArc
 50
200.1367700284
 51
245.0
  0
ARC
  5
695
100
AcDbEntity
  8
H_EXTERN_HANDLE
100
AcDbCircle
 62
3
  6
CONTINUOUS
 10
754.9897551121
 20
278.2495437095
 40
30.5
100
AcDbArc
 50
135.93931715
 51
159.8632299717
  0
ARC
  5
696
100
AcDbEntity
  8
H_EXTERN_HANDLE
100
AcDbCircle
 62
1
  6
CONTINUOUS
 10
754.9897551121
 20
278.2495437095
 40
30.5
100
AcDbArc
 50
90.0
 51
134.06068285
  0
ARC
  5
697
100
AcDbEntity
  8
H_EXTERN_HANDLE
100
AcDbCircle
 62
7
  6
CONTINUOUS
 10
754.9897551121
 20
278.2495437095
 40
30.0
100
AcDbArc
 50
208.3593500282
 51
331.6406499718
  0
ARC
  5
698
100
AcDbEntity
  8
H_EXTERN_HANDLE
100
AcDbCircle
 62
7
  6
CONTINUOUS
 10
754.9897551121
 20
278.2495437095
 40
30.0
100
AcDbArc
 50
332.0471134109
 51
339.5126848853
  0
ARC
  5
699
100
AcDbEntity
  8
H_EXTERN_HANDLE
100
AcDbCircle
 62
7
  6
CONTINUOUS
 10
754.9897551121
 20
278.2495437095
 40
30.0
100
AcDbArc
 50
28.3593500282
 51
151.6406499718
  0
ARC
  5
69A
100
AcDbEntity
  8
BASIC_DEVICE
100
AcDbCircle
 62
7
  6
CONTINUOUS
 10
754.9897551121
 20
278.2495437096
 40
24.0
100
AcDbArc
 50
261.7867892983
 51
349.4161974035
  0
ARC
  5
69B
100
AcDbEntity
  8
BASIC_DEVICE
100
AcDbCircle
 62
1
  6
CONTINUOUS
 10
754.9897551121
 20
278.2495437095
 40
15.6
100
AcDbArc
 50
6.6258095648
 51
170.6238852948
  0
ARC
  5
69C
100
AcDbEntity
  8
BASIC_DEVICE
100
AcDbCircle
 62
1
  6
CONTINUOUS
 10
754.9897551121
 20
278.2495437095
 40
15.6
100
AcDbArc
 50
189.3761147052
 51
353.3741904352
  0
ARC
  5
69D
100
AcDbEntity
  8
H_EXTERN_HANDLE
100
AcDbCircle
 62
7
  6
CONTINUOUS
 10
754.9897551121
 20
278.2495437095
 40
14.25
100
AcDbArc
 50
30.4949678748
 51
149.5050321252
  0
ARC
  5
69E
100
AcDbEntity
  8
H_EXTERN_HANDLE
100
AcDbCircle
 62
7
  6
CONTINUOUS
 10
754.9897551121
 20
278.2495437095
 40
14.25
100
AcDbArc
 50
210.4949678748
 51
329.5050321252
  0
ARC
  5
69F
100
AcDbEntity
  8
H_EXTERN_HANDLE
100
AcDbCircle
 62
7
  6
CONTINUOUS
 10
751.9897551121
 20
278.2495437095
 40
10.25
100
AcDbArc
 50
219.6650129075
 51
320.3349870925
  0
ARC
  5
6A0
100
AcDbEntity
  8
H_EXTERN_HANDLE
100
AcDbCircle
 62
7
  6
CONTINUOUS
 10
751.9897551121
 20
278.2495437095
 40
10.25
100
AcDbArc
 50
39.6650129077
 51
140.3349870923
  0
CIRCLE
  5
6A1
100
AcDbEntity
  8
BASIC_DEVICE
100
AcDbCircle
 62
1
  6
CONTINUOUS
 10
739.3897551121
 20
278.2495437095
 40
2.55
  0
LWPOLYLINE
  5
6A2
100
AcDbEntity
  8
TEXT
100
AcDbPolyline
 62
2
  6
CONTINUOUS
 90
2
 70
1
 43
1.0
 10
717.6849048807
 20
278.2495437096
 42
1.0
 10
722.6849048807
 20
278.2495437096
 42
1.0
  0
ARC
  5
6A3
100
AcDbEntity
  8
H_EXTERN_HANDLE
100
AcDbCircle
 62
7
  6
CONTINUOUS
 10
769.422790136
 20
269.7495437095
 40
2.5
100
AcDbArc
 50
90.0000000002
 51
149.5050321252
  0
ARC
  5
6A4
100
AcDbEntity
  8
H_EXTERN_HANDLE
100
AcDbCircle
 62
7
  6
CONTINUOUS
 10
740.5567200882
 20
269.7495437096
 40
2.5
100
AcDbArc
 50
30.4949678746
 51
89.9999999997
  0
ARC
  5
6A5
100
AcDbEntity
  8
BASIC_DEVICE
100
AcDbCircle
 62
7
  6
CONTINUOUS
 10
685.9897551124
 20
235.2495437095
 40
2.0
100
AcDbArc
 50
270.0
 51
360.0
  0
ARC
  5
6A6
100
AcDbEntity
  8
BASIC_DEVICE
100
AcDbCircle
 62
7
  6
CONTINUOUS
 10
685.9897551124
 20
265.2495437095
 40
2.0
100
AcDbArc
 50
0.0
 51
90.0
  0
ARC
  5
6A7
100
AcDbEntity
  8
BASIC_DEVICE
100
AcDbCircle
 62
7
  6
CONTINUOUS
 10
669.9897551124
 20
265.2495437095
 40
2.0
100
AcDbArc
 50
90.0
 51
180.0
  0
ARC
  5
6A8
100
AcDbEntity
  8
BASIC_DEVICE
100
AcDbCircle
 62
7
  6
CONTINUOUS
 10
669.9897551124
 20
235.2495437095
 40
2.0
100
AcDbArc
 50
180.0
 51
270.0
  0
CIRCLE
  5
6A9
100
AcDbEntity
  8
BASIC_DEVICE
100
AcDbCircle
 62
1
  6
CONTINUOUS
 10
739.3897551121
 20
278.2495437095
 40
1.55
  0
ARC
  5
6AA
100
AcDbEntity
  8
H_EXTERN_HANDLE
100
AcDbCircle
 62
7
  6
CONTINUOUS
 10
742.9447288545
 20
270.7495437096
 40
1.5
100
AcDbArc
 50
39.6650129075
 51
89.9999999999
  0
ARC
  5
6AB
100
AcDbEntity
  8
H_EXTERN_HANDLE
100
AcDbCircle
 62
7
  6
CONTINUOUS
 10
761.0347813696
 20
270.7495437095
 40
1.5
100
AcDbArc
 50
90.0
 51
140.3349870925
  0
ARC
  5
6AC
100
AcDbEntity
  8
H_EXTERN_HANDLE
100
AcDbCircle
 62
7
  6
CONTINUOUS
 10
709.9897551121
 20
268.7495437095
 40
1.0
100
AcDbArc
 50
180.0
 51
270.0
  0
ARC
  5
6AD
100
AcDbEntity
  8
BASIC_DEVICE
100
AcDbCircle
 62
7
  6
CONTINUOUS
 10
779.1602951041
 20
273.6443593761
 40
0.6114558412
100
AcDbArc
 50
98.2132107017
 51
161.2029867019
  0
ARC
  5
6AE
100
AcDbEntity
  8
BASIC_DEVICE
100
AcDbCircle
 62
7
  6
CONTINUOUS
 10
786.1666696486
 20
273.7495437096
 40
0.5
100
AcDbArc
 50
351.7867892983
 51
90.0
  0
ARC
  5
6AF
100
AcDbEntity
  8
BASIC_DEVICE
100
AcDbCircle
 62
7
  6
CONTINUOUS
 10
751.4897551121
 20
246.9445920246
 40
0.5
100
AcDbArc
 50
180.0000000005
 51
263.6206297911
  0
ARC
  5
6B0
100
AcDbEntity
  8
BASIC_DEVICE
100
AcDbCircle
 62
7
  6
CONTINUOUS
 10
751.4897551121
 20
254.0008324033
 40
0.5
100
AcDbArc
 50
81.7867892984
 51
180.0
  0
CIRCLE
  5
6B1
100
AcDbEntity
  8
BASIC_DEVICE
100
AcDbCircle
 62
7
  6
CONTINUOUS
 10
862.9897551121
 20
162.7495437095
 40
6.5
  0
CIRCLE
  5
6B2
100
AcDbEntity
  8
BASIC_DEVICE
100
AcDbCircle
 62
7
  6
CONTINUOUS
 10
828.4813306843
 20
105.2495437095
 40
5.5
  0
CIRCLE
  5
6B3
100
AcDbEntity
  8
BASIC_DEVICE
100
AcDbCircle
 62
7
  6
CONTINUOUS
 10
828.4813306843
 20
125.2495437095
 40
5.5
  0
CIRCLE
  5
6B4
100
AcDbEntity
  8
BASIC_DEVICE
100
AcDbCircle
 62
7
  6
CONTINUOUS
 10
908.4813306843
 20
105.2495437095
 40
5.5
  0
CIRCLE
  5
6B5
100
AcDbEntity
  8
BASIC_DEVICE
100
AcDbCircle
 62
7
  6
CONTINUOUS
 10
908.4813306843
 20
125.2495437095
 40
5.5
  0
CIRCLE
  5
6B6
100
AcDbEntity
  8
BASIC_DEVICE
100
AcDbCircle
 62
7
  6
CONTINUOUS
 10
948.4813306843
 20
105.2495437095
 40
5.5
  0
CIRCLE
  5
6B7
100
AcDbEntity
  8
BASIC_DEVICE
100
AcDbCircle
 62
7
  6
CONTINUOUS
 10
948.4813306843
 20
125.2495437095
 40
5.5
  0
CIRCLE
  5
6B8
100
AcDbEntity
  8
BASIC_DEVICE
100
AcDbCircle
 62
7
  6
CONTINUOUS
 10
862.9897551121
 20
162.7495437095
 40
3.25
  0
ARC
  5
6B9
100
AcDbEntity
  8
BASIC_DEVICE
100
AcDbCircle
 62
3
  6
CONTINUOUS
 10
900.9810814838
 20
162.7491279038
 40
2.0
100
AcDbArc
 50
344.9998368224
 51
284.9998368224
  0
CIRCLE
  5
6BA
100
AcDbEntity
  8
AM_12
100
AcDbCircle
 62
4
  6
CONTINUOUS
 10
867.5364584471
 20
87.3088935965
 40
1.75
  0
CIRCLE
  5
6BB
100
AcDbEntity
  8
BASIC_DEVICE
100
AcDbCircle
 62
7
  6
CONTINUOUS
 10
900.9810814838
 20
162.7491279038
 40
1.6
  0
ARC
  5
6BC
100
AcDbEntity
  8
H_EXTERN_HANDLE
100
AcDbCircle
 62
7
  6
CONTINUOUS
 10
943.9897551121
 20
268.7495437095
 40
1.0
100
AcDbArc
 50
270.0
 51
360.0
  0
CIRCLE
  5
6BD
100
AcDbEntity
  8
BASIC_DEVICE
100
AcDbCircle
 62
7
  6
CONTINUOUS
 10
862.9897551121
 20
337.7495437095
 40
6.5
  0
CIRCLE
  5
6BE
100
AcDbEntity
  8
BASIC_DEVICE
100
AcDbCircle
 62
7
  6
CONTINUOUS
 10
668.4813306843
 20
395.2495437095
 40
5.5
  0
CIRCLE
  5
6BF
100
AcDbEntity
  8
BASIC_DEVICE
100
AcDbCircle
 62
7
  6
CONTINUOUS
 10
668.4813306843
 20
375.2495437095
 40
5.5
  0
CIRCLE
  5
6C0
100
AcDbEntity
  8
BASIC_DEVICE
100
AcDbCircle
 62
7
  6
CONTINUOUS
 10
708.4813306843
 20
395.2495437095
 40
5.5
  0
CIRCLE
  5
6C1
100
AcDbEntity
  8
BASIC_DEVICE
100
AcDbCircle
 62
7
  6
CONTINUOUS
 10
708.4813306843
 20
375.2495437095
 40
5.5
  0
CIRCLE
  5
6C2
100
AcDbEntity
  8
BASIC_DEVICE
100
AcDbCircle
 62
7
  6
CONTINUOUS
 10
788.4813306843
 20
395.2495437095
 40
5.5
  0
CIRCLE
  5
6C3
100
AcDbEntity
  8
BASIC_DEVICE
100
AcDbCircle
 62
7
  6
CONTINUOUS
 10
788.4813306843
 20
375.2495437095
 40
5.5
  0
CIRCLE
  5
6C4
100
AcDbEntity
  8
BASIC_DEVICE
100
AcDbCircle
 62
7
  6
CONTINUOUS
 10
828.4813306843
 20
395.2495437095
 40
5.5
  0
CIRCLE
  5
6C5
100
AcDbEntity
  8
BASIC_DEVICE
100
AcDbCircle
 62
7
  6
CONTINUOUS
 10
828.4813306843
 20
375.2495437095
 40
5.5
  0
CIRCLE
  5
6C6
100
AcDbEntity
  8
BASIC_DEVICE
100
AcDbCircle
 62
7
  6
CONTINUOUS
 10
908.4813306843
 20
395.2495437095
 40
5.5
  0
CIRCLE
  5
6C7
100
AcDbEntity
  8
BASIC_DEVICE
100
AcDbCircle
 62
7
  6
CONTINUOUS
 10
908.4813306843
 20
375.2495437095
 40
5.5
  0
CIRCLE
  5
6C8
100
AcDbEntity
  8
BASIC_DEVICE
100
AcDbCircle
 62
7
  6
CONTINUOUS
 10
948.4813306843
 20
395.2495437095
 40
5.5
  0
CIRCLE
  5
6C9
100
AcDbEntity
  8
BASIC_DEVICE
100
AcDbCircle
 62
7
  6
CONTINUOUS
 10
948.4813306843
 20
375.2495437095
 40
5.5
  0
CIRCLE
  5
6CA
100
AcDbEntity
  8
BASIC_DEVICE
100
AcDbCircle
 62
7
  6
CONTINUOUS
 10
862.9897551121
 20
337.7495437095
 40
3.25
  0
ARC
  5
6CB
100
AcDbEntity
  8
H_EXTERN_HANDLE
100
AcDbCircle
 62
7
  6
CONTINUOUS
 10
740.5567200882
 20
286.7495437095
 40
2.5
100
AcDbArc
 50
270.0
 51
329.5050321252
  0
ARC
  5
6CC
100
AcDbEntity
  8
H_EXTERN_HANDLE
100
AcDbCircle
 62
7
  6
CONTINUOUS
 10
769.422790136
 20
286.7495437095
 40
2.5
100
AcDbArc
 50
210.4949678747
 51
269.9999999999
  0
CIRCLE
  5
6CD
100
AcDbEntity
  8
TERMINAL_SCREEN
100
AcDbCircle
 62
2
  6
CONTINUOUS
 10
900.9813306843
 20
337.7502443144
 40
2.25
  0
ARC
  5
6CE
100
AcDbEntity
  8
BASIC_DEVICE
100
AcDbCircle
 62
3
  6
CONTINUOUS
 10
900.9813306843
 20
337.7502443144
 40
2.0
100
AcDbArc
 50
75.0
 51
15.0
  0
CIRCLE
  5
6CF
100
AcDbEntity
  8
AM_12
100
AcDbCircle
 62
4
  6
CONTINUOUS
 10
685.9401136589
 20
415.727022132
 40
1.75
  0
CIRCLE
  5
6D0
100
AcDbEntity
  8
AM_12
100
AcDbCircle
 62
4
  6
CONTINUOUS
 10
747.5364584471
 20
413.1901938225
 40
1.75
  0
CIRCLE
  5
6D1
100
AcDbEntity
  8
AM_12
100
AcDbCircle
 62
4
  6
CONTINUOUS
 10
867.5364584471
 20
413.1901938225
 40
1.75
  0
CIRCLE
  5
6D2
100
AcDbEntity
  8
AM_12
100
AcDbCircle
 62
4
  6
CONTINUOUS
 10
833.3354432685
 20
288.8061270029
 40
1.75
  0
CIRCLE
  5
6D3
100
AcDbEntity
  8
BASIC_DEVICE
100
AcDbCircle
 62
7
  6
CONTINUOUS
 10
900.9813306843
 20
337.7502443144
 40
1.6
  0
ARC
  5
6D4
100
AcDbEntity
  8
H_EXTERN_HANDLE
100
AcDbCircle
 62
7
  6
CONTINUOUS
 10
761.0347813696
 20
285.7495437096
 40
1.5
100
AcDbArc
 50
219.6650129077
 51
269.9999999999
  0
ARC
  5
6D5
100
AcDbEntity
  8
H_EXTERN_HANDLE
100
AcDbCircle
 62
7
  6
CONTINUOUS
 10
742.9447288545
 20
285.7495437095
 40
1.5
100
AcDbArc
 50
270.0
 51
320.3349870923
  0
ARC
  5
6D6
100
AcDbEntity
  8
H_EXTERN_HANDLE
100
AcDbCircle
 62
7
  6
CONTINUOUS
 10
943.9897551121
 20
287.7495437095
 40
1.0
100
AcDbArc
 50
0.0
 51
90.0
  0
ARC
  5
6D7
100
AcDbEntity
  8
H_EXTERN_HANDLE
100
AcDbCircle
 62
7
  6
CONTINUOUS
 10
709.9897551121
 20
287.7495437095
 40
1.0
100
AcDbArc
 50
90.0
 51
180.0
  0
CIRCLE
  5
6D8
100
AcDbEntity
  8
HANDLE_FIXING_HOLES
100
AcDbCircle
 62
1
  6
CONTINUOUS
 10
1209.3943541394
 20
278.2495437095
 40
15.5
  0
ARC
  5
6D9
100
AcDbEntity
  8
BASIC_DEVICE
100
AcDbCircle
 62
7
  6
CONTINUOUS
 10
988.4813306886
 20
162.7495437095
 40
10.0
100
AcDbArc
 50
90.0
 51
180.0
  0
CIRCLE
  5
6DA
100
AcDbEntity
  8
BASIC_DEVICE
100
AcDbCircle
 62
7
  6
CONTINUOUS
 10
988.4813306886
 20
182.7495437095
 40
6.5
  0
CIRCLE
  5
6DB
100
AcDbEntity
  8
DEVICE_FIXING_HOLES
100
AcDbCircle
 62
1
  6
CONTINUOUS
 10
988.4813306886
 20
162.7495437095
 40
4.5
  0
CIRCLE
  5
6DC
100
AcDbEntity
  8
BASIC_DEVICE
100
AcDbCircle
 62
7
  6
CONTINUOUS
 10
988.4813306886
 20
162.7495437095
 40
4.5
  0
CIRCLE
  5
6DD
100
AcDbEntity
  8
BASIC_DEVICE
100
AcDbCircle
 62
7
  6
CONTINUOUS
 10
988.4813306886
 20
182.7495437095
 40
3.25
  0
CIRCLE
  5
6DE
100
AcDbEntity
  8
HANDLE_FIXING_HOLES
100
AcDbCircle
 62
1
  6
CONTINUOUS
 10
1209.3943541394
 20
253.2495437095
 40
2.25
  0
CIRCLE
  5
6DF
100
AcDbEntity
  8
HANDLE_FIXING_HOLES
100
AcDbCircle
 62
1
  6
CONTINUOUS
 10
1184.3943541394
 20
278.2495437095
 40
2.25
  0
CIRCLE
  5
6E0
100
AcDbEntity
  8
HANDLE_FIXING_HOLES
100
AcDbCircle
 62
1
  6
CONTINUOUS
 10
1234.3943541394
 20
278.2495437095
 40
2.25
  0
ARC
  5
6E1
100
AcDbEntity
  8
BASIC_DEVICE
100
AcDbCircle
 62
7
  6
CONTINUOUS
 10
988.4813306886
 20
337.7495437095
 40
10.0
100
AcDbArc
 50
180.0
 51
270.0
  0
CIRCLE
  5
6E2
100
AcDbEntity
  8
BASIC_DEVICE
100
AcDbCircle
 62
7
  6
CONTINUOUS
 10
988.4813306886
 20
317.7495437095
 40
6.5
  0
ARC
  5
6E3
100
AcDbEntity
  8
TERMINAL_SCREEN
100
AcDbCircle
 62
2
  6
CONTINUOUS
 10
995.9813306843
 20
475.7502443144
 40
5.0
100
AcDbArc
 50
0.0
 51
90.0
  0
CIRCLE
  5
6E4
100
AcDbEntity
  8
DEVICE_FIXING_HOLES
100
AcDbCircle
 62
1
  6
CONTINUOUS
 10
988.4813306886
 20
337.7495437095
 40
4.5
  0
CIRCLE
  5
6E5
100
AcDbEntity
  8
BASIC_DEVICE
100
AcDbCircle
 62
7
  6
CONTINUOUS
 10
988.4813306886
 20
337.7495437095
 40
4.5
  0
CIRCLE
  5
6E6
100
AcDbEntity
  8
BASIC_DEVICE
100
AcDbCircle
 62
7
  6
CONTINUOUS
 10
988.4813306886
 20
317.7495437095
 40
3.25
  0
CIRCLE
  5
6E7
100
AcDbEntity
  8
HANDLE_FIXING_HOLES
100
AcDbCircle
 62
1
  6
CONTINUOUS
 10
1209.3943541394
 20
303.2495437095
 40
2.25
  0
ARC
  5
6E8
100
AcDbEntity
  8
H_MOVING
100
AcDbCircle
 62
1
  6
CONTINUOUS
 10
754.9897553902
 20
857.9847987255
 40
10.5
100
AcDbArc
 50
177.4898603379
 51
2.5101405927
  0
ARC
  5
6E9
100
AcDbEntity
  8
H_MOVING
100
AcDbCircle
 62
1
  6
CONTINUOUS
 10
754.9897553457
 20
863.4607894402
 40
10.2601724327
100
AcDbArc
 50
177.4898603379
 51
2.5101405927
  0
ARC
  5
6EA
100
AcDbEntity
  8
H_MOVING
100
AcDbCircle
 62
1
  6
CONTINUOUS
 10
750.7397551121
 20
885.7343479559
 40
10.0
100
AcDbArc
 50
116.1155560628
 51
180.0
  0
ARC
  5
6EB
100
AcDbEntity
  8
H_MOVING
100
AcDbCircle
 62
1
  6
CONTINUOUS
 10
759.2397551121
 20
885.7343479559
 40
10.0
100
AcDbArc
 50
0.0
 51
63.8844439374
  0
ARC
  5
6EC
100
AcDbEntity
  8
H_MOVING
100
AcDbCircle
 62
1
  6
CONTINUOUS
 10
730.7397551121
 20
856.2343479559
 40
10.0
100
AcDbArc
 50
270.0
 51
360.0
  0
ARC
  5
6ED
100
AcDbEntity
  8
H_MOVING
100
AcDbCircle
 62
1
  6
CONTINUOUS
 10
779.2397551121
 20
856.2343479559
 40
10.0
100
AcDbArc
 50
180.0
 51
270.0
  0
ARC
  5
6EE
100
AcDbEntity
  8
H_MOVING
100
AcDbCircle
 62
1
  6
CONTINUOUS
 10
754.9897551121
 20
892.2343479559
 40
9.0
100
AcDbArc
 50
2.5101405927
 51
177.4898603379
  0
ARC
  5
6EF
100
AcDbEntity
  8
H_EXTERN_HANDLE
100
AcDbCircle
 62
7
  6
CONTINUOUS
 10
736.9897551121
 20
854.7343479559
 40
8.5
100
AcDbArc
 50
180.0
 51
270.0
  0
ARC
  5
6F0
100
AcDbEntity
  8
H_EXTERN_HANDLE
100
AcDbCircle
 62
7
  6
CONTINUOUS
 10
772.9897551121
 20
854.7343479559
 40
8.5
100
AcDbArc
 50
270.0
 51
360.0
  0
ARC
  5
6F1
100
AcDbEntity
  8
H_EXTERN_HANDLE
100
AcDbCircle
 62
7
  6
CONTINUOUS
 10
717.4897551121
 20
877.2343479559
 40
4.5
100
AcDbArc
 50
0.0
 51
89.9999999993
  0
ARC
  5
6F2
100
AcDbEntity
  8
H_EXTERN_HANDLE
100
AcDbCircle
 62
7
  6
CONTINUOUS
 10
717.4897551121
 20
861.234347956
 40
4.5
100
AcDbArc
 50
269.9999999994
 51
360.0
  0
ARC
  5
6F3
100
AcDbEntity
  8
H_EXTERN_HANDLE
100
AcDbCircle
 62
7
  6
CONTINUOUS
 10
939.9985940337
 20
854.898561898
 40
3.0
100
AcDbArc
 50
0.0
 51
180.0
  0
ARC
  5
6F4
100
AcDbEntity
  8
H_EXTERN_HANDLE
100
AcDbCircle
 62
7
  6
CONTINUOUS
 10
932.0074329552
 20
854.6000257896
 40
3.0
100
AcDbArc
 50
0.0
 51
180.0
  0
ARC
  5
6F5
100
AcDbEntity
  8
H_EXTERN_HANDLE
100
AcDbCircle
 62
7
  6
CONTINUOUS
 10
924.0162718768
 20
854.3014896811
 40
3.0
100
AcDbArc
 50
0.0
 51
180.0
  0
ARC
  5
6F6
100
AcDbEntity
  8
H_EXTERN_HANDLE
100
AcDbCircle
 62
7
  6
CONTINUOUS
 10
916.0251107984
 20
854.0029535727
 40
3.0
100
AcDbArc
 50
0.0
 51
180.0
  0
ARC
  5
6F7
100
AcDbEntity
  8
H_EXTERN_HANDLE
100
AcDbCircle
 62
7
  6
CONTINUOUS
 10
908.03394972
 20
853.7044174643
 40
3.0
100
AcDbArc
 50
0.0
 51
180.0
  0
ARC
  5
6F8
100
AcDbEntity
  8
H_EXTERN_HANDLE
100
AcDbCircle
 62
7
  6
CONTINUOUS
 10
900.0427886415
 20
853.4058813559
 40
3.0
100
AcDbArc
 50
0.0
 51
180.0
  0
ARC
  5
6F9
100
AcDbEntity
  8
H_EXTERN_HANDLE
100
AcDbCircle
 62
7
  6
CONTINUOUS
 10
892.0516275631
 20
853.1073452475
 40
3.0
100
AcDbArc
 50
0.0
 51
180.0
  0
ARC
  5
6FA
100
AcDbEntity
  8
H_EXTERN_HANDLE
100
AcDbCircle
 62
7
  6
CONTINUOUS
 10
884.0604664847
 20
852.8088091391
 40
3.0
100
AcDbArc
 50
0.0
 51
180.0
  0
ARC
  5
6FB
100
AcDbEntity
  8
H_EXTERN_HANDLE
100
AcDbCircle
 62
7
  6
CONTINUOUS
 10
876.0693054063
 20
852.5102730307
 40
3.0
100
AcDbArc
 50
0.0
 51
180.0
  0
ARC
  5
6FC
100
AcDbEntity
  8
H_EXTERN_HANDLE
100
AcDbCircle
 62
7
  6
CONTINUOUS
 10
868.0781443278
 20
852.2117369223
 40
3.0
100
AcDbArc
 50
0.0
 51
180.0
  0
ARC
  5
6FD
100
AcDbEntity
  8
H_EXTERN_HANDLE
100
AcDbCircle
 62
7
  6
CONTINUOUS
 10
860.0869832494
 20
851.9132008139
 40
3.0
100
AcDbArc
 50
0.0
 51
180.0
  0
ARC
  5
6FE
100
AcDbEntity
  8
H_EXTERN_HANDLE
100
AcDbCircle
 62
7
  6
CONTINUOUS
 10
852.095822171
 20
851.6146647054
 40
3.0
100
AcDbArc
 50
0.0
 51
180.0
  0
ARC
  5
6FF
100
AcDbEntity
  8
H_EXTERN_HANDLE
100
AcDbCircle
 62
7
  6
CONTINUOUS
 10
844.1046610926
 20
851.316128597
 40
3.0
100
AcDbArc
 50
0.0
 51
180.0
  0
ARC
  5
700
100
AcDbEntity
  8
H_EXTERN_HANDLE
100
AcDbCircle
 62
7
  6
CONTINUOUS
 10
836.1135000141
 20
851.0175924886
 40
3.0
100
AcDbArc
 50
0.0
 51
180.0
  0
ARC
  5
701
100
AcDbEntity
  8
H_EXTERN_HANDLE
100
AcDbCircle
 62
7
  6
CONTINUOUS
 10
828.1223389357
 20
850.7190563802
 40
3.0
100
AcDbArc
 50
0.0
 51
180.0
  0
ARC
  5
702
100
AcDbEntity
  8
H_EXTERN_HANDLE
100
AcDbCircle
 62
7
  6
CONTINUOUS
 10
820.1311778573
 20
850.4205202718
 40
3.0
100
AcDbArc
 50
0.0
 51
180.0
  0
ARC
  5
703
100
AcDbEntity
  8
H_EXTERN_HANDLE
100
AcDbCircle
 62
7
  6
CONTINUOUS
 10
812.1400167789
 20
850.1219841634
 40
3.0
100
AcDbArc
 50
0.0
 51
180.0
  0
ARC
  5
704
100
AcDbEntity
  8
H_EXTERN_HANDLE
100
AcDbCircle
 62
7
  6
CONTINUOUS
 10
804.1488557004
 20
849.823448055
 40
3.0
100
AcDbArc
 50
0.0
 51
180.0
  0
ARC
  5
705
100
AcDbEntity
  8
H_EXTERN_HANDLE
100
AcDbCircle
 62
7
  6
CONTINUOUS
 10
796.157694622
 20
849.5249119466
 40
3.0
100
AcDbArc
 50
0.0
 51
180.0
  0
ENDSEC
  0
SECTION
  2
OBJECTS
  0
DICTIONARY
  5
C
100
AcDbDictionary
280
0
281
1
  3
ACAD_GROUP
350
D
  3
ACAD_MLINESTYLE
350
17
  3
ACAD_LAYOUT
350
1A
  3
ACAD_PLOTSETTINGS
350
19
  3
ACAD_PLOTSTYLENAME
350
E
  0
DICTIONARY
  5
D
102
{ACAD_REACTORS
330
C
102
}
100
AcDbDictionary
280
0
281
1
  0
ACDBDICTIONARYWDFLT
  5
E
102
{ACAD_REACTORS
330
C
102
}
100
AcDbDictionary
281
1
  3
Normal
350
F
100
AcDbDictionaryWithDefault
340
F
  0
DICTIONARY
  5
17
102
{ACAD_REACTORS
330
C
102
}
100
AcDbDictionary
280
0
281
1
  3
Standard
350
18
  0
DICTIONARY
  5
19
102
{ACAD_REACTORS
330
C
102
}
100
AcDbDictionary
281
1
  0
DICTIONARY
  5
1A
102
{ACAD_REACTORS
330
C
102
}
100
AcDbDictionary
281
1
  3
Model
350
706
  3
Layout1
350
707
  0
ACDBPLACEHOLDER
  5
F
102
{ACAD_REACTORS
330
E
102
}
  0
MLINESTYLE
  5
18
102
{ACAD_REACTORS
330
17
102
}
100
AcDbMlineStyle
  2
STANDARD
 70
0
  3

 62
256
 51
90.0
 52
90.0
 71
2
 49
0.5
 62
256
  6
BYLAYER
 49
-0.5
 62
256
  6
BYLAYER
  0
LAYOUT
  5
706
102
{ACAD_REACTORS
330
1A
102
}
100
AcDbPlotSettings
  1

  2
none_device
  4

  6

 40
0.0
 41
0.0
 42
0.0
 43
0.0
 44
1362.6671693775
 45
930.0767541345
 46
0.0
 47
0.0
 48
0.0
 49
0.0
140
0.0
141
0.0
142
1.0
143
1.0
 70
1024
 72
1
 73
0
 74
0
  7

 75
0
147
1.0
148
0.0
149
0.0
100
AcDbLayout
  1
Model
 70
0
 71
0
 10
0.0
 20
0.0
 11
1362.6671693775
 21
930.0767541345
 12
0.0
 22
0.0
 32
0.0
 14
0.0
 24
0.0
 34
0.0
 15
0.0
 25
0.0
 35
0.0
146
0.0
 13
0.0
 23
0.0
 33
0.0
 16
1.0
 26
0.0
 36
0.0
 17
0.0
 27
1.0
 37
0.0
 76
0
330
213
345
0
346
0
  0
LAYOUT
  5
707
102
{ACAD_REACTORS
330
1A
102
}
100
AcDbPlotSettings
  1

  2
none_device
  4

  6

 40
0.0
 41
0.0
 42
0.0
 43
0.0
 44
1362.6671693775
 45
930.0767541345
 46
0.0
 47
0.0
 48
0.0
 49
0.0
140
0.0
141
0.0
142
1.0
143
1.0
 70
0
 72
1
 73
0
 74
0
  7

 75
0
147
1.0
148
0.0
149
0.0
100
AcDbLayout
  1
Layout1
 70
0
 71
1
 10
0.0
 20
0.0
 11
1362.6671693775
 21
930.0767541345
 12
0.0
 22
0.0
 32
0.0
 14
0.0
 24
0.0
 34
0.0
 15
0.0
 25
0.0
 35
0.0
146
0.0
 13
0.0
 23
0.0
 33
0.0
 16
1.0
 26
0.0
 36
0.0
 17
0.0
 27
1.0
 37
0.0
 76
0
330
214
345
0
346
0
  0
ENDSEC
  0
EOF
