  0
SECTION
  2
HEADER
  9
$ACADVER
  1
AC1018
  9
$DWGCODEPAGE
  3
ANSI_1252
  9
$EXTMAX
 10
1368.66137203
 20
1010.3770663855
 30
0.0
  9
$EXTMIN
 10
0.0
 20
0.0
 30
0.0
  9
$LIMMIN
 10
0.0
 20
0.0
  9
$LIMMAX
 10
1368.66137203
 20
1010.3770663855
  9
$VIEWCTR
 10
684.330686015
 20
505.1885331928
  9
$VIEWSIZE
 40
1010.3770663855
  9
$CLAYER
  8
0
  9
$LTSCALE
 40
75.2763754617
  9
$CELTYPE
  6
BYLAYER
  9
$DIMSCALE
 40
1.0
  9
$DIMASZ
 40
0.1875
  9
$DIMEXO
 40
8.5541335752
  9
$DIMDLI
 40
52.0091321371
  9
$DIMEXE
 40
24.6359046965
  9
$DIMCEN
 40
12.3179523483
  9
$DIMLFAC
 40
1.0
  9
$DIMBLK
  1
_CLOSED
  9
$DIMTXT
 40
0.15625
  9
$DIMTOL
 70
0
  9
$DIMLIM
 70
0
  9
$DIMTFAC
 40
1.0
  9
$PDMODE
 70
3
  9
$PDSIZE
 40
0.3125
  9
$HANDSEED
  5
6DD
  9
$TILEMODE
 70
1
  9
$MEASUREMENT
 70
1
  9
$INSUNITS
 70
4
  0
ENDSEC
  0
SECTION
  2
CLASSES
  0
CLASS
  1
ACDBDICTIONARYWDFLT
  2
AcDbDictionaryWithDefault
  3
AutoCAD 2000
 90
0
 91
1
280
0
281
0
  0
CLASS
  1
ACDBPLACEHOLDER
  2
AcDbPlaceHolder
  3
AutoCAD 2000
 90
0
 91
1
280
0
281
0
  0
CLASS
  1
LAYOUT
  2
AcDbLayout
  3
AutoCAD 2000
 90
0
 91
0
280
0
281
0
  0
ENDSEC
  0
SECTION
  2
TABLES
  0
TABLE
  2
VPORT
  5
8
100
AcDbSymbolTable
 70
2
  0
VPORT
  5
1F4
100
AcDbSymbolTableRecord
100
AcDbViewportTableRecord
  2
*ACTIVE
 70
0
 10
0.0
 20
0.0
 11
1.0
 21
1.0
 12
684.330686015
 22
505.1885331928
 13
0.0
 23
0.0
 14
1.0
 24
1.0
 15
0.0
 25
0.0
 16
0.0
 26
0.0
 36
1.0
 17
0.0
 27
0.0
 37
0.0
 40
1010.3770663855
 41
1.3546045507
 42
50.0
 43
0.0
 44
0.0
 50
0.0
 51
0.0
 71
0
 72
100
 73
1
 74
1
 75
0
 76
0
 77
0
 78
0
  0
ENDTAB
  0
TABLE
  2
LTYPE
  5
5
100
AcDbSymbolTable
 70
6
  0
LTYPE
  5
14
100
AcDbSymbolTableRecord
100
AcDbLinetypeTableRecord
  2
BYBLOCK
 70
0
  3

 72
65
 73
0
 40
0.0
  0
LTYPE
  5
15
100
AcDbSymbolTableRecord
100
AcDbLinetypeTableRecord
  2
BYLAYER
 70
0
  3

 72
65
 73
0
 40
0.0
  0
LTYPE
  5
16
100
AcDbSymbolTableRecord
100
AcDbLinetypeTableRecord
  2
CONTINUOUS
 70
64
  3
Solid line
 72
65
 73
0
 40
0.0
  0
LTYPE
  5
1F5
100
AcDbSymbolTableRecord
100
AcDbLinetypeTableRecord
  2
CENTER
 70
64
  3
____ _ ____ _ ____ _ ____ _ ____ _ ____ _ ____
 72
65
 73
4
 40
0.6
 49
0.375
 74
0
 49
-0.075
 74
0
 49
0.075
 74
0
 49
-0.075
 74
0
  0
LTYPE
  5
1F6
100
AcDbSymbolTableRecord
100
AcDbLinetypeTableRecord
  2
HIDDEN
 70
64
  3
- - - - - - - - - - - - - - - - - - - -
 72
65
 73
2
 40
0.2
 49
0.1
 74
0
 49
-0.1
 74
0
  0
LTYPE
  5
1F7
100
AcDbSymbolTableRecord
100
AcDbLinetypeTableRecord
  2
PHANTOM
 70
64
  3
_____ _ _ _____ _ _ _____ _ _ _____
 72
65
 73
6
 40
0.8
 49
0.45
 74
0
 49
-0.05
 74
0
 49
0.1
 74
0
 49
-0.05
 74
0
 49
0.1
 74
0
 49
-0.05
 74
0
  0
LTYPE
  5
1F8
100
AcDbSymbolTableRecord
100
AcDbLinetypeTableRecord
  2
DOT
 70
64
  3
. . . . . . . . . . . . . . . . . . . .
 72
65
 73
2
 40
0.2
 49
0.1
 74
0
 49
-0.1
 74
0
  0
LTYPE
  5
1F9
100
AcDbSymbolTableRecord
100
AcDbLinetypeTableRecord
  2
DASHED
 70
64
  3
- - - - - - - - - - - - - - - - - - - -
 72
65
 73
2
 40
0.2
 49
0.1
 74
0
 49
-0.1
 74
0
  0
LTYPE
  5
1FA
100
AcDbSymbolTableRecord
100
AcDbLinetypeTableRecord
  2
SOLIDFONT
 70
64
  3
Solid line
 72
65
 73
0
 40
0.0
  0
LTYPE
  5
1FB
100
AcDbSymbolTableRecord
100
AcDbLinetypeTableRecord
  2
SOLIDFONT
 70
64
  3
Solid line
 72
65
 73
0
 40
0.0
  0
LTYPE
  5
1FC
100
AcDbSymbolTableRecord
100
AcDbLinetypeTableRecord
  2
SOLIDFONT
 70
64
  3
Solid line
 72
65
 73
0
 40
0.0
  0
LTYPE
  5
1FD
100
AcDbSymbolTableRecord
100
AcDbLinetypeTableRecord
  2
SOLIDFONT
 70
64
  3
Solid line
 72
65
 73
0
 40
0.0
  0
ENDTAB
  0
TABLE
  2
LAYER
  5
2
100
AcDbSymbolTable
 70
36
  0
LAYER
  5
10
100
AcDbSymbolTableRecord
100
AcDbLayerTableRecord
  2
0
 70
0
 62
7
  6
CONTINUOUS
370
-3
390
F
  0
LAYER
  5
1FE
100
AcDbSymbolTableRecord
100
AcDbLayerTableRecord
  2
DEFAULT_1
 70
0
 62
7
  6
CENTER
370
-3
390
F
  0
LAYER
  5
1FF
100
AcDbSymbolTableRecord
100
AcDbLayerTableRecord
  2
DEFAULT_2
 70
0
 62
8
  6
HIDDEN
370
-3
390
F
  0
LAYER
  5
200
100
AcDbSymbolTableRecord
100
AcDbLayerTableRecord
  2
DEFAULT_3
 70
0
 62
7
  6
PHANTOM
370
-3
390
F
  0
LAYER
  5
201
100
AcDbSymbolTableRecord
100
AcDbLayerTableRecord
  2
AM_12
 70
0
 62
7
  6
CONTINUOUS
370
-3
390
F
  0
LAYER
  5
202
100
AcDbSymbolTableRecord
100
AcDbLayerTableRecord
  2
AXIS
 70
0
 62
7
  6
CONTINUOUS
370
-3
390
F
  0
LAYER
  5
203
100
AcDbSymbolTableRecord
100
AcDbLayerTableRecord
  2
BASIC_DEVICE
 70
0
 62
7
  6
CONTINUOUS
370
-3
390
F
  0
LAYER
  5
204
100
AcDbSymbolTableRecord
100
AcDbLayerTableRecord
  2
DEVICE_FIXING_HOLES
 70
0
 62
7
  6
CONTINUOUS
370
-3
390
F
  0
LAYER
  5
205
100
AcDbSymbolTableRecord
100
AcDbLayerTableRecord
  2
Defpoints
 70
0
 62
7
  6
CONTINUOUS
290
0
370
-3
390
F
  0
LAYER
  5
206
100
AcDbSymbolTableRecord
100
AcDbLayerTableRecord
  2
HANDLE_FIXING_HOLES
 70
0
 62
7
  6
CONTINUOUS
370
-3
390
F
  0
LAYER
  5
207
100
AcDbSymbolTableRecord
100
AcDbLayerTableRecord
  2
H_EXTERN_HANDLE
 70
0
 62
7
  6
CONTINUOUS
370
-3
390
F
  0
LAYER
  5
208
100
AcDbSymbolTableRecord
100
AcDbLayerTableRecord
  2
H_MOVING
 70
0
 62
7
  6
CONTINUOUS
370
-3
390
F
  0
LAYER
  5
209
100
AcDbSymbolTableRecord
100
AcDbLayerTableRecord
  2
INTER_PHASE_SCHIELDS
 70
0
 62
7
  6
CONTINUOUS
370
-3
390
F
  0
LAYER
  5
20A
100
AcDbSymbolTableRecord
100
AcDbLayerTableRecord
  2
POINT_D_ACCROCHAGE
 70
0
 62
7
  6
CONTINUOUS
370
-3
390
F
  0
LAYER
  5
20B
100
AcDbSymbolTableRecord
100
AcDbLayerTableRecord
  2
QUOTATION
 70
0
 62
7
  6
CONTINUOUS
370
-3
390
F
  0
LAYER
  5
20C
100
AcDbSymbolTableRecord
100
AcDbLayerTableRecord
  2
TERMINAL_SCREEN
 70
0
 62
7
  6
CONTINUOUS
370
-3
390
F
  0
LAYER
  5
20D
100
AcDbSymbolTableRecord
100
AcDbLayerTableRecord
  2
TEXT
 70
0
 62
7
  6
CONTINUOUS
370
-3
390
F
  0
ENDTAB
  0
TABLE
  2
STYLE
  5
3
100
AcDbSymbolTable
 70
1
  0
STYLE
  5
11
100
AcDbSymbolTableRecord
100
AcDbTextStyleTableRecord
  2
STANDARD
 70
0
 40
0.0
 41
0.8
 50
0.0
 71
0
 42
0.2
  3
txt
  4

  0
STYLE
  5
20E
100
AcDbSymbolTableRecord
100
AcDbTextStyleTableRecord
  2
TEXTSTYLE_1
 70
0
 40
0.0
 41
0.8
 50
0.0
 71
0
 42
0.2
  3
gdt
  4

  0
STYLE
  5
20F
100
AcDbSymbolTableRecord
100
AcDbTextStyleTableRecord
  2
TEXTSTYLE_2
 70
0
 40
0.0
 41
1.0
 50
0.0
 71
0
 42
0.2
  3
txt
  4

  0
STYLE
  5
210
100
AcDbSymbolTableRecord
100
AcDbTextStyleTableRecord
  2
TEXTSTYLE_3
 70
0
 40
0.0
 41
1.0
 50
0.0
 71
0
 42
0.2
  3
txt
  4

  0
ENDTAB
  0
TABLE
  2
VIEW
  5
6
100
AcDbSymbolTable
 70
0
  0
ENDTAB
  0
TABLE
  2
UCS
  5
7
100
AcDbSymbolTable
 70
0
  0
ENDTAB
  0
TABLE
  2
APPID
  5
9
100
AcDbSymbolTable
 70
1
  0
APPID
  5
211
100
AcDbSymbolTableRecord
100
AcDbRegAppTableRecord
  2
ACAD
 70
0
  0
ENDTAB
  0
TABLE
  2
BLOCK_RECORD
  5
1
100
AcDbSymbolTable
 70
0
  0
BLOCK_RECORD
  5
212
100
AcDbSymbolTableRecord
100
AcDbBlockTableRecord
  2
*Model_Space
  0
BLOCK_RECORD
  5
213
100
AcDbSymbolTableRecord
100
AcDbBlockTableRecord
  2
*Paper_Space
  0
BLOCK_RECORD
  5
214
100
AcDbSymbolTableRecord
100
AcDbBlockTableRecord
  2
_CLOSED
  0
BLOCK_RECORD
  5
215
100
AcDbSymbolTableRecord
100
AcDbBlockTableRecord
  2
*D0
  0
BLOCK_RECORD
  5
216
100
AcDbSymbolTableRecord
100
AcDbBlockTableRecord
  2
*D1
  0
BLOCK_RECORD
  5
217
100
AcDbSymbolTableRecord
100
AcDbBlockTableRecord
  2
*D2
  0
BLOCK_RECORD
  5
218
100
AcDbSymbolTableRecord
100
AcDbBlockTableRecord
  2
*D3
  0
BLOCK_RECORD
  5
219
100
AcDbSymbolTableRecord
100
AcDbBlockTableRecord
  2
*D4
  0
BLOCK_RECORD
  5
21A
100
AcDbSymbolTableRecord
100
AcDbBlockTableRecord
  2
*D5
  0
BLOCK_RECORD
  5
21B
100
AcDbSymbolTableRecord
100
AcDbBlockTableRecord
  2
*D6
  0
BLOCK_RECORD
  5
21C
100
AcDbSymbolTableRecord
100
AcDbBlockTableRecord
  2
*D7
  0
BLOCK_RECORD
  5
21D
100
AcDbSymbolTableRecord
100
AcDbBlockTableRecord
  2
*D8
  0
BLOCK_RECORD
  5
21E
100
AcDbSymbolTableRecord
100
AcDbBlockTableRecord
  2
*D9
  0
BLOCK_RECORD
  5
21F
100
AcDbSymbolTableRecord
100
AcDbBlockTableRecord
  2
*D10
  0
BLOCK_RECORD
  5
220
100
AcDbSymbolTableRecord
100
AcDbBlockTableRecord
  2
*D11
  0
BLOCK_RECORD
  5
221
100
AcDbSymbolTableRecord
100
AcDbBlockTableRecord
  2
*D12
  0
BLOCK_RECORD
  5
222
100
AcDbSymbolTableRecord
100
AcDbBlockTableRecord
  2
*D13
  0
BLOCK_RECORD
  5
223
100
AcDbSymbolTableRecord
100
AcDbBlockTableRecord
  2
*D14
  0
BLOCK_RECORD
  5
224
100
AcDbSymbolTableRecord
100
AcDbBlockTableRecord
  2
*D15
  0
BLOCK_RECORD
  5
225
100
AcDbSymbolTableRecord
100
AcDbBlockTableRecord
  2
*D16
  0
BLOCK_RECORD
  5
226
100
AcDbSymbolTableRecord
100
AcDbBlockTableRecord
  2
*D17
  0
BLOCK_RECORD
  5
227
100
AcDbSymbolTableRecord
100
AcDbBlockTableRecord
  2
*D18
  0
BLOCK_RECORD
  5
228
100
AcDbSymbolTableRecord
100
AcDbBlockTableRecord
  2
*D19
  0
BLOCK_RECORD
  5
229
100
AcDbSymbolTableRecord
100
AcDbBlockTableRecord
  2
*D20
  0
BLOCK_RECORD
  5
22A
100
AcDbSymbolTableRecord
100
AcDbBlockTableRecord
  2
*D21
  0
BLOCK_RECORD
  5
22B
100
AcDbSymbolTableRecord
100
AcDbBlockTableRecord
  2
*D22
  0
BLOCK_RECORD
  5
22C
100
AcDbSymbolTableRecord
100
AcDbBlockTableRecord
  2
*D23
  0
BLOCK_RECORD
  5
22D
100
AcDbSymbolTableRecord
100
AcDbBlockTableRecord
  2
*D24
  0
BLOCK_RECORD
  5
22E
100
AcDbSymbolTableRecord
100
AcDbBlockTableRecord
  2
*D25
  0
BLOCK_RECORD
  5
22F
100
AcDbSymbolTableRecord
100
AcDbBlockTableRecord
  2
*D26
  0
BLOCK_RECORD
  5
230
100
AcDbSymbolTableRecord
100
AcDbBlockTableRecord
  2
*D27
  0
ENDTAB
  0
TABLE
  2
DIMSTYLE
  5
A
100
AcDbSymbolTable
 70
1
100
AcDbDimStyleTable
 71
0
  0
DIMSTYLE
105
231
100
AcDbSymbolTableRecord
100
AcDbDimStyleTableRecord
  2
STANDARD
 70
0
  3

  4

 40
1.0
 41
0.1875
 42
0.0625
 43
0.38
 44
0.18
 45
0.0
 46
0.0
 47
0.1
 48
0.1
140
0.15625
141
0.09
142
0.0
143
25.4
144
1.0
145
0.0
146
1.0
147
0.09
 71
0.0
 72
0.0
 73
1
 74
1
 75
0
 76
0
 77
0
 78
8
170
0
171
2
172
0
173
0
174
0
175
0
176
0
177
0
178
0
270
2
271
1
272
1
273
2
274
2
275
0
280
0
281
0
282
0
283
1
284
8
285
0
286
0
287
3
288
0
340
11
341
214
342
214
343
214
344
214
  0
DIMSTYLE
105
232
100
AcDbSymbolTableRecord
100
AcDbDimStyleTableRecord
  2
DIMSTYLE_1
 70
0
  3

  4

 40
1.0
 41
0.1875
 42
0.0625
 43
0.38
 44
0.18
 45
0.0
 46
0.0
 47
0.0
 48
0.0
140
10.5
141
0.09
142
0.0
143
25.4
144
1.0
145
0.0
146
1.0
147
0.09
 71
0.0
 72
0.0
 73
1
 74
1
 75
0
 76
0
 77
0
 78
8
170
0
171
2
172
0
173
0
174
0
175
0
176
0
177
0
178
0
270
2
271
1
272
1
273
2
274
2
275
0
280
0
281
0
282
0
283
1
284
8
285
0
286
0
287
3
288
0
340
11
341
214
342
214
343
214
344
214
  0
DIMSTYLE
105
233
100
AcDbSymbolTableRecord
100
AcDbDimStyleTableRecord
  2
DIMSTYLE_2
 70
0
  3

  4

 40
1.0
 41
0.1875
 42
0.0625
 43
0.38
 44
0.18
 45
0.0
 46
0.0
 47
0.0
 48
0.0
140
10.5
141
0.09
142
0.0
143
25.4
144
1.0
145
0.0
146
1.0
147
0.09
 71
0.0
 72
0.0
 73
1
 74
1
 75
0
 76
0
 77
0
 78
8
170
0
171
2
172
0
173
0
174
0
175
0
176
0
177
0
178
0
270
2
271
1
272
1
273
2
274
2
275
0
280
0
281
0
282
0
283
1
284
8
285
0
286
0
287
3
288
0
340
11
341
214
342
214
343
214
344
214
  0
ENDTAB
  0
ENDSEC
  0
SECTION
  2
BLOCKS
  0
BLOCK
  5
20
100
AcDbEntity
  8
0
100
AcDbBlockBegin
  2
*Model_Space
 70
0
 10
0.0
 20
0.0
 30
0.0
  3
*Model_Space
  1

  0
ENDBLK
  5
21
100
AcDbEntity
  8
0
100
AcDbBlockEnd
  0
BLOCK
  5
1C
100
AcDbEntity
  8
0
100
AcDbBlockBegin
  2
*Paper_Space
 70
0
 10
0.0
 20
0.0
 30
0.0
  3
*Paper_Space
  1

  0
ENDBLK
  5
1D
100
AcDbEntity
  8
0
100
AcDbBlockEnd
  0
BLOCK
  5
234
100
AcDbEntity
  8
0
100
AcDbBlockBegin
  2
_CLOSED
 70
64
 10
0.0
 20
0.0
  3
_CLOSED
  1

  0
LINE
  5
235
100
AcDbEntity
  8
0
  6
BYBLOCK
 62
0
100
AcDbLine
 10
0.0
 20
0.0
 11
-1.0
 21
0.1666666667
  0
LINE
  5
236
100
AcDbEntity
  8
0
  6
BYBLOCK
 62
0
100
AcDbLine
 10
-1.0
 20
0.1666666667
 11
-1.0
 21
-0.1666666667
  0
LINE
  5
237
100
AcDbEntity
  8
0
  6
BYBLOCK
 62
0
100
AcDbLine
 10
-1.0
 20
-0.1666666667
 11
0.0
 21
0.0
  0
LINE
  5
238
100
AcDbEntity
  8
0
  6
BYBLOCK
 62
0
100
AcDbLine
 10
-1.0
 20
0.0
 11
0.0
 21
0.0
  0
ENDBLK
  5
239
100
AcDbEntity
  8
0
  6
BYBLOCK
 62
0
100
AcDbBlockEnd
  0
BLOCK
  5
23A
100
AcDbEntity
  8
QUOTATION
100
AcDbBlockBegin
 62
3
  6
CONTINUOUS
  2
*D0
 70
65
 10
0.0
 20
0.0
  3
*D0
  1

  0
MTEXT
  5
23B
100
AcDbEntity
  8
QUOTATION
100
AcDbMText
 62
3
  6
CONTINUOUS
  7
STANDARD
 71
2
 72
1
 10
585.8712232847
 20
253.3106022866
 30
0.0
 11
1.0
 21
0.0
 31
0.0
 44
0.9
  1
175
 40
10.5
 41
25.2
  0
LINE
  5
23C
100
AcDbEntity
  8
QUOTATION
100
AcDbLine
 62
3
  6
CONTINUOUS
 10
632.1719725079
 20
155.3106022866
 11
585.7462232847
 21
155.3106022866
  0
LINE
  5
23D
100
AcDbEntity
  8
QUOTATION
100
AcDbLine
 62
3
  6
CONTINUOUS
 10
632.1719725079
 20
330.3106022866
 11
585.7462232847
 21
330.3106022866
  0
LINE
  5
23E
100
AcDbEntity
  8
QUOTATION
100
AcDbLine
 62
3
  6
CONTINUOUS
 10
585.8712232847
 20
155.3106022866
 11
585.8712232847
 21
237.5606022866
  0
LINE
  5
23F
100
AcDbEntity
  8
QUOTATION
100
AcDbLine
 62
3
  6
CONTINUOUS
 10
585.8712232847
 20
330.3106022866
 11
585.8712232847
 21
258.5606022866
  0
INSERT
  5
240
100
AcDbEntity
  8
QUOTATION
100
AcDbBlockReference
 62
3
  6
CONTINUOUS
  2
_CLOSED
 10
585.8712232847
 20
155.3106022866
 41
0.1875
 42
0.1875
 43
0.1875
 50
270.0
  0
INSERT
  5
241
100
AcDbEntity
  8
QUOTATION
100
AcDbBlockReference
 62
3
  6
CONTINUOUS
  2
_CLOSED
 10
585.8712232847
 20
330.3106022866
 41
0.1875
 42
0.1875
 43
0.1875
 50
90.0
  0
ENDBLK
  5
242
100
AcDbEntity
  8
0
  6
BYBLOCK
 62
0
100
AcDbBlockEnd
  0
BLOCK
  5
243
100
AcDbEntity
  8
QUOTATION
100
AcDbBlockBegin
 62
3
  6
CONTINUOUS
  2
*D1
 70
65
 10
0.0
 20
0.0
  3
*D1
  1

  0
MTEXT
  5
244
100
AcDbEntity
  8
QUOTATION
100
AcDbMText
 62
3
  6
CONTINUOUS
  7
STANDARD
 71
2
 72
1
 10
555.8712232847
 20
253.3106022866
 30
0.0
 11
1.0
 21
0.0
 31
0.0
 44
0.9
  1
200
 40
10.5
 41
25.2
  0
LINE
  5
245
100
AcDbEntity
  8
QUOTATION
100
AcDbLine
 62
3
  6
CONTINUOUS
 10
619.6719725079
 20
142.8106022866
 11
555.7462232847
 21
142.8106022866
  0
LINE
  5
246
100
AcDbEntity
  8
QUOTATION
100
AcDbLine
 62
3
  6
CONTINUOUS
 10
619.6719725079
 20
342.8106022866
 11
555.7462232847
 21
342.8106022866
  0
LINE
  5
247
100
AcDbEntity
  8
QUOTATION
100
AcDbLine
 62
3
  6
CONTINUOUS
 10
555.8712232847
 20
142.8106022866
 11
555.8712232847
 21
237.5606022866
  0
LINE
  5
248
100
AcDbEntity
  8
QUOTATION
100
AcDbLine
 62
3
  6
CONTINUOUS
 10
555.8712232847
 20
342.8106022866
 11
555.8712232847
 21
258.5606022866
  0
INSERT
  5
249
100
AcDbEntity
  8
QUOTATION
100
AcDbBlockReference
 62
3
  6
CONTINUOUS
  2
_CLOSED
 10
555.8712232847
 20
142.8106022866
 41
0.1875
 42
0.1875
 43
0.1875
 50
270.0
  0
INSERT
  5
24A
100
AcDbEntity
  8
QUOTATION
100
AcDbBlockReference
 62
3
  6
CONTINUOUS
  2
_CLOSED
 10
555.8712232847
 20
342.8106022866
 41
0.1875
 42
0.1875
 43
0.1875
 50
90.0
  0
ENDBLK
  5
24B
100
AcDbEntity
  8
0
  6
BYBLOCK
 62
0
100
AcDbBlockEnd
  0
BLOCK
  5
24C
100
AcDbEntity
  8
QUOTATION
100
AcDbBlockBegin
 62
3
  6
CONTINUOUS
  2
*D2
 70
65
 10
0.0
 20
0.0
  3
*D2
  1

  0
MTEXT
  5
24D
100
AcDbEntity
  8
QUOTATION
100
AcDbMText
 62
3
  6
CONTINUOUS
  7
STANDARD
 71
2
 72
1
 10
555.8712232847
 20
385.8111452554
 30
0.0
 11
1.0
 21
0.0
 31
0.0
 44
0.9
  1
65
 40
10.5
 41
16.8
  0
LINE
  5
24E
100
AcDbEntity
  8
QUOTATION
100
AcDbLine
 62
3
  6
CONTINUOUS
 10
661.1719725079
 20
342.8116882241
 11
555.7462232847
 21
342.8116882241
  0
LINE
  5
24F
100
AcDbEntity
  8
QUOTATION
100
AcDbLine
 62
3
  6
CONTINUOUS
 10
666.1719725079
 20
407.8106022866
 11
555.7462232847
 21
407.8106022866
  0
LINE
  5
250
100
AcDbEntity
  8
QUOTATION
100
AcDbLine
 62
3
  6
CONTINUOUS
 10
555.8712232847
 20
342.8116882241
 11
555.8712232847
 21
370.0611452554
  0
LINE
  5
251
100
AcDbEntity
  8
QUOTATION
100
AcDbLine
 62
3
  6
CONTINUOUS
 10
555.8712232847
 20
407.8106022866
 11
555.8712232847
 21
391.0611452554
  0
INSERT
  5
252
100
AcDbEntity
  8
QUOTATION
100
AcDbBlockReference
 62
3
  6
CONTINUOUS
  2
_CLOSED
 10
555.8712232847
 20
342.8116882241
 41
0.1875
 42
0.1875
 43
0.1875
 50
270.0
  0
INSERT
  5
253
100
AcDbEntity
  8
QUOTATION
100
AcDbBlockReference
 62
3
  6
CONTINUOUS
  2
_CLOSED
 10
555.8712232847
 20
407.8106022866
 41
0.1875
 42
0.1875
 43
0.1875
 50
90.0
  0
ENDBLK
  5
254
100
AcDbEntity
  8
0
  6
BYBLOCK
 62
0
100
AcDbBlockEnd
  0
BLOCK
  5
255
100
AcDbEntity
  8
QUOTATION
100
AcDbBlockBegin
 62
3
  6
CONTINUOUS
  2
*D3
 70
65
 10
0.0
 20
0.0
  3
*D3
  1

  0
MTEXT
  5
256
100
AcDbEntity
  8
QUOTATION
100
AcDbMText
 62
3
  6
CONTINUOUS
  7
STANDARD
 71
2
 72
1
 10
555.8712232847
 20
451.0606022866
 30
0.0
 11
1.0
 21
0.0
 31
0.0
 44
0.9
  1
65.5
 40
10.5
 41
33.6
  0
LINE
  5
257
100
AcDbEntity
  8
QUOTATION
100
AcDbLine
 62
3
  6
CONTINUOUS
 10
666.1719725079
 20
407.8106022866
 11
555.7462232847
 21
407.8106022866
  0
LINE
  5
258
100
AcDbEntity
  8
QUOTATION
100
AcDbLine
 62
3
  6
CONTINUOUS
 10
624.6719725079
 20
473.3106022866
 11
555.7462232847
 21
473.3106022866
  0
LINE
  5
259
100
AcDbEntity
  8
QUOTATION
100
AcDbLine
 62
3
  6
CONTINUOUS
 10
555.8712232847
 20
407.8106022866
 11
555.8712232847
 21
435.3106022866
  0
LINE
  5
25A
100
AcDbEntity
  8
QUOTATION
100
AcDbLine
 62
3
  6
CONTINUOUS
 10
555.8712232847
 20
473.3106022866
 11
555.8712232847
 21
456.3106022866
  0
INSERT
  5
25B
100
AcDbEntity
  8
QUOTATION
100
AcDbBlockReference
 62
3
  6
CONTINUOUS
  2
_CLOSED
 10
555.8712232847
 20
407.8106022866
 41
0.1875
 42
0.1875
 43
0.1875
 50
270.0
  0
INSERT
  5
25C
100
AcDbEntity
  8
QUOTATION
100
AcDbBlockReference
 62
3
  6
CONTINUOUS
  2
_CLOSED
 10
555.8712232847
 20
473.3106022866
 41
0.1875
 42
0.1875
 43
0.1875
 50
90.0
  0
ENDBLK
  5
25D
100
AcDbEntity
  8
0
  6
BYBLOCK
 62
0
100
AcDbBlockEnd
  0
BLOCK
  5
25E
100
AcDbEntity
  8
QUOTATION
100
AcDbBlockBegin
 62
3
  6
CONTINUOUS
  2
*D4
 70
65
 10
0.0
 20
0.0
  3
*D4
  1

  0
MTEXT
  5
25F
100
AcDbEntity
  8
QUOTATION
100
AcDbMText
 62
3
  6
CONTINUOUS
  7
STANDARD
 71
2
 72
1
 10
800.7204769605
 20
533.684263892
 30
0.0
 11
1.0
 21
0.0
 31
0.0
 44
0.9
  1
347
 40
10.5
 41
25.2
  0
LINE
  5
260
100
AcDbEntity
  8
QUOTATION
100
AcDbLine
 62
3
  6
CONTINUOUS
 10
632.2969725079
 20
330.4356022866
 11
632.2969725079
 21
528.559263892
  0
LINE
  5
261
100
AcDbEntity
  8
QUOTATION
100
AcDbLine
 62
3
  6
CONTINUOUS
 10
979.2969725079
 20
330.4356022866
 11
979.2969725079
 21
528.559263892
  0
LINE
  5
262
100
AcDbEntity
  8
QUOTATION
100
AcDbLine
 62
3
  6
CONTINUOUS
 10
632.2969725079
 20
528.434263892
 11
782.8704769605
 21
528.434263892
  0
LINE
  5
263
100
AcDbEntity
  8
QUOTATION
100
AcDbLine
 62
3
  6
CONTINUOUS
 10
979.2969725079
 20
528.434263892
 11
818.5704769605
 21
528.434263892
  0
INSERT
  5
264
100
AcDbEntity
  8
QUOTATION
100
AcDbBlockReference
 62
3
  6
CONTINUOUS
  2
_CLOSED
 10
632.2969725079
 20
528.434263892
 41
0.1875
 42
0.1875
 43
0.1875
 50
180.0
  0
INSERT
  5
265
100
AcDbEntity
  8
QUOTATION
100
AcDbBlockReference
 62
3
  6
CONTINUOUS
  2
_CLOSED
 10
979.2969725079
 20
528.434263892
 41
0.1875
 42
0.1875
 43
0.1875
  0
ENDBLK
  5
266
100
AcDbEntity
  8
0
  6
BYBLOCK
 62
0
100
AcDbBlockEnd
  0
BLOCK
  5
267
100
AcDbEntity
  8
QUOTATION
100
AcDbBlockBegin
 62
3
  6
CONTINUOUS
  2
*D5
 70
65
 10
0.0
 20
0.0
  3
*D5
  1

  0
MTEXT
  5
268
100
AcDbEntity
  8
QUOTATION
100
AcDbMText
 62
3
  6
CONTINUOUS
  7
STANDARD
 71
2
 72
1
 10
651.3469725079
 20
46.2606012866
 30
0.0
 11
1.0
 21
0.0
 31
0.0
 44
0.9
  1
46.5
 40
10.5
 41
33.6
  0
LINE
  5
269
100
AcDbEntity
  8
QUOTATION
100
AcDbLine
 62
3
  6
CONTINUOUS
 10
632.2969725079
 20
155.1856022866
 11
632.2969725079
 21
40.8856012866
  0
LINE
  5
26A
100
AcDbEntity
  8
QUOTATION
100
AcDbLine
 62
3
  6
CONTINUOUS
 10
678.7969725079
 20
77.6856022866
 11
678.7969725079
 21
40.8856012866
  0
LINE
  5
26B
100
AcDbEntity
  8
QUOTATION
100
AcDbLine
 62
3
  6
CONTINUOUS
 10
632.2969725079
 20
41.0106012866
 11
632.297109374
 21
41.0106012866
  0
LINE
  5
26C
100
AcDbEntity
  8
QUOTATION
100
AcDbLine
 62
3
  6
CONTINUOUS
 10
678.7969725079
 20
41.0106012866
 11
673.3969725079
 21
41.0106012866
  0
INSERT
  5
26D
100
AcDbEntity
  8
QUOTATION
100
AcDbBlockReference
 62
3
  6
CONTINUOUS
  2
_CLOSED
 10
632.2969725079
 20
41.0106012866
 41
0.1875
 42
0.1875
 43
0.1875
 50
180.0
  0
INSERT
  5
26E
100
AcDbEntity
  8
QUOTATION
100
AcDbBlockReference
 62
3
  6
CONTINUOUS
  2
_CLOSED
 10
678.7969725079
 20
41.0106012866
 41
0.1875
 42
0.1875
 43
0.1875
 50
360.0
  0
ENDBLK
  5
26F
100
AcDbEntity
  8
0
  6
BYBLOCK
 62
0
100
AcDbBlockEnd
  0
BLOCK
  5
270
100
AcDbEntity
  8
QUOTATION
100
AcDbBlockBegin
 62
3
  6
CONTINUOUS
  2
*D6
 70
65
 10
0.0
 20
0.0
  3
*D6
  1

  0
MTEXT
  5
271
100
AcDbEntity
  8
QUOTATION
100
AcDbMText
 62
3
  6
CONTINUOUS
  7
STANDARD
 71
2
 72
1
 10
735.6469725079
 20
47.0606022866
 30
0.0
 11
1.0
 21
0.0
 31
0.0
 44
0.9
  1
120
 40
10.5
 41
25.2
  0
LINE
  5
272
100
AcDbEntity
  8
QUOTATION
100
AcDbLine
 62
3
  6
CONTINUOUS
 10
678.7969725079
 20
77.6856022866
 11
678.7969725079
 21
41.6856022866
  0
LINE
  5
273
100
AcDbEntity
  8
QUOTATION
100
AcDbLine
 62
3
  6
CONTINUOUS
 10
798.7969725079
 20
77.6856022866
 11
798.7969725079
 21
41.6856022866
  0
LINE
  5
274
100
AcDbEntity
  8
QUOTATION
100
AcDbLine
 62
3
  6
CONTINUOUS
 10
678.7969725079
 20
41.8106022866
 11
717.7969725079
 21
41.8106022866
  0
LINE
  5
275
100
AcDbEntity
  8
QUOTATION
100
AcDbLine
 62
3
  6
CONTINUOUS
 10
798.7969725079
 20
41.8106022866
 11
753.4969725079
 21
41.8106022866
  0
INSERT
  5
276
100
AcDbEntity
  8
QUOTATION
100
AcDbBlockReference
 62
3
  6
CONTINUOUS
  2
_CLOSED
 10
678.7969725079
 20
41.8106022866
 41
0.1875
 42
0.1875
 43
0.1875
 50
180.0
  0
INSERT
  5
277
100
AcDbEntity
  8
QUOTATION
100
AcDbBlockReference
 62
3
  6
CONTINUOUS
  2
_CLOSED
 10
798.7969725079
 20
41.8106022866
 41
0.1875
 42
0.1875
 43
0.1875
  0
ENDBLK
  5
278
100
AcDbEntity
  8
0
  6
BYBLOCK
 62
0
100
AcDbBlockEnd
  0
BLOCK
  5
279
100
AcDbEntity
  8
QUOTATION
100
AcDbBlockBegin
 62
3
  6
CONTINUOUS
  2
*D7
 70
65
 10
0.0
 20
0.0
  3
*D7
  1

  0
MTEXT
  5
27A
100
AcDbEntity
  8
QUOTATION
100
AcDbMText
 62
3
  6
CONTINUOUS
  7
STANDARD
 71
2
 72
1
 10
916.6969725079
 20
41.4744565925
 30
0.0
 11
1.0
 21
0.0
 31
0.0
 44
0.9
  1
63
 40
10.5
 41
16.8
  0
LINE
  5
27B
100
AcDbEntity
  8
QUOTATION
100
AcDbLine
 62
3
  6
CONTINUOUS
 10
887.2969725079
 20
82.6856022866
 11
887.2969725079
 21
36.0994565925
  0
LINE
  5
27C
100
AcDbEntity
  8
QUOTATION
100
AcDbLine
 62
3
  6
CONTINUOUS
 10
950.2969725079
 20
82.6856022866
 11
950.2969725079
 21
36.0994565925
  0
LINE
  5
27D
100
AcDbEntity
  8
QUOTATION
100
AcDbLine
 62
3
  6
CONTINUOUS
 10
887.2969725079
 20
36.2244565925
 11
903.0469725079
 21
36.2244565925
  0
LINE
  5
27E
100
AcDbEntity
  8
QUOTATION
100
AcDbLine
 62
3
  6
CONTINUOUS
 10
950.2969725079
 20
36.2244565925
 11
930.3469725079
 21
36.2244565925
  0
INSERT
  5
27F
100
AcDbEntity
  8
QUOTATION
100
AcDbBlockReference
 62
3
  6
CONTINUOUS
  2
_CLOSED
 10
887.2969725079
 20
36.2244565925
 41
0.1875
 42
0.1875
 43
0.1875
 50
180.0
  0
INSERT
  5
280
100
AcDbEntity
  8
QUOTATION
100
AcDbBlockReference
 62
3
  6
CONTINUOUS
  2
_CLOSED
 10
950.2969725079
 20
36.2244565925
 41
0.1875
 42
0.1875
 43
0.1875
  0
ENDBLK
  5
281
100
AcDbEntity
  8
0
  6
BYBLOCK
 62
0
100
AcDbBlockEnd
  0
BLOCK
  5
282
100
AcDbEntity
  8
QUOTATION
100
AcDbBlockBegin
 62
3
  6
CONTINUOUS
  2
*D8
 70
65
 10
0.0
 20
0.0
  3
*D8
  1

  0
MTEXT
  5
283
100
AcDbEntity
  8
QUOTATION
100
AcDbMText
 62
3
  6
CONTINUOUS
  7
STANDARD
 71
2
 72
1
 10
916.6969725079
 20
62.6908330535
 30
0.0
 11
1.0
 21
0.0
 31
0.0
 44
0.9
  1
40
 40
10.5
 41
16.8
  0
LINE
  5
284
100
AcDbEntity
  8
QUOTATION
100
AcDbLine
 62
3
  6
CONTINUOUS
 10
898.7969725079
 20
97.6856022866
 11
898.7969725079
 21
57.3158330535
  0
LINE
  5
285
100
AcDbEntity
  8
QUOTATION
100
AcDbLine
 62
3
  6
CONTINUOUS
 10
938.7969725079
 20
97.6856022866
 11
938.7969725079
 21
57.3158330535
  0
LINE
  5
286
100
AcDbEntity
  8
QUOTATION
100
AcDbLine
 62
3
  6
CONTINUOUS
 10
898.7969725079
 20
57.4408330535
 11
903.0469725079
 21
57.4408330535
  0
LINE
  5
287
100
AcDbEntity
  8
QUOTATION
100
AcDbLine
 62
3
  6
CONTINUOUS
 10
938.7969725079
 20
57.4408330535
 11
930.3469725079
 21
57.4408330535
  0
INSERT
  5
288
100
AcDbEntity
  8
QUOTATION
100
AcDbBlockReference
 62
3
  6
CONTINUOUS
  2
_CLOSED
 10
898.7969725079
 20
57.4408330535
 41
0.1875
 42
0.1875
 43
0.1875
 50
180.0
  0
INSERT
  5
289
100
AcDbEntity
  8
QUOTATION
100
AcDbBlockReference
 62
3
  6
CONTINUOUS
  2
_CLOSED
 10
938.7969725079
 20
57.4408330535
 41
0.1875
 42
0.1875
 43
0.1875
  0
ENDBLK
  5
28A
100
AcDbEntity
  8
0
  6
BYBLOCK
 62
0
100
AcDbBlockEnd
  0
BLOCK
  5
28B
100
AcDbEntity
  8
QUOTATION
100
AcDbBlockBegin
 62
3
  6
CONTINUOUS
  2
*D9
 70
65
 10
0.0
 20
0.0
  3
*D9
  1

  0
MTEXT
  5
28C
100
AcDbEntity
  8
QUOTATION
100
AcDbMText
 62
3
  6
CONTINUOUS
  7
STANDARD
 71
2
 72
1
 10
713.7969725078
 20
504.9201766852
 30
0.0
 11
1.0
 21
0.0
 31
0.0
 44
0.9
  1
173.5
 40
10.5
 41
42.0
  0
LINE
  5
28D
100
AcDbEntity
  8
QUOTATION
100
AcDbLine
 62
3
  6
CONTINUOUS
 10
632.2969725079
 20
330.4356022866
 11
632.2969725079
 21
499.7951766852
  0
LINE
  5
28E
100
AcDbEntity
  8
QUOTATION
100
AcDbLine
 62
3
  6
CONTINUOUS
 10
805.7969725077
 20
270.9356022867
 11
805.7969725077
 21
499.7951766852
  0
LINE
  5
28F
100
AcDbEntity
  8
QUOTATION
100
AcDbLine
 62
3
  6
CONTINUOUS
 10
632.2969725079
 20
499.6701766852
 11
687.5469725078
 21
499.6701766852
  0
LINE
  5
290
100
AcDbEntity
  8
QUOTATION
100
AcDbLine
 62
3
  6
CONTINUOUS
 10
805.7969725077
 20
499.6701766852
 11
740.0469725078
 21
499.6701766852
  0
INSERT
  5
291
100
AcDbEntity
  8
QUOTATION
100
AcDbBlockReference
 62
3
  6
CONTINUOUS
  2
_CLOSED
 10
632.2969725079
 20
499.6701766852
 41
0.1875
 42
0.1875
 43
0.1875
 50
180.0
  0
INSERT
  5
292
100
AcDbEntity
  8
QUOTATION
100
AcDbBlockReference
 62
3
  6
CONTINUOUS
  2
_CLOSED
 10
805.7969725077
 20
499.6701766852
 41
0.1875
 42
0.1875
 43
0.1875
 50
0.0
  0
ENDBLK
  5
293
100
AcDbEntity
  8
0
  6
BYBLOCK
 62
0
100
AcDbBlockEnd
  0
BLOCK
  5
294
100
AcDbEntity
  8
QUOTATION
100
AcDbBlockBegin
 62
3
  6
CONTINUOUS
  2
*D10
 70
65
 10
0.0
 20
0.0
  3
*D10
  1

  0
MTEXT
  5
295
100
AcDbEntity
  8
QUOTATION
100
AcDbMText
 62
3
  6
CONTINUOUS
  7
STANDARD
 71
2
 72
1
 10
1048.6976519195
 20
311.0606022866
 30
0.0
 11
1.0
 21
0.0
 31
0.0
 44
0.9
  1
59.5
 40
10.5
 41
33.6
  0
LINE
  5
296
100
AcDbEntity
  8
QUOTATION
100
AcDbLine
 62
3
  6
CONTINUOUS
 10
979.4219725079
 20
330.3106022866
 11
1048.8226519195
 21
330.3106022866
  0
LINE
  5
297
100
AcDbEntity
  8
QUOTATION
100
AcDbLine
 62
3
  6
CONTINUOUS
 10
995.9219725076
 20
270.8106022867
 11
1048.8226519195
 21
270.8106022867
  0
LINE
  5
298
100
AcDbEntity
  8
QUOTATION
100
AcDbLine
 62
3
  6
CONTINUOUS
 10
1048.6976519195
 20
330.3106022866
 11
1048.6976519195
 21
316.3106022866
  0
LINE
  5
299
100
AcDbEntity
  8
QUOTATION
100
AcDbLine
 62
3
  6
CONTINUOUS
 10
1048.6976519195
 20
270.8106022867
 11
1048.6976519195
 21
295.3106022866
  0
INSERT
  5
29A
100
AcDbEntity
  8
QUOTATION
100
AcDbBlockReference
 62
3
  6
CONTINUOUS
  2
_CLOSED
 10
1048.6976519195
 20
330.3106022866
 41
0.1875
 42
0.1875
 43
0.1875
 50
90.0
  0
INSERT
  5
29B
100
AcDbEntity
  8
QUOTATION
100
AcDbBlockReference
 62
3
  6
CONTINUOUS
  2
_CLOSED
 10
1048.6976519195
 20
270.8106022867
 41
0.1875
 42
0.1875
 43
0.1875
 50
270.0
  0
ENDBLK
  5
29C
100
AcDbEntity
  8
0
  6
BYBLOCK
 62
0
100
AcDbBlockEnd
  0
BLOCK
  5
29D
100
AcDbEntity
  8
QUOTATION
100
AcDbBlockBegin
 62
3
  6
CONTINUOUS
  2
*D11
 70
65
 10
0.0
 20
0.0
  3
*D11
  1

  0
MTEXT
  5
29E
100
AcDbEntity
  8
QUOTATION
100
AcDbMText
 62
3
  6
CONTINUOUS
  7
STANDARD
 71
2
 72
1
 10
992.1423932491
 20
118.3106022866
 30
0.0
 11
1.0
 21
0.0
 31
0.0
 44
0.9
  1
20
 40
10.5
 41
16.8
  0
LINE
  5
29F
100
AcDbEntity
  8
QUOTATION
100
AcDbLine
 62
3
  6
CONTINUOUS
 10
938.9219725079
 20
117.8106022866
 11
992.2673932491
 21
117.8106022866
  0
LINE
  5
2A0
100
AcDbEntity
  8
QUOTATION
100
AcDbLine
 62
3
  6
CONTINUOUS
 10
938.9219725079
 20
97.8106022866
 11
992.2673932491
 21
97.8106022866
  0
LINE
  5
2A1
100
AcDbEntity
  8
QUOTATION
100
AcDbLine
 62
3
  6
CONTINUOUS
 10
992.1423932491
 20
117.8106022866
 11
992.1423932491
 21
118.3106022866
  0
LINE
  5
2A2
100
AcDbEntity
  8
QUOTATION
100
AcDbLine
 62
3
  6
CONTINUOUS
 10
992.1423932491
 20
97.8106022866
 11
992.1423932491
 21
97.3106022866
  0
INSERT
  5
2A3
100
AcDbEntity
  8
QUOTATION
100
AcDbBlockReference
 62
3
  6
CONTINUOUS
  2
_CLOSED
 10
992.1423932491
 20
117.8106022866
 41
0.1875
 42
0.1875
 43
0.1875
 50
270.0
  0
INSERT
  5
2A4
100
AcDbEntity
  8
QUOTATION
100
AcDbBlockReference
 62
3
  6
CONTINUOUS
  2
_CLOSED
 10
992.1423932491
 20
97.8106022866
 41
0.1875
 42
0.1875
 43
0.1875
 50
90.0
  0
ENDBLK
  5
2A5
100
AcDbEntity
  8
0
  6
BYBLOCK
 62
0
100
AcDbBlockEnd
  0
BLOCK
  5
2A6
100
AcDbEntity
  8
QUOTATION
100
AcDbBlockBegin
 62
3
  6
CONTINUOUS
  2
*D12
 70
65
 10
0.0
 20
0.0
  3
*D12
  1

  0
MTEXT
  5
2A7
100
AcDbEntity
  8
QUOTATION
100
AcDbMText
 62
3
  6
CONTINUOUS
  7
STANDARD
 71
2
 72
1
 10
992.1423932491
 20
73.3981514992
 30
0.0
 11
1.0
 21
0.0
 31
0.0
 44
0.9
  1
20
 40
10.5
 41
16.8
  0
LINE
  5
2A8
100
AcDbEntity
  8
QUOTATION
100
AcDbLine
 62
3
  6
CONTINUOUS
 10
938.9219725079
 20
97.8106022866
 11
992.2673932491
 21
97.8106022866
  0
LINE
  5
2A9
100
AcDbEntity
  8
QUOTATION
100
AcDbLine
 62
3
  6
CONTINUOUS
 10
945.4219725079
 20
77.8106022866
 11
992.2673932491
 21
77.8106022866
  0
LINE
  5
2AA
100
AcDbEntity
  8
QUOTATION
100
AcDbLine
 62
3
  6
CONTINUOUS
 10
992.1423932491
 20
97.8106022866
 11
992.1423932491
 21
98.3106022866
  0
LINE
  5
2AB
100
AcDbEntity
  8
QUOTATION
100
AcDbLine
 62
3
  6
CONTINUOUS
 10
992.1423932491
 20
77.8106022866
 11
992.1423932491
 21
77.8104654205
  0
INSERT
  5
2AC
100
AcDbEntity
  8
QUOTATION
100
AcDbBlockReference
 62
3
  6
CONTINUOUS
  2
_CLOSED
 10
992.1423932491
 20
97.8106022866
 41
0.1875
 42
0.1875
 43
0.1875
 50
270.0
  0
INSERT
  5
2AD
100
AcDbEntity
  8
QUOTATION
100
AcDbBlockReference
 62
3
  6
CONTINUOUS
  2
_CLOSED
 10
992.1423932491
 20
77.8106022866
 41
0.1875
 42
0.1875
 43
0.1875
 50
90.0
  0
ENDBLK
  5
2AE
100
AcDbEntity
  8
0
  6
BYBLOCK
 62
0
100
AcDbBlockEnd
  0
BLOCK
  5
2AF
100
AcDbEntity
  8
QUOTATION
100
AcDbBlockBegin
 62
3
  6
CONTINUOUS
  2
*D13
 70
65
 10
0.0
 20
0.0
  3
*D13
  1

  0
MTEXT
  5
2B0
100
AcDbEntity
  8
QUOTATION
100
AcDbMText
 62
3
  6
CONTINUOUS
  7
TEXTSTYLE_1
 71
2
 72
1
 10
1040.6494926861
 20
355.8556849763
 30
0.0
 11
1.0
 21
0.0
 31
0.0
 44
0.9
  1
{\Fgdt;n}\Ftxt;9
 40
10.5
 41
22.4
  0
LINE
  5
2B1
100
AcDbEntity
  8
QUOTATION
100
AcDbLine
 62
3
  6
CONTINUOUS
 10
982.8442754631
 20
333.0794724072
 11
1005.2977611566
 21
350.6056849763
  0
LINE
  5
2B2
100
AcDbEntity
  8
QUOTATION
100
AcDbLine
 62
3
  6
CONTINUOUS
 10
1005.2977611566
 20
350.6056849763
 11
1024.1994926861
 21
350.6056849763
  0
INSERT
  5
2B3
100
AcDbEntity
  8
QUOTATION
100
AcDbBlockReference
 62
3
  6
CONTINUOUS
  2
_CLOSED
 10
982.8442754631
 20
333.0794724072
 41
0.1875
 42
0.1875
 43
0.1875
 50
217.9740470423
  0
ENDBLK
  5
2B4
100
AcDbEntity
  8
0
  6
BYBLOCK
 62
0
100
AcDbBlockEnd
  0
BLOCK
  5
2B5
100
AcDbEntity
  8
QUOTATION
100
AcDbBlockBegin
 62
3
  6
CONTINUOUS
  2
*D14
 70
65
 10
0.0
 20
0.0
  3
*D14
  1

  0
MTEXT
  5
2B6
100
AcDbEntity
  8
QUOTATION
100
AcDbMText
 62
3
  6
CONTINUOUS
  7
STANDARD
 71
2
 72
1
 10
351.9810614474
 20
524.1592438717
 30
0.0
 11
1.0
 21
0.0
 31
0.0
 44
0.9
  1
47
 40
10.5
 41
16.8
  0
LINE
  5
2B7
100
AcDbEntity
  8
QUOTATION
100
AcDbLine
 62
3
  6
CONTINUOUS
 10
377.5810614474
 20
342.9356022866
 11
377.5810614474
 21
519.0342438717
  0
LINE
  5
2B8
100
AcDbEntity
  8
QUOTATION
100
AcDbLine
 62
3
  6
CONTINUOUS
 10
330.5810614474
 20
407.9356022866
 11
330.5810614474
 21
519.0342438717
  0
LINE
  5
2B9
100
AcDbEntity
  8
QUOTATION
100
AcDbLine
 62
3
  6
CONTINUOUS
 10
377.5810614474
 20
518.9092438717
 11
365.6310614474
 21
518.9092438717
  0
LINE
  5
2BA
100
AcDbEntity
  8
QUOTATION
100
AcDbLine
 62
3
  6
CONTINUOUS
 10
330.5810614474
 20
518.9092438717
 11
338.3310614474
 21
518.9092438717
  0
INSERT
  5
2BB
100
AcDbEntity
  8
QUOTATION
100
AcDbBlockReference
 62
3
  6
CONTINUOUS
  2
_CLOSED
 10
377.5810614474
 20
518.9092438717
 41
0.1875
 42
0.1875
 43
0.1875
  0
INSERT
  5
2BC
100
AcDbEntity
  8
QUOTATION
100
AcDbBlockReference
 62
3
  6
CONTINUOUS
  2
_CLOSED
 10
330.5810614474
 20
518.9092438717
 41
0.1875
 42
0.1875
 43
0.1875
 50
180.0
  0
ENDBLK
  5
2BD
100
AcDbEntity
  8
0
  6
BYBLOCK
 62
0
100
AcDbBlockEnd
  0
BLOCK
  5
2BE
100
AcDbEntity
  8
QUOTATION
100
AcDbBlockBegin
 62
3
  6
CONTINUOUS
  2
*D15
 70
65
 10
0.0
 20
0.0
  3
*D15
  1

  0
MTEXT
  5
2BF
100
AcDbEntity
  8
QUOTATION
100
AcDbMText
 62
3
  6
CONTINUOUS
  7
STANDARD
 71
2
 72
1
 10
307.9310614474
 20
447.2436616019
 30
0.0
 11
1.0
 21
0.0
 31
0.0
 44
0.9
  1
7
 40
10.5
 41
8.4
  0
LINE
  5
2C0
100
AcDbEntity
  8
QUOTATION
100
AcDbLine
 62
3
  6
CONTINUOUS
 10
337.5810614474
 20
407.9356022866
 11
337.5810614474
 21
442.1186616019
  0
LINE
  5
2C1
100
AcDbEntity
  8
QUOTATION
100
AcDbLine
 62
3
  6
CONTINUOUS
 10
330.5810614474
 20
407.9356022866
 11
330.5810614474
 21
442.1186616019
  0
LINE
  5
2C2
100
AcDbEntity
  8
QUOTATION
100
AcDbLine
 62
3
  6
CONTINUOUS
 10
337.5810614474
 20
441.9936616019
 11
338.0810614474
 21
441.9936616019
  0
LINE
  5
2C3
100
AcDbEntity
  8
QUOTATION
100
AcDbLine
 62
3
  6
CONTINUOUS
 10
330.5810614474
 20
441.9936616019
 11
317.3810614474
 21
441.9936616019
  0
INSERT
  5
2C4
100
AcDbEntity
  8
QUOTATION
100
AcDbBlockReference
 62
3
  6
CONTINUOUS
  2
_CLOSED
 10
337.5810614474
 20
441.9936616019
 41
0.1875
 42
0.1875
 43
0.1875
 50
180.0
  0
INSERT
  5
2C5
100
AcDbEntity
  8
QUOTATION
100
AcDbBlockReference
 62
3
  6
CONTINUOUS
  2
_CLOSED
 10
330.5810614474
 20
441.9936616019
 41
0.1875
 42
0.1875
 43
0.1875
  0
ENDBLK
  5
2C6
100
AcDbEntity
  8
0
  6
BYBLOCK
 62
0
100
AcDbBlockEnd
  0
BLOCK
  5
2C7
100
AcDbEntity
  8
QUOTATION
100
AcDbBlockBegin
 62
3
  6
CONTINUOUS
  2
*D16
 70
65
 10
0.0
 20
0.0
  3
*D16
  1

  0
MTEXT
  5
2C8
100
AcDbEntity
  8
QUOTATION
100
AcDbMText
 62
3
  6
CONTINUOUS
  7
STANDARD
 71
2
 72
1
 10
304.4310614474
 20
544.2807497708
 30
0.0
 11
1.0
 21
0.0
 31
0.0
 44
0.9
  1
140
 40
10.5
 41
25.2
  0
LINE
  5
2C9
100
AcDbEntity
  8
QUOTATION
100
AcDbLine
 62
3
  6
CONTINUOUS
 10
377.5810614474
 20
342.9356022866
 11
377.5810614474
 21
539.1557497708
  0
LINE
  5
2CA
100
AcDbEntity
  8
QUOTATION
100
AcDbLine
 62
3
  6
CONTINUOUS
 10
237.5810614474
 20
342.9356022866
 11
237.5810614474
 21
539.1557497708
  0
LINE
  5
2CB
100
AcDbEntity
  8
QUOTATION
100
AcDbLine
 62
3
  6
CONTINUOUS
 10
377.5810614474
 20
539.0307497708
 11
322.2810614474
 21
539.0307497708
  0
LINE
  5
2CC
100
AcDbEntity
  8
QUOTATION
100
AcDbLine
 62
3
  6
CONTINUOUS
 10
237.5810614474
 20
539.0307497708
 11
286.5810614474
 21
539.0307497708
  0
INSERT
  5
2CD
100
AcDbEntity
  8
QUOTATION
100
AcDbBlockReference
 62
3
  6
CONTINUOUS
  2
_CLOSED
 10
377.5810614474
 20
539.0307497708
 41
0.1875
 42
0.1875
 43
0.1875
  0
INSERT
  5
2CE
100
AcDbEntity
  8
QUOTATION
100
AcDbBlockReference
 62
3
  6
CONTINUOUS
  2
_CLOSED
 10
237.5810614474
 20
539.0307497708
 41
0.1875
 42
0.1875
 43
0.1875
 50
180.0
  0
ENDBLK
  5
2CF
100
AcDbEntity
  8
0
  6
BYBLOCK
 62
0
100
AcDbBlockEnd
  0
BLOCK
  5
2D0
100
AcDbEntity
  8
QUOTATION
100
AcDbBlockBegin
 62
3
  6
CONTINUOUS
  2
*D17
 70
65
 10
0.0
 20
0.0
  3
*D17
  1

  0
MTEXT
  5
2D1
100
AcDbEntity
  8
QUOTATION
100
AcDbMText
 62
3
  6
CONTINUOUS
  7
STANDARD
 71
2
 72
1
 10
268.4310614474
 20
566.1414587857
 30
0.0
 11
1.0
 21
0.0
 31
0.0
 44
0.9
  1
212
 40
10.5
 41
25.2
  0
LINE
  5
2D2
100
AcDbEntity
  8
QUOTATION
100
AcDbLine
 62
3
  6
CONTINUOUS
 10
377.5810614474
 20
342.9356022866
 11
377.5810614474
 21
561.0164587857
  0
LINE
  5
2D3
100
AcDbEntity
  8
QUOTATION
100
AcDbLine
 62
3
  6
CONTINUOUS
 10
165.5810614474
 20
310.9356022867
 11
165.5810614474
 21
561.0164587857
  0
LINE
  5
2D4
100
AcDbEntity
  8
QUOTATION
100
AcDbLine
 62
3
  6
CONTINUOUS
 10
377.5810614474
 20
560.8914587857
 11
286.2810614474
 21
560.8914587857
  0
LINE
  5
2D5
100
AcDbEntity
  8
QUOTATION
100
AcDbLine
 62
3
  6
CONTINUOUS
 10
165.5810614474
 20
560.8914587857
 11
250.5810614474
 21
560.8914587857
  0
INSERT
  5
2D6
100
AcDbEntity
  8
QUOTATION
100
AcDbBlockReference
 62
3
  6
CONTINUOUS
  2
_CLOSED
 10
377.5810614474
 20
560.8914587857
 41
0.1875
 42
0.1875
 43
0.1875
  0
INSERT
  5
2D7
100
AcDbEntity
  8
QUOTATION
100
AcDbBlockReference
 62
3
  6
CONTINUOUS
  2
_CLOSED
 10
165.5810614474
 20
560.8914587857
 41
0.1875
 42
0.1875
 43
0.1875
 50
180.0
  0
ENDBLK
  5
2D8
100
AcDbEntity
  8
0
  6
BYBLOCK
 62
0
100
AcDbBlockEnd
  0
BLOCK
  5
2D9
100
AcDbEntity
  8
QUOTATION
100
AcDbBlockBegin
 62
3
  6
CONTINUOUS
  2
*D18
 70
65
 10
0.0
 20
0.0
  3
*D18
  1

  0
MTEXT
  5
2DA
100
AcDbEntity
  8
QUOTATION
100
AcDbMText
 62
3
  6
CONTINUOUS
  7
STANDARD
 71
2
 72
1
 10
115.4810614474
 20
566.1414587857
 30
0.0
 11
1.0
 21
0.0
 31
0.0
 44
0.9
  1
96
 40
10.5
 41
16.8
  0
LINE
  5
2DB
100
AcDbEntity
  8
QUOTATION
100
AcDbLine
 62
3
  6
CONTINUOUS
 10
165.5810614473
 20
310.9356022867
 11
165.5810614473
 21
561.0164587857
  0
LINE
  5
2DC
100
AcDbEntity
  8
QUOTATION
100
AcDbLine
 62
3
  6
CONTINUOUS
 10
69.5810614474
 20
270.9356022867
 11
69.5810614474
 21
561.0164587857
  0
LINE
  5
2DD
100
AcDbEntity
  8
QUOTATION
100
AcDbLine
 62
3
  6
CONTINUOUS
 10
165.5810614473
 20
560.8914587857
 11
129.1310614474
 21
560.8914587857
  0
LINE
  5
2DE
100
AcDbEntity
  8
QUOTATION
100
AcDbLine
 62
3
  6
CONTINUOUS
 10
69.5810614474
 20
560.8914587857
 11
101.8310614474
 21
560.8914587857
  0
INSERT
  5
2DF
100
AcDbEntity
  8
QUOTATION
100
AcDbBlockReference
 62
3
  6
CONTINUOUS
  2
_CLOSED
 10
165.5810614473
 20
560.8914587857
 41
0.1875
 42
0.1875
 43
0.1875
  0
INSERT
  5
2E0
100
AcDbEntity
  8
QUOTATION
100
AcDbBlockReference
 62
3
  6
CONTINUOUS
  2
_CLOSED
 10
69.5810614474
 20
560.8914587857
 41
0.1875
 42
0.1875
 43
0.1875
 50
180.0
  0
ENDBLK
  5
2E1
100
AcDbEntity
  8
0
  6
BYBLOCK
 62
0
100
AcDbBlockEnd
  0
BLOCK
  5
2E2
100
AcDbEntity
  8
QUOTATION
100
AcDbBlockBegin
 62
3
  6
CONTINUOUS
  2
*D19
 70
65
 10
0.0
 20
0.0
  3
*D19
  1

  0
MTEXT
  5
2E3
100
AcDbEntity
  8
QUOTATION
100
AcDbMText
 62
3
  6
CONTINUOUS
  7
STANDARD
 71
2
 72
1
 10
1308.6828111971
 20
340.1334440557
 30
0.0
 11
1.0
 21
0.0
 31
0.0
 44
0.9
  1
4x \Fgdt;{\Fgdt;n}\Ftxt;4.5
 40
10.5
 41
64.4
  0
LINE
  5
2E4
100
AcDbEntity
  8
QUOTATION
100
AcDbLine
 62
3
  6
CONTINUOUS
 10
1201.2727312112
 20
297.7938051969
 11
1221.1478869566
 21
334.8834440557
  0
LINE
  5
2E5
100
AcDbEntity
  8
QUOTATION
100
AcDbLine
 62
3
  6
CONTINUOUS
 10
1221.1478869566
 20
334.8834440557
 11
1271.2328111971
 21
334.8834440557
  0
INSERT
  5
2E6
100
AcDbEntity
  8
QUOTATION
100
AcDbBlockReference
 62
3
  6
CONTINUOUS
  2
_CLOSED
 10
1201.2727312112
 20
297.7938051969
 41
0.1875
 42
0.1875
 43
0.1875
 50
241.814560908
  0
ENDBLK
  5
2E7
100
AcDbEntity
  8
0
  6
BYBLOCK
 62
0
100
AcDbBlockEnd
  0
BLOCK
  5
2E8
100
AcDbEntity
  8
QUOTATION
100
AcDbBlockBegin
 62
3
  6
CONTINUOUS
  2
*D20
 70
65
 10
0.0
 20
0.0
  3
*D20
  1

  0
MTEXT
  5
2E9
100
AcDbEntity
  8
QUOTATION
100
AcDbMText
 62
3
  6
CONTINUOUS
  7
TEXTSTYLE_1
 71
2
 72
1
 10
1263.7693631724
 20
299.5048892437
 30
0.0
 11
1.0
 21
0.0
 31
0.0
 44
0.9
  1
{\Fgdt;n}\Ftxt;31
 40
10.5
 41
30.8
  0
LINE
  5
2EA
100
AcDbEntity
  8
QUOTATION
100
AcDbLine
 62
3
  6
CONTINUOUS
 10
1210.1245924116
 20
282.7249120517
 11
1219.7193631724
 21
294.2548892437
  0
LINE
  5
2EB
100
AcDbEntity
  8
QUOTATION
100
AcDbLine
 62
3
  6
CONTINUOUS
 10
1219.7193631724
 20
294.2548892437
 11
1243.1193631724
 21
294.2548892437
  0
INSERT
  5
2EC
100
AcDbEntity
  8
QUOTATION
100
AcDbBlockReference
 62
3
  6
CONTINUOUS
  2
_CLOSED
 10
1210.1245924116
 20
282.7249120517
 41
0.1875
 42
0.1875
 43
0.1875
 50
230.2341710034
  0
ENDBLK
  5
2ED
100
AcDbEntity
  8
0
  6
BYBLOCK
 62
0
100
AcDbBlockEnd
  0
BLOCK
  5
2EE
100
AcDbEntity
  8
QUOTATION
100
AcDbBlockBegin
 62
3
  6
CONTINUOUS
  2
*D21
 70
65
 10
0.0
 20
0.0
  3
*D21
  1

  0
MTEXT
  5
2EF
100
AcDbEntity
  8
QUOTATION
100
AcDbMText
 62
3
  6
CONTINUOUS
  7
STANDARD
 71
2
 72
1
 10
1198.1099959587
 20
220.1823157917
 30
0.0
 11
1.0
 21
0.0
 31
0.0
 44
0.9
  1
50
 40
10.5
 41
16.8
  0
LINE
  5
2F0
100
AcDbEntity
  8
QUOTATION
100
AcDbLine
 62
3
  6
CONTINUOUS
 10
1175.2099959587
 20
270.6856022867
 11
1175.2099959587
 21
214.8073157917
  0
LINE
  5
2F1
100
AcDbEntity
  8
QUOTATION
100
AcDbLine
 62
3
  6
CONTINUOUS
 10
1225.2099959587
 20
270.6856022867
 11
1225.2099959587
 21
214.8073157917
  0
LINE
  5
2F2
100
AcDbEntity
  8
QUOTATION
100
AcDbLine
 62
3
  6
CONTINUOUS
 10
1175.2099959587
 20
214.9323157917
 11
1184.4599959587
 21
214.9323157917
  0
LINE
  5
2F3
100
AcDbEntity
  8
QUOTATION
100
AcDbLine
 62
3
  6
CONTINUOUS
 10
1225.2099959587
 20
214.9323157917
 11
1211.7599959587
 21
214.9323157917
  0
INSERT
  5
2F4
100
AcDbEntity
  8
QUOTATION
100
AcDbBlockReference
 62
3
  6
CONTINUOUS
  2
_CLOSED
 10
1175.2099959587
 20
214.9323157917
 41
0.1875
 42
0.1875
 43
0.1875
 50
180.0
  0
INSERT
  5
2F5
100
AcDbEntity
  8
QUOTATION
100
AcDbBlockReference
 62
3
  6
CONTINUOUS
  2
_CLOSED
 10
1225.2099959587
 20
214.9323157917
 41
0.1875
 42
0.1875
 43
0.1875
  0
ENDBLK
  5
2F6
100
AcDbEntity
  8
0
  6
BYBLOCK
 62
0
100
AcDbBlockEnd
  0
BLOCK
  5
2F7
100
AcDbEntity
  8
QUOTATION
100
AcDbBlockBegin
 62
3
  6
CONTINUOUS
  2
*D22
 70
65
 10
0.0
 20
0.0
  3
*D22
  1

  0
MTEXT
  5
2F8
100
AcDbEntity
  8
QUOTATION
100
AcDbMText
 62
3
  6
CONTINUOUS
  7
STANDARD
 71
2
 72
1
 10
1161.5071489759
 20
281.3106022867
 30
0.0
 11
1.0
 21
0.0
 31
0.0
 44
0.9
  1
50
 40
10.5
 41
16.8
  0
LINE
  5
2F9
100
AcDbEntity
  8
QUOTATION
100
AcDbLine
 62
3
  6
CONTINUOUS
 10
1200.0849959587
 20
245.8106022867
 11
1161.3821489759
 21
245.8106022867
  0
LINE
  5
2FA
100
AcDbEntity
  8
QUOTATION
100
AcDbLine
 62
3
  6
CONTINUOUS
 10
1200.0849959587
 20
295.8106022867
 11
1161.3821489759
 21
295.8106022867
  0
LINE
  5
2FB
100
AcDbEntity
  8
QUOTATION
100
AcDbLine
 62
3
  6
CONTINUOUS
 10
1161.5071489759
 20
245.8106022867
 11
1161.5071489759
 21
265.5606022867
  0
LINE
  5
2FC
100
AcDbEntity
  8
QUOTATION
100
AcDbLine
 62
3
  6
CONTINUOUS
 10
1161.5071489759
 20
295.8106022867
 11
1161.5071489759
 21
286.5606022867
  0
INSERT
  5
2FD
100
AcDbEntity
  8
QUOTATION
100
AcDbBlockReference
 62
3
  6
CONTINUOUS
  2
_CLOSED
 10
1161.5071489759
 20
245.8106022867
 41
0.1875
 42
0.1875
 43
0.1875
 50
270.0
  0
INSERT
  5
2FE
100
AcDbEntity
  8
QUOTATION
100
AcDbBlockReference
 62
3
  6
CONTINUOUS
  2
_CLOSED
 10
1161.5071489759
 20
295.8106022867
 41
0.1875
 42
0.1875
 43
0.1875
 50
90.0
  0
ENDBLK
  5
2FF
100
AcDbEntity
  8
0
  6
BYBLOCK
 62
0
100
AcDbBlockEnd
  0
BLOCK
  5
300
100
AcDbEntity
  8
QUOTATION
100
AcDbBlockBegin
 62
3
  6
CONTINUOUS
  2
*D23
 70
65
 10
0.0
 20
0.0
  3
*D23
  1

  0
MTEXT
  5
301
100
AcDbEntity
  8
QUOTATION
100
AcDbMText
 62
3
  6
CONTINUOUS
  7
STANDARD
 71
2
 72
1
 10
802.6469725079
 20
647.090489017
 30
0.0
 11
1.0
 21
0.0
 31
0.0
 44
0.9
  1
372
 40
10.5
 41
25.2
  0
LINE
  5
302
100
AcDbEntity
  8
QUOTATION
100
AcDbLine
 62
3
  6
CONTINUOUS
 10
619.7969725079
 20
677.715489017
 11
619.7969725079
 21
641.715489017
  0
LINE
  5
303
100
AcDbEntity
  8
QUOTATION
100
AcDbLine
 62
3
  6
CONTINUOUS
 10
991.7969725079
 20
677.715489017
 11
991.7969725079
 21
641.715489017
  0
LINE
  5
304
100
AcDbEntity
  8
QUOTATION
100
AcDbLine
 62
3
  6
CONTINUOUS
 10
619.7969725079
 20
641.840489017
 11
784.7969725079
 21
641.840489017
  0
LINE
  5
305
100
AcDbEntity
  8
QUOTATION
100
AcDbLine
 62
3
  6
CONTINUOUS
 10
991.7969725079
 20
641.840489017
 11
820.4969725079
 21
641.840489017
  0
INSERT
  5
306
100
AcDbEntity
  8
QUOTATION
100
AcDbBlockReference
 62
3
  6
CONTINUOUS
  2
_CLOSED
 10
619.7969725079
 20
641.840489017
 41
0.1875
 42
0.1875
 43
0.1875
 50
180.0
  0
INSERT
  5
307
100
AcDbEntity
  8
QUOTATION
100
AcDbBlockReference
 62
3
  6
CONTINUOUS
  2
_CLOSED
 10
991.7969725079
 20
641.840489017
 41
0.1875
 42
0.1875
 43
0.1875
  0
ENDBLK
  5
308
100
AcDbEntity
  8
0
  6
BYBLOCK
 62
0
100
AcDbBlockEnd
  0
BLOCK
  5
309
100
AcDbEntity
  8
QUOTATION
100
AcDbBlockBegin
 62
3
  6
CONTINUOUS
  2
*D24
 70
65
 10
0.0
 20
0.0
  3
*D24
  1

  0
MTEXT
  5
30A
100
AcDbEntity
  8
QUOTATION
100
AcDbMText
 62
3
  6
CONTINUOUS
  7
STANDARD
 71
2
 72
1
 10
651.3469725079
 20
446.2626500581
 30
0.0
 11
1.0
 21
0.0
 31
0.0
 44
0.9
  1
46.5
 40
10.5
 41
33.6
  0
LINE
  5
30B
100
AcDbEntity
  8
QUOTATION
100
AcDbLine
 62
3
  6
CONTINUOUS
 10
678.7969725079
 20
407.9356022866
 11
678.7969725079
 21
441.1376500581
  0
LINE
  5
30C
100
AcDbEntity
  8
QUOTATION
100
AcDbLine
 62
3
  6
CONTINUOUS
 10
632.2969725079
 20
330.4356022866
 11
632.2969725079
 21
441.1376500581
  0
LINE
  5
30D
100
AcDbEntity
  8
QUOTATION
100
AcDbLine
 62
3
  6
CONTINUOUS
 10
678.7969725079
 20
441.0126500581
 11
673.3969725079
 21
441.0126500581
  0
LINE
  5
30E
100
AcDbEntity
  8
QUOTATION
100
AcDbLine
 62
3
  6
CONTINUOUS
 10
632.2969725079
 20
441.0126500581
 11
632.297109374
 21
441.0126500581
  0
INSERT
  5
30F
100
AcDbEntity
  8
QUOTATION
100
AcDbBlockReference
 62
3
  6
CONTINUOUS
  2
_CLOSED
 10
678.7969725079
 20
441.0126500581
 41
0.1875
 42
0.1875
 43
0.1875
  0
INSERT
  5
310
100
AcDbEntity
  8
QUOTATION
100
AcDbBlockReference
 62
3
  6
CONTINUOUS
  2
_CLOSED
 10
632.2969725079
 20
441.0126500581
 41
0.1875
 42
0.1875
 43
0.1875
 50
180.0
  0
ENDBLK
  5
311
100
AcDbEntity
  8
0
  6
BYBLOCK
 62
0
100
AcDbBlockEnd
  0
BLOCK
  5
312
100
AcDbEntity
  8
QUOTATION
100
AcDbBlockBegin
 62
3
  6
CONTINUOUS
  2
*D25
 70
65
 10
0.0
 20
0.0
  3
*D25
  1

  0
MTEXT
  5
313
100
AcDbEntity
  8
QUOTATION
100
AcDbMText
 62
3
  6
CONTINUOUS
  7
STANDARD
 71
2
 72
1
 10
771.2724875853
 20
446.2626500581
 30
0.0
 11
1.0
 21
0.0
 31
0.0
 44
0.9
  1
240
 40
10.5
 41
25.2
  0
LINE
  5
314
100
AcDbEntity
  8
QUOTATION
100
AcDbLine
 62
3
  6
CONTINUOUS
 10
918.7969725079
 20
407.9356022866
 11
918.7969725079
 21
441.1376500581
  0
LINE
  5
315
100
AcDbEntity
  8
QUOTATION
100
AcDbLine
 62
3
  6
CONTINUOUS
 10
678.7969725079
 20
407.9356022866
 11
678.7969725079
 21
441.1376500581
  0
LINE
  5
316
100
AcDbEntity
  8
QUOTATION
100
AcDbLine
 62
3
  6
CONTINUOUS
 10
918.7969725079
 20
441.0126500581
 11
789.1224875853
 21
441.0126500581
  0
LINE
  5
317
100
AcDbEntity
  8
QUOTATION
100
AcDbLine
 62
3
  6
CONTINUOUS
 10
678.7969725079
 20
441.0126500581
 11
753.4224875853
 21
441.0126500581
  0
INSERT
  5
318
100
AcDbEntity
  8
QUOTATION
100
AcDbBlockReference
 62
3
  6
CONTINUOUS
  2
_CLOSED
 10
918.7969725079
 20
441.0126500581
 41
0.1875
 42
0.1875
 43
0.1875
  0
INSERT
  5
319
100
AcDbEntity
  8
QUOTATION
100
AcDbBlockReference
 62
3
  6
CONTINUOUS
  2
_CLOSED
 10
678.7969725079
 20
441.0126500581
 41
0.1875
 42
0.1875
 43
0.1875
 50
180.0
  0
ENDBLK
  5
31A
100
AcDbEntity
  8
0
  6
BYBLOCK
 62
0
100
AcDbBlockEnd
  0
BLOCK
  5
31B
100
AcDbEntity
  8
QUOTATION
100
AcDbBlockBegin
 62
3
  6
CONTINUOUS
  2
*D26
 70
65
 10
0.0
 20
0.0
  3
*D26
  1

  0
MTEXT
  5
31C
100
AcDbEntity
  8
QUOTATION
100
AcDbMText
 62
3
  6
CONTINUOUS
  7
TEXTSTYLE_1
 71
2
 72
1
 10
994.4454420831
 20
412.652732861
 30
0.0
 11
1.0
 21
0.0
 31
0.0
 44
0.9
  1
{\Fgdt;n}\Ftxt;11
 40
10.5
 41
30.8
  0
LINE
  5
31D
100
AcDbEntity
  8
QUOTATION
100
AcDbLine
 62
3
  6
CONTINUOUS
 10
941.948541036
 20
392.3181088937
 11
938.7969725079
 21
387.8106022866
  0
LINE
  5
31E
100
AcDbEntity
  8
QUOTATION
100
AcDbLine
 62
3
  6
CONTINUOUS
 10
938.7969725079
 20
387.8106022866
 11
952.4954420831
 21
407.402732861
  0
LINE
  5
31F
100
AcDbEntity
  8
QUOTATION
100
AcDbLine
 62
3
  6
CONTINUOUS
 10
952.4954420831
 20
407.402732861
 11
973.7954420831
 21
407.402732861
  0
LINE
  5
320
100
AcDbEntity
  8
QUOTATION
100
AcDbLine
 62
3
  6
CONTINUOUS
 10
935.6454039798
 20
383.3030956796
 11
938.7969725079
 21
387.8106022866
  0
INSERT
  5
321
100
AcDbEntity
  8
QUOTATION
100
AcDbBlockReference
 62
3
  6
CONTINUOUS
  2
_CLOSED
 10
941.948541036
 20
392.3181088937
 41
0.1875
 42
0.1875
 43
0.1875
 50
55.0394379798
  0
INSERT
  5
322
100
AcDbEntity
  8
QUOTATION
100
AcDbBlockReference
 62
3
  6
CONTINUOUS
  2
_CLOSED
 10
935.6454039798
 20
383.3030956796
 41
0.1875
 42
0.1875
 43
0.1875
 50
235.0394379798
  0
ENDBLK
  5
323
100
AcDbEntity
  8
0
  6
BYBLOCK
 62
0
100
AcDbBlockEnd
  0
BLOCK
  5
324
100
AcDbEntity
  8
QUOTATION
100
AcDbBlockBegin
 62
3
  6
CONTINUOUS
  2
*D27
 70
65
 10
0.0
 20
0.0
  3
*D27
  1

  0
MTEXT
  5
325
100
AcDbEntity
  8
QUOTATION
100
AcDbMText
 62
3
  6
CONTINUOUS
  7
STANDARD
 71
2
 72
1
 10
944.8469725079
 20
446.2166737081
 30
0.0
 11
1.0
 21
0.0
 31
0.0
 44
0.9
  1
60.5
 40
10.5
 41
33.6
  0
LINE
  5
326
100
AcDbEntity
  8
QUOTATION
100
AcDbLine
 62
3
  6
CONTINUOUS
 10
918.7969725079
 20
407.9356022866
 11
918.7969725079
 21
441.0916737081
  0
LINE
  5
327
100
AcDbEntity
  8
QUOTATION
100
AcDbLine
 62
3
  6
CONTINUOUS
 10
979.2969725079
 20
330.4356022866
 11
979.2969725079
 21
441.0916737081
  0
LINE
  5
328
100
AcDbEntity
  8
QUOTATION
100
AcDbLine
 62
3
  6
CONTINUOUS
 10
918.7969725079
 20
440.9666737081
 11
922.7969725079
 21
440.9666737081
  0
LINE
  5
329
100
AcDbEntity
  8
QUOTATION
100
AcDbLine
 62
3
  6
CONTINUOUS
 10
979.2969725079
 20
440.9666737081
 11
966.8969725079
 21
440.9666737081
  0
INSERT
  5
32A
100
AcDbEntity
  8
QUOTATION
100
AcDbBlockReference
 62
3
  6
CONTINUOUS
  2
_CLOSED
 10
918.7969725079
 20
440.9666737081
 41
0.1875
 42
0.1875
 43
0.1875
 50
180.0
  0
INSERT
  5
32B
100
AcDbEntity
  8
QUOTATION
100
AcDbBlockReference
 62
3
  6
CONTINUOUS
  2
_CLOSED
 10
979.2969725079
 20
440.9666737081
 41
0.1875
 42
0.1875
 43
0.1875
  0
ENDBLK
  5
32C
100
AcDbEntity
  8
0
  6
BYBLOCK
 62
0
100
AcDbBlockEnd
  0
ENDSEC
  0
SECTION
  2
ENTITIES
  0
DIMENSION
  5
32D
100
AcDbEntity
  8
QUOTATION
100
AcDbDimension
 62
3
  6
CONTINUOUS
  2
*D0
 10
585.8712232847
 20
330.3106022866
 11
573.2712232847
 21
248.0606022866
 70
160
 71
2
  1
175
  3
DIMSTYLE_1
100
AcDbAlignedDimension
 13
632.1719725079
 23
155.3106022866
 14
632.1719725079
 24
330.3106022866
 50
90.0
100
AcDbRotatedDimension
  0
DIMENSION
  5
32E
100
AcDbEntity
  8
QUOTATION
100
AcDbDimension
 62
3
  6
CONTINUOUS
  2
*D1
 10
555.8712232847
 20
342.8106022866
 11
543.2712232847
 21
248.0606022866
 70
160
 71
2
  1
200
  3
DIMSTYLE_1
100
AcDbAlignedDimension
 13
619.6719725079
 23
142.8106022866
 14
619.6719725079
 24
342.8106022866
 50
90.0
100
AcDbRotatedDimension
  0
DIMENSION
  5
32F
100
AcDbEntity
  8
QUOTATION
100
AcDbDimension
 62
3
  6
CONTINUOUS
  2
*D2
 10
555.8712232847
 20
407.8106022866
 11
547.4712232847
 21
380.5611452554
 70
160
 71
2
  1
65
  3
DIMSTYLE_1
100
AcDbAlignedDimension
 13
661.1719725079
 23
342.8116882241
 14
666.1719725079
 24
407.8106022866
 50
90.0
100
AcDbRotatedDimension
  0
DIMENSION
  5
330
100
AcDbEntity
  8
QUOTATION
100
AcDbDimension
 62
3
  6
CONTINUOUS
  2
*D3
 10
555.8712232847
 20
473.3106022866
 11
539.0712232847
 21
445.8106022866
 70
160
 71
2
  1
65.5
  3
DIMSTYLE_1
100
AcDbAlignedDimension
 13
666.1719725079
 23
407.8106022866
 14
624.6719725079
 24
473.3106022866
 50
90.0
100
AcDbRotatedDimension
  0
DIMENSION
  5
331
100
AcDbEntity
  8
QUOTATION
100
AcDbDimension
 62
3
  6
CONTINUOUS
  2
*D4
 10
979.2969725079
 20
528.434263892
 11
788.1204769605
 21
528.434263892
 70
160
 71
2
  1
347
  3
DIMSTYLE_1
100
AcDbAlignedDimension
 13
632.2969725079
 23
330.4356022866
 14
979.2969725079
 24
330.4356022866
100
AcDbRotatedDimension
  0
DIMENSION
  5
332
100
AcDbEntity
  8
QUOTATION
100
AcDbDimension
 62
3
  6
CONTINUOUS
  2
*D5
 10
678.7969725079
 20
41.0106012866
 11
634.5469725079
 21
41.0106012866
 70
160
 71
2
  1
46.5
  3
DIMSTYLE_1
100
AcDbAlignedDimension
 13
632.2969725079
 23
155.1856022866
 14
678.7969725079
 24
77.6856022866
 50
360.0
100
AcDbRotatedDimension
  0
DIMENSION
  5
333
100
AcDbEntity
  8
QUOTATION
100
AcDbDimension
 62
3
  6
CONTINUOUS
  2
*D6
 10
798.7969725079
 20
41.8106022866
 11
723.0469725079
 21
41.8106022866
 70
160
 71
2
  1
120
  3
DIMSTYLE_1
100
AcDbAlignedDimension
 13
678.7969725079
 23
77.6856022866
 14
798.7969725079
 24
77.6856022866
100
AcDbRotatedDimension
  0
DIMENSION
  5
334
100
AcDbEntity
  8
QUOTATION
100
AcDbDimension
 62
3
  6
CONTINUOUS
  2
*D7
 10
950.2969725079
 20
36.2244565925
 11
908.2969725079
 21
36.2244565925
 70
160
 71
2
  1
63
  3
DIMSTYLE_1
100
AcDbAlignedDimension
 13
887.2969725079
 23
82.6856022866
 14
950.2969725079
 24
82.6856022866
100
AcDbRotatedDimension
  0
DIMENSION
  5
335
100
AcDbEntity
  8
QUOTATION
100
AcDbDimension
 62
3
  6
CONTINUOUS
  2
*D8
 10
938.7969725079
 20
57.4408330535
 11
908.2969725079
 21
57.4408330535
 70
160
 71
2
  1
40
  3
DIMSTYLE_1
100
AcDbAlignedDimension
 13
898.7969725079
 23
97.6856022866
 14
938.7969725079
 24
97.6856022866
100
AcDbRotatedDimension
  0
DIMENSION
  5
336
100
AcDbEntity
  8
QUOTATION
100
AcDbDimension
 62
3
  6
CONTINUOUS
  2
*D9
 10
805.7969725077
 20
499.6701766852
 11
692.7969725078
 21
499.6701766852
 70
160
 71
2
  1
173.5
  3
DIMSTYLE_1
100
AcDbAlignedDimension
 13
632.2969725079
 23
330.4356022866
 14
805.7969725077
 24
270.9356022867
100
AcDbRotatedDimension
  0
DIMENSION
  5
337
100
AcDbEntity
  8
QUOTATION
100
AcDbDimension
 62
3
  6
CONTINUOUS
  2
*D10
 10
1048.6976519195
 20
270.8106022867
 11
1031.8976519195
 21
305.8106022866
 70
160
 71
2
  1
59.5
  3
DIMSTYLE_1
100
AcDbAlignedDimension
 13
979.4219725079
 23
330.3106022866
 14
995.9219725076
 24
270.8106022867
 50
270.0
100
AcDbRotatedDimension
  0
DIMENSION
  5
338
100
AcDbEntity
  8
QUOTATION
100
AcDbDimension
 62
3
  6
CONTINUOUS
  2
*D11
 10
992.1423932491
 20
97.8106022866
 11
983.7423932491
 21
113.0606022866
 70
160
 71
2
  1
20
  3
DIMSTYLE_1
100
AcDbAlignedDimension
 13
938.9219725079
 23
117.8106022866
 14
938.9219725079
 24
97.8106022866
 50
270.0
100
AcDbRotatedDimension
  0
DIMENSION
  5
339
100
AcDbEntity
  8
QUOTATION
100
AcDbDimension
 62
3
  6
CONTINUOUS
  2
*D12
 10
992.1423932491
 20
77.8106022866
 11
983.7423932491
 21
68.1481514992
 70
160
 71
2
  1
20
  3
DIMSTYLE_1
100
AcDbAlignedDimension
 13
938.9219725079
 23
97.8106022866
 14
945.4219725079
 24
77.8106022866
 50
270.0
100
AcDbRotatedDimension
  0
DIMENSION
  5
33A
100
AcDbEntity
  8
QUOTATION
100
AcDbDimension
 62
3
  6
CONTINUOUS
  2
*D13
 10
982.8442754631
 20
333.0794724072
 11
1035.0494926861
 21
350.6056849763
 70
163
 71
2
  1
%%c9
  3
DIMSTYLE_2
100
AcDbDiametricDimension
 15
975.7496695528
 25
327.5417321661
  0
DIMENSION
  5
33B
100
AcDbEntity
  8
QUOTATION
100
AcDbDimension
 62
3
  6
CONTINUOUS
  2
*D14
 10
330.5810614474
 20
518.9092438717
 11
343.5810614474
 21
518.9092438717
 70
160
 71
2
  1
47
  3
DIMSTYLE_1
100
AcDbAlignedDimension
 13
377.5810614474
 23
342.9356022866
 14
330.5810614474
 24
407.9356022866
 50
180.0
100
AcDbRotatedDimension
  0
DIMENSION
  5
33C
100
AcDbEntity
  8
QUOTATION
100
AcDbDimension
 62
3
  6
CONTINUOUS
  2
*D15
 10
330.5810614474
 20
441.9936616019
 11
303.7310614474
 21
441.9936616019
 70
160
 71
2
  1
7
  3
DIMSTYLE_1
100
AcDbAlignedDimension
 13
337.5810614474
 23
407.9356022866
 14
330.5810614474
 24
407.9356022866
 50
180.0
100
AcDbRotatedDimension
  0
DIMENSION
  5
33D
100
AcDbEntity
  8
QUOTATION
100
AcDbDimension
 62
3
  6
CONTINUOUS
  2
*D16
 10
237.5810614474
 20
539.0307497708
 11
291.8310614474
 21
539.0307497708
 70
160
 71
2
  1
140
  3
DIMSTYLE_1
100
AcDbAlignedDimension
 13
377.5810614474
 23
342.9356022866
 14
237.5810614474
 24
342.9356022866
 50
180.0
100
AcDbRotatedDimension
  0
DIMENSION
  5
33E
100
AcDbEntity
  8
QUOTATION
100
AcDbDimension
 62
3
  6
CONTINUOUS
  2
*D17
 10
165.5810614474
 20
560.8914587857
 11
255.8310614474
 21
560.8914587857
 70
160
 71
2
  1
212
  3
DIMSTYLE_1
100
AcDbAlignedDimension
 13
377.5810614474
 23
342.9356022866
 14
165.5810614474
 24
310.9356022867
 50
180.0
100
AcDbRotatedDimension
  0
DIMENSION
  5
33F
100
AcDbEntity
  8
QUOTATION
100
AcDbDimension
 62
3
  6
CONTINUOUS
  2
*D18
 10
69.5810614474
 20
560.8914587857
 11
107.0810614474
 21
560.8914587857
 70
160
 71
2
  1
96
  3
DIMSTYLE_1
100
AcDbAlignedDimension
 13
165.5810614473
 23
310.9356022867
 14
69.5810614474
 24
270.9356022867
 50
180.0
100
AcDbRotatedDimension
  0
DIMENSION
  5
340
100
AcDbEntity
  8
QUOTATION
100
AcDbDimension
 62
3
  6
CONTINUOUS
  2
*D19
 10
1201.2727312112
 20
297.7938051969
 11
1296.0828111971
 21
334.8834440557
 70
163
 71
2
  1
4x %%c4.5
  3
DIMSTYLE_2
100
AcDbDiametricDimension
 15
1199.1472607063
 25
293.8273993764
  0
DIMENSION
  5
341
100
AcDbEntity
  8
QUOTATION
100
AcDbDimension
 62
3
  6
CONTINUOUS
  2
*D20
 10
1210.1245924116
 20
282.7249120517
 11
1256.0693631724
 21
294.2548892437
 70
163
 71
2
  1
%%c31
  3
DIMSTYLE_2
100
AcDbDiametricDimension
 15
1190.2953995059
 25
258.8962925216
  0
DIMENSION
  5
342
100
AcDbEntity
  8
QUOTATION
100
AcDbDimension
 62
3
  6
CONTINUOUS
  2
*D21
 10
1225.2099959587
 20
214.9323157917
 11
1189.7099959587
 21
214.9323157917
 70
160
 71
2
  1
50
  3
DIMSTYLE_1
100
AcDbAlignedDimension
 13
1175.2099959587
 23
270.6856022867
 14
1225.2099959587
 24
270.6856022867
100
AcDbRotatedDimension
  0
DIMENSION
  5
343
100
AcDbEntity
  8
QUOTATION
100
AcDbDimension
 62
3
  6
CONTINUOUS
  2
*D22
 10
1161.5071489759
 20
295.8106022867
 11
1153.1071489759
 21
276.0606022867
 70
160
 71
2
  1
50
  3
DIMSTYLE_1
100
AcDbAlignedDimension
 13
1200.0849959587
 23
245.8106022867
 14
1200.0849959587
 24
295.8106022867
 50
90.0
100
AcDbRotatedDimension
  0
DIMENSION
  5
344
100
AcDbEntity
  8
QUOTATION
100
AcDbDimension
 62
3
  6
CONTINUOUS
  2
*D23
 10
991.7969725079
 20
641.840489017
 11
790.0469725079
 21
641.840489017
 70
160
 71
2
  1
372
  3
DIMSTYLE_1
100
AcDbAlignedDimension
 13
619.7969725079
 23
677.715489017
 14
991.7969725079
 24
677.715489017
100
AcDbRotatedDimension
  0
DIMENSION
  5
345
100
AcDbEntity
  8
QUOTATION
100
AcDbDimension
 62
3
  6
CONTINUOUS
  2
*D24
 10
632.2969725079
 20
441.0126500581
 11
634.5469725079
 21
441.0126500581
 70
160
 71
2
  1
46.5
  3
DIMSTYLE_1
100
AcDbAlignedDimension
 13
678.7969725079
 23
407.9356022866
 14
632.2969725079
 24
330.4356022866
 50
180.0
100
AcDbRotatedDimension
  0
DIMENSION
  5
346
100
AcDbEntity
  8
QUOTATION
100
AcDbDimension
 62
3
  6
CONTINUOUS
  2
*D25
 10
678.7969725079
 20
441.0126500581
 11
758.6724875853
 21
441.0126500581
 70
160
 71
2
  1
240
  3
DIMSTYLE_1
100
AcDbAlignedDimension
 13
918.7969725079
 23
407.9356022866
 14
678.7969725079
 24
407.9356022866
 50
180.0
100
AcDbRotatedDimension
  0
DIMENSION
  5
347
100
AcDbEntity
  8
QUOTATION
100
AcDbDimension
 62
3
  6
CONTINUOUS
  2
*D26
 10
941.948541036
 20
392.3181088937
 11
986.7454420831
 21
407.402732861
 70
163
 71
2
  1
%%c11
  3
DIMSTYLE_2
100
AcDbDiametricDimension
 15
935.6454039798
 25
383.3030956796
  0
DIMENSION
  5
348
100
AcDbEntity
  8
QUOTATION
100
AcDbDimension
 62
3
  6
CONTINUOUS
  2
*D27
 10
979.2969725079
 20
440.9666737081
 11
928.0469725079
 21
440.9666737081
 70
160
 71
2
  1
60.5
  3
DIMSTYLE_1
100
AcDbAlignedDimension
 13
918.7969725079
 23
407.9356022866
 14
979.2969725079
 24
330.4356022866
100
AcDbRotatedDimension
  0
MTEXT
  5
349
100
AcDbEntity
  8
TEXT
100
AcDbMText
 62
2
  6
CONTINUOUS
  7
TEXTSTYLE_2
 71
1
 72
1
 10
1171.22387203
 20
374.0105499597
 30
0.0
 11
1.0
 21
0.0
 31
0.0
 44
1.0000002
  1
DOOR DRILLING
 40
10.0
 41
114.1666666667
  0
MTEXT
  5
34A
100
AcDbEntity
  8
TEXT
100
AcDbMText
 62
2
  6
CONTINUOUS
  7
TEXTSTYLE_3
 71
1
 72
1
 10
769.845341825
 20
276.0839725225
 30
0.0
 11
0.1736481777
 21
0.984807753
 31
0.0
 44
0.6
  1
OFF
 40
4.0
 41
12.0
  0
MTEXT
  5
34B
100
AcDbEntity
  8
TEXT
100
AcDbMText
 62
2
  6
CONTINUOUS
  7
TEXTSTYLE_3
 71
1
 72
1
 10
811.2697787199
 20
302.3787563964
 30
0.0
 11
0.0
 21
1.0
 31
0.0
 44
0.6
  1
ON
 40
4.0
 41
8.0
  0
MTEXT
  5
34C
100
AcDbEntity
  8
0
100
AcDbMText
 62
3
  6
CONTINUOUS
  7
STANDARD
 71
2
 72
1
 10
44.9274563788
 20
873.440728316
 30
0.0
 11
1.0
 21
0.0
 31
0.0
  1
1
 40
10.0
 41
8.0
  0
MTEXT
  5
34D
100
AcDbEntity
  8
0
100
AcDbMText
 62
3
  6
CONTINUOUS
  7
STANDARD
 71
1
 72
1
 10
63.1274563788
 20
873.315728316
 30
0.0
 11
1.0
 21
0.0
 31
0.0
 44
1.0000002
  1
ECRAN DE PROTECTION DES PLAGES 
 40
9.75
 41
241.8
  0
MTEXT
  5
34E
100
AcDbEntity
  8
0
100
AcDbMText
 62
3
  6
CONTINUOUS
  7
STANDARD
 71
2
 72
1
 10
333.5274563788
 20
873.440728316
 30
0.0
 11
1.0
 21
0.0
 31
0.0
  1
27983120
 40
10.0
 41
64.0
  0
MTEXT
  5
34F
100
AcDbEntity
  8
0
100
AcDbMText
 62
3
  6
CONTINUOUS
  7
STANDARD
 71
2
 72
1
 10
400.3086748124
 20
873.440728316
 30
0.0
 11
1.0
 21
0.0
 31
0.0
  1
/
 40
10.0
 41
8.0
  0
MTEXT
  5
350
100
AcDbEntity
  8
0
100
AcDbMText
 62
3
  6
CONTINUOUS
  7
STANDARD
 71
2
 72
1
 10
446.1898932459
 20
873.440728316
 30
0.0
 11
1.0
 21
0.0
 31
0.0
  1
1
 40
10.0
 41
8.0
  0
MTEXT
  5
351
100
AcDbEntity
  8
0
100
AcDbMText
 62
3
  6
CONTINUOUS
  7
STANDARD
 71
2
 72
1
 10
44.9274563788
 20
853.740728316
 30
0.0
 11
1.0
 21
0.0
 31
0.0
  1
2
 40
10.0
 41
8.0
  0
MTEXT
  5
352
100
AcDbEntity
  8
0
100
AcDbMText
 62
3
  6
CONTINUOUS
  7
STANDARD
 71
1
 72
1
 10
63.1274563788
 20
853.740728316
 30
0.0
 11
1.0
 21
0.0
 31
0.0
 44
1.0000002
  1
SIRCO 3x800A F APPAREIL NU 
 40
10.0
 41
216.0
  0
MTEXT
  5
353
100
AcDbEntity
  8
0
100
AcDbMText
 62
3
  6
CONTINUOUS
  7
STANDARD
 71
2
 72
1
 10
333.5274563788
 20
853.740728316
 30
0.0
 11
1.0
 21
0.0
 31
0.0
  1
27003080
 40
10.0
 41
64.0
  0
MTEXT
  5
354
100
AcDbEntity
  8
0
100
AcDbMText
 62
3
  6
CONTINUOUS
  7
STANDARD
 71
2
 72
1
 10
400.3086748124
 20
853.740728316
 30
0.0
 11
1.0
 21
0.0
 31
0.0
  1
/
 40
10.0
 41
8.0
  0
MTEXT
  5
355
100
AcDbEntity
  8
0
100
AcDbMText
 62
3
  6
CONTINUOUS
  7
STANDARD
 71
2
 72
1
 10
446.1898932459
 20
853.740728316
 30
0.0
 11
1.0
 21
0.0
 31
0.0
  1
1
 40
10.0
 41
8.0
  0
MTEXT
  5
356
100
AcDbEntity
  8
0
100
AcDbMText
 62
3
  6
CONTINUOUS
  7
STANDARD
 71
2
 72
1
 10
44.9274563788
 20
834.040728316
 30
0.0
 11
1.0
 21
0.0
 31
0.0
  1
3
 40
10.0
 41
8.0
  0
MTEXT
  5
357
100
AcDbEntity
  8
0
100
AcDbMText
 62
3
  6
CONTINUOUS
  7
STANDARD
 71
1
 72
1
 10
58.9364413412
 20
833.1670118821
 30
0.0
 11
1.0
 21
0.0
 31
0.0
 44
1.0000002
  1
ECRAN DE SEPARATION ENTRE PHASES
 40
9.45
 41
241.92
  0
MTEXT
  5
358
100
AcDbEntity
  8
0
100
AcDbMText
 62
3
  6
CONTINUOUS
  7
STANDARD
 71
2
 72
1
 10
333.5274563788
 20
834.040728316
 30
0.0
 11
1.0
 21
0.0
 31
0.0
  1
1382101
 40
10.0
 41
56.0
  0
MTEXT
  5
359
100
AcDbEntity
  8
0
100
AcDbMText
 62
3
  6
CONTINUOUS
  7
STANDARD
 71
2
 72
1
 10
400.3086748124
 20
834.040728316
 30
0.0
 11
1.0
 21
0.0
 31
0.0
  1
/
 40
10.0
 41
8.0
  0
MTEXT
  5
35A
100
AcDbEntity
  8
0
100
AcDbMText
 62
3
  6
CONTINUOUS
  7
STANDARD
 71
2
 72
1
 10
446.1898932459
 20
834.040728316
 30
0.0
 11
1.0
 21
0.0
 31
0.0
  1
4
 40
10.0
 41
8.0
  0
MTEXT
  5
35B
100
AcDbEntity
  8
0
100
AcDbMText
 62
3
  6
CONTINUOUS
  7
STANDARD
 71
2
 72
1
 10
44.9274563788
 20
814.340728316
 30
0.0
 11
1.0
 21
0.0
 31
0.0
  1
4
 40
10.0
 41
8.0
  0
MTEXT
  5
35C
100
AcDbEntity
  8
0
100
AcDbMText
 62
3
  6
CONTINUOUS
  7
STANDARD
 71
1
 72
1
 10
63.1274563788
 20
814.340728316
 30
0.0
 11
1.0
 21
0.0
 31
0.0
  1
POIGNEE CDE EXT TYPE H 
 40
10.0
 41
184.0
  0
MTEXT
  5
35D
100
AcDbEntity
  8
0
100
AcDbMText
 62
3
  6
CONTINUOUS
  7
STANDARD
 71
2
 72
1
 10
400.3086748124
 20
814.340728316
 30
0.0
 11
1.0
 21
0.0
 31
0.0
  1
/
 40
10.0
 41
8.0
  0
MTEXT
  5
35E
100
AcDbEntity
  8
0
100
AcDbMText
 62
3
  6
CONTINUOUS
  7
STANDARD
 71
2
 72
1
 10
446.1898932459
 20
814.340728316
 30
0.0
 11
1.0
 21
0.0
 31
0.0
  1
1
 40
10.0
 41
8.0
  0
MTEXT
  5
35F
100
AcDbEntity
  8
0
100
AcDbMText
 62
3
  6
CONTINUOUS
  7
STANDARD
 71
2
 72
1
 10
44.9274563788
 20
893.140728316
 30
0.0
 11
1.0
 21
0.0
 31
0.0
  1
Rep.
 40
10.0
 41
32.0
  0
MTEXT
  5
360
100
AcDbEntity
  8
0
100
AcDbMText
 62
3
  6
CONTINUOUS
  7
STANDARD
 71
2
 72
1
 10
179.5274563788
 20
893.140728316
 30
0.0
 11
1.0
 21
0.0
 31
0.0
  1
Nom
 40
10.0
 41
24.0
  0
MTEXT
  5
361
100
AcDbEntity
  8
0
100
AcDbMText
 62
3
  6
CONTINUOUS
  7
STANDARD
 71
2
 72
1
 10
333.5274563788
 20
893.140728316
 30
0.0
 11
1.0
 21
0.0
 31
0.0
  1
Code
 40
10.0
 41
32.0
  0
MTEXT
  5
362
100
AcDbEntity
  8
0
100
AcDbMText
 62
3
  6
CONTINUOUS
  7
STANDARD
 71
2
 72
1
 10
392.9753414791
 20
893.140728316
 30
0.0
 11
1.0
 21
0.0
 31
0.0
  1
N\Fgdt;{\Fgdt;~}\Ftxt; \P{\W0.8;de }\Pplan
 40
10.0
 41
32.0
  0
MTEXT
  5
363
100
AcDbEntity
  8
0
100
AcDbMText
 62
3
  6
CONTINUOUS
  7
STANDARD
 71
2
 72
1
 10
446.1898932459
 20
893.140728316
 30
0.0
 11
1.0
 21
0.0
 31
0.0
  1
Qté
 40
10.0
 41
24.0
  0
LINE
  5
364
100
AcDbEntity
  8
0
100
AcDbLine
 62
7
  6
CONTINUOUS
 10
0.0
 20
0.0
 11
0.0
 21
1010.3770663855
  0
LINE
  5
365
100
AcDbEntity
  8
0
100
AcDbLine
 62
7
  6
CONTINUOUS
 10
0.0
 20
0.0
 11
0.0
 21
1010.3770663855
  0
LINE
  5
366
100
AcDbEntity
  8
0
100
AcDbLine
 62
7
  6
CONTINUOUS
 10
30.3274563788
 20
800.040728316
 11
30.3274563788
 21
898.540728316
  0
LINE
  5
367
100
AcDbEntity
  8
0
100
AcDbLine
 62
1
  6
CONTINUOUS
 10
59.5274563788
 20
898.540728316
 11
59.5274563788
 21
800.040728316
  0
LINE
  5
368
100
AcDbEntity
  8
H_EXTERN_HANDLE
100
AcDbLine
 62
7
  6
CONTINUOUS
 10
73.5810614474
 20
281.0606020085
 11
73.5810614474
 21
278.2939167821
  0
LINE
  5
369
100
AcDbEntity
  8
H_EXTERN_HANDLE
100
AcDbLine
 62
7
  6
CONTINUOUS
 10
73.5810614474
 20
263.327287235
 11
73.5810614474
 21
260.5606020085
  0
LINE
  5
36A
100
AcDbEntity
  8
H_EXTERN_HANDLE
100
AcDbLine
 62
7
  6
CONTINUOUS
 10
75.0810614474
 20
285.0606020086
 11
75.0810614474
 21
279.1021639844
  0
LINE
  5
36B
100
AcDbEntity
  8
H_EXTERN_HANDLE
100
AcDbLine
 62
7
  6
CONTINUOUS
 10
75.0810614474
 20
256.5606020086
 11
75.0810614474
 21
262.5190400326
  0
LINE
  5
36C
100
AcDbEntity
  8
H_MOVING
100
AcDbLine
 62
1
  6
CONTINUOUS
 10
74.2444380434
 20
206.2570992427
 11
69.5810614474
 21
80.8106020085
  0
LINE
  5
36D
100
AcDbEntity
  8
INTER_PHASE_SCHIELDS
100
AcDbLine
 62
5
  6
CONTINUOUS
 10
292.8810614474
 20
83.0106022866
 11
298.8810614474
 21
77.0106022866
  0
LINE
  5
36E
100
AcDbEntity
  8
H_EXTERN_HANDLE
100
AcDbLine
 62
7
  6
CONTINUOUS
 10
156.5810614474
 20
230.8106022867
 11
150.5810614474
 21
240.8106020086
  0
LINE
  5
36F
100
AcDbEntity
  8
H_EXTERN_HANDLE
100
AcDbLine
 62
7
  6
CONTINUOUS
 10
124.5810614474
 20
246.5606020086
 11
124.5810614474
 21
240.8106020086
  0
LINE
  5
370
100
AcDbEntity
  8
H_EXTERN_HANDLE
100
AcDbLine
 62
7
  6
CONTINUOUS
 10
124.5810614474
 20
295.0606020086
 11
124.5810614474
 21
300.8106020086
  0
LINE
  5
371
100
AcDbEntity
  8
H_EXTERN_HANDLE
100
AcDbLine
 62
7
  6
CONTINUOUS
 10
126.0810614474
 20
281.3106022867
 11
126.0810614474
 21
279.3106020085
  0
LINE
  5
372
100
AcDbEntity
  8
H_EXTERN_HANDLE
100
AcDbLine
 62
7
  6
CONTINUOUS
 10
126.0810600732
 20
260.3106019267
 11
126.081060335
 21
262.3106022048
  0
LINE
  5
373
100
AcDbEntity
  8
H_EXTERN_HANDLE
100
AcDbLine
 62
7
  6
CONTINUOUS
 10
127.5810614474
 20
279.3106020085
 11
127.5810614474
 21
262.3106020085
  0
LINE
  5
374
100
AcDbEntity
  8
H_EXTERN_HANDLE
100
AcDbLine
 62
7
  6
CONTINUOUS
 10
150.5810614474
 20
230.8106022867
 11
150.5810614474
 21
310.8106022867
  0
LINE
  5
375
100
AcDbEntity
  8
H_EXTERN_HANDLE
100
AcDbLine
 62
7
  6
CONTINUOUS
 10
156.5810614474
 20
230.8106022867
 11
156.5810614474
 21
310.8106022867
  0
LINE
  5
376
100
AcDbEntity
  8
H_MOVING
100
AcDbLine
 62
1
  6
CONTINUOUS
 10
117.6147923958
 20
80.8106020085
 11
117.6891787677
 21
82.801763087
  0
LINE
  5
377
100
AcDbEntity
  8
H_MOVING
100
AcDbLine
 62
1
  6
CONTINUOUS
 10
117.9133285042
 20
88.801763087
 11
117.9877148761
 21
90.7929241654
  0
LINE
  5
378
100
AcDbEntity
  8
H_MOVING
100
AcDbLine
 62
1
  6
CONTINUOUS
 10
118.2118646126
 20
96.7929241654
 11
118.2862509845
 21
98.7840852438
  0
LINE
  5
379
100
AcDbEntity
  8
H_MOVING
100
AcDbLine
 62
1
  6
CONTINUOUS
 10
118.510400721
 20
104.7840852438
 11
118.5847870929
 21
106.7752463222
  0
LINE
  5
37A
100
AcDbEntity
  8
H_MOVING
100
AcDbLine
 62
1
  6
CONTINUOUS
 10
118.8089368294
 20
112.7752463222
 11
118.8833232013
 21
114.7664074007
  0
LINE
  5
37B
100
AcDbEntity
  8
H_MOVING
100
AcDbLine
 62
1
  6
CONTINUOUS
 10
119.1074729378
 20
120.7664074007
 11
119.1818593097
 21
122.7575684791
  0
LINE
  5
37C
100
AcDbEntity
  8
H_MOVING
100
AcDbLine
 62
1
  6
CONTINUOUS
 10
119.4060090463
 20
128.7575684791
 11
119.4803954181
 21
130.7487295575
  0
LINE
  5
37D
100
AcDbEntity
  8
H_MOVING
100
AcDbLine
 62
1
  6
CONTINUOUS
 10
119.7045451547
 20
136.7487295575
 11
119.7789315265
 21
138.7398906359
  0
LINE
  5
37E
100
AcDbEntity
  8
H_MOVING
100
AcDbLine
 62
1
  6
CONTINUOUS
 10
120.0030812631
 20
144.7398906359
 11
120.0774676349
 21
146.7310517144
  0
LINE
  5
37F
100
AcDbEntity
  8
H_MOVING
100
AcDbLine
 62
1
  6
CONTINUOUS
 10
120.3016173715
 20
152.7310517144
 11
120.3760037434
 21
154.7222127928
  0
LINE
  5
380
100
AcDbEntity
  8
H_MOVING
100
AcDbLine
 62
1
  6
CONTINUOUS
 10
120.6001534799
 20
160.7222127928
 11
120.6745398518
 21
162.7133738712
  0
LINE
  5
381
100
AcDbEntity
  8
H_MOVING
100
AcDbLine
 62
1
  6
CONTINUOUS
 10
120.8986895883
 20
168.7133738712
 11
120.9730759602
 21
170.7045349496
  0
LINE
  5
382
100
AcDbEntity
  8
H_MOVING
100
AcDbLine
 62
1
  6
CONTINUOUS
 10
121.1972256967
 20
176.7045349496
 11
121.2716120686
 21
178.6956960281
  0
LINE
  5
383
100
AcDbEntity
  8
H_MOVING
100
AcDbLine
 62
1
  6
CONTINUOUS
 10
121.4957618051
 20
184.6956960281
 11
121.570148177
 21
186.6868571065
  0
LINE
  5
384
100
AcDbEntity
  8
H_MOVING
100
AcDbLine
 62
1
  6
CONTINUOUS
 10
121.7942979135
 20
192.6868571065
 11
121.8686842854
 21
194.6780181849
  0
LINE
  5
385
100
AcDbEntity
  8
H_MOVING
100
AcDbLine
 62
1
  6
CONTINUOUS
 10
122.092834022
 20
200.6780181849
 11
122.1672203938
 21
202.6691792633
  0
LINE
  5
386
100
AcDbEntity
  8
INTER_PHASE_SCHIELDS
100
AcDbLine
 62
5
  6
CONTINUOUS
 10
299.4810614474
 20
151.0106022866
 11
297.4810614474
 21
153.0106022866
  0
LINE
  5
387
100
AcDbEntity
  8
H_EXTERN_HANDLE
100
AcDbLine
 62
7
  6
CONTINUOUS
 10
165.5810614474
 20
310.8106022867
 11
165.5810614474
 21
230.8106022867
  0
LINE
  5
388
100
AcDbEntity
  8
BASIC_DEVICE
100
AcDbLine
 62
7
  6
CONTINUOUS
 10
211.5810614474
 20
278.3106022866
 11
211.5810614474
 21
263.3106022866
  0
LINE
  5
389
100
AcDbEntity
  8
0
100
AcDbLine
 62
7
  6
CONTINUOUS
 10
0.0
 20
0.0
 11
1368.66137203
 21
0.0
  0
LINE
  5
38A
100
AcDbEntity
  8
0
100
AcDbLine
 62
7
  6
CONTINUOUS
 10
0.0
 20
0.0
 11
1368.66137203
 21
0.0
  0
LINE
  5
38B
100
AcDbEntity
  8
BASIC_DEVICE
100
AcDbLine
 62
1
  6
CONTINUOUS
 10
226.2810614474
 20
268.2606022866
 11
225.2810614474
 21
269.2606022866
  0
LINE
  5
38C
100
AcDbEntity
  8
BASIC_DEVICE
100
AcDbLine
 62
1
  6
CONTINUOUS
 10
225.2810614474
 20
269.2606022866
 11
225.2810614474
 21
272.3606022866
  0
LINE
  5
38D
100
AcDbEntity
  8
BASIC_DEVICE
100
AcDbLine
 62
1
  6
CONTINUOUS
 10
233.3810614474
 20
286.4106022866
 11
233.3810614474
 21
273.3606022866
  0
LINE
  5
38E
100
AcDbEntity
  8
BASIC_DEVICE
100
AcDbLine
 62
1
  6
CONTINUOUS
 10
233.3810614474
 20
268.2606022866
 11
233.3810614474
 21
255.2106022866
  0
LINE
  5
38F
100
AcDbEntity
  8
BASIC_DEVICE
100
AcDbLine
 62
1
  6
CONTINUOUS
 10
234.4810614474
 20
282.061269197
 11
234.4810614474
 21
259.217278931
  0
LINE
  5
390
100
AcDbEntity
  8
BASIC_DEVICE
100
AcDbLine
 62
1
  6
CONTINUOUS
 10
235.5810614474
 20
259.217278931
 11
235.5810614474
 21
282.061269197
  0
LINE
  5
391
100
AcDbEntity
  8
BASIC_DEVICE
100
AcDbLine
 62
7
  6
CONTINUOUS
 10
237.5810614474
 20
142.8106022866
 11
237.5810614474
 21
342.8106022866
  0
LINE
  5
392
100
AcDbEntity
  8
TERMINAL_SCREEN
100
AcDbLine
 62
2
  6
CONTINUOUS
 10
239.5810614474
 20
473.3106022866
 11
239.5810614474
 21
428.2100972232
  0
LINE
  5
393
100
AcDbEntity
  8
TERMINAL_SCREEN
100
AcDbLine
 62
2
  6
CONTINUOUS
 10
241.5810614474
 20
428.2100972232
 11
241.5810614474
 21
473.3106022866
  0
LINE
  5
394
100
AcDbEntity
  8
INTER_PHASE_SCHIELDS
100
AcDbLine
 62
5
  6
CONTINUOUS
 10
298.8810614474
 20
77.0106022866
 11
369.5810614474
 21
77.0106022866
  0
LINE
  5
395
100
AcDbEntity
  8
INTER_PHASE_SCHIELDS
100
AcDbLine
 62
5
  6
CONTINUOUS
 10
738.2969725079
 20
77.0106022867
 11
740.2969725079
 21
77.0106022867
  0
LINE
  5
396
100
AcDbEntity
  8
INTER_PHASE_SCHIELDS
100
AcDbLine
 62
5
  6
CONTINUOUS
 10
858.2969725079
 20
77.0106022867
 11
860.2969725079
 21
77.0106022867
  0
LINE
  5
397
100
AcDbEntity
  8
BASIC_DEVICE
100
AcDbLine
 62
7
  6
CONTINUOUS
 10
330.5810614474
 20
77.8106022866
 11
337.5810614474
 21
77.8106022866
  0
LINE
  5
398
100
AcDbEntity
  8
BASIC_DEVICE
100
AcDbLine
 62
7
  6
CONTINUOUS
 10
652.2969725079
 20
77.8106022866
 11
705.2969725079
 21
77.8106022866
  0
LINE
  5
399
100
AcDbEntity
  8
BASIC_DEVICE
100
AcDbLine
 62
7
  6
CONTINUOUS
 10
772.2969725079
 20
77.8106022866
 11
825.2969725079
 21
77.8106022866
  0
LINE
  5
39A
100
AcDbEntity
  8
BASIC_DEVICE
100
AcDbLine
 62
7
  6
CONTINUOUS
 10
892.2969725079
 20
77.8106022866
 11
945.2969725079
 21
77.8106022866
  0
LINE
  5
39B
100
AcDbEntity
  8
H_MOVING
100
AcDbLine
 62
1
  6
CONTINUOUS
 10
69.5810614474
 20
80.8106020085
 11
117.6147923958
 21
80.8106020085
  0
LINE
  5
39C
100
AcDbEntity
  8
H_MOVING
100
AcDbLine
 62
1
  6
CONTINUOUS
 10
815.2969725076
 20
81.8106022866
 11
796.2969725076
 21
81.8106022866
  0
LINE
  5
39D
100
AcDbEntity
  8
TERMINAL_SCREEN
100
AcDbLine
 62
2
  6
CONTINUOUS
 10
289.5810614474
 20
373.2395344748
 11
289.5810614474
 21
320.3106022866
  0
LINE
  5
39E
100
AcDbEntity
  8
BASIC_DEVICE
100
AcDbLine
 62
7
  6
CONTINUOUS
 10
291.5810614474
 20
342.8106022866
 11
291.5810614474
 21
142.8106022866
  0
LINE
  5
39F
100
AcDbEntity
  8
TERMINAL_SCREEN
100
AcDbLine
 62
2
  6
CONTINUOUS
 10
291.5810614474
 20
320.3106022866
 11
291.5810614474
 21
373.2395344748
  0
LINE
  5
3A0
100
AcDbEntity
  8
INTER_PHASE_SCHIELDS
100
AcDbLine
 62
5
  6
CONTINUOUS
 10
292.8810614474
 20
146.0106022866
 11
292.8810614474
 21
83.0106022866
  0
LINE
  5
3A1
100
AcDbEntity
  8
INTER_PHASE_SCHIELDS
100
AcDbLine
 62
5
  6
CONTINUOUS
 10
292.8810614474
 20
339.6106022866
 11
292.8810614474
 21
402.6106022866
  0
LINE
  5
3A2
100
AcDbEntity
  8
INTER_PHASE_SCHIELDS
100
AcDbLine
 62
5
  6
CONTINUOUS
 10
294.8810614474
 20
153.0106022866
 11
294.8810614474
 21
146.0106022866
  0
LINE
  5
3A3
100
AcDbEntity
  8
INTER_PHASE_SCHIELDS
100
AcDbLine
 62
5
  6
CONTINUOUS
 10
294.8810614474
 20
332.6106022866
 11
294.8810614474
 21
339.6106022866
  0
LINE
  5
3A4
100
AcDbEntity
  8
INTER_PHASE_SCHIELDS
100
AcDbLine
 62
5
  6
CONTINUOUS
 10
297.9810614474
 20
349.1106022866
 11
297.9810614474
 21
336.4106022866
  0
LINE
  5
3A5
100
AcDbEntity
  8
INTER_PHASE_SCHIELDS
100
AcDbLine
 62
5
  6
CONTINUOUS
 10
297.9810614474
 20
136.5106022866
 11
297.9810614474
 21
149.2106022866
  0
LINE
  5
3A6
100
AcDbEntity
  8
INTER_PHASE_SCHIELDS
100
AcDbLine
 62
5
  6
CONTINUOUS
 10
299.4810614474
 20
336.4106022866
 11
299.4810614474
 21
334.6106022866
  0
LINE
  5
3A7
100
AcDbEntity
  8
INTER_PHASE_SCHIELDS
100
AcDbLine
 62
5
  6
CONTINUOUS
 10
299.4810614474
 20
149.2106022866
 11
299.4810614474
 21
151.0106022866
  0
LINE
  5
3A8
100
AcDbEntity
  8
0
100
AcDbLine
 62
1
  6
CONTINUOUS
 10
299.5274563788
 20
898.540728316
 11
299.5274563788
 21
800.040728316
  0
LINE
  5
3A9
100
AcDbEntity
  8
INTER_PHASE_SCHIELDS
100
AcDbLine
 62
5
  6
CONTINUOUS
 10
302.4810614474
 20
146.0106022866
 11
302.4810614474
 21
136.5106022866
  0
LINE
  5
3AA
100
AcDbEntity
  8
INTER_PHASE_SCHIELDS
100
AcDbLine
 62
5
  6
CONTINUOUS
 10
302.4810614474
 20
339.6106022866
 11
302.4810614474
 21
349.1106022866
  0
LINE
  5
3AB
100
AcDbEntity
  8
INTER_PHASE_SCHIELDS
100
AcDbLine
 62
5
  6
CONTINUOUS
 10
303.2810614474
 20
139.3106022866
 11
303.2810614474
 21
86.0106022866
  0
LINE
  5
3AC
100
AcDbEntity
  8
INTER_PHASE_SCHIELDS
100
AcDbLine
 62
5
  6
CONTINUOUS
 10
303.2810614474
 20
346.3106022866
 11
303.2810614474
 21
399.6106022866
  0
LINE
  5
3AD
100
AcDbEntity
  8
INTER_PHASE_SCHIELDS
100
AcDbLine
 62
5
  6
CONTINUOUS
 10
305.2810614474
 20
139.3106022866
 11
305.2810614474
 21
86.0106022866
  0
LINE
  5
3AE
100
AcDbEntity
  8
INTER_PHASE_SCHIELDS
100
AcDbLine
 62
5
  6
CONTINUOUS
 10
305.2810614474
 20
346.3106022866
 11
305.2810614474
 21
399.6106022866
  0
LINE
  5
3AF
100
AcDbEntity
  8
H_MOVING
100
AcDbLine
 62
1
  6
CONTINUOUS
 10
117.6891787677
 20
82.801763087
 11
115.9168475053
 21
82.801763087
  0
LINE
  5
3B0
100
AcDbEntity
  8
BASIC_DEVICE
100
AcDbLine
 62
7
  6
CONTINUOUS
 10
337.5810614474
 20
82.8106022866
 11
330.5810614474
 21
82.8106022866
  0
LINE
  5
3B1
100
AcDbEntity
  8
INTER_PHASE_SCHIELDS
100
AcDbLine
 62
5
  6
CONTINUOUS
 10
861.2969725079
 20
83.0106022867
 11
860.2969725079
 21
83.0106022867
  0
LINE
  5
3B2
100
AcDbEntity
  8
INTER_PHASE_SCHIELDS
100
AcDbLine
 62
5
  6
CONTINUOUS
 10
741.2969725079
 20
83.0106022867
 11
740.2969725079
 21
83.0106022867
  0
LINE
  5
3B3
100
AcDbEntity
  8
INTER_PHASE_SCHIELDS
100
AcDbLine
 62
5
  6
CONTINUOUS
 10
306.2810614474
 20
83.0106022866
 11
362.0810614474
 21
83.0106022866
  0
LINE
  5
3B4
100
AcDbEntity
  8
INTER_PHASE_SCHIELDS
100
AcDbLine
 62
5
  6
CONTINUOUS
 10
737.2969725079
 20
83.0106022867
 11
738.2969725079
 21
83.0106022867
  0
LINE
  5
3B5
100
AcDbEntity
  8
INTER_PHASE_SCHIELDS
100
AcDbLine
 62
5
  6
CONTINUOUS
 10
857.2969725079
 20
83.0106022867
 11
858.2969725079
 21
83.0106022867
  0
LINE
  5
3B6
100
AcDbEntity
  8
INTER_PHASE_SCHIELDS
100
AcDbLine
 62
5
  6
CONTINUOUS
 10
306.2810614474
 20
85.0106022866
 11
362.0810614474
 21
85.0106022866
  0
LINE
  5
3B7
100
AcDbEntity
  8
H_MOVING
100
AcDbLine
 62
1
  6
CONTINUOUS
 10
115.9168475053
 20
88.801763087
 11
117.9133285042
 21
88.801763087
  0
LINE
  5
3B8
100
AcDbEntity
  8
H_MOVING
100
AcDbLine
 62
1
  6
CONTINUOUS
 10
117.9877148761
 20
90.7929241654
 11
116.2153836137
 21
90.7929241654
  0
LINE
  5
3B9
100
AcDbEntity
  8
H_MOVING
100
AcDbLine
 62
1
  6
CONTINUOUS
 10
116.2153836137
 20
96.7929241654
 11
118.2118646126
 21
96.7929241654
  0
LINE
  5
3BA
100
AcDbEntity
  8
AXIS
100
AcDbLine
 62
4
  6
CONTINUOUS
 10
346.5810614474
 20
97.8106022866
 11
321.5810614474
 21
97.8106022866
  0
LINE
  5
3BB
100
AcDbEntity
  8
H_MOVING
100
AcDbLine
 62
1
  6
CONTINUOUS
 10
118.2862509845
 20
98.7840852438
 11
116.5139197221
 21
98.7840852438
  0
LINE
  5
3BC
100
AcDbEntity
  8
H_MOVING
100
AcDbLine
 62
1
  6
CONTINUOUS
 10
116.5139197221
 20
104.7840852438
 11
118.510400721
 21
104.7840852438
  0
LINE
  5
3BD
100
AcDbEntity
  8
H_MOVING
100
AcDbLine
 62
1
  6
CONTINUOUS
 10
118.5847870929
 20
106.7752463222
 11
116.8124558306
 21
106.7752463222
  0
LINE
  5
3BE
100
AcDbEntity
  8
H_MOVING
100
AcDbLine
 62
1
  6
CONTINUOUS
 10
116.8124558306
 20
112.7752463222
 11
118.8089368294
 21
112.7752463222
  0
LINE
  5
3BF
100
AcDbEntity
  8
H_MOVING
100
AcDbLine
 62
1
  6
CONTINUOUS
 10
118.8833232013
 20
114.7664074007
 11
117.110991939
 21
114.7664074007
  0
LINE
  5
3C0
100
AcDbEntity
  8
AXIS
100
AcDbLine
 62
4
  6
CONTINUOUS
 10
346.5810614474
 20
117.8106022866
 11
321.5810614474
 21
117.8106022866
  0
LINE
  5
3C1
100
AcDbEntity
  8
H_MOVING
100
AcDbLine
 62
1
  6
CONTINUOUS
 10
117.110991939
 20
120.7664074007
 11
119.1074729378
 21
120.7664074007
  0
LINE
  5
3C2
100
AcDbEntity
  8
H_MOVING
100
AcDbLine
 62
1
  6
CONTINUOUS
 10
119.1818593097
 20
122.7575684791
 11
117.4095280474
 21
122.7575684791
  0
LINE
  5
3C3
100
AcDbEntity
  8
INTER_PHASE_SCHIELDS
100
AcDbLine
 62
5
  6
CONTINUOUS
 10
375.5810614474
 20
127.8106022866
 11
373.5810614474
 21
127.8106022866
  0
LINE
  5
3C4
100
AcDbEntity
  8
H_MOVING
100
AcDbLine
 62
1
  6
CONTINUOUS
 10
117.4095280474
 20
128.7575684791
 11
119.4060090463
 21
128.7575684791
  0
LINE
  5
3C5
100
AcDbEntity
  8
BASIC_DEVICE
100
AcDbLine
 62
7
  6
CONTINUOUS
 10
330.5810614474
 20
407.8106022866
 11
330.5810614474
 21
142.8106022866
  0
LINE
  5
3C6
100
AcDbEntity
  8
BASIC_DEVICE
100
AcDbLine
 62
7
  6
CONTINUOUS
 10
330.5810614474
 20
142.8095163491
 11
330.5810614474
 21
77.8106022866
  0
LINE
  5
3C7
100
AcDbEntity
  8
BASIC_DEVICE
100
AcDbLine
 62
7
  6
CONTINUOUS
 10
337.5810614474
 20
77.8106022866
 11
337.5810614474
 21
142.8095163491
  0
LINE
  5
3C8
100
AcDbEntity
  8
BASIC_DEVICE
100
AcDbLine
 62
7
  6
CONTINUOUS
 10
337.5810614474
 20
342.8097272866
 11
337.5810614474
 21
407.8106022866
  0
LINE
  5
3C9
100
AcDbEntity
  8
BASIC_DEVICE
100
AcDbLine
 62
7
  6
CONTINUOUS
 10
352.5810614474
 20
165.3106022866
 11
352.5810614474
 21
142.8106022866
  0
LINE
  5
3CA
100
AcDbEntity
  8
BASIC_DEVICE
100
AcDbLine
 62
7
  6
CONTINUOUS
 10
352.5810614474
 20
320.3106022866
 11
352.5810614474
 21
342.8106022866
  0
LINE
  5
3CB
100
AcDbEntity
  8
H_MOVING
100
AcDbLine
 62
1
  6
CONTINUOUS
 10
119.4803954181
 20
130.7487295575
 11
117.7080641558
 21
130.7487295575
  0
LINE
  5
3CC
100
AcDbEntity
  8
H_MOVING
100
AcDbLine
 62
1
  6
CONTINUOUS
 10
117.7080641558
 20
136.7487295575
 11
119.7045451547
 21
136.7487295575
  0
LINE
  5
3CD
100
AcDbEntity
  8
H_MOVING
100
AcDbLine
 62
1
  6
CONTINUOUS
 10
119.7789315265
 20
138.7398906359
 11
118.0066002642
 21
138.7398906359
  0
LINE
  5
3CE
100
AcDbEntity
  8
INTER_PHASE_SCHIELDS
100
AcDbLine
 62
5
  6
CONTINUOUS
 10
362.0810614474
 20
140.3106022866
 11
306.2810614474
 21
140.3106022866
  0
LINE
  5
3CF
100
AcDbEntity
  8
INTER_PHASE_SCHIELDS
100
AcDbLine
 62
5
  6
CONTINUOUS
 10
858.2969725079
 20
142.3106022867
 11
857.2969725079
 21
142.3106022867
  0
LINE
  5
3D0
100
AcDbEntity
  8
INTER_PHASE_SCHIELDS
100
AcDbLine
 62
5
  6
CONTINUOUS
 10
738.2969725079
 20
142.3106022867
 11
737.2969725079
 21
142.3106022867
  0
LINE
  5
3D1
100
AcDbEntity
  8
INTER_PHASE_SCHIELDS
100
AcDbLine
 62
5
  6
CONTINUOUS
 10
362.0810614474
 20
142.3106022866
 11
306.2810614474
 21
142.3106022866
  0
LINE
  5
3D2
100
AcDbEntity
  8
INTER_PHASE_SCHIELDS
100
AcDbLine
 62
5
  6
CONTINUOUS
 10
740.2969725079
 20
142.3106022867
 11
741.2969725079
 21
142.3106022867
  0
LINE
  5
3D3
100
AcDbEntity
  8
INTER_PHASE_SCHIELDS
100
AcDbLine
 62
5
  6
CONTINUOUS
 10
860.2969725079
 20
142.3106022867
 11
861.2969725079
 21
142.3106022867
  0
LINE
  5
3D4
100
AcDbEntity
  8
INTER_PHASE_SCHIELDS
100
AcDbLine
 62
5
  6
CONTINUOUS
 10
862.7969725079
 20
142.8106022867
 11
860.2969725079
 21
142.8106022867
  0
LINE
  5
3D5
100
AcDbEntity
  8
INTER_PHASE_SCHIELDS
100
AcDbLine
 62
5
  6
CONTINUOUS
 10
858.2969725079
 20
142.8106022867
 11
855.7969725079
 21
142.8106022867
  0
LINE
  5
3D6
100
AcDbEntity
  8
INTER_PHASE_SCHIELDS
100
AcDbLine
 62
5
  6
CONTINUOUS
 10
742.7969725079
 20
142.8106022867
 11
740.2969725079
 21
142.8106022867
  0
LINE
  5
3D7
100
AcDbEntity
  8
INTER_PHASE_SCHIELDS
100
AcDbLine
 62
5
  6
CONTINUOUS
 10
738.2969725079
 20
142.8106022867
 11
735.7969725079
 21
142.8106022867
  0
LINE
  5
3D8
100
AcDbEntity
  8
BASIC_DEVICE
100
AcDbLine
 62
7
  6
CONTINUOUS
 10
377.5810614474
 20
142.8106022866
 11
237.5810614474
 21
142.8106022866
  0
LINE
  5
3D9
100
AcDbEntity
  8
INTER_PHASE_SCHIELDS
100
AcDbLine
 62
5
  6
CONTINUOUS
 10
373.5810614474
 20
142.8106022866
 11
375.5810614474
 21
142.8106022866
  0
LINE
  5
3DA
100
AcDbEntity
  8
BASIC_DEVICE
100
AcDbLine
 62
7
  6
CONTINUOUS
 10
619.7969725079
 20
142.8106022866
 11
991.7969725079
 21
142.8106022866
  0
LINE
  5
3DB
100
AcDbEntity
  8
H_MOVING
100
AcDbLine
 62
1
  6
CONTINUOUS
 10
118.0066002642
 20
144.7398906359
 11
120.0030812631
 21
144.7398906359
  0
LINE
  5
3DC
100
AcDbEntity
  8
INTER_PHASE_SCHIELDS
100
AcDbLine
 62
5
  6
CONTINUOUS
 10
375.5810614474
 20
146.0106022866
 11
373.5810614474
 21
146.0106022866
  0
LINE
  5
3DD
100
AcDbEntity
  8
INTER_PHASE_SCHIELDS
100
AcDbLine
 62
5
  6
CONTINUOUS
 10
365.9810614474
 20
146.0106022866
 11
302.4810614474
 21
146.0106022866
  0
LINE
  5
3DE
100
AcDbEntity
  8
INTER_PHASE_SCHIELDS
100
AcDbLine
 62
5
  6
CONTINUOUS
 10
294.8810614474
 20
146.0106022866
 11
292.8810614474
 21
146.0106022866
  0
LINE
  5
3DF
100
AcDbEntity
  8
H_MOVING
100
AcDbLine
 62
1
  6
CONTINUOUS
 10
120.0774676349
 20
146.7310517144
 11
118.3051363726
 21
146.7310517144
  0
LINE
  5
3E0
100
AcDbEntity
  8
BASIC_DEVICE
100
AcDbLine
 62
7
  6
CONTINUOUS
 10
745.7969725076
 20
147.8106022867
 11
865.7969725076
 21
147.8106022867
  0
LINE
  5
3E1
100
AcDbEntity
  8
INTER_PHASE_SCHIELDS
100
AcDbLine
 62
5
  6
CONTINUOUS
 10
297.9810614474
 20
149.2106022866
 11
299.4810614474
 21
149.2106022866
  0
LINE
  5
3E2
100
AcDbEntity
  8
INTER_PHASE_SCHIELDS
100
AcDbLine
 62
5
  6
CONTINUOUS
 10
368.9810614474
 20
149.2106022866
 11
370.4810614474
 21
149.2106022866
  0
LINE
  5
3E3
100
AcDbEntity
  8
BASIC_DEVICE
100
AcDbLine
 62
7
  6
CONTINUOUS
 10
893.8280614212
 20
150.0606022866
 11
887.7658835947
 21
150.0606022866
  0
LINE
  5
3E4
100
AcDbEntity
  8
BASIC_DEVICE
100
AcDbLine
 62
7
  6
CONTINUOUS
 10
717.7658835947
 20
150.0606022866
 11
723.8280614212
 21
150.0606022866
  0
LINE
  5
3E5
100
AcDbEntity
  8
H_MOVING
100
AcDbLine
 62
1
  6
CONTINUOUS
 10
118.3051363726
 20
152.7310517144
 11
120.3016173715
 21
152.7310517144
  0
LINE
  5
3E6
100
AcDbEntity
  8
INTER_PHASE_SCHIELDS
100
AcDbLine
 62
5
  6
CONTINUOUS
 10
860.2969725079
 20
153.0106022867
 11
858.2969725079
 21
153.0106022867
  0
LINE
  5
3E7
100
AcDbEntity
  8
INTER_PHASE_SCHIELDS
100
AcDbLine
 62
5
  6
CONTINUOUS
 10
740.2969725079
 20
153.0106022867
 11
738.2969725079
 21
153.0106022867
  0
LINE
  5
3E8
100
AcDbEntity
  8
INTER_PHASE_SCHIELDS
100
AcDbLine
 62
5
  6
CONTINUOUS
 10
373.5810614474
 20
153.0106022866
 11
370.9810614474
 21
153.0106022866
  0
LINE
  5
3E9
100
AcDbEntity
  8
INTER_PHASE_SCHIELDS
100
AcDbLine
 62
5
  6
CONTINUOUS
 10
297.4810614474
 20
153.0106022866
 11
294.8810614474
 21
153.0106022866
  0
LINE
  5
3EA
100
AcDbEntity
  8
H_MOVING
100
AcDbLine
 62
1
  6
CONTINUOUS
 10
120.3760037434
 20
154.7222127928
 11
118.603672481
 21
154.7222127928
  0
LINE
  5
3EB
100
AcDbEntity
  8
AXIS
100
AcDbLine
 62
4
  6
CONTINUOUS
 10
624.7969725079
 20
155.3106022866
 11
639.7969725079
 21
155.3106022866
  0
LINE
  5
3EC
100
AcDbEntity
  8
AXIS
100
AcDbLine
 62
4
  6
CONTINUOUS
 10
971.7969725079
 20
155.3106022866
 11
986.7969725079
 21
155.3106022866
  0
LINE
  5
3ED
100
AcDbEntity
  8
BASIC_DEVICE
100
AcDbLine
 62
7
  6
CONTINUOUS
 10
723.8280614212
 20
160.5606022866
 11
717.7658835947
 21
160.5606022866
  0
LINE
  5
3EE
100
AcDbEntity
  8
BASIC_DEVICE
100
AcDbLine
 62
7
  6
CONTINUOUS
 10
887.7658835947
 20
160.5606022866
 11
893.8280614212
 21
160.5606022866
  0
LINE
  5
3EF
100
AcDbEntity
  8
H_MOVING
100
AcDbLine
 62
1
  6
CONTINUOUS
 10
118.603672481
 20
160.7222127928
 11
120.6001534799
 21
160.7222127928
  0
LINE
  5
3F0
100
AcDbEntity
  8
H_MOVING
100
AcDbLine
 62
1
  6
CONTINUOUS
 10
120.6745398518
 20
162.7133738712
 11
118.9022085894
 21
162.7133738712
  0
LINE
  5
3F1
100
AcDbEntity
  8
BASIC_DEVICE
100
AcDbLine
 62
7
  6
CONTINUOUS
 10
632.2969725079
 20
165.3106022866
 11
619.7969725079
 21
165.3106022866
  0
LINE
  5
3F2
100
AcDbEntity
  8
BASIC_DEVICE
100
AcDbLine
 62
7
  6
CONTINUOUS
 10
291.5810614474
 20
165.3106022866
 11
352.5810614474
 21
165.3106022866
  0
LINE
  5
3F3
100
AcDbEntity
  8
BASIC_DEVICE
100
AcDbLine
 62
7
  6
CONTINUOUS
 10
979.2969725079
 20
165.3106022866
 11
991.7969725079
 21
165.3106022866
  0
LINE
  5
3F4
100
AcDbEntity
  8
BASIC_DEVICE
100
AcDbLine
 62
7
  6
CONTINUOUS
 10
375.5810614474
 20
167.3106022866
 11
377.5810614474
 21
167.3106022866
  0
LINE
  5
3F5
100
AcDbEntity
  8
H_MOVING
100
AcDbLine
 62
1
  6
CONTINUOUS
 10
118.9022085894
 20
168.7133738712
 11
120.8986895883
 21
168.7133738712
  0
LINE
  5
3F6
100
AcDbEntity
  8
BASIC_DEVICE
100
AcDbLine
 62
7
  6
CONTINUOUS
 10
982.3280614212
 20
170.0606022866
 11
976.2658835947
 21
170.0606022866
  0
LINE
  5
3F7
100
AcDbEntity
  8
BASIC_DEVICE
100
AcDbLine
 62
7
  6
CONTINUOUS
 10
629.2658835947
 20
170.0606022866
 11
635.3280614212
 21
170.0606022866
  0
LINE
  5
3F8
100
AcDbEntity
  8
H_MOVING
100
AcDbLine
 62
1
  6
CONTINUOUS
 10
120.9730759602
 20
170.7045349496
 11
119.2007446978
 21
170.7045349496
  0
LINE
  5
3F9
100
AcDbEntity
  8
H_MOVING
100
AcDbLine
 62
1
  6
CONTINUOUS
 10
119.2007446978
 20
176.7045349496
 11
121.1972256967
 21
176.7045349496
  0
LINE
  5
3FA
100
AcDbEntity
  8
TERMINAL_SCREEN
100
AcDbLine
 62
2
  6
CONTINUOUS
 10
241.6313139791
 20
423.2603497549
 11
288.1165953533
 21
376.7750683807
  0
LINE
  5
3FB
100
AcDbEntity
  8
TERMINAL_SCREEN
100
AcDbLine
 62
2
  6
CONTINUOUS
 10
289.5308089157
 20
378.1892819431
 11
243.0455275414
 21
424.6745633173
  0
LINE
  5
3FC
100
AcDbEntity
  8
INTER_PHASE_SCHIELDS
100
AcDbLine
 62
5
  6
CONTINUOUS
 10
370.9810614474
 20
332.6106022866
 11
368.9810614474
 21
334.6106022866
  0
LINE
  5
3FD
100
AcDbEntity
  8
INTER_PHASE_SCHIELDS
100
AcDbLine
 62
5
  6
CONTINUOUS
 10
363.0810614474
 20
399.6106022866
 11
363.0810614474
 21
346.3106022866
  0
LINE
  5
3FE
100
AcDbEntity
  8
INTER_PHASE_SCHIELDS
100
AcDbLine
 62
5
  6
CONTINUOUS
 10
363.0810614474
 20
86.0106022866
 11
363.0810614474
 21
139.3106022866
  0
LINE
  5
3FF
100
AcDbEntity
  8
INTER_PHASE_SCHIELDS
100
AcDbLine
 62
5
  6
CONTINUOUS
 10
365.0810614474
 20
399.6106022866
 11
365.0810614474
 21
346.3106022866
  0
LINE
  5
400
100
AcDbEntity
  8
INTER_PHASE_SCHIELDS
100
AcDbLine
 62
5
  6
CONTINUOUS
 10
365.0810614474
 20
86.0106022866
 11
365.0810614474
 21
139.3106022866
  0
LINE
  5
401
100
AcDbEntity
  8
INTER_PHASE_SCHIELDS
100
AcDbLine
 62
5
  6
CONTINUOUS
 10
365.9810614474
 20
349.1106022866
 11
365.9810614474
 21
339.6106022866
  0
LINE
  5
402
100
AcDbEntity
  8
INTER_PHASE_SCHIELDS
100
AcDbLine
 62
5
  6
CONTINUOUS
 10
365.9810614474
 20
136.5106022866
 11
365.9810614474
 21
146.0106022866
  0
LINE
  5
403
100
AcDbEntity
  8
0
100
AcDbLine
 62
1
  6
CONTINUOUS
 10
367.5274563788
 20
898.540728316
 11
367.5274563788
 21
800.040728316
  0
LINE
  5
404
100
AcDbEntity
  8
INTER_PHASE_SCHIELDS
100
AcDbLine
 62
5
  6
CONTINUOUS
 10
368.9810614474
 20
151.0106022866
 11
368.9810614474
 21
149.2106022866
  0
LINE
  5
405
100
AcDbEntity
  8
INTER_PHASE_SCHIELDS
100
AcDbLine
 62
5
  6
CONTINUOUS
 10
368.9810614474
 20
334.6106022866
 11
368.9810614474
 21
336.4106022866
  0
LINE
  5
406
100
AcDbEntity
  8
INTER_PHASE_SCHIELDS
100
AcDbLine
 62
5
  6
CONTINUOUS
 10
370.4810614474
 20
149.2106022866
 11
370.4810614474
 21
136.5106022866
  0
LINE
  5
407
100
AcDbEntity
  8
INTER_PHASE_SCHIELDS
100
AcDbLine
 62
5
  6
CONTINUOUS
 10
370.4810614474
 20
336.4106022866
 11
370.4810614474
 21
349.1106022866
  0
LINE
  5
408
100
AcDbEntity
  8
INTER_PHASE_SCHIELDS
100
AcDbLine
 62
5
  6
CONTINUOUS
 10
373.5810614474
 20
357.8106022866
 11
373.5810614474
 21
342.8106022866
  0
LINE
  5
409
100
AcDbEntity
  8
INTER_PHASE_SCHIELDS
100
AcDbLine
 62
5
  6
CONTINUOUS
 10
373.5810614474
 20
339.6106022866
 11
373.5810614474
 21
332.6106022866
  0
LINE
  5
40A
100
AcDbEntity
  8
INTER_PHASE_SCHIELDS
100
AcDbLine
 62
5
  6
CONTINUOUS
 10
373.5810614474
 20
127.8106022866
 11
373.5810614474
 21
142.8106022866
  0
LINE
  5
40B
100
AcDbEntity
  8
INTER_PHASE_SCHIELDS
100
AcDbLine
 62
5
  6
CONTINUOUS
 10
373.5810614474
 20
146.0106022866
 11
373.5810614474
 21
153.0106022866
  0
LINE
  5
40C
100
AcDbEntity
  8
INTER_PHASE_SCHIELDS
100
AcDbLine
 62
5
  6
CONTINUOUS
 10
375.5810614474
 20
402.6106022866
 11
375.5810614474
 21
339.6106022866
  0
LINE
  5
40D
100
AcDbEntity
  8
BASIC_DEVICE
100
AcDbLine
 62
7
  6
CONTINUOUS
 10
375.5810614474
 20
318.3106022866
 11
375.5810614474
 21
167.3106022866
  0
LINE
  5
40E
100
AcDbEntity
  8
INTER_PHASE_SCHIELDS
100
AcDbLine
 62
5
  6
CONTINUOUS
 10
375.5810614474
 20
83.0106022866
 11
375.5810614474
 21
146.0106022866
  0
LINE
  5
40F
100
AcDbEntity
  8
BASIC_DEVICE
100
AcDbLine
 62
7
  6
CONTINUOUS
 10
377.5810614474
 20
342.8106022866
 11
377.5810614474
 21
318.3106022866
  0
LINE
  5
410
100
AcDbEntity
  8
BASIC_DEVICE
100
AcDbLine
 62
7
  6
CONTINUOUS
 10
377.5810614474
 20
167.3106022866
 11
377.5810614474
 21
142.8106022866
  0
LINE
  5
411
100
AcDbEntity
  8
H_MOVING
100
AcDbLine
 62
1
  6
CONTINUOUS
 10
121.2716120686
 20
178.6956960281
 11
119.4992808063
 21
178.6956960281
  0
LINE
  5
412
100
AcDbEntity
  8
BASIC_DEVICE
100
AcDbLine
 62
7
  6
CONTINUOUS
 10
635.3280614212
 20
180.5606022866
 11
629.2658835947
 21
180.5606022866
  0
LINE
  5
413
100
AcDbEntity
  8
BASIC_DEVICE
100
AcDbLine
 62
7
  6
CONTINUOUS
 10
976.2658835947
 20
180.5606022866
 11
982.3280614212
 21
180.5606022866
  0
LINE
  5
414
100
AcDbEntity
  8
H_MOVING
100
AcDbLine
 62
1
  6
CONTINUOUS
 10
119.4992808063
 20
184.6956960281
 11
121.4957618051
 21
184.6956960281
  0
LINE
  5
415
100
AcDbEntity
  8
H_MOVING
100
AcDbLine
 62
1
  6
CONTINUOUS
 10
121.570148177
 20
186.6868571065
 11
119.7978169147
 21
186.6868571065
  0
LINE
  5
416
100
AcDbEntity
  8
H_MOVING
100
AcDbLine
 62
1
  6
CONTINUOUS
 10
119.7978169147
 20
192.6868571065
 11
121.7942979135
 21
192.6868571065
  0
LINE
  5
417
100
AcDbEntity
  8
H_MOVING
100
AcDbLine
 62
1
  6
CONTINUOUS
 10
121.8686842854
 20
194.6780181849
 11
120.0963530231
 21
194.6780181849
  0
LINE
  5
418
100
AcDbEntity
  8
H_MOVING
100
AcDbLine
 62
1
  6
CONTINUOUS
 10
120.0963530231
 20
200.6780181849
 11
122.092834022
 21
200.6780181849
  0
LINE
  5
419
100
AcDbEntity
  8
H_MOVING
100
AcDbLine
 62
1
  6
CONTINUOUS
 10
122.1672203938
 20
202.6691792633
 11
120.3948891315
 21
202.6691792633
  0
LINE
  5
41A
100
AcDbEntity
  8
H_MOVING
100
AcDbLine
 62
1
  6
CONTINUOUS
 10
74.2444380434
 20
206.2570992427
 11
117.4530614517
 21
206.2570992427
  0
LINE
  5
41B
100
AcDbEntity
  8
H_MOVING
100
AcDbLine
 62
1
  6
CONTINUOUS
 10
795.2969725076
 20
206.2570995208
 11
816.2969725076
 21
206.2570995208
  0
LINE
  5
41C
100
AcDbEntity
  8
BASIC_DEVICE
100
AcDbLine
 62
7
  6
CONTINUOUS
 10
647.2969725079
 20
82.8106022866
 11
652.2969725079
 21
77.8106022866
  0
LINE
  5
41D
100
AcDbEntity
  8
INTER_PHASE_SCHIELDS
100
AcDbLine
 62
5
  6
CONTINUOUS
 10
369.5810614474
 20
408.6106022866
 11
375.5810614474
 21
402.6106022866
  0
LINE
  5
41E
100
AcDbEntity
  8
0
100
AcDbLine
 62
1
  6
CONTINUOUS
 10
433.0898932459
 20
898.540728316
 11
433.0898932459
 21
800.040728316
  0
LINE
  5
41F
100
AcDbEntity
  8
H_EXTERN_HANDLE
100
AcDbLine
 62
7
  6
CONTINUOUS
 10
818.9893709592
 20
980.340489017
 11
807.2969725076
 21
970.340489017
  0
LINE
  5
420
100
AcDbEntity
  8
BASIC_DEVICE
100
AcDbLine
 62
7
  6
CONTINUOUS
 10
720.7969725079
 20
225.8106022866
 11
736.7969725079
 21
225.8106022866
  0
LINE
  5
421
100
AcDbEntity
  8
H_EXTERN_HANDLE
100
AcDbLine
 62
7
  6
CONTINUOUS
 10
165.5810614474
 20
230.8106022867
 11
150.5810614474
 21
230.8106022867
  0
LINE
  5
422
100
AcDbEntity
  8
BASIC_DEVICE
100
AcDbLine
 62
7
  6
CONTINUOUS
 10
900.7969725079
 20
233.8106022866
 11
882.7969725079
 21
233.8106022866
  0
LINE
  5
423
100
AcDbEntity
  8
BASIC_DEVICE
100
AcDbLine
 62
7
  6
CONTINUOUS
 10
885.7969725079
 20
236.8106022866
 11
897.7969725079
 21
236.8106022866
  0
LINE
  5
424
100
AcDbEntity
  8
H_EXTERN_HANDLE
100
AcDbLine
 62
7
  6
CONTINUOUS
 10
124.5810614474
 20
240.8106020086
 11
150.5810614474
 21
240.8106020086
  0
LINE
  5
425
100
AcDbEntity
  8
AXIS
100
AcDbLine
 62
4
  6
CONTINUOUS
 10
1192.7629924579
 20
245.8106022867
 11
1207.6569994595
 21
245.8106022867
  0
LINE
  5
426
100
AcDbEntity
  8
BASIC_DEVICE
100
AcDbLine
 62
7
  6
CONTINUOUS
 10
897.7969725079
 20
248.8106022866
 11
885.7969725079
 21
248.8106022866
  0
LINE
  5
427
100
AcDbEntity
  8
BASIC_DEVICE
100
AcDbLine
 62
7
  6
CONTINUOUS
 10
882.7969725079
 20
251.8106022866
 11
900.7969725079
 21
251.8106022866
  0
LINE
  5
428
100
AcDbEntity
  8
BASIC_DEVICE
100
AcDbLine
 62
1
  6
CONTINUOUS
 10
233.3810614474
 20
255.2106022866
 11
237.5810614474
 21
255.2106022866
  0
LINE
  5
429
100
AcDbEntity
  8
H_EXTERN_HANDLE
100
AcDbLine
 62
7
  6
CONTINUOUS
 10
75.0810614474
 20
256.5606020086
 11
114.5810614474
 21
256.5606020086
  0
LINE
  5
42A
100
AcDbEntity
  8
H_EXTERN_HANDLE
100
AcDbLine
 62
7
  6
CONTINUOUS
 10
779.2969725077
 20
256.5606022867
 11
832.2969725077
 21
256.5606022867
  0
LINE
  5
42B
100
AcDbEntity
  8
BASIC_DEVICE
100
AcDbLine
 62
1
  6
CONTINUOUS
 10
234.4810614474
 20
259.217278931
 11
235.5810614474
 21
259.217278931
  0
LINE
  5
42C
100
AcDbEntity
  8
BASIC_DEVICE
100
AcDbLine
 62
7
  6
CONTINUOUS
 10
736.7969725079
 20
259.8106022866
 11
720.7969725079
 21
259.8106022866
  0
LINE
  5
42D
100
AcDbEntity
  8
H_EXTERN_HANDLE
100
AcDbLine
 62
7
  6
CONTINUOUS
 10
112.8306093037
 20
260.3106036608
 11
126.0810600732
 21
260.3106019267
  0
LINE
  5
42E
100
AcDbEntity
  8
H_EXTERN_HANDLE
100
AcDbLine
 62
7
  6
CONTINUOUS
 10
760.7969725076
 20
260.3106022866
 11
779.2969725077
 21
260.3106022866
  0
LINE
  5
42F
100
AcDbEntity
  8
H_EXTERN_HANDLE
100
AcDbLine
 62
7
  6
CONTINUOUS
 10
832.2969725076
 20
260.3106022866
 11
994.7969725076
 21
260.3106022867
  0
LINE
  5
430
100
AcDbEntity
  8
H_EXTERN_HANDLE
100
AcDbLine
 62
7
  6
CONTINUOUS
 10
73.5810614474
 20
260.5606020085
 11
75.0810614474
 21
260.5606020085
  0
LINE
  5
431
100
AcDbEntity
  8
H_EXTERN_HANDLE
100
AcDbLine
 62
7
  6
CONTINUOUS
 10
127.5810614474
 20
262.3106020085
 11
118.9950242973
 21
262.3106020085
  0
LINE
  5
432
100
AcDbEntity
  8
BASIC_DEVICE
100
AcDbLine
 62
1
  6
CONTINUOUS
 10
798.1469725077
 20
263.1606022867
 11
813.4469725077
 21
263.1606022867
  0
LINE
  5
433
100
AcDbEntity
  8
BASIC_DEVICE
100
AcDbLine
 62
7
  6
CONTINUOUS
 10
813.2969725076
 20
263.3106022867
 11
798.2969725076
 21
263.3106022867
  0
LINE
  5
434
100
AcDbEntity
  8
BASIC_DEVICE
100
AcDbLine
 62
7
  6
CONTINUOUS
 10
211.5810614474
 20
263.3106022866
 11
233.3810614474
 21
263.3106022866
  0
LINE
  5
435
100
AcDbEntity
  8
H_EXTERN_HANDLE
100
AcDbLine
 62
7
  6
CONTINUOUS
 10
150.5810614474
 20
264.3106020085
 11
127.5810614474
 21
264.3106020085
  0
LINE
  5
436
100
AcDbEntity
  8
H_EXTERN_HANDLE
100
AcDbLine
 62
7
  6
CONTINUOUS
 10
759.7969725076
 20
264.8106022867
 11
793.7519462501
 21
264.8106022867
  0
LINE
  5
437
100
AcDbEntity
  8
H_EXTERN_HANDLE
100
AcDbLine
 62
7
  6
CONTINUOUS
 10
811.8419987652
 20
264.8106022867
 11
868.7969725077
 21
264.8106022867
  0
LINE
  5
438
100
AcDbEntity
  8
BASIC_DEVICE
100
AcDbLine
 62
7
  6
CONTINUOUS
 10
829.8801616652
 20
266.8106022867
 11
836.9738870442
 21
266.8106022867
  0
LINE
  5
439
100
AcDbEntity
  8
BASIC_DEVICE
100
AcDbLine
 62
1
  6
CONTINUOUS
 10
234.4810614474
 20
268.2606022866
 11
226.2810614474
 21
268.2606022866
  0
LINE
  5
43A
100
AcDbEntity
  8
BASIC_DEVICE
100
AcDbLine
 62
1
  6
CONTINUOUS
 10
819.2969725077
 20
269.0106022867
 11
821.2927783918
 21
269.0106022867
  0
LINE
  5
43B
100
AcDbEntity
  8
AXIS
100
AcDbLine
 62
4
  6
CONTINUOUS
 10
240.5810614474
 20
270.8106022866
 11
222.2810614474
 21
270.8106022866
  0
LINE
  5
43C
100
AcDbEntity
  8
AXIS
100
AcDbLine
 62
4
  6
CONTINUOUS
 10
170.6331102774
 20
270.8106022867
 11
66.3112649683
 21
270.8106022867
  0
LINE
  5
43D
100
AcDbEntity
  8
BASIC_DEVICE
100
AcDbLine
 62
1
  6
CONTINUOUS
 10
234.4810614474
 20
270.8106022866
 11
235.5810614474
 21
270.8106022866
  0
LINE
  5
43E
100
AcDbEntity
  8
AXIS
100
AcDbLine
 62
4
  6
CONTINUOUS
 10
745.8053969314
 20
270.8106022867
 11
1012.6976509195
 21
270.8106022867
  0
LINE
  5
43F
100
AcDbEntity
  8
AXIS
100
AcDbLine
 62
4
  6
CONTINUOUS
 10
1168.1180664397
 20
270.8106022867
 11
1232.0012294379
 21
270.8106022867
  0
LINE
  5
440
100
AcDbEntity
  8
BASIC_DEVICE
100
AcDbLine
 62
1
  6
CONTINUOUS
 10
821.2927783918
 20
272.6106022867
 11
819.2969725077
 21
272.6106022867
  0
LINE
  5
441
100
AcDbEntity
  8
H_EXTERN_HANDLE
100
AcDbLine
 62
7
  6
CONTINUOUS
 10
78.1868957488
 20
261.8192376292
 11
112.3707506961
 21
260.3206771774
  0
LINE
  5
442
100
AcDbEntity
  8
AM_12
100
AcDbLine
 62
4
  6
CONTINUOUS
 10
736.5424137635
 20
80.6880709437
 11
740.0424137635
 21
77.1880709437
  0
LINE
  5
443
100
AcDbEntity
  8
BASIC_DEVICE
100
AcDbLine
 62
7
  6
CONTINUOUS
 10
767.2969725079
 20
82.8106022866
 11
772.2969725079
 21
77.8106022866
  0
LINE
  5
444
100
AcDbEntity
  8
0
100
AcDbLine
 62
7
  6
CONTINUOUS
 10
459.2898932459
 20
898.540728316
 11
459.2898932459
 21
800.040728316
  0
LINE
  5
445
100
AcDbEntity
  8
INTER_PHASE_SCHIELDS
100
AcDbLine
 62
5
  6
CONTINUOUS
 10
292.8810614474
 20
402.6106022866
 11
298.8810614474
 21
408.6106022866
  0
LINE
  5
446
100
AcDbEntity
  8
H_EXTERN_HANDLE
100
AcDbLine
 62
7
  6
CONTINUOUS
 10
112.3707505258
 20
281.3005273884
 11
78.1868956027
 21
279.8019663815
  0
LINE
  5
447
100
AcDbEntity
  8
BASIC_DEVICE
100
AcDbLine
 62
1
  6
CONTINUOUS
 10
226.2810614474
 20
273.3606022866
 11
234.4810614474
 21
273.3606022866
  0
LINE
  5
448
100
AcDbEntity
  8
H_EXTERN_HANDLE
100
AcDbLine
 62
7
  6
CONTINUOUS
 10
868.7969725077
 20
276.8106022866
 11
811.8419987652
 21
276.8106022867
  0
LINE
  5
449
100
AcDbEntity
  8
H_EXTERN_HANDLE
100
AcDbLine
 62
7
  6
CONTINUOUS
 10
793.7519462501
 20
276.8106022867
 11
759.7969725076
 21
276.8106022867
  0
LINE
  5
44A
100
AcDbEntity
  8
H_EXTERN_HANDLE
100
AcDbLine
 62
7
  6
CONTINUOUS
 10
127.5810614474
 20
277.3106020085
 11
150.5810614474
 21
277.3106020085
  0
LINE
  5
44B
100
AcDbEntity
  8
BASIC_DEVICE
100
AcDbLine
 62
7
  6
CONTINUOUS
 10
233.3810614474
 20
278.3106022866
 11
211.5810614474
 21
278.3106022866
  0
LINE
  5
44C
100
AcDbEntity
  8
BASIC_DEVICE
100
AcDbLine
 62
7
  6
CONTINUOUS
 10
798.2969725076
 20
278.3106022867
 11
813.2969725076
 21
278.3106022867
  0
LINE
  5
44D
100
AcDbEntity
  8
BASIC_DEVICE
100
AcDbLine
 62
1
  6
CONTINUOUS
 10
813.4469725077
 20
278.4606022867
 11
798.1469725077
 21
278.4606022867
  0
LINE
  5
44E
100
AcDbEntity
  8
H_EXTERN_HANDLE
100
AcDbLine
 62
7
  6
CONTINUOUS
 10
118.9950250643
 20
279.3106020085
 11
127.5810614474
 21
279.3106020085
  0
LINE
  5
44F
100
AcDbEntity
  8
H_EXTERN_HANDLE
100
AcDbLine
 62
7
  6
CONTINUOUS
 10
75.0810614474
 20
281.0606020085
 11
73.5810614474
 21
281.0606020085
  0
LINE
  5
450
100
AcDbEntity
  8
H_EXTERN_HANDLE
100
AcDbLine
 62
7
  6
CONTINUOUS
 10
994.7969725076
 20
281.3106022867
 11
832.2969725076
 21
281.3106022866
  0
LINE
  5
451
100
AcDbEntity
  8
H_EXTERN_HANDLE
100
AcDbLine
 62
7
  6
CONTINUOUS
 10
779.2969725077
 20
281.3106022866
 11
760.7969725076
 21
281.3106022866
  0
LINE
  5
452
100
AcDbEntity
  8
H_EXTERN_HANDLE
100
AcDbLine
 62
7
  6
CONTINUOUS
 10
112.8306106778
 20
281.3106022867
 11
126.0810614474
 21
281.3106022867
  0
LINE
  5
453
100
AcDbEntity
  8
BASIC_DEVICE
100
AcDbLine
 62
1
  6
CONTINUOUS
 10
235.5810614474
 20
282.061269197
 11
234.4810614474
 21
282.061269197
  0
LINE
  5
454
100
AcDbEntity
  8
H_EXTERN_HANDLE
100
AcDbLine
 62
7
  6
CONTINUOUS
 10
832.2969725077
 20
285.0606022867
 11
779.2969725077
 21
285.0606022867
  0
LINE
  5
455
100
AcDbEntity
  8
H_EXTERN_HANDLE
100
AcDbLine
 62
7
  6
CONTINUOUS
 10
75.0810614474
 20
285.0606020086
 11
114.5810614474
 21
285.0606020086
  0
LINE
  5
456
100
AcDbEntity
  8
BASIC_DEVICE
100
AcDbLine
 62
1
  6
CONTINUOUS
 10
237.5810614474
 20
286.4106022866
 11
233.3810614474
 21
286.4106022866
  0
LINE
  5
457
100
AcDbEntity
  8
AXIS
100
AcDbLine
 62
4
  6
CONTINUOUS
 10
1192.2813985536
 20
295.8106022867
 11
1208.1385933639
 21
295.8106022867
  0
LINE
  5
458
100
AcDbEntity
  8
H_EXTERN_HANDLE
100
AcDbLine
 62
7
  6
CONTINUOUS
 10
150.5810614474
 20
300.8106020086
 11
124.5810614474
 21
300.8106020086
  0
LINE
  5
459
100
AcDbEntity
  8
H_EXTERN_HANDLE
100
AcDbLine
 62
1
  6
CONTINUOUS
 10
805.7969725077
 20
301.3106022867
 11
821.7969725077
 21
301.3106022867
  0
LINE
  5
45A
100
AcDbEntity
  8
TEXT
100
AcDbLine
 62
2
  6
CONTINUOUS
 10
807.1129632759
 20
302.8597393862
 11
805.1129632759
 21
302.8597393862
  0
LINE
  5
45B
100
AcDbEntity
  8
TEXT
100
AcDbLine
 62
2
  6
CONTINUOUS
 10
805.1129632759
 20
302.8597393862
 11
807.1129632759
 21
302.8597393862
  0
LINE
  5
45C
100
AcDbEntity
  8
TEXT
100
AcDbLine
 62
2
  6
CONTINUOUS
 10
807.1129632759
 20
308.8597393862
 11
805.1129632759
 21
308.8597393862
  0
LINE
  5
45D
100
AcDbEntity
  8
TEXT
100
AcDbLine
 62
2
  6
CONTINUOUS
 10
805.1129632759
 20
308.8597393862
 11
805.1129632759
 21
302.8597393862
  0
LINE
  5
45E
100
AcDbEntity
  8
TEXT
100
AcDbLine
 62
2
  6
CONTINUOUS
 10
807.1129632759
 20
302.8597393862
 11
807.1129632759
 21
308.8597393862
  0
HATCH
  5
45F
100
AcDbEntity
  8
TEXT
100
AcDbHatch
 62
2
  6
CONTINUOUS
 10
0.0
 20
0.0
 30
0.0
210
0.0
220
0.0
230
1.0
  2
SOLID
 70
1
 71
1
 91
1
 92
1
 93
4
 72
1
 10
807.1129632759
 20
302.8597393862
 11
807.1129632759
 21
308.8597393862
 72
1
 10
807.1129632759
 20
308.8597393862
 11
805.1129632759
 21
308.8597393862
 72
1
 10
805.1129632759
 20
308.8597393862
 11
805.1129632759
 21
302.8597393862
 72
1
 10
805.1129632759
 20
302.8597393862
 11
807.1129632759
 21
302.8597393862
 97
4
330
45B
330
45C
330
45D
330
45E
 75
0
 76
1
 98
1
 10
0.0
 20
0.0
  0
LINE
  5
460
100
AcDbEntity
  8
BASIC_DEVICE
100
AcDbLine
 62
7
  6
CONTINUOUS
 10
982.3280614212
 20
305.0606022866
 11
976.2658835947
 21
305.0606022866
  0
LINE
  5
461
100
AcDbEntity
  8
BASIC_DEVICE
100
AcDbLine
 62
7
  6
CONTINUOUS
 10
629.2658835947
 20
305.0606022866
 11
635.3280614212
 21
305.0606022866
  0
LINE
  5
462
100
AcDbEntity
  8
TEXT
100
AcDbLine
 62
2
  6
CONTINUOUS
 10
807.1129632759
 20
308.8597393862
 11
805.1129632759
 21
308.8597393862
  0
LINE
  5
463
100
AcDbEntity
  8
H_EXTERN_HANDLE
100
AcDbLine
 62
1
  6
CONTINUOUS
 10
821.7969725077
 20
310.3106022867
 11
805.7969725077
 21
310.3106022867
  0
LINE
  5
464
100
AcDbEntity
  8
H_EXTERN_HANDLE
100
AcDbLine
 62
7
  6
CONTINUOUS
 10
845.7969725077
 20
310.8106022867
 11
805.7969725077
 21
310.8106022867
  0
LINE
  5
465
100
AcDbEntity
  8
H_EXTERN_HANDLE
100
AcDbLine
 62
7
  6
CONTINUOUS
 10
150.5810614474
 20
310.8106022867
 11
165.5810614473
 21
310.8106022867
  0
LINE
  5
466
100
AcDbEntity
  8
BASIC_DEVICE
100
AcDbLine
 62
7
  6
CONTINUOUS
 10
635.3280614212
 20
315.5606022866
 11
629.2658835947
 21
315.5606022866
  0
LINE
  5
467
100
AcDbEntity
  8
BASIC_DEVICE
100
AcDbLine
 62
7
  6
CONTINUOUS
 10
976.2658835947
 20
315.5606022866
 11
982.3280614212
 21
315.5606022866
  0
LINE
  5
468
100
AcDbEntity
  8
BASIC_DEVICE
100
AcDbLine
 62
7
  6
CONTINUOUS
 10
377.5810614474
 20
318.3106022866
 11
375.5810614474
 21
318.3106022866
  0
LINE
  5
469
100
AcDbEntity
  8
TERMINAL_SCREEN
100
AcDbLine
 62
2
  6
CONTINUOUS
 10
991.7969725079
 20
320.3106022866
 11
871.2969725079
 21
320.3106022866
  0
LINE
  5
46A
100
AcDbEntity
  8
TERMINAL_SCREEN
100
AcDbLine
 62
2
  6
CONTINUOUS
 10
740.2969725079
 20
320.3106022866
 11
619.7969725079
 21
320.3106022866
  0
LINE
  5
46B
100
AcDbEntity
  8
BASIC_DEVICE
100
AcDbLine
 62
7
  6
CONTINUOUS
 10
632.2969725079
 20
320.3106022866
 11
619.7969725079
 21
320.3106022866
  0
LINE
  5
46C
100
AcDbEntity
  8
TERMINAL_SCREEN
100
AcDbLine
 62
2
  6
CONTINUOUS
 10
289.5810614474
 20
320.3106022866
 11
291.5810614474
 21
320.3106022866
  0
LINE
  5
46D
100
AcDbEntity
  8
BASIC_DEVICE
100
AcDbLine
 62
7
  6
CONTINUOUS
 10
291.5810614474
 20
320.3106022866
 11
352.5810614474
 21
320.3106022866
  0
LINE
  5
46E
100
AcDbEntity
  8
BASIC_DEVICE
100
AcDbLine
 62
7
  6
CONTINUOUS
 10
979.2969725079
 20
320.3106022866
 11
991.7969725079
 21
320.3106022866
  0
LINE
  5
46F
100
AcDbEntity
  8
AM_12
100
AcDbLine
 62
4
  6
CONTINUOUS
 10
617.5800214022
 20
248.7781808953
 11
621.0800214022
 21
245.2781808953
  0
LINE
  5
470
100
AcDbEntity
  8
BASIC_DEVICE
100
AcDbLine
 62
7
  6
CONTINUOUS
 10
626.2347946814
 20
175.3106022866
 11
629.2658835947
 21
170.0606022866
  0
LINE
  5
471
100
AcDbEntity
  8
BASIC_DEVICE
100
AcDbLine
 62
7
  6
CONTINUOUS
 10
638.3591503344
 20
175.3106022866
 11
635.3280614212
 21
180.5606022866
  0
LINE
  5
472
100
AcDbEntity
  8
BASIC_DEVICE
100
AcDbLine
 62
1
  6
CONTINUOUS
 10
225.2810614474
 20
272.3606022866
 11
226.2810614474
 21
273.3606022866
  0
LINE
  5
473
100
AcDbEntity
  8
BASIC_DEVICE
100
AcDbLine
 62
1
  6
CONTINUOUS
 10
788.5948628351
 20
830.140489017
 11
787.5948628351
 21
829.140489017
  0
LINE
  5
474
100
AcDbEntity
  8
INTER_PHASE_SCHIELDS
100
AcDbLine
 62
5
  6
CONTINUOUS
 10
299.4810614474
 20
334.6106022866
 11
297.4810614474
 21
332.6106022866
  0
LINE
  5
475
100
AcDbEntity
  8
BASIC_DEVICE
100
AcDbLine
 62
7
  6
CONTINUOUS
 10
893.8280614212
 20
325.0606022866
 11
887.7658835947
 21
325.0606022866
  0
LINE
  5
476
100
AcDbEntity
  8
BASIC_DEVICE
100
AcDbLine
 62
7
  6
CONTINUOUS
 10
717.7658835947
 20
325.0606022866
 11
723.8280614212
 21
325.0606022866
  0
LINE
  5
477
100
AcDbEntity
  8
AXIS
100
AcDbLine
 62
4
  6
CONTINUOUS
 10
624.7969725079
 20
330.3106022866
 11
639.7969725079
 21
330.3106022866
  0
LINE
  5
478
100
AcDbEntity
  8
AXIS
100
AcDbLine
 62
4
  6
CONTINUOUS
 10
971.7969725079
 20
330.3106022866
 11
986.7969725079
 21
330.3106022866
  0
LINE
  5
479
100
AcDbEntity
  8
INTER_PHASE_SCHIELDS
100
AcDbLine
 62
5
  6
CONTINUOUS
 10
860.2969725079
 20
332.6106022866
 11
858.2969725079
 21
332.6106022866
  0
LINE
  5
47A
100
AcDbEntity
  8
INTER_PHASE_SCHIELDS
100
AcDbLine
 62
5
  6
CONTINUOUS
 10
740.2969725079
 20
332.6106022866
 11
738.2969725079
 21
332.6106022866
  0
LINE
  5
47B
100
AcDbEntity
  8
INTER_PHASE_SCHIELDS
100
AcDbLine
 62
5
  6
CONTINUOUS
 10
373.5810614474
 20
332.6106022866
 11
370.9810614474
 21
332.6106022866
  0
LINE
  5
47C
100
AcDbEntity
  8
INTER_PHASE_SCHIELDS
100
AcDbLine
 62
5
  6
CONTINUOUS
 10
297.4810614474
 20
332.6106022866
 11
294.8810614474
 21
332.6106022866
  0
LINE
  5
47D
100
AcDbEntity
  8
BASIC_DEVICE
100
AcDbLine
 62
7
  6
CONTINUOUS
 10
723.8280614212
 20
335.5606022866
 11
717.7658835947
 21
335.5606022866
  0
LINE
  5
47E
100
AcDbEntity
  8
BASIC_DEVICE
100
AcDbLine
 62
7
  6
CONTINUOUS
 10
887.7658835947
 20
335.5606022866
 11
893.8280614212
 21
335.5606022866
  0
LINE
  5
47F
100
AcDbEntity
  8
INTER_PHASE_SCHIELDS
100
AcDbLine
 62
5
  6
CONTINUOUS
 10
297.9810614474
 20
336.4106022866
 11
299.4810614474
 21
336.4106022866
  0
LINE
  5
480
100
AcDbEntity
  8
INTER_PHASE_SCHIELDS
100
AcDbLine
 62
5
  6
CONTINUOUS
 10
368.9810614474
 20
336.4106022866
 11
370.4810614474
 21
336.4106022866
  0
LINE
  5
481
100
AcDbEntity
  8
BASIC_DEVICE
100
AcDbLine
 62
7
  6
CONTINUOUS
 10
865.7969725076
 20
337.8106022867
 11
745.7969725076
 21
337.8106022867
  0
LINE
  5
482
100
AcDbEntity
  8
INTER_PHASE_SCHIELDS
100
AcDbLine
 62
5
  6
CONTINUOUS
 10
375.5810614474
 20
339.6106022866
 11
373.5810614474
 21
339.6106022866
  0
LINE
  5
483
100
AcDbEntity
  8
INTER_PHASE_SCHIELDS
100
AcDbLine
 62
5
  6
CONTINUOUS
 10
365.9810614474
 20
339.6106022866
 11
302.4810614474
 21
339.6106022866
  0
LINE
  5
484
100
AcDbEntity
  8
INTER_PHASE_SCHIELDS
100
AcDbLine
 62
5
  6
CONTINUOUS
 10
294.8810614474
 20
339.6106022866
 11
292.8810614474
 21
339.6106022866
  0
LINE
  5
485
100
AcDbEntity
  8
INTER_PHASE_SCHIELDS
100
AcDbLine
 62
5
  6
CONTINUOUS
 10
862.7969725079
 20
342.8106022866
 11
860.2969725079
 21
342.8106022866
  0
LINE
  5
486
100
AcDbEntity
  8
INTER_PHASE_SCHIELDS
100
AcDbLine
 62
5
  6
CONTINUOUS
 10
858.2969725079
 20
342.8106022866
 11
855.7969725079
 21
342.8106022866
  0
LINE
  5
487
100
AcDbEntity
  8
INTER_PHASE_SCHIELDS
100
AcDbLine
 62
5
  6
CONTINUOUS
 10
742.7969725079
 20
342.8106022866
 11
740.2969725079
 21
342.8106022866
  0
LINE
  5
488
100
AcDbEntity
  8
INTER_PHASE_SCHIELDS
100
AcDbLine
 62
5
  6
CONTINUOUS
 10
738.2969725079
 20
342.8106022866
 11
735.7969725079
 21
342.8106022866
  0
LINE
  5
489
100
AcDbEntity
  8
BASIC_DEVICE
100
AcDbLine
 62
7
  6
CONTINUOUS
 10
237.5810614474
 20
342.8106022866
 11
377.5810614474
 21
342.8106022866
  0
LINE
  5
48A
100
AcDbEntity
  8
INTER_PHASE_SCHIELDS
100
AcDbLine
 62
5
  6
CONTINUOUS
 10
373.5810614474
 20
342.8106022866
 11
375.5810614474
 21
342.8106022866
  0
LINE
  5
48B
100
AcDbEntity
  8
BASIC_DEVICE
100
AcDbLine
 62
7
  6
CONTINUOUS
 10
740.7969725076
 20
342.8106022867
 11
870.7969725076
 21
342.8106022867
  0
LINE
  5
48C
100
AcDbEntity
  8
BASIC_DEVICE
100
AcDbLine
 62
7
  6
CONTINUOUS
 10
805.7969725079
 20
342.8116882241
 11
619.7969725079
 21
342.8106022866
  0
LINE
  5
48D
100
AcDbEntity
  8
BASIC_DEVICE
100
AcDbLine
 62
7
  6
CONTINUOUS
 10
991.7969725079
 20
342.8106022866
 11
805.7969725079
 21
342.8116882241
  0
LINE
  5
48E
100
AcDbEntity
  8
INTER_PHASE_SCHIELDS
100
AcDbLine
 62
5
  6
CONTINUOUS
 10
858.2969725079
 20
343.3106022866
 11
857.2969725079
 21
343.3106022866
  0
LINE
  5
48F
100
AcDbEntity
  8
TERMINAL_SCREEN
100
AcDbLine
 62
2
  6
CONTINUOUS
 10
871.2969725079
 20
343.3106022866
 11
740.2969725079
 21
343.3106022866
  0
LINE
  5
490
100
AcDbEntity
  8
INTER_PHASE_SCHIELDS
100
AcDbLine
 62
5
  6
CONTINUOUS
 10
738.2969725079
 20
343.3106022866
 11
737.2969725079
 21
343.3106022866
  0
LINE
  5
491
100
AcDbEntity
  8
INTER_PHASE_SCHIELDS
100
AcDbLine
 62
5
  6
CONTINUOUS
 10
362.0810614474
 20
343.3106022866
 11
306.2810614474
 21
343.3106022866
  0
LINE
  5
492
100
AcDbEntity
  8
INTER_PHASE_SCHIELDS
100
AcDbLine
 62
5
  6
CONTINUOUS
 10
740.2969725079
 20
343.3106022866
 11
741.2969725079
 21
343.3106022866
  0
LINE
  5
493
100
AcDbEntity
  8
INTER_PHASE_SCHIELDS
100
AcDbLine
 62
5
  6
CONTINUOUS
 10
860.2969725079
 20
343.3106022866
 11
861.2969725079
 21
343.3106022866
  0
LINE
  5
494
100
AcDbEntity
  8
INTER_PHASE_SCHIELDS
100
AcDbLine
 62
5
  6
CONTINUOUS
 10
362.0810614474
 20
345.3106022866
 11
306.2810614474
 21
345.3106022866
  0
LINE
  5
495
100
AcDbEntity
  8
INTER_PHASE_SCHIELDS
100
AcDbLine
 62
5
  6
CONTINUOUS
 10
375.5810614474
 20
357.8106022866
 11
373.5810614474
 21
357.8106022866
  0
LINE
  5
496
100
AcDbEntity
  8
AXIS
100
AcDbLine
 62
4
  6
CONTINUOUS
 10
346.5810614474
 20
367.8106022866
 11
321.5810614474
 21
367.8106022866
  0
LINE
  5
497
100
AcDbEntity
  8
AM_12
100
AcDbLine
 62
4
  6
CONTINUOUS
 10
856.5424137635
 20
80.6880709437
 11
860.0424137635
 21
77.1880709437
  0
LINE
  5
498
100
AcDbEntity
  8
BASIC_DEVICE
100
AcDbLine
 62
7
  6
CONTINUOUS
 10
887.2969725079
 20
82.8106022866
 11
892.2969725079
 21
77.8106022866
  0
LINE
  5
499
100
AcDbEntity
  8
BASIC_DEVICE
100
AcDbLine
 62
7
  6
CONTINUOUS
 10
714.7347946814
 20
155.3106022866
 11
717.7658835947
 21
150.0606022866
  0
LINE
  5
49A
100
AcDbEntity
  8
BASIC_DEVICE
100
AcDbLine
 62
7
  6
CONTINUOUS
 10
626.2347946814
 20
310.3106022866
 11
629.2658835947
 21
305.0606022866
  0
LINE
  5
49B
100
AcDbEntity
  8
BASIC_DEVICE
100
AcDbLine
 62
7
  6
CONTINUOUS
 10
726.8591503344
 20
155.3106022866
 11
723.8280614212
 21
160.5606022866
  0
LINE
  5
49C
100
AcDbEntity
  8
BASIC_DEVICE
100
AcDbLine
 62
7
  6
CONTINUOUS
 10
638.3591503344
 20
310.3106022866
 11
635.3280614212
 21
315.5606022866
  0
LINE
  5
49D
100
AcDbEntity
  8
TERMINAL_SCREEN
100
AcDbLine
 62
2
  6
CONTINUOUS
 10
619.7969725079
 20
375.3106022866
 11
991.7969725079
 21
375.3106022866
  0
LINE
  5
49E
100
AcDbEntity
  8
AXIS
100
AcDbLine
 62
4
  6
CONTINUOUS
 10
346.5810614474
 20
387.8106022866
 11
321.5810614474
 21
387.8106022866
  0
LINE
  5
49F
100
AcDbEntity
  8
INTER_PHASE_SCHIELDS
100
AcDbLine
 62
5
  6
CONTINUOUS
 10
306.2810614474
 20
400.6106022866
 11
362.0810614474
 21
400.6106022866
  0
LINE
  5
4A0
100
AcDbEntity
  8
INTER_PHASE_SCHIELDS
100
AcDbLine
 62
5
  6
CONTINUOUS
 10
861.2969725079
 20
402.6106022866
 11
860.2969725079
 21
402.6106022866
  0
LINE
  5
4A1
100
AcDbEntity
  8
INTER_PHASE_SCHIELDS
100
AcDbLine
 62
5
  6
CONTINUOUS
 10
741.2969725079
 20
402.6106022866
 11
740.2969725079
 21
402.6106022866
  0
LINE
  5
4A2
100
AcDbEntity
  8
INTER_PHASE_SCHIELDS
100
AcDbLine
 62
5
  6
CONTINUOUS
 10
306.2810614474
 20
402.6106022866
 11
362.0810614474
 21
402.6106022866
  0
LINE
  5
4A3
100
AcDbEntity
  8
INTER_PHASE_SCHIELDS
100
AcDbLine
 62
5
  6
CONTINUOUS
 10
737.2969725079
 20
402.6106022866
 11
738.2969725079
 21
402.6106022866
  0
LINE
  5
4A4
100
AcDbEntity
  8
INTER_PHASE_SCHIELDS
100
AcDbLine
 62
5
  6
CONTINUOUS
 10
857.2969725079
 20
402.6106022866
 11
858.2969725079
 21
402.6106022866
  0
LINE
  5
4A5
100
AcDbEntity
  8
BASIC_DEVICE
100
AcDbLine
 62
7
  6
CONTINUOUS
 10
337.5810614474
 20
402.8106022866
 11
330.5810614474
 21
402.8106022866
  0
LINE
  5
4A6
100
AcDbEntity
  8
BASIC_DEVICE
100
AcDbLine
 62
7
  6
CONTINUOUS
 10
337.5810614474
 20
407.8106022866
 11
330.5810614474
 21
407.8106022866
  0
LINE
  5
4A7
100
AcDbEntity
  8
BASIC_DEVICE
100
AcDbLine
 62
7
  6
CONTINUOUS
 10
652.2969725079
 20
407.8106022866
 11
705.2969725079
 21
407.8106022866
  0
LINE
  5
4A8
100
AcDbEntity
  8
BASIC_DEVICE
100
AcDbLine
 62
7
  6
CONTINUOUS
 10
772.2969725079
 20
407.8106022866
 11
825.2969725079
 21
407.8106022866
  0
LINE
  5
4A9
100
AcDbEntity
  8
BASIC_DEVICE
100
AcDbLine
 62
7
  6
CONTINUOUS
 10
892.2969725079
 20
407.8106022866
 11
945.2969725079
 21
407.8106022866
  0
LINE
  5
4AA
100
AcDbEntity
  8
INTER_PHASE_SCHIELDS
100
AcDbLine
 62
5
  6
CONTINUOUS
 10
298.8810614474
 20
408.6106022866
 11
369.5810614474
 21
408.6106022866
  0
LINE
  5
4AB
100
AcDbEntity
  8
INTER_PHASE_SCHIELDS
100
AcDbLine
 62
5
  6
CONTINUOUS
 10
738.2969725079
 20
408.6106022866
 11
740.2969725079
 21
408.6106022866
  0
LINE
  5
4AC
100
AcDbEntity
  8
INTER_PHASE_SCHIELDS
100
AcDbLine
 62
5
  6
CONTINUOUS
 10
858.2969725079
 20
408.6106022866
 11
860.2969725079
 21
408.6106022866
  0
LINE
  5
4AD
100
AcDbEntity
  8
BASIC_DEVICE
100
AcDbLine
 62
1
  6
CONTINUOUS
 10
781.5623992246
 20
270.7938575171
 11
796.192342496
 21
258.5178775139
  0
LINE
  5
4AE
100
AcDbEntity
  8
TERMINAL_SCREEN
100
AcDbLine
 62
2
  6
CONTINUOUS
 10
619.7969725079
 20
815.840489017
 11
619.7969725079
 21
763.840489017
  0
LINE
  5
4AF
100
AcDbEntity
  8
BASIC_DEVICE
100
AcDbLine
 62
7
  6
CONTINUOUS
 10
619.7969725079
 20
342.8106022866
 11
619.7969725079
 21
142.8106022866
  0
LINE
  5
4B0
100
AcDbEntity
  8
TERMINAL_SCREEN
100
AcDbLine
 62
2
  6
CONTINUOUS
 10
619.7969725079
 20
320.3106022866
 11
619.7969725079
 21
468.3106022866
  0
LINE
  5
4B1
100
AcDbEntity
  8
BASIC_DEVICE
100
AcDbLine
 62
7
  6
CONTINUOUS
 10
619.7969725079
 20
677.840489017
 11
619.7969725079
 21
763.840489017
  0
LINE
  5
4B2
100
AcDbEntity
  8
AXIS
100
AcDbLine
 62
4
  6
CONTINUOUS
 10
632.2969725079
 20
147.8106022866
 11
632.2969725079
 21
162.8106022866
  0
LINE
  5
4B3
100
AcDbEntity
  8
AXIS
100
AcDbLine
 62
4
  6
CONTINUOUS
 10
632.2969725079
 20
322.8106022866
 11
632.2969725079
 21
337.8106022866
  0
LINE
  5
4B4
100
AcDbEntity
  8
BASIC_DEVICE
100
AcDbLine
 62
7
  6
CONTINUOUS
 10
642.2969725079
 20
342.8106022866
 11
642.2969725079
 21
330.3106022866
  0
LINE
  5
4B5
100
AcDbEntity
  8
BASIC_DEVICE
100
AcDbLine
 62
7
  6
CONTINUOUS
 10
642.2969725079
 20
142.8106022866
 11
642.2969725079
 21
155.3106022866
  0
LINE
  5
4B6
100
AcDbEntity
  8
BASIC_DEVICE
100
AcDbLine
 62
7
  6
CONTINUOUS
 10
642.2969725079
 20
702.840489017
 11
642.2969725079
 21
763.840489017
  0
LINE
  5
4B7
100
AcDbEntity
  8
TERMINAL_SCREEN
100
AcDbLine
 62
2
  6
CONTINUOUS
 10
619.7969725079
 20
425.3106022866
 11
991.7969725079
 21
425.3106022866
  0
LINE
  5
4B8
100
AcDbEntity
  8
H_EXTERN_HANDLE
100
AcDbLine
 62
3
  6
CONTINUOUS
 10
783.8795604642
 20
292.0209075489
 11
777.5149390295
 21
298.3855289836
  0
LINE
  5
4B9
100
AcDbEntity
  8
H_EXTERN_HANDLE
100
AcDbLine
 62
1
  6
CONTINUOUS
 10
778.2220458107
 20
299.0926357648
 11
784.5866672454
 21
292.7280143301
  0
LINE
  5
4BA
100
AcDbEntity
  8
BASIC_DEVICE
100
AcDbLine
 62
7
  6
CONTINUOUS
 10
705.2969725079
 20
407.8106022866
 11
710.2969725079
 21
402.8106022866
  0
LINE
  5
4BB
100
AcDbEntity
  8
BASIC_DEVICE
100
AcDbLine
 62
7
  6
CONTINUOUS
 10
714.7347946814
 20
330.3106022866
 11
717.7658835947
 21
325.0606022866
  0
LINE
  5
4BC
100
AcDbEntity
  8
BASIC_DEVICE
100
AcDbLine
 62
7
  6
CONTINUOUS
 10
726.8591503344
 20
330.3106022866
 11
723.8280614212
 21
335.5606022866
  0
LINE
  5
4BD
100
AcDbEntity
  8
BASIC_DEVICE
100
AcDbLine
 62
7
  6
CONTINUOUS
 10
644.2969725079
 20
679.840489017
 11
644.2969725079
 21
677.840489017
  0
LINE
  5
4BE
100
AcDbEntity
  8
BASIC_DEVICE
100
AcDbLine
 62
7
  6
CONTINUOUS
 10
647.2969725079
 20
142.8095163491
 11
647.2969725079
 21
82.8106022866
  0
LINE
  5
4BF
100
AcDbEntity
  8
BASIC_DEVICE
100
AcDbLine
 62
7
  6
CONTINUOUS
 10
647.2969725079
 20
342.8116882241
 11
647.2969725079
 21
402.8106022866
  0
LINE
  5
4C0
100
AcDbEntity
  8
BASIC_DEVICE
100
AcDbLine
 62
7
  6
CONTINUOUS
 10
647.2969725079
 20
717.840489017
 11
647.2969725079
 21
724.840489017
  0
LINE
  5
4C1
100
AcDbEntity
  8
AXIS
100
AcDbLine
 62
4
  6
CONTINUOUS
 10
658.7969725079
 20
714.840489017
 11
658.7969725079
 21
727.840489017
  0
LINE
  5
4C2
100
AcDbEntity
  8
TERMINAL_SCREEN
100
AcDbLine
 62
2
  6
CONTINUOUS
 10
241.5810614474
 20
473.3106022866
 11
239.5810614474
 21
473.3106022866
  0
LINE
  5
4C3
100
AcDbEntity
  8
TERMINAL_SCREEN
100
AcDbLine
 62
2
  6
CONTINUOUS
 10
624.7969725079
 20
473.3106022866
 11
986.7969725079
 21
473.3106022866
  0
LINE
  5
4C4
100
AcDbEntity
  8
BASIC_DEVICE
100
AcDbLine
 62
7
  6
CONTINUOUS
 10
900.7969725079
 20
233.8106022866
 11
897.7969725079
 21
236.8106022866
  0
LINE
  5
4C5
100
AcDbEntity
  8
BASIC_DEVICE
100
AcDbLine
 62
7
  6
CONTINUOUS
 10
885.7969725079
 20
248.8106022866
 11
882.7969725079
 21
251.8106022866
  0
LINE
  5
4C6
100
AcDbEntity
  8
AM_12
100
AcDbLine
 62
4
  6
CONTINUOUS
 10
736.5424137635
 20
408.4331336296
 11
740.0424137635
 21
404.9331336296
  0
LINE
  5
4C7
100
AcDbEntity
  8
AM_12
100
AcDbLine
 62
4
  6
CONTINUOUS
 10
902.1941811566
 20
283.0845282973
 11
905.6941811566
 21
279.5845282973
  0
LINE
  5
4C8
100
AcDbEntity
  8
BASIC_DEVICE
100
AcDbLine
 62
7
  6
CONTINUOUS
 10
887.7658835947
 20
150.0606022866
 11
884.7347946814
 21
155.3106022866
  0
LINE
  5
4C9
100
AcDbEntity
  8
INTER_PHASE_SCHIELDS
100
AcDbLine
 62
5
  6
CONTINUOUS
 10
735.7969725079
 20
142.8106022867
 11
737.2969725079
 21
133.8106022867
  0
LINE
  5
4CA
100
AcDbEntity
  8
AXIS
100
AcDbLine
 62
4
  6
CONTINUOUS
 10
694.7969725079
 20
760.840489017
 11
694.7969725079
 21
768.840489017
  0
LINE
  5
4CB
100
AcDbEntity
  8
AXIS
100
AcDbLine
 62
4
  6
CONTINUOUS
 10
698.7969725079
 20
714.840489017
 11
698.7969725079
 21
727.840489017
  0
LINE
  5
4CC
100
AcDbEntity
  8
BASIC_DEVICE
100
AcDbLine
 62
7
  6
CONTINUOUS
 10
710.2969725079
 20
724.840489017
 11
710.2969725079
 21
717.840489017
  0
LINE
  5
4CD
100
AcDbEntity
  8
BASIC_DEVICE
100
AcDbLine
 62
7
  6
CONTINUOUS
 10
710.2969725079
 20
402.8106022866
 11
710.2969725079
 21
342.8097272866
  0
LINE
  5
4CE
100
AcDbEntity
  8
BASIC_DEVICE
100
AcDbLine
 62
7
  6
CONTINUOUS
 10
710.2969725079
 20
82.8106022866
 11
710.2969725079
 21
142.8114772866
  0
LINE
  5
4CF
100
AcDbEntity
  8
BASIC_DEVICE
100
AcDbLine
 62
7
  6
CONTINUOUS
 10
718.7969725079
 20
781.840489017
 11
718.7969725079
 21
763.840489017
  0
LINE
  5
4D0
100
AcDbEntity
  8
BASIC_DEVICE
100
AcDbLine
 62
7
  6
CONTINUOUS
 10
718.7969725079
 20
257.8106022866
 11
718.7969725079
 21
227.8106022866
  0
LINE
  5
4D1
100
AcDbEntity
  8
INTER_PHASE_SCHIELDS
100
AcDbLine
 62
5
  6
CONTINUOUS
 10
735.7969725079
 20
681.840489017
 11
735.7969725079
 21
679.840489017
  0
LINE
  5
4D2
100
AcDbEntity
  8
INTER_PHASE_SCHIELDS
100
AcDbLine
 62
5
  6
CONTINUOUS
 10
737.2969725079
 20
752.140489017
 11
737.2969725079
 21
690.340489017
  0
LINE
  5
4D3
100
AcDbEntity
  8
INTER_PHASE_SCHIELDS
100
AcDbLine
 62
5
  6
CONTINUOUS
 10
737.2969725079
 20
142.3106022867
 11
737.2969725079
 21
83.0106022867
  0
LINE
  5
4D4
100
AcDbEntity
  8
INTER_PHASE_SCHIELDS
100
AcDbLine
 62
5
  6
CONTINUOUS
 10
737.2969725079
 20
343.3106022866
 11
737.2969725079
 21
402.6106022866
  0
LINE
  5
4D5
100
AcDbEntity
  8
INTER_PHASE_SCHIELDS
100
AcDbLine
 62
5
  6
CONTINUOUS
 10
738.2969725079
 20
153.0106022867
 11
738.2969725079
 21
77.0106022867
  0
LINE
  5
4D6
100
AcDbEntity
  8
INTER_PHASE_SCHIELDS
100
AcDbLine
 62
5
  6
CONTINUOUS
 10
738.2969725079
 20
332.6106022866
 11
738.2969725079
 21
408.6106022866
  0
LINE
  5
4D7
100
AcDbEntity
  8
INTER_PHASE_SCHIELDS
100
AcDbLine
 62
5
  6
CONTINUOUS
 10
738.2969725079
 20
679.840489017
 11
738.2969725079
 21
762.540489017
  0
LINE
  5
4D8
100
AcDbEntity
  8
BASIC_DEVICE
100
AcDbLine
 62
7
  6
CONTINUOUS
 10
629.2658835947
 20
315.5606022866
 11
626.2347946814
 21
310.3106022866
  0
LINE
  5
4D9
100
AcDbEntity
  8
INTER_PHASE_SCHIELDS
100
AcDbLine
 62
5
  6
CONTINUOUS
 10
370.9810614474
 20
153.0106022866
 11
368.9810614474
 21
151.0106022866
  0
LINE
  5
4DA
100
AcDbEntity
  8
BASIC_DEVICE
100
AcDbLine
 62
7
  6
CONTINUOUS
 10
647.2969725079
 20
402.8106022866
 11
652.2969725079
 21
407.8106022866
  0
LINE
  5
4DB
100
AcDbEntity
  8
BASIC_DEVICE
100
AcDbLine
 62
7
  6
CONTINUOUS
 10
825.2969725079
 20
407.8106022866
 11
830.2969725079
 21
402.8106022866
  0
LINE
  5
4DC
100
AcDbEntity
  8
AM_12
100
AcDbLine
 62
4
  6
CONTINUOUS
 10
856.5424137635
 20
408.4331336296
 11
860.0424137635
 21
404.9331336296
  0
LINE
  5
4DD
100
AcDbEntity
  8
BASIC_DEVICE
100
AcDbLine
 62
7
  6
CONTINUOUS
 10
893.8280614212
 20
160.5606022866
 11
896.8591503344
 21
155.3106022866
  0
LINE
  5
4DE
100
AcDbEntity
  8
INTER_PHASE_SCHIELDS
100
AcDbLine
 62
5
  6
CONTINUOUS
 10
741.2969725079
 20
351.8106022866
 11
742.7969725079
 21
342.8106022866
  0
LINE
  5
4DF
100
AcDbEntity
  8
BASIC_DEVICE
100
AcDbLine
 62
7
  6
CONTINUOUS
 10
738.7969725079
 20
227.8106022866
 11
738.7969725079
 21
257.8106022866
  0
LINE
  5
4E0
100
AcDbEntity
  8
BASIC_DEVICE
100
AcDbLine
 62
7
  6
CONTINUOUS
 10
738.7969725079
 20
763.840489017
 11
738.7969725079
 21
781.840489017
  0
LINE
  5
4E1
100
AcDbEntity
  8
INTER_PHASE_SCHIELDS
100
AcDbLine
 62
5
  6
CONTINUOUS
 10
740.2969725079
 20
762.540489017
 11
740.2969725079
 21
679.840489017
  0
LINE
  5
4E2
100
AcDbEntity
  8
TERMINAL_SCREEN
100
AcDbLine
 62
2
  6
CONTINUOUS
 10
740.2969725079
 20
343.3106022866
 11
740.2969725079
 21
320.3106022866
  0
LINE
  5
4E3
100
AcDbEntity
  8
INTER_PHASE_SCHIELDS
100
AcDbLine
 62
5
  6
CONTINUOUS
 10
740.2969725079
 20
77.0106022867
 11
740.2969725079
 21
153.0106022867
  0
LINE
  5
4E4
100
AcDbEntity
  8
INTER_PHASE_SCHIELDS
100
AcDbLine
 62
5
  6
CONTINUOUS
 10
740.2969725079
 20
332.6106022866
 11
740.2969725079
 21
408.6106022866
  0
LINE
  5
4E5
100
AcDbEntity
  8
TERMINAL_SCREEN
100
AcDbLine
 62
2
  6
CONTINUOUS
 10
740.2969725079
 20
763.840489017
 11
740.2969725079
 21
765.840489017
  0
LINE
  5
4E6
100
AcDbEntity
  8
BASIC_DEVICE
100
AcDbLine
 62
7
  6
CONTINUOUS
 10
740.7969725076
 20
142.8106022867
 11
740.7969725076
 21
342.8106022867
  0
LINE
  5
4E7
100
AcDbEntity
  8
BASIC_DEVICE
100
AcDbLine
 62
7
  6
CONTINUOUS
 10
740.7969725079
 20
763.840489017
 11
740.7969725079
 21
817.840489017
  0
LINE
  5
4E8
100
AcDbEntity
  8
INTER_PHASE_SCHIELDS
100
AcDbLine
 62
5
  6
CONTINUOUS
 10
741.2969725079
 20
142.3106022867
 11
741.2969725079
 21
83.0106022867
  0
LINE
  5
4E9
100
AcDbEntity
  8
INTER_PHASE_SCHIELDS
100
AcDbLine
 62
5
  6
CONTINUOUS
 10
741.2969725079
 20
343.3106022866
 11
741.2969725079
 21
402.6106022866
  0
LINE
  5
4EA
100
AcDbEntity
  8
INTER_PHASE_SCHIELDS
100
AcDbLine
 62
5
  6
CONTINUOUS
 10
741.2969725079
 20
690.340489017
 11
741.2969725079
 21
752.140489017
  0
LINE
  5
4EB
100
AcDbEntity
  8
INTER_PHASE_SCHIELDS
100
AcDbLine
 62
5
  6
CONTINUOUS
 10
742.7969725079
 20
679.840489017
 11
742.7969725079
 21
681.840489017
  0
LINE
  5
4EC
100
AcDbEntity
  8
BASIC_DEVICE
100
AcDbLine
 62
7
  6
CONTINUOUS
 10
745.7969725076
 20
337.8106022867
 11
745.7969725076
 21
147.8106022867
  0
LINE
  5
4ED
100
AcDbEntity
  8
H_EXTERN_HANDLE
100
AcDbLine
 62
7
  6
CONTINUOUS
 10
759.7969725076
 20
280.3106022866
 11
759.7969725076
 21
261.3106022866
  0
LINE
  5
4EE
100
AcDbEntity
  8
H_EXTERN_HANDLE
100
AcDbLine
 62
7
  6
CONTINUOUS
 10
759.7969725076
 20
889.840489017
 11
759.7969725076
 21
904.840489017
  0
LINE
  5
4EF
100
AcDbEntity
  8
H_EXTERN_HANDLE
100
AcDbLine
 62
7
  6
CONTINUOUS
 10
759.7969725076
 20
930.840489017
 11
759.7969725076
 21
981.840489017
  0
LINE
  5
4F0
100
AcDbEntity
  8
H_EXTERN_HANDLE
100
AcDbLine
 62
7
  6
CONTINUOUS
 10
763.7969725077
 20
966.340489017
 11
763.7969725076
 21
941.3404890171
  0
LINE
  5
4F1
100
AcDbEntity
  8
BASIC_DEVICE
100
AcDbLine
 62
7
  6
CONTINUOUS
 10
767.2969725079
 20
142.8095163491
 11
767.2969725079
 21
82.8106022866
  0
LINE
  5
4F2
100
AcDbEntity
  8
BASIC_DEVICE
100
AcDbLine
 62
7
  6
CONTINUOUS
 10
767.2969725079
 20
342.8116882241
 11
767.2969725079
 21
402.8106022866
  0
LINE
  5
4F3
100
AcDbEntity
  8
BASIC_DEVICE
100
AcDbLine
 62
7
  6
CONTINUOUS
 10
767.2969725079
 20
717.840489017
 11
767.2969725079
 21
724.840489017
  0
LINE
  5
4F4
100
AcDbEntity
  8
H_EXTERN_HANDLE
100
AcDbLine
 62
7
  6
CONTINUOUS
 10
772.7969725076
 20
961.840489017
 11
772.7969725076
 21
945.840489017
  0
LINE
  5
4F5
100
AcDbEntity
  8
H_MOVING
100
AcDbLine
 62
1
  6
CONTINUOUS
 10
775.7969725076
 20
930.840489017
 11
775.7969725076
 21
904.840489017
  0
LINE
  5
4F6
100
AcDbEntity
  8
H_EXTERN_HANDLE
100
AcDbLine
 62
7
  6
CONTINUOUS
 10
775.7969725076
 20
904.840489017
 11
775.7969725076
 21
930.840489017
  0
LINE
  5
4F7
100
AcDbEntity
  8
H_EXTERN_HANDLE
100
AcDbLine
 62
7
  6
CONTINUOUS
 10
777.6944815148
 20
976.340489017
 11
777.6944815148
 21
970.340489017
  0
LINE
  5
4F8
100
AcDbEntity
  8
H_EXTERN_HANDLE
100
AcDbLine
 62
7
  6
CONTINUOUS
 10
778.1944815148
 20
980.340489017
 11
778.1944815148
 21
970.340489017
  0
LINE
  5
4F9
100
AcDbEntity
  8
AXIS
100
AcDbLine
 62
4
  6
CONTINUOUS
 10
778.7969725079
 20
714.840489017
 11
778.7969725079
 21
727.840489017
  0
LINE
  5
4FA
100
AcDbEntity
  8
H_EXTERN_HANDLE
100
AcDbLine
 62
7
  6
CONTINUOUS
 10
779.2969725076
 20
970.340489017
 11
779.2969725076
 21
939.340489017
  0
LINE
  5
4FB
100
AcDbEntity
  8
H_EXTERN_HANDLE
100
AcDbLine
 62
7
  6
CONTINUOUS
 10
779.2969725077
 20
285.0606022867
 11
779.2969725077
 21
276.8106022867
  0
LINE
  5
4FC
100
AcDbEntity
  8
H_EXTERN_HANDLE
100
AcDbLine
 62
7
  6
CONTINUOUS
 10
779.2969725077
 20
264.8106022867
 11
779.2969725077
 21
256.5606022867
  0
LINE
  5
4FD
100
AcDbEntity
  8
BASIC_DEVICE
100
AcDbLine
 62
1
  6
CONTINUOUS
 10
781.510289552
 20
820.940489017
 11
781.510289552
 21
819.840489017
  0
LINE
  5
4FE
100
AcDbEntity
  8
H_MOVING
100
AcDbLine
 62
1
  6
CONTINUOUS
 10
796.8056081283
 20
977.2346547156
 11
795.3070476765
 21
943.0507997682
  0
LINE
  5
4FF
100
AcDbEntity
  8
H_EXTERN_HANDLE
100
AcDbLine
 62
7
  6
CONTINUOUS
 10
832.2969725076
 20
970.340489017
 11
833.3994635004
 21
980.340489017
  0
LINE
  5
500
100
AcDbEntity
  8
INTER_PHASE_SCHIELDS
100
AcDbLine
 62
5
  6
CONTINUOUS
 10
735.7969725079
 20
342.8106022866
 11
737.2969725079
 21
351.8106022866
  0
LINE
  5
501
100
AcDbEntity
  8
BASIC_DEVICE
100
AcDbLine
 62
7
  6
CONTINUOUS
 10
635.3280614212
 20
305.0606022866
 11
638.3591503344
 21
310.3106022866
  0
LINE
  5
502
100
AcDbEntity
  8
INTER_PHASE_SCHIELDS
100
AcDbLine
 62
5
  6
CONTINUOUS
 10
369.5810614474
 20
77.0106022866
 11
375.5810614474
 21
83.0106022866
  0
LINE
  5
503
100
AcDbEntity
  8
AM_12
100
AcDbLine
 62
4
  6
CONTINUOUS
 10
804.5091098353
 20
474.9284665585
 11
808.0091098353
 21
471.4284665585
  0
LINE
  5
504
100
AcDbEntity
  8
BASIC_DEVICE
100
AcDbLine
 62
7
  6
CONTINUOUS
 10
976.2658835947
 20
170.0606022866
 11
973.2347946814
 21
175.3106022866
  0
LINE
  5
505
100
AcDbEntity
  8
BASIC_DEVICE
100
AcDbLine
 62
7
  6
CONTINUOUS
 10
887.7658835947
 20
325.0606022866
 11
884.7347946814
 21
330.3106022866
  0
LINE
  5
506
100
AcDbEntity
  8
BASIC_DEVICE
100
AcDbLine
 62
7
  6
CONTINUOUS
 10
982.3280614212
 20
180.5606022866
 11
985.3591503344
 21
175.3106022866
  0
LINE
  5
507
100
AcDbEntity
  8
BASIC_DEVICE
100
AcDbLine
 62
7
  6
CONTINUOUS
 10
893.8280614212
 20
335.5606022866
 11
896.8591503344
 21
330.3106022866
  0
LINE
  5
508
100
AcDbEntity
  8
BASIC_DEVICE
100
AcDbLine
 62
1
  6
CONTINUOUS
 10
787.5948628351
 20
829.140489017
 11
787.5948628351
 21
820.940489017
  0
LINE
  5
509
100
AcDbEntity
  8
BASIC_DEVICE
100
AcDbLine
 62
1
  6
CONTINUOUS
 10
790.3532762966
 20
817.840489017
 11
790.3532762966
 21
822.040489017
  0
LINE
  5
50A
100
AcDbEntity
  8
H_MOVING
100
AcDbLine
 62
1
  6
CONTINUOUS
 10
791.5469725076
 20
940.840489017
 11
791.5469725076
 21
980.340489017
  0
LINE
  5
50B
100
AcDbEntity
  8
BASIC_DEVICE
100
AcDbLine
 62
1
  6
CONTINUOUS
 10
792.6948628351
 20
822.040489017
 11
792.6948628351
 21
829.140489017
  0
LINE
  5
50C
100
AcDbEntity
  8
H_EXTERN_HANDLE
100
AcDbLine
 62
7
  6
CONTINUOUS
 10
792.9071155246
 20
243.168214782
 11
792.9071155246
 21
232.9443694802
  0
LINE
  5
50D
100
AcDbEntity
  8
H_EXTERN_HANDLE
100
AcDbLine
 62
7
  6
CONTINUOUS
 10
792.9071155245
 20
898.840489017
 11
792.9071155245
 21
904.840489017
  0
LINE
  5
50E
100
AcDbEntity
  8
H_EXTERN_HANDLE
100
AcDbLine
 62
7
  6
CONTINUOUS
 10
794.3898450615
 20
981.840489017
 11
794.3898450615
 21
980.340489017
  0
LINE
  5
50F
100
AcDbEntity
  8
H_MOVING
100
AcDbLine
 62
1
  6
CONTINUOUS
 10
795.2969741599
 20
942.5909411607
 11
795.2969724258
 21
929.3404903911
  0
LINE
  5
510
100
AcDbEntity
  8
H_MOVING
100
AcDbLine
 62
1
  6
CONTINUOUS
 10
795.2969725076
 20
82.8106022866
 11
795.2969725076
 21
206.2570995208
  0
LINE
  5
511
100
AcDbEntity
  8
H_MOVING
100
AcDbLine
 62
1
  6
CONTINUOUS
 10
795.5469725076
 20
981.840489017
 11
795.5469725076
 21
980.340489017
  0
LINE
  5
512
100
AcDbEntity
  8
H_MOVING
100
AcDbLine
 62
1
  6
CONTINUOUS
 10
797.2969725076
 20
927.840489017
 11
797.2969725076
 21
936.4265261671
  0
LINE
  5
513
100
AcDbEntity
  8
BASIC_DEVICE
100
AcDbLine
 62
1
  6
CONTINUOUS
 10
798.1469725077
 20
278.4606022867
 11
798.1469725077
 21
263.1606022867
  0
LINE
  5
514
100
AcDbEntity
  8
BASIC_DEVICE
100
AcDbLine
 62
7
  6
CONTINUOUS
 10
798.2969725076
 20
263.3106022867
 11
798.2969725076
 21
278.3106022867
  0
LINE
  5
515
100
AcDbEntity
  8
BASIC_DEVICE
100
AcDbLine
 62
7
  6
CONTINUOUS
 10
798.2969725079
 20
822.040489017
 11
798.2969725079
 21
843.840489017
  0
LINE
  5
516
100
AcDbEntity
  8
H_MOVING
100
AcDbLine
 62
1
  6
CONTINUOUS
 10
799.2969725076
 20
904.840489017
 11
799.2969725076
 21
927.840489017
  0
LINE
  5
517
100
AcDbEntity
  8
BASIC_DEVICE
100
AcDbLine
 62
7
  6
CONTINUOUS
 10
801.7969725076
 20
239.5056506017
 11
801.7969725076
 21
246.5618909805
  0
LINE
  5
518
100
AcDbEntity
  8
TEXT
100
AcDbLine
 62
2
  6
CONTINUOUS
 10
805.1129632759
 20
308.8597393862
 11
805.1129632759
 21
302.8597393862
  0
LINE
  5
519
100
AcDbEntity
  8
AXIS
100
AcDbLine
 62
4
  6
CONTINUOUS
 10
805.7969725077
 20
213.0523474888
 11
805.7969725077
 21
326.4827985513
  0
LINE
  5
51A
100
AcDbEntity
  8
AXIS
100
AcDbLine
 62
4
  6
CONTINUOUS
 10
805.7969725079
 20
814.840489017
 11
805.7969725079
 21
825.040489017
  0
LINE
  5
51B
100
AcDbEntity
  8
AXIS
100
AcDbLine
 62
4
  6
CONTINUOUS
 10
805.7969725076
 20
886.840489017
 11
805.7969725076
 21
982.840489017
  0
LINE
  5
51C
100
AcDbEntity
  8
TEXT
100
AcDbLine
 62
2
  6
CONTINUOUS
 10
807.1129632759
 20
308.8597393862
 11
807.1129632759
 21
302.8597393862
  0
LINE
  5
51D
100
AcDbEntity
  8
H_EXTERN_HANDLE
100
AcDbLine
 62
7
  6
CONTINUOUS
 10
811.2040999537
 20
981.840489017
 11
811.2040999537
 21
980.340489017
  0
LINE
  5
51E
100
AcDbEntity
  8
H_MOVING
100
AcDbLine
 62
1
  6
CONTINUOUS
 10
812.2969725076
 20
927.840489017
 11
812.2969725076
 21
904.840489017
  0
LINE
  5
51F
100
AcDbEntity
  8
BASIC_DEVICE
100
AcDbLine
 62
7
  6
CONTINUOUS
 10
813.2969725079
 20
843.840489017
 11
813.2969725079
 21
822.040489017
  0
LINE
  5
520
100
AcDbEntity
  8
BASIC_DEVICE
100
AcDbLine
 62
7
  6
CONTINUOUS
 10
813.2969725076
 20
278.3106022867
 11
813.2969725076
 21
263.3106022867
  0
LINE
  5
521
100
AcDbEntity
  8
BASIC_DEVICE
100
AcDbLine
 62
1
  6
CONTINUOUS
 10
813.4469725077
 20
263.1606022867
 11
813.4469725077
 21
278.4606022867
  0
LINE
  5
522
100
AcDbEntity
  8
H_MOVING
100
AcDbLine
 62
1
  6
CONTINUOUS
 10
814.2969725076
 20
936.4265254001
 11
814.2969725076
 21
927.840489017
  0
LINE
  5
523
100
AcDbEntity
  8
H_MOVING
100
AcDbLine
 62
1
  6
CONTINUOUS
 10
816.0469725076
 20
980.340489017
 11
816.0469725076
 21
981.840489017
  0
LINE
  5
524
100
AcDbEntity
  8
H_MOVING
100
AcDbLine
 62
1
  6
CONTINUOUS
 10
816.2969727858
 20
942.5909397865
 11
816.2969727858
 21
929.340489017
  0
LINE
  5
525
100
AcDbEntity
  8
H_MOVING
100
AcDbLine
 62
1
  6
CONTINUOUS
 10
816.2969725076
 20
206.2570995208
 11
816.2969725076
 21
82.8106022866
  0
LINE
  5
526
100
AcDbEntity
  8
AXIS
100
AcDbLine
 62
4
  6
CONTINUOUS
 10
818.7969725079
 20
714.840489017
 11
818.7969725079
 21
727.840489017
  0
LINE
  5
527
100
AcDbEntity
  8
BASIC_DEVICE
100
AcDbLine
 62
1
  6
CONTINUOUS
 10
819.2969725077
 20
272.6106022867
 11
819.2969725077
 21
269.0106022867
  0
LINE
  5
528
100
AcDbEntity
  8
H_MOVING
100
AcDbLine
 62
1
  6
CONTINUOUS
 10
820.0469725076
 20
940.840489017
 11
820.0469725076
 21
980.340489017
  0
LINE
  5
529
100
AcDbEntity
  8
BASIC_DEVICE
100
AcDbLine
 62
1
  6
CONTINUOUS
 10
821.2406687192
 20
817.840489017
 11
821.2406687192
 21
822.040489017
  0
LINE
  5
52A
100
AcDbEntity
  8
H_EXTERN_HANDLE
100
AcDbLine
 62
1
  6
CONTINUOUS
 10
821.7969725077
 20
301.3106022867
 11
821.7969725077
 21
310.3106022867
  0
LINE
  5
52B
100
AcDbEntity
  8
BASIC_DEVICE
100
AcDbLine
 62
7
  6
CONTINUOUS
 10
830.2969725079
 20
724.840489017
 11
830.2969725079
 21
717.840489017
  0
LINE
  5
52C
100
AcDbEntity
  8
BASIC_DEVICE
100
AcDbLine
 62
7
  6
CONTINUOUS
 10
830.2969725079
 20
402.8106022866
 11
830.2969725079
 21
342.8097272866
  0
LINE
  5
52D
100
AcDbEntity
  8
BASIC_DEVICE
100
AcDbLine
 62
7
  6
CONTINUOUS
 10
830.2969725079
 20
82.8106022866
 11
830.2969725079
 21
142.8114772866
  0
LINE
  5
52E
100
AcDbEntity
  8
H_EXTERN_HANDLE
100
AcDbLine
 62
7
  6
CONTINUOUS
 10
832.2969725077
 20
256.5606022867
 11
832.2969725077
 21
264.8106022867
  0
LINE
  5
52F
100
AcDbEntity
  8
H_EXTERN_HANDLE
100
AcDbLine
 62
7
  6
CONTINUOUS
 10
832.2969725076
 20
276.8106022866
 11
832.2969725077
 21
285.0606022867
  0
LINE
  5
530
100
AcDbEntity
  8
H_EXTERN_HANDLE
100
AcDbLine
 62
7
  6
CONTINUOUS
 10
832.2969725076
 20
939.340489017
 11
832.2969725076
 21
970.340489017
  0
LINE
  5
531
100
AcDbEntity
  8
H_EXTERN_HANDLE
100
AcDbLine
 62
7
  6
CONTINUOUS
 10
833.3994635004
 20
970.340489017
 11
833.3994635004
 21
980.340489017
  0
LINE
  5
532
100
AcDbEntity
  8
H_EXTERN_HANDLE
100
AcDbLine
 62
7
  6
CONTINUOUS
 10
833.8994635004
 20
970.340489017
 11
833.8994635004
 21
976.340489017
  0
LINE
  5
533
100
AcDbEntity
  8
INTER_PHASE_SCHIELDS
100
AcDbLine
 62
5
  6
CONTINUOUS
 10
741.2969725079
 20
133.8106022867
 11
742.7969725079
 21
142.8106022867
  0
LINE
  5
534
100
AcDbEntity
  8
BASIC_DEVICE
100
AcDbLine
 62
7
  6
CONTINUOUS
 10
717.7658835947
 20
335.5606022866
 11
714.7347946814
 21
330.3106022866
  0
LINE
  5
535
100
AcDbEntity
  8
BASIC_DEVICE
100
AcDbLine
 62
7
  6
CONTINUOUS
 10
629.2658835947
 20
180.5606022866
 11
626.2347946814
 21
175.3106022866
  0
LINE
  5
536
100
AcDbEntity
  8
BASIC_DEVICE
100
AcDbLine
 62
7
  6
CONTINUOUS
 10
723.8280614212
 20
325.0606022866
 11
726.8591503344
 21
330.3106022866
  0
LINE
  5
537
100
AcDbEntity
  8
BASIC_DEVICE
100
AcDbLine
 62
7
  6
CONTINUOUS
 10
635.3280614212
 20
170.0606022866
 11
638.3591503344
 21
175.3106022866
  0
LINE
  5
538
100
AcDbEntity
  8
AM_12
100
AcDbLine
 62
4
  6
CONTINUOUS
 10
736.5424137635
 20
404.9331336296
 11
740.0424137635
 21
408.4331336296
  0
LINE
  5
539
100
AcDbEntity
  8
AM_12
100
AcDbLine
 62
4
  6
CONTINUOUS
 10
804.5091098353
 20
471.4284665585
 11
808.0091098353
 21
474.9284665585
  0
LINE
  5
53A
100
AcDbEntity
  8
BASIC_DEVICE
100
AcDbLine
 62
7
  6
CONTINUOUS
 10
767.2969725079
 20
402.8106022866
 11
772.2969725079
 21
407.8106022866
  0
LINE
  5
53B
100
AcDbEntity
  8
AM_12
100
AcDbLine
 62
4
  6
CONTINUOUS
 10
617.5800214022
 20
245.2781808953
 11
621.0800214022
 21
248.7781808953
  0
LINE
  5
53C
100
AcDbEntity
  8
BASIC_DEVICE
100
AcDbLine
 62
7
  6
CONTINUOUS
 10
945.2969725079
 20
407.8106022866
 11
950.2969725079
 21
402.8106022866
  0
LINE
  5
53D
100
AcDbEntity
  8
INTER_PHASE_SCHIELDS
100
AcDbLine
 62
5
  6
CONTINUOUS
 10
855.7969725079
 20
142.8106022867
 11
857.2969725079
 21
133.8106022867
  0
LINE
  5
53E
100
AcDbEntity
  8
INTER_PHASE_SCHIELDS
100
AcDbLine
 62
5
  6
CONTINUOUS
 10
861.2969725079
 20
351.8106022866
 11
862.7969725079
 21
342.8106022866
  0
LINE
  5
53F
100
AcDbEntity
  8
H_EXTERN_HANDLE
100
AcDbLine
 62
7
  6
CONTINUOUS
 10
778.1944815148
 20
980.340489017
 11
779.2969725076
 21
970.340489017
  0
LINE
  5
540
100
AcDbEntity
  8
H_MOVING
100
AcDbLine
 62
1
  6
CONTINUOUS
 10
816.2868978875
 20
943.0507999386
 11
814.7883368806
 21
977.2346548616
  0
LINE
  5
541
100
AcDbEntity
  8
H_EXTERN_HANDLE
100
AcDbLine
 62
7
  6
CONTINUOUS
 10
835.7969725076
 20
927.840489017
 11
835.7969725076
 21
904.840489017
  0
LINE
  5
542
100
AcDbEntity
  8
H_EXTERN_HANDLE
100
AcDbLine
 62
7
  6
CONTINUOUS
 10
835.7969725077
 20
310.8106022867
 11
835.7969725077
 21
281.3106022866
  0
LINE
  5
543
100
AcDbEntity
  8
H_MOVING
100
AcDbLine
 62
1
  6
CONTINUOUS
 10
835.7969725076
 20
904.840489017
 11
835.7969725076
 21
930.840489017
  0
LINE
  5
544
100
AcDbEntity
  8
H_EXTERN_HANDLE
100
AcDbLine
 62
7
  6
CONTINUOUS
 10
839.7969725076
 20
904.840489017
 11
839.7969725076
 21
927.840489017
  0
LINE
  5
545
100
AcDbEntity
  8
H_EXTERN_HANDLE
100
AcDbLine
 62
7
  6
CONTINUOUS
 10
842.7969725076
 20
932.0909397865
 11
842.7969725076
 21
927.840489017
  0
LINE
  5
546
100
AcDbEntity
  8
H_EXTERN_HANDLE
100
AcDbLine
 62
7
  6
CONTINUOUS
 10
843.9649120176
 20
934.1310530076
 11
843.9649120176
 21
932.1345720088
  0
LINE
  5
547
100
AcDbEntity
  8
H_EXTERN_HANDLE
100
AcDbLine
 62
7
  6
CONTINUOUS
 10
845.7969725076
 20
898.840489017
 11
845.7969725076
 21
889.840489017
  0
LINE
  5
548
100
AcDbEntity
  8
H_EXTERN_HANDLE
100
AcDbLine
 62
7
  6
CONTINUOUS
 10
845.7969725077
 20
281.3106022866
 11
845.7969725077
 21
310.8106022867
  0
LINE
  5
549
100
AcDbEntity
  8
H_EXTERN_HANDLE
100
AcDbLine
 62
7
  6
CONTINUOUS
 10
849.9649120176
 20
932.3587217453
 11
849.9649120176
 21
934.1310530076
  0
LINE
  5
54A
100
AcDbEntity
  8
H_EXTERN_HANDLE
100
AcDbLine
 62
7
  6
CONTINUOUS
 10
851.956073096
 20
934.4295891161
 11
851.956073096
 21
932.4331081172
  0
LINE
  5
54B
100
AcDbEntity
  8
INTER_PHASE_SCHIELDS
100
AcDbLine
 62
5
  6
CONTINUOUS
 10
855.7969725079
 20
681.840489017
 11
855.7969725079
 21
679.840489017
  0
LINE
  5
54C
100
AcDbEntity
  8
INTER_PHASE_SCHIELDS
100
AcDbLine
 62
5
  6
CONTINUOUS
 10
857.2969725079
 20
752.140489017
 11
857.2969725079
 21
690.340489017
  0
LINE
  5
54D
100
AcDbEntity
  8
INTER_PHASE_SCHIELDS
100
AcDbLine
 62
5
  6
CONTINUOUS
 10
857.2969725079
 20
142.3106022867
 11
857.2969725079
 21
83.0106022867
  0
LINE
  5
54E
100
AcDbEntity
  8
INTER_PHASE_SCHIELDS
100
AcDbLine
 62
5
  6
CONTINUOUS
 10
857.2969725079
 20
343.3106022866
 11
857.2969725079
 21
402.6106022866
  0
LINE
  5
54F
100
AcDbEntity
  8
H_EXTERN_HANDLE
100
AcDbLine
 62
7
  6
CONTINUOUS
 10
857.956073096
 20
932.6572578537
 11
857.956073096
 21
934.4295891161
  0
LINE
  5
550
100
AcDbEntity
  8
INTER_PHASE_SCHIELDS
100
AcDbLine
 62
5
  6
CONTINUOUS
 10
858.2969725079
 20
153.0106022867
 11
858.2969725079
 21
77.0106022867
  0
LINE
  5
551
100
AcDbEntity
  8
INTER_PHASE_SCHIELDS
100
AcDbLine
 62
5
  6
CONTINUOUS
 10
858.2969725079
 20
332.6106022866
 11
858.2969725079
 21
408.6106022866
  0
LINE
  5
552
100
AcDbEntity
  8
INTER_PHASE_SCHIELDS
100
AcDbLine
 62
5
  6
CONTINUOUS
 10
858.2969725079
 20
679.840489017
 11
858.2969725079
 21
762.540489017
  0
LINE
  5
553
100
AcDbEntity
  8
H_EXTERN_HANDLE
100
AcDbLine
 62
7
  6
CONTINUOUS
 10
859.9472341744
 20
934.7281252245
 11
859.9472341744
 21
932.7316442256
  0
LINE
  5
554
100
AcDbEntity
  8
INTER_PHASE_SCHIELDS
100
AcDbLine
 62
5
  6
CONTINUOUS
 10
860.2969725079
 20
762.540489017
 11
860.2969725079
 21
679.840489017
  0
LINE
  5
555
100
AcDbEntity
  8
INTER_PHASE_SCHIELDS
100
AcDbLine
 62
5
  6
CONTINUOUS
 10
860.2969725079
 20
77.0106022867
 11
860.2969725079
 21
153.0106022867
  0
LINE
  5
556
100
AcDbEntity
  8
INTER_PHASE_SCHIELDS
100
AcDbLine
 62
5
  6
CONTINUOUS
 10
860.2969725079
 20
332.6106022866
 11
860.2969725079
 21
408.6106022866
  0
LINE
  5
557
100
AcDbEntity
  8
INTER_PHASE_SCHIELDS
100
AcDbLine
 62
5
  6
CONTINUOUS
 10
861.2969725079
 20
142.3106022867
 11
861.2969725079
 21
83.0106022867
  0
LINE
  5
558
100
AcDbEntity
  8
INTER_PHASE_SCHIELDS
100
AcDbLine
 62
5
  6
CONTINUOUS
 10
861.2969725079
 20
343.3106022866
 11
861.2969725079
 21
402.6106022866
  0
LINE
  5
559
100
AcDbEntity
  8
INTER_PHASE_SCHIELDS
100
AcDbLine
 62
5
  6
CONTINUOUS
 10
861.2969725079
 20
690.340489017
 11
861.2969725079
 21
752.140489017
  0
LINE
  5
55A
100
AcDbEntity
  8
INTER_PHASE_SCHIELDS
100
AcDbLine
 62
5
  6
CONTINUOUS
 10
862.7969725079
 20
679.840489017
 11
862.7969725079
 21
681.840489017
  0
LINE
  5
55B
100
AcDbEntity
  8
BASIC_DEVICE
100
AcDbLine
 62
7
  6
CONTINUOUS
 10
865.7969725076
 20
147.8106022867
 11
865.7969725076
 21
337.8106022867
  0
LINE
  5
55C
100
AcDbEntity
  8
H_EXTERN_HANDLE
100
AcDbLine
 62
7
  6
CONTINUOUS
 10
865.9472341744
 20
932.9557939621
 11
865.9472341744
 21
934.7281252245
  0
LINE
  5
55D
100
AcDbEntity
  8
H_EXTERN_HANDLE
100
AcDbLine
 62
7
  6
CONTINUOUS
 10
867.9383952528
 20
935.0266613329
 11
867.9383952528
 21
933.030180334
  0
LINE
  5
55E
100
AcDbEntity
  8
H_EXTERN_HANDLE
100
AcDbLine
 62
7
  6
CONTINUOUS
 10
868.7969725076
 20
981.840489017
 11
868.7969725076
 21
980.2290606725
  0
LINE
  5
55F
100
AcDbEntity
  8
H_EXTERN_HANDLE
100
AcDbLine
 62
7
  6
CONTINUOUS
 10
868.7969725077
 20
264.8106022867
 11
868.7969725077
 21
276.8106022866
  0
LINE
  5
560
100
AcDbEntity
  8
H_EXTERN_HANDLE
100
AcDbLine
 62
7
  6
CONTINUOUS
 10
869.7969725076
 20
980.340489017
 11
869.7969725076
 21
981.1565363834
  0
LINE
  5
561
100
AcDbEntity
  8
BASIC_DEVICE
100
AcDbLine
 62
7
  6
CONTINUOUS
 10
870.7969725079
 20
817.840489017
 11
870.7969725079
 21
763.840489017
  0
LINE
  5
562
100
AcDbEntity
  8
BASIC_DEVICE
100
AcDbLine
 62
7
  6
CONTINUOUS
 10
870.7969725076
 20
342.8106022867
 11
870.7969725076
 21
142.8106022867
  0
LINE
  5
563
100
AcDbEntity
  8
TERMINAL_SCREEN
100
AcDbLine
 62
2
  6
CONTINUOUS
 10
871.2969725079
 20
320.3106022866
 11
871.2969725079
 21
343.3106022866
  0
LINE
  5
564
100
AcDbEntity
  8
TERMINAL_SCREEN
100
AcDbLine
 62
2
  6
CONTINUOUS
 10
871.2969725079
 20
763.840489017
 11
871.2969725079
 21
765.840489017
  0
LINE
  5
565
100
AcDbEntity
  8
H_EXTERN_HANDLE
100
AcDbLine
 62
7
  6
CONTINUOUS
 10
873.9383952528
 20
933.2543300706
 11
873.9383952528
 21
935.0266613329
  0
LINE
  5
566
100
AcDbEntity
  8
H_EXTERN_HANDLE
100
AcDbLine
 62
7
  6
CONTINUOUS
 10
875.9295563313
 20
935.3251974413
 11
875.9295563313
 21
933.3287164424
  0
LINE
  5
567
100
AcDbEntity
  8
INTER_PHASE_SCHIELDS
100
AcDbLine
 62
5
  6
CONTINUOUS
 10
855.7969725079
 20
342.8106022866
 11
857.2969725079
 21
351.8106022866
  0
LINE
  5
568
100
AcDbEntity
  8
AM_12
100
AcDbLine
 62
4
  6
CONTINUOUS
 10
856.5424137635
 20
404.9331336296
 11
860.0424137635
 21
408.4331336296
  0
LINE
  5
569
100
AcDbEntity
  8
BASIC_DEVICE
100
AcDbLine
 62
7
  6
CONTINUOUS
 10
991.7969725079
 20
677.840489017
 11
967.2969725079
 21
677.840489017
  0
LINE
  5
56A
100
AcDbEntity
  8
BASIC_DEVICE
100
AcDbLine
 62
7
  6
CONTINUOUS
 10
644.2969725079
 20
677.840489017
 11
619.7969725079
 21
677.840489017
  0
LINE
  5
56B
100
AcDbEntity
  8
BASIC_DEVICE
100
AcDbLine
 62
7
  6
CONTINUOUS
 10
967.2969725079
 20
679.840489017
 11
644.2969725079
 21
679.840489017
  0
LINE
  5
56C
100
AcDbEntity
  8
INTER_PHASE_SCHIELDS
100
AcDbLine
 62
5
  6
CONTINUOUS
 10
735.7969725079
 20
679.840489017
 11
742.7969725079
 21
679.840489017
  0
LINE
  5
56D
100
AcDbEntity
  8
INTER_PHASE_SCHIELDS
100
AcDbLine
 62
5
  6
CONTINUOUS
 10
855.7969725079
 20
679.840489017
 11
862.7969725079
 21
679.840489017
  0
LINE
  5
56E
100
AcDbEntity
  8
INTER_PHASE_SCHIELDS
100
AcDbLine
 62
5
  6
CONTINUOUS
 10
862.7969725079
 20
681.840489017
 11
860.2969725079
 21
681.840489017
  0
LINE
  5
56F
100
AcDbEntity
  8
INTER_PHASE_SCHIELDS
100
AcDbLine
 62
5
  6
CONTINUOUS
 10
858.2969725079
 20
681.840489017
 11
855.7969725079
 21
681.840489017
  0
LINE
  5
570
100
AcDbEntity
  8
INTER_PHASE_SCHIELDS
100
AcDbLine
 62
5
  6
CONTINUOUS
 10
742.7969725079
 20
681.840489017
 11
740.2969725079
 21
681.840489017
  0
LINE
  5
571
100
AcDbEntity
  8
INTER_PHASE_SCHIELDS
100
AcDbLine
 62
5
  6
CONTINUOUS
 10
738.2969725079
 20
681.840489017
 11
735.7969725079
 21
681.840489017
  0
LINE
  5
572
100
AcDbEntity
  8
INTER_PHASE_SCHIELDS
100
AcDbLine
 62
5
  6
CONTINUOUS
 10
738.2969725079
 20
685.840489017
 11
740.2969725079
 21
685.840489017
  0
LINE
  5
573
100
AcDbEntity
  8
INTER_PHASE_SCHIELDS
100
AcDbLine
 62
5
  6
CONTINUOUS
 10
858.2969725079
 20
685.840489017
 11
860.2969725079
 21
685.840489017
  0
LINE
  5
574
100
AcDbEntity
  8
INTER_PHASE_SCHIELDS
100
AcDbLine
 62
5
  6
CONTINUOUS
 10
737.2969725079
 20
690.340489017
 11
738.2969725079
 21
690.340489017
  0
LINE
  5
575
100
AcDbEntity
  8
INTER_PHASE_SCHIELDS
100
AcDbLine
 62
5
  6
CONTINUOUS
 10
740.2969725079
 20
690.340489017
 11
741.2969725079
 21
690.340489017
  0
LINE
  5
576
100
AcDbEntity
  8
INTER_PHASE_SCHIELDS
100
AcDbLine
 62
5
  6
CONTINUOUS
 10
857.2969725079
 20
690.340489017
 11
858.2969725079
 21
690.340489017
  0
LINE
  5
577
100
AcDbEntity
  8
INTER_PHASE_SCHIELDS
100
AcDbLine
 62
5
  6
CONTINUOUS
 10
860.2969725079
 20
690.340489017
 11
861.2969725079
 21
690.340489017
  0
LINE
  5
578
100
AcDbEntity
  8
BASIC_DEVICE
100
AcDbLine
 62
7
  6
CONTINUOUS
 10
976.2658835947
 20
305.0606022866
 11
973.2347946814
 21
310.3106022866
  0
LINE
  5
579
100
AcDbEntity
  8
BASIC_DEVICE
100
AcDbLine
 62
7
  6
CONTINUOUS
 10
982.3280614212
 20
315.5606022866
 11
985.3591503344
 21
310.3106022866
  0
LINE
  5
57A
100
AcDbEntity
  8
H_EXTERN_HANDLE
100
AcDbLine
 62
7
  6
CONTINUOUS
 10
881.9295563313
 20
933.552866179
 11
881.9295563313
 21
935.3251974413
  0
LINE
  5
57B
100
AcDbEntity
  8
BASIC_DEVICE
100
AcDbLine
 62
7
  6
CONTINUOUS
 10
882.7969725079
 20
233.8106022866
 11
882.7969725079
 21
251.8106022866
  0
LINE
  5
57C
100
AcDbEntity
  8
H_EXTERN_HANDLE
100
AcDbLine
 62
7
  6
CONTINUOUS
 10
883.9207174097
 20
935.6237335497
 11
883.9207174097
 21
933.6272525508
  0
LINE
  5
57D
100
AcDbEntity
  8
BASIC_DEVICE
100
AcDbLine
 62
7
  6
CONTINUOUS
 10
885.7969725079
 20
248.8106022866
 11
885.7969725079
 21
236.8106022866
  0
LINE
  5
57E
100
AcDbEntity
  8
BASIC_DEVICE
100
AcDbLine
 62
7
  6
CONTINUOUS
 10
887.2969725079
 20
142.8095163491
 11
887.2969725079
 21
82.8106022866
  0
LINE
  5
57F
100
AcDbEntity
  8
BASIC_DEVICE
100
AcDbLine
 62
7
  6
CONTINUOUS
 10
887.2969725079
 20
342.8116882241
 11
887.2969725079
 21
402.8106022866
  0
LINE
  5
580
100
AcDbEntity
  8
BASIC_DEVICE
100
AcDbLine
 62
7
  6
CONTINUOUS
 10
887.2969725079
 20
717.840489017
 11
887.2969725079
 21
724.840489017
  0
LINE
  5
581
100
AcDbEntity
  8
H_EXTERN_HANDLE
100
AcDbLine
 62
7
  6
CONTINUOUS
 10
889.9207174097
 20
933.8514022874
 11
889.9207174097
 21
935.6237335497
  0
LINE
  5
582
100
AcDbEntity
  8
H_EXTERN_HANDLE
100
AcDbLine
 62
7
  6
CONTINUOUS
 10
891.9118784881
 20
935.9222696581
 11
891.9118784881
 21
933.9257886592
  0
LINE
  5
583
100
AcDbEntity
  8
BASIC_DEVICE
100
AcDbLine
 62
7
  6
CONTINUOUS
 10
897.7969725079
 20
236.8106022866
 11
897.7969725079
 21
248.8106022866
  0
LINE
  5
584
100
AcDbEntity
  8
H_EXTERN_HANDLE
100
AcDbLine
 62
7
  6
CONTINUOUS
 10
897.9118784881
 20
934.1499383958
 11
897.9118784881
 21
935.9222696581
  0
LINE
  5
585
100
AcDbEntity
  8
AXIS
100
AcDbLine
 62
4
  6
CONTINUOUS
 10
898.7969725079
 20
714.840489017
 11
898.7969725079
 21
727.840489017
  0
LINE
  5
586
100
AcDbEntity
  8
H_EXTERN_HANDLE
100
AcDbLine
 62
7
  6
CONTINUOUS
 10
899.9030395665
 20
936.2208057665
 11
899.9030395665
 21
934.2243247677
  0
LINE
  5
587
100
AcDbEntity
  8
BASIC_DEVICE
100
AcDbLine
 62
7
  6
CONTINUOUS
 10
900.7969725079
 20
251.8106022866
 11
900.7969725079
 21
233.8106022866
  0
LINE
  5
588
100
AcDbEntity
  8
H_EXTERN_HANDLE
100
AcDbLine
 62
7
  6
CONTINUOUS
 10
905.9030395665
 20
934.4484745042
 11
905.9030395665
 21
936.2208057665
  0
LINE
  5
589
100
AcDbEntity
  8
H_EXTERN_HANDLE
100
AcDbLine
 62
7
  6
CONTINUOUS
 10
907.894200645
 20
936.5193418749
 11
907.894200645
 21
934.5228608761
  0
LINE
  5
58A
100
AcDbEntity
  8
H_EXTERN_HANDLE
100
AcDbLine
 62
7
  6
CONTINUOUS
 10
913.894200645
 20
934.7470106126
 11
913.894200645
 21
936.5193418749
  0
LINE
  5
58B
100
AcDbEntity
  8
H_EXTERN_HANDLE
100
AcDbLine
 62
7
  6
CONTINUOUS
 10
915.8853617234
 20
936.8178779833
 11
915.8853617234
 21
934.8213969845
  0
LINE
  5
58C
100
AcDbEntity
  8
AXIS
100
AcDbLine
 62
4
  6
CONTINUOUS
 10
916.7969725079
 20
760.840489017
 11
916.7969725079
 21
768.840489017
  0
LINE
  5
58D
100
AcDbEntity
  8
H_EXTERN_HANDLE
100
AcDbLine
 62
7
  6
CONTINUOUS
 10
921.8853617234
 20
935.045546721
 11
921.8853617234
 21
936.8178779833
  0
LINE
  5
58E
100
AcDbEntity
  8
H_EXTERN_HANDLE
100
AcDbLine
 62
7
  6
CONTINUOUS
 10
923.8765228018
 20
937.1164140918
 11
923.8765228018
 21
935.1199330929
  0
LINE
  5
58F
100
AcDbEntity
  8
INTER_PHASE_SCHIELDS
100
AcDbLine
 62
5
  6
CONTINUOUS
 10
861.2969725079
 20
133.8106022867
 11
862.7969725079
 21
142.8106022867
  0
LINE
  5
590
100
AcDbEntity
  8
H_EXTERN_HANDLE
100
AcDbLine
 62
3
  6
CONTINUOUS
 10
792.9071155246
 20
243.168214782
 11
789.1035511689
 21
235.0114446987
  0
LINE
  5
591
100
AcDbEntity
  8
BASIC_DEVICE
100
AcDbLine
 62
7
  6
CONTINUOUS
 10
717.7658835947
 20
160.5606022866
 11
714.7347946814
 21
155.3106022866
  0
LINE
  5
592
100
AcDbEntity
  8
BASIC_DEVICE
100
AcDbLine
 62
7
  6
CONTINUOUS
 10
723.8280614212
 20
150.0606022866
 11
726.8591503344
 21
155.3106022866
  0
LINE
  5
593
100
AcDbEntity
  8
BASIC_DEVICE
100
AcDbLine
 62
7
  6
CONTINUOUS
 10
887.2969725079
 20
402.8106022866
 11
892.2969725079
 21
407.8106022866
  0
LINE
  5
594
100
AcDbEntity
  8
BASIC_DEVICE
100
AcDbLine
 62
1
  6
CONTINUOUS
 10
796.5937740249
 20
283.4066785681
 11
781.5623992246
 21
270.7938575171
  0
LINE
  5
595
100
AcDbEntity
  8
BASIC_DEVICE
100
AcDbLine
 62
7
  6
CONTINUOUS
 10
991.7969725079
 20
702.840489017
 11
969.2969725079
 21
702.840489017
  0
LINE
  5
596
100
AcDbEntity
  8
BASIC_DEVICE
100
AcDbLine
 62
7
  6
CONTINUOUS
 10
619.7969725079
 20
702.840489017
 11
642.2969725079
 21
702.840489017
  0
LINE
  5
597
100
AcDbEntity
  8
BASIC_DEVICE
100
AcDbLine
 62
7
  6
CONTINUOUS
 10
950.2969725079
 20
717.840489017
 11
887.2969725079
 21
717.840489017
  0
LINE
  5
598
100
AcDbEntity
  8
BASIC_DEVICE
100
AcDbLine
 62
7
  6
CONTINUOUS
 10
830.2969725079
 20
717.840489017
 11
767.2969725079
 21
717.840489017
  0
LINE
  5
599
100
AcDbEntity
  8
BASIC_DEVICE
100
AcDbLine
 62
7
  6
CONTINUOUS
 10
710.2969725079
 20
717.840489017
 11
647.2969725079
 21
717.840489017
  0
LINE
  5
59A
100
AcDbEntity
  8
BASIC_DEVICE
100
AcDbLine
 62
7
  6
CONTINUOUS
 10
991.7969725079
 20
724.840489017
 11
619.7969725079
 21
724.840489017
  0
LINE
  5
59B
100
AcDbEntity
  8
H_EXTERN_HANDLE
100
AcDbLine
 62
7
  6
CONTINUOUS
 10
929.8765228018
 20
935.3440828294
 11
929.8765228018
 21
937.1164140918
  0
LINE
  5
59C
100
AcDbEntity
  8
H_EXTERN_HANDLE
100
AcDbLine
 62
7
  6
CONTINUOUS
 10
931.8676838802
 20
937.4149502002
 11
931.8676838802
 21
935.4184692013
  0
LINE
  5
59D
100
AcDbEntity
  8
H_EXTERN_HANDLE
100
AcDbLine
 62
7
  6
CONTINUOUS
 10
937.8676838802
 20
935.6426189378
 11
937.8676838802
 21
937.4149502002
  0
LINE
  5
59E
100
AcDbEntity
  8
AXIS
100
AcDbLine
 62
4
  6
CONTINUOUS
 10
938.7969725079
 20
714.840489017
 11
938.7969725079
 21
727.840489017
  0
LINE
  5
59F
100
AcDbEntity
  8
H_EXTERN_HANDLE
100
AcDbLine
 62
7
  6
CONTINUOUS
 10
939.8588449587
 20
937.7134863086
 11
939.8588449587
 21
935.7170053097
  0
LINE
  5
5A0
100
AcDbEntity
  8
H_EXTERN_HANDLE
100
AcDbLine
 62
7
  6
CONTINUOUS
 10
945.8588449587
 20
935.9411550463
 11
945.8588449587
 21
937.7134863086
  0
LINE
  5
5A1
100
AcDbEntity
  8
H_EXTERN_HANDLE
100
AcDbLine
 62
7
  6
CONTINUOUS
 10
947.8500060371
 20
938.012022417
 11
947.8500060371
 21
936.0155414181
  0
LINE
  5
5A2
100
AcDbEntity
  8
BASIC_DEVICE
100
AcDbLine
 62
7
  6
CONTINUOUS
 10
950.2969725079
 20
724.840489017
 11
950.2969725079
 21
717.840489017
  0
LINE
  5
5A3
100
AcDbEntity
  8
BASIC_DEVICE
100
AcDbLine
 62
7
  6
CONTINUOUS
 10
950.2969725079
 20
402.8106022866
 11
950.2969725079
 21
342.8097272866
  0
LINE
  5
5A4
100
AcDbEntity
  8
BASIC_DEVICE
100
AcDbLine
 62
7
  6
CONTINUOUS
 10
950.2969725079
 20
82.8106022866
 11
950.2969725079
 21
142.8114772866
  0
LINE
  5
5A5
100
AcDbEntity
  8
H_EXTERN_HANDLE
100
AcDbLine
 62
7
  6
CONTINUOUS
 10
953.8500060371
 20
936.2396911547
 11
953.8500060371
 21
938.012022417
  0
LINE
  5
5A6
100
AcDbEntity
  8
H_EXTERN_HANDLE
100
AcDbLine
 62
7
  6
CONTINUOUS
 10
955.8411671155
 20
938.3105585254
 11
955.8411671155
 21
936.3140775265
  0
LINE
  5
5A7
100
AcDbEntity
  8
H_EXTERN_HANDLE
100
AcDbLine
 62
7
  6
CONTINUOUS
 10
961.8411671155
 20
936.5382272631
 11
961.8411671155
 21
938.3105585254
  0
LINE
  5
5A8
100
AcDbEntity
  8
H_EXTERN_HANDLE
100
AcDbLine
 62
7
  6
CONTINUOUS
 10
963.8323281939
 20
938.6090946338
 11
963.8323281939
 21
936.6126136349
  0
LINE
  5
5A9
100
AcDbEntity
  8
BASIC_DEVICE
100
AcDbLine
 62
7
  6
CONTINUOUS
 10
967.2969725079
 20
677.840489017
 11
967.2969725079
 21
679.840489017
  0
LINE
  5
5AA
100
AcDbEntity
  8
BASIC_DEVICE
100
AcDbLine
 62
7
  6
CONTINUOUS
 10
969.2969725079
 20
342.8106022866
 11
969.2969725079
 21
330.3106022866
  0
LINE
  5
5AB
100
AcDbEntity
  8
BASIC_DEVICE
100
AcDbLine
 62
7
  6
CONTINUOUS
 10
969.2969725079
 20
142.8106022866
 11
969.2969725079
 21
155.3106022866
  0
LINE
  5
5AC
100
AcDbEntity
  8
BASIC_DEVICE
100
AcDbLine
 62
7
  6
CONTINUOUS
 10
969.2969725079
 20
702.840489017
 11
969.2969725079
 21
763.840489017
  0
LINE
  5
5AD
100
AcDbEntity
  8
H_EXTERN_HANDLE
100
AcDbLine
 62
7
  6
CONTINUOUS
 10
969.8323281939
 20
936.8367633715
 11
969.8323281939
 21
938.6090946338
  0
LINE
  5
5AE
100
AcDbEntity
  8
H_EXTERN_HANDLE
100
AcDbLine
 62
7
  6
CONTINUOUS
 10
971.8234892724
 20
938.9076307422
 11
971.8234892724
 21
936.9111497434
  0
LINE
  5
5AF
100
AcDbEntity
  8
BASIC_DEVICE
100
AcDbLine
 62
7
  6
CONTINUOUS
 10
884.7347946814
 20
330.3106022866
 11
887.7658835947
 21
335.5606022866
  0
LINE
  5
5B0
100
AcDbEntity
  8
BASIC_DEVICE
100
AcDbLine
 62
7
  6
CONTINUOUS
 10
896.8591503344
 20
330.3106022866
 11
893.8280614212
 21
325.0606022866
  0
LINE
  5
5B1
100
AcDbEntity
  8
INTER_PHASE_SCHIELDS
100
AcDbLine
 62
5
  6
CONTINUOUS
 10
861.2969725079
 20
752.140489017
 11
860.2969725079
 21
752.140489017
  0
LINE
  5
5B2
100
AcDbEntity
  8
INTER_PHASE_SCHIELDS
100
AcDbLine
 62
5
  6
CONTINUOUS
 10
858.2969725079
 20
752.140489017
 11
857.2969725079
 21
752.140489017
  0
LINE
  5
5B3
100
AcDbEntity
  8
INTER_PHASE_SCHIELDS
100
AcDbLine
 62
5
  6
CONTINUOUS
 10
741.2969725079
 20
752.140489017
 11
740.2969725079
 21
752.140489017
  0
LINE
  5
5B4
100
AcDbEntity
  8
INTER_PHASE_SCHIELDS
100
AcDbLine
 62
5
  6
CONTINUOUS
 10
738.2969725079
 20
752.140489017
 11
737.2969725079
 21
752.140489017
  0
LINE
  5
5B5
100
AcDbEntity
  8
INTER_PHASE_SCHIELDS
100
AcDbLine
 62
5
  6
CONTINUOUS
 10
738.2969725079
 20
756.540489017
 11
740.2969725079
 21
756.540489017
  0
LINE
  5
5B6
100
AcDbEntity
  8
INTER_PHASE_SCHIELDS
100
AcDbLine
 62
5
  6
CONTINUOUS
 10
858.2969725079
 20
756.540489017
 11
860.2969725079
 21
756.540489017
  0
LINE
  5
5B7
100
AcDbEntity
  8
INTER_PHASE_SCHIELDS
100
AcDbLine
 62
5
  6
CONTINUOUS
 10
738.2969725079
 20
762.540489017
 11
740.2969725079
 21
762.540489017
  0
LINE
  5
5B8
100
AcDbEntity
  8
INTER_PHASE_SCHIELDS
100
AcDbLine
 62
5
  6
CONTINUOUS
 10
858.2969725079
 20
762.540489017
 11
860.2969725079
 21
762.540489017
  0
LINE
  5
5B9
100
AcDbEntity
  8
TERMINAL_SCREEN
100
AcDbLine
 62
2
  6
CONTINUOUS
 10
619.7969725079
 20
763.840489017
 11
991.7969725079
 21
763.840489017
  0
LINE
  5
5BA
100
AcDbEntity
  8
BASIC_DEVICE
100
AcDbLine
 62
7
  6
CONTINUOUS
 10
619.7969725079
 20
763.840489017
 11
991.7969725079
 21
763.840489017
  0
LINE
  5
5BB
100
AcDbEntity
  8
TERMINAL_SCREEN
100
AcDbLine
 62
2
  6
CONTINUOUS
 10
619.7969725079
 20
765.840489017
 11
991.7969725079
 21
765.840489017
  0
LINE
  5
5BC
100
AcDbEntity
  8
BASIC_DEVICE
100
AcDbLine
 62
7
  6
CONTINUOUS
 10
738.7969725079
 20
781.840489017
 11
718.7969725079
 21
781.840489017
  0
LINE
  5
5BD
100
AcDbEntity
  8
H_EXTERN_HANDLE
100
AcDbLine
 62
7
  6
CONTINUOUS
 10
977.8234892724
 20
937.1352994799
 11
977.8234892724
 21
938.9076307422
  0
LINE
  5
5BE
100
AcDbEntity
  8
AXIS
100
AcDbLine
 62
4
  6
CONTINUOUS
 10
979.2969725079
 20
147.8106022866
 11
979.2969725079
 21
162.8106022866
  0
LINE
  5
5BF
100
AcDbEntity
  8
AXIS
100
AcDbLine
 62
4
  6
CONTINUOUS
 10
979.2969725079
 20
322.8106022866
 11
979.2969725079
 21
337.8106022866
  0
LINE
  5
5C0
100
AcDbEntity
  8
H_EXTERN_HANDLE
100
AcDbLine
 62
7
  6
CONTINUOUS
 10
979.8146503508
 20
939.2061668506
 11
979.8146503508
 21
937.2096858518
  0
LINE
  5
5C1
100
AcDbEntity
  8
H_EXTERN_HANDLE
100
AcDbLine
 62
7
  6
CONTINUOUS
 10
985.8146503508
 20
937.4338355883
 11
985.8146503508
 21
939.2061668506
  0
LINE
  5
5C2
100
AcDbEntity
  8
H_EXTERN_HANDLE
100
AcDbLine
 62
7
  6
CONTINUOUS
 10
987.8058114292
 20
939.504702959
 11
987.8058114292
 21
937.5082219602
  0
LINE
  5
5C3
100
AcDbEntity
  8
BASIC_DEVICE
100
AcDbLine
 62
7
  6
CONTINUOUS
 10
991.7969725079
 20
763.840489017
 11
991.7969725079
 21
677.840489017
  0
LINE
  5
5C4
100
AcDbEntity
  8
TERMINAL_SCREEN
100
AcDbLine
 62
2
  6
CONTINUOUS
 10
991.7969725079
 20
468.3106022866
 11
991.7969725079
 21
320.3106022866
  0
LINE
  5
5C5
100
AcDbEntity
  8
BASIC_DEVICE
100
AcDbLine
 62
7
  6
CONTINUOUS
 10
991.7969725079
 20
142.8106022866
 11
991.7969725079
 21
342.8106022866
  0
LINE
  5
5C6
100
AcDbEntity
  8
TERMINAL_SCREEN
100
AcDbLine
 62
2
  6
CONTINUOUS
 10
991.7969725079
 20
763.840489017
 11
991.7969725079
 21
815.840489017
  0
LINE
  5
5C7
100
AcDbEntity
  8
H_EXTERN_HANDLE
100
AcDbLine
 62
7
  6
CONTINUOUS
 10
993.8058114292
 20
937.7323716967
 11
993.8058114292
 21
939.504702959
  0
LINE
  5
5C8
100
AcDbEntity
  8
H_EXTERN_HANDLE
100
AcDbLine
 62
7
  6
CONTINUOUS
 10
995.7969725076
 20
985.840489017
 11
995.7969725076
 21
937.8067580686
  0
LINE
  5
5C9
100
AcDbEntity
  8
H_EXTERN_HANDLE
100
AcDbLine
 62
7
  6
CONTINUOUS
 10
995.7969725076
 20
261.3106022867
 11
995.7969725076
 21
280.3106022867
  0
LINE
  5
5CA
100
AcDbEntity
  8
AM_12
100
AcDbLine
 62
4
  6
CONTINUOUS
 10
902.1941811566
 20
279.5845282973
 11
905.6941811566
 21
283.0845282973
  0
LINE
  5
5CB
100
AcDbEntity
  8
BASIC_DEVICE
100
AcDbLine
 62
7
  6
CONTINUOUS
 10
705.2969725079
 20
77.8106022866
 11
710.2969725079
 21
82.8106022866
  0
LINE
  5
5CC
100
AcDbEntity
  8
BASIC_DEVICE
100
AcDbLine
 62
7
  6
CONTINUOUS
 10
882.7969725079
 20
233.8106022866
 11
885.7969725079
 21
236.8106022866
  0
LINE
  5
5CD
100
AcDbEntity
  8
BASIC_DEVICE
100
AcDbLine
 62
7
  6
CONTINUOUS
 10
897.7969725079
 20
248.8106022866
 11
900.7969725079
 21
251.8106022866
  0
LINE
  5
5CE
100
AcDbEntity
  8
AM_12
100
AcDbLine
 62
4
  6
CONTINUOUS
 10
736.5424137635
 20
77.1880709437
 11
740.0424137635
 21
80.6880709437
  0
LINE
  5
5CF
100
AcDbEntity
  8
0
100
AcDbLine
 62
7
  6
CONTINUOUS
 10
459.2898932459
 20
800.040728316
 11
30.3274563788
 21
800.040728316
  0
LINE
  5
5D0
100
AcDbEntity
  8
TERMINAL_SCREEN
100
AcDbLine
 62
2
  6
CONTINUOUS
 10
991.7969725079
 20
815.840489017
 11
619.7969725079
 21
815.840489017
  0
LINE
  5
5D1
100
AcDbEntity
  8
BASIC_DEVICE
100
AcDbLine
 62
7
  6
CONTINUOUS
 10
740.7969725079
 20
817.840489017
 11
870.7969725079
 21
817.840489017
  0
LINE
  5
5D2
100
AcDbEntity
  8
0
100
AcDbLine
 62
1
  6
CONTINUOUS
 10
30.3274563788
 20
819.740728316
 11
459.2898932459
 21
819.740728316
  0
LINE
  5
5D3
100
AcDbEntity
  8
BASIC_DEVICE
100
AcDbLine
 62
1
  6
CONTINUOUS
 10
781.510289552
 20
819.840489017
 11
790.3532762966
 21
819.840489017
  0
LINE
  5
5D4
100
AcDbEntity
  8
BASIC_DEVICE
100
AcDbLine
 62
1
  6
CONTINUOUS
 10
781.510289552
 20
820.940489017
 11
790.3532762966
 21
820.940489017
  0
LINE
  5
5D5
100
AcDbEntity
  8
BASIC_DEVICE
100
AcDbLine
 62
1
  6
CONTINUOUS
 10
790.3532762966
 20
822.040489017
 11
821.2406687192
 21
822.040489017
  0
LINE
  5
5D6
100
AcDbEntity
  8
BASIC_DEVICE
100
AcDbLine
 62
1
  6
CONTINUOUS
 10
791.6948628351
 20
830.140489017
 11
788.5948628351
 21
830.140489017
  0
LINE
  5
5D7
100
AcDbEntity
  8
0
100
AcDbLine
 62
1
  6
CONTINUOUS
 10
30.3274563788
 20
839.440728316
 11
459.2898932459
 21
839.440728316
  0
LINE
  5
5D8
100
AcDbEntity
  8
BASIC_DEVICE
100
AcDbLine
 62
7
  6
CONTINUOUS
 10
798.2969725079
 20
843.840489017
 11
813.2969725079
 21
843.840489017
  0
LINE
  5
5D9
100
AcDbEntity
  8
BASIC_DEVICE
100
AcDbLine
 62
1
  6
CONTINUOUS
 10
792.6948628351
 20
829.140489017
 11
791.6948628351
 21
830.140489017
  0
LINE
  5
5DA
100
AcDbEntity
  8
H_EXTERN_HANDLE
100
AcDbLine
 62
7
  6
CONTINUOUS
 10
792.9071155245
 20
898.840489017
 11
789.3019518104
 21
904.840489017
  0
LINE
  5
5DB
100
AcDbEntity
  8
BASIC_DEVICE
100
AcDbLine
 62
7
  6
CONTINUOUS
 10
973.2347946814
 20
310.3106022866
 11
976.2658835947
 21
315.5606022866
  0
LINE
  5
5DC
100
AcDbEntity
  8
BASIC_DEVICE
100
AcDbLine
 62
7
  6
CONTINUOUS
 10
884.7347946814
 20
155.3106022866
 11
887.7658835947
 21
160.5606022866
  0
LINE
  5
5DD
100
AcDbEntity
  8
BASIC_DEVICE
100
AcDbLine
 62
7
  6
CONTINUOUS
 10
985.3591503344
 20
310.3106022866
 11
982.3280614212
 21
305.0606022866
  0
LINE
  5
5DE
100
AcDbEntity
  8
BASIC_DEVICE
100
AcDbLine
 62
7
  6
CONTINUOUS
 10
896.8591503344
 20
155.3106022866
 11
893.8280614212
 21
150.0606022866
  0
LINE
  5
5DF
100
AcDbEntity
  8
0
100
AcDbLine
 62
1
  6
CONTINUOUS
 10
30.3274563788
 20
859.140728316
 11
459.2898932459
 21
859.140728316
  0
LINE
  5
5E0
100
AcDbEntity
  8
0
100
AcDbLine
 62
1
  6
CONTINUOUS
 10
30.3274563788
 20
878.840728316
 11
459.2898932459
 21
878.840728316
  0
LINE
  5
5E1
100
AcDbEntity
  8
H_EXTERN_HANDLE
100
AcDbLine
 62
7
  6
CONTINUOUS
 10
845.7969725076
 20
889.840489017
 11
759.7969725076
 21
889.840489017
  0
LINE
  5
5E2
100
AcDbEntity
  8
BASIC_DEVICE
100
AcDbLine
 62
7
  6
CONTINUOUS
 10
973.2347946814
 20
175.3106022866
 11
976.2658835947
 21
180.5606022866
  0
LINE
  5
5E3
100
AcDbEntity
  8
BASIC_DEVICE
100
AcDbLine
 62
7
  6
CONTINUOUS
 10
985.3591503344
 20
175.3106022866
 11
982.3280614212
 21
170.0606022866
  0
LINE
  5
5E4
100
AcDbEntity
  8
BASIC_DEVICE
100
AcDbLine
 62
7
  6
CONTINUOUS
 10
825.2969725079
 20
77.8106022866
 11
830.2969725079
 21
82.8106022866
  0
LINE
  5
5E5
100
AcDbEntity
  8
AM_12
100
AcDbLine
 62
4
  6
CONTINUOUS
 10
856.5424137635
 20
77.1880709437
 11
860.0424137635
 21
80.6880709437
  0
LINE
  5
5E6
100
AcDbEntity
  8
H_EXTERN_HANDLE
100
AcDbLine
 62
7
  6
CONTINUOUS
 10
995.7969725076
 20
937.8067580686
 11
993.8058114292
 21
937.7323716967
  0
LINE
  5
5E7
100
AcDbEntity
  8
H_EXTERN_HANDLE
100
AcDbLine
 62
7
  6
CONTINUOUS
 10
987.8058114292
 20
937.5082219602
 11
985.8146503508
 21
937.4338355883
  0
LINE
  5
5E8
100
AcDbEntity
  8
H_EXTERN_HANDLE
100
AcDbLine
 62
7
  6
CONTINUOUS
 10
979.8146503508
 20
937.2096858518
 11
977.8234892724
 21
937.1352994799
  0
LINE
  5
5E9
100
AcDbEntity
  8
H_EXTERN_HANDLE
100
AcDbLine
 62
7
  6
CONTINUOUS
 10
971.8234892724
 20
936.9111497434
 11
969.8323281939
 21
936.8367633715
  0
LINE
  5
5EA
100
AcDbEntity
  8
H_EXTERN_HANDLE
100
AcDbLine
 62
7
  6
CONTINUOUS
 10
963.8323281939
 20
936.6126136349
 11
961.8411671155
 21
936.5382272631
  0
LINE
  5
5EB
100
AcDbEntity
  8
H_EXTERN_HANDLE
100
AcDbLine
 62
7
  6
CONTINUOUS
 10
955.8411671155
 20
936.3140775265
 11
953.8500060371
 21
936.2396911547
  0
LINE
  5
5EC
100
AcDbEntity
  8
H_EXTERN_HANDLE
100
AcDbLine
 62
7
  6
CONTINUOUS
 10
947.8500060371
 20
936.0155414181
 11
945.8588449587
 21
935.9411550463
  0
LINE
  5
5ED
100
AcDbEntity
  8
H_EXTERN_HANDLE
100
AcDbLine
 62
7
  6
CONTINUOUS
 10
939.8588449587
 20
935.7170053097
 11
937.8676838802
 21
935.6426189378
  0
LINE
  5
5EE
100
AcDbEntity
  8
H_EXTERN_HANDLE
100
AcDbLine
 62
7
  6
CONTINUOUS
 10
931.8676838802
 20
935.4184692013
 11
929.8765228018
 21
935.3440828294
  0
LINE
  5
5EF
100
AcDbEntity
  8
H_EXTERN_HANDLE
100
AcDbLine
 62
7
  6
CONTINUOUS
 10
923.8765228018
 20
935.1199330929
 11
921.8853617234
 21
935.045546721
  0
LINE
  5
5F0
100
AcDbEntity
  8
H_EXTERN_HANDLE
100
AcDbLine
 62
7
  6
CONTINUOUS
 10
915.8853617234
 20
934.8213969845
 11
913.894200645
 21
934.7470106126
  0
LINE
  5
5F1
100
AcDbEntity
  8
H_EXTERN_HANDLE
100
AcDbLine
 62
7
  6
CONTINUOUS
 10
907.894200645
 20
934.5228608761
 11
905.9030395665
 21
934.4484745042
  0
LINE
  5
5F2
100
AcDbEntity
  8
H_EXTERN_HANDLE
100
AcDbLine
 62
7
  6
CONTINUOUS
 10
899.9030395665
 20
934.2243247677
 11
897.9118784881
 21
934.1499383958
  0
LINE
  5
5F3
100
AcDbEntity
  8
H_EXTERN_HANDLE
100
AcDbLine
 62
7
  6
CONTINUOUS
 10
891.9118784881
 20
933.9257886592
 11
889.9207174097
 21
933.8514022874
  0
LINE
  5
5F4
100
AcDbEntity
  8
H_EXTERN_HANDLE
100
AcDbLine
 62
7
  6
CONTINUOUS
 10
883.9207174097
 20
933.6272525508
 11
881.9295563313
 21
933.552866179
  0
LINE
  5
5F5
100
AcDbEntity
  8
H_EXTERN_HANDLE
100
AcDbLine
 62
7
  6
CONTINUOUS
 10
875.9295563313
 20
933.3287164424
 11
873.9383952528
 21
933.2543300706
  0
LINE
  5
5F6
100
AcDbEntity
  8
H_EXTERN_HANDLE
100
AcDbLine
 62
7
  6
CONTINUOUS
 10
867.9383952528
 20
933.030180334
 11
865.9472341744
 21
932.9557939621
  0
LINE
  5
5F7
100
AcDbEntity
  8
H_EXTERN_HANDLE
100
AcDbLine
 62
7
  6
CONTINUOUS
 10
859.9472341744
 20
932.7316442256
 11
857.956073096
 21
932.6572578537
  0
LINE
  5
5F8
100
AcDbEntity
  8
H_EXTERN_HANDLE
100
AcDbLine
 62
7
  6
CONTINUOUS
 10
851.956073096
 20
932.4331081172
 11
849.9649120176
 21
932.3587217453
  0
LINE
  5
5F9
100
AcDbEntity
  8
H_EXTERN_HANDLE
100
AcDbLine
 62
7
  6
CONTINUOUS
 10
843.9649120176
 20
932.1345720088
 11
842.7969725076
 21
932.0909397865
  0
LINE
  5
5FA
100
AcDbEntity
  8
0
100
AcDbLine
 62
7
  6
CONTINUOUS
 10
30.3274563788
 20
898.540728316
 11
459.2898932459
 21
898.540728316
  0
LINE
  5
5FB
100
AcDbEntity
  8
H_EXTERN_HANDLE
100
AcDbLine
 62
7
  6
CONTINUOUS
 10
845.7969725076
 20
898.840489017
 11
792.9071155245
 21
898.840489017
  0
LINE
  5
5FC
100
AcDbEntity
  8
H_EXTERN_HANDLE
100
AcDbLine
 62
7
  6
CONTINUOUS
 10
759.7969725076
 20
904.840489017
 11
839.7969725076
 21
904.840489017
  0
LINE
  5
5FD
100
AcDbEntity
  8
H_MOVING
100
AcDbLine
 62
1
  6
CONTINUOUS
 10
775.7969725076
 20
904.840489017
 11
835.7969725076
 21
904.840489017
  0
LINE
  5
5FE
100
AcDbEntity
  8
H_EXTERN_HANDLE
100
AcDbLine
 62
7
  6
CONTINUOUS
 10
842.7969725076
 20
927.840489017
 11
835.7969725076
 21
927.840489017
  0
LINE
  5
5FF
100
AcDbEntity
  8
H_MOVING
100
AcDbLine
 62
1
  6
CONTINUOUS
 10
814.2969725076
 20
927.840489017
 11
797.2969725076
 21
927.840489017
  0
LINE
  5
600
100
AcDbEntity
  8
H_MOVING
100
AcDbLine
 62
1
  6
CONTINUOUS
 10
816.2969727858
 20
929.340489017
 11
814.2969725076
 21
929.340489017
  0
LINE
  5
601
100
AcDbEntity
  8
H_MOVING
100
AcDbLine
 62
1
  6
CONTINUOUS
 10
795.2969724258
 20
929.3404903911
 11
797.2969727039
 21
929.3404901294
  0
LINE
  5
602
100
AcDbEntity
  8
H_MOVING
100
AcDbLine
 62
1
  6
CONTINUOUS
 10
781.5469725076
 20
930.840489017
 11
775.7969725076
 21
930.840489017
  0
LINE
  5
603
100
AcDbEntity
  8
H_EXTERN_HANDLE
100
AcDbLine
 62
7
  6
CONTINUOUS
 10
775.7969725076
 20
930.840489017
 11
759.7969725076
 21
930.840489017
  0
LINE
  5
604
100
AcDbEntity
  8
H_EXTERN_HANDLE
100
AcDbLine
 62
7
  6
CONTINUOUS
 10
787.7969725076
 20
930.840489017
 11
823.7969725076
 21
930.840489017
  0
LINE
  5
605
100
AcDbEntity
  8
H_MOVING
100
AcDbLine
 62
1
  6
CONTINUOUS
 10
830.0469725076
 20
930.840489017
 11
835.7969725076
 21
930.840489017
  0
LINE
  5
606
100
AcDbEntity
  8
H_EXTERN_HANDLE
100
AcDbLine
 62
7
  6
CONTINUOUS
 10
768.2969725076
 20
941.340489017
 11
759.7969725076
 21
941.3404890171
  0
LINE
  5
607
100
AcDbEntity
  8
H_EXTERN_HANDLE
100
AcDbLine
 62
7
  6
CONTINUOUS
 10
835.7969725076
 20
904.840489017
 11
845.7969725076
 21
898.840489017
  0
LINE
  5
608
100
AcDbEntity
  8
H_EXTERN_HANDLE
100
AcDbLine
 62
7
  6
CONTINUOUS
 10
792.6045740561
 20
980.340489017
 11
804.2969725076
 21
970.340489017
  0
LINE
  5
609
100
AcDbEntity
  8
H_EXTERN_HANDLE
100
AcDbLine
 62
7
  6
CONTINUOUS
 10
833.8994635004
 20
976.340489017
 11
869.7969725076
 21
980.340489017
  0
LINE
  5
60A
100
AcDbEntity
  8
H_EXTERN_HANDLE
100
AcDbLine
 62
7
  6
CONTINUOUS
 10
869.7969725076
 20
981.1565363834
 11
995.7969725076
 21
985.840489017
  0
LINE
  5
60B
100
AcDbEntity
  8
H_EXTERN_HANDLE
100
AcDbLine
 62
7
  6
CONTINUOUS
 10
759.7969725076
 20
966.340489017
 11
768.2969725077
 21
966.340489017
  0
LINE
  5
60C
100
AcDbEntity
  8
H_EXTERN_HANDLE
100
AcDbLine
 62
7
  6
CONTINUOUS
 10
777.6944815148
 20
970.340489017
 11
833.8994635004
 21
970.340489017
  0
LINE
  5
60D
100
AcDbEntity
  8
H_EXTERN_HANDLE
100
AcDbLine
 62
7
  6
CONTINUOUS
 10
759.7969725076
 20
976.340489017
 11
777.6944815148
 21
976.340489017
  0
LINE
  5
60E
100
AcDbEntity
  8
H_MOVING
100
AcDbLine
 62
1
  6
CONTINUOUS
 10
820.0469725076
 20
980.340489017
 11
814.0885344835
 21
980.340489017
  0
LINE
  5
60F
100
AcDbEntity
  8
H_EXTERN_HANDLE
100
AcDbLine
 62
7
  6
CONTINUOUS
 10
833.3994635004
 20
980.340489017
 11
778.1944815148
 21
980.340489017
  0
LINE
  5
610
100
AcDbEntity
  8
H_MOVING
100
AcDbLine
 62
1
  6
CONTINUOUS
 10
791.5469725076
 20
980.340489017
 11
797.5054105317
 21
980.340489017
  0
LINE
  5
611
100
AcDbEntity
  8
H_MOVING
100
AcDbLine
 62
1
  6
CONTINUOUS
 10
816.0469725076
 20
981.840489017
 11
813.2802872812
 21
981.840489017
  0
LINE
  5
612
100
AcDbEntity
  8
H_MOVING
100
AcDbLine
 62
1
  6
CONTINUOUS
 10
798.3136577341
 20
981.840489017
 11
795.5469725076
 21
981.840489017
  0
LINE
  5
613
100
AcDbEntity
  8
H_EXTERN_HANDLE
100
AcDbLine
 62
7
  6
CONTINUOUS
 10
759.7969725076
 20
981.840489017
 11
868.7969725076
 21
981.840489017
  0
LINE
  5
614
100
AcDbEntity
  8
AXIS
100
AcDbLine
 62
4
  6
CONTINUOUS
 10
1175.2099959587
 20
263.7186727677
 11
1175.2099959587
 21
277.9025318056
  0
LINE
  5
615
100
AcDbEntity
  8
AXIS
100
AcDbLine
 62
4
  6
CONTINUOUS
 10
1200.2099959587
 20
238.3635987858
 11
1200.2099959587
 21
303.7391996918
  0
LINE
  5
616
100
AcDbEntity
  8
BASIC_DEVICE
100
AcDbLine
 62
7
  6
CONTINUOUS
 10
945.2969725079
 20
77.8106022866
 11
950.2969725079
 21
82.8106022866
  0
LINE
  5
617
100
AcDbEntity
  8
0
100
AcDbLine
 62
7
  6
CONTINUOUS
 10
0.0
 20
1010.3770663855
 11
1368.66137203
 21
1010.3770663855
  0
LINE
  5
618
100
AcDbEntity
  8
0
100
AcDbLine
 62
7
  6
CONTINUOUS
 10
0.0
 20
1010.3770663855
 11
1368.66137203
 21
1010.3770663855
  0
LINE
  5
619
100
AcDbEntity
  8
AXIS
100
AcDbLine
 62
4
  6
CONTINUOUS
 10
1225.2099959587
 20
264.0193688074
 11
1225.2099959587
 21
277.6018357659
  0
LINE
  5
61A
100
AcDbEntity
  8
0
100
AcDbLine
 62
7
  6
CONTINUOUS
 10
1368.66137203
 20
0.0
 11
1368.66137203
 21
1010.3770663855
  0
LINE
  5
61B
100
AcDbEntity
  8
0
100
AcDbLine
 62
7
  6
CONTINUOUS
 10
1368.66137203
 20
0.0
 11
1368.66137203
 21
1010.3770663855
  0
ARC
  5
61C
100
AcDbEntity
  8
H_EXTERN_HANDLE
100
AcDbCircle
 62
7
  6
CONTINUOUS
 10
112.8306106778
 20
270.8106022867
 40
10.5
100
AcDbArc
 50
267.4898603379
 51
92.5101405927
  0
ARC
  5
61D
100
AcDbEntity
  8
H_EXTERN_HANDLE
100
AcDbCircle
 62
7
  6
CONTINUOUS
 10
107.3546199631
 20
270.8106022422
 40
10.2601724327
100
AcDbArc
 50
267.4898603379
 51
92.5101405927
  0
ARC
  5
61E
100
AcDbEntity
  8
H_EXTERN_HANDLE
100
AcDbCircle
 62
7
  6
CONTINUOUS
 10
85.0810614474
 20
275.0606020086
 40
10.0
100
AcDbArc
 50
90.0
 51
153.8844439374
  0
ARC
  5
61F
100
AcDbEntity
  8
H_EXTERN_HANDLE
100
AcDbCircle
 62
7
  6
CONTINUOUS
 10
114.5810614474
 20
246.5606020086
 40
10.0
100
AcDbArc
 50
0.0
 51
90.0
  0
ARC
  5
620
100
AcDbEntity
  8
H_EXTERN_HANDLE
100
AcDbCircle
 62
7
  6
CONTINUOUS
 10
85.0810614474
 20
266.5606020086
 40
10.0
100
AcDbArc
 50
206.1155560628
 51
270.0
  0
ARC
  5
621
100
AcDbEntity
  8
H_EXTERN_HANDLE
100
AcDbCircle
 62
7
  6
CONTINUOUS
 10
78.5810614474
 20
270.8106020085
 40
9.0
100
AcDbArc
 50
92.5101405927
 51
267.4898603379
  0
ARC
  5
622
100
AcDbEntity
  8
H_MOVING
100
AcDbCircle
 62
1
  6
CONTINUOUS
 10
115.9168475053
 20
85.801763087
 40
3.0
100
AcDbArc
 50
90.0
 51
270.0
  0
ARC
  5
623
100
AcDbEntity
  8
H_MOVING
100
AcDbCircle
 62
1
  6
CONTINUOUS
 10
116.2153836137
 20
93.7929241654
 40
3.0
100
AcDbArc
 50
90.0
 51
270.0
  0
ARC
  5
624
100
AcDbEntity
  8
H_MOVING
100
AcDbCircle
 62
1
  6
CONTINUOUS
 10
116.5139197221
 20
101.7840852438
 40
3.0
100
AcDbArc
 50
90.0
 51
270.0
  0
ARC
  5
625
100
AcDbEntity
  8
H_MOVING
100
AcDbCircle
 62
1
  6
CONTINUOUS
 10
116.8124558306
 20
109.7752463222
 40
3.0
100
AcDbArc
 50
90.0
 51
270.0
  0
ARC
  5
626
100
AcDbEntity
  8
H_MOVING
100
AcDbCircle
 62
1
  6
CONTINUOUS
 10
117.110991939
 20
117.7664074007
 40
3.0
100
AcDbArc
 50
90.0
 51
270.0
  0
ARC
  5
627
100
AcDbEntity
  8
H_MOVING
100
AcDbCircle
 62
1
  6
CONTINUOUS
 10
117.4095280474
 20
125.7575684791
 40
3.0
100
AcDbArc
 50
90.0
 51
270.0
  0
ARC
  5
628
100
AcDbEntity
  8
H_MOVING
100
AcDbCircle
 62
1
  6
CONTINUOUS
 10
117.7080641558
 20
133.7487295575
 40
3.0
100
AcDbArc
 50
90.0
 51
270.0
  0
ARC
  5
629
100
AcDbEntity
  8
H_MOVING
100
AcDbCircle
 62
1
  6
CONTINUOUS
 10
118.0066002642
 20
141.7398906359
 40
3.0
100
AcDbArc
 50
90.0
 51
270.0
  0
ARC
  5
62A
100
AcDbEntity
  8
H_MOVING
100
AcDbCircle
 62
1
  6
CONTINUOUS
 10
118.3051363726
 20
149.7310517144
 40
3.0
100
AcDbArc
 50
90.0
 51
270.0
  0
ARC
  5
62B
100
AcDbEntity
  8
H_MOVING
100
AcDbCircle
 62
1
  6
CONTINUOUS
 10
118.603672481
 20
157.7222127928
 40
3.0
100
AcDbArc
 50
90.0
 51
270.0
  0
ARC
  5
62C
100
AcDbEntity
  8
H_MOVING
100
AcDbCircle
 62
1
  6
CONTINUOUS
 10
118.9022085894
 20
165.7133738712
 40
3.0
100
AcDbArc
 50
90.0
 51
270.0
  0
ARC
  5
62D
100
AcDbEntity
  8
H_MOVING
100
AcDbCircle
 62
1
  6
CONTINUOUS
 10
119.2007446978
 20
173.7045349496
 40
3.0
100
AcDbArc
 50
90.0
 51
270.0
  0
ARC
  5
62E
100
AcDbEntity
  8
H_MOVING
100
AcDbCircle
 62
1
  6
CONTINUOUS
 10
119.4992808063
 20
181.6956960281
 40
3.0
100
AcDbArc
 50
90.0
 51
270.0
  0
ARC
  5
62F
100
AcDbEntity
  8
H_MOVING
100
AcDbCircle
 62
1
  6
CONTINUOUS
 10
119.7978169147
 20
189.6868571065
 40
3.0
100
AcDbArc
 50
90.0
 51
270.0
  0
ARC
  5
630
100
AcDbEntity
  8
H_MOVING
100
AcDbCircle
 62
1
  6
CONTINUOUS
 10
120.0963530231
 20
197.6780181849
 40
3.0
100
AcDbArc
 50
90.0
 51
270.0
  0
ARC
  5
631
100
AcDbEntity
  8
H_MOVING
100
AcDbCircle
 62
1
  6
CONTINUOUS
 10
120.3948891315
 20
205.6691792633
 40
3.0
100
AcDbArc
 50
168.6984117818
 51
270.0
  0
ARC
  5
632
100
AcDbEntity
  8
INTER_PHASE_SCHIELDS
100
AcDbCircle
 62
5
  6
CONTINUOUS
 10
306.2810614474
 20
139.3106022866
 40
3.0
100
AcDbArc
 50
90.0
 51
180.0
  0
ARC
  5
633
100
AcDbEntity
  8
INTER_PHASE_SCHIELDS
100
AcDbCircle
 62
5
  6
CONTINUOUS
 10
306.2810614474
 20
86.0106022866
 40
3.0
100
AcDbArc
 50
180.0
 51
270.0
  0
ARC
  5
634
100
AcDbEntity
  8
INTER_PHASE_SCHIELDS
100
AcDbCircle
 62
5
  6
CONTINUOUS
 10
300.2310614474
 20
136.5106022866
 40
2.25
100
AcDbArc
 50
180.0
 51
360.0
  0
ARC
  5
635
100
AcDbEntity
  8
INTER_PHASE_SCHIELDS
100
AcDbCircle
 62
5
  6
CONTINUOUS
 10
306.2810614474
 20
139.3106022866
 40
1.0
100
AcDbArc
 50
90.0
 51
180.0
  0
ARC
  5
636
100
AcDbEntity
  8
INTER_PHASE_SCHIELDS
100
AcDbCircle
 62
5
  6
CONTINUOUS
 10
306.2810614474
 20
86.0106022866
 40
1.0
100
AcDbArc
 50
180.0
 51
270.0
  0
ARC
  5
637
100
AcDbEntity
  8
H_EXTERN_HANDLE
100
AcDbCircle
 62
7
  6
CONTINUOUS
 10
114.5810614474
 20
295.0606020086
 40
10.0
100
AcDbArc
 50
270.0
 51
360.0
  0
ARC
  5
638
100
AcDbEntity
  8
TERMINAL_SCREEN
100
AcDbCircle
 62
2
  6
CONTINUOUS
 10
246.5810614474
 20
428.2100972232
 40
7.0
100
AcDbArc
 50
180.0
 51
225.0
  0
ARC
  5
639
100
AcDbEntity
  8
TERMINAL_SCREEN
100
AcDbCircle
 62
2
  6
CONTINUOUS
 10
284.5810614474
 20
373.2395344748
 40
7.0
100
AcDbArc
 50
0.0
 51
45.0
  0
ARC
  5
63A
100
AcDbEntity
  8
TERMINAL_SCREEN
100
AcDbCircle
 62
2
  6
CONTINUOUS
 10
284.5810614474
 20
373.2395344748
 40
5.0
100
AcDbArc
 50
0.0
 51
45.0
  0
ARC
  5
63B
100
AcDbEntity
  8
TERMINAL_SCREEN
100
AcDbCircle
 62
2
  6
CONTINUOUS
 10
246.5810614474
 20
428.2100972232
 40
5.0
100
AcDbArc
 50
180.0
 51
225.0
  0
ARC
  5
63C
100
AcDbEntity
  8
INTER_PHASE_SCHIELDS
100
AcDbCircle
 62
5
  6
CONTINUOUS
 10
306.2810614474
 20
346.3106022866
 40
3.0
100
AcDbArc
 50
180.0
 51
270.0
  0
ARC
  5
63D
100
AcDbEntity
  8
INTER_PHASE_SCHIELDS
100
AcDbCircle
 62
5
  6
CONTINUOUS
 10
306.2810614474
 20
399.6106022866
 40
3.0
100
AcDbArc
 50
90.0
 51
180.0
  0
ARC
  5
63E
100
AcDbEntity
  8
INTER_PHASE_SCHIELDS
100
AcDbCircle
 62
5
  6
CONTINUOUS
 10
300.2310614474
 20
349.1106022866
 40
2.25
100
AcDbArc
 50
0.0
 51
180.0
  0
ARC
  5
63F
100
AcDbEntity
  8
INTER_PHASE_SCHIELDS
100
AcDbCircle
 62
5
  6
CONTINUOUS
 10
306.2810614474
 20
346.3106022866
 40
1.0
100
AcDbArc
 50
180.0
 51
270.0
  0
ARC
  5
640
100
AcDbEntity
  8
INTER_PHASE_SCHIELDS
100
AcDbCircle
 62
5
  6
CONTINUOUS
 10
306.2810614474
 20
399.6106022866
 40
1.0
100
AcDbArc
 50
90.0
 51
180.0
  0
ARC
  5
641
100
AcDbEntity
  8
BASIC_DEVICE
100
AcDbCircle
 62
7
  6
CONTINUOUS
 10
632.2969725079
 20
155.3106022866
 40
10.0
100
AcDbArc
 50
0.0
 51
90.0
  0
CIRCLE
  5
642
100
AcDbEntity
  8
BASIC_DEVICE
100
AcDbCircle
 62
7
  6
CONTINUOUS
 10
632.2969725079
 20
175.3106022866
 40
6.5
  0
CIRCLE
  5
643
100
AcDbEntity
  8
DEVICE_FIXING_HOLES
100
AcDbCircle
 62
1
  6
CONTINUOUS
 10
632.2969725079
 20
155.3106022866
 40
4.5
  0
CIRCLE
  5
644
100
AcDbEntity
  8
BASIC_DEVICE
100
AcDbCircle
 62
7
  6
CONTINUOUS
 10
632.2969725079
 20
155.3106022866
 40
4.5
  0
CIRCLE
  5
645
100
AcDbEntity
  8
BASIC_DEVICE
100
AcDbCircle
 62
7
  6
CONTINUOUS
 10
632.2969725079
 20
175.3106022866
 40
3.25
  0
ARC
  5
646
100
AcDbEntity
  8
INTER_PHASE_SCHIELDS
100
AcDbCircle
 62
5
  6
CONTINUOUS
 10
362.0810614474
 20
86.0106022866
 40
3.0
100
AcDbArc
 50
270.0
 51
360.0
  0
ARC
  5
647
100
AcDbEntity
  8
INTER_PHASE_SCHIELDS
100
AcDbCircle
 62
5
  6
CONTINUOUS
 10
362.0810614474
 20
139.3106022866
 40
3.0
100
AcDbArc
 50
0.0
 51
90.0
  0
ARC
  5
648
100
AcDbEntity
  8
INTER_PHASE_SCHIELDS
100
AcDbCircle
 62
5
  6
CONTINUOUS
 10
368.2310614474
 20
136.5106022866
 40
2.25
100
AcDbArc
 50
180.0
 51
360.0
  0
CIRCLE
  5
649
100
AcDbEntity
  8
AM_12
100
AcDbCircle
 62
4
  6
CONTINUOUS
 10
619.3300214022
 20
247.0281808953
 40
1.75
  0
ARC
  5
64A
100
AcDbEntity
  8
INTER_PHASE_SCHIELDS
100
AcDbCircle
 62
5
  6
CONTINUOUS
 10
362.0810614474
 20
86.0106022866
 40
1.0
100
AcDbArc
 50
270.0
 51
360.0
  0
ARC
  5
64B
100
AcDbEntity
  8
INTER_PHASE_SCHIELDS
100
AcDbCircle
 62
5
  6
CONTINUOUS
 10
362.0810614474
 20
139.3106022866
 40
1.0
100
AcDbArc
 50
0.0
 51
90.0
  0
ARC
  5
64C
100
AcDbEntity
  8
BASIC_DEVICE
100
AcDbCircle
 62
7
  6
CONTINUOUS
 10
632.2969725079
 20
330.3106022866
 40
10.0
100
AcDbArc
 50
270.0
 51
360.0
  0
CIRCLE
  5
64D
100
AcDbEntity
  8
BASIC_DEVICE
100
AcDbCircle
 62
7
  6
CONTINUOUS
 10
632.2969725079
 20
310.3106022866
 40
6.5
  0
ARC
  5
64E
100
AcDbEntity
  8
TERMINAL_SCREEN
100
AcDbCircle
 62
2
  6
CONTINUOUS
 10
624.7969725079
 20
468.3106022866
 40
5.0
100
AcDbArc
 50
90.0
 51
180.0
  0
CIRCLE
  5
64F
100
AcDbEntity
  8
DEVICE_FIXING_HOLES
100
AcDbCircle
 62
1
  6
CONTINUOUS
 10
632.2969725079
 20
330.3106022866
 40
4.5
  0
CIRCLE
  5
650
100
AcDbEntity
  8
BASIC_DEVICE
100
AcDbCircle
 62
7
  6
CONTINUOUS
 10
632.2969725079
 20
330.3106022866
 40
4.5
  0
CIRCLE
  5
651
100
AcDbEntity
  8
BASIC_DEVICE
100
AcDbCircle
 62
7
  6
CONTINUOUS
 10
632.2969725079
 20
310.3106022866
 40
3.25
  0
ARC
  5
652
100
AcDbEntity
  8
INTER_PHASE_SCHIELDS
100
AcDbCircle
 62
5
  6
CONTINUOUS
 10
362.0810614474
 20
399.6106022866
 40
3.0
100
AcDbArc
 50
0.0
 51
90.0
  0
ARC
  5
653
100
AcDbEntity
  8
INTER_PHASE_SCHIELDS
100
AcDbCircle
 62
5
  6
CONTINUOUS
 10
362.0810614474
 20
346.3106022866
 40
3.0
100
AcDbArc
 50
270.0
 51
360.0
  0
ARC
  5
654
100
AcDbEntity
  8
INTER_PHASE_SCHIELDS
100
AcDbCircle
 62
5
  6
CONTINUOUS
 10
368.2310614474
 20
349.1106022866
 40
2.25
100
AcDbArc
 50
0.0
 51
180.0
  0
ARC
  5
655
100
AcDbEntity
  8
INTER_PHASE_SCHIELDS
100
AcDbCircle
 62
5
  6
CONTINUOUS
 10
362.0810614474
 20
399.6106022866
 40
1.0
100
AcDbArc
 50
0.0
 51
90.0
  0
ARC
  5
656
100
AcDbEntity
  8
INTER_PHASE_SCHIELDS
100
AcDbCircle
 62
5
  6
CONTINUOUS
 10
362.0810614474
 20
346.3106022866
 40
1.0
100
AcDbArc
 50
270.0
 51
360.0
  0
CIRCLE
  5
657
100
AcDbEntity
  8
BASIC_DEVICE
100
AcDbCircle
 62
7
  6
CONTINUOUS
 10
720.7969725079
 20
155.3106022866
 40
6.5
  0
CIRCLE
  5
658
100
AcDbEntity
  8
BASIC_DEVICE
100
AcDbCircle
 62
7
  6
CONTINUOUS
 10
658.7969725079
 20
97.8106022866
 40
5.5
  0
CIRCLE
  5
659
100
AcDbEntity
  8
BASIC_DEVICE
100
AcDbCircle
 62
7
  6
CONTINUOUS
 10
658.7969725079
 20
117.8106022866
 40
5.5
  0
CIRCLE
  5
65A
100
AcDbEntity
  8
BASIC_DEVICE
100
AcDbCircle
 62
7
  6
CONTINUOUS
 10
698.7969725079
 20
97.8106022866
 40
5.5
  0
CIRCLE
  5
65B
100
AcDbEntity
  8
BASIC_DEVICE
100
AcDbCircle
 62
7
  6
CONTINUOUS
 10
778.7969725079
 20
97.8106022866
 40
5.5
  0
CIRCLE
  5
65C
100
AcDbEntity
  8
BASIC_DEVICE
100
AcDbCircle
 62
7
  6
CONTINUOUS
 10
698.7969725079
 20
117.8106022866
 40
5.5
  0
CIRCLE
  5
65D
100
AcDbEntity
  8
BASIC_DEVICE
100
AcDbCircle
 62
7
  6
CONTINUOUS
 10
778.7969725079
 20
117.8106022866
 40
5.5
  0
CIRCLE
  5
65E
100
AcDbEntity
  8
BASIC_DEVICE
100
AcDbCircle
 62
7
  6
CONTINUOUS
 10
720.7969725079
 20
155.3106022866
 40
3.25
  0
CIRCLE
  5
65F
100
AcDbEntity
  8
AM_12
100
AcDbCircle
 62
4
  6
CONTINUOUS
 10
738.2924137635
 20
78.9380709437
 40
1.75
  0
ARC
  5
660
100
AcDbEntity
  8
H_MOVING
100
AcDbCircle
 62
1
  6
CONTINUOUS
 10
796.2969725076
 20
82.8106022866
 40
1.0
100
AcDbArc
 50
180.0
 51
270.0
  0
CIRCLE
  5
661
100
AcDbEntity
  8
BASIC_DEVICE
100
AcDbCircle
 62
1
  6
CONTINUOUS
 10
790.1969725077
 20
270.8106022867
 40
2.55
  0
LWPOLYLINE
  5
662
100
AcDbEntity
  8
TEXT
100
AcDbPolyline
 62
2
  6
CONTINUOUS
 90
2
 70
1
 43
1.0
 10
768.4921222763
 20
270.8106022867
 42
1.0
 10
773.4921222763
 20
270.8106022867
 42
1.0
  0
ARC
  5
663
100
AcDbEntity
  8
H_EXTERN_HANDLE
100
AcDbCircle
 62
7
  6
CONTINUOUS
 10
791.3639374838
 20
262.3106022867
 40
2.5
100
AcDbArc
 50
30.4949678746
 51
89.9999999997
  0
ARC
  5
664
100
AcDbEntity
  8
BASIC_DEVICE
100
AcDbCircle
 62
7
  6
CONTINUOUS
 10
736.7969725079
 20
227.8106022866
 40
2.0
100
AcDbArc
 50
270.0
 51
360.0
  0
ARC
  5
665
100
AcDbEntity
  8
BASIC_DEVICE
100
AcDbCircle
 62
7
  6
CONTINUOUS
 10
736.7969725079
 20
257.8106022866
 40
2.0
100
AcDbArc
 50
0.0
 51
90.0
  0
ARC
  5
666
100
AcDbEntity
  8
BASIC_DEVICE
100
AcDbCircle
 62
7
  6
CONTINUOUS
 10
720.7969725079
 20
257.8106022866
 40
2.0
100
AcDbArc
 50
90.0
 51
180.0
  0
ARC
  5
667
100
AcDbEntity
  8
BASIC_DEVICE
100
AcDbCircle
 62
7
  6
CONTINUOUS
 10
720.7969725079
 20
227.8106022866
 40
2.0
100
AcDbArc
 50
180.0
 51
270.0
  0
CIRCLE
  5
668
100
AcDbEntity
  8
BASIC_DEVICE
100
AcDbCircle
 62
1
  6
CONTINUOUS
 10
790.1969725077
 20
270.8106022867
 40
1.55
  0
ARC
  5
669
100
AcDbEntity
  8
H_EXTERN_HANDLE
100
AcDbCircle
 62
7
  6
CONTINUOUS
 10
793.7519462501
 20
263.3106022867
 40
1.5
100
AcDbArc
 50
39.6650129075
 51
89.9999999999
  0
ARC
  5
66A
100
AcDbEntity
  8
H_EXTERN_HANDLE
100
AcDbCircle
 62
7
  6
CONTINUOUS
 10
760.7969725076
 20
261.3106022866
 40
1.0
100
AcDbArc
 50
180.0
 51
270.0
  0
CIRCLE
  5
66B
100
AcDbEntity
  8
BASIC_DEVICE
100
AcDbCircle
 62
7
  6
CONTINUOUS
 10
890.7969725079
 20
155.3106022866
 40
6.5
  0
CIRCLE
  5
66C
100
AcDbEntity
  8
BASIC_DEVICE
100
AcDbCircle
 62
7
  6
CONTINUOUS
 10
818.7969725079
 20
117.8106022866
 40
5.5
  0
CIRCLE
  5
66D
100
AcDbEntity
  8
BASIC_DEVICE
100
AcDbCircle
 62
7
  6
CONTINUOUS
 10
818.7969725079
 20
97.8106022866
 40
5.5
  0
CIRCLE
  5
66E
100
AcDbEntity
  8
BASIC_DEVICE
100
AcDbCircle
 62
7
  6
CONTINUOUS
 10
898.7969725079
 20
97.8106022866
 40
5.5
  0
CIRCLE
  5
66F
100
AcDbEntity
  8
BASIC_DEVICE
100
AcDbCircle
 62
7
  6
CONTINUOUS
 10
938.7969725079
 20
97.8106022866
 40
5.5
  0
CIRCLE
  5
670
100
AcDbEntity
  8
BASIC_DEVICE
100
AcDbCircle
 62
7
  6
CONTINUOUS
 10
898.7969725079
 20
117.8106022866
 40
5.5
  0
CIRCLE
  5
671
100
AcDbEntity
  8
BASIC_DEVICE
100
AcDbCircle
 62
7
  6
CONTINUOUS
 10
938.7969725079
 20
117.8106022866
 40
5.5
  0
CIRCLE
  5
672
100
AcDbEntity
  8
BASIC_DEVICE
100
AcDbCircle
 62
7
  6
CONTINUOUS
 10
890.7969725079
 20
155.3106022866
 40
3.25
  0
ARC
  5
673
100
AcDbEntity
  8
BASIC_DEVICE
100
AcDbCircle
 62
7
  6
CONTINUOUS
 10
868.7969725076
 20
145.3106022867
 40
2.9
100
AcDbArc
 50
239.551875
 51
300.45375
  0
CIRCLE
  5
674
100
AcDbEntity
  8
AM_12
100
AcDbCircle
 62
4
  6
CONTINUOUS
 10
858.2924137635
 20
78.9380709437
 40
1.75
  0
ARC
  5
675
100
AcDbEntity
  8
H_MOVING
100
AcDbCircle
 62
1
  6
CONTINUOUS
 10
815.2969725076
 20
82.8106022866
 40
1.0
100
AcDbArc
 50
270.0
 51
360.0
  0
ARC
  5
676
100
AcDbEntity
  8
H_EXTERN_HANDLE
100
AcDbCircle
 62
7
  6
CONTINUOUS
 10
805.7969725077
 20
270.8106022867
 40
40.0
100
AcDbArc
 50
90.0
 51
164.7815448422
  0
ARC
  5
677
100
AcDbEntity
  8
H_EXTERN_HANDLE
100
AcDbCircle
 62
7
  6
CONTINUOUS
 10
805.7969725077
 20
270.8106022867
 40
40.0
100
AcDbArc
 50
195.2184551578
 51
344.7815448422
  0
ARC
  5
678
100
AcDbEntity
  8
H_EXTERN_HANDLE
100
AcDbCircle
 62
3
  6
CONTINUOUS
 10
805.7969725077
 20
270.8106022867
 40
39.5
100
AcDbArc
 50
195.4158485295
 51
245.0
  0
ARC
  5
679
100
AcDbEntity
  8
H_EXTERN_HANDLE
100
AcDbCircle
 62
3
  6
CONTINUOUS
 10
805.7969725077
 20
270.8106022867
 40
39.5
100
AcDbArc
 50
135.7252824015
 51
164.5841514705
  0
ARC
  5
67A
100
AcDbEntity
  8
H_EXTERN_HANDLE
100
AcDbCircle
 62
1
  6
CONTINUOUS
 10
805.7969725077
 20
270.8106022867
 40
39.5
100
AcDbArc
 50
90.0
 51
134.2747175986
  0
ARC
  5
67B
100
AcDbEntity
  8
BASIC_DEVICE
100
AcDbCircle
 62
7
  6
CONTINUOUS
 10
805.7969725079
 20
270.8106022866
 40
32.0
100
AcDbArc
 50
263.6206297911
 51
351.7867892983
  0
ARC
  5
67C
100
AcDbEntity
  8
H_EXTERN_HANDLE
100
AcDbCircle
 62
3
  6
CONTINUOUS
 10
805.7969725077
 20
270.8106022867
 40
30.5
100
AcDbArc
 50
200.1367700284
 51
245.0
  0
ARC
  5
67D
100
AcDbEntity
  8
H_EXTERN_HANDLE
100
AcDbCircle
 62
3
  6
CONTINUOUS
 10
805.7969725077
 20
270.8106022867
 40
30.5
100
AcDbArc
 50
135.93931715
 51
159.8632299717
  0
ARC
  5
67E
100
AcDbEntity
  8
H_EXTERN_HANDLE
100
AcDbCircle
 62
1
  6
CONTINUOUS
 10
805.7969725077
 20
270.8106022867
 40
30.5
100
AcDbArc
 50
90.0
 51
134.06068285
  0
ARC
  5
67F
100
AcDbEntity
  8
H_EXTERN_HANDLE
100
AcDbCircle
 62
7
  6
CONTINUOUS
 10
805.7969725077
 20
270.8106022867
 40
30.0
100
AcDbArc
 50
208.3593500282
 51
331.6406499718
  0
ARC
  5
680
100
AcDbEntity
  8
H_EXTERN_HANDLE
100
AcDbCircle
 62
7
  6
CONTINUOUS
 10
805.7969725077
 20
270.8106022867
 40
30.0
100
AcDbArc
 50
332.0471134109
 51
339.5126848853
  0
ARC
  5
681
100
AcDbEntity
  8
H_EXTERN_HANDLE
100
AcDbCircle
 62
7
  6
CONTINUOUS
 10
805.7969725077
 20
270.8106022867
 40
30.0
100
AcDbArc
 50
28.3593500282
 51
151.6406499718
  0
ARC
  5
682
100
AcDbEntity
  8
BASIC_DEVICE
100
AcDbCircle
 62
7
  6
CONTINUOUS
 10
805.7969725076
 20
270.8106022867
 40
24.0
100
AcDbArc
 50
261.7867892983
 51
349.4161974035
  0
ARC
  5
683
100
AcDbEntity
  8
BASIC_DEVICE
100
AcDbCircle
 62
1
  6
CONTINUOUS
 10
805.7969725077
 20
270.8106022867
 40
15.6
100
AcDbArc
 50
6.6258095648
 51
170.6238852948
  0
ARC
  5
684
100
AcDbEntity
  8
BASIC_DEVICE
100
AcDbCircle
 62
1
  6
CONTINUOUS
 10
805.7969725077
 20
270.8106022867
 40
15.6
100
AcDbArc
 50
189.3761147052
 51
353.3741904352
  0
ARC
  5
685
100
AcDbEntity
  8
H_EXTERN_HANDLE
100
AcDbCircle
 62
7
  6
CONTINUOUS
 10
805.7969725077
 20
270.8106022867
 40
14.25
100
AcDbArc
 50
30.4949678748
 51
149.5050321252
  0
ARC
  5
686
100
AcDbEntity
  8
H_EXTERN_HANDLE
100
AcDbCircle
 62
7
  6
CONTINUOUS
 10
805.7969725077
 20
270.8106022867
 40
14.25
100
AcDbArc
 50
210.4949678748
 51
329.5050321252
  0
ARC
  5
687
100
AcDbEntity
  8
H_EXTERN_HANDLE
100
AcDbCircle
 62
7
  6
CONTINUOUS
 10
802.7969725076
 20
270.8106022866
 40
10.25
100
AcDbArc
 50
219.6650129075
 51
320.3349870925
  0
ARC
  5
688
100
AcDbEntity
  8
H_EXTERN_HANDLE
100
AcDbCircle
 62
7
  6
CONTINUOUS
 10
802.7969725076
 20
270.8106022866
 40
10.25
100
AcDbArc
 50
39.6650129077
 51
140.3349870923
  0
ARC
  5
689
100
AcDbEntity
  8
H_EXTERN_HANDLE
100
AcDbCircle
 62
7
  6
CONTINUOUS
 10
820.2300075315
 20
262.3106022867
 40
2.5
100
AcDbArc
 50
90.0000000002
 51
149.5050321252
  0
ARC
  5
68A
100
AcDbEntity
  8
H_EXTERN_HANDLE
100
AcDbCircle
 62
7
  6
CONTINUOUS
 10
811.8419987652
 20
263.3106022867
 40
1.5
100
AcDbArc
 50
90.0
 51
140.3349870925
  0
ARC
  5
68B
100
AcDbEntity
  8
BASIC_DEVICE
100
AcDbCircle
 62
7
  6
CONTINUOUS
 10
829.9675124997
 20
266.2054179532
 40
0.6114558412
100
AcDbArc
 50
98.2132107017
 51
161.2029867019
  0
ARC
  5
68C
100
AcDbEntity
  8
BASIC_DEVICE
100
AcDbCircle
 62
7
  6
CONTINUOUS
 10
836.9738870441
 20
266.3106022867
 40
0.5
100
AcDbArc
 50
351.7867892983
 51
90.0
  0
ARC
  5
68D
100
AcDbEntity
  8
BASIC_DEVICE
100
AcDbCircle
 62
7
  6
CONTINUOUS
 10
802.2969725076
 20
239.5056506017
 40
0.5
100
AcDbArc
 50
180.0000000005
 51
263.6206297911
  0
ARC
  5
68E
100
AcDbEntity
  8
BASIC_DEVICE
100
AcDbCircle
 62
7
  6
CONTINUOUS
 10
802.2969725076
 20
246.5618909805
 40
0.5
100
AcDbArc
 50
81.7867892984
 51
180.0
  0
CIRCLE
  5
68F
100
AcDbEntity
  8
BASIC_DEVICE
100
AcDbCircle
 62
7
  6
CONTINUOUS
 10
720.7969725079
 20
330.3106022866
 40
6.5
  0
CIRCLE
  5
690
100
AcDbEntity
  8
BASIC_DEVICE
100
AcDbCircle
 62
7
  6
CONTINUOUS
 10
890.7969725079
 20
330.3106022866
 40
6.5
  0
CIRCLE
  5
691
100
AcDbEntity
  8
BASIC_DEVICE
100
AcDbCircle
 62
7
  6
CONTINUOUS
 10
818.7969725079
 20
387.8106022866
 40
5.5
  0
CIRCLE
  5
692
100
AcDbEntity
  8
BASIC_DEVICE
100
AcDbCircle
 62
7
  6
CONTINUOUS
 10
818.7969725079
 20
367.8106022866
 40
5.5
  0
CIRCLE
  5
693
100
AcDbEntity
  8
BASIC_DEVICE
100
AcDbCircle
 62
7
  6
CONTINUOUS
 10
658.7969725079
 20
367.8106022866
 40
5.5
  0
CIRCLE
  5
694
100
AcDbEntity
  8
BASIC_DEVICE
100
AcDbCircle
 62
7
  6
CONTINUOUS
 10
658.7969725079
 20
387.8106022866
 40
5.5
  0
CIRCLE
  5
695
100
AcDbEntity
  8
BASIC_DEVICE
100
AcDbCircle
 62
7
  6
CONTINUOUS
 10
698.7969725079
 20
367.8106022866
 40
5.5
  0
CIRCLE
  5
696
100
AcDbEntity
  8
BASIC_DEVICE
100
AcDbCircle
 62
7
  6
CONTINUOUS
 10
698.7969725079
 20
387.8106022866
 40
5.5
  0
CIRCLE
  5
697
100
AcDbEntity
  8
BASIC_DEVICE
100
AcDbCircle
 62
7
  6
CONTINUOUS
 10
778.7969725079
 20
387.8106022866
 40
5.5
  0
CIRCLE
  5
698
100
AcDbEntity
  8
BASIC_DEVICE
100
AcDbCircle
 62
7
  6
CONTINUOUS
 10
778.7969725079
 20
367.8106022866
 40
5.5
  0
CIRCLE
  5
699
100
AcDbEntity
  8
BASIC_DEVICE
100
AcDbCircle
 62
7
  6
CONTINUOUS
 10
898.7969725079
 20
387.8106022866
 40
5.5
  0
CIRCLE
  5
69A
100
AcDbEntity
  8
BASIC_DEVICE
100
AcDbCircle
 62
7
  6
CONTINUOUS
 10
898.7969725079
 20
367.8106022866
 40
5.5
  0
CIRCLE
  5
69B
100
AcDbEntity
  8
BASIC_DEVICE
100
AcDbCircle
 62
7
  6
CONTINUOUS
 10
938.7969725079
 20
387.8106022866
 40
5.5
  0
CIRCLE
  5
69C
100
AcDbEntity
  8
BASIC_DEVICE
100
AcDbCircle
 62
7
  6
CONTINUOUS
 10
938.7969725079
 20
367.8106022866
 40
5.5
  0
CIRCLE
  5
69D
100
AcDbEntity
  8
BASIC_DEVICE
100
AcDbCircle
 62
7
  6
CONTINUOUS
 10
720.7969725079
 20
330.3106022866
 40
3.25
  0
CIRCLE
  5
69E
100
AcDbEntity
  8
BASIC_DEVICE
100
AcDbCircle
 62
7
  6
CONTINUOUS
 10
876.7969725079
 20
330.3106022866
 40
3.25
  0
ARC
  5
69F
100
AcDbEntity
  8
BASIC_DEVICE
100
AcDbCircle
 62
7
  6
CONTINUOUS
 10
868.7969725076
 20
340.3106022867
 40
2.9
100
AcDbArc
 50
59.54625
 51
120.448125
  0
ARC
  5
6A0
100
AcDbEntity
  8
H_EXTERN_HANDLE
100
AcDbCircle
 62
7
  6
CONTINUOUS
 10
791.3639374838
 20
279.3106022867
 40
2.5
100
AcDbArc
 50
270.0
 51
329.5050321252
  0
ARC
  5
6A1
100
AcDbEntity
  8
H_EXTERN_HANDLE
100
AcDbCircle
 62
7
  6
CONTINUOUS
 10
820.2300075315
 20
279.3106022867
 40
2.5
100
AcDbArc
 50
210.4949678747
 51
269.9999999999
  0
CIRCLE
  5
6A2
100
AcDbEntity
  8
TERMINAL_SCREEN
100
AcDbCircle
 62
2
  6
CONTINUOUS
 10
694.7969725079
 20
330.3106022866
 40
2.25
  0
CIRCLE
  5
6A3
100
AcDbEntity
  8
TERMINAL_SCREEN
100
AcDbCircle
 62
2
  6
CONTINUOUS
 10
916.7969725079
 20
330.3106022866
 40
2.25
  0
CIRCLE
  5
6A4
100
AcDbEntity
  8
AM_12
100
AcDbCircle
 62
4
  6
CONTINUOUS
 10
806.2591098353
 20
473.1784665585
 40
1.75
  0
CIRCLE
  5
6A5
100
AcDbEntity
  8
AM_12
100
AcDbCircle
 62
4
  6
CONTINUOUS
 10
738.2924137635
 20
406.6831336296
 40
1.75
  0
CIRCLE
  5
6A6
100
AcDbEntity
  8
AM_12
100
AcDbCircle
 62
4
  6
CONTINUOUS
 10
858.2924137635
 20
406.6831336296
 40
1.75
  0
CIRCLE
  5
6A7
100
AcDbEntity
  8
AM_12
100
AcDbCircle
 62
4
  6
CONTINUOUS
 10
903.9441811566
 20
281.3345282973
 40
1.75
  0
ARC
  5
6A8
100
AcDbEntity
  8
H_EXTERN_HANDLE
100
AcDbCircle
 62
7
  6
CONTINUOUS
 10
811.8419987652
 20
278.3106022867
 40
1.5
100
AcDbArc
 50
219.6650129077
 51
269.9999999999
  0
ARC
  5
6A9
100
AcDbEntity
  8
H_EXTERN_HANDLE
100
AcDbCircle
 62
7
  6
CONTINUOUS
 10
793.7519462501
 20
278.3106022867
 40
1.5
100
AcDbArc
 50
270.0
 51
320.3349870923
  0
ARC
  5
6AA
100
AcDbEntity
  8
H_EXTERN_HANDLE
100
AcDbCircle
 62
7
  6
CONTINUOUS
 10
760.7969725076
 20
280.3106022866
 40
1.0
100
AcDbArc
 50
90.0
 51
180.0
  0
CIRCLE
  5
6AB
100
AcDbEntity
  8
HANDLE_FIXING_HOLES
100
AcDbCircle
 62
1
  6
CONTINUOUS
 10
1200.2099959587
 20
270.8106022867
 40
15.5
  0
ARC
  5
6AC
100
AcDbEntity
  8
BASIC_DEVICE
100
AcDbCircle
 62
7
  6
CONTINUOUS
 10
979.2969725079
 20
155.3106022866
 40
10.0
100
AcDbArc
 50
90.0
 51
180.0
  0
CIRCLE
  5
6AD
100
AcDbEntity
  8
BASIC_DEVICE
100
AcDbCircle
 62
7
  6
CONTINUOUS
 10
979.2969725079
 20
175.3106022866
 40
6.5
  0
CIRCLE
  5
6AE
100
AcDbEntity
  8
DEVICE_FIXING_HOLES
100
AcDbCircle
 62
1
  6
CONTINUOUS
 10
979.2969725079
 20
155.3106022866
 40
4.5
  0
CIRCLE
  5
6AF
100
AcDbEntity
  8
BASIC_DEVICE
100
AcDbCircle
 62
7
  6
CONTINUOUS
 10
979.2969725079
 20
155.3106022866
 40
4.5
  0
CIRCLE
  5
6B0
100
AcDbEntity
  8
BASIC_DEVICE
100
AcDbCircle
 62
7
  6
CONTINUOUS
 10
979.2969725079
 20
175.3106022866
 40
3.25
  0
CIRCLE
  5
6B1
100
AcDbEntity
  8
HANDLE_FIXING_HOLES
100
AcDbCircle
 62
1
  6
CONTINUOUS
 10
1200.2099959587
 20
245.8106022867
 40
2.25
  0
CIRCLE
  5
6B2
100
AcDbEntity
  8
HANDLE_FIXING_HOLES
100
AcDbCircle
 62
1
  6
CONTINUOUS
 10
1175.2099959587
 20
270.8106022867
 40
2.25
  0
CIRCLE
  5
6B3
100
AcDbEntity
  8
HANDLE_FIXING_HOLES
100
AcDbCircle
 62
1
  6
CONTINUOUS
 10
1225.2099959587
 20
270.8106022867
 40
2.25
  0
ARC
  5
6B4
100
AcDbEntity
  8
H_EXTERN_HANDLE
100
AcDbCircle
 62
7
  6
CONTINUOUS
 10
994.7969725076
 20
261.3106022867
 40
1.0
100
AcDbArc
 50
270.0
 51
360.0
  0
ARC
  5
6B5
100
AcDbEntity
  8
BASIC_DEVICE
100
AcDbCircle
 62
7
  6
CONTINUOUS
 10
979.2969725079
 20
330.3106022866
 40
10.0
100
AcDbArc
 50
180.0
 51
270.0
  0
CIRCLE
  5
6B6
100
AcDbEntity
  8
BASIC_DEVICE
100
AcDbCircle
 62
7
  6
CONTINUOUS
 10
979.2969725079
 20
310.3106022866
 40
6.5
  0
ARC
  5
6B7
100
AcDbEntity
  8
TERMINAL_SCREEN
100
AcDbCircle
 62
2
  6
CONTINUOUS
 10
986.7969725079
 20
468.3106022866
 40
5.0
100
AcDbArc
 50
0.0
 51
90.0
  0
CIRCLE
  5
6B8
100
AcDbEntity
  8
DEVICE_FIXING_HOLES
100
AcDbCircle
 62
1
  6
CONTINUOUS
 10
979.2969725079
 20
330.3106022866
 40
4.5
  0
CIRCLE
  5
6B9
100
AcDbEntity
  8
BASIC_DEVICE
100
AcDbCircle
 62
7
  6
CONTINUOUS
 10
979.2969725079
 20
330.3106022866
 40
4.5
  0
CIRCLE
  5
6BA
100
AcDbEntity
  8
BASIC_DEVICE
100
AcDbCircle
 62
7
  6
CONTINUOUS
 10
979.2969725079
 20
310.3106022866
 40
3.25
  0
CIRCLE
  5
6BB
100
AcDbEntity
  8
HANDLE_FIXING_HOLES
100
AcDbCircle
 62
1
  6
CONTINUOUS
 10
1200.2099959587
 20
295.8106022867
 40
2.25
  0
ARC
  5
6BC
100
AcDbEntity
  8
H_EXTERN_HANDLE
100
AcDbCircle
 62
7
  6
CONTINUOUS
 10
994.7969725076
 20
280.3106022867
 40
1.0
100
AcDbArc
 50
0.0
 51
90.0
  0
ARC
  5
6BD
100
AcDbEntity
  8
H_MOVING
100
AcDbCircle
 62
1
  6
CONTINUOUS
 10
805.7969727858
 20
942.5909397865
 40
10.5
100
AcDbArc
 50
177.4898603379
 51
2.5101405927
  0
ARC
  5
6BE
100
AcDbEntity
  8
H_MOVING
100
AcDbCircle
 62
1
  6
CONTINUOUS
 10
805.7969727413
 20
948.0669305013
 40
10.2601724327
100
AcDbArc
 50
177.4898603379
 51
2.5101405927
  0
ARC
  5
6BF
100
AcDbEntity
  8
H_MOVING
100
AcDbCircle
 62
1
  6
CONTINUOUS
 10
801.5469725076
 20
970.340489017
 40
10.0
100
AcDbArc
 50
116.1155560628
 51
180.0
  0
ARC
  5
6C0
100
AcDbEntity
  8
H_MOVING
100
AcDbCircle
 62
1
  6
CONTINUOUS
 10
810.0469725076
 20
970.340489017
 40
10.0
100
AcDbArc
 50
0.0
 51
63.8844439374
  0
ARC
  5
6C1
100
AcDbEntity
  8
H_MOVING
100
AcDbCircle
 62
1
  6
CONTINUOUS
 10
781.5469725076
 20
940.840489017
 40
10.0
100
AcDbArc
 50
270.0
 51
360.0
  0
ARC
  5
6C2
100
AcDbEntity
  8
H_MOVING
100
AcDbCircle
 62
1
  6
CONTINUOUS
 10
830.0469725076
 20
940.840489017
 40
10.0
100
AcDbArc
 50
180.0
 51
270.0
  0
ARC
  5
6C3
100
AcDbEntity
  8
H_MOVING
100
AcDbCircle
 62
1
  6
CONTINUOUS
 10
805.7969725076
 20
976.840489017
 40
9.0
100
AcDbArc
 50
2.5101405927
 51
177.4898603379
  0
ARC
  5
6C4
100
AcDbEntity
  8
H_EXTERN_HANDLE
100
AcDbCircle
 62
7
  6
CONTINUOUS
 10
787.7969725076
 20
939.340489017
 40
8.5
100
AcDbArc
 50
180.0
 51
270.0
  0
ARC
  5
6C5
100
AcDbEntity
  8
H_EXTERN_HANDLE
100
AcDbCircle
 62
7
  6
CONTINUOUS
 10
823.7969725076
 20
939.340489017
 40
8.5
100
AcDbArc
 50
270.0
 51
360.0
  0
ARC
  5
6C6
100
AcDbEntity
  8
H_EXTERN_HANDLE
100
AcDbCircle
 62
7
  6
CONTINUOUS
 10
768.2969725076
 20
961.840489017
 40
4.5
100
AcDbArc
 50
0.0
 51
89.9999999993
  0
ARC
  5
6C7
100
AcDbEntity
  8
H_EXTERN_HANDLE
100
AcDbCircle
 62
7
  6
CONTINUOUS
 10
768.2969725076
 20
945.840489017
 40
4.5
100
AcDbArc
 50
269.9999999994
 51
360.0
  0
ARC
  5
6C8
100
AcDbEntity
  8
H_EXTERN_HANDLE
100
AcDbCircle
 62
7
  6
CONTINUOUS
 10
990.8058114292
 20
939.504702959
 40
3.0
100
AcDbArc
 50
0.0
 51
180.0
  0
ARC
  5
6C9
100
AcDbEntity
  8
H_EXTERN_HANDLE
100
AcDbCircle
 62
7
  6
CONTINUOUS
 10
982.8146503508
 20
939.2061668506
 40
3.0
100
AcDbArc
 50
0.0
 51
180.0
  0
ARC
  5
6CA
100
AcDbEntity
  8
H_EXTERN_HANDLE
100
AcDbCircle
 62
7
  6
CONTINUOUS
 10
974.8234892724
 20
938.9076307422
 40
3.0
100
AcDbArc
 50
0.0
 51
180.0
  0
ARC
  5
6CB
100
AcDbEntity
  8
H_EXTERN_HANDLE
100
AcDbCircle
 62
7
  6
CONTINUOUS
 10
966.8323281939
 20
938.6090946338
 40
3.0
100
AcDbArc
 50
0.0
 51
180.0
  0
ARC
  5
6CC
100
AcDbEntity
  8
H_EXTERN_HANDLE
100
AcDbCircle
 62
7
  6
CONTINUOUS
 10
958.8411671155
 20
938.3105585254
 40
3.0
100
AcDbArc
 50
0.0
 51
180.0
  0
ARC
  5
6CD
100
AcDbEntity
  8
H_EXTERN_HANDLE
100
AcDbCircle
 62
7
  6
CONTINUOUS
 10
950.8500060371
 20
938.012022417
 40
3.0
100
AcDbArc
 50
0.0
 51
180.0
  0
ARC
  5
6CE
100
AcDbEntity
  8
H_EXTERN_HANDLE
100
AcDbCircle
 62
7
  6
CONTINUOUS
 10
942.8588449587
 20
937.7134863086
 40
3.0
100
AcDbArc
 50
0.0
 51
180.0
  0
ARC
  5
6CF
100
AcDbEntity
  8
H_EXTERN_HANDLE
100
AcDbCircle
 62
7
  6
CONTINUOUS
 10
934.8676838802
 20
937.4149502002
 40
3.0
100
AcDbArc
 50
0.0
 51
180.0
  0
ARC
  5
6D0
100
AcDbEntity
  8
H_EXTERN_HANDLE
100
AcDbCircle
 62
7
  6
CONTINUOUS
 10
926.8765228018
 20
937.1164140918
 40
3.0
100
AcDbArc
 50
0.0
 51
180.0
  0
ARC
  5
6D1
100
AcDbEntity
  8
H_EXTERN_HANDLE
100
AcDbCircle
 62
7
  6
CONTINUOUS
 10
918.8853617234
 20
936.8178779833
 40
3.0
100
AcDbArc
 50
0.0
 51
180.0
  0
ARC
  5
6D2
100
AcDbEntity
  8
H_EXTERN_HANDLE
100
AcDbCircle
 62
7
  6
CONTINUOUS
 10
910.894200645
 20
936.5193418749
 40
3.0
100
AcDbArc
 50
0.0
 51
180.0
  0
ARC
  5
6D3
100
AcDbEntity
  8
H_EXTERN_HANDLE
100
AcDbCircle
 62
7
  6
CONTINUOUS
 10
902.9030395665
 20
936.2208057665
 40
3.0
100
AcDbArc
 50
0.0
 51
180.0
  0
ARC
  5
6D4
100
AcDbEntity
  8
H_EXTERN_HANDLE
100
AcDbCircle
 62
7
  6
CONTINUOUS
 10
894.9118784881
 20
935.9222696581
 40
3.0
100
AcDbArc
 50
0.0
 51
180.0
  0
ARC
  5
6D5
100
AcDbEntity
  8
H_EXTERN_HANDLE
100
AcDbCircle
 62
7
  6
CONTINUOUS
 10
886.9207174097
 20
935.6237335497
 40
3.0
100
AcDbArc
 50
0.0
 51
180.0
  0
ARC
  5
6D6
100
AcDbEntity
  8
H_EXTERN_HANDLE
100
AcDbCircle
 62
7
  6
CONTINUOUS
 10
878.9295563313
 20
935.3251974413
 40
3.0
100
AcDbArc
 50
0.0
 51
180.0
  0
ARC
  5
6D7
100
AcDbEntity
  8
H_EXTERN_HANDLE
100
AcDbCircle
 62
7
  6
CONTINUOUS
 10
870.9383952528
 20
935.0266613329
 40
3.0
100
AcDbArc
 50
0.0
 51
180.0
  0
ARC
  5
6D8
100
AcDbEntity
  8
H_EXTERN_HANDLE
100
AcDbCircle
 62
7
  6
CONTINUOUS
 10
862.9472341744
 20
934.7281252245
 40
3.0
100
AcDbArc
 50
0.0
 51
180.0
  0
ARC
  5
6D9
100
AcDbEntity
  8
H_EXTERN_HANDLE
100
AcDbCircle
 62
7
  6
CONTINUOUS
 10
854.956073096
 20
934.4295891161
 40
3.0
100
AcDbArc
 50
0.0
 51
180.0
  0
ARC
  5
6DA
100
AcDbEntity
  8
H_EXTERN_HANDLE
100
AcDbCircle
 62
7
  6
CONTINUOUS
 10
846.9649120176
 20
934.1310530076
 40
3.0
100
AcDbArc
 50
0.0
 51
180.0
  0
ENDSEC
  0
SECTION
  2
OBJECTS
  0
DICTIONARY
  5
C
100
AcDbDictionary
280
0
281
1
  3
ACAD_GROUP
350
D
  3
ACAD_MLINESTYLE
350
17
  3
ACAD_LAYOUT
350
1A
  3
ACAD_PLOTSETTINGS
350
19
  3
ACAD_PLOTSTYLENAME
350
E
  0
DICTIONARY
  5
D
102
{ACAD_REACTORS
330
C
102
}
100
AcDbDictionary
280
0
281
1
  0
ACDBDICTIONARYWDFLT
  5
E
102
{ACAD_REACTORS
330
C
102
}
100
AcDbDictionary
281
1
  3
Normal
350
F
100
AcDbDictionaryWithDefault
340
F
  0
DICTIONARY
  5
17
102
{ACAD_REACTORS
330
C
102
}
100
AcDbDictionary
280
0
281
1
  3
Standard
350
18
  0
DICTIONARY
  5
19
102
{ACAD_REACTORS
330
C
102
}
100
AcDbDictionary
281
1
  0
DICTIONARY
  5
1A
102
{ACAD_REACTORS
330
C
102
}
100
AcDbDictionary
281
1
  3
Model
350
6DB
  3
Layout1
350
6DC
  0
ACDBPLACEHOLDER
  5
F
102
{ACAD_REACTORS
330
E
102
}
  0
MLINESTYLE
  5
18
102
{ACAD_REACTORS
330
17
102
}
100
AcDbMlineStyle
  2
STANDARD
 70
0
  3

 62
256
 51
90.0
 52
90.0
 71
2
 49
0.5
 62
256
  6
BYLAYER
 49
-0.5
 62
256
  6
BYLAYER
  0
LAYOUT
  5
6DB
102
{ACAD_REACTORS
330
1A
102
}
100
AcDbPlotSettings
  1

  2
none_device
  4

  6

 40
0.0
 41
0.0
 42
0.0
 43
0.0
 44
1368.66137203
 45
1010.3770663855
 46
0.0
 47
0.0
 48
0.0
 49
0.0
140
0.0
141
0.0
142
1.0
143
1.0
 70
1024
 72
1
 73
0
 74
0
  7

 75
0
147
1.0
148
0.0
149
0.0
100
AcDbLayout
  1
Model
 70
0
 71
0
 10
0.0
 20
0.0
 11
1368.66137203
 21
1010.3770663855
 12
0.0
 22
0.0
 32
0.0
 14
0.0
 24
0.0
 34
0.0
 15
0.0
 25
0.0
 35
0.0
146
0.0
 13
0.0
 23
0.0
 33
0.0
 16
1.0
 26
0.0
 36
0.0
 17
0.0
 27
1.0
 37
0.0
 76
0
330
212
345
0
346
0
  0
LAYOUT
  5
6DC
102
{ACAD_REACTORS
330
1A
102
}
100
AcDbPlotSettings
  1

  2
none_device
  4

  6

 40
0.0
 41
0.0
 42
0.0
 43
0.0
 44
1368.66137203
 45
1010.3770663855
 46
0.0
 47
0.0
 48
0.0
 49
0.0
140
0.0
141
0.0
142
1.0
143
1.0
 70
0
 72
1
 73
0
 74
0
  7

 75
0
147
1.0
148
0.0
149
0.0
100
AcDbLayout
  1
Layout1
 70
0
 71
1
 10
0.0
 20
0.0
 11
1368.66137203
 21
1010.3770663855
 12
0.0
 22
0.0
 32
0.0
 14
0.0
 24
0.0
 34
0.0
 15
0.0
 25
0.0
 35
0.0
146
0.0
 13
0.0
 23
0.0
 33
0.0
 16
1.0
 26
0.0
 36
0.0
 17
0.0
 27
1.0
 37
0.0
 76
0
330
213
345
0
346
0
  0
ENDSEC
  0
EOF
