  0
SECTION
  2
HEADER
  9
$ACADVER
  1
AC1018
  9
$DWGCODEPAGE
  3
ANSI_1252
  9
$EXTMAX
 10
1315.1533480222
 20
1001.6687481472
 30
0.0
  9
$EXTMIN
 10
0.0
 20
0.0
 30
0.0
  9
$LIMMIN
 10
0.0
 20
0.0
  9
$LIMMAX
 10
1315.1533480222
 20
1001.6687481472
  9
$VIEWCTR
 10
657.5766740111
 20
500.8343740736
  9
$VIEWSIZE
 40
1001.6687481472
  9
$CLAYER
  8
0
  9
$LTSCALE
 40
72.3334341412
  9
$CELTYPE
  6
BYLAYER
  9
$DIMSCALE
 40
1.0
  9
$DIMASZ
 40
0.1875
  9
$DIMEXO
 40
8.2197084251
  9
$DIMDLI
 40
49.9758272248
  9
$DIMEXE
 40
23.6727602644
  9
$DIMCEN
 40
11.8363801322
  9
$DIMLFAC
 40
1.0
  9
$DIMBLK
  1
_CLOSED
  9
$DIMTXT
 40
0.15625
  9
$DIMTOL
 70
0
  9
$DIMLIM
 70
0
  9
$DIMTFAC
 40
1.0
  9
$PDMODE
 70
3
  9
$PDSIZE
 40
0.3125
  9
$HANDSEED
  5
711
  9
$TILEMODE
 70
1
  9
$MEASUREMENT
 70
1
  9
$INSUNITS
 70
4
  0
ENDSEC
  0
SECTION
  2
CLASSES
  0
CLASS
  1
ACDBDICTIONARYWDFLT
  2
AcDbDictionaryWithDefault
  3
AutoCAD 2000
 90
0
 91
1
280
0
281
0
  0
CLASS
  1
ACDBPLACEHOLDER
  2
AcDbPlaceHolder
  3
AutoCAD 2000
 90
0
 91
1
280
0
281
0
  0
CLASS
  1
LAYOUT
  2
AcDbLayout
  3
AutoCAD 2000
 90
0
 91
0
280
0
281
0
  0
ENDSEC
  0
SECTION
  2
TABLES
  0
TABLE
  2
VPORT
  5
8
100
AcDbSymbolTable
 70
2
  0
VPORT
  5
1F4
100
AcDbSymbolTableRecord
100
AcDbViewportTableRecord
  2
*ACTIVE
 70
0
 10
0.0
 20
0.0
 11
1.0
 21
1.0
 12
657.5766740111
 22
500.8343740736
 13
0.0
 23
0.0
 14
1.0
 24
1.0
 15
0.0
 25
0.0
 16
0.0
 26
0.0
 36
1.0
 17
0.0
 27
0.0
 37
0.0
 40
1001.6687481472
 41
1.3129623445
 42
50.0
 43
0.0
 44
0.0
 50
0.0
 51
0.0
 71
0
 72
100
 73
1
 74
1
 75
0
 76
0
 77
0
 78
0
  0
ENDTAB
  0
TABLE
  2
LTYPE
  5
5
100
AcDbSymbolTable
 70
6
  0
LTYPE
  5
14
100
AcDbSymbolTableRecord
100
AcDbLinetypeTableRecord
  2
BYBLOCK
 70
0
  3

 72
65
 73
0
 40
0.0
  0
LTYPE
  5
15
100
AcDbSymbolTableRecord
100
AcDbLinetypeTableRecord
  2
BYLAYER
 70
0
  3

 72
65
 73
0
 40
0.0
  0
LTYPE
  5
16
100
AcDbSymbolTableRecord
100
AcDbLinetypeTableRecord
  2
CONTINUOUS
 70
64
  3
Solid line
 72
65
 73
0
 40
0.0
  0
LTYPE
  5
1F5
100
AcDbSymbolTableRecord
100
AcDbLinetypeTableRecord
  2
CENTER
 70
64
  3
____ _ ____ _ ____ _ ____ _ ____ _ ____ _ ____
 72
65
 73
4
 40
0.6
 49
0.375
 74
0
 49
-0.075
 74
0
 49
0.075
 74
0
 49
-0.075
 74
0
  0
LTYPE
  5
1F6
100
AcDbSymbolTableRecord
100
AcDbLinetypeTableRecord
  2
HIDDEN
 70
64
  3
- - - - - - - - - - - - - - - - - - - -
 72
65
 73
2
 40
0.2
 49
0.1
 74
0
 49
-0.1
 74
0
  0
LTYPE
  5
1F7
100
AcDbSymbolTableRecord
100
AcDbLinetypeTableRecord
  2
PHANTOM
 70
64
  3
_____ _ _ _____ _ _ _____ _ _ _____
 72
65
 73
6
 40
0.8
 49
0.45
 74
0
 49
-0.05
 74
0
 49
0.1
 74
0
 49
-0.05
 74
0
 49
0.1
 74
0
 49
-0.05
 74
0
  0
LTYPE
  5
1F8
100
AcDbSymbolTableRecord
100
AcDbLinetypeTableRecord
  2
DOT
 70
64
  3
. . . . . . . . . . . . . . . . . . . .
 72
65
 73
2
 40
0.2
 49
0.1
 74
0
 49
-0.1
 74
0
  0
LTYPE
  5
1F9
100
AcDbSymbolTableRecord
100
AcDbLinetypeTableRecord
  2
DASHED
 70
64
  3
- - - - - - - - - - - - - - - - - - - -
 72
65
 73
2
 40
0.2
 49
0.1
 74
0
 49
-0.1
 74
0
  0
LTYPE
  5
1FA
100
AcDbSymbolTableRecord
100
AcDbLinetypeTableRecord
  2
SOLIDFONT
 70
64
  3
Solid line
 72
65
 73
0
 40
0.0
  0
LTYPE
  5
1FB
100
AcDbSymbolTableRecord
100
AcDbLinetypeTableRecord
  2
SOLIDFONT
 70
64
  3
Solid line
 72
65
 73
0
 40
0.0
  0
LTYPE
  5
1FC
100
AcDbSymbolTableRecord
100
AcDbLinetypeTableRecord
  2
SOLIDFONT
 70
64
  3
Solid line
 72
65
 73
0
 40
0.0
  0
LTYPE
  5
1FD
100
AcDbSymbolTableRecord
100
AcDbLinetypeTableRecord
  2
SOLIDFONT
 70
64
  3
Solid line
 72
65
 73
0
 40
0.0
  0
ENDTAB
  0
TABLE
  2
LAYER
  5
2
100
AcDbSymbolTable
 70
36
  0
LAYER
  5
10
100
AcDbSymbolTableRecord
100
AcDbLayerTableRecord
  2
0
 70
0
 62
7
  6
CONTINUOUS
370
-3
390
F
  0
LAYER
  5
1FE
100
AcDbSymbolTableRecord
100
AcDbLayerTableRecord
  2
DEFAULT_1
 70
0
 62
7
  6
CENTER
370
-3
390
F
  0
LAYER
  5
1FF
100
AcDbSymbolTableRecord
100
AcDbLayerTableRecord
  2
DEFAULT_2
 70
0
 62
8
  6
HIDDEN
370
-3
390
F
  0
LAYER
  5
200
100
AcDbSymbolTableRecord
100
AcDbLayerTableRecord
  2
DEFAULT_3
 70
0
 62
7
  6
PHANTOM
370
-3
390
F
  0
LAYER
  5
201
100
AcDbSymbolTableRecord
100
AcDbLayerTableRecord
  2
AM_12
 70
0
 62
7
  6
CONTINUOUS
370
-3
390
F
  0
LAYER
  5
202
100
AcDbSymbolTableRecord
100
AcDbLayerTableRecord
  2
AM_PAREF
 70
0
 62
7
  6
CONTINUOUS
370
-3
390
F
  0
LAYER
  5
203
100
AcDbSymbolTableRecord
100
AcDbLayerTableRecord
  2
AXIS
 70
0
 62
7
  6
CONTINUOUS
370
-3
390
F
  0
LAYER
  5
204
100
AcDbSymbolTableRecord
100
AcDbLayerTableRecord
  2
BASIC_DEVICE
 70
0
 62
7
  6
CONTINUOUS
370
-3
390
F
  0
LAYER
  5
205
100
AcDbSymbolTableRecord
100
AcDbLayerTableRecord
  2
DEVICE_FIXING_HOLES
 70
0
 62
7
  6
CONTINUOUS
370
-3
390
F
  0
LAYER
  5
206
100
AcDbSymbolTableRecord
100
AcDbLayerTableRecord
  2
Defpoints
 70
0
 62
7
  6
CONTINUOUS
290
0
370
-3
390
F
  0
LAYER
  5
207
100
AcDbSymbolTableRecord
100
AcDbLayerTableRecord
  2
HANDLE_FIXING_HOLES
 70
0
 62
7
  6
CONTINUOUS
370
-3
390
F
  0
LAYER
  5
208
100
AcDbSymbolTableRecord
100
AcDbLayerTableRecord
  2
H_EXTERN_HANDLE
 70
0
 62
7
  6
CONTINUOUS
370
-3
390
F
  0
LAYER
  5
209
100
AcDbSymbolTableRecord
100
AcDbLayerTableRecord
  2
H_MOVING
 70
0
 62
7
  6
CONTINUOUS
370
-3
390
F
  0
LAYER
  5
20A
100
AcDbSymbolTableRecord
100
AcDbLayerTableRecord
  2
INTER_PHASE_SCHIELDS
 70
0
 62
7
  6
CONTINUOUS
370
-3
390
F
  0
LAYER
  5
20B
100
AcDbSymbolTableRecord
100
AcDbLayerTableRecord
  2
POINT_D_ACCROCHAGE
 70
0
 62
7
  6
CONTINUOUS
370
-3
390
F
  0
LAYER
  5
20C
100
AcDbSymbolTableRecord
100
AcDbLayerTableRecord
  2
QUOTATION
 70
0
 62
7
  6
CONTINUOUS
370
-3
390
F
  0
LAYER
  5
20D
100
AcDbSymbolTableRecord
100
AcDbLayerTableRecord
  2
TERMINAL_SCHROUD
 70
0
 62
7
  6
CONTINUOUS
370
-3
390
F
  0
LAYER
  5
20E
100
AcDbSymbolTableRecord
100
AcDbLayerTableRecord
  2
TEXT
 70
0
 62
7
  6
CONTINUOUS
370
-3
390
F
  0
ENDTAB
  0
TABLE
  2
STYLE
  5
3
100
AcDbSymbolTable
 70
1
  0
STYLE
  5
11
100
AcDbSymbolTableRecord
100
AcDbTextStyleTableRecord
  2
STANDARD
 70
0
 40
0.0
 41
0.8
 50
0.0
 71
0
 42
0.2
  3
txt
  4

  0
STYLE
  5
20F
100
AcDbSymbolTableRecord
100
AcDbTextStyleTableRecord
  2
TEXTSTYLE_1
 70
0
 40
0.0
 41
0.8
 50
0.0
 71
0
 42
0.2
  3
gdt
  4

  0
STYLE
  5
210
100
AcDbSymbolTableRecord
100
AcDbTextStyleTableRecord
  2
TEXTSTYLE_2
 70
0
 40
0.0
 41
1.0
 50
0.0
 71
0
 42
0.2
  3
txt
  4

  0
STYLE
  5
211
100
AcDbSymbolTableRecord
100
AcDbTextStyleTableRecord
  2
TEXTSTYLE_3
 70
0
 40
0.0
 41
1.0
 50
0.0
 71
0
 42
0.2
  3
txt
  4

  0
ENDTAB
  0
TABLE
  2
VIEW
  5
6
100
AcDbSymbolTable
 70
0
  0
ENDTAB
  0
TABLE
  2
UCS
  5
7
100
AcDbSymbolTable
 70
0
  0
ENDTAB
  0
TABLE
  2
APPID
  5
9
100
AcDbSymbolTable
 70
1
  0
APPID
  5
212
100
AcDbSymbolTableRecord
100
AcDbRegAppTableRecord
  2
ACAD
 70
0
  0
ENDTAB
  0
TABLE
  2
BLOCK_RECORD
  5
1
100
AcDbSymbolTable
 70
0
  0
BLOCK_RECORD
  5
213
100
AcDbSymbolTableRecord
100
AcDbBlockTableRecord
  2
*Model_Space
  0
BLOCK_RECORD
  5
214
100
AcDbSymbolTableRecord
100
AcDbBlockTableRecord
  2
*Paper_Space
  0
BLOCK_RECORD
  5
215
100
AcDbSymbolTableRecord
100
AcDbBlockTableRecord
  2
_CLOSED
  0
BLOCK_RECORD
  5
216
100
AcDbSymbolTableRecord
100
AcDbBlockTableRecord
  2
*D0
  0
BLOCK_RECORD
  5
217
100
AcDbSymbolTableRecord
100
AcDbBlockTableRecord
  2
*D1
  0
BLOCK_RECORD
  5
218
100
AcDbSymbolTableRecord
100
AcDbBlockTableRecord
  2
*D2
  0
BLOCK_RECORD
  5
219
100
AcDbSymbolTableRecord
100
AcDbBlockTableRecord
  2
*D3
  0
BLOCK_RECORD
  5
21A
100
AcDbSymbolTableRecord
100
AcDbBlockTableRecord
  2
*D4
  0
BLOCK_RECORD
  5
21B
100
AcDbSymbolTableRecord
100
AcDbBlockTableRecord
  2
*D5
  0
BLOCK_RECORD
  5
21C
100
AcDbSymbolTableRecord
100
AcDbBlockTableRecord
  2
*D6
  0
BLOCK_RECORD
  5
21D
100
AcDbSymbolTableRecord
100
AcDbBlockTableRecord
  2
*D7
  0
BLOCK_RECORD
  5
21E
100
AcDbSymbolTableRecord
100
AcDbBlockTableRecord
  2
*D8
  0
BLOCK_RECORD
  5
21F
100
AcDbSymbolTableRecord
100
AcDbBlockTableRecord
  2
*D9
  0
BLOCK_RECORD
  5
220
100
AcDbSymbolTableRecord
100
AcDbBlockTableRecord
  2
*D10
  0
BLOCK_RECORD
  5
221
100
AcDbSymbolTableRecord
100
AcDbBlockTableRecord
  2
*D11
  0
BLOCK_RECORD
  5
222
100
AcDbSymbolTableRecord
100
AcDbBlockTableRecord
  2
*D12
  0
BLOCK_RECORD
  5
223
100
AcDbSymbolTableRecord
100
AcDbBlockTableRecord
  2
*D13
  0
BLOCK_RECORD
  5
224
100
AcDbSymbolTableRecord
100
AcDbBlockTableRecord
  2
*D14
  0
BLOCK_RECORD
  5
225
100
AcDbSymbolTableRecord
100
AcDbBlockTableRecord
  2
*D15
  0
BLOCK_RECORD
  5
226
100
AcDbSymbolTableRecord
100
AcDbBlockTableRecord
  2
*D16
  0
BLOCK_RECORD
  5
227
100
AcDbSymbolTableRecord
100
AcDbBlockTableRecord
  2
*D17
  0
BLOCK_RECORD
  5
228
100
AcDbSymbolTableRecord
100
AcDbBlockTableRecord
  2
*D18
  0
BLOCK_RECORD
  5
229
100
AcDbSymbolTableRecord
100
AcDbBlockTableRecord
  2
*D19
  0
BLOCK_RECORD
  5
22A
100
AcDbSymbolTableRecord
100
AcDbBlockTableRecord
  2
*D20
  0
BLOCK_RECORD
  5
22B
100
AcDbSymbolTableRecord
100
AcDbBlockTableRecord
  2
*D21
  0
BLOCK_RECORD
  5
22C
100
AcDbSymbolTableRecord
100
AcDbBlockTableRecord
  2
*D22
  0
BLOCK_RECORD
  5
22D
100
AcDbSymbolTableRecord
100
AcDbBlockTableRecord
  2
*D23
  0
BLOCK_RECORD
  5
22E
100
AcDbSymbolTableRecord
100
AcDbBlockTableRecord
  2
*D24
  0
ENDTAB
  0
TABLE
  2
DIMSTYLE
  5
A
100
AcDbSymbolTable
 70
1
100
AcDbDimStyleTable
 71
0
  0
DIMSTYLE
105
22F
100
AcDbSymbolTableRecord
100
AcDbDimStyleTableRecord
  2
STANDARD
 70
0
  3

  4

 40
1.0
 41
0.1875
 42
0.0625
 43
0.38
 44
0.18
 45
0.0
 46
0.0
 47
0.1
 48
0.1
140
0.15625
141
0.09
142
0.0
143
25.4
144
1.0
145
0.0
146
1.0
147
0.09
 71
0.0
 72
0.0
 73
1
 74
1
 75
0
 76
0
 77
0
 78
8
170
0
171
2
172
0
173
0
174
0
175
0
176
0
177
0
178
0
270
2
271
1
272
1
273
2
274
2
275
0
280
0
281
0
282
0
283
1
284
8
285
0
286
0
287
3
288
0
340
11
341
215
342
215
343
215
344
215
  0
DIMSTYLE
105
230
100
AcDbSymbolTableRecord
100
AcDbDimStyleTableRecord
  2
DIMSTYLE_1
 70
0
  3

  4

 40
1.0
 41
0.1875
 42
0.0625
 43
0.38
 44
0.18
 45
0.0
 46
0.0
 47
0.0
 48
0.0
140
7.0
141
0.09
142
0.0
143
25.4
144
1.0
145
0.0
146
1.0
147
0.09
 71
0.0
 72
0.0
 73
1
 74
1
 75
0
 76
0
 77
0
 78
8
170
0
171
2
172
0
173
0
174
0
175
0
176
0
177
0
178
0
270
2
271
1
272
1
273
2
274
2
275
0
280
0
281
0
282
0
283
1
284
8
285
0
286
0
287
3
288
0
340
11
341
215
342
215
343
215
344
215
  0
DIMSTYLE
105
231
100
AcDbSymbolTableRecord
100
AcDbDimStyleTableRecord
  2
DIMSTYLE_2
 70
0
  3

  4

 40
1.0
 41
0.1875
 42
0.0625
 43
0.38
 44
0.18
 45
0.0
 46
0.0
 47
0.0
 48
0.0
140
7.0
141
0.09
142
0.0
143
25.4
144
1.0
145
0.0
146
1.0
147
0.09
 71
0.0
 72
0.0
 73
1
 74
1
 75
0
 76
0
 77
0
 78
8
170
0
171
2
172
0
173
0
174
0
175
0
176
0
177
0
178
0
270
2
271
1
272
1
273
2
274
2
275
0
280
0
281
0
282
0
283
1
284
8
285
0
286
0
287
3
288
0
340
11
341
215
342
215
343
215
344
215
  0
ENDTAB
  0
ENDSEC
  0
SECTION
  2
BLOCKS
  0
BLOCK
  5
20
100
AcDbEntity
  8
0
100
AcDbBlockBegin
  2
*Model_Space
 70
0
 10
0.0
 20
0.0
 30
0.0
  3
*Model_Space
  1

  0
ENDBLK
  5
21
100
AcDbEntity
  8
0
100
AcDbBlockEnd
  0
BLOCK
  5
1C
100
AcDbEntity
  8
0
100
AcDbBlockBegin
  2
*Paper_Space
 70
0
 10
0.0
 20
0.0
 30
0.0
  3
*Paper_Space
  1

  0
ENDBLK
  5
1D
100
AcDbEntity
  8
0
100
AcDbBlockEnd
  0
BLOCK
  5
232
100
AcDbEntity
  8
0
100
AcDbBlockBegin
  2
_CLOSED
 70
64
 10
0.0
 20
0.0
  3
_CLOSED
  1

  0
LINE
  5
233
100
AcDbEntity
  8
0
  6
BYBLOCK
 62
0
100
AcDbLine
 10
0.0
 20
0.0
 11
-1.0
 21
0.1666666667
  0
LINE
  5
234
100
AcDbEntity
  8
0
  6
BYBLOCK
 62
0
100
AcDbLine
 10
-1.0
 20
0.1666666667
 11
-1.0
 21
-0.1666666667
  0
LINE
  5
235
100
AcDbEntity
  8
0
  6
BYBLOCK
 62
0
100
AcDbLine
 10
-1.0
 20
-0.1666666667
 11
0.0
 21
0.0
  0
LINE
  5
236
100
AcDbEntity
  8
0
  6
BYBLOCK
 62
0
100
AcDbLine
 10
-1.0
 20
0.0
 11
0.0
 21
0.0
  0
ENDBLK
  5
237
100
AcDbEntity
  8
0
  6
BYBLOCK
 62
0
100
AcDbBlockEnd
  0
BLOCK
  5
238
100
AcDbEntity
  8
QUOTATION
100
AcDbBlockBegin
 62
3
  6
CONTINUOUS
  2
*D0
 70
65
 10
0.0
 20
0.0
  3
*D0
  1

  0
MTEXT
  5
239
100
AcDbEntity
  8
QUOTATION
100
AcDbMText
 62
3
  6
CONTINUOUS
  7
STANDARD
 71
2
 72
1
 10
442.2677638499
 20
257.9089333001
 30
0.0
 11
1.0
 21
0.0
 31
0.0
 44
0.9
  1
175
 40
7.0
 41
16.8
  0
LINE
  5
23A
100
AcDbEntity
  8
QUOTATION
100
AcDbLine
 62
3
  6
CONTINUOUS
 10
488.0516418303
 20
163.4096339049
 11
442.1427638499
 21
163.4096339049
  0
LINE
  5
23B
100
AcDbEntity
  8
QUOTATION
100
AcDbLine
 62
3
  6
CONTINUOUS
 10
488.0516418303
 20
338.4096339049
 11
442.1427638499
 21
338.4096339049
  0
LINE
  5
23C
100
AcDbEntity
  8
QUOTATION
100
AcDbLine
 62
3
  6
CONTINUOUS
 10
442.2677638499
 20
163.4096339049
 11
442.2677638499
 21
247.4089333001
  0
LINE
  5
23D
100
AcDbEntity
  8
QUOTATION
100
AcDbLine
 62
3
  6
CONTINUOUS
 10
442.2677638499
 20
338.4096339049
 11
442.2677638499
 21
261.4089333001
  0
INSERT
  5
23E
100
AcDbEntity
  8
QUOTATION
100
AcDbBlockReference
 62
3
  6
CONTINUOUS
  2
_CLOSED
 10
442.2677638499
 20
163.4096339049
 41
0.1875
 42
0.1875
 43
0.1875
 50
270.0
  0
INSERT
  5
23F
100
AcDbEntity
  8
QUOTATION
100
AcDbBlockReference
 62
3
  6
CONTINUOUS
  2
_CLOSED
 10
442.2677638499
 20
338.4096339049
 41
0.1875
 42
0.1875
 43
0.1875
 50
90.0
  0
ENDBLK
  5
240
100
AcDbEntity
  8
0
  6
BYBLOCK
 62
0
100
AcDbBlockEnd
  0
BLOCK
  5
241
100
AcDbEntity
  8
QUOTATION
100
AcDbBlockBegin
 62
3
  6
CONTINUOUS
  2
*D1
 70
65
 10
0.0
 20
0.0
  3
*D1
  1

  0
MTEXT
  5
242
100
AcDbEntity
  8
QUOTATION
100
AcDbMText
 62
3
  6
CONTINUOUS
  7
STANDARD
 71
2
 72
1
 10
407.4430625219
 20
256.3298071281
 30
0.0
 11
1.0
 21
0.0
 31
0.0
 44
0.9
  1
200
 40
7.0
 41
16.8
  0
LINE
  5
243
100
AcDbEntity
  8
QUOTATION
100
AcDbLine
 62
3
  6
CONTINUOUS
 10
475.5516418303
 20
150.9096339049
 11
407.3180625219
 21
150.9096339049
  0
LINE
  5
244
100
AcDbEntity
  8
QUOTATION
100
AcDbLine
 62
3
  6
CONTINUOUS
 10
475.5516418303
 20
350.9096339049
 11
407.3180625219
 21
350.9096339049
  0
LINE
  5
245
100
AcDbEntity
  8
QUOTATION
100
AcDbLine
 62
3
  6
CONTINUOUS
 10
407.4430625219
 20
150.9096339049
 11
407.4430625219
 21
245.8298071281
  0
LINE
  5
246
100
AcDbEntity
  8
QUOTATION
100
AcDbLine
 62
3
  6
CONTINUOUS
 10
407.4430625219
 20
350.9096339049
 11
407.4430625219
 21
259.8298071281
  0
INSERT
  5
247
100
AcDbEntity
  8
QUOTATION
100
AcDbBlockReference
 62
3
  6
CONTINUOUS
  2
_CLOSED
 10
407.4430625219
 20
150.9096339049
 41
0.1875
 42
0.1875
 43
0.1875
 50
270.0
  0
INSERT
  5
248
100
AcDbEntity
  8
QUOTATION
100
AcDbBlockReference
 62
3
  6
CONTINUOUS
  2
_CLOSED
 10
407.4430625219
 20
350.9096339049
 41
0.1875
 42
0.1875
 43
0.1875
 50
90.0
  0
ENDBLK
  5
249
100
AcDbEntity
  8
0
  6
BYBLOCK
 62
0
100
AcDbBlockEnd
  0
BLOCK
  5
24A
100
AcDbEntity
  8
QUOTATION
100
AcDbBlockBegin
 62
3
  6
CONTINUOUS
  2
*D2
 70
65
 10
0.0
 20
0.0
  3
*D2
  1

  0
MTEXT
  5
24B
100
AcDbEntity
  8
QUOTATION
100
AcDbMText
 62
3
  6
CONTINUOUS
  7
STANDARD
 71
2
 72
1
 10
407.4430625219
 20
390.4092836025
 30
0.0
 11
1.0
 21
0.0
 31
0.0
 44
0.9
  1
65
 40
7.0
 41
11.2
  0
LINE
  5
24C
100
AcDbEntity
  8
QUOTATION
100
AcDbLine
 62
3
  6
CONTINUOUS
 10
475.5516418303
 20
350.9096339049
 11
407.3180625219
 21
350.9096339049
  0
LINE
  5
24D
100
AcDbEntity
  8
QUOTATION
100
AcDbLine
 62
3
  6
CONTINUOUS
 10
508.5516418303
 20
415.9089333001
 11
407.3180625219
 21
415.9089333001
  0
LINE
  5
24E
100
AcDbEntity
  8
QUOTATION
100
AcDbLine
 62
3
  6
CONTINUOUS
 10
407.4430625219
 20
350.9096339049
 11
407.4430625219
 21
379.9092836025
  0
LINE
  5
24F
100
AcDbEntity
  8
QUOTATION
100
AcDbLine
 62
3
  6
CONTINUOUS
 10
407.4430625219
 20
415.9089333001
 11
407.4430625219
 21
393.9092836025
  0
INSERT
  5
250
100
AcDbEntity
  8
QUOTATION
100
AcDbBlockReference
 62
3
  6
CONTINUOUS
  2
_CLOSED
 10
407.4430625219
 20
350.9096339049
 41
0.1875
 42
0.1875
 43
0.1875
 50
270.0
  0
INSERT
  5
251
100
AcDbEntity
  8
QUOTATION
100
AcDbBlockReference
 62
3
  6
CONTINUOUS
  2
_CLOSED
 10
407.4430625219
 20
415.9089333001
 41
0.1875
 42
0.1875
 43
0.1875
 50
90.0
  0
ENDBLK
  5
252
100
AcDbEntity
  8
0
  6
BYBLOCK
 62
0
100
AcDbBlockEnd
  0
BLOCK
  5
253
100
AcDbEntity
  8
QUOTATION
100
AcDbBlockBegin
 62
3
  6
CONTINUOUS
  2
*D3
 70
65
 10
0.0
 20
0.0
  3
*D3
  1

  0
MTEXT
  5
254
100
AcDbEntity
  8
QUOTATION
100
AcDbMText
 62
3
  6
CONTINUOUS
  7
STANDARD
 71
2
 72
1
 10
407.4430625219
 20
455.6592836025
 30
0.0
 11
1.0
 21
0.0
 31
0.0
 44
0.9
  1
65.5
 40
7.0
 41
22.4
  0
LINE
  5
255
100
AcDbEntity
  8
QUOTATION
100
AcDbLine
 62
3
  6
CONTINUOUS
 10
508.5516418303
 20
415.9089333001
 11
407.3180625219
 21
415.9089333001
  0
LINE
  5
256
100
AcDbEntity
  8
QUOTATION
100
AcDbLine
 62
3
  6
CONTINUOUS
 10
480.5516418303
 20
481.4096339049
 11
407.3180625219
 21
481.4096339049
  0
LINE
  5
257
100
AcDbEntity
  8
QUOTATION
100
AcDbLine
 62
3
  6
CONTINUOUS
 10
407.4430625219
 20
415.9089333001
 11
407.4430625219
 21
445.1592836025
  0
LINE
  5
258
100
AcDbEntity
  8
QUOTATION
100
AcDbLine
 62
3
  6
CONTINUOUS
 10
407.4430625219
 20
481.4096339049
 11
407.4430625219
 21
459.1592836025
  0
INSERT
  5
259
100
AcDbEntity
  8
QUOTATION
100
AcDbBlockReference
 62
3
  6
CONTINUOUS
  2
_CLOSED
 10
407.4430625219
 20
415.9089333001
 41
0.1875
 42
0.1875
 43
0.1875
 50
270.0
  0
INSERT
  5
25A
100
AcDbEntity
  8
QUOTATION
100
AcDbBlockReference
 62
3
  6
CONTINUOUS
  2
_CLOSED
 10
407.4430625219
 20
481.4096339049
 41
0.1875
 42
0.1875
 43
0.1875
 50
90.0
  0
ENDBLK
  5
25B
100
AcDbEntity
  8
0
  6
BYBLOCK
 62
0
100
AcDbBlockEnd
  0
BLOCK
  5
25C
100
AcDbEntity
  8
QUOTATION
100
AcDbBlockBegin
 62
3
  6
CONTINUOUS
  2
*D4
 70
65
 10
0.0
 20
0.0
  3
*D4
  1

  0
MTEXT
  5
25D
100
AcDbEntity
  8
QUOTATION
100
AcDbMText
 62
3
  6
CONTINUOUS
  7
STANDARD
 71
2
 72
1
 10
777.6501462872
 20
548.776563749
 30
0.0
 11
1.0
 21
0.0
 31
0.0
 44
0.9
  1
467
 40
7.0
 41
16.8
  0
LINE
  5
25E
100
AcDbEntity
  8
QUOTATION
100
AcDbLine
 62
3
  6
CONTINUOUS
 10
488.1766418303
 20
338.5346339049
 11
488.1766418303
 21
545.401563749
  0
LINE
  5
25F
100
AcDbEntity
  8
QUOTATION
100
AcDbLine
 62
3
  6
CONTINUOUS
 10
955.1766418346
 20
338.5339333001
 11
955.1766418346
 21
545.401563749
  0
LINE
  5
260
100
AcDbEntity
  8
QUOTATION
100
AcDbLine
 62
3
  6
CONTINUOUS
 10
488.1766418303
 20
545.276563749
 11
765.7501462872
 21
545.276563749
  0
LINE
  5
261
100
AcDbEntity
  8
QUOTATION
100
AcDbLine
 62
3
  6
CONTINUOUS
 10
955.1766418346
 20
545.276563749
 11
789.5501462872
 21
545.276563749
  0
INSERT
  5
262
100
AcDbEntity
  8
QUOTATION
100
AcDbBlockReference
 62
3
  6
CONTINUOUS
  2
_CLOSED
 10
488.1766418303
 20
545.276563749
 41
0.1875
 42
0.1875
 43
0.1875
 50
180.0
  0
INSERT
  5
263
100
AcDbEntity
  8
QUOTATION
100
AcDbBlockReference
 62
3
  6
CONTINUOUS
  2
_CLOSED
 10
955.1766418346
 20
545.276563749
 41
0.1875
 42
0.1875
 43
0.1875
  0
ENDBLK
  5
264
100
AcDbEntity
  8
0
  6
BYBLOCK
 62
0
100
AcDbBlockEnd
  0
BLOCK
  5
265
100
AcDbEntity
  8
QUOTATION
100
AcDbBlockBegin
 62
3
  6
CONTINUOUS
  2
*D5
 70
65
 10
0.0
 20
0.0
  3
*D5
  1

  0
MTEXT
  5
266
100
AcDbEntity
  8
QUOTATION
100
AcDbMText
 62
3
  6
CONTINUOUS
  7
STANDARD
 71
2
 72
1
 10
510.2766418303
 20
53.4089333001
 30
0.0
 11
1.0
 21
0.0
 31
0.0
 44
0.9
  1
47
 40
7.0
 41
11.2
  0
LINE
  5
267
100
AcDbEntity
  8
QUOTATION
100
AcDbLine
 62
3
  6
CONTINUOUS
 10
488.1766418303
 20
163.2846339049
 11
488.1766418303
 21
49.7839333001
  0
LINE
  5
268
100
AcDbEntity
  8
QUOTATION
100
AcDbLine
 62
3
  6
CONTINUOUS
 10
535.1766418303
 20
85.7839333001
 11
535.1766418303
 21
49.7839333001
  0
LINE
  5
269
100
AcDbEntity
  8
QUOTATION
100
AcDbLine
 62
3
  6
CONTINUOUS
 10
488.1766418303
 20
49.9089333001
 11
501.1766418303
 21
49.9089333001
  0
LINE
  5
26A
100
AcDbEntity
  8
QUOTATION
100
AcDbLine
 62
3
  6
CONTINUOUS
 10
535.1766418303
 20
49.9089333001
 11
519.3766418303
 21
49.9089333001
  0
INSERT
  5
26B
100
AcDbEntity
  8
QUOTATION
100
AcDbBlockReference
 62
3
  6
CONTINUOUS
  2
_CLOSED
 10
488.1766418303
 20
49.9089333001
 41
0.1875
 42
0.1875
 43
0.1875
 50
180.0
  0
INSERT
  5
26C
100
AcDbEntity
  8
QUOTATION
100
AcDbBlockReference
 62
3
  6
CONTINUOUS
  2
_CLOSED
 10
535.1766418303
 20
49.9089333001
 41
0.1875
 42
0.1875
 43
0.1875
  0
ENDBLK
  5
26D
100
AcDbEntity
  8
0
  6
BYBLOCK
 62
0
100
AcDbBlockEnd
  0
BLOCK
  5
26E
100
AcDbEntity
  8
QUOTATION
100
AcDbBlockBegin
 62
3
  6
CONTINUOUS
  2
*D6
 70
65
 10
0.0
 20
0.0
  3
*D6
  1

  0
MTEXT
  5
26F
100
AcDbEntity
  8
QUOTATION
100
AcDbMText
 62
3
  6
CONTINUOUS
  7
STANDARD
 71
2
 72
1
 10
593.0766418303
 20
53.4089333001
 30
0.0
 11
1.0
 21
0.0
 31
0.0
 44
0.9
  1
120
 40
7.0
 41
16.8
  0
LINE
  5
270
100
AcDbEntity
  8
QUOTATION
100
AcDbLine
 62
3
  6
CONTINUOUS
 10
535.1766418303
 20
85.7839333001
 11
535.1766418303
 21
49.7839333001
  0
LINE
  5
271
100
AcDbEntity
  8
QUOTATION
100
AcDbLine
 62
3
  6
CONTINUOUS
 10
655.1766418303
 20
85.7839333001
 11
655.1766418303
 21
49.7839333001
  0
LINE
  5
272
100
AcDbEntity
  8
QUOTATION
100
AcDbLine
 62
3
  6
CONTINUOUS
 10
535.1766418303
 20
49.9089333001
 11
581.1766418303
 21
49.9089333001
  0
LINE
  5
273
100
AcDbEntity
  8
QUOTATION
100
AcDbLine
 62
3
  6
CONTINUOUS
 10
655.1766418303
 20
49.9089333001
 11
604.9766418303
 21
49.9089333001
  0
INSERT
  5
274
100
AcDbEntity
  8
QUOTATION
100
AcDbBlockReference
 62
3
  6
CONTINUOUS
  2
_CLOSED
 10
535.1766418303
 20
49.9089333001
 41
0.1875
 42
0.1875
 43
0.1875
 50
180.0
  0
INSERT
  5
275
100
AcDbEntity
  8
QUOTATION
100
AcDbBlockReference
 62
3
  6
CONTINUOUS
  2
_CLOSED
 10
655.1766418303
 20
49.9089333001
 41
0.1875
 42
0.1875
 43
0.1875
  0
ENDBLK
  5
276
100
AcDbEntity
  8
0
  6
BYBLOCK
 62
0
100
AcDbBlockEnd
  0
BLOCK
  5
277
100
AcDbEntity
  8
QUOTATION
100
AcDbBlockBegin
 62
3
  6
CONTINUOUS
  2
*D7
 70
65
 10
0.0
 20
0.0
  3
*D7
  1

  0
MTEXT
  5
278
100
AcDbEntity
  8
QUOTATION
100
AcDbMText
 62
3
  6
CONTINUOUS
  7
STANDARD
 71
2
 72
1
 10
601.4266418303
 20
514.8445523577
 30
0.0
 11
1.0
 21
0.0
 31
0.0
 44
0.9
  1
233.5
 40
7.0
 41
28.0
  0
LINE
  5
279
100
AcDbEntity
  8
QUOTATION
100
AcDbLine
 62
3
  6
CONTINUOUS
 10
488.1766418303
 20
338.5346339049
 11
488.1766418303
 21
511.4695523577
  0
LINE
  5
27A
100
AcDbEntity
  8
QUOTATION
100
AcDbLine
 62
3
  6
CONTINUOUS
 10
721.6766418303
 20
279.0339333001
 11
721.6766418303
 21
511.4695523577
  0
LINE
  5
27B
100
AcDbEntity
  8
QUOTATION
100
AcDbLine
 62
3
  6
CONTINUOUS
 10
488.1766418303
 20
511.3445523577
 11
583.9266418303
 21
511.3445523577
  0
LINE
  5
27C
100
AcDbEntity
  8
QUOTATION
100
AcDbLine
 62
3
  6
CONTINUOUS
 10
721.6766418303
 20
511.3445523577
 11
618.9266418303
 21
511.3445523577
  0
INSERT
  5
27D
100
AcDbEntity
  8
QUOTATION
100
AcDbBlockReference
 62
3
  6
CONTINUOUS
  2
_CLOSED
 10
488.1766418303
 20
511.3445523577
 41
0.1875
 42
0.1875
 43
0.1875
 50
180.0
  0
INSERT
  5
27E
100
AcDbEntity
  8
QUOTATION
100
AcDbBlockReference
 62
3
  6
CONTINUOUS
  2
_CLOSED
 10
721.6766418303
 20
511.3445523577
 41
0.1875
 42
0.1875
 43
0.1875
  0
ENDBLK
  5
27F
100
AcDbEntity
  8
0
  6
BYBLOCK
 62
0
100
AcDbBlockEnd
  0
BLOCK
  5
280
100
AcDbEntity
  8
QUOTATION
100
AcDbBlockBegin
 62
3
  6
CONTINUOUS
  2
*D8
 70
65
 10
0.0
 20
0.0
  3
*D8
  1

  0
MTEXT
  5
281
100
AcDbEntity
  8
QUOTATION
100
AcDbMText
 62
3
  6
CONTINUOUS
  7
STANDARD
 71
2
 72
1
 10
1024.5773212462
 20
315.6589333001
 30
0.0
 11
1.0
 21
0.0
 31
0.0
 44
0.9
  1
59.5
 40
7.0
 41
22.4
  0
LINE
  5
282
100
AcDbEntity
  8
QUOTATION
100
AcDbLine
 62
3
  6
CONTINUOUS
 10
955.3016418346
 20
338.4089333001
 11
1024.7023212462
 21
338.4089333001
  0
LINE
  5
283
100
AcDbEntity
  8
QUOTATION
100
AcDbLine
 62
3
  6
CONTINUOUS
 10
911.8100662581
 20
278.9089333001
 11
1024.7023212462
 21
278.9089333001
  0
LINE
  5
284
100
AcDbEntity
  8
QUOTATION
100
AcDbLine
 62
3
  6
CONTINUOUS
 10
1024.5773212462
 20
338.4089333001
 11
1024.5773212462
 21
319.1589333001
  0
LINE
  5
285
100
AcDbEntity
  8
QUOTATION
100
AcDbLine
 62
3
  6
CONTINUOUS
 10
1024.5773212462
 20
278.9089333001
 11
1024.5773212462
 21
305.1589333001
  0
INSERT
  5
286
100
AcDbEntity
  8
QUOTATION
100
AcDbBlockReference
 62
3
  6
CONTINUOUS
  2
_CLOSED
 10
1024.5773212462
 20
338.4089333001
 41
0.1875
 42
0.1875
 43
0.1875
 50
90.0
  0
INSERT
  5
287
100
AcDbEntity
  8
QUOTATION
100
AcDbBlockReference
 62
3
  6
CONTINUOUS
  2
_CLOSED
 10
1024.5773212462
 20
278.9089333001
 41
0.1875
 42
0.1875
 43
0.1875
 50
270.0
  0
ENDBLK
  5
288
100
AcDbEntity
  8
0
  6
BYBLOCK
 62
0
100
AcDbBlockEnd
  0
BLOCK
  5
289
100
AcDbEntity
  8
QUOTATION
100
AcDbBlockBegin
 62
3
  6
CONTINUOUS
  2
*D9
 70
65
 10
0.0
 20
0.0
  3
*D9
  1

  0
MTEXT
  5
28A
100
AcDbEntity
  8
QUOTATION
100
AcDbMText
 62
3
  6
CONTINUOUS
  7
TEXTSTYLE_1
 71
2
 72
1
 10
1008.6455400912
 20
362.2040159897
 30
0.0
 11
1.0
 21
0.0
 31
0.0
 44
0.9
  1
{\Fgdt;n}\Ftxt;9
 40
7.0
 41
14.9333333333
  0
LINE
  5
28B
100
AcDbEntity
  8
QUOTATION
100
AcDbLine
 62
3
  6
CONTINUOUS
 10
958.8999896931
 20
340.9361216041
 11
985.0777190715
 21
358.7040159897
  0
LINE
  5
28C
100
AcDbEntity
  8
QUOTATION
100
AcDbLine
 62
3
  6
CONTINUOUS
 10
985.0777190715
 20
358.7040159897
 11
997.6788734245
 21
358.7040159897
  0
INSERT
  5
28D
100
AcDbEntity
  8
QUOTATION
100
AcDbBlockReference
 62
3
  6
CONTINUOUS
  2
_CLOSED
 10
958.8999896931
 20
340.9361216041
 41
0.1875
 42
0.1875
 43
0.1875
 50
214.1663407974
  0
ENDBLK
  5
28E
100
AcDbEntity
  8
0
  6
BYBLOCK
 62
0
100
AcDbBlockEnd
  0
BLOCK
  5
28F
100
AcDbEntity
  8
QUOTATION
100
AcDbBlockBegin
 62
3
  6
CONTINUOUS
  2
*D10
 70
65
 10
0.0
 20
0.0
  3
*D10
  1

  0
MTEXT
  5
290
100
AcDbEntity
  8
QUOTATION
100
AcDbMText
 62
3
  6
CONTINUOUS
  7
STANDARD
 71
2
 72
1
 10
328.560730774
 20
503.2556820153
 30
0.0
 11
1.0
 21
0.0
 31
0.0
 44
0.9
  1
47
 40
7.0
 41
11.2
  0
LINE
  5
291
100
AcDbEntity
  8
QUOTATION
100
AcDbLine
 62
3
  6
CONTINUOUS
 10
353.460730774
 20
351.0339333001
 11
353.460730774
 21
499.8806820153
  0
LINE
  5
292
100
AcDbEntity
  8
QUOTATION
100
AcDbLine
 62
3
  6
CONTINUOUS
 10
306.460730774
 20
416.0339333001
 11
306.460730774
 21
499.8806820153
  0
LINE
  5
293
100
AcDbEntity
  8
QUOTATION
100
AcDbLine
 62
3
  6
CONTINUOUS
 10
353.460730774
 20
499.7556820153
 11
337.660730774
 21
499.7556820153
  0
LINE
  5
294
100
AcDbEntity
  8
QUOTATION
100
AcDbLine
 62
3
  6
CONTINUOUS
 10
306.460730774
 20
499.7556820153
 11
319.460730774
 21
499.7556820153
  0
INSERT
  5
295
100
AcDbEntity
  8
QUOTATION
100
AcDbBlockReference
 62
3
  6
CONTINUOUS
  2
_CLOSED
 10
353.460730774
 20
499.7556820153
 41
0.1875
 42
0.1875
 43
0.1875
  0
INSERT
  5
296
100
AcDbEntity
  8
QUOTATION
100
AcDbBlockReference
 62
3
  6
CONTINUOUS
  2
_CLOSED
 10
306.460730774
 20
499.7556820153
 41
0.1875
 42
0.1875
 43
0.1875
 50
180.0
  0
ENDBLK
  5
297
100
AcDbEntity
  8
0
  6
BYBLOCK
 62
0
100
AcDbBlockEnd
  0
BLOCK
  5
298
100
AcDbEntity
  8
QUOTATION
100
AcDbBlockBegin
 62
3
  6
CONTINUOUS
  2
*D11
 70
65
 10
0.0
 20
0.0
  3
*D11
  1

  0
MTEXT
  5
299
100
AcDbEntity
  8
QUOTATION
100
AcDbMText
 62
3
  6
CONTINUOUS
  7
STANDARD
 71
2
 72
1
 10
291.360730774
 20
465.5919926153
 30
0.0
 11
1.0
 21
0.0
 31
0.0
 44
0.9
  1
7
 40
7.0
 41
5.6
  0
LINE
  5
29A
100
AcDbEntity
  8
QUOTATION
100
AcDbLine
 62
3
  6
CONTINUOUS
 10
313.460730774
 20
416.0339333001
 11
313.460730774
 21
462.2169926153
  0
LINE
  5
29B
100
AcDbEntity
  8
QUOTATION
100
AcDbLine
 62
3
  6
CONTINUOUS
 10
306.460730774
 20
416.0339333001
 11
306.460730774
 21
462.2169926153
  0
LINE
  5
29C
100
AcDbEntity
  8
QUOTATION
100
AcDbLine
 62
3
  6
CONTINUOUS
 10
313.460730774
 20
462.0919926153
 11
313.960730774
 21
462.0919926153
  0
LINE
  5
29D
100
AcDbEntity
  8
QUOTATION
100
AcDbLine
 62
3
  6
CONTINUOUS
 10
306.460730774
 20
462.0919926153
 11
297.660730774
 21
462.0919926153
  0
INSERT
  5
29E
100
AcDbEntity
  8
QUOTATION
100
AcDbBlockReference
 62
3
  6
CONTINUOUS
  2
_CLOSED
 10
313.460730774
 20
462.0919926153
 41
0.1875
 42
0.1875
 43
0.1875
 50
180.0
  0
INSERT
  5
29F
100
AcDbEntity
  8
QUOTATION
100
AcDbBlockReference
 62
3
  6
CONTINUOUS
  2
_CLOSED
 10
306.460730774
 20
462.0919926153
 41
0.1875
 42
0.1875
 43
0.1875
  0
ENDBLK
  5
2A0
100
AcDbEntity
  8
0
  6
BYBLOCK
 62
0
100
AcDbBlockEnd
  0
BLOCK
  5
2A1
100
AcDbEntity
  8
QUOTATION
100
AcDbBlockBegin
 62
3
  6
CONTINUOUS
  2
*D12
 70
65
 10
0.0
 20
0.0
  3
*D12
  1

  0
MTEXT
  5
2A2
100
AcDbEntity
  8
QUOTATION
100
AcDbMText
 62
3
  6
CONTINUOUS
  7
STANDARD
 71
2
 72
1
 10
281.360730774
 20
531.9079252067
 30
0.0
 11
1.0
 21
0.0
 31
0.0
 44
0.9
  1
140
 40
7.0
 41
16.8
  0
LINE
  5
2A3
100
AcDbEntity
  8
QUOTATION
100
AcDbLine
 62
3
  6
CONTINUOUS
 10
353.460730774
 20
351.0339333001
 11
353.460730774
 21
528.5329252067
  0
LINE
  5
2A4
100
AcDbEntity
  8
QUOTATION
100
AcDbLine
 62
3
  6
CONTINUOUS
 10
213.460730774
 20
351.0339333001
 11
213.460730774
 21
528.5329252067
  0
LINE
  5
2A5
100
AcDbEntity
  8
QUOTATION
100
AcDbLine
 62
3
  6
CONTINUOUS
 10
353.460730774
 20
528.4079252067
 11
293.260730774
 21
528.4079252067
  0
LINE
  5
2A6
100
AcDbEntity
  8
QUOTATION
100
AcDbLine
 62
3
  6
CONTINUOUS
 10
213.460730774
 20
528.4079252067
 11
269.460730774
 21
528.4079252067
  0
INSERT
  5
2A7
100
AcDbEntity
  8
QUOTATION
100
AcDbBlockReference
 62
3
  6
CONTINUOUS
  2
_CLOSED
 10
353.460730774
 20
528.4079252067
 41
0.1875
 42
0.1875
 43
0.1875
  0
INSERT
  5
2A8
100
AcDbEntity
  8
QUOTATION
100
AcDbBlockReference
 62
3
  6
CONTINUOUS
  2
_CLOSED
 10
213.460730774
 20
528.4079252067
 41
0.1875
 42
0.1875
 43
0.1875
 50
180.0
  0
ENDBLK
  5
2A9
100
AcDbEntity
  8
0
  6
BYBLOCK
 62
0
100
AcDbBlockEnd
  0
BLOCK
  5
2AA
100
AcDbEntity
  8
QUOTATION
100
AcDbBlockBegin
 62
3
  6
CONTINUOUS
  2
*D13
 70
65
 10
0.0
 20
0.0
  3
*D13
  1

  0
MTEXT
  5
2AB
100
AcDbEntity
  8
QUOTATION
100
AcDbMText
 62
3
  6
CONTINUOUS
  7
STANDARD
 71
2
 72
1
 10
245.360730774
 20
558.172480343
 30
0.0
 11
1.0
 21
0.0
 31
0.0
 44
0.9
  1
212
 40
7.0
 41
16.8
  0
LINE
  5
2AC
100
AcDbEntity
  8
QUOTATION
100
AcDbLine
 62
3
  6
CONTINUOUS
 10
353.460730774
 20
351.0339333001
 11
353.460730774
 21
554.797480343
  0
LINE
  5
2AD
100
AcDbEntity
  8
QUOTATION
100
AcDbLine
 62
3
  6
CONTINUOUS
 10
141.460730774
 20
319.0339333001
 11
141.460730774
 21
554.797480343
  0
LINE
  5
2AE
100
AcDbEntity
  8
QUOTATION
100
AcDbLine
 62
3
  6
CONTINUOUS
 10
353.460730774
 20
554.672480343
 11
257.260730774
 21
554.672480343
  0
LINE
  5
2AF
100
AcDbEntity
  8
QUOTATION
100
AcDbLine
 62
3
  6
CONTINUOUS
 10
141.460730774
 20
554.672480343
 11
233.460730774
 21
554.672480343
  0
INSERT
  5
2B0
100
AcDbEntity
  8
QUOTATION
100
AcDbBlockReference
 62
3
  6
CONTINUOUS
  2
_CLOSED
 10
353.460730774
 20
554.672480343
 41
0.1875
 42
0.1875
 43
0.1875
  0
INSERT
  5
2B1
100
AcDbEntity
  8
QUOTATION
100
AcDbBlockReference
 62
3
  6
CONTINUOUS
  2
_CLOSED
 10
141.460730774
 20
554.672480343
 41
0.1875
 42
0.1875
 43
0.1875
 50
180.0
  0
ENDBLK
  5
2B2
100
AcDbEntity
  8
0
  6
BYBLOCK
 62
0
100
AcDbBlockEnd
  0
BLOCK
  5
2B3
100
AcDbEntity
  8
QUOTATION
100
AcDbBlockBegin
 62
3
  6
CONTINUOUS
  2
*D14
 70
65
 10
0.0
 20
0.0
  3
*D14
  1

  0
MTEXT
  5
2B4
100
AcDbEntity
  8
QUOTATION
100
AcDbMText
 62
3
  6
CONTINUOUS
  7
STANDARD
 71
2
 72
1
 10
92.060730774
 20
558.172480343
 30
0.0
 11
1.0
 21
0.0
 31
0.0
 44
0.9
  1
96
 40
7.0
 41
11.2
  0
LINE
  5
2B5
100
AcDbEntity
  8
QUOTATION
100
AcDbLine
 62
3
  6
CONTINUOUS
 10
141.460730774
 20
319.0339333001
 11
141.460730774
 21
554.797480343
  0
LINE
  5
2B6
100
AcDbEntity
  8
QUOTATION
100
AcDbLine
 62
3
  6
CONTINUOUS
 10
45.460730774
 20
279.0339333001
 11
45.460730774
 21
554.797480343
  0
LINE
  5
2B7
100
AcDbEntity
  8
QUOTATION
100
AcDbLine
 62
3
  6
CONTINUOUS
 10
141.460730774
 20
554.672480343
 11
101.160730774
 21
554.672480343
  0
LINE
  5
2B8
100
AcDbEntity
  8
QUOTATION
100
AcDbLine
 62
3
  6
CONTINUOUS
 10
45.460730774
 20
554.672480343
 11
82.960730774
 21
554.672480343
  0
INSERT
  5
2B9
100
AcDbEntity
  8
QUOTATION
100
AcDbBlockReference
 62
3
  6
CONTINUOUS
  2
_CLOSED
 10
141.460730774
 20
554.672480343
 41
0.1875
 42
0.1875
 43
0.1875
  0
INSERT
  5
2BA
100
AcDbEntity
  8
QUOTATION
100
AcDbBlockReference
 62
3
  6
CONTINUOUS
  2
_CLOSED
 10
45.460730774
 20
554.672480343
 41
0.1875
 42
0.1875
 43
0.1875
 50
180.0
  0
ENDBLK
  5
2BB
100
AcDbEntity
  8
0
  6
BYBLOCK
 62
0
100
AcDbBlockEnd
  0
BLOCK
  5
2BC
100
AcDbEntity
  8
QUOTATION
100
AcDbBlockBegin
 62
3
  6
CONTINUOUS
  2
*D15
 70
65
 10
0.0
 20
0.0
  3
*D15
  1

  0
MTEXT
  5
2BD
100
AcDbEntity
  8
QUOTATION
100
AcDbMText
 62
3
  6
CONTINUOUS
  7
STANDARD
 71
2
 72
1
 10
1264.4816598165
 20
346.4817750695
 30
0.0
 11
1.0
 21
0.0
 31
0.0
 44
0.9
  1
4x \Fgdt;{\Fgdt;n}\Ftxt;4.5
 40
7.0
 41
42.9333333333
  0
LINE
  5
2BE
100
AcDbEntity
  8
QUOTATION
100
AcDbLine
 62
3
  6
CONTINUOUS
 10
1177.4609220159
 20
305.6927928738
 11
1206.1250436562
 21
342.9817750695
  0
LINE
  5
2BF
100
AcDbEntity
  8
QUOTATION
100
AcDbLine
 62
3
  6
CONTINUOUS
 10
1206.1250436562
 20
342.9817750695
 11
1239.5149931498
 21
342.9817750695
  0
INSERT
  5
2C0
100
AcDbEntity
  8
QUOTATION
100
AcDbBlockReference
 62
3
  6
CONTINUOUS
  2
_CLOSED
 10
1177.4609220159
 20
305.6927928738
 41
0.1875
 42
0.1875
 43
0.1875
 50
232.450440308
  0
ENDBLK
  5
2C1
100
AcDbEntity
  8
0
  6
BYBLOCK
 62
0
100
AcDbBlockEnd
  0
BLOCK
  5
2C2
100
AcDbEntity
  8
QUOTATION
100
AcDbBlockBegin
 62
3
  6
CONTINUOUS
  2
*D16
 70
65
 10
0.0
 20
0.0
  3
*D16
  1

  0
MTEXT
  5
2C3
100
AcDbEntity
  8
QUOTATION
100
AcDbMText
 62
3
  6
CONTINUOUS
  7
TEXTSTYLE_1
 71
2
 72
1
 10
1229.6156991657
 20
315.3650959733
 30
0.0
 11
1.0
 21
0.0
 31
0.0
 44
0.9
  1
{\Fgdt;n}\Ftxt;31
 40
7.0
 41
20.5333333333
  0
LINE
  5
2C4
100
AcDbEntity
  8
QUOTATION
100
AcDbLine
 62
3
  6
CONTINUOUS
 10
1185.2537088863
 20
291.4097454689
 11
1200.2490324991
 21
311.8650959733
  0
LINE
  5
2C5
100
AcDbEntity
  8
QUOTATION
100
AcDbLine
 62
3
  6
CONTINUOUS
 10
1200.2490324991
 20
311.8650959733
 11
1215.8490324991
 21
311.8650959733
  0
INSERT
  5
2C6
100
AcDbEntity
  8
QUOTATION
100
AcDbBlockReference
 62
3
  6
CONTINUOUS
  2
_CLOSED
 10
1185.2537088863
 20
291.4097454689
 41
0.1875
 42
0.1875
 43
0.1875
 50
233.7557566829
  0
ENDBLK
  5
2C7
100
AcDbEntity
  8
0
  6
BYBLOCK
 62
0
100
AcDbBlockEnd
  0
BLOCK
  5
2C8
100
AcDbEntity
  8
QUOTATION
100
AcDbBlockBegin
 62
3
  6
CONTINUOUS
  2
*D17
 70
65
 10
0.0
 20
0.0
  3
*D17
  1

  0
MTEXT
  5
2C9
100
AcDbEntity
  8
QUOTATION
100
AcDbMText
 62
3
  6
CONTINUOUS
  7
STANDARD
 71
2
 72
1
 10
1174.6896652854
 20
226.5306468051
 30
0.0
 11
1.0
 21
0.0
 31
0.0
 44
0.9
  1
50
 40
7.0
 41
11.2
  0
LINE
  5
2CA
100
AcDbEntity
  8
QUOTATION
100
AcDbLine
 62
3
  6
CONTINUOUS
 10
1151.0896652854
 20
278.7839333001
 11
1151.0896652854
 21
222.9056468051
  0
LINE
  5
2CB
100
AcDbEntity
  8
QUOTATION
100
AcDbLine
 62
3
  6
CONTINUOUS
 10
1201.0896652854
 20
278.7839333001
 11
1201.0896652854
 21
222.9056468051
  0
LINE
  5
2CC
100
AcDbEntity
  8
QUOTATION
100
AcDbLine
 62
3
  6
CONTINUOUS
 10
1151.0896652854
 20
223.0306468051
 11
1165.5896652854
 21
223.0306468051
  0
LINE
  5
2CD
100
AcDbEntity
  8
QUOTATION
100
AcDbLine
 62
3
  6
CONTINUOUS
 10
1201.0896652854
 20
223.0306468051
 11
1183.7896652854
 21
223.0306468051
  0
INSERT
  5
2CE
100
AcDbEntity
  8
QUOTATION
100
AcDbBlockReference
 62
3
  6
CONTINUOUS
  2
_CLOSED
 10
1151.0896652854
 20
223.0306468051
 41
0.1875
 42
0.1875
 43
0.1875
 50
180.0
  0
INSERT
  5
2CF
100
AcDbEntity
  8
QUOTATION
100
AcDbBlockReference
 62
3
  6
CONTINUOUS
  2
_CLOSED
 10
1201.0896652854
 20
223.0306468051
 41
0.1875
 42
0.1875
 43
0.1875
  0
ENDBLK
  5
2D0
100
AcDbEntity
  8
0
  6
BYBLOCK
 62
0
100
AcDbBlockEnd
  0
BLOCK
  5
2D1
100
AcDbEntity
  8
QUOTATION
100
AcDbBlockBegin
 62
3
  6
CONTINUOUS
  2
*D18
 70
65
 10
0.0
 20
0.0
  3
*D18
  1

  0
MTEXT
  5
2D2
100
AcDbEntity
  8
QUOTATION
100
AcDbMText
 62
3
  6
CONTINUOUS
  7
STANDARD
 71
2
 72
1
 10
1137.3868183025
 20
285.9089333001
 30
0.0
 11
1.0
 21
0.0
 31
0.0
 44
0.9
  1
50
 40
7.0
 41
11.2
  0
LINE
  5
2D3
100
AcDbEntity
  8
QUOTATION
100
AcDbLine
 62
3
  6
CONTINUOUS
 10
1175.9646652854
 20
253.9089333001
 11
1137.2618183025
 21
253.9089333001
  0
LINE
  5
2D4
100
AcDbEntity
  8
QUOTATION
100
AcDbLine
 62
3
  6
CONTINUOUS
 10
1175.9646652854
 20
303.9089333001
 11
1137.2618183025
 21
303.9089333001
  0
LINE
  5
2D5
100
AcDbEntity
  8
QUOTATION
100
AcDbLine
 62
3
  6
CONTINUOUS
 10
1137.3868183025
 20
253.9089333001
 11
1137.3868183025
 21
275.4089333001
  0
LINE
  5
2D6
100
AcDbEntity
  8
QUOTATION
100
AcDbLine
 62
3
  6
CONTINUOUS
 10
1137.3868183025
 20
303.9089333001
 11
1137.3868183025
 21
289.4089333001
  0
INSERT
  5
2D7
100
AcDbEntity
  8
QUOTATION
100
AcDbBlockReference
 62
3
  6
CONTINUOUS
  2
_CLOSED
 10
1137.3868183025
 20
253.9089333001
 41
0.1875
 42
0.1875
 43
0.1875
 50
270.0
  0
INSERT
  5
2D8
100
AcDbEntity
  8
QUOTATION
100
AcDbBlockReference
 62
3
  6
CONTINUOUS
  2
_CLOSED
 10
1137.3868183025
 20
303.9089333001
 41
0.1875
 42
0.1875
 43
0.1875
 50
90.0
  0
ENDBLK
  5
2D9
100
AcDbEntity
  8
0
  6
BYBLOCK
 62
0
100
AcDbBlockEnd
  0
BLOCK
  5
2DA
100
AcDbEntity
  8
QUOTATION
100
AcDbBlockBegin
 62
3
  6
CONTINUOUS
  2
*D19
 70
65
 10
0.0
 20
0.0
  3
*D19
  1

  0
MTEXT
  5
2DB
100
AcDbEntity
  8
QUOTATION
100
AcDbMText
 62
3
  6
CONTINUOUS
  7
STANDARD
 71
2
 72
1
 10
719.5766418346
 20
602.5189271733
 30
0.0
 11
1.0
 21
0.0
 31
0.0
 44
0.9
  1
492
 40
7.0
 41
16.8
  0
LINE
  5
2DC
100
AcDbEntity
  8
QUOTATION
100
AcDbLine
 62
3
  6
CONTINUOUS
 10
475.6766418346
 20
632.7451176581
 11
475.6766418346
 21
598.8939271733
  0
LINE
  5
2DD
100
AcDbEntity
  8
QUOTATION
100
AcDbLine
 62
3
  6
CONTINUOUS
 10
967.6766418346
 20
632.7451176581
 11
967.6766418346
 21
598.8939271733
  0
LINE
  5
2DE
100
AcDbEntity
  8
QUOTATION
100
AcDbLine
 62
3
  6
CONTINUOUS
 10
475.6766418346
 20
599.0189271733
 11
707.6766418346
 21
599.0189271733
  0
LINE
  5
2DF
100
AcDbEntity
  8
QUOTATION
100
AcDbLine
 62
3
  6
CONTINUOUS
 10
967.6766418346
 20
599.0189271733
 11
731.4766418346
 21
599.0189271733
  0
INSERT
  5
2E0
100
AcDbEntity
  8
QUOTATION
100
AcDbBlockReference
 62
3
  6
CONTINUOUS
  2
_CLOSED
 10
475.6766418346
 20
599.0189271733
 41
0.1875
 42
0.1875
 43
0.1875
 50
180.0
  0
INSERT
  5
2E1
100
AcDbEntity
  8
QUOTATION
100
AcDbBlockReference
 62
3
  6
CONTINUOUS
  2
_CLOSED
 10
967.6766418346
 20
599.0189271733
 41
0.1875
 42
0.1875
 43
0.1875
  0
ENDBLK
  5
2E2
100
AcDbEntity
  8
0
  6
BYBLOCK
 62
0
100
AcDbBlockEnd
  0
BLOCK
  5
2E3
100
AcDbEntity
  8
QUOTATION
100
AcDbBlockBegin
 62
3
  6
CONTINUOUS
  2
*D20
 70
65
 10
0.0
 20
0.0
  3
*D20
  1

  0
MTEXT
  5
2E4
100
AcDbEntity
  8
QUOTATION
100
AcDbMText
 62
3
  6
CONTINUOUS
  7
STANDARD
 71
2
 72
1
 10
893.7766418303
 20
53.4089333001
 30
0.0
 11
1.0
 21
0.0
 31
0.0
 44
0.9
  1
63
 40
7.0
 41
11.2
  0
LINE
  5
2E5
100
AcDbEntity
  8
QUOTATION
100
AcDbLine
 62
3
  6
CONTINUOUS
 10
863.6766418303
 20
90.7839333001
 11
863.6766418303
 21
49.7839333001
  0
LINE
  5
2E6
100
AcDbEntity
  8
QUOTATION
100
AcDbLine
 62
3
  6
CONTINUOUS
 10
926.6766418303
 20
90.7839333001
 11
926.6766418303
 21
49.7839333001
  0
LINE
  5
2E7
100
AcDbEntity
  8
QUOTATION
100
AcDbLine
 62
3
  6
CONTINUOUS
 10
863.6766418303
 20
49.9089333001
 11
884.6766418303
 21
49.9089333001
  0
LINE
  5
2E8
100
AcDbEntity
  8
QUOTATION
100
AcDbLine
 62
3
  6
CONTINUOUS
 10
926.6766418303
 20
49.9089333001
 11
902.8766418303
 21
49.9089333001
  0
INSERT
  5
2E9
100
AcDbEntity
  8
QUOTATION
100
AcDbBlockReference
 62
3
  6
CONTINUOUS
  2
_CLOSED
 10
863.6766418303
 20
49.9089333001
 41
0.1875
 42
0.1875
 43
0.1875
 50
180.0
  0
INSERT
  5
2EA
100
AcDbEntity
  8
QUOTATION
100
AcDbBlockReference
 62
3
  6
CONTINUOUS
  2
_CLOSED
 10
926.6766418303
 20
49.9089333001
 41
0.1875
 42
0.1875
 43
0.1875
  0
ENDBLK
  5
2EB
100
AcDbEntity
  8
0
  6
BYBLOCK
 62
0
100
AcDbBlockEnd
  0
BLOCK
  5
2EC
100
AcDbEntity
  8
QUOTATION
100
AcDbBlockBegin
 62
3
  6
CONTINUOUS
  2
*D21
 70
65
 10
0.0
 20
0.0
  3
*D21
  1

  0
MTEXT
  5
2ED
100
AcDbEntity
  8
QUOTATION
100
AcDbMText
 62
3
  6
CONTINUOUS
  7
STANDARD
 71
2
 72
1
 10
957.6766418303
 20
102.9089333001
 30
0.0
 11
1.0
 21
0.0
 31
0.0
 44
0.9
  1
20
 40
7.0
 41
11.2
  0
LINE
  5
2EE
100
AcDbEntity
  8
QUOTATION
100
AcDbLine
 62
3
  6
CONTINUOUS
 10
915.3016418303
 20
105.9089333001
 11
957.8016418303
 21
105.9089333001
  0
LINE
  5
2EF
100
AcDbEntity
  8
QUOTATION
100
AcDbLine
 62
3
  6
CONTINUOUS
 10
921.8016418303
 20
85.9089333001
 11
957.8016418303
 21
85.9089333001
  0
LINE
  5
2F0
100
AcDbEntity
  8
QUOTATION
100
AcDbLine
 62
3
  6
CONTINUOUS
 10
957.6766418303
 20
105.9089333001
 11
957.6766418303
 21
105.9088017848
  0
LINE
  5
2F1
100
AcDbEntity
  8
QUOTATION
100
AcDbLine
 62
3
  6
CONTINUOUS
 10
957.6766418303
 20
85.9089333001
 11
957.6766418303
 21
92.4089333001
  0
INSERT
  5
2F2
100
AcDbEntity
  8
QUOTATION
100
AcDbBlockReference
 62
3
  6
CONTINUOUS
  2
_CLOSED
 10
957.6766418303
 20
105.9089333001
 41
0.1875
 42
0.1875
 43
0.1875
 50
90.0
  0
INSERT
  5
2F3
100
AcDbEntity
  8
QUOTATION
100
AcDbBlockReference
 62
3
  6
CONTINUOUS
  2
_CLOSED
 10
957.6766418303
 20
85.9089333001
 41
0.1875
 42
0.1875
 43
0.1875
 50
270.0
  0
ENDBLK
  5
2F4
100
AcDbEntity
  8
0
  6
BYBLOCK
 62
0
100
AcDbBlockEnd
  0
BLOCK
  5
2F5
100
AcDbEntity
  8
QUOTATION
100
AcDbBlockBegin
 62
3
  6
CONTINUOUS
  2
*D22
 70
65
 10
0.0
 20
0.0
  3
*D22
  1

  0
MTEXT
  5
2F6
100
AcDbEntity
  8
QUOTATION
100
AcDbMText
 62
3
  6
CONTINUOUS
  7
STANDARD
 71
2
 72
1
 10
987.6766418303
 20
122.9089333001
 30
0.0
 11
1.0
 21
0.0
 31
0.0
 44
0.9
  1
20
 40
7.0
 41
11.2
  0
LINE
  5
2F7
100
AcDbEntity
  8
QUOTATION
100
AcDbLine
 62
3
  6
CONTINUOUS
 10
915.3016418303
 20
125.9089333001
 11
987.8016418303
 21
125.9089333001
  0
LINE
  5
2F8
100
AcDbEntity
  8
QUOTATION
100
AcDbLine
 62
3
  6
CONTINUOUS
 10
915.3016418303
 20
105.9089333001
 11
987.8016418303
 21
105.9089333001
  0
LINE
  5
2F9
100
AcDbEntity
  8
QUOTATION
100
AcDbLine
 62
3
  6
CONTINUOUS
 10
987.6766418303
 20
125.9089333001
 11
987.6766418303
 21
125.9088017848
  0
LINE
  5
2FA
100
AcDbEntity
  8
QUOTATION
100
AcDbLine
 62
3
  6
CONTINUOUS
 10
987.6766418303
 20
105.9089333001
 11
987.6766418303
 21
112.4089333001
  0
INSERT
  5
2FB
100
AcDbEntity
  8
QUOTATION
100
AcDbBlockReference
 62
3
  6
CONTINUOUS
  2
_CLOSED
 10
987.6766418303
 20
125.9089333001
 41
0.1875
 42
0.1875
 43
0.1875
 50
90.0
  0
INSERT
  5
2FC
100
AcDbEntity
  8
QUOTATION
100
AcDbBlockReference
 62
3
  6
CONTINUOUS
  2
_CLOSED
 10
987.6766418303
 20
105.9089333001
 41
0.1875
 42
0.1875
 43
0.1875
 50
270.0
  0
ENDBLK
  5
2FD
100
AcDbEntity
  8
0
  6
BYBLOCK
 62
0
100
AcDbBlockEnd
  0
BLOCK
  5
2FE
100
AcDbEntity
  8
QUOTATION
100
AcDbBlockBegin
 62
3
  6
CONTINUOUS
  2
*D23
 70
65
 10
0.0
 20
0.0
  3
*D23
  1

  0
MTEXT
  5
2FF
100
AcDbEntity
  8
QUOTATION
100
AcDbMText
 62
3
  6
CONTINUOUS
  7
TEXTSTYLE_1
 71
2
 72
1
 10
1012.3683385556
 20
449.9117644299
 30
0.0
 11
1.0
 21
0.0
 31
0.0
 44
0.9
  1
{\Fgdt;n}\Ftxt;11
 40
7.0
 41
20.5333333333
  0
LINE
  5
300
100
AcDbEntity
  8
QUOTATION
100
AcDbLine
 62
3
  6
CONTINUOUS
 10
919.6198811201
 20
399.1504799391
 11
984.401671889
 21
446.4117644299
  0
LINE
  5
301
100
AcDbEntity
  8
QUOTATION
100
AcDbLine
 62
3
  6
CONTINUOUS
 10
984.401671889
 20
446.4117644299
 11
998.601671889
 21
446.4117644299
  0
INSERT
  5
302
100
AcDbEntity
  8
QUOTATION
100
AcDbBlockReference
 62
3
  6
CONTINUOUS
  2
_CLOSED
 10
919.6198811201
 20
399.1504799391
 41
0.1875
 42
0.1875
 43
0.1875
 50
216.1124643126
  0
ENDBLK
  5
303
100
AcDbEntity
  8
0
  6
BYBLOCK
 62
0
100
AcDbBlockEnd
  0
BLOCK
  5
304
100
AcDbEntity
  8
QUOTATION
100
AcDbBlockBegin
 62
3
  6
CONTINUOUS
  2
*D24
 70
65
 10
0.0
 20
0.0
  3
*D24
  1

  0
MTEXT
  5
305
100
AcDbEntity
  8
QUOTATION
100
AcDbMText
 62
3
  6
CONTINUOUS
  7
STANDARD
 71
2
 72
1
 10
893.7766418303
 20
515.678221585
 30
0.0
 11
1.0
 21
0.0
 31
0.0
 44
0.9
  1
63
 40
7.0
 41
11.2
  0
LINE
  5
306
100
AcDbEntity
  8
QUOTATION
100
AcDbLine
 62
3
  6
CONTINUOUS
 10
926.6766418303
 20
411.0339333001
 11
926.6766418303
 21
512.303221585
  0
LINE
  5
307
100
AcDbEntity
  8
QUOTATION
100
AcDbLine
 62
3
  6
CONTINUOUS
 10
863.6766418303
 20
411.0339333001
 11
863.6766418303
 21
512.303221585
  0
LINE
  5
308
100
AcDbEntity
  8
QUOTATION
100
AcDbLine
 62
3
  6
CONTINUOUS
 10
926.6766418303
 20
512.178221585
 11
902.8766418303
 21
512.178221585
  0
LINE
  5
309
100
AcDbEntity
  8
QUOTATION
100
AcDbLine
 62
3
  6
CONTINUOUS
 10
863.6766418303
 20
512.178221585
 11
884.6766418303
 21
512.178221585
  0
INSERT
  5
30A
100
AcDbEntity
  8
QUOTATION
100
AcDbBlockReference
 62
3
  6
CONTINUOUS
  2
_CLOSED
 10
926.6766418303
 20
512.178221585
 41
0.1875
 42
0.1875
 43
0.1875
  0
INSERT
  5
30B
100
AcDbEntity
  8
QUOTATION
100
AcDbBlockReference
 62
3
  6
CONTINUOUS
  2
_CLOSED
 10
863.6766418303
 20
512.178221585
 41
0.1875
 42
0.1875
 43
0.1875
 50
180.0
  0
ENDBLK
  5
30C
100
AcDbEntity
  8
0
  6
BYBLOCK
 62
0
100
AcDbBlockEnd
  0
ENDSEC
  0
SECTION
  2
ENTITIES
  0
DIMENSION
  5
30D
100
AcDbEntity
  8
QUOTATION
100
AcDbDimension
 62
3
  6
CONTINUOUS
  2
*D0
 10
442.2677638499
 20
338.4096339049
 11
433.8677638499
 21
254.4089333001
 70
160
 71
2
  1
175
  3
DIMSTYLE_1
100
AcDbAlignedDimension
 13
488.0516418303
 23
163.4096339049
 14
488.0516418303
 24
338.4096339049
 50
90.0
100
AcDbRotatedDimension
  0
DIMENSION
  5
30E
100
AcDbEntity
  8
QUOTATION
100
AcDbDimension
 62
3
  6
CONTINUOUS
  2
*D1
 10
407.4430625219
 20
350.9096339049
 11
399.0430625219
 21
252.8298071281
 70
160
 71
2
  1
200
  3
DIMSTYLE_1
100
AcDbAlignedDimension
 13
475.5516418303
 23
150.9096339049
 14
475.5516418303
 24
350.9096339049
 50
90.0
100
AcDbRotatedDimension
  0
DIMENSION
  5
30F
100
AcDbEntity
  8
QUOTATION
100
AcDbDimension
 62
3
  6
CONTINUOUS
  2
*D2
 10
407.4430625219
 20
415.9089333001
 11
401.8430625219
 21
386.9092836025
 70
160
 71
2
  1
65
  3
DIMSTYLE_1
100
AcDbAlignedDimension
 13
475.5516418303
 23
350.9096339049
 14
508.5516418303
 24
415.9089333001
 50
90.0
100
AcDbRotatedDimension
  0
DIMENSION
  5
310
100
AcDbEntity
  8
QUOTATION
100
AcDbDimension
 62
3
  6
CONTINUOUS
  2
*D3
 10
407.4430625219
 20
481.4096339049
 11
396.2430625219
 21
452.1592836025
 70
160
 71
2
  1
65.5
  3
DIMSTYLE_1
100
AcDbAlignedDimension
 13
508.5516418303
 23
415.9089333001
 14
480.5516418303
 24
481.4096339049
 50
90.0
100
AcDbRotatedDimension
  0
DIMENSION
  5
311
100
AcDbEntity
  8
QUOTATION
100
AcDbDimension
 62
3
  6
CONTINUOUS
  2
*D4
 10
955.1766418346
 20
545.276563749
 11
769.2501462872
 21
545.276563749
 70
160
 71
2
  1
467
  3
DIMSTYLE_1
100
AcDbAlignedDimension
 13
488.1766418303
 23
338.5346339049
 14
955.1766418346
 24
338.5339333001
100
AcDbRotatedDimension
  0
DIMENSION
  5
312
100
AcDbEntity
  8
QUOTATION
100
AcDbDimension
 62
3
  6
CONTINUOUS
  2
*D5
 10
535.1766418303
 20
49.9089333001
 11
504.6766418303
 21
49.9089333001
 70
160
 71
2
  1
47
  3
DIMSTYLE_1
100
AcDbAlignedDimension
 13
488.1766418303
 23
163.2846339049
 14
535.1766418303
 24
85.7839333001
100
AcDbRotatedDimension
  0
DIMENSION
  5
313
100
AcDbEntity
  8
QUOTATION
100
AcDbDimension
 62
3
  6
CONTINUOUS
  2
*D6
 10
655.1766418303
 20
49.9089333001
 11
584.6766418303
 21
49.9089333001
 70
160
 71
2
  1
120
  3
DIMSTYLE_1
100
AcDbAlignedDimension
 13
535.1766418303
 23
85.7839333001
 14
655.1766418303
 24
85.7839333001
100
AcDbRotatedDimension
  0
DIMENSION
  5
314
100
AcDbEntity
  8
QUOTATION
100
AcDbDimension
 62
3
  6
CONTINUOUS
  2
*D7
 10
721.6766418303
 20
511.3445523577
 11
587.4266418303
 21
511.3445523577
 70
160
 71
2
  1
233.5
  3
DIMSTYLE_1
100
AcDbAlignedDimension
 13
488.1766418303
 23
338.5346339049
 14
721.6766418303
 24
279.0339333001
100
AcDbRotatedDimension
  0
DIMENSION
  5
315
100
AcDbEntity
  8
QUOTATION
100
AcDbDimension
 62
3
  6
CONTINUOUS
  2
*D8
 10
1024.5773212462
 20
278.9089333001
 11
1013.3773212462
 21
312.1589333001
 70
160
 71
2
  1
59.5
  3
DIMSTYLE_1
100
AcDbAlignedDimension
 13
955.3016418346
 23
338.4089333001
 14
911.8100662581
 24
278.9089333001
 50
270.0
100
AcDbRotatedDimension
  0
DIMENSION
  5
316
100
AcDbEntity
  8
QUOTATION
100
AcDbDimension
 62
3
  6
CONTINUOUS
  2
*D9
 10
958.8999896931
 20
340.9361216041
 11
1004.9122067578
 21
358.7040159897
 70
163
 71
2
  1
%%c9
  3
DIMSTYLE_2
100
AcDbDiametricDimension
 15
951.453293976
 25
335.881744996
  0
DIMENSION
  5
317
100
AcDbEntity
  8
QUOTATION
100
AcDbDimension
 62
3
  6
CONTINUOUS
  2
*D10
 10
306.460730774
 20
499.7556820153
 11
322.960730774
 21
499.7556820153
 70
160
 71
2
  1
47
  3
DIMSTYLE_1
100
AcDbAlignedDimension
 13
353.460730774
 23
351.0339333001
 14
306.460730774
 24
416.0339333001
 50
180.0
100
AcDbRotatedDimension
  0
DIMENSION
  5
318
100
AcDbEntity
  8
QUOTATION
100
AcDbDimension
 62
3
  6
CONTINUOUS
  2
*D11
 10
306.460730774
 20
462.0919926153
 11
288.560730774
 21
462.0919926153
 70
160
 71
2
  1
7
  3
DIMSTYLE_1
100
AcDbAlignedDimension
 13
313.460730774
 23
416.0339333001
 14
306.460730774
 24
416.0339333001
 50
180.0
100
AcDbRotatedDimension
  0
DIMENSION
  5
319
100
AcDbEntity
  8
QUOTATION
100
AcDbDimension
 62
3
  6
CONTINUOUS
  2
*D12
 10
213.460730774
 20
528.4079252067
 11
272.960730774
 21
528.4079252067
 70
160
 71
2
  1
140
  3
DIMSTYLE_1
100
AcDbAlignedDimension
 13
353.460730774
 23
351.0339333001
 14
213.460730774
 24
351.0339333001
 50
180.0
100
AcDbRotatedDimension
  0
DIMENSION
  5
31A
100
AcDbEntity
  8
QUOTATION
100
AcDbDimension
 62
3
  6
CONTINUOUS
  2
*D13
 10
141.460730774
 20
554.672480343
 11
236.960730774
 21
554.672480343
 70
160
 71
2
  1
212
  3
DIMSTYLE_1
100
AcDbAlignedDimension
 13
353.460730774
 23
351.0339333001
 14
141.460730774
 24
319.0339333001
 50
180.0
100
AcDbRotatedDimension
  0
DIMENSION
  5
31B
100
AcDbEntity
  8
QUOTATION
100
AcDbDimension
 62
3
  6
CONTINUOUS
  2
*D14
 10
45.460730774
 20
554.672480343
 11
86.460730774
 21
554.672480343
 70
160
 71
2
  1
96
  3
DIMSTYLE_1
100
AcDbAlignedDimension
 13
141.460730774
 23
319.0339333001
 14
45.460730774
 24
279.0339333001
 50
180.0
100
AcDbRotatedDimension
  0
DIMENSION
  5
31C
100
AcDbEntity
  8
QUOTATION
100
AcDbDimension
 62
3
  6
CONTINUOUS
  2
*D15
 10
1177.4609220159
 20
305.6927928738
 11
1256.0816598165
 21
342.9817750695
 70
163
 71
2
  1
4x %%c4.5
  3
DIMSTYLE_2
100
AcDbDiametricDimension
 15
1174.7184085548
 25
302.1250737263
  0
DIMENSION
  5
31D
100
AcDbEntity
  8
QUOTATION
100
AcDbDimension
 62
3
  6
CONTINUOUS
  2
*D16
 10
1185.2537088863
 20
291.4097454689
 11
1224.4823658324
 21
311.8650959733
 70
163
 71
2
  1
%%c31
  3
DIMSTYLE_2
100
AcDbDiametricDimension
 15
1166.9256216845
 25
266.4081211312
  0
DIMENSION
  5
31E
100
AcDbEntity
  8
QUOTATION
100
AcDbDimension
 62
3
  6
CONTINUOUS
  2
*D17
 10
1201.0896652854
 20
223.0306468051
 11
1169.0896652854
 21
223.0306468051
 70
160
 71
2
  1
50
  3
DIMSTYLE_1
100
AcDbAlignedDimension
 13
1151.0896652854
 23
278.7839333001
 14
1201.0896652854
 24
278.7839333001
100
AcDbRotatedDimension
  0
DIMENSION
  5
31F
100
AcDbEntity
  8
QUOTATION
100
AcDbDimension
 62
3
  6
CONTINUOUS
  2
*D18
 10
1137.3868183025
 20
303.9089333001
 11
1131.7868183025
 21
282.4089333001
 70
160
 71
2
  1
50
  3
DIMSTYLE_1
100
AcDbAlignedDimension
 13
1175.9646652854
 23
253.9089333001
 14
1175.9646652854
 24
303.9089333001
 50
90.0
100
AcDbRotatedDimension
  0
DIMENSION
  5
320
100
AcDbEntity
  8
QUOTATION
100
AcDbDimension
 62
3
  6
CONTINUOUS
  2
*D19
 10
967.6766418346
 20
599.0189271733
 11
711.1766418346
 21
599.0189271733
 70
160
 71
2
  1
492
  3
DIMSTYLE_1
100
AcDbAlignedDimension
 13
475.6766418346
 23
632.7451176581
 14
967.6766418346
 24
632.7451176581
100
AcDbRotatedDimension
  0
DIMENSION
  5
321
100
AcDbEntity
  8
QUOTATION
100
AcDbDimension
 62
3
  6
CONTINUOUS
  2
*D20
 10
926.6766418303
 20
49.9089333001
 11
888.1766418303
 21
49.9089333001
 70
160
 71
2
  1
63
  3
DIMSTYLE_1
100
AcDbAlignedDimension
 13
863.6766418303
 23
90.7839333001
 14
926.6766418303
 24
90.7839333001
100
AcDbRotatedDimension
  0
DIMENSION
  5
322
100
AcDbEntity
  8
QUOTATION
100
AcDbDimension
 62
3
  6
CONTINUOUS
  2
*D21
 10
957.6766418303
 20
85.9089333001
 11
952.0766418303
 21
99.4089333001
 70
160
 71
2
  1
20
  3
DIMSTYLE_1
100
AcDbAlignedDimension
 13
915.3016418303
 23
105.9089333001
 14
921.8016418303
 24
85.9089333001
 50
270.0
100
AcDbRotatedDimension
  0
DIMENSION
  5
323
100
AcDbEntity
  8
QUOTATION
100
AcDbDimension
 62
3
  6
CONTINUOUS
  2
*D22
 10
987.6766418303
 20
105.9089333001
 11
982.0766418303
 21
119.4089333001
 70
160
 71
2
  1
20
  3
DIMSTYLE_1
100
AcDbAlignedDimension
 13
915.3016418303
 23
125.9089333001
 14
915.3016418303
 24
105.9089333001
 50
270.0
100
AcDbRotatedDimension
  0
DIMENSION
  5
324
100
AcDbEntity
  8
QUOTATION
100
AcDbDimension
 62
3
  6
CONTINUOUS
  2
*D23
 10
919.6198811201
 20
399.1504799391
 11
1007.2350052223
 21
446.4117644299
 70
163
 71
2
  1
%%c11
  3
DIMSTYLE_2
100
AcDbDiametricDimension
 15
910.7334025404
 25
392.667386661
  0
DIMENSION
  5
325
100
AcDbEntity
  8
QUOTATION
100
AcDbDimension
 62
3
  6
CONTINUOUS
  2
*D24
 10
863.6766418303
 20
512.178221585
 11
888.1766418303
 21
512.178221585
 70
160
 71
2
  1
63
  3
DIMSTYLE_1
100
AcDbAlignedDimension
 13
926.6766418303
 23
411.0339333001
 14
863.6766418303
 24
411.0339333001
 50
180.0
100
AcDbRotatedDimension
  0
MTEXT
  5
326
100
AcDbEntity
  8
TEXT
100
AcDbMText
 62
2
  6
CONTINUOUS
  7
TEXTSTYLE_2
 71
1
 72
1
 10
681.7942045633
 20
284.8768962466
 30
0.0
 11
0.1736481777
 21
0.984807753
 31
0.0
 44
0.6
  1
OFF
 40
8.0
 41
24.0
  0
MTEXT
  5
327
100
AcDbEntity
  8
TEXT
100
AcDbMText
 62
2
  6
CONTINUOUS
  7
TEXTSTYLE_2
 71
1
 72
1
 10
723.1578724704
 20
310.4770874098
 30
0.0
 11
0.0
 21
1.0
 31
0.0
 44
0.6
  1
ON
 40
8.0
 41
16.0
  0
MTEXT
  5
328
100
AcDbEntity
  8
TEXT
100
AcDbMText
 62
2
  6
CONTINUOUS
  7
TEXTSTYLE_3
 71
1
 72
1
 10
1134.2033837342
 20
390.073827437
 30
0.0
 11
1.0
 21
0.0
 31
0.0
 44
1.0000002
  1
DOOR DRILLING
 40
10.0
 41
114.1666666667
  0
MTEXT
  5
329
100
AcDbEntity
  8
TEXT
100
AcDbMText
 62
2
  6
CONTINUOUS
  7
TEXTSTYLE_2
 71
1
 72
1
 10
685.7334355754
 20
284.1823035359
 30
0.0
 11
0.1736481777
 21
0.984807753
 31
0.0
 44
0.6
  1
OFF
 40
4.0
 41
12.0
  0
MTEXT
  5
32A
100
AcDbEntity
  8
TEXT
100
AcDbMText
 62
2
  6
CONTINUOUS
  7
TEXTSTYLE_2
 71
1
 72
1
 10
727.1578724704
 20
310.4770874098
 30
0.0
 11
0.0
 21
1.0
 31
0.0
 44
0.6
  1
ON
 40
4.0
 41
8.0
  0
MTEXT
  5
32B
100
AcDbEntity
  8
0
100
AcDbMText
 62
3
  6
CONTINUOUS
  7
STANDARD
 71
2
 72
1
 10
188.9272621339
 20
829.9525596924
 30
0.0
 11
1.0
 21
0.0
 31
0.0
  1
1
 40
5.0
 41
4.0
  0
MTEXT
  5
32C
100
AcDbEntity
  8
0
100
AcDbMText
 62
3
  6
CONTINUOUS
  7
STANDARD
 71
1
 72
1
 10
198.0272621339
 20
829.8275596924
 30
0.0
 11
1.0
 21
0.0
 31
0.0
 44
1.0000002
  1
ECRAN DE PROTECTION DES PLAGES 
 40
4.75
 41
117.8
  0
MTEXT
  5
32D
100
AcDbEntity
  8
0
100
AcDbMText
 62
3
  6
CONTINUOUS
  7
STANDARD
 71
2
 72
1
 10
333.2272621339
 20
829.9525596924
 30
0.0
 11
1.0
 21
0.0
 31
0.0
  1
27984120
 40
5.0
 41
32.0
  0
MTEXT
  5
32E
100
AcDbEntity
  8
0
100
AcDbMText
 62
3
  6
CONTINUOUS
  7
STANDARD
 71
2
 72
1
 10
366.6178713506
 20
829.9525596924
 30
0.0
 11
1.0
 21
0.0
 31
0.0
  1
/
 40
5.0
 41
4.0
  0
MTEXT
  5
32F
100
AcDbEntity
  8
0
100
AcDbMText
 62
3
  6
CONTINUOUS
  7
STANDARD
 71
2
 72
1
 10
389.5584805674
 20
829.9525596924
 30
0.0
 11
1.0
 21
0.0
 31
0.0
  1
1
 40
5.0
 41
4.0
  0
MTEXT
  5
330
100
AcDbEntity
  8
0
100
AcDbMText
 62
3
  6
CONTINUOUS
  7
STANDARD
 71
2
 72
1
 10
188.9272621339
 20
820.1025596924
 30
0.0
 11
1.0
 21
0.0
 31
0.0
  1
2
 40
5.0
 41
4.0
  0
MTEXT
  5
331
100
AcDbEntity
  8
0
100
AcDbMText
 62
3
  6
CONTINUOUS
  7
STANDARD
 71
1
 72
1
 10
198.0272621339
 20
819.9775596924
 30
0.0
 11
1.0
 21
0.0
 31
0.0
 44
1.0000002
  1
SIRCO UL 4x800A F APPAREIL NU
 40
4.75
 41
110.2
  0
MTEXT
  5
332
100
AcDbEntity
  8
0
100
AcDbMText
 62
3
  6
CONTINUOUS
  7
STANDARD
 71
2
 72
1
 10
333.2272621339
 20
820.1025596924
 30
0.0
 11
1.0
 21
0.0
 31
0.0
  1
27004080 
 40
5.0
 41
36.0
  0
MTEXT
  5
333
100
AcDbEntity
  8
0
100
AcDbMText
 62
3
  6
CONTINUOUS
  7
STANDARD
 71
2
 72
1
 10
366.6178713506
 20
820.1025596924
 30
0.0
 11
1.0
 21
0.0
 31
0.0
  1
/
 40
5.0
 41
4.0
  0
MTEXT
  5
334
100
AcDbEntity
  8
0
100
AcDbMText
 62
3
  6
CONTINUOUS
  7
STANDARD
 71
2
 72
1
 10
389.5584805674
 20
820.1025596924
 30
0.0
 11
1.0
 21
0.0
 31
0.0
  1
1
 40
5.0
 41
4.0
  0
MTEXT
  5
335
100
AcDbEntity
  8
0
100
AcDbMText
 62
3
  6
CONTINUOUS
  7
STANDARD
 71
2
 72
1
 10
188.9272621339
 20
810.2525596924
 30
0.0
 11
1.0
 21
0.0
 31
0.0
  1
3
 40
5.0
 41
4.0
  0
MTEXT
  5
336
100
AcDbEntity
  8
0
100
AcDbMText
 62
3
  6
CONTINUOUS
  7
STANDARD
 71
1
 72
1
 10
198.0272621339
 20
810.1275596924
 30
0.0
 11
1.0
 21
0.0
 31
0.0
 44
1.0000002
  1
ECRAN DE SEPARATION ENTRE PHASE 
 40
4.75
 41
121.6
  0
MTEXT
  5
337
100
AcDbEntity
  8
0
100
AcDbMText
 62
3
  6
CONTINUOUS
  7
STANDARD
 71
2
 72
1
 10
333.2272621339
 20
810.2525596924
 30
0.0
 11
1.0
 21
0.0
 31
0.0
  1
1382101
 40
5.0
 41
28.0
  0
MTEXT
  5
338
100
AcDbEntity
  8
0
100
AcDbMText
 62
3
  6
CONTINUOUS
  7
STANDARD
 71
2
 72
1
 10
366.6178713506
 20
810.2525596924
 30
0.0
 11
1.0
 21
0.0
 31
0.0
  1
/
 40
5.0
 41
4.0
  0
MTEXT
  5
339
100
AcDbEntity
  8
0
100
AcDbMText
 62
3
  6
CONTINUOUS
  7
STANDARD
 71
2
 72
1
 10
389.5584805674
 20
810.2525596924
 30
0.0
 11
1.0
 21
0.0
 31
0.0
  1
6
 40
5.0
 41
4.0
  0
MTEXT
  5
33A
100
AcDbEntity
  8
0
100
AcDbMText
 62
3
  6
CONTINUOUS
  7
STANDARD
 71
2
 72
1
 10
188.9272621339
 20
800.4025596924
 30
0.0
 11
1.0
 21
0.0
 31
0.0
  1
4
 40
5.0
 41
4.0
  0
MTEXT
  5
33B
100
AcDbEntity
  8
0
100
AcDbMText
 62
3
  6
CONTINUOUS
  7
STANDARD
 71
1
 72
1
 10
198.0272621339
 20
800.4025596924
 30
0.0
 11
1.0
 21
0.0
 31
0.0
  1
POIGNEE CDE EXT TYPE H 
 40
5.0
 41
92.0
  0
MTEXT
  5
33C
100
AcDbEntity
  8
0
100
AcDbMText
 62
3
  6
CONTINUOUS
  7
STANDARD
 71
2
 72
1
 10
366.6178713506
 20
800.4025596924
 30
0.0
 11
1.0
 21
0.0
 31
0.0
  1
/
 40
5.0
 41
4.0
  0
MTEXT
  5
33D
100
AcDbEntity
  8
0
100
AcDbMText
 62
3
  6
CONTINUOUS
  7
STANDARD
 71
2
 72
1
 10
389.5584805674
 20
800.4025596924
 30
0.0
 11
1.0
 21
0.0
 31
0.0
  1
1
 40
5.0
 41
4.0
  0
MTEXT
  5
33E
100
AcDbEntity
  8
0
100
AcDbMText
 62
3
  6
CONTINUOUS
  7
STANDARD
 71
2
 72
1
 10
188.9272621339
 20
839.8025596924
 30
0.0
 11
1.0
 21
0.0
 31
0.0
  1
Rep.
 40
5.0
 41
16.0
  0
MTEXT
  5
33F
100
AcDbEntity
  8
0
100
AcDbMText
 62
3
  6
CONTINUOUS
  7
STANDARD
 71
2
 72
1
 10
256.2272621339
 20
839.8025596924
 30
0.0
 11
1.0
 21
0.0
 31
0.0
  1
Nom
 40
5.0
 41
12.0
  0
MTEXT
  5
340
100
AcDbEntity
  8
0
100
AcDbMText
 62
3
  6
CONTINUOUS
  7
STANDARD
 71
2
 72
1
 10
333.2272621339
 20
839.8025596924
 30
0.0
 11
1.0
 21
0.0
 31
0.0
  1
Code
 40
5.0
 41
16.0
  0
MTEXT
  5
341
100
AcDbEntity
  8
0
100
AcDbMText
 62
3
  6
CONTINUOUS
  7
STANDARD
 71
2
 72
1
 10
362.9512046839
 20
839.8025596924
 30
0.0
 11
1.0
 21
0.0
 31
0.0
  1
N\Fgdt;{\Fgdt;~}\Ftxt; \P{\W0.8;de }\Pplan
 40
5.0
 41
16.0
  0
MTEXT
  5
342
100
AcDbEntity
  8
0
100
AcDbMText
 62
3
  6
CONTINUOUS
  7
STANDARD
 71
2
 72
1
 10
389.5584805674
 20
839.8025596924
 30
0.0
 11
1.0
 21
0.0
 31
0.0
  1
Qté
 40
5.0
 41
12.0
  0
LINE
  5
343
100
AcDbEntity
  8
0
100
AcDbLine
 62
7
  6
CONTINUOUS
 10
0.0
 20
0.0
 11
0.0
 21
1001.6687481472
  0
LINE
  5
344
100
AcDbEntity
  8
0
100
AcDbLine
 62
7
  6
CONTINUOUS
 10
0.0
 20
0.0
 11
0.0
 21
1001.6687481472
  0
LINE
  5
345
100
AcDbEntity
  8
H_EXTERN_HANDLE
100
AcDbLine
 62
7
  6
CONTINUOUS
 10
49.460730774
 20
289.158933022
 11
49.460730774
 21
286.3922477955
  0
LINE
  5
346
100
AcDbEntity
  8
H_EXTERN_HANDLE
100
AcDbLine
 62
7
  6
CONTINUOUS
 10
49.460730774
 20
271.4256182484
 11
49.460730774
 21
268.658933022
  0
LINE
  5
347
100
AcDbEntity
  8
H_EXTERN_HANDLE
100
AcDbLine
 62
7
  6
CONTINUOUS
 10
50.960730774
 20
293.158933022
 11
50.960730774
 21
287.2004949979
  0
LINE
  5
348
100
AcDbEntity
  8
H_EXTERN_HANDLE
100
AcDbLine
 62
7
  6
CONTINUOUS
 10
50.960730774
 20
264.658933022
 11
50.960730774
 21
270.6173710461
  0
LINE
  5
349
100
AcDbEntity
  8
H_MOVING
100
AcDbLine
 62
1
  6
CONTINUOUS
 10
50.1241073701
 20
214.3554302561
 11
45.460730774
 21
88.908933022
  0
LINE
  5
34A
100
AcDbEntity
  8
H_EXTERN_HANDLE
100
AcDbLine
 62
7
  6
CONTINUOUS
 10
100.460730774
 20
254.658933022
 11
100.460730774
 21
248.908933022
  0
LINE
  5
34B
100
AcDbEntity
  8
H_EXTERN_HANDLE
100
AcDbLine
 62
7
  6
CONTINUOUS
 10
100.460730774
 20
303.158933022
 11
100.460730774
 21
308.908933022
  0
LINE
  5
34C
100
AcDbEntity
  8
H_EXTERN_HANDLE
100
AcDbLine
 62
7
  6
CONTINUOUS
 10
101.960730774
 20
289.4089333001
 11
101.960730774
 21
287.408933022
  0
LINE
  5
34D
100
AcDbEntity
  8
H_EXTERN_HANDLE
100
AcDbLine
 62
7
  6
CONTINUOUS
 10
101.9607293999
 20
268.4089329401
 11
101.9607296616
 21
270.4089332183
  0
LINE
  5
34E
100
AcDbEntity
  8
H_EXTERN_HANDLE
100
AcDbLine
 62
7
  6
CONTINUOUS
 10
103.460730774
 20
287.408933022
 11
103.460730774
 21
270.408933022
  0
LINE
  5
34F
100
AcDbEntity
  8
H_MOVING
100
AcDbLine
 62
1
  6
CONTINUOUS
 10
93.4944617224
 20
88.908933022
 11
93.5688480943
 21
90.9000941004
  0
LINE
  5
350
100
AcDbEntity
  8
H_MOVING
100
AcDbLine
 62
1
  6
CONTINUOUS
 10
93.7929978308
 20
96.9000941004
 11
93.8673842027
 21
98.8912551788
  0
LINE
  5
351
100
AcDbEntity
  8
H_MOVING
100
AcDbLine
 62
1
  6
CONTINUOUS
 10
94.0915339393
 20
104.8912551788
 11
94.1659203111
 21
106.8824162572
  0
LINE
  5
352
100
AcDbEntity
  8
H_MOVING
100
AcDbLine
 62
1
  6
CONTINUOUS
 10
94.3900700477
 20
112.8824162572
 11
94.4644564195
 21
114.8735773357
  0
LINE
  5
353
100
AcDbEntity
  8
H_MOVING
100
AcDbLine
 62
1
  6
CONTINUOUS
 10
94.6886061561
 20
120.8735773357
 11
94.7629925279
 21
122.8647384141
  0
LINE
  5
354
100
AcDbEntity
  8
H_MOVING
100
AcDbLine
 62
1
  6
CONTINUOUS
 10
94.9871422645
 20
128.8647384141
 11
95.0615286364
 21
130.8558994925
  0
LINE
  5
355
100
AcDbEntity
  8
H_MOVING
100
AcDbLine
 62
1
  6
CONTINUOUS
 10
95.2856783729
 20
136.8558994925
 11
95.3600647448
 21
138.8470605709
  0
LINE
  5
356
100
AcDbEntity
  8
H_MOVING
100
AcDbLine
 62
1
  6
CONTINUOUS
 10
95.5842144813
 20
144.8470605709
 11
95.6586008532
 21
146.8382216494
  0
LINE
  5
357
100
AcDbEntity
  8
H_MOVING
100
AcDbLine
 62
1
  6
CONTINUOUS
 10
95.8827505897
 20
152.8382216494
 11
95.9571369616
 21
154.8293827278
  0
LINE
  5
358
100
AcDbEntity
  8
H_MOVING
100
AcDbLine
 62
1
  6
CONTINUOUS
 10
96.1812866981
 20
160.8293827278
 11
96.25567307
 21
162.8205438062
  0
LINE
  5
359
100
AcDbEntity
  8
H_MOVING
100
AcDbLine
 62
1
  6
CONTINUOUS
 10
96.4798228065
 20
168.8205438062
 11
96.5542091784
 21
170.8117048846
  0
LINE
  5
35A
100
AcDbEntity
  8
H_MOVING
100
AcDbLine
 62
1
  6
CONTINUOUS
 10
96.778358915
 20
176.8117048846
 11
96.8527452868
 21
178.8028659631
  0
LINE
  5
35B
100
AcDbEntity
  8
H_MOVING
100
AcDbLine
 62
1
  6
CONTINUOUS
 10
97.0768950234
 20
184.8028659631
 11
97.1512813952
 21
186.7940270415
  0
LINE
  5
35C
100
AcDbEntity
  8
H_MOVING
100
AcDbLine
 62
1
  6
CONTINUOUS
 10
97.3754311318
 20
192.7940270415
 11
97.4498175036
 21
194.7851881199
  0
LINE
  5
35D
100
AcDbEntity
  8
H_MOVING
100
AcDbLine
 62
1
  6
CONTINUOUS
 10
97.6739672402
 20
200.7851881199
 11
97.7483536121
 21
202.7763491983
  0
LINE
  5
35E
100
AcDbEntity
  8
H_MOVING
100
AcDbLine
 62
1
  6
CONTINUOUS
 10
97.9725033486
 20
208.7763491983
 11
98.0468897205
 21
210.7675102768
  0
LINE
  5
35F
100
AcDbEntity
  8
INTER_PHASE_SCHIELDS
100
AcDbLine
 62
5
  6
CONTINUOUS
 10
268.760730774
 20
91.1089333001
 11
274.760730774
 21
85.1089333001
  0
LINE
  5
360
100
AcDbEntity
  8
H_EXTERN_HANDLE
100
AcDbLine
 62
7
  6
CONTINUOUS
 10
132.460730774
 20
238.9089333001
 11
126.460730774
 21
248.908933022
  0
LINE
  5
361
100
AcDbEntity
  8
H_EXTERN_HANDLE
100
AcDbLine
 62
7
  6
CONTINUOUS
 10
126.460730774
 20
238.9089333001
 11
126.460730774
 21
318.9089333001
  0
LINE
  5
362
100
AcDbEntity
  8
H_EXTERN_HANDLE
100
AcDbLine
 62
7
  6
CONTINUOUS
 10
132.460730774
 20
238.9089333001
 11
132.460730774
 21
318.9089333001
  0
LINE
  5
363
100
AcDbEntity
  8
H_EXTERN_HANDLE
100
AcDbLine
 62
7
  6
CONTINUOUS
 10
141.460730774
 20
318.9089333001
 11
141.460730774
 21
238.9089333001
  0
LINE
  5
364
100
AcDbEntity
  8
0
100
AcDbLine
 62
7
  6
CONTINUOUS
 10
0.0
 20
0.0
 11
1315.1533480222
 21
0.0
  0
LINE
  5
365
100
AcDbEntity
  8
0
100
AcDbLine
 62
7
  6
CONTINUOUS
 10
0.0
 20
0.0
 11
1315.1533480222
 21
0.0
  0
LINE
  5
366
100
AcDbEntity
  8
INTER_PHASE_SCHIELDS
100
AcDbLine
 62
5
  6
CONTINUOUS
 10
275.360730774
 20
159.1089333001
 11
273.360730774
 21
161.1089333001
  0
LINE
  5
367
100
AcDbEntity
  8
0
100
AcDbLine
 62
7
  6
CONTINUOUS
 10
181.6272621339
 20
793.2525596924
 11
181.6272621339
 21
842.5025596924
  0
LINE
  5
368
100
AcDbEntity
  8
BASIC_DEVICE
100
AcDbLine
 62
7
  6
CONTINUOUS
 10
187.460730774
 20
286.4089333001
 11
187.460730774
 21
271.4089333001
  0
LINE
  5
369
100
AcDbEntity
  8
0
100
AcDbLine
 62
1
  6
CONTINUOUS
 10
196.2272621339
 20
842.5025596924
 11
196.2272621339
 21
793.2525596924
  0
LINE
  5
36A
100
AcDbEntity
  8
BASIC_DEVICE
100
AcDbLine
 62
1
  6
CONTINUOUS
 10
201.160730774
 20
277.3589333001
 11
201.160730774
 21
280.4589333001
  0
LINE
  5
36B
100
AcDbEntity
  8
BASIC_DEVICE
100
AcDbLine
 62
1
  6
CONTINUOUS
 10
202.160730774
 20
276.3589333001
 11
201.160730774
 21
277.3589333001
  0
LINE
  5
36C
100
AcDbEntity
  8
BASIC_DEVICE
100
AcDbLine
 62
1
  6
CONTINUOUS
 10
209.260730774
 20
294.5089333001
 11
209.260730774
 21
281.4589333001
  0
LINE
  5
36D
100
AcDbEntity
  8
BASIC_DEVICE
100
AcDbLine
 62
1
  6
CONTINUOUS
 10
209.260730774
 20
276.3589333001
 11
209.260730774
 21
263.3089333001
  0
LINE
  5
36E
100
AcDbEntity
  8
BASIC_DEVICE
100
AcDbLine
 62
1
  6
CONTINUOUS
 10
210.360730774
 20
290.1596002104
 11
210.360730774
 21
267.3156099444
  0
LINE
  5
36F
100
AcDbEntity
  8
BASIC_DEVICE
100
AcDbLine
 62
1
  6
CONTINUOUS
 10
211.460730774
 20
267.3156099444
 11
211.460730774
 21
290.1596002104
  0
LINE
  5
370
100
AcDbEntity
  8
BASIC_DEVICE
100
AcDbLine
 62
7
  6
CONTINUOUS
 10
213.460730774
 20
150.9089333001
 11
213.460730774
 21
350.9089333001
  0
LINE
  5
371
100
AcDbEntity
  8
TERMINAL_SCHROUD
100
AcDbLine
 62
2
  6
CONTINUOUS
 10
215.460730774
 20
481.4089333001
 11
215.460730774
 21
436.3084282367
  0
LINE
  5
372
100
AcDbEntity
  8
TERMINAL_SCHROUD
100
AcDbLine
 62
2
  6
CONTINUOUS
 10
217.460730774
 20
436.3084282367
 11
217.460730774
 21
481.4089333001
  0
LINE
  5
373
100
AcDbEntity
  8
INTER_PHASE_SCHIELDS
100
AcDbLine
 62
5
  6
CONTINUOUS
 10
274.760730774
 20
85.1089333001
 11
345.460730774
 21
85.1089333001
  0
LINE
  5
374
100
AcDbEntity
  8
INTER_PHASE_SCHIELDS
100
AcDbLine
 62
5
  6
CONTINUOUS
 10
594.1766418345
 20
85.1089333
 11
596.1766418345
 21
85.1089333
  0
LINE
  5
375
100
AcDbEntity
  8
INTER_PHASE_SCHIELDS
100
AcDbLine
 62
5
  6
CONTINUOUS
 10
714.1766418345
 20
85.1089333
 11
716.1766418345
 21
85.1089333
  0
LINE
  5
376
100
AcDbEntity
  8
INTER_PHASE_SCHIELDS
100
AcDbLine
 62
5
  6
CONTINUOUS
 10
834.1766418345
 20
85.1089333
 11
836.1766418345
 21
85.1089333
  0
LINE
  5
377
100
AcDbEntity
  8
BASIC_DEVICE
100
AcDbLine
 62
7
  6
CONTINUOUS
 10
306.460730774
 20
85.9089333001
 11
313.460730774
 21
85.9089333001
  0
LINE
  5
378
100
AcDbEntity
  8
BASIC_DEVICE
100
AcDbLine
 62
7
  6
CONTINUOUS
 10
508.6766418303
 20
85.9089333001
 11
561.6766418303
 21
85.9089333001
  0
LINE
  5
379
100
AcDbEntity
  8
BASIC_DEVICE
100
AcDbLine
 62
7
  6
CONTINUOUS
 10
628.6766418303
 20
85.9089333001
 11
681.6766418303
 21
85.9089333001
  0
LINE
  5
37A
100
AcDbEntity
  8
BASIC_DEVICE
100
AcDbLine
 62
7
  6
CONTINUOUS
 10
748.6766418303
 20
85.9089333001
 11
801.6766418303
 21
85.9089333001
  0
LINE
  5
37B
100
AcDbEntity
  8
BASIC_DEVICE
100
AcDbLine
 62
7
  6
CONTINUOUS
 10
868.6766418303
 20
85.9089333001
 11
921.6766418303
 21
85.9089333001
  0
LINE
  5
37C
100
AcDbEntity
  8
H_MOVING
100
AcDbLine
 62
1
  6
CONTINUOUS
 10
45.460730774
 20
88.908933022
 11
93.4944617224
 21
88.908933022
  0
LINE
  5
37D
100
AcDbEntity
  8
H_MOVING
100
AcDbLine
 62
1
  6
CONTINUOUS
 10
731.1850662581
 20
89.9089333001
 11
712.1850662581
 21
89.9089333001
  0
LINE
  5
37E
100
AcDbEntity
  8
H_MOVING
100
AcDbLine
 62
1
  6
CONTINUOUS
 10
93.5688480943
 20
90.9000941004
 11
91.796516832
 21
90.9000941004
  0
LINE
  5
37F
100
AcDbEntity
  8
BASIC_DEVICE
100
AcDbLine
 62
7
  6
CONTINUOUS
 10
313.460730774
 20
90.9089333001
 11
306.460730774
 21
90.9089333001
  0
LINE
  5
380
100
AcDbEntity
  8
INTER_PHASE_SCHIELDS
100
AcDbLine
 62
5
  6
CONTINUOUS
 10
837.1766418345
 20
91.1089333
 11
836.1766418345
 21
91.1089333
  0
LINE
  5
381
100
AcDbEntity
  8
INTER_PHASE_SCHIELDS
100
AcDbLine
 62
5
  6
CONTINUOUS
 10
717.1766418345
 20
91.1089333
 11
716.1766418345
 21
91.1089333
  0
LINE
  5
382
100
AcDbEntity
  8
INTER_PHASE_SCHIELDS
100
AcDbLine
 62
5
  6
CONTINUOUS
 10
597.1766418345
 20
91.1089333
 11
596.1766418345
 21
91.1089333
  0
LINE
  5
383
100
AcDbEntity
  8
INTER_PHASE_SCHIELDS
100
AcDbLine
 62
5
  6
CONTINUOUS
 10
282.160730774
 20
91.1089333001
 11
337.960730774
 21
91.1089333001
  0
LINE
  5
384
100
AcDbEntity
  8
INTER_PHASE_SCHIELDS
100
AcDbLine
 62
5
  6
CONTINUOUS
 10
593.1766418345
 20
91.1089333
 11
594.1766418345
 21
91.1089333
  0
LINE
  5
385
100
AcDbEntity
  8
INTER_PHASE_SCHIELDS
100
AcDbLine
 62
5
  6
CONTINUOUS
 10
713.1766418345
 20
91.1089333
 11
714.1766418345
 21
91.1089333
  0
LINE
  5
386
100
AcDbEntity
  8
INTER_PHASE_SCHIELDS
100
AcDbLine
 62
5
  6
CONTINUOUS
 10
833.1766418345
 20
91.1089333
 11
834.1766418345
 21
91.1089333
  0
LINE
  5
387
100
AcDbEntity
  8
INTER_PHASE_SCHIELDS
100
AcDbLine
 62
5
  6
CONTINUOUS
 10
282.160730774
 20
93.1089333001
 11
337.960730774
 21
93.1089333001
  0
LINE
  5
388
100
AcDbEntity
  8
TERMINAL_SCHROUD
100
AcDbLine
 62
2
  6
CONTINUOUS
 10
265.460730774
 20
381.3378654882
 11
265.460730774
 21
328.4089333001
  0
LINE
  5
389
100
AcDbEntity
  8
BASIC_DEVICE
100
AcDbLine
 62
7
  6
CONTINUOUS
 10
267.460730774
 20
350.9089333001
 11
267.460730774
 21
150.9089333001
  0
LINE
  5
38A
100
AcDbEntity
  8
TERMINAL_SCHROUD
100
AcDbLine
 62
2
  6
CONTINUOUS
 10
267.460730774
 20
328.4089333001
 11
267.460730774
 21
381.3378654882
  0
LINE
  5
38B
100
AcDbEntity
  8
INTER_PHASE_SCHIELDS
100
AcDbLine
 62
5
  6
CONTINUOUS
 10
268.760730774
 20
154.1089333001
 11
268.760730774
 21
91.1089333001
  0
LINE
  5
38C
100
AcDbEntity
  8
INTER_PHASE_SCHIELDS
100
AcDbLine
 62
5
  6
CONTINUOUS
 10
268.760730774
 20
347.7089333001
 11
268.760730774
 21
410.7089333001
  0
LINE
  5
38D
100
AcDbEntity
  8
INTER_PHASE_SCHIELDS
100
AcDbLine
 62
5
  6
CONTINUOUS
 10
270.760730774
 20
161.1089333001
 11
270.760730774
 21
154.1089333001
  0
LINE
  5
38E
100
AcDbEntity
  8
INTER_PHASE_SCHIELDS
100
AcDbLine
 62
5
  6
CONTINUOUS
 10
270.760730774
 20
340.7089333001
 11
270.760730774
 21
347.7089333001
  0
LINE
  5
38F
100
AcDbEntity
  8
INTER_PHASE_SCHIELDS
100
AcDbLine
 62
5
  6
CONTINUOUS
 10
273.860730774
 20
357.2089333001
 11
273.860730774
 21
344.5089333001
  0
LINE
  5
390
100
AcDbEntity
  8
INTER_PHASE_SCHIELDS
100
AcDbLine
 62
5
  6
CONTINUOUS
 10
273.860730774
 20
144.6089333001
 11
273.860730774
 21
157.3089333001
  0
LINE
  5
391
100
AcDbEntity
  8
INTER_PHASE_SCHIELDS
100
AcDbLine
 62
5
  6
CONTINUOUS
 10
275.360730774
 20
344.5089333001
 11
275.360730774
 21
342.7089333001
  0
LINE
  5
392
100
AcDbEntity
  8
INTER_PHASE_SCHIELDS
100
AcDbLine
 62
5
  6
CONTINUOUS
 10
275.360730774
 20
157.3089333001
 11
275.360730774
 21
159.1089333001
  0
LINE
  5
393
100
AcDbEntity
  8
INTER_PHASE_SCHIELDS
100
AcDbLine
 62
5
  6
CONTINUOUS
 10
278.360730774
 20
154.1089333001
 11
278.360730774
 21
144.6089333001
  0
LINE
  5
394
100
AcDbEntity
  8
INTER_PHASE_SCHIELDS
100
AcDbLine
 62
5
  6
CONTINUOUS
 10
278.360730774
 20
347.7089333001
 11
278.360730774
 21
357.2089333001
  0
LINE
  5
395
100
AcDbEntity
  8
INTER_PHASE_SCHIELDS
100
AcDbLine
 62
5
  6
CONTINUOUS
 10
279.160730774
 20
147.4089333001
 11
279.160730774
 21
94.1089333001
  0
LINE
  5
396
100
AcDbEntity
  8
INTER_PHASE_SCHIELDS
100
AcDbLine
 62
5
  6
CONTINUOUS
 10
279.160730774
 20
354.4089333001
 11
279.160730774
 21
407.7089333001
  0
LINE
  5
397
100
AcDbEntity
  8
INTER_PHASE_SCHIELDS
100
AcDbLine
 62
5
  6
CONTINUOUS
 10
281.160730774
 20
147.4089333001
 11
281.160730774
 21
94.1089333001
  0
LINE
  5
398
100
AcDbEntity
  8
INTER_PHASE_SCHIELDS
100
AcDbLine
 62
5
  6
CONTINUOUS
 10
281.160730774
 20
354.4089333001
 11
281.160730774
 21
407.7089333001
  0
LINE
  5
399
100
AcDbEntity
  8
H_MOVING
100
AcDbLine
 62
1
  6
CONTINUOUS
 10
91.796516832
 20
96.9000941004
 11
93.7929978308
 21
96.9000941004
  0
LINE
  5
39A
100
AcDbEntity
  8
H_MOVING
100
AcDbLine
 62
1
  6
CONTINUOUS
 10
93.8673842027
 20
98.8912551788
 11
92.0950529404
 21
98.8912551788
  0
LINE
  5
39B
100
AcDbEntity
  8
H_MOVING
100
AcDbLine
 62
1
  6
CONTINUOUS
 10
92.0950529404
 20
104.8912551788
 11
94.0915339393
 21
104.8912551788
  0
LINE
  5
39C
100
AcDbEntity
  8
AXIS
100
AcDbLine
 62
4
  6
CONTINUOUS
 10
322.460730774
 20
105.9089333001
 11
297.460730774
 21
105.9089333001
  0
LINE
  5
39D
100
AcDbEntity
  8
H_MOVING
100
AcDbLine
 62
1
  6
CONTINUOUS
 10
94.1659203111
 20
106.8824162572
 11
92.3935890488
 21
106.8824162572
  0
LINE
  5
39E
100
AcDbEntity
  8
H_MOVING
100
AcDbLine
 62
1
  6
CONTINUOUS
 10
92.3935890488
 20
112.8824162572
 11
94.3900700477
 21
112.8824162572
  0
LINE
  5
39F
100
AcDbEntity
  8
H_MOVING
100
AcDbLine
 62
1
  6
CONTINUOUS
 10
94.4644564195
 20
114.8735773357
 11
92.6921251572
 21
114.8735773357
  0
LINE
  5
3A0
100
AcDbEntity
  8
H_MOVING
100
AcDbLine
 62
1
  6
CONTINUOUS
 10
92.6921251572
 20
120.8735773357
 11
94.6886061561
 21
120.8735773357
  0
LINE
  5
3A1
100
AcDbEntity
  8
H_MOVING
100
AcDbLine
 62
1
  6
CONTINUOUS
 10
94.7629925279
 20
122.8647384141
 11
92.9906612656
 21
122.8647384141
  0
LINE
  5
3A2
100
AcDbEntity
  8
AXIS
100
AcDbLine
 62
4
  6
CONTINUOUS
 10
322.460730774
 20
125.9089333001
 11
297.460730774
 21
125.9089333001
  0
LINE
  5
3A3
100
AcDbEntity
  8
H_MOVING
100
AcDbLine
 62
1
  6
CONTINUOUS
 10
92.9906612656
 20
128.8647384141
 11
94.9871422645
 21
128.8647384141
  0
LINE
  5
3A4
100
AcDbEntity
  8
H_MOVING
100
AcDbLine
 62
1
  6
CONTINUOUS
 10
95.0615286364
 20
130.8558994925
 11
93.289197374
 21
130.8558994925
  0
LINE
  5
3A5
100
AcDbEntity
  8
INTER_PHASE_SCHIELDS
100
AcDbLine
 62
5
  6
CONTINUOUS
 10
351.460730774
 20
135.9089333001
 11
349.460730774
 21
135.9089333001
  0
LINE
  5
3A6
100
AcDbEntity
  8
H_MOVING
100
AcDbLine
 62
1
  6
CONTINUOUS
 10
93.289197374
 20
136.8558994925
 11
95.2856783729
 21
136.8558994925
  0
LINE
  5
3A7
100
AcDbEntity
  8
H_MOVING
100
AcDbLine
 62
1
  6
CONTINUOUS
 10
95.3600647448
 20
138.8470605709
 11
93.5877334824
 21
138.8470605709
  0
LINE
  5
3A8
100
AcDbEntity
  8
BASIC_DEVICE
100
AcDbLine
 62
7
  6
CONTINUOUS
 10
503.6766418303
 20
90.9089333001
 11
508.6766418303
 21
85.9089333001
  0
LINE
  5
3A9
100
AcDbEntity
  8
BASIC_DEVICE
100
AcDbLine
 62
7
  6
CONTINUOUS
 10
306.460730774
 20
415.9089333001
 11
306.460730774
 21
150.9089333001
  0
LINE
  5
3AA
100
AcDbEntity
  8
BASIC_DEVICE
100
AcDbLine
 62
7
  6
CONTINUOUS
 10
306.460730774
 20
150.9078473626
 11
306.460730774
 21
85.9089333001
  0
LINE
  5
3AB
100
AcDbEntity
  8
BASIC_DEVICE
100
AcDbLine
 62
7
  6
CONTINUOUS
 10
313.460730774
 20
85.9089333001
 11
313.460730774
 21
150.9078473626
  0
LINE
  5
3AC
100
AcDbEntity
  8
BASIC_DEVICE
100
AcDbLine
 62
7
  6
CONTINUOUS
 10
313.460730774
 20
350.9080583001
 11
313.460730774
 21
415.9089333001
  0
LINE
  5
3AD
100
AcDbEntity
  8
0
100
AcDbLine
 62
1
  6
CONTINUOUS
 10
316.2272621339
 20
842.5025596924
 11
316.2272621339
 21
793.2525596924
  0
LINE
  5
3AE
100
AcDbEntity
  8
BASIC_DEVICE
100
AcDbLine
 62
7
  6
CONTINUOUS
 10
328.460730774
 20
173.4089333001
 11
328.460730774
 21
150.9089333001
  0
LINE
  5
3AF
100
AcDbEntity
  8
BASIC_DEVICE
100
AcDbLine
 62
7
  6
CONTINUOUS
 10
328.460730774
 20
328.4089333001
 11
328.460730774
 21
350.9089333001
  0
LINE
  5
3B0
100
AcDbEntity
  8
INTER_PHASE_SCHIELDS
100
AcDbLine
 62
5
  6
CONTINUOUS
 10
338.960730774
 20
407.7089333001
 11
338.960730774
 21
354.4089333001
  0
LINE
  5
3B1
100
AcDbEntity
  8
INTER_PHASE_SCHIELDS
100
AcDbLine
 62
5
  6
CONTINUOUS
 10
338.960730774
 20
94.1089333001
 11
338.960730774
 21
147.4089333001
  0
LINE
  5
3B2
100
AcDbEntity
  8
INTER_PHASE_SCHIELDS
100
AcDbLine
 62
5
  6
CONTINUOUS
 10
340.960730774
 20
407.7089333001
 11
340.960730774
 21
354.4089333001
  0
LINE
  5
3B3
100
AcDbEntity
  8
INTER_PHASE_SCHIELDS
100
AcDbLine
 62
5
  6
CONTINUOUS
 10
340.960730774
 20
94.1089333001
 11
340.960730774
 21
147.4089333001
  0
LINE
  5
3B4
100
AcDbEntity
  8
INTER_PHASE_SCHIELDS
100
AcDbLine
 62
5
  6
CONTINUOUS
 10
341.860730774
 20
357.2089333001
 11
341.860730774
 21
347.7089333001
  0
LINE
  5
3B5
100
AcDbEntity
  8
INTER_PHASE_SCHIELDS
100
AcDbLine
 62
5
  6
CONTINUOUS
 10
341.860730774
 20
144.6089333001
 11
341.860730774
 21
154.1089333001
  0
LINE
  5
3B6
100
AcDbEntity
  8
H_MOVING
100
AcDbLine
 62
1
  6
CONTINUOUS
 10
93.5877334824
 20
144.8470605709
 11
95.5842144813
 21
144.8470605709
  0
LINE
  5
3B7
100
AcDbEntity
  8
H_MOVING
100
AcDbLine
 62
1
  6
CONTINUOUS
 10
95.6586008532
 20
146.8382216494
 11
93.8862695909
 21
146.8382216494
  0
LINE
  5
3B8
100
AcDbEntity
  8
INTER_PHASE_SCHIELDS
100
AcDbLine
 62
5
  6
CONTINUOUS
 10
337.960730774
 20
148.4089333001
 11
282.160730774
 21
148.4089333001
  0
LINE
  5
3B9
100
AcDbEntity
  8
INTER_PHASE_SCHIELDS
100
AcDbLine
 62
5
  6
CONTINUOUS
 10
834.1766418345
 20
150.4089333
 11
833.1766418345
 21
150.4089333
  0
LINE
  5
3BA
100
AcDbEntity
  8
INTER_PHASE_SCHIELDS
100
AcDbLine
 62
5
  6
CONTINUOUS
 10
714.1766418345
 20
150.4089333
 11
713.1766418345
 21
150.4089333
  0
LINE
  5
3BB
100
AcDbEntity
  8
INTER_PHASE_SCHIELDS
100
AcDbLine
 62
5
  6
CONTINUOUS
 10
594.1766418345
 20
150.4089333
 11
593.1766418345
 21
150.4089333
  0
LINE
  5
3BC
100
AcDbEntity
  8
INTER_PHASE_SCHIELDS
100
AcDbLine
 62
5
  6
CONTINUOUS
 10
337.960730774
 20
150.4089333001
 11
282.160730774
 21
150.4089333001
  0
LINE
  5
3BD
100
AcDbEntity
  8
INTER_PHASE_SCHIELDS
100
AcDbLine
 62
5
  6
CONTINUOUS
 10
596.1766418345
 20
150.4089333
 11
597.1766418345
 21
150.4089333
  0
LINE
  5
3BE
100
AcDbEntity
  8
INTER_PHASE_SCHIELDS
100
AcDbLine
 62
5
  6
CONTINUOUS
 10
716.1766418345
 20
150.4089333
 11
717.1766418345
 21
150.4089333
  0
LINE
  5
3BF
100
AcDbEntity
  8
INTER_PHASE_SCHIELDS
100
AcDbLine
 62
5
  6
CONTINUOUS
 10
836.1766418345
 20
150.4089333
 11
837.1766418345
 21
150.4089333
  0
LINE
  5
3C0
100
AcDbEntity
  8
INTER_PHASE_SCHIELDS
100
AcDbLine
 62
5
  6
CONTINUOUS
 10
838.6766418345
 20
150.9089333
 11
836.1766418345
 21
150.9089333
  0
LINE
  5
3C1
100
AcDbEntity
  8
INTER_PHASE_SCHIELDS
100
AcDbLine
 62
5
  6
CONTINUOUS
 10
834.1766418345
 20
150.9089333
 11
831.6766418345
 21
150.9089333
  0
LINE
  5
3C2
100
AcDbEntity
  8
INTER_PHASE_SCHIELDS
100
AcDbLine
 62
5
  6
CONTINUOUS
 10
718.6766418345
 20
150.9089333
 11
716.1766418345
 21
150.9089333
  0
LINE
  5
3C3
100
AcDbEntity
  8
INTER_PHASE_SCHIELDS
100
AcDbLine
 62
5
  6
CONTINUOUS
 10
714.1766418345
 20
150.9089333
 11
711.6766418345
 21
150.9089333
  0
LINE
  5
3C4
100
AcDbEntity
  8
INTER_PHASE_SCHIELDS
100
AcDbLine
 62
5
  6
CONTINUOUS
 10
598.6766418345
 20
150.9089333
 11
596.1766418345
 21
150.9089333
  0
LINE
  5
3C5
100
AcDbEntity
  8
INTER_PHASE_SCHIELDS
100
AcDbLine
 62
5
  6
CONTINUOUS
 10
594.1766418345
 20
150.9089333
 11
591.6766418345
 21
150.9089333
  0
LINE
  5
3C6
100
AcDbEntity
  8
BASIC_DEVICE
100
AcDbLine
 62
7
  6
CONTINUOUS
 10
353.460730774
 20
150.9089333001
 11
213.460730774
 21
150.9089333001
  0
LINE
  5
3C7
100
AcDbEntity
  8
INTER_PHASE_SCHIELDS
100
AcDbLine
 62
5
  6
CONTINUOUS
 10
349.460730774
 20
150.9089333001
 11
351.460730774
 21
150.9089333001
  0
LINE
  5
3C8
100
AcDbEntity
  8
BASIC_DEVICE
100
AcDbLine
 62
7
  6
CONTINUOUS
 10
656.6850662581
 20
150.9089333001
 11
967.6766418346
 21
150.9089333001
  0
LINE
  5
3C9
100
AcDbEntity
  8
BASIC_DEVICE
100
AcDbLine
 62
7
  6
CONTINUOUS
 10
475.6766418303
 20
150.9096339049
 11
781.6766418346
 21
150.9089333001
  0
LINE
  5
3CA
100
AcDbEntity
  8
H_MOVING
100
AcDbLine
 62
1
  6
CONTINUOUS
 10
93.8862695909
 20
152.8382216494
 11
95.8827505897
 21
152.8382216494
  0
LINE
  5
3CB
100
AcDbEntity
  8
INTER_PHASE_SCHIELDS
100
AcDbLine
 62
5
  6
CONTINUOUS
 10
351.460730774
 20
154.1089333001
 11
349.460730774
 21
154.1089333001
  0
LINE
  5
3CC
100
AcDbEntity
  8
INTER_PHASE_SCHIELDS
100
AcDbLine
 62
5
  6
CONTINUOUS
 10
341.860730774
 20
154.1089333001
 11
278.360730774
 21
154.1089333001
  0
LINE
  5
3CD
100
AcDbEntity
  8
INTER_PHASE_SCHIELDS
100
AcDbLine
 62
5
  6
CONTINUOUS
 10
270.760730774
 20
154.1089333001
 11
268.760730774
 21
154.1089333001
  0
LINE
  5
3CE
100
AcDbEntity
  8
H_MOVING
100
AcDbLine
 62
1
  6
CONTINUOUS
 10
95.9571369616
 20
154.8293827278
 11
94.1848056993
 21
154.8293827278
  0
LINE
  5
3CF
100
AcDbEntity
  8
BASIC_DEVICE
100
AcDbLine
 62
7
  6
CONTINUOUS
 10
661.6850662581
 20
155.9089333001
 11
781.6850662581
 21
155.9089333001
  0
LINE
  5
3D0
100
AcDbEntity
  8
INTER_PHASE_SCHIELDS
100
AcDbLine
 62
5
  6
CONTINUOUS
 10
273.860730774
 20
157.3089333001
 11
275.360730774
 21
157.3089333001
  0
LINE
  5
3D1
100
AcDbEntity
  8
INTER_PHASE_SCHIELDS
100
AcDbLine
 62
5
  6
CONTINUOUS
 10
344.860730774
 20
157.3089333001
 11
346.360730774
 21
157.3089333001
  0
LINE
  5
3D2
100
AcDbEntity
  8
BASIC_DEVICE
100
AcDbLine
 62
7
  6
CONTINUOUS
 10
832.7161551713
 20
158.1589333001
 11
826.6539773448
 21
158.1589333001
  0
LINE
  5
3D3
100
AcDbEntity
  8
BASIC_DEVICE
100
AcDbLine
 62
7
  6
CONTINUOUS
 10
608.6539773448
 20
158.1589333
 11
614.7161551713
 21
158.1589333
  0
LINE
  5
3D4
100
AcDbEntity
  8
H_MOVING
100
AcDbLine
 62
1
  6
CONTINUOUS
 10
94.1848056993
 20
160.8293827278
 11
96.1812866981
 21
160.8293827278
  0
LINE
  5
3D5
100
AcDbEntity
  8
INTER_PHASE_SCHIELDS
100
AcDbLine
 62
5
  6
CONTINUOUS
 10
836.1766418345
 20
161.1089333
 11
834.1766418345
 21
161.1089333
  0
LINE
  5
3D6
100
AcDbEntity
  8
INTER_PHASE_SCHIELDS
100
AcDbLine
 62
5
  6
CONTINUOUS
 10
716.1766418345
 20
161.1089333
 11
714.1766418345
 21
161.1089333
  0
LINE
  5
3D7
100
AcDbEntity
  8
INTER_PHASE_SCHIELDS
100
AcDbLine
 62
5
  6
CONTINUOUS
 10
596.1766418345
 20
161.1089333
 11
594.1766418345
 21
161.1089333
  0
LINE
  5
3D8
100
AcDbEntity
  8
INTER_PHASE_SCHIELDS
100
AcDbLine
 62
5
  6
CONTINUOUS
 10
349.460730774
 20
161.1089333001
 11
346.860730774
 21
161.1089333001
  0
LINE
  5
3D9
100
AcDbEntity
  8
INTER_PHASE_SCHIELDS
100
AcDbLine
 62
5
  6
CONTINUOUS
 10
273.360730774
 20
161.1089333001
 11
270.760730774
 21
161.1089333001
  0
LINE
  5
3DA
100
AcDbEntity
  8
H_MOVING
100
AcDbLine
 62
1
  6
CONTINUOUS
 10
96.25567307
 20
162.8205438062
 11
94.4833418077
 21
162.8205438062
  0
LINE
  5
3DB
100
AcDbEntity
  8
AXIS
100
AcDbLine
 62
4
  6
CONTINUOUS
 10
947.6766418346
 20
163.4089333001
 11
962.6766418346
 21
163.4089333001
  0
LINE
  5
3DC
100
AcDbEntity
  8
AXIS
100
AcDbLine
 62
4
  6
CONTINUOUS
 10
480.6766418303
 20
163.4096339049
 11
495.6766418303
 21
163.4096339049
  0
LINE
  5
3DD
100
AcDbEntity
  8
BASIC_DEVICE
100
AcDbLine
 62
7
  6
CONTINUOUS
 10
614.7161551713
 20
168.6589333
 11
608.6539773448
 21
168.6589333
  0
LINE
  5
3DE
100
AcDbEntity
  8
BASIC_DEVICE
100
AcDbLine
 62
7
  6
CONTINUOUS
 10
826.6539773448
 20
168.6589333001
 11
832.7161551713
 21
168.6589333001
  0
LINE
  5
3DF
100
AcDbEntity
  8
H_MOVING
100
AcDbLine
 62
1
  6
CONTINUOUS
 10
94.4833418077
 20
168.8205438062
 11
96.4798228065
 21
168.8205438062
  0
LINE
  5
3E0
100
AcDbEntity
  8
H_MOVING
100
AcDbLine
 62
1
  6
CONTINUOUS
 10
96.5542091784
 20
170.8117048846
 11
94.7818779161
 21
170.8117048846
  0
LINE
  5
3E1
100
AcDbEntity
  8
BASIC_DEVICE
100
AcDbLine
 62
7
  6
CONTINUOUS
 10
267.460730774
 20
173.4089333001
 11
328.460730774
 21
173.4089333001
  0
LINE
  5
3E2
100
AcDbEntity
  8
BASIC_DEVICE
100
AcDbLine
 62
7
  6
CONTINUOUS
 10
955.1766418346
 20
173.4089333001
 11
967.6766418346
 21
173.4089333001
  0
LINE
  5
3E3
100
AcDbEntity
  8
BASIC_DEVICE
100
AcDbLine
 62
7
  6
CONTINUOUS
 10
488.1766418303
 20
173.4096339049
 11
475.6766418303
 21
173.4096339049
  0
LINE
  5
3E4
100
AcDbEntity
  8
BASIC_DEVICE
100
AcDbLine
 62
7
  6
CONTINUOUS
 10
351.460730774
 20
175.4089333001
 11
353.460730774
 21
175.4089333001
  0
LINE
  5
3E5
100
AcDbEntity
  8
H_MOVING
100
AcDbLine
 62
1
  6
CONTINUOUS
 10
94.7818779161
 20
176.8117048846
 11
96.778358915
 21
176.8117048846
  0
LINE
  5
3E6
100
AcDbEntity
  8
BASIC_DEVICE
100
AcDbLine
 62
7
  6
CONTINUOUS
 10
958.2077307478
 20
178.1589333001
 11
952.1455529213
 21
178.1589333001
  0
LINE
  5
3E7
100
AcDbEntity
  8
BASIC_DEVICE
100
AcDbLine
 62
7
  6
CONTINUOUS
 10
485.145552917
 20
178.1596339049
 11
491.2077307435
 21
178.1596339049
  0
LINE
  5
3E8
100
AcDbEntity
  8
H_MOVING
100
AcDbLine
 62
1
  6
CONTINUOUS
 10
96.8527452868
 20
178.8028659631
 11
95.0804140245
 21
178.8028659631
  0
LINE
  5
3E9
100
AcDbEntity
  8
H_MOVING
100
AcDbLine
 62
1
  6
CONTINUOUS
 10
95.0804140245
 20
184.8028659631
 11
97.0768950234
 21
184.8028659631
  0
LINE
  5
3EA
100
AcDbEntity
  8
TERMINAL_SCHROUD
100
AcDbLine
 62
2
  6
CONTINUOUS
 10
217.5109833057
 20
431.3586807684
 11
263.99626468
 21
384.8733993941
  0
LINE
  5
3EB
100
AcDbEntity
  8
TERMINAL_SCHROUD
100
AcDbLine
 62
2
  6
CONTINUOUS
 10
265.4104782423
 20
386.2876129565
 11
218.9251968681
 21
432.7728943307
  0
LINE
  5
3EC
100
AcDbEntity
  8
INTER_PHASE_SCHIELDS
100
AcDbLine
 62
5
  6
CONTINUOUS
 10
346.860730774
 20
340.7089333001
 11
344.860730774
 21
342.7089333001
  0
LINE
  5
3ED
100
AcDbEntity
  8
INTER_PHASE_SCHIELDS
100
AcDbLine
 62
5
  6
CONTINUOUS
 10
344.860730774
 20
159.1089333001
 11
344.860730774
 21
157.3089333001
  0
LINE
  5
3EE
100
AcDbEntity
  8
INTER_PHASE_SCHIELDS
100
AcDbLine
 62
5
  6
CONTINUOUS
 10
344.860730774
 20
342.7089333001
 11
344.860730774
 21
344.5089333001
  0
LINE
  5
3EF
100
AcDbEntity
  8
INTER_PHASE_SCHIELDS
100
AcDbLine
 62
5
  6
CONTINUOUS
 10
346.360730774
 20
157.3089333001
 11
346.360730774
 21
144.6089333001
  0
LINE
  5
3F0
100
AcDbEntity
  8
INTER_PHASE_SCHIELDS
100
AcDbLine
 62
5
  6
CONTINUOUS
 10
346.360730774
 20
344.5089333001
 11
346.360730774
 21
357.2089333001
  0
LINE
  5
3F1
100
AcDbEntity
  8
INTER_PHASE_SCHIELDS
100
AcDbLine
 62
5
  6
CONTINUOUS
 10
349.460730774
 20
365.9089333001
 11
349.460730774
 21
350.9089333001
  0
LINE
  5
3F2
100
AcDbEntity
  8
INTER_PHASE_SCHIELDS
100
AcDbLine
 62
5
  6
CONTINUOUS
 10
349.460730774
 20
347.7089333001
 11
349.460730774
 21
340.7089333001
  0
LINE
  5
3F3
100
AcDbEntity
  8
INTER_PHASE_SCHIELDS
100
AcDbLine
 62
5
  6
CONTINUOUS
 10
349.460730774
 20
135.9089333001
 11
349.460730774
 21
150.9089333001
  0
LINE
  5
3F4
100
AcDbEntity
  8
INTER_PHASE_SCHIELDS
100
AcDbLine
 62
5
  6
CONTINUOUS
 10
349.460730774
 20
154.1089333001
 11
349.460730774
 21
161.1089333001
  0
LINE
  5
3F5
100
AcDbEntity
  8
0
100
AcDbLine
 62
1
  6
CONTINUOUS
 10
350.2272621339
 20
842.5025596924
 11
350.2272621339
 21
793.2525596924
  0
LINE
  5
3F6
100
AcDbEntity
  8
INTER_PHASE_SCHIELDS
100
AcDbLine
 62
5
  6
CONTINUOUS
 10
351.460730774
 20
410.7089333001
 11
351.460730774
 21
347.7089333001
  0
LINE
  5
3F7
100
AcDbEntity
  8
BASIC_DEVICE
100
AcDbLine
 62
7
  6
CONTINUOUS
 10
351.460730774
 20
326.4089333001
 11
351.460730774
 21
175.4089333001
  0
LINE
  5
3F8
100
AcDbEntity
  8
INTER_PHASE_SCHIELDS
100
AcDbLine
 62
5
  6
CONTINUOUS
 10
351.460730774
 20
91.1089333001
 11
351.460730774
 21
154.1089333001
  0
LINE
  5
3F9
100
AcDbEntity
  8
BASIC_DEVICE
100
AcDbLine
 62
7
  6
CONTINUOUS
 10
353.460730774
 20
350.9089333001
 11
353.460730774
 21
326.4089333001
  0
LINE
  5
3FA
100
AcDbEntity
  8
BASIC_DEVICE
100
AcDbLine
 62
7
  6
CONTINUOUS
 10
353.460730774
 20
175.4089333001
 11
353.460730774
 21
150.9089333001
  0
LINE
  5
3FB
100
AcDbEntity
  8
0
100
AcDbLine
 62
1
  6
CONTINUOUS
 10
383.0084805674
 20
842.5025596924
 11
383.0084805674
 21
793.2525596924
  0
LINE
  5
3FC
100
AcDbEntity
  8
H_EXTERN_HANDLE
100
AcDbLine
 62
7
  6
CONTINUOUS
 10
734.8774647097
 20
935.3701176581
 11
723.1850662581
 21
925.3701176581
  0
LINE
  5
3FD
100
AcDbEntity
  8
H_MOVING
100
AcDbLine
 62
1
  6
CONTINUOUS
 10
97.1512813952
 20
186.7940270415
 11
95.3789501329
 21
186.7940270415
  0
LINE
  5
3FE
100
AcDbEntity
  8
BASIC_DEVICE
100
AcDbLine
 62
7
  6
CONTINUOUS
 10
952.1455529213
 20
188.6589333001
 11
958.2077307478
 21
188.6589333001
  0
LINE
  5
3FF
100
AcDbEntity
  8
BASIC_DEVICE
100
AcDbLine
 62
7
  6
CONTINUOUS
 10
491.2077307435
 20
188.6596339049
 11
485.145552917
 21
188.6596339049
  0
LINE
  5
400
100
AcDbEntity
  8
H_MOVING
100
AcDbLine
 62
1
  6
CONTINUOUS
 10
95.3789501329
 20
192.7940270415
 11
97.3754311318
 21
192.7940270415
  0
LINE
  5
401
100
AcDbEntity
  8
H_MOVING
100
AcDbLine
 62
1
  6
CONTINUOUS
 10
97.4498175036
 20
194.7851881199
 11
95.6774862413
 21
194.7851881199
  0
LINE
  5
402
100
AcDbEntity
  8
H_MOVING
100
AcDbLine
 62
1
  6
CONTINUOUS
 10
95.6774862413
 20
200.7851881199
 11
97.6739672402
 21
200.7851881199
  0
LINE
  5
403
100
AcDbEntity
  8
H_MOVING
100
AcDbLine
 62
1
  6
CONTINUOUS
 10
97.7483536121
 20
202.7763491983
 11
95.9760223497
 21
202.7763491983
  0
LINE
  5
404
100
AcDbEntity
  8
H_MOVING
100
AcDbLine
 62
1
  6
CONTINUOUS
 10
95.9760223497
 20
208.7763491983
 11
97.9725033486
 21
208.7763491983
  0
LINE
  5
405
100
AcDbEntity
  8
H_MOVING
100
AcDbLine
 62
1
  6
CONTINUOUS
 10
98.0468897205
 20
210.7675102768
 11
96.2745584581
 21
210.7675102768
  0
LINE
  5
406
100
AcDbEntity
  8
H_MOVING
100
AcDbLine
 62
1
  6
CONTINUOUS
 10
50.1241073701
 20
214.3554302561
 11
93.3327307783
 21
214.3554302561
  0
LINE
  5
407
100
AcDbEntity
  8
H_MOVING
100
AcDbLine
 62
1
  6
CONTINUOUS
 10
711.1850662581
 20
214.3554305342
 11
732.1850662581
 21
214.3554305342
  0
LINE
  5
408
100
AcDbEntity
  8
BASIC_DEVICE
100
AcDbLine
 62
7
  6
CONTINUOUS
 10
623.6766418303
 20
90.9089333001
 11
628.6766418303
 21
85.9089333001
  0
LINE
  5
409
100
AcDbEntity
  8
AM_12
100
AcDbLine
 62
4
  6
CONTINUOUS
 10
592.4436243619
 20
127.8377050321
 11
595.9436243619
 21
124.3377050321
  0
LINE
  5
40A
100
AcDbEntity
  8
INTER_PHASE_SCHIELDS
100
AcDbLine
 62
5
  6
CONTINUOUS
 10
345.460730774
 20
416.7089333001
 11
351.460730774
 21
410.7089333001
  0
LINE
  5
40B
100
AcDbEntity
  8
BASIC_DEVICE
100
AcDbLine
 62
7
  6
CONTINUOUS
 10
482.1144640038
 20
183.4096339049
 11
485.145552917
 21
178.1596339049
  0
LINE
  5
40C
100
AcDbEntity
  8
BASIC_DEVICE
100
AcDbLine
 62
7
  6
CONTINUOUS
 10
494.2388196568
 20
183.4096339049
 11
491.2077307435
 21
188.6596339049
  0
LINE
  5
40D
100
AcDbEntity
  8
0
100
AcDbLine
 62
7
  6
CONTINUOUS
 10
396.1084805674
 20
842.5025596924
 11
396.1084805674
 21
793.2525596924
  0
LINE
  5
40E
100
AcDbEntity
  8
BASIC_DEVICE
100
AcDbLine
 62
7
  6
CONTINUOUS
 10
636.6850662583
 20
233.9089333
 11
652.6850662583
 21
233.9089333
  0
LINE
  5
40F
100
AcDbEntity
  8
H_EXTERN_HANDLE
100
AcDbLine
 62
7
  6
CONTINUOUS
 10
141.460730774
 20
238.9089333001
 11
126.460730774
 21
238.9089333001
  0
LINE
  5
410
100
AcDbEntity
  8
BASIC_DEVICE
100
AcDbLine
 62
7
  6
CONTINUOUS
 10
876.6766418346
 20
241.9089333001
 11
858.6766418346
 21
241.9089333001
  0
LINE
  5
411
100
AcDbEntity
  8
BASIC_DEVICE
100
AcDbLine
 62
7
  6
CONTINUOUS
 10
861.6766418346
 20
244.9089333001
 11
873.6766418346
 21
244.9089333001
  0
LINE
  5
412
100
AcDbEntity
  8
H_EXTERN_HANDLE
100
AcDbLine
 62
7
  6
CONTINUOUS
 10
100.460730774
 20
248.908933022
 11
126.460730774
 21
248.908933022
  0
LINE
  5
413
100
AcDbEntity
  8
HANDLE_FIXING_HOLES
100
AcDbLine
 62
4
  6
CONTINUOUS
 10
1168.6426617845
 20
253.9089333001
 11
1183.5366687862
 21
253.9089333001
  0
LINE
  5
414
100
AcDbEntity
  8
BASIC_DEVICE
100
AcDbLine
 62
7
  6
CONTINUOUS
 10
873.6766418346
 20
256.9089333001
 11
861.6766418346
 21
256.9089333001
  0
LINE
  5
415
100
AcDbEntity
  8
BASIC_DEVICE
100
AcDbLine
 62
7
  6
CONTINUOUS
 10
858.6766418346
 20
259.9089333001
 11
876.6766418346
 21
259.9089333001
  0
LINE
  5
416
100
AcDbEntity
  8
BASIC_DEVICE
100
AcDbLine
 62
1
  6
CONTINUOUS
 10
209.260730774
 20
263.3089333001
 11
213.460730774
 21
263.3089333001
  0
LINE
  5
417
100
AcDbEntity
  8
H_EXTERN_HANDLE
100
AcDbLine
 62
7
  6
CONTINUOUS
 10
50.960730774
 20
264.658933022
 11
90.460730774
 21
264.658933022
  0
LINE
  5
418
100
AcDbEntity
  8
H_EXTERN_HANDLE
100
AcDbLine
 62
7
  6
CONTINUOUS
 10
695.1850662581
 20
264.6589333001
 11
748.1850662581
 21
264.6589333001
  0
LINE
  5
419
100
AcDbEntity
  8
BASIC_DEVICE
100
AcDbLine
 62
1
  6
CONTINUOUS
 10
210.360730774
 20
267.3156099444
 11
211.460730774
 21
267.3156099444
  0
LINE
  5
41A
100
AcDbEntity
  8
BASIC_DEVICE
100
AcDbLine
 62
7
  6
CONTINUOUS
 10
652.6850662583
 20
267.9089333
 11
636.6850662583
 21
267.9089333
  0
LINE
  5
41B
100
AcDbEntity
  8
H_EXTERN_HANDLE
100
AcDbLine
 62
7
  6
CONTINUOUS
 10
88.7102786304
 20
268.4089346742
 11
101.9607293999
 21
268.4089329401
  0
LINE
  5
41C
100
AcDbEntity
  8
H_EXTERN_HANDLE
100
AcDbLine
 62
7
  6
CONTINUOUS
 10
676.6850662581
 20
268.4089333001
 11
695.1850662581
 21
268.4089333001
  0
LINE
  5
41D
100
AcDbEntity
  8
H_EXTERN_HANDLE
100
AcDbLine
 62
7
  6
CONTINUOUS
 10
748.1850662581
 20
268.4089333001
 11
910.6850662581
 21
268.4089333001
  0
LINE
  5
41E
100
AcDbEntity
  8
H_EXTERN_HANDLE
100
AcDbLine
 62
7
  6
CONTINUOUS
 10
49.460730774
 20
268.658933022
 11
50.960730774
 21
268.658933022
  0
LINE
  5
41F
100
AcDbEntity
  8
H_EXTERN_HANDLE
100
AcDbLine
 62
7
  6
CONTINUOUS
 10
103.460730774
 20
270.408933022
 11
94.874693624
 21
270.408933022
  0
LINE
  5
420
100
AcDbEntity
  8
BASIC_DEVICE
100
AcDbLine
 62
1
  6
CONTINUOUS
 10
714.0350662581
 20
271.2589333001
 11
729.3350662581
 21
271.2589333001
  0
LINE
  5
421
100
AcDbEntity
  8
BASIC_DEVICE
100
AcDbLine
 62
7
  6
CONTINUOUS
 10
729.1850662581
 20
271.4089333001
 11
714.1850662581
 21
271.4089333001
  0
LINE
  5
422
100
AcDbEntity
  8
BASIC_DEVICE
100
AcDbLine
 62
7
  6
CONTINUOUS
 10
187.460730774
 20
271.4089333001
 11
209.260730774
 21
271.4089333001
  0
LINE
  5
423
100
AcDbEntity
  8
H_EXTERN_HANDLE
100
AcDbLine
 62
7
  6
CONTINUOUS
 10
126.460730774
 20
272.408933022
 11
103.460730774
 21
272.408933022
  0
LINE
  5
424
100
AcDbEntity
  8
H_EXTERN_HANDLE
100
AcDbLine
 62
7
  6
CONTINUOUS
 10
675.685066258
 20
272.9089333001
 11
709.6400400005
 21
272.9089333001
  0
LINE
  5
425
100
AcDbEntity
  8
H_EXTERN_HANDLE
100
AcDbLine
 62
7
  6
CONTINUOUS
 10
727.7300925156
 20
272.9089333001
 11
784.6850662581
 21
272.9089333001
  0
LINE
  5
426
100
AcDbEntity
  8
BASIC_DEVICE
100
AcDbLine
 62
7
  6
CONTINUOUS
 10
745.7682554156
 20
274.9089333001
 11
752.8619807946
 21
274.9089333001
  0
LINE
  5
427
100
AcDbEntity
  8
BASIC_DEVICE
100
AcDbLine
 62
1
  6
CONTINUOUS
 10
210.360730774
 20
276.3589333001
 11
202.160730774
 21
276.3589333001
  0
LINE
  5
428
100
AcDbEntity
  8
BASIC_DEVICE
100
AcDbLine
 62
1
  6
CONTINUOUS
 10
735.1850662581
 20
277.1089333001
 11
737.1808721423
 21
277.1089333001
  0
LINE
  5
429
100
AcDbEntity
  8
H_EXTERN_HANDLE
100
AcDbLine
 62
7
  6
CONTINUOUS
 10
54.0665650754
 20
269.9175686426
 11
88.2504200228
 21
268.4190081909
  0
LINE
  5
42A
100
AcDbEntity
  8
BASIC_DEVICE
100
AcDbLine
 62
7
  6
CONTINUOUS
 10
743.6766418303
 20
90.9089333001
 11
748.6766418303
 21
85.9089333001
  0
LINE
  5
42B
100
AcDbEntity
  8
AM_12
100
AcDbLine
 62
4
  6
CONTINUOUS
 10
712.4436243619
 20
127.8377050321
 11
715.9436243619
 21
124.3377050321
  0
LINE
  5
42C
100
AcDbEntity
  8
BASIC_DEVICE
100
AcDbLine
 62
7
  6
CONTINUOUS
 10
482.1144640038
 20
318.4096339049
 11
485.145552917
 21
313.1596339049
  0
LINE
  5
42D
100
AcDbEntity
  8
BASIC_DEVICE
100
AcDbLine
 62
7
  6
CONTINUOUS
 10
494.2388196568
 20
318.4096339049
 11
491.2077307435
 21
323.6596339049
  0
LINE
  5
42E
100
AcDbEntity
  8
TERMINAL_SCHROUD
100
AcDbLine
 62
2
  6
CONTINUOUS
 10
475.6766418303
 20
770.8701176581
 11
475.6766418303
 21
718.8701176581
  0
LINE
  5
42F
100
AcDbEntity
  8
BASIC_DEVICE
100
AcDbLine
 62
7
  6
CONTINUOUS
 10
475.6766418303
 20
350.9096339049
 11
475.6766418303
 21
150.9096339049
  0
LINE
  5
430
100
AcDbEntity
  8
TERMINAL_SCHROUD
100
AcDbLine
 62
2
  6
CONTINUOUS
 10
475.6766418303
 20
328.4096339049
 11
475.6766418303
 21
476.4096339049
  0
LINE
  5
431
100
AcDbEntity
  8
BASIC_DEVICE
100
AcDbLine
 62
7
  6
CONTINUOUS
 10
475.6766418346
 20
632.8701176581
 11
475.6766418346
 21
718.8701176581
  0
LINE
  5
432
100
AcDbEntity
  8
INTER_PHASE_SCHIELDS
100
AcDbLine
 62
5
  6
CONTINUOUS
 10
268.760730774
 20
410.7089333001
 11
274.760730774
 21
416.7089333001
  0
LINE
  5
433
100
AcDbEntity
  8
H_EXTERN_HANDLE
100
AcDbLine
 62
7
  6
CONTINUOUS
 10
88.2504198524
 20
289.3988584019
 11
54.0665649294
 21
287.9002973949
  0
LINE
  5
434
100
AcDbEntity
  8
AXIS
100
AcDbLine
 62
4
  6
CONTINUOUS
 10
216.460730774
 20
278.9089333001
 11
198.160730774
 21
278.9089333001
  0
LINE
  5
435
100
AcDbEntity
  8
H_EXTERN_HANDLE
100
AcDbLine
 62
4
  6
CONTINUOUS
 10
146.512779604
 20
278.9089333001
 11
42.1909342949
 21
278.9089333001
  0
LINE
  5
436
100
AcDbEntity
  8
BASIC_DEVICE
100
AcDbLine
 62
1
  6
CONTINUOUS
 10
210.360730774
 20
278.9089333001
 11
211.460730774
 21
278.9089333001
  0
LINE
  5
437
100
AcDbEntity
  8
AXIS
100
AcDbLine
 62
4
  6
CONTINUOUS
 10
661.6934906819
 20
278.9089333001
 11
928.58574467
 21
278.9089333001
  0
LINE
  5
438
100
AcDbEntity
  8
HANDLE_FIXING_HOLES
100
AcDbLine
 62
4
  6
CONTINUOUS
 10
1143.9977357664
 20
278.9089333001
 11
1207.8808987646
 21
278.9089333001
  0
LINE
  5
439
100
AcDbEntity
  8
BASIC_DEVICE
100
AcDbLine
 62
1
  6
CONTINUOUS
 10
737.1808721423
 20
280.7089333001
 11
735.1850662581
 21
280.7089333001
  0
LINE
  5
43A
100
AcDbEntity
  8
BASIC_DEVICE
100
AcDbLine
 62
1
  6
CONTINUOUS
 10
202.160730774
 20
281.4589333001
 11
210.360730774
 21
281.4589333001
  0
LINE
  5
43B
100
AcDbEntity
  8
H_EXTERN_HANDLE
100
AcDbLine
 62
7
  6
CONTINUOUS
 10
784.6850662581
 20
284.9089333
 11
727.7300925156
 21
284.9089333001
  0
LINE
  5
43C
100
AcDbEntity
  8
H_EXTERN_HANDLE
100
AcDbLine
 62
7
  6
CONTINUOUS
 10
709.6400400005
 20
284.9089333001
 11
675.6850662581
 21
284.9089333001
  0
LINE
  5
43D
100
AcDbEntity
  8
H_EXTERN_HANDLE
100
AcDbLine
 62
7
  6
CONTINUOUS
 10
103.460730774
 20
285.408933022
 11
126.460730774
 21
285.408933022
  0
LINE
  5
43E
100
AcDbEntity
  8
BASIC_DEVICE
100
AcDbLine
 62
7
  6
CONTINUOUS
 10
209.260730774
 20
286.4089333001
 11
187.460730774
 21
286.4089333001
  0
LINE
  5
43F
100
AcDbEntity
  8
BASIC_DEVICE
100
AcDbLine
 62
7
  6
CONTINUOUS
 10
714.1850662581
 20
286.4089333001
 11
729.1850662581
 21
286.4089333001
  0
LINE
  5
440
100
AcDbEntity
  8
BASIC_DEVICE
100
AcDbLine
 62
1
  6
CONTINUOUS
 10
729.3350662581
 20
286.5589333001
 11
714.0350662581
 21
286.5589333001
  0
LINE
  5
441
100
AcDbEntity
  8
H_EXTERN_HANDLE
100
AcDbLine
 62
7
  6
CONTINUOUS
 10
94.874694391
 20
287.408933022
 11
103.460730774
 21
287.408933022
  0
LINE
  5
442
100
AcDbEntity
  8
H_EXTERN_HANDLE
100
AcDbLine
 62
7
  6
CONTINUOUS
 10
50.960730774
 20
289.158933022
 11
49.460730774
 21
289.158933022
  0
LINE
  5
443
100
AcDbEntity
  8
H_EXTERN_HANDLE
100
AcDbLine
 62
7
  6
CONTINUOUS
 10
910.6850662581
 20
289.4089333001
 11
748.1850662581
 21
289.4089333001
  0
LINE
  5
444
100
AcDbEntity
  8
H_EXTERN_HANDLE
100
AcDbLine
 62
7
  6
CONTINUOUS
 10
695.1850662581
 20
289.4089333001
 11
676.6850662581
 21
289.4089333001
  0
LINE
  5
445
100
AcDbEntity
  8
H_EXTERN_HANDLE
100
AcDbLine
 62
7
  6
CONTINUOUS
 10
88.7102800045
 20
289.4089333001
 11
101.960730774
 21
289.4089333001
  0
LINE
  5
446
100
AcDbEntity
  8
BASIC_DEVICE
100
AcDbLine
 62
1
  6
CONTINUOUS
 10
211.460730774
 20
290.1596002104
 11
210.360730774
 21
290.1596002104
  0
LINE
  5
447
100
AcDbEntity
  8
H_EXTERN_HANDLE
100
AcDbLine
 62
7
  6
CONTINUOUS
 10
748.1850662581
 20
293.1589333001
 11
695.1850662581
 21
293.1589333001
  0
LINE
  5
448
100
AcDbEntity
  8
H_EXTERN_HANDLE
100
AcDbLine
 62
7
  6
CONTINUOUS
 10
50.960730774
 20
293.158933022
 11
90.460730774
 21
293.158933022
  0
LINE
  5
449
100
AcDbEntity
  8
BASIC_DEVICE
100
AcDbLine
 62
1
  6
CONTINUOUS
 10
213.460730774
 20
294.5089333001
 11
209.260730774
 21
294.5089333001
  0
LINE
  5
44A
100
AcDbEntity
  8
HANDLE_FIXING_HOLES
100
AcDbLine
 62
4
  6
CONTINUOUS
 10
1168.1610678802
 20
303.9089333001
 11
1184.0182626905
 21
303.9089333001
  0
LINE
  5
44B
100
AcDbEntity
  8
H_EXTERN_HANDLE
100
AcDbLine
 62
7
  6
CONTINUOUS
 10
126.460730774
 20
308.908933022
 11
100.460730774
 21
308.908933022
  0
LINE
  5
44C
100
AcDbEntity
  8
H_EXTERN_HANDLE
100
AcDbLine
 62
1
  6
CONTINUOUS
 10
721.6850662581
 20
309.4089333001
 11
737.6850662581
 21
309.4089333001
  0
LINE
  5
44D
100
AcDbEntity
  8
TEXT
100
AcDbLine
 62
2
  6
CONTINUOUS
 10
723.0010570263
 20
310.9580703996
 11
721.0010570263
 21
310.9580703996
  0
LINE
  5
44E
100
AcDbEntity
  8
TEXT
100
AcDbLine
 62
2
  6
CONTINUOUS
 10
721.0010570263
 20
310.9580703996
 11
723.0010570263
 21
310.9580703996
  0
LINE
  5
44F
100
AcDbEntity
  8
TEXT
100
AcDbLine
 62
2
  6
CONTINUOUS
 10
723.0010570263
 20
316.9580703996
 11
721.0010570263
 21
316.9580703996
  0
LINE
  5
450
100
AcDbEntity
  8
TEXT
100
AcDbLine
 62
2
  6
CONTINUOUS
 10
721.0010570263
 20
316.9580703996
 11
721.0010570263
 21
310.9580703996
  0
LINE
  5
451
100
AcDbEntity
  8
TEXT
100
AcDbLine
 62
2
  6
CONTINUOUS
 10
723.0010570263
 20
310.9580703996
 11
723.0010570263
 21
316.9580703996
  0
HATCH
  5
452
100
AcDbEntity
  8
TEXT
100
AcDbHatch
 62
2
  6
CONTINUOUS
 10
0.0
 20
0.0
 30
0.0
210
0.0
220
0.0
230
1.0
  2
SOLID
 70
1
 71
1
 91
1
 92
1
 93
4
 72
1
 10
723.0010570263
 20
310.9580703996
 11
723.0010570263
 21
316.9580703996
 72
1
 10
723.0010570263
 20
316.9580703996
 11
721.0010570263
 21
316.9580703996
 72
1
 10
721.0010570263
 20
316.9580703996
 11
721.0010570263
 21
310.9580703996
 72
1
 10
721.0010570263
 20
310.9580703996
 11
723.0010570263
 21
310.9580703996
 97
4
330
44E
330
44F
330
450
330
451
 75
0
 76
1
 98
1
 10
0.0
 20
0.0
  0
LINE
  5
453
100
AcDbEntity
  8
TEXT
100
AcDbLine
 62
2
  6
CONTINUOUS
 10
721.0010570263
 20
310.9580703996
 11
723.0010570263
 21
310.9580703996
  0
LINE
  5
454
100
AcDbEntity
  8
TEXT
100
AcDbLine
 62
2
  6
CONTINUOUS
 10
723.0010570263
 20
316.9580703996
 11
721.0010570263
 21
316.9580703996
  0
LINE
  5
455
100
AcDbEntity
  8
TEXT
100
AcDbLine
 62
2
  6
CONTINUOUS
 10
721.0010570263
 20
316.9580703996
 11
721.0010570263
 21
310.9580703996
  0
LINE
  5
456
100
AcDbEntity
  8
TEXT
100
AcDbLine
 62
2
  6
CONTINUOUS
 10
723.0010570263
 20
310.9580703996
 11
723.0010570263
 21
316.9580703996
  0
HATCH
  5
457
100
AcDbEntity
  8
TEXT
100
AcDbHatch
 62
2
  6
CONTINUOUS
 10
0.0
 20
0.0
 30
0.0
210
0.0
220
0.0
230
1.0
  2
SOLID
 70
1
 71
1
 91
1
 92
1
 93
4
 72
1
 10
723.0010570263
 20
310.9580703996
 11
723.0010570263
 21
316.9580703996
 72
1
 10
723.0010570263
 20
316.9580703996
 11
721.0010570263
 21
316.9580703996
 72
1
 10
721.0010570263
 20
316.9580703996
 11
721.0010570263
 21
310.9580703996
 72
1
 10
721.0010570263
 20
310.9580703996
 11
723.0010570263
 21
310.9580703996
 97
4
330
453
330
454
330
455
330
456
 75
0
 76
1
 98
1
 10
0.0
 20
0.0
  0
LINE
  5
458
100
AcDbEntity
  8
BASIC_DEVICE
100
AcDbLine
 62
7
  6
CONTINUOUS
 10
958.2077307478
 20
313.1589333001
 11
952.1455529213
 21
313.1589333001
  0
LINE
  5
459
100
AcDbEntity
  8
BASIC_DEVICE
100
AcDbLine
 62
7
  6
CONTINUOUS
 10
485.145552917
 20
313.1596339049
 11
491.2077307435
 21
313.1596339049
  0
LINE
  5
45A
100
AcDbEntity
  8
TEXT
100
AcDbLine
 62
2
  6
CONTINUOUS
 10
723.0010570263
 20
316.9580703996
 11
721.0010570263
 21
316.9580703996
  0
LINE
  5
45B
100
AcDbEntity
  8
H_EXTERN_HANDLE
100
AcDbLine
 62
1
  6
CONTINUOUS
 10
737.6850662581
 20
318.4089333001
 11
721.6850662581
 21
318.4089333001
  0
LINE
  5
45C
100
AcDbEntity
  8
H_EXTERN_HANDLE
100
AcDbLine
 62
7
  6
CONTINUOUS
 10
761.6850662581
 20
318.9089333001
 11
721.6850662581
 21
318.9089333001
  0
LINE
  5
45D
100
AcDbEntity
  8
H_EXTERN_HANDLE
100
AcDbLine
 62
7
  6
CONTINUOUS
 10
126.460730774
 20
318.9089333001
 11
141.460730774
 21
318.9089333001
  0
LINE
  5
45E
100
AcDbEntity
  8
BASIC_DEVICE
100
AcDbLine
 62
7
  6
CONTINUOUS
 10
605.6228884316
 20
163.4089333
 11
608.6539773448
 21
158.1589333
  0
LINE
  5
45F
100
AcDbEntity
  8
BASIC_DEVICE
100
AcDbLine
 62
7
  6
CONTINUOUS
 10
617.7472440846
 20
163.4089333
 11
614.7161551713
 21
168.6589333
  0
LINE
  5
460
100
AcDbEntity
  8
AXIS
100
AcDbLine
 62
4
  6
CONTINUOUS
 10
488.1766418303
 20
155.9096339049
 11
488.1766418303
 21
170.9096339049
  0
LINE
  5
461
100
AcDbEntity
  8
AXIS
100
AcDbLine
 62
4
  6
CONTINUOUS
 10
488.1766418303
 20
330.9096339049
 11
488.1766418303
 21
345.9096339049
  0
LINE
  5
462
100
AcDbEntity
  8
BASIC_DEVICE
100
AcDbLine
 62
7
  6
CONTINUOUS
 10
498.1766418303
 20
350.9096339049
 11
498.1766418303
 21
338.4096339049
  0
LINE
  5
463
100
AcDbEntity
  8
BASIC_DEVICE
100
AcDbLine
 62
7
  6
CONTINUOUS
 10
498.1766418303
 20
150.9096339049
 11
498.1766418303
 21
163.4096339049
  0
LINE
  5
464
100
AcDbEntity
  8
BASIC_DEVICE
100
AcDbLine
 62
7
  6
CONTINUOUS
 10
498.1766418346
 20
657.8701176581
 11
498.1766418346
 21
718.8701176581
  0
LINE
  5
465
100
AcDbEntity
  8
BASIC_DEVICE
100
AcDbLine
 62
7
  6
CONTINUOUS
 10
500.1766418346
 20
634.8701176581
 11
500.1766418346
 21
632.8701176581
  0
LINE
  5
466
100
AcDbEntity
  8
BASIC_DEVICE
100
AcDbLine
 62
7
  6
CONTINUOUS
 10
503.6766418303
 20
150.9078473626
 11
503.6766418303
 21
90.9089333001
  0
LINE
  5
467
100
AcDbEntity
  8
BASIC_DEVICE
100
AcDbLine
 62
7
  6
CONTINUOUS
 10
503.6766418303
 20
350.9100192376
 11
503.6766418303
 21
410.9089333001
  0
LINE
  5
468
100
AcDbEntity
  8
BASIC_DEVICE
100
AcDbLine
 62
7
  6
CONTINUOUS
 10
503.6766418303
 20
672.8701176581
 11
503.6766418303
 21
679.8701176581
  0
LINE
  5
469
100
AcDbEntity
  8
AXIS
100
AcDbLine
 62
4
  6
CONTINUOUS
 10
515.1766418303
 20
669.8701176581
 11
515.1766418303
 21
682.8701176581
  0
LINE
  5
46A
100
AcDbEntity
  8
BASIC_DEVICE
100
AcDbLine
 62
1
  6
CONTINUOUS
 10
704.4829565852
 20
785.1701176581
 11
703.4829565852
 21
784.1701176581
  0
LINE
  5
46B
100
AcDbEntity
  8
BASIC_DEVICE
100
AcDbLine
 62
1
  6
CONTINUOUS
 10
201.160730774
 20
280.4589333001
 11
202.160730774
 21
281.4589333001
  0
LINE
  5
46C
100
AcDbEntity
  8
INTER_PHASE_SCHIELDS
100
AcDbLine
 62
5
  6
CONTINUOUS
 10
275.360730774
 20
342.7089333001
 11
273.360730774
 21
340.7089333001
  0
LINE
  5
46D
100
AcDbEntity
  8
BASIC_DEVICE
100
AcDbLine
 62
7
  6
CONTINUOUS
 10
952.1455529213
 20
323.6589333001
 11
958.2077307478
 21
323.6589333001
  0
LINE
  5
46E
100
AcDbEntity
  8
BASIC_DEVICE
100
AcDbLine
 62
7
  6
CONTINUOUS
 10
491.2077307435
 20
323.6596339049
 11
485.145552917
 21
323.6596339049
  0
LINE
  5
46F
100
AcDbEntity
  8
BASIC_DEVICE
100
AcDbLine
 62
7
  6
CONTINUOUS
 10
353.460730774
 20
326.4089333001
 11
351.460730774
 21
326.4089333001
  0
LINE
  5
470
100
AcDbEntity
  8
TERMINAL_SCHROUD
100
AcDbLine
 62
2
  6
CONTINUOUS
 10
265.460730774
 20
328.4089333001
 11
267.460730774
 21
328.4089333001
  0
LINE
  5
471
100
AcDbEntity
  8
BASIC_DEVICE
100
AcDbLine
 62
7
  6
CONTINUOUS
 10
267.460730774
 20
328.4089333001
 11
328.460730774
 21
328.4089333001
  0
LINE
  5
472
100
AcDbEntity
  8
BASIC_DEVICE
100
AcDbLine
 62
7
  6
CONTINUOUS
 10
955.1766418346
 20
328.4089333001
 11
967.6766418346
 21
328.4089333001
  0
LINE
  5
473
100
AcDbEntity
  8
TERMINAL_SCHROUD
100
AcDbLine
 62
2
  6
CONTINUOUS
 10
967.6766418303
 20
328.4096339049
 11
787.1766418303
 21
328.4096339049
  0
LINE
  5
474
100
AcDbEntity
  8
TERMINAL_SCHROUD
100
AcDbLine
 62
2
  6
CONTINUOUS
 10
656.1766418303
 20
328.4096339049
 11
475.6766418303
 21
328.4096339049
  0
LINE
  5
475
100
AcDbEntity
  8
BASIC_DEVICE
100
AcDbLine
 62
7
  6
CONTINUOUS
 10
488.1766418303
 20
328.4096339049
 11
475.6766418303
 21
328.4096339049
  0
LINE
  5
476
100
AcDbEntity
  8
BASIC_DEVICE
100
AcDbLine
 62
7
  6
CONTINUOUS
 10
832.7161551713
 20
333.1589333001
 11
826.6539773448
 21
333.1589333001
  0
LINE
  5
477
100
AcDbEntity
  8
BASIC_DEVICE
100
AcDbLine
 62
7
  6
CONTINUOUS
 10
608.6539773448
 20
333.1589333
 11
614.7161551713
 21
333.1589333
  0
LINE
  5
478
100
AcDbEntity
  8
AXIS
100
AcDbLine
 62
4
  6
CONTINUOUS
 10
947.6766418346
 20
338.4089333001
 11
962.6766418346
 21
338.4089333001
  0
LINE
  5
479
100
AcDbEntity
  8
AXIS
100
AcDbLine
 62
4
  6
CONTINUOUS
 10
480.6766418303
 20
338.4096339049
 11
495.6766418303
 21
338.4096339049
  0
LINE
  5
47A
100
AcDbEntity
  8
INTER_PHASE_SCHIELDS
100
AcDbLine
 62
5
  6
CONTINUOUS
 10
836.1766418345
 20
340.7089333001
 11
834.1766418345
 21
340.7089333001
  0
LINE
  5
47B
100
AcDbEntity
  8
INTER_PHASE_SCHIELDS
100
AcDbLine
 62
5
  6
CONTINUOUS
 10
716.1766418345
 20
340.7089333001
 11
714.1766418345
 21
340.7089333001
  0
LINE
  5
47C
100
AcDbEntity
  8
INTER_PHASE_SCHIELDS
100
AcDbLine
 62
5
  6
CONTINUOUS
 10
596.1766418345
 20
340.7089333001
 11
594.1766418345
 21
340.7089333001
  0
LINE
  5
47D
100
AcDbEntity
  8
INTER_PHASE_SCHIELDS
100
AcDbLine
 62
5
  6
CONTINUOUS
 10
349.460730774
 20
340.7089333001
 11
346.860730774
 21
340.7089333001
  0
LINE
  5
47E
100
AcDbEntity
  8
INTER_PHASE_SCHIELDS
100
AcDbLine
 62
5
  6
CONTINUOUS
 10
273.360730774
 20
340.7089333001
 11
270.760730774
 21
340.7089333001
  0
LINE
  5
47F
100
AcDbEntity
  8
BASIC_DEVICE
100
AcDbLine
 62
7
  6
CONTINUOUS
 10
614.7161551713
 20
343.6589333
 11
608.6539773448
 21
343.6589333
  0
LINE
  5
480
100
AcDbEntity
  8
BASIC_DEVICE
100
AcDbLine
 62
7
  6
CONTINUOUS
 10
826.6539773448
 20
343.6589333001
 11
832.7161551713
 21
343.6589333001
  0
LINE
  5
481
100
AcDbEntity
  8
INTER_PHASE_SCHIELDS
100
AcDbLine
 62
5
  6
CONTINUOUS
 10
273.860730774
 20
344.5089333001
 11
275.360730774
 21
344.5089333001
  0
LINE
  5
482
100
AcDbEntity
  8
INTER_PHASE_SCHIELDS
100
AcDbLine
 62
5
  6
CONTINUOUS
 10
344.860730774
 20
344.5089333001
 11
346.360730774
 21
344.5089333001
  0
LINE
  5
483
100
AcDbEntity
  8
BASIC_DEVICE
100
AcDbLine
 62
7
  6
CONTINUOUS
 10
781.6850662581
 20
345.9089333001
 11
661.6850662581
 21
345.9089333001
  0
LINE
  5
484
100
AcDbEntity
  8
INTER_PHASE_SCHIELDS
100
AcDbLine
 62
5
  6
CONTINUOUS
 10
351.460730774
 20
347.7089333001
 11
349.460730774
 21
347.7089333001
  0
LINE
  5
485
100
AcDbEntity
  8
INTER_PHASE_SCHIELDS
100
AcDbLine
 62
5
  6
CONTINUOUS
 10
341.860730774
 20
347.7089333001
 11
278.360730774
 21
347.7089333001
  0
LINE
  5
486
100
AcDbEntity
  8
INTER_PHASE_SCHIELDS
100
AcDbLine
 62
5
  6
CONTINUOUS
 10
270.760730774
 20
347.7089333001
 11
268.760730774
 21
347.7089333001
  0
LINE
  5
487
100
AcDbEntity
  8
INTER_PHASE_SCHIELDS
100
AcDbLine
 62
5
  6
CONTINUOUS
 10
838.6766418345
 20
350.9089333001
 11
836.1766418345
 21
350.9089333001
  0
LINE
  5
488
100
AcDbEntity
  8
INTER_PHASE_SCHIELDS
100
AcDbLine
 62
5
  6
CONTINUOUS
 10
834.1766418345
 20
350.9089333001
 11
831.6766418345
 21
350.9089333001
  0
LINE
  5
489
100
AcDbEntity
  8
INTER_PHASE_SCHIELDS
100
AcDbLine
 62
5
  6
CONTINUOUS
 10
718.6766418345
 20
350.9089333001
 11
716.1766418345
 21
350.9089333001
  0
LINE
  5
48A
100
AcDbEntity
  8
INTER_PHASE_SCHIELDS
100
AcDbLine
 62
5
  6
CONTINUOUS
 10
714.1766418345
 20
350.9089333001
 11
711.6766418345
 21
350.9089333001
  0
LINE
  5
48B
100
AcDbEntity
  8
INTER_PHASE_SCHIELDS
100
AcDbLine
 62
5
  6
CONTINUOUS
 10
598.6766418345
 20
350.9089333001
 11
596.1766418345
 21
350.9089333001
  0
LINE
  5
48C
100
AcDbEntity
  8
INTER_PHASE_SCHIELDS
100
AcDbLine
 62
5
  6
CONTINUOUS
 10
594.1766418345
 20
350.9089333001
 11
591.6766418345
 21
350.9089333001
  0
LINE
  5
48D
100
AcDbEntity
  8
BASIC_DEVICE
100
AcDbLine
 62
7
  6
CONTINUOUS
 10
213.460730774
 20
350.9089333001
 11
353.460730774
 21
350.9089333001
  0
LINE
  5
48E
100
AcDbEntity
  8
INTER_PHASE_SCHIELDS
100
AcDbLine
 62
5
  6
CONTINUOUS
 10
349.460730774
 20
350.9089333001
 11
351.460730774
 21
350.9089333001
  0
LINE
  5
48F
100
AcDbEntity
  8
BASIC_DEVICE
100
AcDbLine
 62
7
  6
CONTINUOUS
 10
656.6850662581
 20
350.9089333001
 11
786.6850662581
 21
350.9089333001
  0
LINE
  5
490
100
AcDbEntity
  8
BASIC_DEVICE
100
AcDbLine
 62
7
  6
CONTINUOUS
 10
781.6766418346
 20
350.9100192376
 11
475.6766418303
 21
350.9096339049
  0
LINE
  5
491
100
AcDbEntity
  8
BASIC_DEVICE
100
AcDbLine
 62
7
  6
CONTINUOUS
 10
967.6766418346
 20
350.9089333001
 11
781.6766418346
 21
350.9100192376
  0
LINE
  5
492
100
AcDbEntity
  8
INTER_PHASE_SCHIELDS
100
AcDbLine
 62
5
  6
CONTINUOUS
 10
834.1766418345
 20
351.4089333001
 11
833.1766418345
 21
351.4089333001
  0
LINE
  5
493
100
AcDbEntity
  8
INTER_PHASE_SCHIELDS
100
AcDbLine
 62
5
  6
CONTINUOUS
 10
714.1766418345
 20
351.4089333001
 11
713.1766418345
 21
351.4089333001
  0
LINE
  5
494
100
AcDbEntity
  8
INTER_PHASE_SCHIELDS
100
AcDbLine
 62
5
  6
CONTINUOUS
 10
594.1766418345
 20
351.4089333001
 11
593.1766418345
 21
351.4089333001
  0
LINE
  5
495
100
AcDbEntity
  8
INTER_PHASE_SCHIELDS
100
AcDbLine
 62
5
  6
CONTINUOUS
 10
337.960730774
 20
351.4089333001
 11
282.160730774
 21
351.4089333001
  0
LINE
  5
496
100
AcDbEntity
  8
INTER_PHASE_SCHIELDS
100
AcDbLine
 62
5
  6
CONTINUOUS
 10
596.1766418345
 20
351.4089333001
 11
597.1766418345
 21
351.4089333001
  0
LINE
  5
497
100
AcDbEntity
  8
INTER_PHASE_SCHIELDS
100
AcDbLine
 62
5
  6
CONTINUOUS
 10
716.1766418345
 20
351.4089333001
 11
717.1766418345
 21
351.4089333001
  0
LINE
  5
498
100
AcDbEntity
  8
INTER_PHASE_SCHIELDS
100
AcDbLine
 62
5
  6
CONTINUOUS
 10
836.1766418345
 20
351.4089333001
 11
837.1766418345
 21
351.4089333001
  0
LINE
  5
499
100
AcDbEntity
  8
TERMINAL_SCHROUD
100
AcDbLine
 62
2
  6
CONTINUOUS
 10
787.1766418303
 20
351.4096339049
 11
656.1766418303
 21
351.4096339049
  0
LINE
  5
49A
100
AcDbEntity
  8
INTER_PHASE_SCHIELDS
100
AcDbLine
 62
5
  6
CONTINUOUS
 10
337.960730774
 20
353.4089333001
 11
282.160730774
 21
353.4089333001
  0
LINE
  5
49B
100
AcDbEntity
  8
INTER_PHASE_SCHIELDS
100
AcDbLine
 62
5
  6
CONTINUOUS
 10
351.460730774
 20
365.9089333001
 11
349.460730774
 21
365.9089333001
  0
LINE
  5
49C
100
AcDbEntity
  8
BASIC_DEVICE
100
AcDbLine
 62
1
  6
CONTINUOUS
 10
697.450492975
 20
278.8921885305
 11
712.0804362465
 21
266.6162085273
  0
LINE
  5
49D
100
AcDbEntity
  8
AM_12
100
AcDbLine
 62
4
  6
CONTINUOUS
 10
509.1025891679
 20
417.7821328211
 11
512.6025891679
 21
414.2821328211
  0
LINE
  5
49E
100
AcDbEntity
  8
BASIC_DEVICE
100
AcDbLine
 62
7
  6
CONTINUOUS
 10
863.6766418303
 20
90.9089333001
 11
868.6766418303
 21
85.9089333001
  0
LINE
  5
49F
100
AcDbEntity
  8
AM_12
100
AcDbLine
 62
4
  6
CONTINUOUS
 10
832.4436243619
 20
127.8377050321
 11
835.9436243619
 21
124.3377050321
  0
LINE
  5
4A0
100
AcDbEntity
  8
AM_12
100
AcDbLine
 62
4
  6
CONTINUOUS
 10
592.4436243619
 20
377.480161568
 11
595.9436243619
 21
373.980161568
  0
LINE
  5
4A1
100
AcDbEntity
  8
AXIS
100
AcDbLine
 62
4
  6
CONTINUOUS
 10
555.1766418303
 20
669.8701176581
 11
555.1766418303
 21
682.8701176581
  0
LINE
  5
4A2
100
AcDbEntity
  8
BASIC_DEVICE
100
AcDbLine
 62
7
  6
CONTINUOUS
 10
566.6766418303
 20
679.8701176581
 11
566.6766418303
 21
672.8701176581
  0
LINE
  5
4A3
100
AcDbEntity
  8
BASIC_DEVICE
100
AcDbLine
 62
7
  6
CONTINUOUS
 10
566.6766418303
 20
410.9089333001
 11
566.6766418303
 21
350.9080583001
  0
LINE
  5
4A4
100
AcDbEntity
  8
BASIC_DEVICE
100
AcDbLine
 62
7
  6
CONTINUOUS
 10
566.6766418303
 20
90.9089333001
 11
566.6766418303
 21
150.9098083001
  0
LINE
  5
4A5
100
AcDbEntity
  8
AXIS
100
AcDbLine
 62
4
  6
CONTINUOUS
 10
322.460730774
 20
375.9089333001
 11
297.460730774
 21
375.9089333001
  0
LINE
  5
4A6
100
AcDbEntity
  8
TERMINAL_SCHROUD
100
AcDbLine
 62
2
  6
CONTINUOUS
 10
475.6766418303
 20
383.4096339049
 11
967.6766418303
 21
383.4096339049
  0
LINE
  5
4A7
100
AcDbEntity
  8
AXIS
100
AcDbLine
 62
4
  6
CONTINUOUS
 10
322.460730774
 20
395.9089333001
 11
297.460730774
 21
395.9089333001
  0
LINE
  5
4A8
100
AcDbEntity
  8
INTER_PHASE_SCHIELDS
100
AcDbLine
 62
5
  6
CONTINUOUS
 10
282.160730774
 20
408.7089333001
 11
337.960730774
 21
408.7089333001
  0
LINE
  5
4A9
100
AcDbEntity
  8
INTER_PHASE_SCHIELDS
100
AcDbLine
 62
5
  6
CONTINUOUS
 10
837.1766418345
 20
410.7089333001
 11
836.1766418345
 21
410.7089333001
  0
LINE
  5
4AA
100
AcDbEntity
  8
INTER_PHASE_SCHIELDS
100
AcDbLine
 62
5
  6
CONTINUOUS
 10
717.1766418345
 20
410.7089333001
 11
716.1766418345
 21
410.7089333001
  0
LINE
  5
4AB
100
AcDbEntity
  8
INTER_PHASE_SCHIELDS
100
AcDbLine
 62
5
  6
CONTINUOUS
 10
597.1766418345
 20
410.7089333001
 11
596.1766418345
 21
410.7089333001
  0
LINE
  5
4AC
100
AcDbEntity
  8
INTER_PHASE_SCHIELDS
100
AcDbLine
 62
5
  6
CONTINUOUS
 10
282.160730774
 20
410.7089333001
 11
337.960730774
 21
410.7089333001
  0
LINE
  5
4AD
100
AcDbEntity
  8
INTER_PHASE_SCHIELDS
100
AcDbLine
 62
5
  6
CONTINUOUS
 10
593.1766418345
 20
410.7089333001
 11
594.1766418345
 21
410.7089333001
  0
LINE
  5
4AE
100
AcDbEntity
  8
INTER_PHASE_SCHIELDS
100
AcDbLine
 62
5
  6
CONTINUOUS
 10
713.1766418345
 20
410.7089333001
 11
714.1766418345
 21
410.7089333001
  0
LINE
  5
4AF
100
AcDbEntity
  8
INTER_PHASE_SCHIELDS
100
AcDbLine
 62
5
  6
CONTINUOUS
 10
833.1766418345
 20
410.7089333001
 11
834.1766418345
 21
410.7089333001
  0
LINE
  5
4B0
100
AcDbEntity
  8
BASIC_DEVICE
100
AcDbLine
 62
7
  6
CONTINUOUS
 10
313.460730774
 20
410.9089333001
 11
306.460730774
 21
410.9089333001
  0
LINE
  5
4B1
100
AcDbEntity
  8
BASIC_DEVICE
100
AcDbLine
 62
7
  6
CONTINUOUS
 10
561.6766418303
 20
415.9089333001
 11
566.6766418303
 21
410.9089333001
  0
LINE
  5
4B2
100
AcDbEntity
  8
H_EXTERN_HANDLE
100
AcDbLine
 62
3
  6
CONTINUOUS
 10
699.7676542146
 20
300.1192385623
 11
693.4030327799
 21
306.483859997
  0
LINE
  5
4B3
100
AcDbEntity
  8
H_EXTERN_HANDLE
100
AcDbLine
 62
1
  6
CONTINUOUS
 10
694.1101395611
 20
307.1909667782
 11
700.4747609958
 21
300.8263453435
  0
LINE
  5
4B4
100
AcDbEntity
  8
BASIC_DEVICE
100
AcDbLine
 62
7
  6
CONTINUOUS
 10
605.6228884316
 20
338.4089333
 11
608.6539773448
 21
333.1589333
  0
LINE
  5
4B5
100
AcDbEntity
  8
BASIC_DEVICE
100
AcDbLine
 62
7
  6
CONTINUOUS
 10
617.7472440846
 20
338.4089333
 11
614.7161551713
 21
343.6589333
  0
LINE
  5
4B6
100
AcDbEntity
  8
INTER_PHASE_SCHIELDS
100
AcDbLine
 62
5
  6
CONTINUOUS
 10
591.6766418345
 20
150.9089333
 11
593.1766418345
 21
141.9089333
  0
LINE
  5
4B7
100
AcDbEntity
  8
AXIS
100
AcDbLine
 62
4
  6
CONTINUOUS
 10
575.6766418303
 20
715.8701176581
 11
575.6766418303
 21
723.8701176581
  0
LINE
  5
4B8
100
AcDbEntity
  8
INTER_PHASE_SCHIELDS
100
AcDbLine
 62
5
  6
CONTINUOUS
 10
591.6766418345
 20
636.8701176581
 11
591.6766418345
 21
634.8701176581
  0
LINE
  5
4B9
100
AcDbEntity
  8
INTER_PHASE_SCHIELDS
100
AcDbLine
 62
5
  6
CONTINUOUS
 10
593.1766418345
 20
707.1701176581
 11
593.1766418345
 21
645.3701176581
  0
LINE
  5
4BA
100
AcDbEntity
  8
INTER_PHASE_SCHIELDS
100
AcDbLine
 62
5
  6
CONTINUOUS
 10
593.1766418345
 20
150.4089333
 11
593.1766418345
 21
91.1089333
  0
LINE
  5
4BB
100
AcDbEntity
  8
INTER_PHASE_SCHIELDS
100
AcDbLine
 62
5
  6
CONTINUOUS
 10
593.1766418345
 20
351.4089333001
 11
593.1766418345
 21
410.7089333001
  0
LINE
  5
4BC
100
AcDbEntity
  8
INTER_PHASE_SCHIELDS
100
AcDbLine
 62
5
  6
CONTINUOUS
 10
594.1766418345
 20
161.1089333
 11
594.1766418345
 21
85.1089333
  0
LINE
  5
4BD
100
AcDbEntity
  8
INTER_PHASE_SCHIELDS
100
AcDbLine
 62
5
  6
CONTINUOUS
 10
594.1766418345
 20
340.7089333001
 11
594.1766418345
 21
416.7089333001
  0
LINE
  5
4BE
100
AcDbEntity
  8
INTER_PHASE_SCHIELDS
100
AcDbLine
 62
5
  6
CONTINUOUS
 10
594.1766418345
 20
634.8701176581
 11
594.1766418345
 21
717.5701176581
  0
LINE
  5
4BF
100
AcDbEntity
  8
INTER_PHASE_SCHIELDS
100
AcDbLine
 62
5
  6
CONTINUOUS
 10
596.1766418345
 20
717.5701176581
 11
596.1766418345
 21
634.8701176581
  0
LINE
  5
4C0
100
AcDbEntity
  8
INTER_PHASE_SCHIELDS
100
AcDbLine
 62
5
  6
CONTINUOUS
 10
596.1766418345
 20
85.1089333
 11
596.1766418345
 21
161.1089333
  0
LINE
  5
4C1
100
AcDbEntity
  8
INTER_PHASE_SCHIELDS
100
AcDbLine
 62
5
  6
CONTINUOUS
 10
596.1766418345
 20
340.7089333001
 11
596.1766418345
 21
416.7089333001
  0
LINE
  5
4C2
100
AcDbEntity
  8
INTER_PHASE_SCHIELDS
100
AcDbLine
 62
5
  6
CONTINUOUS
 10
597.1766418345
 20
150.4089333
 11
597.1766418345
 21
91.1089333
  0
LINE
  5
4C3
100
AcDbEntity
  8
INTER_PHASE_SCHIELDS
100
AcDbLine
 62
5
  6
CONTINUOUS
 10
597.1766418345
 20
351.4089333001
 11
597.1766418345
 21
410.7089333001
  0
LINE
  5
4C4
100
AcDbEntity
  8
INTER_PHASE_SCHIELDS
100
AcDbLine
 62
5
  6
CONTINUOUS
 10
597.1766418345
 20
645.3701176581
 11
597.1766418345
 21
707.1701176581
  0
LINE
  5
4C5
100
AcDbEntity
  8
INTER_PHASE_SCHIELDS
100
AcDbLine
 62
5
  6
CONTINUOUS
 10
598.6766418345
 20
634.8701176581
 11
598.6766418345
 21
636.8701176581
  0
LINE
  5
4C6
100
AcDbEntity
  8
INTER_PHASE_SCHIELDS
100
AcDbLine
 62
5
  6
CONTINUOUS
 10
591.6766418345
 20
350.9089333001
 11
593.1766418345
 21
359.9089333001
  0
LINE
  5
4C7
100
AcDbEntity
  8
BASIC_DEVICE
100
AcDbLine
 62
7
  6
CONTINUOUS
 10
485.145552917
 20
323.6596339049
 11
482.1144640038
 21
318.4096339049
  0
LINE
  5
4C8
100
AcDbEntity
  8
BASIC_DEVICE
100
AcDbLine
 62
7
  6
CONTINUOUS
 10
491.2077307435
 20
313.1596339049
 11
494.2388196568
 21
318.4096339049
  0
LINE
  5
4C9
100
AcDbEntity
  8
BASIC_DEVICE
100
AcDbLine
 62
7
  6
CONTINUOUS
 10
503.6766418303
 20
410.9089333001
 11
508.6766418303
 21
415.9089333001
  0
LINE
  5
4CA
100
AcDbEntity
  8
AM_12
100
AcDbLine
 62
4
  6
CONTINUOUS
 10
509.1025891679
 20
414.2821328211
 11
512.6025891679
 21
417.7821328211
  0
LINE
  5
4CB
100
AcDbEntity
  8
BASIC_DEVICE
100
AcDbLine
 62
7
  6
CONTINUOUS
 10
313.460730774
 20
415.9089333001
 11
306.460730774
 21
415.9089333001
  0
LINE
  5
4CC
100
AcDbEntity
  8
BASIC_DEVICE
100
AcDbLine
 62
7
  6
CONTINUOUS
 10
508.6766418303
 20
415.9089333001
 11
561.6766418303
 21
415.9089333001
  0
LINE
  5
4CD
100
AcDbEntity
  8
BASIC_DEVICE
100
AcDbLine
 62
7
  6
CONTINUOUS
 10
628.6766418303
 20
415.9089333001
 11
681.6766418303
 21
415.9089333001
  0
LINE
  5
4CE
100
AcDbEntity
  8
BASIC_DEVICE
100
AcDbLine
 62
7
  6
CONTINUOUS
 10
748.6766418303
 20
415.9089333001
 11
801.6766418303
 21
415.9089333001
  0
LINE
  5
4CF
100
AcDbEntity
  8
BASIC_DEVICE
100
AcDbLine
 62
7
  6
CONTINUOUS
 10
868.6766418303
 20
415.9089333001
 11
921.6766418303
 21
415.9089333001
  0
LINE
  5
4D0
100
AcDbEntity
  8
INTER_PHASE_SCHIELDS
100
AcDbLine
 62
5
  6
CONTINUOUS
 10
274.760730774
 20
416.7089333001
 11
345.460730774
 21
416.7089333001
  0
LINE
  5
4D1
100
AcDbEntity
  8
INTER_PHASE_SCHIELDS
100
AcDbLine
 62
5
  6
CONTINUOUS
 10
594.1766418345
 20
416.7089333001
 11
596.1766418345
 21
416.7089333001
  0
LINE
  5
4D2
100
AcDbEntity
  8
INTER_PHASE_SCHIELDS
100
AcDbLine
 62
5
  6
CONTINUOUS
 10
714.1766418345
 20
416.7089333001
 11
716.1766418345
 21
416.7089333001
  0
LINE
  5
4D3
100
AcDbEntity
  8
INTER_PHASE_SCHIELDS
100
AcDbLine
 62
5
  6
CONTINUOUS
 10
834.1766418345
 20
416.7089333001
 11
836.1766418345
 21
416.7089333001
  0
LINE
  5
4D4
100
AcDbEntity
  8
TERMINAL_SCHROUD
100
AcDbLine
 62
2
  6
CONTINUOUS
 10
475.6766418303
 20
433.4096339049
 11
967.6766418303
 21
433.4096339049
  0
LINE
  5
4D5
100
AcDbEntity
  8
AM_12
100
AcDbLine
 62
4
  6
CONTINUOUS
 10
712.4436243619
 20
377.480161568
 11
715.9436243619
 21
373.980161568
  0
LINE
  5
4D6
100
AcDbEntity
  8
BASIC_DEVICE
100
AcDbLine
 62
7
  6
CONTINUOUS
 10
681.6766418303
 20
415.9089333001
 11
686.6766418303
 21
410.9089333001
  0
LINE
  5
4D7
100
AcDbEntity
  8
INTER_PHASE_SCHIELDS
100
AcDbLine
 62
5
  6
CONTINUOUS
 10
597.1766418345
 20
359.9089333001
 11
598.6766418345
 21
350.9089333001
  0
LINE
  5
4D8
100
AcDbEntity
  8
BASIC_DEVICE
100
AcDbLine
 62
7
  6
CONTINUOUS
 10
623.6766418303
 20
150.9078473626
 11
623.6766418303
 21
90.9089333001
  0
LINE
  5
4D9
100
AcDbEntity
  8
BASIC_DEVICE
100
AcDbLine
 62
7
  6
CONTINUOUS
 10
623.6766418303
 20
350.9100192376
 11
623.6766418303
 21
410.9089333001
  0
LINE
  5
4DA
100
AcDbEntity
  8
BASIC_DEVICE
100
AcDbLine
 62
7
  6
CONTINUOUS
 10
623.6766418303
 20
672.8701176581
 11
623.6766418303
 21
679.8701176581
  0
LINE
  5
4DB
100
AcDbEntity
  8
BASIC_DEVICE
100
AcDbLine
 62
7
  6
CONTINUOUS
 10
634.6850662581
 20
736.8701176581
 11
634.6850662581
 21
718.8701176581
  0
LINE
  5
4DC
100
AcDbEntity
  8
BASIC_DEVICE
100
AcDbLine
 62
7
  6
CONTINUOUS
 10
634.6850662583
 20
265.9089333
 11
634.6850662583
 21
235.9089333
  0
LINE
  5
4DD
100
AcDbEntity
  8
AXIS
100
AcDbLine
 62
4
  6
CONTINUOUS
 10
635.1766418303
 20
669.8701176581
 11
635.1766418303
 21
682.8701176581
  0
LINE
  5
4DE
100
AcDbEntity
  8
BASIC_DEVICE
100
AcDbLine
 62
7
  6
CONTINUOUS
 10
654.6850662583
 20
235.9089333
 11
654.6850662583
 21
265.9089333
  0
LINE
  5
4DF
100
AcDbEntity
  8
BASIC_DEVICE
100
AcDbLine
 62
7
  6
CONTINUOUS
 10
654.6850662581
 20
718.8701176581
 11
654.6850662581
 21
736.8701176581
  0
LINE
  5
4E0
100
AcDbEntity
  8
TERMINAL_SCHROUD
100
AcDbLine
 62
2
  6
CONTINUOUS
 10
656.1766418303
 20
351.4096339049
 11
656.1766418303
 21
328.4096339049
  0
LINE
  5
4E1
100
AcDbEntity
  8
TERMINAL_SCHROUD
100
AcDbLine
 62
2
  6
CONTINUOUS
 10
656.1766418303
 20
718.8701176581
 11
656.1766418303
 21
720.8701176581
  0
LINE
  5
4E2
100
AcDbEntity
  8
BASIC_DEVICE
100
AcDbLine
 62
7
  6
CONTINUOUS
 10
656.6850662581
 20
150.9089333001
 11
656.6850662581
 21
350.9089333001
  0
LINE
  5
4E3
100
AcDbEntity
  8
BASIC_DEVICE
100
AcDbLine
 62
7
  6
CONTINUOUS
 10
656.6850662581
 20
718.8701176581
 11
656.6850662581
 21
772.8701176581
  0
LINE
  5
4E4
100
AcDbEntity
  8
BASIC_DEVICE
100
AcDbLine
 62
7
  6
CONTINUOUS
 10
661.6850662581
 20
345.9089333001
 11
661.6850662581
 21
155.9089333001
  0
LINE
  5
4E5
100
AcDbEntity
  8
INTER_PHASE_SCHIELDS
100
AcDbLine
 62
5
  6
CONTINUOUS
 10
597.1766418345
 20
141.9089333
 11
598.6766418345
 21
150.9089333
  0
LINE
  5
4E6
100
AcDbEntity
  8
TERMINAL_SCHROUD
100
AcDbLine
 62
2
  6
CONTINUOUS
 10
217.460730774
 20
481.4089333001
 11
215.460730774
 21
481.4089333001
  0
LINE
  5
4E7
100
AcDbEntity
  8
TERMINAL_SCHROUD
100
AcDbLine
 62
2
  6
CONTINUOUS
 10
480.6766418303
 20
481.4096339049
 11
962.6766418303
 21
481.4096339049
  0
LINE
  5
4E8
100
AcDbEntity
  8
AM_12
100
AcDbLine
 62
4
  6
CONTINUOUS
 10
818.0822749071
 20
291.1828593108
 11
821.5822749071
 21
287.6828593108
  0
LINE
  5
4E9
100
AcDbEntity
  8
BASIC_DEVICE
100
AcDbLine
 62
7
  6
CONTINUOUS
 10
876.6766418346
 20
241.9089333001
 11
873.6766418346
 21
244.9089333001
  0
LINE
  5
4EA
100
AcDbEntity
  8
BASIC_DEVICE
100
AcDbLine
 62
7
  6
CONTINUOUS
 10
861.6766418346
 20
256.9089333001
 11
858.6766418346
 21
259.9089333001
  0
LINE
  5
4EB
100
AcDbEntity
  8
BASIC_DEVICE
100
AcDbLine
 62
7
  6
CONTINUOUS
 10
826.6539773448
 20
158.1589333001
 11
823.6228884316
 21
163.4089333001
  0
LINE
  5
4EC
100
AcDbEntity
  8
BASIC_DEVICE
100
AcDbLine
 62
7
  6
CONTINUOUS
 10
832.7161551713
 20
168.6589333001
 11
835.7472440846
 21
163.4089333001
  0
LINE
  5
4ED
100
AcDbEntity
  8
INTER_PHASE_SCHIELDS
100
AcDbLine
 62
5
  6
CONTINUOUS
 10
711.6766418345
 20
150.9089333
 11
713.1766418345
 21
141.9089333
  0
LINE
  5
4EE
100
AcDbEntity
  8
AXIS
100
AcDbLine
 62
4
  6
CONTINUOUS
 10
675.1766418303
 20
669.8701176581
 11
675.1766418303
 21
682.8701176581
  0
LINE
  5
4EF
100
AcDbEntity
  8
H_EXTERN_HANDLE
100
AcDbLine
 62
7
  6
CONTINUOUS
 10
675.6850662581
 20
288.4089333001
 11
675.6850662581
 21
269.4089333001
  0
LINE
  5
4F0
100
AcDbEntity
  8
H_EXTERN_HANDLE
100
AcDbLine
 62
7
  6
CONTINUOUS
 10
675.6850662581
 20
844.8701176581
 11
675.6850662581
 21
859.8701176581
  0
LINE
  5
4F1
100
AcDbEntity
  8
H_EXTERN_HANDLE
100
AcDbLine
 62
7
  6
CONTINUOUS
 10
675.6850662581
 20
885.8701176581
 11
675.6850662581
 21
936.8701176581
  0
LINE
  5
4F2
100
AcDbEntity
  8
H_EXTERN_HANDLE
100
AcDbLine
 62
7
  6
CONTINUOUS
 10
679.6850662581
 20
921.3701176581
 11
679.6850662581
 21
896.3701176582
  0
LINE
  5
4F3
100
AcDbEntity
  8
BASIC_DEVICE
100
AcDbLine
 62
7
  6
CONTINUOUS
 10
686.6766418303
 20
679.8701176581
 11
686.6766418303
 21
672.8701176581
  0
LINE
  5
4F4
100
AcDbEntity
  8
BASIC_DEVICE
100
AcDbLine
 62
7
  6
CONTINUOUS
 10
686.6766418303
 20
410.9089333001
 11
686.6766418303
 21
350.9080583001
  0
LINE
  5
4F5
100
AcDbEntity
  8
BASIC_DEVICE
100
AcDbLine
 62
7
  6
CONTINUOUS
 10
686.6766418303
 20
90.9089333001
 11
686.6766418303
 21
150.9098083001
  0
LINE
  5
4F6
100
AcDbEntity
  8
H_EXTERN_HANDLE
100
AcDbLine
 62
7
  6
CONTINUOUS
 10
688.6850662581
 20
916.8701176581
 11
688.6850662581
 21
900.8701176581
  0
LINE
  5
4F7
100
AcDbEntity
  8
H_MOVING
100
AcDbLine
 62
1
  6
CONTINUOUS
 10
691.6850662581
 20
885.8701176581
 11
691.6850662581
 21
859.8701176581
  0
LINE
  5
4F8
100
AcDbEntity
  8
H_EXTERN_HANDLE
100
AcDbLine
 62
7
  6
CONTINUOUS
 10
691.6850662581
 20
859.8701176581
 11
691.6850662581
 21
885.8701176581
  0
LINE
  5
4F9
100
AcDbEntity
  8
H_EXTERN_HANDLE
100
AcDbLine
 62
7
  6
CONTINUOUS
 10
693.5825752653
 20
931.3701176581
 11
693.5825752653
 21
925.3701176581
  0
LINE
  5
4FA
100
AcDbEntity
  8
H_EXTERN_HANDLE
100
AcDbLine
 62
7
  6
CONTINUOUS
 10
694.0825752653
 20
935.3701176581
 11
694.0825752653
 21
925.3701176581
  0
LINE
  5
4FB
100
AcDbEntity
  8
H_EXTERN_HANDLE
100
AcDbLine
 62
7
  6
CONTINUOUS
 10
695.1850662581
 20
925.3701176581
 11
695.1850662581
 21
894.3701176581
  0
LINE
  5
4FC
100
AcDbEntity
  8
H_EXTERN_HANDLE
100
AcDbLine
 62
7
  6
CONTINUOUS
 10
695.1850662581
 20
293.1589333001
 11
695.1850662581
 21
284.9089333001
  0
LINE
  5
4FD
100
AcDbEntity
  8
H_EXTERN_HANDLE
100
AcDbLine
 62
7
  6
CONTINUOUS
 10
695.1850662581
 20
272.9089333001
 11
695.1850662581
 21
264.6589333001
  0
LINE
  5
4FE
100
AcDbEntity
  8
BASIC_DEVICE
100
AcDbLine
 62
1
  6
CONTINUOUS
 10
697.3983833022
 20
775.9701176581
 11
697.3983833022
 21
774.8701176581
  0
LINE
  5
4FF
100
AcDbEntity
  8
BASIC_DEVICE
100
AcDbLine
 62
1
  6
CONTINUOUS
 10
703.4829565852
 20
784.1701176581
 11
703.4829565852
 21
775.9701176581
  0
LINE
  5
500
100
AcDbEntity
  8
BASIC_DEVICE
100
AcDbLine
 62
1
  6
CONTINUOUS
 10
706.2413700468
 20
772.8701176581
 11
706.2413700468
 21
777.0701176581
  0
LINE
  5
501
100
AcDbEntity
  8
H_MOVING
100
AcDbLine
 62
1
  6
CONTINUOUS
 10
707.4350662581
 20
895.8701176581
 11
707.4350662581
 21
935.3701176581
  0
LINE
  5
502
100
AcDbEntity
  8
BASIC_DEVICE
100
AcDbLine
 62
1
  6
CONTINUOUS
 10
708.5829565852
 20
777.0701176581
 11
708.5829565852
 21
784.1701176581
  0
LINE
  5
503
100
AcDbEntity
  8
H_EXTERN_HANDLE
100
AcDbLine
 62
7
  6
CONTINUOUS
 10
708.795209275
 20
251.2665457955
 11
708.795209275
 21
241.0427004936
  0
LINE
  5
504
100
AcDbEntity
  8
H_EXTERN_HANDLE
100
AcDbLine
 62
7
  6
CONTINUOUS
 10
708.795209275
 20
853.8701176581
 11
708.795209275
 21
859.8701176581
  0
LINE
  5
505
100
AcDbEntity
  8
H_MOVING
100
AcDbLine
 62
1
  6
CONTINUOUS
 10
712.6937018787
 20
932.2642833567
 11
711.195141427
 21
898.0804284093
  0
LINE
  5
506
100
AcDbEntity
  8
H_EXTERN_HANDLE
100
AcDbLine
 62
7
  6
CONTINUOUS
 10
748.1850662581
 20
925.3701176581
 11
749.2875572509
 21
935.3701176581
  0
LINE
  5
507
100
AcDbEntity
  8
BASIC_DEVICE
100
AcDbLine
 62
7
  6
CONTINUOUS
 10
485.145552917
 20
188.6596339049
 11
482.1144640038
 21
183.4096339049
  0
LINE
  5
508
100
AcDbEntity
  8
BASIC_DEVICE
100
AcDbLine
 62
7
  6
CONTINUOUS
 10
491.2077307435
 20
178.1596339049
 11
494.2388196568
 21
183.4096339049
  0
LINE
  5
509
100
AcDbEntity
  8
BASIC_DEVICE
100
AcDbLine
 62
7
  6
CONTINUOUS
 10
608.6539773448
 20
343.6589333
 11
605.6228884316
 21
338.4089333
  0
LINE
  5
50A
100
AcDbEntity
  8
BASIC_DEVICE
100
AcDbLine
 62
7
  6
CONTINUOUS
 10
614.7161551713
 20
333.1589333
 11
617.7472440846
 21
338.4089333
  0
LINE
  5
50B
100
AcDbEntity
  8
INTER_PHASE_SCHIELDS
100
AcDbLine
 62
5
  6
CONTINUOUS
 10
346.860730774
 20
161.1089333001
 11
344.860730774
 21
159.1089333001
  0
LINE
  5
50C
100
AcDbEntity
  8
BASIC_DEVICE
100
AcDbLine
 62
7
  6
CONTINUOUS
 10
623.6766418303
 20
410.9089333001
 11
628.6766418303
 21
415.9089333001
  0
LINE
  5
50D
100
AcDbEntity
  8
AM_12
100
AcDbLine
 62
4
  6
CONTINUOUS
 10
592.4436243619
 20
373.980161568
 11
595.9436243619
 21
377.480161568
  0
LINE
  5
50E
100
AcDbEntity
  8
AM_12
100
AcDbLine
 62
4
  6
CONTINUOUS
 10
832.4436243619
 20
377.480161568
 11
835.9436243619
 21
373.980161568
  0
LINE
  5
50F
100
AcDbEntity
  8
BASIC_DEVICE
100
AcDbLine
 62
7
  6
CONTINUOUS
 10
801.6766418303
 20
415.9089333001
 11
806.6766418303
 21
410.9089333001
  0
LINE
  5
510
100
AcDbEntity
  8
INTER_PHASE_SCHIELDS
100
AcDbLine
 62
5
  6
CONTINUOUS
 10
717.1766418345
 20
359.9089333001
 11
718.6766418345
 21
350.9089333001
  0
LINE
  5
511
100
AcDbEntity
  8
H_MOVING
100
AcDbLine
 62
1
  6
CONTINUOUS
 10
732.1749916379
 20
898.0804285797
 11
730.676430631
 21
932.2642835027
  0
LINE
  5
512
100
AcDbEntity
  8
H_EXTERN_HANDLE
100
AcDbLine
 62
7
  6
CONTINUOUS
 10
710.2779388119
 20
936.8701176581
 11
710.2779388119
 21
935.3701176581
  0
LINE
  5
513
100
AcDbEntity
  8
H_MOVING
100
AcDbLine
 62
1
  6
CONTINUOUS
 10
711.1850679103
 20
897.6205698017
 11
711.1850661762
 21
884.3701190322
  0
LINE
  5
514
100
AcDbEntity
  8
H_MOVING
100
AcDbLine
 62
1
  6
CONTINUOUS
 10
711.1850662581
 20
90.9089333001
 11
711.1850662581
 21
214.3554305342
  0
LINE
  5
515
100
AcDbEntity
  8
H_MOVING
100
AcDbLine
 62
1
  6
CONTINUOUS
 10
711.4350662581
 20
936.8701176581
 11
711.4350662581
 21
935.3701176581
  0
LINE
  5
516
100
AcDbEntity
  8
INTER_PHASE_SCHIELDS
100
AcDbLine
 62
5
  6
CONTINUOUS
 10
711.6766418345
 20
636.8701176581
 11
711.6766418345
 21
634.8701176581
  0
LINE
  5
517
100
AcDbEntity
  8
INTER_PHASE_SCHIELDS
100
AcDbLine
 62
5
  6
CONTINUOUS
 10
713.1766418345
 20
707.1701176581
 11
713.1766418345
 21
645.3701176581
  0
LINE
  5
518
100
AcDbEntity
  8
INTER_PHASE_SCHIELDS
100
AcDbLine
 62
5
  6
CONTINUOUS
 10
713.1766418345
 20
150.4089333
 11
713.1766418345
 21
91.1089333
  0
LINE
  5
519
100
AcDbEntity
  8
INTER_PHASE_SCHIELDS
100
AcDbLine
 62
5
  6
CONTINUOUS
 10
713.1766418345
 20
351.4089333001
 11
713.1766418345
 21
410.7089333001
  0
LINE
  5
51A
100
AcDbEntity
  8
H_MOVING
100
AcDbLine
 62
1
  6
CONTINUOUS
 10
713.1850662581
 20
882.8701176581
 11
713.1850662581
 21
891.4561548081
  0
LINE
  5
51B
100
AcDbEntity
  8
BASIC_DEVICE
100
AcDbLine
 62
1
  6
CONTINUOUS
 10
714.0350662581
 20
286.5589333001
 11
714.0350662581
 21
271.2589333001
  0
LINE
  5
51C
100
AcDbEntity
  8
INTER_PHASE_SCHIELDS
100
AcDbLine
 62
5
  6
CONTINUOUS
 10
714.1766418345
 20
161.1089333
 11
714.1766418345
 21
85.1089333
  0
LINE
  5
51D
100
AcDbEntity
  8
INTER_PHASE_SCHIELDS
100
AcDbLine
 62
5
  6
CONTINUOUS
 10
714.1766418345
 20
340.7089333001
 11
714.1766418345
 21
416.7089333001
  0
LINE
  5
51E
100
AcDbEntity
  8
INTER_PHASE_SCHIELDS
100
AcDbLine
 62
5
  6
CONTINUOUS
 10
714.1766418345
 20
634.8701176581
 11
714.1766418345
 21
717.5701176581
  0
LINE
  5
51F
100
AcDbEntity
  8
BASIC_DEVICE
100
AcDbLine
 62
7
  6
CONTINUOUS
 10
714.1850662581
 20
271.4089333001
 11
714.1850662581
 21
286.4089333001
  0
LINE
  5
520
100
AcDbEntity
  8
BASIC_DEVICE
100
AcDbLine
 62
7
  6
CONTINUOUS
 10
714.1850662581
 20
777.0701176581
 11
714.1850662581
 21
798.8701176581
  0
LINE
  5
521
100
AcDbEntity
  8
H_MOVING
100
AcDbLine
 62
1
  6
CONTINUOUS
 10
715.1850662581
 20
859.8701176581
 11
715.1850662581
 21
882.8701176581
  0
LINE
  5
522
100
AcDbEntity
  8
INTER_PHASE_SCHIELDS
100
AcDbLine
 62
5
  6
CONTINUOUS
 10
716.1766418345
 20
717.5701176581
 11
716.1766418345
 21
634.8701176581
  0
LINE
  5
523
100
AcDbEntity
  8
INTER_PHASE_SCHIELDS
100
AcDbLine
 62
5
  6
CONTINUOUS
 10
716.1766418345
 20
85.1089333
 11
716.1766418345
 21
161.1089333
  0
LINE
  5
524
100
AcDbEntity
  8
INTER_PHASE_SCHIELDS
100
AcDbLine
 62
5
  6
CONTINUOUS
 10
716.1766418345
 20
340.7089333001
 11
716.1766418345
 21
416.7089333001
  0
LINE
  5
525
100
AcDbEntity
  8
INTER_PHASE_SCHIELDS
100
AcDbLine
 62
5
  6
CONTINUOUS
 10
717.1766418345
 20
150.4089333
 11
717.1766418345
 21
91.1089333
  0
LINE
  5
526
100
AcDbEntity
  8
INTER_PHASE_SCHIELDS
100
AcDbLine
 62
5
  6
CONTINUOUS
 10
717.1766418345
 20
351.4089333001
 11
717.1766418345
 21
410.7089333001
  0
LINE
  5
527
100
AcDbEntity
  8
INTER_PHASE_SCHIELDS
100
AcDbLine
 62
5
  6
CONTINUOUS
 10
717.1766418345
 20
645.3701176581
 11
717.1766418345
 21
707.1701176581
  0
LINE
  5
528
100
AcDbEntity
  8
BASIC_DEVICE
100
AcDbLine
 62
7
  6
CONTINUOUS
 10
717.6850662581
 20
247.6039816151
 11
717.6850662581
 21
254.6602219939
  0
LINE
  5
529
100
AcDbEntity
  8
INTER_PHASE_SCHIELDS
100
AcDbLine
 62
5
  6
CONTINUOUS
 10
718.6766418345
 20
634.8701176581
 11
718.6766418345
 21
636.8701176581
  0
LINE
  5
52A
100
AcDbEntity
  8
TEXT
100
AcDbLine
 62
2
  6
CONTINUOUS
 10
721.0010570263
 20
316.9580703996
 11
721.0010570263
 21
310.9580703996
  0
LINE
  5
52B
100
AcDbEntity
  8
AXIS
100
AcDbLine
 62
4
  6
CONTINUOUS
 10
721.6850662581
 20
221.1506785022
 11
721.6850662581
 21
334.5811295647
  0
LINE
  5
52C
100
AcDbEntity
  8
AXIS
100
AcDbLine
 62
4
  6
CONTINUOUS
 10
721.6850662581
 20
769.8701176581
 11
721.6850662581
 21
780.0701176581
  0
LINE
  5
52D
100
AcDbEntity
  8
H_EXTERN_HANDLE
100
AcDbLine
 62
4
  6
CONTINUOUS
 10
721.6850662581
 20
841.8701176581
 11
721.6850662581
 21
937.8701176581
  0
LINE
  5
52E
100
AcDbEntity
  8
TEXT
100
AcDbLine
 62
2
  6
CONTINUOUS
 10
723.0010570263
 20
316.9580703996
 11
723.0010570263
 21
310.9580703996
  0
LINE
  5
52F
100
AcDbEntity
  8
H_EXTERN_HANDLE
100
AcDbLine
 62
7
  6
CONTINUOUS
 10
727.0921937042
 20
936.8701176581
 11
727.0921937042
 21
935.3701176581
  0
LINE
  5
530
100
AcDbEntity
  8
H_MOVING
100
AcDbLine
 62
1
  6
CONTINUOUS
 10
728.1850662581
 20
882.8701176581
 11
728.1850662581
 21
859.8701176581
  0
LINE
  5
531
100
AcDbEntity
  8
BASIC_DEVICE
100
AcDbLine
 62
7
  6
CONTINUOUS
 10
729.1850662581
 20
798.8701176581
 11
729.1850662581
 21
777.0701176581
  0
LINE
  5
532
100
AcDbEntity
  8
BASIC_DEVICE
100
AcDbLine
 62
7
  6
CONTINUOUS
 10
729.1850662581
 20
286.4089333001
 11
729.1850662581
 21
271.4089333001
  0
LINE
  5
533
100
AcDbEntity
  8
BASIC_DEVICE
100
AcDbLine
 62
1
  6
CONTINUOUS
 10
729.3350662581
 20
271.2589333001
 11
729.3350662581
 21
286.5589333001
  0
LINE
  5
534
100
AcDbEntity
  8
H_MOVING
100
AcDbLine
 62
1
  6
CONTINUOUS
 10
730.1850662581
 20
891.4561540411
 11
730.1850662581
 21
882.8701176581
  0
LINE
  5
535
100
AcDbEntity
  8
H_MOVING
100
AcDbLine
 62
1
  6
CONTINUOUS
 10
731.9350662581
 20
935.3701176581
 11
731.9350662581
 21
936.8701176581
  0
LINE
  5
536
100
AcDbEntity
  8
H_MOVING
100
AcDbLine
 62
1
  6
CONTINUOUS
 10
732.1850665362
 20
897.6205684276
 11
732.1850665362
 21
884.3701176581
  0
LINE
  5
537
100
AcDbEntity
  8
H_MOVING
100
AcDbLine
 62
1
  6
CONTINUOUS
 10
732.1850662581
 20
214.3554305342
 11
732.1850662581
 21
90.9089333001
  0
LINE
  5
538
100
AcDbEntity
  8
BASIC_DEVICE
100
AcDbLine
 62
1
  6
CONTINUOUS
 10
735.1850662581
 20
280.7089333001
 11
735.1850662581
 21
277.1089333001
  0
LINE
  5
539
100
AcDbEntity
  8
H_MOVING
100
AcDbLine
 62
1
  6
CONTINUOUS
 10
735.9350662581
 20
895.8701176581
 11
735.9350662581
 21
935.3701176581
  0
LINE
  5
53A
100
AcDbEntity
  8
BASIC_DEVICE
100
AcDbLine
 62
1
  6
CONTINUOUS
 10
737.1287624694
 20
772.8701176581
 11
737.1287624694
 21
777.0701176581
  0
LINE
  5
53B
100
AcDbEntity
  8
H_EXTERN_HANDLE
100
AcDbLine
 62
1
  6
CONTINUOUS
 10
737.6850662581
 20
309.4089333001
 11
737.6850662581
 21
318.4089333001
  0
LINE
  5
53C
100
AcDbEntity
  8
BASIC_DEVICE
100
AcDbLine
 62
7
  6
CONTINUOUS
 10
743.6766418303
 20
150.9078473626
 11
743.6766418303
 21
90.9089333001
  0
LINE
  5
53D
100
AcDbEntity
  8
BASIC_DEVICE
100
AcDbLine
 62
7
  6
CONTINUOUS
 10
743.6766418303
 20
350.9100192376
 11
743.6766418303
 21
410.9089333001
  0
LINE
  5
53E
100
AcDbEntity
  8
BASIC_DEVICE
100
AcDbLine
 62
7
  6
CONTINUOUS
 10
743.6766418303
 20
672.8701176581
 11
743.6766418303
 21
679.8701176581
  0
LINE
  5
53F
100
AcDbEntity
  8
H_EXTERN_HANDLE
100
AcDbLine
 62
7
  6
CONTINUOUS
 10
748.1850662581
 20
264.6589333001
 11
748.1850662581
 21
272.9089333001
  0
LINE
  5
540
100
AcDbEntity
  8
H_EXTERN_HANDLE
100
AcDbLine
 62
7
  6
CONTINUOUS
 10
748.1850662581
 20
284.9089333001
 11
748.1850662581
 21
293.1589333001
  0
LINE
  5
541
100
AcDbEntity
  8
H_EXTERN_HANDLE
100
AcDbLine
 62
7
  6
CONTINUOUS
 10
748.1850662581
 20
894.3701176581
 11
748.1850662581
 21
925.3701176581
  0
LINE
  5
542
100
AcDbEntity
  8
H_EXTERN_HANDLE
100
AcDbLine
 62
7
  6
CONTINUOUS
 10
749.2875572509
 20
925.3701176581
 11
749.2875572509
 21
935.3701176581
  0
LINE
  5
543
100
AcDbEntity
  8
H_EXTERN_HANDLE
100
AcDbLine
 62
7
  6
CONTINUOUS
 10
749.7875572509
 20
925.3701176581
 11
749.7875572509
 21
931.3701176581
  0
LINE
  5
544
100
AcDbEntity
  8
H_EXTERN_HANDLE
100
AcDbLine
 62
7
  6
CONTINUOUS
 10
751.6850662581
 20
882.8701176581
 11
751.6850662581
 21
859.8701176581
  0
LINE
  5
545
100
AcDbEntity
  8
H_EXTERN_HANDLE
100
AcDbLine
 62
7
  6
CONTINUOUS
 10
751.6850662581
 20
318.9089333001
 11
751.6850662581
 21
289.4089333001
  0
LINE
  5
546
100
AcDbEntity
  8
H_MOVING
100
AcDbLine
 62
1
  6
CONTINUOUS
 10
751.6850662581
 20
859.8701176581
 11
751.6850662581
 21
885.8701176581
  0
LINE
  5
547
100
AcDbEntity
  8
AXIS
100
AcDbLine
 62
4
  6
CONTINUOUS
 10
755.1766418303
 20
669.8701176581
 11
755.1766418303
 21
682.8701176581
  0
LINE
  5
548
100
AcDbEntity
  8
INTER_PHASE_SCHIELDS
100
AcDbLine
 62
5
  6
CONTINUOUS
 10
711.6766418345
 20
350.9089333001
 11
713.1766418345
 21
359.9089333001
  0
LINE
  5
549
100
AcDbEntity
  8
INTER_PHASE_SCHIELDS
100
AcDbLine
 62
5
  6
CONTINUOUS
 10
345.460730774
 20
85.1089333001
 11
351.460730774
 21
91.1089333001
  0
LINE
  5
54A
100
AcDbEntity
  8
BASIC_DEVICE
100
AcDbLine
 62
7
  6
CONTINUOUS
 10
826.6539773448
 20
333.1589333001
 11
823.6228884316
 21
338.4089333001
  0
LINE
  5
54B
100
AcDbEntity
  8
BASIC_DEVICE
100
AcDbLine
 62
7
  6
CONTINUOUS
 10
832.7161551713
 20
343.6589333001
 11
835.7472440846
 21
338.4089333001
  0
LINE
  5
54C
100
AcDbEntity
  8
BASIC_DEVICE
100
AcDbLine
 62
7
  6
CONTINUOUS
 10
952.1455529213
 20
178.1589333001
 11
949.1144640081
 21
183.4089333001
  0
LINE
  5
54D
100
AcDbEntity
  8
H_EXTERN_HANDLE
100
AcDbLine
 62
7
  6
CONTINUOUS
 10
694.0825752653
 20
935.3701176581
 11
695.1850662581
 21
925.3701176581
  0
LINE
  5
54E
100
AcDbEntity
  8
H_EXTERN_HANDLE
100
AcDbLine
 62
7
  6
CONTINUOUS
 10
755.6850662581
 20
859.8701176581
 11
755.6850662581
 21
882.8701176581
  0
LINE
  5
54F
100
AcDbEntity
  8
H_EXTERN_HANDLE
100
AcDbLine
 62
7
  6
CONTINUOUS
 10
758.6850662581
 20
887.1205684276
 11
758.6850662581
 21
882.8701176581
  0
LINE
  5
550
100
AcDbEntity
  8
H_EXTERN_HANDLE
100
AcDbLine
 62
7
  6
CONTINUOUS
 10
759.853005768
 20
889.1606816487
 11
759.853005768
 21
887.1642006499
  0
LINE
  5
551
100
AcDbEntity
  8
H_EXTERN_HANDLE
100
AcDbLine
 62
7
  6
CONTINUOUS
 10
761.6850662581
 20
853.8701176581
 11
761.6850662581
 21
844.8701176581
  0
LINE
  5
552
100
AcDbEntity
  8
H_EXTERN_HANDLE
100
AcDbLine
 62
7
  6
CONTINUOUS
 10
761.6850662581
 20
289.4089333001
 11
761.6850662581
 21
318.9089333001
  0
LINE
  5
553
100
AcDbEntity
  8
H_EXTERN_HANDLE
100
AcDbLine
 62
7
  6
CONTINUOUS
 10
765.853005768
 20
887.3883503864
 11
765.853005768
 21
889.1606816487
  0
LINE
  5
554
100
AcDbEntity
  8
H_EXTERN_HANDLE
100
AcDbLine
 62
7
  6
CONTINUOUS
 10
767.8441668464
 20
889.4592177571
 11
767.8441668464
 21
887.4627367583
  0
LINE
  5
555
100
AcDbEntity
  8
H_EXTERN_HANDLE
100
AcDbLine
 62
7
  6
CONTINUOUS
 10
773.8441668464
 20
887.6868864948
 11
773.8441668464
 21
889.4592177571
  0
LINE
  5
556
100
AcDbEntity
  8
H_EXTERN_HANDLE
100
AcDbLine
 62
7
  6
CONTINUOUS
 10
775.8353279248
 20
889.7577538656
 11
775.8353279248
 21
887.7612728667
  0
LINE
  5
557
100
AcDbEntity
  8
BASIC_DEVICE
100
AcDbLine
 62
7
  6
CONTINUOUS
 10
781.6850662581
 20
155.9089333001
 11
781.6850662581
 21
345.9089333001
  0
LINE
  5
558
100
AcDbEntity
  8
H_EXTERN_HANDLE
100
AcDbLine
 62
7
  6
CONTINUOUS
 10
781.8353279248
 20
887.9854226032
 11
781.8353279248
 21
889.7577538656
  0
LINE
  5
559
100
AcDbEntity
  8
H_EXTERN_HANDLE
100
AcDbLine
 62
7
  6
CONTINUOUS
 10
783.8264890033
 20
890.056289974
 11
783.8264890033
 21
888.0598089751
  0
LINE
  5
55A
100
AcDbEntity
  8
H_EXTERN_HANDLE
100
AcDbLine
 62
7
  6
CONTINUOUS
 10
784.6850662581
 20
936.8701176581
 11
784.6850662581
 21
935.2586893136
  0
LINE
  5
55B
100
AcDbEntity
  8
H_EXTERN_HANDLE
100
AcDbLine
 62
7
  6
CONTINUOUS
 10
784.6850662581
 20
272.9089333001
 11
784.6850662581
 21
284.9089333
  0
LINE
  5
55C
100
AcDbEntity
  8
H_EXTERN_HANDLE
100
AcDbLine
 62
7
  6
CONTINUOUS
 10
785.6850662581
 20
935.3701176581
 11
785.6850662581
 21
936.1861650244
  0
LINE
  5
55D
100
AcDbEntity
  8
BASIC_DEVICE
100
AcDbLine
 62
7
  6
CONTINUOUS
 10
786.6850662581
 20
772.8701176581
 11
786.6850662581
 21
718.8701176581
  0
LINE
  5
55E
100
AcDbEntity
  8
BASIC_DEVICE
100
AcDbLine
 62
7
  6
CONTINUOUS
 10
786.6850662581
 20
350.9089333001
 11
786.6850662581
 21
150.9089333001
  0
LINE
  5
55F
100
AcDbEntity
  8
TERMINAL_SCHROUD
100
AcDbLine
 62
2
  6
CONTINUOUS
 10
787.1766418303
 20
328.4096339049
 11
787.1766418303
 21
351.4096339049
  0
LINE
  5
560
100
AcDbEntity
  8
TERMINAL_SCHROUD
100
AcDbLine
 62
2
  6
CONTINUOUS
 10
787.1766418303
 20
718.8701176581
 11
787.1766418303
 21
720.8701176581
  0
LINE
  5
561
100
AcDbEntity
  8
H_EXTERN_HANDLE
100
AcDbLine
 62
7
  6
CONTINUOUS
 10
789.8264890033
 20
888.2839587116
 11
789.8264890033
 21
890.056289974
  0
LINE
  5
562
100
AcDbEntity
  8
H_EXTERN_HANDLE
100
AcDbLine
 62
7
  6
CONTINUOUS
 10
791.8176500817
 20
890.3548260824
 11
791.8176500817
 21
888.3583450835
  0
LINE
  5
563
100
AcDbEntity
  8
AXIS
100
AcDbLine
 62
4
  6
CONTINUOUS
 10
795.1766418303
 20
669.8701176581
 11
795.1766418303
 21
682.8701176581
  0
LINE
  5
564
100
AcDbEntity
  8
H_EXTERN_HANDLE
100
AcDbLine
 62
7
  6
CONTINUOUS
 10
797.8176500817
 20
888.5824948201
 11
797.8176500817
 21
890.3548260824
  0
LINE
  5
565
100
AcDbEntity
  8
H_EXTERN_HANDLE
100
AcDbLine
 62
7
  6
CONTINUOUS
 10
799.8088111601
 20
890.6533621908
 11
799.8088111601
 21
888.6568811919
  0
LINE
  5
566
100
AcDbEntity
  8
INTER_PHASE_SCHIELDS
100
AcDbLine
 62
5
  6
CONTINUOUS
 10
717.1766418345
 20
141.9089333
 11
718.6766418345
 21
150.9089333
  0
LINE
  5
567
100
AcDbEntity
  8
BASIC_DEVICE
100
AcDbLine
 62
7
  6
CONTINUOUS
 10
608.6539773448
 20
168.6589333
 11
605.6228884316
 21
163.4089333
  0
LINE
  5
568
100
AcDbEntity
  8
BASIC_DEVICE
100
AcDbLine
 62
7
  6
CONTINUOUS
 10
614.7161551713
 20
158.1589333
 11
617.7472440846
 21
163.4089333
  0
LINE
  5
569
100
AcDbEntity
  8
BASIC_DEVICE
100
AcDbLine
 62
7
  6
CONTINUOUS
 10
743.6766418303
 20
410.9089333001
 11
748.6766418303
 21
415.9089333001
  0
LINE
  5
56A
100
AcDbEntity
  8
AM_12
100
AcDbLine
 62
4
  6
CONTINUOUS
 10
712.4436243619
 20
373.980161568
 11
715.9436243619
 21
377.480161568
  0
LINE
  5
56B
100
AcDbEntity
  8
BASIC_DEVICE
100
AcDbLine
 62
7
  6
CONTINUOUS
 10
967.6766418346
 20
632.8701176581
 11
943.1766418346
 21
632.8701176581
  0
LINE
  5
56C
100
AcDbEntity
  8
BASIC_DEVICE
100
AcDbLine
 62
7
  6
CONTINUOUS
 10
500.1766418346
 20
632.8701176581
 11
475.6766418346
 21
632.8701176581
  0
LINE
  5
56D
100
AcDbEntity
  8
BASIC_DEVICE
100
AcDbLine
 62
7
  6
CONTINUOUS
 10
943.1766418346
 20
634.8701176581
 11
500.1766418346
 21
634.8701176581
  0
LINE
  5
56E
100
AcDbEntity
  8
INTER_PHASE_SCHIELDS
100
AcDbLine
 62
5
  6
CONTINUOUS
 10
591.6766418345
 20
634.8701176581
 11
598.6766418345
 21
634.8701176581
  0
LINE
  5
56F
100
AcDbEntity
  8
INTER_PHASE_SCHIELDS
100
AcDbLine
 62
5
  6
CONTINUOUS
 10
711.6766418345
 20
634.8701176581
 11
718.6766418345
 21
634.8701176581
  0
LINE
  5
570
100
AcDbEntity
  8
INTER_PHASE_SCHIELDS
100
AcDbLine
 62
5
  6
CONTINUOUS
 10
831.6766418345
 20
634.8701176581
 11
838.6766418345
 21
634.8701176581
  0
LINE
  5
571
100
AcDbEntity
  8
INTER_PHASE_SCHIELDS
100
AcDbLine
 62
5
  6
CONTINUOUS
 10
838.6766418345
 20
636.8701176581
 11
836.1766418345
 21
636.8701176581
  0
LINE
  5
572
100
AcDbEntity
  8
INTER_PHASE_SCHIELDS
100
AcDbLine
 62
5
  6
CONTINUOUS
 10
834.1766418345
 20
636.8701176581
 11
831.6766418345
 21
636.8701176581
  0
LINE
  5
573
100
AcDbEntity
  8
INTER_PHASE_SCHIELDS
100
AcDbLine
 62
5
  6
CONTINUOUS
 10
718.6766418345
 20
636.8701176581
 11
716.1766418345
 21
636.8701176581
  0
LINE
  5
574
100
AcDbEntity
  8
INTER_PHASE_SCHIELDS
100
AcDbLine
 62
5
  6
CONTINUOUS
 10
714.1766418345
 20
636.8701176581
 11
711.6766418345
 21
636.8701176581
  0
LINE
  5
575
100
AcDbEntity
  8
INTER_PHASE_SCHIELDS
100
AcDbLine
 62
5
  6
CONTINUOUS
 10
598.6766418345
 20
636.8701176581
 11
596.1766418345
 21
636.8701176581
  0
LINE
  5
576
100
AcDbEntity
  8
INTER_PHASE_SCHIELDS
100
AcDbLine
 62
5
  6
CONTINUOUS
 10
594.1766418345
 20
636.8701176581
 11
591.6766418345
 21
636.8701176581
  0
LINE
  5
577
100
AcDbEntity
  8
INTER_PHASE_SCHIELDS
100
AcDbLine
 62
5
  6
CONTINUOUS
 10
594.1766418345
 20
640.8701176581
 11
596.1766418345
 21
640.8701176581
  0
LINE
  5
578
100
AcDbEntity
  8
INTER_PHASE_SCHIELDS
100
AcDbLine
 62
5
  6
CONTINUOUS
 10
714.1766418345
 20
640.8701176581
 11
716.1766418345
 21
640.8701176581
  0
LINE
  5
579
100
AcDbEntity
  8
INTER_PHASE_SCHIELDS
100
AcDbLine
 62
5
  6
CONTINUOUS
 10
834.1766418345
 20
640.8701176581
 11
836.1766418345
 21
640.8701176581
  0
LINE
  5
57A
100
AcDbEntity
  8
BASIC_DEVICE
100
AcDbLine
 62
7
  6
CONTINUOUS
 10
921.6766418303
 20
415.9089333001
 11
926.6766418303
 21
410.9089333001
  0
LINE
  5
57B
100
AcDbEntity
  8
BASIC_DEVICE
100
AcDbLine
 62
7
  6
CONTINUOUS
 10
958.2077307478
 20
188.6589333001
 11
961.2388196611
 21
183.4089333001
  0
LINE
  5
57C
100
AcDbEntity
  8
INTER_PHASE_SCHIELDS
100
AcDbLine
 62
5
  6
CONTINUOUS
 10
831.6766418345
 20
150.9089333
 11
833.1766418345
 21
141.9089333
  0
LINE
  5
57D
100
AcDbEntity
  8
H_EXTERN_HANDLE
100
AcDbLine
 62
7
  6
CONTINUOUS
 10
805.8088111601
 20
888.8810309285
 11
805.8088111601
 21
890.6533621908
  0
LINE
  5
57E
100
AcDbEntity
  8
BASIC_DEVICE
100
AcDbLine
 62
7
  6
CONTINUOUS
 10
806.6766418303
 20
679.8701176581
 11
806.6766418303
 21
672.8701176581
  0
LINE
  5
57F
100
AcDbEntity
  8
BASIC_DEVICE
100
AcDbLine
 62
7
  6
CONTINUOUS
 10
806.6766418303
 20
410.9089333001
 11
806.6766418303
 21
350.9080583001
  0
LINE
  5
580
100
AcDbEntity
  8
BASIC_DEVICE
100
AcDbLine
 62
7
  6
CONTINUOUS
 10
806.6766418303
 20
90.9089333001
 11
806.6766418303
 21
150.9098083001
  0
LINE
  5
581
100
AcDbEntity
  8
H_EXTERN_HANDLE
100
AcDbLine
 62
7
  6
CONTINUOUS
 10
807.7999722385
 20
890.9518982992
 11
807.7999722385
 21
888.9554173003
  0
LINE
  5
582
100
AcDbEntity
  8
H_EXTERN_HANDLE
100
AcDbLine
 62
7
  6
CONTINUOUS
 10
813.7999722385
 20
889.1795670369
 11
813.7999722385
 21
890.9518982992
  0
LINE
  5
583
100
AcDbEntity
  8
H_EXTERN_HANDLE
100
AcDbLine
 62
7
  6
CONTINUOUS
 10
815.791133317
 20
891.2504344076
 11
815.791133317
 21
889.2539534087
  0
LINE
  5
584
100
AcDbEntity
  8
H_EXTERN_HANDLE
100
AcDbLine
 62
7
  6
CONTINUOUS
 10
821.791133317
 20
889.4781031453
 11
821.791133317
 21
891.2504344076
  0
LINE
  5
585
100
AcDbEntity
  8
H_EXTERN_HANDLE
100
AcDbLine
 62
7
  6
CONTINUOUS
 10
823.7822943954
 20
891.548970516
 11
823.7822943954
 21
889.5524895171
  0
LINE
  5
586
100
AcDbEntity
  8
H_EXTERN_HANDLE
100
AcDbLine
 62
7
  6
CONTINUOUS
 10
829.7822943954
 20
889.7766392537
 11
829.7822943954
 21
891.548970516
  0
LINE
  5
587
100
AcDbEntity
  8
INTER_PHASE_SCHIELDS
100
AcDbLine
 62
5
  6
CONTINUOUS
 10
831.6766418345
 20
636.8701176581
 11
831.6766418345
 21
634.8701176581
  0
LINE
  5
588
100
AcDbEntity
  8
H_EXTERN_HANDLE
100
AcDbLine
 62
7
  6
CONTINUOUS
 10
831.7734554738
 20
891.8475066244
 11
831.7734554738
 21
889.8510256256
  0
LINE
  5
589
100
AcDbEntity
  8
INTER_PHASE_SCHIELDS
100
AcDbLine
 62
5
  6
CONTINUOUS
 10
833.1766418345
 20
707.1701176581
 11
833.1766418345
 21
645.3701176581
  0
LINE
  5
58A
100
AcDbEntity
  8
INTER_PHASE_SCHIELDS
100
AcDbLine
 62
5
  6
CONTINUOUS
 10
833.1766418345
 20
150.4089333
 11
833.1766418345
 21
91.1089333
  0
LINE
  5
58B
100
AcDbEntity
  8
INTER_PHASE_SCHIELDS
100
AcDbLine
 62
5
  6
CONTINUOUS
 10
833.1766418345
 20
351.4089333001
 11
833.1766418345
 21
410.7089333001
  0
LINE
  5
58C
100
AcDbEntity
  8
INTER_PHASE_SCHIELDS
100
AcDbLine
 62
5
  6
CONTINUOUS
 10
834.1766418345
 20
161.1089333
 11
834.1766418345
 21
85.1089333
  0
LINE
  5
58D
100
AcDbEntity
  8
INTER_PHASE_SCHIELDS
100
AcDbLine
 62
5
  6
CONTINUOUS
 10
834.1766418345
 20
340.7089333001
 11
834.1766418345
 21
416.7089333001
  0
LINE
  5
58E
100
AcDbEntity
  8
INTER_PHASE_SCHIELDS
100
AcDbLine
 62
5
  6
CONTINUOUS
 10
834.1766418345
 20
634.8701176581
 11
834.1766418345
 21
717.5701176581
  0
LINE
  5
58F
100
AcDbEntity
  8
INTER_PHASE_SCHIELDS
100
AcDbLine
 62
5
  6
CONTINUOUS
 10
836.1766418345
 20
717.5701176581
 11
836.1766418345
 21
634.8701176581
  0
LINE
  5
590
100
AcDbEntity
  8
INTER_PHASE_SCHIELDS
100
AcDbLine
 62
5
  6
CONTINUOUS
 10
836.1766418345
 20
85.1089333
 11
836.1766418345
 21
161.1089333
  0
LINE
  5
591
100
AcDbEntity
  8
INTER_PHASE_SCHIELDS
100
AcDbLine
 62
5
  6
CONTINUOUS
 10
836.1766418345
 20
340.7089333001
 11
836.1766418345
 21
416.7089333001
  0
LINE
  5
592
100
AcDbEntity
  8
INTER_PHASE_SCHIELDS
100
AcDbLine
 62
5
  6
CONTINUOUS
 10
837.1766418345
 20
150.4089333
 11
837.1766418345
 21
91.1089333
  0
LINE
  5
593
100
AcDbEntity
  8
INTER_PHASE_SCHIELDS
100
AcDbLine
 62
5
  6
CONTINUOUS
 10
837.1766418345
 20
351.4089333001
 11
837.1766418345
 21
410.7089333001
  0
LINE
  5
594
100
AcDbEntity
  8
INTER_PHASE_SCHIELDS
100
AcDbLine
 62
5
  6
CONTINUOUS
 10
837.1766418345
 20
645.3701176581
 11
837.1766418345
 21
707.1701176581
  0
LINE
  5
595
100
AcDbEntity
  8
H_EXTERN_HANDLE
100
AcDbLine
 62
7
  6
CONTINUOUS
 10
837.7734554738
 20
890.0751753621
 11
837.7734554738
 21
891.8475066244
  0
LINE
  5
596
100
AcDbEntity
  8
INTER_PHASE_SCHIELDS
100
AcDbLine
 62
5
  6
CONTINUOUS
 10
838.6766418345
 20
634.8701176581
 11
838.6766418345
 21
636.8701176581
  0
LINE
  5
597
100
AcDbEntity
  8
H_EXTERN_HANDLE
100
AcDbLine
 62
7
  6
CONTINUOUS
 10
839.7646165522
 20
892.1460427328
 11
839.7646165522
 21
890.149561734
  0
LINE
  5
598
100
AcDbEntity
  8
H_EXTERN_HANDLE
100
AcDbLine
 62
7
  6
CONTINUOUS
 10
845.7646165522
 20
890.3737114705
 11
845.7646165522
 21
892.1460427328
  0
LINE
  5
599
100
AcDbEntity
  8
H_EXTERN_HANDLE
100
AcDbLine
 62
3
  6
CONTINUOUS
 10
708.795209275
 20
251.2665457955
 11
704.9916449193
 21
243.1097757121
  0
LINE
  5
59A
100
AcDbEntity
  8
INTER_PHASE_SCHIELDS
100
AcDbLine
 62
5
  6
CONTINUOUS
 10
593.1766418345
 20
645.3701176581
 11
594.1766418345
 21
645.3701176581
  0
LINE
  5
59B
100
AcDbEntity
  8
INTER_PHASE_SCHIELDS
100
AcDbLine
 62
5
  6
CONTINUOUS
 10
596.1766418345
 20
645.3701176581
 11
597.1766418345
 21
645.3701176581
  0
LINE
  5
59C
100
AcDbEntity
  8
INTER_PHASE_SCHIELDS
100
AcDbLine
 62
5
  6
CONTINUOUS
 10
713.1766418345
 20
645.3701176581
 11
714.1766418345
 21
645.3701176581
  0
LINE
  5
59D
100
AcDbEntity
  8
INTER_PHASE_SCHIELDS
100
AcDbLine
 62
5
  6
CONTINUOUS
 10
716.1766418345
 20
645.3701176581
 11
717.1766418345
 21
645.3701176581
  0
LINE
  5
59E
100
AcDbEntity
  8
INTER_PHASE_SCHIELDS
100
AcDbLine
 62
5
  6
CONTINUOUS
 10
833.1766418345
 20
645.3701176581
 11
834.1766418345
 21
645.3701176581
  0
LINE
  5
59F
100
AcDbEntity
  8
INTER_PHASE_SCHIELDS
100
AcDbLine
 62
5
  6
CONTINUOUS
 10
836.1766418345
 20
645.3701176581
 11
837.1766418345
 21
645.3701176581
  0
LINE
  5
5A0
100
AcDbEntity
  8
BASIC_DEVICE
100
AcDbLine
 62
7
  6
CONTINUOUS
 10
967.6766418346
 20
657.8701176581
 11
945.1766418346
 21
657.8701176581
  0
LINE
  5
5A1
100
AcDbEntity
  8
BASIC_DEVICE
100
AcDbLine
 62
7
  6
CONTINUOUS
 10
475.6766418346
 20
657.8701176581
 11
498.1766418346
 21
657.8701176581
  0
LINE
  5
5A2
100
AcDbEntity
  8
BASIC_DEVICE
100
AcDbLine
 62
7
  6
CONTINUOUS
 10
926.6766418303
 20
672.8701176581
 11
863.6766418303
 21
672.8701176581
  0
LINE
  5
5A3
100
AcDbEntity
  8
BASIC_DEVICE
100
AcDbLine
 62
7
  6
CONTINUOUS
 10
806.6766418303
 20
672.8701176581
 11
743.6766418303
 21
672.8701176581
  0
LINE
  5
5A4
100
AcDbEntity
  8
BASIC_DEVICE
100
AcDbLine
 62
7
  6
CONTINUOUS
 10
686.6766418303
 20
672.8701176581
 11
623.6766418303
 21
672.8701176581
  0
LINE
  5
5A5
100
AcDbEntity
  8
BASIC_DEVICE
100
AcDbLine
 62
7
  6
CONTINUOUS
 10
566.6766418303
 20
672.8701176581
 11
503.6766418303
 21
672.8701176581
  0
LINE
  5
5A6
100
AcDbEntity
  8
BASIC_DEVICE
100
AcDbLine
 62
7
  6
CONTINUOUS
 10
967.6766418346
 20
679.8701176581
 11
475.6766418346
 21
679.8701176581
  0
LINE
  5
5A7
100
AcDbEntity
  8
AM_12
100
AcDbLine
 62
4
  6
CONTINUOUS
 10
959.8484771882
 20
435.4493705917
 11
963.3484771882
 21
431.9493705917
  0
LINE
  5
5A8
100
AcDbEntity
  8
BASIC_DEVICE
100
AcDbLine
 62
7
  6
CONTINUOUS
 10
952.1455529213
 20
313.1589333001
 11
949.1144640081
 21
318.4089333001
  0
LINE
  5
5A9
100
AcDbEntity
  8
BASIC_DEVICE
100
AcDbLine
 62
7
  6
CONTINUOUS
 10
958.2077307478
 20
323.6589333001
 11
961.2388196611
 21
318.4089333001
  0
LINE
  5
5AA
100
AcDbEntity
  8
INTER_PHASE_SCHIELDS
100
AcDbLine
 62
5
  6
CONTINUOUS
 10
837.1766418345
 20
359.9089333001
 11
838.6766418345
 21
350.9089333001
  0
LINE
  5
5AB
100
AcDbEntity
  8
H_EXTERN_HANDLE
100
AcDbLine
 62
7
  6
CONTINUOUS
 10
847.7557776307
 20
892.4445788413
 11
847.7557776307
 21
890.4480978424
  0
LINE
  5
5AC
100
AcDbEntity
  8
H_EXTERN_HANDLE
100
AcDbLine
 62
7
  6
CONTINUOUS
 10
853.7557776307
 20
890.6722475789
 11
853.7557776307
 21
892.4445788413
  0
LINE
  5
5AD
100
AcDbEntity
  8
H_EXTERN_HANDLE
100
AcDbLine
 62
7
  6
CONTINUOUS
 10
855.7469387091
 20
892.7431149497
 11
855.7469387091
 21
890.7466339508
  0
LINE
  5
5AE
100
AcDbEntity
  8
BASIC_DEVICE
100
AcDbLine
 62
7
  6
CONTINUOUS
 10
858.6766418346
 20
241.9089333001
 11
858.6766418346
 21
259.9089333001
  0
LINE
  5
5AF
100
AcDbEntity
  8
BASIC_DEVICE
100
AcDbLine
 62
7
  6
CONTINUOUS
 10
861.6766418346
 20
256.9089333001
 11
861.6766418346
 21
244.9089333001
  0
LINE
  5
5B0
100
AcDbEntity
  8
H_EXTERN_HANDLE
100
AcDbLine
 62
7
  6
CONTINUOUS
 10
861.7469387091
 20
890.9707836873
 11
861.7469387091
 21
892.7431149497
  0
LINE
  5
5B1
100
AcDbEntity
  8
BASIC_DEVICE
100
AcDbLine
 62
7
  6
CONTINUOUS
 10
863.6766418303
 20
150.9078473626
 11
863.6766418303
 21
90.9089333001
  0
LINE
  5
5B2
100
AcDbEntity
  8
BASIC_DEVICE
100
AcDbLine
 62
7
  6
CONTINUOUS
 10
863.6766418303
 20
350.9100192376
 11
863.6766418303
 21
410.9089333001
  0
LINE
  5
5B3
100
AcDbEntity
  8
BASIC_DEVICE
100
AcDbLine
 62
7
  6
CONTINUOUS
 10
863.6766418303
 20
672.8701176581
 11
863.6766418303
 21
679.8701176581
  0
LINE
  5
5B4
100
AcDbEntity
  8
H_EXTERN_HANDLE
100
AcDbLine
 62
7
  6
CONTINUOUS
 10
863.7380997875
 20
893.0416510581
 11
863.7380997875
 21
891.0451700592
  0
LINE
  5
5B5
100
AcDbEntity
  8
AXIS
100
AcDbLine
 62
4
  6
CONTINUOUS
 10
867.6766418303
 20
715.8701176581
 11
867.6766418303
 21
723.8701176581
  0
LINE
  5
5B6
100
AcDbEntity
  8
H_EXTERN_HANDLE
100
AcDbLine
 62
7
  6
CONTINUOUS
 10
869.7380997875
 20
891.2693197958
 11
869.7380997875
 21
893.0416510581
  0
LINE
  5
5B7
100
AcDbEntity
  8
H_EXTERN_HANDLE
100
AcDbLine
 62
7
  6
CONTINUOUS
 10
871.7292608659
 20
893.3401871665
 11
871.7292608659
 21
891.3437061676
  0
LINE
  5
5B8
100
AcDbEntity
  8
BASIC_DEVICE
100
AcDbLine
 62
7
  6
CONTINUOUS
 10
873.6766418346
 20
244.9089333001
 11
873.6766418346
 21
256.9089333001
  0
LINE
  5
5B9
100
AcDbEntity
  8
AXIS
100
AcDbLine
 62
4
  6
CONTINUOUS
 10
875.1766418303
 20
669.8701176581
 11
875.1766418303
 21
682.8701176581
  0
LINE
  5
5BA
100
AcDbEntity
  8
BASIC_DEVICE
100
AcDbLine
 62
7
  6
CONTINUOUS
 10
876.6766418346
 20
259.9089333001
 11
876.6766418346
 21
241.9089333001
  0
LINE
  5
5BB
100
AcDbEntity
  8
H_EXTERN_HANDLE
100
AcDbLine
 62
7
  6
CONTINUOUS
 10
877.7292608659
 20
891.5678559042
 11
877.7292608659
 21
893.3401871665
  0
LINE
  5
5BC
100
AcDbEntity
  8
H_EXTERN_HANDLE
100
AcDbLine
 62
7
  6
CONTINUOUS
 10
879.7204219444
 20
893.6387232749
 11
879.7204219444
 21
891.642242276
  0
LINE
  5
5BD
100
AcDbEntity
  8
H_EXTERN_HANDLE
100
AcDbLine
 62
7
  6
CONTINUOUS
 10
885.7204219444
 20
891.8663920126
 11
885.7204219444
 21
893.6387232749
  0
LINE
  5
5BE
100
AcDbEntity
  8
H_EXTERN_HANDLE
100
AcDbLine
 62
7
  6
CONTINUOUS
 10
887.7115830228
 20
893.9372593833
 11
887.7115830228
 21
891.9407783844
  0
LINE
  5
5BF
100
AcDbEntity
  8
INTER_PHASE_SCHIELDS
100
AcDbLine
 62
5
  6
CONTINUOUS
 10
831.6766418345
 20
350.9089333001
 11
833.1766418345
 21
359.9089333001
  0
LINE
  5
5C0
100
AcDbEntity
  8
BASIC_DEVICE
100
AcDbLine
 62
7
  6
CONTINUOUS
 10
823.6228884316
 20
338.4089333001
 11
826.6539773448
 21
343.6589333001
  0
LINE
  5
5C1
100
AcDbEntity
  8
BASIC_DEVICE
100
AcDbLine
 62
7
  6
CONTINUOUS
 10
835.7472440846
 20
338.4089333001
 11
832.7161551713
 21
333.1589333001
  0
LINE
  5
5C2
100
AcDbEntity
  8
BASIC_DEVICE
100
AcDbLine
 62
7
  6
CONTINUOUS
 10
863.6766418303
 20
410.9089333001
 11
868.6766418303
 21
415.9089333001
  0
LINE
  5
5C3
100
AcDbEntity
  8
AM_12
100
AcDbLine
 62
4
  6
CONTINUOUS
 10
832.4436243619
 20
373.980161568
 11
835.9436243619
 21
377.480161568
  0
LINE
  5
5C4
100
AcDbEntity
  8
AM_12
100
AcDbLine
 62
4
  6
CONTINUOUS
 10
592.4436243619
 20
124.3377050321
 11
595.9436243619
 21
127.8377050321
  0
LINE
  5
5C5
100
AcDbEntity
  8
BASIC_DEVICE
100
AcDbLine
 62
7
  6
CONTINUOUS
 10
561.6766418303
 20
85.9089333001
 11
566.6766418303
 21
90.9089333001
  0
LINE
  5
5C6
100
AcDbEntity
  8
BASIC_DEVICE
100
AcDbLine
 62
1
  6
CONTINUOUS
 10
712.4818677753
 20
291.5050095815
 11
697.450492975
 21
278.8921885305
  0
LINE
  5
5C7
100
AcDbEntity
  8
INTER_PHASE_SCHIELDS
100
AcDbLine
 62
5
  6
CONTINUOUS
 10
837.1766418345
 20
707.1701176581
 11
836.1766418345
 21
707.1701176581
  0
LINE
  5
5C8
100
AcDbEntity
  8
INTER_PHASE_SCHIELDS
100
AcDbLine
 62
5
  6
CONTINUOUS
 10
834.1766418345
 20
707.1701176581
 11
833.1766418345
 21
707.1701176581
  0
LINE
  5
5C9
100
AcDbEntity
  8
INTER_PHASE_SCHIELDS
100
AcDbLine
 62
5
  6
CONTINUOUS
 10
717.1766418345
 20
707.1701176581
 11
716.1766418345
 21
707.1701176581
  0
LINE
  5
5CA
100
AcDbEntity
  8
INTER_PHASE_SCHIELDS
100
AcDbLine
 62
5
  6
CONTINUOUS
 10
714.1766418345
 20
707.1701176581
 11
713.1766418345
 21
707.1701176581
  0
LINE
  5
5CB
100
AcDbEntity
  8
INTER_PHASE_SCHIELDS
100
AcDbLine
 62
5
  6
CONTINUOUS
 10
597.1766418345
 20
707.1701176581
 11
596.1766418345
 21
707.1701176581
  0
LINE
  5
5CC
100
AcDbEntity
  8
INTER_PHASE_SCHIELDS
100
AcDbLine
 62
5
  6
CONTINUOUS
 10
594.1766418345
 20
707.1701176581
 11
593.1766418345
 21
707.1701176581
  0
LINE
  5
5CD
100
AcDbEntity
  8
INTER_PHASE_SCHIELDS
100
AcDbLine
 62
5
  6
CONTINUOUS
 10
594.1766418345
 20
711.5701176581
 11
596.1766418345
 21
711.5701176581
  0
LINE
  5
5CE
100
AcDbEntity
  8
INTER_PHASE_SCHIELDS
100
AcDbLine
 62
5
  6
CONTINUOUS
 10
714.1766418345
 20
711.5701176581
 11
716.1766418345
 21
711.5701176581
  0
LINE
  5
5CF
100
AcDbEntity
  8
INTER_PHASE_SCHIELDS
100
AcDbLine
 62
5
  6
CONTINUOUS
 10
834.1766418345
 20
711.5701176581
 11
836.1766418345
 21
711.5701176581
  0
LINE
  5
5D0
100
AcDbEntity
  8
INTER_PHASE_SCHIELDS
100
AcDbLine
 62
5
  6
CONTINUOUS
 10
594.1766418345
 20
717.5701176581
 11
596.1766418345
 21
717.5701176581
  0
LINE
  5
5D1
100
AcDbEntity
  8
INTER_PHASE_SCHIELDS
100
AcDbLine
 62
5
  6
CONTINUOUS
 10
714.1766418345
 20
717.5701176581
 11
716.1766418345
 21
717.5701176581
  0
LINE
  5
5D2
100
AcDbEntity
  8
INTER_PHASE_SCHIELDS
100
AcDbLine
 62
5
  6
CONTINUOUS
 10
834.1766418345
 20
717.5701176581
 11
836.1766418345
 21
717.5701176581
  0
LINE
  5
5D3
100
AcDbEntity
  8
TERMINAL_SCHROUD
100
AcDbLine
 62
2
  6
CONTINUOUS
 10
475.6766418303
 20
718.8701176581
 11
967.6766418303
 21
718.8701176581
  0
LINE
  5
5D4
100
AcDbEntity
  8
BASIC_DEVICE
100
AcDbLine
 62
7
  6
CONTINUOUS
 10
475.6766418346
 20
718.8701176581
 11
967.6766418346
 21
718.8701176581
  0
LINE
  5
5D5
100
AcDbEntity
  8
TERMINAL_SCHROUD
100
AcDbLine
 62
2
  6
CONTINUOUS
 10
475.6766418303
 20
720.8701176581
 11
967.6766418303
 21
720.8701176581
  0
LINE
  5
5D6
100
AcDbEntity
  8
H_EXTERN_HANDLE
100
AcDbLine
 62
7
  6
CONTINUOUS
 10
708.795209275
 20
853.8701176581
 11
705.1900455608
 21
859.8701176581
  0
LINE
  5
5D7
100
AcDbEntity
  8
H_EXTERN_HANDLE
100
AcDbLine
 62
7
  6
CONTINUOUS
 10
893.7115830228
 20
892.164928121
 11
893.7115830228
 21
893.9372593833
  0
LINE
  5
5D8
100
AcDbEntity
  8
H_EXTERN_HANDLE
100
AcDbLine
 62
7
  6
CONTINUOUS
 10
895.7027441012
 20
894.2357954917
 11
895.7027441012
 21
892.2393144928
  0
LINE
  5
5D9
100
AcDbEntity
  8
H_EXTERN_HANDLE
100
AcDbLine
 62
7
  6
CONTINUOUS
 10
901.7027441012
 20
892.4634642294
 11
901.7027441012
 21
894.2357954917
  0
LINE
  5
5DA
100
AcDbEntity
  8
H_EXTERN_HANDLE
100
AcDbLine
 62
7
  6
CONTINUOUS
 10
903.6939051797
 20
894.5343316001
 11
903.6939051797
 21
892.5378506013
  0
LINE
  5
5DB
100
AcDbEntity
  8
H_EXTERN_HANDLE
100
AcDbLine
 62
7
  6
CONTINUOUS
 10
909.6939051797
 20
892.7620003378
 11
909.6939051797
 21
894.5343316001
  0
LINE
  5
5DC
100
AcDbEntity
  8
H_EXTERN_HANDLE
100
AcDbLine
 62
7
  6
CONTINUOUS
 10
911.6850662581
 20
940.8701176581
 11
911.6850662581
 21
892.8363867097
  0
LINE
  5
5DD
100
AcDbEntity
  8
H_EXTERN_HANDLE
100
AcDbLine
 62
7
  6
CONTINUOUS
 10
911.6850662581
 20
269.4089333001
 11
911.6850662581
 21
288.4089333001
  0
LINE
  5
5DE
100
AcDbEntity
  8
AXIS
100
AcDbLine
 62
4
  6
CONTINUOUS
 10
915.1766418303
 20
669.8701176581
 11
915.1766418303
 21
682.8701176581
  0
LINE
  5
5DF
100
AcDbEntity
  8
BASIC_DEVICE
100
AcDbLine
 62
7
  6
CONTINUOUS
 10
926.6766418303
 20
679.8701176581
 11
926.6766418303
 21
672.8701176581
  0
LINE
  5
5E0
100
AcDbEntity
  8
BASIC_DEVICE
100
AcDbLine
 62
7
  6
CONTINUOUS
 10
926.6766418303
 20
410.9089333001
 11
926.6766418303
 21
350.9080583001
  0
LINE
  5
5E1
100
AcDbEntity
  8
BASIC_DEVICE
100
AcDbLine
 62
7
  6
CONTINUOUS
 10
926.6766418303
 20
90.9089333001
 11
926.6766418303
 21
150.9098083001
  0
LINE
  5
5E2
100
AcDbEntity
  8
INTER_PHASE_SCHIELDS
100
AcDbLine
 62
5
  6
CONTINUOUS
 10
837.1766418345
 20
141.9089333
 11
838.6766418345
 21
150.9089333
  0
LINE
  5
5E3
100
AcDbEntity
  8
AM_12
100
AcDbLine
 62
4
  6
CONTINUOUS
 10
959.8484771882
 20
431.9493705917
 11
963.3484771882
 21
435.4493705917
  0
LINE
  5
5E4
100
AcDbEntity
  8
AM_12
100
AcDbLine
 62
4
  6
CONTINUOUS
 10
818.0822749071
 20
287.6828593108
 11
821.5822749071
 21
291.1828593108
  0
LINE
  5
5E5
100
AcDbEntity
  8
BASIC_DEVICE
100
AcDbLine
 62
7
  6
CONTINUOUS
 10
654.6850662581
 20
736.8701176581
 11
634.6850662581
 21
736.8701176581
  0
LINE
  5
5E6
100
AcDbEntity
  8
TERMINAL_SCHROUD
100
AcDbLine
 62
2
  6
CONTINUOUS
 10
967.6766418303
 20
770.8701176581
 11
475.6766418303
 21
770.8701176581
  0
LINE
  5
5E7
100
AcDbEntity
  8
BASIC_DEVICE
100
AcDbLine
 62
7
  6
CONTINUOUS
 10
656.6850662581
 20
772.8701176581
 11
786.6850662581
 21
772.8701176581
  0
LINE
  5
5E8
100
AcDbEntity
  8
BASIC_DEVICE
100
AcDbLine
 62
1
  6
CONTINUOUS
 10
697.3983833022
 20
774.8701176581
 11
706.2413700468
 21
774.8701176581
  0
LINE
  5
5E9
100
AcDbEntity
  8
BASIC_DEVICE
100
AcDbLine
 62
1
  6
CONTINUOUS
 10
697.3983833022
 20
775.9701176581
 11
706.2413700468
 21
775.9701176581
  0
LINE
  5
5EA
100
AcDbEntity
  8
BASIC_DEVICE
100
AcDbLine
 62
1
  6
CONTINUOUS
 10
706.2413700468
 20
777.0701176581
 11
737.1287624694
 21
777.0701176581
  0
LINE
  5
5EB
100
AcDbEntity
  8
BASIC_DEVICE
100
AcDbLine
 62
1
  6
CONTINUOUS
 10
708.5829565852
 20
784.1701176581
 11
707.5829565852
 21
785.1701176581
  0
LINE
  5
5EC
100
AcDbEntity
  8
BASIC_DEVICE
100
AcDbLine
 62
7
  6
CONTINUOUS
 10
943.1766418346
 20
632.8701176581
 11
943.1766418346
 21
634.8701176581
  0
LINE
  5
5ED
100
AcDbEntity
  8
BASIC_DEVICE
100
AcDbLine
 62
7
  6
CONTINUOUS
 10
945.1766418346
 20
350.9089333001
 11
945.1766418346
 21
338.4089333001
  0
LINE
  5
5EE
100
AcDbEntity
  8
BASIC_DEVICE
100
AcDbLine
 62
7
  6
CONTINUOUS
 10
945.1766418346
 20
150.9089333001
 11
945.1766418346
 21
163.4089333001
  0
LINE
  5
5EF
100
AcDbEntity
  8
BASIC_DEVICE
100
AcDbLine
 62
7
  6
CONTINUOUS
 10
945.1766418346
 20
657.8701176581
 11
945.1766418346
 21
718.8701176581
  0
LINE
  5
5F0
100
AcDbEntity
  8
AXIS
100
AcDbLine
 62
4
  6
CONTINUOUS
 10
955.1766418346
 20
155.9089333001
 11
955.1766418346
 21
170.9089333001
  0
LINE
  5
5F1
100
AcDbEntity
  8
AXIS
100
AcDbLine
 62
4
  6
CONTINUOUS
 10
955.1766418346
 20
330.9089333001
 11
955.1766418346
 21
345.9089333001
  0
LINE
  5
5F2
100
AcDbEntity
  8
BASIC_DEVICE
100
AcDbLine
 62
7
  6
CONTINUOUS
 10
967.6766418346
 20
718.8701176581
 11
967.6766418346
 21
632.8701176581
  0
LINE
  5
5F3
100
AcDbEntity
  8
TERMINAL_SCHROUD
100
AcDbLine
 62
2
  6
CONTINUOUS
 10
967.6766418303
 20
476.4096339049
 11
967.6766418303
 21
328.4096339049
  0
LINE
  5
5F4
100
AcDbEntity
  8
BASIC_DEVICE
100
AcDbLine
 62
7
  6
CONTINUOUS
 10
967.6766418346
 20
150.9089333001
 11
967.6766418346
 21
350.9089333001
  0
LINE
  5
5F5
100
AcDbEntity
  8
TERMINAL_SCHROUD
100
AcDbLine
 62
2
  6
CONTINUOUS
 10
967.6766418303
 20
718.8701176581
 11
967.6766418303
 21
770.8701176581
  0
LINE
  5
5F6
100
AcDbEntity
  8
BASIC_DEVICE
100
AcDbLine
 62
7
  6
CONTINUOUS
 10
823.6228884316
 20
163.4089333001
 11
826.6539773448
 21
168.6589333001
  0
LINE
  5
5F7
100
AcDbEntity
  8
BASIC_DEVICE
100
AcDbLine
 62
7
  6
CONTINUOUS
 10
835.7472440846
 20
163.4089333001
 11
832.7161551713
 21
158.1589333001
  0
LINE
  5
5F8
100
AcDbEntity
  8
AM_12
100
AcDbLine
 62
4
  6
CONTINUOUS
 10
712.4436243619
 20
124.3377050321
 11
715.9436243619
 21
127.8377050321
  0
LINE
  5
5F9
100
AcDbEntity
  8
BASIC_DEVICE
100
AcDbLine
 62
7
  6
CONTINUOUS
 10
681.6766418303
 20
85.9089333001
 11
686.6766418303
 21
90.9089333001
  0
LINE
  5
5FA
100
AcDbEntity
  8
BASIC_DEVICE
100
AcDbLine
 62
7
  6
CONTINUOUS
 10
858.6766418346
 20
241.9089333001
 11
861.6766418346
 21
244.9089333001
  0
LINE
  5
5FB
100
AcDbEntity
  8
BASIC_DEVICE
100
AcDbLine
 62
7
  6
CONTINUOUS
 10
873.6766418346
 20
256.9089333001
 11
876.6766418346
 21
259.9089333001
  0
LINE
  5
5FC
100
AcDbEntity
  8
BASIC_DEVICE
100
AcDbLine
 62
1
  6
CONTINUOUS
 10
707.5829565852
 20
785.1701176581
 11
704.4829565852
 21
785.1701176581
  0
LINE
  5
5FD
100
AcDbEntity
  8
0
100
AcDbLine
 62
7
  6
CONTINUOUS
 10
396.1084805674
 20
793.2525596924
 11
181.6272621339
 21
793.2525596924
  0
LINE
  5
5FE
100
AcDbEntity
  8
BASIC_DEVICE
100
AcDbLine
 62
7
  6
CONTINUOUS
 10
714.1850662581
 20
798.8701176581
 11
729.1850662581
 21
798.8701176581
  0
LINE
  5
5FF
100
AcDbEntity
  8
0
100
AcDbLine
 62
1
  6
CONTINUOUS
 10
181.6272621339
 20
803.1025596924
 11
396.1084805674
 21
803.1025596924
  0
LINE
  5
600
100
AcDbEntity
  8
0
100
AcDbLine
 62
1
  6
CONTINUOUS
 10
181.6272621339
 20
812.9525596924
 11
396.1084805674
 21
812.9525596924
  0
LINE
  5
601
100
AcDbEntity
  8
0
100
AcDbLine
 62
1
  6
CONTINUOUS
 10
181.6272621339
 20
822.8025596924
 11
396.1084805674
 21
822.8025596924
  0
LINE
  5
602
100
AcDbEntity
  8
BASIC_DEVICE
100
AcDbLine
 62
7
  6
CONTINUOUS
 10
949.1144640081
 20
318.4089333001
 11
952.1455529213
 21
323.6589333001
  0
LINE
  5
603
100
AcDbEntity
  8
BASIC_DEVICE
100
AcDbLine
 62
7
  6
CONTINUOUS
 10
961.2388196611
 20
318.4089333001
 11
958.2077307478
 21
313.1589333001
  0
LINE
  5
604
100
AcDbEntity
  8
0
100
AcDbLine
 62
1
  6
CONTINUOUS
 10
181.6272621339
 20
832.6525596924
 11
396.1084805674
 21
832.6525596924
  0
LINE
  5
605
100
AcDbEntity
  8
0
100
AcDbLine
 62
7
  6
CONTINUOUS
 10
181.6272621339
 20
842.5025596924
 11
396.1084805674
 21
842.5025596924
  0
LINE
  5
606
100
AcDbEntity
  8
H_EXTERN_HANDLE
100
AcDbLine
 62
7
  6
CONTINUOUS
 10
761.6850662581
 20
844.8701176581
 11
675.6850662581
 21
844.8701176581
  0
LINE
  5
607
100
AcDbEntity
  8
H_EXTERN_HANDLE
100
AcDbLine
 62
7
  6
CONTINUOUS
 10
761.6850662581
 20
853.8701176581
 11
708.795209275
 21
853.8701176581
  0
LINE
  5
608
100
AcDbEntity
  8
H_EXTERN_HANDLE
100
AcDbLine
 62
7
  6
CONTINUOUS
 10
675.6850662581
 20
859.8701176581
 11
755.6850662581
 21
859.8701176581
  0
LINE
  5
609
100
AcDbEntity
  8
H_MOVING
100
AcDbLine
 62
1
  6
CONTINUOUS
 10
691.6850662581
 20
859.8701176581
 11
751.6850662581
 21
859.8701176581
  0
LINE
  5
60A
100
AcDbEntity
  8
H_EXTERN_HANDLE
100
AcDbLine
 62
7
  6
CONTINUOUS
 10
751.6850662581
 20
859.8701176581
 11
761.6850662581
 21
853.8701176581
  0
LINE
  5
60B
100
AcDbEntity
  8
H_EXTERN_HANDLE
100
AcDbLine
 62
7
  6
CONTINUOUS
 10
708.4926678065
 20
935.3701176581
 11
720.1850662581
 21
925.3701176581
  0
LINE
  5
60C
100
AcDbEntity
  8
BASIC_DEVICE
100
AcDbLine
 62
7
  6
CONTINUOUS
 10
949.1144640081
 20
183.4089333001
 11
952.1455529213
 21
188.6589333001
  0
LINE
  5
60D
100
AcDbEntity
  8
AM_12
100
AcDbLine
 62
4
  6
CONTINUOUS
 10
832.4436243619
 20
124.3377050321
 11
835.9436243619
 21
127.8377050321
  0
LINE
  5
60E
100
AcDbEntity
  8
BASIC_DEVICE
100
AcDbLine
 62
7
  6
CONTINUOUS
 10
801.6766418303
 20
85.9089333001
 11
806.6766418303
 21
90.9089333001
  0
LINE
  5
60F
100
AcDbEntity
  8
H_EXTERN_HANDLE
100
AcDbLine
 62
7
  6
CONTINUOUS
 10
749.7875572509
 20
931.3701176581
 11
785.6850662581
 21
935.3701176581
  0
LINE
  5
610
100
AcDbEntity
  8
H_EXTERN_HANDLE
100
AcDbLine
 62
7
  6
CONTINUOUS
 10
911.6850662581
 20
892.8363867097
 11
909.6939051797
 21
892.7620003378
  0
LINE
  5
611
100
AcDbEntity
  8
H_EXTERN_HANDLE
100
AcDbLine
 62
7
  6
CONTINUOUS
 10
903.6939051797
 20
892.5378506013
 11
901.7027441012
 21
892.4634642294
  0
LINE
  5
612
100
AcDbEntity
  8
H_EXTERN_HANDLE
100
AcDbLine
 62
7
  6
CONTINUOUS
 10
895.7027441012
 20
892.2393144928
 11
893.7115830228
 21
892.164928121
  0
LINE
  5
613
100
AcDbEntity
  8
H_EXTERN_HANDLE
100
AcDbLine
 62
7
  6
CONTINUOUS
 10
887.7115830228
 20
891.9407783844
 11
885.7204219444
 21
891.8663920126
  0
LINE
  5
614
100
AcDbEntity
  8
H_EXTERN_HANDLE
100
AcDbLine
 62
7
  6
CONTINUOUS
 10
879.7204219444
 20
891.642242276
 11
877.7292608659
 21
891.5678559042
  0
LINE
  5
615
100
AcDbEntity
  8
H_EXTERN_HANDLE
100
AcDbLine
 62
7
  6
CONTINUOUS
 10
871.7292608659
 20
891.3437061676
 11
869.7380997875
 21
891.2693197958
  0
LINE
  5
616
100
AcDbEntity
  8
H_EXTERN_HANDLE
100
AcDbLine
 62
7
  6
CONTINUOUS
 10
863.7380997875
 20
891.0451700592
 11
861.7469387091
 21
890.9707836873
  0
LINE
  5
617
100
AcDbEntity
  8
H_EXTERN_HANDLE
100
AcDbLine
 62
7
  6
CONTINUOUS
 10
855.7469387091
 20
890.7466339508
 11
853.7557776307
 21
890.6722475789
  0
LINE
  5
618
100
AcDbEntity
  8
H_EXTERN_HANDLE
100
AcDbLine
 62
7
  6
CONTINUOUS
 10
847.7557776307
 20
890.4480978424
 11
845.7646165522
 21
890.3737114705
  0
LINE
  5
619
100
AcDbEntity
  8
H_EXTERN_HANDLE
100
AcDbLine
 62
7
  6
CONTINUOUS
 10
839.7646165522
 20
890.149561734
 11
837.7734554738
 21
890.0751753621
  0
LINE
  5
61A
100
AcDbEntity
  8
H_EXTERN_HANDLE
100
AcDbLine
 62
7
  6
CONTINUOUS
 10
831.7734554738
 20
889.8510256256
 11
829.7822943954
 21
889.7766392537
  0
LINE
  5
61B
100
AcDbEntity
  8
H_EXTERN_HANDLE
100
AcDbLine
 62
7
  6
CONTINUOUS
 10
823.7822943954
 20
889.5524895171
 11
821.791133317
 21
889.4781031453
  0
LINE
  5
61C
100
AcDbEntity
  8
H_EXTERN_HANDLE
100
AcDbLine
 62
7
  6
CONTINUOUS
 10
815.791133317
 20
889.2539534087
 11
813.7999722385
 21
889.1795670369
  0
LINE
  5
61D
100
AcDbEntity
  8
H_EXTERN_HANDLE
100
AcDbLine
 62
7
  6
CONTINUOUS
 10
807.7999722385
 20
888.9554173003
 11
805.8088111601
 21
888.8810309285
  0
LINE
  5
61E
100
AcDbEntity
  8
H_EXTERN_HANDLE
100
AcDbLine
 62
7
  6
CONTINUOUS
 10
799.8088111601
 20
888.6568811919
 11
797.8176500817
 21
888.5824948201
  0
LINE
  5
61F
100
AcDbEntity
  8
H_EXTERN_HANDLE
100
AcDbLine
 62
7
  6
CONTINUOUS
 10
791.8176500817
 20
888.3583450835
 11
789.8264890033
 21
888.2839587116
  0
LINE
  5
620
100
AcDbEntity
  8
H_EXTERN_HANDLE
100
AcDbLine
 62
7
  6
CONTINUOUS
 10
783.8264890033
 20
888.0598089751
 11
781.8353279248
 21
887.9854226032
  0
LINE
  5
621
100
AcDbEntity
  8
H_EXTERN_HANDLE
100
AcDbLine
 62
7
  6
CONTINUOUS
 10
775.8353279248
 20
887.7612728667
 11
773.8441668464
 21
887.6868864948
  0
LINE
  5
622
100
AcDbEntity
  8
H_EXTERN_HANDLE
100
AcDbLine
 62
7
  6
CONTINUOUS
 10
767.8441668464
 20
887.4627367583
 11
765.853005768
 21
887.3883503864
  0
LINE
  5
623
100
AcDbEntity
  8
H_EXTERN_HANDLE
100
AcDbLine
 62
7
  6
CONTINUOUS
 10
759.853005768
 20
887.1642006499
 11
758.6850662581
 21
887.1205684276
  0
LINE
  5
624
100
AcDbEntity
  8
H_EXTERN_HANDLE
100
AcDbLine
 62
7
  6
CONTINUOUS
 10
758.6850662581
 20
882.8701176581
 11
751.6850662581
 21
882.8701176581
  0
LINE
  5
625
100
AcDbEntity
  8
H_MOVING
100
AcDbLine
 62
1
  6
CONTINUOUS
 10
730.1850662581
 20
882.8701176581
 11
713.1850662581
 21
882.8701176581
  0
LINE
  5
626
100
AcDbEntity
  8
H_MOVING
100
AcDbLine
 62
1
  6
CONTINUOUS
 10
732.1850665362
 20
884.3701176581
 11
730.1850662581
 21
884.3701176581
  0
LINE
  5
627
100
AcDbEntity
  8
H_MOVING
100
AcDbLine
 62
1
  6
CONTINUOUS
 10
711.1850661762
 20
884.3701190322
 11
713.1850664544
 21
884.3701187705
  0
LINE
  5
628
100
AcDbEntity
  8
H_MOVING
100
AcDbLine
 62
1
  6
CONTINUOUS
 10
697.4350662581
 20
885.8701176581
 11
691.6850662581
 21
885.8701176581
  0
LINE
  5
629
100
AcDbEntity
  8
H_EXTERN_HANDLE
100
AcDbLine
 62
7
  6
CONTINUOUS
 10
691.6850662581
 20
885.8701176581
 11
675.6850662581
 21
885.8701176581
  0
LINE
  5
62A
100
AcDbEntity
  8
H_EXTERN_HANDLE
100
AcDbLine
 62
7
  6
CONTINUOUS
 10
703.6850662581
 20
885.8701176581
 11
739.6850662581
 21
885.8701176581
  0
LINE
  5
62B
100
AcDbEntity
  8
H_MOVING
100
AcDbLine
 62
1
  6
CONTINUOUS
 10
745.9350662581
 20
885.8701176581
 11
751.6850662581
 21
885.8701176581
  0
LINE
  5
62C
100
AcDbEntity
  8
H_EXTERN_HANDLE
100
AcDbLine
 62
7
  6
CONTINUOUS
 10
684.185066258
 20
896.3701176581
 11
675.6850662581
 21
896.3701176582
  0
LINE
  5
62D
100
AcDbEntity
  8
BASIC_DEVICE
100
AcDbLine
 62
7
  6
CONTINUOUS
 10
961.2388196611
 20
183.4089333001
 11
958.2077307478
 21
178.1589333001
  0
LINE
  5
62E
100
AcDbEntity
  8
H_EXTERN_HANDLE
100
AcDbLine
 62
7
  6
CONTINUOUS
 10
785.6850662581
 20
936.1861650244
 11
911.6850662581
 21
940.8701176581
  0
LINE
  5
62F
100
AcDbEntity
  8
H_EXTERN_HANDLE
100
AcDbLine
 62
7
  6
CONTINUOUS
 10
675.6850662581
 20
921.3701176581
 11
684.1850662581
 21
921.3701176581
  0
LINE
  5
630
100
AcDbEntity
  8
H_EXTERN_HANDLE
100
AcDbLine
 62
7
  6
CONTINUOUS
 10
693.5825752653
 20
925.3701176581
 11
749.7875572509
 21
925.3701176581
  0
LINE
  5
631
100
AcDbEntity
  8
H_EXTERN_HANDLE
100
AcDbLine
 62
7
  6
CONTINUOUS
 10
675.6850662581
 20
931.3701176581
 11
693.5825752653
 21
931.3701176581
  0
LINE
  5
632
100
AcDbEntity
  8
H_MOVING
100
AcDbLine
 62
1
  6
CONTINUOUS
 10
735.9350662581
 20
935.3701176581
 11
729.9766282339
 21
935.3701176581
  0
LINE
  5
633
100
AcDbEntity
  8
H_EXTERN_HANDLE
100
AcDbLine
 62
7
  6
CONTINUOUS
 10
749.2875572509
 20
935.3701176581
 11
694.0825752653
 21
935.3701176581
  0
LINE
  5
634
100
AcDbEntity
  8
H_MOVING
100
AcDbLine
 62
1
  6
CONTINUOUS
 10
707.4350662581
 20
935.3701176581
 11
713.3935042822
 21
935.3701176581
  0
LINE
  5
635
100
AcDbEntity
  8
H_MOVING
100
AcDbLine
 62
1
  6
CONTINUOUS
 10
731.9350662581
 20
936.8701176581
 11
729.1683810316
 21
936.8701176581
  0
LINE
  5
636
100
AcDbEntity
  8
H_MOVING
100
AcDbLine
 62
1
  6
CONTINUOUS
 10
714.2017514845
 20
936.8701176581
 11
711.4350662581
 21
936.8701176581
  0
LINE
  5
637
100
AcDbEntity
  8
H_EXTERN_HANDLE
100
AcDbLine
 62
7
  6
CONTINUOUS
 10
675.6850662581
 20
936.8701176581
 11
784.6850662581
 21
936.8701176581
  0
LINE
  5
638
100
AcDbEntity
  8
HANDLE_FIXING_HOLES
100
AcDbLine
 62
4
  6
CONTINUOUS
 10
1151.0896652854
 20
271.8170037811
 11
1151.0896652854
 21
286.0008628191
  0
LINE
  5
639
100
AcDbEntity
  8
BASIC_DEVICE
100
AcDbLine
 62
7
  6
CONTINUOUS
 10
921.6766418303
 20
85.9089333001
 11
926.6766418303
 21
90.9089333001
  0
LINE
  5
63A
100
AcDbEntity
  8
0
100
AcDbLine
 62
7
  6
CONTINUOUS
 10
0.0
 20
1001.6687481472
 11
1315.1533480222
 21
1001.6687481472
  0
LINE
  5
63B
100
AcDbEntity
  8
0
100
AcDbLine
 62
7
  6
CONTINUOUS
 10
0.0
 20
1001.6687481472
 11
1315.1533480222
 21
1001.6687481472
  0
LINE
  5
63C
100
AcDbEntity
  8
HANDLE_FIXING_HOLES
100
AcDbLine
 62
4
  6
CONTINUOUS
 10
1176.0896652854
 20
246.4619297993
 11
1176.0896652854
 21
311.8375307052
  0
LINE
  5
63D
100
AcDbEntity
  8
HANDLE_FIXING_HOLES
100
AcDbLine
 62
4
  6
CONTINUOUS
 10
1201.0896652854
 20
272.1176998209
 11
1201.0896652854
 21
285.7001667793
  0
LINE
  5
63E
100
AcDbEntity
  8
0
100
AcDbLine
 62
7
  6
CONTINUOUS
 10
1315.1533480222
 20
1001.6687481472
 11
1315.1533480222
 21
0.0
  0
LINE
  5
63F
100
AcDbEntity
  8
0
100
AcDbLine
 62
7
  6
CONTINUOUS
 10
1315.1533480222
 20
0.0
 11
1315.1533480222
 21
1001.6687481472
  0
ARC
  5
640
100
AcDbEntity
  8
H_EXTERN_HANDLE
100
AcDbCircle
 62
7
  6
CONTINUOUS
 10
88.7102800045
 20
278.9089333001
 40
10.5
100
AcDbArc
 50
267.4898603379
 51
92.5101405927
  0
ARC
  5
641
100
AcDbEntity
  8
H_EXTERN_HANDLE
100
AcDbCircle
 62
7
  6
CONTINUOUS
 10
83.2342892897
 20
278.9089332556
 40
10.2601724327
100
AcDbArc
 50
267.4898603379
 51
92.5101405927
  0
ARC
  5
642
100
AcDbEntity
  8
H_EXTERN_HANDLE
100
AcDbCircle
 62
7
  6
CONTINUOUS
 10
60.960730774
 20
283.158933022
 40
10.0
100
AcDbArc
 50
90.0
 51
153.8844439374
  0
ARC
  5
643
100
AcDbEntity
  8
H_EXTERN_HANDLE
100
AcDbCircle
 62
7
  6
CONTINUOUS
 10
90.460730774
 20
254.658933022
 40
10.0
100
AcDbArc
 50
0.0
 51
90.0
  0
ARC
  5
644
100
AcDbEntity
  8
H_EXTERN_HANDLE
100
AcDbCircle
 62
7
  6
CONTINUOUS
 10
60.960730774
 20
274.658933022
 40
10.0
100
AcDbArc
 50
206.1155560628
 51
270.0
  0
ARC
  5
645
100
AcDbEntity
  8
H_EXTERN_HANDLE
100
AcDbCircle
 62
7
  6
CONTINUOUS
 10
54.460730774
 20
278.908933022
 40
9.0
100
AcDbArc
 50
92.5101405927
 51
267.4898603379
  0
ARC
  5
646
100
AcDbEntity
  8
H_MOVING
100
AcDbCircle
 62
1
  6
CONTINUOUS
 10
91.796516832
 20
93.9000941004
 40
3.0
100
AcDbArc
 50
90.0
 51
270.0
  0
ARC
  5
647
100
AcDbEntity
  8
H_MOVING
100
AcDbCircle
 62
1
  6
CONTINUOUS
 10
92.0950529404
 20
101.8912551788
 40
3.0
100
AcDbArc
 50
90.0
 51
270.0
  0
ARC
  5
648
100
AcDbEntity
  8
H_MOVING
100
AcDbCircle
 62
1
  6
CONTINUOUS
 10
92.3935890488
 20
109.8824162572
 40
3.0
100
AcDbArc
 50
90.0
 51
270.0
  0
ARC
  5
649
100
AcDbEntity
  8
H_MOVING
100
AcDbCircle
 62
1
  6
CONTINUOUS
 10
92.6921251572
 20
117.8735773357
 40
3.0
100
AcDbArc
 50
90.0
 51
270.0
  0
ARC
  5
64A
100
AcDbEntity
  8
H_MOVING
100
AcDbCircle
 62
1
  6
CONTINUOUS
 10
92.9906612656
 20
125.8647384141
 40
3.0
100
AcDbArc
 50
90.0
 51
270.0
  0
ARC
  5
64B
100
AcDbEntity
  8
H_MOVING
100
AcDbCircle
 62
1
  6
CONTINUOUS
 10
93.289197374
 20
133.8558994925
 40
3.0
100
AcDbArc
 50
90.0
 51
270.0
  0
ARC
  5
64C
100
AcDbEntity
  8
H_MOVING
100
AcDbCircle
 62
1
  6
CONTINUOUS
 10
93.5877334824
 20
141.8470605709
 40
3.0
100
AcDbArc
 50
90.0
 51
270.0
  0
ARC
  5
64D
100
AcDbEntity
  8
H_MOVING
100
AcDbCircle
 62
1
  6
CONTINUOUS
 10
93.8862695909
 20
149.8382216494
 40
3.0
100
AcDbArc
 50
90.0
 51
270.0
  0
ARC
  5
64E
100
AcDbEntity
  8
H_MOVING
100
AcDbCircle
 62
1
  6
CONTINUOUS
 10
94.1848056993
 20
157.8293827278
 40
3.0
100
AcDbArc
 50
90.0
 51
270.0
  0
ARC
  5
64F
100
AcDbEntity
  8
H_MOVING
100
AcDbCircle
 62
1
  6
CONTINUOUS
 10
94.4833418077
 20
165.8205438062
 40
3.0
100
AcDbArc
 50
90.0
 51
270.0
  0
ARC
  5
650
100
AcDbEntity
  8
H_MOVING
100
AcDbCircle
 62
1
  6
CONTINUOUS
 10
94.7818779161
 20
173.8117048846
 40
3.0
100
AcDbArc
 50
90.0
 51
270.0
  0
ARC
  5
651
100
AcDbEntity
  8
H_MOVING
100
AcDbCircle
 62
1
  6
CONTINUOUS
 10
95.0804140245
 20
181.8028659631
 40
3.0
100
AcDbArc
 50
90.0
 51
270.0
  0
ARC
  5
652
100
AcDbEntity
  8
H_MOVING
100
AcDbCircle
 62
1
  6
CONTINUOUS
 10
95.3789501329
 20
189.7940270415
 40
3.0
100
AcDbArc
 50
90.0
 51
270.0
  0
ARC
  5
653
100
AcDbEntity
  8
H_MOVING
100
AcDbCircle
 62
1
  6
CONTINUOUS
 10
95.6774862413
 20
197.7851881199
 40
3.0
100
AcDbArc
 50
90.0
 51
270.0
  0
ARC
  5
654
100
AcDbEntity
  8
H_MOVING
100
AcDbCircle
 62
1
  6
CONTINUOUS
 10
95.9760223497
 20
205.7763491983
 40
3.0
100
AcDbArc
 50
90.0
 51
270.0
  0
ARC
  5
655
100
AcDbEntity
  8
H_MOVING
100
AcDbCircle
 62
1
  6
CONTINUOUS
 10
96.2745584581
 20
213.7675102768
 40
3.0
100
AcDbArc
 50
168.6984117818
 51
270.0
  0
ARC
  5
656
100
AcDbEntity
  8
INTER_PHASE_SCHIELDS
100
AcDbCircle
 62
5
  6
CONTINUOUS
 10
282.160730774
 20
147.4089333001
 40
3.0
100
AcDbArc
 50
90.0
 51
180.0
  0
ARC
  5
657
100
AcDbEntity
  8
INTER_PHASE_SCHIELDS
100
AcDbCircle
 62
5
  6
CONTINUOUS
 10
282.160730774
 20
94.1089333001
 40
3.0
100
AcDbArc
 50
180.0
 51
270.0
  0
ARC
  5
658
100
AcDbEntity
  8
INTER_PHASE_SCHIELDS
100
AcDbCircle
 62
5
  6
CONTINUOUS
 10
276.110730774
 20
144.6089333001
 40
2.25
100
AcDbArc
 50
180.0
 51
360.0
  0
ARC
  5
659
100
AcDbEntity
  8
INTER_PHASE_SCHIELDS
100
AcDbCircle
 62
5
  6
CONTINUOUS
 10
282.160730774
 20
147.4089333001
 40
1.0
100
AcDbArc
 50
90.0
 51
180.0
  0
ARC
  5
65A
100
AcDbEntity
  8
INTER_PHASE_SCHIELDS
100
AcDbCircle
 62
5
  6
CONTINUOUS
 10
282.160730774
 20
94.1089333001
 40
1.0
100
AcDbArc
 50
180.0
 51
270.0
  0
ARC
  5
65B
100
AcDbEntity
  8
H_EXTERN_HANDLE
100
AcDbCircle
 62
7
  6
CONTINUOUS
 10
90.460730774
 20
303.158933022
 40
10.0
100
AcDbArc
 50
270.0
 51
360.0
  0
ARC
  5
65C
100
AcDbEntity
  8
TERMINAL_SCHROUD
100
AcDbCircle
 62
2
  6
CONTINUOUS
 10
222.460730774
 20
436.3084282367
 40
7.0
100
AcDbArc
 50
180.0
 51
225.0
  0
ARC
  5
65D
100
AcDbEntity
  8
TERMINAL_SCHROUD
100
AcDbCircle
 62
2
  6
CONTINUOUS
 10
260.460730774
 20
381.3378654882
 40
7.0
100
AcDbArc
 50
0.0
 51
45.0
  0
ARC
  5
65E
100
AcDbEntity
  8
TERMINAL_SCHROUD
100
AcDbCircle
 62
2
  6
CONTINUOUS
 10
260.460730774
 20
381.3378654882
 40
5.0
100
AcDbArc
 50
0.0
 51
45.0
  0
ARC
  5
65F
100
AcDbEntity
  8
TERMINAL_SCHROUD
100
AcDbCircle
 62
2
  6
CONTINUOUS
 10
222.460730774
 20
436.3084282367
 40
5.0
100
AcDbArc
 50
180.0
 51
225.0
  0
ARC
  5
660
100
AcDbEntity
  8
INTER_PHASE_SCHIELDS
100
AcDbCircle
 62
5
  6
CONTINUOUS
 10
282.160730774
 20
354.4089333001
 40
3.0
100
AcDbArc
 50
180.0
 51
270.0
  0
ARC
  5
661
100
AcDbEntity
  8
INTER_PHASE_SCHIELDS
100
AcDbCircle
 62
5
  6
CONTINUOUS
 10
282.160730774
 20
407.7089333001
 40
3.0
100
AcDbArc
 50
90.0
 51
180.0
  0
ARC
  5
662
100
AcDbEntity
  8
INTER_PHASE_SCHIELDS
100
AcDbCircle
 62
5
  6
CONTINUOUS
 10
276.110730774
 20
357.2089333001
 40
2.25
100
AcDbArc
 50
0.0
 51
180.0
  0
ARC
  5
663
100
AcDbEntity
  8
INTER_PHASE_SCHIELDS
100
AcDbCircle
 62
5
  6
CONTINUOUS
 10
282.160730774
 20
354.4089333001
 40
1.0
100
AcDbArc
 50
180.0
 51
270.0
  0
ARC
  5
664
100
AcDbEntity
  8
INTER_PHASE_SCHIELDS
100
AcDbCircle
 62
5
  6
CONTINUOUS
 10
282.160730774
 20
407.7089333001
 40
1.0
100
AcDbArc
 50
90.0
 51
180.0
  0
ARC
  5
665
100
AcDbEntity
  8
BASIC_DEVICE
100
AcDbCircle
 62
7
  6
CONTINUOUS
 10
488.1766418303
 20
163.4096339049
 40
10.0
100
AcDbArc
 50
0.0
 51
90.0
  0
CIRCLE
  5
666
100
AcDbEntity
  8
BASIC_DEVICE
100
AcDbCircle
 62
7
  6
CONTINUOUS
 10
488.1766418303
 20
183.4096339049
 40
6.5
  0
CIRCLE
  5
667
100
AcDbEntity
  8
BASIC_DEVICE
100
AcDbCircle
 62
7
  6
CONTINUOUS
 10
611.6850662581
 20
163.4089333
 40
6.5
  0
CIRCLE
  5
668
100
AcDbEntity
  8
BASIC_DEVICE
100
AcDbCircle
 62
7
  6
CONTINUOUS
 10
515.1766418303
 20
125.9089333001
 40
5.5
  0
CIRCLE
  5
669
100
AcDbEntity
  8
BASIC_DEVICE
100
AcDbCircle
 62
7
  6
CONTINUOUS
 10
515.1766418303
 20
105.9089333001
 40
5.5
  0
CIRCLE
  5
66A
100
AcDbEntity
  8
BASIC_DEVICE
100
AcDbCircle
 62
7
  6
CONTINUOUS
 10
555.1766418303
 20
125.9089333001
 40
5.5
  0
CIRCLE
  5
66B
100
AcDbEntity
  8
BASIC_DEVICE
100
AcDbCircle
 62
7
  6
CONTINUOUS
 10
555.1766418303
 20
105.9089333001
 40
5.5
  0
CIRCLE
  5
66C
100
AcDbEntity
  8
DEVICE_FIXING_HOLES
100
AcDbCircle
 62
1
  6
CONTINUOUS
 10
488.1766418303
 20
163.4096339049
 40
4.5
  0
CIRCLE
  5
66D
100
AcDbEntity
  8
BASIC_DEVICE
100
AcDbCircle
 62
7
  6
CONTINUOUS
 10
488.1766418303
 20
163.4096339049
 40
4.5
  0
CIRCLE
  5
66E
100
AcDbEntity
  8
BASIC_DEVICE
100
AcDbCircle
 62
7
  6
CONTINUOUS
 10
488.1766418303
 20
183.4096339049
 40
3.25
  0
CIRCLE
  5
66F
100
AcDbEntity
  8
BASIC_DEVICE
100
AcDbCircle
 62
7
  6
CONTINUOUS
 10
611.6850662581
 20
163.4089333
 40
3.25
  0
ARC
  5
670
100
AcDbEntity
  8
INTER_PHASE_SCHIELDS
100
AcDbCircle
 62
5
  6
CONTINUOUS
 10
337.960730774
 20
94.1089333001
 40
3.0
100
AcDbArc
 50
270.0
 51
360.0
  0
ARC
  5
671
100
AcDbEntity
  8
INTER_PHASE_SCHIELDS
100
AcDbCircle
 62
5
  6
CONTINUOUS
 10
337.960730774
 20
147.4089333001
 40
3.0
100
AcDbArc
 50
0.0
 51
90.0
  0
ARC
  5
672
100
AcDbEntity
  8
INTER_PHASE_SCHIELDS
100
AcDbCircle
 62
5
  6
CONTINUOUS
 10
344.110730774
 20
144.6089333001
 40
2.25
100
AcDbArc
 50
180.0
 51
360.0
  0
ARC
  5
673
100
AcDbEntity
  8
BASIC_DEVICE
100
AcDbCircle
 62
3
  6
CONTINUOUS
 10
575.676392631
 20
163.4093491065
 40
2.0
100
AcDbArc
 50
344.9998368224
 51
284.9998368224
  0
CIRCLE
  5
674
100
AcDbEntity
  8
AM_12
100
AcDbCircle
 62
4
  6
CONTINUOUS
 10
594.1936243619
 20
126.0877050321
 40
1.75
  0
CIRCLE
  5
675
100
AcDbEntity
  8
BASIC_DEVICE
100
AcDbCircle
 62
7
  6
CONTINUOUS
 10
575.676392631
 20
163.4093491065
 40
1.6
  0
ARC
  5
676
100
AcDbEntity
  8
INTER_PHASE_SCHIELDS
100
AcDbCircle
 62
5
  6
CONTINUOUS
 10
337.960730774
 20
94.1089333001
 40
1.0
100
AcDbArc
 50
270.0
 51
360.0
  0
ARC
  5
677
100
AcDbEntity
  8
INTER_PHASE_SCHIELDS
100
AcDbCircle
 62
5
  6
CONTINUOUS
 10
337.960730774
 20
147.4089333001
 40
1.0
100
AcDbArc
 50
0.0
 51
90.0
  0
ARC
  5
678
100
AcDbEntity
  8
BASIC_DEVICE
100
AcDbCircle
 62
7
  6
CONTINUOUS
 10
488.1766418303
 20
338.4096339049
 40
10.0
100
AcDbArc
 50
270.0
 51
360.0
  0
CIRCLE
  5
679
100
AcDbEntity
  8
BASIC_DEVICE
100
AcDbCircle
 62
7
  6
CONTINUOUS
 10
488.1766418303
 20
318.4096339049
 40
6.5
  0
CIRCLE
  5
67A
100
AcDbEntity
  8
BASIC_DEVICE
100
AcDbCircle
 62
7
  6
CONTINUOUS
 10
611.6850662581
 20
338.4089333
 40
6.5
  0
CIRCLE
  5
67B
100
AcDbEntity
  8
BASIC_DEVICE
100
AcDbCircle
 62
7
  6
CONTINUOUS
 10
515.1766418303
 20
375.9089333001
 40
5.5
  0
CIRCLE
  5
67C
100
AcDbEntity
  8
BASIC_DEVICE
100
AcDbCircle
 62
7
  6
CONTINUOUS
 10
515.1766418303
 20
395.9089333001
 40
5.5
  0
CIRCLE
  5
67D
100
AcDbEntity
  8
BASIC_DEVICE
100
AcDbCircle
 62
7
  6
CONTINUOUS
 10
555.1766418303
 20
375.9089333001
 40
5.5
  0
CIRCLE
  5
67E
100
AcDbEntity
  8
BASIC_DEVICE
100
AcDbCircle
 62
7
  6
CONTINUOUS
 10
555.1766418303
 20
395.9089333001
 40
5.5
  0
ARC
  5
67F
100
AcDbEntity
  8
TERMINAL_SCHROUD
100
AcDbCircle
 62
2
  6
CONTINUOUS
 10
480.6766418303
 20
476.4096339049
 40
5.0
100
AcDbArc
 50
90.0
 51
180.0
  0
CIRCLE
  5
680
100
AcDbEntity
  8
DEVICE_FIXING_HOLES
100
AcDbCircle
 62
1
  6
CONTINUOUS
 10
488.1766418303
 20
338.4096339049
 40
4.5
  0
CIRCLE
  5
681
100
AcDbEntity
  8
BASIC_DEVICE
100
AcDbCircle
 62
7
  6
CONTINUOUS
 10
488.1766418303
 20
338.4096339049
 40
4.5
  0
CIRCLE
  5
682
100
AcDbEntity
  8
BASIC_DEVICE
100
AcDbCircle
 62
7
  6
CONTINUOUS
 10
488.1766418303
 20
318.4096339049
 40
3.25
  0
CIRCLE
  5
683
100
AcDbEntity
  8
BASIC_DEVICE
100
AcDbCircle
 62
7
  6
CONTINUOUS
 10
611.6850662581
 20
338.4089333
 40
3.25
  0
ARC
  5
684
100
AcDbEntity
  8
INTER_PHASE_SCHIELDS
100
AcDbCircle
 62
5
  6
CONTINUOUS
 10
337.960730774
 20
407.7089333001
 40
3.0
100
AcDbArc
 50
0.0
 51
90.0
  0
ARC
  5
685
100
AcDbEntity
  8
INTER_PHASE_SCHIELDS
100
AcDbCircle
 62
5
  6
CONTINUOUS
 10
337.960730774
 20
354.4089333001
 40
3.0
100
AcDbArc
 50
270.0
 51
360.0
  0
CIRCLE
  5
686
100
AcDbEntity
  8
TERMINAL_SCHROUD
100
AcDbCircle
 62
2
  6
CONTINUOUS
 10
575.6766418303
 20
338.4096339049
 40
2.25
  0
ARC
  5
687
100
AcDbEntity
  8
INTER_PHASE_SCHIELDS
100
AcDbCircle
 62
5
  6
CONTINUOUS
 10
344.110730774
 20
357.2089333001
 40
2.25
100
AcDbArc
 50
0.0
 51
180.0
  0
ARC
  5
688
100
AcDbEntity
  8
BASIC_DEVICE
100
AcDbCircle
 62
3
  6
CONTINUOUS
 10
575.6766418303
 20
338.4096339049
 40
2.0
100
AcDbArc
 50
75.0
 51
15.0
  0
CIRCLE
  5
689
100
AcDbEntity
  8
AM_12
100
AcDbCircle
 62
4
  6
CONTINUOUS
 10
510.8525891679
 20
416.0321328211
 40
1.75
  0
CIRCLE
  5
68A
100
AcDbEntity
  8
AM_12
100
AcDbCircle
 62
4
  6
CONTINUOUS
 10
594.1936243619
 20
375.730161568
 40
1.75
  0
CIRCLE
  5
68B
100
AcDbEntity
  8
BASIC_DEVICE
100
AcDbCircle
 62
7
  6
CONTINUOUS
 10
575.6766418303
 20
338.4096339049
 40
1.6
  0
ARC
  5
68C
100
AcDbEntity
  8
INTER_PHASE_SCHIELDS
100
AcDbCircle
 62
5
  6
CONTINUOUS
 10
337.960730774
 20
407.7089333001
 40
1.0
100
AcDbArc
 50
0.0
 51
90.0
  0
ARC
  5
68D
100
AcDbEntity
  8
INTER_PHASE_SCHIELDS
100
AcDbCircle
 62
5
  6
CONTINUOUS
 10
337.960730774
 20
354.4089333001
 40
1.0
100
AcDbArc
 50
270.0
 51
360.0
  0
CIRCLE
  5
68E
100
AcDbEntity
  8
BASIC_DEVICE
100
AcDbCircle
 62
7
  6
CONTINUOUS
 10
635.1766418303
 20
105.9089333001
 40
5.5
  0
CIRCLE
  5
68F
100
AcDbEntity
  8
BASIC_DEVICE
100
AcDbCircle
 62
7
  6
CONTINUOUS
 10
635.1766418303
 20
125.9089333001
 40
5.5
  0
CIRCLE
  5
690
100
AcDbEntity
  8
BASIC_DEVICE
100
AcDbCircle
 62
7
  6
CONTINUOUS
 10
675.1766418303
 20
105.9089333001
 40
5.5
  0
CIRCLE
  5
691
100
AcDbEntity
  8
BASIC_DEVICE
100
AcDbCircle
 62
7
  6
CONTINUOUS
 10
675.1766418303
 20
125.9089333001
 40
5.5
  0
CIRCLE
  5
692
100
AcDbEntity
  8
BASIC_DEVICE
100
AcDbCircle
 62
7
  6
CONTINUOUS
 10
755.1766418303
 20
105.9089333001
 40
5.5
  0
CIRCLE
  5
693
100
AcDbEntity
  8
BASIC_DEVICE
100
AcDbCircle
 62
7
  6
CONTINUOUS
 10
755.1766418303
 20
125.9089333001
 40
5.5
  0
CIRCLE
  5
694
100
AcDbEntity
  8
AM_12
100
AcDbCircle
 62
4
  6
CONTINUOUS
 10
714.1936243619
 20
126.0877050321
 40
1.75
  0
ARC
  5
695
100
AcDbEntity
  8
H_MOVING
100
AcDbCircle
 62
1
  6
CONTINUOUS
 10
731.1850662581
 20
90.9089333001
 40
1.0
100
AcDbArc
 50
270.0
 51
360.0
  0
ARC
  5
696
100
AcDbEntity
  8
H_MOVING
100
AcDbCircle
 62
1
  6
CONTINUOUS
 10
712.1850662581
 20
90.9089333001
 40
1.0
100
AcDbArc
 50
180.0
 51
270.0
  0
ARC
  5
697
100
AcDbEntity
  8
H_EXTERN_HANDLE
100
AcDbCircle
 62
7
  6
CONTINUOUS
 10
721.6850662581
 20
278.9089333001
 40
40.0
100
AcDbArc
 50
90.0
 51
164.7815448422
  0
ARC
  5
698
100
AcDbEntity
  8
H_EXTERN_HANDLE
100
AcDbCircle
 62
7
  6
CONTINUOUS
 10
721.6850662581
 20
278.9089333001
 40
40.0
100
AcDbArc
 50
195.2184551578
 51
344.7815448422
  0
ARC
  5
699
100
AcDbEntity
  8
H_EXTERN_HANDLE
100
AcDbCircle
 62
3
  6
CONTINUOUS
 10
721.6850662581
 20
278.9089333001
 40
39.5
100
AcDbArc
 50
195.4158485295
 51
245.0
  0
ARC
  5
69A
100
AcDbEntity
  8
H_EXTERN_HANDLE
100
AcDbCircle
 62
3
  6
CONTINUOUS
 10
721.6850662581
 20
278.9089333001
 40
39.5
100
AcDbArc
 50
135.7252824015
 51
164.5841514705
  0
ARC
  5
69B
100
AcDbEntity
  8
H_EXTERN_HANDLE
100
AcDbCircle
 62
1
  6
CONTINUOUS
 10
721.6850662581
 20
278.9089333001
 40
39.5
100
AcDbArc
 50
90.0
 51
134.2747175986
  0
ARC
  5
69C
100
AcDbEntity
  8
BASIC_DEVICE
100
AcDbCircle
 62
7
  6
CONTINUOUS
 10
721.6850662583
 20
278.9089333
 40
32.0
100
AcDbArc
 50
263.6206297911
 51
351.7867892983
  0
ARC
  5
69D
100
AcDbEntity
  8
H_EXTERN_HANDLE
100
AcDbCircle
 62
3
  6
CONTINUOUS
 10
721.6850662581
 20
278.9089333001
 40
30.5
100
AcDbArc
 50
200.1367700284
 51
245.0
  0
ARC
  5
69E
100
AcDbEntity
  8
H_EXTERN_HANDLE
100
AcDbCircle
 62
3
  6
CONTINUOUS
 10
721.6850662581
 20
278.9089333001
 40
30.5
100
AcDbArc
 50
135.93931715
 51
159.8632299717
  0
ARC
  5
69F
100
AcDbEntity
  8
H_EXTERN_HANDLE
100
AcDbCircle
 62
1
  6
CONTINUOUS
 10
721.6850662581
 20
278.9089333001
 40
30.5
100
AcDbArc
 50
90.0
 51
134.06068285
  0
ARC
  5
6A0
100
AcDbEntity
  8
H_EXTERN_HANDLE
100
AcDbCircle
 62
7
  6
CONTINUOUS
 10
721.6850662581
 20
278.9089333001
 40
30.0
100
AcDbArc
 50
208.3593500282
 51
331.6406499718
  0
ARC
  5
6A1
100
AcDbEntity
  8
H_EXTERN_HANDLE
100
AcDbCircle
 62
7
  6
CONTINUOUS
 10
721.6850662581
 20
278.9089333001
 40
30.0
100
AcDbArc
 50
332.0471134109
 51
339.5126848853
  0
ARC
  5
6A2
100
AcDbEntity
  8
H_EXTERN_HANDLE
100
AcDbCircle
 62
7
  6
CONTINUOUS
 10
721.6850662581
 20
278.9089333001
 40
30.0
100
AcDbArc
 50
28.3593500282
 51
151.6406499718
  0
ARC
  5
6A3
100
AcDbEntity
  8
BASIC_DEVICE
100
AcDbCircle
 62
7
  6
CONTINUOUS
 10
721.6850662581
 20
278.9089333001
 40
24.0
100
AcDbArc
 50
261.7867892983
 51
349.4161974035
  0
ARC
  5
6A4
100
AcDbEntity
  8
BASIC_DEVICE
100
AcDbCircle
 62
1
  6
CONTINUOUS
 10
721.6850662581
 20
278.9089333001
 40
15.6
100
AcDbArc
 50
6.6258095648
 51
170.6238852948
  0
ARC
  5
6A5
100
AcDbEntity
  8
BASIC_DEVICE
100
AcDbCircle
 62
1
  6
CONTINUOUS
 10
721.6850662581
 20
278.9089333001
 40
15.6
100
AcDbArc
 50
189.3761147052
 51
353.3741904352
  0
ARC
  5
6A6
100
AcDbEntity
  8
H_EXTERN_HANDLE
100
AcDbCircle
 62
7
  6
CONTINUOUS
 10
721.6850662581
 20
278.9089333001
 40
14.25
100
AcDbArc
 50
30.4949678748
 51
149.5050321252
  0
ARC
  5
6A7
100
AcDbEntity
  8
H_EXTERN_HANDLE
100
AcDbCircle
 62
7
  6
CONTINUOUS
 10
721.6850662581
 20
278.9089333001
 40
14.25
100
AcDbArc
 50
210.4949678748
 51
329.5050321252
  0
ARC
  5
6A8
100
AcDbEntity
  8
H_EXTERN_HANDLE
100
AcDbCircle
 62
7
  6
CONTINUOUS
 10
718.6850662581
 20
278.9089333001
 40
10.25
100
AcDbArc
 50
219.6650129075
 51
320.3349870925
  0
ARC
  5
6A9
100
AcDbEntity
  8
H_EXTERN_HANDLE
100
AcDbCircle
 62
7
  6
CONTINUOUS
 10
718.6850662581
 20
278.9089333001
 40
10.25
100
AcDbArc
 50
39.6650129077
 51
140.3349870923
  0
CIRCLE
  5
6AA
100
AcDbEntity
  8
BASIC_DEVICE
100
AcDbCircle
 62
1
  6
CONTINUOUS
 10
706.0850662581
 20
278.9089333001
 40
2.55
  0
LWPOLYLINE
  5
6AB
100
AcDbEntity
  8
TEXT
100
AcDbPolyline
 62
2
  6
CONTINUOUS
 90
2
 70
1
 43
1.0
 10
684.3802160267
 20
278.9089333001
 42
1.0
 10
689.3802160267
 20
278.9089333001
 42
1.0
  0
ARC
  5
6AC
100
AcDbEntity
  8
H_EXTERN_HANDLE
100
AcDbCircle
 62
7
  6
CONTINUOUS
 10
736.1181012819
 20
270.4089333001
 40
2.5
100
AcDbArc
 50
90.0000000002
 51
149.5050321252
  0
ARC
  5
6AD
100
AcDbEntity
  8
H_EXTERN_HANDLE
100
AcDbCircle
 62
7
  6
CONTINUOUS
 10
707.2520312342
 20
270.4089333001
 40
2.5
100
AcDbArc
 50
30.4949678746
 51
89.9999999997
  0
ARC
  5
6AE
100
AcDbEntity
  8
BASIC_DEVICE
100
AcDbCircle
 62
7
  6
CONTINUOUS
 10
652.6850662583
 20
235.9089333
 40
2.0
100
AcDbArc
 50
270.0
 51
360.0
  0
ARC
  5
6AF
100
AcDbEntity
  8
BASIC_DEVICE
100
AcDbCircle
 62
7
  6
CONTINUOUS
 10
652.6850662583
 20
265.9089333
 40
2.0
100
AcDbArc
 50
0.0
 51
90.0
  0
ARC
  5
6B0
100
AcDbEntity
  8
BASIC_DEVICE
100
AcDbCircle
 62
7
  6
CONTINUOUS
 10
636.6850662583
 20
265.9089333
 40
2.0
100
AcDbArc
 50
90.0
 51
180.0
  0
ARC
  5
6B1
100
AcDbEntity
  8
BASIC_DEVICE
100
AcDbCircle
 62
7
  6
CONTINUOUS
 10
636.6850662583
 20
235.9089333
 40
2.0
100
AcDbArc
 50
180.0
 51
270.0
  0
CIRCLE
  5
6B2
100
AcDbEntity
  8
BASIC_DEVICE
100
AcDbCircle
 62
1
  6
CONTINUOUS
 10
706.0850662581
 20
278.9089333001
 40
1.55
  0
ARC
  5
6B3
100
AcDbEntity
  8
H_EXTERN_HANDLE
100
AcDbCircle
 62
7
  6
CONTINUOUS
 10
709.6400400005
 20
271.4089333001
 40
1.5
100
AcDbArc
 50
39.6650129075
 51
89.9999999999
  0
ARC
  5
6B4
100
AcDbEntity
  8
H_EXTERN_HANDLE
100
AcDbCircle
 62
7
  6
CONTINUOUS
 10
727.7300925156
 20
271.4089333001
 40
1.5
100
AcDbArc
 50
90.0
 51
140.3349870925
  0
ARC
  5
6B5
100
AcDbEntity
  8
H_EXTERN_HANDLE
100
AcDbCircle
 62
7
  6
CONTINUOUS
 10
676.6850662581
 20
269.4089333001
 40
1.0
100
AcDbArc
 50
180.0
 51
270.0
  0
ARC
  5
6B6
100
AcDbEntity
  8
BASIC_DEVICE
100
AcDbCircle
 62
7
  6
CONTINUOUS
 10
745.8556062501
 20
274.3037489666
 40
0.6114558412
100
AcDbArc
 50
98.2132107016
 51
161.2029867018
  0
ARC
  5
6B7
100
AcDbEntity
  8
BASIC_DEVICE
100
AcDbCircle
 62
7
  6
CONTINUOUS
 10
752.8619807946
 20
274.4089333001
 40
0.5
100
AcDbArc
 50
351.7867892983
 51
90.0
  0
ARC
  5
6B8
100
AcDbEntity
  8
BASIC_DEVICE
100
AcDbCircle
 62
7
  6
CONTINUOUS
 10
718.1850662581
 20
247.6039816151
 40
0.5
100
AcDbArc
 50
180.0000000005
 51
263.6206297911
  0
ARC
  5
6B9
100
AcDbEntity
  8
BASIC_DEVICE
100
AcDbCircle
 62
7
  6
CONTINUOUS
 10
718.1850662581
 20
254.6602219939
 40
0.5
100
AcDbArc
 50
81.7867892984
 51
180.0
  0
CIRCLE
  5
6BA
100
AcDbEntity
  8
BASIC_DEVICE
100
AcDbCircle
 62
7
  6
CONTINUOUS
 10
829.6850662581
 20
163.4089333001
 40
6.5
  0
CIRCLE
  5
6BB
100
AcDbEntity
  8
BASIC_DEVICE
100
AcDbCircle
 62
7
  6
CONTINUOUS
 10
795.1766418303
 20
105.9089333001
 40
5.5
  0
CIRCLE
  5
6BC
100
AcDbEntity
  8
BASIC_DEVICE
100
AcDbCircle
 62
7
  6
CONTINUOUS
 10
795.1766418303
 20
125.9089333001
 40
5.5
  0
CIRCLE
  5
6BD
100
AcDbEntity
  8
BASIC_DEVICE
100
AcDbCircle
 62
7
  6
CONTINUOUS
 10
875.1766418303
 20
105.9089333001
 40
5.5
  0
CIRCLE
  5
6BE
100
AcDbEntity
  8
BASIC_DEVICE
100
AcDbCircle
 62
7
  6
CONTINUOUS
 10
875.1766418303
 20
125.9089333001
 40
5.5
  0
CIRCLE
  5
6BF
100
AcDbEntity
  8
BASIC_DEVICE
100
AcDbCircle
 62
7
  6
CONTINUOUS
 10
915.1766418303
 20
105.9089333001
 40
5.5
  0
CIRCLE
  5
6C0
100
AcDbEntity
  8
BASIC_DEVICE
100
AcDbCircle
 62
7
  6
CONTINUOUS
 10
915.1766418303
 20
125.9089333001
 40
5.5
  0
CIRCLE
  5
6C1
100
AcDbEntity
  8
BASIC_DEVICE
100
AcDbCircle
 62
7
  6
CONTINUOUS
 10
829.6850662581
 20
163.4089333001
 40
3.25
  0
ARC
  5
6C2
100
AcDbEntity
  8
BASIC_DEVICE
100
AcDbCircle
 62
3
  6
CONTINUOUS
 10
867.6763926298
 20
163.4085174943
 40
2.0
100
AcDbArc
 50
344.9998368224
 51
284.9998368224
  0
CIRCLE
  5
6C3
100
AcDbEntity
  8
AM_12
100
AcDbCircle
 62
4
  6
CONTINUOUS
 10
834.1936243619
 20
126.0877050321
 40
1.75
  0
CIRCLE
  5
6C4
100
AcDbEntity
  8
BASIC_DEVICE
100
AcDbCircle
 62
7
  6
CONTINUOUS
 10
867.6763926298
 20
163.4085174943
 40
1.6
  0
ARC
  5
6C5
100
AcDbEntity
  8
H_EXTERN_HANDLE
100
AcDbCircle
 62
7
  6
CONTINUOUS
 10
910.6850662581
 20
269.4089333001
 40
1.0
100
AcDbArc
 50
270.0
 51
360.0
  0
CIRCLE
  5
6C6
100
AcDbEntity
  8
BASIC_DEVICE
100
AcDbCircle
 62
7
  6
CONTINUOUS
 10
829.6850662581
 20
338.4089333001
 40
6.5
  0
CIRCLE
  5
6C7
100
AcDbEntity
  8
BASIC_DEVICE
100
AcDbCircle
 62
7
  6
CONTINUOUS
 10
635.1766418303
 20
395.9089333001
 40
5.5
  0
CIRCLE
  5
6C8
100
AcDbEntity
  8
BASIC_DEVICE
100
AcDbCircle
 62
7
  6
CONTINUOUS
 10
635.1766418303
 20
375.9089333001
 40
5.5
  0
CIRCLE
  5
6C9
100
AcDbEntity
  8
BASIC_DEVICE
100
AcDbCircle
 62
7
  6
CONTINUOUS
 10
675.1766418303
 20
395.9089333001
 40
5.5
  0
CIRCLE
  5
6CA
100
AcDbEntity
  8
BASIC_DEVICE
100
AcDbCircle
 62
7
  6
CONTINUOUS
 10
675.1766418303
 20
375.9089333001
 40
5.5
  0
CIRCLE
  5
6CB
100
AcDbEntity
  8
BASIC_DEVICE
100
AcDbCircle
 62
7
  6
CONTINUOUS
 10
755.1766418303
 20
395.9089333001
 40
5.5
  0
CIRCLE
  5
6CC
100
AcDbEntity
  8
BASIC_DEVICE
100
AcDbCircle
 62
7
  6
CONTINUOUS
 10
755.1766418303
 20
375.9089333001
 40
5.5
  0
CIRCLE
  5
6CD
100
AcDbEntity
  8
BASIC_DEVICE
100
AcDbCircle
 62
7
  6
CONTINUOUS
 10
795.1766418303
 20
395.9089333001
 40
5.5
  0
CIRCLE
  5
6CE
100
AcDbEntity
  8
BASIC_DEVICE
100
AcDbCircle
 62
7
  6
CONTINUOUS
 10
795.1766418303
 20
375.9089333001
 40
5.5
  0
CIRCLE
  5
6CF
100
AcDbEntity
  8
BASIC_DEVICE
100
AcDbCircle
 62
7
  6
CONTINUOUS
 10
875.1766418303
 20
395.9089333001
 40
5.5
  0
CIRCLE
  5
6D0
100
AcDbEntity
  8
BASIC_DEVICE
100
AcDbCircle
 62
7
  6
CONTINUOUS
 10
875.1766418303
 20
375.9089333001
 40
5.5
  0
CIRCLE
  5
6D1
100
AcDbEntity
  8
BASIC_DEVICE
100
AcDbCircle
 62
7
  6
CONTINUOUS
 10
915.1766418303
 20
395.9089333001
 40
5.5
  0
CIRCLE
  5
6D2
100
AcDbEntity
  8
BASIC_DEVICE
100
AcDbCircle
 62
7
  6
CONTINUOUS
 10
915.1766418303
 20
375.9089333001
 40
5.5
  0
CIRCLE
  5
6D3
100
AcDbEntity
  8
BASIC_DEVICE
100
AcDbCircle
 62
7
  6
CONTINUOUS
 10
829.6850662581
 20
338.4089333001
 40
3.25
  0
ARC
  5
6D4
100
AcDbEntity
  8
H_EXTERN_HANDLE
100
AcDbCircle
 62
7
  6
CONTINUOUS
 10
707.2520312342
 20
287.4089333001
 40
2.5
100
AcDbArc
 50
270.0
 51
329.5050321252
  0
ARC
  5
6D5
100
AcDbEntity
  8
H_EXTERN_HANDLE
100
AcDbCircle
 62
7
  6
CONTINUOUS
 10
736.1181012819
 20
287.4089333001
 40
2.5
100
AcDbArc
 50
210.4949678747
 51
269.9999999999
  0
CIRCLE
  5
6D6
100
AcDbEntity
  8
TERMINAL_SCHROUD
100
AcDbCircle
 62
2
  6
CONTINUOUS
 10
867.6766418303
 20
338.4096339049
 40
2.25
  0
ARC
  5
6D7
100
AcDbEntity
  8
BASIC_DEVICE
100
AcDbCircle
 62
3
  6
CONTINUOUS
 10
867.6766418303
 20
338.4096339049
 40
2.0
100
AcDbArc
 50
75.0
 51
15.0
  0
CIRCLE
  5
6D8
100
AcDbEntity
  8
AM_12
100
AcDbCircle
 62
4
  6
CONTINUOUS
 10
819.8322749071
 20
289.4328593108
 40
1.75
  0
CIRCLE
  5
6D9
100
AcDbEntity
  8
AM_12
100
AcDbCircle
 62
4
  6
CONTINUOUS
 10
714.1936243619
 20
375.730161568
 40
1.75
  0
CIRCLE
  5
6DA
100
AcDbEntity
  8
AM_12
100
AcDbCircle
 62
4
  6
CONTINUOUS
 10
834.1936243619
 20
375.730161568
 40
1.75
  0
CIRCLE
  5
6DB
100
AcDbEntity
  8
BASIC_DEVICE
100
AcDbCircle
 62
7
  6
CONTINUOUS
 10
867.6766418303
 20
338.4096339049
 40
1.6
  0
ARC
  5
6DC
100
AcDbEntity
  8
H_EXTERN_HANDLE
100
AcDbCircle
 62
7
  6
CONTINUOUS
 10
727.7300925156
 20
286.4089333001
 40
1.5
100
AcDbArc
 50
219.6650129077
 51
269.9999999999
  0
ARC
  5
6DD
100
AcDbEntity
  8
H_EXTERN_HANDLE
100
AcDbCircle
 62
7
  6
CONTINUOUS
 10
709.6400400005
 20
286.4089333001
 40
1.5
100
AcDbArc
 50
270.0
 51
320.3349870923
  0
ARC
  5
6DE
100
AcDbEntity
  8
H_EXTERN_HANDLE
100
AcDbCircle
 62
7
  6
CONTINUOUS
 10
910.6850662581
 20
288.4089333001
 40
1.0
100
AcDbArc
 50
0.0
 51
90.0
  0
ARC
  5
6DF
100
AcDbEntity
  8
H_EXTERN_HANDLE
100
AcDbCircle
 62
7
  6
CONTINUOUS
 10
676.6850662581
 20
288.4089333001
 40
1.0
100
AcDbArc
 50
90.0
 51
180.0
  0
CIRCLE
  5
6E0
100
AcDbEntity
  8
HANDLE_FIXING_HOLES
100
AcDbCircle
 62
1
  6
CONTINUOUS
 10
1176.0896652854
 20
278.9089333001
 40
15.5
  0
ARC
  5
6E1
100
AcDbEntity
  8
BASIC_DEVICE
100
AcDbCircle
 62
7
  6
CONTINUOUS
 10
955.1766418346
 20
163.4089333001
 40
10.0
100
AcDbArc
 50
90.0
 51
180.0
  0
CIRCLE
  5
6E2
100
AcDbEntity
  8
BASIC_DEVICE
100
AcDbCircle
 62
7
  6
CONTINUOUS
 10
955.1766418346
 20
183.4089333001
 40
6.5
  0
CIRCLE
  5
6E3
100
AcDbEntity
  8
DEVICE_FIXING_HOLES
100
AcDbCircle
 62
1
  6
CONTINUOUS
 10
955.1766418346
 20
163.4089333001
 40
4.5
  0
CIRCLE
  5
6E4
100
AcDbEntity
  8
BASIC_DEVICE
100
AcDbCircle
 62
7
  6
CONTINUOUS
 10
955.1766418346
 20
163.4089333001
 40
4.5
  0
CIRCLE
  5
6E5
100
AcDbEntity
  8
BASIC_DEVICE
100
AcDbCircle
 62
7
  6
CONTINUOUS
 10
955.1766418346
 20
183.4089333001
 40
3.25
  0
CIRCLE
  5
6E6
100
AcDbEntity
  8
HANDLE_FIXING_HOLES
100
AcDbCircle
 62
1
  6
CONTINUOUS
 10
1176.0896652854
 20
253.9089333001
 40
2.25
  0
CIRCLE
  5
6E7
100
AcDbEntity
  8
HANDLE_FIXING_HOLES
100
AcDbCircle
 62
1
  6
CONTINUOUS
 10
1151.0896652854
 20
278.9089333001
 40
2.25
  0
CIRCLE
  5
6E8
100
AcDbEntity
  8
HANDLE_FIXING_HOLES
100
AcDbCircle
 62
1
  6
CONTINUOUS
 10
1201.0896652854
 20
278.9089333001
 40
2.25
  0
ARC
  5
6E9
100
AcDbEntity
  8
BASIC_DEVICE
100
AcDbCircle
 62
7
  6
CONTINUOUS
 10
955.1766418346
 20
338.4089333001
 40
10.0
100
AcDbArc
 50
180.0
 51
270.0
  0
CIRCLE
  5
6EA
100
AcDbEntity
  8
BASIC_DEVICE
100
AcDbCircle
 62
7
  6
CONTINUOUS
 10
955.1766418346
 20
318.4089333001
 40
6.5
  0
ARC
  5
6EB
100
AcDbEntity
  8
TERMINAL_SCHROUD
100
AcDbCircle
 62
2
  6
CONTINUOUS
 10
962.6766418303
 20
476.4096339049
 40
5.0
100
AcDbArc
 50
0.0
 51
90.0
  0
CIRCLE
  5
6EC
100
AcDbEntity
  8
DEVICE_FIXING_HOLES
100
AcDbCircle
 62
1
  6
CONTINUOUS
 10
955.1766418346
 20
338.4089333001
 40
4.5
  0
CIRCLE
  5
6ED
100
AcDbEntity
  8
BASIC_DEVICE
100
AcDbCircle
 62
7
  6
CONTINUOUS
 10
955.1766418346
 20
338.4089333001
 40
4.5
  0
CIRCLE
  5
6EE
100
AcDbEntity
  8
BASIC_DEVICE
100
AcDbCircle
 62
7
  6
CONTINUOUS
 10
955.1766418346
 20
318.4089333001
 40
3.25
  0
CIRCLE
  5
6EF
100
AcDbEntity
  8
HANDLE_FIXING_HOLES
100
AcDbCircle
 62
1
  6
CONTINUOUS
 10
1176.0896652854
 20
303.9089333001
 40
2.25
  0
CIRCLE
  5
6F0
100
AcDbEntity
  8
AM_12
100
AcDbCircle
 62
4
  6
CONTINUOUS
 10
961.5984771882
 20
433.6993705917
 40
1.75
  0
ARC
  5
6F1
100
AcDbEntity
  8
H_MOVING
100
AcDbCircle
 62
1
  6
CONTINUOUS
 10
721.6850665362
 20
897.6205684276
 40
10.5
100
AcDbArc
 50
177.4898603379
 51
2.5101405927
  0
ARC
  5
6F2
100
AcDbEntity
  8
H_MOVING
100
AcDbCircle
 62
1
  6
CONTINUOUS
 10
721.6850664917
 20
903.0965591424
 40
10.2601724327
100
AcDbArc
 50
177.4898603379
 51
2.5101405927
  0
ARC
  5
6F3
100
AcDbEntity
  8
H_MOVING
100
AcDbCircle
 62
1
  6
CONTINUOUS
 10
717.4350662581
 20
925.3701176581
 40
10.0
100
AcDbArc
 50
116.1155560628
 51
180.0
  0
ARC
  5
6F4
100
AcDbEntity
  8
H_MOVING
100
AcDbCircle
 62
1
  6
CONTINUOUS
 10
725.9350662581
 20
925.3701176581
 40
10.0
100
AcDbArc
 50
0.0
 51
63.8844439374
  0
ARC
  5
6F5
100
AcDbEntity
  8
H_MOVING
100
AcDbCircle
 62
1
  6
CONTINUOUS
 10
697.4350662581
 20
895.8701176581
 40
10.0
100
AcDbArc
 50
270.0
 51
360.0
  0
ARC
  5
6F6
100
AcDbEntity
  8
H_MOVING
100
AcDbCircle
 62
1
  6
CONTINUOUS
 10
745.9350662581
 20
895.8701176581
 40
10.0
100
AcDbArc
 50
180.0
 51
270.0
  0
ARC
  5
6F7
100
AcDbEntity
  8
H_MOVING
100
AcDbCircle
 62
1
  6
CONTINUOUS
 10
721.6850662581
 20
931.8701176581
 40
9.0
100
AcDbArc
 50
2.5101405927
 51
177.4898603379
  0
ARC
  5
6F8
100
AcDbEntity
  8
H_EXTERN_HANDLE
100
AcDbCircle
 62
7
  6
CONTINUOUS
 10
703.6850662581
 20
894.3701176581
 40
8.5
100
AcDbArc
 50
180.0
 51
270.0
  0
ARC
  5
6F9
100
AcDbEntity
  8
H_EXTERN_HANDLE
100
AcDbCircle
 62
7
  6
CONTINUOUS
 10
739.6850662581
 20
894.3701176581
 40
8.5
100
AcDbArc
 50
270.0
 51
360.0
  0
ARC
  5
6FA
100
AcDbEntity
  8
H_EXTERN_HANDLE
100
AcDbCircle
 62
7
  6
CONTINUOUS
 10
684.1850662581
 20
916.8701176581
 40
4.5
100
AcDbArc
 50
0.0
 51
89.9999999993
  0
ARC
  5
6FB
100
AcDbEntity
  8
H_EXTERN_HANDLE
100
AcDbCircle
 62
7
  6
CONTINUOUS
 10
684.1850662581
 20
900.8701176581
 40
4.5
100
AcDbArc
 50
269.9999999994
 51
360.0
  0
ARC
  5
6FC
100
AcDbEntity
  8
H_EXTERN_HANDLE
100
AcDbCircle
 62
7
  6
CONTINUOUS
 10
906.6939051797
 20
894.5343316001
 40
3.0
100
AcDbArc
 50
0.0
 51
180.0
  0
ARC
  5
6FD
100
AcDbEntity
  8
H_EXTERN_HANDLE
100
AcDbCircle
 62
7
  6
CONTINUOUS
 10
898.7027441012
 20
894.2357954917
 40
3.0
100
AcDbArc
 50
0.0
 51
180.0
  0
ARC
  5
6FE
100
AcDbEntity
  8
H_EXTERN_HANDLE
100
AcDbCircle
 62
7
  6
CONTINUOUS
 10
890.7115830228
 20
893.9372593833
 40
3.0
100
AcDbArc
 50
0.0
 51
180.0
  0
ARC
  5
6FF
100
AcDbEntity
  8
H_EXTERN_HANDLE
100
AcDbCircle
 62
7
  6
CONTINUOUS
 10
882.7204219444
 20
893.6387232749
 40
3.0
100
AcDbArc
 50
0.0
 51
180.0
  0
ARC
  5
700
100
AcDbEntity
  8
H_EXTERN_HANDLE
100
AcDbCircle
 62
7
  6
CONTINUOUS
 10
874.7292608659
 20
893.3401871665
 40
3.0
100
AcDbArc
 50
0.0
 51
180.0
  0
ARC
  5
701
100
AcDbEntity
  8
H_EXTERN_HANDLE
100
AcDbCircle
 62
7
  6
CONTINUOUS
 10
866.7380997875
 20
893.0416510581
 40
3.0
100
AcDbArc
 50
0.0
 51
180.0
  0
ARC
  5
702
100
AcDbEntity
  8
H_EXTERN_HANDLE
100
AcDbCircle
 62
7
  6
CONTINUOUS
 10
858.7469387091
 20
892.7431149497
 40
3.0
100
AcDbArc
 50
0.0
 51
180.0
  0
ARC
  5
703
100
AcDbEntity
  8
H_EXTERN_HANDLE
100
AcDbCircle
 62
7
  6
CONTINUOUS
 10
850.7557776307
 20
892.4445788413
 40
3.0
100
AcDbArc
 50
0.0
 51
180.0
  0
ARC
  5
704
100
AcDbEntity
  8
H_EXTERN_HANDLE
100
AcDbCircle
 62
7
  6
CONTINUOUS
 10
842.7646165522
 20
892.1460427328
 40
3.0
100
AcDbArc
 50
0.0
 51
180.0
  0
ARC
  5
705
100
AcDbEntity
  8
H_EXTERN_HANDLE
100
AcDbCircle
 62
7
  6
CONTINUOUS
 10
834.7734554738
 20
891.8475066244
 40
3.0
100
AcDbArc
 50
0.0
 51
180.0
  0
ARC
  5
706
100
AcDbEntity
  8
H_EXTERN_HANDLE
100
AcDbCircle
 62
7
  6
CONTINUOUS
 10
826.7822943954
 20
891.548970516
 40
3.0
100
AcDbArc
 50
0.0
 51
180.0
  0
ARC
  5
707
100
AcDbEntity
  8
H_EXTERN_HANDLE
100
AcDbCircle
 62
7
  6
CONTINUOUS
 10
818.791133317
 20
891.2504344076
 40
3.0
100
AcDbArc
 50
0.0
 51
180.0
  0
ARC
  5
708
100
AcDbEntity
  8
H_EXTERN_HANDLE
100
AcDbCircle
 62
7
  6
CONTINUOUS
 10
810.7999722385
 20
890.9518982992
 40
3.0
100
AcDbArc
 50
0.0
 51
180.0
  0
ARC
  5
709
100
AcDbEntity
  8
H_EXTERN_HANDLE
100
AcDbCircle
 62
7
  6
CONTINUOUS
 10
802.8088111601
 20
890.6533621908
 40
3.0
100
AcDbArc
 50
0.0
 51
180.0
  0
ARC
  5
70A
100
AcDbEntity
  8
H_EXTERN_HANDLE
100
AcDbCircle
 62
7
  6
CONTINUOUS
 10
794.8176500817
 20
890.3548260824
 40
3.0
100
AcDbArc
 50
0.0
 51
180.0
  0
ARC
  5
70B
100
AcDbEntity
  8
H_EXTERN_HANDLE
100
AcDbCircle
 62
7
  6
CONTINUOUS
 10
786.8264890033
 20
890.056289974
 40
3.0
100
AcDbArc
 50
0.0
 51
180.0
  0
ARC
  5
70C
100
AcDbEntity
  8
H_EXTERN_HANDLE
100
AcDbCircle
 62
7
  6
CONTINUOUS
 10
778.8353279248
 20
889.7577538656
 40
3.0
100
AcDbArc
 50
0.0
 51
180.0
  0
ARC
  5
70D
100
AcDbEntity
  8
H_EXTERN_HANDLE
100
AcDbCircle
 62
7
  6
CONTINUOUS
 10
770.8441668464
 20
889.4592177571
 40
3.0
100
AcDbArc
 50
0.0
 51
180.0
  0
ARC
  5
70E
100
AcDbEntity
  8
H_EXTERN_HANDLE
100
AcDbCircle
 62
7
  6
CONTINUOUS
 10
762.853005768
 20
889.1606816487
 40
3.0
100
AcDbArc
 50
0.0
 51
180.0
  0
ENDSEC
  0
SECTION
  2
OBJECTS
  0
DICTIONARY
  5
C
100
AcDbDictionary
280
0
281
1
  3
ACAD_GROUP
350
D
  3
ACAD_MLINESTYLE
350
17
  3
ACAD_LAYOUT
350
1A
  3
ACAD_PLOTSETTINGS
350
19
  3
ACAD_PLOTSTYLENAME
350
E
  0
DICTIONARY
  5
D
102
{ACAD_REACTORS
330
C
102
}
100
AcDbDictionary
280
0
281
1
  0
ACDBDICTIONARYWDFLT
  5
E
102
{ACAD_REACTORS
330
C
102
}
100
AcDbDictionary
281
1
  3
Normal
350
F
100
AcDbDictionaryWithDefault
340
F
  0
DICTIONARY
  5
17
102
{ACAD_REACTORS
330
C
102
}
100
AcDbDictionary
280
0
281
1
  3
Standard
350
18
  0
DICTIONARY
  5
19
102
{ACAD_REACTORS
330
C
102
}
100
AcDbDictionary
281
1
  0
DICTIONARY
  5
1A
102
{ACAD_REACTORS
330
C
102
}
100
AcDbDictionary
281
1
  3
Model
350
70F
  3
Layout1
350
710
  0
ACDBPLACEHOLDER
  5
F
102
{ACAD_REACTORS
330
E
102
}
  0
MLINESTYLE
  5
18
102
{ACAD_REACTORS
330
17
102
}
100
AcDbMlineStyle
  2
STANDARD
 70
0
  3

 62
256
 51
90.0
 52
90.0
 71
2
 49
0.5
 62
256
  6
BYLAYER
 49
-0.5
 62
256
  6
BYLAYER
  0
LAYOUT
  5
70F
102
{ACAD_REACTORS
330
1A
102
}
100
AcDbPlotSettings
  1

  2
none_device
  4

  6

 40
0.0
 41
0.0
 42
0.0
 43
0.0
 44
1315.1533480222
 45
1001.6687481472
 46
0.0
 47
0.0
 48
0.0
 49
0.0
140
0.0
141
0.0
142
1.0
143
1.0
 70
1024
 72
1
 73
0
 74
0
  7

 75
0
147
1.0
148
0.0
149
0.0
100
AcDbLayout
  1
Model
 70
0
 71
0
 10
0.0
 20
0.0
 11
1315.1533480222
 21
1001.6687481472
 12
0.0
 22
0.0
 32
0.0
 14
0.0
 24
0.0
 34
0.0
 15
0.0
 25
0.0
 35
0.0
146
0.0
 13
0.0
 23
0.0
 33
0.0
 16
1.0
 26
0.0
 36
0.0
 17
0.0
 27
1.0
 37
0.0
 76
0
330
213
345
0
346
0
  0
LAYOUT
  5
710
102
{ACAD_REACTORS
330
1A
102
}
100
AcDbPlotSettings
  1

  2
none_device
  4

  6

 40
0.0
 41
0.0
 42
0.0
 43
0.0
 44
1315.1533480222
 45
1001.6687481472
 46
0.0
 47
0.0
 48
0.0
 49
0.0
140
0.0
141
0.0
142
1.0
143
1.0
 70
0
 72
1
 73
0
 74
0
  7

 75
0
147
1.0
148
0.0
149
0.0
100
AcDbLayout
  1
Layout1
 70
0
 71
1
 10
0.0
 20
0.0
 11
1315.1533480222
 21
1001.6687481472
 12
0.0
 22
0.0
 32
0.0
 14
0.0
 24
0.0
 34
0.0
 15
0.0
 25
0.0
 35
0.0
146
0.0
 13
0.0
 23
0.0
 33
0.0
 16
1.0
 26
0.0
 36
0.0
 17
0.0
 27
1.0
 37
0.0
 76
0
330
214
345
0
346
0
  0
ENDSEC
  0
EOF
