  0
SECTION
  2
HEADER
  9
$ACADVER
  1
AC1018
  9
$ACADMAINTVER
 70
    76
  9
$DWGCODEPAGE
  3
ANSI_1252
  9
$INSBASE
 10
0.0
 20
0.0
 30
0.0
  9
$EXTMIN
 10
-0.0003356677483914
 20
-0.0002593796237598
 30
-0.0015258207003583
  9
$EXTMAX
 10
11.00033571897113
 20
8.500259419204969
 30
0.0000000349246037
  9
$LIMMIN
 10
0.0
 20
0.0
  9
$LIMMAX
 10
11.0
 20
8.5
  9
$ORTHOMODE
 70
     0
  9
$REGENMODE
 70
     1
  9
$FILLMODE
 70
     1
  9
$QTEXTMODE
 70
     0
  9
$MIRRTEXT
 70
     0
  9
$LTSCALE
 40
0.605
  9
$ATTMODE
 70
     1
  9
$TEXTSIZE
 40
0.2
  9
$TRACEWID
 40
0.05
  9
$TEXTSTYLE
  7
STANDARD
  9
$CLAYER
  8
0
  9
$CELTYPE
  6
BYLAYER
  9
$CECOLOR
 62
   256
  9
$CELTSCALE
 40
1.0
  9
$DISPSILH
 70
     0
  9
$DIMSCALE
 40
1.0
  9
$DIMASZ
 40
0.1875
  9
$DIMEXO
 40
0.06875
  9
$DIMDLI
 40
0.418
  9
$DIMRND
 40
0.0
  9
$DIMDLE
 40
0.0
  9
$DIMEXE
 40
0.198
  9
$DIMTP
 40
0.0
  9
$DIMTM
 40
0.0
  9
$DIMTXT
 40
0.15625
  9
$DIMCEN
 40
0.099
  9
$DIMTSZ
 40
0.0
  9
$DIMTOL
 70
     0
  9
$DIMLIM
 70
     0
  9
$DIMTIH
 70
     1
  9
$DIMTOH
 70
     1
  9
$DIMSE1
 70
     0
  9
$DIMSE2
 70
     0
  9
$DIMTAD
 70
     0
  9
$DIMZIN
 70
     0
  9
$DIMBLK
  1

  9
$DIMASO
 70
     1
  9
$DIMSHO
 70
     1
  9
$DIMPOST
  1

  9
$DIMAPOST
  1

  9
$DIMALT
 70
     0
  9
$DIMALTD
 70
     2
  9
$DIMALTF
 40
25.4
  9
$DIMLFAC
 40
1.0
  9
$DIMTOFL
 70
     0
  9
$DIMTVP
 40
0.0
  9
$DIMTIX
 70
     0
  9
$DIMSOXD
 70
     0
  9
$DIMSAH
 70
     0
  9
$DIMBLK1
  1

  9
$DIMBLK2
  1

  9
$DIMSTYLE
  2
STANDARD
  9
$DIMCLRD
 70
     0
  9
$DIMCLRE
 70
     0
  9
$DIMCLRT
 70
     0
  9
$DIMTFAC
 40
1.0
  9
$DIMGAP
 40
0.09
  9
$DIMJUST
 70
     0
  9
$DIMSD1
 70
     0
  9
$DIMSD2
 70
     0
  9
$DIMTOLJ
 70
     1
  9
$DIMTZIN
 70
     0
  9
$DIMALTZ
 70
     0
  9
$DIMALTTZ
 70
     0
  9
$DIMUPT
 70
     0
  9
$DIMDEC
 70
     2
  9
$DIMTDEC
 70
     4
  9
$DIMALTU
 70
     2
  9
$DIMALTTD
 70
     2
  9
$DIMTXSTY
  7
STANDARD
  9
$DIMAUNIT
 70
     0
  9
$DIMADEC
 70
     0
  9
$DIMALTRND
 40
0.0
  9
$DIMAZIN
 70
     0
  9
$DIMDSEP
 70
    46
  9
$DIMATFIT
 70
     3
  9
$DIMFRAC
 70
     0
  9
$DIMLDRBLK
  1

  9
$DIMLUNIT
 70
     2
  9
$DIMLWD
 70
    -2
  9
$DIMLWE
 70
    -2
  9
$DIMTMOVE
 70
     0
  9
$LUNITS
 70
     2
  9
$LUPREC
 70
     4
  9
$SKETCHINC
 40
0.1
  9
$FILLETRAD
 40
0.0
  9
$AUNITS
 70
     0
  9
$AUPREC
 70
     0
  9
$MENU
  1
.
  9
$ELEVATION
 40
0.0
  9
$PELEVATION
 40
0.0
  9
$THICKNESS
 40
0.0
  9
$LIMCHECK
 70
     0
  9
$CHAMFERA
 40
0.0
  9
$CHAMFERB
 40
0.0
  9
$CHAMFERC
 40
0.0
  9
$CHAMFERD
 40
0.0
  9
$SKPOLY
 70
     0
  9
$TDCREATE
 40
2456191.422416320
  9
$TDUCREATE
 40
2456191.630749653
  9
$TDUPDATE
 40
2456191.424613391
  9
$TDUUPDATE
 40
2456191.632946725
  9
$TDINDWG
 40
0.0021977894
  9
$TDUSRTIMER
 40
0.0021977894
  9
$USRTIMER
 70
     1
  9
$ANGBASE
 50
0.0
  9
$ANGDIR
 70
     0
  9
$PDMODE
 70
     3
  9
$PDSIZE
 40
0.3125
  9
$PLINEWID
 40
0.0
  9
$SPLFRAME
 70
     0
  9
$SPLINETYPE
 70
     6
  9
$SPLINESEGS
 70
     8
  9
$HANDSEED
  5
615
  9
$SURFTAB1
 70
     6
  9
$SURFTAB2
 70
     6
  9
$SURFTYPE
 70
     6
  9
$SURFU
 70
     6
  9
$SURFV
 70
     6
  9
$UCSBASE
  2

  9
$UCSNAME
  2

  9
$UCSORG
 10
0.0
 20
0.0
 30
0.0
  9
$UCSXDIR
 10
1.0
 20
0.0
 30
0.0
  9
$UCSYDIR
 10
0.0
 20
1.0
 30
0.0
  9
$UCSORTHOREF
  2

  9
$UCSORTHOVIEW
 70
     0
  9
$UCSORGTOP
 10
0.0
 20
0.0
 30
0.0
  9
$UCSORGBOTTOM
 10
0.0
 20
0.0
 30
0.0
  9
$UCSORGLEFT
 10
0.0
 20
0.0
 30
0.0
  9
$UCSORGRIGHT
 10
0.0
 20
0.0
 30
0.0
  9
$UCSORGFRONT
 10
0.0
 20
0.0
 30
0.0
  9
$UCSORGBACK
 10
0.0
 20
0.0
 30
0.0
  9
$PUCSBASE
  2

  9
$PUCSNAME
  2

  9
$PUCSORG
 10
0.0
 20
0.0
 30
0.0
  9
$PUCSXDIR
 10
1.0
 20
0.0
 30
0.0
  9
$PUCSYDIR
 10
0.0
 20
1.0
 30
0.0
  9
$PUCSORTHOREF
  2

  9
$PUCSORTHOVIEW
 70
     0
  9
$PUCSORGTOP
 10
0.0
 20
0.0
 30
0.0
  9
$PUCSORGBOTTOM
 10
0.0
 20
0.0
 30
0.0
  9
$PUCSORGLEFT
 10
0.0
 20
0.0
 30
0.0
  9
$PUCSORGRIGHT
 10
0.0
 20
0.0
 30
0.0
  9
$PUCSORGFRONT
 10
0.0
 20
0.0
 30
0.0
  9
$PUCSORGBACK
 10
0.0
 20
0.0
 30
0.0
  9
$USERI1
 70
     0
  9
$USERI2
 70
     0
  9
$USERI3
 70
     0
  9
$USERI4
 70
     0
  9
$USERI5
 70
     0
  9
$USERR1
 40
0.0
  9
$USERR2
 40
0.0
  9
$USERR3
 40
0.0
  9
$USERR4
 40
0.0
  9
$USERR5
 40
0.0
  9
$WORLDVIEW
 70
     1
  9
$SHADEDGE
 70
     3
  9
$SHADEDIF
 70
    70
  9
$TILEMODE
 70
     1
  9
$MAXACTVP
 70
    64
  9
$PINSBASE
 10
0.0
 20
0.0
 30
0.0
  9
$PLIMCHECK
 70
     0
  9
$PEXTMIN
 10
1.000000000000000E+20
 20
1.000000000000000E+20
 30
1.000000000000000E+20
  9
$PEXTMAX
 10
-1.000000000000000E+20
 20
-1.000000000000000E+20
 30
-1.000000000000000E+20
  9
$PLIMMIN
 10
0.0
 20
0.0
  9
$PLIMMAX
 10
12.0
 20
9.0
  9
$UNITMODE
 70
     0
  9
$VISRETAIN
 70
     1
  9
$PLINEGEN
 70
     0
  9
$PSLTSCALE
 70
     1
  9
$TREEDEPTH
 70
  3020
  9
$CMLSTYLE
  2
Standard
  9
$CMLJUST
 70
     0
  9
$CMLSCALE
 40
1.0
  9
$PROXYGRAPHICS
 70
     1
  9
$MEASUREMENT
 70
     0
  9
$CELWEIGHT
370
    -1
  9
$ENDCAPS
280
     0
  9
$JOINSTYLE
280
     0
  9
$LWDISPLAY
290
     0
  9
$INSUNITS
 70
     1
  9
$HYPERLINKBASE
  1

  9
$STYLESHEET
  1

  9
$XEDIT
290
     1
  9
$CEPSNTYPE
380
     0
  9
$PSTYLEMODE
290
     1
  9
$FINGERPRINTGUID
  2
{1826E5B4-58DE-45EC-85F4-06243405FEF7}
  9
$VERSIONGUID
  2
{D55E5F55-C623-42C9-992E-33E0BC4D4261}
  9
$EXTNAMES
290
     1
  9
$PSVPSCALE
 40
0.0
  9
$OLESTARTUP
290
     0
  9
$SORTENTS
280
   127
  9
$INDEXCTL
280
     0
  9
$HIDETEXT
280
     1
  9
$XCLIPFRAME
290
     0
  9
$HALOGAP
280
     0
  9
$OBSCOLOR
 70
   257
  9
$OBSLTYPE
280
     0
  9
$INTERSECTIONDISPLAY
280
     0
  9
$INTERSECTIONCOLOR
 70
   257
  9
$DIMASSOC
280
     2
  9
$PROJECTNAME
  1

  0
ENDSEC
  0
SECTION
  2
CLASSES
  0
CLASS
  1
ACDBDICTIONARYWDFLT
  2
AcDbDictionaryWithDefault
  3
ObjectDBX Classes
 90
        0
 91
        1
280
     0
281
     0
  0
CLASS
  1
TABLESTYLE
  2
AcDbTableStyle
  3
ObjectDBX Classes
 90
     2047
 91
        1
280
     0
281
     0
  0
CLASS
  1
AMGSETTINGSOBJ
  2
AmgSettingsObj
  3
"AcadM|Product Description: AutoCAD Mechanical 2000|Company: Autodesk"
 90
        0
 91
        2
280
     0
281
     0
  0
CLASS
  1
ACME_DOCUMENT
  2
AcMeDbDoc
  3
AcMeServices
 90
        0
 91
        1
280
     0
281
     0
  0
CLASS
  1
ACMESCOPE
  2
AcMeScope
  3
AcMeServices
 90
        0
 91
        1
280
     0
281
     0
  0
CLASS
  1
ACMECOMMANDHISTORY
  2
AcMeCommandHistory
  3
AcMeServices
 90
        0
 91
        1
280
     0
281
     0
  0
CLASS
  1
ACIMSYSVARMAN
  2
AcImSysVarManager
  3
AcMeServices
 90
        0
 91
        5
280
     0
281
     0
  0
CLASS
  1
ACIMINTSYSVAR
  2
AcImIntSysVar
  3
AcMeServices
 90
        0
 91
       26
280
     0
281
     0
  0
CLASS
  1
ACMEDRAWINGMAN
  2
AcMeDrawingMan
  3
AcMeServices
 90
        0
 91
        1
280
     0
281
     0
  0
CLASS
  1
ACMEVIEW
  2
AcMeView
  3
AcMeServices
 90
        0
 91
        1
280
     0
281
     0
  0
CLASS
  1
ACDBENTITYCACHE
  2
AcMeEntityCache
  3
AcMeServices
 90
        0
 91
        1
280
     0
281
     0
  0
CLASS
  1
GSMANAGER
  2
AcMeGSManager
  3
AcMeServices
 90
        0
 91
        1
280
     0
281
     0
  0
CLASS
  1
AMDTINTERNALREACTOR
  2
AmdtInternalReactor
  3
AcMeServices
 90
        0
 91
        2
280
     0
281
     0
  0
CLASS
  1
ACMESTATEMGR
  2
AcMeStateMgr
  3
AcMeServices
 90
        0
 91
        1
280
     0
281
     0
  0
CLASS
  1
ACGREFMASTER
  2
AcGrefMaster
  3
AcAttribServices
 90
        0
 91
        1
280
     0
281
     0
  0
CLASS
  1
AM_DRAWING_MGR
  2
AcDmDwgMgr
  3
AcMechDwgViewMgmt
 90
        0
 91
        1
280
     0
281
     0
  0
CLASS
  1
AM_DWG_DOCUMENT
  2
AcDmDwgDocument
  3
AcMechDwgViewMgmt
 90
        0
 91
        1
280
     0
281
     0
  0
CLASS
  1
AM_DWG_SHEET
  2
AcDmSheet
  3
AcMechDwgViewMgmt
 90
        0
 91
        1
280
     0
281
     0
  0
CLASS
  1
AM_VIEWDIMPARMAP
  2
AcDmViewDimParMap
  3
AcMechDwgViewMgmt
 90
        0
 91
        1
280
     0
281
     0
  0
CLASS
  1
ACIMREALSYSVAR
  2
AcImRealSysVar
  3
AcMeServices
 90
        0
 91
        1
280
     0
281
     0
  0
CLASS
  1
AM_DWGMGR_NAME
  2
AcDmDwgMgrName
  3
AcMechDwgViewMgmt
 90
        0
 91
        1
280
     0
281
     0
  0
CLASS
  1
ACME_DATABASE
  2
AcMeDbDatabase
  3
AcMeServices
 90
        0
 91
        1
280
     0
281
     0
  0
CLASS
  1
ACRFINSADJUSTERMGR
  2
AcRfInsAdjusterMgr
  3
AcMeServices
 90
        0
 91
        1
280
     0
281
     0
  0
CLASS
  1
ACGREFACADMASTER
  2
AcGrefacadMaster
  3
AcGrefServices
 90
        0
 91
        1
280
     0
281
     0
  0
CLASS
  1
AMDTMENUSTATEMGR
  2
AmdtMenuStateMgr
  3
McadcomServices
 90
        0
 91
        1
280
     0
281
     0
  0
CLASS
  1
AMDTMCOMMENUSTATE
  2
AmdtMcomMenuState
  3
McadcomServices
 90
        0
 91
        1
280
     0
281
     0
  0
CLASS
  1
AMIMASTER
  2
AmiMaster
  3
AmiServices
 90
        0
 91
        1
280
     0
281
     0
  0
CLASS
  1
MAPIAMMOUDLE
  2
MApiAmModule
  3
MApiAmServices
 90
        0
 91
        1
280
     0
281
     0
  0
CLASS
  1
ACIMSTRSYSVAR
  2
AcImStrSysVar
  3
AcMeServices
 90
        0
 91
        5
280
     0
281
     0
  0
CLASS
  1
AMDTADMENUSTATE
  2
AmdtAdMenuState
  3
DesignerServices
 90
        0
 91
        1
280
     0
281
     0
  0
CLASS
  1
ADAPPL
  2
AcAdAppl
  3
DesignerServices
 90
        0
 91
        1
280
     0
281
     0
  0
CLASS
  1
DEPMGR
  2
AcAdDepMgr
  3
DesignerServices
 90
        0
 91
        1
280
     0
281
     0
  0
CLASS
  1
PARAMMGR
  2
AcAdParamMgr
  3
DesignerServices
 90
        0
 91
        1
280
     0
281
     0
  0
CLASS
  1
PARAMSCOPE
  2
AcAdParamScope
  3
DesignerServices
 90
        0
 91
        1
280
     0
281
     0
  0
CLASS
  1
NAMEDAPPL
  2
AcAdNamedAppl
  3
DesignerServices
 90
        0
 91
        1
280
     0
281
     0
  0
CLASS
  1
AMDTDMMENUSTATE
  2
AmdtDmMenuState
  3
AcMechDwgViewMgmt
 90
        0
 91
        1
280
     0
281
     0
  0
CLASS
  1
AMDTAMMENUSTATE
  2
AmdtAmMenuState
  3
DesignerAssemblies
 90
        0
 91
        1
280
     0
281
     0
  0
CLASS
  1
ACAMPROJECT
  2
AcAmProject
  3
DesignerAssemblies
 90
        0
 91
        1
280
     0
281
     0
  0
CLASS
  1
ACAMGRCOMPDEF
  2
AcAmGrCompDef
  3
DesignerAssemblies
 90
        0
 91
        1
280
     0
281
     0
  0
CLASS
  1
ACCMCONTEXT
  2
AcCmContext
  3
DesignerAssemblies
 90
        0
 91
        1
280
     0
281
     0
  0
CLASS
  1
ACAMCOMPDEF
  2
AcAmCompDef
  3
DesignerAssemblies
 90
        0
 91
        1
280
     0
281
     0
  0
CLASS
  1
ACAMCOMPDEFMGR
  2
AcAmCompDefMgr
  3
DesignerAssemblies
 90
        0
 91
        1
280
     0
281
     0
  0
CLASS
  1
AMCONTEXTMGR
  2
AcAmContextMgr
  3
DesignerAssemblies
 90
        0
 91
        1
280
     0
281
     0
  0
CLASS
  1
ACAMCONTEXTMODELER
  2
AcAmContextModeler
  3
DesignerAssemblies
 90
        0
 91
        1
280
     0
281
     0
  0
CLASS
  1
ACMDATADICTIONARY
  2
AcmDataDictionary
  3
"AcmSymBB|Product Description: AutoCAD Mechanical 2004 DX|Company: Autodesk"
 90
        0
 91
        1
280
     0
281
     0
  0
CLASS
  1
CATALOGSTATE
  2
AcAmCatalogState
  3
DesignerAssemblies
 90
        0
 91
        1
280
     0
281
     0
  0
CLASS
  1
ACAMGRCOMPDEFSET
  2
AcAmGrCompDefSet
  3
DesignerAssemblies
 90
        0
 91
        1
280
     0
281
     0
  0
CLASS
  1
AMDTBROWSERDBTAB
  2
AmdtBrowserDbTab
  3
McadcomServices
 90
        0
 91
        1
280
     0
281
     0
  0
CLASS
  1
CBROWSERAPPOBJECT
  2
CBrowserAppObject
  3
McadcomServices
 90
        0
 91
        3
280
     0
281
     0
  0
CLASS
  1
DM_PLACEHOLDER
  2
AcDmSelsetPlaceholder
  3
AcMechDwgViewMgmt
 90
        0
 91
        1
280
     0
281
     0
  0
CLASS
  1
ACMSTANDARDANSI
  2
AcmStandardANSI
  3
"Amdt_StdImp|Product Description: AutoCAD Mechanical 2004 DX|Company: Autodesk"
 90
        0
 91
        1
280
     0
281
     0
  0
CLASS
  1
AMGOBJPROPCFG
  2
AmgObjPropCfg
  3
"AmgLay|Product Description: AutoCAD Mechanical 2000|Company: Autodesk"
 90
        1
 91
        1
280
     0
281
     0
  0
CLASS
  1
ACMSURFSTANDARDANSI
  2
AcmSurfTextStdANSI
  3
"Amdt_StdImp|Product Description: AutoCAD Mechanical 2004 DX|Company: Autodesk"
 90
        0
 91
        1
280
     0
281
     0
  0
CLASS
  1
ACMFCFSTANDARDANSI
  2
AcmFCFStdANSI
  3
"Amdt_StdImp|Product Description: AutoCAD Mechanical 2004 DX|Company: Autodesk"
 90
        0
 91
        1
280
     0
281
     0
  0
CLASS
  1
ACMWELDSTANDARDANSI
  2
AcmWeldingStdANSI
  3
"Amdt_StdImp|Product Description: AutoCAD Mechanical 2004 DX|Company: Autodesk"
 90
        0
 91
        1
280
     0
281
     0
  0
CLASS
  1
ACMIDSTANDARDANSI
  2
AcmIdStdANSI
  3
"Amdt_StdImp|Product Description: AutoCAD Mechanical 2004 DX|Company: Autodesk"
 90
        0
 91
        1
280
     0
281
     0
  0
CLASS
  1
ACMDATUMSTANDARDANSI
  2
AcmDatumStdANSI
  3
"Amdt_StdImp|Product Description: AutoCAD Mechanical 2004 DX|Company: Autodesk"
 90
        0
 91
        1
280
     0
281
     0
  0
CLASS
  1
ACMBOMSTANDARDANSI
  2
AcmBOMStdANSI
  3
"Amdt_StdImp|Product Description: AutoCAD Mechanical 2004 DX|Company: Autodesk"
 90
        0
 91
        1
280
     0
281
     0
  0
CLASS
  1
ACMDETAILSTANDARDANSI
  2
AmdtDetailSymStdANSI
  3
"Amdt_StdImp|Product Description: AutoCAD Mechanical 2004 DX|Company: Autodesk"
 90
        0
 91
        1
280
     0
281
     0
  0
CLASS
  1
ACMSECTIONSTANDARDANSI
  2
AmdtSectionSymStdANSI
  3
"Amdt_StdImp|Product Description: AutoCAD Mechanical 2004 DX|Company: Autodesk"
 90
        0
 91
        1
280
     0
281
     0
  0
CLASS
  1
ACMCENTERLINESTANDARDANSI
  2
AmdtCenterLineStdANSI
  3
"Amdt_StdImp|Product Description: AutoCAD Mechanical 2004 DX|Company: Autodesk"
 90
        0
 91
        1
280
     0
281
     0
  0
CLASS
  1
ACMTHREADLINESTANDARDANSI
  2
AmdtThreadLineStdANSI
  3
"Amdt_StdImp|Product Description: AutoCAD Mechanical 2004 DX|Company: Autodesk"
 90
        0
 91
        1
280
     0
281
     0
  0
CLASS
  1
ACMNOTESTANDARDANSI
  2
AmdtNoteStdANSI
  3
"Amdt_StdImp|Product Description: AutoCAD Mechanical 2004 DX|Company: Autodesk"
 90
        0
 91
        1
280
     0
281
     0
  0
CLASS
  1
AMDTNOTETEMPLATEDB
  2
AmdtNoteTemplateDB
  3
AMDT_STDIMP_MODULE_NAME
 90
        0
 91
        6
280
     0
281
     0
  0
CLASS
  1
ACAMGLAYSTD
  2
AcAmgLayStd
  3
"AcAmgLayStd|Product Description: AutoCAD Mechanical 2000|Company: Autodesk"
 90
        0
 91
        1
280
     0
281
     0
  0
CLASS
  1
ACAMGDIMSTD
  2
AcAmgDimStd
  3
"AcAmgDimStd|Product Description: AutoCAD Mechanical 2000|Company: Autodesk"
 90
        0
 91
        1
280
     0
281
     0
  0
CLASS
  1
ACAMGHOLECHARTSTDANSI
  2
AcAmgHoleChartStdANSI
  3
ACMSYMBB_MODULE_NAME
 90
        0
 91
        1
280
     0
281
     0
  0
CLASS
  1
ACAMGTITLESTD
  2
AcAmgTitleStd
  3
"TITLEAPP"
 90
        0
 91
        1
280
     0
281
     0
  0
CLASS
  1
ACAMGFILTERDAT
  2
AcAmgFilterDat
  3
"AcadM|Product Description: AutoCAD Mechanical 2000|Company: Autodesk"
 90
        0
 91
        6
280
     0
281
     0
  0
CLASS
  1
DIMASSOC
  2
AcDbDimAssoc
  3
"AcDbDimAssoc|Product Desc:     AcDim ARX App For Dimension|Company:          Autodesk, Inc.|WEB Address:      www.autodesk.com"
 90
        0
 91
        3
280
     0
281
     0
  0
CLASS
  1
DICTIONARYVAR
  2
AcDbDictionaryVar
  3
ObjectDBX Classes
 90
        0
 91
        2
280
     0
281
     0
  0
CLASS
  1
ACRFATTGENMGR
  2
AcRfAttGeneralMgr
  3
AcAttribServices
 90
        0
 91
        1
280
     0
281
     0
  0
ENDSEC
  0
SECTION
  2
TABLES
  0
TABLE
  2
VPORT
  5
8
330
0
100
AcDbSymbolTable
 70
    57
  0
VPORT
  5
614
330
8
100
AcDbSymbolTableRecord
100
AcDbViewportTableRecord
  2
*Active
 70
     0
 10
0.0
 20
0.0
 11
1.0
 21
1.0
 12
5.500000025611372
 22
4.250000019790605
 13
0.0
 23
0.0
 14
1.0
 24
1.0
 15
0.0
 25
0.0
 16
0.0
 26
0.0
 36
1.0
 17
0.0
 27
0.0
 37
0.0
 40
8.57934895770504
 41
1.826625386996903
 42
50.0
 43
0.0
 44
0.0
 50
0.0
 51
0.0
 71
     0
 72
   100
 73
     1
 74
     1
 75
     0
 76
     0
 77
     0
 78
     0
281
     0
 65
     0
110
0.0
120
0.0
130
0.0
111
1.0
121
0.0
131
0.0
112
0.0
122
1.0
132
0.0
 79
     0
146
0.0
  0
ENDTAB
  0
TABLE
  2
LTYPE
  5
5
330
0
100
AcDbSymbolTable
 70
    19
  0
LTYPE
  5
14
330
5
100
AcDbSymbolTableRecord
100
AcDbLinetypeTableRecord
  2
BYBLOCK
 70
     0
  3

 72
    65
 73
     0
 40
0.0
  0
LTYPE
  5
15
330
5
100
AcDbSymbolTableRecord
100
AcDbLinetypeTableRecord
  2
BYLAYER
 70
     0
  3

 72
    65
 73
     0
 40
0.0
  0
LTYPE
  5
16
330
5
100
AcDbSymbolTableRecord
100
AcDbLinetypeTableRecord
  2
CONTINUOUS
 70
     0
  3
Solid line
 72
    65
 73
     0
 40
0.0
  0
LTYPE
  5
1F5
330
5
100
AcDbSymbolTableRecord
100
AcDbLinetypeTableRecord
  2
CENTER
 70
     0
  3
____ _ ____ _ ____ _ ____ _ ____ _ ____ _ ____
 72
    65
 73
     4
 40
0.6
 49
0.375
 74
     0
 49
-0.075
 74
     0
 49
0.075
 74
     0
 49
-0.075
 74
     0
  0
LTYPE
  5
1F6
330
5
100
AcDbSymbolTableRecord
100
AcDbLinetypeTableRecord
  2
HIDDEN
 70
     0
  3
- - - - - - - - - - - - - - - - - - - -
 72
    65
 73
     2
 40
0.2
 49
0.1
 74
     0
 49
-0.1
 74
     0
  0
LTYPE
  5
498
330
5
100
AcDbSymbolTableRecord
100
AcDbLinetypeTableRecord
  2
PHANTOM2
 70
     0
  3
Phantom (.5x) ___ _ _ ___ _ _ ___ _ _ ___ _ _
 72
    65
 73
     6
 40
1.25
 49
0.625
 74
     0
 49
-0.125
 74
     0
 49
0.125
 74
     0
 49
-0.125
 74
     0
 49
0.125
 74
     0
 49
-0.125
 74
     0
  0
LTYPE
  5
4CF
330
5
100
AcDbSymbolTableRecord
100
AcDbLinetypeTableRecord
  2
Amconstr
 70
     0
  3
_______________________
 72
    65
 73
     2
 40
9999.0
 49
9999.0
 74
     0
 49
0.0
 74
     0
  0
LTYPE
  5
4D5
330
5
100
AcDbSymbolTableRecord
100
AcDbLinetypeTableRecord
  2
CENTER2
 70
     0
  3
Center (.5x) ___ _ ___ _ ___ _ ___ _ ___ _ ___
 72
    65
 73
     4
 40
1.125
 49
0.75
 74
     0
 49
-0.125
 74
     0
 49
0.125
 74
     0
 49
-0.125
 74
     0
  0
LTYPE
  5
4D6
330
5
100
AcDbSymbolTableRecord
100
AcDbLinetypeTableRecord
  2
HIDDEN2
 70
     0
  3
Hidden (.5x) _ _ _ _ _ _ _ _ _ _ _ _ _ _ _ _ _
 72
    65
 73
     2
 40
0.1875
 49
0.125
 74
     0
 49
-0.0625
 74
     0
  0
LTYPE
  5
4D7
330
5
100
AcDbSymbolTableRecord
100
AcDbLinetypeTableRecord
  2
Amzigzag2
 70
     0
  3
/\/-/\/-/\/-/\/-/\/-/\/
 72
    65
 73
     2
 40
0.4401
 49
0.0001
 74
     4
 75
   136
340
4D3
 46
0.0016
 50
0.0
 44
0.0
 45
0.0
 49
-0.4400000000000001
 74
     0
  0
LTYPE
  5
4E5
330
5
100
AcDbSymbolTableRecord
100
AcDbLinetypeTableRecord
  2
ACANSTGB
 70
     0
  3
__ . . __ . .
 72
    65
 73
     6
 40
0.35433070866
 49
0.15748031496
 74
     0
 49
-0.03937007874
 74
     0
 49
0.03937007874
 74
     0
 49
-0.03937007874
 74
     0
 49
0.03937007874
 74
     0
 49
-0.03937007874
 74
     0
  0
LTYPE
  5
4E6
330
5
100
AcDbSymbolTableRecord
100
AcDbLinetypeTableRecord
  2
ACANSTGL
 70
     0
  3
_ _ _ _ _
 72
    65
 73
     2
 40
0.11811023622
 49
0.07874015748
 74
     0
 49
-0.03937007874
 74
     0
  0
ENDTAB
  0
TABLE
  2
LAYER
  5
2
330
0
100
AcDbSymbolTable
 70
     7
  0
LAYER
  5
10
330
2
100
AcDbSymbolTableRecord
100
AcDbLayerTableRecord
  2
0
 70
     0
 62
     7
  6
CONTINUOUS
370
    -3
390
F
  0
LAYER
  5
51D
330
2
100
AcDbSymbolTableRecord
100
AcDbLayerTableRecord
  2
AM_5
 70
     0
 62
     3
  6
CONTINUOUS
370
    15
390
F
1001
AcAecLayerStandard
1000

1000

  0
LAYER
  5
52F
330
2
100
AcDbSymbolTableRecord
100
AcDbLayerTableRecord
  2
Defpoints
 70
     0
 62
     7
  6
CONTINUOUS
290
     0
370
    -3
390
F
  0
ENDTAB
  0
TABLE
  2
STYLE
  5
3
330
0
100
AcDbSymbolTable
 70
     5
  0
STYLE
  5
11
330
3
100
AcDbSymbolTableRecord
100
AcDbTextStyleTableRecord
  2
STANDARD
 70
     0
 40
0.0
 41
0.8
 50
0.0
 71
     0
 42
0.2
  3
txt
  4

  0
STYLE
  5
4D3
330
3
100
AcDbSymbolTableRecord
100
AcDbTextStyleTableRecord
  2

 70
     1
 40
0.0
 41
1.0
 50
0.0
 71
     0
 42
0.2
  3
genltshp.shx
  4

  0
STYLE
  5
4D8
330
3
100
AcDbSymbolTableRecord
100
AcDbTextStyleTableRecord
  2
ACANSTS
 70
     0
 40
1.0
 41
1.0
 50
0.0
 71
     0
 42
0.2
  3
romans.shx
  4

  0
STYLE
  5
4E4
330
3
100
AcDbSymbolTableRecord
100
AcDbTextStyleTableRecord
  2
ACANSGDT
 70
     0
 40
0.0
 41
1.0
 50
0.0
 71
     0
 42
0.2
  3
AMGDT
  4

  0
ENDTAB
  0
TABLE
  2
VIEW
  5
6
330
0
100
AcDbSymbolTable
 70
     4
  0
ENDTAB
  0
TABLE
  2
UCS
  5
7
330
0
100
AcDbSymbolTable
 70
     0
  0
ENDTAB
  0
TABLE
  2
APPID
  5
9
330
0
100
AcDbSymbolTable
 70
    11
  0
APPID
  5
1FF
330
9
100
AcDbSymbolTableRecord
100
AcDbRegAppTableRecord
  2
ACAD
 70
     0
  0
APPID
  5
46B
330
9
100
AcDbSymbolTableRecord
100
AcDbRegAppTableRecord
  2
MCAD_NO_VIS
 70
     0
  0
APPID
  5
46C
330
9
100
AcDbSymbolTableRecord
100
AcDbRegAppTableRecord
  2
ACAD_TEMP_GRAPHIC
 70
     0
  0
APPID
  5
49A
330
9
100
AcDbSymbolTableRecord
100
AcDbRegAppTableRecord
  2
AD_DRAW
 70
     0
  0
APPID
  5
49D
330
9
100
AcDbSymbolTableRecord
100
AcDbRegAppTableRecord
  2
ACATTRIBSERVICES
 70
     0
  0
APPID
  5
4BD
330
9
100
AcDbSymbolTableRecord
100
AcDbRegAppTableRecord
  2
DESIGNERASSEMBLIES
 70
     0
  0
APPID
  5
4C3
330
9
100
AcDbSymbolTableRecord
100
AcDbRegAppTableRecord
  2
ACADM_DIM_EDIT
 70
     0
  0
APPID
  5
4C4
330
9
100
AcDbSymbolTableRecord
100
AcDbRegAppTableRecord
  2
AMDT_DM_ADJ
 70
     0
  0
APPID
  5
4F2
330
9
100
AcDbSymbolTableRecord
100
AcDbRegAppTableRecord
  2
ACAD_DSTYLE_DIMARC_LENGTH_SYMBOL
 70
     0
  0
APPID
  5
4F3
330
9
100
AcDbSymbolTableRecord
100
AcDbRegAppTableRecord
  2
ACAD_DSTYLE_DIMJOGGED_JOGANGLE_SYMBOL
 70
     0
  0
APPID
  5
51E
330
9
100
AcDbSymbolTableRecord
100
AcDbRegAppTableRecord
  2
AcAecLayerStandard
 70
     0
  0
ENDTAB
  0
TABLE
  2
DIMSTYLE
  5
A
330
0
100
AcDbSymbolTable
 70
     8
100
AcDbDimStyleTable
 71
     1
340
202
  0
DIMSTYLE
105
202
330
A
100
AcDbSymbolTableRecord
100
AcDbDimStyleTableRecord
  2
STANDARD
 70
     0
 41
0.1875
 47
0.05
 48
0.05
 78
     4
140
0.15625
271
     2
272
     2
284
     4
340
11
  0
DIMSTYLE
105
4F1
330
A
100
AcDbSymbolTableRecord
100
AcDbDimStyleTableRecord
  2
AM_ANSI
 70
     0
  4
mm
 41
0.1
 42
0.05
 43
0.5
 44
0.1
 47
0.1
 48
0.1
 78
     7
 79
     2
140
0.12
141
0.0
146
0.71
147
0.06
176
   256
177
   256
178
     2
274
     4
284
     7
340
11
371
    -1
372
    -1
1001
ACAD_DSTYLE_DIMARC_LENGTH_SYMBOL
1070
   379
1070
     1
1001
ACAD_DSTYLE_DIMJOGGED_JOGANGLE_SYMBOL
1070
   384
1040
0.7853981633974483
  0
DIMSTYLE
105
4FA
330
A
100
AcDbSymbolTableRecord
100
AcDbDimStyleTableRecord
  2
AM_ANSI$3
 70
     0
  4
mm
 41
0.1
 42
0.05
 43
0.5
 44
0.1
 47
0.1
 48
0.1
 78
     7
 79
     2
140
0.12
141
0.0
146
0.71
147
0.06
176
   256
177
   256
178
     2
274
     4
284
     7
288
     1
289
     0
340
11
371
    -1
372
    -1
1001
ACAD_DSTYLE_DIMARC_LENGTH_SYMBOL
1070
   379
1070
     1
1001
ACAD_DSTYLE_DIMJOGGED_JOGANGLE_SYMBOL
1070
   384
1040
0.7853981633974483
  0
DIMSTYLE
105
4FD
330
A
100
AcDbSymbolTableRecord
100
AcDbDimStyleTableRecord
  2
AM_ANSI$4
 70
     0
  4
mm
 41
0.1
 42
0.05
 43
0.5
 44
0.1
 47
0.1
 48
0.1
 78
     7
 79
     2
140
0.12
141
0.0
146
0.71
147
0.06
176
   256
177
   256
178
     2
274
     4
284
     7
288
     1
289
     0
340
11
371
    -1
372
    -1
1001
ACAD_DSTYLE_DIMARC_LENGTH_SYMBOL
1070
   379
1070
     1
1001
ACAD_DSTYLE_DIMJOGGED_JOGANGLE_SYMBOL
1070
   384
1040
0.7853981633974483
  0
DIMSTYLE
105
502
330
A
100
AcDbSymbolTableRecord
100
AcDbDimStyleTableRecord
  2
AM_ANSI$7
 70
     0
  4
mm
 41
0.1
 42
0.05
 43
0.5
 44
0.1
 47
0.1
 48
0.1
 78
     7
 79
     2
140
0.24
141
0.0
146
0.71
147
0.06
176
   256
177
   256
178
     2
274
     4
284
     7
340
11
371
    -1
372
    -1
1001
ACAD_DSTYLE_DIMARC_LENGTH_SYMBOL
1070
   379
1070
     1
1001
ACAD_DSTYLE_DIMJOGGED_JOGANGLE_SYMBOL
1070
   384
1040
0.7853981633974483
  0
DIMSTYLE
105
505
330
A
100
AcDbSymbolTableRecord
100
AcDbDimStyleTableRecord
  2
AM_ANSI$SF
 70
     0
  4
mm
 41
0.1
 42
0.05
 43
0.5
 44
0.1
 47
0.1
 48
0.1
 75
     1
 76
     1
 78
     7
 79
     2
140
0.12
141
0.0
146
0.71
147
0.06
176
   256
177
   256
178
     2
274
     4
284
     7
340
11
371
    -1
372
    -1
1001
ACAD_DSTYLE_DIMARC_LENGTH_SYMBOL
1070
   379
1070
     1
1001
ACAD_DSTYLE_DIMJOGGED_JOGANGLE_SYMBOL
1070
   384
1040
0.7853981633974483
  0
DIMSTYLE
105
50C
330
A
100
AcDbSymbolTableRecord
100
AcDbDimStyleTableRecord
  2
AM_ANSI$SH
 70
     0
  4
mm
 41
0.1
 42
0.05
 43
0.5
 44
0.1
 47
0.1
 48
0.1
 75
     1
 76
     1
 78
     7
 79
     2
140
0.12
141
0.0
146
0.71
147
0.06
173
     1
176
   256
177
   256
178
     2
274
     4
284
     7
340
11
343
506
371
    -1
372
    -1
1001
ACAD_DSTYLE_DIMARC_LENGTH_SYMBOL
1070
   379
1070
     1
1001
ACAD_DSTYLE_DIMJOGGED_JOGANGLE_SYMBOL
1070
   384
1040
0.7853981633974483
  0
DIMSTYLE
105
52A
102
{ACAD_REACTORS
330
52E
330
579
330
5B3
102
}
330
A
100
AcDbSymbolTableRecord
100
AcDbDimStyleTableRecord
  2
STANDARD$0
 70
     0
 41
0.1875
 47
0.05
 48
0.05
 78
     4
140
0.15625
271
     2
272
     2
284
     4
340
11
  0
ENDTAB
  0
TABLE
  2
BLOCK_RECORD
  5
1
330
0
100
AcDbSymbolTable
 70
     5
  0
BLOCK_RECORD
  5
200
330
1
100
AcDbSymbolTableRecord
100
AcDbBlockTableRecord
  2
*Model_Space
340
45B
  0
BLOCK_RECORD
  5
201
330
1
100
AcDbSymbolTableRecord
100
AcDbBlockTableRecord
  2
*Paper_Space
340
45C
  0
BLOCK_RECORD
  5
506
330
1
100
AcDbSymbolTableRecord
100
AcDbBlockTableRecord
  2
GENAXEH
340
0
  0
BLOCK_RECORD
  5
530
330
1
100
AcDbSymbolTableRecord
100
AcDbBlockTableRecord
  2
*D2
340
0
  0
BLOCK_RECORD
  5
57A
330
1
100
AcDbSymbolTableRecord
100
AcDbBlockTableRecord
  2
*D3
340
0
  0
BLOCK_RECORD
  5
5B4
330
1
100
AcDbSymbolTableRecord
100
AcDbBlockTableRecord
  2
*D4
340
0
  0
ENDTAB
  0
ENDSEC
  0
SECTION
  2
BLOCKS
  0
BLOCK
  5
20
330
200
100
AcDbEntity
  8
0
100
AcDbBlockBegin
  2
*Model_Space
 70
     0
 10
0.0
 20
0.0
 30
0.0
  3
*Model_Space
  1

  0
ENDBLK
  5
21
330
200
100
AcDbEntity
  8
0
100
AcDbBlockEnd
  0
BLOCK
  5
1C
330
201
100
AcDbEntity
 67
     1
  8
0
100
AcDbBlockBegin
  2
*Paper_Space
 70
     0
 10
0.0
 20
0.0
 30
0.0
  3
*Paper_Space
  1

  0
ENDBLK
  5
1D
330
201
100
AcDbEntity
 67
     1
  8
0
100
AcDbBlockEnd
  0
BLOCK
  5
508
330
506
100
AcDbEntity
  8
0
100
AcDbBlockBegin
  2
GENAXEH
 70
     0
 10
0.0
 20
0.0
 30
0.0
  3
GENAXEH
  1

  0
LINE
  5
507
330
506
100
AcDbEntity
  8
0
100
AcDbLine
 10
-1.0
 20
0.0
 30
0.0
 11
1.0
 21
0.0
 31
0.0
  0
ENDBLK
  5
509
330
506
100
AcDbEntity
  8
0
100
AcDbBlockEnd
  0
BLOCK
  5
53B
330
530
100
AcDbEntity
  8
0
100
AcDbBlockBegin
  2
*D2
 70
     1
 10
0.0
 20
0.0
 30
0.0
  3
*D2
  1

  0
LINE
  5
5DA
330
530
100
AcDbEntity
  8
AM_5
 62
     0
370
    -2
100
AcDbLine
 10
4.573538998723742
 20
5.405508052971284
 30
0.0
 11
5.538766260162883
 21
5.405508052971284
 31
0.0
  0
LINE
  5
5DB
330
530
100
AcDbEntity
  8
AM_5
 62
     0
370
    -2
100
AcDbLine
 10
4.528516198100001
 20
3.261807057171285
 30
0.0
 11
5.538766260162883
 21
3.261807057171284
 31
0.0
  0
LINE
  5
5DC
330
530
100
AcDbEntity
  8
AM_5
 62
     0
370
    -2
100
AcDbLine
 10
5.340766260162883
 20
5.218008052971284
 30
0.0
 11
5.340766260162883
 21
4.631990888404618
 31
0.0
  0
LINE
  5
5DD
330
530
100
AcDbEntity
  8
AM_5
 62
     0
370
    -2
100
AcDbLine
 10
5.340766260162883
 20
3.449307057171284
 30
0.0
 11
5.340766260162883
 21
4.03532422173795
 31
0.0
  0
SOLID
  5
5DE
330
530
100
AcDbEntity
  8
AM_5
 62
     0
100
AcDbTrace
 10
5.309516260162883
 20
5.218008052971284
 30
0.0
 11
5.372016260162883
 21
5.218008052971284
 31
0.0
 12
5.340766260162883
 22
5.405508052971284
 32
0.0
 13
5.340766260162883
 23
5.405508052971284
 33
0.0
  0
SOLID
  5
5DF
330
530
100
AcDbEntity
  8
AM_5
 62
     0
100
AcDbTrace
 10
5.309516260162883
 20
3.449307057171284
 30
0.0
 11
5.372016260162883
 21
3.449307057171284
 31
0.0
 12
5.340766260162883
 22
3.261807057171284
 32
0.0
 13
5.340766260162883
 23
3.261807057171284
 33
0.0
  0
MTEXT
  5
5E0
330
530
100
AcDbEntity
  8
AM_5
 62
     0
100
AcDbMText
 10
5.340766260162882
 20
4.333657555071285
 30
0.0
 40
0.15625
 41
0.0
 71
     5
 72
     1
  1
\A1;2.14\P [54.45]
 73
     1
 44
1.0
  0
POINT
  5
5E1
330
530
100
AcDbEntity
  8
Defpoints
 62
     0
100
AcDbPoint
 10
4.504788998723743
 20
5.405508052971284
 30
0.0
  0
POINT
  5
5E2
330
530
100
AcDbEntity
  8
Defpoints
 62
     0
100
AcDbPoint
 10
4.459766198100001
 20
3.261807057171285
 30
0.0
  0
POINT
  5
5E3
330
530
100
AcDbEntity
  8
Defpoints
 62
     0
100
AcDbPoint
 10
5.340766260162883
 20
3.261807057171284
 30
0.0
  0
ENDBLK
  5
53C
330
530
100
AcDbEntity
  8
0
100
AcDbBlockEnd
  0
BLOCK
  5
586
330
57A
100
AcDbEntity
  8
0
100
AcDbBlockBegin
  2
*D3
 70
     1
 10
0.0
 20
0.0
 30
0.0
  3
*D3
  1

  0
LINE
  5
603
330
57A
100
AcDbEntity
  8
AM_5
 62
     0
370
    -2
100
AcDbLine
 10
4.508831158726215
 20
1.882849140417787
 30
0.0
 11
5.53876625536391
 21
1.882849140417786
 31
0.0
  0
LINE
  5
604
330
57A
100
AcDbEntity
  8
AM_5
 62
     0
370
    -2
100
AcDbLine
 10
4.508831157100001
 20
1.134817646317786
 30
0.0
 11
5.53876625536391
 21
1.134817646317785
 31
0.0
  0
LINE
  5
605
330
57A
100
AcDbEntity
  8
AM_5
 62
     0
370
    -2
100
AcDbLine
 10
5.340766255363909
 20
1.695349140417787
 30
0.0
 11
5.340766255363909
 21
1.322317646317786
 31
0.0
  0
LINE
  5
606
330
57A
100
AcDbEntity
  8
AM_5
 62
     0
370
    -2
100
AcDbLine
 10
5.340766255363909
 20
1.134817646317786
 30
0.0
 11
5.340766255363909
 21
0.7227869858944542
 31
0.0
  0
LINE
  5
607
330
57A
100
AcDbEntity
  8
AM_5
 62
     0
370
    -2
100
AcDbLine
 10
5.340766255363909
 20
0.7227869858944542
 30
0.0
 11
5.153266255363909
 21
0.7227869858944543
 31
0.0
  0
SOLID
  5
608
330
57A
100
AcDbEntity
  8
AM_5
 62
     0
100
AcDbTrace
 10
5.309516255363909
 20
1.695349140417787
 30
0.0
 11
5.372016255363909
 21
1.695349140417787
 31
0.0
 12
5.340766255363909
 22
1.882849140417787
 32
0.0
 13
5.340766255363909
 23
1.882849140417787
 33
0.0
  0
SOLID
  5
609
330
57A
100
AcDbEntity
  8
AM_5
 62
     0
100
AcDbTrace
 10
5.309516255363909
 20
1.322317646317786
 30
0.0
 11
5.372016255363909
 21
1.322317646317786
 31
0.0
 12
5.340766255363909
 22
1.134817646317786
 32
0.0
 13
5.340766255363909
 23
1.134817646317786
 33
0.0
  0
MTEXT
  5
60A
330
57A
100
AcDbEntity
  8
AM_5
 62
     0
100
AcDbMText
 10
4.511182922030576
 20
0.7227869858944552
 30
0.0
 40
0.15625
 41
0.0
 71
     5
 72
     1
  1
\A1;0.75 [19.00]
 73
     1
 44
1.0
  0
POINT
  5
60B
330
57A
100
AcDbEntity
  8
Defpoints
 62
     0
100
AcDbPoint
 10
4.440081158726216
 20
1.882849140417787
 30
0.0
  0
POINT
  5
60C
330
57A
100
AcDbEntity
  8
Defpoints
 62
     0
100
AcDbPoint
 10
4.440081157100001
 20
1.134817646317786
 30
0.0
  0
POINT
  5
60D
330
57A
100
AcDbEntity
  8
Defpoints
 62
     0
100
AcDbPoint
 10
5.340766255363909
 20
1.134817646317786
 30
0.0
  0
ENDBLK
  5
587
330
57A
100
AcDbEntity
  8
0
100
AcDbBlockEnd
  0
BLOCK
  5
5BF
330
5B4
100
AcDbEntity
  8
0
100
AcDbBlockBegin
  2
*D4
 70
     1
 10
0.0
 20
0.0
 30
0.0
  3
*D4
  1

  0
LINE
  5
5F9
330
5B4
100
AcDbEntity
  8
AM_5
 62
     0
370
    -2
100
AcDbLine
 10
1.808014661731798
 20
7.235993856743215
 30
0.0
 11
1.808014661731798
 21
7.865243856743216
 31
0.0
  0
LINE
  5
5FA
330
5B4
100
AcDbEntity
  8
AM_5
 62
     0
370
    -2
100
AcDbLine
 10
4.465419152631797
 20
7.235993856743215
 30
0.0
 11
4.465419152631797
 21
7.865243856743216
 31
0.0
  0
LINE
  5
5FB
330
5B4
100
AcDbEntity
  8
AM_5
 62
     0
370
    -2
100
AcDbLine
 10
1.995514661731798
 20
7.667243856743215
 30
0.0
 11
2.452966907181798
 21
7.667243856743215
 31
0.0
  0
LINE
  5
5FC
330
5B4
100
AcDbEntity
  8
AM_5
 62
     0
370
    -2
100
AcDbLine
 10
4.277919152631797
 20
7.667243856743215
 30
0.0
 11
3.820466907181797
 21
7.667243856743215
 31
0.0
  0
SOLID
  5
5FD
330
5B4
100
AcDbEntity
  8
AM_5
 62
     0
100
AcDbTrace
 10
1.995514661731798
 20
7.698493856743215
 30
0.0
 11
1.995514661731798
 21
7.635993856743215
 31
0.0
 12
1.808014661731798
 22
7.667243856743215
 32
0.0
 13
1.808014661731798
 23
7.667243856743215
 33
0.0
  0
SOLID
  5
5FE
330
5B4
100
AcDbEntity
  8
AM_5
 62
     0
100
AcDbTrace
 10
4.277919152631797
 20
7.698493856743215
 30
0.0
 11
4.277919152631797
 21
7.635993856743215
 31
0.0
 12
4.465419152631797
 22
7.667243856743215
 32
0.0
 13
4.465419152631797
 23
7.667243856743215
 33
0.0
  0
MTEXT
  5
5FF
330
5B4
100
AcDbEntity
  8
AM_5
 62
     0
100
AcDbMText
 10
3.136716907181797
 20
7.667243856743215
 30
0.0
 40
0.15625
 41
0.0
 71
     5
 72
     1
  1
\A1;2.66 [67.50]
 73
     1
 44
1.0
  0
POINT
  5
600
330
5B4
100
AcDbEntity
  8
Defpoints
 62
     0
100
AcDbPoint
 10
1.808014661731798
 20
7.167243856743215
 30
0.0
  0
POINT
  5
601
330
5B4
100
AcDbEntity
  8
Defpoints
 62
     0
100
AcDbPoint
 10
4.465419152631797
 20
7.167243856743215
 30
0.0
  0
POINT
  5
602
330
5B4
100
AcDbEntity
  8
Defpoints
 62
     0
100
AcDbPoint
 10
4.465419152631797
 20
7.667243856743215
 30
0.0
  0
ENDBLK
  5
5C0
330
5B4
100
AcDbEntity
  8
0
100
AcDbBlockEnd
  0
ENDSEC
  0
SECTION
  2
ENTITIES
  0
LINE
  5
203
330
200
100
AcDbEntity
  8
0
  6
Continuous
 62
     7
100
AcDbLine
 10
0.0
 20
0.0
 30
0.0
 11
0.0
 21
8.5
 31
0.0
  0
LINE
  5
204
330
200
100
AcDbEntity
  8
0
  6
Continuous
 62
     7
100
AcDbLine
 10
0.0
 20
0.0
 30
0.0
 11
11.0
 21
0.0
 31
0.0
  0
LINE
  5
205
330
200
100
AcDbEntity
  8
0
  6
Continuous
 62
     7
100
AcDbLine
 10
0.0
 20
8.5
 30
0.0
 11
11.0
 21
8.5
 31
0.0
  0
LINE
  5
206
330
200
100
AcDbEntity
  8
0
  6
Continuous
 62
     7
100
AcDbLine
 10
11.0
 20
0.0
 30
0.0
 11
11.0
 21
8.5
 31
0.0
  0
LINE
  5
207
330
200
100
AcDbEntity
  8
0
  6
Continuous
 62
     7
100
AcDbLine
 10
8.0431317038
 20
3.6914467255
 30
0.0
 11
7.5420675983
 21
3.9807727172
 31
0.0
  0
LINE
  5
208
330
200
100
AcDbEntity
  8
0
  6
Continuous
 62
     7
100
AcDbLine
 10
7.603306649299999
 20
3.987198922599999
 30
0.0
 11
7.981890531499999
 21
3.7685958418
 31
0.0
  0
LINE
  5
209
330
200
100
AcDbEntity
  8
0
  6
Continuous
 62
     7
100
AcDbLine
 10
8.1946697873
 20
6.3087879734
 30
0.0
 11
8.0361080622
 21
6.2172457708
 31
0.0
  0
LINE
  5
20A
330
200
100
AcDbEntity
  8
0
  6
Continuous
 62
     7
100
AcDbLine
 10
7.553198283899999
 20
4.0547053107
 30
0.0
 11
7.6033046946
 21
4.0257727114
 31
0.0
  0
LINE
  5
20B
330
200
100
AcDbEntity
  8
0
  6
Continuous
 62
     7
100
AcDbLine
 10
7.981888576799999
 20
3.807169630699999
 30
0.0
 11
8.0319928736
 21
3.778238251999999
 31
0.0
  0
LINE
  5
20C
330
200
100
AcDbEntity
  8
0
  6
Continuous
 62
     7
100
AcDbLine
 10
8.317152124199999
 20
6.2380638421
 30
0.0
 11
8.158590399099999
 21
6.1465216395
 31
0.0
  0
LINE
  5
20D
330
200
100
AcDbEntity
  8
0
  6
Continuous
 62
     7
100
AcDbLine
 10
8.031978129
 20
4.0692039831
 30
0.0
 11
7.944349063799999
 21
4.119803029999999
 31
0.0
  0
LINE
  5
20E
330
200
100
AcDbEntity
  8
0
  6
Continuous
 62
     7
100
AcDbLine
 10
7.5281483364
 20
4.004881962299999
 30
0.0
 11
7.528070640499999
 21
5.538113298999999
 31
0.0
  0
LINE
  5
20F
330
200
100
AcDbEntity
  8
0
  6
Continuous
 62
     7
100
AcDbLine
 10
7.5531254708
 20
5.491578944099999
 30
0.0
 11
7.553198283899999
 21
4.0547053107
 31
0.0
  0
LINE
  5
210
330
200
100
AcDbEntity
  8
0
  6
Continuous
 62
     7
100
AcDbLine
 10
7.595623747599999
 20
5.531250457399999
 30
0.0
 11
7.5956221138
 21
5.5634932682
 31
0.0
  0
LINE
  5
211
330
200
100
AcDbEntity
  8
0
  6
Continuous
 62
     7
100
AcDbLine
 10
7.597740443099999
 20
4.0547050096
 30
0.0
 11
7.5976689334
 21
5.4658585196
 31
0.0
  0
LINE
  5
212
330
200
100
AcDbEntity
  8
0
  6
Continuous
 62
     7
100
AcDbLine
 10
7.6033046946
 20
4.0257727114
 30
0.0
 11
7.603306649299999
 21
3.987198922599999
 31
0.0
  0
LINE
  5
213
330
200
100
AcDbEntity
  8
0
  6
Continuous
 62
     7
100
AcDbLine
 10
7.532146846499999
 20
5.5471243708
 30
0.0
 11
8.036127276
 21
5.838086635099999
 31
0.0
  0
LINE
  5
214
330
200
100
AcDbEntity
  8
0
  6
Continuous
 62
     7
100
AcDbLine
 10
8.317164170899999
 20
6.000337243599999
 30
0.0
 11
8.349274835099999
 21
6.018875645099999
 31
0.0
  0
LINE
  5
215
330
200
100
AcDbEntity
  8
0
  6
Continuous
 62
     7
100
AcDbLine
 10
8.359114965899999
 20
6.017899403899999
 30
0.0
 11
8.317164508300001
 21
5.993680209199999
 31
0.0
  0
LINE
  5
216
330
200
100
AcDbEntity
  8
0
  6
Continuous
 62
     7
100
AcDbLine
 10
8.036127613299999
 20
5.8314296008
 30
0.0
 11
7.5419882734
 21
5.546148877899999
 31
0.0
  0
LINE
  5
217
330
200
100
AcDbEntity
  8
0
  6
Continuous
 62
     7
100
AcDbLine
 10
8.440590907799998
 20
6.051296614299999
 30
0.0
 11
8.317165199499999
 21
5.980039435499999
 31
0.0
  0
LINE
  5
218
330
200
100
AcDbEntity
  8
0
  6
Continuous
 62
     7
100
AcDbLine
 10
8.0361283046
 20
5.8177888271
 30
0.0
 11
7.5956221149
 21
5.563472050199999
 31
0.0
  0
LINE
  5
219
330
200
100
AcDbEntity
  8
0
  6
Continuous
 62
     7
100
AcDbLine
 10
7.5817061148
 20
5.5232148786
 30
0.0
 11
7.5956239783
 21
5.531250057799999
 31
0.0
  0
LINE
  5
21A
330
200
100
AcDbEntity
  8
0
  6
Continuous
 62
     7
100
AcDbLine
 10
8.4823462499
 20
6.027186115
 30
0.0
 11
8.317167642799999
 21
5.931823797899999
 31
0.0
  0
LINE
  5
21B
330
200
100
AcDbEntity
  8
0
  6
Continuous
 62
     7
100
AcDbLine
 10
8.036130747899999
 20
5.7695731894
 30
0.0
 11
7.6373774569
 21
5.5393615509
 31
0.0
  0
LINE
  5
21C
330
200
100
AcDbEntity
  8
0
  6
Continuous
 62
     7
100
AcDbLine
 10
7.6373790899
 20
5.507137769899999
 30
0.0
 11
8.036132380799999
 21
5.7373494084
 31
0.0
  0
LINE
  5
21D
330
200
100
AcDbEntity
  8
0
  6
Continuous
 62
     7
100
AcDbLine
 10
8.317169275700001
 20
5.8996000169
 30
0.0
 11
8.482347882799999
 21
5.994962333999999
 31
0.0
  0
LINE
  5
21E
330
200
100
AcDbEntity
  8
0
  6
Continuous
 62
     7
100
AcDbLine
 10
7.553198283899999
 20
4.0547053107
 30
0.0
 11
7.597740443099999
 21
4.0547050096
 31
0.0
  0
LINE
  5
21F
330
200
100
AcDbEntity
  8
0
  6
Continuous
 62
     7
100
AcDbLine
 10
8.15447379
 20
4.131755500699999
 30
0.0
 11
8.1628258275
 21
4.1269328412
 31
0.0
  0
LINE
  5
220
330
200
100
AcDbEntity
  8
0
  6
Continuous
 62
     7
100
AcDbLine
 10
7.6373774559
 20
5.539382768899999
 30
0.0
 11
7.6373790899
 21
5.507137769899999
 31
0.0
  0
LINE
  5
221
330
200
100
AcDbEntity
  8
0
  6
Continuous
 62
     7
100
AcDbLine
 10
7.653402341799999
 20
4.3665063999
 30
0.0
 11
7.653403645
 21
4.340790540699999
 31
0.0
  0
LINE
  5
222
330
200
100
AcDbEntity
  8
0
  6
Continuous
 62
     7
100
AcDbLine
 10
7.675602470599999
 20
5.468994764999999
 30
0.0
 11
7.675604909899999
 21
5.420856485999999
 31
0.0
  0
LINE
  5
223
330
200
100
AcDbEntity
  8
0
  6
Continuous
 62
     7
100
AcDbLine
 10
7.720148436499999
 20
5.4465801708
 30
0.0
 11
7.720147846599999
 21
5.4690013757
 31
0.0
  0
LINE
  5
224
330
200
100
AcDbEntity
  8
0
  6
Continuous
 62
     7
100
AcDbLine
 10
8.4962671446
 20
5.9708530889
 30
0.0
 11
8.317170904600001
 21
5.8674557257
 31
0.0
  0
LINE
  5
225
330
200
100
AcDbEntity
  8
0
  6
Continuous
 62
     7
100
AcDbLine
 10
8.036134009699999
 20
5.7052051172
 30
0.0
 11
7.651298351699999
 21
5.483028524799999
 31
0.0
  0
LINE
  5
226
330
200
100
AcDbEntity
  8
0
  6
Continuous
 62
     7
100
AcDbLine
 10
8.036136734099999
 20
5.651443512899999
 30
0.0
 11
7.720118395499999
 21
5.4689971201
 31
0.0
  0
LINE
  5
227
330
200
100
AcDbEntity
  8
0
  6
Continuous
 62
     7
100
AcDbLine
 10
8.036137382999999
 20
5.638637872999999
 30
0.0
 11
8.008302117099999
 21
5.6225677808
 31
0.0
  0
LINE
  5
228
330
200
100
AcDbEntity
  8
0
  6
Continuous
 62
     7
100
AcDbLine
 10
7.675610533999999
 20
5.420856386699999
 30
0.0
 11
8.007035662099999
 21
5.6122179169
 31
0.0
  0
LINE
  5
229
330
200
100
AcDbEntity
  8
0
  6
Continuous
 62
     7
100
AcDbLine
 10
8.154465957899999
 20
4.318198278099999
 30
0.0
 11
8.1823060831
 21
4.302122746499999
 31
0.0
  0
LINE
  5
22A
330
200
100
AcDbEntity
  8
0
  6
Continuous
 62
     7
100
AcDbLine
 10
8.031957981299999
 20
4.4667933442
 30
0.0
 11
7.895183929999999
 21
4.5457698417
 31
0.0
  0
LINE
  5
22B
330
200
100
AcDbEntity
  8
0
  6
Continuous
 62
     7
100
AcDbLine
 10
8.398081004799999
 20
4.2627523594
 30
0.0
 11
8.3563208171
 21
4.286865656699999
 31
0.0
  0
LINE
  5
22C
330
200
100
AcDbEntity
  8
0
  6
Continuous
 62
     7
100
AcDbLine
 10
7.8886608079
 20
4.560186740199999
 30
0.0
 11
8.031957441599999
 21
4.477443953099999
 31
0.0
  0
LINE
  5
22D
330
200
100
AcDbEntity
  8
0
  6
Continuous
 62
     7
100
AcDbLine
 10
7.8886608079
 20
4.560186740199999
 30
0.0
 11
7.888610961399999
 21
5.543844009899999
 31
0.0
  0
LINE
  5
22E
330
200
100
AcDbEntity
  8
0
  6
Continuous
 62
     7
100
AcDbLine
 10
7.9094347857
 20
5.285837758899999
 30
0.0
 11
7.909435963099999
 21
5.359705971999999
 31
0.0
  0
LINE
  5
22F
330
200
100
AcDbEntity
  8
0
  6
Continuous
 62
     7
100
AcDbLine
 10
8.1586213488
 20
5.5357699833
 30
0.0
 11
8.353506979299998
 21
5.648283011699999
 31
0.0
  0
LINE
  5
230
330
200
100
AcDbEntity
  8
0
  6
Continuous
 62
     7
100
AcDbLine
 10
8.4217197373
 20
5.655473354099999
 30
0.0
 11
7.909436143899999
 21
5.359700338699999
 31
0.0
  0
LINE
  5
231
330
200
100
AcDbEntity
  8
0
  6
Continuous
 62
     7
100
AcDbLine
 10
8.792627166299999
 20
5.8480784403
 30
0.0
 11
7.9476583734
 21
5.360253876199999
 31
0.0
  0
LINE
  5
232
330
200
100
AcDbEntity
  8
0
  6
Continuous
 62
     7
100
AcDbLine
 10
7.933742376199999
 20
5.319938818399999
 30
0.0
 11
7.9476602398
 21
5.3279739978
 31
0.0
  0
LINE
  5
233
330
200
100
AcDbEntity
  8
0
  6
Continuous
 62
     7
100
AcDbLine
 10
8.834382511299999
 20
5.823912243799999
 30
0.0
 11
7.9894137183
 21
5.3360876798
 31
0.0
  0
LINE
  5
234
330
200
100
AcDbEntity
  8
0
  6
Continuous
 62
     7
100
AcDbLine
 10
8.356311490700001
 20
4.4025810272
 30
0.0
 11
8.3145547644
 21
4.426692325799999
 31
0.0
  0
LINE
  5
235
330
200
100
AcDbEntity
  8
0
  6
Continuous
 62
     7
100
AcDbLine
 10
7.944356882899999
 20
4.1840969419
 30
0.0
 11
7.9443578602
 21
4.164810047499999
 31
0.0
  0
LINE
  5
236
330
200
100
AcDbEntity
  8
0
  6
Continuous
 62
     7
100
AcDbLine
 10
7.947660009099999
 20
5.3279743973
 30
0.0
 11
7.9476583746
 21
5.360230006
 31
0.0
  0
LINE
  5
237
330
200
100
AcDbEntity
  8
0
  6
Continuous
 62
     7
100
AcDbLine
 10
7.981890531499999
 20
3.7685958418
 30
0.0
 11
7.981888576799999
 21
3.807169630699999
 31
0.0
  0
LINE
  5
238
330
200
100
AcDbEntity
  8
0
  6
Continuous
 62
     7
100
AcDbLine
 10
7.989413716699999
 20
5.3361195067
 30
0.0
 11
7.989415351099999
 21
5.303866086
 31
0.0
  0
LINE
  5
239
330
200
100
AcDbEntity
  8
0
  6
Continuous
 62
     7
100
AcDbLine
 10
8.0319928736
 20
3.778238251999999
 30
0.0
 11
8.031920060499999
 21
5.2151119312
 31
0.0
  0
LINE
  5
23A
330
200
100
AcDbEntity
  8
0
  6
Continuous
 62
     7
100
AcDbLine
 10
8.036139011799999
 20
5.6064941146
 30
0.0
 11
8.0361080622
 21
6.2172457708
 31
0.0
  0
LINE
  5
23B
330
200
100
AcDbEntity
  8
0
  6
Continuous
 62
     7
100
AcDbLine
 10
7.989415351199999
 20
5.303866086
 30
0.0
 11
8.834384144099999
 21
5.791690650099999
 31
0.0
  0
LINE
  5
23C
330
200
100
AcDbEntity
  8
0
  6
Continuous
 62
     7
100
AcDbLine
 10
8.848303405900001
 20
5.7675814049
 30
0.0
 11
8.003334612999999
 21
5.279756840899999
 31
0.0
  0
LINE
  5
23D
330
200
100
AcDbEntity
  8
0
  6
Continuous
 62
     7
100
AcDbLine
 10
8.043052379
 20
5.256822885
 30
0.0
 11
8.860179071299999
 21
5.7285734109
 31
0.0
  0
LINE
  5
23E
330
200
100
AcDbEntity
  8
0
  6
Continuous
 62
     7
100
AcDbLine
 10
8.0569716408
 20
5.2327136399
 30
0.0
 11
8.0570493367
 21
3.6994823044
 31
0.0
  0
LINE
  5
23F
330
200
100
AcDbEntity
  8
0
  6
Continuous
 62
     7
100
AcDbLine
 10
8.8740996317
 20
5.704464915499999
 30
0.0
 11
8.0569716408
 21
5.2327136399
 31
0.0
  0
LINE
  5
240
330
200
100
AcDbEntity
  8
0
  6
Continuous
 62
     7
100
AcDbLine
 10
8.398026272899999
 20
5.342818446199999
 30
0.0
 11
8.1627710956
 21
5.206998928099999
 31
0.0
  0
LINE
  5
241
330
200
100
AcDbEntity
  8
0
  6
Continuous
 62
     7
100
AcDbLine
 10
8.154419342899998
 20
5.1925334939
 30
0.0
 11
8.154419668699999
 21
5.1861045291
 31
0.0
  0
LINE
  5
242
330
200
100
AcDbEntity
  8
0
  6
Continuous
 62
     7
100
AcDbLine
 10
8.1544287907
 20
5.006093514699999
 30
0.0
 11
8.154429116499999
 21
4.9996645499
 31
0.0
  0
LINE
  5
243
330
200
100
AcDbEntity
  8
0
  6
Continuous
 62
     7
100
AcDbLine
 10
8.154463323999999
 20
4.324623245599999
 30
0.0
 11
8.1544636498
 21
4.3181942808
 31
0.0
  0
LINE
  5
244
330
200
100
AcDbEntity
  8
0
  6
Continuous
 62
     7
100
AcDbLine
 10
8.1544727718
 20
4.138183266299999
 30
0.0
 11
8.1544730975
 21
4.1317543015
 31
0.0
  0
LINE
  5
245
330
200
100
AcDbEntity
  8
0
  6
Continuous
 62
     7
100
AcDbLine
 10
8.1586213488
 20
5.5357699833
 30
0.0
 11
8.158590399099999
 21
6.1465216395
 31
0.0
  0
LINE
  5
246
330
200
100
AcDbEntity
  8
0
  6
Continuous
 62
     7
100
AcDbLine
 10
8.182262102000001
 20
5.170032994899999
 30
0.0
 11
8.3562675097
 21
5.2704912755
 31
0.0
  0
LINE
  5
247
330
200
100
AcDbEntity
  8
0
  6
Continuous
 62
     7
100
AcDbLine
 10
8.932036574599999
 20
5.584581624199999
 30
0.0
 11
8.949648052
 21
5.594749232
 31
0.0
  0
LINE
  5
248
330
200
100
AcDbEntity
  8
0
  6
Continuous
 62
     7
100
AcDbLine
 10
8.317152124199999
 20
6.2380638421
 30
0.0
 11
8.3171830738
 21
5.6273121859
 31
0.0
  0
LINE
  5
249
330
200
100
AcDbEntity
  8
0
  6
Continuous
 62
     7
100
AcDbLine
 10
8.3507063209
 20
5.315499289399999
 30
0.0
 11
8.350708438999999
 21
5.273701211399999
 31
0.0
  0
LINE
  5
24A
330
200
100
AcDbEntity
  8
0
  6
Continuous
 62
     7
100
AcDbLine
 10
8.350750301899999
 20
4.4475890411
 30
0.0
 11
8.350752419999999
 21
4.4057909631
 31
0.0
  0
LINE
  5
24B
330
200
100
AcDbEntity
  8
0
  6
Continuous
 62
     7
100
AcDbLine
 10
8.3562675097
 20
5.2704912755
 30
0.0
 11
8.3562733738
 21
5.1547699091
 31
0.0
  0
LINE
  5
24C
330
200
100
AcDbEntity
  8
0
  6
Continuous
 62
     7
100
AcDbLine
 10
8.356311490700001
 20
4.4025810272
 30
0.0
 11
8.356317354899999
 21
4.2868596608
 31
0.0
  0
LINE
  5
24D
330
200
100
AcDbEntity
  8
0
  6
Continuous
 62
     7
100
AcDbLine
 10
8.3562733738
 20
5.1547699091
 30
0.0
 11
8.182267966199999
 21
5.054311628399999
 31
0.0
  0
LINE
  5
24E
330
200
100
AcDbEntity
  8
0
  6
Continuous
 62
     7
100
AcDbLine
 10
8.162781846499999
 20
4.994843089599999
 30
0.0
 11
8.3980370238
 21
5.130662607699999
 31
0.0
  0
LINE
  5
24F
330
200
100
AcDbEntity
  8
0
  6
Continuous
 62
     7
100
AcDbLine
 10
8.154429808899999
 20
4.999665749
 30
0.0
 11
8.162781846499999
 21
4.994843089599999
 31
0.0
  0
LINE
  5
250
330
200
100
AcDbEntity
  8
0
  6
Continuous
 62
     7
100
AcDbLine
 10
8.398081004799999
 20
4.2627523594
 30
0.0
 11
8.3980702539
 21
4.4749081979
 31
0.0
  0
LINE
  5
251
330
200
100
AcDbEntity
  8
0
  6
Continuous
 62
     7
100
AcDbLine
 10
8.3980370238
 20
5.130662607699999
 30
0.0
 11
8.398026272899999
 21
5.342818446199999
 31
0.0
  0
LINE
  5
252
330
200
100
AcDbEntity
  8
0
  6
Continuous
 62
     7
100
AcDbLine
 10
8.8913368341
 20
5.3223332231
 30
0.0
 11
9.1052861365
 21
5.445852252599999
 31
0.0
  0
LINE
  5
253
330
200
100
AcDbEntity
  8
0
  6
Continuous
 62
     7
100
AcDbLine
 10
9.1191202084
 20
5.421674958699999
 30
0.0
 11
8.8741211296
 21
5.2802300085
 31
0.0
  0
LINE
  5
254
330
200
100
AcDbEntity
  8
0
  6
Continuous
 62
     7
100
AcDbLine
 10
7.675604909899999
 20
5.420856485999999
 30
0.0
 11
7.5531254708
 21
5.491578944099999
 31
0.0
  0
LINE
  5
255
330
200
100
AcDbEntity
  8
0
  6
Continuous
 62
     7
100
AcDbLine
 10
8.031920060499999
 20
5.2151119312
 30
0.0
 11
7.9094347857
 21
5.285837758899999
 31
0.0
  0
LINE
  5
256
330
200
100
AcDbEntity
  8
0
  6
Continuous
 62
     7
100
AcDbLine
 10
8.1544219768
 20
5.186108526399999
 30
0.0
 11
8.182262102000001
 21
5.170032994899999
 31
0.0
  0
LINE
  5
257
330
200
100
AcDbEntity
  8
0
  6
Continuous
 62
     7
100
AcDbLine
 10
8.482347882799999
 20
5.994962333999999
 30
0.0
 11
8.4823462476
 21
6.0272312032
 31
0.0
  0
LINE
  5
258
330
200
100
AcDbEntity
  8
0
  6
Continuous
 62
     7
100
AcDbLine
 10
8.4881130833
 20
6.030459486599999
 30
0.0
 11
8.488114474699999
 21
6.0030001647
 31
0.0
  0
LINE
  5
259
330
200
100
AcDbEntity
  8
0
  6
Continuous
 62
     7
100
AcDbLine
 10
7.9017059748
 20
4.5420038623
 30
0.0
 11
7.5977246427
 21
4.366506776399999
 31
0.0
  0
LINE
  5
25A
330
200
100
AcDbEntity
  8
0
  6
Continuous
 62
     7
100
AcDbLine
 10
7.9094323463
 20
5.3339759914
 30
0.0
 11
7.933742376399999
 21
5.319938818399999
 31
0.0
  0
LINE
  5
25B
330
200
100
AcDbEntity
  8
0
  6
Continuous
 62
     7
100
AcDbLine
 10
7.651298351799999
 20
5.483028524699999
 30
0.0
 11
7.675602470599999
 21
5.468994764999999
 31
0.0
  0
LINE
  5
25C
330
200
100
AcDbEntity
  8
0
  6
Continuous
 62
     7
100
AcDbLine
 10
8.003334613199999
 20
5.2797568407
 30
0.0
 11
8.0430523786
 21
5.2568228852
 31
0.0
  0
LINE
  5
25D
330
200
100
AcDbEntity
  8
0
  6
Continuous
 62
     7
100
AcDbLine
 10
7.5419882732
 20
5.546148877999999
 30
0.0
 11
7.581706115
 21
5.5232148784
 31
0.0
  0
LINE
  5
25E
330
200
100
AcDbEntity
  8
0
  6
Continuous
 62
     7
100
AcDbLine
 10
7.5956221138
 20
5.5634932682
 30
0.0
 11
7.6373774559
 21
5.539382768899999
 31
0.0
  0
LINE
  5
25F
330
200
100
AcDbEntity
  8
0
  6
Continuous
 62
     7
100
AcDbLine
 10
7.9476583746
 20
5.360230006
 30
0.0
 11
7.989413716699999
 21
5.3361195067
 31
0.0
  0
LINE
  5
260
330
200
100
AcDbEntity
  8
0
  6
Continuous
 62
     7
100
AcDbLine
 10
8.356276836000001
 20
5.154775905
 30
0.0
 11
8.3980370238
 21
5.130662607699999
 31
0.0
  0
LINE
  5
261
330
200
100
AcDbEntity
  8
0
  6
Continuous
 62
     7
100
AcDbLine
 10
7.9295428696
 20
4.5259301961
 30
0.0
 11
7.653402341799999
 21
4.3665063999
 31
0.0
  0
LINE
  5
262
330
200
100
AcDbEntity
  8
0
  6
Continuous
 62
     7
100
AcDbLine
 10
9.1814333457
 20
5.231432437699999
 30
0.0
 11
9.1364321606
 21
5.2054519711
 31
0.0
  0
LINE
  5
263
330
200
100
AcDbEntity
  8
0
  6
Continuous
 62
     7
100
AcDbLine
 10
7.653403645
 20
4.340790540699999
 30
0.0
 11
7.9518131236
 21
4.513070836799999
 31
0.0
  0
LINE
  5
264
330
200
100
AcDbEntity
  8
0
  6
Continuous
 62
     7
100
AcDbLine
 10
8.3562675097
 20
5.2704912755
 30
0.0
 11
8.314510783300001
 21
5.2946025741
 31
0.0
  0
LINE
  5
265
330
200
100
AcDbEntity
  8
0
  6
Continuous
 62
     7
100
AcDbLine
 10
9.136353016299999
 20
5.126257521
 30
0.0
 11
9.3503023187
 21
5.2497765504
 31
0.0
  0
LINE
  5
266
330
200
100
AcDbEntity
  8
0
  6
Continuous
 62
     7
100
AcDbLine
 10
9.3641363879
 20
5.225599254899999
 30
0.0
 11
9.119137312199999
 21
5.084154306499999
 31
0.0
  0
LINE
  5
267
330
200
100
AcDbEntity
  8
0
  6
Continuous
 62
     7
100
AcDbLine
 10
8.008302117099999
 20
5.6225677808
 30
0.0
 11
8.036139011799999
 21
5.6064941146
 31
0.0
  0
LINE
  5
268
330
200
100
AcDbEntity
  8
0
  6
Continuous
 62
     7
100
AcDbLine
 10
8.1586213488
 20
5.5357699833
 30
0.0
 11
8.1864582435
 21
5.5196963171
 31
0.0
  0
LINE
  5
269
330
200
100
AcDbEntity
  8
0
  6
Continuous
 62
     7
100
AcDbLine
 10
8.834384144099999
 20
5.791690650099999
 30
0.0
 11
8.834382511299999
 21
5.823912243799999
 31
0.0
  0
LINE
  5
26A
330
200
100
AcDbEntity
  8
0
  6
Continuous
 62
     7
100
AcDbLine
 10
8.8401493443
 20
5.8271928946
 30
0.0
 11
8.8401507361
 21
5.7997284808
 31
0.0
  0
LINE
  5
26B
330
200
100
AcDbEntity
  8
0
  6
Continuous
 62
     7
100
AcDbLine
 10
8.8741211296
 20
5.2802300085
 30
0.0
 11
8.8740996317
 21
5.704464915499999
 31
0.0
  0
LINE
  5
26C
330
200
100
AcDbEntity
  8
0
  6
Continuous
 62
     7
100
AcDbLine
 10
8.8914201074
 20
5.320047854599999
 30
0.0
 11
8.891399405199999
 21
5.7285784061
 31
0.0
  0
LINE
  5
26D
330
200
100
AcDbEntity
  8
0
  6
Continuous
 62
     7
100
AcDbLine
 10
7.597740443099999
 20
4.0547050096
 30
0.0
 11
8.031966160099999
 21
4.305395890499999
 31
0.0
  0
LINE
  5
26E
330
200
100
AcDbEntity
  8
0
  6
Continuous
 62
     7
100
AcDbLine
 10
8.031967788899999
 20
4.273252131999999
 30
0.0
 11
7.6033046944
 21
4.0257727115
 31
0.0
  0
LINE
  5
26F
330
200
100
AcDbEntity
  8
0
  6
Continuous
 62
     7
100
AcDbLine
 10
8.3980702539
 20
4.4749081979
 30
0.0
 11
8.162815076599999
 21
4.3390886797
 31
0.0
  0
LINE
  5
270
330
200
100
AcDbEntity
  8
0
  6
Continuous
 62
     7
100
AcDbLine
 10
7.944356882899999
 20
4.1840969419
 30
0.0
 11
7.6033043021
 21
3.9871975677
 31
0.0
  0
LINE
  5
271
330
200
100
AcDbEntity
  8
0
  6
Continuous
 62
     7
100
AcDbLine
 10
7.944356014099999
 20
4.1648089817
 30
0.0
 11
8.031970721
 21
4.2153914488
 31
0.0
  0
LINE
  5
272
330
200
100
AcDbEntity
  8
0
  6
Continuous
 62
     7
100
AcDbLine
 10
8.1823060831
 20
4.302122746499999
 30
0.0
 11
8.356311490700001
 21
4.4025810272
 31
0.0
  0
LINE
  5
273
330
200
100
AcDbEntity
  8
0
  6
Continuous
 62
     7
100
AcDbLine
 10
7.720118395499999
 20
5.4689971201
 30
0.0
 11
7.6756040982
 21
5.4689938251
 31
0.0
  0
LINE
  5
274
330
200
100
AcDbEntity
  8
0
  6
Continuous
 62
     7
100
AcDbLine
 10
8.402306778499999
 20
5.6442650519
 30
0.0
 11
8.317179724199998
 21
5.6934137723
 31
0.0
  0
LINE
  5
275
330
200
100
AcDbEntity
  8
0
  6
Continuous
 62
     7
100
AcDbLine
 10
8.381343874099998
 20
5.632209345499999
 30
0.0
 11
8.3171809482
 21
5.669258501399999
 31
0.0
  0
LINE
  5
276
330
200
100
AcDbEntity
  8
0
  6
Continuous
 62
     7
100
AcDbLine
 10
8.356317354899999
 20
4.2868596608
 30
0.0
 11
8.1823119472
 21
4.186401380099999
 31
0.0
  0
LINE
  5
277
330
200
100
AcDbEntity
  8
0
  6
Continuous
 62
     7
100
AcDbLine
 10
8.1628258275
 20
4.1269328412
 30
0.0
 11
8.398081004799999
 21
4.2627523594
 31
0.0
  0
LINE
  5
278
330
200
100
AcDbEntity
  8
0
  6
Continuous
 62
     7
100
AcDbLine
 10
8.4217323016
 20
5.6554692477
 30
0.0
 11
8.317178587699999
 21
5.7158409782
 31
0.0
  0
LINE
  5
279
330
200
100
AcDbEntity
  8
0
  6
Continuous
 62
     7
100
AcDbLine
 10
9.119137312199999
 20
5.084154306499999
 30
0.0
 11
9.1191202084
 21
5.421674958699999
 31
0.0
  0
LINE
  5
27A
330
200
100
AcDbEntity
  8
0
  6
Continuous
 62
     7
100
AcDbLine
 10
9.1364362896
 20
5.1239721524
 30
0.0
 11
9.136419981599999
 21
5.445788449
 31
0.0
  0
LINE
  5
27B
330
200
100
AcDbEntity
  8
0
  6
Continuous
 62
     7
100
AcDbLine
 10
9.350219739799999
 20
5.2818562043
 30
0.0
 11
9.222205623099998
 21
5.355774513
 31
0.0
  0
LINE
  5
27C
330
200
100
AcDbEntity
  8
0
  6
Continuous
 62
     7
100
AcDbLine
 10
9.223566709299999
 20
5.361647691199999
 30
0.0
 11
9.3600653011
 21
5.282830250499999
 31
0.0
  0
LINE
  5
27D
330
200
100
AcDbEntity
  8
0
  6
Continuous
 62
     7
100
AcDbLine
 10
9.105203557599999
 20
5.477931906499999
 30
0.0
 11
8.8914058508
 21
5.6013836422
 31
0.0
  0
LINE
  5
27E
330
200
100
AcDbEntity
  8
0
  6
Continuous
 62
     7
100
AcDbLine
 10
8.8914055133
 20
5.608042937799999
 30
0.0
 11
9.1150491189
 21
5.478905952699999
 31
0.0
  0
LINE
  5
27F
330
200
100
AcDbEntity
  8
0
  6
Continuous
 62
     7
100
AcDbLine
 10
7.981886463099999
 20
3.8071708512
 30
0.0
 11
8.031989941599999
 21
3.8360970172
 31
0.0
  0
LINE
  5
280
330
200
100
AcDbEntity
  8
0
  6
Continuous
 62
     7
100
AcDbLine
 10
8.0361080622
 20
6.2172457708
 30
0.0
 11
8.158590399099999
 21
6.1465216395
 31
0.0
  0
LINE
  5
281
330
200
100
AcDbEntity
  8
0
  6
Continuous
 62
     7
100
AcDbLine
 10
8.7507562775
 20
5.823905182999999
 30
0.0
 11
8.4962671446
 21
5.9708530889
 31
0.0
  0
LINE
  5
282
330
200
100
AcDbEntity
  8
0
  6
Continuous
 62
     7
100
AcDbLine
 10
8.860182981299999
 20
5.760721863599999
 30
0.0
 11
8.848303405900001
 21
5.7675814049
 31
0.0
  0
LINE
  5
283
330
200
100
AcDbEntity
  8
0
  6
Continuous
 62
     7
100
AcDbLine
 10
8.50611141
 20
5.9718278834
 30
0.0
 11
8.756522972899999
 21
5.827234460599999
 31
0.0
  0
LINE
  5
284
330
200
100
AcDbEntity
  8
0
  6
Continuous
 62
     7
100
AcDbLine
 10
8.858147671299999
 20
5.7685561994
 30
0.0
 11
8.8700285425
 21
5.7616959098
 31
0.0
  0
LINE
  5
285
330
200
100
AcDbEntity
  8
0
  6
Continuous
 62
     7
100
AcDbLine
 10
9.3641754822
 20
4.4541234786
 30
0.0
 11
9.3641363879
 21
5.225599254899999
 31
0.0
  0
LINE
  5
286
330
200
100
AcDbEntity
  8
0
  6
Continuous
 62
     7
100
AcDbLine
 10
9.3814752581
 20
4.4782369705
 30
0.0
 11
9.3814361638
 21
5.2497127468
 31
0.0
  0
LINE
  5
287
330
200
100
AcDbEntity
  8
0
  6
Continuous
 62
     7
100
AcDbLine
 10
8.0570493367
 20
3.6994823044
 30
0.0
 11
9.3641754822
 21
4.4541234786
 31
0.0
  0
LINE
  5
288
330
200
100
AcDbEntity
  8
0
  6
Continuous
 62
     7
100
AcDbLine
 10
8.052973130699999
 20
3.690471232599999
 30
0.0
 11
9.360099276099999
 21
4.445112406899999
 31
0.0
  0
LINE
  5
289
330
200
100
AcDbEntity
  8
0
  6
Continuous
 62
     7
100
AcDbLine
 10
8.834382511299999
 20
5.823912243799999
 30
0.0
 11
8.792627169099999
 21
5.8480227432
 31
0.0
  0
LINE
  5
28A
330
200
100
AcDbEntity
  8
0
  6
Continuous
 62
     7
100
AcDbLine
 10
8.4823462499
 20
6.027186115
 30
0.0
 11
8.440590907799998
 21
6.051296614299999
 31
0.0
  0
LINE
  5
28B
330
200
100
AcDbEntity
  8
0
  6
Continuous
 62
     7
100
AcDbLine
 10
8.454554579299999
 20
6.0498927685
 30
0.0
 11
8.488064711099999
 21
6.030543244099999
 31
0.0
  0
LINE
  5
28C
330
200
100
AcDbEntity
  8
0
  6
Continuous
 62
     7
100
AcDbLine
 10
8.8065896871
 20
5.846619563399999
 30
0.0
 11
8.840107343899999
 21
5.827265693999999
 31
0.0
  0
LINE
  5
28D
330
200
100
AcDbEntity
  8
0
  6
Continuous
 62
     7
100
AcDbLine
 10
8.1946697873
 20
6.3087879734
 30
0.0
 11
8.317152124199999
 21
6.2380638421
 31
0.0
  0
LINE
  5
28E
330
200
100
AcDbEntity
  8
0
  6
Continuous
 62
     7
100
AcDbLine
 10
4.459766198000002
 20
1.863164101117787
 30
0.0
 11
4.459766196500002
 21
1.154502685717786
 31
0.0
  0
LINE
  5
28F
330
200
100
AcDbEntity
  8
0
  6
Continuous
 62
     7
100
AcDbLine
 10
4.408585094400001
 20
1.241116858917786
 30
0.0
 11
4.408585095500001
 21
1.776552917517786
 31
0.0
  0
LINE
  5
290
330
200
100
AcDbEntity
  8
0
  6
Continuous
 62
     7
100
AcDbLine
 10
4.341548959400002
 20
1.201882807017787
 30
0.0
 11
4.3415489608
 21
1.816056033617787
 31
0.0
  0
LINE
  5
291
330
200
100
AcDbEntity
  8
0
  6
Continuous
 62
     7
100
AcDbLine
 10
4.361341001300001
 20
1.847416069417786
 30
0.0
 11
4.361340999800001
 21
1.170250717017786
 31
0.0
  0
LINE
  5
292
330
200
100
AcDbEntity
  8
0
  6
Continuous
 62
     7
100
AcDbLine
 10
4.010949163100001
 20
1.201749121917786
 30
0.0
 11
4.0109468597
 21
1.241122129017786
 31
0.0
  0
LINE
  5
293
330
200
100
AcDbEntity
  8
0
  6
Continuous
 62
     7
100
AcDbLine
 10
3.979450796700001
 20
1.241122128917786
 30
0.0
 11
3.979453100200002
 21
1.201749121817786
 31
0.0
  0
LINE
  5
294
330
200
100
AcDbEntity
  8
0
  6
Continuous
 62
     7
100
AcDbLine
 10
3.967616853800001
 20
1.804146706417786
 30
0.0
 11
3.967616852500001
 21
1.213595527017786
 31
0.0
  0
LINE
  5
295
330
200
100
AcDbEntity
  8
0
  6
Continuous
 62
     7
100
AcDbLine
 10
3.951881887400001
 20
1.804144706917786
 30
0.0
 11
3.951881887500001
 21
1.816056032817787
 31
0.0
  0
LINE
  5
296
330
200
100
AcDbEntity
  8
0
  6
Continuous
 62
     7
100
AcDbLine
 10
3.936122632400001
 20
1.213593184317786
 30
0.0
 11
3.936122633700001
 21
1.804144363717787
 31
0.0
  0
LINE
  5
297
330
200
100
AcDbEntity
  8
0
  6
Continuous
 62
     7
100
AcDbLine
 10
3.932281562100001
 20
1.780515267717786
 30
0.0
 11
3.932286630000001
 21
1.815941895917786
 31
0.0
  0
LINE
  5
298
330
200
100
AcDbEntity
  8
0
  6
Continuous
 62
     7
100
AcDbLine
 10
3.839596602100001
 20
1.201866992217786
 30
0.0
 11
3.839596602100001
 21
1.213593184017786
 31
0.0
  0
LINE
  5
299
330
200
100
AcDbEntity
  8
0
  6
Continuous
 62
     7
100
AcDbLine
 10
3.770779525600001
 20
1.816056032417787
 30
0.0
 11
3.770779525500001
 21
1.804144363417787
 31
0.0
  0
LINE
  5
29A
330
200
100
AcDbEntity
  8
0
  6
Continuous
 62
     7
100
AcDbLine
 10
3.790554346800001
 20
1.815941895617786
 30
0.0
 11
3.7905492787
 21
1.780515267517786
 31
0.0
  0
LINE
  5
29B
330
200
100
AcDbEntity
  8
0
  6
Continuous
 62
     7
100
AcDbLine
 10
3.6821162873
 20
1.201866992017786
 30
0.0
 11
3.6821162873
 21
1.213593183717786
 31
0.0
  0
LINE
  5
29C
330
200
100
AcDbEntity
  8
0
  6
Continuous
 62
     7
100
AcDbLine
 10
2.601498211900001
 20
1.343479330917786
 30
0.0
 11
2.570000600800001
 21
1.374975645417786
 31
0.0
  0
LINE
  5
29D
330
200
100
AcDbEntity
  8
0
  6
Continuous
 62
     7
100
AcDbLine
 10
4.440081157100001
 20
1.134817646417786
 30
0.0
 11
2.562222428500001
 21
1.134817642317786
 31
0.0
  0
LINE
  5
29E
330
200
100
AcDbEntity
  8
0
  6
Continuous
 62
     7
100
AcDbLine
 10
3.554180096700001
 20
1.201841221117787
 30
0.0
 11
3.554180096800001
 21
1.213655559717786
 31
0.0
  0
LINE
  5
29F
330
200
100
AcDbEntity
  8
0
  6
Continuous
 62
     7
100
AcDbLine
 10
3.554167658700001
 20
1.804222552917786
 30
0.0
 11
3.554167658800001
 21
1.816030261417786
 31
0.0
  0
LINE
  5
2A0
330
200
100
AcDbEntity
  8
0
  6
Continuous
 62
     7
100
AcDbLine
 10
3.506936002200001
 20
1.201841221017786
 30
0.0
 11
3.506936002200001
 21
1.213593183317787
 31
0.0
  0
LINE
  5
2A1
330
200
100
AcDbEntity
  8
0
  6
Continuous
 62
     7
100
AcDbLine
 10
2.601498483100001
 20
1.170250713117786
 30
0.0
 11
4.361340999800001
 21
1.170250717017786
 31
0.0
  0
LINE
  5
2A2
330
200
100
AcDbEntity
  8
0
  6
Continuous
 62
     7
100
AcDbLine
 10
4.361339157000001
 20
1.201749122617786
 30
0.0
 11
2.601496640400001
 21
1.201749118817787
 31
0.0
  0
LINE
  5
2A3
330
200
100
AcDbEntity
  8
0
  6
Continuous
 62
     7
100
AcDbLine
 10
3.967616835700001
 20
1.213595527017786
 30
0.0
 11
2.6093509811
 21
1.213593181417786
 31
0.0
  0
LINE
  5
2A4
330
200
100
AcDbEntity
  8
0
  6
Continuous
 62
     7
100
AcDbLine
 10
2.522852350200002
 20
1.230361175217787
 30
0.0
 11
2.483362260100001
 21
1.230361175117786
 31
0.0
  0
LINE
  5
2A5
330
200
100
AcDbEntity
  8
0
  6
Continuous
 62
     7
100
AcDbLine
 10
4.361341000000001
 20
1.241116858817786
 30
0.0
 11
4.408585094400001
 21
1.241116858917786
 31
0.0
  0
LINE
  5
2A6
330
200
100
AcDbEntity
  8
0
  6
Continuous
 62
     7
100
AcDbLine
 10
3.979450796700001
 20
1.241122128917786
 30
0.0
 11
4.0109468597
 21
1.241122129017786
 31
0.0
  0
LINE
  5
2A7
330
200
100
AcDbEntity
  8
0
  6
Continuous
 62
     7
100
AcDbLine
 10
3.426227342500001
 20
1.816014447217787
 30
0.0
 11
3.426227342400001
 21
1.804144362617786
 31
0.0
  0
LINE
  5
2A8
330
200
100
AcDbEntity
  8
0
  6
Continuous
 62
     7
100
AcDbLine
 10
2.483362260200002
 20
1.289416293117787
 30
0.0
 11
2.522855030400001
 21
1.289416293117787
 31
0.0
  0
LINE
  5
2A9
330
200
100
AcDbEntity
  8
0
  6
Continuous
 62
     7
100
AcDbLine
 10
2.542540069900001
 20
1.343474960717786
 30
0.0
 11
2.601498483500001
 21
1.343474960817786
 31
0.0
  0
LINE
  5
2AA
330
200
100
AcDbEntity
  8
0
  6
Continuous
 62
     7
100
AcDbLine
 10
2.569990210800001
 20
1.374975668517786
 30
0.0
 11
2.542529734400001
 21
1.374975668517786
 31
0.0
  0
LINE
  5
2AB
330
200
100
AcDbEntity
  8
0
  6
Continuous
 62
     7
100
AcDbLine
 10
4.361251276
 20
1.398711236817786
 30
0.0
 11
4.408585094700001
 21
1.398711236917786
 31
0.0
  0
LINE
  5
2AC
330
200
100
AcDbEntity
  8
0
  6
Continuous
 62
     7
100
AcDbLine
 10
2.550295863500001
 20
1.422254598017786
 30
0.0
 11
1.802264368800001
 21
1.422254596417786
 31
0.0
  0
LINE
  5
2AD
330
200
100
AcDbEntity
  8
0
  6
Continuous
 62
     7
100
AcDbLine
 10
3.268747027700002
 20
1.804144362317786
 30
0.0
 11
3.268747027700002
 21
1.816014447217787
 31
0.0
  0
LINE
  5
2AE
330
200
100
AcDbEntity
  8
0
  6
Continuous
 62
     7
100
AcDbLine
 10
3.140814543500001
 20
1.804180967817787
 30
0.0
 11
3.140814543500001
 21
1.815988676317786
 31
0.0
  0
LINE
  5
2AF
330
200
100
AcDbEntity
  8
0
  6
Continuous
 62
     7
100
AcDbLine
 10
3.140802102800001
 20
1.201831263417786
 30
0.0
 11
3.140802102900001
 21
1.213645602017786
 31
0.0
  0
LINE
  5
2B0
330
200
100
AcDbEntity
  8
0
  6
Continuous
 62
     7
100
AcDbLine
 10
2.550295863900001
 20
1.595482944017787
 30
0.0
 11
1.802264369100001
 21
1.595482942317786
 31
0.0
  0
LINE
  5
2B1
330
200
100
AcDbEntity
  8
0
  6
Continuous
 62
     7
100
AcDbLine
 10
3.093570449300001
 20
1.804144361917787
 30
0.0
 11
3.093570449300001
 21
1.815988676317786
 31
0.0
  0
LINE
  5
2B2
330
200
100
AcDbEntity
  8
0
  6
Continuous
 62
     7
100
AcDbLine
 10
4.408585095200001
 20
1.619183676917786
 30
0.0
 11
4.361251276500002
 21
1.619183676817786
 31
0.0
  0
LINE
  5
2B3
330
200
100
AcDbEntity
  8
0
  6
Continuous
 62
     7
100
AcDbLine
 10
2.542528037300001
 20
1.642692202317786
 30
0.0
 11
2.569991882300001
 21
1.642692202417786
 31
0.0
  0
LINE
  5
2B4
330
200
100
AcDbEntity
  8
0
  6
Continuous
 62
     7
100
AcDbLine
 10
2.601498428100001
 20
1.674183564417786
 30
0.0
 11
2.5425400714
 21
1.674183564317786
 31
0.0
  0
LINE
  5
2B5
330
200
100
AcDbEntity
  8
0
  6
Continuous
 62
     7
100
AcDbLine
 10
3.014833996700001
 20
1.213593182317787
 30
0.0
 11
3.014833996700001
 21
1.201815449317786
 31
0.0
  0
LINE
  5
2B6
330
200
100
AcDbEntity
  8
0
  6
Continuous
 62
     7
100
AcDbLine
 10
2.522855032200001
 20
1.728250591917786
 30
0.0
 11
2.4833492676
 21
1.728250591817786
 31
0.0
  0
LINE
  5
2B7
330
200
100
AcDbEntity
  8
0
  6
Continuous
 62
     7
100
AcDbLine
 10
4.408585095500001
 20
1.776552917517786
 30
0.0
 11
4.361341001100001
 21
1.776552917417786
 31
0.0
  0
LINE
  5
2B8
330
200
100
AcDbEntity
  8
0
  6
Continuous
 62
     7
100
AcDbLine
 10
3.932281562000001
 20
1.780515267817786
 30
0.0
 11
3.7905492789
 21
1.780515267417786
 31
0.0
  0
LINE
  5
2B9
330
200
100
AcDbEntity
  8
0
  6
Continuous
 62
     7
100
AcDbLine
 10
2.869289437800002
 20
1.780515265417786
 30
0.0
 11
2.727557154700001
 21
1.780515265117786
 31
0.0
  0
LINE
  5
2BA
330
200
100
AcDbEntity
  8
0
  6
Continuous
 62
     7
100
AcDbLine
 10
2.483349267700001
 20
1.787305709817786
 30
0.0
 11
2.5228523526
 21
1.787305709817786
 31
0.0
  0
LINE
  5
2BB
330
200
100
AcDbEntity
  8
0
  6
Continuous
 62
     7
100
AcDbLine
 10
2.888930306200001
 20
1.804144361417787
 30
0.0
 11
2.888930306200001
 21
1.816004489517786
 31
0.0
  0
LINE
  5
2BC
330
200
100
AcDbEntity
  8
0
  6
Continuous
 62
     7
100
AcDbLine
 10
2.857353681800001
 20
1.201815449317786
 30
0.0
 11
2.857353681800001
 21
1.213593181917786
 31
0.0
  0
LINE
  5
2BD
330
200
100
AcDbEntity
  8
0
  6
Continuous
 62
     7
100
AcDbLine
 10
2.869289438000001
 20
1.780515265317786
 30
0.0
 11
2.869294505800001
 21
1.815941893617786
 31
0.0
  0
LINE
  5
2BE
330
200
100
AcDbEntity
  8
0
  6
Continuous
 62
     7
100
AcDbLine
 10
2.6093509824
 20
1.804144360817787
 30
0.0
 11
2.7275605349
 21
1.804144361117787
 31
0.0
  0
LINE
  5
2BF
330
200
100
AcDbEntity
  8
0
  6
Continuous
 62
     7
100
AcDbLine
 10
2.869292818200001
 20
1.804144361417787
 30
0.0
 11
3.790552659000001
 21
1.804144363417787
 31
0.0
  0
LINE
  5
2C0
330
200
100
AcDbEntity
  8
0
  6
Continuous
 62
     7
100
AcDbLine
 10
3.932284942300001
 20
1.804144363717787
 30
0.0
 11
3.967616836900001
 21
1.804146706417786
 31
0.0
  0
LINE
  5
2C1
330
200
100
AcDbEntity
  8
0
  6
Continuous
 62
     7
100
AcDbLine
 10
2.601496641700002
 20
1.815922345417786
 30
0.0
 11
4.361339158400001
 21
1.815922349317786
 31
0.0
  0
LINE
  5
2C2
330
200
100
AcDbEntity
  8
0
  6
Continuous
 62
     7
100
AcDbLine
 10
4.361341001300001
 20
1.847416069417786
 30
0.0
 11
2.601498428500001
 21
1.847416065617786
 31
0.0
  0
LINE
  5
2C3
330
200
100
AcDbEntity
  8
0
  6
Continuous
 62
     7
100
AcDbLine
 10
2.562222431700001
 20
1.882849136317786
 30
0.0
 11
4.440081158700001
 21
1.882849140317786
 31
0.0
  0
LINE
  5
2C4
330
200
100
AcDbEntity
  8
0
  6
Continuous
 62
     7
100
AcDbLine
 10
2.707827944300001
 20
1.816004489117786
 30
0.0
 11
2.707827944300001
 21
1.804144361017787
 31
0.0
  0
LINE
  5
2C5
330
200
100
AcDbEntity
  8
0
  6
Continuous
 62
     7
100
AcDbLine
 10
2.7275622226
 20
1.815941893317786
 30
0.0
 11
2.727557154600001
 21
1.780515265217786
 31
0.0
  0
LINE
  5
2C6
330
200
100
AcDbEntity
  8
0
  6
Continuous
 62
     7
100
AcDbLine
 10
2.621117065700001
 20
1.816004488917786
 30
0.0
 11
2.621117065700001
 21
1.804144360917787
 31
0.0
  0
LINE
  5
2C7
330
200
100
AcDbEntity
  8
0
  6
Continuous
 62
     7
100
AcDbLine
 10
2.621117064400001
 20
1.213593181417786
 30
0.0
 11
2.621117064400001
 21
1.201831262317786
 31
0.0
  0
LINE
  5
2C8
330
200
100
AcDbEntity
  8
0
  6
Continuous
 62
     7
100
AcDbLine
 10
2.6093509824
 20
1.804144360817787
 30
0.0
 11
2.609350982100001
 21
1.693908140717786
 31
0.0
  0
LINE
  5
2C9
330
200
100
AcDbEntity
  8
0
  6
Continuous
 62
     7
100
AcDbLine
 10
2.6093509813
 20
1.323829401517786
 30
0.0
 11
2.6093509811
 21
1.213593181417786
 31
0.0
  0
LINE
  5
2CA
330
200
100
AcDbEntity
  8
0
  6
Continuous
 62
     7
100
AcDbLine
 10
2.601498483100001
 20
1.170250713117786
 30
0.0
 11
2.601452409300001
 21
1.353312742517786
 31
0.0
  0
LINE
  5
2CB
330
200
100
AcDbEntity
  8
0
  6
Continuous
 62
     7
100
AcDbLine
 10
2.601452409900001
 20
1.664425427817787
 30
0.0
 11
2.601498428500001
 21
1.847416065617786
 31
0.0
  0
LINE
  5
2CC
330
200
100
AcDbEntity
  8
0
  6
Continuous
 62
     7
100
AcDbLine
 10
2.569961208100001
 20
1.642708236717787
 30
0.0
 11
2.569961208100001
 21
1.638677343917787
 31
0.0
  0
LINE
  5
2CD
330
200
100
AcDbEntity
  8
0
  6
Continuous
 62
     7
100
AcDbLine
 10
2.569961207900001
 20
1.379060231717787
 30
0.0
 11
2.569961207900001
 21
1.374988009717786
 31
0.0
  0
LINE
  5
2CE
330
200
100
AcDbEntity
  8
0
  6
Continuous
 62
     7
100
AcDbLine
 10
2.5700013401
 20
1.642692964017786
 30
0.0
 11
2.601496828000001
 21
1.674186062917787
 31
0.0
  0
LINE
  5
2CF
330
200
100
AcDbEntity
  8
0
  6
Continuous
 62
     7
100
AcDbLine
 10
2.550295863500001
 20
1.382884519417786
 30
0.0
 11
2.550295863500001
 21
1.422254598017786
 31
0.0
  0
LINE
  5
2D0
330
200
100
AcDbEntity
  8
0
  6
Continuous
 62
     7
100
AcDbLine
 10
2.550295863900001
 20
1.595482944017787
 30
0.0
 11
2.550295864000001
 21
1.634853022617786
 31
0.0
  0
LINE
  5
2D1
330
200
100
AcDbEntity
  8
0
  6
Continuous
 62
     7
100
AcDbLine
 10
2.542537389300001
 20
1.154502681317786
 30
0.0
 11
2.542537389400001
 21
1.210676136317786
 31
0.0
  0
LINE
  5
2D2
330
200
100
AcDbEntity
  8
0
  6
Continuous
 62
     7
100
AcDbLine
 10
2.542537392100001
 20
1.806990749517787
 30
0.0
 11
2.542537392200001
 21
1.863164096517786
 31
0.0
  0
LINE
  5
2D3
330
200
100
AcDbEntity
  8
0
  6
Continuous
 62
     7
100
AcDbLine
 10
2.542495838600001
 20
1.422254598017786
 30
0.0
 11
2.542540069800001
 21
1.309101332717786
 31
0.0
  0
LINE
  5
2D4
330
200
100
AcDbEntity
  8
0
  6
Continuous
 62
     7
100
AcDbLine
 10
2.483362260100001
 20
1.230361175117786
 30
0.0
 11
2.483362260200002
 21
1.289416293117787
 31
0.0
  0
LINE
  5
2D5
330
200
100
AcDbEntity
  8
0
  6
Continuous
 62
     7
100
AcDbLine
 10
2.4833492676
 20
1.728250591817786
 30
0.0
 11
2.483349267700001
 21
1.787305709817786
 31
0.0
  0
LINE
  5
2D6
330
200
100
AcDbEntity
  8
0
  6
Continuous
 62
     7
100
AcDbLine
 10
2.542540071500001
 20
1.708565552817786
 30
0.0
 11
2.542495839300002
 21
1.595482943917787
 31
0.0
  0
LINE
  5
2D7
330
200
100
AcDbEntity
  8
0
  6
Continuous
 62
     7
100
AcDbLine
 10
1.802264368800001
 20
1.422254596417786
 30
0.0
 11
1.802264369100001
 21
1.595482942317786
 31
0.0
  0
LINE
  5
30A
330
200
100
AcDbEntity
  8
0
  6
Continuous
 62
     7
100
AcDbLine
 10
4.4596557402
 20
5.149651181871284
 30
0.0
 11
4.459766198100001
 21
3.261807057171285
 31
0.0
  0
LINE
  5
30B
330
200
100
AcDbEntity
  8
0
  6
Continuous
 62
     7
100
AcDbLine
 10
4.4400811588
 20
3.261804441171284
 30
0.0
 11
4.439969550400001
 21
5.169289678171284
 31
0.0
  0
LINE
  5
30C
102
{ACAD_REACTORS
330
53E
102
}
330
200
100
AcDbEntity
  8
0
  6
Continuous
 62
     7
100
AcDbLine
 10
2.483349267800001
 20
3.261697057971284
 30
0.0
 11
4.459766198100001
 21
3.261807057171285
 31
0.0
  0
LINE
  5
30D
330
200
100
AcDbEntity
  8
0
  6
Continuous
 62
     7
100
AcDbLine
 10
2.6803272852
 20
3.399496751971285
 30
0.0
 11
2.688201300900001
 21
3.399497212671285
 31
0.0
  0
LINE
  5
30E
330
200
100
AcDbEntity
  8
0
  6
Continuous
 62
     7
100
AcDbLine
 10
2.9086737415
 20
3.399510112671285
 30
0.0
 11
2.9165477572
 21
3.399510573471284
 31
0.0
  0
LINE
  5
30F
330
200
100
AcDbEntity
  8
0
  6
Continuous
 62
     7
100
AcDbLine
 10
3.743319409400001
 20
3.399558948471284
 30
0.0
 11
3.7511934251
 21
3.399559409171285
 31
0.0
  0
LINE
  5
310
330
200
100
AcDbEntity
  8
0
  6
Continuous
 62
     7
100
AcDbLine
 10
3.971665865700001
 20
3.399572309271285
 30
0.0
 11
3.9795398814
 21
3.399572769971284
 31
0.0
  0
LINE
  5
311
330
200
100
AcDbEntity
  8
0
  6
Continuous
 62
     7
100
AcDbLine
 10
3.9913502139
 20
3.411384484571285
 30
0.0
 11
3.991330748700001
 21
3.744062186371285
 31
0.0
  0
LINE
  5
312
330
200
100
AcDbEntity
  8
0
  6
Continuous
 62
     7
100
AcDbLine
 10
3.9794267272
 20
3.744061489871285
 30
0.0
 11
3.9794468835
 21
3.399572764471285
 31
0.0
  0
LINE
  5
313
330
200
100
AcDbEntity
  8
0
  6
Continuous
 62
     7
100
AcDbLine
 10
3.977366308300001
 20
5.314961479271284
 30
0.0
 11
3.9773748315
 21
5.169292188571285
 31
0.0
  0
LINE
  5
314
330
200
100
AcDbEntity
  8
0
  6
Continuous
 62
     7
100
AcDbLine
 10
3.9676157024
 20
3.744060798771284
 30
0.0
 11
3.9676168538
 21
3.724381616171284
 31
0.0
  0
LINE
  5
315
330
200
100
AcDbEntity
  8
0
  6
Continuous
 62
     7
100
AcDbLine
 10
3.932279086000001
 20
3.685003613171284
 30
0.0
 11
3.932293483400001
 21
3.438940084271284
 31
0.0
  0
LINE
  5
316
330
200
100
AcDbEntity
  8
0
  6
Continuous
 62
     7
100
AcDbLine
 10
3.9183070439
 20
5.385824165371284
 30
0.0
 11
3.918310038500001
 21
5.334643063171284
 31
0.0
  0
LINE
  5
317
330
200
100
AcDbEntity
  8
0
  6
Continuous
 62
     7
100
AcDbLine
 10
2.7275546786
 20
3.684933123771284
 30
0.0
 11
2.869286961900001
 21
3.684941416571285
 31
0.0
  0
LINE
  5
318
330
200
100
AcDbEntity
  8
0
  6
Continuous
 62
     7
100
AcDbLine
 10
3.790546802800001
 20
3.684995320271285
 30
0.0
 11
3.932279086000001
 21
3.685003613171284
 31
0.0
  0
LINE
  5
319
330
200
100
AcDbEntity
  8
0
  6
Continuous
 62
     7
100
AcDbLine
 10
2.6684990996
 20
3.692809540771285
 30
0.0
 11
2.928341618800001
 21
3.692824744371284
 31
0.0
  0
LINE
  5
31A
330
200
100
AcDbEntity
  8
0
  6
Continuous
 62
     7
100
AcDbLine
 10
3.7314912237
 20
3.692871737271285
 30
0.0
 11
3.936122633800001
 21
3.692883710471285
 31
0.0
  0
LINE
  5
31B
330
200
100
AcDbEntity
  8
0
  6
Continuous
 62
     7
100
AcDbLine
 10
2.4833630236
 20
3.692814229171284
 30
0.0
 11
1.802264369200001
 21
3.692774377471284
 31
0.0
  0
LINE
  5
31C
330
200
100
AcDbEntity
  8
0
  6
Continuous
 62
     7
100
AcDbLine
 10
3.991330748700001
 20
3.744062186371285
 30
0.0
 11
3.7314882294
 21
3.744046982771285
 31
0.0
  0
LINE
  5
31D
330
200
100
AcDbEntity
  8
0
  6
Continuous
 62
     7
100
AcDbLine
 10
2.928338624500001
 20
3.743999989871285
 30
0.0
 11
2.668496105300001
 21
3.743984786271284
 31
0.0
  0
LINE
  5
31E
330
200
100
AcDbEntity
  8
0
  6
Continuous
 62
     7
100
AcDbLine
 10
3.7905612002
 20
3.438931791371285
 30
0.0
 11
3.790546802800001
 21
3.684995320271285
 31
0.0
  0
LINE
  5
31F
330
200
100
AcDbEntity
  8
0
  6
Continuous
 62
     7
100
AcDbLine
 10
3.760829724500001
 20
5.334622135071285
 30
0.0
 11
3.7608267299
 21
5.385803237171284
 31
0.0
  0
LINE
  5
320
330
200
100
AcDbEntity
  8
0
  6
Continuous
 62
     7
100
AcDbLine
 10
3.7314882294
 20
3.744046982771285
 30
0.0
 11
3.731507694700001
 21
3.411369280971285
 31
0.0
  0
LINE
  5
321
330
200
100
AcDbEntity
  8
0
  6
Continuous
 62
     7
100
AcDbLine
 10
3.603346414500001
 20
5.385805736771284
 30
0.0
 11
3.603349409100001
 21
5.334624634571284
 31
0.0
  0
LINE
  5
322
330
200
100
AcDbEntity
  8
0
  6
Continuous
 62
     7
100
AcDbLine
 10
1.802251249700001
 20
3.916998774571284
 30
0.0
 11
2.483349904
 21
3.917038626171284
 31
0.0
  0
LINE
  5
323
330
200
100
AcDbEntity
  8
0
  6
Continuous
 62
     7
100
AcDbLine
 10
3.544303966100001
 20
5.169266849271284
 30
0.0
 11
3.544295442900001
 21
5.314936139971284
 31
0.0
  0
LINE
  5
324
330
200
100
AcDbEntity
  8
0
  6
Continuous
 62
     7
100
AcDbLine
 10
3.495087662300001
 20
5.169234392371285
 30
0.0
 11
3.495111389200001
 21
4.763718194271284
 31
0.0
  0
LINE
  5
325
330
200
100
AcDbEntity
  8
0
  6
Continuous
 62
     7
100
AcDbLine
 10
3.475423769300001
 20
4.807821500471284
 30
0.0
 11
3.475403774700001
 21
5.149548201471284
 31
0.0
  0
LINE
  5
326
330
200
100
AcDbEntity
  8
0
  6
Continuous
 62
     7
100
AcDbLine
 10
3.189977153800001
 20
5.039312558071284
 30
0.0
 11
3.189980148500001
 21
4.988131455971284
 31
0.0
  0
LINE
  5
327
330
200
100
AcDbEntity
  8
0
  6
Continuous
 62
     7
100
AcDbLine
 10
3.130934705500001
 20
4.822773670571284
 30
0.0
 11
3.1309261823
 21
4.968442961271284
 31
0.0
  0
LINE
  5
328
330
200
100
AcDbEntity
  8
0
  6
Continuous
 62
     7
100
AcDbLine
 10
3.081745834600001
 20
4.417237314871284
 30
0.0
 11
2.5424697824
 21
4.417207222271284
 31
0.0
  0
LINE
  5
329
330
200
100
AcDbEntity
  8
0
  6
Continuous
 62
     7
100
AcDbLine
 10
2.5424674786
 20
4.456581479171284
 30
0.0
 11
2.483318335
 21
4.456579482571284
 31
0.0
  0
LINE
  5
32A
330
200
100
AcDbEntity
  8
0
  6
Continuous
 62
     7
100
AcDbLine
 10
3.0817221077
 20
4.822753513471284
 30
0.0
 11
3.081745834600001
 21
4.417237314871284
 31
0.0
  0
LINE
  5
32B
330
200
100
AcDbEntity
  8
0
  6
Continuous
 62
     7
100
AcDbLine
 10
3.062058214700001
 20
4.461340621571284
 30
0.0
 11
3.0620382201
 21
4.803067322471284
 31
0.0
  0
LINE
  5
32C
330
200
100
AcDbEntity
  8
0
  6
Continuous
 62
     7
100
AcDbLine
 10
2.503002222500001
 20
4.476267137871284
 30
0.0
 11
3.0620573398
 21
4.476295670271285
 31
0.0
  0
LINE
  5
32D
330
200
100
AcDbEntity
  8
0
  6
Continuous
 62
     7
100
AcDbLine
 10
2.9283580898
 20
3.411322288071284
 30
0.0
 11
2.928338624500001
 21
3.743999989871285
 31
0.0
  0
LINE
  5
32E
330
200
100
AcDbEntity
  8
0
  6
Continuous
 62
     7
100
AcDbLine
 10
2.7392167251
 20
4.641660688371284
 30
0.0
 11
3.062047664200001
 21
4.641668326471284
 31
0.0
  0
LINE
  5
32F
330
200
100
AcDbEntity
  8
0
  6
Continuous
 62
     7
100
AcDbLine
 10
3.0620485899
 20
4.621981438271284
 30
0.0
 11
2.7195328376
 21
4.621974497371284
 31
0.0
  0
LINE
  5
330
330
200
100
AcDbEntity
  8
0
  6
Continuous
 62
     7
100
AcDbLine
 10
2.869286961900001
 20
3.684941416571285
 30
0.0
 11
2.869301359200001
 21
3.438877887671285
 31
0.0
  0
LINE
  5
331
330
200
100
AcDbEntity
  8
0
  6
Continuous
 62
     7
100
AcDbLine
 10
2.778583809100001
 20
4.692844094071284
 30
0.0
 11
2.7785868038
 21
4.641662991971284
 31
0.0
  0
LINE
  5
332
330
200
100
AcDbEntity
  8
0
  6
Continuous
 62
     7
100
AcDbLine
 10
3.495111389200001
 20
4.763718194271284
 30
0.0
 11
3.0620405238
 21
4.763694315371284
 31
0.0
  0
LINE
  5
333
330
200
100
AcDbEntity
  8
0
  6
Continuous
 62
     7
100
AcDbLine
 10
2.798267696700001
 20
4.712530285171284
 30
0.0
 11
3.062043517400001
 21
4.712549871371284
 31
0.0
  0
LINE
  5
334
330
200
100
AcDbEntity
  8
0
  6
Continuous
 62
     7
100
AcDbLine
 10
3.0620446374
 20
4.692853650971284
 30
0.0
 11
2.778583809100001
 21
4.692844094071284
 31
0.0
  0
LINE
  5
335
330
200
100
AcDbEntity
  8
0
  6
Continuous
 62
     7
100
AcDbLine
 10
2.727569076
 20
3.438869594871285
 30
0.0
 11
2.7275546786
 21
3.684933123771284
 31
0.0
  0
LINE
  5
336
330
200
100
AcDbEntity
  8
0
  6
Continuous
 62
     7
100
AcDbLine
 10
2.7195413608
 20
4.476305206671284
 30
0.0
 11
2.7195328376
 21
4.621974497371284
 31
0.0
  0
LINE
  5
337
330
200
100
AcDbEntity
  8
0
  6
Continuous
 62
     7
100
AcDbLine
 10
2.668496105300001
 20
3.743984786271284
 30
0.0
 11
2.668515570500001
 21
3.411307084471285
 31
0.0
  0
LINE
  5
338
330
200
100
AcDbEntity
  8
0
  6
Continuous
 62
     7
100
AcDbLine
 10
3.0817221077
 20
4.822753513471284
 30
0.0
 11
3.475422894400001
 21
4.822776549171284
 31
0.0
  0
LINE
  5
339
330
200
100
AcDbEntity
  8
0
  6
Continuous
 62
     7
100
AcDbLine
 10
2.562151366300001
 20
4.476266420371284
 30
0.0
 11
2.562222431800001
 21
3.261694566071284
 31
0.0
  0
LINE
  5
33A
330
200
100
AcDbEntity
  8
0
  6
Continuous
 62
     7
100
AcDbLine
 10
3.1506100698
 20
4.988129152371284
 30
0.0
 11
3.475413219200001
 21
4.988137029671285
 31
0.0
  0
LINE
  5
33B
330
200
100
AcDbEntity
  8
0
  6
Continuous
 62
     7
100
AcDbLine
 10
3.475414138400001
 20
4.968450123771284
 30
0.0
 11
3.1309261823
 21
4.968442961271284
 31
0.0
  0
LINE
  5
33C
330
200
100
AcDbEntity
  8
0
  6
Continuous
 62
     7
100
AcDbLine
 10
2.5425373924
 20
3.261694878671284
 30
0.0
 11
2.5424674787
 21
4.456580229471285
 31
0.0
  0
LINE
  5
33D
330
200
100
AcDbEntity
  8
0
  6
Continuous
 62
     7
100
AcDbLine
 10
2.5228523527
 20
3.261699369371284
 30
0.0
 11
2.5227812872
 21
4.476268295171284
 31
0.0
  0
LINE
  5
33E
330
200
100
AcDbEntity
  8
0
  6
Continuous
 62
     7
100
AcDbLine
 10
2.483318335
 20
4.456579482571284
 30
0.0
 11
2.4833882486
 21
3.261697060271285
 31
0.0
  0
LINE
  5
33F
330
200
100
AcDbEntity
  8
0
  6
Continuous
 62
     7
100
AcDbLine
 10
3.4754090725
 20
5.059010494071285
 30
0.0
 11
3.2096615464
 21
5.058998749471284
 31
0.0
  0
LINE
  5
340
330
200
100
AcDbEntity
  8
0
  6
Continuous
 62
     7
100
AcDbLine
 10
4.4596580452
 20
5.110232783671284
 30
0.0
 11
3.4754060784
 21
5.110175194271284
 31
0.0
  0
LINE
  5
341
330
200
100
AcDbEntity
  8
0
  6
Continuous
 62
     7
100
AcDbLine
 10
3.475410142900001
 20
5.039322430271284
 30
0.0
 11
3.189977153800001
 21
5.039312558071284
 31
0.0
  0
LINE
  5
342
330
200
100
AcDbEntity
  8
0
  6
Continuous
 62
     7
100
AcDbLine
 10
3.211318130400001
 20
5.058997261571284
 30
0.0
 11
3.209667720300001
 21
5.058998751671284
 31
0.0
  0
LINE
  5
343
330
200
100
AcDbEntity
  8
0
  6
Continuous
 62
     7
100
AcDbLine
 10
3.495087662300001
 20
5.169234392371285
 30
0.0
 11
4.439969550400001
 21
5.169289678171284
 31
0.0
  0
LINE
  5
344
330
200
100
AcDbEntity
  8
0
  6
Continuous
 62
     7
100
AcDbLine
 10
3.544295442900001
 20
5.314936139971284
 30
0.0
 11
3.977366308300001
 21
5.314961479271284
 31
0.0
  0
LINE
  5
345
330
200
100
AcDbEntity
  8
0
  6
Continuous
 62
     7
100
AcDbLine
 10
3.957676570300001
 20
5.334645366571284
 30
0.0
 11
3.563979330500001
 21
5.334622331071285
 31
0.0
  0
LINE
  5
346
330
200
100
AcDbEntity
  8
0
  6
Continuous
 62
     7
100
AcDbLine
 10
3.563979330500001
 20
5.334622331071285
 30
0.0
 11
3.5683195389
 21
5.334619531871284
 31
0.0
  0
LINE
  5
347
330
200
100
AcDbEntity
  8
0
  6
Continuous
 62
     7
100
AcDbLine
 10
3.603346418800001
 20
5.385805739471284
 30
0.0
 11
3.9183070375
 21
5.385824168671285
 31
0.0
  0
LINE
  5
348
330
200
100
AcDbEntity
  8
0
  6
Continuous
 62
     7
100
AcDbLine
 10
3.653211797
 20
5.405487294371284
 30
0.0
 11
3.623032794100002
 21
5.405491924471284
 31
0.0
  0
LINE
  5
349
330
200
100
AcDbEntity
  8
0
  6
Continuous
 62
     7
100
AcDbLine
 10
3.8986179126
 20
5.405508052871284
 30
0.0
 11
3.6505969509
 21
5.405487449171284
 31
0.0
  0
LINE
  5
34A
330
200
100
AcDbEntity
  8
0
  6
Continuous
 62
     7
100
AcDbLine
 10
1.802251249700001
 20
3.916998774571284
 30
0.0
 11
1.802264369200001
 21
3.692774377471284
 31
0.0
  0
LINE
  5
34B
330
200
100
AcDbEntity
  8
0
  6
Continuous
 62
     7
100
AcDbLine
 10
1.808014661731798
 20
6.826581725946875
 30
0.0
 11
1.808014662131798
 21
6.653353379946874
 31
0.0
  0
LINE
  5
34C
330
200
100
AcDbEntity
  8
0
  6
Continuous
 62
     7
100
AcDbLine
 10
4.437855652531798
 20
6.472164483146874
 30
0.0
 11
4.465419153931797
 21
6.444603597746874
 31
0.0
  0
LINE
  5
34D
330
200
100
AcDbEntity
  8
0
  6
Continuous
 62
     7
100
AcDbLine
 10
2.489081747431798
 20
6.461458412146875
 30
0.0
 11
2.489081747331798
 21
6.520513530046875
 31
0.0
  0
LINE
  5
34E
330
200
100
AcDbEntity
  8
0
  6
Continuous
 62
     7
100
AcDbLine
 10
2.489081746431798
 20
6.959347828846874
 30
0.0
 11
2.489081746231798
 21
7.018402946746874
 31
0.0
  0
LINE
  5
34F
330
200
100
AcDbEntity
  8
0
  6
Continuous
 62
     7
100
AcDbLine
 10
2.508765633831798
 20
6.998716443146875
 30
0.0
 11
2.508765633931798
 21
6.979031403946875
 31
0.0
  0
LINE
  5
350
330
200
100
AcDbEntity
  8
0
  6
Continuous
 62
     7
100
AcDbLine
 10
2.508765634931798
 20
6.500827026546875
 30
0.0
 11
2.508765634931798
 21
6.481141987146875
 31
0.0
  0
LINE
  5
351
330
200
100
AcDbEntity
  8
0
  6
Continuous
 62
     7
100
AcDbLine
 10
2.528545851331798
 20
6.461458411946875
 30
0.0
 11
2.528544699631798
 21
6.481141987146875
 31
0.0
  0
LINE
  5
352
330
200
100
AcDbEntity
  8
0
  6
Continuous
 62
     7
100
AcDbLine
 10
2.528548529231798
 20
6.959347828746874
 30
0.0
 11
2.528547377531798
 21
6.979031403846875
 31
0.0
  0
LINE
  5
353
330
200
100
AcDbEntity
  8
0
  6
Continuous
 62
     7
100
AcDbLine
 10
2.548233194831798
 20
6.385602953346875
 30
0.0
 11
2.548230891031798
 21
6.441773372746874
 31
0.0
  0
LINE
  5
354
330
200
100
AcDbEntity
  8
0
  6
Continuous
 62
     7
100
AcDbLine
 10
2.548233570431798
 20
6.540198569346874
 30
0.0
 11
2.548233568731798
 21
6.939662789446875
 31
0.0
  0
LINE
  5
355
330
200
100
AcDbEntity
  8
0
  6
Continuous
 62
     7
100
AcDbLine
 10
2.567914778631798
 20
6.441770075346875
 30
0.0
 11
2.567918234031798
 21
6.365917913846875
 31
0.0
  0
LINE
  5
356
330
200
100
AcDbEntity
  8
0
  6
Continuous
 62
     7
100
AcDbLine
 10
2.567917456731798
 20
6.939659489146874
 30
0.0
 11
2.567917457631798
 21
6.540198935846874
 31
0.0
  0
LINE
  5
357
330
200
100
AcDbEntity
  8
0
  6
Continuous
 62
     7
100
AcDbLine
 10
2.528544697731798
 20
6.998716443146875
 30
0.0
 11
2.528545849431798
 21
7.018402946646874
 31
0.0
  0
LINE
  5
358
330
200
100
AcDbEntity
  8
0
  6
Continuous
 62
     7
100
AcDbLine
 10
2.528547379431798
 20
6.500827026546875
 30
0.0
 11
2.528548531131798
 21
6.520513530046875
 31
0.0
  0
LINE
  5
359
330
200
100
AcDbEntity
  8
0
  6
Continuous
 62
     7
100
AcDbLine
 10
2.567918231031798
 20
7.113949408046875
 30
0.0
 11
2.567914775931798
 21
7.038088354646875
 31
0.0
  0
LINE
  5
35A
330
200
100
AcDbEntity
  8
0
  6
Continuous
 62
     7
100
AcDbLine
 10
2.548230888431798
 20
7.038087985946875
 30
0.0
 11
2.548233191731798
 21
7.094264368746874
 31
0.0
  0
LINE
  5
35B
330
200
100
AcDbEntity
  8
0
  6
Continuous
 62
     7
100
AcDbLine
 10
2.567918231031798
 20
7.113949408046875
 30
0.0
 11
4.445736416731797
 21
7.113897863046874
 31
0.0
  0
LINE
  5
35C
330
200
100
AcDbEntity
  8
0
  6
Continuous
 62
     7
100
AcDbLine
 10
2.713586749531798
 20
6.511582811946874
 30
0.0
 11
2.713586749731798
 21
6.432842654746875
 31
0.0
  0
LINE
  5
35D
330
200
100
AcDbEntity
  8
0
  6
Continuous
 62
     7
100
AcDbLine
 10
2.733318091031798
 20
6.432842654646875
 30
0.0
 11
2.733318090931797
 21
6.444672326746875
 31
0.0
  0
LINE
  5
35E
330
200
100
AcDbEntity
  8
0
  6
Continuous
 62
     7
100
AcDbLine
 10
2.489081746231798
 20
7.018402946746874
 30
0.0
 11
2.528545849331798
 21
7.018402946646874
 31
0.0
  0
LINE
  5
35F
330
200
100
AcDbEntity
  8
0
  6
Continuous
 62
     7
100
AcDbLine
 10
4.437862240331797
 20
7.007597552546874
 30
0.0
 11
4.418173906531798
 21
7.007597552546874
 31
0.0
  0
LINE
  5
360
330
200
100
AcDbEntity
  8
0
  6
Continuous
 62
     7
100
AcDbLine
 10
4.465419152631797
 20
7.054839816546874
 30
0.0
 11
2.548230888331798
 21
7.054891361546874
 31
0.0
  0
LINE
  5
361
330
200
100
AcDbEntity
  8
0
  6
Continuous
 62
     7
100
AcDbLine
 10
2.548230888431798
 20
7.038087985846875
 30
0.0
 11
2.567914776031798
 21
7.038086521746874
 31
0.0
  0
LINE
  5
362
330
200
100
AcDbEntity
  8
0
  6
Continuous
 62
     7
100
AcDbLine
 10
2.528542864731798
 20
6.998716443146875
 30
0.0
 11
2.508765633831798
 21
6.998716443146875
 31
0.0
  0
LINE
  5
363
330
200
100
AcDbEntity
  8
0
  6
Continuous
 62
     7
100
AcDbLine
 10
2.508765633931798
 20
6.979031403946875
 30
0.0
 11
2.528545544531798
 21
6.979031403846875
 31
0.0
  0
LINE
  5
364
330
200
100
AcDbEntity
  8
0
  6
Continuous
 62
     7
100
AcDbLine
 10
2.528548529331798
 20
6.959347828746874
 30
0.0
 11
2.489026523631798
 21
6.959347828846874
 31
0.0
  0
LINE
  5
365
330
200
100
AcDbEntity
  8
0
  6
Continuous
 62
     7
100
AcDbLine
 10
4.465507610231798
 20
6.928968017946875
 30
0.0
 11
4.418173906731798
 21
6.928965968046874
 31
0.0
  0
LINE
  5
366
330
200
100
AcDbEntity
  8
0
  6
Continuous
 62
     7
100
AcDbLine
 10
2.567917456231798
 20
6.939661325246874
 30
0.0
 11
2.548233568731798
 21
6.939662789346875
 31
0.0
  0
LINE
  5
367
330
200
100
AcDbEntity
  8
0
  6
Continuous
 62
     7
100
AcDbLine
 10
2.875050580531798
 20
6.444672326446875
 30
0.0
 11
2.875050580531798
 21
6.432842654346874
 31
0.0
  0
LINE
  5
368
330
200
100
AcDbEntity
  8
0
  6
Continuous
 62
     7
100
AcDbLine
 10
2.894689111431798
 20
6.511582811546874
 30
0.0
 11
2.894689111631798
 21
6.432842654346874
 31
0.0
  0
LINE
  5
369
330
200
100
AcDbEntity
  8
0
  6
Continuous
 62
     7
100
AcDbLine
 10
2.548233569231798
 20
6.826581724346874
 30
0.0
 11
1.808014661731798
 21
6.826581725946875
 31
0.0
  0
LINE
  5
36A
330
200
100
AcDbEntity
  8
0
  6
Continuous
 62
     7
100
AcDbLine
 10
2.832386811731798
 20
6.822657294446875
 30
0.0
 11
3.051266453431798
 21
6.822657293946875
 31
0.0
  0
LINE
  5
36B
330
200
100
AcDbEntity
  8
0
  6
Continuous
 62
     7
100
AcDbLine
 10
3.657149417031798
 20
6.822605751746874
 30
0.0
 11
3.876029058731798
 21
6.822605751246874
 31
0.0
  0
LINE
  5
36C
330
200
100
AcDbEntity
  8
0
  6
Continuous
 62
     7
100
AcDbLine
 10
3.087488974031798
 20
7.113923636446875
 30
0.0
 11
3.087488975331798
 21
6.365892142246874
 31
0.0
  0
LINE
  5
36D
330
200
100
AcDbEntity
  8
0
  6
Continuous
 62
     7
100
AcDbLine
 10
3.067803920631798
 20
7.094200067746875
 30
0.0
 11
3.067803936231798
 21
6.385577181846874
 31
0.0
  0
LINE
  5
36E
330
200
100
AcDbEntity
  8
0
  6
Continuous
 62
     7
100
AcDbLine
 10
3.243780156431798
 20
6.657277192846875
 30
0.0
 11
3.462659798131798
 21
6.657277192346874
 31
0.0
  0
LINE
  5
36F
330
200
100
AcDbEntity
  8
0
  6
Continuous
 62
     7
100
AcDbLine
 10
1.808014662131798
 20
6.653353379946874
 30
0.0
 11
2.548233569931798
 21
6.653353378346874
 31
0.0
  0
LINE
  5
370
330
200
100
AcDbEntity
  8
0
  6
Continuous
 62
     7
100
AcDbLine
 10
4.418173907531798
 20
6.551013213246875
 30
0.0
 11
4.465507611031798
 21
6.551015263046874
 31
0.0
  0
LINE
  5
371
330
200
100
AcDbEntity
  8
0
  6
Continuous
 62
     7
100
AcDbLine
 10
2.489013531031798
 20
6.520513530146875
 30
0.0
 11
2.528548531131798
 21
6.520513530046875
 31
0.0
  0
LINE
  5
372
330
200
100
AcDbEntity
  8
0
  6
Continuous
 62
     7
100
AcDbLine
 10
2.894689111431798
 20
6.511582811546874
 30
0.0
 11
2.713586749531798
 21
6.511582811946874
 31
0.0
  0
LINE
  5
373
330
200
100
AcDbEntity
  8
0
  6
Continuous
 62
     7
100
AcDbLine
 10
3.957640692731798
 20
6.511531268346875
 30
0.0
 11
3.776538330831798
 21
6.511531268746875
 31
0.0
  0
LINE
  5
374
330
200
100
AcDbEntity
  8
0
  6
Continuous
 62
     7
100
AcDbLine
 10
2.528545546731798
 20
6.500827026546875
 30
0.0
 11
2.508765634931798
 21
6.500827026546875
 31
0.0
  0
LINE
  5
375
330
200
100
AcDbEntity
  8
0
  6
Continuous
 62
     7
100
AcDbLine
 10
2.508765634931798
 20
6.481141987146875
 30
0.0
 11
2.528542866831798
 21
6.481141987146875
 31
0.0
  0
LINE
  5
376
330
200
100
AcDbEntity
  8
0
  6
Continuous
 62
     7
100
AcDbLine
 10
4.418173907731798
 20
6.472164483146874
 30
0.0
 11
4.437855652531798
 21
6.472164483146874
 31
0.0
  0
LINE
  5
377
330
200
100
AcDbEntity
  8
0
  6
Continuous
 62
     7
100
AcDbLine
 10
2.528545851531798
 20
6.461458412046875
 30
0.0
 11
2.489081747431798
 21
6.461458412146875
 31
0.0
  0
LINE
  5
378
330
200
100
AcDbEntity
  8
0
  6
Continuous
 62
     7
100
AcDbLine
 10
2.548233570431798
 20
6.540198569246875
 30
0.0
 11
2.567917458031798
 21
6.540197105146875
 31
0.0
  0
LINE
  5
379
330
200
100
AcDbEntity
  8
0
  6
Continuous
 62
     7
100
AcDbLine
 10
2.713586749731798
 20
6.444672326746875
 30
0.0
 11
2.894689111631798
 21
6.444672326346875
 31
0.0
  0
LINE
  5
37A
330
200
100
AcDbEntity
  8
0
  6
Continuous
 62
     7
100
AcDbLine
 10
3.776538330931797
 20
6.444620783446874
 30
0.0
 11
3.957640692831798
 21
6.444621128646874
 31
0.0
  0
LINE
  5
37B
330
200
100
AcDbEntity
  8
0
  6
Continuous
 62
     7
100
AcDbLine
 10
2.894689111631798
 20
6.432842654346874
 30
0.0
 11
2.713586749731798
 21
6.432842654746875
 31
0.0
  0
LINE
  5
37C
330
200
100
AcDbEntity
  8
0
  6
Continuous
 62
     7
100
AcDbLine
 10
3.957640692831798
 20
6.432791111046874
 30
0.0
 11
3.776538330931797
 21
6.432791111446874
 31
0.0
  0
LINE
  5
37D
330
200
100
AcDbEntity
  8
0
  6
Continuous
 62
     7
100
AcDbLine
 10
4.445736418131797
 20
6.365866368846875
 30
0.0
 11
2.567918234031798
 21
6.365917913846875
 31
0.0
  0
LINE
  5
37E
330
200
100
AcDbEntity
  8
0
  6
Continuous
 62
     7
100
AcDbLine
 10
2.567914778631798
 20
6.441771908446876
 30
0.0
 11
2.548230891031798
 21
6.441773372646875
 31
0.0
  0
LINE
  5
37F
330
200
100
AcDbEntity
  8
0
  6
Continuous
 62
     7
100
AcDbLine
 10
2.548230891031798
 20
6.424970103446876
 30
0.0
 11
4.465419153931797
 21
6.424918558446874
 31
0.0
  0
LINE
  5
380
330
200
100
AcDbEntity
  8
0
  6
Continuous
 62
     7
100
AcDbLine
 10
3.500854528531798
 20
7.113897865046874
 30
0.0
 11
3.500854529931798
 21
6.365866370946875
 31
0.0
  0
LINE
  5
381
330
200
100
AcDbEntity
  8
0
  6
Continuous
 62
     7
100
AcDbLine
 10
3.481169475231798
 20
7.094174296446874
 30
0.0
 11
3.481169490831798
 21
6.385551410446875
 31
0.0
  0
LINE
  5
382
330
200
100
AcDbEntity
  8
0
  6
Continuous
 62
     7
100
AcDbLine
 10
3.766593164731797
 20
6.980019589846874
 30
0.0
 11
3.766590170131798
 21
6.980015782846875
 31
0.0
  0
LINE
  5
383
330
200
100
AcDbEntity
  8
0
  6
Continuous
 62
     7
100
AcDbLine
 10
3.776538330831798
 20
6.511531268746875
 30
0.0
 11
3.776538330931797
 21
6.432791111446874
 31
0.0
  0
LINE
  5
384
330
200
100
AcDbEntity
  8
0
  6
Continuous
 62
     7
100
AcDbLine
 10
3.983129720731798
 20
6.822540739146875
 30
0.0
 11
3.983138244031798
 21
6.822551574446874
 31
0.0
  0
LINE
  5
385
330
200
100
AcDbEntity
  8
0
  6
Continuous
 62
     7
100
AcDbLine
 10
3.796310215131798
 20
6.432791111446874
 30
0.0
 11
3.796310215131798
 21
6.444620783446874
 31
0.0
  0
LINE
  5
386
330
200
100
AcDbEntity
  8
0
  6
Continuous
 62
     7
100
AcDbLine
 10
4.465419152631797
 20
7.035154777246875
 30
0.0
 11
4.437862240331797
 21
7.007597552546874
 31
0.0
  0
LINE
  5
387
330
200
100
AcDbEntity
  8
0
  6
Continuous
 62
     7
100
AcDbLine
 10
3.938042704631797
 20
6.444620783146874
 30
0.0
 11
3.938042704731797
 21
6.432791111146874
 31
0.0
  0
LINE
  5
388
330
200
100
AcDbEntity
  8
0
  6
Continuous
 62
     7
100
AcDbLine
 10
3.941816938931798
 20
6.444620783146874
 30
0.0
 11
3.941816938831798
 21
6.511531268346875
 31
0.0
  0
LINE
  5
389
330
200
100
AcDbEntity
  8
0
  6
Continuous
 62
     7
100
AcDbLine
 10
3.957640692831798
 20
6.432791111046874
 30
0.0
 11
3.957640692731798
 21
6.511531268346875
 31
0.0
  0
LINE
  5
38A
330
200
100
AcDbEntity
  8
0
  6
Continuous
 62
     7
100
AcDbLine
 10
4.465529609031797
 20
7.094350315046875
 30
0.0
 11
4.465421456231798
 21
7.094212823846874
 31
0.0
  0
LINE
  5
38B
330
200
100
AcDbEntity
  8
0
  6
Continuous
 62
     7
100
AcDbLine
 10
4.418173906531798
 20
7.007597552546874
 30
0.0
 11
4.418173907731798
 21
6.472164483146874
 31
0.0
  0
LINE
  5
38C
330
200
100
AcDbEntity
  8
0
  6
Continuous
 62
     7
100
AcDbLine
 10
4.445736418131797
 20
6.365866368846875
 30
0.0
 11
4.445732962731797
 21
6.464287172846875
 31
0.0
  0
LINE
  5
38D
330
200
100
AcDbEntity
  8
0
  6
Continuous
 62
     7
100
AcDbLine
 10
4.437942336431797
 20
6.472267198946875
 30
0.0
 11
4.437942335631798
 21
7.007700268546875
 31
0.0
  0
LINE
  5
38E
330
200
100
AcDbEntity
  8
0
  6
Continuous
 62
     7
100
AcDbLine
 10
4.445732961531797
 20
7.015468273746874
 30
0.0
 11
4.445736416731797
 21
7.113897863046874
 31
0.0
  0
LINE
  5
38F
330
200
100
AcDbEntity
  8
0
  6
Continuous
 62
     7
100
AcDbLine
 10
4.465421457531798
 20
6.385551435246874
 30
0.0
 11
4.465421456231798
 21
7.094212823846874
 31
0.0
  0
LINE
  5
390
330
200
100
AcDbEntity
  8
0
  6
Continuous
 62
     7
100
AcDbLine
 10
4.465421457731798
 20
6.385551408446874
 30
0.0
 11
4.465529610531797
 21
6.385688899646874
 31
0.0
  0
ARC
  5
391
330
200
100
AcDbEntity
  8
0
  6
Continuous
 62
     7
100
AcDbCircle
 10
8.9387744503
 20
5.368073197799999
 30
0.0
 40
0.2524897534
100
AcDbArc
 50
51.68633631
 51
52.9381784526
  0
ARC
  5
392
330
200
100
AcDbEntity
  8
0
  6
Continuous
 62
     7
100
AcDbCircle
 10
9.1265039069
 20
5.2863955831
 30
0.0
 40
0.0777052856
100
AcDbArc
 50
314.9814911694
 51
317.1470012374
  0
ARC
  5
393
330
200
100
AcDbEntity
  8
0
  6
Continuous
 62
     7
100
AcDbCircle
 10
8.383635441699999
 20
5.956507973399999
 30
0.0
 40
0.0712798728
100
AcDbArc
 50
106.5489675583
 51
111.9419443161
  0
ARC
  5
394
330
200
100
AcDbEntity
  8
0
  6
Continuous
 62
     7
100
AcDbCircle
 10
9.338488380099999
 20
4.4848855264
 30
0.0
 40
0.0451714252
100
AcDbArc
 50
309.7070734844
 51
315.8881985721
  0
ARC
  5
395
330
200
100
AcDbEntity
  8
0
  6
Continuous
 62
     7
100
AcDbCircle
 10
7.9579152445
 20
4.1280944988
 30
0.0
 40
0.0376912286
100
AcDbArc
 50
142.5099062236
 51
147.6936702107
  0
ARC
  5
396
330
200
100
AcDbEntity
  8
0
  6
Continuous
 62
     7
100
AcDbCircle
 10
8.875757119199999
 20
5.7958396395
 30
0.0
 40
0.0325453881
100
AcDbArc
 50
226.4737030425
 51
228.9141107831
  0
ARC
  5
397
330
200
100
AcDbEntity
  8
0
  6
Continuous
 62
     7
100
AcDbCircle
 10
8.523720857899999
 20
5.9991113235
 30
0.0
 40
0.0325453881
100
AcDbArc
 50
226.4737030439
 51
228.9141107827
  0
ARC
  5
398
330
200
100
AcDbEntity
  8
0
  6
Continuous
 62
     7
100
AcDbCircle
 10
7.9518259533
 20
4.1314955463
 30
0.0
 40
0.0307069955
100
AcDbArc
 50
155.0886013946
 51
159.3250972197
  0
ARC
  5
399
330
200
100
AcDbEntity
  8
0
  6
Continuous
 62
     7
100
AcDbCircle
 10
9.339936681000001
 20
5.2605965223
 30
0.0
 40
0.0233981941
100
AcDbArc
 50
41.43452588299999
 51
46.4009251751
  0
ARC
  5
39A
330
200
100
AcDbEntity
  8
0
  6
Continuous
 62
     7
100
AcDbCircle
 10
9.0949204988
 20
5.4566722245
 30
0.0
 40
0.0233981941
100
AcDbArc
 50
41.4345258827
 51
46.400925175
  0
ARC
  5
39B
330
200
100
AcDbEntity
  8
0
  6
Continuous
 62
     7
100
AcDbCircle
 10
8.849901024899999
 20
5.739463351399999
 30
0.0
 40
0.0233965934
100
AcDbArc
 50
41.4341649255
 51
46.40089601689999
  0
ARC
  5
39C
330
200
100
AcDbEntity
  8
0
  6
Continuous
 62
     7
100
AcDbCircle
 10
2.936081400500002
 20
1.426244026217786
 30
0.0
 40
0.2362203218
100
AcDbArc
 50
289.471233892
 51
295.3706222996
  0
ARC
  5
39D
330
200
100
AcDbEntity
  8
0
  6
Continuous
 62
     7
100
AcDbCircle
 10
3.347474745200001
 20
1.591624127817786
 30
0.0
 40
0.2362203069
100
AcDbArc
 50
64.57863290089999
 51
70.52876457779996
  0
ARC
  5
39E
330
200
100
AcDbEntity
  8
0
  6
Continuous
 62
     7
100
AcDbCircle
 10
3.760844005900001
 20
1.426295568917787
 30
0.0
 40
0.236218943
100
AcDbArc
 50
244.6851228591
 51
250.528643733
  0
ARC
  5
39F
330
200
100
AcDbEntity
  8
0
  6
Continuous
 62
     7
100
AcDbCircle
 10
3.347474745200001
 20
1.591624127817786
 30
0.0
 40
0.2362189423
100
AcDbArc
 50
109.4713561341999
 51
115.4206731243
  0
ARC
  5
3A0
330
200
100
AcDbEntity
  8
0
  6
Continuous
 62
     7
100
AcDbCircle
 10
2.936081400500002
 20
1.426244026217786
 30
0.0
 40
0.2362184114
100
AcDbArc
 50
244.7485753887
 51
250.5285960877
  0
ARC
  5
3A1
330
200
100
AcDbEntity
  8
0
  6
Continuous
 62
     7
100
AcDbCircle
 10
3.760844005900001
 20
1.426295568917787
 30
0.0
 40
0.2362174822
100
AcDbArc
 50
331.0468327362
 51
28.68915910790002
  0
ARC
  5
3A2
330
200
100
AcDbEntity
  8
0
  6
Continuous
 62
     7
100
AcDbCircle
 10
3.760844005900001
 20
1.426295568917787
 30
0.0
 40
0.2362174822
100
AcDbArc
 50
289.4714855119
 51
295.3140904455
  0
ARC
  5
3A3
330
200
100
AcDbEntity
  8
0
  6
Continuous
 62
     7
100
AcDbCircle
 10
3.760856445200002
 20
1.426279755217786
 30
0.0
 40
0.2165354331
100
AcDbArc
 50
343.5931751914
 51
17.08487435929996
  0
ARC
  5
3A4
330
200
100
AcDbEntity
  8
0
  6
Continuous
 62
     7
100
AcDbCircle
 10
2.550295864100001
 20
1.693908140517787
 30
0.0
 40
0.0590551181
100
AcDbArc
 50
269.9999998726
 51
0.0000001192999853
  0
ARC
  5
3A5
330
200
100
AcDbEntity
  8
0
  6
Continuous
 62
     7
100
AcDbCircle
 10
2.550295863300001
 20
1.323829401417786
 30
0.0
 40
0.0590551181
100
AcDbArc
 50
0.0000001084999921
 51
89.9999998742
  0
ARC
  5
3A6
330
200
100
AcDbEntity
  8
0
  6
Continuous
 62
     7
100
AcDbCircle
 10
2.522855032200001
 20
1.708565552617786
 30
0.0
 40
0.0196850394
100
AcDbArc
 50
0.0000007483999613
 51
89.9999999367
  0
ARC
  5
3A7
330
200
100
AcDbEntity
  8
0
  6
Continuous
 62
     7
100
AcDbCircle
 10
2.522852352700002
 20
1.806990749217787
 30
0.0
 40
0.0196850394
100
AcDbArc
 50
269.9999996750999
 51
0.0000009840999785
  0
ARC
  5
3A8
330
200
100
AcDbEntity
  8
0
  6
Continuous
 62
     7
100
AcDbCircle
 10
2.562222431600001
 20
1.863164096917786
 30
0.0
 40
0.0196850394
100
AcDbArc
 50
89.99999988260002
 51
180.0000012633
  0
ARC
  5
3A9
102
{ACAD_REACTORS
330
589
102
}
330
200
100
AcDbEntity
  8
0
  6
Continuous
 62
     7
100
AcDbCircle
 10
4.440081158700001
 20
1.863164101017787
 30
0.0
 40
0.0196850394
100
AcDbArc
 50
0.0000001058000319
 51
89.99999992370007
  0
ARC
  5
3AA
102
{ACAD_REACTORS
330
589
102
}
330
200
100
AcDbEntity
  8
0
  6
Continuous
 62
     7
100
AcDbCircle
 10
4.440081157100001
 20
1.154502685717786
 30
0.0
 40
0.0196850394
100
AcDbArc
 50
269.9999998818
 51
0.00000015579998
  0
ARC
  5
3AB
330
200
100
AcDbEntity
  8
0
  6
Continuous
 62
     7
100
AcDbCircle
 10
2.562222428500001
 20
1.154502681617787
 30
0.0
 40
0.0196850394
100
AcDbArc
 50
180.0000008969
 51
269.9999999417
  0
ARC
  5
3AC
330
200
100
AcDbEntity
  8
0
  6
Continuous
 62
     7
100
AcDbCircle
 10
2.522852350100001
 20
1.210676135917786
 30
0.0
 40
0.0196850394
100
AcDbArc
 50
0.0000013209000075
 51
89.9999998436
  0
ARC
  5
3AD
330
200
100
AcDbEntity
  8
0
  6
Continuous
 62
     7
100
AcDbCircle
 10
2.522855030400001
 20
1.309101332517786
 30
0.0
 40
0.0196850394
100
AcDbArc
 50
269.9999997548
 51
0.0000005589999656
  0
ARC
  5
3C2
330
200
100
AcDbEntity
  8
0
  6
Continuous
 62
     7
100
AcDbCircle
 10
3.9716635621
 20
3.438942387771285
 30
0.0
 40
0.0393700787
100
AcDbArc
 50
180.0033524187
 51
270.003352422
  0
ARC
  5
3C3
330
200
100
AcDbEntity
  8
0
  6
Continuous
 62
     7
100
AcDbCircle
 10
3.7511911215
 20
3.438929487771284
 30
0.0
 40
0.0393700787
100
AcDbArc
 50
270.0033524199
 51
0.0033524224000101
  0
ARC
  5
3C4
330
200
100
AcDbEntity
  8
0
  6
Continuous
 62
     7
100
AcDbCircle
 10
3.936120790900001
 20
3.724379773371285
 30
0.0
 40
0.031496063
100
AcDbArc
 50
270.0033524216
 51
0.0033524058000081
  0
ARC
  5
3C5
330
200
100
AcDbEntity
  8
0
  6
Continuous
 62
     7
100
AcDbCircle
 10
3.979539190300001
 20
3.411383793571284
 30
0.0
 40
0.0118110236
100
AcDbArc
 50
270.0033524153
 51
0.0033523664000091
  0
ARC
  5
3C6
330
200
100
AcDbEntity
  8
0
  6
Continuous
 62
     7
100
AcDbCircle
 10
3.743318718300001
 20
3.411369972071285
 30
0.0
 40
0.0118110236
100
AcDbArc
 50
180.0033525103
 51
270.0033524165
  0
ARC
  5
3C7
330
200
100
AcDbEntity
  8
0
  6
Continuous
 62
     7
100
AcDbCircle
 10
2.908671437900001
 20
3.438880191271284
 30
0.0
 40
0.0393700787
100
AcDbArc
 50
180.0033524186
 51
270.0033524292
  0
ARC
  5
3C8
330
200
100
AcDbEntity
  8
0
  6
Continuous
 62
     7
100
AcDbCircle
 10
2.6881989974
 20
3.438867291271284
 30
0.0
 40
0.0393700787
100
AcDbArc
 50
270.0033524238
 51
0.0033524234999731
  0
ARC
  5
3C9
330
200
100
AcDbEntity
  8
0
  6
Continuous
 62
     7
100
AcDbCircle
 10
2.9165470662
 20
3.411321596971285
 30
0.0
 40
0.0118110236
100
AcDbArc
 50
270.0033524077
 51
0.0033524497000086
  0
ARC
  5
3CA
330
200
100
AcDbEntity
  8
0
  6
Continuous
 62
     7
100
AcDbCircle
 10
2.680326594100001
 20
3.411307775571284
 30
0.0
 40
0.0118110236
100
AcDbArc
 50
180.0033524036999
 51
270.0033524352
  0
ARC
  5
3CB
330
200
100
AcDbEntity
  8
0
  6
Continuous
 62
     7
100
AcDbCircle
 10
4.439970702200001
 20
5.149604638871284
 30
0.0
 40
0.0196850394
100
AcDbArc
 50
0.0042001773000021
 51
90.00335242009999
  0
ARC
  5
3CC
330
200
100
AcDbEntity
  8
0
  6
Continuous
 62
     7
100
AcDbCircle
 10
3.4950888127
 20
5.149596208571285
 30
0.0
 40
0.0196850394
100
AcDbArc
 50
90.00335242299996
 51
180.0042002380999
  0
ARC
  5
3CD
330
200
100
AcDbEntity
  8
0
  6
Continuous
 62
     7
100
AcDbCircle
 10
3.6230314538
 20
5.385806888571285
 30
0.0
 40
0.0196850394
100
AcDbArc
 50
89.99603697209995
 51
180.0033524229999
  0
ARC
  5
3CE
330
200
100
AcDbEntity
  8
0
  6
Continuous
 62
     7
100
AcDbCircle
 10
3.5639804822
 20
5.314937291771284
 30
0.0
 40
0.0196850394
100
AcDbArc
 50
90.00337137600002
 51
180.0033524241999
  0
ARC
  5
3CF
330
200
100
AcDbEntity
  8
0
  6
Continuous
 62
     7
100
AcDbCircle
 10
3.957681269
 20
5.314960327471284
 30
0.0
 40
0.0196850394
100
AcDbArc
 50
0.0033524242000005
 51
90.01366815439993
  0
ARC
  5
3D0
330
200
100
AcDbEntity
  8
0
  6
Continuous
 62
     7
100
AcDbCircle
 10
3.8986220045
 20
5.385823013571284
 30
0.0
 40
0.0196850394
100
AcDbArc
 50
0.0033524238999596
 51
90.01068972469994
  0
ARC
  5
3D1
330
200
100
AcDbEntity
  8
0
  6
Continuous
 62
     7
100
AcDbCircle
 10
2.798268848500001
 20
4.692845245871284
 30
0.0
 40
0.0196850394
100
AcDbArc
 50
89.99910512610005
 51
180.0033524247
  0
ARC
  5
3D2
330
200
100
AcDbEntity
  8
0
  6
Continuous
 62
     7
100
AcDbCircle
 10
2.739217876900001
 20
4.621975649071284
 30
0.0
 40
0.0196850394
100
AcDbArc
 50
89.99892319329994
 51
180.0033524233
  0
ARC
  5
3D3
330
200
100
AcDbEntity
  8
0
  6
Continuous
 62
     7
100
AcDbCircle
 10
3.209662193200001
 20
5.039313709871284
 30
0.0
 40
0.0196850394
100
AcDbArc
 50
90.00188251940004
 51
180.0033524244
  0
ARC
  5
3D4
330
200
100
AcDbEntity
  8
0
  6
Continuous
 62
     7
100
AcDbCircle
 10
3.150611221600001
 20
4.968444113071284
 30
0.0
 40
0.0196850394
100
AcDbArc
 50
89.99880454929998
 51
180.0033524238
  0
ARC
  5
3D5
330
200
100
AcDbEntity
  8
0
  6
Continuous
 62
     7
100
AcDbCircle
 10
3.081723258100001
 20
4.803115329671284
 30
0.0
 40
0.0196850394
100
AcDbArc
 50
90.00335242309999
 51
180.0042002377
  0
ARC
  5
3D6
330
200
100
AcDbEntity
  8
0
  6
Continuous
 62
     7
100
AcDbCircle
 10
2.562152517900001
 20
4.456582630971285
 30
0.0
 40
0.0196850394
100
AcDbArc
 50
90.0033524264999
 51
180.0033524246
  0
ARC
  5
3D7
330
200
100
AcDbEntity
  8
0
  6
Continuous
 62
     7
100
AcDbCircle
 10
2.503003374300001
 20
4.456581177071284
 30
0.0
 40
0.0196850394
100
AcDbArc
 50
90.00335228329996
 51
179.9985393661
  0
ARC
  5
3D8
330
200
100
AcDbEntity
  8
0
  6
Continuous
 62
     7
100
AcDbCircle
 10
2.528544697331798
 20
7.038086521746874
 30
0.0
 40
0.0393697875
100
AcDbArc
 50
269.9973330051999
 51
0.002667404599972
  0
ARC
  5
3D9
330
200
100
AcDbEntity
  8
0
  6
Continuous
 62
     7
100
AcDbCircle
 10
2.567918231131798
 20
7.094264368746874
 30
0.0
 40
0.0196850394
100
AcDbArc
 50
90.00000013309996
 51
179.9991522226999
  0
ARC
  5
3DA
330
200
100
AcDbEntity
  8
0
  6
Continuous
 62
     7
100
AcDbCircle
 10
2.528545849131798
 20
7.038087985946875
 30
0.0
 40
0.0196850394
100
AcDbArc
 50
270.0000006702
 51
359.9999999953999
  0
ARC
  5
3DB
330
200
100
AcDbEntity
  8
0
  6
Continuous
 62
     7
100
AcDbCircle
 10
3.087488974031798
 20
7.094238597146874
 30
0.0
 40
0.0196850394
100
AcDbArc
 50
90.00000013399997
 51
179.9991521029999
  0
ARC
  5
3DC
330
200
100
AcDbEntity
  8
0
  6
Continuous
 62
     7
100
AcDbCircle
 10
2.528547377631798
 20
6.939661325246874
 30
0.0
 40
0.0393697875
100
AcDbArc
 50
359.9973279627
 51
90.00266770359992
  0
ARC
  5
3DD
330
200
100
AcDbEntity
  8
0
  6
Continuous
 62
     7
100
AcDbCircle
 10
2.528548529431798
 20
6.939662789446875
 30
0.0
 40
0.0196850394
100
AcDbArc
 50
359.9999999998
 51
90.00000011849996
  0
ARC
  5
3DE
330
200
100
AcDbEntity
  8
0
  6
Continuous
 62
     7
100
AcDbCircle
 10
2.941831682731798
 20
6.822592282346874
 30
0.0
 40
0.2165354331
100
AcDbArc
 50
54.42275364680003
 51
305.5771728551
  0
ARC
  5
3DF
330
200
100
AcDbEntity
  8
0
  6
Continuous
 62
     7
100
AcDbCircle
 10
2.941830530931798
 20
6.822590818146875
 30
0.0
 40
0.196848872
100
AcDbArc
 50
50.20924538899997
 51
309.7907561879
  0
ARC
  5
3E0
330
200
100
AcDbEntity
  8
0
  6
Continuous
 62
     7
100
AcDbCircle
 10
2.941827536231798
 20
6.822587011146874
 30
0.0
 40
0.157480315
100
AcDbArc
 50
36.87218364029999
 51
323.1278160873
  0
ARC
  5
3E1
330
200
100
AcDbEntity
  8
0
  6
Continuous
 62
     7
100
AcDbCircle
 10
2.941826384531798
 20
6.822585546846875
 30
0.0
 40
0.1377938164
100
AcDbArc
 50
23.89822226269999
 51
336.1017715899
  0
CIRCLE
  5
3E2
330
200
100
AcDbEntity
  8
0
  6
Continuous
 62
     7
100
AcDbCircle
 10
2.941826384531798
 20
6.822585546846875
 30
0.0
 40
0.1102362205
  0
CIRCLE
  5
3E3
330
200
100
AcDbEntity
  8
0
  6
Continuous
 62
     7
100
AcDbCircle
 10
3.766594288031797
 20
6.822540739546875
 30
0.0
 40
0.2165354331
  0
CIRCLE
  5
3E4
330
200
100
AcDbEntity
  8
0
  6
Continuous
 62
     7
100
AcDbCircle
 10
3.766593136231798
 20
6.822539275346874
 30
0.0
 40
0.196846844
  0
CIRCLE
  5
3E5
330
200
100
AcDbEntity
  8
0
  6
Continuous
 62
     7
100
AcDbCircle
 10
3.766590141631798
 20
6.822535468346874
 30
0.0
 40
0.157480315
  0
CIRCLE
  5
3E6
330
200
100
AcDbEntity
  8
0
  6
Continuous
 62
     7
100
AcDbCircle
 10
3.766588989831798
 20
6.822534004146874
 30
0.0
 40
0.1377927547
  0
CIRCLE
  5
3E7
330
200
100
AcDbEntity
  8
0
  6
Continuous
 62
     7
100
AcDbCircle
 10
3.766588989831798
 20
6.822534004146874
 30
0.0
 40
0.1102362205
  0
ARC
  5
3E8
330
200
100
AcDbEntity
  8
0
  6
Continuous
 62
     7
100
AcDbCircle
 10
3.500854528631798
 20
7.094212825746875
 30
0.0
 40
0.0196850394
100
AcDbArc
 50
90.0000001221
 51
179.9991521219
  0
ARC
  5
3E9
330
200
100
AcDbEntity
  8
0
  6
Continuous
 62
     7
100
AcDbCircle
 10
4.445736416731797
 20
7.094212823746874
 30
0.0
 40
0.0196850394
100
AcDbArc
 50
0.0008476340999565
 51
90.00000012180001
  0
ARC
  5
3EA
330
200
100
AcDbEntity
  8
0
  6
Continuous
 62
     7
100
AcDbCircle
 10
2.528547379331798
 20
6.540197105146875
 30
0.0
 40
0.0393697875
100
AcDbArc
 50
269.9973329955999
 51
0.002664279700007
  0
ARC
  5
3EB
330
200
100
AcDbEntity
  8
0
  6
Continuous
 62
     7
100
AcDbCircle
 10
2.528548531131798
 20
6.540198569346874
 30
0.0
 40
0.0196850394
100
AcDbArc
 50
270.0000001220999
 51
0.0000000026999601
  0
ARC
  5
3EC
330
200
100
AcDbEntity
  8
0
  6
Continuous
 62
     7
100
AcDbCircle
 10
3.353225027431798
 20
6.657212180746874
 30
0.0
 40
0.2165354331
100
AcDbArc
 50
53.77852969429997
 51
306.2213940759
  0
ARC
  5
3ED
330
200
100
AcDbEntity
  8
0
  6
Continuous
 62
     7
100
AcDbCircle
 10
3.353223875631798
 20
6.657210716446875
 30
0.0
 40
0.1968488312
100
AcDbArc
 50
49.45804137479998
 51
310.5419597748
  0
ARC
  5
3EE
330
200
100
AcDbEntity
  8
0
  6
Continuous
 62
     7
100
AcDbCircle
 10
3.353220881031798
 20
6.657206909446875
 30
0.0
 40
0.157480315
100
AcDbArc
 50
35.659189027
 51
324.340810586
  0
ARC
  5
3EF
330
200
100
AcDbEntity
  8
0
  6
Continuous
 62
     7
100
AcDbCircle
 10
3.353219729231798
 20
6.657205445246875
 30
0.0
 40
0.1377947706
100
AcDbArc
 50
21.78638008249998
 51
338.2136144333
  0
CIRCLE
  5
3F0
330
200
100
AcDbEntity
  8
0
  6
Continuous
 62
     7
100
AcDbCircle
 10
3.353219729231798
 20
6.657205445246875
 30
0.0
 40
0.1102362205
  0
ARC
  5
3F1
330
200
100
AcDbEntity
  8
0
  6
Continuous
 62
     7
100
AcDbCircle
 10
2.528544699931798
 20
6.441771908446876
 30
0.0
 40
0.0393697875
100
AcDbArc
 50
359.9973322972
 51
90.00266772249998
  0
ARC
  5
3F2
330
200
100
AcDbEntity
  8
0
  6
Continuous
 62
     7
100
AcDbCircle
 10
2.567918234231798
 20
6.385602953346875
 30
0.0
 40
0.0196850394
100
AcDbArc
 50
180.0008477552
 51
270.0000001284
  0
ARC
  5
3F3
330
200
100
AcDbEntity
  8
0
  6
Continuous
 62
     7
100
AcDbCircle
 10
2.528545851731798
 20
6.441773372746874
 30
0.0
 40
0.0196850394
100
AcDbArc
 50
359.9999999997
 51
90.0000001175
  0
ARC
  5
3F4
330
200
100
AcDbEntity
  8
0
  6
Continuous
 62
     7
100
AcDbCircle
 10
3.087488975531798
 20
6.385577181746874
 30
0.0
 40
0.0196850394
100
AcDbArc
 50
179.9335968766999
 51
270.0000001220999
  0
ARC
  5
3F5
330
200
100
AcDbEntity
  8
0
  6
Continuous
 62
     7
100
AcDbCircle
 10
4.445736418331797
 20
6.385551408346874
 30
0.0
 40
0.0196850394
100
AcDbArc
 50
270.000000122
 51
359.9991521034999
  0
ARC
  5
3F6
330
200
100
AcDbEntity
  8
0
  6
Continuous
 62
     7
100
AcDbCircle
 10
3.500854530131798
 20
6.385551410346875
 30
0.0
 40
0.0196850394
100
AcDbArc
 50
179.9335968983
 51
270.0000001207
  0
SPLINE
  5
3F7
330
200
100
AcDbEntity
  8
0
  6
Continuous
 62
     7
100
AcDbSpline
210
0.0
220
0.0
230
1.0
 70
     8
 71
     3
 72
    11
 73
     7
 74
     0
 42
0.0000000001
 43
0.0000000001
 40
0.0
 40
0.0
 40
0.0
 40
0.0
 40
0.2895291791
 40
0.5491026834000001
 40
0.7822451254999999
 40
1.0
 40
1.0
 40
1.0
 40
1.0
 10
7.8886608079
 20
4.560186740199999
 30
0.0
 10
7.8886608887
 20
4.558592042799999
 30
0.0
 10
7.8889045472
 20
4.5555575875
 30
0.0
 10
7.890131477999999
 20
4.5513876986
 30
0.0
 10
7.8922008882
 20
4.5480028197
 30
0.0
 10
7.8941461598
 20
4.546371107099999
 30
0.0
 10
7.8951848144
 20
4.545771366
 30
0.0
  0
SPLINE
  5
3F8
330
200
100
AcDbEntity
  8
0
  6
Continuous
 62
     7
100
AcDbSpline
210
0.0
220
0.0
230
1.0
 70
     8
 71
     3
 72
    11
 73
     7
 74
     0
 42
0.0000000001
 43
0.0000000001
 40
0.0
 40
0.0
 40
0.0
 40
0.0
 40
0.2177347386
 40
0.4508677428000001
 40
0.7104478375
 40
1.0
 40
1.0
 40
1.0
 40
1.0
 10
7.591546997999999
 20
5.5222403437
 30
0.0
 10
7.592196140399999
 20
5.5226151135
 30
0.0
 10
7.5934119145
 20
5.523634897999999
 30
0.0
 10
7.594705123999999
 20
5.525750554299999
 30
0.0
 10
7.595471709299999
 20
5.5283569603
 30
0.0
 10
7.5956237982
 20
5.5302536649
 30
0.0
 10
7.595623747599999
 20
5.531250457399999
 30
0.0
  0
SPLINE
  5
3F9
330
200
100
AcDbEntity
  8
0
  6
Continuous
 62
     7
100
AcDbSpline
210
0.0
220
0.0
230
1.0
 70
     8
 71
     3
 72
    14
 73
    10
 74
     0
 42
0.0000000001
 43
0.0000000001
 40
0.0
 40
0.0
 40
0.0
 40
0.0
 40
0.128860334
 40
0.2621248866
 40
0.3968822025
 40
0.5300427761
 40
0.6587354928
 40
0.7807070893000001
 40
1.0
 40
1.0
 40
1.0
 40
1.0
 10
9.3488398825
 20
5.289506715599999
 30
0.0
 10
9.346768256499998
 20
5.2988629298
 30
0.0
 10
9.3412248845
 20
5.3176186513
 30
0.0
 10
9.3294517691
 20
5.3447527675
 30
0.0
 10
9.3144516771
 20
5.3706222861
 30
0.0
 10
9.296765331699999
 20
5.3943026108
 30
0.0
 10
9.276942103599999
 20
5.414983574699999
 30
0.0
 10
9.249583706900001
 20
5.436738178799999
 30
0.0
 10
9.225923599699999
 20
5.448024411499999
 30
0.0
 10
9.209939804400001
 20
5.451259606199999
 30
0.0
  0
SPLINE
  5
3FA
330
200
100
AcDbEntity
  8
0
  6
Continuous
 62
     7
100
AcDbSpline
210
0.0
220
0.0
230
1.0
 70
     8
 71
     3
 72
    11
 73
     7
 74
     0
 42
0.0000000001
 43
0.0000000001
 40
0.0
 40
0.0
 40
0.0
 40
0.0
 40
0.2356645116
 40
0.4851528331
 40
0.7424097273
 40
1.0
 40
1.0
 40
1.0
 40
1.0
 10
9.212425618699999
 20
5.445811920599999
 30
0.0
 10
9.223943612499999
 20
5.4377097484
 30
0.0
 10
9.246204270799999
 20
5.4189127073
 30
0.0
 10
9.2756819234
 20
5.3855869908
 30
0.0
 10
9.301274323599999
 20
5.347610506299999
 30
0.0
 10
9.3151362807
 20
5.3200327049
 30
0.0
 10
9.321123956299999
 20
5.305852637
 30
0.0
  0
SPLINE
  5
3FB
330
200
100
AcDbEntity
  8
0
  6
Continuous
 62
     7
100
AcDbSpline
210
0.0
220
0.0
230
1.0
 70
     8
 71
     3
 72
    15
 73
    11
 74
     0
 42
0.0000000001
 43
0.0000000001
 40
0.0
 40
0.0
 40
0.0
 40
0.0
 40
0.1046808034
 40
0.216820827
 40
0.3371379982
 40
0.4648331963000001
 40
0.5978975994
 40
0.7335302037
 40
0.8685861506
 40
1.0
 40
1.0
 40
1.0
 40
1.0
 10
9.216429981299999
 20
5.3340320714
 30
0.0
 10
9.219552862999998
 20
5.341175623799999
 30
0.0
 10
9.2240642799
 20
5.3568643374
 30
0.0
 10
9.225858931199999
 20
5.382041487699999
 30
0.0
 10
9.223229895700001
 20
5.40884587
 30
0.0
 10
9.216435547199999
 20
5.436488511399999
 30
0.0
 10
9.205791464299998
 20
5.464103372699999
 30
0.0
 10
9.191702118
 20
5.4907474907
 30
0.0
 10
9.174684564899999
 20
5.515468776
 30
0.0
 10
9.1615023673
 20
5.530388629599999
 30
0.0
 10
9.1545420324
 20
5.5372694398
 30
0.0
  0
SPLINE
  5
3FC
330
200
100
AcDbEntity
  8
0
  6
Continuous
 62
     7
100
AcDbSpline
210
0.0
220
0.0
230
1.0
 70
     8
 71
     3
 72
     9
 73
     5
 74
     0
 42
0.0000000001
 43
0.0000000001
 40
0.0
 40
0.0
 40
0.0
 40
0.0
 40
0.5231890789
 40
1.0
 40
1.0
 40
1.0
 40
1.0
 10
9.1545420324
 20
5.5372694398
 30
0.0
 10
9.145591088899999
 20
5.5461181149
 30
0.0
 10
9.1269830385
 20
5.561609137699999
 30
0.0
 10
9.105320947899999
 20
5.5727564869
 30
0.0
 10
9.094450861
 20
5.5764196076
 30
0.0
  0
SPLINE
  5
3FD
330
200
100
AcDbEntity
  8
0
  6
Continuous
 62
     7
100
AcDbSpline
210
0.0
220
0.0
230
1.0
 70
     8
 71
     3
 72
     9
 73
     5
 74
     0
 42
0.0000000001
 43
0.0000000001
 40
0.0
 40
0.0
 40
0.0
 40
0.0
 40
0.255497712
 40
1.0
 40
1.0
 40
1.0
 40
1.0
 10
9.094450861
 20
5.5764196076
 30
0.0
 10
9.092759176900001
 20
5.5769896897
 30
0.0
 10
9.086087007999999
 20
5.579063506
 30
0.0
 10
9.0792021284
 20
5.580477564899999
 30
0.0
 10
9.0740342772
 20
5.5810711021
 30
0.0
  0
SPLINE
  5
3FE
330
200
100
AcDbEntity
  8
0
  6
Continuous
 62
     7
100
AcDbSpline
210
0.0
220
0.0
230
1.0
 70
     8
 71
     3
 72
    14
 73
    10
 74
     0
 42
0.0000000001
 43
0.0000000001
 40
0.0
 40
0.0
 40
0.0
 40
0.0
 40
0.1120098935
 40
0.2253152398
 40
0.3413790222999999
 40
0.4614611036
 40
0.5867919822
 40
0.7181735050000001
 40
1.0
 40
1.0
 40
1.0
 40
1.0
 10
8.949712893999999
 20
5.594783304599999
 30
0.0
 10
8.954625144899999
 20
5.5976104845
 30
0.0
 10
8.965102206799999
 20
5.6023270025
 30
0.0
 10
8.982032017299999
 20
5.606226403099999
 30
0.0
 10
8.9997865222
 20
5.607019004999999
 30
0.0
 10
9.018017670599999
 20
5.604824482499999
 30
0.0
 10
9.036477963599999
 20
5.5998219347
 30
0.0
 10
9.061713751399999
 20
5.589398184099999
 30
0.0
 10
9.079563893399999
 20
5.5781502071
 30
0.0
 10
9.090944064
 20
5.5695564087
 30
0.0
  0
SPLINE
  5
3FF
330
200
100
AcDbEntity
  8
0
  6
Continuous
 62
     7
100
AcDbSpline
210
0.0
220
0.0
230
1.0
 70
     8
 71
     3
 72
     9
 73
     5
 74
     0
 42
0.0000000001
 43
0.0000000001
 40
0.0
 40
0.0
 40
0.0
 40
0.0
 40
0.2410789215
 40
1.0
 40
1.0
 40
1.0
 40
1.0
 10
9.095309554399999
 20
5.5661838658
 30
0.0
 10
9.100205842499999
 20
5.562315572999999
 30
0.0
 10
9.1199282059
 20
5.545531529199999
 30
0.0
 10
9.1373400052
 20
5.5261002137
 30
0.0
 10
9.1491800947
 20
5.5104259622
 30
0.0
  0
SPLINE
  5
400
330
200
100
AcDbEntity
  8
0
  6
Continuous
 62
     7
100
AcDbSpline
210
0.0
220
0.0
230
1.0
 70
     8
 71
     3
 72
    16
 73
    12
 74
     0
 42
0.0000000001
 43
0.0000000001
 40
0.0
 40
0.0
 40
0.0
 40
0.0
 40
0.1425132154
 40
0.2851140244
 40
0.4242561727
 40
0.5568311238
 40
0.6806296715000001
 40
0.7948217542
 40
0.9003622368999998
 40
0.9507306648999998
 40
1.0
 40
1.0
 40
1.0
 40
1.0
 10
9.1491800947
 20
5.5104259622
 30
0.0
 10
9.1577759835
 20
5.4990464771
 30
0.0
 10
9.1735856171
 20
5.4751988008
 30
0.0
 10
9.1927602497
 20
5.4372147058
 30
0.0
 10
9.206876639099998
 20
5.3981146072
 30
0.0
 10
9.215363879399999
 20
5.359326726299999
 30
0.0
 10
9.2177998291
 20
5.3221576801
 30
0.0
 10
9.213871758799999
 20
5.2877904625
 30
0.0
 10
9.2047689954
 20
5.2619953836
 30
0.0
 10
9.193970984299999
 20
5.2444556217
 30
0.0
 10
9.187472281299999
 20
5.236826943099999
 30
0.0
 10
9.183977140499999
 20
5.233349537699999
 30
0.0
  0
SPLINE
  5
401
330
200
100
AcDbEntity
  8
0
  6
Continuous
 62
     7
100
AcDbSpline
210
0.0
220
0.0
230
1.0
 70
     8
 71
     3
 72
    11
 73
     7
 74
     0
 42
0.0000000001
 43
0.0000000001
 40
0.0
 40
0.0
 40
0.0
 40
0.0
 40
0.24796962
 40
0.495627599
 40
0.7449443203000001
 40
1.0
 40
1.0
 40
1.0
 40
1.0
 10
9.1364179109
 20
5.445779438899999
 30
0.0
 10
9.1364192425
 20
5.449185990299999
 30
0.0
 10
9.1353340899
 20
5.4560402047
 30
0.0
 10
9.1307323749
 20
5.465332473099999
 30
0.0
 10
9.123787525099999
 20
5.473121826699999
 30
0.0
 10
9.118083488199999
 20
5.477153837699999
 30
0.0
 10
9.1150491189
 20
5.478905952699999
 30
0.0
  0
SPLINE
  5
402
330
200
100
AcDbEntity
  8
0
  6
Continuous
 62
     7
100
AcDbSpline
210
0.0
220
0.0
230
1.0
 70
     8
 71
     3
 72
    11
 73
     7
 74
     0
 42
0.0000000001
 43
0.0000000001
 40
0.0
 40
0.0
 40
0.0
 40
0.0
 40
0.24796962
 40
0.495627599
 40
0.7449443203000001
 40
1.0
 40
1.0
 40
1.0
 40
1.0
 10
9.381434093099999
 20
5.249703736699999
 30
0.0
 10
9.381435424700001
 20
5.2531102881
 30
0.0
 10
9.380350272100001
 20
5.259964502599999
 30
0.0
 10
9.375748557099999
 20
5.269256771
 30
0.0
 10
9.368803707299999
 20
5.277046124499999
 30
0.0
 10
9.3630996704
 20
5.281078135599999
 30
0.0
 10
9.3600653011
 20
5.282830250499999
 30
0.0
  0
SPLINE
  5
403
330
200
100
AcDbEntity
  8
0
  6
Continuous
 62
     7
100
AcDbSpline
210
0.0
220
0.0
230
1.0
 70
     8
 71
     3
 72
     9
 73
     5
 74
     0
 42
0.0000000001
 43
0.0000000001
 40
0.0
 40
0.0
 40
0.0
 40
0.0
 40
0.4995108745000001
 40
1.0
 40
1.0
 40
1.0
 40
1.0
 10
9.381473185199999
 20
4.4782459072
 30
0.0
 10
9.381475417
 20
4.473671905499999
 30
0.0
 10
9.3794864511
 20
4.4644171743
 30
0.0
 10
9.374107944299998
 20
4.456736639899999
 30
0.0
 10
9.3709206928
 20
4.4534434727
 30
0.0
  0
SPLINE
  5
404
330
200
100
AcDbEntity
  8
0
  6
Continuous
 62
     7
100
AcDbSpline
210
0.0
220
0.0
230
1.0
 70
     8
 71
     3
 72
     9
 73
     5
 74
     0
 42
0.0000000001
 43
0.0000000001
 40
0.0
 40
0.0
 40
0.0
 40
0.0
 40
0.2475237861
 40
1.0
 40
1.0
 40
1.0
 40
1.0
 10
9.3673467232
 20
4.4501342145
 30
0.0
 10
9.366787011900001
 20
4.449668695499999
 30
0.0
 10
9.364482507199999
 20
4.447840285399999
 30
0.0
 10
9.362015923399999
 20
4.446218941899999
 30
0.0
 10
9.360099276099999
 20
4.445112406899999
 30
0.0
  0
SPLINE
  5
405
330
200
100
AcDbEntity
  8
0
  6
Continuous
 62
     7
100
AcDbSpline
210
0.0
220
0.0
230
1.0
 70
     8
 71
     3
 72
    11
 73
     7
 74
     0
 42
0.0000000001
 43
0.0000000001
 40
0.0
 40
0.0
 40
0.0
 40
0.0
 40
0.2177470775
 40
0.4508803582
 40
0.7103120343000002
 40
1.0
 40
1.0
 40
1.0
 40
1.0
 10
7.921290908099999
 20
4.151945679799999
 30
0.0
 10
7.9212910865
 20
4.148941506699999
 30
0.0
 10
7.922403103899999
 20
4.142679059299999
 30
0.0
 10
7.9271591882
 20
4.133957032399999
 30
0.0
 10
7.9346719061
 20
4.126075845699999
 30
0.0
 10
7.940953216699999
 20
4.121752398599999
 30
0.0
 10
7.944414363399999
 20
4.119753852499999
 30
0.0
  0
LINE
  5
406
330
200
100
AcDbEntity
  8
0
  6
Continuous
 62
     7
100
AcDbLine
 10
7.9239759295
 20
4.1444298319
 30
0.0
 11
7.9260585128
 21
4.148238414899999
 31
0.0
  0
LINE
  5
407
330
200
100
AcDbEntity
  8
0
  6
Continuous
 62
     7
100
AcDbLine
 10
7.9280088158
 20
4.151034294599999
 30
0.0
 11
7.931843437899999
 21
4.1553945068
 31
0.0
  0
SPLINE
  5
408
330
200
100
AcDbEntity
  8
0
  6
Continuous
 62
     7
100
AcDbSpline
210
0.0
220
0.0
230
1.0
 70
     8
 71
     3
 72
     9
 73
     5
 74
     0
 42
0.0000000001
 43
0.0000000001
 40
0.0
 40
0.0
 40
0.0
 40
0.0
 40
0.2369700558
 40
1.0
 40
1.0
 40
1.0
 40
1.0
 10
7.931843437899999
 20
4.1553945068
 30
0.0
 10
7.932719717899999
 20
4.1562703238
 30
0.0
 10
7.936560792899999
 20
4.1598224182
 30
0.0
 10
7.9409012474
 20
4.1628143126
 30
0.0
 10
7.944356014099999
 20
4.1648089817
 30
0.0
  0
SPLINE
  5
409
330
200
100
AcDbEntity
  8
0
  6
Continuous
 62
     7
100
AcDbSpline
210
0.0
220
0.0
230
1.0
 70
     8
 71
     3
 72
    11
 73
     7
 74
     0
 42
0.0000000001
 43
0.0000000001
 40
0.0
 40
0.0
 40
0.0
 40
0.0
 40
0.2372497148
 40
0.4999980729
 40
0.7627474805
 40
1.0
 40
1.0
 40
1.0
 40
1.0
 10
7.5420675983
 20
3.9807727172
 30
0.0
 10
7.540091439199999
 20
3.981913797099999
 30
0.0
 10
7.536351741199999
 20
3.985061118399999
 30
0.0
 10
7.531988595199999
 20
3.991026341399999
 30
0.0
 10
7.5290042194
 20
3.9977876156
 30
0.0
 10
7.528148452099999
 20
4.0025999913
 30
0.0
 10
7.5281483364
 20
4.004881962299999
 30
0.0
  0
SPLINE
  5
40A
330
200
100
AcDbEntity
  8
0
  6
Continuous
 62
     7
100
AcDbSpline
210
0.0
220
0.0
230
1.0
 70
     8
 71
     3
 72
    11
 73
     7
 74
     0
 42
0.0000000001
 43
0.0000000001
 40
0.0
 40
0.0
 40
0.0
 40
0.0
 40
0.2895521847
 40
0.5491324607000001
 40
0.7822653944
 40
1.0
 40
1.0
 40
1.0
 40
1.0
 10
7.528070640499999
 20
5.538113298999999
 30
0.0
 10
7.5280705899
 20
5.5391100934
 30
0.0
 10
7.528222680599998
 20
5.5410068021
 30
0.0
 10
7.528989267999999
 20
5.5436132134
 30
0.0
 10
7.530282484199999
 20
5.545728871199999
 30
0.0
 10
7.5314982624
 20
5.5467486544
 30
0.0
 10
7.5321474069
 20
5.5471234225
 30
0.0
  0
SPLINE
  5
40B
330
200
100
AcDbEntity
  8
0
  6
Continuous
 62
     7
100
AcDbSpline
210
0.0
220
0.0
230
1.0
 70
     8
 71
     3
 72
    11
 73
     7
 74
     0
 42
0.0000000001
 43
0.0000000001
 40
0.0
 40
0.0
 40
0.0
 40
0.0
 40
0.2351178324
 40
0.4789826020000001
 40
0.7343324575
 40
1.0
 40
1.0
 40
1.0
 40
1.0
 10
8.440590907799998
 20
6.051296614299999
 30
0.0
 10
8.441580333500001
 20
6.051867837899999
 30
0.0
 10
8.443836521899999
 20
6.0526489723
 30
0.0
 10
8.447454235599998
 20
6.0526388796
 30
0.0
 10
8.4510764033
 20
6.051682425599999
 30
0.0
 10
8.4533683609
 20
6.0505759069
 30
0.0
 10
8.454487143299999
 20
6.0499318447
 30
0.0
  0
SPLINE
  5
40C
330
200
100
AcDbEntity
  8
0
  6
Continuous
 62
     7
100
AcDbSpline
210
0.0
220
0.0
230
1.0
 70
     8
 71
     3
 72
    11
 73
     7
 74
     0
 42
0.0000000001
 43
0.0000000001
 40
0.0
 40
0.0
 40
0.0
 40
0.0
 40
0.2009929323
 40
0.4616869574000001
 40
0.7403437668000001
 40
1.0
 40
1.0
 40
1.0
 40
1.0
 10
8.8401507361
 20
5.799728480599999
 30
0.0
 10
8.840150841799999
 20
5.7976421686
 30
0.0
 10
8.840921449499999
 20
5.792857228599999
 30
0.0
 10
8.843573972799999
 20
5.7856072826
 30
0.0
 10
8.847758434799999
 20
5.778398733099999
 30
0.0
 10
8.8513884132
 20
5.774097561599999
 30
0.0
 10
8.8533435196
 20
5.7722423337
 30
0.0
  0
SPLINE
  5
40D
330
200
100
AcDbEntity
  8
0
  6
Continuous
 62
     7
100
AcDbSpline
210
0.0
220
0.0
230
1.0
 70
     8
 71
     3
 72
     9
 73
     5
 74
     0
 42
0.0000000001
 43
0.0000000001
 40
0.0
 40
0.0
 40
0.0
 40
0.0
 40
0.282255512
 40
1.0
 40
1.0
 40
1.0
 40
1.0
 10
8.854368627399999
 20
5.771309358099999
 30
0.0
 10
8.854700608299999
 20
5.771020183099999
 30
0.0
 10
8.855899178399999
 20
5.7700223847
 30
0.0
 10
8.857178146699999
 20
5.769116025299999
 30
0.0
 10
8.858147671299999
 20
5.7685561994
 30
0.0
  0
SPLINE
  5
40E
330
200
100
AcDbEntity
  8
0
  6
Continuous
 62
     7
100
AcDbSpline
210
0.0
220
0.0
230
1.0
 70
     8
 71
     3
 72
    11
 73
     7
 74
     0
 42
0.0000000001
 43
0.0000000001
 40
0.0
 40
0.0
 40
0.0
 40
0.0
 40
0.24796962
 40
0.4956275989
 40
0.7449443203000001
 40
1.0
 40
1.0
 40
1.0
 40
1.0
 10
8.8913973345
 20
5.728569396
 30
0.0
 10
8.8913986661
 20
5.7319759474
 30
0.0
 10
8.8903135135
 20
5.738830161799999
 30
0.0
 10
8.8857117985
 20
5.748122430199999
 30
0.0
 10
8.878766948699999
 20
5.7559117838
 30
0.0
 10
8.873062911799999
 20
5.759943794899999
 30
0.0
 10
8.8700285425
 20
5.7616959098
 30
0.0
  0
SPLINE
  5
40F
330
200
100
AcDbEntity
  8
0
  6
Continuous
 62
     7
100
AcDbSpline
210
0.0
220
0.0
230
1.0
 70
     8
 71
     3
 72
    11
 73
     7
 74
     0
 42
0.0000000001
 43
0.0000000001
 40
0.0
 40
0.0
 40
0.0
 40
0.0
 40
0.2177365568
 40
0.450870352
 40
0.7104497708
 40
1.0
 40
1.0
 40
1.0
 40
1.0
 10
8.052972570299999
 20
3.690472180899999
 30
0.0
 10
8.052323454599999
 20
3.690097429499999
 30
0.0
 10
8.050832465399999
 20
3.6895544942
 30
0.0
 10
8.048353771
 20
3.689492405099999
 30
0.0
 10
8.045713412199999
 20
3.690131710099999
 30
0.0
 10
8.043994873899999
 20
3.6909483111
 30
0.0
 10
8.0431317038
 20
3.6914467255
 30
0.0
  0
SPLINE
  5
410
330
200
100
AcDbEntity
  8
0
  6
Continuous
 62
     7
100
AcDbSpline
210
0.0
220
0.0
230
1.0
 70
     8
 71
     3
 72
     9
 73
     5
 74
     0
 42
0.0000000001
 43
0.0000000001
 40
0.0
 40
0.0
 40
0.0
 40
0.0
 40
0.504134519
 40
1.0
 40
1.0
 40
1.0
 40
1.0
 10
8.398742954999999
 20
6.027371746
 30
0.0
 10
8.3928000123
 20
6.028186589099999
 30
0.0
 10
8.3808163397
 20
6.028562587499999
 30
0.0
 10
8.3689876222
 20
6.0265177432
 30
0.0
 10
8.3633324611
 20
6.024835195199999
 30
0.0
  0
SPLINE
  5
411
330
200
100
AcDbEntity
  8
0
  6
Continuous
 62
     7
100
AcDbSpline
210
0.0
220
0.0
230
1.0
 70
     8
 71
     3
 72
     9
 73
     5
 74
     0
 42
0.0000000001
 43
0.0000000001
 40
0.0
 40
0.0
 40
0.0
 40
0.0
 40
0.2538620733
 40
1.0
 40
1.0
 40
1.0
 40
1.0
 10
8.3570005112
 20
6.0226245427
 30
0.0
 10
8.356326511799998
 20
6.022352099999999
 30
0.0
 10
8.3536892476
 20
6.0212359158
 30
0.0
 10
8.351125290499998
 20
6.0199439657
 30
0.0
 10
8.349274835099999
 20
6.018875645099999
 30
0.0
  0
SPLINE
  5
412
330
200
100
AcDbEntity
  8
0
  6
Continuous
 62
     7
100
AcDbSpline
210
0.0
220
0.0
230
1.0
 70
     8
 71
     3
 72
    11
 73
     7
 74
     0
 42
0.0000000001
 43
0.0000000001
 40
0.0
 40
0.0
 40
0.0
 40
0.0
 40
0.2009929323
 40
0.4616869575
 40
0.7403437668000001
 40
1.0
 40
1.0
 40
1.0
 40
1.0
 10
8.488114474699999
 20
6.0030001647
 30
0.0
 10
8.488114580499999
 20
6.0009138526
 30
0.0
 10
8.488885188200001
 20
5.996128912599999
 30
0.0
 10
8.491537711499999
 20
5.988878966599999
 30
0.0
 10
8.4957221735
 20
5.9816704171
 30
0.0
 10
8.4993521519
 20
5.977369245599999
 30
0.0
 10
8.5013072583
 20
5.9755140177
 30
0.0
  0
SPLINE
  5
413
330
200
100
AcDbEntity
  8
0
  6
Continuous
 62
     7
100
AcDbSpline
210
0.0
220
0.0
230
1.0
 70
     8
 71
     3
 72
     9
 73
     5
 74
     0
 42
0.0000000001
 43
0.0000000001
 40
0.0
 40
0.0
 40
0.0
 40
0.0
 40
0.282255512
 40
1.0
 40
1.0
 40
1.0
 40
1.0
 10
8.502332366
 20
5.9745810421
 30
0.0
 10
8.502664346999999
 20
5.9742918671
 30
0.0
 10
8.503862917100001
 20
5.9732940687
 30
0.0
 10
8.5051418854
 20
5.972387709299999
 30
0.0
 10
8.50611141
 20
5.9718278834
 30
0.0
  0
SPLINE
  5
414
330
200
100
AcDbEntity
  8
0
  6
Continuous
 62
     7
100
AcDbSpline
210
0.0
220
0.0
230
1.0
 70
     8
 71
     3
 72
    11
 73
     7
 74
     0
 42
0.0000000001
 43
0.0000000001
 40
0.0
 40
0.0
 40
0.0
 40
0.0
 40
0.237261756
 40
0.5000106412
 40
0.7627537404000001
 40
1.0
 40
1.0
 40
1.0
 40
1.0
 10
8.182267966199999
 20
5.054311628399999
 30
0.0
 10
8.178315231699999
 20
5.0520296022
 30
0.0
 10
8.170835074500001
 20
5.045735245799999
 30
0.0
 10
8.162108121000001
 20
5.033804824799999
 30
0.0
 10
8.156139455199999
 20
5.020282220199999
 30
0.0
 10
8.154428559400001
 20
5.0106573981
 30
0.0
 10
8.1544287907
 20
5.006093514699999
 30
0.0
  0
SPLINE
  5
415
330
200
100
AcDbEntity
  8
0
  6
Continuous
 62
     7
100
AcDbSpline
210
0.0
220
0.0
230
1.0
 70
     8
 71
     3
 72
     9
 73
     5
 74
     0
 42
0.0000000001
 43
0.0000000001
 40
0.0
 40
0.0
 40
0.0
 40
0.0
 40
0.5507750182
 40
1.0
 40
1.0
 40
1.0
 40
1.0
 10
8.154429116499999
 20
4.9996645499
 30
0.0
 10
8.1544291737
 20
4.998536718999999
 30
0.0
 10
8.1547031649
 20
4.996441023
 30
0.0
 10
8.1560788077
 20
4.9947184119
 30
0.0
 10
8.156875427699999
 20
4.9942584277
 30
0.0
  0
SPLINE
  5
416
330
200
100
AcDbEntity
  8
0
  6
Continuous
 62
     7
100
AcDbSpline
210
0.0
220
0.0
230
1.0
 70
     8
 71
     3
 72
    11
 73
     7
 74
     0
 42
0.0000000001
 43
0.0000000001
 40
0.0
 40
0.0
 40
0.0
 40
0.0
 40
0.2372522124
 40
0.5000104751
 40
0.7627630372
 40
1.0
 40
1.0
 40
1.0
 40
1.0
 10
8.1627710956
 20
5.206998928099999
 30
0.0
 10
8.1615853236
 20
5.2063143481
 30
0.0
 10
8.1593415255
 20
5.2044258223
 30
0.0
 10
8.156722669
 20
5.2008471629
 30
0.0
 10
8.1549328573
 20
5.1967899468
 30
0.0
 10
8.1544192736
 20
5.193902604599999
 30
0.0
 10
8.154419342899998
 20
5.1925334939
 30
0.0
  0
SPLINE
  5
417
330
200
100
AcDbEntity
  8
0
  6
Continuous
 62
     7
100
AcDbSpline
210
0.0
220
0.0
230
1.0
 70
     8
 71
     3
 72
    11
 73
     7
 74
     0
 42
0.0000000001
 43
0.0000000001
 40
0.0
 40
0.0
 40
0.0
 40
0.0
 40
0.2895291791
 40
0.5491026834000001
 40
0.7822451254999999
 40
1.0
 40
1.0
 40
1.0
 40
1.0
 10
8.154419668699999
 20
5.1861045291
 30
0.0
 10
8.1544197697
 20
5.1841111574
 30
0.0
 10
8.154724342899999
 20
5.180318088199999
 30
0.0
 10
8.156258006299999
 20
5.1751057271
 30
0.0
 10
8.158844769099999
 20
5.1708746284
 30
0.0
 10
8.1612763586
 20
5.168834987699999
 30
0.0
 10
8.1625746768
 20
5.168085311299999
 30
0.0
  0
SPLINE
  5
418
330
200
100
AcDbEntity
  8
0
  6
Continuous
 62
     7
100
AcDbSpline
210
0.0
220
0.0
230
1.0
 70
     8
 71
     3
 72
    11
 73
     7
 74
     0
 42
0.0000000001
 43
0.0000000001
 40
0.0
 40
0.0
 40
0.0
 40
0.0
 40
0.237261756
 40
0.5000106412
 40
0.7627537404000001
 40
1.0
 40
1.0
 40
1.0
 40
1.0
 10
8.1823119472
 20
4.186401380099999
 30
0.0
 10
8.1783592127
 20
4.184119353799999
 30
0.0
 10
8.170879055599998
 20
4.1778249974
 30
0.0
 10
8.162152102
 20
4.165894576499999
 30
0.0
 10
8.156183436199999
 20
4.1523719718
 30
0.0
 10
8.154472540499998
 20
4.142747149799999
 30
0.0
 10
8.1544727718
 20
4.138183266299999
 30
0.0
  0
SPLINE
  5
419
330
200
100
AcDbEntity
  8
0
  6
Continuous
 62
     7
100
AcDbSpline
210
0.0
220
0.0
230
1.0
 70
     8
 71
     3
 72
     9
 73
     5
 74
     0
 42
0.0000000001
 43
0.0000000001
 40
0.0
 40
0.0
 40
0.0
 40
0.0
 40
0.5507750182
 40
1.0
 40
1.0
 40
1.0
 40
1.0
 10
8.1544730975
 20
4.1317543015
 30
0.0
 10
8.154473154699999
 20
4.1306264706
 30
0.0
 10
8.1547471459
 20
4.1285307747
 30
0.0
 10
8.156122788699999
 20
4.1268081635
 30
0.0
 10
8.1569194087
 20
4.126348179299999
 30
0.0
  0
SPLINE
  5
41A
330
200
100
AcDbEntity
  8
0
  6
Continuous
 62
     7
100
AcDbSpline
210
0.0
220
0.0
230
1.0
 70
     8
 71
     3
 72
    11
 73
     7
 74
     0
 42
0.0000000001
 43
0.0000000001
 40
0.0
 40
0.0
 40
0.0
 40
0.0
 40
0.2372522125
 40
0.5000104752000001
 40
0.7627630373000001
 40
1.0
 40
1.0
 40
1.0
 40
1.0
 10
8.162815076599999
 20
4.3390886797
 30
0.0
 10
8.161629304599999
 20
4.338404099799999
 30
0.0
 10
8.159385506599999
 20
4.336515573899999
 30
0.0
 10
8.156766649999999
 20
4.332936914599999
 30
0.0
 10
8.154976838299999
 20
4.3288796985
 30
0.0
 10
8.154463254599999
 20
4.3259923562
 30
0.0
 10
8.154463323999999
 20
4.324623245599999
 30
0.0
  0
SPLINE
  5
41B
330
200
100
AcDbEntity
  8
0
  6
Continuous
 62
     7
100
AcDbSpline
210
0.0
220
0.0
230
1.0
 70
     8
 71
     3
 72
    11
 73
     7
 74
     0
 42
0.0000000001
 43
0.0000000001
 40
0.0
 40
0.0
 40
0.0
 40
0.0
 40
0.2895291791
 40
0.5491026834000001
 40
0.7822451256000001
 40
1.0
 40
1.0
 40
1.0
 40
1.0
 10
8.1544636498
 20
4.3181942808
 30
0.0
 10
8.154463750799999
 20
4.316200908999999
 30
0.0
 10
8.154768323899999
 20
4.3124078399
 30
0.0
 10
8.1563019873
 20
4.307195478699999
 30
0.0
 10
8.158888750099999
 20
4.302964380099999
 30
0.0
 10
8.161320339599999
 20
4.3009247393
 30
0.0
 10
8.162618657899999
 20
4.3001750629
 30
0.0
  0
SPLINE
  5
41C
330
200
100
AcDbEntity
  8
0
  6
Continuous
 62
     7
100
AcDbSpline
210
0.0
220
0.0
230
1.0
 70
     8
 71
     3
 72
    11
 73
     7
 74
     0
 42
0.0000000001
 43
0.0000000001
 40
0.0
 40
0.0
 40
0.0
 40
0.0
 40
0.2177347385
 40
0.4508677428000001
 40
0.7104478372000001
 40
1.0
 40
1.0
 40
1.0
 40
1.0
 10
7.9435832595
 20
5.318964283599999
 30
0.0
 10
7.9442324019
 20
5.319339053399999
 30
0.0
 10
7.945448176
 20
5.3203588379
 30
0.0
 10
7.946741385399999
 20
5.322474494199999
 30
0.0
 10
7.9475079707
 20
5.325080900199999
 30
0.0
 10
7.9476600596
 20
5.326977604899999
 30
0.0
 10
7.947660009099999
 20
5.3279743973
 30
0.0
  0
SPLINE
  5
41D
330
200
100
AcDbEntity
  8
0
  6
Continuous
 62
     7
100
AcDbSpline
210
0.0
220
0.0
230
1.0
 70
     8
 71
     3
 72
    11
 73
     7
 74
     0
 42
0.0000000001
 43
0.0000000001
 40
0.0
 40
0.0
 40
0.0
 40
0.0
 40
0.2351175622
 40
0.4789829046
 40
0.7343350347
 40
1.0
 40
1.0
 40
1.0
 40
1.0
 10
8.792627169099999
 20
5.8480227432
 30
0.0
 10
8.7936166704
 20
5.848594010499999
 30
0.0
 10
8.7958730646
 20
5.8493751271
 30
0.0
 10
8.7994910718
 20
5.849365012899999
 30
0.0
 10
8.8031134772
 20
5.8484082684
 30
0.0
 10
8.8054055543
 20
5.847301558099999
 30
0.0
 10
8.806524383500001
 20
5.846657401599999
 30
0.0
  0
SPLINE
  5
41E
330
200
100
AcDbEntity
  8
0
  6
Continuous
 62
     7
100
AcDbSpline
210
0.0
220
0.0
230
1.0
 70
     8
 71
     3
 72
    11
 73
     7
 74
     0
 42
0.0000000001
 43
0.0000000001
 40
0.0
 40
0.0
 40
0.0
 40
0.0
 40
0.2177730285
 40
0.4508951261
 40
0.7102847079000001
 40
1.0
 40
1.0
 40
1.0
 40
1.0
 10
7.996073351199999
 20
5.595534820399999
 30
0.0
 10
7.998021162399999
 20
5.5966593474
 30
0.0
 10
8.001665437099999
 20
5.599723167
 30
0.0
 10
8.0055449658
 20
5.6060671133
 30
0.0
 10
8.007848949999999
 20
5.613885327699999
 30
0.0
 10
8.008302268699999
 20
5.619575657699999
 30
0.0
 10
8.008302117099999
 20
5.6225677808
 30
0.0
  0
SPLINE
  5
41F
330
200
100
AcDbEntity
  8
0
  6
Continuous
 62
     7
100
AcDbSpline
210
0.0
220
0.0
230
1.0
 70
     8
 71
     3
 72
    11
 73
     7
 74
     0
 42
0.0000000001
 43
0.0000000001
 40
0.0
 40
0.0
 40
0.0
 40
0.0
 40
0.2372444983
 40
0.4999875992
 40
0.762737446
 40
1.0
 40
1.0
 40
1.0
 40
1.0
 10
7.5977259458
 20
4.3407909172
 30
0.0
 10
7.6016782219
 20
4.338508781599999
 30
0.0
 10
7.610868942499999
 20
4.335178037799999
 30
0.0
 10
7.625564122999999
 20
4.3335856206
 30
0.0
 10
7.640259666399999
 20
4.3351779279
 30
0.0
 10
7.6494509062
 20
4.338508511999999
 30
0.0
 10
7.653403645
 20
4.340790540699999
 30
0.0
  0
SPLINE
  5
420
330
200
100
AcDbEntity
  8
0
  6
Continuous
 62
     7
100
AcDbSpline
210
0.0
220
0.0
230
1.0
 70
     8
 71
     3
 72
    11
 73
     7
 74
     0
 42
0.0000000001
 43
0.0000000001
 40
0.0
 40
0.0
 40
0.0
 40
0.0
 40
0.2177827211
 40
0.4509167910000001
 40
0.7103037976000001
 40
1.0
 40
1.0
 40
1.0
 40
1.0
 10
9.381436163
 20
5.249706064499999
 30
0.0
 10
9.381435510999999
 20
5.2474567904
 30
0.0
 10
9.380603034299999
 20
5.2427687867
 30
0.0
 10
9.377047752899999
 20
5.2362372575
 30
0.0
 10
9.3714287531
 20
5.230332968599999
 30
0.0
 10
9.366727561599999
 20
5.2270952133
 30
0.0
 10
9.3641363879
 20
5.225599254899999
 30
0.0
  0
SPLINE
  5
421
330
200
100
AcDbEntity
  8
0
  6
Continuous
 62
     7
100
AcDbSpline
210
0.0
220
0.0
230
1.0
 70
     8
 71
     3
 72
    11
 73
     7
 74
     0
 42
0.0000000001
 43
0.0000000001
 40
0.0
 40
0.0
 40
0.0
 40
0.0
 40
0.2177459164
 40
0.4508844734000001
 40
0.7104611741
 40
1.0
 40
1.0
 40
1.0
 40
1.0
 10
8.162618657899999
 20
4.3001750629
 30
0.0
 10
8.163917255199999
 20
4.2994252254
 30
0.0
 10
8.166900058699999
 20
4.29833876
 30
0.0
 10
8.1718589008
 20
4.298214034699999
 30
0.0
 10
8.177141166
 20
4.2994924639
 30
0.0
 10
8.180579256499999
 20
4.3011258004
 30
0.0
 10
8.1823060831
 20
4.302122746499999
 30
0.0
  0
SPLINE
  5
422
330
200
100
AcDbEntity
  8
0
  6
Continuous
 62
     7
100
AcDbSpline
210
0.0
220
0.0
230
1.0
 70
     8
 71
     3
 72
    11
 73
     7
 74
     0
 42
0.0000000001
 43
0.0000000001
 40
0.0
 40
0.0
 40
0.0
 40
0.0
 40
0.2895502513
 40
0.5491298513000001
 40
0.7822635759000001
 40
1.0
 40
1.0
 40
1.0
 40
1.0
 10
7.933742376399999
 20
5.319938818399999
 30
0.0
 10
7.934605548099999
 20
5.319440403099999
 30
0.0
 10
7.9363240907
 20
5.3186238016
 30
0.0
 10
7.938964455199999
 20
5.3179844957
 30
0.0
 10
7.941443154199999
 20
5.318046589999999
 30
0.0
 10
7.9429341444
 20
5.318589529399999
 30
0.0
 10
7.9435832595
 20
5.318964283599999
 30
0.0
  0
SPLINE
  5
423
330
200
100
AcDbEntity
  8
0
  6
Continuous
 62
     7
100
AcDbSpline
210
0.0
220
0.0
230
1.0
 70
     8
 71
     3
 72
     9
 73
     5
 74
     0
 42
0.0000000001
 43
0.0000000001
 40
0.0
 40
0.0
 40
0.0
 40
0.0
 40
0.4492109207000001
 40
1.0
 40
1.0
 40
1.0
 40
1.0
 10
8.1569194087
 20
4.126348179299999
 30
0.0
 10
8.157716202799999
 20
4.1258880947
 30
0.0
 10
8.1598964408
 20
4.125557933799999
 30
0.0
 10
8.161848819199999
 20
4.126368786499999
 30
0.0
 10
8.1628258275
 20
4.1269328412
 30
0.0
  0
SPLINE
  5
424
330
200
100
AcDbEntity
  8
0
  6
Continuous
 62
     7
100
AcDbSpline
210
0.0
220
0.0
230
1.0
 70
     8
 71
     3
 72
    11
 73
     7
 74
     0
 42
0.0000000001
 43
0.0000000001
 40
0.0
 40
0.0
 40
0.0
 40
0.0
 40
0.2372527648
 40
0.5000022623
 40
0.7627505306999999
 40
1.0
 40
1.0
 40
1.0
 40
1.0
 10
7.989415351099999
 20
5.303866086
 30
0.0
 10
7.989415466799999
 20
5.301584112599999
 30
0.0
 10
7.990271235499999
 20
5.296771733699999
 30
0.0
 10
7.993255613999999
 20
5.2900104579
 30
0.0
 10
7.997618760199999
 20
5.2840452379
 30
0.0
 10
8.0013584561
 20
5.2808979194
 30
0.0
 10
8.003334613199999
 20
5.2797568407
 30
0.0
  0
SPLINE
  5
425
330
200
100
AcDbEntity
  8
0
  6
Continuous
 62
     7
100
AcDbSpline
210
0.0
220
0.0
230
1.0
 70
     8
 71
     3
 72
    11
 73
     7
 74
     0
 42
0.0000000001
 43
0.0000000001
 40
0.0
 40
0.0
 40
0.0
 40
0.0
 40
0.2372497144
 40
0.4999980721
 40
0.7627474802
 40
1.0
 40
1.0
 40
1.0
 40
1.0
 10
8.0430523786
 20
5.2568228852
 30
0.0
 10
8.0450285378
 20
5.2556818053
 30
0.0
 10
8.0487682358
 20
5.252534483899999
 30
0.0
 10
8.0531313819
 20
5.246569260899999
 30
0.0
 10
8.056115757799998
 20
5.2398079866
 30
0.0
 10
8.056971525099999
 20
5.234995610899999
 30
0.0
 10
8.0569716408
 20
5.2327136399
 30
0.0
  0
SPLINE
  5
426
330
200
100
AcDbEntity
  8
0
  6
Continuous
 62
     7
100
AcDbSpline
210
0.0
220
0.0
230
1.0
 70
     8
 71
     3
 72
    11
 73
     7
 74
     0
 42
0.0000000001
 43
0.0000000001
 40
0.0
 40
0.0
 40
0.0
 40
0.0
 40
0.2895521847
 40
0.5491324606
 40
0.7822653943000001
 40
1.0
 40
1.0
 40
1.0
 40
1.0
 10
8.0570493367
 20
3.6994823044
 30
0.0
 10
8.057049387200001
 20
3.698485509999999
 30
0.0
 10
8.056897296599998
 20
3.696588801299999
 30
0.0
 10
8.056130709199999
 20
3.693982389999999
 30
0.0
 10
8.054837492999999
 20
3.6918667323
 30
0.0
 10
8.0536217148
 20
3.690846948999999
 30
0.0
 10
8.052972570299999
 20
3.690472180899999
 30
0.0
  0
SPLINE
  5
427
330
200
100
AcDbEntity
  8
0
  6
Continuous
 62
     7
100
AcDbSpline
210
0.0
220
0.0
230
1.0
 70
     8
 71
     3
 72
    11
 73
     7
 74
     0
 42
0.0000000001
 43
0.0000000001
 40
0.0
 40
0.0
 40
0.0
 40
0.0
 40
0.2895502514
 40
0.5491298511
 40
0.7822635756000001
 40
1.0
 40
1.0
 40
1.0
 40
1.0
 10
7.581706115
 20
5.5232148784
 30
0.0
 10
7.582569286799999
 20
5.522716463099999
 30
0.0
 10
7.5842878294
 20
5.521899861699999
 30
0.0
 10
7.5869281938
 20
5.5212605558
 30
0.0
 10
7.589406892699999
 20
5.5213226501
 30
0.0
 10
7.590897882899999
 20
5.5218655895
 30
0.0
 10
7.591546997999999
 20
5.5222403437
 30
0.0
  0
SPLINE
  5
428
330
200
100
AcDbEntity
  8
0
  6
Continuous
 62
     7
100
AcDbSpline
210
0.0
220
0.0
230
1.0
 70
     8
 71
     3
 72
    11
 73
     7
 74
     0
 42
0.0000000001
 43
0.0000000001
 40
0.0
 40
0.0
 40
0.0
 40
0.0
 40
0.2372527648
 40
0.5000022621
 40
0.7627505305
 40
1.0
 40
1.0
 40
1.0
 40
1.0
 10
7.6373790899
 20
5.507137769899999
 30
0.0
 10
7.637379205499999
 20
5.504855796599999
 30
0.0
 10
7.638234974299999
 20
5.500043417599999
 30
0.0
 10
7.641219352799999
 20
5.4932821419
 30
0.0
 10
7.645582498899999
 20
5.487316922
 30
0.0
 10
7.649322194699999
 20
5.4841696034
 30
0.0
 10
7.651298351799999
 20
5.483028524699999
 30
0.0
  0
SPLINE
  5
429
330
200
100
AcDbEntity
  8
0
  6
Continuous
 62
     7
100
AcDbSpline
210
0.0
220
0.0
230
1.0
 70
     8
 71
     3
 72
    11
 73
     7
 74
     0
 42
0.0000000001
 43
0.0000000001
 40
0.0
 40
0.0
 40
0.0
 40
0.0
 40
0.2177459164
 40
0.4508844734000001
 40
0.7104611741
 40
1.0
 40
1.0
 40
1.0
 40
1.0
 10
8.1625746768
 20
5.168085311299999
 30
0.0
 10
8.1638732741
 20
5.167335473799999
 30
0.0
 10
8.1668560776
 20
5.166249008399999
 30
0.0
 10
8.1718149198
 20
5.1661242831
 30
0.0
 10
8.177097184999999
 20
5.1674027123
 30
0.0
 10
8.180535275499998
 20
5.169036048699999
 30
0.0
 10
8.182262102000001
 20
5.170032994899999
 30
0.0
  0
SPLINE
  5
42A
330
200
100
AcDbEntity
  8
0
  6
Continuous
 62
     7
100
AcDbSpline
210
0.0
220
0.0
230
1.0
 70
     8
 71
     3
 72
    11
 73
     7
 74
     0
 42
0.0000000001
 43
0.0000000001
 40
0.0
 40
0.0
 40
0.0
 40
0.0
 40
0.2895383356
 40
0.5491108536000001
 40
0.7822526490000001
 40
1.0
 40
1.0
 40
1.0
 40
1.0
 10
8.482347882799999
 20
5.994962333999999
 30
0.0
 10
8.483211308499999
 20
5.995460814299999
 30
0.0
 10
8.4847781704
 20
5.996541121799999
 30
0.0
 10
8.4866524166
 20
5.998508752699999
 30
0.0
 10
8.4878383014
 20
6.000687125199999
 30
0.0
 10
8.488113597399999
 20
6.002250379099999
 30
0.0
 10
8.4881135602
 20
6.0030001646
 30
0.0
  0
SPLINE
  5
42B
330
200
100
AcDbEntity
  8
0
  6
Continuous
 62
     7
100
AcDbSpline
210
0.0
220
0.0
230
1.0
 70
     8
 71
     3
 72
    11
 73
     7
 74
     0
 42
0.0000000001
 43
0.0000000001
 40
0.0
 40
0.0
 40
0.0
 40
0.0
 40
0.2372438436
 40
0.4999979056
 40
0.7627531067000001
 40
1.0
 40
1.0
 40
1.0
 40
1.0
 10
8.4962671446
 20
5.9708530889
 30
0.0
 10
8.494291030499999
 20
5.971994142799999
 30
0.0
 10
8.490551275199999
 20
5.975141392799999
 30
0.0
 10
8.4861880232
 20
5.9811066402
 30
0.0
 10
8.4832036766
 20
5.9878680197
 30
0.0
 10
8.482347998399999
 20
5.992680412799999
 30
0.0
 10
8.482347882799999
 20
5.994962333999999
 30
0.0
  0
LINE
  5
42C
330
200
100
AcDbEntity
  8
0
  6
Continuous
 62
     7
100
AcDbLine
 10
8.4823462474
 20
6.027233855399999
 30
0.0
 11
8.488113144899999
 21
6.030514799299999
 31
0.0
  0
SPLINE
  5
42D
330
200
100
AcDbEntity
  8
0
  6
Continuous
 62
     7
100
AcDbSpline
210
0.0
220
0.0
230
1.0
 70
     8
 71
     3
 72
     9
 73
     5
 74
     0
 42
0.0000000001
 43
0.0000000001
 40
0.0
 40
0.0
 40
0.0
 40
0.0
 40
0.4492109207000001
 40
1.0
 40
1.0
 40
1.0
 40
1.0
 10
8.156875427699999
 20
4.9942584277
 30
0.0
 10
8.1576722217
 20
4.993798342999999
 30
0.0
 10
8.159852459799999
 20
4.993468182199999
 30
0.0
 10
8.1618048382
 20
4.994279034799999
 30
0.0
 10
8.162781846499999
 20
4.994843089599999
 30
0.0
  0
SPLINE
  5
42E
330
200
100
AcDbEntity
  8
0
  6
Continuous
 62
     7
100
AcDbSpline
210
0.0
220
0.0
230
1.0
 70
     8
 71
     3
 72
    11
 73
     7
 74
     0
 42
0.0000000001
 43
0.0000000001
 40
0.0
 40
0.0
 40
0.0
 40
0.0
 40
0.2177507287
 40
0.4508941044000001
 40
0.7104654926000001
 40
1.0
 40
1.0
 40
1.0
 40
1.0
 10
8.858147214
 20
5.7685554074
 30
0.0
 10
8.857497893799999
 20
5.768930339099999
 30
0.0
 10
8.85600643
 20
5.7694735759
 30
0.0
 10
8.8535269642
 20
5.769535827999999
 30
0.0
 10
8.8508858251
 20
5.7688965948
 30
0.0
 10
8.8491668161
 20
5.768079876199999
 30
0.0
 10
8.848303405900001
 20
5.7675814049
 30
0.0
  0
SPLINE
  5
42F
330
200
100
AcDbEntity
  8
0
  6
Continuous
 62
     7
100
AcDbSpline
210
0.0
220
0.0
230
1.0
 70
     8
 71
     3
 72
    11
 73
     7
 74
     0
 42
0.0000000001
 43
0.0000000001
 40
0.0
 40
0.0
 40
0.0
 40
0.0
 40
0.2895459383
 40
0.5491200361000001
 40
0.7822586278000001
 40
1.0
 40
1.0
 40
1.0
 40
1.0
 10
8.359116262
 20
6.0179001522
 30
0.0
 10
8.3582530941
 20
6.0183985653
 30
0.0
 10
8.356534590499999
 20
6.0192152173
 30
0.0
 10
8.353894222699999
 20
6.019854540599999
 30
0.0
 10
8.3514154814
 20
6.019792560299999
 30
0.0
 10
8.349924429499999
 20
6.019249618599999
 30
0.0
 10
8.349275292299999
 20
6.018874853099999
 30
0.0
  0
SPLINE
  5
430
330
200
100
AcDbEntity
  8
0
  6
Continuous
 62
     7
100
AcDbSpline
210
0.0
220
0.0
230
1.0
 70
     8
 71
     3
 72
    11
 73
     7
 74
     0
 42
0.0000000001
 43
0.0000000001
 40
0.0
 40
0.0
 40
0.0
 40
0.0
 40
0.2177827211
 40
0.4509167910000001
 40
0.7103037976000001
 40
1.0
 40
1.0
 40
1.0
 40
1.0
 10
8.891399404400001
 20
5.7285717238
 30
0.0
 10
8.8913987525
 20
5.7263224496
 30
0.0
 10
8.890566275700001
 20
5.7216344459
 30
0.0
 10
8.887010994299998
 20
5.715102916699999
 30
0.0
 10
8.881391994500001
 20
5.709198627799999
 30
0.0
 10
8.876690802999998
 20
5.705960872599999
 30
0.0
 10
8.874099629299999
 20
5.704464914199999
 30
0.0
  0
SPLINE
  5
431
330
200
100
AcDbEntity
  8
0
  6
Continuous
 62
     7
100
AcDbSpline
210
0.0
220
0.0
230
1.0
 70
     8
 71
     3
 72
    10
 73
     6
 74
     0
 42
0.0000000001
 43
0.0000000001
 40
0.0
 40
0.0
 40
0.0
 40
0.0
 40
0.5288246832
 40
0.7686177587000001
 40
1.0
 40
1.0
 40
1.0
 40
1.0
 10
7.9761786234
 20
5.594200940499999
 30
0.0
 10
7.9796254623
 20
5.593152692999999
 30
0.0
 10
7.9849573759
 20
5.5923242033
 30
0.0
 10
7.991719509
 20
5.5934779033
 30
0.0
 10
7.994708195
 20
5.594746676799999
 30
0.0
 10
7.996073351199999
 20
5.595534820399999
 30
0.0
  0
SPLINE
  5
432
330
200
100
AcDbEntity
  8
0
  6
Continuous
 62
     7
100
AcDbSpline
210
0.0
220
0.0
230
1.0
 70
     8
 71
     3
 72
    11
 73
     7
 74
     0
 42
0.0000000001
 43
0.0000000001
 40
0.0
 40
0.0
 40
0.0
 40
0.0
 40
0.2177395529
 40
0.4508773613
 40
0.7104521375
 40
1.0
 40
1.0
 40
1.0
 40
1.0
 10
9.360098818899999
 20
4.445113198899999
 30
0.0
 10
9.360747983899999
 20
4.4454879805
 30
0.0
 10
9.361963794099999
 20
4.446507816299999
 30
0.0
 10
9.3632569319
 20
4.4486235672
 30
0.0
 10
9.3640235054
 20
4.451229989399999
 30
0.0
 10
9.364175532699999
 20
4.4531266891
 30
0.0
 10
9.3641754822
 20
4.4541234786
 30
0.0
  0
SPLINE
  5
433
330
200
100
AcDbEntity
  8
0
  6
Continuous
 62
     7
100
AcDbSpline
210
0.0
220
0.0
230
1.0
 70
     8
 71
     3
 72
    11
 73
     7
 74
     0
 42
0.0000000001
 43
0.0000000001
 40
0.0
 40
0.0
 40
0.0
 40
0.0
 40
0.2177365571
 40
0.4508703522000001
 40
0.7104497706
 40
1.0
 40
1.0
 40
1.0
 40
1.0
 10
7.5321474069
 20
5.5471234225
 30
0.0
 10
7.532796522599999
 20
5.5474981739
 30
0.0
 10
7.534287511699999
 20
5.548041109199999
 30
0.0
 10
7.5367662061
 20
5.5481031983
 30
0.0
 10
7.5394065649
 20
5.5474638933
 30
0.0
 10
7.541125103099999
 20
5.5466472923
 30
0.0
 10
7.5419882732
 20
5.546148877999999
 30
0.0
  0
SPLINE
  5
434
330
200
100
AcDbEntity
  8
0
  6
Continuous
 62
     7
100
AcDbSpline
210
0.0
220
0.0
230
1.0
 70
     8
 71
     3
 72
    11
 73
     7
 74
     0
 42
0.0000000001
 43
0.0000000001
 40
0.0
 40
0.0
 40
0.0
 40
0.0
 40
0.2177507288
 40
0.4508941044000001
 40
0.7104654926000001
 40
1.0
 40
1.0
 40
1.0
 40
1.0
 10
8.5061109527
 20
5.971827091399999
 30
0.0
 10
8.505461632499999
 20
5.972202023099999
 30
0.0
 10
8.5039701687
 20
5.972745259899999
 30
0.0
 10
8.501490702799999
 20
5.9728075121
 30
0.0
 10
8.4988495638
 20
5.972168278799999
 30
0.0
 10
8.4971305548
 20
5.971351560199999
 30
0.0
 10
8.4962671446
 20
5.9708530889
 30
0.0
  0
SPLINE
  5
435
330
200
100
AcDbEntity
  8
0
  6
Continuous
 62
     7
100
AcDbSpline
210
0.0
220
0.0
230
1.0
 70
     8
 71
     3
 72
    11
 73
     7
 74
     0
 42
0.0000000001
 43
0.0000000001
 40
0.0
 40
0.0
 40
0.0
 40
0.0
 40
0.2895345074
 40
0.5491058956
 40
0.7822492713
 40
1.0
 40
1.0
 40
1.0
 40
1.0
 10
8.8601842771
 20
5.760721115299999
 30
0.0
 10
8.861047687300001
 20
5.761219586599999
 30
0.0
 10
8.862766696399999
 20
5.762036305199999
 30
0.0
 10
8.865407835399999
 20
5.762675538399999
 30
0.0
 10
8.867887301199999
 20
5.762613286299999
 30
0.0
 10
8.8693787651
 20
5.7620700495
 30
0.0
 10
8.870028085199999
 20
5.761695117799999
 30
0.0
  0
SPLINE
  5
436
330
200
100
AcDbEntity
  8
0
  6
Continuous
 62
     7
100
AcDbSpline
210
0.0
220
0.0
230
1.0
 70
     8
 71
     3
 72
    11
 73
     7
 74
     0
 42
0.0000000001
 43
0.0000000001
 40
0.0
 40
0.0
 40
0.0
 40
0.0
 40
0.2372469132
 40
0.5000021335
 40
0.7627562199
 40
1.0
 40
1.0
 40
1.0
 40
1.0
 10
8.874099629299999
 20
5.704464914199999
 30
0.0
 10
8.874099513699999
 20
5.706746835599999
 30
0.0
 10
8.8732438353
 20
5.711559228999999
 30
0.0
 10
8.8702594884
 20
5.7183206091
 30
0.0
 10
8.865896236099999
 20
5.724285855999999
 30
0.0
 10
8.862156480999999
 20
5.7274331057
 30
0.0
 10
8.860180367499999
 20
5.728574159299999
 30
0.0
  0
SPLINE
  5
437
330
200
100
AcDbEntity
  8
0
  6
Continuous
 62
     7
100
AcDbSpline
210
0.0
220
0.0
230
1.0
 70
     8
 71
     3
 72
    13
 73
     9
 74
     0
 42
0.0000000001
 43
0.0000000001
 40
0.0
 40
0.0
 40
0.0
 40
0.0
 40
0.1029232118
 40
0.2158189793
 40
0.3375999042
 40
0.4664050456
 40
0.7348999198000001
 40
1.0
 40
1.0
 40
1.0
 40
1.0
 10
9.2113977787
 20
5.447230381799999
 30
0.0
 10
9.218138748099999
 20
5.4451107511
 30
0.0
 10
9.231834609099999
 20
5.4392148775
 30
0.0
 10
9.251463113699999
 20
5.426750425999999
 30
0.0
 10
9.270605295800001
 20
5.410632678699999
 30
0.0
 10
9.295017237599999
 20
5.3845763776
 30
0.0
 10
9.320561211699999
 20
5.3465535624
 30
0.0
 10
9.334722351499999
 20
5.312427561499999
 30
0.0
 10
9.339714053699999
 20
5.294924556399999
 30
0.0
  0
SPLINE
  5
438
330
200
100
AcDbEntity
  8
0
  6
Continuous
 62
     7
100
AcDbSpline
210
0.0
220
0.0
230
1.0
 70
     8
 71
     3
 72
    11
 73
     7
 74
     0
 42
0.0000000001
 43
0.0000000001
 40
0.0
 40
0.0
 40
0.0
 40
0.0
 40
0.2895383356
 40
0.5491108536000001
 40
0.7822526490000001
 40
1.0
 40
1.0
 40
1.0
 40
1.0
 10
8.834384144099999
 20
5.791690650199999
 30
0.0
 10
8.835247569799999
 20
5.792189130399999
 30
0.0
 10
8.836814431699998
 20
5.793269437999999
 30
0.0
 10
8.8386886779
 20
5.795237068899999
 30
0.0
 10
8.8398745627
 20
5.7974154414
 30
0.0
 10
8.8401498587
 20
5.798978695199999
 30
0.0
 10
8.840149821499998
 20
5.7997284808
 30
0.0
  0
SPLINE
  5
439
330
200
100
AcDbEntity
  8
0
  6
Continuous
 62
     7
100
AcDbSpline
210
0.0
220
0.0
230
1.0
 70
     8
 71
     3
 72
    11
 73
     7
 74
     0
 42
0.0000000001
 43
0.0000000001
 40
0.0
 40
0.0
 40
0.0
 40
0.0
 40
0.2372438435
 40
0.4999979056
 40
0.7627531067000001
 40
1.0
 40
1.0
 40
1.0
 40
1.0
 10
8.848303405900001
 20
5.7675814049
 30
0.0
 10
8.846327291799999
 20
5.7687224588
 30
0.0
 10
8.842587536499999
 20
5.771869708799999
 30
0.0
 10
8.8382242846
 20
5.7778349561
 30
0.0
 10
8.835239937999999
 20
5.7845963357
 30
0.0
 10
8.8343842597
 20
5.789408728699999
 30
0.0
 10
8.834384144099999
 20
5.791690649999999
 30
0.0
  0
LINE
  5
43A
330
200
100
AcDbEntity
  8
0
  6
Continuous
 62
     7
100
AcDbLine
 10
8.834382511299999
 20
5.823912243799999
 30
0.0
 11
8.840149461000001
 21
5.827241502699999
 31
0.0
  0
SPLINE
  5
43B
330
200
100
AcDbEntity
  8
0
  6
Continuous
 62
     7
100
AcDbSpline
210
0.0
220
0.0
230
1.0
 70
     8
 71
     3
 72
    11
 73
     7
 74
     0
 42
0.0000000001
 43
0.0000000001
 40
0.0
 40
0.0
 40
0.0
 40
0.0
 40
0.2897027565
 40
0.5490878869
 40
0.7822166737999999
 40
1.0
 40
1.0
 40
1.0
 40
1.0
 10
9.3641754822
 20
4.4541234786
 30
0.0
 10
9.3667672668
 20
4.4556197898
 30
0.0
 10
9.3714694593
 20
4.458858357599999
 30
0.0
 10
9.377089212299999
 20
4.464764386399999
 30
0.0
 10
9.380644104799999
 20
4.4712979429
 30
0.0
 10
9.3814753747
 20
4.475987210599999
 30
0.0
 10
9.3814752581
 20
4.4782369705
 30
0.0
  0
SPLINE
  5
43C
330
200
100
AcDbEntity
  8
0
  6
Continuous
 62
     7
100
AcDbSpline
210
0.0
220
0.0
230
1.0
 70
     8
 71
     3
 72
    11
 73
     7
 74
     0
 42
0.0000000001
 43
0.0000000001
 40
0.0
 40
0.0
 40
0.0
 40
0.0
 40
0.2895344801
 40
0.5491058048
 40
0.7822492268000002
 40
1.0
 40
1.0
 40
1.0
 40
1.0
 10
9.3502210357
 20
5.281855456
 30
0.0
 10
9.351084445799999
 20
5.282353927299999
 30
0.0
 10
9.3528034544
 20
5.2831706462
 30
0.0
 10
9.355444593399999
 20
5.283809878799999
 30
0.0
 10
9.3579240593
 20
5.2837476272
 30
0.0
 10
9.3594155235
 20
5.283204390299999
 30
0.0
 10
9.3600648438
 20
5.2828294585
 30
0.0
  0
SPLINE
  5
43D
330
200
100
AcDbEntity
  8
0
  6
Continuous
 62
     7
100
AcDbSpline
210
0.0
220
0.0
230
1.0
 70
     8
 71
     3
 72
    11
 73
     7
 74
     0
 42
0.0000000001
 43
0.0000000001
 40
0.0
 40
0.0
 40
0.0
 40
0.0
 40
0.2372804807
 40
0.5000731966
 40
0.7628239885000001
 40
1.0
 40
1.0
 40
1.0
 40
1.0
 10
9.3641363879
 20
5.225599254899999
 30
0.0
 10
9.364136272199999
 20
5.227882974499999
 30
0.0
 10
9.363279288699999
 20
5.2326991519
 30
0.0
 10
9.3602909883
 20
5.2394647975
 30
0.0
 10
9.355922708200001
 20
5.2454319647
 30
0.0
 10
9.3521787742
 20
5.248578469099999
 30
0.0
 10
9.3502007882
 20
5.249717922799999
 30
0.0
  0
SPLINE
  5
43E
330
200
100
AcDbEntity
  8
0
  6
Continuous
 62
     7
100
AcDbSpline
210
0.0
220
0.0
230
1.0
 70
     8
 71
     3
 72
     9
 73
     5
 74
     0
 42
0.0000000001
 43
0.0000000001
 40
0.0
 40
0.0
 40
0.0
 40
0.0
 40
0.2636406342
 40
1.0
 40
1.0
 40
1.0
 40
1.0
 10
9.1814333457
 20
5.231432437699999
 30
0.0
 10
9.181676281499999
 20
5.2315726914
 30
0.0
 10
9.1825821733
 20
5.2321305222
 30
0.0
 10
9.1834246414
 20
5.2327964469
 30
0.0
 10
9.183978817799999
 20
5.2333502947
 30
0.0
  0
SPLINE
  5
43F
330
200
100
AcDbEntity
  8
0
  6
Continuous
 62
     7
100
AcDbSpline
210
0.0
220
0.0
230
1.0
 70
     8
 71
     3
 72
     9
 73
     5
 74
     0
 42
0.0000000001
 43
0.0000000001
 40
0.0
 40
0.0
 40
0.0
 40
0.0
 40
0.2620006675
 40
1.0
 40
1.0
 40
1.0
 40
1.0
 10
9.350219739799999
 20
5.2818562043
 30
0.0
 10
9.3507703782
 20
5.281538252899999
 30
0.0
 10
9.3528394011
 20
5.2802702972
 30
0.0
 10
9.3547764598
 20
5.2787775012
 30
0.0
 10
9.356072259299999
 20
5.2775410966
 30
0.0
  0
SPLINE
  5
440
330
200
100
AcDbEntity
  8
0
  6
Continuous
 62
     7
100
AcDbSpline
210
0.0
220
0.0
230
1.0
 70
     8
 71
     3
 72
    12
 73
     8
 74
     0
 42
0.0000000001
 43
0.0000000001
 40
0.0
 40
0.0
 40
0.0
 40
0.0
 40
0.2429971011
 40
0.3553810673
 40
0.4677474175
 40
0.7105874853000001
 40
1.0
 40
1.0
 40
1.0
 40
1.0
 10
9.357478598
 20
5.2760805991
 30
0.0
 10
9.359181726799999
 20
5.2741470743
 30
0.0
 10
9.3612250566
 20
5.270767833599999
 30
0.0
 10
9.361911276499998
 20
5.2658002427
 30
0.0
 10
9.361234942599999
 20
5.2608250199
 30
0.0
 10
9.357565772899999
 20
5.254743367099999
 30
0.0
 10
9.3529600293
 20
5.2513109225
 30
0.0
 10
9.3503023187
 20
5.2497765504
 30
0.0
  0
SPLINE
  5
441
330
200
100
AcDbEntity
  8
0
  6
Continuous
 62
     7
100
AcDbSpline
210
0.0
220
0.0
230
1.0
 70
     8
 71
     3
 72
    14
 73
    10
 74
     0
 42
0.0000000001
 43
0.0000000001
 40
0.0
 40
0.0
 40
0.0
 40
0.0
 40
0.275880889
 40
0.4103830224000001
 40
0.5409460497000001
 40
0.6668666107
 40
0.7874813440999999
 40
0.8999526309
 40
1.0
 40
1.0
 40
1.0
 40
1.0
 10
9.119137314799999
 20
5.0841543081
 30
0.0
 10
9.121694811099999
 20
5.0873357711
 30
0.0
 10
9.125106114600001
 20
5.0923879843
 30
0.0
 10
9.1290728976
 20
5.0993390513
 30
0.0
 10
9.1317081615
 20
5.1044934391
 30
0.0
 10
9.1338355313
 20
5.1096618423
 30
0.0
 10
9.135302713399999
 20
5.1147783344
 30
0.0
 10
9.136207713599999
 20
5.1196281443
 30
0.0
 10
9.1364912449
 20
5.1227703236
 30
0.0
 10
9.1364968677
 20
5.124250627699999
 30
0.0
  0
SPLINE
  5
442
330
200
100
AcDbEntity
  8
0
  6
Continuous
 62
     7
100
AcDbSpline
210
0.0
220
0.0
230
1.0
 70
     8
 71
     3
 72
    11
 73
     7
 74
     0
 42
0.0000000001
 43
0.0000000001
 40
0.0
 40
0.0
 40
0.0
 40
0.0
 40
0.2895345071
 40
0.5491058953
 40
0.782249271
 40
1.0
 40
1.0
 40
1.0
 40
1.0
 10
9.1052048535
 20
5.4779311582
 30
0.0
 10
9.106068263699999
 20
5.4784296295
 30
0.0
 10
9.107787272799999
 20
5.479246348099999
 30
0.0
 10
9.110428411799999
 20
5.479885581299999
 30
0.0
 10
9.112907877599999
 20
5.479823329199999
 30
0.0
 10
9.1143993414
 20
5.479280092399999
 30
0.0
 10
9.115048661599999
 20
5.4789051607
 30
0.0
  0
SPLINE
  5
443
330
200
100
AcDbEntity
  8
0
  6
Continuous
 62
     7
100
AcDbSpline
210
0.0
220
0.0
230
1.0
 70
     8
 71
     3
 72
    11
 73
     7
 74
     0
 42
0.0000000001
 43
0.0000000001
 40
0.0
 40
0.0
 40
0.0
 40
0.0
 40
0.2372805009
 40
0.5000732361
 40
0.7628240524
 40
1.0
 40
1.0
 40
1.0
 40
1.0
 10
9.119120205699999
 20
5.4216749571
 30
0.0
 10
9.119120089999999
 20
5.4239586769
 30
0.0
 10
9.1182631064
 20
5.4287748546
 30
0.0
 10
9.115274805599998
 20
5.4355405007
 30
0.0
 10
9.110906525199998
 20
5.441507667499999
 30
0.0
 10
9.107162591499999
 20
5.444654171599999
 30
0.0
 10
9.105184605999999
 20
5.445793625
 30
0.0
  0
SPLINE
  5
444
330
200
100
AcDbEntity
  8
0
  6
Continuous
 62
     7
100
AcDbSpline
210
0.0
220
0.0
230
1.0
 70
     8
 71
     3
 72
    10
 73
     6
 74
     0
 42
0.0000000001
 43
0.0000000001
 40
0.0
 40
0.0
 40
0.0
 40
0.0
 40
0.227924233
 40
0.4765582736
 40
1.0
 40
1.0
 40
1.0
 40
1.0
 10
8.359114965899999
 20
6.017899403899999
 30
0.0
 10
8.361454039499999
 20
6.019249817799999
 30
0.0
 10
8.366656414400001
 20
6.021548994099999
 30
0.0
 10
8.378161065499998
 20
6.0245072513
 30
0.0
 10
8.387464574299999
 20
6.0248409362
 30
0.0
 10
8.3936369804
 20
6.0242277552
 30
0.0
  0
SPLINE
  5
445
330
200
100
AcDbEntity
  8
0
  6
Continuous
 62
     7
100
AcDbSpline
210
0.0
220
0.0
230
1.0
 70
     8
 71
     3
 72
    15
 73
    11
 74
     0
 42
0.0000000001
 43
0.0000000001
 40
0.0
 40
0.0
 40
0.0
 40
0.0
 40
0.0908355661
 40
0.1917500985
 40
0.3047762495
 40
0.4297327839000001
 40
0.5648599700000001
 40
0.7073260039
 40
0.85364357
 40
1.0
 40
1.0
 40
1.0
 40
1.0
 10
9.1834697345
 20
5.233546686399999
 30
0.0
 10
9.189502073799999
 20
5.2400479387
 30
0.0
 10
9.199922671299999
 20
5.2560070116
 30
0.0
 10
9.2089452384
 20
5.2846414686
 30
0.0
 10
9.2120159
 20
5.317791474899999
 30
0.0
 10
9.209113296099999
 20
5.354250885199999
 30
0.0
 10
9.200401220199999
 20
5.392696131599999
 30
0.0
 10
9.186214816099999
 20
5.431685773899999
 30
0.0
 10
9.1671030009
 20
5.4697279333
 30
0.0
 10
9.151421771
 20
5.4937059227
 30
0.0
 10
9.142908972899999
 20
5.5051830744
 30
0.0
  0
SPLINE
  5
446
330
200
100
AcDbEntity
  8
0
  6
Continuous
 62
     7
100
AcDbSpline
210
0.0
220
0.0
230
1.0
 70
     8
 71
     3
 72
    15
 73
    11
 74
     0
 42
0.0000000001
 43
0.0000000001
 40
0.0
 40
0.0
 40
0.0
 40
0.0
 40
0.156985267
 40
0.3075472209
 40
0.4491230781000001
 40
0.5799656183
 40
0.6991889472000001
 40
0.8072335429999998
 40
0.9061879922999999
 40
1.0
 40
1.0
 40
1.0
 40
1.0
 10
9.142908972899999
 20
5.5051830744
 30
0.0
 10
9.1357306671
 20
5.514861032699999
 30
0.0
 10
9.120708458300001
 20
5.5331349411
 30
0.0
 10
9.0960395712
 20
5.5573143747
 30
0.0
 10
9.070247435399998
 20
5.577176962999999
 30
0.0
 10
9.0440575532
 20
5.592155925299999
 30
0.0
 10
9.018164990399998
 20
5.601806762999999
 30
0.0
 10
8.993237764099999
 20
5.605784811599999
 30
0.0
 10
8.9699724097
 20
5.603827354799999
 30
0.0
 10
8.9559441669
 20
5.598372926
 30
0.0
 10
8.949704350499999
 20
5.594779392699999
 30
0.0
  0
SPLINE
  5
447
330
200
100
AcDbEntity
  8
0
  6
Continuous
 62
     7
100
AcDbSpline
210
0.0
220
0.0
230
1.0
 70
     8
 71
     3
 72
    13
 73
     9
 74
     0
 42
0.0000000001
 43
0.0000000001
 40
0.0
 40
0.0
 40
0.0
 40
0.0
 40
0.102846122
 40
0.2156488503
 40
0.3373529178
 40
0.4661152554
 40
0.7346541362000001
 40
1.0
 40
1.0
 40
1.0
 40
1.0
 10
9.216535762699999
 20
5.3446494462
 30
0.0
 10
9.218083917599999
 20
5.351523485
 30
0.0
 10
9.2198589041
 20
5.366285173399999
 30
0.0
 10
9.2189360587
 20
5.3894528721
 30
0.0
 10
9.214613858899999
 20
5.414032686699999
 30
0.0
 10
9.204350602499999
 20
5.448147386399999
 30
0.0
 10
9.184316857699998
 20
5.489252046499999
 30
0.0
 10
9.161954055399998
 20
5.518588017
 30
0.0
 10
9.1493471749
 20
5.531686054899999
 30
0.0
  0
SPLINE
  5
448
330
200
100
AcDbEntity
  8
0
  6
Continuous
 62
     7
100
AcDbSpline
210
0.0
220
0.0
230
1.0
 70
     8
 71
     3
 72
     9
 73
     5
 74
     0
 42
0.0000000001
 43
0.0000000001
 40
0.0
 40
0.0
 40
0.0
 40
0.0
 40
0.5278160476
 40
1.0
 40
1.0
 40
1.0
 40
1.0
 10
9.1493471749
 20
5.531686054899999
 30
0.0
 10
9.1408244797
 20
5.540540789899999
 30
0.0
 10
9.123328633899999
 20
5.5560903535
 30
0.0
 10
9.103058174099999
 20
5.568013097
 30
0.0
 10
9.0929190626
 20
5.5722650497
 30
0.0
  0
SPLINE
  5
449
330
200
100
AcDbEntity
  8
0
  6
Continuous
 62
     7
100
AcDbSpline
210
0.0
220
0.0
230
1.0
 70
     8
 71
     3
 72
     9
 73
     5
 74
     0
 42
0.0000000001
 43
0.0000000001
 40
0.0
 40
0.0
 40
0.0
 40
0.0
 40
0.2558130837
 40
1.0
 40
1.0
 40
1.0
 40
1.0
 10
9.0929190626
 20
5.5722650497
 30
0.0
 10
9.091899017200001
 20
5.5726928175
 30
0.0
 10
9.0878884887
 20
5.5743091159
 30
0.0
 10
9.083784892
 20
5.575697268999999
 30
0.0
 10
9.0806903591
 20
5.576579324799999
 30
0.0
  0
SPLINE
  5
44A
330
200
100
AcDbEntity
  8
0
  6
Continuous
 62
     7
100
AcDbSpline
210
0.0
220
0.0
230
1.0
 70
     8
 71
     3
 72
     9
 73
     5
 74
     0
 42
0.0000000001
 43
0.0000000001
 40
0.0
 40
0.0
 40
0.0
 40
0.0
 40
0.2620005778
 40
1.0
 40
1.0
 40
1.0
 40
1.0
 10
8.860182981299999
 20
5.760721863599999
 30
0.0
 10
8.860733619799999
 20
5.7604039122
 30
0.0
 10
8.8628026442
 20
5.759135956499999
 30
0.0
 10
8.8647397087
 20
5.7576431649
 30
0.0
 10
8.866035507999999
 20
5.7564067583
 30
0.0
  0
SPLINE
  5
44B
330
200
100
AcDbEntity
  8
0
  6
Continuous
 62
     7
100
AcDbSpline
210
0.0
220
0.0
230
1.0
 70
     8
 71
     3
 72
    12
 73
     8
 74
     0
 42
0.0000000001
 43
0.0000000001
 40
0.0
 40
0.0
 40
0.0
 40
0.0
 40
0.242819621
 40
0.3551329392
 40
0.4674721804999999
 40
0.7104756259000001
 40
1.0
 40
1.0
 40
1.0
 40
1.0
 10
8.867441839400001
 20
5.7549462583
 30
0.0
 10
8.8691496248
 20
5.7530074209
 30
0.0
 10
8.8711972401
 20
5.749616599199999
 30
0.0
 10
8.871875896799998
 20
5.7446329808
 30
0.0
 10
8.8711822034
 20
5.7396412391
 30
0.0
 10
8.8674739489
 20
5.733551439299999
 30
0.0
 10
8.8628470474
 20
5.7301137096
 30
0.0
 10
8.860179071299999
 20
5.7285734109
 30
0.0
  0
SPLINE
  5
44C
330
200
100
AcDbEntity
  8
0
  6
Continuous
 62
     7
100
AcDbSpline
210
0.0
220
0.0
230
1.0
 70
     8
 71
     3
 72
    11
 73
     7
 74
     0
 42
0.0000000001
 43
0.0000000001
 40
0.0
 40
0.0
 40
0.0
 40
0.0
 40
0.2372627993
 40
0.5000127357000001
 40
0.7627557470000001
 40
1.0
 40
1.0
 40
1.0
 40
1.0
 10
7.653402341799999
 20
4.3665063999
 30
0.0
 10
7.649449598899999
 20
4.364224368799999
 30
0.0
 10
7.6402583522
 20
4.360893783899999
 30
0.0
 10
7.6255628037
 20
4.3593014798
 30
0.0
 10
7.6108676283
 20
4.360893900099999
 30
0.0
 10
7.6016769147
 20
4.3642246432
 30
0.0
 10
7.5977246427
 20
4.366506776399999
 30
0.0
  0
SPLINE
  5
44D
330
200
100
AcDbEntity
  8
0
  6
Continuous
 62
     7
100
AcDbSpline
210
0.0
220
0.0
230
1.0
 70
     8
 71
     3
 72
     9
 73
     5
 74
     0
 42
0.0000000001
 43
0.0000000001
 40
0.0
 40
0.0
 40
0.0
 40
0.0
 40
0.2620006675
 40
1.0
 40
1.0
 40
1.0
 40
1.0
 10
9.105203557599999
 20
5.477931906499999
 30
0.0
 10
9.105754195999999
 20
5.477613955099999
 30
0.0
 10
9.1078232189
 20
5.4763459994
 30
0.0
 10
9.109760277599999
 20
5.4748532033
 30
0.0
 10
9.1110560771
 20
5.4736167988
 30
0.0
  0
SPLINE
  5
44E
330
200
100
AcDbEntity
  8
0
  6
Continuous
 62
     7
100
AcDbSpline
210
0.0
220
0.0
230
1.0
 70
     8
 71
     3
 72
    12
 73
     8
 74
     0
 42
0.0000000001
 43
0.0000000001
 40
0.0
 40
0.0
 40
0.0
 40
0.0
 40
0.2429971011
 40
0.3553810673
 40
0.4677474175
 40
0.7105874853000001
 40
1.0
 40
1.0
 40
1.0
 40
1.0
 10
9.112462415799999
 20
5.4721563012
 30
0.0
 10
9.1141655446
 20
5.470222776499999
 30
0.0
 10
9.116208874399999
 20
5.4668435357
 30
0.0
 10
9.1168950944
 20
5.4618759449
 30
0.0
 10
9.116218760399998
 20
5.4569007221
 30
0.0
 10
9.1125495907
 20
5.450819069299999
 30
0.0
 10
9.107943847099999
 20
5.4473866246
 30
0.0
 10
9.1052861365
 20
5.445852252599999
 30
0.0
  0
SPLINE
  5
44F
330
200
100
AcDbEntity
  8
0
  6
Continuous
 62
     7
100
AcDbSpline
210
0.0
220
0.0
230
1.0
 70
     8
 71
     3
 72
    14
 73
    10
 74
     0
 42
0.0000000001
 43
0.0000000001
 40
0.0
 40
0.0
 40
0.0
 40
0.0
 40
0.2758808875
 40
0.4103830202000001
 40
0.540946048
 40
0.6668666099000001
 40
0.7874813436000001
 40
0.8999526304999999
 40
1.0
 40
1.0
 40
1.0
 40
1.0
 10
8.874121132
 20
5.2802300099
 30
0.0
 10
8.8766786282
 20
5.2834114729
 30
0.0
 10
8.880089932
 20
5.288463686
 30
0.0
 10
8.884056715199999
 20
5.295414753
 30
0.0
 10
8.8866919791
 20
5.300569140799999
 30
0.0
 10
8.888819349
 20
5.3057375441
 30
0.0
 10
8.890286531199999
 20
5.310854036399999
 30
0.0
 10
8.8911915314
 20
5.315703846299999
 30
0.0
 10
8.891475062699999
 20
5.3188460257
 30
0.0
 10
8.891480685499999
 20
5.3203263298
 30
0.0
  0
SPLINE
  5
450
330
200
100
AcDbEntity
  8
0
  6
Continuous
 62
     7
100
AcDbSpline
210
0.0
220
0.0
230
1.0
 70
     8
 71
     3
 72
    10
 73
     6
 74
     0
 42
0.0000000001
 43
0.0000000001
 40
0.0
 40
0.0
 40
0.0
 40
0.0
 40
0.2374911361
 40
0.4869401691000001
 40
1.0
 40
1.0
 40
1.0
 40
1.0
 10
9.2161316036
 20
5.4345971059
 30
0.0
 10
9.2256237466
 20
5.426917587999999
 30
0.0
 10
9.244025869999999
 20
5.409822745499999
 30
0.0
 10
9.2773938623
 20
5.3706239734
 30
0.0
 10
9.2978609082
 20
5.3367230586
 30
0.0
 10
9.309042305
 20
5.3128333438
 30
0.0
  0
SPLINE
  5
451
330
200
100
AcDbEntity
  8
0
  6
Continuous
 62
     7
100
AcDbSpline
210
0.0
220
0.0
230
1.0
 70
     8
 71
     3
 72
    11
 73
     7
 74
     0
 42
0.0000000001
 43
0.0000000001
 40
0.0
 40
0.0
 40
0.0
 40
0.0
 40
0.289696212
 40
0.5491552909000001
 40
0.7822860354000002
 40
1.0
 40
1.0
 40
1.0
 40
1.0
 10
7.944454230599999
 20
4.184170239
 30
0.0
 10
7.9409884384
 20
4.182169338399999
 30
0.0
 10
7.9346978
 20
4.177841803199999
 30
0.0
 10
7.927171172
 20
4.169954267599999
 30
0.0
 10
7.9224046671
 20
4.161223395199999
 30
0.0
 10
7.9212907295
 20
4.1549532188
 30
0.0
 10
7.921290908099999
 20
4.151945679799999
 30
0.0
  0
SPLINE
  5
452
330
200
100
AcDbEntity
  8
0
  6
Continuous
 62
     7
100
AcDbSpline
210
0.0
220
0.0
230
1.0
 70
     8
 71
     3
 72
    11
 73
     7
 74
     0
 42
0.0000000001
 43
0.0000000001
 40
0.0
 40
0.0
 40
0.0
 40
0.0
 40
0.2177827211
 40
0.4509167910000001
 40
0.7103037976000001
 40
1.0
 40
1.0
 40
1.0
 40
1.0
 10
9.136419980800001
 20
5.445781766699999
 30
0.0
 10
9.1364193289
 20
5.4435324926
 30
0.0
 10
9.135586852100001
 20
5.4388444888
 30
0.0
 10
9.1320315707
 20
5.4323129596
 30
0.0
 10
9.126412570899999
 20
5.4264086707
 30
0.0
 10
9.1217113794
 20
5.423170915499999
 30
0.0
 10
9.119120205699999
 20
5.4216749571
 30
0.0
  0
SPLINE
  5
453
330
200
100
AcDbEntity
  8
0
  6
Continuous
 62
     7
100
AcDbSpline
210
0.0
220
0.0
230
1.0
 70
     8
 71
     3
 72
    14
 73
    10
 74
     0
 42
0.0000000001
 43
0.0000000001
 40
0.0
 40
0.0
 40
0.0
 40
0.0
 40
0.276204491
 40
0.4120355641
 40
0.5445545061
 40
0.6715472462000001
 40
0.7909057704000002
 40
0.9012754712999999
 40
1.0
 40
1.0
 40
1.0
 40
1.0
 10
3.081745834600001
 20
4.417237318171284
 30
0.0
 10
3.0795055534
 20
4.421117074771284
 30
0.0
 10
3.0760510515
 20
4.426840202371284
 30
0.0
 10
3.071846563000001
 20
4.434610944471284
 30
0.0
 10
3.069026571100001
 20
4.440371575471284
 30
0.0
 10
3.066426503000001
 20
4.445939059771284
 30
0.0
 10
3.0641401189
 20
4.451259731871284
 30
0.0
 10
3.062540495500001
 20
4.456352244871284
 30
0.0
 10
3.062058300700001
 20
4.459742188771284
 30
0.0
 10
3.062058214
 20
4.461343526271284
 30
0.0
  0
SPLINE
  5
454
330
200
100
AcDbEntity
  8
0
  6
Continuous
 62
     7
100
AcDbSpline
210
0.0
220
0.0
230
1.0
 70
     8
 71
     3
 72
    14
 73
    10
 74
     0
 42
0.0000000001
 43
0.0000000001
 40
0.0
 40
0.0
 40
0.0
 40
0.0
 40
0.2762044912
 40
0.4120355643
 40
0.5445545065000001
 40
0.6715472466
 40
0.7909057705000001
 40
0.9012754710999999
 40
1.0
 40
1.0
 40
1.0
 40
1.0
 10
3.495111389200001
 20
4.763718198071284
 30
0.0
 10
3.492871108100001
 20
4.767597954571284
 30
0.0
 10
3.489416605800001
 20
4.773321081871284
 30
0.0
 10
3.4852121173
 20
4.781091823771284
 30
0.0
 10
3.482392125500001
 20
4.786852454771284
 30
0.0
 10
3.4797920575
 20
4.792419938971284
 30
0.0
 10
3.477505673500001
 20
4.797740610871284
 30
0.0
 10
3.4759060501
 20
4.802833123871284
 30
0.0
 10
3.475423855300001
 20
4.806223067771284
 30
0.0
 10
3.4754237686
 20
4.807824405171285
 30
0.0
  0
LINE
  5
455
330
200
100
AcDbEntity
  8
0
  6
Continuous
 62
     7
100
AcDbLine
 10
2.489081747331798
 20
6.520513530046875
 30
0.0
 11
2.508765634931798
 21
6.500827026546875
 31
0.0
  0
LINE
  5
456
330
200
100
AcDbEntity
  8
0
  6
Continuous
 62
     7
100
AcDbLine
 10
2.489029194631798
 20
6.959352696146875
 30
0.0
 11
2.508765633931798
 21
6.979031403946875
 31
0.0
  0
LINE
  5
457
330
200
100
AcDbEntity
  8
0
  6
Continuous
 62
     7
100
AcDbLine
 10
2.489081746231798
 20
7.018402946646874
 30
0.0
 11
2.508765633831798
 21
6.998716443146875
 31
0.0
  0
LINE
  5
458
330
200
100
AcDbEntity
  8
0
  6
Continuous
 62
     7
100
AcDbLine
 10
2.489081747431798
 20
6.461458412046875
 30
0.0
 11
2.508765634931798
 21
6.481141987146875
 31
0.0
  0
DIMENSION
  5
52E
102
{ACAD_XDICTIONARY
360
53D
102
}
102
{ACAD_REACTORS
330
53E
102
}
330
200
100
AcDbEntity
  8
0
100
AcDbDimension
  2
*D2
 10
5.340766260162883
 20
3.261807057171284
 30
0.0
 11
5.340766260162882
 21
4.333657555071285
 31
0.0
 70
    32
  1
<>\P[]
 71
     5
 42
2.143700995799999
  3
STANDARD$0
100
AcDbAlignedDimension
 13
4.504788998723743
 23
5.405508052971284
 33
0.0
 14
4.459766198100001
 24
3.261807057171285
 34
0.0
 50
90.00000000000003
100
AcDbRotatedDimension
1001
ACAD
1000
DSTYLE
1002
{
1070
    42
1040
0.06875
1070
    43
1040
0.418
1070
    44
1040
0.198
1070
    47
1040
0.0
1070
    48
1040
0.0
1070
    78
1070
     0
1070
   141
1040
0.099
1070
   170
1070
     1
1070
   272
1070
     4
1070
   284
1070
     0
1002
}
  0
DIMENSION
  5
579
102
{ACAD_XDICTIONARY
360
588
102
}
102
{ACAD_REACTORS
330
589
102
}
330
200
100
AcDbEntity
  8
0
100
AcDbDimension
  2
*D3
 10
5.340766255363909
 20
1.134817646317786
 30
0.0
 11
4.511182922030576
 21
0.7227869858944552
 31
0.0
 70
   160
  1
<>[]
 71
     5
 42
0.7480314941000011
  3
STANDARD$0
100
AcDbAlignedDimension
 13
4.440081158726216
 23
1.882849140417787
 33
0.0
 14
4.440081157100001
 24
1.134817646317786
 34
0.0
 50
90.00000012204493
100
AcDbRotatedDimension
1001
ACAD
1000
DSTYLE
1002
{
1070
    42
1040
0.06875
1070
    43
1040
0.418
1070
    44
1040
0.198
1070
    47
1040
0.0
1070
    48
1040
0.0
1070
    78
1070
     0
1070
   141
1040
0.099
1070
   170
1070
     1
1070
   272
1070
     4
1070
   284
1070
     0
1002
}
  0
DIMENSION
  5
5B3
330
200
100
AcDbEntity
  8
0
100
AcDbDimension
  2
*D4
 10
4.465419152631797
 20
7.667243856743215
 30
0.0
 11
3.136716907181797
 21
7.667243856743215
 31
0.0
 70
    32
  1
<>[]
 71
     5
 42
2.657404490899999
  3
STANDARD$0
100
AcDbAlignedDimension
 13
1.808014661731798
 23
7.167243856743215
 33
0.0
 14
4.465419152631797
 24
7.167243856743215
 34
0.0
 50
0.0000000000000127
100
AcDbRotatedDimension
1001
ACAD
1000
DSTYLE
1002
{
1070
    42
1040
0.06875
1070
    43
1040
0.418
1070
    44
1040
0.198
1070
    47
1040
0.0
1070
    48
1040
0.0
1070
    78
1070
     0
1070
   141
1040
0.099
1070
   170
1070
     1
1070
   272
1070
     4
1070
   284
1070
     0
1002
}
  0
ENDSEC
  0
SECTION
  2
OBJECTS
  0
DICTIONARY
  5
C
330
0
100
AcDbDictionary
281
     1
  3
ACAD_COLOR
350
460
  3
ACAD_GROUP
350
D
  3
ACAD_LAYOUT
350
1A
  3
ACAD_MATERIAL
350
45F
  3
ACAD_MLINESTYLE
350
17
  3
ACAD_PLOTSETTINGS
350
19
  3
ACAD_PLOTSTYLENAME
350
E
  3
ACAD_TABLESTYLE
350
461
  3
AcDbVariableDictionary
350
612
  3
AcmDictionary
350
4BE
  3
AMG
350
466
  3
AMGSNAPSETTINGS
350
512
  0
DICTIONARY
  5
53D
330
52E
100
AcDbDictionary
280
     1
281
     1
  3
ACAD_DIMASSOC
360
53E
  0
DICTIONARY
  5
588
330
579
100
AcDbDictionary
280
     1
281
     1
  3
ACAD_DIMASSOC
360
589
  0
DICTIONARY
  5
460
102
{ACAD_REACTORS
330
C
102
}
330
C
100
AcDbDictionary
281
     1
  0
DICTIONARY
  5
D
102
{ACAD_REACTORS
330
C
102
}
330
C
100
AcDbDictionary
281
     1
  0
DICTIONARY
  5
1A
102
{ACAD_REACTORS
330
C
102
}
330
C
100
AcDbDictionary
281
     1
  3
Layout1
350
45C
  3
Model
350
45B
  0
DICTIONARY
  5
45F
102
{ACAD_REACTORS
330
C
102
}
330
C
100
AcDbDictionary
281
     1
  0
DICTIONARY
  5
17
102
{ACAD_REACTORS
330
C
102
}
330
C
100
AcDbDictionary
281
     1
  3
Standard
350
18
  0
DICTIONARY
  5
19
102
{ACAD_REACTORS
330
C
102
}
330
C
100
AcDbDictionary
281
     1
  0
ACDBDICTIONARYWDFLT
  5
E
102
{ACAD_REACTORS
330
C
102
}
330
C
100
AcDbDictionary
281
     1
  3
Normal
350
F
100
AcDbDictionaryWithDefault
340
F
  0
DICTIONARY
  5
461
102
{ACAD_REACTORS
330
C
102
}
330
C
100
AcDbDictionary
281
     1
  3
Standard
350
462
  0
DICTIONARY
  5
612
102
{ACAD_REACTORS
330
C
102
}
330
C
100
AcDbDictionary
281
     1
  3
CTABLESTYLE
350
613
  0
DICTIONARY
  5
4BE
102
{ACAD_REACTORS
330
C
102
}
330
C
100
AcDbDictionary
281
     1
  3
AcmStdDictionary
350
4C9
  3
AMDTSECTSYM_ARROWCOLOR
350
4E8
  0
DICTIONARY
  5
466
102
{ACAD_REACTORS
330
C
102
}
330
C
100
AcDbDictionary
281
     1
  0
DICTIONARY
  5
512
102
{ACAD_REACTORS
330
C
102
}
330
C
100
AcDbDictionary
281
     1
  0
DIMASSOC
  5
53E
102
{ACAD_REACTORS
330
53D
102
}
330
53D
100
AcDbDimAssoc
330
52E
 90
        2
 70
     0
 71
     0
  1
AcDbOsnapPointRef
 72
     1
331
30C
 73
     0
 91
        0
 40
0.0
 10
0.0
 20
0.0
 30
2.000000000000000E+50
 75
     0
  0
DIMASSOC
  5
589
102
{ACAD_REACTORS
330
588
102
}
330
588
100
AcDbDimAssoc
330
579
 90
        3
 70
     0
 71
     0
  1
AcDbOsnapPointRef
 72
     1
331
3A9
 73
     0
 91
        0
 40
0.0
 10
0.0
 20
0.0
 30
2.000000000000000E+50
 75
     0
  1
AcDbOsnapPointRef
 72
     5
331
3AA
 73
     0
 91
        0
 40
4.712388980384689
 10
0.0
 20
0.0
 30
0.0
 75
     0
  0
LAYOUT
  5
45C
102
{ACAD_REACTORS
330
1A
102
}
330
1A
100
AcDbPlotSettings
  1

  2
none_device
  4
ANSI_A_(11.00_x_8.50_Inches)
  6

 40
0.0
 41
0.0
 42
0.0
 43
0.0
 44
279.4
 45
215.9
 46
0.0
 47
0.0
 48
0.0
 49
0.0
140
0.0
141
0.0
142
1.0
143
1.0
 70
     0
 72
     0
 73
     0
 74
     0
  7

 75
     0
147
1.0
 76
     0
 77
     2
 78
   300
148
0.0
149
0.0
100
AcDbLayout
  1
Layout1
 70
     1
 71
     1
 10
0.0
 20
0.0
 11
12.0
 21
9.0
 12
0.0
 22
0.0
 32
0.0
 14
1.000000000000000E+20
 24
1.000000000000000E+20
 34
1.000000000000000E+20
 15
-1.000000000000000E+20
 25
-1.000000000000000E+20
 35
-1.000000000000000E+20
146
0.0
 13
0.0
 23
0.0
 33
0.0
 16
1.0
 26
0.0
 36
0.0
 17
0.0
 27
1.0
 37
0.0
 76
     0
330
201
  0
LAYOUT
  5
45B
102
{ACAD_REACTORS
330
1A
102
}
330
1A
100
AcDbPlotSettings
  1

  2
none_device
  4
ANSI_A_(11.00_x_8.50_Inches)
  6

 40
0.0
 41
0.0
 42
0.0
 43
0.0
 44
279.4
 45
215.9
 46
0.0
 47
0.0
 48
0.0
 49
0.0
140
0.0
141
0.0
142
1.0
143
1.0
 70
  1024
 72
     0
 73
     0
 74
     0
  7

 75
     0
147
1.0
 76
     0
 77
     2
 78
   300
148
0.0
149
0.0
100
AcDbLayout
  1
Model
 70
     0
 71
     0
 10
0.0
 20
0.0
 11
11.0
 21
8.5
 12
0.0
 22
0.0
 32
0.0
 14
0.0
 24
0.0
 34
0.0
 15
0.0
 25
0.0
 35
0.0
146
0.0
 13
0.0
 23
0.0
 33
0.0
 16
1.0
 26
0.0
 36
0.0
 17
0.0
 27
1.0
 37
0.0
 76
     0
330
200
  0
MLINESTYLE
  5
18
102
{ACAD_REACTORS
330
17
102
}
330
17
100
AcDbMlineStyle
  2
STANDARD
 70
     0
  3

 62
   256
 51
90.0
 52
90.0
 71
     2
 49
0.5
 62
   256
  6
BYLAYER
 49
-0.5
 62
   256
  6
BYLAYER
  0
ACDBPLACEHOLDER
  5
F
102
{ACAD_REACTORS
330
E
102
}
330
E
  0
TABLESTYLE
  5
462
102
{ACAD_REACTORS
330
461
102
}
330
461
100
AcDbTableStyle
  3
Standard
 70
     0
 71
     0
 40
0.06
 41
0.06
280
     0
281
     0
  7
STANDARD
140
0.18
170
     2
 62
     0
 63
     7
283
     0
274
    -2
284
     1
 64
     0
275
    -2
285
     1
 65
     0
276
    -2
286
     1
 66
     0
277
    -2
287
     1
 67
     0
278
    -2
288
     1
 68
     0
279
    -2
289
     1
 69
     0
  7
STANDARD
140
0.25
170
     5
 62
     0
 63
     7
283
     0
274
    -2
284
     1
 64
     0
275
    -2
285
     1
 65
     0
276
    -2
286
     1
 66
     0
277
    -2
287
     1
 67
     0
278
    -2
288
     1
 68
     0
279
    -2
289
     1
 69
     0
  7
STANDARD
140
0.18
170
     5
 62
     0
 63
     7
283
     0
274
    -2
284
     1
 64
     0
275
    -2
285
     1
 65
     0
276
    -2
286
     1
 66
     0
277
    -2
287
     1
 67
     0
278
    -2
288
     1
 68
     0
279
    -2
289
     1
 69
     0
  0
DICTIONARYVAR
  5
613
102
{ACAD_REACTORS
330
612
102
}
330
612
100
DictionaryVariables
280
     0
  1
STANDARD
  0
DICTIONARY
  5
4C9
102
{ACAD_REACTORS
330
4BE
102
}
330
4BE
100
AcDbDictionary
281
     1
  0
XRECORD
  5
4E8
102
{ACAD_REACTORS
330
4BE
102
}
330
4BE
100
AcDbXrecord
280
     1
 90
-1023410169
  0
ENDSEC
  0
EOF
