  0
SECTION
  2
HEADER
  9
$ACADVER
  1
AC1018
  9
$ACADMAINTVER
 70
    76
  9
$DWGCODEPAGE
  3
ANSI_1252
  9
$INSBASE
 10
0.0
 20
0.0
 30
0.0
  9
$EXTMIN
 10
-0.0003356677483914
 20
-0.0002593796237598
 30
-0.0015258207003583
  9
$EXTMAX
 10
11.00033571897113
 20
8.500259419204969
 30
0.0000000349246037
  9
$LIMMIN
 10
0.0
 20
0.0
  9
$LIMMAX
 10
11.0
 20
8.5
  9
$ORTHOMODE
 70
     0
  9
$REGENMODE
 70
     1
  9
$FILLMODE
 70
     1
  9
$QTEXTMODE
 70
     0
  9
$MIRRTEXT
 70
     0
  9
$LTSCALE
 40
0.605
  9
$ATTMODE
 70
     1
  9
$TEXTSIZE
 40
0.2
  9
$TRACEWID
 40
0.05
  9
$TEXTSTYLE
  7
STANDARD
  9
$CLAYER
  8
0
  9
$CELTYPE
  6
BYLAYER
  9
$CECOLOR
 62
   256
  9
$CELTSCALE
 40
1.0
  9
$DISPSILH
 70
     0
  9
$DIMSCALE
 40
1.0
  9
$DIMASZ
 40
0.1875
  9
$DIMEXO
 40
0.06875
  9
$DIMDLI
 40
0.418
  9
$DIMRND
 40
0.0
  9
$DIMDLE
 40
0.0
  9
$DIMEXE
 40
0.198
  9
$DIMTP
 40
0.0
  9
$DIMTM
 40
0.0
  9
$DIMTXT
 40
0.15625
  9
$DIMCEN
 40
0.099
  9
$DIMTSZ
 40
0.0
  9
$DIMTOL
 70
     0
  9
$DIMLIM
 70
     0
  9
$DIMTIH
 70
     1
  9
$DIMTOH
 70
     1
  9
$DIMSE1
 70
     0
  9
$DIMSE2
 70
     0
  9
$DIMTAD
 70
     0
  9
$DIMZIN
 70
     0
  9
$DIMBLK
  1

  9
$DIMASO
 70
     1
  9
$DIMSHO
 70
     1
  9
$DIMPOST
  1

  9
$DIMAPOST
  1

  9
$DIMALT
 70
     0
  9
$DIMALTD
 70
     2
  9
$DIMALTF
 40
25.4
  9
$DIMLFAC
 40
1.0
  9
$DIMTOFL
 70
     0
  9
$DIMTVP
 40
0.0
  9
$DIMTIX
 70
     0
  9
$DIMSOXD
 70
     0
  9
$DIMSAH
 70
     0
  9
$DIMBLK1
  1

  9
$DIMBLK2
  1

  9
$DIMSTYLE
  2
STANDARD
  9
$DIMCLRD
 70
     0
  9
$DIMCLRE
 70
     0
  9
$DIMCLRT
 70
     0
  9
$DIMTFAC
 40
1.0
  9
$DIMGAP
 40
0.09
  9
$DIMJUST
 70
     0
  9
$DIMSD1
 70
     0
  9
$DIMSD2
 70
     0
  9
$DIMTOLJ
 70
     1
  9
$DIMTZIN
 70
     0
  9
$DIMALTZ
 70
     0
  9
$DIMALTTZ
 70
     0
  9
$DIMUPT
 70
     0
  9
$DIMDEC
 70
     2
  9
$DIMTDEC
 70
     4
  9
$DIMALTU
 70
     2
  9
$DIMALTTD
 70
     2
  9
$DIMTXSTY
  7
STANDARD
  9
$DIMAUNIT
 70
     0
  9
$DIMADEC
 70
     0
  9
$DIMALTRND
 40
0.0
  9
$DIMAZIN
 70
     0
  9
$DIMDSEP
 70
    46
  9
$DIMATFIT
 70
     3
  9
$DIMFRAC
 70
     0
  9
$DIMLDRBLK
  1

  9
$DIMLUNIT
 70
     2
  9
$DIMLWD
 70
    -2
  9
$DIMLWE
 70
    -2
  9
$DIMTMOVE
 70
     0
  9
$LUNITS
 70
     2
  9
$LUPREC
 70
     4
  9
$SKETCHINC
 40
0.1
  9
$FILLETRAD
 40
0.0
  9
$AUNITS
 70
     0
  9
$AUPREC
 70
     0
  9
$MENU
  1
.
  9
$ELEVATION
 40
0.0
  9
$PELEVATION
 40
0.0
  9
$THICKNESS
 40
0.0
  9
$LIMCHECK
 70
     0
  9
$CHAMFERA
 40
0.0
  9
$CHAMFERB
 40
0.0
  9
$CHAMFERC
 40
0.0
  9
$CHAMFERD
 40
0.0
  9
$SKPOLY
 70
     0
  9
$TDCREATE
 40
2456191.424666377
  9
$TDUCREATE
 40
2456191.632999711
  9
$TDUPDATE
 40
2456191.426304283
  9
$TDUUPDATE
 40
2456191.634637616
  9
$TDINDWG
 40
0.0016384375
  9
$TDUSRTIMER
 40
0.0016384375
  9
$USRTIMER
 70
     1
  9
$ANGBASE
 50
0.0
  9
$ANGDIR
 70
     0
  9
$PDMODE
 70
     3
  9
$PDSIZE
 40
0.3125
  9
$PLINEWID
 40
0.0
  9
$SPLFRAME
 70
     0
  9
$SPLINETYPE
 70
     6
  9
$SPLINESEGS
 70
     8
  9
$HANDSEED
  5
611
  9
$SURFTAB1
 70
     6
  9
$SURFTAB2
 70
     6
  9
$SURFTYPE
 70
     6
  9
$SURFU
 70
     6
  9
$SURFV
 70
     6
  9
$UCSBASE
  2

  9
$UCSNAME
  2

  9
$UCSORG
 10
0.0
 20
0.0
 30
0.0
  9
$UCSXDIR
 10
1.0
 20
0.0
 30
0.0
  9
$UCSYDIR
 10
0.0
 20
1.0
 30
0.0
  9
$UCSORTHOREF
  2

  9
$UCSORTHOVIEW
 70
     0
  9
$UCSORGTOP
 10
0.0
 20
0.0
 30
0.0
  9
$UCSORGBOTTOM
 10
0.0
 20
0.0
 30
0.0
  9
$UCSORGLEFT
 10
0.0
 20
0.0
 30
0.0
  9
$UCSORGRIGHT
 10
0.0
 20
0.0
 30
0.0
  9
$UCSORGFRONT
 10
0.0
 20
0.0
 30
0.0
  9
$UCSORGBACK
 10
0.0
 20
0.0
 30
0.0
  9
$PUCSBASE
  2

  9
$PUCSNAME
  2

  9
$PUCSORG
 10
0.0
 20
0.0
 30
0.0
  9
$PUCSXDIR
 10
1.0
 20
0.0
 30
0.0
  9
$PUCSYDIR
 10
0.0
 20
1.0
 30
0.0
  9
$PUCSORTHOREF
  2

  9
$PUCSORTHOVIEW
 70
     0
  9
$PUCSORGTOP
 10
0.0
 20
0.0
 30
0.0
  9
$PUCSORGBOTTOM
 10
0.0
 20
0.0
 30
0.0
  9
$PUCSORGLEFT
 10
0.0
 20
0.0
 30
0.0
  9
$PUCSORGRIGHT
 10
0.0
 20
0.0
 30
0.0
  9
$PUCSORGFRONT
 10
0.0
 20
0.0
 30
0.0
  9
$PUCSORGBACK
 10
0.0
 20
0.0
 30
0.0
  9
$USERI1
 70
     0
  9
$USERI2
 70
     0
  9
$USERI3
 70
     0
  9
$USERI4
 70
     0
  9
$USERI5
 70
     0
  9
$USERR1
 40
0.0
  9
$USERR2
 40
0.0
  9
$USERR3
 40
0.0
  9
$USERR4
 40
0.0
  9
$USERR5
 40
0.0
  9
$WORLDVIEW
 70
     1
  9
$SHADEDGE
 70
     3
  9
$SHADEDIF
 70
    70
  9
$TILEMODE
 70
     1
  9
$MAXACTVP
 70
    64
  9
$PINSBASE
 10
0.0
 20
0.0
 30
0.0
  9
$PLIMCHECK
 70
     0
  9
$PEXTMIN
 10
1.000000000000000E+20
 20
1.000000000000000E+20
 30
1.000000000000000E+20
  9
$PEXTMAX
 10
-1.000000000000000E+20
 20
-1.000000000000000E+20
 30
-1.000000000000000E+20
  9
$PLIMMIN
 10
0.0
 20
0.0
  9
$PLIMMAX
 10
12.0
 20
9.0
  9
$UNITMODE
 70
     0
  9
$VISRETAIN
 70
     1
  9
$PLINEGEN
 70
     0
  9
$PSLTSCALE
 70
     1
  9
$TREEDEPTH
 70
  3020
  9
$CMLSTYLE
  2
Standard
  9
$CMLJUST
 70
     0
  9
$CMLSCALE
 40
1.0
  9
$PROXYGRAPHICS
 70
     1
  9
$MEASUREMENT
 70
     0
  9
$CELWEIGHT
370
    -1
  9
$ENDCAPS
280
     0
  9
$JOINSTYLE
280
     0
  9
$LWDISPLAY
290
     0
  9
$INSUNITS
 70
     1
  9
$HYPERLINKBASE
  1

  9
$STYLESHEET
  1

  9
$XEDIT
290
     1
  9
$CEPSNTYPE
380
     0
  9
$PSTYLEMODE
290
     1
  9
$FINGERPRINTGUID
  2
{3AE927D0-0CBF-4C41-9AD6-C01774D82242}
  9
$VERSIONGUID
  2
{4B81B23D-0FA0-4DA6-9CA1-E179712CFB85}
  9
$EXTNAMES
290
     1
  9
$PSVPSCALE
 40
0.0
  9
$OLESTARTUP
290
     0
  9
$SORTENTS
280
   127
  9
$INDEXCTL
280
     0
  9
$HIDETEXT
280
     1
  9
$XCLIPFRAME
290
     0
  9
$HALOGAP
280
     0
  9
$OBSCOLOR
 70
   257
  9
$OBSLTYPE
280
     0
  9
$INTERSECTIONDISPLAY
280
     0
  9
$INTERSECTIONCOLOR
 70
   257
  9
$DIMASSOC
280
     2
  9
$PROJECTNAME
  1

  0
ENDSEC
  0
SECTION
  2
CLASSES
  0
CLASS
  1
ACDBDICTIONARYWDFLT
  2
AcDbDictionaryWithDefault
  3
ObjectDBX Classes
 90
        0
 91
        1
280
     0
281
     0
  0
CLASS
  1
TABLESTYLE
  2
AcDbTableStyle
  3
ObjectDBX Classes
 90
     2047
 91
        1
280
     0
281
     0
  0
CLASS
  1
AMGSETTINGSOBJ
  2
AmgSettingsObj
  3
"AcadM|Product Description: AutoCAD Mechanical 2000|Company: Autodesk"
 90
        0
 91
        2
280
     0
281
     0
  0
CLASS
  1
ACME_DOCUMENT
  2
AcMeDbDoc
  3
AcMeServices
 90
        0
 91
        1
280
     0
281
     0
  0
CLASS
  1
ACMESCOPE
  2
AcMeScope
  3
AcMeServices
 90
        0
 91
        1
280
     0
281
     0
  0
CLASS
  1
ACMECOMMANDHISTORY
  2
AcMeCommandHistory
  3
AcMeServices
 90
        0
 91
        1
280
     0
281
     0
  0
CLASS
  1
ACIMSYSVARMAN
  2
AcImSysVarManager
  3
AcMeServices
 90
        0
 91
        5
280
     0
281
     0
  0
CLASS
  1
ACIMINTSYSVAR
  2
AcImIntSysVar
  3
AcMeServices
 90
        0
 91
       26
280
     0
281
     0
  0
CLASS
  1
ACMEDRAWINGMAN
  2
AcMeDrawingMan
  3
AcMeServices
 90
        0
 91
        1
280
     0
281
     0
  0
CLASS
  1
ACMEVIEW
  2
AcMeView
  3
AcMeServices
 90
        0
 91
        1
280
     0
281
     0
  0
CLASS
  1
ACDBENTITYCACHE
  2
AcMeEntityCache
  3
AcMeServices
 90
        0
 91
        1
280
     0
281
     0
  0
CLASS
  1
GSMANAGER
  2
AcMeGSManager
  3
AcMeServices
 90
        0
 91
        1
280
     0
281
     0
  0
CLASS
  1
AMDTINTERNALREACTOR
  2
AmdtInternalReactor
  3
AcMeServices
 90
        0
 91
        2
280
     0
281
     0
  0
CLASS
  1
ACMESTATEMGR
  2
AcMeStateMgr
  3
AcMeServices
 90
        0
 91
        1
280
     0
281
     0
  0
CLASS
  1
ACGREFMASTER
  2
AcGrefMaster
  3
AcAttribServices
 90
        0
 91
        1
280
     0
281
     0
  0
CLASS
  1
AM_DRAWING_MGR
  2
AcDmDwgMgr
  3
AcMechDwgViewMgmt
 90
        0
 91
        1
280
     0
281
     0
  0
CLASS
  1
AM_DWG_DOCUMENT
  2
AcDmDwgDocument
  3
AcMechDwgViewMgmt
 90
        0
 91
        1
280
     0
281
     0
  0
CLASS
  1
AM_DWG_SHEET
  2
AcDmSheet
  3
AcMechDwgViewMgmt
 90
        0
 91
        1
280
     0
281
     0
  0
CLASS
  1
AM_VIEWDIMPARMAP
  2
AcDmViewDimParMap
  3
AcMechDwgViewMgmt
 90
        0
 91
        1
280
     0
281
     0
  0
CLASS
  1
ACIMREALSYSVAR
  2
AcImRealSysVar
  3
AcMeServices
 90
        0
 91
        1
280
     0
281
     0
  0
CLASS
  1
AM_DWGMGR_NAME
  2
AcDmDwgMgrName
  3
AcMechDwgViewMgmt
 90
        0
 91
        1
280
     0
281
     0
  0
CLASS
  1
ACME_DATABASE
  2
AcMeDbDatabase
  3
AcMeServices
 90
        0
 91
        1
280
     0
281
     0
  0
CLASS
  1
ACRFINSADJUSTERMGR
  2
AcRfInsAdjusterMgr
  3
AcMeServices
 90
        0
 91
        1
280
     0
281
     0
  0
CLASS
  1
ACGREFACADMASTER
  2
AcGrefacadMaster
  3
AcGrefServices
 90
        0
 91
        1
280
     0
281
     0
  0
CLASS
  1
AMDTMENUSTATEMGR
  2
AmdtMenuStateMgr
  3
McadcomServices
 90
        0
 91
        1
280
     0
281
     0
  0
CLASS
  1
AMDTMCOMMENUSTATE
  2
AmdtMcomMenuState
  3
McadcomServices
 90
        0
 91
        1
280
     0
281
     0
  0
CLASS
  1
AMIMASTER
  2
AmiMaster
  3
AmiServices
 90
        0
 91
        1
280
     0
281
     0
  0
CLASS
  1
MAPIAMMOUDLE
  2
MApiAmModule
  3
MApiAmServices
 90
        0
 91
        1
280
     0
281
     0
  0
CLASS
  1
ACIMSTRSYSVAR
  2
AcImStrSysVar
  3
AcMeServices
 90
        0
 91
        5
280
     0
281
     0
  0
CLASS
  1
AMDTADMENUSTATE
  2
AmdtAdMenuState
  3
DesignerServices
 90
        0
 91
        1
280
     0
281
     0
  0
CLASS
  1
ADAPPL
  2
AcAdAppl
  3
DesignerServices
 90
        0
 91
        1
280
     0
281
     0
  0
CLASS
  1
DEPMGR
  2
AcAdDepMgr
  3
DesignerServices
 90
        0
 91
        1
280
     0
281
     0
  0
CLASS
  1
PARAMMGR
  2
AcAdParamMgr
  3
DesignerServices
 90
        0
 91
        1
280
     0
281
     0
  0
CLASS
  1
PARAMSCOPE
  2
AcAdParamScope
  3
DesignerServices
 90
        0
 91
        1
280
     0
281
     0
  0
CLASS
  1
NAMEDAPPL
  2
AcAdNamedAppl
  3
DesignerServices
 90
        0
 91
        1
280
     0
281
     0
  0
CLASS
  1
AMDTDMMENUSTATE
  2
AmdtDmMenuState
  3
AcMechDwgViewMgmt
 90
        0
 91
        1
280
     0
281
     0
  0
CLASS
  1
AMDTAMMENUSTATE
  2
AmdtAmMenuState
  3
DesignerAssemblies
 90
        0
 91
        1
280
     0
281
     0
  0
CLASS
  1
ACAMPROJECT
  2
AcAmProject
  3
DesignerAssemblies
 90
        0
 91
        1
280
     0
281
     0
  0
CLASS
  1
ACAMGRCOMPDEF
  2
AcAmGrCompDef
  3
DesignerAssemblies
 90
        0
 91
        1
280
     0
281
     0
  0
CLASS
  1
ACCMCONTEXT
  2
AcCmContext
  3
DesignerAssemblies
 90
        0
 91
        1
280
     0
281
     0
  0
CLASS
  1
ACAMCOMPDEF
  2
AcAmCompDef
  3
DesignerAssemblies
 90
        0
 91
        1
280
     0
281
     0
  0
CLASS
  1
ACAMCOMPDEFMGR
  2
AcAmCompDefMgr
  3
DesignerAssemblies
 90
        0
 91
        1
280
     0
281
     0
  0
CLASS
  1
AMCONTEXTMGR
  2
AcAmContextMgr
  3
DesignerAssemblies
 90
        0
 91
        1
280
     0
281
     0
  0
CLASS
  1
ACAMCONTEXTMODELER
  2
AcAmContextModeler
  3
DesignerAssemblies
 90
        0
 91
        1
280
     0
281
     0
  0
CLASS
  1
ACMDATADICTIONARY
  2
AcmDataDictionary
  3
"AcmSymBB|Product Description: AutoCAD Mechanical 2004 DX|Company: Autodesk"
 90
        0
 91
        1
280
     0
281
     0
  0
CLASS
  1
CATALOGSTATE
  2
AcAmCatalogState
  3
DesignerAssemblies
 90
        0
 91
        1
280
     0
281
     0
  0
CLASS
  1
ACAMGRCOMPDEFSET
  2
AcAmGrCompDefSet
  3
DesignerAssemblies
 90
        0
 91
        1
280
     0
281
     0
  0
CLASS
  1
AMDTBROWSERDBTAB
  2
AmdtBrowserDbTab
  3
McadcomServices
 90
        0
 91
        1
280
     0
281
     0
  0
CLASS
  1
CBROWSERAPPOBJECT
  2
CBrowserAppObject
  3
McadcomServices
 90
        0
 91
        3
280
     0
281
     0
  0
CLASS
  1
DM_PLACEHOLDER
  2
AcDmSelsetPlaceholder
  3
AcMechDwgViewMgmt
 90
        0
 91
        1
280
     0
281
     0
  0
CLASS
  1
ACMSTANDARDANSI
  2
AcmStandardANSI
  3
"Amdt_StdImp|Product Description: AutoCAD Mechanical 2004 DX|Company: Autodesk"
 90
        0
 91
        1
280
     0
281
     0
  0
CLASS
  1
AMGOBJPROPCFG
  2
AmgObjPropCfg
  3
"AmgLay|Product Description: AutoCAD Mechanical 2000|Company: Autodesk"
 90
        1
 91
        1
280
     0
281
     0
  0
CLASS
  1
ACMSURFSTANDARDANSI
  2
AcmSurfTextStdANSI
  3
"Amdt_StdImp|Product Description: AutoCAD Mechanical 2004 DX|Company: Autodesk"
 90
        0
 91
        1
280
     0
281
     0
  0
CLASS
  1
ACMFCFSTANDARDANSI
  2
AcmFCFStdANSI
  3
"Amdt_StdImp|Product Description: AutoCAD Mechanical 2004 DX|Company: Autodesk"
 90
        0
 91
        1
280
     0
281
     0
  0
CLASS
  1
ACMWELDSTANDARDANSI
  2
AcmWeldingStdANSI
  3
"Amdt_StdImp|Product Description: AutoCAD Mechanical 2004 DX|Company: Autodesk"
 90
        0
 91
        1
280
     0
281
     0
  0
CLASS
  1
ACMIDSTANDARDANSI
  2
AcmIdStdANSI
  3
"Amdt_StdImp|Product Description: AutoCAD Mechanical 2004 DX|Company: Autodesk"
 90
        0
 91
        1
280
     0
281
     0
  0
CLASS
  1
ACMDATUMSTANDARDANSI
  2
AcmDatumStdANSI
  3
"Amdt_StdImp|Product Description: AutoCAD Mechanical 2004 DX|Company: Autodesk"
 90
        0
 91
        1
280
     0
281
     0
  0
CLASS
  1
ACMBOMSTANDARDANSI
  2
AcmBOMStdANSI
  3
"Amdt_StdImp|Product Description: AutoCAD Mechanical 2004 DX|Company: Autodesk"
 90
        0
 91
        1
280
     0
281
     0
  0
CLASS
  1
ACMDETAILSTANDARDANSI
  2
AmdtDetailSymStdANSI
  3
"Amdt_StdImp|Product Description: AutoCAD Mechanical 2004 DX|Company: Autodesk"
 90
        0
 91
        1
280
     0
281
     0
  0
CLASS
  1
ACMSECTIONSTANDARDANSI
  2
AmdtSectionSymStdANSI
  3
"Amdt_StdImp|Product Description: AutoCAD Mechanical 2004 DX|Company: Autodesk"
 90
        0
 91
        1
280
     0
281
     0
  0
CLASS
  1
ACMCENTERLINESTANDARDANSI
  2
AmdtCenterLineStdANSI
  3
"Amdt_StdImp|Product Description: AutoCAD Mechanical 2004 DX|Company: Autodesk"
 90
        0
 91
        1
280
     0
281
     0
  0
CLASS
  1
ACMTHREADLINESTANDARDANSI
  2
AmdtThreadLineStdANSI
  3
"Amdt_StdImp|Product Description: AutoCAD Mechanical 2004 DX|Company: Autodesk"
 90
        0
 91
        1
280
     0
281
     0
  0
CLASS
  1
ACMNOTESTANDARDANSI
  2
AmdtNoteStdANSI
  3
"Amdt_StdImp|Product Description: AutoCAD Mechanical 2004 DX|Company: Autodesk"
 90
        0
 91
        1
280
     0
281
     0
  0
CLASS
  1
AMDTNOTETEMPLATEDB
  2
AmdtNoteTemplateDB
  3
AMDT_STDIMP_MODULE_NAME
 90
        0
 91
        6
280
     0
281
     0
  0
CLASS
  1
ACAMGLAYSTD
  2
AcAmgLayStd
  3
"AcAmgLayStd|Product Description: AutoCAD Mechanical 2000|Company: Autodesk"
 90
        0
 91
        1
280
     0
281
     0
  0
CLASS
  1
ACAMGDIMSTD
  2
AcAmgDimStd
  3
"AcAmgDimStd|Product Description: AutoCAD Mechanical 2000|Company: Autodesk"
 90
        0
 91
        1
280
     0
281
     0
  0
CLASS
  1
ACAMGHOLECHARTSTDANSI
  2
AcAmgHoleChartStdANSI
  3
ACMSYMBB_MODULE_NAME
 90
        0
 91
        1
280
     0
281
     0
  0
CLASS
  1
ACAMGTITLESTD
  2
AcAmgTitleStd
  3
"TITLEAPP"
 90
        0
 91
        1
280
     0
281
     0
  0
CLASS
  1
ACAMGFILTERDAT
  2
AcAmgFilterDat
  3
"AcadM|Product Description: AutoCAD Mechanical 2000|Company: Autodesk"
 90
        0
 91
        6
280
     0
281
     0
  0
CLASS
  1
DIMASSOC
  2
AcDbDimAssoc
  3
"AcDbDimAssoc|Product Desc:     AcDim ARX App For Dimension|Company:          Autodesk, Inc.|WEB Address:      www.autodesk.com"
 90
        0
 91
        3
280
     0
281
     0
  0
CLASS
  1
DICTIONARYVAR
  2
AcDbDictionaryVar
  3
ObjectDBX Classes
 90
        0
 91
        1
280
     0
281
     0
  0
ENDSEC
  0
SECTION
  2
TABLES
  0
TABLE
  2
VPORT
  5
8
330
0
100
AcDbSymbolTable
 70
    63
  0
VPORT
  5
610
330
8
100
AcDbSymbolTableRecord
100
AcDbViewportTableRecord
  2
*Active
 70
     0
 10
0.0
 20
0.0
 11
1.0
 21
1.0
 12
5.500000025611372
 22
4.250000019790605
 13
0.0
 23
0.0
 14
1.0
 24
1.0
 15
0.0
 25
0.0
 16
0.0
 26
0.0
 36
1.0
 17
0.0
 27
0.0
 37
0.0
 40
8.57934895770504
 41
1.826625386996903
 42
50.0
 43
0.0
 44
0.0
 50
0.0
 51
0.0
 71
     0
 72
   100
 73
     1
 74
     1
 75
     0
 76
     0
 77
     0
 78
     0
281
     0
 65
     0
110
0.0
120
0.0
130
0.0
111
1.0
121
0.0
131
0.0
112
0.0
122
1.0
132
0.0
 79
     0
146
0.0
  0
ENDTAB
  0
TABLE
  2
LTYPE
  5
5
330
0
100
AcDbSymbolTable
 70
    19
  0
LTYPE
  5
14
330
5
100
AcDbSymbolTableRecord
100
AcDbLinetypeTableRecord
  2
BYBLOCK
 70
     0
  3

 72
    65
 73
     0
 40
0.0
  0
LTYPE
  5
15
330
5
100
AcDbSymbolTableRecord
100
AcDbLinetypeTableRecord
  2
BYLAYER
 70
     0
  3

 72
    65
 73
     0
 40
0.0
  0
LTYPE
  5
16
330
5
100
AcDbSymbolTableRecord
100
AcDbLinetypeTableRecord
  2
CONTINUOUS
 70
     0
  3
Solid line
 72
    65
 73
     0
 40
0.0
  0
LTYPE
  5
1F5
330
5
100
AcDbSymbolTableRecord
100
AcDbLinetypeTableRecord
  2
CENTER
 70
     0
  3
____ _ ____ _ ____ _ ____ _ ____ _ ____ _ ____
 72
    65
 73
     4
 40
0.6
 49
0.375
 74
     0
 49
-0.075
 74
     0
 49
0.075
 74
     0
 49
-0.075
 74
     0
  0
LTYPE
  5
1F6
330
5
100
AcDbSymbolTableRecord
100
AcDbLinetypeTableRecord
  2
HIDDEN
 70
     0
  3
- - - - - - - - - - - - - - - - - - - -
 72
    65
 73
     2
 40
0.2
 49
0.1
 74
     0
 49
-0.1
 74
     0
  0
LTYPE
  5
491
330
5
100
AcDbSymbolTableRecord
100
AcDbLinetypeTableRecord
  2
PHANTOM2
 70
     0
  3
Phantom (.5x) ___ _ _ ___ _ _ ___ _ _ ___ _ _
 72
    65
 73
     6
 40
1.25
 49
0.625
 74
     0
 49
-0.125
 74
     0
 49
0.125
 74
     0
 49
-0.125
 74
     0
 49
0.125
 74
     0
 49
-0.125
 74
     0
  0
LTYPE
  5
4C8
330
5
100
AcDbSymbolTableRecord
100
AcDbLinetypeTableRecord
  2
Amconstr
 70
     0
  3
_______________________
 72
    65
 73
     2
 40
9999.0
 49
9999.0
 74
     0
 49
0.0
 74
     0
  0
LTYPE
  5
4CE
330
5
100
AcDbSymbolTableRecord
100
AcDbLinetypeTableRecord
  2
CENTER2
 70
     0
  3
Center (.5x) ___ _ ___ _ ___ _ ___ _ ___ _ ___
 72
    65
 73
     4
 40
1.125
 49
0.75
 74
     0
 49
-0.125
 74
     0
 49
0.125
 74
     0
 49
-0.125
 74
     0
  0
LTYPE
  5
4CF
330
5
100
AcDbSymbolTableRecord
100
AcDbLinetypeTableRecord
  2
HIDDEN2
 70
     0
  3
Hidden (.5x) _ _ _ _ _ _ _ _ _ _ _ _ _ _ _ _ _
 72
    65
 73
     2
 40
0.1875
 49
0.125
 74
     0
 49
-0.0625
 74
     0
  0
LTYPE
  5
4D0
330
5
100
AcDbSymbolTableRecord
100
AcDbLinetypeTableRecord
  2
Amzigzag2
 70
     0
  3
/\/-/\/-/\/-/\/-/\/-/\/
 72
    65
 73
     2
 40
0.4401
 49
0.0001
 74
     4
 75
   136
340
4CC
 46
0.0016
 50
0.0
 44
0.0
 45
0.0
 49
-0.4400000000000001
 74
     0
  0
LTYPE
  5
4DE
330
5
100
AcDbSymbolTableRecord
100
AcDbLinetypeTableRecord
  2
ACANSTGB
 70
     0
  3
__ . . __ . .
 72
    65
 73
     6
 40
0.35433070866
 49
0.15748031496
 74
     0
 49
-0.03937007874
 74
     0
 49
0.03937007874
 74
     0
 49
-0.03937007874
 74
     0
 49
0.03937007874
 74
     0
 49
-0.03937007874
 74
     0
  0
LTYPE
  5
4DF
330
5
100
AcDbSymbolTableRecord
100
AcDbLinetypeTableRecord
  2
ACANSTGL
 70
     0
  3
_ _ _ _ _
 72
    65
 73
     2
 40
0.11811023622
 49
0.07874015748
 74
     0
 49
-0.03937007874
 74
     0
  0
ENDTAB
  0
TABLE
  2
LAYER
  5
2
330
0
100
AcDbSymbolTable
 70
     7
  0
LAYER
  5
10
330
2
100
AcDbSymbolTableRecord
100
AcDbLayerTableRecord
  2
0
 70
     0
 62
     7
  6
CONTINUOUS
370
    -3
390
F
  0
LAYER
  5
515
330
2
100
AcDbSymbolTableRecord
100
AcDbLayerTableRecord
  2
AM_5
 70
     0
 62
     3
  6
CONTINUOUS
370
    15
390
F
1001
AcAecLayerStandard
1000

1000

  0
LAYER
  5
527
330
2
100
AcDbSymbolTableRecord
100
AcDbLayerTableRecord
  2
Defpoints
 70
     0
 62
     7
  6
CONTINUOUS
290
     0
370
    -3
390
F
  0
ENDTAB
  0
TABLE
  2
STYLE
  5
3
330
0
100
AcDbSymbolTable
 70
     5
  0
STYLE
  5
11
330
3
100
AcDbSymbolTableRecord
100
AcDbTextStyleTableRecord
  2
STANDARD
 70
     0
 40
0.0
 41
0.8
 50
0.0
 71
     0
 42
0.2
  3
txt
  4

  0
STYLE
  5
4CC
330
3
100
AcDbSymbolTableRecord
100
AcDbTextStyleTableRecord
  2

 70
     1
 40
0.0
 41
1.0
 50
0.0
 71
     0
 42
0.2
  3
genltshp.shx
  4

  0
STYLE
  5
4D1
330
3
100
AcDbSymbolTableRecord
100
AcDbTextStyleTableRecord
  2
ACANSTS
 70
     0
 40
1.0
 41
1.0
 50
0.0
 71
     0
 42
0.2
  3
romans.shx
  4

  0
STYLE
  5
4DD
330
3
100
AcDbSymbolTableRecord
100
AcDbTextStyleTableRecord
  2
ACANSGDT
 70
     0
 40
0.0
 41
1.0
 50
0.0
 71
     0
 42
0.2
  3
AMGDT
  4

  0
ENDTAB
  0
TABLE
  2
VIEW
  5
6
330
0
100
AcDbSymbolTable
 70
     4
  0
ENDTAB
  0
TABLE
  2
UCS
  5
7
330
0
100
AcDbSymbolTable
 70
     0
  0
ENDTAB
  0
TABLE
  2
APPID
  5
9
330
0
100
AcDbSymbolTable
 70
    11
  0
APPID
  5
1FF
330
9
100
AcDbSymbolTableRecord
100
AcDbRegAppTableRecord
  2
ACAD
 70
     0
  0
APPID
  5
464
330
9
100
AcDbSymbolTableRecord
100
AcDbRegAppTableRecord
  2
MCAD_NO_VIS
 70
     0
  0
APPID
  5
465
330
9
100
AcDbSymbolTableRecord
100
AcDbRegAppTableRecord
  2
ACAD_TEMP_GRAPHIC
 70
     0
  0
APPID
  5
493
330
9
100
AcDbSymbolTableRecord
100
AcDbRegAppTableRecord
  2
AD_DRAW
 70
     0
  0
APPID
  5
496
330
9
100
AcDbSymbolTableRecord
100
AcDbRegAppTableRecord
  2
ACATTRIBSERVICES
 70
     0
  0
APPID
  5
4B6
330
9
100
AcDbSymbolTableRecord
100
AcDbRegAppTableRecord
  2
DESIGNERASSEMBLIES
 70
     0
  0
APPID
  5
4BC
330
9
100
AcDbSymbolTableRecord
100
AcDbRegAppTableRecord
  2
ACADM_DIM_EDIT
 70
     0
  0
APPID
  5
4BD
330
9
100
AcDbSymbolTableRecord
100
AcDbRegAppTableRecord
  2
AMDT_DM_ADJ
 70
     0
  0
APPID
  5
4EB
330
9
100
AcDbSymbolTableRecord
100
AcDbRegAppTableRecord
  2
ACAD_DSTYLE_DIMARC_LENGTH_SYMBOL
 70
     0
  0
APPID
  5
4EC
330
9
100
AcDbSymbolTableRecord
100
AcDbRegAppTableRecord
  2
ACAD_DSTYLE_DIMJOGGED_JOGANGLE_SYMBOL
 70
     0
  0
APPID
  5
516
330
9
100
AcDbSymbolTableRecord
100
AcDbRegAppTableRecord
  2
AcAecLayerStandard
 70
     0
  0
ENDTAB
  0
TABLE
  2
DIMSTYLE
  5
A
330
0
100
AcDbSymbolTable
 70
     8
100
AcDbDimStyleTable
 71
     1
340
202
  0
DIMSTYLE
105
202
330
A
100
AcDbSymbolTableRecord
100
AcDbDimStyleTableRecord
  2
STANDARD
 70
     0
 41
0.1875
 47
0.05
 48
0.05
 78
     4
140
0.15625
271
     2
272
     2
284
     4
340
11
  0
DIMSTYLE
105
4EA
330
A
100
AcDbSymbolTableRecord
100
AcDbDimStyleTableRecord
  2
AM_ANSI
 70
     0
  4
mm
 41
0.1
 42
0.05
 43
0.5
 44
0.1
 47
0.1
 48
0.1
 78
     7
 79
     2
140
0.12
141
0.0
146
0.71
147
0.06
176
   256
177
   256
178
     2
274
     4
284
     7
340
11
371
    -1
372
    -1
1001
ACAD_DSTYLE_DIMARC_LENGTH_SYMBOL
1070
   379
1070
     1
1001
ACAD_DSTYLE_DIMJOGGED_JOGANGLE_SYMBOL
1070
   384
1040
0.7853981633974483
  0
DIMSTYLE
105
4F3
330
A
100
AcDbSymbolTableRecord
100
AcDbDimStyleTableRecord
  2
AM_ANSI$3
 70
     0
  4
mm
 41
0.1
 42
0.05
 43
0.5
 44
0.1
 47
0.1
 48
0.1
 78
     7
 79
     2
140
0.12
141
0.0
146
0.71
147
0.06
176
   256
177
   256
178
     2
274
     4
284
     7
288
     1
289
     0
340
11
371
    -1
372
    -1
1001
ACAD_DSTYLE_DIMARC_LENGTH_SYMBOL
1070
   379
1070
     1
1001
ACAD_DSTYLE_DIMJOGGED_JOGANGLE_SYMBOL
1070
   384
1040
0.7853981633974483
  0
DIMSTYLE
105
4F6
330
A
100
AcDbSymbolTableRecord
100
AcDbDimStyleTableRecord
  2
AM_ANSI$4
 70
     0
  4
mm
 41
0.1
 42
0.05
 43
0.5
 44
0.1
 47
0.1
 48
0.1
 78
     7
 79
     2
140
0.12
141
0.0
146
0.71
147
0.06
176
   256
177
   256
178
     2
274
     4
284
     7
288
     1
289
     0
340
11
371
    -1
372
    -1
1001
ACAD_DSTYLE_DIMARC_LENGTH_SYMBOL
1070
   379
1070
     1
1001
ACAD_DSTYLE_DIMJOGGED_JOGANGLE_SYMBOL
1070
   384
1040
0.7853981633974483
  0
DIMSTYLE
105
4FB
330
A
100
AcDbSymbolTableRecord
100
AcDbDimStyleTableRecord
  2
AM_ANSI$7
 70
     0
  4
mm
 41
0.1
 42
0.05
 43
0.5
 44
0.1
 47
0.1
 48
0.1
 78
     7
 79
     2
140
0.24
141
0.0
146
0.71
147
0.06
176
   256
177
   256
178
     2
274
     4
284
     7
340
11
371
    -1
372
    -1
1001
ACAD_DSTYLE_DIMARC_LENGTH_SYMBOL
1070
   379
1070
     1
1001
ACAD_DSTYLE_DIMJOGGED_JOGANGLE_SYMBOL
1070
   384
1040
0.7853981633974483
  0
DIMSTYLE
105
4FE
330
A
100
AcDbSymbolTableRecord
100
AcDbDimStyleTableRecord
  2
AM_ANSI$SF
 70
     0
  4
mm
 41
0.1
 42
0.05
 43
0.5
 44
0.1
 47
0.1
 48
0.1
 75
     1
 76
     1
 78
     7
 79
     2
140
0.12
141
0.0
146
0.71
147
0.06
176
   256
177
   256
178
     2
274
     4
284
     7
340
11
371
    -1
372
    -1
1001
ACAD_DSTYLE_DIMARC_LENGTH_SYMBOL
1070
   379
1070
     1
1001
ACAD_DSTYLE_DIMJOGGED_JOGANGLE_SYMBOL
1070
   384
1040
0.7853981633974483
  0
DIMSTYLE
105
505
330
A
100
AcDbSymbolTableRecord
100
AcDbDimStyleTableRecord
  2
AM_ANSI$SH
 70
     0
  4
mm
 41
0.1
 42
0.05
 43
0.5
 44
0.1
 47
0.1
 48
0.1
 75
     1
 76
     1
 78
     7
 79
     2
140
0.12
141
0.0
146
0.71
147
0.06
173
     1
176
   256
177
   256
178
     2
274
     4
284
     7
340
11
343
4FF
371
    -1
372
    -1
1001
ACAD_DSTYLE_DIMARC_LENGTH_SYMBOL
1070
   379
1070
     1
1001
ACAD_DSTYLE_DIMJOGGED_JOGANGLE_SYMBOL
1070
   384
1040
0.7853981633974483
  0
DIMSTYLE
105
522
102
{ACAD_REACTORS
330
526
330
577
330
5D2
102
}
330
A
100
AcDbSymbolTableRecord
100
AcDbDimStyleTableRecord
  2
STANDARD$0
 70
     0
 41
0.1875
 47
0.05
 48
0.05
 78
     4
140
0.15625
271
     2
272
     2
284
     4
340
11
  0
ENDTAB
  0
TABLE
  2
BLOCK_RECORD
  5
1
330
0
100
AcDbSymbolTable
 70
     5
  0
BLOCK_RECORD
  5
200
330
1
100
AcDbSymbolTableRecord
100
AcDbBlockTableRecord
  2
*Model_Space
340
454
  0
BLOCK_RECORD
  5
201
330
1
100
AcDbSymbolTableRecord
100
AcDbBlockTableRecord
  2
*Paper_Space
340
455
  0
BLOCK_RECORD
  5
4FF
330
1
100
AcDbSymbolTableRecord
100
AcDbBlockTableRecord
  2
GENAXEH
340
0
  0
BLOCK_RECORD
  5
528
330
1
100
AcDbSymbolTableRecord
100
AcDbBlockTableRecord
  2
*D2
340
0
  0
BLOCK_RECORD
  5
578
330
1
100
AcDbSymbolTableRecord
100
AcDbBlockTableRecord
  2
*D3
340
0
  0
BLOCK_RECORD
  5
5D3
330
1
100
AcDbSymbolTableRecord
100
AcDbBlockTableRecord
  2
*D4
340
0
  0
ENDTAB
  0
ENDSEC
  0
SECTION
  2
BLOCKS
  0
BLOCK
  5
20
330
200
100
AcDbEntity
  8
0
100
AcDbBlockBegin
  2
*Model_Space
 70
     0
 10
0.0
 20
0.0
 30
0.0
  3
*Model_Space
  1

  0
ENDBLK
  5
21
330
200
100
AcDbEntity
  8
0
100
AcDbBlockEnd
  0
BLOCK
  5
1C
330
201
100
AcDbEntity
 67
     1
  8
0
100
AcDbBlockBegin
  2
*Paper_Space
 70
     0
 10
0.0
 20
0.0
 30
0.0
  3
*Paper_Space
  1

  0
ENDBLK
  5
1D
330
201
100
AcDbEntity
 67
     1
  8
0
100
AcDbBlockEnd
  0
BLOCK
  5
501
330
4FF
100
AcDbEntity
  8
0
100
AcDbBlockBegin
  2
GENAXEH
 70
     0
 10
0.0
 20
0.0
 30
0.0
  3
GENAXEH
  1

  0
LINE
  5
500
330
4FF
100
AcDbEntity
  8
0
100
AcDbLine
 10
-1.0
 20
0.0
 30
0.0
 11
1.0
 21
0.0
 31
0.0
  0
ENDBLK
  5
502
330
4FF
100
AcDbEntity
  8
0
100
AcDbBlockEnd
  0
BLOCK
  5
533
330
528
100
AcDbEntity
  8
0
100
AcDbBlockBegin
  2
*D2
 70
     1
 10
0.0
 20
0.0
 30
0.0
  3
*D2
  1

  0
LINE
  5
555
330
528
100
AcDbEntity
  8
AM_5
 62
     0
370
    -2
100
AcDbLine
 10
5.031377171316693
 20
5.367340627680137
 30
0.0
 11
6.018583320187043
 21
5.367340627680136
 31
0.0
  0
LINE
  5
556
330
528
100
AcDbEntity
  8
AM_5
 62
     0
370
    -2
100
AcDbLine
 10
5.031377171316693
 20
3.223672469185945
 30
0.0
 11
6.018583320187043
 21
3.223672469185945
 31
0.0
  0
LINE
  5
557
330
528
100
AcDbEntity
  8
AM_5
 62
     0
370
    -2
100
AcDbLine
 10
5.820583320187044
 20
5.179840627680137
 30
0.0
 11
5.820583320187044
 21
4.593839881766375
 31
0.0
  0
LINE
  5
558
330
528
100
AcDbEntity
  8
AM_5
 62
     0
370
    -2
100
AcDbLine
 10
5.820583320187044
 20
3.411172469185945
 30
0.0
 11
5.820583320187044
 21
3.997173215099707
 31
0.0
  0
SOLID
  5
559
330
528
100
AcDbEntity
  8
AM_5
 62
     0
100
AcDbTrace
 10
5.789333320187044
 20
5.179840627680137
 30
0.0
 11
5.851833320187044
 21
5.179840627680137
 31
0.0
 12
5.820583320187044
 22
5.367340627680137
 32
0.0
 13
5.820583320187044
 23
5.367340627680137
 33
0.0
  0
SOLID
  5
55A
330
528
100
AcDbEntity
  8
AM_5
 62
     0
100
AcDbTrace
 10
5.789333320187044
 20
3.411172469185945
 30
0.0
 11
5.851833320187044
 21
3.411172469185945
 31
0.0
 12
5.820583320187044
 22
3.223672469185945
 32
0.0
 13
5.820583320187044
 23
3.223672469185945
 33
0.0
  0
MTEXT
  5
55B
330
528
100
AcDbEntity
  8
AM_5
 62
     0
100
AcDbMText
 10
5.820583320187043
 20
4.295506548433042
 30
0.0
 40
0.15625
 41
0.0
 71
     5
 72
     1
  1
\A1;2.14\P [54.45]
 73
     1
 44
1.0
  0
POINT
  5
55C
330
528
100
AcDbEntity
  8
Defpoints
 62
     0
100
AcDbPoint
 10
4.962627171316693
 20
5.367340627680137
 30
0.0
  0
POINT
  5
55D
330
528
100
AcDbEntity
  8
Defpoints
 62
     0
100
AcDbPoint
 10
4.962627171316693
 20
3.223672469185946
 30
0.0
  0
POINT
  5
55E
330
528
100
AcDbEntity
  8
Defpoints
 62
     0
100
AcDbPoint
 10
5.820583320187044
 20
3.223672469185945
 30
0.0
  0
ENDBLK
  5
534
330
528
100
AcDbEntity
  8
0
100
AcDbBlockEnd
  0
BLOCK
  5
584
330
578
100
AcDbEntity
  8
0
100
AcDbBlockBegin
  2
*D3
 70
     1
 10
0.0
 20
0.0
 30
0.0
  3
*D3
  1

  0
LINE
  5
5B7
330
578
100
AcDbEntity
  8
AM_5
 62
     0
370
    -2
100
AcDbLine
 10
5.04899951126447
 20
1.978295286395725
 30
0.0
 11
6.01632824572567
 21
1.978295286395725
 31
0.0
  0
LINE
  5
5B8
330
578
100
AcDbEntity
  8
AM_5
 62
     0
370
    -2
100
AcDbLine
 10
5.04899951126447
 20
1.230263792195725
 30
0.0
 11
6.01632824572567
 21
1.230263792195725
 31
0.0
  0
LINE
  5
5B9
330
578
100
AcDbEntity
  8
AM_5
 62
     0
370
    -2
100
AcDbLine
 10
5.81832824572567
 20
1.790795286395725
 30
0.0
 11
5.81832824572567
 21
1.417763792195725
 31
0.0
  0
LINE
  5
5BA
330
578
100
AcDbEntity
  8
AM_5
 62
     0
370
    -2
100
AcDbLine
 10
5.81832824572567
 20
1.230263792195725
 30
0.0
 11
5.81832824572567
 21
0.6675414579647289
 31
0.0
  0
LINE
  5
5BB
330
578
100
AcDbEntity
  8
AM_5
 62
     0
370
    -2
100
AcDbLine
 10
5.81832824572567
 20
0.6675414579647289
 30
0.0
 11
5.63082824572567
 21
0.6675414579647291
 31
0.0
  0
SOLID
  5
5BC
330
578
100
AcDbEntity
  8
AM_5
 62
     0
100
AcDbTrace
 10
5.78707824572567
 20
1.790795286395725
 30
0.0
 11
5.84957824572567
 21
1.790795286395725
 31
0.0
 12
5.81832824572567
 22
1.978295286395725
 32
0.0
 13
5.81832824572567
 23
1.978295286395725
 33
0.0
  0
SOLID
  5
5BD
330
578
100
AcDbEntity
  8
AM_5
 62
     0
100
AcDbTrace
 10
5.78707824572567
 20
1.417763792195725
 30
0.0
 11
5.84957824572567
 21
1.417763792195725
 31
0.0
 12
5.81832824572567
 22
1.230263792195725
 32
0.0
 13
5.81832824572567
 23
1.230263792195725
 33
0.0
  0
MTEXT
  5
5BE
330
578
100
AcDbEntity
  8
AM_5
 62
     0
100
AcDbMText
 10
4.988744912392336
 20
0.6675414579647299
 30
0.0
 40
0.15625
 41
0.0
 71
     5
 72
     1
  1
\A1;0.75 [19.00]
 73
     1
 44
1.0
  0
POINT
  5
5BF
330
578
100
AcDbEntity
  8
Defpoints
 62
     0
100
AcDbPoint
 10
4.980249511264471
 20
1.978295286395725
 30
0.0
  0
POINT
  5
5C0
330
578
100
AcDbEntity
  8
Defpoints
 62
     0
100
AcDbPoint
 10
4.98024951126447
 20
1.230263792195725
 30
0.0
  0
POINT
  5
5C1
330
578
100
AcDbEntity
  8
Defpoints
 62
     0
100
AcDbPoint
 10
5.81832824572567
 20
1.230263792195725
 30
0.0
  0
ENDBLK
  5
585
330
578
100
AcDbEntity
  8
0
100
AcDbBlockEnd
  0
BLOCK
  5
5DE
330
5D3
100
AcDbEntity
  8
0
100
AcDbBlockBegin
  2
*D4
 70
     1
 10
0.0
 20
0.0
 30
0.0
  3
*D4
  1

  0
LINE
  5
603
330
5D3
100
AcDbEntity
  8
AM_5
 62
     0
370
    -2
100
AcDbLine
 10
2.277269387046746
 20
7.052883166595494
 30
0.0
 11
2.277269387046746
 21
7.682133166595495
 31
0.0
  0
LINE
  5
604
330
5D3
100
AcDbEntity
  8
AM_5
 62
     0
370
    -2
100
AcDbLine
 10
4.934772358694503
 20
7.063580668416108
 30
0.0
 11
4.934772358694503
 21
7.682133166595495
 31
0.0
  0
LINE
  5
605
330
5D3
100
AcDbEntity
  8
AM_5
 62
     0
370
    -2
100
AcDbLine
 10
2.464769387046746
 20
7.484133166595495
 30
0.0
 11
2.922270872870624
 21
7.484133166595495
 31
0.0
  0
LINE
  5
606
330
5D3
100
AcDbEntity
  8
AM_5
 62
     0
370
    -2
100
AcDbLine
 10
4.747272358694503
 20
7.484133166595495
 30
0.0
 11
4.289770872870624
 21
7.484133166595495
 31
0.0
  0
SOLID
  5
607
330
5D3
100
AcDbEntity
  8
AM_5
 62
     0
100
AcDbTrace
 10
2.464769387046746
 20
7.515383166595495
 30
0.0
 11
2.464769387046746
 21
7.452883166595495
 31
0.0
 12
2.277269387046746
 22
7.484133166595495
 32
0.0
 13
2.277269387046746
 23
7.484133166595495
 33
0.0
  0
SOLID
  5
608
330
5D3
100
AcDbEntity
  8
AM_5
 62
     0
100
AcDbTrace
 10
4.747272358694503
 20
7.515383166595495
 30
0.0
 11
4.747272358694503
 21
7.452883166595495
 31
0.0
 12
4.934772358694503
 22
7.484133166595495
 32
0.0
 13
4.934772358694503
 23
7.484133166595495
 33
0.0
  0
MTEXT
  5
609
330
5D3
100
AcDbEntity
  8
AM_5
 62
     0
100
AcDbMText
 10
3.606020872870624
 20
7.484133166595495
 30
0.0
 40
0.15625
 41
0.0
 71
     5
 72
     1
  1
\A1;2.66 [67.50]
 73
     1
 44
1.0
  0
POINT
  5
60A
330
5D3
100
AcDbEntity
  8
Defpoints
 62
     0
100
AcDbPoint
 10
2.277269387046746
 20
6.984133166595494
 30
0.0
  0
POINT
  5
60B
330
5D3
100
AcDbEntity
  8
Defpoints
 62
     0
100
AcDbPoint
 10
4.934772358694503
 20
6.994830668416108
 30
0.0
  0
POINT
  5
60C
330
5D3
100
AcDbEntity
  8
Defpoints
 62
     0
100
AcDbPoint
 10
4.934772358694503
 20
7.484133166595495
 30
0.0
  0
ENDBLK
  5
5DF
330
5D3
100
AcDbEntity
  8
0
100
AcDbBlockEnd
  0
ENDSEC
  0
SECTION
  2
ENTITIES
  0
LINE
  5
203
330
200
100
AcDbEntity
  8
0
  6
Continuous
 62
     7
100
AcDbLine
 10
0.0
 20
0.0
 30
0.0
 11
0.0
 21
8.5
 31
0.0
  0
LINE
  5
204
330
200
100
AcDbEntity
  8
0
  6
Continuous
 62
     7
100
AcDbLine
 10
0.0
 20
0.0
 30
0.0
 11
11.0
 21
0.0
 31
0.0
  0
LINE
  5
205
330
200
100
AcDbEntity
  8
0
  6
Continuous
 62
     7
100
AcDbLine
 10
0.0
 20
8.5
 30
0.0
 11
11.0
 21
8.5
 31
0.0
  0
LINE
  5
206
330
200
100
AcDbEntity
  8
0
  6
Continuous
 62
     7
100
AcDbLine
 10
11.0
 20
0.0
 30
0.0
 11
11.0
 21
8.5
 31
0.0
  0
LINE
  5
207
330
200
100
AcDbEntity
  8
0
  6
Continuous
 62
     7
100
AcDbLine
 10
8.7561443991
 20
4.367725607064447
 30
0.0
 11
8.2550802936
 21
4.657051598764447
 31
0.0
  0
LINE
  5
208
330
200
100
AcDbEntity
  8
0
  6
Continuous
 62
     7
100
AcDbLine
 10
8.3163193446
 20
4.663477804164448
 30
0.0
 11
8.694903226799999
 21
4.444874723464447
 31
0.0
  0
LINE
  5
209
330
200
100
AcDbEntity
  8
0
  6
Continuous
 62
     7
100
AcDbLine
 10
8.2662109792
 20
4.730984192264448
 30
0.0
 11
8.3163173899
 21
4.702051593064448
 31
0.0
  0
LINE
  5
20A
330
200
100
AcDbEntity
  8
0
  6
Continuous
 62
     7
100
AcDbLine
 10
8.6949012721
 20
4.483448512264447
 30
0.0
 11
8.745005568899999
 21
4.454517133564447
 31
0.0
  0
LINE
  5
20B
330
200
100
AcDbEntity
  8
0
  6
Continuous
 62
     7
100
AcDbLine
 10
8.721285003
 20
6.887096941764447
 30
0.0
 11
8.9356553197
 21
7.010859780664447
 31
0.0
  0
LINE
  5
20C
330
200
100
AcDbEntity
  8
0
  6
Continuous
 62
     7
100
AcDbLine
 10
9.0748397934
 20
6.930491449664447
 30
0.0
 11
8.879954162899998
 21
6.817978421264447
 31
0.0
  0
LINE
  5
20D
330
200
100
AcDbEntity
  8
0
  6
Continuous
 62
     7
100
AcDbLine
 10
8.899441129400001
 20
6.784225478064447
 30
0.0
 11
9.094326759999999
 21
6.896738506464448
 31
0.0
  0
LINE
  5
20E
330
200
100
AcDbEntity
  8
0
  6
Continuous
 62
     7
100
AcDbLine
 10
8.2662109792
 20
4.730984192264448
 30
0.0
 11
8.3107531385
 21
4.730983891164448
 31
0.0
  0
LINE
  5
20F
330
200
100
AcDbEntity
  8
0
  6
Continuous
 62
     7
100
AcDbLine
 10
8.7449908243
 20
4.745482864664447
 30
0.0
 11
8.6573617591
 21
4.796081911664447
 31
0.0
  0
LINE
  5
210
330
200
100
AcDbEntity
  8
0
  6
Continuous
 62
     7
100
AcDbLine
 10
8.241161031699999
 20
4.681160843864447
 30
0.0
 11
8.2410833358
 21
6.214392180564447
 31
0.0
  0
LINE
  5
211
330
200
100
AcDbEntity
  8
0
  6
Continuous
 62
     7
100
AcDbLine
 10
8.266138166099999
 20
6.167857825664447
 30
0.0
 11
8.2662109792
 21
4.730984192264448
 31
0.0
  0
LINE
  5
212
330
200
100
AcDbEntity
  8
0
  6
Continuous
 62
     7
100
AcDbLine
 10
8.308636442999999
 20
6.207529338964448
 30
0.0
 11
8.308634809099999
 21
6.239772149764447
 31
0.0
  0
LINE
  5
213
330
200
100
AcDbEntity
  8
0
  6
Continuous
 62
     7
100
AcDbLine
 10
8.3107531385
 20
4.730983891164448
 30
0.0
 11
8.310681628699999
 21
6.142137401164447
 31
0.0
  0
LINE
  5
214
330
200
100
AcDbEntity
  8
0
  6
Continuous
 62
     7
100
AcDbLine
 10
8.3163173899
 20
4.702051593064448
 30
0.0
 11
8.3163193446
 21
4.663477804164448
 31
0.0
  0
LINE
  5
215
330
200
100
AcDbEntity
  8
0
  6
Continuous
 62
     7
100
AcDbLine
 10
8.245159541900001
 20
6.223403252364446
 30
0.0
 11
8.721304705399999
 21
6.498295424464447
 31
0.0
  0
LINE
  5
216
330
200
100
AcDbEntity
  8
0
  6
Continuous
 62
     7
100
AcDbLine
 10
8.721305042799999
 20
6.491638390164448
 30
0.0
 11
8.255000968799999
 21
6.222427759464447
 31
0.0
  0
LINE
  5
217
330
200
100
AcDbEntity
  8
0
  6
Continuous
 62
     7
100
AcDbLine
 10
9.153603603099998
 20
6.727575495864447
 30
0.0
 11
9.094337066199999
 21
6.693359235164447
 31
0.0
  0
LINE
  5
218
330
200
100
AcDbEntity
  8
0
  6
Continuous
 62
     7
100
AcDbLine
 10
8.721305733999999
 20
6.477997616364448
 30
0.0
 11
8.308634810199999
 21
6.239750931764447
 31
0.0
  0
LINE
  5
219
330
200
100
AcDbEntity
  8
0
  6
Continuous
 62
     7
100
AcDbLine
 10
8.294718810099999
 20
6.199493760164448
 30
0.0
 11
8.3086366736
 21
6.207528939464447
 31
0.0
  0
LINE
  5
21A
330
200
100
AcDbEntity
  8
0
  6
Continuous
 62
     7
100
AcDbLine
 10
9.1953589452
 20
6.703464996564448
 30
0.0
 11
9.094339509500001
 21
6.645143597464446
 31
0.0
  0
LINE
  5
21B
330
200
100
AcDbEntity
  8
0
  6
Continuous
 62
     7
100
AcDbLine
 10
8.7213081773
 20
6.429781978764447
 30
0.0
 11
8.350390152200001
 21
6.215640432464446
 31
0.0
  0
LINE
  5
21C
330
200
100
AcDbEntity
  8
0
  6
Continuous
 62
     7
100
AcDbLine
 10
8.867486485299998
 20
4.808034382264447
 30
0.0
 11
8.8758385228
 21
4.803211722864448
 31
0.0
  0
LINE
  5
21D
330
200
100
AcDbEntity
  8
0
  6
Continuous
 62
     7
100
AcDbLine
 10
8.350390151199999
 20
6.215661650464447
 30
0.0
 11
8.350391785199999
 21
6.183416651464447
 31
0.0
  0
LINE
  5
21E
330
200
100
AcDbEntity
  8
0
  6
Continuous
 62
     7
100
AcDbLine
 10
8.366415037100001
 20
5.042785281564447
 30
0.0
 11
8.366416340299998
 21
5.017069422264447
 31
0.0
  0
LINE
  5
21F
330
200
100
AcDbEntity
  8
0
  6
Continuous
 62
     7
100
AcDbLine
 10
8.388615165900001
 20
6.145273646564447
 30
0.0
 11
8.3886176053
 21
6.097135367564447
 31
0.0
  0
LINE
  5
220
330
200
100
AcDbEntity
  8
0
  6
Continuous
 62
     7
100
AcDbLine
 10
8.350391785199999
 20
6.183416651464447
 30
0.0
 11
8.721309810199999
 21
6.397558197764448
 31
0.0
  0
LINE
  5
221
330
200
100
AcDbEntity
  8
0
  6
Continuous
 62
     7
100
AcDbLine
 10
9.094341142399999
 20
6.612919816564447
 30
0.0
 11
9.195360578099998
 21
6.671241215564447
 31
0.0
  0
LINE
  5
222
330
200
100
AcDbEntity
  8
0
  6
Continuous
 62
     7
100
AcDbLine
 10
9.2092798399
 20
6.647131970464448
 30
0.0
 11
9.094342771299999
 21
6.580775525364447
 31
0.0
  0
LINE
  5
223
330
200
100
AcDbEntity
  8
0
  6
Continuous
 62
     7
100
AcDbLine
 10
8.721311439099999
 20
6.365413906564447
 30
0.0
 11
8.364311047000001
 21
6.159307406364447
 31
0.0
  0
LINE
  5
224
330
200
100
AcDbEntity
  8
0
  6
Continuous
 62
     7
100
AcDbLine
 10
8.7213141635
 20
6.311652302264447
 30
0.0
 11
8.433131090799999
 21
6.145276001764448
 31
0.0
  0
LINE
  5
225
330
200
100
AcDbEntity
  8
0
  6
Continuous
 62
     7
100
AcDbLine
 10
8.3886232293
 20
6.097135268264447
 30
0.0
 11
8.720048357399999
 21
6.288496798464447
 31
0.0
  0
LINE
  5
226
330
200
100
AcDbEntity
  8
0
  6
Continuous
 62
     7
100
AcDbLine
 10
8.8674786532
 20
4.994477159664447
 30
0.0
 11
8.8953187784
 21
4.978401628164447
 31
0.0
  0
LINE
  5
227
330
200
100
AcDbEntity
  8
0
  6
Continuous
 62
     7
100
AcDbLine
 10
8.433161131799998
 20
6.122859052364447
 30
0.0
 11
8.433160541900001
 21
6.145280257264447
 31
0.0
  0
LINE
  5
228
330
200
100
AcDbEntity
  8
0
  6
Continuous
 62
     7
100
AcDbLine
 10
8.744970676599999
 20
5.143072225864447
 30
0.0
 11
8.608196625299999
 21
5.222048723264447
 31
0.0
  0
LINE
  5
229
330
200
100
AcDbEntity
  8
0
  6
Continuous
 62
     7
100
AcDbLine
 10
9.111093700099999
 20
4.939031240964447
 30
0.0
 11
9.0693335124
 21
4.963144538264447
 31
0.0
  0
LINE
  5
22A
330
200
100
AcDbEntity
  8
0
  6
Continuous
 62
     7
100
AcDbLine
 10
8.6016735032
 20
5.236465621864447
 30
0.0
 11
8.744970136900001
 21
5.153722834664447
 31
0.0
  0
LINE
  5
22B
330
200
100
AcDbEntity
  8
0
  6
Continuous
 62
     7
100
AcDbLine
 10
8.6016735032
 20
5.236465621864447
 30
0.0
 11
8.601623656699999
 21
6.220122891464447
 31
0.0
  0
LINE
  5
22C
330
200
100
AcDbEntity
  8
0
  6
Continuous
 62
     7
100
AcDbLine
 10
8.622447481
 20
5.962116640564447
 30
0.0
 11
8.622448658399999
 21
6.035984853564447
 31
0.0
  0
LINE
  5
22D
330
200
100
AcDbEntity
  8
0
  6
Continuous
 62
     7
100
AcDbLine
 10
9.134732432599999
 20
6.331752235664447
 30
0.0
 11
8.622448839199998
 21
6.035979220264447
 31
0.0
  0
LINE
  5
22E
330
200
100
AcDbEntity
  8
0
  6
Continuous
 62
     7
100
AcDbLine
 10
9.505639861599998
 20
6.524357321964447
 30
0.0
 11
8.660671068699999
 21
6.036532757764447
 31
0.0
  0
LINE
  5
22F
330
200
100
AcDbEntity
  8
0
  6
Continuous
 62
     7
100
AcDbLine
 10
8.646755071499999
 20
5.996217700064447
 30
0.0
 11
8.660672935099999
 21
6.004252879364448
 31
0.0
  0
LINE
  5
230
330
200
100
AcDbEntity
  8
0
  6
Continuous
 62
     7
100
AcDbLine
 10
9.069324186099999
 20
5.078859908764448
 30
0.0
 11
9.0275674597
 21
5.102971207364447
 31
0.0
  0
LINE
  5
231
330
200
100
AcDbEntity
  8
0
  6
Continuous
 62
     7
100
AcDbLine
 10
8.6573695782
 20
4.860375823464447
 30
0.0
 11
8.6573705555
 21
4.841088929064447
 31
0.0
  0
LINE
  5
232
330
200
100
AcDbEntity
  8
0
  6
Continuous
 62
     7
100
AcDbLine
 10
8.660672704400001
 20
6.004253278964448
 30
0.0
 11
8.660671069899999
 21
6.036508887564448
 31
0.0
  0
LINE
  5
233
330
200
100
AcDbEntity
  8
0
  6
Continuous
 62
     7
100
AcDbLine
 10
8.694903226799999
 20
4.444874723464447
 30
0.0
 11
8.6949012721
 21
4.483448512264447
 31
0.0
  0
LINE
  5
234
330
200
100
AcDbEntity
  8
0
  6
Continuous
 62
     7
100
AcDbLine
 10
8.702426412000001
 20
6.012398388264447
 30
0.0
 11
8.702428046499999
 21
5.980144967564448
 31
0.0
  0
LINE
  5
235
330
200
100
AcDbEntity
  8
0
  6
Continuous
 62
     7
100
AcDbLine
 10
8.721285003
 20
6.887096941764447
 30
0.0
 11
8.721314812399999
 21
6.298846662364447
 31
0.0
  0
LINE
  5
236
330
200
100
AcDbEntity
  8
0
  6
Continuous
 62
     7
100
AcDbLine
 10
8.745005568899999
 20
4.454517133564447
 30
0.0
 11
8.7449327558
 21
5.891390812764448
 31
0.0
  0
LINE
  5
237
330
200
100
AcDbEntity
  8
0
  6
Continuous
 62
     7
100
AcDbLine
 10
9.547395206599999
 20
6.500191125464447
 30
0.0
 11
8.702426413599999
 21
6.012366561364448
 31
0.0
  0
LINE
  5
238
330
200
100
AcDbEntity
  8
0
  6
Continuous
 62
     7
100
AcDbLine
 10
8.702428046499999
 20
5.980144967564448
 30
0.0
 11
9.547396839400001
 21
6.467969531664447
 31
0.0
  0
LINE
  5
239
330
200
100
AcDbEntity
  8
0
  6
Continuous
 62
     7
100
AcDbLine
 10
9.561316101199999
 20
6.443860286464448
 30
0.0
 11
8.716347308299999
 21
5.956035722464447
 31
0.0
  0
LINE
  5
23A
330
200
100
AcDbEntity
  8
0
  6
Continuous
 62
     7
100
AcDbLine
 10
8.7560650743
 20
5.933101766564448
 30
0.0
 11
9.573191766599999
 21
6.404852292464447
 31
0.0
  0
LINE
  5
23B
330
200
100
AcDbEntity
  8
0
  6
Continuous
 62
     7
100
AcDbLine
 10
8.7699843361
 20
5.908992521464448
 30
0.0
 11
8.770062032
 21
4.375761185964447
 31
0.0
  0
LINE
  5
23C
330
200
100
AcDbEntity
  8
0
  6
Continuous
 62
     7
100
AcDbLine
 10
9.587112326999999
 20
6.380743797164447
 30
0.0
 11
8.7699843361
 21
5.908992521464448
 31
0.0
  0
LINE
  5
23D
330
200
100
AcDbEntity
  8
0
  6
Continuous
 62
     7
100
AcDbLine
 10
9.1110389682
 20
6.019097327764447
 30
0.0
 11
8.875783790899999
 21
5.883277809664447
 31
0.0
  0
LINE
  5
23E
330
200
100
AcDbEntity
  8
0
  6
Continuous
 62
     7
100
AcDbLine
 10
8.8674320383
 20
5.868812375564448
 30
0.0
 11
8.867432363999999
 21
5.862383410764447
 31
0.0
  0
LINE
  5
23F
330
200
100
AcDbEntity
  8
0
  6
Continuous
 62
     7
100
AcDbLine
 10
8.867441486
 20
5.682372396264447
 30
0.0
 11
8.867441811799999
 21
5.675943431464448
 31
0.0
  0
LINE
  5
240
330
200
100
AcDbEntity
  8
0
  6
Continuous
 62
     7
100
AcDbLine
 10
8.867476019299999
 20
5.000902127164447
 30
0.0
 11
8.8674763451
 21
4.994473162364448
 31
0.0
  0
LINE
  5
241
330
200
100
AcDbEntity
  8
0
  6
Continuous
 62
     7
100
AcDbLine
 10
8.867485467099999
 20
4.814462147864447
 30
0.0
 11
8.8674857929
 21
4.808033183064448
 31
0.0
  0
LINE
  5
242
330
200
100
AcDbEntity
  8
0
  6
Continuous
 62
     7
100
AcDbLine
 10
8.899441129400001
 20
6.784225478064447
 30
0.0
 11
8.8994709388
 21
6.195975198664447
 31
0.0
  0
LINE
  5
243
330
200
100
AcDbEntity
  8
0
  6
Continuous
 62
     7
100
AcDbLine
 10
8.8952747973
 20
5.846311876464447
 30
0.0
 11
9.069280205
 21
5.946770157164447
 31
0.0
  0
LINE
  5
244
330
200
100
AcDbEntity
  8
0
  6
Continuous
 62
     7
100
AcDbLine
 10
9.645049269999999
 20
6.260860505864447
 30
0.0
 11
9.6626607473
 21
6.271028113564447
 31
0.0
  0
LINE
  5
245
330
200
100
AcDbEntity
  8
0
  6
Continuous
 62
     7
100
AcDbLine
 10
9.0637190162
 20
5.991778170964447
 30
0.0
 11
9.063721134299999
 21
5.949980092964447
 31
0.0
  0
LINE
  5
246
330
200
100
AcDbEntity
  8
0
  6
Continuous
 62
     7
100
AcDbLine
 10
9.063762997199999
 20
5.123867922664447
 30
0.0
 11
9.063765115299998
 21
5.082069844664447
 31
0.0
  0
LINE
  5
247
330
200
100
AcDbEntity
  8
0
  6
Continuous
 62
     7
100
AcDbLine
 10
9.069280205
 20
5.946770157164447
 30
0.0
 11
9.0692860691
 21
5.831048790664447
 31
0.0
  0
LINE
  5
248
330
200
100
AcDbEntity
  8
0
  6
Continuous
 62
     7
100
AcDbLine
 10
9.069324186000001
 20
5.078859908764448
 30
0.0
 11
9.069330050199999
 21
4.963138542364448
 31
0.0
  0
LINE
  5
249
330
200
100
AcDbEntity
  8
0
  6
Continuous
 62
     7
100
AcDbLine
 10
9.0692860691
 20
5.831048790664447
 30
0.0
 11
8.895280661499999
 21
5.730590510064447
 31
0.0
  0
LINE
  5
24A
330
200
100
AcDbEntity
  8
0
  6
Continuous
 62
     7
100
AcDbLine
 10
8.875794541799999
 20
5.671121971164446
 30
0.0
 11
9.1110497191
 21
5.806941489264447
 31
0.0
  0
LINE
  5
24B
330
200
100
AcDbEntity
  8
0
  6
Continuous
 62
     7
100
AcDbLine
 10
8.867442504299999
 20
5.675944630664448
 30
0.0
 11
8.875794541799999
 21
5.671121971164446
 31
0.0
  0
LINE
  5
24C
330
200
100
AcDbEntity
  8
0
  6
Continuous
 62
     7
100
AcDbLine
 10
9.094326759999999
 20
6.896738506464448
 30
0.0
 11
9.0943565694
 21
6.308488227064447
 31
0.0
  0
LINE
  5
24D
330
200
100
AcDbEntity
  8
0
  6
Continuous
 62
     7
100
AcDbLine
 10
9.111093700099999
 20
4.939031240964447
 30
0.0
 11
9.1110829492
 21
5.151187079464447
 31
0.0
  0
LINE
  5
24E
330
200
100
AcDbEntity
  8
0
  6
Continuous
 62
     7
100
AcDbLine
 10
9.1110497191
 20
5.806941489264447
 30
0.0
 11
9.1110389682
 21
6.019097327764447
 31
0.0
  0
LINE
  5
24F
330
200
100
AcDbEntity
  8
0
  6
Continuous
 62
     7
100
AcDbLine
 10
9.6043495294
 20
5.998612104664447
 30
0.0
 11
9.818298831799999
 21
6.122131134164447
 31
0.0
  0
LINE
  5
250
330
200
100
AcDbEntity
  8
0
  6
Continuous
 62
     7
100
AcDbLine
 10
9.832132903699999
 20
6.097953840264447
 30
0.0
 11
9.587133825
 21
5.956508890064448
 31
0.0
  0
LINE
  5
251
330
200
100
AcDbEntity
  8
0
  6
Continuous
 62
     7
100
AcDbLine
 10
8.3886176053
 20
6.097135367564447
 30
0.0
 11
8.266138166099999
 21
6.167857825664447
 31
0.0
  0
LINE
  5
252
330
200
100
AcDbEntity
  8
0
  6
Continuous
 62
     7
100
AcDbLine
 10
8.7449327558
 20
5.891390812764448
 30
0.0
 11
8.622447481
 21
5.962116640564447
 31
0.0
  0
LINE
  5
253
330
200
100
AcDbEntity
  8
0
  6
Continuous
 62
     7
100
AcDbLine
 10
8.867434672199999
 20
5.862387407964448
 30
0.0
 11
8.8952747973
 21
5.846311876464447
 31
0.0
  0
LINE
  5
254
330
200
100
AcDbEntity
  8
0
  6
Continuous
 62
     7
100
AcDbLine
 10
8.364311047100001
 20
6.159307406264447
 30
0.0
 11
8.388615165900001
 21
6.145273646564447
 31
0.0
  0
LINE
  5
255
330
200
100
AcDbEntity
  8
0
  6
Continuous
 62
     7
100
AcDbLine
 10
8.622445041599998
 20
6.010254872964448
 30
0.0
 11
8.646755071699999
 21
5.996217699964446
 31
0.0
  0
LINE
  5
256
330
200
100
AcDbEntity
  8
0
  6
Continuous
 62
     7
100
AcDbLine
 10
8.716347308499999
 20
5.956035722264447
 30
0.0
 11
8.756065074
 21
5.933101766764448
 31
0.0
  0
LINE
  5
257
330
200
100
AcDbEntity
  8
0
  6
Continuous
 62
     7
100
AcDbLine
 10
8.2550009685
 20
6.222427759564447
 30
0.0
 11
8.294718810299999
 21
6.199493759964447
 31
0.0
  0
LINE
  5
258
330
200
100
AcDbEntity
  8
0
  6
Continuous
 62
     7
100
AcDbLine
 10
9.195360578099998
 20
6.671241215564447
 30
0.0
 11
9.1953589429
 21
6.703510084764447
 31
0.0
  0
LINE
  5
259
330
200
100
AcDbEntity
  8
0
  6
Continuous
 62
     7
100
AcDbLine
 10
9.201125778599999
 20
6.706738368164447
 30
0.0
 11
9.201127170099999
 21
6.679279046264447
 31
0.0
  0
LINE
  5
25A
330
200
100
AcDbEntity
  8
0
  6
Continuous
 62
     7
100
AcDbLine
 10
8.308634809099999
 20
6.239772149764447
 30
0.0
 11
8.350390151199999
 21
6.215661650464447
 31
0.0
  0
LINE
  5
25B
330
200
100
AcDbEntity
  8
0
  6
Continuous
 62
     7
100
AcDbLine
 10
8.660671069899999
 20
6.036508887564448
 30
0.0
 11
8.702426412000001
 21
6.012398388264447
 31
0.0
  0
LINE
  5
25C
330
200
100
AcDbEntity
  8
0
  6
Continuous
 62
     7
100
AcDbLine
 10
9.0692895313
 20
5.831054786564448
 30
0.0
 11
9.1110497191
 21
5.806941489264447
 31
0.0
  0
LINE
  5
25D
330
200
100
AcDbEntity
  8
0
  6
Continuous
 62
     7
100
AcDbLine
 10
8.6147186701
 20
5.218282743864447
 30
0.0
 11
8.310737337999999
 21
5.042785657964447
 31
0.0
  0
LINE
  5
25E
330
200
100
AcDbEntity
  8
0
  6
Continuous
 62
     7
100
AcDbLine
 10
8.6425555649
 20
5.202209077664447
 30
0.0
 11
8.366415037100001
 21
5.042785281564447
 31
0.0
  0
LINE
  5
25F
330
200
100
AcDbEntity
  8
0
  6
Continuous
 62
     7
100
AcDbLine
 10
9.894446041
 20
5.907711319264447
 30
0.0
 11
9.849444855899999
 21
5.881730852664448
 31
0.0
  0
LINE
  5
260
330
200
100
AcDbEntity
  8
0
  6
Continuous
 62
     7
100
AcDbLine
 10
8.366416340299998
 20
5.017069422264447
 30
0.0
 11
8.6648258189
 21
5.189349718364447
 31
0.0
  0
LINE
  5
261
330
200
100
AcDbEntity
  8
0
  6
Continuous
 62
     7
100
AcDbLine
 10
9.069280205
 20
5.946770157064447
 30
0.0
 11
9.027523478699999
 21
5.970881455664447
 31
0.0
  0
LINE
  5
262
330
200
100
AcDbEntity
  8
0
  6
Continuous
 62
     7
100
AcDbLine
 10
9.849365711599999
 20
5.802536402564448
 30
0.0
 11
10.063315014
 21
5.926055431964448
 31
0.0
  0
LINE
  5
263
330
200
100
AcDbEntity
  8
0
  6
Continuous
 62
     7
100
AcDbLine
 10
10.0771490832
 20
5.901878136564447
 30
0.0
 11
9.832150007499999
 21
5.760433188064447
 31
0.0
  0
LINE
  5
264
330
200
100
AcDbEntity
  8
0
  6
Continuous
 62
     7
100
AcDbLine
 10
8.879954162899998
 20
6.817978421264447
 30
0.0
 11
8.899441129400001
 21
6.784225478064447
 31
0.0
  0
LINE
  5
265
330
200
100
AcDbEntity
  8
0
  6
Continuous
 62
     7
100
AcDbLine
 10
9.547396839400001
 20
6.467969531664447
 30
0.0
 11
9.547395206599999
 21
6.500191125364447
 31
0.0
  0
LINE
  5
266
330
200
100
AcDbEntity
  8
0
  6
Continuous
 62
     7
100
AcDbLine
 10
9.5531620396
 20
6.503471776164447
 30
0.0
 11
9.553163431399999
 21
6.476007362364446
 31
0.0
  0
LINE
  5
267
330
200
100
AcDbEntity
  8
0
  6
Continuous
 62
     7
100
AcDbLine
 10
9.587133825
 20
5.956508890064448
 30
0.0
 11
9.587112326999999
 21
6.380743797164447
 31
0.0
  0
LINE
  5
268
330
200
100
AcDbEntity
  8
0
  6
Continuous
 62
     7
100
AcDbLine
 10
9.604432802699999
 20
5.996326736164447
 30
0.0
 11
9.604412100599999
 21
6.404857287664448
 31
0.0
  0
LINE
  5
269
330
200
100
AcDbEntity
  8
0
  6
Continuous
 62
     7
100
AcDbLine
 10
8.3107531385
 20
4.730983891164448
 30
0.0
 11
8.744978855399999
 21
4.981674772064447
 31
0.0
  0
LINE
  5
26A
330
200
100
AcDbEntity
  8
0
  6
Continuous
 62
     7
100
AcDbLine
 10
8.744980484199999
 20
4.949531013664447
 30
0.0
 11
8.3163173897
 21
4.702051593164447
 31
0.0
  0
LINE
  5
26B
330
200
100
AcDbEntity
  8
0
  6
Continuous
 62
     7
100
AcDbLine
 10
9.1110829492
 20
5.151187079464447
 30
0.0
 11
8.8758277719
 21
5.015367561264447
 31
0.0
  0
LINE
  5
26C
330
200
100
AcDbEntity
  8
0
  6
Continuous
 62
     7
100
AcDbLine
 10
8.6573695782
 20
4.860375823464447
 30
0.0
 11
8.316316997499999
 21
4.663476449364448
 31
0.0
  0
LINE
  5
26D
330
200
100
AcDbEntity
  8
0
  6
Continuous
 62
     7
100
AcDbLine
 10
8.6573687094
 20
4.841087863264447
 30
0.0
 11
8.7449834163
 21
4.891670330364448
 31
0.0
  0
LINE
  5
26E
330
200
100
AcDbEntity
  8
0
  6
Continuous
 62
     7
100
AcDbLine
 10
8.8953187784
 20
4.978401628164447
 30
0.0
 11
9.069324186000001
 21
5.078859908764448
 31
0.0
  0
LINE
  5
26F
330
200
100
AcDbEntity
  8
0
  6
Continuous
 62
     7
100
AcDbLine
 10
8.433131090799999
 20
6.145276001764448
 30
0.0
 11
8.3886167935
 21
6.145272706664448
 31
0.0
  0
LINE
  5
270
330
200
100
AcDbEntity
  8
0
  6
Continuous
 62
     7
100
AcDbLine
 10
9.115319473799999
 20
6.320543933464447
 30
0.0
 11
9.0943553451
 21
6.332647724764447
 31
0.0
  0
LINE
  5
271
330
200
100
AcDbEntity
  8
0
  6
Continuous
 62
     7
100
AcDbLine
 10
9.1347449969
 20
6.331748129364448
 30
0.0
 11
9.0943542089
 21
6.355070703664447
 31
0.0
  0
LINE
  5
272
330
200
100
AcDbEntity
  8
0
  6
Continuous
 62
     7
100
AcDbLine
 10
9.094326759999999
 20
6.896738506464448
 30
0.0
 11
9.0748397934
 21
6.930491449664447
 31
0.0
  0
LINE
  5
273
330
200
100
AcDbEntity
  8
0
  6
Continuous
 62
     7
100
AcDbLine
 10
9.069330050199999
 20
4.963138542364448
 30
0.0
 11
8.8953246425
 21
4.862680261664447
 31
0.0
  0
LINE
  5
274
330
200
100
AcDbEntity
  8
0
  6
Continuous
 62
     7
100
AcDbLine
 10
8.8758385228
 20
4.803211722864448
 30
0.0
 11
9.111093700099999
 21
4.939031240964447
 31
0.0
  0
LINE
  5
275
330
200
100
AcDbEntity
  8
0
  6
Continuous
 62
     7
100
AcDbLine
 10
9.832150007499999
 20
5.760433188064447
 30
0.0
 11
9.832132903699999
 21
6.097953840264447
 31
0.0
  0
LINE
  5
276
330
200
100
AcDbEntity
  8
0
  6
Continuous
 62
     7
100
AcDbLine
 10
9.8494489849
 20
5.800251034064448
 30
0.0
 11
9.849432677000001
 21
6.122067330564448
 31
0.0
  0
LINE
  5
277
330
200
100
AcDbEntity
  8
0
  6
Continuous
 62
     7
100
AcDbLine
 10
10.0632324351
 20
5.958135085864447
 30
0.0
 11
9.9352183184
 21
6.032053394664447
 31
0.0
  0
LINE
  5
278
330
200
100
AcDbEntity
  8
0
  6
Continuous
 62
     7
100
AcDbLine
 10
9.936579404599999
 20
6.037926572764447
 30
0.0
 11
10.0730779964
 21
5.959109132064447
 31
0.0
  0
LINE
  5
279
330
200
100
AcDbEntity
  8
0
  6
Continuous
 62
     7
100
AcDbLine
 10
9.818216252899999
 20
6.154210788064447
 30
0.0
 11
9.604418546099999
 21
6.277662523764447
 31
0.0
  0
LINE
  5
27A
330
200
100
AcDbEntity
  8
0
  6
Continuous
 62
     7
100
AcDbLine
 10
9.6044182086
 20
6.284321819364447
 30
0.0
 11
9.828061814199999
 21
6.155184834264447
 31
0.0
  0
LINE
  5
27B
330
200
100
AcDbEntity
  8
0
  6
Continuous
 62
     7
100
AcDbLine
 10
8.6948991584
 20
4.483449732764447
 30
0.0
 11
8.7450026369
 21
4.512375898764447
 31
0.0
  0
LINE
  5
27C
330
200
100
AcDbEntity
  8
0
  6
Continuous
 62
     7
100
AcDbLine
 10
8.7407696891
 20
6.898346752264447
 30
0.0
 11
8.879954162899998
 21
6.817978421264447
 31
0.0
  0
LINE
  5
27D
330
200
100
AcDbEntity
  8
0
  6
Continuous
 62
     7
100
AcDbLine
 10
9.4637689728
 20
6.500184064564447
 30
0.0
 11
9.2092798399
 21
6.647131970464448
 31
0.0
  0
LINE
  5
27E
330
200
100
AcDbEntity
  8
0
  6
Continuous
 62
     7
100
AcDbLine
 10
9.573195676599999
 20
6.437000745164447
 30
0.0
 11
9.561316101199999
 21
6.443860286464448
 31
0.0
  0
LINE
  5
27F
330
200
100
AcDbEntity
  8
0
  6
Continuous
 62
     7
100
AcDbLine
 10
9.2191241053
 20
6.648106764964447
 30
0.0
 11
9.4695356682
 21
6.503513342164447
 31
0.0
  0
LINE
  5
280
330
200
100
AcDbEntity
  8
0
  6
Continuous
 62
     7
100
AcDbLine
 10
9.571160366599999
 20
6.444835080964447
 30
0.0
 11
9.583041237799999
 21
6.437974791364448
 31
0.0
  0
LINE
  5
281
330
200
100
AcDbEntity
  8
0
  6
Continuous
 62
     7
100
AcDbLine
 10
10.0771881775
 20
5.130402360264447
 30
0.0
 11
10.0771490832
 21
5.901878136564447
 31
0.0
  0
LINE
  5
282
330
200
100
AcDbEntity
  8
0
  6
Continuous
 62
     7
100
AcDbLine
 10
10.0944879534
 20
5.154515852164447
 30
0.0
 11
10.0944488591
 21
5.925991628464447
 31
0.0
  0
LINE
  5
283
330
200
100
AcDbEntity
  8
0
  6
Continuous
 62
     7
100
AcDbLine
 10
8.770062032
 20
4.375761185964447
 30
0.0
 11
10.0771881775
 21
5.130402360264447
 31
0.0
  0
LINE
  5
284
330
200
100
AcDbEntity
  8
0
  6
Continuous
 62
     7
100
AcDbLine
 10
8.765985825999999
 20
4.366750114164448
 30
0.0
 11
10.0731119715
 21
5.121391288464447
 31
0.0
  0
LINE
  5
285
330
200
100
AcDbEntity
  8
0
  6
Continuous
 62
     7
100
AcDbLine
 10
9.547395206599999
 20
6.500191125464447
 30
0.0
 11
9.5056398644
 21
6.524301624764447
 31
0.0
  0
LINE
  5
286
330
200
100
AcDbEntity
  8
0
  6
Continuous
 62
     7
100
AcDbLine
 10
9.1953589452
 20
6.703464996564448
 30
0.0
 11
9.153603603099998
 21
6.727575495864447
 31
0.0
  0
LINE
  5
287
330
200
100
AcDbEntity
  8
0
  6
Continuous
 62
     7
100
AcDbLine
 10
9.167567274599999
 20
6.726171650064448
 30
0.0
 11
9.201077406499999
 21
6.706822125664447
 31
0.0
  0
LINE
  5
288
330
200
100
AcDbEntity
  8
0
  6
Continuous
 62
     7
100
AcDbLine
 10
9.5196023824
 20
6.522898445064448
 30
0.0
 11
9.553120039199999
 21
6.503544575564447
 31
0.0
  0
LINE
  5
289
330
200
100
AcDbEntity
  8
0
  6
Continuous
 62
     7
100
AcDbLine
 10
9.0748397934
 20
6.930491449664447
 30
0.0
 11
8.9356553197
 21
7.010859780664447
 31
0.0
  0
LINE
  5
28A
330
200
100
AcDbEntity
  8
0
  6
Continuous
 62
     7
100
AcDbLine
 10
4.934923541709472
 20
1.958610246995725
 30
0.0
 11
4.934923540109472
 21
1.249948831595725
 31
0.0
  0
LINE
  5
28B
330
200
100
AcDbEntity
  8
0
  6
Continuous
 62
     7
100
AcDbLine
 10
4.883742438009472
 20
1.336563004795725
 30
0.0
 11
4.883742439209472
 21
1.871999063395724
 31
0.0
  0
LINE
  5
28C
330
200
100
AcDbEntity
  8
0
  6
Continuous
 62
     7
100
AcDbLine
 10
4.816706303109471
 20
1.297328952895725
 30
0.0
 11
4.816706304409471
 21
1.911502179495725
 31
0.0
  0
LINE
  5
28D
330
200
100
AcDbEntity
  8
0
  6
Continuous
 62
     7
100
AcDbLine
 10
4.836498344909472
 20
1.942862215295725
 30
0.0
 11
4.836498343509471
 21
1.265696862895724
 31
0.0
  0
LINE
  5
28E
330
200
100
AcDbEntity
  8
0
  6
Continuous
 62
     7
100
AcDbLine
 10
2.304980767409473
 20
1.478330663695725
 30
0.0
 11
2.277421712409472
 21
1.505889718695724
 31
0.0
  0
LINE
  5
28F
330
200
100
AcDbEntity
  8
0
  6
Continuous
 62
     7
100
AcDbLine
 10
4.486106506809472
 20
1.297195267795725
 30
0.0
 11
4.486104203309471
 21
1.336568274895725
 31
0.0
  0
LINE
  5
290
330
200
100
AcDbEntity
  8
0
  6
Continuous
 62
     7
100
AcDbLine
 10
4.454608140409471
 20
1.336568274795725
 30
0.0
 11
4.454610443909472
 21
1.297195267695725
 31
0.0
  0
LINE
  5
291
330
200
100
AcDbEntity
  8
0
  6
Continuous
 62
     7
100
AcDbLine
 10
4.442774197409472
 20
1.899592852395725
 30
0.0
 11
4.442774196209472
 21
1.309041672895725
 31
0.0
  0
LINE
  5
292
330
200
100
AcDbEntity
  8
0
  6
Continuous
 62
     7
100
AcDbLine
 10
4.427039231109472
 20
1.899590852795725
 30
0.0
 11
4.427039231109472
 21
1.911502178695725
 31
0.0
  0
LINE
  5
293
330
200
100
AcDbEntity
  8
0
  6
Continuous
 62
     7
100
AcDbLine
 10
4.411279976009471
 20
1.309039330195725
 30
0.0
 11
4.411279977309471
 21
1.899590509595725
 31
0.0
  0
LINE
  5
294
330
200
100
AcDbEntity
  8
0
  6
Continuous
 62
     7
100
AcDbLine
 10
4.407438905809471
 20
1.875961413595724
 30
0.0
 11
4.407443973609472
 21
1.911388041795725
 31
0.0
  0
LINE
  5
295
330
200
100
AcDbEntity
  8
0
  6
Continuous
 62
     7
100
AcDbLine
 10
4.314753945709472
 20
1.297313138095725
 30
0.0
 11
4.314753945709472
 21
1.309039329995725
 31
0.0
  0
LINE
  5
296
330
200
100
AcDbEntity
  8
0
  6
Continuous
 62
     7
100
AcDbLine
 10
4.245936869209471
 20
1.911502178295725
 30
0.0
 11
4.245936869209471
 21
1.899590509295725
 31
0.0
  0
LINE
  5
297
330
200
100
AcDbEntity
  8
0
  6
Continuous
 62
     7
100
AcDbLine
 10
4.265711690409472
 20
1.911388041495725
 30
0.0
 11
4.265706622409472
 21
1.875961413495724
 31
0.0
  0
LINE
  5
298
330
200
100
AcDbEntity
  8
0
  6
Continuous
 62
     7
100
AcDbLine
 10
4.157273630909471
 20
1.297313137895724
 30
0.0
 11
4.157273631009471
 21
1.309039329595725
 31
0.0
  0
LINE
  5
299
330
200
100
AcDbEntity
  8
0
  6
Continuous
 62
     7
100
AcDbLine
 10
3.076655555609471
 20
1.438925476795725
 30
0.0
 11
3.045157944509472
 21
1.470421791395725
 31
0.0
  0
LINE
  5
29A
330
200
100
AcDbEntity
  8
0
  6
Continuous
 62
     7
100
AcDbLine
 10
4.915238500709471
 20
1.230263792295724
 30
0.0
 11
3.037379772209471
 21
1.230263788195725
 31
0.0
  0
LINE
  5
29B
330
200
100
AcDbEntity
  8
0
  6
Continuous
 62
     7
100
AcDbLine
 10
4.029337440409472
 20
1.297287366995725
 30
0.0
 11
4.029337440409472
 21
1.309101705595725
 31
0.0
  0
LINE
  5
29C
330
200
100
AcDbEntity
  8
0
  6
Continuous
 62
     7
100
AcDbLine
 10
4.029325002409472
 20
1.899668698795725
 30
0.0
 11
4.029325002409472
 21
1.911476407295725
 31
0.0
  0
LINE
  5
29D
330
200
100
AcDbEntity
  8
0
  6
Continuous
 62
     7
100
AcDbLine
 10
3.982093345809471
 20
1.297287366995725
 30
0.0
 11
3.982093345909471
 21
1.309039329195725
 31
0.0
  0
LINE
  5
29E
330
200
100
AcDbEntity
  8
0
  6
Continuous
 62
     7
100
AcDbLine
 10
3.076655826809472
 20
1.265696858995725
 30
0.0
 11
4.836498343509471
 21
1.265696862895724
 31
0.0
  0
LINE
  5
29F
330
200
100
AcDbEntity
  8
0
  6
Continuous
 62
     7
100
AcDbLine
 10
4.836496500709471
 20
1.297195268495725
 30
0.0
 11
3.076653984009472
 21
1.297195264695725
 31
0.0
  0
LINE
  5
2A0
330
200
100
AcDbEntity
  8
0
  6
Continuous
 62
     7
100
AcDbLine
 10
4.442774179309472
 20
1.309041672895725
 30
0.0
 11
3.084508324809471
 21
1.309039327295725
 31
0.0
  0
LINE
  5
2A1
330
200
100
AcDbEntity
  8
0
  6
Continuous
 62
     7
100
AcDbLine
 10
2.998009693809472
 20
1.325807321095725
 30
0.0
 11
2.958519603809472
 21
1.325807320995725
 31
0.0
  0
LINE
  5
2A2
330
200
100
AcDbEntity
  8
0
  6
Continuous
 62
     7
100
AcDbLine
 10
4.836498343609472
 20
1.336563004695725
 30
0.0
 11
4.883742438009472
 21
1.336563004795725
 31
0.0
  0
LINE
  5
2A3
330
200
100
AcDbEntity
  8
0
  6
Continuous
 62
     7
100
AcDbLine
 10
4.454608140409471
 20
1.336568274795725
 30
0.0
 11
4.486104203309471
 21
1.336568274895725
 31
0.0
  0
LINE
  5
2A4
330
200
100
AcDbEntity
  8
0
  6
Continuous
 62
     7
100
AcDbLine
 10
3.901384686109472
 20
1.911460593195725
 30
0.0
 11
3.901384686109472
 21
1.899590508495725
 31
0.0
  0
LINE
  5
2A5
330
200
100
AcDbEntity
  8
0
  6
Continuous
 62
     7
100
AcDbLine
 10
2.958519603909472
 20
1.384862438995725
 30
0.0
 11
2.998012374009472
 21
1.384862439095725
 31
0.0
  0
LINE
  5
2A6
330
200
100
AcDbEntity
  8
0
  6
Continuous
 62
     7
100
AcDbLine
 10
3.017697413509471
 20
1.438921106595724
 30
0.0
 11
3.076655827209471
 21
1.438921106695725
 31
0.0
  0
LINE
  5
2A7
330
200
100
AcDbEntity
  8
0
  6
Continuous
 62
     7
100
AcDbLine
 10
3.045147554509471
 20
1.470421814395725
 30
0.0
 11
3.017687078109472
 21
1.470421814395725
 31
0.0
  0
LINE
  5
2A8
330
200
100
AcDbEntity
  8
0
  6
Continuous
 62
     7
100
AcDbLine
 10
2.304980767409473
 20
1.478330663695725
 30
0.0
 11
3.025453207109471
 21
1.478330665295725
 31
0.0
  0
LINE
  5
2A9
330
200
100
AcDbEntity
  8
0
  6
Continuous
 62
     7
100
AcDbLine
 10
4.836408619709471
 20
1.494157382695725
 30
0.0
 11
4.883742438409471
 21
1.494157382795725
 31
0.0
  0
LINE
  5
2AA
330
200
100
AcDbEntity
  8
0
  6
Continuous
 62
     7
100
AcDbLine
 10
3.743904371309472
 20
1.899590508195725
 30
0.0
 11
3.743904371409472
 21
1.911460593195725
 31
0.0
  0
LINE
  5
2AB
330
200
100
AcDbEntity
  8
0
  6
Continuous
 62
     7
100
AcDbLine
 10
3.615971887109471
 20
1.899627113695725
 30
0.0
 11
3.615971887109471
 21
1.911434822295725
 31
0.0
  0
LINE
  5
2AC
330
200
100
AcDbEntity
  8
0
  6
Continuous
 62
     7
100
AcDbLine
 10
3.615959446509472
 20
1.297277409295725
 30
0.0
 11
3.615959446509472
 21
1.309091747895725
 31
0.0
  0
LINE
  5
2AD
330
200
100
AcDbEntity
  8
0
  6
Continuous
 62
     7
100
AcDbLine
 10
3.568727792909472
 20
1.899590507795725
 30
0.0
 11
3.568727793009472
 21
1.911434822195724
 31
0.0
  0
LINE
  5
2AE
330
200
100
AcDbEntity
  8
0
  6
Continuous
 62
     7
100
AcDbLine
 10
4.883742438909472
 20
1.714629822795725
 30
0.0
 11
4.836408620109472
 21
1.714629822695725
 31
0.0
  0
LINE
  5
2AF
330
200
100
AcDbEntity
  8
0
  6
Continuous
 62
     7
100
AcDbLine
 10
2.304980768009471
 20
1.730299166895725
 30
0.0
 11
3.025453207609472
 21
1.730299168495725
 31
0.0
  0
LINE
  5
2B0
330
200
100
AcDbEntity
  8
0
  6
Continuous
 62
     7
100
AcDbLine
 10
3.017685380909471
 20
1.738138348295725
 30
0.0
 11
3.045149226009471
 21
1.738138348295725
 31
0.0
  0
LINE
  5
2B1
330
200
100
AcDbEntity
  8
0
  6
Continuous
 62
     7
100
AcDbLine
 10
3.076655771809472
 20
1.769629710395725
 30
0.0
 11
3.017697415109472
 21
1.769629710195725
 31
0.0
  0
LINE
  5
2B2
330
200
100
AcDbEntity
  8
0
  6
Continuous
 62
     7
100
AcDbLine
 10
3.489991340409472
 20
1.309039328195725
 30
0.0
 11
3.489991340309472
 21
1.297261595195725
 31
0.0
  0
LINE
  5
2B3
330
200
100
AcDbEntity
  8
0
  6
Continuous
 62
     7
100
AcDbLine
 10
2.998012375909471
 20
1.823696737795724
 30
0.0
 11
2.958506611309472
 21
1.823696737695724
 31
0.0
  0
LINE
  5
2B4
330
200
100
AcDbEntity
  8
0
  6
Continuous
 62
     7
100
AcDbLine
 10
4.883742439209472
 20
1.871999063395724
 30
0.0
 11
4.836498344809471
 21
1.871999063295724
 31
0.0
  0
LINE
  5
2B5
330
200
100
AcDbEntity
  8
0
  6
Continuous
 62
     7
100
AcDbLine
 10
4.407438905609471
 20
1.875961413695724
 30
0.0
 11
4.265706622509472
 21
1.875961413395724
 31
0.0
  0
LINE
  5
2B6
330
200
100
AcDbEntity
  8
0
  6
Continuous
 62
     7
100
AcDbLine
 10
3.344446781509471
 20
1.875961411395725
 30
0.0
 11
3.202714498309471
 21
1.875961410995724
 31
0.0
  0
LINE
  5
2B7
330
200
100
AcDbEntity
  8
0
  6
Continuous
 62
     7
100
AcDbLine
 10
2.958506611409472
 20
1.882751855695724
 30
0.0
 11
2.998009696309472
 21
1.882751855795725
 31
0.0
  0
LINE
  5
2B8
330
200
100
AcDbEntity
  8
0
  6
Continuous
 62
     7
100
AcDbLine
 10
3.364087649909472
 20
1.899590507395725
 30
0.0
 11
3.364087649909472
 21
1.911450635395725
 31
0.0
  0
LINE
  5
2B9
330
200
100
AcDbEntity
  8
0
  6
Continuous
 62
     7
100
AcDbLine
 10
3.332511025409472
 20
1.297261595195725
 30
0.0
 11
3.332511025509472
 21
1.309039327795725
 31
0.0
  0
LINE
  5
2BA
330
200
100
AcDbEntity
  8
0
  6
Continuous
 62
     7
100
AcDbLine
 10
3.344446781609471
 20
1.875961411295724
 30
0.0
 11
3.344451849509471
 21
1.911388039495725
 31
0.0
  0
LINE
  5
2BB
330
200
100
AcDbEntity
  8
0
  6
Continuous
 62
     7
100
AcDbLine
 10
3.084508326009471
 20
1.899590506795725
 30
0.0
 11
3.202717878509471
 21
1.899590506995725
 31
0.0
  0
LINE
  5
2BC
330
200
100
AcDbEntity
  8
0
  6
Continuous
 62
     7
100
AcDbLine
 10
3.344450161809471
 20
1.899590507295725
 30
0.0
 11
4.265710002709472
 21
1.899590509295725
 31
0.0
  0
LINE
  5
2BD
330
200
100
AcDbEntity
  8
0
  6
Continuous
 62
     7
100
AcDbLine
 10
4.407442286009471
 20
1.899590509595725
 30
0.0
 11
4.442774180609472
 21
1.899592852295725
 31
0.0
  0
LINE
  5
2BE
330
200
100
AcDbEntity
  8
0
  6
Continuous
 62
     7
100
AcDbLine
 10
3.076653985309472
 20
1.911368491395725
 30
0.0
 11
4.836496502009471
 21
1.911368495195725
 31
0.0
  0
LINE
  5
2BF
330
200
100
AcDbEntity
  8
0
  6
Continuous
 62
     7
100
AcDbLine
 10
4.836498344909472
 20
1.942862215295725
 30
0.0
 11
3.076655772109471
 21
1.942862211495725
 31
0.0
  0
LINE
  5
2C0
330
200
100
AcDbEntity
  8
0
  6
Continuous
 62
     7
100
AcDbLine
 10
3.037379775309472
 20
1.978295282195725
 30
0.0
 11
4.915238502409472
 21
1.978295286295725
 31
0.0
  0
LINE
  5
2C1
330
200
100
AcDbEntity
  8
0
  6
Continuous
 62
     7
100
AcDbLine
 10
3.182985288009471
 20
1.911450634995725
 30
0.0
 11
3.182985288009471
 21
1.899590506995725
 31
0.0
  0
LINE
  5
2C2
330
200
100
AcDbEntity
  8
0
  6
Continuous
 62
     7
100
AcDbLine
 10
3.202719566209472
 20
1.911388039195725
 30
0.0
 11
3.202714498209472
 21
1.875961411095725
 31
0.0
  0
LINE
  5
2C3
330
200
100
AcDbEntity
  8
0
  6
Continuous
 62
     7
100
AcDbLine
 10
3.096274409309471
 20
1.911450634795725
 30
0.0
 11
3.096274409309471
 21
1.899590506795725
 31
0.0
  0
LINE
  5
2C4
330
200
100
AcDbEntity
  8
0
  6
Continuous
 62
     7
100
AcDbLine
 10
3.096274408009471
 20
1.309039327295725
 30
0.0
 11
3.096274408009471
 21
1.297277408195725
 31
0.0
  0
LINE
  5
2C5
330
200
100
AcDbEntity
  8
0
  6
Continuous
 62
     7
100
AcDbLine
 10
3.084508326009471
 20
1.899590506795725
 30
0.0
 11
3.084508325809471
 21
1.789354286595725
 31
0.0
  0
LINE
  5
2C6
330
200
100
AcDbEntity
  8
0
  6
Continuous
 62
     7
100
AcDbLine
 10
3.084508325009472
 20
1.419275547495725
 30
0.0
 11
3.084508324809471
 21
1.309039327295725
 31
0.0
  0
LINE
  5
2C7
330
200
100
AcDbEntity
  8
0
  6
Continuous
 62
     7
100
AcDbLine
 10
3.076655826809472
 20
1.265696858995725
 30
0.0
 11
3.076609752909472
 21
1.448758888495724
 31
0.0
  0
LINE
  5
2C8
330
200
100
AcDbEntity
  8
0
  6
Continuous
 62
     7
100
AcDbLine
 10
3.076609753609472
 20
1.759871573795725
 30
0.0
 11
3.076655772109471
 21
1.942862211495725
 31
0.0
  0
LINE
  5
2C9
330
200
100
AcDbEntity
  8
0
  6
Continuous
 62
     7
100
AcDbLine
 10
3.045118551709472
 20
1.738154382595725
 30
0.0
 11
3.045118551709472
 21
1.734123489795725
 31
0.0
  0
LINE
  5
2CA
330
200
100
AcDbEntity
  8
0
  6
Continuous
 62
     7
100
AcDbLine
 10
3.045118551609472
 20
1.474506377595725
 30
0.0
 11
3.045118551609472
 21
1.470434155595725
 31
0.0
  0
LINE
  5
2CB
330
200
100
AcDbEntity
  8
0
  6
Continuous
 62
     7
100
AcDbLine
 10
3.045158683809471
 20
1.738139109895724
 30
0.0
 11
3.076654171609471
 21
1.769632208795725
 31
0.0
  0
LINE
  5
2CC
330
200
100
AcDbEntity
  8
0
  6
Continuous
 62
     7
100
AcDbLine
 10
3.017694732909472
 20
1.249948827195725
 30
0.0
 11
3.017694733009472
 21
1.306122282295725
 31
0.0
  0
LINE
  5
2CD
330
200
100
AcDbEntity
  8
0
  6
Continuous
 62
     7
100
AcDbLine
 10
3.017694735809471
 20
1.902436895395725
 30
0.0
 11
3.017694735909471
 21
1.958610242395725
 31
0.0
  0
LINE
  5
2CE
330
200
100
AcDbEntity
  8
0
  6
Continuous
 62
     7
100
AcDbLine
 10
3.017653182009471
 20
1.478330665295725
 30
0.0
 11
3.017697413509471
 21
1.404547478595725
 31
0.0
  0
LINE
  5
2CF
330
200
100
AcDbEntity
  8
0
  6
Continuous
 62
     7
100
AcDbLine
 10
2.958519603809472
 20
1.325807320995725
 30
0.0
 11
2.958519603909472
 21
1.384862438995725
 31
0.0
  0
LINE
  5
2D0
330
200
100
AcDbEntity
  8
0
  6
Continuous
 62
     7
100
AcDbLine
 10
2.958506611309472
 20
1.823696737695724
 30
0.0
 11
2.958506611409472
 21
1.882751855695724
 31
0.0
  0
LINE
  5
2D1
330
200
100
AcDbEntity
  8
0
  6
Continuous
 62
     7
100
AcDbLine
 10
3.017697415109472
 20
1.804011698795725
 30
0.0
 11
3.017653183109471
 21
1.730299168495725
 31
0.0
  0
LINE
  5
2D2
330
200
100
AcDbEntity
  8
0
  6
Continuous
 62
     7
100
AcDbLine
 10
2.277421712809472
 20
1.702740111795725
 30
0.0
 11
2.304980768009471
 21
1.730299166895725
 31
0.0
  0
LINE
  5
2D3
330
200
100
AcDbEntity
  8
0
  6
Continuous
 62
     7
100
AcDbLine
 10
2.277421712409472
 20
1.505889718695724
 30
0.0
 11
2.277421712809472
 21
1.702740111795725
 31
0.0
  0
LINE
  5
306
330
200
100
AcDbEntity
  8
0
  6
Continuous
 62
     7
100
AcDbLine
 10
2.277280905318993
 20
6.541863396213289
 30
0.0
 11
2.277269387046746
 21
6.738713789076306
 31
0.0
  0
LINE
  5
307
330
200
100
AcDbEntity
  8
0
  6
Continuous
 62
     7
100
AcDbLine
 10
2.277269387046746
 20
6.738713789076306
 30
0.0
 11
2.304826829497466
 21
6.766274456431244
 31
0.0
  0
LINE
  5
308
330
200
100
AcDbEntity
  8
0
  6
Continuous
 62
     7
100
AcDbLine
 10
4.90713480682715
 20
6.372643218356049
 30
0.0
 11
4.934699920889178
 21
6.345083945765507
 31
0.0
  0
LINE
  5
309
330
200
100
AcDbEntity
  8
0
  6
Continuous
 62
     7
100
AcDbLine
 10
2.958361531583666
 20
6.361823122971394
 30
0.0
 11
2.95835807612199
 21
6.4208782408703
 31
0.0
  0
LINE
  5
30A
330
200
100
AcDbEntity
  8
0
  6
Continuous
 62
     7
100
AcDbLine
 10
2.958332398579977
 20
6.859712538919064
 30
0.0
 11
2.958328943118306
 21
6.91876765671797
 31
0.0
  0
LINE
  5
30B
330
200
100
AcDbEntity
  8
0
  6
Continuous
 62
     7
100
AcDbLine
 10
2.978013982557513
 20
6.899082304871505
 30
0.0
 11
2.978015134344737
 21
6.879397265605201
 31
0.0
  0
LINE
  5
30C
330
200
100
AcDbEntity
  8
0
  6
Continuous
 62
     7
100
AcDbLine
 10
2.978043115461191
 20
6.401192889123829
 30
0.0
 11
2.97804426734842
 21
6.381507849757531
 31
0.0
  0
LINE
  5
30D
330
200
100
AcDbEntity
  8
0
  6
Continuous
 62
     7
100
AcDbLine
 10
2.997825635416119
 20
6.361825431947336
 30
0.0
 11
2.997823331914569
 21
6.38150900694625
 31
0.0
  0
LINE
  5
30E
330
200
100
AcDbEntity
  8
0
  6
Continuous
 62
     7
100
AcDbLine
 10
2.997799181412425
 20
6.859714848051756
 30
0.0
 11
2.997796877910875
 21
6.879398423050671
 31
0.0
  0
LINE
  5
30F
330
200
100
AcDbEntity
  8
0
  6
Continuous
 62
     7
100
AcDbLine
 10
3.017517417245316
 20
6.285971125399226
 30
0.0
 11
3.017511826869647
 21
6.342141544468279
 31
0.0
  0
LINE
  5
310
330
200
100
AcDbEntity
  8
0
  6
Continuous
 62
     7
100
AcDbLine
 10
3.017508747333512
 20
6.440566741156572
 30
0.0
 11
3.017485372565952
 21
6.840030960572682
 31
0.0
  0
LINE
  5
311
330
200
100
AcDbEntity
  8
0
  6
Continuous
 62
     7
100
AcDbLine
 10
3.037195714528881
 20
6.342139398888115
 30
0.0
 11
3.037203608098855
 21
6.266287237720134
 31
0.0
  0
LINE
  5
312
330
200
100
AcDbEntity
  8
0
  6
Continuous
 62
     7
100
AcDbLine
 10
3.037169260825362
 20
6.840028811992554
 30
0.0
 11
3.037192634478374
 21
6.440568259376385
 31
0.0
  0
LINE
  5
313
330
200
100
AcDbEntity
  8
0
  6
Continuous
 62
     7
100
AcDbLine
 10
2.997793046323662
 20
6.899083462060176
 30
0.0
 11
2.997793046250759
 21
6.918769965693871
 31
0.0
  0
LINE
  5
314
330
200
100
AcDbEntity
  8
0
  6
Continuous
 62
     7
100
AcDbLine
 10
2.997824859927335
 20
6.40119404646935
 30
0.0
 11
2.997824859854432
 21
6.420880550103045
 31
0.0
  0
LINE
  5
315
330
200
100
AcDbEntity
  8
0
  6
Continuous
 62
     7
100
AcDbLine
 10
3.037159837284314
 20
7.014318730639517
 30
0.0
 11
3.037160820874579
 21
6.938457677067211
 31
0.0
  0
LINE
  5
316
330
200
100
AcDbEntity
  8
0
  6
Continuous
 62
     7
100
AcDbLine
 10
3.017476933429839
 20
6.938456156747381
 30
0.0
 11
3.017475949805233
 21
6.994632539585989
 31
0.0
  0
LINE
  5
317
330
200
100
AcDbEntity
  8
0
  6
Continuous
 62
     7
100
AcDbLine
 10
3.037159837284314
 20
7.014318730639517
 30
0.0
 11
4.914978022685891
 21
7.014377058167307
 31
0.0
  0
LINE
  5
318
330
200
100
AcDbEntity
  8
0
  6
Continuous
 62
     7
100
AcDbLine
 10
3.182863600481073
 20
6.411960658750886
 30
0.0
 11
3.182868207829974
 21
6.333220501585682
 31
0.0
  0
LINE
  5
319
330
200
100
AcDbEntity
  8
0
  6
Continuous
 62
     7
100
AcDbLine
 10
3.202599548996198
 20
6.333221656082066
 30
0.0
 11
3.202598856832731
 21
6.345051328061817
 31
0.0
  0
LINE
  5
31A
330
200
100
AcDbEntity
  8
0
  6
Continuous
 62
     7
100
AcDbLine
 10
2.958328943118306
 20
6.91876765671797
 30
0.0
 11
2.997793046150759
 21
6.918769965693865
 31
0.0
  0
LINE
  5
31B
330
200
100
AcDbEntity
  8
0
  6
Continuous
 62
     7
100
AcDbLine
 10
4.907110066114633
 20
6.908076287224981
 30
0.0
 11
4.887421732248334
 21
6.908075135244989
 31
0.0
  0
LINE
  5
31C
330
200
100
AcDbEntity
  8
0
  6
Continuous
 62
     7
100
AcDbLine
 10
4.934664214085218
 20
6.955320163520849
 30
0.0
 11
3.017475950151039
 21
6.955259532318613
 31
0.0
  0
LINE
  5
31D
330
200
100
AcDbEntity
  8
0
  6
Continuous
 62
     7
100
AcDbLine
 10
3.017476933329845
 20
6.938456156647375
 30
0.0
 11
3.037160820981817
 21
6.938455844267214
 31
0.0
  0
LINE
  5
31E
330
200
100
AcDbEntity
  8
0
  6
Continuous
 62
     7
100
AcDbLine
 10
2.997791213323665
 20
6.899083461952926
 30
0.0
 11
2.978013982557513
 21
6.899082304871505
 31
0.0
  0
LINE
  5
31F
330
200
100
AcDbEntity
  8
0
  6
Continuous
 62
     7
100
AcDbLine
 10
2.978015134344737
 20
6.879397265605201
 30
0.0
 11
2.997795044910878
 21
6.879398422943419
 31
0.0
  0
LINE
  5
320
330
200
100
AcDbEntity
  8
0
  6
Continuous
 62
     7
100
AcDbLine
 10
2.997799181512425
 20
6.859714848051762
 30
0.0
 11
2.958277175880072
 21
6.85971253568794
 31
0.0
  0
LINE
  5
321
330
200
100
AcDbEntity
  8
0
  6
Continuous
 62
     7
100
AcDbLine
 10
4.934760036543594
 20
6.829448370212036
 30
0.0
 11
4.887426333244554
 21
6.829443550879598
 31
0.0
  0
LINE
  5
322
330
200
100
AcDbEntity
  8
0
  6
Continuous
 62
     7
100
AcDbLine
 10
3.03716926021793
 20
6.840030648092521
 30
0.0
 11
3.017485372565959
 21
6.840030960472682
 31
0.0
  0
LINE
  5
323
330
200
100
AcDbEntity
  8
0
  6
Continuous
 62
     7
100
AcDbLine
 10
3.344331346090136
 20
6.345059620641911
 30
0.0
 11
3.344332038353605
 21
6.333229948662166
 31
0.0
  0
LINE
  5
324
330
200
100
AcDbEntity
  8
0
  6
Continuous
 62
     7
100
AcDbLine
 10
3.363965962071094
 20
6.411971254793363
 30
0.0
 11
3.363970569419988
 21
6.333231097728158
 31
0.0
  0
LINE
  5
325
330
200
100
AcDbEntity
  8
0
  6
Continuous
 62
     7
100
AcDbLine
 10
3.017489685977648
 20
6.766316153398881
 30
0.0
 11
2.304826829497466
 21
6.766274456431244
 31
0.0
  0
LINE
  5
326
330
200
100
AcDbEntity
  8
0
  6
Continuous
 62
     7
100
AcDbLine
 10
3.301645461163634
 20
6.723042091804027
 30
0.0
 11
3.520525102488996
 21
6.723054898125032
 31
0.0
  0
LINE
  5
327
330
200
100
AcDbEntity
  8
0
  6
Continuous
 62
     7
100
AcDbLine
 10
4.126408068167652
 20
6.723038806516679
 30
0.0
 11
4.345287709493007
 21
6.723051612937685
 31
0.0
  0
LINE
  5
328
330
200
100
AcDbEntity
  8
0
  6
Continuous
 62
     7
100
AcDbLine
 10
3.556730580802852
 20
7.014323359534793
 30
0.0
 11
3.556774350117393
 21
6.266291866615323
 31
0.0
  0
LINE
  5
329
330
200
100
AcDbEntity
  8
0
  6
Continuous
 62
     7
100
AcDbLine
 10
3.537046681478157
 20
6.994598639080506
 30
0.0
 11
3.537088159263854
 21
6.285975754294415
 31
0.0
  0
LINE
  5
32A
330
200
100
AcDbEntity
  8
0
  6
Continuous
 62
     7
100
AcDbLine
 10
3.713048481680017
 20
6.557686061437195
 30
0.0
 11
3.931928123005377
 21
6.5576988677582
 31
0.0
  0
LINE
  5
32B
330
200
100
AcDbEntity
  8
0
  6
Continuous
 62
     7
100
AcDbLine
 10
2.304841572873936
 20
6.514305953662582
 30
0.0
 11
3.017504429954119
 21
6.514347650630254
 31
0.0
  0
LINE
  5
32C
330
200
100
AcDbEntity
  8
0
  6
Continuous
 62
     7
100
AcDbLine
 10
4.887448448359265
 20
6.451490796626608
 30
0.0
 11
4.934782151658301
 21
6.451495616059045
 31
0.0
  0
LINE
  5
32D
330
200
100
AcDbEntity
  8
0
  6
Continuous
 62
     7
100
AcDbLine
 10
2.958289859722101
 20
6.420878236978905
 30
0.0
 11
2.997824859854432
 21
6.420880550103045
 31
0.0
  0
LINE
  5
32E
330
200
100
AcDbEntity
  8
0
  6
Continuous
 62
     7
100
AcDbLine
 10
3.363965962071094
 20
6.411971254793363
 30
0.0
 11
3.182863600481073
 21
6.411960658750886
 31
0.0
  0
LINE
  5
32F
330
200
100
AcDbEntity
  8
0
  6
Continuous
 62
     7
100
AcDbLine
 10
4.426917544467413
 20
6.411981905731436
 30
0.0
 11
4.245815182877398
 21
6.41197130958896
 31
0.0
  0
LINE
  5
330
330
200
100
AcDbEntity
  8
0
  6
Continuous
 62
     7
100
AcDbLine
 10
2.997823027327338
 20
6.401194046362124
 30
0.0
 11
2.978043115461191
 21
6.401192889123829
 31
0.0
  0
LINE
  5
331
330
200
100
AcDbEntity
  8
0
  6
Continuous
 62
     7
100
AcDbLine
 10
2.97804426734842
 20
6.381507849757531
 30
0.0
 11
2.997821499114572
 21
6.381509006839011
 31
0.0
  0
LINE
  5
332
330
200
100
AcDbEntity
  8
0
  6
Continuous
 62
     7
100
AcDbLine
 10
4.88745306206084
 20
6.372642066761589
 30
0.0
 11
4.90713480682715
 21
6.372643218356049
 31
0.0
  0
LINE
  5
333
330
200
100
AcDbEntity
  8
0
  6
Continuous
 62
     7
100
AcDbLine
 10
2.997825635616119
 20
6.361825431947347
 30
0.0
 11
2.958361531583666
 21
6.361823122971394
 31
0.0
  0
LINE
  5
334
330
200
100
AcDbEntity
  8
0
  6
Continuous
 62
     7
100
AcDbLine
 10
3.017508747233518
 20
6.440566741056566
 30
0.0
 11
3.03719263488549
 21
6.440566428676405
 31
0.0
  0
LINE
  5
335
330
200
100
AcDbEntity
  8
0
  6
Continuous
 62
     7
100
AcDbLine
 10
3.1828675155665
 20
6.345050173665426
 30
0.0
 11
3.36396987715652
 21
6.345060769707903
 31
0.0
  0
LINE
  5
336
330
200
100
AcDbEntity
  8
0
  6
Continuous
 62
     7
100
AcDbLine
 10
4.245819098062825
 20
6.345060824503506
 30
0.0
 11
4.426921459632624
 21
6.345071766145982
 31
0.0
  0
LINE
  5
337
330
200
100
AcDbEntity
  8
0
  6
Continuous
 62
     7
100
AcDbLine
 10
3.363970569419988
 20
6.333231097728158
 30
0.0
 11
3.182868207829968
 21
6.333220501685682
 31
0.0
  0
LINE
  5
338
330
200
100
AcDbEntity
  8
0
  6
Continuous
 62
     7
100
AcDbLine
 10
4.426922151816313
 20
6.333241748566232
 30
0.0
 11
4.245819790226293
 21
6.333231152523755
 31
0.0
  0
LINE
  5
339
330
200
100
AcDbEntity
  8
0
  6
Continuous
 62
     7
100
AcDbLine
 10
4.915021792000427
 20
6.266345565347836
 30
0.0
 11
3.037203608098855
 21
6.266287237720134
 31
0.0
  0
LINE
  5
33A
330
200
100
AcDbEntity
  8
0
  6
Continuous
 62
     7
100
AcDbLine
 10
3.037195714421624
 20
6.342141231988112
 30
0.0
 11
3.017511826769652
 21
6.342141544368272
 31
0.0
  0
LINE
  5
33B
330
200
100
AcDbEntity
  8
0
  6
Continuous
 62
     7
100
AcDbLine
 10
3.017512810042221
 20
6.325338275297042
 30
0.0
 11
4.934701072676401
 21
6.325398906499203
 31
0.0
  0
LINE
  5
33C
330
200
100
AcDbEntity
  8
0
  6
Continuous
 62
     7
100
AcDbLine
 10
3.970096136203176
 20
7.014321774480477
 30
0.0
 11
3.970139905517718
 21
6.266290281561007
 31
0.0
  0
LINE
  5
33D
330
200
100
AcDbEntity
  8
0
  6
Continuous
 62
     7
100
AcDbLine
 10
3.950412236878481
 20
6.994597054026191
 30
0.0
 11
3.950453714564172
 21
6.285974169340092
 31
0.0
  0
LINE
  5
33E
330
200
100
AcDbEntity
  8
0
  6
Continuous
 62
     7
100
AcDbLine
 10
4.235842605272098
 20
6.880459048087491
 30
0.0
 11
4.235839610794854
 21
6.880455240912275
 31
0.0
  0
LINE
  5
33F
330
200
100
AcDbEntity
  8
0
  6
Continuous
 62
     7
100
AcDbLine
 10
4.245815182877398
 20
6.41197130958896
 30
0.0
 11
4.245819790226293
 21
6.333231152523755
 31
0.0
  0
LINE
  5
340
330
200
100
AcDbEntity
  8
0
  6
Continuous
 62
     7
100
AcDbLine
 10
4.452388375113586
 20
6.722992867382264
 30
0.0
 11
4.452396897679589
 21
6.723003703180944
 31
0.0
  0
LINE
  5
341
330
200
100
AcDbEntity
  8
0
  6
Continuous
 62
     7
100
AcDbLine
 10
4.265591674392454
 20
6.333232309292343
 30
0.0
 11
4.26559098222898
 21
6.345061981372093
 31
0.0
  0
LINE
  5
342
330
200
100
AcDbEntity
  8
0
  6
Continuous
 62
     7
100
AcDbLine
 10
4.934665365972442
 20
6.935635124254551
 30
0.0
 11
4.907110066114633
 21
6.908076287224981
 31
0.0
  0
LINE
  5
343
330
200
100
AcDbEntity
  8
0
  6
Continuous
 62
     7
100
AcDbLine
 10
4.407323471486386
 20
6.345070273952187
 30
0.0
 11
4.40732416364986
 21
6.333240601872437
 31
0.0
  0
LINE
  5
344
330
200
100
AcDbEntity
  8
0
  6
Continuous
 62
     7
100
AcDbLine
 10
4.411097705779926
 20
6.345070494785622
 30
0.0
 11
4.4110937905945
 21
6.411980979871076
 31
0.0
  0
LINE
  5
345
330
200
100
AcDbEntity
  8
0
  6
Continuous
 62
     7
100
AcDbLine
 10
4.426922151816313
 20
6.333241748566232
 30
0.0
 11
4.426917544467413
 21
6.411981905731436
 31
0.0
  0
LINE
  5
346
330
200
100
AcDbEntity
  8
0
  6
Continuous
 62
     7
100
AcDbLine
 10
4.934772358694503
 20
6.994830668416108
 30
0.0
 11
4.934664213939413
 21
6.994693170788238
 31
0.0
  0
LINE
  5
347
330
200
100
AcDbEntity
  8
0
  6
Continuous
 62
     7
100
AcDbLine
 10
2.304841572873936
 20
6.514305953662582
 30
0.0
 11
2.277280905318993
 21
6.541863396213289
 31
0.0
  0
LINE
  5
348
330
200
100
AcDbEntity
  8
0
  6
Continuous
 62
     7
100
AcDbLine
 10
4.887421732248334
 20
6.908075135244989
 30
0.0
 11
4.88745306206084
 21
6.372642066761589
 31
0.0
  0
LINE
  5
349
330
200
100
AcDbEntity
  8
0
  6
Continuous
 62
     7
100
AcDbLine
 10
4.915021792000427
 20
6.266345565347836
 30
0.0
 11
4.915012578021324
 21
6.364766368977192
 31
0.0
  0
LINE
  5
34A
330
200
100
AcDbEntity
  8
0
  6
Continuous
 62
     7
100
AcDbLine
 10
4.907221484817018
 20
6.372745939227823
 30
0.0
 11
4.9071901554045
 21
6.908179007911246
 31
0.0
  0
LINE
  5
34B
330
200
100
AcDbEntity
  8
0
  6
Continuous
 62
     7
100
AcDbLine
 10
4.914980326779035
 20
6.915947468933634
 30
0.0
 11
4.914978022685891
 21
7.014377058167307
 31
0.0
  0
LINE
  5
34C
330
200
100
AcDbEntity
  8
0
  6
Continuous
 62
     7
100
AcDbLine
 10
4.934705679677922
 20
6.286031783501376
 30
0.0
 11
4.934664213939413
 21
6.994693170788238
 31
0.0
  0
LINE
  5
34D
330
200
100
AcDbEntity
  8
0
  6
Continuous
 62
     7
100
AcDbLine
 10
4.934705679879489
 20
6.286031756701388
 30
0.0
 11
4.934813824634586
 21
6.286169254229258
 31
0.0
  0
LINE
  5
34E
330
200
100
AcDbEntity
  8
0
  6
Continuous
 62
     7
100
AcDbLine
 10
2.277474706948545
 20
3.930073966198477
 30
0.0
 11
2.277506956969635
 21
3.654483417613707
 31
0.0
  0
LINE
  5
34F
330
200
100
AcDbEntity
  8
0
  6
Continuous
 62
     7
100
AcDbLine
 10
2.305066012148053
 20
3.654484592715832
 30
0.0
 11
2.305033762026969
 21
3.930075141200595
 31
0.0
  0
LINE
  5
350
330
200
100
AcDbEntity
  8
0
  6
Continuous
 62
     7
100
AcDbLine
 10
4.078489942764458
 20
5.347621037963227
 30
0.0
 11
4.393450559747015
 21
5.347657895758175
 31
0.0
  0
LINE
  5
351
330
200
100
AcDbEntity
  8
0
  6
Continuous
 62
     7
100
AcDbLine
 10
4.373760711961184
 20
5.367340626123296
 30
0.0
 11
4.0981751660765
 21
5.367308374794917
 31
0.0
  0
LINE
  5
352
330
200
100
AcDbEntity
  8
0
  6
Continuous
 62
     7
100
AcDbLine
 10
4.432826634058113
 20
5.296481397683926
 30
0.0
 11
4.03912584927987
 21
5.296435326239447
 31
0.0
  0
LINE
  5
353
330
200
100
AcDbEntity
  8
0
  6
Continuous
 62
     7
100
AcDbLine
 10
4.019443113668181
 20
5.276747983453315
 30
0.0
 11
4.452513976844246
 21
5.276798662072237
 31
0.0
  0
LINE
  5
354
330
200
100
AcDbEntity
  8
0
  6
Continuous
 62
     7
100
AcDbLine
 10
3.970243858176938
 20
5.131043356916541
 30
0.0
 11
4.915125741524715
 21
5.131153928503281
 31
0.0
  0
LINE
  5
355
330
200
100
AcDbEntity
  8
0
  6
Continuous
 62
     7
100
AcDbLine
 10
4.934817691756633
 20
5.072098186093779
 30
0.0
 11
3.950565729911035
 21
5.07198300733259
 31
0.0
  0
LINE
  5
356
330
200
100
AcDbEntity
  8
0
  6
Continuous
 62
     7
100
AcDbLine
 10
3.950571717798118
 20
5.020818307395365
 30
0.0
 11
3.684824192840199
 21
5.020791013697382
 31
0.0
  0
LINE
  5
357
330
200
100
AcDbEntity
  8
0
  6
Continuous
 62
     7
100
AcDbLine
 10
3.950573940162305
 20
5.001130243691696
 30
0.0
 11
3.665140952128528
 21
5.001103670581696
 31
0.0
  0
LINE
  5
358
330
200
100
AcDbEntity
  8
0
  6
Continuous
 62
     7
100
AcDbLine
 10
3.950580011360574
 20
4.94994484355931
 30
0.0
 11
3.625776862977476
 21
4.949917961570079
 31
0.0
  0
LINE
  5
359
330
200
100
AcDbEntity
  8
0
  6
Continuous
 62
     7
100
AcDbLine
 10
3.950582082457024
 20
4.930257937546792
 30
0.0
 11
3.606094127265786
 21
4.93023061878394
 31
0.0
  0
LINE
  5
35A
330
200
100
AcDbEntity
  8
0
  6
Continuous
 62
     7
100
AcDbLine
 10
2.95851623071144
 20
4.418329248912622
 30
0.0
 11
2.958656057827198
 21
3.223446832748669
 31
0.0
  0
LINE
  5
35B
330
200
100
AcDbEntity
  8
0
  6
Continuous
 62
     7
100
AcDbLine
 10
2.998120161624537
 20
3.223451450924613
 30
0.0
 11
2.997978030735887
 21
4.438020370487469
 31
0.0
  0
LINE
  5
35C
330
200
100
AcDbEntity
  8
0
  6
Continuous
 62
     7
100
AcDbLine
 10
3.017805201653596
 20
3.223448112011873
 30
0.0
 11
3.017665374166496
 21
4.418333456575809
 31
0.0
  0
LINE
  5
35D
330
200
100
AcDbEntity
  8
0
  6
Continuous
 62
     7
100
AcDbLine
 10
3.037348109978191
 20
4.438020799261954
 30
0.0
 11
3.037490241038184
 21
3.223448951299104
 31
0.0
  0
LINE
  5
35E
330
200
100
AcDbEntity
  8
0
  6
Continuous
 62
     7
100
AcDbLine
 10
3.556898577154867
 20
4.784538292263992
 30
0.0
 11
3.950599361933104
 21
4.78458436380847
 31
0.0
  0
LINE
  5
35F
330
200
100
AcDbEntity
  8
0
  6
Continuous
 62
     7
100
AcDbLine
 10
3.143735695073921
 20
3.70574538873025
 30
0.0
 11
3.143774625609423
 21
3.373067688638645
 31
0.0
  0
LINE
  5
360
330
200
100
AcDbEntity
  8
0
  6
Continuous
 62
     7
100
AcDbLine
 10
3.970291312250479
 20
4.725527160898971
 30
0.0
 11
3.537220448888963
 21
4.725477942680042
 31
0.0
  0
LINE
  5
361
330
200
100
AcDbEntity
  8
0
  6
Continuous
 62
     7
100
AcDbLine
 10
3.273450615988364
 20
4.674298479010826
 30
0.0
 11
3.537226434990841
 21
4.674333498942745
 31
0.0
  0
LINE
  5
362
330
200
100
AcDbEntity
  8
0
  6
Continuous
 62
     7
100
AcDbLine
 10
3.537228707532277
 20
4.654637278641998
 30
0.0
 11
3.253767880276675
 21
4.654611136224688
 31
0.0
  0
LINE
  5
363
330
200
100
AcDbEntity
  8
0
  6
Continuous
 62
     7
100
AcDbLine
 10
3.194738101939361
 20
4.438068794574988
 30
0.0
 11
3.194721055413928
 21
4.583738084526932
 31
0.0
  0
LINE
  5
364
330
200
100
AcDbEntity
  8
0
  6
Continuous
 62
     7
100
AcDbLine
 10
3.202826518304048
 20
3.400633654258792
 30
0.0
 11
3.20279772353232
 21
3.646697181895188
 31
0.0
  0
LINE
  5
365
330
200
100
AcDbEntity
  8
0
  6
Continuous
 62
     7
100
AcDbLine
 10
3.253767880276675
 20
4.654611136224688
 30
0.0
 11
3.253773869623446
 21
4.603430034387518
 31
0.0
  0
LINE
  5
366
330
200
100
AcDbEntity
  8
0
  6
Continuous
 62
     7
100
AcDbLine
 10
3.214403791125624
 20
4.603425427213069
 30
0.0
 11
3.537234729326093
 21
4.603451954606722
 31
0.0
  0
LINE
  5
367
330
200
100
AcDbEntity
  8
0
  6
Continuous
 62
     7
100
AcDbLine
 10
3.537236806821507
 20
4.583765066294579
 30
0.0
 11
3.194721055413928
 21
4.583738084526932
 31
0.0
  0
LINE
  5
368
330
200
100
AcDbEntity
  8
0
  6
Continuous
 62
     7
100
AcDbLine
 10
3.344530006004484
 20
3.646713767663197
 30
0.0
 11
3.344558800776212
 21
3.400650240026801
 31
0.0
  0
LINE
  5
369
330
200
100
AcDbEntity
  8
0
  6
Continuous
 62
     7
100
AcDbLine
 10
2.978198966237458
 20
4.438018055898751
 30
0.0
 11
3.537254080911039
 21
4.438079299055921
 31
0.0
  0
LINE
  5
36A
330
200
100
AcDbEntity
  8
0
  6
Continuous
 62
     7
100
AcDbLine
 10
3.017665374093369
 20
4.418334706375807
 30
0.0
 11
2.95851623071144
 21
4.418329248912622
 31
0.0
  0
LINE
  5
36B
330
200
100
AcDbEntity
  8
0
  6
Continuous
 62
     7
100
AcDbLine
 10
3.403617143475061
 20
3.373098095829994
 30
0.0
 11
3.403578213039559
 21
3.705775795921607
 31
0.0
  0
LINE
  5
36C
330
200
100
AcDbEntity
  8
0
  6
Continuous
 62
     7
100
AcDbLine
 10
3.556946031228436
 20
4.379022095746422
 30
0.0
 11
3.017669981712288
 21
4.378960449678003
 31
0.0
  0
LINE
  5
36D
330
200
100
AcDbEntity
  8
0
  6
Continuous
 62
     7
100
AcDbLine
 10
3.537255836855431
 20
4.423072761432975
 30
0.0
 11
3.537215841543178
 21
4.764850949477859
 31
0.0
  0
LINE
  5
36E
330
200
100
AcDbEntity
  8
0
  6
Continuous
 62
     7
100
AcDbLine
 10
3.556898577154867
 20
4.784538292263992
 30
0.0
 11
3.556946031228436
 21
4.379022095746422
 31
0.0
  0
LINE
  5
36F
330
200
100
AcDbEntity
  8
0
  6
Continuous
 62
     7
100
AcDbLine
 10
3.606111173791219
 20
4.784561328831996
 30
0.0
 11
3.606094127265786
 21
4.93023061878394
 31
0.0
  0
LINE
  5
370
330
200
100
AcDbEntity
  8
0
  6
Continuous
 62
     7
100
AcDbLine
 10
3.665140952128528
 20
5.001103670581696
 30
0.0
 11
3.665146941475299
 21
4.949922568744527
 31
0.0
  0
LINE
  5
371
330
200
100
AcDbEntity
  8
0
  6
Continuous
 62
     7
100
AcDbLine
 10
3.950601117877502
 20
4.769577826085524
 30
0.0
 11
3.950561122565249
 21
5.111356014130408
 31
0.0
  0
LINE
  5
372
330
200
100
AcDbEntity
  8
0
  6
Continuous
 62
     7
100
AcDbLine
 10
2.958573358070863
 20
3.930151619519548
 30
0.0
 11
2.277474706948545
 21
3.930073966198477
 31
0.0
  0
LINE
  5
373
330
200
100
AcDbEntity
  8
0
  6
Continuous
 62
     7
100
AcDbLine
 10
3.970243858176938
 20
5.131043356916541
 30
0.0
 11
3.970291312250479
 21
4.725527160898971
 31
0.0
  0
LINE
  5
374
330
200
100
AcDbEntity
  8
0
  6
Continuous
 62
     7
100
AcDbLine
 10
4.019460160093613
 20
5.131078693501365
 30
0.0
 11
4.019443113668181
 21
5.276747983453315
 31
0.0
  0
LINE
  5
375
330
200
100
AcDbEntity
  8
0
  6
Continuous
 62
     7
100
AcDbLine
 10
4.078489938530921
 20
5.34762103525107
 30
0.0
 11
4.078495927777693
 21
5.296439933413897
 31
0.0
  0
LINE
  5
376
330
200
100
AcDbEntity
  8
0
  6
Continuous
 62
     7
100
AcDbLine
 10
4.466570331780809
 20
3.705900188931689
 30
0.0
 11
4.206727813815171
 21
3.705869781740332
 31
0.0
  0
LINE
  5
377
330
200
100
AcDbEntity
  8
0
  6
Continuous
 62
     7
100
AcDbLine
 10
3.403578213039559
 20
3.705775795921607
 30
0.0
 11
3.143735695073921
 21
3.70574538873025
 31
0.0
  0
LINE
  5
378
330
200
100
AcDbEntity
  8
0
  6
Continuous
 62
     7
100
AcDbLine
 10
3.143741683778018
 20
3.654570143493056
 30
0.0
 11
3.403584201643656
 21
3.654600550684405
 31
0.0
  0
LINE
  5
379
330
200
100
AcDbEntity
  8
0
  6
Continuous
 62
     7
100
AcDbLine
 10
4.206733802419263
 20
3.654694536603131
 30
0.0
 11
4.411365211368428
 21
3.654718482848807
 31
0.0
  0
LINE
  5
37A
330
200
100
AcDbEntity
  8
0
  6
Continuous
 62
     7
100
AcDbLine
 10
2.277506956969635
 20
3.654483417613707
 30
0.0
 11
2.958605608091953
 21
3.654561070934777
 31
0.0
  0
LINE
  5
37B
330
200
100
AcDbEntity
  8
0
  6
Continuous
 62
     7
100
AcDbLine
 10
3.20279772353232
 20
3.646697181895188
 30
0.0
 11
3.344530006004484
 21
3.646713767663197
 31
0.0
  0
LINE
  5
37C
330
200
100
AcDbEntity
  8
0
  6
Continuous
 62
     7
100
AcDbLine
 10
4.265789842273569
 20
3.64682157490527
 30
0.0
 11
4.407522124745734
 21
3.646838160673278
 31
0.0
  0
LINE
  5
37D
330
200
100
AcDbEntity
  8
0
  6
Continuous
 62
     7
100
AcDbLine
 10
4.206727813815171
 20
3.705869781740332
 30
0.0
 11
4.206766744350673
 21
3.373192081648726
 31
0.0
  0
LINE
  5
37E
330
200
100
AcDbEntity
  8
0
  6
Continuous
 62
     7
100
AcDbLine
 10
4.235976243054379
 20
5.296446648111747
 30
0.0
 11
4.235970253707607
 21
5.347627749948915
 31
0.0
  0
LINE
  5
37F
330
200
100
AcDbEntity
  8
0
  6
Continuous
 62
     7
100
AcDbLine
 10
4.265818637045298
 20
3.400758047268874
 30
0.0
 11
4.265789842273569
 21
3.64682157490527
 31
0.0
  0
LINE
  5
380
330
200
100
AcDbEntity
  8
0
  6
Continuous
 62
     7
100
AcDbLine
 10
4.393450566213513
 20
5.347657892446645
 30
0.0
 11
4.393456555560285
 21
5.296476790609477
 31
0.0
  0
LINE
  5
381
330
200
100
AcDbEntity
  8
0
  6
Continuous
 62
     7
100
AcDbLine
 10
4.407522124745734
 20
3.646838160673278
 30
0.0
 11
4.407550919517463
 21
3.400774633036883
 31
0.0
  0
LINE
  5
382
330
200
100
AcDbEntity
  8
0
  6
Continuous
 62
     7
100
AcDbLine
 10
4.442855285602593
 20
3.70589741374557
 30
0.0
 11
4.442857588447135
 21
3.686218231246625
 31
0.0
  0
LINE
  5
383
330
200
100
AcDbEntity
  8
0
  6
Continuous
 62
     7
100
AcDbLine
 10
4.452531023269672
 20
5.131129372220286
 30
0.0
 11
4.452513976844246
 21
5.276798662072237
 31
0.0
  0
LINE
  5
384
330
200
100
AcDbEntity
  8
0
  6
Continuous
 62
     7
100
AcDbLine
 10
4.45466631034194
 20
3.705898795917974
 30
0.0
 11
4.454706622949769
 21
3.361410072387016
 31
0.0
  0
LINE
  5
385
330
200
100
AcDbEntity
  8
0
  6
Continuous
 62
     7
100
AcDbLine
 10
4.466609262216311
 20
3.373222488840077
 30
0.0
 11
4.466570331780809
 21
3.705900188931689
 31
0.0
  0
LINE
  5
386
330
200
100
AcDbEntity
  8
0
  6
Continuous
 62
     7
100
AcDbLine
 10
3.155587031321102
 20
3.361258047271633
 30
0.0
 11
3.163461046980668
 21
3.36125896868652
 31
0.0
  0
LINE
  5
387
330
200
100
AcDbEntity
  8
0
  6
Continuous
 62
     7
100
AcDbLine
 10
3.383933486448478
 20
3.361284768803428
 30
0.0
 11
3.391807502108044
 21
3.361285690218315
 31
0.0
  0
LINE
  5
388
330
200
100
AcDbEntity
  8
0
  6
Continuous
 62
     7
100
AcDbLine
 10
4.218579149962353
 20
3.361382440281709
 30
0.0
 11
4.226453165721912
 21
3.361383361796602
 31
0.0
  0
LINE
  5
389
330
200
100
AcDbEntity
  8
0
  6
Continuous
 62
     7
100
AcDbLine
 10
4.446925605089728
 20
3.361409161813503
 30
0.0
 11
4.454799620849294
 21
3.361410083228396
 31
0.0
  0
LINE
  5
38A
330
200
100
AcDbEntity
  8
0
  6
Continuous
 62
     7
100
AcDbLine
 10
2.958617077027399
 20
3.223446828167872
 30
0.0
 11
4.935033997508108
 21
3.223672469185946
 31
0.0
  0
LINE
  5
38B
330
200
100
AcDbEntity
  8
0
  6
Continuous
 62
     7
100
AcDbLine
 10
4.915348958394875
 20
3.223668701298727
 30
0.0
 11
4.915125741524715
 21
5.131153928503281
 31
0.0
  0
LINE
  5
38C
330
200
100
AcDbEntity
  8
0
  6
Continuous
 62
     7
100
AcDbLine
 10
4.934813084310835
 20
5.111471193091591
 30
0.0
 11
4.935033997508108
 21
3.223672469185946
 31
0.0
  0
ARC
  5
38D
330
200
100
AcDbEntity
  8
0
  6
Continuous
 62
     7
100
AcDbCircle
 10
9.6517871456
 20
6.044352079364447
 30
0.0
 40
0.2524897534
100
AcDbArc
 50
51.68633631000001
 51
52.93817845260001
  0
ARC
  5
38E
330
200
100
AcDbEntity
  8
0
  6
Continuous
 62
     7
100
AcDbCircle
 10
9.099976912
 20
6.617302982764448
 30
0.0
 40
0.0871473146
100
AcDbArc
 50
82.23218953609999
 51
93.72886368749998
  0
ARC
  5
38F
330
200
100
AcDbEntity
  8
0
  6
Continuous
 62
     7
100
AcDbCircle
 10
9.839516602199999
 20
5.962674464664447
 30
0.0
 40
0.0777052856
100
AcDbArc
 50
314.9814911694
 51
317.1470012375
  0
ARC
  5
390
330
200
100
AcDbEntity
  8
0
  6
Continuous
 62
     7
100
AcDbCircle
 10
9.099967107999999
 20
6.632977803964448
 30
0.0
 40
0.0678586765
100
AcDbArc
 50
84.34848245659999
 51
94.76860700089998
  0
ARC
  5
391
330
200
100
AcDbEntity
  8
0
  6
Continuous
 62
     7
100
AcDbCircle
 10
10.0515010754
 20
5.161164408064447
 30
0.0
 40
0.0451714252
100
AcDbArc
 50
309.7070734829001
 51
315.8881985368
  0
ARC
  5
392
330
200
100
AcDbEntity
  8
0
  6
Continuous
 62
     7
100
AcDbCircle
 10
8.6709279399
 20
4.804373380364448
 30
0.0
 40
0.0376912286
100
AcDbArc
 50
142.5099062237
 51
147.6936702106
  0
ARC
  5
393
330
200
100
AcDbEntity
  8
0
  6
Continuous
 62
     7
100
AcDbCircle
 10
9.5887698145
 20
6.472118521064447
 30
0.0
 40
0.0325453881
100
AcDbArc
 50
226.4737030425
 51
228.9141107831
  0
ARC
  5
394
330
200
100
AcDbEntity
  8
0
  6
Continuous
 62
     7
100
AcDbCircle
 10
9.2367335532
 20
6.675390205064448
 30
0.0
 40
0.0325453881
100
AcDbArc
 50
226.4737030439
 51
228.9141107826
  0
ARC
  5
395
330
200
100
AcDbEntity
  8
0
  6
Continuous
 62
     7
100
AcDbCircle
 10
8.664838648599999
 20
4.807774427864448
 30
0.0
 40
0.0307069955
100
AcDbArc
 50
155.0886013945
 51
159.3250972197
  0
ARC
  5
396
330
200
100
AcDbEntity
  8
0
  6
Continuous
 62
     7
100
AcDbCircle
 10
10.0529493763
 20
5.936875403864448
 30
0.0
 40
0.0233981941
100
AcDbArc
 50
41.43452588299999
 51
46.40092517519999
  0
ARC
  5
397
330
200
100
AcDbEntity
  8
0
  6
Continuous
 62
     7
100
AcDbCircle
 10
9.8079331941
 20
6.132951106064447
 30
0.0
 40
0.0233981941
100
AcDbArc
 50
41.4345258827
 51
46.4009251749
  0
ARC
  5
398
330
200
100
AcDbEntity
  8
0
  6
Continuous
 62
     7
100
AcDbCircle
 10
9.562913720199999
 20
6.415742232964447
 30
0.0
 40
0.0233965934
100
AcDbArc
 50
41.4341649255
 51
46.40089601689999
  0
ARC
  5
399
330
200
100
AcDbEntity
  8
0
  6
Continuous
 62
     7
100
AcDbCircle
 10
3.411238744209471
 20
1.521690172095725
 30
0.0
 40
0.2362203218
100
AcDbArc
 50
289.471233892
 51
295.3706222996
  0
ARC
  5
39A
330
200
100
AcDbEntity
  8
0
  6
Continuous
 62
     7
100
AcDbCircle
 10
3.822632088909472
 20
1.687070273695725
 30
0.0
 40
0.2362203069
100
AcDbArc
 50
64.57863290089999
 51
70.52876457779996
  0
ARC
  5
39B
330
200
100
AcDbEntity
  8
0
  6
Continuous
 62
     7
100
AcDbCircle
 10
4.236001349509471
 20
1.521741714795725
 30
0.0
 40
0.236218943
100
AcDbArc
 50
244.6851228591
 51
250.528643733
  0
ARC
  5
39C
330
200
100
AcDbEntity
  8
0
  6
Continuous
 62
     7
100
AcDbCircle
 10
3.822632088909472
 20
1.687070273695725
 30
0.0
 40
0.2362189423
100
AcDbArc
 50
109.4713561342
 51
115.4206731243
  0
ARC
  5
39D
330
200
100
AcDbEntity
  8
0
  6
Continuous
 62
     7
100
AcDbCircle
 10
3.411238744209471
 20
1.521690172095725
 30
0.0
 40
0.2362184114
100
AcDbArc
 50
244.7485753915
 51
250.5285960877
  0
ARC
  5
39E
330
200
100
AcDbEntity
  8
0
  6
Continuous
 62
     7
100
AcDbCircle
 10
4.236001349509471
 20
1.521741714795725
 30
0.0
 40
0.2362174822
100
AcDbArc
 50
331.0468327362
 51
28.68915909229994
  0
ARC
  5
39F
330
200
100
AcDbEntity
  8
0
  6
Continuous
 62
     7
100
AcDbCircle
 10
4.236001349509471
 20
1.521741714795725
 30
0.0
 40
0.2362174822
100
AcDbArc
 50
289.4714855119
 51
295.3140904455
  0
ARC
  5
3A0
330
200
100
AcDbEntity
  8
0
  6
Continuous
 62
     7
100
AcDbCircle
 10
4.236013788909472
 20
1.521725901095725
 30
0.0
 40
0.2165354331
100
AcDbArc
 50
343.5931751861001
 51
17.0848743859
  0
ARC
  5
3A1
330
200
100
AcDbEntity
  8
0
  6
Continuous
 62
     7
100
AcDbCircle
 10
3.025453207809472
 20
1.789354286495725
 30
0.0
 40
0.0590551181
100
AcDbArc
 50
269.9999998575
 51
0.0000001192999853
  0
ARC
  5
3A2
330
200
100
AcDbEntity
  8
0
  6
Continuous
 62
     7
100
AcDbCircle
 10
3.025453207009471
 20
1.419275547295725
 30
0.0
 40
0.0590551181
100
AcDbArc
 50
0.0000001084999921
 51
89.9999998606
  0
ARC
  5
3A3
330
200
100
AcDbEntity
  8
0
  6
Continuous
 62
     7
100
AcDbCircle
 10
2.998012375809471
 20
1.804011698495725
 30
0.0
 40
0.0196850394
100
AcDbArc
 50
0.0000007483999613
 51
89.9999999367
  0
ARC
  5
3A4
330
200
100
AcDbEntity
  8
0
  6
Continuous
 62
     7
100
AcDbCircle
 10
2.998009696409472
 20
1.902436895095725
 30
0.0
 40
0.0196850394
100
AcDbArc
 50
269.9999996750999
 51
0.0000009840999785
  0
ARC
  5
3A5
330
200
100
AcDbEntity
  8
0
  6
Continuous
 62
     7
100
AcDbCircle
 10
3.037379775309472
 20
1.958610242895725
 30
0.0
 40
0.0196850394
100
AcDbArc
 50
89.99999988260002
 51
180.0000012633
  0
ARC
  5
3A6
330
200
100
AcDbEntity
  8
0
  6
Continuous
 62
     7
100
AcDbCircle
 10
4.915238502309471
 20
1.958610246995725
 30
0.0
 40
0.0196850394
100
AcDbArc
 50
0.0000001058000319
 51
89.99999992370007
  0
ARC
  5
3A7
330
200
100
AcDbEntity
  8
0
  6
Continuous
 62
     7
100
AcDbCircle
 10
4.915238500809471
 20
1.249948831595725
 30
0.0
 40
0.0196850394
100
AcDbArc
 50
269.9999998818
 51
0.00000015579998
  0
ARC
  5
3A8
330
200
100
AcDbEntity
  8
0
  6
Continuous
 62
     7
100
AcDbCircle
 10
3.037379772209471
 20
1.249948827495725
 30
0.0
 40
0.0196850394
100
AcDbArc
 50
180.0000008969
 51
269.9999999417
  0
ARC
  5
3A9
330
200
100
AcDbEntity
  8
0
  6
Continuous
 62
     7
100
AcDbCircle
 10
2.998009693809472
 20
1.306122281795724
 30
0.0
 40
0.0196850394
100
AcDbArc
 50
0.0000013209000075
 51
89.9999998436
  0
ARC
  5
3AA
330
200
100
AcDbEntity
  8
0
  6
Continuous
 62
     7
100
AcDbCircle
 10
2.998012374109472
 20
1.404547478395725
 30
0.0
 40
0.0196850394
100
AcDbArc
 50
269.9999997548
 51
0.0000005589999656
  0
ARC
  5
3BF
330
200
100
AcDbEntity
  8
0
  6
Continuous
 62
     7
100
AcDbCircle
 10
2.997790742349209
 20
6.938453540692761
 30
0.0
 40
0.0393697875
100
AcDbArc
 50
270.0006854265915
 51
0.0060198259915676
  0
ARC
  5
3C0
330
200
100
AcDbEntity
  8
0
  6
Continuous
 62
     7
100
AcDbCircle
 10
3.037160989071537
 20
6.994633691373212
 30
0.0
 40
0.0196850394
100
AcDbArc
 50
90.00335255449156
 51
180.0025046440915
  0
ARC
  5
3C1
330
200
100
AcDbEntity
  8
0
  6
Continuous
 62
     7
100
AcDbCircle
 10
2.997791894063535
 20
6.938455004960151
 30
0.0
 40
0.0196850394
100
AcDbArc
 50
270.0033530915916
 51
0.0033524167915917
  0
ARC
  5
3C2
330
200
100
AcDbEntity
  8
0
  6
Continuous
 62
     7
100
AcDbCircle
 10
3.556731732590075
 20
6.99463832026849
 30
0.0
 40
0.0196850394
100
AcDbArc
 50
90.00335255539159
 51
180.0025045243915
  0
ARC
  5
3C3
330
200
100
AcDbEntity
  8
0
  6
Continuous
 62
     7
100
AcDbCircle
 10
2.997799181585322
 20
6.840028344518068
 30
0.0
 40
0.0393697875
100
AcDbArc
 50
0.0006803840915769
 51
90.00602012499157
  0
ARC
  5
3C4
330
200
100
AcDbEntity
  8
0
  6
Continuous
 62
     7
100
AcDbCircle
 10
2.997800333299649
 20
6.840029808785458
 30
0.0
 40
0.0196850394
100
AcDbArc
 50
0.0033524211915456
 51
90.0033525398916
  0
ARC
  5
3C5
330
200
100
AcDbEntity
  8
0
  6
Continuous
 62
     7
100
AcDbCircle
 10
3.411090335780201
 20
6.722983483410128
 30
0.0
 40
0.2165354331
100
AcDbArc
 50
54.42610606819163
 51
305.5805252764916
  0
ARC
  5
3C6
330
200
100
AcDbEntity
  8
0
  6
Continuous
 62
     7
100
AcDbCircle
 10
3.411089184065881
 20
6.722982019042738
 30
0.0
 40
0.196848872
100
AcDbArc
 50
50.21259781039156
 51
309.7941086092916
  0
ARC
  5
3C7
330
200
100
AcDbEntity
  8
0
  6
Continuous
 62
     7
100
AcDbCircle
 10
3.411086189688636
 20
6.722978211867529
 30
0.0
 40
0.157480315
100
AcDbArc
 50
36.87553606169159
 51
323.1311685086916
  0
ARC
  5
3C8
330
200
100
AcDbEntity
  8
0
  6
Continuous
 62
     7
100
AcDbCircle
 10
3.411085037974309
 20
6.722976747600138
 30
0.0
 40
0.1377938164
100
AcDbArc
 50
23.90157468409162
 51
336.1051240112916
  0
CIRCLE
  5
3C9
330
200
100
AcDbEntity
  8
0
  6
Continuous
 62
     7
100
AcDbCircle
 10
3.411085037974309
 20
6.722976747600138
 30
0.0
 40
0.1102362205
  0
CIRCLE
  5
3CA
330
200
100
AcDbEntity
  8
0
  6
Continuous
 62
     7
100
AcDbCircle
 10
4.235852942784219
 20
6.722980198122781
 30
0.0
 40
0.2165354331
  0
CIRCLE
  5
3CB
330
200
100
AcDbEntity
  8
0
  6
Continuous
 62
     7
100
AcDbCircle
 10
4.235851791069892
 20
6.722978733855391
 30
0.0
 40
0.196846844
  0
CIRCLE
  5
3CC
330
200
100
AcDbEntity
  8
0
  6
Continuous
 62
     7
100
AcDbCircle
 10
4.235848796592648
 20
6.722974926680175
 30
0.0
 40
0.157480315
  0
CIRCLE
  5
3CD
330
200
100
AcDbEntity
  8
0
  6
Continuous
 62
     7
100
AcDbCircle
 10
4.235847644978322
 20
6.722973462412791
 30
0.0
 40
0.1377927547
  0
CIRCLE
  5
3CE
330
200
100
AcDbEntity
  8
0
  6
Continuous
 62
     7
100
AcDbCircle
 10
4.235847644978322
 20
6.722973462412791
 30
0.0
 40
0.1102362205
  0
ARC
  5
3CF
330
200
100
AcDbEntity
  8
0
  6
Continuous
 62
     7
100
AcDbCircle
 10
3.9700972879904
 20
6.994636735214172
 30
0.0
 40
0.0196850394
100
AcDbArc
 50
90.0033525434916
 51
180.0025045432915
  0
ARC
  5
3D0
330
200
100
AcDbEntity
  8
0
  6
Continuous
 62
     7
100
AcDbCircle
 10
4.914979174573115
 20
6.994692018901008
 30
0.0
 40
0.0196850394
100
AcDbArc
 50
0.0042000554915829
 51
90.00335254319161
  0
ARC
  5
3D1
330
200
100
AcDbEntity
  8
0
  6
Continuous
 62
     7
100
AcDbCircle
 10
2.997822556352882
 20
6.440564125101958
 30
0.0
 40
0.0393697875
100
AcDbArc
 50
270.0006854169915
 51
0.0060167010915887
  0
ARC
  5
3D2
330
200
100
AcDbEntity
  8
0
  6
Continuous
 62
     7
100
AcDbCircle
 10
2.997823707967208
 20
6.440565589369342
 30
0.0
 40
0.0196850394
100
AcDbArc
 50
270.0033525434916
 51
0.0033524240916008
  0
ARC
  5
3D3
330
200
100
AcDbEntity
  8
0
  6
Continuous
 62
     7
100
AcDbCircle
 10
3.82249335629659
 20
6.557627452943298
 30
0.0
 40
0.2165354331
100
AcDbArc
 50
53.7818821156916
 51
306.2247464972916
  0
ARC
  5
3D4
330
200
100
AcDbEntity
  8
0
  6
Continuous
 62
     7
100
AcDbCircle
 10
3.822492204682262
 20
6.557625988675913
 30
0.0
 40
0.1968488312
100
AcDbArc
 50
49.46139379619156
 51
310.5453121961915
  0
ARC
  5
3D5
330
200
100
AcDbEntity
  8
0
  6
Continuous
 62
     7
100
AcDbCircle
 10
3.822489210205018
 20
6.557622181500697
 30
0.0
 40
0.157480315
100
AcDbArc
 50
35.66254144839163
 51
324.3441630073916
  0
ARC
  5
3D6
330
200
100
AcDbEntity
  8
0
  6
Continuous
 62
     7
100
AcDbCircle
 10
3.822488058490692
 20
6.557620717233307
 30
0.0
 40
0.1377947706
100
AcDbArc
 50
21.78973250389161
 51
338.2169668546916
  0
CIRCLE
  5
3D7
330
200
100
AcDbEntity
  8
0
  6
Continuous
 62
     7
100
AcDbCircle
 10
3.822488058490692
 20
6.557620717233307
 30
0.0
 40
0.1102362205
  0
ARC
  5
3D8
330
200
100
AcDbEntity
  8
0
  6
Continuous
 62
     7
100
AcDbCircle
 10
2.997825635789016
 20
6.342138928413659
 30
0.0
 40
0.0393697875
100
AcDbArc
 50
0.0006847185915976
 51
90.00602014389157
  0
ARC
  5
3D9
330
200
100
AcDbEntity
  8
0
  6
Continuous
 62
     7
100
AcDbCircle
 10
3.03720245651162
 20
6.285972277186449
 30
0.0
 40
0.0196850394
100
AcDbArc
 50
180.0042001765916
 51
270.0033525497916
  0
ARC
  5
3DA
330
200
100
AcDbEntity
  8
0
  6
Continuous
 62
     7
100
AcDbCircle
 10
2.997826787503343
 20
6.342140392681049
 30
0.0
 40
0.0196850394
100
AcDbArc
 50
0.0033524210915998
 51
90.0033525388916
  0
ARC
  5
3DB
330
200
100
AcDbEntity
  8
0
  6
Continuous
 62
     7
100
AcDbCircle
 10
3.556773198530158
 20
6.285976906081638
 30
0.0
 40
0.0196850394
100
AcDbArc
 50
179.9369492980916
 51
270.0033525434916
  0
ARC
  5
3DC
330
200
100
AcDbEntity
  8
0
  6
Continuous
 62
     7
100
AcDbCircle
 10
4.915020640413191
 20
6.286030604814152
 30
0.0
 40
0.0196850394
100
AcDbArc
 50
270.0033525433917
 51
0.0025045248915817
  0
ARC
  5
3DD
330
200
100
AcDbEntity
  8
0
  6
Continuous
 62
     7
100
AcDbCircle
 10
3.970138753930482
 20
6.285975321027322
 30
0.0
 40
0.0196850394
100
AcDbArc
 50
179.9369493196916
 51
270.0033525420916
  0
ARC
  5
3DE
330
200
100
AcDbEntity
  8
0
  6
Continuous
 62
     7
100
AcDbCircle
 10
3.273452919475587
 20
4.654613439811909
 30
0.0
 40
0.0196850394
100
AcDbArc
 50
90.00245754749157
 51
180.0067048460916
  0
ARC
  5
3DF
330
200
100
AcDbEntity
  8
0
  6
Continuous
 62
     7
100
AcDbCircle
 10
3.214406094712839
 20
4.583740388114159
 30
0.0
 40
0.0196850394
100
AcDbArc
 50
90.00227561469161
 51
180.0067048446915
  0
ARC
  5
3E0
330
200
100
AcDbEntity
  8
0
  6
Continuous
 62
     7
100
AcDbCircle
 10
3.684825991427439
 20
5.001105974168924
 30
0.0
 40
0.0196850394
100
AcDbArc
 50
90.00523494079155
 51
180.0067048457915
  0
ARC
  5
3E1
330
200
100
AcDbEntity
  8
0
  6
Continuous
 62
     7
100
AcDbCircle
 10
3.625779166564698
 20
4.930232922371168
 30
0.0
 40
0.0196850394
100
AcDbArc
 50
90.00215697069156
 51
180.0067048451916
  0
ARC
  5
3E2
330
200
100
AcDbEntity
  8
0
  6
Continuous
 62
     7
100
AcDbCircle
 10
3.556900876700536
 20
4.764900108564924
 30
0.0
 40
0.0196850394
100
AcDbArc
 50
90.00670484449164
 51
180.0075526590916
  0
ARC
  5
3E3
330
200
100
AcDbEntity
  8
0
  6
Continuous
 62
     7
100
AcDbCircle
 10
3.03735041329228
 20
4.418337009963028
 30
0.0
 40
0.0196850394
100
AcDbArc
 50
90.00670484789159
 51
180.0067048459915
  0
ARC
  5
3E4
330
200
100
AcDbEntity
  8
0
  6
Continuous
 62
     7
100
AcDbCircle
 10
2.978201269878598
 20
4.418332095199842
 30
0.0
 40
0.0196850394
100
AcDbArc
 50
90.0067047046916
 51
180.0018917874916
  0
ARC
  5
3E5
330
200
100
AcDbEntity
  8
0
  6
Continuous
 62
     7
100
AcDbCircle
 10
4.098174977663528
 20
5.347623338850198
 30
0.0
 40
0.0196850394
100
AcDbArc
 50
89.9993893934916
 51
180.0067048443915
  0
ARC
  5
3E6
330
200
100
AcDbEntity
  8
0
  6
Continuous
 62
     7
100
AcDbCircle
 10
4.039128152867092
 20
5.276750287040536
 30
0.0
 40
0.0196850394
100
AcDbArc
 50
90.00672379739155
 51
180.0067048455916
  0
ARC
  5
3E7
330
200
100
AcDbEntity
  8
0
  6
Continuous
 62
     7
100
AcDbCircle
 10
4.432828937545329
 20
5.276796358585008
 30
0.0
 40
0.0196850394
100
AcDbArc
 50
0.0067048455916109
 51
90.01702057579159
  0
ARC
  5
3E8
102
{ACAD_REACTORS
330
536
102
}
330
200
100
AcDbEntity
  8
0
  6
Continuous
 62
     7
100
AcDbCircle
 10
4.373765526948298
 20
5.347655588871329
 30
0.0
 40
0.0196850394
100
AcDbArc
 50
0.0067048452915701
 51
90.01404214609159
  0
ARC
  5
3E9
330
200
100
AcDbEntity
  8
0
  6
Continuous
 62
     7
100
AcDbCircle
 10
3.970246157622607
 20
5.111405173217467
 30
0.0
 40
0.0196850394
100
AcDbArc
 50
90.00670484439162
 51
180.0075526594915
  0
ARC
  5
3EA
330
200
100
AcDbEntity
  8
0
  6
Continuous
 62
     7
100
AcDbCircle
 10
4.915128045111937
 20
5.11146888930437
 30
0.0
 40
0.0196850394
100
AcDbArc
 50
0.0075525986915621
 51
90.00670484149157
  0
ARC
  5
3EB
330
200
100
AcDbEntity
  8
0
  6
Continuous
 62
     7
100
AcDbCircle
 10
3.383928879274041
 20
3.40065484710125
 30
0.0
 40
0.0393700787
100
AcDbArc
 50
180.0067048399916
 51
270.0067048505916
  0
ARC
  5
3EC
330
200
100
AcDbEntity
  8
0
  6
Continuous
 62
     7
100
AcDbCircle
 10
3.163456439806225
 20
3.400629047084342
 30
0.0
 40
0.0393700787
100
AcDbArc
 50
270.0067048451916
 51
0.0067048448915835
  0
ARC
  5
3ED
330
200
100
AcDbEntity
  8
0
  6
Continuous
 62
     7
100
AcDbCircle
 10
3.391806119935716
 20
3.373096713657662
 30
0.0
 40
0.0118110236
100
AcDbArc
 50
270.0067048290916
 51
0.0067048710916192
  0
ARC
  5
3EE
330
200
100
AcDbEntity
  8
0
  6
Continuous
 62
     7
100
AcDbCircle
 10
3.155585649148768
 20
3.373069070810977
 30
0.0
 40
0.0118110236
100
AcDbArc
 50
180.0067048250915
 51
270.0067048565916
  0
ARC
  5
3EF
330
200
100
AcDbEntity
  8
0
  6
Continuous
 62
     7
100
AcDbCircle
 10
4.446920998015292
 20
3.400779240111331
 30
0.0
 40
0.0393700787
100
AcDbArc
 50
180.0067048400915
 51
270.0067048433916
  0
ARC
  5
3F0
330
200
100
AcDbEntity
  8
0
  6
Continuous
 62
     7
100
AcDbCircle
 10
4.226448558547476
 20
3.400753440094424
 30
0.0
 40
0.0393700787
100
AcDbArc
 50
270.0067048412916
 51
0.0067048437915696
  0
ARC
  5
3F1
330
200
100
AcDbEntity
  8
0
  6
Continuous
 62
     7
100
AcDbCircle
 10
4.411361525708873
 20
3.686214545587068
 30
0.0
 40
0.031496063
100
AcDbArc
 50
270.0067048429916
 51
0.0067048271916185
  0
ARC
  5
3F2
330
200
100
AcDbEntity
  8
0
  6
Continuous
 62
     7
100
AcDbCircle
 10
4.45479823867696
 20
3.373221106767743
 30
0.0
 40
0.0118110236
100
AcDbArc
 50
270.0067048366916
 51
0.0067047877916193
  0
ARC
  5
3F3
330
200
100
AcDbEntity
  8
0
  6
Continuous
 62
     7
100
AcDbCircle
 10
4.218577767890018
 20
3.373193463821061
 30
0.0
 40
0.0118110236
100
AcDbArc
 50
180.0067049316915
 51
270.0067048378916
  0
SPLINE
  5
3F4
330
200
100
AcDbEntity
  8
0
  6
Continuous
 62
     7
100
AcDbSpline
210
0.0
220
0.0
230
1.0
 70
     8
 71
     3
 72
    11
 73
     7
 74
     0
 42
0.0000000001
 43
0.0000000001
 40
0.0
 40
0.0
 40
0.0
 40
0.0
 40
0.2895291791
 40
0.5491026834000001
 40
0.7822451254999999
 40
1.0
 40
1.0
 40
1.0
 40
1.0
 10
8.6016735032
 20
5.236465621864447
 30
0.0
 10
8.601673584
 20
5.234870924364448
 30
0.0
 10
8.6019172425
 20
5.231836469064447
 30
0.0
 10
8.6031441733
 20
5.227666580164447
 30
0.0
 10
8.605213583499999
 20
5.224281701264447
 30
0.0
 10
8.607158855099999
 20
5.222649988664447
 30
0.0
 10
8.6081975097
 20
5.222050247564447
 30
0.0
  0
SPLINE
  5
3F5
330
200
100
AcDbEntity
  8
0
  6
Continuous
 62
     7
100
AcDbSpline
210
0.0
220
0.0
230
1.0
 70
     8
 71
     3
 72
    11
 73
     7
 74
     0
 42
0.0000000001
 43
0.0000000001
 40
0.0
 40
0.0
 40
0.0
 40
0.0
 40
0.2177347386
 40
0.4508677428000001
 40
0.7104478375
 40
1.0
 40
1.0
 40
1.0
 40
1.0
 10
8.304559693399999
 20
6.198519225264448
 30
0.0
 10
8.3052088357
 20
6.198893995064448
 30
0.0
 10
8.3064246098
 20
6.199913779564447
 30
0.0
 10
8.307717819299998
 20
6.202029435864447
 30
0.0
 10
8.308484404599999
 20
6.204635841864448
 30
0.0
 10
8.308636493499999
 20
6.206532546464448
 30
0.0
 10
8.308636442999999
 20
6.207529338964448
 30
0.0
  0
SPLINE
  5
3F6
330
200
100
AcDbEntity
  8
0
  6
Continuous
 62
     7
100
AcDbSpline
210
0.0
220
0.0
230
1.0
 70
     8
 71
     3
 72
    14
 73
    10
 74
     0
 42
0.0000000001
 43
0.0000000001
 40
0.0
 40
0.0
 40
0.0
 40
0.0
 40
0.128860334
 40
0.2621248866
 40
0.3968822025
 40
0.5300427761
 40
0.6587354928
 40
0.7807070893000001
 40
1.0
 40
1.0
 40
1.0
 40
1.0
 10
10.0618525778
 20
5.965785597264447
 30
0.0
 10
10.0597809518
 20
5.975141811364448
 30
0.0
 10
10.0542375798
 20
5.993897532864448
 30
0.0
 10
10.0424644645
 20
6.021031649064448
 30
0.0
 10
10.0274643724
 20
6.046901167664448
 30
0.0
 10
10.009778027
 20
6.070581492464446
 30
0.0
 10
9.989954798899999
 20
6.091262456264447
 30
0.0
 10
9.9625964022
 20
6.113017060364447
 30
0.0
 10
9.938936294999999
 20
6.124303293164447
 30
0.0
 10
9.9229524997
 20
6.127538487764447
 30
0.0
  0
SPLINE
  5
3F7
330
200
100
AcDbEntity
  8
0
  6
Continuous
 62
     7
100
AcDbSpline
210
0.0
220
0.0
230
1.0
 70
     8
 71
     3
 72
    11
 73
     7
 74
     0
 42
0.0000000001
 43
0.0000000001
 40
0.0
 40
0.0
 40
0.0
 40
0.0
 40
0.2356645116
 40
0.4851528331
 40
0.7424097273
 40
1.0
 40
1.0
 40
1.0
 40
1.0
 10
9.925438313999999
 20
6.122090802164447
 30
0.0
 10
9.936956307899999
 20
6.113988629964446
 30
0.0
 10
9.959216966099999
 20
6.095191588864448
 30
0.0
 10
9.9886946187
 20
6.061865872364447
 30
0.0
 10
10.014287019
 20
6.023889387864447
 30
0.0
 10
10.028148976
 20
5.996311586464448
 30
0.0
 10
10.0341366517
 20
5.982131518664447
 30
0.0
  0
SPLINE
  5
3F8
330
200
100
AcDbEntity
  8
0
  6
Continuous
 62
     7
100
AcDbSpline
210
0.0
220
0.0
230
1.0
 70
     8
 71
     3
 72
    15
 73
    11
 74
     0
 42
0.0000000001
 43
0.0000000001
 40
0.0
 40
0.0
 40
0.0
 40
0.0
 40
0.1046808034
 40
0.216820827
 40
0.3371379982
 40
0.4648331963000001
 40
0.5978975994
 40
0.7335302037
 40
0.8685861506
 40
1.0
 40
1.0
 40
1.0
 40
1.0
 10
9.929442676599999
 20
6.010310952964448
 30
0.0
 10
9.9325655583
 20
6.017454505364447
 30
0.0
 10
9.9370769752
 20
6.033143219064448
 30
0.0
 10
9.938871626599999
 20
6.058320369264447
 30
0.0
 10
9.9362425911
 20
6.085124751564448
 30
0.0
 10
9.929448242499999
 20
6.112767392964447
 30
0.0
 10
9.9188041596
 20
6.140382254364447
 30
0.0
 10
9.9047148133
 20
6.167026372264447
 30
0.0
 10
9.887697260199999
 20
6.191747657564448
 30
0.0
 10
9.8745150626
 20
6.206667511264447
 30
0.0
 10
9.867554727699999
 20
6.213548321364448
 30
0.0
  0
SPLINE
  5
3F9
330
200
100
AcDbEntity
  8
0
  6
Continuous
 62
     7
100
AcDbSpline
210
0.0
220
0.0
230
1.0
 70
     8
 71
     3
 72
     9
 73
     5
 74
     0
 42
0.0000000001
 43
0.0000000001
 40
0.0
 40
0.0
 40
0.0
 40
0.0
 40
0.5231890789
 40
1.0
 40
1.0
 40
1.0
 40
1.0
 10
9.867554727699999
 20
6.213548321364448
 30
0.0
 10
9.858603784199999
 20
6.222396996464448
 30
0.0
 10
9.8399957338
 20
6.237888019264447
 30
0.0
 10
9.8183336432
 20
6.249035368464447
 30
0.0
 10
9.8074635563
 20
6.252698489164448
 30
0.0
  0
SPLINE
  5
3FA
330
200
100
AcDbEntity
  8
0
  6
Continuous
 62
     7
100
AcDbSpline
210
0.0
220
0.0
230
1.0
 70
     8
 71
     3
 72
     9
 73
     5
 74
     0
 42
0.0000000001
 43
0.0000000001
 40
0.0
 40
0.0
 40
0.0
 40
0.0
 40
0.255497712
 40
1.0
 40
1.0
 40
1.0
 40
1.0
 10
9.8074635563
 20
6.252698489164448
 30
0.0
 10
9.805771872200001
 20
6.253268571364448
 30
0.0
 10
9.799099703299999
 20
6.255342387664447
 30
0.0
 10
9.7922148237
 20
6.256756446464447
 30
0.0
 10
9.7870469725
 20
6.257349983664447
 30
0.0
  0
SPLINE
  5
3FB
330
200
100
AcDbEntity
  8
0
  6
Continuous
 62
     7
100
AcDbSpline
210
0.0
220
0.0
230
1.0
 70
     8
 71
     3
 72
    14
 73
    10
 74
     0
 42
0.0000000001
 43
0.0000000001
 40
0.0
 40
0.0
 40
0.0
 40
0.0
 40
0.1120098935
 40
0.2253152398
 40
0.3413790222999999
 40
0.4614611036
 40
0.5867919822
 40
0.7181735050000001
 40
1.0
 40
1.0
 40
1.0
 40
1.0
 10
9.662725589299999
 20
6.271062186164447
 30
0.0
 10
9.667637840199999
 20
6.273889366064447
 30
0.0
 10
9.6781149021
 20
6.278605884064448
 30
0.0
 10
9.695044712599999
 20
6.282505284664447
 30
0.0
 10
9.7127992175
 20
6.283297886564447
 30
0.0
 10
9.7310303659
 20
6.281103364164447
 30
0.0
 10
9.749490658899999
 20
6.276100816264446
 30
0.0
 10
9.774726446699999
 20
6.265677065664447
 30
0.0
 10
9.792576588799999
 20
6.254429088664447
 30
0.0
 10
9.8039567593
 20
6.245835290264448
 30
0.0
  0
SPLINE
  5
3FC
330
200
100
AcDbEntity
  8
0
  6
Continuous
 62
     7
100
AcDbSpline
210
0.0
220
0.0
230
1.0
 70
     8
 71
     3
 72
     9
 73
     5
 74
     0
 42
0.0000000001
 43
0.0000000001
 40
0.0
 40
0.0
 40
0.0
 40
0.0
 40
0.2410789215
 40
1.0
 40
1.0
 40
1.0
 40
1.0
 10
9.808322249699999
 20
6.242462747364447
 30
0.0
 10
9.813218537799999
 20
6.238594454564447
 30
0.0
 10
9.8329409012
 20
6.221810410764447
 30
0.0
 10
9.8503527005
 20
6.202379095364448
 30
0.0
 10
9.862192789999999
 20
6.186704843764447
 30
0.0
  0
SPLINE
  5
3FD
330
200
100
AcDbEntity
  8
0
  6
Continuous
 62
     7
100
AcDbSpline
210
0.0
220
0.0
230
1.0
 70
     8
 71
     3
 72
    16
 73
    12
 74
     0
 42
0.0000000001
 43
0.0000000001
 40
0.0
 40
0.0
 40
0.0
 40
0.0
 40
0.1425132154
 40
0.2851140244
 40
0.4242561727
 40
0.5568311238
 40
0.6806296715000001
 40
0.7948217542
 40
0.9003622368999998
 40
0.9507306648999998
 40
1.0
 40
1.0
 40
1.0
 40
1.0
 10
9.862192789999999
 20
6.186704843764447
 30
0.0
 10
9.8707886788
 20
6.175325358664447
 30
0.0
 10
9.8865983124
 20
6.151477682364447
 30
0.0
 10
9.905772945
 20
6.113493587364446
 30
0.0
 10
9.9198893344
 20
6.074393488764447
 30
0.0
 10
9.928376574699999
 20
6.035605607864447
 30
0.0
 10
9.9308125244
 20
5.998436561764448
 30
0.0
 10
9.926884454099999
 20
5.964069344064448
 30
0.0
 10
9.9177816907
 20
5.938274265164448
 30
0.0
 10
9.906983679599999
 20
5.920734503264447
 30
0.0
 10
9.900484976599999
 20
5.913105824664447
 30
0.0
 10
9.896989835800001
 20
5.909628419264447
 30
0.0
  0
SPLINE
  5
3FE
330
200
100
AcDbEntity
  8
0
  6
Continuous
 62
     7
100
AcDbSpline
210
0.0
220
0.0
230
1.0
 70
     8
 71
     3
 72
    11
 73
     7
 74
     0
 42
0.0000000001
 43
0.0000000001
 40
0.0
 40
0.0
 40
0.0
 40
0.0
 40
0.24796962
 40
0.495627599
 40
0.7449443203000001
 40
1.0
 40
1.0
 40
1.0
 40
1.0
 10
9.8494306062
 20
6.122058320464447
 30
0.0
 10
9.8494319378
 20
6.125464871864448
 30
0.0
 10
9.8483467852
 20
6.132319086264446
 30
0.0
 10
9.8437450702
 20
6.141611354664447
 30
0.0
 10
9.836800220399998
 20
6.149400708264447
 30
0.0
 10
9.831096183499999
 20
6.153432719364447
 30
0.0
 10
9.828061814199999
 20
6.155184834264447
 30
0.0
  0
SPLINE
  5
3FF
330
200
100
AcDbEntity
  8
0
  6
Continuous
 62
     7
100
AcDbSpline
210
0.0
220
0.0
230
1.0
 70
     8
 71
     3
 72
    11
 73
     7
 74
     0
 42
0.0000000001
 43
0.0000000001
 40
0.0
 40
0.0
 40
0.0
 40
0.0
 40
0.24796962
 40
0.495627599
 40
0.7449443203000001
 40
1.0
 40
1.0
 40
1.0
 40
1.0
 10
10.0944467884
 20
5.925982618264447
 30
0.0
 10
10.09444812
 20
5.929389169664447
 30
0.0
 10
10.0933629674
 20
5.936243384164447
 30
0.0
 10
10.0887612524
 20
5.945535652564448
 30
0.0
 10
10.0818164026
 20
5.953325006064447
 30
0.0
 10
10.0761123657
 20
5.957357017164447
 30
0.0
 10
10.0730779964
 20
5.959109132064447
 30
0.0
  0
SPLINE
  5
400
330
200
100
AcDbEntity
  8
0
  6
Continuous
 62
     7
100
AcDbSpline
210
0.0
220
0.0
230
1.0
 70
     8
 71
     3
 72
     9
 73
     5
 74
     0
 42
0.0000000001
 43
0.0000000001
 40
0.0
 40
0.0
 40
0.0
 40
0.0
 40
0.4995108745000001
 40
1.0
 40
1.0
 40
1.0
 40
1.0
 10
10.0944858805
 20
5.154524788764447
 30
0.0
 10
10.0944881124
 20
5.149950787164447
 30
0.0
 10
10.0924991464
 20
5.140696055864447
 30
0.0
 10
10.0871206396
 20
5.133015521464447
 30
0.0
 10
10.0839333881
 20
5.129722354264448
 30
0.0
  0
SPLINE
  5
401
330
200
100
AcDbEntity
  8
0
  6
Continuous
 62
     7
100
AcDbSpline
210
0.0
220
0.0
230
1.0
 70
     8
 71
     3
 72
     9
 73
     5
 74
     0
 42
0.0000000001
 43
0.0000000001
 40
0.0
 40
0.0
 40
0.0
 40
0.0
 40
0.2475237861
 40
1.0
 40
1.0
 40
1.0
 40
1.0
 10
10.0803594185
 20
5.126413096064448
 30
0.0
 10
10.0797997072
 20
5.125947577064447
 30
0.0
 10
10.0774952026
 20
5.124119166964447
 30
0.0
 10
10.0750286187
 20
5.122497823464447
 30
0.0
 10
10.0731119715
 20
5.121391288464447
 30
0.0
  0
SPLINE
  5
402
330
200
100
AcDbEntity
  8
0
  6
Continuous
 62
     7
100
AcDbSpline
210
0.0
220
0.0
230
1.0
 70
     8
 71
     3
 72
    11
 73
     7
 74
     0
 42
0.0000000001
 43
0.0000000001
 40
0.0
 40
0.0
 40
0.0
 40
0.0
 40
0.2372497148
 40
0.4999980729
 40
0.7627474805
 40
1.0
 40
1.0
 40
1.0
 40
1.0
 10
8.2550802936
 20
4.657051598764447
 30
0.0
 10
8.2531041345
 20
4.658192678664447
 30
0.0
 10
8.2493644365
 20
4.661339999964448
 30
0.0
 10
8.245001290599999
 20
4.667305222964447
 30
0.0
 10
8.2420169147
 20
4.674066497164447
 30
0.0
 10
8.241161147399999
 20
4.678878872864448
 30
0.0
 10
8.241161031699999
 20
4.681160843864447
 30
0.0
  0
SPLINE
  5
403
330
200
100
AcDbEntity
  8
0
  6
Continuous
 62
     7
100
AcDbSpline
210
0.0
220
0.0
230
1.0
 70
     8
 71
     3
 72
    11
 73
     7
 74
     0
 42
0.0000000001
 43
0.0000000001
 40
0.0
 40
0.0
 40
0.0
 40
0.0
 40
0.2895521847
 40
0.5491324607000001
 40
0.7822653944
 40
1.0
 40
1.0
 40
1.0
 40
1.0
 10
8.2410833358
 20
6.214392180564447
 30
0.0
 10
8.2410832853
 20
6.215388974964446
 30
0.0
 10
8.2412353759
 20
6.217285683664447
 30
0.0
 10
8.242001963299999
 20
6.219892095064448
 30
0.0
 10
8.2432951795
 20
6.222007752764447
 30
0.0
 10
8.244510957699999
 20
6.223027536064447
 30
0.0
 10
8.245160102299999
 20
6.223402304064448
 30
0.0
  0
SPLINE
  5
404
330
200
100
AcDbEntity
  8
0
  6
Continuous
 62
     7
100
AcDbSpline
210
0.0
220
0.0
230
1.0
 70
     8
 71
     3
 72
    11
 73
     7
 74
     0
 42
0.0000000001
 43
0.0000000001
 40
0.0
 40
0.0
 40
0.0
 40
0.0
 40
0.2177470775
 40
0.4508803582
 40
0.7103120343000002
 40
1.0
 40
1.0
 40
1.0
 40
1.0
 10
8.634303603400001
 20
4.828224561364447
 30
0.0
 10
8.634303781799999
 20
4.825220388264447
 30
0.0
 10
8.635415799199998
 20
4.818957940964447
 30
0.0
 10
8.6401718835
 20
4.810235913964447
 30
0.0
 10
8.647684601399999
 20
4.802354727264448
 30
0.0
 10
8.653965912
 20
4.798031280164448
 30
0.0
 10
8.657427058699999
 20
4.796032734064447
 30
0.0
  0
LINE
  5
405
330
200
100
AcDbEntity
  8
0
  6
Continuous
 62
     7
100
AcDbLine
 10
8.6369886248
 20
4.820708713564448
 30
0.0
 11
8.639071208099998
 21
4.824517296464447
 31
0.0
  0
LINE
  5
406
330
200
100
AcDbEntity
  8
0
  6
Continuous
 62
     7
100
AcDbLine
 10
8.641021511099999
 20
4.827313176164447
 30
0.0
 11
8.644856133300001
 21
4.831673388364447
 31
0.0
  0
SPLINE
  5
407
330
200
100
AcDbEntity
  8
0
  6
Continuous
 62
     7
100
AcDbSpline
210
0.0
220
0.0
230
1.0
 70
     8
 71
     3
 72
     9
 73
     5
 74
     0
 42
0.0000000001
 43
0.0000000001
 40
0.0
 40
0.0
 40
0.0
 40
0.0
 40
0.2369700558
 40
1.0
 40
1.0
 40
1.0
 40
1.0
 10
8.644856133300001
 20
4.831673388364447
 30
0.0
 10
8.645732413200001
 20
4.832549205364448
 30
0.0
 10
8.649573488199999
 20
4.836101299764448
 30
0.0
 10
8.653913942699999
 20
4.839093194164448
 30
0.0
 10
8.6573687094
 20
4.841087863264447
 30
0.0
  0
SPLINE
  5
408
330
200
100
AcDbEntity
  8
0
  6
Continuous
 62
     7
100
AcDbSpline
210
0.0
220
0.0
230
1.0
 70
     8
 71
     3
 72
    11
 73
     7
 74
     0
 42
0.0000000001
 43
0.0000000001
 40
0.0
 40
0.0
 40
0.0
 40
0.0
 40
0.2351178324
 40
0.4789826020000001
 40
0.7343324575
 40
1.0
 40
1.0
 40
1.0
 40
1.0
 10
9.153603603099998
 20
6.727575495864447
 30
0.0
 10
9.1545930288
 20
6.728146719464447
 30
0.0
 10
9.156849217199999
 20
6.728927853864448
 30
0.0
 10
9.1604669309
 20
6.728917761164447
 30
0.0
 10
9.164089098599999
 20
6.727961307264447
 30
0.0
 10
9.1663810562
 20
6.726854788464447
 30
0.0
 10
9.167499838699999
 20
6.726210726264446
 30
0.0
  0
SPLINE
  5
409
330
200
100
AcDbEntity
  8
0
  6
Continuous
 62
     7
100
AcDbSpline
210
0.0
220
0.0
230
1.0
 70
     8
 71
     3
 72
    11
 73
     7
 74
     0
 42
0.0000000001
 43
0.0000000001
 40
0.0
 40
0.0
 40
0.0
 40
0.0
 40
0.2009929323
 40
0.4616869574000001
 40
0.7403437668000001
 40
1.0
 40
1.0
 40
1.0
 40
1.0
 10
9.553163431399999
 20
6.476007362264446
 30
0.0
 10
9.553163537099999
 20
6.473921050164448
 30
0.0
 10
9.553934144799999
 20
6.469136110164448
 30
0.0
 10
9.556586668099999
 20
6.461886164164448
 30
0.0
 10
9.560771130099999
 20
6.454677614664447
 30
0.0
 10
9.5644011085
 20
6.450376443164447
 30
0.0
 10
9.5663562149
 20
6.448521215264448
 30
0.0
  0
SPLINE
  5
40A
330
200
100
AcDbEntity
  8
0
  6
Continuous
 62
     7
100
AcDbSpline
210
0.0
220
0.0
230
1.0
 70
     8
 71
     3
 72
     9
 73
     5
 74
     0
 42
0.0000000001
 43
0.0000000001
 40
0.0
 40
0.0
 40
0.0
 40
0.0
 40
0.282255512
 40
1.0
 40
1.0
 40
1.0
 40
1.0
 10
9.567381322699999
 20
6.447588239664447
 30
0.0
 10
9.567713303599999
 20
6.447299064664447
 30
0.0
 10
9.568911873699999
 20
6.446301266264446
 30
0.0
 10
9.570190842
 20
6.445394906864447
 30
0.0
 10
9.571160366599999
 20
6.444835080964447
 30
0.0
  0
SPLINE
  5
40B
330
200
100
AcDbEntity
  8
0
  6
Continuous
 62
     7
100
AcDbSpline
210
0.0
220
0.0
230
1.0
 70
     8
 71
     3
 72
    11
 73
     7
 74
     0
 42
0.0000000001
 43
0.0000000001
 40
0.0
 40
0.0
 40
0.0
 40
0.0
 40
0.24796962
 40
0.4956275989
 40
0.7449443203000001
 40
1.0
 40
1.0
 40
1.0
 40
1.0
 10
9.6044100298
 20
6.404848277564448
 30
0.0
 10
9.6044113614
 20
6.408254828964448
 30
0.0
 10
9.6033262088
 20
6.415109043364447
 30
0.0
 10
9.5987244939
 20
6.424401311764447
 30
0.0
 10
9.591779643999998
 20
6.432190665364448
 30
0.0
 10
9.586075607099999
 20
6.436222676464447
 30
0.0
 10
9.583041237799999
 20
6.437974791364448
 30
0.0
  0
SPLINE
  5
40C
330
200
100
AcDbEntity
  8
0
  6
Continuous
 62
     7
100
AcDbSpline
210
0.0
220
0.0
230
1.0
 70
     8
 71
     3
 72
    11
 73
     7
 74
     0
 42
0.0000000001
 43
0.0000000001
 40
0.0
 40
0.0
 40
0.0
 40
0.0
 40
0.2177365568
 40
0.450870352
 40
0.7104497708
 40
1.0
 40
1.0
 40
1.0
 40
1.0
 10
8.765985265599999
 20
4.366751062464447
 30
0.0
 10
8.765336149899999
 20
4.366376311064447
 30
0.0
 10
8.7638451608
 20
4.365833375764447
 30
0.0
 10
8.7613664663
 20
4.365771286664448
 30
0.0
 10
8.758726107499999
 20
4.366410591764448
 30
0.0
 10
8.757007569199998
 20
4.367227192664447
 30
0.0
 10
8.7561443991
 20
4.367725607064447
 30
0.0
  0
SPLINE
  5
40D
330
200
100
AcDbEntity
  8
0
  6
Continuous
 62
     7
100
AcDbSpline
210
0.0
220
0.0
230
1.0
 70
     8
 71
     3
 72
    11
 73
     7
 74
     0
 42
0.0000000001
 43
0.0000000001
 40
0.0
 40
0.0
 40
0.0
 40
0.0
 40
0.2009929323
 40
0.4616869575
 40
0.7403437668000001
 40
1.0
 40
1.0
 40
1.0
 40
1.0
 10
9.201127170099999
 20
6.679279046264447
 30
0.0
 10
9.201127275800001
 20
6.677192734164448
 30
0.0
 10
9.2018978835
 20
6.672407794164447
 30
0.0
 10
9.204550406799999
 20
6.665157848264447
 30
0.0
 10
9.2087348688
 20
6.657949298664447
 30
0.0
 10
9.212364847199999
 20
6.653648127164447
 30
0.0
 10
9.2143199536
 20
6.651792899264448
 30
0.0
  0
SPLINE
  5
40E
330
200
100
AcDbEntity
  8
0
  6
Continuous
 62
     7
100
AcDbSpline
210
0.0
220
0.0
230
1.0
 70
     8
 71
     3
 72
     9
 73
     5
 74
     0
 42
0.0000000001
 43
0.0000000001
 40
0.0
 40
0.0
 40
0.0
 40
0.0
 40
0.282255512
 40
1.0
 40
1.0
 40
1.0
 40
1.0
 10
9.215345061399998
 20
6.650859923764446
 30
0.0
 10
9.215677042299999
 20
6.650570748664446
 30
0.0
 10
9.2168756124
 20
6.649572950264448
 30
0.0
 10
9.2181545807
 20
6.648666590864447
 30
0.0
 10
9.2191241053
 20
6.648106764964447
 30
0.0
  0
SPLINE
  5
40F
330
200
100
AcDbEntity
  8
0
  6
Continuous
 62
     7
100
AcDbSpline
210
0.0
220
0.0
230
1.0
 70
     8
 71
     3
 72
    11
 73
     7
 74
     0
 42
0.0000000001
 43
0.0000000001
 40
0.0
 40
0.0
 40
0.0
 40
0.0
 40
0.237261756
 40
0.5000106412
 40
0.7627537404000001
 40
1.0
 40
1.0
 40
1.0
 40
1.0
 10
8.895280661499999
 20
5.730590510064447
 30
0.0
 10
8.891327927
 20
5.728308483764447
 30
0.0
 10
8.8838477698
 20
5.722014127364447
 30
0.0
 10
8.8751208163
 20
5.710083706364447
 30
0.0
 10
8.869152150499999
 20
5.696561101764447
 30
0.0
 10
8.867441254800001
 20
5.686936279764447
 30
0.0
 10
8.867441486
 20
5.682372396264447
 30
0.0
  0
SPLINE
  5
410
330
200
100
AcDbEntity
  8
0
  6
Continuous
 62
     7
100
AcDbSpline
210
0.0
220
0.0
230
1.0
 70
     8
 71
     3
 72
     9
 73
     5
 74
     0
 42
0.0000000001
 43
0.0000000001
 40
0.0
 40
0.0
 40
0.0
 40
0.0
 40
0.5507750182
 40
1.0
 40
1.0
 40
1.0
 40
1.0
 10
8.867441811799999
 20
5.675943431464448
 30
0.0
 10
8.867441869
 20
5.674815600564447
 30
0.0
 10
8.8677158602
 20
5.672719904664447
 30
0.0
 10
8.869091502999999
 20
5.670997293464447
 30
0.0
 10
8.869888122999999
 20
5.670537309264448
 30
0.0
  0
SPLINE
  5
411
330
200
100
AcDbEntity
  8
0
  6
Continuous
 62
     7
100
AcDbSpline
210
0.0
220
0.0
230
1.0
 70
     8
 71
     3
 72
    11
 73
     7
 74
     0
 42
0.0000000001
 43
0.0000000001
 40
0.0
 40
0.0
 40
0.0
 40
0.0
 40
0.2372522124
 40
0.5000104751
 40
0.7627630372
 40
1.0
 40
1.0
 40
1.0
 40
1.0
 10
8.875783790899999
 20
5.883277809664447
 30
0.0
 10
8.8745980189
 20
5.882593229664447
 30
0.0
 10
8.8723542209
 20
5.880704703864448
 30
0.0
 10
8.8697353643
 20
5.877126044464447
 30
0.0
 10
8.8679455526
 20
5.873068828364447
 30
0.0
 10
8.8674319689
 20
5.870181486164447
 30
0.0
 10
8.8674320383
 20
5.868812375564448
 30
0.0
  0
SPLINE
  5
412
330
200
100
AcDbEntity
  8
0
  6
Continuous
 62
     7
100
AcDbSpline
210
0.0
220
0.0
230
1.0
 70
     8
 71
     3
 72
    11
 73
     7
 74
     0
 42
0.0000000001
 43
0.0000000001
 40
0.0
 40
0.0
 40
0.0
 40
0.0
 40
0.2895291791
 40
0.5491026834000001
 40
0.7822451254999999
 40
1.0
 40
1.0
 40
1.0
 40
1.0
 10
8.867432363999999
 20
5.862383410764447
 30
0.0
 10
8.8674324651
 20
5.860390038964448
 30
0.0
 10
8.867737038200001
 20
5.856596969764447
 30
0.0
 10
8.869270701599999
 20
5.851384608664447
 30
0.0
 10
8.871857464400001
 20
5.847153509964447
 30
0.0
 10
8.8742890539
 20
5.845113869264447
 30
0.0
 10
8.8755873721
 20
5.844364192864447
 30
0.0
  0
SPLINE
  5
413
330
200
100
AcDbEntity
  8
0
  6
Continuous
 62
     7
100
AcDbSpline
210
0.0
220
0.0
230
1.0
 70
     8
 71
     3
 72
    11
 73
     7
 74
     0
 42
0.0000000001
 43
0.0000000001
 40
0.0
 40
0.0
 40
0.0
 40
0.0
 40
0.237261756
 40
0.5000106412
 40
0.7627537404000001
 40
1.0
 40
1.0
 40
1.0
 40
1.0
 10
8.8953246425
 20
4.862680261664447
 30
0.0
 10
8.891371907999999
 20
4.860398235464447
 30
0.0
 10
8.8838917509
 20
4.854103879064447
 30
0.0
 10
8.8751647973
 20
4.842173458064447
 30
0.0
 10
8.869196131499998
 20
4.828650853364447
 30
0.0
 10
8.8674852358
 20
4.819026031364447
 30
0.0
 10
8.867485467099999
 20
4.814462147864447
 30
0.0
  0
SPLINE
  5
414
330
200
100
AcDbEntity
  8
0
  6
Continuous
 62
     7
100
AcDbSpline
210
0.0
220
0.0
230
1.0
 70
     8
 71
     3
 72
     9
 73
     5
 74
     0
 42
0.0000000001
 43
0.0000000001
 40
0.0
 40
0.0
 40
0.0
 40
0.0
 40
0.5507750182
 40
1.0
 40
1.0
 40
1.0
 40
1.0
 10
8.8674857929
 20
4.808033183064448
 30
0.0
 10
8.867485849999999
 20
4.806905352164447
 30
0.0
 10
8.867759841299999
 20
4.804809656264447
 30
0.0
 10
8.869135483999999
 20
4.803087045064447
 30
0.0
 10
8.869932104
 20
4.802627060964447
 30
0.0
  0
SPLINE
  5
415
330
200
100
AcDbEntity
  8
0
  6
Continuous
 62
     7
100
AcDbSpline
210
0.0
220
0.0
230
1.0
 70
     8
 71
     3
 72
    11
 73
     7
 74
     0
 42
0.0000000001
 43
0.0000000001
 40
0.0
 40
0.0
 40
0.0
 40
0.0
 40
0.2372522125
 40
0.5000104752000001
 40
0.7627630373000001
 40
1.0
 40
1.0
 40
1.0
 40
1.0
 10
8.8758277719
 20
5.015367561264447
 30
0.0
 10
8.874641999899999
 20
5.014682981364448
 30
0.0
 10
8.872398201900001
 20
5.012794455464447
 30
0.0
 10
8.869779345299999
 20
5.009215796164447
 30
0.0
 10
8.867989533599999
 20
5.005158580064447
 30
0.0
 10
8.867475949899999
 20
5.002271237864447
 30
0.0
 10
8.867476019299999
 20
5.000902127164447
 30
0.0
  0
SPLINE
  5
416
330
200
100
AcDbEntity
  8
0
  6
Continuous
 62
     7
100
AcDbSpline
210
0.0
220
0.0
230
1.0
 70
     8
 71
     3
 72
    11
 73
     7
 74
     0
 42
0.0000000001
 43
0.0000000001
 40
0.0
 40
0.0
 40
0.0
 40
0.0
 40
0.2895291791
 40
0.5491026834000001
 40
0.7822451256000001
 40
1.0
 40
1.0
 40
1.0
 40
1.0
 10
8.8674763451
 20
4.994473162364448
 30
0.0
 10
8.867476446099999
 20
4.992479790564448
 30
0.0
 10
8.867781019199998
 20
4.988686721464447
 30
0.0
 10
8.8693146826
 20
4.983474360264447
 30
0.0
 10
8.871901445399998
 20
4.979243261664447
 30
0.0
 10
8.874333034899999
 20
4.977203620864447
 30
0.0
 10
8.875631353200001
 20
4.976453944564447
 30
0.0
  0
SPLINE
  5
417
330
200
100
AcDbEntity
  8
0
  6
Continuous
 62
     7
100
AcDbSpline
210
0.0
220
0.0
230
1.0
 70
     8
 71
     3
 72
    11
 73
     7
 74
     0
 42
0.0000000001
 43
0.0000000001
 40
0.0
 40
0.0
 40
0.0
 40
0.0
 40
0.2177347385
 40
0.4508677428000001
 40
0.7104478372000001
 40
1.0
 40
1.0
 40
1.0
 40
1.0
 10
8.6565959548
 20
5.995243165164447
 30
0.0
 10
8.6572450972
 20
5.995617934964447
 30
0.0
 10
8.658460871299999
 20
5.996637719464447
 30
0.0
 10
8.6597540807
 20
5.998753375764447
 30
0.0
 10
8.660520666
 20
6.001359781764447
 30
0.0
 10
8.6606727549
 20
6.003256486464447
 30
0.0
 10
8.660672704400001
 20
6.004253278964448
 30
0.0
  0
SPLINE
  5
418
330
200
100
AcDbEntity
  8
0
  6
Continuous
 62
     7
100
AcDbSpline
210
0.0
220
0.0
230
1.0
 70
     8
 71
     3
 72
    11
 73
     7
 74
     0
 42
0.0000000001
 43
0.0000000001
 40
0.0
 40
0.0
 40
0.0
 40
0.0
 40
0.2351175622
 40
0.4789829046
 40
0.7343350347
 40
1.0
 40
1.0
 40
1.0
 40
1.0
 10
9.5056398644
 20
6.524301624764447
 30
0.0
 10
9.5066293657
 20
6.524872892064447
 30
0.0
 10
9.50888576
 20
6.525654008664447
 30
0.0
 10
9.5125037671
 20
6.525643894464447
 30
0.0
 10
9.516126172499999
 20
6.524687149964447
 30
0.0
 10
9.518418249599999
 20
6.523580439664447
 30
0.0
 10
9.519537078799999
 20
6.522936283164447
 30
0.0
  0
SPLINE
  5
419
330
200
100
AcDbEntity
  8
0
  6
Continuous
 62
     7
100
AcDbSpline
210
0.0
220
0.0
230
1.0
 70
     8
 71
     3
 72
    11
 73
     7
 74
     0
 42
0.0000000001
 43
0.0000000001
 40
0.0
 40
0.0
 40
0.0
 40
0.0
 40
0.2177730285
 40
0.4508951262
 40
0.7102847079000001
 40
1.0
 40
1.0
 40
1.0
 40
1.0
 10
8.709086046499999
 20
6.271813702064447
 30
0.0
 10
8.7110338577
 20
6.272938228964448
 30
0.0
 10
8.714678132399999
 20
6.276002048564447
 30
0.0
 10
8.7185576611
 20
6.282345994864447
 30
0.0
 10
8.720861645299999
 20
6.290164209264448
 30
0.0
 10
8.721314963999999
 20
6.295854539264447
 30
0.0
 10
8.721314812399999
 20
6.298846662364447
 30
0.0
  0
SPLINE
  5
41A
330
200
100
AcDbEntity
  8
0
  6
Continuous
 62
     7
100
AcDbSpline
210
0.0
220
0.0
230
1.0
 70
     8
 71
     3
 72
    11
 73
     7
 74
     0
 42
0.0000000001
 43
0.0000000001
 40
0.0
 40
0.0
 40
0.0
 40
0.0
 40
0.2372444983
 40
0.4999875992
 40
0.762737446
 40
1.0
 40
1.0
 40
1.0
 40
1.0
 10
8.3107386412
 20
5.017069798764447
 30
0.0
 10
8.3146909172
 20
5.014787663164447
 30
0.0
 10
8.323881637799999
 20
5.011456919364447
 30
0.0
 10
8.338576818299999
 20
5.009864502164447
 30
0.0
 10
8.3532723617
 20
5.011456809464447
 30
0.0
 10
8.3624636015
 20
5.014787393564447
 30
0.0
 10
8.366416340299998
 20
5.017069422264447
 30
0.0
  0
SPLINE
  5
41B
330
200
100
AcDbEntity
  8
0
  6
Continuous
 62
     7
100
AcDbSpline
210
0.0
220
0.0
230
1.0
 70
     8
 71
     3
 72
    11
 73
     7
 74
     0
 42
0.0000000001
 43
0.0000000001
 40
0.0
 40
0.0
 40
0.0
 40
0.0
 40
0.2177827211
 40
0.4509167910000001
 40
0.7103037976000001
 40
1.0
 40
1.0
 40
1.0
 40
1.0
 10
10.0944488583
 20
5.925984946064446
 30
0.0
 10
10.0944482064
 20
5.923735671964447
 30
0.0
 10
10.0936157296
 20
5.919047668264447
 30
0.0
 10
10.0900604482
 20
5.912516139064448
 30
0.0
 10
10.0844414484
 20
5.906611850164448
 30
0.0
 10
10.0797402569
 20
5.903374094864447
 30
0.0
 10
10.0771490832
 20
5.901878136564447
 30
0.0
  0
SPLINE
  5
41C
330
200
100
AcDbEntity
  8
0
  6
Continuous
 62
     7
100
AcDbSpline
210
0.0
220
0.0
230
1.0
 70
     8
 71
     3
 72
     9
 73
     5
 74
     0
 42
0.0000000001
 43
0.0000000001
 40
0.0
 40
0.0
 40
0.0
 40
0.0
 40
0.4492109207000001
 40
1.0
 40
1.0
 40
1.0
 40
1.0
 10
8.869932104
 20
4.802627060964447
 30
0.0
 10
8.870728898099999
 20
4.802166976264447
 30
0.0
 10
8.8729091361
 20
4.801836815364447
 30
0.0
 10
8.8748615145
 20
4.802647668064447
 30
0.0
 10
8.8758385228
 20
4.803211722864448
 30
0.0
  0
SPLINE
  5
41D
330
200
100
AcDbEntity
  8
0
  6
Continuous
 62
     7
100
AcDbSpline
210
0.0
220
0.0
230
1.0
 70
     8
 71
     3
 72
    11
 73
     7
 74
     0
 42
0.0000000001
 43
0.0000000001
 40
0.0
 40
0.0
 40
0.0
 40
0.0
 40
0.2895502513
 40
0.5491298513000001
 40
0.7822635759000001
 40
1.0
 40
1.0
 40
1.0
 40
1.0
 10
8.646755071699999
 20
5.996217699964446
 30
0.0
 10
8.6476182434
 20
5.995719284664447
 30
0.0
 10
8.649336786
 20
5.994902683164447
 30
0.0
 10
8.651977150499998
 20
5.994263377364447
 30
0.0
 10
8.654455849499999
 20
5.994325471564447
 30
0.0
 10
8.6559468397
 20
5.994868410964447
 30
0.0
 10
8.6565959548
 20
5.995243165164447
 30
0.0
  0
SPLINE
  5
41E
330
200
100
AcDbEntity
  8
0
  6
Continuous
 62
     7
100
AcDbSpline
210
0.0
220
0.0
230
1.0
 70
     8
 71
     3
 72
    11
 73
     7
 74
     0
 42
0.0000000001
 43
0.0000000001
 40
0.0
 40
0.0
 40
0.0
 40
0.0
 40
0.2372527648
 40
0.5000022623
 40
0.7627505306999999
 40
1.0
 40
1.0
 40
1.0
 40
1.0
 10
8.702428046499999
 20
5.980144967564448
 30
0.0
 10
8.7024281621
 20
5.977862994264447
 30
0.0
 10
8.703283930799999
 20
5.973050615264448
 30
0.0
 10
8.706268309299998
 20
5.966289339564447
 30
0.0
 10
8.710631455499999
 20
5.960324119564447
 30
0.0
 10
8.714371151399999
 20
5.957176800964447
 30
0.0
 10
8.716347308499999
 20
5.956035722264447
 30
0.0
  0
SPLINE
  5
41F
330
200
100
AcDbEntity
  8
0
  6
Continuous
 62
     7
100
AcDbSpline
210
0.0
220
0.0
230
1.0
 70
     8
 71
     3
 72
    11
 73
     7
 74
     0
 42
0.0000000001
 43
0.0000000001
 40
0.0
 40
0.0
 40
0.0
 40
0.0
 40
0.2372497144
 40
0.4999980721
 40
0.7627474802
 40
1.0
 40
1.0
 40
1.0
 40
1.0
 10
8.756065074
 20
5.933101766764448
 30
0.0
 10
8.7580412331
 20
5.931960686864448
 30
0.0
 10
8.7617809311
 20
5.928813365464447
 30
0.0
 10
8.766144077199999
 20
5.922848142564448
 30
0.0
 10
8.769128453099998
 20
5.916086868164447
 30
0.0
 10
8.769984220399999
 20
5.911274492464447
 30
0.0
 10
8.7699843361
 20
5.908992521464448
 30
0.0
  0
SPLINE
  5
420
330
200
100
AcDbEntity
  8
0
  6
Continuous
 62
     7
100
AcDbSpline
210
0.0
220
0.0
230
1.0
 70
     8
 71
     3
 72
    11
 73
     7
 74
     0
 42
0.0000000001
 43
0.0000000001
 40
0.0
 40
0.0
 40
0.0
 40
0.0
 40
0.2895521847
 40
0.5491324606
 40
0.7822653943000001
 40
1.0
 40
1.0
 40
1.0
 40
1.0
 10
8.770062032
 20
4.375761185964447
 30
0.0
 10
8.770062082599999
 20
4.374764391564447
 30
0.0
 10
8.7699099919
 20
4.372867682864447
 30
0.0
 10
8.769143404500001
 20
4.370261271564447
 30
0.0
 10
8.7678501883
 20
4.368145613864447
 30
0.0
 10
8.766634410099999
 20
4.367125830564448
 30
0.0
 10
8.765985265599999
 20
4.366751062464447
 30
0.0
  0
SPLINE
  5
421
330
200
100
AcDbEntity
  8
0
  6
Continuous
 62
     7
100
AcDbSpline
210
0.0
220
0.0
230
1.0
 70
     8
 71
     3
 72
    11
 73
     7
 74
     0
 42
0.0000000001
 43
0.0000000001
 40
0.0
 40
0.0
 40
0.0
 40
0.0
 40
0.2895502514
 40
0.5491298511
 40
0.7822635756000001
 40
1.0
 40
1.0
 40
1.0
 40
1.0
 10
8.294718810299999
 20
6.199493759964447
 30
0.0
 10
8.295581982099999
 20
6.198995344664447
 30
0.0
 10
8.2973005247
 20
6.198178743264447
 30
0.0
 10
8.2999408891
 20
6.197539437364447
 30
0.0
 10
8.302419587999999
 20
6.197601531664448
 30
0.0
 10
8.3039105782
 20
6.198144471064447
 30
0.0
 10
8.304559693399999
 20
6.198519225264448
 30
0.0
  0
SPLINE
  5
422
330
200
100
AcDbEntity
  8
0
  6
Continuous
 62
     7
100
AcDbSpline
210
0.0
220
0.0
230
1.0
 70
     8
 71
     3
 72
    11
 73
     7
 74
     0
 42
0.0000000001
 43
0.0000000001
 40
0.0
 40
0.0
 40
0.0
 40
0.0
 40
0.2372527648
 40
0.5000022621
 40
0.7627505305
 40
1.0
 40
1.0
 40
1.0
 40
1.0
 10
8.350391785199999
 20
6.183416651464447
 30
0.0
 10
8.3503919008
 20
6.181134678164447
 30
0.0
 10
8.351247669600001
 20
6.176322299164447
 30
0.0
 10
8.3542320481
 20
6.169561023564447
 30
0.0
 10
8.358595194199999
 20
6.163595803564446
 30
0.0
 10
8.362334890099999
 20
6.160448485064447
 30
0.0
 10
8.364311047100001
 20
6.159307406264447
 30
0.0
  0
SPLINE
  5
423
330
200
100
AcDbEntity
  8
0
  6
Continuous
 62
     7
100
AcDbSpline
210
0.0
220
0.0
230
1.0
 70
     8
 71
     3
 72
    11
 73
     7
 74
     0
 42
0.0000000001
 43
0.0000000001
 40
0.0
 40
0.0
 40
0.0
 40
0.0
 40
0.2895383356
 40
0.5491108536000001
 40
0.7822526490000001
 40
1.0
 40
1.0
 40
1.0
 40
1.0
 10
9.195360578099998
 20
6.671241215564447
 30
0.0
 10
9.196224003799999
 20
6.671739695864447
 30
0.0
 10
9.1977908657
 20
6.672820003464447
 30
0.0
 10
9.199665111899999
 20
6.674787634264447
 30
0.0
 10
9.200850996699999
 20
6.676966006764447
 30
0.0
 10
9.201126292699999
 20
6.678529260664447
 30
0.0
 10
9.2011262555
 20
6.679279046164447
 30
0.0
  0
SPLINE
  5
424
330
200
100
AcDbEntity
  8
0
  6
Continuous
 62
     7
100
AcDbSpline
210
0.0
220
0.0
230
1.0
 70
     8
 71
     3
 72
    11
 73
     7
 74
     0
 42
0.0000000001
 43
0.0000000001
 40
0.0
 40
0.0
 40
0.0
 40
0.0
 40
0.2372438436
 40
0.4999979056
 40
0.7627531067000001
 40
1.0
 40
1.0
 40
1.0
 40
1.0
 10
9.2092798399
 20
6.647131970464448
 30
0.0
 10
9.207303725900001
 20
6.648273024464447
 30
0.0
 10
9.203563970499999
 20
6.651420274464447
 30
0.0
 10
9.1992007186
 20
6.657385521764448
 30
0.0
 10
9.196216372
 20
6.664146901364448
 30
0.0
 10
9.195360693699999
 20
6.668959294364447
 30
0.0
 10
9.195360578099998
 20
6.671241215564447
 30
0.0
  0
LINE
  5
425
330
200
100
AcDbEntity
  8
0
  6
Continuous
 62
     7
100
AcDbLine
 10
9.1953589427
 20
6.703512736964447
 30
0.0
 11
9.201125840199999
 21
6.706793680864447
 31
0.0
  0
SPLINE
  5
426
330
200
100
AcDbEntity
  8
0
  6
Continuous
 62
     7
100
AcDbSpline
210
0.0
220
0.0
230
1.0
 70
     8
 71
     3
 72
    11
 73
     7
 74
     0
 42
0.0000000001
 43
0.0000000001
 40
0.0
 40
0.0
 40
0.0
 40
0.0
 40
0.2177507287
 40
0.4508941044000001
 40
0.7104654926000001
 40
1.0
 40
1.0
 40
1.0
 40
1.0
 10
9.571159909299998
 20
6.444834288964448
 30
0.0
 10
9.570510589099999
 20
6.445209220664447
 30
0.0
 10
9.5690191253
 20
6.445752457464447
 30
0.0
 10
9.5665396595
 20
6.445814709664447
 30
0.0
 10
9.563898520499998
 20
6.445175476364448
 30
0.0
 10
9.5621795114
 20
6.444358757764447
 30
0.0
 10
9.561316101199999
 20
6.443860286464448
 30
0.0
  0
SPLINE
  5
427
330
200
100
AcDbEntity
  8
0
  6
Continuous
 62
     7
100
AcDbSpline
210
0.0
220
0.0
230
1.0
 70
     8
 71
     3
 72
    11
 73
     7
 74
     0
 42
0.0000000001
 43
0.0000000001
 40
0.0
 40
0.0
 40
0.0
 40
0.0
 40
0.2177827211
 40
0.4509167910000001
 40
0.7103037976000001
 40
1.0
 40
1.0
 40
1.0
 40
1.0
 10
9.604412099799999
 20
6.404850605364448
 30
0.0
 10
9.6044114478
 20
6.402601331264446
 30
0.0
 10
9.603578971000001
 20
6.397913327464447
 30
0.0
 10
9.6000236896
 20
6.391381798264447
 30
0.0
 10
9.594404689800001
 20
6.385477509364447
 30
0.0
 10
9.5897034983
 20
6.382239754164447
 30
0.0
 10
9.587112324599999
 20
6.380743795764447
 30
0.0
  0
SPLINE
  5
428
330
200
100
AcDbEntity
  8
0
  6
Continuous
 62
     7
100
AcDbSpline
210
0.0
220
0.0
230
1.0
 70
     8
 71
     3
 72
    11
 73
     7
 74
     0
 42
0.0000000001
 43
0.0000000001
 40
0.0
 40
0.0
 40
0.0
 40
0.0
 40
0.2177395529
 40
0.4508773613
 40
0.7104521375
 40
1.0
 40
1.0
 40
1.0
 40
1.0
 10
10.0731115142
 20
5.121392080464447
 30
0.0
 10
10.0737606793
 20
5.121766862064447
 30
0.0
 10
10.0749764894
 20
5.122786697864447
 30
0.0
 10
10.0762696273
 20
5.124902448864447
 30
0.0
 10
10.0770362007
 20
5.127508870964447
 30
0.0
 10
10.077188228
 20
5.129405570664447
 30
0.0
 10
10.0771881775
 20
5.130402360264447
 30
0.0
  0
SPLINE
  5
429
330
200
100
AcDbEntity
  8
0
  6
Continuous
 62
     7
100
AcDbSpline
210
0.0
220
0.0
230
1.0
 70
     8
 71
     3
 72
    11
 73
     7
 74
     0
 42
0.0000000001
 43
0.0000000001
 40
0.0
 40
0.0
 40
0.0
 40
0.0
 40
0.2177365571
 40
0.4508703522000001
 40
0.7104497706
 40
1.0
 40
1.0
 40
1.0
 40
1.0
 10
8.245160102299999
 20
6.223402304064448
 30
0.0
 10
8.245809217899999
 20
6.223777055464448
 30
0.0
 10
8.247300207
 20
6.224319990764447
 30
0.0
 10
8.249778901399999
 20
6.224382079864446
 30
0.0
 10
8.252419260199999
 20
6.223742774864446
 30
0.0
 10
8.2541377984
 20
6.222926173964448
 30
0.0
 10
8.2550009685
 20
6.222427759564447
 30
0.0
  0
SPLINE
  5
42A
330
200
100
AcDbEntity
  8
0
  6
Continuous
 62
     7
100
AcDbSpline
210
0.0
220
0.0
230
1.0
 70
     8
 71
     3
 72
    11
 73
     7
 74
     0
 42
0.0000000001
 43
0.0000000001
 40
0.0
 40
0.0
 40
0.0
 40
0.0
 40
0.2177459164
 40
0.4508844734000001
 40
0.7104611741
 40
1.0
 40
1.0
 40
1.0
 40
1.0
 10
8.8755873721
 20
5.844364192864447
 30
0.0
 10
8.876885969499999
 20
5.843614355364447
 30
0.0
 10
8.8798687729
 20
5.842527889964447
 30
0.0
 10
8.8848276151
 20
5.842403164664447
 30
0.0
 10
8.890109880299998
 20
5.843681593864448
 30
0.0
 10
8.8935479708
 20
5.845314930264447
 30
0.0
 10
8.8952747973
 20
5.846311876464447
 30
0.0
  0
SPLINE
  5
42B
330
200
100
AcDbEntity
  8
0
  6
Continuous
 62
     7
100
AcDbSpline
210
0.0
220
0.0
230
1.0
 70
     8
 71
     3
 72
    11
 73
     7
 74
     0
 42
0.0000000001
 43
0.0000000001
 40
0.0
 40
0.0
 40
0.0
 40
0.0
 40
0.2177507288
 40
0.4508941044000001
 40
0.7104654926000001
 40
1.0
 40
1.0
 40
1.0
 40
1.0
 10
9.219123648
 20
6.648105973064447
 30
0.0
 10
9.218474327799999
 20
6.648480904764447
 30
0.0
 10
9.216982864
 20
6.649024141464447
 30
0.0
 10
9.214503398199999
 20
6.649086393664447
 30
0.0
 10
9.2118622592
 20
6.648447160464447
 30
0.0
 10
9.210143250099999
 20
6.647630441864447
 30
0.0
 10
9.2092798399
 20
6.647131970464448
 30
0.0
  0
SPLINE
  5
42C
330
200
100
AcDbEntity
  8
0
  6
Continuous
 62
     7
100
AcDbSpline
210
0.0
220
0.0
230
1.0
 70
     8
 71
     3
 72
     9
 73
     5
 74
     0
 42
0.0000000001
 43
0.0000000001
 40
0.0
 40
0.0
 40
0.0
 40
0.0
 40
0.4492109207000001
 40
1.0
 40
1.0
 40
1.0
 40
1.0
 10
8.869888122999999
 20
5.670537309264448
 30
0.0
 10
8.870684917
 20
5.670077224564447
 30
0.0
 10
8.872865155099999
 20
5.669747063764447
 30
0.0
 10
8.874817533499999
 20
5.670557916364447
 30
0.0
 10
8.875794541799999
 20
5.671121971164446
 30
0.0
  0
SPLINE
  5
42D
330
200
100
AcDbEntity
  8
0
  6
Continuous
 62
     7
100
AcDbSpline
210
0.0
220
0.0
230
1.0
 70
     8
 71
     3
 72
    11
 73
     7
 74
     0
 42
0.0000000001
 43
0.0000000001
 40
0.0
 40
0.0
 40
0.0
 40
0.0
 40
0.2895345074
 40
0.5491058956
 40
0.7822492713
 40
1.0
 40
1.0
 40
1.0
 40
1.0
 10
9.573196972499999
 20
6.436999996864448
 30
0.0
 10
9.574060382599999
 20
6.437498468164447
 30
0.0
 10
9.575779391699999
 20
6.438315186864447
 30
0.0
 10
9.5784205307
 20
6.438954420064447
 30
0.0
 10
9.580899996599999
 20
6.438892167864447
 30
0.0
 10
9.5823914604
 20
6.438348931064447
 30
0.0
 10
9.583040780499999
 20
6.437973999364447
 30
0.0
  0
SPLINE
  5
42E
330
200
100
AcDbEntity
  8
0
  6
Continuous
 62
     7
100
AcDbSpline
210
0.0
220
0.0
230
1.0
 70
     8
 71
     3
 72
    11
 73
     7
 74
     0
 42
0.0000000001
 43
0.0000000001
 40
0.0
 40
0.0
 40
0.0
 40
0.0
 40
0.2372469132
 40
0.5000021335
 40
0.7627562199
 40
1.0
 40
1.0
 40
1.0
 40
1.0
 10
9.587112324599999
 20
6.380743795764447
 30
0.0
 10
9.587112208999998
 20
6.383025717164447
 30
0.0
 10
9.5862565306
 20
6.387838110564447
 30
0.0
 10
9.5832721837
 20
6.394599490664448
 30
0.0
 10
9.578908931499999
 20
6.400564737564447
 30
0.0
 10
9.575169176399999
 20
6.403711987264447
 30
0.0
 10
9.573193062799999
 20
6.404853040864447
 30
0.0
  0
SPLINE
  5
42F
330
200
100
AcDbEntity
  8
0
  6
Continuous
 62
     7
100
AcDbSpline
210
0.0
220
0.0
230
1.0
 70
     8
 71
     3
 72
    11
 73
     7
 74
     0
 42
0.0000000001
 43
0.0000000001
 40
0.0
 40
0.0
 40
0.0
 40
0.0
 40
0.2895383356
 40
0.5491108536000001
 40
0.7822526490000001
 40
1.0
 40
1.0
 40
1.0
 40
1.0
 10
9.547396839400001
 20
6.467969531764447
 30
0.0
 10
9.548260265099999
 20
6.468468012064447
 30
0.0
 10
9.549827127
 20
6.469548319564447
 30
0.0
 10
9.5517013732
 20
6.471515950464447
 30
0.0
 10
9.5528872581
 20
6.473694322964448
 30
0.0
 10
9.5531625541
 20
6.475257576764447
 30
0.0
 10
9.553162516799998
 20
6.476007362364446
 30
0.0
  0
SPLINE
  5
430
330
200
100
AcDbEntity
  8
0
  6
Continuous
 62
     7
100
AcDbSpline
210
0.0
220
0.0
230
1.0
 70
     8
 71
     3
 72
    11
 73
     7
 74
     0
 42
0.0000000001
 43
0.0000000001
 40
0.0
 40
0.0
 40
0.0
 40
0.0
 40
0.2372438435
 40
0.4999979056
 40
0.7627531067000001
 40
1.0
 40
1.0
 40
1.0
 40
1.0
 10
9.561316101199999
 20
6.443860286464448
 30
0.0
 10
9.559339987199999
 20
6.445001340364448
 30
0.0
 10
9.555600231799999
 20
6.448148590364447
 30
0.0
 10
9.5512369799
 20
6.454113837764448
 30
0.0
 10
9.5482526333
 20
6.460875217264447
 30
0.0
 10
9.547396954999999
 20
6.465687610364447
 30
0.0
 10
9.547396839400001
 20
6.467969531564447
 30
0.0
  0
LINE
  5
431
330
200
100
AcDbEntity
  8
0
  6
Continuous
 62
     7
100
AcDbLine
 10
9.547395206599999
 20
6.500191125364447
 30
0.0
 11
9.553162156299999
 21
6.503520384264447
 31
0.0
  0
SPLINE
  5
432
330
200
100
AcDbEntity
  8
0
  6
Continuous
 62
     7
100
AcDbSpline
210
0.0
220
0.0
230
1.0
 70
     8
 71
     3
 72
    13
 73
     9
 74
     0
 42
0.0000000001
 43
0.0000000001
 40
0.0
 40
0.0
 40
0.0
 40
0.0
 40
0.1029232118
 40
0.2158189793
 40
0.3375999042
 40
0.4664050456
 40
0.7348999198000001
 40
1.0
 40
1.0
 40
1.0
 40
1.0
 10
9.924410474
 20
6.123509263464447
 30
0.0
 10
9.9311514434
 20
6.121389632664448
 30
0.0
 10
9.944847304400001
 20
6.115493759064448
 30
0.0
 10
9.964475808999999
 20
6.103029307564447
 30
0.0
 10
9.9836179912
 20
6.086911560264447
 30
0.0
 10
10.0080299329
 20
6.060855259164448
 30
0.0
 10
10.033573907
 20
6.022832443964448
 30
0.0
 10
10.0477350468
 20
5.988706443064447
 30
0.0
 10
10.052726749
 20
5.971203437964447
 30
0.0
  0
SPLINE
  5
433
330
200
100
AcDbEntity
  8
0
  6
Continuous
 62
     7
100
AcDbSpline
210
0.0
220
0.0
230
1.0
 70
     8
 71
     3
 72
    11
 73
     7
 74
     0
 42
0.0000000001
 43
0.0000000001
 40
0.0
 40
0.0
 40
0.0
 40
0.0
 40
0.2897027565
 40
0.5490878869
 40
0.7822166737999999
 40
1.0
 40
1.0
 40
1.0
 40
1.0
 10
10.0771881775
 20
5.130402360264447
 30
0.0
 10
10.0797799622
 20
5.131898671364447
 30
0.0
 10
10.0844821546
 20
5.135137239164447
 30
0.0
 10
10.0901019076
 20
5.141043267964447
 30
0.0
 10
10.0936568001
 20
5.147576824464447
 30
0.0
 10
10.09448807
 20
5.152266092164447
 30
0.0
 10
10.0944879534
 20
5.154515852164447
 30
0.0
  0
SPLINE
  5
434
330
200
100
AcDbEntity
  8
0
  6
Continuous
 62
     7
100
AcDbSpline
210
0.0
220
0.0
230
1.0
 70
     8
 71
     3
 72
    11
 73
     7
 74
     0
 42
0.0000000001
 43
0.0000000001
 40
0.0
 40
0.0
 40
0.0
 40
0.0
 40
0.2895344801
 40
0.5491058048
 40
0.7822492268000002
 40
1.0
 40
1.0
 40
1.0
 40
1.0
 10
10.063233731
 20
5.958134337564448
 30
0.0
 10
10.0640971411
 20
5.958632808864448
 30
0.0
 10
10.0658161497
 20
5.959449527764448
 30
0.0
 10
10.0684572887
 20
5.960088760364447
 30
0.0
 10
10.0709367546
 20
5.960026508764447
 30
0.0
 10
10.0724282188
 20
5.959483271864447
 30
0.0
 10
10.0730775391
 20
5.959108340164448
 30
0.0
  0
SPLINE
  5
435
330
200
100
AcDbEntity
  8
0
  6
Continuous
 62
     7
100
AcDbSpline
210
0.0
220
0.0
230
1.0
 70
     8
 71
     3
 72
    11
 73
     7
 74
     0
 42
0.0000000001
 43
0.0000000001
 40
0.0
 40
0.0
 40
0.0
 40
0.0
 40
0.2372804807
 40
0.5000731966
 40
0.7628239885000001
 40
1.0
 40
1.0
 40
1.0
 40
1.0
 10
10.0771490832
 20
5.901878136564447
 30
0.0
 10
10.0771489675
 20
5.904161856064447
 30
0.0
 10
10.076291984
 20
5.908978033464447
 30
0.0
 10
10.0733036836
 20
5.915743679064448
 30
0.0
 10
10.0689354035
 20
5.921710846264446
 30
0.0
 10
10.0651914695
 20
5.924857350664447
 30
0.0
 10
10.0632134835
 20
5.925996804464447
 30
0.0
  0
SPLINE
  5
436
330
200
100
AcDbEntity
  8
0
  6
Continuous
 62
     7
100
AcDbSpline
210
0.0
220
0.0
230
1.0
 70
     8
 71
     3
 72
     9
 73
     5
 74
     0
 42
0.0000000001
 43
0.0000000001
 40
0.0
 40
0.0
 40
0.0
 40
0.0
 40
0.2636406342
 40
1.0
 40
1.0
 40
1.0
 40
1.0
 10
9.894446041
 20
5.907711319264447
 30
0.0
 10
9.894688976799999
 20
5.907851572964448
 30
0.0
 10
9.895594868599999
 20
5.908409403764447
 30
0.0
 10
9.8964373367
 20
5.909075328464447
 30
0.0
 10
9.896991513099999
 20
5.909629176264447
 30
0.0
  0
SPLINE
  5
437
330
200
100
AcDbEntity
  8
0
  6
Continuous
 62
     7
100
AcDbSpline
210
0.0
220
0.0
230
1.0
 70
     8
 71
     3
 72
     9
 73
     5
 74
     0
 42
0.0000000001
 43
0.0000000001
 40
0.0
 40
0.0
 40
0.0
 40
0.0
 40
0.2620006675
 40
1.0
 40
1.0
 40
1.0
 40
1.0
 10
10.0632324351
 20
5.958135085864447
 30
0.0
 10
10.0637830735
 20
5.957817134564447
 30
0.0
 10
10.0658520964
 20
5.956549178764447
 30
0.0
 10
10.0677891551
 20
5.955056382764448
 30
0.0
 10
10.0690849546
 20
5.953819978164447
 30
0.0
  0
SPLINE
  5
438
330
200
100
AcDbEntity
  8
0
  6
Continuous
 62
     7
100
AcDbSpline
210
0.0
220
0.0
230
1.0
 70
     8
 71
     3
 72
    12
 73
     8
 74
     0
 42
0.0000000001
 43
0.0000000001
 40
0.0
 40
0.0
 40
0.0
 40
0.0
 40
0.2429971011
 40
0.3553810673
 40
0.4677474175
 40
0.7105874853000001
 40
1.0
 40
1.0
 40
1.0
 40
1.0
 10
10.0704912933
 20
5.952359480664447
 30
0.0
 10
10.0721944221
 20
5.950425955864447
 30
0.0
 10
10.0742377519
 20
5.947046715164447
 30
0.0
 10
10.0749239719
 20
5.942079124364448
 30
0.0
 10
10.0742476379
 20
5.937103901464448
 30
0.0
 10
10.0705784682
 20
5.931022248664446
 30
0.0
 10
10.0659727246
 20
5.927589804064448
 30
0.0
 10
10.063315014
 20
5.926055431964448
 30
0.0
  0
SPLINE
  5
439
330
200
100
AcDbEntity
  8
0
  6
Continuous
 62
     7
100
AcDbSpline
210
0.0
220
0.0
230
1.0
 70
     8
 71
     3
 72
    14
 73
    10
 74
     0
 42
0.0000000001
 43
0.0000000001
 40
0.0
 40
0.0
 40
0.0
 40
0.0
 40
0.275880889
 40
0.4103830224000001
 40
0.5409460497000001
 40
0.6668666107
 40
0.7874813440999999
 40
0.8999526309
 40
1.0
 40
1.0
 40
1.0
 40
1.0
 10
9.832150010199999
 20
5.760433189664447
 30
0.0
 10
9.834707506399999
 20
5.763614652664448
 30
0.0
 10
9.8381188099
 20
5.768666865964447
 30
0.0
 10
9.8420855929
 20
5.775617932964447
 30
0.0
 10
9.844720856799998
 20
5.780772320664447
 30
0.0
 10
9.846848226599998
 20
5.785940723864448
 30
0.0
 10
9.848315408699999
 20
5.791057216064447
 30
0.0
 10
9.849220408899999
 20
5.795907025864447
 30
0.0
 10
9.849503940199999
 20
5.799049205264448
 30
0.0
 10
9.849509562999999
 20
5.800529509264447
 30
0.0
  0
SPLINE
  5
43A
330
200
100
AcDbEntity
  8
0
  6
Continuous
 62
     7
100
AcDbSpline
210
0.0
220
0.0
230
1.0
 70
     8
 71
     3
 72
    11
 73
     7
 74
     0
 42
0.0000000001
 43
0.0000000001
 40
0.0
 40
0.0
 40
0.0
 40
0.0
 40
0.2895345071
 40
0.5491058953
 40
0.782249271
 40
1.0
 40
1.0
 40
1.0
 40
1.0
 10
9.818217548799999
 20
6.154210039764447
 30
0.0
 10
9.819080958999998
 20
6.154708511064447
 30
0.0
 10
9.820799968099999
 20
6.155525229664447
 30
0.0
 10
9.8234411071
 20
6.156164462864447
 30
0.0
 10
9.825920572899999
 20
6.156102210764447
 30
0.0
 10
9.8274120367
 20
6.155558973964447
 30
0.0
 10
9.828061356900001
 20
6.155184042264447
 30
0.0
  0
SPLINE
  5
43B
330
200
100
AcDbEntity
  8
0
  6
Continuous
 62
     7
100
AcDbSpline
210
0.0
220
0.0
230
1.0
 70
     8
 71
     3
 72
    11
 73
     7
 74
     0
 42
0.0000000001
 43
0.0000000001
 40
0.0
 40
0.0
 40
0.0
 40
0.0
 40
0.2372805009
 40
0.5000732361
 40
0.7628240524
 40
1.0
 40
1.0
 40
1.0
 40
1.0
 10
9.832132901099999
 20
6.097953838664447
 30
0.0
 10
9.832132785299998
 20
6.100237558464447
 30
0.0
 10
9.8312758017
 20
6.105053736264447
 30
0.0
 10
9.8282875009
 20
6.111819382364447
 30
0.0
 10
9.823919220499998
 20
6.117786549064447
 30
0.0
 10
9.820175286799999
 20
6.120933053164447
 30
0.0
 10
9.818197301299999
 20
6.122072506564448
 30
0.0
  0
SPLINE
  5
43C
330
200
100
AcDbEntity
  8
0
  6
Continuous
 62
     7
100
AcDbSpline
210
0.0
220
0.0
230
1.0
 70
     8
 71
     3
 72
    15
 73
    11
 74
     0
 42
0.0000000001
 43
0.0000000001
 40
0.0
 40
0.0
 40
0.0
 40
0.0
 40
0.0908355661
 40
0.1917500985
 40
0.3047762495
 40
0.4297327839000001
 40
0.5648599700000001
 40
0.7073260039
 40
0.85364357
 40
1.0
 40
1.0
 40
1.0
 40
1.0
 10
9.8964824299
 20
5.909825567964447
 30
0.0
 10
9.902514769099999
 20
5.916326820364448
 30
0.0
 10
9.912935366699999
 20
5.932285893164447
 30
0.0
 10
9.921957933799999
 20
5.960920350164448
 30
0.0
 10
9.9250285953
 20
5.994070356564447
 30
0.0
 10
9.922125991399999
 20
6.030529766764447
 30
0.0
 10
9.913413915499999
 20
6.068975013264447
 30
0.0
 10
9.899227511399999
 20
6.107964655464448
 30
0.0
 10
9.8801156962
 20
6.146006814964446
 30
0.0
 10
9.8644344663
 20
6.169984804264448
 30
0.0
 10
9.8559216682
 20
6.181461955964447
 30
0.0
  0
SPLINE
  5
43D
330
200
100
AcDbEntity
  8
0
  6
Continuous
 62
     7
100
AcDbSpline
210
0.0
220
0.0
230
1.0
 70
     8
 71
     3
 72
    15
 73
    11
 74
     0
 42
0.0000000001
 43
0.0000000001
 40
0.0
 40
0.0
 40
0.0
 40
0.0
 40
0.156985267
 40
0.3075472209
 40
0.4491230781000001
 40
0.5799656183
 40
0.6991889472000001
 40
0.8072335429999998
 40
0.9061879922999999
 40
1.0
 40
1.0
 40
1.0
 40
1.0
 10
9.8559216682
 20
6.181461955964447
 30
0.0
 10
9.8487433624
 20
6.191139914264447
 30
0.0
 10
9.8337211536
 20
6.209413822664448
 30
0.0
 10
9.8090522665
 20
6.233593256364447
 30
0.0
 10
9.7832601307
 20
6.253455844564447
 30
0.0
 10
9.757070248499999
 20
6.268434806864448
 30
0.0
 10
9.7311776857
 20
6.278085644564447
 30
0.0
 10
9.706250459400001
 20
6.282063693164447
 30
0.0
 10
9.6829851051
 20
6.280106236364447
 30
0.0
 10
9.668956862199999
 20
6.274651807564448
 30
0.0
 10
9.6627170459
 20
6.271058274364447
 30
0.0
  0
SPLINE
  5
43E
330
200
100
AcDbEntity
  8
0
  6
Continuous
 62
     7
100
AcDbSpline
210
0.0
220
0.0
230
1.0
 70
     8
 71
     3
 72
    13
 73
     9
 74
     0
 42
0.0000000001
 43
0.0000000001
 40
0.0
 40
0.0
 40
0.0
 40
0.0
 40
0.102846122
 40
0.2156488503
 40
0.3373529178
 40
0.4661152554
 40
0.7346541362000001
 40
1.0
 40
1.0
 40
1.0
 40
1.0
 10
9.929548458099999
 20
6.020928327864448
 30
0.0
 10
9.931096612899999
 20
6.027802366564448
 30
0.0
 10
9.9328715994
 20
6.042564054964446
 30
0.0
 10
9.931948754
 20
6.065731753664446
 30
0.0
 10
9.927626554299999
 20
6.090311568264447
 30
0.0
 10
9.917363297799999
 20
6.124426267964447
 30
0.0
 10
9.897329552999998
 20
6.165530928064447
 30
0.0
 10
9.8749667507
 20
6.194866898564447
 30
0.0
 10
9.8623598702
 20
6.207964936464447
 30
0.0
  0
SPLINE
  5
43F
330
200
100
AcDbEntity
  8
0
  6
Continuous
 62
     7
100
AcDbSpline
210
0.0
220
0.0
230
1.0
 70
     8
 71
     3
 72
     9
 73
     5
 74
     0
 42
0.0000000001
 43
0.0000000001
 40
0.0
 40
0.0
 40
0.0
 40
0.0
 40
0.5278160476
 40
1.0
 40
1.0
 40
1.0
 40
1.0
 10
9.8623598702
 20
6.207964936464447
 30
0.0
 10
9.853837175
 20
6.216819671464448
 30
0.0
 10
9.836341329199999
 20
6.232369235064448
 30
0.0
 10
9.8160708694
 20
6.244291978564447
 30
0.0
 10
9.805931757899999
 20
6.248543931264447
 30
0.0
  0
SPLINE
  5
440
330
200
100
AcDbEntity
  8
0
  6
Continuous
 62
     7
100
AcDbSpline
210
0.0
220
0.0
230
1.0
 70
     8
 71
     3
 72
     9
 73
     5
 74
     0
 42
0.0000000001
 43
0.0000000001
 40
0.0
 40
0.0
 40
0.0
 40
0.0
 40
0.2558130837
 40
1.0
 40
1.0
 40
1.0
 40
1.0
 10
9.805931757899999
 20
6.248543931264447
 30
0.0
 10
9.804911712499999
 20
6.248971699064448
 30
0.0
 10
9.800901183999998
 20
6.250587997464447
 30
0.0
 10
9.7967975874
 20
6.251976150564447
 30
0.0
 10
9.793703054399999
 20
6.252858206364448
 30
0.0
  0
SPLINE
  5
441
330
200
100
AcDbEntity
  8
0
  6
Continuous
 62
     7
100
AcDbSpline
210
0.0
220
0.0
230
1.0
 70
     8
 71
     3
 72
     9
 73
     5
 74
     0
 42
0.0000000001
 43
0.0000000001
 40
0.0
 40
0.0
 40
0.0
 40
0.0
 40
0.2620005778
 40
1.0
 40
1.0
 40
1.0
 40
1.0
 10
9.573195676599999
 20
6.437000745164447
 30
0.0
 10
9.573746315099999
 20
6.436682793764447
 30
0.0
 10
9.5758153396
 20
6.435414838164447
 30
0.0
 10
9.577752403999999
 20
6.433922046464448
 30
0.0
 10
9.579048203300001
 20
6.432685639864446
 30
0.0
  0
SPLINE
  5
442
330
200
100
AcDbEntity
  8
0
  6
Continuous
 62
     7
100
AcDbSpline
210
0.0
220
0.0
230
1.0
 70
     8
 71
     3
 72
    12
 73
     8
 74
     0
 42
0.0000000001
 43
0.0000000001
 40
0.0
 40
0.0
 40
0.0
 40
0.0
 40
0.242819621
 40
0.3551329392
 40
0.4674721804999999
 40
0.7104756259000001
 40
1.0
 40
1.0
 40
1.0
 40
1.0
 10
9.580454534699999
 20
6.431225139964447
 30
0.0
 10
9.5821623201
 20
6.429286302464447
 30
0.0
 10
9.584209935499998
 20
6.425895480864447
 30
0.0
 10
9.5848885922
 20
6.420911862364447
 30
0.0
 10
9.584194898799999
 20
6.415920120664448
 30
0.0
 10
9.580486644199998
 20
6.409830320864447
 30
0.0
 10
9.5758597427
 20
6.406392591164447
 30
0.0
 10
9.573191766599999
 20
6.404852292464447
 30
0.0
  0
SPLINE
  5
443
330
200
100
AcDbEntity
  8
0
  6
Continuous
 62
     7
100
AcDbSpline
210
0.0
220
0.0
230
1.0
 70
     8
 71
     3
 72
    11
 73
     7
 74
     0
 42
0.0000000001
 43
0.0000000001
 40
0.0
 40
0.0
 40
0.0
 40
0.0
 40
0.2372627993
 40
0.5000127357000001
 40
0.7627557470000001
 40
1.0
 40
1.0
 40
1.0
 40
1.0
 10
8.366415037100001
 20
5.042785281564447
 30
0.0
 10
8.3624622942
 20
5.040503250364447
 30
0.0
 10
8.353271047499999
 20
5.037172665464447
 30
0.0
 10
8.338575498999999
 20
5.035580361364448
 30
0.0
 10
8.3238803236
 20
5.037172781764447
 30
0.0
 10
8.31468961
 20
5.040503524764448
 30
0.0
 10
8.310737337999999
 20
5.042785657964447
 30
0.0
  0
SPLINE
  5
444
330
200
100
AcDbEntity
  8
0
  6
Continuous
 62
     7
100
AcDbSpline
210
0.0
220
0.0
230
1.0
 70
     8
 71
     3
 72
     9
 73
     5
 74
     0
 42
0.0000000001
 43
0.0000000001
 40
0.0
 40
0.0
 40
0.0
 40
0.0
 40
0.2620006675
 40
1.0
 40
1.0
 40
1.0
 40
1.0
 10
9.818216252899999
 20
6.154210788064447
 30
0.0
 10
9.818766891399999
 20
6.153892836664447
 30
0.0
 10
9.820835914199999
 20
6.152624880964447
 30
0.0
 10
9.822772972899999
 20
6.151132084964447
 30
0.0
 10
9.8240687724
 20
6.149895680364448
 30
0.0
  0
SPLINE
  5
445
330
200
100
AcDbEntity
  8
0
  6
Continuous
 62
     7
100
AcDbSpline
210
0.0
220
0.0
230
1.0
 70
     8
 71
     3
 72
    12
 73
     8
 74
     0
 42
0.0000000001
 43
0.0000000001
 40
0.0
 40
0.0
 40
0.0
 40
0.0
 40
0.2429971011
 40
0.3553810673
 40
0.4677474175
 40
0.7105874853000001
 40
1.0
 40
1.0
 40
1.0
 40
1.0
 10
9.825475111099999
 20
6.148435182764448
 30
0.0
 10
9.8271782399
 20
6.146501658064448
 30
0.0
 10
9.829221569799999
 20
6.143122417264446
 30
0.0
 10
9.8299077897
 20
6.138154826464448
 30
0.0
 10
9.8292314557
 20
6.133179603664447
 30
0.0
 10
9.825562286
 20
6.127097950864447
 30
0.0
 10
9.820956542399999
 20
6.123665506164447
 30
0.0
 10
9.818298831799999
 20
6.122131134164447
 30
0.0
  0
SPLINE
  5
446
330
200
100
AcDbEntity
  8
0
  6
Continuous
 62
     7
100
AcDbSpline
210
0.0
220
0.0
230
1.0
 70
     8
 71
     3
 72
    14
 73
    10
 74
     0
 42
0.0000000001
 43
0.0000000001
 40
0.0
 40
0.0
 40
0.0
 40
0.0
 40
0.2758808875
 40
0.4103830202000001
 40
0.540946048
 40
0.6668666099000001
 40
0.7874813436000001
 40
0.8999526304999999
 40
1.0
 40
1.0
 40
1.0
 40
1.0
 10
9.5871338273
 20
5.956508891464448
 30
0.0
 10
9.5896913236
 20
5.959690354464447
 30
0.0
 10
9.5931026273
 20
5.964742567564448
 30
0.0
 10
9.597069410499999
 20
5.971693634564447
 30
0.0
 10
9.599704674399999
 20
5.976848022464447
 30
0.0
 10
9.6018320443
 20
5.982016425664447
 30
0.0
 10
9.603299226499999
 20
5.987132917964448
 30
0.0
 10
9.6042042267
 20
5.991982727864447
 30
0.0
 10
9.604487757999999
 20
5.995124907264447
 30
0.0
 10
9.604493380800001
 20
5.996605211364448
 30
0.0
  0
SPLINE
  5
447
330
200
100
AcDbEntity
  8
0
  6
Continuous
 62
     7
100
AcDbSpline
210
0.0
220
0.0
230
1.0
 70
     8
 71
     3
 72
    10
 73
     6
 74
     0
 42
0.0000000001
 43
0.0000000001
 40
0.0
 40
0.0
 40
0.0
 40
0.0
 40
0.2374911361
 40
0.4869401691000001
 40
1.0
 40
1.0
 40
1.0
 40
1.0
 10
9.9291442989
 20
6.110875987464447
 30
0.0
 10
9.938636441899999
 20
6.103196469564447
 30
0.0
 10
9.957038565299999
 20
6.086101627064447
 30
0.0
 10
9.9904065576
 20
6.046902854964447
 30
0.0
 10
10.0108736036
 20
6.013001940264447
 30
0.0
 10
10.0220550003
 20
5.989112225364448
 30
0.0
  0
SPLINE
  5
448
330
200
100
AcDbEntity
  8
0
  6
Continuous
 62
     7
100
AcDbSpline
210
0.0
220
0.0
230
1.0
 70
     8
 71
     3
 72
    10
 73
     6
 74
     0
 42
0.0000000001
 43
0.0000000001
 40
0.0
 40
0.0
 40
0.0
 40
0.0
 40
0.5288246832
 40
0.7686177587000001
 40
1.0
 40
1.0
 40
1.0
 40
1.0
 10
8.6891913188
 20
6.270479822064447
 30
0.0
 10
8.692638157599999
 20
6.269431574564447
 30
0.0
 10
8.6979700712
 20
6.268603084864447
 30
0.0
 10
8.704732204299999
 20
6.269756784864447
 30
0.0
 10
8.707720890299999
 20
6.271025558364447
 30
0.0
 10
8.709086046499999
 20
6.271813702064447
 30
0.0
  0
SPLINE
  5
449
330
200
100
AcDbEntity
  8
0
  6
Continuous
 62
     7
100
AcDbSpline
210
0.0
220
0.0
230
1.0
 70
     8
 71
     3
 72
    11
 73
     7
 74
     0
 42
0.0000000001
 43
0.0000000001
 40
0.0
 40
0.0
 40
0.0
 40
0.0
 40
0.289696212
 40
0.5491552909000001
 40
0.7822860354000002
 40
1.0
 40
1.0
 40
1.0
 40
1.0
 10
8.657466925999999
 20
4.860449120564448
 30
0.0
 10
8.654001133799999
 20
4.858448219964447
 30
0.0
 10
8.6477104953
 20
4.854120684764447
 30
0.0
 10
8.640183867299999
 20
4.846233149264447
 30
0.0
 10
8.6354173624
 20
4.837502276864447
 30
0.0
 10
8.6343034248
 20
4.831232100364448
 30
0.0
 10
8.634303603400001
 20
4.828224561364447
 30
0.0
  0
SPLINE
  5
44A
330
200
100
AcDbEntity
  8
0
  6
Continuous
 62
     7
100
AcDbSpline
210
0.0
220
0.0
230
1.0
 70
     8
 71
     3
 72
    11
 73
     7
 74
     0
 42
0.0000000001
 43
0.0000000001
 40
0.0
 40
0.0
 40
0.0
 40
0.0
 40
0.2177827211
 40
0.4509167910000001
 40
0.7103037976000001
 40
1.0
 40
1.0
 40
1.0
 40
1.0
 10
9.849432676199999
 20
6.122060648264447
 30
0.0
 10
9.8494320242
 20
6.119811374164448
 30
0.0
 10
9.848599547399999
 20
6.115123370464448
 30
0.0
 10
9.845044266
 20
6.108591841164447
 30
0.0
 10
9.839425266199999
 20
6.102687552264447
 30
0.0
 10
9.8347240747
 20
6.099449797064447
 30
0.0
 10
9.832132901099999
 20
6.097953838664447
 30
0.0
  0
SPLINE
  5
44B
330
200
100
AcDbEntity
  8
0
  6
Continuous
 62
     7
100
AcDbSpline
210
0.0
220
0.0
230
1.0
 70
     8
 71
     3
 72
    11
 73
     7
 74
     0
 42
0.0000000001
 43
0.0000000001
 40
0.0
 40
0.0
 40
0.0
 40
0.0
 40
0.2177459164
 40
0.4508844734000001
 40
0.7104611741
 40
1.0
 40
1.0
 40
1.0
 40
1.0
 10
8.875631353200001
 20
4.976453944564447
 30
0.0
 10
8.876929950499999
 20
4.975704106964447
 30
0.0
 10
8.879912753999999
 20
4.974617641564447
 30
0.0
 10
8.884871596099999
 20
4.974492916264448
 30
0.0
 10
8.890153861299999
 20
4.975771345564448
 30
0.0
 10
8.893591951799999
 20
4.977404681964447
 30
0.0
 10
8.8953187784
 20
4.978401628164447
 30
0.0
  0
LINE
  5
44C
330
200
100
AcDbEntity
  8
0
  6
Continuous
 62
     7
100
AcDbLine
 10
2.958361531583666
 20
6.361823122971394
 30
0.0
 11
2.97804426734842
 21
6.381507849757531
 31
0.0
  0
LINE
  5
44D
330
200
100
AcDbEntity
  8
0
  6
Continuous
 62
     7
100
AcDbLine
 10
2.958328943018318
 20
6.918767656517965
 30
0.0
 11
2.978013982557513
 21
6.899082304871505
 31
0.0
  0
LINE
  5
44E
330
200
100
AcDbEntity
  8
0
  6
Continuous
 62
     7
100
AcDbLine
 10
2.958279846495277
 20
6.859717403144208
 30
0.0
 11
2.978015134344737
 21
6.879397265605201
 31
0.0
  0
LINE
  5
44F
330
200
100
AcDbEntity
  8
0
  6
Continuous
 62
     7
100
AcDbLine
 10
2.958358076021996
 20
6.420878240770294
 30
0.0
 11
2.978043115561191
 21
6.401192889123835
 31
0.0
  0
SPLINE
  5
450
330
200
100
AcDbEntity
  8
0
  6
Continuous
 62
     7
100
AcDbSpline
210
0.0
220
0.0
230
1.0
 70
     8
 71
     3
 72
    14
 73
    10
 74
     0
 42
0.0000000001
 43
0.0000000001
 40
0.0
 40
0.0
 40
0.0
 40
0.0
 40
0.276204491
 40
0.4120355641
 40
0.5445545061
 40
0.6715472461
 40
0.7909057704000002
 40
0.9012754712999999
 40
1.0
 40
1.0
 40
1.0
 40
1.0
 10
3.556946031228243
 20
4.379022099046422
 30
0.0
 10
3.55470552302445
 20
4.382901724559156
 30
0.0
 10
3.55125068616564
 20
4.388624650023714
 30
0.0
 10
3.547045743100568
 20
4.396395146102469
 30
0.0
 10
3.544225414046318
 20
4.402155612092646
 30
0.0
 10
3.541625020192857
 20
4.407722944251074
 30
0.0
 10
3.539338324880037
 20
4.413043482563829
 30
0.0
 10
3.537738403515811
 20
4.418135901959882
 30
0.0
 10
3.537256010368331
 20
4.421525817740479
 30
0.0
 10
3.537255829972813
 20
4.423127155132665
 30
0.0
  0
SPLINE
  5
451
330
200
100
AcDbEntity
  8
0
  6
Continuous
 62
     7
100
AcDbSpline
210
0.0
220
0.0
230
1.0
 70
     8
 71
     3
 72
    14
 73
    10
 74
     0
 42
0.0000000001
 43
0.0000000001
 40
0.0
 40
0.0
 40
0.0
 40
0.0
 40
0.2762044912
 40
0.4120355643
 40
0.5445545065000001
 40
0.6715472466
 40
0.7909057705000001
 40
0.9012754710999999
 40
1.0
 40
1.0
 40
1.0
 40
1.0
 10
3.970291312250256
 20
4.725527164698971
 30
0.0
 10
3.968050804046469
 20
4.729406790111704
 30
0.0
 10
3.964595966887675
 20
4.735129715276245
 30
0.0
 10
3.960391023722616
 20
4.742900211154995
 30
0.0
 10
3.957570694868365
 20
4.748660677145183
 30
0.0
 10
3.954970301214911
 20
4.754228009203623
 30
0.0
 10
3.952683605802096
 20
4.759548547416372
 30
0.0
 10
3.951083684537876
 20
4.76464096671243
 30
0.0
 10
3.950601291390402
 20
4.768030882393028
 30
0.0
 10
3.950601110994884
 20
4.769632219785214
 30
0.0
  0
DIMENSION
  5
526
102
{ACAD_XDICTIONARY
360
535
102
}
102
{ACAD_REACTORS
330
536
102
}
330
200
100
AcDbEntity
  8
0
100
AcDbDimension
  2
*D2
 10
5.820583320187044
 20
3.223672469185945
 30
0.0
 11
5.820583320187043
 21
4.295506548433042
 31
0.0
 70
    32
  1
<>\P[]
 71
     5
 42
2.143668158494191
  3
STANDARD$0
100
AcDbAlignedDimension
 13
4.962627171316693
 23
5.367340627680137
 33
0.0
 14
4.962627171316693
 24
3.223672469185946
 34
0.0
 50
90.00000000000003
100
AcDbRotatedDimension
1001
ACAD
1000
DSTYLE
1002
{
1070
    42
1040
0.06875
1070
    43
1040
0.418
1070
    44
1040
0.198
1070
    47
1040
0.0
1070
    48
1040
0.0
1070
    78
1070
     0
1070
   141
1040
0.099
1070
   170
1070
     1
1070
   272
1070
     4
1070
   284
1070
     0
1002
}
  0
DIMENSION
  5
577
330
200
100
AcDbEntity
  8
0
100
AcDbDimension
  2
*D3
 10
5.81832824572567
 20
1.230263792195725
 30
0.0
 11
4.988744912392336
 21
0.6675414579647299
 31
0.0
 70
   160
  1
<>[]
 71
     5
 42
0.7480314942000002
  3
STANDARD$0
100
AcDbAlignedDimension
 13
4.980249511264471
 23
1.978295286395725
 33
0.0
 14
4.98024951126447
 24
1.230263792195725
 34
0.0
 50
90.00000000000003
100
AcDbRotatedDimension
1001
ACAD
1000
DSTYLE
1002
{
1070
    42
1040
0.06875
1070
    43
1040
0.418
1070
    44
1040
0.198
1070
    47
1040
0.0
1070
    48
1040
0.0
1070
    78
1070
     0
1070
   141
1040
0.099
1070
   170
1070
     1
1070
   272
1070
     4
1070
   284
1070
     0
1002
}
  0
DIMENSION
  5
5D2
330
200
100
AcDbEntity
  8
0
100
AcDbDimension
  2
*D4
 10
4.934772358694503
 20
7.484133166595495
 30
0.0
 11
3.606020872870624
 21
7.484133166595495
 31
0.0
 70
    32
  1
<>[]
 71
     5
 42
2.657502971647756
  3
STANDARD$0
100
AcDbAlignedDimension
 13
2.277269387046746
 23
6.984133166595494
 33
0.0
 14
4.934772358694503
 24
6.994830668416108
 34
0.0
 50
0.0000000000000114
100
AcDbRotatedDimension
1001
ACAD
1000
DSTYLE
1002
{
1070
    42
1040
0.06875
1070
    43
1040
0.418
1070
    44
1040
0.198
1070
    47
1040
0.0
1070
    48
1040
0.0
1070
    78
1070
     0
1070
   141
1040
0.099
1070
   170
1070
     1
1070
   272
1070
     4
1070
   284
1070
     0
1002
}
  0
ENDSEC
  0
SECTION
  2
OBJECTS
  0
DICTIONARY
  5
C
330
0
100
AcDbDictionary
281
     1
  3
ACAD_COLOR
350
459
  3
ACAD_GROUP
350
D
  3
ACAD_LAYOUT
350
1A
  3
ACAD_MATERIAL
350
458
  3
ACAD_MLINESTYLE
350
17
  3
ACAD_PLOTSETTINGS
350
19
  3
ACAD_PLOTSTYLENAME
350
E
  3
ACAD_TABLESTYLE
350
45A
  3
AcDbVariableDictionary
350
60E
  3
AcmDictionary
350
4B7
  3
AMG
350
45F
  3
AMGSNAPSETTINGS
350
50B
  0
DICTIONARY
  5
535
330
526
100
AcDbDictionary
280
     1
281
     1
  3
ACAD_DIMASSOC
360
536
  0
DICTIONARY
  5
459
102
{ACAD_REACTORS
330
C
102
}
330
C
100
AcDbDictionary
281
     1
  0
DICTIONARY
  5
D
102
{ACAD_REACTORS
330
C
102
}
330
C
100
AcDbDictionary
281
     1
  0
DICTIONARY
  5
1A
102
{ACAD_REACTORS
330
C
102
}
330
C
100
AcDbDictionary
281
     1
  3
Layout1
350
455
  3
Model
350
454
  0
DICTIONARY
  5
458
102
{ACAD_REACTORS
330
C
102
}
330
C
100
AcDbDictionary
281
     1
  0
DICTIONARY
  5
17
102
{ACAD_REACTORS
330
C
102
}
330
C
100
AcDbDictionary
281
     1
  3
Standard
350
18
  0
DICTIONARY
  5
19
102
{ACAD_REACTORS
330
C
102
}
330
C
100
AcDbDictionary
281
     1
  0
ACDBDICTIONARYWDFLT
  5
E
102
{ACAD_REACTORS
330
C
102
}
330
C
100
AcDbDictionary
281
     1
  3
Normal
350
F
100
AcDbDictionaryWithDefault
340
F
  0
DICTIONARY
  5
45A
102
{ACAD_REACTORS
330
C
102
}
330
C
100
AcDbDictionary
281
     1
  3
Standard
350
45B
  0
DICTIONARY
  5
60E
102
{ACAD_REACTORS
330
C
102
}
330
C
100
AcDbDictionary
281
     1
  3
CTABLESTYLE
350
60F
  0
DICTIONARY
  5
4B7
102
{ACAD_REACTORS
330
C
102
}
330
C
100
AcDbDictionary
281
     1
  3
AcmStdDictionary
350
4C2
  3
AMDTSECTSYM_ARROWCOLOR
350
4E1
  0
DICTIONARY
  5
45F
102
{ACAD_REACTORS
330
C
102
}
330
C
100
AcDbDictionary
281
     1
  0
DICTIONARY
  5
50B
102
{ACAD_REACTORS
330
C
102
}
330
C
100
AcDbDictionary
281
     1
  0
DIMASSOC
  5
536
102
{ACAD_REACTORS
330
535
102
}
330
535
100
AcDbDimAssoc
330
526
 90
        1
 70
     0
 71
     0
  1
AcDbOsnapPointRef
 72
    28
331
3E8
 73
     0
 91
        0
 40
0.0
 10
0.0
 20
0.0
 30
0.0
 75
     0
  0
LAYOUT
  5
455
102
{ACAD_REACTORS
330
1A
102
}
330
1A
100
AcDbPlotSettings
  1

  2
none_device
  4
ANSI_A_(11.00_x_8.50_Inches)
  6

 40
0.0
 41
0.0
 42
0.0
 43
0.0
 44
279.4
 45
215.9
 46
0.0
 47
0.0
 48
0.0
 49
0.0
140
0.0
141
0.0
142
1.0
143
1.0
 70
     0
 72
     0
 73
     0
 74
     0
  7

 75
     0
147
1.0
 76
     0
 77
     2
 78
   300
148
0.0
149
0.0
100
AcDbLayout
  1
Layout1
 70
     1
 71
     1
 10
0.0
 20
0.0
 11
12.0
 21
9.0
 12
0.0
 22
0.0
 32
0.0
 14
1.000000000000000E+20
 24
1.000000000000000E+20
 34
1.000000000000000E+20
 15
-1.000000000000000E+20
 25
-1.000000000000000E+20
 35
-1.000000000000000E+20
146
0.0
 13
0.0
 23
0.0
 33
0.0
 16
1.0
 26
0.0
 36
0.0
 17
0.0
 27
1.0
 37
0.0
 76
     0
330
201
  0
LAYOUT
  5
454
102
{ACAD_REACTORS
330
1A
102
}
330
1A
100
AcDbPlotSettings
  1

  2
none_device
  4
ANSI_A_(11.00_x_8.50_Inches)
  6

 40
0.0
 41
0.0
 42
0.0
 43
0.0
 44
279.4
 45
215.9
 46
0.0
 47
0.0
 48
0.0
 49
0.0
140
0.0
141
0.0
142
1.0
143
1.0
 70
  1024
 72
     0
 73
     0
 74
     0
  7

 75
     0
147
1.0
 76
     0
 77
     2
 78
   300
148
0.0
149
0.0
100
AcDbLayout
  1
Model
 70
     0
 71
     0
 10
0.0
 20
0.0
 11
11.0
 21
8.5
 12
0.0
 22
0.0
 32
0.0
 14
0.0
 24
0.0
 34
0.0
 15
0.0
 25
0.0
 35
0.0
146
0.0
 13
0.0
 23
0.0
 33
0.0
 16
1.0
 26
0.0
 36
0.0
 17
0.0
 27
1.0
 37
0.0
 76
     0
330
200
  0
MLINESTYLE
  5
18
102
{ACAD_REACTORS
330
17
102
}
330
17
100
AcDbMlineStyle
  2
STANDARD
 70
     0
  3

 62
   256
 51
90.0
 52
90.0
 71
     2
 49
0.5
 62
   256
  6
BYLAYER
 49
-0.5
 62
   256
  6
BYLAYER
  0
ACDBPLACEHOLDER
  5
F
102
{ACAD_REACTORS
330
E
102
}
330
E
  0
TABLESTYLE
  5
45B
102
{ACAD_REACTORS
330
45A
102
}
330
45A
100
AcDbTableStyle
  3
Standard
 70
     0
 71
     0
 40
0.06
 41
0.06
280
     0
281
     0
  7
STANDARD
140
0.18
170
     2
 62
     0
 63
     7
283
     0
274
    -2
284
     1
 64
     0
275
    -2
285
     1
 65
     0
276
    -2
286
     1
 66
     0
277
    -2
287
     1
 67
     0
278
    -2
288
     1
 68
     0
279
    -2
289
     1
 69
     0
  7
STANDARD
140
0.25
170
     5
 62
     0
 63
     7
283
     0
274
    -2
284
     1
 64
     0
275
    -2
285
     1
 65
     0
276
    -2
286
     1
 66
     0
277
    -2
287
     1
 67
     0
278
    -2
288
     1
 68
     0
279
    -2
289
     1
 69
     0
  7
STANDARD
140
0.18
170
     5
 62
     0
 63
     7
283
     0
274
    -2
284
     1
 64
     0
275
    -2
285
     1
 65
     0
276
    -2
286
     1
 66
     0
277
    -2
287
     1
 67
     0
278
    -2
288
     1
 68
     0
279
    -2
289
     1
 69
     0
  0
DICTIONARYVAR
  5
60F
102
{ACAD_REACTORS
330
60E
102
}
330
60E
100
DictionaryVariables
280
     0
  1
STANDARD
  0
DICTIONARY
  5
4C2
102
{ACAD_REACTORS
330
4B7
102
}
330
4B7
100
AcDbDictionary
281
     1
  0
XRECORD
  5
4E1
102
{ACAD_REACTORS
330
4B7
102
}
330
4B7
100
AcDbXrecord
280
     1
 90
-1023410169
  0
ENDSEC
  0
EOF
