  0
SECTION
  2
HEADER
  9
$ACADVER
  1
AC1018
  9
$DWGCODEPAGE
  3
ANSI_1252
  9
$EXTMAX
 10
1116.8346603898
 20
941.2759210755
 30
0.0
  9
$EXTMIN
 10
0.0
 20
0.0
 30
0.0
  9
$LIMMIN
 10
0.0
 20
0.0
  9
$LIMMAX
 10
1116.8346603898
 20
941.2759210755
  9
$VIEWCTR
 10
558.4173301949
 20
470.6379605378
  9
$VIEWSIZE
 40
941.2759210755
  9
$CLAYER
  8
0
  9
$LTSCALE
 40
61.4259063214
  9
$CELTYPE
  6
BYLAYER
  9
$DIMSCALE
 40
1.0
  9
$DIMASZ
 40
0.1875
  9
$DIMEXO
 40
6.9802166274
  9
$DIMDLI
 40
42.4397170948
  9
$DIMEXE
 40
20.103023887
  9
$DIMCEN
 40
10.0515119435
  9
$DIMLFAC
 40
1.0
  9
$DIMBLK
  1
_CLOSED
  9
$DIMTXT
 40
0.15625
  9
$DIMTOL
 70
0
  9
$DIMLIM
 70
0
  9
$DIMTFAC
 40
1.0
  9
$PDMODE
 70
3
  9
$PDSIZE
 40
0.3125
  9
$HANDSEED
  5
757
  9
$TILEMODE
 70
1
  9
$MEASUREMENT
 70
1
  9
$INSUNITS
 70
4
  0
ENDSEC
  0
SECTION
  2
CLASSES
  0
CLASS
  1
ACDBDICTIONARYWDFLT
  2
AcDbDictionaryWithDefault
  3
AutoCAD 2000
 90
0
 91
1
280
0
281
0
  0
CLASS
  1
ACDBPLACEHOLDER
  2
AcDbPlaceHolder
  3
AutoCAD 2000
 90
0
 91
1
280
0
281
0
  0
CLASS
  1
LAYOUT
  2
AcDbLayout
  3
AutoCAD 2000
 90
0
 91
0
280
0
281
0
  0
ENDSEC
  0
SECTION
  2
TABLES
  0
TABLE
  2
VPORT
  5
8
100
AcDbSymbolTable
 70
2
  0
VPORT
  5
1F4
100
AcDbSymbolTableRecord
100
AcDbViewportTableRecord
  2
*ACTIVE
 70
0
 10
0.0
 20
0.0
 11
1.0
 21
1.0
 12
558.4173301949
 22
470.6379605378
 13
0.0
 23
0.0
 14
1.0
 24
1.0
 15
0.0
 25
0.0
 16
0.0
 26
0.0
 36
1.0
 17
0.0
 27
0.0
 37
0.0
 40
941.2759210755
 41
1.1865114526
 42
50.0
 43
0.0
 44
0.0
 50
0.0
 51
0.0
 71
0
 72
100
 73
1
 74
1
 75
0
 76
0
 77
0
 78
0
  0
ENDTAB
  0
TABLE
  2
LTYPE
  5
5
100
AcDbSymbolTable
 70
6
  0
LTYPE
  5
14
100
AcDbSymbolTableRecord
100
AcDbLinetypeTableRecord
  2
BYBLOCK
 70
0
  3

 72
65
 73
0
 40
0.0
  0
LTYPE
  5
15
100
AcDbSymbolTableRecord
100
AcDbLinetypeTableRecord
  2
BYLAYER
 70
0
  3

 72
65
 73
0
 40
0.0
  0
LTYPE
  5
16
100
AcDbSymbolTableRecord
100
AcDbLinetypeTableRecord
  2
CONTINUOUS
 70
64
  3
Solid line
 72
65
 73
0
 40
0.0
  0
LTYPE
  5
1F5
100
AcDbSymbolTableRecord
100
AcDbLinetypeTableRecord
  2
CENTER
 70
64
  3
____ _ ____ _ ____ _ ____ _ ____ _ ____ _ ____
 72
65
 73
4
 40
0.6
 49
0.375
 74
0
 49
-0.075
 74
0
 49
0.075
 74
0
 49
-0.075
 74
0
  0
LTYPE
  5
1F6
100
AcDbSymbolTableRecord
100
AcDbLinetypeTableRecord
  2
HIDDEN
 70
64
  3
- - - - - - - - - - - - - - - - - - - -
 72
65
 73
2
 40
0.2
 49
0.1
 74
0
 49
-0.1
 74
0
  0
LTYPE
  5
1F7
100
AcDbSymbolTableRecord
100
AcDbLinetypeTableRecord
  2
PHANTOM
 70
64
  3
_____ _ _ _____ _ _ _____ _ _ _____
 72
65
 73
6
 40
0.8
 49
0.45
 74
0
 49
-0.05
 74
0
 49
0.1
 74
0
 49
-0.05
 74
0
 49
0.1
 74
0
 49
-0.05
 74
0
  0
LTYPE
  5
1F8
100
AcDbSymbolTableRecord
100
AcDbLinetypeTableRecord
  2
DOT
 70
64
  3
. . . . . . . . . . . . . . . . . . . .
 72
65
 73
2
 40
0.2
 49
0.1
 74
0
 49
-0.1
 74
0
  0
LTYPE
  5
1F9
100
AcDbSymbolTableRecord
100
AcDbLinetypeTableRecord
  2
DASHED
 70
64
  3
- - - - - - - - - - - - - - - - - - - -
 72
65
 73
2
 40
0.2
 49
0.1
 74
0
 49
-0.1
 74
0
  0
LTYPE
  5
1FA
100
AcDbSymbolTableRecord
100
AcDbLinetypeTableRecord
  2
SOLIDFONT
 70
64
  3
Solid line
 72
65
 73
0
 40
0.0
  0
LTYPE
  5
1FB
100
AcDbSymbolTableRecord
100
AcDbLinetypeTableRecord
  2
SOLIDFONT
 70
64
  3
Solid line
 72
65
 73
0
 40
0.0
  0
LTYPE
  5
1FC
100
AcDbSymbolTableRecord
100
AcDbLinetypeTableRecord
  2
SOLIDFONT
 70
64
  3
Solid line
 72
65
 73
0
 40
0.0
  0
LTYPE
  5
1FD
100
AcDbSymbolTableRecord
100
AcDbLinetypeTableRecord
  2
SOLIDFONT
 70
64
  3
Solid line
 72
65
 73
0
 40
0.0
  0
ENDTAB
  0
TABLE
  2
LAYER
  5
2
100
AcDbSymbolTable
 70
36
  0
LAYER
  5
10
100
AcDbSymbolTableRecord
100
AcDbLayerTableRecord
  2
0
 70
0
 62
7
  6
CONTINUOUS
370
-3
390
F
  0
LAYER
  5
1FE
100
AcDbSymbolTableRecord
100
AcDbLayerTableRecord
  2
DEFAULT_1
 70
0
 62
7
  6
CENTER
370
-3
390
F
  0
LAYER
  5
1FF
100
AcDbSymbolTableRecord
100
AcDbLayerTableRecord
  2
DEFAULT_2
 70
0
 62
8
  6
HIDDEN
370
-3
390
F
  0
LAYER
  5
200
100
AcDbSymbolTableRecord
100
AcDbLayerTableRecord
  2
DEFAULT_3
 70
0
 62
7
  6
PHANTOM
370
-3
390
F
  0
LAYER
  5
201
100
AcDbSymbolTableRecord
100
AcDbLayerTableRecord
  2
AM_12
 70
0
 62
7
  6
CONTINUOUS
370
-3
390
F
  0
LAYER
  5
202
100
AcDbSymbolTableRecord
100
AcDbLayerTableRecord
  2
AM_PAREF
 70
0
 62
7
  6
CONTINUOUS
370
-3
390
F
  0
LAYER
  5
203
100
AcDbSymbolTableRecord
100
AcDbLayerTableRecord
  2
AXIS
 70
0
 62
7
  6
CONTINUOUS
370
-3
390
F
  0
LAYER
  5
204
100
AcDbSymbolTableRecord
100
AcDbLayerTableRecord
  2
BASIC_DEVICE
 70
0
 62
7
  6
CONTINUOUS
370
-3
390
F
  0
LAYER
  5
205
100
AcDbSymbolTableRecord
100
AcDbLayerTableRecord
  2
DEFPOINTS
 70
0
 62
7
  6
CONTINUOUS
290
0
370
-3
390
F
  0
LAYER
  5
206
100
AcDbSymbolTableRecord
100
AcDbLayerTableRecord
  2
DEVICE_FIXING_HOLES
 70
0
 62
7
  6
CONTINUOUS
370
-3
390
F
  0
LAYER
  5
207
100
AcDbSymbolTableRecord
100
AcDbLayerTableRecord
  2
HANDLE_FIXING_HOLES
 70
0
 62
7
  6
CONTINUOUS
370
-3
390
F
  0
LAYER
  5
208
100
AcDbSymbolTableRecord
100
AcDbLayerTableRecord
  2
H_EXTERN_HANDLE
 70
0
 62
7
  6
CONTINUOUS
370
-3
390
F
  0
LAYER
  5
209
100
AcDbSymbolTableRecord
100
AcDbLayerTableRecord
  2
H_MOVING
 70
0
 62
7
  6
CONTINUOUS
370
-3
390
F
  0
LAYER
  5
20A
100
AcDbSymbolTableRecord
100
AcDbLayerTableRecord
  2
INTER_PHASE_SCHIELDS
 70
0
 62
7
  6
CONTINUOUS
370
-3
390
F
  0
LAYER
  5
20B
100
AcDbSymbolTableRecord
100
AcDbLayerTableRecord
  2
POINT_D_ACCROCHAGE
 70
0
 62
7
  6
CONTINUOUS
370
-3
390
F
  0
LAYER
  5
20C
100
AcDbSymbolTableRecord
100
AcDbLayerTableRecord
  2
QUOTATION
 70
0
 62
7
  6
CONTINUOUS
370
-3
390
F
  0
LAYER
  5
20D
100
AcDbSymbolTableRecord
100
AcDbLayerTableRecord
  2
TERMINAL_SCREEN
 70
0
 62
7
  6
CONTINUOUS
370
-3
390
F
  0
LAYER
  5
20E
100
AcDbSymbolTableRecord
100
AcDbLayerTableRecord
  2
TEXT
 70
0
 62
7
  6
CONTINUOUS
370
-3
390
F
  0
ENDTAB
  0
TABLE
  2
STYLE
  5
3
100
AcDbSymbolTable
 70
1
  0
STYLE
  5
11
100
AcDbSymbolTableRecord
100
AcDbTextStyleTableRecord
  2
STANDARD
 70
0
 40
0.0
 41
0.8
 50
0.0
 71
0
 42
0.2
  3
txt
  4

  0
STYLE
  5
20F
100
AcDbSymbolTableRecord
100
AcDbTextStyleTableRecord
  2
TEXTSTYLE_1
 70
0
 40
0.0
 41
0.8
 50
0.0
 71
0
 42
0.2
  3
gdt
  4

  0
STYLE
  5
210
100
AcDbSymbolTableRecord
100
AcDbTextStyleTableRecord
  2
TEXTSTYLE_2
 70
0
 40
0.0
 41
1.0
 50
0.0
 71
0
 42
0.2
  3
txt
  4

  0
STYLE
  5
211
100
AcDbSymbolTableRecord
100
AcDbTextStyleTableRecord
  2
TEXTSTYLE_3
 70
0
 40
0.0
 41
1.0
 50
0.0
 71
0
 42
0.2
  3
txt
  4

  0
ENDTAB
  0
TABLE
  2
VIEW
  5
6
100
AcDbSymbolTable
 70
0
  0
ENDTAB
  0
TABLE
  2
UCS
  5
7
100
AcDbSymbolTable
 70
0
  0
ENDTAB
  0
TABLE
  2
APPID
  5
9
100
AcDbSymbolTable
 70
1
  0
APPID
  5
212
100
AcDbSymbolTableRecord
100
AcDbRegAppTableRecord
  2
ACAD
 70
0
  0
ENDTAB
  0
TABLE
  2
BLOCK_RECORD
  5
1
100
AcDbSymbolTable
 70
0
  0
BLOCK_RECORD
  5
213
100
AcDbSymbolTableRecord
100
AcDbBlockTableRecord
  2
*Model_Space
  0
BLOCK_RECORD
  5
214
100
AcDbSymbolTableRecord
100
AcDbBlockTableRecord
  2
*Paper_Space
  0
BLOCK_RECORD
  5
215
100
AcDbSymbolTableRecord
100
AcDbBlockTableRecord
  2
_CLOSED
  0
BLOCK_RECORD
  5
216
100
AcDbSymbolTableRecord
100
AcDbBlockTableRecord
  2
*D0
  0
BLOCK_RECORD
  5
217
100
AcDbSymbolTableRecord
100
AcDbBlockTableRecord
  2
*D1
  0
BLOCK_RECORD
  5
218
100
AcDbSymbolTableRecord
100
AcDbBlockTableRecord
  2
*D2
  0
BLOCK_RECORD
  5
219
100
AcDbSymbolTableRecord
100
AcDbBlockTableRecord
  2
*D3
  0
BLOCK_RECORD
  5
21A
100
AcDbSymbolTableRecord
100
AcDbBlockTableRecord
  2
*D4
  0
BLOCK_RECORD
  5
21B
100
AcDbSymbolTableRecord
100
AcDbBlockTableRecord
  2
*D5
  0
BLOCK_RECORD
  5
21C
100
AcDbSymbolTableRecord
100
AcDbBlockTableRecord
  2
*D6
  0
BLOCK_RECORD
  5
21D
100
AcDbSymbolTableRecord
100
AcDbBlockTableRecord
  2
*D7
  0
BLOCK_RECORD
  5
21E
100
AcDbSymbolTableRecord
100
AcDbBlockTableRecord
  2
*D8
  0
BLOCK_RECORD
  5
21F
100
AcDbSymbolTableRecord
100
AcDbBlockTableRecord
  2
*D9
  0
BLOCK_RECORD
  5
220
100
AcDbSymbolTableRecord
100
AcDbBlockTableRecord
  2
*D10
  0
BLOCK_RECORD
  5
221
100
AcDbSymbolTableRecord
100
AcDbBlockTableRecord
  2
*D11
  0
BLOCK_RECORD
  5
222
100
AcDbSymbolTableRecord
100
AcDbBlockTableRecord
  2
*D12
  0
BLOCK_RECORD
  5
223
100
AcDbSymbolTableRecord
100
AcDbBlockTableRecord
  2
*D13
  0
BLOCK_RECORD
  5
224
100
AcDbSymbolTableRecord
100
AcDbBlockTableRecord
  2
*D14
  0
BLOCK_RECORD
  5
225
100
AcDbSymbolTableRecord
100
AcDbBlockTableRecord
  2
*D15
  0
BLOCK_RECORD
  5
226
100
AcDbSymbolTableRecord
100
AcDbBlockTableRecord
  2
*D16
  0
BLOCK_RECORD
  5
227
100
AcDbSymbolTableRecord
100
AcDbBlockTableRecord
  2
*D17
  0
BLOCK_RECORD
  5
228
100
AcDbSymbolTableRecord
100
AcDbBlockTableRecord
  2
*D18
  0
BLOCK_RECORD
  5
229
100
AcDbSymbolTableRecord
100
AcDbBlockTableRecord
  2
*D19
  0
BLOCK_RECORD
  5
22A
100
AcDbSymbolTableRecord
100
AcDbBlockTableRecord
  2
*D20
  0
BLOCK_RECORD
  5
22B
100
AcDbSymbolTableRecord
100
AcDbBlockTableRecord
  2
*D21
  0
BLOCK_RECORD
  5
22C
100
AcDbSymbolTableRecord
100
AcDbBlockTableRecord
  2
*D22
  0
BLOCK_RECORD
  5
22D
100
AcDbSymbolTableRecord
100
AcDbBlockTableRecord
  2
*D23
  0
BLOCK_RECORD
  5
22E
100
AcDbSymbolTableRecord
100
AcDbBlockTableRecord
  2
*D24
  0
BLOCK_RECORD
  5
22F
100
AcDbSymbolTableRecord
100
AcDbBlockTableRecord
  2
*D25
  0
BLOCK_RECORD
  5
230
100
AcDbSymbolTableRecord
100
AcDbBlockTableRecord
  2
*D26
  0
BLOCK_RECORD
  5
231
100
AcDbSymbolTableRecord
100
AcDbBlockTableRecord
  2
*D27
  0
ENDTAB
  0
TABLE
  2
DIMSTYLE
  5
A
100
AcDbSymbolTable
 70
1
100
AcDbDimStyleTable
 71
0
  0
DIMSTYLE
105
232
100
AcDbSymbolTableRecord
100
AcDbDimStyleTableRecord
  2
STANDARD
 70
0
  3

  4

 40
1.0
 41
0.1875
 42
0.0625
 43
0.38
 44
0.18
 45
0.0
 46
0.0
 47
0.1
 48
0.1
140
0.15625
141
0.09
142
0.0
143
25.4
144
1.0
145
0.0
146
1.0
147
0.09
 71
0.0
 72
0.0
 73
1
 74
1
 75
0
 76
0
 77
0
 78
8
170
0
171
2
172
0
173
0
174
0
175
0
176
0
177
0
178
0
270
2
271
1
272
1
273
2
274
2
275
0
280
0
281
0
282
0
283
1
284
8
285
0
286
0
287
3
288
0
340
11
341
215
342
215
343
215
344
215
  0
DIMSTYLE
105
233
100
AcDbSymbolTableRecord
100
AcDbDimStyleTableRecord
  2
DIMSTYLE_1
 70
0
  3

  4

 40
1.0
 41
0.1875
 42
0.0625
 43
0.38
 44
0.18
 45
0.0
 46
0.0
 47
0.0
 48
0.0
140
7.0
141
0.09
142
0.0
143
25.4
144
1.0
145
0.0
146
1.0
147
0.09
 71
0.0
 72
0.0
 73
1
 74
1
 75
0
 76
0
 77
0
 78
8
170
0
171
2
172
0
173
0
174
0
175
0
176
0
177
0
178
0
270
2
271
1
272
1
273
2
274
2
275
0
280
0
281
0
282
0
283
1
284
8
285
0
286
0
287
3
288
0
340
11
341
215
342
215
343
215
344
215
  0
DIMSTYLE
105
234
100
AcDbSymbolTableRecord
100
AcDbDimStyleTableRecord
  2
DIMSTYLE_2
 70
0
  3

  4

 40
1.0
 41
0.1875
 42
0.0625
 43
0.38
 44
0.18
 45
0.0
 46
0.0
 47
0.0
 48
0.0
140
7.0
141
0.09
142
0.0
143
25.4
144
1.0
145
0.0
146
1.0
147
0.09
 71
0.0
 72
0.0
 73
1
 74
1
 75
0
 76
0
 77
0
 78
8
170
0
171
2
172
0
173
0
174
0
175
0
176
0
177
0
178
0
270
2
271
1
272
1
273
2
274
2
275
0
280
0
281
0
282
0
283
1
284
8
285
0
286
0
287
3
288
0
340
11
341
215
342
215
343
215
344
215
  0
ENDTAB
  0
ENDSEC
  0
SECTION
  2
BLOCKS
  0
BLOCK
  5
20
100
AcDbEntity
  8
0
100
AcDbBlockBegin
  2
*Model_Space
 70
0
 10
0.0
 20
0.0
 30
0.0
  3
*Model_Space
  1

  0
ENDBLK
  5
21
100
AcDbEntity
  8
0
100
AcDbBlockEnd
  0
BLOCK
  5
1C
100
AcDbEntity
  8
0
100
AcDbBlockBegin
  2
*Paper_Space
 70
0
 10
0.0
 20
0.0
 30
0.0
  3
*Paper_Space
  1

  0
ENDBLK
  5
1D
100
AcDbEntity
  8
0
100
AcDbBlockEnd
  0
BLOCK
  5
235
100
AcDbEntity
  8
0
100
AcDbBlockBegin
  2
_CLOSED
 70
64
 10
0.0
 20
0.0
  3
_CLOSED
  1

  0
LINE
  5
236
100
AcDbEntity
  8
0
  6
BYBLOCK
 62
0
100
AcDbLine
 10
0.0
 20
0.0
 11
-1.0
 21
0.1666666667
  0
LINE
  5
237
100
AcDbEntity
  8
0
  6
BYBLOCK
 62
0
100
AcDbLine
 10
-1.0
 20
0.1666666667
 11
-1.0
 21
-0.1666666667
  0
LINE
  5
238
100
AcDbEntity
  8
0
  6
BYBLOCK
 62
0
100
AcDbLine
 10
-1.0
 20
-0.1666666667
 11
0.0
 21
0.0
  0
LINE
  5
239
100
AcDbEntity
  8
0
  6
BYBLOCK
 62
0
100
AcDbLine
 10
-1.0
 20
0.0
 11
0.0
 21
0.0
  0
ENDBLK
  5
23A
100
AcDbEntity
  8
0
  6
BYBLOCK
 62
0
100
AcDbBlockEnd
  0
BLOCK
  5
23B
100
AcDbEntity
  8
QUOTATION
100
AcDbBlockBegin
 62
3
  6
CONTINUOUS
  2
*D0
 70
65
 10
0.0
 20
0.0
  3
*D0
  1

  0
MTEXT
  5
23C
100
AcDbEntity
  8
QUOTATION
100
AcDbMText
 62
3
  6
CONTINUOUS
  7
STANDARD
 71
2
 72
1
 10
610.3402352536
 20
37.0365107832
 30
0.0
 11
1.0
 21
0.0
 31
0.0
 44
0.9
  1
255
 40
7.0
 41
16.8
  0
LINE
  5
23D
100
AcDbEntity
  8
QUOTATION
100
AcDbLine
 62
3
  6
CONTINUOUS
 10
484.9402352536
 20
156.0970094544
 11
484.9402352536
 21
33.4115107832
  0
LINE
  5
23E
100
AcDbEntity
  8
QUOTATION
100
AcDbLine
 62
3
  6
CONTINUOUS
 10
739.9402352536
 20
156.0970094544
 11
739.9402352536
 21
33.4115107832
  0
LINE
  5
23F
100
AcDbEntity
  8
QUOTATION
100
AcDbLine
 62
3
  6
CONTINUOUS
 10
484.9402352536
 20
33.5365107832
 11
598.4402352536
 21
33.5365107832
  0
LINE
  5
240
100
AcDbEntity
  8
QUOTATION
100
AcDbLine
 62
3
  6
CONTINUOUS
 10
739.9402352536
 20
33.5365107832
 11
622.2402352536
 21
33.5365107832
  0
INSERT
  5
241
100
AcDbEntity
  8
QUOTATION
100
AcDbBlockReference
 62
3
  6
CONTINUOUS
  2
_CLOSED
 10
484.9402352536
 20
33.5365107832
 41
0.1875
 42
0.1875
 43
0.1875
 50
180.0
  0
INSERT
  5
242
100
AcDbEntity
  8
QUOTATION
100
AcDbBlockReference
 62
3
  6
CONTINUOUS
  2
_CLOSED
 10
739.9402352536
 20
33.5365107832
 41
0.1875
 42
0.1875
 43
0.1875
  0
ENDBLK
  5
243
100
AcDbEntity
  8
0
  6
BYBLOCK
 62
0
100
AcDbBlockEnd
  0
BLOCK
  5
244
100
AcDbEntity
  8
QUOTATION
100
AcDbBlockBegin
 62
3
  6
CONTINUOUS
  2
*D1
 70
65
 10
0.0
 20
0.0
  3
*D1
  1

  0
MTEXT
  5
245
100
AcDbEntity
  8
QUOTATION
100
AcDbMText
 62
3
  6
CONTINUOUS
  7
STANDARD
 71
2
 72
1
 10
545.7862159918
 20
527.3591306307
 30
0.0
 11
1.0
 21
0.0
 31
0.0
 44
0.9
  1
127.5
 40
7.0
 41
28.0
  0
LINE
  5
246
100
AcDbEntity
  8
QUOTATION
100
AcDbLine
 62
3
  6
CONTINUOUS
 10
484.9402352536
 20
331.3470094544
 11
484.9402352536
 21
523.9841306307
  0
LINE
  5
247
100
AcDbEntity
  8
QUOTATION
100
AcDbLine
 62
3
  6
CONTINUOUS
 10
612.4402352536
 20
271.8470094544
 11
612.4402352536
 21
523.9841306307
  0
LINE
  5
248
100
AcDbEntity
  8
QUOTATION
100
AcDbLine
 62
3
  6
CONTINUOUS
 10
484.9402352536
 20
523.8591306307
 11
528.2862159918
 21
523.8591306307
  0
LINE
  5
249
100
AcDbEntity
  8
QUOTATION
100
AcDbLine
 62
3
  6
CONTINUOUS
 10
612.4402352536
 20
523.8591306307
 11
563.2862159918
 21
523.8591306307
  0
INSERT
  5
24A
100
AcDbEntity
  8
QUOTATION
100
AcDbBlockReference
 62
3
  6
CONTINUOUS
  2
_CLOSED
 10
484.9402352536
 20
523.8591306307
 41
0.1875
 42
0.1875
 43
0.1875
 50
180.0
  0
INSERT
  5
24B
100
AcDbEntity
  8
QUOTATION
100
AcDbBlockReference
 62
3
  6
CONTINUOUS
  2
_CLOSED
 10
612.4402352536
 20
523.8591306307
 41
0.1875
 42
0.1875
 43
0.1875
  0
ENDBLK
  5
24C
100
AcDbEntity
  8
0
  6
BYBLOCK
 62
0
100
AcDbBlockEnd
  0
BLOCK
  5
24D
100
AcDbEntity
  8
QUOTATION
100
AcDbBlockBegin
 62
3
  6
CONTINUOUS
  2
*D2
 70
65
 10
0.0
 20
0.0
  3
*D2
  1

  0
MTEXT
  5
24E
100
AcDbEntity
  8
QUOTATION
100
AcDbMText
 62
3
  6
CONTINUOUS
  7
STANDARD
 71
2
 72
1
 10
612.3949447686
 20
554.7330356656
 30
0.0
 11
1.0
 21
0.0
 31
0.0
 44
0.9
  1
280
 40
7.0
 41
16.8
  0
LINE
  5
24F
100
AcDbEntity
  8
QUOTATION
100
AcDbLine
 62
3
  6
CONTINUOUS
 10
472.4402352536
 20
343.8470094544
 11
472.4402352536
 21
551.3580356656
  0
LINE
  5
250
100
AcDbEntity
  8
QUOTATION
100
AcDbLine
 62
3
  6
CONTINUOUS
 10
752.4402352536
 20
343.8470094544
 11
752.4402352536
 21
551.3580356656
  0
LINE
  5
251
100
AcDbEntity
  8
QUOTATION
100
AcDbLine
 62
3
  6
CONTINUOUS
 10
472.4402352536
 20
551.2330356656
 11
600.4949447686
 21
551.2330356656
  0
LINE
  5
252
100
AcDbEntity
  8
QUOTATION
100
AcDbLine
 62
3
  6
CONTINUOUS
 10
752.4402352536
 20
551.2330356656
 11
624.2949447686
 21
551.2330356656
  0
INSERT
  5
253
100
AcDbEntity
  8
QUOTATION
100
AcDbBlockReference
 62
3
  6
CONTINUOUS
  2
_CLOSED
 10
472.4402352536
 20
551.2330356656
 41
0.1875
 42
0.1875
 43
0.1875
 50
180.0
  0
INSERT
  5
254
100
AcDbEntity
  8
QUOTATION
100
AcDbBlockReference
 62
3
  6
CONTINUOUS
  2
_CLOSED
 10
752.4402352536
 20
551.2330356656
 41
0.1875
 42
0.1875
 43
0.1875
  0
ENDBLK
  5
255
100
AcDbEntity
  8
0
  6
BYBLOCK
 62
0
100
AcDbBlockEnd
  0
BLOCK
  5
256
100
AcDbEntity
  8
QUOTATION
100
AcDbBlockBegin
 62
3
  6
CONTINUOUS
  2
*D3
 70
65
 10
0.0
 20
0.0
  3
*D3
  1

  0
MTEXT
  5
257
100
AcDbEntity
  8
QUOTATION
100
AcDbMText
 62
3
  6
CONTINUOUS
  7
STANDARD
 71
2
 72
1
 10
269.1960724408
 20
569.3179897009
 30
0.0
 11
1.0
 21
0.0
 31
0.0
 44
0.9
  1
140
 40
7.0
 41
16.8
  0
LINE
  5
258
100
AcDbEntity
  8
QUOTATION
100
AcDbLine
 62
3
  6
CONTINUOUS
 10
341.2960724408
 20
345.1979500436
 11
341.2960724408
 21
565.9429897009
  0
LINE
  5
259
100
AcDbEntity
  8
QUOTATION
100
AcDbLine
 62
3
  6
CONTINUOUS
 10
201.2960724408
 20
345.1979500436
 11
201.2960724408
 21
565.9429897009
  0
LINE
  5
25A
100
AcDbEntity
  8
QUOTATION
100
AcDbLine
 62
3
  6
CONTINUOUS
 10
341.2960724408
 20
565.8179897009
 11
281.0960724408
 21
565.8179897009
  0
LINE
  5
25B
100
AcDbEntity
  8
QUOTATION
100
AcDbLine
 62
3
  6
CONTINUOUS
 10
201.2960724408
 20
565.8179897009
 11
257.2960724408
 21
565.8179897009
  0
INSERT
  5
25C
100
AcDbEntity
  8
QUOTATION
100
AcDbBlockReference
 62
3
  6
CONTINUOUS
  2
_CLOSED
 10
341.2960724408
 20
565.8179897009
 41
0.1875
 42
0.1875
 43
0.1875
  0
INSERT
  5
25D
100
AcDbEntity
  8
QUOTATION
100
AcDbBlockReference
 62
3
  6
CONTINUOUS
  2
_CLOSED
 10
201.2960724408
 20
565.8179897009
 41
0.1875
 42
0.1875
 43
0.1875
 50
180.0
  0
ENDBLK
  5
25E
100
AcDbEntity
  8
0
  6
BYBLOCK
 62
0
100
AcDbBlockEnd
  0
BLOCK
  5
25F
100
AcDbEntity
  8
QUOTATION
100
AcDbBlockBegin
 62
3
  6
CONTINUOUS
  2
*D4
 70
65
 10
0.0
 20
0.0
  3
*D4
  1

  0
MTEXT
  5
260
100
AcDbEntity
  8
QUOTATION
100
AcDbMText
 62
3
  6
CONTINUOUS
  7
STANDARD
 71
2
 72
1
 10
448.3751819427
 20
250.7220094544
 30
0.0
 11
1.0
 21
0.0
 31
0.0
 44
0.9
  1
200
 40
7.0
 41
16.8
  0
LINE
  5
261
100
AcDbEntity
  8
QUOTATION
100
AcDbLine
 62
3
  6
CONTINUOUS
 10
472.3152352536
 20
143.7220094544
 11
448.2501819427
 21
143.7220094544
  0
LINE
  5
262
100
AcDbEntity
  8
QUOTATION
100
AcDbLine
 62
3
  6
CONTINUOUS
 10
472.3152352536
 20
343.7220094544
 11
448.2501819427
 21
343.7220094544
  0
LINE
  5
263
100
AcDbEntity
  8
QUOTATION
100
AcDbLine
 62
3
  6
CONTINUOUS
 10
448.3751819427
 20
143.7220094544
 11
448.3751819427
 21
240.2220094544
  0
LINE
  5
264
100
AcDbEntity
  8
QUOTATION
100
AcDbLine
 62
3
  6
CONTINUOUS
 10
448.3751819427
 20
343.7220094544
 11
448.3751819427
 21
254.2220094544
  0
INSERT
  5
265
100
AcDbEntity
  8
QUOTATION
100
AcDbBlockReference
 62
3
  6
CONTINUOUS
  2
_CLOSED
 10
448.3751819427
 20
143.7220094544
 41
0.1875
 42
0.1875
 43
0.1875
 50
270.0
  0
INSERT
  5
266
100
AcDbEntity
  8
QUOTATION
100
AcDbBlockReference
 62
3
  6
CONTINUOUS
  2
_CLOSED
 10
448.3751819427
 20
343.7220094544
 41
0.1875
 42
0.1875
 43
0.1875
 50
90.0
  0
ENDBLK
  5
267
100
AcDbEntity
  8
0
  6
BYBLOCK
 62
0
100
AcDbBlockEnd
  0
BLOCK
  5
268
100
AcDbEntity
  8
QUOTATION
100
AcDbBlockBegin
 62
3
  6
CONTINUOUS
  2
*D5
 70
65
 10
0.0
 20
0.0
  3
*D5
  1

  0
MTEXT
  5
269
100
AcDbEntity
  8
QUOTATION
100
AcDbMText
 62
3
  6
CONTINUOUS
  7
STANDARD
 71
2
 72
1
 10
369.7529338445
 20
252.0729500436
 30
0.0
 11
1.0
 21
0.0
 31
0.0
 44
0.9
  1
211
 40
7.0
 41
16.8
  0
LINE
  5
26A
100
AcDbEntity
  8
QUOTATION
100
AcDbLine
 62
3
  6
CONTINUOUS
 10
339.4210724408
 20
139.5729500436
 11
369.8779338445
 21
139.5729500436
  0
LINE
  5
26B
100
AcDbEntity
  8
QUOTATION
100
AcDbLine
 62
3
  6
CONTINUOUS
 10
339.4210724408
 20
350.5729500436
 11
369.8779338445
 21
350.5729500436
  0
LINE
  5
26C
100
AcDbEntity
  8
QUOTATION
100
AcDbLine
 62
3
  6
CONTINUOUS
 10
369.7529338445
 20
139.5729500436
 11
369.7529338445
 21
241.5729500436
  0
LINE
  5
26D
100
AcDbEntity
  8
QUOTATION
100
AcDbLine
 62
3
  6
CONTINUOUS
 10
369.7529338445
 20
350.5729500436
 11
369.7529338445
 21
255.5729500436
  0
INSERT
  5
26E
100
AcDbEntity
  8
QUOTATION
100
AcDbBlockReference
 62
3
  6
CONTINUOUS
  2
_CLOSED
 10
369.7529338445
 20
139.5729500436
 41
0.1875
 42
0.1875
 43
0.1875
 50
270.0
  0
INSERT
  5
26F
100
AcDbEntity
  8
QUOTATION
100
AcDbBlockReference
 62
3
  6
CONTINUOUS
  2
_CLOSED
 10
369.7529338445
 20
350.5729500436
 41
0.1875
 42
0.1875
 43
0.1875
 50
90.0
  0
ENDBLK
  5
270
100
AcDbEntity
  8
0
  6
BYBLOCK
 62
0
100
AcDbBlockEnd
  0
BLOCK
  5
271
100
AcDbEntity
  8
QUOTATION
100
AcDbBlockBegin
 62
3
  6
CONTINUOUS
  2
*D6
 70
65
 10
0.0
 20
0.0
  3
*D6
  1

  0
MTEXT
  5
272
100
AcDbEntity
  8
QUOTATION
100
AcDbMText
 62
3
  6
CONTINUOUS
  7
STANDARD
 71
2
 72
1
 10
315.0460724408
 20
500.4076618629
 30
0.0
 11
1.0
 21
0.0
 31
0.0
 44
0.9
  1
46.9
 40
7.0
 41
22.4
  0
LINE
  5
273
100
AcDbEntity
  8
QUOTATION
100
AcDbLine
 62
3
  6
CONTINUOUS
 10
341.2960724408
 20
345.1979500436
 11
341.2960724408
 21
497.0326618629
  0
LINE
  5
274
100
AcDbEntity
  8
QUOTATION
100
AcDbLine
 62
3
  6
CONTINUOUS
 10
294.3960724408
 20
395.1979500436
 11
294.3960724408
 21
497.0326618629
  0
LINE
  5
275
100
AcDbEntity
  8
QUOTATION
100
AcDbLine
 62
3
  6
CONTINUOUS
 10
341.2960724408
 20
496.9076618629
 11
329.7460724408
 21
496.9076618629
  0
LINE
  5
276
100
AcDbEntity
  8
QUOTATION
100
AcDbLine
 62
3
  6
CONTINUOUS
 10
294.3960724408
 20
496.9076618629
 11
300.3460724408
 21
496.9076618629
  0
INSERT
  5
277
100
AcDbEntity
  8
QUOTATION
100
AcDbBlockReference
 62
3
  6
CONTINUOUS
  2
_CLOSED
 10
341.2960724408
 20
496.9076618629
 41
0.1875
 42
0.1875
 43
0.1875
  0
INSERT
  5
278
100
AcDbEntity
  8
QUOTATION
100
AcDbBlockReference
 62
3
  6
CONTINUOUS
  2
_CLOSED
 10
294.3960724408
 20
496.9076618629
 41
0.1875
 42
0.1875
 43
0.1875
 50
180.0
  0
ENDBLK
  5
279
100
AcDbEntity
  8
0
  6
BYBLOCK
 62
0
100
AcDbBlockEnd
  0
BLOCK
  5
27A
100
AcDbEntity
  8
QUOTATION
100
AcDbBlockBegin
 62
3
  6
CONTINUOUS
  2
*D7
 70
65
 10
0.0
 20
0.0
  3
*D7
  1

  0
MTEXT
  5
27B
100
AcDbEntity
  8
QUOTATION
100
AcDbMText
 62
3
  6
CONTINUOUS
  7
STANDARD
 71
2
 72
1
 10
880.6304646651
 20
250.7220094544
 30
0.0
 11
1.0
 21
0.0
 31
0.0
 44
0.9
  1
300
 40
7.0
 41
16.8
  0
LINE
  5
27C
100
AcDbEntity
  8
QUOTATION
100
AcDbLine
 62
3
  6
CONTINUOUS
 10
707.5652352536
 20
393.7220094544
 11
880.7554646651
 21
393.7220094544
  0
LINE
  5
27D
100
AcDbEntity
  8
QUOTATION
100
AcDbLine
 62
3
  6
CONTINUOUS
 10
707.5652352536
 20
93.7211969544
 11
880.7554646651
 21
93.7211969544
  0
LINE
  5
27E
100
AcDbEntity
  8
QUOTATION
100
AcDbLine
 62
3
  6
CONTINUOUS
 10
880.6304646651
 20
393.7220094544
 11
880.6304646651
 21
254.2220094544
  0
LINE
  5
27F
100
AcDbEntity
  8
QUOTATION
100
AcDbLine
 62
3
  6
CONTINUOUS
 10
880.6304646651
 20
93.7211969544
 11
880.6304646651
 21
240.2220094544
  0
INSERT
  5
280
100
AcDbEntity
  8
QUOTATION
100
AcDbBlockReference
 62
3
  6
CONTINUOUS
  2
_CLOSED
 10
880.6304646651
 20
393.7220094544
 41
0.1875
 42
0.1875
 43
0.1875
 50
90.0
  0
INSERT
  5
281
100
AcDbEntity
  8
QUOTATION
100
AcDbBlockReference
 62
3
  6
CONTINUOUS
  2
_CLOSED
 10
880.6304646651
 20
93.7211969544
 41
0.1875
 42
0.1875
 43
0.1875
 50
270.0
  0
ENDBLK
  5
282
100
AcDbEntity
  8
0
  6
BYBLOCK
 62
0
100
AcDbBlockEnd
  0
BLOCK
  5
283
100
AcDbEntity
  8
QUOTATION
100
AcDbBlockBegin
 62
3
  6
CONTINUOUS
  2
*D8
 70
65
 10
0.0
 20
0.0
  3
*D8
  1

  0
MTEXT
  5
284
100
AcDbEntity
  8
QUOTATION
100
AcDbMText
 62
3
  6
CONTINUOUS
  7
STANDARD
 71
2
 72
1
 10
855.7689208366
 20
250.7220094544
 30
0.0
 11
1.0
 21
0.0
 31
0.0
 44
0.9
  1
175
 40
7.0
 41
16.8
  0
LINE
  5
285
100
AcDbEntity
  8
QUOTATION
100
AcDbLine
 62
3
  6
CONTINUOUS
 10
740.0652352536
 20
331.2220094544
 11
855.8939208366
 21
331.2220094544
  0
LINE
  5
286
100
AcDbEntity
  8
QUOTATION
100
AcDbLine
 62
3
  6
CONTINUOUS
 10
740.0652352536
 20
156.2220094544
 11
855.8939208366
 21
156.2220094544
  0
LINE
  5
287
100
AcDbEntity
  8
QUOTATION
100
AcDbLine
 62
3
  6
CONTINUOUS
 10
855.7689208366
 20
331.2220094544
 11
855.7689208366
 21
254.2220094544
  0
LINE
  5
288
100
AcDbEntity
  8
QUOTATION
100
AcDbLine
 62
3
  6
CONTINUOUS
 10
855.7689208366
 20
156.2220094544
 11
855.7689208366
 21
240.2220094544
  0
INSERT
  5
289
100
AcDbEntity
  8
QUOTATION
100
AcDbBlockReference
 62
3
  6
CONTINUOUS
  2
_CLOSED
 10
855.7689208366
 20
331.2220094544
 41
0.1875
 42
0.1875
 43
0.1875
 50
90.0
  0
INSERT
  5
28A
100
AcDbEntity
  8
QUOTATION
100
AcDbBlockReference
 62
3
  6
CONTINUOUS
  2
_CLOSED
 10
855.7689208366
 20
156.2220094544
 41
0.1875
 42
0.1875
 43
0.1875
 50
270.0
  0
ENDBLK
  5
28B
100
AcDbEntity
  8
0
  6
BYBLOCK
 62
0
100
AcDbBlockEnd
  0
BLOCK
  5
28C
100
AcDbEntity
  8
QUOTATION
100
AcDbBlockBegin
 62
3
  6
CONTINUOUS
  2
*D9
 70
65
 10
0.0
 20
0.0
  3
*D9
  1

  0
MTEXT
  5
28D
100
AcDbEntity
  8
QUOTATION
100
AcDbMText
 62
3
  6
CONTINUOUS
  7
STANDARD
 71
2
 72
1
 10
680.3402352536
 20
73.8297522639
 30
0.0
 11
1.0
 21
0.0
 31
0.0
 44
0.9
  1
140
 40
7.0
 41
16.8
  0
LINE
  5
28E
100
AcDbEntity
  8
QUOTATION
100
AcDbLine
 62
3
  6
CONTINUOUS
 10
612.4402352536
 20
271.5970094544
 11
612.4402352536
 21
70.2047522639
  0
LINE
  5
28F
100
AcDbEntity
  8
QUOTATION
100
AcDbLine
 62
3
  6
CONTINUOUS
 10
752.4402352536
 20
143.5970094544
 11
752.4402352536
 21
70.2047522639
  0
LINE
  5
290
100
AcDbEntity
  8
QUOTATION
100
AcDbLine
 62
3
  6
CONTINUOUS
 10
612.4402352536
 20
70.3297522639
 11
668.4402352536
 21
70.3297522639
  0
LINE
  5
291
100
AcDbEntity
  8
QUOTATION
100
AcDbLine
 62
3
  6
CONTINUOUS
 10
752.4402352536
 20
70.3297522639
 11
692.2402352536
 21
70.3297522639
  0
INSERT
  5
292
100
AcDbEntity
  8
QUOTATION
100
AcDbBlockReference
 62
3
  6
CONTINUOUS
  2
_CLOSED
 10
612.4402352536
 20
70.3297522639
 41
0.1875
 42
0.1875
 43
0.1875
 50
180.0
  0
INSERT
  5
293
100
AcDbEntity
  8
QUOTATION
100
AcDbBlockReference
 62
3
  6
CONTINUOUS
  2
_CLOSED
 10
752.4402352536
 20
70.3297522639
 41
0.1875
 42
0.1875
 43
0.1875
 50
0.0
  0
ENDBLK
  5
294
100
AcDbEntity
  8
0
  6
BYBLOCK
 62
0
100
AcDbBlockEnd
  0
BLOCK
  5
295
100
AcDbEntity
  8
QUOTATION
100
AcDbBlockBegin
 62
3
  6
CONTINUOUS
  2
*D10
 70
65
 10
0.0
 20
0.0
  3
*D10
  1

  0
MTEXT
  5
296
100
AcDbEntity
  8
QUOTATION
100
AcDbMText
 62
3
  6
CONTINUOUS
  7
STANDARD
 71
2
 72
1
 10
831.9317601704
 20
110.7211969544
 30
0.0
 11
1.0
 21
0.0
 31
0.0
 44
0.9
  1
20
 40
7.0
 41
11.2
  0
LINE
  5
297
100
AcDbEntity
  8
QUOTATION
100
AcDbLine
 62
3
  6
CONTINUOUS
 10
687.5652352536
 20
113.7211969544
 11
832.0567601704
 21
113.7211969544
  0
LINE
  5
298
100
AcDbEntity
  8
QUOTATION
100
AcDbLine
 62
3
  6
CONTINUOUS
 10
707.5652352536
 20
93.7211969544
 11
832.0567601704
 21
93.7211969544
  0
LINE
  5
299
100
AcDbEntity
  8
QUOTATION
100
AcDbLine
 62
3
  6
CONTINUOUS
 10
831.9317601704
 20
113.7211969544
 11
831.9317601704
 21
113.7210852709
  0
LINE
  5
29A
100
AcDbEntity
  8
QUOTATION
100
AcDbLine
 62
3
  6
CONTINUOUS
 10
831.9317601704
 20
93.7211969544
 11
831.9317601704
 21
100.2211969544
  0
INSERT
  5
29B
100
AcDbEntity
  8
QUOTATION
100
AcDbBlockReference
 62
3
  6
CONTINUOUS
  2
_CLOSED
 10
831.9317601704
 20
113.7211969544
 41
0.1875
 42
0.1875
 43
0.1875
 50
90.0
  0
INSERT
  5
29C
100
AcDbEntity
  8
QUOTATION
100
AcDbBlockReference
 62
3
  6
CONTINUOUS
  2
_CLOSED
 10
831.9317601704
 20
93.7211969544
 41
0.1875
 42
0.1875
 43
0.1875
 50
270.0
  0
ENDBLK
  5
29D
100
AcDbEntity
  8
0
  6
BYBLOCK
 62
0
100
AcDbBlockEnd
  0
BLOCK
  5
29E
100
AcDbEntity
  8
QUOTATION
100
AcDbBlockBegin
 62
3
  6
CONTINUOUS
  2
*D11
 70
65
 10
0.0
 20
0.0
  3
*D11
  1

  0
MTEXT
  5
29F
100
AcDbEntity
  8
QUOTATION
100
AcDbMText
 62
3
  6
CONTINUOUS
  7
STANDARD
 71
2
 72
1
 10
686.0402352536
 20
507.6499191421
 30
0.0
 11
1.0
 21
0.0
 31
0.0
 44
0.9
  1
40
 40
7.0
 41
11.2
  0
LINE
  5
2A0
100
AcDbEntity
  8
QUOTATION
100
AcDbLine
 62
3
  6
CONTINUOUS
 10
667.4402352536
 20
393.8470094544
 11
667.4402352536
 21
504.2749191421
  0
LINE
  5
2A1
100
AcDbEntity
  8
QUOTATION
100
AcDbLine
 62
3
  6
CONTINUOUS
 10
707.4402352536
 20
393.8470094544
 11
707.4402352536
 21
504.2749191421
  0
LINE
  5
2A2
100
AcDbEntity
  8
QUOTATION
100
AcDbLine
 62
3
  6
CONTINUOUS
 10
667.4402352536
 20
504.1499191421
 11
676.9402352536
 21
504.1499191421
  0
LINE
  5
2A3
100
AcDbEntity
  8
QUOTATION
100
AcDbLine
 62
3
  6
CONTINUOUS
 10
707.4402352536
 20
504.1499191421
 11
695.1402352536
 21
504.1499191421
  0
INSERT
  5
2A4
100
AcDbEntity
  8
QUOTATION
100
AcDbBlockReference
 62
3
  6
CONTINUOUS
  2
_CLOSED
 10
667.4402352536
 20
504.1499191421
 41
0.1875
 42
0.1875
 43
0.1875
 50
180.0
  0
INSERT
  5
2A5
100
AcDbEntity
  8
QUOTATION
100
AcDbBlockReference
 62
3
  6
CONTINUOUS
  2
_CLOSED
 10
707.4402352536
 20
504.1499191421
 41
0.1875
 42
0.1875
 43
0.1875
  0
ENDBLK
  5
2A6
100
AcDbEntity
  8
0
  6
BYBLOCK
 62
0
100
AcDbBlockEnd
  0
BLOCK
  5
2A7
100
AcDbEntity
  8
QUOTATION
100
AcDbBlockBegin
 62
3
  6
CONTINUOUS
  2
*D12
 70
65
 10
0.0
 20
0.0
  3
*D12
  1

  0
MTEXT
  5
2A8
100
AcDbEntity
  8
QUOTATION
100
AcDbMText
 62
3
  6
CONTINUOUS
  7
STANDARD
 71
2
 72
1
 10
831.9432721474
 20
308.4720094544
 30
0.0
 11
1.0
 21
0.0
 31
0.0
 44
0.9
  1
59.5
 40
7.0
 41
22.4
  0
LINE
  5
2A9
100
AcDbEntity
  8
QUOTATION
100
AcDbLine
 62
3
  6
CONTINUOUS
 10
740.0652352536
 20
331.2220094544
 11
832.0682721474
 21
331.2220094544
  0
LINE
  5
2AA
100
AcDbEntity
  8
QUOTATION
100
AcDbLine
 62
3
  6
CONTINUOUS
 10
612.5652352536
 20
271.7220094544
 11
832.0682721474
 21
271.7220094544
  0
LINE
  5
2AB
100
AcDbEntity
  8
QUOTATION
100
AcDbLine
 62
3
  6
CONTINUOUS
 10
831.9432721474
 20
331.2220094544
 11
831.9432721474
 21
311.9720094544
  0
LINE
  5
2AC
100
AcDbEntity
  8
QUOTATION
100
AcDbLine
 62
3
  6
CONTINUOUS
 10
831.9432721474
 20
271.7220094544
 11
831.9432721474
 21
297.9720094544
  0
INSERT
  5
2AD
100
AcDbEntity
  8
QUOTATION
100
AcDbBlockReference
 62
3
  6
CONTINUOUS
  2
_CLOSED
 10
831.9432721474
 20
331.2220094544
 41
0.1875
 42
0.1875
 43
0.1875
 50
90.0
  0
INSERT
  5
2AE
100
AcDbEntity
  8
QUOTATION
100
AcDbBlockReference
 62
3
  6
CONTINUOUS
  2
_CLOSED
 10
831.9432721474
 20
271.7220094544
 41
0.1875
 42
0.1875
 43
0.1875
 50
270.0
  0
ENDBLK
  5
2AF
100
AcDbEntity
  8
0
  6
BYBLOCK
 62
0
100
AcDbBlockEnd
  0
BLOCK
  5
2B0
100
AcDbEntity
  8
QUOTATION
100
AcDbBlockBegin
 62
3
  6
CONTINUOUS
  2
*D13
 70
65
 10
0.0
 20
0.0
  3
*D13
  1

  0
MTEXT
  5
2B1
100
AcDbEntity
  8
QUOTATION
100
AcDbMText
 62
3
  6
CONTINUOUS
  7
STANDARD
 71
2
 72
1
 10
566.0402352536
 20
507.6499191421
 30
0.0
 11
1.0
 21
0.0
 31
0.0
 44
0.9
  1
80
 40
7.0
 41
11.2
  0
LINE
  5
2B2
100
AcDbEntity
  8
QUOTATION
100
AcDbLine
 62
3
  6
CONTINUOUS
 10
527.4402352536
 20
373.8470094544
 11
527.4402352536
 21
504.2749191421
  0
LINE
  5
2B3
100
AcDbEntity
  8
QUOTATION
100
AcDbLine
 62
3
  6
CONTINUOUS
 10
607.4402352536
 20
373.8470094544
 11
607.4402352536
 21
504.2749191421
  0
LINE
  5
2B4
100
AcDbEntity
  8
QUOTATION
100
AcDbLine
 62
3
  6
CONTINUOUS
 10
527.4402352536
 20
504.1499191421
 11
556.9402352536
 21
504.1499191421
  0
LINE
  5
2B5
100
AcDbEntity
  8
QUOTATION
100
AcDbLine
 62
3
  6
CONTINUOUS
 10
607.4402352536
 20
504.1499191421
 11
575.1402352536
 21
504.1499191421
  0
INSERT
  5
2B6
100
AcDbEntity
  8
QUOTATION
100
AcDbBlockReference
 62
3
  6
CONTINUOUS
  2
_CLOSED
 10
527.4402352536
 20
504.1499191421
 41
0.1875
 42
0.1875
 43
0.1875
 50
180.0
  0
INSERT
  5
2B7
100
AcDbEntity
  8
QUOTATION
100
AcDbBlockReference
 62
3
  6
CONTINUOUS
  2
_CLOSED
 10
607.4402352536
 20
504.1499191421
 41
0.1875
 42
0.1875
 43
0.1875
  0
ENDBLK
  5
2B8
100
AcDbEntity
  8
0
  6
BYBLOCK
 62
0
100
AcDbBlockEnd
  0
BLOCK
  5
2B9
100
AcDbEntity
  8
QUOTATION
100
AcDbBlockBegin
 62
3
  6
CONTINUOUS
  2
*D14
 70
65
 10
0.0
 20
0.0
  3
*D14
  1

  0
MTEXT
  5
2BA
100
AcDbEntity
  8
QUOTATION
100
AcDbMText
 62
3
  6
CONTINUOUS
  7
STANDARD
 71
2
 72
1
 10
989.2540246682
 20
726.7641271371
 30
0.0
 11
1.0
 21
0.0
 31
0.0
 44
0.9
  1
212
 40
7.0
 41
16.8
  0
LINE
  5
2BB
100
AcDbEntity
  8
QUOTATION
100
AcDbLine
 62
3
  6
CONTINUOUS
 10
752.5652352536
 20
613.7641271371
 11
989.3790246682
 21
613.7641271371
  0
LINE
  5
2BC
100
AcDbEntity
  8
QUOTATION
100
AcDbLine
 62
3
  6
CONTINUOUS
 10
652.5652352536
 20
825.7641271371
 11
989.3790246682
 21
825.7641271371
  0
LINE
  5
2BD
100
AcDbEntity
  8
QUOTATION
100
AcDbLine
 62
3
  6
CONTINUOUS
 10
989.2540246682
 20
613.7641271371
 11
989.2540246682
 21
716.2641271371
  0
LINE
  5
2BE
100
AcDbEntity
  8
QUOTATION
100
AcDbLine
 62
3
  6
CONTINUOUS
 10
989.2540246682
 20
825.7641271371
 11
989.2540246682
 21
730.2641271371
  0
INSERT
  5
2BF
100
AcDbEntity
  8
QUOTATION
100
AcDbBlockReference
 62
3
  6
CONTINUOUS
  2
_CLOSED
 10
989.2540246682
 20
613.7641271371
 41
0.1875
 42
0.1875
 43
0.1875
 50
270.0
  0
INSERT
  5
2C0
100
AcDbEntity
  8
QUOTATION
100
AcDbBlockReference
 62
3
  6
CONTINUOUS
  2
_CLOSED
 10
989.2540246682
 20
825.7641271371
 41
0.1875
 42
0.1875
 43
0.1875
 50
90.0
  0
ENDBLK
  5
2C1
100
AcDbEntity
  8
0
  6
BYBLOCK
 62
0
100
AcDbBlockEnd
  0
BLOCK
  5
2C2
100
AcDbEntity
  8
QUOTATION
100
AcDbBlockBegin
 62
3
  6
CONTINUOUS
  2
*D15
 70
65
 10
0.0
 20
0.0
  3
*D15
  1

  0
MTEXT
  5
2C3
100
AcDbEntity
  8
QUOTATION
100
AcDbMText
 62
3
  6
CONTINUOUS
  7
STANDARD
 71
2
 72
1
 10
878.829985901
 20
663.7641271371
 30
0.0
 11
1.0
 21
0.0
 31
0.0
 44
0.9
  1
86
 40
7.0
 41
11.2
  0
LINE
  5
2C4
100
AcDbEntity
  8
QUOTATION
100
AcDbLine
 62
3
  6
CONTINUOUS
 10
752.5652352536
 20
613.7641271371
 11
878.954985901
 21
613.7641271371
  0
LINE
  5
2C5
100
AcDbEntity
  8
QUOTATION
100
AcDbLine
 62
3
  6
CONTINUOUS
 10
752.5652352536
 20
699.7641271371
 11
878.954985901
 21
699.7641271371
  0
LINE
  5
2C6
100
AcDbEntity
  8
QUOTATION
100
AcDbLine
 62
3
  6
CONTINUOUS
 10
878.829985901
 20
613.7641271371
 11
878.829985901
 21
653.2641271371
  0
LINE
  5
2C7
100
AcDbEntity
  8
QUOTATION
100
AcDbLine
 62
3
  6
CONTINUOUS
 10
878.829985901
 20
699.7641271371
 11
878.829985901
 21
667.2641271371
  0
INSERT
  5
2C8
100
AcDbEntity
  8
QUOTATION
100
AcDbBlockReference
 62
3
  6
CONTINUOUS
  2
_CLOSED
 10
878.829985901
 20
613.7641271371
 41
0.1875
 42
0.1875
 43
0.1875
 50
270.0
  0
INSERT
  5
2C9
100
AcDbEntity
  8
QUOTATION
100
AcDbBlockReference
 62
3
  6
CONTINUOUS
  2
_CLOSED
 10
878.829985901
 20
699.7641271371
 41
0.1875
 42
0.1875
 43
0.1875
 50
90.0
  0
ENDBLK
  5
2CA
100
AcDbEntity
  8
0
  6
BYBLOCK
 62
0
100
AcDbBlockEnd
  0
BLOCK
  5
2CB
100
AcDbEntity
  8
QUOTATION
100
AcDbBlockBegin
 62
3
  6
CONTINUOUS
  2
*D16
 70
65
 10
0.0
 20
0.0
  3
*D16
  1

  0
MTEXT
  5
2CC
100
AcDbEntity
  8
QUOTATION
100
AcDbMText
 62
3
  6
CONTINUOUS
  7
STANDARD
 71
2
 72
1
 10
939.7897925965
 20
703.7641271371
 30
0.0
 11
1.0
 21
0.0
 31
0.0
 44
0.9
  1
166
 40
7.0
 41
16.8
  0
LINE
  5
2CD
100
AcDbEntity
  8
QUOTATION
100
AcDbLine
 62
3
  6
CONTINUOUS
 10
752.5652352536
 20
613.7641271371
 11
939.9147925965
 21
613.7641271371
  0
LINE
  5
2CE
100
AcDbEntity
  8
QUOTATION
100
AcDbLine
 62
3
  6
CONTINUOUS
 10
620.0652352536
 20
779.7641271371
 11
939.9147925965
 21
779.7641271371
  0
LINE
  5
2CF
100
AcDbEntity
  8
QUOTATION
100
AcDbLine
 62
3
  6
CONTINUOUS
 10
939.7897925965
 20
613.7641271371
 11
939.7897925965
 21
693.2641271371
  0
LINE
  5
2D0
100
AcDbEntity
  8
QUOTATION
100
AcDbLine
 62
3
  6
CONTINUOUS
 10
939.7897925965
 20
779.7641271371
 11
939.7897925965
 21
707.2641271371
  0
INSERT
  5
2D1
100
AcDbEntity
  8
QUOTATION
100
AcDbBlockReference
 62
3
  6
CONTINUOUS
  2
_CLOSED
 10
939.7897925965
 20
613.7641271371
 41
0.1875
 42
0.1875
 43
0.1875
 50
270.0
  0
INSERT
  5
2D2
100
AcDbEntity
  8
QUOTATION
100
AcDbBlockReference
 62
3
  6
CONTINUOUS
  2
_CLOSED
 10
939.7897925965
 20
779.7641271371
 41
0.1875
 42
0.1875
 43
0.1875
 50
90.0
  0
ENDBLK
  5
2D3
100
AcDbEntity
  8
0
  6
BYBLOCK
 62
0
100
AcDbBlockEnd
  0
BLOCK
  5
2D4
100
AcDbEntity
  8
QUOTATION
100
AcDbBlockBegin
 62
3
  6
CONTINUOUS
  2
*D17
 70
65
 10
0.0
 20
0.0
  3
*D17
  1

  0
MTEXT
  5
2D5
100
AcDbEntity
  8
QUOTATION
100
AcDbMText
 62
3
  6
CONTINUOUS
  7
STANDARD
 71
2
 72
1
 10
1086.9679937237
 20
335.5803897011
 30
0.0
 11
1.0
 21
0.0
 31
0.0
 44
0.9
  1
4x \Fgdt;{\Fgdt;n}\Ftxt;4.5
 40
7.0
 41
42.9333333333
  0
LINE
  5
2D6
100
AcDbEntity
  8
QUOTATION
100
AcDbLine
 62
3
  6
CONTINUOUS
 10
1003.3189596032
 20
298.5188875734
 11
1028.6113775635
 21
332.0803897011
  0
LINE
  5
2D7
100
AcDbEntity
  8
QUOTATION
100
AcDbLine
 62
3
  6
CONTINUOUS
 10
1028.6113775635
 20
332.0803897011
 11
1062.0013270571
 21
332.0803897011
  0
INSERT
  5
2D8
100
AcDbEntity
  8
QUOTATION
100
AcDbBlockReference
 62
3
  6
CONTINUOUS
  2
_CLOSED
 10
1003.3189596032
 20
298.5188875734
 41
0.1875
 42
0.1875
 43
0.1875
 50
232.9978091307
  0
ENDBLK
  5
2D9
100
AcDbEntity
  8
0
  6
BYBLOCK
 62
0
100
AcDbBlockEnd
  0
BLOCK
  5
2DA
100
AcDbEntity
  8
QUOTATION
100
AcDbBlockBegin
 62
3
  6
CONTINUOUS
  2
*D18
 70
65
 10
0.0
 20
0.0
  3
*D18
  1

  0
MTEXT
  5
2DB
100
AcDbEntity
  8
QUOTATION
100
AcDbMText
 62
3
  6
CONTINUOUS
  7
TEXTSTYLE_1
 71
2
 72
1
 10
1055.4908409716
 20
298.6662964113
 30
0.0
 11
1.0
 21
0.0
 31
0.0
 44
0.9
  1
{\Fgdt;n}\Ftxt;31
 40
7.0
 41
20.5333333333
  0
LINE
  5
2DC
100
AcDbEntity
  8
QUOTATION
100
AcDbLine
 62
3
  6
CONTINUOUS
 10
1013.0883456981
 20
282.51630836
 11
1026.124174305
 21
295.1662964113
  0
LINE
  5
2DD
100
AcDbEntity
  8
QUOTATION
100
AcDbLine
 62
3
  6
CONTINUOUS
 10
1026.124174305
 20
295.1662964113
 11
1041.724174305
 21
295.1662964113
  0
INSERT
  5
2DE
100
AcDbEntity
  8
QUOTATION
100
AcDbBlockReference
 62
3
  6
CONTINUOUS
  2
_CLOSED
 10
1013.0883456981
 20
282.51630836
 41
0.1875
 42
0.1875
 43
0.1875
 50
224.1393938093
  0
ENDBLK
  5
2DF
100
AcDbEntity
  8
0
  6
BYBLOCK
 62
0
100
AcDbBlockEnd
  0
BLOCK
  5
2E0
100
AcDbEntity
  8
QUOTATION
100
AcDbBlockBegin
 62
3
  6
CONTINUOUS
  2
*D19
 70
65
 10
0.0
 20
0.0
  3
*D19
  1

  0
MTEXT
  5
2E1
100
AcDbEntity
  8
QUOTATION
100
AcDbMText
 62
3
  6
CONTINUOUS
  7
STANDARD
 71
2
 72
1
 10
1000.5648070913
 20
221.4676667363
 30
0.0
 11
1.0
 21
0.0
 31
0.0
 44
0.9
  1
50
 40
7.0
 41
11.2
  0
LINE
  5
2E2
100
AcDbEntity
  8
QUOTATION
100
AcDbLine
 62
3
  6
CONTINUOUS
 10
976.9648070913
 20
271.5970094544
 11
976.9648070913
 21
217.8426667363
  0
LINE
  5
2E3
100
AcDbEntity
  8
QUOTATION
100
AcDbLine
 62
3
  6
CONTINUOUS
 10
1026.9648070913
 20
271.5970094544
 11
1026.9648070913
 21
217.8426667363
  0
LINE
  5
2E4
100
AcDbEntity
  8
QUOTATION
100
AcDbLine
 62
3
  6
CONTINUOUS
 10
976.9648070913
 20
217.9676667363
 11
991.4648070913
 21
217.9676667363
  0
LINE
  5
2E5
100
AcDbEntity
  8
QUOTATION
100
AcDbLine
 62
3
  6
CONTINUOUS
 10
1026.9648070913
 20
217.9676667363
 11
1009.6648070913
 21
217.9676667363
  0
INSERT
  5
2E6
100
AcDbEntity
  8
QUOTATION
100
AcDbBlockReference
 62
3
  6
CONTINUOUS
  2
_CLOSED
 10
976.9648070913
 20
217.9676667363
 41
0.1875
 42
0.1875
 43
0.1875
 50
180.0
  0
INSERT
  5
2E7
100
AcDbEntity
  8
QUOTATION
100
AcDbBlockReference
 62
3
  6
CONTINUOUS
  2
_CLOSED
 10
1026.9648070913
 20
217.9676667363
 41
0.1875
 42
0.1875
 43
0.1875
  0
ENDBLK
  5
2E8
100
AcDbEntity
  8
0
  6
BYBLOCK
 62
0
100
AcDbBlockEnd
  0
BLOCK
  5
2E9
100
AcDbEntity
  8
QUOTATION
100
AcDbBlockBegin
 62
3
  6
CONTINUOUS
  2
*D20
 70
65
 10
0.0
 20
0.0
  3
*D20
  1

  0
MTEXT
  5
2EA
100
AcDbEntity
  8
QUOTATION
100
AcDbMText
 62
3
  6
CONTINUOUS
  7
STANDARD
 71
2
 72
1
 10
963.2619601085
 20
278.7220094544
 30
0.0
 11
1.0
 21
0.0
 31
0.0
 44
0.9
  1
50
 40
7.0
 41
11.2
  0
LINE
  5
2EB
100
AcDbEntity
  8
QUOTATION
100
AcDbLine
 62
3
  6
CONTINUOUS
 10
1001.8398070913
 20
246.7220094544
 11
963.1369601085
 21
246.7220094544
  0
LINE
  5
2EC
100
AcDbEntity
  8
QUOTATION
100
AcDbLine
 62
3
  6
CONTINUOUS
 10
1001.8398070913
 20
296.7220094544
 11
963.1369601085
 21
296.7220094544
  0
LINE
  5
2ED
100
AcDbEntity
  8
QUOTATION
100
AcDbLine
 62
3
  6
CONTINUOUS
 10
963.2619601085
 20
246.7220094544
 11
963.2619601085
 21
268.2220094544
  0
LINE
  5
2EE
100
AcDbEntity
  8
QUOTATION
100
AcDbLine
 62
3
  6
CONTINUOUS
 10
963.2619601085
 20
296.7220094544
 11
963.2619601085
 21
282.2220094544
  0
INSERT
  5
2EF
100
AcDbEntity
  8
QUOTATION
100
AcDbBlockReference
 62
3
  6
CONTINUOUS
  2
_CLOSED
 10
963.2619601085
 20
246.7220094544
 41
0.1875
 42
0.1875
 43
0.1875
 50
270.0
  0
INSERT
  5
2F0
100
AcDbEntity
  8
QUOTATION
100
AcDbBlockReference
 62
3
  6
CONTINUOUS
  2
_CLOSED
 10
963.2619601085
 20
296.7220094544
 41
0.1875
 42
0.1875
 43
0.1875
 50
90.0
  0
ENDBLK
  5
2F1
100
AcDbEntity
  8
0
  6
BYBLOCK
 62
0
100
AcDbBlockEnd
  0
BLOCK
  5
2F2
100
AcDbEntity
  8
QUOTATION
100
AcDbBlockBegin
 62
3
  6
CONTINUOUS
  2
*D21
 70
65
 10
0.0
 20
0.0
  3
*D21
  1

  0
MTEXT
  5
2F3
100
AcDbEntity
  8
QUOTATION
100
AcDbMText
 62
3
  6
CONTINUOUS
  7
STANDARD
 71
2
 72
1
 10
278.9130015747
 20
440.4076618629
 30
0.0
 11
1.0
 21
0.0
 31
0.0
 44
0.9
  1
6
 40
7.0
 41
5.6
  0
LINE
  5
2F4
100
AcDbEntity
  8
QUOTATION
100
AcDbLine
 62
3
  6
CONTINUOUS
 10
300.3960724408
 20
395.1979500436
 11
300.3960724408
 21
437.0326618629
  0
LINE
  5
2F5
100
AcDbEntity
  8
QUOTATION
100
AcDbLine
 62
3
  6
CONTINUOUS
 10
294.3960724408
 20
395.1979500436
 11
294.3960724408
 21
437.0326618629
  0
LINE
  5
2F6
100
AcDbEntity
  8
QUOTATION
100
AcDbLine
 62
3
  6
CONTINUOUS
 10
300.3960724408
 20
436.9076618629
 11
300.8960724408
 21
436.9076618629
  0
LINE
  5
2F7
100
AcDbEntity
  8
QUOTATION
100
AcDbLine
 62
3
  6
CONTINUOUS
 10
294.3960724408
 20
436.9076618629
 11
285.2130015747
 21
436.9076618629
  0
INSERT
  5
2F8
100
AcDbEntity
  8
QUOTATION
100
AcDbBlockReference
 62
3
  6
CONTINUOUS
  2
_CLOSED
 10
300.3960724408
 20
436.9076618629
 41
0.1875
 42
0.1875
 43
0.1875
 50
180.0
  0
INSERT
  5
2F9
100
AcDbEntity
  8
QUOTATION
100
AcDbBlockReference
 62
3
  6
CONTINUOUS
  2
_CLOSED
 10
294.3960724408
 20
436.9076618629
 41
0.1875
 42
0.1875
 43
0.1875
  0
ENDBLK
  5
2FA
100
AcDbEntity
  8
0
  6
BYBLOCK
 62
0
100
AcDbBlockEnd
  0
BLOCK
  5
2FB
100
AcDbEntity
  8
QUOTATION
100
AcDbBlockBegin
 62
3
  6
CONTINUOUS
  2
*D22
 70
65
 10
0.0
 20
0.0
  3
*D22
  1

  0
MTEXT
  5
2FC
100
AcDbEntity
  8
QUOTATION
100
AcDbMText
 62
3
  6
CONTINUOUS
  7
STANDARD
 71
2
 72
1
 10
448.3751819427
 20
375.7220094544
 30
0.0
 11
1.0
 21
0.0
 31
0.0
 44
0.9
  1
50
 40
7.0
 41
11.2
  0
LINE
  5
2FD
100
AcDbEntity
  8
QUOTATION
100
AcDbLine
 62
3
  6
CONTINUOUS
 10
472.3152352536
 20
343.7220094544
 11
448.2501819427
 21
343.7220094544
  0
LINE
  5
2FE
100
AcDbEntity
  8
QUOTATION
100
AcDbLine
 62
3
  6
CONTINUOUS
 10
507.3152352536
 20
393.7220094544
 11
448.2501819427
 21
393.7220094544
  0
LINE
  5
2FF
100
AcDbEntity
  8
QUOTATION
100
AcDbLine
 62
3
  6
CONTINUOUS
 10
448.3751819427
 20
343.7220094544
 11
448.3751819427
 21
365.2220094544
  0
LINE
  5
300
100
AcDbEntity
  8
QUOTATION
100
AcDbLine
 62
3
  6
CONTINUOUS
 10
448.3751819427
 20
393.7220094544
 11
448.3751819427
 21
379.2220094544
  0
INSERT
  5
301
100
AcDbEntity
  8
QUOTATION
100
AcDbBlockReference
 62
3
  6
CONTINUOUS
  2
_CLOSED
 10
448.3751819427
 20
343.7220094544
 41
0.1875
 42
0.1875
 43
0.1875
 50
270.0
  0
INSERT
  5
302
100
AcDbEntity
  8
QUOTATION
100
AcDbBlockReference
 62
3
  6
CONTINUOUS
  2
_CLOSED
 10
448.3751819427
 20
393.7220094544
 41
0.1875
 42
0.1875
 43
0.1875
 50
90.0
  0
ENDBLK
  5
303
100
AcDbEntity
  8
0
  6
BYBLOCK
 62
0
100
AcDbBlockEnd
  0
BLOCK
  5
304
100
AcDbEntity
  8
QUOTATION
100
AcDbBlockBegin
 62
3
  6
CONTINUOUS
  2
*D23
 70
65
 10
0.0
 20
0.0
  3
*D23
  1

  0
MTEXT
  5
305
100
AcDbEntity
  8
QUOTATION
100
AcDbMText
 62
3
  6
CONTINUOUS
  7
STANDARD
 71
2
 72
1
 10
448.3751819427
 20
125.7211969544
 30
0.0
 11
1.0
 21
0.0
 31
0.0
 44
0.9
  1
50
 40
7.0
 41
11.2
  0
LINE
  5
306
100
AcDbEntity
  8
QUOTATION
100
AcDbLine
 62
3
  6
CONTINUOUS
 10
507.3152352536
 20
143.7211969544
 11
448.2501819427
 21
143.7211969544
  0
LINE
  5
307
100
AcDbEntity
  8
QUOTATION
100
AcDbLine
 62
3
  6
CONTINUOUS
 10
507.3152352536
 20
93.7211969544
 11
448.2501819427
 21
93.7211969544
  0
LINE
  5
308
100
AcDbEntity
  8
QUOTATION
100
AcDbLine
 62
3
  6
CONTINUOUS
 10
448.3751819427
 20
143.7211969544
 11
448.3751819427
 21
129.2211969544
  0
LINE
  5
309
100
AcDbEntity
  8
QUOTATION
100
AcDbLine
 62
3
  6
CONTINUOUS
 10
448.3751819427
 20
93.7211969544
 11
448.3751819427
 21
115.2211969544
  0
INSERT
  5
30A
100
AcDbEntity
  8
QUOTATION
100
AcDbBlockReference
 62
3
  6
CONTINUOUS
  2
_CLOSED
 10
448.3751819427
 20
143.7211969544
 41
0.1875
 42
0.1875
 43
0.1875
 50
90.0
  0
INSERT
  5
30B
100
AcDbEntity
  8
QUOTATION
100
AcDbBlockReference
 62
3
  6
CONTINUOUS
  2
_CLOSED
 10
448.3751819427
 20
93.7211969544
 41
0.1875
 42
0.1875
 43
0.1875
 50
270.0
  0
ENDBLK
  5
30C
100
AcDbEntity
  8
0
  6
BYBLOCK
 62
0
100
AcDbBlockEnd
  0
BLOCK
  5
30D
100
AcDbEntity
  8
QUOTATION
100
AcDbBlockBegin
 62
3
  6
CONTINUOUS
  2
*D24
 70
65
 10
0.0
 20
0.0
  3
*D24
  1

  0
MTEXT
  5
30E
100
AcDbEntity
  8
QUOTATION
100
AcDbMText
 62
3
  6
CONTINUOUS
  7
TEXTSTYLE_1
 71
2
 72
1
 10
793.778449239
 20
360.947351801
 30
0.0
 11
1.0
 21
0.0
 31
0.0
 44
0.9
  1
{\Fgdt;n}\Ftxt;9
 40
7.0
 41
14.9333333333
  0
LINE
  5
30F
100
AcDbEntity
  8
QUOTATION
100
AcDbLine
 62
3
  6
CONTINUOUS
 10
743.3413364534
 20
334.1686194776
 11
770.2106282194
 21
357.447351801
  0
LINE
  5
310
100
AcDbEntity
  8
QUOTATION
100
AcDbLine
 62
3
  6
CONTINUOUS
 10
770.2106282194
 20
357.447351801
 11
782.8117825724
 21
357.447351801
  0
INSERT
  5
311
100
AcDbEntity
  8
QUOTATION
100
AcDbBlockReference
 62
3
  6
CONTINUOUS
  2
_CLOSED
 10
743.3413364534
 20
334.1686194776
 41
0.1875
 42
0.1875
 43
0.1875
 50
220.9046554891
  0
ENDBLK
  5
312
100
AcDbEntity
  8
0
  6
BYBLOCK
 62
0
100
AcDbBlockEnd
  0
BLOCK
  5
313
100
AcDbEntity
  8
QUOTATION
100
AcDbBlockBegin
 62
3
  6
CONTINUOUS
  2
*D25
 70
65
 10
0.0
 20
0.0
  3
*D25
  1

  0
MTEXT
  5
314
100
AcDbEntity
  8
QUOTATION
100
AcDbMText
 62
3
  6
CONTINUOUS
  7
STANDARD
 71
2
 72
1
 10
79.8947336832
 20
347.5786933706
 30
0.0
 11
1.0
 21
0.0
 31
0.0
 44
0.9
  1
96
 40
7.0
 41
11.2
  0
LINE
  5
315
100
AcDbEntity
  8
QUOTATION
100
AcDbLine
 62
3
  6
CONTINUOUS
 10
129.2960724408
 20
311.8470094544
 11
129.2960724408
 21
344.2036933706
  0
LINE
  5
316
100
AcDbEntity
  8
QUOTATION
100
AcDbLine
 62
3
  6
CONTINUOUS
 10
33.2933949256
 20
271.8470094544
 11
33.2933949256
 21
344.2036933706
  0
LINE
  5
317
100
AcDbEntity
  8
QUOTATION
100
AcDbLine
 62
3
  6
CONTINUOUS
 10
129.2960724408
 20
344.0786933706
 11
88.9947336832
 21
344.0786933706
  0
LINE
  5
318
100
AcDbEntity
  8
QUOTATION
100
AcDbLine
 62
3
  6
CONTINUOUS
 10
33.2933949256
 20
344.0786933706
 11
70.7947336832
 21
344.0786933706
  0
INSERT
  5
319
100
AcDbEntity
  8
QUOTATION
100
AcDbBlockReference
 62
3
  6
CONTINUOUS
  2
_CLOSED
 10
129.2960724408
 20
344.0786933706
 41
0.1875
 42
0.1875
 43
0.1875
  0
INSERT
  5
31A
100
AcDbEntity
  8
QUOTATION
100
AcDbBlockReference
 62
3
  6
CONTINUOUS
  2
_CLOSED
 10
33.2933949256
 20
344.0786933706
 41
0.1875
 42
0.1875
 43
0.1875
 50
180.0
  0
ENDBLK
  5
31B
100
AcDbEntity
  8
0
  6
BYBLOCK
 62
0
100
AcDbBlockEnd
  0
BLOCK
  5
31C
100
AcDbEntity
  8
QUOTATION
100
AcDbBlockBegin
 62
3
  6
CONTINUOUS
  2
*D26
 70
65
 10
0.0
 20
0.0
  3
*D26
  1

  0
MTEXT
  5
31D
100
AcDbEntity
  8
QUOTATION
100
AcDbMText
 62
3
  6
CONTINUOUS
  7
STANDARD
 71
2
 72
1
 10
431.9201009708
 20
290.9716032044
 30
0.0
 11
1.0
 21
0.0
 31
0.0
 44
0.9
  1
380.5
 40
7.0
 41
28.0
  0
LINE
  5
31E
100
AcDbEntity
  8
QUOTATION
100
AcDbLine
 62
3
  6
CONTINUOUS
 10
472.3152352536
 20
474.2220094544
 11
431.7951009708
 21
474.2220094544
  0
LINE
  5
31F
100
AcDbEntity
  8
QUOTATION
100
AcDbLine
 62
3
  6
CONTINUOUS
 10
506.3152352536
 20
93.7211969544
 11
431.7951009708
 21
93.7211969544
  0
LINE
  5
320
100
AcDbEntity
  8
QUOTATION
100
AcDbLine
 62
3
  6
CONTINUOUS
 10
431.9201009708
 20
474.2220094544
 11
431.9201009708
 21
294.4716032044
  0
LINE
  5
321
100
AcDbEntity
  8
QUOTATION
100
AcDbLine
 62
3
  6
CONTINUOUS
 10
431.9201009708
 20
93.7211969544
 11
431.9201009708
 21
280.4716032044
  0
INSERT
  5
322
100
AcDbEntity
  8
QUOTATION
100
AcDbBlockReference
 62
3
  6
CONTINUOUS
  2
_CLOSED
 10
431.9201009708
 20
474.2220094544
 41
0.1875
 42
0.1875
 43
0.1875
 50
90.0
  0
INSERT
  5
323
100
AcDbEntity
  8
QUOTATION
100
AcDbBlockReference
 62
3
  6
CONTINUOUS
  2
_CLOSED
 10
431.9201009708
 20
93.7211969544
 41
0.1875
 42
0.1875
 43
0.1875
 50
270.0
  0
ENDBLK
  5
324
100
AcDbEntity
  8
0
  6
BYBLOCK
 62
0
100
AcDbBlockEnd
  0
BLOCK
  5
325
100
AcDbEntity
  8
QUOTATION
100
AcDbBlockBegin
 62
3
  6
CONTINUOUS
  2
*D27
 70
65
 10
0.0
 20
0.0
  3
*D27
  1

  0
MTEXT
  5
326
100
AcDbEntity
  8
QUOTATION
100
AcDbMText
 62
3
  6
CONTINUOUS
  7
TEXTSTYLE_1
 71
2
 72
1
 10
798.4067289841
 20
459.5579294222
 30
0.0
 11
1.0
 21
0.0
 31
0.0
 44
0.9
  1
{\Fgdt;n}\Ftxt;13
 40
7.0
 41
20.5333333333
  0
LINE
  5
327
100
AcDbEntity
  8
QUOTATION
100
AcDbLine
 62
3
  6
CONTINUOUS
 10
692.0075218922
 20
378.3469302928
 11
768.7501128238
 21
456.0579294222
  0
LINE
  5
328
100
AcDbEntity
  8
QUOTATION
100
AcDbLine
 62
3
  6
CONTINUOUS
 10
768.7501128238
 20
456.0579294222
 11
784.6400623175
 21
456.0579294222
  0
INSERT
  5
329
100
AcDbEntity
  8
QUOTATION
100
AcDbBlockReference
 62
3
  6
CONTINUOUS
  2
_CLOSED
 10
692.0075218922
 20
378.3469302928
 41
0.1875
 42
0.1875
 43
0.1875
 50
225.3592339647
  0
ENDBLK
  5
32A
100
AcDbEntity
  8
0
  6
BYBLOCK
 62
0
100
AcDbBlockEnd
  0
ENDSEC
  0
SECTION
  2
ENTITIES
  0
DIMENSION
  5
32B
100
AcDbEntity
  8
QUOTATION
100
AcDbDimension
 62
3
  6
CONTINUOUS
  2
*D0
 10
739.9402352536
 20
33.5365107832
 11
601.9402352536
 21
33.5365107832
 70
160
 71
2
  1
255
  3
DIMSTYLE_1
100
AcDbAlignedDimension
 13
484.9402352536
 23
156.0970094544
 14
739.9402352536
 24
156.0970094544
100
AcDbRotatedDimension
  0
DIMENSION
  5
32C
100
AcDbEntity
  8
QUOTATION
100
AcDbDimension
 62
3
  6
CONTINUOUS
  2
*D1
 10
612.4402352536
 20
523.8591306307
 11
531.7862159918
 21
523.8591306307
 70
160
 71
2
  1
127.5
  3
DIMSTYLE_1
100
AcDbAlignedDimension
 13
484.9402352536
 23
331.3470094544
 14
612.4402352536
 24
271.8470094544
100
AcDbRotatedDimension
  0
DIMENSION
  5
32D
100
AcDbEntity
  8
QUOTATION
100
AcDbDimension
 62
3
  6
CONTINUOUS
  2
*D2
 10
752.4402352536
 20
551.2330356656
 11
603.9949447686
 21
551.2330356656
 70
160
 71
2
  1
280
  3
DIMSTYLE_1
100
AcDbAlignedDimension
 13
472.4402352536
 23
343.8470094544
 14
752.4402352536
 24
343.8470094544
100
AcDbRotatedDimension
  0
DIMENSION
  5
32E
100
AcDbEntity
  8
QUOTATION
100
AcDbDimension
 62
3
  6
CONTINUOUS
  2
*D3
 10
201.2960724408
 20
565.8179897009
 11
260.7960724408
 21
565.8179897009
 70
160
 71
2
  1
140
  3
DIMSTYLE_1
100
AcDbAlignedDimension
 13
341.2960724408
 23
345.1979500436
 14
201.2960724408
 24
345.1979500436
 50
180.0
100
AcDbRotatedDimension
  0
DIMENSION
  5
32F
100
AcDbEntity
  8
QUOTATION
100
AcDbDimension
 62
3
  6
CONTINUOUS
  2
*D4
 10
448.3751819427
 20
343.7220094544
 11
439.9751819427
 21
247.2220094544
 70
160
 71
2
  1
200
  3
DIMSTYLE_1
100
AcDbAlignedDimension
 13
472.3152352536
 23
143.7220094544
 14
472.3152352536
 24
343.7220094544
 50
90.0
100
AcDbRotatedDimension
  0
DIMENSION
  5
330
100
AcDbEntity
  8
QUOTATION
100
AcDbDimension
 62
3
  6
CONTINUOUS
  2
*D5
 10
369.7529338445
 20
350.5729500436
 11
361.3529338445
 21
248.5729500436
 70
160
 71
2
  1
211
  3
DIMSTYLE_1
100
AcDbAlignedDimension
 13
339.4210724408
 23
139.5729500436
 14
339.4210724408
 24
350.5729500436
 50
90.0
100
AcDbRotatedDimension
  0
DIMENSION
  5
331
100
AcDbEntity
  8
QUOTATION
100
AcDbDimension
 62
3
  6
CONTINUOUS
  2
*D6
 10
294.3960724408
 20
496.9076618629
 11
303.8460724408
 21
496.9076618629
 70
160
 71
2
  1
46.9
  3
DIMSTYLE_1
100
AcDbAlignedDimension
 13
341.2960724408
 23
345.1979500436
 14
294.3960724408
 24
395.1979500436
 50
180.0
100
AcDbRotatedDimension
  0
DIMENSION
  5
332
100
AcDbEntity
  8
QUOTATION
100
AcDbDimension
 62
3
  6
CONTINUOUS
  2
*D7
 10
880.6304646651
 20
93.7211969544
 11
872.2304646651
 21
247.2220094544
 70
160
 71
2
  1
300
  3
DIMSTYLE_1
100
AcDbAlignedDimension
 13
707.5652352536
 23
393.7220094544
 14
707.5652352536
 24
93.7211969544
 50
270.0
100
AcDbRotatedDimension
  0
DIMENSION
  5
333
100
AcDbEntity
  8
QUOTATION
100
AcDbDimension
 62
3
  6
CONTINUOUS
  2
*D8
 10
855.7689208366
 20
156.2220094544
 11
847.3689208366
 21
247.2220094544
 70
160
 71
2
  1
175
  3
DIMSTYLE_1
100
AcDbAlignedDimension
 13
740.0652352536
 23
331.2220094544
 14
740.0652352536
 24
156.2220094544
 50
270.0
100
AcDbRotatedDimension
  0
DIMENSION
  5
334
100
AcDbEntity
  8
QUOTATION
100
AcDbDimension
 62
3
  6
CONTINUOUS
  2
*D9
 10
752.4402352536
 20
70.3297522639
 11
671.9402352536
 21
70.3297522639
 70
160
 71
2
  1
140
  3
DIMSTYLE_1
100
AcDbAlignedDimension
 13
612.4402352536
 23
271.5970094544
 14
752.4402352536
 24
143.5970094544
100
AcDbRotatedDimension
  0
DIMENSION
  5
335
100
AcDbEntity
  8
QUOTATION
100
AcDbDimension
 62
3
  6
CONTINUOUS
  2
*D10
 10
831.9317601704
 20
93.7211969544
 11
826.3317601704
 21
107.2211969544
 70
160
 71
2
  1
20
  3
DIMSTYLE_1
100
AcDbAlignedDimension
 13
687.5652352536
 23
113.7211969544
 14
707.5652352536
 24
93.7211969544
 50
270.0
100
AcDbRotatedDimension
  0
DIMENSION
  5
336
100
AcDbEntity
  8
QUOTATION
100
AcDbDimension
 62
3
  6
CONTINUOUS
  2
*D11
 10
707.4402352536
 20
504.1499191421
 11
680.4402352536
 21
504.1499191421
 70
160
 71
2
  1
40
  3
DIMSTYLE_1
100
AcDbAlignedDimension
 13
667.4402352536
 23
393.8470094544
 14
707.4402352536
 24
393.8470094544
100
AcDbRotatedDimension
  0
DIMENSION
  5
337
100
AcDbEntity
  8
QUOTATION
100
AcDbDimension
 62
3
  6
CONTINUOUS
  2
*D12
 10
831.9432721474
 20
271.7220094544
 11
820.7432721474
 21
304.9720094544
 70
160
 71
2
  1
59.5
  3
DIMSTYLE_1
100
AcDbAlignedDimension
 13
740.0652352536
 23
331.2220094544
 14
612.5652352536
 24
271.7220094544
 50
270.0
100
AcDbRotatedDimension
  0
DIMENSION
  5
338
100
AcDbEntity
  8
QUOTATION
100
AcDbDimension
 62
3
  6
CONTINUOUS
  2
*D13
 10
607.4402352536
 20
504.1499191421
 11
560.4402352536
 21
504.1499191421
 70
160
 71
2
  1
80
  3
DIMSTYLE_1
100
AcDbAlignedDimension
 13
527.4402352536
 23
373.8470094544
 14
607.4402352536
 24
373.8470094544
100
AcDbRotatedDimension
  0
DIMENSION
  5
339
100
AcDbEntity
  8
QUOTATION
100
AcDbDimension
 62
3
  6
CONTINUOUS
  2
*D14
 10
989.2540246682
 20
825.7641271371
 11
980.8540246682
 21
723.2641271371
 70
160
 71
2
  1
212
  3
DIMSTYLE_1
100
AcDbAlignedDimension
 13
752.5652352536
 23
613.7641271371
 14
652.5652352536
 24
825.7641271371
 50
90.0
100
AcDbRotatedDimension
  0
DIMENSION
  5
33A
100
AcDbEntity
  8
QUOTATION
100
AcDbDimension
 62
3
  6
CONTINUOUS
  2
*D15
 10
878.829985901
 20
699.7641271371
 11
873.229985901
 21
660.2641271371
 70
160
 71
2
  1
86
  3
DIMSTYLE_1
100
AcDbAlignedDimension
 13
752.5652352536
 23
613.7641271371
 14
752.5652352536
 24
699.7641271371
 50
90.0
100
AcDbRotatedDimension
  0
DIMENSION
  5
33B
100
AcDbEntity
  8
QUOTATION
100
AcDbDimension
 62
3
  6
CONTINUOUS
  2
*D16
 10
939.7897925965
 20
779.7641271371
 11
931.3897925965
 21
700.2641271371
 70
160
 71
2
  1
166
  3
DIMSTYLE_1
100
AcDbAlignedDimension
 13
752.5652352536
 23
613.7641271371
 14
620.0652352536
 24
779.7641271371
 50
90.0
100
AcDbRotatedDimension
  0
DIMENSION
  5
33C
100
AcDbEntity
  8
QUOTATION
100
AcDbDimension
 62
3
  6
CONTINUOUS
  2
*D17
 10
1003.3189596032
 20
298.5188875734
 11
1078.5679937237
 21
332.0803897011
 70
163
 71
2
  1
4x %%c4.5
  3
DIMSTYLE_2
100
AcDbDiametricDimension
 15
1000.6106545794
 25
294.9251313354
  0
DIMENSION
  5
33D
100
AcDbEntity
  8
QUOTATION
100
AcDbDimension
 62
3
  6
CONTINUOUS
  2
*D18
 10
1013.0883456981
 20
282.51630836
 11
1050.3575076383
 21
295.1662964113
 70
163
 71
2
  1
%%c31
  3
DIMSTYLE_2
100
AcDbDiametricDimension
 15
990.8412684845
 25
260.9277105488
  0
DIMENSION
  5
33E
100
AcDbEntity
  8
QUOTATION
100
AcDbDimension
 62
3
  6
CONTINUOUS
  2
*D19
 10
1026.9648070913
 20
217.9676667363
 11
994.9648070913
 21
217.9676667363
 70
160
 71
2
  1
50
  3
DIMSTYLE_1
100
AcDbAlignedDimension
 13
976.9648070913
 23
271.5970094544
 14
1026.9648070913
 24
271.5970094544
100
AcDbRotatedDimension
  0
DIMENSION
  5
33F
100
AcDbEntity
  8
QUOTATION
100
AcDbDimension
 62
3
  6
CONTINUOUS
  2
*D20
 10
963.2619601085
 20
296.7220094544
 11
957.6619601085
 21
275.2220094544
 70
160
 71
2
  1
50
  3
DIMSTYLE_1
100
AcDbAlignedDimension
 13
1001.8398070913
 23
246.7220094544
 14
1001.8398070913
 24
296.7220094544
 50
90.0
100
AcDbRotatedDimension
  0
DIMENSION
  5
340
100
AcDbEntity
  8
QUOTATION
100
AcDbDimension
 62
3
  6
CONTINUOUS
  2
*D21
 10
294.3960724408
 20
436.9076618629
 11
276.1130015747
 21
436.9076618629
 70
160
 71
2
  1
6
  3
DIMSTYLE_1
100
AcDbAlignedDimension
 13
300.3960724408
 23
395.1979500436
 14
294.3960724408
 24
395.1979500436
 50
180.0
100
AcDbRotatedDimension
  0
DIMENSION
  5
341
100
AcDbEntity
  8
QUOTATION
100
AcDbDimension
 62
3
  6
CONTINUOUS
  2
*D22
 10
448.3751819427
 20
393.7220094544
 11
442.7751819427
 21
372.2220094544
 70
160
 71
2
  1
50
  3
DIMSTYLE_1
100
AcDbAlignedDimension
 13
472.3152352536
 23
343.7220094544
 14
507.3152352536
 24
393.7220094544
 50
90.0
100
AcDbRotatedDimension
  0
DIMENSION
  5
342
100
AcDbEntity
  8
QUOTATION
100
AcDbDimension
 62
3
  6
CONTINUOUS
  2
*D23
 10
448.3751819427
 20
93.7211969544
 11
442.7751819427
 21
122.2211969544
 70
160
 71
2
  1
50
  3
DIMSTYLE_1
100
AcDbAlignedDimension
 13
507.3152352536
 23
143.7211969544
 14
507.3152352536
 24
93.7211969544
 50
270.0
100
AcDbRotatedDimension
  0
DIMENSION
  5
343
100
AcDbEntity
  8
QUOTATION
100
AcDbDimension
 62
3
  6
CONTINUOUS
  2
*D24
 10
743.3413364534
 20
334.1686194776
 11
790.0451159057
 21
357.447351801
 70
163
 71
2
  1
%%c9
  3
DIMSTYLE_2
100
AcDbDiametricDimension
 15
736.5391340539
 25
328.2753994312
  0
DIMENSION
  5
344
100
AcDbEntity
  8
QUOTATION
100
AcDbDimension
 62
3
  6
CONTINUOUS
  2
*D25
 10
33.2933949256
 20
344.0786933706
 11
74.2947336832
 21
344.0786933706
 70
160
 71
2
  1
96
  3
DIMSTYLE_1
100
AcDbAlignedDimension
 13
129.2960724408
 23
311.8470094544
 14
33.2933949256
 24
271.8470094544
 50
180.0
100
AcDbRotatedDimension
  0
DIMENSION
  5
345
100
AcDbEntity
  8
QUOTATION
100
AcDbDimension
 62
3
  6
CONTINUOUS
  2
*D26
 10
431.9201009708
 20
93.7211969544
 11
417.9201009708
 21
287.4716032044
 70
160
 71
2
  1
380.5
  3
DIMSTYLE_1
100
AcDbAlignedDimension
 13
472.3152352536
 23
474.2220094544
 14
506.3152352536
 24
93.7211969544
 50
270.0
100
AcDbRotatedDimension
  0
DIMENSION
  5
346
100
AcDbEntity
  8
QUOTATION
100
AcDbDimension
 62
3
  6
CONTINUOUS
  2
*D27
 10
692.0075218922
 20
378.3469302928
 11
793.2733956508
 21
456.0579294222
 70
163
 71
2
  1
%%c13
  3
DIMSTYLE_2
100
AcDbDiametricDimension
 15
682.8729486151
 25
369.097088616
  0
MTEXT
  5
347
100
AcDbEntity
  8
TEXT
100
AcDbMText
 62
2
  6
CONTINUOUS
  7
TEXTSTYLE_2
 71
1
 72
1
 10
174.2288521987
 20
606.8256639516
 30
0.0
 11
1.0
 21
0.0
 31
0.0
 44
0.6
  1
All dimensions are in "MM"
 40
9.555
 41
248.43
  0
MTEXT
  5
348
100
AcDbEntity
  8
TEXT
100
AcDbMText
 62
2
  6
CONTINUOUS
  7
TEXTSTYLE_3
 71
1
 72
1
 10
952.999737984
 20
376.0463266732
 30
0.0
 11
1.0
 21
0.0
 31
0.0
 44
1.0000002
  1
DOOR DRILLING
 40
10.0
 41
114.1666666667
  0
MTEXT
  5
349
100
AcDbEntity
  8
TEXT
100
AcDbMText
 62
2
  6
CONTINUOUS
  7
TEXTSTYLE_2
 71
1
 72
1
 10
562.9349857002
 20
278.5491132965
 30
0.0
 11
0.1736481777
 21
0.984807753
 31
0.0
 44
0.6
  1
OFF
 40
6.4
 41
19.2
  0
MTEXT
  5
34A
100
AcDbEntity
  8
TEXT
100
AcDbMText
 62
2
  6
CONTINUOUS
  7
TEXTSTYLE_2
 71
1
 72
1
 10
605.7669219193
 20
313.7797478109
 30
0.0
 11
0.0
 21
1.0
 31
0.0
 44
0.6
  1
ON
 40
6.4
 41
12.8
  0
MTEXT
  5
34B
100
AcDbEntity
  8
0
100
AcDbMText
 62
3
  6
CONTINUOUS
  7
STANDARD
 71
2
 72
1
 10
166.7211774431
 20
731.6339580964
 30
0.0
 11
1.0
 21
0.0
 31
0.0
  1
1
 40
5.0
 41
4.0
  0
MTEXT
  5
34C
100
AcDbEntity
  8
0
100
AcDbMText
 62
3
  6
CONTINUOUS
  7
STANDARD
 71
1
 72
1
 10
175.8211774431
 20
731.6339580964
 30
0.0
 11
1.0
 21
0.0
 31
0.0
  1
SIRCO 3X600A F
 40
5.0
 41
56.0
  0
MTEXT
  5
34D
100
AcDbEntity
  8
0
100
AcDbMText
 62
3
  6
CONTINUOUS
  7
STANDARD
 71
2
 72
1
 10
311.0211774431
 20
731.6339580964
 30
0.0
 11
1.0
 21
0.0
 31
0.0
  1
27003060
 40
5.0
 41
32.0
  0
MTEXT
  5
34E
100
AcDbEntity
  8
0
100
AcDbMText
 62
3
  6
CONTINUOUS
  7
STANDARD
 71
2
 72
1
 10
344.4117866598
 20
731.6339580964
 30
0.0
 11
1.0
 21
0.0
 31
0.0
  1
/
 40
5.0
 41
4.0
  0
MTEXT
  5
34F
100
AcDbEntity
  8
0
100
AcDbMText
 62
3
  6
CONTINUOUS
  7
STANDARD
 71
2
 72
1
 10
367.3523958766
 20
731.6339580964
 30
0.0
 11
1.0
 21
0.0
 31
0.0
  1
1
 40
5.0
 41
4.0
  0
MTEXT
  5
350
100
AcDbEntity
  8
0
100
AcDbMText
 62
3
  6
CONTINUOUS
  7
STANDARD
 71
2
 72
1
 10
166.7211774431
 20
721.7839580964
 30
0.0
 11
1.0
 21
0.0
 31
0.0
  1
2
 40
5.0
 41
4.0
  0
MTEXT
  5
351
100
AcDbEntity
  8
0
100
AcDbMText
 62
3
  6
CONTINUOUS
  7
STANDARD
 71
1
 72
1
 10
174.2944409936
 20
722.2973263211
 30
0.0
 11
1.0
 21
0.0
 31
0.0
 44
1.0000002
  1
ECRAN DE PROTECTION DES PLAGES 3P
 40
4.5
 41
118.8
  0
MTEXT
  5
352
100
AcDbEntity
  8
0
100
AcDbMText
 62
3
  6
CONTINUOUS
  7
STANDARD
 71
2
 72
1
 10
311.0211774431
 20
721.7839580964
 30
0.0
 11
1.0
 21
0.0
 31
0.0
  1
27983060
 40
5.0
 41
32.0
  0
MTEXT
  5
353
100
AcDbEntity
  8
0
100
AcDbMText
 62
3
  6
CONTINUOUS
  7
STANDARD
 71
2
 72
1
 10
344.4117866598
 20
721.7839580964
 30
0.0
 11
1.0
 21
0.0
 31
0.0
  1
/
 40
5.0
 41
4.0
  0
MTEXT
  5
354
100
AcDbEntity
  8
0
100
AcDbMText
 62
3
  6
CONTINUOUS
  7
STANDARD
 71
2
 72
1
 10
367.3523958766
 20
721.7839580964
 30
0.0
 11
1.0
 21
0.0
 31
0.0
  1
1
 40
5.0
 41
4.0
  0
MTEXT
  5
355
100
AcDbEntity
  8
0
100
AcDbMText
 62
3
  6
CONTINUOUS
  7
STANDARD
 71
2
 72
1
 10
166.7211774431
 20
711.9339580964
 30
0.0
 11
1.0
 21
0.0
 31
0.0
  1
3
 40
5.0
 41
4.0
  0
MTEXT
  5
356
100
AcDbEntity
  8
0
100
AcDbMText
 62
3
  6
CONTINUOUS
  7
STANDARD
 71
1
 72
1
 10
175.8211774431
 20
711.9339580964
 30
0.0
 11
1.0
 21
0.0
 31
0.0
  1
POIGNEE CDE TYPE H 
 40
5.0
 41
76.0
  0
MTEXT
  5
357
100
AcDbEntity
  8
0
100
AcDbMText
 62
3
  6
CONTINUOUS
  7
STANDARD
 71
2
 72
1
 10
344.4117866598
 20
711.9339580964
 30
0.0
 11
1.0
 21
0.0
 31
0.0
  1
/
 40
5.0
 41
4.0
  0
MTEXT
  5
358
100
AcDbEntity
  8
0
100
AcDbMText
 62
3
  6
CONTINUOUS
  7
STANDARD
 71
2
 72
1
 10
367.3523958766
 20
711.9339580964
 30
0.0
 11
1.0
 21
0.0
 31
0.0
  1
1
 40
5.0
 41
4.0
  0
MTEXT
  5
359
100
AcDbEntity
  8
0
100
AcDbMText
 62
3
  6
CONTINUOUS
  7
STANDARD
 71
2
 72
1
 10
166.7211774431
 20
702.0839580964
 30
0.0
 11
1.0
 21
0.0
 31
0.0
  1
4
 40
5.0
 41
4.0
  0
MTEXT
  5
35A
100
AcDbEntity
  8
0
100
AcDbMText
 62
3
  6
CONTINUOUS
  7
STANDARD
 71
1
 72
1
 10
175.8211774431
 20
701.9589580964
 30
0.0
 11
1.0
 21
0.0
 31
0.0
 44
1.0000002
  1
ECRAN DE SEPARATION ENTRE PHASES
 40
4.75
 41
121.6
  0
MTEXT
  5
35B
100
AcDbEntity
  8
0
100
AcDbMText
 62
3
  6
CONTINUOUS
  7
STANDARD
 71
2
 72
1
 10
311.0211774431
 20
702.0839580964
 30
0.0
 11
1.0
 21
0.0
 31
0.0
  1
1382101
 40
5.0
 41
28.0
  0
MTEXT
  5
35C
100
AcDbEntity
  8
0
100
AcDbMText
 62
3
  6
CONTINUOUS
  7
STANDARD
 71
2
 72
1
 10
344.4117866598
 20
702.0839580964
 30
0.0
 11
1.0
 21
0.0
 31
0.0
  1
/
 40
5.0
 41
4.0
  0
MTEXT
  5
35D
100
AcDbEntity
  8
0
100
AcDbMText
 62
3
  6
CONTINUOUS
  7
STANDARD
 71
2
 72
1
 10
367.3523958766
 20
702.0839580964
 30
0.0
 11
1.0
 21
0.0
 31
0.0
  1
4
 40
5.0
 41
4.0
  0
MTEXT
  5
35E
100
AcDbEntity
  8
0
100
AcDbMText
 62
3
  6
CONTINUOUS
  7
STANDARD
 71
2
 72
1
 10
166.7211774431
 20
741.4839580964
 30
0.0
 11
1.0
 21
0.0
 31
0.0
  1
Rep.
 40
5.0
 41
16.0
  0
MTEXT
  5
35F
100
AcDbEntity
  8
0
100
AcDbMText
 62
3
  6
CONTINUOUS
  7
STANDARD
 71
2
 72
1
 10
234.0211774431
 20
741.4839580964
 30
0.0
 11
1.0
 21
0.0
 31
0.0
  1
Nom
 40
5.0
 41
12.0
  0
MTEXT
  5
360
100
AcDbEntity
  8
0
100
AcDbMText
 62
3
  6
CONTINUOUS
  7
STANDARD
 71
2
 72
1
 10
311.0211774431
 20
741.4839580964
 30
0.0
 11
1.0
 21
0.0
 31
0.0
  1
Code
 40
5.0
 41
16.0
  0
MTEXT
  5
361
100
AcDbEntity
  8
0
100
AcDbMText
 62
3
  6
CONTINUOUS
  7
STANDARD
 71
2
 72
1
 10
340.7451199931
 20
741.4839580964
 30
0.0
 11
1.0
 21
0.0
 31
0.0
  1
N\Fgdt;{\Fgdt;~}\Ftxt; \P{\W0.8;de }\Pplan
 40
5.0
 41
16.0
  0
MTEXT
  5
362
100
AcDbEntity
  8
0
100
AcDbMText
 62
3
  6
CONTINUOUS
  7
STANDARD
 71
2
 72
1
 10
367.3523958766
 20
741.4839580964
 30
0.0
 11
1.0
 21
0.0
 31
0.0
  1
Qté
 40
5.0
 41
12.0
  0
LINE
  5
363
100
AcDbEntity
  8
0
100
AcDbLine
 62
7
  6
CONTINUOUS
 10
0.0
 20
0.0
 11
0.0
 21
941.2759210755
  0
LINE
  5
364
100
AcDbEntity
  8
0
100
AcDbLine
 62
7
  6
CONTINUOUS
 10
0.0
 20
0.0
 11
0.0
 21
941.2759210755
  0
LINE
  5
365
100
AcDbEntity
  8
H_EXTERN_HANDLE
100
AcDbLine
 62
7
  6
CONTINUOUS
 10
37.2960724408
 20
281.9720091763
 11
37.2960724408
 21
279.2053239498
  0
LINE
  5
366
100
AcDbEntity
  8
H_EXTERN_HANDLE
100
AcDbLine
 62
7
  6
CONTINUOUS
 10
37.2960724408
 20
264.2386944027
 11
37.2960724408
 21
261.4720091763
  0
LINE
  5
367
100
AcDbEntity
  8
H_EXTERN_HANDLE
100
AcDbLine
 62
7
  6
CONTINUOUS
 10
38.7960724408
 20
285.9720091763
 11
38.7960724408
 21
280.0135711522
  0
LINE
  5
368
100
AcDbEntity
  8
H_EXTERN_HANDLE
100
AcDbLine
 62
7
  6
CONTINUOUS
 10
38.7960724408
 20
257.4720091763
 11
38.7960724408
 21
263.4304472004
  0
LINE
  5
369
100
AcDbEntity
  8
H_MOVING
100
AcDbLine
 62
1
  6
CONTINUOUS
 10
37.9594490368
 20
207.1685064104
 11
33.2960724408
 21
81.7220091763
  0
LINE
  5
36A
100
AcDbEntity
  8
H_EXTERN_HANDLE
100
AcDbLine
 62
7
  6
CONTINUOUS
 10
88.2960724408
 20
247.4720091763
 11
88.2960724408
 21
241.7220091763
  0
LINE
  5
36B
100
AcDbEntity
  8
H_EXTERN_HANDLE
100
AcDbLine
 62
7
  6
CONTINUOUS
 10
88.2960724408
 20
295.9720091763
 11
88.2960724408
 21
301.7220091763
  0
LINE
  5
36C
100
AcDbEntity
  8
H_EXTERN_HANDLE
100
AcDbLine
 62
7
  6
CONTINUOUS
 10
89.7960724408
 20
282.2220094544
 11
89.7960724408
 21
280.2220091763
  0
LINE
  5
36D
100
AcDbEntity
  8
H_EXTERN_HANDLE
100
AcDbLine
 62
7
  6
CONTINUOUS
 10
89.7960710667
 20
261.2220090944
 11
89.7960713284
 21
263.2220093726
  0
LINE
  5
36E
100
AcDbEntity
  8
H_EXTERN_HANDLE
100
AcDbLine
 62
7
  6
CONTINUOUS
 10
91.2960724408
 20
280.2220091763
 11
91.2960724408
 21
263.2220091763
  0
LINE
  5
36F
100
AcDbEntity
  8
0
100
AcDbLine
 62
7
  6
CONTINUOUS
 10
0.0
 20
0.0
 11
1116.8346603898
 21
0.0
  0
LINE
  5
370
100
AcDbEntity
  8
0
100
AcDbLine
 62
7
  6
CONTINUOUS
 10
0.0
 20
0.0
 11
1116.8346603898
 21
0.0
  0
LINE
  5
371
100
AcDbEntity
  8
INTER_PHASE_SCHIELDS
100
AcDbLine
 62
5
  6
CONTINUOUS
 10
256.5960724408
 20
85.2729500436
 11
262.5960724408
 21
79.2729500436
  0
LINE
  5
372
100
AcDbEntity
  8
H_EXTERN_HANDLE
100
AcDbLine
 62
7
  6
CONTINUOUS
 10
120.2960724408
 20
231.7220094544
 11
114.2960724408
 21
241.7220091763
  0
LINE
  5
373
100
AcDbEntity
  8
H_EXTERN_HANDLE
100
AcDbLine
 62
7
  6
CONTINUOUS
 10
114.2960724408
 20
231.7220094544
 11
114.2960724408
 21
311.7220094544
  0
LINE
  5
374
100
AcDbEntity
  8
H_EXTERN_HANDLE
100
AcDbLine
 62
7
  6
CONTINUOUS
 10
120.2960724408
 20
231.7220094544
 11
120.2960724408
 21
311.7220094544
  0
LINE
  5
375
100
AcDbEntity
  8
H_EXTERN_HANDLE
100
AcDbLine
 62
7
  6
CONTINUOUS
 10
129.2960724408
 20
311.7220094544
 11
129.2960724408
 21
231.7220094544
  0
LINE
  5
376
100
AcDbEntity
  8
H_MOVING
100
AcDbLine
 62
1
  6
CONTINUOUS
 10
81.3298033892
 20
81.7220091763
 11
81.4041897611
 21
83.7131702547
  0
LINE
  5
377
100
AcDbEntity
  8
H_MOVING
100
AcDbLine
 62
1
  6
CONTINUOUS
 10
81.6283394976
 20
89.7131702547
 11
81.7027258695
 21
91.7043313331
  0
LINE
  5
378
100
AcDbEntity
  8
H_MOVING
100
AcDbLine
 62
1
  6
CONTINUOUS
 10
81.926875606
 20
97.7043313331
 11
82.0012619779
 21
99.6954924116
  0
LINE
  5
379
100
AcDbEntity
  8
H_MOVING
100
AcDbLine
 62
1
  6
CONTINUOUS
 10
82.2254117144
 20
105.6954924116
 11
82.2997980863
 21
107.68665349
  0
LINE
  5
37A
100
AcDbEntity
  8
H_MOVING
100
AcDbLine
 62
1
  6
CONTINUOUS
 10
82.5239478228
 20
113.68665349
 11
82.5983341947
 21
115.6778145684
  0
LINE
  5
37B
100
AcDbEntity
  8
H_MOVING
100
AcDbLine
 62
1
  6
CONTINUOUS
 10
82.8224839313
 20
121.6778145684
 11
82.8968703031
 21
123.6689756468
  0
LINE
  5
37C
100
AcDbEntity
  8
H_MOVING
100
AcDbLine
 62
1
  6
CONTINUOUS
 10
83.1210200397
 20
129.6689756468
 11
83.1954064115
 21
131.6601367253
  0
LINE
  5
37D
100
AcDbEntity
  8
H_MOVING
100
AcDbLine
 62
1
  6
CONTINUOUS
 10
83.4195561481
 20
137.6601367253
 11
83.4939425199
 21
139.6512978037
  0
LINE
  5
37E
100
AcDbEntity
  8
H_MOVING
100
AcDbLine
 62
1
  6
CONTINUOUS
 10
83.7180922565
 20
145.6512978037
 11
83.7924786284
 21
147.6424588821
  0
LINE
  5
37F
100
AcDbEntity
  8
H_MOVING
100
AcDbLine
 62
1
  6
CONTINUOUS
 10
84.0166283649
 20
153.6424588821
 11
84.0910147368
 21
155.6336199605
  0
LINE
  5
380
100
AcDbEntity
  8
H_MOVING
100
AcDbLine
 62
1
  6
CONTINUOUS
 10
84.3151644733
 20
161.6336199605
 11
84.3895508452
 21
163.624781039
  0
LINE
  5
381
100
AcDbEntity
  8
H_MOVING
100
AcDbLine
 62
1
  6
CONTINUOUS
 10
84.6137005817
 20
169.624781039
 11
84.6880869536
 21
171.6159421174
  0
LINE
  5
382
100
AcDbEntity
  8
H_MOVING
100
AcDbLine
 62
1
  6
CONTINUOUS
 10
84.9122366901
 20
177.6159421174
 11
84.986623062
 21
179.6071031958
  0
LINE
  5
383
100
AcDbEntity
  8
H_MOVING
100
AcDbLine
 62
1
  6
CONTINUOUS
 10
85.2107727985
 20
185.6071031958
 11
85.2851591704
 21
187.5982642742
  0
LINE
  5
384
100
AcDbEntity
  8
H_MOVING
100
AcDbLine
 62
1
  6
CONTINUOUS
 10
85.509308907
 20
193.5982642742
 11
85.5836952788
 21
195.5894253527
  0
LINE
  5
385
100
AcDbEntity
  8
H_MOVING
100
AcDbLine
 62
1
  6
CONTINUOUS
 10
85.8078450154
 20
201.5894253527
 11
85.8822313872
 21
203.5805864311
  0
LINE
  5
386
100
AcDbEntity
  8
BASIC_DEVICE
100
AcDbLine
 62
7
  6
CONTINUOUS
 10
255.2960724408
 20
145.0729500436
 11
260.7960724408
 21
139.5729500436
  0
LINE
  5
387
100
AcDbEntity
  8
INTER_PHASE_SCHIELDS
100
AcDbLine
 62
5
  6
CONTINUOUS
 10
263.1960724408
 20
153.2729500436
 11
261.1960724408
 21
155.2729500436
  0
LINE
  5
388
100
AcDbEntity
  8
0
100
AcDbLine
 62
7
  6
CONTINUOUS
 10
159.4211774431
 20
694.9339580964
 11
159.4211774431
 21
744.1839580964
  0
LINE
  5
389
100
AcDbEntity
  8
INTER_PHASE_SCHIELDS
100
AcDbLine
 62
5
  6
CONTINUOUS
 10
571.4402352536
 20
77.9220094544
 11
573.4402352536
 21
77.9220094544
  0
LINE
  5
38A
100
AcDbEntity
  8
INTER_PHASE_SCHIELDS
100
AcDbLine
 62
5
  6
CONTINUOUS
 10
651.4402352536
 20
77.9220094544
 11
653.4402352536
 21
77.9220094544
  0
LINE
  5
38B
100
AcDbEntity
  8
INTER_PHASE_SCHIELDS
100
AcDbLine
 62
5
  6
CONTINUOUS
 10
262.5960724408
 20
79.2729500436
 11
333.2960724408
 21
79.2729500436
  0
LINE
  5
38C
100
AcDbEntity
  8
H_MOVING
100
AcDbLine
 62
1
  6
CONTINUOUS
 10
33.2960724408
 20
81.7220091763
 11
81.3298033892
 21
81.7220091763
  0
LINE
  5
38D
100
AcDbEntity
  8
H_MOVING
100
AcDbLine
 62
1
  6
CONTINUOUS
 10
621.9402352536
 20
82.7220094544
 11
602.9402352536
 21
82.7220094544
  0
LINE
  5
38E
100
AcDbEntity
  8
H_MOVING
100
AcDbLine
 62
1
  6
CONTINUOUS
 10
81.4041897611
 20
83.7131702547
 11
79.6318584987
 21
83.7131702547
  0
LINE
  5
38F
100
AcDbEntity
  8
INTER_PHASE_SCHIELDS
100
AcDbLine
 62
5
  6
CONTINUOUS
 10
654.4402352536
 20
83.9220094544
 11
653.4402352536
 21
83.9220094544
  0
LINE
  5
390
100
AcDbEntity
  8
INTER_PHASE_SCHIELDS
100
AcDbLine
 62
5
  6
CONTINUOUS
 10
574.4402352536
 20
83.9220094544
 11
573.4402352536
 21
83.9220094544
  0
LINE
  5
391
100
AcDbEntity
  8
INTER_PHASE_SCHIELDS
100
AcDbLine
 62
5
  6
CONTINUOUS
 10
570.4402352536
 20
83.9220094544
 11
571.4402352536
 21
83.9220094544
  0
LINE
  5
392
100
AcDbEntity
  8
INTER_PHASE_SCHIELDS
100
AcDbLine
 62
5
  6
CONTINUOUS
 10
650.4402352536
 20
83.9220094544
 11
651.4402352536
 21
83.9220094544
  0
LINE
  5
393
100
AcDbEntity
  8
INTER_PHASE_SCHIELDS
100
AcDbLine
 62
5
  6
CONTINUOUS
 10
269.9960724408
 20
85.2729500436
 11
325.7960724408
 21
85.2729500436
  0
LINE
  5
394
100
AcDbEntity
  8
BASIC_DEVICE
100
AcDbLine
 62
1
  6
CONTINUOUS
 10
189.9960724408
 20
269.1720094544
 11
188.9960724408
 21
270.1720094544
  0
LINE
  5
395
100
AcDbEntity
  8
0
100
AcDbLine
 62
1
  6
CONTINUOUS
 10
174.0211774431
 20
744.1839580964
 11
174.0211774431
 21
694.9339580964
  0
LINE
  5
396
100
AcDbEntity
  8
BASIC_DEVICE
100
AcDbLine
 62
7
  6
CONTINUOUS
 10
175.2960724408
 20
279.2220094544
 11
175.2960724408
 21
264.2220094544
  0
LINE
  5
397
100
AcDbEntity
  8
BASIC_DEVICE
100
AcDbLine
 62
1
  6
CONTINUOUS
 10
188.9960724408
 20
270.1720094544
 11
188.9960724408
 21
273.2720094544
  0
LINE
  5
398
100
AcDbEntity
  8
BASIC_DEVICE
100
AcDbLine
 62
1
  6
CONTINUOUS
 10
197.0960724408
 20
287.3220094544
 11
197.0960724408
 21
274.2720094544
  0
LINE
  5
399
100
AcDbEntity
  8
BASIC_DEVICE
100
AcDbLine
 62
1
  6
CONTINUOUS
 10
197.0960724408
 20
269.1720094544
 11
197.0960724408
 21
256.1220094544
  0
LINE
  5
39A
100
AcDbEntity
  8
BASIC_DEVICE
100
AcDbLine
 62
1
  6
CONTINUOUS
 10
198.1960724408
 20
282.9726763648
 11
198.1960724408
 21
260.1286860988
  0
LINE
  5
39B
100
AcDbEntity
  8
BASIC_DEVICE
100
AcDbLine
 62
1
  6
CONTINUOUS
 10
199.2960724408
 20
260.1286860988
 11
199.2960724408
 21
282.9726763648
  0
LINE
  5
39C
100
AcDbEntity
  8
BASIC_DEVICE
100
AcDbLine
 62
7
  6
CONTINUOUS
 10
201.2960724408
 20
345.0729500436
 11
201.2960724408
 21
145.0729500436
  0
LINE
  5
39D
100
AcDbEntity
  8
TERMINAL_SCREEN
100
AcDbLine
 62
2
  6
CONTINUOUS
 10
203.2960724408
 20
474.2221032044
 11
203.2960724408
 21
429.121598141
  0
LINE
  5
39E
100
AcDbEntity
  8
TERMINAL_SCREEN
100
AcDbLine
 62
2
  6
CONTINUOUS
 10
205.2960724408
 20
429.121598141
 11
205.2960724408
 21
474.2221032044
  0
LINE
  5
39F
100
AcDbEntity
  8
INTER_PHASE_SCHIELDS
100
AcDbLine
 62
5
  6
CONTINUOUS
 10
269.9960724408
 20
87.2729500436
 11
325.7960724408
 21
87.2729500436
  0
LINE
  5
3A0
100
AcDbEntity
  8
H_MOVING
100
AcDbLine
 62
1
  6
CONTINUOUS
 10
79.6318584987
 20
89.7131702547
 11
81.6283394976
 21
89.7131702547
  0
LINE
  5
3A1
100
AcDbEntity
  8
H_MOVING
100
AcDbLine
 62
1
  6
CONTINUOUS
 10
81.7027258695
 20
91.7043313331
 11
79.9303946071
 21
91.7043313331
  0
LINE
  5
3A2
100
AcDbEntity
  8
BASIC_DEVICE
100
AcDbLine
 62
7
  6
CONTINUOUS
 10
707.4402352536
 20
93.7211969544
 11
667.4402352536
 21
93.7211969544
  0
LINE
  5
3A3
100
AcDbEntity
  8
BASIC_DEVICE
100
AcDbLine
 62
7
  6
CONTINUOUS
 10
627.4402352536
 20
93.7211969544
 11
587.4402352536
 21
93.7211969544
  0
LINE
  5
3A4
100
AcDbEntity
  8
BASIC_DEVICE
100
AcDbLine
 62
7
  6
CONTINUOUS
 10
547.4402352536
 20
93.7211969544
 11
507.4402352536
 21
93.7211969544
  0
LINE
  5
3A5
100
AcDbEntity
  8
BASIC_DEVICE
100
AcDbLine
 62
7
  6
CONTINUOUS
 10
294.3960724408
 20
95.0729500436
 11
300.3960724408
 21
95.0729500436
  0
LINE
  5
3A6
100
AcDbEntity
  8
H_MOVING
100
AcDbLine
 62
1
  6
CONTINUOUS
 10
79.9303946071
 20
97.7043313331
 11
81.926875606
 21
97.7043313331
  0
LINE
  5
3A7
100
AcDbEntity
  8
H_MOVING
100
AcDbLine
 62
1
  6
CONTINUOUS
 10
82.0012619779
 20
99.6954924116
 11
80.2289307156
 21
99.6954924116
  0
LINE
  5
3A8
100
AcDbEntity
  8
H_MOVING
100
AcDbLine
 62
1
  6
CONTINUOUS
 10
80.2289307156
 20
105.6954924116
 11
82.2254117144
 21
105.6954924116
  0
LINE
  5
3A9
100
AcDbEntity
  8
H_MOVING
100
AcDbLine
 62
1
  6
CONTINUOUS
 10
82.2997980863
 20
107.68665349
 11
80.527466824
 21
107.68665349
  0
LINE
  5
3AA
100
AcDbEntity
  8
H_MOVING
100
AcDbLine
 62
1
  6
CONTINUOUS
 10
80.527466824
 20
113.68665349
 11
82.5239478228
 21
113.68665349
  0
LINE
  5
3AB
100
AcDbEntity
  8
AXIS
100
AcDbLine
 62
4
  6
CONTINUOUS
 10
303.3960724408
 20
113.7220094544
 11
291.3960724408
 21
113.7220094544
  0
LINE
  5
3AC
100
AcDbEntity
  8
H_MOVING
100
AcDbLine
 62
1
  6
CONTINUOUS
 10
82.5983341947
 20
115.6778145684
 11
80.8260029324
 21
115.6778145684
  0
LINE
  5
3AD
100
AcDbEntity
  8
H_MOVING
100
AcDbLine
 62
1
  6
CONTINUOUS
 10
80.8260029324
 20
121.6778145684
 11
82.8224839313
 21
121.6778145684
  0
LINE
  5
3AE
100
AcDbEntity
  8
H_MOVING
100
AcDbLine
 62
1
  6
CONTINUOUS
 10
82.8968703031
 20
123.6689756468
 11
81.1245390408
 21
123.6689756468
  0
LINE
  5
3AF
100
AcDbEntity
  8
H_MOVING
100
AcDbLine
 62
1
  6
CONTINUOUS
 10
81.1245390408
 20
129.6689756468
 11
83.1210200397
 21
129.6689756468
  0
LINE
  5
3B0
100
AcDbEntity
  8
INTER_PHASE_SCHIELDS
100
AcDbLine
 62
5
  6
CONTINUOUS
 10
339.2960724408
 20
130.0729500436
 11
337.2960724408
 21
130.0729500436
  0
LINE
  5
3B1
100
AcDbEntity
  8
H_MOVING
100
AcDbLine
 62
1
  6
CONTINUOUS
 10
83.1954064115
 20
131.6601367253
 11
81.4230751492
 21
131.6601367253
  0
LINE
  5
3B2
100
AcDbEntity
  8
H_MOVING
100
AcDbLine
 62
1
  6
CONTINUOUS
 10
81.4230751492
 20
137.6601367253
 11
83.4195561481
 21
137.6601367253
  0
LINE
  5
3B3
100
AcDbEntity
  8
BASIC_DEVICE
100
AcDbLine
 62
7
  6
CONTINUOUS
 10
650.2402352536
 20
138.2220094544
 11
646.6402352536
 21
138.2220094544
  0
LINE
  5
3B4
100
AcDbEntity
  8
BASIC_DEVICE
100
AcDbLine
 62
7
  6
CONTINUOUS
 10
570.2402352536
 20
138.2220094544
 11
566.6402352536
 21
138.2220094544
  0
LINE
  5
3B5
100
AcDbEntity
  8
BASIC_DEVICE
100
AcDbLine
 62
7
  6
CONTINUOUS
 10
560.2402352536
 20
138.2220094544
 11
563.9402352536
 21
138.2220094544
  0
LINE
  5
3B6
100
AcDbEntity
  8
BASIC_DEVICE
100
AcDbLine
 62
7
  6
CONTINUOUS
 10
577.2402352536
 20
138.2220094544
 11
580.9402352536
 21
138.2220094544
  0
LINE
  5
3B7
100
AcDbEntity
  8
BASIC_DEVICE
100
AcDbLine
 62
7
  6
CONTINUOUS
 10
640.2402352536
 20
138.2220094544
 11
643.9402352536
 21
138.2220094544
  0
LINE
  5
3B8
100
AcDbEntity
  8
BASIC_DEVICE
100
AcDbLine
 62
7
  6
CONTINUOUS
 10
657.2402352536
 20
138.2220094544
 11
660.9402352536
 21
138.2220094544
  0
LINE
  5
3B9
100
AcDbEntity
  8
BASIC_DEVICE
100
AcDbLine
 62
7
  6
CONTINUOUS
 10
260.7960724408
 20
139.5729500436
 11
294.3960724408
 21
139.5729500436
  0
LINE
  5
3BA
100
AcDbEntity
  8
BASIC_DEVICE
100
AcDbLine
 62
7
  6
CONTINUOUS
 10
300.3966193158
 20
139.5729500436
 11
339.2960724408
 21
139.5729500436
  0
LINE
  5
3BB
100
AcDbEntity
  8
H_MOVING
100
AcDbLine
 62
1
  6
CONTINUOUS
 10
83.4939425199
 20
139.6512978037
 11
81.7216112576
 21
139.6512978037
  0
LINE
  5
3BC
100
AcDbEntity
  8
INTER_PHASE_SCHIELDS
100
AcDbLine
 62
5
  6
CONTINUOUS
 10
325.7960724408
 20
142.5729500436
 11
269.9960724408
 21
142.5729500436
  0
LINE
  5
3BD
100
AcDbEntity
  8
INTER_PHASE_SCHIELDS
100
AcDbLine
 62
5
  6
CONTINUOUS
 10
651.4402352536
 20
143.2220094544
 11
650.4402352536
 21
143.2220094544
  0
LINE
  5
3BE
100
AcDbEntity
  8
INTER_PHASE_SCHIELDS
100
AcDbLine
 62
5
  6
CONTINUOUS
 10
571.4402352536
 20
143.2220094544
 11
570.4402352536
 21
143.2220094544
  0
LINE
  5
3BF
100
AcDbEntity
  8
INTER_PHASE_SCHIELDS
100
AcDbLine
 62
5
  6
CONTINUOUS
 10
573.4402352536
 20
143.2220094544
 11
574.4402352536
 21
143.2220094544
  0
LINE
  5
3C0
100
AcDbEntity
  8
INTER_PHASE_SCHIELDS
100
AcDbLine
 62
5
  6
CONTINUOUS
 10
653.4402352536
 20
143.2220094544
 11
654.4402352536
 21
143.2220094544
  0
LINE
  5
3C1
100
AcDbEntity
  8
INTER_PHASE_SCHIELDS
100
AcDbLine
 62
5
  6
CONTINUOUS
 10
655.9402352536
 20
143.7220094544
 11
653.4402352536
 21
143.7220094544
  0
LINE
  5
3C2
100
AcDbEntity
  8
INTER_PHASE_SCHIELDS
100
AcDbLine
 62
5
  6
CONTINUOUS
 10
651.4402352536
 20
143.7220094544
 11
648.9402352536
 21
143.7220094544
  0
LINE
  5
3C3
100
AcDbEntity
  8
INTER_PHASE_SCHIELDS
100
AcDbLine
 62
5
  6
CONTINUOUS
 10
575.9402352536
 20
143.7220094544
 11
573.4402352536
 21
143.7220094544
  0
LINE
  5
3C4
100
AcDbEntity
  8
INTER_PHASE_SCHIELDS
100
AcDbLine
 62
5
  6
CONTINUOUS
 10
571.4402352536
 20
143.7220094544
 11
568.9402352536
 21
143.7220094544
  0
LINE
  5
3C5
100
AcDbEntity
  8
BASIC_DEVICE
100
AcDbLine
 62
7
  6
CONTINUOUS
 10
752.4402352537
 20
143.7220094544
 11
472.4402352536
 21
143.7220094544
  0
LINE
  5
3C6
100
AcDbEntity
  8
INTER_PHASE_SCHIELDS
100
AcDbLine
 62
5
  6
CONTINUOUS
 10
325.7960724408
 20
144.5729500436
 11
269.9960724408
 21
144.5729500436
  0
LINE
  5
3C7
100
AcDbEntity
  8
BASIC_DEVICE
100
AcDbLine
 62
7
  6
CONTINUOUS
 10
201.2960724408
 20
145.0729500436
 11
341.2960724408
 21
145.0729500436
  0
LINE
  5
3C8
100
AcDbEntity
  8
INTER_PHASE_SCHIELDS
100
AcDbLine
 62
5
  6
CONTINUOUS
 10
337.2960724408
 20
145.0729500436
 11
339.2960724408
 21
145.0729500436
  0
LINE
  5
3C9
100
AcDbEntity
  8
H_MOVING
100
AcDbLine
 62
1
  6
CONTINUOUS
 10
81.7216112576
 20
145.6512978037
 11
83.7180922565
 21
145.6512978037
  0
LINE
  5
3CA
100
AcDbEntity
  8
H_MOVING
100
AcDbLine
 62
1
  6
CONTINUOUS
 10
83.7924786284
 20
147.6424588821
 11
82.020147366
 21
147.6424588821
  0
LINE
  5
3CB
100
AcDbEntity
  8
INTER_PHASE_SCHIELDS
100
AcDbLine
 62
5
  6
CONTINUOUS
 10
339.2960724408
 20
148.2729500436
 11
337.2960724408
 21
148.2729500436
  0
LINE
  5
3CC
100
AcDbEntity
  8
INTER_PHASE_SCHIELDS
100
AcDbLine
 62
5
  6
CONTINUOUS
 10
329.6960724408
 20
148.2729500436
 11
266.1960724408
 21
148.2729500436
  0
LINE
  5
3CD
100
AcDbEntity
  8
INTER_PHASE_SCHIELDS
100
AcDbLine
 62
5
  6
CONTINUOUS
 10
258.5960724408
 20
148.2729500436
 11
256.5960724408
 21
148.2729500436
  0
LINE
  5
3CE
100
AcDbEntity
  8
BASIC_DEVICE
100
AcDbLine
 62
7
  6
CONTINUOUS
 10
552.4402352536
 20
148.7220094544
 11
672.4402352536
 21
148.7220094544
  0
LINE
  5
3CF
100
AcDbEntity
  8
INTER_PHASE_SCHIELDS
100
AcDbLine
 62
5
  6
CONTINUOUS
 10
261.6960724408
 20
151.4729500436
 11
263.1960724408
 21
151.4729500436
  0
LINE
  5
3D0
100
AcDbEntity
  8
INTER_PHASE_SCHIELDS
100
AcDbLine
 62
5
  6
CONTINUOUS
 10
332.6960724408
 20
151.4729500436
 11
334.1960724408
 21
151.4729500436
  0
LINE
  5
3D1
100
AcDbEntity
  8
H_MOVING
100
AcDbLine
 62
1
  6
CONTINUOUS
 10
82.020147366
 20
153.6424588821
 11
84.0166283649
 21
153.6424588821
  0
LINE
  5
3D2
100
AcDbEntity
  8
INTER_PHASE_SCHIELDS
100
AcDbLine
 62
5
  6
CONTINUOUS
 10
653.4402352536
 20
153.9220094544
 11
651.4402352536
 21
153.9220094544
  0
LINE
  5
3D3
100
AcDbEntity
  8
INTER_PHASE_SCHIELDS
100
AcDbLine
 62
5
  6
CONTINUOUS
 10
573.4402352536
 20
153.9220094544
 11
571.4402352536
 21
153.9220094544
  0
LINE
  5
3D4
100
AcDbEntity
  8
INTER_PHASE_SCHIELDS
100
AcDbLine
 62
5
  6
CONTINUOUS
 10
337.2960724408
 20
155.2729500436
 11
334.6960724408
 21
155.2729500436
  0
LINE
  5
3D5
100
AcDbEntity
  8
INTER_PHASE_SCHIELDS
100
AcDbLine
 62
5
  6
CONTINUOUS
 10
261.1960724408
 20
155.2729500436
 11
258.5960724408
 21
155.2729500436
  0
LINE
  5
3D6
100
AcDbEntity
  8
H_MOVING
100
AcDbLine
 62
1
  6
CONTINUOUS
 10
84.0910147368
 20
155.6336199605
 11
82.3186834744
 21
155.6336199605
  0
LINE
  5
3D7
100
AcDbEntity
  8
AXIS
100
AcDbLine
 62
4
  6
CONTINUOUS
 10
477.4402352536
 20
156.2220094544
 11
492.4402352536
 21
156.2220094544
  0
LINE
  5
3D8
100
AcDbEntity
  8
AXIS
100
AcDbLine
 62
4
  6
CONTINUOUS
 10
732.4402352536
 20
156.2220094544
 11
747.4402352536
 21
156.2220094544
  0
LINE
  5
3D9
100
AcDbEntity
  8
H_MOVING
100
AcDbLine
 62
1
  6
CONTINUOUS
 10
82.3186834744
 20
161.6336199605
 11
84.3151644733
 21
161.6336199605
  0
LINE
  5
3DA
100
AcDbEntity
  8
H_MOVING
100
AcDbLine
 62
1
  6
CONTINUOUS
 10
84.3895508452
 20
163.624781039
 11
82.6172195828
 21
163.624781039
  0
LINE
  5
3DB
100
AcDbEntity
  8
TERMINAL_SCREEN
100
AcDbLine
 62
2
  6
CONTINUOUS
 10
253.2960724408
 20
374.1510353925
 11
253.2960724408
 21
321.2221032044
  0
LINE
  5
3DC
100
AcDbEntity
  8
BASIC_DEVICE
100
AcDbLine
 62
7
  6
CONTINUOUS
 10
255.2960724408
 20
145.0729500436
 11
255.2960724408
 21
345.0729500436
  0
LINE
  5
3DD
100
AcDbEntity
  8
TERMINAL_SCREEN
100
AcDbLine
 62
2
  6
CONTINUOUS
 10
255.2960724408
 20
321.2221032044
 11
255.2960724408
 21
374.1510353925
  0
LINE
  5
3DE
100
AcDbEntity
  8
INTER_PHASE_SCHIELDS
100
AcDbLine
 62
5
  6
CONTINUOUS
 10
256.5960724408
 20
148.2729500436
 11
256.5960724408
 21
85.2729500436
  0
LINE
  5
3DF
100
AcDbEntity
  8
INTER_PHASE_SCHIELDS
100
AcDbLine
 62
5
  6
CONTINUOUS
 10
256.5960724408
 20
341.8729500436
 11
256.5960724408
 21
404.8729500436
  0
LINE
  5
3E0
100
AcDbEntity
  8
INTER_PHASE_SCHIELDS
100
AcDbLine
 62
5
  6
CONTINUOUS
 10
258.5960724408
 20
155.2729500436
 11
258.5960724408
 21
148.2729500436
  0
LINE
  5
3E1
100
AcDbEntity
  8
INTER_PHASE_SCHIELDS
100
AcDbLine
 62
5
  6
CONTINUOUS
 10
258.5960724408
 20
334.8729500436
 11
258.5960724408
 21
341.8729500436
  0
LINE
  5
3E2
100
AcDbEntity
  8
INTER_PHASE_SCHIELDS
100
AcDbLine
 62
5
  6
CONTINUOUS
 10
261.6960724408
 20
351.3729500436
 11
261.6960724408
 21
338.6729500436
  0
LINE
  5
3E3
100
AcDbEntity
  8
INTER_PHASE_SCHIELDS
100
AcDbLine
 62
5
  6
CONTINUOUS
 10
261.6960724408
 20
138.7729500436
 11
261.6960724408
 21
151.4729500436
  0
LINE
  5
3E4
100
AcDbEntity
  8
INTER_PHASE_SCHIELDS
100
AcDbLine
 62
5
  6
CONTINUOUS
 10
263.1960724408
 20
338.6729500436
 11
263.1960724408
 21
336.8729500436
  0
LINE
  5
3E5
100
AcDbEntity
  8
INTER_PHASE_SCHIELDS
100
AcDbLine
 62
5
  6
CONTINUOUS
 10
263.1960724408
 20
151.4729500436
 11
263.1960724408
 21
153.2729500436
  0
LINE
  5
3E6
100
AcDbEntity
  8
INTER_PHASE_SCHIELDS
100
AcDbLine
 62
5
  6
CONTINUOUS
 10
266.1960724408
 20
148.2729500436
 11
266.1960724408
 21
138.7729500436
  0
LINE
  5
3E7
100
AcDbEntity
  8
INTER_PHASE_SCHIELDS
100
AcDbLine
 62
5
  6
CONTINUOUS
 10
266.1960724408
 20
341.8729500436
 11
266.1960724408
 21
351.3729500436
  0
LINE
  5
3E8
100
AcDbEntity
  8
INTER_PHASE_SCHIELDS
100
AcDbLine
 62
5
  6
CONTINUOUS
 10
266.9960724408
 20
141.5729500436
 11
266.9960724408
 21
88.2729500436
  0
LINE
  5
3E9
100
AcDbEntity
  8
INTER_PHASE_SCHIELDS
100
AcDbLine
 62
5
  6
CONTINUOUS
 10
266.9960724408
 20
348.5729500436
 11
266.9960724408
 21
401.8729500436
  0
LINE
  5
3EA
100
AcDbEntity
  8
INTER_PHASE_SCHIELDS
100
AcDbLine
 62
5
  6
CONTINUOUS
 10
268.9960724408
 20
141.5729500436
 11
268.9960724408
 21
88.2729500436
  0
LINE
  5
3EB
100
AcDbEntity
  8
INTER_PHASE_SCHIELDS
100
AcDbLine
 62
5
  6
CONTINUOUS
 10
268.9960724408
 20
348.5729500436
 11
268.9960724408
 21
401.8729500436
  0
LINE
  5
3EC
100
AcDbEntity
  8
BASIC_DEVICE
100
AcDbLine
 62
7
  6
CONTINUOUS
 10
288.2960724408
 20
145.0732312936
 11
288.2960724408
 21
139.5729500436
  0
LINE
  5
3ED
100
AcDbEntity
  8
BASIC_DEVICE
100
AcDbLine
 62
7
  6
CONTINUOUS
 10
288.2960724408
 20
345.0726687936
 11
288.2960724408
 21
350.5729500436
  0
LINE
  5
3EE
100
AcDbEntity
  8
H_EXTERN_HANDLE
100
AcDbLine
 62
7
  6
CONTINUOUS
 10
625.6326337052
 20
916.2641271371
 11
613.9402352536
 21
906.2641271371
  0
LINE
  5
3EF
100
AcDbEntity
  8
BASIC_DEVICE
100
AcDbLine
 62
7
  6
CONTINUOUS
 10
752.4402352536
 20
166.2220094544
 11
739.9402352536
 21
166.2220094544
  0
LINE
  5
3F0
100
AcDbEntity
  8
BASIC_DEVICE
100
AcDbLine
 62
7
  6
CONTINUOUS
 10
472.4402352536
 20
166.2220094544
 11
484.9402352536
 21
166.2220094544
  0
LINE
  5
3F1
100
AcDbEntity
  8
BASIC_DEVICE
100
AcDbLine
 62
7
  6
CONTINUOUS
 10
255.2960724408
 20
167.5729500436
 11
316.2960724408
 21
167.5729500436
  0
LINE
  5
3F2
100
AcDbEntity
  8
BASIC_DEVICE
100
AcDbLine
 62
7
  6
CONTINUOUS
 10
339.2960724408
 20
169.5729500436
 11
341.2960724408
 21
169.5729500436
  0
LINE
  5
3F3
100
AcDbEntity
  8
H_MOVING
100
AcDbLine
 62
1
  6
CONTINUOUS
 10
82.6172195828
 20
169.624781039
 11
84.6137005817
 21
169.624781039
  0
LINE
  5
3F4
100
AcDbEntity
  8
BASIC_DEVICE
100
AcDbLine
 62
7
  6
CONTINUOUS
 10
487.9713241669
 20
170.9720094544
 11
481.9091463404
 21
170.9720094544
  0
LINE
  5
3F5
100
AcDbEntity
  8
BASIC_DEVICE
100
AcDbLine
 62
7
  6
CONTINUOUS
 10
736.9091463404
 20
170.9720094544
 11
742.9713241669
 21
170.9720094544
  0
LINE
  5
3F6
100
AcDbEntity
  8
H_MOVING
100
AcDbLine
 62
1
  6
CONTINUOUS
 10
84.6880869536
 20
171.6159421174
 11
82.9157556913
 21
171.6159421174
  0
LINE
  5
3F7
100
AcDbEntity
  8
H_MOVING
100
AcDbLine
 62
1
  6
CONTINUOUS
 10
82.9157556913
 20
177.6159421174
 11
84.9122366901
 21
177.6159421174
  0
LINE
  5
3F8
100
AcDbEntity
  8
H_MOVING
100
AcDbLine
 62
1
  6
CONTINUOUS
 10
84.986623062
 20
179.6071031958
 11
83.2142917997
 21
179.6071031958
  0
LINE
  5
3F9
100
AcDbEntity
  8
BASIC_DEVICE
100
AcDbLine
 62
7
  6
CONTINUOUS
 10
742.9713241669
 20
181.4720094544
 11
736.9091463404
 21
181.4720094544
  0
LINE
  5
3FA
100
AcDbEntity
  8
BASIC_DEVICE
100
AcDbLine
 62
7
  6
CONTINUOUS
 10
481.9091463404
 20
181.4720094544
 11
487.9713241669
 21
181.4720094544
  0
LINE
  5
3FB
100
AcDbEntity
  8
H_MOVING
100
AcDbLine
 62
1
  6
CONTINUOUS
 10
83.2142917997
 20
185.6071031958
 11
85.2107727985
 21
185.6071031958
  0
LINE
  5
3FC
100
AcDbEntity
  8
H_MOVING
100
AcDbLine
 62
1
  6
CONTINUOUS
 10
85.2851591704
 20
187.5982642742
 11
83.5128279081
 21
187.5982642742
  0
LINE
  5
3FD
100
AcDbEntity
  8
H_MOVING
100
AcDbLine
 62
1
  6
CONTINUOUS
 10
83.5128279081
 20
193.5982642742
 11
85.509308907
 21
193.5982642742
  0
LINE
  5
3FE
100
AcDbEntity
  8
H_MOVING
100
AcDbLine
 62
1
  6
CONTINUOUS
 10
85.5836952788
 20
195.5894253527
 11
83.8113640165
 21
195.5894253527
  0
LINE
  5
3FF
100
AcDbEntity
  8
H_MOVING
100
AcDbLine
 62
1
  6
CONTINUOUS
 10
83.8113640165
 20
201.5894253527
 11
85.8078450154
 21
201.5894253527
  0
LINE
  5
400
100
AcDbEntity
  8
TERMINAL_SCREEN
100
AcDbLine
 62
2
  6
CONTINUOUS
 10
205.3463249725
 20
424.1718506727
 11
251.8316063467
 21
377.6865692985
  0
LINE
  5
401
100
AcDbEntity
  8
TERMINAL_SCREEN
100
AcDbLine
 62
2
  6
CONTINUOUS
 10
253.2458199091
 20
379.1007828608
 11
206.7605385349
 21
425.5860642351
  0
LINE
  5
402
100
AcDbEntity
  8
0
100
AcDbLine
 62
1
  6
CONTINUOUS
 10
294.0211774431
 20
744.1839580964
 11
294.0211774431
 21
694.9339580964
  0
LINE
  5
403
100
AcDbEntity
  8
BASIC_DEVICE
100
AcDbLine
 62
7
  6
CONTINUOUS
 10
294.2960724408
 20
167.5729500436
 11
294.2960724408
 21
322.5729500436
  0
LINE
  5
404
100
AcDbEntity
  8
BASIC_DEVICE
100
AcDbLine
 62
7
  6
CONTINUOUS
 10
294.3960724408
 20
145.0728562936
 11
294.3960724408
 21
95.0729500436
  0
LINE
  5
405
100
AcDbEntity
  8
BASIC_DEVICE
100
AcDbLine
 62
7
  6
CONTINUOUS
 10
294.3960724408
 20
345.0730437936
 11
294.3960724408
 21
395.0729500436
  0
LINE
  5
406
100
AcDbEntity
  8
BASIC_DEVICE
100
AcDbLine
 62
7
  6
CONTINUOUS
 10
300.3960724408
 20
395.0729500436
 11
300.3960724408
 21
345.0730437936
  0
LINE
  5
407
100
AcDbEntity
  8
BASIC_DEVICE
100
AcDbLine
 62
7
  6
CONTINUOUS
 10
300.3960724408
 20
95.0729500436
 11
300.3960724408
 21
145.0728562936
  0
LINE
  5
408
100
AcDbEntity
  8
BASIC_DEVICE
100
AcDbLine
 62
7
  6
CONTINUOUS
 10
316.2960724408
 20
167.5729500436
 11
316.2960724408
 21
145.0729500436
  0
LINE
  5
409
100
AcDbEntity
  8
BASIC_DEVICE
100
AcDbLine
 62
7
  6
CONTINUOUS
 10
316.2960724408
 20
322.5729500436
 11
316.2960724408
 21
345.0729500436
  0
LINE
  5
40A
100
AcDbEntity
  8
INTER_PHASE_SCHIELDS
100
AcDbLine
 62
5
  6
CONTINUOUS
 10
326.7960724408
 20
401.8729500436
 11
326.7960724408
 21
348.5729500436
  0
LINE
  5
40B
100
AcDbEntity
  8
INTER_PHASE_SCHIELDS
100
AcDbLine
 62
5
  6
CONTINUOUS
 10
326.7960724408
 20
88.2729500436
 11
326.7960724408
 21
141.5729500436
  0
LINE
  5
40C
100
AcDbEntity
  8
0
100
AcDbLine
 62
1
  6
CONTINUOUS
 10
328.0211774431
 20
744.1839580964
 11
328.0211774431
 21
694.9339580964
  0
LINE
  5
40D
100
AcDbEntity
  8
INTER_PHASE_SCHIELDS
100
AcDbLine
 62
5
  6
CONTINUOUS
 10
328.7960724408
 20
401.8729500436
 11
328.7960724408
 21
348.5729500436
  0
LINE
  5
40E
100
AcDbEntity
  8
INTER_PHASE_SCHIELDS
100
AcDbLine
 62
5
  6
CONTINUOUS
 10
328.7960724408
 20
88.2729500436
 11
328.7960724408
 21
141.5729500436
  0
LINE
  5
40F
100
AcDbEntity
  8
INTER_PHASE_SCHIELDS
100
AcDbLine
 62
5
  6
CONTINUOUS
 10
329.6960724408
 20
351.3729500436
 11
329.6960724408
 21
341.8729500436
  0
LINE
  5
410
100
AcDbEntity
  8
INTER_PHASE_SCHIELDS
100
AcDbLine
 62
5
  6
CONTINUOUS
 10
329.6960724408
 20
138.7729500436
 11
329.6960724408
 21
148.2729500436
  0
LINE
  5
411
100
AcDbEntity
  8
H_MOVING
100
AcDbLine
 62
1
  6
CONTINUOUS
 10
85.8822313872
 20
203.5805864311
 11
84.1099001249
 21
203.5805864311
  0
LINE
  5
412
100
AcDbEntity
  8
H_MOVING
100
AcDbLine
 62
1
  6
CONTINUOUS
 10
37.9594490368
 20
207.1685064104
 11
81.1680724451
 21
207.1685064104
  0
LINE
  5
413
100
AcDbEntity
  8
H_MOVING
100
AcDbLine
 62
1
  6
CONTINUOUS
 10
601.9402352536
 20
207.1685066885
 11
622.9402352536
 21
207.1685066885
  0
LINE
  5
414
100
AcDbEntity
  8
BASIC_DEVICE
100
AcDbLine
 62
7
  6
CONTINUOUS
 10
543.4402352536
 20
223.7220094544
 11
524.4402352536
 21
223.7220094544
  0
LINE
  5
415
100
AcDbEntity
  8
H_EXTERN_HANDLE
100
AcDbLine
 62
7
  6
CONTINUOUS
 10
129.2960724408
 20
231.7220094544
 11
114.2960724408
 21
231.7220094544
  0
LINE
  5
416
100
AcDbEntity
  8
BASIC_DEVICE
100
AcDbLine
 62
7
  6
CONTINUOUS
 10
698.4402352536
 20
234.7220094544
 11
680.4402352536
 21
234.7220094544
  0
LINE
  5
417
100
AcDbEntity
  8
BASIC_DEVICE
100
AcDbLine
 62
7
  6
CONTINUOUS
 10
695.4402352536
 20
237.7220094544
 11
683.4402352536
 21
237.7220094544
  0
LINE
  5
418
100
AcDbEntity
  8
H_EXTERN_HANDLE
100
AcDbLine
 62
7
  6
CONTINUOUS
 10
88.2960724408
 20
241.7220091763
 11
114.2960724408
 21
241.7220091763
  0
LINE
  5
419
100
AcDbEntity
  8
H_EXTERN_HANDLE
100
AcDbLine
 62
7
  6
CONTINUOUS
 10
41.9019067422
 20
262.7306447969
 11
76.0857616895
 21
261.2320843452
  0
LINE
  5
41A
100
AcDbEntity
  8
AM_12
100
AcDbLine
 62
4
  6
CONTINUOUS
 10
571.4281940834
 20
82.366462166
 11
574.9281940834
 21
78.866462166
  0
LINE
  5
41B
100
AcDbEntity
  8
INTER_PHASE_SCHIELDS
100
AcDbLine
 62
5
  6
CONTINUOUS
 10
334.6960724408
 20
334.8729500436
 11
332.6960724408
 21
336.8729500436
  0
LINE
  5
41C
100
AcDbEntity
  8
INTER_PHASE_SCHIELDS
100
AcDbLine
 62
5
  6
CONTINUOUS
 10
332.6960724408
 20
153.2729500436
 11
332.6960724408
 21
151.4729500436
  0
LINE
  5
41D
100
AcDbEntity
  8
INTER_PHASE_SCHIELDS
100
AcDbLine
 62
5
  6
CONTINUOUS
 10
332.6960724408
 20
336.8729500436
 11
332.6960724408
 21
338.6729500436
  0
LINE
  5
41E
100
AcDbEntity
  8
INTER_PHASE_SCHIELDS
100
AcDbLine
 62
5
  6
CONTINUOUS
 10
334.1960724408
 20
151.4729500436
 11
334.1960724408
 21
138.7729500436
  0
LINE
  5
41F
100
AcDbEntity
  8
INTER_PHASE_SCHIELDS
100
AcDbLine
 62
5
  6
CONTINUOUS
 10
334.1960724408
 20
338.6729500436
 11
334.1960724408
 21
351.3729500436
  0
LINE
  5
420
100
AcDbEntity
  8
INTER_PHASE_SCHIELDS
100
AcDbLine
 62
5
  6
CONTINUOUS
 10
337.2960724408
 20
360.0729500436
 11
337.2960724408
 21
345.0729500436
  0
LINE
  5
421
100
AcDbEntity
  8
INTER_PHASE_SCHIELDS
100
AcDbLine
 62
5
  6
CONTINUOUS
 10
337.2960724408
 20
341.8729500436
 11
337.2960724408
 21
334.8729500436
  0
LINE
  5
422
100
AcDbEntity
  8
INTER_PHASE_SCHIELDS
100
AcDbLine
 62
5
  6
CONTINUOUS
 10
337.2960724408
 20
130.0729500436
 11
337.2960724408
 21
145.0729500436
  0
LINE
  5
423
100
AcDbEntity
  8
INTER_PHASE_SCHIELDS
100
AcDbLine
 62
5
  6
CONTINUOUS
 10
337.2960724408
 20
148.2729500436
 11
337.2960724408
 21
155.2729500436
  0
LINE
  5
424
100
AcDbEntity
  8
INTER_PHASE_SCHIELDS
100
AcDbLine
 62
5
  6
CONTINUOUS
 10
339.2960724408
 20
404.8729500436
 11
339.2960724408
 21
341.8729500436
  0
LINE
  5
425
100
AcDbEntity
  8
BASIC_DEVICE
100
AcDbLine
 62
7
  6
CONTINUOUS
 10
339.2960724408
 20
350.5729500436
 11
339.2960724408
 21
345.0729500436
  0
LINE
  5
426
100
AcDbEntity
  8
BASIC_DEVICE
100
AcDbLine
 62
7
  6
CONTINUOUS
 10
339.2960724408
 20
320.5729500436
 11
339.2960724408
 21
169.5729500436
  0
LINE
  5
427
100
AcDbEntity
  8
BASIC_DEVICE
100
AcDbLine
 62
7
  6
CONTINUOUS
 10
339.2960724408
 20
139.5729500436
 11
339.2960724408
 21
145.0729500436
  0
LINE
  5
428
100
AcDbEntity
  8
INTER_PHASE_SCHIELDS
100
AcDbLine
 62
5
  6
CONTINUOUS
 10
339.2960724408
 20
85.2729500436
 11
339.2960724408
 21
148.2729500436
  0
LINE
  5
429
100
AcDbEntity
  8
BASIC_DEVICE
100
AcDbLine
 62
7
  6
CONTINUOUS
 10
341.2960724408
 20
345.0729500436
 11
341.2960724408
 21
320.5729500436
  0
LINE
  5
42A
100
AcDbEntity
  8
BASIC_DEVICE
100
AcDbLine
 62
7
  6
CONTINUOUS
 10
341.2960724408
 20
169.5729500436
 11
341.2960724408
 21
145.0729500436
  0
LINE
  5
42B
100
AcDbEntity
  8
0
100
AcDbLine
 62
1
  6
CONTINUOUS
 10
360.8023958766
 20
744.1839580964
 11
360.8023958766
 21
694.9339580964
  0
LINE
  5
42C
100
AcDbEntity
  8
HANDLE_FIXING_HOLES
100
AcDbLine
 62
4
  6
CONTINUOUS
 10
994.5178035905
 20
246.7220094544
 11
1009.4118105921
 21
246.7220094544
  0
LINE
  5
42D
100
AcDbEntity
  8
BASIC_DEVICE
100
AcDbLine
 62
7
  6
CONTINUOUS
 10
683.4402352536
 20
249.7220094544
 11
695.4402352536
 21
249.7220094544
  0
LINE
  5
42E
100
AcDbEntity
  8
BASIC_DEVICE
100
AcDbLine
 62
7
  6
CONTINUOUS
 10
680.4402352536
 20
252.7220094544
 11
698.4402352536
 21
252.7220094544
  0
LINE
  5
42F
100
AcDbEntity
  8
BASIC_DEVICE
100
AcDbLine
 62
1
  6
CONTINUOUS
 10
197.0960724408
 20
256.1220094544
 11
201.2960724408
 21
256.1220094544
  0
LINE
  5
430
100
AcDbEntity
  8
H_EXTERN_HANDLE
100
AcDbLine
 62
7
  6
CONTINUOUS
 10
38.7960724408
 20
257.4720091763
 11
78.2960724408
 21
257.4720091763
  0
LINE
  5
431
100
AcDbEntity
  8
H_EXTERN_HANDLE
100
AcDbLine
 62
7
  6
CONTINUOUS
 10
585.9402352536
 20
257.4720094544
 11
638.9402352536
 21
257.4720094544
  0
LINE
  5
432
100
AcDbEntity
  8
BASIC_DEVICE
100
AcDbLine
 62
1
  6
CONTINUOUS
 10
198.1960724408
 20
260.1286860988
 11
199.2960724408
 21
260.1286860988
  0
LINE
  5
433
100
AcDbEntity
  8
H_EXTERN_HANDLE
100
AcDbLine
 62
7
  6
CONTINUOUS
 10
76.5456202971
 20
261.2220108285
 11
89.7960710667
 21
261.2220090944
  0
LINE
  5
434
100
AcDbEntity
  8
H_EXTERN_HANDLE
100
AcDbLine
 62
7
  6
CONTINUOUS
 10
567.4402352536
 20
261.2220094544
 11
585.9402352536
 21
261.2220094544
  0
LINE
  5
435
100
AcDbEntity
  8
H_EXTERN_HANDLE
100
AcDbLine
 62
7
  6
CONTINUOUS
 10
638.9402352536
 20
261.2220094544
 11
801.4402352536
 21
261.2220094544
  0
LINE
  5
436
100
AcDbEntity
  8
H_EXTERN_HANDLE
100
AcDbLine
 62
7
  6
CONTINUOUS
 10
37.2960724408
 20
261.4720091763
 11
38.7960724408
 21
261.4720091763
  0
LINE
  5
437
100
AcDbEntity
  8
H_EXTERN_HANDLE
100
AcDbLine
 62
7
  6
CONTINUOUS
 10
91.2960724408
 20
263.2220091763
 11
82.7100352907
 21
263.2220091763
  0
LINE
  5
438
100
AcDbEntity
  8
BASIC_DEVICE
100
AcDbLine
 62
1
  6
CONTINUOUS
 10
604.7902352536
 20
264.0720094544
 11
620.0902352536
 21
264.0720094544
  0
LINE
  5
439
100
AcDbEntity
  8
BASIC_DEVICE
100
AcDbLine
 62
7
  6
CONTINUOUS
 10
619.9402352536
 20
264.2220094544
 11
604.9402352536
 21
264.2220094544
  0
LINE
  5
43A
100
AcDbEntity
  8
BASIC_DEVICE
100
AcDbLine
 62
7
  6
CONTINUOUS
 10
175.2960724408
 20
264.2220094544
 11
197.0960724408
 21
264.2220094544
  0
LINE
  5
43B
100
AcDbEntity
  8
H_EXTERN_HANDLE
100
AcDbLine
 62
7
  6
CONTINUOUS
 10
114.2960724408
 20
265.2220091763
 11
91.2960724408
 21
265.2220091763
  0
LINE
  5
43C
100
AcDbEntity
  8
H_EXTERN_HANDLE
100
AcDbLine
 62
7
  6
CONTINUOUS
 10
566.4402352536
 20
265.7220094545
 11
600.3952089961
 21
265.7220094544
  0
LINE
  5
43D
100
AcDbEntity
  8
H_EXTERN_HANDLE
100
AcDbLine
 62
7
  6
CONTINUOUS
 10
618.4852615112
 20
265.7220094544
 11
675.4402352537
 21
265.7220094544
  0
LINE
  5
43E
100
AcDbEntity
  8
BASIC_DEVICE
100
AcDbLine
 62
7
  6
CONTINUOUS
 10
636.5234244112
 20
267.7220094544
 11
643.6171497901
 21
267.7220094544
  0
LINE
  5
43F
100
AcDbEntity
  8
BASIC_DEVICE
100
AcDbLine
 62
1
  6
CONTINUOUS
 10
198.1960724408
 20
269.1720094544
 11
189.9960724408
 21
269.1720094544
  0
LINE
  5
440
100
AcDbEntity
  8
BASIC_DEVICE
100
AcDbLine
 62
7
  6
CONTINUOUS
 10
524.4402352536
 20
269.7220094544
 11
543.4402352536
 21
269.7220094544
  0
LINE
  5
441
100
AcDbEntity
  8
BASIC_DEVICE
100
AcDbLine
 62
1
  6
CONTINUOUS
 10
625.9402352536
 20
269.9220094544
 11
627.9360411378
 21
269.9220094544
  0
LINE
  5
442
100
AcDbEntity
  8
AXIS
100
AcDbLine
 62
4
  6
CONTINUOUS
 10
204.2960724408
 20
271.7220094544
 11
185.9960724408
 21
271.7220094544
  0
LINE
  5
443
100
AcDbEntity
  8
H_EXTERN_HANDLE
100
AcDbLine
 62
4
  6
CONTINUOUS
 10
134.3481212708
 20
271.7220094544
 11
30.0262759617
 21
271.7220094544
  0
LINE
  5
444
100
AcDbEntity
  8
BASIC_DEVICE
100
AcDbLine
 62
1
  6
CONTINUOUS
 10
198.1960724408
 20
271.7220094544
 11
199.2960724408
 21
271.7220094544
  0
LINE
  5
445
100
AcDbEntity
  8
H_EXTERN_HANDLE
100
AcDbLine
 62
4
  6
CONTINUOUS
 10
552.4486596774
 20
271.7220094544
 11
819.3409136655
 21
271.7220094544
  0
LINE
  5
446
100
AcDbEntity
  8
AXIS
100
AcDbLine
 62
4
  6
CONTINUOUS
 10
593.8402352536
 20
271.7220094544
 11
631.0402352536
 21
271.7220094544
  0
LINE
  5
447
100
AcDbEntity
  8
HANDLE_FIXING_HOLES
100
AcDbLine
 62
4
  6
CONTINUOUS
 10
969.8728775723
 20
271.7220094544
 11
1033.7560405705
 21
271.7220094544
  0
LINE
  5
448
100
AcDbEntity
  8
BASIC_DEVICE
100
AcDbLine
 62
1
  6
CONTINUOUS
 10
627.9360411378
 20
273.5220094544
 11
625.9402352536
 21
273.5220094544
  0
LINE
  5
449
100
AcDbEntity
  8
BASIC_DEVICE
100
AcDbLine
 62
1
  6
CONTINUOUS
 10
189.9960724408
 20
274.2720094544
 11
198.1960724408
 21
274.2720094544
  0
LINE
  5
44A
100
AcDbEntity
  8
H_EXTERN_HANDLE
100
AcDbLine
 62
7
  6
CONTINUOUS
 10
675.4402352536
 20
277.7220094543
 11
618.4852615112
 21
277.7220094544
  0
LINE
  5
44B
100
AcDbEntity
  8
H_EXTERN_HANDLE
100
AcDbLine
 62
7
  6
CONTINUOUS
 10
600.3952089961
 20
277.7220094544
 11
566.4402352536
 21
277.7220094544
  0
LINE
  5
44C
100
AcDbEntity
  8
H_EXTERN_HANDLE
100
AcDbLine
 62
7
  6
CONTINUOUS
 10
91.2960724408
 20
278.2220091763
 11
114.2960724408
 21
278.2220091763
  0
LINE
  5
44D
100
AcDbEntity
  8
BASIC_DEVICE
100
AcDbLine
 62
7
  6
CONTINUOUS
 10
197.0960724408
 20
279.2220094544
 11
175.2960724408
 21
279.2220094544
  0
LINE
  5
44E
100
AcDbEntity
  8
BASIC_DEVICE
100
AcDbLine
 62
7
  6
CONTINUOUS
 10
604.9402352536
 20
279.2220094544
 11
619.9402352536
 21
279.2220094544
  0
LINE
  5
44F
100
AcDbEntity
  8
BASIC_DEVICE
100
AcDbLine
 62
1
  6
CONTINUOUS
 10
620.0902352536
 20
279.3720094544
 11
604.7902352536
 21
279.3720094544
  0
LINE
  5
450
100
AcDbEntity
  8
H_EXTERN_HANDLE
100
AcDbLine
 62
7
  6
CONTINUOUS
 10
82.7100360577
 20
280.2220091763
 11
91.2960724408
 21
280.2220091763
  0
LINE
  5
451
100
AcDbEntity
  8
AM_12
100
AcDbLine
 62
4
  6
CONTINUOUS
 10
651.4281940834
 20
82.366462166
 11
654.9281940834
 21
78.866462166
  0
LINE
  5
452
100
AcDbEntity
  8
INTER_PHASE_SCHIELDS
100
AcDbLine
 62
5
  6
CONTINUOUS
 10
333.2960724408
 20
410.8729500436
 11
339.2960724408
 21
404.8729500436
  0
LINE
  5
453
100
AcDbEntity
  8
BASIC_DEVICE
100
AcDbLine
 62
7
  6
CONTINUOUS
 10
481.9091463404
 20
170.9720094544
 11
478.8780574271
 21
176.2220094544
  0
LINE
  5
454
100
AcDbEntity
  8
BASIC_DEVICE
100
AcDbLine
 62
7
  6
CONTINUOUS
 10
487.9713241669
 20
181.4720094544
 11
491.0024130801
 21
176.2220094544
  0
LINE
  5
455
100
AcDbEntity
  8
0
100
AcDbLine
 62
7
  6
CONTINUOUS
 10
373.9023958766
 20
744.1839580964
 11
373.9023958766
 21
694.9339580964
  0
LINE
  5
456
100
AcDbEntity
  8
BASIC_DEVICE
100
AcDbLine
 62
1
  6
CONTINUOUS
 10
595.2381255808
 20
766.0641271371
 11
594.2381255808
 21
765.0641271371
  0
LINE
  5
457
100
AcDbEntity
  8
INTER_PHASE_SCHIELDS
100
AcDbLine
 62
5
  6
CONTINUOUS
 10
256.5960724408
 20
404.8729500436
 11
262.5960724408
 21
410.8729500436
  0
LINE
  5
458
100
AcDbEntity
  8
H_EXTERN_HANDLE
100
AcDbLine
 62
7
  6
CONTINUOUS
 10
76.0857615192
 20
282.2119345562
 11
41.9019065961
 21
280.7133735492
  0
LINE
  5
459
100
AcDbEntity
  8
H_EXTERN_HANDLE
100
AcDbLine
 62
7
  6
CONTINUOUS
 10
38.7960724408
 20
281.9720091763
 11
37.2960724408
 21
281.9720091763
  0
LINE
  5
45A
100
AcDbEntity
  8
H_EXTERN_HANDLE
100
AcDbLine
 62
7
  6
CONTINUOUS
 10
801.4402352536
 20
282.2220094544
 11
638.9402352536
 21
282.2220094544
  0
LINE
  5
45B
100
AcDbEntity
  8
H_EXTERN_HANDLE
100
AcDbLine
 62
7
  6
CONTINUOUS
 10
585.9402352536
 20
282.2220094544
 11
567.4402352536
 21
282.2220094544
  0
LINE
  5
45C
100
AcDbEntity
  8
H_EXTERN_HANDLE
100
AcDbLine
 62
7
  6
CONTINUOUS
 10
76.5456216713
 20
282.2220094544
 11
89.7960724408
 21
282.2220094544
  0
LINE
  5
45D
100
AcDbEntity
  8
BASIC_DEVICE
100
AcDbLine
 62
1
  6
CONTINUOUS
 10
199.2960724408
 20
282.9726763648
 11
198.1960724408
 21
282.9726763648
  0
LINE
  5
45E
100
AcDbEntity
  8
H_EXTERN_HANDLE
100
AcDbLine
 62
7
  6
CONTINUOUS
 10
638.9402352536
 20
285.9720094544
 11
585.9402352536
 21
285.9720094544
  0
LINE
  5
45F
100
AcDbEntity
  8
H_EXTERN_HANDLE
100
AcDbLine
 62
7
  6
CONTINUOUS
 10
38.7960724408
 20
285.9720091763
 11
78.2960724408
 21
285.9720091763
  0
LINE
  5
460
100
AcDbEntity
  8
BASIC_DEVICE
100
AcDbLine
 62
1
  6
CONTINUOUS
 10
201.2960724408
 20
287.3220094544
 11
197.0960724408
 21
287.3220094544
  0
LINE
  5
461
100
AcDbEntity
  8
HANDLE_FIXING_HOLES
100
AcDbLine
 62
4
  6
CONTINUOUS
 10
994.0362096861
 20
296.7220094544
 11
1009.8934044964
 21
296.7220094544
  0
LINE
  5
462
100
AcDbEntity
  8
H_EXTERN_HANDLE
100
AcDbLine
 62
7
  6
CONTINUOUS
 10
114.2960724408
 20
301.7220091763
 11
88.2960724408
 21
301.7220091763
  0
LINE
  5
463
100
AcDbEntity
  8
H_EXTERN_HANDLE
100
AcDbLine
 62
1
  6
CONTINUOUS
 10
612.4402352536
 20
302.2220094544
 11
628.4402352536
 21
302.2220094544
  0
LINE
  5
464
100
AcDbEntity
  8
TEXT
100
AcDbLine
 62
2
  6
CONTINUOUS
 10
613.7562260218
 20
303.7711465539
 11
611.7562260218
 21
303.7711465539
  0
LINE
  5
465
100
AcDbEntity
  8
TEXT
100
AcDbLine
 62
2
  6
CONTINUOUS
 10
611.7562260218
 20
303.7711465539
 11
613.7562260218
 21
303.7711465539
  0
LINE
  5
466
100
AcDbEntity
  8
TEXT
100
AcDbLine
 62
2
  6
CONTINUOUS
 10
613.7562260218
 20
309.7711465539
 11
611.7562260218
 21
309.7711465539
  0
LINE
  5
467
100
AcDbEntity
  8
TEXT
100
AcDbLine
 62
2
  6
CONTINUOUS
 10
611.7562260218
 20
309.7711465539
 11
611.7562260218
 21
303.7711465539
  0
LINE
  5
468
100
AcDbEntity
  8
TEXT
100
AcDbLine
 62
2
  6
CONTINUOUS
 10
613.7562260218
 20
303.7711465539
 11
613.7562260218
 21
309.7711465539
  0
HATCH
  5
469
100
AcDbEntity
  8
TEXT
100
AcDbHatch
 62
2
  6
CONTINUOUS
 10
0.0
 20
0.0
 30
0.0
210
0.0
220
0.0
230
1.0
  2
SOLID
 70
1
 71
1
 91
1
 92
1
 93
4
 72
1
 10
613.7562260218
 20
303.7711465539
 11
613.7562260218
 21
309.7711465539
 72
1
 10
613.7562260218
 20
309.7711465539
 11
611.7562260218
 21
309.7711465539
 72
1
 10
611.7562260218
 20
309.7711465539
 11
611.7562260218
 21
303.7711465539
 72
1
 10
611.7562260218
 20
303.7711465539
 11
613.7562260218
 21
303.7711465539
 97
4
330
465
330
466
330
467
330
468
 75
0
 76
1
 98
1
 10
0.0
 20
0.0
  0
LINE
  5
46A
100
AcDbEntity
  8
BASIC_DEVICE
100
AcDbLine
 62
7
  6
CONTINUOUS
 10
742.9713241669
 20
305.9720094544
 11
736.9091463404
 21
305.9720094544
  0
LINE
  5
46B
100
AcDbEntity
  8
BASIC_DEVICE
100
AcDbLine
 62
7
  6
CONTINUOUS
 10
481.9091463404
 20
305.9720094544
 11
487.9713241669
 21
305.9720094544
  0
LINE
  5
46C
100
AcDbEntity
  8
TEXT
100
AcDbLine
 62
2
  6
CONTINUOUS
 10
613.7562260218
 20
309.7711465539
 11
611.7562260218
 21
309.7711465539
  0
LINE
  5
46D
100
AcDbEntity
  8
H_EXTERN_HANDLE
100
AcDbLine
 62
1
  6
CONTINUOUS
 10
628.4402352536
 20
311.2220094544
 11
612.4402352536
 21
311.2220094544
  0
LINE
  5
46E
100
AcDbEntity
  8
H_EXTERN_HANDLE
100
AcDbLine
 62
7
  6
CONTINUOUS
 10
652.4402352536
 20
311.7220094544
 11
612.4402352536
 21
311.7220094544
  0
LINE
  5
46F
100
AcDbEntity
  8
H_EXTERN_HANDLE
100
AcDbLine
 62
7
  6
CONTINUOUS
 10
114.2960724408
 20
311.7220094544
 11
129.2960724408
 21
311.7220094544
  0
LINE
  5
470
100
AcDbEntity
  8
BASIC_DEVICE
100
AcDbLine
 62
7
  6
CONTINUOUS
 10
487.9713241669
 20
316.4720094544
 11
481.9091463404
 21
316.4720094544
  0
LINE
  5
471
100
AcDbEntity
  8
BASIC_DEVICE
100
AcDbLine
 62
7
  6
CONTINUOUS
 10
736.9091463404
 20
316.4720094544
 11
742.9713241669
 21
316.4720094544
  0
LINE
  5
472
100
AcDbEntity
  8
BASIC_DEVICE
100
AcDbLine
 62
7
  6
CONTINUOUS
 10
255.2960724408
 20
345.0729500436
 11
260.7960724408
 21
350.5729500436
  0
LINE
  5
473
100
AcDbEntity
  8
BASIC_DEVICE
100
AcDbLine
 62
1
  6
CONTINUOUS
 10
188.9960724408
 20
273.2720094544
 11
189.9960724408
 21
274.2720094544
  0
LINE
  5
474
100
AcDbEntity
  8
INTER_PHASE_SCHIELDS
100
AcDbLine
 62
5
  6
CONTINUOUS
 10
263.1960724408
 20
336.8729500436
 11
261.1960724408
 21
334.8729500436
  0
LINE
  5
475
100
AcDbEntity
  8
BASIC_DEVICE
100
AcDbLine
 62
7
  6
CONTINUOUS
 10
341.2960724408
 20
320.5729500436
 11
339.2960724408
 21
320.5729500436
  0
LINE
  5
476
100
AcDbEntity
  8
BASIC_DEVICE
100
AcDbLine
 62
7
  6
CONTINUOUS
 10
752.4402352536
 20
321.2220094544
 11
739.9402352536
 21
321.2220094544
  0
LINE
  5
477
100
AcDbEntity
  8
TERMINAL_SCREEN
100
AcDbLine
 62
2
  6
CONTINUOUS
 10
752.4402352536
 20
321.2220094544
 11
677.9402352536
 21
321.2220094544
  0
LINE
  5
478
100
AcDbEntity
  8
TERMINAL_SCREEN
100
AcDbLine
 62
2
  6
CONTINUOUS
 10
546.9402352536
 20
321.2220094544
 11
472.4402352536
 21
321.2220094544
  0
LINE
  5
479
100
AcDbEntity
  8
BASIC_DEVICE
100
AcDbLine
 62
7
  6
CONTINUOUS
 10
472.4402352536
 20
321.2220094544
 11
484.9402352536
 21
321.2220094544
  0
LINE
  5
47A
100
AcDbEntity
  8
TERMINAL_SCREEN
100
AcDbLine
 62
2
  6
CONTINUOUS
 10
253.2960724408
 20
321.2221032044
 11
255.2960724408
 21
321.2221032044
  0
LINE
  5
47B
100
AcDbEntity
  8
BASIC_DEVICE
100
AcDbLine
 62
7
  6
CONTINUOUS
 10
255.2960724408
 20
322.5729500436
 11
316.2960724408
 21
322.5729500436
  0
LINE
  5
47C
100
AcDbEntity
  8
AXIS
100
AcDbLine
 62
4
  6
CONTINUOUS
 10
477.4402352536
 20
331.2220094544
 11
492.4402352536
 21
331.2220094544
  0
LINE
  5
47D
100
AcDbEntity
  8
AXIS
100
AcDbLine
 62
4
  6
CONTINUOUS
 10
732.4402352536
 20
331.2220094544
 11
747.4402352536
 21
331.2220094544
  0
LINE
  5
47E
100
AcDbEntity
  8
INTER_PHASE_SCHIELDS
100
AcDbLine
 62
5
  6
CONTINUOUS
 10
653.4402352536
 20
333.5220094544
 11
651.4402352536
 21
333.5220094544
  0
LINE
  5
47F
100
AcDbEntity
  8
INTER_PHASE_SCHIELDS
100
AcDbLine
 62
5
  6
CONTINUOUS
 10
573.4402352536
 20
333.5220094544
 11
571.4402352536
 21
333.5220094544
  0
LINE
  5
480
100
AcDbEntity
  8
INTER_PHASE_SCHIELDS
100
AcDbLine
 62
5
  6
CONTINUOUS
 10
337.2960724408
 20
334.8729500436
 11
334.6960724408
 21
334.8729500436
  0
LINE
  5
481
100
AcDbEntity
  8
INTER_PHASE_SCHIELDS
100
AcDbLine
 62
5
  6
CONTINUOUS
 10
261.1960724408
 20
334.8729500436
 11
258.5960724408
 21
334.8729500436
  0
LINE
  5
482
100
AcDbEntity
  8
INTER_PHASE_SCHIELDS
100
AcDbLine
 62
5
  6
CONTINUOUS
 10
261.6960724408
 20
338.6729500436
 11
263.1960724408
 21
338.6729500436
  0
LINE
  5
483
100
AcDbEntity
  8
INTER_PHASE_SCHIELDS
100
AcDbLine
 62
5
  6
CONTINUOUS
 10
332.6960724408
 20
338.6729500436
 11
334.1960724408
 21
338.6729500436
  0
LINE
  5
484
100
AcDbEntity
  8
BASIC_DEVICE
100
AcDbLine
 62
7
  6
CONTINUOUS
 10
672.4402352536
 20
338.7220094544
 11
552.4402352536
 21
338.7220094544
  0
LINE
  5
485
100
AcDbEntity
  8
INTER_PHASE_SCHIELDS
100
AcDbLine
 62
5
  6
CONTINUOUS
 10
339.2960724408
 20
341.8729500436
 11
337.2960724408
 21
341.8729500436
  0
LINE
  5
486
100
AcDbEntity
  8
INTER_PHASE_SCHIELDS
100
AcDbLine
 62
5
  6
CONTINUOUS
 10
329.6960724408
 20
341.8729500436
 11
266.1960724408
 21
341.8729500436
  0
LINE
  5
487
100
AcDbEntity
  8
INTER_PHASE_SCHIELDS
100
AcDbLine
 62
5
  6
CONTINUOUS
 10
258.5960724408
 20
341.8729500436
 11
256.5960724408
 21
341.8729500436
  0
LINE
  5
488
100
AcDbEntity
  8
INTER_PHASE_SCHIELDS
100
AcDbLine
 62
5
  6
CONTINUOUS
 10
655.9402352536
 20
343.7220094544
 11
653.4402352536
 21
343.7220094544
  0
LINE
  5
489
100
AcDbEntity
  8
INTER_PHASE_SCHIELDS
100
AcDbLine
 62
5
  6
CONTINUOUS
 10
651.4402352536
 20
343.7220094544
 11
648.9402352536
 21
343.7220094544
  0
LINE
  5
48A
100
AcDbEntity
  8
INTER_PHASE_SCHIELDS
100
AcDbLine
 62
5
  6
CONTINUOUS
 10
575.9402352536
 20
343.7220094544
 11
573.4402352536
 21
343.7220094544
  0
LINE
  5
48B
100
AcDbEntity
  8
INTER_PHASE_SCHIELDS
100
AcDbLine
 62
5
  6
CONTINUOUS
 10
571.4402352536
 20
343.7220094544
 11
568.9402352536
 21
343.7220094544
  0
LINE
  5
48C
100
AcDbEntity
  8
BASIC_DEVICE
100
AcDbLine
 62
7
  6
CONTINUOUS
 10
472.4402352536
 20
343.7220094544
 11
752.4402352536
 21
343.7220094544
  0
LINE
  5
48D
100
AcDbEntity
  8
INTER_PHASE_SCHIELDS
100
AcDbLine
 62
5
  6
CONTINUOUS
 10
651.4402352536
 20
344.2220094544
 11
650.4402352536
 21
344.2220094544
  0
LINE
  5
48E
100
AcDbEntity
  8
INTER_PHASE_SCHIELDS
100
AcDbLine
 62
5
  6
CONTINUOUS
 10
571.4402352536
 20
344.2220094544
 11
570.4402352536
 21
344.2220094544
  0
LINE
  5
48F
100
AcDbEntity
  8
TERMINAL_SCREEN
100
AcDbLine
 62
2
  6
CONTINUOUS
 10
677.9402352536
 20
344.2220094544
 11
546.9402352536
 21
344.2220094544
  0
LINE
  5
490
100
AcDbEntity
  8
INTER_PHASE_SCHIELDS
100
AcDbLine
 62
5
  6
CONTINUOUS
 10
573.4402352536
 20
344.2220094544
 11
574.4402352536
 21
344.2220094544
  0
LINE
  5
491
100
AcDbEntity
  8
INTER_PHASE_SCHIELDS
100
AcDbLine
 62
5
  6
CONTINUOUS
 10
653.4402352536
 20
344.2220094544
 11
654.4402352536
 21
344.2220094544
  0
LINE
  5
492
100
AcDbEntity
  8
BASIC_DEVICE
100
AcDbLine
 62
7
  6
CONTINUOUS
 10
201.2960724408
 20
345.0729500436
 11
341.2960724408
 21
345.0729500436
  0
LINE
  5
493
100
AcDbEntity
  8
INTER_PHASE_SCHIELDS
100
AcDbLine
 62
5
  6
CONTINUOUS
 10
337.2960724408
 20
345.0729500436
 11
339.2960724408
 21
345.0729500436
  0
LINE
  5
494
100
AcDbEntity
  8
INTER_PHASE_SCHIELDS
100
AcDbLine
 62
5
  6
CONTINUOUS
 10
325.7960724408
 20
345.5729500436
 11
269.9960724408
 21
345.5729500436
  0
LINE
  5
495
100
AcDbEntity
  8
INTER_PHASE_SCHIELDS
100
AcDbLine
 62
5
  6
CONTINUOUS
 10
325.7960724408
 20
347.5729500436
 11
269.9960724408
 21
347.5729500436
  0
LINE
  5
496
100
AcDbEntity
  8
BASIC_DEVICE
100
AcDbLine
 62
7
  6
CONTINUOUS
 10
660.9402352536
 20
349.2220094544
 11
657.2402352536
 21
349.2220094544
  0
LINE
  5
497
100
AcDbEntity
  8
BASIC_DEVICE
100
AcDbLine
 62
7
  6
CONTINUOUS
 10
643.9402352536
 20
349.2220094544
 11
640.2402352536
 21
349.2220094544
  0
LINE
  5
498
100
AcDbEntity
  8
BASIC_DEVICE
100
AcDbLine
 62
7
  6
CONTINUOUS
 10
580.9402352536
 20
349.2220094544
 11
577.2402352536
 21
349.2220094544
  0
LINE
  5
499
100
AcDbEntity
  8
BASIC_DEVICE
100
AcDbLine
 62
7
  6
CONTINUOUS
 10
563.7402352536
 20
349.2220094544
 11
560.2402352536
 21
349.2220094544
  0
LINE
  5
49A
100
AcDbEntity
  8
BASIC_DEVICE
100
AcDbLine
 62
7
  6
CONTINUOUS
 10
566.6402352536
 20
349.2220094544
 11
570.2402352536
 21
349.2220094544
  0
LINE
  5
49B
100
AcDbEntity
  8
BASIC_DEVICE
100
AcDbLine
 62
7
  6
CONTINUOUS
 10
646.6402352536
 20
349.2220094544
 11
650.2402352536
 21
349.2220094544
  0
LINE
  5
49C
100
AcDbEntity
  8
BASIC_DEVICE
100
AcDbLine
 62
7
  6
CONTINUOUS
 10
260.7960724408
 20
350.5729500436
 11
294.3960724408
 21
350.5729500436
  0
LINE
  5
49D
100
AcDbEntity
  8
BASIC_DEVICE
100
AcDbLine
 62
7
  6
CONTINUOUS
 10
300.3966193158
 20
350.5729500436
 11
339.2960724408
 21
350.5729500436
  0
LINE
  5
49E
100
AcDbEntity
  8
BASIC_DEVICE
100
AcDbLine
 62
1
  6
CONTINUOUS
 10
588.2056619706
 20
271.7052646848
 11
602.835605242
 21
259.4292846816
  0
LINE
  5
49F
100
AcDbEntity
  8
BASIC_DEVICE
100
AcDbLine
 62
7
  6
CONTINUOUS
 10
478.8780574271
 20
311.2220094544
 11
481.9091463404
 21
305.9720094544
  0
LINE
  5
4A0
100
AcDbEntity
  8
BASIC_DEVICE
100
AcDbLine
 62
7
  6
CONTINUOUS
 10
491.0024130801
 20
311.2220094544
 11
487.9713241669
 21
316.4720094544
  0
LINE
  5
4A1
100
AcDbEntity
  8
TERMINAL_SCREEN
100
AcDbLine
 62
2
  6
CONTINUOUS
 10
472.4402352536
 20
751.7641271371
 11
472.4402352536
 21
699.7641271371
  0
LINE
  5
4A2
100
AcDbEntity
  8
BASIC_DEVICE
100
AcDbLine
 62
7
  6
CONTINUOUS
 10
472.4402352536
 20
143.7220094544
 11
472.4402352536
 21
343.7220094544
  0
LINE
  5
4A3
100
AcDbEntity
  8
TERMINAL_SCREEN
100
AcDbLine
 62
2
  6
CONTINUOUS
 10
472.4402352536
 20
321.2220094544
 11
472.4402352536
 21
474.2220094544
  0
LINE
  5
4A4
100
AcDbEntity
  8
BASIC_DEVICE
100
AcDbLine
 62
7
  6
CONTINUOUS
 10
472.4402352536
 20
613.7641271371
 11
472.4402352536
 21
699.7641271371
  0
LINE
  5
4A5
100
AcDbEntity
  8
AXIS
100
AcDbLine
 62
4
  6
CONTINUOUS
 10
484.9402352536
 20
148.7220094544
 11
484.9402352536
 21
163.7220094544
  0
LINE
  5
4A6
100
AcDbEntity
  8
AXIS
100
AcDbLine
 62
4
  6
CONTINUOUS
 10
484.9402352536
 20
323.7220094544
 11
484.9402352536
 21
338.7220094544
  0
LINE
  5
4A7
100
AcDbEntity
  8
INTER_PHASE_SCHIELDS
100
AcDbLine
 62
5
  6
CONTINUOUS
 10
339.2960724408
 20
360.0729500436
 11
337.2960724408
 21
360.0729500436
  0
LINE
  5
4A8
100
AcDbEntity
  8
TERMINAL_SCREEN
100
AcDbLine
 62
2
  6
CONTINUOUS
 10
472.4402352536
 20
376.2220094544
 11
752.4402352536
 21
376.2220094544
  0
LINE
  5
4A9
100
AcDbEntity
  8
AXIS
100
AcDbLine
 62
4
  6
CONTINUOUS
 10
303.3960724408
 20
376.4238906327
 11
291.3960724408
 21
376.4238906327
  0
LINE
  5
4AA
100
AcDbEntity
  8
BASIC_DEVICE
100
AcDbLine
 62
7
  6
CONTINUOUS
 10
707.4402352536
 20
393.7220094544
 11
667.4402352536
 21
393.7220094544
  0
LINE
  5
4AB
100
AcDbEntity
  8
BASIC_DEVICE
100
AcDbLine
 62
7
  6
CONTINUOUS
 10
627.4402352536
 20
393.7220094544
 11
587.4402352536
 21
393.7220094544
  0
LINE
  5
4AC
100
AcDbEntity
  8
BASIC_DEVICE
100
AcDbLine
 62
7
  6
CONTINUOUS
 10
547.4402352536
 20
393.7220094544
 11
507.4402352536
 21
393.7220094544
  0
LINE
  5
4AD
100
AcDbEntity
  8
BASIC_DEVICE
100
AcDbLine
 62
7
  6
CONTINUOUS
 10
294.3960724408
 20
395.0729500436
 11
300.3960724408
 21
395.0729500436
  0
LINE
  5
4AE
100
AcDbEntity
  8
H_EXTERN_HANDLE
100
AcDbLine
 62
3
  6
CONTINUOUS
 10
590.5228232102
 20
292.9323147167
 11
584.1582017755
 21
299.2969361513
  0
LINE
  5
4AF
100
AcDbEntity
  8
H_EXTERN_HANDLE
100
AcDbLine
 62
1
  6
CONTINUOUS
 10
584.8653085567
 20
300.0040429325
 11
591.2299299914
 21
293.6394214978
  0
LINE
  5
4B0
100
AcDbEntity
  8
AM_12
100
AcDbLine
 62
4
  6
CONTINUOUS
 10
504.7536110589
 20
382.269557579
 11
508.2536110589
 21
378.769557579
  0
LINE
  5
4B1
100
AcDbEntity
  8
BASIC_DEVICE
100
AcDbLine
 62
7
  6
CONTINUOUS
 10
494.9402352536
 20
156.2220094544
 11
494.9402352536
 21
143.7220094544
  0
LINE
  5
4B2
100
AcDbEntity
  8
BASIC_DEVICE
100
AcDbLine
 62
7
  6
CONTINUOUS
 10
494.9402352536
 20
331.2220094544
 11
494.9402352536
 21
343.7220094544
  0
LINE
  5
4B3
100
AcDbEntity
  8
BASIC_DEVICE
100
AcDbLine
 62
7
  6
CONTINUOUS
 10
494.9402352536
 20
638.7641271371
 11
494.9402352536
 21
699.7641271371
  0
LINE
  5
4B4
100
AcDbEntity
  8
BASIC_DEVICE
100
AcDbLine
 62
7
  6
CONTINUOUS
 10
496.9402352536
 20
615.7641271371
 11
496.9402352536
 21
613.7641271371
  0
LINE
  5
4B5
100
AcDbEntity
  8
BASIC_DEVICE
100
AcDbLine
 62
7
  6
CONTINUOUS
 10
507.1902352536
 20
660.7641271371
 11
507.1902352536
 21
654.6641271371
  0
LINE
  5
4B6
100
AcDbEntity
  8
BASIC_DEVICE
100
AcDbLine
 62
7
  6
CONTINUOUS
 10
507.4402352536
 20
393.7220094544
 11
507.4402352536
 21
343.7228219544
  0
LINE
  5
4B7
100
AcDbEntity
  8
BASIC_DEVICE
100
AcDbLine
 62
7
  6
CONTINUOUS
 10
507.4402352536
 20
93.7211969544
 11
507.4402352536
 21
143.7211969544
  0
LINE
  5
4B8
100
AcDbEntity
  8
BASIC_DEVICE
100
AcDbLine
 62
7
  6
CONTINUOUS
 10
507.4402352536
 20
654.6641271371
 11
507.4402352536
 21
660.6641271371
  0
LINE
  5
4B9
100
AcDbEntity
  8
BASIC_DEVICE
100
AcDbLine
 62
7
  6
CONTINUOUS
 10
522.4402352536
 20
225.7220094544
 11
522.4402352536
 21
267.7220094544
  0
LINE
  5
4BA
100
AcDbEntity
  8
BASIC_DEVICE
100
AcDbLine
 62
7
  6
CONTINUOUS
 10
522.4402352536
 20
699.7641271371
 11
522.4402352536
 21
717.7641271371
  0
LINE
  5
4BB
100
AcDbEntity
  8
AM_12
100
AcDbLine
 62
4
  6
CONTINUOUS
 10
494.0589282011
 20
473.0329483749
 11
497.5589282011
 21
476.5329483749
  0
LINE
  5
4BC
100
AcDbEntity
  8
INTER_PHASE_SCHIELDS
100
AcDbLine
 62
5
  6
CONTINUOUS
 10
269.9960724408
 20
402.8729500436
 11
325.7960724408
 21
402.8729500436
  0
LINE
  5
4BD
100
AcDbEntity
  8
INTER_PHASE_SCHIELDS
100
AcDbLine
 62
5
  6
CONTINUOUS
 10
654.4402352536
 20
403.5220094544
 11
653.4402352536
 21
403.5220094544
  0
LINE
  5
4BE
100
AcDbEntity
  8
INTER_PHASE_SCHIELDS
100
AcDbLine
 62
5
  6
CONTINUOUS
 10
574.4402352536
 20
403.5220094544
 11
573.4402352536
 21
403.5220094544
  0
LINE
  5
4BF
100
AcDbEntity
  8
INTER_PHASE_SCHIELDS
100
AcDbLine
 62
5
  6
CONTINUOUS
 10
570.4402352536
 20
403.5220094544
 11
571.4402352536
 21
403.5220094544
  0
LINE
  5
4C0
100
AcDbEntity
  8
INTER_PHASE_SCHIELDS
100
AcDbLine
 62
5
  6
CONTINUOUS
 10
650.4402352536
 20
403.5220094544
 11
651.4402352536
 21
403.5220094544
  0
LINE
  5
4C1
100
AcDbEntity
  8
INTER_PHASE_SCHIELDS
100
AcDbLine
 62
5
  6
CONTINUOUS
 10
269.9960724408
 20
404.8729500436
 11
325.7960724408
 21
404.8729500436
  0
LINE
  5
4C2
100
AcDbEntity
  8
INTER_PHASE_SCHIELDS
100
AcDbLine
 62
5
  6
CONTINUOUS
 10
571.4402352536
 20
409.5220094544
 11
573.4402352536
 21
409.5220094544
  0
LINE
  5
4C3
100
AcDbEntity
  8
INTER_PHASE_SCHIELDS
100
AcDbLine
 62
5
  6
CONTINUOUS
 10
651.4402352536
 20
409.5220094544
 11
653.4402352536
 21
409.5220094544
  0
LINE
  5
4C4
100
AcDbEntity
  8
INTER_PHASE_SCHIELDS
100
AcDbLine
 62
5
  6
CONTINUOUS
 10
262.5960724408
 20
410.8729500436
 11
333.2960724408
 21
410.8729500436
  0
LINE
  5
4C5
100
AcDbEntity
  8
TERMINAL_SCREEN
100
AcDbLine
 62
2
  6
CONTINUOUS
 10
472.4402352536
 20
426.2220094544
 11
752.4402352536
 21
426.2220094544
  0
LINE
  5
4C6
100
AcDbEntity
  8
BASIC_DEVICE
100
AcDbLine
 62
7
  6
CONTINUOUS
 10
698.4402352536
 20
234.7220094544
 11
695.4402352536
 21
237.7220094544
  0
LINE
  5
4C7
100
AcDbEntity
  8
BASIC_DEVICE
100
AcDbLine
 62
7
  6
CONTINUOUS
 10
683.4402352536
 20
249.7220094544
 11
680.4402352536
 21
252.7220094544
  0
LINE
  5
4C8
100
AcDbEntity
  8
AM_12
100
AcDbLine
 62
4
  6
CONTINUOUS
 10
494.0589282011
 20
476.5329483749
 11
497.5589282011
 21
473.0329483749
  0
LINE
  5
4C9
100
AcDbEntity
  8
AM_12
100
AcDbLine
 62
4
  6
CONTINUOUS
 10
571.4281940834
 20
408.5775567428
 11
574.9281940834
 21
405.0775567428
  0
LINE
  5
4CA
100
AcDbEntity
  8
INTER_PHASE_SCHIELDS
100
AcDbLine
 62
5
  6
CONTINUOUS
 10
568.9402352536
 20
143.7220094544
 11
570.4402352536
 21
134.7220094544
  0
LINE
  5
4CB
100
AcDbEntity
  8
AXIS
100
AcDbLine
 62
4
  6
CONTINUOUS
 10
527.4402352536
 20
651.6641271371
 11
527.4402352536
 21
663.7641271371
  0
LINE
  5
4CC
100
AcDbEntity
  8
AXIS
100
AcDbLine
 62
4
  6
CONTINUOUS
 10
537.4402352536
 20
696.7641271371
 11
537.4402352536
 21
704.7641271371
  0
LINE
  5
4CD
100
AcDbEntity
  8
BASIC_DEVICE
100
AcDbLine
 62
7
  6
CONTINUOUS
 10
545.4402352536
 20
717.7641271371
 11
545.4402352536
 21
699.7641271371
  0
LINE
  5
4CE
100
AcDbEntity
  8
BASIC_DEVICE
100
AcDbLine
 62
7
  6
CONTINUOUS
 10
545.4402352536
 20
267.7220094544
 11
545.4402352536
 21
225.7220094544
  0
LINE
  5
4CF
100
AcDbEntity
  8
TERMINAL_SCREEN
100
AcDbLine
 62
2
  6
CONTINUOUS
 10
546.9402352536
 20
344.2220094544
 11
546.9402352536
 21
321.2220094544
  0
LINE
  5
4D0
100
AcDbEntity
  8
TERMINAL_SCREEN
100
AcDbLine
 62
2
  6
CONTINUOUS
 10
546.9402352536
 20
699.7641271371
 11
546.9402352536
 21
701.7641271371
  0
LINE
  5
4D1
100
AcDbEntity
  8
BASIC_DEVICE
100
AcDbLine
 62
7
  6
CONTINUOUS
 10
547.4402352536
 20
660.6641271371
 11
547.4402352536
 21
654.6641271371
  0
LINE
  5
4D2
100
AcDbEntity
  8
BASIC_DEVICE
100
AcDbLine
 62
7
  6
CONTINUOUS
 10
547.4402352536
 20
93.7211969544
 11
547.4402352536
 21
393.7220094544
  0
LINE
  5
4D3
100
AcDbEntity
  8
BASIC_DEVICE
100
AcDbLine
 62
7
  6
CONTINUOUS
 10
547.4402352536
 20
699.7641271371
 11
547.4402352536
 21
753.7641271371
  0
LINE
  5
4D4
100
AcDbEntity
  8
BASIC_DEVICE
100
AcDbLine
 62
7
  6
CONTINUOUS
 10
552.4402352536
 20
338.7220094544
 11
552.4402352536
 21
148.7220094544
  0
LINE
  5
4D5
100
AcDbEntity
  8
BASIC_DEVICE
100
AcDbLine
 62
7
  6
CONTINUOUS
 10
557.6902352536
 20
654.6641271371
 11
557.6902352536
 21
660.7641271371
  0
LINE
  5
4D6
100
AcDbEntity
  8
BASIC_DEVICE
100
AcDbLine
 62
7
  6
CONTINUOUS
 10
559.9902352536
 20
667.0641271371
 11
559.9902352536
 21
661.7641271371
  0
LINE
  5
4D7
100
AcDbEntity
  8
BASIC_DEVICE
100
AcDbLine
 62
7
  6
CONTINUOUS
 10
560.2402352536
 20
138.2220094544
 11
560.2402352536
 21
143.7220172669
  0
LINE
  5
4D8
100
AcDbEntity
  8
BASIC_DEVICE
100
AcDbLine
 62
7
  6
CONTINUOUS
 10
560.2402352536
 20
343.7220016419
 11
560.2402352536
 21
349.2220094544
  0
LINE
  5
4D9
100
AcDbEntity
  8
BASIC_DEVICE
100
AcDbLine
 62
7
  6
CONTINUOUS
 10
560.2402352536
 20
615.7641271371
 11
560.2402352536
 21
666.7641271371
  0
LINE
  5
4DA
100
AcDbEntity
  8
TERMINAL_SCREEN
100
AcDbLine
 62
2
  6
CONTINUOUS
 10
472.4402352536
 20
474.2220094544
 11
752.4402352536
 21
474.2220094544
  0
LINE
  5
4DB
100
AcDbEntity
  8
TERMINAL_SCREEN
100
AcDbLine
 62
2
  6
CONTINUOUS
 10
205.2960724408
 20
474.2221032044
 11
203.2960724408
 21
474.2221032044
  0
LINE
  5
4DC
100
AcDbEntity
  8
AM_12
100
AcDbLine
 62
4
  6
CONTINUOUS
 10
707.7934015123
 20
284.058392792
 11
711.2934015123
 21
280.558392792
  0
LINE
  5
4DD
100
AcDbEntity
  8
BASIC_DEVICE
100
AcDbLine
 62
7
  6
CONTINUOUS
 10
733.8780574272
 20
176.2220094544
 11
736.9091463404
 21
170.9720094544
  0
LINE
  5
4DE
100
AcDbEntity
  8
INTER_PHASE_SCHIELDS
100
AcDbLine
 62
5
  6
CONTINUOUS
 10
574.4402352536
 20
352.7220094544
 11
575.9402352536
 21
343.7220094544
  0
LINE
  5
4DF
100
AcDbEntity
  8
BASIC_DEVICE
100
AcDbLine
 62
7
  6
CONTINUOUS
 10
563.7402352536
 20
349.2220094544
 11
563.7402352536
 21
343.7220016419
  0
LINE
  5
4E0
100
AcDbEntity
  8
BASIC_DEVICE
100
AcDbLine
 62
7
  6
CONTINUOUS
 10
563.9402352536
 20
143.7220172669
 11
563.9402352536
 21
138.2220094544
  0
LINE
  5
4E1
100
AcDbEntity
  8
BASIC_DEVICE
100
AcDbLine
 62
7
  6
CONTINUOUS
 10
563.9402352536
 20
615.7641271371
 11
563.9402352536
 21
666.7641271371
  0
LINE
  5
4E2
100
AcDbEntity
  8
BASIC_DEVICE
100
AcDbLine
 62
7
  6
CONTINUOUS
 10
564.1902352536
 20
661.7641271371
 11
564.1902352536
 21
667.0641271371
  0
LINE
  5
4E3
100
AcDbEntity
  8
H_EXTERN_HANDLE
100
AcDbLine
 62
7
  6
CONTINUOUS
 10
566.4402352536
 20
281.2220094544
 11
566.4402352536
 21
262.2220094544
  0
LINE
  5
4E4
100
AcDbEntity
  8
H_EXTERN_HANDLE
100
AcDbLine
 62
7
  6
CONTINUOUS
 10
566.4402352536
 20
825.7641271371
 11
566.4402352536
 21
840.7641271371
  0
LINE
  5
4E5
100
AcDbEntity
  8
H_EXTERN_HANDLE
100
AcDbLine
 62
7
  6
CONTINUOUS
 10
566.4402352536
 20
866.7641271371
 11
566.4402352536
 21
917.7641271371
  0
LINE
  5
4E6
100
AcDbEntity
  8
BASIC_DEVICE
100
AcDbLine
 62
7
  6
CONTINUOUS
 10
566.6402352536
 20
138.2220094544
 11
566.6402352536
 21
142.7220094544
  0
LINE
  5
4E7
100
AcDbEntity
  8
BASIC_DEVICE
100
AcDbLine
 62
7
  6
CONTINUOUS
 10
566.6402352536
 20
344.7220094544
 11
566.6402352536
 21
349.2220094544
  0
LINE
  5
4E8
100
AcDbEntity
  8
BASIC_DEVICE
100
AcDbLine
 62
7
  6
CONTINUOUS
 10
566.6402352536
 20
660.7641271371
 11
566.6402352536
 21
698.7641271371
  0
LINE
  5
4E9
100
AcDbEntity
  8
INTER_PHASE_SCHIELDS
100
AcDbLine
 62
5
  6
CONTINUOUS
 10
568.9402352536
 20
617.7641271371
 11
568.9402352536
 21
615.7641271371
  0
LINE
  5
4EA
100
AcDbEntity
  8
BASIC_DEVICE
100
AcDbLine
 62
7
  6
CONTINUOUS
 10
570.2402352536
 20
699.0641271371
 11
570.2402352536
 21
660.7641271371
  0
LINE
  5
4EB
100
AcDbEntity
  8
BASIC_DEVICE
100
AcDbLine
 62
7
  6
CONTINUOUS
 10
570.2402352536
 20
349.2220094544
 11
570.2402352536
 21
344.4220094544
  0
LINE
  5
4EC
100
AcDbEntity
  8
BASIC_DEVICE
100
AcDbLine
 62
7
  6
CONTINUOUS
 10
570.2402352536
 20
143.0220094544
 11
570.2402352536
 21
138.2220094544
  0
LINE
  5
4ED
100
AcDbEntity
  8
H_EXTERN_HANDLE
100
AcDbLine
 62
7
  6
CONTINUOUS
 10
570.4402352537
 20
902.2641271371
 11
570.4402352536
 21
877.2641271372
  0
LINE
  5
4EE
100
AcDbEntity
  8
INTER_PHASE_SCHIELDS
100
AcDbLine
 62
5
  6
CONTINUOUS
 10
570.4402352536
 20
688.0641271371
 11
570.4402352536
 21
626.2641271371
  0
LINE
  5
4EF
100
AcDbEntity
  8
INTER_PHASE_SCHIELDS
100
AcDbLine
 62
5
  6
CONTINUOUS
 10
570.4402352536
 20
143.2220094544
 11
570.4402352536
 21
83.9220094544
  0
LINE
  5
4F0
100
AcDbEntity
  8
INTER_PHASE_SCHIELDS
100
AcDbLine
 62
5
  6
CONTINUOUS
 10
570.4402352536
 20
344.2220094544
 11
570.4402352536
 21
403.5220094544
  0
LINE
  5
4F1
100
AcDbEntity
  8
BASIC_DEVICE
100
AcDbLine
 62
7
  6
CONTINUOUS
 10
570.9402977536
 20
693.7641271371
 11
570.9402352536
 21
690.7641271371
  0
LINE
  5
4F2
100
AcDbEntity
  8
BASIC_DEVICE
100
AcDbLine
 62
7
  6
CONTINUOUS
 10
570.9402352536
 20
699.7641271371
 11
570.9402977536
 21
693.7641271371
  0
LINE
  5
4F3
100
AcDbEntity
  8
BASIC_DEVICE
100
AcDbLine
 62
7
  6
CONTINUOUS
 10
571.1402352536
 20
624.7641271371
 11
571.1402352536
 21
660.7641271371
  0
LINE
  5
4F4
100
AcDbEntity
  8
BASIC_DEVICE
100
AcDbLine
 62
7
  6
CONTINUOUS
 10
571.1902352536
 20
690.7641271371
 11
571.1902352536
 21
660.7641271371
  0
LINE
  5
4F5
100
AcDbEntity
  8
BASIC_DEVICE
100
AcDbLine
 62
7
  6
CONTINUOUS
 10
571.3902352536
 20
615.7641271371
 11
571.3902352536
 21
624.7641271371
  0
LINE
  5
4F6
100
AcDbEntity
  8
INTER_PHASE_SCHIELDS
100
AcDbLine
 62
5
  6
CONTINUOUS
 10
571.4402352536
 20
153.9220094544
 11
571.4402352536
 21
77.9220094544
  0
LINE
  5
4F7
100
AcDbEntity
  8
INTER_PHASE_SCHIELDS
100
AcDbLine
 62
5
  6
CONTINUOUS
 10
571.4402352536
 20
333.5220094544
 11
571.4402352536
 21
409.5220094544
  0
LINE
  5
4F8
100
AcDbEntity
  8
INTER_PHASE_SCHIELDS
100
AcDbLine
 62
5
  6
CONTINUOUS
 10
571.4402352536
 20
615.7641271371
 11
571.4402352536
 21
698.4641271371
  0
LINE
  5
4F9
100
AcDbEntity
  8
INTER_PHASE_SCHIELDS
100
AcDbLine
 62
5
  6
CONTINUOUS
 10
573.4402352536
 20
698.4641271371
 11
573.4402352536
 21
615.7641271371
  0
LINE
  5
4FA
100
AcDbEntity
  8
INTER_PHASE_SCHIELDS
100
AcDbLine
 62
5
  6
CONTINUOUS
 10
573.4402352536
 20
77.9220094544
 11
573.4402352536
 21
153.9220094544
  0
LINE
  5
4FB
100
AcDbEntity
  8
INTER_PHASE_SCHIELDS
100
AcDbLine
 62
5
  6
CONTINUOUS
 10
573.4402352536
 20
333.5220094544
 11
573.4402352536
 21
409.5220094544
  0
LINE
  5
4FC
100
AcDbEntity
  8
BASIC_DEVICE
100
AcDbLine
 62
7
  6
CONTINUOUS
 10
573.4902352536
 20
624.7641271371
 11
573.4902352536
 21
615.7641271371
  0
LINE
  5
4FD
100
AcDbEntity
  8
BASIC_DEVICE
100
AcDbLine
 62
7
  6
CONTINUOUS
 10
573.6902352536
 20
690.7641271371
 11
573.6902352536
 21
660.7641271371
  0
LINE
  5
4FE
100
AcDbEntity
  8
BASIC_DEVICE
100
AcDbLine
 62
7
  6
CONTINUOUS
 10
573.7402352536
 20
660.7641271371
 11
573.7402352536
 21
624.7641271371
  0
LINE
  5
4FF
100
AcDbEntity
  8
BASIC_DEVICE
100
AcDbLine
 62
7
  6
CONTINUOUS
 10
573.9402352536
 20
690.7641271371
 11
573.9402352536
 21
699.7641271371
  0
LINE
  5
500
100
AcDbEntity
  8
INTER_PHASE_SCHIELDS
100
AcDbLine
 62
5
  6
CONTINUOUS
 10
574.4402352536
 20
143.2220094544
 11
574.4402352536
 21
83.9220094544
  0
LINE
  5
501
100
AcDbEntity
  8
INTER_PHASE_SCHIELDS
100
AcDbLine
 62
5
  6
CONTINUOUS
 10
574.4402352536
 20
344.2220094544
 11
574.4402352536
 21
403.5220094544
  0
LINE
  5
502
100
AcDbEntity
  8
INTER_PHASE_SCHIELDS
100
AcDbLine
 62
5
  6
CONTINUOUS
 10
574.4402352536
 20
626.2641271371
 11
574.4402352536
 21
688.0641271371
  0
LINE
  5
503
100
AcDbEntity
  8
INTER_PHASE_SCHIELDS
100
AcDbLine
 62
5
  6
CONTINUOUS
 10
575.9402352536
 20
615.7641271371
 11
575.9402352536
 21
617.7641271371
  0
LINE
  5
504
100
AcDbEntity
  8
BASIC_DEVICE
100
AcDbLine
 62
7
  6
CONTINUOUS
 10
576.9902352536
 20
667.0641271371
 11
576.9902352536
 21
661.7641271371
  0
LINE
  5
505
100
AcDbEntity
  8
BASIC_DEVICE
100
AcDbLine
 62
7
  6
CONTINUOUS
 10
577.2402352536
 20
138.2220094544
 11
577.2402352536
 21
143.7222907044
  0
LINE
  5
506
100
AcDbEntity
  8
BASIC_DEVICE
100
AcDbLine
 62
7
  6
CONTINUOUS
 10
577.2402352536
 20
343.7219892029
 11
577.2402352536
 21
349.2220094544
  0
LINE
  5
507
100
AcDbEntity
  8
BASIC_DEVICE
100
AcDbLine
 62
7
  6
CONTINUOUS
 10
577.2402352536
 20
615.7641271371
 11
577.2402352536
 21
666.7641271371
  0
LINE
  5
508
100
AcDbEntity
  8
H_EXTERN_HANDLE
100
AcDbLine
 62
7
  6
CONTINUOUS
 10
579.4402352536
 20
897.7641271371
 11
579.4402352536
 21
881.7641271372
  0
LINE
  5
509
100
AcDbEntity
  8
BASIC_DEVICE
100
AcDbLine
 62
7
  6
CONTINUOUS
 10
580.9402352536
 20
666.7641271371
 11
580.9402352536
 21
615.7641271371
  0
LINE
  5
50A
100
AcDbEntity
  8
BASIC_DEVICE
100
AcDbLine
 62
7
  6
CONTINUOUS
 10
580.9402352536
 20
349.2220094544
 11
580.9402352536
 21
343.7217282044
  0
LINE
  5
50B
100
AcDbEntity
  8
BASIC_DEVICE
100
AcDbLine
 62
7
  6
CONTINUOUS
 10
580.9402352536
 20
143.7222907044
 11
580.9402352536
 21
138.2220094544
  0
LINE
  5
50C
100
AcDbEntity
  8
BASIC_DEVICE
100
AcDbLine
 62
7
  6
CONTINUOUS
 10
581.1902352536
 20
661.7641271371
 11
581.1902352536
 21
667.0641271371
  0
LINE
  5
50D
100
AcDbEntity
  8
H_MOVING
100
AcDbLine
 62
1
  6
CONTINUOUS
 10
582.4402352536
 20
866.7641271371
 11
582.4402352536
 21
840.7641271371
  0
LINE
  5
50E
100
AcDbEntity
  8
H_EXTERN_HANDLE
100
AcDbLine
 62
7
  6
CONTINUOUS
 10
582.4402352536
 20
840.7641271371
 11
582.4402352536
 21
866.7641271371
  0
LINE
  5
50F
100
AcDbEntity
  8
H_EXTERN_HANDLE
100
AcDbLine
 62
7
  6
CONTINUOUS
 10
584.3377442609
 20
912.2641271371
 11
584.3377442609
 21
906.2641271371
  0
LINE
  5
510
100
AcDbEntity
  8
H_EXTERN_HANDLE
100
AcDbLine
 62
7
  6
CONTINUOUS
 10
584.8377442609
 20
916.2641271371
 11
584.8377442609
 21
906.2641271371
  0
LINE
  5
511
100
AcDbEntity
  8
H_EXTERN_HANDLE
100
AcDbLine
 62
7
  6
CONTINUOUS
 10
585.9402352536
 20
906.2641271371
 11
585.9402352536
 21
875.2641271371
  0
LINE
  5
512
100
AcDbEntity
  8
H_EXTERN_HANDLE
100
AcDbLine
 62
7
  6
CONTINUOUS
 10
585.9402352536
 20
285.9720094544
 11
585.9402352536
 21
277.7220094544
  0
LINE
  5
513
100
AcDbEntity
  8
H_EXTERN_HANDLE
100
AcDbLine
 62
7
  6
CONTINUOUS
 10
585.9402352536
 20
265.7220094544
 11
585.9402352536
 21
257.4720094544
  0
LINE
  5
514
100
AcDbEntity
  8
BASIC_DEVICE
100
AcDbLine
 62
7
  6
CONTINUOUS
 10
587.1902352536
 20
660.7641271371
 11
587.1902352536
 21
654.6641271371
  0
LINE
  5
515
100
AcDbEntity
  8
BASIC_DEVICE
100
AcDbLine
 62
7
  6
CONTINUOUS
 10
587.4402352536
 20
393.7220094544
 11
587.4402352536
 21
343.7228219544
  0
LINE
  5
516
100
AcDbEntity
  8
BASIC_DEVICE
100
AcDbLine
 62
7
  6
CONTINUOUS
 10
587.4402352536
 20
93.7211969544
 11
587.4402352536
 21
143.7211969544
  0
LINE
  5
517
100
AcDbEntity
  8
BASIC_DEVICE
100
AcDbLine
 62
7
  6
CONTINUOUS
 10
587.4402352536
 20
654.6641271371
 11
587.4402352536
 21
660.6641271371
  0
LINE
  5
518
100
AcDbEntity
  8
BASIC_DEVICE
100
AcDbLine
 62
1
  6
CONTINUOUS
 10
588.1535522977
 20
756.8641271371
 11
588.1535522977
 21
755.7641271371
  0
LINE
  5
519
100
AcDbEntity
  8
BASIC_DEVICE
100
AcDbLine
 62
1
  6
CONTINUOUS
 10
594.2381255808
 20
765.0641271371
 11
594.2381255808
 21
756.8641271371
  0
LINE
  5
51A
100
AcDbEntity
  8
BASIC_DEVICE
100
AcDbLine
 62
1
  6
CONTINUOUS
 10
596.9965390423
 20
753.7641271371
 11
596.9965390423
 21
757.9641271371
  0
LINE
  5
51B
100
AcDbEntity
  8
H_MOVING
100
AcDbLine
 62
1
  6
CONTINUOUS
 10
598.1902352536
 20
876.7641271371
 11
598.1902352536
 21
916.2641271371
  0
LINE
  5
51C
100
AcDbEntity
  8
BASIC_DEVICE
100
AcDbLine
 62
1
  6
CONTINUOUS
 10
599.3381255808
 20
757.9641271371
 11
599.3381255808
 21
765.0641271371
  0
LINE
  5
51D
100
AcDbEntity
  8
H_EXTERN_HANDLE
100
AcDbLine
 62
7
  6
CONTINUOUS
 10
599.5503782706
 20
244.0796219498
 11
599.5503782706
 21
233.8557766479
  0
LINE
  5
51E
100
AcDbEntity
  8
H_EXTERN_HANDLE
100
AcDbLine
 62
7
  6
CONTINUOUS
 10
599.5503782706
 20
834.7641271371
 11
599.5503782706
 21
840.7641271371
  0
LINE
  5
51F
100
AcDbEntity
  8
H_EXTERN_HANDLE
100
AcDbLine
 62
7
  6
CONTINUOUS
 10
601.0331078075
 20
917.7641271371
 11
601.0331078075
 21
916.2641271371
  0
LINE
  5
520
100
AcDbEntity
  8
H_MOVING
100
AcDbLine
 62
1
  6
CONTINUOUS
 10
601.9402369059
 20
878.5145792808
 11
601.9402351718
 21
865.2641285113
  0
LINE
  5
521
100
AcDbEntity
  8
H_MOVING
100
AcDbLine
 62
1
  6
CONTINUOUS
 10
601.9402352536
 20
83.7220094544
 11
601.9402352536
 21
207.1685066885
  0
LINE
  5
522
100
AcDbEntity
  8
H_MOVING
100
AcDbLine
 62
1
  6
CONTINUOUS
 10
602.1902352536
 20
917.7641271371
 11
602.1902352536
 21
916.2641271371
  0
LINE
  5
523
100
AcDbEntity
  8
H_MOVING
100
AcDbLine
 62
1
  6
CONTINUOUS
 10
603.4488708743
 20
913.1582928357
 11
601.9503104225
 21
878.9744378884
  0
LINE
  5
524
100
AcDbEntity
  8
H_EXTERN_HANDLE
100
AcDbLine
 62
7
  6
CONTINUOUS
 10
638.9402352536
 20
906.2641271371
 11
640.0427262464
 21
916.2641271371
  0
LINE
  5
525
100
AcDbEntity
  8
INTER_PHASE_SCHIELDS
100
AcDbLine
 62
5
  6
CONTINUOUS
 10
568.9402352536
 20
343.7220094544
 11
570.4402352536
 21
352.7220094544
  0
LINE
  5
526
100
AcDbEntity
  8
BASIC_DEVICE
100
AcDbLine
 62
7
  6
CONTINUOUS
 10
481.9091463404
 20
316.4720094544
 11
478.8780574271
 21
311.2220094544
  0
LINE
  5
527
100
AcDbEntity
  8
BASIC_DEVICE
100
AcDbLine
 62
7
  6
CONTINUOUS
 10
487.9713241669
 20
305.9720094544
 11
491.0024130801
 21
311.2220094544
  0
LINE
  5
528
100
AcDbEntity
  8
AM_12
100
AcDbLine
 62
4
  6
CONTINUOUS
 10
504.7536110589
 20
378.769557579
 11
508.2536110589
 21
382.269557579
  0
LINE
  5
529
100
AcDbEntity
  8
AM_12
100
AcDbLine
 62
4
  6
CONTINUOUS
 10
651.4281940834
 20
408.5775567428
 11
654.9281940834
 21
405.0775567428
  0
LINE
  5
52A
100
AcDbEntity
  8
BASIC_DEVICE
100
AcDbLine
 62
7
  6
CONTINUOUS
 10
746.0024130801
 20
176.2220094544
 11
742.9713241669
 21
181.4720094544
  0
LINE
  5
52B
100
AcDbEntity
  8
INTER_PHASE_SCHIELDS
100
AcDbLine
 62
5
  6
CONTINUOUS
 10
648.9402352536
 20
143.7220094544
 11
650.4402352536
 21
134.7220094544
  0
LINE
  5
52C
100
AcDbEntity
  8
H_MOVING
100
AcDbLine
 62
1
  6
CONTINUOUS
 10
622.9301606335
 20
878.9744380587
 11
621.4315996266
 21
913.1582929818
  0
LINE
  5
52D
100
AcDbEntity
  8
H_MOVING
100
AcDbLine
 62
1
  6
CONTINUOUS
 10
603.9402352536
 20
863.7641271371
 11
603.9402352536
 21
872.3501642872
  0
LINE
  5
52E
100
AcDbEntity
  8
BASIC_DEVICE
100
AcDbLine
 62
1
  6
CONTINUOUS
 10
604.7902352536
 20
279.3720094544
 11
604.7902352536
 21
264.0720094544
  0
LINE
  5
52F
100
AcDbEntity
  8
BASIC_DEVICE
100
AcDbLine
 62
7
  6
CONTINUOUS
 10
604.9402352536
 20
264.2220094544
 11
604.9402352536
 21
279.2220094544
  0
LINE
  5
530
100
AcDbEntity
  8
BASIC_DEVICE
100
AcDbLine
 62
7
  6
CONTINUOUS
 10
604.9402352536
 20
757.9641271371
 11
604.9402352536
 21
779.7641271371
  0
LINE
  5
531
100
AcDbEntity
  8
H_MOVING
100
AcDbLine
 62
1
  6
CONTINUOUS
 10
605.9402352536
 20
840.7641271371
 11
605.9402352536
 21
863.7641271371
  0
LINE
  5
532
100
AcDbEntity
  8
AXIS
100
AcDbLine
 62
4
  6
CONTINUOUS
 10
607.4402352536
 20
651.6641271371
 11
607.4402352536
 21
663.7641271371
  0
LINE
  5
533
100
AcDbEntity
  8
BASIC_DEVICE
100
AcDbLine
 62
7
  6
CONTINUOUS
 10
608.4402352536
 20
240.4170577694
 11
608.4402352536
 21
247.4732981482
  0
LINE
  5
534
100
AcDbEntity
  8
TEXT
100
AcDbLine
 62
2
  6
CONTINUOUS
 10
611.7562260218
 20
309.7711465539
 11
611.7562260218
 21
303.7711465539
  0
LINE
  5
535
100
AcDbEntity
  8
AXIS
100
AcDbLine
 62
4
  6
CONTINUOUS
 10
612.4402352536
 20
253.1220094544
 11
612.4402352536
 21
290.3220094544
  0
LINE
  5
536
100
AcDbEntity
  8
H_EXTERN_HANDLE
100
AcDbLine
 62
4
  6
CONTINUOUS
 10
612.4402352536
 20
213.9637546565
 11
612.4402352536
 21
327.3942057191
  0
LINE
  5
537
100
AcDbEntity
  8
AXIS
100
AcDbLine
 62
4
  6
CONTINUOUS
 10
612.4402352536
 20
750.7641271371
 11
612.4402352536
 21
760.9641271371
  0
LINE
  5
538
100
AcDbEntity
  8
H_EXTERN_HANDLE
100
AcDbLine
 62
4
  6
CONTINUOUS
 10
612.4402352536
 20
822.7641271371
 11
612.4402352536
 21
918.7641271371
  0
LINE
  5
539
100
AcDbEntity
  8
TEXT
100
AcDbLine
 62
2
  6
CONTINUOUS
 10
613.7562260218
 20
309.7711465539
 11
613.7562260218
 21
303.7711465539
  0
LINE
  5
53A
100
AcDbEntity
  8
H_EXTERN_HANDLE
100
AcDbLine
 62
7
  6
CONTINUOUS
 10
617.8473626998
 20
917.7641271371
 11
617.8473626998
 21
916.2641271371
  0
LINE
  5
53B
100
AcDbEntity
  8
H_MOVING
100
AcDbLine
 62
1
  6
CONTINUOUS
 10
618.9402352536
 20
863.7641271371
 11
618.9402352536
 21
840.7641271371
  0
LINE
  5
53C
100
AcDbEntity
  8
BASIC_DEVICE
100
AcDbLine
 62
7
  6
CONTINUOUS
 10
619.9402352536
 20
779.7641271371
 11
619.9402352536
 21
757.9641271371
  0
LINE
  5
53D
100
AcDbEntity
  8
BASIC_DEVICE
100
AcDbLine
 62
7
  6
CONTINUOUS
 10
619.9402352536
 20
279.2220094544
 11
619.9402352536
 21
264.2220094544
  0
LINE
  5
53E
100
AcDbEntity
  8
BASIC_DEVICE
100
AcDbLine
 62
1
  6
CONTINUOUS
 10
620.0902352536
 20
264.0720094544
 11
620.0902352536
 21
279.3720094544
  0
LINE
  5
53F
100
AcDbEntity
  8
H_MOVING
100
AcDbLine
 62
1
  6
CONTINUOUS
 10
620.9402352536
 20
872.3501635202
 11
620.9402352536
 21
863.7641271371
  0
LINE
  5
540
100
AcDbEntity
  8
H_MOVING
100
AcDbLine
 62
1
  6
CONTINUOUS
 10
622.6902352536
 20
916.2641271371
 11
622.6902352536
 21
917.7641271371
  0
LINE
  5
541
100
AcDbEntity
  8
H_MOVING
100
AcDbLine
 62
1
  6
CONTINUOUS
 10
622.9402355318
 20
878.5145779067
 11
622.9402355318
 21
865.2641271371
  0
LINE
  5
542
100
AcDbEntity
  8
H_MOVING
100
AcDbLine
 62
1
  6
CONTINUOUS
 10
622.9402352536
 20
207.1685066885
 11
622.9402352536
 21
83.7220094544
  0
LINE
  5
543
100
AcDbEntity
  8
BASIC_DEVICE
100
AcDbLine
 62
1
  6
CONTINUOUS
 10
625.9402352536
 20
273.5220094544
 11
625.9402352536
 21
269.9220094544
  0
LINE
  5
544
100
AcDbEntity
  8
H_MOVING
100
AcDbLine
 62
1
  6
CONTINUOUS
 10
626.6902352536
 20
876.7641271371
 11
626.6902352536
 21
916.2641271371
  0
LINE
  5
545
100
AcDbEntity
  8
BASIC_DEVICE
100
AcDbLine
 62
7
  6
CONTINUOUS
 10
627.4402352536
 20
660.6641271371
 11
627.4402352536
 21
654.6641271371
  0
LINE
  5
546
100
AcDbEntity
  8
BASIC_DEVICE
100
AcDbLine
 62
7
  6
CONTINUOUS
 10
627.4402352536
 20
143.7219157044
 11
627.4402352536
 21
93.7211969544
  0
LINE
  5
547
100
AcDbEntity
  8
BASIC_DEVICE
100
AcDbLine
 62
7
  6
CONTINUOUS
 10
627.4402352536
 20
343.7221032044
 11
627.4402352536
 21
393.7220094544
  0
LINE
  5
548
100
AcDbEntity
  8
BASIC_DEVICE
100
AcDbLine
 62
1
  6
CONTINUOUS
 10
627.883931465
 20
753.7641271371
 11
627.883931465
 21
757.9641271371
  0
LINE
  5
549
100
AcDbEntity
  8
H_EXTERN_HANDLE
100
AcDbLine
 62
1
  6
CONTINUOUS
 10
628.4402352536
 20
302.2220094544
 11
628.4402352536
 21
311.2220094544
  0
LINE
  5
54A
100
AcDbEntity
  8
BASIC_DEVICE
100
AcDbLine
 62
7
  6
CONTINUOUS
 10
637.6902352536
 20
654.6641271371
 11
637.6902352536
 21
660.7641271371
  0
LINE
  5
54B
100
AcDbEntity
  8
H_EXTERN_HANDLE
100
AcDbLine
 62
7
  6
CONTINUOUS
 10
638.9402352536
 20
257.4720094544
 11
638.9402352536
 21
265.7220094544
  0
LINE
  5
54C
100
AcDbEntity
  8
H_EXTERN_HANDLE
100
AcDbLine
 62
7
  6
CONTINUOUS
 10
638.9402352536
 20
277.7220094544
 11
638.9402352536
 21
285.9720094544
  0
LINE
  5
54D
100
AcDbEntity
  8
H_EXTERN_HANDLE
100
AcDbLine
 62
7
  6
CONTINUOUS
 10
638.9402352536
 20
875.2641271371
 11
638.9402352536
 21
906.2641271371
  0
LINE
  5
54E
100
AcDbEntity
  8
BASIC_DEVICE
100
AcDbLine
 62
7
  6
CONTINUOUS
 10
639.9902352536
 20
667.0641271371
 11
639.9902352536
 21
661.7641271371
  0
LINE
  5
54F
100
AcDbEntity
  8
H_EXTERN_HANDLE
100
AcDbLine
 62
7
  6
CONTINUOUS
 10
640.0427262464
 20
906.2641271371
 11
640.0427262464
 21
916.2641271371
  0
LINE
  5
550
100
AcDbEntity
  8
BASIC_DEVICE
100
AcDbLine
 62
7
  6
CONTINUOUS
 10
640.2402352536
 20
138.2220094544
 11
640.2402352536
 21
143.7220172669
  0
LINE
  5
551
100
AcDbEntity
  8
BASIC_DEVICE
100
AcDbLine
 62
7
  6
CONTINUOUS
 10
640.2402352536
 20
343.7220016419
 11
640.2402352536
 21
349.2220094544
  0
LINE
  5
552
100
AcDbEntity
  8
BASIC_DEVICE
100
AcDbLine
 62
7
  6
CONTINUOUS
 10
640.2402352536
 20
615.7641271371
 11
640.2402352536
 21
666.7641271371
  0
LINE
  5
553
100
AcDbEntity
  8
H_EXTERN_HANDLE
100
AcDbLine
 62
7
  6
CONTINUOUS
 10
640.5427262464
 20
906.2641271371
 11
640.5427262464
 21
912.2641271371
  0
LINE
  5
554
100
AcDbEntity
  8
INTER_PHASE_SCHIELDS
100
AcDbLine
 62
5
  6
CONTINUOUS
 10
574.4402352536
 20
134.7220094544
 11
575.9402352536
 21
143.7220094544
  0
LINE
  5
555
100
AcDbEntity
  8
BASIC_DEVICE
100
AcDbLine
 62
7
  6
CONTINUOUS
 10
478.8780574271
 20
176.2220094544
 11
481.9091463404
 21
181.4720094544
  0
LINE
  5
556
100
AcDbEntity
  8
AM_12
100
AcDbLine
 62
4
  6
CONTINUOUS
 10
571.4281940834
 20
405.0775567428
 11
574.9281940834
 21
408.5775567428
  0
LINE
  5
557
100
AcDbEntity
  8
INTER_PHASE_SCHIELDS
100
AcDbLine
 62
5
  6
CONTINUOUS
 10
334.6960724408
 20
155.2729500436
 11
332.6960724408
 21
153.2729500436
  0
LINE
  5
558
100
AcDbEntity
  8
BASIC_DEVICE
100
AcDbLine
 62
7
  6
CONTINUOUS
 10
736.9091463404
 20
305.9720094544
 11
733.8780574272
 21
311.2220094544
  0
LINE
  5
559
100
AcDbEntity
  8
BASIC_DEVICE
100
AcDbLine
 62
7
  6
CONTINUOUS
 10
742.9713241669
 20
316.4720094544
 11
746.0024130801
 21
311.2220094544
  0
LINE
  5
55A
100
AcDbEntity
  8
INTER_PHASE_SCHIELDS
100
AcDbLine
 62
5
  6
CONTINUOUS
 10
654.4402352536
 20
352.7220094544
 11
655.9402352536
 21
343.7220094544
  0
LINE
  5
55B
100
AcDbEntity
  8
H_EXTERN_HANDLE
100
AcDbLine
 62
7
  6
CONTINUOUS
 10
584.8377442609
 20
916.2641271371
 11
585.9402352536
 21
906.2641271371
  0
LINE
  5
55C
100
AcDbEntity
  8
H_EXTERN_HANDLE
100
AcDbLine
 62
7
  6
CONTINUOUS
 10
642.4402352536
 20
863.7641271371
 11
642.4402352536
 21
840.7641271371
  0
LINE
  5
55D
100
AcDbEntity
  8
H_EXTERN_HANDLE
100
AcDbLine
 62
7
  6
CONTINUOUS
 10
642.4402352536
 20
311.7220094544
 11
642.4402352537
 21
282.2220094544
  0
LINE
  5
55E
100
AcDbEntity
  8
H_MOVING
100
AcDbLine
 62
1
  6
CONTINUOUS
 10
642.4402352536
 20
840.7641271371
 11
642.4402352536
 21
866.7641271371
  0
LINE
  5
55F
100
AcDbEntity
  8
BASIC_DEVICE
100
AcDbLine
 62
7
  6
CONTINUOUS
 10
643.9402352536
 20
349.2220094544
 11
643.9402352536
 21
343.7220016419
  0
LINE
  5
560
100
AcDbEntity
  8
BASIC_DEVICE
100
AcDbLine
 62
7
  6
CONTINUOUS
 10
643.9402352536
 20
143.7220172669
 11
643.9402352536
 21
138.2220094544
  0
LINE
  5
561
100
AcDbEntity
  8
BASIC_DEVICE
100
AcDbLine
 62
7
  6
CONTINUOUS
 10
643.9402352536
 20
615.7641271371
 11
643.9402352536
 21
666.7641271371
  0
LINE
  5
562
100
AcDbEntity
  8
BASIC_DEVICE
100
AcDbLine
 62
7
  6
CONTINUOUS
 10
644.1902352536
 20
661.7641271371
 11
644.1902352536
 21
667.0641271371
  0
LINE
  5
563
100
AcDbEntity
  8
H_EXTERN_HANDLE
100
AcDbLine
 62
7
  6
CONTINUOUS
 10
646.4402352536
 20
840.7641271371
 11
646.4402352536
 21
863.7641271371
  0
LINE
  5
564
100
AcDbEntity
  8
BASIC_DEVICE
100
AcDbLine
 62
7
  6
CONTINUOUS
 10
646.6402352536
 20
138.2220094544
 11
646.6402352536
 21
142.7220094544
  0
LINE
  5
565
100
AcDbEntity
  8
BASIC_DEVICE
100
AcDbLine
 62
7
  6
CONTINUOUS
 10
646.6402352536
 20
344.7220094544
 11
646.6402352536
 21
349.2220094544
  0
LINE
  5
566
100
AcDbEntity
  8
BASIC_DEVICE
100
AcDbLine
 62
7
  6
CONTINUOUS
 10
646.6402352536
 20
660.7641271371
 11
646.6402352536
 21
698.7641271371
  0
LINE
  5
567
100
AcDbEntity
  8
INTER_PHASE_SCHIELDS
100
AcDbLine
 62
5
  6
CONTINUOUS
 10
648.9402352536
 20
617.7641271371
 11
648.9402352536
 21
615.7641271371
  0
LINE
  5
568
100
AcDbEntity
  8
H_EXTERN_HANDLE
100
AcDbLine
 62
7
  6
CONTINUOUS
 10
649.4402352536
 20
868.0145779067
 11
649.4402352536
 21
863.7641271371
  0
LINE
  5
569
100
AcDbEntity
  8
BASIC_DEVICE
100
AcDbLine
 62
7
  6
CONTINUOUS
 10
650.2402352536
 20
699.0641271371
 11
650.2402352536
 21
660.7641271371
  0
LINE
  5
56A
100
AcDbEntity
  8
BASIC_DEVICE
100
AcDbLine
 62
7
  6
CONTINUOUS
 10
650.2402352536
 20
349.2220094544
 11
650.2402352536
 21
344.4220094544
  0
LINE
  5
56B
100
AcDbEntity
  8
BASIC_DEVICE
100
AcDbLine
 62
7
  6
CONTINUOUS
 10
650.2402352536
 20
143.0220094544
 11
650.2402352536
 21
138.2220094544
  0
LINE
  5
56C
100
AcDbEntity
  8
INTER_PHASE_SCHIELDS
100
AcDbLine
 62
5
  6
CONTINUOUS
 10
650.4402352536
 20
688.0641271371
 11
650.4402352536
 21
626.2641271371
  0
LINE
  5
56D
100
AcDbEntity
  8
INTER_PHASE_SCHIELDS
100
AcDbLine
 62
5
  6
CONTINUOUS
 10
650.4402352536
 20
143.2220094544
 11
650.4402352536
 21
83.9220094544
  0
LINE
  5
56E
100
AcDbEntity
  8
INTER_PHASE_SCHIELDS
100
AcDbLine
 62
5
  6
CONTINUOUS
 10
650.4402352536
 20
344.2220094544
 11
650.4402352536
 21
403.5220094544
  0
LINE
  5
56F
100
AcDbEntity
  8
H_EXTERN_HANDLE
100
AcDbLine
 62
7
  6
CONTINUOUS
 10
650.6081747636
 20
870.0546911278
 11
650.6081747636
 21
868.0582101289
  0
LINE
  5
570
100
AcDbEntity
  8
BASIC_DEVICE
100
AcDbLine
 62
7
  6
CONTINUOUS
 10
650.9402977536
 20
693.7641271371
 11
650.9402352536
 21
690.7641271371
  0
LINE
  5
571
100
AcDbEntity
  8
BASIC_DEVICE
100
AcDbLine
 62
7
  6
CONTINUOUS
 10
650.9402352536
 20
699.7641271371
 11
650.9402977536
 21
693.7641271371
  0
LINE
  5
572
100
AcDbEntity
  8
BASIC_DEVICE
100
AcDbLine
 62
7
  6
CONTINUOUS
 10
651.1402352536
 20
624.7641271371
 11
651.1402352536
 21
660.7641271371
  0
LINE
  5
573
100
AcDbEntity
  8
BASIC_DEVICE
100
AcDbLine
 62
7
  6
CONTINUOUS
 10
651.1902352536
 20
690.7641271371
 11
651.1902352536
 21
660.7641271371
  0
LINE
  5
574
100
AcDbEntity
  8
BASIC_DEVICE
100
AcDbLine
 62
7
  6
CONTINUOUS
 10
651.3902352536
 20
615.7641271371
 11
651.3902352536
 21
624.7641271371
  0
LINE
  5
575
100
AcDbEntity
  8
INTER_PHASE_SCHIELDS
100
AcDbLine
 62
5
  6
CONTINUOUS
 10
651.4402352536
 20
153.9220094544
 11
651.4402352536
 21
77.9220094544
  0
LINE
  5
576
100
AcDbEntity
  8
INTER_PHASE_SCHIELDS
100
AcDbLine
 62
5
  6
CONTINUOUS
 10
651.4402352536
 20
333.5220094544
 11
651.4402352536
 21
409.5220094544
  0
LINE
  5
577
100
AcDbEntity
  8
INTER_PHASE_SCHIELDS
100
AcDbLine
 62
5
  6
CONTINUOUS
 10
651.4402352536
 20
615.7641271371
 11
651.4402352536
 21
698.4641271371
  0
LINE
  5
578
100
AcDbEntity
  8
H_EXTERN_HANDLE
100
AcDbLine
 62
7
  6
CONTINUOUS
 10
652.4402352536
 20
834.7641271371
 11
652.4402352536
 21
825.7641271371
  0
LINE
  5
579
100
AcDbEntity
  8
H_EXTERN_HANDLE
100
AcDbLine
 62
7
  6
CONTINUOUS
 10
652.4402352536
 20
282.2220094544
 11
652.4402352536
 21
311.7220094544
  0
LINE
  5
57A
100
AcDbEntity
  8
INTER_PHASE_SCHIELDS
100
AcDbLine
 62
5
  6
CONTINUOUS
 10
653.4402352536
 20
698.4641271371
 11
653.4402352536
 21
615.7641271371
  0
LINE
  5
57B
100
AcDbEntity
  8
INTER_PHASE_SCHIELDS
100
AcDbLine
 62
5
  6
CONTINUOUS
 10
653.4402352536
 20
77.9220094544
 11
653.4402352536
 21
153.9220094544
  0
LINE
  5
57C
100
AcDbEntity
  8
INTER_PHASE_SCHIELDS
100
AcDbLine
 62
5
  6
CONTINUOUS
 10
653.4402352536
 20
333.5220094544
 11
653.4402352536
 21
409.5220094544
  0
LINE
  5
57D
100
AcDbEntity
  8
BASIC_DEVICE
100
AcDbLine
 62
7
  6
CONTINUOUS
 10
653.4902352536
 20
624.7641271371
 11
653.4902352536
 21
615.7641271371
  0
LINE
  5
57E
100
AcDbEntity
  8
BASIC_DEVICE
100
AcDbLine
 62
7
  6
CONTINUOUS
 10
653.6902352536
 20
690.7641271371
 11
653.6902352536
 21
660.7641271371
  0
LINE
  5
57F
100
AcDbEntity
  8
BASIC_DEVICE
100
AcDbLine
 62
7
  6
CONTINUOUS
 10
653.7402352536
 20
660.7641271371
 11
653.7402352536
 21
624.7641271371
  0
LINE
  5
580
100
AcDbEntity
  8
BASIC_DEVICE
100
AcDbLine
 62
7
  6
CONTINUOUS
 10
653.9402352536
 20
690.7641271371
 11
653.9402352536
 21
699.7641271371
  0
LINE
  5
581
100
AcDbEntity
  8
INTER_PHASE_SCHIELDS
100
AcDbLine
 62
5
  6
CONTINUOUS
 10
654.4402352536
 20
143.2220094544
 11
654.4402352536
 21
83.9220094544
  0
LINE
  5
582
100
AcDbEntity
  8
INTER_PHASE_SCHIELDS
100
AcDbLine
 62
5
  6
CONTINUOUS
 10
654.4402352536
 20
344.2220094544
 11
654.4402352536
 21
403.5220094544
  0
LINE
  5
583
100
AcDbEntity
  8
INTER_PHASE_SCHIELDS
100
AcDbLine
 62
5
  6
CONTINUOUS
 10
654.4402352536
 20
626.2641271371
 11
654.4402352536
 21
688.0641271371
  0
LINE
  5
584
100
AcDbEntity
  8
INTER_PHASE_SCHIELDS
100
AcDbLine
 62
5
  6
CONTINUOUS
 10
655.9402352536
 20
615.7641271371
 11
655.9402352536
 21
617.7641271371
  0
LINE
  5
585
100
AcDbEntity
  8
H_EXTERN_HANDLE
100
AcDbLine
 62
7
  6
CONTINUOUS
 10
656.6081747636
 20
868.2823598655
 11
656.6081747636
 21
870.0546911278
  0
LINE
  5
586
100
AcDbEntity
  8
BASIC_DEVICE
100
AcDbLine
 62
7
  6
CONTINUOUS
 10
656.9902352536
 20
667.0641271371
 11
656.9902352536
 21
661.7641271371
  0
LINE
  5
587
100
AcDbEntity
  8
BASIC_DEVICE
100
AcDbLine
 62
7
  6
CONTINUOUS
 10
657.2402352536
 20
138.2220094544
 11
657.2402352536
 21
143.7220297059
  0
LINE
  5
588
100
AcDbEntity
  8
BASIC_DEVICE
100
AcDbLine
 62
7
  6
CONTINUOUS
 10
657.2402352536
 20
343.7217282044
 11
657.2402352536
 21
349.2220094544
  0
LINE
  5
589
100
AcDbEntity
  8
BASIC_DEVICE
100
AcDbLine
 62
7
  6
CONTINUOUS
 10
657.2402352536
 20
615.7641271371
 11
657.2402352536
 21
666.7641271371
  0
LINE
  5
58A
100
AcDbEntity
  8
H_EXTERN_HANDLE
100
AcDbLine
 62
7
  6
CONTINUOUS
 10
658.599335842
 20
870.3532272362
 11
658.599335842
 21
868.3567462373
  0
LINE
  5
58B
100
AcDbEntity
  8
BASIC_DEVICE
100
AcDbLine
 62
7
  6
CONTINUOUS
 10
660.9402352536
 20
666.7641271371
 11
660.9402352536
 21
615.7641271371
  0
LINE
  5
58C
100
AcDbEntity
  8
BASIC_DEVICE
100
AcDbLine
 62
7
  6
CONTINUOUS
 10
660.9402352536
 20
349.2220094544
 11
660.9402352536
 21
343.7217282044
  0
LINE
  5
58D
100
AcDbEntity
  8
BASIC_DEVICE
100
AcDbLine
 62
7
  6
CONTINUOUS
 10
660.9402352536
 20
143.7222907044
 11
660.9402352536
 21
138.2220094544
  0
LINE
  5
58E
100
AcDbEntity
  8
BASIC_DEVICE
100
AcDbLine
 62
7
  6
CONTINUOUS
 10
661.1902352536
 20
661.7641271371
 11
661.1902352536
 21
667.0641271371
  0
LINE
  5
58F
100
AcDbEntity
  8
H_EXTERN_HANDLE
100
AcDbLine
 62
7
  6
CONTINUOUS
 10
664.599335842
 20
868.5808959739
 11
664.599335842
 21
870.3532272362
  0
LINE
  5
590
100
AcDbEntity
  8
H_EXTERN_HANDLE
100
AcDbLine
 62
7
  6
CONTINUOUS
 10
666.5904969204
 20
870.6517633446
 11
666.5904969204
 21
868.6552823457
  0
LINE
  5
591
100
AcDbEntity
  8
BASIC_DEVICE
100
AcDbLine
 62
7
  6
CONTINUOUS
 10
667.1902352536
 20
660.7641271371
 11
667.1902352536
 21
654.6641271371
  0
LINE
  5
592
100
AcDbEntity
  8
BASIC_DEVICE
100
AcDbLine
 62
7
  6
CONTINUOUS
 10
667.4402352536
 20
393.7220094544
 11
667.4402352536
 21
343.7228219544
  0
LINE
  5
593
100
AcDbEntity
  8
BASIC_DEVICE
100
AcDbLine
 62
7
  6
CONTINUOUS
 10
667.4402352536
 20
93.7211969544
 11
667.4402352536
 21
143.7211969544
  0
LINE
  5
594
100
AcDbEntity
  8
BASIC_DEVICE
100
AcDbLine
 62
7
  6
CONTINUOUS
 10
667.4402352536
 20
654.6641271371
 11
667.4402352536
 21
660.6641271371
  0
LINE
  5
595
100
AcDbEntity
  8
BASIC_DEVICE
100
AcDbLine
 62
7
  6
CONTINUOUS
 10
672.4402352536
 20
148.7220094544
 11
672.4402352536
 21
338.7220094544
  0
LINE
  5
596
100
AcDbEntity
  8
H_EXTERN_HANDLE
100
AcDbLine
 62
7
  6
CONTINUOUS
 10
672.5904969204
 20
868.8794320823
 11
672.5904969204
 21
870.6517633446
  0
LINE
  5
597
100
AcDbEntity
  8
H_EXTERN_HANDLE
100
AcDbLine
 62
7
  6
CONTINUOUS
 10
674.5816579988
 20
870.950299453
 11
674.5816579988
 21
868.9538184541
  0
LINE
  5
598
100
AcDbEntity
  8
H_EXTERN_HANDLE
100
AcDbLine
 62
7
  6
CONTINUOUS
 10
675.4402352536
 20
917.7641271371
 11
675.4402352536
 21
916.1526987927
  0
LINE
  5
599
100
AcDbEntity
  8
H_EXTERN_HANDLE
100
AcDbLine
 62
7
  6
CONTINUOUS
 10
675.4402352537
 20
265.7220094544
 11
675.4402352536
 21
277.7220094543
  0
LINE
  5
59A
100
AcDbEntity
  8
H_EXTERN_HANDLE
100
AcDbLine
 62
7
  6
CONTINUOUS
 10
676.4402352536
 20
916.2641271371
 11
676.4402352536
 21
917.0801745035
  0
LINE
  5
59B
100
AcDbEntity
  8
BASIC_DEVICE
100
AcDbLine
 62
7
  6
CONTINUOUS
 10
677.4402352536
 20
753.7641271371
 11
677.4402352536
 21
699.7641271371
  0
LINE
  5
59C
100
AcDbEntity
  8
BASIC_DEVICE
100
AcDbLine
 62
7
  6
CONTINUOUS
 10
677.4402352536
 20
343.7220094544
 11
677.4402352536
 21
143.7220094544
  0
LINE
  5
59D
100
AcDbEntity
  8
TERMINAL_SCREEN
100
AcDbLine
 62
2
  6
CONTINUOUS
 10
677.9402352536
 20
321.2220094544
 11
677.9402352536
 21
344.2220094544
  0
LINE
  5
59E
100
AcDbEntity
  8
TERMINAL_SCREEN
100
AcDbLine
 62
2
  6
CONTINUOUS
 10
677.9402352536
 20
699.7641271371
 11
677.9402352536
 21
701.7641271371
  0
LINE
  5
59F
100
AcDbEntity
  8
BASIC_DEVICE
100
AcDbLine
 62
7
  6
CONTINUOUS
 10
680.4402352536
 20
234.7220094544
 11
680.4402352536
 21
252.7220094544
  0
LINE
  5
5A0
100
AcDbEntity
  8
INTER_PHASE_SCHIELDS
100
AcDbLine
 62
5
  6
CONTINUOUS
 10
648.9402352536
 20
343.7220094544
 11
650.4402352536
 21
352.7220094544
  0
LINE
  5
5A1
100
AcDbEntity
  8
BASIC_DEVICE
100
AcDbLine
 62
7
  6
CONTINUOUS
 10
491.0024130801
 20
176.2220094544
 11
487.9713241669
 21
170.9720094544
  0
LINE
  5
5A2
100
AcDbEntity
  8
AM_12
100
AcDbLine
 62
4
  6
CONTINUOUS
 10
651.4281940834
 20
405.0775567428
 11
654.9281940834
 21
408.5775567428
  0
LINE
  5
5A3
100
AcDbEntity
  8
INTER_PHASE_SCHIELDS
100
AcDbLine
 62
5
  6
CONTINUOUS
 10
333.2960724408
 20
79.2729500436
 11
339.2960724408
 21
85.2729500436
  0
LINE
  5
5A4
100
AcDbEntity
  8
H_EXTERN_HANDLE
100
AcDbLine
 62
7
  6
CONTINUOUS
 10
680.5816579988
 20
869.1779681907
 11
680.5816579988
 21
870.950299453
  0
LINE
  5
5A5
100
AcDbEntity
  8
H_EXTERN_HANDLE
100
AcDbLine
 62
7
  6
CONTINUOUS
 10
682.5728190773
 20
871.2488355614
 11
682.5728190773
 21
869.2523545626
  0
LINE
  5
5A6
100
AcDbEntity
  8
BASIC_DEVICE
100
AcDbLine
 62
7
  6
CONTINUOUS
 10
683.4402352536
 20
237.7220094544
 11
683.4402352536
 21
249.7220094544
  0
LINE
  5
5A7
100
AcDbEntity
  8
BASIC_DEVICE
100
AcDbLine
 62
7
  6
CONTINUOUS
 10
687.4402352536
 20
237.7222844544
 11
687.4402352536
 21
249.7217344544
  0
LINE
  5
5A8
100
AcDbEntity
  8
AXIS
100
AcDbLine
 62
4
  6
CONTINUOUS
 10
687.4402352536
 20
651.6641271371
 11
687.4402352536
 21
663.7641271371
  0
LINE
  5
5A9
100
AcDbEntity
  8
AXIS
100
AcDbLine
 62
4
  6
CONTINUOUS
 10
687.4402352536
 20
696.7641271371
 11
687.4402352536
 21
704.7641271371
  0
LINE
  5
5AA
100
AcDbEntity
  8
H_EXTERN_HANDLE
100
AcDbLine
 62
7
  6
CONTINUOUS
 10
688.5728190773
 20
869.4765042991
 11
688.5728190773
 21
871.2488355614
  0
LINE
  5
5AB
100
AcDbEntity
  8
H_EXTERN_HANDLE
100
AcDbLine
 62
7
  6
CONTINUOUS
 10
690.5639801557
 20
871.5473716698
 11
690.5639801557
 21
869.550890671
  0
LINE
  5
5AC
100
AcDbEntity
  8
BASIC_DEVICE
100
AcDbLine
 62
7
  6
CONTINUOUS
 10
695.4402352536
 20
249.7220094544
 11
695.4402352536
 21
237.7220094544
  0
LINE
  5
5AD
100
AcDbEntity
  8
H_EXTERN_HANDLE
100
AcDbLine
 62
7
  6
CONTINUOUS
 10
696.5639801557
 20
869.7750404075
 11
696.5639801557
 21
871.5473716698
  0
LINE
  5
5AE
100
AcDbEntity
  8
BASIC_DEVICE
100
AcDbLine
 62
7
  6
CONTINUOUS
 10
698.4402352536
 20
252.7220094544
 11
698.4402352536
 21
234.7220094544
  0
LINE
  5
5AF
100
AcDbEntity
  8
H_EXTERN_HANDLE
100
AcDbLine
 62
7
  6
CONTINUOUS
 10
698.5551412341
 20
871.8459077783
 11
698.5551412341
 21
869.8494267794
  0
LINE
  5
5B0
100
AcDbEntity
  8
H_EXTERN_HANDLE
100
AcDbLine
 62
7
  6
CONTINUOUS
 10
704.5551412341
 20
870.0735765159
 11
704.5551412341
 21
871.8459077783
  0
LINE
  5
5B1
100
AcDbEntity
  8
H_EXTERN_HANDLE
100
AcDbLine
 62
7
  6
CONTINUOUS
 10
706.5463023125
 20
872.1444438867
 11
706.5463023125
 21
870.1479628878
  0
LINE
  5
5B2
100
AcDbEntity
  8
BASIC_DEVICE
100
AcDbLine
 62
7
  6
CONTINUOUS
 10
707.4402352536
 20
660.6641271371
 11
707.4402352536
 21
654.6641271371
  0
LINE
  5
5B3
100
AcDbEntity
  8
BASIC_DEVICE
100
AcDbLine
 62
7
  6
CONTINUOUS
 10
707.4402352536
 20
143.7219157044
 11
707.4402352536
 21
93.7211969544
  0
LINE
  5
5B4
100
AcDbEntity
  8
BASIC_DEVICE
100
AcDbLine
 62
7
  6
CONTINUOUS
 10
707.4402352536
 20
343.7221032044
 11
707.4402352536
 21
393.7220094544
  0
LINE
  5
5B5
100
AcDbEntity
  8
H_EXTERN_HANDLE
100
AcDbLine
 62
7
  6
CONTINUOUS
 10
712.5463023125
 20
870.3721126243
 11
712.5463023125
 21
872.1444438867
  0
LINE
  5
5B6
100
AcDbEntity
  8
H_EXTERN_HANDLE
100
AcDbLine
 62
7
  6
CONTINUOUS
 10
714.537463391
 20
872.4429799951
 11
714.537463391
 21
870.4464989962
  0
LINE
  5
5B7
100
AcDbEntity
  8
BASIC_DEVICE
100
AcDbLine
 62
7
  6
CONTINUOUS
 10
717.6902352536
 20
654.6641271371
 11
717.6902352536
 21
660.7641271371
  0
LINE
  5
5B8
100
AcDbEntity
  8
INTER_PHASE_SCHIELDS
100
AcDbLine
 62
5
  6
CONTINUOUS
 10
654.4402352536
 20
134.7220094544
 11
655.9402352536
 21
143.7220094544
  0
LINE
  5
5B9
100
AcDbEntity
  8
H_EXTERN_HANDLE
100
AcDbLine
 62
3
  6
CONTINUOUS
 10
599.5503782706
 20
244.0796219498
 11
595.7468139149
 21
235.9228518665
  0
LINE
  5
5BA
100
AcDbEntity
  8
BASIC_DEVICE
100
AcDbLine
 62
7
  6
CONTINUOUS
 10
752.4402352536
 20
613.7641271371
 11
727.9402352536
 21
613.7641271371
  0
LINE
  5
5BB
100
AcDbEntity
  8
BASIC_DEVICE
100
AcDbLine
 62
7
  6
CONTINUOUS
 10
496.9402352536
 20
613.7641271371
 11
472.4402352536
 21
613.7641271371
  0
LINE
  5
5BC
100
AcDbEntity
  8
BASIC_DEVICE
100
AcDbLine
 62
7
  6
CONTINUOUS
 10
727.9402352536
 20
615.7641271371
 11
496.9402352536
 21
615.7641271371
  0
LINE
  5
5BD
100
AcDbEntity
  8
INTER_PHASE_SCHIELDS
100
AcDbLine
 62
5
  6
CONTINUOUS
 10
568.9402352536
 20
615.7641271371
 11
575.9402352536
 21
615.7641271371
  0
LINE
  5
5BE
100
AcDbEntity
  8
INTER_PHASE_SCHIELDS
100
AcDbLine
 62
5
  6
CONTINUOUS
 10
648.9402352536
 20
615.7641271371
 11
655.9402352536
 21
615.7641271371
  0
LINE
  5
5BF
100
AcDbEntity
  8
INTER_PHASE_SCHIELDS
100
AcDbLine
 62
5
  6
CONTINUOUS
 10
655.9402352536
 20
617.7641271371
 11
653.4402352536
 21
617.7641271371
  0
LINE
  5
5C0
100
AcDbEntity
  8
INTER_PHASE_SCHIELDS
100
AcDbLine
 62
5
  6
CONTINUOUS
 10
651.4402352536
 20
617.7641271371
 11
648.9402352536
 21
617.7641271371
  0
LINE
  5
5C1
100
AcDbEntity
  8
INTER_PHASE_SCHIELDS
100
AcDbLine
 62
5
  6
CONTINUOUS
 10
575.9402352536
 20
617.7641271371
 11
573.4402352536
 21
617.7641271371
  0
LINE
  5
5C2
100
AcDbEntity
  8
INTER_PHASE_SCHIELDS
100
AcDbLine
 62
5
  6
CONTINUOUS
 10
571.4402352536
 20
617.7641271371
 11
568.9402352536
 21
617.7641271371
  0
LINE
  5
5C3
100
AcDbEntity
  8
BASIC_DEVICE
100
AcDbLine
 62
7
  6
CONTINUOUS
 10
653.4902352536
 20
621.7641271371
 11
651.3902352536
 21
621.7641271371
  0
LINE
  5
5C4
100
AcDbEntity
  8
BASIC_DEVICE
100
AcDbLine
 62
7
  6
CONTINUOUS
 10
573.4902352536
 20
621.7641271371
 11
571.3902352536
 21
621.7641271371
  0
LINE
  5
5C5
100
AcDbEntity
  8
INTER_PHASE_SCHIELDS
100
AcDbLine
 62
5
  6
CONTINUOUS
 10
571.4402352536
 20
621.7641271371
 11
573.4402352536
 21
621.7641271371
  0
LINE
  5
5C6
100
AcDbEntity
  8
INTER_PHASE_SCHIELDS
100
AcDbLine
 62
5
  6
CONTINUOUS
 10
651.4402352536
 20
621.7641271371
 11
653.4402352536
 21
621.7641271371
  0
LINE
  5
5C7
100
AcDbEntity
  8
BASIC_DEVICE
100
AcDbLine
 62
7
  6
CONTINUOUS
 10
653.4902352536
 20
622.9188276755
 11
651.3902352536
 21
622.9188276755
  0
LINE
  5
5C8
100
AcDbEntity
  8
BASIC_DEVICE
100
AcDbLine
 62
7
  6
CONTINUOUS
 10
573.4902352536
 20
622.9188276755
 11
571.3902352536
 21
622.9188276755
  0
LINE
  5
5C9
100
AcDbEntity
  8
BASIC_DEVICE
100
AcDbLine
 62
7
  6
CONTINUOUS
 10
653.7402352536
 20
624.7641271371
 11
653.4902352536
 21
624.7641271371
  0
LINE
  5
5CA
100
AcDbEntity
  8
BASIC_DEVICE
100
AcDbLine
 62
7
  6
CONTINUOUS
 10
651.3902352536
 20
624.7641271371
 11
651.1402352536
 21
624.7641271371
  0
LINE
  5
5CB
100
AcDbEntity
  8
BASIC_DEVICE
100
AcDbLine
 62
7
  6
CONTINUOUS
 10
573.7402352536
 20
624.7641271371
 11
573.4902352536
 21
624.7641271371
  0
LINE
  5
5CC
100
AcDbEntity
  8
BASIC_DEVICE
100
AcDbLine
 62
7
  6
CONTINUOUS
 10
571.3902352536
 20
624.7641271371
 11
571.1402352536
 21
624.7641271371
  0
LINE
  5
5CD
100
AcDbEntity
  8
INTER_PHASE_SCHIELDS
100
AcDbLine
 62
5
  6
CONTINUOUS
 10
570.4402352536
 20
626.2641271371
 11
571.4402352536
 21
626.2641271371
  0
LINE
  5
5CE
100
AcDbEntity
  8
INTER_PHASE_SCHIELDS
100
AcDbLine
 62
5
  6
CONTINUOUS
 10
573.4402352536
 20
626.2641271371
 11
574.4402352536
 21
626.2641271371
  0
LINE
  5
5CF
100
AcDbEntity
  8
INTER_PHASE_SCHIELDS
100
AcDbLine
 62
5
  6
CONTINUOUS
 10
650.4402352536
 20
626.2641271371
 11
651.4402352536
 21
626.2641271371
  0
LINE
  5
5D0
100
AcDbEntity
  8
INTER_PHASE_SCHIELDS
100
AcDbLine
 62
5
  6
CONTINUOUS
 10
653.4402352536
 20
626.2641271371
 11
654.4402352536
 21
626.2641271371
  0
LINE
  5
5D1
100
AcDbEntity
  8
H_EXTERN_HANDLE
100
AcDbLine
 62
7
  6
CONTINUOUS
 10
720.537463391
 20
870.6706487328
 11
720.537463391
 21
872.4429799951
  0
LINE
  5
5D2
100
AcDbEntity
  8
H_EXTERN_HANDLE
100
AcDbLine
 62
7
  6
CONTINUOUS
 10
722.5286244694
 20
872.7415161035
 11
722.5286244694
 21
870.7450351046
  0
LINE
  5
5D3
100
AcDbEntity
  8
BASIC_DEVICE
100
AcDbLine
 62
7
  6
CONTINUOUS
 10
727.9402352536
 20
613.7641271371
 11
727.9402352536
 21
615.7641271371
  0
LINE
  5
5D4
100
AcDbEntity
  8
H_EXTERN_HANDLE
100
AcDbLine
 62
7
  6
CONTINUOUS
 10
728.5286244694
 20
870.9691848412
 11
728.5286244694
 21
872.7415161035
  0
LINE
  5
5D5
100
AcDbEntity
  8
BASIC_DEVICE
100
AcDbLine
 62
7
  6
CONTINUOUS
 10
729.9402352536
 20
699.7641271371
 11
729.9402352536
 21
638.7641271371
  0
LINE
  5
5D6
100
AcDbEntity
  8
BASIC_DEVICE
100
AcDbLine
 62
7
  6
CONTINUOUS
 10
729.9402352536
 20
156.2220094544
 11
729.9402352536
 21
143.7220094544
  0
LINE
  5
5D7
100
AcDbEntity
  8
BASIC_DEVICE
100
AcDbLine
 62
7
  6
CONTINUOUS
 10
729.9402352536
 20
331.2220094544
 11
729.9402352536
 21
343.7220094544
  0
LINE
  5
5D8
100
AcDbEntity
  8
H_EXTERN_HANDLE
100
AcDbLine
 62
7
  6
CONTINUOUS
 10
730.5197855478
 20
873.0400522119
 11
730.5197855478
 21
871.043571213
  0
LINE
  5
5D9
100
AcDbEntity
  8
H_EXTERN_HANDLE
100
AcDbLine
 62
7
  6
CONTINUOUS
 10
736.5197855478
 20
871.2677209496
 11
736.5197855478
 21
873.0400522119
  0
LINE
  5
5DA
100
AcDbEntity
  8
H_EXTERN_HANDLE
100
AcDbLine
 62
7
  6
CONTINUOUS
 10
738.5109466262
 20
873.3385883203
 11
738.5109466262
 21
871.3421073214
  0
LINE
  5
5DB
100
AcDbEntity
  8
AXIS
100
AcDbLine
 62
4
  6
CONTINUOUS
 10
739.9402352536
 20
148.7220094544
 11
739.9402352536
 21
163.7220094544
  0
LINE
  5
5DC
100
AcDbEntity
  8
AXIS
100
AcDbLine
 62
4
  6
CONTINUOUS
 10
739.9402352536
 20
323.7220094544
 11
739.9402352536
 21
338.7220094544
  0
LINE
  5
5DD
100
AcDbEntity
  8
H_EXTERN_HANDLE
100
AcDbLine
 62
7
  6
CONTINUOUS
 10
744.5109466262
 20
871.566257058
 11
744.5109466262
 21
873.3385883203
  0
LINE
  5
5DE
100
AcDbEntity
  8
H_EXTERN_HANDLE
100
AcDbLine
 62
7
  6
CONTINUOUS
 10
746.5021077047
 20
873.6371244287
 11
746.5021077047
 21
871.6406434298
  0
LINE
  5
5DF
100
AcDbEntity
  8
BASIC_DEVICE
100
AcDbLine
 62
7
  6
CONTINUOUS
 10
752.4402352536
 20
699.7641271371
 11
752.4402352536
 21
613.7641271371
  0
LINE
  5
5E0
100
AcDbEntity
  8
TERMINAL_SCREEN
100
AcDbLine
 62
2
  6
CONTINUOUS
 10
752.4402352536
 20
474.2220094544
 11
752.4402352536
 21
321.2220094544
  0
LINE
  5
5E1
100
AcDbEntity
  8
BASIC_DEVICE
100
AcDbLine
 62
7
  6
CONTINUOUS
 10
752.4402352536
 20
343.7220094544
 11
752.4402352537
 21
143.7220094544
  0
LINE
  5
5E2
100
AcDbEntity
  8
TERMINAL_SCREEN
100
AcDbLine
 62
2
  6
CONTINUOUS
 10
752.4402352536
 20
699.7641271371
 11
752.4402352536
 21
751.7641271371
  0
LINE
  5
5E3
100
AcDbEntity
  8
H_EXTERN_HANDLE
100
AcDbLine
 62
7
  6
CONTINUOUS
 10
752.5021077047
 20
871.8647931664
 11
752.5021077047
 21
873.6371244287
  0
LINE
  5
5E4
100
AcDbEntity
  8
H_EXTERN_HANDLE
100
AcDbLine
 62
7
  6
CONTINUOUS
 10
754.4932687831
 20
873.9356605371
 11
754.4932687831
 21
871.9391795383
  0
LINE
  5
5E5
100
AcDbEntity
  8
BASIC_DEVICE
100
AcDbLine
 62
1
  6
CONTINUOUS
 10
603.2370367709
 20
284.3180857358
 11
588.2056619706
 21
271.7052646848
  0
LINE
  5
5E6
100
AcDbEntity
  8
BASIC_DEVICE
100
AcDbLine
 62
7
  6
CONTINUOUS
 10
472.4402352536
 20
638.7641271371
 11
494.9402352536
 21
638.7641271371
  0
LINE
  5
5E7
100
AcDbEntity
  8
BASIC_DEVICE
100
AcDbLine
 62
7
  6
CONTINUOUS
 10
729.9402352536
 20
638.7641271371
 11
752.4402352536
 21
638.7641271371
  0
LINE
  5
5E8
100
AcDbEntity
  8
BASIC_DEVICE
100
AcDbLine
 62
7
  6
CONTINUOUS
 10
507.1902352536
 20
654.6641271371
 11
557.6902352536
 21
654.6641271371
  0
LINE
  5
5E9
100
AcDbEntity
  8
BASIC_DEVICE
100
AcDbLine
 62
7
  6
CONTINUOUS
 10
587.1902352536
 20
654.6641271371
 11
637.6902352536
 21
654.6641271371
  0
LINE
  5
5EA
100
AcDbEntity
  8
BASIC_DEVICE
100
AcDbLine
 62
7
  6
CONTINUOUS
 10
667.1902352536
 20
654.6641271371
 11
717.6902352536
 21
654.6641271371
  0
LINE
  5
5EB
100
AcDbEntity
  8
BASIC_DEVICE
100
AcDbLine
 62
7
  6
CONTINUOUS
 10
507.4402352536
 20
660.6641271371
 11
547.4402352536
 21
660.6641271371
  0
LINE
  5
5EC
100
AcDbEntity
  8
BASIC_DEVICE
100
AcDbLine
 62
7
  6
CONTINUOUS
 10
587.4402352536
 20
660.6641271371
 11
627.4402352536
 21
660.6641271371
  0
LINE
  5
5ED
100
AcDbEntity
  8
BASIC_DEVICE
100
AcDbLine
 62
7
  6
CONTINUOUS
 10
667.4402352536
 20
660.6641271371
 11
707.4402352536
 21
660.6641271371
  0
LINE
  5
5EE
100
AcDbEntity
  8
BASIC_DEVICE
100
AcDbLine
 62
7
  6
CONTINUOUS
 10
752.4402352536
 20
660.7641271371
 11
662.1902352536
 21
660.7641271371
  0
LINE
  5
5EF
100
AcDbEntity
  8
BASIC_DEVICE
100
AcDbLine
 62
7
  6
CONTINUOUS
 10
575.9902352536
 20
660.7641271371
 11
564.9402352536
 21
660.7641271371
  0
LINE
  5
5F0
100
AcDbEntity
  8
BASIC_DEVICE
100
AcDbLine
 62
7
  6
CONTINUOUS
 10
472.4402352536
 20
660.7641271371
 11
559.2402352536
 21
660.7641271371
  0
LINE
  5
5F1
100
AcDbEntity
  8
BASIC_DEVICE
100
AcDbLine
 62
7
  6
CONTINUOUS
 10
581.9402352536
 20
660.7641271371
 11
638.9902352536
 21
660.7641271371
  0
LINE
  5
5F2
100
AcDbEntity
  8
BASIC_DEVICE
100
AcDbLine
 62
7
  6
CONTINUOUS
 10
644.9402352536
 20
660.7641271371
 11
655.9902352536
 21
660.7641271371
  0
LINE
  5
5F3
100
AcDbEntity
  8
BASIC_DEVICE
100
AcDbLine
 62
7
  6
CONTINUOUS
 10
560.2402352536
 20
666.7641271371
 11
563.9402352536
 21
666.7641271371
  0
LINE
  5
5F4
100
AcDbEntity
  8
BASIC_DEVICE
100
AcDbLine
 62
7
  6
CONTINUOUS
 10
577.2402352536
 20
666.7641271371
 11
580.9402352536
 21
666.7641271371
  0
LINE
  5
5F5
100
AcDbEntity
  8
BASIC_DEVICE
100
AcDbLine
 62
7
  6
CONTINUOUS
 10
640.2402352536
 20
666.7641271371
 11
643.9402352536
 21
666.7641271371
  0
LINE
  5
5F6
100
AcDbEntity
  8
BASIC_DEVICE
100
AcDbLine
 62
7
  6
CONTINUOUS
 10
657.2402352536
 20
666.7641271371
 11
660.9402352536
 21
666.7641271371
  0
LINE
  5
5F7
100
AcDbEntity
  8
BASIC_DEVICE
100
AcDbLine
 62
7
  6
CONTINUOUS
 10
661.1902352536
 20
667.0641271371
 11
656.9902352536
 21
667.0641271371
  0
LINE
  5
5F8
100
AcDbEntity
  8
BASIC_DEVICE
100
AcDbLine
 62
7
  6
CONTINUOUS
 10
644.1902352536
 20
667.0641271371
 11
639.9902352536
 21
667.0641271371
  0
LINE
  5
5F9
100
AcDbEntity
  8
BASIC_DEVICE
100
AcDbLine
 62
7
  6
CONTINUOUS
 10
581.1902352536
 20
667.0641271371
 11
576.9902352536
 21
667.0641271371
  0
LINE
  5
5FA
100
AcDbEntity
  8
BASIC_DEVICE
100
AcDbLine
 62
7
  6
CONTINUOUS
 10
564.1902352536
 20
667.0641271371
 11
559.9902352536
 21
667.0641271371
  0
LINE
  5
5FB
100
AcDbEntity
  8
H_EXTERN_HANDLE
100
AcDbLine
 62
7
  6
CONTINUOUS
 10
760.4932687831
 20
872.1633292748
 11
760.4932687831
 21
873.9356605371
  0
LINE
  5
5FC
100
AcDbEntity
  8
H_EXTERN_HANDLE
100
AcDbLine
 62
7
  6
CONTINUOUS
 10
762.4844298615
 20
874.2341966455
 11
762.4844298615
 21
872.2377156467
  0
LINE
  5
5FD
100
AcDbEntity
  8
H_EXTERN_HANDLE
100
AcDbLine
 62
7
  6
CONTINUOUS
 10
768.4844298615
 20
872.4618653832
 11
768.4844298615
 21
874.2341966455
  0
LINE
  5
5FE
100
AcDbEntity
  8
H_EXTERN_HANDLE
100
AcDbLine
 62
7
  6
CONTINUOUS
 10
770.4755909399
 20
874.532732754
 11
770.4755909399
 21
872.5362517551
  0
LINE
  5
5FF
100
AcDbEntity
  8
H_EXTERN_HANDLE
100
AcDbLine
 62
7
  6
CONTINUOUS
 10
776.4755909399
 20
872.7604014916
 11
776.4755909399
 21
874.532732754
  0
LINE
  5
600
100
AcDbEntity
  8
H_EXTERN_HANDLE
100
AcDbLine
 62
7
  6
CONTINUOUS
 10
778.4667520184
 20
874.8312688624
 11
778.4667520184
 21
872.8347878635
  0
LINE
  5
601
100
AcDbEntity
  8
H_EXTERN_HANDLE
100
AcDbLine
 62
7
  6
CONTINUOUS
 10
784.4667520184
 20
873.0589376
 11
784.4667520184
 21
874.8312688624
  0
LINE
  5
602
100
AcDbEntity
  8
H_EXTERN_HANDLE
100
AcDbLine
 62
7
  6
CONTINUOUS
 10
786.4579130968
 20
875.1298049708
 11
786.4579130968
 21
873.1333239719
  0
LINE
  5
603
100
AcDbEntity
  8
H_EXTERN_HANDLE
100
AcDbLine
 62
7
  6
CONTINUOUS
 10
792.4579130968
 20
873.3574737085
 11
792.4579130968
 21
875.1298049708
  0
LINE
  5
604
100
AcDbEntity
  8
H_EXTERN_HANDLE
100
AcDbLine
 62
7
  6
CONTINUOUS
 10
794.4490741752
 20
875.4283410792
 11
794.4490741752
 21
873.4318600803
  0
LINE
  5
605
100
AcDbEntity
  8
BASIC_DEVICE
100
AcDbLine
 62
7
  6
CONTINUOUS
 10
733.8780574272
 20
311.2220094544
 11
736.9091463404
 21
316.4720094544
  0
LINE
  5
606
100
AcDbEntity
  8
INTER_PHASE_SCHIELDS
100
AcDbLine
 62
5
  6
CONTINUOUS
 10
654.4402352536
 20
688.0641271371
 11
653.4402352536
 21
688.0641271371
  0
LINE
  5
607
100
AcDbEntity
  8
INTER_PHASE_SCHIELDS
100
AcDbLine
 62
5
  6
CONTINUOUS
 10
651.4402352536
 20
688.0641271371
 11
650.4402352536
 21
688.0641271371
  0
LINE
  5
608
100
AcDbEntity
  8
INTER_PHASE_SCHIELDS
100
AcDbLine
 62
5
  6
CONTINUOUS
 10
574.4402352536
 20
688.0641271371
 11
573.4402352536
 21
688.0641271371
  0
LINE
  5
609
100
AcDbEntity
  8
INTER_PHASE_SCHIELDS
100
AcDbLine
 62
5
  6
CONTINUOUS
 10
571.4402352536
 20
688.0641271371
 11
570.4402352536
 21
688.0641271371
  0
LINE
  5
60A
100
AcDbEntity
  8
BASIC_DEVICE
100
AcDbLine
 62
7
  6
CONTINUOUS
 10
653.9402352536
 20
690.7641271371
 11
653.6902352536
 21
690.7641271371
  0
LINE
  5
60B
100
AcDbEntity
  8
BASIC_DEVICE
100
AcDbLine
 62
7
  6
CONTINUOUS
 10
573.9402352536
 20
690.7641271371
 11
573.6902352536
 21
690.7641271371
  0
LINE
  5
60C
100
AcDbEntity
  8
BASIC_DEVICE
100
AcDbLine
 62
7
  6
CONTINUOUS
 10
570.9402352536
 20
690.7641271371
 11
571.1902352536
 21
690.7641271371
  0
LINE
  5
60D
100
AcDbEntity
  8
BASIC_DEVICE
100
AcDbLine
 62
7
  6
CONTINUOUS
 10
650.9402352536
 20
690.7641271371
 11
651.1902352536
 21
690.7641271371
  0
LINE
  5
60E
100
AcDbEntity
  8
INTER_PHASE_SCHIELDS
100
AcDbLine
 62
5
  6
CONTINUOUS
 10
571.4402352536
 20
692.4641271371
 11
573.4402352536
 21
692.4641271371
  0
LINE
  5
60F
100
AcDbEntity
  8
INTER_PHASE_SCHIELDS
100
AcDbLine
 62
5
  6
CONTINUOUS
 10
651.4402352536
 20
692.4641271371
 11
653.4402352536
 21
692.4641271371
  0
LINE
  5
610
100
AcDbEntity
  8
BASIC_DEVICE
100
AcDbLine
 62
7
  6
CONTINUOUS
 10
653.9402352536
 20
692.6094265988
 11
650.9402352536
 21
692.6094265988
  0
LINE
  5
611
100
AcDbEntity
  8
BASIC_DEVICE
100
AcDbLine
 62
7
  6
CONTINUOUS
 10
573.9402352536
 20
692.6094265988
 11
570.9402352536
 21
692.6094265988
  0
LINE
  5
612
100
AcDbEntity
  8
BASIC_DEVICE
100
AcDbLine
 62
7
  6
CONTINUOUS
 10
653.9402352536
 20
693.7641271371
 11
650.9402977536
 21
693.7641271371
  0
LINE
  5
613
100
AcDbEntity
  8
BASIC_DEVICE
100
AcDbLine
 62
7
  6
CONTINUOUS
 10
573.9402352536
 20
693.7641271371
 11
570.9402977536
 21
693.7641271371
  0
LINE
  5
614
100
AcDbEntity
  8
BASIC_DEVICE
100
AcDbLine
 62
7
  6
CONTINUOUS
 10
650.2402352536
 20
694.2641271371
 11
646.6402352536
 21
694.2641271371
  0
LINE
  5
615
100
AcDbEntity
  8
BASIC_DEVICE
100
AcDbLine
 62
7
  6
CONTINUOUS
 10
570.2402352536
 20
694.2641271371
 11
566.6402352536
 21
694.2641271371
  0
LINE
  5
616
100
AcDbEntity
  8
0
100
AcDbLine
 62
7
  6
CONTINUOUS
 10
373.9023958766
 20
694.9339580964
 11
159.4211774431
 21
694.9339580964
  0
LINE
  5
617
100
AcDbEntity
  8
INTER_PHASE_SCHIELDS
100
AcDbLine
 62
5
  6
CONTINUOUS
 10
571.4402352536
 20
698.4641271371
 11
573.4402352536
 21
698.4641271371
  0
LINE
  5
618
100
AcDbEntity
  8
INTER_PHASE_SCHIELDS
100
AcDbLine
 62
5
  6
CONTINUOUS
 10
651.4402352536
 20
698.4641271371
 11
653.4402352536
 21
698.4641271371
  0
LINE
  5
619
100
AcDbEntity
  8
TERMINAL_SCREEN
100
AcDbLine
 62
2
  6
CONTINUOUS
 10
472.4402352536
 20
699.7641271371
 11
752.4402352536
 21
699.7641271371
  0
LINE
  5
61A
100
AcDbEntity
  8
BASIC_DEVICE
100
AcDbLine
 62
7
  6
CONTINUOUS
 10
472.4402352536
 20
699.7641271371
 11
752.4402352536
 21
699.7641271371
  0
LINE
  5
61B
100
AcDbEntity
  8
TERMINAL_SCREEN
100
AcDbLine
 62
2
  6
CONTINUOUS
 10
472.4402352536
 20
701.7641271371
 11
752.4402352536
 21
701.7641271371
  0
LINE
  5
61C
100
AcDbEntity
  8
0
100
AcDbLine
 62
1
  6
CONTINUOUS
 10
159.4211774431
 20
704.7839580964
 11
373.9023958766
 21
704.7839580964
  0
LINE
  5
61D
100
AcDbEntity
  8
BASIC_DEVICE
100
AcDbLine
 62
1
  6
CONTINUOUS
 10
599.3381255808
 20
765.0641271371
 11
598.3381255808
 21
766.0641271371
  0
LINE
  5
61E
100
AcDbEntity
  8
H_EXTERN_HANDLE
100
AcDbLine
 62
7
  6
CONTINUOUS
 10
599.5503782706
 20
834.7641271371
 11
595.9452145564
 21
840.7641271371
  0
LINE
  5
61F
100
AcDbEntity
  8
H_EXTERN_HANDLE
100
AcDbLine
 62
7
  6
CONTINUOUS
 10
800.4490741752
 20
873.6560098169
 11
800.4490741752
 21
875.4283410792
  0
LINE
  5
620
100
AcDbEntity
  8
H_EXTERN_HANDLE
100
AcDbLine
 62
7
  6
CONTINUOUS
 10
802.4402352536
 20
921.7641271371
 11
802.4402352536
 21
873.7303961887
  0
LINE
  5
621
100
AcDbEntity
  8
H_EXTERN_HANDLE
100
AcDbLine
 62
7
  6
CONTINUOUS
 10
802.4402352536
 20
262.2220094544
 11
802.4402352536
 21
281.2220094544
  0
LINE
  5
622
100
AcDbEntity
  8
BASIC_DEVICE
100
AcDbLine
 62
7
  6
CONTINUOUS
 10
746.0024130801
 20
311.2220094544
 11
742.9713241669
 21
305.9720094544
  0
LINE
  5
623
100
AcDbEntity
  8
AM_12
100
AcDbLine
 62
4
  6
CONTINUOUS
 10
707.7934015123
 20
280.558392792
 11
711.2934015123
 21
284.058392792
  0
LINE
  5
624
100
AcDbEntity
  8
BASIC_DEVICE
100
AcDbLine
 62
7
  6
CONTINUOUS
 10
698.4402352536
 20
252.7220094544
 11
695.4402352536
 21
249.7220094544
  0
LINE
  5
625
100
AcDbEntity
  8
BASIC_DEVICE
100
AcDbLine
 62
7
  6
CONTINUOUS
 10
683.4402352536
 20
237.7220094544
 11
680.4402352536
 21
234.7220094544
  0
LINE
  5
626
100
AcDbEntity
  8
0
100
AcDbLine
 62
1
  6
CONTINUOUS
 10
159.4211774431
 20
714.6339580964
 11
373.9023958766
 21
714.6339580964
  0
LINE
  5
627
100
AcDbEntity
  8
BASIC_DEVICE
100
AcDbLine
 62
7
  6
CONTINUOUS
 10
522.4402352536
 20
717.7641271371
 11
545.4402352536
 21
717.7641271371
  0
LINE
  5
628
100
AcDbEntity
  8
0
100
AcDbLine
 62
1
  6
CONTINUOUS
 10
159.4211774431
 20
724.4839580964
 11
373.9023958766
 21
724.4839580964
  0
LINE
  5
629
100
AcDbEntity
  8
0
100
AcDbLine
 62
1
  6
CONTINUOUS
 10
159.4211774431
 20
734.3339580964
 11
373.9023958766
 21
734.3339580964
  0
LINE
  5
62A
100
AcDbEntity
  8
0
100
AcDbLine
 62
7
  6
CONTINUOUS
 10
159.4211774431
 20
744.1839580964
 11
373.9023958766
 21
744.1839580964
  0
LINE
  5
62B
100
AcDbEntity
  8
BASIC_DEVICE
100
AcDbLine
 62
7
  6
CONTINUOUS
 10
736.9091463404
 20
181.4720094544
 11
733.8780574272
 21
176.2220094544
  0
LINE
  5
62C
100
AcDbEntity
  8
BASIC_DEVICE
100
AcDbLine
 62
7
  6
CONTINUOUS
 10
742.9713241669
 20
170.9720094544
 11
746.0024130801
 21
176.2220094544
  0
LINE
  5
62D
100
AcDbEntity
  8
AM_12
100
AcDbLine
 62
4
  6
CONTINUOUS
 10
571.4281940834
 20
78.866462166
 11
574.9281940834
 21
82.366462166
  0
LINE
  5
62E
100
AcDbEntity
  8
TERMINAL_SCREEN
100
AcDbLine
 62
2
  6
CONTINUOUS
 10
752.4402352536
 20
751.7641271371
 11
472.4402352536
 21
751.7641271371
  0
LINE
  5
62F
100
AcDbEntity
  8
BASIC_DEVICE
100
AcDbLine
 62
7
  6
CONTINUOUS
 10
547.4402352536
 20
753.7641271371
 11
677.4402352536
 21
753.7641271371
  0
LINE
  5
630
100
AcDbEntity
  8
BASIC_DEVICE
100
AcDbLine
 62
1
  6
CONTINUOUS
 10
588.1535522977
 20
755.7641271371
 11
596.9965390423
 21
755.7641271371
  0
LINE
  5
631
100
AcDbEntity
  8
BASIC_DEVICE
100
AcDbLine
 62
1
  6
CONTINUOUS
 10
588.1535522977
 20
756.8641271371
 11
596.9965390423
 21
756.8641271371
  0
LINE
  5
632
100
AcDbEntity
  8
BASIC_DEVICE
100
AcDbLine
 62
1
  6
CONTINUOUS
 10
596.9965390423
 20
757.9641271371
 11
627.883931465
 21
757.9641271371
  0
LINE
  5
633
100
AcDbEntity
  8
BASIC_DEVICE
100
AcDbLine
 62
1
  6
CONTINUOUS
 10
598.3381255808
 20
766.0641271371
 11
595.2381255808
 21
766.0641271371
  0
LINE
  5
634
100
AcDbEntity
  8
BASIC_DEVICE
100
AcDbLine
 62
7
  6
CONTINUOUS
 10
604.9402352536
 20
779.7641271371
 11
619.9402352536
 21
779.7641271371
  0
LINE
  5
635
100
AcDbEntity
  8
AM_12
100
AcDbLine
 62
4
  6
CONTINUOUS
 10
651.4281940834
 20
78.866462166
 11
654.9281940834
 21
82.366462166
  0
LINE
  5
636
100
AcDbEntity
  8
H_EXTERN_HANDLE
100
AcDbLine
 62
7
  6
CONTINUOUS
 10
652.4402352536
 20
825.7641271371
 11
566.4402352536
 21
825.7641271371
  0
LINE
  5
637
100
AcDbEntity
  8
H_EXTERN_HANDLE
100
AcDbLine
 62
7
  6
CONTINUOUS
 10
802.4402352536
 20
873.7303961887
 11
800.4490741752
 21
873.6560098169
  0
LINE
  5
638
100
AcDbEntity
  8
H_EXTERN_HANDLE
100
AcDbLine
 62
7
  6
CONTINUOUS
 10
794.4490741752
 20
873.4318600803
 11
792.4579130968
 21
873.3574737085
  0
LINE
  5
639
100
AcDbEntity
  8
H_EXTERN_HANDLE
100
AcDbLine
 62
7
  6
CONTINUOUS
 10
786.4579130968
 20
873.1333239719
 11
784.4667520184
 21
873.0589376
  0
LINE
  5
63A
100
AcDbEntity
  8
H_EXTERN_HANDLE
100
AcDbLine
 62
7
  6
CONTINUOUS
 10
778.4667520184
 20
872.8347878635
 11
776.4755909399
 21
872.7604014916
  0
LINE
  5
63B
100
AcDbEntity
  8
H_EXTERN_HANDLE
100
AcDbLine
 62
7
  6
CONTINUOUS
 10
770.4755909399
 20
872.5362517551
 11
768.4844298615
 21
872.4618653832
  0
LINE
  5
63C
100
AcDbEntity
  8
H_EXTERN_HANDLE
100
AcDbLine
 62
7
  6
CONTINUOUS
 10
762.4844298615
 20
872.2377156467
 11
760.4932687831
 21
872.1633292748
  0
LINE
  5
63D
100
AcDbEntity
  8
H_EXTERN_HANDLE
100
AcDbLine
 62
7
  6
CONTINUOUS
 10
754.4932687831
 20
871.9391795383
 11
752.5021077047
 21
871.8647931664
  0
LINE
  5
63E
100
AcDbEntity
  8
H_EXTERN_HANDLE
100
AcDbLine
 62
7
  6
CONTINUOUS
 10
746.5021077047
 20
871.6406434298
 11
744.5109466262
 21
871.566257058
  0
LINE
  5
63F
100
AcDbEntity
  8
H_EXTERN_HANDLE
100
AcDbLine
 62
7
  6
CONTINUOUS
 10
738.5109466262
 20
871.3421073214
 11
736.5197855478
 21
871.2677209496
  0
LINE
  5
640
100
AcDbEntity
  8
H_EXTERN_HANDLE
100
AcDbLine
 62
7
  6
CONTINUOUS
 10
730.5197855478
 20
871.043571213
 11
728.5286244694
 21
870.9691848412
  0
LINE
  5
641
100
AcDbEntity
  8
H_EXTERN_HANDLE
100
AcDbLine
 62
7
  6
CONTINUOUS
 10
722.5286244694
 20
870.7450351046
 11
720.537463391
 21
870.6706487328
  0
LINE
  5
642
100
AcDbEntity
  8
H_EXTERN_HANDLE
100
AcDbLine
 62
7
  6
CONTINUOUS
 10
714.537463391
 20
870.4464989962
 11
712.5463023125
 21
870.3721126243
  0
LINE
  5
643
100
AcDbEntity
  8
H_EXTERN_HANDLE
100
AcDbLine
 62
7
  6
CONTINUOUS
 10
706.5463023125
 20
870.1479628878
 11
704.5551412341
 21
870.0735765159
  0
LINE
  5
644
100
AcDbEntity
  8
H_EXTERN_HANDLE
100
AcDbLine
 62
7
  6
CONTINUOUS
 10
698.5551412341
 20
869.8494267794
 11
696.5639801557
 21
869.7750404075
  0
LINE
  5
645
100
AcDbEntity
  8
H_EXTERN_HANDLE
100
AcDbLine
 62
7
  6
CONTINUOUS
 10
690.5639801557
 20
869.550890671
 11
688.5728190773
 21
869.4765042991
  0
LINE
  5
646
100
AcDbEntity
  8
H_EXTERN_HANDLE
100
AcDbLine
 62
7
  6
CONTINUOUS
 10
682.5728190773
 20
869.2523545626
 11
680.5816579988
 21
869.1779681907
  0
LINE
  5
647
100
AcDbEntity
  8
H_EXTERN_HANDLE
100
AcDbLine
 62
7
  6
CONTINUOUS
 10
674.5816579988
 20
868.9538184541
 11
672.5904969204
 21
868.8794320823
  0
LINE
  5
648
100
AcDbEntity
  8
H_EXTERN_HANDLE
100
AcDbLine
 62
7
  6
CONTINUOUS
 10
666.5904969204
 20
868.6552823457
 11
664.599335842
 21
868.5808959739
  0
LINE
  5
649
100
AcDbEntity
  8
H_EXTERN_HANDLE
100
AcDbLine
 62
7
  6
CONTINUOUS
 10
658.599335842
 20
868.3567462373
 11
656.6081747636
 21
868.2823598655
  0
LINE
  5
64A
100
AcDbEntity
  8
H_EXTERN_HANDLE
100
AcDbLine
 62
7
  6
CONTINUOUS
 10
650.6081747636
 20
868.0582101289
 11
649.4402352536
 21
868.0145779067
  0
LINE
  5
64B
100
AcDbEntity
  8
H_EXTERN_HANDLE
100
AcDbLine
 62
7
  6
CONTINUOUS
 10
652.4402352536
 20
834.7641271371
 11
599.5503782706
 21
834.7641271371
  0
LINE
  5
64C
100
AcDbEntity
  8
H_EXTERN_HANDLE
100
AcDbLine
 62
7
  6
CONTINUOUS
 10
566.4402352536
 20
840.7641271371
 11
646.4402352536
 21
840.7641271371
  0
LINE
  5
64D
100
AcDbEntity
  8
H_MOVING
100
AcDbLine
 62
1
  6
CONTINUOUS
 10
582.4402352536
 20
840.7641271371
 11
642.4402352536
 21
840.7641271371
  0
LINE
  5
64E
100
AcDbEntity
  8
H_EXTERN_HANDLE
100
AcDbLine
 62
7
  6
CONTINUOUS
 10
649.4402352536
 20
863.7641271371
 11
642.4402352536
 21
863.7641271371
  0
LINE
  5
64F
100
AcDbEntity
  8
H_MOVING
100
AcDbLine
 62
1
  6
CONTINUOUS
 10
620.9402352536
 20
863.7641271371
 11
603.9402352536
 21
863.7641271371
  0
LINE
  5
650
100
AcDbEntity
  8
H_MOVING
100
AcDbLine
 62
1
  6
CONTINUOUS
 10
622.9402355318
 20
865.2641271371
 11
620.9402352536
 21
865.2641271371
  0
LINE
  5
651
100
AcDbEntity
  8
H_MOVING
100
AcDbLine
 62
1
  6
CONTINUOUS
 10
601.9402351718
 20
865.2641285113
 11
603.9402354499
 21
865.2641282495
  0
LINE
  5
652
100
AcDbEntity
  8
H_EXTERN_HANDLE
100
AcDbLine
 62
7
  6
CONTINUOUS
 10
642.4402352536
 20
840.7641271371
 11
652.4402352536
 21
834.7641271371
  0
LINE
  5
653
100
AcDbEntity
  8
H_EXTERN_HANDLE
100
AcDbLine
 62
7
  6
CONTINUOUS
 10
599.2478368021
 20
916.2641271371
 11
610.9402352536
 21
906.2641271371
  0
LINE
  5
654
100
AcDbEntity
  8
HANDLE_FIXING_HOLES
100
AcDbLine
 62
4
  6
CONTINUOUS
 10
976.9648070913
 20
264.6300799354
 11
976.9648070913
 21
278.8139389734
  0
LINE
  5
655
100
AcDbEntity
  8
H_EXTERN_HANDLE
100
AcDbLine
 62
7
  6
CONTINUOUS
 10
640.5427262464
 20
912.2641271371
 11
676.4402352536
 21
916.2641271371
  0
LINE
  5
656
100
AcDbEntity
  8
H_MOVING
100
AcDbLine
 62
1
  6
CONTINUOUS
 10
588.1902352536
 20
866.7641271371
 11
582.4402352536
 21
866.7641271371
  0
LINE
  5
657
100
AcDbEntity
  8
H_EXTERN_HANDLE
100
AcDbLine
 62
7
  6
CONTINUOUS
 10
582.4402352536
 20
866.7641271371
 11
566.4402352536
 21
866.7641271371
  0
LINE
  5
658
100
AcDbEntity
  8
H_EXTERN_HANDLE
100
AcDbLine
 62
7
  6
CONTINUOUS
 10
594.4402352536
 20
866.7641271371
 11
630.4402352536
 21
866.7641271371
  0
LINE
  5
659
100
AcDbEntity
  8
H_MOVING
100
AcDbLine
 62
1
  6
CONTINUOUS
 10
636.6902352536
 20
866.7641271371
 11
642.4402352536
 21
866.7641271371
  0
LINE
  5
65A
100
AcDbEntity
  8
H_EXTERN_HANDLE
100
AcDbLine
 62
7
  6
CONTINUOUS
 10
574.9402352536
 20
877.2641271372
 11
566.4402352536
 21
877.2641271372
  0
LINE
  5
65B
100
AcDbEntity
  8
H_EXTERN_HANDLE
100
AcDbLine
 62
7
  6
CONTINUOUS
 10
566.4402352536
 20
902.2641271371
 11
574.9402352537
 21
902.2641271371
  0
LINE
  5
65C
100
AcDbEntity
  8
HANDLE_FIXING_HOLES
100
AcDbLine
 62
4
  6
CONTINUOUS
 10
1001.9648070913
 20
239.2750059536
 11
1001.9648070913
 21
304.6506068595
  0
LINE
  5
65D
100
AcDbEntity
  8
HANDLE_FIXING_HOLES
100
AcDbLine
 62
4
  6
CONTINUOUS
 10
1026.9648070913
 20
264.9307759752
 11
1026.9648070913
 21
278.5132429336
  0
LINE
  5
65E
100
AcDbEntity
  8
H_EXTERN_HANDLE
100
AcDbLine
 62
7
  6
CONTINUOUS
 10
676.4402352536
 20
917.0801745035
 11
802.4402352536
 21
921.7641271371
  0
LINE
  5
65F
100
AcDbEntity
  8
H_EXTERN_HANDLE
100
AcDbLine
 62
7
  6
CONTINUOUS
 10
584.3377442609
 20
906.2641271371
 11
640.5427262464
 21
906.2641271371
  0
LINE
  5
660
100
AcDbEntity
  8
H_EXTERN_HANDLE
100
AcDbLine
 62
7
  6
CONTINUOUS
 10
566.4402352536
 20
912.2641271371
 11
584.3377442609
 21
912.2641271371
  0
LINE
  5
661
100
AcDbEntity
  8
H_MOVING
100
AcDbLine
 62
1
  6
CONTINUOUS
 10
626.6902352536
 20
916.2641271371
 11
620.7317972295
 21
916.2641271371
  0
LINE
  5
662
100
AcDbEntity
  8
H_EXTERN_HANDLE
100
AcDbLine
 62
7
  6
CONTINUOUS
 10
640.0427262464
 20
916.2641271371
 11
584.8377442609
 21
916.2641271371
  0
LINE
  5
663
100
AcDbEntity
  8
H_MOVING
100
AcDbLine
 62
1
  6
CONTINUOUS
 10
598.1902352536
 20
916.2641271371
 11
604.1486732777
 21
916.2641271371
  0
LINE
  5
664
100
AcDbEntity
  8
H_MOVING
100
AcDbLine
 62
1
  6
CONTINUOUS
 10
622.6902352536
 20
917.7641271371
 11
619.9235500272
 21
917.7641271371
  0
LINE
  5
665
100
AcDbEntity
  8
H_MOVING
100
AcDbLine
 62
1
  6
CONTINUOUS
 10
604.9569204801
 20
917.7641271371
 11
602.1902352536
 21
917.7641271371
  0
LINE
  5
666
100
AcDbEntity
  8
H_EXTERN_HANDLE
100
AcDbLine
 62
7
  6
CONTINUOUS
 10
566.4402352536
 20
917.7641271371
 11
675.4402352536
 21
917.7641271371
  0
LINE
  5
667
100
AcDbEntity
  8
0
100
AcDbLine
 62
7
  6
CONTINUOUS
 10
0.0
 20
941.2759210755
 11
1116.8346603898
 21
941.2759210755
  0
LINE
  5
668
100
AcDbEntity
  8
0
100
AcDbLine
 62
7
  6
CONTINUOUS
 10
0.0
 20
941.2759210755
 11
1116.8346603898
 21
941.2759210755
  0
LINE
  5
669
100
AcDbEntity
  8
0
100
AcDbLine
 62
7
  6
CONTINUOUS
 10
1116.8346603898
 20
0.0
 11
1116.8346603898
 21
941.2759210755
  0
LINE
  5
66A
100
AcDbEntity
  8
0
100
AcDbLine
 62
7
  6
CONTINUOUS
 10
1116.8346603898
 20
0.0
 11
1116.8346603898
 21
941.2759210755
  0
ARC
  5
66B
100
AcDbEntity
  8
H_EXTERN_HANDLE
100
AcDbCircle
 62
7
  6
CONTINUOUS
 10
76.5456216713
 20
271.7220094544
 40
10.5
100
AcDbArc
 50
267.4898603379
 51
92.5101405927
  0
ARC
  5
66C
100
AcDbEntity
  8
H_EXTERN_HANDLE
100
AcDbCircle
 62
7
  6
CONTINUOUS
 10
71.0696309565
 20
271.7220094099
 40
10.2601724327
100
AcDbArc
 50
267.4898603379
 51
92.5101405927
  0
ARC
  5
66D
100
AcDbEntity
  8
H_EXTERN_HANDLE
100
AcDbCircle
 62
7
  6
CONTINUOUS
 10
48.7960724408
 20
275.9720091763
 40
10.0
100
AcDbArc
 50
90.0
 51
153.8844439374
  0
ARC
  5
66E
100
AcDbEntity
  8
H_EXTERN_HANDLE
100
AcDbCircle
 62
7
  6
CONTINUOUS
 10
78.2960724408
 20
247.4720091763
 40
10.0
100
AcDbArc
 50
0.0
 51
90.0
  0
ARC
  5
66F
100
AcDbEntity
  8
H_EXTERN_HANDLE
100
AcDbCircle
 62
7
  6
CONTINUOUS
 10
48.7960724408
 20
267.4720091763
 40
10.0
100
AcDbArc
 50
206.1155560628
 51
270.0
  0
ARC
  5
670
100
AcDbEntity
  8
H_EXTERN_HANDLE
100
AcDbCircle
 62
7
  6
CONTINUOUS
 10
42.2960724408
 20
271.7220091763
 40
9.0
100
AcDbArc
 50
92.5101405927
 51
267.4898603379
  0
ARC
  5
671
100
AcDbEntity
  8
INTER_PHASE_SCHIELDS
100
AcDbCircle
 62
5
  6
CONTINUOUS
 10
269.9960724408
 20
141.5729500436
 40
3.0
100
AcDbArc
 50
90.0
 51
180.0
  0
ARC
  5
672
100
AcDbEntity
  8
INTER_PHASE_SCHIELDS
100
AcDbCircle
 62
5
  6
CONTINUOUS
 10
269.9960724408
 20
88.2729500436
 40
3.0
100
AcDbArc
 50
180.0
 51
270.0
  0
ARC
  5
673
100
AcDbEntity
  8
H_MOVING
100
AcDbCircle
 62
1
  6
CONTINUOUS
 10
79.6318584987
 20
86.7131702547
 40
3.0
100
AcDbArc
 50
90.0
 51
270.0
  0
ARC
  5
674
100
AcDbEntity
  8
H_MOVING
100
AcDbCircle
 62
1
  6
CONTINUOUS
 10
79.9303946071
 20
94.7043313331
 40
3.0
100
AcDbArc
 50
90.0
 51
270.0
  0
ARC
  5
675
100
AcDbEntity
  8
H_MOVING
100
AcDbCircle
 62
1
  6
CONTINUOUS
 10
80.2289307156
 20
102.6954924116
 40
3.0
100
AcDbArc
 50
90.0
 51
270.0
  0
ARC
  5
676
100
AcDbEntity
  8
H_MOVING
100
AcDbCircle
 62
1
  6
CONTINUOUS
 10
80.527466824
 20
110.68665349
 40
3.0
100
AcDbArc
 50
90.0
 51
270.0
  0
ARC
  5
677
100
AcDbEntity
  8
H_MOVING
100
AcDbCircle
 62
1
  6
CONTINUOUS
 10
80.8260029324
 20
118.6778145684
 40
3.0
100
AcDbArc
 50
90.0
 51
270.0
  0
ARC
  5
678
100
AcDbEntity
  8
H_MOVING
100
AcDbCircle
 62
1
  6
CONTINUOUS
 10
81.1245390408
 20
126.6689756468
 40
3.0
100
AcDbArc
 50
90.0
 51
270.0
  0
ARC
  5
679
100
AcDbEntity
  8
H_MOVING
100
AcDbCircle
 62
1
  6
CONTINUOUS
 10
81.4230751492
 20
134.6601367253
 40
3.0
100
AcDbArc
 50
90.0
 51
270.0
  0
ARC
  5
67A
100
AcDbEntity
  8
H_MOVING
100
AcDbCircle
 62
1
  6
CONTINUOUS
 10
81.7216112576
 20
142.6512978037
 40
3.0
100
AcDbArc
 50
90.0
 51
270.0
  0
ARC
  5
67B
100
AcDbEntity
  8
H_MOVING
100
AcDbCircle
 62
1
  6
CONTINUOUS
 10
82.020147366
 20
150.6424588821
 40
3.0
100
AcDbArc
 50
90.0
 51
270.0
  0
ARC
  5
67C
100
AcDbEntity
  8
H_MOVING
100
AcDbCircle
 62
1
  6
CONTINUOUS
 10
82.3186834744
 20
158.6336199605
 40
3.0
100
AcDbArc
 50
90.0
 51
270.0
  0
ARC
  5
67D
100
AcDbEntity
  8
H_MOVING
100
AcDbCircle
 62
1
  6
CONTINUOUS
 10
82.6172195828
 20
166.624781039
 40
3.0
100
AcDbArc
 50
90.0
 51
270.0
  0
ARC
  5
67E
100
AcDbEntity
  8
H_MOVING
100
AcDbCircle
 62
1
  6
CONTINUOUS
 10
82.9157556913
 20
174.6159421174
 40
3.0
100
AcDbArc
 50
90.0
 51
270.0
  0
ARC
  5
67F
100
AcDbEntity
  8
H_MOVING
100
AcDbCircle
 62
1
  6
CONTINUOUS
 10
83.2142917997
 20
182.6071031958
 40
3.0
100
AcDbArc
 50
90.0
 51
270.0
  0
ARC
  5
680
100
AcDbEntity
  8
H_MOVING
100
AcDbCircle
 62
1
  6
CONTINUOUS
 10
83.5128279081
 20
190.5982642742
 40
3.0
100
AcDbArc
 50
90.0
 51
270.0
  0
ARC
  5
681
100
AcDbEntity
  8
H_MOVING
100
AcDbCircle
 62
1
  6
CONTINUOUS
 10
83.8113640165
 20
198.5894253527
 40
3.0
100
AcDbArc
 50
90.0
 51
270.0
  0
ARC
  5
682
100
AcDbEntity
  8
H_MOVING
100
AcDbCircle
 62
1
  6
CONTINUOUS
 10
84.1099001249
 20
206.5805864311
 40
3.0
100
AcDbArc
 50
168.6984117818
 51
270.0
  0
ARC
  5
683
100
AcDbEntity
  8
INTER_PHASE_SCHIELDS
100
AcDbCircle
 62
5
  6
CONTINUOUS
 10
263.9460724408
 20
138.7729500436
 40
2.25
100
AcDbArc
 50
180.0
 51
360.0
  0
ARC
  5
684
100
AcDbEntity
  8
INTER_PHASE_SCHIELDS
100
AcDbCircle
 62
5
  6
CONTINUOUS
 10
269.9960724408
 20
141.5729500436
 40
1.0
100
AcDbArc
 50
90.0
 51
180.0
  0
ARC
  5
685
100
AcDbEntity
  8
INTER_PHASE_SCHIELDS
100
AcDbCircle
 62
5
  6
CONTINUOUS
 10
269.9960724408
 20
88.2729500436
 40
1.0
100
AcDbArc
 50
180.0
 51
270.0
  0
ARC
  5
686
100
AcDbEntity
  8
H_EXTERN_HANDLE
100
AcDbCircle
 62
7
  6
CONTINUOUS
 10
78.2960724408
 20
295.9720091763
 40
10.0
100
AcDbArc
 50
270.0
 51
360.0
  0
ARC
  5
687
100
AcDbEntity
  8
TERMINAL_SCREEN
100
AcDbCircle
 62
2
  6
CONTINUOUS
 10
210.2960724408
 20
429.121598141
 40
7.0
100
AcDbArc
 50
180.0
 51
225.0
  0
ARC
  5
688
100
AcDbEntity
  8
TERMINAL_SCREEN
100
AcDbCircle
 62
2
  6
CONTINUOUS
 10
248.2960724408
 20
374.1510353925
 40
7.0
100
AcDbArc
 50
0.0
 51
45.0
  0
ARC
  5
689
100
AcDbEntity
  8
TERMINAL_SCREEN
100
AcDbCircle
 62
2
  6
CONTINUOUS
 10
248.2960724408
 20
374.1510353925
 40
5.0
100
AcDbArc
 50
0.0
 51
45.0
  0
ARC
  5
68A
100
AcDbEntity
  8
TERMINAL_SCREEN
100
AcDbCircle
 62
2
  6
CONTINUOUS
 10
210.2960724408
 20
429.121598141
 40
5.0
100
AcDbArc
 50
180.0
 51
225.0
  0
ARC
  5
68B
100
AcDbEntity
  8
INTER_PHASE_SCHIELDS
100
AcDbCircle
 62
5
  6
CONTINUOUS
 10
269.9960724408
 20
348.5729500436
 40
3.0
100
AcDbArc
 50
180.0
 51
270.0
  0
ARC
  5
68C
100
AcDbEntity
  8
INTER_PHASE_SCHIELDS
100
AcDbCircle
 62
5
  6
CONTINUOUS
 10
269.9960724408
 20
401.8729500436
 40
3.0
100
AcDbArc
 50
90.0
 51
180.0
  0
ARC
  5
68D
100
AcDbEntity
  8
INTER_PHASE_SCHIELDS
100
AcDbCircle
 62
5
  6
CONTINUOUS
 10
263.9460724408
 20
351.3729500436
 40
2.25
100
AcDbArc
 50
0.0
 51
180.0
  0
ARC
  5
68E
100
AcDbEntity
  8
INTER_PHASE_SCHIELDS
100
AcDbCircle
 62
5
  6
CONTINUOUS
 10
269.9960724408
 20
348.5729500436
 40
1.0
100
AcDbArc
 50
180.0
 51
270.0
  0
ARC
  5
68F
100
AcDbEntity
  8
INTER_PHASE_SCHIELDS
100
AcDbCircle
 62
5
  6
CONTINUOUS
 10
269.9960724408
 20
401.8729500436
 40
1.0
100
AcDbArc
 50
90.0
 51
180.0
  0
ARC
  5
690
100
AcDbEntity
  8
BASIC_DEVICE
100
AcDbCircle
 62
7
  6
CONTINUOUS
 10
484.9402352536
 20
156.2220094544
 40
10.0
100
AcDbArc
 50
0.0
 51
90.0
  0
CIRCLE
  5
691
100
AcDbEntity
  8
BASIC_DEVICE
100
AcDbCircle
 62
7
  6
CONTINUOUS
 10
484.9402352536
 20
176.2220094544
 40
6.5
  0
CIRCLE
  5
692
100
AcDbEntity
  8
BASIC_DEVICE
100
AcDbCircle
 62
7
  6
CONTINUOUS
 10
527.4402352536
 20
113.7211969544
 40
6.5
  0
CIRCLE
  5
693
100
AcDbEntity
  8
DEVICE_FIXING_HOLES
100
AcDbCircle
 62
1
  6
CONTINUOUS
 10
484.9402352536
 20
156.2220094544
 40
4.5
  0
CIRCLE
  5
694
100
AcDbEntity
  8
BASIC_DEVICE
100
AcDbCircle
 62
7
  6
CONTINUOUS
 10
484.9402352536
 20
156.2220094544
 40
4.5
  0
CIRCLE
  5
695
100
AcDbEntity
  8
BASIC_DEVICE
100
AcDbCircle
 62
7
  6
CONTINUOUS
 10
484.9402352536
 20
176.2220094544
 40
3.25
  0
ARC
  5
696
100
AcDbEntity
  8
INTER_PHASE_SCHIELDS
100
AcDbCircle
 62
5
  6
CONTINUOUS
 10
325.7960724408
 20
88.2729500436
 40
3.0
100
AcDbArc
 50
270.0
 51
360.0
  0
ARC
  5
697
100
AcDbEntity
  8
INTER_PHASE_SCHIELDS
100
AcDbCircle
 62
5
  6
CONTINUOUS
 10
325.7960724408
 20
141.5729500436
 40
3.0
100
AcDbArc
 50
0.0
 51
90.0
  0
ARC
  5
698
100
AcDbEntity
  8
BASIC_DEVICE
100
AcDbCircle
 62
7
  6
CONTINUOUS
 10
515.4402352536
 20
146.2220094544
 40
2.9
100
AcDbArc
 50
239.551875
 51
300.45375
  0
ARC
  5
699
100
AcDbEntity
  8
INTER_PHASE_SCHIELDS
100
AcDbCircle
 62
5
  6
CONTINUOUS
 10
331.9460724408
 20
138.7729500436
 40
2.25
100
AcDbArc
 50
180.0
 51
360.0
  0
ARC
  5
69A
100
AcDbEntity
  8
BASIC_DEVICE
100
AcDbCircle
 62
7
  6
CONTINUOUS
 10
524.4402352536
 20
225.7220094544
 40
2.0
100
AcDbArc
 50
180.0
 51
270.0
  0
ARC
  5
69B
100
AcDbEntity
  8
BASIC_DEVICE
100
AcDbCircle
 62
7
  6
CONTINUOUS
 10
524.4402352536
 20
267.7220094544
 40
2.0
100
AcDbArc
 50
90.0
 51
180.0
  0
CIRCLE
  5
69C
100
AcDbEntity
  8
BASIC_DEVICE
100
AcDbCircle
 62
7
  6
CONTINUOUS
 10
530.2902352536
 20
245.3220094544
 40
1.95
  0
CIRCLE
  5
69D
100
AcDbEntity
  8
BASIC_DEVICE
100
AcDbCircle
 62
7
  6
CONTINUOUS
 10
530.2902352536
 20
251.8220094544
 40
1.275
  0
CIRCLE
  5
69E
100
AcDbEntity
  8
BASIC_DEVICE
100
AcDbCircle
 62
7
  6
CONTINUOUS
 10
532.9902352536
 20
264.2220094544
 40
1.275
  0
ARC
  5
69F
100
AcDbEntity
  8
INTER_PHASE_SCHIELDS
100
AcDbCircle
 62
5
  6
CONTINUOUS
 10
325.7960724408
 20
88.2729500436
 40
1.0
100
AcDbArc
 50
270.0
 51
360.0
  0
ARC
  5
6A0
100
AcDbEntity
  8
INTER_PHASE_SCHIELDS
100
AcDbCircle
 62
5
  6
CONTINUOUS
 10
325.7960724408
 20
141.5729500436
 40
1.0
100
AcDbArc
 50
0.0
 51
90.0
  0
ARC
  5
6A1
100
AcDbEntity
  8
BASIC_DEVICE
100
AcDbCircle
 62
7
  6
CONTINUOUS
 10
484.9402352536
 20
331.2220094544
 40
10.0
100
AcDbArc
 50
270.0
 51
360.0
  0
CIRCLE
  5
6A2
100
AcDbEntity
  8
BASIC_DEVICE
100
AcDbCircle
 62
7
  6
CONTINUOUS
 10
484.9402352536
 20
311.2220094544
 40
6.5
  0
CIRCLE
  5
6A3
100
AcDbEntity
  8
BASIC_DEVICE
100
AcDbCircle
 62
7
  6
CONTINUOUS
 10
527.4402352536
 20
373.7220094544
 40
6.5
  0
CIRCLE
  5
6A4
100
AcDbEntity
  8
DEVICE_FIXING_HOLES
100
AcDbCircle
 62
1
  6
CONTINUOUS
 10
484.9402352536
 20
331.2220094544
 40
4.5
  0
CIRCLE
  5
6A5
100
AcDbEntity
  8
BASIC_DEVICE
100
AcDbCircle
 62
7
  6
CONTINUOUS
 10
484.9402352536
 20
331.2220094544
 40
4.5
  0
CIRCLE
  5
6A6
100
AcDbEntity
  8
BASIC_DEVICE
100
AcDbCircle
 62
7
  6
CONTINUOUS
 10
484.9402352536
 20
311.2220094544
 40
3.25
  0
ARC
  5
6A7
100
AcDbEntity
  8
INTER_PHASE_SCHIELDS
100
AcDbCircle
 62
5
  6
CONTINUOUS
 10
325.7960724408
 20
401.8729500436
 40
3.0
100
AcDbArc
 50
0.0
 51
90.0
  0
ARC
  5
6A8
100
AcDbEntity
  8
INTER_PHASE_SCHIELDS
100
AcDbCircle
 62
5
  6
CONTINUOUS
 10
325.7960724408
 20
348.5729500436
 40
3.0
100
AcDbArc
 50
270.0
 51
360.0
  0
ARC
  5
6A9
100
AcDbEntity
  8
BASIC_DEVICE
100
AcDbCircle
 62
7
  6
CONTINUOUS
 10
515.4402352536
 20
341.2220094544
 40
2.9
100
AcDbArc
 50
59.54625
 51
120.448125
  0
ARC
  5
6AA
100
AcDbEntity
  8
INTER_PHASE_SCHIELDS
100
AcDbCircle
 62
5
  6
CONTINUOUS
 10
331.9460724408
 20
351.3729500436
 40
2.25
100
AcDbArc
 50
0.0
 51
180.0
  0
CIRCLE
  5
6AB
100
AcDbEntity
  8
AM_12
100
AcDbCircle
 62
4
  6
CONTINUOUS
 10
506.5036110589
 20
380.519557579
 40
1.75
  0
CIRCLE
  5
6AC
100
AcDbEntity
  8
AM_12
100
AcDbCircle
 62
4
  6
CONTINUOUS
 10
495.8089282011
 20
474.7829483749
 40
1.75
  0
ARC
  5
6AD
100
AcDbEntity
  8
INTER_PHASE_SCHIELDS
100
AcDbCircle
 62
5
  6
CONTINUOUS
 10
325.7960724408
 20
401.8729500436
 40
1.0
100
AcDbArc
 50
0.0
 51
90.0
  0
ARC
  5
6AE
100
AcDbEntity
  8
INTER_PHASE_SCHIELDS
100
AcDbCircle
 62
5
  6
CONTINUOUS
 10
325.7960724408
 20
348.5729500436
 40
1.0
100
AcDbArc
 50
270.0
 51
360.0
  0
ARC
  5
6AF
100
AcDbEntity
  8
BASIC_DEVICE
100
AcDbCircle
 62
7
  6
CONTINUOUS
 10
739.9402352536
 20
156.2220094544
 40
10.0
100
AcDbArc
 50
90.0
 51
180.0
  0
CIRCLE
  5
6B0
100
AcDbEntity
  8
BASIC_DEVICE
100
AcDbCircle
 62
7
  6
CONTINUOUS
 10
739.9402352536
 20
176.2220094544
 40
6.5
  0
CIRCLE
  5
6B1
100
AcDbEntity
  8
BASIC_DEVICE
100
AcDbCircle
 62
7
  6
CONTINUOUS
 10
607.4402352536
 20
113.7211969544
 40
6.5
  0
CIRCLE
  5
6B2
100
AcDbEntity
  8
BASIC_DEVICE
100
AcDbCircle
 62
7
  6
CONTINUOUS
 10
687.4402352536
 20
113.7211969544
 40
6.5
  0
CIRCLE
  5
6B3
100
AcDbEntity
  8
DEVICE_FIXING_HOLES
100
AcDbCircle
 62
1
  6
CONTINUOUS
 10
739.9402352536
 20
156.2220094544
 40
4.5
  0
CIRCLE
  5
6B4
100
AcDbEntity
  8
BASIC_DEVICE
100
AcDbCircle
 62
7
  6
CONTINUOUS
 10
739.9402352536
 20
156.2220094544
 40
4.5
  0
CIRCLE
  5
6B5
100
AcDbEntity
  8
BASIC_DEVICE
100
AcDbCircle
 62
7
  6
CONTINUOUS
 10
739.9402352536
 20
176.2220094544
 40
3.25
  0
CIRCLE
  5
6B6
100
AcDbEntity
  8
BASIC_DEVICE
100
AcDbCircle
 62
7
  6
CONTINUOUS
 10
537.4402352536
 20
156.2220094544
 40
3.0
  0
CIRCLE
  5
6B7
100
AcDbEntity
  8
BASIC_DEVICE
100
AcDbCircle
 62
7
  6
CONTINUOUS
 10
687.4402352536
 20
156.2220094544
 40
3.0
  0
ARC
  5
6B8
100
AcDbEntity
  8
BASIC_DEVICE
100
AcDbCircle
 62
7
  6
CONTINUOUS
 10
539.4402352536
 20
146.2220094544
 40
2.9
100
AcDbArc
 50
239.551875
 51
300.45375
  0
ARC
  5
6B9
100
AcDbEntity
  8
BASIC_DEVICE
100
AcDbCircle
 62
7
  6
CONTINUOUS
 10
595.4402352536
 20
146.2220094544
 40
2.9
100
AcDbArc
 50
239.551875
 51
300.45375
  0
ARC
  5
6BA
100
AcDbEntity
  8
BASIC_DEVICE
100
AcDbCircle
 62
7
  6
CONTINUOUS
 10
619.4402352536
 20
146.2220094544
 40
2.9
100
AcDbArc
 50
239.551875
 51
300.45375
  0
ARC
  5
6BB
100
AcDbEntity
  8
BASIC_DEVICE
100
AcDbCircle
 62
7
  6
CONTINUOUS
 10
675.4402352536
 20
146.2220094544
 40
2.9
100
AcDbArc
 50
239.551875
 51
300.45375
  0
ARC
  5
6BC
100
AcDbEntity
  8
BASIC_DEVICE
100
AcDbCircle
 62
7
  6
CONTINUOUS
 10
699.4402352536
 20
146.2220094544
 40
2.9
100
AcDbArc
 50
239.551875
 51
300.45375
  0
CIRCLE
  5
6BD
100
AcDbEntity
  8
BASIC_DEVICE
100
AcDbCircle
 62
7
  6
CONTINUOUS
 10
537.4402352536
 20
156.2220094544
 40
2.15
  0
CIRCLE
  5
6BE
100
AcDbEntity
  8
BASIC_DEVICE
100
AcDbCircle
 62
7
  6
CONTINUOUS
 10
687.4402352536
 20
156.2220094544
 40
2.15
  0
ARC
  5
6BF
100
AcDbEntity
  8
BASIC_DEVICE
100
AcDbCircle
 62
7
  6
CONTINUOUS
 10
543.4402352536
 20
225.7220094544
 40
2.0
100
AcDbArc
 50
270.0
 51
360.0
  0
CIRCLE
  5
6C0
100
AcDbEntity
  8
BASIC_DEVICE
100
AcDbCircle
 62
7
  6
CONTINUOUS
 10
538.2902352536
 20
238.8220094544
 40
1.95
  0
CIRCLE
  5
6C1
100
AcDbEntity
  8
AM_12
100
AcDbCircle
 62
4
  6
CONTINUOUS
 10
573.1781940834
 20
80.616462166
 40
1.75
  0
CIRCLE
  5
6C2
100
AcDbEntity
  8
AM_12
100
AcDbCircle
 62
4
  6
CONTINUOUS
 10
653.1781940834
 20
80.616462166
 40
1.75
  0
CIRCLE
  5
6C3
100
AcDbEntity
  8
BASIC_DEVICE
100
AcDbCircle
 62
7
  6
CONTINUOUS
 10
537.4402352536
 20
156.2220094544
 40
1.7
  0
CIRCLE
  5
6C4
100
AcDbEntity
  8
BASIC_DEVICE
100
AcDbCircle
 62
7
  6
CONTINUOUS
 10
687.4402352536
 20
156.2220094544
 40
1.7
  0
CIRCLE
  5
6C5
100
AcDbEntity
  8
BASIC_DEVICE
100
AcDbCircle
 62
7
  6
CONTINUOUS
 10
540.5902352536
 20
229.6220094544
 40
1.275
  0
ARC
  5
6C6
100
AcDbEntity
  8
BASIC_DEVICE
100
AcDbCircle
 62
7
  6
CONTINUOUS
 10
564.9402352536
 20
142.7220094544
 40
1.0
100
AcDbArc
 50
90.0
 51
180.0
  0
ARC
  5
6C7
100
AcDbEntity
  8
BASIC_DEVICE
100
AcDbCircle
 62
7
  6
CONTINUOUS
 10
559.2402352536
 20
142.7220094544
 40
1.0
100
AcDbArc
 50
0.0
 51
90.0
  0
ARC
  5
6C8
100
AcDbEntity
  8
BASIC_DEVICE
100
AcDbCircle
 62
7
  6
CONTINUOUS
 10
565.6402352536
 20
142.7220094544
 40
1.0
100
AcDbArc
 50
0.0
 51
90.0
  0
ARC
  5
6C9
100
AcDbEntity
  8
BASIC_DEVICE
100
AcDbCircle
 62
7
  6
CONTINUOUS
 10
581.9402352536
 20
142.7220094544
 40
1.0
100
AcDbArc
 50
90.0
 51
180.0
  0
ARC
  5
6CA
100
AcDbEntity
  8
BASIC_DEVICE
100
AcDbCircle
 62
7
  6
CONTINUOUS
 10
576.2402352536
 20
142.7220094544
 40
1.0
100
AcDbArc
 50
0.0
 51
90.0
  0
ARC
  5
6CB
100
AcDbEntity
  8
BASIC_DEVICE
100
AcDbCircle
 62
7
  6
CONTINUOUS
 10
639.2402352536
 20
142.7220094544
 40
1.0
100
AcDbArc
 50
0.0
 51
90.0
  0
ARC
  5
6CC
100
AcDbEntity
  8
BASIC_DEVICE
100
AcDbCircle
 62
7
  6
CONTINUOUS
 10
661.9402352536
 20
142.7220094544
 40
1.0
100
AcDbArc
 50
90.0
 51
180.0
  0
ARC
  5
6CD
100
AcDbEntity
  8
BASIC_DEVICE
100
AcDbCircle
 62
7
  6
CONTINUOUS
 10
656.2402352536
 20
142.7220094544
 40
1.0
100
AcDbArc
 50
0.0
 51
90.0
  0
ARC
  5
6CE
100
AcDbEntity
  8
BASIC_DEVICE
100
AcDbCircle
 62
7
  6
CONTINUOUS
 10
645.6402352536
 20
142.7220094544
 40
1.0
100
AcDbArc
 50
0.0
 51
90.0
  0
ARC
  5
6CF
100
AcDbEntity
  8
BASIC_DEVICE
100
AcDbCircle
 62
7
  6
CONTINUOUS
 10
644.9402352536
 20
142.7220094544
 40
1.0
100
AcDbArc
 50
90.0
 51
180.0
  0
ARC
  5
6D0
100
AcDbEntity
  8
H_MOVING
100
AcDbCircle
 62
1
  6
CONTINUOUS
 10
621.9402352536
 20
83.7220094544
 40
1.0
100
AcDbArc
 50
270.0
 51
360.0
  0
ARC
  5
6D1
100
AcDbEntity
  8
H_MOVING
100
AcDbCircle
 62
1
  6
CONTINUOUS
 10
602.9402352536
 20
83.7220094544
 40
1.0
100
AcDbArc
 50
180.0
 51
270.0
  0
ARC
  5
6D2
100
AcDbEntity
  8
BASIC_DEVICE
100
AcDbCircle
 62
7
  6
CONTINUOUS
 10
570.9402352536
 20
143.0220094544
 40
0.7
100
AcDbArc
 50
90.0
 51
180.0
  0
ARC
  5
6D3
100
AcDbEntity
  8
BASIC_DEVICE
100
AcDbCircle
 62
7
  6
CONTINUOUS
 10
650.9402352536
 20
143.0220094544
 40
0.7
100
AcDbArc
 50
90.0
 51
180.0
  0
ARC
  5
6D4
100
AcDbEntity
  8
BASIC_DEVICE
100
AcDbCircle
 62
7
  6
CONTINUOUS
 10
608.9402352536
 20
240.4170577694
 40
0.5
100
AcDbArc
 50
180.0000000005
 51
263.6206297911
  0
ARC
  5
6D5
100
AcDbEntity
  8
H_EXTERN_HANDLE
100
AcDbCircle
 62
7
  6
CONTINUOUS
 10
612.4402352536
 20
271.7220094544
 40
40.0
100
AcDbArc
 50
90.0
 51
164.7815448422
  0
ARC
  5
6D6
100
AcDbEntity
  8
H_EXTERN_HANDLE
100
AcDbCircle
 62
7
  6
CONTINUOUS
 10
612.4402352536
 20
271.7220094544
 40
40.0
100
AcDbArc
 50
195.2184551578
 51
344.7815448422
  0
ARC
  5
6D7
100
AcDbEntity
  8
H_EXTERN_HANDLE
100
AcDbCircle
 62
3
  6
CONTINUOUS
 10
612.4402352536
 20
271.7220094544
 40
39.5
100
AcDbArc
 50
195.4158485295
 51
245.0
  0
ARC
  5
6D8
100
AcDbEntity
  8
H_EXTERN_HANDLE
100
AcDbCircle
 62
3
  6
CONTINUOUS
 10
612.4402352536
 20
271.7220094544
 40
39.5
100
AcDbArc
 50
135.7252824015
 51
164.5841514705
  0
ARC
  5
6D9
100
AcDbEntity
  8
H_EXTERN_HANDLE
100
AcDbCircle
 62
1
  6
CONTINUOUS
 10
612.4402352536
 20
271.7220094544
 40
39.5
100
AcDbArc
 50
90.0
 51
134.2747175986
  0
ARC
  5
6DA
100
AcDbEntity
  8
BASIC_DEVICE
100
AcDbCircle
 62
7
  6
CONTINUOUS
 10
612.4402352539
 20
271.7220094544
 40
32.0
100
AcDbArc
 50
263.6206297911
 51
351.7867892983
  0
ARC
  5
6DB
100
AcDbEntity
  8
H_EXTERN_HANDLE
100
AcDbCircle
 62
3
  6
CONTINUOUS
 10
612.4402352536
 20
271.7220094544
 40
30.5
100
AcDbArc
 50
200.1367700284
 51
245.0
  0
ARC
  5
6DC
100
AcDbEntity
  8
H_EXTERN_HANDLE
100
AcDbCircle
 62
3
  6
CONTINUOUS
 10
612.4402352536
 20
271.7220094544
 40
30.5
100
AcDbArc
 50
135.93931715
 51
159.8632299717
  0
ARC
  5
6DD
100
AcDbEntity
  8
H_EXTERN_HANDLE
100
AcDbCircle
 62
1
  6
CONTINUOUS
 10
612.4402352536
 20
271.7220094544
 40
30.5
100
AcDbArc
 50
90.0
 51
134.06068285
  0
ARC
  5
6DE
100
AcDbEntity
  8
H_EXTERN_HANDLE
100
AcDbCircle
 62
7
  6
CONTINUOUS
 10
612.4402352536
 20
271.7220094544
 40
30.0
100
AcDbArc
 50
208.3593500282
 51
331.6406499718
  0
ARC
  5
6DF
100
AcDbEntity
  8
H_EXTERN_HANDLE
100
AcDbCircle
 62
7
  6
CONTINUOUS
 10
612.4402352536
 20
271.7220094544
 40
30.0
100
AcDbArc
 50
332.0471134109
 51
339.5126848853
  0
ARC
  5
6E0
100
AcDbEntity
  8
H_EXTERN_HANDLE
100
AcDbCircle
 62
7
  6
CONTINUOUS
 10
612.4402352536
 20
271.7220094544
 40
30.0
100
AcDbArc
 50
28.3593500282
 51
151.6406499718
  0
ARC
  5
6E1
100
AcDbEntity
  8
BASIC_DEVICE
100
AcDbCircle
 62
7
  6
CONTINUOUS
 10
612.4402352536
 20
271.7220094544
 40
24.0
100
AcDbArc
 50
261.7867892983
 51
349.4161974035
  0
ARC
  5
6E2
100
AcDbEntity
  8
BASIC_DEVICE
100
AcDbCircle
 62
1
  6
CONTINUOUS
 10
612.4402352536
 20
271.7220094544
 40
15.6
100
AcDbArc
 50
6.6258095648
 51
170.6238852948
  0
ARC
  5
6E3
100
AcDbEntity
  8
BASIC_DEVICE
100
AcDbCircle
 62
1
  6
CONTINUOUS
 10
612.4402352536
 20
271.7220094544
 40
15.6
100
AcDbArc
 50
189.3761147052
 51
353.3741904352
  0
ARC
  5
6E4
100
AcDbEntity
  8
H_EXTERN_HANDLE
100
AcDbCircle
 62
7
  6
CONTINUOUS
 10
612.4402352536
 20
271.7220094544
 40
14.25
100
AcDbArc
 50
30.4949678748
 51
149.5050321252
  0
ARC
  5
6E5
100
AcDbEntity
  8
H_EXTERN_HANDLE
100
AcDbCircle
 62
7
  6
CONTINUOUS
 10
612.4402352536
 20
271.7220094544
 40
14.25
100
AcDbArc
 50
210.4949678748
 51
329.5050321252
  0
ARC
  5
6E6
100
AcDbEntity
  8
H_EXTERN_HANDLE
100
AcDbCircle
 62
7
  6
CONTINUOUS
 10
609.4402352536
 20
271.7220094544
 40
10.25
100
AcDbArc
 50
219.6650129075
 51
320.3349870925
  0
ARC
  5
6E7
100
AcDbEntity
  8
H_EXTERN_HANDLE
100
AcDbCircle
 62
7
  6
CONTINUOUS
 10
609.4402352536
 20
271.7220094544
 40
10.25
100
AcDbArc
 50
39.6650129077
 51
140.3349870923
  0
CIRCLE
  5
6E8
100
AcDbEntity
  8
BASIC_DEVICE
100
AcDbCircle
 62
1
  6
CONTINUOUS
 10
596.8402352536
 20
271.7220094544
 40
2.55
  0
LWPOLYLINE
  5
6E9
100
AcDbEntity
  8
TEXT
100
AcDbPolyline
 62
2
  6
CONTINUOUS
 90
2
 70
1
 43
1.0
 10
575.1353850223
 20
271.7220094544
 42
1.0
 10
580.1353850223
 20
271.7220094544
 42
1.0
  0
ARC
  5
6EA
100
AcDbEntity
  8
H_EXTERN_HANDLE
100
AcDbCircle
 62
7
  6
CONTINUOUS
 10
598.0072002298
 20
280.2220094544
 40
2.5
100
AcDbArc
 50
270.0
 51
329.5050321252
  0
ARC
  5
6EB
100
AcDbEntity
  8
H_EXTERN_HANDLE
100
AcDbCircle
 62
7
  6
CONTINUOUS
 10
626.8732702775
 20
280.2220094544
 40
2.5
100
AcDbArc
 50
210.4949678747
 51
269.9999999999
  0
ARC
  5
6EC
100
AcDbEntity
  8
H_EXTERN_HANDLE
100
AcDbCircle
 62
7
  6
CONTINUOUS
 10
626.8732702775
 20
263.2220094544
 40
2.5
100
AcDbArc
 50
90.0000000002
 51
149.5050321252
  0
ARC
  5
6ED
100
AcDbEntity
  8
H_EXTERN_HANDLE
100
AcDbCircle
 62
7
  6
CONTINUOUS
 10
598.0072002298
 20
263.2220094544
 40
2.5
100
AcDbArc
 50
30.4949678746
 51
89.9999999997
  0
ARC
  5
6EE
100
AcDbEntity
  8
BASIC_DEVICE
100
AcDbCircle
 62
7
  6
CONTINUOUS
 10
543.4402352536
 20
267.7220094544
 40
2.0
100
AcDbArc
 50
0.0
 51
90.0
  0
CIRCLE
  5
6EF
100
AcDbEntity
  8
BASIC_DEVICE
100
AcDbCircle
 62
1
  6
CONTINUOUS
 10
596.8402352536
 20
271.7220094544
 40
1.55
  0
ARC
  5
6F0
100
AcDbEntity
  8
H_EXTERN_HANDLE
100
AcDbCircle
 62
7
  6
CONTINUOUS
 10
600.3952089961
 20
264.2220094544
 40
1.5
100
AcDbArc
 50
39.6650129075
 51
89.9999999999
  0
ARC
  5
6F1
100
AcDbEntity
  8
H_EXTERN_HANDLE
100
AcDbCircle
 62
7
  6
CONTINUOUS
 10
618.4852615112
 20
264.2220094544
 40
1.5
100
AcDbArc
 50
90.0
 51
140.3349870925
  0
ARC
  5
6F2
100
AcDbEntity
  8
H_EXTERN_HANDLE
100
AcDbCircle
 62
7
  6
CONTINUOUS
 10
618.4852615112
 20
279.2220094544
 40
1.5
100
AcDbArc
 50
219.6650129077
 51
269.9999999999
  0
ARC
  5
6F3
100
AcDbEntity
  8
H_EXTERN_HANDLE
100
AcDbCircle
 62
7
  6
CONTINUOUS
 10
600.3952089961
 20
279.2220094544
 40
1.5
100
AcDbArc
 50
270.0
 51
320.3349870923
  0
ARC
  5
6F4
100
AcDbEntity
  8
H_EXTERN_HANDLE
100
AcDbCircle
 62
7
  6
CONTINUOUS
 10
567.4402352536
 20
281.2220094544
 40
1.0
100
AcDbArc
 50
90.0
 51
180.0
  0
ARC
  5
6F5
100
AcDbEntity
  8
H_EXTERN_HANDLE
100
AcDbCircle
 62
7
  6
CONTINUOUS
 10
567.4402352536
 20
262.2220094544
 40
1.0
100
AcDbArc
 50
180.0
 51
270.0
  0
ARC
  5
6F6
100
AcDbEntity
  8
BASIC_DEVICE
100
AcDbCircle
 62
7
  6
CONTINUOUS
 10
636.6107752457
 20
267.1168251209
 40
0.6114558412
100
AcDbArc
 50
98.2132107016
 51
161.2029867018
  0
ARC
  5
6F7
100
AcDbEntity
  8
BASIC_DEVICE
100
AcDbCircle
 62
7
  6
CONTINUOUS
 10
608.9402352536
 20
247.4732981482
 40
0.5
100
AcDbArc
 50
81.7867892983
 51
180.0
  0
CIRCLE
  5
6F8
100
AcDbEntity
  8
BASIC_DEVICE
100
AcDbCircle
 62
7
  6
CONTINUOUS
 10
607.4402352536
 20
373.7220094544
 40
6.5
  0
CIRCLE
  5
6F9
100
AcDbEntity
  8
BASIC_DEVICE
100
AcDbCircle
 62
7
  6
CONTINUOUS
 10
537.4402352536
 20
331.2220094544
 40
3.0
  0
ARC
  5
6FA
100
AcDbEntity
  8
BASIC_DEVICE
100
AcDbCircle
 62
7
  6
CONTINUOUS
 10
539.4402352536
 20
341.2220094544
 40
2.9
100
AcDbArc
 50
59.54625
 51
120.448125
  0
ARC
  5
6FB
100
AcDbEntity
  8
BASIC_DEVICE
100
AcDbCircle
 62
7
  6
CONTINUOUS
 10
595.4402352536
 20
341.2220094544
 40
2.9
100
AcDbArc
 50
59.54625
 51
120.448125
  0
ARC
  5
6FC
100
AcDbEntity
  8
BASIC_DEVICE
100
AcDbCircle
 62
7
  6
CONTINUOUS
 10
619.4402352536
 20
341.2220094544
 40
2.9
100
AcDbArc
 50
59.54625
 51
120.448125
  0
CIRCLE
  5
6FD
100
AcDbEntity
  8
TERMINAL_SCREEN
100
AcDbCircle
 62
2
  6
CONTINUOUS
 10
537.4402352536
 20
331.2220094544
 40
2.25
  0
CIRCLE
  5
6FE
100
AcDbEntity
  8
BASIC_DEVICE
100
AcDbCircle
 62
7
  6
CONTINUOUS
 10
537.4402352536
 20
331.2220094544
 40
2.15
  0
CIRCLE
  5
6FF
100
AcDbEntity
  8
AM_12
100
AcDbCircle
 62
4
  6
CONTINUOUS
 10
573.1781940834
 20
406.8275567428
 40
1.75
  0
CIRCLE
  5
700
100
AcDbEntity
  8
BASIC_DEVICE
100
AcDbCircle
 62
7
  6
CONTINUOUS
 10
537.4402352536
 20
331.2220094544
 40
1.7
  0
ARC
  5
701
100
AcDbEntity
  8
BASIC_DEVICE
100
AcDbCircle
 62
7
  6
CONTINUOUS
 10
564.7402352536
 20
344.7220094544
 40
1.0
100
AcDbArc
 50
180.0
 51
270.0
  0
ARC
  5
702
100
AcDbEntity
  8
BASIC_DEVICE
100
AcDbCircle
 62
7
  6
CONTINUOUS
 10
559.2402352536
 20
344.7220094544
 40
1.0
100
AcDbArc
 50
270.0
 51
360.0
  0
ARC
  5
703
100
AcDbEntity
  8
BASIC_DEVICE
100
AcDbCircle
 62
7
  6
CONTINUOUS
 10
565.6402352536
 20
344.7220094544
 40
1.0
100
AcDbArc
 50
270.0
 51
360.0
  0
ARC
  5
704
100
AcDbEntity
  8
BASIC_DEVICE
100
AcDbCircle
 62
7
  6
CONTINUOUS
 10
581.9402352536
 20
344.7220094544
 40
1.0
100
AcDbArc
 50
180.0
 51
270.0
  0
ARC
  5
705
100
AcDbEntity
  8
BASIC_DEVICE
100
AcDbCircle
 62
7
  6
CONTINUOUS
 10
576.2402352536
 20
344.7220094544
 40
1.0
100
AcDbArc
 50
270.0
 51
360.0
  0
ARC
  5
706
100
AcDbEntity
  8
BASIC_DEVICE
100
AcDbCircle
 62
7
  6
CONTINUOUS
 10
570.9402352536
 20
344.4220094544
 40
0.7
100
AcDbArc
 50
180.0
 51
270.0
  0
CIRCLE
  5
707
100
AcDbEntity
  8
BASIC_DEVICE
100
AcDbCircle
 62
7
  6
CONTINUOUS
 10
739.9402352536
 20
311.2220094544
 40
6.5
  0
CIRCLE
  5
708
100
AcDbEntity
  8
BASIC_DEVICE
100
AcDbCircle
 62
7
  6
CONTINUOUS
 10
739.9402352536
 20
311.2220094544
 40
3.25
  0
CIRCLE
  5
709
100
AcDbEntity
  8
AM_12
100
AcDbCircle
 62
4
  6
CONTINUOUS
 10
709.5434015123
 20
282.308392792
 40
1.75
  0
ARC
  5
70A
100
AcDbEntity
  8
BASIC_DEVICE
100
AcDbCircle
 62
7
  6
CONTINUOUS
 10
643.6171497901
 20
267.2220094544
 40
0.5
100
AcDbArc
 50
351.7867892983
 51
90.0
  0
ARC
  5
70B
100
AcDbEntity
  8
BASIC_DEVICE
100
AcDbCircle
 62
7
  6
CONTINUOUS
 10
739.9402352536
 20
331.2220094544
 40
10.0
100
AcDbArc
 50
180.0
 51
270.0
  0
CIRCLE
  5
70C
100
AcDbEntity
  8
BASIC_DEVICE
100
AcDbCircle
 62
7
  6
CONTINUOUS
 10
687.4402352536
 20
373.7220094544
 40
6.5
  0
CIRCLE
  5
70D
100
AcDbEntity
  8
DEVICE_FIXING_HOLES
100
AcDbCircle
 62
1
  6
CONTINUOUS
 10
739.9402352536
 20
331.2220094544
 40
4.5
  0
CIRCLE
  5
70E
100
AcDbEntity
  8
BASIC_DEVICE
100
AcDbCircle
 62
7
  6
CONTINUOUS
 10
739.9402352536
 20
331.2220094544
 40
4.5
  0
CIRCLE
  5
70F
100
AcDbEntity
  8
BASIC_DEVICE
100
AcDbCircle
 62
7
  6
CONTINUOUS
 10
687.4402352536
 20
331.2220094544
 40
3.0
  0
ARC
  5
710
100
AcDbEntity
  8
BASIC_DEVICE
100
AcDbCircle
 62
7
  6
CONTINUOUS
 10
675.4402352536
 20
341.2220094544
 40
2.9
100
AcDbArc
 50
59.54625
 51
120.448125
  0
ARC
  5
711
100
AcDbEntity
  8
BASIC_DEVICE
100
AcDbCircle
 62
7
  6
CONTINUOUS
 10
699.4402352536
 20
341.2220094544
 40
2.9
100
AcDbArc
 50
59.54625
 51
120.448125
  0
CIRCLE
  5
712
100
AcDbEntity
  8
TERMINAL_SCREEN
100
AcDbCircle
 62
2
  6
CONTINUOUS
 10
687.4402352536
 20
331.2220094544
 40
2.25
  0
CIRCLE
  5
713
100
AcDbEntity
  8
BASIC_DEVICE
100
AcDbCircle
 62
7
  6
CONTINUOUS
 10
687.4402352536
 20
331.2220094544
 40
2.15
  0
CIRCLE
  5
714
100
AcDbEntity
  8
AM_12
100
AcDbCircle
 62
4
  6
CONTINUOUS
 10
653.1781940834
 20
406.8275567428
 40
1.75
  0
CIRCLE
  5
715
100
AcDbEntity
  8
BASIC_DEVICE
100
AcDbCircle
 62
7
  6
CONTINUOUS
 10
687.4402352536
 20
331.2220094544
 40
1.7
  0
ARC
  5
716
100
AcDbEntity
  8
BASIC_DEVICE
100
AcDbCircle
 62
7
  6
CONTINUOUS
 10
639.2402352536
 20
344.7220094544
 40
1.0
100
AcDbArc
 50
270.0
 51
360.0
  0
ARC
  5
717
100
AcDbEntity
  8
BASIC_DEVICE
100
AcDbCircle
 62
7
  6
CONTINUOUS
 10
661.9402352536
 20
344.7220094544
 40
1.0
100
AcDbArc
 50
180.0
 51
270.0
  0
ARC
  5
718
100
AcDbEntity
  8
BASIC_DEVICE
100
AcDbCircle
 62
7
  6
CONTINUOUS
 10
656.2402352536
 20
344.7220094544
 40
1.0
100
AcDbArc
 50
270.0
 51
360.0
  0
ARC
  5
719
100
AcDbEntity
  8
BASIC_DEVICE
100
AcDbCircle
 62
7
  6
CONTINUOUS
 10
645.6402352536
 20
344.7220094544
 40
1.0
100
AcDbArc
 50
270.0
 51
360.0
  0
ARC
  5
71A
100
AcDbEntity
  8
BASIC_DEVICE
100
AcDbCircle
 62
7
  6
CONTINUOUS
 10
644.9402352536
 20
344.7220094544
 40
1.0
100
AcDbArc
 50
180.0
 51
270.0
  0
ARC
  5
71B
100
AcDbEntity
  8
BASIC_DEVICE
100
AcDbCircle
 62
7
  6
CONTINUOUS
 10
650.9402352536
 20
344.4220094544
 40
0.7
100
AcDbArc
 50
180.0
 51
270.0
  0
CIRCLE
  5
71C
100
AcDbEntity
  8
HANDLE_FIXING_HOLES
100
AcDbCircle
 62
1
  6
CONTINUOUS
 10
1001.9648070913
 20
271.7220094544
 40
15.5
  0
CIRCLE
  5
71D
100
AcDbEntity
  8
HANDLE_FIXING_HOLES
100
AcDbCircle
 62
1
  6
CONTINUOUS
 10
1001.9648070913
 20
246.7220094544
 40
2.25
  0
CIRCLE
  5
71E
100
AcDbEntity
  8
HANDLE_FIXING_HOLES
100
AcDbCircle
 62
1
  6
CONTINUOUS
 10
1001.9648070913
 20
296.7220094544
 40
2.25
  0
CIRCLE
  5
71F
100
AcDbEntity
  8
HANDLE_FIXING_HOLES
100
AcDbCircle
 62
1
  6
CONTINUOUS
 10
976.9648070913
 20
271.7220094544
 40
2.25
  0
CIRCLE
  5
720
100
AcDbEntity
  8
HANDLE_FIXING_HOLES
100
AcDbCircle
 62
1
  6
CONTINUOUS
 10
1026.9648070913
 20
271.7220094544
 40
2.25
  0
ARC
  5
721
100
AcDbEntity
  8
H_EXTERN_HANDLE
100
AcDbCircle
 62
7
  6
CONTINUOUS
 10
801.4402352536
 20
262.2220094544
 40
1.0
100
AcDbArc
 50
270.0
 51
360.0
  0
ARC
  5
722
100
AcDbEntity
  8
H_EXTERN_HANDLE
100
AcDbCircle
 62
7
  6
CONTINUOUS
 10
801.4402352536
 20
281.2220094544
 40
1.0
100
AcDbArc
 50
0.0
 51
90.0
  0
ARC
  5
723
100
AcDbEntity
  8
BASIC_DEVICE
100
AcDbCircle
 62
7
  6
CONTINUOUS
 10
575.9902352536
 20
662.0453771371
 40
1.28125
100
AcDbArc
 50
270.0
 51
347.3196165084
  0
ARC
  5
724
100
AcDbEntity
  8
BASIC_DEVICE
100
AcDbCircle
 62
7
  6
CONTINUOUS
 10
638.9902352536
 20
662.0453771371
 40
1.28125
100
AcDbArc
 50
270.0
 51
347.3196165081
  0
ARC
  5
725
100
AcDbEntity
  8
BASIC_DEVICE
100
AcDbCircle
 62
7
  6
CONTINUOUS
 10
655.9902352536
 20
662.0453771371
 40
1.28125
100
AcDbArc
 50
270.0
 51
347.3196165082
  0
ARC
  5
726
100
AcDbEntity
  8
BASIC_DEVICE
100
AcDbCircle
 62
7
  6
CONTINUOUS
 10
661.9652352536
 20
661.7641271371
 40
1.025
100
AcDbArc
 50
180.0
 51
282.6803834918
  0
ARC
  5
727
100
AcDbEntity
  8
BASIC_DEVICE
100
AcDbCircle
 62
7
  6
CONTINUOUS
 10
645.6402352536
 20
698.7641271371
 40
1.0
100
AcDbArc
 50
0.0
 51
90.0
  0
ARC
  5
728
100
AcDbEntity
  8
BASIC_DEVICE
100
AcDbCircle
 62
7
  6
CONTINUOUS
 10
565.6402352536
 20
698.7641271371
 40
1.0
100
AcDbArc
 50
0.0
 51
90.0
  0
ARC
  5
729
100
AcDbEntity
  8
BASIC_DEVICE
100
AcDbCircle
 62
7
  6
CONTINUOUS
 10
662.1902352536
 20
661.7641271371
 40
1.0
100
AcDbArc
 50
180.0
 51
270.0
  0
ARC
  5
72A
100
AcDbEntity
  8
BASIC_DEVICE
100
AcDbCircle
 62
7
  6
CONTINUOUS
 10
655.9902352536
 20
661.7641271371
 40
1.0
100
AcDbArc
 50
269.9999999999
 51
360.0
  0
ARC
  5
72B
100
AcDbEntity
  8
BASIC_DEVICE
100
AcDbCircle
 62
7
  6
CONTINUOUS
 10
645.1902352536
 20
661.7641271371
 40
1.0
100
AcDbArc
 50
180.0
 51
270.0
  0
ARC
  5
72C
100
AcDbEntity
  8
BASIC_DEVICE
100
AcDbCircle
 62
7
  6
CONTINUOUS
 10
638.9902352536
 20
661.7641271371
 40
1.0
100
AcDbArc
 50
269.9999999999
 51
360.0
  0
ARC
  5
72D
100
AcDbEntity
  8
BASIC_DEVICE
100
AcDbCircle
 62
7
  6
CONTINUOUS
 10
582.1902352536
 20
661.7641271371
 40
1.0
100
AcDbArc
 50
180.0000000001
 51
270.0
  0
ARC
  5
72E
100
AcDbEntity
  8
BASIC_DEVICE
100
AcDbCircle
 62
7
  6
CONTINUOUS
 10
575.9902352536
 20
661.7641271371
 40
1.0
100
AcDbArc
 50
270.0
 51
360.0
  0
ARC
  5
72F
100
AcDbEntity
  8
BASIC_DEVICE
100
AcDbCircle
 62
7
  6
CONTINUOUS
 10
558.9902352536
 20
661.7641271371
 40
1.0
100
AcDbArc
 50
269.9999999997
 51
360.0
  0
ARC
  5
730
100
AcDbEntity
  8
BASIC_DEVICE
100
AcDbCircle
 62
7
  6
CONTINUOUS
 10
559.2402352536
 20
661.7641271371
 40
1.0
100
AcDbArc
 50
270.0000000001
 51
359.9999999999
  0
ARC
  5
731
100
AcDbEntity
  8
BASIC_DEVICE
100
AcDbCircle
 62
7
  6
CONTINUOUS
 10
564.9402352536
 20
661.7641271371
 40
1.0
100
AcDbArc
 50
180.0
 51
270.0
  0
ARC
  5
732
100
AcDbEntity
  8
BASIC_DEVICE
100
AcDbCircle
 62
7
  6
CONTINUOUS
 10
581.9402352536
 20
661.7641271371
 40
1.0
100
AcDbArc
 50
180.0
 51
270.0
  0
ARC
  5
733
100
AcDbEntity
  8
BASIC_DEVICE
100
AcDbCircle
 62
7
  6
CONTINUOUS
 10
644.9402352536
 20
661.7641271371
 40
1.0
100
AcDbArc
 50
180.0
 51
270.0
  0
ARC
  5
734
100
AcDbEntity
  8
BASIC_DEVICE
100
AcDbCircle
 62
7
  6
CONTINUOUS
 10
564.9402352536
 20
661.5453771371
 40
0.78125
100
AcDbArc
 50
163.7397952919
 51
270.0
  0
ARC
  5
735
100
AcDbEntity
  8
BASIC_DEVICE
100
AcDbCircle
 62
7
  6
CONTINUOUS
 10
650.9402352536
 20
699.0641271371
 40
0.7
100
AcDbArc
 50
90.0
 51
180.0
  0
ARC
  5
736
100
AcDbEntity
  8
BASIC_DEVICE
100
AcDbCircle
 62
7
  6
CONTINUOUS
 10
570.9402352536
 20
699.0641271371
 40
0.7
100
AcDbArc
 50
90.0
 51
180.0
  0
ARC
  5
737
100
AcDbEntity
  8
H_MOVING
100
AcDbCircle
 62
1
  6
CONTINUOUS
 10
612.4402355318
 20
878.5145779067
 40
10.5
100
AcDbArc
 50
177.4898603379
 51
2.5101405927
  0
ARC
  5
738
100
AcDbEntity
  8
H_MOVING
100
AcDbCircle
 62
1
  6
CONTINUOUS
 10
612.4402354873
 20
883.9905686215
 40
10.2601724327
100
AcDbArc
 50
177.4898603379
 51
2.5101405927
  0
ARC
  5
739
100
AcDbEntity
  8
H_MOVING
100
AcDbCircle
 62
1
  6
CONTINUOUS
 10
608.1902352536
 20
906.2641271371
 40
10.0
100
AcDbArc
 50
116.1155560628
 51
180.0
  0
ARC
  5
73A
100
AcDbEntity
  8
H_MOVING
100
AcDbCircle
 62
1
  6
CONTINUOUS
 10
616.6902352536
 20
906.2641271371
 40
10.0
100
AcDbArc
 50
0.0
 51
63.8844439374
  0
ARC
  5
73B
100
AcDbEntity
  8
H_MOVING
100
AcDbCircle
 62
1
  6
CONTINUOUS
 10
588.1902352536
 20
876.7641271371
 40
10.0
100
AcDbArc
 50
270.0
 51
360.0
  0
ARC
  5
73C
100
AcDbEntity
  8
H_MOVING
100
AcDbCircle
 62
1
  6
CONTINUOUS
 10
636.6902352536
 20
876.7641271371
 40
10.0
100
AcDbArc
 50
180.0
 51
270.0
  0
ARC
  5
73D
100
AcDbEntity
  8
H_MOVING
100
AcDbCircle
 62
1
  6
CONTINUOUS
 10
612.4402352536
 20
912.7641271371
 40
9.0
100
AcDbArc
 50
2.5101405927
 51
177.4898603379
  0
ARC
  5
73E
100
AcDbEntity
  8
H_EXTERN_HANDLE
100
AcDbCircle
 62
7
  6
CONTINUOUS
 10
594.4402352536
 20
875.2641271371
 40
8.5
100
AcDbArc
 50
180.0
 51
270.0
  0
ARC
  5
73F
100
AcDbEntity
  8
H_EXTERN_HANDLE
100
AcDbCircle
 62
7
  6
CONTINUOUS
 10
630.4402352536
 20
875.2641271371
 40
8.5
100
AcDbArc
 50
270.0
 51
360.0
  0
ARC
  5
740
100
AcDbEntity
  8
H_EXTERN_HANDLE
100
AcDbCircle
 62
7
  6
CONTINUOUS
 10
574.9402352536
 20
897.7641271371
 40
4.5
100
AcDbArc
 50
0.0
 51
89.9999999993
  0
ARC
  5
741
100
AcDbEntity
  8
H_EXTERN_HANDLE
100
AcDbCircle
 62
7
  6
CONTINUOUS
 10
574.9402352536
 20
881.7641271372
 40
4.5
100
AcDbArc
 50
269.9999999994
 51
360.0
  0
ARC
  5
742
100
AcDbEntity
  8
H_EXTERN_HANDLE
100
AcDbCircle
 62
7
  6
CONTINUOUS
 10
677.5816579988
 20
870.950299453
 40
3.0
100
AcDbArc
 50
0.0
 51
180.0
  0
ARC
  5
743
100
AcDbEntity
  8
H_EXTERN_HANDLE
100
AcDbCircle
 62
7
  6
CONTINUOUS
 10
669.5904969204
 20
870.6517633446
 40
3.0
100
AcDbArc
 50
0.0
 51
180.0
  0
ARC
  5
744
100
AcDbEntity
  8
H_EXTERN_HANDLE
100
AcDbCircle
 62
7
  6
CONTINUOUS
 10
661.599335842
 20
870.3532272362
 40
3.0
100
AcDbArc
 50
0.0
 51
180.0
  0
ARC
  5
745
100
AcDbEntity
  8
H_EXTERN_HANDLE
100
AcDbCircle
 62
7
  6
CONTINUOUS
 10
653.6081747636
 20
870.0546911278
 40
3.0
100
AcDbArc
 50
0.0
 51
180.0
  0
ARC
  5
746
100
AcDbEntity
  8
H_EXTERN_HANDLE
100
AcDbCircle
 62
7
  6
CONTINUOUS
 10
797.4490741752
 20
875.4283410792
 40
3.0
100
AcDbArc
 50
0.0
 51
180.0
  0
ARC
  5
747
100
AcDbEntity
  8
H_EXTERN_HANDLE
100
AcDbCircle
 62
7
  6
CONTINUOUS
 10
789.4579130968
 20
875.1298049708
 40
3.0
100
AcDbArc
 50
0.0
 51
180.0
  0
ARC
  5
748
100
AcDbEntity
  8
H_EXTERN_HANDLE
100
AcDbCircle
 62
7
  6
CONTINUOUS
 10
781.4667520184
 20
874.8312688624
 40
3.0
100
AcDbArc
 50
0.0
 51
180.0
  0
ARC
  5
749
100
AcDbEntity
  8
H_EXTERN_HANDLE
100
AcDbCircle
 62
7
  6
CONTINUOUS
 10
773.4755909399
 20
874.532732754
 40
3.0
100
AcDbArc
 50
0.0
 51
180.0
  0
ARC
  5
74A
100
AcDbEntity
  8
H_EXTERN_HANDLE
100
AcDbCircle
 62
7
  6
CONTINUOUS
 10
765.4844298615
 20
874.2341966455
 40
3.0
100
AcDbArc
 50
0.0
 51
180.0
  0
ARC
  5
74B
100
AcDbEntity
  8
H_EXTERN_HANDLE
100
AcDbCircle
 62
7
  6
CONTINUOUS
 10
757.4932687831
 20
873.9356605371
 40
3.0
100
AcDbArc
 50
0.0
 51
180.0
  0
ARC
  5
74C
100
AcDbEntity
  8
H_EXTERN_HANDLE
100
AcDbCircle
 62
7
  6
CONTINUOUS
 10
749.5021077047
 20
873.6371244287
 40
3.0
100
AcDbArc
 50
0.0
 51
180.0
  0
ARC
  5
74D
100
AcDbEntity
  8
H_EXTERN_HANDLE
100
AcDbCircle
 62
7
  6
CONTINUOUS
 10
741.5109466262
 20
873.3385883203
 40
3.0
100
AcDbArc
 50
0.0
 51
180.0
  0
ARC
  5
74E
100
AcDbEntity
  8
H_EXTERN_HANDLE
100
AcDbCircle
 62
7
  6
CONTINUOUS
 10
733.5197855478
 20
873.0400522119
 40
3.0
100
AcDbArc
 50
0.0
 51
180.0
  0
ARC
  5
74F
100
AcDbEntity
  8
H_EXTERN_HANDLE
100
AcDbCircle
 62
7
  6
CONTINUOUS
 10
725.5286244694
 20
872.7415161035
 40
3.0
100
AcDbArc
 50
0.0
 51
180.0
  0
ARC
  5
750
100
AcDbEntity
  8
H_EXTERN_HANDLE
100
AcDbCircle
 62
7
  6
CONTINUOUS
 10
717.537463391
 20
872.4429799951
 40
3.0
100
AcDbArc
 50
0.0
 51
180.0
  0
ARC
  5
751
100
AcDbEntity
  8
H_EXTERN_HANDLE
100
AcDbCircle
 62
7
  6
CONTINUOUS
 10
709.5463023125
 20
872.1444438867
 40
3.0
100
AcDbArc
 50
0.0
 51
180.0
  0
ARC
  5
752
100
AcDbEntity
  8
H_EXTERN_HANDLE
100
AcDbCircle
 62
7
  6
CONTINUOUS
 10
701.5551412341
 20
871.8459077783
 40
3.0
100
AcDbArc
 50
0.0
 51
180.0
  0
ARC
  5
753
100
AcDbEntity
  8
H_EXTERN_HANDLE
100
AcDbCircle
 62
7
  6
CONTINUOUS
 10
693.5639801557
 20
871.5473716698
 40
3.0
100
AcDbArc
 50
0.0
 51
180.0
  0
ARC
  5
754
100
AcDbEntity
  8
H_EXTERN_HANDLE
100
AcDbCircle
 62
7
  6
CONTINUOUS
 10
685.5728190773
 20
871.2488355614
 40
3.0
100
AcDbArc
 50
0.0
 51
180.0
  0
ENDSEC
  0
SECTION
  2
OBJECTS
  0
DICTIONARY
  5
C
100
AcDbDictionary
280
0
281
1
  3
ACAD_GROUP
350
D
  3
ACAD_MLINESTYLE
350
17
  3
ACAD_LAYOUT
350
1A
  3
ACAD_PLOTSETTINGS
350
19
  3
ACAD_PLOTSTYLENAME
350
E
  0
DICTIONARY
  5
D
102
{ACAD_REACTORS
330
C
102
}
100
AcDbDictionary
280
0
281
1
  0
ACDBDICTIONARYWDFLT
  5
E
102
{ACAD_REACTORS
330
C
102
}
100
AcDbDictionary
281
1
  3
Normal
350
F
100
AcDbDictionaryWithDefault
340
F
  0
DICTIONARY
  5
17
102
{ACAD_REACTORS
330
C
102
}
100
AcDbDictionary
280
0
281
1
  3
Standard
350
18
  0
DICTIONARY
  5
19
102
{ACAD_REACTORS
330
C
102
}
100
AcDbDictionary
281
1
  0
DICTIONARY
  5
1A
102
{ACAD_REACTORS
330
C
102
}
100
AcDbDictionary
281
1
  3
Model
350
755
  3
Layout1
350
756
  0
ACDBPLACEHOLDER
  5
F
102
{ACAD_REACTORS
330
E
102
}
  0
MLINESTYLE
  5
18
102
{ACAD_REACTORS
330
17
102
}
100
AcDbMlineStyle
  2
STANDARD
 70
0
  3

 62
256
 51
90.0
 52
90.0
 71
2
 49
0.5
 62
256
  6
BYLAYER
 49
-0.5
 62
256
  6
BYLAYER
  0
LAYOUT
  5
755
102
{ACAD_REACTORS
330
1A
102
}
100
AcDbPlotSettings
  1

  2
none_device
  4

  6

 40
0.0
 41
0.0
 42
0.0
 43
0.0
 44
1116.8346603898
 45
941.2759210755
 46
0.0
 47
0.0
 48
0.0
 49
0.0
140
0.0
141
0.0
142
1.0
143
1.0
 70
1024
 72
1
 73
0
 74
0
  7

 75
0
147
1.0
148
0.0
149
0.0
100
AcDbLayout
  1
Model
 70
0
 71
0
 10
0.0
 20
0.0
 11
1116.8346603898
 21
941.2759210755
 12
0.0
 22
0.0
 32
0.0
 14
0.0
 24
0.0
 34
0.0
 15
0.0
 25
0.0
 35
0.0
146
0.0
 13
0.0
 23
0.0
 33
0.0
 16
1.0
 26
0.0
 36
0.0
 17
0.0
 27
1.0
 37
0.0
 76
0
330
213
345
0
346
0
  0
LAYOUT
  5
756
102
{ACAD_REACTORS
330
1A
102
}
100
AcDbPlotSettings
  1

  2
none_device
  4

  6

 40
0.0
 41
0.0
 42
0.0
 43
0.0
 44
1116.8346603898
 45
941.2759210755
 46
0.0
 47
0.0
 48
0.0
 49
0.0
140
0.0
141
0.0
142
1.0
143
1.0
 70
0
 72
1
 73
0
 74
0
  7

 75
0
147
1.0
148
0.0
149
0.0
100
AcDbLayout
  1
Layout1
 70
0
 71
1
 10
0.0
 20
0.0
 11
1116.8346603898
 21
941.2759210755
 12
0.0
 22
0.0
 32
0.0
 14
0.0
 24
0.0
 34
0.0
 15
0.0
 25
0.0
 35
0.0
146
0.0
 13
0.0
 23
0.0
 33
0.0
 16
1.0
 26
0.0
 36
0.0
 17
0.0
 27
1.0
 37
0.0
 76
0
330
214
345
0
346
0
  0
ENDSEC
  0
EOF
