  0
SECTION
  2
HEADER
  9
$ACADVER
  1
AC1015
  9
$ACADMAINTVER
 70
     6
  9
$DWGCODEPAGE
  3
ANSI_1252
  9
$INSBASE
 10
0.0
 20
0.0
 30
0.0
  9
$EXTMIN
 10
0.0
 20
0.0
 30
0.0
  9
$EXTMAX
 10
420.0
 20
297.0
 30
0.0
  9
$LIMMIN
 10
0.0
 20
0.0
  9
$LIMMAX
 10
0.0
 20
0.0
  9
$ORTHOMODE
 70
     0
  9
$REGENMODE
 70
     1
  9
$FILLMODE
 70
     1
  9
$QTEXTMODE
 70
     0
  9
$MIRRTEXT
 70
     1
  9
$LTSCALE
 40
1.0
  9
$ATTMODE
 70
     1
  9
$TEXTSIZE
 40
3.175
  9
$TRACEWID
 40
1.0
  9
$TEXTSTYLE
  7
Standard
  9
$CLAYER
  8
0
  9
$CELTYPE
  6
ByLayer
  9
$CECOLOR
 62
   256
  9
$CELTSCALE
 40
1.0
  9
$DISPSILH
 70
     0
  9
$DIMSCALE
 40
1.0
  9
$DIMASZ
 40
2.5683186849
  9
$DIMEXO
 40
1.27
  9
$DIMDLI
 40
3.75
  9
$DIMRND
 40
0.0
  9
$DIMDLE
 40
0.0
  9
$DIMEXE
 40
3.175
  9
$DIMTP
 40
0.0
  9
$DIMTM
 40
0.0
  9
$DIMTXT
 40
3.5277777778
  9
$DIMCEN
 40
2.5
  9
$DIMTSZ
 40
0.0
  9
$DIMTOL
 70
     0
  9
$DIMLIM
 70
     0
  9
$DIMTIH
 70
     1
  9
$DIMTOH
 70
     1
  9
$DIMSE1
 70
     0
  9
$DIMSE2
 70
     0
  9
$DIMTAD
 70
     0
  9
$DIMZIN
 70
     1
  9
$DIMBLK
  1

  9
$DIMASO
 70
     1
  9
$DIMSHO
 70
     1
  9
$DIMPOST
  1

  9
$DIMAPOST
  1

  9
$DIMALT
 70
     0
  9
$DIMALTD
 70
     3
  9
$DIMALTF
 40
0.0393700787
  9
$DIMLFAC
 40
1.0
  9
$DIMTOFL
 70
     1
  9
$DIMTVP
 40
0.0
  9
$DIMTIX
 70
     0
  9
$DIMSOXD
 70
     0
  9
$DIMSAH
 70
     0
  9
$DIMBLK1
  1

  9
$DIMBLK2
  1

  9
$DIMSTYLE
  2
ISO-25
  9
$DIMCLRD
 70
     0
  9
$DIMCLRE
 70
     0
  9
$DIMCLRT
 70
     0
  9
$DIMTFAC
 40
1.0
  9
$DIMGAP
 40
0.52
  9
$DIMJUST
 70
     0
  9
$DIMSD1
 70
     0
  9
$DIMSD2
 70
     0
  9
$DIMTOLJ
 70
     0
  9
$DIMTZIN
 70
     1
  9
$DIMALTZ
 70
     0
  9
$DIMALTTZ
 70
     0
  9
$DIMUPT
 70
     0
  9
$DIMDEC
 70
     2
  9
$DIMTDEC
 70
     2
  9
$DIMALTU
 70
     2
  9
$DIMALTTD
 70
     3
  9
$DIMTXSTY
  7
Standard
  9
$DIMAUNIT
 70
     0
  9
$DIMADEC
 70
     0
  9
$DIMALTRND
 40
0.0
  9
$DIMAZIN
 70
     0
  9
$DIMDSEP
 70
    44
  9
$DIMATFIT
 70
     3
  9
$DIMFRAC
 70
     0
  9
$DIMLDRBLK
  1

  9
$DIMLUNIT
 70
     2
  9
$DIMLWD
 70
    -2
  9
$DIMLWE
 70
    -2
  9
$DIMTMOVE
 70
     0
  9
$LUNITS
 70
     2
  9
$LUPREC
 70
     2
  9
$SKETCHINC
 40
1.0
  9
$FILLETRAD
 40
10.0
  9
$AUNITS
 70
     0
  9
$AUPREC
 70
     0
  9
$MENU
  1
.
  9
$ELEVATION
 40
0.0
  9
$PELEVATION
 40
0.0
  9
$THICKNESS
 40
0.0
  9
$LIMCHECK
 70
     0
  9
$CHAMFERA
 40
10.0
  9
$CHAMFERB
 40
10.0
  9
$CHAMFERC
 40
20.0
  9
$CHAMFERD
 40
0.0
  9
$SKPOLY
 70
     0
  9
$TDCREATE
 40
2454270.953303125
  9
$TDUCREATE
 40
2454271.244969792
  9
$TDUPDATE
 40
2454270.953303136
  9
$TDUUPDATE
 40
2454271.244969803
  9
$TDINDWG
 40
0.0000000116
  9
$TDUSRTIMER
 40
0.0000000116
  9
$USRTIMER
 70
     1
  9
$ANGBASE
 50
0.0
  9
$ANGDIR
 70
     0
  9
$PDMODE
 70
     0
  9
$PDSIZE
 40
-1.0
  9
$PLINEWID
 40
0.0
  9
$SPLFRAME
 70
     0
  9
$SPLINETYPE
 70
     6
  9
$SPLINESEGS
 70
     8
  9
$HANDSEED
  5
2EC
  9
$SURFTAB1
 70
     6
  9
$SURFTAB2
 70
     6
  9
$SURFTYPE
 70
     6
  9
$SURFU
 70
     6
  9
$SURFV
 70
     6
  9
$UCSBASE
  2

  9
$UCSNAME
  2

  9
$UCSORG
 10
0.0
 20
0.0
 30
0.0
  9
$UCSXDIR
 10
1.0
 20
0.0
 30
0.0
  9
$UCSYDIR
 10
0.0
 20
1.0
 30
0.0
  9
$UCSORTHOREF
  2

  9
$UCSORTHOVIEW
 70
     0
  9
$UCSORGTOP
 10
0.0
 20
0.0
 30
0.0
  9
$UCSORGBOTTOM
 10
0.0
 20
0.0
 30
0.0
  9
$UCSORGLEFT
 10
0.0
 20
0.0
 30
0.0
  9
$UCSORGRIGHT
 10
0.0
 20
0.0
 30
0.0
  9
$UCSORGFRONT
 10
0.0
 20
0.0
 30
0.0
  9
$UCSORGBACK
 10
0.0
 20
0.0
 30
0.0
  9
$PUCSBASE
  2

  9
$PUCSNAME
  2

  9
$PUCSORG
 10
0.0
 20
0.0
 30
0.0
  9
$PUCSXDIR
 10
1.0
 20
0.0
 30
0.0
  9
$PUCSYDIR
 10
0.0
 20
1.0
 30
0.0
  9
$PUCSORTHOREF
  2

  9
$PUCSORTHOVIEW
 70
     0
  9
$PUCSORGTOP
 10
0.0
 20
0.0
 30
0.0
  9
$PUCSORGBOTTOM
 10
0.0
 20
0.0
 30
0.0
  9
$PUCSORGLEFT
 10
0.0
 20
0.0
 30
0.0
  9
$PUCSORGRIGHT
 10
0.0
 20
0.0
 30
0.0
  9
$PUCSORGFRONT
 10
0.0
 20
0.0
 30
0.0
  9
$PUCSORGBACK
 10
0.0
 20
0.0
 30
0.0
  9
$USERI1
 70
     0
  9
$USERI2
 70
     0
  9
$USERI3
 70
     0
  9
$USERI4
 70
     0
  9
$USERI5
 70
     0
  9
$USERR1
 40
0.0
  9
$USERR2
 40
0.0
  9
$USERR3
 40
0.0
  9
$USERR4
 40
0.0
  9
$USERR5
 40
0.0
  9
$WORLDVIEW
 70
     1
  9
$SHADEDGE
 70
     3
  9
$SHADEDIF
 70
    70
  9
$TILEMODE
 70
     1
  9
$MAXACTVP
 70
    64
  9
$PINSBASE
 10
0.0
 20
0.0
 30
0.0
  9
$PLIMCHECK
 70
     0
  9
$PEXTMIN
 10
1.0000000000E+20
 20
1.0000000000E+20
 30
1.0000000000E+20
  9
$PEXTMAX
 10
-1.0000000000E+20
 20
-1.0000000000E+20
 30
-1.0000000000E+20
  9
$PLIMMIN
 10
0.0
 20
0.0
  9
$PLIMMAX
 10
420.0
 20
297.0
  9
$UNITMODE
 70
     0
  9
$VISRETAIN
 70
     1
  9
$PLINEGEN
 70
     0
  9
$PSLTSCALE
 70
     1
  9
$TREEDEPTH
 70
  3020
  9
$CMLSTYLE
  2
Standard
  9
$CMLJUST
 70
     0
  9
$CMLSCALE
 40
20.0
  9
$PROXYGRAPHICS
 70
     1
  9
$MEASUREMENT
 70
     1
  9
$CELWEIGHT
370
    -1
  9
$ENDCAPS
280
     0
  9
$JOINSTYLE
280
     0
  9
$LWDISPLAY
290
     1
  9
$INSUNITS
 70
     4
  9
$HYPERLINKBASE
  1

  9
$STYLESHEET
  1

  9
$XEDIT
290
     1
  9
$CEPSNTYPE
380
     0
  9
$PSTYLEMODE
290
     1
  9
$FINGERPRINTGUID
  2
{B92E1951-E76E-4236-AD95-136E53784E0E}
  9
$VERSIONGUID
  2
{FAEB1C32-E019-11D5-929B-00C0DF256EC4}
  9
$EXTNAMES
290
     1
  9
$PSVPSCALE
 40
0.0
  9
$OLESTARTUP
290
     0
  0
ENDSEC
  0
SECTION
  2
CLASSES
  0
CLASS
  1
ACDBDICTIONARYWDFLT
  2
AcDbDictionaryWithDefault
  3
ObjectDBX Classes
 90
        0
280
     0
281
     0
  0
CLASS
  1
ACDBPLACEHOLDER
  2
AcDbPlaceHolder
  3
ObjectDBX Classes
 90
        0
280
     0
281
     0
  0
CLASS
  1
LAYOUT
  2
AcDbLayout
  3
ObjectDBX Classes
 90
        0
280
     0
281
     0
  0
ENDSEC
  0
SECTION
  2
TABLES
  0
TABLE
  2
VPORT
  5
8
330
0
100
AcDbSymbolTable
 70
     1
  0
VPORT
  5
29
330
8
100
AcDbSymbolTableRecord
100
AcDbViewportTableRecord
  2
*Active
 70
     0
 10
0.0
 20
0.0
 11
1.0
 21
1.0
 12
210.0
 22
148.5
 13
0.0
 23
0.0
 14
10.0
 24
10.0
 15
10.0
 25
10.0
 16
0.0
 26
0.0
 36
1.0
 17
0.0
 27
0.0
 37
0.0
 40
297.0
 41
1.4141414141
 42
50.0
 43
0.0
 44
0.0
 50
0.0
 51
0.0
 71
     0
 72
  2000
 73
     1
 74
     3
 75
     0
 76
     0
 77
     0
 78
     0
281
     0
 65
     1
110
0.0
120
0.0
130
0.0
111
1.0
121
0.0
131
0.0
112
0.0
122
1.0
132
0.0
 79
     0
146
0.0
  0
ENDTAB
  0
TABLE
  2
LTYPE
  5
5
330
0
100
AcDbSymbolTable
 70
     6
  0
LTYPE
  5
14
330
5
100
AcDbSymbolTableRecord
100
AcDbLinetypeTableRecord
  2
ByBlock
 70
     0
  3

 72
    65
 73
     0
 40
0.0
  0
LTYPE
  5
15
330
5
100
AcDbSymbolTableRecord
100
AcDbLinetypeTableRecord
  2
ByLayer
 70
     0
  3

 72
    65
 73
     0
 40
0.0
  0
LTYPE
  5
16
330
5
100
AcDbSymbolTableRecord
100
AcDbLinetypeTableRecord
  2
Continuous
 70
     0
  3
Solid line
 72
    65
 73
     0
 40
0.0
  0
LTYPE
  5
2A
330
5
100
AcDbSymbolTableRecord
100
AcDbLinetypeTableRecord
  2
HIDDEN
 70
     0
  3
Hidden __ __ __ __ __ __ __ __ __ __ __ __ __ __
 72
    65
 73
     2
 40
1.905
 49
1.27
 74
     0
 49
-0.635
 74
     0
  0
LTYPE
  5
2B
330
5
100
AcDbSymbolTableRecord
100
AcDbLinetypeTableRecord
  2
PHANTOM
 70
     0
  3
Phantom ______  __  __  ______  __  __  ______
 72
    65
 73
     6
 40
12.7
 49
6.35
 74
     0
 49
-1.27
 74
     0
 49
1.27
 74
     0
 49
-1.27
 74
     0
 49
1.27
 74
     0
 49
-1.27
 74
     0
  0
LTYPE
  5
2C
330
5
100
AcDbSymbolTableRecord
100
AcDbLinetypeTableRecord
  2
CENTER
 70
     0
  3
Center ____ _ ____ _ ____ _ ____ _ ____ _ ____
 72
    65
 73
     4
 40
10.16
 49
6.35
 74
     0
 49
-1.27
 74
     0
 49
1.27
 74
     0
 49
-1.27
 74
     0
  0
LTYPE
  5
2D
330
5
100
AcDbSymbolTableRecord
100
AcDbLinetypeTableRecord
  2
CENTERX2
 70
     0
  3
Center (2x) ________  __  ________  __  _____
 72
    65
 73
     4
 40
20.32
 49
12.7
 74
     0
 49
-2.54
 74
     0
 49
2.54
 74
     0
 49
-2.54
 74
     0
  0
LTYPE
  5
2E
330
5
100
AcDbSymbolTableRecord
100
AcDbLinetypeTableRecord
  2
DOT2
 70
     0
  3
Dot (.5x) ........................................
 72
    65
 73
     2
 40
0.635
 49
0.0
 74
     0
 49
-0.635
 74
     0
  0
ENDTAB
  0
TABLE
  2
LAYER
  5
2
330
0
100
AcDbSymbolTable
 70
     6
  0
LAYER
  5
10
330
2
100
AcDbSymbolTableRecord
100
AcDbLayerTableRecord
  2
0
 70
     0
 62
     7
  6
Continuous
370
    -3
390
F
  0
LAYER
  5
2F
330
2
100
AcDbSymbolTableRecord
100
AcDbLayerTableRecord
  2
ROCKWELL
 70
     0
 62
     1
  6
Continuous
370
    -3
390
F
  0
LAYER
  5
30
330
2
100
AcDbSymbolTableRecord
100
AcDbLayerTableRecord
  2
AUTOMATION
 70
     0
 62
     8
  6
Continuous
370
    -3
390
F
  0
LAYER
  5
31
330
2
100
AcDbSymbolTableRecord
100
AcDbLayerTableRecord
  2
ALLEN
 70
     0
 62
     7
  6
Continuous
370
    -3
390
F
  0
LAYER
  5
32
330
2
100
AcDbSymbolTableRecord
100
AcDbLayerTableRecord
  2
FORMATE
 70
     0
 62
     8
  6
Continuous
370
    15
390
F
  0
LAYER
  5
33
330
2
100
AcDbSymbolTableRecord
100
AcDbLayerTableRecord
  2
DIM
 70
     0
 62
     5
  6
Continuous
370
    -3
390
F
  0
ENDTAB
  0
TABLE
  2
STYLE
  5
3
330
0
100
AcDbSymbolTable
 70
    11
  0
STYLE
  5
11
330
3
100
AcDbSymbolTableRecord
100
AcDbTextStyleTableRecord
  2
Standard
 70
     0
 40
0.0
 41
1.0
 50
0.0
 71
     0
 42
2.5
  3
txt
  4

  0
STYLE
  5
19D
330
3
100
AcDbSymbolTableRecord
100
AcDbTextStyleTableRecord
  2
SLDTEXTSTYLE0
 70
     0
 40
0.0
 41
0.605
 50
0.0
 71
     0
 42
0.2
  3
TXT
  4

  0
STYLE
  5
1A5
330
3
100
AcDbSymbolTableRecord
100
AcDbTextStyleTableRecord
  2
SLDTEXTSTYLE1
 70
     0
 40
0.0
 41
0.5646666667
 50
0.0
 71
     0
 42
0.2
  3
TXT
  4

  0
STYLE
  5
1AC
330
3
100
AcDbSymbolTableRecord
100
AcDbTextStyleTableRecord
  2
SLDTEXTSTYLE2
 70
     0
 40
0.0
 41
0.5575490196
 50
0.0
 71
     0
 42
0.2
  3
TXT
  4

  0
STYLE
  5
1AE
330
3
100
AcDbSymbolTableRecord
100
AcDbTextStyleTableRecord
  2
SLDTEXTSTYLE3
 70
     0
 40
0.0
 41
0.5456862745
 50
0.0
 71
     0
 42
0.2
  3
TXT
  4

  0
STYLE
  5
1B1
330
3
100
AcDbSymbolTableRecord
100
AcDbTextStyleTableRecord
  2
SLDTEXTSTYLE4
 70
     0
 40
0.0
 41
0.5757258065
 50
0.0
 71
     0
 42
0.2
  3
TXT
  4

  0
STYLE
  5
1BA
330
3
100
AcDbSymbolTableRecord
100
AcDbTextStyleTableRecord
  2
SLDTEXTSTYLE5
 70
     0
 40
0.0
 41
0.5445
 50
0.0
 71
     0
 42
0.2
  3
TXT
  4

  0
STYLE
  5
1D2
330
3
100
AcDbSymbolTableRecord
100
AcDbTextStyleTableRecord
  2
SLDTEXTSTYLE6
 70
     0
 40
0.0
 41
0.559625
 50
0.0
 71
     0
 42
0.2
  3
TXT
  4

  0
STYLE
  5
1D6
330
3
100
AcDbSymbolTableRecord
100
AcDbTextStyleTableRecord
  2
SLDTEXTSTYLE7
 70
     0
 40
0.0
 41
0.5731578947
 50
0.0
 71
     0
 42
0.2
  3
TXT
  4

  0
STYLE
  5
1D9
330
3
100
AcDbSymbolTableRecord
100
AcDbTextStyleTableRecord
  2
SLDTEXTSTYLE8
 70
     0
 40
0.0
 41
0.7
 50
0.0
 71
     0
 42
0.2
  3
TXT
  4

  0
STYLE
  5
1DC
330
3
100
AcDbSymbolTableRecord
100
AcDbTextStyleTableRecord
  2
SLDTEXTSTYLE9
 70
     0
 40
0.0
 41
0.5833333333
 50
0.0
 71
     0
 42
0.2
  3
TXT
  4

  0
ENDTAB
  0
TABLE
  2
VIEW
  5
6
330
0
100
AcDbSymbolTable
 70
     0
  0
ENDTAB
  0
TABLE
  2
UCS
  5
7
330
0
100
AcDbSymbolTable
 70
     0
  0
ENDTAB
  0
TABLE
  2
APPID
  5
9
330
0
100
AcDbSymbolTable
 70
     1
  0
APPID
  5
12
330
9
100
AcDbSymbolTableRecord
100
AcDbRegAppTableRecord
  2
ACAD
 70
     0
  0
ENDTAB
  0
TABLE
  2
DIMSTYLE
  5
A
330
0
100
AcDbSymbolTable
 70
     4
100
AcDbDimStyleTable
  0
DIMSTYLE
105
27
330
A
100
AcDbSymbolTableRecord
100
AcDbDimStyleTableRecord
  2
ISO-25
 70
     0
 41
2.5
 42
0.625
 43
3.75
 44
1.25
 73
     0
 74
     0
 77
     1
 78
     8
140
2.5
141
2.5
143
0.0393700787
147
0.625
171
     3
172
     1
271
     2
272
     2
274
     3
278
    44
283
     0
284
     8
340
11
  0
DIMSTYLE
105
1FE
102
{ACAD_REACTORS
330
1FD
330
210
330
233
330
280
330
292
102
}
330
A
100
AcDbSymbolTableRecord
100
AcDbDimStyleTableRecord
  2
SLDDIMSTYLE0
 70
     0
 41
2.5683186849
 44
0.0
 78
    12
140
2.5683186849
143
0.0393700787
147
0.6420796712
170
     1
171
     3
173
     1
271
     2
272
     2
284
    12
340
19D
  0
DIMSTYLE
105
223
102
{ACAD_REACTORS
330
222
102
}
330
A
100
AcDbSymbolTableRecord
100
AcDbDimStyleTableRecord
  2
SLDDIMSTYLE1
 70
     0
 41
2.5683186849
 44
0.0
 78
    12
140
2.5683186849
143
0.0393700787
147
0.6420796712
170
     1
171
     3
172
     1
173
     1
271
     2
272
     2
284
    12
340
19D
  0
DIMSTYLE
105
2A6
102
{ACAD_REACTORS
330
2A5
102
}
330
A
100
AcDbSymbolTableRecord
100
AcDbDimStyleTableRecord
  2
SLDDIMSTYLE2
 70
     0
 41
2.5683186849
 44
0.0
 78
     4
140
2.5683186849
143
0.0393700787
147
0.6420796712
170
     1
171
     3
173
     1
271
     2
272
     2
284
    12
340
19D
  0
ENDTAB
  0
TABLE
  2
BLOCK_RECORD
  5
1
330
0
100
AcDbSymbolTable
 70
    12
  0
BLOCK_RECORD
  5
1F
330
1
100
AcDbSymbolTableRecord
100
AcDbBlockTableRecord
  2
*Model_Space
340
22
  0
BLOCK_RECORD
  5
1B
330
1
100
AcDbSymbolTableRecord
100
AcDbBlockTableRecord
  2
*Paper_Space
340
1E
  0
BLOCK_RECORD
  5
23
330
1
100
AcDbSymbolTableRecord
100
AcDbBlockTableRecord
  2
*Paper_Space0
340
26
  0
BLOCK_RECORD
  5
1A9
330
1
100
AcDbSymbolTableRecord
100
AcDbBlockTableRecord
  2
SW_NOTE_0
340
0
102
{BLKREFS
331
1B3
102
}
1001
ACAD
1000
DesignCenter Data
1002
{
1070
     1
1070
     0
1002
}
  0
BLOCK_RECORD
  5
1FF
330
1
100
AcDbSymbolTableRecord
100
AcDbBlockTableRecord
  2
*D2
340
0
  0
BLOCK_RECORD
  5
211
330
1
100
AcDbSymbolTableRecord
100
AcDbBlockTableRecord
  2
*D3
340
0
  0
BLOCK_RECORD
  5
224
330
1
100
AcDbSymbolTableRecord
100
AcDbBlockTableRecord
  2
*D4
340
0
  0
BLOCK_RECORD
  5
234
330
1
100
AcDbSymbolTableRecord
100
AcDbBlockTableRecord
  2
*D5
340
0
  0
BLOCK_RECORD
  5
245
330
1
100
AcDbSymbolTableRecord
100
AcDbBlockTableRecord
  2
SW_CENTERMARKSYMBOL_0
340
0
102
{BLKREFS
331
250
102
}
1001
ACAD
1000
DesignCenter Data
1002
{
1070
     1
1070
     0
1002
}
  0
BLOCK_RECORD
  5
251
330
1
100
AcDbSymbolTableRecord
100
AcDbBlockTableRecord
  2
SW_CENTERMARKSYMBOL_1
340
0
102
{BLKREFS
331
25C
102
}
1001
ACAD
1000
DesignCenter Data
1002
{
1070
     1
1070
     0
1002
}
  0
BLOCK_RECORD
  5
25D
330
1
100
AcDbSymbolTableRecord
100
AcDbBlockTableRecord
  2
SW_CENTERMARKSYMBOL_2
340
0
102
{BLKREFS
331
268
102
}
1001
ACAD
1000
DesignCenter Data
1002
{
1070
     1
1070
     0
1002
}
  0
BLOCK_RECORD
  5
281
330
1
100
AcDbSymbolTableRecord
100
AcDbBlockTableRecord
  2
*D9
340
0
  0
BLOCK_RECORD
  5
293
330
1
100
AcDbSymbolTableRecord
100
AcDbBlockTableRecord
  2
*D10
340
0
  0
BLOCK_RECORD
  5
2A7
330
1
100
AcDbSymbolTableRecord
100
AcDbBlockTableRecord
  2
*D11
340
0
  0
ENDTAB
  0
ENDSEC
  0
SECTION
  2
BLOCKS
  0
BLOCK
  5
20
330
1F
100
AcDbEntity
  8
0
100
AcDbBlockBegin
  2
*Model_Space
 70
     0
 71
     0
 10
0.0
 20
0.0
 30
0.0
  3
*Model_Space
  1

  0
ENDBLK
  5
21
330
1F
100
AcDbEntity
  8
0
100
AcDbBlockEnd
  0
BLOCK
  5
1C
330
1B
100
AcDbEntity
 67
     1
  8
0
100
AcDbBlockBegin
  2
*Paper_Space
 70
     0
 71
     0
 10
0.0
 20
0.0
 30
0.0
  3
*Paper_Space
  1

  0
ENDBLK
  5
1D
330
1B
100
AcDbEntity
 67
     1
  8
0
100
AcDbBlockEnd
  0
BLOCK
  5
24
330
23
100
AcDbEntity
  8
0
100
AcDbBlockBegin
  2
*Paper_Space0
 70
     0
 71
     0
 10
0.0
 20
0.0
 30
0.0
  3
*Paper_Space0
  1

  0
ENDBLK
  5
25
330
23
100
AcDbEntity
  8
0
100
AcDbBlockEnd
  0
BLOCK
  5
1AA
330
1A9
100
AcDbEntity
  8
0
100
AcDbBlockBegin
  2
SW_NOTE_0
 70
     0
 71
     0
 10
0.0
 20
0.0
 30
0.0
  3
SW_NOTE_0
  1

  0
MTEXT
  5
1AD
330
1A9
100
AcDbEntity
  8
FORMATE
 62
     0
100
AcDbMText
 10
0.0
 20
3.4106583948
 30
0.0
 40
2.6458333333
 41
0.0
 71
     1
 72
     1
  1
This drawing is the property of RockWell Automation &
  7
SLDTEXTSTYLE2
 73
     1
 44
1.0
  0
MTEXT
  5
1AF
330
1A9
100
AcDbEntity
  8
FORMATE
 62
     0
100
AcDbMText
 10
0.452298671
 20
-0.1171193403
 30
0.0
 40
2.6458333333
 41
0.0
 71
     1
 72
     1
  1
may not be used for any other purpose other than that
  7
SLDTEXTSTYLE3
 73
     1
 44
1.0
  0
MTEXT
  5
1B0
330
1A9
100
AcDbEntity
  8
FORMATE
 62
     0
100
AcDbMText
 10
2.1356530488
 20
-3.6448970755
 30
0.0
 40
2.6458333333
 41
0.0
 71
     1
 72
     1
  1
for which it was supplied without the express written
  7
SLDTEXTSTYLE2
 73
     1
 44
1.0
  0
MTEXT
  5
1B2
330
1A9
100
AcDbEntity
  8
FORMATE
 62
     0
100
AcDbMText
 10
15.8171243966
 20
-7.1726748106
 30
0.0
 40
2.6458333333
 41
0.0
 71
     1
 72
     1
  1
authority of RockWell Automation.
  7
SLDTEXTSTYLE4
 73
     1
 44
1.0
  0
ENDBLK
  5
1AB
330
1A9
100
AcDbEntity
  8
0
100
AcDbBlockEnd
  0
BLOCK
  5
200
330
1FF
100
AcDbEntity
  8
0
100
AcDbBlockBegin
  2
*D2
 70
     1
 71
     0
 10
0.0
 20
0.0
 30
0.0
  3
*D2
  1

  0
SOLID
  5
202
330
1FF
100
AcDbEntity
  8
ROCKWELL
100
AcDbTrace
 10
196.1720939391
 20
159.8778301887
 30
0.0
 11
195.7769679876
 21
157.3095115038
 31
0.0
 12
196.5672198906
 22
157.3095115038
 32
0.0
 13
196.5672198906
 23
157.3095115038
 33
0.0
  0
SOLID
  5
203
330
1FF
100
AcDbEntity
  8
ROCKWELL
100
AcDbTrace
 10
196.1720939391
 20
137.6578301887
 30
0.0
 11
196.5672198906
 21
140.2261488736
 31
0.0
 12
195.7769679876
 22
140.2261488736
 32
0.0
 13
195.7769679876
 23
140.2261488736
 33
0.0
  0
LINE
  5
204
330
1FF
100
AcDbEntity
  8
ROCKWELL
100
AcDbLine
 10
191.5684538448
 20
147.9862655981
 30
0.0
 11
191.5684538448
 21
144.6339201264
 31
0.0
  0
LINE
  5
205
330
1FF
100
AcDbEntity
  8
ROCKWELL
100
AcDbLine
 10
191.5684538448
 20
144.6339201264
 30
0.0
 11
192.155519175
 21
144.6339201264
 31
0.0
  0
LINE
  5
206
330
1FF
100
AcDbEntity
  8
ROCKWELL
100
AcDbLine
 10
191.5684538448
 20
147.9862655981
 30
0.0
 11
192.155519175
 21
147.9862655981
 31
0.0
  0
LINE
  5
207
330
1FF
100
AcDbEntity
  8
ROCKWELL
100
AcDbLine
 10
200.7757340335
 20
147.9862655981
 30
0.0
 11
200.7757340335
 21
144.6339201264
 31
0.0
  0
LINE
  5
208
330
1FF
100
AcDbEntity
  8
ROCKWELL
100
AcDbLine
 10
200.7757340335
 20
144.6339201264
 30
0.0
 11
200.1886687033
 21
144.6339201264
 31
0.0
  0
LINE
  5
209
330
1FF
100
AcDbEntity
  8
ROCKWELL
100
AcDbLine
 10
200.7757340335
 20
147.9862655981
 30
0.0
 11
200.1886687033
 21
147.9862655981
 31
0.0
  0
LINE
  5
20A
330
1FF
100
AcDbEntity
  8
ROCKWELL
100
AcDbLine
 10
155.2035377358
 20
159.8778301887
 30
0.0
 11
199.3470939391
 21
159.8778301887
 31
0.0
  0
LINE
  5
20B
330
1FF
100
AcDbEntity
  8
ROCKWELL
100
AcDbLine
 10
168.1185377358
 20
137.6578301887
 30
0.0
 11
199.3470939391
 21
137.6578301887
 31
0.0
  0
LINE
  5
20C
330
1FF
100
AcDbEntity
  8
ROCKWELL
100
AcDbLine
 10
196.1720939391
 20
159.8778301887
 30
0.0
 11
196.1720939391
 21
152.2259966358
 31
0.0
  0
LINE
  5
20D
330
1FF
100
AcDbEntity
  8
ROCKWELL
100
AcDbLine
 10
196.1720939391
 20
137.6578301887
 30
0.0
 11
196.1720939391
 21
144.3381249377
 31
0.0
  0
MTEXT
  5
20E
330
1FF
100
AcDbEntity
  8
ROCKWELL
100
AcDbMText
 10
191.7637453542
 20
151.6927193562
 30
0.0
 40
2.6458333333
 41
0.0
 71
     1
 72
     1
  1
22.22
  7
SLDTEXTSTYLE0
 73
     1
 44
1.0
  0
MTEXT
  5
20F
330
1FF
100
AcDbEntity
  8
ROCKWELL
100
AcDbMText
 10
192.7425845052
 20
147.7487835071
 30
0.0
 40
2.6458333333
 41
0.0
 71
     1
 72
     1
  1
.875
  7
SLDTEXTSTYLE0
 73
     1
 44
1.0
  0
ENDBLK
  5
201
330
1FF
100
AcDbEntity
  8
0
100
AcDbBlockEnd
  0
BLOCK
  5
212
330
211
100
AcDbEntity
  8
0
100
AcDbBlockBegin
  2
*D3
 70
     1
 71
     0
 10
0.0
 20
0.0
 30
0.0
  3
*D3
  1

  0
SOLID
  5
214
330
211
100
AcDbEntity
  8
ROCKWELL
100
AcDbTrace
 10
127.8885377358
 20
104.5436828053
 30
0.0
 11
125.320219051
 21
104.9388087568
 31
0.0
 12
125.320219051
 22
104.1485568537
 32
0.0
 13
125.320219051
 23
104.1485568537
 33
0.0
  0
SOLID
  5
215
330
211
100
AcDbEntity
  8
ROCKWELL
100
AcDbTrace
 10
150.1085377358
 20
104.5436828053
 30
0.0
 11
152.6768564207
 21
104.1485568537
 31
0.0
 12
152.6768564207
 22
104.9388087568
 32
0.0
 13
152.6768564207
 23
104.9388087568
 33
0.0
  0
LINE
  5
216
330
211
100
AcDbEntity
  8
ROCKWELL
100
AcDbLine
 10
135.5153869171
 20
104.2478876166
 30
0.0
 11
135.5153869171
 21
100.8955421449
 31
0.0
  0
LINE
  5
217
330
211
100
AcDbEntity
  8
ROCKWELL
100
AcDbLine
 10
135.5153869171
 20
100.8955421449
 30
0.0
 11
136.1024522472
 21
100.8955421449
 31
0.0
  0
LINE
  5
218
330
211
100
AcDbEntity
  8
ROCKWELL
100
AcDbLine
 10
135.5153869171
 20
104.2478876166
 30
0.0
 11
136.1024522472
 21
104.2478876166
 31
0.0
  0
LINE
  5
219
330
211
100
AcDbEntity
  8
ROCKWELL
100
AcDbLine
 10
144.7226671057
 20
104.2478876166
 30
0.0
 11
144.7226671057
 21
100.8955421449
 31
0.0
  0
LINE
  5
21A
330
211
100
AcDbEntity
  8
ROCKWELL
100
AcDbLine
 10
144.7226671057
 20
100.8955421449
 30
0.0
 11
144.1356017755
 21
100.8955421449
 31
0.0
  0
LINE
  5
21B
330
211
100
AcDbEntity
  8
ROCKWELL
100
AcDbLine
 10
144.7226671057
 20
104.2478876166
 30
0.0
 11
144.1356017755
 21
104.2478876166
 31
0.0
  0
LINE
  5
21C
330
211
100
AcDbEntity
  8
ROCKWELL
100
AcDbLine
 10
127.8885377358
 20
132.5628301887
 30
0.0
 11
127.8885377358
 21
101.3686828053
 31
0.0
  0
LINE
  5
21D
330
211
100
AcDbEntity
  8
ROCKWELL
100
AcDbLine
 10
150.1085377358
 20
119.6478301887
 30
0.0
 11
150.1085377358
 21
101.3686828053
 31
0.0
  0
LINE
  5
21E
330
211
100
AcDbEntity
  8
ROCKWELL
100
AcDbLine
 10
127.8885377358
 20
104.5436828053
 30
0.0
 11
122.9494633418
 21
104.5436828053
 31
0.0
  0
LINE
  5
21F
330
211
100
AcDbEntity
  8
ROCKWELL
100
AcDbLine
 10
150.1085377358
 20
104.5436828053
 30
0.0
 11
155.0476121299
 21
104.5436828053
 31
0.0
  0
MTEXT
  5
220
330
211
100
AcDbEntity
  8
ROCKWELL
100
AcDbMText
 10
135.7106784265
 20
107.9543413747
 30
0.0
 40
2.6458333333
 41
0.0
 71
     1
 72
     1
  1
22.22
  7
SLDTEXTSTYLE0
 73
     1
 44
1.0
  0
MTEXT
  5
221
330
211
100
AcDbEntity
  8
ROCKWELL
100
AcDbMText
 10
136.6895175774
 20
104.0104055256
 30
0.0
 40
2.6458333333
 41
0.0
 71
     1
 72
     1
  1
.875
  7
SLDTEXTSTYLE0
 73
     1
 44
1.0
  0
ENDBLK
  5
213
330
211
100
AcDbEntity
  8
0
100
AcDbBlockEnd
  0
BLOCK
  5
225
330
224
100
AcDbEntity
  8
0
100
AcDbBlockBegin
  2
*D4
 70
     1
 71
     0
 10
0.0
 20
0.0
 30
0.0
  3
*D4
  1

  0
SOLID
  5
227
330
224
100
AcDbEntity
  8
ROCKWELL
100
AcDbTrace
 10
151.2469489631
 20
161.8590532649
 30
0.0
 11
152.8691089102
 21
163.8890735827
 31
0.0
 12
152.183916216
 22
164.2827854596
 32
0.0
 13
152.183916216
 23
164.2827854596
 33
0.0
  0
LINE
  5
228
330
224
100
AcDbEntity
  8
ROCKWELL
100
AcDbLine
 10
163.1191935536
 20
171.9101430099
 30
0.0
 11
163.1191935536
 21
168.5577975383
 31
0.0
  0
LINE
  5
229
330
224
100
AcDbEntity
  8
ROCKWELL
100
AcDbLine
 10
163.1191935536
 20
168.5577975383
 30
0.0
 11
163.7062588838
 21
168.5577975383
 31
0.0
  0
LINE
  5
22A
330
224
100
AcDbEntity
  8
ROCKWELL
100
AcDbLine
 10
163.1191935536
 20
171.9101430099
 30
0.0
 11
163.7062588838
 21
171.9101430099
 31
0.0
  0
LINE
  5
22B
330
224
100
AcDbEntity
  8
ROCKWELL
100
AcDbLine
 10
172.3264737423
 20
171.9101430099
 30
0.0
 11
172.3264737423
 21
168.5577975383
 31
0.0
  0
LINE
  5
22C
330
224
100
AcDbEntity
  8
ROCKWELL
100
AcDbLine
 10
172.3264737423
 20
168.5577975383
 30
0.0
 11
171.7394084121
 21
168.5577975383
 31
0.0
  0
LINE
  5
22D
330
224
100
AcDbEntity
  8
ROCKWELL
100
AcDbLine
 10
172.3264737423
 20
171.9101430099
 30
0.0
 11
171.7394084121
 21
171.9101430099
 31
0.0
  0
LINE
  5
22E
330
224
100
AcDbEntity
  8
ROCKWELL
100
AcDbLine
 10
151.2469489631
 20
161.8590532649
 30
0.0
 11
157.1922713838
 21
172.2059381986
 31
0.0
  0
LINE
  5
22F
330
224
100
AcDbEntity
  8
ROCKWELL
100
AcDbLine
 10
157.1922713838
 20
172.2059381986
 30
0.0
 11
160.1622713838
 21
172.2059381986
 31
0.0
  0
MTEXT
  5
230
330
224
100
AcDbEntity
  8
ROCKWELL
100
AcDbMText
 10
162.5185530819
 20
175.6165965352
 30
0.0
 40
2.6458333333
 41
0.0
 71
     1
 72
     1
  1
%%c
  7
SLDTEXTSTYLE0
 73
     1
 44
1.0
  0
MTEXT
  5
231
330
224
100
AcDbEntity
  8
ROCKWELL
100
AcDbMText
 10
166.0680953461
 20
175.6165967681
 30
0.0
 40
2.6458333333
 41
0.0
 71
     1
 72
     1
  1
4.57
  7
SLDTEXTSTYLE0
 73
     1
 44
1.0
  0
MTEXT
  5
232
330
224
100
AcDbEntity
  8
ROCKWELL
100
AcDbMText
 10
164.293324214
 20
171.672660919
 30
0.0
 40
2.6458333333
 41
0.0
 71
     1
 72
     1
  1
.180
  7
SLDTEXTSTYLE0
 73
     1
 44
1.0
  0
ENDBLK
  5
226
330
224
100
AcDbEntity
  8
0
100
AcDbBlockEnd
  0
BLOCK
  5
235
330
234
100
AcDbEntity
  8
0
100
AcDbBlockBegin
  2
*D5
 70
     1
 71
     0
 10
0.0
 20
0.0
 30
0.0
  3
*D5
  1

  0
SOLID
  5
237
330
234
100
AcDbEntity
  8
ROCKWELL
100
AcDbTrace
 10
132.6373549706
 20
177.3490129539
 30
0.0
 11
130.5418831726
 21
175.8123336353
 31
0.0
 12
131.100675652
 22
175.2535411558
 32
0.0
 13
131.100675652
 23
175.2535411558
 33
0.0
  0
SOLID
  5
238
330
234
100
AcDbEntity
  8
ROCKWELL
100
AcDbTrace
 10
110.4173549706
 20
155.1290129539
 30
0.0
 11
112.5128267687
 21
156.6656922725
 31
0.0
 12
111.9540342892
 22
157.224484752
 32
0.0
 13
111.9540342892
 23
157.224484752
 33
0.0
  0
LINE
  5
239
330
234
100
AcDbEntity
  8
ROCKWELL
100
AcDbLine
 10
115.7196311588
 20
165.7179731986
 30
0.0
 11
115.7196311588
 21
162.3656277269
 31
0.0
  0
LINE
  5
23A
330
234
100
AcDbEntity
  8
ROCKWELL
100
AcDbLine
 10
115.7196311588
 20
162.3656277269
 30
0.0
 11
116.306696489
 21
162.3656277269
 31
0.0
  0
LINE
  5
23B
330
234
100
AcDbEntity
  8
ROCKWELL
100
AcDbLine
 10
115.7196311588
 20
165.7179731986
 30
0.0
 11
116.306696489
 21
165.7179731986
 31
0.0
  0
LINE
  5
23C
330
234
100
AcDbEntity
  8
ROCKWELL
100
AcDbLine
 10
126.8845896493
 20
165.7179731986
 30
0.0
 11
126.8845896493
 21
162.3656277269
 31
0.0
  0
LINE
  5
23D
330
234
100
AcDbEntity
  8
ROCKWELL
100
AcDbLine
 10
126.8845896493
 20
162.3656277269
 30
0.0
 11
126.2975243192
 21
162.3656277269
 31
0.0
  0
LINE
  5
23E
330
234
100
AcDbEntity
  8
ROCKWELL
100
AcDbLine
 10
126.8845896493
 20
165.7179731986
 30
0.0
 11
126.2975243192
 21
165.7179731986
 31
0.0
  0
LINE
  5
23F
330
234
100
AcDbEntity
  8
ROCKWELL
100
AcDbLine
 10
149.2105121237
 20
160.7758558008
 30
0.0
 11
130.3922909404
 21
179.5940769842
 31
0.0
  0
LINE
  5
240
330
234
100
AcDbEntity
  8
ROCKWELL
100
AcDbLine
 10
126.9905121237
 20
138.5558558008
 30
0.0
 11
108.1722909404
 21
157.3740769842
 31
0.0
  0
LINE
  5
241
330
234
100
AcDbEntity
  8
ROCKWELL
100
AcDbLine
 10
132.6373549706
 20
177.3490129539
 30
0.0
 11
125.2460462531
 21
169.9577042364
 31
0.0
  0
LINE
  5
242
330
234
100
AcDbEntity
  8
ROCKWELL
100
AcDbLine
 10
110.4173549706
 20
155.1290129539
 30
0.0
 11
117.358174555
 21
162.0698325383
 31
0.0
  0
MTEXT
  5
243
330
234
100
AcDbEntity
  8
ROCKWELL
100
AcDbMText
 10
116.8937618192
 20
169.4244269567
 30
0.0
 40
2.6458333333
 41
0.0
 71
     1
 72
     1
  1
31.42
  7
SLDTEXTSTYLE0
 73
     1
 44
1.0
  0
MTEXT
  5
244
330
234
100
AcDbEntity
  8
ROCKWELL
100
AcDbMText
 10
116.8937618192
 20
165.4804911077
 30
0.0
 40
2.6458333333
 41
0.0
 71
     1
 72
     1
  1
1.237
  7
SLDTEXTSTYLE0
 73
     1
 44
1.0
  0
ENDBLK
  5
236
330
234
100
AcDbEntity
  8
0
100
AcDbBlockEnd
  0
BLOCK
  5
246
330
245
100
AcDbEntity
  8
0
100
AcDbBlockBegin
  2
SW_CENTERMARKSYMBOL_0
 70
     0
 71
     0
 10
0.0
 20
0.0
 30
0.0
  3
SW_CENTERMARKSYMBOL_0
  1

  0
LINE
  5
248
330
245
100
AcDbEntity
  8
0
  6
Continuous
 62
     0
370
     0
100
AcDbLine
 10
0.0
 20
0.0
 30
0.0
 11
0.0
 21
1.54
 31
0.0
  0
LINE
  5
249
330
245
100
AcDbEntity
  8
0
  6
Continuous
 62
     0
370
     0
100
AcDbLine
 10
0.0
 20
0.0
 30
0.0
 11
-1.54
 21
0.0
 31
0.0
  0
LINE
  5
24A
330
245
100
AcDbEntity
  8
0
  6
Continuous
 62
     0
370
     0
100
AcDbLine
 10
0.0
 20
0.0
 30
0.0
 11
0.0
 21
-1.54
 31
0.0
  0
LINE
  5
24B
330
245
100
AcDbEntity
  8
0
  6
Continuous
 62
     0
370
     0
100
AcDbLine
 10
0.0
 20
0.0
 30
0.0
 11
1.54
 21
0.0
 31
0.0
  0
LINE
  5
24C
330
245
100
AcDbEntity
  8
0
  6
Continuous
 62
     0
370
     0
100
AcDbLine
 10
0.0
 20
3.08
 30
0.0
 11
0.0
 21
16.74
 31
0.0
  0
LINE
  5
24D
330
245
100
AcDbEntity
  8
0
  6
Continuous
 62
     0
370
     0
100
AcDbLine
 10
-3.08
 20
0.0
 30
0.0
 11
-16.74
 21
0.0
 31
0.0
  0
LINE
  5
24E
330
245
100
AcDbEntity
  8
0
  6
Continuous
 62
     0
370
     0
100
AcDbLine
 10
0.0
 20
-3.08
 30
0.0
 11
0.0
 21
-16.74
 31
0.0
  0
LINE
  5
24F
330
245
100
AcDbEntity
  8
0
  6
Continuous
 62
     0
370
     0
100
AcDbLine
 10
3.08
 20
0.0
 30
0.0
 11
16.74
 21
0.0
 31
0.0
  0
ENDBLK
  5
247
330
245
100
AcDbEntity
  8
0
100
AcDbBlockEnd
  0
BLOCK
  5
252
330
251
100
AcDbEntity
  8
0
100
AcDbBlockBegin
  2
SW_CENTERMARKSYMBOL_1
 70
     0
 71
     0
 10
0.0
 20
0.0
 30
0.0
  3
SW_CENTERMARKSYMBOL_1
  1

  0
LINE
  5
254
330
251
100
AcDbEntity
  8
0
  6
Continuous
 62
     0
370
     0
100
AcDbLine
 10
0.0
 20
0.0
 30
0.0
 11
0.0
 21
1.54
 31
0.0
  0
LINE
  5
255
330
251
100
AcDbEntity
  8
0
  6
Continuous
 62
     0
370
     0
100
AcDbLine
 10
0.0
 20
0.0
 30
0.0
 11
-1.54
 21
0.0
 31
0.0
  0
LINE
  5
256
330
251
100
AcDbEntity
  8
0
  6
Continuous
 62
     0
370
     0
100
AcDbLine
 10
0.0
 20
0.0
 30
0.0
 11
0.0
 21
-1.54
 31
0.0
  0
LINE
  5
257
330
251
100
AcDbEntity
  8
0
  6
Continuous
 62
     0
370
     0
100
AcDbLine
 10
0.0
 20
0.0
 30
0.0
 11
1.54
 21
0.0
 31
0.0
  0
LINE
  5
258
330
251
100
AcDbEntity
  8
0
  6
Continuous
 62
     0
370
     0
100
AcDbLine
 10
0.0
 20
3.08
 30
0.0
 11
0.0
 21
3.825
 31
0.0
  0
LINE
  5
259
330
251
100
AcDbEntity
  8
0
  6
Continuous
 62
     0
370
     0
100
AcDbLine
 10
-3.08
 20
0.0
 30
0.0
 11
-3.825
 21
0.0
 31
0.0
  0
LINE
  5
25A
330
251
100
AcDbEntity
  8
0
  6
Continuous
 62
     0
370
     0
100
AcDbLine
 10
0.0
 20
-3.08
 30
0.0
 11
0.0
 21
-3.825
 31
0.0
  0
LINE
  5
25B
330
251
100
AcDbEntity
  8
0
  6
Continuous
 62
     0
370
     0
100
AcDbLine
 10
3.08
 20
0.0
 30
0.0
 11
3.825
 21
0.0
 31
0.0
  0
ENDBLK
  5
253
330
251
100
AcDbEntity
  8
0
100
AcDbBlockEnd
  0
BLOCK
  5
25E
330
25D
100
AcDbEntity
  8
0
100
AcDbBlockBegin
  2
SW_CENTERMARKSYMBOL_2
 70
     0
 71
     0
 10
0.0
 20
0.0
 30
0.0
  3
SW_CENTERMARKSYMBOL_2
  1

  0
LINE
  5
260
330
25D
100
AcDbEntity
  8
0
  6
Continuous
 62
     0
370
     0
100
AcDbLine
 10
0.0
 20
0.0
 30
0.0
 11
0.0
 21
1.54
 31
0.0
  0
LINE
  5
261
330
25D
100
AcDbEntity
  8
0
  6
Continuous
 62
     0
370
     0
100
AcDbLine
 10
0.0
 20
0.0
 30
0.0
 11
-1.54
 21
0.0
 31
0.0
  0
LINE
  5
262
330
25D
100
AcDbEntity
  8
0
  6
Continuous
 62
     0
370
     0
100
AcDbLine
 10
0.0
 20
0.0
 30
0.0
 11
0.0
 21
-1.54
 31
0.0
  0
LINE
  5
263
330
25D
100
AcDbEntity
  8
0
  6
Continuous
 62
     0
370
     0
100
AcDbLine
 10
0.0
 20
0.0
 30
0.0
 11
1.54
 21
0.0
 31
0.0
  0
LINE
  5
264
330
25D
100
AcDbEntity
  8
0
  6
Continuous
 62
     0
370
     0
100
AcDbLine
 10
0.0
 20
3.08
 30
0.0
 11
0.0
 21
3.825
 31
0.0
  0
LINE
  5
265
330
25D
100
AcDbEntity
  8
0
  6
Continuous
 62
     0
370
     0
100
AcDbLine
 10
-3.08
 20
0.0
 30
0.0
 11
-3.825
 21
0.0
 31
0.0
  0
LINE
  5
266
330
25D
100
AcDbEntity
  8
0
  6
Continuous
 62
     0
370
     0
100
AcDbLine
 10
0.0
 20
-3.08
 30
0.0
 11
0.0
 21
-3.825
 31
0.0
  0
LINE
  5
267
330
25D
100
AcDbEntity
  8
0
  6
Continuous
 62
     0
370
     0
100
AcDbLine
 10
3.08
 20
0.0
 30
0.0
 11
3.825
 21
0.0
 31
0.0
  0
ENDBLK
  5
25F
330
25D
100
AcDbEntity
  8
0
100
AcDbBlockEnd
  0
BLOCK
  5
282
330
281
100
AcDbEntity
  8
0
100
AcDbBlockBegin
  2
*D9
 70
     1
 71
     0
 10
0.0
 20
0.0
 30
0.0
  3
*D9
  1

  0
SOLID
  5
284
330
281
100
AcDbEntity
  8
ROCKWELL
100
AcDbTrace
 10
193.2490123265
 20
235.989245283
 30
0.0
 11
193.644138278
 21
238.5575639679
 31
0.0
 12
192.8538863749
 22
238.5575639679
 32
0.0
 13
192.8538863749
 23
238.5575639679
 33
0.0
  0
SOLID
  5
285
330
281
100
AcDbEntity
  8
ROCKWELL
100
AcDbTrace
 10
193.2490123265
 20
219.149245283
 30
0.0
 11
192.8538863749
 21
216.5809265981
 31
0.0
 12
193.644138278
 22
216.5809265981
 32
0.0
 13
193.644138278
 23
216.5809265981
 33
0.0
  0
LINE
  5
286
330
281
100
AcDbEntity
  8
ROCKWELL
100
AcDbLine
 10
188.6453722321
 20
228.9270919598
 30
0.0
 11
188.6453722321
 21
225.5747464881
 31
0.0
  0
LINE
  5
287
330
281
100
AcDbEntity
  8
ROCKWELL
100
AcDbLine
 10
188.6453722321
 20
225.5747464881
 30
0.0
 11
189.2324375623
 21
225.5747464881
 31
0.0
  0
LINE
  5
288
330
281
100
AcDbEntity
  8
ROCKWELL
100
AcDbLine
 10
188.6453722321
 20
228.9270919598
 30
0.0
 11
189.2324375623
 21
228.9270919598
 31
0.0
  0
LINE
  5
289
330
281
100
AcDbEntity
  8
ROCKWELL
100
AcDbLine
 10
197.8526524208
 20
228.9270919598
 30
0.0
 11
197.8526524208
 21
225.5747464881
 31
0.0
  0
LINE
  5
28A
330
281
100
AcDbEntity
  8
ROCKWELL
100
AcDbLine
 10
197.8526524208
 20
225.5747464881
 30
0.0
 11
197.2655870906
 21
225.5747464881
 31
0.0
  0
LINE
  5
28B
330
281
100
AcDbEntity
  8
ROCKWELL
100
AcDbLine
 10
197.8526524208
 20
228.9270919598
 30
0.0
 11
197.2655870906
 21
228.9270919598
 31
0.0
  0
LINE
  5
28C
330
281
100
AcDbEntity
  8
ROCKWELL
100
AcDbLine
 10
165.5785377358
 20
235.989245283
 30
0.0
 11
196.4240123265
 21
235.989245283
 31
0.0
  0
LINE
  5
28D
330
281
100
AcDbEntity
  8
ROCKWELL
100
AcDbLine
 10
171.1885377358
 20
219.149245283
 30
0.0
 11
196.4240123265
 21
219.149245283
 31
0.0
  0
LINE
  5
28E
330
281
100
AcDbEntity
  8
ROCKWELL
100
AcDbLine
 10
193.2490123265
 20
235.989245283
 30
0.0
 11
193.2490123265
 21
240.928319677
 31
0.0
  0
LINE
  5
28F
330
281
100
AcDbEntity
  8
ROCKWELL
100
AcDbLine
 10
193.2490123265
 20
219.149245283
 30
0.0
 11
193.2490123265
 21
214.210170889
 31
0.0
  0
MTEXT
  5
290
330
281
100
AcDbEntity
  8
ROCKWELL
100
AcDbMText
 10
188.8406637415
 20
232.6335457179
 30
0.0
 40
2.6458333333
 41
0.0
 71
     1
 72
     1
  1
16.84
  7
SLDTEXTSTYLE0
 73
     1
 44
1.0
  0
MTEXT
  5
291
330
281
100
AcDbEntity
  8
ROCKWELL
100
AcDbMText
 10
189.8195028925
 20
228.6896098688
 30
0.0
 40
2.6458333333
 41
0.0
 71
     1
 72
     1
  1
.663
  7
SLDTEXTSTYLE0
 73
     1
 44
1.0
  0
ENDBLK
  5
283
330
281
100
AcDbEntity
  8
0
100
AcDbBlockEnd
  0
BLOCK
  5
294
330
293
100
AcDbEntity
  8
0
100
AcDbBlockBegin
  2
*D10
 70
     1
 71
     0
 10
0.0
 20
0.0
 30
0.0
  3
*D10
  1

  0
SOLID
  5
296
330
293
100
AcDbEntity
  8
ROCKWELL
100
AcDbTrace
 10
104.9985377358
 20
222.319245283
 30
0.0
 11
105.3936636874
 21
224.8875639679
 31
0.0
 12
104.6034117843
 22
224.8875639679
 32
0.0
 13
104.6034117843
 23
224.8875639679
 33
0.0
  0
SOLID
  5
297
330
293
100
AcDbEntity
  8
ROCKWELL
100
AcDbTrace
 10
104.9985377358
 20
219.149245283
 30
0.0
 11
104.6034117843
 21
216.5809265981
 31
0.0
 12
105.3936636874
 22
216.5809265981
 32
0.0
 13
105.3936636874
 23
216.5809265981
 33
0.0
  0
LINE
  5
298
330
293
100
AcDbEntity
  8
ROCKWELL
100
AcDbLine
 10
89.7798584906
 20
228.9270919598
 30
0.0
 11
89.7798584906
 21
225.5747464881
 31
0.0
  0
LINE
  5
299
330
293
100
AcDbEntity
  8
ROCKWELL
100
AcDbLine
 10
89.7798584906
 20
225.5747464881
 30
0.0
 11
90.3669238208
 21
225.5747464881
 31
0.0
  0
LINE
  5
29A
330
293
100
AcDbEntity
  8
ROCKWELL
100
AcDbLine
 10
89.7798584906
 20
228.9270919598
 30
0.0
 11
90.3669238208
 21
228.9270919598
 31
0.0
  0
LINE
  5
29B
330
293
100
AcDbEntity
  8
ROCKWELL
100
AcDbLine
 10
98.9871386792
 20
228.9270919598
 30
0.0
 11
98.9871386792
 21
225.5747464881
 31
0.0
  0
LINE
  5
29C
330
293
100
AcDbEntity
  8
ROCKWELL
100
AcDbLine
 10
98.9871386792
 20
225.5747464881
 30
0.0
 11
98.4000733491
 21
225.5747464881
 31
0.0
  0
LINE
  5
29D
330
293
100
AcDbEntity
  8
ROCKWELL
100
AcDbLine
 10
98.9871386792
 20
228.9270919598
 30
0.0
 11
98.4000733491
 21
228.9270919598
 31
0.0
  0
LINE
  5
29E
330
293
100
AcDbEntity
  8
ROCKWELL
100
AcDbLine
 10
123.7752074028
 20
222.319245283
 30
0.0
 11
101.8235377358
 21
222.319245283
 31
0.0
  0
LINE
  5
29F
330
293
100
AcDbEntity
  8
ROCKWELL
100
AcDbLine
 10
122.6122911112
 20
219.149245283
 30
0.0
 11
101.8235377358
 21
219.149245283
 31
0.0
  0
LINE
  5
2A0
330
293
100
AcDbEntity
  8
ROCKWELL
100
AcDbLine
 10
103.5135377358
 20
229.2228871485
 30
0.0
 11
104.9985377358
 21
229.2228871485
 31
0.0
  0
LINE
  5
2A1
330
293
100
AcDbEntity
  8
ROCKWELL
100
AcDbLine
 10
104.9985377358
 20
229.2228871485
 30
0.0
 11
104.9985377358
 21
222.319245283
 31
0.0
  0
LINE
  5
2A2
330
293
100
AcDbEntity
  8
ROCKWELL
100
AcDbLine
 10
104.9985377358
 20
219.149245283
 30
0.0
 11
104.9985377358
 21
214.210170889
 31
0.0
  0
MTEXT
  5
2A3
330
293
100
AcDbEntity
  8
ROCKWELL
100
AcDbMText
 10
90.9539891509
 20
232.6335457179
 30
0.0
 40
2.6458333333
 41
0.0
 71
     1
 72
     1
  1
3.17
  7
SLDTEXTSTYLE0
 73
     1
 44
1.0
  0
MTEXT
  5
2A4
330
293
100
AcDbEntity
  8
ROCKWELL
100
AcDbMText
 10
90.9539891509
 20
228.6896098688
 30
0.0
 40
2.6458333333
 41
0.0
 71
     1
 72
     1
  1
.125
  7
SLDTEXTSTYLE0
 73
     1
 44
1.0
  0
ENDBLK
  5
295
330
293
100
AcDbEntity
  8
0
100
AcDbBlockEnd
  0
BLOCK
  5
2A8
330
2A7
100
AcDbEntity
  8
0
100
AcDbBlockBegin
  2
*D11
 70
     1
 71
     0
 10
0.0
 20
0.0
 30
0.0
  3
*D11
  1

  0
SOLID
  5
2AA
330
2A7
100
AcDbEntity
  8
ROCKWELL
100
AcDbTrace
 10
165.3085377358
 20
249.2918979174
 30
0.0
 11
162.740219051
 21
249.6870238689
 31
0.0
 12
162.740219051
 22
248.8967719659
 32
0.0
 13
162.740219051
 23
248.8967719659
 33
0.0
  0
SOLID
  5
2AB
330
2A7
100
AcDbEntity
  8
ROCKWELL
100
AcDbTrace
 10
134.9085377358
 20
249.2918979174
 30
0.0
 11
137.4768564207
 21
248.8967719659
 31
0.0
 12
137.4768564207
 22
249.6870238689
 32
0.0
 13
137.4768564207
 23
249.6870238689
 33
0.0
  0
LINE
  5
2AC
330
2A7
100
AcDbEntity
  8
ROCKWELL
100
AcDbLine
 10
144.0448087487
 20
248.9961027287
 30
0.0
 11
144.0448087487
 21
245.643757257
 31
0.0
  0
LINE
  5
2AD
330
2A7
100
AcDbEntity
  8
ROCKWELL
100
AcDbLine
 10
144.0448087487
 20
245.643757257
 30
0.0
 11
144.6318740789
 21
245.643757257
 31
0.0
  0
LINE
  5
2AE
330
2A7
100
AcDbEntity
  8
ROCKWELL
100
AcDbLine
 10
144.0448087487
 20
248.9961027287
 30
0.0
 11
144.6318740789
 21
248.9961027287
 31
0.0
  0
LINE
  5
2AF
330
2A7
100
AcDbEntity
  8
ROCKWELL
100
AcDbLine
 10
155.2097672392
 20
248.9961027287
 30
0.0
 11
155.2097672392
 21
245.643757257
 31
0.0
  0
LINE
  5
2B0
330
2A7
100
AcDbEntity
  8
ROCKWELL
100
AcDbLine
 10
155.2097672392
 20
245.643757257
 30
0.0
 11
154.622701909
 21
245.643757257
 31
0.0
  0
LINE
  5
2B1
330
2A7
100
AcDbEntity
  8
ROCKWELL
100
AcDbLine
 10
155.2097672392
 20
248.9961027287
 30
0.0
 11
154.622701909
 21
248.9961027287
 31
0.0
  0
LINE
  5
2B2
330
2A7
100
AcDbEntity
  8
ROCKWELL
100
AcDbLine
 10
165.3085377358
 20
236.259245283
 30
0.0
 11
165.3085377358
 21
252.4668979174
 31
0.0
  0
LINE
  5
2B3
330
2A7
100
AcDbEntity
  8
ROCKWELL
100
AcDbLine
 10
134.9085377358
 20
236.259245283
 30
0.0
 11
134.9085377358
 21
252.4668979174
 31
0.0
  0
LINE
  5
2B4
330
2A7
100
AcDbEntity
  8
ROCKWELL
100
AcDbLine
 10
165.3085377358
 20
249.2918979174
 30
0.0
 11
158.3643625222
 21
249.2918979174
 31
0.0
  0
LINE
  5
2B5
330
2A7
100
AcDbEntity
  8
ROCKWELL
100
AcDbLine
 10
134.9085377358
 20
249.2918979174
 30
0.0
 11
140.4996304468
 21
249.2918979174
 31
0.0
  0
MTEXT
  5
2B6
330
2A7
100
AcDbEntity
  8
ROCKWELL
100
AcDbMText
 10
143.444168277
 20
252.702556254
 30
0.0
 40
2.6458333333
 41
0.0
 71
     1
 72
     1
  1
%%c
  7
SLDTEXTSTYLE0
 73
     1
 44
1.0
  0
MTEXT
  5
2B7
330
2A7
100
AcDbEntity
  8
ROCKWELL
100
AcDbMText
 10
146.9937105411
 20
252.7025564868
 30
0.0
 40
2.6458333333
 41
0.0
 71
     1
 72
     1
  1
30.40
  7
SLDTEXTSTYLE0
 73
     1
 44
1.0
  0
MTEXT
  5
2B8
330
2A7
100
AcDbEntity
  8
ROCKWELL
100
AcDbMText
 10
145.218939409
 20
248.7586206378
 30
0.0
 40
2.6458333333
 41
0.0
 71
     1
 72
     1
  1
1.197
  7
SLDTEXTSTYLE0
 73
     1
 44
1.0
  0
ENDBLK
  5
2A9
330
2A7
100
AcDbEntity
  8
0
100
AcDbBlockEnd
  0
ENDSEC
  0
SECTION
  2
ENTITIES
  0
HATCH
  5
34
330
1F
100
AcDbEntity
  8
ALLEN
100
AcDbHatch
 10
0.0
 20
0.0
 30
0.0
210
0.0
220
0.0
230
1.0
  2
SOLID
 70
     1
 71
     0
 91
        2
 92
        0
 93
        7
 72
     4
 94
        3
 73
     1
 74
     0
 95
      104
 96
      100
 40
0.0
 40
0.0
 40
0.0
 40
0.0
 40
0.0514226809773395
 40
0.0514226809773395
 40
0.0514226809773395
 40
0.0616423292371592
 40
0.0718619774969789
 40
0.0820816257567986
 40
0.0820816257567986
 40
0.0820816257567986
 40
0.1103461420330607
 40
0.1103461420330607
 40
0.1103461420330607
 40
0.1189328808310808
 40
0.1275196196291009
 40
0.136106358427121
 40
0.136106358427121
 40
0.136106358427121
 40
0.1603338960815236
 40
0.1603338960815236
 40
0.1603338960815236
 40
0.1679541630707509
 40
0.1755744300599782
 40
0.1831946970492055
 40
0.1831946970492055
 40
0.1831946970492055
 40
0.2048738448068388
 40
0.2048738448068388
 40
0.2048738448068388
 40
0.2119069143560584
 40
0.2189399839052781
 40
0.2259730534544977
 40
0.2259730534544977
 40
0.2259730534544977
 40
0.3884933552561804
 40
0.3884933552561804
 40
0.3884933552561804
 40
0.3955264248054064
 40
0.4025594943546324
 40
0.4095925639038584
 40
0.4095925639038584
 40
0.4095925639038584
 40
0.4312717116615638
 40
0.4312717116615638
 40
0.4312717116615638
 40
0.4382207156790982
 40
0.4451697196966327
 40
0.4521187237141671
 40
0.4521187237141671
 40
0.4521187237141671
 40
0.472678628155521
 40
0.472678628155521
 40
0.472678628155521
 40
0.4823353761633305
 40
0.4919921241711401
 40
0.5016488721789496
 40
0.5016488721789496
 40
0.5016488721789496
 40
0.5512189153874618
 40
0.5512189153874618
 40
0.5512189153874618
 40
0.5571000008128726
 40
0.5629810862382834
 40
0.5688621716636941
 40
0.5688621716636941
 40
0.5688621716636941
 40
0.607935943225815
 40
0.607935943225815
 40
0.607935943225815
 40
0.6182181424305805
 40
0.6285003416353458
 40
0.6387825408401113
 40
0.6387825408401113
 40
0.6387825408401113
 40
0.6648921173631952
 40
0.6648921173631952
 40
0.6648921173631952
 40
0.673438328293788
 40
0.6819845392243808
 40
0.6905307501549737
 40
0.6905307501549737
 40
0.6905307501549737
 40
0.8010827346384493
 40
0.8010827346384493
 40
0.8010827346384493
 40
0.8214235353879105
 40
0.8417643361373717
 40
0.8621051368868329
 40
0.8621051368868329
 40
0.8621051368868329
 40
0.9035124907190127
 40
0.9035124907190127
 40
0.9035124907190127
 40
0.9161316047926409
 40
0.9287507188662689
 40
0.941369832939897
 40
0.941369832939897
 40
0.941369832939897
 40
1.0
 40
1.0
 40
1.0
 40
1.0
 10
342.5927629821563
 20
92.57463770215634
 42
1.0
 10
342.7231340759064
 20
92.59324121778133
 42
1.0
 10
342.8535051696564
 20
92.6118447334063
 42
1.0
 10
342.9838762634065
 20
92.63044824903133
 42
1.0
 10
343.0097859728198
 20
92.6341454772285
 42
1.0
 10
343.0616053916463
 20
92.64153993362281
 42
1.0
 10
343.1400201713504
 20
92.66452356420784
 42
1.0
 10
343.1848988420961
 20
92.69146489054847
 42
1.0
 10
343.2073381774689
 20
92.70493555371881
 42
1.0
 10
343.2693987243438
 20
92.7421914130938
 42
1.0
 10
343.3314592712188
 20
92.77944727246883
 42
1.0
 10
343.3935198180939
 20
92.81670313184381
 42
1.0
 10
343.412373765583
 20
92.82802143391633
 42
1.0
 10
343.4500816605612
 20
92.8506580380614
 42
1.0
 10
343.5028710311281
 20
92.89426389035107
 42
1.0
 10
343.5292622146259
 20
92.92944636645042
 42
1.0
 10
343.5424578063751
 20
92.94703760449998
 42
1.0
 10
343.5796892516876
 20
92.99667139356252
 42
1.0
 10
343.616920697
 20
93.04630518262499
 42
1.0
 10
343.6541521423126
 20
93.09593897168756
 42
1.0
 10
343.6658625174123
 20
93.11155024550905
 42
1.0
 10
343.6892832676117
 20
93.14277279315199
 42
1.0
 10
343.7210605150781
 20
93.19251206487492
 42
1.0
 10
343.7385154801094
 20
93.22742199493753
 42
1.0
 10
343.7472429626249
 20
93.24487695996876
 42
1.0
 10
343.7720720641875
 20
93.2945351630938
 42
1.0
 10
343.79690116575
 20
93.34419336621879
 42
1.0
 10
343.8217302673126
 20
93.39385156934382
 42
1.0
 10
343.8297852333143
 20
93.4099615013472
 42
1.0
 10
343.8458951653178
 20
93.44218136535402
 42
1.0
 10
343.8589739196563
 20
93.49758385779359
 42
1.0
 10
343.8589739196563
 20
93.53360676086608
 42
1.0
 10
343.8589739196563
 20
93.55161821240229
 42
1.0
 10
343.8589739196563
 20
93.96782716911328
 42
1.0
 10
343.8589739196563
 20
94.38403612582432
 42
1.0
 10
343.8589739196563
 20
94.80024508253531
 42
1.0
 10
343.8589739196563
 20
94.81825653407161
 42
1.0
 10
343.8589739196563
 20
94.85427943714406
 42
1.0
 10
343.8458951653176
 20
94.90968192958363
 42
1.0
 10
343.8297852333143
 20
94.94190179359043
 42
1.0
 10
343.8217302673126
 20
94.95801172559376
 42
1.0
 10
343.79690116575
 20
95.00766992871881
 42
1.0
 10
343.7720720641875
 20
95.05732813184379
 42
1.0
 10
343.747242962625
 20
95.10698633496884
 42
1.0
 10
343.7392842767745
 20
95.12290370666979
 42
1.0
 10
343.7233669050736
 20
95.15473845007175
 42
1.0
 10
343.6919035040165
 20
95.19956944592111
 42
1.0
 10
343.6667359295471
 20
95.22473702039045
 42
1.0
 10
343.6541521423125
 20
95.23732080762512
 42
1.0
 10
343.616920697
 20
95.27455225293754
 42
1.0
 10
343.5796892516874
 20
95.31178369825008
 42
1.0
 10
343.5424578063751
 20
95.34901514356255
 42
1.0
 10
343.5249706295074
 20
95.36650232043026
 42
1.0
 10
343.489996275772
 20
95.40147667416565
 42
1.0
 10
343.4155399650053
 20
95.4285628901173
 42
1.0
 10
343.3686189966974
 20
95.44421004869206
 42
1.0
 10
343.3451585125434
 20
95.45203362797943
 42
1.0
 10
343.2247310961645
 20
95.49219364489258
 42
1.0
 10
343.1043036797855
 20
95.53235366180571
 42
1.0
 10
342.9838762634064
 20
95.57251367871878
 42
1.0
 10
342.9695885227177
 20
95.57727834049562
 42
1.0
 10
342.9410130413405
 20
95.58680766404932
 42
1.0
 10
342.9073987139023
 20
95.68043665575077
 42
1.0
 10
342.9335546453425
 20
95.69537765283361
 42
1.0
 10
342.9466326110625
 20
95.70284815137501
 42
1.0
 10
343.0335222595
 20
95.75248194043756
 42
1.0
 10
343.1204119079375
 20
95.80211572950003
 42
1.0
 10
343.2073015563751
 20
95.85174951856254
 42
1.0
 10
343.2301664255277
 20
95.86481056913499
 42
1.0
 10
343.2758961638328
 20
95.89093267027978
 42
1.0
 10
343.3455458733623
 20
95.94597870179611
 42
1.0
 10
343.3651017453708
 20
95.99487799630707
 42
1.0
 10
343.3748796813751
 20
96.01932764356258
 42
1.0
 10
343.3997087829375
 20
96.08141260450004
 42
1.0
 10
343.4245378845002
 20
96.14349756543758
 42
1.0
 10
343.4493669860626
 20
96.2055825263751
 42
1.0
 10
343.4574940707353
 20
96.22590423367356
 42
1.0
 10
343.4737482400805
 20
96.2665476482705
 42
1.0
 10
343.4866106384064
 20
96.33334890666525
 42
1.0
 10
343.4866106384064
 20
96.3771220168039
 42
1.0
 10
343.4866106384063
 20
96.39900857187322
 42
1.0
 10
343.4866106384063
 20
96.68212843821755
 42
1.0
 10
343.4866106384063
 20
96.96524830456194
 42
1.0
 10
343.4866106384064
 20
97.24836817090626
 42
1.0
 10
343.4866106384064
 20
97.30046026872283
 42
1.0
 10
343.4866106384064
 20
97.40464446435593
 42
1.0
 10
343.4856317974829
 20
97.56753136169793
 42
1.0
 10
343.449052912786
 20
97.66508304960766
 42
1.0
 10
343.4307634704375
 20
97.71385889356257
 42
1.0
 10
343.393532025125
 20
97.81315088575002
 42
1.0
 10
343.3563005798125
 20
97.91244287793755
 42
1.0
 10
343.3190691345001
 20
98.01173487012504
 42
1.0
 10
343.3077226510366
 20
98.04199463946675
 42
1.0
 10
343.2850296841095
 20
98.10251417815019
 42
1.0
 10
343.2170311396863
 20
98.18706390947452
 42
1.0
 10
343.1609109617496
 20
98.21912807855404
 42
1.0
 10
343.1328508727813
 20
98.23516016309381
 42
1.0
 10
343.0024797790313
 20
98.30964746778132
 42
1.0
 10
342.8721086852813
 20
98.38413477246883
 42
1.0
 10
342.7417375915313
 20
98.45862207715633
 42
1.0
 72
     1
 10
342.7417375915313
 20
98.45862207715633
 11
338.8686907165313
 21
98.45862207715633
 72
     1
 10
338.8686907165313
 20
98.45862207715633
 11
339.0922258727814
 21
98.08625879590637
 72
     1
 10
339.0922258727814
 20
98.08625879590637
 11
339.0922258727814
 21
97.86272363965631
 72
     1
 10
339.0922258727814
 20
97.86272363965631
 11
339.0922258727814
 21
92.94700098340635
 72
     1
 10
339.0922258727814
 20
92.94700098340635
 11
338.9432512634064
 21
92.57463770215634
 72
     1
 10
338.9432512634064
 20
92.57463770215634
 11
342.5927629821563
 21
92.57463770215634
 97
        0
 92
        0
 93
        4
 72
     1
 10
340.8797747009064
 20
95.85178613965631
 11
340.8797747009064
 21
95.25588770215631
 72
     4
 94
        3
 73
     1
 74
     0
 95
       56
 96
       52
 40
0.0
 40
0.0
 40
0.0
 40
0.0
 40
0.2120532123235044
 40
0.2120532123235044
 40
0.2120532123235044
 40
0.2217394515608651
 40
0.2314256907982259
 40
0.2411119300355866
 40
0.2411119300355866
 40
0.2411119300355866
 40
0.2709693642856582
 40
0.2709693642856582
 40
0.2709693642856582
 40
0.2804080193765581
 40
0.289846674467458
 40
0.2992853295583579
 40
0.2992853295583579
 40
0.2992853295583579
 40
0.3291251493807547
 40
0.3291251493807547
 40
0.3291251493807547
 40
0.3388058990020812
 40
0.3484866486234077
 40
0.3581673982447342
 40
0.3581673982447342
 40
0.3581673982447342
 40
0.538918825801326
 40
0.538918825801326
 40
0.538918825801326
 40
0.5506836716346539
 40
0.5624485174679817
 40
0.5742133633013097
 40
0.5742133633013097
 40
0.5742133633013097
 40
0.610155505115347
 40
0.610155505115347
 40
0.610155505115347
 40
0.619595707653569
 40
0.629035910191791
 40
0.6384761127300129
 40
0.6384761127300129
 40
0.6384761127300129
 40
0.6660048998913444
 40
0.6660048998913444
 40
0.6660048998913444
 40
0.6751122798999579
 40
0.6842196599085716
 40
0.6933270399171851
 40
0.6933270399171851
 40
0.6933270399171851
 40
1.0
 40
1.0
 40
1.0
 40
1.0
 10
340.8797747009064
 20
95.25588770215631
 42
1.0
 10
341.2740852339494
 20
95.25588770215631
 42
1.0
 10
341.6683957669924
 20
95.25588770215631
 42
1.0
 10
342.0627063000354
 20
95.25588770215631
 42
1.0
 10
342.0807177515716
 20
95.25588770215631
 42
1.0
 10
342.1167406546441
 20
95.25588770215631
 42
1.0
 10
342.1721431470837
 20
95.24280894781766
 42
1.0
 10
342.2043630110905
 20
95.22669901581432
 42
1.0
 10
342.2204729430939
 20
95.21864404981254
 42
1.0
 10
342.2701311462188
 20
95.19381494825002
 42
1.0
 10
342.3197893493438
 20
95.16898584668759
 42
1.0
 10
342.3694475524687
 20
95.14415674512507
 42
1.0
 10
342.3851457081712
 20
95.13630766727388
 42
1.0
 10
342.4165420195758
 20
95.12060951157153
 42
1.0
 10
342.4576039222245
 20
95.07956150884073
 42
1.0
 10
342.473295899679
 20
95.04816210907194
 42
1.0
 10
342.4811418884062
 20
95.03246240918762
 42
1.0
 10
342.5059465759063
 20
94.98282862012505
 42
1.0
 10
342.5307512634063
 20
94.93319483106258
 42
1.0
 10
342.5555559509064
 20
94.88356104200012
 42
1.0
 10
342.5636031834484
 20
94.86745865641161
 42
1.0
 10
342.5796976485324
 20
94.83525388523456
 42
1.0
 10
342.5927629821563
 20
94.77988388175032
 42
1.0
 10
342.5927629821563
 20
94.74388139443482
 42
1.0
 10
342.5927629821563
 20
94.72588015077704
 42
1.0
 10
342.5927629821563
 20
94.38977492998247
 42
1.0
 10
342.5927629821563
 20
94.05366970918783
 42
1.0
 10
342.5927629821563
 20
93.71756448839325
 42
1.0
 10
342.5927629821563
 20
93.69568789156702
 42
1.0
 10
342.5927629821563
 20
93.6519346979145
 42
1.0
 10
342.5799137083731
 20
93.5851650051022
 42
1.0
 10
342.5636752033953
 20
93.54453677709662
 42
1.0
 10
342.5555559509064
 20
93.5242226630938
 42
1.0
 10
342.5307512634063
 20
93.46216211621882
 42
1.0
 10
342.5059465759063
 20
93.4001015693438
 42
1.0
 10
342.4811418884063
 20
93.33804102246884
 42
1.0
 10
342.4746269379309
 20
93.3217408215747
 42
1.0
 10
342.46159703698
 20
93.28914041978653
 42
1.0
 10
342.4205340924354
 20
93.23909425857575
 42
1.0
 10
342.3864763991244
 20
93.23057146315031
 42
1.0
 10
342.3694475524687
 20
93.22631006543754
 42
1.0
 10
342.3197893493438
 20
93.21388330762508
 42
1.0
 10
342.2701311462188
 20
93.2014565498126
 42
1.0
 10
342.2204729430939
 20
93.18902979200011
 42
1.0
 10
342.2040444631992
 20
93.1849186335604
 42
1.0
 10
342.1711875034101
 20
93.17669631668099
 42
1.0
 10
342.1200066473236
 20
93.17038965528134
 42
1.0
 10
342.0861365085366
 20
93.17038965528134
 42
1.0
 10
342.069201439143
 20
93.17038965528134
 42
1.0
 10
341.4989465628559
 20
93.17038965528134
 42
1.0
 10
340.9286916865685
 20
93.17038965528134
 42
1.0
 10
340.3584368102813
 20
93.17038965528134
 42
1.0
 72
     1
 10
340.3584368102813
 20
93.17038965528134
 11
340.3584368102813
 21
97.86272363965628
 72
     4
 94
        3
 73
     1
 74
     0
 95
       56
 96
       52
 40
0.0
 40
0.0
 40
0.0
 40
0.0
 40
0.2798506068858227
 40
0.2798506068858227
 40
0.2798506068858227
 40
0.2912051678144988
 40
0.302559728743175
 40
0.3139142896718512
 40
0.3139142896718512
 40
0.3139142896718512
 40
0.3489142569512494
 40
0.3489142569512494
 40
0.3489142569512494
 40
0.359100905092782
 40
0.3692875532343144
 40
0.379474201375847
 40
0.379474201375847
 40
0.379474201375847
 40
0.4076856744705527
 40
0.4076856744705527
 40
0.4076856744705527
 40
0.4166857935986978
 40
0.425685912726843
 40
0.4346860318549882
 40
0.4346860318549882
 40
0.4346860318549882
 40
0.6725510085026724
 40
0.6725510085026724
 40
0.6725510085026724
 40
0.6815511276308176
 40
0.6905512467589627
 40
0.699551365887108
 40
0.699551365887108
 40
0.699551365887108
 40
0.7277628389818582
 40
0.7277628389818582
 40
0.7277628389818582
 40
0.7369843263761354
 40
0.7462058137704125
 40
0.7554273011646897
 40
0.7554273011646897
 40
0.7554273011646897
 40
0.7836387742593589
 40
0.7836387742593589
 40
0.7836387742593589
 40
0.7926388933874692
 40
0.8016390125155795
 40
0.8106391316436897
 40
0.8106391316436897
 40
0.8106391316436897
 40
1.0
 40
1.0
 40
1.0
 40
1.0
 10
340.3584368102813
 20
97.86272363965628
 42
1.0
 10
340.8023567183243
 20
97.86272363965628
 42
1.0
 10
341.2462766263674
 20
97.86272363965628
 42
1.0
 10
341.6901965344104
 20
97.86272363965637
 42
1.0
 10
341.7082079859467
 20
97.86272363965637
 42
1.0
 10
341.7442308890191
 20
97.86272363965631
 42
1.0
 10
341.7996333814588
 20
97.84964488531769
 42
1.0
 10
341.8318532454655
 20
97.83353495331426
 42
1.0
 10
341.8479631774688
 20
97.82547998731259
 42
1.0
 10
341.8976213805939
 20
97.80065088575004
 42
1.0
 10
341.9472795837189
 20
97.77582178418753
 42
1.0
 10
341.9969377868439
 20
97.75099268262508
 42
1.0
 10
342.0113906758577
 20
97.74376623811814
 42
1.0
 10
342.0402964538853
 20
97.72931334910434
 42
1.0
 10
342.0817727373704
 20
97.69823264886088
 42
1.0
 10
342.0997034083736
 20
97.67134545782868
 42
1.0
 10
342.1086687438751
 20
97.65790186231257
 42
1.0
 10
342.1334978454377
 20
97.62067041700007
 42
1.0
 10
342.1583269470001
 20
97.58343897168758
 42
1.0
 10
342.1831560485627
 20
97.54620752637506
 42
1.0
 10
342.191077112137
 20
97.53432982534189
 42
1.0
 10
342.2069192392855
 20
97.51057442327546
 42
1.0
 10
342.2203997009065
 20
97.46606362479768
 42
1.0
 10
342.2203997009065
 20
97.43751030415143
 42
1.0
 10
342.2203997009064
 20
97.42323364382833
 42
1.0
 10
342.2203997009064
 20
97.04591447438033
 42
1.0
 10
342.2203997009064
 20
96.66859530493232
 42
1.0
 10
342.2203997009065
 20
96.29127613548432
 42
1.0
 10
342.2203997009065
 20
96.27699947516116
 42
1.0
 10
342.2203997009065
 20
96.24844615451494
 42
1.0
 10
342.2069192392855
 20
96.20393535603714
 42
1.0
 10
342.191077112137
 20
96.18017995397079
 42
1.0
 10
342.1831560485627
 20
96.16830225293756
 42
1.0
 10
342.1583269470001
 20
96.1310708076251
 42
1.0
 10
342.1334978454377
 20
96.09383936231258
 42
1.0
 10
342.1086687438751
 20
96.05660791700008
 42
1.0
 10
342.1005528526453
 20
96.044438070269
 42
1.0
 10
342.0843210701856
 20
96.0200983768068
 42
1.0
 10
342.0520874637558
 20
95.98786477037707
 42
1.0
 10
342.0277477702936
 20
95.97163298791742
 42
1.0
 10
342.0155779235625
 20
95.96351709668751
 42
1.0
 10
341.97834647825
 20
95.93868799512506
 42
1.0
 10
341.9411150329376
 20
95.91385889356252
 42
1.0
 10
341.9038835876251
 20
95.88902979200009
 42
1.0
 10
341.8920058865918
 20
95.88110872842582
 42
1.0
 10
341.8682504845254
 20
95.86526660127726
 42
1.0
 10
341.8237396860478
 20
95.85178613965631
 42
1.0
 10
341.7951863654015
 20
95.85178613965631
 42
1.0
 10
341.7809097050783
 20
95.85178613965631
 42
1.0
 10
341.4805313703543
 20
95.85178613965631
 42
1.0
 10
341.1801530356303
 20
95.85178613965631
 42
1.0
 10
340.8797747009064
 20
95.85178613965631
 42
1.0
 97
        0
 75
     0
 76
     1
 98
        1
 10
0.0
 20
0.0
  0
HATCH
  5
35
330
1F
100
AcDbEntity
  8
ALLEN
100
AcDbHatch
 10
0.0
 20
0.0
 30
0.0
210
0.0
220
0.0
230
1.0
  2
SOLID
 70
     1
 71
     0
 91
        1
 92
        0
 93
        1
 72
     4
 94
        3
 73
     1
 74
     0
 95
       37
 96
       33
 40
0.0
 40
0.0
 40
0.0
 40
0.0
 40
0.1227005456864329
 40
0.1227005456864329
 40
0.1227005456864329
 40
0.1574674265502131
 40
0.1922343074139932
 40
0.2270011882777734
 40
0.2270011882777734
 40
0.2270011882777734
 40
0.3956993574085497
 40
0.3956993574085497
 40
0.3956993574085497
 40
0.4304662382723464
 40
0.4652331191361432
 40
0.4999999999999399
 40
0.4999999999999399
 40
0.4999999999999399
 40
0.6227005456864312
 40
0.6227005456864312
 40
0.6227005456864312
 40
0.6574674265502336
 40
0.6922343074140361
 40
0.7270011882778386
 40
0.7270011882778386
 40
0.7270011882778386
 40
0.8956993574086424
 40
0.8956993574086424
 40
0.8956993574086424
 40
0.9304662382724282
 40
0.9652331191362141
 40
1.0
 40
1.0
 40
1.0
 40
1.0
 10
337.6026262634063
 20
95.70281153028132
 42
1.0
 10
337.6026262634063
 20
95.60349512403133
 42
1.0
 10
337.6026262634063
 20
95.5041787177813
 42
1.0
 10
337.6026262634064
 20
95.40486231153133
 42
1.0
 10
337.6026262634064
 20
95.37672126582858
 42
1.0
 10
337.6026262634063
 20
95.32043917442311
 42
1.0
 10
337.7230249036419
 20
95.25588770215631
 42
1.0
 10
337.7793069950472
 20
95.25588770215631
 42
1.0
 10
337.80744804075
 20
95.25588770215631
 42
1.0
 10
337.9439958923126
 20
95.25588770215631
 42
1.0
 10
338.080543743875
 20
95.25588770215631
 42
1.0
 10
338.2170915954376
 20
95.25588770215631
 42
1.0
 10
338.2452326411403
 20
95.25588770215631
 42
1.0
 10
338.3015147325458
 20
95.25588770215631
 42
1.0
 10
338.4219133727813
 20
95.32043917442314
 42
1.0
 10
338.4219133727813
 20
95.37672126582858
 42
1.0
 10
338.4219133727813
 20
95.40486231153133
 42
1.0
 10
338.4219133727813
 20
95.5041787177813
 42
1.0
 10
338.4219133727813
 20
95.60349512403133
 42
1.0
 10
338.4219133727813
 20
95.70281153028132
 42
1.0
 10
338.4219133727813
 20
95.73095257598402
 42
1.0
 10
338.4219133727813
 20
95.78723466738953
 42
1.0
 10
338.3015147325458
 20
95.85178613965631
 42
1.0
 10
338.2452326411403
 20
95.85178613965631
 42
1.0
 10
338.2170915954375
 20
95.85178613965631
 42
1.0
 10
338.080543743875
 20
95.85178613965631
 42
1.0
 10
337.9439958923126
 20
95.85178613965631
 42
1.0
 10
337.8074480407501
 20
95.85178613965631
 42
1.0
 10
337.7793069950474
 20
95.85178613965631
 42
1.0
 10
337.7230249036419
 20
95.85178613965631
 42
1.0
 10
337.6026262634063
 20
95.7872346673895
 42
1.0
 10
337.6026262634063
 20
95.73095257598402
 42
1.0
 10
337.6026262634063
 20
95.70281153028132
 42
1.0
 97
        0
 75
     0
 76
     1
 98
        1
 10
0.0
 20
0.0
  0
HATCH
  5
36
330
1F
100
AcDbEntity
  8
ALLEN
100
AcDbHatch
 10
0.0
 20
0.0
 30
0.0
210
0.0
220
0.0
230
1.0
  2
SOLID
 70
     1
 71
     0
 91
        1
 92
        0
 93
       16
 72
     1
 10
333.3570696227812
 20
93.02141504590632
 11
333.3570696227812
 21
92.57463770215634
 72
     1
 10
333.3570696227812
 20
92.57463770215634
 11
332.3888079040314
 21
92.57463770215634
 72
     1
 10
332.3888079040314
 20
92.57463770215634
 11
332.6867571227813
 21
92.79802637403132
 72
     1
 10
332.6867571227813
 20
92.79802637403132
 11
332.7613176696563
 21
93.02141504590632
 72
     1
 10
332.7613176696563
 20
93.02141504590632
 11
334.6978411071564
 21
98.53318262403133
 72
     1
 10
334.6978411071564
 20
98.53318262403133
 11
335.8894914977814
 21
98.53318262403133
 72
     1
 10
335.8894914977814
 20
98.53318262403133
 11
338.1239641540313
 21
92.79802637403132
 72
     1
 10
338.1239641540313
 20
92.79802637403132
 11
338.3473528259063
 21
92.57463770215634
 72
     1
 10
338.3473528259063
 20
92.57463770215634
 11
336.7087786071565
 21
92.57463770215634
 72
     1
 10
336.7087786071565
 20
92.57463770215634
 11
336.7087786071565
 21
92.94700098340635
 72
     1
 10
336.7087786071565
 20
92.94700098340635
 11
336.1874407165313
 21
94.21321192090632
 72
     1
 10
336.1874407165313
 20
94.21321192090632
 11
334.6978411071564
 21
94.21321192090632
 72
     1
 10
334.6978411071564
 20
94.21321192090632
 11
334.6978411071564
 21
94.80911035840633
 72
     1
 10
334.6978411071564
 20
94.80911035840633
 11
335.9639055602814
 21
94.80911035840633
 72
     1
 10
335.9639055602814
 20
94.80911035840633
 11
334.9956438415314
 21
97.41594629590634
 72
     1
 10
334.9956438415314
 20
97.41594629590634
 11
333.3570696227812
 21
93.02141504590632
 97
        0
 75
     0
 76
     1
 98
        1
 10
0.0
 20
0.0
  0
HATCH
  5
37
330
1F
100
AcDbEntity
  8
ALLEN
100
AcDbHatch
 10
0.0
 20
0.0
 30
0.0
210
0.0
220
0.0
230
1.0
  2
SOLID
 70
     1
 71
     0
 91
        2
 92
        0
 93
       16
 72
     4
 94
        3
 73
     1
 74
     0
 95
       11
 96
        7
 40
0.3385478118675992
 40
0.3385478118675992
 40
0.3385478118675992
 40
0.3385478118675992
 40
0.3413160711498654
 40
0.3413160711498654
 40
0.3413160711498654
 40
0.3688056747150725
 40
0.3688056747150725
 40
0.3688056747150725
 40
0.3688056747150725
 10
393.8048552864941
 20
75.89902023423163
 42
1.0
 10
393.8058458051244
 20
75.89989632604144
 42
1.0
 10
393.8068412037509
 20
75.9007501398271
 42
1.0
 10
393.8078366023773
 20
75.90160395361272
 42
1.0
 10
393.8177211944033
 20
75.9100825678227
 42
1.0
 10
393.8276057864308
 20
75.91856118203239
 42
1.0
 10
393.837490378458
 20
75.92703979624234
 42
1.0
 72
     2
 10
393.5420995925289
 20
76.27141416394986
 40
0.4537063164049102
 50
310.6216941279445
 51
450.0000000000008
 73
     1
 72
     1
 10
393.5420995925289
 20
76.72512048035478
 11
392.6848495925289
 21
76.72512048035478
 72
     1
 10
392.6848495925289
 20
76.72512048035478
 11
392.6848495925289
 21
75.11777673035482
 72
     1
 10
392.6848495925289
 20
75.11777673035482
 11
393.0063183425289
 21
75.11777673035482
 72
     1
 10
393.0063183425289
 20
75.11777673035482
 11
393.0063183425289
 21
75.7607142303548
 72
     1
 10
393.0063183425289
 20
75.7607142303548
 11
393.4023598276651
 21
75.76071423035481
 72
     2
 10
393.4023598276651
 20
75.58212048035479
 40
0.1785937500000239
 50
270.0000000000008
 51
345.9637565320655
 73
     0
 72
     1
 10
393.5756212148004
 20
75.62543582713866
 11
393.6757469264964
 21
75.11777673035482
 72
     1
 10
393.6757469264964
 20
75.11777673035482
 11
394.1400906764987
 21
75.11777673035482
 72
     1
 10
394.1400906764987
 20
75.11777673035482
 11
394.1400906764987
 21
75.15016060229678
 72
     1
 10
394.1400906764987
 20
75.15016060229678
 11
394.0329344264987
 21
75.20373872729772
 72
     1
 10
394.0329344264987
 20
75.20373872729772
 11
393.9308249798799
 21
75.7214557908266
 72
     2
 10
393.8432158355901
 20
75.7041766206564
 40
0.0892968750011369
 50
11.15725813070373
 51
59.6763594657865
 73
     1
 72
     4
 94
        3
 73
     1
 74
     0
 95
       11
 96
        7
 40
0.2197783937294019
 40
0.2197783937294019
 40
0.2197783937294019
 40
0.2197783937294019
 40
0.2235221643106046
 40
0.2235221643106046
 40
0.2235221643106046
 40
0.275048225476914
 40
0.275048225476914
 40
0.275048225476914
 40
0.275048225476914
 10
393.888300383161
 20
75.78125654965926
 42
1.0
 10
393.8867698289773
 20
75.78215178067202
 42
1.0
 10
393.8852329348799
 20
75.78303690051914
 42
1.0
 10
393.8836960407824
 20
75.78392202036623
 42
1.0
 10
393.862543542905
 20
75.79610405406511
 42
1.0
 10
393.8413910450275
 20
75.80828608776402
 42
1.0
 10
393.82023854715
 20
75.82046812146297
 42
1.0
 72
     2
 10
393.8467114241363
 20
75.86643478746508
 40
0.0530447697637135
 50
119.9382710438942
 51
217.9011358253994
 73
     0
 97
        0
 92
        0
 93
        4
 72
     1
 10
393.0063183425289
 20
76.4572298553548
 11
393.381365217529
 21
76.4572298553548
 72
     2
 10
393.3964927536047
 20
76.24291735535479
 40
0.21484573536372
 50
265.9623971445097
 51
454.0376028554916
 73
     0
 72
     1
 10
393.381365217529
 20
76.02860485535477
 11
393.0063183425289
 21
76.02860485535477
 72
     1
 10
393.0063183425289
 20
76.02860485535477
 11
393.0063183425289
 21
76.4572298553548
 97
        0
 75
     0
 76
     1
 98
        1
 10
0.0
 20
0.0
  0
HATCH
  5
38
330
1F
100
AcDbEntity
  8
ROCKWELL
100
AcDbHatch
 10
0.0
 20
0.0
 30
0.0
210
0.0
220
0.0
230
1.0
  2
SOLID
 70
     1
 71
     0
 91
        2
 92
        0
 93
       34
 72
     1
 10
367.2275854867698
 20
87.42689335208347
 11
367.5752104867698
 21
87.42689335208347
 72
     1
 10
367.5752104867698
 20
87.42689335208347
 11
367.9663589242697
 21
87.42689335208347
 72
     1
 10
367.9663589242697
 20
87.42689335208347
 11
368.3139839242697
 21
87.29653397708348
 72
     1
 10
368.3139839242697
 20
87.29653397708348
 11
368.6616089242697
 21
87.07926835208347
 72
     1
 10
368.6616089242697
 20
87.07926835208347
 11
368.9657807992697
 21
86.64473710208347
 72
     1
 10
368.9657807992697
 20
86.64473710208347
 11
369.0526870492698
 21
86.34056522708349
 72
     1
 10
369.0526870492698
 20
86.34056522708349
 11
369.1396636117698
 21
85.99286991458348
 72
     1
 10
369.1396636117698
 20
85.99286991458348
 11
369.1396636117698
 21
85.55833866458347
 72
     1
 10
369.1396636117698
 20
85.55833866458347
 11
369.0961401742697
 21
85.0369011645835
 72
     1
 10
369.0961401742697
 20
85.0369011645835
 11
368.9657807992697
 21
84.47194022708348
 72
     1
 10
368.9657807992697
 20
84.47194022708348
 11
368.7485151742698
 21
83.77669022708346
 72
     1
 10
368.7485151742698
 20
83.77669022708346
 11
368.6616089242697
 21
83.77669022708346
 72
     1
 10
368.6616089242697
 20
83.77669022708346
 11
368.6616089242697
 21
83.6463308520835
 72
     1
 10
368.6616089242697
 20
83.6463308520835
 11
368.5312495492698
 21
83.34215897708349
 72
     1
 10
368.5312495492698
 20
83.34215897708349
 11
368.4008901742698
 21
83.16827616458349
 72
     1
 10
368.4008901742698
 20
83.16827616458349
 11
368.2270776742697
 21
83.03791678958349
 72
     1
 10
368.2270776742697
 20
83.03791678958349
 11
367.9663589242697
 21
82.90755741458347
 72
     1
 10
367.9663589242697
 20
82.90755741458347
 11
367.6186636117698
 21
82.86410428958348
 72
     1
 10
367.6186636117698
 20
82.86410428958348
 11
367.2710386117698
 21
82.90755741458347
 72
     1
 10
367.2710386117698
 20
82.90755741458347
 11
367.0103198617697
 21
83.03791678958349
 72
     1
 10
367.0103198617697
 20
83.03791678958349
 11
366.8365073617697
 21
83.16827616458349
 72
     1
 10
366.8365073617697
 20
83.16827616458349
 11
366.7061479867697
 21
83.34215897708349
 72
     1
 10
366.7061479867697
 20
83.34215897708349
 11
366.6192417367698
 21
83.6463308520835
 72
     1
 10
366.6192417367698
 20
83.6463308520835
 11
366.5757886117698
 21
83.77669022708346
 72
     1
 10
366.5757886117698
 20
83.77669022708346
 11
366.4888823617698
 21
83.77669022708346
 72
     1
 10
366.4888823617698
 20
83.77669022708346
 11
366.3150698617698
 21
84.47194022708348
 72
     1
 10
366.3150698617698
 20
84.47194022708348
 11
366.1847104867697
 21
85.0369011645835
 72
     1
 10
366.1847104867697
 20
85.0369011645835
 11
366.0977339242697
 21
85.55833866458347
 72
     1
 10
366.0977339242697
 20
85.55833866458347
 11
366.1411870492697
 21
85.99286991458348
 72
     1
 10
366.1411870492697
 20
85.99286991458348
 11
366.1847104867697
 21
86.34056522708349
 72
     1
 10
366.1847104867697
 20
86.34056522708349
 11
366.2716167367697
 21
86.64473710208347
 72
     1
 10
366.2716167367697
 20
86.64473710208347
 11
366.5757886117698
 21
87.07926835208347
 72
     1
 10
366.5757886117698
 20
87.07926835208347
 11
366.9234136117697
 21
87.29653397708348
 72
     1
 10
366.9234136117697
 20
87.29653397708348
 11
367.2275854867698
 21
87.42689335208347
 97
        0
 92
        0
 93
       10
 72
     1
 10
368.4008901742698
 20
83.77669022708346
 11
366.7930542367698
 21
83.77669022708346
 72
     1
 10
366.7930542367698
 20
83.77669022708346
 11
366.8365073617697
 21
83.55942460208348
 72
     1
 10
366.8365073617697
 20
83.55942460208348
 11
366.9668667367698
 21
83.38561210208348
 72
     1
 10
366.9668667367698
 20
83.38561210208348
 11
367.2275854867698
 21
83.16827616458349
 72
     1
 10
367.2275854867698
 20
83.16827616458349
 11
367.6186636117698
 21
83.03791678958349
 72
     1
 10
367.6186636117698
 20
83.03791678958349
 11
367.7490932992698
 21
83.03791678958349
 72
     1
 10
367.7490932992698
 20
83.03791678958349
 11
368.0098120492697
 21
83.12482303958348
 72
     1
 10
368.0098120492697
 20
83.12482303958348
 11
368.2705307992697
 21
83.38561210208348
 72
     1
 10
368.2705307992697
 20
83.38561210208348
 11
368.3574370492697
 21
83.55942460208348
 72
     1
 10
368.3574370492697
 20
83.55942460208348
 11
368.4008901742698
 21
83.77669022708346
 97
        0
 75
     0
 76
     1
 98
        1
 10
0.0
 20
0.0
  0
HATCH
  5
39
330
1F
100
AcDbEntity
  8
ROCKWELL
100
AcDbHatch
 10
0.0
 20
0.0
 30
0.0
210
0.0
220
0.0
230
1.0
  2
SOLID
 70
     1
 71
     0
 91
        1
 92
        0
 93
       15
 72
     1
 10
367.4448511117698
 20
82.47302616458347
 11
367.6186636117698
 21
82.42957303958347
 72
     1
 10
367.6186636117698
 20
82.42957303958347
 11
367.7925464242697
 21
82.47302616458347
 72
     1
 10
367.7925464242697
 20
82.47302616458347
 11
368.0532651742697
 21
82.60338553958347
 72
     1
 10
368.0532651742697
 20
82.60338553958347
 11
368.4443432992697
 21
82.90755741458347
 72
     1
 10
368.4443432992697
 20
82.90755741458347
 11
368.2705307992697
 21
82.55993241458347
 72
     1
 10
368.2705307992697
 20
82.55993241458347
 11
368.0098120492697
 21
82.34266678958348
 72
     1
 10
368.0098120492697
 20
82.34266678958348
 11
367.8359995492697
 21
82.25576053958349
 72
     1
 10
367.8359995492697
 20
82.25576053958349
 11
367.6186636117698
 21
82.21230741458349
 72
     1
 10
367.6186636117698
 20
82.21230741458349
 11
367.4013979867697
 21
82.25576053958349
 72
     1
 10
367.4013979867697
 20
82.25576053958349
 11
367.2275854867698
 21
82.34266678958348
 72
     1
 10
367.2275854867698
 20
82.34266678958348
 11
366.9234136117697
 21
82.55993241458347
 72
     1
 10
366.9234136117697
 20
82.55993241458347
 11
366.7930542367698
 21
82.82065116458348
 72
     1
 10
366.7930542367698
 20
82.82065116458348
 11
366.7496011117698
 21
82.90755741458347
 72
     1
 10
366.7496011117698
 20
82.90755741458347
 11
367.1841323617698
 21
82.60338553958347
 72
     1
 10
367.1841323617698
 20
82.60338553958347
 11
367.4448511117698
 21
82.47302616458347
 97
        0
 75
     0
 76
     1
 98
        1
 10
0.0
 20
0.0
  0
HATCH
  5
3A
330
1F
100
AcDbEntity
  8
ROCKWELL
100
AcDbHatch
 10
0.0
 20
0.0
 30
0.0
210
0.0
220
0.0
230
1.0
  2
SOLID
 70
     1
 71
     0
 91
        1
 92
        0
 93
        4
 72
     1
 10
368.6181557992697
 20
82.1254011645835
 11
368.6181557992697
 21
81.90813553958348
 72
     1
 10
368.6181557992697
 20
81.90813553958348
 11
369.7914604867698
 21
81.77770585208349
 72
     1
 10
369.7914604867698
 20
81.77770585208349
 11
369.7914604867698
 21
81.90813553958348
 72
     1
 10
369.7914604867698
 20
81.90813553958348
 11
368.6181557992697
 21
82.1254011645835
 97
        0
 75
     0
 76
     1
 98
        1
 10
0.0
 20
0.0
  0
HATCH
  5
3B
330
1F
100
AcDbEntity
  8
ROCKWELL
100
AcDbHatch
 10
0.0
 20
0.0
 30
0.0
210
0.0
220
0.0
230
1.0
  2
SOLID
 70
     1
 71
     0
 91
        1
 92
        0
 93
        4
 72
     1
 10
367.7490932992698
 20
81.99504178958348
 11
367.7490932992698
 21
81.73425272708349
 72
     1
 10
367.7490932992698
 20
81.73425272708349
 11
368.4877964242698
 21
81.90813553958348
 72
     1
 10
368.4877964242698
 20
81.90813553958348
 11
368.4877964242698
 21
82.21230741458349
 72
     1
 10
368.4877964242698
 20
82.21230741458349
 11
367.7490932992698
 21
81.99504178958348
 97
        0
 75
     0
 76
     1
 98
        1
 10
0.0
 20
0.0
  0
HATCH
  5
3C
330
1F
100
AcDbEntity
  8
ROCKWELL
100
AcDbHatch
 10
0.0
 20
0.0
 30
0.0
210
0.0
220
0.0
230
1.0
  2
SOLID
 70
     1
 71
     0
 91
        1
 92
        0
 93
        4
 72
     1
 10
367.4448511117698
 20
81.99504178958348
 11
367.4448511117698
 21
81.73425272708349
 72
     1
 10
367.4448511117698
 20
81.73425272708349
 11
366.7061479867697
 21
81.90813553958348
 72
     1
 10
366.7061479867697
 20
81.90813553958348
 11
366.7061479867697
 21
82.21230741458349
 72
     1
 10
366.7061479867697
 20
82.21230741458349
 11
367.4448511117698
 21
81.99504178958348
 97
        0
 75
     0
 76
     1
 98
        1
 10
0.0
 20
0.0
  0
HATCH
  5
3D
330
1F
100
AcDbEntity
  8
ROCKWELL
100
AcDbHatch
 10
0.0
 20
0.0
 30
0.0
210
0.0
220
0.0
230
1.0
  2
SOLID
 70
     1
 71
     0
 91
        1
 92
        0
 93
        4
 72
     1
 10
366.5757886117698
 20
82.1254011645835
 11
366.5757886117698
 21
81.90813553958348
 72
     1
 10
366.5757886117698
 20
81.90813553958348
 11
365.3590307992698
 21
81.77770585208349
 72
     1
 10
365.3590307992698
 20
81.77770585208349
 11
365.3590307992698
 21
81.90813553958348
 72
     1
 10
365.3590307992698
 20
81.90813553958348
 11
366.5757886117698
 21
82.1254011645835
 97
        0
 75
     0
 76
     1
 98
        1
 10
0.0
 20
0.0
  0
HATCH
  5
3E
330
1F
100
AcDbEntity
  8
0
  6
Continuous
 62
     7
100
AcDbHatch
 10
0.0
 20
0.0
 30
0.0
210
0.0
220
0.0
230
1.0
  2
SOLID
 70
     1
 71
     0
 91
        1
 92
        0
 93
        3
 72
     1
 10
369.1831167367698
 20
74.86837772708347
 11
369.3569292367698
 21
76.12858866458349
 72
     1
 10
369.3569292367698
 20
76.12858866458349
 11
370.0521792367697
 21
76.12858866458349
 72
     1
 10
370.0521792367697
 20
76.12858866458349
 11
369.1831167367698
 21
74.86837772708347
 97
        0
 75
     0
 76
     1
 98
        1
 10
0.0
 20
0.0
  0
HATCH
  5
3F
330
1F
100
AcDbEntity
  8
0
  6
Continuous
 62
     7
100
AcDbHatch
 10
0.0
 20
0.0
 30
0.0
210
0.0
220
0.0
230
1.0
  2
SOLID
 70
     1
 71
     0
 91
        1
 92
        0
 93
        3
 72
     1
 10
366.0108276742698
 20
74.86837772708347
 11
365.7935620492697
 21
76.12858866458349
 72
     1
 10
365.7935620492697
 20
76.12858866458349
 11
365.1417651742698
 21
76.12858866458349
 72
     1
 10
365.1417651742698
 20
76.12858866458349
 11
366.0108276742698
 21
74.86837772708347
 97
        0
 75
     0
 76
     1
 98
        1
 10
0.0
 20
0.0
  0
HATCH
  5
40
330
1F
100
AcDbEntity
  8
0
  6
Continuous
 62
     7
100
AcDbHatch
 10
0.0
 20
0.0
 30
0.0
210
0.0
220
0.0
230
1.0
  2
SOLID
 70
     1
 71
     0
 91
        1
 92
        0
 93
       20
 72
     1
 10
368.9657807992697
 20
75.7808933520835
 11
368.6181557992697
 21
69.74062772708348
 72
     1
 10
368.6181557992697
 20
69.74062772708348
 11
368.9657807992697
 21
69.69717460208346
 72
     1
 10
368.9657807992697
 20
69.69717460208346
 11
369.1831167367698
 21
69.61026835208348
 72
     1
 10
369.1831167367698
 20
69.61026835208348
 11
369.2265698617697
 21
69.52336210208347
 72
     1
 10
369.2265698617697
 20
69.52336210208347
 11
369.2700229867697
 21
69.39300272708347
 72
     1
 10
369.2700229867697
 20
69.39300272708347
 11
369.2265698617697
 21
69.21919022708347
 72
     1
 10
369.2265698617697
 20
69.21919022708347
 11
369.1396636117698
 21
69.08883085208346
 72
     1
 10
369.1396636117698
 20
69.08883085208346
 11
368.9223276742698
 21
69.04537772708348
 72
     1
 10
368.9223276742698
 20
69.04537772708348
 11
368.5747026742697
 21
69.00192460208349
 72
     1
 10
368.5747026742697
 20
69.00192460208349
 11
366.5323354867698
 21
69.00192460208349
 72
     1
 10
366.5323354867698
 20
69.00192460208349
 11
366.2281636117697
 21
69.04537772708348
 72
     1
 10
366.2281636117697
 20
69.04537772708348
 11
366.0108276742698
 21
69.08883085208346
 72
     1
 10
366.0108276742698
 20
69.08883085208346
 11
365.9239214242698
 21
69.21919022708347
 72
     1
 10
365.9239214242698
 20
69.21919022708347
 11
365.8804682992698
 21
69.39300272708347
 72
     1
 10
365.8804682992698
 20
69.39300272708347
 11
365.9239214242698
 21
69.52336210208347
 72
     1
 10
365.9239214242698
 20
69.52336210208347
 11
366.0108276742698
 21
69.61026835208348
 72
     1
 10
366.0108276742698
 20
69.61026835208348
 11
366.2281636117697
 21
69.69717460208346
 72
     1
 10
366.2281636117697
 20
69.69717460208346
 11
366.5323354867698
 21
69.74062772708348
 72
     1
 10
366.5323354867698
 20
69.74062772708348
 11
366.2281636117697
 21
75.7808933520835
 72
     1
 10
366.2281636117697
 20
75.7808933520835
 11
368.9657807992697
 21
75.7808933520835
 97
        0
 75
     0
 76
     1
 98
        1
 10
0.0
 20
0.0
  0
HATCH
  5
41
330
1F
100
AcDbEntity
  8
ALLEN
100
AcDbHatch
 10
0.0
 20
0.0
 30
0.0
210
0.0
220
0.0
230
1.0
  2
SOLID
 70
     1
 71
     0
 91
        1
 92
        0
 93
        1
 72
     4
 94
        3
 73
     1
 74
     0
 95
      110
 96
      106
 40
0.0
 40
0.0
 40
0.0
 40
0.0
 40
0.03125
 40
0.0625
 40
0.09375
 40
0.109375
 40
0.1171875
 40
0.125
 40
0.140625
 40
0.1484375
 40
0.15625
 40
0.1640625
 40
0.171875
 40
0.1875
 40
0.1953125
 40
0.203125
 40
0.2109375
 40
0.21875
 40
0.2265625
 40
0.23046875
 40
0.232421875
 40
0.234375
 40
0.236328125
 40
0.23828125
 40
0.240234375
 40
0.2421875
 40
0.24609375
 40
0.25
 40
0.25390625
 40
0.2578125
 40
0.26171875
 40
0.265625
 40
0.2734375
 40
0.28125
 40
0.296875
 40
0.3125
 40
0.3203125
 40
0.328125
 40
0.34375
 40
0.375
 40
0.3828125
 40
0.390625
 40
0.40625
 40
0.4375
 40
0.4453125
 40
0.453125
 40
0.46875
 40
0.5
 40
0.53125
 40
0.5625
 40
0.59375
 40
0.6015625
 40
0.609375
 40
0.625
 40
0.6328125
 40
0.640625
 40
0.65625
 40
0.671875
 40
0.6796875
 40
0.6875
 40
0.69140625
 40
0.6953125
 40
0.69921875
 40
0.703125
 40
0.70703125
 40
0.7109375
 40
0.71875
 40
0.734375
 40
0.75
 40
0.765625
 40
0.7734375
 40
0.77734375
 40
0.78125
 40
0.78515625
 40
0.787109375
 40
0.7890625
 40
0.791015625
 40
0.79296875
 40
0.796875
 40
0.80078125
 40
0.802734375
 40
0.8046875
 40
0.806640625
 40
0.80859375
 40
0.8125
 40
0.8203125
 40
0.828125
 40
0.84375
 40
0.859375
 40
0.8671875
 40
0.875
 40
0.87890625
 40
0.8828125
 40
0.890625
 40
0.8984375
 40
0.90625
 40
0.921875
 40
0.9296875
 40
0.9375
 40
0.9453125
 40
0.953125
 40
0.96875
 40
0.9765625
 40
0.984375
 40
1.0
 40
1.0
 40
1.0
 40
1.0
 10
344.4688815321049
 20
71.23577624539695
 42
1.0
 10
344.30827764661
 20
71.49124447240504
 42
1.0
 10
344.0664709363909
 20
72.02874148592794
 42
1.0
 10
344.063049742571
 20
72.9486008357739
 42
1.0
 10
344.2738110301794
 20
73.6416083217333
 42
1.0
 10
344.5314275198197
 20
74.08328738783032
 42
1.0
 10
344.7296967917859
 20
74.33912528038411
 42
1.0
 10
344.8842712922357
 20
74.54553520275601
 42
1.0
 10
345.1541458436473
 20
74.73030809338132
 42
1.0
 10
345.3927970072624
 20
74.86887814048993
 42
1.0
 10
345.6114245791306
 20
74.99416618716886
 42
1.0
 10
345.7765430144707
 20
75.06607016827586
 42
1.0
 10
346.0951712819697
 20
75.15979313402377
 42
1.0
 10
346.3554017029864
 20
75.2060458893273
 42
1.0
 10
346.672962849163
 20
75.24313604465473
 42
1.0
 10
346.8693554527238
 20
75.23047984836082
 42
1.0
 10
347.1152990556947
 20
75.20732947626
 42
1.0
 10
347.3251640622426
 20
75.19675115912449
 42
1.0
 10
347.4884133856478
 20
75.13200844399522
 42
1.0
 10
347.6140403922454
 20
75.0868042760339
 42
1.0
 10
347.6937476993542
 20
75.05807558586616
 42
1.0
 10
347.7265232753229
 20
75.0451892129158
 42
1.0
 10
347.8633582456454
 20
74.99911112978717
 42
1.0
 10
348.0437523652942
 20
75.08487518516041
 42
1.0
 10
348.1015112722786
 20
75.28399118178174
 42
1.0
 10
348.0831226040305
 20
75.32844317281534
 42
1.0
 10
348.0941934652662
 20
75.44302703738637
 42
1.0
 10
348.0822590123254
 20
75.5473791370559
 42
1.0
 10
348.1167117906059
 20
75.68989518674178
 42
1.0
 10
347.9204647691885
 20
75.9459364598415
 42
1.0
 10
347.7800465611758
 20
75.94671163180264
 42
1.0
 10
347.6398678720888
 20
75.99619471888643
 42
1.0
 10
347.4477390138247
 20
76.05096840473496
 42
1.0
 10
347.1038113493322
 20
76.08832061364576
 42
1.0
 10
346.715650908466
 20
76.12902919200442
 42
1.0
 10
346.3344775789448
 20
76.08975948411926
 42
1.0
 10
345.9779537265987
 20
76.04937536451057
 42
1.0
 10
345.6839591159502
 20
75.93778551852614
 42
1.0
 10
345.1329337023483
 20
75.76311456584028
 42
1.0
 10
344.6819347756589
 20
75.43372954679664
 42
1.0
 10
344.2948379939339
 20
75.15315892899334
 42
1.0
 10
344.0672880113901
 20
74.87901465297936
 42
1.0
 10
343.7295137596868
 20
74.4805782819713
 42
1.0
 10
343.4699837946146
 20
73.9207768476399
 42
1.0
 10
343.3145676664461
 20
73.5113703110592
 42
1.0
 10
343.2149244340713
 20
73.14701027931432
 42
1.0
 10
343.205688457541
 20
72.63626154581563
 42
1.0
 10
343.2092263443291
 20
71.76951502350862
 42
1.0
 10
343.6358601922755
 20
70.89267339253475
 42
1.0
 10
344.1624366538701
 20
70.10220526431704
 42
1.0
 10
344.8127937531993
 20
69.66442306632865
 42
1.0
 10
345.2029944917957
 20
69.44997306689997
 42
1.0
 10
345.5234702410351
 20
69.29487837586068
 42
1.0
 10
345.7859655627772
 20
69.21460807309613
 42
1.0
 10
346.1481594389827
 20
69.11928566094136
 42
1.0
 10
346.4474762636015
 20
69.10617624990648
 42
1.0
 10
346.8779898805759
 20
69.08319342715308
 42
1.0
 10
347.2344066298938
 20
69.10596389955236
 42
1.0
 10
347.5957052050795
 20
69.17978666053399
 42
1.0
 10
347.7709678492825
 20
69.23699697686877
 42
1.0
 10
347.9194130539786
 20
69.28913504002912
 42
1.0
 10
348.0334453382438
 20
69.30190505659591
 42
1.0
 10
348.2423238424343
 20
69.47692603102062
 42
1.0
 10
348.2529712439746
 20
69.69226622657808
 42
1.0
 10
348.2501366921954
 20
69.78219762821632
 42
1.0
 10
348.2510604924915
 20
69.94574399774011
 42
1.0
 10
348.2504731953495
 20
70.21163193913628
 42
1.0
 10
348.2508881693721
 20
70.60198602306862
 42
1.0
 10
348.2504046771403
 20
71.06638453110406
 42
1.0
 10
348.2516013438905
 20
71.45278570654206
 42
1.0
 10
348.249509288248
 20
71.72628299678988
 42
1.0
 10
348.2528563359994
 20
71.87757534998113
 42
1.0
 10
348.2425761609908
 20
72.00515820502818
 42
1.0
 10
348.2747515061745
 20
72.06651187233226
 42
1.0
 10
348.1998063520404
 20
72.27712402282675
 42
1.0
 10
348.0636017938775
 20
72.36640462357249
 42
1.0
 10
347.9470673603756
 20
72.36770367374825
 42
1.0
 10
347.8898610375743
 20
72.36727019350155
 42
1.0
 10
347.7742171367822
 20
72.36754459506663
 42
1.0
 10
347.7124010728176
 20
72.36726092307251
 42
1.0
 10
347.5690702110925
 20
72.36772036052052
 42
1.0
 10
347.4299307925525
 20
72.28133772405606
 42
1.0
 10
347.3671421250473
 20
72.12047189727004
 42
1.0
 10
347.3804443736103
 20
72.03305088773229
 42
1.0
 10
347.3721478358427
 20
71.90362825764952
 42
1.0
 10
347.376749773893
 20
71.7065074200058
 42
1.0
 10
347.3750364238612
 20
71.39758031122781
 42
1.0
 10
347.3751515787189
 20
71.01185015375326
 42
1.0
 10
347.3775849276266
 20
70.61632229297209
 42
1.0
 10
347.3721624671152
 20
70.32307150948465
 42
1.0
 10
347.3860371813644
 20
70.08675985861454
 42
1.0
 10
347.3553284165986
 20
70.05658407943227
 42
1.0
 10
347.3295701579483
 20
70.03227879754049
 42
1.0
 10
347.0855140883531
 20
70.0101259822142
 42
1.0
 10
346.8623390676933
 20
69.97472617210595
 42
1.0
 10
346.6015312445966
 20
69.95356925226396
 42
1.0
 10
346.2774808163816
 20
69.98575071653822
 42
1.0
 10
346.014269282966
 20
70.06716886491616
 42
1.0
 10
345.7724317020579
 20
70.13284818077521
 42
1.0
 10
345.607821067418
 20
70.2084407181069
 42
1.0
 10
345.3187107840043
 20
70.3682703072305
 42
1.0
 10
345.0891492838859
 20
70.53262137682995
 42
1.0
 10
344.8416604744223
 20
70.70321925632663
 42
1.0
 10
344.684524087868
 20
70.92142106654434
 42
1.0
 10
344.5491834748523
 20
71.1080421318929
 42
1.0
 10
344.4688815321049
 20
71.23577624539695
 42
1.0
 97
        0
 75
     0
 76
     1
 98
        1
 10
0.0
 20
0.0
  0
HATCH
  5
42
330
1F
100
AcDbEntity
  8
0
  6
Continuous
 62
     7
100
AcDbHatch
 10
0.0
 20
0.0
 30
0.0
210
0.0
220
0.0
230
1.0
  2
SOLID
 70
     1
 71
     0
 91
        1
 92
        0
 93
        1
 72
     4
 94
        3
 73
     1
 74
     0
 95
       96
 96
       92
 40
0.0
 40
0.0
 40
0.0
 40
0.0
 40
0.015625
 40
0.0234375
 40
0.03125
 40
0.046875
 40
0.0625
 40
0.09375
 40
0.109375
 40
0.125
 40
0.140625
 40
0.1484375
 40
0.15234375
 40
0.154296875
 40
0.15625
 40
0.16015625
 40
0.1640625
 40
0.171875
 40
0.17578125
 40
0.1796875
 40
0.18359375
 40
0.1875
 40
0.1953125
 40
0.203125
 40
0.21875
 40
0.234375
 40
0.25
 40
0.28125
 40
0.296875
 40
0.3125
 40
0.328125
 40
0.34375
 40
0.359375
 40
0.375
 40
0.390625
 40
0.3984375
 40
0.40625
 40
0.421875
 40
0.4375
 40
0.453125
 40
0.46875
 40
0.484375
 40
0.5
 40
0.5078125
 40
0.515625
 40
0.53125
 40
0.546875
 40
0.5546875
 40
0.5625
 40
0.578125
 40
0.59375
 40
0.625
 40
0.640625
 40
0.65625
 40
0.671875
 40
0.6796875
 40
0.6875
 40
0.69140625
 40
0.6953125
 40
0.69921875
 40
0.703125
 40
0.70703125
 40
0.7109375
 40
0.71484375
 40
0.71875
 40
0.72265625
 40
0.7265625
 40
0.73046875
 40
0.734375
 40
0.7421875
 40
0.75
 40
0.765625
 40
0.78125
 40
0.8125
 40
0.828125
 40
0.84375
 40
0.859375
 40
0.8671875
 40
0.875
 40
0.890625
 40
0.90625
 40
0.9140625
 40
0.921875
 40
0.9375
 40
0.9453125
 40
0.953125
 40
0.9609375
 40
0.96875
 40
0.984375
 40
0.9921875
 40
1.0
 40
1.0
 40
1.0
 40
1.0
 10
349.909860530029
 20
70.4350486053548
 42
1.0
 10
349.8490065837729
 20
70.51218850466557
 42
1.0
 10
349.7182973914301
 20
70.67299791210108
 42
1.0
 10
349.6766585081845
 20
70.78112040346495
 42
1.0
 10
349.6398538870788
 20
71.01499673586464
 42
1.0
 10
349.5820637214355
 20
71.2623836186828
 42
1.0
 10
349.5949157391983
 20
71.68236566123926
 42
1.0
 10
349.5894675502179
 20
72.12674377865538
 42
1.0
 10
349.590236004906
 20
72.56281653363256
 42
1.0
 10
349.5904626216598
 20
72.8903911123227
 42
1.0
 10
349.5892269483007
 20
73.16509712072309
 42
1.0
 10
349.5915064746872
 20
73.35353671622029
 42
1.0
 10
349.5883034279453
 20
73.45308504142683
 42
1.0
 10
349.5934687185905
 20
73.50138583881453
 42
1.0
 10
349.5659329246316
 20
73.65794739780645
 42
1.0
 10
349.3744164374343
 20
73.77896322815396
 42
1.0
 10
349.241640589163
 20
73.75078653051078
 42
1.0
 10
349.1241542653484
 20
73.75421213806601
 42
1.0
 10
349.0588959003871
 20
73.7738248168211
 42
1.0
 10
348.8100111102332
 20
73.70692381800217
 42
1.0
 10
348.7579153382388
 20
73.46293161796443
 42
1.0
 10
348.7748360945906
 20
73.40251959420415
 42
1.0
 10
348.7665954704237
 20
73.242111625533
 42
1.0
 10
348.7698184485983
 20
73.03293704438121
 42
1.0
 10
348.7683536234308
 20
72.75495430840954
 42
1.0
 10
348.7683528978185
 20
72.42942741791357
 42
1.0
 10
348.770700488019
 20
71.98767642334688
 42
1.0
 10
348.7554426029406
 20
71.57611148687256
 42
1.0
 10
348.7912617948684
 20
71.07930813666813
 42
1.0
 10
348.8692614905244
 20
70.77884509014417
 42
1.0
 10
348.9166190925839
 20
70.41609718497524
 42
1.0
 10
349.1434482325776
 20
70.10641564179066
 42
1.0
 10
349.2831904130225
 20
69.84158889343088
 42
1.0
 10
349.6045231270708
 20
69.55669683088155
 42
1.0
 10
349.8187675036396
 20
69.43515681193934
 42
1.0
 10
350.0050850205355
 20
69.2994432166393
 42
1.0
 10
350.2746450884102
 20
69.19592373319291
 42
1.0
 10
350.5174179866361
 20
69.16819974012807
 42
1.0
 10
350.8782602395834
 20
69.06328735226394
 42
1.0
 10
351.2506324487597
 20
69.15727726097946
 42
1.0
 10
351.5413225035657
 20
69.19020258694434
 42
1.0
 10
351.9403798167455
 20
69.35182178593215
 42
1.0
 10
352.1383126628238
 20
69.51328801284282
 42
1.0
 10
352.3235749586217
 20
69.62390068892351
 42
1.0
 10
352.5381351612114
 20
69.81748051023449
 42
1.0
 10
352.6644029719168
 20
70.06674097493271
 42
1.0
 10
352.8286170378516
 20
70.24818116128974
 42
1.0
 10
352.9436802875313
 20
70.53028983627632
 42
1.0
 10
352.9931172245807
 20
70.71859072802697
 42
1.0
 10
353.0511691223978
 20
71.02383933267842
 42
1.0
 10
353.0853827601697
 20
71.48067039695158
 42
1.0
 10
353.0707127356921
 20
71.90938949780235
 42
1.0
 10
353.0731745500834
 20
72.34780237907665
 42
1.0
 10
353.0725086655506
 20
72.67560105558637
 42
1.0
 10
353.0731896466651
 20
72.94809749232131
 42
1.0
 10
353.0720244304796
 20
73.16820603878789
 42
1.0
 10
353.0749532306103
 20
73.30082995114446
 42
1.0
 10
353.0689468263923
 20
73.41826666180415
 42
1.0
 10
353.0872961200487
 20
73.47529780998669
 42
1.0
 10
353.0127091476111
 20
73.71188750532143
 42
1.0
 10
352.7781775338083
 20
73.77282396179268
 42
1.0
 10
352.7261828996943
 20
73.75698401409606
 42
1.0
 10
352.6384995344824
 20
73.76202536395172
 42
1.0
 10
352.5494776066743
 20
73.7576999122257
 42
1.0
 10
352.5014986603492
 20
73.7699603692741
 42
1.0
 10
352.2725087645447
 20
73.72448048406149
 42
1.0
 10
352.1808384517707
 20
73.4886725437417
 42
1.0
 10
352.2020493956175
 20
73.42252491886201
 42
1.0
 10
352.1951072293713
 20
73.30807142047317
 42
1.0
 10
352.198484970505
 20
73.17400010015712
 42
1.0
 10
352.1971813325104
 20
72.95442778099535
 42
1.0
 10
352.1976401678151
 20
72.68191672128413
 42
1.0
 10
352.1984247020134
 20
72.24350766791596
 42
1.0
 10
352.1922240249934
 20
71.81319287595788
 42
1.0
 10
352.2069411833451
 20
71.36038881814214
 42
1.0
 10
352.161663290993
 20
71.08629366174426
 42
1.0
 10
352.1195706678063
 20
70.77806341904686
 42
1.0
 10
352.0587263916688
 20
70.67210878068192
 42
1.0
 10
351.905842683948
 20
70.47531260712582
 42
1.0
 10
351.7916701041245
 20
70.3119469028687
 42
1.0
 10
351.5206903540976
 20
70.12721499880449
 42
1.0
 10
351.409343689778
 20
70.04783132300517
 42
1.0
 10
351.2090215593662
 20
70.02017481037787
 42
1.0
 10
350.9679736669639
 20
69.9619412268368
 42
1.0
 10
350.8298075536354
 20
69.96884565029207
 42
1.0
 10
350.660701661895
 20
70.00732499078119
 42
1.0
 10
350.4879123624649
 20
70.0379246126159
 42
1.0
 10
350.3555662484589
 20
70.07960616522836
 42
1.0
 10
350.1614862695776
 20
70.22832362209239
 42
1.0
 10
349.9879986917601
 20
70.33437194254506
 42
1.0
 10
349.940287503157
 20
70.3964786556994
 42
1.0
 10
349.909860530029
 20
70.4350486053548
 42
1.0
 97
        0
 75
     0
 76
     1
 98
        1
 10
0.0
 20
0.0
  0
HATCH
  5
43
330
1F
100
AcDbEntity
  8
0
  6
Continuous
 62
     7
100
AcDbHatch
 10
0.0
 20
0.0
 30
0.0
210
0.0
220
0.0
230
1.0
  2
SOLID
 70
     1
 71
     0
 91
        1
 92
        0
 93
        1
 72
     4
 94
        3
 73
     1
 74
     0
 95
      134
 96
      130
 40
0.0
 40
0.0
 40
0.0
 40
0.0
 40
0.0078125
 40
0.015625
 40
0.0234375
 40
0.03125
 40
0.0390625
 40
0.046875
 40
0.0625
 40
0.0703125
 40
0.078125
 40
0.08203125
 40
0.0859375
 40
0.09375
 40
0.109375
 40
0.1171875
 40
0.125
 40
0.1328125
 40
0.140625
 40
0.1484375
 40
0.15625
 40
0.1640625
 40
0.171875
 40
0.1796875
 40
0.1875
 40
0.203125
 40
0.2109375
 40
0.21875
 40
0.22265625
 40
0.2265625
 40
0.23046875
 40
0.234375
 40
0.2421875
 40
0.24609375
 40
0.248046875
 40
0.25
 40
0.251953125
 40
0.2529296875
 40
0.25390625
 40
0.2548828125
 40
0.255859375
 40
0.2578125
 40
0.26171875
 40
0.265625
 40
0.2734375
 40
0.28125
 40
0.2890625
 40
0.296875
 40
0.3046875
 40
0.3125
 40
0.3203125
 40
0.328125
 40
0.3359375
 40
0.34375
 40
0.3515625
 40
0.359375
 40
0.3671875
 40
0.375
 40
0.390625
 40
0.3984375
 40
0.40625
 40
0.421875
 40
0.4296875
 40
0.4375
 40
0.4453125
 40
0.453125
 40
0.4609375
 40
0.46875
 40
0.4765625
 40
0.484375
 40
0.4921875
 40
0.5
 40
0.5078125
 40
0.515625
 40
0.5234375
 40
0.53125
 40
0.5390625
 40
0.546875
 40
0.5546875
 40
0.5625
 40
0.5703125
 40
0.578125
 40
0.59375
 40
0.609375
 40
0.625
 40
0.640625
 40
0.65625
 40
0.6640625
 40
0.66796875
 40
0.671875
 40
0.67578125
 40
0.6796875
 40
0.681640625
 40
0.68359375
 40
0.6875
 40
0.69140625
 40
0.6953125
 40
0.69921875
 40
0.701171875
 40
0.703125
 40
0.70703125
 40
0.7109375
 40
0.71875
 40
0.734375
 40
0.75
 40
0.78125
 40
0.796875
 40
0.8046875
 40
0.8125
 40
0.81640625
 40
0.8203125
 40
0.828125
 40
0.84375
 40
0.8515625
 40
0.859375
 40
0.875
 40
0.8828125
 40
0.890625
 40
0.90625
 40
0.921875
 40
0.9375
 40
0.9453125
 40
0.94921875
 40
0.953125
 40
0.96875
 40
0.9765625
 40
0.984375
 40
0.9921875
 40
1.0
 40
1.0
 40
1.0
 40
1.0
 10
353.716658728598
 20
72.63030711242253
 42
1.0
 10
353.6783632114609
 20
72.57057099045413
 42
1.0
 10
353.6208355394091
 20
72.47183440574604
 42
1.0
 10
353.5086437364027
 20
72.2230967661352
 42
1.0
 10
353.4766750220277
 20
72.04535796392447
 42
1.0
 10
353.4201594365906
 20
71.82144313157869
 42
1.0
 10
353.4021212601909
 20
71.63048225798457
 42
1.0
 10
353.3655206195003
 20
71.31824796489445
 42
1.0
 10
353.4116438392722
 20
71.05150256385751
 42
1.0
 10
353.4859656171025
 20
70.7648667441767
 42
1.0
 10
353.5056791286661
 20
70.62125248831663
 42
1.0
 10
353.5918892089777
 20
70.43346479912266
 42
1.0
 10
353.6725323220486
 20
70.32666503615418
 42
1.0
 10
353.8100993873978
 20
70.12809848694798
 42
1.0
 10
353.9251087478393
 20
69.92150591615297
 42
1.0
 10
354.1713471149042
 20
69.66708176499296
 42
1.0
 10
354.3054754542258
 20
69.55688489778706
 42
1.0
 10
354.5150231276006
 20
69.41288666999978
 42
1.0
 10
354.6635314599547
 20
69.32691155970888
 42
1.0
 10
354.9114426215044
 20
69.21395742476055
 42
1.0
 10
355.089710929584
 20
69.18224700362602
 42
1.0
 10
355.3135321995732
 20
69.12501099741388
 42
1.0
 10
355.5028607283003
 20
69.10870437063377
 42
1.0
 10
355.7448812426082
 20
69.07457355781246
 42
1.0
 10
356.0268647396247
 20
69.13966933044769
 42
1.0
 10
356.2902965928859
 20
69.15382593189842
 42
1.0
 10
356.5832578223265
 20
69.2744806500847
 42
1.0
 10
356.7359412954818
 20
69.34559293678596
 42
1.0
 10
356.8414180185768
 20
69.39446439812188
 42
1.0
 10
356.988786104333
 20
69.45775124549832
 42
1.0
 10
357.0931782382448
 20
69.65394868186543
 42
1.0
 10
357.0901535127581
 20
69.84047148954113
 42
1.0
 10
357.0895950680622
 20
69.95092166655067
 42
1.0
 10
357.0934633006352
 20
70.07593032971039
 42
1.0
 10
357.0869716559697
 20
70.13677486694665
 42
1.0
 10
357.1069642918261
 20
70.20607100693141
 42
1.0
 10
357.0148051326029
 20
70.350442976657
 42
1.0
 10
356.9349400346371
 20
70.40633792906914
 42
1.0
 10
356.7991391570331
 20
70.42016968620052
 42
1.0
 10
356.7325540366096
 20
70.37235911936727
 42
1.0
 10
356.7149534029293
 20
70.36064226090599
 42
1.0
 10
356.6604513814081
 20
70.32213243101077
 42
1.0
 10
356.5955429129614
 20
70.27675070464136
 42
1.0
 10
356.4810307173674
 20
70.19736649720242
 42
1.0
 10
356.3660240692782
 20
70.11040781191049
 42
1.0
 10
356.2027541323639
 20
70.07222403031962
 42
1.0
 10
355.999988387389
 20
70.02666160754123
 42
1.0
 10
355.7943037619081
 20
69.97478333971603
 42
1.0
 10
355.6576326898557
 20
69.96205153586814
 42
1.0
 10
355.4576023031818
 20
70.003358956605
 42
1.0
 10
355.2437118436877
 20
70.03549251784061
 42
1.0
 10
355.1047603675414
 20
70.06474149268806
 42
1.0
 10
354.9541833374927
 20
70.18017225125232
 42
1.0
 10
354.7800981962105
 20
70.30067831360547
 42
1.0
 10
354.6349008772821
 20
70.39770374550284
 42
1.0
 10
354.5482791063039
 20
70.53948456417167
 42
1.0
 10
354.4208366272883
 20
70.7260007334663
 42
1.0
 10
354.3203470038898
 20
70.88572454818296
 42
1.0
 10
354.2986925098432
 20
71.18415096525499
 42
1.0
 10
354.249615471153
 20
71.41649505878577
 42
1.0
 10
354.2948663799388
 20
71.64259508381224
 42
1.0
 10
354.3216686493282
 20
71.94359158321996
 42
1.0
 10
354.4108607221854
 20
72.11579651418947
 42
1.0
 10
354.5265916277555
 20
72.29936180356584
 42
1.0
 10
354.6198440478583
 20
72.47439710954332
 42
1.0
 10
354.7218559157837
 20
72.54635940297031
 42
1.0
 10
354.9138903254559
 20
72.65674115564029
 42
1.0
 10
355.0813867670253
 20
72.76586226190123
 42
1.0
 10
355.2260678959036
 20
72.81487275664466
 42
1.0
 10
355.4296807382427
 20
72.86128589316849
 42
1.0
 10
355.6392962249141
 20
72.91930523307363
 42
1.0
 10
355.7592413909645
 20
72.93018967603929
 42
1.0
 10
355.9573347973842
 20
72.872441264172
 42
1.0
 10
356.1618854091878
 20
72.82355859138245
 42
1.0
 10
356.3204617975816
 20
72.78311963390081
 42
1.0
 10
356.4664964937791
 20
72.67486379969688
 42
1.0
 10
356.6544033085115
 20
72.55520317178596
 42
1.0
 10
356.7643795049289
 20
72.47034274982552
 42
1.0
 10
356.873067313441
 20
72.30218564775598
 42
1.0
 10
356.9968135735436
 20
72.12802163810557
 42
1.0
 10
357.0876211644936
 20
72.00071986467347
 42
1.0
 10
357.116729484769
 20
71.76261859372657
 42
1.0
 10
357.1912999926574
 20
71.42601572499973
 42
1.0
 10
357.1775144402293
 20
71.0452355480373
 42
1.0
 10
357.1811148015992
 20
70.63539900591027
 42
1.0
 10
357.1804989085476
 20
70.23346417613926
 42
1.0
 10
357.1795515842445
 20
69.89639308111383
 42
1.0
 10
357.1816446367381
 20
69.66144966289446
 42
1.0
 10
357.1782460116097
 20
69.52610873360805
 42
1.0
 10
357.1886935282791
 20
69.42757815089817
 42
1.0
 10
357.1494524304479
 20
69.31769088489214
 42
1.0
 10
357.3122364097814
 20
69.08786957333533
 42
1.0
 10
357.4727537388706
 20
69.08012787369584
 42
1.0
 10
357.5204499188039
 20
69.08224371703945
 42
1.0
 10
357.6149625108769
 20
69.07878688348728
 42
1.0
 10
357.7092300397002
 20
69.0897652644296
 42
1.0
 10
357.8242601077303
 20
69.04999994092294
 42
1.0
 10
358.0512068094873
 20
69.21879909497234
 42
1.0
 10
358.0562714653899
 20
69.3751368060547
 42
1.0
 10
358.0550889987511
 20
69.42301856236591
 42
1.0
 10
358.0556636972249
 20
69.51656348078038
 42
1.0
 10
358.0554453772153
 20
69.64743566766587
 42
1.0
 10
358.0555150337341
 20
69.88517941283801
 42
1.0
 10
358.0560095779067
 20
70.22059141741418
 42
1.0
 10
358.0528959655609
 20
70.75770352464923
 42
1.0
 10
358.0719475397945
 20
71.30560836711969
 42
1.0
 10
358.0237279173974
 20
71.7834083840615
 42
1.0
 10
357.9471921795993
 20
72.07168603731104
 42
1.0
 10
357.9272422374815
 20
72.21241217468064
 42
1.0
 10
357.844801918342
 20
72.40153305700731
 42
1.0
 10
357.7621123087579
 20
72.51096763968795
 42
1.0
 10
357.6272799881238
 20
72.70609404078989
 42
1.0
 10
357.5011205316235
 20
72.92687347236351
 42
1.0
 10
357.2556726375587
 20
73.16752403495758
 42
1.0
 10
357.0249897239261
 20
73.30922784951326
 42
1.0
 10
356.8516209565234
 20
73.46067102912254
 42
1.0
 10
356.5167915455209
 20
73.6313354571122
 42
1.0
 10
356.2732438924077
 20
73.67340867107478
 42
1.0
 10
355.9196691957455
 20
73.75331973679201
 42
1.0
 10
355.4759448798052
 20
73.74838622895116
 42
1.0
 10
355.1203131646177
 20
73.6619926811125
 42
1.0
 10
354.9133168548191
 20
73.630474306008
 42
1.0
 10
354.7266143799583
 20
73.5434968846211
 42
1.0
 10
354.5667034306206
 20
73.423544566182
 42
1.0
 10
354.366179817171
 20
73.28356108015932
 42
1.0
 10
354.1525099729113
 20
73.15359286835702
 42
1.0
 10
353.9607387220047
 20
72.96268558018386
 42
1.0
 10
353.8506086422319
 20
72.83025113755644
 42
1.0
 10
353.7549542457351
 20
72.69004323439093
 42
1.0
 10
353.716658728598
 20
72.63030711242253
 42
1.0
 97
        0
 75
     0
 76
     1
 98
        1
 10
0.0
 20
0.0
  0
HATCH
  5
44
330
1F
100
AcDbEntity
  8
0
  6
Continuous
 62
     7
100
AcDbHatch
 10
0.0
 20
0.0
 30
0.0
210
0.0
220
0.0
230
1.0
  2
SOLID
 70
     1
 71
     0
 91
        1
 92
        0
 93
        1
 72
     4
 94
        3
 73
     1
 74
     0
 95
       64
 96
       60
 40
0.0
 40
0.0
 40
0.0
 40
0.0
 40
0.0625
 40
0.125
 40
0.15625
 40
0.1875
 40
0.21875
 40
0.234375
 40
0.25
 40
0.2578125
 40
0.265625
 40
0.2734375
 40
0.28125
 40
0.296875
 40
0.3046875
 40
0.3125
 40
0.3203125
 40
0.328125
 40
0.3359375
 40
0.34375
 40
0.359375
 40
0.375
 40
0.40625
 40
0.4375
 40
0.5
 40
0.5625
 40
0.59375
 40
0.609375
 40
0.625
 40
0.640625
 40
0.65625
 40
0.671875
 40
0.6875
 40
0.703125
 40
0.7109375
 40
0.71875
 40
0.72265625
 40
0.7265625
 40
0.73046875
 40
0.734375
 40
0.7421875
 40
0.75
 40
0.7578125
 40
0.765625
 40
0.7734375
 40
0.78125
 40
0.7890625
 40
0.796875
 40
0.8125
 40
0.828125
 40
0.84375
 40
0.859375
 40
0.875
 40
0.890625
 40
0.90625
 40
0.921875
 40
0.9375
 40
0.96875
 40
1.0
 40
1.0
 40
1.0
 40
1.0
 10
358.519865217529
 20
72.02122444334609
 42
1.0
 10
358.5045802966787
 20
71.78791230641498
 42
1.0
 10
358.5271555312428
 20
71.38535143697689
 42
1.0
 10
358.5189230058788
 20
70.83852211480742
 42
1.0
 10
358.5201031357565
 20
70.40967131532814
 42
1.0
 10
358.5195607237996
 20
70.08837218217288
 42
1.0
 10
358.5206311824825
 20
69.81590440875604
 42
1.0
 10
358.5185473793586
 20
69.60908509668539
 42
1.0
 10
358.523834193258
 20
69.45429500787786
 42
1.0
 10
358.5129846288508
 20
69.38894145519828
 42
1.0
 10
358.546358629778
 20
69.1712399182873
 42
1.0
 10
358.773672444897
 20
69.06401497745713
 42
1.0
 10
358.8771219485084
 20
69.0914780526757
 42
1.0
 10
358.9978851075468
 20
69.07928948569874
 42
1.0
 10
359.0759766964226
 20
69.0822978279226
 42
1.0
 10
359.24524644314
 20
69.07861499918353
 42
1.0
 10
359.4089769267395
 20
69.27453761918844
 42
1.0
 10
359.3912286964409
 20
69.40509326580664
 42
1.0
 10
359.3959558426706
 20
69.47235594152816
 42
1.0
 10
359.3944087031767
 20
69.58414612896553
 42
1.0
 10
359.3951613459902
 20
69.71631664193876
 42
1.0
 10
359.3948715468013
 20
69.93200643954884
 42
1.0
 10
359.3949682367708
 20
70.20026024545874
 42
1.0
 10
359.395173786787
 20
70.62972640426602
 42
1.0
 10
359.3932136229968
 20
71.1700423470499
 42
1.0
 10
359.4000583068674
 20
71.69610022604542
 42
1.0
 10
359.3879113764064
 20
72.09184440430552
 42
1.0
 10
359.4089091562468
 20
72.26232353574267
 42
1.0
 10
359.4382755390096
 20
72.46177593159842
 42
1.0
 10
359.441788803977
 20
72.4931942516805
 42
1.0
 10
359.5806980530201
 20
72.6592245117983
 42
1.0
 10
359.6222579611094
 20
72.71476436011179
 42
1.0
 10
359.7938890011675
 20
72.81099412624128
 42
1.0
 10
359.8674498245854
 20
72.85272181654462
 42
1.0
 10
359.9723533199577
 20
72.8845908548478
 42
1.0
 10
360.0424184557176
 20
72.91075029292668
 42
1.0
 10
360.0782563374568
 20
72.91768863684797
 42
1.0
 10
360.1905026906303
 20
72.97184386418344
 42
1.0
 10
360.2421353300574
 20
73.08738020325058
 42
1.0
 10
360.2541599199706
 20
73.18331953345391
 42
1.0
 10
360.2511811267855
 20
73.25323048132272
 42
1.0
 10
360.2538673694241
 20
73.32960637101088
 42
1.0
 10
360.2466969506915
 20
73.42365866489908
 42
1.0
 10
360.2726923829833
 20
73.45452258974152
 42
1.0
 10
360.1752672744784
 20
73.73852715543111
 42
1.0
 10
359.9079202603222
 20
73.73310895408464
 42
1.0
 10
359.8792919047571
 20
73.71482782462661
 42
1.0
 10
359.756334203739
 20
73.69313047949386
 42
1.0
 10
359.6417845700278
 20
73.67809386366349
 42
1.0
 10
359.4183307673422
 20
73.58950913587881
 42
1.0
 10
359.2964430723025
 20
73.49477071854194
 42
1.0
 10
359.1645086269158
 20
73.40909323457548
 42
1.0
 10
359.0096263545097
 20
73.31020308844988
 42
1.0
 10
358.8812258221758
 20
73.15043722606585
 42
1.0
 10
358.7960154871959
 20
73.02705515639637
 42
1.0
 10
358.6851185713493
 20
72.90683091332443
 42
1.0
 10
358.5776579674032
 20
72.60027391713633
 42
1.0
 10
358.5560788678703
 20
72.38720849984875
 42
1.0
 10
358.5275076779541
 20
72.13788051181163
 42
1.0
 10
358.519865217529
 20
72.02122444334609
 42
1.0
 97
        0
 75
     0
 76
     1
 98
        1
 10
0.0
 20
0.0
  0
HATCH
  5
45
330
1F
100
AcDbEntity
  8
0
  6
Continuous
 62
     7
100
AcDbHatch
 10
0.0
 20
0.0
 30
0.0
210
0.0
220
0.0
230
1.0
  2
SOLID
 70
     1
 71
     0
 91
        1
 92
        0
 93
        1
 72
     4
 94
        3
 73
     1
 74
     0
 95
      138
 96
      134
 40
0.0
 40
0.0
 40
0.0
 40
0.0
 40
0.0078125
 40
0.015625
 40
0.0234375
 40
0.03125
 40
0.0390625
 40
0.046875
 40
0.0546875
 40
0.0625
 40
0.06640625
 40
0.0703125
 40
0.072265625
 40
0.07421875
 40
0.076171875
 40
0.0771484375
 40
0.078125
 40
0.0791015625
 40
0.080078125
 40
0.08203125
 40
0.083984375
 40
0.0859375
 40
0.08984375
 40
0.09375
 40
0.09765625
 40
0.1015625
 40
0.10546875
 40
0.109375
 40
0.1171875
 40
0.125
 40
0.1328125
 40
0.140625
 40
0.15625
 40
0.1640625
 40
0.171875
 40
0.1796875
 40
0.1875
 40
0.1953125
 40
0.19921875
 40
0.203125
 40
0.21875
 40
0.2265625
 40
0.234375
 40
0.2421875
 40
0.25
 40
0.2578125
 40
0.265625
 40
0.2734375
 40
0.28125
 40
0.2890625
 40
0.296875
 40
0.3046875
 40
0.3125
 40
0.328125
 40
0.3359375
 40
0.33984375
 40
0.34375
 40
0.359375
 40
0.375
 40
0.390625
 40
0.39453125
 40
0.3984375
 40
0.40625
 40
0.4140625
 40
0.421875
 40
0.4296875
 40
0.4375
 40
0.4453125
 40
0.453125
 40
0.4609375
 40
0.46484375
 40
0.46875
 40
0.4765625
 40
0.484375
 40
0.5
 40
0.53125
 40
0.5625
 40
0.578125
 40
0.59375
 40
0.6015625
 40
0.609375
 40
0.6171875
 40
0.62109375
 40
0.623046875
 40
0.625
 40
0.626953125
 40
0.62890625
 40
0.630859375
 40
0.6328125
 40
0.63671875
 40
0.638671875
 40
0.640625
 40
0.642578125
 40
0.64453125
 40
0.6484375
 40
0.65234375
 40
0.65625
 40
0.6640625
 40
0.671875
 40
0.6875
 40
0.703125
 40
0.71875
 40
0.75
 40
0.765625
 40
0.78125
 40
0.7890625
 40
0.796875
 40
0.8046875
 40
0.8125
 40
0.8203125
 40
0.828125
 40
0.8359375
 40
0.84375
 40
0.8515625
 40
0.859375
 40
0.8671875
 40
0.875
 40
0.8828125
 40
0.890625
 40
0.8984375
 40
0.90625
 40
0.9140625
 40
0.921875
 40
0.9296875
 40
0.9375
 40
0.9453125
 40
0.953125
 40
0.9609375
 40
0.96875
 40
0.9765625
 40
0.984375
 40
0.9921875
 40
1.0
 40
1.0
 40
1.0
 40
1.0
 10
361.6026784860857
 20
72.55745774109361
 42
1.0
 10
361.6618878651269
 20
72.59467459559316
 42
1.0
 10
361.8144179573365
 20
72.68199675342593
 42
1.0
 10
361.9895751925205
 20
72.79582527080595
 42
1.0
 10
362.1956361249192
 20
72.84164397652194
 42
1.0
 10
362.4506722645993
 20
72.92186926189022
 42
1.0
 10
362.5879985404342
 20
72.92673269691822
 42
1.0
 10
362.8311021942667
 20
72.86026721498722
 42
1.0
 10
363.0771173414835
 20
72.81234312676892
 42
1.0
 10
363.1901750404888
 20
72.76346907550588
 42
1.0
 10
363.3124509303718
 20
72.66040880343601
 42
1.0
 10
363.3922476970351
 20
72.59949394780237
 42
1.0
 10
363.4478583097446
 20
72.55054066576255
 42
1.0
 10
363.5122220698485
 20
72.51239120818536
 42
1.0
 10
363.4937670349549
 20
72.4854738960008
 42
1.0
 10
363.688043316881
 20
72.42288936241555
 42
1.0
 10
363.7844445753736
 20
72.47812919574785
 42
1.0
 10
363.8612321029449
 20
72.53419862730387
 42
1.0
 10
363.9121165323473
 20
72.69612585183724
 42
1.0
 10
363.8899145678786
 20
72.71099294029104
 42
1.0
 10
363.8970073584182
 20
72.781227618228
 42
1.0
 10
363.8947022853567
 20
72.85586172728573
 42
1.0
 10
363.895699027632
 20
72.96075989556361
 42
1.0
 10
363.8959235077439
 20
73.05944933639682
 42
1.0
 10
363.8933806045666
 20
73.25733348194136
 42
1.0
 10
363.6995613122862
 20
73.44758589244258
 42
1.0
 10
363.6076908296944
 20
73.47001014814279
 42
1.0
 10
363.4647444216312
 20
73.54819092955567
 42
1.0
 10
363.269348498742
 20
73.65016728876638
 42
1.0
 10
363.0002610864281
 20
73.68770432169366
 42
1.0
 10
362.782336875095
 20
73.72103438391028
 42
1.0
 10
362.4333579993469
 20
73.78092075986889
 42
1.0
 10
362.0836950890418
 20
73.70766957844005
 42
1.0
 10
361.7963573457291
 20
73.64244623075443
 42
1.0
 10
361.5076701862244
 20
73.54518077127787
 42
1.0
 10
361.3293159650977
 20
73.43446246489786
 42
1.0
 10
361.0897207682395
 20
73.2659877146099
 42
1.0
 10
360.9638090486409
 20
73.17328403930091
 42
1.0
 10
360.8072091355996
 20
72.998520748727
 42
1.0
 10
360.6970879684708
 20
72.79585893498864
 42
1.0
 10
360.5495244872769
 20
72.58389484276638
 42
1.0
 10
360.3696024144278
 20
72.25626438055491
 42
1.0
 10
360.2981300215117
 20
72.05455942925637
 42
1.0
 10
360.2149215163192
 20
71.7669541690933
 42
1.0
 10
360.1902862807444
 20
71.56171944503684
 42
1.0
 10
360.1953171202131
 20
71.25814475563737
 42
1.0
 10
360.2169948009622
 20
71.04703165072921
 42
1.0
 10
360.3057182025897
 20
70.76840087919659
 42
1.0
 10
360.3857694744433
 20
70.5589603128128
 42
1.0
 10
360.4785619218217
 20
70.34056577573674
 42
1.0
 10
360.5853708987673
 20
70.08345820561351
 42
1.0
 10
360.7462888544856
 20
69.9063085140332
 42
1.0
 10
361.0112516597109
 20
69.62567802801497
 42
1.0
 10
361.2886792653538
 20
69.48777565817795
 42
1.0
 10
361.474393963233
 20
69.32535961726474
 42
1.0
 10
361.6910575909752
 20
69.22447517368055
 42
1.0
 10
361.9118703683399
 20
69.18264822210162
 42
1.0
 10
362.2786661499254
 20
69.08834659484236
 42
1.0
 10
362.7944430585893
 20
69.09164291544728
 42
1.0
 10
363.1520227423569
 20
69.17743995962799
 42
1.0
 10
363.3964802623261
 20
69.23615949099296
 42
1.0
 10
363.5889791178768
 20
69.35065185708028
 42
1.0
 10
363.7216217828345
 20
69.45095291245705
 42
1.0
 10
363.920318469364
 20
69.58877555189778
 42
1.0
 10
364.1330670302958
 20
69.72484361575863
 42
1.0
 10
364.3126956601879
 20
69.95415751761816
 42
1.0
 10
364.4369729767879
 20
70.14288295730306
 42
1.0
 10
364.5685154575824
 20
70.32612475594617
 42
1.0
 10
364.7261438747905
 20
70.57174201300481
 42
1.0
 10
364.7752744537369
 20
70.75419903859122
 42
1.0
 10
364.8433327462696
 20
70.90508680319958
 42
1.0
 10
364.869282074849
 20
71.13660293529907
 42
1.0
 10
364.8568497359488
 20
71.30065155395978
 42
1.0
 10
364.8617068463498
 20
71.62889576805945
 42
1.0
 10
364.85867303892
 20
72.17268082990034
 42
1.0
 10
364.8603915505986
 20
72.96554093733624
 42
1.0
 10
364.8598690219289
 20
73.75267013570708
 42
1.0
 10
364.859987477995
 20
74.38330823231503
 42
1.0
 10
364.859840835706
 20
74.77798565244932
 42
1.0
 10
364.8601190277171
 20
75.0922252406686
 42
1.0
 10
364.8592735605965
 20
75.33209480964491
 42
1.0
 10
364.8619179143247
 20
75.51864583603906
 42
1.0
 10
364.8571974252633
 20
75.67541307325313
 42
1.0
 10
364.8647608214802
 20
75.72411383243585
 42
1.0
 10
364.8412307285872
 20
75.88642205381042
 42
1.0
 10
364.7139499162189
 20
76.00140059667335
 42
1.0
 10
364.5675891719287
 20
76.01328439228173
 42
1.0
 10
364.5312961147517
 20
76.00992894772251
 42
1.0
 10
364.4458558345247
 20
76.01198728270181
 42
1.0
 10
364.3642941709826
 20
76.00531899445477
 42
1.0
 10
364.2988838103789
 20
76.0199313800931
 42
1.0
 10
364.1222477850163
 20
75.96807677172158
 42
1.0
 10
364.0325309527017
 20
75.80950025978962
 42
1.0
 10
364.0418073445784
 20
75.68418232570559
 42
1.0
 10
364.0372605232198
 20
75.6084232196881
 42
1.0
 10
364.0387137534443
 20
75.4828895549621
 42
1.0
 10
364.0382381064206
 20
75.32760420396738
 42
1.0
 10
364.0384696629264
 20
75.12935784418693
 42
1.0
 10
364.0383795901558
 20
74.81447182589558
 42
1.0
 10
364.0384167618997
 20
74.42011180699903
 42
1.0
 10
364.0384333517675
 20
73.9470295292424
 42
1.0
 10
364.0382853976822
 20
73.31705984420022
 42
1.0
 10
364.0392139195012
 20
72.68195055751964
 42
1.0
 10
364.0370405690392
 20
72.06165506177925
 42
1.0
 10
364.0425398424492
 20
71.64121890095636
 42
1.0
 10
364.0312559891527
 20
71.37981420608023
 42
1.0
 10
363.9638417368795
 20
71.15428254999244
 42
1.0
 10
363.9121049639131
 20
70.90692590528066
 42
1.0
 10
363.844411246149
 20
70.76167915261034
 42
1.0
 10
363.6893808786354
 20
70.5433385950518
 42
1.0
 10
363.5913236605282
 20
70.38300068882485
 42
1.0
 10
363.4045111079772
 20
70.26808230800995
 42
1.0
 10
363.1940552968263
 20
70.11179365028565
 42
1.0
 10
363.0609440065865
 20
70.0386709501707
 42
1.0
 10
362.8151460909645
 20
70.01211784903712
 42
1.0
 10
362.5764709779514
 20
69.95915448952954
 42
1.0
 10
362.4109095699982
 20
69.97556279873515
 42
1.0
 10
362.1476576349637
 20
70.02832073793945
 42
1.0
 10
361.970096491557
 20
70.05472254309804
 42
1.0
 10
361.7973484947447
 20
70.19300962311407
 42
1.0
 10
361.5836586411148
 20
70.33385773719928
 42
1.0
 10
361.4500475627134
 20
70.44504159205282
 42
1.0
 10
361.3062090400521
 20
70.65157530453209
 42
1.0
 10
361.1556166268031
 20
70.81481274061909
 42
1.0
 10
361.1309870638291
 20
70.98645804658915
 42
1.0
 10
361.0875542144124
 20
71.24517813610505
 42
1.0
 10
361.0526298558133
 20
71.43836438751136
 42
1.0
 10
361.0991394227011
 20
71.65011130009101
 42
1.0
 10
361.1353532356268
 20
71.91053072757845
 42
1.0
 10
361.1770968702375
 20
72.05554136774401
 42
1.0
 10
361.3308054807003
 20
72.25003587048731
 42
1.0
 10
361.459161683089
 20
72.45869562642865
 42
1.0
 10
361.5434691070444
 20
72.52024088659407
 42
1.0
 10
361.6026784860857
 20
72.55745774109361
 42
1.0
 97
        0
 75
     0
 76
     1
 98
        1
 10
0.0
 20
0.0
  0
HATCH
  5
46
330
1F
100
AcDbEntity
  8
0
  6
Continuous
 62
     7
100
AcDbHatch
 10
0.0
 20
0.0
 30
0.0
210
0.0
220
0.0
230
1.0
  2
SOLID
 70
     1
 71
     0
 91
        1
 92
        0
 93
        1
 72
     4
 94
        3
 73
     1
 74
     0
 95
       63
 96
       59
 40
0.0
 40
0.0
 40
0.0
 40
0.0
 40
0.03125
 40
0.046875
 40
0.0625
 40
0.078125
 40
0.09375
 40
0.109375
 40
0.125
 40
0.15625
 40
0.1875
 40
0.25
 40
0.3125
 40
0.34375
 40
0.375
 40
0.390625
 40
0.40625
 40
0.4140625
 40
0.421875
 40
0.4296875
 40
0.4375
 40
0.4453125
 40
0.453125
 40
0.46875
 40
0.4765625
 40
0.484375
 40
0.4921875
 40
0.5
 40
0.515625
 40
0.53125
 40
0.5625
 40
0.59375
 40
0.625
 40
0.6875
 40
0.75
 40
0.78125
 40
0.796875
 40
0.8046875
 40
0.8125
 40
0.828125
 40
0.8359375
 40
0.84375
 40
0.859375
 40
0.875
 40
0.8828125
 40
0.890625
 40
0.89453125
 40
0.8984375
 40
0.90625
 40
0.921875
 40
0.9296875
 40
0.93359375
 40
0.9375
 40
0.9453125
 40
0.953125
 40
0.96875
 40
0.984375
 40
1.0
 40
1.0
 40
1.0
 40
1.0
 10
392.9851085207433
 20
73.5489449786583
 42
1.0
 10
392.8819744292741
 20
73.48542440569616
 42
1.0
 10
392.7809282257647
 20
73.4234535734635
 42
1.0
 10
392.5519815778027
 20
73.24033057503514
 42
1.0
 10
392.4597784267847
 20
73.09912128266922
 42
1.0
 10
392.3691631901971
 20
72.98439256970374
 42
1.0
 10
392.2436884994662
 20
72.81099832979888
 42
1.0
 10
392.2091519432557
 20
72.61022762199703
 42
1.0
 10
392.1731407103517
 20
72.416312687376
 42
1.0
 10
392.1196634460309
 20
72.11554372862287
 42
1.0
 10
392.1378807114707
 20
71.68679788269603
 42
1.0
 10
392.1288908795432
 20
71.1491006321308
 42
1.0
 10
392.1314914875443
 20
70.6122403601949
 42
1.0
 10
392.1311640490983
 20
70.18215534846117
 42
1.0
 10
392.1311839922225
 20
69.91442571227546
 42
1.0
 10
392.1312629067666
 20
69.69781481111818
 42
1.0
 10
392.1310425321684
 20
69.56796423034272
 42
1.0
 10
392.1314977633304
 20
69.45141560589977
 42
1.0
 10
392.1301064118931
 20
69.39868987756664
 42
1.0
 10
392.1353303942707
 20
69.21355526914837
 42
1.0
 10
392.3418622031467
 20
69.06490045395661
 42
1.0
 10
392.456257277744
 20
69.08585152519356
 42
1.0
 10
392.556160975764
 20
69.07743792813254
 42
1.0
 10
392.6448947696061
 20
69.09022416655522
 42
1.0
 10
392.8066055770645
 20
69.06667216755955
 42
1.0
 10
393.0070802192839
 20
69.22527830746458
 42
1.0
 10
393.0061187491217
 20
69.39964774570248
 42
1.0
 10
393.0064335361636
 20
69.47637999904082
 42
1.0
 10
393.0062795668536
 20
69.62562932027905
 42
1.0
 10
393.0063434213604
 20
69.83461126699994
 42
1.0
 10
393.0062865114224
 20
70.10612993659177
 42
1.0
 10
393.0064092061359
 20
70.42727985727704
 42
1.0
 10
393.0058458902317
 20
70.85844502271691
 42
1.0
 10
393.0101160951694
 20
71.38684315263274
 42
1.0
 10
392.9953975369047
 20
71.95376800109338
 42
1.0
 10
393.021488903972
 20
72.27710011489054
 42
1.0
 10
393.0520422294406
 20
72.48209958569323
 42
1.0
 10
393.0609600407099
 20
72.49756053461428
 42
1.0
 10
393.1349544243193
 20
72.58926496495286
 42
1.0
 10
393.2095675181748
 20
72.6849735459886
 42
1.0
 10
393.2382433143234
 20
72.71262459698683
 42
1.0
 10
393.3348412007713
 20
72.7677727816443
 42
1.0
 10
393.4441329581393
 20
72.84373704891989
 42
1.0
 10
393.5435014160344
 20
72.86608489162138
 42
1.0
 10
393.6457739011669
 20
72.91618764368863
 42
1.0
 10
393.7178630865926
 20
72.90044340436988
 42
1.0
 10
393.8495026427362
 20
73.05384190037624
 42
1.0
 10
393.8622050047939
 20
73.16184190956042
 42
1.0
 10
393.8642515645382
 20
73.26901346376646
 42
1.0
 10
393.8654086021153
 20
73.38210948797425
 42
1.0
 10
393.8608310226711
 20
73.45055824713576
 42
1.0
 10
393.8683890423242
 20
73.54666800613377
 42
1.0
 10
393.7731140866561
 20
73.72151845293784
 42
1.0
 10
393.5389683565486
 20
73.7436658338849
 42
1.0
 10
393.4868423086387
 20
73.70703895964749
 42
1.0
 10
393.3354535715503
 20
73.68802108690471
 42
1.0
 10
393.1576946358452
 20
73.65532918050499
 42
1.0
 10
393.0366755664779
 20
73.58070526513936
 42
1.0
 10
392.9851085207433
 20
73.5489449786583
 42
1.0
 97
        0
 75
     0
 76
     1
 98
        1
 10
0.0
 20
0.0
  0
HATCH
  5
47
330
1F
100
AcDbEntity
  8
0
  6
Continuous
 62
     7
100
AcDbHatch
 10
0.0
 20
0.0
 30
0.0
210
0.0
220
0.0
230
1.0
  2
SOLID
 70
     1
 71
     0
 91
        1
 92
        0
 93
        1
 72
     4
 94
        3
 73
     1
 74
     0
 95
      132
 96
      128
 40
0.0
 40
0.0
 40
0.0
 40
0.0
 40
0.0078125
 40
0.015625
 40
0.0234375
 40
0.03125
 40
0.0390625
 40
0.046875
 40
0.0625
 40
0.0703125
 40
0.078125
 40
0.08203125
 40
0.0859375
 40
0.09375
 40
0.109375
 40
0.1171875
 40
0.125
 40
0.1328125
 40
0.140625
 40
0.1484375
 40
0.15625
 40
0.1640625
 40
0.171875
 40
0.1796875
 40
0.1875
 40
0.203125
 40
0.2109375
 40
0.21875
 40
0.22265625
 40
0.2265625
 40
0.23046875
 40
0.234375
 40
0.2421875
 40
0.24609375
 40
0.248046875
 40
0.25
 40
0.251953125
 40
0.2529296875
 40
0.25390625
 40
0.255859375
 40
0.2578125
 40
0.26171875
 40
0.265625
 40
0.2734375
 40
0.28125
 40
0.2890625
 40
0.296875
 40
0.3046875
 40
0.3125
 40
0.3203125
 40
0.328125
 40
0.3359375
 40
0.34375
 40
0.3515625
 40
0.359375
 40
0.3671875
 40
0.375
 40
0.3828125
 40
0.390625
 40
0.3984375
 40
0.40625
 40
0.421875
 40
0.4375
 40
0.4453125
 40
0.453125
 40
0.4609375
 40
0.46875
 40
0.4765625
 40
0.484375
 40
0.4921875
 40
0.5
 40
0.5078125
 40
0.515625
 40
0.5234375
 40
0.53125
 40
0.5390625
 40
0.546875
 40
0.5546875
 40
0.5625
 40
0.5703125
 40
0.578125
 40
0.59375
 40
0.609375
 40
0.625
 40
0.640625
 40
0.65625
 40
0.6640625
 40
0.66796875
 40
0.671875
 40
0.67578125
 40
0.6796875
 40
0.681640625
 40
0.68359375
 40
0.6875
 40
0.69140625
 40
0.6953125
 40
0.69921875
 40
0.701171875
 40
0.703125
 40
0.70703125
 40
0.7109375
 40
0.71875
 40
0.734375
 40
0.75
 40
0.78125
 40
0.796875
 40
0.8046875
 40
0.8125
 40
0.8203125
 40
0.828125
 40
0.84375
 40
0.8515625
 40
0.859375
 40
0.875
 40
0.8828125
 40
0.890625
 40
0.90625
 40
0.921875
 40
0.9375
 40
0.9453125
 40
0.94921875
 40
0.953125
 40
0.96875
 40
0.9765625
 40
0.984375
 40
0.9921875
 40
1.0
 40
1.0
 40
1.0
 40
1.0
 10
376.7016743535979
 20
72.63030711242247
 42
1.0
 10
376.6633420971823
 20
72.57053121472805
 42
1.0
 10
376.6057509688577
 20
72.47172118406657
 42
1.0
 10
376.493582123984
 20
72.22270740176053
 42
1.0
 10
376.461555458897
 20
72.044944768328
 42
1.0
 10
376.4050846682954
 20
71.82065174539262
 42
1.0
 10
376.3869957978255
 20
71.62979197066147
 42
1.0
 10
376.3506512126853
 20
71.31677436441097
 42
1.0
 10
376.3968493812175
 20
71.04992057359597
 42
1.0
 10
376.4713884983941
 20
70.7637036090605
 42
1.0
 10
376.4909725236828
 20
70.6190829808793
 42
1.0
 10
376.5782081102275
 20
70.43165645225974
 42
1.0
 10
376.6584096297049
 20
70.32535672111864
 42
1.0
 10
376.79639629028
 20
70.12642819693563
 42
1.0
 10
376.9112485755975
 20
69.91901309374232
 42
1.0
 10
377.158349462208
 20
69.66577884544903
 42
1.0
 10
377.292423226274
 20
69.55494286523319
 42
1.0
 10
377.5025948829273
 20
69.41174840317414
 42
1.0
 10
377.650783743656
 20
69.32518176268599
 42
1.0
 10
377.9001709505368
 20
69.21332032586945
 42
1.0
 10
378.0774700447531
 20
69.18133630071937
 42
1.0
 10
378.3027513795105
 20
69.12456835302012
 42
1.0
 10
378.4907484937961
 20
69.1080247899776
 42
1.0
 10
378.7354581044353
 20
69.07507785561252
 42
1.0
 10
379.0144349920232
 20
69.14030707842245
 42
1.0
 10
379.2812808645718
 20
69.15502716917189
 42
1.0
 10
379.5716207930434
 20
69.27612032803506
 42
1.0
 10
379.7258712954383
 20
69.34837282810273
 42
1.0
 10
379.8293266992014
 20
69.39477283983864
 42
1.0
 10
379.983080418222
 20
69.46583724812838
 42
1.0
 10
380.0793170598076
 20
69.66336307774573
 42
1.0
 10
380.0744376119538
 20
69.84293635624965
 42
1.0
 10
380.075238587439
 20
69.95442479421884
 42
1.0
 10
380.0777559704374
 20
70.08366904064572
 42
1.0
 10
380.0732402128547
 20
70.13723640766467
 42
1.0
 10
380.0871971727132
 20
70.2292165791169
 42
1.0
 10
379.9922326776552
 20
70.3573319416742
 42
1.0
 10
379.896411544388
 20
70.41823552583611
 42
1.0
 10
379.7161954372087
 20
70.40162958956178
 42
1.0
 10
379.7045937925573
 20
70.35375731609808
 42
1.0
 10
379.6403774042226
 20
70.32443618982214
 42
1.0
 10
379.5763701798843
 20
70.27188794174738
 42
1.0
 10
379.4611812638162
 20
70.19500149976655
 42
1.0
 10
379.3479722528607
 20
70.10855014616885
 42
1.0
 10
379.1814613185445
 20
70.07105428838241
 42
1.0
 10
378.9791539017688
 20
70.0253171701129
 42
1.0
 10
378.7739283134682
 20
69.97323084181136
 42
1.0
 10
378.6379895361644
 20
69.9630410497564
 42
1.0
 10
378.4359946071
 20
70.00451345156625
 42
1.0
 10
378.2214662102289
 20
70.03628724435366
 42
1.0
 10
378.0865796931601
 20
70.0668949049777
 42
1.0
 10
377.933050320362
 20
70.18455928004715
 42
1.0
 10
377.7586084259912
 20
70.30498417032288
 42
1.0
 10
377.6169928746555
 20
70.40065898528275
 42
1.0
 10
377.5286027125441
 20
70.54690862345024
 42
1.0
 10
377.402701893481
 20
70.7306123487817
 42
1.0
 10
377.3223963824428
 20
70.8579962333915
 42
1.0
 10
377.2817363226176
 20
71.04765881998475
 42
1.0
 10
377.230247031166
 20
71.2537528207344
 42
1.0
 10
377.1829100685462
 20
71.4155309841499
 42
1.0
 10
377.2425033836245
 20
71.62382104850498
 42
1.0
 10
377.3039833727904
 20
71.9869475999588
 42
1.0
 10
377.467753242062
 20
72.22016833149128
 42
1.0
 10
377.6027975120581
 20
72.4700737469807
 42
1.0
 10
377.6960520839551
 20
72.5406108621554
 42
1.0
 10
377.8890276393441
 20
72.65070693712804
 42
1.0
 10
378.0591312955551
 20
72.76118539811773
 42
1.0
 10
378.2008621447467
 20
72.8128677698771
 42
1.0
 10
378.4040601081251
 20
72.8586710393638
 42
1.0
 10
378.6147405218612
 20
72.91618520388992
 42
1.0
 10
378.7379017695641
 20
72.93216085178533
 42
1.0
 10
378.9317410290486
 20
72.87508665396459
 42
1.0
 10
379.1361896621862
 20
72.82588190440217
 42
1.0
 10
379.3003726231578
 20
72.78582091222083
 42
1.0
 10
379.4428589710997
 20
72.68101592733063
 42
1.0
 10
379.630532290395
 20
72.56029607176937
 42
1.0
 10
379.7458010893747
 20
72.47568152950294
 42
1.0
 10
379.8525307584582
 20
72.31023568913564
 42
1.0
 10
379.9758082172489
 20
72.13594518116712
 42
1.0
 10
380.0710074641341
 20
72.00564055179228
 42
1.0
 10
380.100344248415
 20
71.77361290074437
 42
1.0
 10
380.1754625033456
 20
71.43210848601242
 42
1.0
 10
380.162757147022
 20
71.05396842359991
 42
1.0
 10
380.16607521374
 20
70.64305372434838
 42
1.0
 10
380.1655083031915
 20
70.240844249259
 42
1.0
 10
380.1646329494217
 20
69.90396447017643
 42
1.0
 10
380.1665660287935
 20
69.66792104391466
 42
1.0
 10
380.1634272491959
 20
69.53394078969579
 42
1.0
 10
380.173075974496
 20
69.43081551121202
 42
1.0
 10
380.1368351579936
 20
69.33779973218421
 42
1.0
 10
380.2736204254009
 20
69.0992004965793
 42
1.0
 10
380.4498813864797
 20
69.07835121694595
 42
1.0
 10
380.4997510989497
 20
69.08325468706587
 42
1.0
 10
380.5922730885544
 20
69.07857143699897
 42
1.0
 10
380.6914389929813
 20
69.08937079705345
 42
1.0
 10
380.7897510713755
 20
69.05179325691584
 42
1.0
 10
381.026275994488
 20
69.19629330058808
 42
1.0
 10
381.0429082459692
 20
69.36833926498353
 42
1.0
 10
381.0391695687896
 20
69.41720692798023
 42
1.0
 10
381.0409890389818
 20
69.51036583035449
 42
1.0
 10
381.0402846196669
 20
69.64152261327135
 42
1.0
 10
381.0406556145671
 20
69.87935411031727
 42
1.0
 10
381.0409977548534
 20
70.21502492490711
 42
1.0
 10
381.0378598807156
 20
70.75294745814067
 42
1.0
 10
381.0574349259249
 20
71.29885770612927
 42
1.0
 10
381.0090265059154
 20
71.78054974493686
 42
1.0
 10
380.9340087928917
 20
72.06395514058536
 42
1.0
 10
380.9063046448011
 20
72.2519449180831
 42
1.0
 10
380.7657253517845
 20
72.49690775233356
 42
1.0
 10
380.6159015043963
 20
72.6934508038024
 42
1.0
 10
380.4879358206469
 20
72.9248942188669
 42
1.0
 10
380.2437485306529
 20
73.16525036707048
 42
1.0
 10
380.0121144303571
 20
73.30798390186538
 42
1.0
 10
379.8384488437346
 20
73.4585231694795
 42
1.0
 10
379.5047341061572
 20
73.63086888276
 42
1.0
 10
379.2600810979264
 20
73.67277771465656
 42
1.0
 10
378.9067138021497
 20
73.75306674525372
 42
1.0
 10
378.462657217208
 20
73.74865565220357
 42
1.0
 10
378.1063155619208
 20
73.66235664785539
 42
1.0
 10
377.8999105237322
 20
73.63072585226746
 42
1.0
 10
377.7127271910845
 20
73.54430404683889
 42
1.0
 10
377.5522032386611
 20
73.42381464133669
 42
1.0
 10
377.3517718598671
 20
73.28399184942286
 42
1.0
 10
377.1380000544207
 20
73.15388558491604
 42
1.0
 10
376.9459173080936
 20
72.96295500517033
 42
1.0
 10
376.8357445073515
 20
72.8303765702331
 42
1.0
 10
376.7400066100135
 20
72.6900830101169
 42
1.0
 10
376.7016743535979
 20
72.63030711242247
 42
1.0
 97
        0
 75
     0
 76
     1
 98
        1
 10
0.0
 20
0.0
  0
HATCH
  5
48
330
1F
100
AcDbEntity
  8
0
  6
Continuous
 62
     7
100
AcDbHatch
 10
0.0
 20
0.0
 30
0.0
210
0.0
220
0.0
230
1.0
  2
SOLID
 70
     1
 71
     0
 91
        1
 92
        0
 93
        1
 72
     4
 94
        3
 73
     1
 74
     0
 95
       77
 96
       73
 40
0.0
 40
0.0
 40
0.0
 40
0.0
 40
0.015625
 40
0.0234375
 40
0.03125
 40
0.0390625
 40
0.046875
 40
0.05078125
 40
0.0546875
 40
0.0625
 40
0.0703125
 40
0.078125
 40
0.0859375
 40
0.08984375
 40
0.09375
 40
0.1015625
 40
0.10546875
 40
0.109375
 40
0.1171875
 40
0.125
 40
0.140625
 40
0.15625
 40
0.1875
 40
0.203125
 40
0.21875
 40
0.234375
 40
0.25
 40
0.28125
 40
0.3125
 40
0.375
 40
0.40625
 40
0.421875
 40
0.4375
 40
0.453125
 40
0.46875
 40
0.484375
 40
0.5
 40
0.515625
 40
0.5234375
 40
0.53125
 40
0.5390625
 40
0.546875
 40
0.55078125
 40
0.5546875
 40
0.5625
 40
0.5703125
 40
0.578125
 40
0.5859375
 40
0.58984375
 40
0.59375
 40
0.6015625
 40
0.60546875
 40
0.609375
 40
0.6171875
 40
0.625
 40
0.640625
 40
0.65625
 40
0.6875
 40
0.703125
 40
0.71875
 40
0.734375
 40
0.75
 40
0.78125
 40
0.8125
 40
0.875
 40
0.90625
 40
0.921875
 40
0.9375
 40
0.953125
 40
0.96875
 40
0.984375
 40
1.0
 40
1.0
 40
1.0
 40
1.0
 10
383.2884245798355
 20
72.73158664734353
 42
1.0
 10
383.3260841435532
 20
72.75751438387026
 42
1.0
 10
383.4278656937287
 20
72.81603446560028
 42
1.0
 10
383.4819801455121
 20
72.84520812639263
 42
1.0
 10
383.5592797566457
 20
72.86737946389103
 42
1.0
 10
383.6446967509559
 20
72.88985726205303
 42
1.0
 10
383.7073206620612
 20
72.91410188733609
 42
1.0
 10
383.773897701325
 20
72.92011285287548
 42
1.0
 10
383.9308786736817
 20
73.04254497357205
 42
1.0
 10
383.9337460059526
 20
73.2029148384184
 42
1.0
 10
383.9336735440128
 20
73.27229397268756
 42
1.0
 10
383.93409487317
 20
73.3587588266079
 42
1.0
 10
383.9327508275959
 20
73.4409672765139
 42
1.0
 10
383.9354970632804
 20
73.47382060467942
 42
1.0
 10
383.9241992931987
 20
73.63725642797093
 42
1.0
 10
383.7435490113541
 20
73.75130020262921
 42
1.0
 10
383.6122605302031
 20
73.73085805749366
 42
1.0
 10
383.5732850913247
 20
73.7229016604914
 42
1.0
 10
383.4946647175791
 20
73.70938840766341
 42
1.0
 10
383.3857059218
 20
73.68731361163687
 42
1.0
 10
383.2428582110632
 20
73.67739307916749
 42
1.0
 10
382.9375738480662
 20
73.51324347779462
 42
1.0
 10
382.8155398718794
 20
73.41356927530246
 42
1.0
 10
382.5928647012568
 20
73.20080586675968
 42
1.0
 10
382.5046082072448
 20
73.06094768912968
 42
1.0
 10
382.3976685190104
 20
72.94672175094748
 42
1.0
 10
382.2535185551897
 20
72.63033960858766
 42
1.0
 10
382.2415064658528
 20
72.39116763153676
 42
1.0
 10
382.1777475631773
 20
71.8699268522043
 42
1.0
 10
382.2064988046953
 20
71.43455605759142
 42
1.0
 10
382.1993945037157
 20
71.04440493828893
 42
1.0
 10
382.2043854950156
 20
70.79430074749838
 42
1.0
 10
382.1901136536713
 20
70.69351769789628
 42
1.0
 10
382.1291448101908
 20
70.4976032236784
 42
1.0
 10
382.1052329919493
 20
70.3947691750468
 42
1.0
 10
381.9884886902454
 20
70.21537559536422
 42
1.0
 10
381.9660944082935
 20
70.17684933966135
 42
1.0
 10
381.7964584913333
 20
70.07931587011221
 42
1.0
 10
381.7423440395487
 20
70.05014220931777
 42
1.0
 10
381.6650444284167
 20
70.02797087181978
 42
1.0
 10
381.5796274341073
 20
70.00549307365806
 42
1.0
 10
381.5170035229969
 20
69.9812484483736
 42
1.0
 10
381.4504264837436
 20
69.9752374828371
 42
1.0
 10
381.293445511381
 20
69.85280536215049
 42
1.0
 10
381.2905781791043
 20
69.69243549729568
 42
1.0
 10
381.2906506410453
 20
69.62305636302564
 42
1.0
 10
381.2902293118881
 20
69.53659150910508
 42
1.0
 10
381.2915733574613
 20
69.45438305919977
 42
1.0
 10
381.2888271217788
 20
69.42152973103241
 42
1.0
 10
381.3001248918522
 20
69.25809390775456
 42
1.0
 10
381.480775173691
 20
69.14405013308092
 42
1.0
 10
381.6120636548526
 20
69.164492278215
 42
1.0
 10
381.6510390937298
 20
69.17244867521784
 42
1.0
 10
381.7296594674762
 20
69.18596192804556
 42
1.0
 10
381.8386182632554
 20
69.20803672407227
 42
1.0
 10
381.981465973991
 20
69.21795725654131
 42
1.0
 10
382.2867503369902
 20
69.38210685791255
 42
1.0
 10
382.4087843131761
 20
69.48178106040595
 42
1.0
 10
382.6314594837998
 20
69.69454446894788
 42
1.0
 10
382.719715977812
 20
69.83440264657862
 42
1.0
 10
382.8266556660463
 20
69.94862858476078
 42
1.0
 10
382.9708056298683
 20
70.26501072712036
 42
1.0
 10
382.9828177192049
 20
70.50418270417246
 42
1.0
 10
383.0465766218807
 20
71.02542348350553
 42
1.0
 10
383.0178253803625
 20
71.46079427811934
 42
1.0
 10
383.0249296813424
 20
71.8509453974226
 42
1.0
 10
383.0199386900421
 20
72.1010495882135
 42
1.0
 10
383.0342105313874
 20
72.20183263781561
 42
1.0
 10
383.0951793748678
 20
72.3977471120345
 42
1.0
 10
383.1190911931099
 20
72.50058116066432
 42
1.0
 10
383.2358354948141
 20
72.67997474034985
 42
1.0
 10
383.2507650161177
 20
72.70565891081678
 42
1.0
 10
383.2884245798355
 20
72.73158664734353
 42
1.0
 97
        0
 75
     0
 76
     1
 98
        1
 10
0.0
 20
0.0
  0
HATCH
  5
49
330
1F
100
AcDbEntity
  8
0
  6
Continuous
 62
     7
100
AcDbHatch
 10
0.0
 20
0.0
 30
0.0
210
0.0
220
0.0
230
1.0
  2
SOLID
 70
     1
 71
     0
 91
        1
 92
        0
 93
        1
 72
     4
 94
        3
 73
     1
 74
     0
 95
      101
 96
       97
 40
0.0
 40
0.0
 40
0.0
 40
0.0
 40
0.0078125
 40
0.015625
 40
0.0234375
 40
0.03125
 40
0.0390625
 40
0.046875
 40
0.0546875
 40
0.0625
 40
0.078125
 40
0.09375
 40
0.109375
 40
0.1171875
 40
0.12109375
 40
0.125
 40
0.12890625
 40
0.1328125
 40
0.13671875
 40
0.140625
 40
0.1484375
 40
0.15234375
 40
0.15625
 40
0.16015625
 40
0.1640625
 40
0.16796875
 40
0.171875
 40
0.1796875
 40
0.1875
 40
0.203125
 40
0.21875
 40
0.25
 40
0.28125
 40
0.3125
 40
0.375
 40
0.40625
 40
0.4375
 40
0.453125
 40
0.46875
 40
0.484375
 40
0.5
 40
0.515625
 40
0.53125
 40
0.546875
 40
0.5625
 40
0.578125
 40
0.5859375
 40
0.59375
 40
0.6015625
 40
0.60546875
 40
0.607421875
 40
0.609375
 40
0.61328125
 40
0.6171875
 40
0.62109375
 40
0.625
 40
0.62890625
 40
0.6328125
 40
0.63671875
 40
0.640625
 40
0.642578125
 40
0.64453125
 40
0.6484375
 40
0.65234375
 40
0.65625
 40
0.6640625
 40
0.671875
 40
0.6875
 40
0.703125
 40
0.71875
 40
0.734375
 40
0.75
 40
0.765625
 40
0.78125
 40
0.796875
 40
0.8125
 40
0.84375
 40
0.875
 40
0.890625
 40
0.8984375
 40
0.90625
 40
0.9140625
 40
0.921875
 40
0.9375
 40
0.9453125
 40
0.953125
 40
0.95703125
 40
0.9609375
 40
0.96484375
 40
0.96875
 40
0.9765625
 40
0.98046875
 40
0.984375
 40
0.98828125
 40
0.9921875
 40
1.0
 40
1.0
 40
1.0
 40
1.0
 10
385.786665998779
 20
73.74260485535477
 42
1.0
 10
385.7407797837616
 20
73.74261946093452
 42
1.0
 10
385.6594623874078
 20
73.74253935053207
 42
1.0
 10
385.5268861827437
 20
73.74281221386467
 42
1.0
 10
385.4053453175707
 20
73.7418409261379
 42
1.0
 10
385.2502632045665
 20
73.74545321371242
 42
1.0
 10
385.2194027704437
 20
73.73199452068805
 42
1.0
 10
385.1750841057616
 20
73.81154102628949
 42
1.0
 10
385.1440510337682
 20
73.94851011301381
 42
1.0
 10
385.1505898744642
 20
74.10320413191022
 42
1.0
 10
385.1473360989155
 20
74.32683257240691
 42
1.0
 10
385.1485750299375
 20
74.58112295314973
 42
1.0
 10
385.1476990354128
 20
74.79956287411113
 42
1.0
 10
385.1488432925508
 20
74.9449080407509
 42
1.0
 10
385.1470569077907
 20
75.03896780292789
 42
1.0
 10
385.15253572765
 20
75.07865727456443
 42
1.0
 10
385.1318285127114
 20
75.24192874700228
 42
1.0
 10
384.9816244119628
 20
75.35444166418122
 42
1.0
 10
384.8672914023347
 20
75.3487331494384
 42
1.0
 10
384.7995682752631
 20
75.35084544377916
 42
1.0
 10
384.6946128421239
 20
75.34853256004988
 42
1.0
 10
384.6378136628629
 20
75.35220247503236
 42
1.0
 10
384.4877707493416
 20
75.3414308914812
 42
1.0
 10
384.3630946753717
 20
75.20256789122293
 42
1.0
 10
384.3621898781268
 20
75.0715074031614
 42
1.0
 10
384.3624308672945
 20
75.02475434247799
 42
1.0
 10
384.3623519880599
 20
74.93297013129711
 42
1.0
 10
384.362390408922
 20
74.82832227589819
 42
1.0
 10
384.3623753511567
 20
74.65525188623864
 42
1.0
 10
384.3623824329133
 20
74.44083792251507
 42
1.0
 10
384.3623810406486
 20
74.0967294731544
 42
1.0
 10
384.3623711075295
 20
73.66674362357243
 42
1.0
 10
384.3624175977827
 20
73.15161114700783
 42
1.0
 10
384.3621855427564
 20
72.45991223008811
 42
1.0
 10
384.3636009199216
 20
71.79564591630223
 42
1.0
 10
384.3602945320349
 20
71.05272350424002
 42
1.0
 10
384.4577234904161
 20
70.66184823846498
 42
1.0
 10
384.566336162104
 20
70.26667300800915
 42
1.0
 10
384.7186221238757
 20
70.04832490454227
 42
1.0
 10
384.8189500801321
 20
69.83279324173697
 42
1.0
 10
385.0501323099559
 20
69.56963903905368
 42
1.0
 10
385.2717254540994
 20
69.45372674781746
 42
1.0
 10
385.4644244226057
 20
69.29881069693825
 42
1.0
 10
385.7731348792042
 20
69.16968886289509
 42
1.0
 10
386.0161619604124
 20
69.13588926936968
 42
1.0
 10
386.2331941141233
 20
69.09456697488746
 42
1.0
 10
386.3930045176467
 20
69.05061688305274
 42
1.0
 10
386.583265001787
 20
69.05636061286492
 42
1.0
 10
386.6767617223709
 20
69.07275541441244
 42
1.0
 10
386.7495345766687
 20
69.08665574165644
 42
1.0
 10
386.7975928874599
 20
69.08690638027409
 42
1.0
 10
386.9292632831026
 20
69.1479138657001
 42
1.0
 10
386.9685514307762
 20
69.2888397596475
 42
1.0
 10
386.9702022403556
 20
69.37721648893977
 42
1.0
 10
386.969737162975
 20
69.43528040705945
 42
1.0
 10
386.9699466629177
 20
69.5015588944698
 42
1.0
 10
386.9695737405275
 20
69.5652919158902
 42
1.0
 10
386.9708559301459
 20
69.6309922319796
 42
1.0
 10
386.9661000940625
 20
69.69136883538296
 42
1.0
 10
386.9696251538298
 20
69.83970183182056
 42
1.0
 10
386.7610524267341
 20
69.93378327966285
 42
1.0
 10
386.6917078636892
 20
69.89163730990094
 42
1.0
 10
386.6534094773948
 20
69.89162286587391
 42
1.0
 10
386.5885874176296
 20
69.86968576324516
 42
1.0
 10
386.4995503737147
 20
69.84498329321309
 42
1.0
 10
386.4554709620211
 20
69.83494924260783
 42
1.0
 10
386.283130383489
 20
69.86827004555258
 42
1.0
 10
386.0528901349744
 20
69.90684529041263
 42
1.0
 10
385.8879484584804
 20
69.94732350296096
 42
1.0
 10
385.6617841612007
 20
70.13710283209005
 42
1.0
 10
385.5078183492786
 20
70.25288362776637
 42
1.0
 10
385.3691528212948
 20
70.49528168439619
 42
1.0
 10
385.2318232046076
 20
70.67015220445455
 42
1.0
 10
385.2043000730273
 20
70.91435889354602
 42
1.0
 10
385.1416060209876
 20
71.15731170911128
 42
1.0
 10
385.1520934303053
 20
71.48002230429871
 42
1.0
 10
385.1460291602481
 20
71.91765255691348
 42
1.0
 10
385.150785801595
 20
72.35456323322707
 42
1.0
 10
385.1448130087823
 20
72.63794241083774
 42
1.0
 10
385.1583620071887
 20
72.82858806134578
 42
1.0
 10
385.2220570942064
 20
72.97811411494992
 42
1.0
 10
385.1983596286857
 20
72.94860433615906
 42
1.0
 10
385.390506149529
 20
72.96166932249326
 42
1.0
 10
385.5534891336423
 20
72.95540566216873
 42
1.0
 10
385.7277069308802
 20
72.95799982664585
 42
1.0
 10
385.8328089686177
 20
72.95358382298889
 42
1.0
 10
385.9680705063565
 20
72.97096621471484
 42
1.0
 10
386.1281239027748
 20
73.02613380979528
 42
1.0
 10
386.1751679173773
 20
73.20620243693301
 42
1.0
 10
386.1606578388228
 20
73.26817080501402
 42
1.0
 10
386.1688560690779
 20
73.3622607930278
 42
1.0
 10
386.1628705719947
 20
73.45197834409417
 42
1.0
 10
386.1782243223877
 20
73.50026219830325
 42
1.0
 10
386.1141245170671
 20
73.6859774786791
 42
1.0
 10
385.9092228115831
 20
73.742486350234
 42
1.0
 10
385.8325522137963
 20
73.74259024977505
 42
1.0
 10
385.786665998779
 20
73.74260485535477
 42
1.0
 97
        0
 75
     0
 76
     1
 98
        1
 10
0.0
 20
0.0
  0
HATCH
  5
4A
330
1F
100
AcDbEntity
  8
0
  6
Continuous
 62
     7
100
AcDbHatch
 10
0.0
 20
0.0
 30
0.0
210
0.0
220
0.0
230
1.0
  2
SOLID
 70
     1
 71
     0
 91
        1
 92
        0
 93
        5
 72
     1
 10
367.2710386117698
 20
78.69239335208347
 11
367.6186636117698
 21
78.69239335208347
 72
     1
 10
367.6186636117698
 20
78.69239335208347
 11
367.9229057992698
 21
78.69239335208347
 72
     1
 10
367.9229057992698
 20
78.69239335208347
 11
367.9229057992698
 21
78.30131522708348
 72
     1
 10
367.9229057992698
 20
78.30131522708348
 11
367.2710386117698
 21
78.30131522708348
 72
     1
 10
367.2710386117698
 20
78.30131522708348
 11
367.2710386117698
 21
78.69239335208347
 97
        0
 75
     0
 76
     1
 98
        1
 10
0.0
 20
0.0
  0
HATCH
  5
4B
330
1F
100
AcDbEntity
  8
0
  6
Continuous
 62
     7
100
AcDbHatch
 10
0.0
 20
0.0
 30
0.0
210
0.0
220
0.0
230
1.0
  2
SOLID
 70
     1
 71
     0
 91
        1
 92
        0
 93
        8
 72
     1
 10
367.8794526742697
 20
81.21281522708348
 11
367.9663589242697
 21
81.16936210208348
 72
     1
 10
367.9663589242697
 20
81.16936210208348
 11
368.0532651742697
 21
81.21281522708348
 72
     1
 10
368.0532651742697
 20
81.21281522708348
 11
368.0532651742697
 21
81.29972147708348
 72
     1
 10
368.0532651742697
 20
81.29972147708348
 11
368.0532651742697
 21
81.38662772708348
 72
     1
 10
368.0532651742697
 20
81.38662772708348
 11
367.9663589242697
 21
81.43008085208348
 72
     1
 10
367.9663589242697
 20
81.43008085208348
 11
367.8794526742697
 21
81.38662772708348
 72
     1
 10
367.8794526742697
 20
81.38662772708348
 11
367.8359995492697
 21
81.29972147708348
 72
     1
 10
367.8359995492697
 20
81.29972147708348
 11
367.8794526742697
 21
81.21281522708348
 97
        0
 75
     0
 76
     1
 98
        1
 10
0.0
 20
0.0
  0
HATCH
  5
4C
330
1F
100
AcDbEntity
  8
0
  6
Continuous
 62
     7
100
AcDbHatch
 10
0.0
 20
0.0
 30
0.0
210
0.0
220
0.0
230
1.0
  2
SOLID
 70
     1
 71
     0
 91
        1
 92
        0
 93
        8
 72
     1
 10
367.8794526742697
 20
80.77828397708346
 11
367.9663589242697
 21
80.73483085208346
 72
     1
 10
367.9663589242697
 20
80.73483085208346
 11
368.0532651742697
 21
80.77828397708346
 72
     1
 10
368.0532651742697
 20
80.77828397708346
 11
368.0532651742697
 21
80.86519022708346
 72
     1
 10
368.0532651742697
 20
80.86519022708346
 11
368.0532651742697
 21
80.95209647708346
 72
     1
 10
368.0532651742697
 20
80.95209647708346
 11
367.9663589242697
 21
80.99554960208347
 72
     1
 10
367.9663589242697
 20
80.99554960208347
 11
367.8794526742697
 21
80.95209647708346
 72
     1
 10
367.8794526742697
 20
80.95209647708346
 11
367.8359995492697
 21
80.86519022708346
 72
     1
 10
367.8359995492697
 20
80.86519022708346
 11
367.8794526742697
 21
80.77828397708346
 97
        0
 75
     0
 76
     1
 98
        1
 10
0.0
 20
0.0
  0
HATCH
  5
4D
330
1F
100
AcDbEntity
  8
0
  6
Continuous
 62
     7
100
AcDbHatch
 10
0.0
 20
0.0
 30
0.0
210
0.0
220
0.0
230
1.0
  2
SOLID
 70
     1
 71
     0
 91
        1
 92
        0
 93
        8
 72
     1
 10
367.8794526742697
 20
80.3437527270835
 11
367.9663589242697
 21
80.30022928958348
 72
     1
 10
367.9663589242697
 20
80.30022928958348
 11
368.0532651742697
 21
80.3437527270835
 72
     1
 10
368.0532651742697
 20
80.3437527270835
 11
368.0532651742697
 21
80.43065897708348
 72
     1
 10
368.0532651742697
 20
80.43065897708348
 11
368.0532651742697
 21
80.5175652270835
 72
     1
 10
368.0532651742697
 20
80.5175652270835
 11
367.9663589242697
 21
80.5175652270835
 72
     1
 10
367.9663589242697
 20
80.5175652270835
 11
367.8794526742697
 21
80.5175652270835
 72
     1
 10
367.8794526742697
 20
80.5175652270835
 11
367.8359995492697
 21
80.43065897708348
 72
     1
 10
367.8359995492697
 20
80.43065897708348
 11
367.8794526742697
 21
80.3437527270835
 97
        0
 75
     0
 76
     1
 98
        1
 10
0.0
 20
0.0
  0
HATCH
  5
4E
330
1F
100
AcDbEntity
  8
0
  6
Continuous
 62
     7
100
AcDbHatch
 10
0.0
 20
0.0
 30
0.0
210
0.0
220
0.0
230
1.0
  2
SOLID
 70
     1
 71
     0
 91
        1
 92
        0
 93
        8
 72
     1
 10
367.8794526742697
 20
79.86569803958348
 11
367.9663589242697
 21
79.82224491458348
 72
     1
 10
367.9663589242697
 20
79.82224491458348
 11
368.0532651742697
 21
79.86569803958348
 72
     1
 10
368.0532651742697
 20
79.86569803958348
 11
368.0532651742697
 21
79.95260428958348
 72
     1
 10
368.0532651742697
 20
79.95260428958348
 11
368.0532651742697
 21
80.03951053958349
 72
     1
 10
368.0532651742697
 20
80.03951053958349
 11
367.9663589242697
 21
80.08296366458347
 72
     1
 10
367.9663589242697
 20
80.08296366458347
 11
367.8794526742697
 21
80.03951053958349
 72
     1
 10
367.8794526742697
 20
80.03951053958349
 11
367.8359995492697
 21
79.95260428958348
 72
     1
 10
367.8359995492697
 20
79.95260428958348
 11
367.8794526742697
 21
79.86569803958348
 97
        0
 75
     0
 76
     1
 98
        1
 10
0.0
 20
0.0
  0
HATCH
  5
4F
330
1F
100
AcDbEntity
  8
0
  6
Continuous
 62
     7
100
AcDbHatch
 10
0.0
 20
0.0
 30
0.0
210
0.0
220
0.0
230
1.0
  2
SOLID
 70
     1
 71
     0
 91
        1
 92
        0
 93
        8
 72
     1
 10
367.8794526742697
 20
79.43116678958349
 11
367.9663589242697
 21
79.38771366458347
 72
     1
 10
367.9663589242697
 20
79.38771366458347
 11
368.0532651742697
 21
79.43116678958349
 72
     1
 10
368.0532651742697
 20
79.43116678958349
 11
368.0532651742697
 21
79.51807303958347
 72
     1
 10
368.0532651742697
 20
79.51807303958347
 11
368.0532651742697
 21
79.60497928958347
 72
     1
 10
368.0532651742697
 20
79.60497928958347
 11
367.9663589242697
 21
79.64843241458347
 72
     1
 10
367.9663589242697
 20
79.64843241458347
 11
367.8794526742697
 21
79.60497928958347
 72
     1
 10
367.8794526742697
 20
79.60497928958347
 11
367.8359995492697
 21
79.51807303958347
 72
     1
 10
367.8359995492697
 20
79.51807303958347
 11
367.8794526742697
 21
79.43116678958349
 97
        0
 75
     0
 76
     1
 98
        1
 10
0.0
 20
0.0
  0
HATCH
  5
50
330
1F
100
AcDbEntity
  8
0
  6
Continuous
 62
     7
100
AcDbHatch
 10
0.0
 20
0.0
 30
0.0
210
0.0
220
0.0
230
1.0
  2
SOLID
 70
     1
 71
     0
 91
        1
 92
        0
 93
        8
 72
     1
 10
367.8794526742697
 20
78.99663553958348
 11
367.9663589242697
 21
78.9531824145835
 72
     1
 10
367.9663589242697
 20
78.9531824145835
 11
368.0532651742697
 21
78.99663553958348
 72
     1
 10
368.0532651742697
 20
78.99663553958348
 11
368.0532651742697
 21
79.04008866458348
 72
     1
 10
368.0532651742697
 20
79.04008866458348
 11
368.0532651742697
 21
79.17044803958349
 72
     1
 10
368.0532651742697
 20
79.17044803958349
 11
367.9663589242697
 21
79.17044803958349
 72
     1
 10
367.9663589242697
 20
79.17044803958349
 11
367.8794526742697
 21
79.17044803958349
 72
     1
 10
367.8794526742697
 20
79.17044803958349
 11
367.8359995492697
 21
79.04008866458348
 72
     1
 10
367.8359995492697
 20
79.04008866458348
 11
367.8794526742697
 21
78.99663553958348
 97
        0
 75
     0
 76
     1
 98
        1
 10
0.0
 20
0.0
  0
HATCH
  5
51
330
1F
100
AcDbEntity
  8
0
  6
Continuous
 62
     7
100
AcDbHatch
 10
0.0
 20
0.0
 30
0.0
210
0.0
220
0.0
230
1.0
  2
SOLID
 70
     1
 71
     0
 91
        1
 92
        0
 93
       20
 72
     2
 10
372.9726496310151
 20
73.38373746867993
 40
0.1171874999999898
 50
224.246602882031
 51
315.7533971179462
 73
     1
 72
     2
 10
374.2630746556458
 20
72.12681017337941
 40
1.68421833152844
 50
224.2466028820469
 51
360.0000000000018
 73
     0
 72
     1
 10
375.9472929871743
 20
72.12681017337938
 11
375.9472929871743
 21
69.2330603269743
 72
     2
 10
375.7329804871743
 20
69.2330603269743
 40
0.2143124999999871
 50
0.0
 51
90.0
 73
     0
 72
     1
 10
375.7329804871743
 20
69.0187478269743
 11
375.3434077417357
 21
69.01874782697429
 72
     2
 10
375.3434077417357
 20
69.2330603269743
 40
0.2143125000000148
 50
90.0
 51
180.0
 73
     0
 72
     1
 10
375.1290952417356
 20
69.2330603269743
 11
375.1290952417356
 21
72.12681017337941
 72
     2
 10
374.2630746556458
 20
72.12681017337941
 40
0.8660205860898385
 50
0.0
 51
180.0
 73
     1
 72
     1
 10
373.397054069556
 20
72.12681017337941
 11
373.397054069556
 21
69.2330603269743
 72
     2
 10
373.182741569556
 20
69.2330603269743
 40
0.2143124999999871
 50
0.0
 51
90.0
 73
     0
 72
     1
 10
373.182741569556
 20
69.0187478269743
 11
372.7625576924742
 21
69.01874782697435
 72
     2
 10
372.7625576924742
 20
69.2330603269743
 40
0.2143124999999593
 50
90.0
 51
180.0
 73
     0
 72
     1
 10
372.5482451924743
 20
69.2330603269743
 11
372.5482451924743
 21
72.12681017337941
 72
     2
 10
371.6822246063845
 20
72.12681017337941
 40
0.8660205860898662
 50
0.0
 51
180.0000000000027
 73
     1
 72
     1
 10
370.8162040202946
 20
72.12681017337938
 11
370.8162040202946
 21
69.2330603269743
 72
     2
 10
370.6018915202945
 20
69.2330603269743
 40
0.2143125000000148
 50
0.0
 51
90.0
 73
     0
 72
     1
 10
370.6018915202945
 20
69.0187478269743
 11
370.212318774856
 21
69.01874782697429
 72
     2
 10
370.212318774856
 20
69.2330603269743
 40
0.2143125000000148
 50
90.0
 51
180.0
 73
     0
 72
     1
 10
369.998006274856
 20
69.2330603269743
 11
369.998006274856
 21
72.12681017337941
 72
     2
 10
371.6822246063845
 20
72.12681017337941
 40
1.68421833152842
 50
180.0
 51
315.753397117953
 73
     0
 97
        0
 75
     0
 76
     1
 98
        1
 10
0.0
 20
0.0
  0
HATCH
  5
52
330
1F
100
AcDbEntity
  8
0
  6
Continuous
 62
     7
100
AcDbHatch
 10
0.0
 20
0.0
 30
0.0
210
0.0
220
0.0
230
1.0
  2
SOLID
 70
     1
 71
     0
 91
        2
 92
        0
 93
        8
 72
     2
 10
390.9529280223141
 20
70.18547016162378
 40
0.276820312500029
 50
320.2566898755223
 51
404.9999999999987
 73
     1
 72
     1
 10
391.148669542453
 20
70.38121168176271
 11
390.9389693222757
 21
70.55832095975555
 72
     2
 10
390.7432278021376
 20
70.36257943961613
 40
0.2768203124997717
 50
45.00000000018719
 51
141.0437047277406
 73
     1
 72
     2
 10
389.3469664682468
 20
71.49148719535185
 40
1.518723736939583
 50
38.9562952721822
 51
114.6555695976058
 73
     0
 72
     2
 10
388.7189996647323
 20
70.12339592969037
 40
0.013394531251565
 50
114.6555695976094
 51
235.6255624188343
 73
     0
 72
     4
 94
        3
 73
     1
 74
     0
 95
        8
 96
        4
 40
0.8183306740961991
 40
0.8183306740961991
 40
0.8183306740961991
 40
0.8183306740961991
 40
0.9951627235560577
 40
0.9951627235560577
 40
0.9951627235560577
 40
0.9951627235560577
 10
388.7114371281376
 20
70.13445131334242
 42
1.0
 10
389.6248253468821
 20
70.75926290259564
 42
1.0
 10
390.538213565627
 20
71.3840744918487
 42
1.0
 10
391.4516017843716
 20
72.00888608110178
 42
1.0
 72
     2
 10
391.295309361463
 20
72.2373640098389
 40
0.2768203124386534
 50
304.3744375813786
 51
380.7969840990539
 73
     1
 72
     2
 10
389.3663190793154
 20
71.50472552647021
 40
2.340254986939578
 50
20.79698409905037
 51
320.2566898755214
 73
     1
 97
        0
 92
        0
 93
        1
 72
     4
 94
        3
 73
     1
 74
     0
 95
       10
 96
        6
 40
0.0
 40
0.0
 40
0.0
 40
0.0
 40
0.5
 40
0.5
 40
1.0
 40
1.0
 40
1.0
 40
1.0
 10
388.1898742407147
 20
70.72827193299536
 42
1.0
 10
387.2630757384028
 20
70.11658492147114
 42
1.0
 10
389.545809231151
 20
73.51648252089875
 42
1.0
 10
391.3545448059184
 20
71.86017085181885
 42
1.0
 10
389.1166727430265
 20
71.33995894451958
 42
1.0
 10
388.1898742407147
 20
70.72827193299536
 42
1.0
 97
        0
 75
     0
 76
     1
 98
        1
 10
0.0
 20
0.0
  0
LINE
  5
53
330
1F
100
AcDbEntity
  8
FORMATE
100
AcDbLine
 10
325.9494346559
 20
62.5741987663
 30
0.0
 11
410.647432693
 21
62.5741987663
 31
0.0
  0
LINE
  5
54
330
1F
100
AcDbEntity
  8
FORMATE
100
AcDbLine
 10
325.9494346559
 20
42.5741987663
 30
0.0
 11
410.647432693
 21
42.5741987663
 31
0.0
  0
LINE
  5
55
330
1F
100
AcDbEntity
  8
FORMATE
100
AcDbLine
 10
325.9494346559
 20
17.9671985561
 30
0.0
 11
410.647432693
 21
17.9671985561
 31
0.0
  0
LINE
  5
56
330
1F
100
AcDbEntity
  8
FORMATE
100
AcDbLine
 10
325.9494346559
 20
104.9599816969
 30
0.0
 11
410.647432693
 21
104.9599816969
 31
0.0
  0
LINE
  5
57
330
1F
100
AcDbEntity
  8
FORMATE
100
AcDbLine
 10
325.9494346559
 20
117.5741987663
 30
0.0
 11
410.647432693
 21
117.5741987663
 31
0.0
  0
LINE
  5
58
330
1F
100
AcDbEntity
  8
FORMATE
100
AcDbLine
 10
325.9494346559
 20
125.9075320997
 30
0.0
 11
410.647432693
 21
125.9075320997
 31
0.0
  0
LINE
  5
59
330
1F
100
AcDbEntity
  8
FORMATE
100
AcDbLine
 10
325.9494346559
 20
136.5741987663
 30
0.0
 11
410.647432693
 21
136.5741987663
 31
0.0
  0
LINE
  5
5A
330
1F
100
AcDbEntity
  8
FORMATE
100
AcDbLine
 10
325.9494346559
 20
267.1180725605
 30
0.0
 11
410.647432693
 21
267.1180725605
 31
0.0
  0
LINE
  5
5B
330
1F
100
AcDbEntity
  8
FORMATE
100
AcDbLine
 10
364.8533744889
 20
152.6756192657
 30
0.0
 11
364.8533744889
 21
136.5741987663
 31
0.0
  0
LINE
  5
5C
330
1F
100
AcDbEntity
  8
ALLEN
370
    30
100
AcDbLine
 10
393.5756212148
 20
75.6254358271
 30
0.0
 11
393.6757469265
 21
75.1177767304
 31
0.0
  0
LINE
  5
5D
330
1F
100
AcDbEntity
  8
ALLEN
370
    30
100
AcDbLine
 10
394.0329344265
 20
75.2037387273
 30
0.0
 11
393.9308249799
 21
75.7214557908
 31
0.0
  0
LINE
  5
5E
330
1F
100
AcDbEntity
  8
ALLEN
370
    30
100
AcDbLine
 10
375.1290952417
 20
72.1268101734
 30
0.0
 11
375.1290952417
 21
69.233060327
 31
0.0
  0
LINE
  5
5F
330
1F
100
AcDbEntity
  8
ALLEN
370
    30
100
AcDbLine
 10
375.3434077417
 20
69.018747827
 30
0.0
 11
375.7329804872
 21
69.018747827
 31
0.0
  0
LINE
  5
60
330
1F
100
AcDbEntity
  8
ALLEN
370
    30
100
AcDbLine
 10
375.9472929872
 20
72.1268101734
 30
0.0
 11
375.9472929872
 21
69.233060327
 31
0.0
  0
LINE
  5
61
330
1F
100
AcDbEntity
  8
ALLEN
  6
CENTERX2
370
    30
100
AcDbLine
 10
390.9389693223
 20
70.5583209598
 30
0.0
 11
391.1486695425
 21
70.3812116818
 31
0.0
  0
LINE
  5
62
330
1F
100
AcDbEntity
  8
FORMATE
100
AcDbLine
 10
325.9494346559
 20
279.4697448831
 30
0.0
 11
30.7659626559
 21
279.4697448831
 31
0.0
  0
LINE
  5
63
330
1F
100
AcDbEntity
  8
FORMATE
100
AcDbLine
 10
129.0992959892
 20
279.4697448831
 30
0.0
 11
129.0992959892
 21
285.9553836553
 31
0.0
  0
LINE
  5
64
330
1F
100
AcDbEntity
  8
FORMATE
100
AcDbLine
 10
227.4326293225
 20
279.4697448831
 30
0.0
 11
227.4326293225
 21
285.9553836553
 31
0.0
  0
LINE
  5
65
330
1F
100
AcDbEntity
  8
FORMATE
100
AcDbLine
 10
10.7659626559
 20
285.9553836553
 30
0.0
 11
10.7659626559
 21
290.9553836553
 31
0.0
  0
LINE
  5
66
330
1F
100
AcDbEntity
  8
FORMATE
100
AcDbLine
 10
325.9494346559
 20
231.1180725605
 30
0.0
 11
410.647432693
 21
231.1180725605
 31
0.0
  0
LINE
  5
67
330
1F
100
AcDbEntity
  8
FORMATE
100
AcDbLine
 10
50.2659626559
 20
285.9553836553
 30
0.0
 11
50.2659626559
 21
290.9553836553
 31
0.0
  0
LINE
  5
68
330
1F
100
AcDbEntity
  8
FORMATE
100
AcDbLine
 10
89.7659626559
 20
285.9553836553
 30
0.0
 11
89.7659626559
 21
290.9553836553
 31
0.0
  0
LINE
  5
69
330
1F
100
AcDbEntity
  8
FORMATE
100
AcDbLine
 10
129.2659626559
 20
285.9553836553
 30
0.0
 11
129.2659626559
 21
290.9553836553
 31
0.0
  0
LINE
  5
6A
330
1F
100
AcDbEntity
  8
FORMATE
100
AcDbLine
 10
168.7659626559
 20
285.9553836553
 30
0.0
 11
168.7659626559
 21
290.9553836553
 31
0.0
  0
LINE
  5
6B
330
1F
100
AcDbEntity
  8
FORMATE
100
AcDbLine
 10
208.2659626559
 20
285.9553836553
 30
0.0
 11
208.2659626559
 21
290.9553836553
 31
0.0
  0
LINE
  5
6C
330
1F
100
AcDbEntity
  8
FORMATE
100
AcDbLine
 10
247.7659626559
 20
285.9553836553
 30
0.0
 11
247.7659626559
 21
290.9553836553
 31
0.0
  0
LINE
  5
6D
330
1F
100
AcDbEntity
  8
FORMATE
100
AcDbLine
 10
287.2659626559
 20
285.9553836553
 30
0.0
 11
287.2659626559
 21
290.9553836553
 31
0.0
  0
LINE
  5
6E
330
1F
100
AcDbEntity
  8
FORMATE
100
AcDbLine
 10
325.9494346559
 20
285.9553836553
 30
0.0
 11
325.9494346559
 21
290.9553836553
 31
0.0
  0
LINE
  5
6F
330
1F
100
AcDbEntity
  8
FORMATE
100
AcDbLine
 10
366.2659626559
 20
285.9553836553
 30
0.0
 11
366.2659626559
 21
290.9553836553
 31
0.0
  0
LINE
  5
70
330
1F
100
AcDbEntity
  8
FORMATE
100
AcDbLine
 10
410.647432693
 20
17.9671985561
 30
0.0
 11
410.647432693
 21
8.1009363447
 31
0.0
  0
LINE
  5
71
330
1F
100
AcDbEntity
  8
FORMATE
100
AcDbLine
 10
10.7659626559
 20
285.9553836553
 30
0.0
 11
5.7659626559
 21
285.9553836553
 31
0.0
  0
LINE
  5
72
330
1F
100
AcDbEntity
  8
FORMATE
100
AcDbLine
 10
10.7659626559
 20
246.2410979453
 30
0.0
 11
5.7659626559
 21
246.2410979453
 31
0.0
  0
LINE
  5
73
330
1F
100
AcDbEntity
  8
FORMATE
100
AcDbLine
 10
10.7659626559
 20
206.5268122353
 30
0.0
 11
5.7659626559
 21
206.5268122353
 31
0.0
  0
LINE
  5
74
330
1F
100
AcDbEntity
  8
FORMATE
100
AcDbLine
 10
10.7659626559
 20
166.8125265253
 30
0.0
 11
5.7659626559
 21
166.8125265253
 31
0.0
  0
LINE
  5
75
330
1F
100
AcDbEntity
  8
FORMATE
100
AcDbLine
 10
10.7659626559
 20
127.0982408153
 30
0.0
 11
5.7659626559
 21
127.0982408153
 31
0.0
  0
LINE
  5
76
330
1F
100
AcDbEntity
  8
FORMATE
100
AcDbLine
 10
10.7659626559
 20
87.3839551053
 30
0.0
 11
5.7659626559
 21
87.3839551053
 31
0.0
  0
LINE
  5
77
330
1F
100
AcDbEntity
  8
FORMATE
100
AcDbLine
 10
10.7659626559
 20
47.6696693953
 30
0.0
 11
5.7659626559
 21
47.6696693953
 31
0.0
  0
LINE
  5
78
330
1F
100
AcDbEntity
  8
FORMATE
100
AcDbLine
 10
410.647432693
 20
8.1009363447
 30
0.0
 11
5.7659626559
 21
8.1009363447
 31
0.0
  0
LINE
  5
79
330
1F
100
AcDbEntity
  8
FORMATE
100
AcDbLine
 10
410.647432693
 20
17.9577771779
 30
0.0
 11
410.647432693
 21
290.9553836553
 31
0.0
  0
LINE
  5
7A
330
1F
100
AcDbEntity
  8
FORMATE
100
AcDbLine
 10
30.7659626559
 20
285.9553836553
 30
0.0
 11
30.7659626559
 21
217.988400957
 31
0.0
  0
LINE
  5
7B
330
1F
100
AcDbEntity
  8
FORMATE
100
AcDbLine
 10
326.0227332218
 20
8.5396517478
 30
0.0
 11
326.0227332218
 21
286.3940990583
 31
0.0
  0
LINE
  5
7C
330
1F
100
AcDbEntity
  8
FORMATE
100
AcDbLine
 10
383.536068329
 20
62.5741987663
 30
0.0
 11
383.536068329
 21
32.5741987663
 31
0.0
  0
LINE
  5
7D
330
1F
100
AcDbEntity
  8
FORMATE
100
AcDbLine
 10
10.7659626559
 20
8.1009363447
 30
0.0
 11
10.7659626559
 21
285.9553836553
 31
0.0
  0
LINE
  5
7E
330
1F
100
AcDbEntity
  8
FORMATE
100
AcDbLine
 10
10.7659626559
 20
285.9553836553
 30
0.0
 11
410.647432693
 21
285.9553836553
 31
0.0
  0
LINE
  5
7F
330
1F
100
AcDbEntity
  8
FORMATE
100
AcDbLine
 10
30.7659626559
 20
217.988400957
 30
0.0
 11
10.7659626559
 21
217.988385163
 31
0.0
  0
LINE
  5
80
330
1F
100
AcDbEntity
  8
FORMATE
100
AcDbLine
 10
325.9494346559
 20
52.5741987663
 30
0.0
 11
410.647432693
 21
52.5741987663
 31
0.0
  0
LINE
  5
81
330
1F
100
AcDbEntity
  8
FORMATE
100
AcDbLine
 10
325.9494346559
 20
32.5741987663
 30
0.0
 11
410.647432693
 21
32.5741987663
 31
0.0
  0
LINE
  5
82
330
1F
100
AcDbEntity
  8
ALLEN
370
    30
100
AcDbLine
 10
369.9980062749
 20
72.1268101734
 30
0.0
 11
369.9980062749
 21
69.233060327
 31
0.0
  0
LINE
  5
83
330
1F
100
AcDbEntity
  8
FORMATE
100
AcDbLine
 10
325.9494346559
 20
152.7812672739
 30
0.0
 11
410.647432693
 21
152.7812672739
 31
0.0
  0
LINE
  5
84
330
1F
100
AcDbEntity
  8
ALLEN
370
    30
100
AcDbLine
 10
370.2123187749
 20
69.018747827
 30
0.0
 11
370.6018915203
 21
69.018747827
 31
0.0
  0
LINE
  5
85
330
1F
100
AcDbEntity
  8
ALLEN
370
    30
100
AcDbLine
 10
370.8162040203
 20
72.1268101734
 30
0.0
 11
370.8162040203
 21
69.233060327
 31
0.0
  0
LINE
  5
86
330
1F
100
AcDbEntity
  8
ALLEN
370
    30
100
AcDbLine
 10
372.5482451925
 20
72.1268101734
 30
0.0
 11
372.5482451925
 21
69.233060327
 31
0.0
  0
LINE
  5
87
330
1F
100
AcDbEntity
  8
ALLEN
370
    30
100
AcDbLine
 10
372.7625576925
 20
69.018747827
 30
0.0
 11
373.1827415696
 21
69.018747827
 31
0.0
  0
LINE
  5
88
330
1F
100
AcDbEntity
  8
ALLEN
370
    30
100
AcDbLine
 10
373.3970540696
 20
72.1268101734
 30
0.0
 11
373.3970540696
 21
69.233060327
 31
0.0
  0
LINE
  5
89
330
1F
100
AcDbEntity
  8
ALLEN
  6
Continuous
370
    30
100
AcDbLine
 10
393.5420995925
 20
76.7251204804
 30
0.0
 11
392.6848495925
 21
76.7251204804
 31
0.0
  0
LINE
  5
8A
330
1F
100
AcDbEntity
  8
ALLEN
  6
Continuous
370
    30
100
AcDbLine
 10
392.6848495925
 20
76.7251204804
 30
0.0
 11
392.6848495925
 21
75.1177767304
 31
0.0
  0
LINE
  5
8B
330
1F
100
AcDbEntity
  8
ALLEN
  6
Continuous
370
    30
100
AcDbLine
 10
392.6848495925
 20
75.1177767304
 30
0.0
 11
393.0063183425
 21
75.1177767304
 31
0.0
  0
LINE
  5
8C
330
1F
100
AcDbEntity
  8
ALLEN
  6
Continuous
370
    30
100
AcDbLine
 10
393.0063183425
 20
75.1177767304
 30
0.0
 11
393.0063183425
 21
75.7607142304
 31
0.0
  0
LINE
  5
8D
330
1F
100
AcDbEntity
  8
ALLEN
  6
Continuous
370
    30
100
AcDbLine
 10
393.0063183425
 20
75.7607142304
 30
0.0
 11
393.4023598277
 21
75.7607142304
 31
0.0
  0
LINE
  5
8E
330
1F
100
AcDbEntity
  8
ALLEN
  6
Continuous
370
    30
100
AcDbLine
 10
393.6757469265
 20
75.1177767304
 30
0.0
 11
394.1400906765
 21
75.1177767304
 31
0.0
  0
LINE
  5
8F
330
1F
100
AcDbEntity
  8
ALLEN
  6
Continuous
370
    30
100
AcDbLine
 10
394.1400906765
 20
75.1177767304
 30
0.0
 11
394.1400906765
 21
75.1501606023
 31
0.0
  0
LINE
  5
90
330
1F
100
AcDbEntity
  8
ALLEN
  6
Continuous
370
    30
100
AcDbLine
 10
394.1400906765
 20
75.1501606023
 30
0.0
 11
394.0329344265
 21
75.2037387273
 31
0.0
  0
LINE
  5
91
330
1F
100
AcDbEntity
  8
ALLEN
  6
Continuous
370
    30
100
AcDbLine
 10
393.3813652175
 20
76.4572298554
 30
0.0
 11
393.0063183425
 21
76.4572298554
 31
0.0
  0
LINE
  5
92
330
1F
100
AcDbEntity
  8
ALLEN
  6
Continuous
370
    30
100
AcDbLine
 10
393.0063183425
 20
76.4572298554
 30
0.0
 11
393.0063183425
 21
76.0286048554
 31
0.0
  0
LINE
  5
93
330
1F
100
AcDbEntity
  8
ALLEN
  6
Continuous
370
    30
100
AcDbLine
 10
393.0063183425
 20
76.0286048554
 30
0.0
 11
393.3813652175
 21
76.0286048554
 31
0.0
  0
LINE
  5
94
330
1F
100
AcDbEntity
  8
ALLEN
  6
Continuous
370
    15
100
AcDbLine
 10
368.6181557993
 20
69.7406277271
 30
0.0
 11
368.9657807993
 21
69.6971746021
 31
0.0
  0
LINE
  5
95
330
1F
100
AcDbEntity
  8
ALLEN
  6
Continuous
370
    15
100
AcDbLine
 10
368.9657807993
 20
69.6971746021
 30
0.0
 11
369.1831167368
 21
69.6102683521
 31
0.0
  0
LINE
  5
96
330
1F
100
AcDbEntity
  8
ALLEN
  6
Continuous
370
    15
100
AcDbLine
 10
369.1831167368
 20
69.6102683521
 30
0.0
 11
369.2265698618
 21
69.5233621021
 31
0.0
  0
LINE
  5
97
330
1F
100
AcDbEntity
  8
ALLEN
  6
Continuous
370
    15
100
AcDbLine
 10
369.2265698618
 20
69.5233621021
 30
0.0
 11
369.2700229868
 21
69.3930027271
 31
0.0
  0
LINE
  5
98
330
1F
100
AcDbEntity
  8
ALLEN
  6
Continuous
370
    15
100
AcDbLine
 10
369.2700229868
 20
69.3930027271
 30
0.0
 11
369.2265698618
 21
69.2191902271
 31
0.0
  0
LINE
  5
99
330
1F
100
AcDbEntity
  8
ALLEN
  6
Continuous
370
    15
100
AcDbLine
 10
369.2265698618
 20
69.2191902271
 30
0.0
 11
369.1396636118
 21
69.0888308521
 31
0.0
  0
LINE
  5
9A
330
1F
100
AcDbEntity
  8
ALLEN
  6
Continuous
370
    15
100
AcDbLine
 10
369.1396636118
 20
69.0888308521
 30
0.0
 11
368.9223276743
 21
69.0453777271
 31
0.0
  0
LINE
  5
9B
330
1F
100
AcDbEntity
  8
ALLEN
  6
Continuous
370
    15
100
AcDbLine
 10
368.9223276743
 20
69.0453777271
 30
0.0
 11
368.5747026743
 21
69.0019246021
 31
0.0
  0
LINE
  5
9C
330
1F
100
AcDbEntity
  8
ALLEN
  6
Continuous
370
    15
100
AcDbLine
 10
368.5747026743
 20
69.0019246021
 30
0.0
 11
366.5323354868
 21
69.0019246021
 31
0.0
  0
LINE
  5
9D
330
1F
100
AcDbEntity
  8
ALLEN
  6
Continuous
370
    15
100
AcDbLine
 10
366.5323354868
 20
69.0019246021
 30
0.0
 11
366.2281636118
 21
69.0453777271
 31
0.0
  0
LINE
  5
9E
330
1F
100
AcDbEntity
  8
ALLEN
  6
Continuous
370
    15
100
AcDbLine
 10
366.2281636118
 20
69.0453777271
 30
0.0
 11
366.0108276743
 21
69.0888308521
 31
0.0
  0
LINE
  5
9F
330
1F
100
AcDbEntity
  8
ALLEN
  6
Continuous
370
    15
100
AcDbLine
 10
366.0108276743
 20
69.0888308521
 30
0.0
 11
365.9239214243
 21
69.2191902271
 31
0.0
  0
LINE
  5
A0
330
1F
100
AcDbEntity
  8
ALLEN
  6
Continuous
370
    15
100
AcDbLine
 10
365.9239214243
 20
69.2191902271
 30
0.0
 11
365.8804682993
 21
69.3930027271
 31
0.0
  0
LINE
  5
A1
330
1F
100
AcDbEntity
  8
ALLEN
  6
Continuous
370
    15
100
AcDbLine
 10
365.8804682993
 20
69.3930027271
 30
0.0
 11
365.9239214243
 21
69.5233621021
 31
0.0
  0
LINE
  5
A2
330
1F
100
AcDbEntity
  8
ALLEN
  6
Continuous
370
    15
100
AcDbLine
 10
365.9239214243
 20
69.5233621021
 30
0.0
 11
366.0108276743
 21
69.6102683521
 31
0.0
  0
LINE
  5
A3
330
1F
100
AcDbEntity
  8
ALLEN
  6
Continuous
370
    15
100
AcDbLine
 10
366.0108276743
 20
69.6102683521
 30
0.0
 11
366.2281636118
 21
69.6971746021
 31
0.0
  0
LINE
  5
A4
330
1F
100
AcDbEntity
  8
ALLEN
  6
Continuous
370
    15
100
AcDbLine
 10
366.2281636118
 20
69.6971746021
 30
0.0
 11
366.5323354868
 21
69.7406277271
 31
0.0
  0
LINE
  5
A5
330
1F
100
AcDbEntity
  8
ALLEN
  6
Continuous
370
    15
100
AcDbLine
 10
366.5323354868
 20
69.7406277271
 30
0.0
 11
366.2281636118
 21
75.7808933521
 31
0.0
  0
LINE
  5
A6
330
1F
100
AcDbEntity
  8
ALLEN
  6
Continuous
370
    15
100
AcDbLine
 10
366.2281636118
 20
75.7808933521
 30
0.0
 11
368.9657807993
 21
75.7808933521
 31
0.0
  0
LINE
  5
A7
330
1F
100
AcDbEntity
  8
ALLEN
  6
Continuous
370
    15
100
AcDbLine
 10
368.9657807993
 20
75.7808933521
 30
0.0
 11
368.6181557993
 21
69.7406277271
 31
0.0
  0
LINE
  5
A8
330
1F
100
AcDbEntity
  8
ALLEN
  6
Continuous
370
    15
100
AcDbLine
 10
367.4448511118
 20
81.7342527271
 30
0.0
 11
366.7061479868
 21
81.9081355396
 31
0.0
  0
LINE
  5
A9
330
1F
100
AcDbEntity
  8
ALLEN
  6
Continuous
370
    15
100
AcDbLine
 10
366.7061479868
 20
81.9081355396
 30
0.0
 11
366.7061479868
 21
82.2123074146
 31
0.0
  0
LINE
  5
AA
330
1F
100
AcDbEntity
  8
ALLEN
  6
Continuous
370
    15
100
AcDbLine
 10
366.7061479868
 20
82.2123074146
 30
0.0
 11
367.4448511118
 21
81.9950417896
 31
0.0
  0
LINE
  5
AB
330
1F
100
AcDbEntity
  8
ALLEN
  6
Continuous
370
    15
100
AcDbLine
 10
367.4448511118
 20
81.9950417896
 30
0.0
 11
367.4448511118
 21
81.7342527271
 31
0.0
  0
LINE
  5
AC
330
1F
100
AcDbEntity
  8
ALLEN
  6
Continuous
370
    15
100
AcDbLine
 10
366.5757886118
 20
81.9081355396
 30
0.0
 11
365.3590307993
 21
81.7777058521
 31
0.0
  0
LINE
  5
AD
330
1F
100
AcDbEntity
  8
ALLEN
  6
Continuous
370
    15
100
AcDbLine
 10
365.3590307993
 20
81.7777058521
 30
0.0
 11
365.3590307993
 21
81.9081355396
 31
0.0
  0
LINE
  5
AE
330
1F
100
AcDbEntity
  8
ALLEN
  6
Continuous
370
    15
100
AcDbLine
 10
365.3590307993
 20
81.9081355396
 30
0.0
 11
366.5757886118
 21
82.1254011646
 31
0.0
  0
LINE
  5
AF
330
1F
100
AcDbEntity
  8
ALLEN
  6
Continuous
370
    15
100
AcDbLine
 10
366.5757886118
 20
82.1254011646
 30
0.0
 11
366.5757886118
 21
81.9081355396
 31
0.0
  0
LINE
  5
B0
330
1F
100
AcDbEntity
  8
ALLEN
  6
Continuous
370
    15
100
AcDbLine
 10
365.7935620493
 20
76.1285886646
 30
0.0
 11
365.1417651743
 21
76.1285886646
 31
0.0
  0
LINE
  5
B1
330
1F
100
AcDbEntity
  8
ALLEN
370
    30
100
AcDbLine
 10
333.3570696228
 20
92.5746377022
 30
0.0
 11
332.388807904
 21
92.5746377022
 31
0.0
  0
LINE
  5
B2
330
1F
100
AcDbEntity
  8
ALLEN
370
    30
100
AcDbLine
 10
332.388807904
 20
92.5746377022
 30
0.0
 11
332.6867571228
 21
92.798026374
 31
0.0
  0
LINE
  5
B3
330
1F
100
AcDbEntity
  8
ALLEN
370
    30
100
AcDbLine
 10
332.6867571228
 20
92.798026374
 30
0.0
 11
332.7613176697
 21
93.0214150459
 31
0.0
  0
LINE
  5
B4
330
1F
100
AcDbEntity
  8
ALLEN
370
    30
100
AcDbLine
 10
332.7613176697
 20
93.0214150459
 30
0.0
 11
334.6978411072
 21
98.533182624
 31
0.0
  0
LINE
  5
B5
330
1F
100
AcDbEntity
  8
ALLEN
370
    30
100
AcDbLine
 10
334.6978411072
 20
98.533182624
 30
0.0
 11
335.8894914978
 21
98.533182624
 31
0.0
  0
LINE
  5
B6
330
1F
100
AcDbEntity
  8
ALLEN
370
    30
100
AcDbLine
 10
335.8894914978
 20
98.533182624
 30
0.0
 11
338.123964154
 21
92.798026374
 31
0.0
  0
LINE
  5
B7
330
1F
100
AcDbEntity
  8
ALLEN
370
    30
100
AcDbLine
 10
338.123964154
 20
92.798026374
 30
0.0
 11
338.3473528259
 21
92.5746377022
 31
0.0
  0
LINE
  5
B8
330
1F
100
AcDbEntity
  8
ALLEN
370
    30
100
AcDbLine
 10
338.3473528259
 20
92.5746377022
 30
0.0
 11
336.7087786072
 21
92.5746377022
 31
0.0
  0
LINE
  5
B9
330
1F
100
AcDbEntity
  8
ALLEN
370
    30
100
AcDbLine
 10
336.7087786072
 20
92.5746377022
 30
0.0
 11
336.7087786072
 21
92.9470009834
 31
0.0
  0
LINE
  5
BA
330
1F
100
AcDbEntity
  8
ALLEN
370
    30
100
AcDbLine
 10
336.7087786072
 20
92.9470009834
 30
0.0
 11
336.1874407165
 21
94.2132119209
 31
0.0
  0
LINE
  5
BB
330
1F
100
AcDbEntity
  8
ALLEN
370
    30
100
AcDbLine
 10
336.1874407165
 20
94.2132119209
 30
0.0
 11
334.6978411072
 21
94.2132119209
 31
0.0
  0
LINE
  5
BC
330
1F
100
AcDbEntity
  8
ALLEN
370
    30
100
AcDbLine
 10
334.6978411072
 20
94.2132119209
 30
0.0
 11
334.6978411072
 21
94.8091103584
 31
0.0
  0
LINE
  5
BD
330
1F
100
AcDbEntity
  8
ALLEN
370
    30
100
AcDbLine
 10
334.6978411072
 20
94.8091103584
 30
0.0
 11
335.9639055603
 21
94.8091103584
 31
0.0
  0
LINE
  5
BE
330
1F
100
AcDbEntity
  8
ALLEN
370
    30
100
AcDbLine
 10
335.9639055603
 20
94.8091103584
 30
0.0
 11
334.9956438415
 21
97.4159462959
 31
0.0
  0
LINE
  5
BF
330
1F
100
AcDbEntity
  8
ALLEN
370
    30
100
AcDbLine
 10
334.9956438415
 20
97.4159462959
 30
0.0
 11
333.3570696228
 21
93.0214150459
 31
0.0
  0
LINE
  5
C0
330
1F
100
AcDbEntity
  8
ALLEN
370
    30
100
AcDbLine
 10
333.3570696228
 20
93.0214150459
 30
0.0
 11
333.3570696228
 21
92.5746377022
 31
0.0
  0
LINE
  5
C1
330
1F
100
AcDbEntity
  8
ALLEN
370
    30
100
AcDbLine
 10
338.8686907165
 20
98.4586220772
 30
0.0
 11
339.0922258728
 21
98.0862587959
 31
0.0
  0
LINE
  5
C2
330
1F
100
AcDbEntity
  8
ALLEN
370
    30
100
AcDbLine
 10
339.0922258728
 20
98.0862587959
 30
0.0
 11
339.0922258728
 21
97.8627236397
 31
0.0
  0
LINE
  5
C3
330
1F
100
AcDbEntity
  8
ALLEN
370
    30
100
AcDbLine
 10
339.0922258728
 20
97.8627236397
 30
0.0
 11
339.0922258728
 21
92.9470009834
 31
0.0
  0
LINE
  5
C4
330
1F
100
AcDbEntity
  8
ALLEN
370
    30
100
AcDbLine
 10
339.0922258728
 20
92.9470009834
 30
0.0
 11
338.9432512634
 21
92.5746377022
 31
0.0
  0
LINE
  5
C5
330
1F
100
AcDbEntity
  8
ALLEN
370
    30
100
AcDbLine
 10
338.9432512634
 20
92.5746377022
 30
0.0
 11
342.5927629822
 21
92.5746377022
 31
0.0
  0
LINE
  5
C6
330
1F
100
AcDbEntity
  8
ALLEN
370
    30
100
AcDbLine
 10
342.7417375915
 20
98.4586220772
 30
0.0
 11
338.8686907165
 21
98.4586220772
 31
0.0
  0
LINE
  5
C7
330
1F
100
AcDbEntity
  8
ALLEN
370
    30
100
AcDbLine
 10
340.3584368103
 20
93.1703896553
 30
0.0
 11
340.3584368103
 21
97.8627236397
 31
0.0
  0
LINE
  5
C8
330
1F
100
AcDbEntity
  8
ALLEN
370
    30
100
AcDbLine
 10
340.8797747009
 20
95.8517861397
 30
0.0
 11
340.8797747009
 21
95.2558877022
 31
0.0
  0
LINE
  5
C9
330
1F
100
AcDbEntity
  8
ALLEN
  6
Continuous
370
    15
100
AcDbLine
 10
365.1417651743
 20
76.1285886646
 30
0.0
 11
366.0108276743
 21
74.8683777271
 31
0.0
  0
LINE
  5
CA
330
1F
100
AcDbEntity
  8
ALLEN
  6
Continuous
370
    15
100
AcDbLine
 10
366.0108276743
 20
74.8683777271
 30
0.0
 11
365.7935620493
 21
76.1285886646
 31
0.0
  0
LINE
  5
CB
330
1F
100
AcDbEntity
  8
ALLEN
  6
CENTERX2
370
    15
100
AcDbLine
 10
367.6186636118
 20
78.8662761646
 30
0.0
 11
367.7490932993
 21
78.8662761646
 31
0.0
  0
LINE
  5
CC
330
1F
100
AcDbEntity
  8
ALLEN
  6
CENTERX2
370
    15
100
AcDbLine
 10
367.7490932993
 20
78.8662761646
 30
0.0
 11
367.7490932993
 21
81.5604402271
 31
0.0
  0
LINE
  5
CD
330
1F
100
AcDbEntity
  8
ALLEN
  6
CENTERX2
370
    15
100
AcDbLine
 10
367.7490932993
 20
81.5604402271
 30
0.0
 11
368.5312495493
 21
81.7342527271
 31
0.0
  0
LINE
  5
CE
330
1F
100
AcDbEntity
  8
ALLEN
  6
CENTERX2
370
    15
100
AcDbLine
 10
368.5312495493
 20
81.7342527271
 30
0.0
 11
369.9652729868
 21
81.5169871021
 31
0.0
  0
LINE
  5
CF
330
1F
100
AcDbEntity
  8
ALLEN
  6
CENTERX2
370
    15
100
AcDbLine
 10
369.9652729868
 20
81.5169871021
 30
0.0
 11
370.2259917368
 21
76.3024011646
 31
0.0
  0
LINE
  5
D0
330
1F
100
AcDbEntity
  8
ALLEN
  6
CENTERX2
370
    15
100
AcDbLine
 10
370.2259917368
 20
76.3024011646
 30
0.0
 11
369.3569292368
 21
76.3024011646
 31
0.0
  0
LINE
  5
D1
330
1F
100
AcDbEntity
  8
ALLEN
  6
CENTERX2
370
    15
100
AcDbLine
 10
369.3569292368
 20
76.3024011646
 30
0.0
 11
369.0961401743
 21
78.6054871021
 31
0.0
  0
LINE
  5
D2
330
1F
100
AcDbEntity
  8
ALLEN
  6
CENTERX2
370
    15
100
AcDbLine
 10
369.0961401743
 20
78.6054871021
 30
0.0
 11
369.2265698618
 21
80.4306589771
 31
0.0
  0
LINE
  5
D3
330
1F
100
AcDbEntity
  8
ALLEN
  6
Continuous
370
    15
100
AcDbLine
 10
369.2265698618
 20
80.4306589771
 30
0.0
 11
369.0092339243
 21
80.4306589771
 31
0.0
  0
LINE
  5
D4
330
1F
100
AcDbEntity
  8
ALLEN
  6
CENTERX2
370
    15
100
AcDbLine
 10
369.0092339243
 20
80.4306589771
 30
0.0
 11
368.9223276743
 21
78.6054871021
 31
0.0
  0
LINE
  5
D5
330
1F
100
AcDbEntity
  8
ALLEN
  6
CENTERX2
370
    15
100
AcDbLine
 10
368.9223276743
 20
78.6054871021
 30
0.0
 11
368.0532651743
 21
78.6054871021
 31
0.0
  0
LINE
  5
D6
330
1F
100
AcDbEntity
  8
ALLEN
  6
CENTERX2
370
    15
100
AcDbLine
 10
368.0532651743
 20
78.6054871021
 30
0.0
 11
368.0532651743
 21
78.3882214771
 31
0.0
  0
LINE
  5
D7
330
1F
100
AcDbEntity
  8
ALLEN
  6
CENTERX2
370
    15
100
AcDbLine
 10
368.0532651743
 20
78.3882214771
 30
0.0
 11
368.9223276743
 21
78.3882214771
 31
0.0
  0
LINE
  5
D8
330
1F
100
AcDbEntity
  8
ALLEN
  6
CENTERX2
370
    15
100
AcDbLine
 10
368.9223276743
 20
78.3882214771
 30
0.0
 11
369.1831167368
 21
75.9113230396
 31
0.0
  0
LINE
  5
D9
330
1F
100
AcDbEntity
  8
ALLEN
  6
CENTERX2
370
    15
100
AcDbLine
 10
369.1831167368
 20
75.9113230396
 30
0.0
 11
367.7056401743
 21
75.9113230396
 31
0.0
  0
LINE
  5
DA
330
1F
100
AcDbEntity
  8
ALLEN
  6
CENTERX2
370
    15
100
AcDbLine
 10
367.7056401743
 20
75.9113230396
 30
0.0
 11
367.7056401743
 21
78.1709558521
 31
0.0
  0
LINE
  5
DB
330
1F
100
AcDbEntity
  8
ALLEN
  6
CENTERX2
370
    15
100
AcDbLine
 10
367.7056401743
 20
78.1709558521
 30
0.0
 11
367.4883042368
 21
78.1709558521
 31
0.0
  0
LINE
  5
DC
330
1F
100
AcDbEntity
  8
ALLEN
  6
CENTERX2
370
    15
100
AcDbLine
 10
367.4883042368
 20
78.1709558521
 30
0.0
 11
367.4883042368
 21
75.9113230396
 31
0.0
  0
LINE
  5
DD
330
1F
100
AcDbEntity
  8
ALLEN
  6
CENTERX2
370
    15
100
AcDbLine
 10
367.4883042368
 20
75.9113230396
 30
0.0
 11
366.0108276743
 21
75.9113230396
 31
0.0
  0
LINE
  5
DE
330
1F
100
AcDbEntity
  8
ALLEN
  6
CENTERX2
370
    15
100
AcDbLine
 10
366.0108276743
 20
75.9113230396
 30
0.0
 11
366.2281636118
 21
78.3882214771
 31
0.0
  0
LINE
  5
DF
330
1F
100
AcDbEntity
  8
ALLEN
  6
CENTERX2
370
    15
100
AcDbLine
 10
366.2281636118
 20
78.3882214771
 30
0.0
 11
367.1406792368
 21
78.3882214771
 31
0.0
  0
LINE
  5
E0
330
1F
100
AcDbEntity
  8
ALLEN
  6
CENTERX2
370
    15
100
AcDbLine
 10
367.1406792368
 20
78.3882214771
 30
0.0
 11
367.1406792368
 21
78.6054871021
 31
0.0
  0
LINE
  5
E1
330
1F
100
AcDbEntity
  8
ALLEN
  6
CENTERX2
370
    15
100
AcDbLine
 10
367.1406792368
 20
78.6054871021
 30
0.0
 11
366.2716167368
 21
78.6054871021
 31
0.0
  0
LINE
  5
E2
330
1F
100
AcDbEntity
  8
ALLEN
  6
CENTERX2
370
    15
100
AcDbLine
 10
366.2716167368
 20
78.6054871021
 30
0.0
 11
366.1847104868
 21
80.4306589771
 31
0.0
  0
LINE
  5
E3
330
1F
100
AcDbEntity
  8
ALLEN
  6
CENTERX2
370
    15
100
AcDbLine
 10
366.1847104868
 20
80.4306589771
 30
0.0
 11
365.9673745493
 21
80.4306589771
 31
0.0
  0
LINE
  5
E4
330
1F
100
AcDbEntity
  8
ALLEN
  6
CENTERX2
370
    15
100
AcDbLine
 10
365.9673745493
 20
80.4306589771
 30
0.0
 11
366.0977339243
 21
78.6054871021
 31
0.0
  0
LINE
  5
E5
330
1F
100
AcDbEntity
  8
ALLEN
  6
CENTERX2
370
    15
100
AcDbLine
 10
366.0977339243
 20
78.6054871021
 30
0.0
 11
365.8370151743
 21
76.3024011646
 31
0.0
  0
LINE
  5
E6
330
1F
100
AcDbEntity
  8
ALLEN
  6
CENTERX2
370
    15
100
AcDbLine
 10
365.8370151743
 20
76.3024011646
 30
0.0
 11
364.9679526743
 21
76.3024011646
 31
0.0
  0
LINE
  5
E7
330
1F
100
AcDbEntity
  8
ALLEN
  6
CENTERX2
370
    15
100
AcDbLine
 10
364.9679526743
 20
76.3024011646
 30
0.0
 11
365.2286714243
 21
81.5604402271
 31
0.0
  0
LINE
  5
E8
330
1F
100
AcDbEntity
  8
ALLEN
  6
CENTERX2
370
    15
100
AcDbLine
 10
365.2286714243
 20
81.5604402271
 30
0.0
 11
366.6626948618
 21
81.7342527271
 31
0.0
  0
LINE
  5
E9
330
1F
100
AcDbEntity
  8
ALLEN
  6
CENTERX2
370
    15
100
AcDbLine
 10
366.6626948618
 20
81.7342527271
 30
0.0
 11
367.4448511118
 21
81.5604402271
 31
0.0
  0
LINE
  5
EA
330
1F
100
AcDbEntity
  8
ALLEN
  6
CENTERX2
370
    15
100
AcDbLine
 10
367.4448511118
 20
81.5604402271
 30
0.0
 11
367.4448511118
 21
78.8662761646
 31
0.0
  0
LINE
  5
EB
330
1F
100
AcDbEntity
  8
ALLEN
  6
CENTERX2
370
    15
100
AcDbLine
 10
367.4448511118
 20
78.8662761646
 30
0.0
 11
367.6186636118
 21
78.8662761646
 31
0.0
  0
LINE
  5
EC
330
1F
100
AcDbEntity
  8
ALLEN
  6
Continuous
370
    15
100
AcDbLine
 10
367.6186636118
 20
78.6923933521
 30
0.0
 11
367.9229057993
 21
78.6923933521
 31
0.0
  0
LINE
  5
ED
330
1F
100
AcDbEntity
  8
ALLEN
  6
Continuous
370
    15
100
AcDbLine
 10
367.9229057993
 20
78.6923933521
 30
0.0
 11
367.9229057993
 21
78.3013152271
 31
0.0
  0
LINE
  5
EE
330
1F
100
AcDbEntity
  8
ALLEN
  6
Continuous
370
    15
100
AcDbLine
 10
367.9229057993
 20
78.3013152271
 30
0.0
 11
367.2710386118
 21
78.3013152271
 31
0.0
  0
LINE
  5
EF
330
1F
100
AcDbEntity
  8
ALLEN
  6
Continuous
370
    15
100
AcDbLine
 10
367.2710386118
 20
78.3013152271
 30
0.0
 11
367.2710386118
 21
78.6923933521
 31
0.0
  0
LINE
  5
F0
330
1F
100
AcDbEntity
  8
ALLEN
  6
Continuous
370
    15
100
AcDbLine
 10
367.2710386118
 20
78.6923933521
 30
0.0
 11
367.6186636118
 21
78.6923933521
 31
0.0
  0
LINE
  5
F1
330
1F
100
AcDbEntity
  8
ALLEN
  6
Continuous
370
    15
100
AcDbLine
 10
367.7490932993
 20
81.7342527271
 30
0.0
 11
368.4877964243
 21
81.9081355396
 31
0.0
  0
LINE
  5
F2
330
1F
100
AcDbEntity
  8
ALLEN
  6
Continuous
370
    15
100
AcDbLine
 10
368.4877964243
 20
81.9081355396
 30
0.0
 11
368.4877964243
 21
82.2123074146
 31
0.0
  0
LINE
  5
F3
330
1F
100
AcDbEntity
  8
ALLEN
  6
Continuous
370
    15
100
AcDbLine
 10
368.4877964243
 20
82.2123074146
 30
0.0
 11
367.7490932993
 21
81.9950417896
 31
0.0
  0
LINE
  5
F4
330
1F
100
AcDbEntity
  8
ALLEN
  6
Continuous
370
    15
100
AcDbLine
 10
367.7490932993
 20
81.9950417896
 30
0.0
 11
367.7490932993
 21
81.7342527271
 31
0.0
  0
LINE
  5
F5
330
1F
100
AcDbEntity
  8
ALLEN
  6
Continuous
370
    15
100
AcDbLine
 10
368.6181557993
 20
81.9081355396
 30
0.0
 11
369.7914604868
 21
81.7777058521
 31
0.0
  0
LINE
  5
F6
330
1F
100
AcDbEntity
  8
ALLEN
  6
Continuous
370
    15
100
AcDbLine
 10
369.7914604868
 20
81.7777058521
 30
0.0
 11
369.7914604868
 21
81.9081355396
 31
0.0
  0
LINE
  5
F7
330
1F
100
AcDbEntity
  8
ALLEN
  6
Continuous
370
    15
100
AcDbLine
 10
369.7914604868
 20
81.9081355396
 30
0.0
 11
368.6181557993
 21
82.1254011646
 31
0.0
  0
LINE
  5
F8
330
1F
100
AcDbEntity
  8
ALLEN
  6
Continuous
370
    15
100
AcDbLine
 10
368.6181557993
 20
82.1254011646
 30
0.0
 11
368.6181557993
 21
81.9081355396
 31
0.0
  0
LINE
  5
F9
330
1F
100
AcDbEntity
  8
ALLEN
  6
Continuous
370
    15
100
AcDbLine
 10
369.3569292368
 20
76.1285886646
 30
0.0
 11
370.0521792368
 21
76.1285886646
 31
0.0
  0
LINE
  5
FA
330
1F
100
AcDbEntity
  8
ALLEN
  6
Continuous
370
    15
100
AcDbLine
 10
370.0521792368
 20
76.1285886646
 30
0.0
 11
369.1831167368
 21
74.8683777271
 31
0.0
  0
LINE
  5
FB
330
1F
100
AcDbEntity
  8
ALLEN
  6
Continuous
370
    15
100
AcDbLine
 10
369.1831167368
 20
74.8683777271
 30
0.0
 11
369.3569292368
 21
76.1285886646
 31
0.0
  0
LINE
  5
FC
330
1F
100
AcDbEntity
  8
ALLEN
  6
Continuous
370
    15
100
AcDbLine
 10
367.6186636118
 20
82.4295730396
 30
0.0
 11
367.7925464243
 21
82.4730261646
 31
0.0
  0
LINE
  5
FD
330
1F
100
AcDbEntity
  8
ALLEN
  6
Continuous
370
    15
100
AcDbLine
 10
367.7925464243
 20
82.4730261646
 30
0.0
 11
368.0532651743
 21
82.6033855396
 31
0.0
  0
LINE
  5
FE
330
1F
100
AcDbEntity
  8
ALLEN
  6
Continuous
370
    15
100
AcDbLine
 10
368.0532651743
 20
82.6033855396
 30
0.0
 11
368.4443432993
 21
82.9075574146
 31
0.0
  0
LINE
  5
FF
330
1F
100
AcDbEntity
  8
ALLEN
  6
Continuous
370
    15
100
AcDbLine
 10
368.4443432993
 20
82.9075574146
 30
0.0
 11
368.2705307993
 21
82.5599324146
 31
0.0
  0
LINE
  5
100
330
1F
100
AcDbEntity
  8
ALLEN
  6
Continuous
370
    15
100
AcDbLine
 10
368.2705307993
 20
82.5599324146
 30
0.0
 11
368.0098120493
 21
82.3426667896
 31
0.0
  0
LINE
  5
101
330
1F
100
AcDbEntity
  8
ALLEN
  6
Continuous
370
    15
100
AcDbLine
 10
368.0098120493
 20
82.3426667896
 30
0.0
 11
367.8359995493
 21
82.2557605396
 31
0.0
  0
LINE
  5
102
330
1F
100
AcDbEntity
  8
ALLEN
  6
Continuous
370
    15
100
AcDbLine
 10
367.8359995493
 20
82.2557605396
 30
0.0
 11
367.6186636118
 21
82.2123074146
 31
0.0
  0
LINE
  5
103
330
1F
100
AcDbEntity
  8
ALLEN
  6
Continuous
370
    15
100
AcDbLine
 10
367.6186636118
 20
82.2123074146
 30
0.0
 11
367.4013979868
 21
82.2557605396
 31
0.0
  0
LINE
  5
104
330
1F
100
AcDbEntity
  8
ALLEN
  6
Continuous
370
    15
100
AcDbLine
 10
367.4013979868
 20
82.2557605396
 30
0.0
 11
367.2275854868
 21
82.3426667896
 31
0.0
  0
LINE
  5
105
330
1F
100
AcDbEntity
  8
ALLEN
  6
Continuous
370
    15
100
AcDbLine
 10
367.2275854868
 20
82.3426667896
 30
0.0
 11
366.9234136118
 21
82.5599324146
 31
0.0
  0
LINE
  5
106
330
1F
100
AcDbEntity
  8
ALLEN
  6
Continuous
370
    15
100
AcDbLine
 10
366.9234136118
 20
82.5599324146
 30
0.0
 11
366.7930542368
 21
82.8206511646
 31
0.0
  0
LINE
  5
107
330
1F
100
AcDbEntity
  8
ALLEN
  6
Continuous
370
    15
100
AcDbLine
 10
366.7930542368
 20
82.8206511646
 30
0.0
 11
366.7496011118
 21
82.9075574146
 31
0.0
  0
LINE
  5
108
330
1F
100
AcDbEntity
  8
ALLEN
  6
Continuous
370
    15
100
AcDbLine
 10
366.7496011118
 20
82.9075574146
 30
0.0
 11
367.1841323618
 21
82.6033855396
 31
0.0
  0
LINE
  5
109
330
1F
100
AcDbEntity
  8
ALLEN
  6
Continuous
370
    15
100
AcDbLine
 10
367.1841323618
 20
82.6033855396
 30
0.0
 11
367.4448511118
 21
82.4730261646
 31
0.0
  0
LINE
  5
10A
330
1F
100
AcDbEntity
  8
ALLEN
  6
Continuous
370
    15
100
AcDbLine
 10
367.4448511118
 20
82.4730261646
 30
0.0
 11
367.6186636118
 21
82.4295730396
 31
0.0
  0
LINE
  5
10B
330
1F
100
AcDbEntity
  8
ALLEN
  6
Continuous
370
    15
100
AcDbLine
 10
367.5752104868
 20
87.4268933521
 30
0.0
 11
367.9663589243
 21
87.4268933521
 31
0.0
  0
LINE
  5
10C
330
1F
100
AcDbEntity
  8
ALLEN
  6
Continuous
370
    15
100
AcDbLine
 10
367.9663589243
 20
87.4268933521
 30
0.0
 11
368.3139839243
 21
87.2965339771
 31
0.0
  0
LINE
  5
10D
330
1F
100
AcDbEntity
  8
ALLEN
  6
Continuous
370
    15
100
AcDbLine
 10
368.3139839243
 20
87.2965339771
 30
0.0
 11
368.6616089243
 21
87.0792683521
 31
0.0
  0
LINE
  5
10E
330
1F
100
AcDbEntity
  8
ALLEN
  6
Continuous
370
    15
100
AcDbLine
 10
368.6616089243
 20
87.0792683521
 30
0.0
 11
368.9657807993
 21
86.6447371021
 31
0.0
  0
LINE
  5
10F
330
1F
100
AcDbEntity
  8
ALLEN
  6
Continuous
370
    15
100
AcDbLine
 10
368.9657807993
 20
86.6447371021
 30
0.0
 11
369.0526870493
 21
86.3405652271
 31
0.0
  0
LINE
  5
110
330
1F
100
AcDbEntity
  8
ALLEN
  6
Continuous
370
    15
100
AcDbLine
 10
369.0526870493
 20
86.3405652271
 30
0.0
 11
369.1396636118
 21
85.9928699146
 31
0.0
  0
LINE
  5
111
330
1F
100
AcDbEntity
  8
ALLEN
  6
Continuous
370
    15
100
AcDbLine
 10
369.1396636118
 20
85.9928699146
 30
0.0
 11
369.1396636118
 21
85.5583386646
 31
0.0
  0
LINE
  5
112
330
1F
100
AcDbEntity
  8
ALLEN
  6
Continuous
370
    15
100
AcDbLine
 10
369.1396636118
 20
85.5583386646
 30
0.0
 11
369.0961401743
 21
85.0369011646
 31
0.0
  0
LINE
  5
113
330
1F
100
AcDbEntity
  8
ALLEN
  6
Continuous
370
    15
100
AcDbLine
 10
369.0961401743
 20
85.0369011646
 30
0.0
 11
368.9657807993
 21
84.4719402271
 31
0.0
  0
LINE
  5
114
330
1F
100
AcDbEntity
  8
ALLEN
  6
Continuous
370
    15
100
AcDbLine
 10
368.9657807993
 20
84.4719402271
 30
0.0
 11
368.7485151743
 21
83.7766902271
 31
0.0
  0
LINE
  5
115
330
1F
100
AcDbEntity
  8
ALLEN
  6
Continuous
370
    15
100
AcDbLine
 10
368.7485151743
 20
83.7766902271
 30
0.0
 11
368.6616089243
 21
83.7766902271
 31
0.0
  0
LINE
  5
116
330
1F
100
AcDbEntity
  8
ALLEN
  6
Continuous
370
    15
100
AcDbLine
 10
368.6616089243
 20
83.7766902271
 30
0.0
 11
368.6616089243
 21
83.6463308521
 31
0.0
  0
LINE
  5
117
330
1F
100
AcDbEntity
  8
ALLEN
  6
Continuous
370
    15
100
AcDbLine
 10
368.6616089243
 20
83.6463308521
 30
0.0
 11
368.5312495493
 21
83.3421589771
 31
0.0
  0
LINE
  5
118
330
1F
100
AcDbEntity
  8
ALLEN
  6
Continuous
370
    15
100
AcDbLine
 10
368.5312495493
 20
83.3421589771
 30
0.0
 11
368.4008901743
 21
83.1682761646
 31
0.0
  0
LINE
  5
119
330
1F
100
AcDbEntity
  8
ALLEN
  6
Continuous
370
    15
100
AcDbLine
 10
368.4008901743
 20
83.1682761646
 30
0.0
 11
368.2270776743
 21
83.0379167896
 31
0.0
  0
LINE
  5
11A
330
1F
100
AcDbEntity
  8
ALLEN
  6
Continuous
370
    15
100
AcDbLine
 10
368.2270776743
 20
83.0379167896
 30
0.0
 11
367.9663589243
 21
82.9075574146
 31
0.0
  0
LINE
  5
11B
330
1F
100
AcDbEntity
  8
ALLEN
  6
Continuous
370
    15
100
AcDbLine
 10
367.9663589243
 20
82.9075574146
 30
0.0
 11
367.6186636118
 21
82.8641042896
 31
0.0
  0
LINE
  5
11C
330
1F
100
AcDbEntity
  8
ALLEN
  6
Continuous
370
    15
100
AcDbLine
 10
367.6186636118
 20
82.8641042896
 30
0.0
 11
367.2710386118
 21
82.9075574146
 31
0.0
  0
LINE
  5
11D
330
1F
100
AcDbEntity
  8
ALLEN
  6
Continuous
370
    15
100
AcDbLine
 10
367.2710386118
 20
82.9075574146
 30
0.0
 11
367.0103198618
 21
83.0379167896
 31
0.0
  0
LINE
  5
11E
330
1F
100
AcDbEntity
  8
ALLEN
  6
Continuous
370
    15
100
AcDbLine
 10
367.0103198618
 20
83.0379167896
 30
0.0
 11
366.8365073618
 21
83.1682761646
 31
0.0
  0
LINE
  5
11F
330
1F
100
AcDbEntity
  8
ALLEN
  6
Continuous
370
    15
100
AcDbLine
 10
366.8365073618
 20
83.1682761646
 30
0.0
 11
366.7061479868
 21
83.3421589771
 31
0.0
  0
LINE
  5
120
330
1F
100
AcDbEntity
  8
ALLEN
  6
Continuous
370
    15
100
AcDbLine
 10
366.7061479868
 20
83.3421589771
 30
0.0
 11
366.6192417368
 21
83.6463308521
 31
0.0
  0
LINE
  5
121
330
1F
100
AcDbEntity
  8
ALLEN
  6
Continuous
370
    15
100
AcDbLine
 10
366.6192417368
 20
83.6463308521
 30
0.0
 11
366.5757886118
 21
83.7766902271
 31
0.0
  0
LINE
  5
122
330
1F
100
AcDbEntity
  8
ALLEN
  6
Continuous
370
    15
100
AcDbLine
 10
366.5757886118
 20
83.7766902271
 30
0.0
 11
366.4888823618
 21
83.7766902271
 31
0.0
  0
LINE
  5
123
330
1F
100
AcDbEntity
  8
ALLEN
  6
Continuous
370
    15
100
AcDbLine
 10
366.4888823618
 20
83.7766902271
 30
0.0
 11
366.3150698618
 21
84.4719402271
 31
0.0
  0
LINE
  5
124
330
1F
100
AcDbEntity
  8
ALLEN
  6
Continuous
370
    15
100
AcDbLine
 10
366.3150698618
 20
84.4719402271
 30
0.0
 11
366.1847104868
 21
85.0369011646
 31
0.0
  0
LINE
  5
125
330
1F
100
AcDbEntity
  8
ALLEN
  6
Continuous
370
    15
100
AcDbLine
 10
366.1847104868
 20
85.0369011646
 30
0.0
 11
366.0977339243
 21
85.5583386646
 31
0.0
  0
LINE
  5
126
330
1F
100
AcDbEntity
  8
ALLEN
  6
Continuous
370
    15
100
AcDbLine
 10
366.0977339243
 20
85.5583386646
 30
0.0
 11
366.1411870493
 21
85.9928699146
 31
0.0
  0
LINE
  5
127
330
1F
100
AcDbEntity
  8
ALLEN
  6
Continuous
370
    15
100
AcDbLine
 10
366.1411870493
 20
85.9928699146
 30
0.0
 11
366.1847104868
 21
86.3405652271
 31
0.0
  0
LINE
  5
128
330
1F
100
AcDbEntity
  8
ALLEN
  6
Continuous
370
    15
100
AcDbLine
 10
366.1847104868
 20
86.3405652271
 30
0.0
 11
366.2716167368
 21
86.6447371021
 31
0.0
  0
LINE
  5
129
330
1F
100
AcDbEntity
  8
ALLEN
  6
Continuous
370
    15
100
AcDbLine
 10
366.2716167368
 20
86.6447371021
 30
0.0
 11
366.5757886118
 21
87.0792683521
 31
0.0
  0
LINE
  5
12A
330
1F
100
AcDbEntity
  8
ALLEN
  6
Continuous
370
    15
100
AcDbLine
 10
366.5757886118
 20
87.0792683521
 30
0.0
 11
366.9234136118
 21
87.2965339771
 31
0.0
  0
LINE
  5
12B
330
1F
100
AcDbEntity
  8
ALLEN
  6
Continuous
370
    15
100
AcDbLine
 10
366.9234136118
 20
87.2965339771
 30
0.0
 11
367.2275854868
 21
87.4268933521
 31
0.0
  0
LINE
  5
12C
330
1F
100
AcDbEntity
  8
ALLEN
  6
Continuous
370
    15
100
AcDbLine
 10
367.2275854868
 20
87.4268933521
 30
0.0
 11
367.5752104868
 21
87.4268933521
 31
0.0
  0
LINE
  5
12D
330
1F
100
AcDbEntity
  8
ALLEN
  6
Continuous
370
    15
100
AcDbLine
 10
367.6186636118
 20
83.7766902271
 30
0.0
 11
368.4008901743
 21
83.7766902271
 31
0.0
  0
LINE
  5
12E
330
1F
100
AcDbEntity
  8
ALLEN
  6
Continuous
370
    15
100
AcDbLine
 10
368.4008901743
 20
83.7766902271
 30
0.0
 11
368.3574370493
 21
83.5594246021
 31
0.0
  0
LINE
  5
12F
330
1F
100
AcDbEntity
  8
ALLEN
  6
Continuous
370
    15
100
AcDbLine
 10
368.3574370493
 20
83.5594246021
 30
0.0
 11
368.2705307993
 21
83.3856121021
 31
0.0
  0
LINE
  5
130
330
1F
100
AcDbEntity
  8
ALLEN
  6
Continuous
370
    15
100
AcDbLine
 10
368.2705307993
 20
83.3856121021
 30
0.0
 11
368.0098120493
 21
83.1248230396
 31
0.0
  0
LINE
  5
131
330
1F
100
AcDbEntity
  8
ALLEN
  6
Continuous
370
    15
100
AcDbLine
 10
368.0098120493
 20
83.1248230396
 30
0.0
 11
367.7490932993
 21
83.0379167896
 31
0.0
  0
LINE
  5
132
330
1F
100
AcDbEntity
  8
ALLEN
  6
Continuous
370
    15
100
AcDbLine
 10
367.7490932993
 20
83.0379167896
 30
0.0
 11
367.6186636118
 21
83.0379167896
 31
0.0
  0
LINE
  5
133
330
1F
100
AcDbEntity
  8
ALLEN
  6
Continuous
370
    15
100
AcDbLine
 10
367.6186636118
 20
83.0379167896
 30
0.0
 11
367.4883042368
 21
83.0813699146
 31
0.0
  0
LINE
  5
134
330
1F
100
AcDbEntity
  8
ALLEN
  6
Continuous
370
    15
100
AcDbLine
 10
367.4883042368
 20
83.0813699146
 30
0.0
 11
367.2275854868
 21
83.1682761646
 31
0.0
  0
LINE
  5
135
330
1F
100
AcDbEntity
  8
ALLEN
  6
Continuous
370
    15
100
AcDbLine
 10
367.2275854868
 20
83.1682761646
 30
0.0
 11
366.9668667368
 21
83.3856121021
 31
0.0
  0
LINE
  5
136
330
1F
100
AcDbEntity
  8
ALLEN
  6
Continuous
370
    15
100
AcDbLine
 10
366.9668667368
 20
83.3856121021
 30
0.0
 11
366.8365073618
 21
83.5594246021
 31
0.0
  0
LINE
  5
137
330
1F
100
AcDbEntity
  8
ALLEN
  6
Continuous
370
    15
100
AcDbLine
 10
366.8365073618
 20
83.5594246021
 30
0.0
 11
366.7930542368
 21
83.7766902271
 31
0.0
  0
LINE
  5
138
330
1F
100
AcDbEntity
  8
ALLEN
  6
Continuous
370
    15
100
AcDbLine
 10
366.7930542368
 20
83.7766902271
 30
0.0
 11
367.6186636118
 21
83.7766902271
 31
0.0
  0
LINE
  5
139
330
1F
100
AcDbEntity
  8
ROCKWELL
  6
Continuous
 62
   216
370
    15
100
AcDbLine
 10
347.8785105569
 20
143.3902728278
 30
0.0
 11
347.8785105569
 21
141.3766648668
 31
0.0
  0
LINE
  5
13A
330
1F
100
AcDbEntity
  8
ROCKWELL
  6
Continuous
 62
   216
370
    15
100
AcDbLine
 10
347.8785105569
 20
143.3902728278
 30
0.0
 11
357.153166335
 21
145.6874021066
 31
0.0
  0
LINE
  5
13B
330
1F
100
AcDbEntity
  8
ROCKWELL
  6
CENTERX2
 62
   216
370
     0
100
AcDbLine
 10
341.5245368682
 20
138.573475346
 30
0.0
 11
341.5245368682
 21
146.3446921513
 31
0.0
  0
LINE
  5
13C
330
1F
100
AcDbEntity
  8
ROCKWELL
  6
Continuous
 62
   216
370
    15
100
AcDbLine
 10
347.8785105569
 20
141.3766648668
 30
0.0
 11
357.153166335
 21
139.079535588
 31
0.0
  0
LINE
  5
13D
330
1F
100
AcDbEntity
  8
ALLEN
  6
Continuous
370
    15
100
AcDbLine
 10
367.9663589243
 20
78.9531824146
 30
0.0
 11
368.0532651743
 21
78.9966355396
 31
0.0
  0
LINE
  5
13E
330
1F
100
AcDbEntity
  8
ALLEN
  6
Continuous
370
    15
100
AcDbLine
 10
368.0532651743
 20
78.9966355396
 30
0.0
 11
368.0532651743
 21
79.0400886646
 31
0.0
  0
LINE
  5
13F
330
1F
100
AcDbEntity
  8
ALLEN
  6
Continuous
370
    15
100
AcDbLine
 10
368.0532651743
 20
79.0400886646
 30
0.0
 11
368.0532651743
 21
79.1704480396
 31
0.0
  0
LINE
  5
140
330
1F
100
AcDbEntity
  8
ALLEN
  6
Continuous
370
    15
100
AcDbLine
 10
368.0532651743
 20
79.1704480396
 30
0.0
 11
367.9663589243
 21
79.1704480396
 31
0.0
  0
LINE
  5
141
330
1F
100
AcDbEntity
  8
ALLEN
  6
Continuous
370
    15
100
AcDbLine
 10
367.9663589243
 20
79.1704480396
 30
0.0
 11
367.8794526743
 21
79.1704480396
 31
0.0
  0
LINE
  5
142
330
1F
100
AcDbEntity
  8
ALLEN
  6
Continuous
370
    15
100
AcDbLine
 10
367.8794526743
 20
79.1704480396
 30
0.0
 11
367.8359995493
 21
79.0400886646
 31
0.0
  0
LINE
  5
143
330
1F
100
AcDbEntity
  8
ALLEN
  6
Continuous
370
    15
100
AcDbLine
 10
367.8359995493
 20
79.0400886646
 30
0.0
 11
367.8794526743
 21
78.9966355396
 31
0.0
  0
LINE
  5
144
330
1F
100
AcDbEntity
  8
ALLEN
  6
Continuous
370
    15
100
AcDbLine
 10
367.8794526743
 20
78.9966355396
 30
0.0
 11
367.9663589243
 21
78.9531824146
 31
0.0
  0
LINE
  5
145
330
1F
100
AcDbEntity
  8
ALLEN
  6
Continuous
370
    15
100
AcDbLine
 10
367.9663589243
 20
79.3877136646
 30
0.0
 11
368.0532651743
 21
79.4311667896
 31
0.0
  0
LINE
  5
146
330
1F
100
AcDbEntity
  8
ALLEN
  6
Continuous
370
    15
100
AcDbLine
 10
368.0532651743
 20
79.4311667896
 30
0.0
 11
368.0532651743
 21
79.5180730396
 31
0.0
  0
LINE
  5
147
330
1F
100
AcDbEntity
  8
ALLEN
  6
Continuous
370
    15
100
AcDbLine
 10
368.0532651743
 20
79.5180730396
 30
0.0
 11
368.0532651743
 21
79.6049792896
 31
0.0
  0
LINE
  5
148
330
1F
100
AcDbEntity
  8
ALLEN
  6
Continuous
370
    15
100
AcDbLine
 10
368.0532651743
 20
79.6049792896
 30
0.0
 11
367.9663589243
 21
79.6484324146
 31
0.0
  0
LINE
  5
149
330
1F
100
AcDbEntity
  8
ALLEN
  6
Continuous
370
    15
100
AcDbLine
 10
367.9663589243
 20
79.6484324146
 30
0.0
 11
367.8794526743
 21
79.6049792896
 31
0.0
  0
LINE
  5
14A
330
1F
100
AcDbEntity
  8
ALLEN
  6
Continuous
370
    15
100
AcDbLine
 10
367.8794526743
 20
79.6049792896
 30
0.0
 11
367.8359995493
 21
79.5180730396
 31
0.0
  0
LINE
  5
14B
330
1F
100
AcDbEntity
  8
ALLEN
  6
Continuous
370
    15
100
AcDbLine
 10
367.8359995493
 20
79.5180730396
 30
0.0
 11
367.8794526743
 21
79.4311667896
 31
0.0
  0
LINE
  5
14C
330
1F
100
AcDbEntity
  8
ALLEN
  6
Continuous
370
    15
100
AcDbLine
 10
367.8794526743
 20
79.4311667896
 30
0.0
 11
367.9663589243
 21
79.3877136646
 31
0.0
  0
LINE
  5
14D
330
1F
100
AcDbEntity
  8
ALLEN
  6
Continuous
370
    15
100
AcDbLine
 10
367.9663589243
 20
79.8222449146
 30
0.0
 11
368.0532651743
 21
79.8656980396
 31
0.0
  0
LINE
  5
14E
330
1F
100
AcDbEntity
  8
ALLEN
  6
Continuous
370
    15
100
AcDbLine
 10
368.0532651743
 20
79.8656980396
 30
0.0
 11
368.0532651743
 21
79.9526042896
 31
0.0
  0
LINE
  5
14F
330
1F
100
AcDbEntity
  8
ALLEN
  6
Continuous
370
    15
100
AcDbLine
 10
368.0532651743
 20
79.9526042896
 30
0.0
 11
368.0532651743
 21
80.0395105396
 31
0.0
  0
LINE
  5
150
330
1F
100
AcDbEntity
  8
ALLEN
  6
Continuous
370
    15
100
AcDbLine
 10
368.0532651743
 20
80.0395105396
 30
0.0
 11
367.9663589243
 21
80.0829636646
 31
0.0
  0
LINE
  5
151
330
1F
100
AcDbEntity
  8
ALLEN
  6
Continuous
370
    15
100
AcDbLine
 10
367.9663589243
 20
80.0829636646
 30
0.0
 11
367.8794526743
 21
80.0395105396
 31
0.0
  0
LINE
  5
152
330
1F
100
AcDbEntity
  8
ALLEN
  6
Continuous
370
    15
100
AcDbLine
 10
367.8794526743
 20
80.0395105396
 30
0.0
 11
367.8359995493
 21
79.9526042896
 31
0.0
  0
LINE
  5
153
330
1F
100
AcDbEntity
  8
ALLEN
  6
Continuous
370
    15
100
AcDbLine
 10
367.8359995493
 20
79.9526042896
 30
0.0
 11
367.8794526743
 21
79.8656980396
 31
0.0
  0
LINE
  5
154
330
1F
100
AcDbEntity
  8
ALLEN
  6
Continuous
370
    15
100
AcDbLine
 10
367.8794526743
 20
79.8656980396
 30
0.0
 11
367.9663589243
 21
79.8222449146
 31
0.0
  0
LINE
  5
155
330
1F
100
AcDbEntity
  8
ALLEN
  6
Continuous
370
    15
100
AcDbLine
 10
367.9663589243
 20
80.3002292896
 30
0.0
 11
368.0532651743
 21
80.3437527271
 31
0.0
  0
LINE
  5
156
330
1F
100
AcDbEntity
  8
ALLEN
  6
Continuous
370
    15
100
AcDbLine
 10
368.0532651743
 20
80.3437527271
 30
0.0
 11
368.0532651743
 21
80.4306589771
 31
0.0
  0
LINE
  5
157
330
1F
100
AcDbEntity
  8
ALLEN
  6
Continuous
370
    15
100
AcDbLine
 10
368.0532651743
 20
80.4306589771
 30
0.0
 11
368.0532651743
 21
80.5175652271
 31
0.0
  0
LINE
  5
158
330
1F
100
AcDbEntity
  8
ALLEN
  6
Continuous
370
    15
100
AcDbLine
 10
368.0532651743
 20
80.5175652271
 30
0.0
 11
367.9663589243
 21
80.5175652271
 31
0.0
  0
LINE
  5
159
330
1F
100
AcDbEntity
  8
ALLEN
  6
Continuous
370
    15
100
AcDbLine
 10
367.9663589243
 20
80.5175652271
 30
0.0
 11
367.8794526743
 21
80.5175652271
 31
0.0
  0
LINE
  5
15A
330
1F
100
AcDbEntity
  8
ALLEN
  6
Continuous
370
    15
100
AcDbLine
 10
367.8794526743
 20
80.5175652271
 30
0.0
 11
367.8359995493
 21
80.4306589771
 31
0.0
  0
LINE
  5
15B
330
1F
100
AcDbEntity
  8
ALLEN
  6
Continuous
370
    15
100
AcDbLine
 10
367.8359995493
 20
80.4306589771
 30
0.0
 11
367.8794526743
 21
80.3437527271
 31
0.0
  0
LINE
  5
15C
330
1F
100
AcDbEntity
  8
ALLEN
  6
Continuous
370
    15
100
AcDbLine
 10
367.8794526743
 20
80.3437527271
 30
0.0
 11
367.9663589243
 21
80.3002292896
 31
0.0
  0
LINE
  5
15D
330
1F
100
AcDbEntity
  8
ALLEN
  6
Continuous
370
    15
100
AcDbLine
 10
367.9663589243
 20
80.7348308521
 30
0.0
 11
368.0532651743
 21
80.7782839771
 31
0.0
  0
LINE
  5
15E
330
1F
100
AcDbEntity
  8
ALLEN
  6
Continuous
370
    15
100
AcDbLine
 10
368.0532651743
 20
80.7782839771
 30
0.0
 11
368.0532651743
 21
80.8651902271
 31
0.0
  0
LINE
  5
15F
330
1F
100
AcDbEntity
  8
ALLEN
  6
Continuous
370
    15
100
AcDbLine
 10
368.0532651743
 20
80.8651902271
 30
0.0
 11
368.0532651743
 21
80.9520964771
 31
0.0
  0
LINE
  5
160
330
1F
100
AcDbEntity
  8
ALLEN
  6
Continuous
370
    15
100
AcDbLine
 10
368.0532651743
 20
80.9520964771
 30
0.0
 11
367.9663589243
 21
80.9955496021
 31
0.0
  0
LINE
  5
161
330
1F
100
AcDbEntity
  8
ALLEN
  6
Continuous
370
    15
100
AcDbLine
 10
367.9663589243
 20
80.9955496021
 30
0.0
 11
367.8794526743
 21
80.9520964771
 31
0.0
  0
LINE
  5
162
330
1F
100
AcDbEntity
  8
ALLEN
  6
Continuous
370
    15
100
AcDbLine
 10
367.8794526743
 20
80.9520964771
 30
0.0
 11
367.8359995493
 21
80.8651902271
 31
0.0
  0
LINE
  5
163
330
1F
100
AcDbEntity
  8
ALLEN
  6
Continuous
370
    15
100
AcDbLine
 10
367.8359995493
 20
80.8651902271
 30
0.0
 11
367.8794526743
 21
80.7782839771
 31
0.0
  0
LINE
  5
164
330
1F
100
AcDbEntity
  8
ALLEN
  6
Continuous
370
    15
100
AcDbLine
 10
367.8794526743
 20
80.7782839771
 30
0.0
 11
367.9663589243
 21
80.7348308521
 31
0.0
  0
LINE
  5
165
330
1F
100
AcDbEntity
  8
ALLEN
  6
Continuous
370
    15
100
AcDbLine
 10
367.9663589243
 20
81.1693621021
 30
0.0
 11
368.0532651743
 21
81.2128152271
 31
0.0
  0
LINE
  5
166
330
1F
100
AcDbEntity
  8
ALLEN
  6
Continuous
370
    15
100
AcDbLine
 10
368.0532651743
 20
81.2128152271
 30
0.0
 11
368.0532651743
 21
81.2997214771
 31
0.0
  0
LINE
  5
167
330
1F
100
AcDbEntity
  8
ALLEN
  6
Continuous
370
    15
100
AcDbLine
 10
368.0532651743
 20
81.2997214771
 30
0.0
 11
368.0532651743
 21
81.3866277271
 31
0.0
  0
LINE
  5
168
330
1F
100
AcDbEntity
  8
ALLEN
  6
Continuous
370
    15
100
AcDbLine
 10
368.0532651743
 20
81.3866277271
 30
0.0
 11
367.9663589243
 21
81.4300808521
 31
0.0
  0
LINE
  5
169
330
1F
100
AcDbEntity
  8
ALLEN
  6
Continuous
370
    15
100
AcDbLine
 10
367.9663589243
 20
81.4300808521
 30
0.0
 11
367.8794526743
 21
81.3866277271
 31
0.0
  0
LINE
  5
16A
330
1F
100
AcDbEntity
  8
ALLEN
  6
Continuous
370
    15
100
AcDbLine
 10
367.8794526743
 20
81.3866277271
 30
0.0
 11
367.8359995493
 21
81.2997214771
 31
0.0
  0
LINE
  5
16B
330
1F
100
AcDbEntity
  8
ALLEN
  6
Continuous
370
    15
100
AcDbLine
 10
367.8359995493
 20
81.2997214771
 30
0.0
 11
367.8794526743
 21
81.2128152271
 31
0.0
  0
LINE
  5
16C
330
1F
100
AcDbEntity
  8
ALLEN
  6
Continuous
370
    15
100
AcDbLine
 10
367.8794526743
 20
81.2128152271
 30
0.0
 11
367.9663589243
 21
81.1693621021
 31
0.0
  0
LINE
  5
16D
330
1F
100
AcDbEntity
  8
ROCKWELL
  6
Continuous
 62
   216
370
    15
100
AcDbLine
 10
357.153166335
 20
139.079535588
 30
0.0
 11
357.153166335
 21
145.6874021066
 31
0.0
  0
LINE
  5
16E
330
1F
100
AcDbEntity
  8
ROCKWELL
  6
CENTERX2
 62
   216
370
     0
100
AcDbLine
 10
337.4107462109
 20
142.3834688473
 30
0.0
 11
345.7197887268
 21
142.3834688473
 31
0.0
  0
LINE
  5
16F
330
1F
100
AcDbEntity
  8
ROCKWELL
  6
CENTER
 62
   216
370
     0
100
AcDbLine
 10
346.9824373444
 20
142.3834688473
 30
0.0
 11
358.7332156083
 21
142.3834688473
 31
0.0
  0
ARC
  5
170
330
1F
100
AcDbEntity
  8
ALLEN
370
    30
100
AcDbCircle
 10
393.3964927536
 20
76.2429173554
 30
0.0
 40
0.2148457353637243
100
AcDbArc
 50
265.9623971445
 51
94.0376028555
  0
CIRCLE
  5
171
330
1F
100
AcDbEntity
  8
ALLEN
370
    30
100
AcDbCircle
 10
393.2742089675
 20
75.9542202475
 30
0.0
 40
1.339453124999929
  0
ARC
  5
172
330
1F
100
AcDbEntity
  8
ALLEN
370
    30
100
AcDbCircle
 10
388.7189996647
 20
70.1233959297
 30
0.0
 40
0.0133945312515962
100
AcDbArc
 50
124.3744375812
 51
245.3444304024
  0
ARC
  5
173
330
1F
100
AcDbEntity
  8
ALLEN
370
    30
100
AcDbCircle
 10
389.3663190793
 20
71.5047255265
 30
0.0
 40
2.340254986939591
100
AcDbArc
 50
20.7969840991
 51
320.2566898755
  0
ARC
  5
174
330
1F
100
AcDbEntity
  8
ALLEN
  6
CENTERX2
370
    30
100
AcDbCircle
 10
390.7432278021
 20
70.3625794396
 30
0.0
 40
0.276820312499902
100
AcDbArc
 50
45.0000000002
 51
141.0437047277
  0
ARC
  5
175
330
1F
100
AcDbEntity
  8
ALLEN
  6
CENTERX2
370
    30
100
AcDbCircle
 10
389.3469664682
 20
71.4914871954
 30
0.0
 40
1.518723736940143
100
AcDbArc
 50
245.3444304024
 51
321.0437047278
  0
ARC
  5
176
330
1F
100
AcDbEntity
  8
ALLEN
  6
CENTERX2
370
    30
100
AcDbCircle
 10
391.2953093615
 20
72.2373640098
 30
0.0
 40
0.2768203124386529
100
AcDbArc
 50
304.3744375814
 51
20.7969840991
  0
ARC
  5
177
330
1F
100
AcDbEntity
  8
ALLEN
  6
CENTERX2
370
    30
100
AcDbCircle
 10
390.9529280223
 20
70.1854701616
 30
0.0
 40
0.276820312500037
100
AcDbArc
 50
320.2566898755
 51
45.0
  0
ARC
  5
178
330
1F
100
AcDbEntity
  8
ALLEN
370
    30
100
AcDbCircle
 10
375.3434077417
 20
69.233060327
 30
0.0
 40
0.2143125000000623
100
AcDbArc
 50
180.0
 51
270.0
  0
ARC
  5
179
330
1F
100
AcDbEntity
  8
ALLEN
370
    30
100
AcDbCircle
 10
375.7329804872
 20
69.233060327
 30
0.0
 40
0.2143124999999912
100
AcDbArc
 50
270.0
 51
0.0
  0
ARC
  5
17A
330
1F
100
AcDbEntity
  8
ALLEN
370
    30
100
AcDbCircle
 10
374.2630746556
 20
72.1268101734
 30
0.0
 40
1.684218331528427
100
AcDbArc
 50
360.0
 51
135.753397118
  0
ARC
  5
17B
330
1F
100
AcDbEntity
  8
ALLEN
370
    30
100
AcDbCircle
 10
371.6822246064
 20
72.1268101734
 30
0.0
 40
1.684218331528427
100
AcDbArc
 50
44.246602882
 51
180.0
  0
ARC
  5
17C
330
1F
100
AcDbEntity
  8
ALLEN
370
    30
100
AcDbCircle
 10
370.2123187749
 20
69.233060327
 30
0.0
 40
0.2143125000000055
100
AcDbArc
 50
180.0
 51
270.0
  0
ARC
  5
17D
330
1F
100
AcDbEntity
  8
ALLEN
370
    30
100
AcDbCircle
 10
370.6018915203
 20
69.233060327
 30
0.0
 40
0.2143125000000623
100
AcDbArc
 50
270.0
 51
0.0
  0
ARC
  5
17E
330
1F
100
AcDbEntity
  8
ALLEN
370
    30
100
AcDbCircle
 10
371.6822246064
 20
72.1268101734
 30
0.0
 40
0.86602058608986
100
AcDbArc
 50
0.0
 51
180.0
  0
ARC
  5
17F
330
1F
100
AcDbEntity
  8
ALLEN
370
    30
100
AcDbCircle
 10
372.7625576925
 20
69.233060327
 30
0.0
 40
0.2143124999999912
100
AcDbArc
 50
180.0
 51
270.0
  0
ARC
  5
180
330
1F
100
AcDbEntity
  8
ALLEN
370
    30
100
AcDbCircle
 10
373.1827415696
 20
69.233060327
 30
0.0
 40
0.2143124999999912
100
AcDbArc
 50
270.0
 51
0.0
  0
ARC
  5
181
330
1F
100
AcDbEntity
  8
ALLEN
370
    30
100
AcDbCircle
 10
374.2630746556
 20
72.1268101734
 30
0.0
 40
0.86602058608986
100
AcDbArc
 50
0.0
 51
180.0
  0
ARC
  5
182
330
1F
100
AcDbEntity
  8
ALLEN
370
    30
100
AcDbCircle
 10
393.5420995925
 20
76.2714141639
 30
0.0
 40
0.4537063164049308
100
AcDbArc
 50
310.6216941279
 51
90.0
  0
ARC
  5
183
330
1F
100
AcDbEntity
  8
ALLEN
370
    30
100
AcDbCircle
 10
393.4023598277
 20
75.5821204804
 30
0.0
 40
0.1785937500000469
100
AcDbArc
 50
14.0362434679
 51
90.0
  0
ARC
  5
184
330
1F
100
AcDbEntity
  8
ALLEN
370
    30
100
AcDbCircle
 10
393.8467114241
 20
75.8664347875
 30
0.0
 40
0.0530447697637313
100
AcDbArc
 50
142.0988641746
 51
240.0617289561
  0
ARC
  5
185
330
1F
100
AcDbEntity
  8
ALLEN
370
    30
100
AcDbCircle
 10
393.8432158356
 20
75.7041766207
 30
0.0
 40
0.0892968750022963
100
AcDbArc
 50
11.1572581307
 51
59.6763594658
  0
ARC
  5
186
330
1F
100
AcDbEntity
  8
ROCKWELL
100
AcDbCircle
 10
372.972649631
 20
73.3837374687
 30
0.0
 40
0.1171875000000261
100
AcDbArc
 50
224.246602882
 51
315.7533971179
  0
CIRCLE
  5
187
330
1F
100
AcDbEntity
  8
ROCKWELL
  6
Continuous
 62
   216
370
    15
100
AcDbCircle
 10
341.5245368682
 20
142.3834688473
 30
0.0
 40
3.303933259287675
  0
CIRCLE
  5
188
330
1F
100
AcDbEntity
  8
ROCKWELL
  6
Continuous
 62
   216
370
    15
100
AcDbCircle
 10
341.5245368682
 20
142.3834688473
 30
0.0
 40
1.242218444429629
  0
SPLINE
  5
189
330
1F
100
AcDbEntity
  8
ALLEN
370
    30
100
AcDbSpline
210
0.0
220
0.0
230
1.0
 70
     8
 71
     3
 72
    11
 73
     7
 74
     0
 42
0.00000001
 43
0.00000001
 40
0.2197783937294019
 40
0.2197783937294019
 40
0.2197783937294019
 40
0.2197783937294019
 40
0.2235221643106046
 40
0.2235221643106046
 40
0.2235221643106046
 40
0.275048225476914
 40
0.275048225476914
 40
0.275048225476914
 40
0.275048225476914
 10
393.888300383161
 20
75.78125654965926
 30
0.0
 10
393.8867698289773
 20
75.78215178067202
 30
0.0
 10
393.8852329348799
 20
75.78303690051914
 30
0.0
 10
393.8836960407824
 20
75.78392202036623
 30
0.0
 10
393.862543542905
 20
75.79610405406511
 30
0.0
 10
393.8413910450275
 20
75.80828608776402
 30
0.0
 10
393.82023854715
 20
75.82046812146297
 30
0.0
  0
SPLINE
  5
18A
330
1F
100
AcDbEntity
  8
ALLEN
370
    30
100
AcDbSpline
210
0.0
220
0.0
230
1.0
 70
     8
 71
     3
 72
    11
 73
     7
 74
     0
 42
0.00000001
 43
0.00000001
 40
0.3385478118675992
 40
0.3385478118675992
 40
0.3385478118675992
 40
0.3385478118675992
 40
0.3413160711498654
 40
0.3413160711498654
 40
0.3413160711498654
 40
0.3688056747150725
 40
0.3688056747150725
 40
0.3688056747150725
 40
0.3688056747150725
 10
393.8048552864941
 20
75.89902023423163
 30
0.0
 10
393.8058458051244
 20
75.89989632604144
 30
0.0
 10
393.8068412037509
 20
75.9007501398271
 30
0.0
 10
393.8078366023773
 20
75.90160395361272
 30
0.0
 10
393.8177211944033
 20
75.9100825678227
 30
0.0
 10
393.8276057864308
 20
75.91856118203239
 30
0.0
 10
393.837490378458
 20
75.92703979624234
 30
0.0
  0
LWPOLYLINE
  5
18B
330
1F
100
AcDbEntity
  8
ALLEN
370
    30
100
AcDbPolyline
 90
      145
 70
   128
 43
0.0
 10
344.4688815321
 20
71.2357762454
 10
344.2883300441
 20
71.5666186645
 10
344.1592652859
 20
71.9141904953
 10
344.0900791274
 20
72.2803029891
 10
344.0798290156
 20
72.6569431488
 10
344.120948536
 20
73.0291456002
 10
344.208098016
 20
73.3863978052
 10
344.3404237538
 20
73.7269023845
 10
344.5203704482
 20
74.0521593967
 10
344.7040516028
 20
74.3065501187
 10
344.8852913417
 20
74.521784714
 10
345.1261249339
 20
74.7068894118
 10
345.3797117307
 20
74.8610768388
 10
345.6491341517
 20
75.0083844181
 10
345.9196623364
 20
75.107373847
 10
346.2147591485
 20
75.1785680131
 10
346.5076939485
 20
75.2232196833
 10
346.8025874916
 20
75.2341399708
 10
347.1092859563
 20
75.2094248188
 10
347.2716218843
 20
75.1947095995
 10
347.423363296
 20
75.1565128549
 10
347.578612129
 20
75.0996003913
 10
347.6418731618
 20
75.0767698364
 10
347.700313799
 20
75.0553764723
 10
347.7296506965
 20
75.0446477108
 10
347.7824534209
 20
75.0277181264
 10
347.860792233
 20
75.0200954218
 10
347.9519078875
 20
75.0471013675
 10
348.030518002
 20
75.1128797097
 10
348.07586244
 20
75.2035734568
 10
348.0925440005
 20
75.2754483517
 10
348.0919391618
 20
75.3102236217
 10
348.0879850157
 20
75.3680213756
 10
348.0899902175
 20
75.4375022811
 10
348.0888281522
 20
75.4896459159
 10
348.089084303
 20
75.5415753223
 10
348.0947921246
 20
75.5998177826
 10
348.0901967017
 20
75.6711303478
 10
348.0515743431
 20
75.7612229918
 10
347.9943014475
 20
75.8405319585
 10
347.9297695714
 20
75.9033921097
 10
347.8703897364
 20
75.9361597145
 10
347.7936705171
 20
75.951642944
 10
347.7280737609
 20
75.9659658118
 10
347.5618821639
 20
76.0170824736
 10
347.3813701274
 20
76.0553139286
 10
347.1925765414
 20
76.0785837826
 10
346.7831051657
 20
76.1119728611
 10
346.3826970823
 20
76.0939069157
 10
345.9513713588
 20
76.0318170556
 10
345.5597109438
 20
75.89814634
 10
345.1753373619
 20
75.7394456771
 10
344.8229428448
 20
75.5300972916
 10
344.4883688424
 20
75.2935028845
 10
344.2391872594
 20
75.0815404525
 10
344.0227215161
 20
74.8261152516
 10
343.8334725256
 20
74.5790491438
 10
343.6655183576
 20
74.3038120459
 10
343.5187571592
 20
74.00960034
 10
343.3945103348
 20
73.7184210215
 10
343.2714585316
 20
73.3479819831
 10
343.2137480026
 20
72.9568760318
 10
343.2086776522
 20
72.5830898897
 10
343.2230197023
 20
72.1890905718
 10
343.2796244083
 20
71.7967240561
 10
343.3872794665
 20
71.4481013842
 10
343.5373289151
 20
71.1183820783
 10
343.7129520686
 20
70.8035760972
 10
343.9083256929
 20
70.5035462458
 10
344.1346726028
 20
70.2241272405
 10
344.4028070021
 20
69.9714606142
 10
344.7017469407
 20
69.7492827295
 10
345.0064484338
 20
69.5597782266
 10
345.3235117775
 20
69.3924024781
 10
345.6564561572
 20
69.2572337361
 10
346.0123928081
 20
69.1561593508
 10
346.3764048965
 20
69.1090138654
 10
346.6505914309
 20
69.096740735
 10
346.9215741572
 20
69.0927754267
 10
347.1798314351
 20
69.1082814426
 10
347.4597479025
 20
69.1529591356
 10
347.6440618205
 20
69.1979170548
 10
347.8087654079
 20
69.2505623102
 10
347.9784613753
 20
69.2983516614
 10
348.0595173249
 20
69.3351272864
 10
348.1567619685
 20
69.4143597927
 10
348.2265843194
 20
69.520768923
 10
348.2488452169
 20
69.6297183698
 10
348.2513732251
 20
69.713744299
 10
348.2508804698
 20
69.7745696223
 10
348.2505356593
 20
69.8367510838
 10
348.2507245925
 20
69.9038898718
 10
348.2507014732
 20
70.4893082247
 10
348.25073449
 20
71.0755456808
 10
348.2504534009
 20
71.5914050984
 10
348.2513583118
 20
71.8172368232
 10
348.2496004616
 20
71.9082917387
 10
348.2507245925
 20
71.9961651293
 10
348.2572745684
 20
72.033411161
 10
348.2575024023
 20
72.0829510349
 10
348.238214957
 20
72.1641545994
 10
348.1864737366
 20
72.2656776041
 10
348.0988276669
 20
72.3377194203
 10
348.0072783233
 20
72.365187363
 10
347.9414722875
 20
72.3675090477
 10
347.9012202185
 20
72.3674329804
 10
347.8586443405
 20
72.3673860494
 10
347.8132681308
 20
72.3674185882
 10
347.7720956978
 20
72.367427718
 10
347.7345616106
 20
72.367389039
 10
347.6883676518
 20
72.367399794
 10
347.6211821951
 20
72.3657484042
 10
347.5322594096
 20
72.3398327275
 10
347.4426559177
 20
72.268923859
 10
347.3844284867
 20
72.1555737044
 10
347.3738508896
 20
72.0767604725
 10
347.377362761
 20
72.0245015557
 10
347.3769417317
 20
71.9759956111
 10
347.3752653864
 20
71.928428778
 10
347.3744213414
 20
71.880243212
 10
347.3759522307
 20
71.6489250264
 10
347.3763727631
 20
70.7682453887
 10
347.3758887762
 20
70.5762894724
 10
347.3745425554
 20
70.3870714158
 10
347.3788251975
 20
70.2045996583
 10
347.3790665895
 20
70.139927332
 10
347.3748759455
 20
70.0924553756
 10
347.3664860495
 20
70.0696466559
 10
347.3559472299
 20
70.0573178916
 10
347.3348905519
 20
70.0431552588
 10
347.2815119885
 20
70.0309662951
 10
347.1951958485
 20
70.0198517249
 10
347.0971294655
 20
70.0086565769
 10
346.8669339266
 20
69.9779815255
 10
346.6614629833
 20
69.9633033476
 10
346.3637214303
 20
69.9832267314
 10
346.0780659194
 20
70.0471942289
 10
345.7853028598
 20
70.1345003844
 10
345.5713783988
 20
70.2302138428
 10
345.3393920231
 20
70.3633558124
 10
345.1284276145
 20
70.5040669687
 10
344.9232001951
 20
70.649535497
 10
344.7570355415
 20
70.8211819685
 10
344.6129623857
 20
71.0213411459
 10
344.4688815321
 20
71.2357762454
  0
LWPOLYLINE
  5
18C
330
1F
100
AcDbEntity
  8
ALLEN
370
    30
100
AcDbPolyline
 90
      128
 70
   128
 43
0.0
 10
349.90986053
 20
70.4350486054
 10
349.7336892882
 20
70.6677008806
 10
349.6604251089
 20
70.8840929053
 10
349.6078920889
 20
71.1703814682
 10
349.5883368893
 20
71.4469581218
 10
349.5916673009
 20
71.7347787468
 10
349.5900245931
 20
72.3139524402
 10
349.5901777175
 20
72.8907365509
 10
349.5898514297
 20
73.1370124264
 10
349.5901777175
 20
73.3824865737
 10
349.5895837605
 20
73.4139497771
 10
349.5895095112
 20
73.4447752568
 10
349.5907453125
 20
73.4741263072
 10
349.589381083
 20
73.514918434
 10
349.5734976192
 20
73.5875626155
 10
349.5294470533
 20
73.6612135854
 10
349.4636890774
 20
73.7166869703
 10
349.3961227538
 20
73.7512379749
 10
349.3163317214
 20
73.7650781395
 10
349.2571219853
 20
73.7581287256
 10
349.202735418
 20
73.7546061833
 10
349.1537605325
 20
73.7556621591
 10
349.112192004
 20
73.7604642304
 10
349.0797463906
 20
73.7649384587
 10
349.0255723976
 20
73.7602230655
 10
348.9343878387
 20
73.7349846985
 10
348.8630288354
 20
73.6954869987
 10
348.8109926095
 20
73.633991447
 10
348.7818170066
 20
73.5609566667
 10
348.7687130614
 20
73.4960454817
 10
348.7657974943
 20
73.4366430362
 10
348.7697836744
 20
73.3988549791
 10
348.7709670292
 20
73.353095355
 10
348.7700539678
 20
73.3012828916
 10
348.7686464675
 20
73.2480463966
 10
348.7690585176
 20
73.0033018582
 10
348.7686464675
 20
72.7562963739
 10
348.7686535629
 20
72.4258354814
 10
348.7686031017
 20
72.0954513213
 10
348.7644000508
 20
71.7718416344
 10
348.7691180835
 20
71.4335448808
 10
348.8019216629
 20
71.0779263476
 10
348.8443399843
 20
70.8657480139
 10
348.8863670244
 20
70.6459472213
 10
348.9493084219
 20
70.4182278865
 10
349.0672792405
 20
70.2081541792
 10
349.1879772542
 20
70.0183923685
 10
349.313455502
 20
69.8382446744
 10
349.4474644667
 20
69.7005620496
 10
349.5961282063
 20
69.5781523082
 10
349.7355782147
 20
69.4829941568
 10
349.8709467487
 20
69.3950627268
 10
350.0223773809
 20
69.2998984772
 10
350.2647500133
 20
69.2103599892
 10
350.4775696711
 20
69.1665565624
 10
350.699527545
 20
69.1183947691
 10
350.971951278
 20
69.1006111248
 10
351.2370187564
 20
69.1470998305
 10
351.4760568488
 20
69.190861021
 10
351.7397434385
 20
69.2743628978
 10
351.9885417247
 20
69.4024248487
 10
352.1868712384
 20
69.5393944897
 10
352.3488422145
 20
69.6511737416
 10
352.5107149164
 20
69.8115427231
 10
352.6229941458
 20
69.9763823895
 10
352.7233439122
 20
70.1250706436
 10
352.8299077401
 20
70.282074513
 10
352.9261822005
 20
70.4927128948
 10
352.9805083721
 20
70.6761736711
 10
353.0438354476
 20
71.0198934948
 10
353.0727557122
 20
71.3641199673
 10
353.0767247553
 20
71.6942625231
 10
353.0727558425
 20
72.0198005332
 10
353.072880787
 20
72.8457229919
 10
353.0731814855
 20
73.2088627523
 10
353.0735599388
 20
73.2559501427
 10
353.0733339496
 20
73.3038592996
 10
353.0720716009
 20
73.3531760436
 10
353.0719166093
 20
73.4009879253
 10
353.0762440826
 20
73.4433648921
 10
353.0718067424
 20
73.5052242345
 10
353.0541386556
 20
73.5697813744
 10
353.0198677616
 20
73.6408570635
 10
352.9655937131
 20
73.6998672455
 10
352.8959140144
 20
73.7370967827
 10
352.8086003638
 20
73.7600278944
 10
352.7552395553
 20
73.7637395066
 10
352.7202347778
 20
73.7604642304
 10
352.6731440125
 20
73.759894353
 10
352.6206356489
 20
73.7603830877
 10
352.5707825419
 20
73.7599678444
 10
352.529832792
 20
73.7625852908
 10
352.4713301688
 20
73.7603369789
 10
352.3955194656
 20
73.745002722
 10
352.312061915
 20
73.7058939905
 10
352.2475160175
 20
73.6344485956
 10
352.208988141
 20
73.5500580413
 10
352.1940093553
 20
73.4840135959
 10
352.1976464675
 20
73.4192428357
 10
352.1984146909
 20
73.3583465434
 10
352.1967881399
 20
73.2956664088
 10
352.1974622575
 20
72.9273918676
 10
352.1967762691
 20
72.1907394428
 10
352.1957566187
 20
71.9164623148
 10
352.1987965108
 20
71.6378936656
 10
352.1972016279
 20
71.3651827038
 10
352.1824331439
 20
71.2182949094
 10
352.1603118667
 20
71.0671055558
 10
352.1348829792
 20
70.9036070764
 10
352.1020954173
 20
70.7632938891
 10
352.0366961577
 20
70.646062807
 10
351.9252336512
 20
70.4982339643
 10
351.8249199615
 20
70.3724928883
 10
351.6976947259
 20
70.2550808182
 10
351.583245879
 20
70.1701264662
 10
351.4826015804
 20
70.0998328752
 10
351.3958709561
 20
70.053502104
 10
351.2541030359
 20
70.0242562223
 10
351.0910874472
 20
69.9924980576
 10
350.955191344
 20
69.9703649753
 10
350.8450133203
 20
69.9706950994
 10
350.7109281954
 20
69.995480586
 10
350.5596358623
 20
70.0256245291
 10
350.4391713777
 20
70.0546839343
 10
350.3066338992
 20
70.1232978702
 10
350.1539145129
 20
70.2281598187
 10
350.010803702
 20
70.3259441179
 10
349.90986053
 20
70.4350486054
  0
LWPOLYLINE
  5
18D
330
1F
100
AcDbEntity
  8
ALLEN
370
    30
100
AcDbPolyline
 90
      148
 70
   128
 43
0.0
 10
353.7166587286
 20
72.6303071124
 10
353.5658713628
 20
72.3468482125
 10
353.4725838769
 20
72.0376619589
 10
353.4117458714
 20
71.7257489263
 10
353.3815644347
 20
71.4000972792
 10
353.3895254783
 20
71.2157624638
 10
353.4192907204
 20
71.0378449011
 10
353.4612636622
 20
70.8581952274
 10
353.4969544673
 20
70.6904212713
 10
353.5645110494
 20
70.4952358764
 10
353.6692877477
 20
70.329322904
 10
353.7672769997
 20
70.1865268391
 10
353.8934034771
 20
69.9908033755
 10
354.0623627672
 20
69.7815716245
 10
354.2540000099
 20
69.6006067556
 10
354.4680054616
 20
69.4465925531
 10
354.6800985982
 20
69.3224150556
 10
354.9412141636
 20
69.2145141033
 10
355.1805114216
 20
69.1588702601
 10
355.4286583057
 20
69.1150219307
 10
355.6939419223
 20
69.0884545803
 10
355.9548228951
 20
69.1191504564
 10
356.1590380718
 20
69.1490625872
 10
356.3659976816
 20
69.1928644545
 10
356.5771743633
 20
69.2736212677
 10
356.6734128882
 20
69.3167065006
 10
356.760921305
 20
69.3571426048
 10
356.8527947758
 20
69.3989032734
 10
356.9156288238
 20
69.4294316518
 10
356.9816234457
 20
69.4799030103
 10
357.0378647415
 20
69.5574459066
 10
357.0851147346
 20
69.6848636868
 10
357.0911152175
 20
69.7875014017
 10
357.0901855401
 20
69.9053746771
 10
357.0916380777
 20
70.0134915535
 10
357.0920894914
 20
70.0495225516
 10
357.0913901505
 20
70.0848195032
 10
357.0897685317
 20
70.1189147438
 10
357.0937707882
 20
70.1591118798
 10
357.085200354
 20
70.2233960442
 10
357.0486925636
 20
70.2923763758
 10
356.9943273772
 20
70.3594498295
 10
356.9511391158
 20
70.3907930986
 10
356.8863520836
 20
70.4091808729
 10
356.8106751166
 20
70.4098959655
 10
356.7531341739
 20
70.3868950335
 10
356.7269249022
 20
70.3686711004
 10
356.698925019
 20
70.3492910234
 10
356.5115343394
 20
70.218030654
 10
356.3618137427
 20
70.1214355854
 10
356.1961714977
 20
70.0709942568
 10
355.9995019073
 20
70.0256089667
 10
355.8058060208
 20
69.9813077504
 10
355.6470728041
 20
69.9710580733
 10
355.455292291
 20
70.00182998
 10
355.2562016742
 20
70.0350117534
 10
355.1028227752
 20
70.0791051233
 10
354.950265319
 20
70.1810181352
 10
354.7849128333
 20
70.2967648752
 10
354.6446634686
 20
70.4051629766
 10
354.541475655
 20
70.5469404559
 10
354.4102594962
 20
70.7443580518
 10
354.3326456811
 20
70.9241415603
 10
354.2953053473
 20
71.1583214681
 10
354.2629957339
 20
71.3811997695
 10
354.2820162661
 20
71.5923114504
 10
354.3058854559
 20
71.7621226221
 10
354.3357043464
 20
71.9273792791
 10
354.3841198401
 20
72.0612921866
 10
354.4616835104
 20
72.1960475431
 10
354.5519039154
 20
72.3484531194
 10
354.6353802735
 20
72.4738779468
 10
354.7368596727
 20
72.5527626462
 10
354.8808023167
 20
72.6389817712
 10
355.0264582516
 20
72.7277865065
 10
355.1575814673
 20
72.7901788922
 10
355.3019899616
 20
72.8315582553
 10
355.4348145352
 20
72.8642668281
 10
355.5675528486
 20
72.8983323097
 10
355.6762928614
 20
72.920297837
 10
355.7722660977
 20
72.9187508669
 10
355.9375218703
 20
72.8794971204
 10
356.1155419538
 20
72.8344386142
 10
356.2700725254
 20
72.7920984482
 10
356.4069855698
 20
72.7187059277
 10
356.5562366068
 20
72.6178008682
 10
356.69057988
 20
72.5255261491
 10
356.7904050117
 20
72.4238769982
 10
356.8896176972
 20
72.2806172064
 10
356.9913237954
 20
72.1358320108
 10
357.0835078345
 20
71.9698198921
 10
357.1209611452
 20
71.7657017762
 10
357.1596979755
 20
71.5425856939
 10
357.181156364
 20
71.3185141279
 10
357.1812583856
 20
71.096594314
 10
357.1795428068
 20
70.8687913832
 10
357.1804120925
 20
70.636715958
 10
357.1800559066
 20
69.9554921271
 10
357.180224085
 20
69.6148664726
 10
357.1802949459
 20
69.5297315876
 10
357.182306926
 20
69.4450406599
 10
357.1762830845
 20
69.4006178727
 10
357.1736548919
 20
69.3475732956
 10
357.1953491116
 20
69.2745107173
 10
357.2532720298
 20
69.1836800228
 10
357.3436877252
 20
69.1060234328
 10
357.4414757794
 20
69.0820374216
 10
357.4982113341
 20
69.0811324365
 10
357.5386772579
 20
69.0812005968
 10
357.5854078038
 20
69.0808620978
 10
357.6322097731
 20
69.082205703
 10
357.6770498979
 20
69.0837083415
 10
357.7232819127
 20
69.0796637594
 10
357.7771738718
 20
69.0738431176
 10
357.8504777701
 20
69.0903873257
 10
357.9296845092
 20
69.1361941473
 10
358.0041025036
 20
69.2055453182
 10
358.0472055734
 20
69.287733787
 10
358.0554905751
 20
69.3615798117
 10
358.0555214675
 20
69.4132943048
 10
358.0553695255
 20
69.4612658755
 10
358.0555214675
 20
69.5142135205
 10
358.0554870628
 20
69.6651134727
 10
358.0555214675
 20
69.8169711674
 10
358.0553942885
 20
70.27098536
 10
358.0566066089
 20
70.7258683656
 10
358.0599727219
 20
71.1856638369
 10
358.0346915525
 20
71.6475102248
 10
357.9868360045
 20
71.9175306725
 10
357.9298163902
 20
72.172323426
 10
357.8006745472
 20
72.4599891543
 10
357.6527436181
 20
72.6739634714
 10
357.5093753639
 20
72.8898451861
 10
357.3087093647
 20
73.1114872657
 10
357.0874366312
 20
73.2746135096
 10
356.8508851606
 20
73.4444943456
 10
356.5282017653
 20
73.6152615554
 10
356.2323075469
 20
73.6842106571
 10
355.9164300824
 20
73.7365152723
 10
355.5880182876
 20
73.7424144678
 10
355.2649167378
 20
73.6958719529
 10
355.0114023108
 20
73.6457374958
 10
354.7214958744
 20
73.5354806039
 10
354.5045345278
 20
73.3814766531
 10
354.2906672543
 20
73.2386734844
 10
354.0704132094
 20
73.06963706
 10
353.8803660168
 20
72.8635866859
 10
353.7166587286
 20
72.6303071124
  0
LWPOLYLINE
  5
18E
330
1F
100
AcDbEntity
  8
ALLEN
370
    30
100
AcDbPolyline
 90
       87
 70
   128
 43
0.0
 10
358.5198652175
 20
72.0212244433
 10
358.5132682049
 20
71.6506613721
 10
358.5210417679
 20
71.297487144
 10
358.5209824216
 20
70.9348838584
 10
358.5197117447
 20
70.5705871421
 10
358.5201154329
 20
69.8447050995
 10
358.5196367445
 20
69.7257333494
 10
358.5198652175
 20
69.6039794929
 10
358.5212056165
 20
69.4779177833
 10
358.5195795241
 20
69.4389017093
 10
358.5176588976
 20
69.4007152615
 10
358.5231662622
 20
69.3331638765
 10
358.5517596247
 20
69.2329939007
 10
358.6271361427
 20
69.1443655117
 10
358.7286038189
 20
69.0917258774
 10
358.8032962785
 20
69.0765411982
 10
358.8527023772
 20
69.0813079804
 10
358.9155193384
 20
69.0847093998
 10
358.9768791984
 20
69.082743603
 10
359.0308382893
 20
69.0811244354
 10
359.0944268723
 20
69.0813079804
 10
359.1628024404
 20
69.0844911295
 10
359.2443232326
 20
69.111882574
 10
359.3232154771
 20
69.1793729441
 10
359.3787304744
 20
69.2636431236
 10
359.3967902421
 20
69.337135027
 10
359.3949745925
 20
69.3945444373
 10
359.3952753972
 20
69.5145596176
 10
359.3947759684
 20
69.6368279837
 10
359.3950287001
 20
69.7569794436
 10
359.3949745925
 20
69.8779934274
 10
359.3949745925
 20
70.5225920808
 10
359.3949745925
 20
71.1671907343
 10
359.3965345138
 20
71.4365948492
 10
359.3962746207
 20
71.7089587215
 10
359.392286732
 20
71.9868629448
 10
359.4059659703
 20
72.2353201103
 10
359.4178644493
 20
72.3218696408
 10
359.4303885462
 20
72.4088494378
 10
359.4373056004
 20
72.4559961371
 10
359.4462385356
 20
72.4864583089
 10
359.4685324371
 20
72.5213408596
 10
359.5089258504
 20
72.5728725671
 10
359.5750659736
 20
72.6538435809
 10
359.6406677291
 20
72.719193712
 10
359.7543991919
 20
72.7888695312
 10
359.8555925541
 20
72.843399664
 10
359.9732534102
 20
72.8858391127
 10
360.0037470514
 20
72.8964214484
 10
360.0325833804
 20
72.906186621
 10
360.0576091849
 20
72.9134214881
 10
360.0924843278
 20
72.9258472151
 10
360.1584015129
 20
72.9627483946
 10
360.2141684289
 20
73.0299828518
 10
360.2471041939
 20
73.1311547036
 10
360.2522977527
 20
73.1974751322
 10
360.2522631531
 20
73.2469515673
 10
360.2524493342
 20
73.2916300753
 10
360.2520669613
 20
73.3379095529
 10
360.2506487488
 20
73.3859732724
 10
360.2544004001
 20
73.4240749619
 10
360.2576018875
 20
73.4644410068
 10
360.2466785779
 20
73.5181930228
 10
360.2178685278
 20
73.595768995
 10
360.1684328368
 20
73.6707938801
 10
360.0971045501
 20
73.7167890696
 10
360.0163954235
 20
73.7320736309
 10
359.9477067034
 20
73.7309651327
 10
359.87106287
 20
73.715855042
 10
359.7964779102
 20
73.7004841942
 10
359.7193743486
 20
73.6877629333
 10
359.6416262324
 20
73.6703841512
 10
359.550390628
 20
73.6400548648
 10
359.4566562004
 20
73.5994200596
 10
359.3788105646
 20
73.5552049047
 10
359.2639908866
 20
73.4748406025
 10
359.1433239974
 20
73.3957082083
 10
359.0140399779
 20
73.3000571357
 10
358.916822215
 20
73.1932705649
 10
358.8396109775
 20
73.0904206514
 10
358.7675907432
 20
72.9981796392
 10
358.6914481023
 20
72.8908732366
 10
358.6290752694
 20
72.7423508503
 10
358.5889180801
 20
72.6011671262
 10
358.5591268621
 20
72.4206226512
 10
358.5382630231
 20
72.2292090363
 10
358.5198652175
 20
72.0212244433
  0
LWPOLYLINE
  5
18F
330
1F
100
AcDbEntity
  8
ALLEN
370
    30
100
AcDbPolyline
 90
      168
 70
   128
 43
0.0
 10
361.6026784861
 20
72.5574577411
 10
361.7725820286
 20
72.6593712193
 10
361.9348514613
 20
72.7557423808
 10
362.098444212
 20
72.8192037477
 10
362.2459287764
 20
72.8591730573
 10
362.3982720648
 20
72.9016121594
 10
362.5190868091
 20
72.9212449218
 10
362.6312122016
 20
72.9102705892
 10
362.773214041
 20
72.8774111266
 10
362.9260673091
 20
72.8421722141
 10
363.0625213634
 20
72.8094876338
 10
363.1721058834
 20
72.7656995311
 10
363.283403833
 20
72.6851885774
 10
363.4054647835
 20
72.5872371775
 10
363.4658695837
 20
72.5405420575
 10
363.4903032908
 20
72.5221538245
 10
363.5016915905
 20
72.5045134444
 10
363.5146321976
 20
72.4889139153
 10
363.5597561313
 20
72.4664068723
 10
363.6484218771
 20
72.4417549181
 10
363.7348081194
 20
72.4526552756
 10
363.8021617829
 20
72.4923751347
 10
363.8547947354
 20
72.5450946251
 10
363.8873406746
 20
72.6201783239
 10
363.900330844
 20
72.6766505353
 10
363.8954790495
 20
72.7199904685
 10
363.8947445528
 20
72.763577997
 10
363.8959831317
 20
72.8100643852
 10
363.8953310736
 20
72.8541048444
 10
363.8952147855
 20
72.8994432831
 10
363.895682669
 20
72.9845997965
 10
363.8954622772
 20
73.0759817872
 10
363.8906094776
 20
73.160298971
 10
363.8615012064
 20
73.2560615261
 10
363.7946099672
 20
73.3488042728
 10
363.7165527806
 20
73.4196145333
 10
363.6554304353
 20
73.4560560031
 10
363.6051342758
 20
73.4760453699
 10
363.5536270832
 20
73.5001177637
 10
363.4993668295
 20
73.528929093
 10
363.3456325525
 20
73.6052293613
 10
363.1782592672
 20
73.6584643013
 10
363.0087882866
 20
73.6870031599
 10
362.7750352175
 20
73.7229651705
 10
362.5205457154
 20
73.7548543694
 10
362.2610949247
 20
73.739082264
 10
362.0170544171
 20
73.6920327277
 10
361.7841600371
 20
73.6343882393
 10
361.5260590093
 20
73.5429386301
 10
361.3853676364
 20
73.4677777785
 10
361.2446142698
 20
73.3741779909
 10
361.1013566345
 20
73.2732955004
 10
360.9801510898
 20
73.1788207279
 10
360.8438740283
 20
73.0368871712
 10
360.7643441365
 20
72.9202704421
 10
360.7033435423
 20
72.8164225579
 10
360.6392497174
 20
72.7138454846
 10
360.5724871318
 20
72.6081209932
 10
360.5036041279
 20
72.4948717451
 10
360.3677511083
 20
72.2359380578
 10
360.2766552344
 20
71.9768327554
 10
360.2083273924
 20
71.6924784972
 10
360.1937665529
 20
71.4098096341
 10
360.2117400782
 20
71.1242644148
 10
360.2831021913
 20
70.8427476811
 10
360.3771828412
 20
70.584163163
 10
360.4808980101
 20
70.3341136036
 10
360.5871072993
 20
70.108844239
 10
360.7330416746
 20
69.9218974168
 10
360.9128548475
 20
69.7374632123
 10
361.1038441502
 20
69.5893361032
 10
361.201753601
 20
69.5264299389
 10
361.2951257785
 20
69.4661357429
 10
361.3824532824
 20
69.4028504758
 10
361.4788203184
 20
69.3343320391
 10
361.6113657992
 20
69.2626814732
 10
361.7452743732
 20
69.2150713878
 10
362.0386885998
 20
69.151994228
 10
362.3511618551
 20
69.1027557032
 10
362.6703829414
 20
69.0994372122
 10
362.8186387921
 20
69.1140173163
 10
362.9640422348
 20
69.1376254562
 10
363.107855523
 20
69.1676695747
 10
363.2516094468
 20
69.2013666261
 10
363.4001711593
 20
69.2455777425
 10
363.5914503034
 20
69.3567510121
 10
363.7303594101
 20
69.4554134964
 10
363.8753639793
 20
69.556704574
 10
364.0312570942
 20
69.6622796802
 10
364.18110021
 20
69.7947036457
 10
364.3426856021
 20
70.002463797
 10
364.471741106
 20
70.190338193
 10
364.6094997717
 20
70.3918453946
 10
364.7447431111
 20
70.6528490393
 10
364.8380691258
 20
70.9151653491
 10
364.8625685932
 20
71.2270740217
 10
364.8593984933
 20
71.4848017923
 10
364.8606453571
 20
71.7541822497
 10
364.8599433425
 20
72.0183819564
 10
364.8599433425
 20
72.9643947555
 10
364.8599433425
 20
73.9104075547
 10
364.8599957377
 20
74.9697314256
 10
364.8605860706
 20
75.4335761618
 10
364.8603479833
 20
75.5370877538
 10
364.8588459548
 20
75.6456350004
 10
364.8598103431
 20
75.6820853106
 10
364.8614845288
 20
75.7161142593
 10
364.8551666601
 20
75.7821931948
 10
364.823938942
 20
75.8785337741
 10
364.7676212837
 20
75.9473788094
 10
364.6935603085
 20
75.991370206
 10
364.619190963
 20
76.0082210043
 10
364.5661826795
 20
76.0113867804
 10
364.5061524185
 20
76.0106688538
 10
364.4362901784
 20
76.0100374021
 10
364.391164766
 20
76.0089812625
 10
364.3492875227
 20
76.0107454804
 10
364.3021989373
 20
76.0128026648
 10
364.2372176958
 20
75.999782091
 10
364.1539906036
 20
75.9626222609
 10
364.0869242147
 20
75.8964352833
 10
364.0486433071
 20
75.8202649367
 10
364.0382131615
 20
75.7249690651
 10
364.0396515888
 20
75.6616779957
 10
364.0385854425
 20
75.6109498444
 10
364.0380710505
 20
75.5574568795
 10
364.0383292979
 20
75.5000922577
 10
364.0383468043
 20
75.2797273392
 10
364.0384109913
 20
74.886053579
 10
364.0384218158
 20
74.1835863923
 10
364.0386704551
 20
72.9851020674
 10
364.0399370018
 20
71.7817582845
 10
364.0385500758
 20
71.5888434311
 10
364.0275641406
 20
71.4139801774
 10
363.9873547664
 20
71.2305814535
 10
363.9379675282
 20
71.0322768298
 10
363.8874923613
 20
70.8613122747
 10
363.8075980838
 20
70.7142697163
 10
363.6949489877
 20
70.5471171102
 10
363.5936895021
 20
70.4081330638
 10
363.455259891
 20
70.2980113316
 10
363.2880940094
 20
70.1820595042
 10
363.1414179096
 20
70.0855093303
 10
362.9915897983
 20
70.0352383231
 10
362.7646971552
 20
69.9987472373
 10
362.5535676648
 20
69.9685273047
 10
362.3630905554
 20
69.986901962
 10
362.1387997156
 20
70.0280458092
 10
361.9583971413
 20
70.0795306162
 10
361.783598984
 20
70.1984224078
 10
361.5970051037
 20
70.328913694
 10
361.4938256828
 20
70.4132213731
 10
361.4000400865
 20
70.5202816588
 10
361.3027271702
 20
70.647311921
 10
361.20940413
 20
70.7641198518
 10
361.1521071707
 20
70.8776494897
 10
361.119207085
 20
71.0547705015
 10
361.0843531274
 20
71.2609225858
 10
361.0662021767
 20
71.441457831
 10
361.0838424862
 20
71.5832292025
 10
361.111150076
 20
71.7412026262
 10
361.1368993126
 20
71.8945247105
 10
361.1701779458
 20
72.0123996863
 10
361.2371266541
 20
72.1278315207
 10
361.3293956883
 20
72.2564309476
 10
361.4178499288
 20
72.3859049314
 10
361.5027380212
 20
72.4847623561
 10
361.6026784861
 20
72.5574577411
  0
LWPOLYLINE
  5
190
330
1F
100
AcDbEntity
  8
ALLEN
370
    30
100
AcDbPolyline
 90
      153
 70
   128
 43
0.0
 10
376.7016743536
 20
72.6303071124
 10
376.550799047
 20
72.3465987182
 10
376.457481438
 20
72.0371897034
 10
376.3966488237
 20
71.7250037292
 10
376.3666159218
 20
71.3988757506
 10
376.3746779877
 20
71.2143020938
 10
376.4045286527
 20
71.036370371
 10
376.4466077172
 20
70.8568535941
 10
376.4823304807
 20
70.68872385
 10
376.5504735122
 20
70.4933223316
 10
376.655299364
 20
70.327873495
 10
376.7534009672
 20
70.1849258999
 10
376.8796581109
 20
69.9887346128
 10
377.0489878511
 20
69.7797531361
 10
377.2409865578
 20
69.5989559755
 10
377.4553728169
 20
69.4451763917
 10
377.6676501347
 20
69.3209659633
 10
377.9295432268
 20
69.2137066814
 10
378.168912241
 20
69.1581659605
 10
378.4171935996
 20
69.1144807539
 10
378.683564433
 20
69.0886315133
 10
378.9436798522
 20
69.1197906784
 10
379.1483313883
 20
69.1499947878
 10
379.3558236847
 20
69.1941648812
 10
379.5661784025
 20
69.2754341832
 10
379.6393542148
 20
69.3082660117
 10
379.7075564425
 20
69.3395334525
 10
379.7706301822
 20
69.3683664206
 10
379.8420203936
 20
69.4008169064
 10
379.9065919981
 20
69.4336951653
 10
379.9734942386
 20
69.4869141517
 10
380.0279192952
 20
69.5659254869
 10
380.0713856062
 20
69.692525565
 10
380.0761308425
 20
69.7923692999
 10
380.0751930095
 20
69.9089015162
 10
380.0765242082
 20
70.0191705787
 10
380.0768351954
 20
70.0557359605
 10
380.0763251532
 20
70.0902407604
 10
380.0751880674
 20
70.1225213352
 10
380.0778271575
 20
70.1677420398
 10
380.0658781137
 20
70.2395096231
 10
380.0389093839
 20
70.288650391
 10
379.9986046757
 20
70.3388328225
 10
379.9494482626
 20
70.382363771
 10
379.8858621726
 20
70.4085468358
 10
379.8008845764
 20
70.4079806957
 10
379.7389838103
 20
70.3938842743
 10
379.7114260037
 20
70.3763612401
 10
379.6988870729
 20
70.35966663
 10
379.6575157187
 20
70.330706682
 10
379.5747730102
 20
70.2727867861
 10
379.4920303018
 20
70.2148668902
 10
379.3428622327
 20
70.1195911073
 10
379.1754952381
 20
70.069680745
 10
378.9786675398
 20
70.0242589684
 10
378.7854761153
 20
69.9802135979
 10
378.6269801775
 20
69.9716514154
 10
378.4339056958
 20
70.0028970167
 10
378.2347398569
 20
70.036092889
 10
378.0834725505
 20
70.0814043574
 10
377.9295649001
 20
70.1850193659
 10
377.7640794832
 20
70.3008591578
 10
377.6258637729
 20
70.4090881225
 10
377.5223509364
 20
70.5531509713
 10
377.4103011115
 20
70.7212257087
 10
377.3290039576
 20
70.8683760171
 10
377.2799314507
 20
71.050397389
 10
377.230939086
 20
71.2463668478
 10
377.1982487267
 20
71.414604215
 10
377.2267376112
 20
71.5785994638
 10
377.2627886391
 20
71.7410146032
 10
377.306316987
 20
71.9084159121
 10
377.3676198916
 20
72.0579329918
 10
377.4453240559
 20
72.1939381161
 10
377.5305434968
 20
72.337664707
 10
377.6153253939
 20
72.4679011573
 10
377.7126722479
 20
72.5472040221
 10
377.855960249
 20
72.6331563443
 10
378.0030863281
 20
72.7227531503
 10
378.1337488309
 20
72.7868387271
 10
378.2767571343
 20
72.8291911489
 10
378.4094473368
 20
72.8616583007
 10
378.5427771826
 20
72.8956677885
 10
378.6528847658
 20
72.9191480394
 10
378.7496814382
 20
72.9199858775
 10
378.9010889119
 20
72.8851452176
 10
379.0672602563
 20
72.8425044461
 10
379.2184543003
 20
72.804258172
 10
379.3712606197
 20
72.7322901205
 10
379.5326665459
 20
72.6233629301
 10
379.668799256
 20
72.5307837576
 10
379.7708295905
 20
72.4300403164
 10
379.8691954429
 20
72.2883289306
 10
379.9711285153
 20
72.1432761609
 10
380.0664757156
 20
71.9761821628
 10
380.1046044901
 20
71.7747422226
 10
380.1437000041
 20
71.5507988919
 10
380.1656478921
 20
71.3258643658
 10
380.1662039822
 20
71.1045639154
 10
380.1646265054
 20
70.8769571017
 10
380.1654277175
 20
70.644504595
 10
380.1650988273
 20
69.9628798513
 10
380.1647947792
 20
69.5811111227
 10
380.1655225007
 20
69.5309548524
 10
380.167590416
 20
69.4805038955
 10
380.1652232528
 20
69.4310303928
 10
380.1581235189
 20
69.3793020466
 10
380.1705546047
 20
69.3046317726
 10
380.2258656649
 20
69.1976976265
 10
380.2954491574
 20
69.1251765737
 10
380.3825048373
 20
69.0883432305
 10
380.4525982366
 20
69.0806174096
 10
380.5063685737
 20
69.0816090785
 10
380.5638083217
 20
69.0810858388
 10
380.6110930364
 20
69.0820679167
 10
380.6566070931
 20
69.0834940993
 10
380.7011973806
 20
69.0797704126
 10
380.7506419234
 20
69.0738186586
 10
380.8206707096
 20
69.086956189
 10
380.9007022586
 20
69.1263951904
 10
380.978836478
 20
69.1903304259
 10
381.0274452817
 20
69.2733072546
 10
381.0403618799
 20
69.3529419773
 10
381.0405370925
 20
69.4071283005
 10
381.0400572908
 20
69.4552599852
 10
381.0405370925
 20
69.5081286477
 10
381.0404397947
 20
69.6591738555
 10
381.0405370925
 20
69.8111296896
 10
381.0403986681
 20
70.2655275772
 10
381.0416596386
 20
70.7206147741
 10
381.0452710983
 20
71.1800188049
 10
381.020104129
 20
71.6433110122
 10
380.9806047421
 20
71.8784174985
 10
380.9287968745
 20
72.1093737771
 10
380.8492424603
 20
72.3452667988
 10
380.7103568359
 20
72.5689425349
 10
380.5890943557
 20
72.7479500205
 10
380.4539990639
 20
72.9413724322
 10
380.2676733799
 20
73.1345434883
 10
380.0748536649
 20
73.2729509959
 10
379.8379520496
 20
73.4428129473
 10
379.5158668223
 20
73.6145642726
 10
379.2193427523
 20
73.6836833137
 10
378.9033778305
 20
73.736273757
 10
378.5747756404
 20
73.7425247115
 10
378.2512441053
 20
73.6961810774
 10
377.9977498489
 20
73.6460404311
 10
377.7075706494
 20
73.5361775465
 10
377.4901259995
 20
73.3818546338
 10
377.2762118856
 20
73.2390381058
 10
377.0557660103
 20
73.0699207065
 10
376.86551012
 20
72.8637537319
 10
376.7016743536
 20
72.6303071124
  0
LWPOLYLINE
  5
191
330
1F
100
AcDbEntity
  8
ALLEN
370
    30
100
AcDbPolyline
 90
      101
 70
   128
 43
0.0
 10
383.2884245798
 20
72.7315866473
 10
383.3704218642
 20
72.7825336152
 10
383.4487678262
 20
72.8270812079
 10
383.5125327311
 20
72.853536916
 10
383.601943443
 20
72.8787625757
 10
383.6328757758
 20
72.8877863099
 10
383.6628477568
 20
72.8975261076
 10
383.6929154113
 20
72.9070096248
 10
383.7253380811
 20
72.9144892342
 10
383.766203357
 20
72.9251077657
 10
383.8325668034
 20
72.9679050596
 10
383.9045887498
 20
73.0497964322
 10
383.930170185
 20
73.1300105242
 10
383.9333119809
 20
73.194903238
 10
383.9336664867
 20
73.2396780898
 10
383.9337558425
 20
73.2751415926
 10
383.9338427821
 20
73.3100415383
 10
383.9338214229
 20
73.3476939289
 10
383.9335402143
 20
73.3874288111
 10
383.9333991483
 20
73.4252723494
 10
383.9341009764
 20
73.4556017569
 10
383.9331399382
 20
73.5015986743
 10
383.9129110264
 20
73.5922814681
 10
383.8629199537
 20
73.6592288246
 10
383.7914960496
 20
73.7088969206
 10
383.7148403745
 20
73.7349825064
 10
383.6237996605
 20
73.732418776
 10
383.581035546
 20
73.7246529093
 10
383.4967689429
 20
73.7093317087
 10
383.4125023397
 20
73.6940105081
 10
383.2332672078
 20
73.6588584855
 10
383.0291658044
 20
73.559653828
 10
382.8799989097
 20
73.4613808012
 10
382.751484313
 20
73.3509543227
 10
382.6059896819
 20
73.2040915966
 10
382.5014943415
 20
73.065219729
 10
382.3974730549
 20
72.9262116395
 10
382.3007677372
 20
72.7198555242
 10
382.2536236343
 20
72.53771592
 10
382.2359390209
 20
72.3738469295
 10
382.2178645941
 20
72.1944317305
 10
382.2013964675
 20
72.0073928791
 10
382.1944415048
 20
71.655381196
 10
382.2013964675
 20
71.3222079593
 10
382.2013964675
 20
70.9796154994
 10
382.2013829809
 20
70.8087665964
 10
382.18233082
 20
70.6776624605
 10
382.1353209811
 20
70.5131166279
 10
382.0897609114
 20
70.3820092532
 10
382.0042136935
 20
70.2388534827
 10
381.9358996052
 20
70.1637636884
 10
381.8539023208
 20
70.1128167205
 10
381.7755563589
 20
70.0682691278
 10
381.711791454
 20
70.0418134197
 10
381.622380742
 20
70.01658776
 10
381.5914484093
 20
70.0075640258
 10
381.5614764282
 20
69.9978242282
 10
381.5314087737
 20
69.9883407109
 10
381.498986104
 20
69.9808611015
 10
381.4581208281
 20
69.9702425701
 10
381.3917573817
 20
69.9274452761
 10
381.3197354353
 20
69.8455539035
 10
381.2941540001
 20
69.7653398115
 10
381.2910122042
 20
69.7004470977
 10
381.2906576984
 20
69.6556722459
 10
381.2905683425
 20
69.6202087431
 10
381.290481403
 20
69.5853087975
 10
381.2905027622
 20
69.5476564069
 10
381.2907839708
 20
69.5079215246
 10
381.2909250368
 20
69.4700779863
 10
381.2902232087
 20
69.4397485789
 10
381.2911842469
 20
69.3937516614
 10
381.3114131586
 20
69.3030688676
 10
381.3614042314
 20
69.2361215111
 10
381.4328281354
 20
69.1864534151
 10
381.5094838106
 20
69.1603678293
 10
381.6005245246
 20
69.1629315597
 10
381.643288639
 20
69.1706974264
 10
381.7275552422
 20
69.186018627
 10
381.8118218454
 20
69.2013398276
 10
381.9910569772
 20
69.2364918502
 10
382.1951583807
 20
69.3356965077
 10
382.3443252754
 20
69.4339695345
 10
382.472839872
 20
69.544396013
 10
382.6183345031
 20
69.6912587392
 10
382.7228298435
 20
69.8301306067
 10
382.8268511302
 20
69.9691386962
 10
382.9235564479
 20
70.1754948115
 10
382.9707005507
 20
70.3576344157
 10
382.9883851642
 20
70.5215034062
 10
383.006459591
 20
70.7009186052
 10
383.0229277175
 20
70.8879574566
 10
383.0298826802
 20
71.2399691397
 10
383.0229277175
 20
71.5731423764
 10
383.0229277175
 20
71.9157348363
 10
383.0229412042
 20
72.0865837393
 10
383.0419933651
 20
72.2176878753
 10
383.089003204
 20
72.3822337078
 10
383.1345632737
 20
72.5133410825
 10
383.2201104915
 20
72.656496853
 10
383.2884245798
 20
72.7315866473
  0
LWPOLYLINE
  5
192
330
1F
100
AcDbEntity
  8
ALLEN
370
    30
100
AcDbPolyline
 90
      140
 70
   128
 43
0.0
 10
385.7866659988
 20
73.7426048554
 10
385.6829948837
 20
73.7425964848
 10
385.580200869
 20
73.7426624714
 10
385.4783093356
 20
73.7424278008
 10
385.3716323374
 20
73.7429317541
 10
385.2709668177
 20
73.7426080503
 10
385.2264950911
 20
73.7418541663
 10
385.1972398415
 20
73.7749016856
 10
385.1654048664
 20
73.8607247491
 10
385.1482317716
 20
73.9674805089
 10
385.1482448056
 20
74.0689918861
 10
385.1481933425
 20
74.3244886144
 10
385.147989858
 20
74.4216880943
 10
385.1481176672
 20
74.5180648096
 10
385.1481892376
 20
74.6147584024
 10
385.1480854105
 20
74.7119900552
 10
385.1481030069
 20
74.8085573375
 10
385.1484356071
 20
74.9037493748
 10
385.1478434372
 20
75.0031672117
 10
385.1481713885
 20
75.0992542747
 10
385.138938726
 20
75.1618101659
 10
385.1102456984
 20
75.2334689878
 10
385.0547759249
 20
75.2946647892
 10
384.9557288161
 20
75.3447210826
 10
384.8778815131
 20
75.3499486054
 10
384.8133963649
 20
75.3499486054
 10
384.7475457232
 20
75.3497539028
 10
384.6844260685
 20
75.3499486054
 10
384.6535998383
 20
75.3506388701
 10
384.6070700944
 20
75.3493043245
 10
384.5354865045
 20
75.337790982
 10
384.4587076578
 20
75.2977290327
 10
384.3837232215
 20
75.2038683099
 10
384.3628189616
 20
75.1102207102
 10
384.3623279902
 20
75.0494271714
 10
384.3623700094
 20
74.9074274373
 10
384.3623837823
 20
74.7633488849
 10
384.3623808425
 20
74.1827665663
 10
384.3623864938
 20
73.5328559553
 10
384.362342335
 20
72.8821028823
 10
384.3626909759
 20
72.2379033078
 10
384.3623282786
 20
71.5818294243
 10
384.3654530535
 20
71.2813682097
 10
384.389997488
 20
70.9918981535
 10
384.4465841063
 20
70.7137118426
 10
384.5287500633
 20
70.4113541109
 10
384.6043348801
 20
70.2267125491
 10
384.6982844749
 20
70.0685308482
 10
384.7837549799
 20
69.9159571077
 10
384.8963465321
 20
69.7510428218
 10
385.048534129
 20
69.5941793576
 10
385.2249284035
 20
69.4737772078
 10
385.3912130442
 20
69.361289669
 10
385.5913843961
 20
69.2491073257
 10
385.8161585294
 20
69.1710420592
 10
386.0190638776
 20
69.1332580761
 10
386.146168354
 20
69.1103131495
 10
386.2719954384
 20
69.0826717639
 10
386.4047382979
 20
69.0570679328
 10
386.5702542652
 20
69.0586822849
 10
386.6106445835
 20
69.0628493155
 10
386.6468735526
 20
69.0679578172
 10
386.6811524288
 20
69.0738121156
 10
386.7156804605
 20
69.0801554238
 10
386.7523807074
 20
69.0853253625
 10
386.7990270649
 20
69.0916602662
 10
386.8879923611
 20
69.1369730968
 10
386.9436294035
 20
69.213536795
 10
386.9635816608
 20
69.290266538
 10
386.9693146343
 20
69.3469064654
 10
386.9699373721
 20
69.3889529896
 10
386.9698495925
 20
69.5011346501
 10
386.9697781659
 20
69.5468359261
 10
386.9700903416
 20
69.5927220322
 10
386.9695872372
 20
69.638062359
 10
386.9677521934
 20
69.6928157253
 10
386.9666791905
 20
69.7441257839
 10
386.9481033258
 20
69.8083224547
 10
386.8815171355
 20
69.8735808428
 10
386.8117571268
 20
69.9073411386
 10
386.7544386904
 20
69.9187186373
 10
386.7265481218
 20
69.9125373385
 10
386.7071252747
 20
69.9032107861
 10
386.6553886193
 20
69.8889169407
 10
386.6046062958
 20
69.8753527394
 10
386.5331582254
 20
69.8544068025
 10
386.4825683359
 20
69.842435963
 10
386.407826424
 20
69.8452123876
 10
386.3013490025
 20
69.8641023362
 10
386.1902683308
 20
69.883938054
 10
386.0703462186
 20
69.906093462
 10
385.9714635467
 20
69.9300737516
 10
385.8518543233
 20
69.9883535921
 10
385.7212047693
 20
70.0864858528
 10
385.6046200415
 20
70.1807097671
 10
385.5074451246
 20
70.2775933577
 10
385.4136793591
 20
70.4148670023
 10
385.3232440688
 20
70.5519562099
 10
385.2501242855
 20
70.6817082326
 10
385.2108106084
 20
70.8426858946
 10
385.1781413589
 20
71.0142077733
 10
385.1506244921
 20
71.1854791733
 10
385.1474295475
 20
71.3576284926
 10
385.1481802023
 20
71.9280028928
 10
385.1474946337
 20
72.4973872609
 10
385.1475905518
 20
72.6205312447
 10
385.1540639189
 20
72.7528066406
 10
385.1664772429
 20
72.8264319572
 10
385.1889914737
 20
72.8983494325
 10
385.2074916688
 20
72.9482748096
 10
385.2106061427
 20
72.9588806871
 10
385.211218513
 20
72.9602805231
 10
385.2118207944
 20
72.9604634087
 10
385.212992667
 20
72.9598864498
 10
385.2144726827
 20
72.9590082565
 10
385.2189113336
 20
72.9569992263
 10
385.2351049215
 20
72.9542149721
 10
385.3065279722
 20
72.9554055267
 10
385.391729909
 20
72.9580552619
 10
385.4731594183
 20
72.958083301
 10
385.6623976841
 20
72.9569683501
 10
385.7205250044
 20
72.956867382
 10
385.7790842745
 20
72.9560655219
 10
385.8453854087
 20
72.9577729423
 10
385.9298748653
 20
72.9673797537
 10
386.0469638267
 20
73.0020298421
 10
386.1155423198
 20
73.0545352096
 10
386.1541761271
 20
73.1343385781
 10
386.1679614985
 20
73.2029917406
 10
386.1676534867
 20
73.2418410229
 10
386.1661777175
 20
73.384325811
 10
386.1653695863
 20
73.4338143695
 10
386.169305558
 20
73.4785875028
 10
386.1649820631
 20
73.523167436
 10
386.1426529608
 20
73.592996876
 10
386.0991951048
 20
73.6620885409
 10
386.028296657
 20
73.7068512883
 10
385.9540068624
 20
73.726857406
 10
385.8926886113
 20
73.737118138
 10
385.7866659988
 20
73.7426048554
  0
LWPOLYLINE
  5
193
330
1F
100
AcDbEntity
  8
ALLEN
370
    30
100
AcDbPolyline
 90
       84
 70
   128
 43
0.0
 10
392.9851085207
 20
73.5489449787
 10
392.8691120846
 20
73.4765337555
 10
392.7611129206
 20
73.4028636142
 10
392.6353972707
 20
73.3052380676
 10
392.5222744977
 20
73.1895321891
 10
392.4380666299
 20
73.073388616
 10
392.3501731272
 20
72.9569142242
 10
392.2588448552
 20
72.8064355851
 10
392.2154835316
 20
72.6477984102
 10
392.1906499209
 20
72.5104095349
 10
392.1664647297
 20
72.3764338541
 10
392.1442037668
 20
72.232591768
 10
392.1279551991
 20
72.0080950483
 10
392.1312089675
 20
71.7938666813
 10
392.1312089675
 20
71.1492680279
 10
392.1312089675
 20
70.5046693744
 10
392.1312089675
 20
69.860070721
 10
392.1312272272
 20
69.7791568966
 10
392.1312089675
 20
69.6989210576
 10
392.1311502534
 20
69.6195149035
 10
392.1312089675
 20
69.5377713942
 10
392.1312089675
 20
69.4571965626
 10
392.1312089675
 20
69.3766217309
 10
392.1370501356
 20
69.3041240507
 10
392.1688816987
 20
69.2196352347
 10
392.2408706965
 20
69.1435213132
 10
392.3265060808
 20
69.0931681017
 10
392.3963179897
 20
69.0783415024
 10
392.4496793942
 20
69.0813079804
 10
392.5302542259
 20
69.0813079804
 10
392.6031031689
 20
69.0832002806
 10
392.6914038893
 20
69.0813079804
 10
392.7483740252
 20
69.0787979384
 10
392.8198041665
 20
69.0960505241
 10
392.9042961362
 20
69.1499759341
 10
392.9735075339
 20
69.2279055239
 10
393.0024278477
 20
69.3103576735
 10
393.0063183425
 20
69.3801777043
 10
393.0062571813
 20
69.4264330356
 10
393.0063183425
 20
69.460752536
 10
393.0063183425
 20
69.7830518627
 10
393.0063183425
 20
70.1053511895
 10
393.0063183425
 20
70.4276505162
 10
393.0063183425
 20
70.7499498429
 10
393.0072450648
 20
71.0704154984
 10
393.0063183425
 20
71.3945484963
 10
393.0032966949
 20
71.6423636524
 10
393.0026591461
 20
71.8853809565
 10
393.0100097059
 20
72.112738256
 10
393.03188582
 20
72.3397983841
 10
393.0454233089
 20
72.4340427434
 10
393.057313896
 20
72.4893827865
 10
393.0947892627
 20
72.5395095508
 10
393.1601335586
 20
72.6215993732
 10
393.2129083591
 20
72.6862148479
 10
393.2754333411
 20
72.7337933843
 10
393.3779279679
 20
72.7970523792
 10
393.4732248511
 20
72.8460853517
 10
393.5709676806
 20
72.8812959528
 10
393.6002658435
 20
72.8936190976
 10
393.6312847071
 20
72.9038749276
 10
393.6641090478
 20
72.9080328904
 10
393.7031083873
 20
72.916201003
 10
393.7569369929
 20
72.9526258523
 10
393.8346354935
 20
73.0481670895
 10
393.8580683393
 20
73.1309453138
 10
393.8622968873
 20
73.1904162887
 10
393.8635683425
 20
73.2376108737
 10
393.8644046576
 20
73.3029792275
 10
393.8643594259
 20
73.3630201659
 10
393.8629482031
 20
73.4154048639
 10
393.8635683425
 20
73.4793353687
 10
393.8615623281
 20
73.5328739811
 10
393.8300954017
 20
73.6118304496
 10
393.7643465435
 20
73.6853046481
 10
393.6806599005
 20
73.7227042366
 10
393.5792817466
 20
73.7346579984
 10
393.5237416692
 20
73.7290278243
 10
393.4941250755
 20
73.7179800595
 10
393.4135423917
 20
73.6983816249
 10
393.3145652278
 20
73.6829541623
 10
393.214401285
 20
73.6615838782
 10
393.0961457586
 20
73.6136921326
 10
392.9851085207
 20
73.5489449787
  0
SPLINE
  5
194
330
1F
100
AcDbEntity
  8
ALLEN
370
    30
100
AcDbSpline
210
0.0
220
0.0
230
1.0
 70
    24
 71
     3
 72
     8
 73
     4
 74
     0
 42
0.00000001
 43
0.00000001
 40
0.8183306740961991
 40
0.8183306740961991
 40
0.8183306740961991
 40
0.8183306740961991
 40
0.9951627235560577
 40
0.9951627235560577
 40
0.9951627235560577
 40
0.9951627235560577
 10
388.7114371281376
 20
70.13445131334242
 30
0.0
 10
389.6248253468821
 20
70.75926290259564
 30
0.0
 10
390.538213565627
 20
71.3840744918487
 30
0.0
 10
391.4516017843716
 20
72.00888608110178
 30
0.0
  0
SPLINE
  5
195
330
1F
100
AcDbEntity
  8
ROCKWELL
370
    30
100
AcDbSpline
210
0.0
220
0.0
230
1.0
 70
     8
 71
     3
 72
   251
 73
   247
 74
     0
 42
0.00000001
 43
0.00000001
 40
0.0
 40
0.0
 40
0.0
 40
0.0
 40
0.0320264394950342
 40
0.0320264394950342
 40
0.0320264394950342
 40
0.0349692854778094
 40
0.0379121314605845
 40
0.0408549774433597
 40
0.0408549774433597
 40
0.0408549774433597
 40
0.0810209464381087
 40
0.0810209464381087
 40
0.0810209464381087
 40
0.0812204682197895
 40
0.0814199900014702
 40
0.081619511783151
 40
0.081619511783151
 40
0.081619511783151
 40
0.0979414844018924
 40
0.0979414844018924
 40
0.0979414844018924
 40
0.0981000481113739
 40
0.0982586118208555
 40
0.0984171755303371
 40
0.0984171755303371
 40
0.0984171755303371
 40
0.200176625874196
 40
0.200176625874196
 40
0.200176625874196
 40
0.2004024893432903
 40
0.2006283528123846
 40
0.2008542162814789
 40
0.2008542162814789
 40
0.2008542162814789
 40
0.2268516786367828
 40
0.2268516786367828
 40
0.2268516786367828
 40
0.228195490527219
 40
0.2295393024176552
 40
0.2308831143080914
 40
0.2308831143080914
 40
0.2308831143080914
 40
0.2441230127441273
 40
0.2441230127441273
 40
0.2441230127441273
 40
0.2443548453283239
 40
0.2445866779125204
 40
0.244818510496717
 40
0.244818510496717
 40
0.244818510496717
 40
0.2969249666151971
 40
0.2969249666151971
 40
0.2969249666151971
 40
0.2970951296700005
 40
0.2972652927248038
 40
0.2974354557796072
 40
0.2974354557796072
 40
0.2974354557796072
 40
0.2996361173406248
 40
0.2996361173406248
 40
0.2996361173406248
 40
0.3026888149604146
 40
0.3026888149604146
 40
0.3026888149604146
 40
0.3028589780152183
 40
0.3030291410700219
 40
0.3031993041248255
 40
0.3031993041248255
 40
0.3031993041248255
 40
0.3553057602433894
 40
0.3553057602433894
 40
0.3553057602433894
 40
0.3555375928275863
 40
0.3557694254117832
 40
0.3560012579959801
 40
0.3560012579959801
 40
0.3560012579959801
 40
0.3690532683018027
 40
0.3690532683018027
 40
0.3690532683018027
 40
0.3705241224107523
 40
0.3719949765197019
 40
0.3734658306286515
 40
0.3734658306286515
 40
0.3734658306286515
 40
0.3991731623421676
 40
0.3991731623421676
 40
0.3991731623421676
 40
0.399389565558806
 40
0.3996059687754444
 40
0.3998223719920828
 40
0.3998223719920828
 40
0.3998223719920828
 40
0.5024471040011602
 40
0.5024471040011602
 40
0.5024471040011602
 40
0.5026057602011452
 40
0.5027644164011302
 40
0.5029230726011152
 40
0.5029230726011152
 40
0.5029230726011152
 40
0.5192449303976997
 40
0.5192449303976997
 40
0.5192449303976997
 40
0.519444443682184
 40
0.5196439569666683
 40
0.5198434702511526
 40
0.5198434702511526
 40
0.5198434702511526
 40
0.5600074319734705
 40
0.5600074319734705
 40
0.5600074319734705
 40
0.5629513949808502
 40
0.56589535798823
 40
0.5688393209956097
 40
0.5688393209956097
 40
0.5688393209956097
 40
0.6005255507658305
 40
0.6005255507658305
 40
0.6005255507658305
 40
0.6006793945946168
 40
0.6008332384234032
 40
0.6009870822521896
 40
0.6009870822521896
 40
0.6009870822521896
 40
0.6045397320198359
 40
0.6045397320198359
 40
0.6045397320198359
 40
0.604721714955106
 40
0.604903697890376
 40
0.6050856808256461
 40
0.6050856808256461
 40
0.6050856808256461
 40
0.6402182117401904
 40
0.6402182117401904
 40
0.6402182117401904
 40
0.6404001946754605
 40
0.6405821776107306
 40
0.6407641605460006
 40
0.6407641605460006
 40
0.6407641605460006
 40
0.6570943513440427
 40
0.6570943513440427
 40
0.6570943513440427
 40
0.6572645143988441
 40
0.6574346774536456
 40
0.657604840508447
 40
0.657604840508447
 40
0.657604840508447
 40
0.6611499847707206
 40
0.6611499847707206
 40
0.6611499847707206
 40
0.6613201478255221
 40
0.6614903108803235
 40
0.661660473935125
 40
0.661660473935125
 40
0.661660473935125
 40
0.6788295879901799
 40
0.6788295879901799
 40
0.6788295879901799
 40
0.6790221245833746
 40
0.6792146611765695
 40
0.6794071977697642
 40
0.6794071977697642
 40
0.6794071977697642
 40
0.7275147244300494
 40
0.7275147244300494
 40
0.7275147244300494
 40
0.7276650719133819
 40
0.7278154193967143
 40
0.7279657668800469
 40
0.7279657668800469
 40
0.7279657668800469
 40
0.7562884951880436
 40
0.7562884951880436
 40
0.7562884951880436
 40
0.7564586582428453
 40
0.7566288212976469
 40
0.7567989843524485
 40
0.7567989843524485
 40
0.7567989843524485
 40
0.8004561081914001
 40
0.8004561081914001
 40
0.8004561081914001
 40
0.8006262712462018
 40
0.8007964343010033
 40
0.800966597355805
 40
0.800966597355805
 40
0.800966597355805
 40
0.8045131225517376
 40
0.8045131225517376
 40
0.8045131225517376
 40
0.8046832856065391
 40
0.8048534486613406
 40
0.8050236117161421
 40
0.8050236117161421
 40
0.8050236117161421
 40
0.8486807355550646
 40
0.8486807355550646
 40
0.8486807355550646
 40
0.8488508986098662
 40
0.8490210616646676
 40
0.8491912247194692
 40
0.8491912247194692
 40
0.8491912247194692
 40
0.8775189555061693
 40
0.8775189555061693
 40
0.8775189555061693
 40
0.8776656397507935
 40
0.8778123239954175
 40
0.8779590082400417
 40
0.8779590082400417
 40
0.8779590082400417
 40
0.9261469456347108
 40
0.9261469456347108
 40
0.9261469456347108
 40
0.9263442663973503
 40
0.92654158715999
 40
0.9267389079226296
 40
0.9267389079226296
 40
0.9267389079226296
 40
0.9430480281904252
 40
0.9430480281904252
 40
0.9430480281904252
 40
0.9432181912452269
 40
0.9433883543000284
 40
0.9435585173548301
 40
0.9435585173548301
 40
0.9435585173548301
 40
0.9471036616170958
 40
0.9471036616170958
 40
0.9471036616170958
 40
0.9472738246718969
 40
0.9474439877266979
 40
0.947614150781499
 40
0.947614150781499
 40
0.947614150781499
 40
0.9639443415795026
 40
0.9639443415795026
 40
0.9639443415795026
 40
0.9641263245147722
 40
0.9643083074500419
 40
0.9644902903853115
 40
0.9644902903853115
 40
0.9644902903853115
 40
1.0
 40
1.0
 40
1.0
 40
1.0
 10
369.2265698617697
 20
80.43065897708348
 30
0.0
 10
369.1878250350862
 20
79.88848204390156
 30
0.0
 10
369.1490802084026
 20
79.34630511071964
 30
0.0
 10
369.110335381719
 20
78.8041281775377
 30
0.0
 10
369.1067751964672
 20
78.75430861485997
 30
0.0
 10
369.0996548259635
 20
78.65466948950446
 30
0.0
 10
369.1076636222813
 20
78.50372098193826
 30
0.0
 10
369.1189031652707
 20
78.40446208988767
 30
0.0
 10
369.1245229367653
 20
78.35483264386238
 30
0.0
 10
369.2012254108104
 20
77.67745611721229
 30
0.0
 10
369.2779278848554
 20
77.0000795905622
 30
0.0
 10
369.3546303589004
 20
76.3227030639121
 30
0.0
 10
369.3550113733428
 20
76.31933824103223
 30
0.0
 10
369.3557734022277
 20
76.31260859527248
 30
0.0
 10
369.3672018992659
 20
76.30240116458349
 30
0.0
 10
369.373974551632
 20
76.30240116458349
 30
0.0
 10
369.3773608778151
 20
76.30240116458349
 30
0.0
 10
369.654380874193
 20
76.30240116458349
 30
0.0
 10
369.9314008705708
 20
76.30240116458349
 30
0.0
 10
370.2084208669486
 20
76.30240116458349
 30
0.0
 10
370.2111120440049
 20
76.30240116458349
 30
0.0
 10
370.2164943981177
 20
76.30240116458349
 30
0.0
 10
370.2255174814474
 20
76.31188665473218
 30
0.0
 10
370.225248710355
 20
76.31726229403326
 30
0.0
 10
370.2251143248088
 20
76.31995011368379
 30
0.0
 10
370.1388713921601
 20
78.04487854249209
 30
0.0
 10
370.0526284595114
 20
79.76980697130041
 30
0.0
 10
369.9663855268628
 20
81.49473540010872
 30
0.0
 10
369.9661941035808
 20
81.49856402062065
 30
0.0
 10
369.965811257017
 20
81.50622126164454
 30
0.0
 10
369.9546153256238
 20
81.51860182005068
 30
0.0
 10
369.9470350274939
 20
81.51975029375605
 30
0.0
 10
369.943244878429
 20
81.52032453060875
 30
0.0
 10
369.5069890375369
 20
81.58642065948132
 30
0.0
 10
369.0707331966448
 20
81.65251678835392
 30
0.0
 10
368.6344773557528
 20
81.71861291722651
 30
0.0
 10
368.6119272399665
 20
81.72202943391099
 30
0.0
 10
368.5668270083938
 20
81.72886246727992
 30
0.0
 10
368.4961229462498
 20
81.72644681530126
 30
0.0
 10
368.4515942483167
 20
81.71655154909391
 30
0.0
 10
368.4293298993501
 20
81.71160391599025
 30
0.0
 10
368.2099705372553
 20
81.6628573910803
 30
0.0
 10
367.9906111751605
 20
81.61411086617034
 30
0.0
 10
367.7712518130658
 20
81.56536434126038
 30
0.0
 10
367.7674107981194
 20
81.5645107823834
 30
0.0
 10
367.7597287682265
 20
81.56280366462943
 30
0.0
 10
367.7490932992698
 20
81.54954531832009
 30
0.0
 10
367.7490932992698
 20
81.5416758943068
 30
0.0
 10
367.7490932992698
 20
81.53774118230015
 30
0.0
 10
367.7490932992698
 20
80.65337930873747
 30
0.0
 10
367.7490932992698
 20
79.76901743517476
 30
0.0
 10
367.7490932992698
 20
78.88465556161206
 30
0.0
 10
367.7490932992698
 20
78.88176751799583
 30
0.0
 10
367.7490932992698
 20
78.87599143076338
 30
0.0
 10
367.7393780330898
 20
78.86627616458348
 30
0.0
 10
367.7336019458573
 20
78.86627616458348
 30
0.0
 10
367.7307139022412
 20
78.86627616458348
 30
0.0
 10
367.6933638054174
 20
78.86627616458348
 30
0.0
 10
367.6560137085936
 20
78.86627616458348
 30
0.0
 10
367.6186636117698
 20
78.86627616458348
 30
0.0
 10
367.5668525774459
 20
78.86627616458348
 30
0.0
 10
367.5150415431222
 20
78.86627616458348
 30
0.0
 10
367.4632305087983
 20
78.86627616458348
 30
0.0
 10
367.4603424651821
 20
78.86627616458348
 30
0.0
 10
367.4545663779497
 20
78.86627616458348
 30
0.0
 10
367.4448511117698
 20
78.87599143076338
 30
0.0
 10
367.4448511117698
 20
78.88176751799583
 30
0.0
 10
367.4448511117698
 20
78.88465556161206
 30
0.0
 10
367.4448511117698
 20
79.76901743517476
 30
0.0
 10
367.4448511117698
 20
80.65337930873746
 30
0.0
 10
367.4448511117698
 20
81.53774118230015
 30
0.0
 10
367.4448511117698
 20
81.5416758943068
 30
0.0
 10
367.4448511117698
 20
81.54954531832007
 30
0.0
 10
367.4342156428131
 20
81.56280366462943
 30
0.0
 10
367.4265336129201
 20
81.5645107823834
 30
0.0
 10
367.4226925979737
 20
81.56536434126038
 30
0.0
 10
367.2064461767065
 20
81.613419101542
 30
0.0
 10
366.9901997554392
 20
81.6614738618236
 30
0.0
 10
366.7739533341719
 20
81.70952862210521
 30
0.0
 10
366.7495841427743
 20
81.71494399797136
 30
0.0
 10
366.7008457599791
 20
81.72577474970363
 30
0.0
 10
366.6238972645671
 20
81.72955021861156
 30
0.0
 10
366.574332713462
 20
81.72354268880856
 30
0.0
 10
366.5495504379094
 20
81.72053892390709
 30
0.0
 10
366.1164101459062
 20
81.66803964458217
 30
0.0
 10
365.683269853903
 20
81.61554036525723
 30
0.0
 10
365.2501295618998
 20
81.5630410859323
 30
0.0
 10
365.2464834054846
 20
81.56259914924887
 30
0.0
 10
365.2391910926542
 20
81.56171527588202
 30
0.0
 10
365.2281466359463
 20
81.54985657130814
 30
0.0
 10
365.2277828487541
 20
81.5425199019395
 30
0.0
 10
365.227600955158
 20
81.53885156725518
 30
0.0
 10
365.1413416941211
 20
79.7992200139648
 30
0.0
 10
365.0550824330843
 20
78.05958846067442
 30
0.0
 10
364.9688231720473
 20
76.31995690738403
 30
0.0
 10
364.9686898166046
 20
76.31726746473004
 30
0.0
 10
364.9684231057192
 20
76.31188857942207
 30
0.0
 10
364.97745174507
 20
76.30240116458349
 30
0.0
 10
364.9828372387199
 20
76.30240116458349
 30
0.0
 10
364.9855299855448
 20
76.30240116458349
 30
0.0
 10
365.2625480331403
 20
76.30240116458349
 30
0.0
 10
365.5395660807359
 20
76.30240116458349
 30
0.0
 10
365.8165841283315
 20
76.30240116458349
 30
0.0
 10
365.8199703102985
 20
76.30240116458349
 30
0.0
 10
365.8267426742323
 20
76.30240116458349
 30
0.0
 10
365.8381706828515
 20
76.31260846868095
 30
0.0
 10
365.8389324764377
 20
76.31933785080595
 30
0.0
 10
365.8393133732309
 20
76.32270254186847
 30
0.0
 10
365.9159915967384
 20
77.00004752865097
 30
0.0
 10
365.992669820246
 20
77.6773925154335
 30
0.0
 10
366.0693480437535
 20
78.35473750221601
 30
0.0
 10
366.0749684517959
 20
78.40438595567558
 30
0.0
 10
366.0862092678806
 20
78.50368286259469
 30
0.0
 10
366.0942198631609
 20
78.65468774839579
 30
0.0
 10
366.0871006103947
 20
78.7543649670067
 30
0.0
 10
366.0835409840116
 20
78.80420357631212
 30
0.0
 10
366.0452282948956
 20
79.34062255369803
 30
0.0
 10
366.0069156057796
 20
79.87704153108392
 30
0.0
 10
365.9686029166635
 20
80.41346050846983
 30
0.0
 10
365.9684168998725
 20
80.41606494421094
 30
0.0
 10
365.9680448662902
 20
80.42127381569317
 30
0.0
 10
365.9767836182583
 20
80.43065897708348
 30
0.0
 10
365.9820057587298
 20
80.43065897708348
 30
0.0
 10
365.9846168289656
 20
80.43065897708348
 30
0.0
 10
366.0449131576491
 20
80.43065897708348
 30
0.0
 10
366.1052094863326
 20
80.43065897708348
 30
0.0
 10
366.165505815016
 20
80.43065897708348
 30
0.0
 10
366.1685944681616
 20
80.43065897708348
 30
0.0
 10
366.1747717744527
 20
80.43065897708348
 30
0.0
 10
366.1851831867654
 20
80.42073151228955
 30
0.0
 10
366.1854769886748
 20
80.41456119678287
 30
0.0
 10
366.1856238896295
 20
80.41147603902954
 30
0.0
 10
366.2139837043897
 20
79.81587403939882
 30
0.0
 10
366.2423435191498
 20
79.22027203976813
 30
0.0
 10
366.2707033339099
 20
78.62467004013743
 30
0.0
 10
366.2708502348647
 20
78.62158488238407
 30
0.0
 10
366.2711440367742
 20
78.61541456687739
 30
0.0
 10
366.2815554490867
 20
78.60548710208349
 30
0.0
 10
366.2877327553779
 20
78.60548710208349
 30
0.0
 10
366.2908214085234
 20
78.60548710208349
 30
0.0
 10
366.567980885596
 20
78.60548710208349
 30
0.0
 10
366.8451403626686
 20
78.60548710208349
 30
0.0
 10
367.1222998397412
 20
78.60548710208349
 30
0.0
 10
367.1251878833574
 20
78.60548710208349
 30
0.0
 10
367.1309639705898
 20
78.60548710208349
 30
0.0
 10
367.1406792367698
 20
78.59577183590358
 30
0.0
 10
367.1406792367698
 20
78.58999574867111
 30
0.0
 10
367.1406792367698
 20
78.58710770505489
 30
0.0
 10
367.1406792367698
 20
78.52693876140728
 30
0.0
 10
367.1406792367698
 20
78.46676981775965
 30
0.0
 10
367.1406792367698
 20
78.40660087411203
 30
0.0
 10
367.1406792367698
 20
78.4037128304958
 30
0.0
 10
367.1406792367698
 20
78.39793674326334
 30
0.0
 10
367.1309639705898
 20
78.38822147708346
 30
0.0
 10
367.1251878833574
 20
78.38822147708346
 30
0.0
 10
367.1222998397412
 20
78.38822147708346
 30
0.0
 10
366.8309019784333
 20
78.38822147708346
 30
0.0
 10
366.5395041171254
 20
78.38822147708346
 30
0.0
 10
366.2481062558176
 20
78.38822147708346
 30
0.0
 10
366.2448384837414
 20
78.38822147708346
 30
0.0
 10
366.2383029395893
 20
78.38822147708346
 30
0.0
 10
366.2272773397281
 20
78.37812095776512
 30
0.0
 10
366.2267060720698
 20
78.37161042855259
 30
0.0
 10
366.2264204382407
 20
78.3683551639463
 30
0.0
 10
366.1550514749652
 20
77.55498911111327
 30
0.0
 10
366.0836825116896
 20
76.74162305828025
 30
0.0
 10
366.0123135484141
 20
75.92825700544722
 30
0.0
 10
366.0120905033989
 20
75.92571504273243
 30
0.0
 10
366.0116444133685
 20
75.92063111730282
 30
0.0
 10
366.0201715157487
 20
75.91132303958348
 30
0.0
 10
366.0252749747805
 20
75.91132303958348
 30
0.0
 10
366.0278267042964
 20
75.91132303958348
 30
0.0
 10
366.5085260827781
 20
75.91132303958348
 30
0.0
 10
366.9892254612596
 20
75.91132303958348
 30
0.0
 10
367.4699248397412
 20
75.91132303958348
 30
0.0
 10
367.4728128833574
 20
75.91132303958348
 30
0.0
 10
367.4785889705899
 20
75.91132303958348
 30
0.0
 10
367.4883042367697
 20
75.92103830576337
 30
0.0
 10
367.4883042367697
 20
75.92681439299581
 30
0.0
 10
367.4883042367697
 20
75.92970243661205
 30
0.0
 10
367.4883042367697
 20
76.67066044275967
 30
0.0
 10
367.4883042367697
 20
77.41161844890729
 30
0.0
 10
367.4883042367697
 20
78.1525764550549
 30
0.0
 10
367.4883042367697
 20
78.15546449867112
 30
0.0
 10
367.4883042367697
 20
78.16124058590357
 30
0.0
 10
367.4980195029497
 20
78.17095585208348
 30
0.0
 10
367.5037955901821
 20
78.17095585208348
 30
0.0
 10
367.5066836337983
 20
78.17095585208348
 30
0.0
 10
367.5668760149459
 20
78.17095585208348
 30
0.0
 10
367.6270683960935
 20
78.17095585208348
 30
0.0
 10
367.6872607772412
 20
78.17095585208348
 30
0.0
 10
367.6901488208574
 20
78.17095585208348
 30
0.0
 10
367.6959249080899
 20
78.17095585208348
 30
0.0
 10
367.7056401742698
 20
78.1612405859036
 30
0.0
 10
367.7056401742698
 20
78.15546449867114
 30
0.0
 10
367.7056401742698
 20
78.15257645505493
 30
0.0
 10
367.7056401742698
 20
77.41161844890729
 30
0.0
 10
367.7056401742698
 20
76.67066044275967
 30
0.0
 10
367.7056401742698
 20
75.92970243661203
 30
0.0
 10
367.7056401742698
 20
75.92681439299581
 30
0.0
 10
367.7056401742698
 20
75.92103830576336
 30
0.0
 10
367.7153554404496
 20
75.91132303958348
 30
0.0
 10
367.7211315276821
 20
75.91132303958348
 30
0.0
 10
367.7240195712983
 20
75.91132303958348
 30
0.0
 10
368.2048038529145
 20
75.91132303958348
 30
0.0
 10
368.6855881345307
 20
75.91132303958348
 30
0.0
 10
369.1663724161469
 20
75.91132303958348
 30
0.0
 10
369.1688619723951
 20
75.91132303958348
 30
0.0
 10
369.1738410848914
 20
75.91132303958348
 30
0.0
 10
369.1821454854207
 20
75.92054770156024
 30
0.0
 10
369.1816241237103
 20
75.9254994429931
 30
0.0
 10
369.181363442855
 20
75.92797531370952
 30
0.0
 10
369.0957259378589
 20
76.74133535374719
 30
0.0
 10
369.0100884328627
 20
77.55469539378485
 30
0.0
 10
368.9244509278665
 20
78.36805543382252
 30
0.0
 10
368.9241002579954
 20
78.37138599396015
 30
0.0
 10
368.9233989182531
 20
78.37804711423537
 30
0.0
 10
368.9120970719885
 20
78.38822147708346
 30
0.0
 10
368.9053991319503
 20
78.38822147708346
 30
0.0
 10
368.9020501619312
 20
78.38822147708346
 30
0.0
 10
368.625248298387
 20
78.38822147708346
 30
0.0
 10
368.3484464348427
 20
78.38822147708346
 30
0.0
 10
368.0716445712984
 20
78.38822147708346
 30
0.0
 10
368.0687565276821
 20
78.38822147708346
 30
0.0
 10
368.0629804404497
 20
78.38822147708346
 30
0.0
 10
368.0532651742697
 20
78.39793674326336
 30
0.0
 10
368.0532651742697
 20
78.40371283049582
 30
0.0
 10
368.0532651742697
 20
78.40660087411206
 30
0.0
 10
368.0532651742697
 20
78.46676981775968
 30
0.0
 10
368.0532651742697
 20
78.52693876140731
 30
0.0
 10
368.0532651742697
 20
78.58710770505492
 30
0.0
 10
368.0532651742697
 20
78.58999574867114
 30
0.0
 10
368.0532651742697
 20
78.5957718359036
 30
0.0
 10
368.0629804404496
 20
78.60548710208349
 30
0.0
 10
368.0687565276821
 20
78.60548710208349
 30
0.0
 10
368.0716445712983
 20
78.60548710208349
 30
0.0
 10
368.3488040483709
 20
78.60548710208349
 30
0.0
 10
368.6259635254435
 20
78.60548710208349
 30
0.0
 10
368.9031230025161
 20
78.60548710208349
 30
0.0
 10
368.9062116556616
 20
78.60548710208349
 30
0.0
 10
368.9123889619527
 20
78.60548710208349
 30
0.0
 10
368.9228003742654
 20
78.6154145668774
 30
0.0
 10
368.9230941761748
 20
78.62158488238407
 30
0.0
 10
368.9232410771295
 20
78.62467004013743
 30
0.0
 10
368.9519053595096
 20
79.22666635245278
 30
0.0
 10
368.9805696418896
 20
79.82866266476812
 30
0.0
 10
369.0092339242697
 20
80.43065897708348
 30
0.0
  0
LWPOLYLINE
  5
196
330
1F
100
AcDbEntity
  8
ALLEN
100
AcDbPolyline
 90
       35
 70
   128
 43
0.0
 10
388.1898742407
 20
70.728271933
 10
390.2751708709
 20
72.1045677089
 10
390.4697985564
 20
72.2330219813
 10
390.520772474
 20
72.266664767
 10
390.5717463917
 20
72.3003075526
 10
390.6191177696
 20
72.3389208562
 10
390.6435775877
 20
72.3855384904
 10
390.648121118
 20
72.4390889697
 10
390.6320406196
 20
72.4886013105
 10
390.6002834076
 20
72.5309104291
 10
390.4501770185
 20
72.6883266864
 10
390.2591943328
 20
72.8383047404
 10
390.0230953342
 20
72.9690699836
 10
389.7417687095
 20
73.0650771898
 10
389.5046210761
 20
73.1036415017
 10
389.2512038466
 20
73.1054779187
 10
388.9900379125
 20
73.0648768722
 10
388.7318613643
 20
72.9788771964
 10
388.4884442832
 20
72.8482267659
 10
388.2709603136
 20
72.6776913881
 10
388.0883425086
 20
72.4755167619
 10
387.9461062901
 20
72.2521580461
 10
387.8459490261
 20
72.0186658337
 10
387.7861312537
 20
71.7852004344
 10
387.7623855756
 20
71.5600161575
 10
387.7690035821
 20
71.3490240796
 10
387.8048489526
 20
71.1339550023
 10
387.8627925777
 20
70.9434165233
 10
387.9263521438
 20
70.7960965944
 10
387.9545893842
 20
70.7418004183
 10
387.996051173
 20
70.6979293202
 10
388.0457301916
 20
70.6778948935
 10
388.0986475942
 20
70.6787818325
 10
388.1464305609
 20
70.6995991043
 10
388.1898742407
 20
70.728271933
  0
LWPOLYLINE
  5
197
330
1F
100
AcDbEntity
  8
ALLEN
370
    30
100
AcDbPolyline
 90
       99
 70
   128
 43
0.0
 10
331.8704984748
 20
98.3872286092
 10
334.0609471305
 20
100.5775638994
 10
334.382212939
 20
100.8988130699
 10
334.7201597128
 20
101.202516285
 10
335.074900496
 20
101.486367988
 10
335.2963904801
 20
101.6400850203
 10
335.5542804678
 20
101.7214999161
 10
335.8151558264
 20
101.7816867424
 10
336.0760689813
 20
101.8417431092
 10
336.4615451877
 20
101.884663518
 10
336.8487599557
 20
101.884745124
 10
337.2359702102
 20
101.884745124
 10
337.6231804647
 20
101.884745124
 10
338.0103907192
 20
101.884745124
 10
338.3976009737
 20
101.884745124
 10
338.7848112282
 20
101.884745124
 10
339.1720214827
 20
101.884745124
 10
339.5127665067
 20
101.884745124
 10
339.8535115306
 20
101.884745124
 10
340.1942565546
 20
101.884745124
 10
340.5349027774
 20
101.8665881524
 10
340.7464029245
 20
101.8324864487
 10
340.9576713264
 20
101.7972750484
 10
341.168904978
 20
101.7615350169
 10
341.3754103145
 20
101.6925377898
 10
341.555790459
 20
101.5753971514
 10
342.0276927747
 20
101.2410180278
 10
342.4494504287
 20
100.8449910912
 10
342.8629917712
 20
100.4408400134
 10
343.2765331138
 20
100.0366889356
 10
343.6900744563
 20
99.6325378577
 10
344.1036157989
 20
99.2283867799
 10
344.3473098043
 20
98.9902263233
 10
344.5910038097
 20
98.7520658667
 10
344.8346978151
 20
98.5139054102
 10
345.0783918205
 20
98.2757449536
 10
345.318410731
 20
98.0332827372
 10
345.4980518569
 20
97.7427195514
 10
345.6630290867
 20
97.4445179093
 10
345.7655936067
 20
97.1188779549
 10
345.8645475948
 20
96.5824133855
 10
345.870057904
 20
96.036991097
 10
345.870057904
 20
95.4917990587
 10
345.870057904
 20
94.9466070203
 10
345.870057904
 20
94.401414982
 10
345.870057904
 20
93.2019924976
 10
345.870057904
 20
92.7307908073
 10
345.8698376012
 20
92.2595784344
 10
345.8556610666
 20
92.1304502734
 10
345.8302487475
 20
92.0033167853
 10
345.8032219294
 20
91.8763957666
 10
345.7312315316
 20
91.7655460354
 10
345.6395767613
 20
91.6738440594
 10
345.5477030478
 20
91.5823700951
 10
345.4396461798
 20
91.5085348521
 10
345.3206600123
 20
91.4560204401
 10
345.1299924808
 20
91.3743210904
 10
344.9306271113
 20
91.3120109783
 10
344.7228576972
 20
91.3084267647
 10
344.5154236323
 20
91.3084267647
 10
344.3079895673
 20
91.3084267647
 10
342.2336489182
 20
91.3084267647
 10
338.0849676199
 20
91.3084267647
 10
333.9362863216
 20
91.3084267647
 10
333.6769937404
 20
91.3084267647
 10
333.4177011593
 20
91.3084267647
 10
333.1584085781
 20
91.3084267647
 10
332.899115997
 20
91.3084267647
 10
332.6398234158
 20
91.3084267647
 10
332.3805308347
 20
91.3084267647
 10
332.1212382535
 20
91.3084267647
 10
331.8632182359
 20
91.328110472
 10
331.7580303998
 20
91.3543815737
 10
331.653801059
 20
91.3849304529
 10
331.5619108052
 20
91.4444889287
 10
331.4937698415
 20
91.4956114019
 10
331.4256288778
 20
91.5467338752
 10
331.3613882271
 20
91.6026827856
 10
331.3161286784
 20
91.6784750493
 10
331.2815876034
 20
91.7569093678
 10
331.2480178187
 20
91.8352022012
 10
331.1689407989
 20
92.019777764
 10
331.1247291491
 20
92.188702782
 10
331.1225969665
 20
92.3617641424
 10
331.1225969665
 20
92.5346258631
 10
331.1225969665
 20
92.7074875839
 10
331.1225969665
 20
92.8803493047
 10
331.1225969665
 20
93.0532110254
 10
331.1225969665
 20
96.1508930615
 10
331.1225969665
 20
96.4234890807
 10
331.1316790877
 20
96.69630111
 10
331.1717772014
 20
96.966154658
 10
331.2165917109
 20
97.2350417149
 10
331.2684458145
 20
97.5038559114
 10
331.3614644951
 20
97.6995006076
 10
331.4801714065
 20
97.8777864657
 10
331.598987516
 20
98.0559911583
 10
331.7240499458
 20
98.2302777607
 10
331.8704984748
 20
98.3872286092
  0
LWPOLYLINE
  5
198
330
1F
100
AcDbEntity
  8
ALLEN
370
    30
100
AcDbPolyline
 90
       55
 70
   128
 43
0.0
 10
332.2742148672
 20
90.6928232941
 10
332.2008133078
 20
90.6069467893
 10
332.1526705895
 20
90.5003713074
 10
332.1367623781
 20
90.3852046413
 10
332.1525346017
 20
90.2748420827
 10
332.216923021
 20
90.142969241
 10
332.3226402196
 20
90.0409278798
 10
332.4308332791
 20
89.9420178906
 10
333.0799916361
 20
89.3485579553
 10
334.3783083501
 20
88.1616380848
 10
334.5818844108
 20
87.975529049
 10
334.7862889981
 20
87.7902603827
 10
335.0081171565
 20
87.625783433
 10
335.2376100884
 20
87.4727710602
 10
335.4698159303
 20
87.3233473505
 10
335.7303860289
 20
87.228257924
 10
335.9812906798
 20
87.1598456957
 10
336.2326169569
 20
87.0926626687
 10
336.4921967977
 20
87.063222952
 10
336.7522742499
 20
87.0630166084
 10
337.0123384282
 20
87.0630166084
 10
339.33434002
 20
87.0630166084
 10
339.7565221275
 20
87.0630166084
 10
340.1787042351
 20
87.0630166084
 10
340.6014054136
 20
87.0762722116
 10
341.0111507182
 20
87.180077396
 10
341.415608104
 20
87.3026074637
 10
341.7864689105
 20
87.5153466416
 10
342.1425380217
 20
87.7576991518
 10
342.5148590523
 20
88.041034
 10
342.8519912644
 20
88.3649206719
 10
343.1830190989
 20
88.6959485064
 10
343.5140469335
 20
89.026976341
 10
343.8450747681
 20
89.3580041756
 10
344.3717099595
 20
89.884639367
 10
344.6034294438
 20
90.1163588513
 10
344.6944620983
 20
90.2073915058
 10
344.769871187
 20
90.3111962749
 10
344.7981564538
 20
90.4194057099
 10
344.7879448252
 20
90.5378546156
 10
344.7360577983
 20
90.6470439227
 10
344.6535563262
 20
90.7278061115
 10
344.5259922432
 20
90.7821365055
 10
344.3868282894
 20
90.787088874
 10
344.2478036918
 20
90.787088874
 10
344.1087790942
 20
90.787088874
 10
343.6718446445
 20
90.787088874
 10
342.8916045558
 20
90.787088874
 10
336.933407515
 20
90.787088874
 10
334.311800817
 20
90.787088874
 10
333.1582938699
 20
90.787088874
 10
332.6507508132
 20
90.787088874
 10
332.5178228698
 20
90.787088874
 10
332.3863095035
 20
90.7639318792
 10
332.2742148672
 20
90.6928232941
  0
SPLINE
  5
199
330
1F
100
AcDbEntity
  8
ALLEN
370
    30
100
AcDbSpline
210
0.0
220
0.0
230
1.0
 70
     8
 71
     3
 72
    56
 73
    52
 74
     0
 42
0.00000001
 43
0.00000001
 40
0.0
 40
0.0
 40
0.0
 40
0.0
 40
0.2798506068858227
 40
0.2798506068858227
 40
0.2798506068858227
 40
0.2912051678144988
 40
0.302559728743175
 40
0.3139142896718512
 40
0.3139142896718512
 40
0.3139142896718512
 40
0.3489142569512494
 40
0.3489142569512494
 40
0.3489142569512494
 40
0.359100905092782
 40
0.3692875532343144
 40
0.379474201375847
 40
0.379474201375847
 40
0.379474201375847
 40
0.4076856744705527
 40
0.4076856744705527
 40
0.4076856744705527
 40
0.4166857935986978
 40
0.425685912726843
 40
0.4346860318549882
 40
0.4346860318549882
 40
0.4346860318549882
 40
0.6725510085026724
 40
0.6725510085026724
 40
0.6725510085026724
 40
0.6815511276308176
 40
0.6905512467589627
 40
0.699551365887108
 40
0.699551365887108
 40
0.699551365887108
 40
0.7277628389818582
 40
0.7277628389818582
 40
0.7277628389818582
 40
0.7369843263761354
 40
0.7462058137704125
 40
0.7554273011646897
 40
0.7554273011646897
 40
0.7554273011646897
 40
0.7836387742593589
 40
0.7836387742593589
 40
0.7836387742593589
 40
0.7926388933874692
 40
0.8016390125155795
 40
0.8106391316436897
 40
0.8106391316436897
 40
0.8106391316436897
 40
1.0
 40
1.0
 40
1.0
 40
1.0
 10
340.3584368102813
 20
97.86272363965628
 30
0.0
 10
340.8023567183243
 20
97.86272363965628
 30
0.0
 10
341.2462766263674
 20
97.86272363965628
 30
0.0
 10
341.6901965344104
 20
97.86272363965637
 30
0.0
 10
341.7082079859467
 20
97.86272363965637
 30
0.0
 10
341.7442308890191
 20
97.86272363965631
 30
0.0
 10
341.7996333814588
 20
97.84964488531769
 30
0.0
 10
341.8318532454655
 20
97.83353495331426
 30
0.0
 10
341.8479631774688
 20
97.82547998731259
 30
0.0
 10
341.8976213805939
 20
97.80065088575004
 30
0.0
 10
341.9472795837189
 20
97.77582178418753
 30
0.0
 10
341.9969377868439
 20
97.75099268262508
 30
0.0
 10
342.0113906758577
 20
97.74376623811814
 30
0.0
 10
342.0402964538853
 20
97.72931334910434
 30
0.0
 10
342.0817727373704
 20
97.69823264886088
 30
0.0
 10
342.0997034083736
 20
97.67134545782868
 30
0.0
 10
342.1086687438751
 20
97.65790186231257
 30
0.0
 10
342.1334978454377
 20
97.62067041700007
 30
0.0
 10
342.1583269470001
 20
97.58343897168758
 30
0.0
 10
342.1831560485627
 20
97.54620752637506
 30
0.0
 10
342.191077112137
 20
97.53432982534189
 30
0.0
 10
342.2069192392855
 20
97.51057442327546
 30
0.0
 10
342.2203997009065
 20
97.46606362479768
 30
0.0
 10
342.2203997009065
 20
97.43751030415143
 30
0.0
 10
342.2203997009064
 20
97.42323364382833
 30
0.0
 10
342.2203997009064
 20
97.04591447438033
 30
0.0
 10
342.2203997009064
 20
96.66859530493232
 30
0.0
 10
342.2203997009065
 20
96.29127613548432
 30
0.0
 10
342.2203997009065
 20
96.27699947516116
 30
0.0
 10
342.2203997009065
 20
96.24844615451494
 30
0.0
 10
342.2069192392855
 20
96.20393535603714
 30
0.0
 10
342.191077112137
 20
96.18017995397079
 30
0.0
 10
342.1831560485627
 20
96.16830225293756
 30
0.0
 10
342.1583269470001
 20
96.1310708076251
 30
0.0
 10
342.1334978454377
 20
96.09383936231258
 30
0.0
 10
342.1086687438751
 20
96.05660791700008
 30
0.0
 10
342.1005528526453
 20
96.044438070269
 30
0.0
 10
342.0843210701856
 20
96.0200983768068
 30
0.0
 10
342.0520874637558
 20
95.98786477037707
 30
0.0
 10
342.0277477702936
 20
95.97163298791742
 30
0.0
 10
342.0155779235625
 20
95.96351709668751
 30
0.0
 10
341.97834647825
 20
95.93868799512506
 30
0.0
 10
341.9411150329376
 20
95.91385889356252
 30
0.0
 10
341.9038835876251
 20
95.88902979200009
 30
0.0
 10
341.8920058865918
 20
95.88110872842582
 30
0.0
 10
341.8682504845254
 20
95.86526660127726
 30
0.0
 10
341.8237396860478
 20
95.85178613965631
 30
0.0
 10
341.7951863654015
 20
95.85178613965631
 30
0.0
 10
341.7809097050783
 20
95.85178613965631
 30
0.0
 10
341.4805313703543
 20
95.85178613965631
 30
0.0
 10
341.1801530356303
 20
95.85178613965631
 30
0.0
 10
340.8797747009064
 20
95.85178613965631
 30
0.0
  0
SPLINE
  5
19A
330
1F
100
AcDbEntity
  8
ALLEN
370
    30
100
AcDbSpline
210
0.0
220
0.0
230
1.0
 70
     8
 71
     3
 72
    56
 73
    52
 74
     0
 42
0.00000001
 43
0.00000001
 40
0.0
 40
0.0
 40
0.0
 40
0.0
 40
0.2120532123235044
 40
0.2120532123235044
 40
0.2120532123235044
 40
0.2217394515608651
 40
0.2314256907982259
 40
0.2411119300355866
 40
0.2411119300355866
 40
0.2411119300355866
 40
0.2709693642856582
 40
0.2709693642856582
 40
0.2709693642856582
 40
0.2804080193765581
 40
0.289846674467458
 40
0.2992853295583579
 40
0.2992853295583579
 40
0.2992853295583579
 40
0.3291251493807547
 40
0.3291251493807547
 40
0.3291251493807547
 40
0.3388058990020812
 40
0.3484866486234077
 40
0.3581673982447342
 40
0.3581673982447342
 40
0.3581673982447342
 40
0.538918825801326
 40
0.538918825801326
 40
0.538918825801326
 40
0.5506836716346539
 40
0.5624485174679817
 40
0.5742133633013097
 40
0.5742133633013097
 40
0.5742133633013097
 40
0.610155505115347
 40
0.610155505115347
 40
0.610155505115347
 40
0.619595707653569
 40
0.629035910191791
 40
0.6384761127300129
 40
0.6384761127300129
 40
0.6384761127300129
 40
0.6660048998913444
 40
0.6660048998913444
 40
0.6660048998913444
 40
0.6751122798999579
 40
0.6842196599085716
 40
0.6933270399171851
 40
0.6933270399171851
 40
0.6933270399171851
 40
1.0
 40
1.0
 40
1.0
 40
1.0
 10
340.8797747009064
 20
95.25588770215631
 30
0.0
 10
341.2740852339494
 20
95.25588770215631
 30
0.0
 10
341.6683957669924
 20
95.25588770215631
 30
0.0
 10
342.0627063000354
 20
95.25588770215631
 30
0.0
 10
342.0807177515716
 20
95.25588770215631
 30
0.0
 10
342.1167406546441
 20
95.25588770215631
 30
0.0
 10
342.1721431470837
 20
95.24280894781766
 30
0.0
 10
342.2043630110905
 20
95.22669901581432
 30
0.0
 10
342.2204729430939
 20
95.21864404981254
 30
0.0
 10
342.2701311462188
 20
95.19381494825002
 30
0.0
 10
342.3197893493438
 20
95.16898584668759
 30
0.0
 10
342.3694475524687
 20
95.14415674512507
 30
0.0
 10
342.3851457081712
 20
95.13630766727388
 30
0.0
 10
342.4165420195758
 20
95.12060951157153
 30
0.0
 10
342.4576039222245
 20
95.07956150884073
 30
0.0
 10
342.473295899679
 20
95.04816210907194
 30
0.0
 10
342.4811418884062
 20
95.03246240918762
 30
0.0
 10
342.5059465759063
 20
94.98282862012505
 30
0.0
 10
342.5307512634063
 20
94.93319483106258
 30
0.0
 10
342.5555559509064
 20
94.88356104200012
 30
0.0
 10
342.5636031834484
 20
94.86745865641161
 30
0.0
 10
342.5796976485324
 20
94.83525388523456
 30
0.0
 10
342.5927629821563
 20
94.77988388175032
 30
0.0
 10
342.5927629821563
 20
94.74388139443482
 30
0.0
 10
342.5927629821563
 20
94.72588015077704
 30
0.0
 10
342.5927629821563
 20
94.38977492998247
 30
0.0
 10
342.5927629821563
 20
94.05366970918783
 30
0.0
 10
342.5927629821563
 20
93.71756448839325
 30
0.0
 10
342.5927629821563
 20
93.69568789156702
 30
0.0
 10
342.5927629821563
 20
93.6519346979145
 30
0.0
 10
342.5799137083731
 20
93.5851650051022
 30
0.0
 10
342.5636752033953
 20
93.54453677709662
 30
0.0
 10
342.5555559509064
 20
93.5242226630938
 30
0.0
 10
342.5307512634063
 20
93.46216211621882
 30
0.0
 10
342.5059465759063
 20
93.4001015693438
 30
0.0
 10
342.4811418884063
 20
93.33804102246884
 30
0.0
 10
342.4746269379309
 20
93.3217408215747
 30
0.0
 10
342.46159703698
 20
93.28914041978653
 30
0.0
 10
342.4205340924354
 20
93.23909425857575
 30
0.0
 10
342.3864763991244
 20
93.23057146315031
 30
0.0
 10
342.3694475524687
 20
93.22631006543754
 30
0.0
 10
342.3197893493438
 20
93.21388330762508
 30
0.0
 10
342.2701311462188
 20
93.2014565498126
 30
0.0
 10
342.2204729430939
 20
93.18902979200011
 30
0.0
 10
342.2040444631992
 20
93.1849186335604
 30
0.0
 10
342.1711875034101
 20
93.17669631668099
 30
0.0
 10
342.1200066473236
 20
93.17038965528134
 30
0.0
 10
342.0861365085366
 20
93.17038965528134
 30
0.0
 10
342.069201439143
 20
93.17038965528134
 30
0.0
 10
341.4989465628559
 20
93.17038965528134
 30
0.0
 10
340.9286916865685
 20
93.17038965528134
 30
0.0
 10
340.3584368102813
 20
93.17038965528134
 30
0.0
  0
LWPOLYLINE
  5
19B
330
1F
100
AcDbEntity
  8
ALLEN
370
    30
100
AcDbPolyline
 90
       29
 70
   128
 43
0.0
 10
337.6026262634
 20
95.7028115303
 10
337.602632069
 20
95.3992795895
 10
337.6053761259
 20
95.3617908807
 10
337.6206576666
 20
95.32637147
 10
337.6561229701
 20
95.2951194451
 10
337.7028156586
 20
95.2716210496
 10
337.7873318332
 20
95.2560315182
 10
337.8632952087
 20
95.2558877022
 10
338.1668281077
 20
95.2558877022
 10
338.2428789021
 20
95.2561883752
 10
338.3287500431
 20
95.2744354429
 10
338.3746809352
 20
95.2993293911
 10
338.407341237
 20
95.331384202
 10
338.4200918558
 20
95.3672213386
 10
338.4219133728
 20
95.4048623115
 10
338.4219075672
 20
95.7083942523
 10
338.4191635103
 20
95.7458829611
 10
338.4038819695
 20
95.7813023718
 10
338.368416666
 20
95.8125543967
 10
338.3217239776
 20
95.8360527922
 10
338.237207803
 20
95.8516423237
 10
338.1612444275
 20
95.8517861397
 10
337.8577115284
 20
95.8517861397
 10
337.7816607341
 20
95.8514854666
 10
337.6957895931
 20
95.8332383989
 10
337.649858701
 20
95.8083444507
 10
337.6171983992
 20
95.7762896399
 10
337.6044477804
 20
95.7404525033
 10
337.6026262634
 20
95.7028115303
  0
SPLINE
  5
19C
330
1F
100
AcDbEntity
  8
ALLEN
370
    30
100
AcDbSpline
210
0.0
220
0.0
230
1.0
 70
     8
 71
     3
 72
   104
 73
   100
 74
     0
 42
0.00000001
 43
0.00000001
 40
0.0
 40
0.0
 40
0.0
 40
0.0
 40
0.0514226809773395
 40
0.0514226809773395
 40
0.0514226809773395
 40
0.0616423292371592
 40
0.0718619774969789
 40
0.0820816257567986
 40
0.0820816257567986
 40
0.0820816257567986
 40
0.1103461420330607
 40
0.1103461420330607
 40
0.1103461420330607
 40
0.1189328808310808
 40
0.1275196196291009
 40
0.136106358427121
 40
0.136106358427121
 40
0.136106358427121
 40
0.1603338960815236
 40
0.1603338960815236
 40
0.1603338960815236
 40
0.1679541630707509
 40
0.1755744300599782
 40
0.1831946970492055
 40
0.1831946970492055
 40
0.1831946970492055
 40
0.2048738448068388
 40
0.2048738448068388
 40
0.2048738448068388
 40
0.2119069143560584
 40
0.2189399839052781
 40
0.2259730534544977
 40
0.2259730534544977
 40
0.2259730534544977
 40
0.3884933552561804
 40
0.3884933552561804
 40
0.3884933552561804
 40
0.3955264248054064
 40
0.4025594943546324
 40
0.4095925639038584
 40
0.4095925639038584
 40
0.4095925639038584
 40
0.4312717116615638
 40
0.4312717116615638
 40
0.4312717116615638
 40
0.4382207156790982
 40
0.4451697196966327
 40
0.4521187237141671
 40
0.4521187237141671
 40
0.4521187237141671
 40
0.472678628155521
 40
0.472678628155521
 40
0.472678628155521
 40
0.4823353761633305
 40
0.4919921241711401
 40
0.5016488721789496
 40
0.5016488721789496
 40
0.5016488721789496
 40
0.5512189153874618
 40
0.5512189153874618
 40
0.5512189153874618
 40
0.5571000008128726
 40
0.5629810862382834
 40
0.5688621716636941
 40
0.5688621716636941
 40
0.5688621716636941
 40
0.607935943225815
 40
0.607935943225815
 40
0.607935943225815
 40
0.6182181424305805
 40
0.6285003416353458
 40
0.6387825408401113
 40
0.6387825408401113
 40
0.6387825408401113
 40
0.6648921173631952
 40
0.6648921173631952
 40
0.6648921173631952
 40
0.673438328293788
 40
0.6819845392243808
 40
0.6905307501549737
 40
0.6905307501549737
 40
0.6905307501549737
 40
0.8010827346384493
 40
0.8010827346384493
 40
0.8010827346384493
 40
0.8214235353879105
 40
0.8417643361373717
 40
0.8621051368868329
 40
0.8621051368868329
 40
0.8621051368868329
 40
0.9035124907190127
 40
0.9035124907190127
 40
0.9035124907190127
 40
0.9161316047926409
 40
0.9287507188662689
 40
0.941369832939897
 40
0.941369832939897
 40
0.941369832939897
 40
1.0
 40
1.0
 40
1.0
 40
1.0
 10
342.5927629821563
 20
92.57463770215634
 30
0.0
 10
342.7231340759064
 20
92.59324121778133
 30
0.0
 10
342.8535051696564
 20
92.6118447334063
 30
0.0
 10
342.9838762634065
 20
92.63044824903133
 30
0.0
 10
343.0097859728198
 20
92.6341454772285
 30
0.0
 10
343.0616053916463
 20
92.64153993362281
 30
0.0
 10
343.1400201713504
 20
92.66452356420784
 30
0.0
 10
343.1848988420961
 20
92.69146489054847
 30
0.0
 10
343.2073381774689
 20
92.70493555371881
 30
0.0
 10
343.2693987243438
 20
92.7421914130938
 30
0.0
 10
343.3314592712188
 20
92.77944727246883
 30
0.0
 10
343.3935198180939
 20
92.81670313184381
 30
0.0
 10
343.412373765583
 20
92.82802143391633
 30
0.0
 10
343.4500816605612
 20
92.8506580380614
 30
0.0
 10
343.5028710311281
 20
92.89426389035107
 30
0.0
 10
343.5292622146259
 20
92.92944636645042
 30
0.0
 10
343.5424578063751
 20
92.94703760449998
 30
0.0
 10
343.5796892516876
 20
92.99667139356252
 30
0.0
 10
343.616920697
 20
93.04630518262499
 30
0.0
 10
343.6541521423126
 20
93.09593897168756
 30
0.0
 10
343.6658625174123
 20
93.11155024550905
 30
0.0
 10
343.6892832676117
 20
93.14277279315199
 30
0.0
 10
343.7210605150781
 20
93.19251206487492
 30
0.0
 10
343.7385154801094
 20
93.22742199493753
 30
0.0
 10
343.7472429626249
 20
93.24487695996876
 30
0.0
 10
343.7720720641875
 20
93.2945351630938
 30
0.0
 10
343.79690116575
 20
93.34419336621879
 30
0.0
 10
343.8217302673126
 20
93.39385156934382
 30
0.0
 10
343.8297852333143
 20
93.4099615013472
 30
0.0
 10
343.8458951653178
 20
93.44218136535402
 30
0.0
 10
343.8589739196563
 20
93.49758385779359
 30
0.0
 10
343.8589739196563
 20
93.53360676086608
 30
0.0
 10
343.8589739196563
 20
93.55161821240229
 30
0.0
 10
343.8589739196563
 20
93.96782716911328
 30
0.0
 10
343.8589739196563
 20
94.38403612582432
 30
0.0
 10
343.8589739196563
 20
94.80024508253531
 30
0.0
 10
343.8589739196563
 20
94.81825653407161
 30
0.0
 10
343.8589739196563
 20
94.85427943714406
 30
0.0
 10
343.8458951653176
 20
94.90968192958363
 30
0.0
 10
343.8297852333143
 20
94.94190179359043
 30
0.0
 10
343.8217302673126
 20
94.95801172559376
 30
0.0
 10
343.79690116575
 20
95.00766992871881
 30
0.0
 10
343.7720720641875
 20
95.05732813184379
 30
0.0
 10
343.747242962625
 20
95.10698633496884
 30
0.0
 10
343.7392842767745
 20
95.12290370666979
 30
0.0
 10
343.7233669050736
 20
95.15473845007175
 30
0.0
 10
343.6919035040165
 20
95.19956944592111
 30
0.0
 10
343.6667359295471
 20
95.22473702039045
 30
0.0
 10
343.6541521423125
 20
95.23732080762512
 30
0.0
 10
343.616920697
 20
95.27455225293754
 30
0.0
 10
343.5796892516874
 20
95.31178369825008
 30
0.0
 10
343.5424578063751
 20
95.34901514356255
 30
0.0
 10
343.5249706295074
 20
95.36650232043026
 30
0.0
 10
343.489996275772
 20
95.40147667416565
 30
0.0
 10
343.4155399650053
 20
95.4285628901173
 30
0.0
 10
343.3686189966974
 20
95.44421004869206
 30
0.0
 10
343.3451585125434
 20
95.45203362797943
 30
0.0
 10
343.2247310961645
 20
95.49219364489258
 30
0.0
 10
343.1043036797855
 20
95.53235366180571
 30
0.0
 10
342.9838762634064
 20
95.57251367871878
 30
0.0
 10
342.9695885227177
 20
95.57727834049562
 30
0.0
 10
342.9410130413405
 20
95.58680766404932
 30
0.0
 10
342.9073987139023
 20
95.68043665575077
 30
0.0
 10
342.9335546453425
 20
95.69537765283361
 30
0.0
 10
342.9466326110625
 20
95.70284815137501
 30
0.0
 10
343.0335222595
 20
95.75248194043756
 30
0.0
 10
343.1204119079375
 20
95.80211572950003
 30
0.0
 10
343.2073015563751
 20
95.85174951856254
 30
0.0
 10
343.2301664255277
 20
95.86481056913499
 30
0.0
 10
343.2758961638328
 20
95.89093267027978
 30
0.0
 10
343.3455458733623
 20
95.94597870179611
 30
0.0
 10
343.3651017453708
 20
95.99487799630707
 30
0.0
 10
343.3748796813751
 20
96.01932764356258
 30
0.0
 10
343.3997087829375
 20
96.08141260450004
 30
0.0
 10
343.4245378845002
 20
96.14349756543758
 30
0.0
 10
343.4493669860626
 20
96.2055825263751
 30
0.0
 10
343.4574940707353
 20
96.22590423367356
 30
0.0
 10
343.4737482400805
 20
96.2665476482705
 30
0.0
 10
343.4866106384064
 20
96.33334890666525
 30
0.0
 10
343.4866106384064
 20
96.3771220168039
 30
0.0
 10
343.4866106384063
 20
96.39900857187322
 30
0.0
 10
343.4866106384063
 20
96.68212843821755
 30
0.0
 10
343.4866106384063
 20
96.96524830456194
 30
0.0
 10
343.4866106384064
 20
97.24836817090626
 30
0.0
 10
343.4866106384064
 20
97.30046026872283
 30
0.0
 10
343.4866106384064
 20
97.40464446435593
 30
0.0
 10
343.4856317974829
 20
97.56753136169793
 30
0.0
 10
343.449052912786
 20
97.66508304960766
 30
0.0
 10
343.4307634704375
 20
97.71385889356257
 30
0.0
 10
343.393532025125
 20
97.81315088575002
 30
0.0
 10
343.3563005798125
 20
97.91244287793755
 30
0.0
 10
343.3190691345001
 20
98.01173487012504
 30
0.0
 10
343.3077226510366
 20
98.04199463946675
 30
0.0
 10
343.2850296841095
 20
98.10251417815019
 30
0.0
 10
343.2170311396863
 20
98.18706390947452
 30
0.0
 10
343.1609109617496
 20
98.21912807855404
 30
0.0
 10
343.1328508727813
 20
98.23516016309381
 30
0.0
 10
343.0024797790313
 20
98.30964746778132
 30
0.0
 10
342.8721086852813
 20
98.38413477246883
 30
0.0
 10
342.7417375915313
 20
98.45862207715633
 30
0.0
  0
MTEXT
  5
19E
330
1F
100
AcDbEntity
  8
FORMATE
100
AcDbMText
 10
326.9435557605
 20
61.6779445913
 30
0.0
 40
2.6458333333
 41
0.0
 71
     1
 72
     1
  1
DRAWN
  7
SLDTEXTSTYLE0
 73
     1
 44
1.0
  0
MTEXT
  5
19F
330
1F
100
AcDbEntity
  8
FORMATE
100
AcDbMText
 10
326.7549486556
 20
51.9501456779
 30
0.0
 40
2.6458333333
 41
0.0
 71
     1
 72
     1
  1
CHECKED
  7
SLDTEXTSTYLE0
 73
     1
 44
1.0
  0
MTEXT
  5
1A0
330
1F
100
AcDbEntity
  8
FORMATE
100
AcDbMText
 10
326.8034599254
 20
41.6419019522
 30
0.0
 40
2.6458333333
 41
0.0
 71
     1
 72
     1
  1
APPROVED
  7
SLDTEXTSTYLE0
 73
     1
 44
1.0
  0
MTEXT
  5
1A1
330
1F
100
AcDbEntity
  8
FORMATE
100
AcDbMText
 10
327.0470668773
 20
31.2449543612
 30
0.0
 40
3.175
 41
0.0
 71
     1
 72
     1
  1
Drawing No.
  7
SLDTEXTSTYLE0
 73
     1
 44
1.0
  0
MTEXT
  5
1A2
330
1F
100
AcDbEntity
  8
FORMATE
100
AcDbMText
 10
384.2421915797
 20
51.4942028987
 30
0.0
 40
2.6458333333
 41
0.0
 71
     1
 72
     1
  1
DATE
  7
SLDTEXTSTYLE0
 73
     1
 44
1.0
  0
MTEXT
  5
1A3
330
1F
100
AcDbEntity
  8
FORMATE
100
AcDbMText
 10
384.2421915797
 20
41.9744768219
 30
0.0
 40
2.6458333333
 41
0.0
 71
     1
 72
     1
  1
DATE
  7
SLDTEXTSTYLE0
 73
     1
 44
1.0
  0
MTEXT
  5
1A4
330
1F
100
AcDbEntity
  8
FORMATE
100
AcDbMText
 10
384.2357030025
 20
61.724500177
 30
0.0
 40
2.6458333333
 41
0.0
 71
     1
 72
     1
  1
DATE
  7
SLDTEXTSTYLE0
 73
     1
 44
1.0
  0
MTEXT
  5
1A6
330
1F
100
AcDbEntity
  8
FORMATE
100
AcDbMText
 10
328.3359830831
 20
151.4535475873
 30
0.0
 40
2.6458333333
 41
0.0
 71
     1
 72
     1
  1
THIRD ANGLE PROJ.
  7
SLDTEXTSTYLE1
 73
     1
 44
1.0
  0
MTEXT
  5
1A7
330
1F
100
AcDbEntity
  8
FORMATE
100
AcDbMText
 10
366.222085563
 20
151.4535475873
 30
0.0
 40
2.6458333333
 41
0.0
 71
     1
 72
     1
  1
SCALE
  7
SLDTEXTSTYLE0
 73
     1
 44
1.0
  0
MTEXT
  5
1A8
330
1F
100
AcDbEntity
  8
FORMATE
100
AcDbMText
 10
327.0746592433
 20
116.5333062783
 30
0.0
 40
2.6458333333
 41
0.0
 71
     1
 72
     1
  1
TITLE
  7
SLDTEXTSTYLE0
 73
     1
 44
1.0
  0
INSERT
  5
1B3
330
1F
100
AcDbEntity
  8
FORMATE
100
AcDbBlockReference
  2
SW_NOTE_0
 10
326.2472877335
 20
279.5844981505
 30
0.0
  0
MTEXT
  5
1B4
330
1F
100
AcDbEntity
  8
FORMATE
100
AcDbMText
 10
12.4188559497
 20
219.1303001712
 30
0.0
 40
3.7041666667
 41
0.0
 71
     1
 72
     1
  1
DRG No.
  7
SLDTEXTSTYLE0
 11
-3.269438756184351E-15
 21
1.0
 31
0.0
 73
     1
 44
1.0
  0
MTEXT
  5
1B5
330
1F
100
AcDbEntity
  8
FORMATE
100
AcDbMText
 10
327.07975466
 20
17.1962862159
 30
0.0
 40
2.6458333333
 41
0.0
 71
     1
 72
     1
  1
:
  7
SLDTEXTSTYLE0
 73
     1
 44
1.0
  0
MTEXT
  5
1B6
330
1F
100
AcDbEntity
  8
FORMATE
100
AcDbMText
 10
20.1207767441
 20
218.5181579052
 30
0.0
 40
5.2916666667
 41
0.0
 71
     1
 72
     1
  1
440N-Z30PT
  7
SLDTEXTSTYLE0
 11
-3.269438756184351E-15
 21
1.0
 31
0.0
 73
     1
 44
1.0
  0
MTEXT
  5
1B7
330
1F
100
AcDbEntity
  8
FORMATE
100
AcDbMText
 10
327.07975466
 20
25.8215114734
 30
0.0
 40
5.2916666667
 41
0.0
 71
     1
 72
     1
  1
440N-Z30PT
  7
SLDTEXTSTYLE0
 73
     1
 44
1.0
  0
MTEXT
  5
1B8
330
1F
100
AcDbEntity
  8
FORMATE
100
AcDbMText
 10
382.6145590856
 20
148.4152478342
 30
0.0
 40
3.175
 41
0.0
 71
     1
 72
     1
  1
1:1
  7
SLDTEXTSTYLE0
 73
     1
 44
1.0
  0
MTEXT
  5
1B9
330
1F
100
AcDbEntity
  8
FORMATE
100
AcDbMText
 10
42.6300023961
 20
284.0685551515
 30
0.0
 40
2.6458333333
 41
0.0
 71
     1
 72
     1
  1
ALL DIMENSIONS ARE REFENECE ONLY
  7
SLDTEXTSTYLE1
 73
     1
 44
1.0
  0
MTEXT
  5
1BB
330
1F
100
AcDbEntity
  8
FORMATE
100
AcDbMText
 10
166.4036642568
 20
283.9259813428
 30
0.0
 40
2.6458333333
 41
0.0
 71
     1
 72
     1
  1
DO NOT SCALE
  7
SLDTEXTSTYLE5
 73
     1
 44
1.0
  0
MTEXT
  5
1BC
330
1F
100
AcDbEntity
  8
FORMATE
100
AcDbMText
 10
246.9925944293
 20
284.0685551515
 30
0.0
 40
2.6458333333
 41
0.0
 71
     1
 72
     1
  1
ALL DIMENSIONS ARE REFENECE ONLY
  7
SLDTEXTSTYLE1
 73
     1
 44
1.0
  0
MTEXT
  5
1BD
330
1F
100
AcDbEntity
  8
FORMATE
100
AcDbMText
 10
5.8605030952
 20
30.5100317421
 30
0.0
 40
2.6458333333
 41
0.0
 71
     1
 72
     1
  1
1
  7
SLDTEXTSTYLE0
 73
     1
 44
1.0
  0
MTEXT
  5
1BE
330
1F
100
AcDbEntity
  8
FORMATE
100
AcDbMText
 10
5.8765449628
 20
70.0378352495
 30
0.0
 40
2.6458333333
 41
0.0
 71
     1
 72
     1
  1
2
  7
SLDTEXTSTYLE0
 73
     1
 44
1.0
  0
MTEXT
  5
1BF
330
1F
100
AcDbEntity
  8
FORMATE
100
AcDbMText
 10
6.0164300485
 20
110.5467593809
 30
0.0
 40
2.6458333333
 41
0.0
 71
     1
 72
     1
  1
3
  7
SLDTEXTSTYLE0
 73
     1
 44
1.0
  0
MTEXT
  5
1C0
330
1F
100
AcDbEntity
  8
FORMATE
100
AcDbMText
 10
6.1563151342
 20
147.8139429022
 30
0.0
 40
2.6458333333
 41
0.0
 71
     1
 72
     1
  1
4
  7
SLDTEXTSTYLE0
 73
     1
 44
1.0
  0
MTEXT
  5
1C1
330
1F
100
AcDbEntity
  8
FORMATE
100
AcDbMText
 10
6.2962002199
 20
188.8002730142
 30
0.0
 40
2.6458333333
 41
0.0
 71
     1
 72
     1
  1
5
  7
SLDTEXTSTYLE0
 73
     1
 44
1.0
  0
MTEXT
  5
1C2
330
1F
100
AcDbEntity
  8
FORMATE
100
AcDbMText
 10
6.1563151342
 20
228.8074075262
 30
0.0
 40
2.6458333333
 41
0.0
 71
     1
 72
     1
  1
6
  7
SLDTEXTSTYLE0
 73
     1
 44
1.0
  0
MTEXT
  5
1C3
330
1F
100
AcDbEntity
  8
FORMATE
100
AcDbMText
 10
6.4360853056
 20
269.3740823811
 30
0.0
 40
2.6458333333
 41
0.0
 71
     1
 72
     1
  1
7
  7
SLDTEXTSTYLE0
 73
     1
 44
1.0
  0
MTEXT
  5
1C4
330
1F
100
AcDbEntity
  8
FORMATE
100
AcDbMText
 10
29.0974691901
 20
291.0562706656
 30
0.0
 40
2.6458333333
 41
0.0
 71
     1
 72
     1
  1
A
  7
SLDTEXTSTYLE0
 73
     1
 44
1.0
  0
MTEXT
  5
1C5
330
1F
100
AcDbEntity
  8
FORMATE
100
AcDbMText
 10
70.3635694734
 20
291.336040837
 30
0.0
 40
2.6458333333
 41
0.0
 71
     1
 72
     1
  1
B
  7
SLDTEXTSTYLE0
 73
     1
 44
1.0
  0
MTEXT
  5
1C6
330
1F
100
AcDbEntity
  8
FORMATE
100
AcDbMText
 10
110.3707039855
 20
290.9163855799
 30
0.0
 40
2.6458333333
 41
0.0
 71
     1
 72
     1
  1
C
  7
SLDTEXTSTYLE0
 73
     1
 44
1.0
  0
MTEXT
  5
1C7
330
1F
100
AcDbEntity
  8
FORMATE
100
AcDbMText
 10
149.1188727262
 20
291.1961557513
 30
0.0
 40
2.6458333333
 41
0.0
 71
     1
 72
     1
  1
D
  7
SLDTEXTSTYLE0
 73
     1
 44
1.0
  0
MTEXT
  5
1C8
330
1F
100
AcDbEntity
  8
FORMATE
100
AcDbMText
 10
188.1468116382
 20
291.0562706656
 30
0.0
 40
2.6458333333
 41
0.0
 71
     1
 72
     1
  1
E
  7
SLDTEXTSTYLE0
 73
     1
 44
1.0
  0
MTEXT
  5
1C9
330
1F
100
AcDbEntity
  8
FORMATE
100
AcDbMText
 10
228.7134864931
 20
291.1961557513
 30
0.0
 40
2.6458333333
 41
0.0
 71
     1
 72
     1
  1
F
  7
SLDTEXTSTYLE0
 73
     1
 44
1.0
  0
MTEXT
  5
1CA
330
1F
100
AcDbEntity
  8
FORMATE
100
AcDbMText
 10
266.902114891
 20
291.0562706656
 30
0.0
 40
2.6458333333
 41
0.0
 71
     1
 72
     1
  1
G
  7
SLDTEXTSTYLE0
 73
     1
 44
1.0
  0
MTEXT
  5
1CB
330
1F
100
AcDbEntity
  8
FORMATE
100
AcDbMText
 10
307.1890195744
 20
290.7765004942
 30
0.0
 40
2.6458333333
 41
0.0
 71
     1
 72
     1
  1
H
  7
SLDTEXTSTYLE0
 73
     1
 44
1.0
  0
MTEXT
  5
1CC
330
1F
100
AcDbEntity
  8
FORMATE
100
AcDbMText
 10
346.6366137436
 20
290.6366154085
 30
0.0
 40
2.6458333333
 41
0.0
 71
     1
 72
     1
  1
I
  7
SLDTEXTSTYLE0
 73
     1
 44
1.0
  0
MTEXT
  5
1CD
330
1F
100
AcDbEntity
  8
FORMATE
100
AcDbMText
 10
386.3639780842
 20
290.6366154085
 30
0.0
 40
2.6458333333
 41
0.0
 71
     1
 72
     1
  1
J
  7
SLDTEXTSTYLE0
 73
     1
 44
1.0
  0
MTEXT
  5
1CE
330
1F
100
AcDbEntity
  8
FORMATE
100
AcDbMText
 10
363.0751721037
 20
131.5567241365
 30
0.0
 40
2.6458333333
 41
0.0
 71
     1
 72
     1
  1
N/A
  7
SLDTEXTSTYLE0
 73
     1
 44
1.0
  0
MTEXT
  5
1CF
330
1F
100
AcDbEntity
  8
FORMATE
100
AcDbMText
 10
326.9941793572
 20
135.8563298025
 30
0.0
 40
2.6458333333
 41
0.0
 71
     1
 72
     1
  1
MATERIAL
  7
SLDTEXTSTYLE0
 73
     1
 44
1.0
  0
MTEXT
  5
1D0
330
1F
100
AcDbEntity
  8
FORMATE
100
AcDbMText
 10
363.0751721037
 20
122.6468928895
 30
0.0
 40
2.6458333333
 41
0.0
 71
     1
 72
     1
  1
N/A
  7
SLDTEXTSTYLE0
 73
     1
 44
1.0
  0
MTEXT
  5
1D1
330
1F
100
AcDbEntity
  8
FORMATE
100
AcDbMText
 10
326.4926663432
 20
125.0302794639
 30
0.0
 40
2.6458333333
 41
0.0
 71
     1
 72
     1
  1
FINISH
  7
SLDTEXTSTYLE0
 73
     1
 44
1.0
  0
MTEXT
  5
1D3
330
1F
100
AcDbEntity
  8
FORMATE
100
AcDbMText
 10
398.2186298418
 20
7.7558087259
 30
0.0
 40
0.79375
 41
0.0
 71
     1
 72
     1
  1
3D Cad System Services
  7
SLDTEXTSTYLE6
 73
     1
 44
1.0
  0
MTEXT
  5
1D4
330
1F
100
AcDbEntity
  8
FORMATE
100
AcDbMText
 10
9.4133234525
 20
273.6529793243
 30
0.0
 40
0.79375
 41
0.0
 71
     1
 72
     1
  1
3D Cad System Services
  7
SLDTEXTSTYLE6
 11
-3.491483361109382E-15
 21
1.0
 31
0.0
 73
     1
 44
1.0
  0
MTEXT
  5
1D5
330
1F
100
AcDbEntity
  8
FORMATE
100
AcDbMText
 10
365.0290763636
 20
111.7871211601
 30
0.0
 40
2.6458333333
 41
0.0
 71
     1
 72
     1
  1
-
  7
SLDTEXTSTYLE0
 73
     1
 44
1.0
  0
MTEXT
  5
1D7
330
1F
100
AcDbEntity
  8
FORMATE
100
AcDbMText
 10
343.0242569467
 20
116.3639522304
 30
0.0
 40
2.6458333333
 41
0.0
 71
     1
 72
     1
  1
30mm PLASTIC ACTUATOR
  7
SLDTEXTSTYLE7
 73
     1
 44
1.0
  0
MTEXT
  5
1D8
330
1F
100
AcDbEntity
  8
ALLEN
100
AcDbMText
 10
350.7896680495
 20
99.7391732826
 30
0.0
 40
6.35
 41
0.0
 71
     1
 72
     1
  1
Allen-Bradley
  7
SLDTEXTSTYLE0
 73
     1
 44
1.0
  0
MTEXT
  5
1DA
330
1F
100
AcDbEntity
  8
ALLEN
100
AcDbMText
 10
336.4192286834
 20
89.6396102781
 30
0.0
 40
1.3229166667
 41
0.0
 71
     1
 72
     1
  1
QUAILTY
  7
SLDTEXTSTYLE8
 73
     1
 44
1.0
  0
MTEXT
  5
1DB
330
1F
100
AcDbEntity
  8
AUTOMATION
100
AcDbMText
 10
350.20751556
 20
12.3966610635
 30
0.0
 40
3.175
 41
0.0
 71
     1
 72
     1
  1
Automation
  7
SLDTEXTSTYLE8
 73
     1
 44
1.0
  0
MTEXT
  5
1DD
330
1F
100
AcDbEntity
  8
ROCKWELL
100
AcDbMText
 10
351.3914027316
 20
17.0438347547
 30
0.0
 40
3.175
 41
0.0
 71
     1
 72
     1
  1
   Rockwell
  7
SLDTEXTSTYLE9
 73
     1
 44
1.0
  0
CIRCLE
  5
1DE
330
1F
100
AcDbEntity
  8
0
  6
Continuous
 62
     7
370
    15
100
AcDbCircle
 10
150.1085377358
 20
137.6578301887
 30
0.0
 40
15.20000000000002
  0
CIRCLE
  5
1DF
330
1F
100
AcDbEntity
  8
0
  6
Continuous
 62
     7
370
    15
100
AcDbCircle
 10
150.1085377358
 20
137.6578301887
 30
0.0
 40
14.20000000000002
  0
ARC
  5
1E0
330
1F
100
AcDbEntity
  8
0
  6
Continuous
 62
     7
370
    15
100
AcDbCircle
 10
150.1085377358
 20
159.8778301887
 30
0.0
 40
4.890000000000203
100
AcDbArc
 50
35.5531663324
 51
164.8823520658
  0
LINE
  5
1E1
330
1F
100
AcDbEntity
  8
0
  6
Continuous
 62
     7
370
    15
100
AcDbLine
 10
145.3877691644
 20
161.1531513619
 30
0.0
 11
143.4569844726
 21
161.6747551137
 31
0.0
  0
ARC
  5
1E2
330
1F
100
AcDbEntity
  8
0
  6
Continuous
 62
     7
370
    15
100
AcDbCircle
 10
150.1085377358
 20
159.8778301887
 30
0.0
 40
6.890000000000189
100
AcDbArc
 50
35.5531663324
 51
164.8823520658
  0
LINE
  5
1E3
330
1F
100
AcDbEntity
  8
0
  6
Continuous
 62
     7
370
    15
100
AcDbLine
 10
154.0869259292
 20
162.7211605217
 30
0.0
 11
155.7140785646
 21
163.8840768133
 31
0.0
  0
ARC
  5
1E4
330
1F
100
AcDbEntity
  8
0
  6
Continuous
 62
     7
370
    15
100
AcDbCircle
 10
150.1085377358
 20
137.6578301887
 30
0.0
 40
17.81000000000002
100
AcDbArc
 50
234.4468336676
 51
35.5531663324
  0
LINE
  5
1E5
330
1F
100
AcDbEntity
  8
0
  6
Continuous
 62
     7
370
    15
100
AcDbLine
 10
164.5983319535
 20
148.0135997656
 30
0.0
 11
166.2254845888
 21
149.1765160573
 31
0.0
  0
ARC
  5
1E6
330
1F
100
AcDbEntity
  8
0
  6
Continuous
 62
     7
370
    15
100
AcDbCircle
 10
150.1085377358
 20
137.6578301887
 30
0.0
 40
19.81000000000003
100
AcDbArc
 50
234.4468336676
 51
35.5531663324
  0
LINE
  5
1E7
330
1F
100
AcDbEntity
  8
0
  6
Continuous
 62
     7
370
    15
100
AcDbLine
 10
139.7527681589
 20
123.1680359711
 30
0.0
 11
138.5898518673
 21
121.5408833357
 31
0.0
  0
ARC
  5
1E8
330
1F
100
AcDbEntity
  8
0
  6
Continuous
 62
     7
370
    15
100
AcDbCircle
 10
127.8885377358
 20
137.6578301887
 30
0.0
 40
6.890000000000013
100
AcDbArc
 50
105.1176479342
 51
234.4468336676
  0
LINE
  5
1E9
330
1F
100
AcDbEntity
  8
0
  6
Continuous
 62
     7
370
    15
100
AcDbLine
 10
126.0916128109
 20
144.3093834519
 30
0.0
 11
126.6132165627
 21
142.3785987601
 31
0.0
  0
ARC
  5
1EA
330
1F
100
AcDbEntity
  8
0
  6
Continuous
 62
     7
370
    15
100
AcDbCircle
 10
127.8885377358
 20
137.6578301887
 30
0.0
 40
4.890000000000016
100
AcDbArc
 50
105.1176479342
 51
234.4468336676
  0
LINE
  5
1EB
330
1F
100
AcDbEntity
  8
0
  6
Continuous
 62
     7
370
    15
100
AcDbLine
 10
123.8822911112
 20
132.05228936
 30
0.0
 11
125.0452074028
 21
133.6794419953
 31
0.0
  0
LINE
  5
1EC
330
1F
100
AcDbEntity
  8
0
  6
Continuous
 62
     7
370
    15
100
AcDbLine
 10
125.0452074028
 20
133.6794419953
 30
0.0
 11
139.7527681589
 21
123.1680359711
 31
0.0
  0
LINE
  5
1ED
330
1F
100
AcDbEntity
  8
0
  6
Continuous
 62
     7
370
    15
100
AcDbLine
 10
138.5898518673
 20
121.5408833357
 30
0.0
 11
123.8822911112
 21
132.05228936
 31
0.0
  0
ARC
  5
1EE
330
1F
100
AcDbEntity
  8
0
  6
Continuous
 62
     7
370
    15
100
AcDbCircle
 10
123.4835940518
 20
153.9633069109
 30
0.0
 40
9.999999999999996
100
AcDbArc
 50
285.1176479342
 51
310.9165052767
  0
LINE
  5
1EF
330
1F
100
AcDbEntity
  8
0
  6
Continuous
 62
     7
370
    15
100
AcDbLine
 10
130.0331793151
 20
146.406658654
 30
0.0
 11
131.3430963678
 21
144.8953290027
 31
0.0
  0
ARC
  5
1F0
330
1F
100
AcDbEntity
  8
0
  6
Continuous
 62
     7
370
    15
100
AcDbCircle
 10
123.4835940518
 20
153.9633069109
 30
0.0
 40
12.0
100
AcDbArc
 50
285.1176479342
 51
310.9165052767
  0
CIRCLE
  5
1F1
330
1F
100
AcDbEntity
  8
0
  6
Continuous
 62
     7
370
    15
100
AcDbCircle
 10
150.1085377358
 20
159.8778301887
 30
0.0
 40
2.285000000000025
  0
CIRCLE
  5
1F2
330
1F
100
AcDbEntity
  8
0
  6
Continuous
 62
     7
370
    15
100
AcDbCircle
 10
127.8885377358
 20
137.6578301887
 30
0.0
 40
2.285000000000011
  0
LINE
  5
1F3
330
1F
100
AcDbEntity
  8
0
  6
Continuous
 62
     7
370
    15
100
AcDbLine
 10
164.5983319535
 20
148.0135997656
 30
0.0
 11
154.0869259292
 21
162.7211605217
 31
0.0
  0
LINE
  5
1F4
330
1F
100
AcDbEntity
  8
0
  6
Continuous
 62
     7
370
    15
100
AcDbLine
 10
137.5185653108
 20
150.2478026137
 30
0.0
 11
131.3430963678
 21
144.8953290027
 31
0.0
  0
LINE
  5
1F5
330
1F
100
AcDbEntity
  8
0
  6
Continuous
 62
     7
370
    15
100
AcDbLine
 10
142.8710389219
 20
156.4232715567
 30
0.0
 11
137.5185653108
 21
150.2478026137
 31
0.0
  0
ARC
  5
1F6
330
1F
100
AcDbEntity
  8
0
  6
Continuous
 62
     7
370
    15
100
AcDbCircle
 10
133.8030610136
 20
164.2827738727
 30
0.0
 40
12.00000000000001
100
AcDbArc
 50
319.0834947233
 51
344.8823520658
  0
LINE
  5
1F7
330
1F
100
AcDbEntity
  8
0
  6
Continuous
 62
     7
370
    15
100
AcDbLine
 10
130.0331793151
 20
146.406658654
 30
0.0
 11
136.1007524005
 21
151.665615524
 31
0.0
  0
LINE
  5
1F8
330
1F
100
AcDbEntity
  8
0
  6
Continuous
 62
     7
370
    15
100
AcDbLine
 10
136.1007524005
 20
151.665615524
 30
0.0
 11
137.5185653108
 21
150.2478026137
 31
0.0
  0
LINE
  5
1F9
330
1F
100
AcDbEntity
  8
0
  6
Continuous
 62
     7
370
    15
100
AcDbLine
 10
142.8710389219
 20
156.4232715567
 30
0.0
 11
141.3597092705
 21
157.7331886094
 31
0.0
  0
ARC
  5
1FA
330
1F
100
AcDbEntity
  8
0
  6
Continuous
 62
     7
370
    15
100
AcDbCircle
 10
133.8030610136
 20
164.2827738727
 30
0.0
 40
10.00000000000003
100
AcDbArc
 50
319.0834947233
 51
344.8823520658
  0
LINE
  5
1FB
330
1F
100
AcDbEntity
  8
0
  6
Continuous
 62
     7
370
    15
100
AcDbLine
 10
136.1007524005
 20
151.665615524
 30
0.0
 11
141.3597092705
 21
157.7331886094
 31
0.0
  0
LINE
  5
1FC
330
1F
100
AcDbEntity
  8
0
  6
Continuous
 62
     7
370
    15
100
AcDbLine
 10
155.7140785646
 20
163.8840768133
 30
0.0
 11
166.2254845888
 21
149.1765160573
 31
0.0
  0
DIMENSION
  5
1FD
330
1F
100
AcDbEntity
  8
ROCKWELL
100
AcDbDimension
  2
*D2
 10
196.1720939391
 20
137.6578301887
 30
0.0
 11
196.1720939391
 21
148.2820607868
 31
0.0
 70
   160
 71
     1
 42
-1.0
  3
SLDDIMSTYLE0
100
AcDbAlignedDimension
 13
153.9335377358
 23
159.8778301887
 33
0.0
 14
166.8485377358
 24
137.6578301887
 34
0.0
 50
90.0
100
AcDbRotatedDimension
  0
DIMENSION
  5
210
330
1F
100
AcDbEntity
  8
ROCKWELL
100
AcDbDimension
  2
*D3
 10
150.1085377358
 20
104.5436828053
 30
0.0
 11
140.1190270114
 21
104.5436828053
 31
0.0
 70
   160
 71
     1
 42
-1.0
  3
SLDDIMSTYLE0
100
AcDbAlignedDimension
 13
127.8885377358
 23
133.8328301887
 33
0.0
 14
150.1085377358
 24
120.9178301887
 34
0.0
100
AcDbRotatedDimension
  0
DIMENSION
  5
222
330
1F
100
AcDbEntity
  8
ROCKWELL
100
AcDbDimension
  2
*D4
 10
148.9701265086
 20
157.8966071125
 30
0.0
 11
167.5275421385
 21
172.2059381986
 31
0.0
 70
   163
  1
<>
 71
     1
 42
-1.0
  3
SLDDIMSTYLE1
100
AcDbDiametricDimension
 15
151.2469489631
 25
161.8590532649
 35
0.0
 40
0.0
  0
DIMENSION
  5
233
330
1F
100
AcDbEntity
  8
ROCKWELL
100
AcDbDimension
  2
*D5
 10
110.4173549706
 20
155.1290129539
 30
0.0
 11
121.3021104041
 21
166.0137683873
 31
0.0
 70
   160
 71
     1
 42
-1.0
  3
SLDDIMSTYLE0
100
AcDbAlignedDimension
 13
150.1085377358
 23
159.8778301887
 33
0.0
 14
127.8885377358
 24
137.6578301887
 34
0.0
 50
45.0
100
AcDbRotatedDimension
  0
INSERT
  5
250
330
1F
100
AcDbEntity
  8
0
  6
Continuous
 62
   216
370
     0
100
AcDbBlockReference
  2
SW_CENTERMARKSYMBOL_0
 10
150.1085377358
 20
137.6578301887
 30
0.0
  0
INSERT
  5
25C
330
1F
100
AcDbEntity
  8
0
  6
Continuous
 62
   216
370
     0
100
AcDbBlockReference
  2
SW_CENTERMARKSYMBOL_1
 10
150.1085377358
 20
159.8778301887
 30
0.0
  0
INSERT
  5
268
330
1F
100
AcDbEntity
  8
0
  6
Continuous
 62
   216
370
     0
100
AcDbBlockReference
  2
SW_CENTERMARKSYMBOL_2
 10
127.8885377358
 20
137.6578301887
 30
0.0
  0
LINE
  5
269
330
1F
100
AcDbEntity
  8
0
  6
Continuous
 62
     7
370
    15
100
AcDbLine
 10
169.9185377358
 20
219.149245283
 30
0.0
 11
169.9185377358
 21
220.319245283
 31
0.0
  0
LINE
  5
26A
330
1F
100
AcDbEntity
  8
0
  6
Continuous
 62
     7
370
    15
100
AcDbLine
 10
169.9185377358
 20
220.319245283
 30
0.0
 11
167.9185377358
 21
222.319245283
 31
0.0
  0
LINE
  5
26B
330
1F
100
AcDbEntity
  8
0
  6
Continuous
 62
     7
370
    15
100
AcDbLine
 10
165.3085377358
 20
222.319245283
 30
0.0
 11
165.3085377358
 21
234.989245283
 31
0.0
  0
LINE
  5
26C
330
1F
100
AcDbEntity
  8
0
  6
Continuous
 62
     7
370
    15
100
AcDbLine
 10
134.9085377358
 20
234.989245283
 30
0.0
 11
134.9085377358
 21
222.319245283
 31
0.0
  0
LINE
  5
26D
330
1F
100
AcDbEntity
  8
0
  6
Continuous
 62
     7
370
    15
100
AcDbLine
 10
165.3085377358
 20
234.989245283
 30
0.0
 11
164.3085377358
 21
235.989245283
 31
0.0
  0
LINE
  5
26E
330
1F
100
AcDbEntity
  8
0
  6
Continuous
 62
     7
370
    15
100
AcDbLine
 10
135.9085377358
 20
235.989245283
 30
0.0
 11
134.9085377358
 21
234.989245283
 31
0.0
  0
LINE
  5
26F
330
1F
100
AcDbEntity
  8
0
  6
Continuous
 62
     7
370
    15
100
AcDbLine
 10
120.9985377358
 20
220.319245283
 30
0.0
 11
120.9985377358
 21
219.149245283
 31
0.0
  0
LINE
  5
270
330
1F
100
AcDbEntity
  8
0
  6
Continuous
 62
     7
370
    15
100
AcDbLine
 10
122.9985377358
 20
222.319245283
 30
0.0
 11
120.9985377358
 21
220.319245283
 31
0.0
  0
LINE
  5
271
330
1F
100
AcDbEntity
  8
0
  6
Continuous
 62
     7
370
    15
100
AcDbLine
 10
169.9185377358
 20
219.149245283
 30
0.0
 11
138.5898518673
 21
219.149245283
 31
0.0
  0
LINE
  5
272
330
1F
100
AcDbEntity
  8
0
  6
Continuous
 62
     7
370
    15
100
AcDbLine
 10
138.5898518673
 20
220.319245283
 30
0.0
 11
138.5898518673
 21
219.149245283
 31
0.0
  0
LINE
  5
273
330
1F
100
AcDbEntity
  8
0
  6
Continuous
 62
     7
370
    15
100
AcDbLine
 10
169.9185377358
 20
220.319245283
 30
0.0
 11
138.5898518673
 21
220.319245283
 31
0.0
  0
LINE
  5
274
330
1F
100
AcDbEntity
  8
0
  6
Continuous
 62
     7
370
    15
100
AcDbLine
 10
139.7527681589
 20
222.319245283
 30
0.0
 11
167.9185377358
 21
222.319245283
 31
0.0
  0
LINE
  5
275
330
1F
100
AcDbEntity
  8
0
  6
Continuous
 62
     7
370
    15
100
AcDbLine
 10
139.7527681589
 20
222.319245283
 30
0.0
 11
138.5898518673
 21
220.319245283
 31
0.0
  0
LINE
  5
276
330
1F
100
AcDbEntity
  8
0
  6
Continuous
 62
     7
370
    15
100
AcDbLine
 10
123.8822911112
 20
220.319245283
 30
0.0
 11
123.8822911112
 21
219.149245283
 31
0.0
  0
LINE
  5
277
330
1F
100
AcDbEntity
  8
0
  6
Continuous
 62
     7
370
    15
100
AcDbLine
 10
138.5898518673
 20
220.319245283
 30
0.0
 11
123.8822911112
 21
220.319245283
 31
0.0
  0
LINE
  5
278
330
1F
100
AcDbEntity
  8
0
  6
Continuous
 62
     7
370
    15
100
AcDbLine
 10
138.5898518673
 20
219.149245283
 30
0.0
 11
123.8822911112
 21
219.149245283
 31
0.0
  0
LINE
  5
279
330
1F
100
AcDbEntity
  8
0
  6
Continuous
 62
     7
370
    15
100
AcDbLine
 10
123.8822911112
 20
220.319245283
 30
0.0
 11
125.0452074028
 21
222.319245283
 31
0.0
  0
LINE
  5
27A
330
1F
100
AcDbEntity
  8
0
  6
Continuous
 62
     7
370
    15
100
AcDbLine
 10
125.0452074028
 20
222.319245283
 30
0.0
 11
139.7527681589
 21
222.319245283
 31
0.0
  0
LINE
  5
27B
330
1F
100
AcDbEntity
  8
0
  6
Continuous
 62
     7
370
    15
100
AcDbLine
 10
165.3085377358
 20
234.989245283
 30
0.0
 11
134.9085377358
 21
234.989245283
 31
0.0
  0
LINE
  5
27C
330
1F
100
AcDbEntity
  8
0
  6
Continuous
 62
     7
370
    15
100
AcDbLine
 10
135.9085377358
 20
235.989245283
 30
0.0
 11
164.3085377358
 21
235.989245283
 31
0.0
  0
LINE
  5
27D
330
1F
100
AcDbEntity
  8
0
  6
Continuous
 62
     7
370
    15
100
AcDbLine
 10
123.8822911112
 20
220.319245283
 30
0.0
 11
120.9985377358
 21
220.319245283
 31
0.0
  0
LINE
  5
27E
330
1F
100
AcDbEntity
  8
0
  6
Continuous
 62
     7
370
    15
100
AcDbLine
 10
123.8822911112
 20
219.149245283
 30
0.0
 11
120.9985377358
 21
219.149245283
 31
0.0
  0
LINE
  5
27F
330
1F
100
AcDbEntity
  8
0
  6
Continuous
 62
     7
370
    15
100
AcDbLine
 10
122.9985377358
 20
222.319245283
 30
0.0
 11
125.0452074028
 21
222.319245283
 31
0.0
  0
DIMENSION
  5
280
330
1F
100
AcDbEntity
  8
ROCKWELL
100
AcDbDimension
  2
*D9
 10
193.2490123265
 20
219.149245283
 30
0.0
 11
193.2490123265
 21
229.2228871485
 31
0.0
 70
   160
 71
     1
 42
-1.0
  3
SLDDIMSTYLE0
100
AcDbAlignedDimension
 13
164.3085377358
 23
235.989245283
 33
0.0
 14
169.9185377358
 24
219.149245283
 34
0.0
 50
90.0
100
AcDbRotatedDimension
  0
DIMENSION
  5
292
330
1F
100
AcDbEntity
  8
ROCKWELL
100
AcDbDimension
  2
*D10
 10
104.9985377358
 20
219.149245283
 30
0.0
 11
104.9985377358
 21
229.2228871485
 31
0.0
 70
   160
 71
     1
 42
-1.0
  3
SLDDIMSTYLE0
100
AcDbAlignedDimension
 13
125.0452074028
 23
222.319245283
 33
0.0
 14
123.8822911112
 24
219.149245283
 34
0.0
 50
90.0
100
AcDbRotatedDimension
  0
DIMENSION
  5
2A5
330
1F
100
AcDbEntity
  8
ROCKWELL
100
AcDbDimension
  2
*D11
 10
134.9085377358
 20
249.2918979174
 30
0.0
 11
149.4319964845
 21
249.2918979174
 31
0.0
 70
   160
  1
%%c<>
 71
     1
 42
-1.0
  3
SLDDIMSTYLE2
100
AcDbAlignedDimension
 13
165.3085377358
 23
234.989245283
 33
0.0
 14
134.9085377358
 24
234.989245283
 34
0.0
100
AcDbRotatedDimension
  0
LINE
  5
2B9
330
1F
100
AcDbEntity
  8
0
  6
Continuous
 62
     7
370
    15
100
AcDbLine
 10
259.344625558
 20
197.5074842069
 30
0.0
 11
256.5825523728
 21
203.4756943081
 31
0.0
  0
LINE
  5
2BA
330
1F
100
AcDbEntity
  8
0
  6
Continuous
 62
     7
370
    15
100
AcDbLine
 10
228.993819117
 20
190.7076953522
 30
0.0
 11
231.7558923022
 21
184.7394852511
 31
0.0
  0
LINE
  5
2BB
330
1F
100
AcDbEntity
  8
0
  6
Continuous
 62
     7
370
    15
100
AcDbLine
 10
272.7970407163
 20
187.8752601855
 30
0.0
 11
272.5419794987
 21
188.4263892951
 31
0.0
  0
LINE
  5
2BC
330
1F
100
AcDbEntity
  8
0
  6
Continuous
 62
     7
370
    15
100
AcDbLine
 10
228.0082081891
 20
181.8611843674
 30
0.0
 11
228.2632694067
 21
181.3100552578
 31
0.0
  0
LINE
  5
2BD
330
1F
100
AcDbEntity
  8
0
  6
Continuous
 62
     7
370
    15
100
AcDbLine
 10
260.1137041449
 20
211.5651785915
 30
0.0
 11
259.8586429273
 21
212.1163077011
 31
0.0
  0
LWPOLYLINE
  5
2BE
330
1F
100
AcDbEntity
  8
0
  6
Continuous
 62
     7
370
    15
100
AcDbPolyline
 90
       92
 70
   128
 43
0.0
 10
248.0004728311
 20
210.1171263609
 10
248.9462408068
 20
209.8666920344
 10
249.8626628459
 20
209.5553790285
 10
250.7453717798
 20
209.1846708915
 10
251.5901610986
 20
208.7563342165
 10
252.3930049965
 20
208.2724102228
 10
253.1500775566
 20
207.7352050285
 10
253.8577709834
 20
207.1472786611
 10
254.5127127956
 20
206.5114328575
 10
255.111781897
 20
205.8306977124
 10
255.6521234506
 20
205.1083172389
 10
256.1311624828
 20
204.3477339089
 10
256.5466161546
 20
203.5525722482
 10
256.8965046398
 20
202.7266215644
 10
257.1791605607
 20
201.8738178886
 10
257.3932369329
 20
200.9982252186
 10
257.5377135851
 20
200.1040161524
 10
257.6119020203
 20
199.1954520032
 10
257.6154486967
 20
198.276862493
 10
257.5483367128
 20
197.3526251192
 10
257.4108858879
 20
196.4271442938
 10
257.2037512376
 20
195.5048303542
 10
256.927919853
 20
194.5900785466
 10
256.5847061961
 20
193.6872480798
 10
256.1757458364
 20
192.8006413521
 10
255.7029876562
 20
191.9344834484
 10
255.1686845635
 20
191.0929020055
 10
254.5753827558
 20
190.2799075423
 10
253.9259095866
 20
189.4993743475
 10
253.2233600912
 20
188.7550220174
 10
252.4710822378
 20
188.0503977297
 10
251.6726609731
 20
187.3888593401
 10
250.831901138
 20
186.7735593803
 10
249.9528093359
 20
186.2074300347
 10
249.0395748397
 20
185.6931691675
 10
248.0965496276
 20
185.233227466
 10
247.1282276441
 20
184.8297967618
 10
246.1392233846
 20
184.4847995859
 10
245.1342499046
 20
184.199880007
 10
244.1180963606
 20
183.9763957967
 10
243.0956051868
 20
183.8154119589
 10
242.0716490194
 20
183.717695655
 10
241.0511074758
 20
183.6837125476
 10
240.0388439011
 20
183.7136245818
 10
239.0396821925
 20
183.807289213
 10
238.0583838103
 20
183.9642600867
 10
237.0996250883
 20
184.1837891652
 10
236.1679749483
 20
184.4648302923
 10
235.2678731276
 20
184.8060441793
 10
234.4036090213
 20
185.2058047864
 10
233.5793012414
 20
185.6622070724
 10
232.7988779899
 20
186.1730760726
 10
232.0660583389
 20
186.7359772634
 10
231.3843345078
 20
187.3482281644
 10
230.7569552211
 20
188.0069111212
 10
230.1869102269
 20
188.7088872096
 10
229.6769160492
 20
189.4508111938
 10
229.2294030423
 20
190.2291474681
 10
228.8465038097
 20
191.0401869059
 10
228.5300430405
 20
191.8800645347
 10
228.2815288144
 20
192.7447779552
 10
228.1021454149
 20
193.6302064143
 10
227.9927476856
 20
194.532130442
 10
227.9538569564
 20
195.4462519596
 10
227.9856585594
 20
196.3682147618
 10
228.0880009454
 20
197.293625276
 10
228.2603964065
 20
198.2180734997
 10
228.5020233997
 20
199.1371540161
 10
228.8117304623
 20
200.046486988
 10
229.1880416992
 20
200.9417390296
 10
229.629163816
 20
201.8186438573
 10
230.1329946648
 20
202.6730226203
 10
230.6971332623
 20
203.5008038146
 10
231.3188912311
 20
204.2980426859
 10
231.9953056113
 20
205.0609400279
 10
232.7231529804
 20
205.7858602874
 10
233.4989648143
 20
206.4693488892
 10
234.3190440161
 20
207.1081486988
 10
235.1794825351
 20
207.6992155443
 10
236.0761799899
 20
208.2397327229
 10
237.0048632088
 20
208.7271244242
 10
237.9611065932
 20
209.1590680048
 10
238.9403532081
 20
209.5335050567
 10
239.9379364973
 20
209.8486512169
 10
240.9491025221
 20
210.1030046704
 10
241.969032616
 20
210.2953533072
 10
242.9928663476
 20
210.4247804985
 10
244.0157246829
 20
210.4906694647
 10
245.0327332362
 20
210.4927062149
 10
246.0390454985
 20
210.4308810431
 10
247.0298659337
 20
210.3054885743
 10
248.0004728311
 20
210.1171263609
  0
LWPOLYLINE
  5
2BF
330
1F
100
AcDbEntity
  8
0
  6
Continuous
 62
     7
370
    15
100
AcDbPolyline
 90
       89
 70
   128
 43
0.0
 10
247.4395581663
 20
209.731240597
 10
246.5015373529
 20
209.9121765724
 10
245.5434832675
 20
210.030182677
 10
244.5702779342
 20
210.0846575789
 10
243.5868805843
 20
210.0753236863
 10
242.5983023852
 20
210.0022285626
 10
241.6095809048
 20
209.8657446839
 10
240.6257544413
 20
209.6665675407
 10
239.6518363486
 20
209.405712094
 10
238.6927894902
 20
209.0845076035
 10
237.7535009491
 20
208.7045908536
 10
236.8387571242
 20
208.2678978129
 10
235.9532193406
 20
207.7766537691
 10
235.1014000957
 20
207.2333619893
 10
234.2876400652
 20
206.6407909638
 10
233.5160859836
 20
206.0019602987
 10
232.7906695138
 20
205.3201253286
 10
232.1150872116
 20
204.5987605284
 10
231.4927816898
 20
203.8415418076
 10
230.9269240746
 20
203.0523277793
 10
230.4203978466
 20
202.2351400973
 10
229.9757841475
 20
201.3941429627
 10
229.5953486268
 20
200.533621904
 10
229.2810298966
 20
199.6579619395
 10
229.0344296531
 20
198.7716252315
 10
228.8568045148
 20
197.8791283487
 10
228.7490596184
 20
196.9850192506
 10
228.7117440075
 20
196.0938541124
 10
228.7450478337
 20
195.2101741072
 10
228.8488013883
 20
194.3384822658
 10
229.0224759672
 20
193.48322053
 10
229.2651865643
 20
192.6487471176
 10
229.5756963822
 20
191.8393143138
 10
229.9524231339
 20
191.0590468027
 10
230.3934471064
 20
190.3119206485
 10
230.8965209425
 20
189.601743035
 10
231.4590810933
 20
188.9321328645
 10
232.0782608813
 20
188.3065023169
 10
232.750905108
 20
187.7280394621
 10
233.4735861328
 20
187.1996920142
 10
234.2426213388
 20
186.7241523107
 10
235.0540918988
 20
186.3038435929
 10
235.903862745
 20
185.9409076576
 10
236.7876036398
 20
185.6371939433
 10
237.7008112422
 20
185.3942501054
 10
238.6388320556
 20
185.21331413
 10
239.596886141
 20
185.0953080253
 10
240.5700914743
 20
185.0408331235
 10
241.5534888242
 20
185.0501670161
 10
242.5420670233
 20
185.1232621398
 10
243.5307885036
 20
185.2597460185
 10
244.5146149672
 20
185.4589231617
 10
245.4885330599
 20
185.7197786083
 10
246.4475799183
 20
186.0409830989
 10
247.3868684594
 20
186.4208998488
 10
248.3016122842
 20
186.8575928895
 10
249.1871500679
 20
187.3488369332
 10
250.0389693128
 20
187.8921287131
 10
250.8527293433
 20
188.4846997386
 10
251.6242834248
 20
189.1235304037
 10
252.3496998947
 20
189.8053653737
 10
253.0252821968
 20
190.526730174
 10
253.6475877187
 20
191.2839488947
 10
254.2134453339
 20
192.073162923
 10
254.7199715619
 20
192.890350605
 10
255.1645852609
 20
193.7313477397
 10
255.5450207817
 20
194.5918687983
 10
255.8593395119
 20
195.4675287629
 10
256.1059397553
 20
196.3538654709
 10
256.2835648937
 20
197.2463623537
 10
256.39130979
 20
198.1404714517
 10
256.428625401
 20
199.03163659
 10
256.3953215748
 20
199.9153165952
 10
256.2915680202
 20
200.7870084366
 10
256.1178934413
 20
201.6422701724
 10
255.8751828442
 20
202.4767435848
 10
255.5646730263
 20
203.2861763886
 10
255.1879462745
 20
204.0664438997
 10
254.7469223021
 20
204.8135700538
 10
254.2438484659
 20
205.5237476673
 10
253.6812883151
 20
206.1933578378
 10
253.0621085272
 20
206.8189883854
 10
252.3894643005
 20
207.3974512402
 10
251.6667832757
 20
207.9257986881
 10
250.8977480697
 20
208.4013383917
 10
250.0862775096
 20
208.8216471095
 10
249.2365066635
 20
209.1845830447
 10
248.3527657687
 20
209.488296759
 10
247.4395581663
 20
209.731240597
  0
LWPOLYLINE
  5
2C0
330
1F
100
AcDbEntity
  8
0
  6
Continuous
 62
     7
370
    15
100
AcDbPolyline
 90
       47
 70
   128
 43
0.0
 10
231.7558923022
 20
184.7394852511
 10
231.9914762275
 20
184.260937367
 10
232.4389892344
 20
183.4826010926
 10
232.9489834121
 20
182.7406771084
 10
233.5190284064
 20
182.03870102
 10
234.146407693
 20
181.3800180632
 10
234.8281315241
 20
180.7677671622
 10
235.5609511751
 20
180.2048659714
 10
236.3413744266
 20
179.6939969713
 10
237.1656822065
 20
179.2375946853
 10
238.0299463129
 20
178.8378340781
 10
238.9300481335
 20
178.4966201912
 10
239.8616982735
 20
178.215579064
 10
240.8204569955
 20
177.9960499856
 10
241.8017553777
 20
177.8390791119
 10
242.8009170864
 20
177.7454144806
 10
243.813180661
 20
177.7155024464
 10
244.8337222046
 20
177.7494855538
 10
245.857678372
 20
177.8472018577
 10
246.8801695458
 20
178.0081856955
 10
247.8963230899
 20
178.2316699059
 10
248.9012965698
 20
178.5165894848
 10
249.8903008293
 20
178.8615866606
 10
250.8586228128
 20
179.2650173649
 10
251.8016480249
 20
179.7249590664
 10
252.7148825212
 20
180.2392199335
 10
253.5939743232
 20
180.8053492791
 10
254.4347341584
 20
181.420649239
 10
255.233155423
 20
182.0821876286
 10
255.9854332764
 20
182.7868119162
 10
256.6879827718
 20
183.5311642464
 10
257.3374559411
 20
184.3116974411
 10
257.9307577487
 20
185.1246919044
 10
258.4650608414
 20
185.9662733473
 10
258.9378190216
 20
186.832431251
 10
259.3467793813
 20
187.7190379786
 10
259.6899930382
 20
188.6218684455
 10
259.9658244228
 20
189.5366202531
 10
260.1729590731
 20
190.4589341926
 10
260.310409898
 20
191.3844150181
 10
260.3775218819
 20
192.3086523918
 10
260.3739752055
 20
193.227241902
 10
260.2997867703
 20
194.1358060512
 10
260.1553101181
 20
195.0300151175
 10
259.9412337459
 20
195.9056077874
 10
259.658577825
 20
196.7584114633
 10
259.344625558
 20
197.5074842069
  0
LWPOLYLINE
  5
2C1
330
1F
100
AcDbEntity
  8
0
  6
Continuous
 62
     7
370
    15
100
AcDbPolyline
 90
       36
 70
   128
 43
0.0
 10
266.6366938598
 20
188.4327899848
 10
266.9969021619
 20
188.3159616009
 10
267.3203488857
 20
188.1399532513
 10
267.5966381876
 20
187.910421989
 10
267.8168899019
 20
187.6347451377
 10
267.9740249574
 20
187.3217831782
 10
268.0629929041
 20
186.9815949654
 10
268.0809342389
 20
186.6251144284
 10
268.0272723127
 20
186.263799145
 10
267.9037318639
 20
185.9092620855
 10
267.7142835841
 20
185.572898363
 10
267.4650164969
 20
185.265518984
 10
267.1639422517
 20
184.9970033749
 10
266.8207376224
 20
184.7759818482
 10
266.4464334881
 20
184.6095582176
 10
266.0530602917
 20
184.5030814756
 10
265.6532613715
 20
184.4599738723
 10
265.2598865936
 20
184.4816209214
 10
264.8855793472
 20
184.5673268691
 10
264.542370175
 20
184.7143370557
 10
264.2412901023
 20
184.9179264527
 10
263.9920160903
 20
185.1715515295
 10
263.8025600109
 20
185.4670605674
 10
263.6790111384
 20
185.7949556628
 10
263.6253404352
 20
186.1446979975
 10
263.6432729218
 20
186.5050465651
 10
263.7322322333
 20
186.8644194662
 10
263.8893591444
 20
187.21126616
 10
264.1096034668
 20
187.5344387085
 10
264.3858863667
 20
187.8235500799
 10
264.7093278844
 20
188.0693079969
 10
265.0695323435
 20
188.2638135979
 10
265.4549224762
 20
188.4008153128
 10
265.8531115265
 20
188.4759097938
 10
266.2513013708
 20
188.4866834424
 10
266.6366938598
 20
188.4327899848
  0
LWPOLYLINE
  5
2C2
330
1F
100
AcDbEntity
  8
0
  6
Continuous
 62
     7
370
    15
100
AcDbPolyline
 90
       19
 70
   128
 43
0.0
 10
253.9533572884
 20
212.1227083908
 10
254.3135655905
 20
212.005880007
 10
254.6370123143
 20
211.8298716573
 10
254.9133016162
 20
211.600340395
 10
255.1335533305
 20
211.3246635437
 10
255.290688386
 20
211.0117015842
 10
255.3796563327
 20
210.6715133715
 10
255.3975976675
 20
210.3150328345
 10
255.3439357413
 20
209.953717551
 10
255.2203952924
 20
209.5991804916
 10
255.0309470127
 20
209.262816769
 10
254.7816799255
 20
208.9554373901
 10
254.4806056803
 20
208.6869217809
 10
254.1374010509
 20
208.4659002542
 10
253.7630969167
 20
208.2994766237
 10
253.3697237203
 20
208.1929998817
 10
252.9699248001
 20
208.1498922783
 10
252.5765500222
 20
208.1715393275
 10
252.5356341799
 20
208.1776390827
  0
LWPOLYLINE
  5
2C3
330
1F
100
AcDbEntity
  8
0
  6
Continuous
 62
     7
370
    15
100
AcDbPolyline
 90
       15
 70
   128
 43
0.0
 10
251.251447539
 20
208.9373538367
 10
251.1192234395
 20
209.1569789734
 10
250.995674567
 20
209.4848740688
 10
250.9420038637
 20
209.8346164035
 10
250.9599363503
 20
210.1949649712
 10
251.0488956619
 20
210.5543378722
 10
251.206022573
 20
210.9011845661
 10
251.4262668953
 20
211.2243571145
 10
251.7025497953
 20
211.5134684859
 10
252.025991313
 20
211.7592264029
 10
252.3861957721
 20
211.9537320039
 10
252.7715859047
 20
212.0907337188
 10
253.1697749551
 20
212.1658281998
 10
253.5679647994
 20
212.1766018485
 10
253.9533572884
 20
212.1227083908
  0
LWPOLYLINE
  5
2C4
330
1F
100
AcDbEntity
  8
0
  6
Continuous
 62
     7
370
    15
100
AcDbPolyline
 90
       19
 70
   128
 43
0.0
 10
267.0869029256
 20
182.4705933037
 10
267.6538191966
 20
182.7026777886
 10
268.1924560234
 20
182.9940011442
 10
268.6943541988
 20
183.3399881827
 10
269.1516314906
 20
183.7352052319
 10
269.5571064303
 20
184.1734454697
 10
269.9044110975
 20
184.6478264018
 10
270.1880911267
 20
185.1508979499
 10
270.4036913675
 20
185.6747594541
 10
270.5478258518
 20
186.2111837513
 10
270.6182309701
 20
186.751746382
 10
270.613801021
 20
187.2879578945
 10
270.5346055762
 20
187.811397171
 10
270.3818883877
 20
188.3138436795
 10
270.1580478551
 20
188.7874065763
 10
269.866599359
 20
189.2246486301
 10
269.5121200524
 20
189.6187030228
 10
269.1001769772
 20
189.963381192
 10
268.6372396352
 20
190.2532700208
  0
LINE
  5
2C5
330
1F
100
AcDbEntity
  8
0
  6
Continuous
 62
     7
370
    15
100
AcDbLine
 10
250.0437936684
 20
176.5400547943
 30
0.0
 11
267.0869029256
 21
182.4705933037
 31
0.0
  0
LWPOLYLINE
  5
2C6
330
1F
100
AcDbEntity
  8
0
  6
Continuous
 62
     7
370
    15
100
AcDbPolyline
 90
       33
 70
   128
 43
0.0
 10
228.4568135009
 20
192.1092415926
 10
228.3606317937
 20
191.5823266756
 10
228.2311813478
 20
190.5785280947
 10
228.1724361348
 20
189.5769543023
 10
228.1846359824
 20
188.5816942292
 10
228.2677310846
 20
187.5968110303
 10
228.4213822052
 20
186.6263254968
 10
228.6449620627
 20
185.6741996416
 10
228.9375578909
 20
184.7443205238
 10
229.2979751658
 20
183.8404843802
 10
229.7247424817
 20
182.966381127
 10
230.2161175587
 20
182.1255792957
 10
230.7700943553
 20
181.3215114646
 10
231.3844112579
 20
180.5574602453
 10
232.0565603144
 20
179.8365448811
 10
232.7837974723
 20
179.1617085131
 10
233.5631537819
 20
178.5357061647
 10
234.3914475165
 20
177.961093494
 10
235.2652971623
 20
177.4402163605
 10
236.1811352232
 20
176.9752012481
 10
237.1352227849
 20
176.5679465836
 10
238.1236647797
 20
176.2201149865
 10
239.1424258874
 20
175.9331264813
 10
240.18734701
 20
175.7081527002
 10
241.2541622511
 20
175.5461121
 10
242.3385163313
 20
175.4476662122
 10
243.435982369
 20
175.4132169429
 10
244.5420799528
 20
175.4429049313
 10
245.652293433
 20
175.5366089761
 10
246.7620903568
 20
175.69394653
 10
247.8669399719
 20
175.9142752614
 10
248.9623317234
 20
176.1966956772
 10
250.0437936684
 20
176.5400547943
  0
LINE
  5
2C7
330
1F
100
AcDbEntity
  8
0
  6
Continuous
 62
     7
370
    15
100
AcDbLine
 10
250.5096801226
 20
213.4335069968
 30
0.0
 11
246.2521480247
 21
210.4094203009
 31
0.0
  0
LWPOLYLINE
  5
2C8
330
1F
100
AcDbEntity
  8
0
  6
Continuous
 62
     7
370
    15
100
AcDbPolyline
 90
       19
 70
   128
 43
0.0
 10
257.920589337
 20
210.2698145412
 10
257.9400081482
 20
210.8083290075
 10
257.8845115813
 20
211.3367339514
 10
257.7549712014
 20
211.8467308561
 10
257.5534214197
 20
212.3303102999
 10
257.2830275441
 20
212.7798777432
 10
256.9480360681
 20
213.1883727999
 10
256.5537079803
 20
213.5493801188
 10
256.1062361418
 20
213.8572301365
 10
255.6126480278
 20
214.1070881167
 10
255.0806953622
 20
214.2950300789
 10
254.5187323787
 20
214.418104424
 10
253.9355846177
 20
214.4743782886
 10
253.3404103238
 20
214.4629679005
 10
252.742556616
 20
214.384052458
 10
252.1514126934
 20
214.2388713159
 10
251.5762623787
 20
214.0297045213
 10
251.0261383177
 20
213.7598370059
 10
250.5096801226
 20
213.4335069968
  0
ARC
  5
2C9
330
1F
100
AcDbEntity
  8
0
  6
Continuous
 62
     7
370
    15
100
AcDbCircle
 10
266.9636869049
 20
209.2678806014
 30
0.0
 40
9.09843312021909
100
AcDbArc
 50
173.6776751403
 51
203.1558808605
  0
LINE
  5
2CA
330
1F
100
AcDbEntity
  8
0
  6
Continuous
 62
     7
370
    15
100
AcDbLine
 10
261.3712523139
 20
199.2782569628
 30
0.0
 11
258.5982380092
 21
205.6900670209
 31
0.0
  0
LINE
  5
2CB
330
1F
100
AcDbEntity
  8
0
  6
Continuous
 62
     7
370
    15
100
AcDbLine
 10
265.1784709251
 20
193.3995171336
 30
0.0
 11
261.3712523139
 21
199.2782569628
 31
0.0
  0
ARC
  5
2CC
330
1F
100
AcDbEntity
  8
0
  6
Continuous
 62
     7
370
    15
100
AcDbCircle
 10
273.0102072749
 20
198.5349016443
 30
0.0
 40
9.365269260752218
100
AcDbArc
 50
213.2534441041
 51
242.1645062069
  0
LINE
  5
2CD
330
1F
100
AcDbEntity
  8
0
  6
Continuous
 62
     7
370
    15
100
AcDbLine
 10
267.0869029256
 20
182.4705933037
 30
0.0
 11
268.0275130629
 21
179.8908246665
 31
0.0
  0
LINE
  5
2CE
330
1F
100
AcDbEntity
  8
0
  6
Continuous
 62
     7
370
    15
100
AcDbLine
 10
268.0275130629
 20
179.8908246665
 30
0.0
 11
250.9844038056
 21
173.9602861572
 31
0.0
  0
LINE
  5
2CF
330
1F
100
AcDbEntity
  8
0
  6
Continuous
 62
     7
370
    15
100
AcDbLine
 10
250.0437936684
 20
176.5400547943
 30
0.0
 11
250.9844038056
 21
173.9602861572
 31
0.0
  0
LINE
  5
2D0
330
1F
100
AcDbEntity
  8
0
  6
Continuous
 62
     7
370
    15
100
AcDbLine
 10
250.9844038056
 20
173.9602861572
 30
0.0
 11
251.2394650232
 21
173.4091570476
 31
0.0
  0
LINE
  5
2D1
330
1F
100
AcDbEntity
  8
0
  6
Continuous
 62
     7
370
    15
100
AcDbLine
 10
268.0275130629
 20
179.8908246665
 30
0.0
 11
268.2825742804
 21
179.3396955569
 31
0.0
  0
LINE
  5
2D2
330
1F
100
AcDbEntity
  8
0
  6
Continuous
 62
     7
370
    15
100
AcDbLine
 10
268.2825742804
 20
179.3396955569
 30
0.0
 11
251.2394650232
 21
173.4091570476
 31
0.0
  0
LINE
  5
2D3
330
1F
100
AcDbEntity
  8
0
  6
Continuous
 62
     7
370
    15
100
AcDbLine
 10
268.6372396352
 20
190.2532700208
 30
0.0
 11
270.2119343162
 21
190.8566002454
 31
0.0
  0
LWPOLYLINE
  5
2D4
330
1F
100
AcDbEntity
  8
0
  6
Continuous
 62
     7
370
    15
100
AcDbPolyline
 90
       23
 70
   128
 43
0.0
 10
270.2119343162
 20
190.8566002454
 10
270.7506743817
 20
190.5283583686
 10
271.2424892775
 20
190.1475724134
 10
271.6822062341
 20
189.7182473786
 10
272.0652004334
 20
189.2448987828
 10
272.3874436512
 20
188.7325051723
 10
272.6455466247
 20
188.1864557576
 10
272.8367947002
 20
187.6124937313
 10
272.9591763847
 20
187.0166558632
 10
273.0114045025
 20
186.4052090067
 10
272.9929297329
 20
185.7845841864
 10
272.9039463883
 20
185.1613089578
 10
272.7453903704
 20
184.5419387528
 10
272.5189293263
 20
183.9329879316
 10
272.226945109
 20
183.3408612658
 10
271.8725087256
 20
182.7717865756
 10
271.4593480372
 20
182.2317492272
 10
270.9918085509
 20
181.7264291799
 10
270.474807714
 20
181.2611412466
 10
269.9137831947
 20
180.8407791937
 10
269.3146356896
 20
180.4697642699
 10
268.683666862
 20
180.1519987049
 10
268.0275130629
 20
179.8908246665
  0
LWPOLYLINE
  5
2D5
330
1F
100
AcDbEntity
  8
0
  6
Continuous
 62
     7
370
    15
100
AcDbPolyline
 90
       38
 70
   128
 43
0.0
 10
250.9844038056
 20
173.9602861572
 10
249.8341557383
 20
173.5935749714
 10
248.6695345115
 20
173.2888247376
 10
247.4948903706
 20
173.0471737986
 10
246.3146110002
 20
172.8695248006
 10
245.1331051339
 20
172.7565413215
 10
243.954786087
 20
172.7086453918
 10
242.7840552708
 20
172.7260159187
 10
241.6252857522
 20
172.8085880176
 10
240.4828059186
 20
172.9560532543
 10
239.3608833101
 20
173.1678607974
 10
238.2637086785
 20
173.4432194757
 10
237.1953803342
 20
173.7811007335
 10
236.1598888367
 20
174.1802424724
 10
235.1611020894
 20
174.6391537661
 10
234.202750891
 20
175.1561204292
 10
233.2884150004
 20
175.72921142
 10
232.4215097643
 20
176.3562860544
 10
231.6052733607
 20
177.035002001
 10
230.8427547024
 20
177.7628240313
 10
230.1368020489
 20
178.5370334894
 10
229.4900523668
 20
179.3547384468
 10
228.9049214801
 20
180.2128845051
 10
228.3835950461
 20
181.1082662049
 10
227.9280203916
 20
182.0375389994
 10
227.5398992385
 20
182.9972317473
 10
227.2206813477
 20
183.9837596789
 10
226.9715591037
 20
184.993437786
 10
226.7934630603
 20
186.022494587
 10
226.6870584653
 20
187.0670862143
 10
226.6527427749
 20
188.1233107727
 10
226.6906441697
 20
189.1872229141
 10
226.8006210754
 20
190.2548485749
 10
226.9822626919
 20
191.32219982
 10
227.2348905276
 20
192.3852897395
 10
227.5575609341
 20
193.440147341
 10
227.9490686306
 20
194.4828323823
 10
227.9889989221
 20
194.5792155395
  0
LWPOLYLINE
  5
2D6
330
1F
100
AcDbEntity
  8
0
  6
Continuous
 62
     7
370
    15
100
AcDbPolyline
 90
       18
 70
   128
 43
0.0
 10
272.7970407163
 20
187.8752601855
 10
272.9006078423
 20
187.635326648
 10
273.0918559178
 20
187.0613646217
 10
273.2142376023
 20
186.4655267536
 10
273.26646572
 20
185.8540798971
 10
273.2479909505
 20
185.2334550768
 10
273.1590076059
 20
184.6101798482
 10
273.000451588
 20
183.9908096433
 10
272.7739905439
 20
183.381858822
 10
272.4820063266
 20
182.7897321562
 10
272.1275699431
 20
182.2206574661
 10
271.7144092548
 20
181.6806201176
 10
271.2468697684
 20
181.1753000703
 10
270.7298689316
 20
180.7100121371
 10
270.1688444123
 20
180.2896500842
 10
269.5696969071
 20
179.9186351604
 10
268.9387280795
 20
179.6008695953
 10
268.2825742804
 20
179.3396955569
  0
LWPOLYLINE
  5
2D7
330
1F
100
AcDbEntity
  8
0
  6
Continuous
 62
     7
370
    15
100
AcDbPolyline
 90
       25
 70
   128
 43
0.0
 10
251.2394650232
 20
173.4091570476
 10
250.0892169559
 20
173.0424458618
 10
248.924595729
 20
172.737695628
 10
247.7499515882
 20
172.496044689
 10
246.5696722177
 20
172.318395691
 10
245.3881663515
 20
172.2054122119
 10
244.2098473046
 20
172.1575162822
 10
243.0391164884
 20
172.1748868091
 10
241.8803469698
 20
172.257458908
 10
240.7378671362
 20
172.4049241447
 10
239.6159445276
 20
172.6167316878
 10
238.5187698961
 20
172.8920903661
 10
237.4504415518
 20
173.2299716239
 10
236.4149500543
 20
173.6291133628
 10
235.416163307
 20
174.0880246565
 10
234.4578121086
 20
174.6049913196
 10
233.5434762179
 20
175.1780823105
 10
232.6765709819
 20
175.8051569448
 10
231.8603345783
 20
176.4838728914
 10
231.09781592
 20
177.2116949218
 10
230.3918632665
 20
177.9859043798
 10
229.7451135844
 20
178.8036093372
 10
229.1599826977
 20
179.6617553955
 10
228.6386562637
 20
180.5571370953
 10
228.2632694067
 20
181.3100552578
  0
ARC
  5
2D8
330
1F
100
AcDbEntity
  8
0
  6
Continuous
 62
     7
370
    15
100
AcDbCircle
 10
266.9012233048
 20
185.0008074304
 30
0.0
 40
1.985117630736453
100
AcDbArc
 50
53.5933848935
 51
77.5923467947
  0
ARC
  5
2D9
330
1F
100
AcDbEntity
  8
0
  6
Continuous
 62
     7
370
    15
100
AcDbCircle
 10
266.7717520081
 20
184.5267503043
 30
0.0
 40
2.476043527533063
100
AcDbArc
 50
77.0233546276
 51
172.3195023505
  0
LINE
  5
2DA
330
1F
100
AcDbEntity
  8
0
  6
Continuous
 62
     7
370
    15
100
AcDbLine
 10
265.1784709251
 20
193.3995171336
 30
0.0
 11
267.3296270578
 21
193.4784728394
 31
0.0
  0
ARC
  5
2DB
330
1F
100
AcDbEntity
  8
0
  6
Continuous
 62
     7
370
    15
100
AcDbCircle
 10
273.856074016
 20
197.7579599317
 30
0.0
 40
7.804391050624445
100
AcDbArc
 50
213.2534441041
 51
242.1645062069
  0
LINE
  5
2DC
330
1F
100
AcDbEntity
  8
0
  6
Continuous
 62
     7
370
    15
100
AcDbLine
 10
263.5889269768
 20
199.2545011691
 30
0.0
 11
267.3296270578
 21
193.4784728394
 31
0.0
  0
LINE
  5
2DD
330
1F
100
AcDbEntity
  8
0
  6
Continuous
 62
     7
370
    15
100
AcDbLine
 10
263.5889269768
 20
199.2545011691
 30
0.0
 11
261.3712523139
 21
199.2782569628
 31
0.0
  0
LINE
  5
2DE
330
1F
100
AcDbEntity
  8
0
  6
Continuous
 62
     7
370
    15
100
AcDbLine
 10
260.8643619088
 20
205.5542860917
 30
0.0
 11
263.5889269768
 21
199.2545011691
 31
0.0
  0
LINE
  5
2DF
330
1F
100
AcDbEntity
  8
0
  6
Continuous
 62
     7
370
    15
100
AcDbLine
 10
260.8643619088
 20
205.5542860917
 30
0.0
 11
258.5982380092
 21
205.6900670209
 31
0.0
  0
LINE
  5
2E0
330
1F
100
AcDbEntity
  8
0
  6
Continuous
 62
     7
370
    15
100
AcDbLine
 10
260.8643619088
 20
205.5542860917
 30
0.0
 11
261.1194231264
 21
205.0031569821
 31
0.0
  0
LINE
  5
2E1
330
1F
100
AcDbEntity
  8
0
  6
Continuous
 62
     7
370
    15
100
AcDbLine
 10
261.1194231264
 20
205.0031569821
 30
0.0
 11
263.6392160564
 21
199.1768496219
 31
0.0
  0
ARC
  5
2E2
330
1F
100
AcDbEntity
  8
0
  6
Continuous
 62
     7
370
    15
100
AcDbCircle
 10
267.8355693219
 20
208.5357974088
 30
0.0
 40
7.582027600183483
100
AcDbArc
 50
173.6776751403
 51
203.1558808605
  0
LINE
  5
2E3
330
1F
100
AcDbEntity
  8
0
  6
Continuous
 62
     7
370
    15
100
AcDbLine
 10
260.299654682
 20
209.3707423587
 30
0.0
 11
257.920589337
 21
210.2698145412
 31
0.0
  0
LINE
  5
2E4
330
1F
100
AcDbEntity
  8
0
  6
Continuous
 62
     7
370
    15
100
AcDbLine
 10
245.155709692
 20
210.4885980851
 30
0.0
 11
249.8576987541
 21
213.8283785589
 31
0.0
  0
LINE
  5
2E5
330
1F
100
AcDbEntity
  8
0
  6
Continuous
 62
     7
370
    15
100
AcDbLine
 10
249.8576987541
 20
213.8283785589
 30
0.0
 11
250.5096801226
 21
213.4335069968
 31
0.0
  0
LINE
  5
2E6
330
1F
100
AcDbEntity
  8
0
  6
Continuous
 62
     7
370
    15
100
AcDbLine
 10
260.299654682
 20
209.3707423587
 30
0.0
 11
260.5547158995
 21
208.8196132491
 31
0.0
  0
ARC
  5
2E7
330
1F
100
AcDbEntity
  8
0
  6
Continuous
 62
     7
370
    15
100
AcDbCircle
 10
268.0906305395
 20
207.9846682992
 30
0.0
 40
7.582027600182701
100
AcDbArc
 50
173.6776751403
 51
203.1558808605
  0
LWPOLYLINE
  5
2E8
330
1F
100
AcDbEntity
  8
0
  6
Continuous
 62
     7
370
    15
100
AcDbPolyline
 90
       23
 70
   128
 43
0.0
 10
249.8576987541
 20
213.8283785589
 10
250.4492061917
 20
214.2102989814
 10
251.073913805
 20
214.5397592337
 10
251.7252510968
 20
214.8132941466
 10
252.3963674864
 20
215.0280267573
 10
253.0802043621
 20
215.1816985693
 10
253.7695693217
 20
215.2726933062
 10
254.4572118204
 20
215.300053911
 10
255.1358994296
 20
215.2634926127
 10
255.7984939057
 20
215.1633939527
 10
256.4380262681
 20
215.0008107402
 10
257.047770097
 20
214.7774529794
 10
257.6213122799
 20
214.4956698837
 10
258.1526204629
 20
214.1584251677
 10
258.6361064975
 20
213.7692658757
 10
259.0666852148
 20
213.3322850745
 10
259.43982791
 20
212.8520788042
 10
259.7516099743
 20
212.333697738
 10
259.9987521724
 20
211.7825940608
 10
260.1786551329
 20
211.2045641245
 10
260.2894266874
 20
210.605687484
 10
260.3299017722
 20
209.9922629537
 10
260.299654682
 20
209.3707423587
  0
ARC
  5
2E9
330
1F
100
AcDbEntity
  8
0
  6
Continuous
 62
     7
370
    15
100
AcDbCircle
 10
254.2178867334
 20
208.6907258364
 30
0.0
 40
1.985117630734906
100
AcDbArc
 50
53.5933848935
 51
77.5923467947
  0
ARC
  5
2EA
330
1F
100
AcDbEntity
  8
0
  6
Continuous
 62
     7
370
    15
100
AcDbCircle
 10
254.0931885678
 20
208.1960732419
 30
0.0
 40
2.495058440274933
100
AcDbArc
 50
77.2363670065
 51
167.8599120185
  0
ARC
  5
2EB
330
1F
100
AcDbEntity
  8
0
  6
Continuous
 62
     7
370
    15
100
AcDbCircle
 10
255.3725681225
 20
209.3954225734
 30
0.0
 40
5.214039888673342
100
AcDbArc
 50
353.6596430459
 51
24.5909525223
  0
ENDSEC
  0
SECTION
  2
OBJECTS
  0
DICTIONARY
  5
C
330
0
100
AcDbDictionary
281
     1
  3
ACAD_GROUP
350
D
  3
ACAD_LAYOUT
350
1A
  3
ACAD_MLINESTYLE
350
17
  3
ACAD_PLOTSETTINGS
350
19
  3
ACAD_PLOTSTYLENAME
350
E
  0
DICTIONARY
  5
D
102
{ACAD_REACTORS
330
C
102
}
330
C
100
AcDbDictionary
281
     1
  0
DICTIONARY
  5
1A
102
{ACAD_REACTORS
330
C
102
}
330
C
100
AcDbDictionary
281
     1
  3
Layout1
350
1E
  3
Layout2
350
26
  3
Model
350
22
  0
DICTIONARY
  5
17
102
{ACAD_REACTORS
330
C
102
}
330
C
100
AcDbDictionary
281
     1
  3
Standard
350
18
  0
DICTIONARY
  5
19
102
{ACAD_REACTORS
330
C
102
}
330
C
100
AcDbDictionary
281
     1
  0
ACDBDICTIONARYWDFLT
  5
E
102
{ACAD_REACTORS
330
C
102
}
330
C
100
AcDbDictionary
281
     1
  3
Normal
350
F
100
AcDbDictionaryWithDefault
340
F
  0
LAYOUT
  5
1E
102
{ACAD_REACTORS
330
1A
102
}
330
1A
100
AcDbPlotSettings
  1

  2
none_device
  4

  6

 40
0.0
 41
0.0
 42
0.0
 43
0.0
 44
0.0
 45
0.0
 46
0.0
 47
0.0
 48
0.0
 49
0.0
140
0.0
141
0.0
142
1.0
143
1.0
 70
   688
 72
     0
 73
     0
 74
     5
  7

 75
    16
147
1.0
148
0.0
149
0.0
100
AcDbLayout
  1
Layout1
 70
     1
 71
     1
 10
0.0
 20
0.0
 11
420.0
 21
297.0
 12
0.0
 22
0.0
 32
0.0
 14
1.0000000000E+20
 24
1.0000000000E+20
 34
1.0000000000E+20
 15
-1.0000000000E+20
 25
-1.0000000000E+20
 35
-1.0000000000E+20
146
0.0
 13
0.0
 23
0.0
 33
0.0
 16
1.0
 26
0.0
 36
0.0
 17
0.0
 27
1.0
 37
0.0
 76
     0
330
1B
  0
LAYOUT
  5
26
102
{ACAD_REACTORS
330
1A
102
}
330
1A
100
AcDbPlotSettings
  1

  2
none_device
  4

  6

 40
0.0
 41
0.0
 42
0.0
 43
0.0
 44
0.0
 45
0.0
 46
0.0
 47
0.0
 48
0.0
 49
0.0
140
0.0
141
0.0
142
1.0
143
1.0
 70
   688
 72
     0
 73
     0
 74
     5
  7

 75
    16
147
1.0
148
0.0
149
0.0
100
AcDbLayout
  1
Layout2
 70
     1
 71
     2
 10
0.0
 20
0.0
 11
0.0
 21
0.0
 12
0.0
 22
0.0
 32
0.0
 14
0.0
 24
0.0
 34
0.0
 15
0.0
 25
0.0
 35
0.0
146
0.0
 13
0.0
 23
0.0
 33
0.0
 16
1.0
 26
0.0
 36
0.0
 17
0.0
 27
1.0
 37
0.0
 76
     0
330
23
  0
LAYOUT
  5
22
102
{ACAD_REACTORS
330
1A
102
}
330
1A
100
AcDbPlotSettings
  1

  2
none_device
  4

  6

 40
0.0
 41
0.0
 42
0.0
 43
0.0
 44
0.0
 45
0.0
 46
0.0
 47
0.0
 48
0.0
 49
0.0
140
0.0
141
0.0
142
1.0
143
1.0
 70
  1712
 72
     0
 73
     0
 74
     0
  7

 75
     0
147
1.0
148
0.0
149
0.0
100
AcDbLayout
  1
Model
 70
     1
 71
     0
 10
0.0
 20
0.0
 11
0.0
 21
0.0
 12
0.0
 22
0.0
 32
0.0
 14
0.0
 24
0.0
 34
0.0
 15
420.0
 25
297.0
 35
0.0
146
0.0
 13
0.0
 23
0.0
 33
0.0
 16
1.0
 26
0.0
 36
0.0
 17
0.0
 27
1.0
 37
0.0
 76
     0
330
1F
  0
MLINESTYLE
  5
18
102
{ACAD_REACTORS
330
17
102
}
330
17
100
AcDbMlineStyle
  2
Standard
 70
     0
  3

 62
   256
 51
90.0
 52
90.0
 71
     2
 49
0.5
 62
   256
  6
BYLAYER
 49
-0.5
 62
   256
  6
BYLAYER
  0
ACDBPLACEHOLDER
  5
F
102
{ACAD_REACTORS
330
E
102
}
330
E
  0
ENDSEC
  0
EOF
