999
DXF file: C:\SAP\Working\ProE\work\PRN-14265_drawings_700-N24\700-N5.dxf
999
Pro/ENGINEER 2019444 by Parametric Technology Corporation
  0
SECTION
  2
HEADER
  9
$ACADVER
  1
AC1032
  9
$DWGCODEPAGE
  3
ANSI_1252
  9
$EXTMAX
 10
17.0
 20
11.0
 30
0.0
  9
$EXTMIN
 10
0.0
 20
0.0
 30
0.0
  9
$LIMMIN
 10
0.0
 20
0.0
  9
$LIMMAX
 10
17.0
 20
11.0
  9
$VIEWCTR
 10
8.5
 20
5.5
  9
$VIEWSIZE
 40
11.0
  9
$CLAYER
  8
0
  9
$LTSCALE
 40
0.935
  9
$CELTYPE
  6
BYLAYER
  9
$DIMSCALE
 40
1.0
  9
$DIMASZ
 40
0.1875
  9
$DIMEXO
 40
0.0625
  9
$DIMDLI
 40
0.646
  9
$DIMEXE
 40
0.125
  9
$DIMCEN
 40
0.153
  9
$DIMLFAC
 40
1.0
  9
$DIMBLK
  1
_FILLED
  9
$DIMALT
 70
1
  9
$DIMALTD
 70
2
  9
$DIMALTTD
 70
2
  9
$DIMALTF
 40
25.4
  9
$DIMTXT
 40
0.12
  9
$DIMTOL
 70
1
  9
$DIMLIM
 70
0
  9
$DIMTFAC
 40
1.0
  9
$DIMTP
 40
0.001
  9
$DIMTM
 40
0.001
  9
$DIMGAP
 40
0.09
  9
$DIMDSEP
 70
46
  9
$AUNITS
 70
0
  9
$PDMODE
 70
3
  9
$PDSIZE
 40
0.3125
  9
$HANDSEED
  5
4A0
  9
$TILEMODE
 70
1
  9
$MEASUREMENT
 70
0
  9
$INSUNITS
 70
1
  0
ENDSEC
  0
SECTION
  2
CLASSES
  0
CLASS
  1
ACDBDICTIONARYWDFLT
  2
AcDbDictionaryWithDefault
  3
AutoCAD 2000
 90
0
 91
1
280
0
281
0
  0
CLASS
  1
ACDBPLACEHOLDER
  2
AcDbPlaceHolder
  3
AutoCAD 2000
 90
0
 91
1
280
0
281
0
  0
CLASS
  1
LAYOUT
  2
AcDbLayout
  3
AutoCAD 2000
 90
0
 91
0
280
0
281
0
  0
ENDSEC
  0
SECTION
  2
TABLES
  0
TABLE
  2
VPORT
  5
8
100
AcDbSymbolTable
 70
2
  0
VPORT
  5
1F4
100
AcDbSymbolTableRecord
100
AcDbViewportTableRecord
  2
*ACTIVE
 70
0
 10
0.0
 20
0.0
 11
1.0
 21
1.0
 12
8.5
 22
5.5
 13
0.0
 23
0.0
 14
1.0
 24
1.0
 15
0.0
 25
0.0
 16
0.0
 26
0.0
 36
1.0
 17
0.0
 27
0.0
 37
0.0
 40
11.0
 41
1.5454545455
 42
50.0
 43
0.0
 44
0.0
 50
0.0
 51
0.0
 71
0
 72
100
 73
1
 74
1
 75
0
 76
0
 77
0
 78
0
  0
ENDTAB
  0
TABLE
  2
LTYPE
  5
5
100
AcDbSymbolTable
 70
6
  0
LTYPE
  5
14
100
AcDbSymbolTableRecord
100
AcDbLinetypeTableRecord
  2
BYBLOCK
 70
0
  3

 72
65
 73
0
 40
0.0
  0
LTYPE
  5
15
100
AcDbSymbolTableRecord
100
AcDbLinetypeTableRecord
  2
BYLAYER
 70
0
  3

 72
65
 73
0
 40
0.0
  0
LTYPE
  5
16
100
AcDbSymbolTableRecord
100
AcDbLinetypeTableRecord
  2
CONTINUOUS
 70
64
  3
Solid line
 72
65
 73
0
 40
0.0
  0
LTYPE
  5
1F5
100
AcDbSymbolTableRecord
100
AcDbLinetypeTableRecord
  2
CENTER
 70
64
  3
____ _ ____ _ ____ _ ____ _ ____ _ ____ _ ____
 72
65
 73
4
 40
0.6
 49
0.375
 74
0
 49
-0.075
 74
0
 49
0.075
 74
0
 49
-0.075
 74
0
  0
LTYPE
  5
1F6
100
AcDbSymbolTableRecord
100
AcDbLinetypeTableRecord
  2
HIDDEN
 70
64
  3
- - - - - - - - - - - - - - - - - - - -
 72
65
 73
2
 40
0.2
 49
0.1
 74
0
 49
-0.1
 74
0
  0
LTYPE
  5
1F7
100
AcDbSymbolTableRecord
100
AcDbLinetypeTableRecord
  2
PHANTOM
 70
64
  3
_____ _ _ _____ _ _ _____ _ _ _____
 72
65
 73
6
 40
0.8
 49
0.45
 74
0
 49
-0.05
 74
0
 49
0.1
 74
0
 49
-0.05
 74
0
 49
0.1
 74
0
 49
-0.05
 74
0
  0
LTYPE
  5
1F8
100
AcDbSymbolTableRecord
100
AcDbLinetypeTableRecord
  2
DOT
 70
64
  3
. . . . . . . . . . . . . . . . . . . .
 72
65
 73
2
 40
0.2
 49
0.1
 74
0
 49
-0.1
 74
0
  0
LTYPE
  5
1F9
100
AcDbSymbolTableRecord
100
AcDbLinetypeTableRecord
  2
DASHED
 70
64
  3
- - - - - - - - - - - - - - - - - - - -
 72
65
 73
2
 40
0.2
 49
0.1
 74
0
 49
-0.1
 74
0
  0
ENDTAB
  0
TABLE
  2
LAYER
  5
2
100
AcDbSymbolTable
 70
36
  0
LAYER
  5
10
100
AcDbSymbolTableRecord
100
AcDbLayerTableRecord
  2
0
 70
0
 62
7
  6
CONTINUOUS
370
-3
390
F
  0
LAYER
  5
1FA
100
AcDbSymbolTableRecord
100
AcDbLayerTableRecord
  2
DEFAULT_1
 70
0
 62
7
  6
CENTER
370
-3
390
F
  0
LAYER
  5
1FB
100
AcDbSymbolTableRecord
100
AcDbLayerTableRecord
  2
DEFAULT_2
 70
0
 62
8
  6
HIDDEN
370
-3
390
F
  0
LAYER
  5
1FC
100
AcDbSymbolTableRecord
100
AcDbLayerTableRecord
  2
DEFAULT_3
 70
0
 62
7
  6
PHANTOM
370
-3
390
F
  0
LAYER
  5
1FD
100
AcDbSymbolTableRecord
100
AcDbLayerTableRecord
  2
AXIS_PART
 70
0
 62
7
  6
CONTINUOUS
370
-3
390
F
  0
LAYER
  5
1FE
100
AcDbSymbolTableRecord
100
AcDbLayerTableRecord
  2
DATUM_CURVE
 70
0
 62
7
  6
CONTINUOUS
370
-3
390
F
  0
LAYER
  5
1FF
100
AcDbSymbolTableRecord
100
AcDbLayerTableRecord
  2
DATUM_PART
 70
0
 62
7
  6
CONTINUOUS
370
-3
390
F
  0
LAYER
  5
200
100
AcDbSymbolTableRecord
100
AcDbLayerTableRecord
  2
DEF_DATUMS
 70
0
 62
7
  6
CONTINUOUS
370
-3
390
F
  0
ENDTAB
  0
TABLE
  2
STYLE
  5
3
100
AcDbSymbolTable
 70
1
  0
STYLE
  5
11
100
AcDbSymbolTableRecord
100
AcDbTextStyleTableRecord
  2
STANDARD
 70
0
 40
0.0
 41
0.8
 50
0.0
 71
0
 42
0.2
  3
txt
  4

  0
STYLE
  5
201
100
AcDbSymbolTableRecord
100
AcDbTextStyleTableRecord
  2
TEXTSTYLE_1
 70
0
 40
0.0
 41
0.8
 50
0.0
 71
0
 42
0.2
  3
gdt
  4

  0
ENDTAB
  0
TABLE
  2
VIEW
  5
6
100
AcDbSymbolTable
 70
0
  0
ENDTAB
  0
TABLE
  2
UCS
  5
7
100
AcDbSymbolTable
 70
0
  0
ENDTAB
  0
TABLE
  2
APPID
  5
9
100
AcDbSymbolTable
 70
1
  0
APPID
  5
202
100
AcDbSymbolTableRecord
100
AcDbRegAppTableRecord
  2
ACAD
 70
0
  0
ENDTAB
  0
TABLE
  2
BLOCK_RECORD
  5
1
100
AcDbSymbolTable
 70
0
  0
BLOCK_RECORD
  5
203
100
AcDbSymbolTableRecord
100
AcDbBlockTableRecord
  2
*Model_Space
  0
BLOCK_RECORD
  5
204
100
AcDbSymbolTableRecord
100
AcDbBlockTableRecord
  2
*Paper_Space
  0
BLOCK_RECORD
  5
205
100
AcDbSymbolTableRecord
100
AcDbBlockTableRecord
  2
_FILLED
  0
BLOCK_RECORD
  5
206
100
AcDbSymbolTableRecord
100
AcDbBlockTableRecord
  2
*D0
  0
BLOCK_RECORD
  5
207
100
AcDbSymbolTableRecord
100
AcDbBlockTableRecord
  2
*D1
  0
BLOCK_RECORD
  5
208
100
AcDbSymbolTableRecord
100
AcDbBlockTableRecord
  2
*D2
  0
BLOCK_RECORD
  5
209
100
AcDbSymbolTableRecord
100
AcDbBlockTableRecord
  2
*D3
  0
BLOCK_RECORD
  5
20A
100
AcDbSymbolTableRecord
100
AcDbBlockTableRecord
  2
*D4
  0
BLOCK_RECORD
  5
20B
100
AcDbSymbolTableRecord
100
AcDbBlockTableRecord
  2
*D5
  0
ENDTAB
  0
TABLE
  2
DIMSTYLE
  5
A
100
AcDbSymbolTable
 70
1
100
AcDbDimStyleTable
 71
0
  0
DIMSTYLE
105
20C
100
AcDbSymbolTableRecord
100
AcDbDimStyleTableRecord
  2
STANDARD
 70
0
  3

  4

 40
1.0
 41
0.1875
 42
0.0625
 43
0.38
 44
0.125
 45
0.0
 46
0.0
 47
0.001
 48
0.001
140
0.12
141
0.09
142
0.0
143
25.4
144
1.0
145
0.0
146
1.0
147
0.09
 71
1
 72
0
 73
1
 74
1
 75
0
 76
0
 77
0
 78
4
 79
1
170
1
171
2
172
0
173
0
174
0
175
0
176
0
177
0
178
0
270
2
179
3
271
3
272
3
273
2
274
2
275
0
280
0
281
0
282
0
283
1
284
4
285
0
286
0
287
3
288
0
340
11
278
46
341
205
342
205
343
205
344
205
  0
DIMSTYLE
105
20D
100
AcDbSymbolTableRecord
100
AcDbDimStyleTableRecord
  2
DIMSTYLE_1
 70
0
  3

  4

 40
1.0
 41
0.1875
 42
0.0625
 43
0.38
 44
0.125
 45
0.0
 46
0.0
 47
0.001
 48
0.001
140
0.12
141
0.09
142
0.0
143
25.4
144
1.0
145
0.0
146
1.0
147
0.06
 71
0
 72
0
 73
1
 74
1
 75
0
 76
0
 77
0
 78
4
 79
1
170
1
171
1
172
0
173
0
174
0
175
0
176
0
177
0
178
0
270
2
179
3
271
2
272
2
273
2
274
1
275
0
280
0
281
0
282
0
283
1
284
4
285
0
286
0
287
3
288
0
340
11
278
46
341
205
342
205
343
205
344
205
  0
DIMSTYLE
105
20E
100
AcDbSymbolTableRecord
100
AcDbDimStyleTableRecord
  2
DIMSTYLE_2
 70
0
  3

  4

 40
1.0
 41
0.1875
 42
0.0625
 43
0.38
 44
0.125
 45
0.0
 46
0.0
 47
0.001
 48
0.001
140
0.12
141
0.09
142
0.0
143
25.4
144
1.0
145
0.0
146
1.0
147
0.06
 71
0
 72
0
 73
1
 74
1
 75
0
 76
0
 77
0
 78
4
 79
1
170
1
171
2
172
0
173
0
174
0
175
0
176
0
177
0
178
0
270
2
179
3
271
3
272
3
273
2
274
2
275
0
280
0
281
0
282
0
283
1
284
4
285
0
286
0
287
3
288
0
340
11
278
46
341
205
342
205
343
205
344
205
  0
DIMSTYLE
105
20F
100
AcDbSymbolTableRecord
100
AcDbDimStyleTableRecord
  2
DIMSTYLE_3
 70
0
  3

  4

 40
1.0
 41
0.1875
 42
0.0625
 43
0.38
 44
0.125
 45
0.0
 46
0.0
 47
0.001
 48
0.001
140
0.12
141
0.09
142
0.0
143
25.4
144
1.0
145
0.0
146
1.0
147
0.06
 71
0
 72
0
 73
1
 74
1
 75
0
 76
0
 77
0
 78
4
 79
1
170
1
171
2
172
0
173
0
174
0
175
0
176
0
177
0
178
0
270
2
179
3
271
3
272
3
273
2
274
-1
275
0
280
0
281
0
282
0
283
1
284
4
285
0
286
0
287
3
288
0
340
11
278
46
341
205
342
205
343
205
344
205
  0
ENDTAB
  0
ENDSEC
  0
SECTION
  2
BLOCKS
  0
BLOCK
  5
20
100
AcDbEntity
  8
0
100
AcDbBlockBegin
  2
*Model_Space
 70
0
 10
0.0
 20
0.0
 30
0.0
  3
*Model_Space
  1

  0
ENDBLK
  5
21
100
AcDbEntity
  8
0
100
AcDbBlockEnd
  0
BLOCK
  5
1C
100
AcDbEntity
  8
0
100
AcDbBlockBegin
  2
*Paper_Space
 70
0
 10
0.0
 20
0.0
 30
0.0
  3
*Paper_Space
  1

  0
ENDBLK
  5
1D
100
AcDbEntity
  8
0
100
AcDbBlockEnd
  0
BLOCK
  5
210
100
AcDbEntity
  8
0
100
AcDbBlockBegin
  2
_FILLED
 70
64
 10
0.0
 20
0.0
  3
_FILLED
  1

  0
SOLID
  5
211
100
AcDbEntity
  8
0
  6
BYBLOCK
 62
0
100
AcDbTrace
 10
0.0
 20
0.0
 11
-1.0
 21
0.1666666667
 12
-1.0
 22
-0.1666666667
 13
-1.0
 23
-0.1666666667
  0
ENDBLK
  5
212
100
AcDbEntity
  8
0
  6
BYBLOCK
 62
0
100
AcDbBlockEnd
  0
BLOCK
  5
213
100
AcDbEntity
  8
0
100
AcDbBlockBegin
 62
2
  6
CONTINUOUS
  2
*D0
 70
65
 10
0.0
 20
0.0
  3
*D0
  1

  0
MTEXT
  5
214
100
AcDbEntity
  8
0
100
AcDbMText
 62
2
  6
CONTINUOUS
  7
STANDARD
 71
2
 72
1
 10
5.3282749023
 20
8.0112635617
 30
0.0
 11
1.0
 21
0.0
 31
0.0
 73
2
 44
0.9
  1
3.50\P[88.9]
 40
0.12
 41
0.576
  0
LINE
  5
215
100
AcDbEntity
  8
0
100
AcDbLine
 62
2
  6
CONTINUOUS
 10
3.6742749023
 20
6.9054965551
 11
3.6742749023
 21
8.0762635617
  0
LINE
  5
216
100
AcDbEntity
  8
0
100
AcDbLine
 62
2
  6
CONTINUOUS
 10
7.1742749023
 20
6.9054965551
 11
7.1742749023
 21
8.0762635617
  0
LINE
  5
217
100
AcDbEntity
  8
0
100
AcDbLine
 62
2
  6
CONTINUOUS
 10
3.6742749023
 20
7.9512635617
 11
5.0762749023
 21
7.9512635617
  0
LINE
  5
218
100
AcDbEntity
  8
0
100
AcDbLine
 62
2
  6
CONTINUOUS
 10
7.1742749023
 20
7.9512635617
 11
5.7722749023
 21
7.9512635617
  0
INSERT
  5
219
100
AcDbEntity
  8
0
100
AcDbBlockReference
 62
2
  6
CONTINUOUS
  2
_FILLED
 10
3.6742749023
 20
7.9512635617
 41
0.1875
 42
0.1875
 43
0.1875
 50
180.0
  0
INSERT
  5
21A
100
AcDbEntity
  8
0
100
AcDbBlockReference
 62
2
  6
CONTINUOUS
  2
_FILLED
 10
7.1742749023
 20
7.9512635617
 41
0.1875
 42
0.1875
 43
0.1875
  0
ENDBLK
  5
21B
100
AcDbEntity
  8
0
  6
BYBLOCK
 62
0
100
AcDbBlockEnd
  0
BLOCK
  5
21C
100
AcDbEntity
  8
0
100
AcDbBlockBegin
 62
2
  6
CONTINUOUS
  2
*D1
 70
65
 10
0.0
 20
0.0
  3
*D1
  1

  0
MTEXT
  5
21D
100
AcDbEntity
  8
0
100
AcDbMText
 62
2
  6
CONTINUOUS
  7
STANDARD
 71
2
 72
1
 10
7.8599490561
 20
3.065788773
 30
0.0
 11
1.0
 21
0.0
 31
0.0
 73
2
 44
0.9
  1
.92\P[23.4]
 40
0.12
 41
0.576
  0
LINE
  5
21E
100
AcDbEntity
  8
0
100
AcDbLine
 62
2
  6
CONTINUOUS
 10
7.2367749023
 20
2.4091201172
 11
8.1289490561
 21
2.4091201172
  0
LINE
  5
21F
100
AcDbEntity
  8
0
100
AcDbLine
 62
2
  6
CONTINUOUS
 10
7.1647749023
 20
3.3301201172
 11
8.1289490561
 21
3.3301201172
  0
LINE
  5
220
100
AcDbEntity
  8
0
100
AcDbLine
 62
2
  6
CONTINUOUS
 10
8.0039490561
 20
2.4091201172
 11
8.0039490561
 21
2.7057885437
  0
LINE
  5
221
100
AcDbEntity
  8
0
100
AcDbLine
 62
2
  6
CONTINUOUS
 10
8.0039490561
 20
3.3301201172
 11
8.0039490561
 21
3.125788773
  0
INSERT
  5
222
100
AcDbEntity
  8
0
100
AcDbBlockReference
 62
2
  6
CONTINUOUS
  2
_FILLED
 10
8.0039490561
 20
2.4091201172
 41
0.1875
 42
0.1875
 43
0.1875
 50
270.0
  0
INSERT
  5
223
100
AcDbEntity
  8
0
100
AcDbBlockReference
 62
2
  6
CONTINUOUS
  2
_FILLED
 10
8.0039490561
 20
3.3301201172
 41
0.1875
 42
0.1875
 43
0.1875
 50
90.0
  0
ENDBLK
  5
224
100
AcDbEntity
  8
0
  6
BYBLOCK
 62
0
100
AcDbBlockEnd
  0
BLOCK
  5
225
100
AcDbEntity
  8
0
100
AcDbBlockBegin
 62
2
  6
CONTINUOUS
  2
*D2
 70
65
 10
0.0
 20
0.0
  3
*D2
  1

  0
MTEXT
  5
226
100
AcDbEntity
  8
0
100
AcDbMText
 62
2
  6
CONTINUOUS
  7
STANDARD
 71
2
 72
1
 10
10.0382163086
 20
1.7788149293
 30
0.0
 11
1.0
 21
0.0
 31
0.0
 73
2
 44
0.9
  1
1.09\P[27.7]
 40
0.12
 41
0.576
  0
LINE
  5
227
100
AcDbEntity
  8
0
100
AcDbLine
 62
2
  6
CONTINUOUS
 10
9.5892163086
 20
2.3466201172
 11
9.5892163086
 21
1.5938149293
  0
LINE
  5
228
100
AcDbEntity
  8
0
100
AcDbLine
 62
2
  6
CONTINUOUS
 10
10.6792163086
 20
2.3466201172
 11
10.6792163086
 21
1.5938149293
  0
LINE
  5
229
100
AcDbEntity
  8
0
100
AcDbLine
 62
2
  6
CONTINUOUS
 10
9.5892163086
 20
1.7188149293
 11
9.7862163086
 21
1.7188149293
  0
LINE
  5
22A
100
AcDbEntity
  8
0
100
AcDbLine
 62
2
  6
CONTINUOUS
 10
10.6792163086
 20
1.7188149293
 11
10.4822163086
 21
1.7188149293
  0
INSERT
  5
22B
100
AcDbEntity
  8
0
100
AcDbBlockReference
 62
2
  6
CONTINUOUS
  2
_FILLED
 10
9.5892163086
 20
1.7188149293
 41
0.1875
 42
0.1875
 43
0.1875
 50
180.0
  0
INSERT
  5
22C
100
AcDbEntity
  8
0
100
AcDbBlockReference
 62
2
  6
CONTINUOUS
  2
_FILLED
 10
10.6792163086
 20
1.7188149293
 41
0.1875
 42
0.1875
 43
0.1875
  0
ENDBLK
  5
22D
100
AcDbEntity
  8
0
  6
BYBLOCK
 62
0
100
AcDbBlockEnd
  0
BLOCK
  5
22E
100
AcDbEntity
  8
0
100
AcDbBlockBegin
 62
2
  6
CONTINUOUS
  2
*D3
 70
65
 10
0.0
 20
0.0
  3
*D3
  1

  0
MTEXT
  5
22F
100
AcDbEntity
  8
0
100
AcDbMText
 62
2
  6
CONTINUOUS
  7
STANDARD
 71
1
 72
1
 10
7.9991369548
 20
5.9626963296
 30
0.0
 11
1.0
 21
0.0
 31
0.0
 73
2
 44
0.9
  1
2x.171\P[4.34]
 40
0.12
 41
0.576
  0
LINE
  5
230
100
AcDbEntity
  8
0
100
AcDbLine
 62
2
  6
CONTINUOUS
 10
7.0792749023
 20
6.4633076172
 11
7.8741369548
 21
6.4633076172
  0
LINE
  5
231
100
AcDbEntity
  8
0
100
AcDbLine
 62
2
  6
CONTINUOUS
 10
7.0792749023
 20
6.2923076172
 11
7.8741369548
 21
6.2923076172
  0
LINE
  5
232
100
AcDbEntity
  8
0
100
AcDbLine
 62
2
  6
CONTINUOUS
 10
7.7491369548
 20
6.4633076172
 11
7.7491369548
 21
6.8133076172
  0
LINE
  5
233
100
AcDbEntity
  8
0
100
AcDbLine
 62
2
  6
CONTINUOUS
 10
7.7491369548
 20
6.2923076172
 11
7.7491369548
 21
5.9026963296
  0
LINE
  5
234
100
AcDbEntity
  8
0
100
AcDbLine
 62
2
  6
CONTINUOUS
 10
7.7491369548
 20
5.9026963296
 11
7.9391369548
 21
5.9026963296
  0
INSERT
  5
235
100
AcDbEntity
  8
0
100
AcDbBlockReference
 62
2
  6
CONTINUOUS
  2
_FILLED
 10
7.7491369548
 20
6.4633076172
 41
0.1875
 42
0.1875
 43
0.1875
 50
270.0
  0
INSERT
  5
236
100
AcDbEntity
  8
0
100
AcDbBlockReference
 62
2
  6
CONTINUOUS
  2
_FILLED
 10
7.7491369548
 20
6.2923076172
 41
0.1875
 42
0.1875
 43
0.1875
 50
90.0
  0
ENDBLK
  5
237
100
AcDbEntity
  8
0
  6
BYBLOCK
 62
0
100
AcDbBlockEnd
  0
BLOCK
  5
238
100
AcDbEntity
  8
0
100
AcDbBlockBegin
 62
2
  6
CONTINUOUS
  2
*D4
 70
65
 10
0.0
 20
0.0
  3
*D4
  1

  0
MTEXT
  5
239
100
AcDbEntity
  8
0
100
AcDbMText
 62
2
  6
CONTINUOUS
  7
STANDARD
 71
3
 72
1
 10
6.4551138594
 20
5.4495152593
 30
0.0
 11
1.0
 21
0.0
 31
0.0
 73
2
 44
0.9
  1
2x.210\P[5.33]
 40
0.12
 41
0.576
  0
LINE
  5
23A
100
AcDbEntity
  8
0
100
AcDbLine
 62
2
  6
CONTINUOUS
 10
6.8922749023
 20
6.3153076172
 11
6.8922749023
 21
5.2645152593
  0
LINE
  5
23B
100
AcDbEntity
  8
0
100
AcDbLine
 62
2
  6
CONTINUOUS
 10
7.1022749023
 20
6.3153076172
 11
7.1022749023
 21
5.2645152593
  0
LINE
  5
23C
100
AcDbEntity
  8
0
100
AcDbLine
 62
2
  6
CONTINUOUS
 10
6.8922749023
 20
5.3895152593
 11
6.7071138594
 21
5.3895152593
  0
LINE
  5
23D
100
AcDbEntity
  8
0
100
AcDbLine
 62
2
  6
CONTINUOUS
 10
7.1022749023
 20
5.3895152593
 11
7.4522749023
 21
5.3895152593
  0
INSERT
  5
23E
100
AcDbEntity
  8
0
100
AcDbBlockReference
 62
2
  6
CONTINUOUS
  2
_FILLED
 10
6.8922749023
 20
5.3895152593
 41
0.1875
 42
0.1875
 43
0.1875
  0
INSERT
  5
23F
100
AcDbEntity
  8
0
100
AcDbBlockReference
 62
2
  6
CONTINUOUS
  2
_FILLED
 10
7.1022749023
 20
5.3895152593
 41
0.1875
 42
0.1875
 43
0.1875
 50
180.0
  0
ENDBLK
  5
240
100
AcDbEntity
  8
0
  6
BYBLOCK
 62
0
100
AcDbBlockEnd
  0
BLOCK
  5
241
100
AcDbEntity
  8
0
100
AcDbBlockBegin
 62
2
  6
CONTINUOUS
  2
*D5
 70
65
 10
0.0
 20
0.0
  3
*D5
  1

  0
MTEXT
  5
242
100
AcDbEntity
  8
0
100
AcDbMText
 62
2
  6
CONTINUOUS
  7
STANDARD
 71
1
 72
1
 10
1.3771211735
 20
7.5197238265
 30
0.0
 11
1.0
 21
0.0
 31
0.0
 73
2
 44
0.9
  1
.140\P[3.56]
 40
0.12
 41
0.576
  0
LINE
  5
243
100
AcDbEntity
  8
0
100
AcDbLine
 62
2
  6
CONTINUOUS
 10
1.5267749023
 20
6.7078076172
 11
1.0021211735
 21
6.7078076172
  0
LINE
  5
244
100
AcDbEntity
  8
0
100
AcDbLine
 62
2
  6
CONTINUOUS
 10
1.5267749023
 20
6.8478076172
 11
1.0021211735
 21
6.8478076172
  0
LINE
  5
245
100
AcDbEntity
  8
0
100
AcDbLine
 62
2
  6
CONTINUOUS
 10
1.1271211735
 20
6.7078076172
 11
1.1271211735
 21
6.3578076172
  0
LINE
  5
246
100
AcDbEntity
  8
0
100
AcDbLine
 62
2
  6
CONTINUOUS
 10
1.1271211735
 20
6.8478076172
 11
1.1271211735
 21
7.4597238265
  0
LINE
  5
247
100
AcDbEntity
  8
0
100
AcDbLine
 62
2
  6
CONTINUOUS
 10
1.1271211735
 20
7.4597238265
 11
1.3171211735
 21
7.4597238265
  0
INSERT
  5
248
100
AcDbEntity
  8
0
100
AcDbBlockReference
 62
2
  6
CONTINUOUS
  2
_FILLED
 10
1.1271211735
 20
6.7078076172
 41
0.1875
 42
0.1875
 43
0.1875
 50
90.0
  0
INSERT
  5
249
100
AcDbEntity
  8
0
100
AcDbBlockReference
 62
2
  6
CONTINUOUS
  2
_FILLED
 10
1.1271211735
 20
6.8478076172
 41
0.1875
 42
0.1875
 43
0.1875
 50
270.0
  0
ENDBLK
  5
24A
100
AcDbEntity
  8
0
  6
BYBLOCK
 62
0
100
AcDbBlockEnd
  0
ENDSEC
  0
SECTION
  2
ENTITIES
  0
DIMENSION
  5
24B
100
AcDbEntity
  8
0
100
AcDbDimension
 62
2
  6
CONTINUOUS
  2
*D0
 10
7.1742749023
 20
7.9512635617
 11
5.4242749023
 21
7.8612635617
 70
160
 71
2
 72
2
 41
0.9
 42
3.5
  1
<>\P[]
  3
DIMSTYLE_1
100
AcDbAlignedDimension
 13
3.6742749023
 23
6.8429965551
 14
7.1742749023
 24
6.8429965551
100
AcDbRotatedDimension
  0
DIMENSION
  5
24C
100
AcDbEntity
  8
0
100
AcDbDimension
 62
2
  6
CONTINUOUS
  2
*D1
 10
8.0039490561
 20
3.3301201172
 11
8.0039490561
 21
2.915788773
 70
160
 71
2
 72
2
 41
0.9
 42
0.921
  1
<>\P[]
  3
DIMSTYLE_1
100
AcDbAlignedDimension
 13
7.1742749023
 23
2.4091201172
 14
7.1022749023
 24
3.3301201172
 50
90.0
100
AcDbRotatedDimension
  0
DIMENSION
  5
24D
100
AcDbEntity
  8
0
100
AcDbDimension
 62
2
  6
CONTINUOUS
  2
*D2
 10
10.6792163086
 20
1.7188149293
 11
10.1342163086
 21
1.6288149293
 70
160
 71
2
 72
2
 41
0.9
 42
1.09
  1
<>\P[]
  3
DIMSTYLE_1
100
AcDbAlignedDimension
 13
9.5892163086
 23
2.4091201172
 14
10.6792163086
 24
2.4091201172
100
AcDbRotatedDimension
  0
DIMENSION
  5
24E
100
AcDbEntity
  8
0
100
AcDbDimension
 62
2
  6
CONTINUOUS
  2
*D3
 10
7.7491369548
 20
6.2923076172
 11
8.3831369548
 21
5.8126963296
 70
160
 71
1
 72
2
 41
0.9
 42
0.171
  1
2x<>\P[]
  3
DIMSTYLE_2
100
AcDbAlignedDimension
 13
7.0167749023
 23
6.4633076172
 14
7.0167749023
 24
6.2923076172
 50
270.0
100
AcDbRotatedDimension
  0
DIMENSION
  5
24F
100
AcDbEntity
  8
0
100
AcDbDimension
 62
2
  6
CONTINUOUS
  2
*D4
 10
7.1022749023
 20
5.3895152593
 11
6.2631138594
 21
5.2995152593
 70
160
 71
3
 72
2
 41
0.9
 42
0.21
  1
2x<>\P[]
  3
DIMSTYLE_2
100
AcDbAlignedDimension
 13
6.8922749023
 23
6.3778076172
 14
7.1022749023
 24
6.3778076172
100
AcDbRotatedDimension
  0
DIMENSION
  5
250
100
AcDbEntity
  8
0
100
AcDbDimension
 62
2
  6
CONTINUOUS
  2
*D5
 10
1.1271211735
 20
6.8478076172
 11
1.6651211735
 21
7.3697238265
 70
160
 71
1
 72
2
 41
0.9
 42
0.14
  1
<>\P[]
  3
DIMSTYLE_3
100
AcDbAlignedDimension
 13
1.5892749023
 23
6.7078076172
 14
1.5892749023
 24
6.8478076172
 50
90.0
100
AcDbRotatedDimension
  0
MTEXT
  5
251
100
AcDbEntity
  8
0
100
AcDbMText
 62
2
  6
CONTINUOUS
  7
STANDARD
 71
2
 72
1
 10
14.1211262211
 20
1.6103719245
 30
0.0
 11
1.0
 21
0.0
 31
0.0
 73
2
 44
0.9
  1
700-N5\PSurge suppressor
 40
0.3
 41
3.84
  0
LEADER
  5
252
100
AcDbEntity
  8
0
100
AcDbLeader
 62
2
  6
CONTINUOUS
  3
STANDARD
 71
1
 72
0
 73
0
 75
0
 40
0.12
 41
2.784
 76
3
 10
2.818320315
 20
2.2621201172
 30
0.0
 10
2.818320315
 20
1.5111722348
 30
0.0
 10
3.068320315
 20
1.5111722348
 30
0.0
340
253
1001
ACAD
1000
DSTYLE
1002
{
1070
77
1070
0
1002
}
  0
MTEXT
  5
253
102
{ACAD_REACTORS
330
252
102
}
100
AcDbEntity
  8
0
100
AcDbMText
 62
2
  6
CONTINUOUS
  7
STANDARD
 71
1
 72
1
 10
3.068320315
 20
1.5711722348
 30
0.0
 11
1.0
 21
0.0
 31
0.0
 73
2
 44
0.9
  1
Wire #16 AWG, 19 strands, red\P~4.83 lenght
 40
0.12
 41
2.784
  0
LINE
  5
254
100
AcDbEntity
  8
0
100
AcDbLine
 62
7
  6
CONTINUOUS
 10
0.0
 20
0.0
 11
0.0
 21
11.0
  0
LINE
  5
255
100
AcDbEntity
  8
0
100
AcDbLine
 62
7
  6
CONTINUOUS
 10
0.0
 20
0.0
 11
17.0
 21
0.0
  0
LINE
  5
256
100
AcDbEntity
  8
0
100
AcDbLine
 62
7
  6
CONTINUOUS
 10
0.0
 20
11.0
 11
17.0
 21
11.0
  0
LINE
  5
257
100
AcDbEntity
  8
0
100
AcDbLine
 62
7
  6
CONTINUOUS
 10
17.0
 20
0.0
 11
17.0
 21
11.0
  0
LINE
  5
258
100
AcDbEntity
  8
0
100
AcDbLine
 62
7
  6
CONTINUOUS
 10
1.5892749023
 20
6.9028076172
 11
1.5892749023
 21
6.8478076172
  0
LINE
  5
259
100
AcDbEntity
  8
0
100
AcDbLine
 62
7
  6
CONTINUOUS
 10
1.5892749023
 20
6.7078076172
 11
1.5892749023
 21
6.6528076172
  0
LINE
  5
25A
100
AcDbEntity
  8
0
100
AcDbLine
 62
7
  6
CONTINUOUS
 10
1.5892749023
 20
6.1028076172
 11
1.5892749023
 21
6.0478076172
  0
LINE
  5
25B
100
AcDbEntity
  8
0
100
AcDbLine
 62
7
  6
CONTINUOUS
 10
1.5892749023
 20
5.9078076172
 11
1.5892749023
 21
5.8528076172
  0
LINE
  5
25C
100
AcDbEntity
  8
0
100
AcDbLine
 62
7
  6
CONTINUOUS
 10
2.0142749023
 20
6.8853059136
 11
2.0142749023
 21
6.6703093208
  0
LINE
  5
25D
100
AcDbEntity
  8
0
100
AcDbLine
 62
7
  6
CONTINUOUS
 10
2.0142749023
 20
6.0853059136
 11
2.0142749023
 21
5.8703093208
  0
LINE
  5
25E
100
AcDbEntity
  8
0
100
AcDbLine
 62
7
  6
CONTINUOUS
 10
2.2642749023
 20
6.8853059136
 11
2.2642749023
 21
6.6703093208
  0
LINE
  5
25F
100
AcDbEntity
  8
0
100
AcDbLine
 62
7
  6
CONTINUOUS
 10
2.2642749023
 20
6.0853059136
 11
2.2642749023
 21
5.8703093208
  0
LINE
  5
260
100
AcDbEntity
  8
0
100
AcDbLine
 62
7
  6
CONTINUOUS
 10
1.8942749023
 20
6.6528076172
 11
2.0142749023
 21
6.7328076172
  0
LINE
  5
261
100
AcDbEntity
  8
0
100
AcDbLine
 62
7
  6
CONTINUOUS
 10
2.0142749023
 20
6.0228076172
 11
1.8942749023
 21
6.1028076172
  0
LINE
  5
262
100
AcDbEntity
  8
0
100
AcDbLine
 62
7
  6
CONTINUOUS
 10
1.8942749023
 20
5.8528076172
 11
2.0142749023
 21
5.9328076172
  0
LINE
  5
263
100
AcDbEntity
  8
0
100
AcDbLine
 62
7
  6
CONTINUOUS
 10
2.0142749023
 20
6.8228076172
 11
1.8942749023
 21
6.9028076172
  0
LINE
  5
264
100
AcDbEntity
  8
0
100
AcDbLine
 62
7
  6
CONTINUOUS
 10
3.6742749023
 20
6.7328365551
 11
3.6742749023
 21
6.0227786793
  0
LINE
  5
265
100
AcDbEntity
  8
0
100
AcDbLine
 62
7
  6
CONTINUOUS
 10
3.8642459644
 20
5.8328076172
 11
4.0201332532
 21
5.8328076172
  0
LINE
  5
266
100
AcDbEntity
  8
0
100
AcDbLine
 62
7
  6
CONTINUOUS
 10
4.6642749023
 20
5.8328076172
 11
6.1842749023
 21
5.8328076172
  0
LINE
  5
267
100
AcDbEntity
  8
0
100
AcDbLine
 62
7
  6
CONTINUOUS
 10
6.8384165515
 20
5.8328076172
 11
6.9843038403
 21
5.8328076172
  0
LINE
  5
268
100
AcDbEntity
  8
0
100
AcDbLine
 62
7
  6
CONTINUOUS
 10
4.0418818062
 20
5.834902225
 11
4.6142749023
 21
5.834902225
  0
LINE
  5
269
100
AcDbEntity
  8
0
100
AcDbLine
 62
7
  6
CONTINUOUS
 10
6.2342749023
 20
5.834902225
 11
6.8166679984
 21
5.834902225
  0
LINE
  5
26A
100
AcDbEntity
  8
0
100
AcDbLine
 62
7
  6
CONTINUOUS
 10
1.5892749023
 20
5.8528076172
 11
1.8942749023
 21
5.8528076172
  0
LINE
  5
26B
100
AcDbEntity
  8
0
100
AcDbLine
 62
7
  6
CONTINUOUS
 10
2.0142749023
 20
5.8703076172
 11
2.2642749023
 21
5.8703076172
  0
LINE
  5
26C
100
AcDbEntity
  8
0
100
AcDbLine
 62
7
  6
CONTINUOUS
 10
1.755893375
 20
5.9078076172
 11
1.5892749023
 21
5.9078076172
  0
LINE
  5
26D
100
AcDbEntity
  8
0
100
AcDbLine
 62
7
  6
CONTINUOUS
 10
2.2642749023
 20
5.9308076172
 11
3.6981356624
 21
5.9308076172
  0
LINE
  5
26E
100
AcDbEntity
  8
0
100
AcDbLine
 62
7
  6
CONTINUOUS
 10
1.8880734133
 20
5.9478076172
 11
1.8280734133
 21
5.9478076172
  0
LINE
  5
26F
100
AcDbEntity
  8
0
100
AcDbLine
 62
7
  6
CONTINUOUS
 10
1.8280734133
 20
6.0078076172
 11
1.8880734133
 21
6.0078076172
  0
LINE
  5
270
100
AcDbEntity
  8
0
100
AcDbLine
 62
7
  6
CONTINUOUS
 10
2.2642749023
 20
6.0248076172
 11
3.6742749023
 21
6.0248076172
  0
LINE
  5
271
100
AcDbEntity
  8
0
100
AcDbLine
 62
7
  6
CONTINUOUS
 10
1.5892749023
 20
6.0478076172
 11
1.755893375
 21
6.0478076172
  0
LINE
  5
272
100
AcDbEntity
  8
0
100
AcDbLine
 62
7
  6
CONTINUOUS
 10
2.0142749023
 20
6.0853076172
 11
2.2642749023
 21
6.0853076172
  0
LINE
  5
273
100
AcDbEntity
  8
0
100
AcDbLine
 62
7
  6
CONTINUOUS
 10
1.8942749023
 20
6.1028076172
 11
1.5892749023
 21
6.1028076172
  0
LINE
  5
274
100
AcDbEntity
  8
AXIS_PART
100
AcDbLine
 62
7
  6
CONTINUOUS
 10
7.0167749023
 20
6.2923076172
 11
6.9777749023
 21
6.2923076172
  0
LINE
  5
275
100
AcDbEntity
  8
AXIS_PART
100
AcDbLine
 62
7
  6
CONTINUOUS
 10
3.8917749023
 20
6.2923076172
 11
3.8527749023
 21
6.2923076172
  0
LINE
  5
276
100
AcDbEntity
  8
DEF_DATUMS
100
AcDbLine
 62
7
  6
CENTER
 10
7.3656054594
 20
6.3778076172
 11
3.4488054594
 21
6.3778076172
  0
LINE
  5
277
100
AcDbEntity
  8
0
100
AcDbLine
 62
7
  6
CONTINUOUS
 10
4.0401302071
 20
5.8331506258
 11
4.0418818062
 21
5.834902225
  0
LINE
  5
278
100
AcDbEntity
  8
AXIS_PART
100
AcDbLine
 62
7
  6
CONTINUOUS
 10
3.8527749023
 20
6.4633076172
 11
3.8917749023
 21
6.4633076172
  0
LINE
  5
279
100
AcDbEntity
  8
AXIS_PART
100
AcDbLine
 62
7
  6
CONTINUOUS
 10
6.9777749023
 20
6.4633076172
 11
7.0167749023
 21
6.4633076172
  0
LINE
  5
27A
100
AcDbEntity
  8
0
100
AcDbLine
 62
7
  6
CONTINUOUS
 10
4.0401302071
 20
6.9224646085
 11
4.0418818062
 21
6.9207130094
  0
LINE
  5
27B
100
AcDbEntity
  8
0
100
AcDbLine
 62
7
  6
CONTINUOUS
 10
4.6142749023
 20
6.9219348639
 11
4.6142749023
 21
6.9207130094
  0
LINE
  5
27C
100
AcDbEntity
  8
0
100
AcDbLine
 62
7
  6
CONTINUOUS
 10
4.6142749023
 20
5.8336803704
 11
4.6142749023
 21
5.834902225
  0
LINE
  5
27D
100
AcDbEntity
  8
0
100
AcDbLine
 62
7
  6
CONTINUOUS
 10
1.5892749023
 20
6.6528076172
 11
1.8942749023
 21
6.6528076172
  0
LINE
  5
27E
100
AcDbEntity
  8
0
100
AcDbLine
 62
7
  6
CONTINUOUS
 10
2.0142749023
 20
6.6703076172
 11
2.2642749023
 21
6.6703076172
  0
LINE
  5
27F
100
AcDbEntity
  8
0
100
AcDbLine
 62
7
  6
CONTINUOUS
 10
1.755893375
 20
6.7078076172
 11
1.5892749023
 21
6.7078076172
  0
LINE
  5
280
100
AcDbEntity
  8
0
100
AcDbLine
 62
7
  6
CONTINUOUS
 10
3.6742749023
 20
6.7308076172
 11
2.2642749023
 21
6.7308076172
  0
LINE
  5
281
100
AcDbEntity
  8
0
100
AcDbLine
 62
7
  6
CONTINUOUS
 10
1.8880734133
 20
6.7478076172
 11
1.8280734133
 21
6.7478076172
  0
LINE
  5
282
100
AcDbEntity
  8
0
100
AcDbLine
 62
7
  6
CONTINUOUS
 10
1.8280734133
 20
6.8078076172
 11
1.8880734133
 21
6.8078076172
  0
LINE
  5
283
100
AcDbEntity
  8
0
100
AcDbLine
 62
7
  6
CONTINUOUS
 10
3.6981356632
 20
6.8248076172
 11
2.2642749023
 21
6.8248076172
  0
LINE
  5
284
100
AcDbEntity
  8
0
100
AcDbLine
 62
7
  6
CONTINUOUS
 10
1.5892749023
 20
6.8478076172
 11
1.755893375
 21
6.8478076172
  0
LINE
  5
285
100
AcDbEntity
  8
0
100
AcDbLine
 62
7
  6
CONTINUOUS
 10
2.0142749023
 20
6.8853076172
 11
2.2642749023
 21
6.8853076172
  0
LINE
  5
286
100
AcDbEntity
  8
0
100
AcDbLine
 62
7
  6
CONTINUOUS
 10
1.8942749023
 20
6.9028076172
 11
1.5892749023
 21
6.9028076172
  0
LINE
  5
287
100
AcDbEntity
  8
0
100
AcDbLine
 62
7
  6
CONTINUOUS
 10
4.0418818062
 20
6.9207130094
 11
4.6142749023
 21
6.9207130094
  0
LINE
  5
288
100
AcDbEntity
  8
0
100
AcDbLine
 62
7
  6
CONTINUOUS
 10
6.2342749023
 20
6.9207130094
 11
6.8166679984
 21
6.9207130094
  0
LINE
  5
289
100
AcDbEntity
  8
0
100
AcDbLine
 62
7
  6
CONTINUOUS
 10
6.9843038403
 20
6.9228076172
 11
6.8384165515
 21
6.9228076172
  0
LINE
  5
28A
100
AcDbEntity
  8
0
100
AcDbLine
 62
7
  6
CONTINUOUS
 10
6.1842749023
 20
6.9228076172
 11
4.6642749023
 21
6.9228076172
  0
LINE
  5
28B
100
AcDbEntity
  8
0
100
AcDbLine
 62
7
  6
CONTINUOUS
 10
4.0201332532
 20
6.9228076172
 11
3.8642459644
 21
6.9228076172
  0
LINE
  5
28C
100
AcDbEntity
  8
DEF_DATUMS
100
AcDbLine
 62
7
  6
CENTER
 10
5.4242749023
 20
5.7327835068
 11
5.4242749023
 21
7.0228317275
  0
LINE
  5
28D
100
AcDbEntity
  8
0
100
AcDbLine
 62
7
  6
CONTINUOUS
 10
6.8184195976
 20
6.9224646085
 11
6.8166679984
 21
6.9207130094
  0
LINE
  5
28E
100
AcDbEntity
  8
0
100
AcDbLine
 62
7
  6
CONTINUOUS
 10
6.8184195976
 20
5.8331506258
 11
6.8166679984
 21
5.834902225
  0
LINE
  5
28F
100
AcDbEntity
  8
0
100
AcDbLine
 62
7
  6
CONTINUOUS
 10
6.2342749023
 20
6.9219348639
 11
6.2342749023
 21
6.9207130094
  0
LINE
  5
290
100
AcDbEntity
  8
0
100
AcDbLine
 62
7
  6
CONTINUOUS
 10
6.2342749023
 20
5.8336803704
 11
6.2342749023
 21
5.834902225
  0
LINE
  5
291
100
AcDbEntity
  8
0
100
AcDbLine
 62
7
  6
CONTINUOUS
 10
7.1742749023
 20
6.0227786793
 11
7.1742749023
 21
6.7328365551
  0
LINE
  5
292
100
AcDbEntity
  8
0
100
AcDbLine
 62
7
  6
CONTINUOUS
 10
1.5892749023
 20
2.2536201172
 11
1.5892749023
 21
2.2856201172
  0
LINE
  5
293
100
AcDbEntity
  8
0
100
AcDbLine
 62
7
  6
CONTINUOUS
 10
1.8942749023
 20
2.2536201172
 11
1.8942749023
 21
2.2856201172
  0
LINE
  5
294
100
AcDbEntity
  8
0
100
AcDbLine
 62
7
  6
CONTINUOUS
 10
2.0142749023
 20
2.3786201172
 11
2.0142749023
 21
2.2536201172
  0
LINE
  5
295
100
AcDbEntity
  8
0
100
AcDbLine
 62
7
  6
CONTINUOUS
 10
2.2642749023
 20
2.3786201172
 11
2.2642749023
 21
2.2536201172
  0
LINE
  5
296
100
AcDbEntity
  8
0
100
AcDbLine
 62
7
  6
CONTINUOUS
 10
3.6900080085
 20
3.3104691653
 11
3.6742749023
 21
2.4091201172
  0
LINE
  5
297
100
AcDbEntity
  8
0
100
AcDbLine
 62
7
  6
CONTINUOUS
 10
1.5892749023
 20
2.2536201172
 11
2.2642749023
 21
2.2536201172
  0
LINE
  5
298
100
AcDbEntity
  8
0
100
AcDbLine
 62
7
  6
CONTINUOUS
 10
2.2642749023
 20
2.2621201172
 11
6.4142749023
 21
2.2621201172
  0
LINE
  5
299
100
AcDbEntity
  8
0
100
AcDbLine
 62
7
  6
CONTINUOUS
 10
1.5892749023
 20
2.2856201172
 11
2.0142749023
 21
2.2856201172
  0
LINE
  5
29A
100
AcDbEntity
  8
0
100
AcDbLine
 62
7
  6
CONTINUOUS
 10
2.2642749023
 20
2.3561201172
 11
6.4142749023
 21
2.3561201172
  0
LINE
  5
29B
100
AcDbEntity
  8
0
100
AcDbLine
 62
7
  6
CONTINUOUS
 10
2.0142749023
 20
2.3786201172
 11
2.2642749023
 21
2.3786201172
  0
LINE
  5
29C
100
AcDbEntity
  8
0
100
AcDbLine
 62
7
  6
CONTINUOUS
 10
3.6742749023
 20
2.4091201172
 11
4.0201332532
 21
2.4091201172
  0
LINE
  5
29D
100
AcDbEntity
  8
0
100
AcDbLine
 62
7
  6
CONTINUOUS
 10
4.6642749023
 20
2.4091201172
 11
6.1842749023
 21
2.4091201172
  0
LINE
  5
29E
100
AcDbEntity
  8
0
100
AcDbLine
 62
7
  6
CONTINUOUS
 10
6.8384165515
 20
2.4091201172
 11
7.1742749023
 21
2.4091201172
  0
LINE
  5
29F
100
AcDbEntity
  8
0
100
AcDbLine
 62
7
  6
CONTINUOUS
 10
4.0401302071
 20
2.4287710691
 11
4.0418818062
 21
2.5291201172
  0
LINE
  5
2A0
100
AcDbEntity
  8
0
100
AcDbLine
 62
7
  6
CONTINUOUS
 10
4.0418818062
 20
2.5291201172
 11
4.6142749023
 21
2.5291201172
  0
LINE
  5
2A1
100
AcDbEntity
  8
0
100
AcDbLine
 62
7
  6
CONTINUOUS
 10
6.2342749023
 20
2.5291201172
 11
6.8166679984
 21
2.5291201172
  0
LINE
  5
2A2
100
AcDbEntity
  8
0
100
AcDbLine
 62
7
  6
CONTINUOUS
 10
4.6142749023
 20
2.4591201172
 11
4.6142749023
 21
2.5291201172
  0
LINE
  5
2A3
100
AcDbEntity
  8
AXIS_PART
100
AcDbLine
 62
7
  6
CONTINUOUS
 10
3.8527749023
 20
3.3301201172
 11
3.8799790706
 21
3.3301201172
  0
LINE
  5
2A4
100
AcDbEntity
  8
0
100
AcDbLine
 62
7
  6
CONTINUOUS
 10
3.7100049624
 20
3.3301201172
 11
7.1385448423
 21
3.3301201172
  0
LINE
  5
2A5
100
AcDbEntity
  8
AXIS_PART
100
AcDbLine
 62
7
  6
CONTINUOUS
 10
6.9777749023
 20
3.3301201172
 11
7.0167749023
 21
3.3301201172
  0
LINE
  5
2A6
100
AcDbEntity
  8
DEF_DATUMS
100
AcDbLine
 62
7
  6
CENTER
 10
5.4242749023
 20
2.1536201172
 11
5.4242749023
 21
3.4301201172
  0
LINE
  5
2A7
100
AcDbEntity
  8
0
100
AcDbLine
 62
7
  6
CONTINUOUS
 10
6.2342749023
 20
2.4591201172
 11
6.2342749023
 21
2.5291201172
  0
LINE
  5
2A8
100
AcDbEntity
  8
0
100
AcDbLine
 62
7
  6
CONTINUOUS
 10
6.4672749023
 20
2.4091201172
 11
6.4672749023
 21
2.5291201172
  0
LINE
  5
2A9
100
AcDbEntity
  8
0
100
AcDbLine
 62
7
  6
CONTINUOUS
 10
6.5612749023
 20
2.4091201172
 11
6.5612749023
 21
2.5291201172
  0
LINE
  5
2AA
100
AcDbEntity
  8
0
100
AcDbLine
 62
7
  6
CONTINUOUS
 10
6.8184195976
 20
2.4287710691
 11
6.8166679984
 21
2.5291201172
  0
LINE
  5
2AB
100
AcDbEntity
  8
0
100
AcDbLine
 62
7
  6
CONTINUOUS
 10
7.1585417962
 20
3.3104691653
 11
7.1742749023
 21
2.4091201172
  0
LINE
  5
2AC
100
AcDbEntity
  8
0
100
AcDbLine
 62
7
  6
CONTINUOUS
 10
9.6092163086
 20
2.2536201172
 11
9.6092163086
 21
2.2856201172
  0
LINE
  5
2AD
100
AcDbEntity
  8
0
100
AcDbLine
 62
7
  6
CONTINUOUS
 10
9.6049494148
 20
3.3104691653
 11
9.5892163086
 21
2.4091201172
  0
LINE
  5
2AE
100
AcDbEntity
  8
0
100
AcDbLine
 62
7
  6
CONTINUOUS
 10
9.6092163086
 20
2.2536201172
 11
9.8592163086
 21
2.2536201172
  0
LINE
  5
2AF
100
AcDbEntity
  8
0
100
AcDbLine
 62
7
  6
CONTINUOUS
 10
10.4092163086
 20
2.2536201172
 11
10.6592163086
 21
2.2536201172
  0
LINE
  5
2B0
100
AcDbEntity
  8
0
100
AcDbLine
 62
7
  6
CONTINUOUS
 10
9.6892163086
 20
2.2761201172
 11
9.7008393633
 21
2.2761201172
  0
LINE
  5
2B1
100
AcDbEntity
  8
0
100
AcDbLine
 62
7
  6
CONTINUOUS
 10
9.7676114744
 20
2.2761201172
 11
9.7792163086
 21
2.2761201172
  0
LINE
  5
2B2
100
AcDbEntity
  8
0
100
AcDbLine
 62
7
  6
CONTINUOUS
 10
10.4892163086
 20
2.2761201172
 11
10.5008211428
 21
2.2761201172
  0
LINE
  5
2B3
100
AcDbEntity
  8
0
100
AcDbLine
 62
7
  6
CONTINUOUS
 10
10.5675932539
 20
2.2761201172
 11
10.5792163086
 21
2.2761201172
  0
LINE
  5
2B4
100
AcDbEntity
  8
0
100
AcDbLine
 62
7
  6
CONTINUOUS
 10
9.6092163086
 20
2.2856201172
 11
9.6346880371
 21
2.2856201172
  0
LINE
  5
2B5
100
AcDbEntity
  8
0
100
AcDbLine
 62
7
  6
CONTINUOUS
 10
9.6633497021
 20
2.2856201172
 11
9.6935131146
 21
2.2856201172
  0
LINE
  5
2B6
100
AcDbEntity
  8
0
100
AcDbLine
 62
7
  6
CONTINUOUS
 10
9.7749195026
 20
2.2856201172
 11
9.8050829151
 21
2.2856201172
  0
LINE
  5
2B7
100
AcDbEntity
  8
0
100
AcDbLine
 62
7
  6
CONTINUOUS
 10
9.8337445801
 20
2.2856201172
 11
9.8592163086
 21
2.2856201172
  0
LINE
  5
2B8
100
AcDbEntity
  8
0
100
AcDbLine
 62
7
  6
CONTINUOUS
 10
10.4092163086
 20
2.2856201172
 11
10.4346880371
 21
2.2856201172
  0
LINE
  5
2B9
100
AcDbEntity
  8
0
100
AcDbLine
 62
7
  6
CONTINUOUS
 10
10.4633497021
 20
2.2856201172
 11
10.4935131146
 21
2.2856201172
  0
LINE
  5
2BA
100
AcDbEntity
  8
0
100
AcDbLine
 62
7
  6
CONTINUOUS
 10
10.5749195026
 20
2.2856201172
 11
10.6050829151
 21
2.2856201172
  0
LINE
  5
2BB
100
AcDbEntity
  8
0
100
AcDbLine
 62
7
  6
CONTINUOUS
 10
10.6337445801
 20
2.2856201172
 11
10.6592163086
 21
2.2856201172
  0
LINE
  5
2BC
100
AcDbEntity
  8
0
100
AcDbLine
 62
7
  6
CONTINUOUS
 10
9.6872163086
 20
2.3091201172
 11
9.6872163086
 21
2.4091201172
  0
LINE
  5
2BD
100
AcDbEntity
  8
0
100
AcDbLine
 62
7
  6
CONTINUOUS
 10
9.6892163086
 20
2.2856201172
 11
9.6892163086
 21
2.2761201172
  0
LINE
  5
2BE
100
AcDbEntity
  8
0
100
AcDbLine
 62
7
  6
CONTINUOUS
 10
9.7792163086
 20
2.2856201172
 11
9.7792163086
 21
2.2761201172
  0
LINE
  5
2BF
100
AcDbEntity
  8
0
100
AcDbLine
 62
7
  6
CONTINUOUS
 10
9.7812163086
 20
2.3091201172
 11
9.7812163086
 21
2.4091201172
  0
LINE
  5
2C0
100
AcDbEntity
  8
0
100
AcDbLine
 62
7
  6
CONTINUOUS
 10
9.5892163086
 20
2.4091201172
 11
10.6792163086
 21
2.4091201172
  0
LINE
  5
2C1
100
AcDbEntity
  8
0
100
AcDbLine
 62
7
  6
CONTINUOUS
 10
9.8592163086
 20
2.2536201172
 11
9.8592163086
 21
2.2856201172
  0
LINE
  5
2C2
100
AcDbEntity
  8
DEF_DATUMS
100
AcDbLine
 62
7
  6
CENTER
 10
10.1342163086
 20
2.1536201172
 11
10.1342163086
 21
3.4301201172
  0
LINE
  5
2C3
100
AcDbEntity
  8
0
100
AcDbLine
 62
7
  6
CONTINUOUS
 10
10.4092163086
 20
2.2536201172
 11
10.4092163086
 21
2.2856201172
  0
LINE
  5
2C4
100
AcDbEntity
  8
0
100
AcDbLine
 62
7
  6
CONTINUOUS
 10
10.4872163086
 20
2.3091201172
 11
10.4872163086
 21
2.4091201172
  0
LINE
  5
2C5
100
AcDbEntity
  8
0
100
AcDbLine
 62
7
  6
CONTINUOUS
 10
10.4892163086
 20
2.2856201172
 11
10.4892163086
 21
2.2761201172
  0
LINE
  5
2C6
100
AcDbEntity
  8
0
100
AcDbLine
 62
7
  6
CONTINUOUS
 10
10.5792163086
 20
2.2856201172
 11
10.5792163086
 21
2.2761201172
  0
LINE
  5
2C7
100
AcDbEntity
  8
0
100
AcDbLine
 62
7
  6
CONTINUOUS
 10
10.5812163086
 20
2.3091201172
 11
10.5812163086
 21
2.4091201172
  0
LINE
  5
2C8
100
AcDbEntity
  8
0
100
AcDbLine
 62
7
  6
CONTINUOUS
 10
10.6634832024
 20
3.3104691653
 11
10.6792163086
 21
2.4091201172
  0
LINE
  5
2C9
100
AcDbEntity
  8
0
100
AcDbLine
 62
7
  6
CONTINUOUS
 10
10.6592163086
 20
2.2536201172
 11
10.6592163086
 21
2.2856201172
  0
LINE
  5
2CA
100
AcDbEntity
  8
0
100
AcDbLine
 62
7
  6
CONTINUOUS
 10
9.6249463687
 20
3.3301201172
 11
10.6434862485
 21
3.3301201172
  0
LINE
  5
2CB
100
AcDbEntity
  8
0
100
AcDbLine
 62
7
  6
CONTINUOUS
 10
10.5653780257
 20
8.6827802215
 11
10.555616686
 21
8.7026717405
  0
LINE
  5
2CC
100
AcDbEntity
  8
0
100
AcDbLine
 62
7
  6
CONTINUOUS
 10
10.6125809588
 20
8.8355289689
 11
10.6028196191
 21
8.8554204878
  0
LINE
  5
2CD
100
AcDbEntity
  8
0
100
AcDbLine
 62
7
  6
CONTINUOUS
 10
10.7660467349
 20
8.8355289689
 11
10.7562853951
 21
8.8554204878
  0
LINE
  5
2CE
100
AcDbEntity
  8
0
100
AcDbLine
 62
7
  6
CONTINUOUS
 10
10.8463016289
 20
8.6827802215
 11
10.8365402892
 21
8.7026717405
  0
LINE
  5
2CF
100
AcDbEntity
  8
0
100
AcDbLine
 62
7
  6
CONTINUOUS
 10
10.8228462997
 20
8.8041958925
 11
10.81308496
 21
8.8240874115
  0
LINE
  5
2D0
100
AcDbEntity
  8
0
100
AcDbLine
 62
7
  6
CONTINUOUS
 10
10.8781099594
 20
8.8041958925
 11
10.8683486196
 21
8.8240874115
  0
LINE
  5
2D1
100
AcDbEntity
  8
0
100
AcDbLine
 62
7
  6
CONTINUOUS
 10
10.8097863256
 20
9.5251649956
 11
10.7964726778
 21
9.4820820155
  0
LINE
  5
2D2
100
AcDbEntity
  8
0
100
AcDbLine
 62
7
  6
CONTINUOUS
 10
10.7625833925
 20
9.3724162482
 11
10.7492697447
 21
9.3293332682
  0
LINE
  5
2D3
100
AcDbEntity
  8
0
100
AcDbLine
 62
7
  6
CONTINUOUS
 10
10.6161332668
 20
8.8985034679
 11
10.6028196191
 21
8.8554204878
  0
LINE
  5
2D4
100
AcDbEntity
  8
0
100
AcDbLine
 62
7
  6
CONTINUOUS
 10
10.5689303338
 20
8.7457547205
 11
10.555616686
 21
8.7026717405
  0
LINE
  5
2D5
100
AcDbEntity
  8
0
100
AcDbLine
 62
7
  6
CONTINUOUS
 10
10.7590310845
 20
9.3094417492
 11
10.7492697447
 21
9.3293332682
  0
LINE
  5
2D6
100
AcDbEntity
  8
0
100
AcDbLine
 62
7
  6
CONTINUOUS
 10
10.8062340175
 20
9.4621904966
 11
10.7964726778
 21
9.4820820155
  0
LINE
  5
2D7
100
AcDbEntity
  8
0
100
AcDbLine
 62
7
  6
CONTINUOUS
 10
10.9596997936
 20
9.4621904966
 11
10.9499384539
 21
9.4820820155
  0
LINE
  5
2D8
100
AcDbEntity
  8
0
100
AcDbLine
 62
7
  6
CONTINUOUS
 10
11.0399546876
 20
9.3094417492
 11
11.0301933479
 21
9.3293332682
  0
LINE
  5
2D9
100
AcDbEntity
  8
0
100
AcDbLine
 62
7
  6
CONTINUOUS
 10
11.1535030486
 20
9.5203085699
 11
11.1317170794
 21
9.449809148
  0
LINE
  5
2DA
100
AcDbEntity
  8
0
100
AcDbLine
 62
7
  6
CONTINUOUS
 10
10.9598499898
 20
8.8936470422
 11
10.9380640207
 21
8.8231476203
  0
LINE
  5
2DB
100
AcDbEntity
  8
0
100
AcDbLine
 62
7
  6
CONTINUOUS
 10
11.0164993584
 20
9.4308574202
 11
11.0067380187
 21
9.4507489392
  0
LINE
  5
2DC
100
AcDbEntity
  8
0
100
AcDbLine
 62
7
  6
CONTINUOUS
 10
11.0717630181
 20
9.4308574202
 11
11.0620016784
 21
9.4507489392
  0
LINE
  5
2DD
100
AcDbEntity
  8
0
100
AcDbLine
 62
7
  6
CONTINUOUS
 10
11.3837682971
 20
9.5203085699
 11
11.3619823279
 21
9.449809148
  0
LINE
  5
2DE
100
AcDbEntity
  8
0
100
AcDbLine
 62
7
  6
CONTINUOUS
 10
11.1901152383
 20
8.8936470422
 11
11.1683292692
 21
8.8231476203
  0
LINE
  5
2DF
100
AcDbEntity
  8
0
100
AcDbLine
 62
7
  6
CONTINUOUS
 10
11.3906317391
 20
9.5063223456
 11
11.3688457699
 21
9.4358229237
  0
LINE
  5
2E0
100
AcDbEntity
  8
0
100
AcDbLine
 62
7
  6
CONTINUOUS
 10
11.1969786803
 20
8.8796608179
 11
11.1751927112
 21
8.809161396
  0
LINE
  5
2E1
100
AcDbEntity
  8
0
100
AcDbLine
 62
7
  6
CONTINUOUS
 10
11.1995960606
 20
8.7594325985
 11
11.2023039829
 21
8.7681954384
  0
LINE
  5
2E2
100
AcDbEntity
  8
0
100
AcDbLine
 62
7
  6
CONTINUOUS
 10
11.3932491193
 20
9.3860941262
 11
11.3959570416
 21
9.3948569661
  0
LINE
  5
2E3
100
AcDbEntity
  8
0
100
AcDbLine
 62
7
  6
CONTINUOUS
 10
11.2064595026
 20
8.7454463742
 11
11.2134894951
 21
8.7681954384
  0
LINE
  5
2E4
100
AcDbEntity
  8
0
100
AcDbLine
 62
7
  6
CONTINUOUS
 10
11.4001125613
 20
9.372107902
 11
11.4071425538
 21
9.3948569661
  0
LINE
  5
2E5
100
AcDbEntity
  8
0
100
AcDbLine
 62
7
  6
CONTINUOUS
 10
10.9500859182
 20
8.8620504947
 11
10.89705687
 21
8.8985034679
  0
LINE
  5
2E6
100
AcDbEntity
  8
0
100
AcDbLine
 62
7
  6
CONTINUOUS
 10
11.1437389769
 20
9.4887120224
 11
11.0907099287
 21
9.5251649956
  0
LWPOLYLINE
  5
2E7
100
AcDbEntity
  8
0
100
AcDbPolyline
 62
7
  6
CONTINUOUS
 90
11
 70
0
 10
12.2222671249
 20
9.4908824792
 10
12.2208321244
 20
9.4859341108
 10
12.2184965508
 20
9.4759028108
 10
12.2169343855
 20
9.4659057709
 10
12.2161536974
 20
9.4559887896
 10
12.2161581188
 20
9.4461963298
 10
12.2169440128
 20
9.4365718662
 10
12.2185065049
 20
9.4271544962
 10
12.220836109
 20
9.4179885401
 10
12.2239130474
 20
9.409126822
 10
12.2258504823
 20
9.4045440059
  0
LINE
  5
2E8
100
AcDbEntity
  8
0
100
AcDbLine
 62
7
  6
CONTINUOUS
 10
12.3865315282
 20
10.0224422833
 11
12.2222673391
 21
9.4908831725
  0
LINE
  5
2E9
100
AcDbEntity
  8
0
100
AcDbLine
 62
7
  6
CONTINUOUS
 10
12.3995391078
 20
10.0289695352
 11
12.2352749187
 21
9.4974104245
  0
LWPOLYLINE
  5
2EA
100
AcDbEntity
  8
0
100
AcDbPolyline
 62
7
  6
CONTINUOUS
 90
3
 70
0
 10
12.3923127913
 20
10.0380932669
 10
12.3883546534
 20
10.0279623478
 10
12.3865310462
 20
10.022440723
  0
LINE
  5
2EB
100
AcDbEntity
  8
0
100
AcDbLine
 62
7
  6
CONTINUOUS
 10
12.2257789082
 20
9.4047030231
 11
12.4824664504
 21
8.8320066305
  0
LINE
  5
2EC
100
AcDbEntity
  8
0
100
AcDbLine
 62
7
  6
CONTINUOUS
 10
11.0301933479
 20
9.3293332682
 11
11.1302064706
 21
9.3775841802
  0
LINE
  5
2ED
100
AcDbEntity
  8
0
100
AcDbLine
 62
7
  6
CONTINUOUS
 10
11.0399546876
 20
9.3094417492
 11
11.1385190144
 21
9.3569936957
  0
LINE
  5
2EE
100
AcDbEntity
  8
0
100
AcDbLine
 62
7
  6
CONTINUOUS
 10
10.5653780257
 20
8.6827802215
 11
10.8463016289
 21
8.6827802215
  0
LINE
  5
2EF
100
AcDbEntity
  8
0
100
AcDbLine
 62
7
  6
CONTINUOUS
 10
10.555616686
 20
8.7026717405
 11
10.8365402892
 21
8.7026717405
  0
LINE
  5
2F0
100
AcDbEntity
  8
0
100
AcDbLine
 62
7
  6
CONTINUOUS
 10
12.3518402062
 20
9.336385752
 11
12.6084897968
 21
8.7637740334
  0
LINE
  5
2F1
100
AcDbEntity
  8
0
100
AcDbLine
 62
7
  6
CONTINUOUS
 10
10.9571291374
 20
8.7217969973
 11
11.1873943859
 21
8.7217969973
  0
LINE
  5
2F2
100
AcDbEntity
  8
0
100
AcDbLine
 62
7
  6
CONTINUOUS
 10
10.7223961099
 20
8.7457547205
 11
10.5689303338
 21
8.7457547205
  0
LINE
  5
2F3
100
AcDbEntity
  8
0
100
AcDbLine
 62
7
  6
CONTINUOUS
 10
11.1995960606
 20
8.7594325985
 11
11.175201871
 21
8.7594325985
  0
LINE
  5
2F4
100
AcDbEntity
  8
0
100
AcDbLine
 62
7
  6
CONTINUOUS
 10
12.6084897968
 20
8.7637740334
 11
12.7520714979
 21
8.7637740334
  0
LINE
  5
2F5
100
AcDbEntity
  8
0
100
AcDbLine
 62
7
  6
CONTINUOUS
 10
13.3453652456
 20
8.7637740334
 11
14.7453779564
 21
8.7637740334
  0
LINE
  5
2F6
100
AcDbEntity
  8
0
100
AcDbLine
 62
7
  6
CONTINUOUS
 10
15.347882314
 20
8.7637740334
 11
15.4822534052
 21
8.7637740334
  0
LINE
  5
2F7
100
AcDbEntity
  8
0
100
AcDbLine
 62
7
  6
CONTINUOUS
 10
11.1731459694
 20
8.7681954384
 11
12.5678923511
 21
8.7681954384
  0
LINE
  5
2F8
100
AcDbEntity
  8
0
100
AcDbLine
 62
7
  6
CONTINUOUS
 10
12.7638920334
 20
8.7681954384
 11
13.3198875428
 21
8.7681954384
  0
LINE
  5
2F9
100
AcDbEntity
  8
0
100
AcDbLine
 62
7
  6
CONTINUOUS
 10
14.7666684482
 20
8.7681954384
 11
15.0228257886
 21
8.7681954384
  0
LINE
  5
2FA
100
AcDbEntity
  8
0
100
AcDbLine
 62
7
  6
CONTINUOUS
 10
10.8538246402
 20
8.7770877969
 11
10.7985609806
 21
8.7770877969
  0
LINE
  5
2FB
100
AcDbEntity
  8
0
100
AcDbLine
 62
7
  6
CONTINUOUS
 10
10.8228462997
 20
8.8041958925
 11
10.8781099594
 21
8.8041958925
  0
LINE
  5
2FC
100
AcDbEntity
  8
0
100
AcDbLine
 62
7
  6
CONTINUOUS
 10
10.9380640207
 20
8.8231476203
 11
11.1683292692
 21
8.8231476203
  0
LINE
  5
2FD
100
AcDbEntity
  8
0
100
AcDbLine
 62
7
  6
CONTINUOUS
 10
10.81308496
 20
8.8240874115
 11
10.8683486196
 21
8.8240874115
  0
LINE
  5
2FE
100
AcDbEntity
  8
0
100
AcDbLine
 62
7
  6
CONTINUOUS
 10
10.6125809588
 20
8.8355289689
 11
10.7660467349
 21
8.8355289689
  0
LINE
  5
2FF
100
AcDbEntity
  8
0
100
AcDbLine
 62
7
  6
CONTINUOUS
 10
12.7360052518
 20
8.8400079922
 11
13.2632142059
 21
8.8400079922
  0
LINE
  5
300
100
AcDbEntity
  8
0
100
AcDbLine
 62
7
  6
CONTINUOUS
 10
14.7553330162
 20
8.8400079922
 11
15.2917525801
 21
8.8400079922
  0
LINE
  5
301
100
AcDbEntity
  8
0
100
AcDbLine
 62
7
  6
CONTINUOUS
 10
10.6028196191
 20
8.8554204878
 11
10.7562853951
 21
8.8554204878
  0
LINE
  5
302
100
AcDbEntity
  8
0
100
AcDbLine
 62
7
  6
CONTINUOUS
 10
11.1915814699
 20
8.8621954384
 11
12.4689355621
 21
8.8621954384
  0
LINE
  5
303
100
AcDbEntity
  8
0
100
AcDbLine
 62
7
  6
CONTINUOUS
 10
10.9598499898
 20
8.8936470422
 11
11.1901152383
 21
8.8936470422
  0
LINE
  5
304
100
AcDbEntity
  8
0
100
AcDbLine
 62
7
  6
CONTINUOUS
 10
12.76457858
 20
8.7762579488
 11
12.7360052518
 21
8.8400079922
  0
LINE
  5
305
100
AcDbEntity
  8
0
100
AcDbLine
 62
7
  6
CONTINUOUS
 10
10.8365402892
 20
8.7026717405
 11
10.9365534119
 21
8.7509226525
  0
LINE
  5
306
100
AcDbEntity
  8
0
100
AcDbLine
 62
7
  6
CONTINUOUS
 10
10.8463016289
 20
8.6827802215
 11
10.9448659557
 21
8.730332168
  0
LINE
  5
307
100
AcDbEntity
  8
0
100
AcDbLine
 62
7
  6
CONTINUOUS
 10
10.89705687
 20
8.8985034679
 11
10.6161332668
 21
8.8985034679
  0
LINE
  5
308
100
AcDbEntity
  8
0
100
AcDbLine
 62
7
  6
CONTINUOUS
 10
10.9789151065
 20
8.9172964191
 11
11.209180355
 21
8.9172964191
  0
LINE
  5
309
100
AcDbEntity
  8
AXIS_PART
100
AcDbLine
 62
7
  6
CONTINUOUS
 10
12.5257495056
 20
9.7157509143
 11
12.4696035067
 21
9.8301644307
  0
LINE
  5
30A
100
AcDbEntity
  8
AXIS_PART
100
AcDbLine
 62
7
  6
CONTINUOUS
 10
12.550437036
 20
9.7386430904
 11
12.5055248854
 21
9.8301644307
  0
LINE
  5
30B
100
AcDbEntity
  8
0
100
AcDbLine
 62
7
  6
CONTINUOUS
 10
12.76457858
 20
8.7762579488
 11
12.7842788334
 21
8.8400079922
  0
LINE
  5
30C
100
AcDbEntity
  8
0
100
AcDbLine
 62
7
  6
CONTINUOUS
 10
12.7651234453
 20
8.7704448597
 11
12.7866200791
 21
8.8400079922
  0
LINE
  5
30D
100
AcDbEntity
  8
0
100
AcDbLine
 62
7
  6
CONTINUOUS
 10
13.2842713667
 20
8.7955381829
 11
13.2632142059
 21
8.8400079922
  0
LINE
  5
30E
100
AcDbEntity
  8
0
100
AcDbLine
 62
7
  6
CONTINUOUS
 10
10.7590310845
 20
9.3094417492
 11
11.0399546876
 21
9.3094417492
  0
LINE
  5
30F
100
AcDbEntity
  8
0
100
AcDbLine
 62
7
  6
CONTINUOUS
 10
10.7492697447
 20
9.3293332682
 11
11.0301933479
 21
9.3293332682
  0
LINE
  5
310
100
AcDbEntity
  8
0
100
AcDbLine
 62
7
  6
CONTINUOUS
 10
12.3518402062
 20
9.336385752
 11
15.1966215139
 21
9.336385752
  0
LINE
  5
311
100
AcDbEntity
  8
0
100
AcDbLine
 62
7
  6
CONTINUOUS
 10
11.1507821961
 20
9.348458525
 11
11.3810474446
 21
9.348458525
  0
LINE
  5
312
100
AcDbEntity
  8
0
100
AcDbLine
 62
7
  6
CONTINUOUS
 10
12.3506864323
 20
9.3642651317
 11
15.1954677399
 21
9.3642651317
  0
LINE
  5
313
100
AcDbEntity
  8
0
100
AcDbLine
 62
7
  6
CONTINUOUS
 10
10.9160491686
 20
9.3724162482
 11
10.7625833925
 21
9.3724162482
  0
LINE
  5
314
100
AcDbEntity
  8
0
100
AcDbLine
 62
7
  6
CONTINUOUS
 10
11.3932491193
 20
9.3860941262
 11
11.3688549297
 21
9.3860941262
  0
LINE
  5
315
100
AcDbEntity
  8
0
100
AcDbLine
 62
7
  6
CONTINUOUS
 10
12.2301919972
 20
9.3948569661
 11
11.3667990281
 21
9.3948569661
  0
LINE
  5
316
100
AcDbEntity
  8
0
100
AcDbLine
 62
7
  6
CONTINUOUS
 10
11.047477699
 20
9.4037493246
 11
10.9922140393
 21
9.4037493246
  0
LINE
  5
317
100
AcDbEntity
  8
0
100
AcDbLine
 62
7
  6
CONTINUOUS
 10
11.0164993584
 20
9.4308574202
 11
11.0717630181
 21
9.4308574202
  0
LINE
  5
318
100
AcDbEntity
  8
0
100
AcDbLine
 62
7
  6
CONTINUOUS
 10
11.1317170794
 20
9.449809148
 11
11.3619823279
 21
9.449809148
  0
LINE
  5
319
100
AcDbEntity
  8
0
100
AcDbLine
 62
7
  6
CONTINUOUS
 10
11.0067380187
 20
9.4507489392
 11
11.0620016784
 21
9.4507489392
  0
LINE
  5
31A
100
AcDbEntity
  8
0
100
AcDbLine
 62
7
  6
CONTINUOUS
 10
10.8062340175
 20
9.4621904966
 11
10.9596997936
 21
9.4621904966
  0
LINE
  5
31B
100
AcDbEntity
  8
0
100
AcDbLine
 62
7
  6
CONTINUOUS
 10
10.7964726778
 20
9.4820820155
 11
10.9499384539
 21
9.4820820155
  0
LINE
  5
31C
100
AcDbEntity
  8
0
100
AcDbLine
 62
7
  6
CONTINUOUS
 10
12.2216797369
 20
9.4888569661
 11
11.3852345286
 21
9.4888569661
  0
LINE
  5
31D
100
AcDbEntity
  8
0
100
AcDbLine
 62
7
  6
CONTINUOUS
 10
11.1535030486
 20
9.5203085699
 11
11.3837682971
 21
9.5203085699
  0
LINE
  5
31E
100
AcDbEntity
  8
0
100
AcDbLine
 62
7
  6
CONTINUOUS
 10
11.0907099287
 20
9.5251649956
 11
10.8097863256
 21
9.5251649956
  0
LINE
  5
31F
100
AcDbEntity
  8
0
100
AcDbLine
 62
7
  6
CONTINUOUS
 10
11.1725681652
 20
9.5439579468
 11
11.4028334137
 21
9.5439579468
  0
LINE
  5
320
100
AcDbEntity
  8
AXIS_PART
100
AcDbLine
 62
7
  6
CONTINUOUS
 10
15.3424471504
 20
9.6962155291
 11
15.3065257716
 21
9.6962155291
  0
LINE
  5
321
100
AcDbEntity
  8
AXIS_PART
100
AcDbLine
 62
7
  6
CONTINUOUS
 10
12.4641315441
 20
9.6962155291
 11
12.4282101654
 21
9.6962155291
  0
LINE
  5
322
100
AcDbEntity
  8
AXIS_PART
100
AcDbLine
 62
7
  6
CONTINUOUS
 10
12.4696035067
 20
9.8301644307
 11
12.5055248854
 21
9.8301644307
  0
LINE
  5
323
100
AcDbEntity
  8
AXIS_PART
100
AcDbLine
 62
7
  6
CONTINUOUS
 10
15.3479191129
 20
9.8301644307
 11
15.3838404917
 21
9.8301644307
  0
LINE
  5
324
100
AcDbEntity
  8
0
100
AcDbLine
 62
7
  6
CONTINUOUS
 10
12.6033428971
 20
10.1696826284
 11
12.597328046
 21
10.1695942191
  0
LINE
  5
325
100
AcDbEntity
  8
0
100
AcDbLine
 62
7
  6
CONTINUOUS
 10
15.4420219439
 20
10.1621148281
 11
12.5972406362
 21
10.1621148281
  0
LINE
  5
326
100
AcDbEntity
  8
0
100
AcDbLine
 62
7
  6
CONTINUOUS
 10
15.4481227812
 20
10.1696826287
 11
12.6033414733
 21
10.1696826287
  0
LWPOLYLINE
  5
327
100
AcDbEntity
  8
0
100
AcDbPolyline
 62
7
  6
CONTINUOUS
 90
22
 70
0
 10
12.597328046
 20
10.1695942191
 10
12.5854255545
 20
10.1689117688
 10
12.573411541
 20
10.1675592271
 10
12.5613394021
 20
10.1655404235
 10
12.5492627432
 20
10.1628632971
 10
12.53723662
 20
10.1595410476
 10
12.5253067806
 20
10.1555847567
 10
12.5135244602
 20
10.1510106909
 10
12.5019536924
 20
10.145843118
 10
12.4906438889
 20
10.1401017368
 10
12.4796430532
 20
10.1338108994
 10
12.4690118599
 20
10.127005035
 10
12.45879552
 20
10.1197117171
 10
12.4490357983
 20
10.1119614758
 10
12.4397853887
 20
10.1037952431
 10
12.4310833894
 20
10.0952467095
 10
12.4229639705
 20
10.0863512856
 10
12.4154687747
 20
10.0771532673
 10
12.4086298842
 20
10.067690364
 10
12.4024724754
 20
10.0579986779
 10
12.3970252276
 20
10.0481195127
 10
12.3923127913
 20
10.0380932669
  0
LINE
  5
328
100
AcDbEntity
  8
0
100
AcDbLine
 62
7
  6
CONTINUOUS
 10
14.776390177
 20
8.7955381829
 11
14.7553330162
 21
8.8400079922
  0
LINE
  5
329
100
AcDbEntity
  8
0
100
AcDbLine
 62
7
  6
CONTINUOUS
 10
14.7901323874
 20
8.8400079922
 11
14.776390177
 21
8.7955381829
  0
LINE
  5
32A
100
AcDbEntity
  8
0
100
AcDbLine
 62
7
  6
CONTINUOUS
 10
14.795417055
 20
8.8367873882
 11
14.7780078249
 21
8.7804510991
  0
LINE
  5
32B
100
AcDbEntity
  8
0
100
AcDbLine
 62
7
  6
CONTINUOUS
 10
15.3235525676
 20
8.7762579488
 11
15.2917525801
 21
8.8400079922
  0
LINE
  5
32C
100
AcDbEntity
  8
0
100
AcDbLine
 62
7
  6
CONTINUOUS
 10
15.1966215139
 20
9.336385752
 11
15.4822534052
 21
8.7637740334
  0
LINE
  5
32D
100
AcDbEntity
  8
0
100
AcDbLine
 62
7
  6
CONTINUOUS
 10
15.4175820457
 20
9.485195197
 11
15.7032139371
 21
8.9125834783
  0
LINE
  5
32E
100
AcDbEntity
  8
0
100
AcDbLine
 62
7
  6
CONTINUOUS
 10
15.3931692684
 20
9.4974104245
 11
15.5574334575
 21
10.0289695352
  0
LINE
  5
32F
100
AcDbEntity
  8
0
100
AcDbLine
 62
7
  6
CONTINUOUS
 10
15.4175820457
 20
9.485195197
 11
15.5818462348
 21
10.0167543077
  0
LINE
  5
330
100
AcDbEntity
  8
AXIS_PART
100
AcDbLine
 62
7
  6
CONTINUOUS
 10
15.4040651118
 20
9.7157509143
 11
15.3479191129
 21
9.8301644307
  0
LINE
  5
331
100
AcDbEntity
  8
AXIS_PART
100
AcDbLine
 62
7
  6
CONTINUOUS
 10
15.4287526422
 20
9.7386430904
 11
15.3838404917
 21
9.8301644307
  0
LWPOLYLINE
  5
332
100
AcDbEntity
  8
0
100
AcDbPolyline
 62
7
  6
CONTINUOUS
 90
15
 70
0
 10
15.5758140293
 20
10.1035738949
 10
15.5729138733
 20
10.1086647762
 10
15.5670399511
 20
10.1173858222
 10
15.5603126712
 20
10.1255692185
 10
15.5527681186
 20
10.1331665345
 10
15.5444531246
 20
10.140132436
 10
15.5354138653
 20
10.1464273098
 10
15.5256969513
 20
10.1520198604
 10
15.5153500008
 20
10.1568848389
 10
15.5044247226
 20
10.1609950727
 10
15.4929711091
 20
10.1643309299
 10
15.4810300349
 20
10.1668775101
 10
15.4686504392
 20
10.1686159424
 10
15.4558992426
 20
10.1695322737
 10
15.4481217247
 20
10.1696826285
  0
LINE
  5
333
100
AcDbEntity
  8
0
100
AcDbLine
 62
7
  6
CONTINUOUS
 10
15.5818462348
 20
10.0167543077
 11
15.8750950365
 21
9.4687909199
  0
LINE
  5
334
100
AcDbEntity
  8
0
100
AcDbLine
 62
7
  6
CONTINUOUS
 10
15.5757841391
 20
10.1036301104
 11
15.8690778374
 21
9.5555828291
  0
LINE
  5
335
100
AcDbEntity
  8
0
100
AcDbLine
 62
7
  6
CONTINUOUS
 10
15.7032139371
 20
8.9125834783
 11
15.8750950365
 21
9.4687909199
  0
LINE
  5
336
100
AcDbEntity
  8
0
100
AcDbLine
 62
7
  6
CONTINUOUS
 10
10.5272774398
 20
7.4600112887
 11
10.5175161001
 21
7.4401197697
  0
LINE
  5
337
100
AcDbEntity
  8
0
100
AcDbLine
 62
7
  6
CONTINUOUS
 10
10.5405910876
 20
7.4169283086
 11
10.5308297478
 21
7.3970367897
  0
LINE
  5
338
100
AcDbEntity
  8
0
100
AcDbLine
 62
7
  6
CONTINUOUS
 10
10.5744803729
 20
7.3072625413
 11
10.5647190331
 21
7.2873710223
  0
LINE
  5
339
100
AcDbEntity
  8
0
100
AcDbLine
 62
7
  6
CONTINUOUS
 10
10.5877940206
 20
7.2641795613
 11
10.5780326809
 21
7.2442880423
  0
LINE
  5
33A
100
AcDbEntity
  8
0
100
AcDbLine
 62
7
  6
CONTINUOUS
 10
10.6940568637
 20
7.4169283086
 11
10.6842955239
 21
7.3970367897
  0
LINE
  5
33B
100
AcDbEntity
  8
0
100
AcDbLine
 62
7
  6
CONTINUOUS
 10
10.7702217344
 20
7.3855952323
 11
10.7604603946
 21
7.3657037133
  0
LINE
  5
33C
100
AcDbEntity
  8
0
100
AcDbLine
 62
7
  6
CONTINUOUS
 10
10.7847457138
 20
7.3385956177
 11
10.7777566728
 21
7.3243534496
  0
LINE
  5
33D
100
AcDbEntity
  8
0
100
AcDbLine
 62
7
  6
CONTINUOUS
 10
10.825485394
 20
7.3855952323
 11
10.8157240543
 21
7.3657037133
  0
LINE
  5
33E
100
AcDbEntity
  8
0
100
AcDbLine
 62
7
  6
CONTINUOUS
 10
10.8687176238
 20
7.2641795613
 11
10.8589562841
 21
7.2442880423
  0
LINE
  5
33F
100
AcDbEntity
  8
0
100
AcDbLine
 62
7
  6
CONTINUOUS
 10
10.9501182975
 20
7.3069541951
 11
10.9598796372
 21
7.326845714
  0
LINE
  5
340
100
AcDbEntity
  8
0
100
AcDbLine
 62
7
  6
CONTINUOUS
 10
10.7209304985
 20
6.833349761
 11
10.7111691588
 21
6.813458242
  0
LINE
  5
341
100
AcDbEntity
  8
0
100
AcDbLine
 62
7
  6
CONTINUOUS
 10
10.7342441463
 20
6.7902667809
 11
10.7244828066
 21
6.770375262
  0
LINE
  5
342
100
AcDbEntity
  8
0
100
AcDbLine
 62
7
  6
CONTINUOUS
 10
10.7716857396
 20
6.6176265146
 11
10.7583720918
 21
6.6607094946
  0
LINE
  5
343
100
AcDbEntity
  8
0
100
AcDbLine
 62
7
  6
CONTINUOUS
 10
10.7244828066
 20
6.770375262
 11
10.7111691588
 21
6.813458242
  0
LINE
  5
344
100
AcDbEntity
  8
0
100
AcDbLine
 62
7
  6
CONTINUOUS
 10
10.5780326809
 20
7.2442880423
 11
10.5647190331
 21
7.2873710223
  0
LINE
  5
345
100
AcDbEntity
  8
0
100
AcDbLine
 62
7
  6
CONTINUOUS
 10
10.5308297478
 20
7.3970367897
 11
10.5175161001
 21
7.4401197697
  0
LINE
  5
346
100
AcDbEntity
  8
0
100
AcDbLine
 62
7
  6
CONTINUOUS
 10
10.7814470794
 20
6.6375180336
 11
10.7681334316
 21
6.6806010136
  0
LINE
  5
347
100
AcDbEntity
  8
0
100
AcDbLine
 62
7
  6
CONTINUOUS
 10
10.7342441463
 20
6.7902667809
 11
10.7209304985
 21
6.833349761
  0
LINE
  5
348
100
AcDbEntity
  8
0
100
AcDbLine
 62
7
  6
CONTINUOUS
 10
10.5877940206
 20
7.2641795613
 11
10.5744803729
 21
7.3072625413
  0
LINE
  5
349
100
AcDbEntity
  8
0
100
AcDbLine
 62
7
  6
CONTINUOUS
 10
10.5405910876
 20
7.4169283086
 11
10.5272774398
 21
7.4600112887
  0
LINE
  5
34A
100
AcDbEntity
  8
0
100
AcDbLine
 62
7
  6
CONTINUOUS
 10
10.7681334316
 20
6.6806010136
 11
10.7583720918
 21
6.6607094946
  0
LINE
  5
34B
100
AcDbEntity
  8
0
100
AcDbLine
 62
7
  6
CONTINUOUS
 10
10.7814470794
 20
6.6375180336
 11
10.7716857396
 21
6.6176265146
  0
LINE
  5
34C
100
AcDbEntity
  8
0
100
AcDbLine
 62
7
  6
CONTINUOUS
 10
10.8877099224
 20
6.7902667809
 11
10.8779485826
 21
6.770375262
  0
LINE
  5
34D
100
AcDbEntity
  8
0
100
AcDbLine
 62
7
  6
CONTINUOUS
 10
10.9638747931
 20
6.7589337046
 11
10.9541134534
 21
6.7390421856
  0
LINE
  5
34E
100
AcDbEntity
  8
0
100
AcDbLine
 62
7
  6
CONTINUOUS
 10
10.9783987725
 20
6.71193409
 11
10.9714097316
 21
6.6976919219
  0
LINE
  5
34F
100
AcDbEntity
  8
0
100
AcDbLine
 62
7
  6
CONTINUOUS
 10
11.0191384527
 20
6.7589337046
 11
11.009377113
 21
6.7390421856
  0
LINE
  5
350
100
AcDbEntity
  8
0
100
AcDbLine
 62
7
  6
CONTINUOUS
 10
11.0623706825
 20
6.6375180336
 11
11.0526093428
 21
6.6176265146
  0
LINE
  5
351
100
AcDbEntity
  8
0
100
AcDbLine
 62
7
  6
CONTINUOUS
 10
11.1154024626
 20
6.6224829403
 11
11.105638391
 21
6.6540794878
  0
LINE
  5
352
100
AcDbEntity
  8
0
100
AcDbLine
 62
7
  6
CONTINUOUS
 10
10.9217494039
 20
7.249144468
 11
10.9119853322
 21
7.2807410155
  0
LINE
  5
353
100
AcDbEntity
  8
0
100
AcDbLine
 62
7
  6
CONTINUOUS
 10
11.1222659046
 20
6.6364691646
 11
11.1148641084
 21
6.6604213861
  0
LINE
  5
354
100
AcDbEntity
  8
0
100
AcDbLine
 62
7
  6
CONTINUOUS
 10
10.9286128459
 20
7.2631306923
 11
10.9212110496
 21
7.2870829138
  0
LINE
  5
355
100
AcDbEntity
  8
0
100
AcDbLine
 62
7
  6
CONTINUOUS
 10
11.1437713562
 20
6.6802926674
 11
11.1535326959
 21
6.7001841863
  0
LINE
  5
356
100
AcDbEntity
  8
0
100
AcDbLine
 62
7
  6
CONTINUOUS
 10
10.9598796372
 20
7.326845714
 11
10.8687176238
 21
7.2641795613
  0
LINE
  5
357
100
AcDbEntity
  8
0
100
AcDbLine
 62
7
  6
CONTINUOUS
 10
10.9501182975
 20
7.3069541951
 11
10.8589562841
 21
7.2442880423
  0
LINE
  5
358
100
AcDbEntity
  8
0
100
AcDbLine
 62
7
  6
CONTINUOUS
 10
11.1683589166
 20
7.3973451359
 11
11.1901448857
 21
7.326845714
  0
LINE
  5
359
100
AcDbEntity
  8
0
100
AcDbLine
 62
7
  6
CONTINUOUS
 10
11.3620119753
 20
6.7706836082
 11
11.3837979444
 21
6.7001841863
  0
LINE
  5
35A
100
AcDbEntity
  8
0
100
AcDbLine
 62
7
  6
CONTINUOUS
 10
11.1535326959
 20
6.7001841863
 11
11.0623706825
 21
6.6375180336
  0
LINE
  5
35B
100
AcDbEntity
  8
0
100
AcDbLine
 62
7
  6
CONTINUOUS
 10
11.1437713562
 20
6.6802926674
 11
11.0526093428
 21
6.6176265146
  0
LINE
  5
35C
100
AcDbEntity
  8
0
100
AcDbLine
 62
7
  6
CONTINUOUS
 10
12.1920914113
 20
6.747934544
 11
12.4308349762
 21
7.2805960717
  0
LWPOLYLINE
  5
35D
100
AcDbEntity
  8
0
100
AcDbPolyline
 62
7
  6
CONTINUOUS
 90
14
 70
0
 10
15.4177986567
 20
5.9732592364
 10
15.4305498533
 20
5.9741755678
 10
15.4429294489
 20
5.975914
 10
15.4548705232
 20
5.9784605802
 10
15.4663241367
 20
5.9817964375
 10
15.4772494149
 20
5.9859066713
 10
15.4875963653
 20
5.9907716498
 10
15.4973132794
 20
5.9963642003
 10
15.5063525386
 20
6.0026590742
 10
15.5146675326
 20
6.0096249756
 10
15.5222120852
 20
6.0172222917
 10
15.5289393652
 20
6.025405688
 10
15.5348132874
 20
6.034126734
 10
15.5377134434
 20
6.0392176152
  0
LWPOLYLINE
  5
35E
100
AcDbEntity
  8
0
100
AcDbPolyline
 62
7
  6
CONTINUOUS
 90
25
 70
0
 10
12.3484304603
 20
6.1203507872
 10
12.3502540675
 20
6.1148291623
 10
12.3542122053
 20
6.1046982433
 10
12.3589246417
 20
6.0946719975
 10
12.3643718895
 20
6.0847928322
 10
12.3705292982
 20
6.0751011462
 10
12.3773681888
 20
6.0656382429
 10
12.3848633845
 20
6.0564402246
 10
12.3929828035
 20
6.0475448007
 10
12.4016848028
 20
6.0389962671
 10
12.4109352124
 20
6.0308300343
 10
12.420694934
 20
6.0230797931
 10
12.430911274
 20
6.0157864752
 10
12.4415424672
 20
6.0089806108
 10
12.4525433029
 20
6.0026897733
 10
12.4638531065
 20
5.9969483922
 10
12.4754238742
 20
5.9917808193
 10
12.4872061946
 20
5.9872067534
 10
12.4991360341
 20
5.9832504626
 10
12.5111621573
 20
5.9799282131
 10
12.5232388162
 20
5.9772510866
 10
12.535310955
 20
5.975232283
 10
12.5473249686
 20
5.9738797414
 10
12.5592274601
 20
5.9731972911
 10
12.5652423112
 20
5.9731088818
  0
LINE
  5
35F
100
AcDbEntity
  8
0
100
AcDbLine
 62
7
  6
CONTINUOUS
 10
12.3484309423
 20
6.1203492269
 11
12.1841667531
 21
6.6519083377
  0
LINE
  5
360
100
AcDbEntity
  8
0
100
AcDbLine
 62
7
  6
CONTINUOUS
 10
12.3490144706
 20
6.1260372025
 11
12.1858818538
 21
6.653934544
  0
LINE
  5
361
100
AcDbEntity
  8
0
100
AcDbLine
 62
7
  6
CONTINUOUS
 10
12.183579151
 20
6.653934544
 11
12.184166539
 21
6.6519090309
  0
LINE
  5
362
100
AcDbEntity
  8
0
100
AcDbLine
 62
7
  6
CONTINUOUS
 10
12.2252406683
 20
6.747934544
 11
12.4413998721
 21
7.2302080318
  0
LINE
  5
363
100
AcDbEntity
  8
0
100
AcDbLine
 62
7
  6
CONTINUOUS
 10
15.4100211387
 20
5.9731088816
 11
15.4177986567
 21
5.9732592364
  0
LINE
  5
364
100
AcDbEntity
  8
0
100
AcDbLine
 62
7
  6
CONTINUOUS
 10
15.4100221953
 20
5.9731088814
 11
12.5652408874
 21
5.9731088814
  0
LINE
  5
365
100
AcDbEntity
  8
0
100
AcDbLine
 62
7
  6
CONTINUOUS
 10
15.4147563101
 20
5.9772277575
 11
12.5699750024
 21
5.9772277575
  0
LINE
  5
366
100
AcDbEntity
  8
0
100
AcDbLine
 62
7
  6
CONTINUOUS
 10
11.0018541017
 20
6.833349761
 11
11.1317467268
 21
6.7706836082
  0
LINE
  5
367
100
AcDbEntity
  8
AXIS_PART
100
AcDbLine
 62
7
  6
CONTINUOUS
 10
12.6710531386
 20
7.0190787618
 11
12.626140988
 21
6.9275574215
  0
LINE
  5
368
100
AcDbEntity
  8
AXIS_PART
100
AcDbLine
 62
7
  6
CONTINUOUS
 10
12.7069745174
 20
7.0190787618
 11
12.6508285184
 21
6.9046652454
  0
LINE
  5
369
100
AcDbEntity
  8
0
100
AcDbLine
 62
7
  6
CONTINUOUS
 10
12.5904336518
 20
6.747934544
 11
12.4413998721
 21
7.2302080318
  0
LINE
  5
36A
100
AcDbEntity
  8
0
100
AcDbLine
 62
7
  6
CONTINUOUS
 10
12.3490144706
 20
6.1260372025
 11
12.6036037121
 21
6.653934544
  0
LINE
  5
36B
100
AcDbEntity
  8
0
100
AcDbLine
 62
7
  6
CONTINUOUS
 10
10.808201043
 20
7.4600112887
 11
10.9380936681
 21
7.3973451359
  0
LINE
  5
36C
100
AcDbEntity
  8
0
100
AcDbLine
 62
7
  6
CONTINUOUS
 10
13.2621213133
 20
7.2805960717
 11
13.2438767365
 21
7.2420660506
  0
LINE
  5
36D
100
AcDbEntity
  8
0
100
AcDbLine
 62
7
  6
CONTINUOUS
 10
12.5699750024
 20
5.9772277575
 11
12.8342415033
 21
6.5251911453
  0
LINE
  5
36E
100
AcDbEntity
  8
0
100
AcDbLine
 62
7
  6
CONTINUOUS
 10
12.9607428904
 20
6.4522387118
 11
13.4879518444
 21
6.4522387118
  0
LINE
  5
36F
100
AcDbEntity
  8
0
100
AcDbLine
 62
7
  6
CONTINUOUS
 10
14.9800706547
 20
6.4522387118
 11
15.5164902187
 21
6.4522387118
  0
LINE
  5
370
100
AcDbEntity
  8
0
100
AcDbLine
 62
7
  6
CONTINUOUS
 10
12.9901642248
 20
6.5129561791
 11
13.4691887279
 21
6.5129561791
  0
LINE
  5
371
100
AcDbEntity
  8
0
100
AcDbLine
 62
7
  6
CONTINUOUS
 10
15.0023868189
 20
6.5129561791
 11
15.4516810666
 21
6.5129561791
  0
LINE
  5
372
100
AcDbEntity
  8
0
100
AcDbLine
 62
7
  6
CONTINUOUS
 10
15.7080051118
 20
6.5251911453
 11
15.5736340206
 21
6.5251911453
  0
LINE
  5
373
100
AcDbEntity
  8
0
100
AcDbLine
 62
7
  6
CONTINUOUS
 10
14.971129663
 20
6.5251911453
 11
13.5711169521
 21
6.5251911453
  0
LINE
  5
374
100
AcDbEntity
  8
0
100
AcDbLine
 62
7
  6
CONTINUOUS
 10
12.9778232045
 20
6.5251911453
 11
12.8342415033
 21
6.5251911453
  0
LINE
  5
375
100
AcDbEntity
  8
0
100
AcDbLine
 62
7
  6
CONTINUOUS
 10
14.9642604422
 20
6.5474199522
 11
13.5642477313
 21
6.5474199522
  0
LINE
  5
376
100
AcDbEntity
  8
0
100
AcDbLine
 62
7
  6
CONTINUOUS
 10
12.713970912
 20
7.3790174768
 11
12.7153372295
 21
7.3745960717
  0
LINE
  5
377
100
AcDbEntity
  8
0
100
AcDbLine
 62
7
  6
CONTINUOUS
 10
12.7443854265
 20
7.2805960717
 11
12.9089902882
 21
6.747934544
  0
LINE
  5
378
100
AcDbEntity
  8
0
100
AcDbLine
 62
7
  6
CONTINUOUS
 10
12.9380384852
 20
6.653934544
 11
12.9778232045
 21
6.5251911453
  0
LINE
  5
379
100
AcDbEntity
  8
0
100
AcDbLine
 62
7
  6
CONTINUOUS
 10
12.7553759326
 20
7.2805960717
 11
12.9199807943
 21
6.747934544
  0
LINE
  5
37A
100
AcDbEntity
  8
0
100
AcDbLine
 62
7
  6
CONTINUOUS
 10
12.9490289914
 20
6.653934544
 11
12.9907864162
 21
6.5188074677
  0
LINE
  5
37B
100
AcDbEntity
  8
0
100
AcDbLine
 62
7
  6
CONTINUOUS
 10
12.9901642248
 20
6.5132446056
 11
12.9607428904
 21
6.4522387118
  0
LINE
  5
37C
100
AcDbEntity
  8
0
100
AcDbLine
 62
7
  6
CONTINUOUS
 10
14.9850829419
 20
6.5663394538
 11
13.5129210448
 21
6.5663394538
  0
LINE
  5
37D
100
AcDbEntity
  8
0
100
AcDbLine
 62
7
  6
CONTINUOUS
 10
11.1344675793
 20
6.5988335633
 11
11.3647328278
 21
6.5988335633
  0
LINE
  5
37E
100
AcDbEntity
  8
0
100
AcDbLine
 62
7
  6
CONTINUOUS
 10
11.0526093428
 20
6.6176265146
 11
10.7716857396
 21
6.6176265146
  0
LINE
  5
37F
100
AcDbEntity
  8
0
100
AcDbLine
 62
7
  6
CONTINUOUS
 10
11.1466600942
 20
6.6364691646
 11
11.1222659046
 21
6.6364691646
  0
LINE
  5
380
100
AcDbEntity
  8
0
100
AcDbLine
 62
7
  6
CONTINUOUS
 10
11.0623706825
 20
6.6375180336
 11
10.7814470794
 21
6.6375180336
  0
LINE
  5
381
100
AcDbEntity
  8
0
100
AcDbLine
 62
7
  6
CONTINUOUS
 10
15.1783782614
 20
6.653934544
 11
11.38889297
 21
6.653934544
  0
LINE
  5
382
100
AcDbEntity
  8
0
100
AcDbLine
 62
7
  6
CONTINUOUS
 10
11.1497676739
 20
6.653934544
 11
11.1257098878
 21
6.653934544
  0
LINE
  5
383
100
AcDbEntity
  8
0
100
AcDbLine
 62
7
  6
CONTINUOUS
 10
10.7681334316
 20
6.6806010136
 11
10.9215992077
 21
6.6806010136
  0
LINE
  5
384
100
AcDbEntity
  8
0
100
AcDbLine
 62
7
  6
CONTINUOUS
 10
11.1535326959
 20
6.7001841863
 11
11.3837979444
 21
6.7001841863
  0
LINE
  5
385
100
AcDbEntity
  8
0
100
AcDbLine
 62
7
  6
CONTINUOUS
 10
10.9783987725
 20
6.71193409
 11
11.0336624322
 21
6.71193409
  0
LINE
  5
386
100
AcDbEntity
  8
0
100
AcDbLine
 62
7
  6
CONTINUOUS
 10
11.009377113
 20
6.7390421856
 11
10.9541134534
 21
6.7390421856
  0
LINE
  5
387
100
AcDbEntity
  8
0
100
AcDbLine
 62
7
  6
CONTINUOUS
 10
15.1783782614
 20
6.747934544
 11
11.3690419679
 21
6.747934544
  0
LINE
  5
388
100
AcDbEntity
  8
0
100
AcDbLine
 62
7
  6
CONTINUOUS
 10
11.0191384527
 20
6.7589337046
 11
10.9638747931
 21
6.7589337046
  0
LINE
  5
389
100
AcDbEntity
  8
0
100
AcDbLine
 62
7
  6
CONTINUOUS
 10
10.8779485826
 20
6.770375262
 11
10.7244828066
 21
6.770375262
  0
LINE
  5
38A
100
AcDbEntity
  8
0
100
AcDbLine
 62
7
  6
CONTINUOUS
 10
11.1317467268
 20
6.7706836082
 11
11.3620119753
 21
6.7706836082
  0
LINE
  5
38B
100
AcDbEntity
  8
0
100
AcDbLine
 62
7
  6
CONTINUOUS
 10
10.8877099224
 20
6.7902667809
 11
10.7342441463
 21
6.7902667809
  0
LINE
  5
38C
100
AcDbEntity
  8
0
100
AcDbLine
 62
7
  6
CONTINUOUS
 10
11.1126816102
 20
6.7943329852
 11
11.3429468587
 21
6.7943329852
  0
LINE
  5
38D
100
AcDbEntity
  8
0
100
AcDbLine
 62
7
  6
CONTINUOUS
 10
10.7209304985
 20
6.833349761
 11
11.0018541017
 21
6.833349761
  0
LINE
  5
38E
100
AcDbEntity
  8
AXIS_PART
100
AcDbLine
 62
7
  6
CONTINUOUS
 10
12.7124464799
 20
6.8851298603
 11
12.7483678587
 21
6.8851298603
  0
LINE
  5
38F
100
AcDbEntity
  8
AXIS_PART
100
AcDbLine
 62
7
  6
CONTINUOUS
 10
15.5907620862
 20
6.8851298603
 11
15.6266834649
 21
6.8851298603
  0
LINE
  5
390
100
AcDbEntity
  8
0
100
AcDbLine
 62
7
  6
CONTINUOUS
 10
13.4908374284
 20
6.5555117654
 11
13.4691887279
 21
6.5129561791
  0
LINE
  5
391
100
AcDbEntity
  8
AXIS_PART
100
AcDbLine
 62
7
  6
CONTINUOUS
 10
15.5852901236
 20
7.0190787618
 11
15.5493687449
 21
7.0190787618
  0
LINE
  5
392
100
AcDbEntity
  8
AXIS_PART
100
AcDbLine
 62
7
  6
CONTINUOUS
 10
12.7069745174
 20
7.0190787618
 11
12.6710531386
 21
7.0190787618
  0
LINE
  5
393
100
AcDbEntity
  8
0
100
AcDbLine
 62
7
  6
CONTINUOUS
 10
13.4879518444
 20
6.4522387118
 11
13.4691887279
 21
6.5129561791
  0
LINE
  5
394
100
AcDbEntity
  8
0
100
AcDbLine
 62
7
  6
CONTINUOUS
 10
13.2438767365
 20
7.2420660506
 11
13.2319700594
 21
7.2805960717
  0
LINE
  5
395
100
AcDbEntity
  8
0
100
AcDbLine
 62
7
  6
CONTINUOUS
 10
13.4908374284
 20
6.5555117654
 11
13.5096005449
 21
6.494794298
  0
LINE
  5
396
100
AcDbEntity
  8
0
100
AcDbLine
 62
7
  6
CONTINUOUS
 10
13.3072646596
 20
7.3790174768
 11
13.3086309771
 21
7.3745960717
  0
LINE
  5
397
100
AcDbEntity
  8
0
100
AcDbLine
 62
7
  6
CONTINUOUS
 10
13.5642477313
 20
6.5474199522
 11
13.5711169521
 21
6.5251911453
  0
LINE
  5
398
100
AcDbEntity
  8
0
100
AcDbLine
 62
7
  6
CONTINUOUS
 10
13.5096005449
 20
6.494794298
 11
13.4879518444
 21
6.4522387118
  0
LINE
  5
399
100
AcDbEntity
  8
0
100
AcDbLine
 62
7
  6
CONTINUOUS
 10
15.237430408
 20
7.2194457722
 11
15.0761130185
 21
7.2194457722
  0
LINE
  5
39A
100
AcDbEntity
  8
0
100
AcDbLine
 62
7
  6
CONTINUOUS
 10
10.9408145206
 20
7.225495091
 11
11.1710797691
 21
7.225495091
  0
LINE
  5
39B
100
AcDbEntity
  8
0
100
AcDbLine
 62
7
  6
CONTINUOUS
 10
12.7672826097
 20
7.2420660506
 11
13.2438767365
 21
7.2420660506
  0
LINE
  5
39C
100
AcDbEntity
  8
0
100
AcDbLine
 62
7
  6
CONTINUOUS
 10
14.7359955468
 20
7.2420660506
 11
14.982505089
 21
7.2420660506
  0
LINE
  5
39D
100
AcDbEntity
  8
0
100
AcDbLine
 62
7
  6
CONTINUOUS
 10
15.0872134388
 20
7.2420660506
 11
15.2263690751
 21
7.2420660506
  0
LINE
  5
39E
100
AcDbEntity
  8
0
100
AcDbLine
 62
7
  6
CONTINUOUS
 10
10.8589562841
 20
7.2442880423
 11
10.5780326809
 21
7.2442880423
  0
LINE
  5
39F
100
AcDbEntity
  8
0
100
AcDbLine
 62
7
  6
CONTINUOUS
 10
10.9530070355
 20
7.2631306923
 11
10.9286128459
 21
7.2631306923
  0
LINE
  5
3A0
100
AcDbEntity
  8
0
100
AcDbLine
 62
7
  6
CONTINUOUS
 10
10.8687176238
 20
7.2641795613
 11
10.5877940206
 21
7.2641795613
  0
LINE
  5
3A1
100
AcDbEntity
  8
0
100
AcDbLine
 62
7
  6
CONTINUOUS
 10
10.9320568291
 20
7.2805960717
 11
10.9561146151
 21
7.2805960717
  0
LINE
  5
3A2
100
AcDbEntity
  8
0
100
AcDbLine
 62
7
  6
CONTINUOUS
 10
11.1952399113
 20
7.2805960717
 11
14.9847252027
 21
7.2805960717
  0
LINE
  5
3A3
100
AcDbEntity
  8
0
100
AcDbLine
 62
7
  6
CONTINUOUS
 10
15.0961658066
 20
7.302783518
 11
15.2536519942
 21
7.302783518
  0
LINE
  5
3A4
100
AcDbEntity
  8
0
100
AcDbLine
 62
7
  6
CONTINUOUS
 10
10.5744803729
 20
7.3072625413
 11
10.7279461489
 21
7.3072625413
  0
LINE
  5
3A5
100
AcDbEntity
  8
0
100
AcDbLine
 62
7
  6
CONTINUOUS
 10
10.9598796372
 20
7.326845714
 11
11.1901448857
 21
7.326845714
  0
LINE
  5
3A6
100
AcDbEntity
  8
0
100
AcDbLine
 62
7
  6
CONTINUOUS
 10
10.7847457138
 20
7.3385956177
 11
10.8400093734
 21
7.3385956177
  0
LINE
  5
3A7
100
AcDbEntity
  8
0
100
AcDbLine
 62
7
  6
CONTINUOUS
 10
10.8157240543
 20
7.3657037133
 11
10.7604603946
 21
7.3657037133
  0
LINE
  5
3A8
100
AcDbEntity
  8
0
100
AcDbLine
 62
7
  6
CONTINUOUS
 10
11.1753889091
 20
7.3745960717
 11
14.9847252027
 21
7.3745960717
  0
LINE
  5
3A9
100
AcDbEntity
  8
0
100
AcDbLine
 62
7
  6
CONTINUOUS
 10
12.5703892108
 20
7.3790174768
 11
12.713970912
 21
7.3790174768
  0
LINE
  5
3AA
100
AcDbEntity
  8
0
100
AcDbLine
 62
7
  6
CONTINUOUS
 10
13.3072646596
 20
7.3790174768
 11
14.7072773705
 21
7.3790174768
  0
LINE
  5
3AB
100
AcDbEntity
  8
0
100
AcDbLine
 62
7
  6
CONTINUOUS
 10
15.3097817281
 20
7.3790174768
 11
15.4441528193
 21
7.3790174768
  0
LINE
  5
3AC
100
AcDbEntity
  8
0
100
AcDbLine
 62
7
  6
CONTINUOUS
 10
10.825485394
 20
7.3855952323
 11
10.7702217344
 21
7.3855952323
  0
LINE
  5
3AD
100
AcDbEntity
  8
0
100
AcDbLine
 62
7
  6
CONTINUOUS
 10
10.6842955239
 20
7.3970367897
 11
10.5308297478
 21
7.3970367897
  0
LINE
  5
3AE
100
AcDbEntity
  8
0
100
AcDbLine
 62
7
  6
CONTINUOUS
 10
10.9380936681
 20
7.3973451359
 11
11.1683589166
 21
7.3973451359
  0
LINE
  5
3AF
100
AcDbEntity
  8
0
100
AcDbLine
 62
7
  6
CONTINUOUS
 10
10.6940568637
 20
7.4169283086
 11
10.5405910876
 21
7.4169283086
  0
LINE
  5
3B0
100
AcDbEntity
  8
0
100
AcDbLine
 62
7
  6
CONTINUOUS
 10
10.9190285515
 20
7.4209945129
 11
11.1492938
 21
7.4209945129
  0
LINE
  5
3B1
100
AcDbEntity
  8
0
100
AcDbLine
 62
7
  6
CONTINUOUS
 10
10.5272774398
 20
7.4600112887
 11
10.808201043
 21
7.4600112887
  0
LINE
  5
3B2
100
AcDbEntity
  8
0
100
AcDbLine
 62
7
  6
CONTINUOUS
 10
14.7542401236
 20
7.2805960717
 11
14.7359955468
 21
7.2420660506
  0
LINE
  5
3B3
100
AcDbEntity
  8
0
100
AcDbLine
 62
7
  6
CONTINUOUS
 10
15.0005685981
 20
7.2788756118
 11
14.9431253544
 21
7.1618185886
  0
LINE
  5
3B4
100
AcDbEntity
  8
0
100
AcDbLine
 62
7
  6
CONTINUOUS
 10
15.0885205031
 20
7.2447295676
 11
15.0275121298
 21
7.1204075739
  0
LINE
  5
3B5
100
AcDbEntity
  8
0
100
AcDbLine
 62
7
  6
CONTINUOUS
 10
15.2854519817
 20
7.3665335613
 11
15.2536519942
 21
7.302783518
  0
LINE
  5
3B6
100
AcDbEntity
  8
0
100
AcDbLine
 62
7
  6
CONTINUOUS
 10
15.2263690751
 20
7.2420660506
 11
15.0169426638
 21
6.8222249161
  0
LINE
  5
3B7
100
AcDbEntity
  8
0
100
AcDbLine
 62
7
  6
CONTINUOUS
 10
15.2845165835
 20
7.2029056703
 11
15.2585982346
 21
7.1509466602
  0
LINE
  5
3B8
100
AcDbEntity
  8
0
100
AcDbLine
 62
7
  6
CONTINUOUS
 10
14.971129663
 20
6.5251911453
 11
14.9642604422
 21
6.5474199522
  0
LINE
  5
3B9
100
AcDbEntity
  8
0
100
AcDbLine
 62
7
  6
CONTINUOUS
 10
14.708643688
 20
7.3745960717
 11
14.7072773705
 21
7.3790174768
  0
LINE
  5
3BA
100
AcDbEntity
  8
0
100
AcDbLine
 62
7
  6
CONTINUOUS
 10
15.0035376923
 20
6.5092319514
 11
14.9861284622
 21
6.5655682405
  0
LINE
  5
3BB
100
AcDbEntity
  8
0
100
AcDbLine
 62
7
  6
CONTINUOUS
 10
15.1367784131
 20
6.5351570609
 11
15.1942216568
 21
6.6522140841
  0
LINE
  5
3BC
100
AcDbEntity
  8
0
100
AcDbLine
 62
7
  6
CONTINUOUS
 10
15.0017193552
 20
6.494794298
 11
14.9800706547
 21
6.4522387118
  0
LINE
  5
3BD
100
AcDbEntity
  8
0
100
AcDbLine
 62
7
  6
CONTINUOUS
 10
15.2305921525
 20
6.5129561791
 11
15.2821735619
 21
6.6180680399
  0
LINE
  5
3BE
100
AcDbEntity
  8
AXIS_PART
100
AcDbLine
 62
7
  6
CONTINUOUS
 10
15.5493687449
 20
7.0190787618
 11
15.5044565943
 21
6.9275574215
  0
LINE
  5
3BF
100
AcDbEntity
  8
AXIS_PART
100
AcDbLine
 62
7
  6
CONTINUOUS
 10
15.5852901236
 20
7.0190787618
 11
15.5291441247
 21
6.9046652454
  0
LINE
  5
3C0
100
AcDbEntity
  8
0
100
AcDbLine
 62
7
  6
CONTINUOUS
 10
15.4856256294
 20
6.5521165594
 11
15.465785295
 21
6.5150430001
  0
LINE
  5
3C1
100
AcDbEntity
  8
0
100
AcDbLine
 62
7
  6
CONTINUOUS
 10
15.5491382125
 20
6.5132446056
 11
15.5164902187
 21
6.4522387118
  0
LINE
  5
3C2
100
AcDbEntity
  8
0
100
AcDbLine
 62
7
  6
CONTINUOUS
 10
15.4556922195
 20
6.5131502912
 11
15.237430408
 21
7.2194457722
  0
LINE
  5
3C3
100
AcDbEntity
  8
0
100
AcDbLine
 62
7
  6
CONTINUOUS
 10
15.2536519942
 20
7.302783518
 11
15.2845165835
 21
7.2029056703
  0
LINE
  5
3C4
100
AcDbEntity
  8
0
100
AcDbLine
 62
7
  6
CONTINUOUS
 10
15.4856256294
 20
6.5521165594
 11
15.5164902187
 21
6.4522387118
  0
LINE
  5
3C5
100
AcDbEntity
  8
0
100
AcDbLine
 62
7
  6
CONTINUOUS
 10
15.5491382125
 20
6.5132446056
 11
15.2854519817
 21
7.3665335613
  0
LINE
  5
3C6
100
AcDbEntity
  8
0
100
AcDbLine
 62
7
  6
CONTINUOUS
 10
15.5736340206
 20
6.5251911453
 11
15.3097817281
 21
7.3790174768
  0
LINE
  5
3C7
100
AcDbEntity
  8
0
100
AcDbLine
 62
7
  6
CONTINUOUS
 10
15.4147563101
 20
5.9772277575
 11
15.7080051118
 21
6.5251911453
  0
LINE
  5
3C8
100
AcDbEntity
  8
0
100
AcDbLine
 62
7
  6
CONTINUOUS
 10
15.5376835224
 20
6.0391613422
 11
15.8309772514
 21
6.5872086811
  0
LINE
  5
3C9
100
AcDbEntity
  8
0
100
AcDbLine
 62
7
  6
CONTINUOUS
 10
15.6651133511
 20
7.2302080318
 11
15.8369944505
 21
6.6740005903
  0
ARC
  5
3CA
100
AcDbEntity
  8
AXIS_PART
100
AcDbCircle
 62
7
  6
CONTINUOUS
 10
7.0167749023
 20
6.3778076172
 40
0.0855
100
AcDbArc
 50
270.0
 51
90.0
  0
ARC
  5
3CB
100
AcDbEntity
  8
AXIS_PART
100
AcDbCircle
 62
7
  6
CONTINUOUS
 10
6.9777749023
 20
6.3778076172
 40
0.0855
100
AcDbArc
 50
90.0
 51
270.0
  0
ARC
  5
3CC
100
AcDbEntity
  8
AXIS_PART
100
AcDbCircle
 62
7
  6
CONTINUOUS
 10
3.8527749023
 20
6.3778076172
 40
0.0855
100
AcDbArc
 50
90.0
 51
270.0
  0
ARC
  5
3CD
100
AcDbEntity
  8
AXIS_PART
100
AcDbCircle
 62
7
  6
CONTINUOUS
 10
3.8917749023
 20
6.3778076172
 40
0.0855
100
AcDbArc
 50
270.0
 51
90.0
  0
ARC
  5
3CE
100
AcDbEntity
  8
0
100
AcDbCircle
 62
7
  6
CONTINUOUS
 10
1.7642749023
 20
6.7778076172
 40
0.0705
100
AcDbArc
 50
263.1721325185
 51
334.815663466
  0
ARC
  5
3CF
100
AcDbEntity
  8
0
100
AcDbCircle
 62
7
  6
CONTINUOUS
 10
1.7642749023
 20
6.7778076172
 40
0.0705
100
AcDbArc
 50
25.184336534
 51
96.8278674815
  0
ARC
  5
3D0
100
AcDbEntity
  8
0
100
AcDbCircle
 62
7
  6
CONTINUOUS
 10
1.7642749023
 20
5.9778076172
 40
0.0705
100
AcDbArc
 50
263.1721325185
 51
334.815663466
  0
ARC
  5
3D1
100
AcDbEntity
  8
0
100
AcDbCircle
 62
7
  6
CONTINUOUS
 10
1.7642749023
 20
5.9778076172
 40
0.0705
100
AcDbArc
 50
25.184336534
 51
96.8278674815
  0
ARC
  5
3D2
100
AcDbEntity
  8
0
100
AcDbCircle
 62
7
  6
CONTINUOUS
 10
1.8880734133
 20
6.7778076172
 40
0.03
100
AcDbArc
 50
270.0
 51
90.0
  0
ARC
  5
3D3
100
AcDbEntity
  8
0
100
AcDbCircle
 62
7
  6
CONTINUOUS
 10
1.8880734133
 20
5.9778076172
 40
0.03
100
AcDbArc
 50
270.0
 51
90.0
  0
ARC
  5
3D4
100
AcDbEntity
  8
0
100
AcDbCircle
 62
7
  6
CONTINUOUS
 10
6.4142749023
 20
2.4091201172
 40
0.147
100
AcDbArc
 50
270.0
 51
360.0
  0
ARC
  5
3D5
100
AcDbEntity
  8
0
100
AcDbCircle
 62
7
  6
CONTINUOUS
 10
6.4142749023
 20
2.4091201172
 40
0.053
100
AcDbArc
 50
270.0
 51
360.0
  0
ARC
  5
3D6
100
AcDbEntity
  8
0
100
AcDbCircle
 62
7
  6
CONTINUOUS
 10
6.1842749023
 20
2.4591201172
 40
0.05
100
AcDbArc
 50
270.0
 51
360.0
  0
ARC
  5
3D7
100
AcDbEntity
  8
0
100
AcDbCircle
 62
7
  6
CONTINUOUS
 10
4.6642749023
 20
2.4591201172
 40
0.05
100
AcDbArc
 50
180.0
 51
270.0
  0
ARC
  5
3D8
100
AcDbEntity
  8
0
100
AcDbCircle
 62
7
  6
CONTINUOUS
 10
7.1385448423
 20
3.3101201172
 40
0.02
100
AcDbArc
 50
1.0
 51
90.0
  0
ARC
  5
3D9
100
AcDbEntity
  8
0
100
AcDbCircle
 62
7
  6
CONTINUOUS
 10
3.7100049624
 20
3.3101201172
 40
0.02
100
AcDbArc
 50
90.0
 51
179.0
  0
ARC
  5
3DA
100
AcDbEntity
  8
0
100
AcDbCircle
 62
7
  6
CONTINUOUS
 10
4.0201332532
 20
2.4291201172
 40
0.02
100
AcDbArc
 50
270.0
 51
359.0
  0
ARC
  5
3DB
100
AcDbEntity
  8
0
100
AcDbCircle
 62
7
  6
CONTINUOUS
 10
6.8384165515
 20
2.4291201172
 40
0.02
100
AcDbArc
 50
181.0
 51
270.0
  0
ARC
  5
3DC
100
AcDbEntity
  8
0
100
AcDbCircle
 62
7
  6
CONTINUOUS
 10
10.5792163086
 20
2.3161201172
 40
0.0625
100
AcDbArc
 50
270.0
 51
88.1611879578
  0
ARC
  5
3DD
100
AcDbEntity
  8
0
100
AcDbCircle
 62
7
  6
CONTINUOUS
 10
10.4892163086
 20
2.3161201172
 40
0.0625
100
AcDbArc
 50
91.8388120422
 51
270.0
  0
ARC
  5
3DE
100
AcDbEntity
  8
0
100
AcDbCircle
 62
7
  6
CONTINUOUS
 10
9.7792163086
 20
2.3161201172
 40
0.0625
100
AcDbArc
 50
270.0
 51
88.1611879578
  0
ARC
  5
3DF
100
AcDbEntity
  8
0
100
AcDbCircle
 62
7
  6
CONTINUOUS
 10
9.6892163086
 20
2.3161201172
 40
0.0625
100
AcDbArc
 50
91.8388120422
 51
270.0
  0
ARC
  5
3E0
100
AcDbEntity
  8
0
100
AcDbCircle
 62
7
  6
CONTINUOUS
 10
10.5342163086
 20
2.3091201172
 40
0.047
100
AcDbArc
 50
180.0
 51
360.0
  0
ARC
  5
3E1
100
AcDbEntity
  8
0
100
AcDbCircle
 62
7
  6
CONTINUOUS
 10
9.7342163086
 20
2.3091201172
 40
0.047
100
AcDbArc
 50
180.0
 51
360.0
  0
ARC
  5
3E2
100
AcDbEntity
  8
0
100
AcDbCircle
 62
7
  6
CONTINUOUS
 10
10.4892163086
 20
2.3161201172
 40
0.04
100
AcDbArc
 50
92.8721004415
 51
270.0
  0
ARC
  5
3E3
100
AcDbEntity
  8
0
100
AcDbCircle
 62
7
  6
CONTINUOUS
 10
10.5792163086
 20
2.3161201172
 40
0.04
100
AcDbArc
 50
270.0
 51
87.1278995585
  0
ARC
  5
3E4
100
AcDbEntity
  8
0
100
AcDbCircle
 62
7
  6
CONTINUOUS
 10
9.6892163086
 20
2.3161201172
 40
0.04
100
AcDbArc
 50
92.8721004415
 51
270.0
  0
ARC
  5
3E5
100
AcDbEntity
  8
0
100
AcDbCircle
 62
7
  6
CONTINUOUS
 10
9.7792163086
 20
2.3161201172
 40
0.04
100
AcDbArc
 50
270.0
 51
87.1278995585
  0
ARC
  5
3E6
100
AcDbEntity
  8
0
100
AcDbCircle
 62
7
  6
CONTINUOUS
 10
9.6249463687
 20
3.3101201172
 40
0.02
100
AcDbArc
 50
90.0
 51
179.0
  0
ARC
  5
3E7
100
AcDbEntity
  8
0
100
AcDbCircle
 62
7
  6
CONTINUOUS
 10
10.6434862485
 20
3.3101201172
 40
0.02
100
AcDbArc
 50
1.0
 51
90.0
  0
ARC
  5
3E8
100
AcDbEntity
  8
0
100
AcDbCircle
 62
7
  6
CONTINUOUS
 10
15.0563205378
 20
8.857607405
 40
0.0800198288
100
AcDbArc
 50
342.7837418356
 51
347.2709692375
  0
ARC
  5
3E9
100
AcDbEntity
  8
0
100
AcDbCircle
 62
7
  6
CONTINUOUS
 10
10.9781065521
 20
9.4199682237
 40
0.0402554454
100
AcDbArc
 50
46.3066461341
 51
47.0027164443
  0
ARC
  5
3EA
100
AcDbEntity
  8
0
100
AcDbCircle
 62
7
  6
CONTINUOUS
 10
10.7844534934
 20
8.793306696
 40
0.0402554454
100
AcDbArc
 50
46.3066461341
 51
47.0027164443
  0
ARC
  5
3EB
100
AcDbEntity
  8
0
100
AcDbCircle
 62
7
  6
CONTINUOUS
 10
10.9790975575
 20
9.4209653133
 40
0.0388499272
100
AcDbArc
 50
38.4302970024
 51
46.3475802038
  0
ARC
  5
3EC
100
AcDbEntity
  8
0
100
AcDbCircle
 62
7
  6
CONTINUOUS
 10
10.7854444988
 20
8.7943037856
 40
0.0388499272
100
AcDbArc
 50
38.4302970025
 51
46.3475802038
  0
ARC
  5
3ED
100
AcDbEntity
  8
0
100
AcDbCircle
 62
7
  6
CONTINUOUS
 10
10.9706676157
 20
9.4419738174
 40
0.037122456
100
AcDbArc
 50
13.6731666732
 51
26.1032596321
  0
ARC
  5
3EE
100
AcDbEntity
  8
0
100
AcDbCircle
 62
7
  6
CONTINUOUS
 10
10.777014557
 20
8.8153122897
 40
0.037122456
100
AcDbArc
 50
13.6731666732
 51
26.1032596321
  0
ARC
  5
3EF
100
AcDbEntity
  8
0
100
AcDbCircle
 62
7
  6
CONTINUOUS
 10
12.4926857574
 20
6.1703595992
 40
0.1503526305
100
AcDbArc
 50
197.1449232598
 51
200.7506301763
  0
ARC
  5
3F0
100
AcDbEntity
  8
0
100
AcDbCircle
 62
7
  6
CONTINUOUS
 10
15.4488018687
 20
6.0868914815
 40
0.100892523
100
AcDbArc
 50
323.9638395124
 51
325.2200942276
  0
ARC
  5
3F1
100
AcDbEntity
  8
0
100
AcDbCircle
 62
7
  6
CONTINUOUS
 10
15.4495745666
 20
6.0863656167
 40
0.0999579018
100
AcDbArc
 50
325.2150226182
 51
329.0567832422
  0
ARC
  5
3F2
100
AcDbEntity
  8
0
100
AcDbCircle
 62
7
  6
CONTINUOUS
 10
15.450166294
 20
6.0860088578
 40
0.0992669493
100
AcDbArc
 50
329.0577787396
 51
331.8401291304
  0
ARC
  5
3F3
100
AcDbEntity
  8
0
100
AcDbCircle
 62
7
  6
CONTINUOUS
 10
11.0629510465
 20
6.6951197995
 40
0.080574488
100
AcDbArc
 50
344.8222907713
 51
348.4467313634
  0
ARC
  5
3F4
100
AcDbEntity
  8
0
100
AcDbCircle
 62
7
  6
CONTINUOUS
 10
10.7486753107
 20
7.3473707394
 40
0.037122456
100
AcDbArc
 50
333.8967403679
 51
346.3268333268
  0
ARC
  5
3F5
100
AcDbEntity
  8
0
100
AcDbCircle
 62
7
  6
CONTINUOUS
 10
10.9423283695
 20
6.7207092117
 40
0.037122456
100
AcDbArc
 50
333.8967403679
 51
346.3268333268
  0
ARC
  5
3F6
100
AcDbEntity
  8
0
100
AcDbCircle
 62
7
  6
CONTINUOUS
 10
15.1701640059
 20
6.5251109127
 40
0.0360920381
100
AcDbArc
 50
197.1778210943
 51
199.6839202271
  0
ARC
  5
3F7
100
AcDbEntity
  8
0
100
AcDbCircle
 62
7
  6
CONTINUOUS
 10
13.5057238818
 20
6.5482223299
 40
0.0165707814
100
AcDbArc
 50
142.7201929115
 51
151.8415862372
  0
SPLINE
  5
3F8
100
AcDbEntity
  8
0
100
AcDbSpline
 62
7
  6
CONTINUOUS
 70
0
 71
3
 72
21
 73
17
 74
0
 42
0.0000001
 43
0.0000001
 44
0.0000000001
 40
0.0
 40
0.0
 40
0.0
 40
0.0
 40
0.0426346271
 40
0.0860130216
 40
0.1308320951
 40
0.1777041294
 40
0.2794482405
 40
0.3351652261
 40
0.3943814533
 40
0.4572442226
 40
0.5238366454
 40
0.5941831706
 40
0.66827193
 40
0.7460571957
 40
0.827406285
 40
1.0
 40
1.0
 40
1.0
 40
1.0
 10
11.4028334135
 20
9.5214577954
 30
0.0
 10
11.4025407485
 20
9.5214578458
 30
0.0
 10
11.4019494315
 20
9.5214149352
 30
0.0
 10
11.4010694684
 20
9.5212219638
 30
0.0
 10
11.4001963899
 20
9.5209019161
 30
0.0
 10
11.3990137449
 20
9.5202919223
 30
0.0
 10
11.3978879994
 20
9.5194359416
 30
0.0
 10
11.3968296507
 20
9.51838986
 30
0.0
 10
11.3960308488
 20
9.5174653208
 30
0.0
 10
11.3952542436
 20
9.5164277698
 30
0.0
 10
11.3945018201
 20
9.5152800854
 30
0.0
 10
11.3937756436
 20
9.5140258859
 30
0.0
 10
11.3930778784
 20
9.5126687555
 30
0.0
 10
11.3924109765
 20
9.511212742
 30
0.0
 10
11.3915486308
 20
9.5091046983
 30
0.0
 10
11.3909815386
 20
9.5074542974
 30
0.0
 10
11.3906317391
 20
9.5063223456
 30
0.0
  0
SPLINE
  5
3F9
100
AcDbEntity
  8
0
100
AcDbSpline
 62
7
  6
CONTINUOUS
 70
0
 71
3
 72
24
 73
20
 74
0
 42
0.0000001
 43
0.0000001
 44
0.0000000001
 40
0.0
 40
0.0
 40
0.0
 40
0.0
 40
0.0426282625
 40
0.0859986659
 40
0.1308075271
 40
0.1776740909
 40
0.2020520425
 40
0.2271270267
 40
0.2795401582
 40
0.335247855
 40
0.3944634613
 40
0.457322027
 40
0.5239041246
 40
0.5942362723
 40
0.6682994551
 40
0.7460458992
 40
0.8273714268
 40
0.9120915457
 40
1.0
 40
1.0
 40
1.0
 40
1.0
 10
11.3810474446
 20
9.3484585667
 30
0.0
 10
11.3815047457
 20
9.3484586211
 30
0.0
 10
11.3824286338
 20
9.3485260793
 30
0.0
 10
11.3838036352
 20
9.3488272348
 30
0.0
 10
11.3851678578
 20
9.3493269226
 30
0.0
 10
11.386276922
 20
9.3498994122
 30
0.0
 10
11.3871527006
 20
9.3504484998
 30
0.0
 10
11.3880466521
 20
9.3510778329
 30
0.0
 10
11.3891504743
 20
9.3519889399
 30
0.0
 10
11.3904286085
 20
9.3532523175
 30
0.0
 10
11.3916763024
 20
9.3546970769
 30
0.0
 10
11.392889975
 20
9.3563184326
 30
0.0
 10
11.3940657666
 20
9.3581116567
 30
0.0
 10
11.3952002468
 20
9.3600712881
 30
0.0
 10
11.3962903053
 20
9.3621914303
 30
0.0
 10
11.3973323552
 20
9.3644658494
 30
0.0
 10
11.3983228935
 20
9.3668870647
 30
0.0
 10
11.3992589132
 20
9.3694461568
 30
0.0
 10
11.3998341279
 20
9.3712068911
 30
0.0
 10
11.4001125613
 20
9.372107902
 30
0.0
  0
SPLINE
  5
3FA
100
AcDbEntity
  8
0
100
AcDbSpline
 62
7
  6
CONTINUOUS
 70
0
 71
3
 72
15
 73
11
 74
0
 42
0.0000001
 43
0.0000001
 44
0.0000000001
 40
0.0
 40
0.0
 40
0.0
 40
0.0
 40
0.1387354778
 40
0.2739464997
 40
0.4051193376
 40
0.5320901972
 40
0.6548372513
 40
0.7734791915
 40
0.8883548103
 40
1.0
 40
1.0
 40
1.0
 40
1.0
 10
10.9596997936
 20
9.4621904966
 30
0.0
 10
10.9619555923
 20
9.4624131987
 30
0.0
 10
10.9664303972
 20
9.462670663
 30
0.0
 10
10.9730551436
 20
9.4624785296
 30
0.0
 10
10.9794447876
 20
9.4617020802
 30
0.0
 10
10.985530147
 20
9.4603496617
 30
0.0
 10
10.9912483941
 20
9.4584351415
 30
0.0
 10
10.9965387282
 20
9.4559755231
 30
0.0
 10
11.0013437678
 20
9.4529973599
 30
0.0
 10
11.0042251587
 20
9.4506545023
 30
0.0
 10
11.005559304
 20
9.4494104942
 30
0.0
  0
SPLINE
  5
3FB
100
AcDbEntity
  8
0
100
AcDbSpline
 62
7
  6
CONTINUOUS
 70
0
 71
3
 72
11
 73
7
 74
0
 42
0.0000001
 43
0.0000001
 44
0.0000000001
 40
0.0
 40
0.0
 40
0.0
 40
0.0
 40
0.2626108514
 40
0.5172415338
 40
0.7630210269
 40
1.0
 40
1.0
 40
1.0
 40
1.0
 10
11.0717630181
 20
9.4308574202
 30
0.0
 10
11.0727506667
 20
9.4308574202
 30
0.0
 10
11.0746973201
 20
9.4307681098
 30
0.0
 10
11.0775422086
 20
9.4303568981
 30
0.0
 10
11.080234929
 20
9.4296719709
 30
0.0
 10
11.0819374471
 20
9.4290271089
 30
0.0
 10
11.0827497849
 20
9.4286604563
 30
0.0
  0
SPLINE
  5
3FC
100
AcDbEntity
  8
0
100
AcDbSpline
 62
7
  6
CONTINUOUS
 70
0
 71
3
 72
24
 73
20
 74
0
 42
0.0000001
 43
0.0000001
 44
0.0000000001
 40
0.0
 40
0.0
 40
0.0
 40
0.0
 40
0.0426282625
 40
0.0859986659
 40
0.1308075271
 40
0.1776740909
 40
0.2020520425
 40
0.2271270267
 40
0.2795401582
 40
0.335247855
 40
0.3944634613
 40
0.457322027
 40
0.5239041246
 40
0.5942362723
 40
0.6682994551
 40
0.7460458992
 40
0.8273714268
 40
0.9120915457
 40
1.0
 40
1.0
 40
1.0
 40
1.0
 10
11.1725681653
 20
9.5439579051
 30
0.0
 10
11.1721108641
 20
9.5439578507
 30
0.0
 10
11.1711869761
 20
9.5438903925
 30
0.0
 10
11.1698119746
 20
9.543589237
 30
0.0
 10
11.168447752
 20
9.5430895492
 30
0.0
 10
11.1673386878
 20
9.5425170596
 30
0.0
 10
11.1664629092
 20
9.541967972
 30
0.0
 10
11.1655689577
 20
9.5413386389
 30
0.0
 10
11.1644651355
 20
9.5404275319
 30
0.0
 10
11.1631870014
 20
9.5391641543
 30
0.0
 10
11.1619393075
 20
9.5377193949
 30
0.0
 10
11.1607256348
 20
9.5360980392
 30
0.0
 10
11.1595498433
 20
9.5343048151
 30
0.0
 10
11.1584153631
 20
9.5323451837
 30
0.0
 10
11.1573253045
 20
9.5302250415
 30
0.0
 10
11.1562832546
 20
9.5279506224
 30
0.0
 10
11.1552927163
 20
9.5255294071
 30
0.0
 10
11.1543566967
 20
9.522970315
 30
0.0
 10
11.153781482
 20
9.5212095807
 30
0.0
 10
11.1535030486
 20
9.5203085699
 30
0.0
  0
SPLINE
  5
3FD
100
AcDbEntity
  8
0
100
AcDbSpline
 62
7
  6
CONTINUOUS
 70
0
 71
3
 72
17
 73
13
 74
0
 42
0.0000001
 43
0.0000001
 44
0.0000000001
 40
0.0
 40
0.0
 40
0.0
 40
0.0
 40
0.0609151048
 40
0.1228861717
 40
0.24914791
 40
0.3774818157
 40
0.5064483918
 40
0.634538388
 40
0.760298753
 40
0.8824560586
 40
0.9418878103
 40
1.0
 40
1.0
 40
1.0
 40
1.0
 10
10.9922140393
 20
9.4037493246
 30
0.0
 10
10.9910825304
 20
9.4024365709
 30
0.0
 10
10.9887129096
 20
9.3998619522
 30
0.0
 10
10.9835967418
 20
9.3949505641
 30
0.0
 10
10.9765423042
 20
9.3893140974
 30
0.0
 10
10.9672726822
 20
9.3835126528
 30
0.0
 10
10.9573635539
 20
9.3787645146
 30
0.0
 10
10.9470518501
 20
9.3751851004
 30
0.0
 10
10.93658538
 20
9.3728593563
 30
0.0
 10
10.9278569219
 20
9.37200624
 30
0.0
 10
10.9210331121
 20
9.3720135695
 30
0.0
 10
10.9176934591
 20
9.3722433683
 30
0.0
 10
10.9160491686
 20
9.3724162482
 30
0.0
  0
SPLINE
  5
3FE
100
AcDbEntity
  8
0
100
AcDbSpline
 62
7
  6
CONTINUOUS
 70
0
 71
3
 72
27
 73
23
 74
0
 42
0.0000001
 43
0.0000001
 44
0.0000000001
 40
0.0
 40
0.0
 40
0.0
 40
0.0
 40
0.0251958078
 40
0.0504969587
 40
0.0760066377
 40
0.1018213709
 40
0.1280274572
 40
0.1547023829
 40
0.1819113
 40
0.2097035504
 40
0.2381170939
 40
0.2671780222
 40
0.3272354777
 40
0.3898600814
 40
0.4548235365
 40
0.5217646532
 40
0.5902087781
 40
0.7292088789
 40
0.7987163885
 40
0.8673766771
 40
0.9346692169
 40
1.0
 40
1.0
 40
1.0
 40
1.0
 10
11.0816714847
 20
9.4404653384
 30
0.0
 10
11.081886866
 20
9.4400263297
 30
0.0
 10
11.0822774432
 20
9.4391256374
 30
0.0
 10
11.0827360566
 20
9.4377214726
 30
0.0
 10
11.0830652379
 20
9.4362690488
 30
0.0
 10
11.0832639491
 20
9.4347755202
 30
0.0
 10
11.0833317376
 20
9.433247791
 30
0.0
 10
11.0832677681
 20
9.4316929057
 30
0.0
 10
11.0830724779
 20
9.4301181003
 30
0.0
 10
11.0827474778
 20
9.4285305421
 30
0.0
 10
11.0822939801
 20
9.4269374328
 30
0.0
 10
11.0815119582
 20
9.4247928743
 30
0.0
 10
11.0802169486
 20
9.4221373393
 30
0.0
 10
11.078216307
 20
9.4190840215
 30
0.0
 10
11.0757901264
 20
9.4161810812
 30
0.0
 10
11.0729814581
 20
9.4134810615
 30
0.0
 10
11.0687771593
 20
9.4102013143
 30
0.0
 10
11.0640580579
 20
9.4075424601
 30
0.0
 10
11.05903252
 20
9.4056066233
 30
0.0
 10
11.0551808547
 20
9.4045465473
 30
0.0
 10
11.0513214739
 20
9.4039005211
 30
0.0
 10
11.0487456295
 20
9.4037493246
 30
0.0
 10
11.047477699
 20
9.4037493246
 30
0.0
  0
SPLINE
  5
3FF
100
AcDbEntity
  8
0
100
AcDbSpline
 62
7
  6
CONTINUOUS
 70
0
 71
3
 72
32
 73
28
 74
0
 42
0.0000001
 43
0.0000001
 44
0.0000000001
 40
0.0
 40
0.0
 40
0.0
 40
0.0
 40
0.0330263777
 40
0.0673721912
 40
0.1394000411
 40
0.2149139374
 40
0.2927462453
 40
0.3716119656
 40
0.4501978323
 40
0.5272039806
 40
0.6013751208
 40
0.6370331349
 40
0.6715539532
 40
0.7048099037
 40
0.7366906799
 40
0.7670949169
 40
0.7959349196
 40
0.8231491215
 40
0.8486930198
 40
0.8725469178
 40
0.8947321357
 40
0.9153050114
 40
0.9343702234
 40
0.9520998512
 40
0.9687304727
 40
0.9845715768
 40
1.0
 40
1.0
 40
1.0
 40
1.0
 10
11.3688457699
 20
9.4358229237
 30
0.0
 10
11.3686151558
 20
9.4350766562
 30
0.0
 10
11.3681762866
 20
9.4335443947
 30
0.0
 10
11.3673868108
 20
9.4303428444
 30
0.0
 10
11.3665776072
 20
9.4261144076
 30
0.0
 10
11.3658998921
 20
9.420824499
 30
0.0
 10
11.3655139212
 20
9.4153432785
 30
0.0
 10
11.3654270716
 20
9.409776683
 30
0.0
 10
11.3656412335
 20
9.4042329907
 30
0.0
 10
11.3661524205
 20
9.3988202737
 30
0.0
 10
11.3668255779
 20
9.3944499675
 30
0.0
 10
11.367510318
 20
9.391104839
 30
0.0
 10
11.3680830661
 20
9.3887260097
 30
0.0
 10
11.3687193135
 20
9.3864559709
 30
0.0
 10
11.3694155204
 20
9.3843056331
 30
0.0
 10
11.3701682977
 20
9.3822854277
 30
0.0
 10
11.3709744344
 20
9.3804053019
 30
0.0
 10
11.3718295727
 20
9.37867412
 30
0.0
 10
11.3727296681
 20
9.377100135
 30
0.0
 10
11.3736710223
 20
9.3756911423
 30
0.0
 10
11.3746488671
 20
9.3744535052
 30
0.0
 10
11.3756590402
 20
9.3733930633
 30
0.0
 10
11.3766979214
 20
9.3725156268
 30
0.0
 10
11.3777608472
 20
9.3718254846
 30
0.0
 10
11.3788438158
 20
9.3713272629
 30
0.0
 10
11.3799414083
 20
9.3710263312
 30
0.0
 10
11.3806825562
 20
9.3709587392
 30
0.0
 10
11.3810474449
 20
9.3709586764
 30
0.0
  0
SPLINE
  5
400
100
AcDbEntity
  8
0
100
AcDbSpline
 62
7
  6
CONTINUOUS
 70
0
 71
3
 72
34
 73
30
 74
0
 42
0.0000001
 43
0.0000001
 44
0.0000000001
 40
0.0
 40
0.0
 40
0.0
 40
0.0
 40
0.0330342808
 40
0.0673799297
 40
0.1393937683
 40
0.2149075242
 40
0.2927400718
 40
0.371602736
 40
0.4501864685
 40
0.5271910554
 40
0.5647102502
 40
0.6013700054
 40
0.6370262384
 40
0.6715460574
 40
0.7048022261
 40
0.7366814942
 40
0.7670848479
 40
0.7959247449
 40
0.8231381637
 40
0.8486807876
 40
0.8725347319
 40
0.8947198531
 40
0.9152908272
 40
0.9343565704
 40
0.952086124
 40
0.9687152027
 40
0.984556659
 40
0.9923046339
 40
1.0
 40
1.0
 40
1.0
 40
1.0
 10
11.1317170794
 20
9.449809148
 30
0.0
 10
11.1313566496
 20
9.4486427966
 30
0.0
 10
11.1306707537
 20
9.4462483227
 30
0.0
 10
11.1294371488
 20
9.4412460146
 30
0.0
 10
11.128173115
 20
9.4346393791
 30
0.0
 10
11.1271143046
 20
9.4263741969
 30
0.0
 10
11.1265108401
 20
9.417809723
 30
0.0
 10
11.1263752908
 20
9.4091118132
 30
0.0
 10
11.1267101853
 20
9.4004500486
 30
0.0
 10
11.1273811467
 20
9.393341113
 30
0.0
 10
11.1281536281
 20
9.3878070985
 30
0.0
 10
11.1288383489
 20
9.3838056332
 30
0.0
 10
11.1296304487
 20
9.3799370809
 30
0.0
 10
11.130525444
 20
9.3762202036
 30
0.0
 10
11.1315193624
 20
9.3726731916
 30
0.0
 10
11.1326073249
 20
9.369313323
 30
0.0
 10
11.133783569
 20
9.3661567743
 30
0.0
 10
11.1350430745
 20
9.3632190263
 30
0.0
 10
11.1363792226
 20
9.3605140526
 30
0.0
 10
11.137785736
 20
9.3580547693
 30
0.0
 10
11.1392565517
 20
9.3558531755
 30
0.0
 10
11.1407842694
 20
9.3539192343
 30
0.0
 10
11.1423629876
 20
9.3522625843
 30
0.0
 10
11.1439860282
 20
9.3508914321
 30
0.0
 10
11.1456468427
 20
9.3498127919
 30
0.0
 10
11.14733889
 20
9.3490350017
 30
0.0
 10
11.148779866
 20
9.3486397695
 30
0.0
 10
11.1499267478
 20
9.3484842919
 30
0.0
 10
11.150497816
 20
9.3484585329
 30
0.0
 10
11.1507821961
 20
9.3484585667
 30
0.0
  0
SPLINE
  5
401
100
AcDbEntity
  8
0
100
AcDbSpline
 62
7
  6
CONTINUOUS
 70
0
 71
3
 72
28
 73
24
 74
0
 42
0.0000001
 43
0.0000001
 44
0.0000000001
 40
0.0
 40
0.0
 40
0.0
 40
0.0
 40
0.0874254775
 40
0.1734401067
 40
0.2574573462
 40
0.3389135348
 40
0.4172808882
 40
0.4920728291
 40
0.5628571347
 40
0.6292677352
 40
0.6910193294
 40
0.7479313191
 40
0.774556702
 40
0.7999676371
 40
0.8241840156
 40
0.847237901
 40
0.8691806294
 40
0.8900820339
 40
0.9290903482
 40
0.9474781823
 40
0.9653078239
 40
0.9827524223
 40
1.0
 40
1.0
 40
1.0
 40
1.0
 10
11.4270007539
 20
9.4888591714
 30
0.0
 10
11.4269140305
 20
9.4907257547
 30
0.0
 10
11.426676373
 20
9.4944261183
 30
0.0
 10
11.4261228779
 20
9.4999022218
 30
0.0
 10
11.4253791791
 20
9.5052271195
 30
0.0
 10
11.4244514202
 20
9.5103571478
 30
0.0
 10
11.4233472358
 20
9.5152503607
 30
0.0
 10
11.42207585
 20
9.5198668998
 30
0.0
 10
11.4206475523
 20
9.5241691694
 30
0.0
 10
11.4190742149
 20
9.5281225997
 30
0.0
 10
11.4173682599
 20
9.5316950527
 30
0.0
 10
11.4158147278
 20
9.5343887654
 30
0.0
 10
11.4145105975
 20
9.5363189556
 30
0.0
 10
11.4135301776
 20
9.5376218548
 30
0.0
 10
11.4125276076
 20
9.5388096686
 30
0.0
 10
11.4115046757
 20
9.5398796932
 30
0.0
 10
11.4104631417
 20
9.5408299233
 30
0.0
 10
11.4090852123
 20
9.5419094031
 30
0.0
 10
11.407642951
 20
9.5427799168
 30
0.0
 10
11.4061546642
 20
9.5433948506
 30
0.0
 10
11.4050520805
 20
9.5437192149
 30
0.0
 10
11.4039442757
 20
9.5439144587
 30
0.0
 10
11.4032020565
 20
9.5439579489
 30
0.0
 10
11.4028334138
 20
9.5439579051
 30
0.0
  0
SPLINE
  5
402
100
AcDbEntity
  8
0
100
AcDbSpline
 62
7
  6
CONTINUOUS
 70
0
 71
3
 72
20
 73
16
 74
0
 42
0.0000001
 43
0.0000001
 44
0.0000000001
 40
0.0
 40
0.0
 40
0.0
 40
0.0
 40
0.0720502447
 40
0.1429737885
 40
0.2807970617
 40
0.4129157665
 40
0.5392467422
 40
0.6003546221
 40
0.6601648192
 40
0.7187893389
 40
0.7763707241
 40
0.8330762014
 40
0.8890974023
 40
0.9446586536
 40
1.0
 40
1.0
 40
1.0
 40
1.0
 10
10.9499384539
 20
9.4820820155
 30
0.0
 10
10.9514395573
 20
9.4822302109
 30
0.0
 10
10.9544271634
 20
9.4824429688
 30
0.0
 10
10.9603073899
 20
9.4825296701
 30
0.0
 10
10.9674441324
 20
9.4820137991
 30
0.0
 10
10.9755993218
 20
9.4803715914
 30
0.0
 10
10.9819381409
 20
9.4781519783
 30
0.0
 10
10.9865990171
 20
9.475889921
 30
0.0
 10
10.9898440428
 20
9.4739846418
 30
0.0
 10
10.9928603033
 20
9.4718602105
 30
0.0
 10
10.995633629
 20
9.469526504
 30
0.0
 10
10.9981513353
 20
9.4669951011
 30
0.0
 10
11.0004005208
 20
9.464276684
 30
0.0
 10
11.0023709718
 20
9.4613846648
 30
0.0
 10
11.0034934121
 20
9.4593475142
 30
0.0
 10
11.0040036756
 20
9.4583073364
 30
0.0
  0
SPLINE
  5
403
100
AcDbEntity
  8
0
100
AcDbSpline
 62
7
  6
CONTINUOUS
 70
0
 71
3
 72
24
 73
20
 74
0
 42
0.0000001
 43
0.0000001
 44
0.0000000001
 40
0.0
 40
0.0
 40
0.0
 40
0.0
 40
0.0426282625
 40
0.0859986659
 40
0.1308075271
 40
0.1776740909
 40
0.2020520425
 40
0.2271270267
 40
0.2795401582
 40
0.335247855
 40
0.3944634613
 40
0.457322027
 40
0.5239041246
 40
0.5942362723
 40
0.6682994551
 40
0.7460458992
 40
0.8273714268
 40
0.9120915457
 40
1.0
 40
1.0
 40
1.0
 40
1.0
 10
11.4028334138
 20
9.5439579051
 30
0.0
 10
11.4023761126
 20
9.5439578507
 30
0.0
 10
11.4014522246
 20
9.5438903925
 30
0.0
 10
11.4000772231
 20
9.543589237
 30
0.0
 10
11.3987130005
 20
9.5430895492
 30
0.0
 10
11.3976039363
 20
9.5425170596
 30
0.0
 10
11.3967281577
 20
9.541967972
 30
0.0
 10
11.3958342062
 20
9.5413386389
 30
0.0
 10
11.394730384
 20
9.5404275319
 30
0.0
 10
11.3934522499
 20
9.5391641543
 30
0.0
 10
11.392204556
 20
9.5377193949
 30
0.0
 10
11.3909908833
 20
9.5360980392
 30
0.0
 10
11.3898150918
 20
9.5343048151
 30
0.0
 10
11.3886806116
 20
9.5323451837
 30
0.0
 10
11.387590553
 20
9.5302250415
 30
0.0
 10
11.3865485031
 20
9.5279506224
 30
0.0
 10
11.3855579648
 20
9.5255294071
 30
0.0
 10
11.3846219452
 20
9.522970315
 30
0.0
 10
11.3840467305
 20
9.5212095807
 30
0.0
 10
11.3837682971
 20
9.5203085699
 30
0.0
  0
SPLINE
  5
404
100
AcDbEntity
  8
0
100
AcDbSpline
 62
7
  6
CONTINUOUS
 70
0
 71
3
 72
21
 73
17
 74
0
 42
0.0000001
 43
0.0000001
 44
0.0000000001
 40
0.0
 40
0.0
 40
0.0
 40
0.0
 40
0.0426346271
 40
0.0860130216
 40
0.1308320951
 40
0.1777041294
 40
0.2794482405
 40
0.3351652261
 40
0.3943814533
 40
0.4572442226
 40
0.5238366454
 40
0.5941831706
 40
0.66827193
 40
0.7460571957
 40
0.827406285
 40
1.0
 40
1.0
 40
1.0
 40
1.0
 10
11.3810474449
 20
9.3709586764
 30
0.0
 10
11.3813401098
 20
9.370958626
 30
0.0
 10
11.3819314269
 20
9.3710015366
 30
0.0
 10
11.3828113899
 20
9.371194508
 30
0.0
 10
11.3836844684
 20
9.3715145557
 30
0.0
 10
11.3848671134
 20
9.3721245495
 30
0.0
 10
11.3859928589
 20
9.3729805303
 30
0.0
 10
11.3870512076
 20
9.3740266118
 30
0.0
 10
11.3878500095
 20
9.374951151
 30
0.0
 10
11.3886266147
 20
9.375988702
 30
0.0
 10
11.3893790383
 20
9.3771363864
 30
0.0
 10
11.3901052147
 20
9.3783905859
 30
0.0
 10
11.3908029799
 20
9.3797477163
 30
0.0
 10
11.3914698818
 20
9.3812037298
 30
0.0
 10
11.3923322275
 20
9.3833117735
 30
0.0
 10
11.3928993197
 20
9.3849621744
 30
0.0
 10
11.3932491193
 20
9.3860941262
 30
0.0
  0
SPLINE
  5
405
100
AcDbEntity
  8
0
100
AcDbSpline
 62
7
  6
CONTINUOUS
 70
0
 71
3
 72
25
 73
21
 74
0
 42
0.0000001
 43
0.0000001
 44
0.0000000001
 40
0.0
 40
0.0
 40
0.0
 40
0.0
 40
0.0881999784
 40
0.1746302242
 40
0.258754922
 40
0.3400764309
 40
0.418123056
 40
0.4924683927
 40
0.5627453037
 40
0.6286355952
 40
0.6899207297
 40
0.7464628773
 40
0.7982600751
 40
0.8454726693
 40
0.8884583295
 40
0.9278547475
 40
0.9465068839
 40
0.9646370706
 40
0.9824096505
 40
1.0
 40
1.0
 40
1.0
 40
1.0
 10
11.4181410632
 20
9.4888606208
 30
0.0
 10
11.4180585425
 20
9.4899855175
 30
0.0
 10
11.4178568045
 20
9.4922101369
 30
0.0
 10
11.4174404516
 20
9.4954935614
 30
0.0
 10
11.4169152226
 20
9.4986723198
 30
0.0
 10
11.4162855886
 20
9.5017227305
 30
0.0
 10
11.4155561399
 20
9.5046221594
 30
0.0
 10
11.4147320436
 20
9.5073490367
 30
0.0
 10
11.4138201355
 20
9.5098834108
 30
0.0
 10
11.4128262398
 20
9.5122064341
 30
0.0
 10
11.4117584604
 20
9.5143014684
 30
0.0
 10
11.4106237963
 20
9.5161533025
 30
0.0
 10
11.4094299907
 20
9.5177486486
 30
0.0
 10
11.4081848159
 20
9.5190766287
 30
0.0
 10
11.4068948879
 20
9.5201261697
 30
0.0
 10
11.4057677922
 20
9.5207731736
 30
0.0
 10
11.4048599892
 20
9.5211306328
 30
0.0
 10
11.4041869028
 20
9.5213191059
 30
0.0
 10
11.4035109812
 20
9.5214324339
 30
0.0
 10
11.4030583625
 20
9.5214577567
 30
0.0
 10
11.4028334135
 20
9.5214577954
 30
0.0
  0
SPLINE
  5
406
100
AcDbEntity
  8
0
100
AcDbSpline
 62
7
  6
CONTINUOUS
 70
0
 71
3
 72
34
 73
30
 74
0
 42
0.0000001
 43
0.0000001
 44
0.0000000001
 40
0.0
 40
0.0
 40
0.0
 40
0.0
 40
0.0330342808
 40
0.0673799297
 40
0.1393937683
 40
0.2149075242
 40
0.2927400718
 40
0.371602736
 40
0.4501864685
 40
0.5271910554
 40
0.5647102502
 40
0.6013700054
 40
0.6370262384
 40
0.6715460574
 40
0.7048022261
 40
0.7366814942
 40
0.7670848479
 40
0.7959247449
 40
0.8231381637
 40
0.8486807876
 40
0.8725347319
 40
0.8947198531
 40
0.9152908272
 40
0.9343565704
 40
0.952086124
 40
0.9687152027
 40
0.984556659
 40
0.9923046339
 40
1.0
 40
1.0
 40
1.0
 40
1.0
 10
11.3619823279
 20
9.449809148
 30
0.0
 10
11.3616218981
 20
9.4486427966
 30
0.0
 10
11.3609360022
 20
9.4462483227
 30
0.0
 10
11.3597023973
 20
9.4412460146
 30
0.0
 10
11.3584383635
 20
9.4346393791
 30
0.0
 10
11.3573795531
 20
9.4263741969
 30
0.0
 10
11.3567760886
 20
9.417809723
 30
0.0
 10
11.3566405393
 20
9.4091118132
 30
0.0
 10
11.3569754338
 20
9.4004500486
 30
0.0
 10
11.3576463952
 20
9.393341113
 30
0.0
 10
11.3584188766
 20
9.3878070985
 30
0.0
 10
11.3591035974
 20
9.3838056332
 30
0.0
 10
11.3598956972
 20
9.3799370809
 30
0.0
 10
11.3607906925
 20
9.3762202036
 30
0.0
 10
11.3617846109
 20
9.3726731916
 30
0.0
 10
11.3628725734
 20
9.369313323
 30
0.0
 10
11.3640488175
 20
9.3661567743
 30
0.0
 10
11.365308323
 20
9.3632190263
 30
0.0
 10
11.3666444711
 20
9.3605140526
 30
0.0
 10
11.3680509845
 20
9.3580547693
 30
0.0
 10
11.3695218002
 20
9.3558531755
 30
0.0
 10
11.3710495179
 20
9.3539192343
 30
0.0
 10
11.3726282361
 20
9.3522625843
 30
0.0
 10
11.3742512767
 20
9.3508914321
 30
0.0
 10
11.3759120912
 20
9.3498127919
 30
0.0
 10
11.3776041385
 20
9.3490350017
 30
0.0
 10
11.3790451145
 20
9.3486397695
 30
0.0
 10
11.3801919963
 20
9.3484842919
 30
0.0
 10
11.3807630645
 20
9.3484585329
 30
0.0
 10
11.3810474446
 20
9.3484585667
 30
0.0
  0
SPLINE
  5
407
100
AcDbEntity
  8
0
100
AcDbSpline
 62
7
  6
CONTINUOUS
 70
0
 71
3
 72
19
 73
15
 74
0
 42
0.0000001
 43
0.0000001
 44
0.0000000001
 40
0.0
 40
0.0
 40
0.0
 40
0.0
 40
0.141244203
 40
0.2776088773
 40
0.4086185456
 40
0.4721846697
 40
0.5344987885
 40
0.6555856641
 40
0.7146265702
 40
0.772797953
 40
0.8302507972
 40
0.8871495823
 40
0.9436700852
 40
1.0
 40
1.0
 40
1.0
 40
1.0
 10
11.0620016784
 20
9.4507489392
 30
0.0
 10
11.0631027044
 20
9.4507489392
 30
0.0
 10
11.0652687418
 20
9.4506382693
 30
0.0
 10
11.0684192215
 20
9.4501267071
 30
0.0
 10
11.0709050194
 20
9.4494096186
 30
0.0
 10
11.0727668679
 20
9.4486685995
 30
0.0
 10
11.0745043732
 20
9.4478370701
 30
0.0
 10
11.0761216505
 20
9.4468439464
 30
0.0
 10
11.0775849317
 20
9.4456972173
 30
0.0
 10
11.0785887921
 20
9.4447751818
 30
0.0
 10
11.0795042569
 20
9.4437880469
 30
0.0
 10
11.0803281756
 20
9.4427395095
 30
0.0
 10
11.0810571155
 20
9.4416333895
 30
0.0
 10
11.0814780795
 20
9.4408595535
 30
0.0
 10
11.0816714847
 20
9.4404653384
 30
0.0
  0
SPLINE
  5
408
100
AcDbEntity
  8
0
100
AcDbSpline
 62
7
  6
CONTINUOUS
 70
0
 71
3
 72
21
 73
17
 74
0
 42
0.0000001
 43
0.0000001
 44
0.0000000001
 40
0.0
 40
0.0
 40
0.0
 40
0.0
 40
0.0426346271
 40
0.0860130216
 40
0.1308320951
 40
0.1777041294
 40
0.2794482405
 40
0.3351652261
 40
0.3943814533
 40
0.4572442226
 40
0.5238366454
 40
0.5941831706
 40
0.66827193
 40
0.7460571957
 40
0.827406285
 40
1.0
 40
1.0
 40
1.0
 40
1.0
 10
11.2091803547
 20
8.8947962677
 30
0.0
 10
11.2088876898
 20
8.8947963181
 30
0.0
 10
11.2082963727
 20
8.8947534075
 30
0.0
 10
11.2074164097
 20
8.8945604361
 30
0.0
 10
11.2065433312
 20
8.8942403884
 30
0.0
 10
11.2053606862
 20
8.8936303946
 30
0.0
 10
11.2042349407
 20
8.8927744139
 30
0.0
 10
11.203176592
 20
8.8917283323
 30
0.0
 10
11.2023777901
 20
8.8908037931
 30
0.0
 10
11.2016011849
 20
8.8897662421
 30
0.0
 10
11.2008487613
 20
8.8886185577
 30
0.0
 10
11.2001225849
 20
8.8873643582
 30
0.0
 10
11.1994248197
 20
8.8860072278
 30
0.0
 10
11.1987579178
 20
8.8845512143
 30
0.0
 10
11.1978955721
 20
8.8824431706
 30
0.0
 10
11.1973284799
 20
8.8807927697
 30
0.0
 10
11.1969786803
 20
8.8796608179
 30
0.0
  0
SPLINE
  5
409
100
AcDbEntity
  8
0
100
AcDbSpline
 62
7
  6
CONTINUOUS
 70
0
 71
3
 72
24
 73
20
 74
0
 42
0.0000001
 43
0.0000001
 44
0.0000000001
 40
0.0
 40
0.0
 40
0.0
 40
0.0
 40
0.0426282625
 40
0.0859986659
 40
0.1308075271
 40
0.1776740909
 40
0.2020520425
 40
0.2271270267
 40
0.2795401582
 40
0.335247855
 40
0.3944634613
 40
0.457322027
 40
0.5239041246
 40
0.5942362723
 40
0.6682994551
 40
0.7460458992
 40
0.8273714268
 40
0.9120915457
 40
1.0
 40
1.0
 40
1.0
 40
1.0
 10
11.1873943858
 20
8.721797039
 30
0.0
 10
11.187851687
 20
8.7217970934
 30
0.0
 10
11.188775575
 20
8.7218645516
 30
0.0
 10
11.1901505765
 20
8.7221657071
 30
0.0
 10
11.1915147991
 20
8.7226653949
 30
0.0
 10
11.1926238633
 20
8.7232378845
 30
0.0
 10
11.1934996419
 20
8.7237869721
 30
0.0
 10
11.1943935934
 20
8.7244163052
 30
0.0
 10
11.1954974156
 20
8.7253274122
 30
0.0
 10
11.1967755497
 20
8.7265907898
 30
0.0
 10
11.1980232436
 20
8.7280355492
 30
0.0
 10
11.1992369163
 20
8.7296569049
 30
0.0
 10
11.2004127079
 20
8.731450129
 30
0.0
 10
11.201547188
 20
8.7334097604
 30
0.0
 10
11.2026372466
 20
8.7355299026
 30
0.0
 10
11.2036792965
 20
8.7378043217
 30
0.0
 10
11.2046698348
 20
8.740225537
 30
0.0
 10
11.2056058544
 20
8.7427846291
 30
0.0
 10
11.2061810691
 20
8.7445453634
 30
0.0
 10
11.2064595026
 20
8.7454463742
 30
0.0
  0
SPLINE
  5
40A
100
AcDbEntity
  8
0
100
AcDbSpline
 62
7
  6
CONTINUOUS
 70
0
 71
3
 72
15
 73
11
 74
0
 42
0.0000001
 43
0.0000001
 44
0.0000000001
 40
0.0
 40
0.0
 40
0.0
 40
0.0
 40
0.1387354778
 40
0.2739464997
 40
0.4051193376
 40
0.5320901972
 40
0.6548372513
 40
0.7734791915
 40
0.8883548103
 40
1.0
 40
1.0
 40
1.0
 40
1.0
 10
10.7660467349
 20
8.8355289689
 30
0.0
 10
10.7683025336
 20
8.835751671
 30
0.0
 10
10.7727773384
 20
8.8360091353
 30
0.0
 10
10.7794020849
 20
8.8358170019
 30
0.0
 10
10.7857917289
 20
8.8350405525
 30
0.0
 10
10.7918770882
 20
8.833688134
 30
0.0
 10
10.7975953353
 20
8.8317736138
 30
0.0
 10
10.8028856695
 20
8.8293139954
 30
0.0
 10
10.8076907091
 20
8.8263358322
 30
0.0
 10
10.8105721
 20
8.8239929746
 30
0.0
 10
10.8119062452
 20
8.8227489665
 30
0.0
  0
SPLINE
  5
40B
100
AcDbEntity
  8
0
100
AcDbSpline
 62
7
  6
CONTINUOUS
 70
0
 71
3
 72
11
 73
7
 74
0
 42
0.0000001
 43
0.0000001
 44
0.0000000001
 40
0.0
 40
0.0
 40
0.0
 40
0.0
 40
0.2626108514
 40
0.5172415338
 40
0.7630210269
 40
1.0
 40
1.0
 40
1.0
 40
1.0
 10
10.8781099594
 20
8.8041958925
 30
0.0
 10
10.879097608
 20
8.8041958925
 30
0.0
 10
10.8810442614
 20
8.8041065821
 30
0.0
 10
10.8838891499
 20
8.8036953704
 30
0.0
 10
10.8865818702
 20
8.8030104432
 30
0.0
 10
10.8882843884
 20
8.8023655812
 30
0.0
 10
10.8890967262
 20
8.8019989286
 30
0.0
  0
SPLINE
  5
40C
100
AcDbEntity
  8
0
100
AcDbSpline
 62
7
  6
CONTINUOUS
 70
0
 71
3
 72
24
 73
20
 74
0
 42
0.0000001
 43
0.0000001
 44
0.0000000001
 40
0.0
 40
0.0
 40
0.0
 40
0.0
 40
0.0426282625
 40
0.0859986659
 40
0.1308075271
 40
0.1776740909
 40
0.2020520425
 40
0.2271270267
 40
0.2795401582
 40
0.335247855
 40
0.3944634613
 40
0.457322027
 40
0.5239041246
 40
0.5942362723
 40
0.6682994551
 40
0.7460458992
 40
0.8273714268
 40
0.9120915457
 40
1.0
 40
1.0
 40
1.0
 40
1.0
 10
10.9789151065
 20
8.9172963774
 30
0.0
 10
10.9784578054
 20
8.917296323
 30
0.0
 10
10.9775339173
 20
8.9172288648
 30
0.0
 10
10.9761589159
 20
8.9169277093
 30
0.0
 10
10.9747946933
 20
8.9164280215
 30
0.0
 10
10.9736856291
 20
8.9158555319
 30
0.0
 10
10.9728098505
 20
8.9153064443
 30
0.0
 10
10.971915899
 20
8.9146771112
 30
0.0
 10
10.9708120768
 20
8.9137660042
 30
0.0
 10
10.9695339426
 20
8.9125026266
 30
0.0
 10
10.9682862488
 20
8.9110578672
 30
0.0
 10
10.9670725761
 20
8.9094365115
 30
0.0
 10
10.9658967845
 20
8.9076432874
 30
0.0
 10
10.9647623043
 20
8.905683656
 30
0.0
 10
10.9636722458
 20
8.9035635138
 30
0.0
 10
10.9626301959
 20
8.9012890947
 30
0.0
 10
10.9616396576
 20
8.8988678794
 30
0.0
 10
10.960703638
 20
8.8963087873
 30
0.0
 10
10.9601284232
 20
8.894548053
 30
0.0
 10
10.9598499898
 20
8.8936470422
 30
0.0
  0
SPLINE
  5
40D
100
AcDbEntity
  8
0
100
AcDbSpline
 62
7
  6
CONTINUOUS
 70
0
 71
3
 72
17
 73
13
 74
0
 42
0.0000001
 43
0.0000001
 44
0.0000000001
 40
0.0
 40
0.0
 40
0.0
 40
0.0
 40
0.0609151048
 40
0.1228861717
 40
0.24914791
 40
0.3774818157
 40
0.5064483918
 40
0.634538388
 40
0.760298753
 40
0.8824560586
 40
0.9418878103
 40
1.0
 40
1.0
 40
1.0
 40
1.0
 10
10.7985609806
 20
8.7770877969
 30
0.0
 10
10.7974294717
 20
8.7757750432
 30
0.0
 10
10.7950598509
 20
8.7732004245
 30
0.0
 10
10.7899436831
 20
8.7682890364
 30
0.0
 10
10.7828892455
 20
8.7626525697
 30
0.0
 10
10.7736196235
 20
8.7568511251
 30
0.0
 10
10.7637104951
 20
8.7521029869
 30
0.0
 10
10.7533987913
 20
8.7485235727
 30
0.0
 10
10.7429323212
 20
8.7461978286
 30
0.0
 10
10.7342038632
 20
8.7453447123
 30
0.0
 10
10.7273800534
 20
8.7453520418
 30
0.0
 10
10.7240404004
 20
8.7455818406
 30
0.0
 10
10.7223961099
 20
8.7457547205
 30
0.0
  0
SPLINE
  5
40E
100
AcDbEntity
  8
0
100
AcDbSpline
 62
7
  6
CONTINUOUS
 70
0
 71
3
 72
27
 73
23
 74
0
 42
0.0000001
 43
0.0000001
 44
0.0000000001
 40
0.0
 40
0.0
 40
0.0
 40
0.0
 40
0.0251958078
 40
0.0504969587
 40
0.0760066377
 40
0.1018213709
 40
0.1280274572
 40
0.1547023829
 40
0.1819113
 40
0.2097035504
 40
0.2381170939
 40
0.2671780222
 40
0.3272354777
 40
0.3898600814
 40
0.4548235365
 40
0.5217646532
 40
0.5902087781
 40
0.7292088789
 40
0.7987163885
 40
0.8673766771
 40
0.9346692169
 40
1.0
 40
1.0
 40
1.0
 40
1.0
 10
10.8880184259
 20
8.8138038107
 30
0.0
 10
10.8882338072
 20
8.813364802
 30
0.0
 10
10.8886243844
 20
8.8124641097
 30
0.0
 10
10.8890829979
 20
8.8110599449
 30
0.0
 10
10.8894121792
 20
8.8096075211
 30
0.0
 10
10.8896108904
 20
8.8081139925
 30
0.0
 10
10.8896786789
 20
8.8065862633
 30
0.0
 10
10.8896147094
 20
8.805031378
 30
0.0
 10
10.8894194192
 20
8.8034565726
 30
0.0
 10
10.889094419
 20
8.8018690144
 30
0.0
 10
10.8886409213
 20
8.8002759051
 30
0.0
 10
10.8878588995
 20
8.7981313466
 30
0.0
 10
10.8865638899
 20
8.7954758116
 30
0.0
 10
10.8845632482
 20
8.7924224938
 30
0.0
 10
10.8821370677
 20
8.7895195535
 30
0.0
 10
10.8793283994
 20
8.7868195338
 30
0.0
 10
10.8751241006
 20
8.7835397866
 30
0.0
 10
10.8704049991
 20
8.7808809324
 30
0.0
 10
10.8653794613
 20
8.7789450956
 30
0.0
 10
10.861527796
 20
8.7778850196
 30
0.0
 10
10.8576684151
 20
8.7772389934
 30
0.0
 10
10.8550925707
 20
8.7770877969
 30
0.0
 10
10.8538246402
 20
8.7770877969
 30
0.0
  0
SPLINE
  5
40F
100
AcDbEntity
  8
0
100
AcDbSpline
 62
7
  6
CONTINUOUS
 70
0
 71
3
 72
32
 73
28
 74
0
 42
0.0000001
 43
0.0000001
 44
0.0000000001
 40
0.0
 40
0.0
 40
0.0
 40
0.0
 40
0.0330263777
 40
0.0673721912
 40
0.1394000411
 40
0.2149139374
 40
0.2927462453
 40
0.3716119656
 40
0.4501978323
 40
0.5272039806
 40
0.6013751208
 40
0.6370331349
 40
0.6715539532
 40
0.7048099037
 40
0.7366906799
 40
0.7670949169
 40
0.7959349196
 40
0.8231491215
 40
0.8486930198
 40
0.8725469178
 40
0.8947321357
 40
0.9153050114
 40
0.9343702234
 40
0.9520998512
 40
0.9687304727
 40
0.9845715768
 40
1.0
 40
1.0
 40
1.0
 40
1.0
 10
11.1751927112
 20
8.809161396
 30
0.0
 10
11.1749620971
 20
8.8084151285
 30
0.0
 10
11.1745232279
 20
8.806882867
 30
0.0
 10
11.1737337521
 20
8.8036813167
 30
0.0
 10
11.1729245484
 20
8.7994528799
 30
0.0
 10
11.1722468334
 20
8.7941629713
 30
0.0
 10
11.1718608625
 20
8.7886817508
 30
0.0
 10
11.1717740129
 20
8.7831151553
 30
0.0
 10
11.1719881748
 20
8.777571463
 30
0.0
 10
11.1724993617
 20
8.772158746
 30
0.0
 10
11.1731725192
 20
8.7677884398
 30
0.0
 10
11.1738572592
 20
8.7644433113
 30
0.0
 10
11.1744300073
 20
8.762064482
 30
0.0
 10
11.1750662548
 20
8.7597944432
 30
0.0
 10
11.1757624617
 20
8.7576441054
 30
0.0
 10
11.1765152389
 20
8.7556239
 30
0.0
 10
11.1773213757
 20
8.7537437742
 30
0.0
 10
11.178176514
 20
8.7520125923
 30
0.0
 10
11.1790766094
 20
8.7504386073
 30
0.0
 10
11.1800179636
 20
8.7490296146
 30
0.0
 10
11.1809958084
 20
8.7477919775
 30
0.0
 10
11.1820059815
 20
8.7467315356
 30
0.0
 10
11.1830448626
 20
8.7458540991
 30
0.0
 10
11.1841077884
 20
8.7451639569
 30
0.0
 10
11.1851907571
 20
8.7446657352
 30
0.0
 10
11.1862883495
 20
8.7443648035
 30
0.0
 10
11.1870294974
 20
8.7442972115
 30
0.0
 10
11.1873943861
 20
8.7442971487
 30
0.0
  0
SPLINE
  5
410
100
AcDbEntity
  8
0
100
AcDbSpline
 62
7
  6
CONTINUOUS
 70
0
 71
3
 72
34
 73
30
 74
0
 42
0.0000001
 43
0.0000001
 44
0.0000000001
 40
0.0
 40
0.0
 40
0.0
 40
0.0
 40
0.0330342808
 40
0.0673799297
 40
0.1393937683
 40
0.2149075242
 40
0.2927400718
 40
0.371602736
 40
0.4501864685
 40
0.5271910554
 40
0.5647102502
 40
0.6013700054
 40
0.6370262384
 40
0.6715460574
 40
0.7048022261
 40
0.7366814942
 40
0.7670848479
 40
0.7959247449
 40
0.8231381637
 40
0.8486807876
 40
0.8725347319
 40
0.8947198531
 40
0.9152908272
 40
0.9343565704
 40
0.952086124
 40
0.9687152027
 40
0.984556659
 40
0.9923046339
 40
1.0
 40
1.0
 40
1.0
 40
1.0
 10
10.9380640207
 20
8.8231476203
 30
0.0
 10
10.9377035909
 20
8.8219812689
 30
0.0
 10
10.937017695
 20
8.819586795
 30
0.0
 10
10.93578409
 20
8.8145844869
 30
0.0
 10
10.9345200563
 20
8.8079778514
 30
0.0
 10
10.9334612459
 20
8.7997126692
 30
0.0
 10
10.9328577813
 20
8.7911481953
 30
0.0
 10
10.932722232
 20
8.7824502855
 30
0.0
 10
10.9330571266
 20
8.7737885209
 30
0.0
 10
10.933728088
 20
8.7666795853
 30
0.0
 10
10.9345005694
 20
8.7611455708
 30
0.0
 10
10.9351852902
 20
8.7571441055
 30
0.0
 10
10.93597739
 20
8.7532755532
 30
0.0
 10
10.9368723853
 20
8.7495586759
 30
0.0
 10
10.9378663037
 20
8.7460116639
 30
0.0
 10
10.9389542662
 20
8.7426517953
 30
0.0
 10
10.9401305103
 20
8.7394952466
 30
0.0
 10
10.9413900158
 20
8.7365574986
 30
0.0
 10
10.9427261639
 20
8.7338525249
 30
0.0
 10
10.9441326773
 20
8.7313932416
 30
0.0
 10
10.945603493
 20
8.7291916478
 30
0.0
 10
10.9471312107
 20
8.7272577066
 30
0.0
 10
10.9487099289
 20
8.7256010566
 30
0.0
 10
10.9503329694
 20
8.7242299044
 30
0.0
 10
10.951993784
 20
8.7231512642
 30
0.0
 10
10.9536858312
 20
8.722373474
 30
0.0
 10
10.9551268073
 20
8.7219782418
 30
0.0
 10
10.9562736891
 20
8.7218227642
 30
0.0
 10
10.9568447573
 20
8.7217970052
 30
0.0
 10
10.9571291373
 20
8.721797039
 30
0.0
  0
SPLINE
  5
411
100
AcDbEntity
  8
0
100
AcDbSpline
 62
7
  6
CONTINUOUS
 70
0
 71
3
 72
28
 73
24
 74
0
 42
0.0000001
 43
0.0000001
 44
0.0000000001
 40
0.0
 40
0.0
 40
0.0
 40
0.0
 40
0.0874254775
 40
0.1734401067
 40
0.2574573462
 40
0.3389135348
 40
0.4172808882
 40
0.4920728291
 40
0.5628571347
 40
0.6292677352
 40
0.6910193294
 40
0.7479313191
 40
0.774556702
 40
0.7999676371
 40
0.8241840156
 40
0.847237901
 40
0.8691806294
 40
0.8900820339
 40
0.9290903482
 40
0.9474781823
 40
0.9653078239
 40
0.9827524223
 40
1.0
 40
1.0
 40
1.0
 40
1.0
 10
11.2333476952
 20
8.8621976437
 30
0.0
 10
11.2332609717
 20
8.864064227
 30
0.0
 10
11.2330233142
 20
8.8677645906
 30
0.0
 10
11.2324698192
 20
8.8732406941
 30
0.0
 10
11.2317261203
 20
8.8785655918
 30
0.0
 10
11.2307983615
 20
8.8836956201
 30
0.0
 10
11.2296941771
 20
8.888588833
 30
0.0
 10
11.2284227913
 20
8.893205372
 30
0.0
 10
11.2269944935
 20
8.8975076416
 30
0.0
 10
11.2254211562
 20
8.901461072
 30
0.0
 10
11.2237152011
 20
8.905033525
 30
0.0
 10
11.222161669
 20
8.9077272377
 30
0.0
 10
11.2208575387
 20
8.9096574279
 30
0.0
 10
11.2198771188
 20
8.9109603271
 30
0.0
 10
11.2188745488
 20
8.9121481409
 30
0.0
 10
11.217851617
 20
8.9132181655
 30
0.0
 10
11.216810083
 20
8.9141683956
 30
0.0
 10
11.2154321536
 20
8.9152478754
 30
0.0
 10
11.2139898923
 20
8.9161183891
 30
0.0
 10
11.2125016055
 20
8.9167333229
 30
0.0
 10
11.2113990217
 20
8.9170576872
 30
0.0
 10
11.210291217
 20
8.917252931
 30
0.0
 10
11.2095489978
 20
8.9172964212
 30
0.0
 10
11.209180355
 20
8.9172963774
 30
0.0
  0
SPLINE
  5
412
100
AcDbEntity
  8
0
100
AcDbSpline
 62
7
  6
CONTINUOUS
 70
0
 71
3
 72
20
 73
16
 74
0
 42
0.0000001
 43
0.0000001
 44
0.0000000001
 40
0.0
 40
0.0
 40
0.0
 40
0.0
 40
0.0720502447
 40
0.1429737885
 40
0.2807970617
 40
0.4129157665
 40
0.5392467422
 40
0.6003546221
 40
0.6601648192
 40
0.7187893389
 40
0.7763707241
 40
0.8330762014
 40
0.8890974023
 40
0.9446586536
 40
1.0
 40
1.0
 40
1.0
 40
1.0
 10
10.7562853951
 20
8.8554204878
 30
0.0
 10
10.7577864986
 20
8.8555686832
 30
0.0
 10
10.7607741047
 20
8.8557814411
 30
0.0
 10
10.7666543311
 20
8.8558681424
 30
0.0
 10
10.7737910737
 20
8.8553522714
 30
0.0
 10
10.781946263
 20
8.8537100637
 30
0.0
 10
10.7882850822
 20
8.8514904506
 30
0.0
 10
10.7929459583
 20
8.8492283933
 30
0.0
 10
10.7961909841
 20
8.8473231141
 30
0.0
 10
10.7992072446
 20
8.8451986828
 30
0.0
 10
10.8019805703
 20
8.8428649763
 30
0.0
 10
10.8044982766
 20
8.8403335734
 30
0.0
 10
10.8067474621
 20
8.8376151563
 30
0.0
 10
10.8087179131
 20
8.8347231371
 30
0.0
 10
10.8098403534
 20
8.8326859865
 30
0.0
 10
10.8103506169
 20
8.8316458087
 30
0.0
  0
SPLINE
  5
413
100
AcDbEntity
  8
0
100
AcDbSpline
 62
7
  6
CONTINUOUS
 70
0
 71
3
 72
24
 73
20
 74
0
 42
0.0000001
 43
0.0000001
 44
0.0000000001
 40
0.0
 40
0.0
 40
0.0
 40
0.0
 40
0.0426282625
 40
0.0859986659
 40
0.1308075271
 40
0.1776740909
 40
0.2020520425
 40
0.2271270267
 40
0.2795401582
 40
0.335247855
 40
0.3944634613
 40
0.457322027
 40
0.5239041246
 40
0.5942362723
 40
0.6682994551
 40
0.7460458992
 40
0.8273714268
 40
0.9120915457
 40
1.0
 40
1.0
 40
1.0
 40
1.0
 10
11.209180355
 20
8.9172963774
 30
0.0
 10
11.2087230539
 20
8.917296323
 30
0.0
 10
11.2077991658
 20
8.9172288648
 30
0.0
 10
11.2064241644
 20
8.9169277093
 30
0.0
 10
11.2050599418
 20
8.9164280215
 30
0.0
 10
11.2039508776
 20
8.9158555319
 30
0.0
 10
11.203075099
 20
8.9153064443
 30
0.0
 10
11.2021811475
 20
8.9146771112
 30
0.0
 10
11.2010773253
 20
8.9137660042
 30
0.0
 10
11.1997991911
 20
8.9125026266
 30
0.0
 10
11.1985514973
 20
8.9110578672
 30
0.0
 10
11.1973378246
 20
8.9094365115
 30
0.0
 10
11.196162033
 20
8.9076432874
 30
0.0
 10
11.1950275528
 20
8.905683656
 30
0.0
 10
11.1939374943
 20
8.9035635138
 30
0.0
 10
11.1928954444
 20
8.9012890947
 30
0.0
 10
11.1919049061
 20
8.8988678794
 30
0.0
 10
11.1909688865
 20
8.8963087873
 30
0.0
 10
11.1903936717
 20
8.894548053
 30
0.0
 10
11.1901152383
 20
8.8936470422
 30
0.0
  0
SPLINE
  5
414
100
AcDbEntity
  8
0
100
AcDbSpline
 62
7
  6
CONTINUOUS
 70
0
 71
3
 72
21
 73
17
 74
0
 42
0.0000001
 43
0.0000001
 44
0.0000000001
 40
0.0
 40
0.0
 40
0.0
 40
0.0
 40
0.0426346271
 40
0.0860130216
 40
0.1308320951
 40
0.1777041294
 40
0.2794482405
 40
0.3351652261
 40
0.3943814533
 40
0.4572442226
 40
0.5238366454
 40
0.5941831706
 40
0.66827193
 40
0.7460571957
 40
0.827406285
 40
1.0
 40
1.0
 40
1.0
 40
1.0
 10
11.1873943861
 20
8.7442971487
 30
0.0
 10
11.1876870511
 20
8.7442970983
 30
0.0
 10
11.1882783681
 20
8.7443400089
 30
0.0
 10
11.1891583312
 20
8.7445329803
 30
0.0
 10
11.1900314097
 20
8.744853028
 30
0.0
 10
11.1912140547
 20
8.7454630218
 30
0.0
 10
11.1923398002
 20
8.7463190025
 30
0.0
 10
11.1933981489
 20
8.7473650841
 30
0.0
 10
11.1941969508
 20
8.7482896233
 30
0.0
 10
11.194973556
 20
8.7493271743
 30
0.0
 10
11.1957259796
 20
8.7504748587
 30
0.0
 10
11.196452156
 20
8.7517290582
 30
0.0
 10
11.1971499212
 20
8.7530861886
 30
0.0
 10
11.1978168231
 20
8.7545422021
 30
0.0
 10
11.1986791688
 20
8.7566502458
 30
0.0
 10
11.199246261
 20
8.7583006467
 30
0.0
 10
11.1995960606
 20
8.7594325985
 30
0.0
  0
SPLINE
  5
415
100
AcDbEntity
  8
0
100
AcDbSpline
 62
7
  6
CONTINUOUS
 70
0
 71
3
 72
25
 73
21
 74
0
 42
0.0000001
 43
0.0000001
 44
0.0000000001
 40
0.0
 40
0.0
 40
0.0
 40
0.0
 40
0.0881999784
 40
0.1746302242
 40
0.258754922
 40
0.3400764309
 40
0.418123056
 40
0.4924683927
 40
0.5627453037
 40
0.6286355952
 40
0.6899207297
 40
0.7464628773
 40
0.7982600751
 40
0.8454726693
 40
0.8884583295
 40
0.9278547475
 40
0.9465068839
 40
0.9646370706
 40
0.9824096505
 40
1.0
 40
1.0
 40
1.0
 40
1.0
 10
11.2244880045
 20
8.8621990931
 30
0.0
 10
11.2244054838
 20
8.8633239898
 30
0.0
 10
11.2242037458
 20
8.8655486092
 30
0.0
 10
11.2237873929
 20
8.8688320337
 30
0.0
 10
11.2232621639
 20
8.8720107921
 30
0.0
 10
11.2226325299
 20
8.8750612028
 30
0.0
 10
11.2219030811
 20
8.8779606317
 30
0.0
 10
11.2210789849
 20
8.880687509
 30
0.0
 10
11.2201670767
 20
8.8832218831
 30
0.0
 10
11.2191731811
 20
8.8855449064
 30
0.0
 10
11.2181054017
 20
8.8876399407
 30
0.0
 10
11.2169707376
 20
8.8894917748
 30
0.0
 10
11.215776932
 20
8.8910871209
 30
0.0
 10
11.2145317572
 20
8.892415101
 30
0.0
 10
11.2132418291
 20
8.893464642
 30
0.0
 10
11.2121147334
 20
8.8941116459
 30
0.0
 10
11.2112069305
 20
8.8944691051
 30
0.0
 10
11.2105338441
 20
8.8946575782
 30
0.0
 10
11.2098579225
 20
8.8947709062
 30
0.0
 10
11.2094053037
 20
8.894796229
 30
0.0
 10
11.2091803547
 20
8.8947962677
 30
0.0
  0
SPLINE
  5
416
100
AcDbEntity
  8
0
100
AcDbSpline
 62
7
  6
CONTINUOUS
 70
0
 71
3
 72
34
 73
30
 74
0
 42
0.0000001
 43
0.0000001
 44
0.0000000001
 40
0.0
 40
0.0
 40
0.0
 40
0.0
 40
0.0330342808
 40
0.0673799297
 40
0.1393937683
 40
0.2149075242
 40
0.2927400718
 40
0.371602736
 40
0.4501864685
 40
0.5271910554
 40
0.5647102502
 40
0.6013700054
 40
0.6370262384
 40
0.6715460574
 40
0.7048022261
 40
0.7366814942
 40
0.7670848479
 40
0.7959247449
 40
0.8231381637
 40
0.8486807876
 40
0.8725347319
 40
0.8947198531
 40
0.9152908272
 40
0.9343565704
 40
0.952086124
 40
0.9687152027
 40
0.984556659
 40
0.9923046339
 40
1.0
 40
1.0
 40
1.0
 40
1.0
 10
11.1683292692
 20
8.8231476203
 30
0.0
 10
11.1679688394
 20
8.8219812689
 30
0.0
 10
11.1672829435
 20
8.819586795
 30
0.0
 10
11.1660493385
 20
8.8145844869
 30
0.0
 10
11.1647853048
 20
8.8079778514
 30
0.0
 10
11.1637264944
 20
8.7997126692
 30
0.0
 10
11.1631230298
 20
8.7911481953
 30
0.0
 10
11.1629874805
 20
8.7824502855
 30
0.0
 10
11.1633223751
 20
8.7737885209
 30
0.0
 10
11.1639933365
 20
8.7666795853
 30
0.0
 10
11.1647658179
 20
8.7611455708
 30
0.0
 10
11.1654505387
 20
8.7571441055
 30
0.0
 10
11.1662426385
 20
8.7532755532
 30
0.0
 10
11.1671376338
 20
8.7495586759
 30
0.0
 10
11.1681315522
 20
8.7460116639
 30
0.0
 10
11.1692195147
 20
8.7426517953
 30
0.0
 10
11.1703957588
 20
8.7394952466
 30
0.0
 10
11.1716552643
 20
8.7365574986
 30
0.0
 10
11.1729914124
 20
8.7338525249
 30
0.0
 10
11.1743979258
 20
8.7313932416
 30
0.0
 10
11.1758687415
 20
8.7291916478
 30
0.0
 10
11.1773964592
 20
8.7272577066
 30
0.0
 10
11.1789751774
 20
8.7256010566
 30
0.0
 10
11.1805982179
 20
8.7242299044
 30
0.0
 10
11.1822590325
 20
8.7231512642
 30
0.0
 10
11.1839510797
 20
8.722373474
 30
0.0
 10
11.1853920558
 20
8.7219782418
 30
0.0
 10
11.1865389376
 20
8.7218227642
 30
0.0
 10
11.1871100058
 20
8.7217970052
 30
0.0
 10
11.1873943858
 20
8.721797039
 30
0.0
  0
SPLINE
  5
417
100
AcDbEntity
  8
0
100
AcDbSpline
 62
7
  6
CONTINUOUS
 70
0
 71
3
 72
19
 73
15
 74
0
 42
0.0000001
 43
0.0000001
 44
0.0000000001
 40
0.0
 40
0.0
 40
0.0
 40
0.0
 40
0.141244203
 40
0.2776088773
 40
0.4086185456
 40
0.4721846697
 40
0.5344987885
 40
0.6555856641
 40
0.7146265702
 40
0.772797953
 40
0.8302507972
 40
0.8871495823
 40
0.9436700852
 40
1.0
 40
1.0
 40
1.0
 40
1.0
 10
10.8683486196
 20
8.8240874115
 30
0.0
 10
10.8694496457
 20
8.8240874115
 30
0.0
 10
10.8716156831
 20
8.8239767416
 30
0.0
 10
10.8747661628
 20
8.8234651794
 30
0.0
 10
10.8772519607
 20
8.8227480909
 30
0.0
 10
10.8791138092
 20
8.8220070718
 30
0.0
 10
10.8808513145
 20
8.8211755424
 30
0.0
 10
10.8824685918
 20
8.8201824187
 30
0.0
 10
10.8839318729
 20
8.8190356896
 30
0.0
 10
10.8849357334
 20
8.8181136541
 30
0.0
 10
10.8858511982
 20
8.8171265192
 30
0.0
 10
10.8866751169
 20
8.8160779818
 30
0.0
 10
10.8874040567
 20
8.8149718618
 30
0.0
 10
10.8878250207
 20
8.8141980258
 30
0.0
 10
10.8880184259
 20
8.8138038107
 30
0.0
  0
SPLINE
  5
418
100
AcDbEntity
  8
0
100
AcDbSpline
 62
7
  6
CONTINUOUS
 70
0
 71
3
 72
19
 73
15
 74
0
 42
0.0000001
 43
0.0000001
 44
0.0000000001
 40
0.0
 40
0.0
 40
0.0
 40
0.0
 40
0.1329858374
 40
0.2626421777
 40
0.3888059611
 40
0.5123359518
 40
0.5735830109
 40
0.6345685386
 40
0.6954080233
 40
0.7562604286
 40
0.817140273
 40
0.8780363703
 40
0.9389915741
 40
1.0
 40
1.0
 40
1.0
 40
1.0
 10
15.0228257886
 20
8.7681954384
 30
0.0
 10
15.0289104846
 20
8.7681954384
 30
0.0
 10
15.0409384343
 20
8.7687952629
 30
0.0
 10
15.0585387376
 20
8.7716398002
 30
0.0
 10
15.0752475186
 20
8.7765173674
 30
0.0
 10
15.0882568576
 20
8.7824217874
 30
0.0
 10
15.0978790989
 20
8.7882615254
 30
0.0
 10
15.1046587223
 20
8.7931991554
 30
0.0
 10
15.1109586904
 20
8.7987098793
 30
0.0
 10
15.1167081957
 20
8.8047875996
 30
0.0
 10
15.121845397
 20
8.8113947921
 30
0.0
 10
15.126302275
 20
8.8184861065
 30
0.0
 10
15.1299986023
 20
8.8260082664
 30
0.0
 10
15.1319289647
 20
8.8312568294
 30
0.0
 10
15.1327550313
 20
8.8339232076
 30
0.0
  0
SPLINE
  5
419
100
AcDbEntity
  8
0
100
AcDbSpline
 62
7
  6
CONTINUOUS
 70
0
 71
3
 72
23
 73
19
 74
0
 42
0.0000001
 43
0.0000001
 44
0.0000000001
 40
0.0
 40
0.0
 40
0.0
 40
0.0
 40
0.0714860827
 40
0.1466132457
 40
0.2242070803
 40
0.3031466447
 40
0.460466665
 40
0.6093559172
 40
0.6779835747
 40
0.7414846652
 40
0.799153238
 40
0.8505608168
 40
0.8955450758
 40
0.9157570334
 40
0.9345764608
 40
0.9686578903
 40
0.9845145285
 40
1.0
 40
1.0
 40
1.0
 40
1.0
 10
15.0072831361
 20
8.8400089252
 30
0.0
 10
15.0068420039
 20
8.8381842886
 30
0.0
 10
15.0060656718
 20
8.834410225
 30
0.0
 10
15.0052244143
 20
8.8285799954
 30
0.0
 10
15.0046927211
 20
8.8225168006
 30
0.0
 10
15.0044028869
 20
8.8142770906
 30
0.0
 10
15.0048236223
 20
8.8041537251
 30
0.0
 10
15.006265715
 20
8.7943921635
 30
0.0
 10
15.0080508126
 20
8.787226407
 30
0.0
 10
15.009608271
 20
8.7824864073
 30
0.0
 10
15.0113967217
 20
8.7783146934
 30
0.0
 10
15.0133798324
 20
8.7747784678
 30
0.0
 10
15.0152386053
 20
8.7723266553
 30
0.0
 10
15.0168099844
 20
8.7707721422
 30
0.0
 10
15.0183109894
 20
8.7695724219
 30
0.0
 10
15.0199244438
 20
8.7686997378
 30
0.0
 10
15.0215943697
 20
8.7682680913
 30
0.0
 10
15.0224191443
 20
8.7681976576
 30
0.0
 10
15.0228257884
 20
8.7681978711
 30
0.0
  0
SPLINE
  5
41A
100
AcDbEntity
  8
AXIS_PART
100
AcDbSpline
 62
7
  6
CONTINUOUS
 70
0
 71
3
 72
16
 73
12
 74
0
 42
0.0000001
 43
0.0000001
 44
0.0000000001
 40
0.0
 40
0.0
 40
0.0
 40
0.0
 40
0.1412234793
 40
0.2101138071
 40
0.2777197037
 40
0.4088131461
 40
0.5346578474
 40
0.6557585288
 40
0.7729204809
 40
0.8872129969
 40
1.0
 40
1.0
 40
1.0
 40
1.0
 10
15.3065257716
 20
9.6962155291
 30
0.0
 10
15.3033892639
 20
9.6962155291
 30
0.0
 10
15.2987170808
 20
9.6964548742
 30
0.0
 10
15.2926021067
 20
9.6972813415
 30
0.0
 10
15.2867649879
 20
9.6984132479
 30
0.0
 10
15.2798201801
 20
9.7004161819
 30
0.0
 10
15.2720972583
 20
9.7037737272
 30
0.0
 10
15.2651824137
 20
9.7080214491
 30
0.0
 10
15.2591774239
 20
9.7130963706
 30
0.0
 10
15.254181739
 20
9.7189274224
 30
0.0
 10
15.2515708298
 20
9.723275259
 30
0.0
 10
15.2504669218
 20
9.7255238465
 30
0.0
  0
SPLINE
  5
41B
100
AcDbEntity
  8
AXIS_PART
100
AcDbSpline
 62
7
  6
CONTINUOUS
 70
0
 71
3
 72
16
 73
12
 74
0
 42
0.0000001
 43
0.0000001
 44
0.0000000001
 40
0.0
 40
0.0
 40
0.0
 40
0.0
 40
0.1412234793
 40
0.2101138071
 40
0.2777197037
 40
0.4088131461
 40
0.5346578474
 40
0.6557585288
 40
0.7729204809
 40
0.8872129969
 40
1.0
 40
1.0
 40
1.0
 40
1.0
 10
12.4282101654
 20
9.6962155291
 30
0.0
 10
12.4250736576
 20
9.6962155291
 30
0.0
 10
12.4204014745
 20
9.6964548742
 30
0.0
 10
12.4142865004
 20
9.6972813415
 30
0.0
 10
12.4084493816
 20
9.6984132479
 30
0.0
 10
12.4015045739
 20
9.7004161819
 30
0.0
 10
12.393781652
 20
9.7037737272
 30
0.0
 10
12.3868668074
 20
9.7080214491
 30
0.0
 10
12.3808618176
 20
9.7130963706
 30
0.0
 10
12.3758661328
 20
9.7189274224
 30
0.0
 10
12.3732552236
 20
9.723275259
 30
0.0
 10
12.3721513155
 20
9.7255238465
 30
0.0
  0
SPLINE
  5
41C
100
AcDbEntity
  8
AXIS_PART
100
AcDbSpline
 62
7
  6
CONTINUOUS
 70
0
 71
3
 72
25
 73
21
 74
0
 42
0.0000001
 43
0.0000001
 44
0.0000000001
 40
0.0
 40
0.0
 40
0.0
 40
0.0
 40
0.0251941036
 40
0.0504943327
 40
0.1017648228
 40
0.1279693729
 40
0.1546441772
 40
0.2096007716
 40
0.2670354686
 40
0.327091466
 40
0.3897130904
 40
0.4546749752
 40
0.5216123121
 40
0.5900551739
 40
0.6594573856
 40
0.729217152
 40
0.798713359
 40
0.8673866094
 40
0.9346956888
 40
1.0
 40
1.0
 40
1.0
 40
1.0
 10
12.5615837353
 20
9.8008561132
 30
0.0
 10
12.562197879
 20
9.7996051432
 30
0.0
 10
12.5633117032
 20
9.7970381778
 30
0.0
 10
12.5650594728
 20
9.7916808733
 30
0.0
 10
12.5660604629
 20
9.7860470848
 30
0.0
 10
12.5663157797
 20
9.7802864601
 30
0.0
 10
12.5660691887
 20
9.774320045
 30
0.0
 10
12.5647971713
 20
9.7666981036
 30
0.0
 10
12.5618185587
 20
9.7576026789
 30
0.0
 10
12.5574383539
 20
9.7486221854
 30
0.0
 10
12.551736264
 20
9.7399195032
 30
0.0
 10
12.544821974
 20
9.7316458605
 30
0.0
 10
12.5368175041
 20
9.7239521889
 30
0.0
 10
12.5278719504
 20
9.7169717871
 30
0.0
 10
12.5181431358
 20
9.7108360218
 30
0.0
 10
12.5078123281
 20
9.7056486599
 30
0.0
 10
12.4970620176
 20
9.701508991
 30
0.0
 10
12.4860848983
 20
9.698486896
 30
0.0
 10
12.4750844392
 20
9.6966478536
 30
0.0
 10
12.4677438006
 20
9.6962155291
 30
0.0
 10
12.4641315441
 20
9.6962155291
 30
0.0
  0
SPLINE
  5
41D
100
AcDbEntity
  8
AXIS_PART
100
AcDbSpline
 62
7
  6
CONTINUOUS
 70
0
 71
3
 72
25
 73
21
 74
0
 42
0.0000001
 43
0.0000001
 44
0.0000000001
 40
0.0
 40
0.0
 40
0.0
 40
0.0
 40
0.0251941036
 40
0.0504943327
 40
0.1017648228
 40
0.1279693729
 40
0.1546441772
 40
0.2096007716
 40
0.2670354686
 40
0.327091466
 40
0.3897130904
 40
0.4546749752
 40
0.5216123121
 40
0.5900551739
 40
0.6594573856
 40
0.729217152
 40
0.798713359
 40
0.8673866094
 40
0.9346956888
 40
1.0
 40
1.0
 40
1.0
 40
1.0
 10
15.4398993415
 20
9.8008561132
 30
0.0
 10
15.4405134852
 20
9.7996051432
 30
0.0
 10
15.4416273095
 20
9.7970381778
 30
0.0
 10
15.443375079
 20
9.7916808733
 30
0.0
 10
15.4443760691
 20
9.7860470848
 30
0.0
 10
15.4446313859
 20
9.7802864601
 30
0.0
 10
15.444384795
 20
9.774320045
 30
0.0
 10
15.4431127776
 20
9.7666981036
 30
0.0
 10
15.4401341649
 20
9.7576026789
 30
0.0
 10
15.4357539602
 20
9.7486221854
 30
0.0
 10
15.4300518703
 20
9.7399195032
 30
0.0
 10
15.4231375802
 20
9.7316458605
 30
0.0
 10
15.4151331104
 20
9.7239521889
 30
0.0
 10
15.4061875566
 20
9.7169717871
 30
0.0
 10
15.396458742
 20
9.7108360218
 30
0.0
 10
15.3861279344
 20
9.7056486599
 30
0.0
 10
15.3753776239
 20
9.701508991
 30
0.0
 10
15.3644005045
 20
9.698486896
 30
0.0
 10
15.3534000454
 20
9.6966478536
 30
0.0
 10
15.3460594068
 20
9.6962155291
 30
0.0
 10
15.3424471504
 20
9.6962155291
 30
0.0
  0
LINE
  5
41E
100
AcDbEntity
  8
0
100
AcDbLine
 62
7
  6
CONTINUOUS
 10
14.796280346
 20
8.8400129852
 11
14.7954170604
 21
8.8367873887
  0
SPLINE
  5
41F
100
AcDbEntity
  8
AXIS_PART
100
AcDbSpline
 62
7
  6
CONTINUOUS
 70
0
 71
3
 72
16
 73
12
 74
0
 42
0.0000001
 43
0.0000001
 44
0.0000000001
 40
0.0
 40
0.0
 40
0.0
 40
0.0
 40
0.1412234793
 40
0.2101138071
 40
0.2777197037
 40
0.4088131461
 40
0.5346578474
 40
0.6557585288
 40
0.7729204809
 40
0.8872129969
 40
1.0
 40
1.0
 40
1.0
 40
1.0
 10
15.3838404917
 20
9.8301644307
 30
0.0
 10
15.3869769994
 20
9.8301644307
 30
0.0
 10
15.3916491826
 20
9.8299250856
 30
0.0
 10
15.3977641566
 20
9.8290986183
 30
0.0
 10
15.4036012754
 20
9.8279667119
 30
0.0
 10
15.4105460832
 20
9.8259637778
 30
0.0
 10
15.418269005
 20
9.8226062325
 30
0.0
 10
15.4251838496
 20
9.8183585107
 30
0.0
 10
15.4311888394
 20
9.8132835892
 30
0.0
 10
15.4361845243
 20
9.8074525373
 30
0.0
 10
15.4387954335
 20
9.8031047007
 30
0.0
 10
15.4398993415
 20
9.8008561132
 30
0.0
  0
SPLINE
  5
420
100
AcDbEntity
  8
AXIS_PART
100
AcDbSpline
 62
7
  6
CONTINUOUS
 70
0
 71
3
 72
16
 73
12
 74
0
 42
0.0000001
 43
0.0000001
 44
0.0000000001
 40
0.0
 40
0.0
 40
0.0
 40
0.0
 40
0.1412234793
 40
0.2101138071
 40
0.2777197037
 40
0.4088131461
 40
0.5346578474
 40
0.6557585288
 40
0.7729204809
 40
0.8872129969
 40
1.0
 40
1.0
 40
1.0
 40
1.0
 10
12.5055248854
 20
9.8301644307
 30
0.0
 10
12.5086613932
 20
9.8301644307
 30
0.0
 10
12.5133335763
 20
9.8299250856
 30
0.0
 10
12.5194485504
 20
9.8290986183
 30
0.0
 10
12.5252856692
 20
9.8279667119
 30
0.0
 10
12.5322304769
 20
9.8259637778
 30
0.0
 10
12.5399533988
 20
9.8226062325
 30
0.0
 10
12.5468682433
 20
9.8183585107
 30
0.0
 10
12.5528732332
 20
9.8132835892
 30
0.0
 10
12.557868918
 20
9.8074525373
 30
0.0
 10
12.5604798272
 20
9.8031047007
 30
0.0
 10
12.5615837353
 20
9.8008561132
 30
0.0
  0
SPLINE
  5
421
100
AcDbEntity
  8
0
100
AcDbSpline
 62
7
  6
CONTINUOUS
 70
0
 71
3
 72
22
 73
18
 74
0
 42
0.0000001
 43
0.0000001
 44
0.0000000001
 40
0.0
 40
0.0
 40
0.0
 40
0.0
 40
0.0614255961
 40
0.1242931849
 40
0.1882902497
 40
0.2531672598
 40
0.3186742586
 40
0.3845147156
 40
0.450379055
 40
0.5159638012
 40
0.5809734407
 40
0.6451313697
 40
0.7081794135
 40
0.7698840327
 40
0.8300457231
 40
0.8885332232
 40
1.0
 40
1.0
 40
1.0
 40
1.0
 10
12.5972406362
 20
10.1621148281
 30
0.0
 10
12.592057289
 20
10.162114609
 30
0.0
 10
12.5815646363
 20
10.1616694481
 30
0.0
 10
12.5657778924
 20
10.1597436946
 30
0.0
 10
12.5498985251
 20
10.1565596725
 30
0.0
 10
12.534083522
 20
10.1521541474
 30
0.0
 10
12.5184815858
 20
10.1465664447
 30
0.0
 10
12.5032384525
 20
10.1398544064
 30
0.0
 10
12.4885033048
 20
10.1320763196
 30
0.0
 10
12.4744148562
 20
10.1233120355
 30
0.0
 10
12.4611101259
 20
10.1136406165
 30
0.0
 10
12.4487129948
 20
10.1031579964
 30
0.0
 10
12.4373459126
 20
10.091958957
 30
0.0
 10
12.4271138231
 20
10.0801568746
 30
0.0
 10
12.4181180717
 20
10.0678551514
 30
0.0
 10
12.4080536199
 20
10.0512331935
 30
0.0
 10
12.4023166874
 20
10.037956106
 30
0.0
 10
12.3995391078
 20
10.0289695352
 30
0.0
  0
SPLINE
  5
422
100
AcDbEntity
  8
0
100
AcDbSpline
 62
7
  6
CONTINUOUS
 70
0
 71
3
 72
23
 73
19
 74
0
 42
0.0000001
 43
0.0000001
 44
0.0000000001
 40
0.0
 40
0.0
 40
0.0
 40
0.0
 40
0.064268943
 40
0.1266273203
 40
0.1872087672
 40
0.2463503287
 40
0.3044855141
 40
0.3620812745
 40
0.4196325224
 40
0.477643776
 40
0.5365928877
 40
0.5969011334
 40
0.6589155455
 40
0.7228772557
 40
0.7889420414
 40
0.8571868637
 40
0.9276005563
 40
1.0
 40
1.0
 40
1.0
 40
1.0
 10
15.5574334575
 20
10.0289695352
 30
0.0
 10
15.5587569076
 20
10.0332530314
 30
0.0
 10
15.560927097
 20
10.0418365434
 30
0.0
 10
15.5627001579
 20
10.054803255
 30
0.0
 10
15.5629054416
 20
10.0675356087
 30
0.0
 10
15.5615418807
 20
10.0799020789
 30
0.0
 10
15.5586161391
 20
10.0917821199
 30
0.0
 10
15.5541611751
 20
10.1030593005
 30
0.0
 10
15.5482125066
 20
10.1136152583
 30
0.0
 10
15.5408382296
 20
10.1233470317
 30
0.0
 10
15.5321088198
 20
10.132154688
 30
0.0
 10
15.5221176503
 20
10.1399583897
 30
0.0
 10
15.5109607741
 20
10.1466787946
 30
0.0
 10
15.4987533982
 20
10.1522615922
 30
0.0
 10
15.485610912
 20
10.1566490816
 30
0.0
 10
15.4716605664
 20
10.159807986
 30
0.0
 10
15.4570405142
 20
10.1617031787
 30
0.0
 10
15.4470723998
 20
10.162114617
 30
0.0
 10
15.4420219439
 20
10.1621148281
 30
0.0
  0
SPLINE
  5
423
100
AcDbEntity
  8
0
100
AcDbSpline
 62
7
  6
CONTINUOUS
 70
0
 71
3
 72
18
 73
14
 74
0
 42
0.0000001
 43
0.0000001
 44
0.0000000001
 40
0.0
 40
0.0
 40
0.0
 40
0.0
 40
0.0564026614
 40
0.1129373413
 40
0.1698015827
 40
0.2271859566
 40
0.3441167647
 40
0.4650410007
 40
0.5907928132
 40
0.7218433097
 40
0.789447268
 40
0.8584042677
 40
1.0
 40
1.0
 40
1.0
 40
1.0
 10
12.2258470946
 20
9.4045515903
 30
0.0
 10
12.2270154189
 20
9.4019560088
 30
0.0
 10
12.2295818448
 20
9.3968575727
 30
0.0
 10
12.2340865677
 20
9.3895562875
 30
0.0
 10
12.2392287494
 20
9.3826260146
 30
0.0
 10
12.2469544421
 20
9.3738683978
 30
0.0
 10
12.2581785012
 20
9.3639619176
 30
0.0
 10
12.273716763
 20
9.3540749037
 30
0.0
 10
12.2911600479
 20
9.34623741
 30
0.0
 10
12.3068990075
 20
9.3415611933
 30
0.0
 10
12.3201471089
 20
9.3389043878
 30
0.0
 10
12.3340558523
 20
9.336962257
 30
0.0
 10
12.3446944698
 20
9.3363949328
 30
0.0
 10
12.3518402062
 20
9.336385752
 30
0.0
  0
SPLINE
  5
424
100
AcDbEntity
  8
AXIS_PART
100
AcDbSpline
 62
7
  6
CONTINUOUS
 70
0
 71
3
 72
25
 73
21
 74
0
 42
0.0000001
 43
0.0000001
 44
0.0000000001
 40
0.0
 40
0.0
 40
0.0
 40
0.0
 40
0.0251941036
 40
0.0504943327
 40
0.1017648228
 40
0.1279693729
 40
0.1546441772
 40
0.2096007716
 40
0.2670354686
 40
0.327091466
 40
0.3897130904
 40
0.4546749752
 40
0.5216123121
 40
0.5900551739
 40
0.6594573856
 40
0.729217152
 40
0.798713359
 40
0.8673866094
 40
0.9346956888
 40
1.0
 40
1.0
 40
1.0
 40
1.0
 10
12.3721513155
 20
9.7255238465
 30
0.0
 10
12.3715371718
 20
9.7267748166
 30
0.0
 10
12.3704233476
 20
9.7293417819
 30
0.0
 10
12.368675578
 20
9.7346990864
 30
0.0
 10
12.3676745879
 20
9.740332875
 30
0.0
 10
12.3674192711
 20
9.7460934996
 30
0.0
 10
12.3676658621
 20
9.7520599148
 30
0.0
 10
12.3689378795
 20
9.7596818561
 30
0.0
 10
12.3719164921
 20
9.7687772809
 30
0.0
 10
12.3762966969
 20
9.7777577744
 30
0.0
 10
12.3819987868
 20
9.7864604566
 30
0.0
 10
12.3889130768
 20
9.7947340992
 30
0.0
 10
12.3969175467
 20
9.8024277709
 30
0.0
 10
12.4058631004
 20
9.8094081726
 30
0.0
 10
12.415591915
 20
9.8155439379
 30
0.0
 10
12.4259227227
 20
9.8207312998
 30
0.0
 10
12.4366730332
 20
9.8248709687
 30
0.0
 10
12.4476501525
 20
9.8278930638
 30
0.0
 10
12.4586506116
 20
9.8297321061
 30
0.0
 10
12.4659912502
 20
9.8301644307
 30
0.0
 10
12.4696035067
 20
9.8301644307
 30
0.0
  0
SPLINE
  5
425
100
AcDbEntity
  8
0
100
AcDbSpline
 62
7
  6
CONTINUOUS
 70
0
 71
3
 72
22
 73
18
 74
0
 42
0.0000001
 43
0.0000001
 44
0.0000000001
 40
0.0
 40
0.0
 40
0.0
 40
0.0
 40
0.0614255961
 40
0.1242931849
 40
0.1882902497
 40
0.2531672598
 40
0.3186742586
 40
0.3845147156
 40
0.450379055
 40
0.5159638012
 40
0.5809734407
 40
0.6451313697
 40
0.7081794135
 40
0.7698840327
 40
0.8300457231
 40
0.8885332232
 40
1.0
 40
1.0
 40
1.0
 40
1.0
 10
15.1954677399
 20
9.3642651317
 30
0.0
 10
15.2006510872
 20
9.3642653508
 30
0.0
 10
15.2111437399
 20
9.3647105116
 30
0.0
 10
15.2269304838
 20
9.3666362652
 30
0.0
 10
15.2428098511
 20
9.3698202873
 30
0.0
 10
15.2586248542
 20
9.3742258124
 30
0.0
 10
15.2742267904
 20
9.3798135151
 30
0.0
 10
15.2894699237
 20
9.3865255534
 30
0.0
 10
15.3042050714
 20
9.3943036401
 30
0.0
 10
15.31829352
 20
9.4030679243
 30
0.0
 10
15.3315982503
 20
9.4127393433
 30
0.0
 10
15.3439953814
 20
9.4232219634
 30
0.0
 10
15.3553624636
 20
9.4344210028
 30
0.0
 10
15.365594553
 20
9.4462230851
 30
0.0
 10
15.3745903044
 20
9.4585248084
 30
0.0
 10
15.3846547562
 20
9.4751467663
 30
0.0
 10
15.3903916888
 20
9.4884238538
 30
0.0
 10
15.3931692684
 20
9.4974104245
 30
0.0
  0
SPLINE
  5
426
100
AcDbEntity
  8
AXIS_PART
100
AcDbSpline
 62
7
  6
CONTINUOUS
 70
0
 71
3
 72
25
 73
21
 74
0
 42
0.0000001
 43
0.0000001
 44
0.0000000001
 40
0.0
 40
0.0
 40
0.0
 40
0.0
 40
0.0251941036
 40
0.0504943327
 40
0.1017648228
 40
0.1279693729
 40
0.1546441772
 40
0.2096007716
 40
0.2670354686
 40
0.327091466
 40
0.3897130904
 40
0.4546749752
 40
0.5216123121
 40
0.5900551739
 40
0.6594573856
 40
0.729217152
 40
0.798713359
 40
0.8673866094
 40
0.9346956888
 40
1.0
 40
1.0
 40
1.0
 40
1.0
 10
15.2504669218
 20
9.7255238465
 30
0.0
 10
15.2498527781
 20
9.7267748166
 30
0.0
 10
15.2487389538
 20
9.7293417819
 30
0.0
 10
15.2469911843
 20
9.7346990864
 30
0.0
 10
15.2459901942
 20
9.740332875
 30
0.0
 10
15.2457348774
 20
9.7460934996
 30
0.0
 10
15.2459814683
 20
9.7520599148
 30
0.0
 10
15.2472534857
 20
9.7596818561
 30
0.0
 10
15.2502320984
 20
9.7687772809
 30
0.0
 10
15.2546123031
 20
9.7777577744
 30
0.0
 10
15.260314393
 20
9.7864604566
 30
0.0
 10
15.2672286831
 20
9.7947340992
 30
0.0
 10
15.2752331529
 20
9.8024277709
 30
0.0
 10
15.2841787067
 20
9.8094081726
 30
0.0
 10
15.2939075213
 20
9.8155439379
 30
0.0
 10
15.3042383289
 20
9.8207312998
 30
0.0
 10
15.3149886394
 20
9.8248709687
 30
0.0
 10
15.3259657588
 20
9.8278930638
 30
0.0
 10
15.3369662179
 20
9.8297321061
 30
0.0
 10
15.3443068565
 20
9.8301644307
 30
0.0
 10
15.3479191129
 20
9.8301644307
 30
0.0
  0
SPLINE
  5
427
100
AcDbEntity
  8
0
100
AcDbSpline
 62
7
  6
CONTINUOUS
 70
0
 71
3
 72
23
 73
19
 74
0
 42
0.0000001
 43
0.0000001
 44
0.0000000001
 40
0.0
 40
0.0
 40
0.0
 40
0.0
 40
0.064268943
 40
0.1266273203
 40
0.1872087672
 40
0.2463503287
 40
0.3044855141
 40
0.3620812745
 40
0.4196325224
 40
0.477643776
 40
0.5365928877
 40
0.5969011334
 40
0.6589155455
 40
0.7228772557
 40
0.7889420414
 40
0.8571868637
 40
0.9276005563
 40
1.0
 40
1.0
 40
1.0
 40
1.0
 10
12.2352749187
 20
9.4974104245
 30
0.0
 10
12.2339514686
 20
9.4931269284
 30
0.0
 10
12.2317812792
 20
9.4845434163
 30
0.0
 10
12.2300082182
 20
9.4715767047
 30
0.0
 10
12.2298029346
 20
9.458844351
 30
0.0
 10
12.2311664954
 20
9.4464778808
 30
0.0
 10
12.2340922371
 20
9.4345978398
 30
0.0
 10
12.2385472011
 20
9.4233206592
 30
0.0
 10
12.2444958696
 20
9.4127647014
 30
0.0
 10
12.2518701466
 20
9.4030329281
 30
0.0
 10
12.2605995564
 20
9.3942252717
 30
0.0
 10
12.2705907259
 20
9.3864215701
 30
0.0
 10
12.2817476021
 20
9.3797011651
 30
0.0
 10
12.293954978
 20
9.3741183676
 30
0.0
 10
12.3070974642
 20
9.3697308782
 30
0.0
 10
12.3210478097
 20
9.3665719737
 30
0.0
 10
12.335667862
 20
9.3646767811
 30
0.0
 10
12.3456359764
 20
9.3642653427
 30
0.0
 10
12.3506864323
 20
9.3642651317
 30
0.0
  0
SPLINE
  5
428
100
AcDbEntity
  8
0
100
AcDbSpline
 62
7
  6
CONTINUOUS
 70
0
 71
3
 72
15
 73
11
 74
0
 42
0.0000001
 43
0.0000001
 44
0.0000000001
 40
0.0
 40
0.0
 40
0.0
 40
0.0
 40
0.1721421321
 40
0.3313234804
 40
0.4762301642
 40
0.6059736986
 40
0.7208938378
 40
0.8226700277
 40
0.9142001882
 40
1.0
 40
1.0
 40
1.0
 40
1.0
 10
15.4420219439
 20
10.1621148281
 30
0.0
 10
15.4421962521
 20
10.1626788895
 30
0.0
 10
15.4425664202
 20
10.163754357
 30
0.0
 10
15.4432122962
 20
10.1652563481
 30
0.0
 10
15.4439191481
 20
10.1665682825
 30
0.0
 10
15.4446803345
 20
10.16767047
 30
0.0
 10
15.4454883888
 20
10.1685480344
 30
0.0
 10
15.4463353866
 20
10.1691921722
 30
0.0
 10
15.4472161117
 20
10.1695911733
 30
0.0
 10
15.447827465
 20
10.1696821348
 30
0.0
 10
15.4481217247
 20
10.1696821065
 30
0.0
  0
SPLINE
  5
429
100
AcDbEntity
  8
0
100
AcDbSpline
 62
7
  6
CONTINUOUS
 70
0
 71
3
 72
15
 73
11
 74
0
 42
0.0000001
 43
0.0000001
 44
0.0000000001
 40
0.0
 40
0.0
 40
0.0
 40
0.0
 40
0.1290489253
 40
0.2637429059
 40
0.4001562376
 40
0.5348828526
 40
0.6647422304
 40
0.7869513961
 40
0.8992298151
 40
1.0
 40
1.0
 40
1.0
 40
1.0
 10
15.5574334575
 20
10.0289695352
 30
0.0
 10
15.5586566768
 20
10.0289695353
 30
0.0
 10
15.5611583573
 20
10.0287997486
 30
0.0
 10
15.5648957548
 20
10.0281102617
 30
0.0
 10
15.5685842626
 20
10.0269902165
 30
0.0
 10
15.5720857054
 20
10.0254907962
 30
0.0
 10
15.5752729223
 20
10.0236611601
 30
0.0
 10
15.5780357056
 20
10.0215700767
 30
0.0
 10
15.5802635195
 20
10.0192869048
 30
0.0
 10
15.581407841
 20
10.0176029337
 30
0.0
 10
15.5818462348
 20
10.0167543077
 30
0.0
  0
SPLINE
  5
42A
100
AcDbEntity
  8
0
100
AcDbSpline
 62
7
  6
CONTINUOUS
 70
0
 71
3
 72
15
 73
11
 74
0
 42
0.0000001
 43
0.0000001
 44
0.0000000001
 40
0.0
 40
0.0
 40
0.0
 40
0.0
 40
0.1290489454
 40
0.2637429696
 40
0.4001563271
 40
0.5348829435
 40
0.6647423038
 40
0.7869514409
 40
0.8992298294
 40
1.0
 40
1.0
 40
1.0
 40
1.0
 10
15.3931692684
 20
9.4974104245
 30
0.0
 10
15.3943924879
 20
9.4974104245
 30
0.0
 10
15.396894169
 20
9.4972406375
 30
0.0
 10
15.4006315672
 20
9.4965511504
 30
0.0
 10
15.4043200757
 20
9.4954311049
 30
0.0
 10
15.4078215183
 20
9.4939316842
 30
0.0
 10
15.4110087348
 20
9.4921020481
 30
0.0
 10
15.4137715174
 20
9.490010965
 30
0.0
 10
15.4159993309
 20
9.4877277937
 30
0.0
 10
15.4171436519
 20
9.4860438228
 30
0.0
 10
15.4175820457
 20
9.485195197
 30
0.0
  0
SPLINE
  5
42B
100
AcDbEntity
  8
0
100
AcDbSpline
 62
7
  6
CONTINUOUS
 70
0
 71
3
 72
15
 73
11
 74
0
 42
0.0000001
 43
0.0000001
 44
0.0000000001
 40
0.0
 40
0.0
 40
0.0
 40
0.0
 40
0.1180255998
 40
0.2465438838
 40
0.3811452524
 40
0.5175812284
 40
0.6516473713
 40
0.7792754147
 40
0.8965836102
 40
1.0
 40
1.0
 40
1.0
 40
1.0
 10
15.1954677399
 20
9.3642651317
 30
0.0
 10
15.1951378303
 20
9.3631975434
 30
0.0
 10
15.194580147
 20
9.3609261578
 30
0.0
 10
15.19403229
 20
9.3573557014
 30
0.0
 10
15.1937622835
 20
9.3535786601
 30
0.0
 10
15.1937744097
 20
9.3497398451
 30
0.0
 10
15.1940717888
 20
9.3459786621
 30
0.0
 10
15.1946393186
 20
9.3424309191
 30
0.0
 10
15.1954614617
 20
9.3392322715
 30
0.0
 10
15.1962025009
 20
9.3372706495
 30
0.0
 10
15.1966215139
 20
9.336385752
 30
0.0
  0
SPLINE
  5
42C
100
AcDbEntity
  8
0
100
AcDbSpline
 62
7
  6
CONTINUOUS
 70
0
 71
3
 72
15
 73
11
 74
0
 42
0.0000001
 43
0.0000001
 44
0.0000000001
 40
0.0
 40
0.0
 40
0.0
 40
0.0
 40
0.1180256214
 40
0.2465439472
 40
0.3811453416
 40
0.5175813203
 40
0.6516474461
 40
0.7792754601
 40
0.8965836244
 40
1.0
 40
1.0
 40
1.0
 40
1.0
 10
12.3506864323
 20
9.3642651317
 30
0.0
 10
12.3503565225
 20
9.3631975432
 30
0.0
 10
12.3497988392
 20
9.360926157
 30
0.0
 10
12.3492509819
 20
9.3573556998
 30
0.0
 10
12.3489809754
 20
9.3535786578
 30
0.0
 10
12.3489931019
 20
9.3497398427
 30
0.0
 10
12.3492904812
 20
9.34597866
 30
0.0
 10
12.349858011
 20
9.3424309178
 30
0.0
 10
12.350680154
 20
9.3392322709
 30
0.0
 10
12.3514211932
 20
9.3372706494
 30
0.0
 10
12.3518402062
 20
9.336385752
 30
0.0
  0
SPLINE
  5
42D
100
AcDbEntity
  8
0
100
AcDbSpline
 62
7
  6
CONTINUOUS
 70
0
 71
3
 72
14
 73
10
 74
0
 42
0.0000001
 43
0.0000001
 44
0.0000000001
 40
0.0
 40
0.0
 40
0.0
 40
0.0
 40
0.1554596786
 40
0.3031184609
 40
0.5689571359
 40
0.6872967176
 40
0.7970267103
 40
0.9002495875
 40
1.0
 40
1.0
 40
1.0
 40
1.0
 10
12.2352749187
 20
9.4974104245
 30
0.0
 10
12.2344716921
 20
9.4974104245
 30
0.0
 10
12.2329036762
 20
9.4973397388
 30
0.0
 10
12.2299930299
 20
9.4969192332
 30
0.0
 10
12.2273339433
 20
9.4960855564
 30
0.0
 10
12.225133584
 20
9.4947721602
 30
0.0
 10
12.2238337983
 20
9.4936417129
 30
0.0
 10
12.2228515365
 20
9.4923435776
 30
0.0
 10
12.2224197316
 20
9.491375516
 30
0.0
 10
12.222267313
 20
9.4908831805
 30
0.0
  0
SPLINE
  5
42E
100
AcDbEntity
  8
0
100
AcDbSpline
 62
7
  6
CONTINUOUS
 70
0
 71
3
 72
14
 73
10
 74
0
 42
0.0000001
 43
0.0000001
 44
0.0000000001
 40
0.0
 40
0.0
 40
0.0
 40
0.0
 40
0.1554596756
 40
0.3031184779
 40
0.5689572028
 40
0.6872967739
 40
0.7970267533
 40
0.9002496106
 40
1.0
 40
1.0
 40
1.0
 40
1.0
 10
12.3995391078
 20
10.0289695352
 30
0.0
 10
12.3987358812
 20
10.0289695352
 30
0.0
 10
12.3971678653
 20
10.0288988495
 30
0.0
 10
12.3942572186
 20
10.0284783437
 30
0.0
 10
12.3915981316
 20
10.0276446672
 30
0.0
 10
12.3893977724
 20
10.0263312705
 30
0.0
 10
12.3880979869
 20
10.0252008233
 30
0.0
 10
12.3871157255
 20
10.0239026881
 30
0.0
 10
12.3866839208
 20
10.0229346267
 30
0.0
 10
12.3865315022
 20
10.0224422913
 30
0.0
  0
SPLINE
  5
42F
100
AcDbEntity
  8
0
100
AcDbSpline
 62
7
  6
CONTINUOUS
 70
0
 71
3
 72
15
 73
11
 74
0
 42
0.0000001
 43
0.0000001
 44
0.0000000001
 40
0.0
 40
0.0
 40
0.0
 40
0.0
 40
0.1721495929
 40
0.3313355794
 40
0.476243686
 40
0.6059854254
 40
0.7209015521
 40
0.8226728114
 40
0.9141993223
 40
1.0
 40
1.0
 40
1.0
 40
1.0
 10
12.5972406362
 20
10.1621148281
 30
0.0
 10
12.5974149697
 20
10.1626789715
 30
0.0
 10
12.597785194
 20
10.1637545866
 30
0.0
 10
12.5984311802
 20
10.1652567631
 30
0.0
 10
12.5991381575
 20
10.1665688205
 30
0.0
 10
12.5998994843
 20
10.167671061
 30
0.0
 10
12.6007076883
 20
10.1685486065
 30
0.0
 10
12.6015548453
 20
10.1691926506
 30
0.0
 10
12.6024357401
 20
10.1695914688
 30
0.0
 10
12.6030471806
 20
10.1696822366
 30
0.0
 10
12.6033414733
 20
10.1696821062
 30
0.0
  0
SPLINE
  5
430
100
AcDbEntity
  8
0
100
AcDbSpline
 62
7
  6
CONTINUOUS
 70
0
 71
3
 72
15
 73
11
 74
0
 42
0.0000001
 43
0.0000001
 44
0.0000000001
 40
0.0
 40
0.0
 40
0.0
 40
0.0
 40
0.1338973273
 40
0.2646299812
 40
0.3923018449
 40
0.5172088854
 40
0.6398485404
 40
0.7607886968
 40
0.8806300693
 40
1.0
 40
1.0
 40
1.0
 40
1.0
 10
15.5818462348
 20
10.0167543077
 30
0.0
 10
15.5830193038
 20
10.0205654929
 30
0.0
 10
15.5850274003
 20
10.0281980356
 30
0.0
 10
15.5870058133
 20
10.0397277295
 30
0.0
 10
15.5878956908
 20
10.0511257326
 30
0.0
 10
15.5876847218
 20
10.062316292
 30
0.0
 10
15.5863784827
 20
10.0732314712
 30
0.0
 10
15.5839795139
 20
10.0838061311
 30
0.0
 10
15.5805071264
 20
10.0939747978
 30
0.0
 10
15.5774865558
 20
10.1004448681
 30
0.0
 10
15.5758107383
 20
10.1035800851
 30
0.0
  0
SPLINE
  5
431
100
AcDbEntity
  8
0
100
AcDbSpline
 62
7
  6
CONTINUOUS
 70
0
 71
3
 72
22
 73
18
 74
0
 42
0.0000001
 43
0.0000001
 44
0.0000000001
 40
0.0
 40
0.0
 40
0.0
 40
0.0
 40
0.0614101009
 40
0.1242717091
 40
0.1882705259
 40
0.2531555666
 40
0.3186755396
 40
0.384532324
 40
0.4504146462
 40
0.5160173544
 40
0.5810432608
 40
0.6452140911
 40
0.7082699806
 40
0.7699756818
 40
0.8301300948
 40
0.8886007221
 40
1.0
 40
1.0
 40
1.0
 40
1.0
 10
15.1966215139
 20
9.336385752
 30
0.0
 10
15.2024116001
 20
9.3363931992
 30
0.0
 10
15.2141327719
 20
9.3369047491
 30
0.0
 10
15.231767613
 20
9.3390756741
 30
0.0
 10
15.2495071351
 20
9.3426501862
 30
0.0
 10
15.2671759564
 20
9.3475871339
 30
0.0
 10
15.2846079444
 20
9.3538425257
 30
0.0
 10
15.3016403034
 20
9.3613516025
 30
0.0
 10
15.3181063728
 20
9.3700491035
 30
0.0
 10
15.333851157
 20
9.3798457698
 30
0.0
 10
15.3487215592
 20
9.3906532269
 30
0.0
 10
15.3625791374
 20
9.4023642952
 30
0.0
 10
15.3752870535
 20
9.4148730839
 30
0.0
 10
15.3867279518
 20
9.4280529978
 30
0.0
 10
15.3967885357
 20
9.4417886068
 30
0.0
 10
15.408046284
 20
9.4603432339
 30
0.0
 10
15.4144696893
 20
9.475163564
 30
0.0
 10
15.4175820457
 20
9.485195197
 30
0.0
  0
SPLINE
  5
432
100
AcDbEntity
  8
0
100
AcDbSpline
 62
7
  6
CONTINUOUS
 70
0
 71
3
 72
20
 73
16
 74
0
 42
0.0000001
 43
0.0000001
 44
0.0000000001
 40
0.0
 40
0.0
 40
0.0
 40
0.0
 40
0.0720502447
 40
0.1429737885
 40
0.2807970617
 40
0.4129157665
 40
0.5392467422
 40
0.6003546221
 40
0.6601648192
 40
0.7187893389
 40
0.7763707241
 40
0.8330762014
 40
0.8890974023
 40
0.9446586536
 40
1.0
 40
1.0
 40
1.0
 40
1.0
 10
10.7279461489
 20
7.3072625413
 30
0.0
 10
10.7294472524
 20
7.3071143459
 30
0.0
 10
10.7324348585
 20
7.306901588
 30
0.0
 10
10.7383150849
 20
7.3068148868
 30
0.0
 10
10.7454518275
 20
7.3073307578
 30
0.0
 10
10.7536070168
 20
7.3089729655
 30
0.0
 10
10.759945836
 20
7.3111925786
 30
0.0
 10
10.7646067121
 20
7.3134546359
 30
0.0
 10
10.7678517379
 20
7.3153599151
 30
0.0
 10
10.7708679984
 20
7.3174843463
 30
0.0
 10
10.773641324
 20
7.3198180528
 30
0.0
 10
10.7761590304
 20
7.3223494557
 30
0.0
 10
10.7784082158
 20
7.3250678728
 30
0.0
 10
10.7803786669
 20
7.3279598921
 30
0.0
 10
10.7815011072
 20
7.3299970426
 30
0.0
 10
10.7820113707
 20
7.3310372204
 30
0.0
  0
SPLINE
  5
433
100
AcDbEntity
  8
0
100
AcDbSpline
 62
7
  6
CONTINUOUS
 70
0
 71
3
 72
19
 73
15
 74
0
 42
0.0000001
 43
0.0000001
 44
0.0000000001
 40
0.0
 40
0.0
 40
0.0
 40
0.0
 40
0.141244203
 40
0.2776088773
 40
0.4086185456
 40
0.4721846697
 40
0.5344987885
 40
0.6555856641
 40
0.7146265702
 40
0.772797953
 40
0.8302507972
 40
0.8871495823
 40
0.9436700852
 40
1.0
 40
1.0
 40
1.0
 40
1.0
 10
10.8400093734
 20
7.3385956177
 30
0.0
 10
10.8411103995
 20
7.3385956177
 30
0.0
 10
10.8432764369
 20
7.3387062876
 30
0.0
 10
10.8464269166
 20
7.3392178497
 30
0.0
 10
10.8489127145
 20
7.3399349382
 30
0.0
 10
10.850774563
 20
7.3406759574
 30
0.0
 10
10.8525120683
 20
7.3415074868
 30
0.0
 10
10.8541293456
 20
7.3425006105
 30
0.0
 10
10.8555926267
 20
7.3436473396
 30
0.0
 10
10.8565964872
 20
7.3445693751
 30
0.0
 10
10.857511952
 20
7.3455565099
 30
0.0
 10
10.8583358707
 20
7.3466050473
 30
0.0
 10
10.8590648105
 20
7.3477111673
 30
0.0
 10
10.8594857745
 20
7.3484850033
 30
0.0
 10
10.8596791797
 20
7.3488792185
 30
0.0
  0
SPLINE
  5
434
100
AcDbEntity
  8
0
100
AcDbSpline
 62
7
  6
CONTINUOUS
 70
0
 71
3
 72
17
 73
13
 74
0
 42
0.0000001
 43
0.0000001
 44
0.0000000001
 40
0.0
 40
0.0
 40
0.0
 40
0.0
 40
0.0609151048
 40
0.1228861717
 40
0.24914791
 40
0.3774818157
 40
0.5064483918
 40
0.634538388
 40
0.760298753
 40
0.8824560586
 40
0.9418878103
 40
1.0
 40
1.0
 40
1.0
 40
1.0
 10
10.7604603946
 20
7.3657037133
 30
0.0
 10
10.7593288857
 20
7.367016467
 30
0.0
 10
10.756959265
 20
7.3695910856
 30
0.0
 10
10.7518430972
 20
7.3745024738
 30
0.0
 10
10.7447886595
 20
7.3801389404
 30
0.0
 10
10.7355190376
 20
7.3859403851
 30
0.0
 10
10.7256099092
 20
7.3906885233
 30
0.0
 10
10.7152982054
 20
7.3942679374
 30
0.0
 10
10.7048317353
 20
7.3965936816
 30
0.0
 10
10.6961032773
 20
7.3974467979
 30
0.0
 10
10.6892794674
 20
7.3974394683
 30
0.0
 10
10.6859398145
 20
7.3972096695
 30
0.0
 10
10.6842955239
 20
7.3970367897
 30
0.0
  0
SPLINE
  5
435
100
AcDbEntity
  8
0
100
AcDbSpline
 62
7
  6
CONTINUOUS
 70
0
 71
3
 72
24
 73
20
 74
0
 42
0.0000001
 43
0.0000001
 44
0.0000000001
 40
0.0
 40
0.0
 40
0.0
 40
0.0
 40
0.0426282625
 40
0.0859986659
 40
0.1308075271
 40
0.1776740909
 40
0.2020520425
 40
0.2271270267
 40
0.2795401582
 40
0.335247855
 40
0.3944634613
 40
0.457322027
 40
0.5239041246
 40
0.5942362723
 40
0.6682994551
 40
0.7460458992
 40
0.8273714268
 40
0.9120915457
 40
1.0
 40
1.0
 40
1.0
 40
1.0
 10
11.1492937999
 20
7.4209944711
 30
0.0
 10
11.1497511011
 20
7.4209944168
 30
0.0
 10
11.1506749891
 20
7.4209269586
 30
0.0
 10
11.1520499905
 20
7.4206258031
 30
0.0
 10
11.1534142131
 20
7.4201261152
 30
0.0
 10
11.1545232774
 20
7.4195536257
 30
0.0
 10
11.1553990559
 20
7.419004538
 30
0.0
 10
11.1562930075
 20
7.418375205
 30
0.0
 10
11.1573968297
 20
7.4174640979
 30
0.0
 10
11.1586749638
 20
7.4162007203
 30
0.0
 10
11.1599226577
 20
7.414755961
 30
0.0
 10
11.1611363303
 20
7.4131346053
 30
0.0
 10
11.1623121219
 20
7.4113413812
 30
0.0
 10
11.1634466021
 20
7.4093817498
 30
0.0
 10
11.1645366607
 20
7.4072616076
 30
0.0
 10
11.1655787106
 20
7.4049871884
 30
0.0
 10
11.1665692488
 20
7.4025659732
 30
0.0
 10
11.1675052685
 20
7.400006881
 30
0.0
 10
11.1680804832
 20
7.3982461468
 30
0.0
 10
11.1683589166
 20
7.3973451359
 30
0.0
  0
SPLINE
  5
436
100
AcDbEntity
  8
0
100
AcDbSpline
 62
7
  6
CONTINUOUS
 70
0
 71
3
 72
24
 73
20
 74
0
 42
0.0000001
 43
0.0000001
 44
0.0000000001
 40
0.0
 40
0.0
 40
0.0
 40
0.0
 40
0.0426282625
 40
0.0859986659
 40
0.1308075271
 40
0.1776740909
 40
0.2020520425
 40
0.2271270267
 40
0.2795401582
 40
0.335247855
 40
0.3944634613
 40
0.457322027
 40
0.5239041246
 40
0.5942362723
 40
0.6682994551
 40
0.7460458992
 40
0.8273714268
 40
0.9120915457
 40
1.0
 40
1.0
 40
1.0
 40
1.0
 10
10.9408145206
 20
7.2254951328
 30
0.0
 10
10.9403572194
 20
7.2254951872
 30
0.0
 10
10.9394333314
 20
7.2255626453
 30
0.0
 10
10.93805833
 20
7.2258638008
 30
0.0
 10
10.9366941074
 20
7.2263634887
 30
0.0
 10
10.9355850431
 20
7.2269359783
 30
0.0
 10
10.9347092646
 20
7.2274850659
 30
0.0
 10
10.9338153131
 20
7.2281143989
 30
0.0
 10
10.9327114909
 20
7.229025506
 30
0.0
 10
10.9314333567
 20
7.2302888836
 30
0.0
 10
10.9301856628
 20
7.2317336429
 30
0.0
 10
10.9289719902
 20
7.2333549986
 30
0.0
 10
10.9277961986
 20
7.2351482227
 30
0.0
 10
10.9266617184
 20
7.2371078541
 30
0.0
 10
10.9255716598
 20
7.2392279963
 30
0.0
 10
10.9245296099
 20
7.2415024155
 30
0.0
 10
10.9235390717
 20
7.2439236307
 30
0.0
 10
10.922603052
 20
7.2464827229
 30
0.0
 10
10.9220278373
 20
7.2482434571
 30
0.0
 10
10.9217494039
 20
7.249144468
 30
0.0
  0
SPLINE
  5
437
100
AcDbEntity
  8
0
100
AcDbSpline
 62
7
  6
CONTINUOUS
 70
0
 71
3
 72
21
 73
17
 74
0
 42
0.0000001
 43
0.0000001
 44
0.0000000001
 40
0.0
 40
0.0
 40
0.0
 40
0.0
 40
0.0541533495
 40
0.1101691068
 40
0.1680545852
 40
0.2277506664
 40
0.2891229987
 40
0.3519895746
 40
0.4811303489
 40
0.6130229407
 40
0.6792476261
 40
0.7451801374
 40
0.8105089726
 40
0.8749574863
 40
0.938236133
 40
1.0
 40
1.0
 40
1.0
 40
1.0
 10
10.8510021027
 20
7.3408006054
 30
0.0
 10
10.8508088563
 20
7.3416105941
 30
0.0
 10
10.85031986
 20
7.3432368411
 30
0.0
 10
10.849315559
 20
7.3456225128
 30
0.0
 10
10.8480395203
 20
7.347971979
 30
0.0
 10
10.8465042939
 20
7.3502601681
 30
0.0
 10
10.8447269476
 20
7.3524649162
 30
0.0
 10
10.8420341465
 20
7.3552861027
 30
0.0
 10
10.8381718444
 20
7.3584644289
 30
0.0
 10
10.8338371741
 20
7.3610583233
 30
0.0
 10
10.8301432372
 20
7.3627511291
 30
0.0
 10
10.8272943394
 20
7.363811026
 30
0.0
 10
10.8244005757
 20
7.3646475937
 30
0.0
 10
10.8214911348
 20
7.3652526855
 30
0.0
 10
10.8185974349
 20
7.3656188603
 30
0.0
 10
10.8166738041
 20
7.3657037133
 30
0.0
 10
10.8157240543
 20
7.3657037133
 30
0.0
  0
SPLINE
  5
438
100
AcDbEntity
  8
0
100
AcDbSpline
 62
7
  6
CONTINUOUS
 70
0
 71
3
 72
32
 73
28
 74
0
 42
0.0000001
 43
0.0000001
 44
0.0000000001
 40
0.0
 40
0.0
 40
0.0
 40
0.0
 40
0.0330263777
 40
0.0673721912
 40
0.1394000411
 40
0.2149139374
 40
0.2927462453
 40
0.3716119656
 40
0.4501978323
 40
0.5272039806
 40
0.6013751208
 40
0.6370331349
 40
0.6715539532
 40
0.7048099037
 40
0.7366906799
 40
0.7670949169
 40
0.7959349196
 40
0.8231491215
 40
0.8486930198
 40
0.8725469178
 40
0.8947321357
 40
0.9153050114
 40
0.9343702234
 40
0.9520998512
 40
0.9687304727
 40
0.9845715768
 40
1.0
 40
1.0
 40
1.0
 40
1.0
 10
10.9530161952
 20
7.3128594898
 30
0.0
 10
10.9532468093
 20
7.3121132223
 30
0.0
 10
10.9536856786
 20
7.3105809607
 30
0.0
 10
10.9544751544
 20
7.3073794105
 30
0.0
 10
10.955284358
 20
7.3031509737
 30
0.0
 10
10.9559620731
 20
7.2978610651
 30
0.0
 10
10.956348044
 20
7.2923798445
 30
0.0
 10
10.9564348935
 20
7.286813249
 30
0.0
 10
10.9562207316
 20
7.2812695567
 30
0.0
 10
10.9557095447
 20
7.2758568397
 30
0.0
 10
10.9550363873
 20
7.2714865335
 30
0.0
 10
10.9543516472
 20
7.268141405
 30
0.0
 10
10.9537788991
 20
7.2657625757
 30
0.0
 10
10.9531426517
 20
7.263492537
 30
0.0
 10
10.9524464447
 20
7.2613421992
 30
0.0
 10
10.9516936675
 20
7.2593219938
 30
0.0
 10
10.9508875307
 20
7.2574418679
 30
0.0
 10
10.9500323924
 20
7.2557106861
 30
0.0
 10
10.9491322971
 20
7.254136701
 30
0.0
 10
10.9481909429
 20
7.2527277084
 30
0.0
 10
10.9472130981
 20
7.2514900713
 30
0.0
 10
10.9462029249
 20
7.2504296293
 30
0.0
 10
10.9451640438
 20
7.2495521928
 30
0.0
 10
10.944101118
 20
7.2488620507
 30
0.0
 10
10.9430181493
 20
7.248363829
 30
0.0
 10
10.9419205569
 20
7.2480628972
 30
0.0
 10
10.941179409
 20
7.2479953052
 30
0.0
 10
10.9408145203
 20
7.2479952424
 30
0.0
  0
SPLINE
  5
439
100
AcDbEntity
  8
0
100
AcDbSpline
 62
7
  6
CONTINUOUS
 70
0
 71
3
 72
15
 73
11
 74
0
 42
0.0000001
 43
0.0000001
 44
0.0000000001
 40
0.0
 40
0.0
 40
0.0
 40
0.0
 40
0.1555742774
 40
0.3006763737
 40
0.4357351824
 40
0.5615197588
 40
0.6791326443
 40
0.7900744028
 40
0.8962759351
 40
1.0
 40
1.0
 40
1.0
 40
1.0
 10
10.9067616831
 20
7.4124755672
 30
0.0
 10
10.9072089837
 20
7.4131457776
 30
0.0
 10
10.9081175286
 20
7.4144126309
 30
0.0
 10
10.9095763413
 20
7.4161380495
 30
0.0
 10
10.9110784546
 20
7.4176140991
 30
0.0
 10
10.9126177415
 20
7.4188344883
 30
0.0
 10
10.9141887885
 20
7.4197931908
 30
0.0
 10
10.9157862164
 20
7.4204835193
 30
0.0
 10
10.9174019044
 20
7.4209009463
 30
0.0
 10
10.9184913329
 20
7.420994535
 30
0.0
 10
10.9190285514
 20
7.4209944711
 30
0.0
  0
SPLINE
  5
43A
100
AcDbEntity
  8
0
100
AcDbSpline
 62
7
  6
CONTINUOUS
 70
0
 71
3
 72
34
 73
30
 74
0
 42
0.0000001
 43
0.0000001
 44
0.0000000001
 40
0.0
 40
0.0
 40
0.0
 40
0.0
 40
0.0330342808
 40
0.0673799297
 40
0.1393937683
 40
0.2149075242
 40
0.2927400718
 40
0.371602736
 40
0.4501864685
 40
0.5271910554
 40
0.5647102502
 40
0.6013700054
 40
0.6370262384
 40
0.6715460574
 40
0.7048022261
 40
0.7366814942
 40
0.7670848479
 40
0.7959247449
 40
0.8231381637
 40
0.8486807876
 40
0.8725347319
 40
0.8947198531
 40
0.9152908272
 40
0.9343565704
 40
0.952086124
 40
0.9687152027
 40
0.984556659
 40
0.9923046339
 40
1.0
 40
1.0
 40
1.0
 40
1.0
 10
11.1901448857
 20
7.326845714
 30
0.0
 10
11.1905053156
 20
7.3256793627
 30
0.0
 10
11.1911912114
 20
7.3232848887
 30
0.0
 10
11.1924248164
 20
7.3182825806
 30
0.0
 10
11.1936888501
 20
7.3116759452
 30
0.0
 10
11.1947476606
 20
7.3034107629
 30
0.0
 10
11.1953511251
 20
7.2948462891
 30
0.0
 10
11.1954866744
 20
7.2861483792
 30
0.0
 10
11.1951517798
 20
7.2774866147
 30
0.0
 10
11.1944808185
 20
7.2703776791
 30
0.0
 10
11.1937083371
 20
7.2648436646
 30
0.0
 10
11.1930236163
 20
7.2608421992
 30
0.0
 10
11.1922315164
 20
7.2569736469
 30
0.0
 10
11.1913365212
 20
7.2532567697
 30
0.0
 10
11.1903426028
 20
7.2497097576
 30
0.0
 10
11.1892546403
 20
7.246349889
 30
0.0
 10
11.1880783961
 20
7.2431933403
 30
0.0
 10
11.1868188907
 20
7.2402555924
 30
0.0
 10
11.1854827426
 20
7.2375506187
 30
0.0
 10
11.1840762291
 20
7.2350913353
 30
0.0
 10
11.1826054135
 20
7.2328897416
 30
0.0
 10
11.1810776958
 20
7.2309558004
 30
0.0
 10
11.1794989775
 20
7.2292991504
 30
0.0
 10
11.177875937
 20
7.2279279982
 30
0.0
 10
11.1762151225
 20
7.2268493579
 30
0.0
 10
11.1745230752
 20
7.2260715677
 30
0.0
 10
11.1730820992
 20
7.2256763355
 30
0.0
 10
11.1719352174
 20
7.2255208579
 30
0.0
 10
11.1713641492
 20
7.225495099
 30
0.0
 10
11.1710797691
 20
7.2254951328
 30
0.0
  0
SPLINE
  5
43B
100
AcDbEntity
  8
0
100
AcDbSpline
 62
7
  6
CONTINUOUS
 70
0
 71
3
 72
17
 73
13
 74
0
 42
0.0000001
 43
0.0000001
 44
0.0000000001
 40
0.0
 40
0.0
 40
0.0
 40
0.0
 40
0.0609151048
 40
0.1228861717
 40
0.24914791
 40
0.3774818157
 40
0.5064483918
 40
0.634538388
 40
0.760298753
 40
0.8824560586
 40
0.9418878103
 40
1.0
 40
1.0
 40
1.0
 40
1.0
 10
10.7702217344
 20
7.3855952323
 30
0.0
 10
10.7690902255
 20
7.386907986
 30
0.0
 10
10.7667206047
 20
7.3894826046
 30
0.0
 10
10.7616044369
 20
7.3943939928
 30
0.0
 10
10.7545499993
 20
7.4000304594
 30
0.0
 10
10.7452803773
 20
7.405831904
 30
0.0
 10
10.7353712489
 20
7.4105800422
 30
0.0
 10
10.7250595451
 20
7.4141594564
 30
0.0
 10
10.714593075
 20
7.4164852005
 30
0.0
 10
10.705864617
 20
7.4173383169
 30
0.0
 10
10.6990408072
 20
7.4173309873
 30
0.0
 10
10.6957011542
 20
7.4171011885
 30
0.0
 10
10.6940568637
 20
7.4169283086
 30
0.0
  0
SPLINE
  5
43C
100
AcDbEntity
  8
0
100
AcDbSpline
 62
7
  6
CONTINUOUS
 70
0
 71
3
 72
27
 73
23
 74
0
 42
0.0000001
 43
0.0000001
 44
0.0000000001
 40
0.0
 40
0.0
 40
0.0
 40
0.0
 40
0.0251958078
 40
0.0504969587
 40
0.0760066377
 40
0.1018213709
 40
0.1280274572
 40
0.1547023829
 40
0.1819113
 40
0.2097035504
 40
0.2381170939
 40
0.2671780222
 40
0.3272354777
 40
0.3898600814
 40
0.4548235365
 40
0.5217646532
 40
0.5902087781
 40
0.7292088789
 40
0.7987163885
 40
0.8673766771
 40
0.9346692169
 40
1.0
 40
1.0
 40
1.0
 40
1.0
 10
10.8596791797
 20
7.3488792185
 30
0.0
 10
10.859894561
 20
7.3493182271
 30
0.0
 10
10.8602851382
 20
7.3502189194
 30
0.0
 10
10.8607437517
 20
7.3516230843
 30
0.0
 10
10.861072933
 20
7.3530755081
 30
0.0
 10
10.8612716442
 20
7.3545690367
 30
0.0
 10
10.8613394327
 20
7.3560967658
 30
0.0
 10
10.8612754632
 20
7.3576516511
 30
0.0
 10
10.861080173
 20
7.3592264566
 30
0.0
 10
10.8607551728
 20
7.3608140148
 30
0.0
 10
10.8603016751
 20
7.3624071241
 30
0.0
 10
10.8595196533
 20
7.3645516826
 30
0.0
 10
10.8582246437
 20
7.3672072175
 30
0.0
 10
10.856224002
 20
7.3702605353
 30
0.0
 10
10.8537978215
 20
7.3731634757
 30
0.0
 10
10.8509891532
 20
7.3758634954
 30
0.0
 10
10.8467848544
 20
7.3791432426
 30
0.0
 10
10.8420657529
 20
7.3818020967
 30
0.0
 10
10.8370402151
 20
7.3837379336
 30
0.0
 10
10.8331885498
 20
7.3847980096
 30
0.0
 10
10.8293291689
 20
7.3854440357
 30
0.0
 10
10.8267533245
 20
7.3855952323
 30
0.0
 10
10.825485394
 20
7.3855952323
 30
0.0
  0
SPLINE
  5
43D
100
AcDbEntity
  8
0
100
AcDbSpline
 62
7
  6
CONTINUOUS
 70
0
 71
3
 72
24
 73
20
 74
0
 42
0.0000001
 43
0.0000001
 44
0.0000000001
 40
0.0
 40
0.0
 40
0.0
 40
0.0
 40
0.0426282625
 40
0.0859986659
 40
0.1308075271
 40
0.1776740909
 40
0.2020520425
 40
0.2271270267
 40
0.2795401582
 40
0.335247855
 40
0.3944634613
 40
0.457322027
 40
0.5239041246
 40
0.5942362723
 40
0.6682994551
 40
0.7460458992
 40
0.8273714268
 40
0.9120915457
 40
1.0
 40
1.0
 40
1.0
 40
1.0
 10
10.9190285514
 20
7.4209944711
 30
0.0
 10
10.9194858526
 20
7.4209944168
 30
0.0
 10
10.9204097406
 20
7.4209269586
 30
0.0
 10
10.921784742
 20
7.4206258031
 30
0.0
 10
10.9231489646
 20
7.4201261152
 30
0.0
 10
10.9242580289
 20
7.4195536257
 30
0.0
 10
10.9251338074
 20
7.419004538
 30
0.0
 10
10.926027759
 20
7.418375205
 30
0.0
 10
10.9271315811
 20
7.4174640979
 30
0.0
 10
10.9284097153
 20
7.4162007203
 30
0.0
 10
10.9296574092
 20
7.414755961
 30
0.0
 10
10.9308710818
 20
7.4131346053
 30
0.0
 10
10.9320468734
 20
7.4113413812
 30
0.0
 10
10.9331813536
 20
7.4093817498
 30
0.0
 10
10.9342714122
 20
7.4072616076
 30
0.0
 10
10.9353134621
 20
7.4049871884
 30
0.0
 10
10.9363040003
 20
7.4025659732
 30
0.0
 10
10.93724002
 20
7.400006881
 30
0.0
 10
10.9378152347
 20
7.3982461468
 30
0.0
 10
10.9380936681
 20
7.3973451359
 30
0.0
  0
SPLINE
  5
43E
100
AcDbEntity
  8
0
100
AcDbSpline
 62
7
  6
CONTINUOUS
 70
0
 71
3
 72
34
 73
30
 74
0
 42
0.0000001
 43
0.0000001
 44
0.0000000001
 40
0.0
 40
0.0
 40
0.0
 40
0.0
 40
0.0330342808
 40
0.0673799297
 40
0.1393937683
 40
0.2149075242
 40
0.2927400718
 40
0.371602736
 40
0.4501864685
 40
0.5271910554
 40
0.5647102502
 40
0.6013700054
 40
0.6370262384
 40
0.6715460574
 40
0.7048022261
 40
0.7366814942
 40
0.7670848479
 40
0.7959247449
 40
0.8231381637
 40
0.8486807876
 40
0.8725347319
 40
0.8947198531
 40
0.9152908272
 40
0.9343565704
 40
0.952086124
 40
0.9687152027
 40
0.984556659
 40
0.9923046339
 40
1.0
 40
1.0
 40
1.0
 40
1.0
 10
10.9598796372
 20
7.326845714
 30
0.0
 10
10.9602400671
 20
7.3256793627
 30
0.0
 10
10.9609259629
 20
7.3232848887
 30
0.0
 10
10.9621595679
 20
7.3182825806
 30
0.0
 10
10.9634236016
 20
7.3116759452
 30
0.0
 10
10.9644824121
 20
7.3034107629
 30
0.0
 10
10.9650858766
 20
7.2948462891
 30
0.0
 10
10.9652214259
 20
7.2861483792
 30
0.0
 10
10.9648865313
 20
7.2774866147
 30
0.0
 10
10.96421557
 20
7.2703776791
 30
0.0
 10
10.9634430886
 20
7.2648436646
 30
0.0
 10
10.9627583678
 20
7.2608421992
 30
0.0
 10
10.9619662679
 20
7.2569736469
 30
0.0
 10
10.9610712727
 20
7.2532567697
 30
0.0
 10
10.9600773543
 20
7.2497097576
 30
0.0
 10
10.9589893918
 20
7.246349889
 30
0.0
 10
10.9578131476
 20
7.2431933403
 30
0.0
 10
10.9565536422
 20
7.2402555924
 30
0.0
 10
10.9552174941
 20
7.2375506187
 30
0.0
 10
10.9538109806
 20
7.2350913353
 30
0.0
 10
10.952340165
 20
7.2328897416
 30
0.0
 10
10.9508124473
 20
7.2309558004
 30
0.0
 10
10.949233729
 20
7.2292991504
 30
0.0
 10
10.9476106885
 20
7.2279279982
 30
0.0
 10
10.945949874
 20
7.2268493579
 30
0.0
 10
10.9442578267
 20
7.2260715677
 30
0.0
 10
10.9428168507
 20
7.2256763355
 30
0.0
 10
10.9416699689
 20
7.2255208579
 30
0.0
 10
10.9410989007
 20
7.225495099
 30
0.0
 10
10.9408145206
 20
7.2254951328
 30
0.0
  0
SPLINE
  5
43F
100
AcDbEntity
  8
0
100
AcDbSpline
 62
7
  6
CONTINUOUS
 70
0
 71
3
 72
21
 73
17
 74
0
 42
0.0000001
 43
0.0000001
 44
0.0000000001
 40
0.0
 40
0.0
 40
0.0
 40
0.0
 40
0.0426346271
 40
0.0860130216
 40
0.1308320951
 40
0.1777041294
 40
0.2794482405
 40
0.3351652261
 40
0.3943814533
 40
0.4572442226
 40
0.5238366454
 40
0.5941831706
 40
0.66827193
 40
0.7460571957
 40
0.827406285
 40
1.0
 40
1.0
 40
1.0
 40
1.0
 10
10.9408145203
 20
7.2479952424
 30
0.0
 10
10.9405218554
 20
7.247995192
 30
0.0
 10
10.9399305383
 20
7.2480381026
 30
0.0
 10
10.9390505753
 20
7.2482310741
 30
0.0
 10
10.9381774967
 20
7.2485511217
 30
0.0
 10
10.9369948518
 20
7.2491611156
 30
0.0
 10
10.9358691063
 20
7.2500170963
 30
0.0
 10
10.9348107575
 20
7.2510631779
 30
0.0
 10
10.9340119556
 20
7.2519877171
 30
0.0
 10
10.9332353505
 20
7.253025268
 30
0.0
 10
10.9324829269
 20
7.2541729525
 30
0.0
 10
10.9317567505
 20
7.2554271519
 30
0.0
 10
10.9310589852
 20
7.2567842823
 30
0.0
 10
10.9303920834
 20
7.2582402959
 30
0.0
 10
10.9295297376
 20
7.2603483396
 30
0.0
 10
10.9289626455
 20
7.2619987405
 30
0.0
 10
10.9286128459
 20
7.2631306923
 30
0.0
  0
SPLINE
  5
440
100
AcDbEntity
  8
0
100
AcDbSpline
 62
7
  6
CONTINUOUS
 70
0
 71
3
 72
20
 73
16
 74
0
 42
0.0000001
 43
0.0000001
 44
0.0000000001
 40
0.0
 40
0.0
 40
0.0
 40
0.0
 40
0.0720502447
 40
0.1429737885
 40
0.2807970617
 40
0.4129157665
 40
0.5392467422
 40
0.6003546221
 40
0.6601648192
 40
0.7187893389
 40
0.7763707241
 40
0.8330762014
 40
0.8890974023
 40
0.9446586536
 40
1.0
 40
1.0
 40
1.0
 40
1.0
 10
10.9215992077
 20
6.6806010136
 30
0.0
 10
10.9231003111
 20
6.6804528182
 30
0.0
 10
10.9260879172
 20
6.6802400603
 30
0.0
 10
10.9319681436
 20
6.6801533591
 30
0.0
 10
10.9391048862
 20
6.6806692301
 30
0.0
 10
10.9472600756
 20
6.6823114378
 30
0.0
 10
10.9535988947
 20
6.6845310509
 30
0.0
 10
10.9582597709
 20
6.6867931082
 30
0.0
 10
10.9615047966
 20
6.6886983874
 30
0.0
 10
10.9645210571
 20
6.6908228186
 30
0.0
 10
10.9672943828
 20
6.6931565251
 30
0.0
 10
10.9698120891
 20
6.695687928
 30
0.0
 10
10.9720612746
 20
6.6984063451
 30
0.0
 10
10.9740317256
 20
6.7012983644
 30
0.0
 10
10.9751541659
 20
6.7033355149
 30
0.0
 10
10.9756644294
 20
6.7043756927
 30
0.0
  0
SPLINE
  5
441
100
AcDbEntity
  8
0
100
AcDbSpline
 62
7
  6
CONTINUOUS
 70
0
 71
3
 72
19
 73
15
 74
0
 42
0.0000001
 43
0.0000001
 44
0.0000000001
 40
0.0
 40
0.0
 40
0.0
 40
0.0
 40
0.141244203
 40
0.2776088773
 40
0.4086185456
 40
0.4721846697
 40
0.5344987885
 40
0.6555856641
 40
0.7146265702
 40
0.772797953
 40
0.8302507972
 40
0.8871495823
 40
0.9436700852
 40
1.0
 40
1.0
 40
1.0
 40
1.0
 10
11.0336624322
 20
6.71193409
 30
0.0
 10
11.0347634582
 20
6.71193409
 30
0.0
 10
11.0369294956
 20
6.7120447599
 30
0.0
 10
11.0400799753
 20
6.712556322
 30
0.0
 10
11.0425657732
 20
6.7132734105
 30
0.0
 10
11.0444276217
 20
6.7140144297
 30
0.0
 10
11.046165127
 20
6.7148459591
 30
0.0
 10
11.0477824043
 20
6.7158390828
 30
0.0
 10
11.0492456855
 20
6.7169858119
 30
0.0
 10
11.0502495459
 20
6.7179078474
 30
0.0
 10
11.0511650107
 20
6.7188949822
 30
0.0
 10
11.0519889294
 20
6.7199435196
 30
0.0
 10
11.0527178692
 20
6.7210496396
 30
0.0
 10
11.0531388332
 20
6.7218234756
 30
0.0
 10
11.0533322385
 20
6.7222176908
 30
0.0
  0
SPLINE
  5
442
100
AcDbEntity
  8
0
100
AcDbSpline
 62
7
  6
CONTINUOUS
 70
0
 71
3
 72
17
 73
13
 74
0
 42
0.0000001
 43
0.0000001
 44
0.0000000001
 40
0.0
 40
0.0
 40
0.0
 40
0.0
 40
0.0609151048
 40
0.1228861717
 40
0.24914791
 40
0.3774818157
 40
0.5064483918
 40
0.634538388
 40
0.760298753
 40
0.8824560586
 40
0.9418878103
 40
1.0
 40
1.0
 40
1.0
 40
1.0
 10
10.9541134534
 20
6.7390421856
 30
0.0
 10
10.9529819445
 20
6.7403549393
 30
0.0
 10
10.9506123237
 20
6.7429295579
 30
0.0
 10
10.9454961559
 20
6.7478409461
 30
0.0
 10
10.9384417183
 20
6.7534774127
 30
0.0
 10
10.9291720963
 20
6.7592788574
 30
0.0
 10
10.9192629679
 20
6.7640269956
 30
0.0
 10
10.9089512641
 20
6.7676064097
 30
0.0
 10
10.898484794
 20
6.7699321539
 30
0.0
 10
10.889756336
 20
6.7707852702
 30
0.0
 10
10.8829325262
 20
6.7707779406
 30
0.0
 10
10.8795928732
 20
6.7705481418
 30
0.0
 10
10.8779485826
 20
6.770375262
 30
0.0
  0
SPLINE
  5
443
100
AcDbEntity
  8
0
100
AcDbSpline
 62
7
  6
CONTINUOUS
 70
0
 71
3
 72
24
 73
20
 74
0
 42
0.0000001
 43
0.0000001
 44
0.0000000001
 40
0.0
 40
0.0
 40
0.0
 40
0.0
 40
0.0426282625
 40
0.0859986659
 40
0.1308075271
 40
0.1776740909
 40
0.2020520425
 40
0.2271270267
 40
0.2795401582
 40
0.335247855
 40
0.3944634613
 40
0.457322027
 40
0.5239041246
 40
0.5942362723
 40
0.6682994551
 40
0.7460458992
 40
0.8273714268
 40
0.9120915457
 40
1.0
 40
1.0
 40
1.0
 40
1.0
 10
11.3429468586
 20
6.7943329434
 30
0.0
 10
11.3434041598
 20
6.7943328891
 30
0.0
 10
11.3443280478
 20
6.7942654309
 30
0.0
 10
11.3457030492
 20
6.7939642754
 30
0.0
 10
11.3470672718
 20
6.7934645875
 30
0.0
 10
11.3481763361
 20
6.792892098
 30
0.0
 10
11.3490521147
 20
6.7923430103
 30
0.0
 10
11.3499460662
 20
6.7917136773
 30
0.0
 10
11.3510498884
 20
6.7908025702
 30
0.0
 10
11.3523280225
 20
6.7895391926
 30
0.0
 10
11.3535757164
 20
6.7880944333
 30
0.0
 10
11.3547893891
 20
6.7864730776
 30
0.0
 10
11.3559651806
 20
6.7846798535
 30
0.0
 10
11.3570996608
 20
6.7827202221
 30
0.0
 10
11.3581897194
 20
6.7806000799
 30
0.0
 10
11.3592317693
 20
6.7783256607
 30
0.0
 10
11.3602223076
 20
6.7759044455
 30
0.0
 10
11.3611583272
 20
6.7733453533
 30
0.0
 10
11.3617335419
 20
6.7715846191
 30
0.0
 10
11.3620119753
 20
6.7706836082
 30
0.0
  0
SPLINE
  5
444
100
AcDbEntity
  8
0
100
AcDbSpline
 62
7
  6
CONTINUOUS
 70
0
 71
3
 72
24
 73
20
 74
0
 42
0.0000001
 43
0.0000001
 44
0.0000000001
 40
0.0
 40
0.0
 40
0.0
 40
0.0
 40
0.0426282625
 40
0.0859986659
 40
0.1308075271
 40
0.1776740909
 40
0.2020520425
 40
0.2271270267
 40
0.2795401582
 40
0.335247855
 40
0.3944634613
 40
0.457322027
 40
0.5239041246
 40
0.5942362723
 40
0.6682994551
 40
0.7460458992
 40
0.8273714268
 40
0.9120915457
 40
1.0
 40
1.0
 40
1.0
 40
1.0
 10
11.1344675793
 20
6.5988336051
 30
0.0
 10
11.1340102782
 20
6.5988336595
 30
0.0
 10
11.1330863901
 20
6.5989011176
 30
0.0
 10
11.1317113887
 20
6.5992022731
 30
0.0
 10
11.1303471661
 20
6.599701961
 30
0.0
 10
11.1292381019
 20
6.6002744506
 30
0.0
 10
11.1283623233
 20
6.6008235382
 30
0.0
 10
11.1274683718
 20
6.6014528712
 30
0.0
 10
11.1263645496
 20
6.6023639783
 30
0.0
 10
11.1250864154
 20
6.6036273559
 30
0.0
 10
11.1238387215
 20
6.6050721152
 30
0.0
 10
11.1226250489
 20
6.6066934709
 30
0.0
 10
11.1214492573
 20
6.608486695
 30
0.0
 10
11.1203147771
 20
6.6104463264
 30
0.0
 10
11.1192247186
 20
6.6125664686
 30
0.0
 10
11.1181826687
 20
6.6148408878
 30
0.0
 10
11.1171921304
 20
6.617262103
 30
0.0
 10
11.1162561107
 20
6.6198211952
 30
0.0
 10
11.115680896
 20
6.6215819294
 30
0.0
 10
11.1154024626
 20
6.6224829403
 30
0.0
  0
SPLINE
  5
445
100
AcDbEntity
  8
0
100
AcDbSpline
 62
7
  6
CONTINUOUS
 70
0
 71
3
 72
21
 73
17
 74
0
 42
0.0000001
 43
0.0000001
 44
0.0000000001
 40
0.0
 40
0.0
 40
0.0
 40
0.0
 40
0.0541533495
 40
0.1101691068
 40
0.1680545852
 40
0.2277506664
 40
0.2891229987
 40
0.3519895746
 40
0.4811303489
 40
0.6130229407
 40
0.6792476261
 40
0.7451801374
 40
0.8105089726
 40
0.8749574863
 40
0.938236133
 40
1.0
 40
1.0
 40
1.0
 40
1.0
 10
11.0446551615
 20
6.7141390777
 30
0.0
 10
11.044461915
 20
6.7149490664
 30
0.0
 10
11.0439729187
 20
6.7165753134
 30
0.0
 10
11.0429686177
 20
6.7189609851
 30
0.0
 10
11.041692579
 20
6.7213104513
 30
0.0
 10
11.0401573526
 20
6.7235986404
 30
0.0
 10
11.0383800064
 20
6.7258033885
 30
0.0
 10
11.0356872052
 20
6.728624575
 30
0.0
 10
11.0318249031
 20
6.7318029012
 30
0.0
 10
11.0274902329
 20
6.7343967956
 30
0.0
 10
11.023796296
 20
6.7360896014
 30
0.0
 10
11.0209473981
 20
6.7371494983
 30
0.0
 10
11.0180536344
 20
6.737986066
 30
0.0
 10
11.0151441936
 20
6.7385911578
 30
0.0
 10
11.0122504936
 20
6.7389573326
 30
0.0
 10
11.0103268628
 20
6.7390421856
 30
0.0
 10
11.009377113
 20
6.7390421856
 30
0.0
  0
SPLINE
  5
446
100
AcDbEntity
  8
0
100
AcDbSpline
 62
7
  6
CONTINUOUS
 70
0
 71
3
 72
32
 73
28
 74
0
 42
0.0000001
 43
0.0000001
 44
0.0000000001
 40
0.0
 40
0.0
 40
0.0
 40
0.0
 40
0.0330263777
 40
0.0673721912
 40
0.1394000411
 40
0.2149139374
 40
0.2927462453
 40
0.3716119656
 40
0.4501978323
 40
0.5272039806
 40
0.6013751208
 40
0.6370331349
 40
0.6715539532
 40
0.7048099037
 40
0.7366906799
 40
0.7670949169
 40
0.7959349196
 40
0.8231491215
 40
0.8486930198
 40
0.8725469178
 40
0.8947321357
 40
0.9153050114
 40
0.9343702234
 40
0.9520998512
 40
0.9687304727
 40
0.9845715768
 40
1.0
 40
1.0
 40
1.0
 40
1.0
 10
11.1466692539
 20
6.6861979621
 30
0.0
 10
11.146899868
 20
6.6854516946
 30
0.0
 10
11.1473387373
 20
6.683919433
 30
0.0
 10
11.1481282131
 20
6.6807178828
 30
0.0
 10
11.1489374167
 20
6.676489446
 30
0.0
 10
11.1496151318
 20
6.6711995373
 30
0.0
 10
11.1500011027
 20
6.6657183168
 30
0.0
 10
11.1500879523
 20
6.6601517213
 30
0.0
 10
11.1498737904
 20
6.654608029
 30
0.0
 10
11.1493626034
 20
6.649195312
 30
0.0
 10
11.148689446
 20
6.6448250058
 30
0.0
 10
11.1480047059
 20
6.6414798773
 30
0.0
 10
11.1474319578
 20
6.639101048
 30
0.0
 10
11.1467957104
 20
6.6368310093
 30
0.0
 10
11.1460995035
 20
6.6346806715
 30
0.0
 10
11.1453467262
 20
6.6326604661
 30
0.0
 10
11.1445405895
 20
6.6307803402
 30
0.0
 10
11.1436854512
 20
6.6290491584
 30
0.0
 10
11.1427853558
 20
6.6274751733
 30
0.0
 10
11.1418440016
 20
6.6260661807
 30
0.0
 10
11.1408661568
 20
6.6248285436
 30
0.0
 10
11.1398559837
 20
6.6237681016
 30
0.0
 10
11.1388171025
 20
6.6228906651
 30
0.0
 10
11.1377541767
 20
6.622200523
 30
0.0
 10
11.1366712081
 20
6.6217023013
 30
0.0
 10
11.1355736156
 20
6.6214013695
 30
0.0
 10
11.1348324677
 20
6.6213337775
 30
0.0
 10
11.134467579
 20
6.6213337147
 30
0.0
  0
SPLINE
  5
447
100
AcDbEntity
  8
0
100
AcDbSpline
 62
7
  6
CONTINUOUS
 70
0
 71
3
 72
15
 73
11
 74
0
 42
0.0000001
 43
0.0000001
 44
0.0000000001
 40
0.0
 40
0.0
 40
0.0
 40
0.0
 40
0.1555742774
 40
0.3006763737
 40
0.4357351824
 40
0.5615197588
 40
0.6791326443
 40
0.7900744028
 40
0.8962759351
 40
1.0
 40
1.0
 40
1.0
 40
1.0
 10
11.1004147418
 20
6.7858140395
 30
0.0
 10
11.1008620424
 20
6.7864842499
 30
0.0
 10
11.1017705873
 20
6.7877511032
 30
0.0
 10
11.1032294
 20
6.7894765218
 30
0.0
 10
11.1047315133
 20
6.7909525714
 30
0.0
 10
11.1062708002
 20
6.7921729606
 30
0.0
 10
11.1078418472
 20
6.7931316631
 30
0.0
 10
11.1094392751
 20
6.7938219916
 30
0.0
 10
11.1110549631
 20
6.7942394186
 30
0.0
 10
11.1121443916
 20
6.7943330073
 30
0.0
 10
11.1126816101
 20
6.7943329434
 30
0.0
  0
SPLINE
  5
448
100
AcDbEntity
  8
0
100
AcDbSpline
 62
7
  6
CONTINUOUS
 70
0
 71
3
 72
34
 73
30
 74
0
 42
0.0000001
 43
0.0000001
 44
0.0000000001
 40
0.0
 40
0.0
 40
0.0
 40
0.0
 40
0.0330342808
 40
0.0673799297
 40
0.1393937683
 40
0.2149075242
 40
0.2927400718
 40
0.371602736
 40
0.4501864685
 40
0.5271910554
 40
0.5647102502
 40
0.6013700054
 40
0.6370262384
 40
0.6715460574
 40
0.7048022261
 40
0.7366814942
 40
0.7670848479
 40
0.7959247449
 40
0.8231381637
 40
0.8486807876
 40
0.8725347319
 40
0.8947198531
 40
0.9152908272
 40
0.9343565704
 40
0.952086124
 40
0.9687152027
 40
0.984556659
 40
0.9923046339
 40
1.0
 40
1.0
 40
1.0
 40
1.0
 10
11.3837979444
 20
6.7001841863
 30
0.0
 10
11.3841583743
 20
6.699017835
 30
0.0
 10
11.3848442702
 20
6.696623361
 30
0.0
 10
11.3860778751
 20
6.6916210529
 30
0.0
 10
11.3873419088
 20
6.6850144175
 30
0.0
 10
11.3884007193
 20
6.6767492352
 30
0.0
 10
11.3890041838
 20
6.6681847614
 30
0.0
 10
11.3891397331
 20
6.6594868515
 30
0.0
 10
11.3888048386
 20
6.650825087
 30
0.0
 10
11.3881338772
 20
6.6437161514
 30
0.0
 10
11.3873613958
 20
6.6381821369
 30
0.0
 10
11.386676675
 20
6.6341806715
 30
0.0
 10
11.3858845752
 20
6.6303121192
 30
0.0
 10
11.3849895799
 20
6.626595242
 30
0.0
 10
11.3839956615
 20
6.6230482299
 30
0.0
 10
11.382907699
 20
6.6196883613
 30
0.0
 10
11.3817314549
 20
6.6165318126
 30
0.0
 10
11.3804719494
 20
6.6135940646
 30
0.0
 10
11.3791358013
 20
6.610889091
 30
0.0
 10
11.3777292879
 20
6.6084298076
 30
0.0
 10
11.3762584722
 20
6.6062282139
 30
0.0
 10
11.3747307545
 20
6.6042942727
 30
0.0
 10
11.3731520362
 20
6.6026376227
 30
0.0
 10
11.3715289957
 20
6.6012664705
 30
0.0
 10
11.3698681812
 20
6.6001878302
 30
0.0
 10
11.3681761339
 20
6.59941004
 30
0.0
 10
11.3667351579
 20
6.5990148078
 30
0.0
 10
11.3655882761
 20
6.5988593302
 30
0.0
 10
11.3650172079
 20
6.5988335713
 30
0.0
 10
11.3647328278
 20
6.5988336051
 30
0.0
  0
SPLINE
  5
449
100
AcDbEntity
  8
0
100
AcDbSpline
 62
7
  6
CONTINUOUS
 70
0
 71
3
 72
17
 73
13
 74
0
 42
0.0000001
 43
0.0000001
 44
0.0000000001
 40
0.0
 40
0.0
 40
0.0
 40
0.0
 40
0.0609151048
 40
0.1228861717
 40
0.24914791
 40
0.3774818157
 40
0.5064483918
 40
0.634538388
 40
0.760298753
 40
0.8824560586
 40
0.9418878103
 40
1.0
 40
1.0
 40
1.0
 40
1.0
 10
10.9638747931
 20
6.7589337046
 30
0.0
 10
10.9627432842
 20
6.7602464583
 30
0.0
 10
10.9603736634
 20
6.7628210769
 30
0.0
 10
10.9552574956
 20
6.7677324651
 30
0.0
 10
10.948203058
 20
6.7733689317
 30
0.0
 10
10.938933436
 20
6.7791703763
 30
0.0
 10
10.9290243076
 20
6.7839185145
 30
0.0
 10
10.9187126038
 20
6.7874979287
 30
0.0
 10
10.9082461338
 20
6.7898236728
 30
0.0
 10
10.8995176757
 20
6.7906767892
 30
0.0
 10
10.8926938659
 20
6.7906694596
 30
0.0
 10
10.8893542129
 20
6.7904396608
 30
0.0
 10
10.8877099224
 20
6.7902667809
 30
0.0
  0
SPLINE
  5
44A
100
AcDbEntity
  8
0
100
AcDbSpline
 62
7
  6
CONTINUOUS
 70
0
 71
3
 72
27
 73
23
 74
0
 42
0.0000001
 43
0.0000001
 44
0.0000000001
 40
0.0
 40
0.0
 40
0.0
 40
0.0
 40
0.0251958078
 40
0.0504969587
 40
0.0760066377
 40
0.1018213709
 40
0.1280274572
 40
0.1547023829
 40
0.1819113
 40
0.2097035504
 40
0.2381170939
 40
0.2671780222
 40
0.3272354777
 40
0.3898600814
 40
0.4548235365
 40
0.5217646532
 40
0.5902087781
 40
0.7292088789
 40
0.7987163885
 40
0.8673766771
 40
0.9346692169
 40
1.0
 40
1.0
 40
1.0
 40
1.0
 10
11.0533322385
 20
6.7222176908
 30
0.0
 10
11.0535476197
 20
6.7226566994
 30
0.0
 10
11.053938197
 20
6.7235573917
 30
0.0
 10
11.0543968104
 20
6.7249615566
 30
0.0
 10
11.0547259917
 20
6.7264139804
 30
0.0
 10
11.0549247029
 20
6.727907509
 30
0.0
 10
11.0549924914
 20
6.7294352381
 30
0.0
 10
11.0549285219
 20
6.7309901234
 30
0.0
 10
11.0547332317
 20
6.7325649289
 30
0.0
 10
11.0544082315
 20
6.7341524871
 30
0.0
 10
11.0539547339
 20
6.7357455963
 30
0.0
 10
11.053172712
 20
6.7378901549
 30
0.0
 10
11.0518777024
 20
6.7405456898
 30
0.0
 10
11.0498770608
 20
6.7435990076
 30
0.0
 10
11.0474508802
 20
6.746501948
 30
0.0
 10
11.0446422119
 20
6.7492019677
 30
0.0
 10
11.0404379131
 20
6.7524817149
 30
0.0
 10
11.0357188116
 20
6.755140569
 30
0.0
 10
11.0306932738
 20
6.7570764059
 30
0.0
 10
11.0268416085
 20
6.7581364819
 30
0.0
 10
11.0229822276
 20
6.758782508
 30
0.0
 10
11.0204063833
 20
6.7589337046
 30
0.0
 10
11.0191384527
 20
6.7589337046
 30
0.0
  0
SPLINE
  5
44B
100
AcDbEntity
  8
0
100
AcDbSpline
 62
7
  6
CONTINUOUS
 70
0
 71
3
 72
24
 73
20
 74
0
 42
0.0000001
 43
0.0000001
 44
0.0000000001
 40
0.0
 40
0.0
 40
0.0
 40
0.0
 40
0.0426282625
 40
0.0859986659
 40
0.1308075271
 40
0.1776740909
 40
0.2020520425
 40
0.2271270267
 40
0.2795401582
 40
0.335247855
 40
0.3944634613
 40
0.457322027
 40
0.5239041246
 40
0.5942362723
 40
0.6682994551
 40
0.7460458992
 40
0.8273714268
 40
0.9120915457
 40
1.0
 40
1.0
 40
1.0
 40
1.0
 10
11.1126816101
 20
6.7943329434
 30
0.0
 10
11.1131389113
 20
6.7943328891
 30
0.0
 10
11.1140627993
 20
6.7942654309
 30
0.0
 10
11.1154378007
 20
6.7939642754
 30
0.0
 10
11.1168020233
 20
6.7934645875
 30
0.0
 10
11.1179110876
 20
6.792892098
 30
0.0
 10
11.1187868662
 20
6.7923430103
 30
0.0
 10
11.1196808177
 20
6.7917136773
 30
0.0
 10
11.1207846399
 20
6.7908025702
 30
0.0
 10
11.122062774
 20
6.7895391926
 30
0.0
 10
11.1233104679
 20
6.7880944333
 30
0.0
 10
11.1245241406
 20
6.7864730776
 30
0.0
 10
11.1256999321
 20
6.7846798535
 30
0.0
 10
11.1268344123
 20
6.7827202221
 30
0.0
 10
11.1279244709
 20
6.7806000799
 30
0.0
 10
11.1289665208
 20
6.7783256607
 30
0.0
 10
11.1299570591
 20
6.7759044455
 30
0.0
 10
11.1308930787
 20
6.7733453533
 30
0.0
 10
11.1314682934
 20
6.7715846191
 30
0.0
 10
11.1317467268
 20
6.7706836082
 30
0.0
  0
SPLINE
  5
44C
100
AcDbEntity
  8
0
100
AcDbSpline
 62
7
  6
CONTINUOUS
 70
0
 71
3
 72
34
 73
30
 74
0
 42
0.0000001
 43
0.0000001
 44
0.0000000001
 40
0.0
 40
0.0
 40
0.0
 40
0.0
 40
0.0330342808
 40
0.0673799297
 40
0.1393937683
 40
0.2149075242
 40
0.2927400718
 40
0.371602736
 40
0.4501864685
 40
0.5271910554
 40
0.5647102502
 40
0.6013700054
 40
0.6370262384
 40
0.6715460574
 40
0.7048022261
 40
0.7366814942
 40
0.7670848479
 40
0.7959247449
 40
0.8231381637
 40
0.8486807876
 40
0.8725347319
 40
0.8947198531
 40
0.9152908272
 40
0.9343565704
 40
0.952086124
 40
0.9687152027
 40
0.984556659
 40
0.9923046339
 40
1.0
 40
1.0
 40
1.0
 40
1.0
 10
11.1535326959
 20
6.7001841863
 30
0.0
 10
11.1538931258
 20
6.699017835
 30
0.0
 10
11.1545790217
 20
6.696623361
 30
0.0
 10
11.1558126266
 20
6.6916210529
 30
0.0
 10
11.1570766603
 20
6.6850144175
 30
0.0
 10
11.1581354708
 20
6.6767492352
 30
0.0
 10
11.1587389353
 20
6.6681847614
 30
0.0
 10
11.1588744846
 20
6.6594868515
 30
0.0
 10
11.1585395901
 20
6.650825087
 30
0.0
 10
11.1578686287
 20
6.6437161514
 30
0.0
 10
11.1570961473
 20
6.6381821369
 30
0.0
 10
11.1564114265
 20
6.6341806715
 30
0.0
 10
11.1556193267
 20
6.6303121192
 30
0.0
 10
11.1547243314
 20
6.626595242
 30
0.0
 10
11.153730413
 20
6.6230482299
 30
0.0
 10
11.1526424505
 20
6.6196883613
 30
0.0
 10
11.1514662064
 20
6.6165318126
 30
0.0
 10
11.1502067009
 20
6.6135940646
 30
0.0
 10
11.1488705528
 20
6.610889091
 30
0.0
 10
11.1474640394
 20
6.6084298076
 30
0.0
 10
11.1459932237
 20
6.6062282139
 30
0.0
 10
11.144465506
 20
6.6042942727
 30
0.0
 10
11.1428867877
 20
6.6026376227
 30
0.0
 10
11.1412637472
 20
6.6012664705
 30
0.0
 10
11.1396029327
 20
6.6001878302
 30
0.0
 10
11.1379108854
 20
6.59941004
 30
0.0
 10
11.1364699094
 20
6.5990148078
 30
0.0
 10
11.1353230276
 20
6.5988593302
 30
0.0
 10
11.1347519594
 20
6.5988335713
 30
0.0
 10
11.1344675793
 20
6.5988336051
 30
0.0
  0
SPLINE
  5
44D
100
AcDbEntity
  8
0
100
AcDbSpline
 62
7
  6
CONTINUOUS
 70
0
 71
3
 72
21
 73
17
 74
0
 42
0.0000001
 43
0.0000001
 44
0.0000000001
 40
0.0
 40
0.0
 40
0.0
 40
0.0
 40
0.0426346271
 40
0.0860130216
 40
0.1308320951
 40
0.1777041294
 40
0.2794482405
 40
0.3351652261
 40
0.3943814533
 40
0.4572442226
 40
0.5238366454
 40
0.5941831706
 40
0.66827193
 40
0.7460571957
 40
0.827406285
 40
1.0
 40
1.0
 40
1.0
 40
1.0
 10
11.134467579
 20
6.6213337147
 30
0.0
 10
11.1341749141
 20
6.6213336643
 30
0.0
 10
11.133583597
 20
6.6213765749
 30
0.0
 10
11.132703634
 20
6.6215695464
 30
0.0
 10
11.1318305555
 20
6.621889594
 30
0.0
 10
11.1306479105
 20
6.6224995879
 30
0.0
 10
11.129522165
 20
6.6233555686
 30
0.0
 10
11.1284638162
 20
6.6244016501
 30
0.0
 10
11.1276650144
 20
6.6253261894
 30
0.0
 10
11.1268884092
 20
6.6263637403
 30
0.0
 10
11.1261359856
 20
6.6275114248
 30
0.0
 10
11.1254098092
 20
6.6287656242
 30
0.0
 10
11.124712044
 20
6.6301227546
 30
0.0
 10
11.1240451421
 20
6.6315787682
 30
0.0
 10
11.1231827963
 20
6.6336868119
 30
0.0
 10
11.1226157042
 20
6.6353372128
 30
0.0
 10
11.1222659046
 20
6.6364691646
 30
0.0
  0
SPLINE
  5
44E
100
AcDbEntity
  8
0
100
AcDbSpline
 62
7
  6
CONTINUOUS
 70
0
 71
3
 72
11
 73
7
 74
0
 42
0.0000001
 43
0.0000001
 44
0.0000000001
 40
0.0
 40
0.0
 40
0.0
 40
0.0
 40
0.2700844898
 40
0.507039197
 40
0.7412112891
 40
1.0
 40
1.0
 40
1.0
 40
1.0
 10
14.9861284659
 20
6.5655682458
 30
0.0
 10
14.986091289
 20
6.5656889589
 30
0.0
 10
14.9859956081
 20
6.5659102297
 30
0.0
 10
14.9857536335
 20
6.5661695171
 30
0.0
 10
14.9854366066
 20
6.566315202
 30
0.0
 10
14.9852039815
 20
6.5663395472
 30
0.0
 10
14.9850829558
 20
6.5663394757
 30
0.0
  0
SPLINE
  5
44F
100
AcDbEntity
  8
AXIS_PART
100
AcDbSpline
 62
7
  6
CONTINUOUS
 70
0
 71
3
 72
16
 73
12
 74
0
 42
0.0000001
 43
0.0000001
 44
0.0000000001
 40
0.0
 40
0.0
 40
0.0
 40
0.0
 40
0.1412234793
 40
0.2101138071
 40
0.2777197037
 40
0.4088131461
 40
0.5346578474
 40
0.6557585288
 40
0.7729204809
 40
0.8872129969
 40
1.0
 40
1.0
 40
1.0
 40
1.0
 10
12.7483678587
 20
6.8851298603
 30
0.0
 10
12.7515043664
 20
6.8851298603
 30
0.0
 10
12.7561765495
 20
6.8853692054
 30
0.0
 10
12.7622915236
 20
6.8861956726
 30
0.0
 10
12.7681286424
 20
6.8873275791
 30
0.0
 10
12.7750734501
 20
6.8893305131
 30
0.0
 10
12.782796372
 20
6.8926880584
 30
0.0
 10
12.7897112166
 20
6.8969357803
 30
0.0
 10
12.7957162064
 20
6.9020107017
 30
0.0
 10
12.8007118912
 20
6.9078417536
 30
0.0
 10
12.8033228005
 20
6.9121895902
 30
0.0
 10
12.8044267085
 20
6.9144381777
 30
0.0
  0
SPLINE
  5
450
100
AcDbEntity
  8
AXIS_PART
100
AcDbSpline
 62
7
  6
CONTINUOUS
 70
0
 71
3
 72
16
 73
12
 74
0
 42
0.0000001
 43
0.0000001
 44
0.0000000001
 40
0.0
 40
0.0
 40
0.0
 40
0.0
 40
0.1412234793
 40
0.2101138071
 40
0.2777197037
 40
0.4088131461
 40
0.5346578474
 40
0.6557585288
 40
0.7729204809
 40
0.8872129969
 40
1.0
 40
1.0
 40
1.0
 40
1.0
 10
15.6266834649
 20
6.8851298603
 30
0.0
 10
15.6298199726
 20
6.8851298603
 30
0.0
 10
15.6344921558
 20
6.8853692054
 30
0.0
 10
15.6406071299
 20
6.8861956726
 30
0.0
 10
15.6464442487
 20
6.8873275791
 30
0.0
 10
15.6533890564
 20
6.8893305131
 30
0.0
 10
15.6611119783
 20
6.8926880584
 30
0.0
 10
15.6680268228
 20
6.8969357803
 30
0.0
 10
15.6740318127
 20
6.9020107017
 30
0.0
 10
15.6790274975
 20
6.9078417536
 30
0.0
 10
15.6816384067
 20
6.9121895902
 30
0.0
 10
15.6827423147
 20
6.9144381777
 30
0.0
  0
SPLINE
  5
451
100
AcDbEntity
  8
AXIS_PART
100
AcDbSpline
 62
7
  6
CONTINUOUS
 70
0
 71
3
 72
25
 73
21
 74
0
 42
0.0000001
 43
0.0000001
 44
0.0000000001
 40
0.0
 40
0.0
 40
0.0
 40
0.0
 40
0.0251941036
 40
0.0504943327
 40
0.1017648228
 40
0.1279693729
 40
0.1546441772
 40
0.2096007716
 40
0.2670354686
 40
0.327091466
 40
0.3897130904
 40
0.4546749752
 40
0.5216123121
 40
0.5900551739
 40
0.6594573856
 40
0.729217152
 40
0.798713359
 40
0.8673866094
 40
0.9346956888
 40
1.0
 40
1.0
 40
1.0
 40
1.0
 10
12.6149942888
 20
6.9897704444
 30
0.0
 10
12.6143801451
 20
6.9885194744
 30
0.0
 10
12.6132663208
 20
6.985952509
 30
0.0
 10
12.6115185513
 20
6.9805952045
 30
0.0
 10
12.6105175611
 20
6.9749614159
 30
0.0
 10
12.6102622443
 20
6.9692007913
 30
0.0
 10
12.6105088353
 20
6.9632343762
 30
0.0
 10
12.6117808527
 20
6.9556124348
 30
0.0
 10
12.6147594653
 20
6.94651701
 30
0.0
 10
12.6191396701
 20
6.9375365166
 30
0.0
 10
12.62484176
 20
6.9288338344
 30
0.0
 10
12.6317560501
 20
6.9205601917
 30
0.0
 10
12.6397605199
 20
6.9128665201
 30
0.0
 10
12.6487060736
 20
6.9058861183
 30
0.0
 10
12.6584348882
 20
6.899750353
 30
0.0
 10
12.6687656959
 20
6.8945629911
 30
0.0
 10
12.6795160064
 20
6.8904233222
 30
0.0
 10
12.6904931257
 20
6.8874012272
 30
0.0
 10
12.7014935848
 20
6.8855621848
 30
0.0
 10
12.7088342234
 20
6.8851298603
 30
0.0
 10
12.7124464799
 20
6.8851298603
 30
0.0
  0
SPLINE
  5
452
100
AcDbEntity
  8
AXIS_PART
100
AcDbSpline
 62
7
  6
CONTINUOUS
 70
0
 71
3
 72
25
 73
21
 74
0
 42
0.0000001
 43
0.0000001
 44
0.0000000001
 40
0.0
 40
0.0
 40
0.0
 40
0.0
 40
0.0251941036
 40
0.0504943327
 40
0.1017648228
 40
0.1279693729
 40
0.1546441772
 40
0.2096007716
 40
0.2670354686
 40
0.327091466
 40
0.3897130904
 40
0.4546749752
 40
0.5216123121
 40
0.5900551739
 40
0.6594573856
 40
0.729217152
 40
0.798713359
 40
0.8673866094
 40
0.9346956888
 40
1.0
 40
1.0
 40
1.0
 40
1.0
 10
15.493309895
 20
6.9897704444
 30
0.0
 10
15.4926957513
 20
6.9885194744
 30
0.0
 10
15.4915819271
 20
6.985952509
 30
0.0
 10
15.4898341575
 20
6.9805952045
 30
0.0
 10
15.4888331674
 20
6.9749614159
 30
0.0
 10
15.4885778506
 20
6.9692007913
 30
0.0
 10
15.4888244415
 20
6.9632343762
 30
0.0
 10
15.490096459
 20
6.9556124348
 30
0.0
 10
15.4930750716
 20
6.94651701
 30
0.0
 10
15.4974552764
 20
6.9375365166
 30
0.0
 10
15.5031573662
 20
6.9288338344
 30
0.0
 10
15.5100716563
 20
6.9205601917
 30
0.0
 10
15.5180761262
 20
6.9128665201
 30
0.0
 10
15.5270216799
 20
6.9058861183
 30
0.0
 10
15.5367504945
 20
6.899750353
 30
0.0
 10
15.5470813021
 20
6.8945629911
 30
0.0
 10
15.5578316126
 20
6.8904233222
 30
0.0
 10
15.568808732
 20
6.8874012272
 30
0.0
 10
15.5798091911
 20
6.8855621848
 30
0.0
 10
15.5871498297
 20
6.8851298603
 30
0.0
 10
15.5907620862
 20
6.8851298603
 30
0.0
  0
SPLINE
  5
453
100
AcDbEntity
  8
0
100
AcDbSpline
 62
7
  6
CONTINUOUS
 70
0
 71
3
 72
14
 73
10
 74
0
 42
0.0000001
 43
0.0000001
 44
0.0000000001
 40
0.0
 40
0.0
 40
0.0
 40
0.0
 40
0.1161062707
 40
0.2331436897
 40
0.3521504422
 40
0.4741975289
 40
0.5999077878
 40
0.7294368821
 40
1.0
 40
1.0
 40
1.0
 40
1.0
 10
13.4925387265
 20
6.5582593849
 30
0.0
 10
13.4930708696
 20
6.5589589641
 30
0.0
 10
13.4942521876
 20
6.5602815283
 30
0.0
 10
13.4963161038
 20
6.5619838618
 30
0.0
 10
13.498643736
 20
6.5633907551
 30
0.0
 10
13.5011925072
 20
6.5645090121
 30
0.0
 10
13.5039270505
 20
6.5653529866
 30
0.0
 10
13.5078338454
 20
6.5661408962
 30
0.0
 10
13.5108727715
 20
6.566339706
 30
0.0
 10
13.5129210392
 20
6.5663394757
 30
0.0
  0
SPLINE
  5
454
100
AcDbEntity
  8
0
100
AcDbSpline
 62
7
  6
CONTINUOUS
 70
0
 71
3
 72
13
 73
9
 74
0
 42
0.0000001
 43
0.0000001
 44
0.0000000001
 40
0.0
 40
0.0
 40
0.0
 40
0.0
 40
0.0971266543
 40
0.1977843782
 40
0.4209245466
 40
0.5482400288
 40
0.6870947788
 40
1.0
 40
1.0
 40
1.0
 40
1.0
 10
15.4100221953
 20
5.973109404
 30
0.0
 10
15.4102350535
 20
5.9731094984
 30
0.0
 10
15.4106697595
 20
5.9731559402
 30
0.0
 10
15.4115533185
 20
5.9734392065
 30
0.0
 10
15.4123881603
 20
5.9740058985
 30
0.0
 10
15.4131452821
 20
5.9747660868
 30
0.0
 10
15.4139396223
 20
5.9757589324
 30
0.0
 10
15.4144453798
 20
5.9766165512
 30
0.0
 10
15.4147563101
 20
5.9772277575
 30
0.0
  0
SPLINE
  5
455
100
AcDbEntity
  8
AXIS_PART
100
AcDbSpline
 62
7
  6
CONTINUOUS
 70
0
 71
3
 72
16
 73
12
 74
0
 42
0.0000001
 43
0.0000001
 44
0.0000000001
 40
0.0
 40
0.0
 40
0.0
 40
0.0
 40
0.1412234793
 40
0.2101138071
 40
0.2777197037
 40
0.4088131461
 40
0.5346578474
 40
0.6557585288
 40
0.7729204809
 40
0.8872129969
 40
1.0
 40
1.0
 40
1.0
 40
1.0
 10
12.6710531386
 20
7.0190787618
 30
0.0
 10
12.6679166309
 20
7.0190787618
 30
0.0
 10
12.6632444477
 20
7.0188394167
 30
0.0
 10
12.6571294737
 20
7.0180129495
 30
0.0
 10
12.6512923549
 20
7.016881043
 30
0.0
 10
12.6443475471
 20
7.014878109
 30
0.0
 10
12.6366246252
 20
7.0115205637
 30
0.0
 10
12.6297097807
 20
7.0072728418
 30
0.0
 10
12.6237047908
 20
7.0021979204
 30
0.0
 10
12.618709106
 20
6.9963668685
 30
0.0
 10
12.6160981968
 20
6.9920190319
 30
0.0
 10
12.6149942888
 20
6.9897704444
 30
0.0
  0
LINE
  5
456
100
AcDbEntity
  8
0
100
AcDbLine
 62
7
  6
CONTINUOUS
 10
12.1841665125
 20
6.6519090227
 11
12.1838715259
 21
6.6539277727
  0
SPLINE
  5
457
100
AcDbEntity
  8
0
100
AcDbSpline
 62
7
  6
CONTINUOUS
 70
0
 71
3
 72
13
 73
9
 74
0
 42
0.0000001
 43
0.0000001
 44
0.0000000001
 40
0.0
 40
0.0
 40
0.0
 40
0.0
 40
0.0971241508
 40
0.1977847425
 40
0.4209362787
 40
0.5482545151
 40
0.6871084398
 40
1.0
 40
1.0
 40
1.0
 40
1.0
 10
12.5652423111
 20
5.9731094049
 30
0.0
 10
12.5654551181
 20
5.9731095988
 30
0.0
 10
12.5658897085
 20
5.9731562218
 30
0.0
 10
12.5667729974
 20
5.9734397455
 30
0.0
 10
12.5676075547
 20
5.9740065027
 30
0.0
 10
12.5683644486
 20
5.9747666333
 30
0.0
 10
12.5691585338
 20
5.9757592978
 30
0.0
 10
12.5696641524
 20
5.9766167091
 30
0.0
 10
12.5699750024
 20
5.9772277575
 30
0.0
  0
SPLINE
  5
458
100
AcDbEntity
  8
0
100
AcDbSpline
 62
7
  6
CONTINUOUS
 70
0
 71
3
 72
11
 73
7
 74
0
 42
0.0000001
 43
0.0000001
 44
0.0000000001
 40
0.0
 40
0.0
 40
0.0
 40
0.0
 40
0.2349022486
 40
0.4767498171
 40
0.7306107386
 40
1.0
 40
1.0
 40
1.0
 40
1.0
 10
12.3484304335
 20
6.1203507789
 30
0.0
 10
12.3482952969
 20
6.1207876769
 30
0.0
 10
12.3481151022
 20
6.1217064526
 30
0.0
 10
12.3481342181
 20
6.1231375109
 30
0.0
 10
12.3484292136
 20
6.1246050923
 30
0.0
 10
12.3487933874
 20
6.1255616166
 30
0.0
 10
12.3490144706
 20
6.1260372025
 30
0.0
  0
SPLINE
  5
459
100
AcDbEntity
  8
0
100
AcDbSpline
 62
7
  6
CONTINUOUS
 70
0
 71
3
 72
17
 73
13
 74
0
 42
0.0000001
 43
0.0000001
 44
0.0000000001
 40
0.0
 40
0.0
 40
0.0
 40
0.0
 40
0.0561210892
 40
0.1127011432
 40
0.2276621371
 40
0.2863297044
 40
0.3458936539
 40
0.4679277107
 40
0.5942453206
 40
0.7250762801
 40
0.8604462828
 40
1.0
 40
1.0
 40
1.0
 40
1.0
 10
15.5303881908
 20
6.0275368419
 30
0.0
 10
15.5289485159
 20
6.0255578935
 30
0.0
 10
15.525911712
 20
6.0216872311
 30
0.0
 10
15.5192363298
 20
6.0143307754
 30
0.0
 10
15.5117143385
 20
6.0076262437
 30
0.0
 10
15.5034831505
 20
6.0016464547
 30
0.0
 10
15.494618578
 20
5.9960492344
 30
0.0
 10
15.4826044493
 20
5.9899727063
 30
0.0
 10
15.4670427365
 20
5.9842835156
 30
0.0
 10
15.4503897548
 20
5.9801898929
 30
0.0
 10
15.432838936
 20
5.9777405357
 30
0.0
 10
15.4208417021
 20
5.9772204845
 30
0.0
 10
15.4147563101
 20
5.9772277575
 30
0.0
  0
SPLINE
  5
45A
100
AcDbEntity
  8
0
100
AcDbSpline
 62
7
  6
CONTINUOUS
 70
0
 71
3
 72
14
 73
10
 74
0
 42
0.0000001
 43
0.0000001
 44
0.0000000001
 40
0.0
 40
0.0
 40
0.0
 40
0.0
 40
0.1128788299
 40
0.2305215027
 40
0.3522394325
 40
0.4772511739
 40
0.6050856874
 40
0.7352007166
 40
1.0
 40
1.0
 40
1.0
 40
1.0
 10
13.5129210392
 20
6.5663394757
 30
0.0
 10
13.5150060527
 20
6.5663392413
 30
0.0
 10
13.5192664732
 20
6.5660546148
 30
0.0
 10
13.5256857046
 20
6.5649410569
 30
0.0
 10
13.5321989738
 20
6.5632160804
 30
0.0
 10
13.5387428566
 20
6.5609531385
 30
0.0
 10
13.545264862
 20
6.5582015406
 30
0.0
 10
13.5539263069
 20
6.5539250542
 30
0.0
 10
13.5601908044
 20
6.5501521552
 30
0.0
 10
13.5642477313
 20
6.5474199522
 30
0.0
  0
SPLINE
  5
45B
100
AcDbEntity
  8
AXIS_PART
100
AcDbSpline
 62
7
  6
CONTINUOUS
 70
0
 71
3
 72
16
 73
12
 74
0
 42
0.0000001
 43
0.0000001
 44
0.0000000001
 40
0.0
 40
0.0
 40
0.0
 40
0.0
 40
0.1412234793
 40
0.2101138071
 40
0.2777197037
 40
0.4088131461
 40
0.5346578474
 40
0.6557585288
 40
0.7729204809
 40
0.8872129969
 40
1.0
 40
1.0
 40
1.0
 40
1.0
 10
15.5493687449
 20
7.0190787618
 30
0.0
 10
15.5462322371
 20
7.0190787618
 30
0.0
 10
15.541560054
 20
7.0188394167
 30
0.0
 10
15.5354450799
 20
7.0180129495
 30
0.0
 10
15.5296079611
 20
7.016881043
 30
0.0
 10
15.5226631534
 20
7.014878109
 30
0.0
 10
15.5149402315
 20
7.0115205637
 30
0.0
 10
15.5080253869
 20
7.0072728418
 30
0.0
 10
15.5020203971
 20
7.0021979204
 30
0.0
 10
15.4970247123
 20
6.9963668685
 30
0.0
 10
15.494413803
 20
6.9920190319
 30
0.0
 10
15.493309895
 20
6.9897704444
 30
0.0
  0
SPLINE
  5
45C
100
AcDbEntity
  8
AXIS_PART
100
AcDbSpline
 62
7
  6
CONTINUOUS
 70
0
 71
3
 72
25
 73
21
 74
0
 42
0.0000001
 43
0.0000001
 44
0.0000000001
 40
0.0
 40
0.0
 40
0.0
 40
0.0
 40
0.0251941036
 40
0.0504943327
 40
0.1017648228
 40
0.1279693729
 40
0.1546441772
 40
0.2096007716
 40
0.2670354686
 40
0.327091466
 40
0.3897130904
 40
0.4546749752
 40
0.5216123121
 40
0.5900551739
 40
0.6594573856
 40
0.729217152
 40
0.798713359
 40
0.8673866094
 40
0.9346956888
 40
1.0
 40
1.0
 40
1.0
 40
1.0
 10
12.8044267085
 20
6.9144381777
 30
0.0
 10
12.8050408522
 20
6.9156891478
 30
0.0
 10
12.8061546765
 20
6.9182561131
 30
0.0
 10
12.807902446
 20
6.9236134176
 30
0.0
 10
12.8089034361
 20
6.9292472062
 30
0.0
 10
12.8091587529
 20
6.9350078308
 30
0.0
 10
12.808912162
 20
6.940974246
 30
0.0
 10
12.8076401445
 20
6.9485961873
 30
0.0
 10
12.8046615319
 20
6.9576916121
 30
0.0
 10
12.8002813272
 20
6.9666721055
 30
0.0
 10
12.7945792373
 20
6.9753747877
 30
0.0
 10
12.7876649472
 20
6.9836484304
 30
0.0
 10
12.7796604774
 20
6.991342102
 30
0.0
 10
12.7707149236
 20
6.9983225038
 30
0.0
 10
12.760986109
 20
7.0044582691
 30
0.0
 10
12.7506553014
 20
7.009645631
 30
0.0
 10
12.7399049909
 20
7.0137852999
 30
0.0
 10
12.7289278715
 20
7.016807395
 30
0.0
 10
12.7179274124
 20
7.0186464373
 30
0.0
 10
12.7105867738
 20
7.0190787618
 30
0.0
 10
12.7069745174
 20
7.0190787618
 30
0.0
  0
SPLINE
  5
45D
100
AcDbEntity
  8
0
100
AcDbSpline
 62
7
  6
CONTINUOUS
 70
0
 71
3
 72
22
 73
18
 74
0
 42
0.0000001
 43
0.0000001
 44
0.0000000001
 40
0.0
 40
0.0
 40
0.0
 40
0.0
 40
0.0610992798
 40
0.1235815072
 40
0.1871569016
 40
0.2515934343
 40
0.3166672335
 40
0.3821132985
 40
0.4476476101
 40
0.5129914138
 40
0.5778708406
 40
0.6420275763
 40
0.7671338831
 40
0.8277485997
 40
0.8868251335
 40
0.9442677015
 40
1.0
 40
1.0
 40
1.0
 40
1.0
 10
12.5699750024
 20
5.9772277575
 30
0.0
 10
12.5644033336
 20
5.9772211036
 30
0.0
 10
12.5531290188
 20
5.9776678551
 30
0.0
 10
12.5361614921
 20
5.9796421453
 30
0.0
 10
12.519086703
 20
5.9829211356
 30
0.0
 10
12.5020618517
 20
5.987470115
 30
0.0
 10
12.485234954
 20
5.9932513668
 30
0.0
 10
12.4687511667
 20
6.0002094112
 30
0.0
 10
12.4527588945
 20
6.0082879223
 30
0.0
 10
12.437399164
 20
6.0174110631
 30
0.0
 10
12.422807401
 20
6.0275022694
 30
0.0
 10
12.4047072951
 20
6.0419966482
 30
0.0
 10
12.3884731614
 20
6.0581321431
 30
0.0
 10
12.3745834414
 20
6.0756323264
 30
0.0
 10
12.3655976625
 20
6.0890793818
 30
0.0
 10
12.3580186479
 20
6.1028596354
 30
0.0
 10
12.3538861489
 20
6.1123365822
 30
0.0
 10
12.3520863047
 20
6.1170894633
 30
0.0
  0
SPLINE
  5
45E
100
AcDbEntity
  8
AXIS_PART
100
AcDbSpline
 62
7
  6
CONTINUOUS
 70
0
 71
3
 72
25
 73
21
 74
0
 42
0.0000001
 43
0.0000001
 44
0.0000000001
 40
0.0
 40
0.0
 40
0.0
 40
0.0
 40
0.0251941036
 40
0.0504943327
 40
0.1017648228
 40
0.1279693729
 40
0.1546441772
 40
0.2096007716
 40
0.2670354686
 40
0.327091466
 40
0.3897130904
 40
0.4546749752
 40
0.5216123121
 40
0.5900551739
 40
0.6594573856
 40
0.729217152
 40
0.798713359
 40
0.8673866094
 40
0.9346956888
 40
1.0
 40
1.0
 40
1.0
 40
1.0
 10
15.6827423147
 20
6.9144381777
 30
0.0
 10
15.6833564585
 20
6.9156891478
 30
0.0
 10
15.6844702827
 20
6.9182561131
 30
0.0
 10
15.6862180523
 20
6.9236134176
 30
0.0
 10
15.6872190424
 20
6.9292472062
 30
0.0
 10
15.6874743592
 20
6.9350078308
 30
0.0
 10
15.6872277682
 20
6.940974246
 30
0.0
 10
15.6859557508
 20
6.9485961873
 30
0.0
 10
15.6829771382
 20
6.9576916121
 30
0.0
 10
15.6785969334
 20
6.9666721055
 30
0.0
 10
15.6728948435
 20
6.9753747877
 30
0.0
 10
15.6659805534
 20
6.9836484304
 30
0.0
 10
15.6579760836
 20
6.991342102
 30
0.0
 10
15.6490305299
 20
6.9983225038
 30
0.0
 10
15.6393017153
 20
7.0044582691
 30
0.0
 10
15.6289709076
 20
7.009645631
 30
0.0
 10
15.6182205971
 20
7.0137852999
 30
0.0
 10
15.6072434778
 20
7.016807395
 30
0.0
 10
15.5962430187
 20
7.0186464373
 30
0.0
 10
15.5889023801
 20
7.0190787618
 30
0.0
 10
15.5852901236
 20
7.0190787618
 30
0.0
  0
SPLINE
  5
45F
100
AcDbEntity
  8
0
100
AcDbSpline
 62
7
  6
CONTINUOUS
 70
0
 71
3
 72
10
 73
6
 74
0
 42
0.0000001
 43
0.0000001
 44
0.0000000001
 40
0.0
 40
0.0
 40
0.0
 40
0.0
 40
0.199230338
 40
0.4310582602
 40
1.0
 40
1.0
 40
1.0
 40
1.0
 10
14.9850829558
 20
6.5663394757
 30
0.0
 10
14.98494721
 20
6.5663393956
 30
0.0
 10
14.9846534499
 20
6.5663043209
 30
0.0
 10
14.9839961655
 20
6.5661194664
 30
0.0
 10
14.9835001634
 20
6.5658829312
 30
0.0
 10
14.9831589496
 20
6.565698961
 30
0.0
  0
SPLINE
  5
460
100
AcDbEntity
  8
0
100
AcDbSpline
 62
7
  6
CONTINUOUS
 70
0
 71
3
 72
15
 73
11
 74
0
 42
0.0000001
 43
0.0000001
 44
0.0000000001
 40
0.0
 40
0.0
 40
0.0
 40
0.0
 40
0.0343866922
 40
0.0732996325
 40
0.1639360587
 40
0.2704112242
 40
0.3915481905
 40
0.5261315681
 40
0.6730252781
 40
1.0
 40
1.0
 40
1.0
 40
1.0
 10
14.9831589496
 20
6.565698961
 30
0.0
 10
14.9828928065
 20
6.5655554662
 30
0.0
 10
14.9823385174
 20
6.5652253192
 30
0.0
 10
14.9811450277
 20
6.5644160324
 30
0.0
 10
14.9795091842
 20
6.5631354509
 30
0.0
 10
14.9774024839
 20
6.5612924566
 30
0.0
 10
14.9750907825
 20
6.5591007933
 30
0.0
 10
14.9725953794
 20
6.5565890952
 30
0.0
 10
14.9689160569
 20
6.5527044719
 30
0.0
 10
14.966143602
 20
6.5495924726
 30
0.0
 10
14.9642604422
 20
6.5474199522
 30
0.0
  0
SPLINE
  5
461
100
AcDbEntity
  8
0
100
AcDbSpline
 62
7
  6
CONTINUOUS
 70
0
 71
3
 72
15
 73
11
 74
0
 42
0.0000001
 43
0.0000001
 44
0.0000000001
 40
0.0
 40
0.0
 40
0.0
 40
0.0
 40
0.228538749
 40
0.2903272911
 40
0.3535311302
 40
0.4830992931
 40
0.6150246561
 40
0.7467511796
 40
0.8758776354
 40
1.0
 40
1.0
 40
1.0
 40
1.0
 10
15.0750901722
 20
6.7830645359
 30
0.0
 10
15.0733655359
 20
6.7884436623
 30
0.0
 10
15.0696294693
 20
6.794832647
 30
0.0
 10
15.0638707145
 20
6.8013955623
 30
0.0
 10
15.0593631461
 20
6.805796988
 30
0.0
 10
15.0530094372
 20
6.8107475268
 30
0.0
 10
15.044559281
 20
6.8156102
 30
0.0
 10
15.0355329974
 20
6.8192700454
 30
0.0
 10
15.0262713721
 20
6.8215834261
 30
0.0
 10
15.0200103964
 20
6.8221877825
 30
0.0
 10
15.0169426638
 20
6.8222249161
 30
0.0
  0
SPLINE
  5
462
100
AcDbEntity
  8
0
100
AcDbSpline
 62
7
  6
CONTINUOUS
 70
0
 71
3
 72
19
 73
15
 74
0
 42
0.0000001
 43
0.0000001
 44
0.0000000001
 40
0.0
 40
0.0
 40
0.0
 40
0.0
 40
0.0636826711
 40
0.1292009058
 40
0.196065595
 40
0.2637883358
 40
0.4000691652
 40
0.5348095118
 40
0.6646970345
 40
0.726897004
 40
0.7868555148
 40
0.8990311072
 40
0.950985908
 40
1.0
 40
1.0
 40
1.0
 40
1.0
 10
15.014058229
 20
6.7525264669
 30
0.0
 10
15.015567806
 20
6.7525264669
 30
0.0
 10
15.0186312183
 20
6.7526293133
 30
0.0
 10
15.0232605445
 20
6.7530694991
 30
0.0
 10
15.0279512245
 20
6.7537937962
 30
0.0
 10
15.0342327546
 20
6.7551374482
 30
0.0
 10
15.0419348513
 20
6.7574716638
 30
0.0
 10
15.0506857721
 20
6.7612255724
 30
0.0
 10
15.0574261099
 20
6.7650879538
 30
0.0
 10
15.0622977786
 20
6.7685546501
 30
0.0
 10
15.0665934354
 20
6.772080384
 30
0.0
 10
15.0703267534
 20
6.7759002555
 30
0.0
 10
15.073332201
 20
6.7799693447
 30
0.0
 10
15.0745569142
 20
6.7820322754
 30
0.0
 10
15.0750901722
 20
6.7830645359
 30
0.0
  0
SPLINE
  5
463
100
AcDbEntity
  8
0
100
AcDbSpline
 62
7
  6
CONTINUOUS
 70
0
 71
3
 72
18
 73
14
 74
0
 42
0.0000001
 43
0.0000001
 44
0.0000000001
 40
0.0
 40
0.0
 40
0.0
 40
0.0
 40
0.0498662869
 40
0.1035581607
 40
0.220780385
 40
0.2834929369
 40
0.3483313102
 40
0.4824482486
 40
0.618927315
 40
0.7534197331
 40
0.8818312261
 40
0.942467065
 40
1.0
 40
1.0
 40
1.0
 40
1.0
 10
15.0169426638
 20
6.8222249161
 30
0.0
 10
15.0164374898
 20
6.8211580584
 30
0.0
 10
15.0154766264
 20
6.8189000929
 30
0.0
 10
15.0137446673
 20
6.813966489
 30
0.0
 10
15.0123691662
 20
6.8085975903
 30
0.0
 10
15.0113141868
 20
6.802899288
 30
0.0
 10
15.0104496505
 20
6.7967639326
 30
0.0
 10
15.0098272168
 20
6.7888393264
 30
0.0
 10
15.0097927654
 20
6.7792415674
 30
0.0
 10
15.0104708222
 20
6.7698028648
 30
0.0
 10
15.0116289719
 20
6.7622216311
 30
0.0
 10
15.0129079475
 20
6.7565246634
 30
0.0
 10
15.0136561316
 20
6.7538276546
 30
0.0
 10
15.014058229
 20
6.7525264669
 30
0.0
  0
SPLINE
  5
464
100
AcDbEntity
  8
0
100
AcDbSpline
 62
7
  6
CONTINUOUS
 70
0
 71
3
 72
14
 73
10
 74
0
 42
0.0000001
 43
0.0000001
 44
0.0000000001
 40
0.0
 40
0.0
 40
0.0
 40
0.0
 40
0.3044475278
 40
0.4404435781
 40
0.5664568141
 40
0.6835954235
 40
0.7934298831
 40
0.8980693345
 40
1.0
 40
1.0
 40
1.0
 40
1.0
 10
11.1159612023
 20
6.6611567125
 30
0.0
 10
11.1166360289
 20
6.6600647262
 30
0.0
 10
11.1177174583
 20
6.6585412457
 30
0.0
 10
11.1193654155
 20
6.6568077219
 30
0.0
 10
11.1205880389
 20
6.6557720437
 30
0.0
 10
11.1218390561
 20
6.6549574361
 30
0.0
 10
11.1231146628
 20
6.6543710517
 30
0.0
 10
11.1244072626
 20
6.6540169305
 30
0.0
 10
11.1252801122
 20
6.653937202
 30
0.0
 10
11.1257098939
 20
6.6539369767
 30
0.0
  0
SPLINE
  5
465
100
AcDbEntity
  8
0
100
AcDbSpline
 62
7
  6
CONTINUOUS
 70
0
 71
3
 72
19
 73
15
 74
0
 42
0.0000001
 43
0.0000001
 44
0.0000000001
 40
0.0
 40
0.0
 40
0.0
 40
0.0
 40
0.1329858374
 40
0.2626421777
 40
0.3888059611
 40
0.5123359518
 40
0.5735830109
 40
0.6345685386
 40
0.6954080233
 40
0.7562604286
 40
0.817140273
 40
0.8780363703
 40
0.9389915741
 40
1.0
 40
1.0
 40
1.0
 40
1.0
 10
15.1783782614
 20
6.747934544
 30
0.0
 10
15.1844629574
 20
6.747934544
 30
0.0
 10
15.1964909071
 20
6.7473347196
 30
0.0
 10
15.2140912104
 20
6.7444901823
 30
0.0
 10
15.2307999914
 20
6.739612615
 30
0.0
 10
15.2438093304
 20
6.7337081951
 30
0.0
 10
15.2534315716
 20
6.7278684571
 30
0.0
 10
15.2602111951
 20
6.7229308271
 30
0.0
 10
15.2665111632
 20
6.7174201031
 30
0.0
 10
15.2722606685
 20
6.7113423829
 30
0.0
 10
15.2773978698
 20
6.7047351904
 30
0.0
 10
15.2818547478
 20
6.697643876
 30
0.0
 10
15.2855510751
 20
6.690121716
 30
0.0
 10
15.2874814375
 20
6.684873153
 30
0.0
 10
15.2883075041
 20
6.6822067749
 30
0.0
  0
SPLINE
  5
466
100
AcDbEntity
  8
0
100
AcDbSpline
 62
7
  6
CONTINUOUS
 70
0
 71
3
 72
14
 73
10
 74
0
 42
0.0000001
 43
0.0000001
 44
0.0000000001
 40
0.0
 40
0.0
 40
0.0
 40
0.0
 40
0.1019306655
 40
0.2065701169
 40
0.3164045765
 40
0.4335431859
 40
0.5595564219
 40
0.6955524722
 40
1.0
 40
1.0
 40
1.0
 40
1.0
 10
10.9320568352
 20
7.2805985044
 30
0.0
 10
10.9316270535
 20
7.2805987297
 30
0.0
 10
10.9307542039
 20
7.2806784582
 30
0.0
 10
10.929461604
 20
7.2810325794
 30
0.0
 10
10.9281859974
 20
7.2816189638
 30
0.0
 10
10.9269349802
 20
7.2824335714
 30
0.0
 10
10.9257123568
 20
7.2834692496
 30
0.0
 10
10.9240643996
 20
7.2852027734
 30
0.0
 10
10.9229829702
 20
7.2867262539
 30
0.0
 10
10.9223081435
 20
7.2878182402
 30
0.0
  0
SPLINE
  5
467
100
AcDbEntity
  8
0
100
AcDbSpline
 62
7
  6
CONTINUOUS
 70
0
 71
3
 72
14
 73
10
 74
0
 42
0.0000001
 43
0.0000001
 44
0.0000000001
 40
0.0
 40
0.0
 40
0.0
 40
0.0
 40
0.1251217815
 40
0.2501818388
 40
0.3751868334
 40
0.5000521561
 40
0.6246064
 40
0.7491050201
 40
1.0
 40
1.0
 40
1.0
 40
1.0
 10
15.2883075041
 20
6.6822067749
 30
0.0
 10
15.2891218705
 20
6.6795781624
 30
0.0
 10
15.2904821033
 20
6.6742344431
 30
0.0
 10
15.2916717077
 20
6.6660546242
 30
0.0
 10
15.2920236434
 20
6.6578022329
 30
0.0
 10
15.2915697064
 20
6.6495672384
 30
0.0
 10
15.2903312229
 20
6.641424008
 30
0.0
 10
15.2876696333
 20
6.6307434174
 30
0.0
 10
15.2846045073
 20
6.6230217858
 30
0.0
 10
15.2821735619
 20
6.6180680399
 30
0.0
  0
SPLINE
  5
468
100
AcDbEntity
  8
0
100
AcDbSpline
 62
7
  6
CONTINUOUS
 70
0
 71
3
 72
19
 73
15
 74
0
 42
0.0000001
 43
0.0000001
 44
0.0000000001
 40
0.0
 40
0.0
 40
0.0
 40
0.0
 40
0.1329858374
 40
0.2626421777
 40
0.3888059611
 40
0.5123359518
 40
0.5735830109
 40
0.6345685386
 40
0.6954080233
 40
0.7562604286
 40
0.817140273
 40
0.8780363703
 40
0.9389915741
 40
1.0
 40
1.0
 40
1.0
 40
1.0
 10
14.9847252027
 20
7.3745960717
 30
0.0
 10
14.9908098987
 20
7.3745960717
 30
0.0
 10
15.0028378483
 20
7.3739962473
 30
0.0
 10
15.0204381516
 20
7.37115171
 30
0.0
 10
15.0371469326
 20
7.3662741427
 30
0.0
 10
15.0501562716
 20
7.3603697228
 30
0.0
 10
15.0597785129
 20
7.3545299848
 30
0.0
 10
15.0665581364
 20
7.3495923548
 30
0.0
 10
15.0728581045
 20
7.3440816308
 30
0.0
 10
15.0786076098
 20
7.3380039106
 30
0.0
 10
15.0837448111
 20
7.3313967181
 30
0.0
 10
15.0882016891
 20
7.3243054037
 30
0.0
 10
15.0918980164
 20
7.3167832437
 30
0.0
 10
15.0938283788
 20
7.3115346807
 30
0.0
 10
15.0946544453
 20
7.3088683026
 30
0.0
  0
SPLINE
  5
469
100
AcDbEntity
  8
0
100
AcDbSpline
 62
7
  6
CONTINUOUS
 70
0
 71
3
 72
15
 73
11
 74
0
 42
0.0000001
 43
0.0000001
 44
0.0000000001
 40
0.0
 40
0.0
 40
0.0
 40
0.0
 40
0.1839038965
 40
0.3550606799
 40
0.5113824826
 40
0.6507908689
 40
0.7712681315
 40
0.8706718594
 40
0.9470200118
 40
1.0
 40
1.0
 40
1.0
 40
1.0
 10
15.1783782614
 20
6.653934544
 30
0.0
 10
15.1797832376
 20
6.653934544
 30
0.0
 10
15.1824963643
 20
6.6538689694
 30
0.0
 10
15.1863939108
 20
6.6535774288
 30
0.0
 10
15.189933703
 20
6.6531230956
 30
0.0
 10
15.1930594397
 20
6.652528533
 30
0.0
 10
15.1957207952
 20
6.6518498477
 30
0.0
 10
15.1978762159
 20
6.6511539591
 30
0.0
 10
15.1994954873
 20
6.6504924279
 30
0.0
 10
15.200379195
 20
6.650047953
 30
0.0
 10
15.2007320695
 20
6.6498496995
 30
0.0
  0
SPLINE
  5
46A
100
AcDbEntity
  8
0
100
AcDbSpline
 62
7
  6
CONTINUOUS
 70
0
 71
3
 72
15
 73
11
 74
0
 42
0.0000001
 43
0.0000001
 44
0.0000000001
 40
0.0
 40
0.0
 40
0.0
 40
0.0
 40
0.1839038965
 40
0.3550606799
 40
0.5113824826
 40
0.6507908689
 40
0.7712681315
 40
0.8706718594
 40
0.9470200118
 40
1.0
 40
1.0
 40
1.0
 40
1.0
 10
14.9847252027
 20
7.2805960717
 30
0.0
 10
14.9861301789
 20
7.2805960717
 30
0.0
 10
14.9888433056
 20
7.2805304971
 30
0.0
 10
14.992740852
 20
7.2802389565
 30
0.0
 10
14.9962806442
 20
7.2797846233
 30
0.0
 10
14.9994063809
 20
7.2791900607
 30
0.0
 10
15.0020677364
 20
7.2785113754
 30
0.0
 10
15.0042231571
 20
7.2778154868
 30
0.0
 10
15.0058424286
 20
7.2771539556
 30
0.0
 10
15.0067261363
 20
7.2767094807
 30
0.0
 10
15.0070790108
 20
7.2765112272
 30
0.0
  0
SPLINE
  5
46B
100
AcDbEntity
  8
0
100
AcDbSpline
 62
7
  6
CONTINUOUS
 70
0
 71
3
 72
14
 73
10
 74
0
 42
0.0000001
 43
0.0000001
 44
0.0000000001
 40
0.0
 40
0.0
 40
0.0
 40
0.0
 40
0.1251217815
 40
0.2501818388
 40
0.3751868334
 40
0.5000521561
 40
0.6246064
 40
0.7491050201
 40
1.0
 40
1.0
 40
1.0
 40
1.0
 10
15.0946544453
 20
7.3088683026
 30
0.0
 10
15.0954688118
 20
7.3062396901
 30
0.0
 10
15.0968290446
 20
7.3008959708
 30
0.0
 10
15.098018649
 20
7.2927161519
 30
0.0
 10
15.0983705846
 20
7.2844637606
 30
0.0
 10
15.0979166477
 20
7.2762287661
 30
0.0
 10
15.0966781642
 20
7.2680855357
 30
0.0
 10
15.0940165746
 20
7.2574049451
 30
0.0
 10
15.0909514486
 20
7.2496833135
 30
0.0
 10
15.0885205031
 20
7.2447295676
 30
0.0
  0
SPLINE
  5
46C
100
AcDbEntity
  8
0
100
AcDbSpline
 62
7
  6
CONTINUOUS
 70
0
 71
3
 72
11
 73
7
 74
0
 42
0.0000001
 43
0.0000001
 44
0.0000000001
 40
0.0
 40
0.0
 40
0.0
 40
0.0
 40
0.2390210818
 40
0.4829645883
 40
0.7359670414
 40
1.0
 40
1.0
 40
1.0
 40
1.0
 10
15.1367783071
 20
6.5351571148
 30
0.0
 10
15.1360337276
 20
6.5336398719
 30
0.0
 10
15.1348468201
 20
6.5304072295
 30
0.0
 10
15.1340769683
 20
6.5252268085
 30
0.0
 10
15.134326119
 20
6.5198218776
 30
0.0
 10
15.1351307212
 20
6.5162352791
 30
0.0
 10
15.1356819341
 20
6.5144515536
 30
0.0
  0
SPLINE
  5
46D
100
AcDbEntity
  8
0
100
AcDbSpline
 62
7
  6
CONTINUOUS
 70
0
 71
3
 72
15
 73
11
 74
0
 42
0.0000001
 43
0.0000001
 44
0.0000000001
 40
0.0
 40
0.0
 40
0.0
 40
0.0
 40
0.1723050551
 40
0.3315348722
 40
0.4763525683
 40
0.6059545526
 40
0.7208499117
 40
0.8226184343
 40
0.9141445033
 40
1.0
 40
1.0
 40
1.0
 40
1.0
 10
15.1927152291
 20
6.7301502125
 30
0.0
 10
15.1923051753
 20
6.7314771472
 30
0.0
 10
15.191434906
 20
6.734006451
 30
0.0
 10
15.1899170965
 20
6.7375376293
 30
0.0
 10
15.1882561205
 20
6.7406195826
 30
0.0
 10
15.18646639
 20
6.7432069237
 30
0.0
 10
15.1845692467
 20
6.7452689947
 30
0.0
 10
15.1825793552
 20
6.7467840316
 30
0.0
 10
15.1805071479
 20
6.7477176395
 30
0.0
 10
15.1790702911
 20
6.7479317479
 30
0.0
 10
15.1783782612
 20
6.7479321114
 30
0.0
  0
SPLINE
  5
46E
100
AcDbEntity
  8
0
100
AcDbSpline
 62
7
  6
CONTINUOUS
 70
0
 71
3
 72
23
 73
19
 74
0
 42
0.0000001
 43
0.0000001
 44
0.0000000001
 40
0.0
 40
0.0
 40
0.0
 40
0.0
 40
0.0588779588
 40
0.1210109629
 40
0.1859428184
 40
0.2531781425
 40
0.3221216444
 40
0.3920248437
 40
0.5310564621
 40
0.5987883255
 40
0.6643021749
 40
0.7270809548
 40
0.7868093495
 40
0.8434882541
 40
0.8974101565
 40
0.9492451546
 40
0.9746975188
 40
1.0
 40
1.0
 40
1.0
 40
1.0
 10
15.1966903074
 20
6.6387735472
 30
0.0
 10
15.1973077924
 20
6.636775365
 30
0.0
 10
15.1989434321
 20
6.6327761702
 30
0.0
 10
15.2023458494
 20
6.627090007
 30
0.0
 10
15.2066949043
 20
6.6217035908
 30
0.0
 10
15.2118676569
 20
6.6167508162
 30
0.0
 10
15.2177418128
 20
6.612352192
 30
0.0
 10
15.2262843835
 20
6.6073766029
 30
0.0
 10
15.2355901178
 20
6.6039014108
 30
0.0
 10
15.2451260484
 20
6.602175591
 30
0.0
 10
15.252100069
 20
6.6018101546
 30
0.0
 10
15.2587784466
 20
6.6023622534
 30
0.0
 10
15.2649966444
 20
6.6038384709
 30
0.0
 10
15.2706035059
 20
6.606193861
 30
0.0
 10
15.2754476646
 20
6.6093931936
 30
0.0
 10
15.2787676085
 20
6.6127177046
 30
0.0
 10
15.2808934877
 20
6.6156848243
 30
0.0
 10
15.2817776714
 20
6.617261153
 30
0.0
 10
15.2821735188
 20
6.618068061
 30
0.0
  0
SPLINE
  5
46F
100
AcDbEntity
  8
0
100
AcDbSpline
 62
7
  6
CONTINUOUS
 70
0
 71
3
 72
15
 73
11
 74
0
 42
0.0000001
 43
0.0000001
 44
0.0000000001
 40
0.0
 40
0.0
 40
0.0
 40
0.0
 40
0.0858554967
 40
0.1773815657
 40
0.2791500883
 40
0.3940454474
 40
0.5236474317
 40
0.6684651278
 40
0.8276949449
 40
1.0
 40
1.0
 40
1.0
 40
1.0
 10
14.9847252025
 20
7.3745936391
 30
0.0
 10
14.9854172324
 20
7.3745932756
 30
0.0
 10
14.9868540892
 20
7.3743791672
 30
0.0
 10
14.9889262965
 20
7.3734455593
 30
0.0
 10
14.990916188
 20
7.3719305224
 30
0.0
 10
14.9928133312
 20
7.3698684514
 30
0.0
 10
14.9946030618
 20
7.3672811103
 30
0.0
 10
14.9962640377
 20
7.364199157
 30
0.0
 10
14.9977818472
 20
7.3606679787
 30
0.0
 10
14.9986521166
 20
7.3581386749
 30
0.0
 10
14.9990621704
 20
7.3568117402
 30
0.0
  0
SPLINE
  5
470
100
AcDbEntity
  8
0
100
AcDbSpline
 62
7
  6
CONTINUOUS
 70
0
 71
3
 72
11
 73
7
 74
0
 42
0.0000001
 43
0.0000001
 44
0.0000000001
 40
0.0
 40
0.0
 40
0.0
 40
0.0
 40
0.2640329586
 40
0.5170354117
 40
0.7609789182
 40
1.0
 40
1.0
 40
1.0
 40
1.0
 10
14.9420288754
 20
7.1411130813
 30
0.0
 10
14.9414776625
 20
7.1428968068
 30
0.0
 10
14.9406730602
 20
7.1464834053
 30
0.0
 10
14.9404239096
 20
7.1518883362
 30
0.0
 10
14.9411937614
 20
7.1570687572
 30
0.0
 10
14.9423806688
 20
7.1603013996
 30
0.0
 10
14.9431252483
 20
7.1618186425
 30
0.0
  0
SPLINE
  5
471
100
AcDbEntity
  8
0
100
AcDbSpline
 62
7
  6
CONTINUOUS
 70
0
 71
3
 72
9
 73
5
 74
0
 42
0.0000001
 43
0.0000001
 44
0.0000000001
 40
0.0
 40
0.0
 40
0.0
 40
0.0
 40
0.5125129508
 40
1.0
 40
1.0
 40
1.0
 40
1.0
 10
15.0030372487
 20
7.2654350749
 30
0.0
 10
15.0023695042
 20
7.267595897
 30
0.0
 10
15.0014683369
 20
7.2719505099
 30
0.0
 10
15.0015274965
 20
7.2764080617
 30
0.0
 10
15.0018224533
 20
7.2785389534
 30
0.0
  0
LINE
  5
472
100
AcDbEntity
  8
0
100
AcDbLine
 62
7
  6
CONTINUOUS
 10
10.9482399501
 20
7.3056439576
 11
10.9470619107
 21
7.3006858206
  0
SPLINE
  5
473
100
AcDbEntity
  8
0
100
AcDbSpline
 62
7
  6
CONTINUOUS
 70
0
 71
3
 72
16
 73
12
 74
0
 42
0.0000001
 43
0.0000001
 44
0.0000000001
 40
0.0
 40
0.0
 40
0.0
 40
0.0
 40
0.1741767759
 40
0.334692674
 40
0.4804249764
 40
0.6106860532
 40
0.7255633959
 40
0.8264758314
 40
0.9162714085
 40
0.9585425654
 40
1.0
 40
1.0
 40
1.0
 40
1.0
 10
10.9470619107
 20
7.3006858206
 30
0.0
 10
10.9466570583
 20
7.2991964267
 30
0.0
 10
10.9457904866
 20
7.296357144
 30
0.0
 10
10.9442448051
 20
7.2923856337
 30
0.0
 10
10.9425274542
 20
7.2889130153
 30
0.0
 10
10.9406611084
 20
7.2859850933
 30
0.0
 10
10.9386611239
 20
7.2836438572
 30
0.0
 10
10.9365521395
 20
7.2819176389
 30
0.0
 10
10.9346700657
 20
7.281005263
 30
0.0
 10
10.9331674243
 20
7.2806555426
 30
0.0
 10
10.9324242031
 20
7.2805983118
 30
0.0
 10
10.9320568352
 20
7.2805985044
 30
0.0
  0
SPLINE
  5
474
100
AcDbEntity
  8
0
100
AcDbSpline
 62
7
  6
CONTINUOUS
 70
0
 71
3
 72
16
 73
12
 74
0
 42
0.0000001
 43
0.0000001
 44
0.0000000001
 40
0.0
 40
0.0
 40
0.0
 40
0.0
 40
0.0414574346
 40
0.0837285915
 40
0.1735241686
 40
0.2744366041
 40
0.3893139468
 40
0.5195750236
 40
0.665307326
 40
0.8258232241
 40
1.0
 40
1.0
 40
1.0
 40
1.0
 10
11.1257098939
 20
6.6539369767
 30
0.0
 10
11.1260772618
 20
6.6539367841
 30
0.0
 10
11.126820483
 20
6.6539940149
 30
0.0
 10
11.1283231244
 20
6.6543437353
 30
0.0
 10
11.1302051982
 20
6.6552561112
 30
0.0
 10
11.1323141827
 20
6.6569823295
 30
0.0
 10
11.1343141672
 20
6.6593235656
 30
0.0
 10
11.136180513
 20
6.6622514876
 30
0.0
 10
11.1378978638
 20
6.665724106
 30
0.0
 10
11.1394435453
 20
6.6696956163
 30
0.0
 10
11.1403101171
 20
6.672534899
 30
0.0
 10
11.1407149695
 20
6.6740242929
 30
0.0
  0
SPLINE
  5
475
100
AcDbEntity
  8
0
100
AcDbSpline
 62
7
  6
CONTINUOUS
 70
0
 71
3
 72
24
 73
20
 74
0
 42
0.0000001
 43
0.0000001
 44
0.0000000001
 40
0.0
 40
0.0
 40
0.0
 40
0.0
 40
0.0154326475
 40
0.0312756374
 40
0.0655608006
 40
0.0846341466
 40
0.1052063139
 40
0.1512188586
 40
0.2039748263
 40
0.2632041127
 40
0.3283523182
 40
0.398536495
 40
0.4727278697
 40
0.5497652554
 40
0.7071551123
 40
0.7850118869
 40
0.8606305076
 40
0.9327315789
 40
1.0
 40
1.0
 40
1.0
 40
1.0
 10
15.1783782616
 20
6.6539369767
 30
0.0
 10
15.1788070041
 20
6.6539367516
 30
0.0
 10
15.1796779112
 20
6.6540152426
 30
0.0
 10
15.1814426905
 20
6.6544971844
 30
0.0
 10
15.1831392326
 20
6.6554692645
 30
0.0
 10
15.1847088151
 20
6.6567964736
 30
0.0
 10
15.1863544458
 20
6.6585219069
 30
0.0
 10
15.1882856757
 20
6.6612364702
 30
0.0
 10
15.1903257105
 20
6.6651334035
 30
0.0
 10
15.1921398551
 20
6.6697160979
 30
0.0
 10
15.193686479
 20
6.674901122
 30
0.0
 10
15.1949429103
 20
6.6805893167
 30
0.0
 10
15.1958799294
 20
6.6866728726
 30
0.0
 10
15.1966841866
 20
6.695212459
 30
0.0
 10
15.1967827663
 20
6.7039084486
 30
0.0
 10
15.1961773201
 20
6.712526787
 30
0.0
 10
15.1953789124
 20
6.7187466599
 30
0.0
 10
15.194253627
 20
6.724616139
 30
0.0
 10
15.1932669933
 20
6.7283647032
 30
0.0
 10
15.1927152291
 20
6.7301502125
 30
0.0
  0
LINE
  5
476
100
AcDbEntity
  8
0
100
AcDbLine
 62
7
  6
CONTINUOUS
 10
15.195475512
 20
6.6518774257
 11
15.1952368935
 21
6.6472633326
  0
SPLINE
  5
477
100
AcDbEntity
  8
0
100
AcDbSpline
 62
7
  6
CONTINUOUS
 70
0
 71
3
 72
9
 73
5
 74
0
 42
0.0000001
 43
0.0000001
 44
0.0000000001
 40
0.0
 40
0.0
 40
0.0
 40
0.0
 40
0.2441571802
 40
1.0
 40
1.0
 40
1.0
 40
1.0
 10
15.1952368935
 20
6.6472633326
 30
0.0
 10
15.1952585956
 20
6.6465614647
 30
0.0
 10
15.1954511549
 20
6.6436904866
 30
0.0
 10
15.1960484908
 20
6.6408504666
 30
0.0
 10
15.1966903074
 20
6.6387735472
 30
0.0
  0
SPLINE
  5
478
100
AcDbEntity
  8
0
100
AcDbSpline
 62
7
  6
CONTINUOUS
 70
0
 71
3
 72
23
 73
19
 74
0
 42
0.0000001
 43
0.0000001
 44
0.0000000001
 40
0.0
 40
0.0
 40
0.0
 40
0.0
 40
0.050680239
 40
0.1025050277
 40
0.1564229526
 40
0.2130853621
 40
0.272810888
 40
0.3355732651
 40
0.4010799164
 40
0.4688004962
 40
0.5380515904
 40
0.6080413727
 40
0.6779299077
 40
0.7468765349
 40
0.8140959683
 40
0.8789925587
 40
0.9411018076
 40
1.0
 40
1.0
 40
1.0
 40
1.0
 10
15.0275122359
 20
7.12040752
 30
0.0
 10
15.0267190085
 20
7.1187911465
 30
0.0
 10
15.0247407452
 20
7.1156923974
 30
0.0
 10
15.020788513
 20
7.111730105
 30
0.0
 10
15.015939612
 20
7.1085354408
 30
0.0
 10
15.010335516
 20
7.1061743916
 30
0.0
 10
15.0041157433
 20
7.1047049182
 30
0.0
 10
14.9974377478
 20
7.1041460172
 30
0.0
 10
14.9904648697
 20
7.1045175909
 30
0.0
 10
14.9833680181
 20
7.1057973842
 30
0.0
 10
14.9763236974
 20
7.1079623227
 30
0.0
 10
14.9695029293
 20
7.1109489706
 30
0.0
 10
14.9630790175
 20
7.1146927516
 30
0.0
 10
14.957205765
 20
7.1190908581
 30
0.0
 10
14.952033463
 20
7.1240437802
 30
0.0
 10
14.9476845648
 20
7.1294281429
 30
0.0
 10
14.9442812153
 20
7.1351135977
 30
0.0
 10
14.9426466746
 20
7.1391138823
 30
0.0
 10
14.9420288754
 20
7.1411130813
 30
0.0
  0
SPLINE
  5
479
100
AcDbEntity
  8
0
100
AcDbSpline
 62
7
  6
CONTINUOUS
 70
0
 71
3
 72
23
 73
19
 74
0
 42
0.0000001
 43
0.0000001
 44
0.0000000001
 40
0.0
 40
0.0
 40
0.0
 40
0.0
 40
0.0253024812
 40
0.0507548454
 40
0.1025898435
 40
0.1565117459
 40
0.2131906505
 40
0.2729190452
 40
0.3356978251
 40
0.4012116745
 40
0.4689435379
 40
0.6079751563
 40
0.6778783556
 40
0.7468218575
 40
0.8140571816
 40
0.8789890371
 40
0.9411220412
 40
1.0
 40
1.0
 40
1.0
 40
1.0
 10
15.0885204601
 20
7.2447295887
 30
0.0
 10
15.0881246127
 20
7.2439226807
 30
0.0
 10
15.0872404289
 20
7.242346352
 30
0.0
 10
15.0851145498
 20
7.2393792323
 30
0.0
 10
15.0817946059
 20
7.2360547213
 30
0.0
 10
15.0769504472
 20
7.2328553887
 30
0.0
 10
15.0713435857
 20
7.2304999986
 30
0.0
 10
15.0651253879
 20
7.2290237811
 30
0.0
 10
15.0584470103
 20
7.2284716823
 30
0.0
 10
15.0514729897
 20
7.2288371187
 30
0.0
 10
15.0419370591
 20
7.2305629385
 30
0.0
 10
15.0326313248
 20
7.2340381306
 30
0.0
 10
15.0240887541
 20
7.2390137197
 30
0.0
 10
15.0182145981
 20
7.2434123439
 30
0.0
 10
15.0130418456
 20
7.2483651185
 30
0.0
 10
15.0086927907
 20
7.2537515347
 30
0.0
 10
15.0052903734
 20
7.2594376979
 30
0.0
 10
15.0036547337
 20
7.2634368927
 30
0.0
 10
15.0030372487
 20
7.2654350749
 30
0.0
  0
SPLINE
  5
47A
100
AcDbEntity
  8
0
100
AcDbSpline
 62
7
  6
CONTINUOUS
 70
0
 71
3
 72
24
 73
20
 74
0
 42
0.0000001
 43
0.0000001
 44
0.0000000001
 40
0.0
 40
0.0
 40
0.0
 40
0.0
 40
0.0672684211
 40
0.1393694924
 40
0.2149881131
 40
0.2928448877
 40
0.4502347446
 40
0.5272721303
 40
0.601463505
 40
0.6716476818
 40
0.7367958873
 40
0.7960251737
 40
0.8487811414
 40
0.8947936861
 40
0.9153658534
 40
0.9344391994
 40
0.9687243626
 40
0.9845673525
 40
1.0
 40
1.0
 40
1.0
 40
1.0
 10
14.9990621704
 20
7.3568117402
 30
0.0
 10
14.9996139345
 20
7.3550262309
 30
0.0
 10
15.0006005682
 20
7.3512776667
 30
0.0
 10
15.0017258537
 20
7.3454081876
 30
0.0
 10
15.0025242613
 20
7.3391883147
 30
0.0
 10
15.0031297075
 20
7.3305699763
 30
0.0
 10
15.0030311279
 20
7.3218739867
 30
0.0
 10
15.0022268706
 20
7.3133344003
 30
0.0
 10
15.0012898516
 20
7.3072508444
 30
0.0
 10
15.0000334203
 20
7.3015626497
 30
0.0
 10
14.9984867963
 20
7.2963776256
 30
0.0
 10
14.9966726518
 20
7.2917949312
 30
0.0
 10
14.994632617
 20
7.2878979979
 30
0.0
 10
14.992701387
 20
7.2851834346
 30
0.0
 10
14.9910557564
 20
7.2834580013
 30
0.0
 10
14.9894861738
 20
7.2821307922
 30
0.0
 10
14.9877896318
 20
7.2811587121
 30
0.0
 10
14.9860248525
 20
7.2806767703
 30
0.0
 10
14.9851539454
 20
7.2805982793
 30
0.0
 10
14.9847252029
 20
7.2805985044
 30
0.0
  0
ELLIPSE
  5
47B
100
AcDbEntity
  8
0
100
AcDbEllipse
 62
7
  6
CONTINUOUS
 10
3.8643038447
 20
6.7327786749
 30
0.0
 11
0.1343912159
 21
-0.1343912159
 31
0.0
 40
0.9996954599
 41
2.3563467834
 42
3.9268385237
  0
ELLIPSE
  5
47C
100
AcDbEntity
  8
0
100
AcDbEllipse
 62
7
  6
CONTINUOUS
 10
3.8643038447
 20
6.0228365595
 30
0.0
 11
0.1343912159
 21
0.1343912159
 31
0.0
 40
0.9996954599
 41
2.3563467834
 42
3.9268385237
  0
ELLIPSE
  5
47D
100
AcDbEntity
  8
0
100
AcDbEllipse
 62
7
  6
CONTINUOUS
 10
6.98424596
 20
6.0228365595
 30
0.0
 11
0.1343912159
 21
-0.1343912159
 31
0.0
 40
0.9996954599
 41
-0.7852458701
 42
0.7852458701
  0
ELLIPSE
  5
47E
100
AcDbEntity
  8
0
100
AcDbEllipse
 62
7
  6
CONTINUOUS
 10
6.98424596
 20
6.7327786749
 30
0.0
 11
0.1343912159
 21
0.1343912159
 31
0.0
 40
0.9996954599
 41
-0.7852458701
 42
0.7852458701
  0
ELLIPSE
  5
47F
100
AcDbEntity
  8
0
100
AcDbEllipse
 62
7
  6
CONTINUOUS
 10
6.1842749023
 20
5.8336803704
 30
0.0
 11
0.05
 21
0.0
 31
0.0
 40
0.0174550649
 41
-1.5707963268
 42
-0.0
  0
ELLIPSE
  5
480
100
AcDbEntity
  8
0
100
AcDbEllipse
 62
7
  6
CONTINUOUS
 10
4.6642749023
 20
5.8336803704
 30
0.0
 11
0.05
 21
0.0
 31
0.0
 40
0.0174550649
 41
3.1415926536
 42
4.7123889804
  0
ELLIPSE
  5
481
100
AcDbEntity
  8
0
100
AcDbEllipse
 62
7
  6
CONTINUOUS
 10
4.0201332532
 20
5.8331567185
 30
0.0
 11
0.02
 21
0.0
 31
0.0
 40
0.0174550649
 41
-1.5707963268
 42
-0.0174532925
  0
ELLIPSE
  5
482
100
AcDbEntity
  8
0
100
AcDbEllipse
 62
7
  6
CONTINUOUS
 10
6.8384165515
 20
5.8331567185
 30
0.0
 11
0.02
 21
0.0
 31
0.0
 40
0.0174550649
 41
-3.1241393611
 42
-1.5707963268
  0
ELLIPSE
  5
483
100
AcDbEntity
  8
0
100
AcDbEllipse
 62
7
  6
CONTINUOUS
 10
6.1842749023
 20
6.9219348639
 30
0.0
 11
0.05
 21
0.0
 31
0.0
 40
0.0174550649
 41
-0.0
 42
1.5707963268
  0
ELLIPSE
  5
484
100
AcDbEntity
  8
0
100
AcDbEllipse
 62
7
  6
CONTINUOUS
 10
6.8384165515
 20
6.9224585159
 30
0.0
 11
0.02
 21
0.0
 31
0.0
 40
0.0174550649
 41
1.5707963268
 42
3.1241393611
  0
ELLIPSE
  5
485
100
AcDbEntity
  8
0
100
AcDbEllipse
 62
7
  6
CONTINUOUS
 10
4.0201332532
 20
6.9224585159
 30
0.0
 11
0.02
 21
0.0
 31
0.0
 40
0.0174550649
 41
0.0174532925
 42
1.5707963268
  0
ELLIPSE
  5
486
100
AcDbEntity
  8
0
100
AcDbEllipse
 62
7
  6
CONTINUOUS
 10
4.6642749023
 20
6.9219348639
 30
0.0
 11
0.05
 21
0.0
 31
0.0
 40
0.0174550649
 41
1.5707963268
 42
3.1415926536
  0
ELLIPSE
  5
487
100
AcDbEntity
  8
0
100
AcDbEllipse
 62
7
  6
CONTINUOUS
 10
12.6545427154
 20
8.9126288175
 30
0.0
 11
0.1706050695
 21
0.0837564285
 31
0.0
 40
0.7212874903
 41
3.1163368574
 42
4.114774441
  0
ELLIPSE
  5
488
100
AcDbEntity
  8
0
100
AcDbEllipse
 62
7
  6
CONTINUOUS
 10
15.5281997014
 20
8.9126288175
 30
0.0
 11
0.1705849391
 21
0.0836752552
 31
0.0
 40
0.721696263
 41
-2.1677513649
 42
-0.5972596246
  0
ELLIPSE
  5
489
100
AcDbEntity
  8
0
100
AcDbEllipse
 62
7
  6
CONTINUOUS
 10
13.3303244164
 20
8.7955381829
 30
0.0
 11
0.0476175891
 21
-0.0152558465
 31
0.0
 40
0.585093276
 41
-2.6406129701
 42
-1.0698166433
  0
ELLIPSE
  5
48A
100
AcDbEntity
  8
0
100
AcDbEllipse
 62
7
  6
CONTINUOUS
 10
15.3418659824
 20
8.7764796932
 30
0.0
 11
0.0190470356
 21
-0.0061023386
 31
0.0
 40
0.585093276
 41
-2.6231596776
 42
-1.0698166433
  0
ELLIPSE
  5
48B
100
AcDbEntity
  8
0
100
AcDbEllipse
 62
7
  6
CONTINUOUS
 10
15.7000527791
 20
9.4687455807
 30
0.0
 11
0.1706050695
 21
0.0837564285
 31
0.0
 40
0.7212874903
 41
-0.5973099528
 42
0.0252558313
  0
ELLIPSE
  5
48C
100
AcDbEntity
  8
0
100
AcDbEllipse
 62
7
  6
CONTINUOUS
 10
12.7460551662
 20
8.7764796932
 30
0.0
 11
0.0190470356
 21
-0.0061023386
 31
0.0
 40
0.585093276
 41
5.2133686639
 42
6.7667116981
  0
ELLIPSE
  5
48D
100
AcDbEntity
  8
0
100
AcDbEllipse
 62
7
  6
CONTINUOUS
 10
14.7303371273
 20
8.7955381829
 30
0.0
 11
0.0476175891
 21
-0.0152558465
 31
0.0
 40
0.585093276
 41
5.2133686639
 42
6.7841649907
  0
ELLIPSE
  5
48E
100
AcDbEntity
  8
0
100
AcDbEllipse
 62
7
  6
CONTINUOUS
 10
12.6164421295
 20
7.2301626927
 30
0.0
 11
0.1706050695
 21
-0.0837564285
 31
0.0
 40
0.7212874903
 41
2.1684108661
 42
2.4106608948
  0
ELLIPSE
  5
48F
100
AcDbEntity
  8
0
100
AcDbEllipse
 62
7
  6
CONTINUOUS
 10
15.4900991155
 20
7.2301626927
 30
0.0
 11
0.1705849391
 21
-0.0836752552
 31
0.0
 40
0.721696263
 41
0.5972596246
 42
2.1677513649
  0
ELLIPSE
  5
490
100
AcDbEntity
  8
0
100
AcDbEllipse
 62
7
  6
CONTINUOUS
 10
14.6922365413
 20
7.3472533273
 30
0.0
 11
0.0476175891
 21
0.0152558465
 31
0.0
 40
0.585093276
 41
0.5368778513
 42
1.0698166433
  0
ELLIPSE
  5
491
100
AcDbEntity
  8
0
100
AcDbEllipse
 62
7
  6
CONTINUOUS
 10
13.2922238305
 20
7.3472533273
 30
0.0
 11
0.0476175891
 21
0.0152558465
 31
0.0
 40
0.585093276
 41
1.0698166433
 42
1.6027554354
  0
ELLIPSE
  5
492
100
AcDbEntity
  8
0
100
AcDbEllipse
 62
7
  6
CONTINUOUS
 10
12.7079545803
 20
7.366311817
 30
0.0
 11
0.0190470356
 21
0.0061023386
 31
0.0
 40
0.585093276
 41
0.2111353089
 42
1.0698166433
  0
ELLIPSE
  5
493
100
AcDbEntity
  8
0
100
AcDbEllipse
 62
7
  6
CONTINUOUS
 10
15.3037653964
 20
7.366311817
 30
0.0
 11
0.0190470356
 21
0.0061023386
 31
0.0
 40
0.585093276
 41
1.0698166433
 42
2.6231596776
  0
ELLIPSE
  5
494
100
AcDbEntity
  8
0
100
AcDbEllipse
 62
7
  6
CONTINUOUS
 10
13.5368904781
 20
6.5555117654
 30
0.0
 11
0.0479164783
 21
0.0142891345
 31
0.0
 40
0.5599093232
 41
2.6347510682
 42
2.6522043607
  0
ELLIPSE
  5
495
100
AcDbEntity
  8
0
100
AcDbEllipse
 62
7
  6
CONTINUOUS
 10
15.5674486776
 20
6.5130324064
 30
0.0
 11
0.0191665913
 21
0.0057156538
 31
0.0
 40
0.5599093232
 41
1.0814080339
 42
2.6347510682
  0
ELLIPSE
  5
496
100
AcDbEntity
  8
0
100
AcDbEllipse
 62
7
  6
CONTINUOUS
 10
13.5556535946
 20
6.494794298
 30
0.0
 11
0.0479164783
 21
0.0142891345
 31
0.0
 40
0.5599093232
 41
1.0814080339
 42
2.6522043607
  0
ELLIPSE
  5
497
100
AcDbEntity
  8
0
100
AcDbEllipse
 62
7
  6
CONTINUOUS
 10
15.6619521932
 20
6.6740459294
 30
0.0
 11
0.1706050695
 21
-0.0837564285
 31
0.0
 40
0.7212874903
 41
-0.9731817875
 42
0.5973099528
  0
ELLIPSE
  5
498
100
AcDbEntity
  8
0
100
AcDbEllipse
 62
7
  6
CONTINUOUS
 10
12.6164421295
 20
7.2301626927
 30
0.0
 11
0.1706050695
 21
-0.0837564285
 31
0.0
 40
0.7212874903
 41
-2.8898848169
 42
-2.5442827007
  0
ELLIPSE
  5
499
100
AcDbEntity
  8
0
100
AcDbEllipse
 62
7
  6
CONTINUOUS
 10
14.9556663055
 20
6.494794298
 30
0.0
 11
0.0479164783
 21
0.0142891345
 31
0.0
 40
0.5599093232
 41
5.7937970143
 42
7.3645933411
  0
ELLIPSE
  5
49A
100
AcDbEntity
  8
0
100
AcDbEllipse
 62
7
  6
CONTINUOUS
 10
15.4395618775
 20
6.5521284907
 30
0.0
 11
0.0448960709
 21
-0.0220411654
 31
0.0
 40
0.7212874903
 41
5.3100035197
 42
6.88049526
  0
ELLIPSE
  5
49B
100
AcDbEntity
  8
0
100
AcDbEllipse
 62
7
  6
CONTINUOUS
 10
12.7882952072
 20
6.6740459294
 30
0.0
 11
0.1705849391
 21
-0.0836752552
 31
0.0
 40
0.721696263
 41
-2.4090497098
 42
-0.9738412887
  0
ELLIPSE
  5
49C
100
AcDbEntity
  8
0
100
AcDbEllipse
 62
7
  6
CONTINUOUS
 10
12.9716378615
 20
6.5130324064
 30
0.0
 11
0.0191665913
 21
0.0057156538
 31
0.0
 40
0.5599093232
 41
5.8112503068
 42
7.3645933411
  0
ELLIPSE
  5
49D
100
AcDbEntity
  8
0
100
AcDbEllipse
 62
7
  6
CONTINUOUS
 10
15.2384602057
 20
7.202893739
 30
0.0
 11
0.0448907735
 21
-0.022019804
 31
0.0
 40
0.721696263
 41
0.5972596246
 42
2.1677513649
  0
ENDSEC
  0
SECTION
  2
OBJECTS
  0
DICTIONARY
  5
C
100
AcDbDictionary
280
0
281
1
  3
ACAD_GROUP
350
D
  3
ACAD_MLINESTYLE
350
17
  3
ACAD_LAYOUT
350
1A
  3
ACAD_PLOTSETTINGS
350
19
  3
ACAD_PLOTSTYLENAME
350
E
  0
DICTIONARY
  5
D
102
{ACAD_REACTORS
330
C
102
}
100
AcDbDictionary
280
0
281
1
  0
ACDBDICTIONARYWDFLT
  5
E
102
{ACAD_REACTORS
330
C
102
}
100
AcDbDictionary
281
1
  3
Normal
350
F
100
AcDbDictionaryWithDefault
340
F
  0
DICTIONARY
  5
17
102
{ACAD_REACTORS
330
C
102
}
100
AcDbDictionary
280
0
281
1
  3
Standard
350
18
  0
DICTIONARY
  5
19
102
{ACAD_REACTORS
330
C
102
}
100
AcDbDictionary
281
1
  0
DICTIONARY
  5
1A
102
{ACAD_REACTORS
330
C
102
}
100
AcDbDictionary
281
1
  3
Model
350
49E
  3
Layout1
350
49F
  0
ACDBPLACEHOLDER
  5
F
102
{ACAD_REACTORS
330
E
102
}
  0
MLINESTYLE
  5
18
102
{ACAD_REACTORS
330
17
102
}
100
AcDbMlineStyle
  2
STANDARD
 70
0
  3

 62
256
 51
90.0
 52
90.0
 71
2
 49
0.5
 62
256
  6
BYLAYER
 49
-0.5
 62
256
  6
BYLAYER
  0
LAYOUT
  5
49E
102
{ACAD_REACTORS
330
1A
102
}
100
AcDbPlotSettings
  1

  2
none_device
  4
ANSI_B_(17.00_x_11.00_Inches)
  6

 40
0.0
 41
0.0
 42
0.0
 43
0.0
 44
431.8
 45
279.4
 46
0.0
 47
0.0
 48
0.0
 49
0.0
140
0.0
141
0.0
142
1.0
143
1.0
 70
1024
 72
0
 73
0
 74
0
  7

 75
0
147
1.0
148
0.0
149
0.0
100
AcDbLayout
  1
Model
 70
0
 71
0
 10
0.0
 20
0.0
 11
17.0
 21
11.0
 12
0.0
 22
0.0
 32
0.0
 14
0.0
 24
0.0
 34
0.0
 15
0.0
 25
0.0
 35
0.0
146
0.0
 13
0.0
 23
0.0
 33
0.0
 16
1.0
 26
0.0
 36
0.0
 17
0.0
 27
1.0
 37
0.0
 76
0
330
203
345
0
346
0
  0
LAYOUT
  5
49F
102
{ACAD_REACTORS
330
1A
102
}
100
AcDbPlotSettings
  1

  2
none_device
  4
ANSI_B_(17.00_x_11.00_Inches)
  6

 40
0.0
 41
0.0
 42
0.0
 43
0.0
 44
431.8
 45
279.4
 46
0.0
 47
0.0
 48
0.0
 49
0.0
140
0.0
141
0.0
142
1.0
143
1.0
 70
0
 72
0
 73
0
 74
0
  7

 75
0
147
1.0
148
0.0
149
0.0
100
AcDbLayout
  1
Layout1
 70
0
 71
1
 10
0.0
 20
0.0
 11
17.0
 21
11.0
 12
0.0
 22
0.0
 32
0.0
 14
0.0
 24
0.0
 34
0.0
 15
0.0
 25
0.0
 35
0.0
146
0.0
 13
0.0
 23
0.0
 33
0.0
 16
1.0
 26
0.0
 36
0.0
 17
0.0
 27
1.0
 37
0.0
 76
0
330
204
345
0
346
0
  0
ENDSEC
  0
EOF
