999
DXF file: C:\SAP\Working\ProE\work\PRN-14265_drawings_700-N24\700-n24.dxf
999
Pro/ENGINEER 2019444 by Parametric Technology Corporation
  0
SECTION
  2
HEADER
  9
$ACADVER
  1
AC1032
  9
$DWGCODEPAGE
  3
ANSI_1252
  9
$EXTMAX
 10
17.0
 20
11.0
 30
0.0
  9
$EXTMIN
 10
0.0
 20
0.0
 30
0.0
  9
$LIMMIN
 10
0.0
 20
0.0
  9
$LIMMAX
 10
17.0
 20
11.0
  9
$VIEWCTR
 10
8.5
 20
5.5
  9
$VIEWSIZE
 40
11.0
  9
$CLAYER
  8
0
  9
$LTSCALE
 40
0.935
  9
$CELTYPE
  6
BYLAYER
  9
$DIMSCALE
 40
1.0
  9
$DIMASZ
 40
0.1875
  9
$DIMEXO
 40
0.0625
  9
$DIMDLI
 40
0.646
  9
$DIMEXE
 40
0.125
  9
$DIMCEN
 40
0.153
  9
$DIMLFAC
 40
1.0
  9
$DIMBLK
  1
_FILLED
  9
$DIMALT
 70
1
  9
$DIMALTD
 70
2
  9
$DIMALTTD
 70
2
  9
$DIMALTF
 40
25.4
  9
$DIMTXT
 40
0.12
  9
$DIMTOL
 70
1
  9
$DIMLIM
 70
0
  9
$DIMTFAC
 40
1.0
  9
$DIMTP
 40
0.001
  9
$DIMTM
 40
0.001
  9
$DIMGAP
 40
0.09
  9
$DIMDSEP
 70
46
  9
$AUNITS
 70
0
  9
$PDMODE
 70
3
  9
$PDSIZE
 40
0.3125
  9
$HANDSEED
  5
528
  9
$TILEMODE
 70
1
  9
$MEASUREMENT
 70
0
  9
$INSUNITS
 70
1
  0
ENDSEC
  0
SECTION
  2
CLASSES
  0
CLASS
  1
ACDBDICTIONARYWDFLT
  2
AcDbDictionaryWithDefault
  3
AutoCAD 2000
 90
0
 91
1
280
0
281
0
  0
CLASS
  1
ACDBPLACEHOLDER
  2
AcDbPlaceHolder
  3
AutoCAD 2000
 90
0
 91
1
280
0
281
0
  0
CLASS
  1
LAYOUT
  2
AcDbLayout
  3
AutoCAD 2000
 90
0
 91
0
280
0
281
0
  0
ENDSEC
  0
SECTION
  2
TABLES
  0
TABLE
  2
VPORT
  5
8
100
AcDbSymbolTable
 70
2
  0
VPORT
  5
1F4
100
AcDbSymbolTableRecord
100
AcDbViewportTableRecord
  2
*ACTIVE
 70
0
 10
0.0
 20
0.0
 11
1.0
 21
1.0
 12
8.5
 22
5.5
 13
0.0
 23
0.0
 14
1.0
 24
1.0
 15
0.0
 25
0.0
 16
0.0
 26
0.0
 36
1.0
 17
0.0
 27
0.0
 37
0.0
 40
11.0
 41
1.5454545455
 42
50.0
 43
0.0
 44
0.0
 50
0.0
 51
0.0
 71
0
 72
100
 73
1
 74
1
 75
0
 76
0
 77
0
 78
0
  0
ENDTAB
  0
TABLE
  2
LTYPE
  5
5
100
AcDbSymbolTable
 70
6
  0
LTYPE
  5
14
100
AcDbSymbolTableRecord
100
AcDbLinetypeTableRecord
  2
BYBLOCK
 70
0
  3

 72
65
 73
0
 40
0.0
  0
LTYPE
  5
15
100
AcDbSymbolTableRecord
100
AcDbLinetypeTableRecord
  2
BYLAYER
 70
0
  3

 72
65
 73
0
 40
0.0
  0
LTYPE
  5
16
100
AcDbSymbolTableRecord
100
AcDbLinetypeTableRecord
  2
CONTINUOUS
 70
64
  3
Solid line
 72
65
 73
0
 40
0.0
  0
LTYPE
  5
1F5
100
AcDbSymbolTableRecord
100
AcDbLinetypeTableRecord
  2
CENTER
 70
64
  3
____ _ ____ _ ____ _ ____ _ ____ _ ____ _ ____
 72
65
 73
4
 40
0.6
 49
0.375
 74
0
 49
-0.075
 74
0
 49
0.075
 74
0
 49
-0.075
 74
0
  0
LTYPE
  5
1F6
100
AcDbSymbolTableRecord
100
AcDbLinetypeTableRecord
  2
HIDDEN
 70
64
  3
- - - - - - - - - - - - - - - - - - - -
 72
65
 73
2
 40
0.2
 49
0.1
 74
0
 49
-0.1
 74
0
  0
LTYPE
  5
1F7
100
AcDbSymbolTableRecord
100
AcDbLinetypeTableRecord
  2
PHANTOM
 70
64
  3
_____ _ _ _____ _ _ _____ _ _ _____
 72
65
 73
6
 40
0.8
 49
0.45
 74
0
 49
-0.05
 74
0
 49
0.1
 74
0
 49
-0.05
 74
0
 49
0.1
 74
0
 49
-0.05
 74
0
  0
LTYPE
  5
1F8
100
AcDbSymbolTableRecord
100
AcDbLinetypeTableRecord
  2
DOT
 70
64
  3
. . . . . . . . . . . . . . . . . . . .
 72
65
 73
2
 40
0.2
 49
0.1
 74
0
 49
-0.1
 74
0
  0
LTYPE
  5
1F9
100
AcDbSymbolTableRecord
100
AcDbLinetypeTableRecord
  2
DASHED
 70
64
  3
- - - - - - - - - - - - - - - - - - - -
 72
65
 73
2
 40
0.2
 49
0.1
 74
0
 49
-0.1
 74
0
  0
ENDTAB
  0
TABLE
  2
LAYER
  5
2
100
AcDbSymbolTable
 70
36
  0
LAYER
  5
10
100
AcDbSymbolTableRecord
100
AcDbLayerTableRecord
  2
0
 70
0
 62
7
  6
CONTINUOUS
370
-3
390
F
  0
LAYER
  5
1FA
100
AcDbSymbolTableRecord
100
AcDbLayerTableRecord
  2
DEFAULT_1
 70
0
 62
7
  6
CENTER
370
-3
390
F
  0
LAYER
  5
1FB
100
AcDbSymbolTableRecord
100
AcDbLayerTableRecord
  2
DEFAULT_2
 70
0
 62
8
  6
HIDDEN
370
-3
390
F
  0
LAYER
  5
1FC
100
AcDbSymbolTableRecord
100
AcDbLayerTableRecord
  2
DEFAULT_3
 70
0
 62
7
  6
PHANTOM
370
-3
390
F
  0
LAYER
  5
1FD
100
AcDbSymbolTableRecord
100
AcDbLayerTableRecord
  2
01___PRT_ALL_DTM_PLN
 70
0
 62
7
  6
CONTINUOUS
370
-3
390
F
  0
LAYER
  5
1FE
100
AcDbSymbolTableRecord
100
AcDbLayerTableRecord
  2
01___PRT_DEF_DTM_PLN
 70
0
 62
7
  6
CONTINUOUS
370
-3
390
F
  0
LAYER
  5
1FF
100
AcDbSymbolTableRecord
100
AcDbLayerTableRecord
  2
02___PRT_ALL_AXES
 70
0
 62
7
  6
CONTINUOUS
370
-3
390
F
  0
LAYER
  5
200
100
AcDbSymbolTableRecord
100
AcDbLayerTableRecord
  2
03___PRT_ALL_CURVES
 70
0
 62
7
  6
CONTINUOUS
370
-3
390
F
  0
LAYER
  5
201
100
AcDbSymbolTableRecord
100
AcDbLayerTableRecord
  2
04___PRT_ALL_DTM_PNT
 70
0
 62
7
  6
CONTINUOUS
370
-3
390
F
  0
LAYER
  5
202
100
AcDbSymbolTableRecord
100
AcDbLayerTableRecord
  2
05___PRT_ALL_DTM_CSYS
 70
0
 62
7
  6
CONTINUOUS
370
-3
390
F
  0
LAYER
  5
203
100
AcDbSymbolTableRecord
100
AcDbLayerTableRecord
  2
05___PRT_DEF_DTM_CSYS
 70
0
 62
7
  6
CONTINUOUS
370
-3
390
F
  0
LAYER
  5
204
100
AcDbSymbolTableRecord
100
AcDbLayerTableRecord
  2
06___PRT_ALL_SURFS
 70
0
 62
7
  6
CONTINUOUS
370
-3
390
F
  0
LAYER
  5
205
100
AcDbSymbolTableRecord
100
AcDbLayerTableRecord
  2
AXIS_PART
 70
0
 62
7
  6
CONTINUOUS
370
-3
390
F
  0
LAYER
  5
206
100
AcDbSymbolTableRecord
100
AcDbLayerTableRecord
  2
DATUM_CURVE
 70
0
 62
7
  6
CONTINUOUS
370
-3
390
F
  0
LAYER
  5
207
100
AcDbSymbolTableRecord
100
AcDbLayerTableRecord
  2
DATUM_PART
 70
0
 62
7
  6
CONTINUOUS
370
-3
390
F
  0
LAYER
  5
208
100
AcDbSymbolTableRecord
100
AcDbLayerTableRecord
  2
DEF_DATUMS
 70
0
 62
7
  6
CONTINUOUS
370
-3
390
F
  0
LAYER
  5
209
100
AcDbSymbolTableRecord
100
AcDbLayerTableRecord
  2
PRT_COORD_SYS
 70
0
 62
7
  6
CONTINUOUS
370
-3
390
F
  0
LAYER
  5
20A
100
AcDbSymbolTableRecord
100
AcDbLayerTableRecord
  2
PRT_DATUMS
 70
0
 62
7
  6
CONTINUOUS
370
-3
390
F
  0
ENDTAB
  0
TABLE
  2
STYLE
  5
3
100
AcDbSymbolTable
 70
1
  0
STYLE
  5
11
100
AcDbSymbolTableRecord
100
AcDbTextStyleTableRecord
  2
STANDARD
 70
0
 40
0.0
 41
0.8
 50
0.0
 71
0
 42
0.2
  3
txt
  4

  0
STYLE
  5
20B
100
AcDbSymbolTableRecord
100
AcDbTextStyleTableRecord
  2
TEXTSTYLE_1
 70
0
 40
0.0
 41
0.8
 50
0.0
 71
0
 42
0.2
  3
gdt
  4

  0
ENDTAB
  0
TABLE
  2
VIEW
  5
6
100
AcDbSymbolTable
 70
0
  0
ENDTAB
  0
TABLE
  2
UCS
  5
7
100
AcDbSymbolTable
 70
0
  0
ENDTAB
  0
TABLE
  2
APPID
  5
9
100
AcDbSymbolTable
 70
1
  0
APPID
  5
20C
100
AcDbSymbolTableRecord
100
AcDbRegAppTableRecord
  2
ACAD
 70
0
  0
ENDTAB
  0
TABLE
  2
BLOCK_RECORD
  5
1
100
AcDbSymbolTable
 70
0
  0
BLOCK_RECORD
  5
20D
100
AcDbSymbolTableRecord
100
AcDbBlockTableRecord
  2
*Model_Space
  0
BLOCK_RECORD
  5
20E
100
AcDbSymbolTableRecord
100
AcDbBlockTableRecord
  2
*Paper_Space
  0
BLOCK_RECORD
  5
20F
100
AcDbSymbolTableRecord
100
AcDbBlockTableRecord
  2
_FILLED
  0
BLOCK_RECORD
  5
210
100
AcDbSymbolTableRecord
100
AcDbBlockTableRecord
  2
*D0
  0
BLOCK_RECORD
  5
211
100
AcDbSymbolTableRecord
100
AcDbBlockTableRecord
  2
*D1
  0
BLOCK_RECORD
  5
212
100
AcDbSymbolTableRecord
100
AcDbBlockTableRecord
  2
*D2
  0
BLOCK_RECORD
  5
213
100
AcDbSymbolTableRecord
100
AcDbBlockTableRecord
  2
*D3
  0
BLOCK_RECORD
  5
214
100
AcDbSymbolTableRecord
100
AcDbBlockTableRecord
  2
*D4
  0
BLOCK_RECORD
  5
215
100
AcDbSymbolTableRecord
100
AcDbBlockTableRecord
  2
*D5
  0
BLOCK_RECORD
  5
216
100
AcDbSymbolTableRecord
100
AcDbBlockTableRecord
  2
*D6
  0
BLOCK_RECORD
  5
217
100
AcDbSymbolTableRecord
100
AcDbBlockTableRecord
  2
*D7
  0
ENDTAB
  0
TABLE
  2
DIMSTYLE
  5
A
100
AcDbSymbolTable
 70
1
100
AcDbDimStyleTable
 71
0
  0
DIMSTYLE
105
218
100
AcDbSymbolTableRecord
100
AcDbDimStyleTableRecord
  2
STANDARD
 70
0
  3

  4

 40
1.0
 41
0.1875
 42
0.0625
 43
0.38
 44
0.125
 45
0.0
 46
0.0
 47
0.001
 48
0.001
140
0.12
141
0.09
142
0.0
143
25.4
144
1.0
145
0.0
146
1.0
147
0.09
 71
1
 72
0
 73
1
 74
1
 75
0
 76
0
 77
0
 78
4
 79
1
170
1
171
2
172
0
173
0
174
0
175
0
176
0
177
0
178
0
270
2
179
3
271
3
272
3
273
2
274
2
275
0
280
0
281
0
282
0
283
1
284
4
285
0
286
0
287
3
288
0
340
11
278
46
341
20F
342
20F
343
20F
344
20F
  0
DIMSTYLE
105
219
100
AcDbSymbolTableRecord
100
AcDbDimStyleTableRecord
  2
DIMSTYLE_1
 70
0
  3

  4

 40
1.0
 41
0.1875
 42
0.0625
 43
0.38
 44
0.125
 45
0.0
 46
0.0
 47
0.001
 48
0.001
140
0.12
141
0.09
142
0.0
143
25.4
144
1.0
145
0.0
146
1.0
147
0.06
 71
0
 72
0
 73
1
 74
1
 75
0
 76
0
 77
0
 78
4
 79
1
170
1
171
1
172
0
173
0
174
0
175
0
176
0
177
0
178
0
270
2
179
3
271
2
272
2
273
2
274
1
275
0
280
0
281
0
282
0
283
1
284
4
285
0
286
0
287
3
288
0
340
11
278
46
341
20F
342
20F
343
20F
344
20F
  0
DIMSTYLE
105
21A
100
AcDbSymbolTableRecord
100
AcDbDimStyleTableRecord
  2
DIMSTYLE_2
 70
0
  3

  4

 40
1.0
 41
0.1875
 42
0.0625
 43
0.38
 44
0.125
 45
0.0
 46
0.0
 47
0.001
 48
0.001
140
0.12
141
0.09
142
0.0
143
25.4
144
1.0
145
0.0
146
1.0
147
0.06
 71
0
 72
0
 73
1
 74
1
 75
0
 76
0
 77
0
 78
4
 79
1
170
1
171
2
172
0
173
0
174
0
175
0
176
0
177
0
178
0
270
2
179
3
271
3
272
3
273
2
274
-1
275
0
280
0
281
0
282
0
283
1
284
4
285
0
286
0
287
3
288
0
340
11
278
46
341
20F
342
20F
343
20F
344
20F
  0
DIMSTYLE
105
21B
100
AcDbSymbolTableRecord
100
AcDbDimStyleTableRecord
  2
DIMSTYLE_3
 70
0
  3
<>
  4

 40
1.0
 41
0.1875
 42
0.0625
 43
0.38
 44
0.125
 45
0.0
 46
0.0
 47
0.001
 48
0.001
140
0.12
141
0.09
142
0.0
143
25.4
144
1.0
145
0.0
146
1.0
147
0.09
 71
0
 72
0
 73
1
 74
1
 75
0
 76
0
 77
0
 78
4
 79
1
170
1
171
2
172
1
173
0
174
0
175
0
176
0
177
0
178
0
270
2
179
3
271
3
272
3
273
2
274
-1
275
0
280
0
281
0
282
0
283
1
284
4
285
0
286
0
287
3
288
1
340
11
278
46
289
2
341
20F
342
20F
343
20F
344
20F
  0
ENDTAB
  0
ENDSEC
  0
SECTION
  2
BLOCKS
  0
BLOCK
  5
20
100
AcDbEntity
  8
0
100
AcDbBlockBegin
  2
*Model_Space
 70
0
 10
0.0
 20
0.0
 30
0.0
  3
*Model_Space
  1

  0
ENDBLK
  5
21
100
AcDbEntity
  8
0
100
AcDbBlockEnd
  0
BLOCK
  5
1C
100
AcDbEntity
  8
0
100
AcDbBlockBegin
  2
*Paper_Space
 70
0
 10
0.0
 20
0.0
 30
0.0
  3
*Paper_Space
  1

  0
ENDBLK
  5
1D
100
AcDbEntity
  8
0
100
AcDbBlockEnd
  0
BLOCK
  5
21C
100
AcDbEntity
  8
0
100
AcDbBlockBegin
  2
_FILLED
 70
64
 10
0.0
 20
0.0
  3
_FILLED
  1

  0
SOLID
  5
21D
100
AcDbEntity
  8
0
  6
BYBLOCK
 62
0
100
AcDbTrace
 10
0.0
 20
0.0
 11
-1.0
 21
0.1666666667
 12
-1.0
 22
-0.1666666667
 13
-1.0
 23
-0.1666666667
  0
ENDBLK
  5
21E
100
AcDbEntity
  8
0
  6
BYBLOCK
 62
0
100
AcDbBlockEnd
  0
BLOCK
  5
21F
100
AcDbEntity
  8
0
100
AcDbBlockBegin
 62
2
  6
CONTINUOUS
  2
*D0
 70
65
 10
0.0
 20
0.0
  3
*D0
  1

  0
MTEXT
  5
220
100
AcDbEntity
  8
0
100
AcDbMText
 62
2
  6
CONTINUOUS
  7
STANDARD
 71
2
 72
1
 10
6.6776539145
 20
8.4028427075
 30
0.0
 11
1.0
 21
0.0
 31
0.0
 73
2
 44
0.9
  1
1.21\P[30.7]
 40
0.12
 41
0.576
  0
LINE
  5
221
100
AcDbEntity
  8
0
100
AcDbLine
 62
2
  6
CONTINUOUS
 10
6.1115856501
 20
7.7704124817
 11
6.1115856501
 21
8.4678427075
  0
LINE
  5
222
100
AcDbEntity
  8
0
100
AcDbLine
 62
2
  6
CONTINUOUS
 10
7.3215856501
 20
7.7704124817
 11
7.3215856501
 21
8.4678427075
  0
LINE
  5
223
100
AcDbEntity
  8
0
100
AcDbLine
 62
2
  6
CONTINUOUS
 10
6.1115856501
 20
8.3428427075
 11
6.4256539145
 21
8.3428427075
  0
LINE
  5
224
100
AcDbEntity
  8
0
100
AcDbLine
 62
2
  6
CONTINUOUS
 10
7.3215856501
 20
8.3428427075
 11
7.1216539145
 21
8.3428427075
  0
INSERT
  5
225
100
AcDbEntity
  8
0
100
AcDbBlockReference
 62
2
  6
CONTINUOUS
  2
_FILLED
 10
6.1115856501
 20
8.3428427075
 41
0.1875
 42
0.1875
 43
0.1875
 50
180.0
  0
INSERT
  5
226
100
AcDbEntity
  8
0
100
AcDbBlockReference
 62
2
  6
CONTINUOUS
  2
_FILLED
 10
7.3215856501
 20
8.3428427075
 41
0.1875
 42
0.1875
 43
0.1875
  0
ENDBLK
  5
227
100
AcDbEntity
  8
0
  6
BYBLOCK
 62
0
100
AcDbBlockEnd
  0
BLOCK
  5
228
100
AcDbEntity
  8
0
100
AcDbBlockBegin
 62
2
  6
CONTINUOUS
  2
*D1
 70
65
 10
0.0
 20
0.0
  3
*D1
  1

  0
MTEXT
  5
229
100
AcDbEntity
  8
0
100
AcDbMText
 62
2
  6
CONTINUOUS
  7
STANDARD
 71
2
 72
1
 10
7.9825583409
 20
7.4427169856
 30
0.0
 11
1.0
 21
0.0
 31
0.0
 73
2
 44
0.9
  1
.88\P[22.2]
 40
0.12
 41
0.576
  0
LINE
  5
22A
100
AcDbEntity
  8
0
100
AcDbLine
 62
2
  6
CONTINUOUS
 10
7.3640904096
 20
7.7279077223
 11
8.2515583409
 21
7.7279077223
  0
LINE
  5
22B
100
AcDbEntity
  8
0
100
AcDbLine
 62
2
  6
CONTINUOUS
 10
7.3640904096
 20
6.8529077223
 11
8.2515583409
 21
6.8529077223
  0
LINE
  5
22C
100
AcDbEntity
  8
0
100
AcDbLine
 62
2
  6
CONTINUOUS
 10
8.1265583409
 20
7.7279077223
 11
8.1265583409
 21
7.5027169856
  0
LINE
  5
22D
100
AcDbEntity
  8
0
100
AcDbLine
 62
2
  6
CONTINUOUS
 10
8.1265583409
 20
6.8529077223
 11
8.1265583409
 21
7.0827169856
  0
INSERT
  5
22E
100
AcDbEntity
  8
0
100
AcDbBlockReference
 62
2
  6
CONTINUOUS
  2
_FILLED
 10
8.1265583409
 20
7.7279077223
 41
0.1875
 42
0.1875
 43
0.1875
 50
90.0
  0
INSERT
  5
22F
100
AcDbEntity
  8
0
100
AcDbBlockReference
 62
2
  6
CONTINUOUS
  2
_FILLED
 10
8.1265583409
 20
6.8529077223
 41
0.1875
 42
0.1875
 43
0.1875
 50
270.0
  0
ENDBLK
  5
230
100
AcDbEntity
  8
0
  6
BYBLOCK
 62
0
100
AcDbBlockEnd
  0
BLOCK
  5
231
100
AcDbEntity
  8
0
100
AcDbBlockBegin
 62
2
  6
CONTINUOUS
  2
*D2
 70
65
 10
0.0
 20
0.0
  3
*D2
  1

  0
MTEXT
  5
232
100
AcDbEntity
  8
0
100
AcDbMText
 62
2
  6
CONTINUOUS
  7
STANDARD
 71
1
 72
1
 10
8.0337932876
 20
3.467235775
 30
0.0
 11
1.0
 21
0.0
 31
0.0
 73
2
 44
0.9
  1
.60\P[15.2]
 40
0.12
 41
0.576
  0
LINE
  5
233
100
AcDbEntity
  8
0
100
AcDbLine
 62
2
  6
CONTINUOUS
 10
7.3640904096
 20
2.3510984536
 11
7.9087932876
 21
2.3510984536
  0
LINE
  5
234
100
AcDbEntity
  8
0
100
AcDbLine
 62
2
  6
CONTINUOUS
 10
7.3514252445
 20
2.9510984536
 11
7.9087932876
 21
2.9510984536
  0
LINE
  5
235
100
AcDbEntity
  8
0
100
AcDbLine
 62
2
  6
CONTINUOUS
 10
7.7837932876
 20
2.3510984536
 11
7.7837932876
 21
2.6510984536
  0
LINE
  5
236
100
AcDbEntity
  8
0
100
AcDbLine
 62
2
  6
CONTINUOUS
 10
7.7837932876
 20
2.9510984536
 11
7.7837932876
 21
2.6510984536
  0
LINE
  5
237
100
AcDbEntity
  8
0
100
AcDbLine
 62
2
  6
CONTINUOUS
 10
7.7837932876
 20
2.6510984536
 11
7.7837932876
 21
3.407235775
  0
LINE
  5
238
100
AcDbEntity
  8
0
100
AcDbLine
 62
2
  6
CONTINUOUS
 10
7.7837932876
 20
3.407235775
 11
7.9737932876
 21
3.407235775
  0
INSERT
  5
239
100
AcDbEntity
  8
0
100
AcDbBlockReference
 62
2
  6
CONTINUOUS
  2
_FILLED
 10
7.7837932876
 20
2.3510984536
 41
0.1875
 42
0.1875
 43
0.1875
 50
270.0
  0
INSERT
  5
23A
100
AcDbEntity
  8
0
100
AcDbBlockReference
 62
2
  6
CONTINUOUS
  2
_FILLED
 10
7.7837932876
 20
2.9510984536
 41
0.1875
 42
0.1875
 43
0.1875
 50
90.0
  0
ENDBLK
  5
23B
100
AcDbEntity
  8
0
  6
BYBLOCK
 62
0
100
AcDbBlockEnd
  0
BLOCK
  5
23C
100
AcDbEntity
  8
0
100
AcDbBlockBegin
 62
2
  6
CONTINUOUS
  2
*D3
 70
65
 10
0.0
 20
0.0
  3
*D3
  1

  0
MTEXT
  5
23D
100
AcDbEntity
  8
0
100
AcDbMText
 62
2
  6
CONTINUOUS
  7
STANDARD
 71
2
 72
1
 10
8.3527681241
 20
2.6080124007
 30
0.0
 11
1.0
 21
0.0
 31
0.0
 73
2
 44
0.9
  1
1.03\P[26.1]
 40
0.12
 41
0.576
  0
LINE
  5
23E
100
AcDbEntity
  8
0
100
AcDbLine
 62
2
  6
CONTINUOUS
 10
7.3514252445
 20
2.9510984536
 11
8.5737681241
 21
2.9510984536
  0
LINE
  5
23F
100
AcDbEntity
  8
0
100
AcDbLine
 62
2
  6
CONTINUOUS
 10
6.9040856501
 20
1.9252511694
 11
8.5737681241
 21
1.9252511694
  0
LINE
  5
240
100
AcDbEntity
  8
0
100
AcDbLine
 62
2
  6
CONTINUOUS
 10
8.4487681241
 20
2.9510984536
 11
8.4487681241
 21
2.6680124007
  0
LINE
  5
241
100
AcDbEntity
  8
0
100
AcDbLine
 62
2
  6
CONTINUOUS
 10
8.4487681241
 20
1.9252511694
 11
8.4487681241
 21
2.2480123901
  0
INSERT
  5
242
100
AcDbEntity
  8
0
100
AcDbBlockReference
 62
2
  6
CONTINUOUS
  2
_FILLED
 10
8.4487681241
 20
2.9510984536
 41
0.1875
 42
0.1875
 43
0.1875
 50
90.0
  0
INSERT
  5
243
100
AcDbEntity
  8
0
100
AcDbBlockReference
 62
2
  6
CONTINUOUS
  2
_FILLED
 10
8.4487681241
 20
1.9252511694
 41
0.1875
 42
0.1875
 43
0.1875
 50
270.0
  0
ENDBLK
  5
244
100
AcDbEntity
  8
0
  6
BYBLOCK
 62
0
100
AcDbBlockEnd
  0
BLOCK
  5
245
100
AcDbEntity
  8
0
100
AcDbBlockBegin
 62
2
  6
CONTINUOUS
  2
*D4
 70
65
 10
0.0
 20
0.0
  3
*D4
  1

  0
MTEXT
  5
246
100
AcDbEntity
  8
0
100
AcDbMText
 62
2
  6
CONTINUOUS
  7
STANDARD
 71
2
 72
1
 10
11.5704751768
 20
2.772317882
 30
0.0
 11
1.0
 21
0.0
 31
0.0
 73
2
 44
0.9
  1
.66\P[16.8]
 40
0.12
 41
0.576
  0
LINE
  5
247
100
AcDbEntity
  8
0
100
AcDbLine
 62
2
  6
CONTINUOUS
 10
11.2188859948
 20
2.9510984536
 11
11.8394751768
 21
2.9510984536
  0
LINE
  5
248
100
AcDbEntity
  8
0
100
AcDbLine
 62
2
  6
CONTINUOUS
 10
10.9240464004
 20
2.2910984536
 11
11.8394751768
 21
2.2910984536
  0
LINE
  5
249
100
AcDbEntity
  8
0
100
AcDbLine
 62
2
  6
CONTINUOUS
 10
11.7144751768
 20
2.9510984536
 11
11.7144751768
 21
3.3010984536
  0
LINE
  5
24A
100
AcDbEntity
  8
0
100
AcDbLine
 62
2
  6
CONTINUOUS
 10
11.7144751768
 20
2.2910984536
 11
11.7144751768
 21
1.9410984536
  0
INSERT
  5
24B
100
AcDbEntity
  8
0
100
AcDbBlockReference
 62
2
  6
CONTINUOUS
  2
_FILLED
 10
11.7144751768
 20
2.9510984536
 41
0.1875
 42
0.1875
 43
0.1875
 50
270.0
  0
INSERT
  5
24C
100
AcDbEntity
  8
0
100
AcDbBlockReference
 62
2
  6
CONTINUOUS
  2
_FILLED
 10
11.7144751768
 20
2.2910984536
 41
0.1875
 42
0.1875
 43
0.1875
 50
90.0
  0
ENDBLK
  5
24D
100
AcDbEntity
  8
0
  6
BYBLOCK
 62
0
100
AcDbBlockEnd
  0
BLOCK
  5
24E
100
AcDbEntity
  8
0
100
AcDbBlockBegin
 62
2
  6
CONTINUOUS
  2
*D5
 70
65
 10
0.0
 20
0.0
  3
*D5
  1

  0
MTEXT
  5
24F
100
AcDbEntity
  8
0
100
AcDbMText
 62
2
  6
CONTINUOUS
  7
STANDARD
 71
2
 72
1
 10
8.8687975251
 20
7.4484833825
 30
0.0
 11
1.0
 21
0.0
 31
0.0
 73
2
 44
0.9
  1
.96\P[24.4]
 40
0.12
 41
0.576
  0
LINE
  5
250
100
AcDbEntity
  8
0
100
AcDbLine
 62
2
  6
CONTINUOUS
 10
7.3640904096
 20
7.7279077223
 11
9.1377975251
 21
7.7279077223
  0
LINE
  5
251
100
AcDbEntity
  8
0
100
AcDbLine
 62
2
  6
CONTINUOUS
 10
6.9140856501
 20
6.7676919063
 11
9.1377975251
 21
6.7676919063
  0
LINE
  5
252
100
AcDbEntity
  8
0
100
AcDbLine
 62
2
  6
CONTINUOUS
 10
9.0127975251
 20
7.7279077223
 11
9.0127975251
 21
7.5084833825
  0
LINE
  5
253
100
AcDbEntity
  8
0
100
AcDbLine
 62
2
  6
CONTINUOUS
 10
9.0127975251
 20
6.7676919063
 11
9.0127975251
 21
7.0884832764
  0
INSERT
  5
254
100
AcDbEntity
  8
0
100
AcDbBlockReference
 62
2
  6
CONTINUOUS
  2
_FILLED
 10
9.0127975251
 20
7.7279077223
 41
0.1875
 42
0.1875
 43
0.1875
 50
90.0
  0
INSERT
  5
255
100
AcDbEntity
  8
0
100
AcDbBlockReference
 62
2
  6
CONTINUOUS
  2
_FILLED
 10
9.0127975251
 20
6.7676919063
 41
0.1875
 42
0.1875
 43
0.1875
 50
270.0
  0
ENDBLK
  5
256
100
AcDbEntity
  8
0
  6
BYBLOCK
 62
0
100
AcDbBlockEnd
  0
BLOCK
  5
257
100
AcDbEntity
  8
0
100
AcDbBlockBegin
 62
2
  6
CONTINUOUS
  2
*D6
 70
65
 10
0.0
 20
0.0
  3
*D6
  1

  0
MTEXT
  5
258
100
AcDbEntity
  8
0
100
AcDbMText
 62
2
  6
CONTINUOUS
  7
STANDARD
 71
1
 72
1
 10
1.2857764967
 20
8.0028449041
 30
0.0
 11
1.0
 21
0.0
 31
0.0
 73
2
 44
0.9
  1
.140\P[3.56]
 40
0.12
 41
0.576
  0
LINE
  5
259
100
AcDbEntity
  8
0
100
AcDbLine
 62
2
  6
CONTINUOUS
 10
1.2640856501
 20
7.3604077223
 11
0.9107764967
 21
7.3604077223
  0
LINE
  5
25A
100
AcDbEntity
  8
0
100
AcDbLine
 62
2
  6
CONTINUOUS
 10
1.2640856501
 20
7.2204077223
 11
0.9107764967
 21
7.2204077223
  0
LINE
  5
25B
100
AcDbEntity
  8
0
100
AcDbLine
 62
2
  6
CONTINUOUS
 10
1.0357764967
 20
7.3604077223
 11
1.0357764967
 21
7.9428449041
  0
LINE
  5
25C
100
AcDbEntity
  8
0
100
AcDbLine
 62
2
  6
CONTINUOUS
 10
1.0357764967
 20
7.9428449041
 11
1.2257764967
 21
7.9428449041
  0
LINE
  5
25D
100
AcDbEntity
  8
0
100
AcDbLine
 62
2
  6
CONTINUOUS
 10
1.0357764967
 20
7.2204077223
 11
1.0357764967
 21
6.8704077223
  0
INSERT
  5
25E
100
AcDbEntity
  8
0
100
AcDbBlockReference
 62
2
  6
CONTINUOUS
  2
_FILLED
 10
1.0357764967
 20
7.3604077223
 41
0.1875
 42
0.1875
 43
0.1875
 50
270.0
  0
INSERT
  5
25F
100
AcDbEntity
  8
0
100
AcDbBlockReference
 62
2
  6
CONTINUOUS
  2
_FILLED
 10
1.0357764967
 20
7.2204077223
 41
0.1875
 42
0.1875
 43
0.1875
 50
90.0
  0
ENDBLK
  5
260
100
AcDbEntity
  8
0
  6
BYBLOCK
 62
0
100
AcDbBlockEnd
  0
BLOCK
  5
261
100
AcDbEntity
  8
0
100
AcDbBlockBegin
 62
2
  6
CONTINUOUS
  2
*D7
 70
65
 10
0.0
 20
0.0
  3
*D7
  1

  0
MTEXT
  5
262
100
AcDbEntity
  8
0
100
AcDbMText
 62
2
  6
CONTINUOUS
  7
TEXTSTYLE_1
 71
3
 72
1
 10
5.7775678751
 20
1.8850669713
 30
0.0
 11
1.0
 21
0.0
 31
0.0
 73
2
 44
0.9
  1
{\fgdt;n}\ftxt;.144\P[3.66]
 40
0.12
 41
0.576
  0
LINE
  5
263
100
AcDbEntity
  8
0
100
AcDbLine
 62
2
  6
CONTINUOUS
 10
6.6525881792
 20
2.0482618867
 11
6.7165856501
 21
2.081248585
  0
LINE
  5
264
100
AcDbEntity
  8
0
100
AcDbLine
 62
2
  6
CONTINUOUS
 10
6.7165856501
 20
2.081248585
 11
6.2195678751
 21
1.8250669713
  0
LINE
  5
265
100
AcDbEntity
  8
0
100
AcDbLine
 62
2
  6
CONTINUOUS
 10
6.2195678751
 20
1.8250669713
 11
6.0295678751
 21
1.8250669713
  0
LINE
  5
266
100
AcDbEntity
  8
0
100
AcDbLine
 62
2
  6
CONTINUOUS
 10
6.7805831211
 20
2.1142352832
 11
6.7165856501
 21
2.081248585
  0
LINE
  5
267
100
AcDbEntity
  8
0
100
AcDbLine
 62
2
  6
CONTINUOUS
 10
6.7165856501
 20
2.081248585
 11
7.091687983
 21
2.2745904044
  0
INSERT
  5
268
100
AcDbEntity
  8
0
100
AcDbBlockReference
 62
2
  6
CONTINUOUS
  2
_FILLED
 10
6.6525881792
 20
2.0482618867
 41
0.1875
 42
0.1875
 43
0.1875
 50
27.2692388263
  0
INSERT
  5
269
100
AcDbEntity
  8
0
100
AcDbBlockReference
 62
2
  6
CONTINUOUS
  2
_FILLED
 10
6.7805831211
 20
2.1142352832
 41
0.1875
 42
0.1875
 43
0.1875
 50
207.2685530767
  0
ENDBLK
  5
26A
100
AcDbEntity
  8
0
  6
BYBLOCK
 62
0
100
AcDbBlockEnd
  0
ENDSEC
  0
SECTION
  2
ENTITIES
  0
DIMENSION
  5
26B
100
AcDbEntity
  8
0
100
AcDbDimension
 62
2
  6
CONTINUOUS
  2
*D0
 10
7.3215856501
 20
8.3428427075
 11
6.7736539145
 21
8.2528427075
 70
160
 71
2
 72
2
 41
0.9
 42
1.21
  1
<>\P[]
  3
DIMSTYLE_1
100
AcDbAlignedDimension
 13
6.1115856501
 23
7.7079124817
 14
7.3215856501
 24
7.7079124817
100
AcDbRotatedDimension
  0
DIMENSION
  5
26C
100
AcDbEntity
  8
0
100
AcDbDimension
 62
2
  6
CONTINUOUS
  2
*D1
 10
8.1265583409
 20
6.8529077223
 11
8.1265583409
 21
7.2927169856
 70
160
 71
2
 72
2
 41
0.9
 42
0.875
  1
<>\P[]
  3
DIMSTYLE_1
100
AcDbAlignedDimension
 13
7.3015904096
 23
7.7279077223
 14
7.3015904096
 24
6.8529077223
 50
270.0
100
AcDbRotatedDimension
  0
DIMENSION
  5
26D
100
AcDbEntity
  8
0
100
AcDbDimension
 62
2
  6
CONTINUOUS
  2
*D2
 10
7.7837932876
 20
2.9510984536
 11
8.3217932876
 21
3.317235775
 70
160
 71
1
 72
2
 41
0.9
 42
0.6
  1
<>\P[]
  3
DIMSTYLE_1
100
AcDbAlignedDimension
 13
7.3015904096
 23
2.3510984536
 14
7.2889252445
 24
2.9510984536
 50
90.0
100
AcDbRotatedDimension
  0
DIMENSION
  5
26E
100
AcDbEntity
  8
0
100
AcDbDimension
 62
2
  6
CONTINUOUS
  2
*D3
 10
8.4487681241
 20
1.9252511694
 11
8.4487681241
 21
2.4580124007
 70
160
 71
2
 72
2
 41
0.9
 42
1.0258472842
  1
<>\P[]
  3
DIMSTYLE_1
100
AcDbAlignedDimension
 13
7.2889252445
 23
2.9510984536
 14
6.8415856501
 24
1.9252511694
 50
270.0
100
AcDbRotatedDimension
  0
DIMENSION
  5
26F
100
AcDbEntity
  8
0
100
AcDbDimension
 62
2
  6
CONTINUOUS
  2
*D4
 10
11.7144751768
 20
2.2910984536
 11
11.7144751768
 21
2.622317882
 70
160
 71
2
 72
2
 41
0.9
 42
0.66
  1
<>\P[]
  3
DIMSTYLE_1
100
AcDbAlignedDimension
 13
11.1563859948
 23
2.9510984536
 14
10.8615464004
 24
2.2910984536
 50
270.0
100
AcDbRotatedDimension
  0
DIMENSION
  5
270
100
AcDbEntity
  8
0
100
AcDbDimension
 62
2
  6
CONTINUOUS
  2
*D5
 10
9.0127975251
 20
6.7676919063
 11
9.0127975251
 21
7.2984833825
 70
160
 71
2
 72
2
 41
0.9
 42
0.960215816
  1
<>\P[]
  3
DIMSTYLE_1
100
AcDbAlignedDimension
 13
7.3015904096
 23
7.7279077223
 14
6.8515856501
 24
6.7676919063
 50
270.0
100
AcDbRotatedDimension
  0
DIMENSION
  5
271
100
AcDbEntity
  8
0
100
AcDbDimension
 62
2
  6
CONTINUOUS
  2
*D6
 10
1.0357764967
 20
7.2204077223
 11
1.5737764967
 21
7.8528449041
 70
160
 71
1
 72
2
 41
0.9
 42
0.14
  1
<>\P[]
  3
DIMSTYLE_2
100
AcDbAlignedDimension
 13
1.3265856501
 23
7.3604077223
 14
1.3265856501
 24
7.2204077223
 50
270.0
100
AcDbRotatedDimension
  0
DIMENSION
  5
272
100
AcDbEntity
  8
0
100
AcDbDimension
 62
2
  6
CONTINUOUS
  2
*D7
 10
6.6525881792
 20
2.0482618867
 11
5.6015678751
 21
1.7350669713
 70
163
 71
3
 72
2
 41
0.9
 42
0.143997202
  1
%%c<>\P[]
  3
DIMSTYLE_3
100
AcDbDiametricDimension
 15
6.7805831211
 25
2.1142352832
  0
MTEXT
  5
273
100
AcDbEntity
  8
0
100
AcDbMText
 62
2
  6
CONTINUOUS
  7
STANDARD
 71
2
 72
1
 10
14.5283753228
 20
1.3770385247
 30
0.0
 11
1.0
 21
0.0
 31
0.0
 73
2
 44
0.9
  1
700-N24\PSurge suppressor
 40
0.3
 41
3.84
  0
LEADER
  5
274
100
AcDbEntity
  8
0
100
AcDbLeader
 62
2
  6
CONTINUOUS
  3
STANDARD
 71
1
 72
0
 73
0
 75
0
 40
0.12
 41
2.88
 76
3
 10
3.0756784652
 20
2.4040984536
 30
0.0
 10
3.0756784652
 20
3.5800402845
 30
0.0
 10
3.3256784652
 20
3.5800402845
 30
0.0
340
275
1001
ACAD
1000
DSTYLE
1002
{
1070
77
1070
0
1002
}
  0
MTEXT
  5
275
102
{ACAD_REACTORS
330
274
102
}
100
AcDbEntity
  8
0
100
AcDbMText
 62
2
  6
CONTINUOUS
  7
STANDARD
 71
1
 72
1
 10
3.3256784652
 20
3.6400402845
 30
0.0
 11
1.0
 21
0.0
 31
0.0
 73
2
 44
0.9
  1
Wire #18 AWG, 19 strands, red \P4.5" lenght
 40
0.12
 41
2.88
  0
LINE
  5
276
100
AcDbEntity
  8
0
100
AcDbLine
 62
7
  6
CONTINUOUS
 10
0.0
 20
0.0
 11
0.0
 21
11.0
  0
LINE
  5
277
100
AcDbEntity
  8
0
100
AcDbLine
 62
7
  6
CONTINUOUS
 10
0.0
 20
0.0
 11
17.0
 21
0.0
  0
LINE
  5
278
100
AcDbEntity
  8
0
100
AcDbLine
 62
7
  6
CONTINUOUS
 10
0.0
 20
11.0
 11
17.0
 21
11.0
  0
LINE
  5
279
100
AcDbEntity
  8
0
100
AcDbLine
 62
7
  6
CONTINUOUS
 10
17.0
 20
0.0
 11
17.0
 21
11.0
  0
LINE
  5
27A
100
AcDbEntity
  8
0
100
AcDbLine
 62
7
  6
CONTINUOUS
 10
1.3265856501
 20
2.4140984536
 11
1.3265856501
 21
2.3820984536
  0
LINE
  5
27B
100
AcDbEntity
  8
0
100
AcDbLine
 62
7
  6
CONTINUOUS
 10
1.6315856501
 20
2.4140984536
 11
1.6315856501
 21
2.3820984536
  0
LINE
  5
27C
100
AcDbEntity
  8
0
100
AcDbLine
 62
7
  6
CONTINUOUS
 10
1.7515856501
 20
2.4140984536
 11
1.7515856501
 21
2.2890984536
  0
LINE
  5
27D
100
AcDbEntity
  8
0
100
AcDbLine
 62
7
  6
CONTINUOUS
 10
2.0015856501
 20
2.4140984536
 11
2.0015856501
 21
2.2890984536
  0
LINE
  5
27E
100
AcDbEntity
  8
0
100
AcDbLine
 62
7
  6
CONTINUOUS
 10
6.8415856501
 20
1.9250984536
 11
6.8212361072
 21
1.9250984536
  0
LINE
  5
27F
100
AcDbEntity
  8
0
100
AcDbLine
 62
7
  6
CONTINUOUS
 10
6.6119351931
 20
1.9250984536
 11
6.5915856501
 21
1.9250984536
  0
LINE
  5
280
100
AcDbEntity
  8
0
100
AcDbLine
 62
7
  6
CONTINUOUS
 10
6.8415856501
 20
1.9252511694
 11
6.8212361072
 21
1.9252511694
  0
LINE
  5
281
100
AcDbEntity
  8
0
100
AcDbLine
 62
7
  6
CONTINUOUS
 10
6.6119351931
 20
1.9252511694
 11
6.5915856501
 21
1.9252511694
  0
LINE
  5
282
100
AcDbEntity
  8
0
100
AcDbLine
 62
7
  6
CONTINUOUS
 10
6.8715856501
 20
2.1350964546
 11
6.8515856501
 21
2.1350964546
  0
LINE
  5
283
100
AcDbEntity
  8
0
100
AcDbLine
 62
7
  6
CONTINUOUS
 10
6.5615856501
 20
2.1350964546
 11
6.5815856501
 21
2.1350964546
  0
LINE
  5
284
100
AcDbEntity
  8
0
100
AcDbLine
 62
7
  6
CONTINUOUS
 10
6.8715856501
 20
2.1352491704
 11
6.8515856501
 21
2.1352491704
  0
LINE
  5
285
100
AcDbEntity
  8
0
100
AcDbLine
 62
7
  6
CONTINUOUS
 10
6.5615856501
 20
2.1352491704
 11
6.5815856501
 21
2.1352491704
  0
LINE
  5
286
100
AcDbEntity
  8
0
100
AcDbLine
 62
7
  6
CONTINUOUS
 10
1.7515856501
 20
2.2890984536
 11
2.0015856501
 21
2.2890984536
  0
LINE
  5
287
100
AcDbEntity
  8
0
100
AcDbLine
 62
7
  6
CONTINUOUS
 10
7.3228948548
 20
2.2910984536
 11
7.2731568054
 21
2.2910984536
  0
LINE
  5
288
100
AcDbEntity
  8
0
100
AcDbLine
 62
7
  6
CONTINUOUS
 10
6.1600144948
 20
2.2910984536
 11
6.1102764455
 21
2.2910984536
  0
LINE
  5
289
100
AcDbEntity
  8
0
100
AcDbLine
 62
7
  6
CONTINUOUS
 10
2.0015856501
 20
2.3040984536
 11
6.1105601065
 21
2.3040984536
  0
LINE
  5
28A
100
AcDbEntity
  8
0
100
AcDbLine
 62
7
  6
CONTINUOUS
 10
6.1603549118
 20
2.3040984536
 11
6.2071262053
 21
2.3040984536
  0
LINE
  5
28B
100
AcDbEntity
  8
AXIS_PART
100
AcDbLine
 62
7
  6
CONTINUOUS
 10
6.5615856501
 20
2.350837858
 11
6.6736903664
 21
2.350837858
  0
LINE
  5
28C
100
AcDbEntity
  8
AXIS_PART
100
AcDbLine
 62
7
  6
CONTINUOUS
 10
6.7594809339
 20
2.350837858
 11
6.8715856501
 21
2.350837858
  0
LINE
  5
28D
100
AcDbEntity
  8
0
100
AcDbLine
 62
7
  6
CONTINUOUS
 10
7.3215856501
 20
2.3510984536
 11
6.1115856501
 21
2.3510984536
  0
LINE
  5
28E
100
AcDbEntity
  8
0
100
AcDbLine
 62
7
  6
CONTINUOUS
 10
1.7515856501
 20
2.3820984536
 11
1.3265856501
 21
2.3820984536
  0
LINE
  5
28F
100
AcDbEntity
  8
0
100
AcDbLine
 62
7
  6
CONTINUOUS
 10
2.0015856501
 20
2.4040984536
 11
6.1127857544
 21
2.4040984536
  0
LINE
  5
290
100
AcDbEntity
  8
0
100
AcDbLine
 62
7
  6
CONTINUOUS
 10
1.3265856501
 20
2.4140984536
 11
2.0015856501
 21
2.4140984536
  0
LINE
  5
291
100
AcDbEntity
  8
0
100
AcDbLine
 62
7
  6
CONTINUOUS
 10
6.1442460557
 20
2.9510984536
 11
7.2889252445
 21
2.9510984536
  0
LINE
  5
292
100
AcDbEntity
  8
0
100
AcDbLine
 62
7
  6
CONTINUOUS
 10
6.5915856501
 20
1.9250984536
 11
6.5815856501
 21
1.9350983584
  0
LINE
  5
293
100
AcDbEntity
  8
0
100
AcDbLine
 62
7
  6
CONTINUOUS
 10
6.5815856501
 20
1.9352510742
 11
6.5915856501
 21
1.9252511694
  0
LINE
  5
294
100
AcDbEntity
  8
0
100
AcDbLine
 62
7
  6
CONTINUOUS
 10
6.1102764455
 20
2.2910984536
 11
6.1242508152
 21
2.9315347513
  0
LINE
  5
295
100
AcDbEntity
  8
0
100
AcDbLine
 62
7
  6
CONTINUOUS
 10
6.1600144948
 20
2.2910984536
 11
6.1615856501
 21
2.3510984536
  0
LINE
  5
296
100
AcDbEntity
  8
AXIS_PART
100
AcDbLine
 62
7
  6
CONTINUOUS
 10
6.7740856501
 20
2.0069173792
 11
6.8212361072
 21
1.9252511694
  0
LINE
  5
297
100
AcDbEntity
  8
0
100
AcDbLine
 62
7
  6
CONTINUOUS
 10
6.5615856501
 20
2.1352491704
 11
6.5615856501
 21
2.257248009
  0
LINE
  5
298
100
AcDbEntity
  8
AXIS_PART
100
AcDbLine
 62
7
  6
CONTINUOUS
 10
6.5615856501
 20
2.257248009
 11
6.5615856501
 21
2.3508371372
  0
LINE
  5
299
100
AcDbEntity
  8
0
100
AcDbLine
 62
7
  6
CONTINUOUS
 10
6.5815856501
 20
1.9352510742
 11
6.5815856501
 21
2.1352491704
  0
LINE
  5
29A
100
AcDbEntity
  8
AXIS_PART
100
AcDbLine
 62
7
  6
CONTINUOUS
 10
6.6119351931
 20
1.9252511694
 11
6.6590856501
 21
2.0069173792
  0
LINE
  5
29B
100
AcDbEntity
  8
AXIS_PART
100
AcDbLine
 62
7
  6
CONTINUOUS
 10
6.6119351931
 20
1.9250984536
 11
6.6590856501
 21
2.0067646634
  0
LINE
  5
29C
100
AcDbEntity
  8
0
100
AcDbLine
 62
7
  6
CONTINUOUS
 10
6.8415856501
 20
1.9252511694
 11
6.8515856501
 21
1.9352510742
  0
LINE
  5
29D
100
AcDbEntity
  8
0
100
AcDbLine
 62
7
  6
CONTINUOUS
 10
6.8515856501
 20
1.9350983584
 11
6.8415856501
 21
1.9250984536
  0
LINE
  5
29E
100
AcDbEntity
  8
0
100
AcDbLine
 62
7
  6
CONTINUOUS
 10
6.5915856501
 20
1.9250984536
 11
6.5915856501
 21
1.9252511694
  0
LINE
  5
29F
100
AcDbEntity
  8
AXIS_PART
100
AcDbLine
 62
7
  6
CONTINUOUS
 10
6.6119351931
 20
1.9252511694
 11
6.6119351931
 21
1.9250984536
  0
LINE
  5
2A0
100
AcDbEntity
  8
AXIS_PART
100
AcDbLine
 62
7
  6
CONTINUOUS
 10
6.6590856501
 20
2.0069173792
 11
6.6590856501
 21
2.0379170841
  0
LINE
  5
2A1
100
AcDbEntity
  8
AXIS_PART
100
AcDbLine
 62
7
  6
CONTINUOUS
 10
6.6735856501
 20
2.3479397845
 11
6.6735856501
 21
2.1389985936
  0
LINE
  5
2A2
100
AcDbEntity
  8
DEF_DATUMS
100
AcDbLine
 62
7
  6
CENTER
 10
6.7165856501
 20
3.0510984536
 11
6.7165856501
 21
1.8244177774
  0
LINE
  5
2A3
100
AcDbEntity
  8
AXIS_PART
100
AcDbLine
 62
7
  6
CONTINUOUS
 10
6.7595856501
 20
2.3479397845
 11
6.7595856501
 21
2.1389985936
  0
LINE
  5
2A4
100
AcDbEntity
  8
AXIS_PART
100
AcDbLine
 62
7
  6
CONTINUOUS
 10
6.7740856501
 20
2.0379170841
 11
6.7740856501
 21
2.0069173792
  0
LINE
  5
2A5
100
AcDbEntity
  8
AXIS_PART
100
AcDbLine
 62
7
  6
CONTINUOUS
 10
6.8212361072
 20
1.9252511694
 11
6.8212361072
 21
1.9250984536
  0
LINE
  5
2A6
100
AcDbEntity
  8
0
100
AcDbLine
 62
7
  6
CONTINUOUS
 10
6.8415856501
 20
1.9252511694
 11
6.8415856501
 21
1.9250984536
  0
LINE
  5
2A7
100
AcDbEntity
  8
0
100
AcDbLine
 62
7
  6
CONTINUOUS
 10
6.8515856501
 20
2.1352491704
 11
6.8515856501
 21
1.9352510742
  0
LINE
  5
2A8
100
AcDbEntity
  8
0
100
AcDbLine
 62
7
  6
CONTINUOUS
 10
6.8715856501
 20
2.1352491704
 11
6.8715856501
 21
2.257248009
  0
LINE
  5
2A9
100
AcDbEntity
  8
AXIS_PART
100
AcDbLine
 62
7
  6
CONTINUOUS
 10
6.8715856501
 20
2.257248009
 11
6.8715856501
 21
2.3508371372
  0
LINE
  5
2AA
100
AcDbEntity
  8
0
100
AcDbLine
 62
7
  6
CONTINUOUS
 10
7.2731568054
 20
2.2910984536
 11
7.2715856501
 21
2.3510984536
  0
LINE
  5
2AB
100
AcDbEntity
  8
0
100
AcDbLine
 62
7
  6
CONTINUOUS
 10
7.3228948548
 20
2.2910984536
 11
7.3089204851
 21
2.9315347513
  0
LINE
  5
2AC
100
AcDbEntity
  8
0
100
AcDbLine
 62
7
  6
CONTINUOUS
 10
1.3265856501
 20
7.1654077223
 11
1.3265856501
 21
7.2204077223
  0
LINE
  5
2AD
100
AcDbEntity
  8
0
100
AcDbLine
 62
7
  6
CONTINUOUS
 10
1.3265856501
 20
7.3604077223
 11
1.3265856501
 21
7.4154077223
  0
LINE
  5
2AE
100
AcDbEntity
  8
0
100
AcDbLine
 62
7
  6
CONTINUOUS
 10
1.7515856501
 20
7.3979060187
 11
1.7515856501
 21
7.3354077223
  0
LINE
  5
2AF
100
AcDbEntity
  8
0
100
AcDbLine
 62
7
  6
CONTINUOUS
 10
1.7515856501
 20
7.2454077223
 11
1.7515856501
 21
7.1829094258
  0
LINE
  5
2B0
100
AcDbEntity
  8
0
100
AcDbLine
 62
7
  6
CONTINUOUS
 10
2.0015856501
 20
7.3979060187
 11
2.0015856501
 21
7.1829094258
  0
LINE
  5
2B1
100
AcDbEntity
  8
0
100
AcDbLine
 62
7
  6
CONTINUOUS
 10
1.7515856501
 20
7.2454077223
 11
1.6315856501
 21
7.1654077223
  0
LINE
  5
2B2
100
AcDbEntity
  8
0
100
AcDbLine
 62
7
  6
CONTINUOUS
 10
1.6315856501
 20
7.4154077223
 11
1.7515856501
 21
7.3354077223
  0
LINE
  5
2B3
100
AcDbEntity
  8
AXIS_PART
100
AcDbLine
 62
7
  6
CONTINUOUS
 10
6.6119351931
 20
6.7676482732
 11
6.6590856501
 21
6.7680046115
  0
LINE
  5
2B4
100
AcDbEntity
  8
0
100
AcDbLine
 62
7
  6
CONTINUOUS
 10
6.8415856501
 20
6.7676482732
 11
6.8515856501
 21
6.7676919063
  0
LINE
  5
2B5
100
AcDbEntity
  8
0
100
AcDbLine
 62
7
  6
CONTINUOUS
 10
6.8415856501
 20
6.7676482732
 11
6.8212361072
 21
6.7676482732
  0
LINE
  5
2B6
100
AcDbEntity
  8
0
100
AcDbLine
 62
7
  6
CONTINUOUS
 10
6.6119351931
 20
6.7676482732
 11
6.5915856501
 21
6.7676482732
  0
LINE
  5
2B7
100
AcDbEntity
  8
0
100
AcDbLine
 62
7
  6
CONTINUOUS
 10
6.8715856501
 20
6.7685645682
 11
6.8515856501
 21
6.7685645682
  0
LINE
  5
2B8
100
AcDbEntity
  8
0
100
AcDbLine
 62
7
  6
CONTINUOUS
 10
6.5615856501
 20
6.7685645682
 11
6.5815856501
 21
6.7685645682
  0
LINE
  5
2B9
100
AcDbEntity
  8
0
100
AcDbLine
 62
7
  6
CONTINUOUS
 10
7.3015904096
 20
6.8529077223
 11
6.1315808907
 21
6.8529077223
  0
LINE
  5
2BA
100
AcDbEntity
  8
0
100
AcDbLine
 62
7
  6
CONTINUOUS
 10
6.5815856501
 20
6.7676919063
 11
6.5915856501
 21
6.7676482732
  0
LINE
  5
2BB
100
AcDbEntity
  8
AXIS_PART
100
AcDbLine
 62
7
  6
CONTINUOUS
 10
6.7740856501
 20
6.7680046115
 11
6.8212361072
 21
6.7676482732
  0
LINE
  5
2BC
100
AcDbEntity
  8
0
100
AcDbLine
 62
7
  6
CONTINUOUS
 10
1.6315856501
 20
7.1654077223
 11
1.3265856501
 21
7.1654077223
  0
LINE
  5
2BD
100
AcDbEntity
  8
0
100
AcDbLine
 62
7
  6
CONTINUOUS
 10
1.7515856501
 20
7.1829077223
 11
2.0015856501
 21
7.1829077223
  0
LINE
  5
2BE
100
AcDbEntity
  8
0
100
AcDbLine
 62
7
  6
CONTINUOUS
 10
1.3265856501
 20
7.2204077223
 11
1.4932041228
 21
7.2204077223
  0
LINE
  5
2BF
100
AcDbEntity
  8
0
100
AcDbLine
 62
7
  6
CONTINUOUS
 10
2.0015856501
 20
7.2404077223
 11
6.1116511104
 21
7.2404077223
  0
LINE
  5
2C0
100
AcDbEntity
  8
0
100
AcDbLine
 62
7
  6
CONTINUOUS
 10
7.3210850334
 20
7.2424077223
 11
7.3224584532
 21
7.2424077223
  0
LINE
  5
2C1
100
AcDbEntity
  8
0
100
AcDbLine
 62
7
  6
CONTINUOUS
 10
1.5653841611
 20
7.2604077223
 11
1.6253841611
 21
7.2604077223
  0
LINE
  5
2C2
100
AcDbEntity
  8
DEF_DATUMS
100
AcDbLine
 62
7
  6
CENTER
 10
7.4228948548
 20
7.2904077223
 11
1.2265856501
 21
7.2904077223
  0
LINE
  5
2C3
100
AcDbEntity
  8
0
100
AcDbLine
 62
7
  6
CONTINUOUS
 10
1.6253841611
 20
7.3204077223
 11
1.5653841611
 21
7.3204077223
  0
LINE
  5
2C4
100
AcDbEntity
  8
0
100
AcDbLine
 62
7
  6
CONTINUOUS
 10
7.3210850054
 20
7.3384077223
 11
7.3224584532
 21
7.3384077223
  0
LINE
  5
2C5
100
AcDbEntity
  8
0
100
AcDbLine
 62
7
  6
CONTINUOUS
 10
2.0015856501
 20
7.3404077223
 11
6.1116511104
 21
7.3404077223
  0
LINE
  5
2C6
100
AcDbEntity
  8
0
100
AcDbLine
 62
7
  6
CONTINUOUS
 10
1.4932041228
 20
7.3604077223
 11
1.3265856501
 21
7.3604077223
  0
LINE
  5
2C7
100
AcDbEntity
  8
0
100
AcDbLine
 62
7
  6
CONTINUOUS
 10
1.7515856501
 20
7.3979077223
 11
2.0015856501
 21
7.3979077223
  0
LINE
  5
2C8
100
AcDbEntity
  8
0
100
AcDbLine
 62
7
  6
CONTINUOUS
 10
1.3265856501
 20
7.4154077223
 11
1.6315856501
 21
7.4154077223
  0
LINE
  5
2C9
100
AcDbEntity
  8
0
100
AcDbLine
 62
7
  6
CONTINUOUS
 10
7.3015904096
 20
7.7279077223
 11
6.1315808907
 21
7.7279077223
  0
LINE
  5
2CA
100
AcDbEntity
  8
0
100
AcDbLine
 62
7
  6
CONTINUOUS
 10
6.1102764455
 20
7.1804077223
 11
6.1115856501
 21
7.0764846738
  0
LINE
  5
2CB
100
AcDbEntity
  8
0
100
AcDbLine
 62
7
  6
CONTINUOUS
 10
6.1102764455
 20
7.4004077223
 11
6.1102764455
 21
7.3584077223
  0
LINE
  5
2CC
100
AcDbEntity
  8
0
100
AcDbLine
 62
7
  6
CONTINUOUS
 10
6.1102764455
 20
7.2224077223
 11
6.1102764455
 21
7.1804077223
  0
LINE
  5
2CD
100
AcDbEntity
  8
0
100
AcDbLine
 62
7
  6
CONTINUOUS
 10
6.1115856501
 20
6.8729029628
 11
6.1115856501
 21
7.0764846738
  0
LINE
  5
2CE
100
AcDbEntity
  8
0
100
AcDbLine
 62
7
  6
CONTINUOUS
 10
6.1115856501
 20
7.5043307707
 11
6.1115856501
 21
7.7079124817
  0
LINE
  5
2CF
100
AcDbEntity
  8
0
100
AcDbLine
 62
7
  6
CONTINUOUS
 10
6.1115856501
 20
7.5043307707
 11
6.1102764455
 21
7.4004077223
  0
LINE
  5
2D0
100
AcDbEntity
  8
0
100
AcDbLine
 62
7
  6
CONTINUOUS
 10
6.5615856501
 20
6.7685645682
 11
6.5615856501
 21
6.7690968919
  0
LINE
  5
2D1
100
AcDbEntity
  8
AXIS_PART
100
AcDbLine
 62
7
  6
CONTINUOUS
 10
6.5615856501
 20
6.7690968919
 11
6.5615856501
 21
6.8529077223
  0
LINE
  5
2D2
100
AcDbEntity
  8
0
100
AcDbLine
 62
7
  6
CONTINUOUS
 10
6.5815856501
 20
6.7676919063
 11
6.5815856501
 21
6.7685645682
  0
LINE
  5
2D3
100
AcDbEntity
  8
AXIS_PART
100
AcDbLine
 62
7
  6
CONTINUOUS
 10
6.6590856501
 20
6.7685177529
 11
6.6590856501
 21
6.7681398741
  0
LINE
  5
2D4
100
AcDbEntity
  8
AXIS_PART
100
AcDbLine
 62
7
  6
CONTINUOUS
 10
6.6735856501
 20
6.8399348445
 11
6.6735856501
 21
6.7685809282
  0
LINE
  5
2D5
100
AcDbEntity
  8
DEF_DATUMS
100
AcDbLine
 62
7
  6
CENTER
 10
6.7165856501
 20
6.6676482732
 11
6.7165856501
 21
7.8279116624
  0
LINE
  5
2D6
100
AcDbEntity
  8
AXIS_PART
100
AcDbLine
 62
7
  6
CONTINUOUS
 10
6.7595856501
 20
6.8399348445
 11
6.7595856501
 21
6.7685809282
  0
LINE
  5
2D7
100
AcDbEntity
  8
AXIS_PART
100
AcDbLine
 62
7
  6
CONTINUOUS
 10
6.7740856501
 20
6.7685177529
 11
6.7740856501
 21
6.7681398741
  0
LINE
  5
2D8
100
AcDbEntity
  8
0
100
AcDbLine
 62
7
  6
CONTINUOUS
 10
6.8515856501
 20
6.7685645682
 11
6.8515856501
 21
6.7676919063
  0
LINE
  5
2D9
100
AcDbEntity
  8
0
100
AcDbLine
 62
7
  6
CONTINUOUS
 10
6.8715856501
 20
6.7685645682
 11
6.8715856501
 21
6.7690968919
  0
LINE
  5
2DA
100
AcDbEntity
  8
AXIS_PART
100
AcDbLine
 62
7
  6
CONTINUOUS
 10
6.8715856501
 20
6.7690968919
 11
6.8715856501
 21
6.8529077223
  0
LINE
  5
2DB
100
AcDbEntity
  8
0
100
AcDbLine
 62
7
  6
CONTINUOUS
 10
7.3215856501
 20
7.5043307707
 11
7.3228948548
 21
7.4004077223
  0
LINE
  5
2DC
100
AcDbEntity
  8
0
100
AcDbLine
 62
7
  6
CONTINUOUS
 10
7.3215856501
 20
6.8729029628
 11
7.3215856501
 21
7.0764846738
  0
LINE
  5
2DD
100
AcDbEntity
  8
0
100
AcDbLine
 62
7
  6
CONTINUOUS
 10
7.3215856501
 20
7.5043307707
 11
7.3215856501
 21
7.7079124817
  0
LINE
  5
2DE
100
AcDbEntity
  8
0
100
AcDbLine
 62
7
  6
CONTINUOUS
 10
7.3228948548
 20
7.4004077223
 11
7.3228948548
 21
7.3584077223
  0
LINE
  5
2DF
100
AcDbEntity
  8
0
100
AcDbLine
 62
7
  6
CONTINUOUS
 10
7.3228948548
 20
7.2224077223
 11
7.3228948548
 21
7.1804077223
  0
LINE
  5
2E0
100
AcDbEntity
  8
0
100
AcDbLine
 62
7
  6
CONTINUOUS
 10
7.3228948548
 20
7.1804077223
 11
7.3215856501
 21
7.0764846738
  0
LINE
  5
2E1
100
AcDbEntity
  8
0
100
AcDbLine
 62
7
  6
CONTINUOUS
 10
10.2287869514
 20
1.9252511694
 11
10.2637866182
 21
1.9250984536
  0
LINE
  5
2E2
100
AcDbEntity
  8
0
100
AcDbLine
 62
7
  6
CONTINUOUS
 10
10.2287869514
 20
1.9252511694
 11
10.23023557
 21
2.257248009
  0
LINE
  5
2E3
100
AcDbEntity
  8
0
100
AcDbLine
 62
7
  6
CONTINUOUS
 10
10.2288305845
 20
1.9352510742
 11
10.2638302513
 21
1.9350983584
  0
LINE
  5
2E4
100
AcDbEntity
  8
0
100
AcDbLine
 62
7
  6
CONTINUOUS
 10
10.2652352369
 20
2.2570952932
 11
10.2637866182
 21
1.9250984536
  0
LINE
  5
2E5
100
AcDbEntity
  8
0
100
AcDbLine
 62
7
  6
CONTINUOUS
 10
10.3140464004
 20
2.3510984536
 11
10.3267115655
 21
2.9315347513
  0
LINE
  5
2E6
100
AcDbEntity
  8
0
100
AcDbLine
 62
7
  6
CONTINUOUS
 10
10.2297032463
 20
2.1352491704
 11
10.2647029131
 21
2.1350964546
  0
LINE
  5
2E7
100
AcDbEntity
  8
0
100
AcDbLine
 62
7
  6
CONTINUOUS
 10
10.7065464004
 20
2.2890984536
 11
10.7965464004
 21
2.2890984536
  0
LINE
  5
2E8
100
AcDbEntity
  8
0
100
AcDbLine
 62
7
  6
CONTINUOUS
 10
10.8615464004
 20
2.2910984536
 11
10.8195464004
 21
2.2910984536
  0
LINE
  5
2E9
100
AcDbEntity
  8
0
100
AcDbLine
 62
7
  6
CONTINUOUS
 10
10.6835464004
 20
2.2910984536
 11
10.6415464004
 21
2.2910984536
  0
LINE
  5
2EA
100
AcDbEntity
  8
0
100
AcDbLine
 62
7
  6
CONTINUOUS
 10
10.6415464004
 20
2.2910984536
 11
10.537623352
 21
2.3510984536
  0
LINE
  5
2EB
100
AcDbEntity
  8
0
100
AcDbLine
 62
7
  6
CONTINUOUS
 10
10.7065464004
 20
2.3115984536
 11
10.7253125525
 21
2.3115984536
  0
LINE
  5
2EC
100
AcDbEntity
  8
0
100
AcDbLine
 62
7
  6
CONTINUOUS
 10
10.7777650569
 20
2.3115984536
 11
10.7965464004
 21
2.3115984536
  0
LINE
  5
2ED
100
AcDbEntity
  8
0
100
AcDbLine
 62
7
  6
CONTINUOUS
 10
10.3140464004
 20
2.3510984536
 11
10.537623352
 21
2.3510984536
  0
LINE
  5
2EE
100
AcDbEntity
  8
0
100
AcDbLine
 62
7
  6
CONTINUOUS
 10
10.9654694489
 20
2.3510984536
 11
11.1890464004
 21
2.3510984536
  0
LINE
  5
2EF
100
AcDbEntity
  8
0
100
AcDbLine
 62
7
  6
CONTINUOUS
 10
10.7015464004
 20
2.3540984536
 11
10.7015464004
 21
2.3682932084
  0
LINE
  5
2F0
100
AcDbEntity
  8
0
100
AcDbLine
 62
7
  6
CONTINUOUS
 10
10.7035464004
 20
2.3110984536
 11
10.7035464004
 21
2.3340984536
  0
LINE
  5
2F1
100
AcDbEntity
  8
DEF_DATUMS
100
AcDbLine
 62
7
  6
CENTER
 10
10.7515464004
 20
3.0510984536
 11
10.7515464004
 21
2.1530999276
  0
LINE
  5
2F2
100
AcDbEntity
  8
0
100
AcDbLine
 62
7
  6
CONTINUOUS
 10
10.7995464004
 20
2.3110984536
 11
10.7995464004
 21
2.3340984536
  0
LINE
  5
2F3
100
AcDbEntity
  8
0
100
AcDbLine
 62
7
  6
CONTINUOUS
 10
10.8015464004
 20
2.3540984536
 11
10.8015464004
 21
2.3682918999
  0
LINE
  5
2F4
100
AcDbEntity
  8
0
100
AcDbLine
 62
7
  6
CONTINUOUS
 10
10.9654694489
 20
2.3510984536
 11
10.8615464004
 21
2.2910984536
  0
LINE
  5
2F5
100
AcDbEntity
  8
0
100
AcDbLine
 62
7
  6
CONTINUOUS
 10
11.1890464004
 20
2.3510984536
 11
11.1763812354
 21
2.9315347513
  0
LINE
  5
2F6
100
AcDbEntity
  8
0
100
AcDbLine
 62
7
  6
CONTINUOUS
 10
10.346706806
 20
2.9510984536
 11
11.1563859948
 21
2.9510984536
  0
LINE
  5
2F7
100
AcDbEntity
  8
0
100
AcDbLine
 62
7
  6
CONTINUOUS
 10
11.0578537951
 20
3.9605157753
 11
11.0967446681
 21
3.9287612755
  0
LINE
  5
2F8
100
AcDbEntity
  8
0
100
AcDbLine
 62
7
  6
CONTINUOUS
 10
11.1957396174
 20
3.8479316396
 11
11.2346304904
 21
3.8161771397
  0
LINE
  5
2F9
100
AcDbEntity
  8
0
100
AcDbLine
 62
7
  6
CONTINUOUS
 10
11.0578537951
 20
3.9789907104
 11
11.0967446681
 21
3.9472362106
  0
LINE
  5
2FA
100
AcDbEntity
  8
0
100
AcDbLine
 62
7
  6
CONTINUOUS
 10
11.1957396174
 20
3.8664065747
 11
11.2346304904
 21
3.8346520749
  0
LINE
  5
2FB
100
AcDbEntity
  8
0
100
AcDbLine
 62
7
  6
CONTINUOUS
 10
11.4785823299
 20
4.1262161186
 11
11.4149427196
 21
4.1781780274
  0
LINE
  5
2FC
100
AcDbEntity
  8
0
100
AcDbLine
 62
7
  6
CONTINUOUS
 10
11.4149427196
 20
4.2188806189
 11
11.4785823299
 21
4.1669187101
  0
LINE
  5
2FD
100
AcDbEntity
  8
0
100
AcDbLine
 62
7
  6
CONTINUOUS
 10
11.4149427196
 20
4.2318708077
 11
11.4785823299
 21
4.1799088989
  0
LINE
  5
2FE
100
AcDbEntity
  8
0
100
AcDbLine
 62
7
  6
CONTINUOUS
 10
11.0578537951
 20
3.9605157753
 11
11.0578537951
 21
3.9789907104
  0
LINE
  5
2FF
100
AcDbEntity
  8
0
100
AcDbLine
 62
7
  6
CONTINUOUS
 10
11.0967446681
 20
3.9287612755
 11
11.0967446681
 21
3.9472362106
  0
LINE
  5
300
100
AcDbEntity
  8
0
100
AcDbLine
 62
7
  6
CONTINUOUS
 10
11.5917194149
 20
4.3762094432
 11
11.6553590252
 21
4.3242475344
  0
LINE
  5
301
100
AcDbEntity
  8
0
100
AcDbLine
 62
7
  6
CONTINUOUS
 10
11.1957396174
 20
3.8479316396
 11
11.1957396174
 21
3.8664065747
  0
LINE
  5
302
100
AcDbEntity
  8
0
100
AcDbLine
 62
7
  6
CONTINUOUS
 10
11.21456172
 20
4.0249592075
 11
11.21456172
 21
4.0434341426
  0
LINE
  5
303
100
AcDbEntity
  8
0
100
AcDbLine
 62
7
  6
CONTINUOUS
 10
11.2346304904
 20
3.8161771397
 11
11.2346304904
 21
3.8346520749
  0
LINE
  5
304
100
AcDbEntity
  8
0
100
AcDbLine
 62
7
  6
CONTINUOUS
 10
11.2938849858
 20
4.0435384987
 11
11.2938849858
 21
4.0620134339
  0
LINE
  5
305
100
AcDbEntity
  8
0
100
AcDbLine
 62
7
  6
CONTINUOUS
 10
11.3363113926
 20
4.0088972262
 11
11.3363113926
 21
4.0273721613
  0
LINE
  5
306
100
AcDbEntity
  8
0
100
AcDbLine
 62
7
  6
CONTINUOUS
 10
11.3363113926
 20
4.0781797712
 11
11.3363113926
 21
4.0966547064
  0
LINE
  5
307
100
AcDbEntity
  8
0
100
AcDbLine
 62
7
  6
CONTINUOUS
 10
11.4502980587
 20
3.9922702751
 11
11.4502980587
 21
4.0107452102
  0
LINE
  5
308
100
AcDbEntity
  8
0
100
AcDbLine
 62
7
  6
CONTINUOUS
 10
11.4785823299
 20
4.1077411835
 11
11.4785823299
 21
4.1262161186
  0
LINE
  5
309
100
AcDbEntity
  8
0
100
AcDbLine
 62
7
  6
CONTINUOUS
 10
11.4502980587
 20
4.0107452102
 11
11.4785823299
 21
4.1262161186
  0
LINE
  5
30A
100
AcDbEntity
  8
0
100
AcDbLine
 62
7
  6
CONTINUOUS
 10
11.4502980587
 20
3.9922702751
 11
11.4785823299
 21
4.1077411835
  0
LINE
  5
30B
100
AcDbEntity
  8
0
100
AcDbLine
 62
7
  6
CONTINUOUS
 10
11.4149427196
 20
4.1781780274
 11
11.2735213634
 21
4.1550838457
  0
LINE
  5
30C
100
AcDbEntity
  8
0
100
AcDbLine
 62
7
  6
CONTINUOUS
 10
14.6762892896
 20
7.6565062328
 11
14.6618999898
 21
7.6447573318
  0
LINE
  5
30D
100
AcDbEntity
  8
0
100
AcDbLine
 62
7
  6
CONTINUOUS
 10
14.5139018942
 20
7.5239164984
 11
14.4995125943
 21
7.5121675973
  0
LINE
  5
30E
100
AcDbEntity
  8
0
100
AcDbLine
 62
7
  6
CONTINUOUS
 10
14.7010377914
 20
7.6363871854
 11
14.6866484916
 21
7.6246382844
  0
LINE
  5
30F
100
AcDbEntity
  8
0
100
AcDbLine
 62
7
  6
CONTINUOUS
 10
14.5386503959
 20
7.503797451
 11
14.5242610961
 21
7.4920485499
  0
LINE
  5
310
100
AcDbEntity
  8
0
100
AcDbLine
 62
7
  6
CONTINUOUS
 10
14.4789473093
 20
7.3730773262
 11
14.4930894449
 21
7.3846244171
  0
LINE
  5
311
100
AcDbEntity
  8
0
100
AcDbLine
 62
7
  6
CONTINUOUS
 10
14.7228989132
 20
7.5319381869
 11
14.7087567776
 21
7.520391096
  0
LINE
  5
312
100
AcDbEntity
  8
0
100
AcDbLine
 62
7
  6
CONTINUOUS
 10
14.503695811
 20
7.3529582788
 11
14.5178379466
 21
7.3645053697
  0
LINE
  5
313
100
AcDbEntity
  8
AXIS_PART
100
AcDbLine
 62
7
  6
CONTINUOUS
 10
14.7232753229
 20
7.4611958276
 11
14.6440793634
 21
7.3965321189
  0
LINE
  5
314
100
AcDbEntity
  8
AXIS_PART
100
AcDbLine
 62
7
  6
CONTINUOUS
 10
14.5832681802
 20
7.3468796283
 11
14.5040722207
 21
7.2822159195
  0
LINE
  5
315
100
AcDbEntity
  8
AXIS_PART
100
AcDbLine
 62
7
  6
CONTINUOUS
 10
14.7651762601
 20
7.3930693931
 11
14.6859803006
 21
7.3284056844
  0
LINE
  5
316
100
AcDbEntity
  8
AXIS_PART
100
AcDbLine
 62
7
  6
CONTINUOUS
 10
14.6251691174
 20
7.2787531938
 11
14.5459731579
 21
7.2140894851
  0
LINE
  5
317
100
AcDbEntity
  8
0
100
AcDbLine
 62
7
  6
CONTINUOUS
 10
15.061849309
 20
7.627007735
 11
14.7701679988
 21
7.3888491799
  0
LINE
  5
318
100
AcDbEntity
  8
0
100
AcDbLine
 62
7
  6
CONTINUOUS
 10
14.6788200021
 20
7.3142633009
 11
14.6301597886
 21
7.2745321089
  0
LINE
  5
319
100
AcDbEntity
  8
0
100
AcDbLine
 62
7
  6
CONTINUOUS
 10
14.5388764582
 20
7.1999990301
 11
14.2345276441
 21
6.951497425
  0
LINE
  5
31A
100
AcDbEntity
  8
0
100
AcDbLine
 62
7
  6
CONTINUOUS
 10
14.280788525
 20
6.9744183952
 11
14.4963760223
 21
7.1504461524
  0
LINE
  5
31B
100
AcDbEntity
  8
0
100
AcDbLine
 62
7
  6
CONTINUOUS
 10
14.6386929521
 20
7.266648299
 11
14.6876939032
 21
7.3066577041
  0
LINE
  5
31C
100
AcDbEntity
  8
0
100
AcDbLine
 62
7
  6
CONTINUOUS
 10
14.8181896787
 20
7.4132078472
 11
15.033777176
 21
7.5892356044
  0
LINE
  5
31D
100
AcDbEntity
  8
0
100
AcDbLine
 62
7
  6
CONTINUOUS
 10
14.3372944212
 20
6.916784366
 11
14.373395097
 21
6.9462606626
  0
LINE
  5
31E
100
AcDbEntity
  8
0
100
AcDbLine
 62
7
  6
CONTINUOUS
 10
15.02602261
 20
7.4791327392
 11
15.0759881465
 21
7.5199297308
  0
LINE
  5
31F
100
AcDbEntity
  8
0
100
AcDbLine
 62
7
  6
CONTINUOUS
 10
15.1062520946
 20
7.530009479
 11
15.0864547444
 21
7.5138448905
  0
LINE
  5
320
100
AcDbEntity
  8
0
100
AcDbLine
 62
7
  6
CONTINUOUS
 10
14.9105233855
 20
7.3701964744
 11
14.8907260352
 21
7.354031886
  0
LINE
  5
321
100
AcDbEntity
  8
0
100
AcDbLine
 62
7
  6
CONTINUOUS
 10
14.8375515178
 20
7.310614753
 11
14.8177541675
 21
7.2944501645
  0
LINE
  5
322
100
AcDbEntity
  8
0
100
AcDbLine
 62
7
  6
CONTINUOUS
 10
14.6418228087
 20
7.1508017484
 11
14.6220254584
 21
7.13463716
  0
LINE
  5
323
100
AcDbEntity
  8
0
100
AcDbLine
 62
7
  6
CONTINUOUS
 10
14.5688509409
 20
7.091220027
 11
14.5490535907
 21
7.0750554385
  0
LINE
  5
324
100
AcDbEntity
  8
0
100
AcDbLine
 62
7
  6
CONTINUOUS
 10
14.3731222318
 20
6.9314070224
 11
14.3533248815
 21
6.915242434
  0
LINE
  5
325
100
AcDbEntity
  8
0
100
AcDbLine
 62
7
  6
CONTINUOUS
 10
14.3678873296
 20
6.8887987941
 11
14.3965966921
 21
6.912240064
  0
LINE
  5
326
100
AcDbEntity
  8
0
100
AcDbLine
 62
7
  6
CONTINUOUS
 10
14.572528051
 20
7.0558884801
 11
14.665297269
 21
7.13163479
  0
LINE
  5
327
100
AcDbEntity
  8
0
100
AcDbLine
 62
7
  6
CONTINUOUS
 10
14.8412286278
 20
7.2752832061
 11
14.9339978459
 21
7.351029516
  0
LINE
  5
328
100
AcDbEntity
  8
0
100
AcDbLine
 62
7
  6
CONTINUOUS
 10
15.1099292047
 20
7.494677932
 11
15.1386385672
 21
7.5181192019
  0
LINE
  5
329
100
AcDbEntity
  8
0
100
AcDbLine
 62
7
  6
CONTINUOUS
 10
15.2340808578
 20
7.5094689094
 11
15.1987255187
 21
7.4806011823
  0
LINE
  5
32A
100
AcDbEntity
  8
0
100
AcDbLine
 62
7
  6
CONTINUOUS
 10
14.3784816525
 20
6.8108699135
 11
14.4138369916
 21
6.8397376406
  0
LINE
  5
32B
100
AcDbEntity
  8
0
100
AcDbLine
 62
7
  6
CONTINUOUS
 10
15.3084912975
 20
7.484864844
 11
15.2733211855
 21
7.4561483553
  0
LINE
  5
32C
100
AcDbEntity
  8
0
100
AcDbLine
 62
7
  6
CONTINUOUS
 10
14.4862107093
 20
6.8134705863
 11
14.4510405973
 21
6.7847540976
  0
LINE
  5
32D
100
AcDbEntity
  8
0
100
AcDbLine
 62
7
  6
CONTINUOUS
 10
11.3754140733
 20
4.2441990985
 11
11.5521907686
 21
4.388537734
  0
LINE
  5
32E
100
AcDbEntity
  8
0
100
AcDbLine
 62
7
  6
CONTINUOUS
 10
11.2735213634
 20
4.1550838457
 11
11.0578537951
 21
3.9789907104
  0
LINE
  5
32F
100
AcDbEntity
  8
0
100
AcDbLine
 62
7
  6
CONTINUOUS
 10
14.4807390821
 20
6.7605052069
 11
14.5159091941
 21
6.7892216956
  0
LINE
  5
330
100
AcDbEntity
  8
0
100
AcDbLine
 62
7
  6
CONTINUOUS
 10
15.3030196704
 20
7.4318994646
 11
15.3381897823
 21
7.4606159533
  0
LINE
  5
331
100
AcDbEntity
  8
0
100
AcDbLine
 62
7
  6
CONTINUOUS
 10
11.4149427196
 20
4.2318708077
 11
11.5917194149
 21
4.3762094432
  0
LINE
  5
332
100
AcDbEntity
  8
0
100
AcDbLine
 62
7
  6
CONTINUOUS
 10
14.4951898002
 20
6.73766324
 11
14.5304216546
 21
6.7664301415
  0
LINE
  5
333
100
AcDbEntity
  8
0
100
AcDbLine
 62
7
  6
CONTINUOUS
 10
15.3167914811
 20
7.408503168
 11
15.3520233355
 21
7.4372700695
  0
LINE
  5
334
100
AcDbEntity
  8
0
100
AcDbLine
 62
7
  6
CONTINUOUS
 10
14.4955446701
 20
6.7246741325
 11
14.5308475282
 21
6.7534990087
  0
LINE
  5
335
100
AcDbEntity
  8
0
100
AcDbLine
 62
7
  6
CONTINUOUS
 10
15.3163656075
 20
7.3948765815
 11
15.3516684656
 21
7.4237014577
  0
LINE
  5
336
100
AcDbEntity
  8
0
100
AcDbLine
 62
7
  6
CONTINUOUS
 10
11.0967446681
 20
3.9472362106
 11
11.21456172
 21
4.0434341426
  0
LINE
  5
337
100
AcDbEntity
  8
0
100
AcDbLine
 62
7
  6
CONTINUOUS
 10
11.4151396077
 20
4.2070923601
 11
11.422259915
 21
4.2129061097
  0
LINE
  5
338
100
AcDbEntity
  8
0
100
AcDbLine
 62
7
  6
CONTINUOUS
 10
11.606991385
 20
4.3637398396
 11
14.5656825482
 21
6.779518937
  0
LINE
  5
339
100
AcDbEntity
  8
0
100
AcDbLine
 62
7
  6
CONTINUOUS
 10
11.0967446681
 20
3.9287612755
 11
11.21456172
 21
4.0249592075
  0
LINE
  5
33A
100
AcDbEntity
  8
0
100
AcDbLine
 62
7
  6
CONTINUOUS
 10
11.2938849858
 20
4.0620134339
 11
11.3363113926
 21
4.0966547064
  0
LINE
  5
33B
100
AcDbEntity
  8
0
100
AcDbLine
 62
7
  6
CONTINUOUS
 10
11.2938849858
 20
4.0435384987
 11
11.3363113926
 21
4.0781797712
  0
LINE
  5
33C
100
AcDbEntity
  8
0
100
AcDbLine
 62
7
  6
CONTINUOUS
 10
11.4785823299
 20
4.1799088989
 11
11.6553590252
 21
4.3242475344
  0
LINE
  5
33D
100
AcDbEntity
  8
0
100
AcDbLine
 62
7
  6
CONTINUOUS
 10
14.599631263
 20
6.71481368
 11
14.5644270202
 21
6.6860693234
  0
LINE
  5
33E
100
AcDbEntity
  8
0
100
AcDbLine
 62
7
  6
CONTINUOUS
 10
15.3863323123
 20
7.3571571508
 11
15.4215365551
 21
7.3859015074
  0
LINE
  5
33F
100
AcDbEntity
  8
0
100
AcDbLine
 62
7
  6
CONTINUOUS
 10
14.4924723798
 20
7.5005954978
 11
14.4995125943
 21
7.5121675973
  0
LINE
  5
340
100
AcDbEntity
  8
0
100
AcDbLine
 62
7
  6
CONTINUOUS
 10
14.5242610961
 20
7.4920485499
 11
14.5172208815
 21
7.4804764504
  0
LINE
  5
341
100
AcDbEntity
  8
0
100
AcDbLine
 62
7
  6
CONTINUOUS
 10
14.6120757163
 20
6.7107014778
 11
14.5769056044
 21
6.6819849891
  0
LINE
  5
342
100
AcDbEntity
  8
0
100
AcDbLine
 62
7
  6
CONTINUOUS
 10
15.3991861926
 20
7.3533792468
 11
15.4343563046
 21
7.3820957355
  0
LINE
  5
343
100
AcDbEntity
  8
0
100
AcDbLine
 62
7
  6
CONTINUOUS
 10
11.3787377995
 20
4.0620134339
 11
11.3363113926
 21
4.0273721613
  0
LINE
  5
344
100
AcDbEntity
  8
0
100
AcDbLine
 62
7
  6
CONTINUOUS
 10
11.4783854418
 20
4.1296329225
 11
11.4976209872
 21
4.1453387958
  0
LINE
  5
345
100
AcDbEntity
  8
0
100
AcDbLine
 62
7
  6
CONTINUOUS
 10
11.681686416
 20
4.2956287013
 11
14.5660751139
 21
6.6507396409
  0
LINE
  5
346
100
AcDbEntity
  8
0
100
AcDbLine
 62
7
  6
CONTINUOUS
 10
14.6257941195
 20
6.6995003657
 11
14.6289283822
 21
6.7020594994
  0
LINE
  5
347
100
AcDbEntity
  8
0
100
AcDbLine
 62
7
  6
CONTINUOUS
 10
11.5012018479
 20
4.1392002681
 11
11.4785823299
 21
4.1207313723
  0
LINE
  5
348
100
AcDbEntity
  8
0
100
AcDbLine
 62
7
  6
CONTINUOUS
 10
14.6066040892
 20
6.6577360984
 11
14.6417742012
 21
6.6864525871
  0
LINE
  5
349
100
AcDbEntity
  8
0
100
AcDbLine
 62
7
  6
CONTINUOUS
 10
15.4288846774
 20
7.3291303561
 11
15.4640547894
 21
7.3578468448
  0
LINE
  5
34A
100
AcDbEntity
  8
0
100
AcDbLine
 62
7
  6
CONTINUOUS
 10
11.3135566693
 20
3.9626045067
 11
11.1957396174
 21
3.8664065747
  0
LINE
  5
34B
100
AcDbEntity
  8
0
100
AcDbLine
 62
7
  6
CONTINUOUS
 10
11.5181109762
 20
4.0954128927
 11
11.6948876715
 21
4.2397515282
  0
LINE
  5
34C
100
AcDbEntity
  8
0
100
AcDbLine
 62
7
  6
CONTINUOUS
 10
11.2346304904
 20
3.8346520749
 11
11.4502980587
 21
4.0107452102
  0
LINE
  5
34D
100
AcDbEntity
  8
0
100
AcDbLine
 62
7
  6
CONTINUOUS
 10
11.2346304904
 20
3.8161771397
 11
11.4502980587
 21
3.9922702751
  0
LINE
  5
34E
100
AcDbEntity
  8
0
100
AcDbLine
 62
7
  6
CONTINUOUS
 10
15.5366137342
 20
7.2624500221
 11
15.5012583951
 21
7.233582295
  0
LINE
  5
34F
100
AcDbEntity
  8
0
100
AcDbLine
 62
7
  6
CONTINUOUS
 10
14.6810145289
 20
6.5638510262
 11
14.716369868
 21
6.5927187533
  0
LINE
  5
350
100
AcDbEntity
  8
AXIS_PART
100
AcDbLine
 62
7
  6
CONTINUOUS
 10
14.6288115511
 20
7.5701797574
 11
14.6618999898
 21
7.6447573318
  0
LINE
  5
351
100
AcDbEntity
  8
0
100
AcDbLine
 62
7
  6
CONTINUOUS
 10
14.8461759522
 20
6.4982748789
 11
15.6169271899
 21
7.1275952866
  0
LINE
  5
352
100
AcDbEntity
  8
0
100
AcDbLine
 62
7
  6
CONTINUOUS
 10
15.6805677426
 20
7.1218225106
 11
14.8532460777
 21
6.4463122006
  0
LINE
  5
353
100
AcDbEntity
  8
AXIS_PART
100
AcDbLine
 62
7
  6
CONTINUOUS
 10
14.6535600529
 20
7.55006071
 11
14.6866484916
 21
7.6246382844
  0
LINE
  5
354
100
AcDbEntity
  8
0
100
AcDbLine
 62
7
  6
CONTINUOUS
 10
15.6626564943
 20
6.7867124182
 11
14.8532460777
 21
6.1258266894
  0
LINE
  5
355
100
AcDbEntity
  8
0
100
AcDbLine
 62
7
  6
CONTINUOUS
 10
15.661166891
 20
6.7830167665
 11
14.8517564743
 21
6.1221310377
  0
LINE
  5
356
100
AcDbEntity
  8
0
100
AcDbLine
 62
7
  6
CONTINUOUS
 10
14.2286893669
 20
6.9392414359
 11
14.2466061693
 21
6.6040274292
  0
LINE
  5
357
100
AcDbEntity
  8
0
100
AcDbLine
 62
7
  6
CONTINUOUS
 10
14.2345276441
 20
6.9284087391
 11
14.2524388924
 21
6.5932986467
  0
LINE
  5
358
100
AcDbEntity
  8
0
100
AcDbLine
 62
7
  6
CONTINUOUS
 10
14.5304216546
 20
6.7664301415
 11
14.5308475282
 21
6.7534990087
  0
LINE
  5
359
100
AcDbEntity
  8
0
100
AcDbLine
 62
7
  6
CONTINUOUS
 10
14.4951898002
 20
6.73766324
 11
14.4955446701
 21
6.7246741325
  0
LINE
  5
35A
100
AcDbEntity
  8
0
100
AcDbLine
 62
7
  6
CONTINUOUS
 10
14.5630720512
 20
6.6822372039
 11
14.5634269211
 21
6.6692480965
  0
LINE
  5
35B
100
AcDbEntity
  8
0
100
AcDbLine
 62
7
  6
CONTINUOUS
 10
14.4924723798
 20
7.5005954978
 11
14.4930894449
 21
7.3846244171
  0
LINE
  5
35C
100
AcDbEntity
  8
0
100
AcDbLine
 62
7
  6
CONTINUOUS
 10
14.5040722207
 20
7.2822159195
 11
14.503695811
 21
7.3529582788
  0
LINE
  5
35D
100
AcDbEntity
  8
0
100
AcDbLine
 62
7
  6
CONTINUOUS
 10
14.5172208815
 20
7.4804764504
 11
14.5178379466
 21
7.3645053697
  0
LINE
  5
35E
100
AcDbEntity
  8
AXIS_PART
100
AcDbLine
 62
7
  6
CONTINUOUS
 10
14.5722427731
 20
7.4836649377
 11
14.5723384182
 21
7.4656894201
  0
LINE
  5
35F
100
AcDbEntity
  8
AXIS_PART
100
AcDbLine
 62
7
  6
CONTINUOUS
 10
14.5832681802
 20
7.3468796283
 11
14.5829033388
 21
7.4154478435
  0
LINE
  5
360
100
AcDbEntity
  8
0
100
AcDbLine
 62
7
  6
CONTINUOUS
 10
14.8264581407
 20
6.1221310377
 11
14.3725636851
 21
6.4927370516
  0
LINE
  5
361
100
AcDbEntity
  8
0
100
AcDbLine
 62
7
  6
CONTINUOUS
 10
14.2935070946
 20
6.5572869651
 11
14.2539284957
 21
6.5896029949
  0
LINE
  5
362
100
AcDbEntity
  8
0
100
AcDbLine
 62
7
  6
CONTINUOUS
 10
14.8249685373
 20
6.1258266894
 11
14.3740819819
 21
6.4939767449
  0
LINE
  5
363
100
AcDbEntity
  8
0
100
AcDbLine
 62
7
  6
CONTINUOUS
 10
14.2950253915
 20
6.5585266584
 11
14.2524388924
 21
6.5932986467
  0
LINE
  5
364
100
AcDbEntity
  8
AXIS_PART
100
AcDbLine
 62
7
  6
CONTINUOUS
 10
14.6193308617
 20
7.4166511663
 11
14.6189660202
 21
7.4852193816
  0
LINE
  5
365
100
AcDbEntity
  8
AXIS_PART
100
AcDbLine
 62
7
  6
CONTINUOUS
 10
14.6289071962
 20
7.5522042399
 11
14.6288115511
 21
7.5701797574
  0
LINE
  5
366
100
AcDbEntity
  8
AXIS_PART
100
AcDbLine
 62
7
  6
CONTINUOUS
 10
14.6440793634
 20
7.3965321189
 11
14.643714522
 21
7.4651003342
  0
LINE
  5
367
100
AcDbEntity
  8
AXIS_PART
100
AcDbLine
 62
7
  6
CONTINUOUS
 10
14.653655698
 20
7.5320851925
 11
14.6535600529
 21
7.55006071
  0
LINE
  5
368
100
AcDbEntity
  8
0
100
AcDbLine
 62
7
  6
CONTINUOUS
 10
14.7087567776
 20
7.520391096
 11
14.7081397125
 21
7.6363621768
  0
LINE
  5
369
100
AcDbEntity
  8
0
100
AcDbLine
 62
7
  6
CONTINUOUS
 10
14.7232753229
 20
7.4611958276
 11
14.7228989132
 21
7.5319381869
  0
LINE
  5
36A
100
AcDbEntity
  8
0
100
AcDbLine
 62
7
  6
CONTINUOUS
 10
14.6592060902
 20
6.813792152
 11
14.6887531868
 21
6.8091666808
  0
LINE
  5
36B
100
AcDbEntity
  8
0
100
AcDbLine
 62
7
  6
CONTINUOUS
 10
14.4510405973
 20
6.7847540976
 11
14.3784816525
 21
6.8108699135
  0
LINE
  5
36C
100
AcDbEntity
  8
0
100
AcDbLine
 62
7
  6
CONTINUOUS
 10
14.4862107093
 20
6.8134705863
 11
14.4138369916
 21
6.8397376406
  0
LINE
  5
36D
100
AcDbEntity
  8
0
100
AcDbLine
 62
7
  6
CONTINUOUS
 10
14.8249685373
 20
6.4463122006
 11
14.8249685373
 21
6.1258266894
  0
LINE
  5
36E
100
AcDbEntity
  8
0
100
AcDbLine
 62
7
  6
CONTINUOUS
 10
14.8532460777
 20
6.4463122006
 11
14.8532460777
 21
6.1258266894
  0
LINE
  5
36F
100
AcDbEntity
  8
0
100
AcDbLine
 62
7
  6
CONTINUOUS
 10
14.2345276441
 20
6.9284087391
 11
14.3784816525
 21
6.8108699135
  0
LINE
  5
370
100
AcDbEntity
  8
0
100
AcDbLine
 62
7
  6
CONTINUOUS
 10
14.6810145289
 20
6.5638510262
 11
14.8249685373
 21
6.4463122006
  0
LINE
  5
371
100
AcDbEntity
  8
0
100
AcDbLine
 62
7
  6
CONTINUOUS
 10
14.6066040892
 20
6.6577360984
 11
14.5769056044
 21
6.6819849891
  0
LINE
  5
372
100
AcDbEntity
  8
0
100
AcDbLine
 62
7
  6
CONTINUOUS
 10
14.4807390821
 20
6.7605052069
 11
14.4510405973
 21
6.7847540976
  0
LINE
  5
373
100
AcDbEntity
  8
0
100
AcDbLine
 62
7
  6
CONTINUOUS
 10
14.3678873296
 20
6.8772556602
 11
14.4138369916
 21
6.8397376406
  0
LINE
  5
374
100
AcDbEntity
  8
0
100
AcDbLine
 62
7
  6
CONTINUOUS
 10
14.716369868
 20
6.5927187533
 11
14.8320386628
 21
6.4982748789
  0
LINE
  5
375
100
AcDbEntity
  8
0
100
AcDbLine
 62
7
  6
CONTINUOUS
 10
14.3391828805
 20
6.915242434
 11
14.2991919276
 21
6.9478951519
  0
LINE
  5
376
100
AcDbEntity
  8
0
100
AcDbLine
 62
7
  6
CONTINUOUS
 10
14.6417742012
 20
6.6864525871
 11
14.6120757163
 21
6.7107014778
  0
LINE
  5
377
100
AcDbEntity
  8
0
100
AcDbLine
 62
7
  6
CONTINUOUS
 10
14.5159091941
 20
6.7892216956
 11
14.4862107093
 21
6.8134705863
  0
LINE
  5
378
100
AcDbEntity
  8
0
100
AcDbLine
 62
7
  6
CONTINUOUS
 10
14.3965966921
 20
6.912240064
 11
14.3731222318
 21
6.9314070224
  0
LINE
  5
379
100
AcDbEntity
  8
0
100
AcDbLine
 62
7
  6
CONTINUOUS
 10
14.716369868
 20
6.5927187533
 11
14.6417742012
 21
6.6864525871
  0
LINE
  5
37A
100
AcDbEntity
  8
0
100
AcDbLine
 62
7
  6
CONTINUOUS
 10
14.6810145289
 20
6.5638510262
 11
14.6066040892
 21
6.6577360984
  0
LINE
  5
37B
100
AcDbEntity
  8
0
100
AcDbLine
 62
7
  6
CONTINUOUS
 10
14.5490535907
 20
7.0750554385
 11
14.572528051
 21
7.0558884801
  0
LINE
  5
37C
100
AcDbEntity
  8
0
100
AcDbLine
 62
7
  6
CONTINUOUS
 10
14.528859988
 20
7.1354197259
 11
14.5688509409
 21
7.1027670079
  0
LINE
  5
37D
100
AcDbEntity
  8
0
100
AcDbLine
 62
7
  6
CONTINUOUS
 10
15.3520233355
 20
7.4372700695
 11
15.3516684656
 21
7.4237014577
  0
LINE
  5
37E
100
AcDbEntity
  8
0
100
AcDbLine
 62
7
  6
CONTINUOUS
 10
15.3167914811
 20
7.408503168
 11
15.3163656075
 21
7.3948765815
  0
LINE
  5
37F
100
AcDbEntity
  8
0
100
AcDbLine
 62
7
  6
CONTINUOUS
 10
15.3846737321
 20
7.353077132
 11
15.3842478585
 21
7.3394505455
  0
LINE
  5
380
100
AcDbEntity
  8
0
100
AcDbLine
 62
7
  6
CONTINUOUS
 10
14.7081397125
 20
7.6363621768
 11
14.7010377914
 21
7.6363871854
  0
LINE
  5
381
100
AcDbEntity
  8
0
100
AcDbLine
 62
7
  6
CONTINUOUS
 10
14.6762892896
 20
7.6565062328
 11
14.6833912107
 21
7.6564812242
  0
LINE
  5
382
100
AcDbEntity
  8
0
100
AcDbLine
 62
7
  6
CONTINUOUS
 10
14.4789473093
 20
7.3730773262
 11
14.503695811
 21
7.3529582788
  0
LINE
  5
383
100
AcDbEntity
  8
0
100
AcDbLine
 62
7
  6
CONTINUOUS
 10
14.4930894449
 20
7.3846244171
 11
14.5178379466
 21
7.3645053697
  0
LINE
  5
384
100
AcDbEntity
  8
0
100
AcDbLine
 62
7
  6
CONTINUOUS
 10
14.6078834574
 20
7.13463716
 11
14.5678925045
 21
7.1672898779
  0
LINE
  5
385
100
AcDbEntity
  8
0
100
AcDbLine
 62
7
  6
CONTINUOUS
 10
14.665297269
 20
7.13163479
 11
14.6418228087
 21
7.1508017484
  0
LINE
  5
386
100
AcDbEntity
  8
0
100
AcDbLine
 62
7
  6
CONTINUOUS
 10
15.6805677426
 20
7.1218225106
 11
15.6626564943
 21
6.7867124182
  0
LINE
  5
387
100
AcDbEntity
  8
0
100
AcDbLine
 62
7
  6
CONTINUOUS
 10
15.2733211855
 20
7.4561483553
 11
15.1987255187
 21
7.4806011823
  0
LINE
  5
388
100
AcDbEntity
  8
AXIS_PART
100
AcDbLine
 62
7
  6
CONTINUOUS
 10
14.5386503959
 20
7.503797451
 11
14.5722427731
 21
7.4836649377
  0
LINE
  5
389
100
AcDbEntity
  8
AXIS_PART
100
AcDbLine
 62
7
  6
CONTINUOUS
 10
14.5139018942
 20
7.5239164984
 11
14.5474942713
 21
7.503783985
  0
LINE
  5
38A
100
AcDbEntity
  8
AXIS_PART
100
AcDbLine
 62
7
  6
CONTINUOUS
 10
14.7369902346
 20
7.2684625569
 11
14.6694208583
 21
7.3233924067
  0
LINE
  5
38B
100
AcDbEntity
  8
AXIS_PART
100
AcDbLine
 62
7
  6
CONTINUOUS
 10
14.5829033388
 20
7.4154478435
 11
14.5622364367
 21
7.4322487953
  0
LINE
  5
38C
100
AcDbEntity
  8
0
100
AcDbLine
 62
7
  6
CONTINUOUS
 10
14.5172208815
 20
7.4804764504
 11
14.4924723798
 21
7.5005954978
  0
LINE
  5
38D
100
AcDbEntity
  8
0
100
AcDbLine
 62
7
  6
CONTINUOUS
 10
14.5242610961
 20
7.4920485499
 11
14.4995125943
 21
7.5121675973
  0
LINE
  5
38E
100
AcDbEntity
  8
AXIS_PART
100
AcDbLine
 62
7
  6
CONTINUOUS
 10
14.5139018942
 20
7.5239164984
 11
14.5386503959
 21
7.503797451
  0
LINE
  5
38F
100
AcDbEntity
  8
AXIS_PART
100
AcDbLine
 62
7
  6
CONTINUOUS
 10
14.5722427731
 20
7.4836649377
 11
14.5474942713
 21
7.503783985
  0
LINE
  5
390
100
AcDbEntity
  8
AXIS_PART
100
AcDbLine
 62
7
  6
CONTINUOUS
 10
14.643714522
 20
7.4651003342
 11
14.6189660202
 21
7.4852193816
  0
LINE
  5
391
100
AcDbEntity
  8
AXIS_PART
100
AcDbLine
 62
7
  6
CONTINUOUS
 10
14.653655698
 20
7.5320851925
 11
14.6289071962
 21
7.5522042399
  0
LINE
  5
392
100
AcDbEntity
  8
AXIS_PART
100
AcDbLine
 62
7
  6
CONTINUOUS
 10
14.6535600529
 20
7.55006071
 11
14.6288115511
 21
7.5701797574
  0
LINE
  5
393
100
AcDbEntity
  8
0
100
AcDbLine
 62
7
  6
CONTINUOUS
 10
14.8177541675
 20
7.2944501645
 11
14.8412286278
 21
7.2752832061
  0
LINE
  5
394
100
AcDbEntity
  8
0
100
AcDbLine
 62
7
  6
CONTINUOUS
 10
14.8075750967
 20
7.3466375603
 11
14.8375515178
 21
7.3221617339
  0
LINE
  5
395
100
AcDbEntity
  8
0
100
AcDbLine
 62
7
  6
CONTINUOUS
 10
14.8765840342
 20
7.354031886
 11
14.8365930813
 21
7.3866846039
  0
LINE
  5
396
100
AcDbEntity
  8
0
100
AcDbLine
 62
7
  6
CONTINUOUS
 10
15.6864060198
 20
7.1326552075
 11
15.6684892174
 21
6.7974412008
  0
LINE
  5
397
100
AcDbEntity
  8
0
100
AcDbLine
 62
7
  6
CONTINUOUS
 10
15.3084912975
 20
7.484864844
 11
15.2340808578
 21
7.5094689094
  0
LINE
  5
398
100
AcDbEntity
  8
0
100
AcDbLine
 62
7
  6
CONTINUOUS
 10
14.7086336322
 20
7.5435350046
 11
14.7228989132
 21
7.5319381869
  0
LINE
  5
399
100
AcDbEntity
  8
AXIS_PART
100
AcDbLine
 62
7
  6
CONTINUOUS
 10
14.6618999898
 20
7.6447573318
 11
14.6866484916
 21
7.6246382844
  0
LINE
  5
39A
100
AcDbEntity
  8
0
100
AcDbLine
 62
7
  6
CONTINUOUS
 10
14.6762892896
 20
7.6565062328
 11
14.7010377914
 21
7.6363871854
  0
LINE
  5
39B
100
AcDbEntity
  8
0
100
AcDbLine
 62
7
  6
CONTINUOUS
 10
14.6833912107
 20
7.6564812242
 11
14.7081397125
 21
7.6363621768
  0
LINE
  5
39C
100
AcDbEntity
  8
0
100
AcDbLine
 62
7
  6
CONTINUOUS
 10
14.9339978459
 20
7.351029516
 11
14.9105233855
 21
7.3701964744
  0
LINE
  5
39D
100
AcDbEntity
  8
0
100
AcDbLine
 62
7
  6
CONTINUOUS
 10
15.0864547444
 20
7.5138448905
 11
15.1099292047
 21
7.494677932
  0
LINE
  5
39E
100
AcDbEntity
  8
0
100
AcDbLine
 62
7
  6
CONTINUOUS
 10
15.0662611417
 20
7.5742091778
 11
15.1062520946
 21
7.5415564599
  0
LINE
  5
39F
100
AcDbEntity
  8
0
100
AcDbLine
 62
7
  6
CONTINUOUS
 10
15.6169271899
 20
7.1391384206
 11
15.5012583951
 21
7.233582295
  0
LINE
  5
3A0
100
AcDbEntity
  8
0
100
AcDbLine
 62
7
  6
CONTINUOUS
 10
15.1987255187
 20
7.4806011823
 11
15.1527758567
 21
7.5181192019
  0
LINE
  5
3A1
100
AcDbEntity
  8
0
100
AcDbLine
 62
7
  6
CONTINUOUS
 10
15.4288846774
 20
7.3291303561
 11
15.3991861926
 21
7.3533792468
  0
LINE
  5
3A2
100
AcDbEntity
  8
0
100
AcDbLine
 62
7
  6
CONTINUOUS
 10
15.3030196704
 20
7.4318994646
 11
15.2733211855
 21
7.4561483553
  0
LINE
  5
3A3
100
AcDbEntity
  8
0
100
AcDbLine
 62
7
  6
CONTINUOUS
 10
15.0901268494
 20
7.627007735
 11
15.2340808578
 21
7.5094689094
  0
LINE
  5
3A4
100
AcDbEntity
  8
0
100
AcDbLine
 62
7
  6
CONTINUOUS
 10
15.5366137342
 20
7.2624500221
 11
15.6805677426
 21
7.1449111965
  0
LINE
  5
3A5
100
AcDbEntity
  8
0
100
AcDbLine
 62
7
  6
CONTINUOUS
 10
15.4640547894
 20
7.3578468448
 11
15.4343563046
 21
7.3820957355
  0
LINE
  5
3A6
100
AcDbEntity
  8
0
100
AcDbLine
 62
7
  6
CONTINUOUS
 10
15.3381897823
 20
7.4606159533
 11
15.3084912975
 21
7.484864844
  0
LINE
  5
3A7
100
AcDbEntity
  8
0
100
AcDbLine
 62
7
  6
CONTINUOUS
 10
15.5012583951
 20
7.233582295
 11
15.4288846774
 21
7.3291303561
  0
LINE
  5
3A8
100
AcDbEntity
  8
0
100
AcDbLine
 62
7
  6
CONTINUOUS
 10
15.5366137342
 20
7.2624500221
 11
15.4640547894
 21
7.3578468448
  0
LINE
  5
3A9
100
AcDbEntity
  8
0
100
AcDbLine
 62
7
  6
CONTINUOUS
 10
11.0578537951
 20
7.2969984835
 11
11.0967446681
 21
7.2745451599
  0
LINE
  5
3AA
100
AcDbEntity
  8
0
100
AcDbLine
 62
7
  6
CONTINUOUS
 10
11.1957396174
 20
7.2173912452
 11
11.2346304904
 21
7.1949379216
  0
LINE
  5
3AB
100
AcDbEntity
  8
0
100
AcDbLine
 62
7
  6
CONTINUOUS
 10
11.0578537951
 20
7.3231265674
 11
11.0578537951
 21
7.2969984835
  0
LINE
  5
3AC
100
AcDbEntity
  8
0
100
AcDbLine
 62
7
  6
CONTINUOUS
 10
11.1957396174
 20
7.2435193291
 11
11.1957396174
 21
7.2173912452
  0
LINE
  5
3AD
100
AcDbEntity
  8
0
100
AcDbLine
 62
7
  6
CONTINUOUS
 10
11.2735213634
 20
7.447640453
 11
11.2735213634
 21
7.421512369
  0
LINE
  5
3AE
100
AcDbEntity
  8
0
100
AcDbLine
 62
7
  6
CONTINUOUS
 10
11.3135566693
 20
7.3115400289
 11
11.3135566693
 21
7.285411945
  0
LINE
  5
3AF
100
AcDbEntity
  8
0
100
AcDbLine
 62
7
  6
CONTINUOUS
 10
11.3363113926
 20
7.3573366599
 11
11.3363113926
 21
7.3312085759
  0
LINE
  5
3B0
100
AcDbEntity
  8
0
100
AcDbLine
 62
7
  6
CONTINUOUS
 10
11.4149427196
 20
7.3619073149
 11
11.4785823299
 21
7.3251655126
  0
LINE
  5
3B1
100
AcDbEntity
  8
0
100
AcDbLine
 62
7
  6
CONTINUOUS
 10
11.5917194149
 20
7.4639678768
 11
11.6553590252
 21
7.4272260745
  0
LINE
  5
3B2
100
AcDbEntity
  8
0
100
AcDbLine
 62
7
  6
CONTINUOUS
 10
11.5917194149
 20
7.4823391859
 11
11.6553590252
 21
7.4455973836
  0
LINE
  5
3B3
100
AcDbEntity
  8
0
100
AcDbLine
 62
7
  6
CONTINUOUS
 10
11.600055758
 20
7.542846477
 11
11.5917194149
 21
7.5476593957
  0
LINE
  5
3B4
100
AcDbEntity
  8
0
100
AcDbLine
 62
7
  6
CONTINUOUS
 10
11.6159660138
 20
7.5520321316
 11
11.5917194149
 21
7.5660307048
  0
LINE
  5
3B5
100
AcDbEntity
  8
0
100
AcDbLine
 62
7
  6
CONTINUOUS
 10
11.4502980587
 20
7.3194518071
 11
11.456661533
 21
7.3378213033
  0
LINE
  5
3B6
100
AcDbEntity
  8
0
100
AcDbLine
 62
7
  6
CONTINUOUS
 10
11.3710246845
 20
7.4327709161
 11
11.2735213634
 21
7.421512369
  0
LINE
  5
3B7
100
AcDbEntity
  8
0
100
AcDbLine
 62
7
  6
CONTINUOUS
 10
11.375983735
 20
7.4594716134
 11
11.2735213634
 21
7.447640453
  0
LINE
  5
3B8
100
AcDbEntity
  8
0
100
AcDbLine
 62
7
  6
CONTINUOUS
 10
14.2565777735
 20
9.8435938534
 11
15.0659881902
 21
10.3109002582
  0
LINE
  5
3B9
100
AcDbEntity
  8
AXIS_PART
100
AcDbLine
 62
7
  6
CONTINUOUS
 10
14.4987916455
 20
9.5366941523
 11
14.577987605
 21
9.582417284
  0
LINE
  5
3BA
100
AcDbEntity
  8
AXIS_PART
100
AcDbLine
 62
7
  6
CONTINUOUS
 10
14.6387987881
 20
9.6175261173
 11
14.7179947476
 21
9.663249249
  0
LINE
  5
3BB
100
AcDbEntity
  8
0
100
AcDbLine
 62
7
  6
CONTINUOUS
 10
15.061849309
 20
9.8385119772
 11
14.7571207195
 21
9.6625794482
  0
LINE
  5
3BC
100
AcDbEntity
  8
0
100
AcDbLine
 62
7
  6
CONTINUOUS
 10
14.6198048228
 20
9.5833012517
 11
14.6171688537
 21
9.5817793968
  0
LINE
  5
3BD
100
AcDbEntity
  8
0
100
AcDbLine
 62
7
  6
CONTINUOUS
 10
14.4798216374
 20
9.5024831182
 11
14.2345276441
 21
9.3608646614
  0
LINE
  5
3BE
100
AcDbEntity
  8
0
100
AcDbLine
 62
7
  6
CONTINUOUS
 10
14.3108514481
 20
9.3741368364
 11
14.3732075265
 21
9.4101376022
  0
LINE
  5
3BF
100
AcDbEntity
  8
0
100
AcDbLine
 62
7
  6
CONTINUOUS
 10
14.4780984903
 20
9.470695532
 11
14.4792379684
 21
9.4713534003
  0
LINE
  5
3C0
100
AcDbEntity
  8
0
100
AcDbLine
 62
7
  6
CONTINUOUS
 10
14.8482526018
 20
9.6844009446
 11
14.8964665446
 21
9.7122368655
  0
LINE
  5
3C1
100
AcDbEntity
  8
0
100
AcDbLine
 62
7
  6
CONTINUOUS
 10
15.0013575084
 20
9.7727947952
 11
15.0574303058
 21
9.8051679607
  0
LINE
  5
3C2
100
AcDbEntity
  8
AXIS_PART
100
AcDbLine
 62
7
  6
CONTINUOUS
 10
14.5947718961
 20
9.498378004
 11
14.6190945212
 21
9.5124204703
  0
LINE
  5
3C3
100
AcDbEntity
  8
AXIS_PART
100
AcDbLine
 62
7
  6
CONTINUOUS
 10
14.7347790387
 20
9.5792099691
 11
14.8139749982
 21
9.6249331008
  0
LINE
  5
3C4
100
AcDbEntity
  8
0
100
AcDbLine
 62
7
  6
CONTINUOUS
 10
15.1062520946
 20
9.7699253754
 11
15.0864547444
 21
9.7584955391
  0
LINE
  5
3C5
100
AcDbEntity
  8
0
100
AcDbLine
 62
7
  6
CONTINUOUS
 10
14.9105233855
 20
9.6569230252
 11
14.8907260352
 21
9.6454931889
  0
LINE
  5
3C6
100
AcDbEntity
  8
0
100
AcDbLine
 62
7
  6
CONTINUOUS
 10
14.8375515178
 20
9.6147933213
 11
14.8177541675
 21
9.603363485
  0
LINE
  5
3C7
100
AcDbEntity
  8
0
100
AcDbLine
 62
7
  6
CONTINUOUS
 10
14.3731222318
 20
9.346658917
 11
14.3533248815
 21
9.3352290807
  0
LINE
  5
3C8
100
AcDbEntity
  8
0
100
AcDbLine
 62
7
  6
CONTINUOUS
 10
14.6981504114
 20
9.5211568004
 11
14.6840082758
 21
9.5129919555
  0
LINE
  5
3C9
100
AcDbEntity
  8
0
100
AcDbLine
 62
7
  6
CONTINUOUS
 10
14.4789473093
 20
9.3946017037
 11
14.4930894449
 21
9.4027665486
  0
LINE
  5
3CA
100
AcDbEntity
  8
0
100
AcDbLine
 62
7
  6
CONTINUOUS
 10
14.3678873296
 20
9.3165310188
 11
14.3965966921
 21
9.3331061316
  0
LINE
  5
3CB
100
AcDbEntity
  8
0
100
AcDbLine
 62
7
  6
CONTINUOUS
 10
14.5829477522
 20
9.4406943738
 11
14.6322380892
 21
9.4691517418
  0
LINE
  5
3CC
100
AcDbEntity
  8
0
100
AcDbLine
 62
7
  6
CONTINUOUS
 10
14.8412286278
 20
9.5898106996
 11
14.9339978459
 21
9.6433702398
  0
LINE
  5
3CD
100
AcDbEntity
  8
0
100
AcDbLine
 62
7
  6
CONTINUOUS
 10
15.1099292047
 20
9.7449427537
 11
15.1386385672
 21
9.7615178666
  0
LINE
  5
3CE
100
AcDbEntity
  8
0
100
AcDbLine
 62
7
  6
CONTINUOUS
 10
14.7228989132
 20
9.5067437649
 11
14.7087567776
 21
9.49857892
  0
LINE
  5
3CF
100
AcDbEntity
  8
0
100
AcDbLine
 62
7
  6
CONTINUOUS
 10
15.2340808578
 20
9.7554013219
 11
15.1987255187
 21
9.7349892095
  0
LINE
  5
3D0
100
AcDbEntity
  8
0
100
AcDbLine
 62
7
  6
CONTINUOUS
 10
14.3784816525
 20
9.2614282023
 11
14.4138369916
 21
9.2818403147
  0
LINE
  5
3D1
100
AcDbEntity
  8
0
100
AcDbLine
 62
7
  6
CONTINUOUS
 10
11.2735213634
 20
7.447640453
 11
11.0578537951
 21
7.3231265674
  0
LINE
  5
3D2
100
AcDbEntity
  8
0
100
AcDbLine
 62
7
  6
CONTINUOUS
 10
11.2735213634
 20
7.421512369
 11
11.0578537951
 21
7.2969984835
  0
LINE
  5
3D3
100
AcDbEntity
  8
0
100
AcDbLine
 62
7
  6
CONTINUOUS
 10
11.3836930665
 20
7.4670655169
 11
11.5604697618
 21
7.5691260788
  0
LINE
  5
3D4
100
AcDbEntity
  8
0
100
AcDbLine
 62
7
  6
CONTINUOUS
 10
11.0967446681
 20
7.2745451599
 11
11.21456172
 21
7.3425658596
  0
LINE
  5
3D5
100
AcDbEntity
  8
0
100
AcDbLine
 62
7
  6
CONTINUOUS
 10
14.6762892896
 20
9.3378196846
 11
14.6618999898
 21
9.3295121414
  0
LINE
  5
3D6
100
AcDbEntity
  8
0
100
AcDbLine
 62
7
  6
CONTINUOUS
 10
14.5139018942
 20
9.2440666658
 11
14.4995125943
 21
9.2357591227
  0
LINE
  5
3D7
100
AcDbEntity
  8
0
100
AcDbLine
 62
7
  6
CONTINUOUS
 10
11.5644213105
 20
7.5222732237
 11
14.4405444147
 21
9.1827790932
  0
LINE
  5
3D8
100
AcDbEntity
  8
0
100
AcDbLine
 62
7
  6
CONTINUOUS
 10
14.5435919408
 20
9.2422727296
 11
14.5723057427
 21
9.2588504054
  0
LINE
  5
3D9
100
AcDbEntity
  8
0
100
AcDbLine
 62
7
  6
CONTINUOUS
 10
14.7010377914
 20
9.323406649
 11
14.6866484916
 21
9.3150991059
  0
LINE
  5
3DA
100
AcDbEntity
  8
0
100
AcDbLine
 62
7
  6
CONTINUOUS
 10
14.5386503959
 20
9.2296536303
 11
14.5242610961
 21
9.2213460871
  0
LINE
  5
3DB
100
AcDbEntity
  8
0
100
AcDbLine
 62
7
  6
CONTINUOUS
 10
11.2938849858
 20
7.3557031108
 11
11.3363113926
 21
7.3801976457
  0
LINE
  5
3DC
100
AcDbEntity
  8
0
100
AcDbLine
 62
7
  6
CONTINUOUS
 10
15.3084912975
 20
9.6645198583
 11
15.2733211855
 21
9.6442146852
  0
LINE
  5
3DD
100
AcDbEntity
  8
0
100
AcDbLine
 62
7
  6
CONTINUOUS
 10
14.4862107093
 20
9.1897829664
 11
14.4510405973
 21
9.1694777933
  0
LINE
  5
3DE
100
AcDbEntity
  8
0
100
AcDbLine
 62
7
  6
CONTINUOUS
 10
11.3772693613
 20
7.3809834041
 11
11.3363113926
 21
7.3573366599
  0
LINE
  5
3DF
100
AcDbEntity
  8
0
100
AcDbLine
 62
7
  6
CONTINUOUS
 10
14.6810145289
 20
9.08676335
 11
14.6066040892
 21
9.0796644988
  0
LINE
  5
3E0
100
AcDbEntity
  8
0
100
AcDbLine
 62
7
  6
CONTINUOUS
 10
11.3787377995
 20
7.3557031108
 11
11.3363113926
 21
7.3312085759
  0
LINE
  5
3E1
100
AcDbEntity
  8
0
100
AcDbLine
 62
7
  6
CONTINUOUS
 10
14.4908293504
 20
9.151393279
 11
14.5260175458
 21
9.1717088923
  0
LINE
  5
3E2
100
AcDbEntity
  8
0
100
AcDbLine
 62
7
  6
CONTINUOUS
 10
15.3129110966
 20
9.626015371
 11
15.348099292
 21
9.6463309844
  0
LINE
  5
3E3
100
AcDbEntity
  8
0
100
AcDbLine
 62
7
  6
CONTINUOUS
 10
11.3135566693
 20
7.3115400289
 11
11.1957396174
 21
7.2435193291
  0
LINE
  5
3E4
100
AcDbEntity
  8
0
100
AcDbLine
 62
7
  6
CONTINUOUS
 10
11.3135566693
 20
7.285411945
 11
11.1957396174
 21
7.2173912452
  0
LINE
  5
3E5
100
AcDbEntity
  8
0
100
AcDbLine
 62
7
  6
CONTINUOUS
 10
15.3842478585
 20
9.6143623443
 11
15.4195507166
 21
9.6347441572
  0
LINE
  5
3E6
100
AcDbEntity
  8
0
100
AcDbLine
 62
7
  6
CONTINUOUS
 10
11.6434870697
 20
7.4524515588
 11
14.6223051877
 21
9.1722475446
  0
LINE
  5
3E7
100
AcDbEntity
  8
0
100
AcDbLine
 62
7
  6
CONTINUOUS
 10
11.2346304904
 20
7.1949379216
 11
11.4502980587
 21
7.3194518071
  0
LINE
  5
3E8
100
AcDbEntity
  8
0
100
AcDbLine
 62
7
  6
CONTINUOUS
 10
11.509831983
 20
7.3220701386
 11
11.6866086783
 21
7.4241307005
  0
LINE
  5
3E9
100
AcDbEntity
  8
0
100
AcDbLine
 62
7
  6
CONTINUOUS
 10
14.6066040892
 20
9.0796644988
 11
14.6417742012
 21
9.0999696719
  0
LINE
  5
3EA
100
AcDbEntity
  8
0
100
AcDbLine
 62
7
  6
CONTINUOUS
 10
15.4288846774
 20
9.5544013907
 11
15.4640547894
 21
9.5747065638
  0
LINE
  5
3EB
100
AcDbEntity
  8
0
100
AcDbLine
 62
7
  6
CONTINUOUS
 10
15.5366137342
 20
9.5807364697
 11
15.5012583951
 21
9.5603243573
  0
LINE
  5
3EC
100
AcDbEntity
  8
0
100
AcDbLine
 62
7
  6
CONTINUOUS
 10
14.6810145289
 20
9.08676335
 11
14.716369868
 21
9.1071754624
  0
LINE
  5
3ED
100
AcDbEntity
  8
0
100
AcDbLine
 62
7
  6
CONTINUOUS
 10
14.716369868
 20
9.1071754624
 11
14.6417742012
 21
9.0999696719
  0
LINE
  5
3EE
100
AcDbEntity
  8
0
100
AcDbLine
 62
7
  6
CONTINUOUS
 10
14.8461759522
 20
9.0403950411
 11
15.6169271899
 21
9.4853818889
  0
LINE
  5
3EF
100
AcDbEntity
  8
0
100
AcDbLine
 62
7
  6
CONTINUOUS
 10
15.6805677426
 20
9.4813000105
 11
14.8532460777
 21
9.0036526947
  0
LINE
  5
3F0
100
AcDbEntity
  8
0
100
AcDbLine
 62
7
  6
CONTINUOUS
 10
15.5366137342
 20
9.5807364697
 11
15.4640547894
 21
9.5747065638
  0
LINE
  5
3F1
100
AcDbEntity
  8
0
100
AcDbLine
 62
7
  6
CONTINUOUS
 10
15.5012583951
 20
9.5603243573
 11
15.4288846774
 21
9.5544013907
  0
LINE
  5
3F2
100
AcDbEntity
  8
0
100
AcDbLine
 62
7
  6
CONTINUOUS
 10
14.2286751146
 20
9.352953527
 11
14.2465919305
 21
9.8270286061
  0
LINE
  5
3F3
100
AcDbEntity
  8
AXIS_PART
100
AcDbLine
 62
7
  6
CONTINUOUS
 10
14.5139018942
 20
9.2440666658
 11
14.5474942713
 21
9.3298506766
  0
LINE
  5
3F4
100
AcDbEntity
  8
AXIS_PART
100
AcDbLine
 62
7
  6
CONTINUOUS
 10
14.5386503959
 20
9.2296536303
 11
14.5722427731
 21
9.315437641
  0
LINE
  5
3F5
100
AcDbEntity
  8
0
100
AcDbLine
 62
7
  6
CONTINUOUS
 10
14.6069656615
 20
9.2987723523
 11
14.6085532978
 21
9.3018737527
  0
LINE
  5
3F6
100
AcDbEntity
  8
0
100
AcDbLine
 62
7
  6
CONTINUOUS
 10
14.695980313
 20
9.2532049096
 11
14.7196434606
 21
9.2994301686
  0
LINE
  5
3F7
100
AcDbEntity
  8
0
100
AcDbLine
 62
7
  6
CONTINUOUS
 10
14.6762892896
 20
9.3378196846
 11
14.6833912107
 21
9.3500492427
  0
LINE
  5
3F8
100
AcDbEntity
  8
0
100
AcDbLine
 62
7
  6
CONTINUOUS
 10
14.7081397125
 20
9.3356362072
 11
14.7010377914
 21
9.323406649
  0
LINE
  5
3F9
100
AcDbEntity
  8
0
100
AcDbLine
 62
7
  6
CONTINUOUS
 10
14.6066040892
 20
9.0796644988
 11
14.5769056044
 21
9.0968106732
  0
LINE
  5
3FA
100
AcDbEntity
  8
0
100
AcDbLine
 62
7
  6
CONTINUOUS
 10
14.4807390821
 20
9.1523316189
 11
14.4510405973
 21
9.1694777933
  0
LINE
  5
3FB
100
AcDbEntity
  8
0
100
AcDbLine
 62
7
  6
CONTINUOUS
 10
14.6417742012
 20
9.0999696719
 11
14.6120757163
 21
9.1171158463
  0
LINE
  5
3FC
100
AcDbEntity
  8
0
100
AcDbLine
 62
7
  6
CONTINUOUS
 10
14.5159091941
 20
9.172636792
 11
14.4862107093
 21
9.1897829664
  0
LINE
  5
3FD
100
AcDbEntity
  8
0
100
AcDbLine
 62
7
  6
CONTINUOUS
 10
14.2345276441
 20
9.3445388575
 11
14.3784816525
 21
9.2614282023
  0
LINE
  5
3FE
100
AcDbEntity
  8
0
100
AcDbLine
 62
7
  6
CONTINUOUS
 10
14.6810145289
 20
9.08676335
 11
14.8249685373
 21
9.0036526947
  0
LINE
  5
3FF
100
AcDbEntity
  8
0
100
AcDbLine
 62
7
  6
CONTINUOUS
 10
14.4789473093
 20
9.3946017037
 11
14.479323719
 21
9.4939967585
  0
LINE
  5
400
100
AcDbEntity
  8
0
100
AcDbLine
 62
7
  6
CONTINUOUS
 10
14.4924723798
 20
9.2398238358
 11
14.4930894449
 21
9.4027665486
  0
LINE
  5
401
100
AcDbEntity
  8
0
100
AcDbLine
 62
7
  6
CONTINUOUS
 10
14.3678873296
 20
9.3083689717
 11
14.4138369916
 21
9.2818403147
  0
LINE
  5
402
100
AcDbEntity
  8
0
100
AcDbLine
 62
7
  6
CONTINUOUS
 10
14.716369868
 20
9.1071754624
 11
14.8320386628
 21
9.0403950411
  0
LINE
  5
403
100
AcDbEntity
  8
0
100
AcDbLine
 62
7
  6
CONTINUOUS
 10
14.4924723798
 20
9.2398238358
 11
14.4995125943
 21
9.2357591227
  0
LINE
  5
404
100
AcDbEntity
  8
0
100
AcDbLine
 62
7
  6
CONTINUOUS
 10
14.3391828805
 20
9.3352290807
 11
14.2991919276
 21
9.3583175264
  0
LINE
  5
405
100
AcDbEntity
  8
0
100
AcDbLine
 62
7
  6
CONTINUOUS
 10
14.3965966921
 20
9.3331061316
 11
14.3731222318
 21
9.346658917
  0
LINE
  5
406
100
AcDbEntity
  8
0
100
AcDbLine
 62
7
  6
CONTINUOUS
 10
14.5242610961
 20
9.2213460871
 11
14.4995125943
 21
9.2357591227
  0
LINE
  5
407
100
AcDbEntity
  8
AXIS_PART
100
AcDbLine
 62
7
  6
CONTINUOUS
 10
14.5139018942
 20
9.2440666658
 11
14.5386503959
 21
9.2296536303
  0
LINE
  5
408
100
AcDbEntity
  8
AXIS_PART
100
AcDbLine
 62
7
  6
CONTINUOUS
 10
14.5722427731
 20
9.315437641
 11
14.5474942713
 21
9.3298506766
  0
LINE
  5
409
100
AcDbEntity
  8
0
100
AcDbLine
 62
7
  6
CONTINUOUS
 10
14.4789473093
 20
9.3946017037
 11
14.4930274711
 21
9.3864016973
  0
LINE
  5
40A
100
AcDbEntity
  8
AXIS_PART
100
AcDbLine
 62
7
  6
CONTINUOUS
 10
14.5723384182
 20
9.3406937615
 11
14.5475899164
 21
9.355106797
  0
LINE
  5
40B
100
AcDbEntity
  8
0
100
AcDbLine
 62
7
  6
CONTINUOUS
 10
14.4510405973
 20
9.1694777933
 11
14.3784816525
 21
9.2614282023
  0
LINE
  5
40C
100
AcDbEntity
  8
AXIS_PART
100
AcDbLine
 62
7
  6
CONTINUOUS
 10
14.5474942713
 20
9.3298506766
 11
14.5475899164
 21
9.355106797
  0
LINE
  5
40D
100
AcDbEntity
  8
AXIS_PART
100
AcDbLine
 62
7
  6
CONTINUOUS
 10
14.5585196785
 20
9.5397198902
 11
14.5581548371
 21
9.4433795704
  0
LINE
  5
40E
100
AcDbEntity
  8
AXIS_PART
100
AcDbLine
 62
7
  6
CONTINUOUS
 10
14.5722427731
 20
9.315437641
 11
14.5723384182
 21
9.3406937615
  0
LINE
  5
40F
100
AcDbEntity
  8
AXIS_PART
100
AcDbLine
 62
7
  6
CONTINUOUS
 10
14.5832681802
 20
9.5253068547
 11
14.5829033388
 21
9.4289665349
  0
LINE
  5
410
100
AcDbEntity
  8
AXIS_PART
100
AcDbLine
 62
7
  6
CONTINUOUS
 10
14.6193308617
 20
9.5748287235
 11
14.6189660202
 21
9.4784884037
  0
LINE
  5
411
100
AcDbEntity
  8
AXIS_PART
100
AcDbLine
 62
7
  6
CONTINUOUS
 10
14.6289071962
 20
9.4020546555
 11
14.6288115511
 21
9.376798535
  0
LINE
  5
412
100
AcDbEntity
  8
0
100
AcDbLine
 62
7
  6
CONTINUOUS
 10
14.6840082758
 20
9.5129919555
 11
14.6833912107
 21
9.3500492427
  0
LINE
  5
413
100
AcDbEntity
  8
0
100
AcDbLine
 62
7
  6
CONTINUOUS
 10
14.6981504114
 20
9.5211568004
 11
14.6985268212
 21
9.6205518552
  0
LINE
  5
414
100
AcDbEntity
  8
0
100
AcDbLine
 62
7
  6
CONTINUOUS
 10
14.5630720512
 20
9.1214837282
 11
14.5633850934
 21
9.1382305158
  0
LINE
  5
415
100
AcDbEntity
  8
0
100
AcDbLine
 62
7
  6
CONTINUOUS
 10
14.5304216546
 20
9.1810158035
 11
14.5308475282
 21
9.2000412384
  0
LINE
  5
416
100
AcDbEntity
  8
0
100
AcDbLine
 62
7
  6
CONTINUOUS
 10
14.5983039056
 20
9.1418245477
 11
14.5986795824
 21
9.1586074969
  0
LINE
  5
417
100
AcDbEntity
  8
0
100
AcDbLine
 62
7
  6
CONTINUOUS
 10
14.7799856587
 20
9.6528468811
 11
14.7801446795
 21
9.6528014111
  0
LINE
  5
418
100
AcDbEntity
  8
0
100
AcDbLine
 62
7
  6
CONTINUOUS
 10
14.6078834574
 20
9.4903611348
 11
14.5943564379
 21
9.4981708475
  0
LINE
  5
419
100
AcDbEntity
  8
AXIS_PART
100
AcDbLine
 62
7
  6
CONTINUOUS
 10
14.6618999898
 20
9.3295121414
 11
14.6866484916
 21
9.3150991059
  0
LINE
  5
41A
100
AcDbEntity
  8
0
100
AcDbLine
 62
7
  6
CONTINUOUS
 10
14.6762892896
 20
9.3378196846
 11
14.7010377914
 21
9.323406649
  0
LINE
  5
41B
100
AcDbEntity
  8
0
100
AcDbLine
 62
7
  6
CONTINUOUS
 10
14.6833912107
 20
9.3500492427
 11
14.7081397125
 21
9.3356362072
  0
LINE
  5
41C
100
AcDbEntity
  8
AXIS_PART
100
AcDbLine
 62
7
  6
CONTINUOUS
 10
14.5829033388
 20
9.4289665349
 11
14.5581548371
 21
9.4433795704
  0
LINE
  5
41D
100
AcDbEntity
  8
AXIS_PART
100
AcDbLine
 62
7
  6
CONTINUOUS
 10
14.629342018
 20
9.4724456288
 11
14.6189660202
 21
9.4784884037
  0
LINE
  5
41E
100
AcDbEntity
  8
0
100
AcDbLine
 62
7
  6
CONTINUOUS
 10
14.6840082758
 20
9.5129919555
 11
14.7087567776
 21
9.49857892
  0
LINE
  5
41F
100
AcDbEntity
  8
0
100
AcDbLine
 62
7
  6
CONTINUOUS
 10
14.4862107093
 20
9.1897829664
 11
14.4138369916
 21
9.2818403147
  0
LINE
  5
420
100
AcDbEntity
  8
0
100
AcDbLine
 62
7
  6
CONTINUOUS
 10
14.7087567776
 20
9.49857892
 11
14.7081397125
 21
9.3356362072
  0
LINE
  5
421
100
AcDbEntity
  8
0
100
AcDbLine
 62
7
  6
CONTINUOUS
 10
14.7232753229
 20
9.6061388197
 11
14.7228989132
 21
9.5067437649
  0
LINE
  5
422
100
AcDbEntity
  8
0
100
AcDbLine
 62
7
  6
CONTINUOUS
 10
14.8177541675
 20
9.603363485
 11
14.8412286278
 21
9.5898106996
  0
LINE
  5
423
100
AcDbEntity
  8
0
100
AcDbLine
 62
7
  6
CONTINUOUS
 10
14.7975605649
 20
9.6460465343
 11
14.8375515178
 21
9.6229580886
  0
LINE
  5
424
100
AcDbEntity
  8
0
100
AcDbLine
 62
7
  6
CONTINUOUS
 10
14.6981504114
 20
9.5211568004
 11
14.7228989132
 21
9.5067437649
  0
LINE
  5
425
100
AcDbEntity
  8
AXIS_PART
100
AcDbLine
 62
7
  6
CONTINUOUS
 10
14.6288115511
 20
9.376798535
 11
14.6618999898
 21
9.3295121414
  0
LINE
  5
426
100
AcDbEntity
  8
0
100
AcDbLine
 62
7
  6
CONTINUOUS
 10
14.8765840342
 20
9.6454931889
 11
14.8365930813
 21
9.6685816346
  0
LINE
  5
427
100
AcDbEntity
  8
0
100
AcDbLine
 62
7
  6
CONTINUOUS
 10
14.9339978459
 20
9.6433702398
 11
14.9105233855
 21
9.6569230252
  0
LINE
  5
428
100
AcDbEntity
  8
0
100
AcDbLine
 62
7
  6
CONTINUOUS
 10
15.4288846774
 20
9.5544013907
 11
15.3991861926
 21
9.5715475651
  0
LINE
  5
429
100
AcDbEntity
  8
0
100
AcDbLine
 62
7
  6
CONTINUOUS
 10
15.3030196704
 20
9.6270685108
 11
15.2733211855
 21
9.6442146852
  0
LINE
  5
42A
100
AcDbEntity
  8
0
100
AcDbLine
 62
7
  6
CONTINUOUS
 10
15.0864547444
 20
9.7584955391
 11
15.1099292047
 21
9.7449427537
  0
LINE
  5
42B
100
AcDbEntity
  8
0
100
AcDbLine
 62
7
  6
CONTINUOUS
 10
15.0662611417
 20
9.8011785884
 11
15.1062520946
 21
9.7780901427
  0
LINE
  5
42C
100
AcDbEntity
  8
0
100
AcDbLine
 62
7
  6
CONTINUOUS
 10
15.4640547894
 20
9.5747065638
 11
15.4343563046
 21
9.5918527382
  0
LINE
  5
42D
100
AcDbEntity
  8
0
100
AcDbLine
 62
7
  6
CONTINUOUS
 10
15.3381897823
 20
9.6473736839
 11
15.3084912975
 21
9.6645198583
  0
LINE
  5
42E
100
AcDbEntity
  8
0
100
AcDbLine
 62
7
  6
CONTINUOUS
 10
15.6169271899
 20
9.493543936
 11
15.5012583951
 21
9.5603243573
  0
LINE
  5
42F
100
AcDbEntity
  8
0
100
AcDbLine
 62
7
  6
CONTINUOUS
 10
15.1987255187
 20
9.7349892095
 11
15.1527758567
 21
9.7615178666
  0
LINE
  5
430
100
AcDbEntity
  8
0
100
AcDbLine
 62
7
  6
CONTINUOUS
 10
15.0901268494
 20
9.8385119772
 11
15.2340808578
 21
9.7554013219
  0
LINE
  5
431
100
AcDbEntity
  8
0
100
AcDbLine
 62
7
  6
CONTINUOUS
 10
15.5366137342
 20
9.5807364697
 11
15.6805677426
 21
9.4976258144
  0
LINE
  5
432
100
AcDbEntity
  8
0
100
AcDbLine
 62
7
  6
CONTINUOUS
 10
15.3846737321
 20
9.5958286586
 11
15.3842478585
 21
9.6143623443
  0
LINE
  5
433
100
AcDbEntity
  8
0
100
AcDbLine
 62
7
  6
CONTINUOUS
 10
15.3520233355
 20
9.6553607338
 11
15.3516684656
 21
9.673935413
  0
LINE
  5
434
100
AcDbEntity
  8
0
100
AcDbLine
 62
7
  6
CONTINUOUS
 10
15.4199055865
 20
9.6161694781
 11
15.4195507166
 21
9.6347441572
  0
LINE
  5
435
100
AcDbEntity
  8
0
100
AcDbLine
 62
7
  6
CONTINUOUS
 10
15.2733211855
 20
9.6442146852
 11
15.1987255187
 21
9.7349892095
  0
LINE
  5
436
100
AcDbEntity
  8
0
100
AcDbLine
 62
7
  6
CONTINUOUS
 10
15.0859879682
 20
10.3109002582
 11
15.6585176132
 21
9.9803550064
  0
LINE
  5
437
100
AcDbEntity
  8
0
100
AcDbLine
 62
7
  6
CONTINUOUS
 10
15.3084912975
 20
9.6645198583
 11
15.2340808578
 21
9.7554013219
  0
LINE
  5
438
100
AcDbEntity
  8
0
100
AcDbLine
 62
7
  6
CONTINUOUS
 10
15.6864202721
 20
9.4897146799
 11
15.6685034562
 21
9.963789759
  0
CIRCLE
  5
439
100
AcDbEntity
  8
DEFAULT_3
100
AcDbCircle
 62
8
  6
PHANTOM
 10
6.7165856501
 20
2.081248585
 40
0.071998601
  0
ARC
  5
43A
100
AcDbEntity
  8
0
100
AcDbCircle
 62
7
  6
CONTINUOUS
 10
6.2071262053
 20
2.4540984536
 40
0.15
100
AcDbArc
 50
270.0
 51
316.5734431011
  0
ARC
  5
43B
100
AcDbEntity
  8
AXIS_PART
100
AcDbCircle
 62
7
  6
CONTINUOUS
 10
6.7165835164
 20
2.0812491713
 40
0.0719976565
100
AcDbArc
 50
126.6707944155
 51
217.0027565239
  0
ARC
  5
43C
100
AcDbEntity
  8
AXIS_PART
100
AcDbCircle
 62
7
  6
CONTINUOUS
 10
6.7165879144
 20
2.08124914
 40
0.0719975262
100
AcDbArc
 50
322.9972008716
 51
53.3292038479
  0
ARC
  5
43D
100
AcDbEntity
  8
0
100
AcDbCircle
 62
7
  6
CONTINUOUS
 10
6.1442460557
 20
2.9310984536
 40
0.02
100
AcDbArc
 50
90.0
 51
178.75
  0
ARC
  5
43E
100
AcDbEntity
  8
0
100
AcDbCircle
 62
7
  6
CONTINUOUS
 10
7.2889252445
 20
2.9310984536
 40
0.02
100
AcDbArc
 50
1.25
 51
90.0
  0
ARC
  5
43F
100
AcDbEntity
  8
0
100
AcDbCircle
 62
7
  6
CONTINUOUS
 10
1.5015856501
 20
7.2904077223
 40
0.0705
100
AcDbArc
 50
263.1721325185
 51
334.815663466
  0
ARC
  5
440
100
AcDbEntity
  8
0
100
AcDbCircle
 62
7
  6
CONTINUOUS
 10
1.5015856501
 20
7.2904077223
 40
0.0705
100
AcDbArc
 50
25.184336534
 51
96.8278674815
  0
ARC
  5
441
100
AcDbEntity
  8
0
100
AcDbCircle
 62
7
  6
CONTINUOUS
 10
1.6253841611
 20
7.2904077223
 40
0.03
100
AcDbArc
 50
270.0
 51
90.0
  0
ARC
  5
442
100
AcDbEntity
  8
AXIS_PART
100
AcDbCircle
 62
7
  6
CONTINUOUS
 10
10.3249153515
 20
2.412836373
 40
0.097
100
AcDbArc
 50
269.75
 51
320.4439088466
  0
ARC
  5
443
100
AcDbEntity
  8
AXIS_PART
100
AcDbCircle
 62
7
  6
CONTINUOUS
 10
10.3242346752
 20
2.256837858
 40
0.094
100
AcDbArc
 50
89.75
 51
179.75
  0
ARC
  5
444
100
AcDbEntity
  8
0
100
AcDbCircle
 62
7
  6
CONTINUOUS
 10
10.7065464004
 20
2.3515984536
 40
0.0625
100
AcDbArc
 50
253.3131979857
 51
270.0
  0
ARC
  5
445
100
AcDbEntity
  8
0
100
AcDbCircle
 62
7
  6
CONTINUOUS
 10
10.7965464004
 20
2.3515984536
 40
0.0625
100
AcDbArc
 50
270.0
 51
286.6867781841
  0
ARC
  5
446
100
AcDbEntity
  8
AXIS_PART
100
AcDbCircle
 62
7
  6
CONTINUOUS
 10
10.3249153515
 20
2.412836373
 40
0.062
100
AcDbArc
 50
269.75
 51
274.0753140844
  0
ARC
  5
447
100
AcDbEntity
  8
AXIS_PART
100
AcDbCircle
 62
7
  6
CONTINUOUS
 10
10.3242346752
 20
2.256837858
 40
0.059
100
AcDbArc
 50
89.75
 51
179.75
  0
ARC
  5
448
100
AcDbEntity
  8
0
100
AcDbCircle
 62
7
  6
CONTINUOUS
 10
10.7515464004
 20
2.3540984536
 40
0.052
100
AcDbArc
 50
337.380135052
 51
202.619864948
  0
ARC
  5
449
100
AcDbEntity
  8
0
100
AcDbCircle
 62
7
  6
CONTINUOUS
 10
10.7515464004
 20
2.3540984536
 40
0.05
100
AcDbArc
 50
170.0
 51
360.0
  0
ARC
  5
44A
100
AcDbEntity
  8
0
100
AcDbCircle
 62
7
  6
CONTINUOUS
 10
10.7965464004
 20
2.3515984536
 40
0.04
100
AcDbArc
 50
270.0
 51
274.209960727
  0
ARC
  5
44B
100
AcDbEntity
  8
0
100
AcDbCircle
 62
7
  6
CONTINUOUS
 10
10.7065464004
 20
2.3515984536
 40
0.04
100
AcDbArc
 50
265.790039273
 51
270.0
  0
ARC
  5
44C
100
AcDbEntity
  8
0
100
AcDbCircle
 62
7
  6
CONTINUOUS
 10
10.346706806
 20
2.9310984536
 40
0.02
100
AcDbArc
 50
90.0
 51
178.75
  0
ARC
  5
44D
100
AcDbEntity
  8
0
100
AcDbCircle
 62
7
  6
CONTINUOUS
 10
11.1563859948
 20
2.9310984536
 40
0.02
100
AcDbArc
 50
1.25
 51
90.0
  0
ARC
  5
44E
100
AcDbEntity
  8
0
100
AcDbCircle
 62
7
  6
CONTINUOUS
 10
10.6835464004
 20
2.3110984536
 40
0.02
100
AcDbArc
 50
270.0
 51
360.0
  0
ARC
  5
44F
100
AcDbEntity
  8
0
100
AcDbCircle
 62
7
  6
CONTINUOUS
 10
10.8195464004
 20
2.3110984536
 40
0.02
100
AcDbArc
 50
180.0
 51
270.0
  0
ARC
  5
450
100
AcDbEntity
  8
0
100
AcDbCircle
 62
7
  6
CONTINUOUS
 10
14.9339130553
 20
7.4732703076
 40
0.1664472034
100
AcDbArc
 50
34.511705991
 51
37.3319406569
  0
ARC
  5
451
100
AcDbEntity
  8
AXIS_PART
100
AcDbCircle
 62
7
  6
CONTINUOUS
 10
14.7891247321
 20
7.4347740534
 40
0.1633729003
100
AcDbArc
 50
227.5323127762
 51
230.8660083545
  0
ARC
  5
452
100
AcDbEntity
  8
0
100
AcDbCircle
 62
7
  6
CONTINUOUS
 10
14.9407344571
 20
7.4779773153
 40
0.1581594266
100
AcDbArc
 50
31.8527716011
 51
34.5067101389
  0
ARC
  5
453
100
AcDbEntity
  8
0
100
AcDbCircle
 62
7
  6
CONTINUOUS
 10
14.946027877
 20
7.4827577724
 40
0.1378548986
100
AcDbArc
 50
33.144641327
 51
34.7265603522
  0
ARC
  5
454
100
AcDbEntity
  8
0
100
AcDbCircle
 62
7
  6
CONTINUOUS
 10
14.6452373683
 20
6.8098904388
 40
0.0952147981
100
AcDbArc
 50
274.4879208687
 51
278.9425735486
  0
ARC
  5
455
100
AcDbEntity
  8
0
100
AcDbCircle
 62
7
  6
CONTINUOUS
 10
14.6452856175
 20
6.8091674716
 40
0.0944902725
100
AcDbArc
 50
271.5141837671
 51
274.4930568883
  0
ARC
  5
456
100
AcDbEntity
  8
0
100
AcDbCircle
 62
7
  6
CONTINUOUS
 10
11.4989582017
 20
4.2164073122
 40
0.0909046497
100
AcDbArc
 50
206.3449693099
 51
207.5932382668
  0
ARC
  5
457
100
AcDbEntity
  8
0
100
AcDbCircle
 62
7
  6
CONTINUOUS
 10
11.2911774839
 20
3.9889198888
 40
0.0493575094
100
AcDbArc
 50
11.4030622968
 51
23.8753164546
  0
ARC
  5
458
100
AcDbEntity
  8
0
100
AcDbCircle
 62
7
  6
CONTINUOUS
 10
14.6512589744
 20
6.7716492147
 40
0.0431469508
100
AcDbArc
 50
44.4599125398
 51
50.7526267719
  0
ARC
  5
459
100
AcDbEntity
  8
AXIS_PART
100
AcDbCircle
 62
7
  6
CONTINUOUS
 10
14.6779077958
 20
7.2412826458
 40
0.0222109254
100
AcDbArc
 50
264.9781623509
 51
267.8000901963
  0
ARC
  5
45A
100
AcDbEntity
  8
0
100
AcDbCircle
 62
7
  6
CONTINUOUS
 10
14.2665776625
 20
6.6050948825
 40
0.02
100
AcDbArc
 50
183.0594821739
 51
230.7973877408
  0
ARC
  5
45B
100
AcDbEntity
  8
0
100
AcDbCircle
 62
7
  6
CONTINUOUS
 10
14.8391073075
 20
6.1376229252
 40
0.02
100
AcDbArc
 50
230.7682717824
 51
309.2317282176
  0
ARC
  5
45C
100
AcDbEntity
  8
0
100
AcDbCircle
 62
7
  6
CONTINUOUS
 10
15.6485177242
 20
6.7985086541
 40
0.02
100
AcDbArc
 50
309.2317282176
 51
356.9438559563
  0
ARC
  5
45D
100
AcDbEntity
  8
0
100
AcDbCircle
 62
7
  6
CONTINUOUS
 10
15.6551690201
 20
6.7981563425
 40
0.0133392975
100
AcDbArc
 50
353.4302094632
 51
356.926824424
  0
ARC
  5
45E
100
AcDbEntity
  8
0
100
AcDbCircle
 62
7
  6
CONTINUOUS
 10
14.2560406968
 20
6.5921892715
 40
0.0033391825
100
AcDbArc
 50
228.1012317483
 51
230.7616334655
  0
ARC
  5
45F
100
AcDbEntity
  8
0
100
AcDbCircle
 62
7
  6
CONTINUOUS
 10
14.2665776625
 20
9.8262732812
 40
0.02
100
AcDbArc
 50
120.0021085118
 51
177.8356390319
  0
ARC
  5
460
100
AcDbEntity
  8
0
100
AcDbCircle
 62
7
  6
CONTINUOUS
 10
15.0759880792
 20
10.2935796861
 40
0.02
100
AcDbArc
 50
60.0003672319
 51
119.9996327681
  0
ARC
  5
461
100
AcDbEntity
  8
0
100
AcDbCircle
 62
7
  6
CONTINUOUS
 10
15.6485177242
 20
9.9630344342
 40
0.02
100
AcDbArc
 50
2.1640358881
 51
60.000299302
  0
LINE
  5
462
100
AcDbEntity
  8
AXIS_PART
100
AcDbLine
 62
7
  6
CONTINUOUS
 10
6.6735856501
 20
2.3479397845
 11
6.673690318
 21
2.3508377762
  0
LINE
  5
463
100
AcDbEntity
  8
AXIS_PART
100
AcDbLine
 62
7
  6
CONTINUOUS
 10
6.7594809829
 20
2.3508377742
 11
6.7595856501
 21
2.3479397845
  0
LINE
  5
464
100
AcDbEntity
  8
AXIS_PART
100
AcDbLine
 62
7
  6
CONTINUOUS
 10
6.6445858
 20
6.7683289495
 11
6.6735856501
 21
6.7685809282
  0
LINE
  5
465
100
AcDbEntity
  8
AXIS_PART
100
AcDbLine
 62
7
  6
CONTINUOUS
 10
6.7595186326
 20
6.8529076855
 11
6.7595856501
 21
6.8399348445
  0
LINE
  5
466
100
AcDbEntity
  8
AXIS_PART
100
AcDbLine
 62
7
  6
CONTINUOUS
 10
6.6735856501
 20
6.8399348445
 11
6.6736526674
 21
6.8529077089
  0
LINE
  5
467
100
AcDbEntity
  8
AXIS_PART
100
AcDbLine
 62
7
  6
CONTINUOUS
 10
6.7595856501
 20
6.7685809282
 11
6.7885855003
 21
6.7683289495
  0
LINE
  5
468
100
AcDbEntity
  8
AXIS_PART
100
AcDbLine
 62
7
  6
CONTINUOUS
 10
6.6590856501
 20
6.7681398741
 11
6.6445858
 21
6.7683289495
  0
LINE
  5
469
100
AcDbEntity
  8
AXIS_PART
100
AcDbLine
 62
7
  6
CONTINUOUS
 10
6.7885855003
 20
6.7683289495
 11
6.7740856501
 21
6.7681398741
  0
SPLINE
  5
46A
100
AcDbEntity
  8
AXIS_PART
100
AcDbSpline
 62
7
  6
CONTINUOUS
 70
0
 71
3
 72
13
 73
9
 74
0
 42
0.0000001
 43
0.0000001
 44
0.0000000001
 40
0.0
 40
0.0
 40
0.0
 40
0.0
 40
0.2290321122
 40
0.3492892347
 40
0.47319606
 40
0.6005205868
 40
0.7309912855
 40
1.0
 40
1.0
 40
1.0
 40
1.0
 10
14.6890348298
 20
7.2024871191
 30
0.0
 10
14.6877978212
 20
7.2034926472
 30
0.0
 10
14.6860280497
 20
7.2051730029
 30
0.0
 10
14.6838388011
 20
7.2076343097
 30
0.0
 10
14.6822176439
 20
7.2096501221
 30
0.0
 10
14.6806423031
 20
7.2117902568
 30
0.0
 10
14.6785783144
 20
7.2148216648
 30
0.0
 10
14.6771230135
 20
7.2171930398
 30
0.0
 10
14.6761790514
 20
7.2188100663
 30
0.0
  0
SPLINE
  5
46B
100
AcDbEntity
  8
AXIS_PART
100
AcDbSpline
 62
7
  6
CONTINUOUS
 70
0
 71
3
 72
34
 73
30
 74
0
 42
0.0000001
 43
0.0000001
 44
0.0000000001
 40
0.0
 40
0.0
 40
0.0
 40
0.0
 40
0.0253051051
 40
0.0509114322
 40
0.0771235866
 40
0.1041493958
 40
0.1321102579
 40
0.1610411079
 40
0.1909052135
 40
0.2216238151
 40
0.2530697745
 40
0.2851075026
 40
0.3502929925
 40
0.4161053734
 40
0.4490322637
 40
0.4654752249
 40
0.4818986589
 40
0.5146848564
 40
0.5310631834
 40
0.5474317233
 40
0.5801552634
 40
0.612906947
 40
0.645708095
 40
0.6785754704
 40
0.7443935615
 40
0.8100845747
 40
0.8750741678
 40
0.9386387248
 40
1.0
 40
1.0
 40
1.0
 40
1.0
 10
14.677055202
 20
7.2190880904
 30
0.0
 10
14.678047545
 20
7.219050043
 30
0.0
 10
14.680051648
 20
7.2191090633
 30
0.0
 10
14.6830472201
 20
7.2195925638
 30
0.0
 10
14.6860255005
 20
7.2204575764
 30
0.0
 10
14.6889735668
 20
7.2216824056
 30
0.0
 10
14.6918785283
 20
7.2232440966
 30
0.0
 10
14.6947242518
 20
7.2251207408
 30
0.0
 10
14.6974909102
 20
7.2272913469
 30
0.0
 10
14.7001561973
 20
7.2297334436
 30
0.0
 10
14.7026912169
 20
7.232429106
 30
0.0
 10
14.705873342
 20
7.2363545099
 30
0.0
 10
14.7093324989
 20
7.2417690878
 30
0.0
 10
14.7118742977
 20
7.2477178227
 30
0.0
 10
14.713055171
 20
7.2520878597
 30
0.0
 10
14.7135463566
 20
7.2546237305
 30
0.0
 10
14.713909931
 20
7.2571752624
 30
0.0
 10
14.7140807741
 20
7.2597486518
 30
0.0
 10
14.714058756
 20
7.2623211772
 30
0.0
 10
14.7139080202
 20
7.264887041
 30
0.0
 10
14.713482031
 20
7.2680760037
 30
0.0
 10
14.7126156317
 20
7.271839485
 30
0.0
 10
14.711419234
 20
7.2755168678
 30
0.0
 10
14.7094336009
 20
7.2802845155
 30
0.0
 10
14.7063103561
 20
7.2859523384
 30
0.0
 10
14.7018294937
 20
7.2922435477
 30
0.0
 10
14.6968533573
 20
7.298029911
 30
0.0
 10
14.6915786795
 20
7.3033034527
 30
0.0
 10
14.6878827226
 20
7.3065312517
 30
0.0
 10
14.6860141972
 20
7.3080502508
 30
0.0
  0
SPLINE
  5
46C
100
AcDbEntity
  8
AXIS_PART
100
AcDbSpline
 62
7
  6
CONTINUOUS
 70
0
 71
3
 72
11
 73
7
 74
0
 42
0.0000001
 43
0.0000001
 44
0.0000000001
 40
0.0
 40
0.0
 40
0.0
 40
0.0
 40
0.244208419
 40
0.4908154549
 40
0.7420537702
 40
1.0
 40
1.0
 40
1.0
 40
1.0
 10
14.6585481516
 20
7.5296285037
 30
0.0
 10
14.6581998596
 20
7.5299114655
 30
0.0
 10
14.6574677265
 20
7.530441832
 30
0.0
 10
14.6562806659
 20
7.5311179321
 30
0.0
 10
14.6550058155
 20
7.5316749646
 30
0.0
 10
14.6541132955
 20
7.5319616087
 30
0.0
 10
14.653655698
 20
7.5320851925
 30
0.0
  0
SPLINE
  5
46D
100
AcDbEntity
  8
AXIS_PART
100
AcDbSpline
 62
7
  6
CONTINUOUS
 70
0
 71
3
 72
21
 73
17
 74
0
 42
0.0000001
 43
0.0000001
 44
0.0000000001
 40
0.0
 40
0.0
 40
0.0
 40
0.0
 40
0.0532885664
 40
0.1090631322
 40
0.167103013
 40
0.2271712559
 40
0.289003864
 40
0.352323545
 40
0.4168409545
 40
0.4822517604
 40
0.5482470837
 40
0.6145085755
 40
0.746526843
 40
0.875856571
 40
0.9387506047
 40
1.0
 40
1.0
 40
1.0
 40
1.0
 10
14.8296697341
 20
7.304133308
 30
0.0
 10
14.8290429046
 20
7.3060051433
 30
0.0
 10
14.8276610134
 20
7.3098035286
 30
0.0
 10
14.8252812873
 20
7.3155198866
 30
0.0
 10
14.8225588876
 20
7.3213595043
 30
0.0
 10
14.8195082072
 20
7.3272878456
 30
0.0
 10
14.816147775
 20
7.3332714788
 30
0.0
 10
14.8124964789
 20
7.339275845
 30
0.0
 10
14.8085748814
 20
7.3452662451
 30
0.0
 10
14.8044062817
 20
7.351208868
 30
0.0
 10
14.8000136184
 20
7.3570688348
 30
0.0
 10
14.7939007947
 20
7.3647171792
 30
0.0
 10
14.7858889122
 20
7.3738433692
 30
0.0
 10
14.7774065668
 20
7.382360257
 30
0.0
 10
14.7704503887
 20
7.38866928
 30
0.0
 10
14.7669368057
 20
7.3916381752
 30
0.0
 10
14.7651762601
 20
7.3930693931
 30
0.0
  0
SPLINE
  5
46E
100
AcDbEntity
  8
AXIS_PART
100
AcDbSpline
 62
7
  6
CONTINUOUS
 70
0
 71
3
 72
23
 73
19
 74
0
 42
0.0000001
 43
0.0000001
 44
0.0000000001
 40
0.0
 40
0.0
 40
0.0
 40
0.0
 40
0.0655653516
 40
0.1332817561
 40
0.2025255294
 40
0.2727325233
 40
0.3433698898
 40
0.4138858748
 40
0.4837075242
 40
0.5522740394
 40
0.6190550884
 40
0.683539215
 40
0.74525858
 40
0.8037793944
 40
0.8587496038
 40
0.90990054
 40
0.9570259739
 40
1.0
 40
1.0
 40
1.0
 40
1.0
 10
14.7651762601
 20
7.3930693931
 30
0.0
 10
14.7637868215
 20
7.3941989234
 30
0.0
 10
14.7610186086
 20
7.3965649479
 30
0.0
 10
14.7569768965
 20
7.4003432814
 30
0.0
 10
14.7530108155
 20
7.4043807061
 30
0.0
 10
14.7491600117
 20
7.4086362747
 30
0.0
 10
14.7454608539
 20
7.4130696342
 30
0.0
 10
14.7419482664
 20
7.4176389531
 30
0.0
 10
14.7386552694
 20
7.4222999704
 30
0.0
 10
14.7356148503
 20
7.427008667
 30
0.0
 10
14.7328547102
 20
7.4317188968
 30
0.0
 10
14.7304025773
 20
7.4363865474
 30
0.0
 10
14.7282804364
 20
7.4409659618
 30
0.0
 10
14.7265089739
 20
7.4454140094
 30
0.0
 10
14.7251047342
 20
7.4496889429
 30
0.0
 10
14.7240807745
 20
7.4537513296
 30
0.0
 10
14.7234480277
 20
7.4575613619
 30
0.0
 10
14.7232815676
 20
7.4600221931
 30
0.0
 10
14.7232753229
 20
7.4611958276
 30
0.0
  0
SPLINE
  5
46F
100
AcDbEntity
  8
AXIS_PART
100
AcDbSpline
 62
7
  6
CONTINUOUS
 70
0
 71
3
 72
23
 73
19
 74
0
 42
0.0000001
 43
0.0000001
 44
0.0000000001
 40
0.0
 40
0.0
 40
0.0
 40
0.0
 40
0.0707817947
 40
0.142261356
 40
0.2139684194
 40
0.285503158
 40
0.3564802808
 40
0.4265019681
 40
0.4951747027
 40
0.5621274056
 40
0.6270051281
 40
0.689480957
 40
0.7492512952
 40
0.8060519083
 40
0.8596572009
 40
0.9099127944
 40
0.9567138403
 40
1.0
 40
1.0
 40
1.0
 40
1.0
 10
14.6694208583
 20
7.3233924067
 30
0.0
 10
14.6676419724
 20
7.3252141286
 30
0.0
 10
14.6641308634
 20
7.3289387854
 30
0.0
 10
14.6590432454
 20
7.3347163945
 30
0.0
 10
14.6541358111
 20
7.3406830385
 30
0.0
 10
14.6494422212
 20
7.3467965259
 30
0.0
 10
14.6449940813
 20
7.3530165158
 30
0.0
 10
14.6408204733
 20
7.3593007998
 30
0.0
 10
14.6369505231
 20
7.3656073665
 30
0.0
 10
14.6334095694
 20
7.3718929623
 30
0.0
 10
14.6302221324
 20
7.3781157403
 30
0.0
 10
14.6274087722
 20
7.3842333263
 30
0.0
 10
14.6249892881
 20
7.3902050356
 30
0.0
 10
14.6229787371
 20
7.3959901785
 30
0.0
 10
14.6213913458
 20
7.401550815
 30
0.0
 10
14.6202368574
 20
7.4068505081
 30
0.0
 10
14.6195244899
 20
7.4118532098
 30
0.0
 10
14.6193391467
 20
7.4150940792
 30
0.0
 10
14.6193308617
 20
7.4166511663
 30
0.0
  0
LINE
  5
470
100
AcDbEntity
  8
AXIS_PART
100
AcDbLine
 62
7
  6
CONTINUOUS
 10
14.6788195481
 20
7.3142606892
 11
14.6694208583
 21
7.3233924067
  0
SPLINE
  5
471
100
AcDbEntity
  8
AXIS_PART
100
AcDbSpline
 62
7
  6
CONTINUOUS
 70
0
 71
3
 72
22
 73
18
 74
0
 42
0.0000001
 43
0.0000001
 44
0.0000000001
 40
0.0
 40
0.0
 40
0.0
 40
0.0
 40
0.0821810599
 40
0.1631444606
 40
0.3195980872
 40
0.394395665
 40
0.4664905584
 40
0.5356022288
 40
0.6014705616
 40
0.6638771525
 40
0.7226694285
 40
0.7777407553
 40
0.8290678808
 40
0.8767155936
 40
0.9208511833
 40
0.9617913062
 40
1.0
 40
1.0
 40
1.0
 40
1.0
 10
14.6189660202
 20
7.4852193816
 30
0.0
 10
14.619990661
 20
7.486686413
 30
0.0
 10
14.6219782981
 20
7.4896316365
 30
0.0
 10
14.6256800309
 20
7.4955253157
 30
0.0
 10
14.6290043055
 20
7.5014634826
 30
0.0
 10
14.6318950289
 20
7.5074040368
 30
0.0
 10
14.6337797252
 20
7.5117148263
 30
0.0
 10
14.6354036519
 20
7.5159228099
 30
0.0
 10
14.6367574436
 20
7.5200039117
 30
0.0
 10
14.6378324759
 20
7.5239349551
 30
0.0
 10
14.6386238223
 20
7.5276932513
 30
0.0
 10
14.6391260185
 20
7.5312580756
 30
0.0
 10
14.6393362443
 20
7.5346095586
 30
0.0
 10
14.6392534559
 20
7.5377293572
 30
0.0
 10
14.6388752071
 20
7.5406007314
 30
0.0
 10
14.6382038639
 20
7.5432071443
 30
0.0
 10
14.6375406489
 20
7.5448063387
 30
0.0
 10
14.637159568
 20
7.5455458964
 30
0.0
  0
SPLINE
  5
472
100
AcDbEntity
  8
AXIS_PART
100
AcDbSpline
 62
7
  6
CONTINUOUS
 70
0
 71
3
 72
23
 73
19
 74
0
 42
0.0000001
 43
0.0000001
 44
0.0000000001
 40
0.0
 40
0.0
 40
0.0
 40
0.0
 40
0.0880000929
 40
0.1733345457
 40
0.2556323074
 40
0.3345745145
 40
0.409952271
 40
0.4815927196
 40
0.5493621108
 40
0.6131779908
 40
0.6730080153
 40
0.7289118906
 40
0.781055617
 40
0.8297079932
 40
0.8752862566
 40
0.918359427
 40
0.9596450996
 40
1.0
 40
1.0
 40
1.0
 40
1.0
 10
14.5723384182
 20
7.4656894201
 30
0.0
 10
14.5716444271
 20
7.4643599196
 30
0.0
 10
14.5703216019
 20
7.4617178237
 30
0.0
 10
14.5685125232
 20
7.4577535513
 30
0.0
 10
14.5669163976
 20
7.4538650251
 30
0.0
 10
14.5655426511
 20
7.4500723412
 30
0.0
 10
14.5643970855
 20
7.4463942441
 30
0.0
 10
14.5634850524
 20
7.4428474235
 30
0.0
 10
14.5628110431
 20
7.4394481427
 30
0.0
 10
14.5623774119
 20
7.4362124988
 30
0.0
 10
14.5621871957
 20
7.4331555164
 30
0.0
 10
14.5622419363
 20
7.4302914296
 30
0.0
 10
14.5625409441
 20
7.4276332367
 30
0.0
 10
14.5630851192
 20
7.425193101
 30
0.0
 10
14.5638733177
 20
7.4229828061
 30
0.0
 10
14.5649033641
 20
7.4210133035
 30
0.0
 10
14.5661730565
 20
7.4192978773
 30
0.0
 10
14.5671799057
 20
7.4183264199
 30
0.0
 10
14.5677135116
 20
7.4178925348
 30
0.0
  0
SPLINE
  5
473
100
AcDbEntity
  8
AXIS_PART
100
AcDbSpline
 62
7
  6
CONTINUOUS
 70
0
 71
3
 72
23
 73
19
 74
0
 42
0.0000001
 43
0.0000001
 44
0.0000000001
 40
0.0
 40
0.0
 40
0.0
 40
0.0
 40
0.0655835602
 40
0.133293328
 40
0.2025209111
 40
0.2727251438
 40
0.3433705388
 40
0.4138885257
 40
0.4837074943
 40
0.5522747323
 40
0.61905348
 40
0.6835395361
 40
0.7452574478
 40
0.803784916
 40
0.8587524231
 40
0.9098934707
 40
0.9570150995
 40
1.0
 40
1.0
 40
1.0
 40
1.0
 10
14.6251691174
 20
7.2787531938
 30
0.0
 10
14.623779292
 20
7.2798830385
 30
0.0
 10
14.6210107276
 20
7.2822491415
 30
0.0
 10
14.6169691617
 20
7.2860274622
 30
0.0
 10
14.6130037584
 20
7.2900645709
 30
0.0
 10
14.6091530296
 20
7.294319813
 30
0.0
 10
14.6054538912
 20
7.2987534435
 30
0.0
 10
14.6019407148
 20
7.303322579
 30
0.0
 10
14.5986483422
 20
7.3079840382
 30
0.0
 10
14.5956074194
 20
7.3126922782
 30
0.0
 10
14.5928478708
 20
7.3174028655
 30
0.0
 10
14.5903950333
 20
7.3220700939
 30
0.0
 10
14.5882733783
 20
7.3266499602
 30
0.0
 10
14.586501703
 20
7.3310979933
 30
0.0
 10
14.5850977061
 20
7.3353728399
 30
0.0
 10
14.5840735377
 20
7.339434702
 30
0.0
 10
14.5834406373
 20
7.3432446534
 30
0.0
 10
14.5832744266
 20
7.345705696
 30
0.0
 10
14.5832681802
 20
7.3468796283
 30
0.0
  0
SPLINE
  5
474
100
AcDbEntity
  8
AXIS_PART
100
AcDbSpline
 62
7
  6
CONTINUOUS
 70
0
 71
3
 72
15
 73
11
 74
0
 42
0.0000001
 43
0.0000001
 44
0.0000000001
 40
0.0
 40
0.0
 40
0.0
 40
0.0
 40
0.119114999
 40
0.242175964
 40
0.3680534604
 40
0.4956515753
 40
0.6238048663
 40
0.7513383424
 40
0.8771293254
 40
1.0
 40
1.0
 40
1.0
 40
1.0
 10
14.6251691174
 20
7.2787531938
 30
0.0
 10
14.6276062254
 20
7.2767719712
 30
0.0
 10
14.6324566383
 20
7.2726138541
 30
0.0
 10
14.6395191369
 20
7.2659529954
 30
0.0
 10
14.6464306576
 20
7.2588206092
 30
0.0
 10
14.6531156696
 20
7.2512951944
 30
0.0
 10
14.6595014483
 20
7.243457892
 30
0.0
 10
14.6655191822
 20
7.2353938181
 30
0.0
 10
14.6711024946
 20
7.2271911892
 30
0.0
 10
14.6745456868
 20
7.2216080534
 30
0.0
 10
14.6761790514
 20
7.2188100663
 30
0.0
  0
SPLINE
  5
475
100
AcDbEntity
  8
AXIS_PART
100
AcDbSpline
 62
7
  6
CONTINUOUS
 70
0
 71
3
 72
23
 73
19
 74
0
 42
0.0000001
 43
0.0000001
 44
0.0000000001
 40
0.0
 40
0.0
 40
0.0
 40
0.0
 40
0.0655653516
 40
0.1332817561
 40
0.2025255294
 40
0.2727325233
 40
0.3433698898
 40
0.4138858748
 40
0.4837075242
 40
0.5522740394
 40
0.6190550884
 40
0.683539215
 40
0.74525858
 40
0.8037793944
 40
0.8587496038
 40
0.90990054
 40
0.9570259739
 40
1.0
 40
1.0
 40
1.0
 40
1.0
 10
14.5459731579
 20
7.2140894851
 30
0.0
 10
14.5445837193
 20
7.2152190153
 30
0.0
 10
14.5418155064
 20
7.2175850399
 30
0.0
 10
14.5377737943
 20
7.2213633734
 30
0.0
 10
14.5338077133
 20
7.2254007981
 30
0.0
 10
14.5299569095
 20
7.2296563667
 30
0.0
 10
14.5262577518
 20
7.2340897261
 30
0.0
 10
14.5227451643
 20
7.2386590451
 30
0.0
 10
14.5194521672
 20
7.2433200624
 30
0.0
 10
14.5164117481
 20
7.2480287589
 30
0.0
 10
14.513651608
 20
7.2527389888
 30
0.0
 10
14.5111994751
 20
7.2574066394
 30
0.0
 10
14.5090773343
 20
7.2619860538
 30
0.0
 10
14.5073058717
 20
7.2664341014
 30
0.0
 10
14.505901632
 20
7.2707090348
 30
0.0
 10
14.5048776723
 20
7.2747714215
 30
0.0
 10
14.5042449255
 20
7.2785814539
 30
0.0
 10
14.5040784655
 20
7.2810422851
 30
0.0
 10
14.5040722207
 20
7.2822159195
 30
0.0
  0
SPLINE
  5
476
100
AcDbEntity
  8
AXIS_PART
100
AcDbSpline
 62
7
  6
CONTINUOUS
 70
0
 71
3
 72
14
 73
10
 74
0
 42
0.0000001
 43
0.0000001
 44
0.0000000001
 40
0.0
 40
0.0
 40
0.0
 40
0.0
 40
0.1089389467
 40
0.2196526964
 40
0.3338309366
 40
0.4529757534
 40
0.7106685845
 40
0.8511743156
 40
1.0
 40
1.0
 40
1.0
 40
1.0
 10
14.5677135116
 20
7.4178925348
 30
0.0
 10
14.5681612642
 20
7.4175284587
 30
0.0
 10
14.5691176593
 20
7.4168576719
 30
0.0
 10
14.5706980627
 20
7.4160524859
 30
0.0
 10
14.5724224267
 20
7.415446692
 30
0.0
 10
14.5749693285
 20
7.414892136
 30
0.0
 10
14.5777300655
 20
7.4147772949
 30
0.0
 10
14.580617856
 20
7.4150330343
 30
0.0
 10
14.5821310505
 20
7.4152893406
 30
0.0
 10
14.5829033388
 20
7.4154478435
 30
0.0
  0
SPLINE
  5
477
100
AcDbEntity
  8
AXIS_PART
100
AcDbSpline
 62
7
  6
CONTINUOUS
 70
0
 71
3
 72
27
 73
23
 74
0
 42
0.0000001
 43
0.0000001
 44
0.0000000001
 40
0.0
 40
0.0
 40
0.0
 40
0.0
 40
0.0869155252
 40
0.1722698975
 40
0.2554288543
 40
0.3358868432
 40
0.4132142404
 40
0.4870098117
 40
0.5569062261
 40
0.6225975328
 40
0.683876216
 40
0.7406187796
 40
0.7928427985
 40
0.8407083063
 40
0.8631278626
 40
0.8846178955
 40
0.9052618718
 40
0.9251609319
 40
0.9444380037
 40
0.963232798
 40
0.9816986498
 40
1.0
 40
1.0
 40
1.0
 40
1.0
 10
14.643714522
 20
7.4651003342
 30
0.0
 10
14.644888086
 20
7.4667805868
 30
0.0
 10
14.6471532623
 20
7.4701539448
 30
0.0
 10
14.6503206244
 20
7.4752787208
 30
0.0
 10
14.6532071609
 20
7.4803928583
 30
0.0
 10
14.6557902215
 20
7.4854553233
 30
0.0
 10
14.658050746
 20
7.4904284893
 30
0.0
 10
14.6599722436
 20
7.4952755686
 30
0.0
 10
14.661540866
 20
7.4999600003
 30
0.0
 10
14.6627436041
 20
7.5044470777
 30
0.0
 10
14.6635730797
 20
7.508703022
 30
0.0
 10
14.6640212619
 20
7.5126975836
 30
0.0
 10
14.6640859627
 20
7.5164012887
 30
0.0
 10
14.6638113271
 20
7.519285348
 30
0.0
 10
14.6633858936
 20
7.5214088863
 30
0.0
 10
14.6629780842
 20
7.5228770071
 30
0.0
 10
14.6624751541
 20
7.5242523814
 30
0.0
 10
14.6618774245
 20
7.5255321488
 30
0.0
 10
14.6611860432
 20
7.5267137851
 30
0.0
 10
14.6604022012
 20
7.5277949994
 30
0.0
 10
14.659527343
 20
7.5287733141
 30
0.0
 10
14.6588830996
 20
7.529356383
 30
0.0
 10
14.6585481516
 20
7.5296285037
 30
0.0
  0
SPLINE
  5
478
100
AcDbEntity
  8
AXIS_PART
100
AcDbSpline
 62
7
  6
CONTINUOUS
 70
0
 71
3
 72
20
 73
16
 74
0
 42
0.0000001
 43
0.0000001
 44
0.0000000001
 40
0.0
 40
0.0
 40
0.0
 40
0.0
 40
0.115247163
 40
0.1753816859
 40
0.2369099313
 40
0.2996177421
 40
0.3632792412
 40
0.4925158653
 40
0.5576250414
 40
0.6227299255
 40
0.6875863958
 40
0.7519638618
 40
0.878364052
 40
0.9399114326
 40
1.0
 40
1.0
 40
1.0
 40
1.0
 10
14.6062869641
 20
7.1359545027
 30
0.0
 10
14.6047578166
 20
7.1394596399
 30
0.0
 10
14.6022265113
 20
7.1447067472
 30
0.0
 10
14.5984722142
 20
7.1516143449
 30
0.0
 10
14.5953842259
 20
7.1568969136
 30
0.0
 10
14.5920772338
 20
7.1621835893
 30
0.0
 10
14.587372676
 20
7.169241916
 30
0.0
 10
14.5823239818
 20
7.1761626507
 30
0.0
 10
14.5769698691
 20
7.1829054011
 30
0.0
 10
14.5728078384
 20
7.1878639108
 30
0.0
 10
14.568527572
 20
7.1926883493
 30
0.0
 10
14.5627242672
 20
7.1988760629
 30
0.0
 10
14.5567415207
 20
7.2047416132
 30
0.0
 10
14.5506098611
 20
7.210233247
 30
0.0
 10
14.5475203022
 20
7.2128317496
 30
0.0
 10
14.5459731579
 20
7.2140894851
 30
0.0
  0
SPLINE
  5
479
100
AcDbEntity
  8
AXIS_PART
100
AcDbSpline
 62
7
  6
CONTINUOUS
 70
0
 71
3
 72
23
 73
19
 74
0
 42
0.0000001
 43
0.0000001
 44
0.0000000001
 40
0.0
 40
0.0
 40
0.0
 40
0.0
 40
0.0655835602
 40
0.133293328
 40
0.2025209111
 40
0.2727251438
 40
0.3433705388
 40
0.4138885257
 40
0.4837074943
 40
0.5522747323
 40
0.61905348
 40
0.6835395361
 40
0.7452574478
 40
0.803784916
 40
0.8587524231
 40
0.9098934707
 40
0.9570150995
 40
1.0
 40
1.0
 40
1.0
 40
1.0
 10
14.6859803006
 20
7.3284056844
 30
0.0
 10
14.6845904752
 20
7.3295355291
 30
0.0
 10
14.6818219108
 20
7.3319016321
 30
0.0
 10
14.6777803449
 20
7.3356799528
 30
0.0
 10
14.6738149416
 20
7.3397170615
 30
0.0
 10
14.6699642128
 20
7.3439723036
 30
0.0
 10
14.6662650743
 20
7.3484059342
 30
0.0
 10
14.662751898
 20
7.3529750696
 30
0.0
 10
14.6594595254
 20
7.3576365288
 30
0.0
 10
14.6564186026
 20
7.3623447689
 30
0.0
 10
14.653659054
 20
7.3670553561
 30
0.0
 10
14.6512062165
 20
7.3717225845
 30
0.0
 10
14.6490845615
 20
7.3763024508
 30
0.0
 10
14.6473128861
 20
7.3807504839
 30
0.0
 10
14.6459088892
 20
7.3850253305
 30
0.0
 10
14.6448847208
 20
7.3890871926
 30
0.0
 10
14.6442518205
 20
7.392897144
 30
0.0
 10
14.6440856097
 20
7.3953581866
 30
0.0
 10
14.6440793634
 20
7.3965321189
 30
0.0
  0
SPLINE
  5
47A
100
AcDbEntity
  8
AXIS_PART
100
AcDbSpline
 62
7
  6
CONTINUOUS
 70
0
 71
3
 72
15
 73
11
 74
0
 42
0.0000001
 43
0.0000001
 44
0.0000000001
 40
0.0
 40
0.0
 40
0.0
 40
0.0
 40
0.119114999
 40
0.242175964
 40
0.3680534604
 40
0.4956515753
 40
0.6238048663
 40
0.7513383424
 40
0.8771293254
 40
1.0
 40
1.0
 40
1.0
 40
1.0
 10
14.6859803006
 20
7.3284056844
 30
0.0
 10
14.6884174086
 20
7.3264244618
 30
0.0
 10
14.6932678215
 20
7.3222663447
 30
0.0
 10
14.7003303201
 20
7.315605486
 30
0.0
 10
14.7072418408
 20
7.3084730998
 30
0.0
 10
14.7139268528
 20
7.3009476851
 30
0.0
 10
14.7203126315
 20
7.2931103827
 30
0.0
 10
14.7263303654
 20
7.2850463087
 30
0.0
 10
14.7319136778
 20
7.2768436798
 30
0.0
 10
14.7353568699
 20
7.271260544
 30
0.0
 10
14.7369902346
 20
7.2684625569
 30
0.0
  0
SPLINE
  5
47B
100
AcDbEntity
  8
AXIS_PART
100
AcDbSpline
 62
7
  6
CONTINUOUS
 70
0
 71
3
 72
39
 73
35
 74
0
 42
0.0000001
 43
0.0000001
 44
0.0000000001
 40
0.0
 40
0.0
 40
0.0
 40
0.0
 40
0.0333877981
 40
0.0666587332
 40
0.0998577931
 40
0.1330586638
 40
0.1663392409
 40
0.1997829353
 40
0.2334684289
 40
0.2674614414
 40
0.3018049668
 40
0.336506124
 40
0.3715379084
 40
0.406829568
 40
0.4422780791
 40
0.4777480354
 40
0.5130799731
 40
0.5481048956
 40
0.5826416259
 40
0.6165137192
 40
0.6495498879
 40
0.6816007912
 40
0.7125460328
 40
0.742299985
 40
0.7708244226
 40
0.798140652
 40
0.8243552705
 40
0.8496504488
 40
0.874299412
 40
0.8986371537
 40
0.9230387424
 40
0.947870541
 40
0.9734465016
 40
1.0
 40
1.0
 40
1.0
 40
1.0
 10
14.7369902346
 20
7.2684625569
 30
0.0
 10
14.7375924447
 20
7.2674309586
 30
0.0
 10
14.7387288693
 20
7.2653319061
 30
0.0
 10
14.7402068837
 20
7.2620760543
 30
0.0
 10
14.7414332461
 20
7.258723777
 30
0.0
 10
14.7423867104
 20
7.2552831642
 30
0.0
 10
14.7430491491
 20
7.2517656005
 30
0.0
 10
14.7434047375
 20
7.2481862318
 30
0.0
 10
14.7434430587
 20
7.2445638868
 30
0.0
 10
14.7431601899
 20
7.2409201542
 30
0.0
 10
14.7425572286
 20
7.237278929
 30
0.0
 10
14.7416445712
 20
7.2336647159
 30
0.0
 10
14.7404359015
 20
7.2301030086
 30
0.0
 10
14.7389535718
 20
7.2266175815
 30
0.0
 10
14.7372203433
 20
7.2232326611
 30
0.0
 10
14.7352652166
 20
7.2199695928
 30
0.0
 10
14.7331158861
 20
7.2168497033
 30
0.0
 10
14.7308016403
 20
7.2138926342
 30
0.0
 10
14.7283511109
 20
7.211116896
 30
0.0
 10
14.7257910366
 20
7.2085412542
 30
0.0
 10
14.7231470737
 20
7.2061833082
 30
0.0
 10
14.720442139
 20
7.2040609959
 30
0.0
 10
14.7176969175
 20
7.2021920125
 30
0.0
 10
14.7149299454
 20
7.200593826
 30
0.0
 10
14.7121574206
 20
7.1992843461
 30
0.0
 10
14.709393587
 20
7.1982807459
 30
0.0
 10
14.7066511785
 20
7.1975987236
 30
0.0
 10
14.7039414307
 20
7.1972544425
 30
0.0
 10
14.7012761221
 20
7.1972570778
 30
0.0
 10
14.6986668764
 20
7.1976159909
 30
0.0
 10
14.6961246123
 20
7.1983282605
 30
0.0
 10
14.6936587414
 20
7.1993876086
 30
0.0
 10
14.6912747228
 20
7.2007770226
 30
0.0
 10
14.6897720041
 20
7.2018878917
 30
0.0
 10
14.6890348298
 20
7.2024871191
 30
0.0
  0
SPLINE
  5
47C
100
AcDbEntity
  8
0
100
AcDbSpline
 62
7
  6
CONTINUOUS
 70
0
 71
3
 72
23
 73
19
 74
0
 42
0.0000001
 43
0.0000001
 44
0.0000000001
 40
0.0
 40
0.0
 40
0.0
 40
0.0
 40
0.0401706297
 40
0.0812842844
 40
0.1242000804
 40
0.1696449309
 40
0.2181962484
 40
0.2702618886
 40
0.3261197
 40
0.3859376739
 40
0.4497621697
 40
0.5175676852
 40
0.5892766046
 40
0.6647540263
 40
0.7438314235
 40
0.8262925804
 40
0.9118053683
 40
1.0
 40
1.0
 40
1.0
 40
1.0
 10
11.3896444698
 20
4.2267706228
 30
0.0
 10
11.3899369958
 20
4.2270095513
 30
0.0
 10
11.3905716226
 20
4.2274431525
 30
0.0
 10
11.3916366579
 20
4.2279338549
 30
0.0
 10
11.3928120917
 20
4.2282674669
 30
0.0
 10
11.3940910836
 20
4.2284432025
 30
0.0
 10
11.395467333
 20
4.2284609866
 30
0.0
 10
11.3969344765
 20
4.2283225421
 30
0.0
 10
11.3984860789
 20
4.2280288432
 30
0.0
 10
11.400115002
 20
4.2275810837
 30
0.0
 10
11.4018139503
 20
4.2269822873
 30
0.0
 10
11.4035750294
 20
4.2262352256
 30
0.0
 10
11.4053899371
 20
4.2253429685
 30
0.0
 10
11.4072506321
 20
4.2243099375
 30
0.0
 10
11.4091485784
 20
4.2231406453
 30
0.0
 10
11.4110742502
 20
4.2218404676
 30
0.0
 10
11.4130178204
 20
4.2204169373
 30
0.0
 10
11.4143003923
 20
4.2194050808
 30
0.0
 10
11.4149427196
 20
4.2188806189
 30
0.0
  0
SPLINE
  5
47D
100
AcDbEntity
  8
0
100
AcDbSpline
 62
7
  6
CONTINUOUS
 70
0
 71
3
 72
18
 73
14
 74
0
 42
0.0000001
 43
0.0000001
 44
0.0000000001
 40
0.0
 40
0.0
 40
0.0
 40
0.0
 40
0.1166951659
 40
0.2370346913
 40
0.3606316386
 40
0.4235078124
 40
0.4869449901
 40
0.5508326201
 40
0.6150529739
 40
0.7439044173
 40
0.8725508788
 40
0.9365202053
 40
1.0
 40
1.0
 40
1.0
 40
1.0
 10
11.21456172
 20
4.0249592075
 30
0.0
 10
11.216865742
 20
4.0273522311
 30
0.0
 10
11.2219506274
 20
4.0318371915
 30
0.0
 10
11.2306099647
 20
4.0374138713
 30
0.0
 10
11.2385765443
 20
4.0410679295
 30
0.0
 10
11.2453125161
 20
4.0433691637
 30
0.0
 10
11.2505452444
 20
4.0447758129
 30
0.0
 10
11.2558959339
 20
4.0458454771
 30
0.0
 10
11.2631507438
 20
4.0468128677
 30
0.0
 10
11.2723291655
 20
4.0471491685
 30
0.0
 10
11.2814693552
 20
4.0463173823
 30
0.0
 10
11.2886354797
 20
4.0449564585
 30
0.0
 10
11.2921514074
 20
4.0440485369
 30
0.0
 10
11.2938849858
 20
4.0435384987
 30
0.0
  0
SPLINE
  5
47E
100
AcDbEntity
  8
0
100
AcDbSpline
 62
7
  6
CONTINUOUS
 70
0
 71
3
 72
24
 73
20
 74
0
 42
0.0000001
 43
0.0000001
 44
0.0000000001
 40
0.0
 40
0.0
 40
0.0
 40
0.0
 40
0.1227355296
 40
0.1543134308
 40
0.1861687313
 40
0.2505900946
 40
0.3157775295
 40
0.3814161862
 40
0.4143135254
 40
0.4472006357
 40
0.5127590029
 40
0.5777929619
 40
0.6420029144
 40
0.7051330873
 40
0.7669774046
 40
0.8274001325
 40
0.8863424537
 40
0.9438343509
 40
1.0
 40
1.0
 40
1.0
 40
1.0
 10
11.3363113926
 20
4.0781797712
 30
0.0
 10
11.3380894634
 20
4.0796315706
 30
0.0
 10
11.3405618486
 20
4.0811881358
 30
0.0
 10
11.3437313066
 20
4.0826289816
 30
0.0
 10
11.3459594899
 20
4.0835004063
 30
0.0
 10
11.3488564412
 20
4.0843737553
 30
0.0
 10
11.3524485464
 20
4.0850634857
 30
0.0
 10
11.3555042798
 20
4.0853346238
 30
0.0
 10
11.3579629174
 20
4.0853668586
 30
0.0
 10
11.3604185989
 20
4.0852761416
 30
0.0
 10
11.3634623854
 20
4.0849322872
 30
0.0
 10
11.367028822
 20
4.084157687
 30
0.0
 10
11.3704528328
 20
4.0830310761
 30
0.0
 10
11.3736833733
 20
4.0815708097
 30
0.0
 10
11.3766712045
 20
4.0797966298
 30
0.0
 10
11.3793720665
 20
4.0777362071
 30
0.0
 10
11.3817441497
 20
4.0754184096
 30
0.0
 10
11.38375149
 20
4.0728791143
 30
0.0
 10
11.3848373641
 20
4.0710423782
 30
0.0
 10
11.3853065305
 20
4.0701025234
 30
0.0
  0
SPLINE
  5
47F
100
AcDbEntity
  8
0
100
AcDbSpline
 62
7
  6
CONTINUOUS
 70
0
 71
3
 72
23
 73
19
 74
0
 42
0.0000001
 43
0.0000001
 44
0.0000000001
 40
0.0
 40
0.0
 40
0.0
 40
0.0
 40
0.0401712966
 40
0.0812834446
 40
0.1241987681
 40
0.1696478347
 40
0.2181953191
 40
0.2702616103
 40
0.3261213917
 40
0.3859310045
 40
0.4497591031
 40
0.5175741236
 40
0.5892861616
 40
0.6647609551
 40
0.7438221717
 40
0.8262632354
 40
0.9117795723
 40
1.0
 40
1.0
 40
1.0
 40
1.0
 10
11.5181109761
 20
4.0954128928
 30
0.0
 10
11.5176538307
 20
4.0950396401
 30
0.0
 10
11.516661976
 20
4.0943625748
 30
0.0
 10
11.5149982063
 20
4.0935952264
 30
0.0
 10
11.5131614811
 20
4.0930739649
 30
0.0
 10
11.5111629958
 20
4.0928000496
 30
0.0
 10
11.5090126161
 20
4.0927715304
 30
0.0
 10
11.5067202038
 20
4.0929881189
 30
0.0
 10
11.5042959893
 20
4.0934472977
 30
0.0
 10
11.5017506533
 20
4.0941462627
 30
0.0
 10
11.4990960779
 20
4.0950822543
 30
0.0
 10
11.4963442771
 20
4.096249852
 30
0.0
 10
11.4935082285
 20
4.0976438305
 30
0.0
 10
11.4906011705
 20
4.0992579853
 30
0.0
 10
11.4876360725
 20
4.1010846315
 30
0.0
 10
11.4846274674
 20
4.1031156947
 30
0.0
 10
11.481590589
 20
4.105340137
 30
0.0
 10
11.4795862613
 20
4.1069214709
 30
0.0
 10
11.4785823299
 20
4.1077411835
 30
0.0
  0
SPLINE
  5
480
100
AcDbEntity
  8
0
100
AcDbSpline
 62
7
  6
CONTINUOUS
 70
0
 71
3
 72
23
 73
19
 74
0
 42
0.0000001
 43
0.0000001
 44
0.0000000001
 40
0.0
 40
0.0
 40
0.0
 40
0.0
 40
0.0401712966
 40
0.0812834446
 40
0.1241987681
 40
0.1696478347
 40
0.2181953191
 40
0.2702616103
 40
0.3261213917
 40
0.3859310045
 40
0.4497591031
 40
0.5175741236
 40
0.5892861616
 40
0.6647609551
 40
0.7438221717
 40
0.8262632354
 40
0.9117795723
 40
1.0
 40
1.0
 40
1.0
 40
1.0
 10
11.5521907687
 20
4.3885377339
 30
0.0
 10
11.5526479141
 20
4.3889109866
 30
0.0
 10
11.5536397688
 20
4.3895880519
 30
0.0
 10
11.5553035385
 20
4.3903554003
 30
0.0
 10
11.5571402638
 20
4.3908766618
 30
0.0
 10
11.559138749
 20
4.3911505771
 30
0.0
 10
11.5612891287
 20
4.3911790963
 30
0.0
 10
11.563581541
 20
4.3909625078
 30
0.0
 10
11.5660057555
 20
4.390503329
 30
0.0
 10
11.5685510915
 20
4.389804364
 30
0.0
 10
11.5712056669
 20
4.3888683724
 30
0.0
 10
11.5739574677
 20
4.3877007747
 30
0.0
 10
11.5767935163
 20
4.3863067962
 30
0.0
 10
11.5797005743
 20
4.3846926414
 30
0.0
 10
11.5826656723
 20
4.3828659952
 30
0.0
 10
11.5856742774
 20
4.380834932
 30
0.0
 10
11.5887111558
 20
4.3786104897
 30
0.0
 10
11.5907154835
 20
4.3770291559
 30
0.0
 10
11.5917194149
 20
4.3762094432
 30
0.0
  0
SPLINE
  5
481
100
AcDbEntity
  8
0
100
AcDbSpline
 62
7
  6
CONTINUOUS
 70
0
 71
3
 72
15
 73
11
 74
0
 42
0.0000001
 43
0.0000001
 44
0.0000000001
 40
0.0
 40
0.0
 40
0.0
 40
0.0
 40
0.1198416336
 40
0.2402580632
 40
0.3617821153
 40
0.4848829718
 40
0.609993604
 40
0.737480049
 40
0.8675226064
 40
1.0
 40
1.0
 40
1.0
 40
1.0
 10
11.3875244257
 20
4.0793340701
 30
0.0
 10
11.3875244298
 20
4.0785323081
 30
0.0
 10
11.3874277668
 20
4.0769232437
 30
0.0
 10
11.3869925333
 20
4.0745367549
 30
0.0
 10
11.3862733376
 20
4.0721969824
 30
0.0
 10
11.3852765682
 20
4.0699272637
 30
0.0
 10
11.3840121339
 20
4.0677491
 30
0.0
 10
11.3824921756
 20
4.0656831794
 30
0.0
 10
11.3807324427
 20
4.0637508536
 30
0.0
 10
11.3794243206
 20
4.0625739801
 30
0.0
 10
11.3787377995
 20
4.0620134339
 30
0.0
  0
SPLINE
  5
482
100
AcDbEntity
  8
0
100
AcDbSpline
 62
7
  6
CONTINUOUS
 70
0
 71
3
 72
19
 73
15
 74
0
 42
0.0000001
 43
0.0000001
 44
0.0000000001
 40
0.0
 40
0.0
 40
0.0
 40
0.0
 40
0.0592486015
 40
0.118595773
 40
0.1781309155
 40
0.2379415722
 40
0.3586565734
 40
0.4814144434
 40
0.6066719425
 40
0.6703706284
 40
0.7348080195
 40
0.8000093918
 40
0.8659791857
 40
1.0
 40
1.0
 40
1.0
 40
1.0
 10
11.3404858482
 20
4.0078584375
 30
0.0
 10
11.3404858305
 20
4.0067736434
 30
0.0
 10
11.340410343
 20
4.0046014987
 30
0.0
 10
11.3400719795
 20
4.0013552297
 30
0.0
 10
11.3395097395
 20
3.9981294249
 30
0.0
 10
11.3384601723
 20
3.9938583564
 30
0.0
 10
11.336588281
 20
3.9886111833
 30
0.0
 10
11.333496954
 20
3.982589266
 30
0.0
 10
11.3302626471
 20
3.9778676963
 30
0.0
 10
11.327304291
 20
3.9742910087
 30
0.0
 10
11.324889542
 20
3.9716997871
 30
0.0
 10
11.3222988428
 20
3.9692239404
 30
0.0
 10
11.3186029006
 20
3.9660722928
 30
0.0
 10
11.3156216801
 20
3.9639299987
 30
0.0
 10
11.3135566693
 20
3.9626045067
 30
0.0
  0
SPLINE
  5
483
100
AcDbEntity
  8
0
100
AcDbSpline
 62
7
  6
CONTINUOUS
 70
0
 71
3
 72
31
 73
27
 74
0
 42
0.0000001
 43
0.0000001
 44
0.0000000001
 40
0.0
 40
0.0
 40
0.0
 40
0.0
 40
0.0833385352
 40
0.1665587963
 40
0.2489134687
 40
0.3296757561
 40
0.4081464168
 40
0.4836606563
 40
0.5556133092
 40
0.6234618247
 40
0.6557098869
 40
0.6867721993
 40
0.7166098668
 40
0.7451964672
 40
0.7725130385
 40
0.7985501708
 40
0.8233163801
 40
0.8468361123
 40
0.8691487755
 40
0.890315187
 40
0.9104238275
 40
0.9295871988
 40
0.9479443418
 40
0.9656652549
 40
0.9829457161
 40
1.0
 40
1.0
 40
1.0
 40
1.0
 10
11.3986760093
 20
4.1755181246
 30
0.0
 10
11.3972540273
 20
4.1771388554
 30
0.0
 10
11.3944806754
 20
4.1804389188
 30
0.0
 10
11.3905475101
 20
4.1855403764
 30
0.0
 10
11.3868739173
 20
4.1907507006
 30
0.0
 10
11.3834988943
 20
4.1960139071
 30
0.0
 10
11.3804582288
 20
4.2012738557
 30
0.0
 10
11.3777844387
 20
4.2064747892
 30
0.0
 10
11.3755053245
 20
4.2115608694
 30
0.0
 10
11.3739295098
 20
4.215727415
 30
0.0
 10
11.3728945217
 20
4.2189596823
 30
0.0
 10
11.3722440313
 20
4.2212807464
 30
0.0
 10
11.3717079399
 20
4.2235336614
 30
0.0
 10
11.3712873597
 20
4.2257124396
 30
0.0
 10
11.3709833845
 20
4.2278113278
 30
0.0
 10
11.3707972408
 20
4.2298248227
 30
0.0
 10
11.3707293045
 20
4.2317476263
 30
0.0
 10
11.3707795822
 20
4.2335747692
 30
0.0
 10
11.370948263
 20
4.2353014923
 30
0.0
 10
11.371235493
 20
4.2369232147
 30
0.0
 10
11.3716403665
 20
4.2384357436
 30
0.0
 10
11.372162132
 20
4.2398350907
 30
0.0
 10
11.3728003121
 20
4.241117059
 30
0.0
 10
11.3735535529
 20
4.2422777621
 30
0.0
 10
11.374419462
 20
4.2433135008
 30
0.0
 10
11.3750723018
 20
4.2439200466
 30
0.0
 10
11.3754140734
 20
4.2441990984
 30
0.0
  0
SPLINE
  5
484
100
AcDbEntity
  8
0
100
AcDbSpline
 62
7
  6
CONTINUOUS
 70
0
 71
3
 72
31
 73
27
 74
0
 42
0.0000001
 43
0.0000001
 44
0.0000000001
 40
0.0
 40
0.0
 40
0.0
 40
0.0
 40
0.0739624809
 40
0.150727354
 40
0.2291865961
 40
0.3083315324
 40
0.3871089973
 40
0.4644519741
 40
0.5393430454
 40
0.5755717718
 40
0.610837353
 40
0.6780499214
 40
0.7098269873
 40
0.7402737435
 40
0.7693243916
 40
0.796933145
 40
0.8230664622
 40
0.8477082817
 40
0.8708737403
 40
0.8926037016
 40
0.9129686343
 40
0.9320845744
 40
0.950113624
 40
0.9672632901
 40
0.9837921532
 40
1.0
 40
1.0
 40
1.0
 40
1.0
 10
11.4785823299
 20
4.1669187101
 30
0.0
 10
11.4798084552
 20
4.1659175756
 30
0.0
 10
11.4822427651
 20
4.1637975133
 30
0.0
 10
11.4857554855
 20
4.1603708159
 30
0.0
 10
11.4891546139
 20
4.1566790674
 30
0.0
 10
11.4923849199
 20
4.1527828022
 30
0.0
 10
11.4953957439
 20
4.1487441984
 30
0.0
 10
11.4981379521
 20
4.1446275352
 30
0.0
 10
11.5001856357
 20
4.1411496789
 30
0.0
 10
11.5016503086
 20
4.1383796792
 30
0.0
 10
11.50295417
 20
4.135712425
 30
0.0
 10
11.5040879448
 20
4.1330690185
 30
0.0
 10
11.505029027
 20
4.1304629321
 30
0.0
 10
11.5056151194
 20
4.1285988192
 30
0.0
 10
11.5060921935
 20
4.1267959371
 30
0.0
 10
11.5064587499
 20
4.1250615112
 30
0.0
 10
11.5067133232
 20
4.1234023923
 30
0.0
 10
11.5068543496
 20
4.1218250506
 30
0.0
 10
11.5068815624
 20
4.1203356803
 30
0.0
 10
11.5067948899
 20
4.1189399743
 30
0.0
 10
11.5065937766
 20
4.1176433669
 30
0.0
 10
11.5062786258
 20
4.1164509728
 30
0.0
 10
11.5058504639
 20
4.1153674951
 30
0.0
 10
11.5053096786
 20
4.1143978428
 30
0.0
 10
11.5046578894
 20
4.1135474371
 30
0.0
 10
11.5041492319
 20
4.1130607973
 30
0.0
 10
11.5038805797
 20
4.1128413684
 30
0.0
  0
SPLINE
  5
485
100
AcDbEntity
  8
0
100
AcDbSpline
 62
7
  6
CONTINUOUS
 70
0
 71
3
 72
34
 73
30
 74
0
 42
0.0000001
 43
0.0000001
 44
0.0000000001
 40
0.0
 40
0.0
 40
0.0
 40
0.0
 40
0.036571038
 40
0.0739811013
 40
0.1507303767
 40
0.2291845782
 40
0.3083336658
 40
0.3871072303
 40
0.4644478857
 40
0.5022642627
 40
0.5393458959
 40
0.6108279772
 40
0.6450230631
 40
0.6780513742
 40
0.7098262205
 40
0.7402725616
 40
0.7693234994
 40
0.7969307214
 40
0.8230630291
 40
0.847704931
 40
0.870869869
 40
0.8925988038
 40
0.9129630917
 40
0.9226717137
 40
0.9320866598
 40
0.9501150541
 40
0.967263692
 40
0.9837926513
 40
1.0
 40
1.0
 40
1.0
 40
1.0
 10
11.6553590252
 20
4.3242475344
 30
0.0
 10
11.6563063351
 20
4.3234740534
 30
0.0
 10
11.6581980767
 20
4.3218789502
 30
0.0
 10
11.6619542754
 20
4.318516778
 30
0.0
 10
11.6665672516
 20
4.3140160615
 30
0.0
 10
11.6718780523
 20
4.3082481778
 30
0.0
 10
11.6769257631
 20
4.3021603594
 30
0.0
 10
11.6816297489
 20
4.2958497557
 30
0.0
 10
11.6852274473
 20
4.2904497324
 30
0.0
 10
11.6878694518
 20
4.2860971436
 30
0.0
 10
11.6902876515
 20
4.2818405037
 30
0.0
 10
11.6924599834
 20
4.277585014
 30
0.0
 10
11.6943561958
 20
4.2733509936
 30
0.0
 10
11.6956001141
 20
4.2702821062
 30
0.0
 10
11.6966819377
 20
4.2672852997
 30
0.0
 10
11.6975977337
 20
4.2643726676
 30
0.0
 10
11.6983433572
 20
4.2615556834
 30
0.0
 10
11.6989159673
 20
4.2588456162
 30
0.0
 10
11.6993136608
 20
4.2562532463
 30
0.0
 10
11.6995341435
 20
4.2537886556
 30
0.0
 10
11.6995766711
 20
4.2514614663
 30
0.0
 10
11.6994411957
 20
4.2492808064
 30
0.0
 10
11.6991751212
 20
4.2475659213
 30
0.0
 10
11.6988694611
 20
4.2462806273
 30
0.0
 10
11.6985151611
 20
4.2450892849
 30
0.0
 10
11.6979656252
 20
4.2436985812
 30
0.0
 10
11.6971203012
 20
4.2421838047
 30
0.0
 10
11.6961022162
 20
4.2408548075
 30
0.0
 10
11.6953074983
 20
4.2400943112
 30
0.0
 10
11.6948876714
 20
4.2397515283
 30
0.0
  0
SPLINE
  5
486
100
AcDbEntity
  8
0
100
AcDbSpline
 62
7
  6
CONTINUOUS
 70
0
 71
3
 72
23
 73
19
 74
0
 42
0.0000001
 43
0.0000001
 44
0.0000000001
 40
0.0
 40
0.0
 40
0.0
 40
0.0
 40
0.0401712966
 40
0.0812834446
 40
0.1241987681
 40
0.1696478347
 40
0.2181953191
 40
0.2702616103
 40
0.3261213917
 40
0.3859310045
 40
0.4497591031
 40
0.5175741236
 40
0.5892861616
 40
0.6647609551
 40
0.7438221717
 40
0.8262632354
 40
0.9117795723
 40
1.0
 40
1.0
 40
1.0
 40
1.0
 10
11.3754140734
 20
4.2441990984
 30
0.0
 10
11.3758712188
 20
4.2445723511
 30
0.0
 10
11.3768630735
 20
4.2452494164
 30
0.0
 10
11.3785268432
 20
4.2460167648
 30
0.0
 10
11.3803635685
 20
4.2465380263
 30
0.0
 10
11.3823620537
 20
4.2468119416
 30
0.0
 10
11.3845124334
 20
4.2468404607
 30
0.0
 10
11.3868048457
 20
4.2466238722
 30
0.0
 10
11.3892290602
 20
4.2461646935
 30
0.0
 10
11.3917743962
 20
4.2454657285
 30
0.0
 10
11.3944289716
 20
4.2445297369
 30
0.0
 10
11.3971807724
 20
4.2433621391
 30
0.0
 10
11.400016821
 20
4.2419681607
 30
0.0
 10
11.402923879
 20
4.2403540059
 30
0.0
 10
11.405888977
 20
4.2385273597
 30
0.0
 10
11.4088975821
 20
4.2364962965
 30
0.0
 10
11.4119344605
 20
4.2342718542
 30
0.0
 10
11.4139387882
 20
4.2326905203
 30
0.0
 10
11.4149427196
 20
4.2318708077
 30
0.0
  0
SPLINE
  5
487
100
AcDbEntity
  8
0
100
AcDbSpline
 62
7
  6
CONTINUOUS
 70
0
 71
3
 72
18
 73
14
 74
0
 42
0.0000001
 43
0.0000001
 44
0.0000000001
 40
0.0
 40
0.0
 40
0.0
 40
0.0
 40
0.1166951659
 40
0.2370346913
 40
0.3606316386
 40
0.4235078124
 40
0.4869449901
 40
0.5508326201
 40
0.6150529739
 40
0.7439044173
 40
0.8725508788
 40
0.9365202053
 40
1.0
 40
1.0
 40
1.0
 40
1.0
 10
11.21456172
 20
4.0434341426
 30
0.0
 10
11.216865742
 20
4.0458271663
 30
0.0
 10
11.2219506274
 20
4.0503121266
 30
0.0
 10
11.2306099647
 20
4.0558888064
 30
0.0
 10
11.2385765443
 20
4.0595428646
 30
0.0
 10
11.2453125161
 20
4.0618440988
 30
0.0
 10
11.2505452444
 20
4.0632507481
 30
0.0
 10
11.2558959339
 20
4.0643204123
 30
0.0
 10
11.2631507438
 20
4.0652878029
 30
0.0
 10
11.2723291655
 20
4.0656241037
 30
0.0
 10
11.2814693552
 20
4.0647923175
 30
0.0
 10
11.2886354797
 20
4.0634313936
 30
0.0
 10
11.2921514074
 20
4.062523472
 30
0.0
 10
11.2938849858
 20
4.0620134339
 30
0.0
  0
SPLINE
  5
488
100
AcDbEntity
  8
0
100
AcDbSpline
 62
7
  6
CONTINUOUS
 70
0
 71
3
 72
30
 73
26
 74
0
 42
0.0000001
 43
0.0000001
 44
0.0000000001
 40
0.0
 40
0.0
 40
0.0
 40
0.0
 40
0.0791166527
 40
0.1594651572
 40
0.2401937341
 40
0.3204025373
 40
0.3991954453
 40
0.4757166023
 40
0.5491575051
 40
0.6187757338
 40
0.6519498393
 40
0.6839364599
 40
0.744088572
 40
0.7721794171
 40
0.7989020925
 40
0.8242416233
 40
0.8482074285
 40
0.8708292017
 40
0.8921570945
 40
0.9122714191
 40
0.9312905674
 40
0.9493661976
 40
0.966686397
 40
0.9834788998
 40
1.0
 40
1.0
 40
1.0
 40
1.0
 10
11.4097549124
 20
4.1773209994
 30
0.0
 10
11.4086704244
 20
4.1783715498
 30
0.0
 10
11.4065382629
 20
4.1805451146
 30
0.0
 10
11.4034878245
 20
4.1839688918
 30
0.0
 10
11.4005889641
 20
4.1875489079
 30
0.0
 10
11.3978792289
 20
4.1912373554
 30
0.0
 10
11.3953954527
 20
4.1949857511
 30
0.0
 10
11.3931699052
 20
4.1987438514
 30
0.0
 10
11.3912323617
 20
4.2024620006
 30
0.0
 10
11.389857115
 20
4.205533998
 30
0.0
 10
11.3889275951
 20
4.2079329175
 30
0.0
 10
11.3881445385
 20
4.2101929256
 30
0.0
 10
11.3875173404
 20
4.212403522
 30
0.0
 10
11.387068839
 20
4.2145520058
 30
0.0
 10
11.3868329019
 20
4.2160641354
 30
0.0
 10
11.3866908212
 20
4.2175089719
 30
0.0
 10
11.3866428946
 20
4.2188818336
 30
0.0
 10
11.3866891465
 20
4.2201783368
 30
0.0
 10
11.3868298031
 20
4.2213943029
 30
0.0
 10
11.3870650221
 20
4.22252571
 30
0.0
 10
11.3873939452
 20
4.2235689273
 30
0.0
 10
11.387815876
 20
4.2245204432
 30
0.0
 10
11.3883304382
 20
4.2253764809
 30
0.0
 10
11.3889359149
 20
4.2261332716
 30
0.0
 10
11.3894002772
 20
4.2265711719
 30
0.0
 10
11.3896444698
 20
4.2267706228
 30
0.0
  0
SPLINE
  5
489
100
AcDbEntity
  8
0
100
AcDbSpline
 62
7
  6
CONTINUOUS
 70
0
 71
3
 72
34
 73
30
 74
0
 42
0.0000001
 43
0.0000001
 44
0.0000000001
 40
0.0
 40
0.0
 40
0.0
 40
0.0
 40
0.036571038
 40
0.0739811013
 40
0.1507303767
 40
0.2291845782
 40
0.3083336658
 40
0.3871072303
 40
0.4644478857
 40
0.5022642627
 40
0.5393458959
 40
0.6108279772
 40
0.6450230631
 40
0.6780513742
 40
0.7098262205
 40
0.7402725616
 40
0.7693234994
 40
0.7969307214
 40
0.8230630291
 40
0.847704931
 40
0.870869869
 40
0.8925988038
 40
0.9129630917
 40
0.9226717137
 40
0.9320866598
 40
0.9501150541
 40
0.967263692
 40
0.9837926513
 40
1.0
 40
1.0
 40
1.0
 40
1.0
 10
11.4785823299
 20
4.1799088989
 30
0.0
 10
11.4795296398
 20
4.1791354179
 30
0.0
 10
11.4814213814
 20
4.1775403147
 30
0.0
 10
11.4851775801
 20
4.1741781425
 30
0.0
 10
11.4897905563
 20
4.1696774259
 30
0.0
 10
11.495101357
 20
4.1639095423
 30
0.0
 10
11.5001490678
 20
4.1578217239
 30
0.0
 10
11.5048530536
 20
4.1515111202
 30
0.0
 10
11.508450752
 20
4.1461110969
 30
0.0
 10
11.5110927565
 20
4.141758508
 30
0.0
 10
11.5135109562
 20
4.1375018681
 30
0.0
 10
11.5156832881
 20
4.1332463785
 30
0.0
 10
11.5175795005
 20
4.1290123581
 30
0.0
 10
11.5188234188
 20
4.1259434707
 30
0.0
 10
11.5199052424
 20
4.1229466642
 30
0.0
 10
11.5208210384
 20
4.1200340321
 30
0.0
 10
11.5215666619
 20
4.1172170478
 30
0.0
 10
11.522139272
 20
4.1145069807
 30
0.0
 10
11.5225369655
 20
4.1119146108
 30
0.0
 10
11.5227574482
 20
4.1094500201
 30
0.0
 10
11.5227999758
 20
4.1071228308
 30
0.0
 10
11.5226645004
 20
4.1049421709
 30
0.0
 10
11.5223984259
 20
4.1032272858
 30
0.0
 10
11.5220927658
 20
4.1019419918
 30
0.0
 10
11.5217384658
 20
4.1007506494
 30
0.0
 10
11.5211889299
 20
4.0993599457
 30
0.0
 10
11.5203436059
 20
4.0978451692
 30
0.0
 10
11.5193255209
 20
4.096516172
 30
0.0
 10
11.518530803
 20
4.0957556756
 30
0.0
 10
11.5181109761
 20
4.0954128928
 30
0.0
  0
SPLINE
  5
48A
100
AcDbEntity
  8
0
100
AcDbSpline
 62
7
  6
CONTINUOUS
 70
0
 71
3
 72
23
 73
19
 74
0
 42
0.0000001
 43
0.0000001
 44
0.0000000001
 40
0.0
 40
0.0
 40
0.0
 40
0.0
 40
0.0401706297
 40
0.0812842844
 40
0.1242000804
 40
0.1696449309
 40
0.2181962484
 40
0.2702618886
 40
0.3261197
 40
0.3859376739
 40
0.4497621697
 40
0.5175676852
 40
0.5892766046
 40
0.6647540263
 40
0.7438314235
 40
0.8262925804
 40
0.9118053683
 40
1.0
 40
1.0
 40
1.0
 40
1.0
 10
11.5038805797
 20
4.1128413684
 30
0.0
 10
11.5035880537
 20
4.1126024399
 30
0.0
 10
11.5029534269
 20
4.1121688386
 30
0.0
 10
11.5018883916
 20
4.1116781363
 30
0.0
 10
11.5007129578
 20
4.1113445243
 30
0.0
 10
11.4994339659
 20
4.1111687887
 30
0.0
 10
11.4980577165
 20
4.1111510046
 30
0.0
 10
11.4965905731
 20
4.1112894491
 30
0.0
 10
11.4950389706
 20
4.1115831479
 30
0.0
 10
11.4934100475
 20
4.1120309075
 30
0.0
 10
11.4917110992
 20
4.1126297038
 30
0.0
 10
11.4899500201
 20
4.1133767656
 30
0.0
 10
11.4881351124
 20
4.1142690227
 30
0.0
 10
11.4862744174
 20
4.1153020537
 30
0.0
 10
11.4843764711
 20
4.1164713459
 30
0.0
 10
11.4824507993
 20
4.1177715236
 30
0.0
 10
11.4805072291
 20
4.1191950539
 30
0.0
 10
11.4792246572
 20
4.1202069103
 30
0.0
 10
11.4785823299
 20
4.1207313723
 30
0.0
  0
SPLINE
  5
48B
100
AcDbEntity
  8
0
100
AcDbSpline
 62
7
  6
CONTINUOUS
 70
0
 71
3
 72
11
 73
7
 74
0
 42
0.0000001
 43
0.0000001
 44
0.0000000001
 40
0.0
 40
0.0
 40
0.0
 40
0.0
 40
0.2529700133
 40
0.5035518628
 40
0.7522649896
 40
1.0
 40
1.0
 40
1.0
 40
1.0
 10
11.3363113926
 20
4.0273721613
 30
0.0
 10
11.3369953972
 20
4.0258222209
 30
0.0
 10
11.3382035624
 20
4.0226664902
 30
0.0
 10
11.3395173856
 20
4.0177938045
 30
0.0
 10
11.340309252
 20
4.0128449235
 30
0.0
 10
11.3404858753
 20
4.0095175381
 30
0.0
 10
11.3404858482
 20
4.0078584375
 30
0.0
  0
SPLINE
  5
48C
100
AcDbEntity
  8
0
100
AcDbSpline
 62
7
  6
CONTINUOUS
 70
0
 71
3
 72
35
 73
31
 74
0
 42
0.0000001
 43
0.0000001
 44
0.0000000001
 40
0.0
 40
0.0
 40
0.0
 40
0.0
 40
0.0621853537
 40
0.093969314
 40
0.1261331748
 40
0.191427599
 40
0.2245162461
 40
0.2578225807
 40
0.2912880151
 40
0.3248531499
 40
0.3920126835
 40
0.4255165207
 40
0.458881541
 40
0.4920504409
 40
0.5249690289
 40
0.5575893253
 40
0.5898671748
 40
0.6532128947
 40
0.684264596
 40
0.7148667193
 40
0.7450155689
 40
0.7747161675
 40
0.8039819774
 40
0.8328394188
 40
0.8613240709
 40
0.8894796586
 40
0.9173609898
 40
0.9450294279
 40
0.9725515138
 40
1.0
 40
1.0
 40
1.0
 40
1.0
 10
11.3363113926
 20
4.0966547064
 30
0.0
 10
11.3373665284
 20
4.0975162275
 30
0.0
 10
11.3390593159
 20
4.0987027533
 30
0.0
 10
11.3414712424
 20
4.1000533517
 30
0.0
 10
11.3440297581
 20
4.1012695884
 30
0.0
 10
11.3467284759
 20
4.1022427589
 30
0.0
 10
11.3495227926
 20
4.1029644555
 30
0.0
 10
11.3516717335
 20
4.1033807444
 30
0.0
 10
11.3538522915
 20
4.1036672941
 30
0.0
 10
11.3567858675
 20
4.1038731335
 30
0.0
 10
11.3597340838
 20
4.1038145334
 30
0.0
 10
11.3626534568
 20
4.1034908479
 30
0.0
 10
11.3648142298
 20
4.103117588
 30
0.0
 10
11.3669356332
 20
4.1026160305
 30
0.0
 10
11.3690061051
 20
4.1019880805
 30
0.0
 10
11.3710146818
 20
4.1012374537
 30
0.0
 10
11.3735788959
 20
4.1000867196
 30
0.0
 10
11.3759953581
 20
4.0987022001
 30
0.0
 10
11.3782177967
 20
4.0970997186
 30
0.0
 10
11.3797620904
 20
4.0958087616
 30
0.0
 10
11.3811859573
 20
4.0944283488
 30
0.0
 10
11.3824822024
 20
4.0929661881
 30
0.0
 10
11.3836430947
 20
4.0914295967
 30
0.0
 10
11.384662407
 20
4.0898270483
 30
0.0
 10
11.3855350962
 20
4.0881674942
 30
0.0
 10
11.3862556028
 20
4.0864595057
 30
0.0
 10
11.3868200143
 20
4.0847125222
 30
0.0
 10
11.3872258891
 20
4.0829361852
 30
0.0
 10
11.3874701734
 20
4.0811401776
 30
0.0
 10
11.3875244226
 20
4.0799353329
 30
0.0
 10
11.3875244257
 20
4.0793340701
 30
0.0
  0
LINE
  5
48D
100
AcDbEntity
  8
0
100
AcDbLine
 62
7
  6
CONTINUOUS
 10
14.8960264712
 20
7.3863584011
 11
14.8966535036
 21
7.3735025244
  0
LINE
  5
48E
100
AcDbEntity
  8
0
100
AcDbLine
 62
7
  6
CONTINUOUS
 10
14.3727674531
 20
6.9591160399
 11
14.3733944855
 21
6.9462601632
  0
SPLINE
  5
48F
100
AcDbEntity
  8
0
100
AcDbSpline
 62
7
  6
CONTINUOUS
 70
0
 71
3
 72
9
 73
5
 74
0
 42
0.0000001
 43
0.0000001
 44
0.0000000001
 40
0.0
 40
0.0
 40
0.0
 40
0.0
 40
0.2535908923
 40
1.0
 40
1.0
 40
1.0
 40
1.0
 10
14.5678925044
 20
7.167289878
 30
0.0
 10
14.5673802865
 20
7.1677081147
 30
0.0
 10
14.5654064026
 20
7.1694136563
 30
0.0
 10
14.5636077222
 20
7.1713160158
 30
0.0
 10
14.5623514637
 20
7.1728026931
 30
0.0
  0
SPLINE
  5
490
100
AcDbEntity
  8
0
100
AcDbSpline
 62
7
  6
CONTINUOUS
 70
0
 71
3
 72
9
 73
5
 74
0
 42
0.0000001
 43
0.0000001
 44
0.0000000001
 40
0.0
 40
0.0
 40
0.0
 40
0.0
 40
0.2535908923
 40
1.0
 40
1.0
 40
1.0
 40
1.0
 10
14.8365930813
 20
7.386684604
 30
0.0
 10
14.8360808633
 20
7.3871028406
 30
0.0
 10
14.8341069794
 20
7.3888083823
 30
0.0
 10
14.8323082991
 20
7.3907107418
 30
0.0
 10
14.8310520406
 20
7.3921974191
 30
0.0
  0
SPLINE
  5
491
100
AcDbEntity
  8
0
100
AcDbSpline
 62
7
  6
CONTINUOUS
 70
0
 71
3
 72
9
 73
5
 74
0
 42
0.0000001
 43
0.0000001
 44
0.0000000001
 40
0.0
 40
0.0
 40
0.0
 40
0.0
 40
0.2535908923
 40
1.0
 40
1.0
 40
1.0
 40
1.0
 10
14.2991919276
 20
6.947895152
 30
0.0
 10
14.2986797096
 20
6.9483133887
 30
0.0
 10
14.2967058257
 20
6.9500189303
 30
0.0
 10
14.2949071454
 20
6.9519212898
 30
0.0
 10
14.2936508869
 20
6.9534079672
 30
0.0
  0
SPLINE
  5
492
100
AcDbEntity
  8
0
100
AcDbSpline
 62
7
  6
CONTINUOUS
 70
0
 71
3
 72
12
 73
8
 74
0
 42
0.0000001
 43
0.0000001
 44
0.0000000001
 40
0.0
 40
0.0
 40
0.0
 40
0.0
 40
0.1277079711
 40
0.2542123215
 40
0.5045972105
 40
0.7527987318
 40
1.0
 40
1.0
 40
1.0
 40
1.0
 10
14.2936508869
 20
6.9534079672
 30
0.0
 10
14.2929725786
 20
6.9542106885
 30
0.0
 10
14.2916712088
 20
6.9558503179
 30
0.0
 10
14.2892584706
 20
6.9592314933
 30
0.0
 10
14.2865399694
 20
6.9636041891
 30
0.0
 10
14.2835858096
 20
6.9689850086
 30
0.0
 10
14.2817192562
 20
6.972609531
 30
0.0
 10
14.280788525
 20
6.9744183952
 30
0.0
  0
SPLINE
  5
493
100
AcDbEntity
  8
0
100
AcDbSpline
 62
7
  6
CONTINUOUS
 70
0
 71
3
 72
19
 73
15
 74
0
 42
0.0000001
 43
0.0000001
 44
0.0000000001
 40
0.0
 40
0.0
 40
0.0
 40
0.0
 40
0.1479435493
 40
0.2927348257
 40
0.4323615757
 40
0.5650949843
 40
0.6283758151
 40
0.6893548475
 40
0.7478725278
 40
0.8037982098
 40
0.8570361183
 40
0.9075118666
 40
0.9551742103
 40
1.0
 40
1.0
 40
1.0
 40
1.0
 10
14.528859988
 20
7.1354197259
 30
0.0
 10
14.5306594411
 20
7.1330601336
 30
0.0
 10
14.5340975955
 20
7.1282962998
 30
0.0
 10
14.5387861244
 20
7.1209955014
 30
0.0
 10
14.5428970381
 20
7.1137022984
 30
0.0
 10
14.545831896
 20
7.1076372539
 30
0.0
 10
14.5478248371
 20
7.1028822288
 30
0.0
 10
14.5491130081
 20
7.0994488184
 30
0.0
 10
14.550213152
 20
7.0961054925
 30
0.0
 10
14.5511205684
 20
7.0928655951
 30
0.0
 10
14.5518319694
 20
7.0897421338
 30
0.0
 10
14.5523436112
 20
7.0867475143
 30
0.0
 10
14.552654054
 20
7.0838949794
 30
0.0
 10
14.5527287632
 20
7.0820393913
 30
0.0
 10
14.5527289938
 20
7.0811402789
 30
0.0
  0
SPLINE
  5
494
100
AcDbEntity
  8
0
100
AcDbSpline
 62
7
  6
CONTINUOUS
 70
0
 71
3
 72
12
 73
8
 74
0
 42
0.0000001
 43
0.0000001
 44
0.0000000001
 40
0.0
 40
0.0
 40
0.0
 40
0.0
 40
0.1277079711
 40
0.2542123215
 40
0.5045972105
 40
0.7527987318
 40
1.0
 40
1.0
 40
1.0
 40
1.0
 10
14.8310520406
 20
7.3921974191
 30
0.0
 10
14.8303737323
 20
7.3930001404
 30
0.0
 10
14.8290723625
 20
7.3946397699
 30
0.0
 10
14.8266596243
 20
7.3980209453
 30
0.0
 10
14.8239411231
 20
7.4023936411
 30
0.0
 10
14.8209869633
 20
7.4077744606
 30
0.0
 10
14.8191204099
 20
7.4113989829
 30
0.0
 10
14.8181896787
 20
7.4132078472
 30
0.0
  0
SPLINE
  5
495
100
AcDbEntity
  8
0
100
AcDbSpline
 62
7
  6
CONTINUOUS
 70
0
 71
3
 72
15
 73
11
 74
0
 42
0.0000001
 43
0.0000001
 44
0.0000000001
 40
0.0
 40
0.0
 40
0.0
 40
0.0
 40
0.1490165626
 40
0.2930227625
 40
0.4309336547
 40
0.5617464714
 40
0.6846068437
 40
0.7988563461
 40
0.9040669871
 40
1.0
 40
1.0
 40
1.0
 40
1.0
 10
15.0750761789
 20
7.561444111
 30
0.0
 10
15.0762459757
 20
7.5595596112
 30
0.0
 10
15.0784657156
 20
7.5558031213
 30
0.0
 10
15.0814666103
 20
7.5501313635
 30
0.0
 10
15.0840622005
 20
7.544560098
 30
0.0
 10
15.0862261847
 20
7.5391444821
 30
0.0
 10
15.0879378349
 20
7.5339382636
 30
0.0
 10
15.0891803538
 20
7.5289913727
 30
0.0
 10
15.0899400039
 20
7.5243528604
 30
0.0
 10
15.0901297813
 20
7.5213576567
 30
0.0
 10
15.0901301475
 20
7.5199297308
 30
0.0
  0
SPLINE
  5
496
100
AcDbEntity
  8
0
100
AcDbSpline
 62
7
  6
CONTINUOUS
 70
0
 71
3
 72
10
 73
6
 74
0
 42
0.0000001
 43
0.0000001
 44
0.0000000001
 40
0.0
 40
0.0
 40
0.0
 40
0.0
 40
0.2538207079
 40
0.5044784937
 40
1.0
 40
1.0
 40
1.0
 40
1.0
 10
14.5623514637
 20
7.1728026931
 30
0.0
 10
14.561341054
 20
7.1739984289
 30
0.0
 10
14.5594406164
 20
7.1764672439
 30
0.0
 10
14.5560261244
 20
7.1816073184
 30
0.0
 10
14.5537802762
 20
7.1856308977
 30
0.0
 10
14.5523441872
 20
7.1883286744
 30
0.0
  0
SPLINE
  5
497
100
AcDbEntity
  8
0
100
AcDbSpline
 62
7
  6
CONTINUOUS
 70
0
 71
3
 72
11
 73
7
 74
0
 42
0.0000001
 43
0.0000001
 44
0.0000000001
 40
0.0
 40
0.0
 40
0.0
 40
0.0
 40
0.2213039594
 40
0.4555545224
 40
0.7130535276
 40
1.0
 40
1.0
 40
1.0
 40
1.0
 10
14.8517564667
 20
6.122131047
 30
0.0
 10
14.8519909274
 20
6.1223225237
 30
0.0
 10
14.8524206877
 20
6.1227859487
 30
0.0
 10
14.8528813127
 20
6.1236559015
 30
0.0
 10
14.8531652896
 20
6.1246894443
 30
0.0
 10
14.8532353583
 20
6.125434333
 30
0.0
 10
14.8532460777
 20
6.1258266894
 30
0.0
  0
SPLINE
  5
498
100
AcDbEntity
  8
0
100
AcDbSpline
 62
7
  6
CONTINUOUS
 70
0
 71
3
 72
12
 73
8
 74
0
 42
0.0000001
 43
0.0000001
 44
0.0000000001
 40
0.0
 40
0.0
 40
0.0
 40
0.0
 40
0.2408953646
 40
0.4861529801
 40
0.6115183833
 40
0.7389884015
 40
1.0
 40
1.0
 40
1.0
 40
1.0
 10
15.6684207214
 20
6.7966301485
 30
0.0
 10
15.6683127333
 20
6.7956923256
 30
0.0
 10
15.6678921993
 20
6.7938173649
 30
0.0
 10
15.6668875476
 20
6.791623157
 30
0.0
 10
15.6658226411
 20
6.7899840867
 30
0.0
 10
15.6645670787
 20
6.7884068086
 30
0.0
 10
15.6634554156
 20
6.7873511273
 30
0.0
 10
15.6626564943
 20
6.7867124182
 30
0.0
  0
SPLINE
  5
499
100
AcDbEntity
  8
0
100
AcDbSpline
 62
7
  6
CONTINUOUS
 70
0
 71
3
 72
11
 73
7
 74
0
 42
0.0000001
 43
0.0000001
 44
0.0000000001
 40
0.0
 40
0.0
 40
0.0
 40
0.0
 40
0.2212060189
 40
0.4562035075
 40
0.7139942423
 40
1.0
 40
1.0
 40
1.0
 40
1.0
 10
14.2538107354
 20
6.5897038315
 30
0.0
 10
14.2535939654
 20
6.5898983159
 30
0.0
 10
14.2531987089
 20
6.5903607048
 30
0.0
 10
14.2527763009
 20
6.5912089856
 30
0.0
 10
14.2525146279
 20
6.5922062764
 30
0.0
 10
14.2524491758
 20
6.5929222479
 30
0.0
 10
14.2524388924
 20
6.5932986467
 30
0.0
  0
SPLINE
  5
49A
100
AcDbEntity
  8
0
100
AcDbSpline
 62
7
  6
CONTINUOUS
 70
0
 71
3
 72
23
 73
19
 74
0
 42
0.0000001
 43
0.0000001
 44
0.0000000001
 40
0.0
 40
0.0
 40
0.0
 40
0.0
 40
0.0656283571
 40
0.1333490688
 40
0.2025602596
 40
0.2727268056
 40
0.3433181481
 40
0.4137712733
 40
0.4835213558
 40
0.5520219288
 40
0.6187427558
 40
0.6831847078
 40
0.744878413
 40
0.8034077679
 40
0.8584110825
 40
0.9096256428
 40
0.9568596026
 40
1.0
 40
1.0
 40
1.0
 40
1.0
 10
14.4963760223
 20
7.1504461524
 30
0.0
 10
14.497785078
 20
7.1492956146
 30
0.0
 10
14.5005907912
 20
7.1468869169
 30
0.0
 10
14.504684098
 20
7.1430414052
 30
0.0
 10
14.5086967842
 20
7.1389340078
 30
0.0
 10
14.5125901365
 20
7.1346058478
 30
0.0
 10
14.5163270792
 20
7.1300971688
 30
0.0
 10
14.5198730387
 20
7.1254512947
 30
0.0
 10
14.5231930879
 20
7.1207119113
 30
0.0
 10
14.5262564871
 20
7.1159250006
 30
0.0
 10
14.5290332848
 20
7.111135522
 30
0.0
 10
14.5314980828
 20
7.1063896582
 30
0.0
 10
14.5336264585
 20
7.1017319393
 30
0.0
 10
14.5353996771
 20
7.0972072322
 30
0.0
 10
14.5368001298
 20
7.0928573281
 30
0.0
 10
14.5378156399
 20
7.0887225024
 30
0.0
 10
14.5384346748
 20
7.0848422621
 30
0.0
 10
14.5385879087
 20
7.0823360618
 30
0.0
 10
14.5385869928
 20
7.0811402789
 30
0.0
  0
SPLINE
  5
49B
100
AcDbEntity
  8
0
100
AcDbSpline
 62
7
  6
CONTINUOUS
 70
0
 71
3
 72
49
 73
45
 74
0
 42
0.0000001
 43
0.0000001
 44
0.0000000001
 40
0.0
 40
0.0
 40
0.0
 40
0.0
 40
0.0105349348
 40
0.0212644451
 40
0.0322888791
 40
0.0436921102
 40
0.0555308792
 40
0.0678432293
 40
0.0806433543
 40
0.0939189041
 40
0.1217689646
 40
0.1511420719
 40
0.1662992388
 40
0.181713581
 40
0.1973412328
 40
0.2131394336
 40
0.2290851902
 40
0.2451542283
 40
0.2775326941
 40
0.310124767
 40
0.3428192134
 40
0.4080835447
 40
0.4405844328
 40
0.4729257799
 40
0.5051008511
 40
0.5371045009
 40
0.5689753491
 40
0.6007775591
 40
0.632592933
 40
0.6645440303
 40
0.6967736895
 40
0.7294269444
 40
0.7626409305
 40
0.7965125912
 40
0.8136925843
 40
0.8310238113
 40
0.8484833488
 40
0.8660231485
 40
0.8835896681
 40
0.9011224222
 40
0.9185334767
 40
0.9357220922
 40
0.9689987636
 40
1.0
 40
1.0
 40
1.0
 40
1.0
 10
14.5027642034
 20
7.0518908774
 30
0.0
 10
14.5027887035
 20
7.0526673415
 30
0.0
 10
14.5027230232
 20
7.0542404187
 30
0.0
 10
14.5022880336
 20
7.0565886936
 30
0.0
 10
14.5015192962
 20
7.0589173782
 30
0.0
 10
14.5004233591
 20
7.0612012712
 30
0.0
 10
14.4990140105
 20
7.0634188687
 30
0.0
 10
14.4973032832
 20
7.0655463824
 30
0.0
 10
14.4953086636
 20
7.0675616247
 30
0.0
 10
14.4922517796
 20
7.0701129158
 30
0.0
 10
14.4878205444
 20
7.0728826763
 30
0.0
 10
14.4828909833
 20
7.0749803783
 30
0.0
 10
14.4786618647
 20
7.0762757757
 30
0.0
 10
14.4753432044
 20
7.0770564491
 30
0.0
 10
14.4719357251
 20
7.0776346067
 30
0.0
 10
14.4684607049
 20
7.0780098078
 30
0.0
 10
14.4649375938
 20
7.0781878933
 30
0.0
 10
14.4601873252
 20
7.0781711815
 30
0.0
 10
14.4542203853
 20
7.0776862763
 30
0.0
 10
14.4471197351
 20
7.0764252925
 30
0.0
 10
14.4378136312
 20
7.0739250171
 30
0.0
 10
14.4288517176
 20
7.0703036167
 30
0.0
 10
14.4204007055
 20
7.0657499866
 30
0.0
 10
14.4143570037
 20
7.0619093962
 30
0.0
 10
14.408632786
 20
7.0576697806
 30
0.0
 10
14.4032498781
 20
7.0530572424
 30
0.0
 10
14.3982342451
 20
7.0480864433
 30
0.0
 10
14.3936089539
 20
7.0427685638
 30
0.0
 10
14.3893947121
 20
7.0371116075
 30
0.0
 10
14.3856139881
 20
7.0311184373
 30
0.0
 10
14.382288783
 20
7.0247909159
 30
0.0
 10
14.3794369949
 20
7.0181349363
 30
0.0
 10
14.3770733845
 20
7.0111626813
 30
0.0
 10
14.3755286901
 20
7.005137791
 30
0.0
 10
14.3745326614
 20
7.0001937883
 30
0.0
 10
14.3739037271
 20
6.9964126308
 30
0.0
 10
14.3733939597
 20
6.9925869595
 30
0.0
 10
14.372996034
 20
6.9887306825
 30
0.0
 10
14.372703764
 20
6.9848596133
 30
0.0
 10
14.3725112975
 20
6.9809918863
 30
0.0
 10
14.3724069361
 20
6.9771487518
 30
0.0
 10
14.3723691239
 20
6.9721433966
 30
0.0
 10
14.3724757192
 20
6.9661360516
 30
0.0
 10
14.3726639289
 20
6.9613997391
 30
0.0
 10
14.3727674531
 20
6.9591160399
 30
0.0
  0
SPLINE
  5
49C
100
AcDbEntity
  8
0
100
AcDbSpline
 62
7
  6
CONTINUOUS
 70
0
 71
3
 72
15
 73
11
 74
0
 42
0.0000001
 43
0.0000001
 44
0.0000000001
 40
0.0
 40
0.0
 40
0.0
 40
0.0
 40
0.1224715998
 40
0.2480001172
 40
0.3754410595
 40
0.5036100814
 40
0.6313009901
 40
0.7573702346
 40
0.8806919062
 40
1.0
 40
1.0
 40
1.0
 40
1.0
 10
14.3125555277
 20
6.9369860845
 30
0.0
 10
14.3115429585
 20
6.9387273201
 30
0.0
 10
14.309406161
 20
6.9422036484
 30
0.0
 10
14.3059372512
 20
6.9473141887
 30
0.0
 10
14.3021933612
 20
6.9523442366
 30
0.0
 10
14.2982164691
 20
6.9572379873
 30
0.0
 10
14.2940501286
 20
6.9619414174
 30
0.0
 10
14.2897399377
 20
6.966403374
 30
0.0
 10
14.2853340317
 20
6.9705726172
 30
0.0
 10
14.282308429
 20
6.9731773483
 30
0.0
 10
14.280788525
 20
6.9744183952
 30
0.0
  0
SPLINE
  5
49D
100
AcDbEntity
  8
0
100
AcDbSpline
 62
7
  6
CONTINUOUS
 70
0
 71
3
 72
16
 73
12
 74
0
 42
0.0000001
 43
0.0000001
 44
0.0000000001
 40
0.0
 40
0.0
 40
0.0
 40
0.0
 40
0.126784905
 40
0.2533560792
 40
0.3164775725
 40
0.3794275767
 40
0.5047699712
 40
0.6293716858
 40
0.7532546959
 40
0.8766784542
 40
1.0
 40
1.0
 40
1.0
 40
1.0
 10
14.7042340891
 20
7.2888009296
 30
0.0
 10
14.7015992629
 20
7.2880599275
 30
0.0
 10
14.6964011176
 20
7.2863302822
 30
0.0
 10
14.6901263683
 20
7.283605858
 30
0.0
 10
14.6852687018
 20
7.2811229387
 30
0.0
 10
14.6805403938
 20
7.2784554476
 30
0.0
 10
14.6748645339
 20
7.2747783314
 30
0.0
 10
14.6684611684
 20
7.2698526748
 30
0.0
 10
14.6625070644
 20
7.2644529372
 30
0.0
 10
14.6570409981
 20
7.2585977225
 30
0.0
 10
14.6537452008
 20
7.2544030347
 30
0.0
 10
14.6521932534
 20
7.252239898
 30
0.0
  0
SPLINE
  5
49E
100
AcDbEntity
  8
0
100
AcDbSpline
 62
7
  6
CONTINUOUS
 70
0
 71
3
 72
15
 73
11
 74
0
 42
0.0000001
 43
0.0000001
 44
0.0000000001
 40
0.0
 40
0.0
 40
0.0
 40
0.0
 40
0.1224715998
 40
0.2480001172
 40
0.3754410595
 40
0.5036100814
 40
0.6313009901
 40
0.7573702346
 40
0.8806919062
 40
1.0
 40
1.0
 40
1.0
 40
1.0
 10
14.8499566814
 20
7.3757755364
 30
0.0
 10
14.8489441122
 20
7.377516772
 30
0.0
 10
14.8468073147
 20
7.3809931004
 30
0.0
 10
14.8433384049
 20
7.3861036407
 30
0.0
 10
14.8395945149
 20
7.3911336886
 30
0.0
 10
14.8356176228
 20
7.3960274393
 30
0.0
 10
14.8314512823
 20
7.4007308694
 30
0.0
 10
14.8271410914
 20
7.405192826
 30
0.0
 10
14.8227351854
 20
7.4093620692
 30
0.0
 10
14.8197095827
 20
7.4119668003
 30
0.0
 10
14.8181896787
 20
7.4132078472
 30
0.0
  0
SPLINE
  5
49F
100
AcDbEntity
  8
0
100
AcDbSpline
 62
7
  6
CONTINUOUS
 70
0
 71
3
 72
12
 73
8
 74
0
 42
0.0000001
 43
0.0000001
 44
0.0000000001
 40
0.0
 40
0.0
 40
0.0
 40
0.0
 40
0.1184486558
 40
0.2401891403
 40
0.4905285876
 40
0.7456128667
 40
1.0
 40
1.0
 40
1.0
 40
1.0
 10
15.033777176
 20
7.5892356044
 30
0.0
 10
15.0349387162
 20
7.5882871707
 30
0.0
 10
15.0372551425
 20
7.5863157723
 30
0.0
 10
15.041830951
 20
7.5821156151
 30
0.0
 10
15.0473854831
 20
7.5764319484
 30
0.0
 10
15.0536354193
 20
7.5691113223
 30
0.0
 10
15.0574935416
 20
7.5639352527
 30
0.0
 10
15.0593280686
 20
7.5612882739
 30
0.0
  0
SPLINE
  5
4A0
100
AcDbEntity
  8
0
100
AcDbSpline
 62
7
  6
CONTINUOUS
 70
0
 71
3
 72
15
 73
11
 74
0
 42
0.0000001
 43
0.0000001
 44
0.0000000001
 40
0.0
 40
0.0
 40
0.0
 40
0.0
 40
0.1490371104
 40
0.2933757116
 40
0.4317409865
 40
0.5629792783
 40
0.6860786551
 40
0.8002727949
 40
0.9050215174
 40
1.0
 40
1.0
 40
1.0
 40
1.0
 10
15.061452815
 20
7.5581305577
 30
0.0
 10
15.0625761541
 20
7.5564098257
 30
0.0
 10
15.0647104597
 20
7.5529715054
 30
0.0
 10
15.0676014218
 20
7.5477649447
 30
0.0
 10
15.0701081117
 20
7.5426341738
 30
0.0
 10
15.0722027566
 20
7.5376374636
 30
0.0
 10
15.0738618742
 20
7.5328304073
 30
0.0
 10
15.0750677775
 20
7.5282656238
 30
0.0
 10
15.0758048618
 20
7.5239945497
 30
0.0
 10
15.0759891496
 20
7.521239309
 30
0.0
 10
15.0759881465
 20
7.5199297308
 30
0.0
  0
SPLINE
  5
4A1
100
AcDbEntity
  8
0
100
AcDbSpline
 62
7
  6
CONTINUOUS
 70
0
 71
3
 72
49
 73
45
 74
0
 42
0.0000001
 43
0.0000001
 44
0.0000000001
 40
0.0
 40
0.0
 40
0.0
 40
0.0
 40
0.0105349348
 40
0.0212644451
 40
0.0322888791
 40
0.0436921102
 40
0.0555308792
 40
0.0678432293
 40
0.0806433543
 40
0.0939189041
 40
0.1217689646
 40
0.1511420719
 40
0.1662992388
 40
0.181713581
 40
0.1973412328
 40
0.2131394336
 40
0.2290851902
 40
0.2451542283
 40
0.2775326941
 40
0.310124767
 40
0.3428192134
 40
0.4080835447
 40
0.4405844328
 40
0.4729257799
 40
0.5051008511
 40
0.5371045009
 40
0.5689753491
 40
0.6007775591
 40
0.632592933
 40
0.6645440303
 40
0.6967736895
 40
0.7294269444
 40
0.7626409305
 40
0.7965125912
 40
0.8136925843
 40
0.8310238113
 40
0.8484833488
 40
0.8660231485
 40
0.8835896681
 40
0.9011224222
 40
0.9185334767
 40
0.9357220922
 40
0.9689987636
 40
1.0
 40
1.0
 40
1.0
 40
1.0
 10
15.0260232215
 20
7.4791332385
 30
0.0
 10
15.0260477215
 20
7.4799097026
 30
0.0
 10
15.0259820413
 20
7.4814827798
 30
0.0
 10
15.0255470517
 20
7.4838310547
 30
0.0
 10
15.0247783143
 20
7.4861597393
 30
0.0
 10
15.0236823772
 20
7.4884436323
 30
0.0
 10
15.0222730286
 20
7.4906612298
 30
0.0
 10
15.0205623013
 20
7.4927887435
 30
0.0
 10
15.0185676817
 20
7.4948039858
 30
0.0
 10
15.0155107977
 20
7.4973552769
 30
0.0
 10
15.0110795624
 20
7.5001250374
 30
0.0
 10
15.0061500014
 20
7.5022227395
 30
0.0
 10
15.0019208828
 20
7.5035181369
 30
0.0
 10
14.9986022224
 20
7.5042988102
 30
0.0
 10
14.9951947432
 20
7.5048769679
 30
0.0
 10
14.991719723
 20
7.5052521689
 30
0.0
 10
14.9881966119
 20
7.5054302544
 30
0.0
 10
14.9834463433
 20
7.5054135426
 30
0.0
 10
14.9774794034
 20
7.5049286375
 30
0.0
 10
14.9703787532
 20
7.5036676536
 30
0.0
 10
14.9610726493
 20
7.5011673783
 30
0.0
 10
14.9521107356
 20
7.4975459779
 30
0.0
 10
14.9436597236
 20
7.4929923477
 30
0.0
 10
14.9376160218
 20
7.4891517573
 30
0.0
 10
14.9318918041
 20
7.4849121417
 30
0.0
 10
14.9265088961
 20
7.4802996035
 30
0.0
 10
14.9214932631
 20
7.4753288045
 30
0.0
 10
14.916867972
 20
7.4700109249
 30
0.0
 10
14.9126537302
 20
7.4643539686
 30
0.0
 10
14.9088730061
 20
7.4583607984
 30
0.0
 10
14.9055478011
 20
7.4520332771
 30
0.0
 10
14.902696013
 20
7.4453772974
 30
0.0
 10
14.9003324026
 20
7.4384050424
 30
0.0
 10
14.8987877082
 20
7.4323801522
 30
0.0
 10
14.8977916795
 20
7.4274361494
 30
0.0
 10
14.8971627451
 20
7.423654992
 30
0.0
 10
14.8966529777
 20
7.4198293206
 30
0.0
 10
14.8962550521
 20
7.4159730436
 30
0.0
 10
14.8959627821
 20
7.4121019744
 30
0.0
 10
14.8957703156
 20
7.4082342474
 30
0.0
 10
14.8956659542
 20
7.404391113
 30
0.0
 10
14.895628142
 20
7.3993857577
 30
0.0
 10
14.8957347373
 20
7.3933784127
 30
0.0
 10
14.895922947
 20
7.3886421002
 30
0.0
 10
14.8960264712
 20
7.3863584011
 30
0.0
  0
SPLINE
  5
4A2
100
AcDbEntity
  8
0
100
AcDbSpline
 62
7
  6
CONTINUOUS
 70
0
 71
3
 72
11
 73
7
 74
0
 42
0.0000001
 43
0.0000001
 44
0.0000000001
 40
0.0
 40
0.0
 40
0.0
 40
0.0
 40
0.2869401788
 40
0.5444457246
 40
0.7787032734
 40
1.0
 40
1.0
 40
1.0
 40
1.0
 10
15.6626564943
 20
6.7867124182
 30
0.0
 10
15.6626457752
 20
6.7863200709
 30
0.0
 10
15.662575689
 20
6.7855751823
 30
0.0
 10
15.6622916941
 20
6.7845416419
 30
0.0
 10
15.6618311203
 20
6.7836716507
 30
0.0
 10
15.6614013408
 20
6.7832082404
 30
0.0
 10
15.6611668853
 20
6.7830167734
 30
0.0
  0
SPLINE
  5
4A3
100
AcDbEntity
  8
0
100
AcDbSpline
 62
7
  6
CONTINUOUS
 70
0
 71
3
 72
11
 73
7
 74
0
 42
0.0000001
 43
0.0000001
 44
0.0000000001
 40
0.0
 40
0.0
 40
0.0
 40
0.0
 40
0.2869464724
 40
0.5444454776
 40
0.7786960406
 40
1.0
 40
1.0
 40
1.0
 40
1.0
 10
14.8249685373
 20
6.1258266894
 30
0.0
 10
14.8249792567
 20
6.125434333
 30
0.0
 10
14.8250493254
 20
6.1246894443
 30
0.0
 10
14.8253333023
 20
6.1236559015
 30
0.0
 10
14.8257939273
 20
6.1227859487
 30
0.0
 10
14.8262236876
 20
6.1223225237
 30
0.0
 10
14.8264581483
 20
6.122131047
 30
0.0
  0
SPLINE
  5
4A4
100
AcDbEntity
  8
0
100
AcDbSpline
 62
7
  6
CONTINUOUS
 70
0
 71
3
 72
15
 73
11
 74
0
 42
0.0000001
 43
0.0000001
 44
0.0000000001
 40
0.0
 40
0.0
 40
0.0
 40
0.0
 40
0.1204311128
 40
0.2446618756
 40
0.3715805169
 40
0.5
 40
0.6284194831
 40
0.7553381244
 40
0.8795688872
 40
1.0
 40
1.0
 40
1.0
 40
1.0
 10
14.8532460777
 20
6.1258266894
 30
0.0
 10
14.8523062625
 20
6.1250433302
 30
0.0
 10
14.8502360846
 20
6.1236369609
 30
0.0
 10
14.8467679434
 20
6.1221008149
 30
0.0
 10
14.8430102863
 20
6.1211567905
 30
0.0
 10
14.8391073075
 20
6.1208377257
 30
0.0
 10
14.8352043287
 20
6.1211567905
 30
0.0
 10
14.8314466716
 20
6.1221008149
 30
0.0
 10
14.8279785304
 20
6.1236369609
 30
0.0
 10
14.8259083525
 20
6.1250433302
 30
0.0
 10
14.8249685373
 20
6.1258266894
 30
0.0
  0
SPLINE
  5
4A5
100
AcDbEntity
  8
0
100
AcDbSpline
 62
7
  6
CONTINUOUS
 70
0
 71
3
 72
12
 73
8
 74
0
 42
0.0000001
 43
0.0000001
 44
0.0000000001
 40
0.0
 40
0.0
 40
0.0
 40
0.0
 40
0.2614324166
 40
0.3888892891
 40
0.5141261951
 40
0.7590290946
 40
1.0
 40
1.0
 40
1.0
 40
1.0
 10
14.2524388924
 20
6.5932986467
 30
0.0
 10
14.2515835258
 20
6.5939824817
 30
0.0
 10
14.2503994489
 20
6.5951204153
 30
0.0
 10
14.2490851207
 20
6.5968301754
 30
0.0
 10
14.2479909762
 20
6.5986082573
 30
0.0
 10
14.2470028839
 20
6.6009925805
 30
0.0
 10
14.2466603403
 20
6.6030194778
 30
0.0
 10
14.2466062588
 20
6.604027434
 30
0.0
  0
SPLINE
  5
4A6
100
AcDbEntity
  8
0
100
AcDbSpline
 62
7
  6
CONTINUOUS
 70
0
 71
3
 72
15
 73
11
 74
0
 42
0.0000001
 43
0.0000001
 44
0.0000000001
 40
0.0
 40
0.0
 40
0.0
 40
0.0
 40
0.2542197265
 40
0.3809210658
 40
0.5070924235
 40
0.6324697394
 40
0.7567289716
 40
0.818318227
 40
0.8794837838
 40
1.0
 40
1.0
 40
1.0
 40
1.0
 10
15.033777176
 20
7.5892356044
 30
0.0
 10
15.0366598983
 20
7.5882464276
 30
0.0
 10
15.0409796441
 20
7.586763835
 30
0.0
 10
15.0466773434
 20
7.5846426073
 30
0.0
 10
15.0508840661
 20
7.582947438
 30
0.0
 10
15.0549981733
 20
7.5811078814
 30
0.0
 10
15.0583266385
 20
7.5794167514
 30
0.0
 10
15.0608967637
 20
7.5779442537
 30
0.0
 10
15.063370526
 20
7.576399081
 30
0.0
 10
15.065141991
 20
7.5751229472
 30
0.0
 10
15.0662611417
 20
7.5742091779
 30
0.0
  0
SPLINE
  5
4A7
100
AcDbEntity
  8
0
100
AcDbSpline
 62
7
  6
CONTINUOUS
 70
0
 71
3
 72
17
 73
13
 74
0
 42
0.0000001
 43
0.0000001
 44
0.0000000001
 40
0.0
 40
0.0
 40
0.0
 40
0.0
 40
0.1197911008
 40
0.2439641913
 40
0.3072925771
 40
0.3712069237
 40
0.4999999996
 40
0.6287930754
 40
0.6927074219
 40
0.7560358075
 40
0.8802088982
 40
1.0
 40
1.0
 40
1.0
 40
1.0
 10
15.0759881465
 20
7.5199297308
 30
0.0
 10
15.0764589465
 20
7.5203124484
 30
0.0
 10
15.0774964501
 20
7.520998566
 30
0.0
 10
15.0789322688
 20
7.5216191243
 30
0.0
 10
15.0801564721
 20
7.5219742448
 30
0.0
 10
15.0814285003
 20
7.5222330398
 30
0.0
 10
15.083059147
 20
7.5223619345
 30
0.0
 10
15.0846897937
 20
7.5222330398
 30
0.0
 10
15.0859618219
 20
7.5219742448
 30
0.0
 10
15.0871860252
 20
7.5216191244
 30
0.0
 10
15.0886218439
 20
7.520998566
 30
0.0
 10
15.0896593476
 20
7.5203124484
 30
0.0
 10
15.0901301475
 20
7.5199297308
 30
0.0
  0
SPLINE
  5
4A8
100
AcDbEntity
  8
0
100
AcDbSpline
 62
7
  6
CONTINUOUS
 70
0
 71
3
 72
15
 73
11
 74
0
 42
0.0000001
 43
0.0000001
 44
0.0000000001
 40
0.0
 40
0.0
 40
0.0
 40
0.0
 40
0.2542197265
 40
0.3809210658
 40
0.5070924235
 40
0.6324697394
 40
0.7567289716
 40
0.818318227
 40
0.8794837838
 40
1.0
 40
1.0
 40
1.0
 40
1.0
 10
14.4963760223
 20
7.1504461524
 30
0.0
 10
14.4992587446
 20
7.1494569757
 30
0.0
 10
14.5035784904
 20
7.147974383
 30
0.0
 10
14.5092761897
 20
7.1458531554
 30
0.0
 10
14.5134829124
 20
7.144157986
 30
0.0
 10
14.5175970196
 20
7.1423184294
 30
0.0
 10
14.5209254848
 20
7.1406272995
 30
0.0
 10
14.52349561
 20
7.1391548017
 30
0.0
 10
14.5259693723
 20
7.1376096291
 30
0.0
 10
14.5277408373
 20
7.1363334953
 30
0.0
 10
14.528859988
 20
7.1354197259
 30
0.0
  0
SPLINE
  5
4A9
100
AcDbEntity
  8
0
100
AcDbSpline
 62
7
  6
CONTINUOUS
 70
0
 71
3
 72
17
 73
13
 74
0
 42
0.0000001
 43
0.0000001
 44
0.0000000001
 40
0.0
 40
0.0
 40
0.0
 40
0.0
 40
0.1197911008
 40
0.2439641913
 40
0.3072925771
 40
0.3712069237
 40
0.4999999996
 40
0.6287930754
 40
0.6927074219
 40
0.7560358075
 40
0.8802088982
 40
1.0
 40
1.0
 40
1.0
 40
1.0
 10
14.5385869928
 20
7.0811402789
 30
0.0
 10
14.5390577928
 20
7.0815229964
 30
0.0
 10
14.5400952964
 20
7.082209114
 30
0.0
 10
14.5415311151
 20
7.0828296724
 30
0.0
 10
14.5427553184
 20
7.0831847928
 30
0.0
 10
14.5440273466
 20
7.0834435879
 30
0.0
 10
14.5456579933
 20
7.0835724825
 30
0.0
 10
14.54728864
 20
7.0834435879
 30
0.0
 10
14.5485606682
 20
7.0831847928
 30
0.0
 10
14.5497848715
 20
7.0828296724
 30
0.0
 10
14.5512206902
 20
7.0822091141
 30
0.0
 10
14.5522581939
 20
7.0815229964
 30
0.0
 10
14.5527289938
 20
7.0811402789
 30
0.0
  0
SPLINE
  5
4AA
100
AcDbEntity
  8
0
100
AcDbSpline
 62
7
  6
CONTINUOUS
 70
0
 71
3
 72
16
 73
12
 74
0
 42
0.0000001
 43
0.0000001
 44
0.0000000001
 40
0.0
 40
0.0
 40
0.0
 40
0.0
 40
0.173393413
 40
0.334114857
 40
0.4805484135
 40
0.611539383
 40
0.7269975297
 40
0.8279568717
 40
0.9171891704
 40
0.9590350682
 40
1.0
 40
1.0
 40
1.0
 40
1.0
 10
11.417495054
 20
4.176066131
 30
0.0
 10
11.4166470616
 20
4.1777792402
 30
0.0
 10
11.4151199139
 20
4.1811351171
 30
0.0
 10
11.413299941
 20
4.1861163569
 30
0.0
 10
11.412051879
 20
4.1907906838
 30
0.0
 10
11.4114037887
 20
4.195084173
 30
0.0
 10
11.4113648365
 20
4.1989297314
 30
0.0
 10
11.4119413523
 20
4.2022732267
 30
0.0
 10
11.4129867362
 20
4.204647095
 30
0.0
 10
11.4141298594
 20
4.2061689943
 30
0.0
 10
11.4147902976
 20
4.2068061434
 30
0.0
 10
11.4151398973
 20
4.2070920152
 30
0.0
  0
SPLINE
  5
4AB
100
AcDbEntity
  8
0
100
AcDbSpline
 62
7
  6
CONTINUOUS
 70
0
 71
3
 72
12
 73
8
 74
0
 42
0.0000001
 43
0.0000001
 44
0.0000000001
 40
0.0
 40
0.0
 40
0.0
 40
0.0
 40
0.332062915
 40
0.6195806615
 40
0.7422685527
 40
0.8480590166
 40
1.0
 40
1.0
 40
1.0
 40
1.0
 10
14.6289283822
 20
6.7020594994
 30
0.0
 10
14.630920741
 20
6.7036862655
 30
0.0
 10
14.634725891
 20
6.7066163063
 30
0.0
 10
14.639502704
 20
6.7098259954
 30
0.0
 10
14.6429534519
 20
6.7118453495
 30
0.0
 10
14.6455543437
 20
6.7132305377
 30
0.0
 10
14.6473750028
 20
6.7140606553
 30
0.0
 10
14.6484766102
 20
6.7144749101
 30
0.0
  0
SPLINE
  5
4AC
100
AcDbEntity
  8
0
100
AcDbSpline
 62
7
  6
CONTINUOUS
 70
0
 71
3
 72
17
 73
13
 74
0
 42
0.0000001
 43
0.0000001
 44
0.0000000001
 40
0.0
 40
0.0
 40
0.0
 40
0.0
 40
0.1349667803
 40
0.2660890161
 40
0.3928552299
 40
0.5159543723
 40
0.576617781
 40
0.6369276269
 40
0.7568830445
 40
0.8771732353
 40
0.9381054414
 40
1.0
 40
1.0
 40
1.0
 40
1.0
 10
14.5656825482
 20
6.779518937
 30
0.0
 10
14.5692549773
 20
6.7824358348
 30
0.0
 10
14.5764694351
 20
6.7879813247
 30
0.0
 10
14.5876323195
 20
6.7954563842
 30
0.0
 10
14.5989569216
 20
6.8019045675
 30
0.0
 10
14.6086093785
 20
6.8063525244
 30
0.0
 10
14.6164264591
 20
6.8092698122
 30
0.0
 10
14.6242829868
 20
6.8117413984
 30
0.0
 10
14.6343352149
 20
6.8139734449
 30
0.0
 10
14.6446289978
 20
6.8148487192
 30
0.0
 10
14.6529401127
 20
6.814593012
 30
0.0
 10
14.6571165175
 20
6.8141192656
 30
0.0
 10
14.6592060902
 20
6.813792152
 30
0.0
  0
SPLINE
  5
4AD
100
AcDbEntity
  8
0
100
AcDbSpline
 62
7
  6
CONTINUOUS
 70
0
 71
3
 72
9
 73
5
 74
0
 42
0.0000001
 43
0.0000001
 44
0.0000000001
 40
0.0
 40
0.0
 40
0.0
 40
0.0
 40
0.4946662677
 40
1.0
 40
1.0
 40
1.0
 40
1.0
 10
11.4783851522
 20
4.1296332674
 30
0.0
 10
11.4780368334
 20
4.129348443
 30
0.0
 10
11.4772843079
 20
4.1288294095
 30
0.0
 10
11.4764586358
 20
4.1284381623
 30
0.0
 10
11.4760299955
 20
4.1282721977
 30
0.0
  0
SPLINE
  5
4AE
100
AcDbEntity
  8
0
100
AcDbSpline
 62
7
  6
CONTINUOUS
 70
0
 71
3
 72
22
 73
18
 74
0
 42
0.0000001
 43
0.0000001
 44
0.0000000001
 40
0.0
 40
0.0
 40
0.0
 40
0.0
 40
0.0738523541
 40
0.1506861634
 40
0.3084295047
 40
0.464492828
 40
0.5394071795
 40
0.6109327232
 40
0.6781645599
 40
0.7403943075
 40
0.7970643971
 40
0.8478168198
 40
0.8926958691
 40
0.9321423938
 40
0.9672492408
 40
0.9837857477
 40
1.0
 40
1.0
 40
1.0
 40
1.0
 10
14.5973054652
 20
6.7696563043
 30
0.0
 10
14.5988352912
 20
6.7684071974
 30
0.0
 10
14.6018753199
 20
6.7657575945
 30
0.0
 10
14.6077823313
 20
6.7599961227
 30
0.0
 10
14.6146640801
 20
6.752109809
 30
0.0
 10
14.6206811492
 20
6.7436072787
 30
0.0
 10
14.624786288
 20
6.736631958
 30
0.0
 10
14.6273879654
 20
6.7315401189
 30
0.0
 10
14.6295079847
 20
6.7265959736
 30
0.0
 10
14.6311155447
 20
6.7218791739
 30
0.0
 10
14.6321888877
 20
6.7174632577
 30
0.0
 10
14.6327043345
 20
6.7134126382
 30
0.0
 10
14.6326575888
 20
6.7097856438
 30
0.0
 10
14.6320403986
 20
6.706629759
 30
0.0
 10
14.6310062563
 20
6.7043886595
 30
0.0
 10
14.6298991535
 20
6.7029432751
 30
0.0
 10
14.6292637709
 20
6.7023343327
 30
0.0
 10
14.6289280974
 20
6.7020598481
 30
0.0
  0
SPLINE
  5
4AF
100
AcDbEntity
  8
0
100
AcDbSpline
 62
7
  6
CONTINUOUS
 70
0
 71
3
 72
10
 73
6
 74
0
 42
0.0000001
 43
0.0000001
 44
0.0000000001
 40
0.0
 40
0.0
 40
0.0
 40
0.0
 40
0.2480441805
 40
0.4972885667
 40
1.0
 40
1.0
 40
1.0
 40
1.0
 10
14.6592060835
 20
6.8137921086
 30
0.0
 10
14.6609575035
 20
6.813518075
 30
0.0
 10
14.6644374401
 20
6.8127305895
 30
0.0
 10
14.6711438636
 20
6.8102196478
 30
0.0
 10
14.6757737925
 20
6.8073354383
 30
0.0
 10
14.6785567483
 20
6.8050631476
 30
0.0
  0
SPLINE
  5
4B0
100
AcDbEntity
  8
0
100
AcDbSpline
 62
7
  6
CONTINUOUS
 70
0
 71
3
 72
22
 73
18
 74
0
 42
0.0000001
 43
0.0000001
 44
0.0000000001
 40
0.0
 40
0.0
 40
0.0
 40
0.0
 40
0.0603143235
 40
0.1216373864
 40
0.1838699139
 40
0.2469584249
 40
0.3107980935
 40
0.3751875624
 40
0.4398785883
 40
0.5046272281
 40
0.5691742527
 40
0.6332831951
 40
0.696731998
 40
0.7593339415
 40
0.821011337
 40
0.881754881
 40
1.0
 40
1.0
 40
1.0
 40
1.0
 10
14.6820547081
 20
6.8018697732
 30
0.0
 10
14.6835434683
 20
6.8003549763
 30
0.0
 10
14.6863315013
 20
6.7970815566
 30
0.0
 10
14.6898235212
 20
6.7916064248
 30
0.0
 10
14.6925896979
 20
6.7856230965
 30
0.0
 10
14.6945892622
 20
6.7792501738
 30
0.0
 10
14.6957781684
 20
6.7726009823
 30
0.0
 10
14.6961470949
 20
6.7658005446
 30
0.0
 10
14.6956799909
 20
6.7589739334
 30
0.0
 10
14.6943877211
 20
6.7522492488
 30
0.0
 10
14.6922978921
 20
6.7457492433
 30
0.0
 10
14.6894405153
 20
6.7395985161
 30
0.0
 10
14.6858805196
 20
6.733905797
 30
0.0
 10
14.6816738406
 20
6.728782786
 30
0.0
 10
14.6768980175
 20
6.7243191361
 30
0.0
 10
14.6699640127
 20
6.7194175188
 30
0.0
 10
14.6640678266
 20
6.7168810442
 30
0.0
 10
14.6600379798
 20
6.7158330113
 30
0.0
  0
SPLINE
  5
4B1
100
AcDbEntity
  8
0
100
AcDbSpline
 62
7
  6
CONTINUOUS
 70
0
 71
3
 72
12
 73
8
 74
0
 42
0.0000001
 43
0.0000001
 44
0.0000000001
 40
0.0
 40
0.0
 40
0.0
 40
0.0
 40
0.1041542578
 40
0.2107872792
 40
0.439493806
 40
0.7000867328
 40
1.0
 40
1.0
 40
1.0
 40
1.0
 10
11.4151398973
 20
4.2070920152
 30
0.0
 10
11.4155062968
 20
4.2073916243
 30
0.0
 10
11.4163018204
 20
4.2079351061
 30
0.0
 10
11.418124174
 20
4.2087717369
 30
0.0
 10
11.4208222591
 20
4.2092935372
 30
0.0
 10
11.4244275641
 20
4.2090962262
 30
0.0
 10
11.4269146873
 20
4.2084900428
 30
0.0
 10
11.428215192
 20
4.2080824661
 30
0.0
  0
SPLINE
  5
4B2
100
AcDbEntity
  8
0
100
AcDbSpline
 62
7
  6
CONTINUOUS
 70
0
 71
3
 72
11
 73
7
 74
0
 42
0.0000001
 43
0.0000001
 44
0.0000000001
 40
0.0
 40
0.0
 40
0.0
 40
0.0
 40
0.2144159666
 40
0.4545106004
 40
0.7177933676
 40
1.0
 40
1.0
 40
1.0
 40
1.0
 10
11.428215192
 20
4.2080824661
 30
0.0
 10
11.4296885471
 20
4.2076207182
 30
0.0
 10
11.4327408559
 20
4.2064111047
 30
0.0
 10
11.4373142661
 20
4.2039866531
 30
0.0
 10
11.4420621284
 20
4.2008995354
 30
0.0
 10
11.4451884103
 20
4.198514996
 30
0.0
 10
11.4467625248
 20
4.1972297275
 30
0.0
  0
SPLINE
  5
4B3
100
AcDbEntity
  8
0
100
AcDbSpline
 62
7
  6
CONTINUOUS
 70
0
 71
3
 72
16
 73
12
 74
0
 42
0.0000001
 43
0.0000001
 44
0.0000000001
 40
0.0
 40
0.0
 40
0.0
 40
0.0
 40
0.0401954676
 40
0.0813428551
 40
0.1695692581
 40
0.2700513307
 40
0.3856571648
 40
0.5173050462
 40
0.6647809663
 40
0.826556586
 40
1.0
 40
1.0
 40
1.0
 40
1.0
 10
14.565682833
 20
6.7795185882
 30
0.0
 10
14.5660483079
 20
6.7798174418
 30
0.0
 10
14.5668416336
 20
6.7803596831
 30
0.0
 10
14.5686584
 20
6.7811951266
 30
0.0
 10
14.5713473299
 20
6.7817183896
 30
0.0
 10
14.5749413581
 20
6.7815265883
 30
0.0
 10
14.578927955
 20
6.7805614502
 30
0.0
 10
14.5832503477
 20
6.778853635
 30
0.0
 10
14.5878347999
 20
6.7764270116
 30
0.0
 10
14.5925936527
 20
6.7733346003
 30
0.0
 10
14.5957275057
 20
6.7709447124
 30
0.0
 10
14.5973054652
 20
6.7696563043
 30
0.0
  0
SPLINE
  5
4B4
100
AcDbEntity
  8
0
100
AcDbSpline
 62
7
  6
CONTINUOUS
 70
0
 71
3
 72
10
 73
6
 74
0
 42
0.0000001
 43
0.0000001
 44
0.0000000001
 40
0.0
 40
0.0
 40
0.0
 40
0.0
 40
0.239441176
 40
0.4889918551
 40
1.0
 40
1.0
 40
1.0
 40
1.0
 10
11.4467625248
 20
4.1972297275
 30
0.0
 10
11.4484266154
 20
4.1958709931
 30
0.0
 10
11.4517289601
 20
4.1929766256
 30
0.0
 10
11.4581098394
 20
4.1866644359
 30
0.0
 10
11.4625406946
 20
4.1814487793
 30
0.0
 10
11.4653098575
 20
4.1777945743
 30
0.0
  0
SPLINE
  5
4B5
100
AcDbEntity
  8
0
100
AcDbSpline
 62
7
  6
CONTINUOUS
 70
0
 71
3
 72
9
 73
5
 74
0
 42
0.0000001
 43
0.0000001
 44
0.0000000001
 40
0.0
 40
0.0
 40
0.0
 40
0.0
 40
0.2541297537
 40
1.0
 40
1.0
 40
1.0
 40
1.0
 10
11.4653098575
 20
4.1777945743
 30
0.0
 10
11.4659642756
 20
4.1769310001
 30
0.0
 10
11.4684938474
 20
4.1734986738
 30
0.0
 10
11.4708395115
 20
4.1699298419
 30
0.0
 10
11.4724649958
 20
4.167196513
 30
0.0
  0
SPLINE
  5
4B6
100
AcDbEntity
  8
0
100
AcDbSpline
 62
7
  6
CONTINUOUS
 70
0
 71
3
 72
15
 73
11
 74
0
 42
0.0000001
 43
0.0000001
 44
0.0000000001
 40
0.0
 40
0.0
 40
0.0
 40
0.0
 40
0.1647592291
 40
0.3207813705
 40
0.4660973901
 40
0.5992271365
 40
0.7190256867
 40
0.825137456
 40
0.918174609
 40
1.0
 40
1.0
 40
1.0
 40
1.0
 10
11.4724649958
 20
4.167196513
 30
0.0
 10
11.4735009017
 20
4.1654545882
 30
0.0
 10
11.4754212908
 20
4.1620042863
 30
0.0
 10
11.4778841372
 20
4.1568220174
 30
0.0
 10
11.479819059
 20
4.1518343907
 30
0.0
 10
11.481200657
 20
4.1471272288
 30
0.0
 10
11.4820024953
 20
4.1427743374
 30
0.0
 10
11.4822085476
 20
4.1388423149
 30
0.0
 10
11.4818186243
 20
4.1353892891
 30
0.0
 10
11.4811031859
 20
4.1333318085
 30
0.0
 10
11.480637018
 20
4.1324397501
 30
0.0
  0
SPLINE
  5
4B7
100
AcDbEntity
  8
0
100
AcDbSpline
 62
7
  6
CONTINUOUS
 70
0
 71
3
 72
9
 73
5
 74
0
 42
0.0000001
 43
0.0000001
 44
0.0000000001
 40
0.0
 40
0.0
 40
0.0
 40
0.0
 40
0.5088936237
 40
1.0
 40
1.0
 40
1.0
 40
1.0
 10
11.480637018
 20
4.1324397501
 30
0.0
 10
11.4803528592
 20
4.1318959842
 30
0.0
 10
11.4796965258
 20
4.1308745181
 30
0.0
 10
11.4788435118
 20
4.1300080733
 30
0.0
 10
11.4783851522
 20
4.1296332674
 30
0.0
  0
SPLINE
  5
4B8
100
AcDbEntity
  8
0
100
AcDbSpline
 62
7
  6
CONTINUOUS
 70
0
 71
3
 72
32
 73
28
 74
0
 42
0.0000001
 43
0.0000001
 44
0.0000000001
 40
0.0
 40
0.0
 40
0.0
 40
0.0
 40
0.0213270328
 40
0.0428830301
 40
0.0648833703
 40
0.0875228817
 40
0.1109678983
 40
0.135348768
 40
0.1607662955
 40
0.187286683
 40
0.2437110981
 40
0.273646754
 40
0.3046744475
 40
0.3367410861
 40
0.3697727025
 40
0.4383543856
 40
0.5096246061
 40
0.5459836006
 40
0.5826501683
 40
0.6563643524
 40
0.7297258015
 40
0.7659541642
 40
0.801704522
 40
0.8712728328
 40
0.937618368
 40
0.9693563054
 40
1.0
 40
1.0
 40
1.0
 40
1.0
 10
11.5717196848
 20
7.5496403515
 30
0.0
 10
11.5712282269
 20
7.549356685
 30
0.0
 10
11.5702755212
 20
7.5487221727
 30
0.0
 10
11.5689682706
 20
7.5475880905
 30
0.0
 10
11.5677857515
 20
7.5462770766
 30
0.0
 10
11.5667351803
 20
7.5447965485
 30
0.0
 10
11.5658219861
 20
7.5431551411
 30
0.0
 10
11.565049871
 20
7.5413625226
 30
0.0
 10
11.5644233861
 20
7.539428029
 30
0.0
 10
11.5637726117
 20
7.5366163463
 30
0.0
 10
11.5634488287
 20
7.5336176207
 30
0.0
 10
11.5634192746
 20
7.5304932569
 30
0.0
 10
11.5635492297
 20
7.5280197323
 30
0.0
 10
11.5638318304
 20
7.5254764388
 30
0.0
 10
11.5644163843
 20
7.5219664698
 30
0.0
 10
11.5655253145
 20
7.5174939317
 30
0.0
 10
11.5670754452
 20
7.5130621334
 30
0.0
 10
11.5685789007
 20
7.5095283544
 30
0.0
 10
11.5702615734
 20
7.5060040702
 30
0.0
 10
11.5726494029
 20
7.5017309305
 30
0.0
 10
11.5753830974
 20
7.4976842231
 30
0.0
 10
11.5777537499
 20
7.4946275967
 30
0.0
 10
11.5801924552
 20
7.4917562673
 30
0.0
 10
11.5833841628
 20
7.4884792069
 30
0.0
 10
11.5868042662
 20
7.4856014076
 30
0.0
 10
11.5896025906
 20
7.4836237811
 30
0.0
 10
11.59101331
 20
7.4827468497
 30
0.0
 10
11.5917194149
 20
7.4823391859
 30
0.0
  0
SPLINE
  5
4B9
100
AcDbEntity
  8
0
100
AcDbSpline
 62
7
  6
CONTINUOUS
 70
0
 71
3
 72
21
 73
17
 74
0
 42
0.0000001
 43
0.0000001
 44
0.0000000001
 40
0.0
 40
0.0
 40
0.0
 40
0.0
 40
0.0472959079
 40
0.0952109264
 40
0.1443268704
 40
0.1951500713
 40
0.2481008012
 40
0.3034912567
 40
0.3615407056
 40
0.4223684472
 40
0.4860122818
 40
0.5524353607
 40
0.6215325385
 40
0.693149203
 40
0.8430105418
 40
1.0
 40
1.0
 40
1.0
 40
1.0
 10
11.6866086197
 20
7.4241308014
 30
0.0
 10
11.687459399
 20
7.4246220926
 30
0.0
 10
11.6891041683
 20
7.4257342784
 30
0.0
 10
11.6913354417
 20
7.427750144
 30
0.0
 10
11.6933225367
 20
7.4301036119
 30
0.0
 10
11.6950531494
 20
7.4327758875
 30
0.0
 10
11.6965154938
 20
7.4357488664
 30
0.0
 10
11.6977026514
 20
7.4390013191
 30
0.0
 10
11.6986064132
 20
7.4425120444
 30
0.0
 10
11.6992227871
 20
7.4462575727
 30
0.0
 10
11.699547704
 20
7.4502135455
 30
0.0
 10
11.6995795033
 20
7.4543539742
 30
0.0
 10
11.6993186804
 20
7.4586519348
 30
0.0
 10
11.698570742
 20
7.4646447735
 30
0.0
 10
11.6968976415
 20
7.4723443151
 30
0.0
 10
11.6948919556
 20
7.478407428
 30
0.0
 10
11.6937195932
 20
7.4814504259
 30
0.0
  0
SPLINE
  5
4BA
100
AcDbEntity
  8
0
100
AcDbSpline
 62
7
  6
CONTINUOUS
 70
0
 71
3
 72
34
 73
30
 74
0
 42
0.0000001
 43
0.0000001
 44
0.0000000001
 40
0.0
 40
0.0
 40
0.0
 40
0.0
 40
0.0213267843
 40
0.0428816411
 40
0.0648817607
 40
0.087520564
 40
0.110964205
 40
0.1353452046
 40
0.187232889
 40
0.2148894786
 40
0.2436930246
 40
0.2736275834
 40
0.3046546455
 40
0.336720228
 40
0.3697503232
 40
0.4036598311
 40
0.4383510593
 40
0.5096191721
 40
0.5826246354
 40
0.6194672563
 40
0.6563539429
 40
0.6931516211
 40
0.7297288618
 40
0.8016879459
 40
0.8712571373
 40
0.9048841964
 40
0.9376123091
 40
0.9693493416
 40
1.0
 40
1.0
 40
1.0
 40
1.0
 10
11.3836931251
 20
7.467065416
 30
0.0
 10
11.3829252946
 20
7.4666220244
 30
0.0
 10
11.3814368213
 20
7.4656304869
 30
0.0
 10
11.3793936092
 20
7.463859143
 30
0.0
 10
11.3775465307
 20
7.4618100842
 30
0.0
 10
11.3759048393
 20
7.4594969874
 30
0.0
 10
11.3744776464
 20
7.4569322621
 30
0.0
 10
11.3728361291
 20
7.4531193435
 30
0.0
 10
11.3717017682
 20
7.4489237102
 30
0.0
 10
11.3710333647
 20
7.4444667528
 30
0.0
 10
11.3707589727
 20
7.4408820611
 30
0.0
 10
11.3707236448
 20
7.4371478122
 30
0.0
 10
11.3709268367
 20
7.4332832119
 30
0.0
 10
11.3713683504
 20
7.4293092867
 30
0.0
 10
11.372044661
 20
7.4252471795
 30
0.0
 10
11.372952888
 20
7.4211187876
 30
0.0
 10
11.3744797512
 20
7.4155057856
 30
0.0
 10
11.3769405309
 20
7.4084723372
 30
0.0
 10
11.3800455174
 20
7.4016016676
 30
0.0
 10
11.3829077098
 20
7.3962125984
 30
0.0
 10
11.385233874
 20
7.3922480844
 30
0.0
 10
11.3877208552
 20
7.3883955287
 30
0.0
 10
11.3912129539
 20
7.3834627547
 30
0.0
 10
11.3958806146
 20
7.3777014253
 30
0.0
 10
11.4009695396
 20
7.3724759172
 30
0.0
 10
11.4052072779
 20
7.368734243
 30
0.0
 10
11.4084035188
 20
7.3661980257
 30
0.0
 10
11.4116345909
 20
7.3639147241
 30
0.0
 10
11.413839144
 20
7.3625444551
 30
0.0
 10
11.4149427196
 20
7.3619073149
 30
0.0
  0
SPLINE
  5
4BB
100
AcDbEntity
  8
0
100
AcDbSpline
 62
7
  6
CONTINUOUS
 70
0
 71
3
 72
11
 73
7
 74
0
 42
0.0000001
 43
0.0000001
 44
0.0000000001
 40
0.0
 40
0.0
 40
0.0
 40
0.0
 40
0.2614559027
 40
0.5134555238
 40
0.7585319289
 40
1.0
 40
1.0
 40
1.0
 40
1.0
 10
11.3363113926
 20
7.3312085759
 30
0.0
 10
11.3369848792
 20
7.3301294795
 30
0.0
 10
11.3381822338
 20
7.3279281984
 30
0.0
 10
11.3395069589
 20
7.3244716339
 30
0.0
 10
11.3403069511
 20
7.3209561628
 30
0.0
 10
11.3404858754
 20
7.3185853717
 30
0.0
 10
11.3404858482
 20
7.3174105958
 30
0.0
  0
SPLINE
  5
4BC
100
AcDbEntity
  8
0
100
AcDbSpline
 62
7
  6
CONTINUOUS
 70
0
 71
3
 72
30
 73
26
 74
0
 42
0.0000001
 43
0.0000001
 44
0.0000000001
 40
0.0
 40
0.0
 40
0.0
 40
0.0
 40
0.0306392583
 40
0.0623776322
 40
0.1287331138
 40
0.1983042383
 40
0.2702655813
 40
0.3436302464
 40
0.4173477642
 40
0.490357746
 40
0.5616306269
 40
0.5963237128
 40
0.6302362989
 40
0.6953104067
 40
0.7562467388
 40
0.7850514045
 40
0.8127111037
 40
0.8392308706
 40
0.8646483242
 40
0.8890313217
 40
0.9124757199
 40
0.9351154151
 40
0.9571168299
 40
0.9786725161
 40
1.0
 40
1.0
 40
1.0
 40
1.0
 10
11.3363113926
 20
7.3801976457
 30
0.0
 10
11.336840873
 20
7.3805033367
 30
0.0
 10
11.3379393872
 20
7.3810906719
 30
0.0
 10
11.3402732964
 20
7.3821665515
 30
0.0
 10
11.343425178
 20
7.3833090421
 30
0.0
 10
11.3474517203
 20
7.3843310722
 30
0.0
 10
11.351692623
 20
7.3850033059
 30
0.0
 10
11.3560578792
 20
7.3853120573
 30
0.0
 10
11.3604545674
 20
7.3852502913
 30
0.0
 10
11.3647884447
 20
7.3848190544
 30
0.0
 10
11.3683028657
 20
7.3841541645
 30
0.0
 10
11.3710025884
 20
7.3834415699
 30
0.0
 10
11.3735462461
 20
7.3826352176
 30
0.0
 10
11.3765119528
 20
7.3814400361
 30
0.0
 10
11.3792336889
 20
7.3799601145
 30
0.0
 10
11.3811685134
 20
7.3786362568
 30
0.0
 10
11.3824653497
 20
7.3776040186
 30
0.0
 10
11.3836275552
 20
7.3765188041
 30
0.0
 10
11.3846488556
 20
7.3753863687
 30
0.0
 10
11.3855240431
 20
7.3742129466
 30
0.0
 10
11.3862475221
 20
7.3730041664
 30
0.0
 10
11.386814977
 20
7.3717665816
 30
0.0
 10
11.3872235118
 20
7.370507063
 30
0.0
 10
11.3874696587
 20
7.3692326559
 30
0.0
 10
11.3875244226
 20
7.368375956
 30
0.0
 10
11.3875244257
 20
7.3679503782
 30
0.0
  0
SPLINE
  5
4BD
100
AcDbEntity
  8
0
100
AcDbSpline
 62
7
  6
CONTINUOUS
 70
0
 71
3
 72
20
 73
16
 74
0
 42
0.0000001
 43
0.0000001
 44
0.0000000001
 40
0.0
 40
0.0
 40
0.0
 40
0.0
 40
0.0522622142
 40
0.1067341935
 40
0.1632841909
 40
0.2217808136
 40
0.2820836455
 40
0.3440165344
 40
0.4718656957
 40
0.6034890508
 40
0.7368035178
 40
0.8034392783
 40
0.8697094115
 40
0.9353371417
 40
1.0
 40
1.0
 40
1.0
 40
1.0
 10
11.21456172
 20
7.3425658596
 30
0.0
 10
11.215720283
 20
7.3434167144
 30
0.0
 10
11.2181553643
 20
7.3450619968
 30
0.0
 10
11.2220464076
 20
7.3473109188
 30
0.0
 10
11.2262293946
 20
7.3493774912
 30
0.0
 10
11.2306773209
 20
7.3512489128
 30
0.0
 10
11.2353637402
 20
7.3529142759
 30
0.0
 10
11.241961911
 20
7.3548672059
 30
0.0
 10
11.2506220594
 20
7.3567185728
 30
0.0
 10
11.2613667323
 20
7.3579731181
 30
0.0
 10
11.2704969931
 20
7.3582084143
 30
0.0
 10
11.2778148394
 20
7.3579030843
 30
0.0
 10
11.2832566752
 20
7.3574276439
 30
0.0
 10
11.288616753
 20
7.3567086358
 30
0.0
 10
11.2921437582
 20
7.3560653455
 30
0.0
 10
11.2938849858
 20
7.3557031108
 30
0.0
  0
SPLINE
  5
4BE
100
AcDbEntity
  8
0
100
AcDbSpline
 62
7
  6
CONTINUOUS
 70
0
 71
3
 72
15
 73
11
 74
0
 42
0.0000001
 43
0.0000001
 44
0.0000000001
 40
0.0
 40
0.0
 40
0.0
 40
0.0
 40
0.1081932645
 40
0.2207657354
 40
0.3380736429
 40
0.4603578763
 40
0.5877483119
 40
0.7202798509
 40
0.8578069178
 40
1.0
 40
1.0
 40
1.0
 40
1.0
 10
11.3367522235
 20
7.330468667
 30
0.0
 10
11.3361972136
 20
7.329523521
 30
0.0
 10
11.3349619323
 20
7.3276538011
 30
0.0
 10
11.3328056326
 20
7.3249871315
 30
0.0
 10
11.3303236874
 20
7.3224182971
 30
0.0
 10
11.3275285124
 20
7.3199613843
 30
0.0
 10
11.3244347998
 20
7.3176275594
 30
0.0
 10
11.3210579329
 20
7.3154292438
 30
0.0
 10
11.3174171204
 20
7.3133780637
 30
0.0
 10
11.3148683786
 20
7.3121353726
 30
0.0
 10
11.3135566693
 20
7.3115400289
 30
0.0
  0
SPLINE
  5
4BF
100
AcDbEntity
  8
0
100
AcDbSpline
 62
7
  6
CONTINUOUS
 70
0
 71
3
 72
15
 73
11
 74
0
 42
0.0000001
 43
0.0000001
 44
0.0000000001
 40
0.0
 40
0.0
 40
0.0
 40
0.0
 40
0.1485044129
 40
0.2894874153
 40
0.4227429141
 40
0.5486468894
 40
0.6679909748
 40
0.7819346743
 40
0.8919863408
 40
1.0
 40
1.0
 40
1.0
 40
1.0
 10
11.6553590252
 20
7.4455973836
 30
0.0
 10
11.6562606711
 20
7.4450768258
 30
0.0
 10
11.6580616912
 20
7.4441345051
 30
0.0
 10
11.6608086505
 20
7.4430095023
 30
0.0
 10
11.6635074211
 20
7.4422228264
 30
0.0
 10
11.6661311604
 20
7.441782525
 30
0.0
 10
11.6686558699
 20
7.4416951987
 30
0.0
 10
11.6710575323
 20
7.441962736
 30
0.0
 10
11.6733105616
 20
7.4425857599
 30
0.0
 10
11.6747029074
 20
7.4432378765
 30
0.0
 10
11.6753587553
 20
7.4436164278
 30
0.0
  0
SPLINE
  5
4C0
100
AcDbEntity
  8
0
100
AcDbSpline
 62
7
  6
CONTINUOUS
 70
0
 71
3
 72
18
 73
14
 74
0
 42
0.0000001
 43
0.0000001
 44
0.0000000001
 40
0.0
 40
0.0
 40
0.0
 40
0.0
 40
0.1485006973
 40
0.2894259784
 40
0.422619377
 40
0.5484900624
 40
0.6678149063
 40
0.7254022303
 40
0.7818088224
 40
0.837239597
 40
0.8919198493
 40
0.9460891972
 40
1.0
 40
1.0
 40
1.0
 40
1.0
 10
11.4785823299
 20
7.3251655126
 30
0.0
 10
11.4799915007
 20
7.3243519395
 30
0.0
 10
11.4828056528
 20
7.3228792323
 30
0.0
 10
11.4870977766
 20
7.3211217151
 30
0.0
 10
11.4913142994
 20
7.3198928009
 30
0.0
 10
11.4954133434
 20
7.3192049306
 30
0.0
 10
11.4987408536
 20
7.3190898186
 30
0.0
 10
11.5012921532
 20
7.3192832573
 30
0.0
 10
11.5031291091
 20
7.3195645225
 30
0.0
 10
11.5049070719
 20
7.3199829002
 30
0.0
 10
11.5066218661
 20
7.3205371504
 30
0.0
 10
11.5082690456
 20
7.3212260173
 30
0.0
 10
11.5093203738
 20
7.3217748394
 30
0.0
 10
11.5098319244
 20
7.3220702395
 30
0.0
  0
SPLINE
  5
4C1
100
AcDbEntity
  8
0
100
AcDbSpline
 62
7
  6
CONTINUOUS
 70
0
 71
3
 72
18
 73
14
 74
0
 42
0.0000001
 43
0.0000001
 44
0.0000000001
 40
0.0
 40
0.0
 40
0.0
 40
0.0
 40
0.1485006973
 40
0.2894259784
 40
0.422619377
 40
0.5484900624
 40
0.6678149063
 40
0.7254022303
 40
0.7818088224
 40
0.837239597
 40
0.8919198493
 40
0.9460891972
 40
1.0
 40
1.0
 40
1.0
 40
1.0
 10
11.5917194149
 20
7.5660307048
 30
0.0
 10
11.5903102441
 20
7.5668442779
 30
0.0
 10
11.587496092
 20
7.5683169851
 30
0.0
 10
11.5832039682
 20
7.5700745023
 30
0.0
 10
11.5789874454
 20
7.5713034165
 30
0.0
 10
11.5748884014
 20
7.5719912868
 30
0.0
 10
11.5715608912
 20
7.5721063988
 30
0.0
 10
11.5690095916
 20
7.5719129601
 30
0.0
 10
11.5671726358
 20
7.5716316949
 30
0.0
 10
11.5653946729
 20
7.5712133172
 30
0.0
 10
11.5636798787
 20
7.570659067
 30
0.0
 10
11.5620326992
 20
7.5699702001
 30
0.0
 10
11.560981371
 20
7.569421378
 30
0.0
 10
11.5604698204
 20
7.5691259779
 30
0.0
  0
SPLINE
  5
4C2
100
AcDbEntity
  8
0
100
AcDbSpline
 62
7
  6
CONTINUOUS
 70
0
 71
3
 72
15
 73
11
 74
0
 42
0.0000001
 43
0.0000001
 44
0.0000000001
 40
0.0
 40
0.0
 40
0.0
 40
0.0
 40
0.1080126439
 40
0.2180677503
 40
0.3320047435
 40
0.4513421853
 40
0.5772495356
 40
0.7105281392
 40
0.8515200939
 40
1.0
 40
1.0
 40
1.0
 40
1.0
 10
11.3875244257
 20
7.3679503782
 30
0.0
 10
11.3875244298
 20
7.3673824402
 30
0.0
 10
11.3874261238
 20
7.3662334737
 30
0.0
 10
11.3869853473
 20
7.3645366266
 30
0.0
 10
11.3862589779
 20
7.3628762388
 30
0.0
 10
11.3852552813
 20
7.3612693016
 30
0.0
 10
11.3839854407
 20
7.3597300846
 30
0.0
 10
11.3824621326
 20
7.3582722145
 30
0.0
 10
11.3807012699
 20
7.3569098919
 30
0.0
 10
11.3794139234
 20
7.3560934653
 30
0.0
 10
11.3787377995
 20
7.3557031108
 30
0.0
  0
SPLINE
  5
4C3
100
AcDbEntity
  8
0
100
AcDbSpline
 62
7
  6
CONTINUOUS
 70
0
 71
3
 72
21
 73
17
 74
0
 42
0.0000001
 43
0.0000001
 44
0.0000000001
 40
0.0
 40
0.0
 40
0.0
 40
0.0
 40
0.049004977
 40
0.0985096663
 40
0.1489854417
 40
0.200860397
 40
0.2545043955
 40
0.3102099643
 40
0.4285439315
 40
0.4915220576
 40
0.5570690444
 40
0.6251639125
 40
0.695731431
 40
0.7686660251
 40
0.8438212208
 40
1.0
 40
1.0
 40
1.0
 40
1.0
 10
11.6753587553
 20
7.4436164278
 30
0.0
 10
11.6758375233
 20
7.4438927698
 30
0.0
 10
11.6767662601
 20
7.4445090813
 30
0.0
 10
11.6780441071
 20
7.4456067533
 30
0.0
 10
11.679203981
 20
7.4468726971
 30
0.0
 10
11.6802392384
 20
7.4483000545
 30
0.0
 10
11.6811446275
 20
7.4498811896
 30
0.0
 10
11.6821948372
 20
7.452228796
 30
0.0
 10
11.6829374985
 20
7.4548133917
 30
0.0
 10
11.6833969282
 20
7.4575613048
 30
0.0
 10
11.683604573
 20
7.4597715613
 30
0.0
 10
11.6836669565
 20
7.4620757822
 30
0.0
 10
11.6835845591
 20
7.4644626737
 30
0.0
 10
11.6833571093
 20
7.4669200707
 30
0.0
 10
11.6828560082
 20
7.4703167673
 30
0.0
 10
11.6822755118
 20
7.4728666084
 30
0.0
 10
11.6818067429
 20
7.4745648594
 30
0.0
  0
SPLINE
  5
4C4
100
AcDbEntity
  8
0
100
AcDbSpline
 62
7
  6
CONTINUOUS
 70
0
 71
3
 72
15
 73
11
 74
0
 42
0.0000001
 43
0.0000001
 44
0.0000000001
 40
0.0
 40
0.0
 40
0.0
 40
0.0
 40
0.1485044129
 40
0.2894874153
 40
0.4227429141
 40
0.5486468894
 40
0.6679909748
 40
0.7819346743
 40
0.8919863408
 40
1.0
 40
1.0
 40
1.0
 40
1.0
 10
11.5917194149
 20
7.5476593957
 30
0.0
 10
11.590817769
 20
7.5481799535
 30
0.0
 10
11.5890167489
 20
7.5491222742
 30
0.0
 10
11.5862697896
 20
7.550247277
 30
0.0
 10
11.583571019
 20
7.5510339529
 30
0.0
 10
11.5809472797
 20
7.5514742543
 30
0.0
 10
11.5784225702
 20
7.5515615806
 30
0.0
 10
11.5760209078
 20
7.5512940433
 30
0.0
 10
11.5737678785
 20
7.5506710194
 30
0.0
 10
11.5723755327
 20
7.5500189028
 30
0.0
 10
11.5717196848
 20
7.5496403515
 30
0.0
  0
SPLINE
  5
4C5
100
AcDbEntity
  8
0
100
AcDbSpline
 62
7
  6
CONTINUOUS
 70
0
 71
3
 72
34
 73
30
 74
0
 42
0.0000001
 43
0.0000001
 44
0.0000000001
 40
0.0
 40
0.0
 40
0.0
 40
0.0
 40
0.0213267843
 40
0.0428816411
 40
0.0648817607
 40
0.087520564
 40
0.110964205
 40
0.1353452046
 40
0.187232889
 40
0.2148894786
 40
0.2436930246
 40
0.2736275834
 40
0.3046546455
 40
0.336720228
 40
0.3697503232
 40
0.4036598311
 40
0.4383510593
 40
0.5096191721
 40
0.5826246354
 40
0.6194672563
 40
0.6563539429
 40
0.6931516211
 40
0.7297288618
 40
0.8016879459
 40
0.8712571373
 40
0.9048841964
 40
0.9376123091
 40
0.9693493416
 40
1.0
 40
1.0
 40
1.0
 40
1.0
 10
11.5604698204
 20
7.5691259779
 30
0.0
 10
11.5597019899
 20
7.5686825863
 30
0.0
 10
11.5582135166
 20
7.5676910488
 30
0.0
 10
11.5561703045
 20
7.565919705
 30
0.0
 10
11.554323226
 20
7.5638706462
 30
0.0
 10
11.5526815346
 20
7.5615575493
 30
0.0
 10
11.5512543417
 20
7.558992824
 30
0.0
 10
11.5496128244
 20
7.5551799054
 30
0.0
 10
11.5484784635
 20
7.5509842721
 30
0.0
 10
11.5478100599
 20
7.5465273147
 30
0.0
 10
11.547535668
 20
7.542942623
 30
0.0
 10
11.5475003401
 20
7.5392083741
 30
0.0
 10
11.547703532
 20
7.5353437738
 30
0.0
 10
11.5481450457
 20
7.5313698486
 30
0.0
 10
11.5488213563
 20
7.5273077414
 30
0.0
 10
11.5497295833
 20
7.5231793495
 30
0.0
 10
11.5512564465
 20
7.5175663475
 30
0.0
 10
11.5537172262
 20
7.5105328991
 30
0.0
 10
11.5568222127
 20
7.5036622295
 30
0.0
 10
11.559684405
 20
7.4982731603
 30
0.0
 10
11.5620105693
 20
7.4943086463
 30
0.0
 10
11.5644975504
 20
7.4904560906
 30
0.0
 10
11.5679896492
 20
7.4855233167
 30
0.0
 10
11.5726573099
 20
7.4797619872
 30
0.0
 10
11.5777462349
 20
7.4745364791
 30
0.0
 10
11.5819839732
 20
7.4707948049
 30
0.0
 10
11.5851802141
 20
7.4682585876
 30
0.0
 10
11.5884112862
 20
7.465975286
 30
0.0
 10
11.5906158393
 20
7.464605017
 30
0.0
 10
11.5917194149
 20
7.4639678768
 30
0.0
  0
SPLINE
  5
4C6
100
AcDbEntity
  8
0
100
AcDbSpline
 62
7
  6
CONTINUOUS
 70
0
 71
3
 72
18
 73
14
 74
0
 42
0.0000001
 43
0.0000001
 44
0.0000000001
 40
0.0
 40
0.0
 40
0.0
 40
0.0
 40
0.1485006973
 40
0.2894259784
 40
0.422619377
 40
0.5484900624
 40
0.6678149063
 40
0.7254022303
 40
0.7818088224
 40
0.837239597
 40
0.8919198493
 40
0.9460891972
 40
1.0
 40
1.0
 40
1.0
 40
1.0
 10
11.6553590252
 20
7.4272260745
 30
0.0
 10
11.656768196
 20
7.4264125014
 30
0.0
 10
11.6595823481
 20
7.4249397942
 30
0.0
 10
11.6638744719
 20
7.4231822771
 30
0.0
 10
11.6680909947
 20
7.4219533629
 30
0.0
 10
11.6721900387
 20
7.4212654925
 30
0.0
 10
11.6755175489
 20
7.4211503805
 30
0.0
 10
11.6780688485
 20
7.4213438192
 30
0.0
 10
11.6799058044
 20
7.4216250844
 30
0.0
 10
11.6816837672
 20
7.4220434621
 30
0.0
 10
11.6833985614
 20
7.4225977123
 30
0.0
 10
11.6850457409
 20
7.4232865792
 30
0.0
 10
11.6860970691
 20
7.4238354013
 30
0.0
 10
11.6866086197
 20
7.4241308014
 30
0.0
  0
SPLINE
  5
4C7
100
AcDbEntity
  8
0
100
AcDbSpline
 62
7
  6
CONTINUOUS
 70
0
 71
3
 72
20
 73
16
 74
0
 42
0.0000001
 43
0.0000001
 44
0.0000000001
 40
0.0
 40
0.0
 40
0.0
 40
0.0
 40
0.0521663108
 40
0.1046674074
 40
0.1578204151
 40
0.2119258325
 40
0.2672575789
 40
0.3240553052
 40
0.4427555104
 40
0.50503383
 40
0.5693702325
 40
0.635829473
 40
0.7044473053
 40
0.848125337
 40
1.0
 40
1.0
 40
1.0
 40
1.0
 10
11.3404858482
 20
7.3174105958
 30
0.0
 10
11.3404858305
 20
7.3166430867
 30
0.0
 10
11.3404099225
 20
7.3151020946
 30
0.0
 10
11.340069998
 20
7.3128016764
 30
0.0
 10
11.3395054029
 20
7.3105163432
 30
0.0
 10
11.3387174545
 20
7.3082542203
 30
0.0
 10
11.3377091576
 20
7.3060224674
 30
0.0
 10
11.3360527259
 20
7.3030539164
 30
0.0
 10
11.3339788772
 20
7.3002167106
 30
0.0
 10
11.3315559748
 20
7.2975393287
 30
0.0
 10
11.3295130463
 20
7.2955624241
 30
0.0
 10
11.3272804638
 20
7.2936562109
 30
0.0
 10
11.3240102438
 20
7.2911778231
 30
0.0
 10
11.3194769732
 20
7.2883025993
 30
0.0
 10
11.3155913942
 20
7.2863354427
 30
0.0
 10
11.3135566693
 20
7.285411945
 30
0.0
  0
SPLINE
  5
4C8
100
AcDbEntity
  8
AXIS_PART
100
AcDbSpline
 62
7
  6
CONTINUOUS
 70
0
 71
3
 72
25
 73
21
 74
0
 42
0.0000001
 43
0.0000001
 44
0.0000000001
 40
0.0
 40
0.0
 40
0.0
 40
0.0
 40
0.0229878869
 40
0.0460626908
 40
0.0693152963
 40
0.0928345135
 40
0.1409726535
 40
0.1910973606
 40
0.2436532679
 40
0.2989634467
 40
0.3572166417
 40
0.4184973153
 40
0.4827815693
 40
0.5499654751
 40
0.6198638556
 40
0.6922256356
 40
0.7667681404
 40
0.8431823698
 40
0.9210926894
 40
1.0
 40
1.0
 40
1.0
 40
1.0
 10
14.6246164833
 20
9.4761022109
 30
0.0
 10
14.6251494387
 20
9.4757919763
 30
0.0
 10
14.6261936725
 20
9.4751285489
 30
0.0
 10
14.6276823029
 20
9.4740113808
 30
0.0
 10
14.6290917813
 20
9.4727739599
 30
0.0
 10
14.63087535
 20
9.4709542057
 30
0.0
 10
14.6328979498
 20
9.4683732875
 30
0.0
 10
14.6349422004
 20
9.4648690215
 30
0.0
 10
14.6366119199
 20
9.4609626327
 30
0.0
 10
14.6378927665
 20
9.4566855198
 30
0.0
 10
14.6387791432
 20
9.4520723087
 30
0.0
 10
14.6392631028
 20
9.4471587564
 30
0.0
 10
14.6393435194
 20
9.4419833342
 30
0.0
 10
14.6390187433
 20
9.4365865085
 30
0.0
 10
14.6382925938
 20
9.4310108747
 30
0.0
 10
14.6371710601
 20
9.4253002321
 30
0.0
 10
14.6356622381
 20
9.419499042
 30
0.0
 10
14.6337781959
 20
9.4136522454
 30
0.0
 10
14.6315338741
 20
9.4078088526
 30
0.0
 10
14.6298193622
 20
9.4039648055
 30
0.0
 10
14.6289071962
 20
9.4020546555
 30
0.0
  0
SPLINE
  5
4C9
100
AcDbEntity
  8
AXIS_PART
100
AcDbSpline
 62
7
  6
CONTINUOUS
 70
0
 71
3
 72
17
 73
13
 74
0
 42
0.0000001
 43
0.0000001
 44
0.0000000001
 40
0.0
 40
0.0
 40
0.0
 40
0.0
 40
0.1483591455
 40
0.2891982795
 40
0.4223458075
 40
0.5482042099
 40
0.6675597815
 40
0.781555905
 40
0.8370420549
 40
0.8917838477
 40
0.9460201974
 40
1.0
 40
1.0
 40
1.0
 40
1.0
 10
14.479323719
 20
9.4939967585
 30
0.0
 10
14.4793329148
 20
9.4964250174
 30
0.0
 10
14.4795473281
 20
9.5011608936
 30
0.0
 10
14.4805033579
 20
9.5080181962
 30
0.0
 10
14.4820839326
 20
9.5143827622
 30
0.0
 10
14.4842739791
 20
9.5201925557
 30
0.0
 10
14.4870584169
 20
9.5253912441
 30
0.0
 10
14.4898810715
 20
9.5292086776
 30
0.0
 10
14.4924019639
 20
9.5318806022
 30
0.0
 10
14.4944042909
 20
9.5336844664
 30
0.0
 10
14.4965294407
 20
9.5353010912
 30
0.0
 10
14.498026505
 20
9.5362523798
 30
0.0
 10
14.4987916468
 20
9.53669415
 30
0.0
  0
SPLINE
  5
4CA
100
AcDbEntity
  8
AXIS_PART
100
AcDbSpline
 62
7
  6
CONTINUOUS
 70
0
 71
3
 72
11
 73
7
 74
0
 42
0.0000001
 43
0.0000001
 44
0.0000000001
 40
0.0
 40
0.0
 40
0.0
 40
0.0
 40
0.2538304352
 40
0.5044020136
 40
0.7527620213
 40
1.0
 40
1.0
 40
1.0
 40
1.0
 10
14.8222915564
 20
9.6317665301
 30
0.0
 10
14.8216855511
 20
9.6310816838
 30
0.0
 10
14.8204284825
 20
9.6297664075
 30
0.0
 10
14.8184028442
 20
9.6279589558
 30
0.0
 10
14.8162563182
 20
9.6263358654
 30
0.0
 10
14.8147463765
 20
9.6253784748
 30
0.0
 10
14.8139749969
 20
9.6249331031
 30
0.0
  0
SPLINE
  5
4CB
100
AcDbEntity
  8
AXIS_PART
100
AcDbSpline
 62
7
  6
CONTINUOUS
 70
0
 71
3
 72
15
 73
11
 74
0
 42
0.0000001
 43
0.0000001
 44
0.0000000001
 40
0.0
 40
0.0
 40
0.0
 40
0.0
 40
0.1394618917
 40
0.2737875194
 40
0.4032394459
 40
0.5283015385
 40
0.6496597038
 40
0.7681173397
 40
0.8845731169
 40
1.0
 40
1.0
 40
1.0
 40
1.0
 10
14.6086096751
 20
9.5848509178
 30
0.0
 10
14.6071983975
 20
9.5852514047
 30
0.0
 10
14.6043968698
 20
9.5859340524
 30
0.0
 10
14.6002024026
 20
9.5865976176
 30
0.0
 10
14.5961158116
 20
9.5868760934
 30
0.0
 10
14.5921570985
 20
9.5867667355
 30
0.0
 10
14.5883441012
 20
9.5862702098
 30
0.0
 10
14.5846941511
 20
9.5853868524
 30
0.0
 10
14.5812247667
 20
9.5841217743
 30
0.0
 10
14.5790391252
 20
9.5830243522
 30
0.0
 10
14.5779876476
 20
9.5824172104
 30
0.0
  0
SPLINE
  5
4CC
100
AcDbEntity
  8
AXIS_PART
100
AcDbSpline
 62
7
  6
CONTINUOUS
 70
0
 71
3
 72
9
 73
5
 74
0
 42
0.0000001
 43
0.0000001
 44
0.0000000001
 40
0.0
 40
0.0
 40
0.0
 40
0.0
 40
0.4879799127
 40
1.0
 40
1.0
 40
1.0
 40
1.0
 10
14.6086096751
 20
9.5848509178
 30
0.0
 10
14.6104477648
 20
9.5843293119
 30
0.0
 10
14.6141691223
 20
9.5830947235
 30
0.0
 10
14.6177730631
 20
9.5815513274
 30
0.0
 10
14.6195828982
 20
9.5806889476
 30
0.0
  0
SPLINE
  5
4CD
100
AcDbEntity
  8
AXIS_PART
100
AcDbSpline
 62
7
  6
CONTINUOUS
 70
0
 71
3
 72
23
 73
19
 74
0
 42
0.0000001
 43
0.0000001
 44
0.0000000001
 40
0.0
 40
0.0
 40
0.0
 40
0.0
 40
0.0442606581
 40
0.0904010874
 40
0.1389220288
 40
0.190218532
 40
0.2445443514
 40
0.3019831164
 40
0.3625013907
 40
0.4259535277
 40
0.4921163595
 40
0.5606870632
 40
0.6313111108
 40
0.7035739607
 40
0.7770366578
 40
0.8512611849
 40
0.9257777555
 40
1.0
 40
1.0
 40
1.0
 40
1.0
 10
14.5723384182
 20
9.3406937615
 30
0.0
 10
14.5713235347
 20
9.3416650696
 30
0.0
 10
14.5694156565
 20
9.3438276597
 30
0.0
 10
14.5670335232
 20
9.3475559821
 30
0.0
 10
14.565107702
 20
9.3517847024
 30
0.0
 10
14.5636523701
 20
9.3564675715
 30
0.0
 10
14.5626795551
 20
9.3615605896
 30
0.0
 10
14.5621940564
 20
9.3670152719
 30
0.0
 10
14.5622021634
 20
9.3727800163
 30
0.0
 10
14.5627005109
 20
9.3788001147
 30
0.0
 10
14.5636861222
 20
9.3850180546
 30
0.0
 10
14.5651473175
 20
9.3913749312
 30
0.0
 10
14.5670720821
 20
9.3978090631
 30
0.0
 10
14.5694394934
 20
9.4042591486
 30
0.0
 10
14.5722287878
 20
9.4106629489
 30
0.0
 10
14.5754124913
 20
9.4169603006
 30
0.0
 10
14.5789603406
 20
9.4230874471
 30
0.0
 10
14.5815536997
 20
9.4270357392
 30
0.0
 10
14.5829033388
 20
9.4289665349
 30
0.0
  0
SPLINE
  5
4CE
100
AcDbEntity
  8
AXIS_PART
100
AcDbSpline
 62
7
  6
CONTINUOUS
 70
0
 71
3
 72
11
 73
7
 74
0
 42
0.0000001
 43
0.0000001
 44
0.0000000001
 40
0.0
 40
0.0
 40
0.0
 40
0.0
 40
0.2464421752
 40
0.4943345997
 40
0.7450769331
 40
1.0
 40
1.0
 40
1.0
 40
1.0
 10
14.5947718947
 20
9.4983780063
 30
0.0
 10
14.5938925081
 20
9.4978702746
 30
0.0
 10
14.5920791897
 20
9.4969347838
 30
0.0
 10
14.5892270917
 20
9.4957873561
 30
0.0
 10
14.5862482623
 20
9.494896805
 30
0.0
 10
14.5842035006
 20
9.4944805584
 30
0.0
 10
14.583166204
 20
9.4943152792
 30
0.0
  0
SPLINE
  5
4CF
100
AcDbEntity
  8
AXIS_PART
100
AcDbSpline
 62
7
  6
CONTINUOUS
 70
0
 71
3
 72
15
 73
11
 74
0
 42
0.0000001
 43
0.0000001
 44
0.0000000001
 40
0.0
 40
0.0
 40
0.0
 40
0.0
 40
0.1081408843
 40
0.2183053241
 40
0.3323151876
 40
0.4516800511
 40
0.5775661351
 40
0.7107772771
 40
0.851659536
 40
1.0
 40
1.0
 40
1.0
 40
1.0
 10
14.7354946905
 20
9.6329380098
 30
0.0
 10
14.7345327433
 20
9.6323826548
 30
0.0
 10
14.7326825242
 20
9.6310936648
 30
0.0
 10
14.7302369423
 20
9.6286918983
 30
0.0
 10
14.728130011
 20
9.6258443271
 30
0.0
 10
14.7263825538
 20
9.6225809471
 30
0.0
 10
14.7250075789
 20
9.6189343239
 30
0.0
 10
14.7240159008
 20
9.6149387658
 30
0.0
 10
14.7234159215
 20
9.6106346604
 30
0.0
 10
14.7232810929
 20
9.6076624593
 30
0.0
 10
14.7232753229
 20
9.6061388197
 30
0.0
  0
SPLINE
  5
4D0
100
AcDbEntity
  8
AXIS_PART
100
AcDbSpline
 62
7
  6
CONTINUOUS
 70
0
 71
3
 72
15
 73
11
 74
0
 42
0.0000001
 43
0.0000001
 44
0.0000000001
 40
0.0
 40
0.0
 40
0.0
 40
0.0
 40
0.1081406737
 40
0.2182985448
 40
0.332315898
 40
0.4516936973
 40
0.5775755385
 40
0.7107478627
 40
0.8516132254
 40
1.0
 40
1.0
 40
1.0
 40
1.0
 10
14.5954874115
 20
9.5521062813
 30
0.0
 10
14.5945254825
 20
9.551550892
 30
0.0
 10
14.5926759266
 20
9.550261178
 30
0.0
 10
14.5902290807
 20
9.5478606821
 30
0.0
 10
14.588123149
 20
9.5450120837
 30
0.0
 10
14.5863751972
 20
9.5417488457
 30
0.0
 10
14.5850006725
 20
9.5381023402
 30
0.0
 10
14.5840085867
 20
9.5341075399
 30
0.0
 10
14.5834085323
 20
9.5298034941
 30
0.0
 10
14.5832739521
 20
9.5268309746
 30
0.0
 10
14.5832681802
 20
9.5253068547
 30
0.0
  0
SPLINE
  5
4D1
100
AcDbEntity
  8
AXIS_PART
100
AcDbSpline
 62
7
  6
CONTINUOUS
 70
0
 71
3
 72
11
 73
7
 74
0
 42
0.0000001
 43
0.0000001
 44
0.0000000001
 40
0.0
 40
0.0
 40
0.0
 40
0.0
 40
0.2548841186
 40
0.5056157275
 40
0.7535422408
 40
1.0
 40
1.0
 40
1.0
 40
1.0
 10
14.7231666736
 20
9.57514611
 30
0.0
 10
14.7242043971
 20
9.5753113626
 30
0.0
 10
14.7262501505
 20
9.5757273814
 30
0.0
 10
14.729230838
 20
9.5766175279
 30
0.0
 10
14.7320846034
 20
9.5777658577
 30
0.0
 10
14.7338989869
 20
9.5787021432
 30
0.0
 10
14.734778958
 20
9.5792101087
 30
0.0
  0
SPLINE
  5
4D2
100
AcDbEntity
  8
AXIS_PART
100
AcDbSpline
 62
7
  6
CONTINUOUS
 70
0
 71
3
 72
18
 73
14
 74
0
 42
0.0000001
 43
0.0000001
 44
0.0000000001
 40
0.0
 40
0.0
 40
0.0
 40
0.0
 40
0.0538455095
 40
0.1079526968
 40
0.1625752464
 40
0.2179560155
 40
0.2743234814
 40
0.3318799113
 40
0.4511720305
 40
0.5770632149
 40
0.7103345303
 40
0.8513779855
 40
1.0
 40
1.0
 40
1.0
 40
1.0
 10
14.7179947489
 20
9.6632492468
 30
0.0
 10
14.7187684251
 20
9.6636959445
 30
0.0
 10
14.720358862
 20
9.6645252683
 30
0.0
 10
14.722850882
 20
9.6655654786
 30
0.0
 10
14.7254456279
 20
9.6664011446
 30
0.0
 10
14.7281364436
 20
9.6670299426
 30
0.0
 10
14.730916893
 20
9.6674496312
 30
0.0
 10
14.7347789957
 20
9.6677337697
 30
0.0
 10
14.7398164265
 20
9.667546052
 30
0.0
 10
14.7460209697
 20
9.6664845429
 30
0.0
 10
14.7524027101
 20
9.6646009604
 30
0.0
 10
14.758896975
 20
9.6619140922
 30
0.0
 10
14.7631534168
 20
9.6596665877
 30
0.0
 10
14.7652842465
 20
9.6584256348
 30
0.0
  0
SPLINE
  5
4D3
100
AcDbEntity
  8
AXIS_PART
100
AcDbSpline
 62
7
  6
CONTINUOUS
 70
0
 71
3
 72
18
 73
14
 74
0
 42
0.0000001
 43
0.0000001
 44
0.0000000001
 40
0.0
 40
0.0
 40
0.0
 40
0.0
 40
0.0539762012
 40
0.1082075122
 40
0.162944319
 40
0.2184257886
 40
0.2748727654
 40
0.3324878445
 40
0.451845535
 40
0.5777004607
 40
0.7108149922
 40
0.8516129737
 40
1.0
 40
1.0
 40
1.0
 40
1.0
 10
14.6387988308
 20
9.6175260437
 30
0.0
 10
14.6380336918
 20
9.617084239
 30
0.0
 10
14.6365365562
 20
9.6161330781
 30
0.0
 10
14.634411178
 20
9.6145167015
 30
0.0
 10
14.6324090568
 20
9.6127127377
 30
0.0
 10
14.6305352998
 20
9.6107259194
 30
0.0
 10
14.6287938525
 20
9.6085614113
 30
0.0
 10
14.6266291618
 20
9.6054091793
 30
0.0
 10
14.6242812023
 20
9.6010236342
 30
0.0
 10
14.6220909776
 20
9.5952148505
 30
0.0
 10
14.6205107425
 20
9.5888507018
 30
0.0
 10
14.61955397
 20
9.5819937556
 30
0.0
 10
14.61934006
 20
9.5772576417
 30
0.0
 10
14.6193308617
 20
9.5748287235
 30
0.0
  0
SPLINE
  5
4D4
100
AcDbEntity
  8
AXIS_PART
100
AcDbSpline
 62
7
  6
CONTINUOUS
 70
0
 71
3
 72
17
 73
13
 74
0
 42
0.0000001
 43
0.0000001
 44
0.0000000001
 40
0.0
 40
0.0
 40
0.0
 40
0.0
 40
0.1483591455
 40
0.2891982795
 40
0.4223458075
 40
0.5482042099
 40
0.6675597815
 40
0.781555905
 40
0.8370420549
 40
0.8917838477
 40
0.9460201974
 40
1.0
 40
1.0
 40
1.0
 40
1.0
 10
14.6985268212
 20
9.6205518552
 30
0.0
 10
14.698536017
 20
9.6229801142
 30
0.0
 10
14.6987504303
 20
9.6277159904
 30
0.0
 10
14.6997064601
 20
9.634573293
 30
0.0
 10
14.7012870347
 20
9.640937859
 30
0.0
 10
14.7034770812
 20
9.6467476524
 30
0.0
 10
14.706261519
 20
9.6519463408
 30
0.0
 10
14.7090841737
 20
9.6557637743
 30
0.0
 10
14.711605066
 20
9.658435699
 30
0.0
 10
14.713607393
 20
9.6602395632
 30
0.0
 10
14.7157325429
 20
9.6618561879
 30
0.0
 10
14.7172296071
 20
9.6628074766
 30
0.0
 10
14.7179947489
 20
9.6632492468
 30
0.0
  0
SPLINE
  5
4D5
100
AcDbEntity
  8
AXIS_PART
100
AcDbSpline
 62
7
  6
CONTINUOUS
 70
0
 71
3
 72
18
 73
14
 74
0
 42
0.0000001
 43
0.0000001
 44
0.0000000001
 40
0.0
 40
0.0
 40
0.0
 40
0.0
 40
0.0538455095
 40
0.1079526968
 40
0.1625752464
 40
0.2179560155
 40
0.2743234814
 40
0.3318799113
 40
0.4511720305
 40
0.5770632149
 40
0.7103345303
 40
0.8513779855
 40
1.0
 40
1.0
 40
1.0
 40
1.0
 10
14.8139749969
 20
9.6249331031
 30
0.0
 10
14.8131766289
 20
9.6244721491
 30
0.0
 10
14.8115354334
 20
9.6236163575
 30
0.0
 10
14.8089638809
 20
9.622542949
 30
0.0
 10
14.8062863239
 20
9.6216806128
 30
0.0
 10
14.8035096311
 20
9.6210317468
 30
0.0
 10
14.8006404439
 20
9.6205986639
 30
0.0
 10
14.7966550827
 20
9.6203054571
 30
0.0
 10
14.7914568828
 20
9.6204991658
 30
0.0
 10
14.7850543223
 20
9.6215945529
 30
0.0
 10
14.7784689093
 20
9.6235382497
 30
0.0
 10
14.7717673807
 20
9.6263108691
 30
0.0
 10
14.767375095
 20
9.6286301024
 30
0.0
 10
14.7651762601
 20
9.6299106601
 30
0.0
  0
SPLINE
  5
4D6
100
AcDbEntity
  8
AXIS_PART
100
AcDbSpline
 62
7
  6
CONTINUOUS
 70
0
 71
3
 72
15
 73
11
 74
0
 42
0.0000001
 43
0.0000001
 44
0.0000000001
 40
0.0
 40
0.0
 40
0.0
 40
0.0
 40
0.1486164814
 40
0.289716448
 40
0.4230619856
 40
0.5489909497
 40
0.6683020197
 40
0.7821678317
 40
0.8921150733
 40
1.0
 40
1.0
 40
1.0
 40
1.0
 10
14.7651762601
 20
9.6299106601
 30
0.0
 10
14.7638392431
 20
9.6306893122
 30
0.0
 10
14.761167791
 20
9.6320995988
 30
0.0
 10
14.7570915612
 20
9.6337861685
 30
0.0
 10
14.7530856642
 20
9.6349691145
 30
0.0
 10
14.7491905929
 20
9.6356350608
 30
0.0
 10
14.7454425833
 20
9.6357753729
 30
0.0
 10
14.7418775547
 20
9.6353850581
 30
0.0
 10
14.7385332569
 20
9.6344664366
 30
0.0
 10
14.7364674011
 20
9.6334995788
 30
0.0
 10
14.7354946905
 20
9.6329380098
 30
0.0
  0
SPLINE
  5
4D7
100
AcDbEntity
  8
AXIS_PART
100
AcDbSpline
 62
7
  6
CONTINUOUS
 70
0
 71
3
 72
23
 73
19
 74
0
 42
0.0000001
 43
0.0000001
 44
0.0000000001
 40
0.0
 40
0.0
 40
0.0
 40
0.0
 40
0.0442606581
 40
0.0904010874
 40
0.1389220288
 40
0.190218532
 40
0.2445443514
 40
0.3019831164
 40
0.3625013907
 40
0.4259535277
 40
0.4921163595
 40
0.5606870632
 40
0.6313111108
 40
0.7035739607
 40
0.7770366578
 40
0.8512611849
 40
0.9257777555
 40
1.0
 40
1.0
 40
1.0
 40
1.0
 10
14.5475899164
 20
9.355106797
 30
0.0
 10
14.546575033
 20
9.3560781051
 30
0.0
 10
14.5446671547
 20
9.3582406953
 30
0.0
 10
14.5422850215
 20
9.3619690176
 30
0.0
 10
14.5403592002
 20
9.366197738
 30
0.0
 10
14.5389038684
 20
9.370880607
 30
0.0
 10
14.5379310534
 20
9.3759736251
 30
0.0
 10
14.5374455546
 20
9.3814283075
 30
0.0
 10
14.5374536617
 20
9.3871930518
 30
0.0
 10
14.5379520092
 20
9.3932131502
 30
0.0
 10
14.5389376205
 20
9.3994310901
 30
0.0
 10
14.5403988158
 20
9.4057879667
 30
0.0
 10
14.5423235804
 20
9.4122220986
 30
0.0
 10
14.5446909916
 20
9.4186721841
 30
0.0
 10
14.5474802861
 20
9.4250759845
 30
0.0
 10
14.5506639896
 20
9.4313733361
 30
0.0
 10
14.5542118389
 20
9.4375004826
 30
0.0
 10
14.5568051979
 20
9.4414487748
 30
0.0
 10
14.5581548371
 20
9.4433795704
 30
0.0
  0
SPLINE
  5
4D8
100
AcDbEntity
  8
AXIS_PART
100
AcDbSpline
 62
7
  6
CONTINUOUS
 70
0
 71
3
 72
15
 73
11
 74
0
 42
0.0000001
 43
0.0000001
 44
0.0000000001
 40
0.0
 40
0.0
 40
0.0
 40
0.0
 40
0.1438858701
 40
0.2811758935
 40
0.4122141018
 40
0.537542047
 40
0.6579159179
 40
0.7742956946
 40
0.8878711795
 40
1.0
 40
1.0
 40
1.0
 40
1.0
 10
14.6192427233
 20
9.5520415452
 30
0.0
 10
14.6181532366
 20
9.5524958042
 30
0.0
 10
14.6159877608
 20
9.5532998397
 30
0.0
 10
14.612720947
 20
9.5541916735
 30
0.0
 10
14.6095320531
 20
9.5547364371
 30
0.0
 10
14.6064409207
 20
9.5549283723
 30
0.0
 10
14.6034676772
 20
9.5547666261
 30
0.0
 10
14.60063218
 20
9.5542496402
 30
0.0
 10
14.5979553319
 20
9.5533797355
 30
0.0
 10
14.5962840354
 20
9.5525662283
 30
0.0
 10
14.5954874115
 20
9.5521062813
 30
0.0
  0
SPLINE
  5
4D9
100
AcDbEntity
  8
AXIS_PART
100
AcDbSpline
 62
7
  6
CONTINUOUS
 70
0
 71
3
 72
9
 73
5
 74
0
 42
0.0000001
 43
0.0000001
 44
0.0000000001
 40
0.0
 40
0.0
 40
0.0
 40
0.0
 40
0.5024265867
 40
1.0
 40
1.0
 40
1.0
 40
1.0
 10
14.6189660202
 20
9.4784884037
 30
0.0
 10
14.6199568154
 20
9.4782095144
 30
0.0
 10
14.6218967956
 20
9.4775326429
 30
0.0
 10
14.6237355139
 20
9.4766150252
 30
0.0
 10
14.6246164833
 20
9.4761022109
 30
0.0
  0
SPLINE
  5
4DA
100
AcDbEntity
  8
AXIS_PART
100
AcDbSpline
 62
7
  6
CONTINUOUS
 70
0
 71
3
 72
18
 73
14
 74
0
 42
0.0000001
 43
0.0000001
 44
0.0000000001
 40
0.0
 40
0.0
 40
0.0
 40
0.0
 40
0.0539762012
 40
0.1082075122
 40
0.162944319
 40
0.2184257886
 40
0.2748727654
 40
0.3324878445
 40
0.451845535
 40
0.5777004607
 40
0.7108149922
 40
0.8516129737
 40
1.0
 40
1.0
 40
1.0
 40
1.0
 10
14.5779876476
 20
9.5824172104
 30
0.0
 10
14.5772225086
 20
9.5819754057
 30
0.0
 10
14.5757253731
 20
9.5810242448
 30
0.0
 10
14.5735999949
 20
9.5794078682
 30
0.0
 10
14.5715978736
 20
9.5776039044
 30
0.0
 10
14.5697241166
 20
9.5756170861
 30
0.0
 10
14.5679826693
 20
9.573452578
 30
0.0
 10
14.5658179786
 20
9.570300346
 30
0.0
 10
14.5634700191
 20
9.5659148009
 30
0.0
 10
14.5612797944
 20
9.5601060172
 30
0.0
 10
14.5596995593
 20
9.5537418685
 30
0.0
 10
14.5587427869
 20
9.5468849223
 30
0.0
 10
14.5585288768
 20
9.5421488084
 30
0.0
 10
14.5585196785
 20
9.5397198902
 30
0.0
  0
SPLINE
  5
4DB
100
AcDbEntity
  8
0
100
AcDbSpline
 62
7
  6
CONTINUOUS
 70
0
 71
3
 72
14
 73
10
 74
0
 42
0.0000001
 43
0.0000001
 44
0.0000000001
 40
0.0
 40
0.0
 40
0.0
 40
0.0
 40
0.2602155233
 40
0.3885642272
 40
0.5154135207
 40
0.6404127778
 40
0.763222179
 40
0.8833257627
 40
1.0
 40
1.0
 40
1.0
 40
1.0
 10
15.0486862355
 20
9.8079789352
 30
0.0
 10
15.0502616303
 20
9.8075292454
 30
0.0
 10
15.0526055221
 20
9.8068263685
 30
0.0
 10
15.0556851188
 20
9.8058027553
 30
0.0
 10
15.0579388815
 20
9.8049954568
 30
0.0
 10
15.0601368491
 20
9.804138263
 30
0.0
 10
15.0622664443
 20
9.8032256764
 30
0.0
 10
15.0643111027
 20
9.8022520996
 30
0.0
 10
15.0656249692
 20
9.8015458692
 30
0.0
 10
15.0662611417
 20
9.8011785884
 30
0.0
  0
SPLINE
  5
4DC
100
AcDbEntity
  8
0
100
AcDbSpline
 62
7
  6
CONTINUOUS
 70
0
 71
3
 72
14
 73
10
 74
0
 42
0.0000001
 43
0.0000001
 44
0.0000000001
 40
0.0
 40
0.0
 40
0.0
 40
0.0
 40
0.2602022632
 40
0.3885403653
 40
0.5153784881
 40
0.6403693347
 40
0.7631791923
 40
0.8832935012
 40
1.0
 40
1.0
 40
1.0
 40
1.0
 10
14.7801446795
 20
9.6528014111
 30
0.0
 10
14.7817057945
 20
9.6523542598
 30
0.0
 10
14.7840283321
 20
9.6516552779
 30
0.0
 10
14.7870797539
 20
9.6506376844
 30
0.0
 10
14.7893128324
 20
9.6498353634
 30
0.0
 10
14.7914906709
 20
9.6489837449
 30
0.0
 10
14.7936009405
 20
9.6480775327
 30
0.0
 10
14.7956273794
 20
9.6471111997
 30
0.0
 10
14.7969297881
 20
9.6464107
 30
0.0
 10
14.7975605648
 20
9.6460465343
 30
0.0
  0
SPLINE
  5
4DD
100
AcDbEntity
  8
0
100
AcDbSpline
 62
7
  6
CONTINUOUS
 70
0
 71
3
 72
36
 73
32
 74
0
 42
0.0000001
 43
0.0000001
 44
0.0000000001
 40
0.0
 40
0.0
 40
0.0
 40
0.0
 40
0.0412933574
 40
0.0830126264
 40
0.1249584716
 40
0.1669563911
 40
0.208817503
 40
0.2504024596
 40
0.332330667
 40
0.3724785401
 40
0.4119923486
 40
0.488909524
 40
0.5627133626
 40
0.6330880621
 40
0.6997310832
 40
0.7315237882
 40
0.7622162984
 40
0.8200112556
 40
0.8469097872
 40
0.8723152611
 40
0.8960980021
 40
0.9180822175
 40
0.9380653955
 40
0.9558368023
 40
0.9711636347
 40
0.9778291122
 40
0.9837858558
 40
0.9890026014
 40
0.9934514049
 40
0.9971159979
 40
1.0
 40
1.0
 40
1.0
 40
1.0
 10
15.001357305
 20
9.7727947247
 30
0.0
 10
14.9998992031
 20
9.7719530184
 30
0.0
 10
14.9969266812
 20
9.7703318935
 30
0.0
 10
14.9923644164
 20
9.768062319
 30
0.0
 10
14.9877120095
 20
9.7659149093
 30
0.0
 10
14.9830090206
 20
9.7638669293
 30
0.0
 10
14.9782911861
 20
9.7618915716
 30
0.0
 10
14.9720494751
 20
9.7593412027
 30
0.0
 10
14.9658576203
 20
9.7568537926
 30
0.0
 10
14.9597660145
 20
9.7543439404
 30
0.0
 10
14.9538844361
 20
9.7518614147
 30
0.0
 10
14.9467914631
 20
9.74872004
 30
0.0
 10
14.9386861434
 20
9.744769334
 30
0.0
 10
14.9311267775
 20
9.7406711444
 30
0.0
 10
14.9252522908
 20
9.7370776792
 30
0.0
 10
14.9208785923
 20
9.7341459051
 30
0.0
 10
14.9168830979
 20
9.7313014671
 30
0.0
 10
14.9131704385
 20
9.7284069187
 30
0.0
 10
14.9097530226
 20
9.7254956079
 30
0.0
 10
14.907447792
 20
9.7234190197
 30
0.0
 10
14.905346514
 20
9.7214172045
 30
0.0
 10
14.9034524478
 20
9.7195197724
 30
0.0
 10
14.9017686784
 20
9.7177596232
 30
0.0
 10
14.9003004339
 20
9.716169501
 30
0.0
 10
14.8992141364
 20
9.7149660069
 30
0.0
 10
14.8984470243
 20
9.7141233455
 30
0.0
 10
14.8979524985
 20
9.7135899675
 30
0.0
 10
14.897511234
 20
9.7131305997
 30
0.0
 10
14.8971228544
 20
9.712750086
 30
0.0
 10
14.8967861993
 20
9.7124537763
 30
0.0
 10
14.896569222
 20
9.712296259
 30
0.0
 10
14.896467418
 20
9.7122374166
 30
0.0
  0
SPLINE
  5
4DE
100
AcDbEntity
  8
0
100
AcDbSpline
 62
7
  6
CONTINUOUS
 70
0
 71
3
 72
36
 73
32
 74
0
 42
0.0000001
 43
0.0000001
 44
0.0000000001
 40
0.0
 40
0.0
 40
0.0
 40
0.0
 40
0.0412933574
 40
0.0830126264
 40
0.1249584716
 40
0.1669563911
 40
0.208817503
 40
0.2504024596
 40
0.332330667
 40
0.3724785401
 40
0.4119923486
 40
0.488909524
 40
0.5627133626
 40
0.6330880621
 40
0.6997310832
 40
0.7315237882
 40
0.7622162984
 40
0.8200112556
 40
0.8469097872
 40
0.8723152611
 40
0.8960980021
 40
0.9180822175
 40
0.9380653955
 40
0.9558368023
 40
0.9711636347
 40
0.9778291122
 40
0.9837858558
 40
0.9890026014
 40
0.9934514049
 40
0.9971159979
 40
1.0
 40
1.0
 40
1.0
 40
1.0
 10
14.4780982869
 20
9.4706954615
 30
0.0
 10
14.4766401851
 20
9.4698537552
 30
0.0
 10
14.4736676631
 20
9.4682326303
 30
0.0
 10
14.4691053984
 20
9.4659630558
 30
0.0
 10
14.4644529914
 20
9.4638156461
 30
0.0
 10
14.4597500025
 20
9.461767666
 30
0.0
 10
14.455032168
 20
9.4597923083
 30
0.0
 10
14.448790457
 20
9.4572419394
 30
0.0
 10
14.4425986022
 20
9.4547545294
 30
0.0
 10
14.4365069965
 20
9.4522446771
 30
0.0
 10
14.430625418
 20
9.4497621514
 30
0.0
 10
14.4235324451
 20
9.4466207768
 30
0.0
 10
14.4154271253
 20
9.4426700707
 30
0.0
 10
14.4078677594
 20
9.4385718811
 30
0.0
 10
14.4019932727
 20
9.434978416
 30
0.0
 10
14.3976195743
 20
9.4320466419
 30
0.0
 10
14.3936240798
 20
9.4292022039
 30
0.0
 10
14.3899114205
 20
9.4263076554
 30
0.0
 10
14.3864940046
 20
9.4233963446
 30
0.0
 10
14.3841887739
 20
9.4213197564
 30
0.0
 10
14.3820874959
 20
9.4193179413
 30
0.0
 10
14.3801934297
 20
9.4174205092
 30
0.0
 10
14.3785096603
 20
9.41566036
 30
0.0
 10
14.3770414158
 20
9.4140702377
 30
0.0
 10
14.3759551183
 20
9.4128667436
 30
0.0
 10
14.3751880063
 20
9.4120240822
 30
0.0
 10
14.3746934804
 20
9.4114907043
 30
0.0
 10
14.3742522159
 20
9.4110313365
 30
0.0
 10
14.3738638363
 20
9.4106508227
 30
0.0
 10
14.3735271813
 20
9.410354513
 30
0.0
 10
14.3733102039
 20
9.4101969957
 30
0.0
 10
14.3732083999
 20
9.4101381534
 30
0.0
  0
LINE
  5
4DF
100
AcDbEntity
  8
0
100
AcDbLine
 62
7
  6
CONTINUOUS
 10
14.773353431
 20
9.6546285183
 11
14.7799856587
 21
9.6528468811
  0
SPLINE
  5
4E0
100
AcDbEntity
  8
0
100
AcDbSpline
 62
7
  6
CONTINUOUS
 70
0
 71
3
 72
12
 73
8
 74
0
 42
0.0000001
 43
0.0000001
 44
0.0000000001
 40
0.0
 40
0.0
 40
0.0
 40
0.0
 40
0.140634383
 40
0.2741989674
 40
0.5260301705
 40
0.7657037506
 40
1.0
 40
1.0
 40
1.0
 40
1.0
 10
14.8365930813
 20
9.6685816346
 30
0.0
 10
14.8355181228
 20
9.6692022668
 30
0.0
 10
14.8334840594
 20
9.6705225456
 30
0.0
 10
14.8298347245
 20
9.6734005949
 30
0.0
 10
14.8259128686
 20
9.6773064382
 30
0.0
 10
14.8218699897
 20
9.6822823275
 30
0.0
 10
14.8194064838
 20
9.6856639434
 30
0.0
 10
14.8181896787
 20
9.6873359833
 30
0.0
  0
LINE
  5
4E1
100
AcDbEntity
  8
0
100
AcDbLine
 62
7
  6
CONTINUOUS
 10
15.033777176
 20
9.8118036405
 11
15.0486862355
 21
9.8079789352
  0
SPLINE
  5
4E2
100
AcDbEntity
  8
0
100
AcDbSpline
 62
7
  6
CONTINUOUS
 70
0
 71
3
 72
12
 73
8
 74
0
 42
0.0000001
 43
0.0000001
 44
0.0000000001
 40
0.0
 40
0.0
 40
0.0
 40
0.0
 40
0.140634383
 40
0.2741989674
 40
0.5260301705
 40
0.7657037506
 40
1.0
 40
1.0
 40
1.0
 40
1.0
 10
14.2991919276
 20
9.3583175263
 30
0.0
 10
14.2981169691
 20
9.3589381586
 30
0.0
 10
14.2960829057
 20
9.3602584374
 30
0.0
 10
14.2924335708
 20
9.3631364867
 30
0.0
 10
14.2885117149
 20
9.36704233
 30
0.0
 10
14.284468836
 20
9.3720182192
 30
0.0
 10
14.28200533
 20
9.3753998352
 30
0.0
 10
14.280788525
 20
9.3770718751
 30
0.0
  0
SPLINE
  5
4E3
100
AcDbEntity
  8
0
100
AcDbSpline
 62
7
  6
CONTINUOUS
 70
0
 71
3
 72
13
 73
9
 74
0
 42
0.0000001
 43
0.0000001
 44
0.0000000001
 40
0.0
 40
0.0
 40
0.0
 40
0.0
 40
0.1179774067
 40
0.2387951834
 40
0.4869399842
 40
0.7419132662
 40
0.8709933097
 40
1.0
 40
1.0
 40
1.0
 40
1.0
 10
14.6223051877
 20
9.1722475446
 30
0.0
 10
14.6260809178
 20
9.1744274312
 30
0.0
 10
14.6335249976
 20
9.1791915424
 30
0.0
 10
14.6478425155
 20
9.190117863
 30
0.0
 10
14.664494953
 20
9.206194812
 30
0.0
 10
14.678957821
 20
9.22463287
 30
0.0
 10
14.6891845258
 20
9.2406098974
 30
0.0
 10
14.6938079282
 20
9.2489612201
 30
0.0
 10
14.695980313
 20
9.2532049096
 30
0.0
  0
SPLINE
  5
4E4
100
AcDbEntity
  8
0
100
AcDbSpline
 62
7
  6
CONTINUOUS
 70
0
 71
3
 72
15
 73
11
 74
0
 42
0.0000001
 43
0.0000001
 44
0.0000000001
 40
0.0
 40
0.0
 40
0.0
 40
0.0
 40
0.0886321757
 40
0.1932457632
 40
0.3109565536
 40
0.4387700063
 40
0.5739018016
 40
0.7140805904
 40
0.8569961476
 40
1.0
 40
1.0
 40
1.0
 40
1.0
 10
14.5723057427
 20
9.2588504054
 30
0.0
 10
14.5736746795
 20
9.2596407498
 30
0.0
 10
14.5765678477
 20
9.2615238131
 30
0.0
 10
14.5809547251
 20
9.264925559
 30
0.0
 10
14.5855760482
 20
9.2691342209
 30
0.0
 10
14.5902658105
 20
9.2740501193
 30
0.0
 10
14.5948641206
 20
9.2795837248
 30
0.0
 10
14.5992573959
 20
9.2856177151
 30
0.0
 10
14.6033349149
 20
9.2920358928
 30
0.0
 10
14.6058035117
 20
9.2965021269
 30
0.0
 10
14.6069656615
 20
9.2987723523
 30
0.0
  0
ELLIPSE
  5
4E5
100
AcDbEntity
  8
0
100
AcDbEllipse
 62
7
  6
CONTINUOUS
 10
7.3015808895
 20
7.7079029617
 30
0.0
 11
0.0141488673
 21
0.0141488673
 31
0.0
 40
0.999524224
 41
-0.7851602188
 42
0.7851602188
  0
ELLIPSE
  5
4E6
100
AcDbEntity
  8
0
100
AcDbEllipse
 62
7
  6
CONTINUOUS
 10
6.1315904107
 20
7.7079029617
 30
0.0
 11
0.0141488673
 21
-0.0141488673
 31
0.0
 40
0.999524224
 41
2.3564324348
 42
3.9267528724
  0
ELLIPSE
  5
4E7
100
AcDbEntity
  8
0
100
AcDbEllipse
 62
7
  6
CONTINUOUS
 10
6.1315904107
 20
6.8729124829
 30
0.0
 11
0.0141488673
 21
0.0141488673
 31
0.0
 40
0.999524224
 41
-3.9267528724
 42
-2.3564324348
  0
ELLIPSE
  5
4E8
100
AcDbEntity
  8
0
100
AcDbEllipse
 62
7
  6
CONTINUOUS
 10
7.3015808895
 20
6.8729124829
 30
0.0
 11
0.0141488673
 21
-0.0141488673
 31
0.0
 40
0.999524224
 41
-0.7851602188
 42
0.7851602188
  0
ELLIPSE
  5
4E9
100
AcDbEntity
  8
0
100
AcDbEllipse
 62
7
  6
CONTINUOUS
 10
6.110712847
 20
7.3584077223
 30
0.0
 11
-0.0
 21
0.02
 31
0.0
 40
0.0218200776
 41
-4.7123889804
 42
-3.5914556023
  0
ELLIPSE
  5
4EA
100
AcDbEntity
  8
0
100
AcDbEllipse
 62
7
  6
CONTINUOUS
 10
6.110712847
 20
7.2224077223
 30
0.0
 11
-0.0
 21
0.02
 31
0.0
 40
0.0218200776
 41
0.4498629487
 42
1.5707963268
  0
ELLIPSE
  5
4EB
100
AcDbEntity
  8
0
100
AcDbEllipse
 62
7
  6
CONTINUOUS
 10
7.3224584532
 20
7.2224077223
 30
0.0
 11
0.0
 21
0.02
 31
0.0
 40
0.0218200776
 41
-1.5707963268
 42
-0.0
  0
ELLIPSE
  5
4EC
100
AcDbEntity
  8
0
100
AcDbEllipse
 62
7
  6
CONTINUOUS
 10
7.3224584532
 20
7.3584077223
 30
0.0
 11
0.0
 21
0.02
 31
0.0
 40
0.0218200776
 41
3.1415926536
 42
4.7123889804
  0
ELLIPSE
  5
4ED
100
AcDbEntity
  8
0
100
AcDbEllipse
 62
7
  6
CONTINUOUS
 10
6.1116511104
 20
7.2904077223
 30
0.0
 11
0.0
 21
0.052
 31
0.0
 40
0.0218200776
 41
2.8656540458
 42
6.5591011071
  0
ELLIPSE
  5
4EE
100
AcDbEntity
  8
0
100
AcDbEllipse
 62
7
  6
CONTINUOUS
 10
7.3215201899
 20
7.2904077223
 30
0.0
 11
-0.0
 21
0.052
 31
0.0
 40
0.0218200776
 41
-0.3947911197
 42
3.5363837733
  0
ELLIPSE
  5
4EF
100
AcDbEntity
  8
0
100
AcDbEllipse
 62
7
  6
CONTINUOUS
 10
15.0759880792
 20
7.6154523991
 30
0.0
 11
0.02
 21
-0.0
 31
0.0
 40
0.816891281
 41
0.785636108
 42
2.3559565456
  0
ELLIPSE
  5
4F0
100
AcDbEntity
  8
0
100
AcDbEllipse
 62
7
  6
CONTINUOUS
 10
14.5651589785
 20
6.7145415275
 30
0.0
 11
-0.0333938013
 21
0.03986499
 31
0.0
 40
0.3868093903
 41
0.0639849092
 42
0.2711426683
  0
ELLIPSE
  5
4F1
100
AcDbEntity
  8
0
100
AcDbEllipse
 62
7
  6
CONTINUOUS
 10
14.516279519
 20
6.7779772323
 30
0.0
 11
-0.0128437697
 21
0.0153326884
 31
0.0
 40
0.3868093903
 41
-2.6828166247
 42
-1.1120202979
  0
ELLIPSE
  5
4F2
100
AcDbEntity
  8
0
100
AcDbEllipse
 62
7
  6
CONTINUOUS
 10
15.4340477221
 20
7.3702969427
 30
0.0
 11
-0.0124804301
 21
0.015629384
 31
0.0
 40
0.4260170972
 41
-1.1025211678
 42
0.0046363603
  0
ELLIPSE
  5
4F3
100
AcDbEntity
  8
0
100
AcDbEllipse
 62
7
  6
CONTINUOUS
 10
14.6124460412
 20
6.6994570146
 30
0.0
 11
-0.0128437697
 21
0.0153326884
 31
0.0
 40
0.3868093903
 41
-1.1120202979
 42
-0.00486277
  0
ELLIPSE
  5
4F4
100
AcDbEntity
  8
0
100
AcDbEllipse
 62
7
  6
CONTINUOUS
 10
15.3378811998
 20
7.4488171604
 30
0.0
 11
-0.0124804301
 21
0.015629384
 31
0.0
 40
0.4260170972
 41
-2.6733174946
 42
-1.1025211678
  0
ELLIPSE
  5
4F5
100
AcDbEntity
  8
0
100
AcDbEllipse
 62
7
  6
CONTINUOUS
 10
15.3853010086
 20
7.3841896468
 30
0.0
 11
-0.0324491182
 21
0.0406363984
 31
0.0
 40
0.4260170972
 41
0.0734840393
 42
2.0445100067
  0
ELLIPSE
  5
4F6
100
AcDbEntity
  8
0
100
AcDbEllipse
 62
7
  6
CONTINUOUS
 10
14.6149544579
 20
7.1404108703
 30
0.0
 11
0.01
 21
-0.0
 31
0.0
 40
0.8165181688
 41
-2.356184971
 42
-0.7854076826
  0
ELLIPSE
  5
4F7
100
AcDbEntity
  8
0
100
AcDbEllipse
 62
7
  6
CONTINUOUS
 10
14.8836550347
 20
7.3598055963
 30
0.0
 11
0.01
 21
0.0
 31
0.0
 40
0.8165181688
 41
-2.356184971
 42
-0.7854076826
  0
ELLIPSE
  5
4F8
100
AcDbEntity
  8
0
100
AcDbEllipse
 62
7
  6
CONTINUOUS
 10
14.346253881
 20
6.9210161443
 30
0.0
 11
0.01
 21
-0.0
 31
0.0
 40
0.8165181688
 41
-2.356184971
 42
-0.7854076826
  0
ELLIPSE
  5
4F9
100
AcDbEntity
  8
0
100
AcDbEllipse
 62
7
  6
CONTINUOUS
 10
14.8391073075
 20
6.504054361
 30
0.0
 11
0.01
 21
0.0
 31
0.0
 40
0.8170623097
 41
-2.3558518739
 42
-0.7857407797
  0
ELLIPSE
  5
4FA
100
AcDbEntity
  8
0
100
AcDbEllipse
 62
7
  6
CONTINUOUS
 10
15.3026493455
 20
7.4200502589
 30
0.0
 11
-0.0124458774
 21
0.0156574644
 31
0.0
 40
0.4295629207
 41
-2.6723225985
 42
-1.1015262717
  0
ELLIPSE
  5
4FB
100
AcDbEntity
  8
0
100
AcDbEllipse
 62
7
  6
CONTINUOUS
 10
15.3499364082
 20
7.3553143578
 30
0.0
 11
-0.0323592813
 21
0.0407094075
 31
0.0
 40
0.4295629207
 41
0.0744789354
 42
4.0056538284
  0
ELLIPSE
  5
4FC
100
AcDbEntity
  8
0
100
AcDbEllipse
 62
7
  6
CONTINUOUS
 10
15.3988158677
 20
7.3415300411
 30
0.0
 11
-0.0124458774
 21
0.0156574644
 31
0.0
 40
0.4295629207
 41
-1.1015262717
 42
0.4692700551
  0
ELLIPSE
  5
4FD
100
AcDbEntity
  8
0
100
AcDbEllipse
 62
7
  6
CONTINUOUS
 10
15.666415509
 20
7.1333668536
 30
0.0
 11
0.02000952
 21
0.0
 31
0.0
 40
0.8161141513
 41
-0.7851602188
 42
0.7851602188
  0
ELLIPSE
  5
4FE
100
AcDbEntity
  8
0
100
AcDbEllipse
 62
7
  6
CONTINUOUS
 10
14.8391073075
 20
6.4578675365
 30
0.0
 11
0.02
 21
0.0
 31
0.0
 40
0.816891281
 41
-2.3559565456
 42
-0.785636108
  0
ELLIPSE
  5
4FF
100
AcDbEntity
  8
0
100
AcDbEllipse
 62
7
  6
CONTINUOUS
 10
14.3749656683
 20
6.8830272272
 30
0.0
 11
0.0100068547
 21
0.0
 31
0.0
 40
0.815943321
 41
2.3565371065
 42
3.9266482006
  0
ELLIPSE
  5
500
100
AcDbEntity
  8
0
100
AcDbEllipse
 62
7
  6
CONTINUOUS
 10
14.2486798777
 20
6.939953082
 30
0.0
 11
0.02000952
 21
0.0
 31
0.0
 40
0.8161141513
 41
2.3564324348
 42
3.9267528724
  0
ELLIPSE
  5
501
100
AcDbEntity
  8
0
100
AcDbEllipse
 62
7
  6
CONTINUOUS
 10
14.4810476646
 20
6.7492103308
 30
0.0
 11
-0.0128118749
 21
0.0153588186
 31
0.0
 40
0.3903895489
 41
-2.6820568017
 42
-1.1112604749
  0
ELLIPSE
  5
502
100
AcDbEntity
  8
0
100
AcDbEllipse
 62
7
  6
CONTINUOUS
 10
14.5297943781
 20
6.6856662384
 30
0.0
 11
-0.0333108748
 21
0.0399329283
 31
0.0
 40
0.3903895489
 41
0.0647447322
 42
0.2730479722
  0
ELLIPSE
  5
503
100
AcDbEntity
  8
0
100
AcDbEllipse
 62
7
  6
CONTINUOUS
 10
14.5297943781
 20
6.6856662384
 30
0.0
 11
-0.0333108748
 21
0.0399329283
 31
0.0
 40
0.3903895489
 41
-3.4215935361
 42
-2.287265682
  0
ELLIPSE
  5
504
100
AcDbEntity
  8
0
100
AcDbEllipse
 62
7
  6
CONTINUOUS
 10
14.5772141869
 20
6.6706901131
 30
0.0
 11
-0.0128118749
 21
0.0153588186
 31
0.0
 40
0.3903895489
 41
-1.1112604749
 42
0.4595358519
  0
ELLIPSE
  5
505
100
AcDbEntity
  8
0
100
AcDbEllipse
 62
7
  6
CONTINUOUS
 10
14.830480248
 20
7.3163882434
 30
0.0
 11
0.0100001904
 21
0.0
 31
0.0
 40
0.8164870789
 41
5.497796663
 42
7.0685739513
  0
ELLIPSE
  5
506
100
AcDbEntity
  8
0
100
AcDbEllipse
 62
7
  6
CONTINUOUS
 10
14.5617796712
 20
7.0969935174
 30
0.0
 11
0.0100001904
 21
-0.0
 31
0.0
 40
0.8164870789
 41
5.497796663
 42
7.0685739513
  0
ELLIPSE
  5
507
100
AcDbEntity
  8
0
100
AcDbEllipse
 62
7
  6
CONTINUOUS
 10
15.0991808249
 20
7.5357829694
 30
0.0
 11
0.0100001904
 21
0.0
 31
0.0
 40
0.8164870789
 41
5.497796663
 42
7.0685739513
  0
ELLIPSE
  5
508
100
AcDbEntity
  8
0
100
AcDbEllipse
 62
7
  6
CONTINUOUS
 10
15.145707212
 20
7.5123397198
 30
0.0
 11
0.01
 21
0.0
 31
0.0
 40
0.8170623097
 41
0.7857407797
 42
2.3558518739
  0
ELLIPSE
  5
509
100
AcDbEntity
  8
0
100
AcDbEllipse
 62
7
  6
CONTINUOUS
 10
15.6098488512
 20
7.1333668536
 30
0.0
 11
0.0100068547
 21
0.0
 31
0.0
 40
0.815943321
 41
5.4981297601
 42
7.0682408542
  0
ELLIPSE
  5
50A
100
AcDbEntity
  8
0
100
AcDbEllipse
 62
7
  6
CONTINUOUS
 10
14.6640983792
 20
6.7624173294
 30
0.0
 11
0.0549136334
 21
0.0267276487
 31
0.0
 40
0.7144131275
 41
-1.9753355121
 42
0.798220161
  0
ELLIPSE
  5
50B
100
AcDbEntity
  8
0
100
AcDbEllipse
 62
7
  6
CONTINUOUS
 10
14.8391073075
 20
9.0118233697
 30
0.0
 11
0.02
 21
0.0
 31
0.0
 40
0.5776165394
 41
-2.3559565456
 42
-0.785636108
  0
ELLIPSE
  5
50C
100
AcDbEntity
  8
0
100
AcDbEllipse
 62
7
  6
CONTINUOUS
 10
15.3988158677
 20
9.5876638136
 30
0.0
 11
-0.0103819295
 21
0.0170982223
 31
0.0
 40
0.5620484973
 41
0.7729867825
 42
2.3437831093
  0
ELLIPSE
  5
50D
100
AcDbEntity
  8
0
100
AcDbEllipse
 62
7
  6
CONTINUOUS
 10
14.5651589785
 20
9.196989467
 30
0.0
 11
-0.0249484362
 21
0.0456347204
 31
0.0
 40
0.59226421
 41
0.6589021385
 42
1.1939942841
  0
ELLIPSE
  5
50E
100
AcDbEntity
  8
0
100
AcDbEllipse
 62
7
  6
CONTINUOUS
 10
15.3026493455
 20
9.6431847593
 30
0.0
 11
-0.0103819295
 21
0.0170982223
 31
0.0
 40
0.5620484973
 41
-3.9394021979
 42
-3.1540151359
  0
ELLIPSE
  5
50F
100
AcDbEntity
  8
0
100
AcDbEllipse
 62
7
  6
CONTINUOUS
 10
14.4810476646
 20
9.1688398289
 30
0.0
 11
-0.0096646151
 21
0.0175126404
 31
0.0
 40
0.5898086231
 41
-3.9155846661
 42
-3.1301976041
  0
ELLIPSE
  5
510
100
AcDbEntity
  8
0
100
AcDbEllipse
 62
7
  6
CONTINUOUS
 10
14.5772141869
 20
9.1133188833
 30
0.0
 11
-0.0096646151
 21
0.0175126404
 31
0.0
 40
0.5898086231
 41
0.7968043143
 42
2.3676006411
  0
ELLIPSE
  5
511
100
AcDbEntity
  8
0
100
AcDbEllipse
 62
7
  6
CONTINUOUS
 10
15.3499364082
 20
9.6500742207
 30
0.0
 11
-0.0269930167
 21
0.0444553781
 31
0.0
 40
0.5620484973
 41
-2.7633969908
 42
-0.7862342587
  0
ELLIPSE
  5
512
100
AcDbEntity
  8
0
100
AcDbEllipse
 62
7
  6
CONTINUOUS
 10
15.145707212
 20
9.7574312463
 30
0.0
 11
0.01
 21
-0.0
 31
0.0
 40
0.5777374724
 41
0.7857407797
 42
2.3558518739
  0
ELLIPSE
  5
513
100
AcDbEntity
  8
0
100
AcDbEllipse
 62
7
  6
CONTINUOUS
 10
14.6124460412
 20
9.1336597028
 30
0.0
 11
-0.0095955524
 21
0.0175518155
 31
0.0
 40
0.59226421
 41
0.7992031644
 42
2.3699994912
  0
ELLIPSE
  5
514
100
AcDbEntity
  8
0
100
AcDbEllipse
 62
7
  6
CONTINUOUS
 10
14.2486798777
 20
9.3527017595
 30
0.0
 11
0.02000952
 21
0.0
 31
0.0
 40
0.577067038
 41
2.3564324348
 42
3.9267528724
  0
ELLIPSE
  5
515
100
AcDbEntity
  8
0
100
AcDbEllipse
 62
7
  6
CONTINUOUS
 10
14.516279519
 20
9.1891806484
 30
0.0
 11
-0.0095955524
 21
0.0175518155
 31
0.0
 40
0.59226421
 41
-3.913185816
 42
-2.3423894892
  0
ELLIPSE
  5
516
100
AcDbEntity
  8
0
100
AcDbEllipse
 62
7
  6
CONTINUOUS
 10
15.0759880792
 20
9.8303413023
 30
0.0
 11
0.02
 21
0.0
 31
0.0
 40
0.5776165394
 41
0.785636108
 42
2.3559565456
  0
ELLIPSE
  5
517
100
AcDbEntity
  8
0
100
AcDbEllipse
 62
7
  6
CONTINUOUS
 10
14.830480248
 20
9.618875705
 30
0.0
 11
0.0100001904
 21
0.0
 31
0.0
 40
0.5773307317
 41
-0.7853886442
 42
0.7853886442
  0
ELLIPSE
  5
518
100
AcDbEntity
  8
0
100
AcDbEllipse
 62
7
  6
CONTINUOUS
 10
15.4340477221
 20
9.6080046331
 30
0.0
 11
-0.0103196838
 21
0.0171346821
 31
0.0
 40
0.5646253384
 41
0.7749664564
 42
2.3457627832
  0
ELLIPSE
  5
519
100
AcDbEntity
  8
0
100
AcDbEllipse
 62
7
  6
CONTINUOUS
 10
15.3853010086
 20
9.67049168
 30
0.0
 11
-0.0268311779
 21
0.0445501734
 31
0.0
 40
0.5646253384
 41
-2.7614173168
 42
1.1697575761
  0
ELLIPSE
  5
51A
100
AcDbEntity
  8
0
100
AcDbEllipse
 62
7
  6
CONTINUOUS
 10
15.3378811998
 20
9.6635255788
 30
0.0
 11
-0.0103196838
 21
0.0171346821
 31
0.0
 40
0.5646253384
 41
-3.9374225239
 42
-2.3666261972
  0
ELLIPSE
  5
51B
100
AcDbEntity
  8
0
100
AcDbEllipse
 62
7
  6
CONTINUOUS
 10
15.666415509
 20
9.4894629124
 30
0.0
 11
0.02000952
 21
-0.0
 31
0.0
 40
0.577067038
 41
5.4980250884
 42
7.068345526
  0
ELLIPSE
  5
51C
100
AcDbEntity
  8
0
100
AcDbEllipse
 62
7
  6
CONTINUOUS
 10
14.6149544579
 20
9.4944436738
 30
0.0
 11
0.01
 21
0.0
 31
0.0
 40
0.5773527152
 41
-2.356184971
 42
-1.152951249
  0
ELLIPSE
  5
51D
100
AcDbEntity
  8
0
100
AcDbEllipse
 62
7
  6
CONTINUOUS
 10
15.6098488512
 20
9.4894629124
 30
0.0
 11
0.0100068547
 21
-0.0
 31
0.0
 40
0.5769462454
 41
-0.7850555471
 42
0.7850555471
  0
ELLIPSE
  5
51E
100
AcDbEntity
  8
0
100
AcDbEllipse
 62
7
  6
CONTINUOUS
 10
14.8836550347
 20
9.6495757279
 30
0.0
 11
0.01
 21
0.0
 31
0.0
 40
0.5773527152
 41
-2.356184971
 42
-0.7854076826
  0
ELLIPSE
  5
51F
100
AcDbEntity
  8
0
100
AcDbEllipse
 62
7
  6
CONTINUOUS
 10
14.5651589785
 20
9.196989467
 30
0.0
 11
-0.0249484362
 21
0.0456347204
 31
0.0
 40
0.59226421
 41
-0.2636245196
 42
-0.1439300228
  0
ELLIPSE
  5
520
100
AcDbEntity
  8
0
100
AcDbEllipse
 62
7
  6
CONTINUOUS
 10
15.0991808249
 20
9.7740077591
 30
0.0
 11
0.0100001904
 21
-0.0
 31
0.0
 40
0.5773307317
 41
-0.7853886442
 42
0.7853886442
  0
ELLIPSE
  5
521
100
AcDbEntity
  8
0
100
AcDbEllipse
 62
7
  6
CONTINUOUS
 10
14.3749656683
 20
9.3124499952
 30
0.0
 11
0.0100068547
 21
0.0
 31
0.0
 40
0.5769462454
 41
8.6397224137
 42
10.2098335078
  0
ELLIPSE
  5
522
100
AcDbEntity
  8
0
100
AcDbEllipse
 62
7
  6
CONTINUOUS
 10
14.346253881
 20
9.3393116197
 30
0.0
 11
0.01
 21
0.0
 31
0.0
 40
0.5773527152
 41
-2.356184971
 42
-0.7854076826
  0
ELLIPSE
  5
523
100
AcDbEntity
  8
0
100
AcDbEllipse
 62
7
  6
CONTINUOUS
 10
14.8391073075
 20
9.0444816614
 30
0.0
 11
0.01
 21
0.0
 31
0.0
 40
0.5777374724
 41
-2.3558518739
 42
-0.7857407797
  0
ELLIPSE
  5
524
100
AcDbEntity
  8
0
100
AcDbEllipse
 62
7
  6
CONTINUOUS
 10
14.6640983792
 20
9.3006519606
 30
0.0
 11
0.0577506311
 21
0.0124198123
 31
0.0
 40
0.5399702489
 41
1.5344214205
 42
2.7261651477
  0
ELLIPSE
  5
525
100
AcDbEntity
  8
0
100
AcDbEllipse
 62
7
  6
CONTINUOUS
 10
14.6640983792
 20
9.3006519606
 30
0.0
 11
0.0577506311
 21
0.0124198123
 31
0.0
 40
0.5399702489
 41
-0.4154306549
 42
0.6790326996
  0
ENDSEC
  0
SECTION
  2
OBJECTS
  0
DICTIONARY
  5
C
100
AcDbDictionary
280
0
281
1
  3
ACAD_GROUP
350
D
  3
ACAD_MLINESTYLE
350
17
  3
ACAD_LAYOUT
350
1A
  3
ACAD_PLOTSETTINGS
350
19
  3
ACAD_PLOTSTYLENAME
350
E
  0
DICTIONARY
  5
D
102
{ACAD_REACTORS
330
C
102
}
100
AcDbDictionary
280
0
281
1
  0
ACDBDICTIONARYWDFLT
  5
E
102
{ACAD_REACTORS
330
C
102
}
100
AcDbDictionary
281
1
  3
Normal
350
F
100
AcDbDictionaryWithDefault
340
F
  0
DICTIONARY
  5
17
102
{ACAD_REACTORS
330
C
102
}
100
AcDbDictionary
280
0
281
1
  3
Standard
350
18
  0
DICTIONARY
  5
19
102
{ACAD_REACTORS
330
C
102
}
100
AcDbDictionary
281
1
  0
DICTIONARY
  5
1A
102
{ACAD_REACTORS
330
C
102
}
100
AcDbDictionary
281
1
  3
Model
350
526
  3
Layout1
350
527
  0
ACDBPLACEHOLDER
  5
F
102
{ACAD_REACTORS
330
E
102
}
  0
MLINESTYLE
  5
18
102
{ACAD_REACTORS
330
17
102
}
100
AcDbMlineStyle
  2
STANDARD
 70
0
  3

 62
256
 51
90.0
 52
90.0
 71
2
 49
0.5
 62
256
  6
BYLAYER
 49
-0.5
 62
256
  6
BYLAYER
  0
LAYOUT
  5
526
102
{ACAD_REACTORS
330
1A
102
}
100
AcDbPlotSettings
  1

  2
none_device
  4
ANSI_B_(17.00_x_11.00_Inches)
  6

 40
0.0
 41
0.0
 42
0.0
 43
0.0
 44
431.8
 45
279.4
 46
0.0
 47
0.0
 48
0.0
 49
0.0
140
0.0
141
0.0
142
1.0
143
1.0
 70
1024
 72
0
 73
0
 74
0
  7

 75
0
147
1.0
148
0.0
149
0.0
100
AcDbLayout
  1
Model
 70
0
 71
0
 10
0.0
 20
0.0
 11
17.0
 21
11.0
 12
0.0
 22
0.0
 32
0.0
 14
0.0
 24
0.0
 34
0.0
 15
0.0
 25
0.0
 35
0.0
146
0.0
 13
0.0
 23
0.0
 33
0.0
 16
1.0
 26
0.0
 36
0.0
 17
0.0
 27
1.0
 37
0.0
 76
0
330
20D
345
0
346
0
  0
LAYOUT
  5
527
102
{ACAD_REACTORS
330
1A
102
}
100
AcDbPlotSettings
  1

  2
none_device
  4
ANSI_B_(17.00_x_11.00_Inches)
  6

 40
0.0
 41
0.0
 42
0.0
 43
0.0
 44
431.8
 45
279.4
 46
0.0
 47
0.0
 48
0.0
 49
0.0
140
0.0
141
0.0
142
1.0
143
1.0
 70
0
 72
0
 73
0
 74
0
  7

 75
0
147
1.0
148
0.0
149
0.0
100
AcDbLayout
  1
Layout1
 70
0
 71
1
 10
0.0
 20
0.0
 11
17.0
 21
11.0
 12
0.0
 22
0.0
 32
0.0
 14
0.0
 24
0.0
 34
0.0
 15
0.0
 25
0.0
 35
0.0
146
0.0
 13
0.0
 23
0.0
 33
0.0
 16
1.0
 26
0.0
 36
0.0
 17
0.0
 27
1.0
 37
0.0
 76
0
330
20E
345
0
346
0
  0
ENDSEC
  0
EOF
