999
DXF file: C:\SAP\Working\ProE\work\PRN-800H-1HVX7M1\800H-1HVX7M1.dxf
999
Pro/ENGINEER 2017380 by Parametric Technology Corporation
  0
SECTION
  2
HEADER
  9
$ACADVER
  1
AC1027
  9
$DWGCODEPAGE
  3
ANSI_1252
  9
$EXTMAX
 10
22.0
 20
17.0
 30
0.0
  9
$EXTMIN
 10
0.0
 20
0.0
 30
0.0
  9
$LIMMIN
 10
0.0
 20
0.0
  9
$LIMMAX
 10
22.0
 20
17.0
  9
$VIEWCTR
 10
11.0
 20
8.5
  9
$VIEWSIZE
 40
17.0
  9
$CLAYER
  8
0
  9
$LTSCALE
 40
1.21
  9
$CELTYPE
  6
BYLAYER
  9
$DIMSCALE
 40
1.0
  9
$DIMASZ
 40
0.1875
  9
$DIMEXO
 40
0.0625
  9
$DIMDLI
 40
0.836
  9
$DIMEXE
 40
0.125
  9
$DIMCEN
 40
0.198
  9
$DIMLFAC
 40
1.0
  9
$DIMBLK
  1
_CLOSED
  9
$DIMALT
 70
1
  9
$DIMALTD
 70
3
  9
$DIMALTTD
 70
2
  9
$DIMALTF
 40
25.4
  9
$DIMTXT
 40
0.15625
  9
$DIMTOL
 70
0
  9
$DIMLIM
 70
0
  9
$DIMTFAC
 40
1.0
  9
$DIMGAP
 40
0.09
  9
$DIMDSEP
 70
46
  9
$AUNITS
 70
0
  9
$PDMODE
 70
3
  9
$PDSIZE
 40
0.3125
  9
$HANDSEED
  5
52B
  9
$TILEMODE
 70
1
  9
$MEASUREMENT
 70
0
  9
$INSUNITS
 70
1
  0
ENDSEC
  0
SECTION
  2
CLASSES
  0
CLASS
  1
ACDBDICTIONARYWDFLT
  2
AcDbDictionaryWithDefault
  3
AutoCAD 2000
 90
0
 91
1
280
0
281
0
  0
CLASS
  1
ACDBPLACEHOLDER
  2
AcDbPlaceHolder
  3
AutoCAD 2000
 90
0
 91
1
280
0
281
0
  0
CLASS
  1
LAYOUT
  2
AcDbLayout
  3
AutoCAD 2000
 90
0
 91
0
280
0
281
0
  0
CLASS
  1
RASTERVARIABLES
  2
AcDbRasterVariables
  3
ISM
 90
0
 91
1
280
0
281
0
  0
CLASS
  1
IMAGEDEF
  2
AcDbRasterImageDef
  3
ISM
 90
0
 91
1
280
0
281
0
  0
CLASS
  1
IMAGEDEF_REACTOR
  2
AcDbRasterImageDefReactor
  3
ISM
 90
0
 91
1
280
0
281
0
  0
CLASS
  1
IMAGE
  2
AcDbRasterImage
  3
ISM
 90
127
 91
1
280
0
281
1
  0
ENDSEC
  0
SECTION
  2
TABLES
  0
TABLE
  2
VPORT
  5
8
100
AcDbSymbolTable
 70
2
  0
VPORT
  5
1F4
100
AcDbSymbolTableRecord
100
AcDbViewportTableRecord
  2
*ACTIVE
 70
0
 10
0.0
 20
0.0
 11
1.0
 21
1.0
 12
11.0
 22
8.5
 13
0.0
 23
0.0
 14
1.0
 24
1.0
 15
0.0
 25
0.0
 16
0.0
 26
0.0
 36
1.0
 17
0.0
 27
0.0
 37
0.0
 40
17.0
 41
1.2941176471
 42
50.0
 43
0.0
 44
0.0
 50
0.0
 51
0.0
 71
0
 72
100
 73
1
 74
1
 75
0
 76
0
 77
0
 78
0
  0
ENDTAB
  0
TABLE
  2
LTYPE
  5
5
100
AcDbSymbolTable
 70
6
  0
LTYPE
  5
14
100
AcDbSymbolTableRecord
100
AcDbLinetypeTableRecord
  2
BYBLOCK
 70
0
  3

 72
65
 73
0
 40
0.0
  0
LTYPE
  5
15
100
AcDbSymbolTableRecord
100
AcDbLinetypeTableRecord
  2
BYLAYER
 70
0
  3

 72
65
 73
0
 40
0.0
  0
LTYPE
  5
16
100
AcDbSymbolTableRecord
100
AcDbLinetypeTableRecord
  2
CONTINUOUS
 70
64
  3
Solid line
 72
65
 73
0
 40
0.0
  0
LTYPE
  5
1F5
100
AcDbSymbolTableRecord
100
AcDbLinetypeTableRecord
  2
CENTER
 70
64
  3
____ _ ____ _ ____ _ ____ _ ____ _ ____ _ ____
 72
65
 73
4
 40
0.6
 49
0.375
 74
0
 49
-0.075
 74
0
 49
0.075
 74
0
 49
-0.075
 74
0
  0
LTYPE
  5
1F6
100
AcDbSymbolTableRecord
100
AcDbLinetypeTableRecord
  2
HIDDEN
 70
64
  3
- - - - - - - - - - - - - - - - - - - -
 72
65
 73
2
 40
0.2
 49
0.1
 74
0
 49
-0.1
 74
0
  0
LTYPE
  5
1F7
100
AcDbSymbolTableRecord
100
AcDbLinetypeTableRecord
  2
PHANTOM
 70
64
  3
_____ _ _ _____ _ _ _____ _ _ _____
 72
65
 73
6
 40
0.8
 49
0.45
 74
0
 49
-0.05
 74
0
 49
0.1
 74
0
 49
-0.05
 74
0
 49
0.1
 74
0
 49
-0.05
 74
0
  0
LTYPE
  5
1F8
100
AcDbSymbolTableRecord
100
AcDbLinetypeTableRecord
  2
DOT
 70
64
  3
. . . . . . . . . . . . . . . . . . . .
 72
65
 73
2
 40
0.2
 49
0.1
 74
0
 49
-0.1
 74
0
  0
LTYPE
  5
1F9
100
AcDbSymbolTableRecord
100
AcDbLinetypeTableRecord
  2
DASHED
 70
64
  3
- - - - - - - - - - - - - - - - - - - -
 72
65
 73
2
 40
0.2
 49
0.1
 74
0
 49
-0.1
 74
0
  0
ENDTAB
  0
TABLE
  2
LAYER
  5
2
100
AcDbSymbolTable
 70
36
  0
LAYER
  5
10
100
AcDbSymbolTableRecord
100
AcDbLayerTableRecord
  2
0
 70
0
 62
7
  6
CONTINUOUS
370
-3
390
F
  0
LAYER
  5
1FA
100
AcDbSymbolTableRecord
100
AcDbLayerTableRecord
  2
DEFAULT_1
 70
0
 62
7
  6
CENTER
370
-3
390
F
  0
LAYER
  5
1FB
100
AcDbSymbolTableRecord
100
AcDbLayerTableRecord
  2
DEFAULT_2
 70
0
 62
8
  6
HIDDEN
370
-3
390
F
  0
LAYER
  5
1FC
100
AcDbSymbolTableRecord
100
AcDbLayerTableRecord
  2
DEFAULT_3
 70
0
 62
7
  6
PHANTOM
370
-3
390
F
  0
LAYER
  5
1FD
100
AcDbSymbolTableRecord
100
AcDbLayerTableRecord
  2
01___PRT_ALL_DTM_PLN
 70
0
 62
7
  6
CONTINUOUS
370
-3
390
F
  0
LAYER
  5
1FE
100
AcDbSymbolTableRecord
100
AcDbLayerTableRecord
  2
01___PRT_DEF_DTM_PLN
 70
0
 62
7
  6
CONTINUOUS
370
-3
390
F
  0
LAYER
  5
1FF
100
AcDbSymbolTableRecord
100
AcDbLayerTableRecord
  2
02___PRT_ALL_AXES
 70
0
 62
7
  6
CONTINUOUS
370
-3
390
F
  0
LAYER
  5
200
100
AcDbSymbolTableRecord
100
AcDbLayerTableRecord
  2
03___PRT_ALL_CURVES
 70
0
 62
7
  6
CONTINUOUS
370
-3
390
F
  0
LAYER
  5
201
100
AcDbSymbolTableRecord
100
AcDbLayerTableRecord
  2
04___PRT_ALL_DTM_PNT
 70
0
 62
7
  6
CONTINUOUS
370
-3
390
F
  0
LAYER
  5
202
100
AcDbSymbolTableRecord
100
AcDbLayerTableRecord
  2
05___PRT_ALL_DTM_CSYS
 70
0
 62
7
  6
CONTINUOUS
370
-3
390
F
  0
LAYER
  5
203
100
AcDbSymbolTableRecord
100
AcDbLayerTableRecord
  2
05___PRT_DEF_DTM_CSYS
 70
0
 62
7
  6
CONTINUOUS
370
-3
390
F
  0
LAYER
  5
204
100
AcDbSymbolTableRecord
100
AcDbLayerTableRecord
  2
06___PRT_ALL_SURFS
 70
0
 62
7
  6
CONTINUOUS
370
-3
390
F
  0
LAYER
  5
205
100
AcDbSymbolTableRecord
100
AcDbLayerTableRecord
  2
AXIS_PART
 70
0
 62
7
  6
CONTINUOUS
370
-3
390
F
  0
LAYER
  5
206
100
AcDbSymbolTableRecord
100
AcDbLayerTableRecord
  2
DATUM_CURVE
 70
0
 62
7
  6
CONTINUOUS
370
-3
390
F
  0
LAYER
  5
207
100
AcDbSymbolTableRecord
100
AcDbLayerTableRecord
  2
DATUM_PART
 70
0
 62
7
  6
CONTINUOUS
370
-3
390
F
  0
LAYER
  5
208
100
AcDbSymbolTableRecord
100
AcDbLayerTableRecord
  2
SURF_PART
 70
0
 62
7
  6
CONTINUOUS
370
-3
390
F
  0
ENDTAB
  0
TABLE
  2
STYLE
  5
3
100
AcDbSymbolTable
 70
1
  0
STYLE
  5
11
100
AcDbSymbolTableRecord
100
AcDbTextStyleTableRecord
  2
STANDARD
 70
0
 40
0.0
 41
0.8
 50
0.0
 71
0
 42
0.2
  3
txt
  4

  0
STYLE
  5
209
100
AcDbSymbolTableRecord
100
AcDbTextStyleTableRecord
  2
TEXTSTYLE_1
 70
0
 40
0.0
 41
0.8
 50
0.0
 71
0
 42
0.2
  3
gdt
  4

  0
ENDTAB
  0
TABLE
  2
VIEW
  5
6
100
AcDbSymbolTable
 70
0
  0
ENDTAB
  0
TABLE
  2
UCS
  5
7
100
AcDbSymbolTable
 70
0
  0
ENDTAB
  0
TABLE
  2
APPID
  5
9
100
AcDbSymbolTable
 70
1
  0
APPID
  5
20A
100
AcDbSymbolTableRecord
100
AcDbRegAppTableRecord
  2
ACAD
 70
0
  0
ENDTAB
  0
TABLE
  2
BLOCK_RECORD
  5
1
100
AcDbSymbolTable
 70
0
  0
BLOCK_RECORD
  5
20B
100
AcDbSymbolTableRecord
100
AcDbBlockTableRecord
  2
*Model_Space
  0
BLOCK_RECORD
  5
20C
100
AcDbSymbolTableRecord
100
AcDbBlockTableRecord
  2
*Paper_Space
  0
BLOCK_RECORD
  5
20D
100
AcDbSymbolTableRecord
100
AcDbBlockTableRecord
  2
_CLOSED
  0
BLOCK_RECORD
  5
20E
100
AcDbSymbolTableRecord
100
AcDbBlockTableRecord
  2
XSEC_CLOSED
  0
BLOCK_RECORD
  5
20F
100
AcDbSymbolTableRecord
100
AcDbBlockTableRecord
  2
*D0
  0
BLOCK_RECORD
  5
210
100
AcDbSymbolTableRecord
100
AcDbBlockTableRecord
  2
*D1
  0
BLOCK_RECORD
  5
211
100
AcDbSymbolTableRecord
100
AcDbBlockTableRecord
  2
*D2
  0
BLOCK_RECORD
  5
212
100
AcDbSymbolTableRecord
100
AcDbBlockTableRecord
  2
*D3
  0
BLOCK_RECORD
  5
213
100
AcDbSymbolTableRecord
100
AcDbBlockTableRecord
  2
*D4
  0
BLOCK_RECORD
  5
214
100
AcDbSymbolTableRecord
100
AcDbBlockTableRecord
  2
*D5
  0
BLOCK_RECORD
  5
215
100
AcDbSymbolTableRecord
100
AcDbBlockTableRecord
  2
*D6
  0
BLOCK_RECORD
  5
216
100
AcDbSymbolTableRecord
100
AcDbBlockTableRecord
  2
*D7
  0
BLOCK_RECORD
  5
217
100
AcDbSymbolTableRecord
100
AcDbBlockTableRecord
  2
*D8
  0
ENDTAB
  0
TABLE
  2
DIMSTYLE
  5
A
100
AcDbSymbolTable
 70
1
100
AcDbDimStyleTable
 71
0
  0
DIMSTYLE
105
218
100
AcDbSymbolTableRecord
100
AcDbDimStyleTableRecord
  2
STANDARD
 70
0
  3

  4

 40
1.0
 41
0.1875
 42
0.0625
 43
0.38
 44
0.125
 45
0.0
 46
0.0
 47
0.0001
 48
0.0001
140
0.15625
141
0.09
142
0.0
143
25.4
144
1.0
145
0.0
146
1.0
147
0.09
 71
0.0
 72
0.0
 73
1
 74
1
 75
0
 76
0
 77
0
 78
4
 79
1
170
1
171
3
172
0
173
0
174
0
175
0
176
0
177
0
178
0
270
2
179
4
271
4
272
4
273
2
274
2
275
0
280
0
281
0
282
0
283
1
284
4
285
0
286
0
287
3
288
0
340
11
278
46
341
20D
342
20D
343
20D
344
20D
  0
DIMSTYLE
105
219
100
AcDbSymbolTableRecord
100
AcDbDimStyleTableRecord
  2
DIMSTYLE_1
 70
0
  3

  4

 40
1.0
 41
0.1875
 42
0.0625
 43
0.38
 44
0.125
 45
0.0
 46
0.0
 47
0.0
 48
0.0
140
0.15625
141
0.09
142
0.0
143
25.4
144
1.0
145
0.0
146
1.0
147
0.078125
 71
0.0
 72
0.0
 73
1
 74
1
 75
0
 76
0
 77
0
 78
4
 79
1
170
1
171
1
172
0
173
0
174
0
175
0
176
0
177
0
178
0
270
2
179
2
271
2
272
4
273
2
274
2
275
0
280
0
281
0
282
0
283
1
284
4
285
0
286
0
287
3
288
0
340
11
278
46
341
20D
342
20D
343
20D
344
20D
  0
ENDTAB
  0
ENDSEC
  0
SECTION
  2
BLOCKS
  0
BLOCK
  5
20
100
AcDbEntity
  8
0
100
AcDbBlockBegin
  2
*Model_Space
 70
0
 10
0.0
 20
0.0
 30
0.0
  3
*Model_Space
  1

  0
ENDBLK
  5
21
100
AcDbEntity
  8
0
100
AcDbBlockEnd
  0
BLOCK
  5
1C
100
AcDbEntity
  8
0
100
AcDbBlockBegin
  2
*Paper_Space
 70
0
 10
0.0
 20
0.0
 30
0.0
  3
*Paper_Space
  1

  0
ENDBLK
  5
1D
100
AcDbEntity
  8
0
100
AcDbBlockEnd
  0
BLOCK
  5
21A
100
AcDbEntity
  8
0
100
AcDbBlockBegin
  2
_CLOSED
 70
64
 10
0.0
 20
0.0
  3
_CLOSED
  1

  0
LINE
  5
21B
100
AcDbEntity
  8
0
  6
BYBLOCK
 62
0
100
AcDbLine
 10
0.0
 20
0.0
 11
-1.0
 21
0.1666666667
  0
LINE
  5
21C
100
AcDbEntity
  8
0
  6
BYBLOCK
 62
0
100
AcDbLine
 10
-1.0
 20
0.1666666667
 11
-1.0
 21
-0.1666666667
  0
LINE
  5
21D
100
AcDbEntity
  8
0
  6
BYBLOCK
 62
0
100
AcDbLine
 10
-1.0
 20
-0.1666666667
 11
0.0
 21
0.0
  0
LINE
  5
21E
100
AcDbEntity
  8
0
  6
BYBLOCK
 62
0
100
AcDbLine
 10
-1.0
 20
0.0
 11
0.0
 21
0.0
  0
ENDBLK
  5
21F
100
AcDbEntity
  8
0
  6
BYBLOCK
 62
0
100
AcDbBlockEnd
  0
BLOCK
  5
220
100
AcDbEntity
  8
0
100
AcDbBlockBegin
  2
XSEC_CLOSED
 70
64
 10
0.0
 20
0.0
  3
XSEC_CLOSED
  1

  0
LINE
  5
221
100
AcDbEntity
  8
0
  6
BYBLOCK
 62
0
100
AcDbLine
 10
0.0
 20
0.0
 11
-1.0
 21
0.1666666667
  0
LINE
  5
222
100
AcDbEntity
  8
0
  6
BYBLOCK
 62
0
100
AcDbLine
 10
-1.0
 20
0.1666666667
 11
-1.0
 21
-0.1666666667
  0
LINE
  5
223
100
AcDbEntity
  8
0
  6
BYBLOCK
 62
0
100
AcDbLine
 10
-1.0
 20
-0.1666666667
 11
0.0
 21
0.0
  0
LINE
  5
224
100
AcDbEntity
  8
0
  6
BYBLOCK
 62
0
100
AcDbLine
 10
-1.0
 20
0.0
 11
0.0
 21
0.0
  0
ENDBLK
  5
225
100
AcDbEntity
  8
0
  6
BYBLOCK
 62
0
100
AcDbBlockEnd
  0
BLOCK
  5
226
100
AcDbEntity
  8
0
100
AcDbBlockBegin
 62
2
  6
CONTINUOUS
  2
*D0
 70
65
 10
0.0
 20
0.0
  3
*D0
  1

  0
MTEXT
  5
227
100
AcDbEntity
  8
0
100
AcDbMText
 62
2
  6
CONTINUOUS
  7
STANDARD
 71
2
 72
1
 10
0.8276501191
 20
11.6466431557
 30
0.0
 11
1.0
 21
0.0
 31
0.0
 73
2
 44
0.9
  1
6.75\P[171,6]
 40
0.15625
 41
0.875
  0
LINE
  5
228
100
AcDbEntity
  8
0
100
AcDbLine
 62
2
  6
CONTINUOUS
 10
5.2388033228
 20
8.1913573055
 11
0.8901501191
 21
8.1913573055
  0
LINE
  5
229
100
AcDbEntity
  8
0
100
AcDbLine
 62
2
  6
CONTINUOUS
 10
5.2730478277
 20
14.9456790059
 11
0.8901501191
 21
14.9456790059
  0
LINE
  5
22A
100
AcDbEntity
  8
0
100
AcDbLine
 62
2
  6
CONTINUOUS
 10
1.0151501191
 20
8.1913573055
 11
1.0151501191
 21
11.1778931557
  0
LINE
  5
22B
100
AcDbEntity
  8
0
100
AcDbLine
 62
2
  6
CONTINUOUS
 10
1.0151501191
 20
14.9456790059
 11
1.0151501191
 21
11.7247681557
  0
INSERT
  5
22C
100
AcDbEntity
  8
0
100
AcDbBlockReference
 62
2
  6
CONTINUOUS
  2
_CLOSED
 10
1.0151501191
 20
8.1913573055
 41
0.1875
 42
0.1875
 43
0.1875
 50
270.0
  0
INSERT
  5
22D
100
AcDbEntity
  8
0
100
AcDbBlockReference
 62
2
  6
CONTINUOUS
  2
_CLOSED
 10
1.0151501191
 20
14.9456790059
 41
0.1875
 42
0.1875
 43
0.1875
 50
90.0
  0
ENDBLK
  5
22E
100
AcDbEntity
  8
0
  6
BYBLOCK
 62
0
100
AcDbBlockEnd
  0
BLOCK
  5
22F
100
AcDbEntity
  8
0
100
AcDbBlockBegin
 62
2
  6
CONTINUOUS
  2
*D1
 70
65
 10
0.0
 20
0.0
  3
*D1
  1

  0
MTEXT
  5
230
100
AcDbEntity
  8
0
100
AcDbMText
 62
2
  6
CONTINUOUS
  7
STANDARD
 71
2
 72
1
 10
5.9207410266
 20
16.6704716504
 30
0.0
 11
1.0
 21
0.0
 31
0.0
 73
2
 44
0.9
  1
3.72\P[94,4]
 40
0.15625
 41
0.75
  0
LINE
  5
231
100
AcDbEntity
  8
0
100
AcDbLine
 62
2
  6
CONTINUOUS
 10
7.9744863767
 20
14.2281532314
 11
7.9744863767
 21
16.7173466504
  0
LINE
  5
232
100
AcDbEntity
  8
0
100
AcDbLine
 62
2
  6
CONTINUOUS
 10
4.2581202689
 20
14.2281532314
 11
4.2581202689
 21
16.7173466504
  0
LINE
  5
233
100
AcDbEntity
  8
0
100
AcDbLine
 62
2
  6
CONTINUOUS
 10
7.9744863767
 20
16.5923466504
 11
6.4988660266
 21
16.5923466504
  0
LINE
  5
234
100
AcDbEntity
  8
0
100
AcDbLine
 62
2
  6
CONTINUOUS
 10
4.2581202689
 20
16.5923466504
 11
5.5926160266
 21
16.5923466504
  0
INSERT
  5
235
100
AcDbEntity
  8
0
100
AcDbBlockReference
 62
2
  6
CONTINUOUS
  2
_CLOSED
 10
7.9744863767
 20
16.5923466504
 41
0.1875
 42
0.1875
 43
0.1875
  0
INSERT
  5
236
100
AcDbEntity
  8
0
100
AcDbBlockReference
 62
2
  6
CONTINUOUS
  2
_CLOSED
 10
4.2581202689
 20
16.5923466504
 41
0.1875
 42
0.1875
 43
0.1875
 50
180.0
  0
ENDBLK
  5
237
100
AcDbEntity
  8
0
  6
BYBLOCK
 62
0
100
AcDbBlockEnd
  0
BLOCK
  5
238
100
AcDbEntity
  8
0
100
AcDbBlockBegin
 62
2
  6
CONTINUOUS
  2
*D2
 70
65
 10
0.0
 20
0.0
  3
*D2
  1

  0
MTEXT
  5
239
100
AcDbEntity
  8
0
100
AcDbMText
 62
2
  6
CONTINUOUS
  7
STANDARD
 71
2
 72
1
 10
2.037253363
 20
4.1931234971
 30
0.0
 11
1.0
 21
0.0
 31
0.0
 73
2
 44
0.9
  1
3.43\P[87,1]
 40
0.15625
 41
0.75
  0
LINE
  5
23A
100
AcDbEntity
  8
0
100
AcDbLine
 62
2
  6
CONTINUOUS
 10
4.2416132629
 20
5.8299984971
 11
2.037253363
 21
5.8299984971
  0
LINE
  5
23B
100
AcDbEntity
  8
0
100
AcDbLine
 62
2
  6
CONTINUOUS
 10
4.4138033228
 20
2.3999984971
 11
2.037253363
 21
2.3999984971
  0
LINE
  5
23C
100
AcDbEntity
  8
0
100
AcDbLine
 62
2
  6
CONTINUOUS
 10
2.162253363
 20
5.8299984971
 11
2.162253363
 21
4.2712484971
  0
LINE
  5
23D
100
AcDbEntity
  8
0
100
AcDbLine
 62
2
  6
CONTINUOUS
 10
2.162253363
 20
2.3999984971
 11
2.162253363
 21
3.7243734971
  0
INSERT
  5
23E
100
AcDbEntity
  8
0
100
AcDbBlockReference
 62
2
  6
CONTINUOUS
  2
_CLOSED
 10
2.162253363
 20
5.8299984971
 41
0.1875
 42
0.1875
 43
0.1875
 50
90.0
  0
INSERT
  5
23F
100
AcDbEntity
  8
0
100
AcDbBlockReference
 62
2
  6
CONTINUOUS
  2
_CLOSED
 10
2.162253363
 20
2.3999984971
 41
0.1875
 42
0.1875
 43
0.1875
 50
270.0
  0
ENDBLK
  5
240
100
AcDbEntity
  8
0
  6
BYBLOCK
 62
0
100
AcDbBlockEnd
  0
BLOCK
  5
241
100
AcDbEntity
  8
0
100
AcDbBlockBegin
 62
2
  6
CONTINUOUS
  2
*D3
 70
65
 10
0.0
 20
0.0
  3
*D3
  1

  0
MTEXT
  5
242
100
AcDbEntity
  8
0
100
AcDbMText
 62
2
  6
CONTINUOUS
  7
STANDARD
 71
2
 72
1
 10
3.1262281697
 20
11.6484823055
 30
0.0
 11
1.0
 21
0.0
 31
0.0
 73
2
 44
0.9
  1
4.34\P[110,3]
 40
0.15625
 41
0.875
  0
LINE
  5
243
100
AcDbEntity
  8
0
100
AcDbLine
 62
2
  6
CONTINUOUS
 10
4.6788033228
 20
13.7423573055
 11
3.1887281697
 21
13.7423573055
  0
LINE
  5
244
100
AcDbEntity
  8
0
100
AcDbLine
 62
2
  6
CONTINUOUS
 10
4.6788033228
 20
9.3983573055
 11
3.1887281697
 21
9.3983573055
  0
LINE
  5
245
100
AcDbEntity
  8
0
100
AcDbLine
 62
2
  6
CONTINUOUS
 10
3.3137281697
 20
13.7423573055
 11
3.3137281697
 21
11.7266073055
  0
LINE
  5
246
100
AcDbEntity
  8
0
100
AcDbLine
 62
2
  6
CONTINUOUS
 10
3.3137281697
 20
9.3983573055
 11
3.3137281697
 21
11.1797323055
  0
INSERT
  5
247
100
AcDbEntity
  8
0
100
AcDbBlockReference
 62
2
  6
CONTINUOUS
  2
_CLOSED
 10
3.3137281697
 20
13.7423573055
 41
0.1875
 42
0.1875
 43
0.1875
 50
90.0
  0
INSERT
  5
248
100
AcDbEntity
  8
0
100
AcDbBlockReference
 62
2
  6
CONTINUOUS
  2
_CLOSED
 10
3.3137281697
 20
9.3983573055
 41
0.1875
 42
0.1875
 43
0.1875
 50
270.0
  0
ENDBLK
  5
249
100
AcDbEntity
  8
0
  6
BYBLOCK
 62
0
100
AcDbBlockEnd
  0
BLOCK
  5
24A
100
AcDbEntity
  8
0
100
AcDbBlockBegin
 62
2
  6
CONTINUOUS
  2
*D4
 70
65
 10
0.0
 20
0.0
  3
*D4
  1

  0
MTEXT
  5
24B
100
AcDbEntity
  8
0
100
AcDbMText
 62
2
  6
CONTINUOUS
  7
STANDARD
 71
2
 72
1
 10
1.9168239328
 20
11.6484823055
 30
0.0
 11
1.0
 21
0.0
 31
0.0
 73
2
 44
0.9
  1
6.13\P[155,6]
 40
0.15625
 41
0.875
  0
LINE
  5
24C
100
AcDbEntity
  8
0
100
AcDbLine
 62
2
  6
CONTINUOUS
 10
4.7438033228
 20
14.6328573055
 11
1.9793239328
 21
14.6328573055
  0
LINE
  5
24D
100
AcDbEntity
  8
0
100
AcDbLine
 62
2
  6
CONTINUOUS
 10
7.3638033228
 20
8.5078573055
 11
1.9793239328
 21
8.5078573055
  0
LINE
  5
24E
100
AcDbEntity
  8
0
100
AcDbLine
 62
2
  6
CONTINUOUS
 10
2.1043239328
 20
14.6328573055
 11
2.1043239328
 21
11.7266073055
  0
LINE
  5
24F
100
AcDbEntity
  8
0
100
AcDbLine
 62
2
  6
CONTINUOUS
 10
2.1043239328
 20
8.5078573055
 11
2.1043239328
 21
11.1797323055
  0
INSERT
  5
250
100
AcDbEntity
  8
0
100
AcDbBlockReference
 62
2
  6
CONTINUOUS
  2
_CLOSED
 10
2.1043239328
 20
14.6328573055
 41
0.1875
 42
0.1875
 43
0.1875
 50
90.0
  0
INSERT
  5
251
100
AcDbEntity
  8
0
100
AcDbBlockReference
 62
2
  6
CONTINUOUS
  2
_CLOSED
 10
2.1043239328
 20
8.5078573055
 41
0.1875
 42
0.1875
 43
0.1875
 50
270.0
  0
ENDBLK
  5
252
100
AcDbEntity
  8
0
  6
BYBLOCK
 62
0
100
AcDbBlockEnd
  0
BLOCK
  5
253
100
AcDbEntity
  8
0
100
AcDbBlockBegin
 62
2
  6
CONTINUOUS
  2
*D5
 70
65
 10
0.0
 20
0.0
  3
*D5
  1

  0
MTEXT
  5
254
100
AcDbEntity
  8
0
100
AcDbMText
 62
2
  6
CONTINUOUS
  7
STANDARD
 71
2
 72
1
 10
3.3355321192
 20
4.6531234971
 30
0.0
 11
1.0
 21
0.0
 31
0.0
 73
2
 44
0.9
  1
2.51\P[63,8]
 40
0.15625
 41
0.75
  0
LINE
  5
255
100
AcDbEntity
  8
0
100
AcDbLine
 62
2
  6
CONTINUOUS
 10
4.2416132629
 20
5.8299984971
 11
3.3355321192
 21
5.8299984971
  0
LINE
  5
256
100
AcDbEntity
  8
0
100
AcDbLine
 62
2
  6
CONTINUOUS
 10
6.0538033228
 20
3.3199984971
 11
3.3355321192
 21
3.3199984971
  0
LINE
  5
257
100
AcDbEntity
  8
0
100
AcDbLine
 62
2
  6
CONTINUOUS
 10
3.4605321192
 20
5.8299984971
 11
3.4605321192
 21
4.7312484971
  0
LINE
  5
258
100
AcDbEntity
  8
0
100
AcDbLine
 62
2
  6
CONTINUOUS
 10
3.4605321192
 20
3.3199984971
 11
3.4605321192
 21
4.1843734971
  0
INSERT
  5
259
100
AcDbEntity
  8
0
100
AcDbBlockReference
 62
2
  6
CONTINUOUS
  2
_CLOSED
 10
3.4605321192
 20
5.8299984971
 41
0.1875
 42
0.1875
 43
0.1875
 50
90.0
  0
INSERT
  5
25A
100
AcDbEntity
  8
0
100
AcDbBlockReference
 62
2
  6
CONTINUOUS
  2
_CLOSED
 10
3.4605321192
 20
3.3199984971
 41
0.1875
 42
0.1875
 43
0.1875
 50
270.0
  0
ENDBLK
  5
25B
100
AcDbEntity
  8
0
  6
BYBLOCK
 62
0
100
AcDbBlockEnd
  0
BLOCK
  5
25C
100
AcDbEntity
  8
0
100
AcDbBlockBegin
 62
2
  6
CONTINUOUS
  2
*D6
 70
65
 10
0.0
 20
0.0
  3
*D6
  1

  0
MTEXT
  5
25D
100
AcDbEntity
  8
0
100
AcDbMText
 62
2
  6
CONTINUOUS
  7
STANDARD
 71
2
 72
1
 10
5.9164350274
 20
16.1034463193
 30
0.0
 11
1.0
 21
0.0
 31
0.0
 73
2
 44
0.9
  1
2.75\P[69,9]
 40
0.15625
 41
0.75
  0
LINE
  5
25E
100
AcDbEntity
  8
0
100
AcDbLine
 62
2
  6
CONTINUOUS
 10
4.7413033228
 20
13.8048573055
 11
4.7413033228
 21
16.1503213193
  0
LINE
  5
25F
100
AcDbEntity
  8
0
100
AcDbLine
 62
2
  6
CONTINUOUS
 10
7.4913033228
 20
13.8048573055
 11
7.4913033228
 21
16.1503213193
  0
LINE
  5
260
100
AcDbEntity
  8
0
100
AcDbLine
 62
2
  6
CONTINUOUS
 10
4.7413033228
 20
16.0253213193
 11
5.5883100274
 21
16.0253213193
  0
LINE
  5
261
100
AcDbEntity
  8
0
100
AcDbLine
 62
2
  6
CONTINUOUS
 10
7.4913033228
 20
16.0253213193
 11
6.4945600274
 21
16.0253213193
  0
INSERT
  5
262
100
AcDbEntity
  8
0
100
AcDbBlockReference
 62
2
  6
CONTINUOUS
  2
_CLOSED
 10
4.7413033228
 20
16.0253213193
 41
0.1875
 42
0.1875
 43
0.1875
 50
180.0
  0
INSERT
  5
263
100
AcDbEntity
  8
0
100
AcDbBlockReference
 62
2
  6
CONTINUOUS
  2
_CLOSED
 10
7.4913033228
 20
16.0253213193
 41
0.1875
 42
0.1875
 43
0.1875
  0
ENDBLK
  5
264
100
AcDbEntity
  8
0
  6
BYBLOCK
 62
0
100
AcDbBlockEnd
  0
BLOCK
  5
265
100
AcDbEntity
  8
0
100
AcDbBlockBegin
 62
2
  6
CONTINUOUS
  2
*D7
 70
65
 10
0.0
 20
0.0
  3
*D7
  1

  0
MTEXT
  5
266
100
AcDbEntity
  8
0
100
AcDbMText
 62
2
  6
CONTINUOUS
  7
STANDARD
 71
2
 72
1
 10
6.032203056
 20
7.3534458719
 30
0.0
 11
1.0
 21
0.0
 31
0.0
 73
2
 44
0.9
  1
2.62\P[66,5]
 40
0.15625
 41
0.75
  0
LINE
  5
267
100
AcDbEntity
  8
0
100
AcDbLine
 62
2
  6
CONTINUOUS
 10
7.4263033228
 20
8.4453573055
 11
7.4263033228
 21
7.1503208719
  0
LINE
  5
268
100
AcDbEntity
  8
0
100
AcDbLine
 62
2
  6
CONTINUOUS
 10
4.8063033228
 20
14.5703573055
 11
4.8063033228
 21
7.1503208719
  0
LINE
  5
269
100
AcDbEntity
  8
0
100
AcDbLine
 62
2
  6
CONTINUOUS
 10
7.4263033228
 20
7.2753208719
 11
6.610328056
 21
7.2753208719
  0
LINE
  5
26A
100
AcDbEntity
  8
0
100
AcDbLine
 62
2
  6
CONTINUOUS
 10
4.8063033228
 20
7.2753208719
 11
5.704078056
 21
7.2753208719
  0
INSERT
  5
26B
100
AcDbEntity
  8
0
100
AcDbBlockReference
 62
2
  6
CONTINUOUS
  2
_CLOSED
 10
7.4263033228
 20
7.2753208719
 41
0.1875
 42
0.1875
 43
0.1875
  0
INSERT
  5
26C
100
AcDbEntity
  8
0
100
AcDbBlockReference
 62
2
  6
CONTINUOUS
  2
_CLOSED
 10
4.8063033228
 20
7.2753208719
 41
0.1875
 42
0.1875
 43
0.1875
 50
180.0
  0
ENDBLK
  5
26D
100
AcDbEntity
  8
0
  6
BYBLOCK
 62
0
100
AcDbBlockEnd
  0
BLOCK
  5
26E
100
AcDbEntity
  8
0
100
AcDbBlockBegin
 62
2
  6
CONTINUOUS
  2
*D8
 70
65
 10
0.0
 20
0.0
  3
*D8
  1

  0
MTEXT
  5
26F
100
AcDbEntity
  8
0
100
AcDbMText
 62
2
  6
CONTINUOUS
  7
STANDARD
 71
2
 72
1
 10
11.4912065068
 20
16.6017181266
 30
0.0
 11
1.0
 21
0.0
 31
0.0
 73
2
 44
0.9
  1
3.13\P[79,4]
 40
0.15625
 41
0.75
  0
LINE
  5
270
100
AcDbEntity
  8
0
100
AcDbLine
 62
2
  6
CONTINUOUS
 10
13.0817977039
 20
13.5595595834
 11
13.0817977039
 21
16.6485931266
  0
LINE
  5
271
100
AcDbEntity
  8
0
100
AcDbLine
 62
2
  6
CONTINUOUS
 10
9.9567977039
 20
14.2281532314
 11
9.9567977039
 21
16.6485931266
  0
LINE
  5
272
100
AcDbEntity
  8
0
100
AcDbLine
 62
2
  6
CONTINUOUS
 10
13.0817977039
 20
16.5235931266
 11
12.0693315068
 21
16.5235931266
  0
LINE
  5
273
100
AcDbEntity
  8
0
100
AcDbLine
 62
2
  6
CONTINUOUS
 10
9.9567977039
 20
16.5235931266
 11
11.1630815068
 21
16.5235931266
  0
INSERT
  5
274
100
AcDbEntity
  8
0
100
AcDbBlockReference
 62
2
  6
CONTINUOUS
  2
_CLOSED
 10
13.0817977039
 20
16.5235931266
 41
0.1875
 42
0.1875
 43
0.1875
  0
INSERT
  5
275
100
AcDbEntity
  8
0
100
AcDbBlockReference
 62
2
  6
CONTINUOUS
  2
_CLOSED
 10
9.9567977039
 20
16.5235931266
 41
0.1875
 42
0.1875
 43
0.1875
 50
180.0
  0
ENDBLK
  5
276
100
AcDbEntity
  8
0
  6
BYBLOCK
 62
0
100
AcDbBlockEnd
  0
ENDSEC
  0
SECTION
  2
ENTITIES
  0
IMAGE
  5
277
100
AcDbEntity
  8
0
100
AcDbRasterImage
 62
7
  6
CONTINUOUS
 10
14.5169769953
 20
0.7712251516
 30
0.0
 11
0.0066666667
 21
0.0
 31
0.0
 12
0.0
 22
0.0066666667
 32
0.0
 13
841.0
 23
1020.0
340
       52A
 70
9
280
0
281
50
282
50
283
0
360
       525
 71
1
 91
2
 14
-0.5
 24
-0.5
 14
840.5
 24
1019.5
  0
HATCH
  5
278
100
AcDbEntity
  8
0
100
AcDbHatch
 62
2
  6
CONTINUOUS
 10
0.0
 20
0.0
 30
0.0
210
0.0
220
0.0
230
1.0
  2
A
 70
0
 71
0
 91
2
 92
1
 93
26
 72
1
 10
13.3317977039
 20
8.1913573055
 11
13.3317977039
 21
13.5553573055
 72
1
 10
13.3317977039
 20
8.1913573055
 11
12.9327549714
 21
8.192750233
 72
1
 10
12.9042977039
 20
9.1203573055
 11
12.9327549714
 21
8.192750233
 72
1
 10
12.9042977039
 20
9.1203573055
 11
12.8572977039
 21
9.1203573055
 72
1
 10
12.8572977039
 20
9.5119857213
 11
12.8572977039
 21
9.1203573055
 72
1
 10
12.8572977039
 20
9.5119857213
 11
12.9540665167
 21
9.5136748272
 72
2
 10
12.9517977039
 20
9.6436550276
 40
0.13
 50
271.0
 51
360.0
 73
1
 72
1
 10
13.0817977039
 20
9.6436550276
 11
13.0817977039
 21
13.4970595834
 72
2
 10
12.9517977039
 20
13.4970595834
 40
0.13
 50
0.0
 51
89.0
 73
1
 72
1
 10
10.0019948932
 20
13.6785683856
 11
12.9540665167
 21
13.6270397837
 72
2
 10
10.0027977039
 20
13.7245613796
 40
0.046
 50
180.0
 51
269.0
 73
1
 72
1
 10
9.9567977039
 20
13.7245613796
 11
9.9567977039
 21
14.1656532314
 72
2
 10
10.0027977039
 20
14.1656532314
 40
0.046
 50
91.0
 51
180.0
 73
1
 72
1
 10
10.0019948932
 20
14.2116462253
 11
11.4640688433
 21
14.2371668211
 72
2
 10
11.4618000199
 20
14.3671470213
 40
0.1299997004
 50
271.0000046243
 51
360.0
 73
1
 72
1
 10
11.5917977039
 20
14.3671470213
 11
11.5917977039
 21
14.8834926193
 72
2
 10
11.6518000777
 20
14.8834926181
 40
0.06
 50
90.2
 51
179.9999988126
 73
1
 72
1
 10
12.0009423014
 20
14.9447117249
 11
11.6515906386
 21
14.9434922526
 72
1
 10
12.0242977039
 20
14.1943573055
 11
12.0009423014
 21
14.9447117249
 72
1
 10
12.0242977039
 20
14.1943573055
 11
12.9092977039
 21
14.1943573055
 72
1
 10
12.9092977039
 20
14.1943573055
 11
12.9327543478
 21
14.9479643757
 72
1
 10
13.3317977039
 20
14.9493573055
 11
12.9327543478
 21
14.9479643757
 72
1
 10
13.3317977039
 20
14.0853573055
 11
13.3317977039
 21
14.9493573055
 72
1
 10
13.3317977039
 20
14.0853573055
 11
13.3867977039
 21
14.0853573055
 72
1
 10
13.3867977039
 20
14.0853573055
 11
13.3867977039
 21
13.5553573055
 72
1
 10
13.3317977039
 20
13.5553573055
 11
13.3867977039
 21
13.5553573055
 97
0
 92
1
 93
12
 72
1
 10
9.9567977039
 20
8.9750613796
 11
9.9567977039
 21
9.4161532314
 72
2
 10
10.0027977039
 20
9.4161532314
 40
0.046
 50
91.0
 51
180.0
 73
1
 72
1
 10
10.0019948932
 20
9.4621462253
 11
12.0762977039
 21
9.4983533156
 72
1
 10
12.0762977039
 20
9.4983533156
 11
12.0762977039
 21
9.1203573055
 72
1
 10
12.0762977039
 20
9.1203573055
 11
12.0292977039
 21
9.1203573055
 72
1
 10
12.0292977039
 20
9.1203573055
 11
12.0009402219
 21
8.1960028933
 72
1
 10
12.0009402219
 20
8.1960028933
 11
11.6515904918
 21
8.1972223589
 72
2
 10
11.6517999308
 20
8.2572219933
 40
0.06
 50
180.0000010891
 51
269.8
 73
1
 72
1
 10
11.5917977039
 20
8.7735675901
 11
11.5917977039
 21
8.2572219922
 72
2
 10
11.4617999899
 20
8.7735675902
 40
0.1299997043
 50
0.0
 51
88.9999954376
 73
1
 72
1
 10
10.0019948932
 20
8.9290683856
 11
11.4640688131
 21
8.9035477904
 72
2
 10
10.0027977039
 20
8.9750613796
 40
0.046
 50
180.0
 51
269.0
 73
1
 97
0
 75
0
 76
0
 52
45.0
 41
0.2547855359
 77
0
 78
1
 53
45.0
 43
0.0
 44
0.0
 45
-0.1801605802
 46
0.1801605802
 79
0
 98
1
 10
0.0
 20
0.0
  0
MTEXT
  5
279
100
AcDbEntity
  8
0
100
AcDbMText
 62
7
  6
CONTINUOUS
  7
STANDARD
 71
1
 72
1
 10
4.9457390283
 20
7.842502732
 30
0.0
 11
1.0
 21
0.0
 31
0.0
 73
2
 44
0.9
  1
A
 40
0.15625
 41
0.125
  0
LEADER
  5
27A
100
AcDbEntity
  8
0
100
AcDbLeader
 62
7
  6
CONTINUOUS
  3
STANDARD
 71
1
 72
0
 73
3
 75
0
 76
2
 10
5.1332390283
 20
7.764377732
 30
0.0
 10
6.1163033228
 20
7.764377732
 30
0.0
1001
ACAD
1000
DSTYLE
1002
{
1070
77
1070
0
1070
341
1005
20E
1002
}
  0
MTEXT
  5
27B
100
AcDbEntity
  8
0
100
AcDbMText
 62
7
  6
CONTINUOUS
  7
STANDARD
 71
1
 72
1
 10
4.8314319429
 20
15.3041276917
 30
0.0
 11
1.0
 21
0.0
 31
0.0
 73
2
 44
0.9
  1
A
 40
0.15625
 41
0.125
  0
LEADER
  5
27C
100
AcDbEntity
  8
0
100
AcDbLeader
 62
7
  6
CONTINUOUS
  3
STANDARD
 71
1
 72
0
 73
3
 75
0
 76
2
 10
4.999292322
 20
15.2158043249
 30
0.0
 10
6.1163033228
 20
15.2158043249
 30
0.0
1001
ACAD
1000
DSTYLE
1002
{
1070
77
1070
0
1070
341
1005
20E
1002
}
  0
DIMENSION
  5
27D
100
AcDbEntity
  8
0
100
AcDbDimension
 62
2
  6
CONTINUOUS
  2
*D0
 10
1.0151501191
 20
14.9456790059
 11
1.0151501191
 21
11.4513306557
 70
160
 71
2
 42
6.7543217005
  1
<>\P[]
  3
DIMSTYLE_1
100
AcDbAlignedDimension
 13
5.3013033228
 23
8.1913573055
 14
5.3355478277
 24
14.9456790059
 50
90.0
100
AcDbRotatedDimension
  0
DIMENSION
  5
27E
100
AcDbEntity
  8
0
100
AcDbDimension
 62
2
  6
CONTINUOUS
  2
*D1
 10
4.2581202689
 20
16.5923466504
 11
6.0457410266
 21
16.4751591504
 70
160
 71
2
 42
3.7163661078
  1
<>\P[]
  3
DIMSTYLE_1
100
AcDbAlignedDimension
 13
7.9744863767
 23
14.1656532314
 14
4.2581202689
 24
14.1656532314
 50
180.0
100
AcDbRotatedDimension
  0
DIMENSION
  5
27F
100
AcDbEntity
  8
0
100
AcDbDimension
 62
2
  6
CONTINUOUS
  2
*D2
 10
2.162253363
 20
2.3999984971
 11
2.162253363
 21
3.9978109971
 70
160
 71
2
 42
3.43
  1
<>\P[]
  3
DIMSTYLE_1
100
AcDbAlignedDimension
 13
4.3041132629
 23
5.8299984971
 14
4.4763033228
 24
2.3999984971
 50
270.0
100
AcDbRotatedDimension
  0
DIMENSION
  5
280
100
AcDbEntity
  8
0
100
AcDbDimension
 62
2
  6
CONTINUOUS
  2
*D3
 10
3.3137281697
 20
9.3983573055
 11
3.3137281697
 21
11.4531698055
 70
160
 71
2
 42
4.344
  1
<>\P[]
  3
DIMSTYLE_1
100
AcDbAlignedDimension
 13
4.7413033228
 23
13.7423573055
 14
4.7413033228
 24
9.3983573055
 50
270.0
100
AcDbRotatedDimension
  0
DIMENSION
  5
281
100
AcDbEntity
  8
0
100
AcDbDimension
 62
2
  6
CONTINUOUS
  2
*D4
 10
2.1043239328
 20
8.5078573055
 11
2.1043239328
 21
11.4531698055
 70
160
 71
2
 42
6.125
  1
<>\P[]
  3
DIMSTYLE_1
100
AcDbAlignedDimension
 13
4.8063033228
 23
14.6328573055
 14
7.4263033228
 24
8.5078573055
 50
270.0
100
AcDbRotatedDimension
  0
DIMENSION
  5
282
100
AcDbEntity
  8
0
100
AcDbDimension
 62
2
  6
CONTINUOUS
  2
*D5
 10
3.4605321192
 20
3.3199984971
 11
3.4605321192
 21
4.4578109971
 70
160
 71
2
 42
2.51
  1
<>\P[]
  3
DIMSTYLE_1
100
AcDbAlignedDimension
 13
4.3041132629
 23
5.8299984971
 14
6.1163033228
 24
3.3199984971
 50
270.0
100
AcDbRotatedDimension
  0
DIMENSION
  5
283
100
AcDbEntity
  8
0
100
AcDbDimension
 62
2
  6
CONTINUOUS
  2
*D6
 10
7.4913033228
 20
16.0253213193
 11
6.0414350274
 21
15.9081338193
 70
160
 71
2
 42
2.75
  1
<>\P[]
  3
DIMSTYLE_1
100
AcDbAlignedDimension
 13
4.7413033228
 23
13.7423573055
 14
7.4913033228
 24
13.7423573055
100
AcDbRotatedDimension
  0
DIMENSION
  5
284
100
AcDbEntity
  8
0
100
AcDbDimension
 62
2
  6
CONTINUOUS
  2
*D7
 10
4.8063033228
 20
7.2753208719
 11
6.157203056
 21
7.1581333719
 70
160
 71
2
 42
2.62
  1
<>\P[]
  3
DIMSTYLE_1
100
AcDbAlignedDimension
 13
7.4263033228
 23
8.5078573055
 14
4.8063033228
 24
14.6328573055
 50
180.0
100
AcDbRotatedDimension
  0
DIMENSION
  5
285
100
AcDbEntity
  8
0
100
AcDbDimension
 62
2
  6
CONTINUOUS
  2
*D8
 10
9.9567977039
 20
16.5235931266
 11
11.6162065068
 21
16.4064056266
 70
160
 71
2
 42
3.125
  1
<>\P[]
  3
DIMSTYLE_1
100
AcDbAlignedDimension
 13
13.0817977039
 23
13.4970595834
 14
9.9567977039
 24
14.1656532314
 50
180.0
100
AcDbRotatedDimension
  0
MTEXT
  5
286
100
AcDbEntity
  8
0
100
AcDbMText
 62
2
  6
CONTINUOUS
  7
STANDARD
 71
3
 72
1
 10
12.4151907883
 20
15.4977549384
 30
0.0
 11
1.0
 21
0.0
 31
0.0
 73
2
 44
0.9
  1
SECTION  A-A
 40
0.15625
 41
1.5
  0
MTEXT
  5
287
100
AcDbEntity
  8
0
100
AcDbMText
 62
2
  6
CONTINUOUS
  7
STANDARD
 71
3
 72
1
 10
17.321601589
 20
0.5877042483
 30
0.0
 11
1.0
 21
0.0
 31
0.0
 73
2
 44
0.9
  1
SCALE  1.000
 40
0.15625
 41
1.5
  0
LINE
  5
288
100
AcDbEntity
  8
0
100
AcDbLine
 62
7
  6
CONTINUOUS
 10
0.0
 20
0.0
 11
0.0
 21
17.0
  0
LINE
  5
289
100
AcDbEntity
  8
0
100
AcDbLine
 62
7
  6
CONTINUOUS
 10
0.0
 20
0.0
 11
22.0
 21
0.0
  0
LINE
  5
28A
100
AcDbEntity
  8
0
100
AcDbLine
 62
7
  6
CONTINUOUS
 10
0.0
 20
17.0
 11
22.0
 21
17.0
  0
LINE
  5
28B
100
AcDbEntity
  8
0
100
AcDbLine
 62
7
  6
CONTINUOUS
 10
22.0
 20
0.0
 11
22.0
 21
17.0
  0
LINE
  5
28C
100
AcDbEntity
  8
0
100
AcDbLine
 62
7
  6
CONTINUOUS
 10
5.3013033228
 20
8.1913573055
 11
7.4263033228
 21
8.1913573055
  0
LINE
  5
28D
100
AcDbEntity
  8
0
100
AcDbLine
 62
7
  6
CONTINUOUS
 10
7.0513033228
 20
8.1922307047
 11
7.4262785416
 21
8.1922307047
  0
LINE
  5
28E
100
AcDbEntity
  8
0
100
AcDbLine
 62
7
  6
CONTINUOUS
 10
7.0512944626
 20
8.2522303392
 11
7.4263033228
 21
8.2522303392
  0
LINE
  5
28F
100
AcDbEntity
  8
0
100
AcDbLine
 62
7
  6
CONTINUOUS
 10
4.3268158013
 20
14.2534095937
 11
4.2715863509
 21
14.1981801433
  0
LINE
  5
290
100
AcDbEntity
  8
0
100
AcDbLine
 62
7
  6
CONTINUOUS
 10
4.3604560061
 20
14.2679889685
 11
4.3041132629
 21
14.2116462253
  0
LINE
  5
291
100
AcDbEntity
  8
02___PRT_ALL_AXES
100
AcDbLine
 62
7
  6
CENTER
 10
7.4263033228
 20
8.5078573055
 11
7.1548033228
 21
8.5078573055
  0
LINE
  5
292
100
AcDbEntity
  8
02___PRT_ALL_AXES
100
AcDbLine
 62
7
  6
CENTER
 10
7.4263033228
 20
8.5078573055
 11
7.6978033228
 21
8.5078573055
  0
LINE
  5
293
100
AcDbEntity
  8
0
100
AcDbLine
 62
7
  6
CONTINUOUS
 10
4.2715863509
 20
8.9425344676
 11
4.3268158013
 21
8.8873050173
  0
LINE
  5
294
100
AcDbEntity
  8
0
100
AcDbLine
 62
7
  6
CONTINUOUS
 10
4.3041132629
 20
8.9290683856
 11
4.3604560061
 21
8.8727256424
  0
LINE
  5
295
100
AcDbEntity
  8
0
100
AcDbLine
 62
7
  6
CONTINUOUS
 10
7.7063033228
 20
8.532232045
 11
7.7663033228
 21
8.532232045
  0
LINE
  5
296
100
AcDbEntity
  8
0
100
AcDbLine
 62
7
  6
CONTINUOUS
 10
7.9292961892
 20
8.9290751481
 11
7.9284933827
 21
8.9290683856
  0
LINE
  5
297
100
AcDbEntity
  8
0
100
AcDbLine
 62
7
  6
CONTINUOUS
 10
4.5618884827
 20
8.8709464613
 11
5.1113033228
 21
8.8709464613
  0
LINE
  5
298
100
AcDbEntity
  8
0
100
AcDbLine
 62
7
  6
CONTINUOUS
 10
7.7063033228
 20
8.8763575315
 11
7.1213033228
 21
8.8763575315
  0
LINE
  5
299
100
AcDbEntity
  8
0
100
AcDbLine
 62
7
  6
CONTINUOUS
 10
4.3041132629
 20
8.9290683856
 11
7.9284933827
 21
8.9290683856
  0
LINE
  5
29A
100
AcDbEntity
  8
0
100
AcDbLine
 62
7
  6
CONTINUOUS
 10
4.2581202689
 20
8.9750613796
 11
7.9744863767
 21
8.9750613796
  0
LINE
  5
29B
100
AcDbEntity
  8
02___PRT_ALL_AXES
100
AcDbLine
 62
7
  6
CENTER
 10
7.4913033228
 20
9.3983573055
 11
7.2508033228
 21
9.3983573055
  0
LINE
  5
29C
100
AcDbEntity
  8
02___PRT_ALL_AXES
100
AcDbLine
 62
7
  6
CENTER
 10
4.7413033228
 20
9.3983573055
 11
4.5008033228
 21
9.3983573055
  0
LINE
  5
29D
100
AcDbEntity
  8
02___PRT_ALL_AXES
100
AcDbLine
 62
7
  6
CENTER
 10
4.7413033228
 20
9.3983573055
 11
4.9818033228
 21
9.3983573055
  0
LINE
  5
29E
100
AcDbEntity
  8
02___PRT_ALL_AXES
100
AcDbLine
 62
7
  6
CENTER
 10
7.4913033228
 20
9.3983573055
 11
7.7318033228
 21
9.3983573055
  0
LINE
  5
29F
100
AcDbEntity
  8
0
100
AcDbLine
 62
7
  6
CONTINUOUS
 10
5.3449765048
 20
9.4161532314
 11
6.8876301407
 21
9.4161532314
  0
LINE
  5
2A0
100
AcDbEntity
  8
0
100
AcDbLine
 62
7
  6
CONTINUOUS
 10
5.3449763731
 20
9.4621462253
 11
6.8876302724
 21
9.4621462253
  0
LINE
  5
2A1
100
AcDbEntity
  8
0
100
AcDbLine
 62
7
  6
CONTINUOUS
 10
6.8469647988
 20
9.5136748272
 11
5.3856418468
 21
9.5136748272
  0
LINE
  5
2A2
100
AcDbEntity
  8
0
100
AcDbLine
 62
7
  6
CONTINUOUS
 10
4.2581202689
 20
14.1656532314
 11
4.2581202689
 21
8.9750613796
  0
LINE
  5
2A3
100
AcDbEntity
  8
0
100
AcDbLine
 62
7
  6
CONTINUOUS
 10
4.3041132629
 20
14.2116462253
 11
4.3041132629
 21
8.9290683856
  0
LINE
  5
2A4
100
AcDbEntity
  8
0
100
AcDbLine
 62
7
  6
CONTINUOUS
 10
5.2411645127
 20
9.5007910778
 11
5.286208325
 21
9.5100870031
  0
LINE
  5
2A5
100
AcDbEntity
  8
0
100
AcDbLine
 62
7
  6
CONTINUOUS
 10
6.7955495841
 20
9.6436550276
 11
5.4370567241
 21
9.6436550276
  0
LINE
  5
2A6
100
AcDbEntity
  8
0
100
AcDbLine
 62
7
  6
CONTINUOUS
 10
6.9463983206
 20
9.5100870031
 11
6.9914421276
 21
9.5007910519
  0
LINE
  5
2A7
100
AcDbEntity
  8
0
100
AcDbLine
 62
7
  6
CONTINUOUS
 10
6.9463983206
 20
9.5100870031
 11
6.9467201917
 21
9.5100171671
  0
LINE
  5
2A8
100
AcDbEntity
  8
0
100
AcDbLine
 62
7
  6
CONTINUOUS
 10
4.4663033228
 20
14.6084825659
 11
4.4663033228
 21
14.2654043834
  0
LINE
  5
2A9
100
AcDbEntity
  8
0
100
AcDbLine
 62
7
  6
CONTINUOUS
 10
4.5263033228
 20
14.6084825659
 11
4.5263033228
 21
14.2643570795
  0
LINE
  5
2AA
100
AcDbEntity
  8
0
100
AcDbLine
 62
7
  6
CONTINUOUS
 10
4.7430992487
 20
10.0050914016
 11
4.7890922427
 21
10.0050914022
  0
LINE
  5
2AB
100
AcDbEntity
  8
0
100
AcDbLine
 62
7
  6
CONTINUOUS
 10
7.4435144029
 20
10.0050914022
 11
7.4895073969
 21
10.0050914016
  0
LINE
  5
2AC
100
AcDbEntity
  8
0
100
AcDbLine
 62
7
  6
CONTINUOUS
 10
7.3962312511
 20
10.0434997584
 11
7.3362403902
 21
10.0434997584
  0
LINE
  5
2AD
100
AcDbEntity
  8
0
100
AcDbLine
 62
7
  6
CONTINUOUS
 10
4.8363753945
 20
10.0434997584
 11
4.8963662554
 21
10.0434997584
  0
LINE
  5
2AE
100
AcDbEntity
  8
02___PRT_ALL_AXES
100
AcDbLine
 62
7
  6
CENTER
 10
4.7413033228
 20
13.7423573055
 11
4.7413033228
 21
13.5018573055
  0
LINE
  5
2AF
100
AcDbEntity
  8
02___PRT_ALL_AXES
100
AcDbLine
 62
7
  6
CENTER
 10
4.7413033228
 20
9.3983573055
 11
4.7413033228
 21
9.1578573055
  0
LINE
  5
2B0
100
AcDbEntity
  8
02___PRT_ALL_AXES
100
AcDbLine
 62
7
  6
CENTER
 10
4.7413033228
 20
9.3983573055
 11
4.7413033228
 21
9.6388573055
  0
LINE
  5
2B1
100
AcDbEntity
  8
02___PRT_ALL_AXES
100
AcDbLine
 62
7
  6
CENTER
 10
4.7413033228
 20
13.7423573055
 11
4.7413033228
 21
13.9828573055
  0
LINE
  5
2B2
100
AcDbEntity
  8
0
100
AcDbLine
 62
7
  6
CONTINUOUS
 10
4.7430992487
 20
13.135623209
 11
4.7430992487
 21
10.0050914019
  0
LINE
  5
2B3
100
AcDbEntity
  8
0
100
AcDbLine
 62
7
  6
CONTINUOUS
 10
4.7890922427
 20
13.1356233251
 11
4.7890922427
 21
10.0050912858
  0
LINE
  5
2B4
100
AcDbEntity
  8
02___PRT_ALL_AXES
100
AcDbLine
 62
7
  6
CENTER
 10
4.8063033228
 20
14.6328573055
 11
4.8063033228
 21
14.3613573055
  0
LINE
  5
2B5
100
AcDbEntity
  8
02___PRT_ALL_AXES
100
AcDbLine
 62
7
  6
CENTER
 10
4.8063033228
 20
14.6328573055
 11
4.8063033228
 21
14.9043573055
  0
LINE
  5
2B6
100
AcDbEntity
  8
0
100
AcDbLine
 62
7
  6
CONTINUOUS
 10
4.8063033228
 20
14.8884842717
 11
4.806303323
 21
14.9484839062
  0
LINE
  5
2B7
100
AcDbEntity
  8
0
100
AcDbLine
 62
7
  6
CONTINUOUS
 10
4.8363753945
 20
13.0972148534
 11
4.8363753945
 21
12.8473191412
  0
LINE
  5
2B8
100
AcDbEntity
  8
0
100
AcDbLine
 62
7
  6
CONTINUOUS
 10
4.8363753945
 20
10.2933954697
 11
4.8363753945
 21
10.0434997586
  0
LINE
  5
2B9
100
AcDbEntity
  8
0
100
AcDbLine
 62
7
  6
CONTINUOUS
 10
4.8406208445
 20
10.4155645913
 11
4.8406208445
 21
12.7251500197
  0
LINE
  5
2BA
100
AcDbEntity
  8
0
100
AcDbLine
 62
7
  6
CONTINUOUS
 10
6.987219483
 20
13.4067529139
 11
6.9850650215
 21
13.406042431
  0
LINE
  5
2BB
100
AcDbEntity
  8
0
100
AcDbLine
 62
7
  6
CONTINUOUS
 10
6.9972741565
 20
13.3735069001
 11
6.9950868987
 21
13.3728459844
  0
LINE
  5
2BC
100
AcDbEntity
  8
02___PRT_ALL_AXES
100
AcDbLine
 62
7
  6
CENTER
 10
7.1863033228
 20
10.1643573055
 11
7.0403033228
 21
10.1643573055
  0
LINE
  5
2BD
100
AcDbEntity
  8
0
100
AcDbLine
 62
7
  6
CONTINUOUS
 10
5.3674999472
 20
10.1643573055
 11
5.175341487
 21
10.1643573055
  0
LINE
  5
2BE
100
AcDbEntity
  8
02___PRT_ALL_AXES
100
AcDbLine
 62
7
  6
CENTER
 10
5.0463033228
 20
10.1643573055
 11
4.9003033228
 21
10.1643573055
  0
LINE
  5
2BF
100
AcDbEntity
  8
02___PRT_ALL_AXES
100
AcDbLine
 62
7
  6
CENTER
 10
5.0463033228
 20
10.1643573055
 11
5.1923033228
 21
10.1643573055
  0
LINE
  5
2C0
100
AcDbEntity
  8
0
100
AcDbLine
 62
7
  6
CONTINUOUS
 10
6.8651066983
 20
10.1643573055
 11
7.0572651586
 21
10.1643573055
  0
LINE
  5
2C1
100
AcDbEntity
  8
02___PRT_ALL_AXES
100
AcDbLine
 62
7
  6
CENTER
 10
7.1863033228
 20
10.1643573055
 11
7.3323033228
 21
10.1643573055
  0
LINE
  5
2C2
100
AcDbEntity
  8
0
100
AcDbLine
 62
7
  6
CONTINUOUS
 10
7.3962312511
 20
10.2933954697
 11
7.1863033228
 21
10.2933954697
  0
LINE
  5
2C3
100
AcDbEntity
  8
0
100
AcDbLine
 62
7
  6
CONTINUOUS
 10
4.8363753945
 20
10.2933954697
 11
5.0463033228
 21
10.2933954697
  0
LINE
  5
2C4
100
AcDbEntity
  8
0
100
AcDbLine
 62
7
  6
CONTINUOUS
 10
6.9950868987
 20
9.7678686265
 11
6.9972744735
 21
9.7672076151
  0
LINE
  5
2C5
100
AcDbEntity
  8
0
100
AcDbLine
 62
7
  6
CONTINUOUS
 10
6.9850650215
 20
9.7346721799
 11
6.987219483
 21
9.733961697
  0
LINE
  5
2C6
100
AcDbEntity
  8
0
100
AcDbLine
 62
7
  6
CONTINUOUS
 10
4.8963662554
 20
13.097214856
 11
4.8963662562
 21
12.8473110317
  0
LINE
  5
2C7
100
AcDbEntity
  8
0
100
AcDbLine
 62
7
  6
CONTINUOUS
 10
4.8963662562
 20
10.2934050921
 11
4.8963662554
 21
10.0434997549
  0
LINE
  5
2C8
100
AcDbEntity
  8
0
100
AcDbLine
 62
7
  6
CONTINUOUS
 10
4.9706010449
 20
10.4855539299
 11
4.9706010449
 21
12.655160681
  0
LINE
  5
2C9
100
AcDbEntity
  8
02___PRT_ALL_AXES
100
AcDbLine
 62
7
  6
CENTER
 10
5.0463033228
 20
12.9763573055
 11
5.0463033228
 21
12.8762573055
  0
LINE
  5
2CA
100
AcDbEntity
  8
0
100
AcDbLine
 62
7
  6
CONTINUOUS
 10
5.0463033228
 20
10.4855539299
 11
5.0463033228
 21
10.2933954697
  0
LINE
  5
2CB
100
AcDbEntity
  8
02___PRT_ALL_AXES
100
AcDbLine
 62
7
  6
CENTER
 10
5.0463033228
 20
10.1643573055
 11
5.0463033228
 21
10.0183573055
  0
LINE
  5
2CC
100
AcDbEntity
  8
02___PRT_ALL_AXES
100
AcDbLine
 62
7
  6
CENTER
 10
5.0463033228
 20
10.1643573055
 11
5.0463033228
 21
10.3103573055
  0
LINE
  5
2CD
100
AcDbEntity
  8
0
100
AcDbLine
 62
7
  6
CONTINUOUS
 10
5.0463033228
 20
12.655160681
 11
5.0463033228
 21
12.8473191412
  0
LINE
  5
2CE
100
AcDbEntity
  8
02___PRT_ALL_AXES
100
AcDbLine
 62
7
  6
CENTER
 10
5.0463033228
 20
12.9763573055
 11
5.0463033228
 21
13.0764573055
  0
LINE
  5
2CF
100
AcDbEntity
  8
0
100
AcDbLine
 62
7
  6
CONTINUOUS
 10
5.1113033228
 20
14.2643570795
 11
5.1113033228
 21
14.2547091207
  0
LINE
  5
2D0
100
AcDbEntity
  8
0
100
AcDbLine
 62
7
  6
CONTINUOUS
 10
5.1113033228
 20
8.8860054902
 11
5.1113033228
 21
8.8709464613
  0
LINE
  5
2D1
100
AcDbEntity
  8
0
100
AcDbLine
 62
7
  6
CONTINUOUS
 10
4.8385906362
 20
9.946025239
 11
4.8385368488
 21
9.9457003031
  0
LINE
  5
2D2
100
AcDbEntity
  8
0
100
AcDbLine
 62
7
  6
CONTINUOUS
 10
4.8984241672
 20
10.3533861905
 11
5.0463033228
 21
10.3533863314
  0
LINE
  5
2D3
100
AcDbEntity
  8
0
100
AcDbLine
 62
7
  6
CONTINUOUS
 10
7.3341825055
 20
10.3533861634
 11
7.1863033228
 21
10.3533863314
  0
LINE
  5
2D4
100
AcDbEntity
  8
0
100
AcDbLine
 62
7
  6
CONTINUOUS
 10
7.3319949393
 20
10.3555737296
 11
7.1863033228
 21
10.3555737296
  0
LINE
  5
2D5
100
AcDbEntity
  8
0
100
AcDbLine
 62
7
  6
CONTINUOUS
 10
5.0463033228
 20
10.3555737296
 11
4.9006117062
 21
10.3555737296
  0
LINE
  5
2D6
100
AcDbEntity
  8
0
100
AcDbLine
 62
7
  6
CONTINUOUS
 10
7.2620056007
 20
10.4855539299
 11
7.1863033228
 21
10.4855539299
  0
LINE
  5
2D7
100
AcDbEntity
  8
0
100
AcDbLine
 62
7
  6
CONTINUOUS
 10
5.0463033228
 20
10.4855539299
 11
4.9706010449
 21
10.4855539299
  0
LINE
  5
2D8
100
AcDbEntity
  8
0
100
AcDbLine
 62
7
  6
CONTINUOUS
 10
5.175341487
 20
10.1643573055
 11
5.1753488935
 21
9.9002124479
  0
LINE
  5
2D9
100
AcDbEntity
  8
0
100
AcDbLine
 62
7
  6
CONTINUOUS
 10
5.175341487
 20
12.9763573055
 11
5.1753406271
 21
13.2404959598
  0
LINE
  5
2DA
100
AcDbEntity
  8
0
100
AcDbLine
 62
7
  6
CONTINUOUS
 10
5.1813033228
 20
14.2848156839
 11
5.1813033237
 21
14.9484839062
  0
LINE
  5
2DB
100
AcDbEntity
  8
0
100
AcDbLine
 62
7
  6
CONTINUOUS
 10
5.2353323487
 20
10.1643573055
 11
5.235332489
 21
9.7672077109
  0
LINE
  5
2DC
100
AcDbEntity
  8
0
100
AcDbLine
 62
7
  6
CONTINUOUS
 10
5.2353323487
 20
12.9763573055
 11
5.235332172
 21
13.3735069958
  0
LINE
  5
2DD
100
AcDbEntity
  8
0
100
AcDbLine
 62
7
  6
CONTINUOUS
 10
5.2375197469
 20
9.7678686265
 11
5.2375197469
 21
10.1643573055
  0
LINE
  5
2DE
100
AcDbEntity
  8
0
100
AcDbLine
 62
7
  6
CONTINUOUS
 10
5.2375197469
 20
12.9763573055
 11
5.2375197469
 21
13.3728459844
  0
LINE
  5
2DF
100
AcDbEntity
  8
0
100
AcDbLine
 62
7
  6
CONTINUOUS
 10
5.2413033228
 20
8.251357671
 11
5.2413033228
 21
8.7560249679
  0
LINE
  5
2E0
100
AcDbEntity
  8
0
100
AcDbLine
 62
7
  6
CONTINUOUS
 10
5.2413033228
 20
14.3846896016
 11
5.2413033228
 21
14.888065391
  0
LINE
  5
2E1
100
AcDbEntity
  8
0
100
AcDbLine
 62
7
  6
CONTINUOUS
 10
5.3013033228
 20
14.9480650255
 11
5.3013033228
 21
14.9463371425
  0
LINE
  5
2E2
100
AcDbEntity
  8
0
100
AcDbLine
 62
7
  6
CONTINUOUS
 10
5.3013033228
 20
8.1913573055
 11
5.3013033228
 21
8.1943774684
  0
LINE
  5
2E3
100
AcDbEntity
  8
0
100
AcDbLine
 62
7
  6
CONTINUOUS
 10
5.3449765046
 20
13.7245613796
 11
5.3449765052
 21
13.6785683856
  0
LINE
  5
2E4
100
AcDbEntity
  8
0
100
AcDbLine
 62
7
  6
CONTINUOUS
 10
5.3449765052
 20
9.4621462253
 11
5.3449765046
 21
9.4161532314
  0
LINE
  5
2E5
100
AcDbEntity
  8
0
100
AcDbLine
 62
7
  6
CONTINUOUS
 10
5.3674999472
 20
9.7884262744
 11
5.3674999472
 21
10.1643573055
  0
LINE
  5
2E6
100
AcDbEntity
  8
0
100
AcDbLine
 62
7
  6
CONTINUOUS
 10
5.3674999472
 20
12.9763573055
 11
5.3674999472
 21
13.3522883365
  0
LINE
  5
2E7
100
AcDbEntity
  8
0
100
AcDbLine
 62
7
  6
CONTINUOUS
 10
4.8385906362
 20
9.946025239
 11
4.8306060065
 21
9.9007305905
  0
LINE
  5
2E8
100
AcDbEntity
  8
0
100
AcDbLine
 62
7
  6
CONTINUOUS
 10
4.8823464559
 20
9.9851700974
 11
4.8963662554
 21
10.0434997549
  0
LINE
  5
2E9
100
AcDbEntity
  8
0
100
AcDbLine
 62
7
  6
CONTINUOUS
 10
4.8823464564
 20
13.1555445096
 11
4.8963662554
 21
13.0972148542
  0
LINE
  5
2EA
100
AcDbEntity
  8
0
100
AcDbLine
 62
7
  6
CONTINUOUS
 10
4.8306060244
 20
13.2399840236
 11
4.8385906362
 21
13.1946893719
  0
LINE
  5
2EB
100
AcDbEntity
  8
0
100
AcDbLine
 62
7
  6
CONTINUOUS
 10
7.0965081145
 20
13.2858716412
 11
7.0572651586
 21
13.2404966051
  0
LINE
  5
2EC
100
AcDbEntity
  8
0
100
AcDbLine
 62
7
  6
CONTINUOUS
 10
7.0965081145
 20
9.8548429697
 11
7.0572651586
 21
9.9002180058
  0
LINE
  5
2ED
100
AcDbEntity
  8
DEFAULT_3
100
AcDbLine
 62
7
  6
PHANTOM
 10
6.1163033228
 20
7.764377732
 11
6.1163033228
 21
15.2158043249
  0
LINE
  5
2EE
100
AcDbEntity
  8
0
100
AcDbLine
 62
7
  6
CONTINUOUS
 10
4.8406208445
 20
10.4155645913
 11
4.8384334464
 21
10.4133771931
  0
LINE
  5
2EF
100
AcDbEntity
  8
0
100
AcDbLine
 62
7
  6
CONTINUOUS
 10
4.9006117062
 20
10.3555737296
 11
4.8984241672
 21
10.3533861905
  0
LINE
  5
2F0
100
AcDbEntity
  8
0
100
AcDbLine
 62
7
  6
CONTINUOUS
 10
7.3319949393
 20
12.7851408814
 11
7.3341824784
 21
12.7873284204
  0
LINE
  5
2F1
100
AcDbEntity
  8
0
100
AcDbLine
 62
7
  6
CONTINUOUS
 10
4.8384334464
 20
12.7273374178
 11
4.8406208445
 21
12.7251500197
  0
LINE
  5
2F2
100
AcDbEntity
  8
0
100
AcDbLine
 62
7
  6
CONTINUOUS
 10
4.8984241401
 20
12.7873284475
 11
4.9006117062
 21
12.7851408814
  0
LINE
  5
2F3
100
AcDbEntity
  8
0
100
AcDbLine
 62
7
  6
CONTINUOUS
 10
7.3341825055
 20
10.3533861634
 11
7.3319949393
 21
10.3555737296
  0
LINE
  5
2F4
100
AcDbEntity
  8
0
100
AcDbLine
 62
7
  6
CONTINUOUS
 10
7.391985801
 20
12.7251500197
 11
7.3941731992
 21
12.7273374178
  0
LINE
  5
2F5
100
AcDbEntity
  8
0
100
AcDbLine
 62
7
  6
CONTINUOUS
 10
7.3941731992
 20
10.4133771931
 11
7.391985801
 21
10.4155645913
  0
LINE
  5
2F6
100
AcDbEntity
  8
0
100
AcDbLine
 62
7
  6
CONTINUOUS
 10
5.1360985311
 20
9.8548429697
 11
5.175341487
 21
9.9002180058
  0
LINE
  5
2F7
100
AcDbEntity
  8
0
100
AcDbLine
 62
7
  6
CONTINUOUS
 10
5.1360985311
 20
13.2858716412
 11
5.175341487
 21
13.2404966051
  0
LINE
  5
2F8
100
AcDbEntity
  8
0
100
AcDbLine
 62
7
  6
CONTINUOUS
 10
6.8651066983
 20
13.3522883365
 11
6.8651066983
 21
12.9763573055
  0
LINE
  5
2F9
100
AcDbEntity
  8
0
100
AcDbLine
 62
7
  6
CONTINUOUS
 10
6.8651066983
 20
10.1643573055
 11
6.8651066983
 21
9.7884262744
  0
LINE
  5
2FA
100
AcDbEntity
  8
0
100
AcDbLine
 62
7
  6
CONTINUOUS
 10
6.887630141
 20
9.4161532314
 11
6.8876301404
 21
9.4621462253
  0
LINE
  5
2FB
100
AcDbEntity
  8
0
100
AcDbLine
 62
7
  6
CONTINUOUS
 10
6.8876301404
 20
13.6785683856
 11
6.887630141
 21
13.7245613796
  0
LINE
  5
2FC
100
AcDbEntity
  8
0
100
AcDbLine
 62
7
  6
CONTINUOUS
 10
6.9313033228
 20
8.1943774684
 11
6.9313033228
 21
8.1926495854
  0
LINE
  5
2FD
100
AcDbEntity
  8
0
100
AcDbLine
 62
7
  6
CONTINUOUS
 10
6.9313033228
 20
14.9463371425
 11
6.9313033228
 21
14.9493573055
  0
LINE
  5
2FE
100
AcDbEntity
  8
0
100
AcDbLine
 62
7
  6
CONTINUOUS
 10
6.9913033228
 20
8.7560249999
 11
6.9913033228
 21
8.2526491827
  0
LINE
  5
2FF
100
AcDbEntity
  8
0
100
AcDbLine
 62
7
  6
CONTINUOUS
 10
6.9913033228
 20
14.3846896283
 11
6.9913033228
 21
14.8893569399
  0
LINE
  5
300
100
AcDbEntity
  8
0
100
AcDbLine
 62
7
  6
CONTINUOUS
 10
6.9950868987
 20
13.3728459844
 11
6.9950868987
 21
12.9763573055
  0
LINE
  5
301
100
AcDbEntity
  8
0
100
AcDbLine
 62
7
  6
CONTINUOUS
 10
6.9950868987
 20
10.1643573055
 11
6.9950868987
 21
9.7678686265
  0
LINE
  5
302
100
AcDbEntity
  8
0
100
AcDbLine
 62
7
  6
CONTINUOUS
 10
6.9972742969
 20
10.1643573055
 11
6.9972744735
 21
9.7672076151
  0
LINE
  5
303
100
AcDbEntity
  8
0
100
AcDbLine
 62
7
  6
CONTINUOUS
 10
6.9972742969
 20
12.9763573055
 11
6.9972741565
 21
13.3735069001
  0
LINE
  5
304
100
AcDbEntity
  8
0
100
AcDbLine
 62
7
  6
CONTINUOUS
 10
7.0513033228
 20
8.855898927
 11
7.0513033228
 21
8.1922307047
  0
LINE
  5
305
100
AcDbEntity
  8
0
100
AcDbLine
 62
7
  6
CONTINUOUS
 10
7.0572651586
 20
10.1643573055
 11
7.0572660185
 21
9.9002186511
  0
LINE
  5
306
100
AcDbEntity
  8
0
100
AcDbLine
 62
7
  6
CONTINUOUS
 10
7.0572651586
 20
12.9763573055
 11
7.0572577521
 21
13.2405021631
  0
LINE
  5
307
100
AcDbEntity
  8
0
100
AcDbLine
 62
7
  6
CONTINUOUS
 10
7.1213033228
 20
8.8763575315
 11
7.1213033228
 21
8.8860054902
  0
LINE
  5
308
100
AcDbEntity
  8
0
100
AcDbLine
 62
7
  6
CONTINUOUS
 10
7.1213033228
 20
14.2547091207
 11
7.1213033228
 21
14.2697681496
  0
LINE
  5
309
100
AcDbEntity
  8
0
100
AcDbLine
 62
7
  6
CONTINUOUS
 10
7.3940160093
 20
13.1946893719
 11
7.3940697937
 21
13.1950143084
  0
LINE
  5
30A
100
AcDbEntity
  8
0
100
AcDbLine
 62
7
  6
CONTINUOUS
 10
7.3940160093
 20
13.1946893719
 11
7.4020005903
 21
13.239984029
  0
LINE
  5
30B
100
AcDbEntity
  8
0
100
AcDbLine
 62
7
  6
CONTINUOUS
 10
7.3502601896
 20
13.1555445135
 11
7.3362403902
 21
13.097214856
  0
LINE
  5
30C
100
AcDbEntity
  8
0
100
AcDbLine
 62
7
  6
CONTINUOUS
 10
7.3502601891
 20
9.9851701013
 11
7.3362403902
 21
10.0434997567
  0
LINE
  5
30D
100
AcDbEntity
  8
0
100
AcDbLine
 62
7
  6
CONTINUOUS
 10
7.4020006065
 20
9.9007305848
 11
7.3940160093
 21
9.946025239
  0
LINE
  5
30E
100
AcDbEntity
  8
02___PRT_ALL_AXES
100
AcDbLine
 62
7
  6
CENTER
 10
7.1863033228
 20
12.9763573055
 11
7.1863033228
 21
12.8303573055
  0
LINE
  5
30F
100
AcDbEntity
  8
02___PRT_ALL_AXES
100
AcDbLine
 62
7
  6
CENTER
 10
7.1863033228
 20
10.1643573055
 11
7.1863033228
 21
10.0183573055
  0
LINE
  5
310
100
AcDbEntity
  8
02___PRT_ALL_AXES
100
AcDbLine
 62
7
  6
CENTER
 10
7.1863033228
 20
10.1643573055
 11
7.1863033228
 21
10.3103573055
  0
LINE
  5
311
100
AcDbEntity
  8
0
100
AcDbLine
 62
7
  6
CONTINUOUS
 10
7.1863033228
 20
10.2933954697
 11
7.1863033228
 21
10.4855539299
  0
LINE
  5
312
100
AcDbEntity
  8
0
100
AcDbLine
 62
7
  6
CONTINUOUS
 10
7.1863033228
 20
12.655160681
 11
7.1863033228
 21
12.8473191412
  0
LINE
  5
313
100
AcDbEntity
  8
02___PRT_ALL_AXES
100
AcDbLine
 62
7
  6
CENTER
 10
7.1863033228
 20
12.9763573055
 11
7.1863033228
 21
13.1223573055
  0
LINE
  5
314
100
AcDbEntity
  8
0
100
AcDbLine
 62
7
  6
CONTINUOUS
 10
7.2620056007
 20
12.655160681
 11
7.2620056007
 21
10.4855539299
  0
LINE
  5
315
100
AcDbEntity
  8
0
100
AcDbLine
 62
7
  6
CONTINUOUS
 10
7.3362403902
 20
10.0434997549
 11
7.3362403894
 21
10.2934035793
  0
LINE
  5
316
100
AcDbEntity
  8
0
100
AcDbLine
 62
7
  6
CONTINUOUS
 10
7.3362403894
 20
12.8473095188
 11
7.3362403902
 21
13.097214856
  0
LINE
  5
317
100
AcDbEntity
  8
0
100
AcDbLine
 62
7
  6
CONTINUOUS
 10
7.391985801
 20
12.7251500197
 11
7.391985801
 21
10.4155645913
  0
LINE
  5
318
100
AcDbEntity
  8
0
100
AcDbLine
 62
7
  6
CONTINUOUS
 10
7.3962312511
 20
10.0434997576
 11
7.3962312511
 21
10.2933954697
  0
LINE
  5
319
100
AcDbEntity
  8
0
100
AcDbLine
 62
7
  6
CONTINUOUS
 10
7.3962312511
 20
12.8473191412
 11
7.3962312511
 21
13.0972148524
  0
LINE
  5
31A
100
AcDbEntity
  8
02___PRT_ALL_AXES
100
AcDbLine
 62
7
  6
CENTER
 10
7.4263033228
 20
8.5078573055
 11
7.4263033228
 21
8.2363573055
  0
LINE
  5
31B
100
AcDbEntity
  8
0
100
AcDbLine
 62
7
  6
CONTINUOUS
 10
7.4263033228
 20
8.2522303392
 11
7.4263033226
 21
8.1922307047
  0
LINE
  5
31C
100
AcDbEntity
  8
02___PRT_ALL_AXES
100
AcDbLine
 62
7
  6
CENTER
 10
7.4263033228
 20
8.5078573055
 11
7.4263033228
 21
8.7793573055
  0
LINE
  5
31D
100
AcDbEntity
  8
0
100
AcDbLine
 62
7
  6
CONTINUOUS
 10
4.9706010449
 20
12.655160681
 11
5.0463033228
 21
12.655160681
  0
LINE
  5
31E
100
AcDbEntity
  8
0
100
AcDbLine
 62
7
  6
CONTINUOUS
 10
7.1863033228
 20
12.655160681
 11
7.2620056007
 21
12.655160681
  0
LINE
  5
31F
100
AcDbEntity
  8
0
100
AcDbLine
 62
7
  6
CONTINUOUS
 10
4.9006117062
 20
12.7851408814
 11
5.0463033228
 21
12.7851408814
  0
LINE
  5
320
100
AcDbEntity
  8
0
100
AcDbLine
 62
7
  6
CONTINUOUS
 10
7.1863033228
 20
12.7851408814
 11
7.3319949393
 21
12.7851408814
  0
LINE
  5
321
100
AcDbEntity
  8
0
100
AcDbLine
 62
7
  6
CONTINUOUS
 10
4.8984241401
 20
12.7873284475
 11
5.0463033228
 21
12.7873282795
  0
LINE
  5
322
100
AcDbEntity
  8
0
100
AcDbLine
 62
7
  6
CONTINUOUS
 10
7.3341824784
 20
12.7873284204
 11
7.1863033228
 21
12.7873282795
  0
LINE
  5
323
100
AcDbEntity
  8
0
100
AcDbLine
 62
7
  6
CONTINUOUS
 10
4.8363753945
 20
12.8473191412
 11
5.0463033228
 21
12.8473191412
  0
LINE
  5
324
100
AcDbEntity
  8
0
100
AcDbLine
 62
7
  6
CONTINUOUS
 10
7.3962312511
 20
12.8473191412
 11
7.1863033228
 21
12.8473191412
  0
LINE
  5
325
100
AcDbEntity
  8
0
100
AcDbLine
 62
7
  6
CONTINUOUS
 10
7.4435144029
 20
10.0050912858
 11
7.4435144029
 21
13.1356233251
  0
LINE
  5
326
100
AcDbEntity
  8
0
100
AcDbLine
 62
7
  6
CONTINUOUS
 10
7.4895073969
 20
10.0050914019
 11
7.4895073969
 21
13.135623209
  0
LINE
  5
327
100
AcDbEntity
  8
02___PRT_ALL_AXES
100
AcDbLine
 62
7
  6
CENTER
 10
7.4913033228
 20
13.7423573055
 11
7.4913033228
 21
13.5018573055
  0
LINE
  5
328
100
AcDbEntity
  8
02___PRT_ALL_AXES
100
AcDbLine
 62
7
  6
CENTER
 10
7.4913033228
 20
9.3983573055
 11
7.4913033228
 21
9.1578573055
  0
LINE
  5
329
100
AcDbEntity
  8
02___PRT_ALL_AXES
100
AcDbLine
 62
7
  6
CENTER
 10
7.4913033228
 20
9.3983573055
 11
7.4913033228
 21
9.6388573055
  0
LINE
  5
32A
100
AcDbEntity
  8
02___PRT_ALL_AXES
100
AcDbLine
 62
7
  6
CENTER
 10
7.4913033228
 20
13.7423573055
 11
7.4913033228
 21
13.9828573055
  0
LINE
  5
32B
100
AcDbEntity
  8
0
100
AcDbLine
 62
7
  6
CONTINUOUS
 10
5.2453871626
 20
9.733961697
 11
5.247541624
 21
9.7346721799
  0
LINE
  5
32C
100
AcDbEntity
  8
0
100
AcDbLine
 62
7
  6
CONTINUOUS
 10
5.235332489
 20
9.7672077109
 11
5.2375197469
 21
9.7678686265
  0
LINE
  5
32D
100
AcDbEntity
  8
02___PRT_ALL_AXES
100
AcDbLine
 62
7
  6
CENTER
 10
7.1863033228
 20
12.9763573055
 11
7.0403033228
 21
12.9763573055
  0
LINE
  5
32E
100
AcDbEntity
  8
02___PRT_ALL_AXES
100
AcDbLine
 62
7
  6
CENTER
 10
5.0463033228
 20
12.9763573055
 11
4.9462033228
 21
12.9763573055
  0
LINE
  5
32F
100
AcDbEntity
  8
02___PRT_ALL_AXES
100
AcDbLine
 62
7
  6
CENTER
 10
5.0463033228
 20
12.9763573055
 11
5.1464033228
 21
12.9763573055
  0
LINE
  5
330
100
AcDbEntity
  8
0
100
AcDbLine
 62
7
  6
CONTINUOUS
 10
5.175341487
 20
12.9763573055
 11
5.3674999472
 21
12.9763573055
  0
LINE
  5
331
100
AcDbEntity
  8
0
100
AcDbLine
 62
7
  6
CONTINUOUS
 10
6.8651066983
 20
12.9763573055
 11
7.0572651586
 21
12.9763573055
  0
LINE
  5
332
100
AcDbEntity
  8
02___PRT_ALL_AXES
100
AcDbLine
 62
7
  6
CENTER
 10
7.1863033228
 20
12.9763573055
 11
7.3323033228
 21
12.9763573055
  0
LINE
  5
333
100
AcDbEntity
  8
0
100
AcDbLine
 62
7
  6
CONTINUOUS
 10
7.3962312511
 20
13.0972148526
 11
7.3362403902
 21
13.0972148526
  0
LINE
  5
334
100
AcDbEntity
  8
0
100
AcDbLine
 62
7
  6
CONTINUOUS
 10
4.8363753945
 20
13.0972148526
 11
4.8963662554
 21
13.0972148526
  0
LINE
  5
335
100
AcDbEntity
  8
0
100
AcDbLine
 62
7
  6
CONTINUOUS
 10
7.4895073969
 20
13.1356232093
 11
7.4435144029
 21
13.1356232087
  0
LINE
  5
336
100
AcDbEntity
  8
0
100
AcDbLine
 62
7
  6
CONTINUOUS
 10
4.7890922427
 20
13.1356232087
 11
4.7430992487
 21
13.1356232093
  0
LINE
  5
337
100
AcDbEntity
  8
0
100
AcDbLine
 62
7
  6
CONTINUOUS
 10
5.2375197469
 20
13.3728459844
 11
5.235332172
 21
13.3735069958
  0
LINE
  5
338
100
AcDbEntity
  8
0
100
AcDbLine
 62
7
  6
CONTINUOUS
 10
5.247541624
 20
13.406042431
 11
5.2453871626
 21
13.4067529139
  0
LINE
  5
339
100
AcDbEntity
  8
0
100
AcDbLine
 62
7
  6
CONTINUOUS
 10
7.7063033228
 20
8.532232045
 11
7.7063033228
 21
8.8763575315
  0
LINE
  5
33A
100
AcDbEntity
  8
0
100
AcDbLine
 62
7
  6
CONTINUOUS
 10
7.7663033228
 20
8.5322562962
 11
7.7663033228
 21
8.8753102276
  0
LINE
  5
33B
100
AcDbEntity
  8
0
100
AcDbLine
 62
7
  6
CONTINUOUS
 10
7.9284933827
 20
8.9290683856
 11
7.9284933827
 21
14.2116462253
  0
LINE
  5
33C
100
AcDbEntity
  8
0
100
AcDbLine
 62
7
  6
CONTINUOUS
 10
7.9744863767
 20
8.9750613796
 11
7.9744863767
 21
14.1656532314
  0
LINE
  5
33D
100
AcDbEntity
  8
0
100
AcDbLine
 62
7
  6
CONTINUOUS
 10
6.9914421202
 20
13.6399235948
 11
6.9463983206
 21
13.6306276078
  0
LINE
  5
33E
100
AcDbEntity
  8
0
100
AcDbLine
 62
7
  6
CONTINUOUS
 10
5.4370567313
 20
13.4970595834
 11
6.795550293
 21
13.4970595834
  0
LINE
  5
33F
100
AcDbEntity
  8
0
100
AcDbLine
 62
7
  6
CONTINUOUS
 10
5.3856418468
 20
13.6270397837
 11
6.8469647988
 21
13.6270397837
  0
LINE
  5
340
100
AcDbEntity
  8
0
100
AcDbLine
 62
7
  6
CONTINUOUS
 10
5.286208325
 20
13.6306276078
 11
5.2411645202
 21
13.6399235699
  0
LINE
  5
341
100
AcDbEntity
  8
0
100
AcDbLine
 62
7
  6
CONTINUOUS
 10
5.286208325
 20
13.6306276078
 11
5.285886454
 21
13.6306974445
  0
LINE
  5
342
100
AcDbEntity
  8
0
100
AcDbLine
 62
7
  6
CONTINUOUS
 10
6.8876302724
 20
13.6785683856
 11
5.3449763731
 21
13.6785683856
  0
LINE
  5
343
100
AcDbEntity
  8
0
100
AcDbLine
 62
7
  6
CONTINUOUS
 10
6.8876301407
 20
13.7245613796
 11
5.3449765048
 21
13.7245613796
  0
LINE
  5
344
100
AcDbEntity
  8
02___PRT_ALL_AXES
100
AcDbLine
 62
7
  6
CENTER
 10
7.4913033228
 20
13.7423573055
 11
7.2508033228
 21
13.7423573055
  0
LINE
  5
345
100
AcDbEntity
  8
02___PRT_ALL_AXES
100
AcDbLine
 62
7
  6
CENTER
 10
4.7413033228
 20
13.7423573055
 11
4.5008033228
 21
13.7423573055
  0
LINE
  5
346
100
AcDbEntity
  8
02___PRT_ALL_AXES
100
AcDbLine
 62
7
  6
CENTER
 10
4.7413033228
 20
13.7423573055
 11
4.9818033228
 21
13.7423573055
  0
LINE
  5
347
100
AcDbEntity
  8
02___PRT_ALL_AXES
100
AcDbLine
 62
7
  6
CENTER
 10
7.4913033228
 20
13.7423573055
 11
7.7318033228
 21
13.7423573055
  0
LINE
  5
348
100
AcDbEntity
  8
0
100
AcDbLine
 62
7
  6
CONTINUOUS
 10
7.9744863767
 20
14.1656532314
 11
4.2581202689
 21
14.1656532314
  0
LINE
  5
349
100
AcDbEntity
  8
0
100
AcDbLine
 62
7
  6
CONTINUOUS
 10
4.3033104564
 20
14.2116394628
 11
4.3041132629
 21
14.2116462253
  0
LINE
  5
34A
100
AcDbEntity
  8
0
100
AcDbLine
 62
7
  6
CONTINUOUS
 10
7.9284933827
 20
14.2116462253
 11
4.3041132629
 21
14.2116462253
  0
LINE
  5
34B
100
AcDbEntity
  8
0
100
AcDbLine
 62
7
  6
CONTINUOUS
 10
4.5263033228
 20
14.2643570795
 11
5.1113033228
 21
14.2643570795
  0
LINE
  5
34C
100
AcDbEntity
  8
0
100
AcDbLine
 62
7
  6
CONTINUOUS
 10
7.6707181629
 20
14.2697681496
 11
7.1213033228
 21
14.2697681496
  0
LINE
  5
34D
100
AcDbEntity
  8
0
100
AcDbLine
 62
7
  6
CONTINUOUS
 10
4.5263033228
 20
14.6084825659
 11
4.4663033228
 21
14.6084825659
  0
LINE
  5
34E
100
AcDbEntity
  8
02___PRT_ALL_AXES
100
AcDbLine
 62
7
  6
CENTER
 10
4.8063033228
 20
14.6328573055
 11
4.5348033228
 21
14.6328573055
  0
LINE
  5
34F
100
AcDbEntity
  8
02___PRT_ALL_AXES
100
AcDbLine
 62
7
  6
CENTER
 10
4.8063033228
 20
14.6328573055
 11
5.0778033228
 21
14.6328573055
  0
LINE
  5
350
100
AcDbEntity
  8
0
100
AcDbLine
 62
7
  6
CONTINUOUS
 10
7.8721506395
 20
8.8727256424
 11
7.9284933827
 21
8.9290683856
  0
LINE
  5
351
100
AcDbEntity
  8
0
100
AcDbLine
 62
7
  6
CONTINUOUS
 10
7.9057908443
 20
8.8873050173
 11
7.9610202946
 21
8.9425344676
  0
LINE
  5
352
100
AcDbEntity
  8
0
100
AcDbLine
 62
7
  6
CONTINUOUS
 10
5.1813033228
 20
14.8884842717
 11
4.8063033228
 21
14.8884842717
  0
LINE
  5
353
100
AcDbEntity
  8
0
100
AcDbLine
 62
7
  6
CONTINUOUS
 10
7.9284933827
 20
14.2116462253
 11
7.8721506395
 21
14.2679889685
  0
LINE
  5
354
100
AcDbEntity
  8
0
100
AcDbLine
 62
7
  6
CONTINUOUS
 10
7.9610202946
 20
14.1981801433
 11
7.9057908443
 21
14.2534095937
  0
LINE
  5
355
100
AcDbEntity
  8
0
100
AcDbLine
 62
7
  6
CONTINUOUS
 10
5.1813033228
 20
14.9484839062
 11
4.8063285408
 21
14.9484839062
  0
LINE
  5
356
100
AcDbEntity
  8
0
100
AcDbLine
 62
7
  6
CONTINUOUS
 10
6.9313033228
 20
14.9493573055
 11
4.8063033228
 21
14.9493573055
  0
LINE
  5
357
100
AcDbEntity
  8
0
100
AcDbLine
 62
7
  6
CONTINUOUS
 10
11.6515904918
 20
8.1972223589
 11
13.3317977039
 21
8.1913573055
  0
LINE
  5
358
100
AcDbEntity
  8
0
100
AcDbLine
 62
7
  6
CONTINUOUS
 10
10.0019948932
 20
8.9290683856
 11
11.4640688131
 21
8.9035477904
  0
LINE
  5
359
100
AcDbEntity
  8
0
100
AcDbLine
 62
7
  6
CONTINUOUS
 10
12.0292977039
 20
9.1203573055
 11
12.9042977039
 21
9.1203573055
  0
LINE
  5
35A
100
AcDbEntity
  8
0
100
AcDbLine
 62
7
  6
CONTINUOUS
 10
13.3317977039
 20
9.1333573055
 11
13.3867977039
 21
9.1333573055
  0
LINE
  5
35B
100
AcDbEntity
  8
0
100
AcDbLine
 62
7
  6
CONTINUOUS
 10
10.0019948932
 20
9.4621462253
 11
12.9540665167
 21
9.5136748272
  0
LINE
  5
35C
100
AcDbEntity
  8
0
100
AcDbLine
 62
7
  6
CONTINUOUS
 10
12.8287505595
 20
9.733961697
 11
12.9540665167
 21
9.7346721799
  0
LINE
  5
35D
100
AcDbEntity
  8
0
100
AcDbLine
 62
7
  6
CONTINUOUS
 10
12.8287585982
 20
9.7672077109
 11
12.9540665167
 21
9.7678686265
  0
LINE
  5
35E
100
AcDbEntity
  8
0
100
AcDbLine
 62
7
  6
CONTINUOUS
 10
13.3317977039
 20
9.6633573055
 11
13.3867977039
 21
9.6633573055
  0
LINE
  5
35F
100
AcDbEntity
  8
0
100
AcDbLine
 62
7
  6
CONTINUOUS
 10
9.9567977039
 20
8.9750613796
 11
9.9567977039
 21
14.1656532314
  0
LINE
  5
360
100
AcDbEntity
  8
0
100
AcDbLine
 62
7
  6
CONTINUOUS
 10
10.0019948932
 20
13.1356233251
 11
10.0019948932
 21
10.0050912858
  0
LINE
  5
361
100
AcDbEntity
  8
0
100
AcDbLine
 62
7
  6
CONTINUOUS
 10
10.0019948932
 20
9.5100865492
 11
10.0019948932
 21
9.9460253078
  0
LINE
  5
362
100
AcDbEntity
  8
0
100
AcDbLine
 62
7
  6
CONTINUOUS
 10
10.0019948932
 20
13.1946893031
 11
10.0019948932
 21
13.6306280617
  0
LINE
  5
363
100
AcDbEntity
  8
0
100
AcDbLine
 62
7
  6
CONTINUOUS
 10
9.9567977039
 20
10.0050914016
 11
10.0019948932
 21
10.0050914022
  0
LINE
  5
364
100
AcDbEntity
  8
0
100
AcDbLine
 62
7
  6
CONTINUOUS
 10
12.7108448483
 20
10.0434997584
 11
12.7697977039
 21
10.0434997584
  0
LINE
  5
365
100
AcDbEntity
  8
0
100
AcDbLine
 62
7
  6
CONTINUOUS
 10
12.9540665167
 20
10.3555737296
 11
12.8287505595
 21
10.3533863314
  0
LINE
  5
366
100
AcDbEntity
  8
0
100
AcDbLine
 62
7
  6
CONTINUOUS
 10
13.0817977039
 20
10.1643573055
 11
12.7697977039
 21
10.1643573055
  0
LINE
  5
367
100
AcDbEntity
  8
0
100
AcDbLine
 62
7
  6
CONTINUOUS
 10
12.7108448483
 20
10.2933954697
 11
12.7697977039
 21
10.2933954697
  0
LINE
  5
368
100
AcDbEntity
  8
0
100
AcDbLine
 62
7
  6
CONTINUOUS
 10
12.9540665167
 20
10.4155645913
 11
12.8287505595
 21
10.4133771931
  0
LINE
  5
369
100
AcDbEntity
  8
0
100
AcDbLine
 62
7
  6
CONTINUOUS
 10
11.5917977039
 20
8.7735675901
 11
11.5917977039
 21
8.2572219922
  0
LINE
  5
36A
100
AcDbEntity
  8
0
100
AcDbLine
 62
7
  6
CONTINUOUS
 10
11.5917977039
 20
14.3671470213
 11
11.5917977039
 21
14.8834926193
  0
LINE
  5
36B
100
AcDbEntity
  8
0
100
AcDbLine
 62
7
  6
CONTINUOUS
 10
12.0242977039
 20
14.1943573055
 11
12.0009423014
 21
14.9447117249
  0
LINE
  5
36C
100
AcDbEntity
  8
0
100
AcDbLine
 62
7
  6
CONTINUOUS
 10
12.0762977039
 20
9.4983533156
 11
12.0762977039
 21
9.1203573055
  0
LINE
  5
36D
100
AcDbEntity
  8
0
100
AcDbLine
 62
7
  6
CONTINUOUS
 10
12.0292977039
 20
9.1203573055
 11
12.0009402219
 21
8.1960028933
  0
LINE
  5
36E
100
AcDbEntity
  8
02___PRT_ALL_AXES
100
AcDbLine
 62
7
  6
CENTER
 10
12.4667977039
 20
15.0493573055
 11
12.4667977039
 21
14.0943573055
  0
LINE
  5
36F
100
AcDbEntity
  8
02___PRT_ALL_AXES
100
AcDbLine
 62
7
  6
CENTER
 10
12.4667977039
 20
8.0913573055
 11
12.4667977039
 21
9.6863573055
  0
LINE
  5
370
100
AcDbEntity
  8
0
100
AcDbLine
 62
7
  6
CONTINUOUS
 10
12.7108448483
 20
13.2858716412
 11
12.7108448481
 21
13.1555445137
  0
LINE
  5
371
100
AcDbEntity
  8
0
100
AcDbLine
 62
7
  6
CONTINUOUS
 10
12.7108448483
 20
13.0972148534
 11
12.7108448483
 21
12.8473191412
  0
LINE
  5
372
100
AcDbEntity
  8
0
100
AcDbLine
 62
7
  6
CONTINUOUS
 10
12.7108448483
 20
10.2933954697
 11
12.7108448483
 21
10.0434997586
  0
LINE
  5
373
100
AcDbEntity
  8
0
100
AcDbLine
 62
7
  6
CONTINUOUS
 10
12.7108448481
 20
9.9851700974
 11
12.7108448483
 21
9.8548429697
  0
LINE
  5
374
100
AcDbEntity
  8
0
100
AcDbLine
 62
7
  6
CONTINUOUS
 10
12.9042977039
 20
9.1203573055
 11
12.9327549714
 21
8.192750233
  0
LINE
  5
375
100
AcDbEntity
  8
0
100
AcDbLine
 62
7
  6
CONTINUOUS
 10
12.7697977039
 20
10.2933954697
 11
12.7697977039
 21
9.9002124479
  0
LINE
  5
376
100
AcDbEntity
  8
0
100
AcDbLine
 62
7
  6
CONTINUOUS
 10
12.7697977039
 20
12.8473191412
 11
12.7697977039
 21
13.2404959598
  0
LINE
  5
377
100
AcDbEntity
  8
0
100
AcDbLine
 62
7
  6
CONTINUOUS
 10
12.8287505595
 20
10.3533863314
 11
12.8287585982
 21
9.7672077109
  0
LINE
  5
378
100
AcDbEntity
  8
0
100
AcDbLine
 62
7
  6
CONTINUOUS
 10
12.8287505595
 20
12.7873282795
 11
12.8287404387
 21
13.3735069958
  0
LINE
  5
379
100
AcDbEntity
  8
0
100
AcDbLine
 62
7
  6
CONTINUOUS
 10
12.8572977039
 20
9.5119857213
 11
12.8572977039
 21
9.1203573055
  0
LINE
  5
37A
100
AcDbEntity
  8
0
100
AcDbLine
 62
7
  6
CONTINUOUS
 10
12.9540665167
 20
9.5579170861
 11
12.9540665167
 21
9.7346721799
  0
LINE
  5
37B
100
AcDbEntity
  8
0
100
AcDbLine
 62
7
  6
CONTINUOUS
 10
12.9540665167
 20
9.7678686265
 11
12.9540665167
 21
10.3555737296
  0
LINE
  5
37C
100
AcDbEntity
  8
0
100
AcDbLine
 62
7
  6
CONTINUOUS
 10
12.9540665167
 20
10.4155645913
 11
12.9540665167
 21
12.7251500197
  0
LINE
  5
37D
100
AcDbEntity
  8
0
100
AcDbLine
 62
7
  6
CONTINUOUS
 10
12.9540665167
 20
12.7851408814
 11
12.9540665167
 21
13.3728459844
  0
LINE
  5
37E
100
AcDbEntity
  8
0
100
AcDbLine
 62
7
  6
CONTINUOUS
 10
12.9540665167
 20
13.406042431
 11
12.9540665167
 21
13.5827975248
  0
LINE
  5
37F
100
AcDbEntity
  8
0
100
AcDbLine
 62
7
  6
CONTINUOUS
 10
12.9092977039
 20
14.1943573055
 11
12.9327543478
 21
14.9479643757
  0
LINE
  5
380
100
AcDbEntity
  8
0
100
AcDbLine
 62
7
  6
CONTINUOUS
 10
12.7108448483
 20
12.8473191412
 11
12.7697977039
 21
12.8473191412
  0
LINE
  5
381
100
AcDbEntity
  8
0
100
AcDbLine
 62
7
  6
CONTINUOUS
 10
12.8287505595
 20
12.7273374178
 11
12.9540665167
 21
12.7251500197
  0
LINE
  5
382
100
AcDbEntity
  8
0
100
AcDbLine
 62
7
  6
CONTINUOUS
 10
12.9540665167
 20
12.7851408814
 11
12.8287505595
 21
12.7873282795
  0
LINE
  5
383
100
AcDbEntity
  8
0
100
AcDbLine
 62
7
  6
CONTINUOUS
 10
13.0817977039
 20
9.6436550276
 11
13.0817977039
 21
13.4970595834
  0
LINE
  5
384
100
AcDbEntity
  8
0
100
AcDbLine
 62
7
  6
CONTINUOUS
 10
12.7697977039
 20
12.9763573055
 11
13.0817977039
 21
12.9763573055
  0
LINE
  5
385
100
AcDbEntity
  8
0
100
AcDbLine
 62
7
  6
CONTINUOUS
 10
12.7108448483
 20
13.0972148526
 11
12.7697977039
 21
13.0972148526
  0
LINE
  5
386
100
AcDbEntity
  8
0
100
AcDbLine
 62
7
  6
CONTINUOUS
 10
13.3317977039
 20
8.1913573055
 11
13.3317977039
 21
13.5553573055
  0
LINE
  5
387
100
AcDbEntity
  8
0
100
AcDbLine
 62
7
  6
CONTINUOUS
 10
13.3317977039
 20
14.0853573055
 11
13.3317977039
 21
14.9493573055
  0
LINE
  5
388
100
AcDbEntity
  8
0
100
AcDbLine
 62
7
  6
CONTINUOUS
 10
13.3867977039
 20
14.8978573055
 11
13.3867977039
 21
14.3678573055
  0
LINE
  5
389
100
AcDbEntity
  8
0
100
AcDbLine
 62
7
  6
CONTINUOUS
 10
13.3867977039
 20
14.0853573055
 11
13.3867977039
 21
13.5553573055
  0
LINE
  5
38A
100
AcDbEntity
  8
02___PRT_ALL_AXES
100
AcDbLine
 62
7
  6
CONTINUOUS
 10
13.3867977039
 20
9.6633573055
 11
13.3867977039
 21
9.1333573055
  0
LINE
  5
38B
100
AcDbEntity
  8
0
100
AcDbLine
 62
7
  6
CONTINUOUS
 10
10.0019948932
 20
13.1356232087
 11
9.9567977039
 21
13.1356232093
  0
LINE
  5
38C
100
AcDbEntity
  8
0
100
AcDbLine
 62
7
  6
CONTINUOUS
 10
13.3317977039
 20
13.5553573055
 11
13.3867977039
 21
13.5553573055
  0
LINE
  5
38D
100
AcDbEntity
  8
0
100
AcDbLine
 62
7
  6
CONTINUOUS
 10
12.9540665167
 20
13.3728459844
 11
12.8287404387
 21
13.3735069958
  0
LINE
  5
38E
100
AcDbEntity
  8
0
100
AcDbLine
 62
7
  6
CONTINUOUS
 10
12.9540665167
 20
13.406042431
 11
12.8287505595
 21
13.4067529139
  0
LINE
  5
38F
100
AcDbEntity
  8
0
100
AcDbLine
 62
7
  6
CONTINUOUS
 10
10.0019948932
 20
13.6785683856
 11
12.9540665167
 21
13.6270397837
  0
LINE
  5
390
100
AcDbEntity
  8
0
100
AcDbLine
 62
7
  6
CONTINUOUS
 10
13.3317977039
 20
14.0853573055
 11
13.3867977039
 21
14.0853573055
  0
LINE
  5
391
100
AcDbEntity
  8
0
100
AcDbLine
 62
7
  6
CONTINUOUS
 10
10.0019948932
 20
14.2116462253
 11
11.4640688433
 21
14.2371668211
  0
LINE
  5
392
100
AcDbEntity
  8
0
100
AcDbLine
 62
7
  6
CONTINUOUS
 10
12.0242977039
 20
14.1943573055
 11
12.9092977039
 21
14.1943573055
  0
LINE
  5
393
100
AcDbEntity
  8
0
100
AcDbLine
 62
7
  6
CONTINUOUS
 10
13.3317977039
 20
14.3678573055
 11
13.3867977039
 21
14.3678573055
  0
LINE
  5
394
100
AcDbEntity
  8
0
100
AcDbLine
 62
7
  6
CONTINUOUS
 10
13.3317977039
 20
14.9493573055
 11
11.6515906386
 21
14.9434922526
  0
LINE
  5
395
100
AcDbEntity
  8
0
100
AcDbLine
 62
7
  6
CONTINUOUS
 10
13.3317977039
 20
14.8978573055
 11
13.3867977039
 21
14.8978573055
  0
LINE
  5
396
100
AcDbEntity
  8
0
100
AcDbLine
 62
7
  6
CONTINUOUS
 10
18.3559884634
 20
8.1913573055
 11
16.2309884634
 21
8.1913573055
  0
LINE
  5
397
100
AcDbEntity
  8
0
100
AcDbLine
 62
7
  6
CONTINUOUS
 10
15.6962714915
 20
14.1981801433
 11
15.7500777816
 21
14.2519864333
  0
LINE
  5
398
100
AcDbEntity
  8
0
100
AcDbLine
 62
7
  6
CONTINUOUS
 10
15.6828054095
 20
14.1656532314
 11
15.7366116995
 21
14.2194595214
  0
LINE
  5
399
100
AcDbEntity
  8
02___PRT_ALL_AXES
100
AcDbLine
 62
7
  6
CENTER
 10
16.2309884634
 20
8.5078573055
 11
15.9594884634
 21
8.5078573055
  0
LINE
  5
39A
100
AcDbEntity
  8
02___PRT_ALL_AXES
100
AcDbLine
 62
7
  6
CENTER
 10
16.2309884634
 20
8.5078573055
 11
16.5024884634
 21
8.5078573055
  0
LINE
  5
39B
100
AcDbEntity
  8
0
100
AcDbLine
 62
7
  6
CONTINUOUS
 10
15.7500777816
 20
8.8887281776
 11
15.6962714915
 21
8.9425344676
  0
LINE
  5
39C
100
AcDbEntity
  8
0
100
AcDbLine
 62
7
  6
CONTINUOUS
 10
15.7366116995
 20
8.9212550895
 11
15.6828054095
 21
8.9750613796
  0
LINE
  5
39D
100
AcDbEntity
  8
0
100
AcDbLine
 62
7
  6
CONTINUOUS
 10
19.0954033035
 20
8.8709464613
 11
18.5459884634
 21
8.8709464613
  0
LINE
  5
39E
100
AcDbEntity
  8
02___PRT_ALL_AXES
100
AcDbLine
 62
7
  6
CENTER
 10
18.9159884634
 20
9.3983573055
 11
18.6754884634
 21
9.3983573055
  0
LINE
  5
39F
100
AcDbEntity
  8
02___PRT_ALL_AXES
100
AcDbLine
 62
7
  6
CENTER
 10
18.9159884634
 20
9.3983573055
 11
19.1564884634
 21
9.3983573055
  0
LINE
  5
3A0
100
AcDbEntity
  8
0
100
AcDbLine
 62
7
  6
CONTINUOUS
 10
15.6828054095
 20
8.9750613796
 11
15.6828054095
 21
14.1656532314
  0
LINE
  5
3A1
100
AcDbEntity
  8
0
100
AcDbLine
 62
7
  6
CONTINUOUS
 10
15.7366116995
 20
14.2194595214
 11
15.7366116995
 21
8.9212550895
  0
LINE
  5
3A2
100
AcDbEntity
  8
0
100
AcDbLine
 62
7
  6
CONTINUOUS
 10
15.8909884634
 20
8.871278014
 11
15.8909884634
 21
8.5314256809
  0
LINE
  5
3A3
100
AcDbEntity
  8
0
100
AcDbLine
 62
7
  6
CONTINUOUS
 10
15.9865736233
 20
14.2697681496
 11
15.9865736233
 21
8.6102603618
  0
LINE
  5
3A4
100
AcDbEntity
  8
0
100
AcDbLine
 62
7
  6
CONTINUOUS
 10
15.9865736233
 20
8.4054542491
 11
15.9865736233
 21
8.2950078027
  0
LINE
  5
3A5
100
AcDbEntity
  8
02___PRT_ALL_AXES
100
AcDbLine
 62
7
  6
CENTER
 10
16.2309884634
 20
8.5078573055
 11
16.2309884634
 21
8.2363573055
  0
LINE
  5
3A6
100
AcDbEntity
  8
02___PRT_ALL_AXES
100
AcDbLine
 62
7
  6
CENTER
 10
16.2309884634
 20
8.5078573055
 11
16.2309884634
 21
8.7793573055
  0
LINE
  5
3A7
100
AcDbEntity
  8
0
100
AcDbLine
 62
7
  6
CONTINUOUS
 10
16.6659884634
 20
14.3997879522
 11
16.6659884634
 21
14.8893569399
  0
LINE
  5
3A8
100
AcDbEntity
  8
02___PRT_ALL_AXES
100
AcDbLine
 62
7
  6
CENTER
 10
17.5409884634
 20
13.8203573055
 11
17.5409884634
 21
13.4553573055
  0
LINE
  5
3A9
100
AcDbEntity
  8
02___PRT_ALL_AXES
100
AcDbLine
 62
7
  6
CENTER
 10
17.5409884634
 20
13.8203573055
 11
17.5409884634
 21
14.1853573055
  0
LINE
  5
3AA
100
AcDbEntity
  8
0
100
AcDbLine
 62
7
  6
CONTINUOUS
 10
18.4159884634
 20
8.7409266587
 11
18.4159884634
 21
8.251357671
  0
LINE
  5
3AB
100
AcDbEntity
  8
02___PRT_ALL_AXES
100
AcDbLine
 62
7
  6
CENTER
 10
18.8509884634
 20
14.6328573055
 11
18.8509884634
 21
14.3613573055
  0
LINE
  5
3AC
100
AcDbEntity
  8
02___PRT_ALL_AXES
100
AcDbLine
 62
7
  6
CENTER
 10
18.8509884634
 20
14.6328573055
 11
18.8509884634
 21
14.9043573055
  0
LINE
  5
3AD
100
AcDbEntity
  8
02___PRT_ALL_AXES
100
AcDbLine
 62
7
  6
CENTER
 10
18.9159884634
 20
9.3983573055
 11
18.9159884634
 21
9.1578573055
  0
LINE
  5
3AE
100
AcDbEntity
  8
02___PRT_ALL_AXES
100
AcDbLine
 62
7
  6
CENTER
 10
18.9159884634
 20
9.3983573055
 11
18.9159884634
 21
9.6388573055
  0
LINE
  5
3AF
100
AcDbEntity
  8
0
100
AcDbLine
 62
7
  6
CONTINUOUS
 10
19.0954033035
 20
8.8709464613
 11
19.0954033035
 21
9.2033308581
  0
LINE
  5
3B0
100
AcDbEntity
  8
0
100
AcDbLine
 62
7
  6
CONTINUOUS
 10
19.0954033035
 20
9.5933837528
 11
19.0954033035
 21
14.5304542491
  0
LINE
  5
3B1
100
AcDbEntity
  8
0
100
AcDbLine
 62
7
  6
CONTINUOUS
 10
19.0954033035
 20
14.7352603618
 11
19.0954033035
 21
14.8457068082
  0
LINE
  5
3B2
100
AcDbEntity
  8
0
100
AcDbLine
 62
7
  6
CONTINUOUS
 10
19.1909884634
 20
14.269436597
 11
19.1909884634
 21
14.60928893
  0
LINE
  5
3B3
100
AcDbEntity
  8
0
100
AcDbLine
 62
7
  6
CONTINUOUS
 10
19.3453652273
 20
14.2194595214
 11
19.3453652273
 21
8.9212550895
  0
LINE
  5
3B4
100
AcDbEntity
  8
0
100
AcDbLine
 62
7
  6
CONTINUOUS
 10
19.3991715173
 20
14.1656532314
 11
19.3991715173
 21
8.9750613796
  0
LINE
  5
3B5
100
AcDbEntity
  8
02___PRT_ALL_AXES
100
AcDbLine
 62
7
  6
CENTER
 10
17.5409884634
 20
13.8203573055
 11
17.1759884634
 21
13.8203573055
  0
LINE
  5
3B6
100
AcDbEntity
  8
02___PRT_ALL_AXES
100
AcDbLine
 62
7
  6
CENTER
 10
17.5409884634
 20
13.8203573055
 11
17.9059884634
 21
13.8203573055
  0
LINE
  5
3B7
100
AcDbEntity
  8
0
100
AcDbLine
 62
7
  6
CONTINUOUS
 10
15.9865736233
 20
14.2697681496
 11
16.5359884634
 21
14.2697681496
  0
LINE
  5
3B8
100
AcDbEntity
  8
02___PRT_ALL_AXES
100
AcDbLine
 62
7
  6
CENTER
 10
18.8509884634
 20
14.6328573055
 11
18.5794884634
 21
14.6328573055
  0
LINE
  5
3B9
100
AcDbEntity
  8
02___PRT_ALL_AXES
100
AcDbLine
 62
7
  6
CENTER
 10
18.8509884634
 20
14.6328573055
 11
19.1224884634
 21
14.6328573055
  0
LINE
  5
3BA
100
AcDbEntity
  8
0
100
AcDbLine
 62
7
  6
CONTINUOUS
 10
19.3991715173
 20
8.9750613796
 11
19.3453652273
 21
8.9212550895
  0
LINE
  5
3BB
100
AcDbEntity
  8
0
100
AcDbLine
 62
7
  6
CONTINUOUS
 10
19.3857054353
 20
8.9425344676
 11
19.3318991452
 21
8.8887281776
  0
LINE
  5
3BC
100
AcDbEntity
  8
0
100
AcDbLine
 62
7
  6
CONTINUOUS
 10
19.3453652273
 20
14.2194595214
 11
19.3991715173
 21
14.1656532314
  0
LINE
  5
3BD
100
AcDbEntity
  8
0
100
AcDbLine
 62
7
  6
CONTINUOUS
 10
19.3318991452
 20
14.2519864333
 11
19.3857054353
 21
14.1981801433
  0
LINE
  5
3BE
100
AcDbEntity
  8
0
100
AcDbLine
 62
7
  6
CONTINUOUS
 10
16.7259884634
 20
14.9493573055
 11
18.8509884634
 21
14.9493573055
  0
LINE
  5
3BF
100
AcDbEntity
  8
0
100
AcDbLine
 62
7
  6
CONTINUOUS
 10
4.2581202689
 20
5.7831956864
 11
4.3119265589
 21
2.7006353955
  0
LINE
  5
3C0
100
AcDbEntity
  8
0
100
AcDbLine
 62
7
  6
CONTINUOUS
 10
4.3041132629
 20
5.7848013078
 11
4.3604560061
 21
2.5569277122
  0
LINE
  5
3C1
100
AcDbEntity
  8
0
100
AcDbLine
 62
7
  6
CONTINUOUS
 10
4.3041132629
 20
5.8299984971
 11
4.3041132629
 21
5.7848013078
  0
LINE
  5
3C2
100
AcDbEntity
  8
0
100
AcDbLine
 62
7
  6
CONTINUOUS
 10
7.6913033228
 20
2.3999984971
 11
7.1613033228
 21
2.3999984971
  0
LINE
  5
3C3
100
AcDbEntity
  8
02___PRT_ALL_AXES
100
AcDbLine
 62
7
  6
CONTINUOUS
 10
6.3813033228
 20
2.3999984971
 11
5.8513033228
 21
2.3999984971
  0
LINE
  5
3C4
100
AcDbEntity
  8
0
100
AcDbLine
 62
7
  6
CONTINUOUS
 10
5.0713033228
 20
2.3999984971
 11
5.0063033228
 21
2.3999984971
  0
LINE
  5
3C5
100
AcDbEntity
  8
02___PRT_ALL_AXES
100
AcDbLine
 62
7
  6
CONTINUOUS
 10
5.0063033228
 20
2.3999984971
 11
4.4763033228
 21
2.3999984971
  0
LINE
  5
3C6
100
AcDbEntity
  8
0
100
AcDbLine
 62
7
  6
CONTINUOUS
 10
4.4763033228
 20
2.4701045202
 11
4.4763033228
 21
2.3999984971
  0
LINE
  5
3C7
100
AcDbEntity
  8
0
100
AcDbLine
 62
7
  6
CONTINUOUS
 10
4.5618884827
 20
2.4549984971
 11
7.6707181629
 21
2.4549984971
  0
LINE
  5
3C8
100
AcDbEntity
  8
0
100
AcDbLine
 62
7
  6
CONTINUOUS
 10
7.0512944626
 20
2.7649984971
 11
7.7063033228
 21
2.7649984971
  0
LINE
  5
3C9
100
AcDbEntity
  8
0
100
AcDbLine
 62
7
  6
CONTINUOUS
 10
7.0513033228
 20
2.7052079362
 11
7.7663033221
 21
2.7049984743
  0
LWPOLYLINE
  5
3CA
100
AcDbEntity
  8
0
100
AcDbPolyline
 62
7
  6
CONTINUOUS
 90
3
 70
0
 10
7.7633991228
 20
2.705025454
 10
7.7655773761
 20
2.7050117258
 10
7.7663033219
 20
2.7049984817
  0
LINE
  5
3CB
100
AcDbEntity
  8
02___PRT_ALL_AXES
100
AcDbLine
 62
7
  6
CONTINUOUS
 10
5.0063033228
 20
2.4549984971
 11
5.0063033228
 21
2.3999984971
  0
LINE
  5
3CC
100
AcDbEntity
  8
0
100
AcDbLine
 62
7
  6
CONTINUOUS
 10
5.0713033228
 20
2.4549984971
 11
5.0713033228
 21
2.3999984971
  0
LINE
  5
3CD
100
AcDbEntity
  8
0
100
AcDbLine
 62
7
  6
CONTINUOUS
 10
5.1113033228
 20
3.3177296843
 11
5.1113033228
 21
2.4549984971
  0
LINE
  5
3CE
100
AcDbEntity
  8
0
100
AcDbLine
 62
7
  6
CONTINUOUS
 10
5.2413033228
 20
2.4549984971
 11
5.2413033228
 21
3.3199951
  0
LINE
  5
3CF
100
AcDbEntity
  8
0
100
AcDbLine
 62
7
  6
CONTINUOUS
 10
5.3013033228
 20
2.4549984971
 11
5.3013033228
 21
3.3202079362
  0
LINE
  5
3D0
100
AcDbEntity
  8
02___PRT_ALL_AXES
100
AcDbLine
 62
7
  6
CENTER
 10
6.1163033228
 20
3.3199984971
 11
5.5503033228
 21
3.3199984971
  0
LINE
  5
3D1
100
AcDbEntity
  8
02___PRT_ALL_AXES
100
AcDbLine
 62
7
  6
CENTER
 10
6.1163033228
 20
3.3199984971
 11
6.6823033228
 21
3.3199984971
  0
LINE
  5
3D2
100
AcDbEntity
  8
02___PRT_ALL_AXES
100
AcDbLine
 62
7
  6
CONTINUOUS
 10
5.8513033228
 20
2.4549984971
 11
5.8513033228
 21
2.3999984971
  0
LINE
  5
3D3
100
AcDbEntity
  8
02___PRT_ALL_AXES
100
AcDbLine
 62
7
  6
CENTER
 10
6.1163033228
 20
3.3199984971
 11
6.1163033228
 21
2.7539984971
  0
LINE
  5
3D4
100
AcDbEntity
  8
02___PRT_ALL_AXES
100
AcDbLine
 62
7
  6
CENTER
 10
6.1163033228
 20
3.3199984971
 11
6.1163033228
 21
3.8859984971
  0
LINE
  5
3D5
100
AcDbEntity
  8
02___PRT_ALL_AXES
100
AcDbLine
 62
7
  6
CONTINUOUS
 10
6.3813033228
 20
2.4549984971
 11
6.3813033228
 21
2.3999984971
  0
LINE
  5
3D6
100
AcDbEntity
  8
0
100
AcDbLine
 62
7
  6
CONTINUOUS
 10
6.9313033228
 20
3.3202079362
 11
6.9313033228
 21
2.8252079362
  0
LINE
  5
3D7
100
AcDbEntity
  8
0
100
AcDbLine
 62
7
  6
CONTINUOUS
 10
6.9913033228
 20
3.3199950816
 11
6.9913033228
 21
2.8249878532
  0
LINE
  5
3D8
100
AcDbEntity
  8
0
100
AcDbLine
 62
7
  6
CONTINUOUS
 10
7.0513033228
 20
2.7649984971
 11
7.0513033228
 21
2.7052079362
  0
LINE
  5
3D9
100
AcDbEntity
  8
0
100
AcDbLine
 62
7
  6
CONTINUOUS
 10
7.1213033228
 20
2.7649984971
 11
7.1213033228
 21
3.3177296843
  0
LINE
  5
3DA
100
AcDbEntity
  8
0
100
AcDbLine
 62
7
  6
CONTINUOUS
 10
7.1613033228
 20
2.4549984971
 11
7.1613033228
 21
2.3999984971
  0
LINE
  5
3DB
100
AcDbEntity
  8
0
100
AcDbLine
 62
7
  6
CONTINUOUS
 10
7.4263033228
 20
2.7649984971
 11
7.4263033228
 21
2.4549984971
  0
LINE
  5
3DC
100
AcDbEntity
  8
0
100
AcDbLine
 62
7
  6
CONTINUOUS
 10
7.6913033228
 20
2.4549984971
 11
7.6913033228
 21
2.3999984971
  0
LINE
  5
3DD
100
AcDbEntity
  8
0
100
AcDbLine
 62
7
  6
CONTINUOUS
 10
7.7663033228
 20
2.4739931352
 11
7.7663033228
 21
2.7049984971
  0
LINE
  5
3DE
100
AcDbEntity
  8
0
100
AcDbLine
 62
7
  6
CONTINUOUS
 10
4.3041132629
 20
5.7848013078
 11
7.9284933827
 21
5.7848013078
  0
LINE
  5
3DF
100
AcDbEntity
  8
0
100
AcDbLine
 62
7
  6
CONTINUOUS
 10
7.9284933827
 20
5.7848013078
 11
7.9284933827
 21
5.8299984971
  0
LINE
  5
3E0
100
AcDbEntity
  8
0
100
AcDbLine
 62
7
  6
CONTINUOUS
 10
7.8721506395
 20
2.5569277122
 11
7.9284933827
 21
5.7848013078
  0
LINE
  5
3E1
100
AcDbEntity
  8
0
100
AcDbLine
 62
7
  6
CONTINUOUS
 10
7.9206800867
 20
2.7006353955
 11
7.9744863767
 21
5.7831956864
  0
LINE
  5
3E2
100
AcDbEntity
  8
0
100
AcDbLine
 62
7
  6
CONTINUOUS
 10
4.3041132629
 20
5.8299984971
 11
7.9284933827
 21
5.8299984971
  0
ARC
  5
3E3
100
AcDbEntity
  8
0
100
AcDbCircle
 62
7
  6
CONTINUOUS
 10
5.4076696658
 20
6.3747699327
 40
3.7117564548
100
AcDbArc
 50
64.8510449159
 51
66.8802751023
  0
ARC
  5
3E4
100
AcDbEntity
  8
0
100
AcDbCircle
 62
7
  6
CONTINUOUS
 10
3.7230762195
 20
10.7839320746
 40
2.0922901184
100
AcDbArc
 50
320.8212984773
 51
322.6189297633
  0
ARC
  5
3E5
100
AcDbEntity
  8
0
100
AcDbCircle
 62
7
  6
CONTINUOUS
 10
6.0797439958
 20
8.4645294005
 40
2.0097544303
100
AcDbArc
 50
128.2188517786
 51
129.9555978013
  0
ARC
  5
3E6
100
AcDbEntity
  8
0
100
AcDbCircle
 62
7
  6
CONTINUOUS
 10
3.9828230493
 20
10.6841935523
 40
1.7542350681
100
AcDbArc
 50
317.9870496965
 51
320.056431596
  0
ARC
  5
3E7
100
AcDbEntity
  8
0
100
AcDbCircle
 62
7
  6
CONTINUOUS
 10
5.9877729916
 20
8.7054919387
 40
1.6910186326
100
AcDbArc
 50
130.821493191
 51
132.8108453466
  0
ARC
  5
3E8
100
AcDbEntity
  8
0
100
AcDbCircle
 62
7
  6
CONTINUOUS
 10
4.7413033228
 20
9.3983573055
 40
0.7377506442
100
AcDbArc
 50
19.4208245097
 51
31.9195096269
  0
ARC
  5
3E9
100
AcDbEntity
  8
0
100
AcDbCircle
 62
7
  6
CONTINUOUS
 10
4.7413033228
 20
9.3983573055
 40
0.6635156975
100
AcDbArc
 50
49.1440561174
 51
76.4850596199
  0
ARC
  5
3EA
100
AcDbEntity
  8
0
100
AcDbCircle
 62
7
  6
CONTINUOUS
 10
4.7413033228
 20
9.3983573055
 40
0.6077704438
100
AcDbArc
 50
15.220412954
 51
33.5977190545
  0
ARC
  5
3EB
100
AcDbEntity
  8
0
100
AcDbCircle
 62
7
  6
CONTINUOUS
 10
4.7413033228
 20
9.3983573055
 40
0.6035249938
100
AcDbArc
 50
49.1448538116
 51
76.4850596384
  0
ARC
  5
3EC
100
AcDbEntity
  8
0
100
AcDbCircle
 62
7
  6
CONTINUOUS
 10
4.7413033228
 20
9.3983573055
 40
0.556241842
100
AcDbArc
 50
11.587517638
 51
79.9271373735
  0
ARC
  5
3ED
100
AcDbEntity
  8
0
100
AcDbCircle
 62
7
  6
CONTINUOUS
 10
4.7413033228
 20
9.3983573055
 40
0.510248848
100
AcDbArc
 50
11.5972810535
 51
79.9452328004
  0
ARC
  5
3EE
100
AcDbEntity
  8
0
100
AcDbCircle
 62
7
  6
CONTINUOUS
 10
5.0463033228
 20
10.1643573055
 40
0.3211963178
100
AcDbArc
 50
0.0
 51
90.0
  0
ARC
  5
3EF
100
AcDbEntity
  8
0
100
AcDbCircle
 62
7
  6
CONTINUOUS
 10
5.0463033228
 20
10.1643573055
 40
0.191216424
100
AcDbArc
 50
0.0
 51
90.0
  0
ARC
  5
3F0
100
AcDbEntity
  8
0
100
AcDbCircle
 62
7
  6
CONTINUOUS
 10
5.0463033228
 20
10.1643573055
 40
0.1890290259
100
AcDbArc
 50
0.0
 51
90.0
  0
CIRCLE
  5
3F1
100
AcDbEntity
  8
02___PRT_ALL_AXES
100
AcDbCircle
 62
7
  6
CONTINUOUS
 10
4.7413033228
 20
9.3983573055
 40
0.1405
  0
ARC
  5
3F2
100
AcDbEntity
  8
0
100
AcDbCircle
 62
7
  6
CONTINUOUS
 10
5.111315408
 20
8.7560148258
 40
0.1299873155
100
AcDbArc
 50
0.0046123103
 51
90.0053267812
  0
ARC
  5
3F3
100
AcDbEntity
  8
0
100
AcDbCircle
 62
7
  6
CONTINUOUS
 10
5.0463033228
 20
10.1643573055
 40
0.1290381237
100
AcDbArc
 50
0.0
 51
90.0
  0
CIRCLE
  5
3F4
100
AcDbEntity
  8
02___PRT_ALL_AXES
100
AcDbCircle
 62
7
  6
CONTINUOUS
 10
4.7413033228
 20
9.3983573055
 40
0.1085
  0
ARC
  5
3F5
100
AcDbEntity
  8
0
100
AcDbCircle
 62
7
  6
CONTINUOUS
 10
5.3449931534
 20
9.5221661583
 40
0.1060140591
100
AcDbArc
 50
191.554389919
 51
269.9910021138
  0
CIRCLE
  5
3F6
100
AcDbEntity
  8
02___PRT_ALL_AXES
100
AcDbCircle
 62
7
  6
CONTINUOUS
 10
4.7413033228
 20
9.3983573055
 40
0.1035
  0
ARC
  5
3F7
100
AcDbEntity
  8
0
100
AcDbCircle
 62
7
  6
CONTINUOUS
 10
4.8984462601
 20
10.4133991451
 40
0.0600129272
100
AcDbArc
 50
180.0209581707
 51
269.9790418293
  0
ARC
  5
3F8
100
AcDbEntity
  8
0
100
AcDbCircle
 62
7
  6
CONTINUOUS
 10
4.9006336579
 20
10.4155865429
 40
0.0600129269
100
AcDbArc
 50
180.0209577865
 51
269.9790422135
  0
ARC
  5
3F9
100
AcDbEntity
  8
0
100
AcDbCircle
 62
7
  6
CONTINUOUS
 10
5.3856576191
 20
9.5736863255
 40
0.060011501
100
AcDbArc
 50
195.2353844135
 51
269.984941278
  0
ARC
  5
3FA
100
AcDbEntity
  8
0
100
AcDbCircle
 62
7
  6
CONTINUOUS
 10
4.8963866678
 20
10.0435158468
 40
0.0600108327
100
AcDbArc
 50
180.0153608451
 51
256.4697005904
  0
ARC
  5
3FB
100
AcDbEntity
  8
0
100
AcDbCircle
 62
7
  6
CONTINUOUS
 10
5.2953370182
 20
9.7672118445
 40
0.0600046697
100
AcDbArc
 50
180.0039874682
 51
213.6505367473
  0
ARC
  5
3FC
100
AcDbEntity
  8
0
100
AcDbCircle
 62
7
  6
CONTINUOUS
 10
5.2975236343
 20
9.7678715486
 40
0.0599998225
100
AcDbArc
 50
180.0027904737
 51
213.5931602519
  0
ARC
  5
3FD
100
AcDbEntity
  8
0
100
AcDbCircle
 62
7
  6
CONTINUOUS
 10
5.30130314
 20
8.2543772856
 40
0.0599998172
100
AcDbArc
 50
180.0001745339
 51
270.0001745327
  0
ARC
  5
3FE
100
AcDbEntity
  8
0
100
AcDbCircle
 62
7
  6
CONTINUOUS
 10
5.3449565214
 20
9.5221128943
 40
0.0599639818
100
AcDbArc
 50
191.5687564649
 51
270.0190938802
  0
ARC
  5
3FF
100
AcDbEntity
  8
0
100
AcDbCircle
 62
7
  6
CONTINUOUS
 10
4.8490583436
 20
10.0050705342
 40
0.0599632599
100
AcDbArc
 50
179.9800609727
 51
259.9469030967
  0
CIRCLE
  5
400
100
AcDbEntity
  8
02___PRT_ALL_AXES
100
AcDbCircle
 62
7
  6
CONTINUOUS
 10
5.0463033228
 20
10.1643573055
 40
0.046
  0
ARC
  5
401
100
AcDbEntity
  8
0
100
AcDbCircle
 62
7
  6
CONTINUOUS
 10
4.304082238
 20
8.9750392185
 40
0.045960729
100
AcDbArc
 50
179.9723742651
 51
270.0252456827
  0
ARC
  5
402
100
AcDbEntity
  8
0
100
AcDbCircle
 62
7
  6
CONTINUOUS
 10
3.7559309596
 20
12.3827109241
 40
2.050441876
100
AcDbArc
 50
37.3627244175
 51
39.1970473418
  0
ARC
  5
403
100
AcDbEntity
  8
0
100
AcDbCircle
 62
7
  6
CONTINUOUS
 10
4.0089930003
 20
12.4792528219
 40
1.7195767404
100
AcDbArc
 50
39.9227117162
 51
42.0338069915
  0
ARC
  5
404
100
AcDbEntity
  8
0
100
AcDbCircle
 62
7
  6
CONTINUOUS
 10
4.7413033228
 20
13.7423573055
 40
0.7377506442
100
AcDbArc
 50
328.0804903731
 51
340.5791756758
  0
ARC
  5
405
100
AcDbEntity
  8
0
100
AcDbCircle
 62
7
  6
CONTINUOUS
 10
4.7413033228
 20
13.7423573055
 40
0.6635156386
100
AcDbArc
 50
283.51494038
 51
310.8550535739
  0
ARC
  5
406
100
AcDbEntity
  8
0
100
AcDbCircle
 62
7
  6
CONTINUOUS
 10
4.7413033228
 20
13.7423573055
 40
0.6077704438
100
AcDbArc
 50
326.4022809455
 51
344.779587046
  0
ARC
  5
407
100
AcDbEntity
  8
0
100
AcDbCircle
 62
7
  6
CONTINUOUS
 10
4.7413033228
 20
13.7423573055
 40
0.6035249938
100
AcDbArc
 50
283.5149404278
 51
310.8551461884
  0
ARC
  5
408
100
AcDbEntity
  8
0
100
AcDbCircle
 62
7
  6
CONTINUOUS
 10
4.7413033228
 20
13.7423573055
 40
0.556241842
100
AcDbArc
 50
280.0728626265
 51
348.412482362
  0
ARC
  5
409
100
AcDbEntity
  8
0
100
AcDbCircle
 62
7
  6
CONTINUOUS
 10
4.7413033228
 20
13.7423573055
 40
0.510248848
100
AcDbArc
 50
280.0545868183
 51
348.4057975653
  0
CIRCLE
  5
40A
100
AcDbEntity
  8
02___PRT_ALL_AXES
100
AcDbCircle
 62
7
  6
CONTINUOUS
 10
4.7413033228
 20
13.7423573055
 40
0.1405
  0
CIRCLE
  5
40B
100
AcDbEntity
  8
02___PRT_ALL_AXES
100
AcDbCircle
 62
7
  6
CONTINUOUS
 10
4.7413033228
 20
13.7423573055
 40
0.1085
  0
CIRCLE
  5
40C
100
AcDbEntity
  8
02___PRT_ALL_AXES
100
AcDbCircle
 62
7
  6
CONTINUOUS
 10
4.7413033228
 20
13.7423573055
 40
0.1035
  0
ARC
  5
40D
100
AcDbEntity
  8
0
100
AcDbCircle
 62
7
  6
CONTINUOUS
 10
4.8984462454
 20
12.7273154805
 40
0.0600129273
100
AcDbArc
 50
90.020944126
 51
179.979055874
  0
ARC
  5
40E
100
AcDbEntity
  8
0
100
AcDbCircle
 62
7
  6
CONTINUOUS
 10
4.9006336317
 20
12.7251280942
 40
0.0600129154
100
AcDbArc
 50
90.0209327747
 51
179.9790672253
  0
ARC
  5
40F
100
AcDbEntity
  8
0
100
AcDbCircle
 62
7
  6
CONTINUOUS
 10
4.8963866693
 20
13.0971987661
 40
0.0600108327
100
AcDbArc
 50
103.5303012286
 51
179.9846410498
  0
ARC
  5
410
100
AcDbEntity
  8
0
100
AcDbCircle
 62
7
  6
CONTINUOUS
 10
4.8490583998
 20
13.135644166
 40
0.0599632487
100
AcDbArc
 50
100.0531646323
 51
180.0200243282
  0
ARC
  5
411
100
AcDbEntity
  8
0
100
AcDbCircle
 62
7
  6
CONTINUOUS
 10
4.3040901241
 20
14.1656864581
 40
0.0459582899
100
AcDbArc
 50
90.9720230377
 51
180.007826998
  0
ARC
  5
412
100
AcDbEntity
  8
0
100
AcDbCircle
 62
7
  6
CONTINUOUS
 10
4.8063039929
 20
14.6084832361
 40
0.3400006701
100
AcDbArc
 50
89.9958632661
 51
180.0001129418
  0
ARC
  5
413
100
AcDbEntity
  8
0
100
AcDbCircle
 62
7
  6
CONTINUOUS
 10
4.8063042447
 20
14.6084833498
 40
0.280000922
100
AcDbArc
 50
90.0001886584
 51
180.0001604081
  0
CIRCLE
  5
414
100
AcDbEntity
  8
02___PRT_ALL_AXES
100
AcDbCircle
 62
7
  6
CONTINUOUS
 10
4.8063033228
 20
14.6328573055
 40
0.1715
  0
ARC
  5
415
100
AcDbEntity
  8
0
100
AcDbCircle
 62
7
  6
CONTINUOUS
 10
6.0095105977
 20
14.4595210827
 40
1.7236165159
100
AcDbArc
 50
227.2079688466
 51
229.1596937354
  0
ARC
  5
416
100
AcDbEntity
  8
0
100
AcDbCircle
 62
7
  6
CONTINUOUS
 10
5.0463033228
 20
12.9763573055
 40
0.3211963178
100
AcDbArc
 50
270.0
 51
360.0
  0
ARC
  5
417
100
AcDbEntity
  8
0
100
AcDbCircle
 62
7
  6
CONTINUOUS
 10
5.0463033228
 20
12.9763573055
 40
0.191216424
100
AcDbArc
 50
270.0
 51
360.0
  0
ARC
  5
418
100
AcDbEntity
  8
0
100
AcDbCircle
 62
7
  6
CONTINUOUS
 10
5.0463033228
 20
12.9763573055
 40
0.1890290258
100
AcDbArc
 50
270.0
 51
360.0
  0
ARC
  5
419
100
AcDbEntity
  8
0
100
AcDbCircle
 62
7
  6
CONTINUOUS
 10
5.111315408
 20
14.3846997851
 40
0.1299873155
100
AcDbArc
 50
269.9946732051
 51
359.9953876846
  0
ARC
  5
41A
100
AcDbEntity
  8
0
100
AcDbCircle
 62
7
  6
CONTINUOUS
 10
5.0463033228
 20
12.9763573055
 40
0.1290380557
100
AcDbArc
 50
270.0
 51
360.0
  0
ARC
  5
41B
100
AcDbEntity
  8
0
100
AcDbCircle
 62
7
  6
CONTINUOUS
 10
5.3449891028
 20
13.6185561128
 40
0.1060058932
100
AcDbArc
 50
90.0068091602
 51
168.4344113957
  0
ARC
  5
41C
100
AcDbEntity
  8
0
100
AcDbCircle
 62
7
  6
CONTINUOUS
 10
5.2975244296
 20
13.3728418119
 40
0.0600046828
100
AcDbArc
 50
146.406265082
 51
179.9960158634
  0
ARC
  5
41D
100
AcDbEntity
  8
0
100
AcDbCircle
 62
7
  6
CONTINUOUS
 10
5.3856522671
 20
13.5670251401
 40
0.0600029229
100
AcDbArc
 50
90.0099519724
 51
164.7603740909
  0
ARC
  5
41E
100
AcDbEntity
  8
0
100
AcDbCircle
 62
7
  6
CONTINUOUS
 10
5.2953262311
 20
13.3735011533
 40
0.0599942859
100
AcDbArc
 50
146.3424726913
 51
179.994471244
  0
ARC
  5
41F
100
AcDbEntity
  8
0
100
AcDbCircle
 62
7
  6
CONTINUOUS
 10
5.344956579
 20
13.6186017691
 40
0.0599639787
100
AcDbArc
 50
89.9809611162
 51
168.4313037722
  0
CIRCLE
  5
420
100
AcDbEntity
  8
0
100
AcDbCircle
 62
7
  6
CONTINUOUS
 10
5.0463033228
 20
12.9763573055
 40
0.046
  0
ARC
  5
421
100
AcDbEntity
  8
0
100
AcDbCircle
 62
7
  6
CONTINUOUS
 10
5.4076763277
 20
16.7659289574
 40
3.7117393901
100
AcDbArc
 50
293.1197256076
 51
295.148965126
  0
ARC
  5
422
100
AcDbEntity
  8
0
100
AcDbCircle
 62
7
  6
CONTINUOUS
 10
6.1035419737
 20
14.7054820013
 40
2.0474946541
100
AcDbArc
 50
230.0604103127
 51
231.7651415507
  0
ARC
  5
423
100
AcDbEntity
  8
0
100
AcDbCircle
 62
7
  6
CONTINUOUS
 10
5.3013075346
 20
14.8880582937
 40
0.0600068663
100
AcDbArc
 50
90.004021518
 51
179.9764056472
  0
ARC
  5
424
100
AcDbEntity
  8
0
100
AcDbCircle
 62
7
  6
CONTINUOUS
 10
5.30130314
 20
14.8863373253
 40
0.0599998172
100
AcDbArc
 50
89.9998254673
 51
179.9998254661
  0
ARC
  5
425
100
AcDbEntity
  8
0
100
AcDbCircle
 62
7
  6
CONTINUOUS
 10
6.8249303176
 20
6.3747856534
 40
3.7117393901
100
AcDbArc
 50
113.1197256034
 51
115.1489651218
  0
ARC
  5
426
100
AcDbEntity
  8
0
100
AcDbCircle
 62
7
  6
CONTINUOUS
 10
6.1290646718
 20
8.4352326097
 40
2.0474946541
100
AcDbArc
 50
50.0604103127
 51
51.7651415507
  0
ARC
  5
427
100
AcDbEntity
  8
0
100
AcDbCircle
 62
7
  6
CONTINUOUS
 10
6.9313125043
 20
8.2543651135
 40
0.0599837514
100
AcDbArc
 50
269.9912305322
 51
359.9653641837
  0
ARC
  5
428
100
AcDbEntity
  8
0
100
AcDbCircle
 62
7
  6
CONTINUOUS
 10
6.9313722612
 20
8.2525768898
 40
0.0599076782
100
AcDbArc
 50
270.0044612491
 51
359.9636223305
  0
ARC
  5
429
100
AcDbEntity
  8
0
100
AcDbCircle
 62
7
  6
CONTINUOUS
 10
6.2230960478
 20
8.6811935282
 40
1.723616516
100
AcDbArc
 50
47.2079688466
 51
49.1596937354
  0
ARC
  5
42A
100
AcDbEntity
  8
0
100
AcDbCircle
 62
7
  6
CONTINUOUS
 10
7.1863033228
 20
10.1643573055
 40
0.3211963178
100
AcDbArc
 50
90.0
 51
180.0
  0
ARC
  5
42B
100
AcDbEntity
  8
0
100
AcDbCircle
 62
7
  6
CONTINUOUS
 10
7.1863033228
 20
10.1643573055
 40
0.191216424
100
AcDbArc
 50
90.0
 51
180.0
  0
ARC
  5
42C
100
AcDbEntity
  8
0
100
AcDbCircle
 62
7
  6
CONTINUOUS
 10
7.1863033228
 20
10.1643573055
 40
0.1890290258
100
AcDbArc
 50
90.0
 51
180.0
  0
ARC
  5
42D
100
AcDbEntity
  8
0
100
AcDbCircle
 62
7
  6
CONTINUOUS
 10
7.1212912375
 20
8.7560148258
 40
0.1299873155
100
AcDbArc
 50
89.9946732018
 51
179.9953876799
  0
ARC
  5
42E
100
AcDbEntity
  8
0
100
AcDbCircle
 62
7
  6
CONTINUOUS
 10
7.1863033228
 20
10.1643573055
 40
0.1290380557
100
AcDbArc
 50
90.0
 51
180.0
  0
ARC
  5
42F
100
AcDbEntity
  8
0
100
AcDbCircle
 62
7
  6
CONTINUOUS
 10
6.8876134867
 20
9.5221661379
 40
0.1060140453
100
AcDbArc
 50
270.0090008392
 51
348.4453781011
  0
ARC
  5
430
100
AcDbEntity
  8
0
100
AcDbCircle
 62
7
  6
CONTINUOUS
 10
6.935082216
 20
9.767872799
 40
0.0600046828
100
AcDbArc
 50
326.406265082
 51
359.9960158634
  0
ARC
  5
431
100
AcDbEntity
  8
0
100
AcDbCircle
 62
7
  6
CONTINUOUS
 10
6.8469543818
 20
9.5736894663
 40
0.0600029229
100
AcDbArc
 50
270.0099487073
 51
344.760377356
  0
ARC
  5
432
100
AcDbEntity
  8
0
100
AcDbCircle
 62
7
  6
CONTINUOUS
 10
6.9372804144
 20
9.7672134576
 40
0.0599942859
100
AcDbArc
 50
326.3424726913
 51
359.994471244
  0
ARC
  5
433
100
AcDbEntity
  8
0
100
AcDbCircle
 62
7
  6
CONTINUOUS
 10
6.8876500386
 20
9.5221128528
 40
0.0599639992
100
AcDbArc
 50
269.9809878432
 51
348.4312988056
  0
CIRCLE
  5
434
100
AcDbEntity
  8
02___PRT_ALL_AXES
100
AcDbCircle
 62
7
  6
CONTINUOUS
 10
7.1863033228
 20
10.1643573055
 40
0.046
  0
ARC
  5
435
100
AcDbEntity
  8
0
100
AcDbCircle
 62
7
  6
CONTINUOUS
 10
7.4263026526
 20
8.5322313749
 40
0.3400006702
100
AcDbArc
 50
269.9959368857
 51
0.0041996337
  0
ARC
  5
436
100
AcDbEntity
  8
0
100
AcDbCircle
 62
7
  6
CONTINUOUS
 10
7.4263024094
 20
8.5322312525
 40
0.2800009133
100
AcDbArc
 50
270.0001868951
 51
0.0001621714
  0
CIRCLE
  5
437
100
AcDbEntity
  8
02___PRT_ALL_AXES
100
AcDbCircle
 62
7
  6
CONTINUOUS
 10
7.4263033228
 20
8.5078573055
 40
0.1715
  0
ARC
  5
438
100
AcDbEntity
  8
0
100
AcDbCircle
 62
7
  6
CONTINUOUS
 10
8.4766756859
 20
10.7580036868
 40
2.050441876
100
AcDbArc
 50
217.3627244175
 51
219.1970473418
  0
ARC
  5
439
100
AcDbEntity
  8
0
100
AcDbCircle
 62
7
  6
CONTINUOUS
 10
8.2236136453
 20
10.661461789
 40
1.7195767404
100
AcDbArc
 50
219.9227117162
 51
222.0338069915
  0
ARC
  5
43A
100
AcDbEntity
  8
0
100
AcDbCircle
 62
7
  6
CONTINUOUS
 10
7.4913033228
 20
9.3983573055
 40
0.7377506442
100
AcDbArc
 50
148.0804903731
 51
160.5791842028
  0
ARC
  5
43B
100
AcDbEntity
  8
0
100
AcDbCircle
 62
7
  6
CONTINUOUS
 10
7.4913033228
 20
9.3983573055
 40
0.663515706
100
AcDbArc
 50
103.51494038
 51
130.8550535745
  0
ARC
  5
43C
100
AcDbEntity
  8
0
100
AcDbCircle
 62
7
  6
CONTINUOUS
 10
7.4913033228
 20
9.3983573055
 40
0.6077704438
100
AcDbArc
 50
146.4022809455
 51
164.779587046
  0
ARC
  5
43D
100
AcDbEntity
  8
0
100
AcDbCircle
 62
7
  6
CONTINUOUS
 10
7.4913033228
 20
9.3983573055
 40
0.6035249938
100
AcDbArc
 50
103.5149404278
 51
130.8551461884
  0
ARC
  5
43E
100
AcDbEntity
  8
0
100
AcDbCircle
 62
7
  6
CONTINUOUS
 10
7.4913033228
 20
9.3983573055
 40
0.556241842
100
AcDbArc
 50
100.0728626265
 51
168.412482362
  0
ARC
  5
43F
100
AcDbEntity
  8
0
100
AcDbCircle
 62
7
  6
CONTINUOUS
 10
7.4913033228
 20
9.3983573055
 40
0.510248848
100
AcDbArc
 50
100.0527813585
 51
168.4027695126
  0
CIRCLE
  5
440
100
AcDbEntity
  8
02___PRT_ALL_AXES
100
AcDbCircle
 62
7
  6
CONTINUOUS
 10
7.4913033228
 20
9.3983573055
 40
0.1405
  0
CIRCLE
  5
441
100
AcDbEntity
  8
02___PRT_ALL_AXES
100
AcDbCircle
 62
7
  6
CONTINUOUS
 10
7.4913033228
 20
9.3983573055
 40
0.1085
  0
CIRCLE
  5
442
100
AcDbEntity
  8
02___PRT_ALL_AXES
100
AcDbCircle
 62
7
  6
CONTINUOUS
 10
7.4913033228
 20
9.3983573055
 40
0.1035
  0
ARC
  5
443
100
AcDbEntity
  8
0
100
AcDbCircle
 62
7
  6
CONTINUOUS
 10
7.3341603855
 20
10.4133991452
 40
0.0600129273
100
AcDbArc
 50
270.0209581929
 51
359.9790418071
  0
ARC
  5
444
100
AcDbEntity
  8
0
100
AcDbCircle
 62
7
  6
CONTINUOUS
 10
7.3319729992
 20
10.4155865314
 40
0.0600129154
100
AcDbArc
 50
270.0209468557
 51
359.9790531443
  0
ARC
  5
445
100
AcDbEntity
  8
0
100
AcDbCircle
 62
7
  6
CONTINUOUS
 10
7.3362199763
 20
10.0435158449
 40
0.0600108327
100
AcDbArc
 50
283.5303012288
 51
359.9846410496
  0
ARC
  5
446
100
AcDbEntity
  8
0
100
AcDbCircle
 62
7
  6
CONTINUOUS
 10
7.3835482458
 20
10.0050704449
 40
0.0599632487
100
AcDbArc
 50
280.0531646339
 51
0.0200243267
  0
ARC
  5
447
100
AcDbEntity
  8
0
100
AcDbCircle
 62
7
  6
CONTINUOUS
 10
7.9285165225
 20
8.9750281509
 40
0.0459582899
100
AcDbArc
 50
270.9720217892
 51
0.0078340017
  0
ARC
  5
448
100
AcDbEntity
  8
0
100
AcDbCircle
 62
7
  6
CONTINUOUS
 10
6.8249369783
 20
16.765944679
 40
3.7117564548
100
AcDbArc
 50
244.8510449416
 51
246.8802751279
  0
ARC
  5
449
100
AcDbEntity
  8
0
100
AcDbCircle
 62
7
  6
CONTINUOUS
 10
8.5095304261
 20
12.3567825363
 40
2.0922901184
100
AcDbArc
 50
140.8212984773
 51
142.6189297633
  0
ARC
  5
44A
100
AcDbEntity
  8
0
100
AcDbCircle
 62
7
  6
CONTINUOUS
 10
6.1528626498
 20
14.6761852104
 40
2.0097544303
100
AcDbArc
 50
308.2188517786
 51
309.9555978013
  0
ARC
  5
44B
100
AcDbEntity
  8
0
100
AcDbCircle
 62
7
  6
CONTINUOUS
 10
8.2497835963
 20
12.4565210587
 40
1.7542350681
100
AcDbArc
 50
137.9870496965
 51
140.056431596
  0
ARC
  5
44C
100
AcDbEntity
  8
0
100
AcDbCircle
 62
7
  6
CONTINUOUS
 10
6.244833654
 20
14.4352226722
 40
1.6910186326
100
AcDbArc
 50
310.821493191
 51
312.8108453466
  0
ARC
  5
44D
100
AcDbEntity
  8
0
100
AcDbCircle
 62
7
  6
CONTINUOUS
 10
7.4913033228
 20
13.7423573055
 40
0.7377506442
100
AcDbArc
 50
199.4208341053
 51
211.9195096269
  0
ARC
  5
44E
100
AcDbEntity
  8
0
100
AcDbCircle
 62
7
  6
CONTINUOUS
 10
7.4913033228
 20
13.7423573055
 40
0.6635156299
100
AcDbArc
 50
229.1440561133
 51
256.4850596199
  0
ARC
  5
44F
100
AcDbEntity
  8
0
100
AcDbCircle
 62
7
  6
CONTINUOUS
 10
7.4913033228
 20
13.7423573055
 40
0.6077704438
100
AcDbArc
 50
195.220412954
 51
213.5977190545
  0
ARC
  5
450
100
AcDbEntity
  8
0
100
AcDbCircle
 62
7
  6
CONTINUOUS
 10
7.4913033228
 20
13.7423573055
 40
0.6035249938
100
AcDbArc
 50
229.1448538116
 51
256.4850596384
  0
ARC
  5
451
100
AcDbEntity
  8
0
100
AcDbCircle
 62
7
  6
CONTINUOUS
 10
7.4913033228
 20
13.7423573055
 40
0.556241842
100
AcDbArc
 50
191.587517638
 51
259.9271373735
  0
ARC
  5
452
100
AcDbEntity
  8
0
100
AcDbCircle
 62
7
  6
CONTINUOUS
 10
7.4913033228
 20
13.7423573055
 40
0.510248848
100
AcDbArc
 50
191.594264421
 51
259.9470615746
  0
ARC
  5
453
100
AcDbEntity
  8
0
100
AcDbCircle
 62
7
  6
CONTINUOUS
 10
7.1863033228
 20
12.9763573055
 40
0.3211963178
100
AcDbArc
 50
180.0
 51
270.0
  0
ARC
  5
454
100
AcDbEntity
  8
0
100
AcDbCircle
 62
7
  6
CONTINUOUS
 10
7.1863033228
 20
12.9763573055
 40
0.191216424
100
AcDbArc
 50
180.0
 51
270.0
  0
ARC
  5
455
100
AcDbEntity
  8
0
100
AcDbCircle
 62
7
  6
CONTINUOUS
 10
7.1863033228
 20
12.9763573055
 40
0.1890290259
100
AcDbArc
 50
180.0
 51
270.0
  0
CIRCLE
  5
456
100
AcDbEntity
  8
02___PRT_ALL_AXES
100
AcDbCircle
 62
7
  6
CONTINUOUS
 10
7.4913033228
 20
13.7423573055
 40
0.1405
  0
ARC
  5
457
100
AcDbEntity
  8
0
100
AcDbCircle
 62
7
  6
CONTINUOUS
 10
7.1212912376
 20
14.3846997851
 40
0.1299873155
100
AcDbArc
 50
180.0046123118
 51
270.0053267827
  0
ARC
  5
458
100
AcDbEntity
  8
0
100
AcDbCircle
 62
7
  6
CONTINUOUS
 10
7.1863033228
 20
12.9763573055
 40
0.1290381237
100
AcDbArc
 50
180.0
 51
270.0
  0
CIRCLE
  5
459
100
AcDbEntity
  8
02___PRT_ALL_AXES
100
AcDbCircle
 62
7
  6
CONTINUOUS
 10
7.4913033228
 20
13.7423573055
 40
0.1085
  0
ARC
  5
45A
100
AcDbEntity
  8
0
100
AcDbCircle
 62
7
  6
CONTINUOUS
 10
6.8876175194
 20
13.6185560352
 40
0.1060059676
100
AcDbArc
 50
11.5653288132
 51
89.993178198
  0
CIRCLE
  5
45B
100
AcDbEntity
  8
02___PRT_ALL_AXES
100
AcDbCircle
 62
7
  6
CONTINUOUS
 10
7.4913033228
 20
13.7423573055
 40
0.1035
  0
ARC
  5
45C
100
AcDbEntity
  8
0
100
AcDbCircle
 62
7
  6
CONTINUOUS
 10
6.9308858515
 20
14.8862547975
 40
0.0604175279
100
AcDbArc
 50
0.07843693
 51
14.4523207007
  0
ARC
  5
45D
100
AcDbEntity
  8
0
100
AcDbCircle
 62
7
  6
CONTINUOUS
 10
7.3341604002
 20
12.7273154805
 40
0.0600129272
100
AcDbArc
 50
0.020944091
 51
89.979055909
  0
ARC
  5
45E
100
AcDbEntity
  8
0
100
AcDbCircle
 62
7
  6
CONTINUOUS
 10
7.3319730024
 20
12.7251280827
 40
0.0600129269
100
AcDbArc
 50
0.0209437383
 51
89.9790562617
  0
ARC
  5
45F
100
AcDbEntity
  8
0
100
AcDbCircle
 62
7
  6
CONTINUOUS
 10
6.8469490265
 20
13.5670282854
 40
0.060011501
100
AcDbArc
 50
15.2353844135
 51
89.984941278
  0
ARC
  5
460
100
AcDbEntity
  8
0
100
AcDbCircle
 62
7
  6
CONTINUOUS
 10
7.3362199778
 20
13.0971987641
 40
0.0600108327
100
AcDbArc
 50
0.0153608418
 51
76.4697005937
  0
ARC
  5
461
100
AcDbEntity
  8
0
100
AcDbCircle
 62
7
  6
CONTINUOUS
 10
6.9372696273
 20
13.3735027665
 40
0.0600046697
100
AcDbArc
 50
0.0039874682
 51
33.6505367473
  0
ARC
  5
462
100
AcDbEntity
  8
0
100
AcDbCircle
 62
7
  6
CONTINUOUS
 10
6.9350830112
 20
13.3728430623
 40
0.0599998225
100
AcDbArc
 50
0.0027904737
 51
33.5931602519
  0
ARC
  5
463
100
AcDbEntity
  8
0
100
AcDbCircle
 62
7
  6
CONTINUOUS
 10
6.931312501
 20
14.8863494979
 40
0.0599837527
100
AcDbArc
 50
14.4664362761
 51
90.0087663397
  0
ARC
  5
464
100
AcDbEntity
  8
0
100
AcDbCircle
 62
7
  6
CONTINUOUS
 10
6.8876501241
 20
13.6186017166
 40
0.0599639818
100
AcDbArc
 50
11.568756466
 51
90.0190938792
  0
ARC
  5
465
100
AcDbEntity
  8
0
100
AcDbCircle
 62
7
  6
CONTINUOUS
 10
7.3835483019
 20
13.1356440767
 40
0.0599632599
100
AcDbArc
 50
359.9800609652
 51
79.9469030893
  0
CIRCLE
  5
466
100
AcDbEntity
  8
02___PRT_ALL_AXES
100
AcDbCircle
 62
7
  6
CONTINUOUS
 10
7.1863033228
 20
12.9763573055
 40
0.046
  0
ARC
  5
467
100
AcDbEntity
  8
0
100
AcDbCircle
 62
7
  6
CONTINUOUS
 10
7.9285136366
 20
14.1656795689
 40
0.0459656281
100
AcDbArc
 50
359.974756029
 51
90.0252456856
  0
ARC
  5
468
100
AcDbEntity
  8
0
100
AcDbCircle
 62
7
  6
CONTINUOUS
 10
10.0036325089
 20
13.390125122
 40
2.8251669336
100
AcDbArc
 50
359.6629731757
 51
0.3371959329
  0
ARC
  5
469
100
AcDbEntity
  8
0
100
AcDbCircle
 62
7
  6
CONTINUOUS
 10
10.1549350183
 20
13.3894442077
 40
2.7991807098
100
AcDbArc
 50
359.6602528325
 51
0.3397471675
  0
ARC
  5
46A
100
AcDbEntity
  8
0
100
AcDbCircle
 62
7
  6
CONTINUOUS
 10
10.1551164642
 20
9.7512705154
 40
2.7989991941
100
AcDbArc
 50
359.6602682171
 51
0.3397669012
  0
ARC
  5
46B
100
AcDbEntity
  8
0
100
AcDbCircle
 62
7
  6
CONTINUOUS
 10
10.0317102682
 20
9.7505846827
 40
2.7970896866
100
AcDbArc
 50
359.6594916009
 51
0.3405083991
  0
ARC
  5
46C
100
AcDbEntity
  8
0
100
AcDbCircle
 62
7
  6
CONTINUOUS
 10
12.9517977039
 20
13.4970595834
 40
0.13
100
AcDbArc
 50
0.0
 51
89.0
  0
ARC
  5
46D
100
AcDbEntity
  8
0
100
AcDbCircle
 62
7
  6
CONTINUOUS
 10
12.9517977039
 20
9.6436550276
 40
0.13
100
AcDbArc
 50
271.0
 51
360.0
  0
ARC
  5
46E
100
AcDbEntity
  8
0
100
AcDbCircle
 62
7
  6
CONTINUOUS
 10
12.9517977039
 20
10.4855539299
 40
0.13
100
AcDbArc
 50
271.0
 51
360.0
  0
ARC
  5
46F
100
AcDbEntity
  8
0
100
AcDbCircle
 62
7
  6
CONTINUOUS
 10
12.9517977039
 20
12.655160681
 40
0.13
100
AcDbArc
 50
0.0
 51
89.0
  0
ARC
  5
470
100
AcDbEntity
  8
0
100
AcDbCircle
 62
7
  6
CONTINUOUS
 10
11.4617999899
 20
8.7735675902
 40
0.1299997043
100
AcDbArc
 50
0.0
 51
88.9999954376
  0
ARC
  5
471
100
AcDbEntity
  8
0
100
AcDbCircle
 62
7
  6
CONTINUOUS
 10
11.4618000199
 20
14.3671470213
 40
0.1299997004
100
AcDbArc
 50
271.0000046243
 51
360.0
  0
ARC
  5
472
100
AcDbEntity
  8
0
100
AcDbCircle
 62
7
  6
CONTINUOUS
 10
12.8308490361
 20
10.2933906992
 40
0.1200038446
100
AcDbArc
 50
91.0019594251
 51
179.9977223256
  0
ARC
  5
473
100
AcDbEntity
  8
0
100
AcDbCircle
 62
7
  6
CONTINUOUS
 10
12.8308496906
 20
12.8473232446
 40
0.1200038409
100
AcDbArc
 50
180.0019591379
 51
268.9977225838
  0
ARC
  5
474
100
AcDbEntity
  8
0
100
AcDbCircle
 62
7
  6
CONTINUOUS
 10
11.6518000777
 20
14.8834926181
 40
0.06
100
AcDbArc
 50
90.2
 51
179.9999988126
  0
ARC
  5
475
100
AcDbEntity
  8
0
100
AcDbCircle
 62
7
  6
CONTINUOUS
 10
12.8297977039
 20
12.8473191412
 40
0.06
100
AcDbArc
 50
180.0
 51
269.0
  0
ARC
  5
476
100
AcDbEntity
  8
0
100
AcDbCircle
 62
7
  6
CONTINUOUS
 10
12.8297977039
 20
10.2933954697
 40
0.06
100
AcDbArc
 50
91.0
 51
180.0
  0
ARC
  5
477
100
AcDbEntity
  8
0
100
AcDbCircle
 62
7
  6
CONTINUOUS
 10
11.6517999308
 20
8.2572219933
 40
0.06
100
AcDbArc
 50
180.0000010891
 51
269.8
  0
ARC
  5
478
100
AcDbEntity
  8
0
100
AcDbCircle
 62
7
  6
CONTINUOUS
 10
10.0027977039
 20
13.7245613796
 40
0.046
100
AcDbArc
 50
180.0
 51
269.0
  0
ARC
  5
479
100
AcDbEntity
  8
0
100
AcDbCircle
 62
7
  6
CONTINUOUS
 10
10.0027977039
 20
9.4161532314
 40
0.046
100
AcDbArc
 50
91.0
 51
180.0
  0
ARC
  5
47A
100
AcDbEntity
  8
0
100
AcDbCircle
 62
7
  6
CONTINUOUS
 10
10.0027977039
 20
14.1656532314
 40
0.046
100
AcDbArc
 50
91.0
 51
180.0
  0
ARC
  5
47B
100
AcDbEntity
  8
0
100
AcDbCircle
 62
7
  6
CONTINUOUS
 10
10.0027977039
 20
8.9750613796
 40
0.046
100
AcDbArc
 50
180.0
 51
269.0
  0
ARC
  5
47C
100
AcDbEntity
  8
0
100
AcDbCircle
 62
7
  6
CONTINUOUS
 10
18.8508650323
 20
14.6093098212
 40
0.3401211942
100
AcDbArc
 50
359.9964807557
 51
44.0301882331
  0
ARC
  5
47D
100
AcDbEntity
  8
0
100
AcDbCircle
 62
7
  6
CONTINUOUS
 10
16.2311116808
 20
8.5314046026
 40
0.3401209323
100
AcDbArc
 50
179.9964492368
 51
224.0301905914
  0
CIRCLE
  5
47E
100
AcDbEntity
  8
0
100
AcDbCircle
 62
7
  6
CONTINUOUS
 10
18.8509884634
 20
14.6328573055
 40
0.265
  0
CIRCLE
  5
47F
100
AcDbEntity
  8
0
100
AcDbCircle
 62
7
  6
CONTINUOUS
 10
16.2309884634
 20
8.5078573055
 40
0.265
  0
CIRCLE
  5
480
100
AcDbEntity
  8
02___PRT_ALL_AXES
100
AcDbCircle
 62
7
  6
CONTINUOUS
 10
17.5409884634
 20
13.8203573055
 40
0.265
  0
CIRCLE
  5
481
100
AcDbEntity
  8
02___PRT_ALL_AXES
100
AcDbCircle
 62
7
  6
CONTINUOUS
 10
18.9159884634
 20
9.3983573055
 40
0.265
  0
CIRCLE
  5
482
100
AcDbEntity
  8
0
100
AcDbCircle
 62
7
  6
CONTINUOUS
 10
18.8509884634
 20
14.6328573055
 40
0.1715
  0
CIRCLE
  5
483
100
AcDbEntity
  8
0
100
AcDbCircle
 62
7
  6
CONTINUOUS
 10
16.2309884634
 20
8.5078573055
 40
0.1715
  0
ARC
  5
484
100
AcDbEntity
  8
0
100
AcDbCircle
 62
7
  6
CONTINUOUS
 10
19.3532048652
 20
8.9750411318
 40
0.0459656282
100
AcDbArc
 50
314.9946285114
 51
0.0252380533
  0
ARC
  5
485
100
AcDbEntity
  8
0
100
AcDbCircle
 62
7
  6
CONTINUOUS
 10
15.728772066
 20
14.1656734852
 40
0.0459656281
100
AcDbArc
 50
134.9946377472
 51
180.0252456756
  0
ARC
  5
486
100
AcDbEntity
  8
0
100
AcDbCircle
 62
7
  6
CONTINUOUS
 10
19.3532055793
 20
14.1656735191
 40
0.0459649809
100
AcDbArc
 50
359.9921734289
 51
45.0059657889
  0
ARC
  5
487
100
AcDbEntity
  8
0
100
AcDbCircle
 62
7
  6
CONTINUOUS
 10
15.728771343
 20
8.9750410859
 40
0.0459649752
100
AcDbArc
 50
179.9921660349
 51
225.0059644901
  0
ARC
  5
488
100
AcDbEntity
  8
0
100
AcDbCircle
 62
7
  6
CONTINUOUS
 10
6.1163034201
 20
3.3177295816
 40
1.0049989675
100
AcDbArc
 50
0.0000058538
 51
179.9999941462
  0
ARC
  5
489
100
AcDbEntity
  8
0
100
AcDbCircle
 62
7
  6
CONTINUOUS
 10
6.1163033228
 20
3.3199984971
 40
0.875
100
AcDbArc
 50
359.9997763519
 51
180.0002224438
  0
ARC
  5
48A
100
AcDbEntity
  8
0
100
AcDbCircle
 62
7
  6
CONTINUOUS
 10
6.1163033423
 20
3.3202067176
 40
0.815
100
AcDbArc
 50
0.0000856703
 51
179.9999143297
  0
CIRCLE
  5
48B
100
AcDbEntity
  8
02___PRT_ALL_AXES
100
AcDbCircle
 62
7
  6
CONTINUOUS
 10
6.1163033228
 20
3.3199984971
 40
0.4375
  0
CIRCLE
  5
48C
100
AcDbEntity
  8
02___PRT_ALL_AXES
100
AcDbCircle
 62
7
  6
CONTINUOUS
 10
6.1163033228
 20
3.3199984971
 40
0.3905
  0
ARC
  5
48D
100
AcDbEntity
  8
0
100
AcDbCircle
 62
7
  6
CONTINUOUS
 10
4.5618884827
 20
2.7049984971
 40
0.25
100
AcDbArc
 50
181.0
 51
270.0
  0
ARC
  5
48E
100
AcDbEntity
  8
0
100
AcDbCircle
 62
7
  6
CONTINUOUS
 10
7.6707181629
 20
2.7049984971
 40
0.25
100
AcDbArc
 50
270.0
 51
359.0
  0
ARC
  5
48F
100
AcDbEntity
  8
0
100
AcDbCircle
 62
7
  6
CONTINUOUS
 10
7.0513101073
 20
2.8252148558
 40
0.1200066333
100
AcDbArc
 50
180.0033036922
 51
269.9967608007
  0
ARC
  5
490
100
AcDbEntity
  8
0
100
AcDbCircle
 62
7
  6
CONTINUOUS
 10
7.7063033228
 20
2.7049984971
 40
0.06
100
AcDbArc
 50
0.0
 51
90.0
  0
ARC
  5
491
100
AcDbEntity
  8
0
100
AcDbCircle
 62
7
  6
CONTINUOUS
 10
7.0513033228
 20
2.8249984971
 40
0.06
100
AcDbArc
 50
180.0101641637
 51
269.9915391389
  0
ARC
  5
492
100
AcDbEntity
  8
0
100
AcDbCircle
 62
7
  6
CONTINUOUS
 10
7.9284933827
 20
5.7839984971
 40
0.046
100
AcDbArc
 50
359.0
 51
90.0
  0
ARC
  5
493
100
AcDbEntity
  8
0
100
AcDbCircle
 62
7
  6
CONTINUOUS
 10
4.3041132629
 20
5.7839984971
 40
0.046
100
AcDbArc
 50
90.0
 51
181.0
  0
LINE
  5
494
100
AcDbEntity
  8
0
100
AcDbLine
 62
7
  6
CONTINUOUS
 10
5.2225872841
 20
14.9484581138
 11
5.1813033228
 21
14.9484839062
  0
LINE
  5
495
100
AcDbEntity
  8
0
100
AcDbLine
 62
7
  6
CONTINUOUS
 10
7.009625447
 20
8.1922569688
 11
7.0513033228
 21
8.1922307047
  0
SPLINE
  5
496
100
AcDbEntity
  8
0
100
AcDbSpline
 62
7
  6
CONTINUOUS
 70
0
 71
3
 72
11
 73
7
 74
0
 42
0.0000001
 43
0.0000001
 44
0.0000000001
 40
0.0
 40
0.0
 40
0.0
 40
0.0
 40
0.2274111706
 40
0.4674605853
 40
0.7237980286
 40
1.0
 40
1.0
 40
1.0
 40
1.0
 10
4.3268140525
 20
14.2534117906
 30
0.0
 10
4.3288227844
 20
14.2554240448
 30
0.0
 10
4.3333116236
 20
14.2592186829
 30
0.0
 10
4.3411802274
 20
14.2637824552
 30
0.0
 10
4.35033961
 20
14.2670324246
 30
0.0
 10
4.3570036917
 20
14.2679069915
 30
0.0
 10
4.3604560061
 20
14.2679889685
 30
0.0
  0
SPLINE
  5
497
100
AcDbEntity
  8
0
100
AcDbSpline
 62
7
  6
CONTINUOUS
 70
0
 71
3
 72
11
 73
7
 74
0
 42
0.0000001
 43
0.0000001
 44
0.0000000001
 40
0.0
 40
0.0
 40
0.0
 40
0.0
 40
0.2274111667
 40
0.467460578
 40
0.7237980221
 40
1.0
 40
1.0
 40
1.0
 40
1.0
 10
4.3268140446
 20
8.8873028283
 30
0.0
 10
4.3288227766
 20
8.885290573
 30
0.0
 10
4.3333116163
 20
8.8814959329
 30
0.0
 10
4.3411802217
 20
8.8769321582
 30
0.0
 10
4.3503396068
 20
8.8736821869
 30
0.0
 10
4.3570036906
 20
8.8728076194
 30
0.0
 10
4.3604560061
 20
8.8727256424
 30
0.0
  0
SPLINE
  5
498
100
AcDbEntity
  8
0
100
AcDbSpline
 62
7
  6
CONTINUOUS
 70
0
 71
3
 72
11
 73
7
 74
0
 42
0.0000001
 43
0.0000001
 44
0.0000000001
 40
0.0
 40
0.0
 40
0.0
 40
0.0
 40
0.2274111706
 40
0.4674605853
 40
0.7237980286
 40
1.0
 40
1.0
 40
1.0
 40
1.0
 10
7.9057925931
 20
8.8873028204
 30
0.0
 10
7.9037838611
 20
8.8852905661
 30
0.0
 10
7.8992950219
 20
8.881495928
 30
0.0
 10
7.8914264182
 20
8.8769321557
 30
0.0
 10
7.8822670356
 20
8.8736821863
 30
0.0
 10
7.8756029538
 20
8.8728076194
 30
0.0
 10
7.8721506395
 20
8.8727256424
 30
0.0
  0
SPLINE
  5
499
100
AcDbEntity
  8
0
100
AcDbSpline
 62
7
  6
CONTINUOUS
 70
0
 71
3
 72
11
 73
7
 74
0
 42
0.0000001
 43
0.0000001
 44
0.0000000001
 40
0.0
 40
0.0
 40
0.0
 40
0.0
 40
0.2274111667
 40
0.467460578
 40
0.7237980221
 40
1.0
 40
1.0
 40
1.0
 40
1.0
 10
7.905792601
 20
14.2534117826
 30
0.0
 10
7.9037838689
 20
14.2554240379
 30
0.0
 10
7.8992950292
 20
14.259218678
 30
0.0
 10
7.8914264239
 20
14.2637824528
 30
0.0
 10
7.8822670388
 20
14.267032424
 30
0.0
 10
7.8756029549
 20
14.2679069915
 30
0.0
 10
7.8721506395
 20
14.2679889685
 30
0.0
  0
SPLINE
  5
49A
100
AcDbEntity
  8
0
100
AcDbSpline
 62
7
  6
CONTINUOUS
 70
0
 71
3
 72
15
 73
11
 74
0
 42
0.0000001
 43
0.0000001
 44
0.0000000001
 40
0.0
 40
0.0
 40
0.0
 40
0.0
 40
0.1249173258
 40
0.2500194689
 40
0.3750033873
 40
0.4999972403
 40
0.6249883994
 40
0.7499727554
 40
0.8750790524
 40
1.0
 40
1.0
 40
1.0
 40
1.0
 10
7.4022322765
 20
9.9007972931
 30
0.0
 10
7.4082786729
 20
9.9018697213
 30
0.0
 10
7.4202153647
 20
9.9050963557
 30
0.0
 10
7.4369889251
 20
9.9129562723
 30
0.0
 10
7.4521473727
 20
9.9236204636
 30
0.0
 10
7.4652196849
 20
9.9367472551
 30
0.0
 10
7.4758320015
 20
9.9519321815
 30
0.0
 10
7.4836502485
 20
9.9687363632
 30
0.0
 10
7.4884278176
 20
9.9866333302
 30
0.0
 10
7.4895085776
 20
9.9989504576
 30
0.0
 10
7.4895073969
 20
10.0050914019
 30
0.0
  0
SPLINE
  5
49B
100
AcDbEntity
  8
0
100
AcDbSpline
 62
7
  6
CONTINUOUS
 70
0
 71
3
 72
15
 73
11
 74
0
 42
0.0000001
 43
0.0000001
 44
0.0000000001
 40
0.0
 40
0.0
 40
0.0
 40
0.0
 40
0.1249189373
 40
0.2500218198
 40
0.3750058447
 40
0.4999976932
 40
0.6249911022
 40
0.7499752477
 40
0.8750806967
 40
1.0
 40
1.0
 40
1.0
 40
1.0
 10
7.4895073969
 20
13.135623209
 30
0.0
 10
7.4895085885
 20
13.1417641126
 30
0.0
 10
7.4884280017
 20
13.154081113
 30
0.0
 10
7.4836502376
 20
13.1719779172
 30
0.0
 10
7.4758321293
 20
13.1887821738
 30
0.0
 10
7.465219749
 20
13.2039672771
 30
0.0
 10
7.4521473362
 20
13.2170942386
 30
0.0
 10
7.436988615
 20
13.2277586466
 30
0.0
 10
7.4202144883
 20
13.2356184011
 30
0.0
 10
7.4082774668
 20
13.2388452102
 30
0.0
 10
7.402230917
 20
13.2399176625
 30
0.0
  0
LINE
  5
49C
100
AcDbEntity
  8
0
100
AcDbLine
 62
7
  6
CONTINUOUS
 10
5.2413033179
 20
14.8880655576
 11
5.2332577998
 21
14.8882749384
  0
LINE
  5
49D
100
AcDbEntity
  8
0
100
AcDbLine
 62
7
  6
CONTINUOUS
 10
5.2332577998
 20
14.8882749384
 11
5.1813242509
 21
14.8884842527
  0
SPLINE
  5
49E
100
AcDbEntity
  8
0
100
AcDbSpline
 62
7
  6
CONTINUOUS
 70
0
 71
3
 72
13
 73
9
 74
0
 42
0.0000001
 43
0.0000001
 44
0.0000000001
 40
0.0
 40
0.0
 40
0.0
 40
0.0
 40
0.2309966891
 40
0.4713752317
 40
0.5970833725
 40
0.7272694926
 40
0.8623358349
 40
1.0
 40
1.0
 40
1.0
 40
1.0
 10
5.2403309619
 20
14.3776451198
 30
0.0
 10
5.2392514575
 20
14.3689727178
 30
0.0
 10
5.2352101206
 20
14.3514532829
 30
0.0
 10
5.2255590339
 20
14.3308311476
 30
0.0
 10
5.2149709482
 20
14.3152873451
 30
0.0
 10
5.2053018121
 20
14.3040482502
 30
0.0
 10
5.1940560396
 20
14.2937103556
 30
0.0
 10
5.185691876
 20
14.287620439
 30
0.0
 10
5.1813033228
 20
14.2848156839
 30
0.0
  0
SPLINE
  5
49F
100
AcDbEntity
  8
0
100
AcDbSpline
 62
7
  6
CONTINUOUS
 70
0
 71
3
 72
28
 73
24
 74
0
 42
0.0000001
 43
0.0000001
 44
0.0000000001
 40
0.0
 40
0.0
 40
0.0
 40
0.0
 40
0.1928257888
 40
0.3785438239
 40
0.466423616
 40
0.5499130196
 40
0.6282451934
 40
0.7006740749
 40
0.7664855635
 40
0.8250893455
 40
0.875927131
 40
0.8982764054
 40
0.9185161782
 40
0.9366016448
 40
0.9524881927
 40
0.9661317378
 40
0.9774990073
 40
0.9865728185
 40
0.9933400479
 40
0.995857064
 40
0.9977979811
 40
0.9991699389
 40
1.0
 40
1.0
 40
1.0
 40
1.0
 10
4.8363753945
 20
12.8473191412
 30
0.0
 10
4.8363744548
 20
12.8396030537
 30
0.0
 10
4.8364004774
 20
12.8244552879
 30
0.0
 10
4.8364966229
 20
12.8057911559
 30
0.0
 10
4.8366121509
 20
12.7915024651
 30
0.0
 10
4.8367145974
 20
12.7815109693
 30
0.0
 10
4.8368333362
 20
12.7721379801
 30
0.0
 10
4.8369670146
 20
12.7634726645
 30
0.0
 10
4.8371144317
 20
12.7555971401
 30
0.0
 10
4.8372739075
 20
12.7485860337
 30
0.0
 10
4.8374209425
 20
12.7433143224
 30
0.0
 10
4.8375460517
 20
12.7395778534
 30
0.0
 10
4.8376378302
 20
12.7371516363
 30
0.0
 10
4.8377313354
 20
12.7349843122
 30
0.0
 10
4.837826225
 20
12.733081272
 30
0.0
 10
4.8379222183
 20
12.7314475456
 30
0.0
 10
4.8380186948
 20
12.7300869148
 30
0.0
 10
4.8381155908
 20
12.7290025793
 30
0.0
 10
4.8382011191
 20
12.7282723971
 30
0.0
 10
4.8382743504
 20
12.7278295202
 30
0.0
 10
4.8383230796
 20
12.7276005008
 30
0.0
 10
4.8383709952
 20
12.7274431364
 30
0.0
 10
4.8384096936
 20
12.727360636
 30
0.0
 10
4.8384334464
 20
12.7273374178
 30
0.0
  0
SPLINE
  5
4A0
100
AcDbEntity
  8
0
100
AcDbSpline
 62
7
  6
CONTINUOUS
 70
0
 71
3
 72
28
 73
24
 74
0
 42
0.0000001
 43
0.0000001
 44
0.0000000001
 40
0.0
 40
0.0
 40
0.0
 40
0.0
 40
0.000830522
 40
0.002202974
 40
0.0041442854
 40
0.0066615884
 40
0.0134291692
 40
0.0225032709
 40
0.0338710882
 40
0.047515628
 40
0.0634032515
 40
0.0814896947
 40
0.1017301936
 40
0.1240797906
 40
0.1749162353
 40
0.2335162852
 40
0.2993241271
 40
0.3717506046
 40
0.4500810234
 40
0.5335692759
 40
0.6214485808
 40
0.8071706137
 40
1.0
 40
1.0
 40
1.0
 40
1.0
 10
4.8384334464
 20
10.4133771931
 30
0.0
 10
4.8384097272
 20
10.4133539143
 30
0.0
 10
4.8383710885
 20
10.4132713642
 30
0.0
 10
4.8383232054
 20
10.413113925
 30
0.0
 10
4.8382745004
 20
10.4128848576
 30
0.0
 10
4.8382012795
 20
10.4124419353
 30
0.0
 10
4.8381157252
 20
10.4117117215
 30
0.0
 10
4.8380187755
 20
10.4106273426
 30
0.0
 10
4.8379222412
 20
10.4092666433
 30
0.0
 10
4.8378262129
 20
10.4076328148
 30
0.0
 10
4.8377313103
 20
10.4057296542
 30
0.0
 10
4.8376378077
 20
10.4035622198
 30
0.0
 10
4.8375460415
 20
10.4011359225
 30
0.0
 10
4.8374209572
 20
10.3973994664
 30
0.0
 10
4.837273938
 20
10.3921279478
 30
0.0
 10
4.8371144508
 20
10.3851171945
 30
0.0
 10
4.8369670155
 20
10.3772420663
 30
0.0
 10
4.8368333175
 20
10.3685770681
 30
0.0
 10
4.8367145686
 20
10.3592042967
 30
0.0
 10
4.8366121416
 20
10.3492129419
 30
0.0
 10
4.8364966742
 20
10.334924164
 30
0.0
 10
4.8364003992
 20
10.3162597589
 30
0.0
 10
4.8363742365
 20
10.3011116969
 30
0.0
 10
4.8363753945
 20
10.2933954697
 30
0.0
  0
SPLINE
  5
4A1
100
AcDbEntity
  8
0
100
AcDbSpline
 62
7
  6
CONTINUOUS
 70
0
 71
3
 72
28
 73
24
 74
0
 42
0.0000001
 43
0.0000001
 44
0.0000000001
 40
0.0
 40
0.0
 40
0.0
 40
0.0
 40
0.1928257888
 40
0.3785438239
 40
0.466423616
 40
0.5499130196
 40
0.6282451934
 40
0.7006740749
 40
0.7664855635
 40
0.8250893455
 40
0.875927131
 40
0.8982764054
 40
0.9185161782
 40
0.9366016448
 40
0.9524881927
 40
0.9661317378
 40
0.9774990073
 40
0.9865728185
 40
0.9933400479
 40
0.995857064
 40
0.9977979811
 40
0.9991699389
 40
1.0
 40
1.0
 40
1.0
 40
1.0
 10
7.3962312511
 20
10.2933954697
 30
0.0
 10
7.3962321907
 20
10.3011115572
 30
0.0
 10
7.3962061682
 20
10.316259323
 30
0.0
 10
7.3961100227
 20
10.3349234551
 30
0.0
 10
7.3959944947
 20
10.3492121458
 30
0.0
 10
7.3958920482
 20
10.3592036416
 30
0.0
 10
7.3957733094
 20
10.3685766308
 30
0.0
 10
7.395639631
 20
10.3772419465
 30
0.0
 10
7.3954922138
 20
10.3851174708
 30
0.0
 10
7.3953327381
 20
10.3921285773
 30
0.0
 10
7.395185703
 20
10.3974002885
 30
0.0
 10
7.3950605939
 20
10.4011367576
 30
0.0
 10
7.3949688154
 20
10.4035629746
 30
0.0
 10
7.3948753102
 20
10.4057302987
 30
0.0
 10
7.3947804205
 20
10.4076333389
 30
0.0
 10
7.3946844272
 20
10.4092670653
 30
0.0
 10
7.3945879508
 20
10.4106276962
 30
0.0
 10
7.3944910547
 20
10.4117120317
 30
0.0
 10
7.3944055265
 20
10.4124422139
 30
0.0
 10
7.3943322952
 20
10.4128850907
 30
0.0
 10
7.394283566
 20
10.4131141101
 30
0.0
 10
7.3942356504
 20
10.4132714745
 30
0.0
 10
7.394196952
 20
10.4133539749
 30
0.0
 10
7.3941731992
 20
10.4133771931
 30
0.0
  0
SPLINE
  5
4A2
100
AcDbEntity
  8
0
100
AcDbSpline
 62
7
  6
CONTINUOUS
 70
0
 71
3
 72
28
 73
24
 74
0
 42
0.0000001
 43
0.0000001
 44
0.0000000001
 40
0.0
 40
0.0
 40
0.0
 40
0.0
 40
0.000830522
 40
0.002202974
 40
0.0041442854
 40
0.0066615884
 40
0.0134291692
 40
0.0225032709
 40
0.0338710882
 40
0.047515628
 40
0.0634032515
 40
0.0814896947
 40
0.1017301936
 40
0.1240797906
 40
0.1749162353
 40
0.2335162852
 40
0.2993241271
 40
0.3717506046
 40
0.4500810234
 40
0.5335692759
 40
0.6214485808
 40
0.8071706137
 40
1.0
 40
1.0
 40
1.0
 40
1.0
 10
7.3941731992
 20
12.7273374178
 30
0.0
 10
7.3941969184
 20
12.7273606966
 30
0.0
 10
7.394235557
 20
12.7274432467
 30
0.0
 10
7.3942834402
 20
12.7276006859
 30
0.0
 10
7.3943321452
 20
12.7278297533
 30
0.0
 10
7.3944053661
 20
12.7282726756
 30
0.0
 10
7.3944909204
 20
12.7290028894
 30
0.0
 10
7.39458787
 20
12.7300872683
 30
0.0
 10
7.3946844044
 20
12.7314479676
 30
0.0
 10
7.3947804327
 20
12.7330817962
 30
0.0
 10
7.3948753353
 20
12.7349849568
 30
0.0
 10
7.3949688379
 20
12.7371523911
 30
0.0
 10
7.3950606041
 20
12.7395786884
 30
0.0
 10
7.3951856884
 20
12.7433151445
 30
0.0
 10
7.3953327075
 20
12.7485866631
 30
0.0
 10
7.3954921947
 20
12.7555974164
 30
0.0
 10
7.3956396301
 20
12.7634725446
 30
0.0
 10
7.3957733281
 20
12.7721375429
 30
0.0
 10
7.395892077
 20
12.7815103143
 30
0.0
 10
7.395994504
 20
12.7915016691
 30
0.0
 10
7.3961099714
 20
12.8057904469
 30
0.0
 10
7.3962062463
 20
12.824454852
 30
0.0
 10
7.3962324091
 20
12.839602914
 30
0.0
 10
7.3962312511
 20
12.8473191412
 30
0.0
  0
SPLINE
  5
4A3
100
AcDbEntity
  8
0
100
AcDbSpline
 62
7
  6
CONTINUOUS
 70
0
 71
3
 72
35
 73
31
 74
0
 42
0.0000001
 43
0.0000001
 44
0.0000000001
 40
0.0
 40
0.0
 40
0.0
 40
0.0
 40
0.000245844
 40
0.0007038542
 40
0.0014025901
 40
0.0023458188
 40
0.004959629
 40
0.0085234782
 40
0.013008551
 40
0.0183839161
 40
0.0246164242
 40
0.0316722314
 40
0.0395173256
 40
0.0481176033
 40
0.0674442375
 40
0.0893546447
 40
0.1135417437
 40
0.1397108687
 40
0.1676403578
 40
0.1971358733
 40
0.2280083723
 40
0.2933372264
 40
0.36268456
 40
0.4353498502
 40
0.5107900952
 40
0.5885679222
 40
0.6683011044
 40
0.7496690335
 40
0.8323759288
 40
1.0
 40
1.0
 40
1.0
 40
1.0
 10
5.2453871626
 20
13.4067529139
 30
0.0
 10
5.2453750314
 20
13.4067585727
 30
0.0
 10
5.2453332268
 20
13.4067451377
 30
0.0
 10
5.2452737536
 20
13.4067014952
 30
0.0
 10
5.2451869816
 20
13.4066248014
 30
0.0
 10
5.2450255012
 20
13.4064595068
 30
0.0
 10
5.2447697327
 20
13.4061671442
 30
0.0
 10
5.244401687
 20
13.4057184265
 30
0.0
 10
5.2439487578
 20
13.4051445475
 30
0.0
 10
5.2434140284
 20
13.4044503966
 30
0.0
 10
5.2428000465
 20
13.4036405854
 30
0.0
 10
5.2421095132
 20
13.4027201004
 30
0.0
 10
5.2413450616
 20
13.4016939024
 30
0.0
 10
5.2401848293
 20
13.4001293906
 30
0.0
 10
5.2385724401
 20
13.3979467334
 30
0.0
 10
5.2364542481
 20
13.3950825671
 30
0.0
 10
5.2341066549
 20
13.3919246716
 30
0.0
 10
5.2315495157
 20
13.3885142099
 30
0.0
 10
5.2288007543
 20
13.3848862224
 30
0.0
 10
5.225875151
 20
13.3810710041
 30
0.0
 10
5.221674331
 20
13.3756676478
 30
0.0
 10
5.2160644245
 20
13.368611485
 30
0.0
 10
5.2088968191
 20
13.3598882749
 30
0.0
 10
5.2012217524
 20
13.3508716101
 30
0.0
 10
5.1930767755
 20
13.3416547797
 30
0.0
 10
5.1844956336
 20
13.3323128153
 30
0.0
 10
5.1755057854
 20
13.3229115059
 30
0.0
 10
5.1661359905
 20
13.3135057648
 30
0.0
 10
5.1531225219
 20
13.3009806692
 30
0.0
 10
5.1430027403
 20
13.2918412014
 30
0.0
 10
5.1360985311
 20
13.2858716412
 30
0.0
  0
SPLINE
  5
4A4
100
AcDbEntity
  8
0
100
AcDbSpline
 62
7
  6
CONTINUOUS
 70
0
 71
3
 72
35
 73
31
 74
0
 42
0.0000001
 43
0.0000001
 44
0.0000000001
 40
0.0
 40
0.0
 40
0.0
 40
0.0
 40
0.1676237624
 40
0.2503297275
 40
0.3316987693
 40
0.4114335417
 40
0.4892111852
 40
0.5646504655
 40
0.6373139433
 40
0.7066616334
 40
0.7719881588
 40
0.8028581387
 40
0.8323486145
 40
0.8602740331
 40
0.886444894
 40
0.9106401924
 40
0.9325689366
 40
0.9519303122
 40
0.9605531998
 40
0.9684185586
 40
0.9754869365
 40
0.9817189891
 40
0.9870755773
 40
0.9915226237
 40
0.9950434472
 40
0.9976266345
 40
0.9985644337
 40
0.9992667705
 40
0.9997380681
 40
1.0
 40
1.0
 40
1.0
 40
1.0
 10
5.1360985311
 20
9.8548429697
 30
0.0
 10
5.1430018904
 20
9.848872677
 30
0.0
 10
5.1531219519
 20
9.8397340057
 30
0.0
 10
5.1661356416
 20
9.82720955
 30
0.0
 10
5.1755052931
 20
9.8178038298
 30
0.0
 10
5.1844949547
 20
9.8084024432
 30
0.0
 10
5.1930760446
 20
9.7990606767
 30
0.0
 10
5.2012208061
 20
9.7898441352
 30
0.0
 10
5.2088957351
 20
9.7808277761
 30
0.0
 10
5.216063068
 20
9.7721048446
 30
0.0
 10
5.2216728419
 20
9.7650490741
 30
0.0
 10
5.2258732492
 20
9.7596462182
 30
0.0
 10
5.2287984418
 20
9.7558315806
 30
0.0
 10
5.2315469698
 20
9.7522040121
 30
0.0
 10
5.2341043125
 20
9.7487933896
 30
0.0
 10
5.2364529132
 20
9.745634404
 30
0.0
 10
5.2385730631
 20
9.7427676067
 30
0.0
 10
5.2401875428
 20
9.7405814249
 30
0.0
 10
5.2413497263
 20
9.7390131379
 30
0.0
 10
5.2421156059
 20
9.737984265
 30
0.0
 10
5.2428069752
 20
9.7370622253
 30
0.0
 10
5.2434207995
 20
9.7362527717
 30
0.0
 10
5.2439541299
 20
9.7355614857
 30
0.0
 10
5.244404763
 20
9.7349927527
 30
0.0
 10
5.2447703658
 20
9.7345498428
 30
0.0
 10
5.2450239942
 20
9.734261492
 30
0.0
 10
5.2451848112
 20
9.734097813
 30
0.0
 10
5.2452711669
 20
9.7340202073
 30
0.0
 10
5.2453326969
 20
9.7339752451
 30
0.0
 10
5.2453732784
 20
9.7339584365
 30
0.0
 10
5.2453871626
 20
9.733961697
 30
0.0
  0
SPLINE
  5
4A5
100
AcDbEntity
  8
0
100
AcDbSpline
 62
7
  6
CONTINUOUS
 70
0
 71
3
 72
35
 73
31
 74
0
 42
0.0000001
 43
0.0000001
 44
0.0000000001
 40
0.0
 40
0.0
 40
0.0
 40
0.0
 40
0.000245844
 40
0.0007038542
 40
0.0014025901
 40
0.0023458188
 40
0.004959629
 40
0.0085234782
 40
0.013008551
 40
0.0183839161
 40
0.0246164242
 40
0.0316722314
 40
0.0395173256
 40
0.0481176033
 40
0.0674442375
 40
0.0893546447
 40
0.1135417437
 40
0.1397108687
 40
0.1676403578
 40
0.1971358733
 40
0.2280083723
 40
0.2933372264
 40
0.36268456
 40
0.4353498502
 40
0.5107900952
 40
0.5885679222
 40
0.6683011044
 40
0.7496690335
 40
0.8323759288
 40
1.0
 40
1.0
 40
1.0
 40
1.0
 10
6.987219483
 20
9.733961697
 30
0.0
 10
6.9872316142
 20
9.7339560382
 30
0.0
 10
6.9872734188
 20
9.7339694732
 30
0.0
 10
6.987332892
 20
9.7340131157
 30
0.0
 10
6.987419664
 20
9.7340898095
 30
0.0
 10
6.9875811443
 20
9.7342551041
 30
0.0
 10
6.9878369129
 20
9.7345474667
 30
0.0
 10
6.9882049585
 20
9.7349961844
 30
0.0
 10
6.9886578878
 20
9.7355700634
 30
0.0
 10
6.9891926172
 20
9.7362642143
 30
0.0
 10
6.9898065991
 20
9.7370740255
 30
0.0
 10
6.9904971323
 20
9.7379945105
 30
0.0
 10
6.991261584
 20
9.7390207085
 30
0.0
 10
6.9924218162
 20
9.7405852204
 30
0.0
 10
6.9940342054
 20
9.7427678775
 30
0.0
 10
6.9961523975
 20
9.7456320438
 30
0.0
 10
6.9984999906
 20
9.7487899393
 30
0.0
 10
7.0010571299
 20
9.752200401
 30
0.0
 10
7.0038058912
 20
9.7558283885
 30
0.0
 10
7.0067314945
 20
9.7596436068
 30
0.0
 10
7.0109323145
 20
9.7650469631
 30
0.0
 10
7.0165422211
 20
9.772103126
 30
0.0
 10
7.0237098265
 20
9.780826336
 30
0.0
 10
7.0313848931
 20
9.7898430008
 30
0.0
 10
7.03952987
 20
9.7990598312
 30
0.0
 10
7.048111012
 20
9.8084017956
 30
0.0
 10
7.0571008602
 20
9.817803105
 30
0.0
 10
7.066470655
 20
9.8272088461
 30
0.0
 10
7.0794841237
 20
9.8397339418
 30
0.0
 10
7.0896039052
 20
9.8488734096
 30
0.0
 10
7.0965081145
 20
9.8548429697
 30
0.0
  0
SPLINE
  5
4A6
100
AcDbEntity
  8
0
100
AcDbSpline
 62
7
  6
CONTINUOUS
 70
0
 71
3
 72
35
 73
31
 74
0
 42
0.0000001
 43
0.0000001
 44
0.0000000001
 40
0.0
 40
0.0
 40
0.0
 40
0.0
 40
0.1676237624
 40
0.2503297275
 40
0.3316987693
 40
0.4114335417
 40
0.4892111852
 40
0.5646504655
 40
0.6373139433
 40
0.7066616334
 40
0.7719881588
 40
0.8028581387
 40
0.8323486145
 40
0.8602740331
 40
0.886444894
 40
0.9106401924
 40
0.9325689366
 40
0.9519303122
 40
0.9605531998
 40
0.9684185586
 40
0.9754869365
 40
0.9817189891
 40
0.9870755773
 40
0.9915226237
 40
0.9950434472
 40
0.9976266345
 40
0.9985644337
 40
0.9992667705
 40
0.9997380681
 40
1.0
 40
1.0
 40
1.0
 40
1.0
 10
7.0965081145
 20
13.2858716412
 30
0.0
 10
7.0896047552
 20
13.291841934
 30
0.0
 10
7.0794846937
 20
13.3009806052
 30
0.0
 10
7.066471004
 20
13.3135050609
 30
0.0
 10
7.0571013524
 20
13.3229107811
 30
0.0
 10
7.0481116909
 20
13.3323121677
 30
0.0
 10
7.039530601
 20
13.3416539342
 30
0.0
 10
7.0313858394
 20
13.3508704757
 30
0.0
 10
7.0237109105
 20
13.3598868348
 30
0.0
 10
7.0165435776
 20
13.3686097664
 30
0.0
 10
7.0109338037
 20
13.3756655368
 30
0.0
 10
7.0067333964
 20
13.3810683927
 30
0.0
 10
7.0038082038
 20
13.3848830303
 30
0.0
 10
7.0010596757
 20
13.3885105989
 30
0.0
 10
6.9985023331
 20
13.3919212213
 30
0.0
 10
6.9961537323
 20
13.395080207
 30
0.0
 10
6.9940335825
 20
13.3979470043
 30
0.0
 10
6.9924191028
 20
13.4001331861
 30
0.0
 10
6.9912569192
 20
13.401701473
 30
0.0
 10
6.9904910397
 20
13.4027303459
 30
0.0
 10
6.9897996703
 20
13.4036523856
 30
0.0
 10
6.9891858461
 20
13.4044618392
 30
0.0
 10
6.9886525156
 20
13.4051531253
 30
0.0
 10
6.9882018826
 20
13.4057218583
 30
0.0
 10
6.9878362798
 20
13.4061647681
 30
0.0
 10
6.9875826514
 20
13.4064531189
 30
0.0
 10
6.9874218343
 20
13.406616798
 30
0.0
 10
6.9873354787
 20
13.4066944036
 30
0.0
 10
6.9872739487
 20
13.4067393658
 30
0.0
 10
6.9872333671
 20
13.4067561745
 30
0.0
 10
6.987219483
 20
13.4067529139
 30
0.0
  0
SPLINE
  5
4A7
100
AcDbEntity
  8
0
100
AcDbSpline
 62
7
  6
CONTINUOUS
 70
0
 71
3
 72
65
 73
61
 74
0
 42
0.0000001
 43
0.0000001
 44
0.0000000001
 40
0.0
 40
0.0
 40
0.0
 40
0.0
 40
0.0002616219
 40
0.0004779692
 40
0.0007619976
 40
0.0011166355
 40
0.0015433337
 40
0.0020428929
 40
0.0026157886
 40
0.003982618
 40
0.0056452031
 40
0.0098569405
 40
0.0152434561
 40
0.0217938268
 40
0.02949505
 40
0.0383276848
 40
0.0482702878
 40
0.0593010677
 40
0.0713935669
 40
0.0845170449
 40
0.0986405691
 40
0.1137317138
 40
0.146664256
 40
0.1829989765
 40
0.2223847738
 40
0.264445298
 40
0.3087738755
 40
0.3549450384
 40
0.4025132375
 40
0.4510203818
 40
0.4999992932
 40
0.5489782011
 40
0.5974853718
 40
0.6450535857
 40
0.6912248166
 40
0.73555344
 40
0.7776140452
 40
0.8169999228
 40
0.853334682
 40
0.8862673374
 40
0.9013584992
 40
0.9154820567
 40
0.9286056392
 40
0.9406982228
 40
0.9517290117
 40
0.961671696
 40
0.9705044482
 40
0.9782057486
 40
0.9847562175
 40
0.9901428713
 40
0.9943546982
 40
0.9960172929
 40
0.9973841318
 40
0.9979570337
 40
0.9984566002
 40
0.9988833073
 40
0.9992379559
 40
0.9995219967
 40
0.9997383578
 40
1.0
 40
1.0
 40
1.0
 40
1.0
 10
7.1213033228
 20
8.8860054902
 30
0.0
 10
7.1213029459
 20
8.8861809043
 30
0.0
 10
7.1210251898
 20
8.8864472027
 30
0.0
 10
7.1205881505
 20
8.8866752355
 30
0.0
 10
7.1200487929
 20
8.8868901408
 30
0.0
 10
7.1193678175
 20
8.8870993596
 30
0.0
 10
7.1185346215
 20
8.8873119251
 30
0.0
 10
7.1175522194
 20
8.8875241408
 30
0.0
 10
7.1159445038
 20
8.8878258207
 30
0.0
 10
7.1135567657
 20
8.8881929807
 30
0.0
 10
7.1087396961
 20
8.888802286
 30
0.0
 10
7.1012230207
 20
8.8895274111
 30
0.0
 10
7.0904264864
 20
8.8903484941
 30
0.0
 10
7.0772842477
 20
8.8911638033
 30
0.0
 10
7.0618274532
 20
8.8919710211
 30
0.0
 10
7.0440929832
 20
8.892766385
 30
0.0
 10
7.0241235751
 20
8.8935474356
 30
0.0
 10
7.0019663821
 20
8.8943114357
 30
0.0
 10
6.977674716
 20
8.8950563265
 30
0.0
 10
6.9513079288
 20
8.8957802635
 30
0.0
 10
6.922929312
 20
8.8964812981
 30
0.0
 10
6.881270636
 20
8.8974099964
 30
0.0
 10
6.8247194035
 20
8.8984876774
 30
0.0
 10
6.7518776262
 20
8.8996302748
 30
0.0
 10
6.6729132148
 20
8.9006452107
 30
0.0
 10
6.5885870664
 20
8.9015217537
 30
0.0
 10
6.4997098568
 20
8.9022513671
 30
0.0
 10
6.4071386133
 20
8.9028264667
 30
0.0
 10
6.3117648096
 20
8.9032413697
 30
0.0
 10
6.214507866
 20
8.9034920655
 30
0.0
 10
6.1163047723
 20
8.9035757898
 30
0.0
 10
6.018101661
 20
8.9034920684
 30
0.0
 10
5.9208446921
 20
8.9032413813
 30
0.0
 10
5.825470815
 20
8.902826477
 30
0.0
 10
5.7328994851
 20
8.9022513878
 30
0.0
 10
5.6440221449
 20
8.9015217733
 30
0.0
 10
5.5596958576
 20
8.9006452366
 30
0.0
 10
5.480731312
 20
8.899630306
 30
0.0
 10
5.4078893791
 20
8.8984877069
 30
0.0
 10
5.3513380329
 20
8.897410036
 30
0.0
 10
5.3096792473
 20
8.8964813378
 30
0.0
 10
5.2813005266
 20
8.8957803017
 30
0.0
 10
5.2549335902
 20
8.8950563696
 30
0.0
 10
5.2306417912
 20
8.8943114831
 30
0.0
 10
5.2084844813
 20
8.893547473
 30
0.0
 10
5.188514934
 20
8.892766421
 30
0.0
 10
5.1707802787
 20
8.8919710604
 30
0.0
 10
5.1553232879
 20
8.8911638388
 30
0.0
 10
5.1421808387
 20
8.890348527
 30
0.0
 10
5.1313840852
 20
8.8895274459
 30
0.0
 10
5.1238672499
 20
8.888802318
 30
0.0
 10
5.1190501096
 20
8.8881929904
 30
0.0
 10
5.1166623558
 20
8.8878258209
 30
0.0
 10
5.1150546257
 20
8.887524135
 30
0.0
 10
5.114072209
 20
8.8873119152
 30
0.0
 10
5.1132389951
 20
8.8870993473
 30
0.0
 10
5.1125579982
 20
8.8868901254
 30
0.0
 10
5.1120186134
 20
8.8866752231
 30
0.0
 10
5.111581542
 20
8.8864471816
 30
0.0
 10
5.1113037409
 20
8.8861809178
 30
0.0
 10
5.1113033228
 20
8.8860054902
 30
0.0
  0
SPLINE
  5
4A8
100
AcDbEntity
  8
0
100
AcDbSpline
 62
7
  6
CONTINUOUS
 70
0
 71
3
 72
65
 73
61
 74
0
 42
0.0000001
 43
0.0000001
 44
0.0000000001
 40
0.0
 40
0.0
 40
0.0
 40
0.0
 40
0.0002616058
 40
0.0004779348
 40
0.0007619408
 40
0.0011165541
 40
0.0015432269
 40
0.0020427615
 40
0.0026156347
 40
0.0039824305
 40
0.0056450015
 40
0.0098566067
 40
0.0152429254
 40
0.0217931956
 40
0.0294943359
 40
0.038326796
 40
0.0482692913
 40
0.0593001092
 40
0.0713925532
 40
0.0845159566
 40
0.0986395099
 40
0.1137306978
 40
0.1466632171
 40
0.1829980056
 40
0.2223838402
 40
0.2644444369
 40
0.308773135
 40
0.3549444304
 40
0.4025127957
 40
0.4510201041
 40
0.4999991865
 40
0.5489782647
 40
0.597485604
 40
0.6450539856
 40
0.6912253595
 40
0.7355541081
 40
0.7776147993
 40
0.8170007237
 40
0.8533355586
 40
0.8862682092
 40
0.9013594195
 40
0.9154830032
 40
0.9286065254
 40
0.9406990706
 40
0.9517299001
 40
0.9616724882
 40
0.9705050871
 40
0.9782063189
 40
0.9847566893
 40
0.9901431605
 40
0.994354873
 40
0.9960174602
 40
0.997384273
 40
0.9979571562
 40
0.9984567018
 40
0.9988833867
 40
0.999238013
 40
0.9995220329
 40
0.9997383758
 40
1.0
 40
1.0
 40
1.0
 40
1.0
 10
5.1113033228
 20
14.2547091207
 30
0.0
 10
5.1113036873
 20
14.2545337174
 30
0.0
 10
5.1115813947
 20
14.2542674094
 30
0.0
 10
5.112018397
 20
14.2540393783
 30
0.0
 10
5.1125577067
 20
14.2538244748
 30
0.0
 10
5.1132386333
 20
14.25361526
 30
0.0
 10
5.1140717786
 20
14.2534026987
 30
0.0
 10
5.1150541323
 20
14.2531904881
 30
0.0
 10
5.116661794
 20
14.2528888146
 30
0.0
 10
5.1190494863
 20
14.2525216649
 30
0.0
 10
5.1238664391
 20
14.2519123965
 30
0.0
 10
5.1313828833
 20
14.2511872745
 30
0.0
 10
5.1421791292
 20
14.2503661891
 30
0.0
 10
5.1553211133
 20
14.2495508882
 30
0.0
 10
5.170777668
 20
14.2487436723
 30
0.0
 10
5.1885118927
 20
14.2479482949
 30
0.0
 10
5.2084811373
 20
14.2471672392
 30
0.0
 10
5.2306382476
 20
14.2464032495
 30
0.0
 10
5.2549298526
 20
14.2456583477
 30
0.0
 10
5.2812965728
 20
14.2449344
 30
0.0
 10
5.309675189
 20
14.2442333645
 30
0.0
 10
5.3513338993
 20
14.2433046618
 30
0.0
 10
5.4078851927
 20
14.2422269645
 30
0.0
 10
5.4807270275
 20
14.2410843665
 30
0.0
 10
5.5596915606
 20
14.240069422
 30
0.0
 10
5.6440178662
 20
14.2391928721
 30
0.0
 10
5.7328952969
 20
14.2384632564
 30
0.0
 10
5.8254668245
 20
14.2378881489
 30
0.0
 10
5.9208409417
 20
14.2374732455
 30
0.0
 10
6.0180982246
 20
14.2372225454
 30
0.0
 10
6.1163016603
 20
14.2371388218
 30
0.0
 10
6.2145051168
 20
14.2372225422
 30
0.0
 10
6.3117624284
 20
14.2374732321
 30
0.0
 10
6.4071366299
 20
14.2378881373
 30
0.0
 10
6.499708255
 20
14.2384632324
 30
0.0
 10
6.5885858355
 20
14.2391928499
 30
0.0
 10
6.6729122986
 20
14.2400693921
 30
0.0
 10
6.7518769864
 20
14.241084331
 30
0.0
 10
6.8247190007
 20
14.2422269305
 30
0.0
 10
6.8812704284
 20
14.2433046169
 30
0.0
 10
6.9229292622
 20
14.2442333185
 30
0.0
 10
6.9513079935
 20
14.2449343567
 30
0.0
 10
6.9776748818
 20
14.2456582988
 30
0.0
 10
7.0019666422
 20
14.2464031952
 30
0.0
 10
7.0241238901
 20
14.2471671961
 30
0.0
 10
7.0440932978
 20
14.2479482536
 30
0.0
 10
7.0618277396
 20
14.248743627
 30
0.0
 10
7.0772845159
 20
14.2495508463
 30
0.0
 10
7.0904267309
 20
14.2503661527
 30
0.0
 10
7.1012232188
 20
14.2511872368
 30
0.0
 10
7.1087398491
 20
14.251912361
 30
0.0
 10
7.113556894
 20
14.2525216526
 30
0.0
 10
7.1159446142
 20
14.2528888117
 30
0.0
 10
7.1175523008
 20
14.253190491
 30
0.0
 10
7.1185346762
 20
14.2534027056
 30
0.0
 10
7.1193678458
 20
14.2536152694
 30
0.0
 10
7.1200487986
 20
14.2538244873
 30
0.0
 10
7.1205881385
 20
14.2540393886
 30
0.0
 10
7.1210251724
 20
14.2542674264
 30
0.0
 10
7.121302924
 20
14.2545337051
 30
0.0
 10
7.1213033228
 20
14.2547091207
 30
0.0
  0
SPLINE
  5
4A9
100
AcDbEntity
  8
0
100
AcDbSpline
 62
7
  6
CONTINUOUS
 70
0
 71
3
 72
19
 73
15
 74
0
 42
0.0000001
 43
0.0000001
 44
0.0000000001
 40
0.0
 40
0.0
 40
0.0
 40
0.0
 40
0.1917692238
 40
0.2855790465
 40
0.3767177227
 40
0.5477892656
 40
0.6987683604
 40
0.8238177592
 40
0.8750473596
 40
0.9180199219
 40
0.9523235061
 40
0.9775691812
 40
0.9935100952
 40
1.0
 40
1.0
 40
1.0
 40
1.0
 10
6.8651066983
 20
9.7884262744
 30
0.0
 10
6.8734182279
 20
9.787129812
 30
0.0
 10
6.8857990814
 20
9.7852215568
 30
0.0
 10
6.9021284983
 20
9.7826874315
 30
0.0
 10
6.9175570119
 20
9.7802686051
 30
0.0
 10
6.9354592567
 20
9.7774375016
 30
0.0
 10
6.9548286885
 20
9.7743610256
 30
0.0
 10
6.9690025534
 20
9.7720858003
 30
0.0
 10
6.9784974166
 20
9.7705544603
 30
0.0
 10
6.9840622103
 20
9.7696553609
 30
0.0
 10
6.9885017524
 20
9.7689378089
 30
0.0
 10
6.9917701231
 20
9.7684055807
 30
0.0
 10
6.99383487
 20
9.768073228
 30
0.0
 10
6.9948054471
 20
9.7679113935
 30
0.0
 10
6.9950868987
 20
9.7678686265
 30
0.0
  0
LINE
  5
4AA
100
AcDbEntity
  8
0
100
AcDbLine
 62
7
  6
CONTINUOUS
 10
7.3319949393
 20
10.3555737296
 11
7.2620056007
 21
10.4855539299
  0
LINE
  5
4AB
100
AcDbEntity
  8
0
100
AcDbLine
 62
7
  6
CONTINUOUS
 10
7.2620056007
 20
12.655160681
 11
7.391985801
 21
12.7251500197
  0
LINE
  5
4AC
100
AcDbEntity
  8
0
100
AcDbLine
 62
7
  6
CONTINUOUS
 10
7.391985801
 20
10.4155645913
 11
7.2620056007
 21
10.4855539299
  0
SPLINE
  5
4AD
100
AcDbEntity
  8
0
100
AcDbSpline
 62
7
  6
CONTINUOUS
 70
0
 71
3
 72
19
 73
15
 74
0
 42
0.0000001
 43
0.0000001
 44
0.0000000001
 40
0.0
 40
0.0
 40
0.0
 40
0.0
 40
0.0064899077
 40
0.0224308208
 40
0.0476764941
 40
0.0819800772
 40
0.1249526393
 40
0.1761822404
 40
0.3012316406
 40
0.4522107346
 40
0.6232822766
 40
0.7144209528
 40
0.8082307761
 40
1.0
 40
1.0
 40
1.0
 40
1.0
 10
6.9950868987
 20
13.3728459844
 30
0.0
 10
6.9948054468
 20
13.3728032185
 30
0.0
 10
6.99383487
 20
13.3726413818
 30
0.0
 10
6.9917701229
 20
13.3723090299
 30
0.0
 10
6.9885017525
 20
13.3717768011
 30
0.0
 10
6.9840622103
 20
13.3710592508
 30
0.0
 10
6.9784974165
 20
13.3701601519
 30
0.0
 10
6.9690025536
 20
13.36862881
 30
0.0
 10
6.9548286891
 20
13.3663535814
 30
0.0
 10
6.9354592554
 20
13.3632771177
 30
0.0
 10
6.9175570133
 20
13.3604459972
 30
0.0
 10
6.902128499
 20
13.3580271756
 30
0.0
 10
6.885799074
 20
13.3554931018
 30
0.0
 10
6.8734182165
 20
13.3535848725
 30
0.0
 10
6.8651066983
 20
13.3522883365
 30
0.0
  0
LINE
  5
4AE
100
AcDbEntity
  8
0
100
AcDbLine
 62
7
  6
CONTINUOUS
 10
7.2620056007
 20
12.655160681
 11
7.3319949393
 21
12.7851408814
  0
SPLINE
  5
4AF
100
AcDbEntity
  8
0
100
AcDbSpline
 62
7
  6
CONTINUOUS
 70
0
 71
3
 72
19
 73
15
 74
0
 42
0.0000001
 43
0.0000001
 44
0.0000000001
 40
0.0
 40
0.0
 40
0.0
 40
0.0
 40
0.0064899077
 40
0.0224308208
 40
0.0476764941
 40
0.0819800772
 40
0.1249526393
 40
0.1761822404
 40
0.3012316406
 40
0.4522107346
 40
0.6232822766
 40
0.7144209528
 40
0.8082307761
 40
1.0
 40
1.0
 40
1.0
 40
1.0
 10
5.2375197469
 20
9.7678686265
 30
0.0
 10
5.2378011988
 20
9.7679113924
 30
0.0
 10
5.2387717756
 20
9.7680732292
 30
0.0
 10
5.2408365227
 20
9.7684055811
 30
0.0
 10
5.244104893
 20
9.7689378099
 30
0.0
 10
5.2485444353
 20
9.7696553602
 30
0.0
 10
5.254109229
 20
9.770554459
 30
0.0
 10
5.263604092
 20
9.7720858009
 30
0.0
 10
5.2777779565
 20
9.7743610296
 30
0.0
 10
5.2971473902
 20
9.7774374933
 30
0.0
 10
5.3150496322
 20
9.7802686137
 30
0.0
 10
5.3304781466
 20
9.7826874353
 30
0.0
 10
5.3468075716
 20
9.7852215091
 30
0.0
 10
5.3591884291
 20
9.7871297384
 30
0.0
 10
5.3674999472
 20
9.7884262744
 30
0.0
  0
LINE
  5
4B0
100
AcDbEntity
  8
0
100
AcDbLine
 62
7
  6
CONTINUOUS
 10
4.9706010449
 20
10.4855539299
 11
4.9006117062
 21
10.3555737296
  0
LINE
  5
4B1
100
AcDbEntity
  8
0
100
AcDbLine
 62
7
  6
CONTINUOUS
 10
4.9706010449
 20
10.4855539299
 11
4.8406208445
 21
10.4155645913
  0
LINE
  5
4B2
100
AcDbEntity
  8
0
100
AcDbLine
 62
7
  6
CONTINUOUS
 10
4.8406208445
 20
12.7251500197
 11
4.9706010449
 21
12.655160681
  0
SPLINE
  5
4B3
100
AcDbEntity
  8
0
100
AcDbSpline
 62
7
  6
CONTINUOUS
 70
0
 71
3
 72
19
 73
15
 74
0
 42
0.0000001
 43
0.0000001
 44
0.0000000001
 40
0.0
 40
0.0
 40
0.0
 40
0.0
 40
0.1917692238
 40
0.2855790465
 40
0.3767177227
 40
0.5477892656
 40
0.6987683604
 40
0.8238177592
 40
0.8750473596
 40
0.9180199219
 40
0.9523235061
 40
0.9775691812
 40
0.9935100952
 40
1.0
 40
1.0
 40
1.0
 40
1.0
 10
5.3674999472
 20
13.3522883365
 30
0.0
 10
5.3591884176
 20
13.3535847989
 30
0.0
 10
5.3468075642
 20
13.3554930541
 30
0.0
 10
5.3304781473
 20
13.3580271794
 30
0.0
 10
5.3150496337
 20
13.3604460058
 30
0.0
 10
5.2971473889
 20
13.3632771093
 30
0.0
 10
5.2777779571
 20
13.3663535853
 30
0.0
 10
5.2636040921
 20
13.3686288107
 30
0.0
 10
5.2541092289
 20
13.3701601506
 30
0.0
 10
5.2485444353
 20
13.3710592501
 30
0.0
 10
5.2441048931
 20
13.371776802
 30
0.0
 10
5.2408365225
 20
13.3723090302
 30
0.0
 10
5.2387717755
 20
13.3726413829
 30
0.0
 10
5.2378011985
 20
13.3728032174
 30
0.0
 10
5.2375197469
 20
13.3728459844
 30
0.0
  0
LINE
  5
4B4
100
AcDbEntity
  8
0
100
AcDbLine
 62
7
  6
CONTINUOUS
 10
4.9006117062
 20
12.7851408814
 11
4.9706010449
 21
12.655160681
  0
SPLINE
  5
4B5
100
AcDbEntity
  8
0
100
AcDbSpline
 62
7
  6
CONTINUOUS
 70
0
 71
3
 72
22
 73
18
 74
0
 42
0.0000001
 43
0.0000001
 44
0.0000000001
 40
0.0
 40
0.0
 40
0.0
 40
0.0
 40
0.0021769414
 40
0.0068903191
 40
0.0141126857
 40
0.0238165157
 40
0.0505488339
 40
0.0866672772
 40
0.1315773457
 40
0.1846532618
 40
0.2451716001
 40
0.3123848047
 40
0.4638377379
 40
0.6328574012
 40
0.7221312145
 40
0.8136270305
 40
1.0
 40
1.0
 40
1.0
 40
1.0
 10
5.3856418455
 20
13.6270397837
 30
0.0
 10
5.385677392
 20
13.626944776
 30
0.0
 10
5.385800303
 20
13.626648078
 30
0.0
 10
5.3860479584
 20
13.6260389409
 30
0.0
 10
5.3864323904
 20
13.6251067176
 30
0.0
 10
5.3872060185
 20
13.623225203
 30
0.0
 10
5.3884912112
 20
13.6200981378
 30
0.0
 10
5.3903941517
 20
13.6154513169
 30
0.0
 10
5.3927557976
 20
13.6096658526
 30
0.0
 10
5.3955379849
 20
13.6028240135
 30
0.0
 10
5.3986980325
 20
13.5950139311
 30
0.0
 10
5.403551261
 20
13.5829438274
 30
0.0
 10
5.4102346252
 20
13.5661604064
 30
0.0
 10
5.417248037
 20
13.5484020078
 30
0.0
 10
5.4231721732
 20
13.5332174174
 30
0.0
 10
5.4293278186
 20
13.5172553226
 30
0.0
 10
5.433953547
 20
13.5051618248
 30
0.0
 10
5.4370798965
 20
13.4970595834
 30
0.0
  0
SPLINE
  5
4B6
100
AcDbEntity
  8
0
100
AcDbSpline
 62
7
  6
CONTINUOUS
 70
0
 71
3
 72
18
 73
14
 74
0
 42
0.0000001
 43
0.0000001
 44
0.0000000001
 40
0.0
 40
0.0
 40
0.0
 40
0.0
 40
0.1870226362
 40
0.2788354283
 40
0.3684009024
 40
0.5378487858
 40
0.6894171794
 40
0.8168701049
 40
0.914269243
 40
0.9500581771
 40
0.9765008767
 40
0.9932162567
 40
1.0
 40
1.0
 40
1.0
 40
1.0
 10
5.4370798979
 20
13.4970595822
 30
0.0
 10
5.4304936825
 20
13.5026881735
 30
0.0
 10
5.4205753435
 20
13.5109644899
 30
0.0
 10
5.4073556051
 20
13.5217571818
 30
0.0
 10
5.3947115322
 20
13.5319674186
 30
0.0
 10
5.3798082012
 20
13.5437856408
 30
0.0
 10
5.3633488315
 20
13.5564628996
 30
0.0
 10
5.3494186426
 20
13.5669520281
 30
0.0
 10
5.3397054765
 20
13.5741241621
 30
0.0
 10
5.3337297741
 20
13.5784800507
 30
0.0
 10
5.3307674534
 20
13.5806246967
 30
0.0
 10
5.3288938701
 20
13.5819818996
 30
0.0
 10
5.3280087303
 20
13.5826156021
 30
0.0
 10
5.3277551141
 20
13.582801163
 30
0.0
  0
SPLINE
  5
4B7
100
AcDbEntity
  8
0
100
AcDbSpline
 62
7
  6
CONTINUOUS
 70
0
 71
3
 72
18
 73
14
 74
0
 42
0.0000001
 43
0.0000001
 44
0.0000000001
 40
0.0
 40
0.0
 40
0.0
 40
0.0
 40
0.0067837742
 40
0.0234992309
 40
0.0499420003
 40
0.0857309764
 40
0.1831301451
 40
0.3105830564
 40
0.462151427
 40
0.6315992974
 40
0.7211647247
 40
0.8129774343
 40
1.0
 40
1.0
 40
1.0
 40
1.0
 10
5.3277551144
 20
9.5579134534
 30
0.0
 10
5.3280087344
 20
9.5580990115
 30
0.0
 10
5.3288938765
 20
9.558732719
 30
0.0
 10
5.3307674696
 20
9.5600899223
 30
0.0
 10
5.3337297942
 20
9.5622345775
 30
0.0
 10
5.3397054982
 20
9.5665904746
 30
0.0
 10
5.3494186761
 20
9.5737625958
 30
0.0
 10
5.3633488662
 20
9.5842517214
 30
0.0
 10
5.3798081902
 20
9.5969290329
 30
0.0
 10
5.3947116055
 20
9.6087471412
 30
0.0
 10
5.4073556177
 20
9.6189574418
 30
0.0
 10
5.4205750789
 20
9.6297504602
 30
0.0
 10
5.4304933136
 20
9.6380268748
 30
0.0
 10
5.4370798978
 20
9.6436550287
 30
0.0
  0
SPLINE
  5
4B8
100
AcDbEntity
  8
0
100
AcDbSpline
 62
7
  6
CONTINUOUS
 70
0
 71
3
 72
22
 73
18
 74
0
 42
0.0000001
 43
0.0000001
 44
0.0000000001
 40
0.0
 40
0.0
 40
0.0
 40
0.0
 40
0.1863729668
 40
0.2778687791
 40
0.367142593
 40
0.5361622651
 40
0.6876152217
 40
0.7548284192
 40
0.8153467379
 40
0.8684226397
 40
0.913332713
 40
0.9494511737
 40
0.9761835101
 40
0.9858873449
 40
0.9931097104
 40
0.9978230787
 40
1.0
 40
1.0
 40
1.0
 40
1.0
 10
5.4370798965
 20
9.6436550276
 30
0.0
 10
5.433954088
 20
9.6355525776
 30
0.0
 10
5.429328221
 20
9.623459134
 30
0.0
 10
5.4231721716
 20
9.6074971951
 30
0.0
 10
5.4172479601
 20
9.5923126342
 30
0.0
 10
5.4102346872
 20
9.574554179
 30
0.0
 10
5.403551253
 20
9.5577707845
 30
0.0
 10
5.3986980128
 20
9.5457006856
 30
0.0
 10
5.3955379801
 20
9.5378905992
 30
0.0
 10
5.3927558081
 20
9.5310487554
 30
0.0
 10
5.3903941594
 20
9.5252632918
 30
0.0
 10
5.3884912076
 20
9.5206164734
 30
0.0
 10
5.3872060105
 20
9.517489408
 30
0.0
 10
5.3864323849
 20
9.5156078913
 30
0.0
 10
5.3860479565
 20
9.5146756668
 30
0.0
 10
5.3858003021
 20
9.5140665307
 30
0.0
 10
5.3856773937
 20
9.5137698333
 30
0.0
 10
5.3856418455
 20
9.5136748272
 30
0.0
  0
SPLINE
  5
4B9
100
AcDbEntity
  8
0
100
AcDbSpline
 62
7
  6
CONTINUOUS
 70
0
 71
3
 72
18
 73
14
 74
0
 42
0.0000001
 43
0.0000001
 44
0.0000000001
 40
0.0
 40
0.0
 40
0.0
 40
0.0
 40
0.1870225657
 40
0.2788352753
 40
0.3684007026
 40
0.537848573
 40
0.6894169436
 40
0.8168698549
 40
0.9142690236
 40
0.9500579997
 40
0.9765007691
 40
0.9932162258
 40
1.0
 40
1.0
 40
1.0
 40
1.0
 10
6.7955267478
 20
13.4970595823
 30
0.0
 10
6.802113332
 20
13.5026877362
 30
0.0
 10
6.8120315667
 20
13.5109641507
 30
0.0
 10
6.8252510279
 20
13.5217571691
 30
0.0
 10
6.8378950401
 20
13.5319674697
 30
0.0
 10
6.8527984554
 20
13.543785578
 30
0.0
 10
6.8692577793
 20
13.5564628895
 30
0.0
 10
6.8831879695
 20
13.5669520152
 30
0.0
 10
6.8929011474
 20
13.5741241363
 30
0.0
 10
6.8988768514
 20
13.5784800334
 30
0.0
 10
6.901839176
 20
13.5806246886
 30
0.0
 10
6.903712769
 20
13.5819818919
 30
0.0
 10
6.9045979112
 20
13.5826155994
 30
0.0
 10
6.9048515312
 20
13.5828011575
 30
0.0
  0
SPLINE
  5
4BA
100
AcDbEntity
  8
0
100
AcDbSpline
 62
7
  6
CONTINUOUS
 70
0
 71
3
 72
22
 73
18
 74
0
 42
0.0000001
 43
0.0000001
 44
0.0000000001
 40
0.0
 40
0.0
 40
0.0
 40
0.0
 40
0.1863729668
 40
0.2778687791
 40
0.367142593
 40
0.5361622651
 40
0.6876152217
 40
0.7548284192
 40
0.8153467379
 40
0.8684226397
 40
0.913332713
 40
0.9494511737
 40
0.9761835101
 40
0.9858873449
 40
0.9931097104
 40
0.9978230787
 40
1.0
 40
1.0
 40
1.0
 40
1.0
 10
6.7955267491
 20
13.4970595834
 30
0.0
 10
6.7986525576
 20
13.5051620334
 30
0.0
 10
6.8032784246
 20
13.5172554769
 30
0.0
 10
6.8094344739
 20
13.5332174158
 30
0.0
 10
6.8153586855
 20
13.5484019767
 30
0.0
 10
6.8223719584
 20
13.5661604319
 30
0.0
 10
6.8290553925
 20
13.5829438265
 30
0.0
 10
6.8339086327
 20
13.5950139253
 30
0.0
 10
6.8370686655
 20
13.6028240117
 30
0.0
 10
6.8398508375
 20
13.6096658555
 30
0.0
 10
6.8422124861
 20
13.6154513192
 30
0.0
 10
6.844115438
 20
13.6200981375
 30
0.0
 10
6.8454006351
 20
13.6232252029
 30
0.0
 10
6.8461742607
 20
13.6251067197
 30
0.0
 10
6.8465586891
 20
13.6260389442
 30
0.0
 10
6.8468063435
 20
13.6266480802
 30
0.0
 10
6.8469292518
 20
13.6269447776
 30
0.0
 10
6.8469648001
 20
13.6270397837
 30
0.0
  0
SPLINE
  5
4BB
100
AcDbEntity
  8
0
100
AcDbSpline
 62
7
  6
CONTINUOUS
 70
0
 71
3
 72
22
 73
18
 74
0
 42
0.0000001
 43
0.0000001
 44
0.0000000001
 40
0.0
 40
0.0
 40
0.0
 40
0.0
 40
0.0021769414
 40
0.0068903191
 40
0.0141126857
 40
0.0238165157
 40
0.0505488339
 40
0.0866672772
 40
0.1315773457
 40
0.1846532618
 40
0.2451716001
 40
0.3123848047
 40
0.4638377379
 40
0.6328574012
 40
0.7221312145
 40
0.8136270305
 40
1.0
 40
1.0
 40
1.0
 40
1.0
 10
6.8469648001
 20
9.5136748272
 30
0.0
 10
6.8469292536
 20
9.5137698349
 30
0.0
 10
6.8468063425
 20
9.5140665329
 30
0.0
 10
6.8465586872
 20
9.51467567
 30
0.0
 10
6.8461742552
 20
9.5156078933
 30
0.0
 10
6.8454006271
 20
9.5174894079
 30
0.0
 10
6.8441154344
 20
9.5206164731
 30
0.0
 10
6.8422124939
 20
9.525263294
 30
0.0
 10
6.839850848
 20
9.5310487584
 30
0.0
 10
6.8370686607
 20
9.5378905974
 30
0.0
 10
6.8339086131
 20
9.5457006799
 30
0.0
 10
6.8290553845
 20
9.5577707835
 30
0.0
 10
6.8223720204
 20
9.5745542045
 30
0.0
 10
6.8153586086
 20
9.5923126031
 30
0.0
 10
6.8094344724
 20
9.6074971935
 30
0.0
 10
6.803278827
 20
9.6234592883
 30
0.0
 10
6.7986530985
 20
9.6355527862
 30
0.0
 10
6.7955267491
 20
9.6436550276
 30
0.0
  0
SPLINE
  5
4BC
100
AcDbEntity
  8
0
100
AcDbSpline
 62
7
  6
CONTINUOUS
 70
0
 71
3
 72
18
 73
14
 74
0
 42
0.0000001
 43
0.0000001
 44
0.0000000001
 40
0.0
 40
0.0
 40
0.0
 40
0.0
 40
0.1870226362
 40
0.2788354283
 40
0.3684009024
 40
0.5378487858
 40
0.6894171794
 40
0.8168701049
 40
0.914269243
 40
0.9500581771
 40
0.9765008767
 40
0.9932162567
 40
1.0
 40
1.0
 40
1.0
 40
1.0
 10
6.7955267477
 20
9.6436550287
 30
0.0
 10
6.802112963
 20
9.6380264374
 30
0.0
 10
6.8120313021
 20
9.629750121
 30
0.0
 10
6.8252510405
 20
9.6189574292
 30
0.0
 10
6.8378951134
 20
9.6087471923
 30
0.0
 10
6.8527984443
 20
9.5969289701
 30
0.0
 10
6.8692578141
 20
9.5842517113
 30
0.0
 10
6.883188003
 20
9.5737625828
 30
0.0
 10
6.892901169
 20
9.5665904489
 30
0.0
 10
6.8988768715
 20
9.5622345602
 30
0.0
 10
6.9018391922
 20
9.5600899142
 30
0.0
 10
6.9037127755
 20
9.5587327113
 30
0.0
 10
6.9045979152
 20
9.5580990088
 30
0.0
 10
6.9048515314
 20
9.5579134479
 30
0.0
  0
SPLINE
  5
4BD
100
AcDbEntity
  8
0
100
AcDbSpline
 62
7
  6
CONTINUOUS
 70
0
 71
3
 72
38
 73
34
 74
0
 42
0.0000001
 43
0.0000001
 44
0.0000000001
 40
0.0
 40
0.0
 40
0.0
 40
0.0
 40
0.0001065103
 40
0.00034468
 40
0.0012755165
 40
0.0027988043
 40
0.0048822184
 40
0.0074907331
 40
0.0105886033
 40
0.0141398394
 40
0.0181100701
 40
0.0271808763
 40
0.0375486784
 40
0.0489611028
 40
0.0611714792
 40
0.0740249855
 40
0.0874402077
 40
0.1156383792
 40
0.1451636566
 40
0.1756826845
 40
0.2069954664
 40
0.2389116545
 40
0.271319077
 40
0.3041477428
 40
0.3708029031
 40
0.4385111097
 40
0.5070455506
 40
0.5762436415
 40
0.6459905453
 40
0.716191391
 40
0.7867793583
 40
0.8576861608
 40
1.0
 40
1.0
 40
1.0
 40
1.0
 10
5.2353321712
 20
13.3735048939
 30
0.0
 10
5.23532789
 20
13.3735078236
 30
0.0
 10
5.2353087479
 20
13.3734973248
 30
0.0
 10
5.2352777011
 20
13.3734480195
 30
0.0
 10
5.2352116718
 20
13.3733301318
 30
0.0
 10
5.2351227339
 20
13.3731300128
 30
0.0
 10
5.2350032005
 20
13.3728509353
 30
0.0
 10
5.2348608918
 20
13.3724995588
 30
0.0
 10
5.2346952329
 20
13.3720800696
 30
0.0
 10
5.2345087172
 20
13.3715976809
 30
0.0
 10
5.2342208575
 20
13.3708425281
 30
0.0
 10
5.2338205587
 20
13.3697749632
 30
0.0
 10
5.2332982236
 20
13.3683660398
 30
0.0
 10
5.232725879
 20
13.3668125789
 30
0.0
 10
5.2321128733
 20
13.3651450747
 30
0.0
 10
5.2314662502
 20
13.3633859985
 30
0.0
 10
5.2305499889
 20
13.3608963958
 30
0.0
 10
5.2293493339
 20
13.3576461979
 30
0.0
 10
5.2278472769
 20
13.3536192779
 30
0.0
 10
5.2262764292
 20
13.3494561391
 30
0.0
 10
5.2246466022
 20
13.3451908281
 30
0.0
 10
5.2229633431
 20
13.3408475247
 30
0.0
 10
5.2212312968
 20
13.336444006
 30
0.0
 10
5.2188488666
 20
13.3304782236
 30
0.0
 10
5.2157664051
 20
13.322940732
 30
0.0
 10
5.2119189045
 20
13.3138379001
 30
0.0
 10
5.2079093453
 20
13.3046698941
 30
0.0
 10
5.2037399726
 20
13.2954643097
 30
0.0
 10
5.1994120204
 20
13.2862424348
 30
0.0
 10
5.1949245462
 20
13.2770217593
 30
0.0
 10
5.1902759847
 20
13.267817796
 30
0.0
 10
5.1838542282
 20
13.2555764765
 30
0.0
 10
5.1788099538
 20
13.2464958616
 30
0.0
 10
5.1753406271
 20
13.240495049
 30
0.0
  0
SPLINE
  5
4BE
100
AcDbEntity
  8
0
100
AcDbSpline
 62
7
  6
CONTINUOUS
 70
0
 71
3
 72
23
 73
19
 74
0
 42
0.0000001
 43
0.0000001
 44
0.0000000001
 40
0.0
 40
0.0
 40
0.0
 40
0.0
 40
0.1925692652
 40
0.3780415292
 40
0.5491812495
 40
0.6274074116
 40
0.6997437984
 40
0.7654821979
 40
0.8240346165
 40
0.8748452906
 40
0.9174379408
 40
0.9514591048
 40
0.9651522974
 40
0.9765917163
 40
0.9857677926
 40
0.9926826509
 40
0.9973695327
 40
1.0
 40
1.0
 40
1.0
 40
1.0
 10
4.8963662927
 20
12.8473110317
 30
0.0
 10
4.8963662517
 20
12.8434528824
 30
0.0
 10
4.8963916252
 20
12.8358787449
 30
0.0
 10
4.8965045627
 20
12.8248763257
 30
0.0
 10
4.8966611567
 20
12.8161655731
 30
0.0
 10
4.8968243202
 20
12.8097222672
 30
0.0
 10
4.8969579425
 20
12.8053906861
 30
0.0
 10
4.8971053429
 20
12.801453956
 30
0.0
 10
4.8972647679
 20
12.7979493658
 30
0.0
 10
4.897434295
 20
12.7949095297
 30
0.0
 10
4.8976124087
 20
12.7923627735
 30
0.0
 10
4.8977745366
 20
12.7905603258
 30
0.0
 10
4.8979129931
 20
12.7893834316
 30
0.0
 10
4.8980102409
 20
12.7887023744
 30
0.0
 10
4.8981070024
 20
12.7881605427
 30
0.0
 10
4.8982040855
 20
12.7877520017
 30
0.0
 10
4.8982955797
 20
12.7874884398
 30
0.0
 10
4.8983768193
 20
12.7873519784
 30
0.0
 10
4.8984239766
 20
12.7873284483
 30
0.0
  0
SPLINE
  5
4BF
100
AcDbEntity
  8
0
100
AcDbSpline
 62
7
  6
CONTINUOUS
 70
0
 71
3
 72
38
 73
34
 74
0
 42
0.0000001
 43
0.0000001
 44
0.0000000001
 40
0.0
 40
0.0
 40
0.0
 40
0.0
 40
0.1423279686
 40
0.2132408827
 40
0.2838350132
 40
0.3540422977
 40
0.4237954772
 40
0.4929993144
 40
0.5615395812
 40
0.6292523732
 40
0.6959116838
 40
0.7287409773
 40
0.7611494604
 40
0.7930683867
 40
0.8243810525
 40
0.8548978193
 40
0.8844209046
 40
0.9126104558
 40
0.9260251058
 40
0.9388856067
 40
0.9511125851
 40
0.9625394411
 40
0.9729126565
 40
0.9819750731
 40
0.9859344543
 40
0.9894697973
 40
0.9925484841
 40
0.9951377378
 40
0.9972050371
 40
0.9987185341
 40
0.9996488705
 40
0.9998906714
 40
1.0
 40
1.0
 40
1.0
 40
1.0
 10
5.1753488937
 20
9.9002046046
 30
0.0
 10
5.1788176392
 20
9.8942034388
 30
0.0
 10
5.1838620693
 20
9.8851229566
 30
0.0
 10
5.1902840574
 20
9.8728818167
 30
0.0
 10
5.194932407
 20
9.8636778462
 30
0.0
 10
5.1994195845
 20
9.8544571116
 30
0.0
 10
5.2037473633
 20
9.8452352561
 30
0.0
 10
5.2079166803
 20
9.8360297699
 30
0.0
 10
5.2119261333
 20
9.8268619194
 30
0.0
 10
5.2157735372
 20
9.8177593188
 30
0.0
 10
5.2188558704
 20
9.8102221368
 30
0.0
 10
5.2212382444
 20
9.8042566977
 30
0.0
 10
5.2229702709
 20
9.7998534334
 30
0.0
 10
5.2246534923
 20
9.7955104084
 30
0.0
 10
5.2262833002
 20
9.791245546
 30
0.0
 10
5.2278540131
 20
9.787083056
 30
0.0
 10
5.2293556157
 20
9.7830570914
 30
0.0
 10
5.2305557862
 20
9.7798076641
 30
0.0
 10
5.231471414
 20
9.7773182167
 30
0.0
 10
5.2321177562
 20
9.7755580366
 30
0.0
 10
5.2327303914
 20
9.7738886072
 30
0.0
 10
5.2333021956
 20
9.7723332276
 30
0.0
 10
5.2338237652
 20
9.7709235807
 30
0.0
 10
5.2342234213
 20
9.7698566126
 30
0.0
 10
5.2345108086
 20
9.7691031913
 30
0.0
 10
5.2346969052
 20
9.7686230988
 30
0.0
 10
5.2348621378
 20
9.7682063125
 30
0.0
 10
5.2350041796
 20
9.7678577932
 30
0.0
 10
5.2351232077
 20
9.7675807742
 30
0.0
 10
5.2352125694
 20
9.7673826236
 30
0.0
 10
5.235277628
 20
9.7672640631
 30
0.0
 10
5.2353094878
 20
9.7672154688
 30
0.0
 10
5.2353278152
 20
9.7672034766
 30
0.0
 10
5.2353324885
 20
9.767206028
 30
0.0
  0
SPLINE
  5
4C0
100
AcDbEntity
  8
0
100
AcDbSpline
 62
7
  6
CONTINUOUS
 70
0
 71
3
 72
23
 73
19
 74
0
 42
0.0000001
 43
0.0000001
 44
0.0000000001
 40
0.0
 40
0.0
 40
0.0
 40
0.0
 40
0.0026343274
 40
0.0073208408
 40
0.0142337367
 40
0.0234073781
 40
0.0348446025
 40
0.0485362874
 40
0.0825557419
 40
0.1251474692
 40
0.1759570793
 40
0.2345081706
 40
0.3002459675
 40
0.3725827595
 40
0.4508094643
 40
0.6219486915
 40
0.807424423
 40
1.0
 40
1.0
 40
1.0
 40
1.0
 10
4.89842403
 20
10.3533861899
 30
0.0
 10
4.8983767646
 20
10.3533627061
 30
0.0
 10
4.8982951885
 20
10.3532263512
 30
0.0
 10
4.8982036859
 20
10.3529627246
 30
0.0
 10
4.8981066709
 20
10.3525542936
 30
0.0
 10
4.8980101153
 20
10.3520125621
 30
0.0
 10
4.8979130766
 20
10.3513316186
 30
0.0
 10
4.8977748369
 20
10.3501548334
 30
0.0
 10
4.8976127666
 20
10.3483525067
 30
0.0
 10
4.8974346033
 20
10.3458058831
 30
0.0
 10
4.897265024
 20
10.3427661829
 30
0.0
 10
4.8971055743
 20
10.3392617301
 30
0.0
 10
4.8969581575
 20
10.3353251169
 30
0.0
 10
4.8968245182
 20
10.3309936238
 30
0.0
 10
4.896661321
 20
10.3245504498
 30
0.0
 10
4.8965046313
 20
10.3158398181
 30
0.0
 10
4.8963916144
 20
10.3048374528
 30
0.0
 10
4.896366251
 20
10.2972632839
 30
0.0
 10
4.8963662996
 20
10.2934050921
 30
0.0
  0
SPLINE
  5
4C1
100
AcDbEntity
  8
0
100
AcDbSpline
 62
7
  6
CONTINUOUS
 70
0
 71
3
 72
38
 73
34
 74
0
 42
0.0000001
 43
0.0000001
 44
0.0000000001
 40
0.0
 40
0.0
 40
0.0
 40
0.0
 40
0.0001065103
 40
0.00034468
 40
0.0012755165
 40
0.0027988043
 40
0.0048822184
 40
0.0074907331
 40
0.0105886033
 40
0.0141398394
 40
0.0181100701
 40
0.0271808763
 40
0.0375486784
 40
0.0489611028
 40
0.0611714792
 40
0.0740249855
 40
0.0874402077
 40
0.1156383792
 40
0.1451636566
 40
0.1756826845
 40
0.2069954664
 40
0.2389116545
 40
0.271319077
 40
0.3041477428
 40
0.3708029031
 40
0.4385111097
 40
0.5070455506
 40
0.5762436415
 40
0.6459905453
 40
0.716191391
 40
0.7867793583
 40
0.8576861608
 40
1.0
 40
1.0
 40
1.0
 40
1.0
 10
6.9972744744
 20
9.767209717
 30
0.0
 10
6.9972787556
 20
9.7672067873
 30
0.0
 10
6.9972978977
 20
9.7672172861
 30
0.0
 10
6.9973289444
 20
9.7672665915
 30
0.0
 10
6.9973949738
 20
9.7673844791
 30
0.0
 10
6.9974839117
 20
9.7675845981
 30
0.0
 10
6.9976034451
 20
9.7678636756
 30
0.0
 10
6.9977457537
 20
9.7682150521
 30
0.0
 10
6.9979114127
 20
9.7686345413
 30
0.0
 10
6.9980979284
 20
9.7691169301
 30
0.0
 10
6.9983857881
 20
9.7698720828
 30
0.0
 10
6.9987860869
 20
9.7709396478
 30
0.0
 10
6.999308422
 20
9.7723485711
 30
0.0
 10
6.9998807666
 20
9.773902032
 30
0.0
 10
7.0004937722
 20
9.7755695362
 30
0.0
 10
7.0011403954
 20
9.7773286124
 30
0.0
 10
7.0020566567
 20
9.7798182152
 30
0.0
 10
7.0032573117
 20
9.7830684131
 30
0.0
 10
7.0047593687
 20
9.787095333
 30
0.0
 10
7.0063302163
 20
9.7912584718
 30
0.0
 10
7.0079600434
 20
9.7955237828
 30
0.0
 10
7.0096433025
 20
9.7998670862
 30
0.0
 10
7.0113753488
 20
9.8042706049
 30
0.0
 10
7.0137577789
 20
9.8102363873
 30
0.0
 10
7.0168402405
 20
9.8177738789
 30
0.0
 10
7.0206877411
 20
9.8268767108
 30
0.0
 10
7.0246973003
 20
9.8360447168
 30
0.0
 10
7.028866673
 20
9.8452503012
 30
0.0
 10
7.0331946252
 20
9.8544721761
 30
0.0
 10
7.0376820994
 20
9.8636928517
 30
0.0
 10
7.0423306609
 20
9.8728968149
 30
0.0
 10
7.0487524174
 20
9.8851381345
 30
0.0
 10
7.0537966917
 20
9.8942187493
 30
0.0
 10
7.0572660185
 20
9.9002195619
 30
0.0
  0
SPLINE
  5
4C2
100
AcDbEntity
  8
0
100
AcDbSpline
 62
7
  6
CONTINUOUS
 70
0
 71
3
 72
23
 73
19
 74
0
 42
0.0000001
 43
0.0000001
 44
0.0000000001
 40
0.0
 40
0.0
 40
0.0
 40
0.0
 40
0.1925692652
 40
0.3780415292
 40
0.5491812495
 40
0.6274074116
 40
0.6997437984
 40
0.7654821979
 40
0.8240346165
 40
0.8748452906
 40
0.9174379408
 40
0.9514591048
 40
0.9651522974
 40
0.9765917163
 40
0.9857677926
 40
0.9926826509
 40
0.9973695327
 40
1.0
 40
1.0
 40
1.0
 40
1.0
 10
7.3362403529
 20
10.2934035793
 30
0.0
 10
7.3362403939
 20
10.2972617285
 30
0.0
 10
7.3362150204
 20
10.3048358661
 30
0.0
 10
7.3361020828
 20
10.3158382852
 30
0.0
 10
7.3359454889
 20
10.3245490378
 30
0.0
 10
7.3357823254
 20
10.3309923438
 30
0.0
 10
7.3356487031
 20
10.3353239248
 30
0.0
 10
7.3355013027
 20
10.3392606549
 30
0.0
 10
7.3353418777
 20
10.3427652451
 30
0.0
 10
7.3351723505
 20
10.3458050812
 30
0.0
 10
7.3349942369
 20
10.3483518375
 30
0.0
 10
7.334832109
 20
10.3501542852
 30
0.0
 10
7.3346936525
 20
10.3513311793
 30
0.0
 10
7.3345964047
 20
10.3520122365
 30
0.0
 10
7.3344996431
 20
10.3525540682
 30
0.0
 10
7.3344025601
 20
10.3529626092
 30
0.0
 10
7.3343110659
 20
10.3532261711
 30
0.0
 10
7.3342298263
 20
10.3533626325
 30
0.0
 10
7.334182669
 20
10.3533861626
 30
0.0
  0
SPLINE
  5
4C3
100
AcDbEntity
  8
0
100
AcDbSpline
 62
7
  6
CONTINUOUS
 70
0
 71
3
 72
38
 73
34
 74
0
 42
0.0000001
 43
0.0000001
 44
0.0000000001
 40
0.0
 40
0.0
 40
0.0
 40
0.0
 40
0.1423279686
 40
0.2132408827
 40
0.2838350132
 40
0.3540422977
 40
0.4237954772
 40
0.4929993144
 40
0.5615395812
 40
0.6292523732
 40
0.6959116838
 40
0.7287409773
 40
0.7611494604
 40
0.7930683867
 40
0.8243810525
 40
0.8548978193
 40
0.8844209046
 40
0.9126104558
 40
0.9260251058
 40
0.9388856067
 40
0.9511125851
 40
0.9625394411
 40
0.9729126565
 40
0.9819750731
 40
0.9859344543
 40
0.9894697973
 40
0.9925484841
 40
0.9951377378
 40
0.9972050371
 40
0.9987185341
 40
0.9996488705
 40
0.9998906714
 40
1.0
 40
1.0
 40
1.0
 40
1.0
 10
7.0572577519
 20
13.2405100063
 30
0.0
 10
7.0537890064
 20
13.2465111721
 30
0.0
 10
7.0487445762
 20
13.2555916543
 30
0.0
 10
7.0423225882
 20
13.2678327942
 30
0.0
 10
7.0376742386
 20
13.2770367647
 30
0.0
 10
7.0331870611
 20
13.2862574993
 30
0.0
 10
7.0288592822
 20
13.2954793548
 30
0.0
 10
7.0246899653
 20
13.304684841
 30
0.0
 10
7.0206805123
 20
13.3138526916
 30
0.0
 10
7.0168331084
 20
13.3229552921
 30
0.0
 10
7.0137507752
 20
13.3304924741
 30
0.0
 10
7.0113684011
 20
13.3364579132
 30
0.0
 10
7.0096363746
 20
13.3408611775
 30
0.0
 10
7.0079531533
 20
13.3452042026
 30
0.0
 10
7.0063233453
 20
13.3494690649
 30
0.0
 10
7.0047526325
 20
13.353631555
 30
0.0
 10
7.0032510298
 20
13.3576575195
 30
0.0
 10
7.0020508593
 20
13.3609069468
 30
0.0
 10
7.0011352316
 20
13.3633963942
 30
0.0
 10
7.0004888894
 20
13.3651565743
 30
0.0
 10
6.9998762542
 20
13.3668260037
 30
0.0
 10
6.9993044499
 20
13.3683813833
 30
0.0
 10
6.9987828804
 20
13.3697910302
 30
0.0
 10
6.9983832242
 20
13.3708579984
 30
0.0
 10
6.9980958369
 20
13.3716114196
 30
0.0
 10
6.9979097404
 20
13.3720915121
 30
0.0
 10
6.9977445078
 20
13.3725082984
 30
0.0
 10
6.997602466
 20
13.3728568177
 30
0.0
 10
6.9974834379
 20
13.3731338367
 30
0.0
 10
6.9973940761
 20
13.3733319873
 30
0.0
 10
6.9973290176
 20
13.3734505478
 30
0.0
 10
6.9972971578
 20
13.3734991422
 30
0.0
 10
6.9972788304
 20
13.3735111344
 30
0.0
 10
6.9972741571
 20
13.3735085829
 30
0.0
  0
SPLINE
  5
4C4
100
AcDbEntity
  8
0
100
AcDbSpline
 62
7
  6
CONTINUOUS
 70
0
 71
3
 72
23
 73
19
 74
0
 42
0.0000001
 43
0.0000001
 44
0.0000000001
 40
0.0
 40
0.0
 40
0.0
 40
0.0
 40
0.0026343274
 40
0.0073208408
 40
0.0142337367
 40
0.0234073781
 40
0.0348446025
 40
0.0485362874
 40
0.0825557419
 40
0.1251474692
 40
0.1759570793
 40
0.2345081706
 40
0.3002459675
 40
0.3725827595
 40
0.4508094643
 40
0.6219486915
 40
0.807424423
 40
1.0
 40
1.0
 40
1.0
 40
1.0
 10
7.3341826156
 20
12.787328421
 30
0.0
 10
7.334229881
 20
12.7873519049
 30
0.0
 10
7.3343114571
 20
12.7874882598
 30
0.0
 10
7.3344029596
 20
12.7877518863
 30
0.0
 10
7.3344999746
 20
12.7881603173
 30
0.0
 10
7.3345965303
 20
12.7887020488
 30
0.0
 10
7.334693569
 20
12.7893829923
 30
0.0
 10
7.3348318087
 20
12.7905597776
 30
0.0
 10
7.3349938789
 20
12.7923621042
 30
0.0
 10
7.3351720423
 20
12.7949087278
 30
0.0
 10
7.3353416215
 20
12.797948428
 30
0.0
 10
7.3355010713
 20
12.8014528808
 30
0.0
 10
7.335648488
 20
12.805389494
 30
0.0
 10
7.3357821273
 20
12.8097209872
 30
0.0
 10
7.3359453246
 20
12.8161641611
 30
0.0
 10
7.3361020142
 20
12.8248747929
 30
0.0
 10
7.3362150311
 20
12.8358771581
 30
0.0
 10
7.3362403946
 20
12.843451327
 30
0.0
 10
7.336240346
 20
12.8473095188
 30
0.0
  0
LINE
  5
4C5
100
AcDbEntity
  8
0
100
AcDbLine
 62
7
  6
CONTINUOUS
 10
5.2413033228
 20
14.8863375193
 11
5.2493583496
 21
14.8859523763
  0
SPLINE
  5
4C6
100
AcDbEntity
  8
0
100
AcDbSpline
 62
7
  6
CONTINUOUS
 70
0
 71
3
 72
56
 73
52
 74
0
 42
0.0000001
 43
0.0000001
 44
0.0000000001
 40
0.0
 40
0.0
 40
0.0
 40
0.0
 40
0.0037392255
 40
0.0085664104
 40
0.0214404572
 40
0.0385103217
 40
0.0596269812
 40
0.0846061906
 40
0.1132300891
 40
0.1803749268
 40
0.2587025834
 40
0.345453311
 40
0.4375665206
 40
0.5317951566
 40
0.5786662236
 40
0.6248237594
 40
0.6698587612
 40
0.7133749192
 40
0.7549851778
 40
0.7943244868
 40
0.8310428823
 40
0.8648187593
 40
0.880508161
 40
0.895353032
 40
0.9093200024
 40
0.9223780582
 40
0.9344996572
 40
0.9456576348
 40
0.9558274979
 40
0.9649876823
 40
0.9731174336
 40
0.9801996114
 40
0.9833428918
 40
0.9862185018
 40
0.9888250388
 40
0.9911611541
 40
0.9932255019
 40
0.9950168696
 40
0.9965344305
 40
0.9971903006
 40
0.9977774418
 40
0.9982957656
 40
0.9987451933
 40
0.9991256967
 40
0.99943728
 40
0.9996799757
 40
0.9998538886
 40
0.999915154
 40
0.9999594328
 40
0.9999870896
 40
1.0
 40
1.0
 40
1.0
 40
1.0
 10
5.2493583496
 20
14.8859523763
 30
0.0
 10
5.2515289566
 20
14.8859007247
 30
0.0
 10
5.2565022381
 20
14.8858042812
 30
0.0
 10
5.2689504539
 20
14.8856157741
 30
0.0
 10
5.2891395695
 20
14.8853983296
 30
0.0
 10
5.3187874588
 20
14.8851570926
 30
0.0
 10
5.3554646002
 20
14.8849243208
 30
0.0
 10
5.3988508684
 20
14.8847017519
 30
0.0
 10
5.4689638464
 20
14.8844070496
 30
0.0
 10
5.5700543278
 20
14.8840946938
 30
0.0
 10
5.7048969398
 20
14.8838081819
 30
0.0
 10
5.854237872
 20
14.8836060772
 30
0.0
 10
6.0128119735
 20
14.8834960719
 30
0.0
 10
6.1482295595
 20
14.8834847726
 30
0.0
 10
6.2569624761
 20
14.8835253993
 30
0.0
 10
6.3371305705
 20
14.8835803921
 30
0.0
 10
6.4153505798
 20
14.8836595075
 30
0.0
 10
6.4909301348
 20
14.8837619364
 30
0.0
 10
6.5632023863
 20
14.8838868396
 30
0.0
 10
6.6315273963
 20
14.8840329533
 30
0.0
 10
6.6953032288
 20
14.8841990323
 30
0.0
 10
6.7453464593
 20
14.8843562575
 30
0.0
 10
6.7826885901
 20
14.8844922227
 30
0.0
 10
6.8085285075
 20
14.8845956773
 30
0.0
 10
6.8328404764
 20
14.8847029029
 30
0.0
 10
6.855571115
 20
14.8848136663
 30
0.0
 10
6.8766706438
 20
14.884927679
 30
0.0
 10
6.8960930686
 20
14.8850446813
 30
0.0
 10
6.9137958642
 20
14.8851643919
 30
0.0
 10
6.9297402262
 20
14.8852864609
 30
0.0
 10
6.9438916138
 20
14.8854106077
 30
0.0
 10
6.9545492146
 20
14.8855192864
 30
0.0
 10
6.9621559706
 20
14.8856083257
 30
0.0
 10
6.9671640041
 20
14.8856727741
 30
0.0
 10
6.9717033021
 20
14.8857375137
 30
0.0
 10
6.9757714753
 20
14.8858024923
 30
0.0
 10
6.9793662421
 20
14.8858676253
 30
0.0
 10
6.9824856148
 20
14.8859328545
 30
0.0
 10
6.9847871294
 20
14.8859895462
 30
0.0
 10
6.9863894189
 20
14.886035816
 30
0.0
 10
6.9874116291
 20
14.8860688062
 30
0.0
 10
6.9883138898
 20
14.8861017648
 30
0.0
 10
6.9890961003
 20
14.8861346723
 30
0.0
 10
6.9897580764
 20
14.8861674446
 30
0.0
 10
6.9903000519
 20
14.886200051
 30
0.0
 10
6.9907213094
 20
14.8862320854
 30
0.0
 10
6.9909981641
 20
14.8862608504
 30
0.0
 10
6.991157686
 20
14.886284484
 30
0.0
 10
6.9912350655
 20
14.8863014803
 30
0.0
 10
6.9912791443
 20
14.8863139729
 30
0.0
 10
6.9913033145
 20
14.8863300115
 30
0.0
 10
6.9913033228
 20
14.886337508
 30
0.0
  0
SPLINE
  5
4C7
100
AcDbEntity
  8
0
100
AcDbSpline
 62
7
  6
CONTINUOUS
 70
0
 71
3
 72
69
 73
65
 74
0
 42
0.0000001
 43
0.0000001
 44
0.0000000001
 40
0.0
 40
0.0
 40
0.0
 40
0.0
 40
0.0001283986
 40
0.0002951165
 40
0.0005195599
 40
0.0008097376
 40
0.00116926
 40
0.0015999709
 40
0.0021029086
 40
0.0026787009
 40
0.0040502408
 40
0.0057165018
 40
0.0076778296
 40
0.0099334564
 40
0.0153230821
 40
0.0218753816
 40
0.0295776319
 40
0.0384104612
 40
0.0483526776
 40
0.059382628
 40
0.0714736879
 40
0.0845952612
 40
0.0987165979
 40
0.1138052376
 40
0.1467318002
 40
0.1830596691
 40
0.2224378379
 40
0.2644902113
 40
0.3088102697
 40
0.3549726264
 40
0.4025318504
 40
0.451029893
 40
0.4999996491
 40
0.5489693972
 40
0.5974674604
 40
0.6450266828
 40
0.6911890943
 40
0.7355091716
 40
0.7775615986
 40
0.8169398055
 40
0.8532676669
 40
0.8861943093
 40
0.9012829405
 40
0.9154042724
 40
0.9285259291
 40
0.9406170574
 40
0.9516469925
 40
0.9615892787
 40
0.9704222171
 40
0.9781245118
 40
0.9846768441
 40
0.9900665447
 40
0.9923221982
 40
0.9942835312
 40
0.995949775
 40
0.9973213011
 40
0.9978970887
 40
0.9984000231
 40
0.9988307321
 40
0.9991902541
 40
0.9994804326
 40
0.9997048781
 40
0.9998715989
 40
1.0
 40
1.0
 40
1.0
 40
1.0
 10
5.2413033229
 20
14.3846896422
 30
0.0
 10
5.2413033573
 20
14.3846146714
 30
0.0
 10
5.24136526
 20
14.384442823
 30
0.0
 10
5.2415863192
 20
14.3842284449
 30
0.0
 10
5.2419251851
 20
14.3840174466
 30
0.0
 10
5.2423913789
 20
14.38380711
 30
0.0
 10
5.2429861305
 20
14.3835956261
 30
0.0
 10
5.2437111476
 20
14.3833835996
 30
0.0
 10
5.2445666689
 20
14.3831710821
 30
0.0
 10
5.2459654215
 20
14.382869625
 30
0.0
 10
5.2480438243
 20
14.3825025119
 30
0.0
 10
5.2509325963
 20
14.3820822362
 30
0.0
 10
5.2543421891
 20
14.3816620869
 30
0.0
 10
5.2599198857
 20
14.3810668306
 30
0.0
 10
5.2681791287
 20
14.3803475851
 30
0.0
 10
5.2796203485
 20
14.3795312808
 30
0.0
 10
5.2930769325
 20
14.3787243544
 30
0.0
 10
5.3085164424
 20
14.3779288575
 30
0.0
 10
5.3259018867
 20
14.3771478269
 30
0.0
 10
5.3451921639
 20
14.3763838158
 30
0.0
 10
5.3663408326
 20
14.3756389034
 30
0.0
 10
5.3892962235
 20
14.374914939
 30
0.0
 10
5.4140033368
 20
14.3742138862
 30
0.0
 10
5.4502724664
 20
14.3732851625
 30
0.0
 10
5.4995080294
 20
14.3722074315
 30
0.0
 10
5.5629274811
 20
14.3710647866
 30
0.0
 10
5.6316782008
 20
14.3700497942
 30
0.0
 10
5.705097727
 20
14.3691731976
 30
0.0
 10
5.7824802629
 20
14.3684435388
 30
0.0
 10
5.8630795801
 20
14.3678683951
 30
0.0
 10
5.9461193955
 20
14.3674534644
 30
0.0
 10
6.030799089
 20
14.367202748
 30
0.0
 10
6.1163027037
 20
14.3671190201
 30
0.0
 10
6.2018063305
 20
14.3672027487
 30
0.0
 10
6.2864860306
 20
14.3674534586
 30
0.0
 10
6.3695258891
 20
14.3678683949
 30
0.0
 10
6.4501252484
 20
14.3684435295
 30
0.0
 10
6.5275078585
 20
14.3691731932
 30
0.0
 10
6.6009274493
 20
14.370049785
 30
0.0
 10
6.6696782184
 20
14.3710647746
 30
0.0
 10
6.7330977344
 20
14.3722074235
 30
0.0
 10
6.7823333349
 20
14.3732851447
 30
0.0
 10
6.8186025034
 20
14.374213869
 30
0.0
 10
6.8433096575
 20
14.3749149258
 30
0.0
 10
6.8662651344
 20
14.3756388857
 30
0.0
 10
6.887413883
 20
14.3763837933
 30
0.0
 10
6.9067042317
 20
14.3771478151
 30
0.0
 10
6.9240897716
 20
14.3779288457
 30
0.0
 10
6.9395294123
 20
14.3787243378
 30
0.0
 10
6.952986105
 20
14.3795312683
 30
0.0
 10
6.964427413
 20
14.3803475833
 30
0.0
 10
6.9726867347
 20
14.3810668298
 30
0.0
 10
6.9782644936
 20
14.381662091
 30
0.0
 10
6.9816740945
 20
14.3820822434
 30
0.0
 10
6.9845628502
 20
14.3825025275
 30
0.0
 10
6.9866412313
 20
14.3828696437
 30
0.0
 10
6.9880399705
 20
14.3831711026
 30
0.0
 10
6.9888954855
 20
14.3833836215
 30
0.0
 10
6.9896204988
 20
14.3835956492
 30
0.0
 10
6.990215249
 20
14.3838071344
 30
0.0
 10
6.9906814436
 20
14.3840174724
 30
0.0
 10
6.9910203127
 20
14.3842284724
 30
0.0
 10
6.991241376
 20
14.3844428518
 30
0.0
 10
6.991303285
 20
14.3846147006
 30
0.0
 10
6.9913033226
 20
14.3846896728
 30
0.0
  0
SPLINE
  5
4C8
100
AcDbEntity
  8
0
100
AcDbSpline
 62
7
  6
CONTINUOUS
 70
0
 71
3
 72
81
 73
77
 74
0
 42
0.0000001
 43
0.0000001
 44
0.0000000001
 40
0.0
 40
0.0
 40
0.0
 40
0.0
 40
0.0000142575
 40
0.0000444381
 40
0.0000926537
 40
0.0001593208
 40
0.0003484947
 40
0.000612438
 40
0.000951275
 40
0.0013650467
 40
0.0018537604
 40
0.0024173673
 40
0.0030557722
 40
0.0037688735
 40
0.0054187452
 40
0.0073661291
 40
0.0096099727
 40
0.0121488083
 40
0.0149811085
 40
0.018105341
 40
0.0215197436
 40
0.029210141
 40
0.0380341215
 40
0.0479707923
 40
0.0589959091
 40
0.0710841043
 40
0.0842055821
 40
0.0983291911
 40
0.1134219899
 40
0.129446518
 40
0.1463646115
 40
0.1827188846
 40
0.2221323863
 40
0.2642265564
 40
0.3085944171
 40
0.3548078891
 40
0.4024210979
 40
0.4509742819
 40
0.4999996657
 40
0.5490250451
 40
0.5975782514
 40
0.645191457
 40
0.6914049823
 40
0.735772852
 40
0.777867111
 40
0.8172806523
 40
0.853635014
 40
0.8705531307
 40
0.8865777206
 40
0.9016705622
 40
0.915794195
 40
0.928915723
 40
0.9410039474
 40
0.9520290903
 40
0.9619657936
 40
0.9707897891
 40
0.9784802097
 40
0.9818946199
 40
0.9850188564
 40
0.9878511628
 40
0.9903900051
 40
0.9926338536
 40
0.9945812406
 40
0.9962311165
 40
0.9969442199
 40
0.9975826267
 40
0.998146235
 40
0.9986349495
 40
0.999048722
 40
0.9993875597
 40
0.9996515038
 40
0.9998406784
 40
0.9999073458
 40
0.9999555616
 40
0.9999857424
 40
1.0
 40
1.0
 40
1.0
 40
1.0
 10
5.3013033228
 20
8.1943774684
 30
0.0
 10
5.3013033403
 20
8.1943852153
 30
0.0
 10
5.3013276832
 20
8.1944020052
 30
0.0
 10
5.3013728371
 20
8.1944151267
 30
0.0
 10
5.3014514889
 20
8.1944328786
 30
0.0
 10
5.3016138736
 20
8.1944575934
 30
0.0
 10
5.3018955344
 20
8.1944876512
 30
0.0
 10
5.3023241996
 20
8.1945211371
 30
0.0
 10
5.3028756544
 20
8.1945552126
 30
0.0
 10
5.3035492191
 20
8.1945894609
 30
0.0
 10
5.3043451073
 20
8.1946238459
 30
0.0
 10
5.3052631222
 20
8.1946582823
 30
0.0
 10
5.3063031405
 20
8.1946927481
 30
0.0
 10
5.3079332371
 20
8.194741081
 30
0.0
 10
5.3102745496
 20
8.1948002886
 30
0.0
 10
5.3134476089
 20
8.1948683912
 30
0.0
 10
5.317103789
 20
8.19493637
 30
0.0
 10
5.3212408669
 20
8.1950041607
 30
0.0
 10
5.325856369
 20
8.1950716699
 30
0.0
 10
5.3309476641
 20
8.1951388375
 30
0.0
 10
5.3386785137
 20
8.1952315687
 30
0.0
 10
5.3495063155
 20
8.1953446422
 30
0.0
 10
5.363878028
 20
8.1954736099
 30
0.0
 10
5.3800617572
 20
8.1956002008
 30
0.0
 10
5.3980191779
 20
8.1957240845
 30
0.0
 10
5.4177071331
 20
8.1958448662
 30
0.0
 10
5.4390787147
 20
8.1959622545
 30
0.0
 10
5.4620829016
 20
8.1960759313
 30
0.0
 10
5.4866645091
 20
8.1961855848
 30
0.0
 10
5.512764543
 20
8.1962909714
 30
0.0
 10
5.5504170485
 20
8.196428737
 30
0.0
 10
5.6007780574
 20
8.1965867233
 30
0.0
 10
5.6648186277
 20
8.1967513966
 30
0.0
 10
5.7332134778
 20
8.1968936255
 30
0.0
 10
5.8053031705
 20
8.1970119969
 30
0.0
 10
5.8803916948
 20
8.1971053252
 30
0.0
 10
5.9577543605
 20
8.1971726365
 30
0.0
 10
6.0366449089
 20
8.197213321
 30
0.0
 10
6.1163027754
 20
8.1972269004
 30
0.0
 10
6.195960654
 20
8.1972133211
 30
0.0
 10
6.2748512104
 20
8.1971726376
 30
0.0
 10
6.3522139155
 20
8.1971053256
 30
0.0
 10
6.4273024719
 20
8.1970119988
 30
0.0
 10
6.4993922467
 20
8.1968936264
 30
0.0
 10
6.5677871715
 20
8.196751399
 30
0.0
 10
6.6318278598
 20
8.1965867247
 30
0.0
 10
6.682188951
 20
8.1964287392
 30
0.0
 10
6.7198415507
 20
8.1962909729
 30
0.0
 10
6.7459416541
 20
8.1961855867
 30
0.0
 10
6.7705233313
 20
8.1960759331
 30
0.0
 10
6.7935275817
 20
8.1959622559
 30
0.0
 10
6.8148992194
 20
8.1958448679
 30
0.0
 10
6.834587232
 20
8.1957240858
 30
0.0
 10
6.8525447004
 20
8.1956002019
 30
0.0
 10
6.8687284695
 20
8.1954736112
 30
0.0
 10
6.8831002204
 20
8.1953446429
 30
0.0
 10
6.8939280472
 20
8.1952315695
 30
0.0
 10
6.9016589156
 20
8.1951388382
 30
0.0
 10
6.9067502205
 20
8.1950716704
 30
0.0
 10
6.9113657317
 20
8.1950041612
 30
0.0
 10
6.9155028193
 20
8.1949363705
 30
0.0
 10
6.9191590074
 20
8.1948683916
 30
0.0
 10
6.9223320733
 20
8.1948002889
 30
0.0
 10
6.9246733909
 20
8.1947410812
 30
0.0
 10
6.9263034919
 20
8.1946927484
 30
0.0
 10
6.9273435131
 20
8.1946582825
 30
0.0
 10
6.9282615302
 20
8.1946238461
 30
0.0
 10
6.9290574201
 20
8.194589461
 30
0.0
 10
6.9297309861
 20
8.1945552127
 30
0.0
 10
6.9302824422
 20
8.1945211372
 30
0.0
 10
6.9307111086
 20
8.1944876512
 30
0.0
 10
6.9309927704
 20
8.1944575935
 30
0.0
 10
6.9311551557
 20
8.1944328785
 30
0.0
 10
6.9312338079
 20
8.1944151267
 30
0.0
 10
6.9312789621
 20
8.1944020051
 30
0.0
 10
6.9313033052
 20
8.1943852153
 30
0.0
 10
6.9313033228
 20
8.1943774684
 30
0.0
  0
SPLINE
  5
4C9
100
AcDbEntity
  8
0
100
AcDbSpline
 62
7
  6
CONTINUOUS
 70
0
 71
3
 72
32
 73
28
 74
0
 42
0.0000001
 43
0.0000001
 44
0.0000000001
 40
0.0
 40
0.0
 40
0.0
 40
0.0
 40
0.0000843851
 40
0.0002961896
 40
0.0011304827
 40
0.0025173121
 40
0.0044566797
 40
0.0069475576
 40
0.0099886365
 40
0.0135784994
 40
0.0177156786
 40
0.0276259875
 40
0.0397074672
 40
0.053947897
 40
0.0703306485
 40
0.0888258897
 40
0.1094012938
 40
0.1566632442
 40
0.2118577504
 40
0.274692955
 40
0.3447801199
 40
0.4217128463
 40
0.5050778899
 40
0.5943820101
 40
0.6890801001
 40
0.7886260937
 40
1.0
 40
1.0
 40
1.0
 40
1.0
 10
6.9313033228
 20
8.1926495854
 30
0.0
 10
6.9313031581
 20
8.1926473884
 30
0.0
 10
6.9313129372
 20
8.1926436451
 30
0.0
 10
6.9313382873
 20
8.1926383189
 30
0.0
 10
6.9314051938
 20
8.1926311481
 30
0.0
 10
6.9315113938
 20
8.1926238397
 30
0.0
 10
6.9316640392
 20
8.1926160096
 30
0.0
 10
6.9318585811
 20
8.1926082776
 30
0.0
 10
6.9320967514
 20
8.192600489
 30
0.0
 10
6.9323777432
 20
8.1925927381
 30
0.0
 10
6.9328381251
 20
8.1925817609
 30
0.0
 10
6.9335201865
 20
8.192568523
 30
0.0
 10
6.9344660564
 20
8.1925534488
 30
0.0
 10
6.9355809268
 20
8.1925384174
 30
0.0
 10
6.936863269
 20
8.19252341
 30
0.0
 10
6.9383110206
 20
8.1925084821
 30
0.0
 10
6.9405649767
 20
8.1924877753
 30
0.0
 10
6.9437771106
 20
8.1924628645
 30
0.0
 10
6.9480926089
 20
8.1924350979
 30
0.0
 10
6.9530040666
 20
8.1924086035
 30
0.0
 10
6.9584830992
 20
8.192383458
 30
0.0
 10
6.9644981549
 20
8.1923597986
 30
0.0
 10
6.9710149536
 20
8.1923377436
 30
0.0
 10
6.9779955945
 20
8.1923174336
 30
0.0
 10
6.9853987091
 20
8.1922990205
 30
0.0
 10
6.9959889336
 20
8.1922767853
 30
0.0
 10
7.0041067072
 20
8.1922641156
 30
0.0
 10
7.009625447
 20
8.1922569688
 30
0.0
  0
LINE
  5
4CA
100
AcDbEntity
  8
0
100
AcDbLine
 62
7
  6
CONTINUOUS
 10
5.2413033228
 20
8.2543770918
 11
5.2494650493
 21
8.2547647651
  0
SPLINE
  5
4CB
100
AcDbEntity
  8
0
100
AcDbSpline
 62
7
  6
CONTINUOUS
 70
0
 71
3
 72
56
 73
52
 74
0
 42
0.0000001
 43
0.0000001
 44
0.0000000001
 40
0.0
 40
0.0
 40
0.0
 40
0.0
 40
0.003759154
 40
0.0086055793
 40
0.0215158643
 40
0.0386187611
 40
0.0597650117
 40
0.0847703642
 40
0.1134165051
 40
0.1805941216
 40
0.2589377947
 40
0.3456880734
 40
0.4377875556
 40
0.5319926605
 40
0.57884896
 40
0.6249901598
 40
0.6700078369
 40
0.7135061727
 40
0.7550988822
 40
0.7944211032
 40
0.8311234108
 40
0.8648840001
 40
0.8805662885
 40
0.8954043662
 40
0.909364726
 40
0.9224166343
 40
0.9345324971
 40
0.9456850476
 40
0.9558499916
 40
0.9650056908
 40
0.9731313925
 40
0.9802100349
 40
0.9833517175
 40
0.9862258572
 40
0.9888310583
 40
0.9911659694
 40
0.9932292415
 40
0.9950196657
 40
0.9965364176
 40
0.9971919335
 40
0.9977787536
 40
0.9982967896
 40
0.9987459624
 40
0.9991262445
 40
0.9994376415
 40
0.9996801875
 40
0.9998539889
 40
0.9999152134
 40
0.9999594614
 40
0.9999870981
 40
1.0
 40
1.0
 40
1.0
 40
1.0
 10
5.2494650493
 20
8.2547647651
 30
0.0
 10
5.2516470991
 20
8.2548163438
 30
0.0
 10
5.2566428231
 20
8.2549127221
 30
0.0
 10
5.2691340664
 20
8.2551010929
 30
0.0
 10
5.2893733396
 20
8.2553184591
 30
0.0
 10
5.3190768169
 20
8.2555595757
 30
0.0
 10
5.355803253
 20
8.2557922144
 30
0.0
 10
5.3992321396
 20
8.2560146198
 30
0.0
 10
5.4693879496
 20
8.2563090517
 30
0.0
 10
5.5705134849
 20
8.2566210864
 30
0.0
 10
5.7053759077
 20
8.2569072393
 30
0.0
 10
5.8547087594
 20
8.2571089991
 30
0.0
 10
6.0132512521
 20
8.2572186973
 30
0.0
 10
6.1486303341
 20
8.2572297844
 30
0.0
 10
6.2573248669
 20
8.2571890184
 30
0.0
 10
6.337459931
 20
8.2571339371
 30
0.0
 10
6.4156452559
 20
8.2570547542
 30
0.0
 10
6.4911895837
 20
8.2569522731
 30
0.0
 10
6.5634269481
 20
8.2568273371
 30
0.0
 10
6.6317183198
 20
8.2566812031
 30
0.0
 10
6.6954621058
 20
8.2565151227
 30
0.0
 10
6.7454799226
 20
8.2563579029
 30
0.0
 10
6.7828028147
 20
8.2562219514
 30
0.0
 10
6.808629236
 20
8.2561185111
 30
0.0
 10
6.8329283633
 20
8.2560112994
 30
0.0
 10
6.8556468709
 20
8.2559005549
 30
0.0
 10
6.876735056
 20
8.2557865646
 30
0.0
 10
6.8961469529
 20
8.2556695843
 30
0.0
 10
6.9138400524
 20
8.2555499002
 30
0.0
 10
6.9297756258
 20
8.2554278592
 30
0.0
 10
6.9439191381
 20
8.2553037412
 30
0.0
 10
6.9545707541
 20
8.2551950902
 30
0.0
 10
6.9621732098
 20
8.2551060732
 30
0.0
 10
6.9671783794
 20
8.2550416415
 30
0.0
 10
6.9717150707
 20
8.254976919
 30
0.0
 10
6.9757808951
 20
8.2549119579
 30
0.0
 10
6.97937357
 20
8.2548468425
 30
0.0
 10
6.9824911095
 20
8.2547816311
 30
0.0
 10
6.9847912598
 20
8.2547249551
 30
0.0
 10
6.9863925893
 20
8.2546786981
 30
0.0
 10
6.9874141776
 20
8.2546457172
 30
0.0
 10
6.9883158814
 20
8.2546127679
 30
0.0
 10
6.9890976002
 20
8.2545798698
 30
0.0
 10
6.9897591511
 20
8.2545471069
 30
0.0
 10
6.9903007694
 20
8.2545145096
 30
0.0
 10
6.9907217417
 20
8.2544824849
 30
0.0
 10
6.9909984026
 20
8.2544537272
 30
0.0
 10
6.9911578096
 20
8.2544301014
 30
0.0
 10
6.9912351278
 20
8.2544131082
 30
0.0
 10
6.9912791744
 20
8.2544006225
 30
0.0
 10
6.9913033183
 20
8.254384583
 30
0.0
 10
6.9913033228
 20
8.2543770918
 30
0.0
  0
SPLINE
  5
4CC
100
AcDbEntity
  8
0
100
AcDbSpline
 62
7
  6
CONTINUOUS
 70
0
 71
3
 72
67
 73
63
 74
0
 42
0.0000001
 43
0.0000001
 44
0.0000000001
 40
0.0
 40
0.0
 40
0.0
 40
0.0
 40
0.0002879625
 40
0.000512424
 40
0.0008026252
 40
0.0011621751
 40
0.0015929156
 40
0.0020958838
 40
0.002671706
 40
0.0040432983
 40
0.0057095973
 40
0.0076710001
 40
0.009926741
 40
0.0153166325
 40
0.021869115
 40
0.0295715465
 40
0.0384046683
 40
0.0483471293
 40
0.0593771966
 40
0.0714684822
 40
0.0845903159
 40
0.0987118248
 40
0.1138006373
 40
0.1467276994
 40
0.1830560309
 40
0.2224347408
 40
0.2644876611
 40
0.308808254
 40
0.3549711618
 40
0.4025309245
 40
0.4510295221
 40
0.4999998328
 40
0.5489701354
 40
0.5974687463
 40
0.6450285015
 40
0.6911914473
 40
0.7355120465
 40
0.7775649979
 40
0.8169437263
 40
0.8532720315
 40
0.8861991416
 40
0.9012879328
 40
0.9154094318
 40
0.9285313267
 40
0.9406226563
 40
0.9516526991
 40
0.9615952119
 40
0.9704284146
 40
0.9781308686
 40
0.9846833732
 40
0.990073318
 40
0.9923290736
 40
0.9942904705
 40
0.9959567445
 40
0.9973283148
 40
0.9979041281
 40
0.998407089
 40
0.9988378239
 40
0.9991973701
 40
0.9994875697
 40
0.9997120318
 40
1.0
 40
1.0
 40
1.0
 40
1.0
 10
6.9913033226
 20
8.7560249579
 30
0.0
 10
6.9913032429
 20
8.7561930942
 30
0.0
 10
6.9910749155
 20
8.7564584351
 30
0.0
 10
6.9906831976
 20
8.7566940424
 30
0.0
 10
6.990214497
 20
8.7569086605
 30
0.0
 10
6.9896206163
 20
8.7571185739
 30
0.0
 10
6.9888952398
 20
8.7573311571
 30
0.0
 10
6.9880397858
 20
8.7575434949
 30
0.0
 10
6.9866409432
 20
8.7578450374
 30
0.0
 10
6.9845625292
 20
8.7582121133
 30
0.0
 10
6.9816736938
 20
8.7586324308
 30
0.0
 10
6.978264022
 20
8.759052582
 30
0.0
 10
6.9726861383
 20
8.7596478487
 30
0.0
 10
6.9644266855
 20
8.7603670879
 30
0.0
 10
6.9529852624
 20
8.7611834029
 30
0.0
 10
6.9395284885
 20
8.761990332
 30
0.0
 10
6.9240887801
 20
8.7627858165
 30
0.0
 10
6.9067032036
 20
8.7635668426
 30
0.0
 10
6.8874128609
 20
8.7643308645
 30
0.0
 10
6.8662641435
 20
8.7650757662
 30
0.0
 10
6.8433086976
 20
8.7657997202
 30
0.0
 10
6.8186015856
 20
8.7665007726
 30
0.0
 10
6.7823324837
 20
8.7674294926
 30
0.0
 10
6.7330969646
 20
8.768507208
 30
0.0
 10
6.6696775459
 20
8.769649853
 30
0.0
 10
6.6009269076
 20
8.7706648374
 30
0.0
 10
6.5275074881
 20
8.7715414277
 30
0.0
 10
6.4501251099
 20
8.7722710844
 30
0.0
 10
6.3695260013
 20
8.7728462206
 30
0.0
 10
6.2864864176
 20
8.773261151
 30
0.0
 10
6.2018069772
 20
8.7735118632
 30
0.0
 10
6.1163036183
 20
8.7735955915
 30
0.0
 10
6.0308002515
 20
8.7735118616
 30
0.0
 10
5.9461208125
 20
8.7732611541
 30
0.0
 10
5.8630812032
 20
8.7728462181
 30
0.0
 10
5.7824820731
 20
8.7722710886
 30
0.0
 10
5.705099651
 20
8.7715414269
 30
0.0
 10
5.6316801988
 20
8.7706648397
 30
0.0
 10
5.5629295469
 20
8.7696498573
 30
0.0
 10
5.4995101048
 20
8.7685072078
 30
0.0
 10
5.4502745854
 20
8.7674295009
 30
0.0
 10
5.4140054735
 20
8.7665007791
 30
0.0
 10
5.3892983441
 20
8.7657997236
 30
0.0
 10
5.3663428424
 20
8.7650757732
 30
0.0
 10
5.3451940777
 20
8.764330875
 30
0.0
 10
5.3259036938
 20
8.7635668436
 30
0.0
 10
5.3085180541
 20
8.7627858178
 30
0.0
 10
5.2930782548
 20
8.7619903374
 30
0.0
 10
5.2796214077
 20
8.7611834033
 30
0.0
 10
5.2681799279
 20
8.7603670799
 30
0.0
 10
5.2599204224
 20
8.7596478395
 30
0.0
 10
5.2543425027
 20
8.7590525682
 30
0.0
 10
5.2509328407
 20
8.7586324141
 30
0.0
 10
5.2480440375
 20
8.7582120896
 30
0.0
 10
5.2459656571
 20
8.7578450113
 30
0.0
 10
5.2445668376
 20
8.7575434673
 30
0.0
 10
5.243711397
 20
8.7573311285
 30
0.0
 10
5.2429860309
 20
8.7571185442
 30
0.0
 10
5.2423921573
 20
8.7569086295
 30
0.0
 10
5.2419234605
 20
8.7566940106
 30
0.0
 10
5.2415317408
 20
8.7564583984
 30
0.0
 10
5.2413034114
 20
8.7561930609
 30
0.0
 10
5.241303323
 20
8.7560249213
 30
0.0
  0
SPLINE
  5
4CD
100
AcDbEntity
  8
0
100
AcDbSpline
 62
7
  6
CONTINUOUS
 70
0
 71
3
 72
15
 73
11
 74
0
 42
0.0000001
 43
0.0000001
 44
0.0000000001
 40
0.0
 40
0.0
 40
0.0
 40
0.0
 40
0.1249174975
 40
0.2500197573
 40
0.3750036049
 40
0.4999972956
 40
0.6249885363
 40
0.7499728381
 40
0.8750790544
 40
1.0
 40
1.0
 40
1.0
 40
1.0
 10
4.8303898065
 20
13.2399223528
 30
0.0
 10
4.8243427347
 20
13.2388498048
 30
0.0
 10
4.8124046123
 20
13.235623448
 30
0.0
 10
4.7956283847
 20
13.2277644504
 30
0.0
 10
4.7804670232
 20
13.2171008351
 30
0.0
 10
4.7673920906
 20
13.2039737326
 30
0.0
 10
4.7567776194
 20
13.1887878035
 30
0.0
 10
4.7489576838
 20
13.171982135
 30
0.0
 10
4.7441790633
 20
13.1540833187
 30
0.0
 10
4.7430980678
 20
13.1417648307
 30
0.0
 10
4.7430992487
 20
13.135623209
 30
0.0
  0
SPLINE
  5
4CE
100
AcDbEntity
  8
0
100
AcDbSpline
 62
7
  6
CONTINUOUS
 70
0
 71
3
 72
15
 73
11
 74
0
 42
0.0000001
 43
0.0000001
 44
0.0000000001
 40
0.0
 40
0.0
 40
0.0
 40
0.0
 40
0.1249189347
 40
0.2500217351
 40
0.3750057061
 40
0.4999976362
 40
0.6249908785
 40
0.7499749555
 40
0.8750805233
 40
1.0
 40
1.0
 40
1.0
 40
1.0
 10
4.7430992487
 20
10.0050914019
 30
0.0
 10
4.7430980569
 20
9.9989498122
 30
0.0
 10
4.7441788822
 20
9.9866314335
 30
0.0
 10
4.7489577115
 20
9.968732756
 30
0.0
 10
4.7567775301
 20
9.9519269932
 30
0.0
 10
4.7673920927
 20
9.9367408739
 30
0.0
 10
4.7804671613
 20
9.9236135987
 30
0.0
 10
4.7956288334
 20
9.9129497732
 30
0.0
 10
4.8124056597
 20
9.9050909447
 30
0.0
 10
4.8243441299
 20
9.9018644135
 30
0.0
 10
4.8303913638
 20
9.9007918399
 30
0.0
  0
LINE
  5
4CF
100
AcDbEntity
  8
0
100
AcDbLine
 62
7
  6
CONTINUOUS
 10
6.9913033237
 20
8.2526491464
 11
6.9993505013
 21
8.2524396554
  0
LINE
  5
4D0
100
AcDbEntity
  8
0
100
AcDbLine
 62
7
  6
CONTINUOUS
 10
6.9993505013
 20
8.2524396554
 11
7.0512944626
 21
8.2522303472
  0
SPLINE
  5
4D1
100
AcDbEntity
  8
0
100
AcDbSpline
 62
7
  6
CONTINUOUS
 70
0
 71
3
 72
13
 73
9
 74
0
 42
0.0000001
 43
0.0000001
 44
0.0000000001
 40
0.0
 40
0.0
 40
0.0
 40
0.0
 40
0.2309966891
 40
0.4713752317
 40
0.5970833725
 40
0.7272694926
 40
0.8623358349
 40
1.0
 40
1.0
 40
1.0
 40
1.0
 10
6.9922756836
 20
8.7630694912
 30
0.0
 10
6.9933551881
 20
8.7717418932
 30
0.0
 10
6.997396525
 20
8.7892613281
 30
0.0
 10
7.0070476116
 20
8.8098834634
 30
0.0
 10
7.0176356973
 20
8.8254272659
 30
0.0
 10
7.0273048334
 20
8.8366663607
 30
0.0
 10
7.038550606
 20
8.8470042553
 30
0.0
 10
7.0469147695
 20
8.853094172
 30
0.0
 10
7.0513033228
 20
8.855898927
 30
0.0
  0
SPLINE
  5
4D2
100
AcDbEntity
  8
0
100
AcDbSpline
 62
7
  6
CONTINUOUS
 70
0
 71
3
 72
81
 73
77
 74
0
 42
0.0000001
 43
0.0000001
 44
0.0000000001
 40
0.0
 40
0.0
 40
0.0
 40
0.0
 40
0.0000142575
 40
0.0000444376
 40
0.0000926522
 40
0.0001593177
 40
0.0003484868
 40
0.0006124231
 40
0.0009512509
 40
0.0013650112
 40
0.0018537111
 40
0.0024173007
 40
0.0030556849
 40
0.0037687626
 40
0.0054185794
 40
0.0073659004
 40
0.0096096566
 40
0.012148384
 40
0.0149805697
 40
0.0181046924
 40
0.0215189479
 40
0.0292089816
 40
0.0380326204
 40
0.0479687796
 40
0.0589934431
 40
0.0710811106
 40
0.0842019172
 40
0.0983250788
 40
0.1134172177
 40
0.1294409882
 40
0.1463586861
 40
0.1827117936
 40
0.2221249405
 40
0.2642188708
 40
0.3085876492
 40
0.3548021887
 40
0.4024169139
 40
0.4509714695
 40
0.4999981933
 40
0.5490248988
 40
0.5975795795
 40
0.6451942914
 40
0.6914091198
 40
0.7357779447
 40
0.77787238
 40
0.8172857356
 40
0.8536393836
 40
0.8705571737
 40
0.8865812582
 40
0.9016736574
 40
0.9157969346
 40
0.9289179951
 40
0.9410058369
 40
0.9520306218
 40
0.9619669496
 40
0.9707906692
 40
0.9784808182
 40
0.9818951149
 40
0.9850192579
 40
0.9878514737
 40
0.9903902333
 40
0.9926340135
 40
0.9945813494
 40
0.9962311863
 40
0.9969442742
 40
0.9975826678
 40
0.9981462652
 40
0.998634971
 40
0.9990487372
 40
0.9993875706
 40
0.9996515116
 40
0.9998406837
 40
0.9999073499
 40
0.9999555644
 40
0.9999857437
 40
1.0
 40
1.0
 40
1.0
 40
1.0
 10
5.3013033228
 20
14.9463371425
 30
0.0
 10
5.3013033406
 20
14.9463293957
 30
0.0
 10
5.301327683
 20
14.9463126063
 30
0.0
 10
5.3013728364
 20
14.9462994846
 30
0.0
 10
5.3014514864
 20
14.9462817331
 30
0.0
 10
5.3016138671
 20
14.9462570184
 30
0.0
 10
5.3018955206
 20
14.9462269611
 30
0.0
 10
5.3023241744
 20
14.9461934755
 30
0.0
 10
5.3028756141
 20
14.9461594005
 30
0.0
 10
5.3035491602
 20
14.9461251527
 30
0.0
 10
5.3043450254
 20
14.9460907683
 30
0.0
 10
5.3052630122
 20
14.9460563325
 30
0.0
 10
5.3063029969
 20
14.9460218673
 30
0.0
 10
5.3079330396
 20
14.9459735353
 30
0.0
 10
5.3102742752
 20
14.9459143288
 30
0.0
 10
5.3134472231
 20
14.9458462278
 30
0.0
 10
5.3171032627
 20
14.9457782501
 30
0.0
 10
5.3212401721
 20
14.9457104607
 30
0.0
 10
5.3258554935
 20
14.9456429528
 30
0.0
 10
5.3309465869
 20
14.9455757873
 30
0.0
 10
5.3386770992
 20
14.9454830581
 30
0.0
 10
5.3495044379
 20
14.9453699861
 30
0.0
 10
5.3638754891
 20
14.9452410235
 30
0.0
 10
5.3800585083
 20
14.9451144327
 30
0.0
 10
5.398015118
 20
14.9449905533
 30
0.0
 10
5.4177021756
 20
14.9448697741
 30
0.0
 10
5.4390728627
 20
14.9447523848
 30
0.0
 10
5.4620760832
 20
14.9446387134
 30
0.0
 10
5.4866566773
 20
14.9445290596
 30
0.0
 10
5.5127557261
 20
14.9444236707
 30
0.0
 10
5.5504069717
 20
14.9442859112
 30
0.0
 10
5.6007669396
 20
14.9441279147
 30
0.0
 10
5.6648065535
 20
14.943963247
 30
0.0
 10
5.7332015792
 20
14.9438210026
 30
0.0
 10
5.8052922202
 20
14.9437026337
 30
0.0
 10
5.8803826472
 20
14.943609292
 30
0.0
 10
5.9577474621
 20
14.9435419813
 30
0.0
 10
6.0366403079
 20
14.9435012903
 30
0.0
 10
6.1163003683
 20
14.9434877113
 30
0.0
 10
6.1959604967
 20
14.9435012897
 30
0.0
 10
6.2748533933
 20
14.9435419758
 30
0.0
 10
6.352218426
 20
14.9436092897
 30
0.0
 10
6.4273090279
 20
14.9437026238
 30
0.0
 10
6.4994001256
 20
14.9438209982
 30
0.0
 10
6.5677955644
 20
14.9439632345
 30
0.0
 10
6.6318358598
 20
14.9441279083
 30
0.0
 10
6.6821962848
 20
14.944285899
 30
0.0
 10
6.7198480448
 20
14.9444236629
 30
0.0
 10
6.7459474557
 20
14.9445290503
 30
0.0
 10
6.7705284248
 20
14.9446387035
 30
0.0
 10
6.7935319874
 20
14.944752378
 30
0.0
 10
6.81490297
 20
14.9448697662
 30
0.0
 10
6.8345903262
 20
14.9449905462
 30
0.0
 10
6.8525471882
 20
14.9451144275
 30
0.0
 10
6.8687304089
 20
14.9452410175
 30
0.0
 10
6.8831016582
 20
14.9453699822
 30
0.0
 10
6.8939291259
 20
14.9454830541
 30
0.0
 10
6.9016597343
 20
14.9455757838
 30
0.0
 10
6.9067508774
 20
14.9456429501
 30
0.0
 10
6.9113662437
 20
14.9457104583
 30
0.0
 10
6.9155032
 20
14.9457782479
 30
0.0
 10
6.9191592783
 20
14.9458462257
 30
0.0
 10
6.9223322582
 20
14.9459143273
 30
0.0
 10
6.9246735183
 20
14.945973534
 30
0.0
 10
6.9263035826
 20
14.9460218661
 30
0.0
 10
6.9273435823
 20
14.9460563315
 30
0.0
 10
6.9282615816
 20
14.9460907674
 30
0.0
 10
6.9290574574
 20
14.9461251521
 30
0.0
 10
6.9297310129
 20
14.9461594001
 30
0.0
 10
6.9302824615
 20
14.9461934753
 30
0.0
 10
6.9307111225
 20
14.9462269608
 30
0.0
 10
6.9309927807
 20
14.9462570185
 30
0.0
 10
6.9311551632
 20
14.9462817327
 30
0.0
 10
6.9312338133
 20
14.946299485
 30
0.0
 10
6.9312789652
 20
14.946312605
 30
0.0
 10
6.9313033066
 20
14.9463293963
 30
0.0
 10
6.9313033228
 20
14.9463371425
 30
0.0
  0
SPLINE
  5
4D3
100
AcDbEntity
  8
0
100
AcDbSpline
 62
7
  6
CONTINUOUS
 70
0
 71
3
 72
32
 73
28
 74
0
 42
0.0000001
 43
0.0000001
 44
0.0000000001
 40
0.0
 40
0.0
 40
0.0
 40
0.0
 40
0.0000841614
 40
0.0002957147
 40
0.0011298652
 40
0.0025170872
 40
0.0044573798
 40
0.0069497015
 40
0.0099927272
 40
0.0135850232
 40
0.0177251044
 40
0.0276425546
 40
0.039732841
 40
0.0539835991
 40
0.0703778011
 40
0.0888852881
 40
0.1094735763
 40
0.1567625838
 40
0.2119848031
 40
0.2748454034
 40
0.3449534759
 40
0.4219016448
 40
0.5052746501
 40
0.5945744165
 40
0.6892533102
 40
0.7887628951
 40
1.0
 40
1.0
 40
1.0
 40
1.0
 10
5.3013033228
 20
14.9480650255
 30
0.0
 10
5.3013035085
 20
14.9480672261
 30
0.0
 10
5.3012936974
 20
14.9480710409
 30
0.0
 10
5.3012682449
 20
14.9480763535
 30
0.0
 10
5.3012009933
 20
14.9480836263
 30
0.0
 10
5.3010942348
 20
14.9480909406
 30
0.0
 10
5.3009407457
 20
14.9480988189
 30
0.0
 10
5.3007451127
 20
14.9481065705
 30
0.0
 10
5.3005055905
 20
14.9481143801
 30
0.0
 10
5.3002229937
 20
14.9481221435
 30
0.0
 10
5.2997599678
 20
14.9481331333
 30
0.0
 10
5.29907398
 20
14.9481463762
 30
0.0
 10
5.2981226621
 20
14.9481614534
 30
0.0
 10
5.2970013809
 20
14.9481764945
 30
0.0
 10
5.2957116956
 20
14.9481915252
 30
0.0
 10
5.2942557021
 20
14.9482064855
 30
0.0
 10
5.2919890397
 20
14.9482272463
 30
0.0
 10
5.2887589745
 20
14.9482522331
 30
0.0
 10
5.2844196671
 20
14.9482800753
 30
0.0
 10
5.2794815643
 20
14.9483066186
 30
0.0
 10
5.2739733539
 20
14.9483317964
 30
0.0
 10
5.267926882
 20
14.9483554755
 30
0.0
 10
5.2613768065
 20
14.9483775449
 30
0.0
 10
5.2543614648
 20
14.9483978578
 30
0.0
 10
5.2469226888
 20
14.9484162535
 30
0.0
 10
5.2362842486
 20
14.9484384175
 30
0.0
 10
5.2281301911
 20
14.9484510041
 30
0.0
 10
5.2225872841
 20
14.9484581138
 30
0.0
  0
SPLINE
  5
4D4
100
AcDbEntity
  8
0
100
AcDbSpline
 62
7
  6
CONTINUOUS
 70
0
 71
3
 72
14
 73
10
 74
0
 42
0.0000001
 43
0.0000001
 44
0.0000000001
 40
0.0
 40
0.0
 40
0.0
 40
0.0
 40
0.3368812268
 40
0.4935521944
 40
0.6365144729
 40
0.7618376098
 40
0.8659874772
 40
0.9461347149
 40
1.0
 40
1.0
 40
1.0
 40
1.0
 10
12.7108448484
 20
10.043499758
 30
0.0
 10
12.7109349275
 20
10.0369497763
 30
0.0
 10
12.7110403882
 20
10.0273532329
 30
0.0
 10
12.7111166227
 20
10.0149765335
 30
0.0
 10
12.7111368598
 20
10.0067133132
 30
0.0
 10
12.7111212147
 20
9.9994713932
 30
0.0
 10
12.7110723555
 20
9.9934509184
 30
0.0
 10
12.7109893974
 20
9.9888207759
 30
0.0
 10
12.7109063171
 20
9.9862156993
 30
0.0
 10
12.7108448478
 20
9.9851701029
 30
0.0
  0
SPLINE
  5
4D5
100
AcDbEntity
  8
0
100
AcDbSpline
 62
7
  6
CONTINUOUS
 70
0
 71
3
 72
15
 73
11
 74
0
 42
0.0000001
 43
0.0000001
 44
0.0000000001
 40
0.0
 40
0.0
 40
0.0
 40
0.0
 40
0.1258454331
 40
0.2517673726
 40
0.3772794776
 40
0.5024573298
 40
0.6272588278
 40
0.751697895
 40
0.8760237122
 40
1.0
 40
1.0
 40
1.0
 40
1.0
 10
10.0019948932
 20
9.946025239
 30
0.0
 10
9.9990257154
 20
9.9459738015
 30
0.0
 10
9.9930804827
 20
9.9452964892
 30
0.0
 10
9.9845353366
 20
9.9426194099
 30
0.0
 10
9.9766709968
 20
9.9383607865
 30
0.0
 10
9.9697935041
 20
9.9326872021
 30
0.0
 10
9.9641484571
 20
9.9258183936
 30
0.0
 10
9.9599556624
 20
9.917998454
 30
0.0
 10
9.9573823916
 20
9.9095310716
 30
0.0
 10
9.9567977039
 20
9.9036561069
 30
0.0
 10
9.9567977039
 20
9.9007305905
 30
0.0
  0
SPLINE
  5
4D6
100
AcDbEntity
  8
0
100
AcDbSpline
 62
7
  6
CONTINUOUS
 70
0
 71
3
 72
26
 73
22
 74
0
 42
0.0000001
 43
0.0000001
 44
0.0000000001
 40
0.0
 40
0.0
 40
0.0
 40
0.0
 40
0.0004640399
 40
0.001390301
 40
0.0048616885
 40
0.0105459945
 40
0.0184460865
 40
0.0285532898
 40
0.0408557122
 40
0.0553402149
 40
0.0719930754
 40
0.1117075779
 40
0.1596856955
 40
0.2155724156
 40
0.279012099
 40
0.3496243195
 40
0.4269304989
 40
0.5104274185
 40
0.5996117824
 40
0.7926349504
 40
1.0
 40
1.0
 40
1.0
 40
1.0
 10
12.9540665032
 20
9.5136748266
 30
0.0
 10
12.9540733485
 20
9.5136749461
 30
0.0
 10
12.9540886838
 20
9.5136940724
 30
0.0
 10
12.9541091696
 20
9.5137596418
 30
0.0
 10
12.9541351599
 20
9.5139096148
 30
0.0
 10
12.9541603014
 20
9.5141582023
 30
0.0
 10
12.9541857121
 20
9.5145076496
 30
0.0
 10
12.9542091461
 20
9.5149539244
 30
0.0
 10
12.9542310518
 20
9.5154979279
 30
0.0
 10
12.9542510281
 20
9.5161384828
 30
0.0
 10
12.9542765656
 20
9.5171835194
 30
0.0
 10
12.9543016465
 20
9.5187228085
 30
0.0
 10
12.9543223678
 20
9.5208410446
 30
0.0
 10
12.9543347306
 20
9.52330938
 30
0.0
 10
12.9543385978
 20
9.5261116787
 30
0.0
 10
12.9543338051
 20
9.5292299911
 30
0.0
 10
12.9543204168
 20
9.5326441985
 30
0.0
 10
12.9542984916
 20
9.5363323741
 30
0.0
 10
12.9542568405
 20
9.5417277075
 30
0.0
 10
12.9541836595
 20
9.5489503517
 30
0.0
 10
12.9541087901
 20
9.5548570889
 30
0.0
 10
12.954066515
 20
9.5579161973
 30
0.0
  0
SPLINE
  5
4D7
100
AcDbEntity
  8
0
100
AcDbSpline
 62
7
  6
CONTINUOUS
 70
0
 71
3
 72
20
 73
16
 74
0
 42
0.0000001
 43
0.0000001
 44
0.0000000001
 40
0.0
 40
0.0
 40
0.0
 40
0.0
 40
0.1703598739
 40
0.3349744714
 40
0.4885978451
 40
0.5599919376
 40
0.6271450863
 40
0.6896791237
 40
0.7473635637
 40
0.8000635532
 40
0.8478283863
 40
0.8909722388
 40
0.9300765581
 40
0.9660310969
 40
1.0
 40
1.0
 40
1.0
 40
1.0
 10
12.9540665167
 20
9.7346721799
 30
0.0
 10
12.9624661086
 20
9.734735755
 30
0.0
 10
12.9789860872
 20
9.7355459862
 30
0.0
 10
13.00288779
 20
9.7387778998
 30
0.0
 10
13.0216409605
 20
9.7431149004
 30
0.0
 10
13.0353656268
 20
9.747515522
 30
0.0
 10
13.0446141201
 20
9.7511074096
 30
0.0
 10
13.0529845133
 20
9.7550366284
 30
0.0
 10
13.0604058672
 20
9.7592539143
 30
0.0
 10
13.066816773
 20
9.7637156564
 30
0.0
 10
13.0721626009
 20
9.7683849262
 30
0.0
 10
13.0764005895
 20
9.7732259927
 30
0.0
 10
13.0794767241
 20
9.778214954
 30
0.0
 10
13.0813541614
 20
9.7832932826
 30
0.0
 10
13.08179377
 20
9.7867513946
 30
0.0
 10
13.0817977039
 20
9.7884262744
 30
0.0
  0
SPLINE
  5
4D8
100
AcDbEntity
  8
0
100
AcDbSpline
 62
7
  6
CONTINUOUS
 70
0
 71
3
 72
24
 73
20
 74
0
 42
0.0000001
 43
0.0000001
 44
0.0000000001
 40
0.0
 40
0.0
 40
0.0
 40
0.0
 40
0.1906389699
 40
0.373540261
 40
0.4598287359
 40
0.5416457076
 40
0.618281872
 40
0.6890623579
 40
0.753362891
 40
0.810709592
 40
0.8606868085
 40
0.9029948788
 40
0.9375137684
 40
0.9518785508
 40
0.964380967
 40
0.9751567643
 40
0.9844250416
 40
0.9925335597
 40
1.0
 40
1.0
 40
1.0
 40
1.0
 10
12.9540665167
 20
9.7678686265
 30
0.0
 10
12.962460946
 20
9.7678911217
 30
0.0
 10
12.9789094596
 20
9.7681965748
 30
0.0
 10
12.9991352973
 20
9.7692262428
 30
0.0
 10
13.0145442807
 20
9.7704417429
 30
0.0
 10
13.0252692026
 20
9.7715059879
 30
0.0
 10
13.0352899936
 20
9.7727264668
 30
0.0
 10
13.0445139454
 20
9.7740869403
 30
0.0
 10
13.0528573804
 20
9.7755731665
 30
0.0
 10
13.0602463393
 20
9.7771678687
 30
0.0
 10
13.0666190284
 20
9.7788553017
 30
0.0
 10
13.071920556
 20
9.7806187359
 30
0.0
 10
13.0756175891
 20
9.7822109697
 30
0.0
 10
13.0779727026
 20
9.78354318
 30
0.0
 10
13.0793373055
 20
9.7844893568
 30
0.0
 10
13.080411246
 20
9.7854452209
 30
0.0
 10
13.0811942992
 20
9.7864160507
 30
0.0
 10
13.0816804745
 20
9.7874087059
 30
0.0
 10
13.081795742
 20
9.7880975084
 30
0.0
 10
13.0817977039
 20
9.7884262744
 30
0.0
  0
SPLINE
  5
4D9
100
AcDbEntity
  8
0
100
AcDbSpline
 62
7
  6
CONTINUOUS
 70
0
 71
3
 72
8
 73
4
 74
0
 42
0.0000001
 43
0.0000001
 44
0.0000000001
 40
0.0
 40
0.0
 40
0.0
 40
0.0
 40
1.0
 40
1.0
 40
1.0
 40
1.0
 10
10.0019948932
 20
10.0050912858
 30
0.0
 10
10.9049390432
 20
10.0182992248
 30
0.0
 10
11.8078895404
 20
10.0310780182
 30
0.0
 10
12.7108448483
 20
10.0434997586
 30
0.0
  0
SPLINE
  5
4DA
100
AcDbEntity
  8
0
100
AcDbSpline
 62
7
  6
CONTINUOUS
 70
0
 71
3
 72
19
 73
15
 74
0
 42
0.0000001
 43
0.0000001
 44
0.0000000001
 40
0.0
 40
0.0
 40
0.0
 40
0.0
 40
0.0406662409
 40
0.0820401749
 40
0.1250952793
 40
0.1706755624
 40
0.2449422213
 40
0.3275612811
 40
0.4193481672
 40
0.5206028314
 40
0.6307912308
 40
0.7488045386
 40
0.8728194716
 40
1.0
 40
1.0
 40
1.0
 40
1.0
 10
13.0817977039
 20
10.4855539299
 30
0.0
 10
13.0817939521
 20
10.4834085938
 30
0.0
 10
13.0814218104
 20
10.479072406
 30
0.0
 10
13.0797606603
 20
10.4726563717
 30
0.0
 10
13.0770004707
 20
10.4663480335
 30
0.0
 10
13.0724390614
 20
10.4590341273
 30
0.0
 10
13.0653315305
 20
10.4509768459
 30
0.0
 10
13.0551133012
 20
10.4426731997
 30
0.0
 10
13.0426311291
 20
10.4351333128
 30
0.0
 10
13.0280216754
 20
10.4285368616
 30
0.0
 10
13.0114935398
 20
10.4230692337
 30
0.0
 10
12.9933508643
 20
10.4189354098
 30
0.0
 10
12.9740282233
 20
10.4163075059
 30
0.0
 10
12.9607755939
 20
10.4156286981
 30
0.0
 10
12.9540665167
 20
10.4155645913
 30
0.0
  0
SPLINE
  5
4DB
100
AcDbEntity
  8
0
100
AcDbSpline
 62
7
  6
CONTINUOUS
 70
0
 71
3
 72
21
 73
17
 74
0
 42
0.0000001
 43
0.0000001
 44
0.0000000001
 40
0.0
 40
0.0
 40
0.0
 40
0.0
 40
0.084967536
 40
0.1690614797
 40
0.2512200144
 40
0.3306936618
 40
0.4436443285
 40
0.5479619624
 40
0.6428982302
 40
0.7285051803
 40
0.8054216069
 40
0.8748541603
 40
0.9073486621
 40
0.938767074
 40
0.9695102908
 40
1.0
 40
1.0
 40
1.0
 40
1.0
 10
12.9540665167
 20
12.7251500197
 30
0.0
 10
12.9585490795
 20
12.725107186
 30
0.0
 10
12.9674676566
 20
12.7247712901
 30
0.0
 10
12.9806709142
 20
12.7235393869
 30
0.0
 10
12.9934960514
 20
12.7215931634
 30
0.0
 10
13.0076717069
 20
12.7185707315
 30
0.0
 10
13.0227130711
 20
12.7141368612
 30
0.0
 10
13.0379889097
 20
12.7078932126
 30
0.0
 10
13.0511982705
 20
12.7006484069
 30
0.0
 10
13.0621841952
 20
12.6925802325
 30
0.0
 10
13.0708408317
 20
12.6838517641
 30
0.0
 10
13.076179979
 20
12.6759855346
 30
0.0
 10
13.0791170982
 20
12.6695777934
 30
0.0
 10
13.0806588994
 20
12.6648148364
 30
0.0
 10
13.0815860976
 20
12.6600031956
 30
0.0
 10
13.0817948133
 20
12.6567692725
 30
0.0
 10
13.0817977039
 20
12.655160681
 30
0.0
  0
SPLINE
  5
4DC
100
AcDbEntity
  8
0
100
AcDbSpline
 62
7
  6
CONTINUOUS
 70
0
 71
3
 72
24
 73
20
 74
0
 42
0.0000001
 43
0.0000001
 44
0.0000000001
 40
0.0
 40
0.0
 40
0.0
 40
0.0
 40
0.0074661197
 40
0.0155745263
 40
0.024842851
 40
0.0356187793
 40
0.0481213385
 40
0.0624862183
 40
0.0970051512
 40
0.1393131748
 40
0.1892903595
 40
0.2466370659
 40
0.3109376153
 40
0.3817181087
 40
0.4583542735
 40
0.5401712453
 40
0.6264597231
 40
0.8093610224
 40
1.0
 40
1.0
 40
1.0
 40
1.0
 10
13.0817977039
 20
13.3522883365
 30
0.0
 10
13.0817957517
 20
13.3526170885
 30
0.0
 10
13.0816804928
 20
13.3533058748
 30
0.0
 10
13.0811943209
 20
13.3542985126
 30
0.0
 10
13.0804112657
 20
13.3552693439
 30
0.0
 10
13.0793373186
 20
13.3562252216
 30
0.0
 10
13.077972708
 20
13.3571714159
 30
0.0
 10
13.0756175891
 20
13.3585036424
 30
0.0
 10
13.071920553
 20
13.3600958807
 30
0.0
 10
13.0666190254
 20
13.3618593091
 30
0.0
 10
13.0602463391
 20
13.3635467388
 30
0.0
 10
13.0528573815
 20
13.3651414435
 30
0.0
 10
13.0445139461
 20
13.3666276728
 30
0.0
 10
13.0352899935
 20
13.3679881459
 30
0.0
 10
13.0252692023
 20
13.3692086229
 30
0.0
 10
13.0145442806
 20
13.3702728667
 30
0.0
 10
12.9991352975
 20
13.3714883681
 30
0.0
 10
12.9789094597
 20
13.3725180376
 30
0.0
 10
12.962460946
 20
13.3728234887
 30
0.0
 10
12.9540665167
 20
13.3728459844
 30
0.0
  0
SPLINE
  5
4DD
100
AcDbEntity
  8
0
100
AcDbSpline
 62
7
  6
CONTINUOUS
 70
0
 71
3
 72
8
 73
4
 74
0
 42
0.0000001
 43
0.0000001
 44
0.0000000001
 40
0.0
 40
0.0
 40
0.0
 40
0.0
 40
1.0
 40
1.0
 40
1.0
 40
1.0
 10
12.7108448483
 20
13.0972148534
 30
0.0
 10
11.8078895404
 20
13.1096365937
 30
0.0
 10
10.9049390432
 20
13.1224153861
 30
0.0
 10
10.0019948932
 20
13.1356233251
 30
0.0
  0
SPLINE
  5
4DE
100
AcDbEntity
  8
0
100
AcDbSpline
 62
7
  6
CONTINUOUS
 70
0
 71
3
 72
20
 73
16
 74
0
 42
0.0000001
 43
0.0000001
 44
0.0000000001
 40
0.0
 40
0.0
 40
0.0
 40
0.0
 40
0.0339692102
 40
0.0699236573
 40
0.1090278667
 40
0.1521716904
 40
0.1999365153
 40
0.2526364942
 40
0.3103209266
 40
0.3728549611
 40
0.4400081072
 40
0.5114021946
 40
0.6650255547
 40
0.8296401396
 40
1.0
 40
1.0
 40
1.0
 40
1.0
 10
13.0817977039
 20
13.3522883365
 30
0.0
 10
13.0817937897
 20
13.3539632316
 30
0.0
 10
13.0813542035
 20
13.3574213618
 30
0.0
 10
13.0794767366
 20
13.3624996883
 30
0.0
 10
13.0764005767
 20
13.3674886192
 30
0.0
 10
13.0721625921
 20
13.3723296782
 30
0.0
 10
13.0668167718
 20
13.3769989541
 30
0.0
 10
13.0604058693
 20
13.3814607003
 30
0.0
 10
13.0529845145
 20
13.3856779841
 30
0.0
 10
13.04461412
 20
13.3896072
 30
0.0
 10
13.0353656263
 20
13.3931990873
 30
0.0
 10
13.0216409605
 20
13.3975997107
 30
0.0
 10
13.0028877901
 20
13.4019367119
 30
0.0
 10
12.9789860872
 20
13.4051686244
 30
0.0
 10
12.9624661086
 20
13.4059788561
 30
0.0
 10
12.9540665167
 20
13.406042431
 30
0.0
  0
SPLINE
  5
4DF
100
AcDbEntity
  8
0
100
AcDbSpline
 62
7
  6
CONTINUOUS
 70
0
 71
3
 72
19
 73
15
 74
0
 42
0.0000001
 43
0.0000001
 44
0.0000000001
 40
0.0
 40
0.0
 40
0.0
 40
0.0
 40
0.1862805629
 40
0.365594858
 40
0.5309697134
 40
0.6768296145
 40
0.7409303188
 40
0.7984143495
 40
0.8488881557
 40
0.8921609467
 40
0.9281976817
 40
0.9573142672
 40
0.9805232964
 40
1.0
 40
1.0
 40
1.0
 40
1.0
 10
10.0019948932
 20
13.6306276078
 30
0.0
 10
9.9990434317
 20
13.6306401676
 30
0.0
 10
9.9932507333
 20
13.6307771091
 30
0.0
 10
9.9848523454
 20
13.6313109586
 30
0.0
 10
9.9771230486
 20
13.6321544703
 30
0.0
 10
9.9712504944
 20
13.6331214407
 30
0.0
 10
9.9671145045
 20
13.634048428
 30
0.0
 10
9.9644830431
 20
13.6347650891
 30
0.0
 10
9.9622094142
 20
13.6355268997
 30
0.0
 10
9.9603123351
 20
13.6363268404
 30
0.0
 10
9.9588043223
 20
13.6371597177
 30
0.0
 10
9.9576950496
 20
13.6380269815
 30
0.0
 10
9.9569809556
 20
13.6389350858
 30
0.0
 10
9.9567977039
 20
13.6396149748
 30
0.0
 10
9.9567977039
 20
13.6399235699
 30
0.0
  0
SPLINE
  5
4E0
100
AcDbEntity
  8
0
100
AcDbSpline
 62
7
  6
CONTINUOUS
 70
0
 71
3
 72
14
 73
10
 74
0
 42
0.0000001
 43
0.0000001
 44
0.0000000001
 40
0.0
 40
0.0
 40
0.0
 40
0.0
 40
0.0538652882
 40
0.1340125297
 40
0.2381623986
 40
0.363485536
 40
0.5064478141
 40
0.66311878
 40
1.0
 40
1.0
 40
1.0
 40
1.0
 10
12.7108448479
 20
13.1555445096
 30
0.0
 10
12.7109063172
 20
13.154498913
 30
0.0
 10
12.7109893974
 20
13.1518938363
 30
0.0
 10
12.7110723555
 20
13.1472636935
 30
0.0
 10
12.7111212147
 20
13.1412432184
 30
0.0
 10
12.7111368598
 20
13.1340012982
 30
0.0
 10
12.7111166226
 20
13.1257380777
 30
0.0
 10
12.7110403882
 20
13.1133613781
 30
0.0
 10
12.7109349275
 20
13.1037648346
 30
0.0
 10
12.7108448484
 20
13.0972148529
 30
0.0
  0
SPLINE
  5
4E1
100
AcDbEntity
  8
0
100
AcDbSpline
 62
7
  6
CONTINUOUS
 70
0
 71
3
 72
15
 73
11
 74
0
 42
0.0000001
 43
0.0000001
 44
0.0000000001
 40
0.0
 40
0.0
 40
0.0
 40
0.0
 40
0.1240360822
 40
0.2483860882
 40
0.3728185027
 40
0.4976009964
 40
0.6227584608
 40
0.7482536531
 40
0.8741630532
 40
1.0
 40
1.0
 40
1.0
 40
1.0
 10
9.9567977039
 20
13.2399840236
 30
0.0
 10
9.9567977039
 20
13.2370569429
 30
0.0
 10
9.9573821313
 20
13.2311796781
 30
0.0
 10
9.959955169
 20
13.2227097855
 30
0.0
 10
9.9641481673
 20
13.2148893971
 30
0.0
 10
9.9697934315
 20
13.2080215273
 30
0.0
 10
9.9766710718
 20
13.2023494586
 30
0.0
 10
9.9845354589
 20
13.1980924189
 30
0.0
 10
9.9930806127
 20
13.1954168197
 30
0.0
 10
9.9990257531
 20
13.1947403996
 30
0.0
 10
10.0019948932
 20
13.1946893719
 30
0.0
  0
SPLINE
  5
4E2
100
AcDbEntity
  8
0
100
AcDbSpline
 62
7
  6
CONTINUOUS
 70
0
 71
3
 72
15
 73
11
 74
0
 42
0.0000001
 43
0.0000001
 44
0.0000000001
 40
0.0
 40
0.0
 40
0.0
 40
0.0
 40
0.019249889
 40
0.045958057
 40
0.1208625721
 40
0.2224317863
 40
0.3476132969
 40
0.492537751
 40
0.6528620892
 40
1.0
 40
1.0
 40
1.0
 40
1.0
 10
10.0019948544
 20
13.194687199
 30
0.0
 10
10.0019704749
 20
13.194308967
 30
0.0
 10
10.0019305017
 20
13.1934048438
 30
0.0
 10
10.0018603852
 20
13.1910261823
 30
0.0
 10
10.0018007971
 20
13.1870259321
 30
0.0
 10
10.0017580079
 20
13.181086723
 30
0.0
 10
10.0017454429
 20
13.1737686618
 30
0.0
 10
10.0017627388
 20
13.1652937978
 30
0.0
 10
10.0018284434
 20
13.1524489102
 30
0.0
 10
10.0019178468
 20
13.1424576794
 30
0.0
 10
10.0019948488
 20
13.1356232093
 30
0.0
  0
SPLINE
  5
4E3
100
AcDbEntity
  8
0
100
AcDbSpline
 62
7
  6
CONTINUOUS
 70
0
 71
3
 72
28
 73
24
 74
0
 42
0.0000001
 43
0.0000001
 44
0.0000000001
 40
0.0
 40
0.0
 40
0.0
 40
0.0
 40
0.0004032725
 40
0.001302781
 40
0.0027545752
 40
0.0047678585
 40
0.0104854415
 40
0.018456248
 40
0.0286721658
 40
0.0411230292
 40
0.0557968469
 40
0.0726662262
 40
0.0916922246
 40
0.1128355024
 40
0.1613161734
 40
0.2177856073
 40
0.2818188652
 40
0.3529131729
 40
0.4305625651
 40
0.5142195647
 40
0.6032839853
 40
0.7951380637
 40
1.0
 40
1.0
 40
1.0
 40
1.0
 10
10.0019948534
 20
13.678566104
 30
0.0
 10
10.0019884084
 20
13.6785662161
 30
0.0
 10
10.0019751258
 20
13.6785435642
 30
0.0
 10
10.0019654929
 20
13.6785044334
 30
0.0
 10
10.0019520883
 20
13.6784338971
 30
0.0
 10
10.0019343558
 20
13.6782893258
 30
0.0
 10
10.001913708
 20
13.6780382704
 30
0.0
 10
10.0018923043
 20
13.6776571745
 30
0.0
 10
10.0018720216
 20
13.6771676989
 30
0.0
 10
10.0018532775
 20
13.6765711799
 30
0.0
 10
10.0018361236
 20
13.6758681485
 30
0.0
 10
10.0018206502
 20
13.6750599848
 30
0.0
 10
10.001806889
 20
13.6741483588
 30
0.0
 10
10.0017901224
 20
13.6727314452
 30
0.0
 10
10.0017745732
 20
13.6707159761
 30
0.0
 10
10.0017638633
 20
13.6680149044
 30
0.0
 10
10.0017605487
 20
13.6649523493
 30
0.0
 10
10.0017646446
 20
13.6615512483
 30
0.0
 10
10.0017762155
 20
13.6578364905
 30
0.0
 10
10.0017951934
 20
13.6538345195
 30
0.0
 10
10.0018310498
 20
13.6480071263
 30
0.0
 10
10.0018936711
 20
13.6402424874
 30
0.0
 10
10.0019582244
 20
13.6339015637
 30
0.0
 10
10.0019948561
 20
13.6306271839
 30
0.0
  0
SPLINE
  5
4E4
100
AcDbEntity
  8
0
100
AcDbSpline
 62
7
  6
CONTINUOUS
 70
0
 71
3
 72
26
 73
22
 74
0
 42
0.0000001
 43
0.0000001
 44
0.0000000001
 40
0.0
 40
0.0
 40
0.0
 40
0.0
 40
0.2073834247
 40
0.4004196991
 40
0.4896079728
 40
0.5731069714
 40
0.6504135041
 40
0.7210244577
 40
0.7844613803
 40
0.8403441328
 40
0.8883174225
 40
0.9280265835
 40
0.9446766828
 40
0.9591584113
 40
0.9714580867
 40
0.9815626111
 40
0.9894601346
 40
0.995142028
 40
0.9986112234
 40
0.9995365364
 40
1.0
 40
1.0
 40
1.0
 40
1.0
 10
12.9540664378
 20
13.5827972525
 30
0.0
 10
12.9541087052
 20
13.5858559117
 30
0.0
 10
12.9541835589
 20
13.5917617223
 30
0.0
 10
12.9542567199
 20
13.5989831879
 30
0.0
 10
12.9542983542
 20
13.6043775324
 30
0.0
 10
12.9543202669
 20
13.6080649332
 30
0.0
 10
12.9543336429
 20
13.6114783539
 30
0.0
 10
12.9543384237
 20
13.6145958778
 30
0.0
 10
12.9543345452
 20
13.6173973987
 30
0.0
 10
12.9543221725
 20
13.6198649823
 30
0.0
 10
12.9543014431
 20
13.6219825109
 30
0.0
 10
12.9542763573
 20
13.6235212467
 30
0.0
 10
12.9542508172
 20
13.6245658764
 30
0.0
 10
12.9542308404
 20
13.6252061583
 30
0.0
 10
12.9542089341
 20
13.6257499122
 30
0.0
 10
12.9541855028
 20
13.6261959642
 30
0.0
 10
12.9541600888
 20
13.6265452139
 30
0.0
 10
12.9541349611
 20
13.6267936405
 30
0.0
 10
12.9541089547
 20
13.6269434868
 30
0.0
 10
12.95408849
 20
13.6270089923
 30
0.0
 10
12.954073136
 20
13.6270280753
 30
0.0
 10
12.9540663006
 20
13.6270281769
 30
0.0
  0
SPLINE
  5
4E5
100
AcDbEntity
  8
0
100
AcDbSpline
 62
7
  6
CONTINUOUS
 70
0
 71
3
 72
19
 73
15
 74
0
 42
0.0000001
 43
0.0000001
 44
0.0000000001
 40
0.0
 40
0.0
 40
0.0
 40
0.0
 40
0.0497428744
 40
0.0995562208
 40
0.1500507465
 40
0.2017991035
 40
0.2552553579
 40
0.3108067003
 40
0.3687683936
 40
0.4293578694
 40
0.5587245031
 40
0.6985838424
 40
0.8469162312
 40
1.0
 40
1.0
 40
1.0
 40
1.0
 10
13.0817977039
 20
13.4970595822
 30
0.0
 10
13.0817939156
 20
13.4998706742
 30
0.0
 10
13.0814082654
 20
13.5055040133
 30
0.0
 10
13.079678065
 20
13.5138309974
 30
0.0
 10
13.0767990169
 20
13.5219552187
 30
0.0
 10
13.072782304
 20
13.5298110473
 30
0.0
 10
13.067658061
 20
13.5373397501
 30
0.0
 10
13.0614530295
 20
13.5444755873
 30
0.0
 10
13.0542057716
 20
13.5511576205
 30
0.0
 10
13.0429815429
 20
13.559576622
 30
0.0
 10
13.0265341015
 20
13.5685655791
 30
0.0
 10
13.004217085
 20
13.576484757
 30
0.0
 10
12.9797084092
 20
13.5814669073
 30
0.0
 10
12.9626672792
 20
13.582705684
 30
0.0
 10
12.9540166584
 20
13.582801163
 30
0.0
  0
SPLINE
  5
4E6
100
AcDbEntity
  8
0
100
AcDbSpline
 62
7
  6
CONTINUOUS
 70
0
 71
3
 72
19
 73
15
 74
0
 42
0.0000001
 43
0.0000001
 44
0.0000000001
 40
0.0
 40
0.0
 40
0.0
 40
0.0
 40
0.1530837719
 40
0.3014161604
 40
0.441275464
 40
0.5706421106
 40
0.6312316556
 40
0.6891933392
 40
0.7447444807
 40
0.798200584
 40
0.8499493507
 40
0.9004451136
 40
0.9502590978
 40
1.0
 40
1.0
 40
1.0
 40
1.0
 10
12.9540167578
 20
9.5579134534
 30
0.0
 10
12.9626673737
 20
9.55800893
 30
0.0
 10
12.9797084946
 20
9.5592477111
 30
0.0
 10
13.0042171491
 20
9.5642298816
 30
0.0
 10
13.0265341513
 20
9.5721490508
 30
0.0
 10
13.0429815875
 20
9.5811380037
 30
0.0
 10
13.0542058002
 20
9.5895570202
 30
0.0
 10
13.0614530418
 20
9.59623905
 30
0.0
 10
13.06765806
 20
9.6033748642
 30
0.0
 10
13.072782298
 20
9.610903569
 30
0.0
 10
13.0767990235
 20
9.6187594808
 30
0.0
 10
13.0796781088
 20
9.6268838187
 30
0.0
 10
13.0814083596
 20
9.6352107803
 30
0.0
 10
13.0817939887
 20
9.6408440496
 30
0.0
 10
13.0817977039
 20
9.6436550287
 30
0.0
  0
SPLINE
  5
4E7
100
AcDbEntity
  8
0
100
AcDbSpline
 62
7
  6
CONTINUOUS
 70
0
 71
3
 72
28
 73
24
 74
0
 42
0.0000001
 43
0.0000001
 44
0.0000000001
 40
0.0
 40
0.0
 40
0.0
 40
0.0
 40
0.2048595882
 40
0.3967093624
 40
0.4857738872
 40
0.569431871
 40
0.647082226
 40
0.7181775804
 40
0.782211652
 40
0.8386814389
 40
0.8871629913
 40
0.9083067735
 40
0.9273331656
 40
0.9442027131
 40
0.9588764086
 40
0.9713272212
 40
0.9815432134
 40
0.9895141678
 40
0.9952319208
 40
0.9972452816
 40
0.9986971405
 40
0.999596696
 40
1.0
 40
1.0
 40
1.0
 40
1.0
 10
10.0019948575
 20
9.5100874106
 30
0.0
 10
10.0019582312
 20
9.5068130749
 30
0.0
 10
10.0018936769
 20
9.5004722705
 30
0.0
 10
10.0018310495
 20
9.4927077521
 30
0.0
 10
10.0017951931
 20
9.486880422
 30
0.0
 10
10.0017762155
 20
9.4828784264
 30
0.0
 10
10.0017646453
 20
9.4791636282
 30
0.0
 10
10.0017605487
 20
9.475762489
 30
0.0
 10
10.0017638625
 20
9.4726999047
 30
0.0
 10
10.0017745731
 20
9.4699988058
 30
0.0
 10
10.0017901224
 20
9.467983313
 30
0.0
 10
10.0018068886
 20
9.4665663738
 30
0.0
 10
10.0018206495
 20
9.4656547326
 30
0.0
 10
10.0018361222
 20
9.4648465635
 30
0.0
 10
10.0018532756
 20
9.4641435336
 30
0.0
 10
10.0018720187
 20
9.4635470174
 30
0.0
 10
10.0018923003
 20
9.46305754
 30
0.0
 10
10.0019137033
 20
9.4626764385
 30
0.0
 10
10.0019343509
 20
9.4624253773
 30
0.0
 10
10.0019520837
 20
9.4622808012
 30
0.0
 10
10.0019654891
 20
9.4622102623
 30
0.0
 10
10.0019751225
 20
9.4621711291
 30
0.0
 10
10.0019884065
 20
9.4621484766
 30
0.0
 10
10.001994852
 20
9.4621485887
 30
0.0
  0
SPLINE
  5
4E8
100
AcDbEntity
  8
0
100
AcDbSpline
 62
7
  6
CONTINUOUS
 70
0
 71
3
 72
19
 73
15
 74
0
 42
0.0000001
 43
0.0000001
 44
0.0000000001
 40
0.0
 40
0.0
 40
0.0
 40
0.0
 40
0.0197616351
 40
0.0431536855
 40
0.0723617721
 40
0.1084237571
 40
0.1516818614
 40
0.2021195016
 40
0.2595568056
 40
0.3236055891
 40
0.4693556561
 40
0.6346199592
 40
0.8138251715
 40
1.0
 40
1.0
 40
1.0
 40
1.0
 10
9.9567977039
 20
9.5007910778
 30
0.0
 10
9.9567977039
 20
9.5011043598
 30
0.0
 10
9.9569792701
 20
9.5017924167
 30
0.0
 10
9.9576928443
 20
9.5027133989
 30
0.0
 10
9.9588027851
 20
9.50358926
 30
0.0
 10
9.9603114663
 20
9.5044265285
 30
0.0
 10
9.9622090179
 20
9.5052274235
 30
0.0
 10
9.9644829038
 20
9.5059878407
 30
0.0
 10
9.9671144776
 20
9.5067017056
 30
0.0
 10
9.9712506109
 20
9.507623621
 30
0.0
 10
9.977123336
 20
9.508583063
 30
0.0
 10
9.9848525621
 20
9.5094182077
 30
0.0
 10
9.9932508971
 20
9.5099442962
 30
0.0
 10
9.9990434748
 20
9.5100766549
 30
0.0
 10
10.0019948932
 20
9.5100870031
 30
0.0
  0
SPLINE
  5
4E9
100
AcDbEntity
  8
0
100
AcDbSpline
 62
7
  6
CONTINUOUS
 70
0
 71
3
 72
15
 73
11
 74
0
 42
0.0000001
 43
0.0000001
 44
0.0000000001
 40
0.0
 40
0.0
 40
0.0
 40
0.0
 40
0.3471305719
 40
0.5074554822
 40
0.6523819106
 40
0.777564511
 40
0.879135373
 40
0.9540408575
 40
0.9807497438
 40
1.0
 40
1.0
 40
1.0
 40
1.0
 10
10.0019948504
 20
10.0050914017
 30
0.0
 10
10.0019178597
 20
9.9982570868
 30
0.0
 10
10.0018284412
 20
9.9882660054
 30
0.0
 10
10.0017627394
 20
9.9754212327
 30
0.0
 10
10.001745443
 20
9.9669463106
 30
0.0
 10
10.0017580075
 20
9.9596281684
 30
0.0
 10
10.0018007975
 20
9.9536888958
 30
0.0
 10
10.0018603817
 20
9.9496885862
 30
0.0
 10
10.0019304947
 20
9.947309888
 30
0.0
 10
10.0019704693
 20
9.9464057448
 30
0.0
 10
10.0019948527
 20
9.9460275064
 30
0.0
  0
SPLINE
  5
4EA
100
AcDbEntity
  8
0
100
AcDbSpline
 62
7
  6
CONTINUOUS
 70
0
 71
3
 72
23
 73
19
 74
0
 42
0.0000001
 43
0.0000001
 44
0.0000000001
 40
0.0
 40
0.0
 40
0.0
 40
0.0
 40
0.033714131
 40
0.0673351265
 40
0.1005073622
 40
0.1334431565
 40
0.1660786786
 40
0.1985344064
 40
0.2308226428
 40
0.2629628435
 40
0.3268746462
 40
0.3903351945
 40
0.4533779333
 40
0.5160022598
 40
0.6399403422
 40
0.7620368615
 40
0.8821370666
 40
1.0
 40
1.0
 40
1.0
 40
1.0
 10
12.8287404388
 20
13.3735048939
 30
0.0
 10
12.827005757
 20
13.3735255138
 30
0.0
 10
12.823525239
 20
13.3730681148
 30
0.0
 10
12.8186512422
 20
13.3712352987
 30
0.0
 10
12.8142681545
 20
13.3685176446
 30
0.0
 10
12.8103645596
 20
13.3652477268
 30
0.0
 10
12.8068429467
 20
13.3616263929
 30
0.0
 10
12.8036656129
 20
13.357745939
 30
0.0
 10
12.8007534166
 20
13.3536964733
 30
0.0
 10
12.7971858083
 20
13.3481361866
 30
0.0
 10
12.793220271
 20
13.3409394428
 30
0.0
 10
12.7890571065
 20
13.3320643907
 30
0.0
 10
12.7854001631
 20
13.3230413493
 30
0.0
 10
12.7811200864
 20
13.3109282037
 30
0.0
 10
12.7767379748
 20
13.2956447934
 30
0.0
 10
12.7728680034
 20
13.2771902569
 30
0.0
 10
12.770412235
 20
13.2588093533
 30
0.0
 10
12.769797729
 20
13.2465598391
 30
0.0
 10
12.7697977039
 20
13.240495049
 30
0.0
  0
SPLINE
  5
4EB
100
AcDbEntity
  8
0
100
AcDbSpline
 62
7
  6
CONTINUOUS
 70
0
 71
3
 72
23
 73
19
 74
0
 42
0.0000001
 43
0.0000001
 44
0.0000000001
 40
0.0
 40
0.0
 40
0.0
 40
0.0
 40
0.1178610137
 40
0.2379574971
 40
0.3600520057
 40
0.4839875777
 40
0.5466105241
 40
0.609651659
 40
0.6731105179
 40
0.73702315
 40
0.7691626567
 40
0.8014490788
 40
0.833899911
 40
0.8665400378
 40
0.8994889349
 40
0.9326604083
 40
0.9662796281
 40
1.0
 40
1.0
 40
1.0
 40
1.0
 10
12.7697977043
 20
9.9002046046
 30
0.0
 10
12.7697974889
 20
9.8941397179
 30
0.0
 10
12.7704134684
 20
9.881890111
 30
0.0
 10
12.7728709515
 20
9.8635092812
 30
0.0
 10
12.7767418517
 20
9.845054755
 30
0.0
 10
12.7811251899
 20
9.8297714485
 30
0.0
 10
12.7854068213
 20
9.8176587232
 30
0.0
 10
12.7890644632
 20
9.8086358699
 30
0.0
 10
12.7932295612
 20
9.7997615256
 30
0.0
 10
12.7971961653
 20
9.792565116
 30
0.0
 10
12.8007658486
 20
9.7870060227
 30
0.0
 10
12.8036783001
 20
9.782957012
 30
0.0
 10
12.8068573168
 20
9.7790778247
 30
0.0
 10
12.810379683
 20
9.7754563106
 30
0.0
 10
12.8142799965
 20
9.7721811025
 30
0.0
 10
12.8186635042
 20
9.7694613985
 30
0.0
 10
12.8235436153
 20
9.7676414071
 30
0.0
 10
12.8270234963
 20
9.7671894307
 30
0.0
 10
12.8287585983
 20
9.767206028
 30
0.0
  0
SPLINE
  5
4EC
100
AcDbEntity
  8
0
100
AcDbSpline
 62
7
  6
CONTINUOUS
 70
0
 71
3
 72
15
 73
11
 74
0
 42
0.0000001
 43
0.0000001
 44
0.0000000001
 40
0.0
 40
0.0
 40
0.0
 40
0.0
 40
0.1411966993
 40
0.2805147136
 40
0.415217755
 40
0.5439139917
 40
0.6659844497
 40
0.7817658529
 40
0.8925220077
 40
1.0
 40
1.0
 40
1.0
 40
1.0
 10
12.7108448483
 20
9.8548429697
 30
0.0
 10
12.7147031959
 20
9.8548939076
 30
0.0
 10
12.7223720018
 20
9.8555654854
 30
0.0
 10
12.733452267
 20
9.8581992051
 30
0.0
 10
12.7436697212
 20
9.8624194095
 30
0.0
 10
12.7526437247
 20
9.8680412623
 30
0.0
 10
12.7600381641
 20
9.8748937456
 30
0.0
 10
12.765586489
 20
9.8827365628
 30
0.0
 10
12.7690041059
 20
9.8912928904
 30
0.0
 10
12.7697977039
 20
9.8972808012
 30
0.0
 10
12.7697977039
 20
9.9002180058
 30
0.0
  0
SPLINE
  5
4ED
100
AcDbEntity
  8
0
100
AcDbSpline
 62
7
  6
CONTINUOUS
 70
0
 71
3
 72
15
 73
11
 74
0
 42
0.0000001
 43
0.0000001
 44
0.0000000001
 40
0.0
 40
0.0
 40
0.0
 40
0.0
 40
0.1266162629
 40
0.2531798084
 40
0.3791228064
 40
0.5044538271
 40
0.6291074568
 40
0.7531235339
 40
0.8768028313
 40
1.0
 40
1.0
 40
1.0
 40
1.0
 10
12.7108448481
 20
9.9851700974
 30
0.0
 10
12.7147168242
 20
9.9852358114
 30
0.0
 10
12.7224658211
 20
9.9861056774
 30
0.0
 10
12.7336072622
 20
9.9895494549
 30
0.0
 10
12.7438636005
 20
9.9950287972
 30
0.0
 10
12.7528357208
 20
10.0023321298
 30
0.0
 10
12.7602021286
 20
10.0111774891
 30
0.0
 10
12.7656744787
 20
10.0212511417
 30
0.0
 10
12.7690338789
 20
10.0321604586
 30
0.0
 10
12.7697977039
 20
10.0397317935
 30
0.0
 10
12.7697977039
 20
10.0434997549
 30
0.0
  0
SPLINE
  5
4EE
100
AcDbEntity
  8
0
100
AcDbSpline
 62
7
  6
CONTINUOUS
 70
0
 71
3
 72
27
 73
23
 74
0
 42
0.0000001
 43
0.0000001
 44
0.0000000001
 40
0.0
 40
0.0
 40
0.0
 40
0.0
 40
0.1945640951
 40
0.382435172
 40
0.4711658031
 40
0.5552743613
 40
0.6340156936
 40
0.7066447426
 40
0.772450704
 40
0.8308594515
 40
0.881331393
 40
0.9034226885
 40
0.9233278595
 40
0.9409873244
 40
0.9563716434
 40
0.9694592445
 40
0.980229285
 40
0.9886624799
 40
0.9947435589
 40
0.9984716078
 40
0.9994769318
 40
1.0
 40
1.0
 40
1.0
 40
1.0
 10
12.8287505595
 20
10.4133771931
 30
0.0
 10
12.8288184788
 20
10.4094848982
 30
0.0
 10
12.8289388248
 20
10.4018339689
 30
0.0
 10
12.8290548169
 20
10.3924074552
 30
0.0
 10
12.8291215279
 20
10.3851905767
 30
0.0
 10
12.8291569883
 20
10.3801570106
 30
0.0
 10
12.8291786747
 20
10.3754455333
 30
0.0
 10
12.8291864191
 20
10.3711002145
 30
0.0
 10
12.8291800712
 20
10.3671617105
 30
0.0
 10
12.8291598731
 20
10.3636665833
 30
0.0
 10
12.8291307977
 20
10.3610462042
 30
0.0
 10
12.8290994218
 20
10.3591963321
 30
0.0
 10
12.829073616
 20
10.3580029994
 30
0.0
 10
12.82904451
 20
10.3569439613
 30
0.0
 10
12.8290123115
 20
10.3560215479
 30
0.0
 10
12.8289771087
 20
10.3552370276
 30
0.0
 10
12.8289395077
 20
10.3545923752
 30
0.0
 10
12.8288990308
 20
10.3540870948
 30
0.0
 10
12.8288587688
 20
10.3537264295
 30
0.0
 10
12.8288179439
 20
10.3535096069
 30
0.0
 10
12.8287850565
 20
10.3534133806
 30
0.0
 10
12.8287610236
 20
10.353386514
 30
0.0
 10
12.8287505595
 20
10.3533863314
 30
0.0
  0
SPLINE
  5
4EF
100
AcDbEntity
  8
0
100
AcDbSpline
 62
7
  6
CONTINUOUS
 70
0
 71
3
 72
27
 73
23
 74
0
 42
0.0000001
 43
0.0000001
 44
0.0000000001
 40
0.0
 40
0.0
 40
0.0
 40
0.0
 40
0.1945640558
 40
0.3824350265
 40
0.471165618
 40
0.5552741719
 40
0.6340155197
 40
0.7066445888
 40
0.7724505792
 40
0.8308593694
 40
0.881331352
 40
0.9034226625
 40
0.9233278422
 40
0.9409873136
 40
0.9563716412
 40
0.969459252
 40
0.980229302
 40
0.9886625046
 40
0.9947435877
 40
0.9984716335
 40
0.9994769499
 40
1.0
 40
1.0
 40
1.0
 40
1.0
 10
12.9540665167
 20
10.4155645913
 30
0.0
 10
12.954134436
 20
10.4116722973
 30
0.0
 10
12.9542547817
 20
10.4040213713
 30
0.0
 10
12.9543707728
 20
10.3945948617
 30
0.0
 10
12.9544374828
 20
10.3873779865
 30
0.0
 10
12.9544729423
 20
10.3823444213
 30
0.0
 10
12.9544946275
 20
10.3776329435
 30
0.0
 10
12.9545023703
 20
10.3732876236
 30
0.0
 10
12.9544960202
 20
10.369349118
 30
0.0
 10
12.9544758199
 20
10.3658539887
 30
0.0
 10
12.9544467429
 20
10.3632336078
 30
0.0
 10
12.9544153664
 20
10.3613837344
 30
0.0
 10
12.9543895605
 20
10.3601904012
 30
0.0
 10
12.9543604548
 20
10.3591313626
 30
0.0
 10
12.9543282569
 20
10.3582089487
 30
0.0
 10
12.9542930552
 20
10.3574244279
 30
0.0
 10
12.9542554557
 20
10.356779775
 30
0.0
 10
12.9542149804
 20
10.3562744939
 30
0.0
 10
12.9541747205
 20
10.3559138286
 30
0.0
 10
12.9541338974
 20
10.3556970052
 30
0.0
 10
12.9541010121
 20
10.3556007795
 30
0.0
 10
12.9540769804
 20
10.3555739122
 30
0.0
 10
12.9540665167
 20
10.3555737296
 30
0.0
  0
SPLINE
  5
4F0
100
AcDbEntity
  8
0
100
AcDbSpline
 62
7
  6
CONTINUOUS
 70
0
 71
3
 72
27
 73
23
 74
0
 42
0.0000001
 43
0.0000001
 44
0.0000000001
 40
0.0
 40
0.0
 40
0.0
 40
0.0
 40
0.1945640498
 40
0.382434859
 40
0.4711653959
 40
0.5552739725
 40
0.6340153852
 40
0.7066445263
 40
0.7724506076
 40
0.8308595176
 40
0.8813316099
 40
0.9034229592
 40
0.92332816
 40
0.9409876447
 40
0.9563719885
 40
0.9694596141
 40
0.9802296728
 40
0.9886628715
 40
0.9947439276
 40
0.998471898
 40
0.9994771284
 40
1.0
 40
1.0
 40
1.0
 40
1.0
 10
12.9540665167
 20
12.7251500197
 30
0.0
 10
12.9541344062
 20
12.729042312
 30
0.0
 10
12.9542546999
 20
12.7366932315
 30
0.0
 10
12.9543706416
 20
12.7461197323
 30
0.0
 10
12.9544373224
 20
12.7533366002
 30
0.0
 10
12.9544727658
 20
12.7583701636
 30
0.0
 10
12.9544944402
 20
12.7630816422
 30
0.0
 10
12.954502177
 20
12.7674269644
 30
0.0
 10
12.954495826
 20
12.7713654736
 30
0.0
 10
12.9544756304
 20
12.7748606076
 30
0.0
 10
12.9544465631
 20
12.7774809925
 30
0.0
 10
12.9544151985
 20
12.7793308685
 30
0.0
 10
12.9543894031
 20
12.7805242028
 30
0.0
 10
12.9543603098
 20
12.7815832422
 30
0.0
 10
12.9543281264
 20
12.7825056569
 30
0.0
 10
12.954292941
 20
12.783290179
 30
0.0
 10
12.9542553597
 20
12.7839348325
 30
0.0
 10
12.9542149037
 20
12.7844401157
 30
0.0
 10
12.9541746657
 20
12.784800778
 30
0.0
 10
12.9541338612
 20
12.785017606
 30
0.0
 10
12.9541009968
 20
12.7851138251
 30
0.0
 10
12.9540769769
 20
12.7851406988
 30
0.0
 10
12.9540665167
 20
12.7851408814
 30
0.0
  0
SPLINE
  5
4F1
100
AcDbEntity
  8
0
100
AcDbSpline
 62
7
  6
CONTINUOUS
 70
0
 71
3
 72
27
 73
23
 74
0
 42
0.0000001
 43
0.0000001
 44
0.0000000001
 40
0.0
 40
0.0
 40
0.0
 40
0.0
 40
0.1945640466
 40
0.3824350083
 40
0.4711655955
 40
0.5552741453
 40
0.6340154892
 40
0.7066445544
 40
0.7724505409
 40
0.8308593275
 40
0.8813313067
 40
0.903422616
 40
0.9233277947
 40
0.9409872655
 40
0.9563715931
 40
0.9694592045
 40
0.9802292561
 40
0.9886624614
 40
0.9947435494
 40
0.9984716046
 40
0.9994769306
 40
1.0
 40
1.0
 40
1.0
 40
1.0
 10
12.8287505595
 20
12.7273374178
 30
0.0
 10
12.828818479
 20
12.7312297118
 30
0.0
 10
12.8289388254
 20
12.7388806378
 30
0.0
 10
12.8290548177
 20
12.7483071473
 30
0.0
 10
12.8291215286
 20
12.7555240225
 30
0.0
 10
12.829156989
 20
12.7605575878
 30
0.0
 10
12.8291786753
 20
12.7652690655
 30
0.0
 10
12.8291864197
 20
12.7696143854
 30
0.0
 10
12.8291800719
 20
12.773552891
 30
0.0
 10
12.8291598739
 20
12.7770480203
 30
0.0
 10
12.8291307984
 20
12.7796684011
 30
0.0
 10
12.8290994226
 20
12.7815182744
 30
0.0
 10
12.8290736168
 20
12.7827116077
 30
0.0
 10
12.8290445107
 20
12.7837706463
 30
0.0
 10
12.8290123121
 20
12.7846930602
 30
0.0
 10
12.8289771093
 20
12.785477581
 30
0.0
 10
12.8289395081
 20
12.786122234
 30
0.0
 10
12.8288990311
 20
12.7866275151
 30
0.0
 10
12.828858769
 20
12.7869881808
 30
0.0
 10
12.8288179441
 20
12.7872050038
 30
0.0
 10
12.8287850566
 20
12.7873012303
 30
0.0
 10
12.8287610236
 20
12.7873280969
 30
0.0
 10
12.8287505595
 20
12.7873282795
 30
0.0
  0
SPLINE
  5
4F2
100
AcDbEntity
  8
0
100
AcDbSpline
 62
7
  6
CONTINUOUS
 70
0
 71
3
 72
15
 73
11
 74
0
 42
0.0000001
 43
0.0000001
 44
0.0000000001
 40
0.0
 40
0.0
 40
0.0
 40
0.0
 40
0.1266162594
 40
0.2531798015
 40
0.3791228028
 40
0.5044538256
 40
0.6291074528
 40
0.753123525
 40
0.8768028266
 40
1.0
 40
1.0
 40
1.0
 40
1.0
 10
12.7108448479
 20
13.1555445096
 30
0.0
 10
12.7147168238
 20
13.1554787955
 30
0.0
 10
12.7224658204
 20
13.1546089302
 30
0.0
 10
12.7336072613
 20
13.151165153
 30
0.0
 10
12.7438635996
 20
13.145685811
 30
0.0
 10
12.7528357199
 20
13.1383824785
 30
0.0
 10
12.7602021277
 20
13.1295371197
 30
0.0
 10
12.765674478
 20
13.1194634676
 30
0.0
 10
12.7690338784
 20
13.1085541508
 30
0.0
 10
12.7697977039
 20
13.1009828157
 30
0.0
 10
12.7697977039
 20
13.0972148542
 30
0.0
  0
SPLINE
  5
4F3
100
AcDbEntity
  8
0
100
AcDbSpline
 62
7
  6
CONTINUOUS
 70
0
 71
3
 72
15
 73
11
 74
0
 42
0.0000001
 43
0.0000001
 44
0.0000000001
 40
0.0
 40
0.0
 40
0.0
 40
0.0
 40
0.1411967165
 40
0.2805147547
 40
0.4152178196
 40
0.5439140736
 40
0.6659845362
 40
0.7817659275
 40
0.8925220525
 40
1.0
 40
1.0
 40
1.0
 40
1.0
 10
12.7108448483
 20
13.2858716412
 30
0.0
 10
12.7147031961
 20
13.2858207018
 30
0.0
 10
12.7223720021
 20
13.2851491212
 30
0.0
 10
12.7334522674
 20
13.2825153985
 30
0.0
 10
12.7436697216
 20
13.278295192
 30
0.0
 10
12.752643725
 20
13.2726733385
 30
0.0
 10
12.7600381642
 20
13.2658208558
 30
0.0
 10
12.7655864889
 20
13.2579780408
 30
0.0
 10
12.769004106
 20
13.2494217165
 30
0.0
 10
12.7697977039
 20
13.2434338083
 30
0.0
 10
12.7697977039
 20
13.2404966051
 30
0.0
  0
SPLINE
  5
4F4
100
AcDbEntity
  8
0
100
AcDbSpline
 62
7
  6
CONTINUOUS
 70
0
 71
3
 72
8
 73
4
 74
0
 42
0.0000001
 43
0.0000001
 44
0.0000000001
 40
0.0
 40
0.0
 40
0.0
 40
0.0
 40
1.0
 40
1.0
 40
1.0
 40
1.0
 10
12.7108448481
 20
13.1555445137
 30
0.0
 10
11.8078896757
 20
13.1682287254
 30
0.0
 10
10.9049392369
 20
13.1812563361
 30
0.0
 10
10.0019948932
 20
13.1946893031
 30
0.0
  0
LINE
  5
4F5
100
AcDbEntity
  8
0
100
AcDbLine
 62
7
  6
CONTINUOUS
 10
10.0019948932
 20
13.6306280617
 11
12.9540665167
 21
13.5827975248
  0
SPLINE
  5
4F6
100
AcDbEntity
  8
0
100
AcDbSpline
 62
7
  6
CONTINUOUS
 70
0
 71
3
 72
19
 73
15
 74
0
 42
0.0000001
 43
0.0000001
 44
0.0000000001
 40
0.0
 40
0.0
 40
0.0
 40
0.0
 40
0.0744935554
 40
0.1481619596
 40
0.2204075773
 40
0.2910145566
 40
0.3598655329
 40
0.4269687987
 40
0.5558435332
 40
0.6776819161
 40
0.735927566
 40
0.7923281591
 40
0.8995685023
 40
1.0
 40
1.0
 40
1.0
 40
1.0
 10
12.8287505595
 20
13.4067529139
 30
0.0
 10
12.8241843088
 20
13.4067878609
 30
0.0
 10
12.8150827815
 20
13.4061002334
 30
0.0
 10
12.8018705721
 20
13.4030749672
 30
0.0
 10
12.7894259092
 20
13.3983488739
 30
0.0
 10
12.7779331183
 20
13.3922616565
 30
0.0
 10
12.7674137796
 20
13.3851762868
 30
0.0
 10
12.7548388649
 20
13.3748804297
 30
0.0
 10
12.7413258673
 20
13.360733226
 30
0.0
 10
12.7303079186
 20
13.3452472487
 30
0.0
 10
12.723233866
 20
13.3325803234
 30
0.0
 10
12.7175027579
 20
13.3202335146
 30
0.0
 10
12.7124316218
 20
13.3047791954
 30
0.0
 10
12.710844473
 20
13.2920279969
 30
0.0
 10
12.7108448483
 20
13.2858716412
 30
0.0
  0
LINE
  5
4F7
100
AcDbEntity
  8
0
100
AcDbLine
 62
7
  6
CONTINUOUS
 10
12.9540665167
 20
9.5579170861
 11
10.0019948932
 21
9.5100865492
  0
SPLINE
  5
4F8
100
AcDbEntity
  8
0
100
AcDbSpline
 62
7
  6
CONTINUOUS
 70
0
 71
3
 72
8
 73
4
 74
0
 42
0.0000001
 43
0.0000001
 44
0.0000000001
 40
0.0
 40
0.0
 40
0.0
 40
0.0
 40
1.0
 40
1.0
 40
1.0
 40
1.0
 10
10.0019948932
 20
9.9460253078
 30
0.0
 10
10.9049392369
 20
9.959458275
 30
0.0
 10
11.8078896757
 20
9.9724858856
 30
0.0
 10
12.7108448481
 20
9.9851700974
 30
0.0
  0
SPLINE
  5
4F9
100
AcDbEntity
  8
0
100
AcDbSpline
 62
7
  6
CONTINUOUS
 70
0
 71
3
 72
19
 73
15
 74
0
 42
0.0000001
 43
0.0000001
 44
0.0000000001
 40
0.0
 40
0.0
 40
0.0
 40
0.0
 40
0.1004351538
 40
0.2076764924
 40
0.3222440804
 40
0.4440873565
 40
0.5729670133
 40
0.6400752828
 40
0.7089289663
 40
0.7795295633
 40
0.8517834402
 40
0.888482868
 40
0.9254966095
 40
1.0
 40
1.0
 40
1.0
 40
1.0
 10
12.7108448483
 20
9.8548429697
 30
0.0
 10
12.7108429029
 20
9.8486866094
 30
0.0
 10
12.712434689
 20
9.8359344709
 30
0.0
 10
12.7186213618
 20
9.8170830714
 30
0.0
 10
12.728305484
 20
9.7982860346
 30
0.0
 10
12.7413269969
 20
9.7799846558
 30
0.0
 10
12.7548415088
 20
9.7658352213
 30
0.0
 10
12.7674182666
 20
9.7555418362
 30
0.0
 10
12.7779381677
 20
9.7484576292
 30
0.0
 10
12.7894279633
 20
9.7423676119
 30
0.0
 10
12.7997453759
 20
9.7384364841
 30
0.0
 10
12.8083978774
 20
9.7361298178
 30
0.0
 10
12.8173313158
 20
9.7344441135
 30
0.0
 10
12.8241837746
 20
9.7339426244
 30
0.0
 10
12.8287505595
 20
9.733961697
 30
0.0
  0
SPLINE
  5
4FA
100
AcDbEntity
  8
0
100
AcDbSpline
 62
7
  6
CONTINUOUS
 70
0
 71
3
 72
11
 73
7
 74
0
 42
0.0000001
 43
0.0000001
 44
0.0000000001
 40
0.0
 40
0.0
 40
0.0
 40
0.0
 40
0.2274111706
 40
0.4674605853
 40
0.7237980286
 40
1.0
 40
1.0
 40
1.0
 40
1.0
 10
19.3304777337
 20
14.2534117906
 30
0.0
 10
19.3284690018
 20
14.2554240448
 30
0.0
 10
19.3239801626
 20
14.2592186829
 30
0.0
 10
19.3161115588
 20
14.2637824552
 30
0.0
 10
19.3069521762
 20
14.2670324246
 30
0.0
 10
19.3002880945
 20
14.2679069915
 30
0.0
 10
19.2968357801
 20
14.2679889685
 30
0.0
  0
SPLINE
  5
4FB
100
AcDbEntity
  8
0
100
AcDbSpline
 62
7
  6
CONTINUOUS
 70
0
 71
3
 72
11
 73
7
 74
0
 42
0.0000001
 43
0.0000001
 44
0.0000000001
 40
0.0
 40
0.0
 40
0.0
 40
0.0
 40
0.2274111667
 40
0.467460578
 40
0.7237980221
 40
1.0
 40
1.0
 40
1.0
 40
1.0
 10
19.3304777416
 20
8.8873028283
 30
0.0
 10
19.3284690096
 20
8.885290573
 30
0.0
 10
19.3239801698
 20
8.8814959329
 30
0.0
 10
19.3161115645
 20
8.8769321582
 30
0.0
 10
19.3069521794
 20
8.8736821869
 30
0.0
 10
19.3002880956
 20
8.8728076194
 30
0.0
 10
19.2968357801
 20
8.8727256424
 30
0.0
  0
SPLINE
  5
4FC
100
AcDbEntity
  8
0
100
AcDbSpline
 62
7
  6
CONTINUOUS
 70
0
 71
3
 72
11
 73
7
 74
0
 42
0.0000001
 43
0.0000001
 44
0.0000000001
 40
0.0
 40
0.0
 40
0.0
 40
0.0
 40
0.2274111706
 40
0.4674605853
 40
0.7237980286
 40
1.0
 40
1.0
 40
1.0
 40
1.0
 10
15.7514991931
 20
8.8873028204
 30
0.0
 10
15.7535079251
 20
8.8852905661
 30
0.0
 10
15.7579967643
 20
8.881495928
 30
0.0
 10
15.765865368
 20
8.8769321557
 30
0.0
 10
15.7750247506
 20
8.8736821863
 30
0.0
 10
15.7816888324
 20
8.8728076194
 30
0.0
 10
15.7851411467
 20
8.8727256424
 30
0.0
  0
SPLINE
  5
4FD
100
AcDbEntity
  8
0
100
AcDbSpline
 62
7
  6
CONTINUOUS
 70
0
 71
3
 72
11
 73
7
 74
0
 42
0.0000001
 43
0.0000001
 44
0.0000000001
 40
0.0
 40
0.0
 40
0.0
 40
0.0
 40
0.2274111667
 40
0.467460578
 40
0.7237980221
 40
1.0
 40
1.0
 40
1.0
 40
1.0
 10
15.7514991852
 20
14.2534117826
 30
0.0
 10
15.7535079173
 20
14.2554240379
 30
0.0
 10
15.757996757
 20
14.259218678
 30
0.0
 10
15.7658653623
 20
14.2637824528
 30
0.0
 10
15.7750247474
 20
14.267032424
 30
0.0
 10
15.7816888313
 20
14.2679069915
 30
0.0
 10
15.7851411467
 20
14.2679889685
 30
0.0
  0
SPLINE
  5
4FE
100
AcDbEntity
  8
0
100
AcDbSpline
 62
7
  6
CONTINUOUS
 70
0
 71
3
 72
11
 73
7
 74
0
 42
0.0000001
 43
0.0000001
 44
0.0000000001
 40
0.0
 40
0.0
 40
0.0
 40
0.0
 40
0.2410133415
 40
0.486297353
 40
0.7383011841
 40
1.0
 40
1.0
 40
1.0
 40
1.0
 10
19.3453652273
 20
14.2194595214
 30
0.0
 10
19.3452463341
 20
14.2225010645
 30
0.0
 10
19.3444433435
 20
14.2286301993
 30
0.0
 10
19.3415587242
 20
14.2375499685
 30
0.0
 10
19.3369625046
 20
14.2460228222
 30
0.0
 10
19.3328127528
 20
14.251072677
 30
0.0
 10
19.3304777337
 20
14.2534117906
 30
0.0
  0
SPLINE
  5
4FF
100
AcDbEntity
  8
0
100
AcDbSpline
 62
7
  6
CONTINUOUS
 70
0
 71
3
 72
11
 73
7
 74
0
 42
0.0000001
 43
0.0000001
 44
0.0000000001
 40
0.0
 40
0.0
 40
0.0
 40
0.0
 40
0.2410133457
 40
0.4862973597
 40
0.7383011902
 40
1.0
 40
1.0
 40
1.0
 40
1.0
 10
19.3453652273
 20
8.9212550895
 30
0.0
 10
19.3452463341
 20
8.9182135473
 30
0.0
 10
19.3444433439
 20
8.9120844142
 30
0.0
 10
19.3415587261
 20
8.9031646473
 30
0.0
 10
19.3369625091
 20
8.8946917957
 30
0.0
 10
19.3328127594
 20
8.8896419416
 30
0.0
 10
19.3304777416
 20
8.8873028283
 30
0.0
  0
SPLINE
  5
500
100
AcDbEntity
  8
0
100
AcDbSpline
 62
7
  6
CONTINUOUS
 70
0
 71
3
 72
11
 73
7
 74
0
 42
0.0000001
 43
0.0000001
 44
0.0000000001
 40
0.0
 40
0.0
 40
0.0
 40
0.0
 40
0.2410133415
 40
0.486297353
 40
0.7383011841
 40
1.0
 40
1.0
 40
1.0
 40
1.0
 10
15.7366116995
 20
8.9212550895
 30
0.0
 10
15.7367305927
 20
8.9182135464
 30
0.0
 10
15.7375335834
 20
8.9120844116
 30
0.0
 10
15.7404182026
 20
8.9031646424
 30
0.0
 10
15.7450144222
 20
8.8946917888
 30
0.0
 10
15.749164174
 20
8.8896419339
 30
0.0
 10
15.7514991931
 20
8.8873028204
 30
0.0
  0
SPLINE
  5
501
100
AcDbEntity
  8
0
100
AcDbSpline
 62
7
  6
CONTINUOUS
 70
0
 71
3
 72
11
 73
7
 74
0
 42
0.0000001
 43
0.0000001
 44
0.0000000001
 40
0.0
 40
0.0
 40
0.0
 40
0.0
 40
0.2410133457
 40
0.4862973597
 40
0.7383011902
 40
1.0
 40
1.0
 40
1.0
 40
1.0
 10
15.7366116995
 20
14.2194595214
 30
0.0
 10
15.7367305927
 20
14.2225010637
 30
0.0
 10
15.7375335829
 20
14.2286301968
 30
0.0
 10
15.7404182007
 20
14.2375499636
 30
0.0
 10
15.7450144178
 20
14.2460228153
 30
0.0
 10
15.7491641674
 20
14.2510726693
 30
0.0
 10
15.7514991852
 20
14.2534117826
 30
0.0
  0
SPLINE
  5
502
100
AcDbEntity
  8
0
100
AcDbSpline
 62
7
  6
CONTINUOUS
 70
0
 71
3
 72
29
 73
25
 74
0
 42
0.0000001
 43
0.0000001
 44
0.0000000001
 40
0.0
 40
0.0
 40
0.0
 40
0.0
 40
0.194785235
 40
0.2900534773
 40
0.38245443
 40
0.471100683
 40
0.5551919243
 40
0.6339325172
 40
0.7065897263
 40
0.7724792998
 40
0.8309212054
 40
0.8813419279
 40
0.9034078502
 40
0.9233066366
 40
0.9409853452
 40
0.9563916511
 40
0.9694880304
 40
0.9802563834
 40
0.9886814293
 40
0.9947519359
 40
0.9969045991
 40
0.9984737654
 40
0.9994767918
 40
1.0
 40
1.0
 40
1.0
 40
1.0
 10
5.1113033228
 20
3.3177296843
 30
0.0
 10
5.119750115
 20
3.3177296843
 30
0.0
 10
5.1323281957
 20
3.3177510701
 30
0.0
 10
5.1489130464
 20
3.317822906
 30
0.0
 10
5.1608951443
 20
3.3178973088
 30
0.0
 10
5.1723923992
 20
3.3179917048
 30
0.0
 10
5.1832970779
 20
3.3181049995
 30
0.0
 10
5.1935081444
 20
3.3182362754
 30
0.0
 10
5.2029295877
 20
3.3183841493
 30
0.0
 10
5.2114704047
 20
3.3185467659
 30
0.0
 10
5.219046455
 20
3.3187225986
 30
0.0
 10
5.2247218519
 20
3.3188848639
 30
0.0
 10
5.2287257484
 20
3.3190227894
 30
0.0
 10
5.2313102052
 20
3.3191237842
 30
0.0
 10
5.2336055322
 20
3.3192266559
 30
0.0
 10
5.2356054934
 20
3.3193311496
 30
0.0
 10
5.2373051466
 20
3.3194368479
 30
0.0
 10
5.2387016128
 20
3.3195431616
 30
0.0
 10
5.2397916391
 20
3.3196487996
 30
0.0
 10
5.2405087174
 20
3.3197436743
 30
0.0
 10
5.240924736
 20
3.3198226439
 30
0.0
 10
5.2411247655
 20
3.3198785097
 30
0.0
 10
5.2412463082
 20
3.3199225822
 30
0.0
 10
5.2413033228
 20
3.3199758084
 30
0.0
 10
5.2413033228
 20
3.3199984971
 30
0.0
  0
LINE
  5
503
100
AcDbEntity
  8
0
100
AcDbLine
 62
7
  6
CONTINUOUS
 10
6.9913033228
 20
3.3199984971
 11
6.9313033228
 21
3.3202079362
  0
LINE
  5
504
100
AcDbEntity
  8
0
100
AcDbLine
 62
7
  6
CONTINUOUS
 10
6.9913033228
 20
2.8249984971
 11
6.9313033229
 21
2.8252079354
  0
SPLINE
  5
505
100
AcDbEntity
  8
0
100
AcDbSpline
 62
7
  6
CONTINUOUS
 70
0
 71
3
 72
26
 73
22
 74
0
 42
0.0000001
 43
0.0000001
 44
0.0000000001
 40
0.0
 40
0.0
 40
0.0
 40
0.0
 40
0.0005230023
 40
0.0015254988
 40
0.0052428971
 40
0.0113110481
 40
0.0197337268
 40
0.0305002345
 40
0.0435958238
 40
0.0590021248
 40
0.0766795571
 40
0.1186402861
 40
0.1690607228
 40
0.2275091371
 40
0.2934042555
 40
0.3660661102
 40
0.4448112187
 40
0.5289055215
 40
0.6175540523
 40
0.8052263915
 40
1.0
 40
1.0
 40
1.0
 40
1.0
 10
7.9744863767
 20
5.7831956864
 30
0.0
 10
7.9744865168
 20
5.7832037128
 30
0.0
 10
7.9744667027
 20
5.7832228858
 30
0.0
 10
7.9743939911
 20
5.7832507544
 30
0.0
 10
7.9742293275
 20
5.7832878731
 30
0.0
 10
7.9739543952
 20
5.7833284201
 30
0.0
 10
7.9735685239
 20
5.7833729666
 30
0.0
 10
7.9730753824
 20
5.7834190278
 30
0.0
 10
7.9724744489
 20
5.7834669755
 30
0.0
 10
7.9717673818
 20
5.7835162739
 30
0.0
 10
7.9706177276
 20
5.7835878819
 30
0.0
 10
7.9689308162
 20
5.7836779465
 30
0.0
 10
7.9666181691
 20
5.7837845715
 30
0.0
 10
7.9639379146
 20
5.7838935455
 30
0.0
 10
7.9609160772
 20
5.7840038572
 30
0.0
 10
7.9575825253
 20
5.7841143742
 30
0.0
 10
7.9539694625
 20
5.7842238929
 30
0.0
 10
7.9501108563
 20
5.7843313326
 30
0.0
 10
7.9445806467
 20
5.7844732511
 30
0.0
 10
7.9373516295
 20
5.7846367361
 30
0.0
 10
7.9314825154
 20
5.7847491482
 30
0.0
 10
7.9284933827
 20
5.7848013078
 30
0.0
  0
LINE
  5
506
100
AcDbEntity
  8
0
100
AcDbLine
 62
7
  6
CONTINUOUS
 10
5.2413033228
 20
3.3199984971
 11
5.3013033228
 21
3.3202079362
  0
SPLINE
  5
507
100
AcDbEntity
  8
0
100
AcDbSpline
 62
7
  6
CONTINUOUS
 70
0
 71
3
 72
26
 73
22
 74
0
 42
0.0000001
 43
0.0000001
 44
0.0000000001
 40
0.0
 40
0.0
 40
0.0
 40
0.0
 40
0.19476961
 40
0.3824325855
 40
0.4710784758
 40
0.555170731
 40
0.6339133971
 40
0.7065734338
 40
0.7724662937
 40
0.8309116502
 40
0.8813357339
 40
0.9233033963
 40
0.9409834672
 40
0.9563909872
 40
0.9694884138
 40
0.9802576367
 40
0.9886833643
 40
0.9947543511
 40
0.9984738151
 40
0.9994768669
 40
1.0
 40
1.0
 40
1.0
 40
1.0
 10
4.3041132629
 20
5.7848013078
 30
0.0
 10
4.3011241921
 20
5.7847491493
 30
0.0
 10
4.2952552842
 20
5.7846367439
 30
0.0
 10
4.2880265141
 20
5.7844732623
 30
0.0
 10
4.2824965212
 20
5.7843313513
 30
0.0
 10
4.278638025
 20
5.7842239171
 30
0.0
 10
4.2750250597
 20
5.7841144027
 30
0.0
 10
4.2716916082
 20
5.7840038951
 30
0.0
 10
4.2686698806
 20
5.783893595
 30
0.0
 10
4.2659896523
 20
5.783784621
 30
0.0
 10
4.2636768899
 20
5.7836779998
 30
0.0
 10
4.2619897757
 20
5.7835879356
 30
0.0
 10
4.260839956
 20
5.7835163219
 30
0.0
 10
4.2601328023
 20
5.7834670125
 30
0.0
 10
4.2595317806
 20
5.7834190553
 30
0.0
 10
4.2590385234
 20
5.783372986
 30
0.0
 10
4.2586525187
 20
5.7833284313
 30
0.0
 10
4.2583774677
 20
5.7832878796
 30
0.0
 10
4.2582127127
 20
5.7832507549
 30
0.0
 10
4.2581399635
 20
5.7832228891
 30
0.0
 10
4.2581201287
 20
5.7832037148
 30
0.0
 10
4.2581202689
 20
5.7831956864
 30
0.0
  0
SPLINE
  5
508
100
AcDbEntity
  8
0
100
AcDbSpline
 62
7
  6
CONTINUOUS
 70
0
 71
3
 72
29
 73
25
 74
0
 42
0.0000001
 43
0.0000001
 44
0.0000000001
 40
0.0
 40
0.0
 40
0.0
 40
0.0
 40
0.1947852364
 40
0.2900534804
 40
0.3824544345
 40
0.471100688
 40
0.5551919292
 40
0.6339325218
 40
0.7065897303
 40
0.772479303
 40
0.8309212082
 40
0.8813419301
 40
0.9034078519
 40
0.9233066379
 40
0.9409853463
 40
0.956391652
 40
0.9694880311
 40
0.9802563839
 40
0.9886814296
 40
0.9947519361
 40
0.9969045992
 40
0.9984737654
 40
0.9994767918
 40
1.0
 40
1.0
 40
1.0
 40
1.0
 10
7.1213033228
 20
3.3177296843
 30
0.0
 10
7.1128565305
 20
3.3177296843
 30
0.0
 10
7.1002784496
 20
3.3177510701
 30
0.0
 10
7.0836935988
 20
3.317822906
 30
0.0
 10
7.0717115007
 20
3.3178973088
 30
0.0
 10
7.0602142458
 20
3.3179917048
 30
0.0
 10
7.0493095671
 20
3.3181049995
 30
0.0
 10
7.0390985006
 20
3.3182362754
 30
0.0
 10
7.0296770573
 20
3.3183841493
 30
0.0
 10
7.0211362404
 20
3.3185467659
 30
0.0
 10
7.0135601903
 20
3.3187225986
 30
0.0
 10
7.0078847933
 20
3.3188848639
 30
0.0
 10
7.003880897
 20
3.3190227894
 30
0.0
 10
7.0012964402
 20
3.3191237842
 30
0.0
 10
6.9990011133
 20
3.3192266559
 30
0.0
 10
6.9970011521
 20
3.3193311496
 30
0.0
 10
6.9953014988
 20
3.3194368479
 30
0.0
 10
6.9939050327
 20
3.3195431616
 30
0.0
 10
6.9928150064
 20
3.3196487996
 30
0.0
 10
6.9920979281
 20
3.3197436743
 30
0.0
 10
6.9916819095
 20
3.3198226439
 30
0.0
 10
6.9914818801
 20
3.3198785097
 30
0.0
 10
6.9913603374
 20
3.3199225822
 30
0.0
 10
6.9913033228
 20
3.3199758084
 30
0.0
 10
6.9913033228
 20
3.3199984971
 30
0.0
  0
ELLIPSE
  5
509
100
AcDbEntity
  8
0
100
AcDbEllipse
 62
7
  6
CONTINUOUS
 10
5.3013033228
 20
8.251357671
 30
0.0
 11
0.0
 21
0.0600003655
 31
0.0
 40
0.9999939077
 41
-4.7123889804
 42
-3.1415926536
  0
ELLIPSE
  5
50A
100
AcDbEntity
  8
0
100
AcDbEllipse
 62
7
  6
CONTINUOUS
 10
7.4263033228
 20
8.5313593769
 30
0.0
 11
-0.0
 21
0.3400020714
 31
0.0
 40
0.9999939077
 41
-3.1415926536
 42
-2.3394213266
  0
ELLIPSE
  5
50B
100
AcDbEntity
  8
0
100
AcDbEllipse
 62
7
  6
CONTINUOUS
 10
6.9313033228
 20
14.8893569399
 30
0.0
 11
0.0
 21
0.0600003655
 31
0.0
 40
0.9999939077
 41
-1.4641960379
 42
0.0
  0
ELLIPSE
  5
50C
100
AcDbEntity
  8
0
100
AcDbEllipse
 62
7
  6
CONTINUOUS
 10
4.8063033228
 20
14.6093552341
 30
0.0
 11
0.0
 21
0.3400020714
 31
0.0
 40
0.9999939077
 41
0.0
 42
0.802171327
  0
ELLIPSE
  5
50D
100
AcDbEntity
  8
0
100
AcDbEllipse
 62
7
  6
CONTINUOUS
 10
4.5618884827
 20
8.8753102276
 30
0.0
 11
0.25
 21
0.0
 31
0.0
 40
0.0174550649
 41
-2.5077031249
 42
-1.5707963268
  0
ELLIPSE
  5
50E
100
AcDbEntity
  8
0
100
AcDbEllipse
 62
7
  6
CONTINUOUS
 10
7.6707181629
 20
8.8753102276
 30
0.0
 11
0.25
 21
-0.0
 31
0.0
 40
0.0174550649
 41
5.1047170544
 42
5.6492957785
  0
ELLIPSE
  5
50F
100
AcDbEntity
  8
0
100
AcDbEllipse
 62
7
  6
CONTINUOUS
 10
7.1213033228
 20
14.3997879522
 30
0.0
 11
0.0
 21
0.1300198026
 31
0.0
 40
0.9998476952
 41
1.7462263739
 42
3.1415926536
  0
ELLIPSE
  5
510
100
AcDbEntity
  8
0
100
AcDbEllipse
 62
7
  6
CONTINUOUS
 10
7.6707181629
 20
14.2654043834
 30
0.0
 11
0.25
 21
0.0
 31
0.0
 40
0.0174550649
 41
0.6338895287
 42
1.5707963268
  0
ELLIPSE
  5
511
100
AcDbEntity
  8
0
100
AcDbEllipse
 62
7
  6
CONTINUOUS
 10
4.5618884827
 20
14.2654043834
 30
0.0
 11
0.25
 21
-0.0
 31
0.0
 40
0.0174550649
 41
8.246309708
 42
8.7908884321
  0
ELLIPSE
  5
512
100
AcDbEntity
  8
0
100
AcDbEllipse
 62
7
  6
CONTINUOUS
 10
5.1113033228
 20
8.7409266587
 30
0.0
 11
0.0
 21
-0.1300198026
 31
0.0
 40
0.9998476952
 41
1.7462263739
 42
3.1415926536
  0
ELLIPSE
  5
513
100
AcDbEntity
  8
0
100
AcDbEllipse
 62
7
  6
CONTINUOUS
 10
4.5263033228
 20
14.2654043834
 30
0.0
 11
0.06
 21
-0.0
 31
0.0
 40
0.0174550649
 41
3.1415926536
 42
4.7123889804
  0
ELLIPSE
  5
514
100
AcDbEntity
  8
02___PRT_ALL_AXES
100
AcDbEllipse
 62
7
  6
CONTINUOUS
 10
6.1163033228
 20
9.5051695184
 30
0.0
 11
0.3905
 21
-0.0
 31
0.0
 40
0.0174550649
 41
0.0
 42
6.2831853072
  0
ELLIPSE
  5
515
100
AcDbEntity
  8
0
100
AcDbEllipse
 62
7
  6
CONTINUOUS
 10
6.1163033228
 20
8.1943765632
 30
0.0
 11
0.4659073721
 21
0.0
 31
0.0
 40
0.0034906727
 41
0.0
 42
6.2831853072
  0
ELLIPSE
  5
516
100
AcDbEntity
  8
0
100
AcDbEllipse
 62
7
  6
CONTINUOUS
 10
7.1213033228
 20
8.7463377288
 30
0.0
 11
0.0
 21
0.1300198026
 31
0.0
 40
0.9998476952
 41
0.0
 42
0.5686103003
  0
ELLIPSE
  5
517
100
AcDbEntity
  8
0
100
AcDbEllipse
 62
7
  6
CONTINUOUS
 10
5.1113033228
 20
14.3943768821
 30
0.0
 11
0.0
 21
-0.1300198026
 31
0.0
 40
0.9998476952
 41
0.0
 42
0.5686103003
  0
ELLIPSE
  5
518
100
AcDbEntity
  8
0
100
AcDbEllipse
 62
7
  6
CONTINUOUS
 10
7.7063033228
 20
8.8753102276
 30
0.0
 11
0.06
 21
-0.0
 31
0.0
 40
0.0174550649
 41
-0.0
 42
1.5707963268
  0
ELLIPSE
  5
519
100
AcDbEntity
  8
0
100
AcDbEllipse
 62
7
  6
CONTINUOUS
 10
6.1163033228
 20
14.9463380503
 30
0.0
 11
0.4659060204
 21
0.0
 31
0.0
 40
0.0034906727
 41
0.0
 42
6.2831853072
  0
ELLIPSE
  5
51A
100
AcDbEntity
  8
0
100
AcDbEllipse
 62
7
  6
CONTINUOUS
 10
18.3559884634
 20
8.251357671
 30
0.0
 11
0.0
 21
-0.0600003655
 31
0.0
 40
0.9999939077
 41
0.0
 42
1.5707963268
  0
ELLIPSE
  5
51B
100
AcDbEntity
  8
0
100
AcDbEllipse
 62
7
  6
CONTINUOUS
 10
16.2309884634
 20
8.5313593769
 30
0.0
 11
0.0
 21
-0.3400020714
 31
0.0
 40
0.9999939077
 41
-0.802171327
 42
-0.0
  0
ELLIPSE
  5
51C
100
AcDbEntity
  8
0
100
AcDbEllipse
 62
7
  6
CONTINUOUS
 10
16.7259884634
 20
14.8893569399
 30
0.0
 11
0.0
 21
-0.0600003655
 31
0.0
 40
0.9999939077
 41
3.1415926536
 42
4.7123889804
  0
ELLIPSE
  5
51D
100
AcDbEntity
  8
0
100
AcDbEllipse
 62
7
  6
CONTINUOUS
 10
18.8509884634
 20
14.6093552341
 30
0.0
 11
0.0
 21
0.3400020714
 31
0.0
 40
0.9999939077
 41
-0.802171327
 42
0.0
  0
ELLIPSE
  5
51E
100
AcDbEntity
  8
0
100
AcDbEllipse
 62
7
  6
CONTINUOUS
 10
16.5359884634
 20
14.3997879522
 30
0.0
 11
0.0
 21
0.1300198026
 31
0.0
 40
0.9998476952
 41
-3.1415926536
 42
-1.5707963268
  0
ELLIPSE
  5
51F
100
AcDbEntity
  8
0
100
AcDbEllipse
 62
7
  6
CONTINUOUS
 10
18.5459884634
 20
8.7409266587
 30
0.0
 11
0.0
 21
0.1300198026
 31
0.0
 40
0.9998476952
 41
0.0
 42
1.5707963268
  0
ELLIPSE
  5
520
100
AcDbEntity
  8
0
100
AcDbEllipse
 62
7
  6
CONTINUOUS
 10
19.0954033035
 20
14.2654043834
 30
0.0
 11
0.25
 21
0.0
 31
0.0
 40
0.0174550649
 41
0.6338895287
 42
1.1784682528
  0
ELLIPSE
  5
521
100
AcDbEntity
  8
0
100
AcDbEllipse
 62
7
  6
CONTINUOUS
 10
15.9865736233
 20
14.2654043834
 30
0.0
 11
0.25
 21
-0.0
 31
0.0
 40
0.0174550649
 41
1.5707963268
 42
2.5077031249
  0
ELLIPSE
  5
522
100
AcDbEntity
  8
0
100
AcDbEllipse
 62
7
  6
CONTINUOUS
 10
15.9865736233
 20
8.8753102276
 30
0.0
 11
0.25
 21
0.0
 31
0.0
 40
0.0174550649
 41
-2.5077031249
 42
-1.9631244008
  0
ELLIPSE
  5
523
100
AcDbEntity
  8
0
100
AcDbEllipse
 62
7
  6
CONTINUOUS
 10
19.0954033035
 20
8.8753102276
 30
0.0
 11
0.25
 21
0.0
 31
0.0
 40
0.0174550649
 41
-1.5707963268
 42
-0.6338895287
  0
ELLIPSE
  5
524
100
AcDbEntity
  8
0
100
AcDbEllipse
 62
7
  6
CONTINUOUS
 10
6.1163033228
 20
3.3199486043
 30
0.0
 11
-0.0
 21
0.4659073748
 31
0.0
 40
0.9999999943
 41
0.0
 42
6.2831853072
  0
ENDSEC
  0
SECTION
  2
OBJECTS
  0
DICTIONARY
  5
C
100
AcDbDictionary
280
0
281
1
  3
ACAD_GROUP
350
D
  3
ACAD_MLINESTYLE
350
17
  3
ACAD_LAYOUT
350
1A
  3
ACAD_PLOTSETTINGS
350
19
  3
ACAD_PLOTSTYLENAME
350
E
  3
ACAD_IMAGE_DICT
350
       526
  3
ACAD_IMAGE_VARS
350
       527
  0
IMAGEDEF_REACTOR
  5
525
100
AcDbRasterImageDefReactor
 90
2
330
277
  0
DICTIONARY
  5
D
102
{ACAD_REACTORS
330
C
102
}
100
AcDbDictionary
280
0
281
1
  0
ACDBDICTIONARYWDFLT
  5
E
102
{ACAD_REACTORS
330
C
102
}
100
AcDbDictionary
281
1
  3
Normal
350
F
100
AcDbDictionaryWithDefault
340
F
  0
DICTIONARY
  5
526
330
C
100
AcDbDictionary
281
1
  3
800H-1HVX7M1_img_1
350
       52A
  0
RASTERVARIABLES
  5
527
330
C
100
AcDbRasterVariables
 90
0
 70
0
 71
1
 72
5
  0
DICTIONARY
  5
17
102
{ACAD_REACTORS
330
C
102
}
100
AcDbDictionary
280
0
281
1
  3
Standard
350
18
  0
DICTIONARY
  5
19
102
{ACAD_REACTORS
330
C
102
}
100
AcDbDictionary
281
1
  0
DICTIONARY
  5
1A
102
{ACAD_REACTORS
330
C
102
}
100
AcDbDictionary
281
1
  3
Model
350
528
  3
Layout1
350
529
  0
ACDBPLACEHOLDER
  5
F
102
{ACAD_REACTORS
330
E
102
}
  0
MLINESTYLE
  5
18
102
{ACAD_REACTORS
330
17
102
}
100
AcDbMlineStyle
  2
STANDARD
 70
0
  3

 62
256
 51
90.0
 52
90.0
 71
2
 49
0.5
 62
256
  6
BYLAYER
 49
-0.5
 62
256
  6
BYLAYER
  0
LAYOUT
  5
528
102
{ACAD_REACTORS
330
1A
102
}
100
AcDbPlotSettings
  1

  2
none_device
  4
ANSI_C_(22.00_x_17.00_Inches)
  6

 40
0.0
 41
0.0
 42
0.0
 43
0.0
 44
558.8
 45
431.8
 46
0.0
 47
0.0
 48
0.0
 49
0.0
140
0.0
141
0.0
142
1.0
143
1.0
 70
1024
 72
0
 73
0
 74
0
  7

 75
0
147
1.0
148
0.0
149
0.0
100
AcDbLayout
  1
Model
 70
0
 71
0
 10
0.0
 20
0.0
 11
22.0
 21
17.0
 12
0.0
 22
0.0
 32
0.0
 14
0.0
 24
0.0
 34
0.0
 15
0.0
 25
0.0
 35
0.0
146
0.0
 13
0.0
 23
0.0
 33
0.0
 16
1.0
 26
0.0
 36
0.0
 17
0.0
 27
1.0
 37
0.0
 76
0
330
20B
345
0
346
0
  0
LAYOUT
  5
529
102
{ACAD_REACTORS
330
1A
102
}
100
AcDbPlotSettings
  1

  2
none_device
  4
ANSI_C_(22.00_x_17.00_Inches)
  6

 40
0.0
 41
0.0
 42
0.0
 43
0.0
 44
558.8
 45
431.8
 46
0.0
 47
0.0
 48
0.0
 49
0.0
140
0.0
141
0.0
142
1.0
143
1.0
 70
0
 72
0
 73
0
 74
0
  7

 75
0
147
1.0
148
0.0
149
0.0
100
AcDbLayout
  1
Layout1
 70
0
 71
1
 10
0.0
 20
0.0
 11
22.0
 21
17.0
 12
0.0
 22
0.0
 32
0.0
 14
0.0
 24
0.0
 34
0.0
 15
0.0
 25
0.0
 35
0.0
146
0.0
 13
0.0
 23
0.0
 33
0.0
 16
1.0
 26
0.0
 36
0.0
 17
0.0
 27
1.0
 37
0.0
 76
0
330
20C
345
0
346
0
  0
IMAGEDEF
  5
52A
102
{ACAD_REACTORS
330
526
330
525
102
}
100
AcDbRasterImageDef
 90
0
  1
800H-1HVX7M1_img_1.png
 10
841.0
 20
1020.0
 11
0.0066666667
 21
0.0066666667
280
1
281
0
  0
ENDSEC
  0
EOF
