  0
SECTION
  2
HEADER
  9
$ACADVER
  1
AC1015
  9
$ACADMAINTVER
 70
     6
  9
$DWGCODEPAGE
  3
ANSI_1252
  9
$INSBASE
 10
0.0
 20
0.0
 30
0.0
  9
$EXTMIN
 10
492.9418667656005
 20
-125.8177847529212
 30
-0.0000000349181948
  9
$EXTMAX
 10
647.9037362940484
 20
40.69518528470962
 30
0.0000000814935747
  9
$LIMMIN
 10
0.0
 20
0.0
  9
$LIMMAX
 10
420.0
 20
297.0
  9
$ORTHOMODE
 70
     1
  9
$REGENMODE
 70
     1
  9
$FILLMODE
 70
     1
  9
$QTEXTMODE
 70
     0
  9
$MIRRTEXT
 70
     1
  9
$LTSCALE
 40
1.0
  9
$ATTMODE
 70
     1
  9
$TEXTSIZE
 40
2.5
  9
$TRACEWID
 40
1.0
  9
$TEXTSTYLE
  7
Standard
  9
$CLAYER
  8
0
  9
$CELTYPE
  6
ByLayer
  9
$CECOLOR
 62
   256
  9
$CELTSCALE
 40
1.0
  9
$DISPSILH
 70
     0
  9
$DIMSCALE
 40
1.0
  9
$DIMASZ
 40
2.5
  9
$DIMEXO
 40
0.625
  9
$DIMDLI
 40
3.75
  9
$DIMRND
 40
0.0
  9
$DIMDLE
 40
0.0
  9
$DIMEXE
 40
1.25
  9
$DIMTP
 40
0.0
  9
$DIMTM
 40
0.0
  9
$DIMTXT
 40
2.5
  9
$DIMCEN
 40
2.5
  9
$DIMTSZ
 40
0.0
  9
$DIMTOL
 70
     0
  9
$DIMLIM
 70
     0
  9
$DIMTIH
 70
     0
  9
$DIMTOH
 70
     0
  9
$DIMSE1
 70
     0
  9
$DIMSE2
 70
     0
  9
$DIMTAD
 70
     1
  9
$DIMZIN
 70
     8
  9
$DIMBLK
  1

  9
$DIMASO
 70
     1
  9
$DIMSHO
 70
     1
  9
$DIMPOST
  1

  9
$DIMAPOST
  1

  9
$DIMALT
 70
     0
  9
$DIMALTD
 70
     3
  9
$DIMALTF
 40
0.03937007874016
  9
$DIMLFAC
 40
1.0
  9
$DIMTOFL
 70
     1
  9
$DIMTVP
 40
0.0
  9
$DIMTIX
 70
     0
  9
$DIMSOXD
 70
     0
  9
$DIMSAH
 70
     0
  9
$DIMBLK1
  1

  9
$DIMBLK2
  1

  9
$DIMSTYLE
  2
ISO-25
  9
$DIMCLRD
 70
     0
  9
$DIMCLRE
 70
     0
  9
$DIMCLRT
 70
     0
  9
$DIMTFAC
 40
1.0
  9
$DIMGAP
 40
0.625
  9
$DIMJUST
 70
     0
  9
$DIMSD1
 70
     0
  9
$DIMSD2
 70
     0
  9
$DIMTOLJ
 70
     0
  9
$DIMTZIN
 70
     8
  9
$DIMALTZ
 70
     0
  9
$DIMALTTZ
 70
     0
  9
$DIMUPT
 70
     0
  9
$DIMDEC
 70
     2
  9
$DIMTDEC
 70
     2
  9
$DIMALTU
 70
     2
  9
$DIMALTTD
 70
     3
  9
$DIMTXSTY
  7
Standard
  9
$DIMAUNIT
 70
     0
  9
$DIMADEC
 70
     0
  9
$DIMALTRND
 40
0.0
  9
$DIMAZIN
 70
     0
  9
$DIMDSEP
 70
    44
  9
$DIMATFIT
 70
     3
  9
$DIMFRAC
 70
     0
  9
$DIMLDRBLK
  1

  9
$DIMLUNIT
 70
     2
  9
$DIMLWD
 70
    -2
  9
$DIMLWE
 70
    -2
  9
$DIMTMOVE
 70
     0
  9
$LUNITS
 70
     2
  9
$LUPREC
 70
     4
  9
$SKETCHINC
 40
1.0
  9
$FILLETRAD
 40
0.0
  9
$AUNITS
 70
     0
  9
$AUPREC
 70
     0
  9
$MENU
  1
.
  9
$ELEVATION
 40
0.0
  9
$PELEVATION
 40
0.0
  9
$THICKNESS
 40
0.0
  9
$LIMCHECK
 70
     0
  9
$CHAMFERA
 40
10.0
  9
$CHAMFERB
 40
10.0
  9
$CHAMFERC
 40
20.0
  9
$CHAMFERD
 40
0.0
  9
$SKPOLY
 70
     0
  9
$TDCREATE
 40
2453157.359609375
  9
$TDUCREATE
 40
2453157.317942708
  9
$TDUPDATE
 40
2455204.425223472
  9
$TDUUPDATE
 40
2455204.383556805
  9
$TDINDWG
 40
0.0236764583
  9
$TDUSRTIMER
 40
0.0236755440
  9
$USRTIMER
 70
     1
  9
$ANGBASE
 50
0.0
  9
$ANGDIR
 70
     0
  9
$PDMODE
 70
     0
  9
$PDSIZE
 40
0.0
  9
$PLINEWID
 40
0.0
  9
$SPLFRAME
 70
     0
  9
$SPLINETYPE
 70
     6
  9
$SPLINESEGS
 70
     8
  9
$HANDSEED
  5
19BF
  9
$SURFTAB1
 70
     6
  9
$SURFTAB2
 70
     6
  9
$SURFTYPE
 70
     6
  9
$SURFU
 70
     6
  9
$SURFV
 70
     6
  9
$UCSBASE
  2

  9
$UCSNAME
  2

  9
$UCSORG
 10
0.0
 20
0.0
 30
0.0
  9
$UCSXDIR
 10
1.0
 20
0.0
 30
0.0
  9
$UCSYDIR
 10
0.0
 20
1.0
 30
0.0
  9
$UCSORTHOREF
  2

  9
$UCSORTHOVIEW
 70
     0
  9
$UCSORGTOP
 10
0.0
 20
0.0
 30
0.0
  9
$UCSORGBOTTOM
 10
0.0
 20
0.0
 30
0.0
  9
$UCSORGLEFT
 10
0.0
 20
0.0
 30
0.0
  9
$UCSORGRIGHT
 10
0.0
 20
0.0
 30
0.0
  9
$UCSORGFRONT
 10
0.0
 20
0.0
 30
0.0
  9
$UCSORGBACK
 10
0.0
 20
0.0
 30
0.0
  9
$PUCSBASE
  2

  9
$PUCSNAME
  2

  9
$PUCSORG
 10
0.0
 20
0.0
 30
0.0
  9
$PUCSXDIR
 10
1.0
 20
0.0
 30
0.0
  9
$PUCSYDIR
 10
0.0
 20
1.0
 30
0.0
  9
$PUCSORTHOREF
  2

  9
$PUCSORTHOVIEW
 70
     0
  9
$PUCSORGTOP
 10
0.0
 20
0.0
 30
0.0
  9
$PUCSORGBOTTOM
 10
0.0
 20
0.0
 30
0.0
  9
$PUCSORGLEFT
 10
0.0
 20
0.0
 30
0.0
  9
$PUCSORGRIGHT
 10
0.0
 20
0.0
 30
0.0
  9
$PUCSORGFRONT
 10
0.0
 20
0.0
 30
0.0
  9
$PUCSORGBACK
 10
0.0
 20
0.0
 30
0.0
  9
$USERI1
 70
     0
  9
$USERI2
 70
     0
  9
$USERI3
 70
     0
  9
$USERI4
 70
     0
  9
$USERI5
 70
     0
  9
$USERR1
 40
0.0
  9
$USERR2
 40
0.0
  9
$USERR3
 40
0.0
  9
$USERR4
 40
0.0
  9
$USERR5
 40
0.0
  9
$WORLDVIEW
 70
     1
  9
$SHADEDGE
 70
     3
  9
$SHADEDIF
 70
    70
  9
$TILEMODE
 70
     1
  9
$MAXACTVP
 70
    64
  9
$PINSBASE
 10
0.0
 20
0.0
 30
0.0
  9
$PLIMCHECK
 70
     0
  9
$PEXTMIN
 10
26.66999878883363
 20
20.31999878883361
 30
0.0
  9
$PEXTMAX
 10
240.0299890995025
 20
182.8799890995025
 30
0.0
  9
$PLIMMIN
 10
-6.350006103515625
 20
-6.349999904632567
  9
$PLIMMAX
 10
273.0499877929687
 20
209.5499939918517
  9
$UNITMODE
 70
     0
  9
$VISRETAIN
 70
     1
  9
$PLINEGEN
 70
     0
  9
$PSLTSCALE
 70
     1
  9
$TREEDEPTH
 70
  3020
  9
$CMLSTYLE
  2
Standard
  9
$CMLJUST
 70
     0
  9
$CMLSCALE
 40
20.0
  9
$PROXYGRAPHICS
 70
     1
  9
$MEASUREMENT
 70
     1
  9
$CELWEIGHT
370
    -1
  9
$ENDCAPS
280
     0
  9
$JOINSTYLE
280
     0
  9
$LWDISPLAY
290
     0
  9
$INSUNITS
 70
     4
  9
$HYPERLINKBASE
  1

  9
$STYLESHEET
  1

  9
$XEDIT
290
     1
  9
$CEPSNTYPE
380
     0
  9
$PSTYLEMODE
290
     0
  9
$FINGERPRINTGUID
  2
{35BD88C3-9548-11D2-9A29-0060089B3A3F}
  9
$VERSIONGUID
  2
{E41835DD-8225-416C-9280-F74475FEDE90}
  9
$EXTNAMES
290
     1
  9
$PSVPSCALE
 40
0.0
  9
$OLESTARTUP
290
     0
  0
ENDSEC
  0
SECTION
  2
CLASSES
  0
CLASS
  1
ACDBDICTIONARYWDFLT
  2
AcDbDictionaryWithDefault
  3
AutoCAD 2000
 90
        0
280
     0
281
     0
  0
CLASS
  1
ACDBPLACEHOLDER
  2
AcDbPlaceHolder
  3
AutoCAD 2000
 90
        0
280
     0
281
     0
  0
CLASS
  1
LAYOUT
  2
AcDbLayout
  3
AutoCAD 2000
 90
        0
280
     0
281
     0
  0
CLASS
  1
DICTIONARYVAR
  2
AcDbDictionaryVar
  3
AutoCAD 2000
 90
        0
280
     0
281
     0
  0
CLASS
  1
DIMASSOC
  2
AcDbDimAssoc
  3
"AcDbDimAssoc|Product Desc:     AcDim ARX App For Dimension|Company:          Autodesk, Inc.|WEB Address:      www.autodesk.com"
 90
        0
280
     0
281
     0
  0
CLASS
  1
MATERIAL
  2
AcDbMaterial
  3
ObjectDBX Classes
 90
     1153
280
     0
281
     0
  0
CLASS
  1
VISUALSTYLE
  2
AcDbVisualStyle
  3
ObjectDBX Classes
 90
     4095
280
     0
281
     0
  0
CLASS
  1
TABLESTYLE
  2
AcDbTableStyle
  3
ObjectDBX Classes
 90
     4095
280
     0
281
     0
  0
CLASS
  1
SCALE
  2
AcDbScale
  3
ObjectDBX Classes
 90
     1153
280
     0
281
     0
  0
CLASS
  1
MLEADERSTYLE
  2
AcDbMLeaderStyle
  3
ACDB_MLEADERSTYLE_CLASS
 90
     4095
280
     0
281
     0
  0
CLASS
  1
CELLSTYLEMAP
  2
AcDbCellStyleMap
  3
ObjectDBX Classes
 90
     1152
280
     0
281
     0
  0
ENDSEC
  0
SECTION
  2
TABLES
  0
TABLE
  2
VPORT
  5
8
102
{ACAD_XDICTIONARY
360
1737
102
}
330
0
100
AcDbSymbolTable
 70
     3
  0
VPORT
  5
19BE
330
8
100
AcDbSymbolTableRecord
100
AcDbViewportTableRecord
  2
*Active
 70
     0
 10
0.0
 20
0.0
 11
1.0
 21
1.0
 12
570.4228015298244
 22
-42.56129973410582
 13
0.0
 23
0.0
 14
10.0
 24
10.0
 15
10.0
 25
10.0
 16
0.0
 26
0.0
 36
1.0
 17
0.0
 27
0.0
 37
0.0
 40
167.7540604975387
 41
1.5
 42
50.0
 43
0.0
 44
0.0
 50
0.0
 51
0.0
 71
     0
 72
   100
 73
     1
 74
     1
 75
     0
 76
     0
 77
     0
 78
     0
281
     0
 65
     1
110
0.0
120
0.0
130
0.0
111
1.0
121
0.0
131
0.0
112
0.0
122
1.0
132
0.0
 79
     0
146
0.0
  0
ENDTAB
  0
TABLE
  2
LTYPE
  5
5
330
0
100
AcDbSymbolTable
 70
     1
  0
LTYPE
  5
14
330
5
100
AcDbSymbolTableRecord
100
AcDbLinetypeTableRecord
  2
ByBlock
 70
     0
  3

 72
    65
 73
     0
 40
0.0
  0
LTYPE
  5
15
330
5
100
AcDbSymbolTableRecord
100
AcDbLinetypeTableRecord
  2
ByLayer
 70
     0
  3

 72
    65
 73
     0
 40
0.0
  0
LTYPE
  5
16
330
5
100
AcDbSymbolTableRecord
100
AcDbLinetypeTableRecord
  2
Continuous
 70
     0
  3
Solid line
 72
    65
 73
     0
 40
0.0
  0
ENDTAB
  0
TABLE
  2
LAYER
  5
2
330
0
100
AcDbSymbolTable
 70
     3
  0
LAYER
  5
10
102
{ACAD_XDICTIONARY
360
1716
102
}
330
2
100
AcDbSymbolTableRecord
100
AcDbLayerTableRecord
  2
0
 70
     0
 62
     7
  6
Continuous
370
    -3
390
F
  0
LAYER
  5
135A
330
2
100
AcDbSymbolTableRecord
100
AcDbLayerTableRecord
  2
Defpoints
 70
     0
 62
     7
  6
Continuous
290
     0
370
    -3
390
F
  0
LAYER
  5
154A
102
{ACAD_XDICTIONARY
360
1718
102
}
330
2
100
AcDbSymbolTableRecord
100
AcDbLayerTableRecord
  2
AM_VIS
 70
     0
 62
     7
  6
Continuous
370
    50
390
F
  0
ENDTAB
  0
TABLE
  2
STYLE
  5
3
330
0
100
AcDbSymbolTable
 70
     2
  0
STYLE
  5
11
330
3
100
AcDbSymbolTableRecord
100
AcDbTextStyleTableRecord
  2
Standard
 70
     0
 40
0.0
 41
1.0
 50
0.0
 71
     0
 42
2.5
  3
txt
  4

  0
STYLE
  5
7A
330
3
100
AcDbSymbolTableRecord
100
AcDbTextStyleTableRecord
  2
TextStyle30
 70
     0
 40
0.0
 41
1.0
 50
0.0
 71
     0
 42
0.2
  3

  4

  0
ENDTAB
  0
TABLE
  2
VIEW
  5
6
330
0
100
AcDbSymbolTable
 70
     0
  0
ENDTAB
  0
TABLE
  2
UCS
  5
7
330
0
100
AcDbSymbolTable
 70
     0
  0
ENDTAB
  0
TABLE
  2
APPID
  5
9
330
0
100
AcDbSymbolTable
 70
     2
  0
APPID
  5
12
330
9
100
AcDbSymbolTableRecord
100
AcDbRegAppTableRecord
  2
ACAD
 70
     0
  0
APPID
  5
1713
330
9
100
AcDbSymbolTableRecord
100
AcDbRegAppTableRecord
  2
ACAD_MLEADERVER
 70
     0
  0
ENDTAB
  0
TABLE
  2
DIMSTYLE
  5
A
330
0
100
AcDbSymbolTable
 70
     7
100
AcDbDimStyleTable
 71
     1
340
27
  0
DIMSTYLE
105
27
102
{ACAD_REACTORS
330
138A
330
1463
330
151F
102
}
330
A
100
AcDbSymbolTableRecord
100
AcDbDimStyleTableRecord
  2
ISO-25
 70
     0
 41
2.5
 42
0.625
 43
3.75
 44
1.25
 73
     0
 74
     0
 77
     1
 78
     8
140
2.5
141
2.5
143
0.03937007874016
147
0.625
171
     3
172
     1
271
     2
272
     2
274
     3
278
    44
283
     0
284
     8
340
11
  0
DIMSTYLE
105
7B
330
A
100
AcDbSymbolTableRecord
100
AcDbDimStyleTableRecord
  2
2dTranslatorDimStyle
 70
     0
 41
1.799999999999999
140
1.799999999999999
340
11
  0
DIMSTYLE
105
154B
330
A
100
AcDbSymbolTableRecord
100
AcDbDimStyleTableRecord
  2
AM_JIS
 70
     0
  4
"
 41
2.5
 42
1.0
 43
10.0
 44
1.0
 47
0.1
 48
0.1
 73
     0
 74
     0
 77
     3
 78
     8
 79
     2
140
3.5
141
0.0
143
0.0393701
146
0.71
147
1.5
172
     1
176
   256
177
   256
178
     2
271
     2
272
     3
274
     4
283
     0
284
     8
340
11
341
1544
342
1544
343
1544
344
1544
371
    -1
372
    -1
  0
DIMSTYLE
105
154C
330
A
100
AcDbSymbolTableRecord
100
AcDbDimStyleTableRecord
  2
AM_ANSI
 70
     0
  4
"
 41
2.5
 42
1.0
 43
10.0
 44
1.0
 47
0.1
 48
0.1
 78
     8
 79
     2
140
3.5
141
0.0
143
0.0393701
146
0.71
147
1.5
176
   256
177
   256
178
     2
271
     2
272
     3
274
     4
284
     8
340
11
371
    -1
372
    -1
  0
DIMSTYLE
105
154D
330
A
100
AcDbSymbolTableRecord
100
AcDbDimStyleTableRecord
  2
AM_BSI
 70
     0
  4
"
 41
4.0
 42
1.0
 43
10.0
 44
1.0
 47
0.1
 48
0.1
 73
     0
 74
     0
 77
     1
 78
     8
 79
     2
140
3.5
141
0.0
143
0.0393701
146
0.71
147
1.5
172
     1
176
   256
177
   256
178
     2
271
     2
272
     3
274
     4
283
     0
284
     8
340
11
371
    -1
372
    -1
  0
DIMSTYLE
105
154E
330
A
100
AcDbSymbolTableRecord
100
AcDbDimStyleTableRecord
  2
AM_DIN
 70
     0
  4
"
 41
2.5
 42
1.0
 43
10.0
 44
1.0
 47
0.1
 48
0.1
 73
     0
 74
     0
 77
     1
 78
     8
 79
     2
140
3.5
141
0.0
143
0.0393701
146
0.71
147
1.5
172
     1
176
   256
177
   256
178
     2
271
     2
272
     3
274
     4
283
     0
284
     8
340
11
371
    -1
372
    -1
  0
DIMSTYLE
105
154F
330
A
100
AcDbSymbolTableRecord
100
AcDbDimStyleTableRecord
  2
AM_ISO
 70
     0
  4
"
 41
2.5
 42
1.0
 43
10.0
 44
1.0
 47
0.1
 48
0.1
 73
     0
 74
     0
 77
     1
 78
     8
 79
     2
140
3.5
141
0.0
143
0.0393701
146
0.71
147
1.5
172
     1
176
   256
177
   256
178
     2
271
     2
272
     3
274
     4
283
     0
284
     8
340
11
371
    -1
372
    -1
  0
ENDTAB
  0
TABLE
  2
BLOCK_RECORD
  5
1
330
0
100
AcDbSymbolTable
 70
     6
  0
BLOCK_RECORD
  5
1F
330
1
100
AcDbSymbolTableRecord
100
AcDbBlockTableRecord
  2
*Model_Space
340
22
  0
BLOCK_RECORD
  5
59
330
1
100
AcDbSymbolTableRecord
100
AcDbBlockTableRecord
  2
*Paper_Space
340
5A
  0
BLOCK_RECORD
  5
5E
330
1
100
AcDbSymbolTableRecord
100
AcDbBlockTableRecord
  2
*Paper_Space0
340
5F
  0
BLOCK_RECORD
  5
138B
330
1
100
AcDbSymbolTableRecord
100
AcDbBlockTableRecord
  2
*D1
340
0
  0
BLOCK_RECORD
  5
1509
330
1
100
AcDbSymbolTableRecord
100
AcDbBlockTableRecord
  2
*D2
340
0
  0
BLOCK_RECORD
  5
1520
330
1
100
AcDbSymbolTableRecord
100
AcDbBlockTableRecord
  2
*D3
340
0
  0
BLOCK_RECORD
  5
1544
330
1
100
AcDbSymbolTableRecord
100
AcDbBlockTableRecord
  2
_Open30
340
0
  0
ENDTAB
  0
ENDSEC
  0
SECTION
  2
BLOCKS
  0
BLOCK
  5
20
330
1F
100
AcDbEntity
  8
0
100
AcDbBlockBegin
  2
*Model_Space
 70
     0
 10
0.0
 20
0.0
 30
0.0
  3
*Model_Space
  1

  0
ENDBLK
  5
21
330
1F
100
AcDbEntity
  8
0
100
AcDbBlockEnd
  0
BLOCK
  5
5B
330
59
100
AcDbEntity
 67
     1
  8
0
100
AcDbBlockBegin
  2
*Paper_Space
 70
     0
 10
0.0
 20
0.0
 30
0.0
  3
*Paper_Space
  1

  0
ENDBLK
  5
5C
330
59
100
AcDbEntity
 67
     1
  8
0
100
AcDbBlockEnd
  0
BLOCK
  5
60
330
5E
100
AcDbEntity
  8
0
100
AcDbBlockBegin
  2
*Paper_Space0
 70
     0
 10
0.0
 20
0.0
 30
0.0
  3
*Paper_Space0
  1

  0
ENDBLK
  5
61
330
5E
100
AcDbEntity
  8
0
100
AcDbBlockEnd
  0
BLOCK
  5
1395
330
138B
100
AcDbEntity
  8
0
100
AcDbBlockBegin
  2
*D1
 70
     1
 10
0.0
 20
0.0
 30
0.0
  3
*D1
  1

  0
LINE
  5
13A2
330
138B
100
AcDbEntity
  8
0
 62
     0
370
    -2
100
AcDbLine
 10
515.2289487840612
 20
-103.2919811533433
 30
0.0
 11
495.2700081900553
 21
-103.2919811533433
 31
0.0
  0
LINE
  5
13A3
330
138B
100
AcDbEntity
  8
0
 62
     0
370
    -2
100
AcDbLine
 10
515.2289479979241
 20
-125.7919811533433
 30
0.0
 11
495.2700081900553
 21
-125.7919811533433
 31
0.0
  0
LINE
  5
13A4
330
138B
100
AcDbEntity
  8
0
 62
     0
370
    -2
100
AcDbLine
 10
496.5200081900554
 20
-105.7919811533432
 30
0.0
 11
496.5200081900554
 21
-123.2919811533432
 31
0.0
  0
SOLID
  5
13A5
330
138B
100
AcDbEntity
  8
0
 62
     0
100
AcDbTrace
 10
496.1033415233885
 20
-105.7919811533432
 30
0.0
 11
496.936674856722
 21
-105.7919811533432
 31
0.0
 12
496.5200081900554
 22
-103.2919811533433
 32
0.0
 13
496.5200081900554
 23
-103.2919811533433
 33
0.0
  0
SOLID
  5
13A6
330
138B
100
AcDbEntity
  8
0
 62
     0
100
AcDbTrace
 10
496.1033415233885
 20
-123.2919811533432
 30
0.0
 11
496.936674856722
 21
-123.2919811533432
 31
0.0
 12
496.5200081900554
 22
-125.7919811533433
 32
0.0
 13
496.5200081900554
 23
-125.7919811533433
 33
0.0
  0
MTEXT
  5
13A7
330
138B
100
AcDbEntity
  8
0
 62
     0
100
AcDbMText
 10
494.436674856722
 20
-114.5419811533429
 30
0.0
 40
2.5
 41
0.0
 71
     5
 72
     1
  1
22,5
 11
0.0000000000000001
 21
1.0
 31
0.0
 73
     1
 44
1.0
1001
ACAD
1000
MTEXTBEGIN
1070
    73
1070
     1
1070
    44
1040
1.0
1070
    74
1070
     0
1000
MTEXTEND
  0
POINT
  5
13A8
330
138B
100
AcDbEntity
  8
Defpoints
 62
     0
100
AcDbPoint
 10
515.8539487840612
 20
-103.2919811533433
 30
0.0
  0
POINT
  5
13A9
330
138B
100
AcDbEntity
  8
Defpoints
 62
     0
100
AcDbPoint
 10
515.8539479979241
 20
-125.7919811533433
 30
0.0
  0
POINT
  5
13AA
330
138B
100
AcDbEntity
  8
Defpoints
 62
     0
100
AcDbPoint
 10
496.5200081900554
 20
-125.7919811533433
 30
0.0
  0
ENDBLK
  5
1396
330
138B
100
AcDbEntity
  8
0
100
AcDbBlockEnd
  0
BLOCK
  5
1513
330
1509
100
AcDbEntity
  8
0
100
AcDbBlockBegin
  2
*D2
 70
     1
 10
0.0
 20
0.0
 30
0.0
  3
*D2
  1

  0
LINE
  5
1516
330
1509
100
AcDbEntity
  8
0
 62
     0
370
    -2
100
AcDbLine
 10
515.7972198230461
 20
-4.156521425312518
 30
0.0
 11
515.7972198230461
 21
38.79812270038821
 31
0.0
  0
LINE
  5
1517
330
1509
100
AcDbEntity
  8
0
 62
     0
370
    -2
100
AcDbLine
 10
595.797219823046
 20
-4.156521425308993
 30
0.0
 11
595.797219823046
 21
38.79812270038821
 31
0.0
  0
LINE
  5
1518
330
1509
100
AcDbEntity
  8
0
 62
     0
370
    -2
100
AcDbLine
 10
518.2972198230461
 20
37.54812270038821
 30
0.0
 11
593.2972198230459
 21
37.54812270038821
 31
0.0
  0
SOLID
  5
1519
330
1509
100
AcDbEntity
  8
0
 62
     0
100
AcDbTrace
 10
518.2972198230461
 20
37.96478936705485
 30
0.0
 11
518.2972198230461
 21
37.13145603372154
 31
0.0
 12
515.7972198230461
 22
37.54812270038821
 32
0.0
 13
515.7972198230461
 23
37.54812270038821
 33
0.0
  0
SOLID
  5
151A
330
1509
100
AcDbEntity
  8
0
 62
     0
100
AcDbTrace
 10
593.2972198230459
 20
37.96478936705485
 30
0.0
 11
593.2972198230459
 21
37.13145603372154
 31
0.0
 12
595.797219823046
 22
37.54812270038821
 32
0.0
 13
595.797219823046
 23
37.54812270038821
 33
0.0
  0
MTEXT
  5
151B
330
1509
100
AcDbEntity
  8
0
 62
     0
100
AcDbMText
 10
555.7972198230461
 20
39.42312270038821
 30
0.0
 40
2.5
 41
0.0
 71
     5
 72
     1
  1
80
 73
     1
 44
1.0
1001
ACAD
1000
MTEXTBEGIN
1070
    73
1070
     1
1070
    44
1040
1.0
1070
    74
1070
     0
1000
MTEXTEND
  0
POINT
  5
151C
330
1509
100
AcDbEntity
  8
Defpoints
 62
     0
100
AcDbPoint
 10
515.7972198230461
 20
-4.781521425312518
 30
0.0
  0
POINT
  5
151D
330
1509
100
AcDbEntity
  8
Defpoints
 62
     0
100
AcDbPoint
 10
595.797219823046
 20
-4.781521425308993
 30
0.0
  0
POINT
  5
151E
330
1509
100
AcDbEntity
  8
Defpoints
 62
     0
100
AcDbPoint
 10
595.797219823046
 20
37.54812270038821
 30
0.0
  0
ENDBLK
  5
1514
330
1509
100
AcDbEntity
  8
0
100
AcDbBlockEnd
  0
BLOCK
  5
152A
330
1520
100
AcDbEntity
  8
0
100
AcDbBlockBegin
  2
*D3
 70
     1
 10
0.0
 20
0.0
 30
0.0
  3
*D3
  1

  0
LINE
  5
152D
330
1520
100
AcDbEntity
  8
0
 62
     0
370
    -2
100
AcDbLine
 10
534.2935401666071
 20
25.72161829550447
 30
0.0
 11
495.2700081900553
 21
25.72161829550448
 31
0.0
  0
LINE
  5
152E
330
1520
100
AcDbEntity
  8
0
 62
     0
370
    -2
100
AcDbLine
 10
515.172219823042
 20
-73.28152142530946
 30
0.0
 11
495.2700081900553
 21
-73.28152142530946
 31
0.0
  0
LINE
  5
152F
330
1520
100
AcDbEntity
  8
0
 62
     0
370
    -2
100
AcDbLine
 10
496.5200081900554
 20
23.22161829550448
 30
0.0
 11
496.5200081900554
 21
-70.78152142530946
 31
0.0
  0
SOLID
  5
1530
330
1520
100
AcDbEntity
  8
0
 62
     0
100
AcDbTrace
 10
496.1033415233885
 20
23.22161829550448
 30
0.0
 11
496.936674856722
 21
23.22161829550448
 31
0.0
 12
496.5200081900554
 22
25.72161829550448
 32
0.0
 13
496.5200081900554
 23
25.72161829550448
 33
0.0
  0
SOLID
  5
1531
330
1520
100
AcDbEntity
  8
0
 62
     0
100
AcDbTrace
 10
496.1033415233885
 20
-70.78152142530946
 30
0.0
 11
496.936674856722
 21
-70.78152142530946
 31
0.0
 12
496.5200081900554
 22
-73.28152142530946
 32
0.0
 13
496.5200081900554
 23
-73.28152142530946
 33
0.0
  0
MTEXT
  5
1532
330
1520
100
AcDbEntity
  8
0
 62
     0
100
AcDbMText
 10
494.6450081900553
 20
-23.77995156490239
 30
0.0
 40
2.5
 41
0.0
 71
     5
 72
     1
  1
99
 11
0.0000000000000001
 21
1.0
 31
0.0
 73
     1
 44
1.0
1001
ACAD
1000
MTEXTBEGIN
1070
    73
1070
     1
1070
    44
1040
1.0
1070
    74
1070
     0
1000
MTEXTEND
  0
POINT
  5
1533
330
1520
100
AcDbEntity
  8
Defpoints
 62
     0
100
AcDbPoint
 10
534.9185401666073
 20
25.72161829550447
 30
0.0
  0
POINT
  5
1534
330
1520
100
AcDbEntity
  8
Defpoints
 62
     0
100
AcDbPoint
 10
515.797219823042
 20
-73.28152142530946
 30
0.0
  0
POINT
  5
1535
330
1520
100
AcDbEntity
  8
Defpoints
 62
     0
100
AcDbPoint
 10
496.5200081900554
 20
-73.28152142530946
 30
0.0
  0
ENDBLK
  5
152B
330
1520
100
AcDbEntity
  8
0
100
AcDbBlockEnd
  0
BLOCK
  5
1548
330
1544
100
AcDbEntity
  8
0
100
AcDbBlockBegin
  2
_Open30
 70
     0
 10
0.0
 20
0.0
 30
0.0
  3
_Open30
  1

  0
LINE
  5
1545
330
1544
100
AcDbEntity
  8
0
  6
ByBlock
 62
     0
370
    -2
100
AcDbLine
 10
-1.0
 20
0.26794919
 30
0.0
 11
0.0
 21
0.0
 31
0.0
  0
LINE
  5
1546
330
1544
100
AcDbEntity
  8
0
  6
ByBlock
 62
     0
370
    -2
100
AcDbLine
 10
0.0
 20
0.0
 30
0.0
 11
-1.0
 21
-0.26794919
 31
0.0
  0
LINE
  5
1547
330
1544
100
AcDbEntity
  8
0
  6
ByBlock
 62
     0
370
    -2
100
AcDbLine
 10
0.0
 20
0.0
 30
0.0
 11
-1.0
 21
0.0
 31
0.0
  0
ENDBLK
  5
1549
330
1544
100
AcDbEntity
  8
0
100
AcDbBlockEnd
  0
ENDSEC
  0
SECTION
  2
ENTITIES
  0
LINE
  5
9EC
330
1F
100
AcDbEntity
  8
0
  6
Continuous
 62
     7
370
    35
100
AcDbLine
 10
636.6141901816097
 20
-71.78152142530963
 30
0.0
 11
636.6141901816097
 21
-33.78152142530962
 31
0.0
  0
LINE
  5
9ED
330
1F
100
AcDbEntity
  8
0
  6
Continuous
 62
     7
370
    35
100
AcDbLine
 10
636.6141901816097
 20
-71.78152142530969
 30
0.0
 11
636.6141901816097
 21
-33.78152142530967
 31
0.0
  0
LINE
  5
9EE
330
1F
100
AcDbEntity
  8
0
  6
Continuous
 62
     7
370
    35
100
AcDbLine
 10
647.8641901816103
 20
-4.78152142530962
 30
0.0
 11
647.8641901816103
 21
-71.81097684737959
 31
0.0
  0
LINE
  5
9EF
330
1F
100
AcDbEntity
  8
0
  6
Continuous
 62
     7
370
    35
100
AcDbLine
 10
625.3641901816102
 20
-4.78152142531124
 30
0.0
 11
625.3641901816102
 21
-71.81097684737967
 31
0.0
  0
POLYLINE
  5
9F0
330
1F
100
AcDbEntity
  8
0
  6
Continuous
 62
     7
370
    35
100
AcDb2dPolyline
 66
     1
 10
0.0
 20
0.0
 30
0.0
  0
VERTEX
  5
9F1
330
9F0
100
AcDbEntity
  8
0
  6
Continuous
 62
     7
370
    35
100
AcDbVertex
100
AcDb2dVertex
 10
647.8641901816103
 20
-4.7815204716353
 30
0.0
  0
VERTEX
  5
9F2
330
9F0
100
AcDbEntity
  8
0
  6
Continuous
 62
     7
370
    35
100
AcDbVertex
100
AcDb2dVertex
 10
647.7891896570891
 20
-4.7815204716353
 30
0.0
  0
VERTEX
  5
9F3
330
9F0
100
AcDbEntity
  8
0
  6
Continuous
 62
     7
370
    35
100
AcDbVertex
100
AcDb2dVertex
 10
647.7141903246612
 20
-4.7815204716353
 30
0.0
  0
VERTEX
  5
9F4
330
9F0
100
AcDbEntity
  8
0
  6
Continuous
 62
     7
370
    35
100
AcDbVertex
100
AcDb2dVertex
 10
647.6391898001402
 20
-4.7815204716353
 30
0.0
  0
VERTEX
  5
9F5
330
9F0
100
AcDbEntity
  8
0
  6
Continuous
 62
     7
370
    35
100
AcDbVertex
100
AcDb2dVertex
 10
647.5641904677122
 20
-4.7815204716353
 30
0.0
  0
VERTEX
  5
9F6
330
9F0
100
AcDbEntity
  8
0
  6
Continuous
 62
     7
370
    35
100
AcDbVertex
100
AcDb2dVertex
 10
647.4891899431916
 20
-4.7815204716353
 30
0.0
  0
VERTEX
  5
9F7
330
9F0
100
AcDbEntity
  8
0
  6
Continuous
 62
     7
370
    35
100
AcDbVertex
100
AcDb2dVertex
 10
647.4141906107636
 20
-4.7815204716353
 30
0.0
  0
VERTEX
  5
9F8
330
9F0
100
AcDbEntity
  8
0
  6
Continuous
 62
     7
370
    35
100
AcDbVertex
100
AcDb2dVertex
 10
647.3391900862427
 20
-4.7815204716353
 30
0.0
  0
VERTEX
  5
9F9
330
9F0
100
AcDbEntity
  8
0
  6
Continuous
 62
     7
370
    35
100
AcDbVertex
100
AcDb2dVertex
 10
647.2641907538148
 20
-4.7815204716353
 30
0.0
  0
VERTEX
  5
9FA
330
9F0
100
AcDbEntity
  8
0
  6
Continuous
 62
     7
370
    35
100
AcDbVertex
100
AcDb2dVertex
 10
647.1891902292939
 20
-4.7815204716353
 30
0.0
  0
VERTEX
  5
9FB
330
9F0
100
AcDbEntity
  8
0
  6
Continuous
 62
     7
370
    35
100
AcDbVertex
100
AcDb2dVertex
 10
647.114189704773
 20
-4.7815204716353
 30
0.0
  0
VERTEX
  5
9FC
330
9F0
100
AcDbEntity
  8
0
  6
Continuous
 62
     7
370
    35
100
AcDbVertex
100
AcDb2dVertex
 10
647.0391903723449
 20
-4.7815204716353
 30
0.0
  0
VERTEX
  5
9FD
330
9F0
100
AcDbEntity
  8
0
  6
Continuous
 62
     7
370
    35
100
AcDbVertex
100
AcDb2dVertex
 10
646.9641898478243
 20
-4.7815204716353
 30
0.0
  0
VERTEX
  5
9FE
330
9F0
100
AcDbEntity
  8
0
  6
Continuous
 62
     7
370
    35
100
AcDbVertex
100
AcDb2dVertex
 10
646.8891905153959
 20
-4.7815204716353
 30
0.0
  0
VERTEX
  5
9FF
330
9F0
100
AcDbEntity
  8
0
  6
Continuous
 62
     7
370
    35
100
AcDbVertex
100
AcDb2dVertex
 10
646.8141899908752
 20
-4.7815204716353
 30
0.0
  0
VERTEX
  5
A00
330
9F0
100
AcDbEntity
  8
0
  6
Continuous
 62
     7
370
    35
100
AcDbVertex
100
AcDb2dVertex
 10
646.7391906584472
 20
-4.7815204716353
 30
0.0
  0
VERTEX
  5
A01
330
9F0
100
AcDbEntity
  8
0
  6
Continuous
 62
     7
370
    35
100
AcDbVertex
100
AcDb2dVertex
 10
646.6641901339262
 20
-4.7815204716353
 30
0.0
  0
VERTEX
  5
A02
330
9F0
100
AcDbEntity
  8
0
  6
Continuous
 62
     7
370
    35
100
AcDbVertex
100
AcDb2dVertex
 10
646.5891902054519
 20
-4.7815204716353
 30
0.0
  0
VERTEX
  5
A03
330
9F0
100
AcDbEntity
  8
0
  6
Continuous
 62
     7
370
    35
100
AcDbVertex
100
AcDb2dVertex
 10
646.5141902769776
 20
-4.7815204716353
 30
0.0
  0
VERTEX
  5
A04
330
9F0
100
AcDbEntity
  8
0
  6
Continuous
 62
     7
370
    35
100
AcDbVertex
100
AcDb2dVertex
 10
646.439190348503
 20
-4.7815204716353
 30
0.0
  0
VERTEX
  5
A05
330
9F0
100
AcDbEntity
  8
0
  6
Continuous
 62
     7
370
    35
100
AcDbVertex
100
AcDb2dVertex
 10
646.3641904200287
 20
-4.7815204716353
 30
0.0
  0
VERTEX
  5
A06
330
9F0
100
AcDbEntity
  8
0
  6
Continuous
 62
     7
370
    35
100
AcDbVertex
100
AcDb2dVertex
 10
646.2891898955079
 20
-4.7815204716353
 30
0.0
  0
VERTEX
  5
A07
330
9F0
100
AcDbEntity
  8
0
  6
Continuous
 62
     7
370
    35
100
AcDbVertex
100
AcDb2dVertex
 10
646.2141899670332
 20
-4.7815204716353
 30
0.0
  0
VERTEX
  5
A08
330
9F0
100
AcDbEntity
  8
0
  6
Continuous
 62
     7
370
    35
100
AcDbVertex
100
AcDb2dVertex
 10
646.139190038559
 20
-4.7815204716353
 30
0.0
  0
VERTEX
  5
A09
330
9F0
100
AcDbEntity
  8
0
  6
Continuous
 62
     7
370
    35
100
AcDbVertex
100
AcDb2dVertex
 10
646.0641901100846
 20
-4.7815204716353
 30
0.0
  0
SEQEND
  5
A0A
330
9F0
100
AcDbEntity
  8
0
  6
Continuous
 62
     7
370
    35
  0
LINE
  5
A0B
330
1F
100
AcDbEntity
  8
0
  6
Continuous
 62
     7
370
    35
100
AcDbLine
 10
647.8641901816103
 20
23.71847857469012
 30
0.0
 11
646.0641901816101
 21
23.71847857469012
 31
0.0
  0
LINE
  5
A0C
330
1F
100
AcDbEntity
  8
0
  6
Continuous
 62
     7
370
    35
100
AcDbLine
 10
646.0641901816101
 20
14.41847857469037
 30
0.0
 11
647.8641901816103
 21
14.41847857469037
 31
0.0
  0
LINE
  5
A0D
330
1F
100
AcDbEntity
  8
0
  6
Continuous
 62
     7
370
    35
100
AcDbLine
 10
625.36419018161
 20
25.71847857469057
 30
0.0
 11
647.8641901816103
 21
25.71847857469055
 31
0.0
  0
LINE
  5
A0E
330
1F
100
AcDbEntity
  8
0
  6
Continuous
 62
     7
370
    35
100
AcDbLine
 10
625.36419018161
 20
24.21847857469242
 30
0.0
 11
647.8641901816103
 21
24.2184785746924
 31
0.0
  0
LINE
  5
A0F
330
1F
100
AcDbEntity
  8
0
  6
Continuous
 62
     7
370
    35
100
AcDbLine
 10
647.8641901816103
 20
14.41847857469037
 30
0.0
 11
647.8641901816103
 21
-4.78152142530962
 31
0.0
  0
POLYLINE
  5
A10
330
1F
100
AcDbEntity
  8
0
  6
Continuous
 62
     7
370
    35
100
AcDb2dPolyline
 66
     1
 10
0.0
 20
0.0
 30
0.0
  0
VERTEX
  5
A11
330
A10
100
AcDbEntity
  8
0
  6
Continuous
 62
     7
370
    35
100
AcDbVertex
100
AcDb2dVertex
 10
647.8641901816103
 20
25.27913872831772
 30
0.0
  0
VERTEX
  5
A12
330
A10
100
AcDbEntity
  8
0
  6
Continuous
 62
     7
370
    35
100
AcDbVertex
100
AcDb2dVertex
 10
647.8641901816103
 20
25.23494456642578
 30
0.0
  0
VERTEX
  5
A13
330
A10
100
AcDbEntity
  8
0
  6
Continuous
 62
     7
370
    35
100
AcDbVertex
100
AcDb2dVertex
 10
647.8641901816103
 20
25.19075040453384
 30
0.0
  0
VERTEX
  5
A14
330
A10
100
AcDbEntity
  8
0
  6
Continuous
 62
     7
370
    35
100
AcDbVertex
100
AcDb2dVertex
 10
647.8641901816103
 20
25.14655624264189
 30
0.0
  0
VERTEX
  5
A15
330
A10
100
AcDbEntity
  8
0
  6
Continuous
 62
     7
370
    35
100
AcDbVertex
100
AcDb2dVertex
 10
647.8641901816103
 20
25.10236208074997
 30
0.0
  0
VERTEX
  5
A16
330
A10
100
AcDbEntity
  8
0
  6
Continuous
 62
     7
370
    35
100
AcDbVertex
100
AcDb2dVertex
 10
647.8641901816103
 20
25.05816791885803
 30
0.0
  0
VERTEX
  5
A17
330
A10
100
AcDbEntity
  8
0
  6
Continuous
 62
     7
370
    35
100
AcDbVertex
100
AcDb2dVertex
 10
647.8641901816103
 20
25.01397375696609
 30
0.0
  0
VERTEX
  5
A18
330
A10
100
AcDbEntity
  8
0
  6
Continuous
 62
     7
370
    35
100
AcDbVertex
100
AcDb2dVertex
 10
647.8641901816103
 20
24.96977959507415
 30
0.0
  0
VERTEX
  5
A19
330
A10
100
AcDbEntity
  8
0
  6
Continuous
 62
     7
370
    35
100
AcDbVertex
100
AcDb2dVertex
 10
647.8641901816103
 20
24.92558535867641
 30
0.0
  0
VERTEX
  5
A1A
330
A10
100
AcDbEntity
  8
0
  6
Continuous
 62
     7
370
    35
100
AcDbVertex
100
AcDb2dVertex
 10
647.8641901816103
 20
24.88139119678447
 30
0.0
  0
VERTEX
  5
A1B
330
A10
100
AcDbEntity
  8
0
  6
Continuous
 62
     7
370
    35
100
AcDbVertex
100
AcDb2dVertex
 10
647.8641901816103
 20
24.83719703489254
 30
0.0
  0
VERTEX
  5
A1C
330
A10
100
AcDbEntity
  8
0
  6
Continuous
 62
     7
370
    35
100
AcDbVertex
100
AcDb2dVertex
 10
647.8641901816103
 20
24.79300279849478
 30
0.0
  0
VERTEX
  5
A1D
330
A10
100
AcDbEntity
  8
0
  6
Continuous
 62
     7
370
    35
100
AcDbVertex
100
AcDb2dVertex
 10
647.8641901816103
 20
24.74880863660286
 30
0.0
  0
VERTEX
  5
A1E
330
A10
100
AcDbEntity
  8
0
  6
Continuous
 62
     7
370
    35
100
AcDbVertex
100
AcDb2dVertex
 10
647.8641901816103
 20
24.70461447471092
 30
0.0
  0
VERTEX
  5
A1F
330
A10
100
AcDbEntity
  8
0
  6
Continuous
 62
     7
370
    35
100
AcDbVertex
100
AcDb2dVertex
 10
647.8641901816103
 20
24.66042031281898
 30
0.0
  0
VERTEX
  5
A20
330
A10
100
AcDbEntity
  8
0
  6
Continuous
 62
     7
370
    35
100
AcDbVertex
100
AcDb2dVertex
 10
647.8641901816103
 20
24.61622615092704
 30
0.0
  0
VERTEX
  5
A21
330
A10
100
AcDbEntity
  8
0
  6
Continuous
 62
     7
370
    35
100
AcDbVertex
100
AcDb2dVertex
 10
647.8641901816103
 20
24.57203198903511
 30
0.0
  0
VERTEX
  5
A22
330
A10
100
AcDbEntity
  8
0
  6
Continuous
 62
     7
370
    35
100
AcDbVertex
100
AcDb2dVertex
 10
647.8641901816103
 20
24.52783782714317
 30
0.0
  0
VERTEX
  5
A23
330
A10
100
AcDbEntity
  8
0
  6
Continuous
 62
     7
370
    35
100
AcDbVertex
100
AcDb2dVertex
 10
647.8641901816103
 20
24.48364359074543
 30
0.0
  0
VERTEX
  5
A24
330
A10
100
AcDbEntity
  8
0
  6
Continuous
 62
     7
370
    35
100
AcDbVertex
100
AcDb2dVertex
 10
647.8641901816103
 20
24.43944942885349
 30
0.0
  0
VERTEX
  5
A25
330
A10
100
AcDbEntity
  8
0
  6
Continuous
 62
     7
370
    35
100
AcDbVertex
100
AcDb2dVertex
 10
647.8641901816103
 20
24.39525526696155
 30
0.0
  0
VERTEX
  5
A26
330
A10
100
AcDbEntity
  8
0
  6
Continuous
 62
     7
370
    35
100
AcDbVertex
100
AcDb2dVertex
 10
647.8641901816103
 20
24.35106110506962
 30
0.0
  0
VERTEX
  5
A27
330
A10
100
AcDbEntity
  8
0
  6
Continuous
 62
     7
370
    35
100
AcDbVertex
100
AcDb2dVertex
 10
647.8641901816103
 20
24.30686690592477
 30
0.0
  0
VERTEX
  5
A28
330
A10
100
AcDbEntity
  8
0
  6
Continuous
 62
     7
370
    35
100
AcDbVertex
100
AcDb2dVertex
 10
647.8641901816103
 20
24.26267274403284
 30
0.0
  0
VERTEX
  5
A29
330
A10
100
AcDbEntity
  8
0
  6
Continuous
 62
     7
370
    35
100
AcDbVertex
100
AcDb2dVertex
 10
647.8641901816103
 20
24.2184785821409
 30
0.0
  0
SEQEND
  5
A2A
330
A10
100
AcDbEntity
  8
0
  6
Continuous
 62
     7
370
    35
  0
POLYLINE
  5
A2B
330
1F
100
AcDbEntity
  8
0
  6
Continuous
 62
     7
370
    35
100
AcDb2dPolyline
 66
     1
 10
0.0
 20
0.0
 30
0.0
  0
VERTEX
  5
A2C
330
A2B
100
AcDbEntity
  8
0
  6
Continuous
 62
     7
370
    35
100
AcDbVertex
100
AcDb2dVertex
 10
647.8641901816103
 20
25.71847860449264
 30
0.0
  0
VERTEX
  5
A2D
330
A2B
100
AcDbEntity
  8
0
  6
Continuous
 62
     7
370
    35
100
AcDbVertex
100
AcDb2dVertex
 10
647.8641901816103
 20
25.71769510143707
 30
0.0
  0
VERTEX
  5
A2E
330
A2B
100
AcDbEntity
  8
0
  6
Continuous
 62
     7
370
    35
100
AcDbVertex
100
AcDb2dVertex
 10
647.8641901816103
 20
25.71541462772796
 30
0.0
  0
VERTEX
  5
A2F
330
A2B
100
AcDbEntity
  8
0
  6
Continuous
 62
     7
370
    35
100
AcDbVertex
100
AcDb2dVertex
 10
647.8641901816103
 20
25.71157206529091
 30
0.0
  0
VERTEX
  5
A30
330
A2B
100
AcDbEntity
  8
0
  6
Continuous
 62
     7
370
    35
100
AcDbVertex
100
AcDb2dVertex
 10
647.8641901816103
 20
25.70625398987243
 30
0.0
  0
VERTEX
  5
A31
330
A2B
100
AcDbEntity
  8
0
  6
Continuous
 62
     7
370
    35
100
AcDbVertex
100
AcDb2dVertex
 10
647.8641901816103
 20
25.69937933915565
 30
0.0
  0
VERTEX
  5
A32
330
A2B
100
AcDbEntity
  8
0
  6
Continuous
 62
     7
370
    35
100
AcDbVertex
100
AcDb2dVertex
 10
647.8641901816103
 20
25.69094811314056
 30
0.0
  0
VERTEX
  5
A33
330
A2B
100
AcDbEntity
  8
0
  6
Continuous
 62
     7
370
    35
100
AcDbVertex
100
AcDb2dVertex
 10
647.8641901816103
 20
25.6810656630368
 30
0.0
  0
VERTEX
  5
A34
330
A2B
100
AcDbEntity
  8
0
  6
Continuous
 62
     7
370
    35
100
AcDbVertex
100
AcDb2dVertex
 10
647.8641901816103
 20
25.66964273088882
 30
0.0
  0
VERTEX
  5
A35
330
A2B
100
AcDbEntity
  8
0
  6
Continuous
 62
     7
370
    35
100
AcDbVertex
100
AcDb2dVertex
 10
647.8641901816103
 20
25.65667961471985
 30
0.0
  0
VERTEX
  5
A36
330
A2B
100
AcDbEntity
  8
0
  6
Continuous
 62
     7
370
    35
100
AcDbVertex
100
AcDb2dVertex
 10
647.8641901816103
 20
25.64217601650665
 30
0.0
  0
VERTEX
  5
A37
330
A2B
100
AcDbEntity
  8
0
  6
Continuous
 62
     7
370
    35
100
AcDbVertex
100
AcDb2dVertex
 10
647.8641901816103
 20
25.62613223427246
 30
0.0
  0
VERTEX
  5
A38
330
A2B
100
AcDbEntity
  8
0
  6
Continuous
 62
     7
370
    35
100
AcDbVertex
100
AcDb2dVertex
 10
647.8641901816103
 20
25.60854796999405
 30
0.0
  0
VERTEX
  5
A39
330
A2B
100
AcDbEntity
  8
0
  6
Continuous
 62
     7
370
    35
100
AcDbVertex
100
AcDb2dVertex
 10
647.8641901816103
 20
25.58956597679565
 30
0.0
  0
VERTEX
  5
A3A
330
A2B
100
AcDbEntity
  8
0
  6
Continuous
 62
     7
370
    35
100
AcDbVertex
100
AcDb2dVertex
 10
647.8641901816103
 20
25.56900088423202
 30
0.0
  0
VERTEX
  5
A3B
330
A2B
100
AcDbEntity
  8
0
  6
Continuous
 62
     7
370
    35
100
AcDbVertex
100
AcDb2dVertex
 10
647.8641901816103
 20
25.54685284131477
 30
0.0
  0
VERTEX
  5
A3C
330
A2B
100
AcDbEntity
  8
0
  6
Continuous
 62
     7
370
    35
100
AcDbVertex
100
AcDb2dVertex
 10
647.8641901816103
 20
25.52314658397148
 30
0.0
  0
VERTEX
  5
A3D
330
A2B
100
AcDbEntity
  8
0
  6
Continuous
 62
     7
370
    35
100
AcDbVertex
100
AcDb2dVertex
 10
647.8641901816103
 20
25.49809788101623
 30
0.0
  0
VERTEX
  5
A3E
330
A2B
100
AcDbEntity
  8
0
  6
Continuous
 62
     7
370
    35
100
AcDbVertex
100
AcDb2dVertex
 10
647.8641901816103
 20
25.47139455312202
 30
0.0
  0
VERTEX
  5
A3F
330
A2B
100
AcDbEntity
  8
0
  6
Continuous
 62
     7
370
    35
100
AcDbVertex
100
AcDb2dVertex
 10
647.8641901816103
 20
25.44308413499305
 30
0.0
  0
VERTEX
  5
A40
330
A2B
100
AcDbEntity
  8
0
  6
Continuous
 62
     7
370
    35
100
AcDbVertex
100
AcDb2dVertex
 10
647.8641901816103
 20
25.41344825857589
 30
0.0
  0
VERTEX
  5
A41
330
A2B
100
AcDbEntity
  8
0
  6
Continuous
 62
     7
370
    35
100
AcDbVertex
100
AcDb2dVertex
 10
647.8641901816103
 20
25.38223583930443
 30
0.0
  0
VERTEX
  5
A42
330
A2B
100
AcDbEntity
  8
0
  6
Continuous
 62
     7
370
    35
100
AcDbVertex
100
AcDb2dVertex
 10
647.8641901816103
 20
25.34944672816703
 30
0.0
  0
VERTEX
  5
A43
330
A2B
100
AcDbEntity
  8
0
  6
Continuous
 62
     7
370
    35
100
AcDbVertex
100
AcDb2dVertex
 10
647.8641901816103
 20
25.31508107417534
 30
0.0
  0
VERTEX
  5
A44
330
A2B
100
AcDbEntity
  8
0
  6
Continuous
 62
     7
370
    35
100
AcDbVertex
100
AcDb2dVertex
 10
647.8641901816103
 20
25.27913872831772
 30
0.0
  0
SEQEND
  5
A45
330
A2B
100
AcDbEntity
  8
0
  6
Continuous
 62
     7
370
    35
  0
LINE
  5
A46
330
1F
100
AcDbEntity
  8
0
  6
Continuous
 62
     7
370
    35
100
AcDbLine
 10
647.8641901816103
 20
24.21847857469029
 30
0.0
 11
647.8641901816103
 21
23.71847857469035
 31
0.0
  0
POLYLINE
  5
A47
330
1F
100
AcDbEntity
  8
0
  6
Continuous
 62
     7
370
    35
100
AcDb2dPolyline
 66
     1
 10
0.0
 20
0.0
 30
0.0
  0
VERTEX
  5
A48
330
A47
100
AcDbEntity
  8
0
  6
Continuous
 62
     7
370
    35
100
AcDbVertex
100
AcDb2dVertex
 10
647.8641901816103
 20
23.71847857469038
 30
0.0
  0
VERTEX
  5
A49
330
A47
100
AcDbEntity
  8
0
  6
Continuous
 62
     7
370
    35
100
AcDbVertex
100
AcDb2dVertex
 10
647.8641901816103
 20
23.33097857171015
 30
0.0
  0
VERTEX
  5
A4A
330
A47
100
AcDbEntity
  8
0
  6
Continuous
 62
     7
370
    35
100
AcDbVertex
100
AcDb2dVertex
 10
647.8641901816103
 20
22.94347856872991
 30
0.0
  0
VERTEX
  5
A4B
330
A47
100
AcDbEntity
  8
0
  6
Continuous
 62
     7
370
    35
100
AcDbVertex
100
AcDb2dVertex
 10
647.8641901816103
 20
22.55597856574968
 30
0.0
  0
VERTEX
  5
A4C
330
A47
100
AcDbEntity
  8
0
  6
Continuous
 62
     7
370
    35
100
AcDbVertex
100
AcDb2dVertex
 10
647.8641901816103
 20
22.16847856276945
 30
0.0
  0
VERTEX
  5
A4D
330
A47
100
AcDbEntity
  8
0
  6
Continuous
 62
     7
370
    35
100
AcDbVertex
100
AcDb2dVertex
 10
647.8641901816103
 20
21.78097863429502
 30
0.0
  0
VERTEX
  5
A4E
330
A47
100
AcDbEntity
  8
0
  6
Continuous
 62
     7
370
    35
100
AcDbVertex
100
AcDb2dVertex
 10
647.8641901816103
 20
21.39347855680898
 30
0.0
  0
VERTEX
  5
A4F
330
A47
100
AcDbEntity
  8
0
  6
Continuous
 62
     7
370
    35
100
AcDbVertex
100
AcDb2dVertex
 10
647.8641901816103
 20
21.00597847932295
 30
0.0
  0
VERTEX
  5
A50
330
A47
100
AcDbEntity
  8
0
  6
Continuous
 62
     7
370
    35
100
AcDbVertex
100
AcDb2dVertex
 10
647.8641901816103
 20
20.61847855084852
 30
0.0
  0
VERTEX
  5
A51
330
A47
100
AcDbEntity
  8
0
  6
Continuous
 62
     7
370
    35
100
AcDbVertex
100
AcDb2dVertex
 10
647.8641901816103
 20
20.23097862237408
 30
0.0
  0
VERTEX
  5
A52
330
A47
100
AcDbEntity
  8
0
  6
Continuous
 62
     7
370
    35
100
AcDbVertex
100
AcDb2dVertex
 10
647.8641901816103
 20
19.84347869389964
 30
0.0
  0
VERTEX
  5
A53
330
A47
100
AcDbEntity
  8
0
  6
Continuous
 62
     7
370
    35
100
AcDbVertex
100
AcDb2dVertex
 10
647.8641901816103
 20
19.45597846740201
 30
0.0
  0
VERTEX
  5
A54
330
A47
100
AcDbEntity
  8
0
  6
Continuous
 62
     7
370
    35
100
AcDbVertex
100
AcDb2dVertex
 10
647.8641901816103
 20
19.06847853892759
 30
0.0
  0
VERTEX
  5
A55
330
A47
100
AcDbEntity
  8
0
  6
Continuous
 62
     7
370
    35
100
AcDbVertex
100
AcDb2dVertex
 10
647.8641901816103
 20
18.68097831242994
 30
0.0
  0
VERTEX
  5
A56
330
A47
100
AcDbEntity
  8
0
  6
Continuous
 62
     7
370
    35
100
AcDbVertex
100
AcDb2dVertex
 10
647.8641901816103
 20
18.29347838395551
 30
0.0
  0
VERTEX
  5
A57
330
A47
100
AcDbEntity
  8
0
  6
Continuous
 62
     7
370
    35
100
AcDbVertex
100
AcDb2dVertex
 10
647.8641901816103
 20
17.90597845548109
 30
0.0
  0
VERTEX
  5
A58
330
A47
100
AcDbEntity
  8
0
  6
Continuous
 62
     7
370
    35
100
AcDbVertex
100
AcDb2dVertex
 10
647.8641901816103
 20
17.51847852700666
 30
0.0
  0
VERTEX
  5
A59
330
A47
100
AcDbEntity
  8
0
  6
Continuous
 62
     7
370
    35
100
AcDbVertex
100
AcDb2dVertex
 10
647.8641901816103
 20
17.13097859853223
 30
0.0
  0
VERTEX
  5
A5A
330
A47
100
AcDbEntity
  8
0
  6
Continuous
 62
     7
370
    35
100
AcDbVertex
100
AcDb2dVertex
 10
647.8641901816103
 20
16.74347867005781
 30
0.0
  0
VERTEX
  5
A5B
330
A47
100
AcDbEntity
  8
0
  6
Continuous
 62
     7
370
    35
100
AcDbVertex
100
AcDb2dVertex
 10
647.8641901816103
 20
16.35597874158338
 30
0.0
  0
VERTEX
  5
A5C
330
A47
100
AcDbEntity
  8
0
  6
Continuous
 62
     7
370
    35
100
AcDbVertex
100
AcDb2dVertex
 10
647.8641901816103
 20
15.96847881310895
 30
0.0
  0
VERTEX
  5
A5D
330
A47
100
AcDbEntity
  8
0
  6
Continuous
 62
     7
370
    35
100
AcDbVertex
100
AcDb2dVertex
 10
647.8641901816103
 20
15.58097828858808
 30
0.0
  0
VERTEX
  5
A5E
330
A47
100
AcDbEntity
  8
0
  6
Continuous
 62
     7
370
    35
100
AcDbVertex
100
AcDb2dVertex
 10
647.8641901816103
 20
15.19347836011363
 30
0.0
  0
VERTEX
  5
A5F
330
A47
100
AcDbEntity
  8
0
  6
Continuous
 62
     7
370
    35
100
AcDbVertex
100
AcDb2dVertex
 10
647.8641901816103
 20
14.80597843163923
 30
0.0
  0
VERTEX
  5
A60
330
A47
100
AcDbEntity
  8
0
  6
Continuous
 62
     7
370
    35
100
AcDbVertex
100
AcDb2dVertex
 10
647.8641901816103
 20
14.4184785031648
 30
0.0
  0
SEQEND
  5
A61
330
A47
100
AcDbEntity
  8
0
  6
Continuous
 62
     7
370
    35
  0
LINE
  5
A62
330
1F
100
AcDbEntity
  8
0
  6
Continuous
 62
     7
370
    35
100
AcDbLine
 10
644.8141901816101
 20
-29.7815214253095
 30
0.0
 11
644.8141901816101
 21
-7.28152142530962
 31
0.0
  0
LINE
  5
A63
330
1F
100
AcDbEntity
  8
0
  6
Continuous
 62
     7
370
    35
100
AcDbLine
 10
640.0141901816101
 20
-7.281521425309591
 30
0.0
 11
640.0141901816101
 21
-29.78152142530948
 31
0.0
  0
LINE
  5
A64
330
1F
100
AcDbEntity
  8
0
  6
Continuous
 62
     7
370
    35
100
AcDbLine
 10
628.4141901816102
 20
-7.281521425309562
 30
0.0
 11
628.4141901816102
 21
-29.78152142530944
 31
0.0
  0
LINE
  5
A65
330
1F
100
AcDbEntity
  8
0
  6
Continuous
 62
     7
370
    35
100
AcDbLine
 10
634.2141901816102
 20
-7.281521425309591
 30
0.0
 11
634.2141901816102
 21
-29.78152142530948
 31
0.0
  0
LINE
  5
A66
330
1F
100
AcDbEntity
  8
0
  6
Continuous
 62
     7
370
    35
100
AcDbLine
 10
639.0141901816101
 20
-29.78152142530948
 30
0.0
 11
639.0141901816101
 21
-7.281521425309591
 31
0.0
  0
LINE
  5
A67
330
1F
100
AcDbEntity
  8
0
  6
Continuous
 62
     7
370
    35
100
AcDbLine
 10
645.8141901816101
 20
-7.28152142530962
 30
0.0
 11
645.8141901816101
 21
-29.7815214253095
 31
0.0
  0
LINE
  5
A68
330
1F
100
AcDbEntity
  8
0
  6
Continuous
 62
     7
370
    35
100
AcDbLine
 10
633.21419018161
 20
-29.78152142530948
 30
0.0
 11
633.21419018161
 21
-7.281521425309591
 31
0.0
  0
LINE
  5
A69
330
1F
100
AcDbEntity
  8
0
  6
Continuous
 62
     7
370
    35
100
AcDbLine
 10
627.4141901816102
 20
-29.78152142530944
 30
0.0
 11
627.4141901816102
 21
-7.281521425309562
 31
0.0
  0
LINE
  5
A6A
330
1F
100
AcDbEntity
  8
0
  6
Continuous
 62
     7
370
    35
100
AcDbLine
 10
646.0641901816101
 20
-33.28626791108963
 30
0.0
 11
646.0641901816101
 21
-4.78152142530962
 31
0.0
  0
LINE
  5
A6B
330
1F
100
AcDbEntity
  8
0
  6
Continuous
 62
     7
370
    35
100
AcDbLine
 10
627.1641901816101
 20
-4.781521425305298
 30
0.0
 11
627.1641901816101
 21
-33.28626791108109
 31
0.0
  0
LINE
  5
A6C
330
1F
100
AcDbEntity
  8
0
  6
Continuous
 62
     7
370
    35
100
AcDbLine
 10
627.1641901816102
 20
23.7184785746904
 30
0.0
 11
627.1641901816102
 21
-4.781521425309589
 31
0.0
  0
LINE
  5
A6D
330
1F
100
AcDbEntity
  8
0
  6
Continuous
 62
     7
370
    35
100
AcDbLine
 10
640.0141901816101
 20
21.21847857469035
 30
0.0
 11
640.0141901816101
 21
-1.28152142530959
 31
0.0
  0
LINE
  5
A6E
330
1F
100
AcDbEntity
  8
0
  6
Continuous
 62
     7
370
    35
100
AcDbLine
 10
628.4141901816102
 20
21.2184785746904
 30
0.0
 11
628.4141901816102
 21
-1.28152142530959
 31
0.0
  0
LINE
  5
A6F
330
1F
100
AcDbEntity
  8
0
  6
Continuous
 62
     7
370
    35
100
AcDbLine
 10
634.2141901816102
 20
21.2184785746904
 30
0.0
 11
634.2141901816102
 21
-1.28152142530959
 31
0.0
  0
LINE
  5
A70
330
1F
100
AcDbEntity
  8
0
  6
Continuous
 62
     7
370
    35
100
AcDbLine
 10
639.0141901816101
 20
-1.28152142530959
 30
0.0
 11
639.0141901816101
 21
21.21847857469038
 31
0.0
  0
LINE
  5
A71
330
1F
100
AcDbEntity
  8
0
  6
Continuous
 62
     7
370
    35
100
AcDbLine
 10
633.21419018161
 20
-1.28152142530959
 30
0.0
 11
633.21419018161
 21
21.2184785746904
 31
0.0
  0
LINE
  5
A72
330
1F
100
AcDbEntity
  8
0
  6
Continuous
 62
     7
370
    35
100
AcDbLine
 10
627.4141901816102
 20
-1.28152142530959
 30
0.0
 11
627.4141901816102
 21
21.2184785746904
 31
0.0
  0
LINE
  5
A73
330
1F
100
AcDbEntity
  8
0
  6
Continuous
 62
     7
370
    35
100
AcDbLine
 10
625.36419018161
 20
14.41847857469028
 30
0.0
 11
625.36419018161
 21
-4.781521425309705
 31
0.0
  0
LINE
  5
A74
330
1F
100
AcDbEntity
  8
0
  6
Continuous
 62
     7
370
    35
100
AcDbLine
 10
627.1641901816101
 20
14.41847857469059
 30
0.0
 11
627.1641901816101
 21
-4.781521425309705
 31
0.0
  0
LINE
  5
A75
330
1F
100
AcDbEntity
  8
0
  6
Continuous
 62
     7
370
    35
100
AcDbLine
 10
646.0641901816101
 20
-4.78152142530962
 30
0.0
 11
646.0641901816101
 21
23.71847857469035
 31
0.0
  0
LINE
  5
A76
330
1F
100
AcDbEntity
  8
0
  6
Continuous
 62
     7
370
    35
100
AcDbLine
 10
644.8141901816101
 20
-1.28152142530962
 30
0.0
 11
644.8141901816101
 21
21.21847857469035
 31
0.0
  0
LINE
  5
A77
330
1F
100
AcDbEntity
  8
0
  6
Continuous
 62
     7
370
    35
100
AcDbLine
 10
645.8141901816101
 20
21.21847857469035
 30
0.0
 11
645.8141901816101
 21
-1.28152142530962
 31
0.0
  0
LINE
  5
A78
330
1F
100
AcDbEntity
  8
0
  6
Continuous
 62
     7
370
    35
100
AcDbLine
 10
646.0641901816101
 20
-4.78152142530962
 30
0.0
 11
646.0641901816101
 21
14.41847857469037
 31
0.0
  0
LINE
  5
A79
330
1F
100
AcDbEntity
  8
0
  6
Continuous
 62
     7
370
    35
100
AcDbLine
 10
633.21419018161
 20
22.21847857469037
 30
0.0
 11
628.4141901816102
 21
22.21847857469037
 31
0.0
  0
LINE
  5
A7A
330
1F
100
AcDbEntity
  8
0
  6
Continuous
 62
     7
370
    35
100
AcDbLine
 10
628.4141901816102
 20
22.51847857469039
 30
0.0
 11
633.21419018161
 21
22.51847857469039
 31
0.0
  0
LINE
  5
A7B
330
1F
100
AcDbEntity
  8
0
  6
Continuous
 62
     7
370
    35
100
AcDbLine
 10
633.21419018161
 20
17.71847857469038
 30
0.0
 11
628.4141901816102
 21
17.71847857469039
 31
0.0
  0
LINE
  5
A7C
330
1F
100
AcDbEntity
  8
0
  6
Continuous
 62
     7
370
    35
100
AcDbLine
 10
627.1641901816102
 20
23.7184785746904
 30
0.0
 11
646.0641901816101
 21
23.71847857469035
 31
0.0
  0
LINE
  5
A7D
330
1F
100
AcDbEntity
  8
0
  6
Continuous
 62
     7
370
    35
100
AcDbLine
 10
639.0141901816101
 20
22.21847857469035
 30
0.0
 11
634.2141901816102
 21
22.21847857469037
 31
0.0
  0
LINE
  5
A7E
330
1F
100
AcDbEntity
  8
0
  6
Continuous
 62
     7
370
    35
100
AcDbLine
 10
639.0141901816101
 20
17.71847857469035
 30
0.0
 11
634.2141901816102
 21
17.71847857469038
 31
0.0
  0
LINE
  5
A7F
330
1F
100
AcDbEntity
  8
0
  6
Continuous
 62
     7
370
    35
100
AcDbLine
 10
634.2141901816102
 20
22.51847857469039
 30
0.0
 11
639.0141901816101
 21
22.51847857469035
 31
0.0
  0
LINE
  5
A80
330
1F
100
AcDbEntity
  8
0
  6
Continuous
 62
     7
370
    35
100
AcDbLine
 10
639.0141901816101
 20
23.21847857469035
 30
0.0
 11
640.0141901816101
 21
23.21847857469035
 31
0.0
  0
LINE
  5
A81
330
1F
100
AcDbEntity
  8
0
  6
Continuous
 62
     7
370
    35
100
AcDbLine
 10
640.0141901816101
 20
23.21847857469035
 30
0.0
 11
640.0141901816101
 21
21.21847857469038
 31
0.0
  0
LINE
  5
A82
330
1F
100
AcDbEntity
  8
0
  6
Continuous
 62
     7
370
    35
100
AcDbLine
 10
640.0141901816101
 20
21.21847857469035
 30
0.0
 11
639.0141901816101
 21
21.21847857469035
 31
0.0
  0
LINE
  5
A83
330
1F
100
AcDbEntity
  8
0
  6
Continuous
 62
     7
370
    35
100
AcDbLine
 10
639.0141901816101
 20
21.21847857469035
 30
0.0
 11
639.0141901816101
 21
23.21847857469035
 31
0.0
  0
LINE
  5
A84
330
1F
100
AcDbEntity
  8
0
  6
Continuous
 62
     7
370
    35
100
AcDbLine
 10
644.8141901816101
 20
23.21847857469035
 30
0.0
 11
645.8141901816101
 21
23.21847857469035
 31
0.0
  0
LINE
  5
A85
330
1F
100
AcDbEntity
  8
0
  6
Continuous
 62
     7
370
    35
100
AcDbLine
 10
645.8141901816101
 20
23.21847857469035
 30
0.0
 11
645.8141901816101
 21
21.21847857469035
 31
0.0
  0
LINE
  5
A86
330
1F
100
AcDbEntity
  8
0
  6
Continuous
 62
     7
370
    35
100
AcDbLine
 10
645.8141901816101
 20
21.21847857469035
 30
0.0
 11
644.8141901816101
 21
21.21847857469035
 31
0.0
  0
LINE
  5
A87
330
1F
100
AcDbEntity
  8
0
  6
Continuous
 62
     7
370
    35
100
AcDbLine
 10
644.8141901816101
 20
21.21847857469035
 30
0.0
 11
644.8141901816101
 21
23.21847857469035
 31
0.0
  0
POLYLINE
  5
A88
330
1F
100
AcDbEntity
  8
0
  6
Continuous
 62
     7
370
    35
100
AcDb2dPolyline
 66
     1
 10
0.0
 20
0.0
 30
0.0
  0
VERTEX
  5
A89
330
A88
100
AcDbEntity
  8
0
  6
Continuous
 62
     7
370
    35
100
AcDbVertex
100
AcDb2dVertex
 10
646.3641904200287
 20
23.72945442310804
 30
0.0
  0
VERTEX
  5
A8A
330
A88
100
AcDbEntity
  8
0
  6
Continuous
 62
     7
370
    35
100
AcDbVertex
100
AcDb2dVertex
 10
646.3554637039869
 20
23.72899709599362
 30
0.0
  0
VERTEX
  5
A8B
330
A88
100
AcDbEntity
  8
0
  6
Continuous
 62
     7
370
    35
100
AcDbVertex
100
AcDb2dVertex
 10
646.3467375839917
 20
23.72853976887919
 30
0.0
  0
VERTEX
  5
A8C
330
A88
100
AcDbEntity
  8
0
  6
Continuous
 62
     7
370
    35
100
AcDbVertex
100
AcDb2dVertex
 10
646.3380114639967
 20
23.72808244176478
 30
0.0
  0
VERTEX
  5
A8D
330
A88
100
AcDbEntity
  8
0
  6
Continuous
 62
     7
370
    35
100
AcDbVertex
100
AcDb2dVertex
 10
646.3292847479554
 20
23.72762511465038
 30
0.0
  0
VERTEX
  5
A8E
330
A88
100
AcDbEntity
  8
0
  6
Continuous
 62
     7
370
    35
100
AcDbVertex
100
AcDb2dVertex
 10
646.3205586279602
 20
23.72716778753596
 30
0.0
  0
VERTEX
  5
A8F
330
A88
100
AcDbEntity
  8
0
  6
Continuous
 62
     7
370
    35
100
AcDbVertex
100
AcDb2dVertex
 10
646.311832507965
 20
23.72671046042154
 30
0.0
  0
VERTEX
  5
A90
330
A88
100
AcDbEntity
  8
0
  6
Continuous
 62
     7
370
    35
100
AcDbVertex
100
AcDb2dVertex
 10
646.3031057919236
 20
23.72625313388919
 30
0.0
  0
VERTEX
  5
A91
330
A88
100
AcDbEntity
  8
0
  6
Continuous
 62
     7
370
    35
100
AcDbVertex
100
AcDb2dVertex
 10
646.2943796719285
 20
23.72579580677478
 30
0.0
  0
VERTEX
  5
A92
330
A88
100
AcDbEntity
  8
0
  6
Continuous
 62
     7
370
    35
100
AcDbVertex
100
AcDb2dVertex
 10
646.2856535519334
 20
23.72533847966035
 30
0.0
  0
VERTEX
  5
A93
330
A88
100
AcDbEntity
  8
0
  6
Continuous
 62
     7
370
    35
100
AcDbVertex
100
AcDb2dVertex
 10
646.2769268358917
 20
23.72488115254594
 30
0.0
  0
VERTEX
  5
A94
330
A88
100
AcDbEntity
  8
0
  6
Continuous
 62
     7
370
    35
100
AcDbVertex
100
AcDb2dVertex
 10
646.2682007158965
 20
23.72442382543153
 30
0.0
  0
VERTEX
  5
A95
330
A88
100
AcDbEntity
  8
0
  6
Continuous
 62
     7
370
    35
100
AcDbVertex
100
AcDb2dVertex
 10
646.2594745959014
 20
23.72396649889917
 30
0.0
  0
VERTEX
  5
A96
330
A88
100
AcDbEntity
  8
0
  6
Continuous
 62
     7
370
    35
100
AcDbVertex
100
AcDb2dVertex
 10
646.2507478798599
 20
23.72350917178477
 30
0.0
  0
VERTEX
  5
A97
330
A88
100
AcDbEntity
  8
0
  6
Continuous
 62
     7
370
    35
100
AcDbVertex
100
AcDb2dVertex
 10
646.2420217598649
 20
23.72305184467035
 30
0.0
  0
VERTEX
  5
A98
330
A88
100
AcDbEntity
  8
0
  6
Continuous
 62
     7
370
    35
100
AcDbVertex
100
AcDb2dVertex
 10
646.2332956398697
 20
23.72259451755593
 30
0.0
  0
VERTEX
  5
A99
330
A88
100
AcDbEntity
  8
0
  6
Continuous
 62
     7
370
    35
100
AcDbVertex
100
AcDb2dVertex
 10
646.224568923828
 20
23.72213719073255
 30
0.0
  0
VERTEX
  5
A9A
330
A88
100
AcDbEntity
  8
0
  6
Continuous
 62
     7
370
    35
100
AcDbVertex
100
AcDb2dVertex
 10
646.2158428038327
 20
23.72167986361813
 30
0.0
  0
VERTEX
  5
A9B
330
A88
100
AcDbEntity
  8
0
  6
Continuous
 62
     7
370
    35
100
AcDbVertex
100
AcDb2dVertex
 10
646.2071166838377
 20
23.72122253679473
 30
0.0
  0
VERTEX
  5
A9C
330
A88
100
AcDbEntity
  8
0
  6
Continuous
 62
     7
370
    35
100
AcDbVertex
100
AcDb2dVertex
 10
646.1983899677964
 20
23.72076520968033
 30
0.0
  0
VERTEX
  5
A9D
330
A88
100
AcDbEntity
  8
0
  6
Continuous
 62
     7
370
    35
100
AcDbVertex
100
AcDb2dVertex
 10
646.1896638478012
 20
23.72030788271143
 30
0.0
  0
VERTEX
  5
A9E
330
A88
100
AcDbEntity
  8
0
  6
Continuous
 62
     7
370
    35
100
AcDbVertex
100
AcDb2dVertex
 10
646.180937727806
 20
23.71985055574254
 30
0.0
  0
VERTEX
  5
A9F
330
A88
100
AcDbEntity
  8
0
  6
Continuous
 62
     7
370
    35
100
AcDbVertex
100
AcDb2dVertex
 10
646.1722110117646
 20
23.71939322870088
 30
0.0
  0
VERTEX
  5
AA0
330
A88
100
AcDbEntity
  8
0
  6
Continuous
 62
     7
370
    35
100
AcDbVertex
100
AcDb2dVertex
 10
646.1634848917695
 20
23.71893590169559
 30
0.0
  0
VERTEX
  5
AA1
330
A88
100
AcDbEntity
  8
0
  6
Continuous
 62
     7
370
    35
100
AcDbVertex
100
AcDb2dVertex
 10
646.1547587717744
 20
23.71847857469026
 30
0.0
  0
SEQEND
  5
AA2
330
A88
100
AcDbEntity
  8
0
  6
Continuous
 62
     7
370
    35
  0
LINE
  5
AA3
330
1F
100
AcDbEntity
  8
0
  6
Continuous
 62
     7
370
    35
100
AcDbLine
 10
646.3641901816097
 20
23.72945442269994
 30
0.0
 11
646.3641901816097
 21
23.71847857469035
 31
0.0
  0
LINE
  5
AA4
330
1F
100
AcDbEntity
  8
0
  6
Continuous
 62
     7
370
    35
100
AcDbLine
 10
646.1641901816101
 20
23.71847857469035
 30
0.0
 11
646.1641901816101
 21
23.71897286684335
 31
0.0
  0
LINE
  5
AA5
330
1F
100
AcDbEntity
  8
0
  6
Continuous
 62
     7
370
    35
100
AcDbLine
 10
644.8141901816101
 20
22.21847857469035
 30
0.0
 11
640.0141901816101
 21
22.21847857469035
 31
0.0
  0
LINE
  5
AA6
330
1F
100
AcDbEntity
  8
0
  6
Continuous
 62
     7
370
    35
100
AcDbLine
 10
644.8141901816101
 20
17.71847857469035
 30
0.0
 11
640.0141901816101
 21
17.71847857469035
 31
0.0
  0
LINE
  5
AA7
330
1F
100
AcDbEntity
  8
0
  6
Continuous
 62
     7
370
    35
100
AcDbLine
 10
640.0141901816101
 20
22.51847857469035
 30
0.0
 11
644.8141901816101
 21
22.51847857469035
 31
0.0
  0
LINE
  5
AA8
330
1F
100
AcDbEntity
  8
0
  6
Continuous
 62
     7
370
    35
100
AcDbLine
 10
633.21419018161
 20
23.21847857469037
 30
0.0
 11
634.2141901816102
 21
23.21847857469037
 31
0.0
  0
LINE
  5
AA9
330
1F
100
AcDbEntity
  8
0
  6
Continuous
 62
     7
370
    35
100
AcDbLine
 10
634.2141901816102
 20
23.21847857469037
 30
0.0
 11
634.2141901816102
 21
21.2184785746904
 31
0.0
  0
LINE
  5
AAA
330
1F
100
AcDbEntity
  8
0
  6
Continuous
 62
     7
370
    35
100
AcDbLine
 10
634.2141901816102
 20
21.2184785746904
 30
0.0
 11
633.21419018161
 21
21.2184785746904
 31
0.0
  0
LINE
  5
AAB
330
1F
100
AcDbEntity
  8
0
  6
Continuous
 62
     7
370
    35
100
AcDbLine
 10
633.21419018161
 20
21.2184785746904
 30
0.0
 11
633.21419018161
 21
23.21847857469037
 31
0.0
  0
LINE
  5
AAC
330
1F
100
AcDbEntity
  8
0
  6
Continuous
 62
     7
370
    35
100
AcDbLine
 10
627.4141901816102
 20
21.2184785746904
 30
0.0
 11
627.4141901816102
 21
23.21847857469041
 31
0.0
  0
POLYLINE
  5
AAD
330
1F
100
AcDbEntity
  8
0
  6
Continuous
 62
     7
370
    35
100
AcDb2dPolyline
 66
     1
 10
0.0
 20
0.0
 30
0.0
  0
VERTEX
  5
AAE
330
AAD
100
AcDbEntity
  8
0
  6
Continuous
 62
     7
370
    35
100
AcDbVertex
100
AcDb2dVertex
 10
625.36419018161
 20
25.27913872831772
 30
0.0
  0
VERTEX
  5
AAF
330
AAD
100
AcDbEntity
  8
0
  6
Continuous
 62
     7
370
    35
100
AcDbVertex
100
AcDb2dVertex
 10
625.36419018161
 20
25.31508107417534
 30
0.0
  0
VERTEX
  5
AB0
330
AAD
100
AcDbEntity
  8
0
  6
Continuous
 62
     7
370
    35
100
AcDbVertex
100
AcDb2dVertex
 10
625.36419018161
 20
25.34944672816703
 30
0.0
  0
VERTEX
  5
AB1
330
AAD
100
AcDbEntity
  8
0
  6
Continuous
 62
     7
370
    35
100
AcDbVertex
100
AcDb2dVertex
 10
625.36419018161
 20
25.38223583930443
 30
0.0
  0
VERTEX
  5
AB2
330
AAD
100
AcDbEntity
  8
0
  6
Continuous
 62
     7
370
    35
100
AcDbVertex
100
AcDb2dVertex
 10
625.36419018161
 20
25.41344825857589
 30
0.0
  0
VERTEX
  5
AB3
330
AAD
100
AcDbEntity
  8
0
  6
Continuous
 62
     7
370
    35
100
AcDbVertex
100
AcDb2dVertex
 10
625.36419018161
 20
25.44308413499305
 30
0.0
  0
VERTEX
  5
AB4
330
AAD
100
AcDbEntity
  8
0
  6
Continuous
 62
     7
370
    35
100
AcDbVertex
100
AcDb2dVertex
 10
625.36419018161
 20
25.47139455312202
 30
0.0
  0
VERTEX
  5
AB5
330
AAD
100
AcDbEntity
  8
0
  6
Continuous
 62
     7
370
    35
100
AcDbVertex
100
AcDb2dVertex
 10
625.36419018161
 20
25.49809788101623
 30
0.0
  0
VERTEX
  5
AB6
330
AAD
100
AcDbEntity
  8
0
  6
Continuous
 62
     7
370
    35
100
AcDbVertex
100
AcDb2dVertex
 10
625.36419018161
 20
25.52314658397148
 30
0.0
  0
VERTEX
  5
AB7
330
AAD
100
AcDbEntity
  8
0
  6
Continuous
 62
     7
370
    35
100
AcDbVertex
100
AcDb2dVertex
 10
625.36419018161
 20
25.54685284131477
 30
0.0
  0
VERTEX
  5
AB8
330
AAD
100
AcDbEntity
  8
0
  6
Continuous
 62
     7
370
    35
100
AcDbVertex
100
AcDb2dVertex
 10
625.36419018161
 20
25.56900088423202
 30
0.0
  0
VERTEX
  5
AB9
330
AAD
100
AcDbEntity
  8
0
  6
Continuous
 62
     7
370
    35
100
AcDbVertex
100
AcDb2dVertex
 10
625.36419018161
 20
25.58956597679565
 30
0.0
  0
VERTEX
  5
ABA
330
AAD
100
AcDbEntity
  8
0
  6
Continuous
 62
     7
370
    35
100
AcDbVertex
100
AcDb2dVertex
 10
625.36419018161
 20
25.60854796999405
 30
0.0
  0
VERTEX
  5
ABB
330
AAD
100
AcDbEntity
  8
0
  6
Continuous
 62
     7
370
    35
100
AcDbVertex
100
AcDb2dVertex
 10
625.36419018161
 20
25.62613223427246
 30
0.0
  0
VERTEX
  5
ABC
330
AAD
100
AcDbEntity
  8
0
  6
Continuous
 62
     7
370
    35
100
AcDbVertex
100
AcDb2dVertex
 10
625.36419018161
 20
25.64217601650665
 30
0.0
  0
VERTEX
  5
ABD
330
AAD
100
AcDbEntity
  8
0
  6
Continuous
 62
     7
370
    35
100
AcDbVertex
100
AcDb2dVertex
 10
625.36419018161
 20
25.65667961471985
 30
0.0
  0
VERTEX
  5
ABE
330
AAD
100
AcDbEntity
  8
0
  6
Continuous
 62
     7
370
    35
100
AcDbVertex
100
AcDb2dVertex
 10
625.36419018161
 20
25.66964273088882
 30
0.0
  0
VERTEX
  5
ABF
330
AAD
100
AcDbEntity
  8
0
  6
Continuous
 62
     7
370
    35
100
AcDbVertex
100
AcDb2dVertex
 10
625.36419018161
 20
25.6810656630368
 30
0.0
  0
VERTEX
  5
AC0
330
AAD
100
AcDbEntity
  8
0
  6
Continuous
 62
     7
370
    35
100
AcDbVertex
100
AcDb2dVertex
 10
625.36419018161
 20
25.69094811314056
 30
0.0
  0
VERTEX
  5
AC1
330
AAD
100
AcDbEntity
  8
0
  6
Continuous
 62
     7
370
    35
100
AcDbVertex
100
AcDb2dVertex
 10
625.36419018161
 20
25.69937933915565
 30
0.0
  0
VERTEX
  5
AC2
330
AAD
100
AcDbEntity
  8
0
  6
Continuous
 62
     7
370
    35
100
AcDbVertex
100
AcDb2dVertex
 10
625.36419018161
 20
25.70625398987243
 30
0.0
  0
VERTEX
  5
AC3
330
AAD
100
AcDbEntity
  8
0
  6
Continuous
 62
     7
370
    35
100
AcDbVertex
100
AcDb2dVertex
 10
625.36419018161
 20
25.71157206529091
 30
0.0
  0
VERTEX
  5
AC4
330
AAD
100
AcDbEntity
  8
0
  6
Continuous
 62
     7
370
    35
100
AcDbVertex
100
AcDb2dVertex
 10
625.36419018161
 20
25.71541462772796
 30
0.0
  0
VERTEX
  5
AC5
330
AAD
100
AcDbEntity
  8
0
  6
Continuous
 62
     7
370
    35
100
AcDbVertex
100
AcDb2dVertex
 10
625.36419018161
 20
25.71769510143707
 30
0.0
  0
VERTEX
  5
AC6
330
AAD
100
AcDbEntity
  8
0
  6
Continuous
 62
     7
370
    35
100
AcDbVertex
100
AcDb2dVertex
 10
625.36419018161
 20
25.71847860449264
 30
0.0
  0
SEQEND
  5
AC7
330
AAD
100
AcDbEntity
  8
0
  6
Continuous
 62
     7
370
    35
  0
POLYLINE
  5
AC8
330
1F
100
AcDbEntity
  8
0
  6
Continuous
 62
     7
370
    35
100
AcDb2dPolyline
 66
     1
 10
0.0
 20
0.0
 30
0.0
  0
VERTEX
  5
AC9
330
AC8
100
AcDbEntity
  8
0
  6
Continuous
 62
     7
370
    35
100
AcDbVertex
100
AcDb2dVertex
 10
625.36419018161
 20
24.2184785821409
 30
0.0
  0
VERTEX
  5
ACA
330
AC8
100
AcDbEntity
  8
0
  6
Continuous
 62
     7
370
    35
100
AcDbVertex
100
AcDb2dVertex
 10
625.36419018161
 20
24.26267274403284
 30
0.0
  0
VERTEX
  5
ACB
330
AC8
100
AcDbEntity
  8
0
  6
Continuous
 62
     7
370
    35
100
AcDbVertex
100
AcDb2dVertex
 10
625.36419018161
 20
24.30686690592477
 30
0.0
  0
VERTEX
  5
ACC
330
AC8
100
AcDbEntity
  8
0
  6
Continuous
 62
     7
370
    35
100
AcDbVertex
100
AcDb2dVertex
 10
625.36419018161
 20
24.35106110506962
 30
0.0
  0
VERTEX
  5
ACD
330
AC8
100
AcDbEntity
  8
0
  6
Continuous
 62
     7
370
    35
100
AcDbVertex
100
AcDb2dVertex
 10
625.36419018161
 20
24.39525526696155
 30
0.0
  0
VERTEX
  5
ACE
330
AC8
100
AcDbEntity
  8
0
  6
Continuous
 62
     7
370
    35
100
AcDbVertex
100
AcDb2dVertex
 10
625.36419018161
 20
24.43944942885349
 30
0.0
  0
VERTEX
  5
ACF
330
AC8
100
AcDbEntity
  8
0
  6
Continuous
 62
     7
370
    35
100
AcDbVertex
100
AcDb2dVertex
 10
625.36419018161
 20
24.48364359074543
 30
0.0
  0
VERTEX
  5
AD0
330
AC8
100
AcDbEntity
  8
0
  6
Continuous
 62
     7
370
    35
100
AcDbVertex
100
AcDb2dVertex
 10
625.36419018161
 20
24.52783782714317
 30
0.0
  0
VERTEX
  5
AD1
330
AC8
100
AcDbEntity
  8
0
  6
Continuous
 62
     7
370
    35
100
AcDbVertex
100
AcDb2dVertex
 10
625.36419018161
 20
24.57203198903511
 30
0.0
  0
VERTEX
  5
AD2
330
AC8
100
AcDbEntity
  8
0
  6
Continuous
 62
     7
370
    35
100
AcDbVertex
100
AcDb2dVertex
 10
625.36419018161
 20
24.61622615092704
 30
0.0
  0
VERTEX
  5
AD3
330
AC8
100
AcDbEntity
  8
0
  6
Continuous
 62
     7
370
    35
100
AcDbVertex
100
AcDb2dVertex
 10
625.36419018161
 20
24.66042031281898
 30
0.0
  0
VERTEX
  5
AD4
330
AC8
100
AcDbEntity
  8
0
  6
Continuous
 62
     7
370
    35
100
AcDbVertex
100
AcDb2dVertex
 10
625.36419018161
 20
24.70461447471092
 30
0.0
  0
VERTEX
  5
AD5
330
AC8
100
AcDbEntity
  8
0
  6
Continuous
 62
     7
370
    35
100
AcDbVertex
100
AcDb2dVertex
 10
625.36419018161
 20
24.74880863660286
 30
0.0
  0
VERTEX
  5
AD6
330
AC8
100
AcDbEntity
  8
0
  6
Continuous
 62
     7
370
    35
100
AcDbVertex
100
AcDb2dVertex
 10
625.36419018161
 20
24.79300279849478
 30
0.0
  0
VERTEX
  5
AD7
330
AC8
100
AcDbEntity
  8
0
  6
Continuous
 62
     7
370
    35
100
AcDbVertex
100
AcDb2dVertex
 10
625.36419018161
 20
24.83719703489254
 30
0.0
  0
VERTEX
  5
AD8
330
AC8
100
AcDbEntity
  8
0
  6
Continuous
 62
     7
370
    35
100
AcDbVertex
100
AcDb2dVertex
 10
625.36419018161
 20
24.88139119678447
 30
0.0
  0
VERTEX
  5
AD9
330
AC8
100
AcDbEntity
  8
0
  6
Continuous
 62
     7
370
    35
100
AcDbVertex
100
AcDb2dVertex
 10
625.36419018161
 20
24.92558535867641
 30
0.0
  0
VERTEX
  5
ADA
330
AC8
100
AcDbEntity
  8
0
  6
Continuous
 62
     7
370
    35
100
AcDbVertex
100
AcDb2dVertex
 10
625.36419018161
 20
24.96977959507415
 30
0.0
  0
VERTEX
  5
ADB
330
AC8
100
AcDbEntity
  8
0
  6
Continuous
 62
     7
370
    35
100
AcDbVertex
100
AcDb2dVertex
 10
625.36419018161
 20
25.01397375696609
 30
0.0
  0
VERTEX
  5
ADC
330
AC8
100
AcDbEntity
  8
0
  6
Continuous
 62
     7
370
    35
100
AcDbVertex
100
AcDb2dVertex
 10
625.36419018161
 20
25.05816791885803
 30
0.0
  0
VERTEX
  5
ADD
330
AC8
100
AcDbEntity
  8
0
  6
Continuous
 62
     7
370
    35
100
AcDbVertex
100
AcDb2dVertex
 10
625.36419018161
 20
25.10236208074997
 30
0.0
  0
VERTEX
  5
ADE
330
AC8
100
AcDbEntity
  8
0
  6
Continuous
 62
     7
370
    35
100
AcDbVertex
100
AcDb2dVertex
 10
625.36419018161
 20
25.14655624264189
 30
0.0
  0
VERTEX
  5
ADF
330
AC8
100
AcDbEntity
  8
0
  6
Continuous
 62
     7
370
    35
100
AcDbVertex
100
AcDb2dVertex
 10
625.36419018161
 20
25.19075040453384
 30
0.0
  0
VERTEX
  5
AE0
330
AC8
100
AcDbEntity
  8
0
  6
Continuous
 62
     7
370
    35
100
AcDbVertex
100
AcDb2dVertex
 10
625.36419018161
 20
25.23494456642578
 30
0.0
  0
VERTEX
  5
AE1
330
AC8
100
AcDbEntity
  8
0
  6
Continuous
 62
     7
370
    35
100
AcDbVertex
100
AcDb2dVertex
 10
625.36419018161
 20
25.27913872831772
 30
0.0
  0
SEQEND
  5
AE2
330
AC8
100
AcDbEntity
  8
0
  6
Continuous
 62
     7
370
    35
  0
LINE
  5
AE3
330
1F
100
AcDbEntity
  8
0
  6
Continuous
 62
     7
370
    35
100
AcDbLine
 10
625.36419018161
 20
24.21847857469032
 30
0.0
 11
625.36419018161
 21
23.71847857469055
 31
0.0
  0
POLYLINE
  5
AE4
330
1F
100
AcDbEntity
  8
0
  6
Continuous
 62
     7
370
    35
100
AcDb2dPolyline
 66
     1
 10
0.0
 20
0.0
 30
0.0
  0
VERTEX
  5
AE5
330
AE4
100
AcDbEntity
  8
0
  6
Continuous
 62
     7
370
    35
100
AcDbVertex
100
AcDb2dVertex
 10
627.0736215914459
 20
23.71847857469048
 30
0.0
  0
VERTEX
  5
AE6
330
AE4
100
AcDbEntity
  8
0
  6
Continuous
 62
     7
370
    35
100
AcDbVertex
100
AcDb2dVertex
 10
627.0648954714507
 20
23.71893590169559
 30
0.0
  0
VERTEX
  5
AE7
330
AE4
100
AcDbEntity
  8
0
  6
Continuous
 62
     7
370
    35
100
AcDbVertex
100
AcDb2dVertex
 10
627.0561693514557
 20
23.71939322870088
 30
0.0
  0
VERTEX
  5
AE8
330
AE4
100
AcDbEntity
  8
0
  6
Continuous
 62
     7
370
    35
100
AcDbVertex
100
AcDb2dVertex
 10
627.0474426354143
 20
23.71985055574254
 30
0.0
  0
VERTEX
  5
AE9
330
AE4
100
AcDbEntity
  8
0
  6
Continuous
 62
     7
370
    35
100
AcDbVertex
100
AcDb2dVertex
 10
627.0387165154192
 20
23.72030788271143
 30
0.0
  0
VERTEX
  5
AEA
330
AE4
100
AcDbEntity
  8
0
  6
Continuous
 62
     7
370
    35
100
AcDbVertex
100
AcDb2dVertex
 10
627.0299903954239
 20
23.72076520968033
 30
0.0
  0
VERTEX
  5
AEB
330
AE4
100
AcDbEntity
  8
0
  6
Continuous
 62
     7
370
    35
100
AcDbVertex
100
AcDb2dVertex
 10
627.0212636793822
 20
23.72122253679473
 30
0.0
  0
VERTEX
  5
AEC
330
AE4
100
AcDbEntity
  8
0
  6
Continuous
 62
     7
370
    35
100
AcDbVertex
100
AcDb2dVertex
 10
627.0125375593872
 20
23.72167986361813
 30
0.0
  0
VERTEX
  5
AED
330
AE4
100
AcDbEntity
  8
0
  6
Continuous
 62
     7
370
    35
100
AcDbVertex
100
AcDb2dVertex
 10
627.003811439392
 20
23.72213719073255
 30
0.0
  0
VERTEX
  5
AEE
330
AE4
100
AcDbEntity
  8
0
  6
Continuous
 62
     7
370
    35
100
AcDbVertex
100
AcDb2dVertex
 10
626.9950847233506
 20
23.72259451755593
 30
0.0
  0
VERTEX
  5
AEF
330
AE4
100
AcDbEntity
  8
0
  6
Continuous
 62
     7
370
    35
100
AcDbVertex
100
AcDb2dVertex
 10
626.9863586033554
 20
23.72305184467035
 30
0.0
  0
VERTEX
  5
AF0
330
AE4
100
AcDbEntity
  8
0
  6
Continuous
 62
     7
370
    35
100
AcDbVertex
100
AcDb2dVertex
 10
626.9776324833602
 20
23.72350917178477
 30
0.0
  0
VERTEX
  5
AF1
330
AE4
100
AcDbEntity
  8
0
  6
Continuous
 62
     7
370
    35
100
AcDbVertex
100
AcDb2dVertex
 10
626.9689057673186
 20
23.72396649889917
 30
0.0
  0
VERTEX
  5
AF2
330
AE4
100
AcDbEntity
  8
0
  6
Continuous
 62
     7
370
    35
100
AcDbVertex
100
AcDb2dVertex
 10
626.9601796473238
 20
23.72442382543153
 30
0.0
  0
VERTEX
  5
AF3
330
AE4
100
AcDbEntity
  8
0
  6
Continuous
 62
     7
370
    35
100
AcDbVertex
100
AcDb2dVertex
 10
626.9514535273287
 20
23.72488115254594
 30
0.0
  0
VERTEX
  5
AF4
330
AE4
100
AcDbEntity
  8
0
  6
Continuous
 62
     7
370
    35
100
AcDbVertex
100
AcDb2dVertex
 10
626.9427268112869
 20
23.72533847966035
 30
0.0
  0
VERTEX
  5
AF5
330
AE4
100
AcDbEntity
  8
0
  6
Continuous
 62
     7
370
    35
100
AcDbVertex
100
AcDb2dVertex
 10
626.9340006912917
 20
23.72579580677478
 30
0.0
  0
VERTEX
  5
AF6
330
AE4
100
AcDbEntity
  8
0
  6
Continuous
 62
     7
370
    35
100
AcDbVertex
100
AcDb2dVertex
 10
626.9252745712967
 20
23.72625313388919
 30
0.0
  0
VERTEX
  5
AF7
330
AE4
100
AcDbEntity
  8
0
  6
Continuous
 62
     7
370
    35
100
AcDbVertex
100
AcDb2dVertex
 10
626.9165478552553
 20
23.72671046042154
 30
0.0
  0
VERTEX
  5
AF8
330
AE4
100
AcDbEntity
  8
0
  6
Continuous
 62
     7
370
    35
100
AcDbVertex
100
AcDb2dVertex
 10
626.9078217352602
 20
23.72716778753596
 30
0.0
  0
VERTEX
  5
AF9
330
AE4
100
AcDbEntity
  8
0
  6
Continuous
 62
     7
370
    35
100
AcDbVertex
100
AcDb2dVertex
 10
626.899095615265
 20
23.72762511465038
 30
0.0
  0
VERTEX
  5
AFA
330
AE4
100
AcDbEntity
  8
0
  6
Continuous
 62
     7
370
    35
100
AcDbVertex
100
AcDb2dVertex
 10
626.8903688992232
 20
23.72808244176478
 30
0.0
  0
VERTEX
  5
AFB
330
AE4
100
AcDbEntity
  8
0
  6
Continuous
 62
     7
370
    35
100
AcDbVertex
100
AcDb2dVertex
 10
626.8816427792282
 20
23.72853976887919
 30
0.0
  0
VERTEX
  5
AFC
330
AE4
100
AcDbEntity
  8
0
  6
Continuous
 62
     7
370
    35
100
AcDbVertex
100
AcDb2dVertex
 10
626.872916659233
 20
23.72899709599362
 30
0.0
  0
VERTEX
  5
AFD
330
AE4
100
AcDbEntity
  8
0
  6
Continuous
 62
     7
370
    35
100
AcDbVertex
100
AcDb2dVertex
 10
626.8641899431916
 20
23.72945442310804
 30
0.0
  0
SEQEND
  5
AFE
330
AE4
100
AcDbEntity
  8
0
  6
Continuous
 62
     7
370
    35
  0
LINE
  5
AFF
330
1F
100
AcDbEntity
  8
0
  6
Continuous
 62
     7
370
    35
100
AcDbLine
 10
626.8641901816103
 20
23.71847857469038
 30
0.0
 11
626.8641901816103
 21
23.72945442269996
 31
0.0
  0
LINE
  5
B00
330
1F
100
AcDbEntity
  8
0
  6
Continuous
 62
     7
370
    35
100
AcDbLine
 10
627.0641901816102
 20
23.71847857469032
 30
0.0
 11
627.0641901816102
 21
23.71897286684338
 31
0.0
  0
LINE
  5
B01
330
1F
100
AcDbEntity
  8
0
  6
Continuous
 62
     7
370
    35
100
AcDbLine
 10
625.36419018161
 20
14.41847857469022
 30
0.0
 11
625.36419018161
 21
23.71847857469055
 31
0.0
  0
LINE
  5
B02
330
1F
100
AcDbEntity
  8
0
  6
Continuous
 62
     7
370
    35
100
AcDbLine
 10
625.36419018161
 20
23.71847857469055
 30
0.0
 11
627.1641901816101
 21
23.71847857469055
 31
0.0
  0
LINE
  5
B03
330
1F
100
AcDbEntity
  8
0
  6
Continuous
 62
     7
370
    35
100
AcDbLine
 10
627.1641901816101
 20
14.41847857469028
 30
0.0
 11
625.36419018161
 21
14.41847857469028
 31
0.0
  0
LINE
  5
B04
330
1F
100
AcDbEntity
  8
0
  6
Continuous
 62
     7
370
    35
100
AcDbLine
 10
628.4141901816102
 20
23.21847857469041
 30
0.0
 11
628.4141901816102
 21
21.2184785746904
 31
0.0
  0
LINE
  5
B05
330
1F
100
AcDbEntity
  8
0
  6
Continuous
 62
     7
370
    35
100
AcDbLine
 10
628.4141901816102
 20
21.2184785746904
 30
0.0
 11
627.4141901816102
 21
21.2184785746904
 31
0.0
  0
LINE
  5
B06
330
1F
100
AcDbEntity
  8
0
  6
Continuous
 62
     7
370
    35
100
AcDbLine
 10
627.4141901816102
 20
23.21847857469041
 30
0.0
 11
628.4141901816102
 21
23.21847857469041
 31
0.0
  0
LINE
  5
B07
330
1F
100
AcDbEntity
  8
0
  6
Continuous
 62
     7
370
    35
100
AcDbLine
 10
633.21419018161
 20
-10.78152142530955
 30
0.0
 11
628.4141901816102
 21
-10.78152142530955
 31
0.0
  0
LINE
  5
B08
330
1F
100
AcDbEntity
  8
0
  6
Continuous
 62
     7
370
    35
100
AcDbLine
 10
633.21419018161
 20
-6.28152142530962
 30
0.0
 11
628.4141901816102
 21
-6.28152142530962
 31
0.0
  0
LINE
  5
B09
330
1F
100
AcDbEntity
  8
0
  6
Continuous
 62
     7
370
    35
100
AcDbLine
 10
628.4141901816102
 20
-5.98152142530958
 30
0.0
 11
633.21419018161
 21
-5.98152142530958
 31
0.0
  0
LINE
  5
B0A
330
1F
100
AcDbEntity
  8
0
  6
Continuous
 62
     7
370
    35
100
AcDbLine
 10
627.1641901816102
 20
-4.781521425309589
 30
0.0
 11
646.0641901816101
 21
-4.78152142530962
 31
0.0
  0
LINE
  5
B0B
330
1F
100
AcDbEntity
  8
0
  6
Continuous
 62
     7
370
    35
100
AcDbLine
 10
639.0141901816101
 20
-10.78152142530957
 30
0.0
 11
634.2141901816102
 21
-10.78152142530955
 31
0.0
  0
LINE
  5
B0C
330
1F
100
AcDbEntity
  8
0
  6
Continuous
 62
     7
370
    35
100
AcDbLine
 10
639.0141901816101
 20
-6.28152142530962
 30
0.0
 11
634.2141901816102
 21
-6.28152142530962
 31
0.0
  0
LINE
  5
B0D
330
1F
100
AcDbEntity
  8
0
  6
Continuous
 62
     7
370
    35
100
AcDbLine
 10
634.2141901816102
 20
-5.981521425309607
 30
0.0
 11
639.0141901816101
 21
-5.981521425309607
 31
0.0
  0
LINE
  5
B0E
330
1F
100
AcDbEntity
  8
0
  6
Continuous
 62
     7
370
    35
100
AcDbLine
 10
644.8141901816101
 20
-10.78152142530957
 30
0.0
 11
640.0141901816101
 21
-10.78152142530957
 31
0.0
  0
LINE
  5
B0F
330
1F
100
AcDbEntity
  8
0
  6
Continuous
 62
     7
370
    35
100
AcDbLine
 10
639.0141901816101
 20
-5.28152142530962
 30
0.0
 11
640.0141901816101
 21
-5.28152142530962
 31
0.0
  0
LINE
  5
B10
330
1F
100
AcDbEntity
  8
0
  6
Continuous
 62
     7
370
    35
100
AcDbLine
 10
640.0141901816101
 20
-5.28152142530962
 30
0.0
 11
640.0141901816101
 21
-7.281521425309591
 31
0.0
  0
LINE
  5
B11
330
1F
100
AcDbEntity
  8
0
  6
Continuous
 62
     7
370
    35
100
AcDbLine
 10
640.0141901816101
 20
-7.281521425309591
 30
0.0
 11
639.0141901816101
 21
-7.281521425309591
 31
0.0
  0
LINE
  5
B12
330
1F
100
AcDbEntity
  8
0
  6
Continuous
 62
     7
370
    35
100
AcDbLine
 10
639.0141901816101
 20
-7.281521425309591
 30
0.0
 11
639.0141901816101
 21
-5.28152142530962
 31
0.0
  0
LINE
  5
B13
330
1F
100
AcDbEntity
  8
0
  6
Continuous
 62
     7
370
    35
100
AcDbLine
 10
640.0141901816101
 20
-3.28152142530962
 30
0.0
 11
639.0141901816101
 21
-3.28152142530962
 31
0.0
  0
LINE
  5
B14
330
1F
100
AcDbEntity
  8
0
  6
Continuous
 62
     7
370
    35
100
AcDbLine
 10
639.0141901816101
 20
-3.28152142530962
 30
0.0
 11
639.0141901816101
 21
-1.28152142530959
 31
0.0
  0
LINE
  5
B15
330
1F
100
AcDbEntity
  8
0
  6
Continuous
 62
     7
370
    35
100
AcDbLine
 10
639.0141901816101
 20
-1.28152142530962
 30
0.0
 11
640.0141901816101
 21
-1.28152142530962
 31
0.0
  0
LINE
  5
B16
330
1F
100
AcDbEntity
  8
0
  6
Continuous
 62
     7
370
    35
100
AcDbLine
 10
640.0141901816101
 20
-1.28152142530962
 30
0.0
 11
640.0141901816101
 21
-3.28152142530962
 31
0.0
  0
LINE
  5
B17
330
1F
100
AcDbEntity
  8
0
  6
Continuous
 62
     7
370
    35
100
AcDbLine
 10
644.8141901816101
 20
-5.28152142530962
 30
0.0
 11
645.8141901816101
 21
-5.28152142530962
 31
0.0
  0
LINE
  5
B18
330
1F
100
AcDbEntity
  8
0
  6
Continuous
 62
     7
370
    35
100
AcDbLine
 10
645.8141901816101
 20
-5.28152142530962
 30
0.0
 11
645.8141901816101
 21
-7.28152142530962
 31
0.0
  0
LINE
  5
B19
330
1F
100
AcDbEntity
  8
0
  6
Continuous
 62
     7
370
    35
100
AcDbLine
 10
645.8141901816101
 20
-7.28152142530962
 30
0.0
 11
644.8141901816101
 21
-7.28152142530962
 31
0.0
  0
LINE
  5
B1A
330
1F
100
AcDbEntity
  8
0
  6
Continuous
 62
     7
370
    35
100
AcDbLine
 10
644.8141901816101
 20
-7.28152142530962
 30
0.0
 11
644.8141901816101
 21
-5.28152142530962
 31
0.0
  0
LINE
  5
B1B
330
1F
100
AcDbEntity
  8
0
  6
Continuous
 62
     7
370
    35
100
AcDbLine
 10
644.8141901816101
 20
-1.28152142530962
 30
0.0
 11
645.8141901816101
 21
-1.28152142530962
 31
0.0
  0
LINE
  5
B1C
330
1F
100
AcDbEntity
  8
0
  6
Continuous
 62
     7
370
    35
100
AcDbLine
 10
645.8141901816101
 20
-1.28152142530962
 30
0.0
 11
645.8141901816101
 21
-3.28152142530962
 31
0.0
  0
LINE
  5
B1D
330
1F
100
AcDbEntity
  8
0
  6
Continuous
 62
     7
370
    35
100
AcDbLine
 10
645.8141901816101
 20
-3.28152142530962
 30
0.0
 11
644.8141901816101
 21
-3.28152142530962
 31
0.0
  0
LINE
  5
B1E
330
1F
100
AcDbEntity
  8
0
  6
Continuous
 62
     7
370
    35
100
AcDbLine
 10
644.8141901816101
 20
-3.28152142530962
 30
0.0
 11
644.8141901816101
 21
-1.28152142530962
 31
0.0
  0
LINE
  5
B1F
330
1F
100
AcDbEntity
  8
0
  6
Continuous
 62
     7
370
    35
100
AcDbLine
 10
644.8141901816101
 20
-6.28152142530962
 30
0.0
 11
640.0141901816101
 21
-6.28152142530962
 31
0.0
  0
LINE
  5
B20
330
1F
100
AcDbEntity
  8
0
  6
Continuous
 62
     7
370
    35
100
AcDbLine
 10
640.0141901816101
 20
-5.981521425309607
 30
0.0
 11
644.8141901816101
 21
-5.981521425309607
 31
0.0
  0
LINE
  5
B21
330
1F
100
AcDbEntity
  8
0
  6
Continuous
 62
     7
370
    35
100
AcDbLine
 10
633.21419018161
 20
-5.28152142530962
 30
0.0
 11
634.2141901816102
 21
-5.28152142530962
 31
0.0
  0
LINE
  5
B22
330
1F
100
AcDbEntity
  8
0
  6
Continuous
 62
     7
370
    35
100
AcDbLine
 10
634.2141901816102
 20
-5.28152142530962
 30
0.0
 11
634.2141901816102
 21
-7.281521425309591
 31
0.0
  0
LINE
  5
B23
330
1F
100
AcDbEntity
  8
0
  6
Continuous
 62
     7
370
    35
100
AcDbLine
 10
634.2141901816102
 20
-7.281521425309591
 30
0.0
 11
633.21419018161
 21
-7.281521425309591
 31
0.0
  0
LINE
  5
B24
330
1F
100
AcDbEntity
  8
0
  6
Continuous
 62
     7
370
    35
100
AcDbLine
 10
633.21419018161
 20
-7.281521425309591
 30
0.0
 11
633.21419018161
 21
-5.28152142530962
 31
0.0
  0
LINE
  5
B25
330
1F
100
AcDbEntity
  8
0
  6
Continuous
 62
     7
370
    35
100
AcDbLine
 10
633.21419018161
 20
-1.28152142530959
 30
0.0
 11
634.2141901816102
 21
-1.28152142530959
 31
0.0
  0
LINE
  5
B26
330
1F
100
AcDbEntity
  8
0
  6
Continuous
 62
     7
370
    35
100
AcDbLine
 10
634.2141901816102
 20
-1.28152142530959
 30
0.0
 11
634.2141901816102
 21
-3.281521425309591
 31
0.0
  0
LINE
  5
B27
330
1F
100
AcDbEntity
  8
0
  6
Continuous
 62
     7
370
    35
100
AcDbLine
 10
634.2141901816102
 20
-3.28152142530962
 30
0.0
 11
633.21419018161
 21
-3.28152142530962
 31
0.0
  0
LINE
  5
B28
330
1F
100
AcDbEntity
  8
0
  6
Continuous
 62
     7
370
    35
100
AcDbLine
 10
633.21419018161
 20
-3.28152142530962
 30
0.0
 11
633.21419018161
 21
-1.28152142530962
 31
0.0
  0
LINE
  5
B29
330
1F
100
AcDbEntity
  8
0
  6
Continuous
 62
     7
370
    35
100
AcDbLine
 10
627.4141901816102
 20
-7.281521425309562
 30
0.0
 11
627.4141901816102
 21
-5.28152142530962
 31
0.0
  0
LINE
  5
B2A
330
1F
100
AcDbEntity
  8
0
  6
Continuous
 62
     7
370
    35
100
AcDbLine
 10
627.4141901816102
 20
-3.281521425309591
 30
0.0
 11
627.4141901816102
 21
-1.28152142530959
 31
0.0
  0
LINE
  5
B2B
330
1F
100
AcDbEntity
  8
0
  6
Continuous
 62
     7
370
    35
100
AcDbLine
 10
627.1641901816101
 20
-4.78152142531124
 30
0.0
 11
625.3641901816102
 21
-4.78152142531124
 31
0.0
  0
LINE
  5
B2C
330
1F
100
AcDbEntity
  8
0
  6
Continuous
 62
     7
370
    35
100
AcDbLine
 10
628.4141901816102
 20
-5.28152142530962
 30
0.0
 11
628.4141901816102
 21
-7.281521425309562
 31
0.0
  0
LINE
  5
B2D
330
1F
100
AcDbEntity
  8
0
  6
Continuous
 62
     7
370
    35
100
AcDbLine
 10
628.4141901816102
 20
-1.28152142530959
 30
0.0
 11
628.4141901816102
 21
-3.281521425309591
 31
0.0
  0
LINE
  5
B2E
330
1F
100
AcDbEntity
  8
0
  6
Continuous
 62
     7
370
    35
100
AcDbLine
 10
628.4141901816102
 20
-7.281521425309562
 30
0.0
 11
627.4141901816102
 21
-7.281521425309562
 31
0.0
  0
LINE
  5
B2F
330
1F
100
AcDbEntity
  8
0
  6
Continuous
 62
     7
370
    35
100
AcDbLine
 10
627.4141901816102
 20
-5.28152142530962
 30
0.0
 11
628.4141901816102
 21
-5.28152142530962
 31
0.0
  0
LINE
  5
B30
330
1F
100
AcDbEntity
  8
0
  6
Continuous
 62
     7
370
    35
100
AcDbLine
 10
628.4141901816102
 20
-3.281521425309591
 30
0.0
 11
627.4141901816102
 21
-3.281521425309591
 31
0.0
  0
LINE
  5
B31
330
1F
100
AcDbEntity
  8
0
  6
Continuous
 62
     7
370
    35
100
AcDbLine
 10
627.4141901816102
 20
-1.28152142530959
 30
0.0
 11
628.4141901816102
 21
-1.28152142530959
 31
0.0
  0
LINE
  5
B32
330
1F
100
AcDbEntity
  8
0
  6
Continuous
 62
     7
370
    35
100
AcDbLine
 10
627.1641901816106
 20
-33.28626791108109
 30
0.0
 11
636.6141901816103
 21
-33.78152142530661
 31
0.0
  0
POLYLINE
  5
B33
330
1F
100
AcDbEntity
  8
0
  6
Continuous
 62
     7
370
    35
100
AcDb2dPolyline
 66
     1
 10
0.0
 20
0.0
 30
0.0
  0
VERTEX
  5
B34
330
B33
100
AcDbEntity
  8
0
  6
Continuous
 62
     7
370
    35
100
AcDbVertex
100
AcDb2dVertex
 10
646.0641901100846
 20
-33.28626881605669
 30
0.0
  0
VERTEX
  5
B35
330
B33
100
AcDbEntity
  8
0
  6
Continuous
 62
     7
370
    35
100
AcDbVertex
100
AcDb2dVertex
 10
645.670440038559
 20
-33.30690155989214
 30
0.0
  0
VERTEX
  5
B36
330
B33
100
AcDbEntity
  8
0
  6
Continuous
 62
     7
370
    35
100
AcDbVertex
100
AcDb2dVertex
 10
645.2766899670335
 20
-33.32753907209917
 30
0.0
  0
VERTEX
  5
B37
330
B33
100
AcDbEntity
  8
0
  6
Continuous
 62
     7
370
    35
100
AcDbVertex
100
AcDb2dVertex
 10
644.8829398955077
 20
-33.34817658430619
 30
0.0
  0
VERTEX
  5
B38
330
B33
100
AcDbEntity
  8
0
  6
Continuous
 62
     7
370
    35
100
AcDbVertex
100
AcDb2dVertex
 10
644.4891904200288
 20
-33.36880932814164
 30
0.0
  0
VERTEX
  5
B39
330
B33
100
AcDbEntity
  8
0
  6
Continuous
 62
     7
370
    35
100
AcDbVertex
100
AcDb2dVertex
 10
644.095440348503
 20
-33.38944684034867
 30
0.0
  0
VERTEX
  5
B3A
330
B33
100
AcDbEntity
  8
0
  6
Continuous
 62
     7
370
    35
100
AcDbVertex
100
AcDb2dVertex
 10
643.7016902769776
 20
-33.41007958418412
 30
0.0
  0
VERTEX
  5
B3B
330
B33
100
AcDbEntity
  8
0
  6
Continuous
 62
     7
370
    35
100
AcDbVertex
100
AcDb2dVertex
 10
643.3079402054519
 20
-33.43071709639115
 30
0.0
  0
VERTEX
  5
B3C
330
B33
100
AcDbEntity
  8
0
  6
Continuous
 62
     7
370
    35
100
AcDbVertex
100
AcDb2dVertex
 10
642.9141901339264
 20
-33.45135460859818
 30
0.0
  0
VERTEX
  5
B3D
330
B33
100
AcDbEntity
  8
0
  6
Continuous
 62
     7
370
    35
100
AcDbVertex
100
AcDb2dVertex
 10
642.5204400624009
 20
-33.47198735243363
 30
0.0
  0
VERTEX
  5
B3E
330
B33
100
AcDbEntity
  8
0
  6
Continuous
 62
     7
370
    35
100
AcDbVertex
100
AcDb2dVertex
 10
642.1266899908752
 20
-33.49262486464066
 30
0.0
  0
VERTEX
  5
B3F
330
B33
100
AcDbEntity
  8
0
  6
Continuous
 62
     7
370
    35
100
AcDbVertex
100
AcDb2dVertex
 10
641.7329399193497
 20
-33.51325760847611
 30
0.0
  0
VERTEX
  5
B40
330
B33
100
AcDbEntity
  8
0
  6
Continuous
 62
     7
370
    35
100
AcDbVertex
100
AcDb2dVertex
 10
641.3391901458473
 20
-33.53389512068314
 30
0.0
  0
VERTEX
  5
B41
330
B33
100
AcDbEntity
  8
0
  6
Continuous
 62
     7
370
    35
100
AcDbVertex
100
AcDb2dVertex
 10
640.9454400743217
 20
-33.55452786451859
 30
0.0
  0
VERTEX
  5
B42
330
B33
100
AcDbEntity
  8
0
  6
Continuous
 62
     7
370
    35
100
AcDbVertex
100
AcDb2dVertex
 10
640.5516903008192
 20
-33.57516537672562
 30
0.0
  0
VERTEX
  5
B43
330
B33
100
AcDbEntity
  8
0
  6
Continuous
 62
     7
370
    35
100
AcDbVertex
100
AcDb2dVertex
 10
640.1579402292939
 20
-33.59580288893264
 30
0.0
  0
VERTEX
  5
B44
330
B33
100
AcDbEntity
  8
0
  6
Continuous
 62
     7
370
    35
100
AcDbVertex
100
AcDb2dVertex
 10
639.7641901577681
 20
-33.6164356327681
 30
0.0
  0
VERTEX
  5
B45
330
B33
100
AcDbEntity
  8
0
  6
Continuous
 62
     7
370
    35
100
AcDbVertex
100
AcDb2dVertex
 10
639.3704400862427
 20
-33.63707314497514
 30
0.0
  0
VERTEX
  5
B46
330
B33
100
AcDbEntity
  8
0
  6
Continuous
 62
     7
370
    35
100
AcDbVertex
100
AcDb2dVertex
 10
638.9766901637287
 20
-33.65770588881057
 30
0.0
  0
VERTEX
  5
B47
330
B33
100
AcDbEntity
  8
0
  6
Continuous
 62
     7
370
    35
100
AcDbVertex
100
AcDb2dVertex
 10
638.5829402412147
 20
-33.67834340101762
 30
0.0
  0
VERTEX
  5
B48
330
B33
100
AcDbEntity
  8
0
  6
Continuous
 62
     7
370
    35
100
AcDbVertex
100
AcDb2dVertex
 10
638.1891901696892
 20
-33.69898091322466
 30
0.0
  0
VERTEX
  5
B49
330
B33
100
AcDbEntity
  8
0
  6
Continuous
 62
     7
370
    35
100
AcDbVertex
100
AcDb2dVertex
 10
637.7954401726695
 20
-33.71961365706011
 30
0.0
  0
VERTEX
  5
B4A
330
B33
100
AcDbEntity
  8
0
  6
Continuous
 62
     7
370
    35
100
AcDbVertex
100
AcDb2dVertex
 10
637.4016901756497
 20
-33.74025116926714
 30
0.0
  0
VERTEX
  5
B4B
330
B33
100
AcDbEntity
  8
0
  6
Continuous
 62
     7
370
    35
100
AcDbVertex
100
AcDb2dVertex
 10
637.0079401786297
 20
-33.76088391310259
 30
0.0
  0
VERTEX
  5
B4C
330
B33
100
AcDbEntity
  8
0
  6
Continuous
 62
     7
370
    35
100
AcDbVertex
100
AcDb2dVertex
 10
636.6141901816097
 20
-33.78152142530962
 30
0.0
  0
SEQEND
  5
B4D
330
B33
100
AcDbEntity
  8
0
  6
Continuous
 62
     7
370
    35
  0
LINE
  5
B4E
330
1F
100
AcDbEntity
  8
0
  6
Continuous
 62
     7
370
    35
100
AcDbLine
 10
640.0141901816101
 20
-31.78152142530945
 30
0.0
 11
639.0141901816101
 21
-31.78152142530945
 31
0.0
  0
LINE
  5
B4F
330
1F
100
AcDbEntity
  8
0
  6
Continuous
 62
     7
370
    35
100
AcDbLine
 10
639.0141901816101
 20
-29.78152142530948
 30
0.0
 11
640.0141901816101
 21
-29.78152142530948
 31
0.0
  0
LINE
  5
B50
330
1F
100
AcDbEntity
  8
0
  6
Continuous
 62
     7
370
    35
100
AcDbLine
 10
639.0141901816101
 20
-31.78152142530945
 30
0.0
 11
639.0141901816101
 21
-29.78152142530948
 31
0.0
  0
LINE
  5
B51
330
1F
100
AcDbEntity
  8
0
  6
Continuous
 62
     7
370
    35
100
AcDbLine
 10
640.0141901816101
 20
-29.78152142530948
 30
0.0
 11
640.0141901816101
 21
-31.78152142530945
 31
0.0
  0
LINE
  5
B52
330
1F
100
AcDbEntity
  8
0
  6
Continuous
 62
     7
370
    35
100
AcDbLine
 10
645.1641901816103
 20
-33.28152142530945
 30
0.0
 11
645.1641901816103
 21
-33.33343491244377
 31
0.0
  0
LINE
  5
B53
330
1F
100
AcDbEntity
  8
0
  6
Continuous
 62
     7
370
    35
100
AcDbLine
 10
644.0641901816101
 20
-33.28152142530945
 30
0.0
 11
644.0641901816101
 21
-33.39108346965078
 31
0.0
  0
LINE
  5
B54
330
1F
100
AcDbEntity
  8
0
  6
Continuous
 62
     7
370
    35
100
AcDbLine
 10
646.0641901816101
 20
-33.28152142530945
 30
0.0
 11
644.0641901816101
 21
-33.28152142530945
 31
0.0
  0
LINE
  5
B55
330
1F
100
AcDbEntity
  8
0
  6
Continuous
 62
     7
370
    35
100
AcDbLine
 10
645.8141901816102
 20
-31.78152142530945
 30
0.0
 11
644.8141901816102
 21
-31.78152142530945
 31
0.0
  0
LINE
  5
B56
330
1F
100
AcDbEntity
  8
0
  6
Continuous
 62
     7
370
    35
100
AcDbLine
 10
644.8141901816101
 20
-29.7815214253095
 30
0.0
 11
645.8141901816101
 21
-29.7815214253095
 31
0.0
  0
LINE
  5
B57
330
1F
100
AcDbEntity
  8
0
  6
Continuous
 62
     7
370
    35
100
AcDbLine
 10
645.8141901816102
 20
-29.7815214253095
 30
0.0
 11
645.8141901816102
 21
-31.78152142530946
 31
0.0
  0
LINE
  5
B58
330
1F
100
AcDbEntity
  8
0
  6
Continuous
 62
     7
370
    35
100
AcDbLine
 10
644.8141901816101
 20
-31.78152142530945
 30
0.0
 11
644.8141901816101
 21
-29.78152142530948
 31
0.0
  0
LINE
  5
B59
330
1F
100
AcDbEntity
  8
0
  6
Continuous
 62
     7
370
    35
100
AcDbLine
 10
634.2141901816102
 20
-31.78152142530945
 30
0.0
 11
633.21419018161
 21
-31.78152142530945
 31
0.0
  0
LINE
  5
B5A
330
1F
100
AcDbEntity
  8
0
  6
Continuous
 62
     7
370
    35
100
AcDbLine
 10
633.21419018161
 20
-29.78152142530948
 30
0.0
 11
634.2141901816102
 21
-29.78152142530948
 31
0.0
  0
LINE
  5
B5B
330
1F
100
AcDbEntity
  8
0
  6
Continuous
 62
     7
370
    35
100
AcDbLine
 10
634.2141901816102
 20
-29.78152142530948
 30
0.0
 11
634.2141901816102
 21
-31.78152142530945
 31
0.0
  0
LINE
  5
B5C
330
1F
100
AcDbEntity
  8
0
  6
Continuous
 62
     7
370
    35
100
AcDbLine
 10
633.21419018161
 20
-31.78152142530945
 30
0.0
 11
633.21419018161
 21
-29.78152142530948
 31
0.0
  0
LINE
  5
B5D
330
1F
100
AcDbEntity
  8
0
  6
Continuous
 62
     7
370
    35
100
AcDbLine
 10
628.0641901816102
 20
-33.28152142530945
 30
0.0
 11
628.0641901816102
 21
-33.33343491243612
 31
0.0
  0
LINE
  5
B5E
330
1F
100
AcDbEntity
  8
0
  6
Continuous
 62
     7
370
    35
100
AcDbLine
 10
629.1641901816102
 20
-33.39108346965076
 30
0.0
 11
629.1641901816102
 21
-33.28152142530945
 31
0.0
  0
LINE
  5
B5F
330
1F
100
AcDbEntity
  8
0
  6
Continuous
 62
     7
370
    35
100
AcDbLine
 10
629.1641901816102
 20
-33.28152142530945
 30
0.0
 11
627.1641901816102
 21
-33.28152142530945
 31
0.0
  0
LINE
  5
B60
330
1F
100
AcDbEntity
  8
0
  6
Continuous
 62
     7
370
    35
100
AcDbLine
 10
628.4141901816102
 20
-31.78152142530945
 30
0.0
 11
627.4141901816102
 21
-31.78152142530945
 31
0.0
  0
LINE
  5
B61
330
1F
100
AcDbEntity
  8
0
  6
Continuous
 62
     7
370
    35
100
AcDbLine
 10
627.4141901816102
 20
-29.78152142530944
 30
0.0
 11
628.4141901816102
 21
-29.78152142530944
 31
0.0
  0
LINE
  5
B62
330
1F
100
AcDbEntity
  8
0
  6
Continuous
 62
     7
370
    35
100
AcDbLine
 10
627.4141901816102
 20
-31.78152142530945
 30
0.0
 11
627.4141901816102
 21
-29.78152142530944
 31
0.0
  0
LINE
  5
B63
330
1F
100
AcDbEntity
  8
0
  6
Continuous
 62
     7
370
    35
100
AcDbLine
 10
628.4141901816102
 20
-29.78152142530944
 30
0.0
 11
628.4141901816102
 21
-31.78152142530945
 31
0.0
  0
POLYLINE
  5
B64
330
1F
100
AcDbEntity
  8
0
  6
Continuous
 62
     7
370
    35
100
AcDb2dPolyline
 66
     1
 10
0.0
 20
0.0
 30
0.0
  0
VERTEX
  5
B65
330
B64
100
AcDbEntity
  8
0
  6
Continuous
 62
     7
370
    35
100
AcDbVertex
100
AcDb2dVertex
 10
647.8641901816103
 20
-71.81097279554887
 30
0.0
  0
VERTEX
  5
B66
330
B64
100
AcDbEntity
  8
0
  6
Continuous
 62
     7
370
    35
100
AcDbVertex
100
AcDb2dVertex
 10
647.3954401816103
 20
-71.80975209242387
 30
0.0
  0
VERTEX
  5
B67
330
B64
100
AcDbEntity
  8
0
  6
Continuous
 62
     7
370
    35
100
AcDbVertex
100
AcDb2dVertex
 10
646.9266901816101
 20
-71.8085218525557
 30
0.0
  0
VERTEX
  5
B68
330
B64
100
AcDbEntity
  8
0
  6
Continuous
 62
     7
370
    35
100
AcDbVertex
100
AcDb2dVertex
 10
646.45794018161
 20
-71.80729161268755
 30
0.0
  0
VERTEX
  5
B69
330
B64
100
AcDbEntity
  8
0
  6
Continuous
 62
     7
370
    35
100
AcDbVertex
100
AcDb2dVertex
 10
645.9891901816097
 20
-71.80607090956255
 30
0.0
  0
VERTEX
  5
B6A
330
B64
100
AcDbEntity
  8
0
  6
Continuous
 62
     7
370
    35
100
AcDbVertex
100
AcDb2dVertex
 10
645.5204401816103
 20
-71.80484066969437
 30
0.0
  0
VERTEX
  5
B6B
330
B64
100
AcDbEntity
  8
0
  6
Continuous
 62
     7
370
    35
100
AcDbVertex
100
AcDb2dVertex
 10
645.0516901816103
 20
-71.80361042982622
 30
0.0
  0
VERTEX
  5
B6C
330
B64
100
AcDbEntity
  8
0
  6
Continuous
 62
     7
370
    35
100
AcDbVertex
100
AcDb2dVertex
 10
644.5829401816101
 20
-71.80238972670122
 30
0.0
  0
VERTEX
  5
B6D
330
B64
100
AcDbEntity
  8
0
  6
Continuous
 62
     7
370
    35
100
AcDbVertex
100
AcDb2dVertex
 10
644.11419018161
 20
-71.80115948683305
 30
0.0
  0
VERTEX
  5
B6E
330
B64
100
AcDbEntity
  8
0
  6
Continuous
 62
     7
370
    35
100
AcDbVertex
100
AcDb2dVertex
 10
643.6454401816097
 20
-71.79992924696489
 30
0.0
  0
VERTEX
  5
B6F
330
B64
100
AcDbEntity
  8
0
  6
Continuous
 62
     7
370
    35
100
AcDbVertex
100
AcDb2dVertex
 10
643.1766901816103
 20
-71.79869900709674
 30
0.0
  0
VERTEX
  5
B70
330
B64
100
AcDbEntity
  8
0
  6
Continuous
 62
     7
370
    35
100
AcDbVertex
100
AcDb2dVertex
 10
642.7079401816103
 20
-71.79747830397174
 30
0.0
  0
VERTEX
  5
B71
330
B64
100
AcDbEntity
  8
0
  6
Continuous
 62
     7
370
    35
100
AcDbVertex
100
AcDb2dVertex
 10
642.2391901816101
 20
-71.79624806410356
 30
0.0
  0
VERTEX
  5
B72
330
B64
100
AcDbEntity
  8
0
  6
Continuous
 62
     7
370
    35
100
AcDbVertex
100
AcDb2dVertex
 10
641.77044018161
 20
-71.79501782423542
 30
0.0
  0
VERTEX
  5
B73
330
B64
100
AcDbEntity
  8
0
  6
Continuous
 62
     7
370
    35
100
AcDbVertex
100
AcDb2dVertex
 10
641.3016901816097
 20
-71.79379712111042
 30
0.0
  0
VERTEX
  5
B74
330
B64
100
AcDbEntity
  8
0
  6
Continuous
 62
     7
370
    35
100
AcDbVertex
100
AcDb2dVertex
 10
640.8329401816103
 20
-71.79256688124223
 30
0.0
  0
VERTEX
  5
B75
330
B64
100
AcDbEntity
  8
0
  6
Continuous
 62
     7
370
    35
100
AcDbVertex
100
AcDb2dVertex
 10
640.3641901816103
 20
-71.79133664137406
 30
0.0
  0
VERTEX
  5
B76
330
B64
100
AcDbEntity
  8
0
  6
Continuous
 62
     7
370
    35
100
AcDbVertex
100
AcDb2dVertex
 10
639.8954401816101
 20
-71.79011593824906
 30
0.0
  0
VERTEX
  5
B77
330
B64
100
AcDbEntity
  8
0
  6
Continuous
 62
     7
370
    35
100
AcDbVertex
100
AcDb2dVertex
 10
639.42669018161
 20
-71.78888569838091
 30
0.0
  0
VERTEX
  5
B78
330
B64
100
AcDbEntity
  8
0
  6
Continuous
 62
     7
370
    35
100
AcDbVertex
100
AcDb2dVertex
 10
638.9579401816097
 20
-71.78765545851273
 30
0.0
  0
VERTEX
  5
B79
330
B64
100
AcDbEntity
  8
0
  6
Continuous
 62
     7
370
    35
100
AcDbVertex
100
AcDb2dVertex
 10
638.4891901816103
 20
-71.78643475538773
 30
0.0
  0
VERTEX
  5
B7A
330
B64
100
AcDbEntity
  8
0
  6
Continuous
 62
     7
370
    35
100
AcDbVertex
100
AcDb2dVertex
 10
638.0204401816103
 20
-71.78520451551958
 30
0.0
  0
VERTEX
  5
B7B
330
B64
100
AcDbEntity
  8
0
  6
Continuous
 62
     7
370
    35
100
AcDbVertex
100
AcDb2dVertex
 10
637.5516901816101
 20
-71.7839742756514
 30
0.0
  0
VERTEX
  5
B7C
330
B64
100
AcDbEntity
  8
0
  6
Continuous
 62
     7
370
    35
100
AcDbVertex
100
AcDb2dVertex
 10
637.08294018161
 20
-71.78274403578325
 30
0.0
  0
VERTEX
  5
B7D
330
B64
100
AcDbEntity
  8
0
  6
Continuous
 62
     7
370
    35
100
AcDbVertex
100
AcDb2dVertex
 10
636.6141901816097
 20
-71.78152333265825
 30
0.0
  0
SEQEND
  5
B7E
330
B64
100
AcDbEntity
  8
0
  6
Continuous
 62
     7
370
    35
  0
LINE
  5
B7F
330
1F
100
AcDbEntity
  8
0
  6
Continuous
 62
     7
370
    35
100
AcDbLine
 10
636.6141901816097
 20
-73.28152142530966
 30
0.0
 11
647.8641901816103
 21
-73.28152142530966
 31
0.0
  0
POLYLINE
  5
B80
330
1F
100
AcDbEntity
  8
0
  6
Continuous
 62
     7
370
    35
100
AcDb2dPolyline
 66
     1
 10
0.0
 20
0.0
 30
0.0
  0
VERTEX
  5
B81
330
B80
100
AcDbEntity
  8
0
  6
Continuous
 62
     7
370
    35
100
AcDbVertex
100
AcDb2dVertex
 10
647.8641901816103
 20
-71.81097279554887
 30
0.0
  0
VERTEX
  5
B82
330
B80
100
AcDbEntity
  8
0
  6
Continuous
 62
     7
370
    35
100
AcDbVertex
100
AcDb2dVertex
 10
647.8641901816103
 20
-71.87224637037799
 30
0.0
  0
VERTEX
  5
B83
330
B80
100
AcDbEntity
  8
0
  6
Continuous
 62
     7
370
    35
100
AcDbVertex
100
AcDb2dVertex
 10
647.8641901816103
 20
-71.93351994520708
 30
0.0
  0
VERTEX
  5
B84
330
B80
100
AcDbEntity
  8
0
  6
Continuous
 62
     7
370
    35
100
AcDbVertex
100
AcDb2dVertex
 10
647.8641901816103
 20
-71.9947935200362
 30
0.0
  0
VERTEX
  5
B85
330
B80
100
AcDbEntity
  8
0
  6
Continuous
 62
     7
370
    35
100
AcDbVertex
100
AcDb2dVertex
 10
647.8641901816103
 20
-72.05606709486528
 30
0.0
  0
VERTEX
  5
B86
330
B80
100
AcDbEntity
  8
0
  6
Continuous
 62
     7
370
    35
100
AcDbVertex
100
AcDb2dVertex
 10
647.8641901816103
 20
-72.11734066969437
 30
0.0
  0
VERTEX
  5
B87
330
B80
100
AcDbEntity
  8
0
  6
Continuous
 62
     7
370
    35
100
AcDbVertex
100
AcDb2dVertex
 10
647.8641901816103
 20
-72.17861424452348
 30
0.0
  0
VERTEX
  5
B88
330
B80
100
AcDbEntity
  8
0
  6
Continuous
 62
     7
370
    35
100
AcDbVertex
100
AcDb2dVertex
 10
647.8641901816103
 20
-72.2398878193526
 30
0.0
  0
VERTEX
  5
B89
330
B80
100
AcDbEntity
  8
0
  6
Continuous
 62
     7
370
    35
100
AcDbVertex
100
AcDb2dVertex
 10
647.8641901816103
 20
-72.30116139418169
 30
0.0
  0
VERTEX
  5
B8A
330
B80
100
AcDbEntity
  8
0
  6
Continuous
 62
     7
370
    35
100
AcDbVertex
100
AcDb2dVertex
 10
647.8641901816103
 20
-72.36243496901081
 30
0.0
  0
VERTEX
  5
B8B
330
B80
100
AcDbEntity
  8
0
  6
Continuous
 62
     7
370
    35
100
AcDbVertex
100
AcDb2dVertex
 10
647.8641901816103
 20
-72.42369900709674
 30
0.0
  0
VERTEX
  5
B8C
330
B80
100
AcDbEntity
  8
0
  6
Continuous
 62
     7
370
    35
100
AcDbVertex
100
AcDb2dVertex
 10
647.8641901816103
 20
-72.48497258192583
 30
0.0
  0
VERTEX
  5
B8D
330
B80
100
AcDbEntity
  8
0
  6
Continuous
 62
     7
370
    35
100
AcDbVertex
100
AcDb2dVertex
 10
647.8641901816103
 20
-72.54624615675495
 30
0.0
  0
VERTEX
  5
B8E
330
B80
100
AcDbEntity
  8
0
  6
Continuous
 62
     7
370
    35
100
AcDbVertex
100
AcDb2dVertex
 10
647.8641901816103
 20
-72.60751973158403
 30
0.0
  0
VERTEX
  5
B8F
330
B80
100
AcDbEntity
  8
0
  6
Continuous
 62
     7
370
    35
100
AcDbVertex
100
AcDb2dVertex
 10
647.8641901816103
 20
-72.66879330641312
 30
0.0
  0
VERTEX
  5
B90
330
B80
100
AcDbEntity
  8
0
  6
Continuous
 62
     7
370
    35
100
AcDbVertex
100
AcDb2dVertex
 10
647.8641901816103
 20
-72.73006688124223
 30
0.0
  0
VERTEX
  5
B91
330
B80
100
AcDbEntity
  8
0
  6
Continuous
 62
     7
370
    35
100
AcDbVertex
100
AcDb2dVertex
 10
647.8641901816103
 20
-72.79134045607135
 30
0.0
  0
VERTEX
  5
B92
330
B80
100
AcDbEntity
  8
0
  6
Continuous
 62
     7
370
    35
100
AcDbVertex
100
AcDb2dVertex
 10
647.8641901816103
 20
-72.85261403090044
 30
0.0
  0
VERTEX
  5
B93
330
B80
100
AcDbEntity
  8
0
  6
Continuous
 62
     7
370
    35
100
AcDbVertex
100
AcDb2dVertex
 10
647.8641901816103
 20
-72.91388760572956
 30
0.0
  0
VERTEX
  5
B94
330
B80
100
AcDbEntity
  8
0
  6
Continuous
 62
     7
370
    35
100
AcDbVertex
100
AcDb2dVertex
 10
647.8641901816103
 20
-72.97516118055864
 30
0.0
  0
VERTEX
  5
B95
330
B80
100
AcDbEntity
  8
0
  6
Continuous
 62
     7
370
    35
100
AcDbVertex
100
AcDb2dVertex
 10
647.8641901816103
 20
-73.03643475538773
 30
0.0
  0
VERTEX
  5
B96
330
B80
100
AcDbEntity
  8
0
  6
Continuous
 62
     7
370
    35
100
AcDbVertex
100
AcDb2dVertex
 10
647.8641901816103
 20
-73.0976987934737
 30
0.0
  0
VERTEX
  5
B97
330
B80
100
AcDbEntity
  8
0
  6
Continuous
 62
     7
370
    35
100
AcDbVertex
100
AcDb2dVertex
 10
647.8641901816103
 20
-73.15897236830278
 30
0.0
  0
VERTEX
  5
B98
330
B80
100
AcDbEntity
  8
0
  6
Continuous
 62
     7
370
    35
100
AcDbVertex
100
AcDb2dVertex
 10
647.8641901816103
 20
-73.22024594313187
 30
0.0
  0
VERTEX
  5
B99
330
B80
100
AcDbEntity
  8
0
  6
Continuous
 62
     7
370
    35
100
AcDbVertex
100
AcDb2dVertex
 10
647.8641901816103
 20
-73.28151951796098
 30
0.0
  0
SEQEND
  5
B9A
330
B80
100
AcDbEntity
  8
0
  6
Continuous
 62
     7
370
    35
  0
LINE
  5
B9B
330
1F
100
AcDbEntity
  8
0
  6
Continuous
 62
     7
370
    35
100
AcDbLine
 10
576.5362589600587
 20
-103.2919811533433
 30
0.0
 11
534.7788996471788
 21
-103.2919811533433
 31
0.0
  0
LINE
  5
B9C
330
1F
100
AcDbEntity
  8
0
  6
Continuous
 62
     7
370
    35
100
AcDbLine
 10
535.9788996471786
 20
-104.2919811533433
 30
0.0
 11
575.3362589600587
 21
-104.2919811533433
 31
0.0
  0
LINE
  5
BD3
330
1F
100
AcDbEntity
  8
0
  6
Continuous
 62
     7
370
    35
100
AcDbLine
 10
575.3362589600587
 20
-124.7919811533433
 30
0.0
 11
535.9788996471786
 21
-124.7919811533433
 31
0.0
  0
LINE
  5
BD4
330
1F
100
AcDbEntity
  8
0
  6
Continuous
 62
     7
370
    35
100
AcDbLine
 10
576.5362589600587
 20
-125.7919811533433
 30
0.0
 11
534.7788996471788
 21
-125.7919811533433
 31
0.0
  0
LINE
  5
BD5
330
1F
100
AcDbEntity
  8
0
  6
Continuous
 62
     7
370
    35
100
AcDbLine
 10
625.36419018161
 20
-73.2815214253099
 30
0.0
 11
636.6141901816097
 21
-73.2815214253099
 31
0.0
  0
LINE
  5
BD6
330
1F
100
AcDbEntity
  8
0
  6
Continuous
 62
     7
370
    35
100
AcDbLine
 10
625.3641901816102
 20
-71.81097684737967
 30
0.0
 11
636.6141901816097
 21
-71.78152142530969
 31
0.0
  0
POLYLINE
  5
BD7
330
1F
100
AcDbEntity
  8
0
  6
Continuous
 62
     7
370
    35
100
AcDb2dPolyline
 66
     1
 10
0.0
 20
0.0
 30
0.0
  0
VERTEX
  5
BD8
330
BD7
100
AcDbEntity
  8
0
  6
Continuous
 62
     7
370
    35
100
AcDbVertex
100
AcDb2dVertex
 10
636.6141901816097
 20
-71.78152333265825
 30
0.0
  0
VERTEX
  5
BD9
330
BD7
100
AcDbEntity
  8
0
  6
Continuous
 62
     7
370
    35
100
AcDbVertex
100
AcDb2dVertex
 10
636.6141901816097
 20
-71.84401761061234
 30
0.0
  0
VERTEX
  5
BDA
330
BD7
100
AcDbEntity
  8
0
  6
Continuous
 62
     7
370
    35
100
AcDbVertex
100
AcDb2dVertex
 10
636.6141901816097
 20
-71.90652142530963
 30
0.0
  0
VERTEX
  5
BDB
330
BD7
100
AcDbEntity
  8
0
  6
Continuous
 62
     7
370
    35
100
AcDbVertex
100
AcDb2dVertex
 10
636.6141901816097
 20
-71.96902524000687
 30
0.0
  0
VERTEX
  5
BDC
330
BD7
100
AcDbEntity
  8
0
  6
Continuous
 62
     7
370
    35
100
AcDbVertex
100
AcDb2dVertex
 10
636.6141901816097
 20
-72.03151951796098
 30
0.0
  0
VERTEX
  5
BDD
330
BD7
100
AcDbEntity
  8
0
  6
Continuous
 62
     7
370
    35
100
AcDbVertex
100
AcDb2dVertex
 10
636.6141901816097
 20
-72.09402333265825
 30
0.0
  0
VERTEX
  5
BDE
330
BD7
100
AcDbEntity
  8
0
  6
Continuous
 62
     7
370
    35
100
AcDbVertex
100
AcDb2dVertex
 10
636.6141901816097
 20
-72.15651761061234
 30
0.0
  0
VERTEX
  5
BDF
330
BD7
100
AcDbEntity
  8
0
  6
Continuous
 62
     7
370
    35
100
AcDbVertex
100
AcDb2dVertex
 10
636.6141901816097
 20
-72.21902142530963
 30
0.0
  0
VERTEX
  5
BE0
330
BD7
100
AcDbEntity
  8
0
  6
Continuous
 62
     7
370
    35
100
AcDbVertex
100
AcDb2dVertex
 10
636.6141901816097
 20
-72.28152524000687
 30
0.0
  0
VERTEX
  5
BE1
330
BD7
100
AcDbEntity
  8
0
  6
Continuous
 62
     7
370
    35
100
AcDbVertex
100
AcDb2dVertex
 10
636.6141901816097
 20
-72.34401951796098
 30
0.0
  0
VERTEX
  5
BE2
330
BD7
100
AcDbEntity
  8
0
  6
Continuous
 62
     7
370
    35
100
AcDbVertex
100
AcDb2dVertex
 10
636.6141901816097
 20
-72.40652333265825
 30
0.0
  0
VERTEX
  5
BE3
330
BD7
100
AcDbEntity
  8
0
  6
Continuous
 62
     7
370
    35
100
AcDbVertex
100
AcDb2dVertex
 10
636.6141901816097
 20
-72.46901761061234
 30
0.0
  0
VERTEX
  5
BE4
330
BD7
100
AcDbEntity
  8
0
  6
Continuous
 62
     7
370
    35
100
AcDbVertex
100
AcDb2dVertex
 10
636.6141901816097
 20
-72.53152142530963
 30
0.0
  0
VERTEX
  5
BE5
330
BD7
100
AcDbEntity
  8
0
  6
Continuous
 62
     7
370
    35
100
AcDbVertex
100
AcDb2dVertex
 10
636.6141901816097
 20
-72.59402524000687
 30
0.0
  0
VERTEX
  5
BE6
330
BD7
100
AcDbEntity
  8
0
  6
Continuous
 62
     7
370
    35
100
AcDbVertex
100
AcDb2dVertex
 10
636.6141901816097
 20
-72.65651951796098
 30
0.0
  0
VERTEX
  5
BE7
330
BD7
100
AcDbEntity
  8
0
  6
Continuous
 62
     7
370
    35
100
AcDbVertex
100
AcDb2dVertex
 10
636.6141901816097
 20
-72.71902333265825
 30
0.0
  0
VERTEX
  5
BE8
330
BD7
100
AcDbEntity
  8
0
  6
Continuous
 62
     7
370
    35
100
AcDbVertex
100
AcDb2dVertex
 10
636.6141901816097
 20
-72.78151761061234
 30
0.0
  0
VERTEX
  5
BE9
330
BD7
100
AcDbEntity
  8
0
  6
Continuous
 62
     7
370
    35
100
AcDbVertex
100
AcDb2dVertex
 10
636.6141901816097
 20
-72.84402142530963
 30
0.0
  0
VERTEX
  5
BEA
330
BD7
100
AcDbEntity
  8
0
  6
Continuous
 62
     7
370
    35
100
AcDbVertex
100
AcDb2dVertex
 10
636.6141901816097
 20
-72.90652524000687
 30
0.0
  0
VERTEX
  5
BEB
330
BD7
100
AcDbEntity
  8
0
  6
Continuous
 62
     7
370
    35
100
AcDbVertex
100
AcDb2dVertex
 10
636.6141901816097
 20
-72.96901951796098
 30
0.0
  0
VERTEX
  5
BEC
330
BD7
100
AcDbEntity
  8
0
  6
Continuous
 62
     7
370
    35
100
AcDbVertex
100
AcDb2dVertex
 10
636.6141901816097
 20
-73.03152333265825
 30
0.0
  0
VERTEX
  5
BED
330
BD7
100
AcDbEntity
  8
0
  6
Continuous
 62
     7
370
    35
100
AcDbVertex
100
AcDb2dVertex
 10
636.6141901816097
 20
-73.09401761061234
 30
0.0
  0
VERTEX
  5
BEE
330
BD7
100
AcDbEntity
  8
0
  6
Continuous
 62
     7
370
    35
100
AcDbVertex
100
AcDb2dVertex
 10
636.6141901816097
 20
-73.15652142530963
 30
0.0
  0
VERTEX
  5
BEF
330
BD7
100
AcDbEntity
  8
0
  6
Continuous
 62
     7
370
    35
100
AcDbVertex
100
AcDb2dVertex
 10
636.6141901816097
 20
-73.21902524000687
 30
0.0
  0
VERTEX
  5
BF0
330
BD7
100
AcDbEntity
  8
0
  6
Continuous
 62
     7
370
    35
100
AcDbVertex
100
AcDb2dVertex
 10
636.6141901816097
 20
-73.28151951796098
 30
0.0
  0
SEQEND
  5
BF1
330
BD7
100
AcDbEntity
  8
0
  6
Continuous
 62
     7
370
    35
  0
LINE
  5
BF2
330
1F
100
AcDbEntity
  8
0
  6
Continuous
 62
     7
370
    35
100
AcDbLine
 10
636.6141901816097
 20
-73.28152142530966
 30
0.0
 11
636.6141901816097
 21
-71.78152142530969
 31
0.0
  0
LINE
  5
BF3
330
1F
100
AcDbEntity
  8
0
  6
Continuous
 62
     7
370
    35
100
AcDbLine
 10
625.36419018161
 20
-71.81097684737591
 30
0.0
 11
625.36419018161
 21
-73.2815214253099
 31
0.0
  0
LINE
  5
BF4
330
1F
100
AcDbEntity
  8
0
  6
Continuous
 62
     7
370
    35
100
AcDbLine
 10
534.9788996471786
 20
-123.7919811533432
 30
0.0
 11
534.9788996471786
 21
-105.2919811533433
 31
0.0
  0
LINE
  5
BF5
330
1F
100
AcDbEntity
  8
0
  6
Continuous
 62
     7
370
    35
100
AcDbLine
 10
524.0242751736789
 20
-111.1419811533433
 30
0.0
 11
524.0242751736789
 21
-106.9919811533432
 31
0.0
  0
LINE
  5
BF6
330
1F
100
AcDbEntity
  8
0
  6
Continuous
 62
     7
370
    35
100
AcDbLine
 10
515.8242751736788
 20
-105.0919811533433
 30
0.0
 11
515.8242751736788
 21
-123.9919811533432
 31
0.0
  0
CIRCLE
  5
BF7
330
1F
100
AcDbEntity
  8
0
  6
Continuous
 62
     7
370
    35
100
AcDbCircle
 10
521.0242751736789
 20
-108.7919811533432
 30
0.0
 40
2.54999999999999
  0
LINE
  5
BF8
330
1F
100
AcDbEntity
  8
0
  6
Continuous
 62
     7
370
    35
100
AcDbLine
 10
532.3575793036186
 20
-122.0919811533432
 30
0.0
 11
532.3575793036186
 21
-106.9919811533432
 31
0.0
  0
LINE
  5
BF9
330
1F
100
AcDbEntity
  8
0
  6
Continuous
 62
     7
370
    35
100
AcDbLine
 10
524.1575793036187
 20
-105.0919811533433
 30
0.0
 11
524.1575793036187
 21
-123.9919811533432
 31
0.0
  0
LINE
  5
BFB
330
1F
100
AcDbEntity
  8
0
  6
Continuous
 62
     7
370
    35
100
AcDbLine
 10
532.6575793036168
 20
-103.2919811533433
 30
0.0
 11
532.6575793036168
 21
-125.7919811533432
 31
0.0
  0
LINE
  5
BFC
330
1F
100
AcDbEntity
  8
0
  6
Continuous
 62
     7
370
    35
100
AcDbLine
 10
515.800710836033
 20
-106.3419811533433
 30
0.0
 11
515.7169265243778
 21
-111.1419811533434
 31
0.0
  0
LINE
  5
BFD
330
1F
100
AcDbEntity
  8
0
  6
Continuous
 62
     7
370
    35
100
AcDbLine
 10
524.1575793036187
 20
-112.1419811533433
 30
0.0
 11
522.1575793036187
 21
-112.1419811533433
 31
0.0
  0
LINE
  5
BFE
330
1F
100
AcDbEntity
  8
0
  6
Continuous
 62
     7
370
    35
100
AcDbLine
 10
522.1575793036187
 20
-111.1419811533433
 30
0.0
 11
524.1575793036187
 21
-111.1419811533433
 31
0.0
  0
LINE
  5
BFF
330
1F
100
AcDbEntity
  8
0
  6
Continuous
 62
     7
370
    35
100
AcDbLine
 10
524.1575793036187
 20
-117.9419811533432
 30
0.0
 11
522.1575793036187
 21
-117.9419811533432
 31
0.0
  0
LINE
  5
C00
330
1F
100
AcDbEntity
  8
0
  6
Continuous
 62
     7
370
    35
100
AcDbLine
 10
522.1575793036187
 20
-116.9419811533429
 30
0.0
 11
524.1575793036187
 21
-116.9419811533429
 31
0.0
  0
LINE
  5
C01
330
1F
100
AcDbEntity
  8
0
  6
Continuous
 62
     7
370
    35
100
AcDbLine
 10
524.1575793036187
 20
-123.7419811533432
 30
0.0
 11
522.1575793036187
 21
-123.7419811533432
 31
0.0
  0
LINE
  5
C02
330
1F
100
AcDbEntity
  8
0
  6
Continuous
 62
     7
370
    35
100
AcDbLine
 10
522.1575793036187
 20
-122.7419811533432
 30
0.0
 11
524.1575793036187
 21
-122.7419811533432
 31
0.0
  0
LINE
  5
C03
330
1F
100
AcDbEntity
  8
0
  6
Continuous
 62
     7
370
    35
100
AcDbLine
 10
516.9242751736788
 20
-124.2919811533433
 30
0.0
 11
524.1575793036187
 21
-124.2919811533433
 31
0.0
  0
LINE
  5
C04
330
1F
100
AcDbEntity
  8
0
  6
Continuous
 62
     7
370
    35
100
AcDbLine
 10
516.8279185147094
 20
-124.2919811533433
 30
0.0
 11
524.1575793036187
 21
-124.2919811533433
 31
0.0
  0
LINE
  5
C05
330
1F
100
AcDbEntity
  8
0
  6
Continuous
 62
     7
370
    35
100
AcDbLine
 10
524.1575793036187
 20
-125.7919811533433
 30
0.0
 11
515.8539487840587
 21
-125.7919811533433
 31
0.0
  0
LINE
  5
C06
330
1F
100
AcDbEntity
  8
0
  6
Continuous
 62
     7
370
    35
100
AcDbLine
 10
522.1575793036187
 20
-123.7419811533432
 30
0.0
 11
522.1575793036187
 21
-122.7419811533432
 31
0.0
  0
LINE
  5
C07
330
1F
100
AcDbEntity
  8
0
  6
Continuous
 62
     7
370
    35
100
AcDbLine
 10
513.8242751736789
 20
-123.7419811533432
 30
0.0
 11
513.8242751736789
 21
-122.7419811533432
 31
0.0
  0
LINE
  5
C08
330
1F
100
AcDbEntity
  8
0
  6
Continuous
 62
     7
370
    35
100
AcDbLine
 10
515.8242751736788
 20
-123.7419811533432
 30
0.0
 11
513.8242751736789
 21
-123.7419811533432
 31
0.0
  0
LINE
  5
C09
330
1F
100
AcDbEntity
  8
0
  6
Continuous
 62
     7
370
    35
100
AcDbLine
 10
516.9242751736788
 20
-123.9919811533432
 30
0.0
 11
516.9242751736788
 21
-124.2919811533433
 31
0.0
  0
LINE
  5
C0A
330
1F
100
AcDbEntity
  8
0
  6
Continuous
 62
     7
370
    35
100
AcDbLine
 10
515.8242751736788
 20
-123.9919811533432
 30
0.0
 11
516.9242751736788
 21
-123.9919811533432
 31
0.0
  0
LINE
  5
C0B
330
1F
100
AcDbEntity
  8
0
  6
Continuous
 62
     7
370
    35
100
AcDbLine
 10
516.9242751736788
 20
-124.0919811533429
 30
0.0
 11
516.8244275017285
 21
-124.0919811533429
 31
0.0
  0
LINE
  5
C0C
330
1F
100
AcDbEntity
  8
0
  6
Continuous
 62
     7
370
    35
100
AcDbLine
 10
515.8225296671892
 20
-123.9919811533432
 30
0.0
 11
516.8226819952386
 21
-123.9919811533432
 31
0.0
  0
POLYLINE
  5
C0D
330
1F
100
AcDbEntity
  8
0
  6
Continuous
 62
     7
370
    35
100
AcDb2dPolyline
 66
     1
 10
0.0
 20
0.0
 30
0.0
  0
VERTEX
  5
C0E
330
C0D
100
AcDbEntity
  8
0
  6
Continuous
 62
     7
370
    35
100
AcDbVertex
100
AcDb2dVertex
 10
516.8226808317863
 20
-123.9919810818177
 30
0.0
  0
VERTEX
  5
C0F
330
C0D
100
AcDbEntity
  8
0
  6
Continuous
 62
     7
370
    35
100
AcDbVertex
100
AcDb2dVertex
 10
516.8229001768793
 20
-124.0044813679199
 30
0.0
  0
VERTEX
  5
C10
330
C0D
100
AcDbEntity
  8
0
  6
Continuous
 62
     7
370
    35
100
AcDbVertex
100
AcDb2dVertex
 10
516.8231195219719
 20
-124.0169810579757
 30
0.0
  0
VERTEX
  5
C11
330
C0D
100
AcDbEntity
  8
0
  6
Continuous
 62
     7
370
    35
100
AcDbVertex
100
AcDb2dVertex
 10
516.8233364828791
 20
-124.0294813440781
 30
0.0
  0
VERTEX
  5
C12
330
C0D
100
AcDbEntity
  8
0
  6
Continuous
 62
     7
370
    35
100
AcDbVertex
100
AcDb2dVertex
 10
516.8235558279717
 20
-124.041981034134
 30
0.0
  0
VERTEX
  5
C13
330
C0D
100
AcDbEntity
  8
0
  6
Continuous
 62
     7
370
    35
100
AcDbVertex
100
AcDb2dVertex
 10
516.8237727888786
 20
-124.0544813202363
 30
0.0
  0
VERTEX
  5
C14
330
C0D
100
AcDbEntity
  8
0
  6
Continuous
 62
     7
370
    35
100
AcDbVertex
100
AcDb2dVertex
 10
516.8239921339716
 20
-124.066981010292
 30
0.0
  0
VERTEX
  5
C15
330
C0D
100
AcDbEntity
  8
0
  6
Continuous
 62
     7
370
    35
100
AcDbVertex
100
AcDb2dVertex
 10
516.8242090948786
 20
-124.0794812963944
 30
0.0
  0
VERTEX
  5
C16
330
C0D
100
AcDbEntity
  8
0
  6
Continuous
 62
     7
370
    35
100
AcDbVertex
100
AcDb2dVertex
 10
516.8244284399714
 20
-124.0919809864502
 30
0.0
  0
VERTEX
  5
C17
330
C0D
100
AcDbEntity
  8
0
  6
Continuous
 62
     7
370
    35
100
AcDbVertex
100
AcDb2dVertex
 10
516.8246454008782
 20
-124.1044812725526
 30
0.0
  0
VERTEX
  5
C18
330
C0D
100
AcDbEntity
  8
0
  6
Continuous
 62
     7
370
    35
100
AcDbVertex
100
AcDb2dVertex
 10
516.8248647459711
 20
-124.1169809626084
 30
0.0
  0
VERTEX
  5
C19
330
C0D
100
AcDbEntity
  8
0
  6
Continuous
 62
     7
370
    35
100
AcDbVertex
100
AcDb2dVertex
 10
516.8250817068781
 20
-124.1294812487107
 30
0.0
  0
VERTEX
  5
C1A
330
C0D
100
AcDbEntity
  8
0
  6
Continuous
 62
     7
370
    35
100
AcDbVertex
100
AcDb2dVertex
 10
516.8253010519705
 20
-124.1419809387666
 30
0.0
  0
VERTEX
  5
C1B
330
C0D
100
AcDbEntity
  8
0
  6
Continuous
 62
     7
370
    35
100
AcDbVertex
100
AcDb2dVertex
 10
516.8255180128776
 20
-124.1544812248686
 30
0.0
  0
VERTEX
  5
C1C
330
C0D
100
AcDbEntity
  8
0
  6
Continuous
 62
     7
370
    35
100
AcDbVertex
100
AcDb2dVertex
 10
516.8257373579706
 20
-124.1669809149246
 30
0.0
  0
VERTEX
  5
C1D
330
C0D
100
AcDbEntity
  8
0
  6
Continuous
 62
     7
370
    35
100
AcDbVertex
100
AcDb2dVertex
 10
516.8259543188776
 20
-124.1794812010269
 30
0.0
  0
VERTEX
  5
C1E
330
C0D
100
AcDbEntity
  8
0
  6
Continuous
 62
     7
370
    35
100
AcDbVertex
100
AcDb2dVertex
 10
516.8261736639703
 20
-124.1919808910828
 30
0.0
  0
VERTEX
  5
C1F
330
C0D
100
AcDbEntity
  8
0
  6
Continuous
 62
     7
370
    35
100
AcDbVertex
100
AcDb2dVertex
 10
516.8263906248774
 20
-124.204481177185
 30
0.0
  0
VERTEX
  5
C20
330
C0D
100
AcDbEntity
  8
0
  6
Continuous
 62
     7
370
    35
100
AcDbVertex
100
AcDb2dVertex
 10
516.82660996997
 20
-124.216980867241
 30
0.0
  0
VERTEX
  5
C21
330
C0D
100
AcDbEntity
  8
0
  6
Continuous
 62
     7
370
    35
100
AcDbVertex
100
AcDb2dVertex
 10
516.8268269308771
 20
-124.2294811533433
 30
0.0
  0
VERTEX
  5
C22
330
C0D
100
AcDbEntity
  8
0
  6
Continuous
 62
     7
370
    35
100
AcDbVertex
100
AcDb2dVertex
 10
516.8270462759696
 20
-124.2419814394456
 30
0.0
  0
VERTEX
  5
C23
330
C0D
100
AcDbEntity
  8
0
  6
Continuous
 62
     7
370
    35
100
AcDbVertex
100
AcDb2dVertex
 10
516.8272632368767
 20
-124.2544811295013
 30
0.0
  0
VERTEX
  5
C24
330
C0D
100
AcDbEntity
  8
0
  6
Continuous
 62
     7
370
    35
100
AcDbVertex
100
AcDb2dVertex
 10
516.8274825819695
 20
-124.2669814156037
 30
0.0
  0
VERTEX
  5
C25
330
C0D
100
AcDbEntity
  8
0
  6
Continuous
 62
     7
370
    35
100
AcDbVertex
100
AcDb2dVertex
 10
516.8276995428765
 20
-124.2794811056596
 30
0.0
  0
VERTEX
  5
C26
330
C0D
100
AcDbEntity
  8
0
  6
Continuous
 62
     7
370
    35
100
AcDbVertex
100
AcDb2dVertex
 10
516.8279188879693
 20
-124.2919813917619
 30
0.0
  0
SEQEND
  5
C27
330
C0D
100
AcDbEntity
  8
0
  6
Continuous
 62
     7
370
    35
  0
POLYLINE
  5
C28
102
{ACAD_REACTORS
330
13A1
102
}
330
1F
100
AcDbEntity
  8
0
  6
Continuous
 62
     7
370
    35
100
AcDb2dPolyline
 66
     1
 10
0.0
 20
0.0
 30
0.0
  0
VERTEX
  5
C29
102
{ACAD_REACTORS
330
13A1
102
}
330
C28
100
AcDbEntity
  8
0
  6
Continuous
 62
     7
370
    35
100
AcDbVertex
100
AcDb2dVertex
 10
515.8539479979241
 20
-125.7919811533433
 30
0.0
  0
VERTEX
  5
C2A
330
C28
100
AcDbEntity
  8
0
  6
Continuous
 62
     7
370
    35
100
AcDbVertex
100
AcDb2dVertex
 10
515.852639079925
 20
-125.7169806288222
 30
0.0
  0
VERTEX
  5
C2B
330
C28
100
AcDbEntity
  8
0
  6
Continuous
 62
     7
370
    35
100
AcDbVertex
100
AcDb2dVertex
 10
515.8513301619255
 20
-125.6419812963944
 30
0.0
  0
VERTEX
  5
C2C
330
C28
100
AcDbEntity
  8
0
  6
Continuous
 62
     7
370
    35
100
AcDbVertex
100
AcDb2dVertex
 10
515.8500212439263
 20
-125.5669807718734
 30
0.0
  0
VERTEX
  5
C2D
330
C28
100
AcDbEntity
  8
0
  6
Continuous
 62
     7
370
    35
100
AcDbVertex
100
AcDb2dVertex
 10
515.8487123259272
 20
-125.4919814394453
 30
0.0
  0
VERTEX
  5
C2E
330
C28
100
AcDbEntity
  8
0
  6
Continuous
 62
     7
370
    35
100
AcDbVertex
100
AcDb2dVertex
 10
515.8474034079278
 20
-125.4169809149247
 30
0.0
  0
VERTEX
  5
C2F
330
C28
100
AcDbEntity
  8
0
  6
Continuous
 62
     7
370
    35
100
AcDbVertex
100
AcDb2dVertex
 10
515.8460944899285
 20
-125.3419815824964
 30
0.0
  0
VERTEX
  5
C30
330
C28
100
AcDbEntity
  8
0
  6
Continuous
 62
     7
370
    35
100
AcDbVertex
100
AcDb2dVertex
 10
515.8447855719294
 20
-125.2669810579757
 30
0.0
  0
VERTEX
  5
C31
330
C28
100
AcDbEntity
  8
0
  6
Continuous
 62
     7
370
    35
100
AcDbVertex
100
AcDb2dVertex
 10
515.8434766539301
 20
-125.1919817255479
 30
0.0
  0
VERTEX
  5
C32
330
C28
100
AcDbEntity
  8
0
  6
Continuous
 62
     7
370
    35
100
AcDbVertex
100
AcDb2dVertex
 10
515.8421677359307
 20
-125.1169812010269
 30
0.0
  0
VERTEX
  5
C33
330
C28
100
AcDbEntity
  8
0
  6
Continuous
 62
     7
370
    35
100
AcDbVertex
100
AcDb2dVertex
 10
515.8408564337458
 20
-125.041980676506
 30
0.0
  0
VERTEX
  5
C34
330
C28
100
AcDbEntity
  8
0
  6
Continuous
 62
     7
370
    35
100
AcDbVertex
100
AcDb2dVertex
 10
515.8395475157464
 20
-124.9669813440781
 30
0.0
  0
VERTEX
  5
C35
330
C28
100
AcDbEntity
  8
0
  6
Continuous
 62
     7
370
    35
100
AcDbVertex
100
AcDb2dVertex
 10
515.8382385977471
 20
-124.8919808195573
 30
0.0
  0
VERTEX
  5
C36
330
C28
100
AcDbEntity
  8
0
  6
Continuous
 62
     7
370
    35
100
AcDbVertex
100
AcDb2dVertex
 10
515.836929679748
 20
-124.8169814871292
 30
0.0
  0
VERTEX
  5
C37
330
C28
100
AcDbEntity
  8
0
  6
Continuous
 62
     7
370
    35
100
AcDbVertex
100
AcDb2dVertex
 10
515.8356207617486
 20
-124.7419809626084
 30
0.0
  0
VERTEX
  5
C38
330
C28
100
AcDbEntity
  8
0
  6
Continuous
 62
     7
370
    35
100
AcDbVertex
100
AcDb2dVertex
 10
515.8343118437493
 20
-124.6669816301803
 30
0.0
  0
VERTEX
  5
C39
330
C28
100
AcDbEntity
  8
0
  6
Continuous
 62
     7
370
    35
100
AcDbVertex
100
AcDb2dVertex
 10
515.8330029257498
 20
-124.5919811056596
 30
0.0
  0
VERTEX
  5
C3A
330
C28
100
AcDbEntity
  8
0
  6
Continuous
 62
     7
370
    35
100
AcDbVertex
100
AcDb2dVertex
 10
515.8316940077508
 20
-124.5169811771851
 30
0.0
  0
VERTEX
  5
C3B
330
C28
100
AcDbEntity
  8
0
  6
Continuous
 62
     7
370
    35
100
AcDbVertex
100
AcDb2dVertex
 10
515.8303850897515
 20
-124.4419812487107
 30
0.0
  0
VERTEX
  5
C3C
330
C28
100
AcDbEntity
  8
0
  6
Continuous
 62
     7
370
    35
100
AcDbVertex
100
AcDb2dVertex
 10
515.829076171752
 20
-124.3669813202363
 30
0.0
  0
VERTEX
  5
C3D
330
C28
100
AcDbEntity
  8
0
  6
Continuous
 62
     7
370
    35
100
AcDbVertex
100
AcDb2dVertex
 10
515.8277672537531
 20
-124.2919813917619
 30
0.0
  0
VERTEX
  5
C3E
330
C28
100
AcDbEntity
  8
0
  6
Continuous
 62
     7
370
    35
100
AcDbVertex
100
AcDb2dVertex
 10
515.8264559515678
 20
-124.216980867241
 30
0.0
  0
VERTEX
  5
C3F
330
C28
100
AcDbEntity
  8
0
  6
Continuous
 62
     7
370
    35
100
AcDbVertex
100
AcDb2dVertex
 10
515.8251470335686
 20
-124.1419809387666
 30
0.0
  0
VERTEX
  5
C40
330
C28
100
AcDbEntity
  8
0
  6
Continuous
 62
     7
370
    35
100
AcDbVertex
100
AcDb2dVertex
 10
515.8238381155695
 20
-124.066981010292
 30
0.0
  0
VERTEX
  5
C41
330
C28
100
AcDbEntity
  8
0
  6
Continuous
 62
     7
370
    35
100
AcDbVertex
100
AcDb2dVertex
 10
515.8225291975703
 20
-123.9919810818177
 30
0.0
  0
SEQEND
  5
C42
330
C28
100
AcDbEntity
  8
0
  6
Continuous
 62
     7
370
    35
  0
POLYLINE
  5
C43
330
1F
100
AcDbEntity
  8
0
  6
Continuous
 62
     7
370
    35
100
AcDb2dPolyline
 66
     1
 10
0.0
 20
0.0
 30
0.0
  0
VERTEX
  5
C44
330
C43
100
AcDbEntity
  8
0
  6
Continuous
 62
     7
370
    35
100
AcDbVertex
100
AcDb2dVertex
 10
515.8225291975703
 20
-123.9919810818177
 30
0.0
  0
VERTEX
  5
C45
330
C43
100
AcDbEntity
  8
0
  6
Continuous
 62
     7
370
    35
100
AcDbVertex
100
AcDb2dVertex
 10
515.8223479994501
 20
-123.9815645740967
 30
0.0
  0
VERTEX
  5
C46
330
C43
100
AcDbEntity
  8
0
  6
Continuous
 62
     7
370
    35
100
AcDbVertex
100
AcDb2dVertex
 10
515.8221668013299
 20
-123.9711480663757
 30
0.0
  0
VERTEX
  5
C47
330
C43
100
AcDbEntity
  8
0
  6
Continuous
 62
     7
370
    35
100
AcDbVertex
100
AcDb2dVertex
 10
515.8219832190241
 20
-123.9607309626084
 30
0.0
  0
VERTEX
  5
C48
330
C43
100
AcDbEntity
  8
0
  6
Continuous
 62
     7
370
    35
100
AcDbVertex
100
AcDb2dVertex
 10
515.821802020904
 20
-123.9503144548875
 30
0.0
  0
VERTEX
  5
C49
330
C43
100
AcDbEntity
  8
0
  6
Continuous
 62
     7
370
    35
100
AcDbVertex
100
AcDb2dVertex
 10
515.8216208227836
 20
-123.9398979471665
 30
0.0
  0
VERTEX
  5
C4A
330
C43
100
AcDbEntity
  8
0
  6
Continuous
 62
     7
370
    35
100
AcDbVertex
100
AcDb2dVertex
 10
515.8214396246636
 20
-123.9294814394453
 30
0.0
  0
VERTEX
  5
C4B
330
C43
100
AcDbEntity
  8
0
  6
Continuous
 62
     7
370
    35
100
AcDbVertex
100
AcDb2dVertex
 10
515.8212560423577
 20
-123.9190643356782
 30
0.0
  0
VERTEX
  5
C4C
330
C43
100
AcDbEntity
  8
0
  6
Continuous
 62
     7
370
    35
100
AcDbVertex
100
AcDb2dVertex
 10
515.8210748442376
 20
-123.9086478279572
 30
0.0
  0
VERTEX
  5
C4D
330
C43
100
AcDbEntity
  8
0
  6
Continuous
 62
     7
370
    35
100
AcDbVertex
100
AcDb2dVertex
 10
515.8208936461176
 20
-123.8982313202363
 30
0.0
  0
VERTEX
  5
C4E
330
C43
100
AcDbEntity
  8
0
  6
Continuous
 62
     7
370
    35
100
AcDbVertex
100
AcDb2dVertex
 10
515.8207124479971
 20
-123.8878142164689
 30
0.0
  0
VERTEX
  5
C4F
330
C43
100
AcDbEntity
  8
0
  6
Continuous
 62
     7
370
    35
100
AcDbVertex
100
AcDb2dVertex
 10
515.8205288656914
 20
-123.8773977087479
 30
0.0
  0
VERTEX
  5
C50
330
C43
100
AcDbEntity
  8
0
  6
Continuous
 62
     7
370
    35
100
AcDbVertex
100
AcDb2dVertex
 10
515.8203476675715
 20
-123.8669812010269
 30
0.0
  0
VERTEX
  5
C51
330
C43
100
AcDbEntity
  8
0
  6
Continuous
 62
     7
370
    35
100
AcDbVertex
100
AcDb2dVertex
 10
515.8201664694512
 20
-123.8565646933061
 30
0.0
  0
VERTEX
  5
C52
330
C43
100
AcDbEntity
  8
0
  6
Continuous
 62
     7
370
    35
100
AcDbVertex
100
AcDb2dVertex
 10
515.8199852713311
 20
-123.8461475895387
 30
0.0
  0
VERTEX
  5
C53
330
C43
100
AcDbEntity
  8
0
  6
Continuous
 62
     7
370
    35
100
AcDbVertex
100
AcDb2dVertex
 10
515.8198016890253
 20
-123.8357310818175
 30
0.0
  0
VERTEX
  5
C54
330
C43
100
AcDbEntity
  8
0
  6
Continuous
 62
     7
370
    35
100
AcDbVertex
100
AcDb2dVertex
 10
515.8196204909049
 20
-123.8253145740968
 30
0.0
  0
VERTEX
  5
C55
330
C43
100
AcDbEntity
  8
0
  6
Continuous
 62
     7
370
    35
100
AcDbVertex
100
AcDb2dVertex
 10
515.8194392927851
 20
-123.8148980663758
 30
0.0
  0
VERTEX
  5
C56
330
C43
100
AcDbEntity
  8
0
  6
Continuous
 62
     7
370
    35
100
AcDbVertex
100
AcDb2dVertex
 10
515.8192557104792
 20
-123.8044809626084
 30
0.0
  0
VERTEX
  5
C57
330
C43
100
AcDbEntity
  8
0
  6
Continuous
 62
     7
370
    35
100
AcDbVertex
100
AcDb2dVertex
 10
515.8190745123587
 20
-123.7940644548874
 30
0.0
  0
VERTEX
  5
C58
330
C43
100
AcDbEntity
  8
0
  6
Continuous
 62
     7
370
    35
100
AcDbVertex
100
AcDb2dVertex
 10
515.818893314239
 20
-123.7836479471664
 30
0.0
  0
VERTEX
  5
C59
330
C43
100
AcDbEntity
  8
0
  6
Continuous
 62
     7
370
    35
100
AcDbVertex
100
AcDb2dVertex
 10
515.8187121161187
 20
-123.7732314394456
 30
0.0
  0
VERTEX
  5
C5A
330
C43
100
AcDbEntity
  8
0
  6
Continuous
 62
     7
370
    35
100
AcDbVertex
100
AcDb2dVertex
 10
515.8185285338126
 20
-123.7628143356781
 30
0.0
  0
VERTEX
  5
C5B
330
C43
100
AcDbEntity
  8
0
  6
Continuous
 62
     7
370
    35
100
AcDbVertex
100
AcDb2dVertex
 10
515.8183473356928
 20
-123.7523978279572
 30
0.0
  0
VERTEX
  5
C5C
330
C43
100
AcDbEntity
  8
0
  6
Continuous
 62
     7
370
    35
100
AcDbVertex
100
AcDb2dVertex
 10
515.8181661375727
 20
-123.7419813202363
 30
0.0
  0
SEQEND
  5
C5D
330
C43
100
AcDbEntity
  8
0
  6
Continuous
 62
     7
370
    35
  0
LINE
  5
C5E
330
1F
100
AcDbEntity
  8
0
  6
Continuous
 62
     7
370
    35
100
AcDbLine
 10
515.8242751736788
 20
-112.1419811533434
 30
0.0
 11
513.8242751736789
 21
-112.1419811533434
 31
0.0
  0
LINE
  5
C5F
330
1F
100
AcDbEntity
  8
0
  6
Continuous
 62
     7
370
    35
100
AcDbLine
 10
513.8242751736789
 20
-111.1419811533434
 30
0.0
 11
515.8242751736788
 21
-111.1419811533434
 31
0.0
  0
LINE
  5
C60
330
1F
100
AcDbEntity
  8
0
  6
Continuous
 62
     7
370
    35
100
AcDbLine
 10
515.8242751736788
 20
-117.9419811533432
 30
0.0
 11
513.8242751736789
 21
-117.9419811533432
 31
0.0
  0
LINE
  5
C61
330
1F
100
AcDbEntity
  8
0
  6
Continuous
 62
     7
370
    35
100
AcDbLine
 10
513.8242751736789
 20
-116.9419811533429
 30
0.0
 11
515.8242751736788
 21
-116.9419811533429
 31
0.0
  0
LINE
  5
C62
330
1F
100
AcDbEntity
  8
0
  6
Continuous
 62
     7
370
    35
100
AcDbLine
 10
513.8242751736789
 20
-122.7419811533432
 30
0.0
 11
515.8242751736788
 21
-122.7419811533432
 31
0.0
  0
LINE
  5
C63
330
1F
100
AcDbEntity
  8
0
  6
Continuous
 62
     7
370
    35
100
AcDbLine
 10
513.8242751736789
 20
-112.1419811533434
 30
0.0
 11
513.8242751736789
 21
-111.1419811533434
 31
0.0
  0
LINE
  5
C64
330
1F
100
AcDbEntity
  8
0
  6
Continuous
 62
     7
370
    35
100
AcDbLine
 10
513.8242751736789
 20
-117.9419811533432
 30
0.0
 11
513.8242751736789
 21
-116.9419811533429
 31
0.0
  0
LINE
  5
C65
330
1F
100
AcDbEntity
  8
0
  6
Continuous
 62
     7
370
    35
100
AcDbLine
 10
522.1575793036187
 20
-112.1419811533433
 30
0.0
 11
522.1575793036187
 21
-111.1419811533433
 31
0.0
  0
LINE
  5
C66
330
1F
100
AcDbEntity
  8
0
  6
Continuous
 62
     7
370
    35
100
AcDbLine
 10
522.1575793036187
 20
-117.9419811533432
 30
0.0
 11
522.1575793036187
 21
-116.9419811533429
 31
0.0
  0
LINE
  5
C67
330
1F
100
AcDbEntity
  8
0
  6
Continuous
 62
     7
370
    35
100
AcDbLine
 10
515.6575793036177
 20
-114.5419811533433
 30
0.0
 11
515.8242751736788
 21
-114.5419811533433
 31
0.0
  0
POLYLINE
  5
C68
330
1F
100
AcDbEntity
  8
0
  6
Continuous
 62
     7
370
    35
100
AcDb2dPolyline
 66
     1
 10
0.0
 20
0.0
 30
0.0
  0
VERTEX
  5
C69
330
C68
100
AcDbEntity
  8
0
  6
Continuous
 62
     7
370
    35
100
AcDbVertex
100
AcDb2dVertex
 10
515.6994718321526
 20
-116.9419810996989
 30
0.0
  0
VERTEX
  5
C6A
330
C68
100
AcDbEntity
  8
0
  6
Continuous
 62
     7
370
    35
100
AcDbVertex
100
AcDb2dVertex
 10
515.6977266081536
 20
-116.8419811950665
 30
0.0
  0
VERTEX
  5
C6B
330
C68
100
AcDbEntity
  8
0
  6
Continuous
 62
     7
370
    35
100
AcDbVertex
100
AcDb2dVertex
 10
515.6959813841544
 20
-116.7419811414224
 30
0.0
  0
VERTEX
  5
C6C
330
C68
100
AcDbEntity
  8
0
  6
Continuous
 62
     7
370
    35
100
AcDbVertex
100
AcDb2dVertex
 10
515.6942337759698
 20
-116.6419810877782
 30
0.0
  0
VERTEX
  5
C6D
330
C68
100
AcDbEntity
  8
0
  6
Continuous
 62
     7
370
    35
100
AcDbVertex
100
AcDb2dVertex
 10
515.6924885519709
 20
-116.5419811831456
 30
0.0
  0
VERTEX
  5
C6E
330
C68
100
AcDbEntity
  8
0
  6
Continuous
 62
     7
370
    35
100
AcDbVertex
100
AcDb2dVertex
 10
515.6907433279719
 20
-116.4419811295013
 30
0.0
  0
VERTEX
  5
C6F
330
C68
100
AcDbEntity
  8
0
  6
Continuous
 62
     7
370
    35
100
AcDbVertex
100
AcDb2dVertex
 10
515.6889981039727
 20
-116.3419812248686
 30
0.0
  0
VERTEX
  5
C70
330
C68
100
AcDbEntity
  8
0
  6
Continuous
 62
     7
370
    35
100
AcDbVertex
100
AcDb2dVertex
 10
515.6872528799738
 20
-116.2419811712247
 30
0.0
  0
VERTEX
  5
C71
330
C68
100
AcDbEntity
  8
0
  6
Continuous
 62
     7
370
    35
100
AcDbVertex
100
AcDb2dVertex
 10
515.6855076559748
 20
-116.1419811175805
 30
0.0
  0
VERTEX
  5
C72
330
C68
100
AcDbEntity
  8
0
  6
Continuous
 62
     7
370
    35
100
AcDbVertex
100
AcDb2dVertex
 10
515.6837624319758
 20
-116.0419812129479
 30
0.0
  0
VERTEX
  5
C73
330
C68
100
AcDbEntity
  8
0
  6
Continuous
 62
     7
370
    35
100
AcDbVertex
100
AcDb2dVertex
 10
515.6820172079766
 20
-115.9419811593037
 30
0.0
  0
VERTEX
  5
C74
330
C68
100
AcDbEntity
  8
0
  6
Continuous
 62
     7
370
    35
100
AcDbVertex
100
AcDb2dVertex
 10
515.6802719839776
 20
-115.8419811056595
 30
0.0
  0
VERTEX
  5
C75
330
C68
100
AcDbEntity
  8
0
  6
Continuous
 62
     7
370
    35
100
AcDbVertex
100
AcDb2dVertex
 10
515.6785243757926
 20
-115.7419811265212
 30
0.0
  0
VERTEX
  5
C76
330
C68
100
AcDbEntity
  8
0
  6
Continuous
 62
     7
370
    35
100
AcDbVertex
100
AcDb2dVertex
 10
515.6767791517935
 20
-115.6419811473826
 30
0.0
  0
VERTEX
  5
C77
330
C68
100
AcDbEntity
  8
0
  6
Continuous
 62
     7
370
    35
100
AcDbVertex
100
AcDb2dVertex
 10
515.6750339277947
 20
-115.5419811682445
 30
0.0
  0
VERTEX
  5
C78
330
C68
100
AcDbEntity
  8
0
  6
Continuous
 62
     7
370
    35
100
AcDbVertex
100
AcDb2dVertex
 10
515.6732887037957
 20
-115.4419811891061
 30
0.0
  0
VERTEX
  5
C79
330
C68
100
AcDbEntity
  8
0
  6
Continuous
 62
     7
370
    35
100
AcDbVertex
100
AcDb2dVertex
 10
515.6715434797968
 20
-115.3419811354619
 30
0.0
  0
VERTEX
  5
C7A
330
C68
100
AcDbEntity
  8
0
  6
Continuous
 62
     7
370
    35
100
AcDbVertex
100
AcDb2dVertex
 10
515.6697982557978
 20
-115.2419811563235
 30
0.0
  0
VERTEX
  5
C7B
330
C68
100
AcDbEntity
  8
0
  6
Continuous
 62
     7
370
    35
100
AcDbVertex
100
AcDb2dVertex
 10
515.6680530317986
 20
-115.1419811399321
 30
0.0
  0
VERTEX
  5
C7C
330
C68
100
AcDbEntity
  8
0
  6
Continuous
 62
     7
370
    35
100
AcDbVertex
100
AcDb2dVertex
 10
515.6663078077996
 20
-115.0419811607939
 30
0.0
  0
VERTEX
  5
C7D
330
C68
100
AcDbEntity
  8
0
  6
Continuous
 62
     7
370
    35
100
AcDbVertex
100
AcDb2dVertex
 10
515.6645601996148
 20
-114.9419811444026
 30
0.0
  0
VERTEX
  5
C7E
330
C68
100
AcDbEntity
  8
0
  6
Continuous
 62
     7
370
    35
100
AcDbVertex
100
AcDb2dVertex
 10
515.6628149756158
 20
-114.8419811466378
 30
0.0
  0
VERTEX
  5
C7F
330
C68
100
AcDbEntity
  8
0
  6
Continuous
 62
     7
370
    35
100
AcDbVertex
100
AcDb2dVertex
 10
515.6610697516168
 20
-114.7419811488729
 30
0.0
  0
VERTEX
  5
C80
330
C68
100
AcDbEntity
  8
0
  6
Continuous
 62
     7
370
    35
100
AcDbVertex
100
AcDb2dVertex
 10
515.6593245276177
 20
-114.6419811511081
 30
0.0
  0
VERTEX
  5
C81
330
C68
100
AcDbEntity
  8
0
  6
Continuous
 62
     7
370
    35
100
AcDbVertex
100
AcDb2dVertex
 10
515.6575793036187
 20
-114.5419811533433
 30
0.0
  0
SEQEND
  5
C82
330
C68
100
AcDbEntity
  8
0
  6
Continuous
 62
     7
370
    35
  0
POLYLINE
  5
C83
330
1F
100
AcDbEntity
  8
0
  6
Continuous
 62
     7
370
    35
100
AcDb2dPolyline
 66
     1
 10
0.0
 20
0.0
 30
0.0
  0
VERTEX
  5
C84
330
C83
100
AcDbEntity
  8
0
  6
Continuous
 62
     7
370
    35
100
AcDbVertex
100
AcDb2dVertex
 10
515.8007115133965
 20
-122.7419810818177
 30
0.0
  0
VERTEX
  5
C85
330
C83
100
AcDbEntity
  8
0
  6
Continuous
 62
     7
370
    35
100
AcDbVertex
100
AcDb2dVertex
 10
515.7972186812128
 20
-122.5419812725526
 30
0.0
  0
VERTEX
  5
C86
330
C83
100
AcDbEntity
  8
0
  6
Continuous
 62
     7
370
    35
100
AcDbVertex
100
AcDb2dVertex
 10
515.7937282332148
 20
-122.341980867241
 30
0.0
  0
VERTEX
  5
C87
330
C83
100
AcDbEntity
  8
0
  6
Continuous
 62
     7
370
    35
100
AcDbVertex
100
AcDb2dVertex
 10
515.7902377852166
 20
-122.1419810579757
 30
0.0
  0
VERTEX
  5
C88
330
C83
100
AcDbEntity
  8
0
  6
Continuous
 62
     7
370
    35
100
AcDbVertex
100
AcDb2dVertex
 10
515.7867473372187
 20
-121.9419812487105
 30
0.0
  0
VERTEX
  5
C89
330
C83
100
AcDbEntity
  8
0
  6
Continuous
 62
     7
370
    35
100
AcDbVertex
100
AcDb2dVertex
 10
515.7832568892206
 20
-121.7419814394455
 30
0.0
  0
VERTEX
  5
C8A
330
C83
100
AcDbEntity
  8
0
  6
Continuous
 62
     7
370
    35
100
AcDbVertex
100
AcDb2dVertex
 10
515.7797640570366
 20
-121.541981034134
 30
0.0
  0
VERTEX
  5
C8B
330
C83
100
AcDbEntity
  8
0
  6
Continuous
 62
     7
370
    35
100
AcDbVertex
100
AcDb2dVertex
 10
515.7762736090386
 20
-121.3419812248689
 30
0.0
  0
VERTEX
  5
C8C
330
C83
100
AcDbEntity
  8
0
  6
Continuous
 62
     7
370
    35
100
AcDbVertex
100
AcDb2dVertex
 10
515.7727831610404
 20
-121.1419814156037
 30
0.0
  0
VERTEX
  5
C8D
330
C83
100
AcDbEntity
  8
0
  6
Continuous
 62
     7
370
    35
100
AcDbVertex
100
AcDb2dVertex
 10
515.7692927130425
 20
-120.941981010292
 30
0.0
  0
VERTEX
  5
C8E
330
C83
100
AcDbEntity
  8
0
  6
Continuous
 62
     7
370
    35
100
AcDbVertex
100
AcDb2dVertex
 10
515.7657998808588
 20
-120.7419812010269
 30
0.0
  0
VERTEX
  5
C8F
330
C83
100
AcDbEntity
  8
0
  6
Continuous
 62
     7
370
    35
100
AcDbVertex
100
AcDb2dVertex
 10
515.7623094328608
 20
-120.5419813917619
 30
0.0
  0
VERTEX
  5
C90
330
C83
100
AcDbEntity
  8
0
  6
Continuous
 62
     7
370
    35
100
AcDbVertex
100
AcDb2dVertex
 10
515.7588189848626
 20
-120.3419809864503
 30
0.0
  0
VERTEX
  5
C91
330
C83
100
AcDbEntity
  8
0
  6
Continuous
 62
     7
370
    35
100
AcDbVertex
100
AcDb2dVertex
 10
515.7553285368646
 20
-120.1419811771851
 30
0.0
  0
VERTEX
  5
C92
330
C83
100
AcDbEntity
  8
0
  6
Continuous
 62
     7
370
    35
100
AcDbVertex
100
AcDb2dVertex
 10
515.7518357046807
 20
-119.94198136792
 30
0.0
  0
VERTEX
  5
C93
330
C83
100
AcDbEntity
  8
0
  6
Continuous
 62
     7
370
    35
100
AcDbVertex
100
AcDb2dVertex
 10
515.7483452566828
 20
-119.7419809626084
 30
0.0
  0
VERTEX
  5
C94
330
C83
100
AcDbEntity
  8
0
  6
Continuous
 62
     7
370
    35
100
AcDbVertex
100
AcDb2dVertex
 10
515.7448548086846
 20
-119.5419811533433
 30
0.0
  0
VERTEX
  5
C95
330
C83
100
AcDbEntity
  8
0
  6
Continuous
 62
     7
370
    35
100
AcDbVertex
100
AcDb2dVertex
 10
515.7413643606867
 20
-119.3419810460548
 30
0.0
  0
VERTEX
  5
C96
330
C83
100
AcDbEntity
  8
0
  6
Continuous
 62
     7
370
    35
100
AcDbVertex
100
AcDb2dVertex
 10
515.7378715285029
 20
-119.1419812367898
 30
0.0
  0
VERTEX
  5
C97
330
C83
100
AcDbEntity
  8
0
  6
Continuous
 62
     7
370
    35
100
AcDbVertex
100
AcDb2dVertex
 10
515.7343810805048
 20
-118.9419811295014
 30
0.0
  0
VERTEX
  5
C98
330
C83
100
AcDbEntity
  8
0
  6
Continuous
 62
     7
370
    35
100
AcDbVertex
100
AcDb2dVertex
 10
515.7308906325066
 20
-118.741981022213
 30
0.0
  0
VERTEX
  5
C99
330
C83
100
AcDbEntity
  8
0
  6
Continuous
 62
     7
370
    35
100
AcDbVertex
100
AcDb2dVertex
 10
515.7274001845085
 20
-118.5419812129477
 30
0.0
  0
VERTEX
  5
C9A
330
C83
100
AcDbEntity
  8
0
  6
Continuous
 62
     7
370
    35
100
AcDbVertex
100
AcDb2dVertex
 10
515.7239097365103
 20
-118.3419811056596
 30
0.0
  0
VERTEX
  5
C9B
330
C83
100
AcDbEntity
  8
0
  6
Continuous
 62
     7
370
    35
100
AcDbVertex
100
AcDb2dVertex
 10
515.7204169043267
 20
-118.1419812963944
 30
0.0
  0
VERTEX
  5
C9C
330
C83
100
AcDbEntity
  8
0
  6
Continuous
 62
     7
370
    35
100
AcDbVertex
100
AcDb2dVertex
 10
515.7169264563288
 20
-117.9419811891061
 30
0.0
  0
SEQEND
  5
C9D
330
C83
100
AcDbEntity
  8
0
  6
Continuous
 62
     7
370
    35
  0
LINE
  5
C9E
330
1F
100
AcDbEntity
  8
0
  6
Continuous
 62
     7
370
    35
100
AcDbLine
 10
515.6994714594493
 20
-112.1419811533434
 30
0.0
 11
515.6575793036219
 21
-114.5419811533435
 31
0.0
  0
LINE
  5
C9F
330
1F
100
AcDbEntity
  8
0
  6
Continuous
 62
     7
370
    35
100
AcDbLine
 10
515.6575793036198
 20
-114.5419811533433
 30
0.0
 11
515.8242751736788
 21
-114.5419811533433
 31
0.0
  0
CIRCLE
  5
CA0
330
1F
100
AcDbEntity
  8
0
  6
Continuous
 62
     7
370
    35
100
AcDbCircle
 10
521.0242751736789
 20
-120.3919811533433
 30
0.0
 40
2.54999999999999
  0
CIRCLE
  5
CA1
330
1F
100
AcDbEntity
  8
0
  6
Continuous
 62
     7
370
    35
100
AcDbCircle
 10
521.0242751736789
 20
-114.5919811533433
 30
0.0
 40
2.54999999999999
  0
LINE
  5
CA2
330
1F
100
AcDbEntity
  8
0
  6
Continuous
 62
     7
370
    35
100
AcDbLine
 10
525.2575793036187
 20
-124.2919811533433
 30
0.0
 11
532.6575793036187
 21
-124.2919811533433
 31
0.0
  0
LINE
  5
CA3
330
1F
100
AcDbEntity
  8
0
  6
Continuous
 62
     7
370
    35
100
AcDbLine
 10
525.1575793036187
 20
-124.2919811533433
 30
0.0
 11
532.6575793036187
 21
-124.2919811533433
 31
0.0
  0
LINE
  5
CA4
330
1F
100
AcDbEntity
  8
0
  6
Continuous
 62
     7
370
    35
100
AcDbLine
 10
532.6575793036187
 20
-125.7919811533433
 30
0.0
 11
524.4011083742085
 21
-125.7919811533433
 31
0.0
  0
LINE
  5
CA5
330
1F
100
AcDbEntity
  8
0
  6
Continuous
 62
     7
370
    35
100
AcDbLine
 10
525.2575793036187
 20
-123.9919811533432
 30
0.0
 11
525.2575793036187
 21
-124.2919811533433
 31
0.0
  0
LINE
  5
CA6
330
1F
100
AcDbEntity
  8
0
  6
Continuous
 62
     7
370
    35
100
AcDbLine
 10
524.1575793036187
 20
-123.9919811533432
 30
0.0
 11
525.2575793036187
 21
-123.9919811533432
 31
0.0
  0
LINE
  5
CA7
330
1F
100
AcDbEntity
  8
0
  6
Continuous
 62
     7
370
    35
100
AcDbLine
 10
524.4011083742168
 20
-125.7919811533433
 30
0.0
 11
524.4011083742168
 21
-123.9919811533432
 31
0.0
  0
LINE
  5
CA8
330
1F
100
AcDbEntity
  8
0
  6
Continuous
 62
     7
370
    35
100
AcDbLine
 10
524.1575793036187
 20
-123.9919811533432
 30
0.0
 11
524.1575793036187
 21
-125.7919811533433
 31
0.0
  0
LINE
  5
CA9
330
1F
100
AcDbEntity
  8
0
  6
Continuous
 62
     7
370
    35
100
AcDbLine
 10
525.1575793036187
 20
-123.9919811533432
 30
0.0
 11
525.1575793036187
 21
-124.2919811533433
 31
0.0
  0
LINE
  5
CAA
330
1F
100
AcDbEntity
  8
0
  6
Continuous
 62
     7
370
    35
100
AcDbLine
 10
524.4011083742085
 20
-123.9919811533432
 30
0.0
 11
525.1575793036187
 21
-123.9919811533432
 31
0.0
  0
POLYLINE
  5
CAB
330
1F
100
AcDbEntity
  8
0
  6
Continuous
 62
     7
370
    35
100
AcDb2dPolyline
 66
     1
 10
0.0
 20
0.0
 30
0.0
  0
VERTEX
  5
CAC
330
CAB
100
AcDbEntity
  8
0
  6
Continuous
 62
     7
370
    35
100
AcDbVertex
100
AcDb2dVertex
 10
524.401108623382
 20
-125.7919811533433
 30
0.0
  0
VERTEX
  5
CAD
330
CAB
100
AcDbEntity
  8
0
  6
Continuous
 62
     7
370
    35
100
AcDbVertex
100
AcDb2dVertex
 10
524.3909615286553
 20
-125.7919811533433
 30
0.0
  0
VERTEX
  5
CAE
330
CAB
100
AcDbEntity
  8
0
  6
Continuous
 62
     7
370
    35
100
AcDbVertex
100
AcDb2dVertex
 10
524.3808144339289
 20
-125.7919811533433
 30
0.0
  0
VERTEX
  5
CAF
330
CAB
100
AcDbEntity
  8
0
  6
Continuous
 62
     7
370
    35
100
AcDbVertex
100
AcDb2dVertex
 10
524.3706673392023
 20
-125.7919811533433
 30
0.0
  0
VERTEX
  5
CB0
330
CAB
100
AcDbEntity
  8
0
  6
Continuous
 62
     7
370
    35
100
AcDbVertex
100
AcDb2dVertex
 10
524.3605202444756
 20
-125.7919811533433
 30
0.0
  0
VERTEX
  5
CB1
330
CAB
100
AcDbEntity
  8
0
  6
Continuous
 62
     7
370
    35
100
AcDbVertex
100
AcDb2dVertex
 10
524.3503731497492
 20
-125.7919811533433
 30
0.0
  0
VERTEX
  5
CB2
330
CAB
100
AcDbEntity
  8
0
  6
Continuous
 62
     7
370
    35
100
AcDbVertex
100
AcDb2dVertex
 10
524.3402260550226
 20
-125.7919811533433
 30
0.0
  0
VERTEX
  5
CB3
330
CAB
100
AcDbEntity
  8
0
  6
Continuous
 62
     7
370
    35
100
AcDbVertex
100
AcDb2dVertex
 10
524.3300789602961
 20
-125.7919811533433
 30
0.0
  0
VERTEX
  5
CB4
330
CAB
100
AcDbEntity
  8
0
  6
Continuous
 62
     7
370
    35
100
AcDbVertex
100
AcDb2dVertex
 10
524.3199318655695
 20
-125.7919811533433
 30
0.0
  0
VERTEX
  5
CB5
330
CAB
100
AcDbEntity
  8
0
  6
Continuous
 62
     7
370
    35
100
AcDbVertex
100
AcDb2dVertex
 10
524.3097847708428
 20
-125.7919811533433
 30
0.0
  0
VERTEX
  5
CB6
330
CAB
100
AcDbEntity
  8
0
  6
Continuous
 62
     7
370
    35
100
AcDbVertex
100
AcDb2dVertex
 10
524.2996376761164
 20
-125.7919811533433
 30
0.0
  0
VERTEX
  5
CB7
330
CAB
100
AcDbEntity
  8
0
  6
Continuous
 62
     7
370
    35
100
AcDbVertex
100
AcDb2dVertex
 10
524.2894905813898
 20
-125.7919811533433
 30
0.0
  0
VERTEX
  5
CB8
330
CAB
100
AcDbEntity
  8
0
  6
Continuous
 62
     7
370
    35
100
AcDbVertex
100
AcDb2dVertex
 10
524.2793434866633
 20
-125.7919811533433
 30
0.0
  0
VERTEX
  5
CB9
330
CAB
100
AcDbEntity
  8
0
  6
Continuous
 62
     7
370
    35
100
AcDbVertex
100
AcDb2dVertex
 10
524.2691963919367
 20
-125.7919811533433
 30
0.0
  0
VERTEX
  5
CBA
330
CAB
100
AcDbEntity
  8
0
  6
Continuous
 62
     7
370
    35
100
AcDbVertex
100
AcDb2dVertex
 10
524.2590492972101
 20
-125.7919811533433
 30
0.0
  0
VERTEX
  5
CBB
330
CAB
100
AcDbEntity
  8
0
  6
Continuous
 62
     7
370
    35
100
AcDbVertex
100
AcDb2dVertex
 10
524.2489022024836
 20
-125.7919811533433
 30
0.0
  0
VERTEX
  5
CBC
330
CAB
100
AcDbEntity
  8
0
  6
Continuous
 62
     7
370
    35
100
AcDbVertex
100
AcDb2dVertex
 10
524.238755107757
 20
-125.7919811533433
 30
0.0
  0
VERTEX
  5
CBD
330
CAB
100
AcDbEntity
  8
0
  6
Continuous
 62
     7
370
    35
100
AcDbVertex
100
AcDb2dVertex
 10
524.2286080130305
 20
-125.7919811533433
 30
0.0
  0
VERTEX
  5
CBE
330
CAB
100
AcDbEntity
  8
0
  6
Continuous
 62
     7
370
    35
100
AcDbVertex
100
AcDb2dVertex
 10
524.2184609183039
 20
-125.7919811533433
 30
0.0
  0
VERTEX
  5
CBF
330
CAB
100
AcDbEntity
  8
0
  6
Continuous
 62
     7
370
    35
100
AcDbVertex
100
AcDb2dVertex
 10
524.2083138235773
 20
-125.7919811533433
 30
0.0
  0
VERTEX
  5
CC0
330
CAB
100
AcDbEntity
  8
0
  6
Continuous
 62
     7
370
    35
100
AcDbVertex
100
AcDb2dVertex
 10
524.1981667288508
 20
-125.7919811533433
 30
0.0
  0
VERTEX
  5
CC1
330
CAB
100
AcDbEntity
  8
0
  6
Continuous
 62
     7
370
    35
100
AcDbVertex
100
AcDb2dVertex
 10
524.1880196341242
 20
-125.7919811533433
 30
0.0
  0
VERTEX
  5
CC2
330
CAB
100
AcDbEntity
  8
0
  6
Continuous
 62
     7
370
    35
100
AcDbVertex
100
AcDb2dVertex
 10
524.1778725393976
 20
-125.7919811533433
 30
0.0
  0
VERTEX
  5
CC3
330
CAB
100
AcDbEntity
  8
0
  6
Continuous
 62
     7
370
    35
100
AcDbVertex
100
AcDb2dVertex
 10
524.167725444671
 20
-125.7919811533433
 30
0.0
  0
VERTEX
  5
CC4
330
CAB
100
AcDbEntity
  8
0
  6
Continuous
 62
     7
370
    35
100
AcDbVertex
100
AcDb2dVertex
 10
524.1575783499444
 20
-125.7919811533433
 30
0.0
  0
SEQEND
  5
CC5
330
CAB
100
AcDbEntity
  8
0
  6
Continuous
 62
     7
370
    35
  0
POLYLINE
  5
CC6
330
1F
100
AcDbEntity
  8
0
  6
Continuous
 62
     7
370
    35
100
AcDb2dPolyline
 66
     1
 10
0.0
 20
0.0
 30
0.0
  0
VERTEX
  5
CC7
330
CC6
100
AcDbEntity
  8
0
  6
Continuous
 62
     7
370
    35
100
AcDbVertex
100
AcDb2dVertex
 10
534.9788993605342
 20
-123.7919812725525
 30
0.0
  0
VERTEX
  5
CC8
330
CC6
100
AcDbEntity
  8
0
  6
Continuous
 62
     7
370
    35
100
AcDbVertex
100
AcDb2dVertex
 10
534.981126190063
 20
-123.8573550508958
 30
0.0
  0
VERTEX
  5
CC9
330
CC6
100
AcDbEntity
  8
0
  6
Continuous
 62
     7
370
    35
100
AcDbVertex
100
AcDb2dVertex
 10
534.9877399214473
 20
-123.9224063681106
 30
0.0
  0
VERTEX
  5
CCA
330
CC6
100
AcDbEntity
  8
0
  6
Continuous
 62
     7
370
    35
100
AcDbVertex
100
AcDb2dVertex
 10
534.9986308821407
 20
-123.9868807123643
 30
0.0
  0
VERTEX
  5
CCB
330
CC6
100
AcDbEntity
  8
0
  6
Continuous
 62
     7
370
    35
100
AcDbVertex
100
AcDb2dVertex
 10
535.013696552154
 20
-124.0505223797302
 30
0.0
  0
VERTEX
  5
CCC
330
CC6
100
AcDbEntity
  8
0
  6
Continuous
 62
     7
370
    35
100
AcDbVertex
100
AcDb2dVertex
 10
535.0328296431269
 20
-124.1130774544221
 30
0.0
  0
VERTEX
  5
CCD
330
CC6
100
AcDbEntity
  8
0
  6
Continuous
 62
     7
370
    35
100
AcDbVertex
100
AcDb2dVertex
 10
535.0559252508843
 20
-124.1742890404204
 30
0.0
  0
VERTEX
  5
CCE
330
CC6
100
AcDbEntity
  8
0
  6
Continuous
 62
     7
370
    35
100
AcDbVertex
100
AcDb2dVertex
 10
535.0828784712517
 20
-124.2339038179856
 30
0.0
  0
VERTEX
  5
CCF
330
CC6
100
AcDbEntity
  8
0
  6
Continuous
 62
     7
370
    35
100
AcDbVertex
100
AcDb2dVertex
 10
535.1135820158686
 20
-124.2916660831909
 30
0.0
  0
VERTEX
  5
CD0
330
CC6
100
AcDbEntity
  8
0
  6
Continuous
 62
     7
370
    35
100
AcDbVertex
100
AcDb2dVertex
 10
535.1479309805598
 20
-124.3473207281571
 30
0.0
  0
VERTEX
  5
CD1
330
CC6
100
AcDbEntity
  8
0
  6
Continuous
 62
     7
370
    35
100
AcDbVertex
100
AcDb2dVertex
 10
535.1858180769649
 20
-124.4006126450041
 30
0.0
  0
VERTEX
  5
CD2
330
CC6
100
AcDbEntity
  8
0
  6
Continuous
 62
     7
370
    35
100
AcDbVertex
100
AcDb2dVertex
 10
535.2271407850945
 20
-124.4512867258531
 30
0.0
  0
VERTEX
  5
CD3
330
CC6
100
AcDbEntity
  8
0
  6
Continuous
 62
     7
370
    35
100
AcDbVertex
100
AcDb2dVertex
 10
535.2717918165889
 20
-124.4990878628235
 30
0.0
  0
VERTEX
  5
CD4
330
CC6
100
AcDbEntity
  8
0
  6
Continuous
 62
     7
370
    35
100
AcDbVertex
100
AcDb2dVertex
 10
535.3195947416987
 20
-124.5437394903642
 30
0.0
  0
VERTEX
  5
CD5
330
CC6
100
AcDbEntity
  8
0
  6
Continuous
 62
     7
370
    35
100
AcDbVertex
100
AcDb2dVertex
 10
535.370268226501
 20
-124.585061006401
 30
0.0
  0
VERTEX
  5
CD6
330
CC6
100
AcDbEntity
  8
0
  6
Continuous
 62
     7
370
    35
100
AcDbVertex
100
AcDb2dVertex
 10
535.4235595473018
 20
-124.6229504869919
 30
0.0
  0
VERTEX
  5
CD7
330
CC6
100
AcDbEntity
  8
0
  6
Continuous
 62
     7
370
    35
100
AcDbVertex
100
AcDb2dVertex
 10
535.479215980407
 20
-124.6572982595899
 30
0.0
  0
VERTEX
  5
CD8
330
CC6
100
AcDbEntity
  8
0
  6
Continuous
 62
     7
370
    35
100
AcDbVertex
100
AcDb2dVertex
 10
535.5369776495662
 20
-124.6880018042069
 30
0.0
  0
VERTEX
  5
CD9
330
CC6
100
AcDbEntity
  8
0
  6
Continuous
 62
     7
370
    35
100
AcDbVertex
100
AcDb2dVertex
 10
535.5965918310849
 20
-124.7149550245744
 30
0.0
  0
VERTEX
  5
CDA
330
CC6
100
AcDbEntity
  8
0
  6
Continuous
 62
     7
370
    35
100
AcDbVertex
100
AcDb2dVertex
 10
535.6578034170833
 20
-124.7380506323316
 30
0.0
  0
VERTEX
  5
CDB
330
CC6
100
AcDbEntity
  8
0
  6
Continuous
 62
     7
370
    35
100
AcDbVertex
100
AcDb2dVertex
 10
535.7203584917748
 20
-124.7571837233047
 30
0.0
  0
VERTEX
  5
CDC
330
CC6
100
AcDbEntity
  8
0
  6
Continuous
 62
     7
370
    35
100
AcDbVertex
100
AcDb2dVertex
 10
535.7839995630946
 20
-124.7722493933183
 30
0.0
  0
VERTEX
  5
CDD
330
CC6
100
AcDbEntity
  8
0
  6
Continuous
 62
     7
370
    35
100
AcDbVertex
100
AcDb2dVertex
 10
535.8484739073482
 20
-124.7831403540115
 30
0.0
  0
VERTEX
  5
CDE
330
CC6
100
AcDbEntity
  8
0
  6
Continuous
 62
     7
370
    35
100
AcDbVertex
100
AcDb2dVertex
 10
535.913526416656
 20
-124.7897528933028
 30
0.0
  0
VERTEX
  5
CDF
330
CC6
100
AcDbEntity
  8
0
  6
Continuous
 62
     7
370
    35
100
AcDbVertex
100
AcDb2dVertex
 10
535.9788995989528
 20
-124.7919809149246
 30
0.0
  0
SEQEND
  5
CE0
330
CC6
100
AcDbEntity
  8
0
  6
Continuous
 62
     7
370
    35
  0
POLYLINE
  5
CE1
330
1F
100
AcDbEntity
  8
0
  6
Continuous
 62
     7
370
    35
100
AcDb2dPolyline
 66
     1
 10
0.0
 20
0.0
 30
0.0
  0
VERTEX
  5
CE2
330
CE1
100
AcDbEntity
  8
0
  6
Continuous
 62
     7
370
    35
100
AcDbVertex
100
AcDb2dVertex
 10
534.7788995512692
 20
-125.7919811533433
 30
0.0
  0
VERTEX
  5
CE3
330
CE1
100
AcDbEntity
  8
0
  6
Continuous
 62
     7
370
    35
100
AcDbVertex
100
AcDb2dVertex
 10
534.7274464377131
 20
-125.7919811533433
 30
0.0
  0
VERTEX
  5
CE4
330
CE1
100
AcDbEntity
  8
0
  6
Continuous
 62
     7
370
    35
100
AcDbVertex
100
AcDb2dVertex
 10
534.6768587835994
 20
-125.7919811533433
 30
0.0
  0
VERTEX
  5
CE5
330
CE1
100
AcDbEntity
  8
0
  6
Continuous
 62
     7
370
    35
100
AcDbVertex
100
AcDb2dVertex
 10
534.6264308699336
 20
-125.7919811533433
 30
0.0
  0
VERTEX
  5
CE6
330
CE1
100
AcDbEntity
  8
0
  6
Continuous
 62
     7
370
    35
100
AcDbVertex
100
AcDb2dVertex
 10
534.5771020659175
 20
-125.7919811533433
 30
0.0
  0
VERTEX
  5
CE7
330
CE1
100
AcDbEntity
  8
0
  6
Continuous
 62
     7
370
    35
100
AcDbVertex
100
AcDb2dVertex
 10
534.5281714209285
 20
-125.7919811533433
 30
0.0
  0
VERTEX
  5
CE8
330
CE1
100
AcDbEntity
  8
0
  6
Continuous
 62
     7
370
    35
100
AcDbVertex
100
AcDb2dVertex
 10
534.4796437033377
 20
-125.7919811533433
 30
0.0
  0
VERTEX
  5
CE9
330
CE1
100
AcDbEntity
  8
0
  6
Continuous
 62
     7
370
    35
100
AcDbVertex
100
AcDb2dVertex
 10
534.4321125754085
 20
-125.7919811533433
 30
0.0
  0
VERTEX
  5
CEA
330
CE1
100
AcDbEntity
  8
0
  6
Continuous
 62
     7
370
    35
100
AcDbVertex
100
AcDb2dVertex
 10
534.3851584204402
 20
-125.7919811533433
 30
0.0
  0
VERTEX
  5
CEB
330
CE1
100
AcDbEntity
  8
0
  6
Continuous
 62
     7
370
    35
100
AcDbVertex
100
AcDb2dVertex
 10
534.3387812384333
 20
-125.7919811533433
 30
0.0
  0
VERTEX
  5
CEC
330
CE1
100
AcDbEntity
  8
0
  6
Continuous
 62
     7
370
    35
100
AcDbVertex
100
AcDb2dVertex
 10
534.2929834135738
 20
-125.7919811533433
 30
0.0
  0
VERTEX
  5
CED
330
CE1
100
AcDbEntity
  8
0
  6
Continuous
 62
     7
370
    35
100
AcDbVertex
100
AcDb2dVertex
 10
534.2477601774898
 20
-125.7919811533433
 30
0.0
  0
VERTEX
  5
CEE
330
CE1
100
AcDbEntity
  8
0
  6
Continuous
 62
     7
370
    35
100
AcDbVertex
100
AcDb2dVertex
 10
534.2031139143672
 20
-125.7919811533433
 30
0.0
  0
VERTEX
  5
CEF
330
CE1
100
AcDbEntity
  8
0
  6
Continuous
 62
     7
370
    35
100
AcDbVertex
100
AcDb2dVertex
 10
534.1594094046321
 20
-125.7919811533433
 30
0.0
  0
VERTEX
  5
CF0
330
CE1
100
AcDbEntity
  8
0
  6
Continuous
 62
     7
370
    35
100
AcDbVertex
100
AcDb2dVertex
 10
534.1162174948419
 20
-125.7919811533433
 30
0.0
  0
VERTEX
  5
CF1
330
CE1
100
AcDbEntity
  8
0
  6
Continuous
 62
     7
370
    35
100
AcDbVertex
100
AcDb2dVertex
 10
534.0735358008113
 20
-125.7919811533433
 30
0.0
  0
VERTEX
  5
CF2
330
CE1
100
AcDbEntity
  8
0
  6
Continuous
 62
     7
370
    35
100
AcDbVertex
100
AcDb2dVertex
 10
534.0314120062556
 20
-125.7919811533433
 30
0.0
  0
VERTEX
  5
CF3
330
CE1
100
AcDbEntity
  8
0
  6
Continuous
 62
     7
370
    35
100
AcDbVertex
100
AcDb2dVertex
 10
533.9902371176448
 20
-125.7919811533433
 30
0.0
  0
VERTEX
  5
CF4
330
CE1
100
AcDbEntity
  8
0
  6
Continuous
 62
     7
370
    35
100
AcDbVertex
100
AcDb2dVertex
 10
533.9494913824763
 20
-125.7919811533433
 30
0.0
  0
VERTEX
  5
CF5
330
CE1
100
AcDbEntity
  8
0
  6
Continuous
 62
     7
370
    35
100
AcDbVertex
100
AcDb2dVertex
 10
533.9092439421382
 20
-125.7919811533433
 30
0.0
  0
VERTEX
  5
CF6
330
CE1
100
AcDbEntity
  8
0
  6
Continuous
 62
     7
370
    35
100
AcDbVertex
100
AcDb2dVertex
 10
533.8699024924006
 20
-125.7919811533433
 30
0.0
  0
VERTEX
  5
CF7
330
CE1
100
AcDbEntity
  8
0
  6
Continuous
 62
     7
370
    35
100
AcDbVertex
100
AcDb2dVertex
 10
533.8311332472526
 20
-125.7919811533433
 30
0.0
  0
VERTEX
  5
CF8
330
CE1
100
AcDbEntity
  8
0
  6
Continuous
 62
     7
370
    35
100
AcDbVertex
100
AcDb2dVertex
 10
533.7929314383235
 20
-125.7919811533433
 30
0.0
  0
VERTEX
  5
CF9
330
CE1
100
AcDbEntity
  8
0
  6
Continuous
 62
     7
370
    35
100
AcDbVertex
100
AcDb2dVertex
 10
533.7553018339838
 20
-125.7919811533433
 30
0.0
  0
VERTEX
  5
CFA
330
CE1
100
AcDbEntity
  8
0
  6
Continuous
 62
     7
370
    35
100
AcDbVertex
100
AcDb2dVertex
 10
533.7182396658627
 20
-125.7919811533433
 30
0.0
  0
SEQEND
  5
CFB
330
CE1
100
AcDbEntity
  8
0
  6
Continuous
 62
     7
370
    35
  0
POLYLINE
  5
CFC
330
1F
100
AcDbEntity
  8
0
  6
Continuous
 62
     7
370
    35
100
AcDb2dPolyline
 66
     1
 10
0.0
 20
0.0
 30
0.0
  0
VERTEX
  5
CFD
330
CFC
100
AcDbEntity
  8
0
  6
Continuous
 62
     7
370
    35
100
AcDbVertex
100
AcDb2dVertex
 10
533.7182396658627
 20
-125.7919811533433
 30
0.0
  0
VERTEX
  5
CFE
330
CFC
100
AcDbEntity
  8
0
  6
Continuous
 62
     7
370
    35
100
AcDbVertex
100
AcDb2dVertex
 10
533.6740463980403
 20
-125.7919811533433
 30
0.0
  0
VERTEX
  5
CFF
330
CFC
100
AcDbEntity
  8
0
  6
Continuous
 62
     7
370
    35
100
AcDbVertex
100
AcDb2dVertex
 10
533.629850746032
 20
-125.7919811533433
 30
0.0
  0
VERTEX
  5
D00
330
CFC
100
AcDbEntity
  8
0
  6
Continuous
 62
     7
370
    35
100
AcDbVertex
100
AcDb2dVertex
 10
533.5856574782098
 20
-125.7919811533433
 30
0.0
  0
VERTEX
  5
D01
330
CFC
100
AcDbEntity
  8
0
  6
Continuous
 62
     7
370
    35
100
AcDbVertex
100
AcDb2dVertex
 10
533.5414618262017
 20
-125.7919811533433
 30
0.0
  0
VERTEX
  5
D02
330
CFC
100
AcDbEntity
  8
0
  6
Continuous
 62
     7
370
    35
100
AcDbVertex
100
AcDb2dVertex
 10
533.4972685583797
 20
-125.7919811533433
 30
0.0
  0
VERTEX
  5
D03
330
CFC
100
AcDbEntity
  8
0
  6
Continuous
 62
     7
370
    35
100
AcDbVertex
100
AcDb2dVertex
 10
533.4530752905574
 20
-125.7919811533433
 30
0.0
  0
VERTEX
  5
D04
330
CFC
100
AcDbEntity
  8
0
  6
Continuous
 62
     7
370
    35
100
AcDbVertex
100
AcDb2dVertex
 10
533.4088796385493
 20
-125.7919811533433
 30
0.0
  0
VERTEX
  5
D05
330
CFC
100
AcDbEntity
  8
0
  6
Continuous
 62
     7
370
    35
100
AcDbVertex
100
AcDb2dVertex
 10
533.364686370727
 20
-125.7919811533433
 30
0.0
  0
VERTEX
  5
D06
330
CFC
100
AcDbEntity
  8
0
  6
Continuous
 62
     7
370
    35
100
AcDbVertex
100
AcDb2dVertex
 10
533.3204931029048
 20
-125.7919811533433
 30
0.0
  0
VERTEX
  5
D07
330
CFC
100
AcDbEntity
  8
0
  6
Continuous
 62
     7
370
    35
100
AcDbVertex
100
AcDb2dVertex
 10
533.2762974508965
 20
-125.7919811533433
 30
0.0
  0
VERTEX
  5
D08
330
CFC
100
AcDbEntity
  8
0
  6
Continuous
 62
     7
370
    35
100
AcDbVertex
100
AcDb2dVertex
 10
533.2321041830745
 20
-125.7919811533433
 30
0.0
  0
VERTEX
  5
D09
330
CFC
100
AcDbEntity
  8
0
  6
Continuous
 62
     7
370
    35
100
AcDbVertex
100
AcDb2dVertex
 10
533.1879085310665
 20
-125.7919811533433
 30
0.0
  0
VERTEX
  5
D0A
330
CFC
100
AcDbEntity
  8
0
  6
Continuous
 62
     7
370
    35
100
AcDbVertex
100
AcDb2dVertex
 10
533.1437152632442
 20
-125.7919811533433
 30
0.0
  0
VERTEX
  5
D0B
330
CFC
100
AcDbEntity
  8
0
  6
Continuous
 62
     7
370
    35
100
AcDbVertex
100
AcDb2dVertex
 10
533.0995219954218
 20
-125.7919811533433
 30
0.0
  0
VERTEX
  5
D0C
330
CFC
100
AcDbEntity
  8
0
  6
Continuous
 62
     7
370
    35
100
AcDbVertex
100
AcDb2dVertex
 10
533.0553263434138
 20
-125.7919811533433
 30
0.0
  0
VERTEX
  5
D0D
330
CFC
100
AcDbEntity
  8
0
  6
Continuous
 62
     7
370
    35
100
AcDbVertex
100
AcDb2dVertex
 10
533.0111330755917
 20
-125.7919811533433
 30
0.0
  0
VERTEX
  5
D0E
330
CFC
100
AcDbEntity
  8
0
  6
Continuous
 62
     7
370
    35
100
AcDbVertex
100
AcDb2dVertex
 10
532.9669374235835
 20
-125.7919811533433
 30
0.0
  0
VERTEX
  5
D0F
330
CFC
100
AcDbEntity
  8
0
  6
Continuous
 62
     7
370
    35
100
AcDbVertex
100
AcDb2dVertex
 10
532.9227441557613
 20
-125.7919811533433
 30
0.0
  0
VERTEX
  5
D10
330
CFC
100
AcDbEntity
  8
0
  6
Continuous
 62
     7
370
    35
100
AcDbVertex
100
AcDb2dVertex
 10
532.878550887939
 20
-125.7919811533433
 30
0.0
  0
VERTEX
  5
D11
330
CFC
100
AcDbEntity
  8
0
  6
Continuous
 62
     7
370
    35
100
AcDbVertex
100
AcDb2dVertex
 10
532.8343552359307
 20
-125.7919811533433
 30
0.0
  0
VERTEX
  5
D12
330
CFC
100
AcDbEntity
  8
0
  6
Continuous
 62
     7
370
    35
100
AcDbVertex
100
AcDb2dVertex
 10
532.7901619681084
 20
-125.7919811533433
 30
0.0
  0
VERTEX
  5
D13
330
CFC
100
AcDbEntity
  8
0
  6
Continuous
 62
     7
370
    35
100
AcDbVertex
100
AcDb2dVertex
 10
532.7459687002864
 20
-125.7919811533433
 30
0.0
  0
VERTEX
  5
D14
330
CFC
100
AcDbEntity
  8
0
  6
Continuous
 62
     7
370
    35
100
AcDbVertex
100
AcDb2dVertex
 10
532.7017730482784
 20
-125.7919811533433
 30
0.0
  0
VERTEX
  5
D15
330
CFC
100
AcDbEntity
  8
0
  6
Continuous
 62
     7
370
    35
100
AcDbVertex
100
AcDb2dVertex
 10
532.6575797804562
 20
-125.7919811533433
 30
0.0
  0
SEQEND
  5
D16
330
CFC
100
AcDbEntity
  8
0
  6
Continuous
 62
     7
370
    35
  0
LINE
  5
D17
330
1F
100
AcDbEntity
  8
0
  6
Continuous
 62
     7
370
    35
100
AcDbLine
 10
524.1575793036187
 20
-114.5419811533433
 30
0.0
 11
524.0242751736789
 21
-114.5419811533433
 31
0.0
  0
LINE
  5
D18
330
1F
100
AcDbEntity
  8
0
  6
Continuous
 62
     7
370
    35
100
AcDbLine
 10
524.0242751736789
 20
-116.9419811533429
 30
0.0
 11
524.0242751736789
 21
-112.1419811533433
 31
0.0
  0
LINE
  5
D19
330
1F
100
AcDbEntity
  8
0
  6
Continuous
 62
     7
370
    35
100
AcDbLine
 10
524.0242751736789
 20
-122.0919811533432
 30
0.0
 11
524.0242751736789
 21
-117.9419811533432
 31
0.0
  0
LINE
  5
D1A
330
1F
100
AcDbEntity
  8
0
  6
Continuous
 62
     7
370
    35
100
AcDbLine
 10
524.1575793036187
 20
-122.0919811533432
 30
0.0
 11
524.0242751736789
 21
-122.0919811533432
 31
0.0
  0
LINE
  5
D1D
330
1F
100
AcDbEntity
  8
0
  6
Continuous
 62
     7
370
    35
100
AcDbLine
 10
532.6575793036187
 20
-114.5419811533433
 30
0.0
 11
532.3575793036186
 21
-114.5419811533433
 31
0.0
  0
LINE
  5
D1E
330
1F
100
AcDbEntity
  8
0
  6
Continuous
 62
     7
370
    35
100
AcDbLine
 10
532.6575793036187
 20
-122.0919811533432
 30
0.0
 11
532.3575793036186
 21
-122.0919811533432
 31
0.0
  0
LINE
  5
D1F
330
1F
100
AcDbEntity
  8
0
  6
Continuous
 62
     7
370
    35
100
AcDbLine
 10
522.1575793036187
 20
-105.3419811533433
 30
0.0
 11
524.1575793036187
 21
-105.3419811533433
 31
0.0
  0
LINE
  5
D20
330
1F
100
AcDbEntity
  8
0
  6
Continuous
 62
     7
370
    35
100
AcDbLine
 10
524.1575793036187
 20
-106.3419811533433
 30
0.0
 11
522.1575793036187
 21
-106.3419811533433
 31
0.0
  0
LINE
  5
D21
330
1F
100
AcDbEntity
  8
0
  6
Continuous
 62
     7
370
    35
100
AcDbLine
 10
524.1575793036198
 20
-104.7919811533432
 30
0.0
 11
516.9242751736788
 21
-104.7919811533432
 31
0.0
  0
LINE
  5
D22
102
{ACAD_REACTORS
330
13A1
102
}
330
1F
100
AcDbEntity
  8
0
  6
Continuous
 62
     7
370
    35
100
AcDbLine
 10
524.1575793036206
 20
-103.2919811533433
 30
0.0
 11
515.8539487840612
 21
-103.2919811533433
 31
0.0
  0
LINE
  5
D23
330
1F
100
AcDbEntity
  8
0
  6
Continuous
 62
     7
370
    35
100
AcDbLine
 10
524.1575793036198
 20
-104.7919811533432
 30
0.0
 11
516.8279185147097
 21
-104.7919811533432
 31
0.0
  0
LINE
  5
D24
330
1F
100
AcDbEntity
  8
0
  6
Continuous
 62
     7
370
    35
100
AcDbLine
 10
513.8242751736789
 20
-105.3419811533433
 30
0.0
 11
515.8242751736788
 21
-105.3419811533433
 31
0.0
  0
LINE
  5
D25
330
1F
100
AcDbEntity
  8
0
  6
Continuous
 62
     7
370
    35
100
AcDbLine
 10
515.8242751736788
 20
-106.3419811533433
 30
0.0
 11
513.8242751736789
 21
-106.3419811533433
 31
0.0
  0
LINE
  5
D26
330
1F
100
AcDbEntity
  8
0
  6
Continuous
 62
     7
370
    35
100
AcDbLine
 10
513.8242751736789
 20
-106.3419811533433
 30
0.0
 11
513.8242751736789
 21
-105.3419811533433
 31
0.0
  0
LINE
  5
D27
330
1F
100
AcDbEntity
  8
0
  6
Continuous
 62
     7
370
    35
100
AcDbLine
 10
522.1575793036187
 20
-106.3419811533433
 30
0.0
 11
522.1575793036187
 21
-105.3419811533433
 31
0.0
  0
LINE
  5
D28
330
1F
100
AcDbEntity
  8
0
  6
Continuous
 62
     7
370
    35
100
AcDbLine
 10
516.9242751736788
 20
-105.0919811533433
 30
0.0
 11
515.8242751736788
 21
-105.0919811533433
 31
0.0
  0
LINE
  5
D29
330
1F
100
AcDbEntity
  8
0
  6
Continuous
 62
     7
370
    35
100
AcDbLine
 10
516.9242751736788
 20
-104.7919811533432
 30
0.0
 11
516.9242751736788
 21
-105.0919811533433
 31
0.0
  0
LINE
  5
D2A
330
1F
100
AcDbEntity
  8
0
  6
Continuous
 62
     7
370
    35
100
AcDbLine
 10
515.8225296671903
 20
-105.0919811533433
 30
0.0
 11
515.8539487840612
 21
-103.2919811533435
 31
0.0
  0
LINE
  5
D2B
330
1F
100
AcDbEntity
  8
0
  6
Continuous
 62
     7
370
    35
100
AcDbLine
 10
516.8226819952394
 20
-105.0919811533433
 30
0.0
 11
515.8225296671911
 21
-105.0919811533433
 31
0.0
  0
LINE
  5
D2C
330
1F
100
AcDbEntity
  8
0
  6
Continuous
 62
     7
370
    35
100
AcDbLine
 10
516.8279185147106
 20
-104.7919811533432
 30
0.0
 11
516.8226819952394
 21
-105.0919811533433
 31
0.0
  0
LINE
  5
D2D
330
1F
100
AcDbEntity
  8
0
  6
Continuous
 62
     7
370
    35
100
AcDbLine
 10
515.8225296671932
 20
-105.0919811533439
 30
0.0
 11
515.8181659009612
 21
-105.3419811533433
 31
0.0
  0
LINE
  5
D2E
330
1F
100
AcDbEntity
  8
0
  6
Continuous
 62
     7
370
    35
100
AcDbLine
 10
516.9242751736788
 20
-104.9919811533436
 30
0.0
 11
516.824427501731
 21
-104.9919811533436
 31
0.0
  0
LINE
  5
D2F
330
1F
100
AcDbEntity
  8
0
  6
Continuous
 62
     7
370
    35
100
AcDbLine
 10
532.6575793036187
 20
-104.7919811533432
 30
0.0
 11
525.2575793036187
 21
-104.7919811533432
 31
0.0
  0
LINE
  5
D30
330
1F
100
AcDbEntity
  8
0
  6
Continuous
 62
     7
370
    35
100
AcDbLine
 10
532.6575793036218
 20
-103.2919811533433
 30
0.0
 11
524.4011083742178
 21
-103.2919811533433
 31
0.0
  0
LINE
  5
D31
330
1F
100
AcDbEntity
  8
0
  6
Continuous
 62
     7
370
    35
100
AcDbLine
 10
532.6575793036198
 20
-104.7919811533432
 30
0.0
 11
525.15757930362
 21
-104.7919811533432
 31
0.0
  0
LINE
  5
D32
330
1F
100
AcDbEntity
  8
0
  6
Continuous
 62
     7
370
    35
100
AcDbLine
 10
524.0242751736785
 20
-106.9919811533432
 30
0.0
 11
524.1575793036187
 21
-106.9919811533432
 31
0.0
  0
LINE
  5
D33
330
1F
100
AcDbEntity
  8
0
  6
Continuous
 62
     7
370
    35
100
AcDbLine
 10
525.2575793036187
 20
-105.0919811533433
 30
0.0
 11
524.1575793036187
 21
-105.0919811533433
 31
0.0
  0
LINE
  5
D34
330
1F
100
AcDbEntity
  8
0
  6
Continuous
 62
     7
370
    35
100
AcDbLine
 10
525.2575793036187
 20
-104.7919811533432
 30
0.0
 11
525.2575793036187
 21
-105.0919811533433
 31
0.0
  0
LINE
  5
D35
330
1F
100
AcDbEntity
  8
0
  6
Continuous
 62
     7
370
    35
100
AcDbLine
 10
524.1575793036219
 20
-103.2919811533433
 30
0.0
 11
524.4011083742178
 21
-103.2919811533433
 31
0.0
  0
LINE
  5
D36
330
1F
100
AcDbEntity
  8
0
  6
Continuous
 62
     7
370
    35
100
AcDbLine
 10
524.4011083742178
 20
-103.2919811533433
 30
0.0
 11
524.4011083742178
 21
-105.0919811533433
 31
0.0
  0
LINE
  5
D37
330
1F
100
AcDbEntity
  8
0
  6
Continuous
 62
     7
370
    35
100
AcDbLine
 10
524.1575793036198
 20
-105.0919811533433
 30
0.0
 11
524.1575793036198
 21
-103.2919811533433
 31
0.0
  0
LINE
  5
D38
330
1F
100
AcDbEntity
  8
0
  6
Continuous
 62
     7
370
    35
100
AcDbLine
 10
525.15757930362
 20
-105.0919811533433
 30
0.0
 11
524.40110837421
 21
-105.0919811533433
 31
0.0
  0
LINE
  5
D39
330
1F
100
AcDbEntity
  8
0
  6
Continuous
 62
     7
370
    35
100
AcDbLine
 10
525.15757930362
 20
-104.7919811533432
 30
0.0
 11
525.15757930362
 21
-105.0919811533433
 31
0.0
  0
POLYLINE
  5
D3A
330
1F
100
AcDbEntity
  8
0
  6
Continuous
 62
     7
370
    35
100
AcDb2dPolyline
 66
     1
 10
0.0
 20
0.0
 30
0.0
  0
VERTEX
  5
D3B
330
D3A
100
AcDbEntity
  8
0
  6
Continuous
 62
     7
370
    35
100
AcDbVertex
100
AcDb2dVertex
 10
533.7182396658627
 20
-103.2919811533433
 30
0.0
  0
VERTEX
  5
D3C
330
D3A
100
AcDbEntity
  8
0
  6
Continuous
 62
     7
370
    35
100
AcDbVertex
100
AcDb2dVertex
 10
533.7553018339838
 20
-103.2919811533433
 30
0.0
  0
VERTEX
  5
D3D
330
D3A
100
AcDbEntity
  8
0
  6
Continuous
 62
     7
370
    35
100
AcDbVertex
100
AcDb2dVertex
 10
533.7929314383235
 20
-103.2919811533433
 30
0.0
  0
VERTEX
  5
D3E
330
D3A
100
AcDbEntity
  8
0
  6
Continuous
 62
     7
370
    35
100
AcDbVertex
100
AcDb2dVertex
 10
533.8311332472526
 20
-103.2919811533433
 30
0.0
  0
VERTEX
  5
D3F
330
D3A
100
AcDbEntity
  8
0
  6
Continuous
 62
     7
370
    35
100
AcDbVertex
100
AcDb2dVertex
 10
533.8699024924006
 20
-103.2919811533433
 30
0.0
  0
VERTEX
  5
D40
330
D3A
100
AcDbEntity
  8
0
  6
Continuous
 62
     7
370
    35
100
AcDbVertex
100
AcDb2dVertex
 10
533.9092439421382
 20
-103.2919811533433
 30
0.0
  0
VERTEX
  5
D41
330
D3A
100
AcDbEntity
  8
0
  6
Continuous
 62
     7
370
    35
100
AcDbVertex
100
AcDb2dVertex
 10
533.9494913824763
 20
-103.2919811533433
 30
0.0
  0
VERTEX
  5
D42
330
D3A
100
AcDbEntity
  8
0
  6
Continuous
 62
     7
370
    35
100
AcDbVertex
100
AcDb2dVertex
 10
533.9902371176448
 20
-103.2919811533433
 30
0.0
  0
VERTEX
  5
D43
330
D3A
100
AcDbEntity
  8
0
  6
Continuous
 62
     7
370
    35
100
AcDbVertex
100
AcDb2dVertex
 10
534.0314120062556
 20
-103.2919811533433
 30
0.0
  0
VERTEX
  5
D44
330
D3A
100
AcDbEntity
  8
0
  6
Continuous
 62
     7
370
    35
100
AcDbVertex
100
AcDb2dVertex
 10
534.0735358008113
 20
-103.2919811533433
 30
0.0
  0
VERTEX
  5
D45
330
D3A
100
AcDbEntity
  8
0
  6
Continuous
 62
     7
370
    35
100
AcDbVertex
100
AcDb2dVertex
 10
534.1162174948419
 20
-103.2919811533433
 30
0.0
  0
VERTEX
  5
D46
330
D3A
100
AcDbEntity
  8
0
  6
Continuous
 62
     7
370
    35
100
AcDbVertex
100
AcDb2dVertex
 10
534.1594094046321
 20
-103.2919811533433
 30
0.0
  0
VERTEX
  5
D47
330
D3A
100
AcDbEntity
  8
0
  6
Continuous
 62
     7
370
    35
100
AcDbVertex
100
AcDb2dVertex
 10
534.2031139143672
 20
-103.2919811533433
 30
0.0
  0
VERTEX
  5
D48
330
D3A
100
AcDbEntity
  8
0
  6
Continuous
 62
     7
370
    35
100
AcDbVertex
100
AcDb2dVertex
 10
534.2477601774898
 20
-103.2919811533433
 30
0.0
  0
VERTEX
  5
D49
330
D3A
100
AcDbEntity
  8
0
  6
Continuous
 62
     7
370
    35
100
AcDbVertex
100
AcDb2dVertex
 10
534.2929834135738
 20
-103.2919811533433
 30
0.0
  0
VERTEX
  5
D4A
330
D3A
100
AcDbEntity
  8
0
  6
Continuous
 62
     7
370
    35
100
AcDbVertex
100
AcDb2dVertex
 10
534.3387812384333
 20
-103.2919811533433
 30
0.0
  0
VERTEX
  5
D4B
330
D3A
100
AcDbEntity
  8
0
  6
Continuous
 62
     7
370
    35
100
AcDbVertex
100
AcDb2dVertex
 10
534.3851584204402
 20
-103.2919811533433
 30
0.0
  0
VERTEX
  5
D4C
330
D3A
100
AcDbEntity
  8
0
  6
Continuous
 62
     7
370
    35
100
AcDbVertex
100
AcDb2dVertex
 10
534.4321125754085
 20
-103.2919811533433
 30
0.0
  0
VERTEX
  5
D4D
330
D3A
100
AcDbEntity
  8
0
  6
Continuous
 62
     7
370
    35
100
AcDbVertex
100
AcDb2dVertex
 10
534.4796437033377
 20
-103.2919811533433
 30
0.0
  0
VERTEX
  5
D4E
330
D3A
100
AcDbEntity
  8
0
  6
Continuous
 62
     7
370
    35
100
AcDbVertex
100
AcDb2dVertex
 10
534.5281714209285
 20
-103.2919811533433
 30
0.0
  0
VERTEX
  5
D4F
330
D3A
100
AcDbEntity
  8
0
  6
Continuous
 62
     7
370
    35
100
AcDbVertex
100
AcDb2dVertex
 10
534.5771020659175
 20
-103.2919811533433
 30
0.0
  0
VERTEX
  5
D50
330
D3A
100
AcDbEntity
  8
0
  6
Continuous
 62
     7
370
    35
100
AcDbVertex
100
AcDb2dVertex
 10
534.6264308699336
 20
-103.2919811533433
 30
0.0
  0
VERTEX
  5
D51
330
D3A
100
AcDbEntity
  8
0
  6
Continuous
 62
     7
370
    35
100
AcDbVertex
100
AcDb2dVertex
 10
534.6768587835994
 20
-103.2919811533433
 30
0.0
  0
VERTEX
  5
D52
330
D3A
100
AcDbEntity
  8
0
  6
Continuous
 62
     7
370
    35
100
AcDbVertex
100
AcDb2dVertex
 10
534.7274464377131
 20
-103.2919811533433
 30
0.0
  0
VERTEX
  5
D53
330
D3A
100
AcDbEntity
  8
0
  6
Continuous
 62
     7
370
    35
100
AcDbVertex
100
AcDb2dVertex
 10
534.7788995512692
 20
-103.2919811533433
 30
0.0
  0
SEQEND
  5
D54
330
D3A
100
AcDbEntity
  8
0
  6
Continuous
 62
     7
370
    35
  0
POLYLINE
  5
D55
330
1F
100
AcDbEntity
  8
0
  6
Continuous
 62
     7
370
    35
100
AcDb2dPolyline
 66
     1
 10
0.0
 20
0.0
 30
0.0
  0
VERTEX
  5
D56
330
D55
100
AcDbEntity
  8
0
  6
Continuous
 62
     7
370
    35
100
AcDbVertex
100
AcDb2dVertex
 10
535.9788995989528
 20
-104.2919813917619
 30
0.0
  0
VERTEX
  5
D57
330
D55
100
AcDbEntity
  8
0
  6
Continuous
 62
     7
370
    35
100
AcDbVertex
100
AcDb2dVertex
 10
535.913526416656
 20
-104.2942094133836
 30
0.0
  0
VERTEX
  5
D58
330
D55
100
AcDbEntity
  8
0
  6
Continuous
 62
     7
370
    35
100
AcDbVertex
100
AcDb2dVertex
 10
535.8484739073482
 20
-104.300821952675
 30
0.0
  0
VERTEX
  5
D59
330
D55
100
AcDbEntity
  8
0
  6
Continuous
 62
     7
370
    35
100
AcDbVertex
100
AcDb2dVertex
 10
535.7839995630946
 20
-104.3117129133682
 30
0.0
  0
VERTEX
  5
D5A
330
D55
100
AcDbEntity
  8
0
  6
Continuous
 62
     7
370
    35
100
AcDbVertex
100
AcDb2dVertex
 10
535.7203584917748
 20
-104.3267785833817
 30
0.0
  0
VERTEX
  5
D5B
330
D55
100
AcDbEntity
  8
0
  6
Continuous
 62
     7
370
    35
100
AcDbVertex
100
AcDb2dVertex
 10
535.6578034170833
 20
-104.3459116743546
 30
0.0
  0
VERTEX
  5
D5C
330
D55
100
AcDbEntity
  8
0
  6
Continuous
 62
     7
370
    35
100
AcDbVertex
100
AcDb2dVertex
 10
535.5965918310849
 20
-104.3690072821122
 30
0.0
  0
VERTEX
  5
D5D
330
D55
100
AcDbEntity
  8
0
  6
Continuous
 62
     7
370
    35
100
AcDbVertex
100
AcDb2dVertex
 10
535.5369776495662
 20
-104.3959605024795
 30
0.0
  0
VERTEX
  5
D5E
330
D55
100
AcDbEntity
  8
0
  6
Continuous
 62
     7
370
    35
100
AcDbVertex
100
AcDb2dVertex
 10
535.479215980407
 20
-104.4266640470963
 30
0.0
  0
VERTEX
  5
D5F
330
D55
100
AcDbEntity
  8
0
  6
Continuous
 62
     7
370
    35
100
AcDbVertex
100
AcDb2dVertex
 10
535.4235595473018
 20
-104.4610118196945
 30
0.0
  0
VERTEX
  5
D60
330
D55
100
AcDbEntity
  8
0
  6
Continuous
 62
     7
370
    35
100
AcDbVertex
100
AcDb2dVertex
 10
535.370268226501
 20
-104.4989013002854
 30
0.0
  0
VERTEX
  5
D61
330
D55
100
AcDbEntity
  8
0
  6
Continuous
 62
     7
370
    35
100
AcDbVertex
100
AcDb2dVertex
 10
535.3195947416987
 20
-104.5402228163224
 30
0.0
  0
VERTEX
  5
D62
330
D55
100
AcDbEntity
  8
0
  6
Continuous
 62
     7
370
    35
100
AcDbVertex
100
AcDb2dVertex
 10
535.2717918165889
 20
-104.5848744438629
 30
0.0
  0
VERTEX
  5
D63
330
D55
100
AcDbEntity
  8
0
  6
Continuous
 62
     7
370
    35
100
AcDbVertex
100
AcDb2dVertex
 10
535.2271407850945
 20
-104.6326755808334
 30
0.0
  0
VERTEX
  5
D64
330
D55
100
AcDbEntity
  8
0
  6
Continuous
 62
     7
370
    35
100
AcDbVertex
100
AcDb2dVertex
 10
535.1858180769649
 20
-104.6833496616822
 30
0.0
  0
VERTEX
  5
D65
330
D55
100
AcDbEntity
  8
0
  6
Continuous
 62
     7
370
    35
100
AcDbVertex
100
AcDb2dVertex
 10
535.1479309805598
 20
-104.7366415785294
 30
0.0
  0
VERTEX
  5
D66
330
D55
100
AcDbEntity
  8
0
  6
Continuous
 62
     7
370
    35
100
AcDbVertex
100
AcDb2dVertex
 10
535.1135820158686
 20
-104.7922962234955
 30
0.0
  0
VERTEX
  5
D67
330
D55
100
AcDbEntity
  8
0
  6
Continuous
 62
     7
370
    35
100
AcDbVertex
100
AcDb2dVertex
 10
535.0828784712517
 20
-104.8500584887009
 30
0.0
  0
VERTEX
  5
D68
330
D55
100
AcDbEntity
  8
0
  6
Continuous
 62
     7
370
    35
100
AcDbVertex
100
AcDb2dVertex
 10
535.0559252508843
 20
-104.9096732662659
 30
0.0
  0
VERTEX
  5
D69
330
D55
100
AcDbEntity
  8
0
  6
Continuous
 62
     7
370
    35
100
AcDbVertex
100
AcDb2dVertex
 10
535.0328296431269
 20
-104.9708848522645
 30
0.0
  0
VERTEX
  5
D6A
330
D55
100
AcDbEntity
  8
0
  6
Continuous
 62
     7
370
    35
100
AcDbVertex
100
AcDb2dVertex
 10
535.013696552154
 20
-105.0334399269561
 30
0.0
  0
VERTEX
  5
D6B
330
D55
100
AcDbEntity
  8
0
  6
Continuous
 62
     7
370
    35
100
AcDbVertex
100
AcDb2dVertex
 10
534.9986308821407
 20
-105.0970815943223
 30
0.0
  0
VERTEX
  5
D6C
330
D55
100
AcDbEntity
  8
0
  6
Continuous
 62
     7
370
    35
100
AcDbVertex
100
AcDb2dVertex
 10
534.9877399214473
 20
-105.1615559385758
 30
0.0
  0
VERTEX
  5
D6D
330
D55
100
AcDbEntity
  8
0
  6
Continuous
 62
     7
370
    35
100
AcDbVertex
100
AcDb2dVertex
 10
534.981126190063
 20
-105.2266072557908
 30
0.0
  0
VERTEX
  5
D6E
330
D55
100
AcDbEntity
  8
0
  6
Continuous
 62
     7
370
    35
100
AcDbVertex
100
AcDb2dVertex
 10
534.9788993605342
 20
-105.291981034134
 30
0.0
  0
SEQEND
  5
D6F
330
D55
100
AcDbEntity
  8
0
  6
Continuous
 62
     7
370
    35
  0
LINE
  5
D70
330
1F
100
AcDbEntity
  8
0
  6
Continuous
 62
     7
370
    35
100
AcDbLine
 10
532.3575793036186
 20
-106.9919811533432
 30
0.0
 11
532.6575793036187
 21
-106.9919811533432
 31
0.0
  0
POLYLINE
  5
D71
330
1F
100
AcDbEntity
  8
0
  6
Continuous
 62
     7
370
    35
100
AcDb2dPolyline
 66
     1
 10
0.0
 20
0.0
 30
0.0
  0
VERTEX
  5
D72
330
D71
100
AcDbEntity
  8
0
  6
Continuous
 62
     7
370
    35
100
AcDbVertex
100
AcDb2dVertex
 10
532.6575797804562
 20
-103.2919811533433
 30
0.0
  0
VERTEX
  5
D73
330
D71
100
AcDbEntity
  8
0
  6
Continuous
 62
     7
370
    35
100
AcDbVertex
100
AcDb2dVertex
 10
532.7017730482784
 20
-103.2919811533433
 30
0.0
  0
VERTEX
  5
D74
330
D71
100
AcDbEntity
  8
0
  6
Continuous
 62
     7
370
    35
100
AcDbVertex
100
AcDb2dVertex
 10
532.7459687002864
 20
-103.2919811533433
 30
0.0
  0
VERTEX
  5
D75
330
D71
100
AcDbEntity
  8
0
  6
Continuous
 62
     7
370
    35
100
AcDbVertex
100
AcDb2dVertex
 10
532.7901619681084
 20
-103.2919811533433
 30
0.0
  0
VERTEX
  5
D76
330
D71
100
AcDbEntity
  8
0
  6
Continuous
 62
     7
370
    35
100
AcDbVertex
100
AcDb2dVertex
 10
532.8343552359307
 20
-103.2919811533433
 30
0.0
  0
VERTEX
  5
D77
330
D71
100
AcDbEntity
  8
0
  6
Continuous
 62
     7
370
    35
100
AcDbVertex
100
AcDb2dVertex
 10
532.878550887939
 20
-103.2919811533433
 30
0.0
  0
VERTEX
  5
D78
330
D71
100
AcDbEntity
  8
0
  6
Continuous
 62
     7
370
    35
100
AcDbVertex
100
AcDb2dVertex
 10
532.9227441557613
 20
-103.2919811533433
 30
0.0
  0
VERTEX
  5
D79
330
D71
100
AcDbEntity
  8
0
  6
Continuous
 62
     7
370
    35
100
AcDbVertex
100
AcDb2dVertex
 10
532.9669374235835
 20
-103.2919811533433
 30
0.0
  0
VERTEX
  5
D7A
330
D71
100
AcDbEntity
  8
0
  6
Continuous
 62
     7
370
    35
100
AcDbVertex
100
AcDb2dVertex
 10
533.0111330755917
 20
-103.2919811533433
 30
0.0
  0
VERTEX
  5
D7B
330
D71
100
AcDbEntity
  8
0
  6
Continuous
 62
     7
370
    35
100
AcDbVertex
100
AcDb2dVertex
 10
533.0553263434138
 20
-103.2919811533433
 30
0.0
  0
VERTEX
  5
D7C
330
D71
100
AcDbEntity
  8
0
  6
Continuous
 62
     7
370
    35
100
AcDbVertex
100
AcDb2dVertex
 10
533.0995219954218
 20
-103.2919811533433
 30
0.0
  0
VERTEX
  5
D7D
330
D71
100
AcDbEntity
  8
0
  6
Continuous
 62
     7
370
    35
100
AcDbVertex
100
AcDb2dVertex
 10
533.1437152632442
 20
-103.2919811533433
 30
0.0
  0
VERTEX
  5
D7E
330
D71
100
AcDbEntity
  8
0
  6
Continuous
 62
     7
370
    35
100
AcDbVertex
100
AcDb2dVertex
 10
533.1879085310665
 20
-103.2919811533433
 30
0.0
  0
VERTEX
  5
D7F
330
D71
100
AcDbEntity
  8
0
  6
Continuous
 62
     7
370
    35
100
AcDbVertex
100
AcDb2dVertex
 10
533.2321041830745
 20
-103.2919811533433
 30
0.0
  0
VERTEX
  5
D80
330
D71
100
AcDbEntity
  8
0
  6
Continuous
 62
     7
370
    35
100
AcDbVertex
100
AcDb2dVertex
 10
533.2762974508965
 20
-103.2919811533433
 30
0.0
  0
VERTEX
  5
D81
330
D71
100
AcDbEntity
  8
0
  6
Continuous
 62
     7
370
    35
100
AcDbVertex
100
AcDb2dVertex
 10
533.3204931029048
 20
-103.2919811533433
 30
0.0
  0
VERTEX
  5
D82
330
D71
100
AcDbEntity
  8
0
  6
Continuous
 62
     7
370
    35
100
AcDbVertex
100
AcDb2dVertex
 10
533.364686370727
 20
-103.2919811533433
 30
0.0
  0
VERTEX
  5
D83
330
D71
100
AcDbEntity
  8
0
  6
Continuous
 62
     7
370
    35
100
AcDbVertex
100
AcDb2dVertex
 10
533.4088796385493
 20
-103.2919811533433
 30
0.0
  0
VERTEX
  5
D84
330
D71
100
AcDbEntity
  8
0
  6
Continuous
 62
     7
370
    35
100
AcDbVertex
100
AcDb2dVertex
 10
533.4530752905574
 20
-103.2919811533433
 30
0.0
  0
VERTEX
  5
D85
330
D71
100
AcDbEntity
  8
0
  6
Continuous
 62
     7
370
    35
100
AcDbVertex
100
AcDb2dVertex
 10
533.4972685583797
 20
-103.2919811533433
 30
0.0
  0
VERTEX
  5
D86
330
D71
100
AcDbEntity
  8
0
  6
Continuous
 62
     7
370
    35
100
AcDbVertex
100
AcDb2dVertex
 10
533.5414618262017
 20
-103.2919811533433
 30
0.0
  0
VERTEX
  5
D87
330
D71
100
AcDbEntity
  8
0
  6
Continuous
 62
     7
370
    35
100
AcDbVertex
100
AcDb2dVertex
 10
533.5856574782098
 20
-103.2919811533433
 30
0.0
  0
VERTEX
  5
D88
330
D71
100
AcDbEntity
  8
0
  6
Continuous
 62
     7
370
    35
100
AcDbVertex
100
AcDb2dVertex
 10
533.629850746032
 20
-103.2919811533433
 30
0.0
  0
VERTEX
  5
D89
330
D71
100
AcDbEntity
  8
0
  6
Continuous
 62
     7
370
    35
100
AcDbVertex
100
AcDb2dVertex
 10
533.6740463980403
 20
-103.2919811533433
 30
0.0
  0
VERTEX
  5
D8A
330
D71
100
AcDbEntity
  8
0
  6
Continuous
 62
     7
370
    35
100
AcDbVertex
100
AcDb2dVertex
 10
533.7182396658627
 20
-103.2919811533433
 30
0.0
  0
SEQEND
  5
D8B
330
D71
100
AcDbEntity
  8
0
  6
Continuous
 62
     7
370
    35
  0
LINE
  5
FF9
330
1F
100
AcDbEntity
  8
0
  6
Continuous
 62
     7
370
    35
100
AcDbLine
 10
578.9575793036187
 20
-106.9919811533432
 30
0.0
 11
578.9575793036187
 21
-122.0919811533432
 31
0.0
  0
LINE
  5
FFA
330
1F
100
AcDbEntity
  8
0
  6
Continuous
 62
     7
370
    35
100
AcDbLine
 10
587.1575793036186
 20
-123.9919811533432
 30
0.0
 11
587.1575793036186
 21
-105.0919811533433
 31
0.0
  0
CIRCLE
  5
FFB
330
1F
100
AcDbEntity
  8
0
  6
Continuous
 62
     7
370
    35
100
AcDbCircle
 10
581.9575793036188
 20
-108.6919811533432
 30
0.0
 40
2.549999999999998
  0
LINE
  5
FFC
330
1F
100
AcDbEntity
  8
0
  6
Continuous
 62
     7
370
    35
100
AcDbLine
 10
587.2908834335587
 20
-106.9919811533432
 30
0.0
 11
587.2908834335587
 21
-111.1419811533433
 31
0.0
  0
LINE
  5
FFD
330
1F
100
AcDbEntity
  8
0
  6
Continuous
 62
     7
370
    35
100
AcDbLine
 10
595.4908834335586
 20
-123.991981153343
 30
0.0
 11
595.4908834335586
 21
-105.0919811533429
 31
0.0
  0
CIRCLE
  5
FFE
330
1F
100
AcDbEntity
  8
0
  6
Continuous
 62
     7
370
    35
100
AcDbCircle
 10
590.2908834335587
 20
-108.6919811533432
 30
0.0
 40
2.54999999999999
  0
LINE
  5
FFF
330
1F
100
AcDbEntity
  8
0
  6
Continuous
 62
     7
370
    35
100
AcDbLine
 10
578.6575793036209
 20
-125.7919811533433
 30
0.0
 11
578.6575793036209
 21
-103.2919811533433
 31
0.0
  0
LINE
  5
1000
330
1F
100
AcDbEntity
  8
0
  6
Continuous
 62
     7
370
    35
100
AcDbLine
 10
576.3362589600587
 20
-105.2919811533433
 30
0.0
 11
576.3362589600587
 21
-123.7919811533433
 31
0.0
  0
LINE
  5
1001
330
1F
100
AcDbEntity
  8
0
  6
Continuous
 62
     7
370
    35
100
AcDbLine
 10
595.5982320828627
 20
-111.1419811533429
 30
0.0
 11
595.5144477712067
 21
-106.3419811533429
 31
0.0
  0
LINE
  5
1002
330
1F
100
AcDbEntity
  8
0
  6
Continuous
 62
     7
370
    35
100
AcDbLine
 10
587.1575793036186
 20
-124.2919811533431
 30
0.0
 11
594.3908834335587
 21
-124.2919811533431
 31
0.0
  0
CIRCLE
  5
1003
330
1F
100
AcDbEntity
  8
0
  6
Continuous
 62
     7
370
    35
100
AcDbCircle
 10
590.2908834335587
 20
-120.2919811533429
 30
0.0
 40
2.54999999999999
  0
CIRCLE
  5
1004
330
1F
100
AcDbEntity
  8
0
  6
Continuous
 62
     7
370
    35
100
AcDbCircle
 10
590.2908834335587
 20
-114.4919811533432
 30
0.0
 40
2.54999999999999
  0
LINE
  5
1005
330
1F
100
AcDbEntity
  8
0
  6
Continuous
 62
     7
370
    35
100
AcDbLine
 10
587.1575793036186
 20
-124.2919811533433
 30
0.0
 11
594.4873924205689
 21
-124.2919811533433
 31
0.0
  0
LINE
  5
1006
330
1F
100
AcDbEntity
  8
0
  6
Continuous
 62
     7
370
    35
100
AcDbLine
 10
595.4612098231788
 20
-125.7919811533433
 30
0.0
 11
587.1575793036186
 21
-125.7919811533433
 31
0.0
  0
LINE
  5
1007
330
1F
100
AcDbEntity
  8
0
  6
Continuous
 62
     7
370
    35
100
AcDbLine
 10
589.1575793036187
 20
-122.7419811533432
 30
0.0
 11
589.1575793036187
 21
-123.7419811533432
 31
0.0
  0
LINE
  5
1008
330
1F
100
AcDbEntity
  8
0
  6
Continuous
 62
     7
370
    35
100
AcDbLine
 10
578.6575793036186
 20
-124.2919811533433
 30
0.0
 11
586.0575793036188
 21
-124.2919811533433
 31
0.0
  0
LINE
  5
1009
330
1F
100
AcDbEntity
  8
0
  6
Continuous
 62
     7
370
    35
100
AcDbLine
 10
578.6575793036186
 20
-124.2919811533433
 30
0.0
 11
586.1575793036187
 21
-124.2919811533433
 31
0.0
  0
LINE
  5
100A
330
1F
100
AcDbEntity
  8
0
  6
Continuous
 62
     7
370
    35
100
AcDbLine
 10
586.9140502330286
 20
-125.7919811533433
 30
0.0
 11
578.6575793036186
 21
-125.7919811533433
 31
0.0
  0
POLYLINE
  5
100B
330
1F
100
AcDbEntity
  8
0
  6
Continuous
 62
     7
370
    35
100
AcDb2dPolyline
 66
     1
 10
0.0
 20
0.0
 30
0.0
  0
VERTEX
  5
100C
330
100B
100
AcDbEntity
  8
0
  6
Continuous
 62
     7
370
    35
100
AcDbVertex
100
AcDb2dVertex
 10
575.336259008285
 20
-124.7919809149246
 30
0.0
  0
VERTEX
  5
100D
330
100B
100
AcDbEntity
  8
0
  6
Continuous
 62
     7
370
    35
100
AcDbVertex
100
AcDb2dVertex
 10
575.4016321905817
 20
-124.7897528933028
 30
0.0
  0
VERTEX
  5
100E
330
100B
100
AcDbEntity
  8
0
  6
Continuous
 62
     7
370
    35
100
AcDbVertex
100
AcDb2dVertex
 10
575.4666846998896
 20
-124.7831403540115
 30
0.0
  0
VERTEX
  5
100F
330
100B
100
AcDbEntity
  8
0
  6
Continuous
 62
     7
370
    35
100
AcDbVertex
100
AcDb2dVertex
 10
575.5311590441431
 20
-124.7722493933183
 30
0.0
  0
VERTEX
  5
1010
330
100B
100
AcDbEntity
  8
0
  6
Continuous
 62
     7
370
    35
100
AcDbVertex
100
AcDb2dVertex
 10
575.5948001154627
 20
-124.7571837233047
 30
0.0
  0
VERTEX
  5
1011
330
100B
100
AcDbEntity
  8
0
  6
Continuous
 62
     7
370
    35
100
AcDbVertex
100
AcDb2dVertex
 10
575.6573551901545
 20
-124.7380506323316
 30
0.0
  0
VERTEX
  5
1012
330
100B
100
AcDbEntity
  8
0
  6
Continuous
 62
     7
370
    35
100
AcDbVertex
100
AcDb2dVertex
 10
575.718566776153
 20
-124.7149550245744
 30
0.0
  0
VERTEX
  5
1013
330
100B
100
AcDbEntity
  8
0
  6
Continuous
 62
     7
370
    35
100
AcDbVertex
100
AcDb2dVertex
 10
575.7781809576711
 20
-124.6880018042069
 30
0.0
  0
VERTEX
  5
1014
330
100B
100
AcDbEntity
  8
0
  6
Continuous
 62
     7
370
    35
100
AcDbVertex
100
AcDb2dVertex
 10
575.8359426268305
 20
-124.6572982595899
 30
0.0
  0
VERTEX
  5
1015
330
100B
100
AcDbEntity
  8
0
  6
Continuous
 62
     7
370
    35
100
AcDbVertex
100
AcDb2dVertex
 10
575.8915990599357
 20
-124.6229504869919
 30
0.0
  0
VERTEX
  5
1016
330
100B
100
AcDbEntity
  8
0
  6
Continuous
 62
     7
370
    35
100
AcDbVertex
100
AcDb2dVertex
 10
575.9448903807367
 20
-124.585061006401
 30
0.0
  0
VERTEX
  5
1017
330
100B
100
AcDbEntity
  8
0
  6
Continuous
 62
     7
370
    35
100
AcDbVertex
100
AcDb2dVertex
 10
575.995563865539
 20
-124.5437394903642
 30
0.0
  0
VERTEX
  5
1018
330
100B
100
AcDbEntity
  8
0
  6
Continuous
 62
     7
370
    35
100
AcDbVertex
100
AcDb2dVertex
 10
576.0433667906489
 20
-124.4990878628235
 30
0.0
  0
VERTEX
  5
1019
330
100B
100
AcDbEntity
  8
0
  6
Continuous
 62
     7
370
    35
100
AcDbVertex
100
AcDb2dVertex
 10
576.0880178221426
 20
-124.4512867258531
 30
0.0
  0
VERTEX
  5
101A
330
100B
100
AcDbEntity
  8
0
  6
Continuous
 62
     7
370
    35
100
AcDbVertex
100
AcDb2dVertex
 10
576.1293405302729
 20
-124.4006126450041
 30
0.0
  0
VERTEX
  5
101B
330
100B
100
AcDbEntity
  8
0
  6
Continuous
 62
     7
370
    35
100
AcDbVertex
100
AcDb2dVertex
 10
576.1672276266778
 20
-124.3473207281571
 30
0.0
  0
VERTEX
  5
101C
330
100B
100
AcDbEntity
  8
0
  6
Continuous
 62
     7
370
    35
100
AcDbVertex
100
AcDb2dVertex
 10
576.2015765913687
 20
-124.2916660831909
 30
0.0
  0
VERTEX
  5
101D
330
100B
100
AcDbEntity
  8
0
  6
Continuous
 62
     7
370
    35
100
AcDbVertex
100
AcDb2dVertex
 10
576.2322801359856
 20
-124.2339038179856
 30
0.0
  0
VERTEX
  5
101E
330
100B
100
AcDbEntity
  8
0
  6
Continuous
 62
     7
370
    35
100
AcDbVertex
100
AcDb2dVertex
 10
576.2592333563532
 20
-124.1742890404204
 30
0.0
  0
VERTEX
  5
101F
330
100B
100
AcDbEntity
  8
0
  6
Continuous
 62
     7
370
    35
100
AcDbVertex
100
AcDb2dVertex
 10
576.2823289641106
 20
-124.1130774544221
 30
0.0
  0
VERTEX
  5
1020
330
100B
100
AcDbEntity
  8
0
  6
Continuous
 62
     7
370
    35
100
AcDbVertex
100
AcDb2dVertex
 10
576.3014620550832
 20
-124.0505223797302
 30
0.0
  0
VERTEX
  5
1021
330
100B
100
AcDbEntity
  8
0
  6
Continuous
 62
     7
370
    35
100
AcDbVertex
100
AcDb2dVertex
 10
576.3165277250971
 20
-123.9868807123643
 30
0.0
  0
VERTEX
  5
1022
330
100B
100
AcDbEntity
  8
0
  6
Continuous
 62
     7
370
    35
100
AcDbVertex
100
AcDb2dVertex
 10
576.3274186857905
 20
-123.9224063681106
 30
0.0
  0
VERTEX
  5
1023
330
100B
100
AcDbEntity
  8
0
  6
Continuous
 62
     7
370
    35
100
AcDbVertex
100
AcDb2dVertex
 10
576.3340324171747
 20
-123.8573550508958
 30
0.0
  0
VERTEX
  5
1024
330
100B
100
AcDbEntity
  8
0
  6
Continuous
 62
     7
370
    35
100
AcDbVertex
100
AcDb2dVertex
 10
576.3362592467029
 20
-123.7919812725525
 30
0.0
  0
SEQEND
  5
1025
330
100B
100
AcDbEntity
  8
0
  6
Continuous
 62
     7
370
    35
  0
POLYLINE
  5
1026
330
1F
100
AcDbEntity
  8
0
  6
Continuous
 62
     7
370
    35
100
AcDb2dPolyline
 66
     1
 10
0.0
 20
0.0
 30
0.0
  0
VERTEX
  5
1027
330
1026
100
AcDbEntity
  8
0
  6
Continuous
 62
     7
370
    35
100
AcDbVertex
100
AcDb2dVertex
 10
577.5969189413753
 20
-125.7919811533433
 30
0.0
  0
VERTEX
  5
1028
330
1026
100
AcDbEntity
  8
0
  6
Continuous
 62
     7
370
    35
100
AcDbVertex
100
AcDb2dVertex
 10
577.5599831351008
 20
-125.7919811533433
 30
0.0
  0
VERTEX
  5
1029
330
1026
100
AcDbEntity
  8
0
  6
Continuous
 62
     7
370
    35
100
AcDbVertex
100
AcDb2dVertex
 10
577.5225991018976
 20
-125.7919811533433
 30
0.0
  0
VERTEX
  5
102A
330
1026
100
AcDbEntity
  8
0
  6
Continuous
 62
     7
370
    35
100
AcDbVertex
100
AcDb2dVertex
 10
577.4842232474052
 20
-125.7919811533433
 30
0.0
  0
VERTEX
  5
102B
330
1026
100
AcDbEntity
  8
0
  6
Continuous
 62
     7
370
    35
100
AcDbVertex
100
AcDb2dVertex
 10
577.4455827482902
 20
-125.7919811533433
 30
0.0
  0
VERTEX
  5
102C
330
1026
100
AcDbEntity
  8
0
  6
Continuous
 62
     7
370
    35
100
AcDbVertex
100
AcDb2dVertex
 10
577.4061220892632
 20
-125.7919811533433
 30
0.0
  0
VERTEX
  5
102D
330
1026
100
AcDbEntity
  8
0
  6
Continuous
 62
     7
370
    35
100
AcDbVertex
100
AcDb2dVertex
 10
577.3658460386957
 20
-125.7919811533433
 30
0.0
  0
VERTEX
  5
102E
330
1026
100
AcDbEntity
  8
0
  6
Continuous
 62
     7
370
    35
100
AcDbVertex
100
AcDb2dVertex
 10
577.3252481230461
 20
-125.7919811533433
 30
0.0
  0
VERTEX
  5
102F
330
1026
100
AcDbEntity
  8
0
  6
Continuous
 62
     7
370
    35
100
AcDbVertex
100
AcDb2dVertex
 10
577.2839707144465
 20
-125.7919811533433
 30
0.0
  0
VERTEX
  5
1030
330
1026
100
AcDbEntity
  8
0
  6
Continuous
 62
     7
370
    35
100
AcDbVertex
100
AcDb2dVertex
 10
577.2420114287102
 20
-125.7919811533433
 30
0.0
  0
VERTEX
  5
1031
330
1026
100
AcDbEntity
  8
0
  6
Continuous
 62
     7
370
    35
100
AcDbVertex
100
AcDb2dVertex
 10
577.1993702658376
 20
-125.7919811533433
 30
0.0
  0
VERTEX
  5
1032
330
1026
100
AcDbEntity
  8
0
  6
Continuous
 62
     7
370
    35
100
AcDbVertex
100
AcDb2dVertex
 10
577.1560472258292
 20
-125.7919811533433
 30
0.0
  0
VERTEX
  5
1033
330
1026
100
AcDbEntity
  8
0
  6
Continuous
 62
     7
370
    35
100
AcDbVertex
100
AcDb2dVertex
 10
577.1120446928704
 20
-125.7919811533433
 30
0.0
  0
VERTEX
  5
1034
330
1026
100
AcDbEntity
  8
0
  6
Continuous
 62
     7
370
    35
100
AcDbVertex
100
AcDb2dVertex
 10
577.0677179106439
 20
-125.7919811533433
 30
0.0
  0
VERTEX
  5
1035
330
1026
100
AcDbEntity
  8
0
  6
Continuous
 62
     7
370
    35
100
AcDbVertex
100
AcDb2dVertex
 10
577.0226353415218
 20
-125.7919811533433
 30
0.0
  0
VERTEX
  5
1036
330
1026
100
AcDbEntity
  8
0
  6
Continuous
 62
     7
370
    35
100
AcDbVertex
100
AcDb2dVertex
 10
576.9767946013176
 20
-125.7919811533433
 30
0.0
  0
VERTEX
  5
1037
330
1026
100
AcDbEntity
  8
0
  6
Continuous
 62
     7
370
    35
100
AcDbVertex
100
AcDb2dVertex
 10
576.9302433737482
 20
-125.7919811533433
 30
0.0
  0
VERTEX
  5
1038
330
1026
100
AcDbEntity
  8
0
  6
Continuous
 62
     7
370
    35
100
AcDbVertex
100
AcDb2dVertex
 10
576.8834179648122
 20
-125.7919811533433
 30
0.0
  0
VERTEX
  5
1039
330
1026
100
AcDbEntity
  8
0
  6
Continuous
 62
     7
370
    35
100
AcDbVertex
100
AcDb2dVertex
 10
576.8357247122492
 20
-125.7919811533433
 30
0.0
  0
VERTEX
  5
103A
330
1026
100
AcDbEntity
  8
0
  6
Continuous
 62
     7
370
    35
100
AcDbVertex
100
AcDb2dVertex
 10
576.7872470625603
 20
-125.7919811533433
 30
0.0
  0
VERTEX
  5
103B
330
1026
100
AcDbEntity
  8
0
  6
Continuous
 62
     7
370
    35
100
AcDbVertex
100
AcDb2dVertex
 10
576.7384737738336
 20
-125.7919811533433
 30
0.0
  0
VERTEX
  5
103C
330
1026
100
AcDbEntity
  8
0
  6
Continuous
 62
     7
370
    35
100
AcDbVertex
100
AcDb2dVertex
 10
576.6889876135552
 20
-125.7919811533433
 30
0.0
  0
VERTEX
  5
103D
330
1026
100
AcDbEntity
  8
0
  6
Continuous
 62
     7
370
    35
100
AcDbVertex
100
AcDb2dVertex
 10
576.6387885817254
 20
-125.7919811533433
 30
0.0
  0
VERTEX
  5
103E
330
1026
100
AcDbEntity
  8
0
  6
Continuous
 62
     7
370
    35
100
AcDbVertex
100
AcDb2dVertex
 10
576.5878814467157
 20
-125.7919811533433
 30
0.0
  0
VERTEX
  5
103F
330
1026
100
AcDbEntity
  8
0
  6
Continuous
 62
     7
370
    35
100
AcDbVertex
100
AcDb2dVertex
 10
576.5362590559687
 20
-125.7919811533433
 30
0.0
  0
SEQEND
  5
1040
330
1026
100
AcDbEntity
  8
0
  6
Continuous
 62
     7
370
    35
  0
POLYLINE
  5
1041
330
1F
100
AcDbEntity
  8
0
  6
Continuous
 62
     7
370
    35
100
AcDb2dPolyline
 66
     1
 10
0.0
 20
0.0
 30
0.0
  0
VERTEX
  5
1042
330
1041
100
AcDbEntity
  8
0
  6
Continuous
 62
     7
370
    35
100
AcDbVertex
100
AcDb2dVertex
 10
578.6575788267818
 20
-125.7919811533433
 30
0.0
  0
VERTEX
  5
1043
330
1041
100
AcDbEntity
  8
0
  6
Continuous
 62
     7
370
    35
100
AcDbVertex
100
AcDb2dVertex
 10
578.6133855589593
 20
-125.7919811533433
 30
0.0
  0
VERTEX
  5
1044
330
1041
100
AcDbEntity
  8
0
  6
Continuous
 62
     7
370
    35
100
AcDbVertex
100
AcDb2dVertex
 10
578.5691899069512
 20
-125.7919811533433
 30
0.0
  0
VERTEX
  5
1045
330
1041
100
AcDbEntity
  8
0
  6
Continuous
 62
     7
370
    35
100
AcDbVertex
100
AcDb2dVertex
 10
578.5249966391289
 20
-125.7919811533433
 30
0.0
  0
VERTEX
  5
1046
330
1041
100
AcDbEntity
  8
0
  6
Continuous
 62
     7
370
    35
100
AcDbVertex
100
AcDb2dVertex
 10
578.4808033713066
 20
-125.7919811533433
 30
0.0
  0
VERTEX
  5
1047
330
1041
100
AcDbEntity
  8
0
  6
Continuous
 62
     7
370
    35
100
AcDbVertex
100
AcDb2dVertex
 10
578.4366077192987
 20
-125.7919811533433
 30
0.0
  0
VERTEX
  5
1048
330
1041
100
AcDbEntity
  8
0
  6
Continuous
 62
     7
370
    35
100
AcDbVertex
100
AcDb2dVertex
 10
578.3924144514765
 20
-125.7919811533433
 30
0.0
  0
VERTEX
  5
1049
330
1041
100
AcDbEntity
  8
0
  6
Continuous
 62
     7
370
    35
100
AcDbVertex
100
AcDb2dVertex
 10
578.3482211836542
 20
-125.7919811533433
 30
0.0
  0
VERTEX
  5
104A
330
1041
100
AcDbEntity
  8
0
  6
Continuous
 62
     7
370
    35
100
AcDbVertex
100
AcDb2dVertex
 10
578.3040255316461
 20
-125.7919811533433
 30
0.0
  0
VERTEX
  5
104B
330
1041
100
AcDbEntity
  8
0
  6
Continuous
 62
     7
370
    35
100
AcDbVertex
100
AcDb2dVertex
 10
578.2598322638238
 20
-125.7919811533433
 30
0.0
  0
VERTEX
  5
104C
330
1041
100
AcDbEntity
  8
0
  6
Continuous
 62
     7
370
    35
100
AcDbVertex
100
AcDb2dVertex
 10
578.2156366118157
 20
-125.7919811533433
 30
0.0
  0
VERTEX
  5
104D
330
1041
100
AcDbEntity
  8
0
  6
Continuous
 62
     7
370
    35
100
AcDbVertex
100
AcDb2dVertex
 10
578.1714433439936
 20
-125.7919811533433
 30
0.0
  0
VERTEX
  5
104E
330
1041
100
AcDbEntity
  8
0
  6
Continuous
 62
     7
370
    35
100
AcDbVertex
100
AcDb2dVertex
 10
578.1272500761712
 20
-125.7919811533433
 30
0.0
  0
VERTEX
  5
104F
330
1041
100
AcDbEntity
  8
0
  6
Continuous
 62
     7
370
    35
100
AcDbVertex
100
AcDb2dVertex
 10
578.0830544241633
 20
-125.7919811533433
 30
0.0
  0
VERTEX
  5
1050
330
1041
100
AcDbEntity
  8
0
  6
Continuous
 62
     7
370
    35
100
AcDbVertex
100
AcDb2dVertex
 10
578.0388611563409
 20
-125.7919811533433
 30
0.0
  0
VERTEX
  5
1051
330
1041
100
AcDbEntity
  8
0
  6
Continuous
 62
     7
370
    35
100
AcDbVertex
100
AcDb2dVertex
 10
577.9946655043326
 20
-125.7919811533433
 30
0.0
  0
VERTEX
  5
1052
330
1041
100
AcDbEntity
  8
0
  6
Continuous
 62
     7
370
    35
100
AcDbVertex
100
AcDb2dVertex
 10
577.9504722365102
 20
-125.7919811533433
 30
0.0
  0
VERTEX
  5
1053
330
1041
100
AcDbEntity
  8
0
  6
Continuous
 62
     7
370
    35
100
AcDbVertex
100
AcDb2dVertex
 10
577.9062789686882
 20
-125.7919811533433
 30
0.0
  0
VERTEX
  5
1054
330
1041
100
AcDbEntity
  8
0
  6
Continuous
 62
     7
370
    35
100
AcDbVertex
100
AcDb2dVertex
 10
577.8620833166804
 20
-125.7919811533433
 30
0.0
  0
VERTEX
  5
1055
330
1041
100
AcDbEntity
  8
0
  6
Continuous
 62
     7
370
    35
100
AcDbVertex
100
AcDb2dVertex
 10
577.8178900488581
 20
-125.7919811533433
 30
0.0
  0
VERTEX
  5
1056
330
1041
100
AcDbEntity
  8
0
  6
Continuous
 62
     7
370
    35
100
AcDbVertex
100
AcDb2dVertex
 10
577.7736967810357
 20
-125.7919811533433
 30
0.0
  0
VERTEX
  5
1057
330
1041
100
AcDbEntity
  8
0
  6
Continuous
 62
     7
370
    35
100
AcDbVertex
100
AcDb2dVertex
 10
577.7295011290277
 20
-125.7919811533433
 30
0.0
  0
VERTEX
  5
1058
330
1041
100
AcDbEntity
  8
0
  6
Continuous
 62
     7
370
    35
100
AcDbVertex
100
AcDb2dVertex
 10
577.6853078612055
 20
-125.7919811533433
 30
0.0
  0
VERTEX
  5
1059
330
1041
100
AcDbEntity
  8
0
  6
Continuous
 62
     7
370
    35
100
AcDbVertex
100
AcDb2dVertex
 10
577.6411122091972
 20
-125.7919811533433
 30
0.0
  0
VERTEX
  5
105A
330
1041
100
AcDbEntity
  8
0
  6
Continuous
 62
     7
370
    35
100
AcDbVertex
100
AcDb2dVertex
 10
577.5969189413753
 20
-125.7919811533433
 30
0.0
  0
SEQEND
  5
105B
330
1041
100
AcDbEntity
  8
0
  6
Continuous
 62
     7
370
    35
  0
LINE
  5
105C
330
1F
100
AcDbEntity
  8
0
  6
Continuous
 62
     7
370
    35
100
AcDbLine
 10
586.0575793036188
 20
-123.9919811533432
 30
0.0
 11
587.1575793036186
 21
-123.9919811533432
 31
0.0
  0
LINE
  5
105D
330
1F
100
AcDbEntity
  8
0
  6
Continuous
 62
     7
370
    35
100
AcDbLine
 10
586.0575793036188
 20
-124.2919811533433
 30
0.0
 11
586.0575793036188
 21
-123.9919811533432
 31
0.0
  0
LINE
  5
105E
330
1F
100
AcDbEntity
  8
0
  6
Continuous
 62
     7
370
    35
100
AcDbLine
 10
587.1575793036169
 20
-125.7919811533433
 30
0.0
 11
587.1575793036169
 21
-123.9919811533432
 31
0.0
  0
LINE
  5
105F
330
1F
100
AcDbEntity
  8
0
  6
Continuous
 62
     7
370
    35
100
AcDbLine
 10
586.9140502330286
 20
-123.9919811533432
 30
0.0
 11
586.9140502330286
 21
-125.7919811533433
 31
0.0
  0
LINE
  5
1060
330
1F
100
AcDbEntity
  8
0
  6
Continuous
 62
     7
370
    35
100
AcDbLine
 10
586.1575793036187
 20
-124.2919811533433
 30
0.0
 11
586.1575793036187
 21
-123.9919811533432
 31
0.0
  0
LINE
  5
1061
330
1F
100
AcDbEntity
  8
0
  6
Continuous
 62
     7
370
    35
100
AcDbLine
 10
586.1575793036187
 20
-123.9919811533432
 30
0.0
 11
586.9140502330286
 21
-123.9919811533432
 31
0.0
  0
POLYLINE
  5
1062
330
1F
100
AcDbEntity
  8
0
  6
Continuous
 62
     7
370
    35
100
AcDb2dPolyline
 66
     1
 10
0.0
 20
0.0
 30
0.0
  0
VERTEX
  5
1063
330
1062
100
AcDbEntity
  8
0
  6
Continuous
 62
     7
370
    35
100
AcDbVertex
100
AcDb2dVertex
 10
587.157580257293
 20
-125.7919811533433
 30
0.0
  0
VERTEX
  5
1064
330
1062
100
AcDbEntity
  8
0
  6
Continuous
 62
     7
370
    35
100
AcDbVertex
100
AcDb2dVertex
 10
587.1474331625662
 20
-125.7919811533433
 30
0.0
  0
VERTEX
  5
1065
330
1062
100
AcDbEntity
  8
0
  6
Continuous
 62
     7
370
    35
100
AcDbVertex
100
AcDb2dVertex
 10
587.13728606784
 20
-125.7919811533433
 30
0.0
  0
VERTEX
  5
1066
330
1062
100
AcDbEntity
  8
0
  6
Continuous
 62
     7
370
    35
100
AcDbVertex
100
AcDb2dVertex
 10
587.1271389731132
 20
-125.7919811533433
 30
0.0
  0
VERTEX
  5
1067
330
1062
100
AcDbEntity
  8
0
  6
Continuous
 62
     7
370
    35
100
AcDbVertex
100
AcDb2dVertex
 10
587.1169918783867
 20
-125.7919811533433
 30
0.0
  0
VERTEX
  5
1068
330
1062
100
AcDbEntity
  8
0
  6
Continuous
 62
     7
370
    35
100
AcDbVertex
100
AcDb2dVertex
 10
587.1068447836602
 20
-125.7919811533433
 30
0.0
  0
VERTEX
  5
1069
330
1062
100
AcDbEntity
  8
0
  6
Continuous
 62
     7
370
    35
100
AcDbVertex
100
AcDb2dVertex
 10
587.0966976889336
 20
-125.7919811533433
 30
0.0
  0
VERTEX
  5
106A
330
1062
100
AcDbEntity
  8
0
  6
Continuous
 62
     7
370
    35
100
AcDbVertex
100
AcDb2dVertex
 10
587.0865505942072
 20
-125.7919811533433
 30
0.0
  0
VERTEX
  5
106B
330
1062
100
AcDbEntity
  8
0
  6
Continuous
 62
     7
370
    35
100
AcDbVertex
100
AcDb2dVertex
 10
587.0764034994805
 20
-125.7919811533433
 30
0.0
  0
VERTEX
  5
106C
330
1062
100
AcDbEntity
  8
0
  6
Continuous
 62
     7
370
    35
100
AcDbVertex
100
AcDb2dVertex
 10
587.0662564047541
 20
-125.7919811533433
 30
0.0
  0
VERTEX
  5
106D
330
1062
100
AcDbEntity
  8
0
  6
Continuous
 62
     7
370
    35
100
AcDbVertex
100
AcDb2dVertex
 10
587.0561093100274
 20
-125.7919811533433
 30
0.0
  0
VERTEX
  5
106E
330
1062
100
AcDbEntity
  8
0
  6
Continuous
 62
     7
370
    35
100
AcDbVertex
100
AcDb2dVertex
 10
587.0459622153007
 20
-125.7919811533433
 30
0.0
  0
VERTEX
  5
106F
330
1062
100
AcDbEntity
  8
0
  6
Continuous
 62
     7
370
    35
100
AcDbVertex
100
AcDb2dVertex
 10
587.0358151205742
 20
-125.7919811533433
 30
0.0
  0
VERTEX
  5
1070
330
1062
100
AcDbEntity
  8
0
  6
Continuous
 62
     7
370
    35
100
AcDbVertex
100
AcDb2dVertex
 10
587.0256680258477
 20
-125.7919811533433
 30
0.0
  0
VERTEX
  5
1071
330
1062
100
AcDbEntity
  8
0
  6
Continuous
 62
     7
370
    35
100
AcDbVertex
100
AcDb2dVertex
 10
587.0155209311211
 20
-125.7919811533433
 30
0.0
  0
VERTEX
  5
1072
330
1062
100
AcDbEntity
  8
0
  6
Continuous
 62
     7
370
    35
100
AcDbVertex
100
AcDb2dVertex
 10
587.0053738363947
 20
-125.7919811533433
 30
0.0
  0
VERTEX
  5
1073
330
1062
100
AcDbEntity
  8
0
  6
Continuous
 62
     7
370
    35
100
AcDbVertex
100
AcDb2dVertex
 10
586.995226741668
 20
-125.7919811533433
 30
0.0
  0
VERTEX
  5
1074
330
1062
100
AcDbEntity
  8
0
  6
Continuous
 62
     7
370
    35
100
AcDbVertex
100
AcDb2dVertex
 10
586.9850796469416
 20
-125.7919811533433
 30
0.0
  0
VERTEX
  5
1075
330
1062
100
AcDbEntity
  8
0
  6
Continuous
 62
     7
370
    35
100
AcDbVertex
100
AcDb2dVertex
 10
586.9749325522149
 20
-125.7919811533433
 30
0.0
  0
VERTEX
  5
1076
330
1062
100
AcDbEntity
  8
0
  6
Continuous
 62
     7
370
    35
100
AcDbVertex
100
AcDb2dVertex
 10
586.9647854574885
 20
-125.7919811533433
 30
0.0
  0
VERTEX
  5
1077
330
1062
100
AcDbEntity
  8
0
  6
Continuous
 62
     7
370
    35
100
AcDbVertex
100
AcDb2dVertex
 10
586.9546383627618
 20
-125.7919811533433
 30
0.0
  0
VERTEX
  5
1078
330
1062
100
AcDbEntity
  8
0
  6
Continuous
 62
     7
370
    35
100
AcDbVertex
100
AcDb2dVertex
 10
586.9444912680352
 20
-125.7919811533433
 30
0.0
  0
VERTEX
  5
1079
330
1062
100
AcDbEntity
  8
0
  6
Continuous
 62
     7
370
    35
100
AcDbVertex
100
AcDb2dVertex
 10
586.9343441733086
 20
-125.7919811533433
 30
0.0
  0
VERTEX
  5
107A
330
1062
100
AcDbEntity
  8
0
  6
Continuous
 62
     7
370
    35
100
AcDbVertex
100
AcDb2dVertex
 10
586.9241970785822
 20
-125.7919811533433
 30
0.0
  0
VERTEX
  5
107B
330
1062
100
AcDbEntity
  8
0
  6
Continuous
 62
     7
370
    35
100
AcDbVertex
100
AcDb2dVertex
 10
586.9140499838557
 20
-125.7919811533433
 30
0.0
  0
SEQEND
  5
107C
330
1062
100
AcDbEntity
  8
0
  6
Continuous
 62
     7
370
    35
  0
LINE
  5
107D
330
1F
100
AcDbEntity
  8
0
  6
Continuous
 62
     7
370
    35
100
AcDbLine
 10
589.1575793036187
 20
-123.7419811533432
 30
0.0
 11
587.1575793036186
 21
-123.7419811533432
 31
0.0
  0
CIRCLE
  5
107E
330
1F
100
AcDbEntity
  8
0
  6
Continuous
 62
     7
370
    35
100
AcDbCircle
 10
581.9575793036188
 20
-120.2919811533432
 30
0.0
 40
2.549999999999998
  0
CIRCLE
  5
107F
330
1F
100
AcDbEntity
  8
0
  6
Continuous
 62
     7
370
    35
100
AcDbCircle
 10
581.9575793036188
 20
-114.4919811533432
 30
0.0
 40
2.549999999999998
  0
LINE
  5
1080
330
1F
100
AcDbEntity
  8
0
  6
Continuous
 62
     7
370
    35
100
AcDbLine
 10
578.6575793036186
 20
-114.5419811533433
 30
0.0
 11
578.9575793036187
 21
-114.5419811533433
 31
0.0
  0
LINE
  5
1081
330
1F
100
AcDbEntity
  8
0
  6
Continuous
 62
     7
370
    35
100
AcDbLine
 10
578.9575793036187
 20
-122.0919811533432
 30
0.0
 11
578.6575793036186
 21
-122.0919811533432
 31
0.0
  0
LINE
  5
1082
330
1F
100
AcDbEntity
  8
0
  6
Continuous
 62
     7
370
    35
100
AcDbLine
 10
589.1575793036187
 20
-116.9419811533429
 30
0.0
 11
589.1575793036187
 21
-117.9419811533432
 31
0.0
  0
LINE
  5
1083
330
1F
100
AcDbEntity
  8
0
  6
Continuous
 62
     7
370
    35
100
AcDbLine
 10
589.1575793036187
 20
-111.1419811533433
 30
0.0
 11
589.1575793036187
 21
-112.1419811533433
 31
0.0
  0
LINE
  5
1084
330
1F
100
AcDbEntity
  8
0
  6
Continuous
 62
     7
370
    35
100
AcDbLine
 10
587.1575793036186
 20
-114.5419811533429
 30
0.0
 11
587.2908834335587
 21
-114.5419811533429
 31
0.0
  0
LINE
  5
1085
330
1F
100
AcDbEntity
  8
0
  6
Continuous
 62
     7
370
    35
100
AcDbLine
 10
587.2908834335587
 20
-117.9419811533432
 30
0.0
 11
587.2908834335587
 21
-122.0919811533429
 31
0.0
  0
LINE
  5
1086
330
1F
100
AcDbEntity
  8
0
  6
Continuous
 62
     7
370
    35
100
AcDbLine
 10
587.2908834335587
 20
-112.1419811533433
 30
0.0
 11
587.2908834335587
 21
-116.9419811533429
 31
0.0
  0
LINE
  5
1087
330
1F
100
AcDbEntity
  8
0
  6
Continuous
 62
     7
370
    35
100
AcDbLine
 10
587.2908834335587
 20
-122.0919811533429
 30
0.0
 11
587.1575793036186
 21
-122.0919811533429
 31
0.0
  0
LINE
  5
1088
330
1F
100
AcDbEntity
  8
0
  6
Continuous
 62
     7
370
    35
100
AcDbLine
 10
587.1575793036186
 20
-122.7419811533432
 30
0.0
 11
589.1575793036187
 21
-122.7419811533432
 31
0.0
  0
LINE
  5
1089
330
1F
100
AcDbEntity
  8
0
  6
Continuous
 62
     7
370
    35
100
AcDbLine
 10
587.1575793036186
 20
-116.9419811533429
 30
0.0
 11
589.1575793036187
 21
-116.9419811533429
 31
0.0
  0
LINE
  5
108A
330
1F
100
AcDbEntity
  8
0
  6
Continuous
 62
     7
370
    35
100
AcDbLine
 10
589.1575793036187
 20
-117.9419811533432
 30
0.0
 11
587.1575793036186
 21
-117.9419811533432
 31
0.0
  0
LINE
  5
108B
330
1F
100
AcDbEntity
  8
0
  6
Continuous
 62
     7
370
    35
100
AcDbLine
 10
587.1575793036186
 20
-111.1419811533433
 30
0.0
 11
589.1575793036187
 21
-111.1419811533433
 31
0.0
  0
LINE
  5
108C
330
1F
100
AcDbEntity
  8
0
  6
Continuous
 62
     7
370
    35
100
AcDbLine
 10
589.1575793036187
 20
-112.1419811533433
 30
0.0
 11
587.1575793036186
 21
-112.1419811533433
 31
0.0
  0
LINE
  5
108D
330
1F
100
AcDbEntity
  8
0
  6
Continuous
 62
     7
370
    35
100
AcDbLine
 10
597.4908834335586
 20
-122.7419811533429
 30
0.0
 11
597.4908834335586
 21
-123.7419811533429
 31
0.0
  0
LINE
  5
108E
330
1F
100
AcDbEntity
  8
0
  6
Continuous
 62
     7
370
    35
100
AcDbLine
 10
594.3908834335587
 20
-123.991981153343
 30
0.0
 11
595.4908834335586
 21
-123.991981153343
 31
0.0
  0
LINE
  5
108F
330
1F
100
AcDbEntity
  8
0
  6
Continuous
 62
     7
370
    35
100
AcDbLine
 10
594.3908834335587
 20
-124.2919811533431
 30
0.0
 11
594.3908834335587
 21
-123.991981153343
 31
0.0
  0
LINE
  5
1090
330
1F
100
AcDbEntity
  8
0
  6
Continuous
 62
     7
370
    35
100
AcDbLine
 10
597.4908834335586
 20
-123.7419811533429
 30
0.0
 11
595.4908834335586
 21
-123.7419811533429
 31
0.0
  0
LINE
  5
1091
330
1F
100
AcDbEntity
  8
0
  6
Continuous
 62
     7
370
    35
100
AcDbLine
 10
594.4873924205687
 20
-123.9919811533432
 30
0.0
 11
595.4926289400482
 21
-123.9919811533432
 31
0.0
  0
LINE
  5
1092
330
1F
100
AcDbEntity
  8
0
  6
Continuous
 62
     7
370
    35
100
AcDbLine
 10
594.4873924205687
 20
-124.0919811533429
 30
0.0
 11
594.3908834335587
 21
-124.0919811533429
 31
0.0
  0
LINE
  5
1093
330
1F
100
AcDbEntity
  8
0
  6
Continuous
 62
     7
370
    35
100
AcDbLine
 10
594.4873924205687
 20
-124.2919811533433
 30
0.0
 11
594.4873924205687
 21
-123.9919811533432
 31
0.0
  0
POLYLINE
  5
1094
330
1F
100
AcDbEntity
  8
0
  6
Continuous
 62
     7
370
    35
100
AcDb2dPolyline
 66
     1
 10
0.0
 20
0.0
 30
0.0
  0
VERTEX
  5
1095
330
1094
100
AcDbEntity
  8
0
  6
Continuous
 62
     7
370
    35
100
AcDbVertex
100
AcDb2dVertex
 10
595.496992469665
 20
-123.7419813202363
 30
0.0
  0
VERTEX
  5
1096
330
1094
100
AcDbEntity
  8
0
  6
Continuous
 62
     7
370
    35
100
AcDbVertex
100
AcDb2dVertex
 10
595.4968112715447
 20
-123.7523978279572
 30
0.0
  0
VERTEX
  5
1097
330
1094
100
AcDbEntity
  8
0
  6
Continuous
 62
     7
370
    35
100
AcDbVertex
100
AcDb2dVertex
 10
595.4966300734247
 20
-123.7628143356781
 30
0.0
  0
VERTEX
  5
1098
330
1094
100
AcDbEntity
  8
0
  6
Continuous
 62
     7
370
    35
100
AcDbVertex
100
AcDb2dVertex
 10
595.4964464911187
 20
-123.7732314394456
 30
0.0
  0
VERTEX
  5
1099
330
1094
100
AcDbEntity
  8
0
  6
Continuous
 62
     7
370
    35
100
AcDbVertex
100
AcDb2dVertex
 10
595.4962652929987
 20
-123.7836479471664
 30
0.0
  0
VERTEX
  5
109A
330
1094
100
AcDbEntity
  8
0
  6
Continuous
 62
     7
370
    35
100
AcDbVertex
100
AcDb2dVertex
 10
595.4960840948785
 20
-123.7940644548874
 30
0.0
  0
VERTEX
  5
109B
330
1094
100
AcDbEntity
  8
0
  6
Continuous
 62
     7
370
    35
100
AcDbVertex
100
AcDb2dVertex
 10
595.4959028967585
 20
-123.8044809626084
 30
0.0
  0
VERTEX
  5
109C
330
1094
100
AcDbEntity
  8
0
  6
Continuous
 62
     7
370
    35
100
AcDbVertex
100
AcDb2dVertex
 10
595.4957193144521
 20
-123.8148980663758
 30
0.0
  0
VERTEX
  5
109D
330
1094
100
AcDbEntity
  8
0
  6
Continuous
 62
     7
370
    35
100
AcDbVertex
100
AcDb2dVertex
 10
595.4955381163322
 20
-123.8253145740968
 30
0.0
  0
VERTEX
  5
109E
330
1094
100
AcDbEntity
  8
0
  6
Continuous
 62
     7
370
    35
100
AcDbVertex
100
AcDb2dVertex
 10
595.4953569182122
 20
-123.8357310818175
 30
0.0
  0
VERTEX
  5
109F
330
1094
100
AcDbEntity
  8
0
  6
Continuous
 62
     7
370
    35
100
AcDbVertex
100
AcDb2dVertex
 10
595.495173335906
 20
-123.8461475895387
 30
0.0
  0
VERTEX
  5
10A0
330
1094
100
AcDbEntity
  8
0
  6
Continuous
 62
     7
370
    35
100
AcDbVertex
100
AcDb2dVertex
 10
595.4949921377862
 20
-123.8565646933061
 30
0.0
  0
VERTEX
  5
10A1
330
1094
100
AcDbEntity
  8
0
  6
Continuous
 62
     7
370
    35
100
AcDbVertex
100
AcDb2dVertex
 10
595.4948109396662
 20
-123.8669812010269
 30
0.0
  0
VERTEX
  5
10A2
330
1094
100
AcDbEntity
  8
0
  6
Continuous
 62
     7
370
    35
100
AcDbVertex
100
AcDb2dVertex
 10
595.4946297415459
 20
-123.8773977087479
 30
0.0
  0
VERTEX
  5
10A3
330
1094
100
AcDbEntity
  8
0
  6
Continuous
 62
     7
370
    35
100
AcDbVertex
100
AcDb2dVertex
 10
595.49444615924
 20
-123.8878142164689
 30
0.0
  0
VERTEX
  5
10A4
330
1094
100
AcDbEntity
  8
0
  6
Continuous
 62
     7
370
    35
100
AcDbVertex
100
AcDb2dVertex
 10
595.4942649611195
 20
-123.8982313202363
 30
0.0
  0
VERTEX
  5
10A5
330
1094
100
AcDbEntity
  8
0
  6
Continuous
 62
     7
370
    35
100
AcDbVertex
100
AcDb2dVertex
 10
595.4940837629997
 20
-123.9086478279572
 30
0.0
  0
VERTEX
  5
10A6
330
1094
100
AcDbEntity
  8
0
  6
Continuous
 62
     7
370
    35
100
AcDbVertex
100
AcDb2dVertex
 10
595.4939025648797
 20
-123.9190643356782
 30
0.0
  0
VERTEX
  5
10A7
330
1094
100
AcDbEntity
  8
0
  6
Continuous
 62
     7
370
    35
100
AcDbVertex
100
AcDb2dVertex
 10
595.4937189825738
 20
-123.9294814394453
 30
0.0
  0
VERTEX
  5
10A8
330
1094
100
AcDbEntity
  8
0
  6
Continuous
 62
     7
370
    35
100
AcDbVertex
100
AcDb2dVertex
 10
595.4935377844536
 20
-123.9398979471665
 30
0.0
  0
VERTEX
  5
10A9
330
1094
100
AcDbEntity
  8
0
  6
Continuous
 62
     7
370
    35
100
AcDbVertex
100
AcDb2dVertex
 10
595.4933565863337
 20
-123.9503144548875
 30
0.0
  0
VERTEX
  5
10AA
330
1094
100
AcDbEntity
  8
0
  6
Continuous
 62
     7
370
    35
100
AcDbVertex
100
AcDb2dVertex
 10
595.4931753882132
 20
-123.9607309626084
 30
0.0
  0
VERTEX
  5
10AB
330
1094
100
AcDbEntity
  8
0
  6
Continuous
 62
     7
370
    35
100
AcDbVertex
100
AcDb2dVertex
 10
595.4929918059075
 20
-123.9711480663757
 30
0.0
  0
VERTEX
  5
10AC
330
1094
100
AcDbEntity
  8
0
  6
Continuous
 62
     7
370
    35
100
AcDbVertex
100
AcDb2dVertex
 10
595.4928106077874
 20
-123.9815645740967
 30
0.0
  0
VERTEX
  5
10AD
330
1094
100
AcDbEntity
  8
0
  6
Continuous
 62
     7
370
    35
100
AcDbVertex
100
AcDb2dVertex
 10
595.4926294096672
 20
-123.9919810818177
 30
0.0
  0
SEQEND
  5
10AE
330
1094
100
AcDbEntity
  8
0
  6
Continuous
 62
     7
370
    35
  0
POLYLINE
  5
10AF
330
1F
100
AcDbEntity
  8
0
  6
Continuous
 62
     7
370
    35
100
AcDb2dPolyline
 66
     1
 10
0.0
 20
0.0
 30
0.0
  0
VERTEX
  5
10B0
330
10AF
100
AcDbEntity
  8
0
  6
Continuous
 62
     7
370
    35
100
AcDbVertex
100
AcDb2dVertex
 10
595.4926294096672
 20
-123.9919810818177
 30
0.0
  0
VERTEX
  5
10B1
330
10AF
100
AcDbEntity
  8
0
  6
Continuous
 62
     7
370
    35
100
AcDbVertex
100
AcDb2dVertex
 10
595.491320491668
 20
-124.066981010292
 30
0.0
  0
VERTEX
  5
10B2
330
10AF
100
AcDbEntity
  8
0
  6
Continuous
 62
     7
370
    35
100
AcDbVertex
100
AcDb2dVertex
 10
595.4900115736688
 20
-124.1419809387666
 30
0.0
  0
VERTEX
  5
10B3
330
10AF
100
AcDbEntity
  8
0
  6
Continuous
 62
     7
370
    35
100
AcDbVertex
100
AcDb2dVertex
 10
595.4887026556696
 20
-124.216980867241
 30
0.0
  0
VERTEX
  5
10B4
330
10AF
100
AcDbEntity
  8
0
  6
Continuous
 62
     7
370
    35
100
AcDbVertex
100
AcDb2dVertex
 10
595.4873913534846
 20
-124.2919813917619
 30
0.0
  0
VERTEX
  5
10B5
330
10AF
100
AcDbEntity
  8
0
  6
Continuous
 62
     7
370
    35
100
AcDbVertex
100
AcDb2dVertex
 10
595.4860824354851
 20
-124.3669813202363
 30
0.0
  0
VERTEX
  5
10B6
330
10AF
100
AcDbEntity
  8
0
  6
Continuous
 62
     7
370
    35
100
AcDbVertex
100
AcDb2dVertex
 10
595.4847735174856
 20
-124.4419812487107
 30
0.0
  0
VERTEX
  5
10B7
330
10AF
100
AcDbEntity
  8
0
  6
Continuous
 62
     7
370
    35
100
AcDbVertex
100
AcDb2dVertex
 10
595.4834645994867
 20
-124.5169811771851
 30
0.0
  0
VERTEX
  5
10B8
330
10AF
100
AcDbEntity
  8
0
  6
Continuous
 62
     7
370
    35
100
AcDbVertex
100
AcDb2dVertex
 10
595.4821556814875
 20
-124.5919811056596
 30
0.0
  0
VERTEX
  5
10B9
330
10AF
100
AcDbEntity
  8
0
  6
Continuous
 62
     7
370
    35
100
AcDbVertex
100
AcDb2dVertex
 10
595.4808467634882
 20
-124.6669816301803
 30
0.0
  0
VERTEX
  5
10BA
330
10AF
100
AcDbEntity
  8
0
  6
Continuous
 62
     7
370
    35
100
AcDbVertex
100
AcDb2dVertex
 10
595.4795378454887
 20
-124.7419809626084
 30
0.0
  0
VERTEX
  5
10BB
330
10AF
100
AcDbEntity
  8
0
  6
Continuous
 62
     7
370
    35
100
AcDbVertex
100
AcDb2dVertex
 10
595.4782289274898
 20
-124.8169814871292
 30
0.0
  0
VERTEX
  5
10BC
330
10AF
100
AcDbEntity
  8
0
  6
Continuous
 62
     7
370
    35
100
AcDbVertex
100
AcDb2dVertex
 10
595.4769200094903
 20
-124.8919808195573
 30
0.0
  0
VERTEX
  5
10BD
330
10AF
100
AcDbEntity
  8
0
  6
Continuous
 62
     7
370
    35
100
AcDbVertex
100
AcDb2dVertex
 10
595.475611091491
 20
-124.9669813440781
 30
0.0
  0
VERTEX
  5
10BE
330
10AF
100
AcDbEntity
  8
0
  6
Continuous
 62
     7
370
    35
100
AcDbVertex
100
AcDb2dVertex
 10
595.4743021734919
 20
-125.041980676506
 30
0.0
  0
VERTEX
  5
10BF
330
10AF
100
AcDbEntity
  8
0
  6
Continuous
 62
     7
370
    35
100
AcDbVertex
100
AcDb2dVertex
 10
595.4729908713066
 20
-125.1169812010269
 30
0.0
  0
VERTEX
  5
10C0
330
10AF
100
AcDbEntity
  8
0
  6
Continuous
 62
     7
370
    35
100
AcDbVertex
100
AcDb2dVertex
 10
595.4716819533071
 20
-125.1919817255479
 30
0.0
  0
VERTEX
  5
10C1
330
10AF
100
AcDbEntity
  8
0
  6
Continuous
 62
     7
370
    35
100
AcDbVertex
100
AcDb2dVertex
 10
595.4703730353081
 20
-125.2669810579757
 30
0.0
  0
VERTEX
  5
10C2
330
10AF
100
AcDbEntity
  8
0
  6
Continuous
 62
     7
370
    35
100
AcDbVertex
100
AcDb2dVertex
 10
595.4690641173089
 20
-125.3419815824964
 30
0.0
  0
VERTEX
  5
10C3
330
10AF
100
AcDbEntity
  8
0
  6
Continuous
 62
     7
370
    35
100
AcDbVertex
100
AcDb2dVertex
 10
595.4677551993097
 20
-125.4169809149247
 30
0.0
  0
VERTEX
  5
10C4
330
10AF
100
AcDbEntity
  8
0
  6
Continuous
 62
     7
370
    35
100
AcDbVertex
100
AcDb2dVertex
 10
595.4664462813105
 20
-125.4919814394453
 30
0.0
  0
VERTEX
  5
10C5
330
10AF
100
AcDbEntity
  8
0
  6
Continuous
 62
     7
370
    35
100
AcDbVertex
100
AcDb2dVertex
 10
595.4651373633112
 20
-125.5669807718734
 30
0.0
  0
VERTEX
  5
10C6
330
10AF
100
AcDbEntity
  8
0
  6
Continuous
 62
     7
370
    35
100
AcDbVertex
100
AcDb2dVertex
 10
595.4638284453117
 20
-125.6419812963944
 30
0.0
  0
VERTEX
  5
10C7
330
10AF
100
AcDbEntity
  8
0
  6
Continuous
 62
     7
370
    35
100
AcDbVertex
100
AcDb2dVertex
 10
595.4625195273122
 20
-125.7169806288222
 30
0.0
  0
VERTEX
  5
10C8
330
10AF
100
AcDbEntity
  8
0
  6
Continuous
 62
     7
370
    35
100
AcDbVertex
100
AcDb2dVertex
 10
595.4612106093133
 20
-125.7919811533433
 30
0.0
  0
SEQEND
  5
10C9
330
10AF
100
AcDbEntity
  8
0
  6
Continuous
 62
     7
370
    35
  0
LINE
  5
10CA
330
1F
100
AcDbEntity
  8
0
  6
Continuous
 62
     7
370
    35
100
AcDbLine
 10
595.4908834335586
 20
-122.7419811533429
 30
0.0
 11
597.4908834335586
 21
-122.7419811533429
 31
0.0
  0
LINE
  5
10CB
330
1F
100
AcDbEntity
  8
0
  6
Continuous
 62
     7
370
    35
100
AcDbLine
 10
595.4908834335586
 20
-116.9419811533429
 30
0.0
 11
597.4908834335586
 21
-116.9419811533429
 31
0.0
  0
LINE
  5
10CC
330
1F
100
AcDbEntity
  8
0
  6
Continuous
 62
     7
370
    35
100
AcDbLine
 10
597.4908834335586
 20
-116.9419811533429
 30
0.0
 11
597.4908834335586
 21
-117.941981153343
 31
0.0
  0
LINE
  5
10CD
330
1F
100
AcDbEntity
  8
0
  6
Continuous
 62
     7
370
    35
100
AcDbLine
 10
597.4908834335586
 20
-117.9419811533432
 30
0.0
 11
595.4908834335586
 21
-117.9419811533432
 31
0.0
  0
LINE
  5
10CE
330
1F
100
AcDbEntity
  8
0
  6
Continuous
 62
     7
370
    35
100
AcDbLine
 10
595.4908834335586
 20
-111.1419811533429
 30
0.0
 11
597.4908834335586
 21
-111.1419811533429
 31
0.0
  0
LINE
  5
10CF
330
1F
100
AcDbEntity
  8
0
  6
Continuous
 62
     7
370
    35
100
AcDbLine
 10
597.4908834335586
 20
-111.1419811533429
 30
0.0
 11
597.4908834335586
 21
-112.1419811533429
 31
0.0
  0
LINE
  5
10D0
330
1F
100
AcDbEntity
  8
0
  6
Continuous
 62
     7
370
    35
100
AcDbLine
 10
597.4908834335586
 20
-112.1419811533429
 30
0.0
 11
595.4908834335586
 21
-112.1419811533429
 31
0.0
  0
LINE
  5
10D1
330
1F
100
AcDbEntity
  8
0
  6
Continuous
 62
     7
370
    35
100
AcDbLine
 10
595.4908834335586
 20
-114.5419811533429
 30
0.0
 11
595.65757930362
 21
-114.5419811533429
 31
0.0
  0
POLYLINE
  5
10D2
330
1F
100
AcDbEntity
  8
0
  6
Continuous
 62
     7
370
    35
100
AcDb2dPolyline
 66
     1
 10
0.0
 20
0.0
 30
0.0
  0
VERTEX
  5
10D3
330
10D2
100
AcDbEntity
  8
0
  6
Continuous
 62
     7
370
    35
100
AcDbVertex
100
AcDb2dVertex
 10
595.5982321509089
 20
-117.9419811891061
 30
0.0
  0
VERTEX
  5
10D4
330
10D2
100
AcDbEntity
  8
0
  6
Continuous
 62
     7
370
    35
100
AcDbVertex
100
AcDb2dVertex
 10
595.5947417029107
 20
-118.1419812963944
 30
0.0
  0
VERTEX
  5
10D5
330
10D2
100
AcDbEntity
  8
0
  6
Continuous
 62
     7
370
    35
100
AcDbVertex
100
AcDb2dVertex
 10
595.5912488707268
 20
-118.3419811056596
 30
0.0
  0
VERTEX
  5
10D6
330
10D2
100
AcDbEntity
  8
0
  6
Continuous
 62
     7
370
    35
100
AcDbVertex
100
AcDb2dVertex
 10
595.5877584227287
 20
-118.5419812129477
 30
0.0
  0
VERTEX
  5
10D7
330
10D2
100
AcDbEntity
  8
0
  6
Continuous
 62
     7
370
    35
100
AcDbVertex
100
AcDb2dVertex
 10
595.5842679747307
 20
-118.741981022213
 30
0.0
  0
VERTEX
  5
10D8
330
10D2
100
AcDbEntity
  8
0
  6
Continuous
 62
     7
370
    35
100
AcDbVertex
100
AcDb2dVertex
 10
595.5807775267327
 20
-118.9419811295014
 30
0.0
  0
VERTEX
  5
10D9
330
10D2
100
AcDbEntity
  8
0
  6
Continuous
 62
     7
370
    35
100
AcDbVertex
100
AcDb2dVertex
 10
595.5772870787342
 20
-119.1419812367898
 30
0.0
  0
VERTEX
  5
10DA
330
10D2
100
AcDbEntity
  8
0
  6
Continuous
 62
     7
370
    35
100
AcDbVertex
100
AcDb2dVertex
 10
595.573794246551
 20
-119.3419810460548
 30
0.0
  0
VERTEX
  5
10DB
330
10D2
100
AcDbEntity
  8
0
  6
Continuous
 62
     7
370
    35
100
AcDbVertex
100
AcDb2dVertex
 10
595.5703037985528
 20
-119.5419811533433
 30
0.0
  0
VERTEX
  5
10DC
330
10D2
100
AcDbEntity
  8
0
  6
Continuous
 62
     7
370
    35
100
AcDbVertex
100
AcDb2dVertex
 10
595.5668133505549
 20
-119.7419809626084
 30
0.0
  0
VERTEX
  5
10DD
330
10D2
100
AcDbEntity
  8
0
  6
Continuous
 62
     7
370
    35
100
AcDbVertex
100
AcDb2dVertex
 10
595.5633229025567
 20
-119.94198136792
 30
0.0
  0
VERTEX
  5
10DE
330
10D2
100
AcDbEntity
  8
0
  6
Continuous
 62
     7
370
    35
100
AcDbVertex
100
AcDb2dVertex
 10
595.5598300703727
 20
-120.1419811771851
 30
0.0
  0
VERTEX
  5
10DF
330
10D2
100
AcDbEntity
  8
0
  6
Continuous
 62
     7
370
    35
100
AcDbVertex
100
AcDb2dVertex
 10
595.5563396223745
 20
-120.3419809864503
 30
0.0
  0
VERTEX
  5
10E0
330
10D2
100
AcDbEntity
  8
0
  6
Continuous
 62
     7
370
    35
100
AcDbVertex
100
AcDb2dVertex
 10
595.5528491743769
 20
-120.5419813917619
 30
0.0
  0
VERTEX
  5
10E1
330
10D2
100
AcDbEntity
  8
0
  6
Continuous
 62
     7
370
    35
100
AcDbVertex
100
AcDb2dVertex
 10
595.5493587263787
 20
-120.7419812010269
 30
0.0
  0
VERTEX
  5
10E2
330
10D2
100
AcDbEntity
  8
0
  6
Continuous
 62
     7
370
    35
100
AcDbVertex
100
AcDb2dVertex
 10
595.545865894195
 20
-120.941981010292
 30
0.0
  0
VERTEX
  5
10E3
330
10D2
100
AcDbEntity
  8
0
  6
Continuous
 62
     7
370
    35
100
AcDbVertex
100
AcDb2dVertex
 10
595.5423754461967
 20
-121.1419814156037
 30
0.0
  0
VERTEX
  5
10E4
330
10D2
100
AcDbEntity
  8
0
  6
Continuous
 62
     7
370
    35
100
AcDbVertex
100
AcDb2dVertex
 10
595.5388849981988
 20
-121.3419812248689
 30
0.0
  0
VERTEX
  5
10E5
330
10D2
100
AcDbEntity
  8
0
  6
Continuous
 62
     7
370
    35
100
AcDbVertex
100
AcDb2dVertex
 10
595.5353945502007
 20
-121.541981034134
 30
0.0
  0
VERTEX
  5
10E6
330
10D2
100
AcDbEntity
  8
0
  6
Continuous
 62
     7
370
    35
100
AcDbVertex
100
AcDb2dVertex
 10
595.5319017180169
 20
-121.7419814394455
 30
0.0
  0
VERTEX
  5
10E7
330
10D2
100
AcDbEntity
  8
0
  6
Continuous
 62
     7
370
    35
100
AcDbVertex
100
AcDb2dVertex
 10
595.528411270019
 20
-121.9419812487105
 30
0.0
  0
VERTEX
  5
10E8
330
10D2
100
AcDbEntity
  8
0
  6
Continuous
 62
     7
370
    35
100
AcDbVertex
100
AcDb2dVertex
 10
595.5249208220207
 20
-122.1419810579757
 30
0.0
  0
VERTEX
  5
10E9
330
10D2
100
AcDbEntity
  8
0
  6
Continuous
 62
     7
370
    35
100
AcDbVertex
100
AcDb2dVertex
 10
595.5214303740229
 20
-122.341980867241
 30
0.0
  0
VERTEX
  5
10EA
330
10D2
100
AcDbEntity
  8
0
  6
Continuous
 62
     7
370
    35
100
AcDbVertex
100
AcDb2dVertex
 10
595.5179399260247
 20
-122.5419812725526
 30
0.0
  0
VERTEX
  5
10EB
330
10D2
100
AcDbEntity
  8
0
  6
Continuous
 62
     7
370
    35
100
AcDbVertex
100
AcDb2dVertex
 10
595.5144470938406
 20
-122.7419810818177
 30
0.0
  0
SEQEND
  5
10EC
330
10D2
100
AcDbEntity
  8
0
  6
Continuous
 62
     7
370
    35
  0
POLYLINE
  5
10ED
330
1F
100
AcDbEntity
  8
0
  6
Continuous
 62
     7
370
    35
100
AcDb2dPolyline
 66
     1
 10
0.0
 20
0.0
 30
0.0
  0
VERTEX
  5
10EE
330
10ED
100
AcDbEntity
  8
0
  6
Continuous
 62
     7
370
    35
100
AcDbVertex
100
AcDb2dVertex
 10
595.6575793036186
 20
-114.5419811533433
 30
0.0
  0
VERTEX
  5
10EF
330
10ED
100
AcDbEntity
  8
0
  6
Continuous
 62
     7
370
    35
100
AcDbVertex
100
AcDb2dVertex
 10
595.6558340796195
 20
-114.6419811511081
 30
0.0
  0
VERTEX
  5
10F0
330
10ED
100
AcDbEntity
  8
0
  6
Continuous
 62
     7
370
    35
100
AcDbVertex
100
AcDb2dVertex
 10
595.6540888556206
 20
-114.7419811488729
 30
0.0
  0
VERTEX
  5
10F1
330
10ED
100
AcDbEntity
  8
0
  6
Continuous
 62
     7
370
    35
100
AcDbVertex
100
AcDb2dVertex
 10
595.6523436316217
 20
-114.8419811466378
 30
0.0
  0
VERTEX
  5
10F2
330
10ED
100
AcDbEntity
  8
0
  6
Continuous
 62
     7
370
    35
100
AcDbVertex
100
AcDb2dVertex
 10
595.6505984076227
 20
-114.9419811444026
 30
0.0
  0
VERTEX
  5
10F3
330
10ED
100
AcDbEntity
  8
0
  6
Continuous
 62
     7
370
    35
100
AcDbVertex
100
AcDb2dVertex
 10
595.6488507994377
 20
-115.0419811607939
 30
0.0
  0
VERTEX
  5
10F4
330
10ED
100
AcDbEntity
  8
0
  6
Continuous
 62
     7
370
    35
100
AcDbVertex
100
AcDb2dVertex
 10
595.6471055754388
 20
-115.1419811399321
 30
0.0
  0
VERTEX
  5
10F5
330
10ED
100
AcDbEntity
  8
0
  6
Continuous
 62
     7
370
    35
100
AcDbVertex
100
AcDb2dVertex
 10
595.6453603514399
 20
-115.2419811563235
 30
0.0
  0
VERTEX
  5
10F6
330
10ED
100
AcDbEntity
  8
0
  6
Continuous
 62
     7
370
    35
100
AcDbVertex
100
AcDb2dVertex
 10
595.6436151274409
 20
-115.3419811354619
 30
0.0
  0
VERTEX
  5
10F7
330
10ED
100
AcDbEntity
  8
0
  6
Continuous
 62
     7
370
    35
100
AcDbVertex
100
AcDb2dVertex
 10
595.6418699034417
 20
-115.4419811891061
 30
0.0
  0
VERTEX
  5
10F8
330
10ED
100
AcDbEntity
  8
0
  6
Continuous
 62
     7
370
    35
100
AcDbVertex
100
AcDb2dVertex
 10
595.6401246794427
 20
-115.5419811682445
 30
0.0
  0
VERTEX
  5
10F9
330
10ED
100
AcDbEntity
  8
0
  6
Continuous
 62
     7
370
    35
100
AcDbVertex
100
AcDb2dVertex
 10
595.6383794554437
 20
-115.6419811473826
 30
0.0
  0
VERTEX
  5
10FA
330
10ED
100
AcDbEntity
  8
0
  6
Continuous
 62
     7
370
    35
100
AcDbVertex
100
AcDb2dVertex
 10
595.6366342314447
 20
-115.7419811265212
 30
0.0
  0
VERTEX
  5
10FB
330
10ED
100
AcDbEntity
  8
0
  6
Continuous
 62
     7
370
    35
100
AcDbVertex
100
AcDb2dVertex
 10
595.6348866232596
 20
-115.8419811056595
 30
0.0
  0
VERTEX
  5
10FC
330
10ED
100
AcDbEntity
  8
0
  6
Continuous
 62
     7
370
    35
100
AcDbVertex
100
AcDb2dVertex
 10
595.6331413992607
 20
-115.9419811593037
 30
0.0
  0
VERTEX
  5
10FD
330
10ED
100
AcDbEntity
  8
0
  6
Continuous
 62
     7
370
    35
100
AcDbVertex
100
AcDb2dVertex
 10
595.6313961752617
 20
-116.0419812129479
 30
0.0
  0
VERTEX
  5
10FE
330
10ED
100
AcDbEntity
  8
0
  6
Continuous
 62
     7
370
    35
100
AcDbVertex
100
AcDb2dVertex
 10
595.6296509512627
 20
-116.1419811175805
 30
0.0
  0
VERTEX
  5
10FF
330
10ED
100
AcDbEntity
  8
0
  6
Continuous
 62
     7
370
    35
100
AcDbVertex
100
AcDb2dVertex
 10
595.6279057272637
 20
-116.2419811712247
 30
0.0
  0
VERTEX
  5
1100
330
10ED
100
AcDbEntity
  8
0
  6
Continuous
 62
     7
370
    35
100
AcDbVertex
100
AcDb2dVertex
 10
595.6261605032647
 20
-116.3419812248686
 30
0.0
  0
VERTEX
  5
1101
330
10ED
100
AcDbEntity
  8
0
  6
Continuous
 62
     7
370
    35
100
AcDbVertex
100
AcDb2dVertex
 10
595.6244152792652
 20
-116.4419811295013
 30
0.0
  0
VERTEX
  5
1102
330
10ED
100
AcDbEntity
  8
0
  6
Continuous
 62
     7
370
    35
100
AcDbVertex
100
AcDb2dVertex
 10
595.6226700552666
 20
-116.5419811831456
 30
0.0
  0
VERTEX
  5
1103
330
10ED
100
AcDbEntity
  8
0
  6
Continuous
 62
     7
370
    35
100
AcDbVertex
100
AcDb2dVertex
 10
595.6209248312677
 20
-116.6419810877782
 30
0.0
  0
VERTEX
  5
1104
330
10ED
100
AcDbEntity
  8
0
  6
Continuous
 62
     7
370
    35
100
AcDbVertex
100
AcDb2dVertex
 10
595.6191772230827
 20
-116.7419811414224
 30
0.0
  0
VERTEX
  5
1105
330
10ED
100
AcDbEntity
  8
0
  6
Continuous
 62
     7
370
    35
100
AcDbVertex
100
AcDb2dVertex
 10
595.6174319990838
 20
-116.8419811950665
 30
0.0
  0
VERTEX
  5
1106
330
10ED
100
AcDbEntity
  8
0
  6
Continuous
 62
     7
370
    35
100
AcDbVertex
100
AcDb2dVertex
 10
595.6156867750848
 20
-116.9419810996989
 30
0.0
  0
SEQEND
  5
1107
330
10ED
100
AcDbEntity
  8
0
  6
Continuous
 62
     7
370
    35
  0
LINE
  5
1108
330
1F
100
AcDbEntity
  8
0
  6
Continuous
 62
     7
370
    35
100
AcDbLine
 10
595.6575793036186
 20
-114.5419811533433
 30
0.0
 11
595.6156871477909
 21
-112.1419811533429
 31
0.0
  0
LINE
  5
1109
330
1F
100
AcDbEntity
  8
0
  6
Continuous
 62
     7
370
    35
100
AcDbLine
 10
595.4908834335586
 20
-114.5419811533433
 30
0.0
 11
595.6575793036186
 21
-114.5419811533433
 31
0.0
  0
LINE
  5
110A
330
1F
100
AcDbEntity
  8
0
  6
Continuous
 62
     7
370
    35
100
AcDbLine
 10
594.3908834335587
 20
-104.7919811533432
 30
0.0
 11
587.1575793036197
 21
-104.7919811533432
 31
0.0
  0
LINE
  5
110B
330
1F
100
AcDbEntity
  8
0
  6
Continuous
 62
     7
370
    35
100
AcDbLine
 10
595.4612098231788
 20
-103.2919811533433
 30
0.0
 11
587.1575793036242
 21
-103.2919811533433
 31
0.0
  0
LINE
  5
110C
330
1F
100
AcDbEntity
  8
0
  6
Continuous
 62
     7
370
    35
100
AcDbLine
 10
594.48739242057
 20
-104.7919811533432
 30
0.0
 11
587.1575793036197
 21
-104.7919811533432
 31
0.0
  0
LINE
  5
110D
330
1F
100
AcDbEntity
  8
0
  6
Continuous
 62
     7
370
    35
100
AcDbLine
 10
586.0575793036188
 20
-104.7919811533432
 30
0.0
 11
578.6575793036186
 21
-104.7919811533432
 31
0.0
  0
LINE
  5
110E
330
1F
100
AcDbEntity
  8
0
  6
Continuous
 62
     7
370
    35
100
AcDbLine
 10
586.9140502330217
 20
-103.2919811533433
 30
0.0
 11
578.657579303618
 21
-103.2919811533433
 31
0.0
  0
LINE
  5
110F
330
1F
100
AcDbEntity
  8
0
  6
Continuous
 62
     7
370
    35
100
AcDbLine
 10
586.1575793036197
 20
-104.7919811533432
 30
0.0
 11
578.6575793036197
 21
-104.7919811533432
 31
0.0
  0
LINE
  5
1110
330
1F
100
AcDbEntity
  8
0
  6
Continuous
 62
     7
370
    35
100
AcDbLine
 10
578.6575793036186
 20
-106.9919811533432
 30
0.0
 11
578.9575793036187
 21
-106.9919811533432
 31
0.0
  0
POLYLINE
  5
1111
330
1F
100
AcDbEntity
  8
0
  6
Continuous
 62
     7
370
    35
100
AcDb2dPolyline
 66
     1
 10
0.0
 20
0.0
 30
0.0
  0
VERTEX
  5
1112
330
1111
100
AcDbEntity
  8
0
  6
Continuous
 62
     7
370
    35
100
AcDbVertex
100
AcDb2dVertex
 10
577.5969189413753
 20
-103.2919811533433
 30
0.0
  0
VERTEX
  5
1113
330
1111
100
AcDbEntity
  8
0
  6
Continuous
 62
     7
370
    35
100
AcDbVertex
100
AcDb2dVertex
 10
577.6411122091972
 20
-103.2919811533433
 30
0.0
  0
VERTEX
  5
1114
330
1111
100
AcDbEntity
  8
0
  6
Continuous
 62
     7
370
    35
100
AcDbVertex
100
AcDb2dVertex
 10
577.6853078612055
 20
-103.2919811533433
 30
0.0
  0
VERTEX
  5
1115
330
1111
100
AcDbEntity
  8
0
  6
Continuous
 62
     7
370
    35
100
AcDbVertex
100
AcDb2dVertex
 10
577.7295011290277
 20
-103.2919811533433
 30
0.0
  0
VERTEX
  5
1116
330
1111
100
AcDbEntity
  8
0
  6
Continuous
 62
     7
370
    35
100
AcDbVertex
100
AcDb2dVertex
 10
577.7736967810357
 20
-103.2919811533433
 30
0.0
  0
VERTEX
  5
1117
330
1111
100
AcDbEntity
  8
0
  6
Continuous
 62
     7
370
    35
100
AcDbVertex
100
AcDb2dVertex
 10
577.8178900488581
 20
-103.2919811533433
 30
0.0
  0
VERTEX
  5
1118
330
1111
100
AcDbEntity
  8
0
  6
Continuous
 62
     7
370
    35
100
AcDbVertex
100
AcDb2dVertex
 10
577.8620833166804
 20
-103.2919811533433
 30
0.0
  0
VERTEX
  5
1119
330
1111
100
AcDbEntity
  8
0
  6
Continuous
 62
     7
370
    35
100
AcDbVertex
100
AcDb2dVertex
 10
577.9062789686882
 20
-103.2919811533433
 30
0.0
  0
VERTEX
  5
111A
330
1111
100
AcDbEntity
  8
0
  6
Continuous
 62
     7
370
    35
100
AcDbVertex
100
AcDb2dVertex
 10
577.9504722365102
 20
-103.2919811533433
 30
0.0
  0
VERTEX
  5
111B
330
1111
100
AcDbEntity
  8
0
  6
Continuous
 62
     7
370
    35
100
AcDbVertex
100
AcDb2dVertex
 10
577.9946655043326
 20
-103.2919811533433
 30
0.0
  0
VERTEX
  5
111C
330
1111
100
AcDbEntity
  8
0
  6
Continuous
 62
     7
370
    35
100
AcDbVertex
100
AcDb2dVertex
 10
578.0388611563409
 20
-103.2919811533433
 30
0.0
  0
VERTEX
  5
111D
330
1111
100
AcDbEntity
  8
0
  6
Continuous
 62
     7
370
    35
100
AcDbVertex
100
AcDb2dVertex
 10
578.0830544241633
 20
-103.2919811533433
 30
0.0
  0
VERTEX
  5
111E
330
1111
100
AcDbEntity
  8
0
  6
Continuous
 62
     7
370
    35
100
AcDbVertex
100
AcDb2dVertex
 10
578.1272500761712
 20
-103.2919811533433
 30
0.0
  0
VERTEX
  5
111F
330
1111
100
AcDbEntity
  8
0
  6
Continuous
 62
     7
370
    35
100
AcDbVertex
100
AcDb2dVertex
 10
578.1714433439936
 20
-103.2919811533433
 30
0.0
  0
VERTEX
  5
1120
330
1111
100
AcDbEntity
  8
0
  6
Continuous
 62
     7
370
    35
100
AcDbVertex
100
AcDb2dVertex
 10
578.2156366118157
 20
-103.2919811533433
 30
0.0
  0
VERTEX
  5
1121
330
1111
100
AcDbEntity
  8
0
  6
Continuous
 62
     7
370
    35
100
AcDbVertex
100
AcDb2dVertex
 10
578.2598322638238
 20
-103.2919811533433
 30
0.0
  0
VERTEX
  5
1122
330
1111
100
AcDbEntity
  8
0
  6
Continuous
 62
     7
370
    35
100
AcDbVertex
100
AcDb2dVertex
 10
578.3040255316461
 20
-103.2919811533433
 30
0.0
  0
VERTEX
  5
1123
330
1111
100
AcDbEntity
  8
0
  6
Continuous
 62
     7
370
    35
100
AcDbVertex
100
AcDb2dVertex
 10
578.3482211836542
 20
-103.2919811533433
 30
0.0
  0
VERTEX
  5
1124
330
1111
100
AcDbEntity
  8
0
  6
Continuous
 62
     7
370
    35
100
AcDbVertex
100
AcDb2dVertex
 10
578.3924144514765
 20
-103.2919811533433
 30
0.0
  0
VERTEX
  5
1125
330
1111
100
AcDbEntity
  8
0
  6
Continuous
 62
     7
370
    35
100
AcDbVertex
100
AcDb2dVertex
 10
578.4366077192987
 20
-103.2919811533433
 30
0.0
  0
VERTEX
  5
1126
330
1111
100
AcDbEntity
  8
0
  6
Continuous
 62
     7
370
    35
100
AcDbVertex
100
AcDb2dVertex
 10
578.4808033713066
 20
-103.2919811533433
 30
0.0
  0
VERTEX
  5
1127
330
1111
100
AcDbEntity
  8
0
  6
Continuous
 62
     7
370
    35
100
AcDbVertex
100
AcDb2dVertex
 10
578.5249966391289
 20
-103.2919811533433
 30
0.0
  0
VERTEX
  5
1128
330
1111
100
AcDbEntity
  8
0
  6
Continuous
 62
     7
370
    35
100
AcDbVertex
100
AcDb2dVertex
 10
578.5691899069512
 20
-103.2919811533433
 30
0.0
  0
VERTEX
  5
1129
330
1111
100
AcDbEntity
  8
0
  6
Continuous
 62
     7
370
    35
100
AcDbVertex
100
AcDb2dVertex
 10
578.6133855589593
 20
-103.2919811533433
 30
0.0
  0
VERTEX
  5
112A
330
1111
100
AcDbEntity
  8
0
  6
Continuous
 62
     7
370
    35
100
AcDbVertex
100
AcDb2dVertex
 10
578.6575788267818
 20
-103.2919811533433
 30
0.0
  0
SEQEND
  5
112B
330
1111
100
AcDbEntity
  8
0
  6
Continuous
 62
     7
370
    35
  0
POLYLINE
  5
112C
330
1F
100
AcDbEntity
  8
0
  6
Continuous
 62
     7
370
    35
100
AcDb2dPolyline
 66
     1
 10
0.0
 20
0.0
 30
0.0
  0
VERTEX
  5
112D
330
112C
100
AcDbEntity
  8
0
  6
Continuous
 62
     7
370
    35
100
AcDbVertex
100
AcDb2dVertex
 10
576.5362590559687
 20
-103.2919811533433
 30
0.0
  0
VERTEX
  5
112E
330
112C
100
AcDbEntity
  8
0
  6
Continuous
 62
     7
370
    35
100
AcDbVertex
100
AcDb2dVertex
 10
576.5878814467157
 20
-103.2919811533433
 30
0.0
  0
VERTEX
  5
112F
330
112C
100
AcDbEntity
  8
0
  6
Continuous
 62
     7
370
    35
100
AcDbVertex
100
AcDb2dVertex
 10
576.6387885817254
 20
-103.2919811533433
 30
0.0
  0
VERTEX
  5
1130
330
112C
100
AcDbEntity
  8
0
  6
Continuous
 62
     7
370
    35
100
AcDbVertex
100
AcDb2dVertex
 10
576.6889876135552
 20
-103.2919811533433
 30
0.0
  0
VERTEX
  5
1131
330
112C
100
AcDbEntity
  8
0
  6
Continuous
 62
     7
370
    35
100
AcDbVertex
100
AcDb2dVertex
 10
576.7384737738336
 20
-103.2919811533433
 30
0.0
  0
VERTEX
  5
1132
330
112C
100
AcDbEntity
  8
0
  6
Continuous
 62
     7
370
    35
100
AcDbVertex
100
AcDb2dVertex
 10
576.7872470625603
 20
-103.2919811533433
 30
0.0
  0
VERTEX
  5
1133
330
112C
100
AcDbEntity
  8
0
  6
Continuous
 62
     7
370
    35
100
AcDbVertex
100
AcDb2dVertex
 10
576.8357247122492
 20
-103.2919811533433
 30
0.0
  0
VERTEX
  5
1134
330
112C
100
AcDbEntity
  8
0
  6
Continuous
 62
     7
370
    35
100
AcDbVertex
100
AcDb2dVertex
 10
576.8834179648122
 20
-103.2919811533433
 30
0.0
  0
VERTEX
  5
1135
330
112C
100
AcDbEntity
  8
0
  6
Continuous
 62
     7
370
    35
100
AcDbVertex
100
AcDb2dVertex
 10
576.9302433737482
 20
-103.2919811533433
 30
0.0
  0
VERTEX
  5
1136
330
112C
100
AcDbEntity
  8
0
  6
Continuous
 62
     7
370
    35
100
AcDbVertex
100
AcDb2dVertex
 10
576.9767946013176
 20
-103.2919811533433
 30
0.0
  0
VERTEX
  5
1137
330
112C
100
AcDbEntity
  8
0
  6
Continuous
 62
     7
370
    35
100
AcDbVertex
100
AcDb2dVertex
 10
577.0226353415218
 20
-103.2919811533433
 30
0.0
  0
VERTEX
  5
1138
330
112C
100
AcDbEntity
  8
0
  6
Continuous
 62
     7
370
    35
100
AcDbVertex
100
AcDb2dVertex
 10
577.0677179106439
 20
-103.2919811533433
 30
0.0
  0
VERTEX
  5
1139
330
112C
100
AcDbEntity
  8
0
  6
Continuous
 62
     7
370
    35
100
AcDbVertex
100
AcDb2dVertex
 10
577.1120446928704
 20
-103.2919811533433
 30
0.0
  0
VERTEX
  5
113A
330
112C
100
AcDbEntity
  8
0
  6
Continuous
 62
     7
370
    35
100
AcDbVertex
100
AcDb2dVertex
 10
577.1560472258292
 20
-103.2919811533433
 30
0.0
  0
VERTEX
  5
113B
330
112C
100
AcDbEntity
  8
0
  6
Continuous
 62
     7
370
    35
100
AcDbVertex
100
AcDb2dVertex
 10
577.1993702658376
 20
-103.2919811533433
 30
0.0
  0
VERTEX
  5
113C
330
112C
100
AcDbEntity
  8
0
  6
Continuous
 62
     7
370
    35
100
AcDbVertex
100
AcDb2dVertex
 10
577.2420114287102
 20
-103.2919811533433
 30
0.0
  0
VERTEX
  5
113D
330
112C
100
AcDbEntity
  8
0
  6
Continuous
 62
     7
370
    35
100
AcDbVertex
100
AcDb2dVertex
 10
577.2839707144465
 20
-103.2919811533433
 30
0.0
  0
VERTEX
  5
113E
330
112C
100
AcDbEntity
  8
0
  6
Continuous
 62
     7
370
    35
100
AcDbVertex
100
AcDb2dVertex
 10
577.3252481230461
 20
-103.2919811533433
 30
0.0
  0
VERTEX
  5
113F
330
112C
100
AcDbEntity
  8
0
  6
Continuous
 62
     7
370
    35
100
AcDbVertex
100
AcDb2dVertex
 10
577.3658460386957
 20
-103.2919811533433
 30
0.0
  0
VERTEX
  5
1140
330
112C
100
AcDbEntity
  8
0
  6
Continuous
 62
     7
370
    35
100
AcDbVertex
100
AcDb2dVertex
 10
577.4061220892632
 20
-103.2919811533433
 30
0.0
  0
VERTEX
  5
1141
330
112C
100
AcDbEntity
  8
0
  6
Continuous
 62
     7
370
    35
100
AcDbVertex
100
AcDb2dVertex
 10
577.4455827482902
 20
-103.2919811533433
 30
0.0
  0
VERTEX
  5
1142
330
112C
100
AcDbEntity
  8
0
  6
Continuous
 62
     7
370
    35
100
AcDbVertex
100
AcDb2dVertex
 10
577.4842232474052
 20
-103.2919811533433
 30
0.0
  0
VERTEX
  5
1143
330
112C
100
AcDbEntity
  8
0
  6
Continuous
 62
     7
370
    35
100
AcDbVertex
100
AcDb2dVertex
 10
577.5225991018976
 20
-103.2919811533433
 30
0.0
  0
VERTEX
  5
1144
330
112C
100
AcDbEntity
  8
0
  6
Continuous
 62
     7
370
    35
100
AcDbVertex
100
AcDb2dVertex
 10
577.5599831351008
 20
-103.2919811533433
 30
0.0
  0
VERTEX
  5
1145
330
112C
100
AcDbEntity
  8
0
  6
Continuous
 62
     7
370
    35
100
AcDbVertex
100
AcDb2dVertex
 10
577.5969189413753
 20
-103.2919811533433
 30
0.0
  0
SEQEND
  5
1146
330
112C
100
AcDbEntity
  8
0
  6
Continuous
 62
     7
370
    35
  0
POLYLINE
  5
1147
330
1F
100
AcDbEntity
  8
0
  6
Continuous
 62
     7
370
    35
100
AcDb2dPolyline
 66
     1
 10
0.0
 20
0.0
 30
0.0
  0
VERTEX
  5
1148
330
1147
100
AcDbEntity
  8
0
  6
Continuous
 62
     7
370
    35
100
AcDbVertex
100
AcDb2dVertex
 10
576.3362592467029
 20
-105.291981034134
 30
0.0
  0
VERTEX
  5
1149
330
1147
100
AcDbEntity
  8
0
  6
Continuous
 62
     7
370
    35
100
AcDbVertex
100
AcDb2dVertex
 10
576.3340324171747
 20
-105.2266072557908
 30
0.0
  0
VERTEX
  5
114A
330
1147
100
AcDbEntity
  8
0
  6
Continuous
 62
     7
370
    35
100
AcDbVertex
100
AcDb2dVertex
 10
576.3274186857905
 20
-105.1615559385758
 30
0.0
  0
VERTEX
  5
114B
330
1147
100
AcDbEntity
  8
0
  6
Continuous
 62
     7
370
    35
100
AcDbVertex
100
AcDb2dVertex
 10
576.3165277250971
 20
-105.0970815943223
 30
0.0
  0
VERTEX
  5
114C
330
1147
100
AcDbEntity
  8
0
  6
Continuous
 62
     7
370
    35
100
AcDbVertex
100
AcDb2dVertex
 10
576.3014620550832
 20
-105.0334399269561
 30
0.0
  0
VERTEX
  5
114D
330
1147
100
AcDbEntity
  8
0
  6
Continuous
 62
     7
370
    35
100
AcDbVertex
100
AcDb2dVertex
 10
576.2823289641106
 20
-104.9708848522645
 30
0.0
  0
VERTEX
  5
114E
330
1147
100
AcDbEntity
  8
0
  6
Continuous
 62
     7
370
    35
100
AcDbVertex
100
AcDb2dVertex
 10
576.2592333563532
 20
-104.9096732662659
 30
0.0
  0
VERTEX
  5
114F
330
1147
100
AcDbEntity
  8
0
  6
Continuous
 62
     7
370
    35
100
AcDbVertex
100
AcDb2dVertex
 10
576.2322801359856
 20
-104.8500584887009
 30
0.0
  0
VERTEX
  5
1150
330
1147
100
AcDbEntity
  8
0
  6
Continuous
 62
     7
370
    35
100
AcDbVertex
100
AcDb2dVertex
 10
576.2015765913687
 20
-104.7922962234955
 30
0.0
  0
VERTEX
  5
1151
330
1147
100
AcDbEntity
  8
0
  6
Continuous
 62
     7
370
    35
100
AcDbVertex
100
AcDb2dVertex
 10
576.1672276266778
 20
-104.7366415785294
 30
0.0
  0
VERTEX
  5
1152
330
1147
100
AcDbEntity
  8
0
  6
Continuous
 62
     7
370
    35
100
AcDbVertex
100
AcDb2dVertex
 10
576.1293405302729
 20
-104.6833496616822
 30
0.0
  0
VERTEX
  5
1153
330
1147
100
AcDbEntity
  8
0
  6
Continuous
 62
     7
370
    35
100
AcDbVertex
100
AcDb2dVertex
 10
576.0880178221426
 20
-104.6326755808334
 30
0.0
  0
VERTEX
  5
1154
330
1147
100
AcDbEntity
  8
0
  6
Continuous
 62
     7
370
    35
100
AcDbVertex
100
AcDb2dVertex
 10
576.0433667906489
 20
-104.5848744438629
 30
0.0
  0
VERTEX
  5
1155
330
1147
100
AcDbEntity
  8
0
  6
Continuous
 62
     7
370
    35
100
AcDbVertex
100
AcDb2dVertex
 10
575.995563865539
 20
-104.5402228163224
 30
0.0
  0
VERTEX
  5
1156
330
1147
100
AcDbEntity
  8
0
  6
Continuous
 62
     7
370
    35
100
AcDbVertex
100
AcDb2dVertex
 10
575.9448903807367
 20
-104.4989013002854
 30
0.0
  0
VERTEX
  5
1157
330
1147
100
AcDbEntity
  8
0
  6
Continuous
 62
     7
370
    35
100
AcDbVertex
100
AcDb2dVertex
 10
575.8915990599357
 20
-104.4610118196945
 30
0.0
  0
VERTEX
  5
1158
330
1147
100
AcDbEntity
  8
0
  6
Continuous
 62
     7
370
    35
100
AcDbVertex
100
AcDb2dVertex
 10
575.8359426268305
 20
-104.4266640470963
 30
0.0
  0
VERTEX
  5
1159
330
1147
100
AcDbEntity
  8
0
  6
Continuous
 62
     7
370
    35
100
AcDbVertex
100
AcDb2dVertex
 10
575.7781809576711
 20
-104.3959605024795
 30
0.0
  0
VERTEX
  5
115A
330
1147
100
AcDbEntity
  8
0
  6
Continuous
 62
     7
370
    35
100
AcDbVertex
100
AcDb2dVertex
 10
575.718566776153
 20
-104.3690072821122
 30
0.0
  0
VERTEX
  5
115B
330
1147
100
AcDbEntity
  8
0
  6
Continuous
 62
     7
370
    35
100
AcDbVertex
100
AcDb2dVertex
 10
575.6573551901545
 20
-104.3459116743546
 30
0.0
  0
VERTEX
  5
115C
330
1147
100
AcDbEntity
  8
0
  6
Continuous
 62
     7
370
    35
100
AcDbVertex
100
AcDb2dVertex
 10
575.5948001154627
 20
-104.3267785833817
 30
0.0
  0
VERTEX
  5
115D
330
1147
100
AcDbEntity
  8
0
  6
Continuous
 62
     7
370
    35
100
AcDbVertex
100
AcDb2dVertex
 10
575.5311590441431
 20
-104.3117129133682
 30
0.0
  0
VERTEX
  5
115E
330
1147
100
AcDbEntity
  8
0
  6
Continuous
 62
     7
370
    35
100
AcDbVertex
100
AcDb2dVertex
 10
575.4666846998896
 20
-104.300821952675
 30
0.0
  0
VERTEX
  5
115F
330
1147
100
AcDbEntity
  8
0
  6
Continuous
 62
     7
370
    35
100
AcDbVertex
100
AcDb2dVertex
 10
575.4016321905817
 20
-104.2942094133836
 30
0.0
  0
VERTEX
  5
1160
330
1147
100
AcDbEntity
  8
0
  6
Continuous
 62
     7
370
    35
100
AcDbVertex
100
AcDb2dVertex
 10
575.336259008285
 20
-104.2919813917619
 30
0.0
  0
SEQEND
  5
1161
330
1147
100
AcDbEntity
  8
0
  6
Continuous
 62
     7
370
    35
  0
LINE
  5
1162
330
1F
100
AcDbEntity
  8
0
  6
Continuous
 62
     7
370
    35
100
AcDbLine
 10
589.1575793036187
 20
-105.3419811533433
 30
0.0
 11
589.1575793036187
 21
-106.3419811533433
 31
0.0
  0
LINE
  5
1163
330
1F
100
AcDbEntity
  8
0
  6
Continuous
 62
     7
370
    35
100
AcDbLine
 10
586.0575793036188
 20
-105.0919811533433
 30
0.0
 11
586.0575793036188
 21
-104.7919811533432
 31
0.0
  0
LINE
  5
1164
330
1F
100
AcDbEntity
  8
0
  6
Continuous
 62
     7
370
    35
100
AcDbLine
 10
587.1575793036186
 20
-105.0919811533433
 30
0.0
 11
586.0575793036188
 21
-105.0919811533433
 31
0.0
  0
LINE
  5
1165
330
1F
100
AcDbEntity
  8
0
  6
Continuous
 62
     7
370
    35
100
AcDbLine
 10
587.1575793036186
 20
-106.9919811533432
 30
0.0
 11
587.2908834335587
 21
-106.9919811533432
 31
0.0
  0
LINE
  5
1166
330
1F
100
AcDbEntity
  8
0
  6
Continuous
 62
     7
370
    35
100
AcDbLine
 10
586.9140502330217
 20
-103.2919811533433
 30
0.0
 11
587.157579303618
 21
-103.2919811533433
 31
0.0
  0
LINE
  5
1167
330
1F
100
AcDbEntity
  8
0
  6
Continuous
 62
     7
370
    35
100
AcDbLine
 10
587.157579303618
 20
-103.2919811533433
 30
0.0
 11
587.157579303618
 21
-105.0919811533433
 31
0.0
  0
LINE
  5
1168
330
1F
100
AcDbEntity
  8
0
  6
Continuous
 62
     7
370
    35
100
AcDbLine
 10
586.9140502330217
 20
-105.0919811533433
 30
0.0
 11
586.9140502330217
 21
-103.2919811533433
 31
0.0
  0
LINE
  5
1169
330
1F
100
AcDbEntity
  8
0
  6
Continuous
 62
     7
370
    35
100
AcDbLine
 10
586.1575793036197
 20
-105.0919811533433
 30
0.0
 11
586.1575793036197
 21
-104.7919811533432
 31
0.0
  0
LINE
  5
116A
330
1F
100
AcDbEntity
  8
0
  6
Continuous
 62
     7
370
    35
100
AcDbLine
 10
586.9140502330266
 20
-105.0919811533433
 30
0.0
 11
586.1575793036197
 21
-105.0919811533433
 31
0.0
  0
LINE
  5
116B
330
1F
100
AcDbEntity
  8
0
  6
Continuous
 62
     7
370
    35
100
AcDbLine
 10
587.1575793036186
 20
-105.3419811533433
 30
0.0
 11
589.1575793036187
 21
-105.3419811533433
 31
0.0
  0
LINE
  5
116C
330
1F
100
AcDbEntity
  8
0
  6
Continuous
 62
     7
370
    35
100
AcDbLine
 10
589.1575793036187
 20
-106.3419811533433
 30
0.0
 11
587.1575793036186
 21
-106.3419811533433
 31
0.0
  0
LINE
  5
116D
330
1F
100
AcDbEntity
  8
0
  6
Continuous
 62
     7
370
    35
100
AcDbLine
 10
594.3908834335587
 20
-105.0919811533429
 30
0.0
 11
594.3908834335587
 21
-104.7919811533432
 31
0.0
  0
LINE
  5
116E
330
1F
100
AcDbEntity
  8
0
  6
Continuous
 62
     7
370
    35
100
AcDbLine
 10
595.4908834335586
 20
-105.0919811533429
 30
0.0
 11
594.3908834335587
 21
-105.0919811533429
 31
0.0
  0
LINE
  5
116F
330
1F
100
AcDbEntity
  8
0
  6
Continuous
 62
     7
370
    35
100
AcDbLine
 10
595.4908834335586
 20
-105.3419811533429
 30
0.0
 11
597.4908834335586
 21
-105.3419811533429
 31
0.0
  0
LINE
  5
1170
330
1F
100
AcDbEntity
  8
0
  6
Continuous
 62
     7
370
    35
100
AcDbLine
 10
597.4908834335586
 20
-105.3419811533429
 30
0.0
 11
597.4908834335586
 21
-106.3419811533429
 31
0.0
  0
LINE
  5
1171
330
1F
100
AcDbEntity
  8
0
  6
Continuous
 62
     7
370
    35
100
AcDbLine
 10
597.4908834335586
 20
-106.3419811533429
 30
0.0
 11
595.4908834335586
 21
-106.3419811533429
 31
0.0
  0
LINE
  5
1172
330
1F
100
AcDbEntity
  8
0
  6
Continuous
 62
     7
370
    35
100
AcDbLine
 10
595.4612098231788
 20
-103.2919811533435
 30
0.0
 11
595.4926289400495
 21
-105.0919811533433
 31
0.0
  0
LINE
  5
1173
330
1F
100
AcDbEntity
  8
0
  6
Continuous
 62
     7
370
    35
100
AcDbLine
 10
595.4926289400503
 20
-105.0919811533433
 30
0.0
 11
594.48739242057
 21
-105.0919811533433
 31
0.0
  0
LINE
  5
1174
330
1F
100
AcDbEntity
  8
0
  6
Continuous
 62
     7
370
    35
100
AcDbLine
 10
594.4873924205698
 20
-105.0919811533433
 30
0.0
 11
594.4873924205698
 21
-104.7919811533432
 31
0.0
  0
LINE
  5
1175
330
1F
100
AcDbEntity
  8
0
  6
Continuous
 62
     7
370
    35
100
AcDbLine
 10
595.4969927062787
 20
-105.3419811533429
 30
0.0
 11
595.4926289400466
 21
-105.0919811533439
 31
0.0
  0
LINE
  5
1176
330
1F
100
AcDbEntity
  8
0
  6
Continuous
 62
     7
370
    35
100
AcDbLine
 10
594.3908834335587
 20
-104.9919811533432
 30
0.0
 11
594.48739242057
 21
-104.9919811533432
 31
0.0
  0
MTEXT
  5
1311
330
1F
100
AcDbEntity
  8
0
  6
Continuous
 62
     7
370
    50
100
AcDbMText
 10
535.7939545569556
 20
309.7252447625443
 30
0.0
 40
2.000000029802321
 41
0.0
 71
     7
 72
     1
  1
 
  7
TextStyle30
 73
     1
 44
1.0
1001
ACAD
1000
MTEXTBEGIN
1070
    73
1070
     1
1070
    44
1040
1.0
1070
    74
1070
     0
1000
MTEXTEND
  0
DIMENSION
  5
138A
102
{ACAD_XDICTIONARY
360
1397
102
}
102
{ACAD_REACTORS
330
13A1
102
}
330
1F
100
AcDbEntity
  8
0
100
AcDbDimension
  2
*D1
 10
496.5200081900554
 20
-125.7919811533433
 30
0.0
 11
494.436674856722
 21
-114.5419811533429
 31
0.0
 70
    32
 71
     5
 42
22.5
  3
ISO-25
100
AcDbAlignedDimension
 13
515.8539487840612
 23
-103.2919811533433
 33
0.0
 14
515.8539479979241
 24
-125.7919811533433
 34
0.0
 50
90.0
100
AcDbRotatedDimension
  0
DIMENSION
  5
1463
102
{ACAD_XDICTIONARY
360
1464
102
}
102
{ACAD_REACTORS
330
1465
102
}
330
1F
100
AcDbEntity
  8
0
100
AcDbDimension
  2
*D2
 10
595.797219823046
 20
37.54812270038821
 30
0.0
 11
555.7972198230461
 21
39.42312270038821
 31
0.0
 70
    32
 71
     5
 42
79.9999999999999
  3
ISO-25
100
AcDbAlignedDimension
 13
515.7972198230461
 23
-4.781521425312518
 33
0.0
 14
595.797219823046
 24
-4.781521425308993
 34
0.0
100
AcDbRotatedDimension
  0
LINE
  5
1466
330
1F
100
AcDbEntity
  8
0
  6
Continuous
 62
     7
370
    35
100
AcDbLine
 10
589.2972198230459
 20
21.22161829550447
 30
0.0
 11
587.297219823046
 21
23.22161829550446
 31
0.0
  0
LINE
  5
1467
330
1F
100
AcDbEntity
  8
0
  6
Continuous
 62
     7
370
    35
100
AcDbLine
 10
587.297219823046
 20
-3.278381704495529
 30
0.0
 11
589.2972198230459
 21
-1.278381704495529
 31
0.0
  0
LINE
  5
1468
330
1F
100
AcDbEntity
  8
0
  6
Continuous
 62
     7
370
    35
100
AcDbLine
 10
587.2972198230455
 20
-4.778381704495528
 30
0.0
 11
595.6008503426049
 21
-4.778381704495528
 31
0.0
  0
LINE
  5
1469
330
1F
100
AcDbEntity
  8
0
  6
Continuous
 62
     7
370
    35
100
AcDbLine
 10
595.6008503426041
 20
-71.80783712656176
 30
0.0
 11
585.7972198230445
 21
-73.27838170449588
 31
0.0
  0
LINE
  5
146A
330
1F
100
AcDbEntity
  8
0
  6
Continuous
 62
     7
370
    35
100
AcDbLine
 10
585.797219823046
 20
-73.28152142530946
 30
0.0
 11
595.797219823046
 21
-71.78152142530946
 31
0.0
  0
LINE
  5
146B
330
1F
100
AcDbEntity
  8
0
  6
Continuous
 62
     7
370
    35
100
AcDbLine
 10
579.797219823046
 20
8.72161829550447
 30
0.0
 11
579.797219823046
 21
-62.27838170449554
 31
0.0
  0
LINE
  5
146C
330
1F
100
AcDbEntity
  8
0
  6
Continuous
 62
     7
370
    35
100
AcDbLine
 10
515.7972198230461
 20
-31.6116858344356
 30
0.0
 11
515.7972198230461
 21
-33.31619959797246
 31
0.0
  0
LINE
  5
146D
330
1F
100
AcDbEntity
  8
0
  6
Continuous
 62
     7
370
    35
100
AcDbLine
 10
515.9621701866154
 20
-33.28312819026705
 30
0.0
 11
515.9621701866154
 21
-4.778381704491097
 31
0.0
  0
LINE
  5
146E
330
1F
100
AcDbEntity
  8
0
  6
Continuous
 62
     7
370
    35
100
AcDbLine
 10
515.993589303487
 20
-73.2783817044953
 30
0.0
 11
515.993589303487
 21
-4.778381704495528
 31
0.0
  0
LINE
  5
146F
330
1F
100
AcDbEntity
  8
0
  6
Continuous
 62
     7
370
    35
100
AcDbLine
 10
531.7972198230461
 20
8.72161829550447
 30
0.0
 11
531.7972198230461
 21
-62.27838170449554
 31
0.0
  0
LINE
  5
1470
330
1F
100
AcDbEntity
  8
0
  6
Continuous
 62
     7
370
    35
100
AcDbLine
 10
535.5053613943389
 20
-73.27838170449564
 30
0.0
 11
515.993589303487
 21
-73.27838170449564
 31
0.0
  0
LINE
  5
1471
102
{ACAD_REACTORS
330
1536
102
}
330
1F
100
AcDbEntity
  8
0
  6
Continuous
 62
     7
370
    35
100
AcDbLine
 10
535.505361394346
 20
-73.28152142530946
 30
0.0
 11
515.797219823042
 21
-73.28152142530946
 31
0.0
  0
LINE
  5
1472
330
1F
100
AcDbEntity
  8
0
  6
Continuous
 62
     7
370
    35
100
AcDbLine
 10
515.7972198230461
 20
-33.77838170449246
 30
0.0
 11
515.7972198230461
 21
-64.06524198368178
 31
0.0
  0
LINE
  5
1473
330
1F
100
AcDbEntity
  8
0
  6
Continuous
 62
     7
370
    35
100
AcDbLine
 10
515.7972198230461
 20
-33.77838170449246
 30
0.0
 11
515.7972198230461
 21
-73.28152142530946
 31
0.0
  0
LINE
  5
1474
330
1F
100
AcDbEntity
  8
0
  6
Continuous
 62
     7
370
    35
100
AcDbLine
 10
515.9630429398657
 20
-70.27838170449564
 30
0.0
 11
515.9630429398657
 21
-68.82838170449559
 31
0.0
  0
LINE
  5
1475
330
1F
100
AcDbEntity
  8
0
  6
Continuous
 62
     7
370
    35
100
AcDbLine
 10
515.9368603424675
 20
-70.27838170449564
 30
0.0
 11
515.9630429398601
 21
-70.27838170449564
 31
0.0
  0
LINE
  5
1476
330
1F
100
AcDbEntity
  8
0
  6
Continuous
 62
     7
370
    35
100
AcDbLine
 10
515.9368603424703
 20
-73.2783817044953
 30
0.0
 11
515.993589303487
 21
-73.2783817044953
 31
0.0
  0
LINE
  5
1477
330
1F
100
AcDbEntity
  8
0
  6
Continuous
 62
     7
370
    35
100
AcDbLine
 10
515.9368603424759
 20
-73.27838170449564
 30
0.0
 11
515.9368603424759
 21
-70.27838170449564
 31
0.0
  0
LINE
  5
1478
330
1F
100
AcDbEntity
  8
0
  6
Continuous
 62
     7
370
    35
100
AcDbLine
 10
515.9639156931095
 20
-64.02057595991943
 30
0.0
 11
515.7972198230443
 21
-64.06524198368178
 31
0.0
  0
LINE
  5
1479
330
1F
100
AcDbEntity
  8
0
  6
Continuous
 62
     7
370
    35
100
AcDbLine
 10
515.7972198230443
 20
-64.06524198368178
 30
0.0
 11
515.9639156931058
 21
-64.35396770004041
 31
0.0
  0
LINE
  5
147A
330
1F
100
AcDbEntity
  8
0
  6
Continuous
 62
     7
370
    35
100
AcDbLine
 10
515.9630429398678
 20
-68.82838170449559
 30
0.0
 11
515.9639156931143
 21
-68.82838170449559
 31
0.0
  0
LINE
  5
147B
330
1F
100
AcDbEntity
  8
0
  6
Continuous
 62
     7
370
    35
100
AcDbLine
 10
515.9639156931058
 20
-68.82838170449559
 30
0.0
 11
515.9639156931058
 21
-64.02057595991556
 31
0.0
  0
LINE
  5
147C
330
1F
100
AcDbEntity
  8
0
  6
Continuous
 62
     7
370
    35
100
AcDbLine
 10
517.9639156931058
 20
-38.27838170449552
 30
0.0
 11
517.9639156931058
 21
-42.27838170449553
 31
0.0
  0
LINE
  5
147D
330
1F
100
AcDbEntity
  8
0
  6
Continuous
 62
     7
370
    35
100
AcDbLine
 10
517.9241232185249
 20
-38.27838170449552
 30
0.0
 11
517.9241232185249
 21
-42.27838170449564
 31
0.0
  0
LINE
  5
147E
330
1F
100
AcDbEntity
  8
0
  6
Continuous
 62
     7
370
    35
100
AcDbLine
 10
517.8924280752661
 20
-42.27838170449564
 30
0.0
 11
517.8924280752661
 21
-38.28152142530942
 31
0.0
  0
LINE
  5
147F
330
1F
100
AcDbEntity
  8
0
  6
Continuous
 62
     7
370
    35
100
AcDbLine
 10
516.7972198230461
 20
-42.27838170449564
 30
0.0
 11
516.7972198230461
 21
-38.27838170449552
 31
0.0
  0
LINE
  5
1480
330
1F
100
AcDbEntity
  8
0
  6
Continuous
 62
     7
370
    35
100
AcDbLine
 10
516.863030491276
 20
-42.27838170449564
 30
0.0
 11
516.863030491276
 21
-38.28152142530942
 31
0.0
  0
LINE
  5
1481
330
1F
100
AcDbEntity
  8
0
  6
Continuous
 62
     7
370
    35
100
AcDbLine
 10
517.9639156931058
 20
-42.27838170449564
 30
0.0
 11
516.797219823048
 21
-42.27838170449564
 31
0.0
  0
LINE
  5
1482
330
1F
100
AcDbEntity
  8
0
  6
Continuous
 62
     7
370
    35
100
AcDbLine
 10
517.7972198230461
 20
-38.27838170449552
 30
0.0
 11
517.7972198230461
 21
-38.28152142530942
 31
0.0
  0
LINE
  5
1483
330
1F
100
AcDbEntity
  8
0
  6
Continuous
 62
     7
370
    35
100
AcDbLine
 10
517.8106652964868
 20
-38.27838170449552
 30
0.0
 11
517.8106652964868
 21
-38.28152142530942
 31
0.0
  0
LINE
  5
1484
330
1F
100
AcDbEntity
  8
0
  6
Continuous
 62
     7
370
    35
100
AcDbLine
 10
515.7972198230472
 20
-33.77838170449246
 30
0.0
 11
515.9621701866192
 21
-33.28312819026705
 31
0.0
  0
LINE
  5
1485
330
1F
100
AcDbEntity
  8
0
  6
Continuous
 62
     7
370
    35
100
AcDbLine
 10
515.7972198230488
 20
-33.31619959797246
 30
0.0
 11
515.7972198230488
 21
-33.77838170449246
 31
0.0
  0
LINE
  5
1486
330
1F
100
AcDbEntity
  8
0
  6
Continuous
 62
     7
370
    35
100
AcDbLine
 10
515.9511553415589
 20
-33.31619959797246
 30
0.0
 11
515.7972198230488
 21
-33.31619959797246
 31
0.0
  0
LINE
  5
1487
330
1F
100
AcDbEntity
  8
0
  6
Continuous
 62
     7
370
    35
100
AcDbLine
 10
516.7972198230461
 20
-38.27838170449552
 30
0.0
 11
517.9639156931058
 21
-38.27838170449552
 31
0.0
  0
LINE
  5
1488
330
1F
100
AcDbEntity
  8
0
  6
Continuous
 62
     7
370
    35
100
AcDbLine
 10
517.8924280752661
 20
-38.28152142530942
 30
0.0
 11
516.8630304912751
 21
-38.28152142530942
 31
0.0
  0
LINE
  5
1489
330
1F
100
AcDbEntity
  8
0
  6
Continuous
 62
     7
370
    35
100
AcDbLine
 10
573.547219823046
 20
-68.82838170449559
 30
0.0
 11
537.4972198230461
 21
-68.82838170449559
 31
0.0
  0
LINE
  5
148A
330
1F
100
AcDbEntity
  8
0
  6
Continuous
 62
     7
370
    35
100
AcDbLine
 10
537.4972198230461
 20
-68.83152142530952
 30
0.0
 11
573.547219823046
 21
-68.83152142530952
 31
0.0
  0
LINE
  5
148B
330
1F
100
AcDbEntity
  8
0
  6
Continuous
 62
     7
370
    35
100
AcDbLine
 10
533.7972198230461
 20
-64.27838170449553
 30
0.0
 11
577.797219823046
 21
-64.27838170449553
 31
0.0
  0
LINE
  5
148C
330
1F
100
AcDbEntity
  8
0
  6
Continuous
 62
     7
370
    35
100
AcDbLine
 10
537.4972198230421
 20
-69.8283817044956
 30
0.0
 11
535.5053613943398
 21
-73.27838170449609
 31
0.0
  0
LINE
  5
148D
330
1F
100
AcDbEntity
  8
0
  6
Continuous
 62
     7
370
    35
100
AcDbLine
 10
537.4972198230416
 20
-69.83152142531007
 30
0.0
 11
535.5053613943415
 21
-73.28152142530695
 31
0.0
  0
ARC
  5
148E
330
1F
100
AcDbEntity
  8
0
  6
Continuous
 62
     7
370
    35
100
AcDbCircle
 10
533.7972198230461
 20
-62.27838170449564
 30
0.0
 40
1.999999999999828
100
AcDbArc
 50
180.0
 51
270.0
  0
LINE
  5
148F
330
1F
100
AcDbEntity
  8
0
  6
Continuous
 62
     7
370
    35
100
AcDbLine
 10
537.4972198230461
 20
-68.82838170449559
 30
0.0
 11
537.4972198230461
 21
-69.8283817044956
 31
0.0
  0
LINE
  5
1490
330
1F
100
AcDbEntity
  8
0
  6
Continuous
 62
     7
370
    35
100
AcDbLine
 10
537.4972198230461
 20
-69.8283817044956
 30
0.0
 11
537.4972198230461
 21
-69.83152142531007
 31
0.0
  0
LINE
  5
1491
330
1F
100
AcDbEntity
  8
0
  6
Continuous
 62
     7
370
    35
100
AcDbLine
 10
547.7972198230461
 20
-67.79838170449551
 30
0.0
 11
543.7972198230461
 21
-67.79838170449551
 31
0.0
  0
LINE
  5
1492
330
1F
100
AcDbEntity
  8
0
  6
Continuous
 62
     7
370
    35
100
AcDbLine
 10
547.7972198230461
 20
-67.7791562305294
 30
0.0
 11
543.7972198230461
 21
-67.7791562305294
 31
0.0
  0
LINE
  5
1493
330
1F
100
AcDbEntity
  8
0
  6
Continuous
 62
     7
370
    35
100
AcDbLine
 10
543.7972198230461
 20
-66.79838170449551
 30
0.0
 11
547.7972198230461
 21
-66.79838170449551
 31
0.0
  0
LINE
  5
1494
330
1F
100
AcDbEntity
  8
0
  6
Continuous
 62
     7
370
    35
100
AcDbLine
 10
543.7972198230461
 20
-67.79838170449551
 30
0.0
 11
543.7972198230461
 21
-66.79838170449551
 31
0.0
  0
LINE
  5
1495
330
1F
100
AcDbEntity
  8
0
  6
Continuous
 62
     7
370
    35
100
AcDbLine
 10
547.7972198230461
 20
-66.79838170449551
 30
0.0
 11
547.7972198230461
 21
-67.79838170449562
 31
0.0
  0
LINE
  5
1496
330
1F
100
AcDbEntity
  8
0
  6
Continuous
 62
     7
370
    35
100
AcDbLine
 10
570.047219823046
 20
-71.77838170449234
 30
0.0
 11
573.5472198230447
 21
-69.75765576232942
 31
0.0
  0
LINE
  5
1497
330
1F
100
AcDbEntity
  8
0
  6
Continuous
 62
     7
370
    35
100
AcDbLine
 10
585.7972198230445
 20
-73.27838170449564
 30
0.0
 11
570.047219823046
 21
-73.27838170449564
 31
0.0
  0
LINE
  5
1498
330
1F
100
AcDbEntity
  8
0
  6
Continuous
 62
     7
370
    35
100
AcDbLine
 10
570.047219823046
 20
-73.27838170449941
 30
0.0
 11
585.797219823046
 21
-73.28152142530946
 31
0.0
  0
LINE
  5
1499
330
1F
100
AcDbEntity
  8
0
  6
Continuous
 62
     7
370
    35
100
AcDbLine
 10
570.047219823046
 20
-73.27838170449564
 30
0.0
 11
570.047219823046
 21
-71.77838170449234
 31
0.0
  0
LINE
  5
149A
330
1F
100
AcDbEntity
  8
0
  6
Continuous
 62
     7
370
    35
100
AcDbLine
 10
573.547219823046
 20
-69.75765576233158
 30
0.0
 11
573.547219823046
 21
-68.82838170449559
 31
0.0
  0
LINE
  5
149B
330
1F
100
AcDbEntity
  8
0
  6
Continuous
 62
     7
370
    35
100
AcDbLine
 10
578.797219823046
 20
-71.24838170449544
 30
0.0
 11
582.797219823046
 21
-71.24838170449544
 31
0.0
  0
LINE
  5
149C
330
1F
100
AcDbEntity
  8
0
  6
Continuous
 62
     7
370
    35
100
AcDbLine
 10
582.797219823046
 20
-72.24838170449544
 30
0.0
 11
578.797219823046
 21
-72.24838170449544
 31
0.0
  0
LINE
  5
149D
330
1F
100
AcDbEntity
  8
0
  6
Continuous
 62
     7
370
    35
100
AcDbLine
 10
582.797219823046
 20
-72.21571075707942
 30
0.0
 11
578.797219823046
 21
-72.21571075707942
 31
0.0
  0
LINE
  5
149E
330
1F
100
AcDbEntity
  8
0
  6
Continuous
 62
     7
370
    35
100
AcDbLine
 10
578.797219823046
 20
-72.24838170449544
 30
0.0
 11
578.797219823046
 21
-71.24838170449544
 31
0.0
  0
LINE
  5
149F
330
1F
100
AcDbEntity
  8
0
  6
Continuous
 62
     7
370
    35
100
AcDbLine
 10
582.797219823046
 20
-71.24838170449544
 30
0.0
 11
582.797219823046
 21
-72.24838170449544
 31
0.0
  0
ARC
  5
14A0
330
1F
100
AcDbEntity
  8
0
  6
Continuous
 62
     7
370
    35
100
AcDbCircle
 10
577.797219823046
 20
-62.27838170449554
 30
0.0
 40
2.00000000000001
100
AcDbArc
 50
270.0
 51
0.0
  0
LINE
  5
14A1
330
1F
100
AcDbEntity
  8
0
  6
Continuous
 62
     7
370
    35
100
AcDbLine
 10
515.993589303487
 20
-4.778381704495528
 30
0.0
 11
524.2972198230416
 21
-4.778381704495528
 31
0.0
  0
LINE
  5
14A2
330
1F
100
AcDbEntity
  8
0
  6
Continuous
 62
     7
370
    35
100
AcDbLine
 10
513.9639156931058
 20
-7.278381704495528
 30
0.0
 11
513.9639156931058
 21
-29.77838170449564
 31
0.0
  0
LINE
  5
14A3
330
1F
100
AcDbEntity
  8
0
  6
Continuous
 62
     7
370
    35
100
AcDbLine
 10
513.9639156931058
 20
-29.77838170449564
 30
0.0
 11
515.962170186619
 21
-31.7766361980087
 31
0.0
  0
LINE
  5
14A4
330
1F
100
AcDbEntity
  8
0
  6
Continuous
 62
     7
370
    35
100
AcDbLine
 10
515.9621701866154
 20
-5.280127210985766
 30
0.0
 11
513.9639156931058
 21
-7.278381704495528
 31
0.0
  0
LINE
  5
14A5
330
1F
100
AcDbEntity
  8
0
  6
Continuous
 62
     7
370
    35
100
AcDbLine
 10
515.993589303487
 20
-4.778381704495528
 30
0.0
 11
515.9621701866162
 21
-4.778381704495528
 31
0.0
  0
LINE
  5
14A6
102
{ACAD_REACTORS
330
1465
102
}
330
1F
100
AcDbEntity
  8
0
  6
Continuous
 62
     7
370
    35
100
AcDbLine
 10
515.9621701866154
 20
-4.781521425312518
 30
0.0
 11
515.7972198230461
 21
-4.781521425312518
 31
0.0
  0
LINE
  5
14A7
330
1F
100
AcDbEntity
  8
0
  6
Continuous
 62
     7
370
    35
100
AcDbLine
 10
515.7972198230461
 20
-4.781521425312518
 30
0.0
 11
515.7972198230461
 21
-5.445077574555681
 31
0.0
  0
LINE
  5
14A8
330
1F
100
AcDbEntity
  8
0
  6
Continuous
 62
     7
370
    35
100
AcDbLine
 10
587.2972198230439
 20
14.4216182955044
 30
0.0
 11
587.0536907524479
 21
23.72161829550458
 31
0.0
  0
LINE
  5
14A9
330
1F
100
AcDbEntity
  8
0
  6
Continuous
 62
     7
370
    35
100
AcDbLine
 10
587.297219823046
 20
23.72161829550447
 30
0.0
 11
587.297219823046
 21
14.4216182955044
 31
0.0
  0
LINE
  5
14AA
330
1F
100
AcDbEntity
  8
0
  6
Continuous
 62
     7
370
    35
100
AcDbLine
 10
569.8972198230459
 20
17.07161829550449
 30
0.0
 11
569.8972198230459
 21
15.07161829550449
 31
0.0
  0
LINE
  5
14AB
330
1F
100
AcDbEntity
  8
0
  6
Continuous
 62
     7
370
    35
100
AcDbLine
 10
569.7972198230472
 20
15.6055928917205
 30
0.0
 11
569.7972198230472
 21
16.47161829550447
 31
0.0
  0
LINE
  5
14AC
330
1F
100
AcDbEntity
  8
0
  6
Continuous
 62
     7
370
    35
100
AcDbLine
 10
565.6972198230459
 20
15.07161829550449
 30
0.0
 11
565.6972198230459
 21
17.07161829550449
 31
0.0
  0
LINE
  5
14AD
330
1F
100
AcDbEntity
  8
0
  6
Continuous
 62
     7
370
    35
100
AcDbLine
 10
565.7972198230472
 20
15.6055928917205
 30
0.0
 11
565.7972198230472
 21
16.47161829550447
 31
0.0
  0
LINE
  5
14AE
330
1F
100
AcDbEntity
  8
0
  6
Continuous
 62
     7
370
    35
100
AcDbLine
 10
545.897219823046
 20
17.07161829550449
 30
0.0
 11
545.897219823046
 21
15.07161829550449
 31
0.0
  0
LINE
  5
14AF
330
1F
100
AcDbEntity
  8
0
  6
Continuous
 62
     7
370
    35
100
AcDbLine
 10
545.7972198230471
 20
15.60559289172005
 30
0.0
 11
545.7972198230471
 21
16.47161829550481
 31
0.0
  0
LINE
  5
14B0
330
1F
100
AcDbEntity
  8
0
  6
Continuous
 62
     7
370
    35
100
AcDbLine
 10
541.6972198230459
 20
15.07161829550449
 30
0.0
 11
541.6972198230459
 21
17.07161829550449
 31
0.0
  0
LINE
  5
14B1
330
1F
100
AcDbEntity
  8
0
  6
Continuous
 62
     7
370
    35
100
AcDbLine
 10
541.7972198230471
 20
15.6055928917205
 30
0.0
 11
541.7972198230471
 21
16.47161829550447
 31
0.0
  0
LINE
  5
14B2
330
1F
100
AcDbEntity
  8
0
  6
Continuous
 62
     7
370
    35
100
AcDbLine
 10
524.2972198230461
 20
14.42161829550405
 30
0.0
 11
524.2972198230461
 21
23.72161829550435
 31
0.0
  0
LINE
  5
14B3
330
1F
100
AcDbEntity
  8
0
  6
Continuous
 62
     7
370
    35
100
AcDbLine
 10
524.5407488936441
 20
23.72161829550435
 30
0.0
 11
524.2972198230478
 21
14.42161829550405
 31
0.0
  0
LINE
  5
14B5
330
1F
100
AcDbEntity
  8
0
  6
Continuous
 62
     7
370
    35
100
AcDbLine
 10
533.7972198230461
 20
10.72161829550447
 30
0.0
 11
577.797219823046
 21
10.72161829550447
 31
0.0
  0
LINE
  5
14B6
330
1F
100
AcDbEntity
  8
0
  6
Continuous
 62
     7
370
    35
100
AcDbLine
 10
536.2972198230461
 20
12.4216182955044
 30
0.0
 11
537.7972198230461
 21
12.4216182955044
 31
0.0
  0
LINE
  5
14B7
330
1F
100
AcDbEntity
  8
0
  6
Continuous
 62
     7
370
    35
100
AcDbLine
 10
536.2972198230461
 20
14.4216182955044
 30
0.0
 11
537.7972198230461
 21
14.4216182955044
 31
0.0
  0
LINE
  5
14B8
330
1F
100
AcDbEntity
  8
0
  6
Continuous
 62
     7
370
    35
100
AcDbLine
 10
524.2972198230461
 20
-4.778381704495528
 30
0.0
 11
524.2972198230461
 21
14.42161829550405
 31
0.0
  0
ARC
  5
14BA
330
1F
100
AcDbEntity
  8
0
  6
Continuous
 62
     7
370
    35
100
AcDbCircle
 10
533.7972198230461
 20
8.72161829550447
 30
0.0
 40
1.999999999999985
100
AcDbArc
 50
90.0
 51
180.0
  0
LINE
  5
14BB
330
1F
100
AcDbEntity
  8
0
  6
Continuous
 62
     7
370
    35
100
AcDbLine
 10
536.3972198230473
 20
12.4216182955044
 30
0.0
 11
536.3972198230473
 21
14.4216182955044
 31
0.0
  0
LINE
  5
14BC
330
1F
100
AcDbEntity
  8
0
  6
Continuous
 62
     7
370
    35
100
AcDbLine
 10
536.2972198230461
 20
12.4216182955044
 30
0.0
 11
536.2972198230461
 21
14.4216182955044
 31
0.0
  0
LINE
  5
14BD
330
1F
100
AcDbEntity
  8
0
  6
Continuous
 62
     7
370
    35
100
AcDbLine
 10
541.6972198230459
 20
15.07161829550449
 30
0.0
 11
545.897219823046
 21
15.07161829550449
 31
0.0
  0
LINE
  5
14BE
330
1F
100
AcDbEntity
  8
0
  6
Continuous
 62
     7
370
    35
100
AcDbLine
 10
541.7972198230471
 20
15.60559289172005
 30
0.0
 11
545.7972198230471
 21
15.60559289172005
 31
0.0
  0
LINE
  5
14BF
330
1F
100
AcDbEntity
  8
0
  6
Continuous
 62
     7
370
    35
100
AcDbLine
 10
545.897219823046
 20
15.57161829550449
 30
0.0
 11
541.6972198230459
 21
15.57161829550449
 31
0.0
  0
LINE
  5
14C0
330
1F
100
AcDbEntity
  8
0
  6
Continuous
 62
     7
370
    35
100
AcDbLine
 10
537.6972198230474
 20
14.4216182955044
 30
0.0
 11
537.6972198230474
 21
12.4216182955044
 31
0.0
  0
LINE
  5
14C1
330
1F
100
AcDbEntity
  8
0
  6
Continuous
 62
     7
370
    35
100
AcDbLine
 10
537.7972198230461
 20
14.4216182955044
 30
0.0
 11
537.7972198230461
 21
12.4216182955044
 31
0.0
  0
LINE
  5
14C2
330
1F
100
AcDbEntity
  8
0
  6
Continuous
 62
     7
370
    35
100
AcDbLine
 10
565.6972198230459
 20
15.07161829550449
 30
0.0
 11
569.8972198230459
 21
15.07161829550449
 31
0.0
  0
LINE
  5
14C3
330
1F
100
AcDbEntity
  8
0
  6
Continuous
 62
     7
370
    35
100
AcDbLine
 10
565.7972198230472
 20
15.60559289172005
 30
0.0
 11
569.7972198230472
 21
15.60559289172005
 31
0.0
  0
LINE
  5
14C4
330
1F
100
AcDbEntity
  8
0
  6
Continuous
 62
     7
370
    35
100
AcDbLine
 10
569.8972198230459
 20
15.57161829550449
 30
0.0
 11
565.6972198230459
 21
15.57161829550449
 31
0.0
  0
LINE
  5
14C5
330
1F
100
AcDbEntity
  8
0
  6
Continuous
 62
     7
370
    35
100
AcDbLine
 10
587.297219823046
 20
14.4216182955044
 30
0.0
 11
587.297219823046
 21
-4.778381704495528
 31
0.0
  0
ARC
  5
14C6
330
1F
100
AcDbEntity
  8
0
  6
Continuous
 62
     7
370
    35
100
AcDbCircle
 10
577.797219823046
 20
8.721618295504356
 30
0.0
 40
2.000000000000019
100
AcDbArc
 50
0.0
 51
90.0
  0
LINE
  5
14C7
330
1F
100
AcDbEntity
  8
0
  6
Continuous
 62
     7
370
    35
100
AcDbLine
 10
575.1972198230472
 20
14.4216182955044
 30
0.0
 11
575.1972198230472
 21
12.4216182955044
 31
0.0
  0
LINE
  5
14C8
330
1F
100
AcDbEntity
  8
0
  6
Continuous
 62
     7
370
    35
100
AcDbLine
 10
575.297219823046
 20
14.4216182955044
 30
0.0
 11
575.297219823046
 21
12.4216182955044
 31
0.0
  0
LINE
  5
14C9
330
1F
100
AcDbEntity
  8
0
  6
Continuous
 62
     7
370
    35
100
AcDbLine
 10
573.8972198230473
 20
12.4216182955044
 30
0.0
 11
573.8972198230473
 21
14.4216182955044
 31
0.0
  0
LINE
  5
14CA
330
1F
100
AcDbEntity
  8
0
  6
Continuous
 62
     7
370
    35
100
AcDbLine
 10
573.797219823046
 20
12.4216182955044
 30
0.0
 11
573.797219823046
 21
14.4216182955044
 31
0.0
  0
LINE
  5
14CB
330
1F
100
AcDbEntity
  8
0
  6
Continuous
 62
     7
370
    35
100
AcDbLine
 10
573.797219823046
 20
12.4216182955044
 30
0.0
 11
575.297219823046
 21
12.4216182955044
 31
0.0
  0
LINE
  5
14CC
330
1F
100
AcDbEntity
  8
0
  6
Continuous
 62
     7
370
    35
100
AcDbLine
 10
573.797219823046
 20
14.4216182955044
 30
0.0
 11
575.297219823046
 21
14.4216182955044
 31
0.0
  0
LINE
  5
14CD
330
1F
100
AcDbEntity
  8
0
  6
Continuous
 62
     7
370
    35
100
AcDbLine
 10
536.9185401666071
 20
19.72161829550447
 30
0.0
 11
574.6758994794872
 21
19.72161829550447
 31
0.0
  0
LINE
  5
14CE
330
1F
100
AcDbEntity
  8
0
  6
Continuous
 62
     7
370
    35
100
AcDbLine
 10
536.9185401666061
 20
19.72161829550447
 30
0.0
 11
574.675899479486
 21
19.72161829550447
 31
0.0
  0
LINE
  5
14CF
102
{ACAD_REACTORS
330
1536
102
}
330
1F
100
AcDbEntity
  8
0
  6
Continuous
 62
     7
370
    35
100
AcDbLine
 10
534.9185401666073
 20
25.72161829550447
 30
0.0
 11
576.6758994794871
 21
25.72161829550447
 31
0.0
  0
ARC
  5
14D0
330
1F
100
AcDbEntity
  8
0
  6
Continuous
 62
     7
370
    35
100
AcDbCircle
 10
536.9185401666071
 20
21.22161829550447
 30
0.0
 40
1.50000000000025
100
AcDbArc
 50
225.0000000000958
 51
270.0
  0
ARC
  5
14D1
330
1F
100
AcDbEntity
  8
0
  6
Continuous
 62
     7
370
    35
100
AcDbCircle
 10
536.9185401666061
 20
21.22161829550435
 30
0.0
 40
1.500000000000222
100
AcDbArc
 50
224.9999999999996
 51
270.0
  0
LINE
  5
14D2
330
1F
100
AcDbEntity
  8
0
  6
Continuous
 62
     7
370
    35
100
AcDbLine
 10
524.5407488936439
 20
23.72161829550435
 30
0.0
 11
532.7972198230478
 21
23.72161829550435
 31
0.0
  0
LINE
  5
14D4
330
1F
100
AcDbEntity
  8
0
  6
Continuous
 62
     7
370
    35
100
AcDbLine
 10
524.2972198230461
 20
23.72161829550435
 30
0.0
 11
524.5407488936439
 21
23.72161829550435
 31
0.0
  0
LINE
  5
14D5
330
1F
100
AcDbEntity
  8
0
  6
Continuous
 62
     7
370
    35
100
AcDbLine
 10
535.8578799948316
 20
20.16095812372503
 30
0.0
 11
532.7972198230431
 21
23.22161829550446
 31
0.0
  0
LINE
  5
14D6
330
1F
100
AcDbEntity
  8
0
  6
Continuous
 62
     7
370
    35
100
AcDbLine
 10
532.7972198230439
 20
23.22161829550231
 30
0.0
 11
535.8578799948285
 21
20.16095812372685
 31
0.0
  0
ARC
  5
14D7
330
1F
100
AcDbEntity
  8
0
  6
Continuous
 62
     7
370
    35
100
AcDbCircle
 10
534.9185401666073
 20
24.22161829550447
 30
0.0
 40
1.49999999999998
100
AcDbArc
 50
90.0
 51
135.0000000000002
  0
LINE
  5
14D8
330
1F
100
AcDbEntity
  8
0
  6
Continuous
 62
     7
370
    35
100
AcDbLine
 10
532.7972198230471
 20
23.22161829550446
 30
0.0
 11
532.7972198230471
 21
24.22161829550447
 31
0.0
  0
LINE
  5
14D9
330
1F
100
AcDbEntity
  8
0
  6
Continuous
 62
     7
370
    35
100
AcDbLine
 10
532.7972198230461
 20
23.72161829550435
 30
0.0
 11
532.7972198230461
 21
23.22161829550446
 31
0.0
  0
LINE
  5
14DA
330
1F
100
AcDbEntity
  8
0
  6
Continuous
 62
     7
370
    35
100
AcDbLine
 10
532.7972198230452
 20
24.22161829550663
 30
0.0
 11
533.8578799948296
 21
25.28227846728197
 31
0.0
  0
LINE
  5
14DB
330
1F
100
AcDbEntity
  8
0
  6
Continuous
 62
     7
370
    35
100
AcDbLine
 10
545.7972198230471
 20
16.97161829550447
 30
0.0
 11
541.7972198230471
 21
16.97161829550447
 31
0.0
  0
LINE
  5
14DC
330
1F
100
AcDbEntity
  8
0
  6
Continuous
 62
     7
370
    35
100
AcDbLine
 10
545.7972198230471
 20
16.47161829550481
 30
0.0
 11
541.7972198230471
 21
16.47161829550481
 31
0.0
  0
LINE
  5
14DD
330
1F
100
AcDbEntity
  8
0
  6
Continuous
 62
     7
370
    35
100
AcDbLine
 10
541.6972198230459
 20
17.07161829550449
 30
0.0
 11
545.897219823046
 21
17.07161829550449
 31
0.0
  0
LINE
  5
14DE
330
1F
100
AcDbEntity
  8
0
  6
Continuous
 62
     7
370
    35
100
AcDbLine
 10
541.7972198230471
 20
16.47161829550447
 30
0.0
 11
541.7972198230471
 21
16.97161829550447
 31
0.0
  0
LINE
  5
14DF
330
1F
100
AcDbEntity
  8
0
  6
Continuous
 62
     7
370
    35
100
AcDbLine
 10
545.7972198230471
 20
16.47161829550481
 30
0.0
 11
545.7972198230471
 21
16.97161829550447
 31
0.0
  0
LINE
  5
14E0
330
1F
100
AcDbEntity
  8
0
  6
Continuous
 62
     7
370
    35
100
AcDbLine
 10
569.7972198230472
 20
16.97161829550447
 30
0.0
 11
565.7972198230472
 21
16.97161829550447
 31
0.0
  0
LINE
  5
14E1
330
1F
100
AcDbEntity
  8
0
  6
Continuous
 62
     7
370
    35
100
AcDbLine
 10
565.7972198230472
 20
16.47161829550447
 30
0.0
 11
569.7972198230472
 21
16.47161829550447
 31
0.0
  0
LINE
  5
14E2
330
1F
100
AcDbEntity
  8
0
  6
Continuous
 62
     7
370
    35
100
AcDbLine
 10
565.6972198230459
 20
17.07161829550449
 30
0.0
 11
569.8972198230459
 21
17.07161829550449
 31
0.0
  0
LINE
  5
14E3
330
1F
100
AcDbEntity
  8
0
  6
Continuous
 62
     7
370
    35
100
AcDbLine
 10
565.7972198230472
 20
16.97161829550447
 30
0.0
 11
565.7972198230472
 21
16.47161829550447
 31
0.0
  0
LINE
  5
14E4
330
1F
100
AcDbEntity
  8
0
  6
Continuous
 62
     7
370
    35
100
AcDbLine
 10
569.7972198230472
 20
16.47161829550447
 30
0.0
 11
569.7972198230472
 21
16.97161829550447
 31
0.0
  0
LINE
  5
14E5
330
1F
100
AcDbEntity
  8
0
  6
Continuous
 62
     7
370
    35
100
AcDbLine
 10
578.7972198230439
 20
23.72161829550435
 30
0.0
 11
587.0536907524479
 21
23.72161829550435
 31
0.0
  0
LINE
  5
14E6
330
1F
100
AcDbEntity
  8
0
  6
Continuous
 62
     7
370
    35
100
AcDbLine
 10
575.736559651267
 20
20.16095812372446
 30
0.0
 11
578.7972198230471
 21
23.22161829550446
 31
0.0
  0
LINE
  5
14E7
330
1F
100
AcDbEntity
  8
0
  6
Continuous
 62
     7
370
    35
100
AcDbLine
 10
575.7365596512619
 20
20.16095812372503
 30
0.0
 11
578.7972198230502
 21
23.22161829550446
 31
0.0
  0
ARC
  5
14E8
330
1F
100
AcDbEntity
  8
0
  6
Continuous
 62
     7
370
    35
100
AcDbCircle
 10
574.6758994794872
 20
21.22161829550447
 30
0.0
 40
1.500000000000243
100
AcDbArc
 50
270.0
 51
315.0000000000003
  0
ARC
  5
14E9
330
1F
100
AcDbEntity
  8
0
  6
Continuous
 62
     7
370
    35
100
AcDbCircle
 10
574.6758994794861
 20
21.22161829550447
 30
0.0
 40
1.500000000000276
100
AcDbArc
 50
270.0
 51
314.9999999999033
  0
LINE
  5
14EA
330
1F
100
AcDbEntity
  8
0
  6
Continuous
 62
     7
370
    35
100
AcDbLine
 10
578.7972198230471
 20
23.22161829550446
 30
0.0
 11
578.7972198230471
 21
24.22161829550447
 31
0.0
  0
LINE
  5
14EB
330
1F
100
AcDbEntity
  8
0
  6
Continuous
 62
     7
370
    35
100
AcDbLine
 10
578.797219823046
 20
23.22161829550446
 30
0.0
 11
578.797219823046
 21
23.72161829550435
 31
0.0
  0
ARC
  5
14EC
330
1F
100
AcDbEntity
  8
0
  6
Continuous
 62
     7
370
    35
100
AcDbCircle
 10
576.6758994794872
 20
24.22161829550447
 30
0.0
 40
1.500000000000262
100
AcDbArc
 50
44.99999999999913
 51
90.0
  0
LINE
  5
14ED
330
1F
100
AcDbEntity
  8
0
  6
Continuous
 62
     7
370
    35
100
AcDbLine
 10
578.7972198230471
 20
24.22161829550447
 30
0.0
 11
577.736559651267
 21
25.28227846728436
 31
0.0
  0
LINE
  5
14EE
330
1F
100
AcDbEntity
  8
0
  6
Continuous
 62
     7
370
    35
100
AcDbLine
 10
587.0536907524479
 20
23.72161829550447
 30
0.0
 11
587.297219823046
 21
23.72161829550447
 31
0.0
  0
LINE
  5
14EF
330
1F
100
AcDbEntity
  8
0
  6
Continuous
 62
     7
370
    35
100
AcDbLine
 10
595.797219823046
 20
-31.6116858344356
 30
0.0
 11
595.797219823046
 21
-33.31933931878285
 31
0.0
  0
LINE
  5
14F0
330
1F
100
AcDbEntity
  8
0
  6
Continuous
 62
     7
370
    35
100
AcDbLine
 10
595.6322694594747
 20
-4.778381704491097
 30
0.0
 11
595.6322694594747
 21
-33.28312819026683
 31
0.0
  0
LINE
  5
14F1
330
1F
100
AcDbEntity
  8
0
  6
Continuous
 62
     7
370
    35
100
AcDbLine
 10
595.6008503426049
 20
-4.77838170449712
 30
0.0
 11
595.6008503426049
 21
-71.80783712656563
 31
0.0
  0
LINE
  5
14F2
330
1F
100
AcDbEntity
  8
0
  6
Continuous
 62
     7
370
    35
100
AcDbLine
 10
595.797219823046
 20
-71.77838170449553
 30
0.0
 11
595.797219823046
 21
-33.77838170449553
 31
0.0
  0
LINE
  5
14F3
330
1F
100
AcDbEntity
  8
0
  6
Continuous
 62
     7
370
    35
100
AcDbLine
 10
595.797219823046
 20
-71.78152142530946
 30
0.0
 11
595.797219823046
 21
-33.78152142531013
 31
0.0
  0
LINE
  5
14F4
330
1F
100
AcDbEntity
  8
0
  6
Continuous
 62
     7
370
    35
100
AcDbLine
 10
595.6008503426049
 20
-71.80783712656563
 30
0.0
 11
595.7972198230471
 21
-71.77838170449565
 31
0.0
  0
LINE
  5
14F5
330
1F
100
AcDbEntity
  8
0
  6
Continuous
 62
     7
370
    35
100
AcDbLine
 10
593.6305239529859
 20
-42.27838170449564
 30
0.0
 11
593.6305239529859
 21
-38.27838170449552
 31
0.0
  0
LINE
  5
14F6
330
1F
100
AcDbEntity
  8
0
  6
Continuous
 62
     7
370
    35
100
AcDbLine
 10
594.797219823046
 20
-38.27838170449552
 30
0.0
 11
594.797219823046
 21
-42.27838170449553
 31
0.0
  0
LINE
  5
14F7
330
1F
100
AcDbEntity
  8
0
  6
Continuous
 62
     7
370
    35
100
AcDbLine
 10
593.6703164275671
 20
-42.27838170449564
 30
0.0
 11
593.6703164275671
 21
-38.27838170449552
 31
0.0
  0
LINE
  5
14F8
330
1F
100
AcDbEntity
  8
0
  6
Continuous
 62
     7
370
    35
100
AcDbLine
 10
593.7020115708259
 20
-38.28152142530942
 30
0.0
 11
593.7020115708259
 21
-42.27838170449564
 31
0.0
  0
LINE
  5
14F9
330
1F
100
AcDbEntity
  8
0
  6
Continuous
 62
     7
370
    35
100
AcDbLine
 10
594.7314091548161
 20
-38.28152142530942
 30
0.0
 11
594.7314091548161
 21
-42.27838170449564
 31
0.0
  0
LINE
  5
14FA
330
1F
100
AcDbEntity
  8
0
  6
Continuous
 62
     7
370
    35
100
AcDbLine
 10
594.797219823046
 20
-42.27838170449564
 30
0.0
 11
593.6305239529859
 21
-42.27838170449564
 31
0.0
  0
LINE
  5
14FB
330
1F
100
AcDbEntity
  8
0
  6
Continuous
 62
     7
370
    35
100
AcDbLine
 10
595.6322694594726
 20
-33.28312819026705
 30
0.0
 11
595.7972198230437
 21
-33.77838170449246
 31
0.0
  0
LINE
  5
14FC
330
1F
100
AcDbEntity
  8
0
  6
Continuous
 62
     7
370
    35
100
AcDbLine
 10
595.6443300277323
 20
-33.31933931878285
 30
0.0
 11
595.7972198230431
 21
-33.31933931878285
 31
0.0
  0
LINE
  5
14FD
330
1F
100
AcDbEntity
  8
0
  6
Continuous
 62
     7
370
    35
100
AcDbLine
 10
595.7972198230431
 20
-33.31933931878285
 30
0.0
 11
595.7972198230431
 21
-33.77838170449553
 31
0.0
  0
LINE
  5
14FE
330
1F
100
AcDbEntity
  8
0
  6
Continuous
 62
     7
370
    35
100
AcDbLine
 10
593.797219823046
 20
-38.28152142530942
 30
0.0
 11
593.797219823046
 21
-38.27838170449552
 31
0.0
  0
LINE
  5
14FF
330
1F
100
AcDbEntity
  8
0
  6
Continuous
 62
     7
370
    35
100
AcDbLine
 10
593.7837743496052
 20
-38.28152142530942
 30
0.0
 11
593.7837743496052
 21
-38.27838170449552
 31
0.0
  0
LINE
  5
1500
330
1F
100
AcDbEntity
  8
0
  6
Continuous
 62
     7
370
    35
100
AcDbLine
 10
593.6305239529771
 20
-38.27838170449552
 30
0.0
 11
594.797219823046
 21
-38.27838170449552
 31
0.0
  0
LINE
  5
1501
330
1F
100
AcDbEntity
  8
0
  6
Continuous
 62
     7
370
    35
100
AcDbLine
 10
594.7314091548161
 20
-38.28152142530942
 30
0.0
 11
593.702011570826
 21
-38.28152142530942
 31
0.0
  0
LINE
  5
1502
330
1F
100
AcDbEntity
  8
0
  6
Continuous
 62
     7
370
    35
100
AcDbLine
 10
589.2972198230459
 20
-1.278381704495529
 30
0.0
 11
589.2972198230459
 21
21.22161829550447
 31
0.0
  0
LINE
  5
1503
330
1F
100
AcDbEntity
  8
0
  6
Continuous
 62
     7
370
    35
100
AcDbLine
 10
597.6305239529859
 20
-29.77838170449553
 30
0.0
 11
597.6305239529859
 21
-7.278381704495528
 31
0.0
  0
LINE
  5
1504
330
1F
100
AcDbEntity
  8
0
  6
Continuous
 62
     7
370
    35
100
AcDbLine
 10
595.6322694594729
 20
-31.77663619800847
 30
0.0
 11
597.6305239529859
 21
-29.77838170449553
 31
0.0
  0
LINE
  5
1505
330
1F
100
AcDbEntity
  8
0
  6
Continuous
 62
     7
370
    35
100
AcDbLine
 10
597.6305239529859
 20
-7.278381704495528
 30
0.0
 11
595.6322694594747
 21
-5.280127210984403
 31
0.0
  0
LINE
  5
1506
330
1F
100
AcDbEntity
  8
0
  6
Continuous
 62
     7
370
    35
100
AcDbLine
 10
595.6322694594756
 20
-4.77838170449712
 30
0.0
 11
595.6008503426049
 21
-4.77838170449712
 31
0.0
  0
LINE
  5
1507
102
{ACAD_REACTORS
330
1465
102
}
330
1F
100
AcDbEntity
  8
0
  6
Continuous
 62
     7
370
    35
100
AcDbLine
 10
595.6322694594747
 20
-4.781521425308993
 30
0.0
 11
595.797219823046
 21
-4.781521425308993
 31
0.0
  0
LINE
  5
1508
330
1F
100
AcDbEntity
  8
0
  6
Continuous
 62
     7
370
    35
100
AcDbLine
 10
595.797219823046
 20
-4.781521425309449
 30
0.0
 11
595.797219823046
 21
-5.445077574555455
 31
0.0
  0
DIMENSION
  5
151F
102
{ACAD_XDICTIONARY
360
152C
102
}
102
{ACAD_REACTORS
330
1536
102
}
330
1F
100
AcDbEntity
  8
0
100
AcDbDimension
  2
*D3
 10
496.5200081900554
 20
-73.28152142530946
 30
0.0
 11
494.6450081900553
 21
-23.77995156490239
 31
0.0
 70
    32
 71
     5
 42
99.00313972081391
  3
ISO-25
100
AcDbAlignedDimension
 13
534.9185401666073
 23
25.72161829550447
 33
0.0
 14
515.797219823042
 24
-73.28152142530946
 34
0.0
 50
90.0
100
AcDbRotatedDimension
  0
LINE
  5
15F7
330
1F
100
AcDbEntity
  8
0
100
AcDbLine
 10
519.6097080932635
 20
-106.6703072917412
 30
0.0
 11
521.0242751736789
 21
-108.0848743721566
 31
0.0
  0
LINE
  5
15F8
330
1F
100
AcDbEntity
  8
0
100
AcDbLine
 10
521.3778285642721
 20
-107.7313209815633
 30
0.0
 11
522.0849353454588
 21
-108.4384277627498
 31
0.0
  0
LINE
  5
15F9
330
1F
100
AcDbEntity
  8
0
100
AcDbLine
 10
521.0242751736789
 20
-109.4990879345297
 30
0.0
 11
522.4388422540942
 21
-110.9136550149451
 31
0.0
  0
LINE
  5
15FA
330
1F
100
AcDbEntity
  8
0
100
AcDbLine
 10
520.6707217830857
 20
-109.852641325123
 30
0.0
 11
522.0849353454588
 21
-108.4384277627498
 31
0.0
  0
LINE
  5
15FB
330
1F
100
AcDbEntity
  8
0
100
AcDbLine
 10
521.0242751736789
 20
-107.0848743721566
 30
0.0
 11
521.154275173679
 21
-107.9548743721566
 31
0.0
  0
CIRCLE
  5
15FC
330
1F
100
AcDbEntity
  8
0
100
AcDbCircle
 10
521.0242751736789
 20
-108.7919811533432
 30
0.0
 40
0.5
  0
LINE
  5
15FD
330
1F
100
AcDbEntity
  8
0
100
AcDbLine
 10
519.9636150018991
 20
-109.1455345439365
 30
0.0
 11
520.6707217830857
 21
-109.852641325123
 31
0.0
  0
LINE
  5
15FE
330
1F
100
AcDbEntity
  8
0
100
AcDbLine
 10
520.1871683924922
 20
-108.661981153343
 30
0.0
 11
519.3171683924922
 21
-108.7919811533432
 31
0.0
  0
LINE
  5
15FF
330
1F
100
AcDbEntity
  8
0
100
AcDbLine
 10
519.3171683924922
 20
-108.7919811533432
 30
0.0
 11
520.1871683924922
 21
-108.9219811533429
 31
0.0
  0
LINE
  5
1600
330
1F
100
AcDbEntity
  8
0
100
AcDbLine
 10
521.0242751736789
 20
-110.4990879345297
 30
0.0
 11
520.8942751736789
 21
-109.6290879345298
 31
0.0
  0
LINE
  5
1601
330
1F
100
AcDbEntity
  8
0
100
AcDbLine
 10
521.154275173679
 20
-109.6290879345297
 30
0.0
 11
521.0242751736789
 21
-110.4990879345297
 31
0.0
  0
LINE
  5
1602
330
1F
100
AcDbEntity
  8
0
100
AcDbLine
 10
519.9636150018991
 20
-109.1455345439365
 30
0.0
 11
521.3778285642721
 21
-107.7313209815633
 31
0.0
  0
LINE
  5
1603
330
1F
100
AcDbEntity
  8
0
100
AcDbLine
 10
520.8942751736789
 20
-107.9548743721566
 30
0.0
 11
521.0242751736789
 21
-107.0848743721566
 31
0.0
  0
LINE
  5
1604
330
1F
100
AcDbEntity
  8
0
100
AcDbLine
 10
518.9026013120768
 20
-107.3774140729278
 30
0.0
 11
520.3171683924924
 21
-108.7919811533432
 31
0.0
  0
LINE
  5
1605
330
1F
100
AcDbEntity
  8
0
100
AcDbLine
 10
522.7313819548653
 20
-108.7919811533432
 30
0.0
 11
521.8613819548655
 21
-108.661981153343
 31
0.0
  0
LINE
  5
1606
330
1F
100
AcDbEntity
  8
0
100
AcDbLine
 10
521.7313819548657
 20
-108.7919811533432
 30
0.0
 11
523.1459490352809
 21
-110.2065482337585
 31
0.0
  0
LINE
  5
1607
330
1F
100
AcDbEntity
  8
0
100
AcDbLine
 10
521.8613819548655
 20
-108.9219811533429
 30
0.0
 11
522.7313819548653
 21
-108.7919811533432
 31
0.0
  0
LINE
  5
1608
330
1F
100
AcDbEntity
  8
0
100
AcDbLine
 10
519.6097080932635
 20
-112.4703072917413
 30
0.0
 11
521.0242751736789
 21
-113.8848743721567
 31
0.0
  0
LINE
  5
1609
330
1F
100
AcDbEntity
  8
0
100
AcDbLine
 10
521.3778285642721
 20
-113.5313209815634
 30
0.0
 11
522.0849353454588
 21
-114.2384277627499
 31
0.0
  0
LINE
  5
160A
330
1F
100
AcDbEntity
  8
0
100
AcDbLine
 10
521.0242751736789
 20
-115.2990879345297
 30
0.0
 11
522.4388422540942
 21
-116.7136550149452
 31
0.0
  0
LINE
  5
160B
330
1F
100
AcDbEntity
  8
0
100
AcDbLine
 10
520.6707217830857
 20
-115.652641325123
 30
0.0
 11
522.0849353454588
 21
-114.2384277627499
 31
0.0
  0
LINE
  5
160C
330
1F
100
AcDbEntity
  8
0
100
AcDbLine
 10
521.0242751736789
 20
-112.8848743721567
 30
0.0
 11
521.154275173679
 21
-113.7548743721567
 31
0.0
  0
CIRCLE
  5
160D
330
1F
100
AcDbEntity
  8
0
100
AcDbCircle
 10
521.0242751736789
 20
-114.5919811533433
 30
0.0
 40
0.5
  0
LINE
  5
160E
330
1F
100
AcDbEntity
  8
0
100
AcDbLine
 10
519.9636150018991
 20
-114.9455345439366
 30
0.0
 11
520.6707217830857
 21
-115.652641325123
 31
0.0
  0
LINE
  5
160F
330
1F
100
AcDbEntity
  8
0
100
AcDbLine
 10
520.1871683924922
 20
-114.4619811533432
 30
0.0
 11
519.3171683924922
 21
-114.5919811533433
 31
0.0
  0
LINE
  5
1610
330
1F
100
AcDbEntity
  8
0
100
AcDbLine
 10
519.3171683924922
 20
-114.5919811533433
 30
0.0
 11
520.1871683924922
 21
-114.721981153343
 31
0.0
  0
LINE
  5
1611
330
1F
100
AcDbEntity
  8
0
100
AcDbLine
 10
521.0242751736789
 20
-116.2990879345297
 30
0.0
 11
520.8942751736789
 21
-115.4290879345299
 31
0.0
  0
LINE
  5
1612
330
1F
100
AcDbEntity
  8
0
100
AcDbLine
 10
521.154275173679
 20
-115.4290879345298
 30
0.0
 11
521.0242751736789
 21
-116.2990879345297
 31
0.0
  0
LINE
  5
1613
330
1F
100
AcDbEntity
  8
0
100
AcDbLine
 10
519.9636150018991
 20
-114.9455345439366
 30
0.0
 11
521.3778285642721
 21
-113.5313209815634
 31
0.0
  0
LINE
  5
1614
330
1F
100
AcDbEntity
  8
0
100
AcDbLine
 10
520.8942751736789
 20
-113.7548743721567
 30
0.0
 11
521.0242751736789
 21
-112.8848743721567
 31
0.0
  0
LINE
  5
1615
330
1F
100
AcDbEntity
  8
0
100
AcDbLine
 10
518.9026013120768
 20
-113.1774140729279
 30
0.0
 11
520.3171683924924
 21
-114.5919811533433
 31
0.0
  0
LINE
  5
1616
330
1F
100
AcDbEntity
  8
0
100
AcDbLine
 10
522.7313819548653
 20
-114.5919811533433
 30
0.0
 11
521.8613819548655
 21
-114.4619811533432
 31
0.0
  0
LINE
  5
1617
330
1F
100
AcDbEntity
  8
0
100
AcDbLine
 10
521.7313819548657
 20
-114.5919811533433
 30
0.0
 11
523.1459490352809
 21
-116.0065482337585
 31
0.0
  0
LINE
  5
1618
330
1F
100
AcDbEntity
  8
0
100
AcDbLine
 10
521.8613819548655
 20
-114.721981153343
 30
0.0
 11
522.7313819548653
 21
-114.5919811533433
 31
0.0
  0
LINE
  5
1619
330
1F
100
AcDbEntity
  8
0
100
AcDbLine
 10
519.6097080932635
 20
-118.2703072917412
 30
0.0
 11
521.0242751736789
 21
-119.6848743721566
 31
0.0
  0
LINE
  5
161A
330
1F
100
AcDbEntity
  8
0
100
AcDbLine
 10
521.3778285642721
 20
-119.3313209815634
 30
0.0
 11
522.0849353454588
 21
-120.0384277627499
 31
0.0
  0
LINE
  5
161B
330
1F
100
AcDbEntity
  8
0
100
AcDbLine
 10
521.0242751736789
 20
-121.0990879345298
 30
0.0
 11
522.4388422540942
 21
-122.5136550149449
 31
0.0
  0
LINE
  5
161C
330
1F
100
AcDbEntity
  8
0
100
AcDbLine
 10
520.6707217830857
 20
-121.4526413251231
 30
0.0
 11
522.0849353454588
 21
-120.0384277627499
 31
0.0
  0
LINE
  5
161D
330
1F
100
AcDbEntity
  8
0
100
AcDbLine
 10
521.0242751736789
 20
-118.6848743721567
 30
0.0
 11
521.154275173679
 21
-119.5548743721566
 31
0.0
  0
CIRCLE
  5
161E
330
1F
100
AcDbEntity
  8
0
100
AcDbCircle
 10
521.0242751736789
 20
-120.3919811533433
 30
0.0
 40
0.5
  0
LINE
  5
161F
330
1F
100
AcDbEntity
  8
0
100
AcDbLine
 10
519.9636150018991
 20
-120.7455345439365
 30
0.0
 11
520.6707217830857
 21
-121.4526413251231
 31
0.0
  0
LINE
  5
1620
330
1F
100
AcDbEntity
  8
0
100
AcDbLine
 10
520.1871683924922
 20
-120.2619811533432
 30
0.0
 11
519.3171683924922
 21
-120.3919811533433
 31
0.0
  0
LINE
  5
1621
330
1F
100
AcDbEntity
  8
0
100
AcDbLine
 10
519.3171683924922
 20
-120.3919811533433
 30
0.0
 11
520.1871683924922
 21
-120.5219811533432
 31
0.0
  0
LINE
  5
1622
330
1F
100
AcDbEntity
  8
0
100
AcDbLine
 10
521.0242751736789
 20
-122.0990879345298
 30
0.0
 11
520.8942751736789
 21
-121.2290879345299
 31
0.0
  0
LINE
  5
1623
330
1F
100
AcDbEntity
  8
0
100
AcDbLine
 10
521.154275173679
 20
-121.2290879345298
 30
0.0
 11
521.0242751736789
 21
-122.0990879345298
 31
0.0
  0
LINE
  5
1624
330
1F
100
AcDbEntity
  8
0
100
AcDbLine
 10
519.9636150018991
 20
-120.7455345439365
 30
0.0
 11
521.3778285642721
 21
-119.3313209815634
 31
0.0
  0
LINE
  5
1625
330
1F
100
AcDbEntity
  8
0
100
AcDbLine
 10
520.8942751736789
 20
-119.5548743721566
 30
0.0
 11
521.0242751736789
 21
-118.6848743721567
 31
0.0
  0
LINE
  5
1626
330
1F
100
AcDbEntity
  8
0
100
AcDbLine
 10
518.9026013120768
 20
-118.9774140729279
 30
0.0
 11
520.3171683924924
 21
-120.3919811533433
 31
0.0
  0
LINE
  5
1627
330
1F
100
AcDbEntity
  8
0
100
AcDbLine
 10
522.7313819548653
 20
-120.3919811533433
 30
0.0
 11
521.8613819548655
 21
-120.2619811533432
 31
0.0
  0
LINE
  5
1628
330
1F
100
AcDbEntity
  8
0
100
AcDbLine
 10
521.7313819548657
 20
-120.3919811533433
 30
0.0
 11
523.1459490352809
 21
-121.8065482337587
 31
0.0
  0
LINE
  5
1629
330
1F
100
AcDbEntity
  8
0
100
AcDbLine
 10
521.8613819548655
 20
-120.5219811533432
 30
0.0
 11
522.7313819548653
 21
-120.3919811533433
 31
0.0
  0
LINE
  5
165D
330
1F
100
AcDbEntity
  8
0
100
AcDbLine
 10
580.5430122232032
 20
-106.5703072917409
 30
0.0
 11
581.9575793036188
 21
-107.9848743721566
 31
0.0
  0
LINE
  5
165E
330
1F
100
AcDbEntity
  8
0
100
AcDbLine
 10
582.3111326942121
 20
-107.6313209815634
 30
0.0
 11
583.0182394753986
 21
-108.3384277627499
 31
0.0
  0
LINE
  5
165F
330
1F
100
AcDbEntity
  8
0
100
AcDbLine
 10
581.9575793036188
 20
-109.3990879345297
 30
0.0
 11
583.372146384034
 21
-110.813655014945
 31
0.0
  0
LINE
  5
1660
330
1F
100
AcDbEntity
  8
0
100
AcDbLine
 10
581.6040259130256
 20
-109.752641325123
 30
0.0
 11
583.0182394753986
 21
-108.3384277627499
 31
0.0
  0
LINE
  5
1661
330
1F
100
AcDbEntity
  8
0
100
AcDbLine
 10
581.9575793036188
 20
-106.9848743721566
 30
0.0
 11
582.0875793036187
 21
-107.8548743721565
 31
0.0
  0
CIRCLE
  5
1662
330
1F
100
AcDbEntity
  8
0
100
AcDbCircle
 10
581.9575793036188
 20
-108.6919811533432
 30
0.0
 40
0.5
  0
LINE
  5
1663
330
1F
100
AcDbEntity
  8
0
100
AcDbLine
 10
580.8969191318388
 20
-109.0455345439365
 30
0.0
 11
581.6040259130256
 21
-109.752641325123
 31
0.0
  0
LINE
  5
1664
330
1F
100
AcDbEntity
  8
0
100
AcDbLine
 10
581.1204725224322
 20
-108.5619811533429
 30
0.0
 11
580.2504725224322
 21
-108.6919811533432
 31
0.0
  0
LINE
  5
1665
330
1F
100
AcDbEntity
  8
0
100
AcDbLine
 10
580.2504725224322
 20
-108.6919811533432
 30
0.0
 11
581.1204725224322
 21
-108.8219811533432
 31
0.0
  0
LINE
  5
1666
330
1F
100
AcDbEntity
  8
0
100
AcDbLine
 10
581.9575793036188
 20
-110.3990879345297
 30
0.0
 11
581.8275793036187
 21
-109.5290879345298
 31
0.0
  0
LINE
  5
1667
330
1F
100
AcDbEntity
  8
0
100
AcDbLine
 10
582.0875793036187
 20
-109.5290879345297
 30
0.0
 11
581.9575793036188
 21
-110.3990879345297
 31
0.0
  0
LINE
  5
1668
330
1F
100
AcDbEntity
  8
0
100
AcDbLine
 10
580.8969191318388
 20
-109.0455345439365
 30
0.0
 11
582.3111326942121
 21
-107.6313209815634
 31
0.0
  0
LINE
  5
1669
330
1F
100
AcDbEntity
  8
0
100
AcDbLine
 10
581.8275793036187
 20
-107.8548743721565
 30
0.0
 11
581.9575793036188
 21
-106.9848743721566
 31
0.0
  0
LINE
  5
166A
330
1F
100
AcDbEntity
  8
0
100
AcDbLine
 10
579.8359054420167
 20
-107.2774140729277
 30
0.0
 11
581.2504725224322
 21
-108.6919811533432
 31
0.0
  0
LINE
  5
166B
330
1F
100
AcDbEntity
  8
0
100
AcDbLine
 10
583.6646860848052
 20
-108.6919811533432
 30
0.0
 11
582.7946860848052
 21
-108.5619811533429
 31
0.0
  0
LINE
  5
166C
330
1F
100
AcDbEntity
  8
0
100
AcDbLine
 10
582.6646860848052
 20
-108.6919811533432
 30
0.0
 11
584.0792531652207
 21
-110.1065482337586
 31
0.0
  0
LINE
  5
166D
330
1F
100
AcDbEntity
  8
0
100
AcDbLine
 10
582.7946860848052
 20
-108.8219811533432
 30
0.0
 11
583.6646860848052
 21
-108.6919811533432
 31
0.0
  0
LINE
  5
166E
330
1F
100
AcDbEntity
  8
0
100
AcDbLine
 10
580.5430122232032
 20
-112.3703072917412
 30
0.0
 11
581.9575793036188
 21
-113.7848743721566
 31
0.0
  0
LINE
  5
166F
330
1F
100
AcDbEntity
  8
0
100
AcDbLine
 10
582.3111326942121
 20
-113.4313209815634
 30
0.0
 11
583.0182394753986
 21
-114.1384277627498
 31
0.0
  0
LINE
  5
1670
330
1F
100
AcDbEntity
  8
0
100
AcDbLine
 10
581.9575793036188
 20
-115.1990879345297
 30
0.0
 11
583.372146384034
 21
-116.613655014945
 31
0.0
  0
LINE
  5
1671
330
1F
100
AcDbEntity
  8
0
100
AcDbLine
 10
581.6040259130256
 20
-115.552641325123
 30
0.0
 11
583.0182394753986
 21
-114.1384277627498
 31
0.0
  0
LINE
  5
1672
330
1F
100
AcDbEntity
  8
0
100
AcDbLine
 10
581.9575793036188
 20
-112.7848743721566
 30
0.0
 11
582.0875793036187
 21
-113.6548743721566
 31
0.0
  0
CIRCLE
  5
1673
330
1F
100
AcDbEntity
  8
0
100
AcDbCircle
 10
581.9575793036188
 20
-114.4919811533432
 30
0.0
 40
0.5
  0
LINE
  5
1674
330
1F
100
AcDbEntity
  8
0
100
AcDbLine
 10
580.8969191318388
 20
-114.8455345439364
 30
0.0
 11
581.6040259130256
 21
-115.552641325123
 31
0.0
  0
LINE
  5
1675
330
1F
100
AcDbEntity
  8
0
100
AcDbLine
 10
581.1204725224322
 20
-114.3619811533429
 30
0.0
 11
580.2504725224322
 21
-114.4919811533432
 31
0.0
  0
LINE
  5
1676
330
1F
100
AcDbEntity
  8
0
100
AcDbLine
 10
580.2504725224322
 20
-114.4919811533432
 30
0.0
 11
581.1204725224322
 21
-114.6219811533432
 31
0.0
  0
LINE
  5
1677
330
1F
100
AcDbEntity
  8
0
100
AcDbLine
 10
581.9575793036188
 20
-116.1990879345297
 30
0.0
 11
581.8275793036187
 21
-115.3290879345298
 31
0.0
  0
LINE
  5
1678
330
1F
100
AcDbEntity
  8
0
100
AcDbLine
 10
582.0875793036187
 20
-115.3290879345297
 30
0.0
 11
581.9575793036188
 21
-116.1990879345297
 31
0.0
  0
LINE
  5
1679
330
1F
100
AcDbEntity
  8
0
100
AcDbLine
 10
580.8969191318388
 20
-114.8455345439364
 30
0.0
 11
582.3111326942121
 21
-113.4313209815634
 31
0.0
  0
LINE
  5
167A
330
1F
100
AcDbEntity
  8
0
100
AcDbLine
 10
581.8275793036187
 20
-113.6548743721566
 30
0.0
 11
581.9575793036188
 21
-112.7848743721566
 31
0.0
  0
LINE
  5
167B
330
1F
100
AcDbEntity
  8
0
100
AcDbLine
 10
579.8359054420167
 20
-113.0774140729277
 30
0.0
 11
581.2504725224322
 21
-114.4919811533432
 31
0.0
  0
LINE
  5
167C
330
1F
100
AcDbEntity
  8
0
100
AcDbLine
 10
583.6646860848052
 20
-114.4919811533432
 30
0.0
 11
582.7946860848052
 21
-114.3619811533429
 31
0.0
  0
LINE
  5
167D
330
1F
100
AcDbEntity
  8
0
100
AcDbLine
 10
582.6646860848052
 20
-114.4919811533432
 30
0.0
 11
584.0792531652207
 21
-115.9065482337586
 31
0.0
  0
LINE
  5
167E
330
1F
100
AcDbEntity
  8
0
100
AcDbLine
 10
582.7946860848052
 20
-114.6219811533432
 30
0.0
 11
583.6646860848052
 21
-114.4919811533432
 31
0.0
  0
LINE
  5
167F
330
1F
100
AcDbEntity
  8
0
100
AcDbLine
 10
580.5430122232032
 20
-118.1703072917412
 30
0.0
 11
581.9575793036188
 21
-119.5848743721566
 31
0.0
  0
LINE
  5
1680
330
1F
100
AcDbEntity
  8
0
100
AcDbLine
 10
582.3111326942121
 20
-119.2313209815633
 30
0.0
 11
583.0182394753986
 21
-119.9384277627498
 31
0.0
  0
LINE
  5
1681
330
1F
100
AcDbEntity
  8
0
100
AcDbLine
 10
581.9575793036188
 20
-120.9990879345297
 30
0.0
 11
583.372146384034
 21
-122.4136550149449
 31
0.0
  0
LINE
  5
1682
330
1F
100
AcDbEntity
  8
0
100
AcDbLine
 10
581.6040259130256
 20
-121.352641325123
 30
0.0
 11
583.0182394753986
 21
-119.9384277627498
 31
0.0
  0
LINE
  5
1683
330
1F
100
AcDbEntity
  8
0
100
AcDbLine
 10
581.9575793036188
 20
-118.5848743721566
 30
0.0
 11
582.0875793036187
 21
-119.4548743721566
 31
0.0
  0
CIRCLE
  5
1684
330
1F
100
AcDbEntity
  8
0
100
AcDbCircle
 10
581.9575793036188
 20
-120.2919811533432
 30
0.0
 40
0.5
  0
LINE
  5
1685
330
1F
100
AcDbEntity
  8
0
100
AcDbLine
 10
580.8969191318388
 20
-120.6455345439365
 30
0.0
 11
581.6040259130256
 21
-121.352641325123
 31
0.0
  0
LINE
  5
1686
330
1F
100
AcDbEntity
  8
0
100
AcDbLine
 10
581.1204725224322
 20
-120.161981153343
 30
0.0
 11
580.2504725224322
 21
-120.2919811533432
 31
0.0
  0
LINE
  5
1687
330
1F
100
AcDbEntity
  8
0
100
AcDbLine
 10
580.2504725224322
 20
-120.2919811533432
 30
0.0
 11
581.1204725224322
 21
-120.4219811533429
 31
0.0
  0
LINE
  5
1688
330
1F
100
AcDbEntity
  8
0
100
AcDbLine
 10
581.9575793036188
 20
-121.9990879345297
 30
0.0
 11
581.8275793036187
 21
-121.1290879345298
 31
0.0
  0
LINE
  5
1689
330
1F
100
AcDbEntity
  8
0
100
AcDbLine
 10
582.0875793036187
 20
-121.1290879345297
 30
0.0
 11
581.9575793036188
 21
-121.9990879345297
 31
0.0
  0
LINE
  5
168A
330
1F
100
AcDbEntity
  8
0
100
AcDbLine
 10
580.8969191318388
 20
-120.6455345439365
 30
0.0
 11
582.3111326942121
 21
-119.2313209815633
 31
0.0
  0
LINE
  5
168B
330
1F
100
AcDbEntity
  8
0
100
AcDbLine
 10
581.8275793036187
 20
-119.4548743721566
 30
0.0
 11
581.9575793036188
 21
-118.5848743721566
 31
0.0
  0
LINE
  5
168C
330
1F
100
AcDbEntity
  8
0
100
AcDbLine
 10
579.8359054420167
 20
-118.8774140729278
 30
0.0
 11
581.2504725224322
 21
-120.2919811533432
 31
0.0
  0
LINE
  5
168D
330
1F
100
AcDbEntity
  8
0
100
AcDbLine
 10
583.6646860848052
 20
-120.2919811533432
 30
0.0
 11
582.7946860848052
 21
-120.161981153343
 31
0.0
  0
LINE
  5
168E
330
1F
100
AcDbEntity
  8
0
100
AcDbLine
 10
582.6646860848052
 20
-120.2919811533432
 30
0.0
 11
584.0792531652207
 21
-121.7065482337585
 31
0.0
  0
LINE
  5
168F
330
1F
100
AcDbEntity
  8
0
100
AcDbLine
 10
582.7946860848052
 20
-120.4219811533429
 30
0.0
 11
583.6646860848052
 21
-120.2919811533432
 31
0.0
  0
LINE
  5
1690
330
1F
100
AcDbEntity
  8
0
100
AcDbLine
 10
588.8763163531432
 20
-118.170307291741
 30
0.0
 11
590.2908834335587
 21
-119.5848743721564
 31
0.0
  0
LINE
  5
1691
330
1F
100
AcDbEntity
  8
0
100
AcDbLine
 10
590.6444368241522
 20
-119.2313209815629
 30
0.0
 11
591.3515436053386
 21
-119.9384277627497
 31
0.0
  0
LINE
  5
1692
330
1F
100
AcDbEntity
  8
0
100
AcDbLine
 10
590.2908834335587
 20
-120.9990879345294
 30
0.0
 11
591.7054505139741
 21
-122.4136550149449
 31
0.0
  0
LINE
  5
1693
330
1F
100
AcDbEntity
  8
0
100
AcDbLine
 10
589.9373300429654
 20
-121.3526413251228
 30
0.0
 11
591.3515436053386
 21
-119.9384277627497
 31
0.0
  0
LINE
  5
1694
330
1F
100
AcDbEntity
  8
0
100
AcDbLine
 10
590.2908834335587
 20
-118.5848743721564
 30
0.0
 11
590.4208834335587
 21
-119.4548743721564
 31
0.0
  0
CIRCLE
  5
1695
330
1F
100
AcDbEntity
  8
0
100
AcDbCircle
 10
590.2908834335587
 20
-120.2919811533429
 30
0.0
 40
0.5
  0
LINE
  5
1696
330
1F
100
AcDbEntity
  8
0
100
AcDbLine
 10
589.2302232617787
 20
-120.6455345439362
 30
0.0
 11
589.9373300429654
 21
-121.3526413251228
 31
0.0
  0
LINE
  5
1697
330
1F
100
AcDbEntity
  8
0
100
AcDbLine
 10
589.4537766523723
 20
-120.1619811533429
 30
0.0
 11
588.5837766523723
 21
-120.2919811533429
 31
0.0
  0
LINE
  5
1698
330
1F
100
AcDbEntity
  8
0
100
AcDbLine
 10
588.5837766523723
 20
-120.2919811533429
 30
0.0
 11
589.4537766523723
 21
-120.4219811533429
 31
0.0
  0
LINE
  5
1699
330
1F
100
AcDbEntity
  8
0
100
AcDbLine
 10
590.2908834335587
 20
-121.9990879345294
 30
0.0
 11
590.1608834335587
 21
-121.1290879345295
 31
0.0
  0
LINE
  5
169A
330
1F
100
AcDbEntity
  8
0
100
AcDbLine
 10
590.4208834335587
 20
-121.1290879345295
 30
0.0
 11
590.2908834335587
 21
-121.9990879345294
 31
0.0
  0
LINE
  5
169B
330
1F
100
AcDbEntity
  8
0
100
AcDbLine
 10
589.2302232617787
 20
-120.6455345439362
 30
0.0
 11
590.6444368241522
 21
-119.2313209815629
 31
0.0
  0
LINE
  5
169C
330
1F
100
AcDbEntity
  8
0
100
AcDbLine
 10
590.1608834335587
 20
-119.4548743721564
 30
0.0
 11
590.2908834335587
 21
-118.5848743721564
 31
0.0
  0
LINE
  5
169D
330
1F
100
AcDbEntity
  8
0
100
AcDbLine
 10
588.1692095719568
 20
-118.8774140729274
 30
0.0
 11
589.5837766523722
 21
-120.2919811533429
 31
0.0
  0
LINE
  5
169E
330
1F
100
AcDbEntity
  8
0
100
AcDbLine
 10
591.9979902147453
 20
-120.2919811533429
 30
0.0
 11
591.1279902147454
 21
-120.1619811533429
 31
0.0
  0
LINE
  5
169F
330
1F
100
AcDbEntity
  8
0
100
AcDbLine
 10
590.9979902147454
 20
-120.2919811533429
 30
0.0
 11
592.4125572951607
 21
-121.7065482337584
 31
0.0
  0
LINE
  5
16A0
330
1F
100
AcDbEntity
  8
0
100
AcDbLine
 10
591.1279902147453
 20
-120.4219811533429
 30
0.0
 11
591.9979902147453
 21
-120.2919811533429
 31
0.0
  0
LINE
  5
16A1
330
1F
100
AcDbEntity
  8
0
100
AcDbLine
 10
588.8763163531432
 20
-112.3703072917412
 30
0.0
 11
590.2908834335587
 21
-113.7848743721566
 31
0.0
  0
LINE
  5
16A2
330
1F
100
AcDbEntity
  8
0
100
AcDbLine
 10
590.6444368241522
 20
-113.4313209815634
 30
0.0
 11
591.3515436053386
 21
-114.1384277627498
 31
0.0
  0
LINE
  5
16A3
330
1F
100
AcDbEntity
  8
0
100
AcDbLine
 10
590.2908834335587
 20
-115.1990879345297
 30
0.0
 11
591.7054505139741
 21
-116.613655014945
 31
0.0
  0
LINE
  5
16A4
330
1F
100
AcDbEntity
  8
0
100
AcDbLine
 10
589.9373300429654
 20
-115.552641325123
 30
0.0
 11
591.3515436053386
 21
-114.1384277627498
 31
0.0
  0
LINE
  5
16A5
330
1F
100
AcDbEntity
  8
0
100
AcDbLine
 10
590.2908834335587
 20
-112.7848743721566
 30
0.0
 11
590.4208834335587
 21
-113.6548743721566
 31
0.0
  0
CIRCLE
  5
16A6
330
1F
100
AcDbEntity
  8
0
100
AcDbCircle
 10
590.2908834335587
 20
-114.4919811533432
 30
0.0
 40
0.5
  0
LINE
  5
16A7
330
1F
100
AcDbEntity
  8
0
100
AcDbLine
 10
589.2302232617787
 20
-114.8455345439364
 30
0.0
 11
589.9373300429654
 21
-115.552641325123
 31
0.0
  0
LINE
  5
16A8
330
1F
100
AcDbEntity
  8
0
100
AcDbLine
 10
589.4537766523723
 20
-114.3619811533429
 30
0.0
 11
588.5837766523723
 21
-114.4919811533432
 31
0.0
  0
LINE
  5
16A9
330
1F
100
AcDbEntity
  8
0
100
AcDbLine
 10
588.5837766523723
 20
-114.4919811533432
 30
0.0
 11
589.4537766523723
 21
-114.6219811533432
 31
0.0
  0
LINE
  5
16AA
330
1F
100
AcDbEntity
  8
0
100
AcDbLine
 10
590.2908834335587
 20
-116.1990879345297
 30
0.0
 11
590.1608834335587
 21
-115.3290879345298
 31
0.0
  0
LINE
  5
16AB
330
1F
100
AcDbEntity
  8
0
100
AcDbLine
 10
590.4208834335587
 20
-115.3290879345297
 30
0.0
 11
590.2908834335587
 21
-116.1990879345297
 31
0.0
  0
LINE
  5
16AC
330
1F
100
AcDbEntity
  8
0
100
AcDbLine
 10
589.2302232617787
 20
-114.8455345439364
 30
0.0
 11
590.6444368241522
 21
-113.4313209815634
 31
0.0
  0
LINE
  5
16AD
330
1F
100
AcDbEntity
  8
0
100
AcDbLine
 10
590.1608834335587
 20
-113.6548743721566
 30
0.0
 11
590.2908834335587
 21
-112.7848743721566
 31
0.0
  0
LINE
  5
16AE
330
1F
100
AcDbEntity
  8
0
100
AcDbLine
 10
588.1692095719568
 20
-113.0774140729277
 30
0.0
 11
589.5837766523722
 21
-114.4919811533432
 31
0.0
  0
LINE
  5
16AF
330
1F
100
AcDbEntity
  8
0
100
AcDbLine
 10
591.9979902147453
 20
-114.4919811533432
 30
0.0
 11
591.1279902147454
 21
-114.3619811533429
 31
0.0
  0
LINE
  5
16B0
330
1F
100
AcDbEntity
  8
0
100
AcDbLine
 10
590.9979902147454
 20
-114.4919811533432
 30
0.0
 11
592.4125572951607
 21
-115.9065482337586
 31
0.0
  0
LINE
  5
16B1
330
1F
100
AcDbEntity
  8
0
100
AcDbLine
 10
591.1279902147453
 20
-114.6219811533432
 30
0.0
 11
591.9979902147453
 21
-114.4919811533432
 31
0.0
  0
LINE
  5
16B2
330
1F
100
AcDbEntity
  8
0
100
AcDbLine
 10
588.8763163531432
 20
-106.5703072917409
 30
0.0
 11
590.2908834335587
 21
-107.9848743721566
 31
0.0
  0
LINE
  5
16B3
330
1F
100
AcDbEntity
  8
0
100
AcDbLine
 10
590.6444368241522
 20
-107.6313209815634
 30
0.0
 11
591.3515436053386
 21
-108.3384277627499
 31
0.0
  0
LINE
  5
16B4
330
1F
100
AcDbEntity
  8
0
100
AcDbLine
 10
590.2908834335587
 20
-109.3990879345297
 30
0.0
 11
591.7054505139741
 21
-110.813655014945
 31
0.0
  0
LINE
  5
16B5
330
1F
100
AcDbEntity
  8
0
100
AcDbLine
 10
589.9373300429654
 20
-109.752641325123
 30
0.0
 11
591.3515436053386
 21
-108.3384277627499
 31
0.0
  0
LINE
  5
16B6
330
1F
100
AcDbEntity
  8
0
100
AcDbLine
 10
590.2908834335587
 20
-106.9848743721566
 30
0.0
 11
590.4208834335587
 21
-107.8548743721565
 31
0.0
  0
CIRCLE
  5
16B7
330
1F
100
AcDbEntity
  8
0
100
AcDbCircle
 10
590.2908834335587
 20
-108.6919811533432
 30
0.0
 40
0.5
  0
LINE
  5
16B8
330
1F
100
AcDbEntity
  8
0
100
AcDbLine
 10
589.2302232617787
 20
-109.0455345439365
 30
0.0
 11
589.9373300429654
 21
-109.752641325123
 31
0.0
  0
LINE
  5
16B9
330
1F
100
AcDbEntity
  8
0
100
AcDbLine
 10
589.4537766523723
 20
-108.5619811533429
 30
0.0
 11
588.5837766523723
 21
-108.6919811533432
 31
0.0
  0
LINE
  5
16BA
330
1F
100
AcDbEntity
  8
0
100
AcDbLine
 10
588.5837766523723
 20
-108.6919811533432
 30
0.0
 11
589.4537766523723
 21
-108.8219811533432
 31
0.0
  0
LINE
  5
16BB
330
1F
100
AcDbEntity
  8
0
100
AcDbLine
 10
590.2908834335587
 20
-110.3990879345297
 30
0.0
 11
590.1608834335587
 21
-109.5290879345298
 31
0.0
  0
LINE
  5
16BC
330
1F
100
AcDbEntity
  8
0
100
AcDbLine
 10
590.4208834335587
 20
-109.5290879345297
 30
0.0
 11
590.2908834335587
 21
-110.3990879345297
 31
0.0
  0
LINE
  5
16BD
330
1F
100
AcDbEntity
  8
0
100
AcDbLine
 10
589.2302232617787
 20
-109.0455345439365
 30
0.0
 11
590.6444368241522
 21
-107.6313209815634
 31
0.0
  0
LINE
  5
16BE
330
1F
100
AcDbEntity
  8
0
100
AcDbLine
 10
590.1608834335587
 20
-107.8548743721565
 30
0.0
 11
590.2908834335587
 21
-106.9848743721566
 31
0.0
  0
LINE
  5
16BF
330
1F
100
AcDbEntity
  8
0
100
AcDbLine
 10
588.1692095719568
 20
-107.2774140729277
 30
0.0
 11
589.5837766523722
 21
-108.6919811533432
 31
0.0
  0
LINE
  5
16C0
330
1F
100
AcDbEntity
  8
0
100
AcDbLine
 10
591.9979902147453
 20
-108.6919811533432
 30
0.0
 11
591.1279902147454
 21
-108.5619811533429
 31
0.0
  0
LINE
  5
16C1
330
1F
100
AcDbEntity
  8
0
100
AcDbLine
 10
590.9979902147454
 20
-108.6919811533432
 30
0.0
 11
592.4125572951607
 21
-110.1065482337586
 31
0.0
  0
LINE
  5
16C2
330
1F
100
AcDbEntity
  8
0
100
AcDbLine
 10
591.1279902147453
 20
-108.8219811533432
 30
0.0
 11
591.9979902147453
 21
-108.6919811533432
 31
0.0
  0
CIRCLE
  5
194C
330
1F
100
AcDbEntity
  8
0
  6
Continuous
 62
     7
370
    35
100
AcDbCircle
 10
565.9575793036188
 20
-115.8519811533433
 30
0.0
 40
2.0
  0
CIRCLE
  5
194D
330
1F
100
AcDbEntity
  8
0
  6
Continuous
 62
     7
370
    35
100
AcDbCircle
 10
555.1575793036187
 20
-115.8519811533433
 30
0.0
 40
2.0
  0
VIEWPORT
  5
74
102
{ACAD_XDICTIONARY
360
1757
102
}
330
59
100
AcDbEntity
 67
     1
  8
0
100
AcDbViewport
 10
133.3499908447265
 20
101.5999970436096
 30
0.0
 40
398.4698265129937
 41
228.4221935424803
 68
     1
 69
     1
 12
133.3499908447265
 22
101.5999970436096
 13
0.0
 23
0.0
 14
0.5
 24
0.5
 15
0.5
 25
0.5
 16
0.0
 26
0.0
 36
1.0
 17
0.0
 27
0.0
 37
0.0
 42
50.0
 43
0.0
 44
0.0
 45
228.4221935424803
 50
0.0
 51
0.0
 72
   100
 90
    32800
  1

281
     0
 71
     1
 74
     0
110
0.0
120
0.0
130
0.0
111
1.0
121
0.0
131
0.0
112
0.0
122
1.0
132
0.0
 79
     0
146
0.0
  0
VIEWPORT
  5
76
102
{ACAD_XDICTIONARY
360
1759
102
}
330
59
100
AcDbEntity
 67
     1
  8
0
100
AcDbViewport
 10
133.3499939441677
 20
101.5999939441678
 30
0.0
 40
213.3599903106689
 41
162.5599903106689
 68
     2
 69
     2
 12
210.0
 22
148.5
 13
0.0
 23
0.0
 14
10.0
 24
10.0
 15
10.0
 25
10.0
 16
0.0
 26
0.0
 36
1.0
 17
0.0
 27
0.0
 37
0.0
 42
50.0
 43
0.0
 44
0.0
 45
323.8170928200297
 50
0.0
 51
0.0
 72
   100
 90
    32864
  1

281
     0
 71
     1
 74
     0
110
0.0
120
0.0
130
0.0
111
1.0
121
0.0
131
0.0
112
0.0
122
1.0
132
0.0
 79
     0
146
0.0
  0
ENDSEC
  0
SECTION
  2
OBJECTS
  0
DICTIONARY
  5
C
330
0
100
AcDbDictionary
281
     1
  3
ACAD_COLOR
350
16FC
  3
ACAD_GROUP
350
D
  3
ACAD_LAYOUT
350
1A
  3
ACAD_MATERIAL
350
16D2
  3
ACAD_MLEADERSTYLE
350
1711
  3
ACAD_MLINESTYLE
350
17
  3
ACAD_PLOTSETTINGS
350
19
  3
ACAD_PLOTSTYLENAME
350
E
  3
ACAD_SCALELIST
350
16FF
  3
ACAD_TABLESTYLE
350
16FD
  3
ACAD_VISUALSTYLE
350
16EB
  3
ACDB_RECOMPOSE_DATA
350
1735
  3
AcDbVariableDictionary
350
67
  3
DWGPROPS
350
1750
  0
DICTIONARY
  5
1737
330
8
100
AcDbDictionary
280
     1
281
     1
  0
DICTIONARY
  5
1716
330
10
100
AcDbDictionary
280
     1
281
     1
  3
ADSK_XREC_LAYER_RECONCILED
360
1717
  0
DICTIONARY
  5
1718
330
154A
100
AcDbDictionary
280
     1
281
     1
  3
ADSK_XREC_LAYER_RECONCILED
360
1719
  0
DICTIONARY
  5
1397
330
138A
100
AcDbDictionary
280
     1
281
     1
  3
ACAD_DIMASSOC
360
13A1
  0
DICTIONARY
  5
1464
330
1463
100
AcDbDictionary
280
     1
281
     1
  3
ACAD_DIMASSOC
360
1465
  0
DICTIONARY
  5
152C
330
151F
100
AcDbDictionary
280
     1
281
     1
  3
ACAD_DIMASSOC
360
1536
  0
DICTIONARY
  5
1757
330
74
100
AcDbDictionary
280
     1
281
     1
  3
ACAD_XREC_ROUNDTRIP
360
1758
  0
DICTIONARY
  5
1759
330
76
100
AcDbDictionary
280
     1
281
     1
  3
ACAD_XREC_ROUNDTRIP
360
175A
  0
DICTIONARY
  5
16FC
102
{ACAD_REACTORS
330
C
102
}
330
C
100
AcDbDictionary
281
     1
  0
DICTIONARY
  5
D
102
{ACAD_REACTORS
330
C
102
}
330
C
100
AcDbDictionary
281
     1
  0
DICTIONARY
  5
1A
102
{ACAD_REACTORS
330
C
102
}
330
C
100
AcDbDictionary
281
     1
  3
Layout1
350
5A
  3
Layout2
350
5F
  3
Model
350
22
  0
DICTIONARY
  5
16D2
102
{ACAD_REACTORS
330
C
102
}
330
C
100
AcDbDictionary
281
     1
  3
ByBlock
350
16DB
  3
ByLayer
350
16D3
  3
Global
350
16E3
  0
DICTIONARY
  5
1711
102
{ACAD_REACTORS
330
C
102
}
330
C
100
AcDbDictionary
281
     1
  3
Standard
350
1712
  0
DICTIONARY
  5
17
102
{ACAD_REACTORS
330
C
102
}
330
C
100
AcDbDictionary
281
     1
  3
Standard
350
18
  0
DICTIONARY
  5
19
102
{ACAD_REACTORS
330
C
102
}
330
C
100
AcDbDictionary
281
     1
  0
ACDBDICTIONARYWDFLT
  5
E
102
{ACAD_REACTORS
330
C
102
}
330
C
100
AcDbDictionary
281
     1
  3
Normal
350
F
100
AcDbDictionaryWithDefault
340
F
  0
DICTIONARY
  5
16FF
102
{ACAD_REACTORS
330
C
102
}
330
C
100
AcDbDictionary
281
     1
  3
A0
350
1700
  3
A1
350
1701
  3
A2
350
1702
  3
A3
350
1703
  3
A4
350
1704
  3
A5
350
1705
  3
A6
350
1706
  3
A7
350
1707
  3
A8
350
1708
  3
A9
350
1709
  3
B0
350
170A
  3
B1
350
170B
  3
B2
350
170C
  3
B3
350
170D
  3
B4
350
170E
  3
B5
350
170F
  3
B6
350
1710
  0
DICTIONARY
  5
16FD
102
{ACAD_REACTORS
330
C
102
}
330
C
100
AcDbDictionary
281
     1
  3
Standard
350
16FE
  0
DICTIONARY
  5
16EB
102
{ACAD_REACTORS
330
C
102
}
330
C
100
AcDbDictionary
281
     1
  3
2dWireframe
350
16F1
  3
3D Hidden
350
16F3
  3
3dWireframe
350
16F2
  3
Basic
350
16F0
  3
Brighten
350
16F7
  3
ColorChange
350
16FB
  3
Conceptual
350
16F4
  3
Dim
350
16F6
  3
Facepattern
350
16FA
  3
Flat
350
16EC
  3
FlatWithEdges
350
16ED
  3
Gouraud
350
16EE
  3
GouraudWithEdges
350
16EF
  3
Linepattern
350
16F9
  3
Realistic
350
16F5
  3
Thicken
350
16F8
  0
XRECORD
  5
1735
102
{ACAD_REACTORS
330
C
102
}
330
C
100
AcDbXrecord
280
     1
 90
        1
330
16FE
  0
DICTIONARY
  5
67
102
{ACAD_REACTORS
330
C
102
}
330
C
100
AcDbDictionary
281
     1
  3
CANNOSCALE
350
1749
  3
CMLEADERSTYLE
350
1748
  3
CTABLESTYLE
350
1747
  3
DIMASSOC
350
68
  3
HIDETEXT
350
6C
  3
INDEXCTL
350
174B
  3
SORTENTS
350
174A
  0
XRECORD
  5
1750
102
{ACAD_REACTORS
330
C
102
}
330
C
100
AcDbXrecord
280
     1
  1
DWGPROPS COOKIE
  2

  3

  4

  6

  7

  8
DFregona
  9

300
=
301
=
302
=
303
=
304
=
305
=
306
=
307
=
308
=
309
=
 40
0.0188244791666667
 41
2453157.359609375
 42
2455181.66827382
  1

 90
        0
  0
XRECORD
  5
1717
102
{ACAD_REACTORS
330
1716
102
}
330
1716
100
AcDbXrecord
280
     1
290
     1
  0
XRECORD
  5
1719
102
{ACAD_REACTORS
330
1718
102
}
330
1718
100
AcDbXrecord
280
     1
290
     1
  0
DIMASSOC
  5
13A1
102
{ACAD_REACTORS
330
1397
102
}
330
1397
100
AcDbDimAssoc
330
138A
 90
        3
 70
     0
 71
     0
  1
AcDbOsnapPointRef
 72
     1
331
D22
 73
     2
 91
        0
 40
1.0
 10
515.8539487840612
 20
-103.2919811533433
 30
0.0
 75
     0
  1
AcDbOsnapPointRef
 72
    13
331
C28
331
C29
 73
     2
 91
        0
 40
0.0
 10
515.8539479979241
 20
-125.7919811533433
 30
0.0
 75
     0
  0
DIMASSOC
  5
1465
102
{ACAD_REACTORS
330
1464
102
}
330
1464
100
AcDbDimAssoc
330
1463
 90
        3
 70
     0
 71
     0
  1
AcDbOsnapPointRef
 72
     1
331
14A6
 73
     2
 91
        0
 40
1.0
 10
515.7972198230461
 20
-4.781521425312518
 30
0.0
 75
     0
  1
AcDbOsnapPointRef
 72
     1
331
1507
 73
     2
 91
        0
 40
1.0
 10
595.797219823046
 20
-4.781521425308993
 30
0.0
 75
     0
  0
DIMASSOC
  5
1536
102
{ACAD_REACTORS
330
152C
102
}
330
152C
100
AcDbDimAssoc
330
151F
 90
        3
 70
     0
 71
     0
  1
AcDbOsnapPointRef
 72
    13
331
14CF
 73
     2
 91
        0
 40
0.0
 10
534.9185401666073
 20
25.72161829550447
 30
0.0
 75
     0
  1
AcDbOsnapPointRef
 72
     1
331
1471
 73
     2
 91
        0
 40
1.0
 10
515.797219823042
 20
-73.28152142530946
 30
0.0
 75
     0
  0
XRECORD
  5
1758
102
{ACAD_REACTORS
330
1757
102
}
330
1757
100
AcDbXrecord
280
     1
102
SHADEPLOT
 70
     0
  0
XRECORD
  5
175A
102
{ACAD_REACTORS
330
1759
102
}
330
1759
100
AcDbXrecord
280
     1
102
SHADEPLOT
 70
     0
  0
LAYOUT
  5
5A
102
{ACAD_XDICTIONARY
360
1753
102
}
102
{ACAD_REACTORS
330
1A
102
}
330
1A
100
AcDbPlotSettings
  1

  2
none_device
  4
Letter_(8.50_x_11.00_Inches)
  6

 40
6.349999904632567
 41
6.349999904632567
 42
6.350006103515625
 43
6.350006103515625
 44
215.8999938964841
 45
279.3999938964843
 46
0.0
 47
0.0
 48
0.0
 49
0.0
140
0.0
141
0.0
142
1.0
143
1.0
 70
   688
 72
     1
 73
     1
 74
     5
  7

 75
    16
147
1.0
148
0.0
149
0.0
100
AcDbLayout
  1
Layout1
 70
     1
 71
     1
 10
-6.350006103515625
 20
-6.349999904632567
 11
273.0499877929687
 21
209.5499939918517
 12
0.0
 22
0.0
 32
0.0
 14
26.66999878883363
 24
20.31999878883361
 34
0.0
 15
240.0299890995025
 25
182.8799890995025
 35
0.0
146
0.0
 13
0.0
 23
0.0
 33
0.0
 16
1.0
 26
0.0
 36
0.0
 17
0.0
 27
1.0
 37
0.0
 76
     0
330
59
331
74
  0
LAYOUT
  5
5F
102
{ACAD_XDICTIONARY
360
1755
102
}
102
{ACAD_REACTORS
330
1A
102
}
330
1A
100
AcDbPlotSettings
  1

  2
None
  4

  6

 40
0.0
 41
0.0
 42
0.0
 43
0.0
 44
0.0
 45
0.0
 46
0.0
 47
0.0
 48
0.0
 49
0.0
140
0.0
141
0.0
142
1.0
143
1.0
 70
   688
 72
     0
 73
     0
 74
     5
  7

 75
    16
147
1.0
148
0.0
149
0.0
100
AcDbLayout
  1
Layout2
 70
     1
 71
     2
 10
0.0
 20
0.0
 11
12.0
 21
9.0
 12
0.0
 22
0.0
 32
0.0
 14
0.0
 24
0.0
 34
0.0
 15
0.0
 25
0.0
 35
0.0
146
0.0
 13
0.0
 23
0.0
 33
0.0
 16
1.0
 26
0.0
 36
0.0
 17
0.0
 27
1.0
 37
0.0
 76
     0
330
5E
  0
LAYOUT
  5
22
102
{ACAD_XDICTIONARY
360
1751
102
}
102
{ACAD_REACTORS
330
1A
102
}
330
1A
100
AcDbPlotSettings
  1

  2
none_device
  4
ANSI_A_(8.50_x_11.00_Inches)
  6

 40
6.349999904632567
 41
19.04999923706053
 42
6.350006103515625
 43
19.04998779296875
 44
215.8999938964841
 45
279.3999938964843
 46
0.0
 47
0.0
 48
0.0
 49
0.0
140
0.0
141
0.0
142
1.0
143
57.07986212157695
 70
 11952
 72
     0
 73
     1
 74
     0
  7

 75
     0
147
0.0175193135167365
148
-2282.040442273534
149
2.561166666666502
100
AcDbLayout
  1
Model
 70
     1
 71
     0
 10
0.0
 20
0.0
 11
12.0
 21
9.0
 12
0.0
 22
0.0
 32
0.0
 14
0.0
 24
0.0
 34
0.0
 15
0.0
 25
0.0
 35
0.0
146
0.0
 13
0.0
 23
0.0
 33
0.0
 16
1.0
 26
0.0
 36
0.0
 17
0.0
 27
1.0
 37
0.0
 76
     0
330
1F
331
16CC
  0
MATERIAL
  5
16DB
102
{ACAD_XDICTIONARY
360
16DC
102
}
102
{ACAD_REACTORS
330
16D2
102
}
330
16D2
100
AcDbMaterial
  1
ByBlock
 72
     0
 43
0.0008202099737533
 43
0.0
 43
0.0
 43
0.0
 43
0.0
 43
0.0008202099737533
 43
0.0
 43
0.0
 43
0.0
 43
0.0
 43
1.0
 43
0.0
 43
0.0
 43
0.0
 43
0.0
 43
1.0
 77
     0
 47
0.0008202099737533
 47
0.0
 47
0.0
 47
0.0
 47
0.0
 47
0.0008202099737533
 47
0.0
 47
0.0
 47
0.0
 47
0.0
 47
1.0
 47
0.0
 47
0.0
 47
0.0
 47
0.0
 47
1.0
171
     0
 49
0.0008202099737533
 49
0.0
 49
0.0
 49
0.0
 49
0.0
 49
0.0008202099737533
 49
0.0
 49
0.0
 49
0.0
 49
0.0
 49
1.0
 49
0.0
 49
0.0
 49
0.0
 49
0.0
 49
1.0
175
     0
142
0.0008202099737533
142
0.0
142
0.0
142
0.0
142
0.0
142
0.0008202099737533
142
0.0
142
0.0
142
0.0
142
0.0
142
1.0
142
0.0
142
0.0
142
0.0
142
0.0
142
1.0
179
     0
144
0.0008202099737533
144
0.0
144
0.0
144
0.0
144
0.0
144
0.0008202099737533
144
0.0
144
0.0
144
0.0
144
0.0
144
1.0
144
0.0
144
0.0
144
0.0
144
0.0
144
1.0
147
0.0008202099737533
147
0.0
147
0.0
147
0.0
147
0.0
147
0.0008202099737533
147
0.0
147
0.0
147
0.0
147
0.0
147
1.0
147
0.0
147
0.0
147
0.0
147
0.0
147
1.0
  0
MATERIAL
  5
16D3
102
{ACAD_XDICTIONARY
360
16D4
102
}
102
{ACAD_REACTORS
330
16D2
102
}
330
16D2
100
AcDbMaterial
  1
ByLayer
 72
     0
 43
0.0008202099737533
 43
0.0
 43
0.0
 43
0.0
 43
0.0
 43
0.0008202099737533
 43
0.0
 43
0.0
 43
0.0
 43
0.0
 43
1.0
 43
0.0
 43
0.0
 43
0.0
 43
0.0
 43
1.0
 77
     0
 47
0.0008202099737533
 47
0.0
 47
0.0
 47
0.0
 47
0.0
 47
0.0008202099737533
 47
0.0
 47
0.0
 47
0.0
 47
0.0
 47
1.0
 47
0.0
 47
0.0
 47
0.0
 47
0.0
 47
1.0
171
     0
 49
0.0008202099737533
 49
0.0
 49
0.0
 49
0.0
 49
0.0
 49
0.0008202099737533
 49
0.0
 49
0.0
 49
0.0
 49
0.0
 49
1.0
 49
0.0
 49
0.0
 49
0.0
 49
0.0
 49
1.0
175
     0
142
0.0008202099737533
142
0.0
142
0.0
142
0.0
142
0.0
142
0.0008202099737533
142
0.0
142
0.0
142
0.0
142
0.0
142
1.0
142
0.0
142
0.0
142
0.0
142
0.0
142
1.0
179
     0
144
0.0008202099737533
144
0.0
144
0.0
144
0.0
144
0.0
144
0.0008202099737533
144
0.0
144
0.0
144
0.0
144
0.0
144
1.0
144
0.0
144
0.0
144
0.0
144
0.0
144
1.0
147
0.0008202099737533
147
0.0
147
0.0
147
0.0
147
0.0
147
0.0008202099737533
147
0.0
147
0.0
147
0.0
147
0.0
147
1.0
147
0.0
147
0.0
147
0.0
147
0.0
147
1.0
  0
MATERIAL
  5
16E3
102
{ACAD_XDICTIONARY
360
16E4
102
}
102
{ACAD_REACTORS
330
16D2
102
}
330
16D2
100
AcDbMaterial
  1
Global
 72
     0
 43
0.0008202099737533
 43
0.0
 43
0.0
 43
0.0
 43
0.0
 43
0.0008202099737533
 43
0.0
 43
0.0
 43
0.0
 43
0.0
 43
1.0
 43
0.0
 43
0.0
 43
0.0
 43
0.0
 43
1.0
 77
     0
 47
0.0008202099737533
 47
0.0
 47
0.0
 47
0.0
 47
0.0
 47
0.0008202099737533
 47
0.0
 47
0.0
 47
0.0
 47
0.0
 47
1.0
 47
0.0
 47
0.0
 47
0.0
 47
0.0
 47
1.0
171
     0
 49
0.0008202099737533
 49
0.0
 49
0.0
 49
0.0
 49
0.0
 49
0.0008202099737533
 49
0.0
 49
0.0
 49
0.0
 49
0.0
 49
1.0
 49
0.0
 49
0.0
 49
0.0
 49
0.0
 49
1.0
175
     0
142
0.0008202099737533
142
0.0
142
0.0
142
0.0
142
0.0
142
0.0008202099737533
142
0.0
142
0.0
142
0.0
142
0.0
142
1.0
142
0.0
142
0.0
142
0.0
142
0.0
142
1.0
179
     0
144
0.0008202099737533
144
0.0
144
0.0
144
0.0
144
0.0
144
0.0008202099737533
144
0.0
144
0.0
144
0.0
144
0.0
144
1.0
144
0.0
144
0.0
144
0.0
144
0.0
144
1.0
147
0.0008202099737533
147
0.0
147
0.0
147
0.0
147
0.0
147
0.0008202099737533
147
0.0
147
0.0
147
0.0
147
0.0
147
1.0
147
0.0
147
0.0
147
0.0
147
0.0
147
1.0
  0
MLEADERSTYLE
  5
1712
102
{ACAD_REACTORS
330
1711
102
}
330
1711
100
AcDbMLeaderStyle
170
     2
171
     1
172
     0
 90
        2
 40
0.0
 41
0.0
173
     1
 91
-1056964608
340
14
 92
       -2
290
     1
 42
2.0
291
     1
 43
0.36
  3
Standard
 44
4.0
300

342
11
174
     1
178
     6
175
     1
176
     0
 93
-1056964608
 45
4.0
292
     0
297
     0
 46
4.0
 94
-1056964608
 47
1.0
 49
1.0
140
1.0
293
     1
141
0.0
294
     1
177
     0
142
1.0
295
     0
296
     0
143
0.125
1001
ACAD_MLEADERVER
1070
     2
  0
MLINESTYLE
  5
18
102
{ACAD_REACTORS
330
17
102
}
330
17
100
AcDbMlineStyle
  2
STANDARD
 70
     0
  3

 62
   256
 51
90.0
 52
90.0
 71
     2
 49
0.5
 62
   256
  6
BYLAYER
 49
-0.5
 62
   256
  6
BYLAYER
  0
ACDBPLACEHOLDER
  5
F
102
{ACAD_REACTORS
330
E
102
}
330
E
  0
SCALE
  5
1700
102
{ACAD_REACTORS
330
16FF
102
}
330
16FF
100
AcDbScale
 70
     0
300
1:1
140
1.0
141
1.0
290
     1
  0
SCALE
  5
1701
102
{ACAD_REACTORS
330
16FF
102
}
330
16FF
100
AcDbScale
 70
     0
300
1:2
140
1.0
141
2.0
290
     0
  0
SCALE
  5
1702
102
{ACAD_REACTORS
330
16FF
102
}
330
16FF
100
AcDbScale
 70
     0
300
1:4
140
1.0
141
4.0
290
     0
  0
SCALE
  5
1703
102
{ACAD_REACTORS
330
16FF
102
}
330
16FF
100
AcDbScale
 70
     0
300
1:5
140
1.0
141
5.0
290
     0
  0
SCALE
  5
1704
102
{ACAD_REACTORS
330
16FF
102
}
330
16FF
100
AcDbScale
 70
     0
300
1:8
140
1.0
141
8.0
290
     0
  0
SCALE
  5
1705
102
{ACAD_REACTORS
330
16FF
102
}
330
16FF
100
AcDbScale
 70
     0
300
1:10
140
1.0
141
10.0
290
     0
  0
SCALE
  5
1706
102
{ACAD_REACTORS
330
16FF
102
}
330
16FF
100
AcDbScale
 70
     0
300
1:16
140
1.0
141
16.0
290
     0
  0
SCALE
  5
1707
102
{ACAD_REACTORS
330
16FF
102
}
330
16FF
100
AcDbScale
 70
     0
300
1:20
140
1.0
141
20.0
290
     0
  0
SCALE
  5
1708
102
{ACAD_REACTORS
330
16FF
102
}
330
16FF
100
AcDbScale
 70
     0
300
1:30
140
1.0
141
30.0
290
     0
  0
SCALE
  5
1709
102
{ACAD_REACTORS
330
16FF
102
}
330
16FF
100
AcDbScale
 70
     0
300
1:40
140
1.0
141
40.0
290
     0
  0
SCALE
  5
170A
102
{ACAD_REACTORS
330
16FF
102
}
330
16FF
100
AcDbScale
 70
     0
300
1:50
140
1.0
141
50.0
290
     0
  0
SCALE
  5
170B
102
{ACAD_REACTORS
330
16FF
102
}
330
16FF
100
AcDbScale
 70
     0
300
1:100
140
1.0
141
100.0
290
     0
  0
SCALE
  5
170C
102
{ACAD_REACTORS
330
16FF
102
}
330
16FF
100
AcDbScale
 70
     0
300
2:1
140
2.0
141
1.0
290
     0
  0
SCALE
  5
170D
102
{ACAD_REACTORS
330
16FF
102
}
330
16FF
100
AcDbScale
 70
     0
300
4:1
140
4.0
141
1.0
290
     0
  0
SCALE
  5
170E
102
{ACAD_REACTORS
330
16FF
102
}
330
16FF
100
AcDbScale
 70
     0
300
8:1
140
8.0
141
1.0
290
     0
  0
SCALE
  5
170F
102
{ACAD_REACTORS
330
16FF
102
}
330
16FF
100
AcDbScale
 70
     0
300
10:1
140
10.0
141
1.0
290
     0
  0
SCALE
  5
1710
102
{ACAD_REACTORS
330
16FF
102
}
330
16FF
100
AcDbScale
 70
     0
300
100:1
140
100.0
141
1.0
290
     0
  0
TABLESTYLE
  5
16FE
102
{ACAD_XDICTIONARY
360
1733
102
}
102
{ACAD_REACTORS
330
16FD
102
}
330
16FD
100
AcDbTableStyle
  3
Standard
 70
     0
 71
     0
 40
1.5
 41
1.5
280
     0
281
     0
  7
Standard
140
4.5
170
     2
 62
     0
 63
     7
283
     0
274
    -2
284
     1
 64
     0
275
    -2
285
     1
 65
     0
276
    -2
286
     1
 66
     0
277
    -2
287
     1
 67
     0
278
    -2
288
     1
 68
     0
279
    -2
289
     1
 69
     0
  7
Standard
140
6.0
170
     5
 62
     0
 63
     7
283
     0
274
    -2
284
     1
 64
     0
275
    -2
285
     1
 65
     0
276
    -2
286
     1
 66
     0
277
    -2
287
     1
 67
     0
278
    -2
288
     1
 68
     0
279
    -2
289
     1
 69
     0
  7
Standard
140
4.5
170
     5
 62
     0
 63
     7
283
     0
274
    -2
284
     1
 64
     0
275
    -2
285
     1
 65
     0
276
    -2
286
     1
 66
     0
277
    -2
287
     1
 67
     0
278
    -2
288
     1
 68
     0
279
    -2
289
     1
 69
     0
  0
VISUALSTYLE
  5
16F1
102
{ACAD_REACTORS
330
16EB
102
}
330
16EB
100
AcDbVisualStyle
  2
2dWireframe
 70
     4
 71
     0
 72
     2
 73
     0
 90
        0
 40
-0.6
 41
-30.0
 62
     5
 63
     7
 74
     1
 91
        4
 64
     7
 65
   257
 75
     1
175
     1
 42
1.0
 92
        0
 66
   257
 43
1.0
 76
     1
 77
     6
 78
     2
 67
     7
 79
     5
170
     0
171
     0
290
     0
174
     0
 93
        1
 44
0.0
173
     0
291
     0
 45
0.0
1001
ACAD
1000
AcDbSavedByObjectVersion
1070
     0
  0
VISUALSTYLE
  5
16F3
102
{ACAD_REACTORS
330
16EB
102
}
330
16EB
100
AcDbVisualStyle
  2
3D Hidden
 70
     6
 71
     1
 72
     2
 73
     2
 90
        0
 40
-0.6
 41
-30.0
 62
     5
 63
     7
 74
     2
 91
        2
 64
     7
 65
   257
 75
     2
175
     1
 42
40.0
 92
        0
 66
   257
 43
1.0
 76
     1
 77
     6
 78
     2
 67
     7
 79
     3
170
     0
171
     0
290
     0
174
     0
 93
        1
 44
0.0
173
     0
291
     0
 45
0.0
1001
ACAD
1000
AcDbSavedByObjectVersion
1070
     0
  0
VISUALSTYLE
  5
16F2
102
{ACAD_REACTORS
330
16EB
102
}
330
16EB
100
AcDbVisualStyle
  2
3dWireframe
 70
     5
 71
     0
 72
     2
 73
     0
 90
        0
 40
-0.6
 41
-30.0
 62
     5
 63
     7
 74
     1
 91
        4
 64
     7
 65
   257
 75
     1
175
     1
 42
1.0
 92
        0
 66
   257
 43
1.0
 76
     1
 77
     6
 78
     2
 67
     7
 79
     5
170
     0
171
     0
290
     0
174
     0
 93
        1
 44
0.0
173
     0
291
     0
 45
0.0
1001
ACAD
1000
AcDbSavedByObjectVersion
1070
     0
  0
VISUALSTYLE
  5
16F0
102
{ACAD_REACTORS
330
16EB
102
}
330
16EB
100
AcDbVisualStyle
  2
Basic
 70
     7
 71
     1
 72
     0
 73
     1
 90
        0
 40
-0.6
 41
-30.0
 62
     5
 63
     7
 74
     0
 91
        4
 64
     7
 65
   257
 75
     1
175
     1
 42
1.0
 92
        8
 66
     7
 43
1.0
 76
     1
 77
     6
 78
     2
 67
     7
 79
     5
170
     0
171
     0
290
     0
174
     0
 93
        1
 44
0.0
173
     0
291
     1
 45
0.0
1001
ACAD
1000
AcDbSavedByObjectVersion
1070
     0
  0
VISUALSTYLE
  5
16F7
102
{ACAD_REACTORS
330
16EB
102
}
330
16EB
100
AcDbVisualStyle
  2
Brighten
 70
    12
 71
     2
 72
     2
 73
     0
 90
        0
 40
-0.6
 41
-30.0
 62
     5
 63
     7
 74
     1
 91
        4
 64
     7
 65
   257
 75
     1
175
     1
 42
1.0
 92
        8
 66
     7
 43
1.0
 76
     1
 77
     6
 78
     2
 67
     7
 79
     5
170
     0
171
     0
290
     0
174
     0
 93
        1
 44
50.0
173
     0
291
     1
 45
0.0
1001
ACAD
1000
AcDbSavedByObjectVersion
1070
     0
  0
VISUALSTYLE
  5
16FB
102
{ACAD_REACTORS
330
16EB
102
}
330
16EB
100
AcDbVisualStyle
  2
ColorChange
 70
    16
 71
     2
 72
     2
 73
     3
 90
        0
 40
-0.6
 41
-30.0
 62
     5
 63
     8
 74
     1
 91
        4
 64
     7
 65
   257
 75
     1
175
     1
 42
1.0
 92
        8
 66
     8
 43
1.0
 76
     1
 77
     6
 78
     2
 67
     7
 79
     5
170
     0
171
     0
290
     0
174
     0
 93
        1
 44
0.0
173
     0
291
     1
 45
0.0
1001
ACAD
1000
AcDbSavedByObjectVersion
1070
     0
  0
VISUALSTYLE
  5
16F4
102
{ACAD_REACTORS
330
16EB
102
}
330
16EB
100
AcDbVisualStyle
  2
Conceptual
 70
     9
 71
     3
 72
     2
 73
     0
 90
        0
 40
-0.6
 41
-30.0
 62
     5
 63
     7
 74
     2
 91
        2
 64
     7
 65
   257
 75
     1
175
     1
 42
40.0
 92
        8
 66
     7
 43
1.0
 76
     1
 77
     6
 78
     2
 67
     7
 79
     3
170
     0
171
     0
290
     0
174
     0
 93
        1
 44
0.0
173
     0
291
     0
 45
0.0
1001
ACAD
1000
AcDbSavedByObjectVersion
1070
     0
  0
VISUALSTYLE
  5
16F6
102
{ACAD_REACTORS
330
16EB
102
}
330
16EB
100
AcDbVisualStyle
  2
Dim
 70
    11
 71
     2
 72
     2
 73
     0
 90
        0
 40
-0.6
 41
-30.0
 62
     5
 63
     7
 74
     1
 91
        4
 64
     7
 65
   257
 75
     1
175
     1
 42
1.0
 92
        8
 66
     7
 43
1.0
 76
     1
 77
     6
 78
     2
 67
     7
 79
     5
170
     0
171
     0
290
     0
174
     0
 93
        1
 44
-50.0
173
     0
291
     1
 45
0.0
1001
ACAD
1000
AcDbSavedByObjectVersion
1070
     0
  0
VISUALSTYLE
  5
16FA
102
{ACAD_REACTORS
330
16EB
102
}
330
16EB
100
AcDbVisualStyle
  2
Facepattern
 70
    15
 71
     2
 72
     2
 73
     0
 90
        0
 40
-0.6
 41
-30.0
 62
     5
 63
     7
 74
     1
 91
        4
 64
     7
 65
   257
 75
     1
175
     1
 42
1.0
 92
        8
 66
     7
 43
1.0
 76
     1
 77
     6
 78
     2
 67
     7
 79
     5
170
     0
171
     0
290
     0
174
     0
 93
        1
 44
0.0
173
     0
291
     1
 45
0.0
1001
ACAD
1000
AcDbSavedByObjectVersion
1070
     0
  0
VISUALSTYLE
  5
16EC
102
{ACAD_REACTORS
330
16EB
102
}
330
16EB
100
AcDbVisualStyle
  2
Flat
 70
     0
 71
     2
 72
     1
 73
     1
 90
        2
 40
-0.6
 41
30.0
 62
     5
 63
     7
 74
     0
 91
        4
 64
     7
 65
   257
 75
     1
175
     1
 42
1.0
 92
        8
 66
     7
 43
1.0
 76
     1
 77
     6
 78
     2
 67
     7
 79
     5
170
     0
171
     0
290
     0
174
     0
 93
       13
 44
0.0
173
     0
291
     1
 45
0.0
1001
ACAD
1000
AcDbSavedByObjectVersion
1070
     0
  0
VISUALSTYLE
  5
16ED
102
{ACAD_REACTORS
330
16EB
102
}
330
16EB
100
AcDbVisualStyle
  2
FlatWithEdges
 70
     1
 71
     2
 72
     1
 73
     1
 90
        2
 40
-0.6
 41
30.0
 62
     5
 63
     7
 74
     1
 91
        4
 64
     7
 65
   257
 75
     1
175
     1
 42
1.0
 92
        0
 66
   257
 43
1.0
 76
     1
 77
     6
 78
     2
 67
     7
 79
     5
170
     0
171
     0
290
     0
174
     0
 93
       13
 44
0.0
173
     0
291
     1
 45
0.0
1001
ACAD
1000
AcDbSavedByObjectVersion
1070
     0
  0
VISUALSTYLE
  5
16EE
102
{ACAD_REACTORS
330
16EB
102
}
330
16EB
100
AcDbVisualStyle
  2
Gouraud
 70
     2
 71
     2
 72
     2
 73
     1
 90
        2
 40
-0.6
 41
30.0
 62
     5
 63
     7
 74
     0
 91
        4
 64
     7
 65
   257
 75
     1
175
     1
 42
1.0
 92
        0
 66
     7
 43
1.0
 76
     1
 77
     6
 78
     2
 67
     7
 79
     5
170
     0
171
     0
290
     0
174
     0
 93
       13
 44
0.0
173
     0
291
     1
 45
0.0
1001
ACAD
1000
AcDbSavedByObjectVersion
1070
     0
  0
VISUALSTYLE
  5
16EF
102
{ACAD_REACTORS
330
16EB
102
}
330
16EB
100
AcDbVisualStyle
  2
GouraudWithEdges
 70
     3
 71
     2
 72
     2
 73
     1
 90
        2
 40
-0.6
 41
30.0
 62
     5
 63
     7
 74
     1
 91
        4
 64
     7
 65
   257
 75
     1
175
     1
 42
1.0
 92
        0
 66
   257
 43
1.0
 76
     1
 77
     6
 78
     2
 67
     7
 79
     5
170
     0
171
     0
290
     0
174
     0
 93
       13
 44
0.0
173
     0
291
     1
 45
0.0
1001
ACAD
1000
AcDbSavedByObjectVersion
1070
     0
  0
VISUALSTYLE
  5
16F9
102
{ACAD_REACTORS
330
16EB
102
}
330
16EB
100
AcDbVisualStyle
  2
Linepattern
 70
    14
 71
     2
 72
     2
 73
     0
 90
        0
 40
-0.6
 41
-30.0
 62
     5
 63
     7
 74
     1
 91
        4
 64
     7
 65
   257
 75
     7
175
     7
 42
1.0
 92
        8
 66
     7
 43
1.0
 76
     1
 77
     6
 78
     2
 67
     7
 79
     5
170
     0
171
     0
290
     0
174
     0
 93
        1
 44
0.0
173
     0
291
     1
 45
0.0
1001
ACAD
1000
AcDbSavedByObjectVersion
1070
     0
  0
VISUALSTYLE
  5
16F5
102
{ACAD_REACTORS
330
16EB
102
}
330
16EB
100
AcDbVisualStyle
  2
Realistic
 70
     8
 71
     2
 72
     2
 73
     0
 90
        0
 40
-0.6
 41
-30.0
 62
     5
 63
     7
 74
     1
 91
        0
 64
     7
 65
   257
 75
     1
175
     1
 42
1.0
 92
        8
 66
     8
 43
1.0
 76
     1
 77
     6
 78
     2
 67
     7
 79
     5
170
     0
171
     0
290
     0
174
     0
 93
       13
 44
0.0
173
     0
291
     0
 45
0.0
1001
ACAD
1000
AcDbSavedByObjectVersion
1070
     0
  0
VISUALSTYLE
  5
16F8
102
{ACAD_REACTORS
330
16EB
102
}
330
16EB
100
AcDbVisualStyle
  2
Thicken
 70
    13
 71
     2
 72
     2
 73
     0
 90
        0
 40
-0.6
 41
-30.0
 62
     5
 63
     7
 74
     1
 91
        4
 64
     7
 65
   257
 75
     1
175
     1
 42
1.0
 92
       12
 66
     7
 43
1.0
 76
     1
 77
     6
 78
     2
 67
     7
 79
     5
170
     0
171
     0
290
     0
174
     0
 93
        1
 44
0.0
173
     0
291
     1
 45
0.0
1001
ACAD
1000
AcDbSavedByObjectVersion
1070
     0
  0
DICTIONARYVAR
  5
1749
102
{ACAD_REACTORS
330
67
102
}
330
67
100
DictionaryVariables
280
     0
  1
1:1
  0
DICTIONARYVAR
  5
1748
102
{ACAD_REACTORS
330
67
102
}
330
67
100
DictionaryVariables
280
     0
  1
STANDARD
  0
DICTIONARYVAR
  5
1747
102
{ACAD_REACTORS
330
67
102
}
330
67
100
DictionaryVariables
280
     0
  1
STANDARD
  0
DICTIONARYVAR
  5
68
102
{ACAD_REACTORS
330
67
102
}
330
67
100
DictionaryVariables
280
     0
  1
2
  0
DICTIONARYVAR
  5
6C
102
{ACAD_REACTORS
330
67
102
}
330
67
100
DictionaryVariables
280
     0
  1
1
  0
DICTIONARYVAR
  5
174B
102
{ACAD_REACTORS
330
67
102
}
330
67
100
DictionaryVariables
280
     0
  1
0
  0
DICTIONARYVAR
  5
174A
102
{ACAD_REACTORS
330
67
102
}
330
67
100
DictionaryVariables
280
     0
  1
127
  0
DICTIONARY
  5
1753
330
5A
100
AcDbDictionary
280
     1
281
     1
  3
ACAD_XREC_ROUNDTRIP
360
1754
  0
DICTIONARY
  5
1755
330
5F
100
AcDbDictionary
280
     1
281
     1
  3
ACAD_XREC_ROUNDTRIP
360
1756
  0
DICTIONARY
  5
1751
330
22
100
AcDbDictionary
280
     1
281
     1
  3
ACAD_XREC_ROUNDTRIP
360
1752
  0
DICTIONARY
  5
16DC
330
16DB
100
AcDbDictionary
280
     1
281
     1
  3
ACAD_XREC_ROUNDTRIP
360
175C
  3
BUMPTILE
360
16DE
  3
DIFFUSETILE
360
16DD
  3
OPACITYTILE
360
16E1
  3
REFLECTIONTILE
360
16E0
  3
REFRACTIONTILE
360
16E2
  3
SPECULARTILE
360
16DF
  0
DICTIONARY
  5
16D4
330
16D3
100
AcDbDictionary
280
     1
281
     1
  3
ACAD_XREC_ROUNDTRIP
360
175B
  3
BUMPTILE
360
16D6
  3
DIFFUSETILE
360
16D5
  3
OPACITYTILE
360
16D9
  3
REFLECTIONTILE
360
16D8
  3
REFRACTIONTILE
360
16DA
  3
SPECULARTILE
360
16D7
  0
DICTIONARY
  5
16E4
330
16E3
100
AcDbDictionary
280
     1
281
     1
  3
ACAD_XREC_ROUNDTRIP
360
175D
  3
BUMPTILE
360
16E6
  3
DIFFUSETILE
360
16E5
  3
OPACITYTILE
360
16E9
  3
REFLECTIONTILE
360
16E8
  3
REFRACTIONTILE
360
16EA
  3
SPECULARTILE
360
16E7
  0
DICTIONARY
  5
1733
330
16FE
100
AcDbDictionary
280
     1
281
     1
  3
ACAD_ROUNDTRIP_2008_TABLESTYLE_CELLSTYLEMAP
360
174F
  3
ACAD_XREC_ROUNDTRIP
360
175E
  0
XRECORD
  5
1754
102
{ACAD_REACTORS
330
1753
102
}
330
1753
100
AcDbXrecord
280
     1
102
SHADEPLOT
 70
     0
102
SHADEPLOTRESLEVEL
 70
     2
102
SHADEPLOTCUSTOMDPI
 70
   300
  0
XRECORD
  5
1756
102
{ACAD_REACTORS
330
1755
102
}
330
1755
100
AcDbXrecord
280
     1
102
SHADEPLOT
 70
     0
102
SHADEPLOTRESLEVEL
 70
     2
102
SHADEPLOTCUSTOMDPI
 70
   300
  0
XRECORD
  5
1752
102
{ACAD_REACTORS
330
1751
102
}
330
1751
100
AcDbXrecord
280
     1
102
SHADEPLOT
 70
     0
102
SHADEPLOTRESLEVEL
 70
     2
102
SHADEPLOTCUSTOMDPI
 70
   300
  0
XRECORD
  5
175C
102
{ACAD_REACTORS
330
16DC
102
}
330
16DC
100
AcDbXrecord
280
     1
102
MATERIAL
148
0.0
149
0.0
149
0.0
 93
        0
 94
      127
282
     0
 72
     0
 77
     0
171
     0
175
     0
179
     0
273
     0
  0
XRECORD
  5
16DE
102
{ACAD_REACTORS
330
16DC
102
}
330
16DC
100
AcDbXrecord
280
     1
270
     1
271
     1
  0
XRECORD
  5
16DD
102
{ACAD_REACTORS
330
16DC
102
}
330
16DC
100
AcDbXrecord
280
     1
270
     1
271
     1
  0
XRECORD
  5
16E1
102
{ACAD_REACTORS
330
16DC
102
}
330
16DC
100
AcDbXrecord
280
     1
270
     1
271
     1
  0
XRECORD
  5
16E0
102
{ACAD_REACTORS
330
16DC
102
}
330
16DC
100
AcDbXrecord
280
     1
270
     1
271
     1
  0
XRECORD
  5
16E2
102
{ACAD_REACTORS
330
16DC
102
}
330
16DC
100
AcDbXrecord
280
     1
270
     1
271
     1
  0
XRECORD
  5
16DF
102
{ACAD_REACTORS
330
16DC
102
}
330
16DC
100
AcDbXrecord
280
     1
270
     1
271
     1
  0
XRECORD
  5
175B
102
{ACAD_REACTORS
330
16D4
102
}
330
16D4
100
AcDbXrecord
280
     1
102
MATERIAL
148
0.0
149
0.0
149
0.0
 93
        0
 94
      127
282
     0
 72
     0
 77
     0
171
     0
175
     0
179
     0
273
     0
  0
XRECORD
  5
16D6
102
{ACAD_REACTORS
330
16D4
102
}
330
16D4
100
AcDbXrecord
280
     1
270
     1
271
     1
  0
XRECORD
  5
16D5
102
{ACAD_REACTORS
330
16D4
102
}
330
16D4
100
AcDbXrecord
280
     1
270
     1
271
     1
  0
XRECORD
  5
16D9
102
{ACAD_REACTORS
330
16D4
102
}
330
16D4
100
AcDbXrecord
280
     1
270
     1
271
     1
  0
XRECORD
  5
16D8
102
{ACAD_REACTORS
330
16D4
102
}
330
16D4
100
AcDbXrecord
280
     1
270
     1
271
     1
  0
XRECORD
  5
16DA
102
{ACAD_REACTORS
330
16D4
102
}
330
16D4
100
AcDbXrecord
280
     1
270
     1
271
     1
  0
XRECORD
  5
16D7
102
{ACAD_REACTORS
330
16D4
102
}
330
16D4
100
AcDbXrecord
280
     1
270
     1
271
     1
  0
XRECORD
  5
175D
102
{ACAD_REACTORS
330
16E4
102
}
330
16E4
100
AcDbXrecord
280
     1
102
MATERIAL
148
0.0
149
0.0
149
0.0
 93
        0
 94
      127
282
     0
 72
     0
 77
     0
171
     0
175
     0
179
     0
273
     0
  0
XRECORD
  5
16E6
102
{ACAD_REACTORS
330
16E4
102
}
330
16E4
100
AcDbXrecord
280
     1
270
     1
271
     1
  0
XRECORD
  5
16E5
102
{ACAD_REACTORS
330
16E4
102
}
330
16E4
100
AcDbXrecord
280
     1
270
     1
271
     1
  0
XRECORD
  5
16E9
102
{ACAD_REACTORS
330
16E4
102
}
330
16E4
100
AcDbXrecord
280
     1
270
     1
271
     1
  0
XRECORD
  5
16E8
102
{ACAD_REACTORS
330
16E4
102
}
330
16E4
100
AcDbXrecord
280
     1
270
     1
271
     1
  0
XRECORD
  5
16EA
102
{ACAD_REACTORS
330
16E4
102
}
330
16E4
100
AcDbXrecord
280
     1
270
     1
271
     1
  0
XRECORD
  5
16E7
102
{ACAD_REACTORS
330
16E4
102
}
330
16E4
100
AcDbXrecord
280
     1
270
     1
271
     1
  0
CELLSTYLEMAP
  5
174F
102
{ACAD_REACTORS
330
1733
102
}
330
1733
100
AcDbCellStyleMap
 90
        3
300
CELLSTYLE
  1
TABLEFORMAT_BEGIN
 90
        5
170
     1
 91
        0
 92
    32768
 62
   257
 93
        1
300
CONTENTFORMAT
  1
CONTENTFORMAT_BEGIN
 90
        0
 91
        0
 92
      512
 93
        0
300

 40
0.0
140
1.0
 94
        5
 62
     0
340
11
144
6.0
309
CONTENTFORMAT_END
171
     1
301
MARGIN
  1
CELLMARGIN_BEGIN
 40
1.5
 40
1.5
 40
1.5
 40
1.5
 40
4.5
 40
4.5
309
CELLMARGIN_END
 94
        6
 95
        1
302
GRIDFORMAT
  1
GRIDFORMAT_BEGIN
 90
        0
 91
        1
 62
     0
 92
       -2
340
0
 93
        0
 40
1.125
309
GRIDFORMAT_END
 95
        2
302
GRIDFORMAT
  1
GRIDFORMAT_BEGIN
 90
        0
 91
        1
 62
     0
 92
       -2
340
0
 93
        0
 40
1.125
309
GRIDFORMAT_END
 95
        4
302
GRIDFORMAT
  1
GRIDFORMAT_BEGIN
 90
        0
 91
        1
 62
     0
 92
       -2
340
0
 93
        0
 40
1.125
309
GRIDFORMAT_END
 95
        8
302
GRIDFORMAT
  1
GRIDFORMAT_BEGIN
 90
        0
 91
        1
 62
     0
 92
       -2
340
0
 93
        0
 40
1.125
309
GRIDFORMAT_END
 95
       16
302
GRIDFORMAT
  1
GRIDFORMAT_BEGIN
 90
        0
 91
        1
 62
     0
 92
       -2
340
0
 93
        0
 40
1.125
309
GRIDFORMAT_END
 95
       32
302
GRIDFORMAT
  1
GRIDFORMAT_BEGIN
 90
        0
 91
        1
 62
     0
 92
       -2
340
0
 93
        0
 40
1.125
309
GRIDFORMAT_END
309
TABLEFORMAT_END
  1
CELLSTYLE_BEGIN
 90
        1
 91
        1
300
_TITLE
309
CELLSTYLE_END
300
CELLSTYLE
  1
TABLEFORMAT_BEGIN
 90
        5
170
     1
 91
        0
 92
        0
 62
   257
 93
        1
300
CONTENTFORMAT
  1
CONTENTFORMAT_BEGIN
 90
        0
 91
        0
 92
      512
 93
        0
300

 40
0.0
140
1.0
 94
        5
 62
     0
340
11
144
4.5
309
CONTENTFORMAT_END
171
     1
301
MARGIN
  1
CELLMARGIN_BEGIN
 40
1.5
 40
1.5
 40
1.5
 40
1.5
 40
4.5
 40
4.5
309
CELLMARGIN_END
 94
        6
 95
        1
302
GRIDFORMAT
  1
GRIDFORMAT_BEGIN
 90
        0
 91
        1
 62
     0
 92
       -2
340
0
 93
        0
 40
1.125
309
GRIDFORMAT_END
 95
        2
302
GRIDFORMAT
  1
GRIDFORMAT_BEGIN
 90
        0
 91
        1
 62
     0
 92
       -2
340
0
 93
        0
 40
1.125
309
GRIDFORMAT_END
 95
        4
302
GRIDFORMAT
  1
GRIDFORMAT_BEGIN
 90
        0
 91
        1
 62
     0
 92
       -2
340
0
 93
        0
 40
1.125
309
GRIDFORMAT_END
 95
        8
302
GRIDFORMAT
  1
GRIDFORMAT_BEGIN
 90
        0
 91
        1
 62
     0
 92
       -2
340
0
 93
        0
 40
1.125
309
GRIDFORMAT_END
 95
       16
302
GRIDFORMAT
  1
GRIDFORMAT_BEGIN
 90
        0
 91
        1
 62
     0
 92
       -2
340
0
 93
        0
 40
1.125
309
GRIDFORMAT_END
 95
       32
302
GRIDFORMAT
  1
GRIDFORMAT_BEGIN
 90
        0
 91
        1
 62
     0
 92
       -2
340
0
 93
        0
 40
1.125
309
GRIDFORMAT_END
309
TABLEFORMAT_END
  1
CELLSTYLE_BEGIN
 90
        2
 91
        1
300
_HEADER
309
CELLSTYLE_END
300
CELLSTYLE
  1
TABLEFORMAT_BEGIN
 90
        5
170
     1
 91
        0
 92
        0
 62
   257
 93
        1
300
CONTENTFORMAT
  1
CONTENTFORMAT_BEGIN
 90
        0
 91
        0
 92
      512
 93
        0
300

 40
0.0
140
1.0
 94
        2
 62
     0
340
11
144
4.5
309
CONTENTFORMAT_END
171
     1
301
MARGIN
  1
CELLMARGIN_BEGIN
 40
1.5
 40
1.5
 40
1.5
 40
1.5
 40
4.5
 40
4.5
309
CELLMARGIN_END
 94
        6
 95
        1
302
GRIDFORMAT
  1
GRIDFORMAT_BEGIN
 90
        0
 91
        1
 62
     0
 92
       -2
340
0
 93
        0
 40
1.125
309
GRIDFORMAT_END
 95
        2
302
GRIDFORMAT
  1
GRIDFORMAT_BEGIN
 90
        0
 91
        1
 62
     0
 92
       -2
340
0
 93
        0
 40
1.125
309
GRIDFORMAT_END
 95
        4
302
GRIDFORMAT
  1
GRIDFORMAT_BEGIN
 90
        0
 91
        1
 62
     0
 92
       -2
340
0
 93
        0
 40
1.125
309
GRIDFORMAT_END
 95
        8
302
GRIDFORMAT
  1
GRIDFORMAT_BEGIN
 90
        0
 91
        1
 62
     0
 92
       -2
340
0
 93
        0
 40
1.125
309
GRIDFORMAT_END
 95
       16
302
GRIDFORMAT
  1
GRIDFORMAT_BEGIN
 90
        0
 91
        1
 62
     0
 92
       -2
340
0
 93
        0
 40
1.125
309
GRIDFORMAT_END
 95
       32
302
GRIDFORMAT
  1
GRIDFORMAT_BEGIN
 90
        0
 91
        1
 62
     0
 92
       -2
340
0
 93
        0
 40
1.125
309
GRIDFORMAT_END
309
TABLEFORMAT_END
  1
CELLSTYLE_BEGIN
 90
        3
 91
        2
300
_DATA
309
CELLSTYLE_END
  0
XRECORD
  5
175E
102
{ACAD_REACTORS
330
1733
102
}
330
1733
100
AcDbXrecord
280
     1
102
ACAD_ROUNDTRIP_PRE2007_TABLESTYLE
 90
      512
 91
        0
  1

 92
      512
 93
        0
  2

 94
      512
 95
        0
  3

  0
ENDSEC
  0
EOF
