  0
SECTION
  2
HEADER
  9
$ACADVER
  1
AC1014
  9
$ACADMAINTVER
 70
     8
  9
$DWGCODEPAGE
  3
ANSI_1252
  9
$INSBASE
 10
0.0
 20
0.0
 30
0.0
  9
$EXTMIN
 10
-2.57
 20
-7.138851
 30
0.0
  9
$EXTMAX
 10
5.807967
 20
1.214043
 30
5.71
  9
$LIMMIN
 10
0.0
 20
0.0
  9
$LIMMAX
 10
12.0
 20
9.0
  9
$ORTHOMODE
 70
     0
  9
$REGENMODE
 70
     1
  9
$FILLMODE
 70
     1
  9
$QTEXTMODE
 70
     0
  9
$MIRRTEXT
 70
     1
  9
$DRAGMODE
 70
     2
  9
$LTSCALE
 40
1.0
  9
$OSMODE
 70
    37
  9
$ATTMODE
 70
     1
  9
$TEXTSIZE
 40
0.12
  9
$TRACEWID
 40
0.05
  9
$TEXTSTYLE
  7
STANDARD
  9
$CLAYER
  8
0
  9
$CELTYPE
  6
BYLAYER
  9
$CECOLOR
 62
   256
  9
$CELTSCALE
 40
1.0
  9
$DELOBJ
 70
     1
  9
$DISPSILH
 70
     0
  9
$DIMSCALE
 40
1.0
  9
$DIMASZ
 40
0.18
  9
$DIMEXO
 40
0.0625
  9
$DIMDLI
 40
0.375
  9
$DIMRND
 40
0.0
  9
$DIMDLE
 40
0.0
  9
$DIMEXE
 40
0.18
  9
$DIMTP
 40
0.0
  9
$DIMTM
 40
0.0
  9
$DIMTXT
 40
0.18
  9
$DIMCEN
 40
0.09
  9
$DIMTSZ
 40
0.0
  9
$DIMTOL
 70
     0
  9
$DIMLIM
 70
     0
  9
$DIMTIH
 70
     0
  9
$DIMTOH
 70
     1
  9
$DIMSE1
 70
     0
  9
$DIMSE2
 70
     0
  9
$DIMTAD
 70
     0
  9
$DIMZIN
 70
     4
  9
$DIMBLK
  1

  9
$DIMASO
 70
     1
  9
$DIMSHO
 70
     1
  9
$DIMPOST
  1

  9
$DIMAPOST
  1

  9
$DIMALT
 70
     1
  9
$DIMALTD
 70
     1
  9
$DIMALTF
 40
25.4
  9
$DIMLFAC
 40
1.0
  9
$DIMTOFL
 70
     0
  9
$DIMTVP
 40
0.0
  9
$DIMTIX
 70
     0
  9
$DIMSOXD
 70
     0
  9
$DIMSAH
 70
     0
  9
$DIMBLK1
  1

  9
$DIMBLK2
  1

  9
$DIMSTYLE
  2
ABECAD_3D
  9
$DIMCLRD
 70
     0
  9
$DIMCLRE
 70
     0
  9
$DIMCLRT
 70
     0
  9
$DIMTFAC
 40
1.5
  9
$DIMGAP
 40
0.09
  9
$DIMJUST
 70
     0
  9
$DIMSD1
 70
     0
  9
$DIMSD2
 70
     0
  9
$DIMTOLJ
 70
     1
  9
$DIMTZIN
 70
     4
  9
$DIMALTZ
 70
     4
  9
$DIMALTTZ
 70
     4
  9
$DIMFIT
 70
     3
  9
$DIMUPT
 70
     0
  9
$DIMUNIT
 70
     7
  9
$DIMDEC
 70
     6
  9
$DIMTDEC
 70
     6
  9
$DIMALTU
 70
     2
  9
$DIMALTTD
 70
     1
  9
$DIMTXSTY
  7
STANDARD
  9
$DIMAUNIT
 70
     0
  9
$LUNITS
 70
     2
  9
$LUPREC
 70
     4
  9
$SKETCHINC
 40
0.1
  9
$FILLETRAD
 40
0.0
  9
$AUNITS
 70
     0
  9
$AUPREC
 70
     0
  9
$MENU
  1
ACAD
  9
$ELEVATION
 40
0.0
  9
$PELEVATION
 40
0.0
  9
$THICKNESS
 40
0.0
  9
$LIMCHECK
 70
     0
  9
$BLIPMODE
 70
     0
  9
$CHAMFERA
 40
0.0
  9
$CHAMFERB
 40
0.0
  9
$CHAMFERC
 40
0.0
  9
$CHAMFERD
 40
0.0
  9
$SKPOLY
 70
     0
  9
$TDCREATE
 40
2451670.403110301
  9
$TDUPDATE
 40
2452010.483843287
  9
$TDINDWG
 40
0.0135805556
  9
$TDUSRTIMER
 40
0.0135805556
  9
$USRTIMER
 70
     1
  9
$ANGBASE
 50
0.0
  9
$ANGDIR
 70
     0
  9
$PDMODE
 70
     3
  9
$PDSIZE
 40
0.09
  9
$PLINEWID
 40
0.0
  9
$COORDS
 70
     1
  9
$SPLFRAME
 70
     1
  9
$SPLINETYPE
 70
     6
  9
$SPLINESEGS
 70
     8
  9
$ATTDIA
 70
     0
  9
$ATTREQ
 70
     1
  9
$HANDLING
 70
     1
  9
$HANDSEED
  5
4621A
  9
$SURFTAB1
 70
     6
  9
$SURFTAB2
 70
     6
  9
$SURFTYPE
 70
     6
  9
$SURFU
 70
     6
  9
$SURFV
 70
     6
  9
$UCSNAME
  2

  9
$UCSORG
 10
0.0
 20
0.0
 30
0.0
  9
$UCSXDIR
 10
1.0
 20
0.0
 30
0.0
  9
$UCSYDIR
 10
0.0
 20
1.0
 30
0.0
  9
$PUCSNAME
  2

  9
$PUCSORG
 10
0.0
 20
0.0
 30
0.0
  9
$PUCSXDIR
 10
1.0
 20
0.0
 30
0.0
  9
$PUCSYDIR
 10
0.0
 20
1.0
 30
0.0
  9
$USERI1
 70
     0
  9
$USERI2
 70
     0
  9
$USERI3
 70
     0
  9
$USERI4
 70
     0
  9
$USERI5
 70
     0
  9
$USERR1
 40
0.0
  9
$USERR2
 40
0.0
  9
$USERR3
 40
0.0
  9
$USERR4
 40
0.0
  9
$USERR5
 40
0.0
  9
$WORLDVIEW
 70
     1
  9
$SHADEDGE
 70
     3
  9
$SHADEDIF
 70
    70
  9
$TILEMODE
 70
     1
  9
$MAXACTVP
 70
    16
  9
$PINSBASE
 10
0.0
 20
0.0
 30
0.0
  9
$PLIMCHECK
 70
     0
  9
$PEXTMIN
 10
1.000000E+20
 20
1.000000E+20
 30
1.000000E+20
  9
$PEXTMAX
 10
-1.000000E+20
 20
-1.000000E+20
 30
-1.000000E+20
  9
$PLIMMIN
 10
0.0
 20
0.0
  9
$PLIMMAX
 10
12.0
 20
9.0
  9
$UNITMODE
 70
     0
  9
$VISRETAIN
 70
     0
  9
$PLINEGEN
 70
     0
  9
$PSLTSCALE
 70
     1
  9
$TREEDEPTH
 70
  3020
  9
$PICKSTYLE
 70
     1
  9
$CMLSTYLE
  2
STANDARD
  9
$CMLJUST
 70
     0
  9
$CMLSCALE
 40
1.0
  9
$PROXYGRAPHICS
 70
     1
  9
$MEASUREMENT
 70
     0
  0
ENDSEC
  0
SECTION
  2
CLASSES
  0
CLASS
  1
DICTIONARYVAR
  2
AcDbDictionaryVar
  3
"AutoCAD"
 90
        0
280
     0
281
     0
  0
CLASS
  1
ACDBDICTIONARYWDFLT
  2
AcDbDictionaryWithDefault
  3
AutoCAD 2000
 90
        0
280
     0
281
     0
  0
CLASS
  1
ACDBPLACEHOLDER
  2
AcDbPlaceHolder
  3
AutoCAD 2000
 90
        0
280
     0
281
     0
  0
CLASS
  1
LAYOUT
  2
AcDbLayout
  3
AutoCAD 2000
 90
        0
280
     0
281
     0
  0
CLASS
  1
LONG_TRANSACTION
  2
AcDbLongTransaction
  3
AutoCAD 2000
 90
        0
280
     0
281
     0
  0
CLASS
  1
LWPOLYLINE
  2
AcDbPolyline
  3
"AutoCAD"
 90
        0
280
     0
281
     1
  0
CLASS
  1
HATCH
  2
AcDbHatch
  3
"ACAD_SEDONA"
 90
        0
280
     0
281
     1
  0
CLASS
  1
XRECORD
  2
AcDbXrecord
  3
"<Built In>"
 90
        0
280
     0
281
     0
  0
CLASS
  1
LONG_TRANSACTION
  2
AcDbLongTransaction
  3
AutoCAD 2000
 90
        0
280
     0
281
     0
  0
CLASS
  1
LWPOLYLINE
  2
AcDbPolyline
  3
"AutoCAD"
 90
        0
280
     0
281
     1
  0
CLASS
  1
HATCH
  2
AcDbHatch
  3
"ACAD_SEDONA"
 90
        0
280
     0
281
     1
  0
CLASS
  1
XRECORD
  2
AcDbXrecord
  3
"<Built In>"
 90
        0
280
     0
281
     0
  0
CLASS
  1
LONG_TRANSACTION
  2
AcDbLongTransaction
  3
AutoCAD 2000
 90
        0
280
     0
281
     0
  0
CLASS
  1
LWPOLYLINE
  2
AcDbPolyline
  3
"AutoCAD"
 90
        0
280
     0
281
     1
  0
CLASS
  1
HATCH
  2
AcDbHatch
  3
"ACAD_SEDONA"
 90
        0
280
     0
281
     1
  0
CLASS
  1
XRECORD
  2
AcDbXrecord
  3
"<Built In>"
 90
        0
280
     0
281
     0
  0
CLASS
  1
LONG_TRANSACTION
  2
AcDbLongTransaction
  3
AutoCAD 2000
 90
        0
280
     0
281
     0
  0
CLASS
  1
LWPOLYLINE
  2
AcDbPolyline
  3
"AutoCAD"
 90
        0
280
     0
281
     1
  0
CLASS
  1
HATCH
  2
AcDbHatch
  3
"ACAD_SEDONA"
 90
        0
280
     0
281
     1
  0
CLASS
  1
XRECORD
  2
AcDbXrecord
  3
"<Built In>"
 90
        0
280
     0
281
     0
  0
CLASS
  1
LONG_TRANSACTION
  2
AcDbLongTransaction
  3
AutoCAD 2000
 90
        0
280
     0
281
     0
  0
CLASS
  1
LWPOLYLINE
  2
AcDbPolyline
  3
"AutoCAD"
 90
        0
280
     0
281
     1
  0
CLASS
  1
HATCH
  2
AcDbHatch
  3
"ACAD_SEDONA"
 90
        0
280
     0
281
     1
  0
CLASS
  1
XRECORD
  2
AcDbXrecord
  3
"<Built In>"
 90
        0
280
     0
281
     0
  0
CLASS
  1
LONG_TRANSACTION
  2
AcDbLongTransaction
  3
AutoCAD 2000
 90
        0
280
     0
281
     0
  0
CLASS
  1
LWPOLYLINE
  2
AcDbPolyline
  3
"AutoCAD"
 90
        0
280
     0
281
     1
  0
CLASS
  1
HATCH
  2
AcDbHatch
  3
"ACAD_SEDONA"
 90
        0
280
     0
281
     1
  0
CLASS
  1
XRECORD
  2
AcDbXrecord
  3
"<Built In>"
 90
        0
280
     0
281
     0
  0
ENDSEC
  0
SECTION
  2
TABLES
  0
TABLE
  2
VPORT
  5
458C7
100
AcDbSymbolTable
 70
     1
  0
VPORT
  5
461E5
102
{ACAD_XDICTIONARY
360
461EA
102
}
100
AcDbSymbolTableRecord
100
AcDbViewportTableRecord
  2
*ACTIVE
 70
     0
 10
0.0
 20
0.0
 11
1.0
 21
1.0
 12
1.618984
 22
-2.962404
 13
0.0
 23
0.0
 14
0.25
 24
0.25
 15
0.25
 25
0.25
 16
0.0
 26
0.0
 36
1.0
 17
0.0
 27
0.0
 37
0.0
 40
8.493279
 41
1.960674
 42
50.0
 43
0.0
 44
0.0
 50
0.0
 51
0.0
 71
     0
 72
 20000
 73
     1
 74
     1
 75
     0
 76
     0
 77
     0
 78
     0
  0
ENDTAB
  0
TABLE
  2
LTYPE
  5
458C4
100
AcDbSymbolTable
 70
     1
  0
LTYPE
  5
458D0
100
AcDbSymbolTableRecord
100
AcDbLinetypeTableRecord
  2
BYBLOCK
 70
     0
  3

 72
    65
 73
     0
 40
0.0
  0
LTYPE
  5
458D1
100
AcDbSymbolTableRecord
100
AcDbLinetypeTableRecord
  2
BYLAYER
 70
     0
  3

 72
    65
 73
     0
 40
0.0
  0
LTYPE
  5
458D2
100
AcDbSymbolTableRecord
100
AcDbLinetypeTableRecord
  2
CONTINUOUS
 70
     0
  3
Solid line
 72
    65
 73
     0
 40
0.0
  0
ENDTAB
  0
TABLE
  2
LAYER
  5
458C1
100
AcDbSymbolTable
 70
     7
  0
LAYER
  5
458CD
100
AcDbSymbolTableRecord
100
AcDbLayerTableRecord
  2
0
 70
     0
 62
     7
  6
CONTINUOUS
  0
LAYER
  5
458EA
100
AcDbSymbolTableRecord
100
AcDbLayerTableRecord
  2
DIMS-MTG-HOLES
 70
     0
 62
     1
  6
CONTINUOUS
  0
LAYER
  5
458EB
100
AcDbSymbolTableRecord
100
AcDbLayerTableRecord
  2
ATTRIBUTES
 70
     0
 62
     7
  6
CONTINUOUS
  0
LAYER
  5
45949
102
{ACAD_XDICTIONARY
360
46215
102
}
100
AcDbSymbolTableRecord
100
AcDbLayerTableRecord
  2
AREA1
 70
     0
 62
    -7
  6
CONTINUOUS
  0
LAYER
  5
4594A
100
AcDbSymbolTableRecord
100
AcDbLayerTableRecord
  2
SCALE
 70
     0
 62
    -7
  6
CONTINUOUS
  0
LAYER
  5
460EC
102
{ACAD_XDICTIONARY
360
461E8
102
}
100
AcDbSymbolTableRecord
100
AcDbLayerTableRecord
  2
DEFPOINTS
 70
     0
 62
    -7
  6
CONTINUOUS
  0
LAYER
  5
46141
100
AcDbSymbolTableRecord
100
AcDbLayerTableRecord
  2
SNAP_POINTS
 70
     0
 62
    -1
  6
CONTINUOUS
  0
ENDTAB
  0
TABLE
  2
STYLE
  5
458C2
100
AcDbSymbolTable
 70
     1
  0
STYLE
  5
458CE
100
AcDbSymbolTableRecord
100
AcDbTextStyleTableRecord
  2
STANDARD
 70
     0
 40
0.0
 41
1.0
 50
0.0
 71
     0
 42
0.12
  3
txt
  4

  0
ENDTAB
  0
TABLE
  2
VIEW
  5
458C5
100
AcDbSymbolTable
 70
     0
  0
ENDTAB
  0
TABLE
  2
UCS
  5
458C6
100
AcDbSymbolTable
 70
     0
  0
ENDTAB
  0
TABLE
  2
APPID
  5
458C8
100
AcDbSymbolTable
 70
     1
  0
APPID
  5
458CF
100
AcDbSymbolTableRecord
100
AcDbRegAppTableRecord
  2
ACAD
 70
     0
  0
ENDTAB
  0
TABLE
  2
DIMSTYLE
  5
458C9
100
AcDbSymbolTable
 70
     2
  0
DIMSTYLE
105
458F1
102
{ACAD_XDICTIONARY
360
4620F
102
}
100
AcDbSymbolTableRecord
100
AcDbDimStyleTableRecord
  2
ABECAD
 70
     0
  3

  4

  5

  6

  7

 40
1.0
 41
0.18
 42
0.0625
 43
0.375
 44
0.18
 45
0.0
 46
0.0
 47
0.0
 48
0.0
140
0.18
141
0.09
142
0.0
143
25.4
144
1.0
145
0.0
146
1.5
147
0.09
 71
     0
 72
     0
 73
     0
 74
     1
 75
     0
 76
     0
 77
     0
 78
     4
170
     1
171
     1
172
     0
173
     0
174
     0
175
     0
176
     0
177
     0
178
     0
270
     7
271
     6
272
     6
273
     2
274
     1
340
458CE
275
     0
280
     0
281
     0
282
     0
283
     1
284
     4
285
     4
286
     4
287
     3
288
     0
  0
DIMSTYLE
105
458F6
102
{ACAD_XDICTIONARY
360
46211
102
}
102
{ACAD_REACTORS
330
460EB
330
460FA
102
}
100
AcDbSymbolTableRecord
100
AcDbDimStyleTableRecord
  2
ABECAD_3D
 70
     0
  3

  4

  5

  6

  7

 40
1.0
 41
0.18
 42
0.0625
 43
0.375
 44
0.18
 45
0.0
 46
0.0
 47
0.0
 48
0.0
140
0.18
141
0.09
142
0.0
143
25.4
144
1.0
145
0.0
146
1.5
147
0.09
 71
     0
 72
     0
 73
     0
 74
     1
 75
     0
 76
     0
 77
     0
 78
     4
170
     1
171
     1
172
     0
173
     0
174
     0
175
     0
176
     0
177
     0
178
     0
270
     7
271
     6
272
     6
273
     2
274
     1
340
458CE
275
     0
280
     0
281
     0
282
     0
283
     1
284
     4
285
     4
286
     4
287
     3
288
     0
  0
ENDTAB
  0
TABLE
  2
BLOCK_RECORD
  5
458C0
100
AcDbSymbolTable
 70
     3
  0
BLOCK_RECORD
  5
458D6
102
{ACAD_XDICTIONARY
360
4592C
102
}
100
AcDbSymbolTableRecord
100
AcDbBlockTableRecord
  2
*MODEL_SPACE
  0
BLOCK_RECORD
  5
458D3
102
{ACAD_XDICTIONARY
360
4592A
102
}
100
AcDbSymbolTableRecord
100
AcDbBlockTableRecord
  2
*PAPER_SPACE
  0
BLOCK_RECORD
  5
4593B
102
{ACAD_XDICTIONARY
360
461E6
102
}
100
AcDbSymbolTableRecord
100
AcDbBlockTableRecord
  2
SCALE
  0
BLOCK_RECORD
  5
460ED
100
AcDbSymbolTableRecord
100
AcDbBlockTableRecord
  2
*D1
  0
BLOCK_RECORD
  5
460FB
100
AcDbSymbolTableRecord
100
AcDbBlockTableRecord
  2
*D2
  0
ENDTAB
  0
ENDSEC
  0
SECTION
  2
BLOCKS
  0
BLOCK
  5
458DF
100
AcDbEntity
  8
0
100
AcDbBlockBegin
  2
*MODEL_SPACE
 70
     0
 10
0.0
 20
0.0
 30
0.0
  3
*MODEL_SPACE
  1

  0
ENDBLK
  5
458E0
100
AcDbEntity
  8
0
100
AcDbBlockEnd
  0
BLOCK
  5
458DD
100
AcDbEntity
 67
     1
  8
0
100
AcDbBlockBegin
  2
*PAPER_SPACE
 70
     0
 10
0.0
 20
0.0
 30
0.0
  3
*PAPER_SPACE
  1

  0
ENDBLK
  5
458DE
100
AcDbEntity
 67
     1
  8
0
100
AcDbBlockEnd
  0
BLOCK
  5
45947
100
AcDbEntity
  8
0
100
AcDbBlockBegin
  2
SCALE
 70
     0
 10
0.0
 20
0.0
 30
0.0
  3
SCALE
  1

  0
LWPOLYLINE
  5
4595C
100
AcDbEntity
  8
SCALE
100
AcDbPolyline
 90
        4
 70
     1
 43
0.0
 10
0.0
 20
0.0
 10
1.135629
 20
0.0
 10
1.135629
 20
-0.84161
 10
0.0
 20
-0.84161
  0
LINE
  5
4595D
100
AcDbEntity
  8
SCALE
100
AcDbLine
 10
0.057999
 20
-0.380078
 30
0.0
 11
1.057999
 21
-0.380078
 31
0.0
  0
LINE
  5
4595E
100
AcDbEntity
  8
SCALE
100
AcDbLine
 10
0.057999
 20
-0.480078
 30
0.0
 11
0.057999
 21
-0.280078
 31
0.0
  0
TEXT
  5
4595F
100
AcDbEntity
  8
SCALE
100
AcDbText
 10
0.117421
 20
-0.634339
 30
0.0
 40
0.0625
  1
[10mm]
100
AcDbText
  0
LINE
  5
45960
100
AcDbEntity
  8
SCALE
100
AcDbLine
 10
0.057999
 20
-0.680078
 30
0.0
 11
0.451699
 21
-0.680078
 31
0.0
  0
LINE
  5
45961
100
AcDbEntity
  8
SCALE
100
AcDbLine
 10
0.057999
 20
-0.780078
 30
0.0
 11
0.057999
 21
-0.580078
 31
0.0
  0
LINE
  5
45962
100
AcDbEntity
  8
SCALE
100
AcDbLine
 10
0.451699
 20
-0.780078
 30
0.0
 11
0.451699
 21
-0.580078
 31
0.0
  0
TEXT
  5
45963
100
AcDbEntity
  8
SCALE
100
AcDbText
 10
0.059529
 20
-0.105201
 30
0.0
 40
0.0625
  1
SCALE:
100
AcDbText
  0
TEXT
  5
45964
100
AcDbEntity
  8
SCALE
100
AcDbText
 10
0.421282
 20
-0.31103
 30
0.0
 40
0.0625
  1
1 Inch
100
AcDbText
  0
LINE
  5
45965
100
AcDbEntity
  8
SCALE
100
AcDbLine
 10
1.057999
 20
-0.480078
 30
0.0
 11
1.057999
 21
-0.280078
 31
0.0
  0
LINE
  5
45966
100
AcDbEntity
  8
SCALE
100
AcDbLine
 10
1.057999
 20
-0.380078
 30
0.0
 11
1.057999
 21
-0.480078
 31
0.0
  0
ENDBLK
  5
45948
100
AcDbEntity
  8
0
100
AcDbBlockEnd
  0
BLOCK
  5
460F8
100
AcDbEntity
  8
0
100
AcDbBlockBegin
  2
*D1
 70
     1
 10
0.0
 20
0.0
 30
0.0
  3
*D1
  1

  0
LINE
  5
460EE
100
AcDbEntity
  8
AREA1
 62
     0
100
AcDbLine
 10
3.0395
 20
-6.47
 30
0.0
 11
5.807967
 21
-6.47
 31
0.0
1001
ACAD
1000
RTLwPs
1070
   158
  0
LINE
  5
460EF
100
AcDbEntity
  8
AREA1
 62
     0
100
AcDbLine
 10
3.0395
 20
0.26
 30
0.0
 11
5.807967
 21
0.26
 31
0.0
1001
ACAD
1000
RTLwPs
1070
   158
  0
LINE
  5
460F0
100
AcDbEntity
  8
AREA1
 62
     0
100
AcDbLine
 10
5.627967
 20
-6.29
 30
0.0
 11
5.627967
 21
-4.35
 31
0.0
1001
ACAD
1000
RTLwPs
1070
   158
  0
LINE
  5
460F1
100
AcDbEntity
  8
AREA1
 62
     0
100
AcDbLine
 10
5.627967
 20
0.08
 30
0.0
 11
5.627967
 21
-1.86
 31
0.0
1001
ACAD
1000
RTLwPs
1070
   158
  0
SOLID
  5
460F2
100
AcDbEntity
  8
AREA1
 62
     0
100
AcDbTrace
 10
5.597967
 20
-6.29
 30
0.0
 11
5.657967
 21
-6.29
 31
0.0
 12
5.627967
 22
-6.47
 32
0.0
 13
5.627967
 23
-6.47
 33
0.0
  0
SOLID
  5
460F3
100
AcDbEntity
  8
AREA1
 62
     0
100
AcDbTrace
 10
5.597967
 20
0.08
 30
0.0
 11
5.657967
 21
0.08
 31
0.0
 12
5.627967
 22
0.26
 32
0.0
 13
5.627967
 23
0.26
 33
0.0
  0
MTEXT
  5
460F4
100
AcDbEntity
  8
AREA1
 62
     0
100
AcDbMText
 10
5.627967
 20
-3.105
 30
0.0
 40
0.18
 41
0.0
 71
     5
 72
     1
  1
\A1;6 47/64 [170.9]
 11
0.0
 21
1.0
 31
0.0
1001
ACAD
1000
MTEXTBEGIN
1070
    73
1070
     1
1070
    44
1040
1.0
1070
    74
1070
     0
1000
MTEXTEND
1000
MTEXTBEGIN
1070
    73
1070
     1
1070
    44
1040
1.0
1070
    74
1070
     0
1000
MTEXTEND
1000
MTEXTBEGIN
1070
    73
1070
     1
1070
    44
1040
1.0
1070
    74
1070
     0
1000
MTEXTEND
1000
MTEXTBEGIN
1070
    73
1070
     1
1070
    44
1040
1.0
1070
    74
1070
     0
1000
MTEXTEND
1000
MTEXTBEGIN
1070
    73
1070
     1
1070
    44
1040
1.0
1070
    74
1070
     0
1000
MTEXTEND
  0
POINT
  5
460F5
100
AcDbEntity
  8
DEFPOINTS
 62
     0
100
AcDbPoint
 10
2.977
 20
-6.47
 30
0.0
  0
POINT
  5
460F6
100
AcDbEntity
  8
DEFPOINTS
 62
     0
100
AcDbPoint
 10
2.977
 20
0.26
 30
0.0
  0
POINT
  5
460F7
100
AcDbEntity
  8
DEFPOINTS
 62
     0
100
AcDbPoint
 10
5.627967
 20
0.26
 30
0.0
  0
ENDBLK
  5
460F9
100
AcDbEntity
  8
0
100
AcDbBlockEnd
  0
BLOCK
  5
46106
100
AcDbEntity
  8
0
100
AcDbBlockBegin
  2
*D2
 70
     1
 10
0.0
 20
0.0
 30
0.0
  3
*D2
  1

  0
LINE
  5
460FC
100
AcDbEntity
  8
AREA1
 62
     0
100
AcDbLine
 10
4.53
 20
-0.3475
 30
0.0
 11
4.53
 21
1.214043
 31
0.0
1001
ACAD
1000
RTLwPs
1070
   158
  0
LINE
  5
460FD
100
AcDbEntity
  8
AREA1
 62
     0
100
AcDbLine
 10
-2.57
 20
-0.3475
 30
0.0
 11
-2.57
 21
1.214043
 31
0.0
1001
ACAD
1000
RTLwPs
1070
   158
  0
LINE
  5
460FE
100
AcDbEntity
  8
AREA1
 62
     0
100
AcDbLine
 10
4.35
 20
1.034043
 30
0.0
 11
2.135
 21
1.034043
 31
0.0
1001
ACAD
1000
RTLwPs
1070
   158
  0
LINE
  5
460FF
100
AcDbEntity
  8
AREA1
 62
     0
100
AcDbLine
 10
-2.39
 20
1.034043
 30
0.0
 11
-0.175
 21
1.034043
 31
0.0
1001
ACAD
1000
RTLwPs
1070
   158
  0
SOLID
  5
46100
100
AcDbEntity
  8
AREA1
 62
     0
100
AcDbTrace
 10
4.35
 20
1.064043
 30
0.0
 11
4.35
 21
1.004043
 31
0.0
 12
4.53
 22
1.034043
 32
0.0
 13
4.53
 23
1.034043
 33
0.0
  0
SOLID
  5
46101
100
AcDbEntity
  8
AREA1
 62
     0
100
AcDbTrace
 10
-2.39
 20
1.064043
 30
0.0
 11
-2.39
 21
1.004043
 31
0.0
 12
-2.57
 22
1.034043
 32
0.0
 13
-2.57
 23
1.034043
 33
0.0
  0
MTEXT
  5
46102
100
AcDbEntity
  8
AREA1
 62
     0
100
AcDbMText
 10
0.98
 20
1.034043
 30
0.0
 40
0.18
 41
0.0
 71
     5
 72
     1
  1
\A1;7 3/32 [180.3]
1001
ACAD
1000
MTEXTBEGIN
1070
    73
1070
     1
1070
    44
1040
1.0
1070
    74
1070
     0
1000
MTEXTEND
1000
MTEXTBEGIN
1070
    73
1070
     1
1070
    44
1040
1.0
1070
    74
1070
     0
1000
MTEXTEND
1000
MTEXTBEGIN
1070
    73
1070
     1
1070
    44
1040
1.0
1070
    74
1070
     0
1000
MTEXTEND
1000
MTEXTBEGIN
1070
    73
1070
     1
1070
    44
1040
1.0
1070
    74
1070
     0
1000
MTEXTEND
1000
MTEXTBEGIN
1070
    73
1070
     1
1070
    44
1040
1.0
1070
    74
1070
     0
1000
MTEXTEND
  0
POINT
  5
46103
100
AcDbEntity
  8
DEFPOINTS
 62
     0
100
AcDbPoint
 10
4.53
 20
-0.41
 30
0.0
  0
POINT
  5
46104
100
AcDbEntity
  8
DEFPOINTS
 62
     0
100
AcDbPoint
 10
-2.57
 20
-0.41
 30
0.0
  0
POINT
  5
46105
100
AcDbEntity
  8
DEFPOINTS
 62
     0
100
AcDbPoint
 10
-2.57
 20
1.034043
 30
0.0
  0
ENDBLK
  5
46107
100
AcDbEntity
  8
0
100
AcDbBlockEnd
  0
ENDSEC
  0
SECTION
  2
ENTITIES
  0
ATTDEF
  5
1
100
AcDbEntity
  8
ATTRIBUTES
100
AcDbText
 10
-2.47415
 20
-2.749086
 30
0.0
 40
0.18
  1
ALLEN-BRADLEY
100
AcDbAttributeDefinition
  3
MANUFACTURER NAME?
  2
AC_VND_LABEL
 70
     1
  0
ATTDEF
  5
2
100
AcDbEntity
  8
ATTRIBUTES
100
AcDbText
 10
-2.47415
 20
-3.124086
 30
0.0
 40
0.18
  1
1746-A4
100
AcDbAttributeDefinition
  3
CATALOG NUMBER?
  2
AC_PART_NO
 70
     1
  0
ATTDEF
  5
3
100
AcDbEntity
  8
ATTRIBUTES
100
AcDbText
 10
-2.47415
 20
-3.499086
 30
0.0
 40
0.18
  1
1746-A4:4-SLOT RACK, MODULAR HARDWARE STYLE
100
AcDbAttributeDefinition
  3
PART DESCRIPTION?
  2
AC_DESCRIPTION
 70
     1
  0
ATTDEF
  5
4
100
AcDbEntity
  8
ATTRIBUTES
100
AcDbText
 10
-2.47415
 20
-3.874086
 30
0.0
 40
0.18
  1

100
AcDbAttributeDefinition
  3
DEVICE ID?
  2
DEVICE_ID
 70
     1
  0
ATTDEF
  5
5
100
AcDbEntity
  8
ATTRIBUTES
100
AcDbText
 10
-2.47415
 20
-4.249086
 30
0.0
 40
0.18
  1

100
AcDbAttributeDefinition
  3
CUSTOMER PART NUMBER?
  2
AC_CPART_NO
 70
     1
  0
ATTDEF
  5
6
100
AcDbEntity
  8
ATTRIBUTES
100
AcDbText
 10
-2.47415
 20
-4.624086
 30
0.0
 40
0.18
  1

100
AcDbAttributeDefinition
  3
CUSTOMER NOTE?
  2
AC_NOTE
 70
     1
  0
ATTDEF
  5
7
100
AcDbEntity
  8
ATTRIBUTES
100
AcDbText
 10
-2.47415
 20
-4.999086
 30
0.0
 40
0.18
  1

100
AcDbAttributeDefinition
  3
FASTENER DATA?
  2
FASTENER
 70
     1
  0
ATTDEF
  5
8
100
AcDbEntity
  8
ATTRIBUTES
100
AcDbText
 10
-2.47415
 20
-5.374086
 30
0.0
 40
0.18
  1
INCH
100
AcDbAttributeDefinition
  3
UNIT OF SCALE?
  2
AC_SCALE_UNIT
 70
     1
  0
ATTDEF
  5
9
100
AcDbEntity
  8
ATTRIBUTES
100
AcDbText
 10
-2.47415
 20
-5.749086
 30
0.0
 40
0.18
  1
0
100
AcDbAttributeDefinition
  3
VIEW CODE?
  2
AC_VIEW_CODE
 70
     1
  0
INSERT
  5
45967
100
AcDbEntity
  8
SCALE
100
AcDbBlockReference
  2
SCALE
 10
-2.540908
 20
-6.297241
 30
0.0
  0
POLYLINE
  5
45D32
100
AcDbEntity
  8
0
100
AcDbPolygonMesh
 66
     1
 10
0.0
 20
0.0
 30
0.0
 70
    16
 71
     6
 72
     3
  0
VERTEX
  5
45D33
100
AcDbEntity
  8
0
100
AcDbVertex
100
AcDbPolygonMeshVertex
 10
4.13
 20
-0.41
 30
3.85
 70
    64
  0
VERTEX
  5
45D34
100
AcDbEntity
  8
0
100
AcDbVertex
100
AcDbPolygonMeshVertex
 10
4.13
 20
-0.41
 30
0.0
 70
    64
  0
VERTEX
  5
45D35
100
AcDbEntity
  8
0
100
AcDbVertex
100
AcDbPolygonMeshVertex
 10
4.13
 20
-0.41
 30
0.0
 70
    64
  0
VERTEX
  5
45D36
100
AcDbEntity
  8
0
100
AcDbVertex
100
AcDbPolygonMeshVertex
 10
-2.57
 20
-0.41
 30
3.85
 70
    64
  0
VERTEX
  5
45D37
100
AcDbEntity
  8
0
100
AcDbVertex
100
AcDbPolygonMeshVertex
 10
-2.57
 20
-0.41
 30
0.0
 70
    64
  0
VERTEX
  5
45D38
100
AcDbEntity
  8
0
100
AcDbVertex
100
AcDbPolygonMeshVertex
 10
-2.57
 20
-0.41
 30
0.0
 70
    64
  0
VERTEX
  5
45D39
100
AcDbEntity
  8
0
100
AcDbVertex
100
AcDbPolygonMeshVertex
 10
-2.57
 20
-0.450291
 30
3.85
 70
    64
  0
VERTEX
  5
45D3A
100
AcDbEntity
  8
0
100
AcDbVertex
100
AcDbPolygonMeshVertex
 10
-2.57
 20
-0.450291
 30
0.0
 70
    64
  0
VERTEX
  5
45D3B
100
AcDbEntity
  8
0
100
AcDbVertex
100
AcDbPolygonMeshVertex
 10
-2.57
 20
-0.41
 30
0.0
 70
    64
  0
VERTEX
  5
45D3C
100
AcDbEntity
  8
0
100
AcDbVertex
100
AcDbPolygonMeshVertex
 10
4.13
 20
-0.450291
 30
3.85
 70
    64
  0
VERTEX
  5
45D3D
100
AcDbEntity
  8
0
100
AcDbVertex
100
AcDbPolygonMeshVertex
 10
4.13
 20
-0.450291
 30
0.0
 70
    64
  0
VERTEX
  5
45D3E
100
AcDbEntity
  8
0
100
AcDbVertex
100
AcDbPolygonMeshVertex
 10
4.13
 20
-0.41
 30
0.0
 70
    64
  0
VERTEX
  5
45D3F
100
AcDbEntity
  8
0
100
AcDbVertex
100
AcDbPolygonMeshVertex
 10
4.13
 20
-0.450291
 30
3.85
 70
    64
  0
VERTEX
  5
45D40
100
AcDbEntity
  8
0
100
AcDbVertex
100
AcDbPolygonMeshVertex
 10
4.13
 20
-0.450291
 30
3.85
 70
    64
  0
VERTEX
  5
45D41
100
AcDbEntity
  8
0
100
AcDbVertex
100
AcDbPolygonMeshVertex
 10
4.13
 20
-0.41
 30
3.85
 70
    64
  0
VERTEX
  5
45D42
100
AcDbEntity
  8
0
100
AcDbVertex
100
AcDbPolygonMeshVertex
 10
-2.57
 20
-0.450291
 30
3.85
 70
    64
  0
VERTEX
  5
45D43
100
AcDbEntity
  8
0
100
AcDbVertex
100
AcDbPolygonMeshVertex
 10
-2.57
 20
-0.450291
 30
3.85
 70
    64
  0
VERTEX
  5
45D44
100
AcDbEntity
  8
0
100
AcDbVertex
100
AcDbPolygonMeshVertex
 10
-2.57
 20
-0.41
 30
3.85
 70
    64
  0
SEQEND
  5
45D45
100
AcDbEntity
  8
0
  0
POLYLINE
  5
45D46
100
AcDbEntity
  8
0
100
AcDbPolygonMesh
 66
     1
 10
0.0
 20
0.0
 30
0.0
 70
    16
 71
     6
 72
     3
  0
VERTEX
  5
45D47
100
AcDbEntity
  8
0
100
AcDbVertex
100
AcDbPolygonMeshVertex
 10
4.13
 20
-5.879709
 30
0.040001
 70
    64
  0
VERTEX
  5
45D48
100
AcDbEntity
  8
0
100
AcDbVertex
100
AcDbPolygonMeshVertex
 10
4.13
 20
-5.879709
 30
0.0
 70
    64
  0
VERTEX
  5
45D49
100
AcDbEntity
  8
0
100
AcDbVertex
100
AcDbPolygonMeshVertex
 10
4.13
 20
-5.879709
 30
0.0
 70
    64
  0
VERTEX
  5
45D4A
100
AcDbEntity
  8
0
100
AcDbVertex
100
AcDbPolygonMeshVertex
 10
-2.57
 20
-5.879709
 30
0.040001
 70
    64
  0
VERTEX
  5
45D4B
100
AcDbEntity
  8
0
100
AcDbVertex
100
AcDbPolygonMeshVertex
 10
-2.57
 20
-5.879709
 30
0.0
 70
    64
  0
VERTEX
  5
45D4C
100
AcDbEntity
  8
0
100
AcDbVertex
100
AcDbPolygonMeshVertex
 10
-2.57
 20
-5.879709
 30
0.0
 70
    64
  0
VERTEX
  5
45D4D
100
AcDbEntity
  8
0
100
AcDbVertex
100
AcDbPolygonMeshVertex
 10
-2.57
 20
-0.45
 30
0.040001
 70
    64
  0
VERTEX
  5
45D4E
100
AcDbEntity
  8
0
100
AcDbVertex
100
AcDbPolygonMeshVertex
 10
-2.57
 20
-0.45
 30
0.0
 70
    64
  0
VERTEX
  5
45D4F
100
AcDbEntity
  8
0
100
AcDbVertex
100
AcDbPolygonMeshVertex
 10
-2.57
 20
-5.879709
 30
0.0
 70
    64
  0
VERTEX
  5
45D50
100
AcDbEntity
  8
0
100
AcDbVertex
100
AcDbPolygonMeshVertex
 10
4.13
 20
-0.45
 30
0.040001
 70
    64
  0
VERTEX
  5
45D51
100
AcDbEntity
  8
0
100
AcDbVertex
100
AcDbPolygonMeshVertex
 10
4.13
 20
-0.45
 30
0.0
 70
    64
  0
VERTEX
  5
45D52
100
AcDbEntity
  8
0
100
AcDbVertex
100
AcDbPolygonMeshVertex
 10
4.13
 20
-5.879709
 30
0.0
 70
    64
  0
VERTEX
  5
45D53
100
AcDbEntity
  8
0
100
AcDbVertex
100
AcDbPolygonMeshVertex
 10
4.13
 20
-0.45
 30
0.040001
 70
    64
  0
VERTEX
  5
45D54
100
AcDbEntity
  8
0
100
AcDbVertex
100
AcDbPolygonMeshVertex
 10
4.13
 20
-0.45
 30
0.040001
 70
    64
  0
VERTEX
  5
45D55
100
AcDbEntity
  8
0
100
AcDbVertex
100
AcDbPolygonMeshVertex
 10
4.13
 20
-5.879709
 30
0.040001
 70
    64
  0
VERTEX
  5
45D56
100
AcDbEntity
  8
0
100
AcDbVertex
100
AcDbPolygonMeshVertex
 10
-2.57
 20
-0.45
 30
0.040001
 70
    64
  0
VERTEX
  5
45D57
100
AcDbEntity
  8
0
100
AcDbVertex
100
AcDbPolygonMeshVertex
 10
-2.57
 20
-0.45
 30
0.040001
 70
    64
  0
VERTEX
  5
45D58
100
AcDbEntity
  8
0
100
AcDbVertex
100
AcDbPolygonMeshVertex
 10
-2.57
 20
-5.879709
 30
0.040001
 70
    64
  0
SEQEND
  5
45D59
100
AcDbEntity
  8
0
  0
POLYLINE
  5
45D5A
100
AcDbEntity
  8
0
100
AcDbPolygonMesh
 66
     1
 10
0.0
 20
0.0
 30
0.0
 70
    16
 71
     6
 72
     3
  0
VERTEX
  5
45D5B
100
AcDbEntity
  8
0
100
AcDbVertex
100
AcDbPolygonMeshVertex
 10
4.13
 20
-5.92
 30
3.85
 70
    64
  0
VERTEX
  5
45D5C
100
AcDbEntity
  8
0
100
AcDbVertex
100
AcDbPolygonMeshVertex
 10
4.13
 20
-5.92
 30
0.0
 70
    64
  0
VERTEX
  5
45D5D
100
AcDbEntity
  8
0
100
AcDbVertex
100
AcDbPolygonMeshVertex
 10
4.13
 20
-5.92
 30
0.0
 70
    64
  0
VERTEX
  5
45D5E
100
AcDbEntity
  8
0
100
AcDbVertex
100
AcDbPolygonMeshVertex
 10
-2.57
 20
-5.92
 30
3.85
 70
    64
  0
VERTEX
  5
45D5F
100
AcDbEntity
  8
0
100
AcDbVertex
100
AcDbPolygonMeshVertex
 10
-2.57
 20
-5.92
 30
0.0
 70
    64
  0
VERTEX
  5
45D60
100
AcDbEntity
  8
0
100
AcDbVertex
100
AcDbPolygonMeshVertex
 10
-2.57
 20
-5.92
 30
0.0
 70
    64
  0
VERTEX
  5
45D61
100
AcDbEntity
  8
0
100
AcDbVertex
100
AcDbPolygonMeshVertex
 10
-2.57
 20
-5.879709
 30
3.85
 70
    64
  0
VERTEX
  5
45D62
100
AcDbEntity
  8
0
100
AcDbVertex
100
AcDbPolygonMeshVertex
 10
-2.57
 20
-5.879709
 30
0.0
 70
    64
  0
VERTEX
  5
45D63
100
AcDbEntity
  8
0
100
AcDbVertex
100
AcDbPolygonMeshVertex
 10
-2.57
 20
-5.92
 30
0.0
 70
    64
  0
VERTEX
  5
45D64
100
AcDbEntity
  8
0
100
AcDbVertex
100
AcDbPolygonMeshVertex
 10
4.13
 20
-5.879709
 30
3.85
 70
    64
  0
VERTEX
  5
45D65
100
AcDbEntity
  8
0
100
AcDbVertex
100
AcDbPolygonMeshVertex
 10
4.13
 20
-5.879709
 30
0.0
 70
    64
  0
VERTEX
  5
45D66
100
AcDbEntity
  8
0
100
AcDbVertex
100
AcDbPolygonMeshVertex
 10
4.13
 20
-5.92
 30
0.0
 70
    64
  0
VERTEX
  5
45D67
100
AcDbEntity
  8
0
100
AcDbVertex
100
AcDbPolygonMeshVertex
 10
4.13
 20
-5.879709
 30
3.85
 70
    64
  0
VERTEX
  5
45D68
100
AcDbEntity
  8
0
100
AcDbVertex
100
AcDbPolygonMeshVertex
 10
4.13
 20
-5.879709
 30
3.85
 70
    64
  0
VERTEX
  5
45D69
100
AcDbEntity
  8
0
100
AcDbVertex
100
AcDbPolygonMeshVertex
 10
4.13
 20
-5.92
 30
3.85
 70
    64
  0
VERTEX
  5
45D6A
100
AcDbEntity
  8
0
100
AcDbVertex
100
AcDbPolygonMeshVertex
 10
-2.57
 20
-5.879709
 30
3.85
 70
    64
  0
VERTEX
  5
45D6B
100
AcDbEntity
  8
0
100
AcDbVertex
100
AcDbPolygonMeshVertex
 10
-2.57
 20
-5.879709
 30
3.85
 70
    64
  0
VERTEX
  5
45D6C
100
AcDbEntity
  8
0
100
AcDbVertex
100
AcDbPolygonMeshVertex
 10
-2.57
 20
-5.92
 30
3.85
 70
    64
  0
SEQEND
  5
45D6D
100
AcDbEntity
  8
0
  0
POLYLINE
  5
45D6E
100
AcDbEntity
  8
0
100
AcDbPolygonMesh
 66
     1
 10
0.0
 20
0.0
 30
0.0
 70
    16
 71
     6
 72
     3
  0
VERTEX
  5
45D6F
100
AcDbEntity
  8
0
100
AcDbVertex
100
AcDbPolygonMeshVertex
 10
-0.317
 20
-0.41
 30
0.04
 70
    64
  0
VERTEX
  5
45D70
100
AcDbEntity
  8
0
100
AcDbVertex
100
AcDbPolygonMeshVertex
 10
-0.317
 20
-0.41
 30
0.0
 70
    64
  0
VERTEX
  5
45D71
100
AcDbEntity
  8
0
100
AcDbVertex
100
AcDbPolygonMeshVertex
 10
-0.317
 20
-0.41
 30
0.0
 70
    64
  0
VERTEX
  5
45D72
100
AcDbEntity
  8
0
100
AcDbVertex
100
AcDbPolygonMeshVertex
 10
-0.317
 20
0.26
 30
0.04
 70
    64
  0
VERTEX
  5
45D73
100
AcDbEntity
  8
0
100
AcDbVertex
100
AcDbPolygonMeshVertex
 10
-0.317
 20
0.26
 30
0.0
 70
    64
  0
VERTEX
  5
45D74
100
AcDbEntity
  8
0
100
AcDbVertex
100
AcDbPolygonMeshVertex
 10
-0.317
 20
0.26
 30
0.0
 70
    64
  0
VERTEX
  5
45D75
100
AcDbEntity
  8
0
100
AcDbVertex
100
AcDbPolygonMeshVertex
 10
0.317
 20
0.26
 30
0.04
 70
    64
  0
VERTEX
  5
45D76
100
AcDbEntity
  8
0
100
AcDbVertex
100
AcDbPolygonMeshVertex
 10
0.317
 20
0.26
 30
0.0
 70
    64
  0
VERTEX
  5
45D77
100
AcDbEntity
  8
0
100
AcDbVertex
100
AcDbPolygonMeshVertex
 10
-0.317
 20
0.26
 30
0.0
 70
    64
  0
VERTEX
  5
45D78
100
AcDbEntity
  8
0
100
AcDbVertex
100
AcDbPolygonMeshVertex
 10
0.317
 20
-0.41
 30
0.04
 70
    64
  0
VERTEX
  5
45D79
100
AcDbEntity
  8
0
100
AcDbVertex
100
AcDbPolygonMeshVertex
 10
0.317
 20
-0.41
 30
0.0
 70
    64
  0
VERTEX
  5
45D7A
100
AcDbEntity
  8
0
100
AcDbVertex
100
AcDbPolygonMeshVertex
 10
-0.317
 20
-0.41
 30
0.0
 70
    64
  0
VERTEX
  5
45D7B
100
AcDbEntity
  8
0
100
AcDbVertex
100
AcDbPolygonMeshVertex
 10
0.317
 20
-0.41
 30
0.04
 70
    64
  0
VERTEX
  5
45D7C
100
AcDbEntity
  8
0
100
AcDbVertex
100
AcDbPolygonMeshVertex
 10
0.317
 20
-0.41
 30
0.04
 70
    64
  0
VERTEX
  5
45D7D
100
AcDbEntity
  8
0
100
AcDbVertex
100
AcDbPolygonMeshVertex
 10
-0.317
 20
-0.41
 30
0.04
 70
    64
  0
VERTEX
  5
45D7E
100
AcDbEntity
  8
0
100
AcDbVertex
100
AcDbPolygonMeshVertex
 10
0.317
 20
0.26
 30
0.04
 70
    64
  0
VERTEX
  5
45D7F
100
AcDbEntity
  8
0
100
AcDbVertex
100
AcDbPolygonMeshVertex
 10
0.317
 20
0.26
 30
0.04
 70
    64
  0
VERTEX
  5
45D80
100
AcDbEntity
  8
0
100
AcDbVertex
100
AcDbPolygonMeshVertex
 10
-0.317
 20
0.26
 30
0.04
 70
    64
  0
SEQEND
  5
45D81
100
AcDbEntity
  8
0
  0
POLYLINE
  5
45D82
100
AcDbEntity
  8
0
100
AcDbPolygonMesh
 66
     1
 10
0.0
 20
0.0
 30
0.0
 70
    16
 71
     6
 72
     3
  0
VERTEX
  5
45D83
100
AcDbEntity
  8
0
100
AcDbVertex
100
AcDbPolygonMeshVertex
 10
-2.20252
 20
-0.482025
 30
3.05
 70
    64
  0
VERTEX
  5
45D84
100
AcDbEntity
  8
0
100
AcDbVertex
100
AcDbPolygonMeshVertex
 10
-2.20252
 20
-0.482025
 30
0.05
 70
    64
  0
VERTEX
  5
45D85
100
AcDbEntity
  8
0
100
AcDbVertex
100
AcDbPolygonMeshVertex
 10
-2.20252
 20
-0.482025
 30
0.05
 70
    64
  0
VERTEX
  5
45D86
100
AcDbEntity
  8
0
100
AcDbVertex
100
AcDbPolygonMeshVertex
 10
-2.30252
 20
-0.482025
 30
3.05
 70
    64
  0
VERTEX
  5
45D87
100
AcDbEntity
  8
0
100
AcDbVertex
100
AcDbPolygonMeshVertex
 10
-2.30252
 20
-0.482025
 30
0.05
 70
    64
  0
VERTEX
  5
45D88
100
AcDbEntity
  8
0
100
AcDbVertex
100
AcDbPolygonMeshVertex
 10
-2.30252
 20
-0.482025
 30
0.05
 70
    64
  0
VERTEX
  5
45D89
100
AcDbEntity
  8
0
100
AcDbVertex
100
AcDbPolygonMeshVertex
 10
-2.30252
 20
-0.682025
 30
3.05
 70
    64
  0
VERTEX
  5
45D8A
100
AcDbEntity
  8
0
100
AcDbVertex
100
AcDbPolygonMeshVertex
 10
-2.30252
 20
-0.682025
 30
0.05
 70
    64
  0
VERTEX
  5
45D8B
100
AcDbEntity
  8
0
100
AcDbVertex
100
AcDbPolygonMeshVertex
 10
-2.30252
 20
-0.482025
 30
0.05
 70
    64
  0
VERTEX
  5
45D8C
100
AcDbEntity
  8
0
100
AcDbVertex
100
AcDbPolygonMeshVertex
 10
-2.20252
 20
-0.682025
 30
3.05
 70
    64
  0
VERTEX
  5
45D8D
100
AcDbEntity
  8
0
100
AcDbVertex
100
AcDbPolygonMeshVertex
 10
-2.20252
 20
-0.682025
 30
0.05
 70
    64
  0
VERTEX
  5
45D8E
100
AcDbEntity
  8
0
100
AcDbVertex
100
AcDbPolygonMeshVertex
 10
-2.20252
 20
-0.482025
 30
0.05
 70
    64
  0
VERTEX
  5
45D8F
100
AcDbEntity
  8
0
100
AcDbVertex
100
AcDbPolygonMeshVertex
 10
-2.20252
 20
-0.682025
 30
3.05
 70
    64
  0
VERTEX
  5
45D90
100
AcDbEntity
  8
0
100
AcDbVertex
100
AcDbPolygonMeshVertex
 10
-2.20252
 20
-0.682025
 30
3.05
 70
    64
  0
VERTEX
  5
45D91
100
AcDbEntity
  8
0
100
AcDbVertex
100
AcDbPolygonMeshVertex
 10
-2.20252
 20
-0.482025
 30
3.05
 70
    64
  0
VERTEX
  5
45D92
100
AcDbEntity
  8
0
100
AcDbVertex
100
AcDbPolygonMeshVertex
 10
-2.30252
 20
-0.682025
 30
3.05
 70
    64
  0
VERTEX
  5
45D93
100
AcDbEntity
  8
0
100
AcDbVertex
100
AcDbPolygonMeshVertex
 10
-2.30252
 20
-0.682025
 30
3.05
 70
    64
  0
VERTEX
  5
45D94
100
AcDbEntity
  8
0
100
AcDbVertex
100
AcDbPolygonMeshVertex
 10
-2.30252
 20
-0.482025
 30
3.05
 70
    64
  0
SEQEND
  5
45D95
100
AcDbEntity
  8
0
  0
POLYLINE
  5
45D96
100
AcDbEntity
  8
0
100
AcDbPolygonMesh
 66
     1
 10
0.0
 20
0.0
 30
0.0
 70
    16
 71
     6
 72
     3
  0
VERTEX
  5
45D97
100
AcDbEntity
  8
0
100
AcDbVertex
100
AcDbPolygonMeshVertex
 10
-2.01252
 20
-0.482025
 30
3.05
 70
    64
  0
VERTEX
  5
45D98
100
AcDbEntity
  8
0
100
AcDbVertex
100
AcDbPolygonMeshVertex
 10
-2.01252
 20
-0.482025
 30
0.05
 70
    64
  0
VERTEX
  5
45D99
100
AcDbEntity
  8
0
100
AcDbVertex
100
AcDbPolygonMeshVertex
 10
-2.01252
 20
-0.482025
 30
0.05
 70
    64
  0
VERTEX
  5
45D9A
100
AcDbEntity
  8
0
100
AcDbVertex
100
AcDbPolygonMeshVertex
 10
-2.11252
 20
-0.482025
 30
3.05
 70
    64
  0
VERTEX
  5
45D9B
100
AcDbEntity
  8
0
100
AcDbVertex
100
AcDbPolygonMeshVertex
 10
-2.11252
 20
-0.482025
 30
0.05
 70
    64
  0
VERTEX
  5
45D9C
100
AcDbEntity
  8
0
100
AcDbVertex
100
AcDbPolygonMeshVertex
 10
-2.11252
 20
-0.482025
 30
0.05
 70
    64
  0
VERTEX
  5
45D9D
100
AcDbEntity
  8
0
100
AcDbVertex
100
AcDbPolygonMeshVertex
 10
-2.11252
 20
-0.682025
 30
3.05
 70
    64
  0
VERTEX
  5
45D9E
100
AcDbEntity
  8
0
100
AcDbVertex
100
AcDbPolygonMeshVertex
 10
-2.11252
 20
-0.682025
 30
0.05
 70
    64
  0
VERTEX
  5
45D9F
100
AcDbEntity
  8
0
100
AcDbVertex
100
AcDbPolygonMeshVertex
 10
-2.11252
 20
-0.482025
 30
0.05
 70
    64
  0
VERTEX
  5
45DA0
100
AcDbEntity
  8
0
100
AcDbVertex
100
AcDbPolygonMeshVertex
 10
-2.01252
 20
-0.682025
 30
3.05
 70
    64
  0
VERTEX
  5
45DA1
100
AcDbEntity
  8
0
100
AcDbVertex
100
AcDbPolygonMeshVertex
 10
-2.01252
 20
-0.682025
 30
0.05
 70
    64
  0
VERTEX
  5
45DA2
100
AcDbEntity
  8
0
100
AcDbVertex
100
AcDbPolygonMeshVertex
 10
-2.01252
 20
-0.482025
 30
0.05
 70
    64
  0
VERTEX
  5
45DA3
100
AcDbEntity
  8
0
100
AcDbVertex
100
AcDbPolygonMeshVertex
 10
-2.01252
 20
-0.682025
 30
3.05
 70
    64
  0
VERTEX
  5
45DA4
100
AcDbEntity
  8
0
100
AcDbVertex
100
AcDbPolygonMeshVertex
 10
-2.01252
 20
-0.682025
 30
3.05
 70
    64
  0
VERTEX
  5
45DA5
100
AcDbEntity
  8
0
100
AcDbVertex
100
AcDbPolygonMeshVertex
 10
-2.01252
 20
-0.482025
 30
3.05
 70
    64
  0
VERTEX
  5
45DA6
100
AcDbEntity
  8
0
100
AcDbVertex
100
AcDbPolygonMeshVertex
 10
-2.11252
 20
-0.682025
 30
3.05
 70
    64
  0
VERTEX
  5
45DA7
100
AcDbEntity
  8
0
100
AcDbVertex
100
AcDbPolygonMeshVertex
 10
-2.11252
 20
-0.682025
 30
3.05
 70
    64
  0
VERTEX
  5
45DA8
100
AcDbEntity
  8
0
100
AcDbVertex
100
AcDbPolygonMeshVertex
 10
-2.11252
 20
-0.482025
 30
3.05
 70
    64
  0
SEQEND
  5
45DA9
100
AcDbEntity
  8
0
  0
POLYLINE
  5
45DAA
100
AcDbEntity
  8
0
100
AcDbPolygonMesh
 66
     1
 10
0.0
 20
0.0
 30
0.0
 70
    16
 71
     6
 72
     3
  0
VERTEX
  5
45DAB
100
AcDbEntity
  8
0
100
AcDbVertex
100
AcDbPolygonMeshVertex
 10
-2.11252
 20
-0.482025
 30
3.05
 70
    64
  0
VERTEX
  5
45DAC
100
AcDbEntity
  8
0
100
AcDbVertex
100
AcDbPolygonMeshVertex
 10
-2.11252
 20
-0.482025
 30
0.05
 70
    64
  0
VERTEX
  5
45DAD
100
AcDbEntity
  8
0
100
AcDbVertex
100
AcDbPolygonMeshVertex
 10
-2.11252
 20
-0.482025
 30
0.05
 70
    64
  0
VERTEX
  5
45DAE
100
AcDbEntity
  8
0
100
AcDbVertex
100
AcDbPolygonMeshVertex
 10
-2.20252
 20
-0.482025
 30
3.05
 70
    64
  0
VERTEX
  5
45DAF
100
AcDbEntity
  8
0
100
AcDbVertex
100
AcDbPolygonMeshVertex
 10
-2.20252
 20
-0.482025
 30
0.05
 70
    64
  0
VERTEX
  5
45DB0
100
AcDbEntity
  8
0
100
AcDbVertex
100
AcDbPolygonMeshVertex
 10
-2.20252
 20
-0.482025
 30
0.05
 70
    64
  0
VERTEX
  5
45DB1
100
AcDbEntity
  8
0
100
AcDbVertex
100
AcDbPolygonMeshVertex
 10
-2.20252
 20
-0.557025
 30
3.05
 70
    64
  0
VERTEX
  5
45DB2
100
AcDbEntity
  8
0
100
AcDbVertex
100
AcDbPolygonMeshVertex
 10
-2.20252
 20
-0.557025
 30
0.05
 70
    64
  0
VERTEX
  5
45DB3
100
AcDbEntity
  8
0
100
AcDbVertex
100
AcDbPolygonMeshVertex
 10
-2.20252
 20
-0.482025
 30
0.05
 70
    64
  0
VERTEX
  5
45DB4
100
AcDbEntity
  8
0
100
AcDbVertex
100
AcDbPolygonMeshVertex
 10
-2.11252
 20
-0.557025
 30
3.05
 70
    64
  0
VERTEX
  5
45DB5
100
AcDbEntity
  8
0
100
AcDbVertex
100
AcDbPolygonMeshVertex
 10
-2.11252
 20
-0.557025
 30
0.05
 70
    64
  0
VERTEX
  5
45DB6
100
AcDbEntity
  8
0
100
AcDbVertex
100
AcDbPolygonMeshVertex
 10
-2.11252
 20
-0.482025
 30
0.05
 70
    64
  0
VERTEX
  5
45DB7
100
AcDbEntity
  8
0
100
AcDbVertex
100
AcDbPolygonMeshVertex
 10
-2.11252
 20
-0.557025
 30
3.05
 70
    64
  0
VERTEX
  5
45DB8
100
AcDbEntity
  8
0
100
AcDbVertex
100
AcDbPolygonMeshVertex
 10
-2.11252
 20
-0.557025
 30
3.05
 70
    64
  0
VERTEX
  5
45DB9
100
AcDbEntity
  8
0
100
AcDbVertex
100
AcDbPolygonMeshVertex
 10
-2.11252
 20
-0.482025
 30
3.05
 70
    64
  0
VERTEX
  5
45DBA
100
AcDbEntity
  8
0
100
AcDbVertex
100
AcDbPolygonMeshVertex
 10
-2.20252
 20
-0.557025
 30
3.05
 70
    64
  0
VERTEX
  5
45DBB
100
AcDbEntity
  8
0
100
AcDbVertex
100
AcDbPolygonMeshVertex
 10
-2.20252
 20
-0.557025
 30
3.05
 70
    64
  0
VERTEX
  5
45DBC
100
AcDbEntity
  8
0
100
AcDbVertex
100
AcDbPolygonMeshVertex
 10
-2.20252
 20
-0.482025
 30
3.05
 70
    64
  0
SEQEND
  5
45DBD
100
AcDbEntity
  8
0
  0
POLYLINE
  5
45DBE
100
AcDbEntity
  8
0
100
AcDbPolygonMesh
 66
     1
 10
0.0
 20
0.0
 30
0.0
 70
    16
 71
     6
 72
     3
  0
VERTEX
  5
45DBF
100
AcDbEntity
  8
0
100
AcDbVertex
100
AcDbPolygonMeshVertex
 10
-0.430006
 20
-0.482025
 30
3.05
 70
    64
  0
VERTEX
  5
45DC0
100
AcDbEntity
  8
0
100
AcDbVertex
100
AcDbPolygonMeshVertex
 10
-0.430006
 20
-0.482025
 30
0.05
 70
    64
  0
VERTEX
  5
45DC1
100
AcDbEntity
  8
0
100
AcDbVertex
100
AcDbPolygonMeshVertex
 10
-0.430006
 20
-0.482025
 30
0.05
 70
    64
  0
VERTEX
  5
45DC2
100
AcDbEntity
  8
0
100
AcDbVertex
100
AcDbPolygonMeshVertex
 10
-0.530006
 20
-0.482025
 30
3.05
 70
    64
  0
VERTEX
  5
45DC3
100
AcDbEntity
  8
0
100
AcDbVertex
100
AcDbPolygonMeshVertex
 10
-0.530006
 20
-0.482025
 30
0.05
 70
    64
  0
VERTEX
  5
45DC4
100
AcDbEntity
  8
0
100
AcDbVertex
100
AcDbPolygonMeshVertex
 10
-0.530006
 20
-0.482025
 30
0.05
 70
    64
  0
VERTEX
  5
45DC5
100
AcDbEntity
  8
0
100
AcDbVertex
100
AcDbPolygonMeshVertex
 10
-0.530006
 20
-0.682025
 30
3.05
 70
    64
  0
VERTEX
  5
45DC6
100
AcDbEntity
  8
0
100
AcDbVertex
100
AcDbPolygonMeshVertex
 10
-0.530006
 20
-0.682025
 30
0.05
 70
    64
  0
VERTEX
  5
45DC7
100
AcDbEntity
  8
0
100
AcDbVertex
100
AcDbPolygonMeshVertex
 10
-0.530006
 20
-0.482025
 30
0.05
 70
    64
  0
VERTEX
  5
45DC8
100
AcDbEntity
  8
0
100
AcDbVertex
100
AcDbPolygonMeshVertex
 10
-0.430006
 20
-0.682025
 30
3.05
 70
    64
  0
VERTEX
  5
45DC9
100
AcDbEntity
  8
0
100
AcDbVertex
100
AcDbPolygonMeshVertex
 10
-0.430006
 20
-0.682025
 30
0.05
 70
    64
  0
VERTEX
  5
45DCA
100
AcDbEntity
  8
0
100
AcDbVertex
100
AcDbPolygonMeshVertex
 10
-0.430006
 20
-0.482025
 30
0.05
 70
    64
  0
VERTEX
  5
45DCB
100
AcDbEntity
  8
0
100
AcDbVertex
100
AcDbPolygonMeshVertex
 10
-0.430006
 20
-0.682025
 30
3.05
 70
    64
  0
VERTEX
  5
45DCC
100
AcDbEntity
  8
0
100
AcDbVertex
100
AcDbPolygonMeshVertex
 10
-0.430006
 20
-0.682025
 30
3.05
 70
    64
  0
VERTEX
  5
45DCD
100
AcDbEntity
  8
0
100
AcDbVertex
100
AcDbPolygonMeshVertex
 10
-0.430006
 20
-0.482025
 30
3.05
 70
    64
  0
VERTEX
  5
45DCE
100
AcDbEntity
  8
0
100
AcDbVertex
100
AcDbPolygonMeshVertex
 10
-0.530006
 20
-0.682025
 30
3.05
 70
    64
  0
VERTEX
  5
45DCF
100
AcDbEntity
  8
0
100
AcDbVertex
100
AcDbPolygonMeshVertex
 10
-0.530006
 20
-0.682025
 30
3.05
 70
    64
  0
VERTEX
  5
45DD0
100
AcDbEntity
  8
0
100
AcDbVertex
100
AcDbPolygonMeshVertex
 10
-0.530006
 20
-0.482025
 30
3.05
 70
    64
  0
SEQEND
  5
45DD1
100
AcDbEntity
  8
0
  0
POLYLINE
  5
45DD2
100
AcDbEntity
  8
0
100
AcDbPolygonMesh
 66
     1
 10
0.0
 20
0.0
 30
0.0
 70
    16
 71
     6
 72
     3
  0
VERTEX
  5
45DD3
100
AcDbEntity
  8
0
100
AcDbVertex
100
AcDbPolygonMeshVertex
 10
-0.240006
 20
-0.482025
 30
3.05
 70
    64
  0
VERTEX
  5
45DD4
100
AcDbEntity
  8
0
100
AcDbVertex
100
AcDbPolygonMeshVertex
 10
-0.240006
 20
-0.482025
 30
0.05
 70
    64
  0
VERTEX
  5
45DD5
100
AcDbEntity
  8
0
100
AcDbVertex
100
AcDbPolygonMeshVertex
 10
-0.240006
 20
-0.482025
 30
0.05
 70
    64
  0
VERTEX
  5
45DD6
100
AcDbEntity
  8
0
100
AcDbVertex
100
AcDbPolygonMeshVertex
 10
-0.340006
 20
-0.482025
 30
3.05
 70
    64
  0
VERTEX
  5
45DD7
100
AcDbEntity
  8
0
100
AcDbVertex
100
AcDbPolygonMeshVertex
 10
-0.340006
 20
-0.482025
 30
0.05
 70
    64
  0
VERTEX
  5
45DD8
100
AcDbEntity
  8
0
100
AcDbVertex
100
AcDbPolygonMeshVertex
 10
-0.340006
 20
-0.482025
 30
0.05
 70
    64
  0
VERTEX
  5
45DD9
100
AcDbEntity
  8
0
100
AcDbVertex
100
AcDbPolygonMeshVertex
 10
-0.340006
 20
-0.682025
 30
3.05
 70
    64
  0
VERTEX
  5
45DDA
100
AcDbEntity
  8
0
100
AcDbVertex
100
AcDbPolygonMeshVertex
 10
-0.340006
 20
-0.682025
 30
0.05
 70
    64
  0
VERTEX
  5
45DDB
100
AcDbEntity
  8
0
100
AcDbVertex
100
AcDbPolygonMeshVertex
 10
-0.340006
 20
-0.482025
 30
0.05
 70
    64
  0
VERTEX
  5
45DDC
100
AcDbEntity
  8
0
100
AcDbVertex
100
AcDbPolygonMeshVertex
 10
-0.240006
 20
-0.682025
 30
3.05
 70
    64
  0
VERTEX
  5
45DDD
100
AcDbEntity
  8
0
100
AcDbVertex
100
AcDbPolygonMeshVertex
 10
-0.240006
 20
-0.682025
 30
0.05
 70
    64
  0
VERTEX
  5
45DDE
100
AcDbEntity
  8
0
100
AcDbVertex
100
AcDbPolygonMeshVertex
 10
-0.240006
 20
-0.482025
 30
0.05
 70
    64
  0
VERTEX
  5
45DDF
100
AcDbEntity
  8
0
100
AcDbVertex
100
AcDbPolygonMeshVertex
 10
-0.240006
 20
-0.682025
 30
3.05
 70
    64
  0
VERTEX
  5
45DE0
100
AcDbEntity
  8
0
100
AcDbVertex
100
AcDbPolygonMeshVertex
 10
-0.240006
 20
-0.682025
 30
3.05
 70
    64
  0
VERTEX
  5
45DE1
100
AcDbEntity
  8
0
100
AcDbVertex
100
AcDbPolygonMeshVertex
 10
-0.240006
 20
-0.482025
 30
3.05
 70
    64
  0
VERTEX
  5
45DE2
100
AcDbEntity
  8
0
100
AcDbVertex
100
AcDbPolygonMeshVertex
 10
-0.340006
 20
-0.682025
 30
3.05
 70
    64
  0
VERTEX
  5
45DE3
100
AcDbEntity
  8
0
100
AcDbVertex
100
AcDbPolygonMeshVertex
 10
-0.340006
 20
-0.682025
 30
3.05
 70
    64
  0
VERTEX
  5
45DE4
100
AcDbEntity
  8
0
100
AcDbVertex
100
AcDbPolygonMeshVertex
 10
-0.340006
 20
-0.482025
 30
3.05
 70
    64
  0
SEQEND
  5
45DE5
100
AcDbEntity
  8
0
  0
POLYLINE
  5
45DE6
100
AcDbEntity
  8
0
100
AcDbPolygonMesh
 66
     1
 10
0.0
 20
0.0
 30
0.0
 70
    16
 71
     6
 72
     3
  0
VERTEX
  5
45DE7
100
AcDbEntity
  8
0
100
AcDbVertex
100
AcDbPolygonMeshVertex
 10
-0.340006
 20
-0.482025
 30
3.05
 70
    64
  0
VERTEX
  5
45DE8
100
AcDbEntity
  8
0
100
AcDbVertex
100
AcDbPolygonMeshVertex
 10
-0.340006
 20
-0.482025
 30
0.05
 70
    64
  0
VERTEX
  5
45DE9
100
AcDbEntity
  8
0
100
AcDbVertex
100
AcDbPolygonMeshVertex
 10
-0.340006
 20
-0.482025
 30
0.05
 70
    64
  0
VERTEX
  5
45DEA
100
AcDbEntity
  8
0
100
AcDbVertex
100
AcDbPolygonMeshVertex
 10
-0.430006
 20
-0.482025
 30
3.05
 70
    64
  0
VERTEX
  5
45DEB
100
AcDbEntity
  8
0
100
AcDbVertex
100
AcDbPolygonMeshVertex
 10
-0.430006
 20
-0.482025
 30
0.05
 70
    64
  0
VERTEX
  5
45DEC
100
AcDbEntity
  8
0
100
AcDbVertex
100
AcDbPolygonMeshVertex
 10
-0.430006
 20
-0.482025
 30
0.05
 70
    64
  0
VERTEX
  5
45DED
100
AcDbEntity
  8
0
100
AcDbVertex
100
AcDbPolygonMeshVertex
 10
-0.430006
 20
-0.557025
 30
3.05
 70
    64
  0
VERTEX
  5
45DEE
100
AcDbEntity
  8
0
100
AcDbVertex
100
AcDbPolygonMeshVertex
 10
-0.430006
 20
-0.557025
 30
0.05
 70
    64
  0
VERTEX
  5
45DEF
100
AcDbEntity
  8
0
100
AcDbVertex
100
AcDbPolygonMeshVertex
 10
-0.430006
 20
-0.482025
 30
0.05
 70
    64
  0
VERTEX
  5
45DF0
100
AcDbEntity
  8
0
100
AcDbVertex
100
AcDbPolygonMeshVertex
 10
-0.340006
 20
-0.557025
 30
3.05
 70
    64
  0
VERTEX
  5
45DF1
100
AcDbEntity
  8
0
100
AcDbVertex
100
AcDbPolygonMeshVertex
 10
-0.340006
 20
-0.557025
 30
0.05
 70
    64
  0
VERTEX
  5
45DF2
100
AcDbEntity
  8
0
100
AcDbVertex
100
AcDbPolygonMeshVertex
 10
-0.340006
 20
-0.482025
 30
0.05
 70
    64
  0
VERTEX
  5
45DF3
100
AcDbEntity
  8
0
100
AcDbVertex
100
AcDbPolygonMeshVertex
 10
-0.340006
 20
-0.557025
 30
3.05
 70
    64
  0
VERTEX
  5
45DF4
100
AcDbEntity
  8
0
100
AcDbVertex
100
AcDbPolygonMeshVertex
 10
-0.340006
 20
-0.557025
 30
3.05
 70
    64
  0
VERTEX
  5
45DF5
100
AcDbEntity
  8
0
100
AcDbVertex
100
AcDbPolygonMeshVertex
 10
-0.340006
 20
-0.482025
 30
3.05
 70
    64
  0
VERTEX
  5
45DF6
100
AcDbEntity
  8
0
100
AcDbVertex
100
AcDbPolygonMeshVertex
 10
-0.430006
 20
-0.557025
 30
3.05
 70
    64
  0
VERTEX
  5
45DF7
100
AcDbEntity
  8
0
100
AcDbVertex
100
AcDbPolygonMeshVertex
 10
-0.430006
 20
-0.557025
 30
3.05
 70
    64
  0
VERTEX
  5
45DF8
100
AcDbEntity
  8
0
100
AcDbVertex
100
AcDbPolygonMeshVertex
 10
-0.430006
 20
-0.482025
 30
3.05
 70
    64
  0
SEQEND
  5
45DF9
100
AcDbEntity
  8
0
  0
POLYLINE
  5
45DFA
100
AcDbEntity
  8
0
100
AcDbPolygonMesh
 66
     1
 10
0.0
 20
0.0
 30
0.0
 70
    16
 71
     6
 72
     3
  0
VERTEX
  5
45DFB
100
AcDbEntity
  8
0
100
AcDbVertex
100
AcDbPolygonMeshVertex
 10
0.944994
 20
-0.482025
 30
3.05
 70
    64
  0
VERTEX
  5
45DFC
100
AcDbEntity
  8
0
100
AcDbVertex
100
AcDbPolygonMeshVertex
 10
0.944994
 20
-0.482025
 30
0.05
 70
    64
  0
VERTEX
  5
45DFD
100
AcDbEntity
  8
0
100
AcDbVertex
100
AcDbPolygonMeshVertex
 10
0.944994
 20
-0.482025
 30
0.05
 70
    64
  0
VERTEX
  5
45DFE
100
AcDbEntity
  8
0
100
AcDbVertex
100
AcDbPolygonMeshVertex
 10
0.844994
 20
-0.482025
 30
3.05
 70
    64
  0
VERTEX
  5
45DFF
100
AcDbEntity
  8
0
100
AcDbVertex
100
AcDbPolygonMeshVertex
 10
0.844994
 20
-0.482025
 30
0.05
 70
    64
  0
VERTEX
  5
45E00
100
AcDbEntity
  8
0
100
AcDbVertex
100
AcDbPolygonMeshVertex
 10
0.844994
 20
-0.482025
 30
0.05
 70
    64
  0
VERTEX
  5
45E01
100
AcDbEntity
  8
0
100
AcDbVertex
100
AcDbPolygonMeshVertex
 10
0.844994
 20
-0.682025
 30
3.05
 70
    64
  0
VERTEX
  5
45E02
100
AcDbEntity
  8
0
100
AcDbVertex
100
AcDbPolygonMeshVertex
 10
0.844994
 20
-0.682025
 30
0.05
 70
    64
  0
VERTEX
  5
45E03
100
AcDbEntity
  8
0
100
AcDbVertex
100
AcDbPolygonMeshVertex
 10
0.844994
 20
-0.482025
 30
0.05
 70
    64
  0
VERTEX
  5
45E04
100
AcDbEntity
  8
0
100
AcDbVertex
100
AcDbPolygonMeshVertex
 10
0.944994
 20
-0.682025
 30
3.05
 70
    64
  0
VERTEX
  5
45E05
100
AcDbEntity
  8
0
100
AcDbVertex
100
AcDbPolygonMeshVertex
 10
0.944994
 20
-0.682025
 30
0.05
 70
    64
  0
VERTEX
  5
45E06
100
AcDbEntity
  8
0
100
AcDbVertex
100
AcDbPolygonMeshVertex
 10
0.944994
 20
-0.482025
 30
0.05
 70
    64
  0
VERTEX
  5
45E07
100
AcDbEntity
  8
0
100
AcDbVertex
100
AcDbPolygonMeshVertex
 10
0.944994
 20
-0.682025
 30
3.05
 70
    64
  0
VERTEX
  5
45E08
100
AcDbEntity
  8
0
100
AcDbVertex
100
AcDbPolygonMeshVertex
 10
0.944994
 20
-0.682025
 30
3.05
 70
    64
  0
VERTEX
  5
45E09
100
AcDbEntity
  8
0
100
AcDbVertex
100
AcDbPolygonMeshVertex
 10
0.944994
 20
-0.482025
 30
3.05
 70
    64
  0
VERTEX
  5
45E0A
100
AcDbEntity
  8
0
100
AcDbVertex
100
AcDbPolygonMeshVertex
 10
0.844994
 20
-0.682025
 30
3.05
 70
    64
  0
VERTEX
  5
45E0B
100
AcDbEntity
  8
0
100
AcDbVertex
100
AcDbPolygonMeshVertex
 10
0.844994
 20
-0.682025
 30
3.05
 70
    64
  0
VERTEX
  5
45E0C
100
AcDbEntity
  8
0
100
AcDbVertex
100
AcDbPolygonMeshVertex
 10
0.844994
 20
-0.482025
 30
3.05
 70
    64
  0
SEQEND
  5
45E0D
100
AcDbEntity
  8
0
  0
POLYLINE
  5
45E0E
100
AcDbEntity
  8
0
100
AcDbPolygonMesh
 66
     1
 10
0.0
 20
0.0
 30
0.0
 70
    16
 71
     6
 72
     3
  0
VERTEX
  5
45E0F
100
AcDbEntity
  8
0
100
AcDbVertex
100
AcDbPolygonMeshVertex
 10
1.134994
 20
-0.482025
 30
3.05
 70
    64
  0
VERTEX
  5
45E10
100
AcDbEntity
  8
0
100
AcDbVertex
100
AcDbPolygonMeshVertex
 10
1.134994
 20
-0.482025
 30
0.05
 70
    64
  0
VERTEX
  5
45E11
100
AcDbEntity
  8
0
100
AcDbVertex
100
AcDbPolygonMeshVertex
 10
1.134994
 20
-0.482025
 30
0.05
 70
    64
  0
VERTEX
  5
45E12
100
AcDbEntity
  8
0
100
AcDbVertex
100
AcDbPolygonMeshVertex
 10
1.034994
 20
-0.482025
 30
3.05
 70
    64
  0
VERTEX
  5
45E13
100
AcDbEntity
  8
0
100
AcDbVertex
100
AcDbPolygonMeshVertex
 10
1.034994
 20
-0.482025
 30
0.05
 70
    64
  0
VERTEX
  5
45E14
100
AcDbEntity
  8
0
100
AcDbVertex
100
AcDbPolygonMeshVertex
 10
1.034994
 20
-0.482025
 30
0.05
 70
    64
  0
VERTEX
  5
45E15
100
AcDbEntity
  8
0
100
AcDbVertex
100
AcDbPolygonMeshVertex
 10
1.034994
 20
-0.682025
 30
3.05
 70
    64
  0
VERTEX
  5
45E16
100
AcDbEntity
  8
0
100
AcDbVertex
100
AcDbPolygonMeshVertex
 10
1.034994
 20
-0.682025
 30
0.05
 70
    64
  0
VERTEX
  5
45E17
100
AcDbEntity
  8
0
100
AcDbVertex
100
AcDbPolygonMeshVertex
 10
1.034994
 20
-0.482025
 30
0.05
 70
    64
  0
VERTEX
  5
45E18
100
AcDbEntity
  8
0
100
AcDbVertex
100
AcDbPolygonMeshVertex
 10
1.134994
 20
-0.682025
 30
3.05
 70
    64
  0
VERTEX
  5
45E19
100
AcDbEntity
  8
0
100
AcDbVertex
100
AcDbPolygonMeshVertex
 10
1.134994
 20
-0.682025
 30
0.05
 70
    64
  0
VERTEX
  5
45E1A
100
AcDbEntity
  8
0
100
AcDbVertex
100
AcDbPolygonMeshVertex
 10
1.134994
 20
-0.482025
 30
0.05
 70
    64
  0
VERTEX
  5
45E1B
100
AcDbEntity
  8
0
100
AcDbVertex
100
AcDbPolygonMeshVertex
 10
1.134994
 20
-0.682025
 30
3.05
 70
    64
  0
VERTEX
  5
45E1C
100
AcDbEntity
  8
0
100
AcDbVertex
100
AcDbPolygonMeshVertex
 10
1.134994
 20
-0.682025
 30
3.05
 70
    64
  0
VERTEX
  5
45E1D
100
AcDbEntity
  8
0
100
AcDbVertex
100
AcDbPolygonMeshVertex
 10
1.134994
 20
-0.482025
 30
3.05
 70
    64
  0
VERTEX
  5
45E1E
100
AcDbEntity
  8
0
100
AcDbVertex
100
AcDbPolygonMeshVertex
 10
1.034994
 20
-0.682025
 30
3.05
 70
    64
  0
VERTEX
  5
45E1F
100
AcDbEntity
  8
0
100
AcDbVertex
100
AcDbPolygonMeshVertex
 10
1.034994
 20
-0.682025
 30
3.05
 70
    64
  0
VERTEX
  5
45E20
100
AcDbEntity
  8
0
100
AcDbVertex
100
AcDbPolygonMeshVertex
 10
1.034994
 20
-0.482025
 30
3.05
 70
    64
  0
SEQEND
  5
45E21
100
AcDbEntity
  8
0
  0
POLYLINE
  5
45E22
100
AcDbEntity
  8
0
100
AcDbPolygonMesh
 66
     1
 10
0.0
 20
0.0
 30
0.0
 70
    16
 71
     6
 72
     3
  0
VERTEX
  5
45E23
100
AcDbEntity
  8
0
100
AcDbVertex
100
AcDbPolygonMeshVertex
 10
1.034994
 20
-0.482025
 30
3.05
 70
    64
  0
VERTEX
  5
45E24
100
AcDbEntity
  8
0
100
AcDbVertex
100
AcDbPolygonMeshVertex
 10
1.034994
 20
-0.482025
 30
0.05
 70
    64
  0
VERTEX
  5
45E25
100
AcDbEntity
  8
0
100
AcDbVertex
100
AcDbPolygonMeshVertex
 10
1.034994
 20
-0.482025
 30
0.05
 70
    64
  0
VERTEX
  5
45E26
100
AcDbEntity
  8
0
100
AcDbVertex
100
AcDbPolygonMeshVertex
 10
0.944994
 20
-0.482025
 30
3.05
 70
    64
  0
VERTEX
  5
45E27
100
AcDbEntity
  8
0
100
AcDbVertex
100
AcDbPolygonMeshVertex
 10
0.944994
 20
-0.482025
 30
0.05
 70
    64
  0
VERTEX
  5
45E28
100
AcDbEntity
  8
0
100
AcDbVertex
100
AcDbPolygonMeshVertex
 10
0.944994
 20
-0.482025
 30
0.05
 70
    64
  0
VERTEX
  5
45E29
100
AcDbEntity
  8
0
100
AcDbVertex
100
AcDbPolygonMeshVertex
 10
0.944994
 20
-0.557025
 30
3.05
 70
    64
  0
VERTEX
  5
45E2A
100
AcDbEntity
  8
0
100
AcDbVertex
100
AcDbPolygonMeshVertex
 10
0.944994
 20
-0.557025
 30
0.05
 70
    64
  0
VERTEX
  5
45E2B
100
AcDbEntity
  8
0
100
AcDbVertex
100
AcDbPolygonMeshVertex
 10
0.944994
 20
-0.482025
 30
0.05
 70
    64
  0
VERTEX
  5
45E2C
100
AcDbEntity
  8
0
100
AcDbVertex
100
AcDbPolygonMeshVertex
 10
1.034994
 20
-0.557025
 30
3.05
 70
    64
  0
VERTEX
  5
45E2D
100
AcDbEntity
  8
0
100
AcDbVertex
100
AcDbPolygonMeshVertex
 10
1.034994
 20
-0.557025
 30
0.05
 70
    64
  0
VERTEX
  5
45E2E
100
AcDbEntity
  8
0
100
AcDbVertex
100
AcDbPolygonMeshVertex
 10
1.034994
 20
-0.482025
 30
0.05
 70
    64
  0
VERTEX
  5
45E2F
100
AcDbEntity
  8
0
100
AcDbVertex
100
AcDbPolygonMeshVertex
 10
1.034994
 20
-0.557025
 30
3.05
 70
    64
  0
VERTEX
  5
45E30
100
AcDbEntity
  8
0
100
AcDbVertex
100
AcDbPolygonMeshVertex
 10
1.034994
 20
-0.557025
 30
3.05
 70
    64
  0
VERTEX
  5
45E31
100
AcDbEntity
  8
0
100
AcDbVertex
100
AcDbPolygonMeshVertex
 10
1.034994
 20
-0.482025
 30
3.05
 70
    64
  0
VERTEX
  5
45E32
100
AcDbEntity
  8
0
100
AcDbVertex
100
AcDbPolygonMeshVertex
 10
0.944994
 20
-0.557025
 30
3.05
 70
    64
  0
VERTEX
  5
45E33
100
AcDbEntity
  8
0
100
AcDbVertex
100
AcDbPolygonMeshVertex
 10
0.944994
 20
-0.557025
 30
3.05
 70
    64
  0
VERTEX
  5
45E34
100
AcDbEntity
  8
0
100
AcDbVertex
100
AcDbPolygonMeshVertex
 10
0.944994
 20
-0.482025
 30
3.05
 70
    64
  0
SEQEND
  5
45E35
100
AcDbEntity
  8
0
  0
POLYLINE
  5
45E36
100
AcDbEntity
  8
0
100
AcDbPolygonMesh
 66
     1
 10
0.0
 20
0.0
 30
0.0
 70
    16
 71
     6
 72
     3
  0
VERTEX
  5
45E37
100
AcDbEntity
  8
0
100
AcDbVertex
100
AcDbPolygonMeshVertex
 10
-1.582856
 20
-5.88
 30
3.849968
 70
    64
  0
VERTEX
  5
45E38
100
AcDbEntity
  8
0
100
AcDbVertex
100
AcDbPolygonMeshVertex
 10
-1.582856
 20
-5.88
 30
0.05
 70
    64
  0
VERTEX
  5
45E39
100
AcDbEntity
  8
0
100
AcDbVertex
100
AcDbPolygonMeshVertex
 10
-1.582856
 20
-5.88
 30
0.05
 70
    64
  0
VERTEX
  5
45E3A
100
AcDbEntity
  8
0
100
AcDbVertex
100
AcDbPolygonMeshVertex
 10
-1.982856
 20
-5.88
 30
3.849968
 70
    64
  0
VERTEX
  5
45E3B
100
AcDbEntity
  8
0
100
AcDbVertex
100
AcDbPolygonMeshVertex
 10
-1.982856
 20
-5.88
 30
0.05
 70
    64
  0
VERTEX
  5
45E3C
100
AcDbEntity
  8
0
100
AcDbVertex
100
AcDbPolygonMeshVertex
 10
-1.982856
 20
-5.88
 30
0.05
 70
    64
  0
VERTEX
  5
45E3D
100
AcDbEntity
  8
0
100
AcDbVertex
100
AcDbPolygonMeshVertex
 10
-1.982856
 20
-0.45
 30
3.849968
 70
    64
  0
VERTEX
  5
45E3E
100
AcDbEntity
  8
0
100
AcDbVertex
100
AcDbPolygonMeshVertex
 10
-1.982856
 20
-0.45
 30
0.05
 70
    64
  0
VERTEX
  5
45E3F
100
AcDbEntity
  8
0
100
AcDbVertex
100
AcDbPolygonMeshVertex
 10
-1.982856
 20
-5.88
 30
0.05
 70
    64
  0
VERTEX
  5
45E40
100
AcDbEntity
  8
0
100
AcDbVertex
100
AcDbPolygonMeshVertex
 10
-1.582856
 20
-0.45
 30
3.849968
 70
    64
  0
VERTEX
  5
45E41
100
AcDbEntity
  8
0
100
AcDbVertex
100
AcDbPolygonMeshVertex
 10
-1.582856
 20
-0.45
 30
0.05
 70
    64
  0
VERTEX
  5
45E42
100
AcDbEntity
  8
0
100
AcDbVertex
100
AcDbPolygonMeshVertex
 10
-1.582856
 20
-5.88
 30
0.05
 70
    64
  0
VERTEX
  5
45E43
100
AcDbEntity
  8
0
100
AcDbVertex
100
AcDbPolygonMeshVertex
 10
-1.582856
 20
-0.45
 30
3.849968
 70
    64
  0
VERTEX
  5
45E44
100
AcDbEntity
  8
0
100
AcDbVertex
100
AcDbPolygonMeshVertex
 10
-1.582856
 20
-0.45
 30
3.849968
 70
    64
  0
VERTEX
  5
45E45
100
AcDbEntity
  8
0
100
AcDbVertex
100
AcDbPolygonMeshVertex
 10
-1.582856
 20
-5.88
 30
3.849968
 70
    64
  0
VERTEX
  5
45E46
100
AcDbEntity
  8
0
100
AcDbVertex
100
AcDbPolygonMeshVertex
 10
-1.982856
 20
-0.45
 30
3.849968
 70
    64
  0
VERTEX
  5
45E47
100
AcDbEntity
  8
0
100
AcDbVertex
100
AcDbPolygonMeshVertex
 10
-1.982856
 20
-0.45
 30
3.849968
 70
    64
  0
VERTEX
  5
45E48
100
AcDbEntity
  8
0
100
AcDbVertex
100
AcDbPolygonMeshVertex
 10
-1.982856
 20
-5.88
 30
3.849968
 70
    64
  0
SEQEND
  5
45E49
100
AcDbEntity
  8
0
  0
POLYLINE
  5
45E4A
100
AcDbEntity
  8
0
100
AcDbPolygonMesh
 66
     1
 10
0.0
 20
0.0
 30
0.0
 70
    16
 71
     6
 72
     3
  0
VERTEX
  5
45E4B
100
AcDbEntity
  8
0
100
AcDbVertex
100
AcDbPolygonMeshVertex
 10
-2.11252
 20
-5.847975
 30
3.05
 70
    64
  0
VERTEX
  5
45E4C
100
AcDbEntity
  8
0
100
AcDbVertex
100
AcDbPolygonMeshVertex
 10
-2.11252
 20
-5.847975
 30
0.05
 70
    64
  0
VERTEX
  5
45E4D
100
AcDbEntity
  8
0
100
AcDbVertex
100
AcDbPolygonMeshVertex
 10
-2.11252
 20
-5.847975
 30
0.05
 70
    64
  0
VERTEX
  5
45E4E
100
AcDbEntity
  8
0
100
AcDbVertex
100
AcDbPolygonMeshVertex
 10
-2.20252
 20
-5.847975
 30
3.05
 70
    64
  0
VERTEX
  5
45E4F
100
AcDbEntity
  8
0
100
AcDbVertex
100
AcDbPolygonMeshVertex
 10
-2.20252
 20
-5.847975
 30
0.05
 70
    64
  0
VERTEX
  5
45E50
100
AcDbEntity
  8
0
100
AcDbVertex
100
AcDbPolygonMeshVertex
 10
-2.20252
 20
-5.847975
 30
0.05
 70
    64
  0
VERTEX
  5
45E51
100
AcDbEntity
  8
0
100
AcDbVertex
100
AcDbPolygonMeshVertex
 10
-2.20252
 20
-5.772975
 30
3.05
 70
    64
  0
VERTEX
  5
45E52
100
AcDbEntity
  8
0
100
AcDbVertex
100
AcDbPolygonMeshVertex
 10
-2.20252
 20
-5.772975
 30
0.05
 70
    64
  0
VERTEX
  5
45E53
100
AcDbEntity
  8
0
100
AcDbVertex
100
AcDbPolygonMeshVertex
 10
-2.20252
 20
-5.847975
 30
0.05
 70
    64
  0
VERTEX
  5
45E54
100
AcDbEntity
  8
0
100
AcDbVertex
100
AcDbPolygonMeshVertex
 10
-2.11252
 20
-5.772975
 30
3.05
 70
    64
  0
VERTEX
  5
45E55
100
AcDbEntity
  8
0
100
AcDbVertex
100
AcDbPolygonMeshVertex
 10
-2.11252
 20
-5.772975
 30
0.05
 70
    64
  0
VERTEX
  5
45E56
100
AcDbEntity
  8
0
100
AcDbVertex
100
AcDbPolygonMeshVertex
 10
-2.11252
 20
-5.847975
 30
0.05
 70
    64
  0
VERTEX
  5
45E57
100
AcDbEntity
  8
0
100
AcDbVertex
100
AcDbPolygonMeshVertex
 10
-2.11252
 20
-5.772975
 30
3.05
 70
    64
  0
VERTEX
  5
45E58
100
AcDbEntity
  8
0
100
AcDbVertex
100
AcDbPolygonMeshVertex
 10
-2.11252
 20
-5.772975
 30
3.05
 70
    64
  0
VERTEX
  5
45E59
100
AcDbEntity
  8
0
100
AcDbVertex
100
AcDbPolygonMeshVertex
 10
-2.11252
 20
-5.847975
 30
3.05
 70
    64
  0
VERTEX
  5
45E5A
100
AcDbEntity
  8
0
100
AcDbVertex
100
AcDbPolygonMeshVertex
 10
-2.20252
 20
-5.772975
 30
3.05
 70
    64
  0
VERTEX
  5
45E5B
100
AcDbEntity
  8
0
100
AcDbVertex
100
AcDbPolygonMeshVertex
 10
-2.20252
 20
-5.772975
 30
3.05
 70
    64
  0
VERTEX
  5
45E5C
100
AcDbEntity
  8
0
100
AcDbVertex
100
AcDbPolygonMeshVertex
 10
-2.20252
 20
-5.847975
 30
3.05
 70
    64
  0
SEQEND
  5
45E5D
100
AcDbEntity
  8
0
  0
POLYLINE
  5
45E5E
100
AcDbEntity
  8
0
100
AcDbPolygonMesh
 66
     1
 10
0.0
 20
0.0
 30
0.0
 70
    16
 71
     6
 72
     3
  0
VERTEX
  5
45E5F
100
AcDbEntity
  8
0
100
AcDbVertex
100
AcDbPolygonMeshVertex
 10
-2.01252
 20
-5.847975
 30
3.05
 70
    64
  0
VERTEX
  5
45E60
100
AcDbEntity
  8
0
100
AcDbVertex
100
AcDbPolygonMeshVertex
 10
-2.01252
 20
-5.847975
 30
0.05
 70
    64
  0
VERTEX
  5
45E61
100
AcDbEntity
  8
0
100
AcDbVertex
100
AcDbPolygonMeshVertex
 10
-2.01252
 20
-5.847975
 30
0.05
 70
    64
  0
VERTEX
  5
45E62
100
AcDbEntity
  8
0
100
AcDbVertex
100
AcDbPolygonMeshVertex
 10
-2.11252
 20
-5.847975
 30
3.05
 70
    64
  0
VERTEX
  5
45E63
100
AcDbEntity
  8
0
100
AcDbVertex
100
AcDbPolygonMeshVertex
 10
-2.11252
 20
-5.847975
 30
0.05
 70
    64
  0
VERTEX
  5
45E64
100
AcDbEntity
  8
0
100
AcDbVertex
100
AcDbPolygonMeshVertex
 10
-2.11252
 20
-5.847975
 30
0.05
 70
    64
  0
VERTEX
  5
45E65
100
AcDbEntity
  8
0
100
AcDbVertex
100
AcDbPolygonMeshVertex
 10
-2.11252
 20
-5.647975
 30
3.05
 70
    64
  0
VERTEX
  5
45E66
100
AcDbEntity
  8
0
100
AcDbVertex
100
AcDbPolygonMeshVertex
 10
-2.11252
 20
-5.647975
 30
0.05
 70
    64
  0
VERTEX
  5
45E67
100
AcDbEntity
  8
0
100
AcDbVertex
100
AcDbPolygonMeshVertex
 10
-2.11252
 20
-5.847975
 30
0.05
 70
    64
  0
VERTEX
  5
45E68
100
AcDbEntity
  8
0
100
AcDbVertex
100
AcDbPolygonMeshVertex
 10
-2.01252
 20
-5.647975
 30
3.05
 70
    64
  0
VERTEX
  5
45E69
100
AcDbEntity
  8
0
100
AcDbVertex
100
AcDbPolygonMeshVertex
 10
-2.01252
 20
-5.647975
 30
0.05
 70
    64
  0
VERTEX
  5
45E6A
100
AcDbEntity
  8
0
100
AcDbVertex
100
AcDbPolygonMeshVertex
 10
-2.01252
 20
-5.847975
 30
0.05
 70
    64
  0
VERTEX
  5
45E6B
100
AcDbEntity
  8
0
100
AcDbVertex
100
AcDbPolygonMeshVertex
 10
-2.01252
 20
-5.647975
 30
3.05
 70
    64
  0
VERTEX
  5
45E6C
100
AcDbEntity
  8
0
100
AcDbVertex
100
AcDbPolygonMeshVertex
 10
-2.01252
 20
-5.647975
 30
3.05
 70
    64
  0
VERTEX
  5
45E6D
100
AcDbEntity
  8
0
100
AcDbVertex
100
AcDbPolygonMeshVertex
 10
-2.01252
 20
-5.847975
 30
3.05
 70
    64
  0
VERTEX
  5
45E6E
100
AcDbEntity
  8
0
100
AcDbVertex
100
AcDbPolygonMeshVertex
 10
-2.11252
 20
-5.647975
 30
3.05
 70
    64
  0
VERTEX
  5
45E6F
100
AcDbEntity
  8
0
100
AcDbVertex
100
AcDbPolygonMeshVertex
 10
-2.11252
 20
-5.647975
 30
3.05
 70
    64
  0
VERTEX
  5
45E70
100
AcDbEntity
  8
0
100
AcDbVertex
100
AcDbPolygonMeshVertex
 10
-2.11252
 20
-5.847975
 30
3.05
 70
    64
  0
SEQEND
  5
45E71
100
AcDbEntity
  8
0
  0
POLYLINE
  5
45E72
100
AcDbEntity
  8
0
100
AcDbPolygonMesh
 66
     1
 10
0.0
 20
0.0
 30
0.0
 70
    16
 71
     6
 72
     3
  0
VERTEX
  5
45E73
100
AcDbEntity
  8
0
100
AcDbVertex
100
AcDbPolygonMeshVertex
 10
-2.20252
 20
-5.847975
 30
3.05
 70
    64
  0
VERTEX
  5
45E74
100
AcDbEntity
  8
0
100
AcDbVertex
100
AcDbPolygonMeshVertex
 10
-2.20252
 20
-5.847975
 30
0.05
 70
    64
  0
VERTEX
  5
45E75
100
AcDbEntity
  8
0
100
AcDbVertex
100
AcDbPolygonMeshVertex
 10
-2.20252
 20
-5.847975
 30
0.05
 70
    64
  0
VERTEX
  5
45E76
100
AcDbEntity
  8
0
100
AcDbVertex
100
AcDbPolygonMeshVertex
 10
-2.30252
 20
-5.847975
 30
3.05
 70
    64
  0
VERTEX
  5
45E77
100
AcDbEntity
  8
0
100
AcDbVertex
100
AcDbPolygonMeshVertex
 10
-2.30252
 20
-5.847975
 30
0.05
 70
    64
  0
VERTEX
  5
45E78
100
AcDbEntity
  8
0
100
AcDbVertex
100
AcDbPolygonMeshVertex
 10
-2.30252
 20
-5.847975
 30
0.05
 70
    64
  0
VERTEX
  5
45E79
100
AcDbEntity
  8
0
100
AcDbVertex
100
AcDbPolygonMeshVertex
 10
-2.30252
 20
-5.647975
 30
3.05
 70
    64
  0
VERTEX
  5
45E7A
100
AcDbEntity
  8
0
100
AcDbVertex
100
AcDbPolygonMeshVertex
 10
-2.30252
 20
-5.647975
 30
0.05
 70
    64
  0
VERTEX
  5
45E7B
100
AcDbEntity
  8
0
100
AcDbVertex
100
AcDbPolygonMeshVertex
 10
-2.30252
 20
-5.847975
 30
0.05
 70
    64
  0
VERTEX
  5
45E7C
100
AcDbEntity
  8
0
100
AcDbVertex
100
AcDbPolygonMeshVertex
 10
-2.20252
 20
-5.647975
 30
3.05
 70
    64
  0
VERTEX
  5
45E7D
100
AcDbEntity
  8
0
100
AcDbVertex
100
AcDbPolygonMeshVertex
 10
-2.20252
 20
-5.647975
 30
0.05
 70
    64
  0
VERTEX
  5
45E7E
100
AcDbEntity
  8
0
100
AcDbVertex
100
AcDbPolygonMeshVertex
 10
-2.20252
 20
-5.847975
 30
0.05
 70
    64
  0
VERTEX
  5
45E7F
100
AcDbEntity
  8
0
100
AcDbVertex
100
AcDbPolygonMeshVertex
 10
-2.20252
 20
-5.647975
 30
3.05
 70
    64
  0
VERTEX
  5
45E80
100
AcDbEntity
  8
0
100
AcDbVertex
100
AcDbPolygonMeshVertex
 10
-2.20252
 20
-5.647975
 30
3.05
 70
    64
  0
VERTEX
  5
45E81
100
AcDbEntity
  8
0
100
AcDbVertex
100
AcDbPolygonMeshVertex
 10
-2.20252
 20
-5.847975
 30
3.05
 70
    64
  0
VERTEX
  5
45E82
100
AcDbEntity
  8
0
100
AcDbVertex
100
AcDbPolygonMeshVertex
 10
-2.30252
 20
-5.647975
 30
3.05
 70
    64
  0
VERTEX
  5
45E83
100
AcDbEntity
  8
0
100
AcDbVertex
100
AcDbPolygonMeshVertex
 10
-2.30252
 20
-5.647975
 30
3.05
 70
    64
  0
VERTEX
  5
45E84
100
AcDbEntity
  8
0
100
AcDbVertex
100
AcDbPolygonMeshVertex
 10
-2.30252
 20
-5.847975
 30
3.05
 70
    64
  0
SEQEND
  5
45E85
100
AcDbEntity
  8
0
  0
POLYLINE
  5
45E86
100
AcDbEntity
  8
0
100
AcDbPolygonMesh
 66
     1
 10
0.0
 20
0.0
 30
0.0
 70
    16
 71
     6
 72
     3
  0
VERTEX
  5
45E87
100
AcDbEntity
  8
0
100
AcDbVertex
100
AcDbPolygonMeshVertex
 10
-0.340006
 20
-5.847975
 30
3.05
 70
    64
  0
VERTEX
  5
45E88
100
AcDbEntity
  8
0
100
AcDbVertex
100
AcDbPolygonMeshVertex
 10
-0.340006
 20
-5.847975
 30
0.05
 70
    64
  0
VERTEX
  5
45E89
100
AcDbEntity
  8
0
100
AcDbVertex
100
AcDbPolygonMeshVertex
 10
-0.340006
 20
-5.847975
 30
0.05
 70
    64
  0
VERTEX
  5
45E8A
100
AcDbEntity
  8
0
100
AcDbVertex
100
AcDbPolygonMeshVertex
 10
-0.430006
 20
-5.847975
 30
3.05
 70
    64
  0
VERTEX
  5
45E8B
100
AcDbEntity
  8
0
100
AcDbVertex
100
AcDbPolygonMeshVertex
 10
-0.430006
 20
-5.847975
 30
0.05
 70
    64
  0
VERTEX
  5
45E8C
100
AcDbEntity
  8
0
100
AcDbVertex
100
AcDbPolygonMeshVertex
 10
-0.430006
 20
-5.847975
 30
0.05
 70
    64
  0
VERTEX
  5
45E8D
100
AcDbEntity
  8
0
100
AcDbVertex
100
AcDbPolygonMeshVertex
 10
-0.430006
 20
-5.772975
 30
3.05
 70
    64
  0
VERTEX
  5
45E8E
100
AcDbEntity
  8
0
100
AcDbVertex
100
AcDbPolygonMeshVertex
 10
-0.430006
 20
-5.772975
 30
0.05
 70
    64
  0
VERTEX
  5
45E8F
100
AcDbEntity
  8
0
100
AcDbVertex
100
AcDbPolygonMeshVertex
 10
-0.430006
 20
-5.847975
 30
0.05
 70
    64
  0
VERTEX
  5
45E90
100
AcDbEntity
  8
0
100
AcDbVertex
100
AcDbPolygonMeshVertex
 10
-0.340006
 20
-5.772975
 30
3.05
 70
    64
  0
VERTEX
  5
45E91
100
AcDbEntity
  8
0
100
AcDbVertex
100
AcDbPolygonMeshVertex
 10
-0.340006
 20
-5.772975
 30
0.05
 70
    64
  0
VERTEX
  5
45E92
100
AcDbEntity
  8
0
100
AcDbVertex
100
AcDbPolygonMeshVertex
 10
-0.340006
 20
-5.847975
 30
0.05
 70
    64
  0
VERTEX
  5
45E93
100
AcDbEntity
  8
0
100
AcDbVertex
100
AcDbPolygonMeshVertex
 10
-0.340006
 20
-5.772975
 30
3.05
 70
    64
  0
VERTEX
  5
45E94
100
AcDbEntity
  8
0
100
AcDbVertex
100
AcDbPolygonMeshVertex
 10
-0.340006
 20
-5.772975
 30
3.05
 70
    64
  0
VERTEX
  5
45E95
100
AcDbEntity
  8
0
100
AcDbVertex
100
AcDbPolygonMeshVertex
 10
-0.340006
 20
-5.847975
 30
3.05
 70
    64
  0
VERTEX
  5
45E96
100
AcDbEntity
  8
0
100
AcDbVertex
100
AcDbPolygonMeshVertex
 10
-0.430006
 20
-5.772975
 30
3.05
 70
    64
  0
VERTEX
  5
45E97
100
AcDbEntity
  8
0
100
AcDbVertex
100
AcDbPolygonMeshVertex
 10
-0.430006
 20
-5.772975
 30
3.05
 70
    64
  0
VERTEX
  5
45E98
100
AcDbEntity
  8
0
100
AcDbVertex
100
AcDbPolygonMeshVertex
 10
-0.430006
 20
-5.847975
 30
3.05
 70
    64
  0
SEQEND
  5
45E99
100
AcDbEntity
  8
0
  0
POLYLINE
  5
45E9A
100
AcDbEntity
  8
0
100
AcDbPolygonMesh
 66
     1
 10
0.0
 20
0.0
 30
0.0
 70
    16
 71
     6
 72
     3
  0
VERTEX
  5
45E9B
100
AcDbEntity
  8
0
100
AcDbVertex
100
AcDbPolygonMeshVertex
 10
-0.240006
 20
-5.847975
 30
3.05
 70
    64
  0
VERTEX
  5
45E9C
100
AcDbEntity
  8
0
100
AcDbVertex
100
AcDbPolygonMeshVertex
 10
-0.240006
 20
-5.847975
 30
0.05
 70
    64
  0
VERTEX
  5
45E9D
100
AcDbEntity
  8
0
100
AcDbVertex
100
AcDbPolygonMeshVertex
 10
-0.240006
 20
-5.847975
 30
0.05
 70
    64
  0
VERTEX
  5
45E9E
100
AcDbEntity
  8
0
100
AcDbVertex
100
AcDbPolygonMeshVertex
 10
-0.340006
 20
-5.847975
 30
3.05
 70
    64
  0
VERTEX
  5
45E9F
100
AcDbEntity
  8
0
100
AcDbVertex
100
AcDbPolygonMeshVertex
 10
-0.340006
 20
-5.847975
 30
0.05
 70
    64
  0
VERTEX
  5
45EA0
100
AcDbEntity
  8
0
100
AcDbVertex
100
AcDbPolygonMeshVertex
 10
-0.340006
 20
-5.847975
 30
0.05
 70
    64
  0
VERTEX
  5
45EA1
100
AcDbEntity
  8
0
100
AcDbVertex
100
AcDbPolygonMeshVertex
 10
-0.340006
 20
-5.647975
 30
3.05
 70
    64
  0
VERTEX
  5
45EA2
100
AcDbEntity
  8
0
100
AcDbVertex
100
AcDbPolygonMeshVertex
 10
-0.340006
 20
-5.647975
 30
0.05
 70
    64
  0
VERTEX
  5
45EA3
100
AcDbEntity
  8
0
100
AcDbVertex
100
AcDbPolygonMeshVertex
 10
-0.340006
 20
-5.847975
 30
0.05
 70
    64
  0
VERTEX
  5
45EA4
100
AcDbEntity
  8
0
100
AcDbVertex
100
AcDbPolygonMeshVertex
 10
-0.240006
 20
-5.647975
 30
3.05
 70
    64
  0
VERTEX
  5
45EA5
100
AcDbEntity
  8
0
100
AcDbVertex
100
AcDbPolygonMeshVertex
 10
-0.240006
 20
-5.647975
 30
0.05
 70
    64
  0
VERTEX
  5
45EA6
100
AcDbEntity
  8
0
100
AcDbVertex
100
AcDbPolygonMeshVertex
 10
-0.240006
 20
-5.847975
 30
0.05
 70
    64
  0
VERTEX
  5
45EA7
100
AcDbEntity
  8
0
100
AcDbVertex
100
AcDbPolygonMeshVertex
 10
-0.240006
 20
-5.647975
 30
3.05
 70
    64
  0
VERTEX
  5
45EA8
100
AcDbEntity
  8
0
100
AcDbVertex
100
AcDbPolygonMeshVertex
 10
-0.240006
 20
-5.647975
 30
3.05
 70
    64
  0
VERTEX
  5
45EA9
100
AcDbEntity
  8
0
100
AcDbVertex
100
AcDbPolygonMeshVertex
 10
-0.240006
 20
-5.847975
 30
3.05
 70
    64
  0
VERTEX
  5
45EAA
100
AcDbEntity
  8
0
100
AcDbVertex
100
AcDbPolygonMeshVertex
 10
-0.340006
 20
-5.647975
 30
3.05
 70
    64
  0
VERTEX
  5
45EAB
100
AcDbEntity
  8
0
100
AcDbVertex
100
AcDbPolygonMeshVertex
 10
-0.340006
 20
-5.647975
 30
3.05
 70
    64
  0
VERTEX
  5
45EAC
100
AcDbEntity
  8
0
100
AcDbVertex
100
AcDbPolygonMeshVertex
 10
-0.340006
 20
-5.847975
 30
3.05
 70
    64
  0
SEQEND
  5
45EAD
100
AcDbEntity
  8
0
  0
POLYLINE
  5
45EAE
100
AcDbEntity
  8
0
100
AcDbPolygonMesh
 66
     1
 10
0.0
 20
0.0
 30
0.0
 70
    16
 71
     6
 72
     3
  0
VERTEX
  5
45EAF
100
AcDbEntity
  8
0
100
AcDbVertex
100
AcDbPolygonMeshVertex
 10
-0.430006
 20
-5.847975
 30
3.05
 70
    64
  0
VERTEX
  5
45EB0
100
AcDbEntity
  8
0
100
AcDbVertex
100
AcDbPolygonMeshVertex
 10
-0.430006
 20
-5.847975
 30
0.05
 70
    64
  0
VERTEX
  5
45EB1
100
AcDbEntity
  8
0
100
AcDbVertex
100
AcDbPolygonMeshVertex
 10
-0.430006
 20
-5.847975
 30
0.05
 70
    64
  0
VERTEX
  5
45EB2
100
AcDbEntity
  8
0
100
AcDbVertex
100
AcDbPolygonMeshVertex
 10
-0.530006
 20
-5.847975
 30
3.05
 70
    64
  0
VERTEX
  5
45EB3
100
AcDbEntity
  8
0
100
AcDbVertex
100
AcDbPolygonMeshVertex
 10
-0.530006
 20
-5.847975
 30
0.05
 70
    64
  0
VERTEX
  5
45EB4
100
AcDbEntity
  8
0
100
AcDbVertex
100
AcDbPolygonMeshVertex
 10
-0.530006
 20
-5.847975
 30
0.05
 70
    64
  0
VERTEX
  5
45EB5
100
AcDbEntity
  8
0
100
AcDbVertex
100
AcDbPolygonMeshVertex
 10
-0.530006
 20
-5.647975
 30
3.05
 70
    64
  0
VERTEX
  5
45EB6
100
AcDbEntity
  8
0
100
AcDbVertex
100
AcDbPolygonMeshVertex
 10
-0.530006
 20
-5.647975
 30
0.05
 70
    64
  0
VERTEX
  5
45EB7
100
AcDbEntity
  8
0
100
AcDbVertex
100
AcDbPolygonMeshVertex
 10
-0.530006
 20
-5.847975
 30
0.05
 70
    64
  0
VERTEX
  5
45EB8
100
AcDbEntity
  8
0
100
AcDbVertex
100
AcDbPolygonMeshVertex
 10
-0.430006
 20
-5.647975
 30
3.05
 70
    64
  0
VERTEX
  5
45EB9
100
AcDbEntity
  8
0
100
AcDbVertex
100
AcDbPolygonMeshVertex
 10
-0.430006
 20
-5.647975
 30
0.05
 70
    64
  0
VERTEX
  5
45EBA
100
AcDbEntity
  8
0
100
AcDbVertex
100
AcDbPolygonMeshVertex
 10
-0.430006
 20
-5.847975
 30
0.05
 70
    64
  0
VERTEX
  5
45EBB
100
AcDbEntity
  8
0
100
AcDbVertex
100
AcDbPolygonMeshVertex
 10
-0.430006
 20
-5.647975
 30
3.05
 70
    64
  0
VERTEX
  5
45EBC
100
AcDbEntity
  8
0
100
AcDbVertex
100
AcDbPolygonMeshVertex
 10
-0.430006
 20
-5.647975
 30
3.05
 70
    64
  0
VERTEX
  5
45EBD
100
AcDbEntity
  8
0
100
AcDbVertex
100
AcDbPolygonMeshVertex
 10
-0.430006
 20
-5.847975
 30
3.05
 70
    64
  0
VERTEX
  5
45EBE
100
AcDbEntity
  8
0
100
AcDbVertex
100
AcDbPolygonMeshVertex
 10
-0.530006
 20
-5.647975
 30
3.05
 70
    64
  0
VERTEX
  5
45EBF
100
AcDbEntity
  8
0
100
AcDbVertex
100
AcDbPolygonMeshVertex
 10
-0.530006
 20
-5.647975
 30
3.05
 70
    64
  0
VERTEX
  5
45EC0
100
AcDbEntity
  8
0
100
AcDbVertex
100
AcDbPolygonMeshVertex
 10
-0.530006
 20
-5.847975
 30
3.05
 70
    64
  0
SEQEND
  5
45EC1
100
AcDbEntity
  8
0
  0
POLYLINE
  5
45EC2
100
AcDbEntity
  8
0
100
AcDbPolygonMesh
 66
     1
 10
0.0
 20
0.0
 30
0.0
 70
    16
 71
     6
 72
     3
  0
VERTEX
  5
45EC3
100
AcDbEntity
  8
0
100
AcDbVertex
100
AcDbPolygonMeshVertex
 10
1.034994
 20
-5.847975
 30
3.05
 70
    64
  0
VERTEX
  5
45EC4
100
AcDbEntity
  8
0
100
AcDbVertex
100
AcDbPolygonMeshVertex
 10
1.034994
 20
-5.847975
 30
0.05
 70
    64
  0
VERTEX
  5
45EC5
100
AcDbEntity
  8
0
100
AcDbVertex
100
AcDbPolygonMeshVertex
 10
1.034994
 20
-5.847975
 30
0.05
 70
    64
  0
VERTEX
  5
45EC6
100
AcDbEntity
  8
0
100
AcDbVertex
100
AcDbPolygonMeshVertex
 10
0.944994
 20
-5.847975
 30
3.05
 70
    64
  0
VERTEX
  5
45EC7
100
AcDbEntity
  8
0
100
AcDbVertex
100
AcDbPolygonMeshVertex
 10
0.944994
 20
-5.847975
 30
0.05
 70
    64
  0
VERTEX
  5
45EC8
100
AcDbEntity
  8
0
100
AcDbVertex
100
AcDbPolygonMeshVertex
 10
0.944994
 20
-5.847975
 30
0.05
 70
    64
  0
VERTEX
  5
45EC9
100
AcDbEntity
  8
0
100
AcDbVertex
100
AcDbPolygonMeshVertex
 10
0.944994
 20
-5.772975
 30
3.05
 70
    64
  0
VERTEX
  5
45ECA
100
AcDbEntity
  8
0
100
AcDbVertex
100
AcDbPolygonMeshVertex
 10
0.944994
 20
-5.772975
 30
0.05
 70
    64
  0
VERTEX
  5
45ECB
100
AcDbEntity
  8
0
100
AcDbVertex
100
AcDbPolygonMeshVertex
 10
0.944994
 20
-5.847975
 30
0.05
 70
    64
  0
VERTEX
  5
45ECC
100
AcDbEntity
  8
0
100
AcDbVertex
100
AcDbPolygonMeshVertex
 10
1.034994
 20
-5.772975
 30
3.05
 70
    64
  0
VERTEX
  5
45ECD
100
AcDbEntity
  8
0
100
AcDbVertex
100
AcDbPolygonMeshVertex
 10
1.034994
 20
-5.772975
 30
0.05
 70
    64
  0
VERTEX
  5
45ECE
100
AcDbEntity
  8
0
100
AcDbVertex
100
AcDbPolygonMeshVertex
 10
1.034994
 20
-5.847975
 30
0.05
 70
    64
  0
VERTEX
  5
45ECF
100
AcDbEntity
  8
0
100
AcDbVertex
100
AcDbPolygonMeshVertex
 10
1.034994
 20
-5.772975
 30
3.05
 70
    64
  0
VERTEX
  5
45ED0
100
AcDbEntity
  8
0
100
AcDbVertex
100
AcDbPolygonMeshVertex
 10
1.034994
 20
-5.772975
 30
3.05
 70
    64
  0
VERTEX
  5
45ED1
100
AcDbEntity
  8
0
100
AcDbVertex
100
AcDbPolygonMeshVertex
 10
1.034994
 20
-5.847975
 30
3.05
 70
    64
  0
VERTEX
  5
45ED2
100
AcDbEntity
  8
0
100
AcDbVertex
100
AcDbPolygonMeshVertex
 10
0.944994
 20
-5.772975
 30
3.05
 70
    64
  0
VERTEX
  5
45ED3
100
AcDbEntity
  8
0
100
AcDbVertex
100
AcDbPolygonMeshVertex
 10
0.944994
 20
-5.772975
 30
3.05
 70
    64
  0
VERTEX
  5
45ED4
100
AcDbEntity
  8
0
100
AcDbVertex
100
AcDbPolygonMeshVertex
 10
0.944994
 20
-5.847975
 30
3.05
 70
    64
  0
SEQEND
  5
45ED5
100
AcDbEntity
  8
0
  0
POLYLINE
  5
45ED6
100
AcDbEntity
  8
0
100
AcDbPolygonMesh
 66
     1
 10
0.0
 20
0.0
 30
0.0
 70
    16
 71
     6
 72
     3
  0
VERTEX
  5
45ED7
100
AcDbEntity
  8
0
100
AcDbVertex
100
AcDbPolygonMeshVertex
 10
1.134994
 20
-5.847975
 30
3.05
 70
    64
  0
VERTEX
  5
45ED8
100
AcDbEntity
  8
0
100
AcDbVertex
100
AcDbPolygonMeshVertex
 10
1.134994
 20
-5.847975
 30
0.05
 70
    64
  0
VERTEX
  5
45ED9
100
AcDbEntity
  8
0
100
AcDbVertex
100
AcDbPolygonMeshVertex
 10
1.134994
 20
-5.847975
 30
0.05
 70
    64
  0
VERTEX
  5
45EDA
100
AcDbEntity
  8
0
100
AcDbVertex
100
AcDbPolygonMeshVertex
 10
1.034994
 20
-5.847975
 30
3.05
 70
    64
  0
VERTEX
  5
45EDB
100
AcDbEntity
  8
0
100
AcDbVertex
100
AcDbPolygonMeshVertex
 10
1.034994
 20
-5.847975
 30
0.05
 70
    64
  0
VERTEX
  5
45EDC
100
AcDbEntity
  8
0
100
AcDbVertex
100
AcDbPolygonMeshVertex
 10
1.034994
 20
-5.847975
 30
0.05
 70
    64
  0
VERTEX
  5
45EDD
100
AcDbEntity
  8
0
100
AcDbVertex
100
AcDbPolygonMeshVertex
 10
1.034994
 20
-5.647975
 30
3.05
 70
    64
  0
VERTEX
  5
45EDE
100
AcDbEntity
  8
0
100
AcDbVertex
100
AcDbPolygonMeshVertex
 10
1.034994
 20
-5.647975
 30
0.05
 70
    64
  0
VERTEX
  5
45EDF
100
AcDbEntity
  8
0
100
AcDbVertex
100
AcDbPolygonMeshVertex
 10
1.034994
 20
-5.847975
 30
0.05
 70
    64
  0
VERTEX
  5
45EE0
100
AcDbEntity
  8
0
100
AcDbVertex
100
AcDbPolygonMeshVertex
 10
1.134994
 20
-5.647975
 30
3.05
 70
    64
  0
VERTEX
  5
45EE1
100
AcDbEntity
  8
0
100
AcDbVertex
100
AcDbPolygonMeshVertex
 10
1.134994
 20
-5.647975
 30
0.05
 70
    64
  0
VERTEX
  5
45EE2
100
AcDbEntity
  8
0
100
AcDbVertex
100
AcDbPolygonMeshVertex
 10
1.134994
 20
-5.847975
 30
0.05
 70
    64
  0
VERTEX
  5
45EE3
100
AcDbEntity
  8
0
100
AcDbVertex
100
AcDbPolygonMeshVertex
 10
1.134994
 20
-5.647975
 30
3.05
 70
    64
  0
VERTEX
  5
45EE4
100
AcDbEntity
  8
0
100
AcDbVertex
100
AcDbPolygonMeshVertex
 10
1.134994
 20
-5.647975
 30
3.05
 70
    64
  0
VERTEX
  5
45EE5
100
AcDbEntity
  8
0
100
AcDbVertex
100
AcDbPolygonMeshVertex
 10
1.134994
 20
-5.847975
 30
3.05
 70
    64
  0
VERTEX
  5
45EE6
100
AcDbEntity
  8
0
100
AcDbVertex
100
AcDbPolygonMeshVertex
 10
1.034994
 20
-5.647975
 30
3.05
 70
    64
  0
VERTEX
  5
45EE7
100
AcDbEntity
  8
0
100
AcDbVertex
100
AcDbPolygonMeshVertex
 10
1.034994
 20
-5.647975
 30
3.05
 70
    64
  0
VERTEX
  5
45EE8
100
AcDbEntity
  8
0
100
AcDbVertex
100
AcDbPolygonMeshVertex
 10
1.034994
 20
-5.847975
 30
3.05
 70
    64
  0
SEQEND
  5
45EE9
100
AcDbEntity
  8
0
  0
POLYLINE
  5
45EEA
100
AcDbEntity
  8
0
100
AcDbPolygonMesh
 66
     1
 10
0.0
 20
0.0
 30
0.0
 70
    16
 71
     6
 72
     3
  0
VERTEX
  5
45EEB
100
AcDbEntity
  8
0
100
AcDbVertex
100
AcDbPolygonMeshVertex
 10
0.944994
 20
-5.847975
 30
3.05
 70
    64
  0
VERTEX
  5
45EEC
100
AcDbEntity
  8
0
100
AcDbVertex
100
AcDbPolygonMeshVertex
 10
0.944994
 20
-5.847975
 30
0.05
 70
    64
  0
VERTEX
  5
45EED
100
AcDbEntity
  8
0
100
AcDbVertex
100
AcDbPolygonMeshVertex
 10
0.944994
 20
-5.847975
 30
0.05
 70
    64
  0
VERTEX
  5
45EEE
100
AcDbEntity
  8
0
100
AcDbVertex
100
AcDbPolygonMeshVertex
 10
0.844994
 20
-5.847975
 30
3.05
 70
    64
  0
VERTEX
  5
45EEF
100
AcDbEntity
  8
0
100
AcDbVertex
100
AcDbPolygonMeshVertex
 10
0.844994
 20
-5.847975
 30
0.05
 70
    64
  0
VERTEX
  5
45EF0
100
AcDbEntity
  8
0
100
AcDbVertex
100
AcDbPolygonMeshVertex
 10
0.844994
 20
-5.847975
 30
0.05
 70
    64
  0
VERTEX
  5
45EF1
100
AcDbEntity
  8
0
100
AcDbVertex
100
AcDbPolygonMeshVertex
 10
0.844994
 20
-5.647975
 30
3.05
 70
    64
  0
VERTEX
  5
45EF2
100
AcDbEntity
  8
0
100
AcDbVertex
100
AcDbPolygonMeshVertex
 10
0.844994
 20
-5.647975
 30
0.05
 70
    64
  0
VERTEX
  5
45EF3
100
AcDbEntity
  8
0
100
AcDbVertex
100
AcDbPolygonMeshVertex
 10
0.844994
 20
-5.847975
 30
0.05
 70
    64
  0
VERTEX
  5
45EF4
100
AcDbEntity
  8
0
100
AcDbVertex
100
AcDbPolygonMeshVertex
 10
0.944994
 20
-5.647975
 30
3.05
 70
    64
  0
VERTEX
  5
45EF5
100
AcDbEntity
  8
0
100
AcDbVertex
100
AcDbPolygonMeshVertex
 10
0.944994
 20
-5.647975
 30
0.05
 70
    64
  0
VERTEX
  5
45EF6
100
AcDbEntity
  8
0
100
AcDbVertex
100
AcDbPolygonMeshVertex
 10
0.944994
 20
-5.847975
 30
0.05
 70
    64
  0
VERTEX
  5
45EF7
100
AcDbEntity
  8
0
100
AcDbVertex
100
AcDbPolygonMeshVertex
 10
0.944994
 20
-5.647975
 30
3.05
 70
    64
  0
VERTEX
  5
45EF8
100
AcDbEntity
  8
0
100
AcDbVertex
100
AcDbPolygonMeshVertex
 10
0.944994
 20
-5.647975
 30
3.05
 70
    64
  0
VERTEX
  5
45EF9
100
AcDbEntity
  8
0
100
AcDbVertex
100
AcDbPolygonMeshVertex
 10
0.944994
 20
-5.847975
 30
3.05
 70
    64
  0
VERTEX
  5
45EFA
100
AcDbEntity
  8
0
100
AcDbVertex
100
AcDbPolygonMeshVertex
 10
0.844994
 20
-5.647975
 30
3.05
 70
    64
  0
VERTEX
  5
45EFB
100
AcDbEntity
  8
0
100
AcDbVertex
100
AcDbPolygonMeshVertex
 10
0.844994
 20
-5.647975
 30
3.05
 70
    64
  0
VERTEX
  5
45EFC
100
AcDbEntity
  8
0
100
AcDbVertex
100
AcDbPolygonMeshVertex
 10
0.844994
 20
-5.847975
 30
3.05
 70
    64
  0
SEQEND
  5
45EFD
100
AcDbEntity
  8
0
  0
POLYLINE
  5
45EFE
100
AcDbEntity
  8
0
100
AcDbPolygonMesh
 66
     1
 10
0.0
 20
0.0
 30
0.0
 70
    16
 71
     6
 72
     3
  0
VERTEX
  5
45EFF
100
AcDbEntity
  8
0
100
AcDbVertex
100
AcDbPolygonMeshVertex
 10
-2.275903
 20
-4.018178
 30
0.425
 70
    64
  0
VERTEX
  5
45F00
100
AcDbEntity
  8
0
100
AcDbVertex
100
AcDbPolygonMeshVertex
 10
-2.275903
 20
-4.018178
 30
0.05
 70
    64
  0
VERTEX
  5
45F01
100
AcDbEntity
  8
0
100
AcDbVertex
100
AcDbPolygonMeshVertex
 10
-2.275903
 20
-4.018178
 30
0.05
 70
    64
  0
VERTEX
  5
45F02
100
AcDbEntity
  8
0
100
AcDbVertex
100
AcDbPolygonMeshVertex
 10
-2.566479
 20
-4.018178
 30
0.425
 70
    64
  0
VERTEX
  5
45F03
100
AcDbEntity
  8
0
100
AcDbVertex
100
AcDbPolygonMeshVertex
 10
-2.566479
 20
-4.018178
 30
0.05
 70
    64
  0
VERTEX
  5
45F04
100
AcDbEntity
  8
0
100
AcDbVertex
100
AcDbPolygonMeshVertex
 10
-2.566479
 20
-4.018178
 30
0.05
 70
    64
  0
VERTEX
  5
45F05
100
AcDbEntity
  8
0
100
AcDbVertex
100
AcDbPolygonMeshVertex
 10
-2.566479
 20
-3.039199
 30
0.425
 70
    64
  0
VERTEX
  5
45F06
100
AcDbEntity
  8
0
100
AcDbVertex
100
AcDbPolygonMeshVertex
 10
-2.566479
 20
-3.039199
 30
0.05
 70
    64
  0
VERTEX
  5
45F07
100
AcDbEntity
  8
0
100
AcDbVertex
100
AcDbPolygonMeshVertex
 10
-2.566479
 20
-4.018178
 30
0.05
 70
    64
  0
VERTEX
  5
45F08
100
AcDbEntity
  8
0
100
AcDbVertex
100
AcDbPolygonMeshVertex
 10
-2.275903
 20
-3.039199
 30
0.425
 70
    64
  0
VERTEX
  5
45F09
100
AcDbEntity
  8
0
100
AcDbVertex
100
AcDbPolygonMeshVertex
 10
-2.275903
 20
-3.039199
 30
0.05
 70
    64
  0
VERTEX
  5
45F0A
100
AcDbEntity
  8
0
100
AcDbVertex
100
AcDbPolygonMeshVertex
 10
-2.275903
 20
-4.018178
 30
0.05
 70
    64
  0
VERTEX
  5
45F0B
100
AcDbEntity
  8
0
100
AcDbVertex
100
AcDbPolygonMeshVertex
 10
-2.275903
 20
-3.039199
 30
0.425
 70
    64
  0
VERTEX
  5
45F0C
100
AcDbEntity
  8
0
100
AcDbVertex
100
AcDbPolygonMeshVertex
 10
-2.275903
 20
-3.039199
 30
0.425
 70
    64
  0
VERTEX
  5
45F0D
100
AcDbEntity
  8
0
100
AcDbVertex
100
AcDbPolygonMeshVertex
 10
-2.275903
 20
-4.018178
 30
0.425
 70
    64
  0
VERTEX
  5
45F0E
100
AcDbEntity
  8
0
100
AcDbVertex
100
AcDbPolygonMeshVertex
 10
-2.566479
 20
-3.039199
 30
0.425
 70
    64
  0
VERTEX
  5
45F0F
100
AcDbEntity
  8
0
100
AcDbVertex
100
AcDbPolygonMeshVertex
 10
-2.566479
 20
-3.039199
 30
0.425
 70
    64
  0
VERTEX
  5
45F10
100
AcDbEntity
  8
0
100
AcDbVertex
100
AcDbPolygonMeshVertex
 10
-2.566479
 20
-4.018178
 30
0.425
 70
    64
  0
SEQEND
  5
45F11
100
AcDbEntity
  8
0
  0
POLYLINE
  5
45F12
100
AcDbEntity
  8
0
100
AcDbPolygonMesh
 66
     1
 10
0.0
 20
0.0
 30
0.0
 70
    16
 71
     6
 72
     3
  0
VERTEX
  5
45F13
100
AcDbEntity
  8
0
100
AcDbVertex
100
AcDbPolygonMeshVertex
 10
-1.210458
 20
-4.911092
 30
0.425
 70
    64
  0
VERTEX
  5
45F14
100
AcDbEntity
  8
0
100
AcDbVertex
100
AcDbPolygonMeshVertex
 10
-1.210458
 20
-4.911092
 30
0.05
 70
    64
  0
VERTEX
  5
45F15
100
AcDbEntity
  8
0
100
AcDbVertex
100
AcDbPolygonMeshVertex
 10
-1.210458
 20
-4.911092
 30
0.05
 70
    64
  0
VERTEX
  5
45F16
100
AcDbEntity
  8
0
100
AcDbVertex
100
AcDbPolygonMeshVertex
 10
-1.501034
 20
-4.911092
 30
0.425
 70
    64
  0
VERTEX
  5
45F17
100
AcDbEntity
  8
0
100
AcDbVertex
100
AcDbPolygonMeshVertex
 10
-1.501034
 20
-4.911092
 30
0.05
 70
    64
  0
VERTEX
  5
45F18
100
AcDbEntity
  8
0
100
AcDbVertex
100
AcDbPolygonMeshVertex
 10
-1.501034
 20
-4.911092
 30
0.05
 70
    64
  0
VERTEX
  5
45F19
100
AcDbEntity
  8
0
100
AcDbVertex
100
AcDbPolygonMeshVertex
 10
-1.501034
 20
-3.523309
 30
0.425
 70
    64
  0
VERTEX
  5
45F1A
100
AcDbEntity
  8
0
100
AcDbVertex
100
AcDbPolygonMeshVertex
 10
-1.501034
 20
-3.523309
 30
0.05
 70
    64
  0
VERTEX
  5
45F1B
100
AcDbEntity
  8
0
100
AcDbVertex
100
AcDbPolygonMeshVertex
 10
-1.501034
 20
-4.911092
 30
0.05
 70
    64
  0
VERTEX
  5
45F1C
100
AcDbEntity
  8
0
100
AcDbVertex
100
AcDbPolygonMeshVertex
 10
-1.210458
 20
-3.523309
 30
0.425
 70
    64
  0
VERTEX
  5
45F1D
100
AcDbEntity
  8
0
100
AcDbVertex
100
AcDbPolygonMeshVertex
 10
-1.210458
 20
-3.523309
 30
0.05
 70
    64
  0
VERTEX
  5
45F1E
100
AcDbEntity
  8
0
100
AcDbVertex
100
AcDbPolygonMeshVertex
 10
-1.210458
 20
-4.911092
 30
0.05
 70
    64
  0
VERTEX
  5
45F1F
100
AcDbEntity
  8
0
100
AcDbVertex
100
AcDbPolygonMeshVertex
 10
-1.210458
 20
-3.523309
 30
0.425
 70
    64
  0
VERTEX
  5
45F20
100
AcDbEntity
  8
0
100
AcDbVertex
100
AcDbPolygonMeshVertex
 10
-1.210458
 20
-3.523309
 30
0.425
 70
    64
  0
VERTEX
  5
45F21
100
AcDbEntity
  8
0
100
AcDbVertex
100
AcDbPolygonMeshVertex
 10
-1.210458
 20
-4.911092
 30
0.425
 70
    64
  0
VERTEX
  5
45F22
100
AcDbEntity
  8
0
100
AcDbVertex
100
AcDbPolygonMeshVertex
 10
-1.501034
 20
-3.523309
 30
0.425
 70
    64
  0
VERTEX
  5
45F23
100
AcDbEntity
  8
0
100
AcDbVertex
100
AcDbPolygonMeshVertex
 10
-1.501034
 20
-3.523309
 30
0.425
 70
    64
  0
VERTEX
  5
45F24
100
AcDbEntity
  8
0
100
AcDbVertex
100
AcDbPolygonMeshVertex
 10
-1.501034
 20
-4.911092
 30
0.425
 70
    64
  0
SEQEND
  5
45F25
100
AcDbEntity
  8
0
  0
LINE
  5
45F26
100
AcDbEntity
  8
0
100
AcDbLine
 10
-2.57
 20
-5.88
 30
0.04
 11
-2.57
 21
-5.87971
 31
0.000295
  0
POINT
  5
45F27
100
AcDbEntity
  8
SNAP_POINTS
100
AcDbPoint
 10
-2.15752
 20
-5.772975
 30
0.05
  0
LINE
  5
45F28
100
AcDbEntity
  8
0
100
AcDbLine
 10
-2.57
 20
-0.45
 30
0.04
 11
-2.57
 21
-0.45
 31
0.0
  0
POLYLINE
  5
45F29
100
AcDbEntity
  8
0
100
AcDbPolygonMesh
 66
     1
 10
0.0
 20
0.0
 30
0.0
 70
    16
 71
     6
 72
     3
  0
VERTEX
  5
45F2A
100
AcDbEntity
  8
0
100
AcDbVertex
100
AcDbPolygonMeshVertex
 10
-0.452453
 20
-4.018178
 30
0.425
 70
    64
  0
VERTEX
  5
45F2B
100
AcDbEntity
  8
0
100
AcDbVertex
100
AcDbPolygonMeshVertex
 10
-0.452453
 20
-4.018178
 30
0.05
 70
    64
  0
VERTEX
  5
45F2C
100
AcDbEntity
  8
0
100
AcDbVertex
100
AcDbPolygonMeshVertex
 10
-0.452453
 20
-4.018178
 30
0.05
 70
    64
  0
VERTEX
  5
45F2D
100
AcDbEntity
  8
0
100
AcDbVertex
100
AcDbPolygonMeshVertex
 10
-0.743029
 20
-4.018178
 30
0.425
 70
    64
  0
VERTEX
  5
45F2E
100
AcDbEntity
  8
0
100
AcDbVertex
100
AcDbPolygonMeshVertex
 10
-0.743029
 20
-4.018178
 30
0.05
 70
    64
  0
VERTEX
  5
45F2F
100
AcDbEntity
  8
0
100
AcDbVertex
100
AcDbPolygonMeshVertex
 10
-0.743029
 20
-4.018178
 30
0.05
 70
    64
  0
VERTEX
  5
45F30
100
AcDbEntity
  8
0
100
AcDbVertex
100
AcDbPolygonMeshVertex
 10
-0.743029
 20
-3.039199
 30
0.425
 70
    64
  0
VERTEX
  5
45F31
100
AcDbEntity
  8
0
100
AcDbVertex
100
AcDbPolygonMeshVertex
 10
-0.743029
 20
-3.039199
 30
0.05
 70
    64
  0
VERTEX
  5
45F32
100
AcDbEntity
  8
0
100
AcDbVertex
100
AcDbPolygonMeshVertex
 10
-0.743029
 20
-4.018178
 30
0.05
 70
    64
  0
VERTEX
  5
45F33
100
AcDbEntity
  8
0
100
AcDbVertex
100
AcDbPolygonMeshVertex
 10
-0.452453
 20
-3.039199
 30
0.425
 70
    64
  0
VERTEX
  5
45F34
100
AcDbEntity
  8
0
100
AcDbVertex
100
AcDbPolygonMeshVertex
 10
-0.452453
 20
-3.039199
 30
0.05
 70
    64
  0
VERTEX
  5
45F35
100
AcDbEntity
  8
0
100
AcDbVertex
100
AcDbPolygonMeshVertex
 10
-0.452453
 20
-4.018178
 30
0.05
 70
    64
  0
VERTEX
  5
45F36
100
AcDbEntity
  8
0
100
AcDbVertex
100
AcDbPolygonMeshVertex
 10
-0.452453
 20
-3.039199
 30
0.425
 70
    64
  0
VERTEX
  5
45F37
100
AcDbEntity
  8
0
100
AcDbVertex
100
AcDbPolygonMeshVertex
 10
-0.452453
 20
-3.039199
 30
0.425
 70
    64
  0
VERTEX
  5
45F38
100
AcDbEntity
  8
0
100
AcDbVertex
100
AcDbPolygonMeshVertex
 10
-0.452453
 20
-4.018178
 30
0.425
 70
    64
  0
VERTEX
  5
45F39
100
AcDbEntity
  8
0
100
AcDbVertex
100
AcDbPolygonMeshVertex
 10
-0.743029
 20
-3.039199
 30
0.425
 70
    64
  0
VERTEX
  5
45F3A
100
AcDbEntity
  8
0
100
AcDbVertex
100
AcDbPolygonMeshVertex
 10
-0.743029
 20
-3.039199
 30
0.425
 70
    64
  0
VERTEX
  5
45F3B
100
AcDbEntity
  8
0
100
AcDbVertex
100
AcDbPolygonMeshVertex
 10
-0.743029
 20
-4.018178
 30
0.425
 70
    64
  0
SEQEND
  5
45F3C
100
AcDbEntity
  8
0
  0
POLYLINE
  5
45F3D
100
AcDbEntity
  8
0
100
AcDbPolygonMesh
 66
     1
 10
0.0
 20
0.0
 30
0.0
 70
    16
 71
     6
 72
     3
  0
VERTEX
  5
45F3E
100
AcDbEntity
  8
0
100
AcDbVertex
100
AcDbPolygonMeshVertex
 10
0.957378
 20
-4.018178
 30
0.425
 70
    64
  0
VERTEX
  5
45F3F
100
AcDbEntity
  8
0
100
AcDbVertex
100
AcDbPolygonMeshVertex
 10
0.957378
 20
-4.018178
 30
0.05
 70
    64
  0
VERTEX
  5
45F40
100
AcDbEntity
  8
0
100
AcDbVertex
100
AcDbPolygonMeshVertex
 10
0.957378
 20
-4.018178
 30
0.05
 70
    64
  0
VERTEX
  5
45F41
100
AcDbEntity
  8
0
100
AcDbVertex
100
AcDbPolygonMeshVertex
 10
0.666802
 20
-4.018178
 30
0.425
 70
    64
  0
VERTEX
  5
45F42
100
AcDbEntity
  8
0
100
AcDbVertex
100
AcDbPolygonMeshVertex
 10
0.666802
 20
-4.018178
 30
0.05
 70
    64
  0
VERTEX
  5
45F43
100
AcDbEntity
  8
0
100
AcDbVertex
100
AcDbPolygonMeshVertex
 10
0.666802
 20
-4.018178
 30
0.05
 70
    64
  0
VERTEX
  5
45F44
100
AcDbEntity
  8
0
100
AcDbVertex
100
AcDbPolygonMeshVertex
 10
0.666802
 20
-3.039199
 30
0.425
 70
    64
  0
VERTEX
  5
45F45
100
AcDbEntity
  8
0
100
AcDbVertex
100
AcDbPolygonMeshVertex
 10
0.666802
 20
-3.039199
 30
0.05
 70
    64
  0
VERTEX
  5
45F46
100
AcDbEntity
  8
0
100
AcDbVertex
100
AcDbPolygonMeshVertex
 10
0.666802
 20
-4.018178
 30
0.05
 70
    64
  0
VERTEX
  5
45F47
100
AcDbEntity
  8
0
100
AcDbVertex
100
AcDbPolygonMeshVertex
 10
0.957378
 20
-3.039199
 30
0.425
 70
    64
  0
VERTEX
  5
45F48
100
AcDbEntity
  8
0
100
AcDbVertex
100
AcDbPolygonMeshVertex
 10
0.957378
 20
-3.039199
 30
0.05
 70
    64
  0
VERTEX
  5
45F49
100
AcDbEntity
  8
0
100
AcDbVertex
100
AcDbPolygonMeshVertex
 10
0.957378
 20
-4.018178
 30
0.05
 70
    64
  0
VERTEX
  5
45F4A
100
AcDbEntity
  8
0
100
AcDbVertex
100
AcDbPolygonMeshVertex
 10
0.957378
 20
-3.039199
 30
0.425
 70
    64
  0
VERTEX
  5
45F4B
100
AcDbEntity
  8
0
100
AcDbVertex
100
AcDbPolygonMeshVertex
 10
0.957378
 20
-3.039199
 30
0.425
 70
    64
  0
VERTEX
  5
45F4C
100
AcDbEntity
  8
0
100
AcDbVertex
100
AcDbPolygonMeshVertex
 10
0.957378
 20
-4.018178
 30
0.425
 70
    64
  0
VERTEX
  5
45F4D
100
AcDbEntity
  8
0
100
AcDbVertex
100
AcDbPolygonMeshVertex
 10
0.666802
 20
-3.039199
 30
0.425
 70
    64
  0
VERTEX
  5
45F4E
100
AcDbEntity
  8
0
100
AcDbVertex
100
AcDbPolygonMeshVertex
 10
0.666802
 20
-3.039199
 30
0.425
 70
    64
  0
VERTEX
  5
45F4F
100
AcDbEntity
  8
0
100
AcDbVertex
100
AcDbPolygonMeshVertex
 10
0.666802
 20
-4.018178
 30
0.425
 70
    64
  0
SEQEND
  5
45F50
100
AcDbEntity
  8
0
  0
POLYLINE
  5
45F51
100
AcDbEntity
  8
0
100
AcDbPolygonMesh
 66
     1
 10
0.0
 20
0.0
 30
0.0
 70
    16
 71
     6
 72
     3
  0
VERTEX
  5
45F52
100
AcDbEntity
  8
0
100
AcDbVertex
100
AcDbPolygonMeshVertex
 10
0.217
 20
-6.47
 30
0.04
 70
    64
  0
VERTEX
  5
45F53
100
AcDbEntity
  8
0
100
AcDbVertex
100
AcDbPolygonMeshVertex
 10
0.217
 20
-6.47
 30
0.0
 70
    64
  0
VERTEX
  5
45F54
100
AcDbEntity
  8
0
100
AcDbVertex
100
AcDbPolygonMeshVertex
 10
0.217
 20
-6.47
 30
0.0
 70
    64
  0
VERTEX
  5
45F55
100
AcDbEntity
  8
0
100
AcDbVertex
100
AcDbPolygonMeshVertex
 10
-0.217
 20
-6.47
 30
0.04
 70
    64
  0
VERTEX
  5
45F56
100
AcDbEntity
  8
0
100
AcDbVertex
100
AcDbPolygonMeshVertex
 10
-0.217
 20
-6.47
 30
0.0
 70
    64
  0
VERTEX
  5
45F57
100
AcDbEntity
  8
0
100
AcDbVertex
100
AcDbPolygonMeshVertex
 10
-0.217
 20
-6.47
 30
0.0
 70
    64
  0
VERTEX
  5
45F58
100
AcDbEntity
  8
0
100
AcDbVertex
100
AcDbPolygonMeshVertex
 10
-0.217
 20
-5.92
 30
0.04
 70
    64
  0
VERTEX
  5
45F59
100
AcDbEntity
  8
0
100
AcDbVertex
100
AcDbPolygonMeshVertex
 10
-0.217
 20
-5.92
 30
0.0
 70
    64
  0
VERTEX
  5
45F5A
100
AcDbEntity
  8
0
100
AcDbVertex
100
AcDbPolygonMeshVertex
 10
-0.217
 20
-6.47
 30
0.0
 70
    64
  0
VERTEX
  5
45F5B
100
AcDbEntity
  8
0
100
AcDbVertex
100
AcDbPolygonMeshVertex
 10
0.217
 20
-5.92
 30
0.04
 70
    64
  0
VERTEX
  5
45F5C
100
AcDbEntity
  8
0
100
AcDbVertex
100
AcDbPolygonMeshVertex
 10
0.217
 20
-5.92
 30
0.0
 70
    64
  0
VERTEX
  5
45F5D
100
AcDbEntity
  8
0
100
AcDbVertex
100
AcDbPolygonMeshVertex
 10
0.217
 20
-6.47
 30
0.0
 70
    64
  0
VERTEX
  5
45F5E
100
AcDbEntity
  8
0
100
AcDbVertex
100
AcDbPolygonMeshVertex
 10
0.217
 20
-5.92
 30
0.04
 70
    64
  0
VERTEX
  5
45F5F
100
AcDbEntity
  8
0
100
AcDbVertex
100
AcDbPolygonMeshVertex
 10
0.217
 20
-5.92
 30
0.04
 70
    64
  0
VERTEX
  5
45F60
100
AcDbEntity
  8
0
100
AcDbVertex
100
AcDbPolygonMeshVertex
 10
0.217
 20
-6.47
 30
0.04
 70
    64
  0
VERTEX
  5
45F61
100
AcDbEntity
  8
0
100
AcDbVertex
100
AcDbPolygonMeshVertex
 10
-0.217
 20
-5.92
 30
0.04
 70
    64
  0
VERTEX
  5
45F62
100
AcDbEntity
  8
0
100
AcDbVertex
100
AcDbPolygonMeshVertex
 10
-0.217
 20
-5.92
 30
0.04
 70
    64
  0
VERTEX
  5
45F63
100
AcDbEntity
  8
0
100
AcDbVertex
100
AcDbPolygonMeshVertex
 10
-0.217
 20
-6.47
 30
0.04
 70
    64
  0
SEQEND
  5
45F64
100
AcDbEntity
  8
0
  0
CIRCLE
  5
45F66
100
AcDbEntity
  8
0
100
AcDbCircle
 39
0.04
 10
0.0
 20
-6.22
 30
0.0
 40
0.1085
  0
POLYLINE
  5
45F68
100
AcDbEntity
  8
0
100
AcDbPolygonMesh
 66
     1
 10
0.0
 20
0.0
 30
0.0
 70
    16
 71
     6
 72
     3
  0
VERTEX
  5
45F69
100
AcDbEntity
  8
0
100
AcDbVertex
100
AcDbPolygonMeshVertex
 10
-0.452453
 20
-4.738964
 30
0.425
 70
    64
  0
VERTEX
  5
45F6A
100
AcDbEntity
  8
0
100
AcDbVertex
100
AcDbPolygonMeshVertex
 10
-0.452453
 20
-4.738964
 30
0.05
 70
    64
  0
VERTEX
  5
45F6B
100
AcDbEntity
  8
0
100
AcDbVertex
100
AcDbPolygonMeshVertex
 10
-0.452453
 20
-4.738964
 30
0.05
 70
    64
  0
VERTEX
  5
45F6C
100
AcDbEntity
  8
0
100
AcDbVertex
100
AcDbPolygonMeshVertex
 10
-0.743029
 20
-4.738964
 30
0.425
 70
    64
  0
VERTEX
  5
45F6D
100
AcDbEntity
  8
0
100
AcDbVertex
100
AcDbPolygonMeshVertex
 10
-0.743029
 20
-4.738964
 30
0.05
 70
    64
  0
VERTEX
  5
45F6E
100
AcDbEntity
  8
0
100
AcDbVertex
100
AcDbPolygonMeshVertex
 10
-0.743029
 20
-4.738964
 30
0.05
 70
    64
  0
VERTEX
  5
45F6F
100
AcDbEntity
  8
0
100
AcDbVertex
100
AcDbPolygonMeshVertex
 10
-0.743029
 20
-4.06121
 30
0.425
 70
    64
  0
VERTEX
  5
45F70
100
AcDbEntity
  8
0
100
AcDbVertex
100
AcDbPolygonMeshVertex
 10
-0.743029
 20
-4.06121
 30
0.05
 70
    64
  0
VERTEX
  5
45F71
100
AcDbEntity
  8
0
100
AcDbVertex
100
AcDbPolygonMeshVertex
 10
-0.743029
 20
-4.738964
 30
0.05
 70
    64
  0
VERTEX
  5
45F72
100
AcDbEntity
  8
0
100
AcDbVertex
100
AcDbPolygonMeshVertex
 10
-0.452453
 20
-4.06121
 30
0.425
 70
    64
  0
VERTEX
  5
45F73
100
AcDbEntity
  8
0
100
AcDbVertex
100
AcDbPolygonMeshVertex
 10
-0.452453
 20
-4.06121
 30
0.05
 70
    64
  0
VERTEX
  5
45F74
100
AcDbEntity
  8
0
100
AcDbVertex
100
AcDbPolygonMeshVertex
 10
-0.452453
 20
-4.738964
 30
0.05
 70
    64
  0
VERTEX
  5
45F75
100
AcDbEntity
  8
0
100
AcDbVertex
100
AcDbPolygonMeshVertex
 10
-0.452453
 20
-4.06121
 30
0.425
 70
    64
  0
VERTEX
  5
45F76
100
AcDbEntity
  8
0
100
AcDbVertex
100
AcDbPolygonMeshVertex
 10
-0.452453
 20
-4.06121
 30
0.425
 70
    64
  0
VERTEX
  5
45F77
100
AcDbEntity
  8
0
100
AcDbVertex
100
AcDbPolygonMeshVertex
 10
-0.452453
 20
-4.738964
 30
0.425
 70
    64
  0
VERTEX
  5
45F78
100
AcDbEntity
  8
0
100
AcDbVertex
100
AcDbPolygonMeshVertex
 10
-0.743029
 20
-4.06121
 30
0.425
 70
    64
  0
VERTEX
  5
45F79
100
AcDbEntity
  8
0
100
AcDbVertex
100
AcDbPolygonMeshVertex
 10
-0.743029
 20
-4.06121
 30
0.425
 70
    64
  0
VERTEX
  5
45F7A
100
AcDbEntity
  8
0
100
AcDbVertex
100
AcDbPolygonMeshVertex
 10
-0.743029
 20
-4.738964
 30
0.425
 70
    64
  0
SEQEND
  5
45F7B
100
AcDbEntity
  8
0
  0
POINT
  5
45F7C
100
AcDbEntity
  8
SNAP_POINTS
100
AcDbPoint
 10
-0.385006
 20
-5.772975
 30
0.05
  0
POINT
  5
45F7D
100
AcDbEntity
  8
SNAP_POINTS
100
AcDbPoint
 10
0.989994
 20
-5.772975
 30
0.05
  0
ARC
  5
45F7E
100
AcDbEntity
  8
0
100
AcDbCircle
 39
0.04
 10
0.0
 20
-0.193538
 30
0.0
 40
0.2165
100
AcDbArc
 50
120.024142
 51
59.975858
  0
ARC
  5
45F80
100
AcDbEntity
  8
0
100
AcDbCircle
 39
0.04
 10
0.0
 20
0.0
 30
0.0
 40
0.1085
100
AcDbArc
 50
356.782733
 51
183.217267
  0
LINE
  5
45F82
100
AcDbEntity
  8
0
100
AcDbLine
 10
-0.217
 20
0.26
 30
0.04
 11
-0.317
 21
0.26
 31
0.04
  0
LINE
  5
45F83
100
AcDbEntity
  8
0
100
AcDbLine
 10
-0.217
 20
0.26
 30
0.0
 11
-0.317
 21
0.26
 31
0.0
  0
LINE
  5
45F84
100
AcDbEntity
  8
0
100
AcDbLine
 10
0.317
 20
0.26
 30
0.0
 11
0.217
 21
0.26
 31
0.0
  0
POLYLINE
  5
45F85
100
AcDbEntity
  8
0
100
AcDbPolygonMesh
 66
     1
 10
0.0
 20
0.0
 30
0.0
 70
    16
 71
     6
 72
     3
  0
VERTEX
  5
45F86
100
AcDbEntity
  8
0
100
AcDbVertex
100
AcDbPolygonMeshVertex
 10
2.443
 20
-0.41
 30
0.04
 70
    64
  0
VERTEX
  5
45F87
100
AcDbEntity
  8
0
100
AcDbVertex
100
AcDbPolygonMeshVertex
 10
2.443
 20
-0.41
 30
0.0
 70
    64
  0
VERTEX
  5
45F88
100
AcDbEntity
  8
0
100
AcDbVertex
100
AcDbPolygonMeshVertex
 10
2.443
 20
-0.41
 30
0.0
 70
    64
  0
VERTEX
  5
45F89
100
AcDbEntity
  8
0
100
AcDbVertex
100
AcDbPolygonMeshVertex
 10
2.443
 20
0.26
 30
0.04
 70
    64
  0
VERTEX
  5
45F8A
100
AcDbEntity
  8
0
100
AcDbVertex
100
AcDbPolygonMeshVertex
 10
2.443
 20
0.26
 30
0.0
 70
    64
  0
VERTEX
  5
45F8B
100
AcDbEntity
  8
0
100
AcDbVertex
100
AcDbPolygonMeshVertex
 10
2.443
 20
0.26
 30
0.0
 70
    64
  0
VERTEX
  5
45F8C
100
AcDbEntity
  8
0
100
AcDbVertex
100
AcDbPolygonMeshVertex
 10
3.077
 20
0.26
 30
0.04
 70
    64
  0
VERTEX
  5
45F8D
100
AcDbEntity
  8
0
100
AcDbVertex
100
AcDbPolygonMeshVertex
 10
3.077
 20
0.26
 30
0.0
 70
    64
  0
VERTEX
  5
45F8E
100
AcDbEntity
  8
0
100
AcDbVertex
100
AcDbPolygonMeshVertex
 10
2.443
 20
0.26
 30
0.0
 70
    64
  0
VERTEX
  5
45F8F
100
AcDbEntity
  8
0
100
AcDbVertex
100
AcDbPolygonMeshVertex
 10
3.077
 20
-0.41
 30
0.04
 70
    64
  0
VERTEX
  5
45F90
100
AcDbEntity
  8
0
100
AcDbVertex
100
AcDbPolygonMeshVertex
 10
3.077
 20
-0.41
 30
0.0
 70
    64
  0
VERTEX
  5
45F91
100
AcDbEntity
  8
0
100
AcDbVertex
100
AcDbPolygonMeshVertex
 10
2.443
 20
-0.41
 30
0.0
 70
    64
  0
VERTEX
  5
45F92
100
AcDbEntity
  8
0
100
AcDbVertex
100
AcDbPolygonMeshVertex
 10
3.077
 20
-0.41
 30
0.04
 70
    64
  0
VERTEX
  5
45F93
100
AcDbEntity
  8
0
100
AcDbVertex
100
AcDbPolygonMeshVertex
 10
3.077
 20
-0.41
 30
0.04
 70
    64
  0
VERTEX
  5
45F94
100
AcDbEntity
  8
0
100
AcDbVertex
100
AcDbPolygonMeshVertex
 10
2.443
 20
-0.41
 30
0.04
 70
    64
  0
VERTEX
  5
45F95
100
AcDbEntity
  8
0
100
AcDbVertex
100
AcDbPolygonMeshVertex
 10
3.077
 20
0.26
 30
0.04
 70
    64
  0
VERTEX
  5
45F96
100
AcDbEntity
  8
0
100
AcDbVertex
100
AcDbPolygonMeshVertex
 10
3.077
 20
0.26
 30
0.04
 70
    64
  0
VERTEX
  5
45F97
100
AcDbEntity
  8
0
100
AcDbVertex
100
AcDbPolygonMeshVertex
 10
2.443
 20
0.26
 30
0.04
 70
    64
  0
SEQEND
  5
45F98
100
AcDbEntity
  8
0
  0
POLYLINE
  5
45F99
100
AcDbEntity
  8
0
100
AcDbPolygonMesh
 66
     1
 10
0.0
 20
0.0
 30
0.0
 70
    16
 71
     6
 72
     3
  0
VERTEX
  5
45F9A
100
AcDbEntity
  8
0
100
AcDbVertex
100
AcDbPolygonMeshVertex
 10
2.319994
 20
-0.482025
 30
3.05
 70
    64
  0
VERTEX
  5
45F9B
100
AcDbEntity
  8
0
100
AcDbVertex
100
AcDbPolygonMeshVertex
 10
2.319994
 20
-0.482025
 30
0.05
 70
    64
  0
VERTEX
  5
45F9C
100
AcDbEntity
  8
0
100
AcDbVertex
100
AcDbPolygonMeshVertex
 10
2.319994
 20
-0.482025
 30
0.05
 70
    64
  0
VERTEX
  5
45F9D
100
AcDbEntity
  8
0
100
AcDbVertex
100
AcDbPolygonMeshVertex
 10
2.219994
 20
-0.482025
 30
3.05
 70
    64
  0
VERTEX
  5
45F9E
100
AcDbEntity
  8
0
100
AcDbVertex
100
AcDbPolygonMeshVertex
 10
2.219994
 20
-0.482025
 30
0.05
 70
    64
  0
VERTEX
  5
45F9F
100
AcDbEntity
  8
0
100
AcDbVertex
100
AcDbPolygonMeshVertex
 10
2.219994
 20
-0.482025
 30
0.05
 70
    64
  0
VERTEX
  5
45FA0
100
AcDbEntity
  8
0
100
AcDbVertex
100
AcDbPolygonMeshVertex
 10
2.219994
 20
-0.682025
 30
3.05
 70
    64
  0
VERTEX
  5
45FA1
100
AcDbEntity
  8
0
100
AcDbVertex
100
AcDbPolygonMeshVertex
 10
2.219994
 20
-0.682025
 30
0.05
 70
    64
  0
VERTEX
  5
45FA2
100
AcDbEntity
  8
0
100
AcDbVertex
100
AcDbPolygonMeshVertex
 10
2.219994
 20
-0.482025
 30
0.05
 70
    64
  0
VERTEX
  5
45FA3
100
AcDbEntity
  8
0
100
AcDbVertex
100
AcDbPolygonMeshVertex
 10
2.319994
 20
-0.682025
 30
3.05
 70
    64
  0
VERTEX
  5
45FA4
100
AcDbEntity
  8
0
100
AcDbVertex
100
AcDbPolygonMeshVertex
 10
2.319994
 20
-0.682025
 30
0.05
 70
    64
  0
VERTEX
  5
45FA5
100
AcDbEntity
  8
0
100
AcDbVertex
100
AcDbPolygonMeshVertex
 10
2.319994
 20
-0.482025
 30
0.05
 70
    64
  0
VERTEX
  5
45FA6
100
AcDbEntity
  8
0
100
AcDbVertex
100
AcDbPolygonMeshVertex
 10
2.319994
 20
-0.682025
 30
3.05
 70
    64
  0
VERTEX
  5
45FA7
100
AcDbEntity
  8
0
100
AcDbVertex
100
AcDbPolygonMeshVertex
 10
2.319994
 20
-0.682025
 30
3.05
 70
    64
  0
VERTEX
  5
45FA8
100
AcDbEntity
  8
0
100
AcDbVertex
100
AcDbPolygonMeshVertex
 10
2.319994
 20
-0.482025
 30
3.05
 70
    64
  0
VERTEX
  5
45FA9
100
AcDbEntity
  8
0
100
AcDbVertex
100
AcDbPolygonMeshVertex
 10
2.219994
 20
-0.682025
 30
3.05
 70
    64
  0
VERTEX
  5
45FAA
100
AcDbEntity
  8
0
100
AcDbVertex
100
AcDbPolygonMeshVertex
 10
2.219994
 20
-0.682025
 30
3.05
 70
    64
  0
VERTEX
  5
45FAB
100
AcDbEntity
  8
0
100
AcDbVertex
100
AcDbPolygonMeshVertex
 10
2.219994
 20
-0.482025
 30
3.05
 70
    64
  0
SEQEND
  5
45FAC
100
AcDbEntity
  8
0
  0
POLYLINE
  5
45FAD
100
AcDbEntity
  8
0
100
AcDbPolygonMesh
 66
     1
 10
0.0
 20
0.0
 30
0.0
 70
    16
 71
     6
 72
     3
  0
VERTEX
  5
45FAE
100
AcDbEntity
  8
0
100
AcDbVertex
100
AcDbPolygonMeshVertex
 10
2.509994
 20
-0.482025
 30
3.05
 70
    64
  0
VERTEX
  5
45FAF
100
AcDbEntity
  8
0
100
AcDbVertex
100
AcDbPolygonMeshVertex
 10
2.509994
 20
-0.482025
 30
0.05
 70
    64
  0
VERTEX
  5
45FB0
100
AcDbEntity
  8
0
100
AcDbVertex
100
AcDbPolygonMeshVertex
 10
2.509994
 20
-0.482025
 30
0.05
 70
    64
  0
VERTEX
  5
45FB1
100
AcDbEntity
  8
0
100
AcDbVertex
100
AcDbPolygonMeshVertex
 10
2.409994
 20
-0.482025
 30
3.05
 70
    64
  0
VERTEX
  5
45FB2
100
AcDbEntity
  8
0
100
AcDbVertex
100
AcDbPolygonMeshVertex
 10
2.409994
 20
-0.482025
 30
0.05
 70
    64
  0
VERTEX
  5
45FB3
100
AcDbEntity
  8
0
100
AcDbVertex
100
AcDbPolygonMeshVertex
 10
2.409994
 20
-0.482025
 30
0.05
 70
    64
  0
VERTEX
  5
45FB4
100
AcDbEntity
  8
0
100
AcDbVertex
100
AcDbPolygonMeshVertex
 10
2.409994
 20
-0.682025
 30
3.05
 70
    64
  0
VERTEX
  5
45FB5
100
AcDbEntity
  8
0
100
AcDbVertex
100
AcDbPolygonMeshVertex
 10
2.409994
 20
-0.682025
 30
0.05
 70
    64
  0
VERTEX
  5
45FB6
100
AcDbEntity
  8
0
100
AcDbVertex
100
AcDbPolygonMeshVertex
 10
2.409994
 20
-0.482025
 30
0.05
 70
    64
  0
VERTEX
  5
45FB7
100
AcDbEntity
  8
0
100
AcDbVertex
100
AcDbPolygonMeshVertex
 10
2.509994
 20
-0.682025
 30
3.05
 70
    64
  0
VERTEX
  5
45FB8
100
AcDbEntity
  8
0
100
AcDbVertex
100
AcDbPolygonMeshVertex
 10
2.509994
 20
-0.682025
 30
0.05
 70
    64
  0
VERTEX
  5
45FB9
100
AcDbEntity
  8
0
100
AcDbVertex
100
AcDbPolygonMeshVertex
 10
2.509994
 20
-0.482025
 30
0.05
 70
    64
  0
VERTEX
  5
45FBA
100
AcDbEntity
  8
0
100
AcDbVertex
100
AcDbPolygonMeshVertex
 10
2.509994
 20
-0.682025
 30
3.05
 70
    64
  0
VERTEX
  5
45FBB
100
AcDbEntity
  8
0
100
AcDbVertex
100
AcDbPolygonMeshVertex
 10
2.509994
 20
-0.682025
 30
3.05
 70
    64
  0
VERTEX
  5
45FBC
100
AcDbEntity
  8
0
100
AcDbVertex
100
AcDbPolygonMeshVertex
 10
2.509994
 20
-0.482025
 30
3.05
 70
    64
  0
VERTEX
  5
45FBD
100
AcDbEntity
  8
0
100
AcDbVertex
100
AcDbPolygonMeshVertex
 10
2.409994
 20
-0.682025
 30
3.05
 70
    64
  0
VERTEX
  5
45FBE
100
AcDbEntity
  8
0
100
AcDbVertex
100
AcDbPolygonMeshVertex
 10
2.409994
 20
-0.682025
 30
3.05
 70
    64
  0
VERTEX
  5
45FBF
100
AcDbEntity
  8
0
100
AcDbVertex
100
AcDbPolygonMeshVertex
 10
2.409994
 20
-0.482025
 30
3.05
 70
    64
  0
SEQEND
  5
45FC0
100
AcDbEntity
  8
0
  0
POLYLINE
  5
45FC1
100
AcDbEntity
  8
0
100
AcDbPolygonMesh
 66
     1
 10
0.0
 20
0.0
 30
0.0
 70
    16
 71
     6
 72
     3
  0
VERTEX
  5
45FC2
100
AcDbEntity
  8
0
100
AcDbVertex
100
AcDbPolygonMeshVertex
 10
2.409994
 20
-0.482025
 30
3.05
 70
    64
  0
VERTEX
  5
45FC3
100
AcDbEntity
  8
0
100
AcDbVertex
100
AcDbPolygonMeshVertex
 10
2.409994
 20
-0.482025
 30
0.05
 70
    64
  0
VERTEX
  5
45FC4
100
AcDbEntity
  8
0
100
AcDbVertex
100
AcDbPolygonMeshVertex
 10
2.409994
 20
-0.482025
 30
0.05
 70
    64
  0
VERTEX
  5
45FC5
100
AcDbEntity
  8
0
100
AcDbVertex
100
AcDbPolygonMeshVertex
 10
2.319994
 20
-0.482025
 30
3.05
 70
    64
  0
VERTEX
  5
45FC6
100
AcDbEntity
  8
0
100
AcDbVertex
100
AcDbPolygonMeshVertex
 10
2.319994
 20
-0.482025
 30
0.05
 70
    64
  0
VERTEX
  5
45FC7
100
AcDbEntity
  8
0
100
AcDbVertex
100
AcDbPolygonMeshVertex
 10
2.319994
 20
-0.482025
 30
0.05
 70
    64
  0
VERTEX
  5
45FC8
100
AcDbEntity
  8
0
100
AcDbVertex
100
AcDbPolygonMeshVertex
 10
2.319994
 20
-0.557025
 30
3.05
 70
    64
  0
VERTEX
  5
45FC9
100
AcDbEntity
  8
0
100
AcDbVertex
100
AcDbPolygonMeshVertex
 10
2.319994
 20
-0.557025
 30
0.05
 70
    64
  0
VERTEX
  5
45FCA
100
AcDbEntity
  8
0
100
AcDbVertex
100
AcDbPolygonMeshVertex
 10
2.319994
 20
-0.482025
 30
0.05
 70
    64
  0
VERTEX
  5
45FCB
100
AcDbEntity
  8
0
100
AcDbVertex
100
AcDbPolygonMeshVertex
 10
2.409994
 20
-0.557025
 30
3.05
 70
    64
  0
VERTEX
  5
45FCC
100
AcDbEntity
  8
0
100
AcDbVertex
100
AcDbPolygonMeshVertex
 10
2.409994
 20
-0.557025
 30
0.05
 70
    64
  0
VERTEX
  5
45FCD
100
AcDbEntity
  8
0
100
AcDbVertex
100
AcDbPolygonMeshVertex
 10
2.409994
 20
-0.482025
 30
0.05
 70
    64
  0
VERTEX
  5
45FCE
100
AcDbEntity
  8
0
100
AcDbVertex
100
AcDbPolygonMeshVertex
 10
2.409994
 20
-0.557025
 30
3.05
 70
    64
  0
VERTEX
  5
45FCF
100
AcDbEntity
  8
0
100
AcDbVertex
100
AcDbPolygonMeshVertex
 10
2.409994
 20
-0.557025
 30
3.05
 70
    64
  0
VERTEX
  5
45FD0
100
AcDbEntity
  8
0
100
AcDbVertex
100
AcDbPolygonMeshVertex
 10
2.409994
 20
-0.482025
 30
3.05
 70
    64
  0
VERTEX
  5
45FD1
100
AcDbEntity
  8
0
100
AcDbVertex
100
AcDbPolygonMeshVertex
 10
2.319994
 20
-0.557025
 30
3.05
 70
    64
  0
VERTEX
  5
45FD2
100
AcDbEntity
  8
0
100
AcDbVertex
100
AcDbPolygonMeshVertex
 10
2.319994
 20
-0.557025
 30
3.05
 70
    64
  0
VERTEX
  5
45FD3
100
AcDbEntity
  8
0
100
AcDbVertex
100
AcDbPolygonMeshVertex
 10
2.319994
 20
-0.482025
 30
3.05
 70
    64
  0
SEQEND
  5
45FD4
100
AcDbEntity
  8
0
  0
POLYLINE
  5
45FD5
100
AcDbEntity
  8
0
100
AcDbPolygonMesh
 66
     1
 10
0.0
 20
0.0
 30
0.0
 70
    16
 71
     6
 72
     3
  0
VERTEX
  5
45FD6
100
AcDbEntity
  8
0
100
AcDbVertex
100
AcDbPolygonMeshVertex
 10
3.784994
 20
-0.482025
 30
3.05
 70
    64
  0
VERTEX
  5
45FD7
100
AcDbEntity
  8
0
100
AcDbVertex
100
AcDbPolygonMeshVertex
 10
3.784994
 20
-0.482025
 30
0.05
 70
    64
  0
VERTEX
  5
45FD8
100
AcDbEntity
  8
0
100
AcDbVertex
100
AcDbPolygonMeshVertex
 10
3.784994
 20
-0.482025
 30
0.05
 70
    64
  0
VERTEX
  5
45FD9
100
AcDbEntity
  8
0
100
AcDbVertex
100
AcDbPolygonMeshVertex
 10
3.694994
 20
-0.482025
 30
3.05
 70
    64
  0
VERTEX
  5
45FDA
100
AcDbEntity
  8
0
100
AcDbVertex
100
AcDbPolygonMeshVertex
 10
3.694994
 20
-0.482025
 30
0.05
 70
    64
  0
VERTEX
  5
45FDB
100
AcDbEntity
  8
0
100
AcDbVertex
100
AcDbPolygonMeshVertex
 10
3.694994
 20
-0.482025
 30
0.05
 70
    64
  0
VERTEX
  5
45FDC
100
AcDbEntity
  8
0
100
AcDbVertex
100
AcDbPolygonMeshVertex
 10
3.694994
 20
-0.557025
 30
3.05
 70
    64
  0
VERTEX
  5
45FDD
100
AcDbEntity
  8
0
100
AcDbVertex
100
AcDbPolygonMeshVertex
 10
3.694994
 20
-0.557025
 30
0.05
 70
    64
  0
VERTEX
  5
45FDE
100
AcDbEntity
  8
0
100
AcDbVertex
100
AcDbPolygonMeshVertex
 10
3.694994
 20
-0.482025
 30
0.05
 70
    64
  0
VERTEX
  5
45FDF
100
AcDbEntity
  8
0
100
AcDbVertex
100
AcDbPolygonMeshVertex
 10
3.784994
 20
-0.557025
 30
3.05
 70
    64
  0
VERTEX
  5
45FE0
100
AcDbEntity
  8
0
100
AcDbVertex
100
AcDbPolygonMeshVertex
 10
3.784994
 20
-0.557025
 30
0.05
 70
    64
  0
VERTEX
  5
45FE1
100
AcDbEntity
  8
0
100
AcDbVertex
100
AcDbPolygonMeshVertex
 10
3.784994
 20
-0.482025
 30
0.05
 70
    64
  0
VERTEX
  5
45FE2
100
AcDbEntity
  8
0
100
AcDbVertex
100
AcDbPolygonMeshVertex
 10
3.784994
 20
-0.557025
 30
3.05
 70
    64
  0
VERTEX
  5
45FE3
100
AcDbEntity
  8
0
100
AcDbVertex
100
AcDbPolygonMeshVertex
 10
3.784994
 20
-0.557025
 30
3.05
 70
    64
  0
VERTEX
  5
45FE4
100
AcDbEntity
  8
0
100
AcDbVertex
100
AcDbPolygonMeshVertex
 10
3.784994
 20
-0.482025
 30
3.05
 70
    64
  0
VERTEX
  5
45FE5
100
AcDbEntity
  8
0
100
AcDbVertex
100
AcDbPolygonMeshVertex
 10
3.694994
 20
-0.557025
 30
3.05
 70
    64
  0
VERTEX
  5
45FE6
100
AcDbEntity
  8
0
100
AcDbVertex
100
AcDbPolygonMeshVertex
 10
3.694994
 20
-0.557025
 30
3.05
 70
    64
  0
VERTEX
  5
45FE7
100
AcDbEntity
  8
0
100
AcDbVertex
100
AcDbPolygonMeshVertex
 10
3.694994
 20
-0.482025
 30
3.05
 70
    64
  0
SEQEND
  5
45FE8
100
AcDbEntity
  8
0
  0
POLYLINE
  5
45FE9
100
AcDbEntity
  8
0
100
AcDbPolygonMesh
 66
     1
 10
0.0
 20
0.0
 30
0.0
 70
    16
 71
     6
 72
     3
  0
VERTEX
  5
45FEA
100
AcDbEntity
  8
0
100
AcDbVertex
100
AcDbPolygonMeshVertex
 10
3.884994
 20
-0.482025
 30
3.05
 70
    64
  0
VERTEX
  5
45FEB
100
AcDbEntity
  8
0
100
AcDbVertex
100
AcDbPolygonMeshVertex
 10
3.884994
 20
-0.482025
 30
0.05
 70
    64
  0
VERTEX
  5
45FEC
100
AcDbEntity
  8
0
100
AcDbVertex
100
AcDbPolygonMeshVertex
 10
3.884994
 20
-0.482025
 30
0.05
 70
    64
  0
VERTEX
  5
45FED
100
AcDbEntity
  8
0
100
AcDbVertex
100
AcDbPolygonMeshVertex
 10
3.784994
 20
-0.482025
 30
3.05
 70
    64
  0
VERTEX
  5
45FEE
100
AcDbEntity
  8
0
100
AcDbVertex
100
AcDbPolygonMeshVertex
 10
3.784994
 20
-0.482025
 30
0.05
 70
    64
  0
VERTEX
  5
45FEF
100
AcDbEntity
  8
0
100
AcDbVertex
100
AcDbPolygonMeshVertex
 10
3.784994
 20
-0.482025
 30
0.05
 70
    64
  0
VERTEX
  5
45FF0
100
AcDbEntity
  8
0
100
AcDbVertex
100
AcDbPolygonMeshVertex
 10
3.784994
 20
-0.682025
 30
3.05
 70
    64
  0
VERTEX
  5
45FF1
100
AcDbEntity
  8
0
100
AcDbVertex
100
AcDbPolygonMeshVertex
 10
3.784994
 20
-0.682025
 30
0.05
 70
    64
  0
VERTEX
  5
45FF2
100
AcDbEntity
  8
0
100
AcDbVertex
100
AcDbPolygonMeshVertex
 10
3.784994
 20
-0.482025
 30
0.05
 70
    64
  0
VERTEX
  5
45FF3
100
AcDbEntity
  8
0
100
AcDbVertex
100
AcDbPolygonMeshVertex
 10
3.884994
 20
-0.682025
 30
3.05
 70
    64
  0
VERTEX
  5
45FF4
100
AcDbEntity
  8
0
100
AcDbVertex
100
AcDbPolygonMeshVertex
 10
3.884994
 20
-0.682025
 30
0.05
 70
    64
  0
VERTEX
  5
45FF5
100
AcDbEntity
  8
0
100
AcDbVertex
100
AcDbPolygonMeshVertex
 10
3.884994
 20
-0.482025
 30
0.05
 70
    64
  0
VERTEX
  5
45FF6
100
AcDbEntity
  8
0
100
AcDbVertex
100
AcDbPolygonMeshVertex
 10
3.884994
 20
-0.682025
 30
3.05
 70
    64
  0
VERTEX
  5
45FF7
100
AcDbEntity
  8
0
100
AcDbVertex
100
AcDbPolygonMeshVertex
 10
3.884994
 20
-0.682025
 30
3.05
 70
    64
  0
VERTEX
  5
45FF8
100
AcDbEntity
  8
0
100
AcDbVertex
100
AcDbPolygonMeshVertex
 10
3.884994
 20
-0.482025
 30
3.05
 70
    64
  0
VERTEX
  5
45FF9
100
AcDbEntity
  8
0
100
AcDbVertex
100
AcDbPolygonMeshVertex
 10
3.784994
 20
-0.682025
 30
3.05
 70
    64
  0
VERTEX
  5
45FFA
100
AcDbEntity
  8
0
100
AcDbVertex
100
AcDbPolygonMeshVertex
 10
3.784994
 20
-0.682025
 30
3.05
 70
    64
  0
VERTEX
  5
45FFB
100
AcDbEntity
  8
0
100
AcDbVertex
100
AcDbPolygonMeshVertex
 10
3.784994
 20
-0.482025
 30
3.05
 70
    64
  0
SEQEND
  5
45FFC
100
AcDbEntity
  8
0
  0
POLYLINE
  5
45FFD
100
AcDbEntity
  8
0
100
AcDbPolygonMesh
 66
     1
 10
0.0
 20
0.0
 30
0.0
 70
    16
 71
     6
 72
     3
  0
VERTEX
  5
45FFE
100
AcDbEntity
  8
0
100
AcDbVertex
100
AcDbPolygonMeshVertex
 10
3.694994
 20
-0.482025
 30
3.05
 70
    64
  0
VERTEX
  5
45FFF
100
AcDbEntity
  8
0
100
AcDbVertex
100
AcDbPolygonMeshVertex
 10
3.694994
 20
-0.482025
 30
0.05
 70
    64
  0
VERTEX
  5
46000
100
AcDbEntity
  8
0
100
AcDbVertex
100
AcDbPolygonMeshVertex
 10
3.694994
 20
-0.482025
 30
0.05
 70
    64
  0
VERTEX
  5
46001
100
AcDbEntity
  8
0
100
AcDbVertex
100
AcDbPolygonMeshVertex
 10
3.594994
 20
-0.482025
 30
3.05
 70
    64
  0
VERTEX
  5
46002
100
AcDbEntity
  8
0
100
AcDbVertex
100
AcDbPolygonMeshVertex
 10
3.594994
 20
-0.482025
 30
0.05
 70
    64
  0
VERTEX
  5
46003
100
AcDbEntity
  8
0
100
AcDbVertex
100
AcDbPolygonMeshVertex
 10
3.594994
 20
-0.482025
 30
0.05
 70
    64
  0
VERTEX
  5
46004
100
AcDbEntity
  8
0
100
AcDbVertex
100
AcDbPolygonMeshVertex
 10
3.594994
 20
-0.682025
 30
3.05
 70
    64
  0
VERTEX
  5
46005
100
AcDbEntity
  8
0
100
AcDbVertex
100
AcDbPolygonMeshVertex
 10
3.594994
 20
-0.682025
 30
0.05
 70
    64
  0
VERTEX
  5
46006
100
AcDbEntity
  8
0
100
AcDbVertex
100
AcDbPolygonMeshVertex
 10
3.594994
 20
-0.482025
 30
0.05
 70
    64
  0
VERTEX
  5
46007
100
AcDbEntity
  8
0
100
AcDbVertex
100
AcDbPolygonMeshVertex
 10
3.694994
 20
-0.682025
 30
3.05
 70
    64
  0
VERTEX
  5
46008
100
AcDbEntity
  8
0
100
AcDbVertex
100
AcDbPolygonMeshVertex
 10
3.694994
 20
-0.682025
 30
0.05
 70
    64
  0
VERTEX
  5
46009
100
AcDbEntity
  8
0
100
AcDbVertex
100
AcDbPolygonMeshVertex
 10
3.694994
 20
-0.482025
 30
0.05
 70
    64
  0
VERTEX
  5
4600A
100
AcDbEntity
  8
0
100
AcDbVertex
100
AcDbPolygonMeshVertex
 10
3.694994
 20
-0.682025
 30
3.05
 70
    64
  0
VERTEX
  5
4600B
100
AcDbEntity
  8
0
100
AcDbVertex
100
AcDbPolygonMeshVertex
 10
3.694994
 20
-0.682025
 30
3.05
 70
    64
  0
VERTEX
  5
4600C
100
AcDbEntity
  8
0
100
AcDbVertex
100
AcDbPolygonMeshVertex
 10
3.694994
 20
-0.482025
 30
3.05
 70
    64
  0
VERTEX
  5
4600D
100
AcDbEntity
  8
0
100
AcDbVertex
100
AcDbPolygonMeshVertex
 10
3.594994
 20
-0.682025
 30
3.05
 70
    64
  0
VERTEX
  5
4600E
100
AcDbEntity
  8
0
100
AcDbVertex
100
AcDbPolygonMeshVertex
 10
3.594994
 20
-0.682025
 30
3.05
 70
    64
  0
VERTEX
  5
4600F
100
AcDbEntity
  8
0
100
AcDbVertex
100
AcDbPolygonMeshVertex
 10
3.594994
 20
-0.482025
 30
3.05
 70
    64
  0
SEQEND
  5
46010
100
AcDbEntity
  8
0
  0
POLYLINE
  5
46011
100
AcDbEntity
  8
0
100
AcDbPolygonMesh
 66
     1
 10
0.0
 20
0.0
 30
0.0
 70
    16
 71
     6
 72
     3
  0
VERTEX
  5
46012
100
AcDbEntity
  8
0
100
AcDbVertex
100
AcDbPolygonMeshVertex
 10
4.53
 20
-5.92
 30
5.71
 70
    64
  0
VERTEX
  5
46013
100
AcDbEntity
  8
0
100
AcDbVertex
100
AcDbPolygonMeshVertex
 10
4.53
 20
-5.92
 30
0.0
 70
    64
  0
VERTEX
  5
46014
100
AcDbEntity
  8
0
100
AcDbVertex
100
AcDbPolygonMeshVertex
 10
4.53
 20
-5.92
 30
0.0
 70
    64
  0
VERTEX
  5
46015
100
AcDbEntity
  8
0
100
AcDbVertex
100
AcDbPolygonMeshVertex
 10
4.13
 20
-5.92
 30
5.71
 70
    64
  0
VERTEX
  5
46016
100
AcDbEntity
  8
0
100
AcDbVertex
100
AcDbPolygonMeshVertex
 10
4.13
 20
-5.92
 30
0.0
 70
    64
  0
VERTEX
  5
46017
100
AcDbEntity
  8
0
100
AcDbVertex
100
AcDbPolygonMeshVertex
 10
4.13
 20
-5.92
 30
0.0
 70
    64
  0
VERTEX
  5
46018
100
AcDbEntity
  8
0
100
AcDbVertex
100
AcDbPolygonMeshVertex
 10
4.13
 20
-0.41
 30
5.71
 70
    64
  0
VERTEX
  5
46019
100
AcDbEntity
  8
0
100
AcDbVertex
100
AcDbPolygonMeshVertex
 10
4.13
 20
-0.41
 30
0.0
 70
    64
  0
VERTEX
  5
4601A
100
AcDbEntity
  8
0
100
AcDbVertex
100
AcDbPolygonMeshVertex
 10
4.13
 20
-5.92
 30
0.0
 70
    64
  0
VERTEX
  5
4601B
100
AcDbEntity
  8
0
100
AcDbVertex
100
AcDbPolygonMeshVertex
 10
4.53
 20
-0.41
 30
5.71
 70
    64
  0
VERTEX
  5
4601C
100
AcDbEntity
  8
0
100
AcDbVertex
100
AcDbPolygonMeshVertex
 10
4.53
 20
-0.41
 30
0.0
 70
    64
  0
VERTEX
  5
4601D
100
AcDbEntity
  8
0
100
AcDbVertex
100
AcDbPolygonMeshVertex
 10
4.53
 20
-5.92
 30
0.0
 70
    64
  0
VERTEX
  5
4601E
100
AcDbEntity
  8
0
100
AcDbVertex
100
AcDbPolygonMeshVertex
 10
4.53
 20
-0.41
 30
5.71
 70
    64
  0
VERTEX
  5
4601F
100
AcDbEntity
  8
0
100
AcDbVertex
100
AcDbPolygonMeshVertex
 10
4.53
 20
-0.41
 30
5.71
 70
    64
  0
VERTEX
  5
46020
100
AcDbEntity
  8
0
100
AcDbVertex
100
AcDbPolygonMeshVertex
 10
4.53
 20
-5.92
 30
5.71
 70
    64
  0
VERTEX
  5
46021
100
AcDbEntity
  8
0
100
AcDbVertex
100
AcDbPolygonMeshVertex
 10
4.13
 20
-0.41
 30
5.71
 70
    64
  0
VERTEX
  5
46022
100
AcDbEntity
  8
0
100
AcDbVertex
100
AcDbPolygonMeshVertex
 10
4.13
 20
-0.41
 30
5.71
 70
    64
  0
VERTEX
  5
46023
100
AcDbEntity
  8
0
100
AcDbVertex
100
AcDbPolygonMeshVertex
 10
4.13
 20
-5.92
 30
5.71
 70
    64
  0
SEQEND
  5
46024
100
AcDbEntity
  8
0
  0
POLYLINE
  5
46025
100
AcDbEntity
  8
0
100
AcDbPolygonMesh
 66
     1
 10
0.0
 20
0.0
 30
0.0
 70
    16
 71
     6
 72
     3
  0
VERTEX
  5
46026
100
AcDbEntity
  8
0
100
AcDbVertex
100
AcDbPolygonMeshVertex
 10
3.694994
 20
-5.847975
 30
3.05
 70
    64
  0
VERTEX
  5
46027
100
AcDbEntity
  8
0
100
AcDbVertex
100
AcDbPolygonMeshVertex
 10
3.694994
 20
-5.847975
 30
0.05
 70
    64
  0
VERTEX
  5
46028
100
AcDbEntity
  8
0
100
AcDbVertex
100
AcDbPolygonMeshVertex
 10
3.694994
 20
-5.847975
 30
0.05
 70
    64
  0
VERTEX
  5
46029
100
AcDbEntity
  8
0
100
AcDbVertex
100
AcDbPolygonMeshVertex
 10
3.594994
 20
-5.847975
 30
3.05
 70
    64
  0
VERTEX
  5
4602A
100
AcDbEntity
  8
0
100
AcDbVertex
100
AcDbPolygonMeshVertex
 10
3.594994
 20
-5.847975
 30
0.05
 70
    64
  0
VERTEX
  5
4602B
100
AcDbEntity
  8
0
100
AcDbVertex
100
AcDbPolygonMeshVertex
 10
3.594994
 20
-5.847975
 30
0.05
 70
    64
  0
VERTEX
  5
4602C
100
AcDbEntity
  8
0
100
AcDbVertex
100
AcDbPolygonMeshVertex
 10
3.594994
 20
-5.647975
 30
3.05
 70
    64
  0
VERTEX
  5
4602D
100
AcDbEntity
  8
0
100
AcDbVertex
100
AcDbPolygonMeshVertex
 10
3.594994
 20
-5.647975
 30
0.05
 70
    64
  0
VERTEX
  5
4602E
100
AcDbEntity
  8
0
100
AcDbVertex
100
AcDbPolygonMeshVertex
 10
3.594994
 20
-5.847975
 30
0.05
 70
    64
  0
VERTEX
  5
4602F
100
AcDbEntity
  8
0
100
AcDbVertex
100
AcDbPolygonMeshVertex
 10
3.694994
 20
-5.647975
 30
3.05
 70
    64
  0
VERTEX
  5
46030
100
AcDbEntity
  8
0
100
AcDbVertex
100
AcDbPolygonMeshVertex
 10
3.694994
 20
-5.647975
 30
0.05
 70
    64
  0
VERTEX
  5
46031
100
AcDbEntity
  8
0
100
AcDbVertex
100
AcDbPolygonMeshVertex
 10
3.694994
 20
-5.847975
 30
0.05
 70
    64
  0
VERTEX
  5
46032
100
AcDbEntity
  8
0
100
AcDbVertex
100
AcDbPolygonMeshVertex
 10
3.694994
 20
-5.647975
 30
3.05
 70
    64
  0
VERTEX
  5
46033
100
AcDbEntity
  8
0
100
AcDbVertex
100
AcDbPolygonMeshVertex
 10
3.694994
 20
-5.647975
 30
3.05
 70
    64
  0
VERTEX
  5
46034
100
AcDbEntity
  8
0
100
AcDbVertex
100
AcDbPolygonMeshVertex
 10
3.694994
 20
-5.847975
 30
3.05
 70
    64
  0
VERTEX
  5
46035
100
AcDbEntity
  8
0
100
AcDbVertex
100
AcDbPolygonMeshVertex
 10
3.594994
 20
-5.647975
 30
3.05
 70
    64
  0
VERTEX
  5
46036
100
AcDbEntity
  8
0
100
AcDbVertex
100
AcDbPolygonMeshVertex
 10
3.594994
 20
-5.647975
 30
3.05
 70
    64
  0
VERTEX
  5
46037
100
AcDbEntity
  8
0
100
AcDbVertex
100
AcDbPolygonMeshVertex
 10
3.594994
 20
-5.847975
 30
3.05
 70
    64
  0
SEQEND
  5
46038
100
AcDbEntity
  8
0
  0
POLYLINE
  5
46039
100
AcDbEntity
  8
0
100
AcDbPolygonMesh
 66
     1
 10
0.0
 20
0.0
 30
0.0
 70
    16
 71
     6
 72
     3
  0
VERTEX
  5
4603A
100
AcDbEntity
  8
0
100
AcDbVertex
100
AcDbPolygonMeshVertex
 10
3.884994
 20
-5.847975
 30
3.05
 70
    64
  0
VERTEX
  5
4603B
100
AcDbEntity
  8
0
100
AcDbVertex
100
AcDbPolygonMeshVertex
 10
3.884994
 20
-5.847975
 30
0.05
 70
    64
  0
VERTEX
  5
4603C
100
AcDbEntity
  8
0
100
AcDbVertex
100
AcDbPolygonMeshVertex
 10
3.884994
 20
-5.847975
 30
0.05
 70
    64
  0
VERTEX
  5
4603D
100
AcDbEntity
  8
0
100
AcDbVertex
100
AcDbPolygonMeshVertex
 10
3.784994
 20
-5.847975
 30
3.05
 70
    64
  0
VERTEX
  5
4603E
100
AcDbEntity
  8
0
100
AcDbVertex
100
AcDbPolygonMeshVertex
 10
3.784994
 20
-5.847975
 30
0.05
 70
    64
  0
VERTEX
  5
4603F
100
AcDbEntity
  8
0
100
AcDbVertex
100
AcDbPolygonMeshVertex
 10
3.784994
 20
-5.847975
 30
0.05
 70
    64
  0
VERTEX
  5
46040
100
AcDbEntity
  8
0
100
AcDbVertex
100
AcDbPolygonMeshVertex
 10
3.784994
 20
-5.647975
 30
3.05
 70
    64
  0
VERTEX
  5
46041
100
AcDbEntity
  8
0
100
AcDbVertex
100
AcDbPolygonMeshVertex
 10
3.784994
 20
-5.647975
 30
0.05
 70
    64
  0
VERTEX
  5
46042
100
AcDbEntity
  8
0
100
AcDbVertex
100
AcDbPolygonMeshVertex
 10
3.784994
 20
-5.847975
 30
0.05
 70
    64
  0
VERTEX
  5
46043
100
AcDbEntity
  8
0
100
AcDbVertex
100
AcDbPolygonMeshVertex
 10
3.884994
 20
-5.647975
 30
3.05
 70
    64
  0
VERTEX
  5
46044
100
AcDbEntity
  8
0
100
AcDbVertex
100
AcDbPolygonMeshVertex
 10
3.884994
 20
-5.647975
 30
0.05
 70
    64
  0
VERTEX
  5
46045
100
AcDbEntity
  8
0
100
AcDbVertex
100
AcDbPolygonMeshVertex
 10
3.884994
 20
-5.847975
 30
0.05
 70
    64
  0
VERTEX
  5
46046
100
AcDbEntity
  8
0
100
AcDbVertex
100
AcDbPolygonMeshVertex
 10
3.884994
 20
-5.647975
 30
3.05
 70
    64
  0
VERTEX
  5
46047
100
AcDbEntity
  8
0
100
AcDbVertex
100
AcDbPolygonMeshVertex
 10
3.884994
 20
-5.647975
 30
3.05
 70
    64
  0
VERTEX
  5
46048
100
AcDbEntity
  8
0
100
AcDbVertex
100
AcDbPolygonMeshVertex
 10
3.884994
 20
-5.847975
 30
3.05
 70
    64
  0
VERTEX
  5
46049
100
AcDbEntity
  8
0
100
AcDbVertex
100
AcDbPolygonMeshVertex
 10
3.784994
 20
-5.647975
 30
3.05
 70
    64
  0
VERTEX
  5
4604A
100
AcDbEntity
  8
0
100
AcDbVertex
100
AcDbPolygonMeshVertex
 10
3.784994
 20
-5.647975
 30
3.05
 70
    64
  0
VERTEX
  5
4604B
100
AcDbEntity
  8
0
100
AcDbVertex
100
AcDbPolygonMeshVertex
 10
3.784994
 20
-5.847975
 30
3.05
 70
    64
  0
SEQEND
  5
4604C
100
AcDbEntity
  8
0
  0
POLYLINE
  5
4604D
100
AcDbEntity
  8
0
100
AcDbPolygonMesh
 66
     1
 10
0.0
 20
0.0
 30
0.0
 70
    16
 71
     6
 72
     3
  0
VERTEX
  5
4604E
100
AcDbEntity
  8
0
100
AcDbVertex
100
AcDbPolygonMeshVertex
 10
3.784994
 20
-5.847975
 30
3.05
 70
    64
  0
VERTEX
  5
4604F
100
AcDbEntity
  8
0
100
AcDbVertex
100
AcDbPolygonMeshVertex
 10
3.784994
 20
-5.847975
 30
0.05
 70
    64
  0
VERTEX
  5
46050
100
AcDbEntity
  8
0
100
AcDbVertex
100
AcDbPolygonMeshVertex
 10
3.784994
 20
-5.847975
 30
0.05
 70
    64
  0
VERTEX
  5
46051
100
AcDbEntity
  8
0
100
AcDbVertex
100
AcDbPolygonMeshVertex
 10
3.694994
 20
-5.847975
 30
3.05
 70
    64
  0
VERTEX
  5
46052
100
AcDbEntity
  8
0
100
AcDbVertex
100
AcDbPolygonMeshVertex
 10
3.694994
 20
-5.847975
 30
0.05
 70
    64
  0
VERTEX
  5
46053
100
AcDbEntity
  8
0
100
AcDbVertex
100
AcDbPolygonMeshVertex
 10
3.694994
 20
-5.847975
 30
0.05
 70
    64
  0
VERTEX
  5
46054
100
AcDbEntity
  8
0
100
AcDbVertex
100
AcDbPolygonMeshVertex
 10
3.694994
 20
-5.772975
 30
3.05
 70
    64
  0
VERTEX
  5
46055
100
AcDbEntity
  8
0
100
AcDbVertex
100
AcDbPolygonMeshVertex
 10
3.694994
 20
-5.772975
 30
0.05
 70
    64
  0
VERTEX
  5
46056
100
AcDbEntity
  8
0
100
AcDbVertex
100
AcDbPolygonMeshVertex
 10
3.694994
 20
-5.847975
 30
0.05
 70
    64
  0
VERTEX
  5
46057
100
AcDbEntity
  8
0
100
AcDbVertex
100
AcDbPolygonMeshVertex
 10
3.784994
 20
-5.772975
 30
3.05
 70
    64
  0
VERTEX
  5
46058
100
AcDbEntity
  8
0
100
AcDbVertex
100
AcDbPolygonMeshVertex
 10
3.784994
 20
-5.772975
 30
0.05
 70
    64
  0
VERTEX
  5
46059
100
AcDbEntity
  8
0
100
AcDbVertex
100
AcDbPolygonMeshVertex
 10
3.784994
 20
-5.847975
 30
0.05
 70
    64
  0
VERTEX
  5
4605A
100
AcDbEntity
  8
0
100
AcDbVertex
100
AcDbPolygonMeshVertex
 10
3.784994
 20
-5.772975
 30
3.05
 70
    64
  0
VERTEX
  5
4605B
100
AcDbEntity
  8
0
100
AcDbVertex
100
AcDbPolygonMeshVertex
 10
3.784994
 20
-5.772975
 30
3.05
 70
    64
  0
VERTEX
  5
4605C
100
AcDbEntity
  8
0
100
AcDbVertex
100
AcDbPolygonMeshVertex
 10
3.784994
 20
-5.847975
 30
3.05
 70
    64
  0
VERTEX
  5
4605D
100
AcDbEntity
  8
0
100
AcDbVertex
100
AcDbPolygonMeshVertex
 10
3.694994
 20
-5.772975
 30
3.05
 70
    64
  0
VERTEX
  5
4605E
100
AcDbEntity
  8
0
100
AcDbVertex
100
AcDbPolygonMeshVertex
 10
3.694994
 20
-5.772975
 30
3.05
 70
    64
  0
VERTEX
  5
4605F
100
AcDbEntity
  8
0
100
AcDbVertex
100
AcDbPolygonMeshVertex
 10
3.694994
 20
-5.847975
 30
3.05
 70
    64
  0
SEQEND
  5
46060
100
AcDbEntity
  8
0
  0
POLYLINE
  5
46061
100
AcDbEntity
  8
0
100
AcDbPolygonMesh
 66
     1
 10
0.0
 20
0.0
 30
0.0
 70
    16
 71
     6
 72
     3
  0
VERTEX
  5
46062
100
AcDbEntity
  8
0
100
AcDbVertex
100
AcDbPolygonMeshVertex
 10
2.409994
 20
-5.847975
 30
3.05
 70
    64
  0
VERTEX
  5
46063
100
AcDbEntity
  8
0
100
AcDbVertex
100
AcDbPolygonMeshVertex
 10
2.409994
 20
-5.847975
 30
0.05
 70
    64
  0
VERTEX
  5
46064
100
AcDbEntity
  8
0
100
AcDbVertex
100
AcDbPolygonMeshVertex
 10
2.409994
 20
-5.847975
 30
0.05
 70
    64
  0
VERTEX
  5
46065
100
AcDbEntity
  8
0
100
AcDbVertex
100
AcDbPolygonMeshVertex
 10
2.319994
 20
-5.847975
 30
3.05
 70
    64
  0
VERTEX
  5
46066
100
AcDbEntity
  8
0
100
AcDbVertex
100
AcDbPolygonMeshVertex
 10
2.319994
 20
-5.847975
 30
0.05
 70
    64
  0
VERTEX
  5
46067
100
AcDbEntity
  8
0
100
AcDbVertex
100
AcDbPolygonMeshVertex
 10
2.319994
 20
-5.847975
 30
0.05
 70
    64
  0
VERTEX
  5
46068
100
AcDbEntity
  8
0
100
AcDbVertex
100
AcDbPolygonMeshVertex
 10
2.319994
 20
-5.772975
 30
3.05
 70
    64
  0
VERTEX
  5
46069
100
AcDbEntity
  8
0
100
AcDbVertex
100
AcDbPolygonMeshVertex
 10
2.319994
 20
-5.772975
 30
0.05
 70
    64
  0
VERTEX
  5
4606A
100
AcDbEntity
  8
0
100
AcDbVertex
100
AcDbPolygonMeshVertex
 10
2.319994
 20
-5.847975
 30
0.05
 70
    64
  0
VERTEX
  5
4606B
100
AcDbEntity
  8
0
100
AcDbVertex
100
AcDbPolygonMeshVertex
 10
2.409994
 20
-5.772975
 30
3.05
 70
    64
  0
VERTEX
  5
4606C
100
AcDbEntity
  8
0
100
AcDbVertex
100
AcDbPolygonMeshVertex
 10
2.409994
 20
-5.772975
 30
0.05
 70
    64
  0
VERTEX
  5
4606D
100
AcDbEntity
  8
0
100
AcDbVertex
100
AcDbPolygonMeshVertex
 10
2.409994
 20
-5.847975
 30
0.05
 70
    64
  0
VERTEX
  5
4606E
100
AcDbEntity
  8
0
100
AcDbVertex
100
AcDbPolygonMeshVertex
 10
2.409994
 20
-5.772975
 30
3.05
 70
    64
  0
VERTEX
  5
4606F
100
AcDbEntity
  8
0
100
AcDbVertex
100
AcDbPolygonMeshVertex
 10
2.409994
 20
-5.772975
 30
3.05
 70
    64
  0
VERTEX
  5
46070
100
AcDbEntity
  8
0
100
AcDbVertex
100
AcDbPolygonMeshVertex
 10
2.409994
 20
-5.847975
 30
3.05
 70
    64
  0
VERTEX
  5
46071
100
AcDbEntity
  8
0
100
AcDbVertex
100
AcDbPolygonMeshVertex
 10
2.319994
 20
-5.772975
 30
3.05
 70
    64
  0
VERTEX
  5
46072
100
AcDbEntity
  8
0
100
AcDbVertex
100
AcDbPolygonMeshVertex
 10
2.319994
 20
-5.772975
 30
3.05
 70
    64
  0
VERTEX
  5
46073
100
AcDbEntity
  8
0
100
AcDbVertex
100
AcDbPolygonMeshVertex
 10
2.319994
 20
-5.847975
 30
3.05
 70
    64
  0
SEQEND
  5
46074
100
AcDbEntity
  8
0
  0
POLYLINE
  5
46075
100
AcDbEntity
  8
0
100
AcDbPolygonMesh
 66
     1
 10
0.0
 20
0.0
 30
0.0
 70
    16
 71
     6
 72
     3
  0
VERTEX
  5
46076
100
AcDbEntity
  8
0
100
AcDbVertex
100
AcDbPolygonMeshVertex
 10
2.509994
 20
-5.847975
 30
3.05
 70
    64
  0
VERTEX
  5
46077
100
AcDbEntity
  8
0
100
AcDbVertex
100
AcDbPolygonMeshVertex
 10
2.509994
 20
-5.847975
 30
0.05
 70
    64
  0
VERTEX
  5
46078
100
AcDbEntity
  8
0
100
AcDbVertex
100
AcDbPolygonMeshVertex
 10
2.509994
 20
-5.847975
 30
0.05
 70
    64
  0
VERTEX
  5
46079
100
AcDbEntity
  8
0
100
AcDbVertex
100
AcDbPolygonMeshVertex
 10
2.409994
 20
-5.847975
 30
3.05
 70
    64
  0
VERTEX
  5
4607A
100
AcDbEntity
  8
0
100
AcDbVertex
100
AcDbPolygonMeshVertex
 10
2.409994
 20
-5.847975
 30
0.05
 70
    64
  0
VERTEX
  5
4607B
100
AcDbEntity
  8
0
100
AcDbVertex
100
AcDbPolygonMeshVertex
 10
2.409994
 20
-5.847975
 30
0.05
 70
    64
  0
VERTEX
  5
4607C
100
AcDbEntity
  8
0
100
AcDbVertex
100
AcDbPolygonMeshVertex
 10
2.409994
 20
-5.647975
 30
3.05
 70
    64
  0
VERTEX
  5
4607D
100
AcDbEntity
  8
0
100
AcDbVertex
100
AcDbPolygonMeshVertex
 10
2.409994
 20
-5.647975
 30
0.05
 70
    64
  0
VERTEX
  5
4607E
100
AcDbEntity
  8
0
100
AcDbVertex
100
AcDbPolygonMeshVertex
 10
2.409994
 20
-5.847975
 30
0.05
 70
    64
  0
VERTEX
  5
4607F
100
AcDbEntity
  8
0
100
AcDbVertex
100
AcDbPolygonMeshVertex
 10
2.509994
 20
-5.647975
 30
3.05
 70
    64
  0
VERTEX
  5
46080
100
AcDbEntity
  8
0
100
AcDbVertex
100
AcDbPolygonMeshVertex
 10
2.509994
 20
-5.647975
 30
0.05
 70
    64
  0
VERTEX
  5
46081
100
AcDbEntity
  8
0
100
AcDbVertex
100
AcDbPolygonMeshVertex
 10
2.509994
 20
-5.847975
 30
0.05
 70
    64
  0
VERTEX
  5
46082
100
AcDbEntity
  8
0
100
AcDbVertex
100
AcDbPolygonMeshVertex
 10
2.509994
 20
-5.647975
 30
3.05
 70
    64
  0
VERTEX
  5
46083
100
AcDbEntity
  8
0
100
AcDbVertex
100
AcDbPolygonMeshVertex
 10
2.509994
 20
-5.647975
 30
3.05
 70
    64
  0
VERTEX
  5
46084
100
AcDbEntity
  8
0
100
AcDbVertex
100
AcDbPolygonMeshVertex
 10
2.509994
 20
-5.847975
 30
3.05
 70
    64
  0
VERTEX
  5
46085
100
AcDbEntity
  8
0
100
AcDbVertex
100
AcDbPolygonMeshVertex
 10
2.409994
 20
-5.647975
 30
3.05
 70
    64
  0
VERTEX
  5
46086
100
AcDbEntity
  8
0
100
AcDbVertex
100
AcDbPolygonMeshVertex
 10
2.409994
 20
-5.647975
 30
3.05
 70
    64
  0
VERTEX
  5
46087
100
AcDbEntity
  8
0
100
AcDbVertex
100
AcDbPolygonMeshVertex
 10
2.409994
 20
-5.847975
 30
3.05
 70
    64
  0
SEQEND
  5
46088
100
AcDbEntity
  8
0
  0
POLYLINE
  5
46089
100
AcDbEntity
  8
0
100
AcDbPolygonMesh
 66
     1
 10
0.0
 20
0.0
 30
0.0
 70
    16
 71
     6
 72
     3
  0
VERTEX
  5
4608A
100
AcDbEntity
  8
0
100
AcDbVertex
100
AcDbPolygonMeshVertex
 10
2.319994
 20
-5.847975
 30
3.05
 70
    64
  0
VERTEX
  5
4608B
100
AcDbEntity
  8
0
100
AcDbVertex
100
AcDbPolygonMeshVertex
 10
2.319994
 20
-5.847975
 30
0.05
 70
    64
  0
VERTEX
  5
4608C
100
AcDbEntity
  8
0
100
AcDbVertex
100
AcDbPolygonMeshVertex
 10
2.319994
 20
-5.847975
 30
0.05
 70
    64
  0
VERTEX
  5
4608D
100
AcDbEntity
  8
0
100
AcDbVertex
100
AcDbPolygonMeshVertex
 10
2.219994
 20
-5.847975
 30
3.05
 70
    64
  0
VERTEX
  5
4608E
100
AcDbEntity
  8
0
100
AcDbVertex
100
AcDbPolygonMeshVertex
 10
2.219994
 20
-5.847975
 30
0.05
 70
    64
  0
VERTEX
  5
4608F
100
AcDbEntity
  8
0
100
AcDbVertex
100
AcDbPolygonMeshVertex
 10
2.219994
 20
-5.847975
 30
0.05
 70
    64
  0
VERTEX
  5
46090
100
AcDbEntity
  8
0
100
AcDbVertex
100
AcDbPolygonMeshVertex
 10
2.219994
 20
-5.647975
 30
3.05
 70
    64
  0
VERTEX
  5
46091
100
AcDbEntity
  8
0
100
AcDbVertex
100
AcDbPolygonMeshVertex
 10
2.219994
 20
-5.647975
 30
0.05
 70
    64
  0
VERTEX
  5
46092
100
AcDbEntity
  8
0
100
AcDbVertex
100
AcDbPolygonMeshVertex
 10
2.219994
 20
-5.847975
 30
0.05
 70
    64
  0
VERTEX
  5
46093
100
AcDbEntity
  8
0
100
AcDbVertex
100
AcDbPolygonMeshVertex
 10
2.319994
 20
-5.647975
 30
3.05
 70
    64
  0
VERTEX
  5
46094
100
AcDbEntity
  8
0
100
AcDbVertex
100
AcDbPolygonMeshVertex
 10
2.319994
 20
-5.647975
 30
0.05
 70
    64
  0
VERTEX
  5
46095
100
AcDbEntity
  8
0
100
AcDbVertex
100
AcDbPolygonMeshVertex
 10
2.319994
 20
-5.847975
 30
0.05
 70
    64
  0
VERTEX
  5
46096
100
AcDbEntity
  8
0
100
AcDbVertex
100
AcDbPolygonMeshVertex
 10
2.319994
 20
-5.647975
 30
3.05
 70
    64
  0
VERTEX
  5
46097
100
AcDbEntity
  8
0
100
AcDbVertex
100
AcDbPolygonMeshVertex
 10
2.319994
 20
-5.647975
 30
3.05
 70
    64
  0
VERTEX
  5
46098
100
AcDbEntity
  8
0
100
AcDbVertex
100
AcDbPolygonMeshVertex
 10
2.319994
 20
-5.847975
 30
3.05
 70
    64
  0
VERTEX
  5
46099
100
AcDbEntity
  8
0
100
AcDbVertex
100
AcDbPolygonMeshVertex
 10
2.219994
 20
-5.647975
 30
3.05
 70
    64
  0
VERTEX
  5
4609A
100
AcDbEntity
  8
0
100
AcDbVertex
100
AcDbPolygonMeshVertex
 10
2.219994
 20
-5.647975
 30
3.05
 70
    64
  0
VERTEX
  5
4609B
100
AcDbEntity
  8
0
100
AcDbVertex
100
AcDbPolygonMeshVertex
 10
2.219994
 20
-5.847975
 30
3.05
 70
    64
  0
SEQEND
  5
4609C
100
AcDbEntity
  8
0
  0
POLYLINE
  5
4609D
100
AcDbEntity
  8
0
100
AcDbPolygonMesh
 66
     1
 10
0.0
 20
0.0
 30
0.0
 70
    16
 71
     6
 72
     3
  0
VERTEX
  5
4609E
100
AcDbEntity
  8
0
100
AcDbVertex
100
AcDbPolygonMeshVertex
 10
2.36721
 20
-4.018178
 30
0.425
 70
    64
  0
VERTEX
  5
4609F
100
AcDbEntity
  8
0
100
AcDbVertex
100
AcDbPolygonMeshVertex
 10
2.36721
 20
-4.018178
 30
0.05
 70
    64
  0
VERTEX
  5
460A0
100
AcDbEntity
  8
0
100
AcDbVertex
100
AcDbPolygonMeshVertex
 10
2.36721
 20
-4.018178
 30
0.05
 70
    64
  0
VERTEX
  5
460A1
100
AcDbEntity
  8
0
100
AcDbVertex
100
AcDbPolygonMeshVertex
 10
2.076634
 20
-4.018178
 30
0.425
 70
    64
  0
VERTEX
  5
460A2
100
AcDbEntity
  8
0
100
AcDbVertex
100
AcDbPolygonMeshVertex
 10
2.076634
 20
-4.018178
 30
0.05
 70
    64
  0
VERTEX
  5
460A3
100
AcDbEntity
  8
0
100
AcDbVertex
100
AcDbPolygonMeshVertex
 10
2.076634
 20
-4.018178
 30
0.05
 70
    64
  0
VERTEX
  5
460A4
100
AcDbEntity
  8
0
100
AcDbVertex
100
AcDbPolygonMeshVertex
 10
2.076634
 20
-3.039199
 30
0.425
 70
    64
  0
VERTEX
  5
460A5
100
AcDbEntity
  8
0
100
AcDbVertex
100
AcDbPolygonMeshVertex
 10
2.076634
 20
-3.039199
 30
0.05
 70
    64
  0
VERTEX
  5
460A6
100
AcDbEntity
  8
0
100
AcDbVertex
100
AcDbPolygonMeshVertex
 10
2.076634
 20
-4.018178
 30
0.05
 70
    64
  0
VERTEX
  5
460A7
100
AcDbEntity
  8
0
100
AcDbVertex
100
AcDbPolygonMeshVertex
 10
2.36721
 20
-3.039199
 30
0.425
 70
    64
  0
VERTEX
  5
460A8
100
AcDbEntity
  8
0
100
AcDbVertex
100
AcDbPolygonMeshVertex
 10
2.36721
 20
-3.039199
 30
0.05
 70
    64
  0
VERTEX
  5
460A9
100
AcDbEntity
  8
0
100
AcDbVertex
100
AcDbPolygonMeshVertex
 10
2.36721
 20
-4.018178
 30
0.05
 70
    64
  0
VERTEX
  5
460AA
100
AcDbEntity
  8
0
100
AcDbVertex
100
AcDbPolygonMeshVertex
 10
2.36721
 20
-3.039199
 30
0.425
 70
    64
  0
VERTEX
  5
460AB
100
AcDbEntity
  8
0
100
AcDbVertex
100
AcDbPolygonMeshVertex
 10
2.36721
 20
-3.039199
 30
0.425
 70
    64
  0
VERTEX
  5
460AC
100
AcDbEntity
  8
0
100
AcDbVertex
100
AcDbPolygonMeshVertex
 10
2.36721
 20
-4.018178
 30
0.425
 70
    64
  0
VERTEX
  5
460AD
100
AcDbEntity
  8
0
100
AcDbVertex
100
AcDbPolygonMeshVertex
 10
2.076634
 20
-3.039199
 30
0.425
 70
    64
  0
VERTEX
  5
460AE
100
AcDbEntity
  8
0
100
AcDbVertex
100
AcDbPolygonMeshVertex
 10
2.076634
 20
-3.039199
 30
0.425
 70
    64
  0
VERTEX
  5
460AF
100
AcDbEntity
  8
0
100
AcDbVertex
100
AcDbPolygonMeshVertex
 10
2.076634
 20
-4.018178
 30
0.425
 70
    64
  0
SEQEND
  5
460B0
100
AcDbEntity
  8
0
  0
POLYLINE
  5
460B1
100
AcDbEntity
  8
0
100
AcDbPolygonMesh
 66
     1
 10
0.0
 20
0.0
 30
0.0
 70
    16
 71
     6
 72
     3
  0
VERTEX
  5
460B2
100
AcDbEntity
  8
0
100
AcDbVertex
100
AcDbPolygonMeshVertex
 10
3.680851
 20
-4.018178
 30
0.425
 70
    64
  0
VERTEX
  5
460B3
100
AcDbEntity
  8
0
100
AcDbVertex
100
AcDbPolygonMeshVertex
 10
3.680851
 20
-4.018178
 30
0.05
 70
    64
  0
VERTEX
  5
460B4
100
AcDbEntity
  8
0
100
AcDbVertex
100
AcDbPolygonMeshVertex
 10
3.680851
 20
-4.018178
 30
0.05
 70
    64
  0
VERTEX
  5
460B5
100
AcDbEntity
  8
0
100
AcDbVertex
100
AcDbPolygonMeshVertex
 10
3.390275
 20
-4.018178
 30
0.425
 70
    64
  0
VERTEX
  5
460B6
100
AcDbEntity
  8
0
100
AcDbVertex
100
AcDbPolygonMeshVertex
 10
3.390275
 20
-4.018178
 30
0.05
 70
    64
  0
VERTEX
  5
460B7
100
AcDbEntity
  8
0
100
AcDbVertex
100
AcDbPolygonMeshVertex
 10
3.390275
 20
-4.018178
 30
0.05
 70
    64
  0
VERTEX
  5
460B8
100
AcDbEntity
  8
0
100
AcDbVertex
100
AcDbPolygonMeshVertex
 10
3.390275
 20
-3.039199
 30
0.425
 70
    64
  0
VERTEX
  5
460B9
100
AcDbEntity
  8
0
100
AcDbVertex
100
AcDbPolygonMeshVertex
 10
3.390275
 20
-3.039199
 30
0.05
 70
    64
  0
VERTEX
  5
460BA
100
AcDbEntity
  8
0
100
AcDbVertex
100
AcDbPolygonMeshVertex
 10
3.390275
 20
-4.018178
 30
0.05
 70
    64
  0
VERTEX
  5
460BB
100
AcDbEntity
  8
0
100
AcDbVertex
100
AcDbPolygonMeshVertex
 10
3.680851
 20
-3.039199
 30
0.425
 70
    64
  0
VERTEX
  5
460BC
100
AcDbEntity
  8
0
100
AcDbVertex
100
AcDbPolygonMeshVertex
 10
3.680851
 20
-3.039199
 30
0.05
 70
    64
  0
VERTEX
  5
460BD
100
AcDbEntity
  8
0
100
AcDbVertex
100
AcDbPolygonMeshVertex
 10
3.680851
 20
-4.018178
 30
0.05
 70
    64
  0
VERTEX
  5
460BE
100
AcDbEntity
  8
0
100
AcDbVertex
100
AcDbPolygonMeshVertex
 10
3.680851
 20
-3.039199
 30
0.425
 70
    64
  0
VERTEX
  5
460BF
100
AcDbEntity
  8
0
100
AcDbVertex
100
AcDbPolygonMeshVertex
 10
3.680851
 20
-3.039199
 30
0.425
 70
    64
  0
VERTEX
  5
460C0
100
AcDbEntity
  8
0
100
AcDbVertex
100
AcDbPolygonMeshVertex
 10
3.680851
 20
-4.018178
 30
0.425
 70
    64
  0
VERTEX
  5
460C1
100
AcDbEntity
  8
0
100
AcDbVertex
100
AcDbPolygonMeshVertex
 10
3.390275
 20
-3.039199
 30
0.425
 70
    64
  0
VERTEX
  5
460C2
100
AcDbEntity
  8
0
100
AcDbVertex
100
AcDbPolygonMeshVertex
 10
3.390275
 20
-3.039199
 30
0.425
 70
    64
  0
VERTEX
  5
460C3
100
AcDbEntity
  8
0
100
AcDbVertex
100
AcDbPolygonMeshVertex
 10
3.390275
 20
-4.018178
 30
0.425
 70
    64
  0
SEQEND
  5
460C4
100
AcDbEntity
  8
0
  0
POLYLINE
  5
460C5
100
AcDbEntity
  8
0
100
AcDbPolygonMesh
 66
     1
 10
0.0
 20
0.0
 30
0.0
 70
    16
 71
     6
 72
     3
  0
VERTEX
  5
460C6
100
AcDbEntity
  8
0
100
AcDbVertex
100
AcDbPolygonMeshVertex
 10
2.977
 20
-6.47
 30
0.04
 70
    64
  0
VERTEX
  5
460C7
100
AcDbEntity
  8
0
100
AcDbVertex
100
AcDbPolygonMeshVertex
 10
2.977
 20
-6.47
 30
0.0
 70
    64
  0
VERTEX
  5
460C8
100
AcDbEntity
  8
0
100
AcDbVertex
100
AcDbPolygonMeshVertex
 10
2.977
 20
-6.47
 30
0.0
 70
    64
  0
VERTEX
  5
460C9
100
AcDbEntity
  8
0
100
AcDbVertex
100
AcDbPolygonMeshVertex
 10
2.543
 20
-6.47
 30
0.04
 70
    64
  0
VERTEX
  5
460CA
100
AcDbEntity
  8
0
100
AcDbVertex
100
AcDbPolygonMeshVertex
 10
2.543
 20
-6.47
 30
0.0
 70
    64
  0
VERTEX
  5
460CB
100
AcDbEntity
  8
0
100
AcDbVertex
100
AcDbPolygonMeshVertex
 10
2.543
 20
-6.47
 30
0.0
 70
    64
  0
VERTEX
  5
460CC
100
AcDbEntity
  8
0
100
AcDbVertex
100
AcDbPolygonMeshVertex
 10
2.543
 20
-5.92
 30
0.04
 70
    64
  0
VERTEX
  5
460CD
100
AcDbEntity
  8
0
100
AcDbVertex
100
AcDbPolygonMeshVertex
 10
2.543
 20
-5.92
 30
0.0
 70
    64
  0
VERTEX
  5
460CE
100
AcDbEntity
  8
0
100
AcDbVertex
100
AcDbPolygonMeshVertex
 10
2.543
 20
-6.47
 30
0.0
 70
    64
  0
VERTEX
  5
460CF
100
AcDbEntity
  8
0
100
AcDbVertex
100
AcDbPolygonMeshVertex
 10
2.977
 20
-5.92
 30
0.04
 70
    64
  0
VERTEX
  5
460D0
100
AcDbEntity
  8
0
100
AcDbVertex
100
AcDbPolygonMeshVertex
 10
2.977
 20
-5.92
 30
0.0
 70
    64
  0
VERTEX
  5
460D1
100
AcDbEntity
  8
0
100
AcDbVertex
100
AcDbPolygonMeshVertex
 10
2.977
 20
-6.47
 30
0.0
 70
    64
  0
VERTEX
  5
460D2
100
AcDbEntity
  8
0
100
AcDbVertex
100
AcDbPolygonMeshVertex
 10
2.977
 20
-5.92
 30
0.04
 70
    64
  0
VERTEX
  5
460D3
100
AcDbEntity
  8
0
100
AcDbVertex
100
AcDbPolygonMeshVertex
 10
2.977
 20
-5.92
 30
0.04
 70
    64
  0
VERTEX
  5
460D4
100
AcDbEntity
  8
0
100
AcDbVertex
100
AcDbPolygonMeshVertex
 10
2.977
 20
-6.47
 30
0.04
 70
    64
  0
VERTEX
  5
460D5
100
AcDbEntity
  8
0
100
AcDbVertex
100
AcDbPolygonMeshVertex
 10
2.543
 20
-5.92
 30
0.04
 70
    64
  0
VERTEX
  5
460D6
100
AcDbEntity
  8
0
100
AcDbVertex
100
AcDbPolygonMeshVertex
 10
2.543
 20
-5.92
 30
0.04
 70
    64
  0
VERTEX
  5
460D7
100
AcDbEntity
  8
0
100
AcDbVertex
100
AcDbPolygonMeshVertex
 10
2.543
 20
-6.47
 30
0.04
 70
    64
  0
SEQEND
  5
460D8
100
AcDbEntity
  8
0
  0
CIRCLE
  5
460DA
100
AcDbEntity
  8
0
100
AcDbCircle
 39
0.04
 10
2.76
 20
-6.22
 30
0.0
 40
0.1085
  0
POINT
  5
460DC
100
AcDbEntity
  8
SNAP_POINTS
100
AcDbPoint
 10
2.364994
 20
-5.772975
 30
0.05
  0
POINT
  5
460DD
100
AcDbEntity
  8
SNAP_POINTS
100
AcDbPoint
 10
3.739994
 20
-5.772975
 30
0.05
  0
ARC
  5
460DF
100
AcDbEntity
  8
0
100
AcDbCircle
 39
0.04
 10
2.76
 20
0.0
 30
0.0
 40
0.1085
100
AcDbArc
 50
356.782733
 51
183.217267
  0
ARC
  5
460E0
100
AcDbEntity
  8
0
100
AcDbCircle
 39
0.04
 10
2.76
 20
-0.193538
 30
0.0
 40
0.2165
100
AcDbArc
 50
120.024142
 51
59.975858
  0
LINE
  5
460E2
100
AcDbEntity
  8
0
100
AcDbLine
 10
2.543
 20
0.26
 30
0.0
 11
2.443
 21
0.26
 31
0.0
  0
LINE
  5
460E3
100
AcDbEntity
  8
0
100
AcDbLine
 10
2.543
 20
0.26
 30
0.04
 11
2.443
 21
0.26
 31
0.04
  0
LINE
  5
460E4
100
AcDbEntity
  8
0
100
AcDbLine
 10
3.077
 20
0.26
 30
0.0
 11
2.977
 21
0.26
 31
0.0
  0
POINT
  5
460E5
100
AcDbEntity
  8
DIMS-MTG-HOLES
100
AcDbPoint
 10
0.0
 20
0.0
 30
0.0
  0
POINT
  5
460E7
100
AcDbEntity
  8
DIMS-MTG-HOLES
100
AcDbPoint
 10
0.0
 20
-6.22
 30
0.0
  0
POINT
  5
460E8
100
AcDbEntity
  8
DIMS-MTG-HOLES
100
AcDbPoint
 10
2.76
 20
-6.22
 30
0.0
  0
POINT
  5
460E9
100
AcDbEntity
  8
DIMS-MTG-HOLES
100
AcDbPoint
 10
2.76
 20
0.0
 30
0.0
  0
DIMENSION
  5
460EB
100
AcDbEntity
  8
AREA1
100
AcDbDimension
  2
*D1
 10
5.627967
 20
0.26
 30
0.0
 11
5.627967
 21
-3.105
 31
0.0
 70
    32
  3
ABECAD_3D
100
AcDbAlignedDimension
 13
2.977
 23
-6.47
 33
0.0
 14
2.977
 24
0.26
 34
0.0
 50
90.0
100
AcDbRotatedDimension
  0
DIMENSION
  5
460FA
100
AcDbEntity
  8
AREA1
100
AcDbDimension
  2
*D2
 10
-2.57
 20
1.034043
 30
0.0
 11
0.98
 21
1.034043
 31
0.0
 70
    32
  3
ABECAD_3D
100
AcDbAlignedDimension
 13
4.53
 23
-0.41
 33
0.0
 14
-2.57
 24
-0.41
 34
0.0
100
AcDbRotatedDimension
  0
ENDSEC
  0
SECTION
  2
OBJECTS
  0
DICTIONARY
  5
458CB
100
AcDbDictionary
  3
ACAD_GROUP
350
458CC
  3
ACAD_LAYOUT
350
458FB
  3
ACAD_MLINESTYLE
350
458D9
  3
ACAD_PLOTSETTINGS
350
458FC
  3
ACAD_PLOTSTYLENAME
350
458F9
  3
ACDBHEADERROUNDTRIPXREC
350
461EC
  3
ACDBVARIABLEDICTIONARY
350
458E1
  3
DWGPROPS
350
45901
  0
DICTIONARY
  5
461EA
100
AcDbDictionary
280
     1
  3
ACAD_XREC_ROUNDTRIP
360
461EB
  0
DICTIONARY
  5
46215
100
AcDbDictionary
280
     1
  3
ACAD_XREC_ROUNDTRIP
360
46216
  0
DICTIONARY
  5
461E8
100
AcDbDictionary
280
     1
  3
ACAD_XREC_ROUNDTRIP
360
461E9
  0
DICTIONARY
  5
4620F
100
AcDbDictionary
280
     1
  3
ACAD_XREC_ROUNDTRIP
360
46210
  0
DICTIONARY
  5
46211
100
AcDbDictionary
280
     1
  3
ACAD_XREC_ROUNDTRIP
360
46212
  0
DICTIONARY
  5
4592C
100
AcDbDictionary
280
     1
  3
ACAD_LAYOUTSELFREF
360
4620E
  0
DICTIONARY
  5
4592A
100
AcDbDictionary
280
     1
  3
ACAD_LAYOUTSELFREF
360
4620D
  0
DICTIONARY
  5
461E6
100
AcDbDictionary
280
     1
  3
ACAD_XREC_ROUNDTRIP
360
461E7
  0
DICTIONARY
  5
458CC
102
{ACAD_REACTORS
330
458CB
102
}
100
AcDbDictionary
  0
DICTIONARY
  5
458FB
102
{ACAD_XDICTIONARY
360
46213
102
}
102
{ACAD_REACTORS
330
458CB
102
}
100
AcDbDictionary
  3
LAYOUT1
350
458FE
  3
MODEL
350
458FD
  0
DICTIONARY
  5
458D9
102
{ACAD_REACTORS
330
458CB
102
}
100
AcDbDictionary
  3
STANDARD
350
458DA
  0
DICTIONARY
  5
458FC
102
{ACAD_REACTORS
330
458CB
102
}
100
AcDbDictionary
  0
ACAD_PROXY_OBJECT
  5
458F9
102
{ACAD_REACTORS
330
458CB
102
}
100
AcDbProxyObject
 90
      499
 91
      501
 93
       86
310
405010041939BDC9B585B0
350
458FA
340
458FA
 94
        0
  0
DICTIONARY
  5
461EC
102
{ACAD_REACTORS
330
458CB
102
}
100
AcDbDictionary
  3
CEPSNTYPE
350
461F6
  3
DIMSTYLEDATA
350
461FA
  3
FINGERPRINTGUID
350
461F7
  3
HYPERLINKBASE
350
461EF
  3
INSUNITS
350
461F5
  3
LAYOUTDICT
350
461F1
  3
LWETCUNION
350
461F4
  3
PLOTSETDICT
350
461F2
  3
PLOTSTYLNAMDICT
350
461F3
  3
PSVPSCALE
350
461F9
  3
PUCSBASE
350
461FD
  3
PUCSORGBACK
350
46203
  3
PUCSORGBOTTOM
350
461FF
  3
PUCSORGFRONT
350
46202
  3
PUCSORGLEFT
350
46200
  3
PUCSORGRIGHT
350
46201
  3
PUCSORGTOP
350
461FE
  3
PUCSORTHOREF
350
461FB
  3
PUCSORTHOVIEW
350
461FC
  3
STYLESHEET
350
461F0
  3
TSTACKALIGN
350
461ED
  3
TSTACKSIZE
350
461EE
  3
UCSBASE
350
46206
  3
UCSORGBACK
350
4620C
  3
UCSORGBOTTOM
350
46208
  3
UCSORGFRONT
350
4620B
  3
UCSORGLEFT
350
46209
  3
UCSORGRIGHT
350
4620A
  3
UCSORGTOP
350
46207
  3
UCSORTHOREF
350
46204
  3
UCSORTHOVIEW
350
46205
  3
VERSIONGUID
350
461F8
  0
DICTIONARY
  5
458E1
102
{ACAD_REACTORS
330
458CB
102
}
100
AcDbDictionary
  3
DIMADEC
350
458E2
  0
XRECORD
  5
45901
102
{ACAD_REACTORS
330
458CB
102
}
100
AcDbXrecord
  1
DWGPROPS COOKIE
  2

  3

  4

  6

  7

  8
colin
  9

300
=
301
=
302
=
303
=
304
=
305
=
306
=
307
=
308
=
309
=
 40
0.000599
 41
2451670.444777
 42
2451670.445376
  1

 90
        0
  0
XRECORD
  5
461EB
102
{ACAD_REACTORS
330
461EA
102
}
100
AcDbXrecord
102
EXTNAMES
  1
*ACTIVE
  2
*Active
102
UCS
 74
     0
 71
     1
 10
0.0
 20
0.0
 30
0.0
 10
1.0
 20
0.0
 30
0.0
 10
0.0
 20
1.0
 30
0.0
146
0.0
 79
     1
102
VIEW
281
     0
  0
XRECORD
  5
46216
102
{ACAD_REACTORS
330
46215
102
}
100
AcDbXrecord
102
PLOTBIT
280
     0
  0
XRECORD
  5
461E9
102
{ACAD_REACTORS
330
461E8
102
}
100
AcDbXrecord
102
EXTNAMES
  1
DEFPOINTS
  2
Defpoints
102
PLOTBIT
280
     0
  0
XRECORD
  5
46210
102
{ACAD_REACTORS
330
4620F
102
}
100
AcDbXrecord
102
ACADR14ROUNDTRIP
1000
DSTYLE
1002
{
1070
   276
 70
     2
1070
   277
 70
     5
1002
}
  0
XRECORD
  5
46212
102
{ACAD_REACTORS
330
46211
102
}
100
AcDbXrecord
102
ACADR14ROUNDTRIP
1000
DSTYLE
1002
{
1070
   276
 70
     2
1070
   277
 70
     5
1002
}
  0
XRECORD
  5
4620E
102
{ACAD_REACTORS
330
4592C
102
}
100
AcDbXrecord
340
458D6
  0
XRECORD
  5
4620D
102
{ACAD_REACTORS
330
4592A
102
}
100
AcDbXrecord
340
458D3
  0
XRECORD
  5
461E7
102
{ACAD_REACTORS
330
461E6
102
}
100
AcDbXrecord
102
EXTNAMES
  1
SCALE
  2
scale
  0
DICTIONARY
  5
46213
100
AcDbDictionary
280
     1
  3
ACAD_XREC_ROUNDTRIP
360
46214
  0
ACAD_PROXY_OBJECT
  5
458FE
102
{ACAD_REACTORS
330
458FB
102
}
100
AcDbProxyObject
 90
      499
 91
      503
 93
     1348
310
91D4850204C617365724A65742035303030205365726965732050434C20362C00AAAAAA416AA547D11959985D5B1D08148C4D081C195B88185CDCDA59DB9B595B9D1CCB98DD1891069074C61796F75743140501A800000000000000000000000000000000000000000000A1000000000000008902A6A6A10232D5E076BC551
310
0408CB5781DAF154410232D5E076BC5510408CB5781DAF15C410232D5E076BC5710408CB5781DAF15C40
330
458D3
330
0
340
0
340
0
 94
        0
  0
ACAD_PROXY_OBJECT
  5
458FD
102
{ACAD_REACTORS
330
458FB
102
}
100
AcDbProxyObject
 90
      499
 91
      503
 93
      924
310
91D4850204C617365724A65742035303030205365726965732050434C20362C01AAAAAAAAA547D11959985D5B1D08148C4D081C195B88185CDCDA59DB9B595B9D1CCB98DD18A69054D6F64656C901A800000000000000000000000000000000000000000000A1000000000000008902A6A6AAAA0
330
458D6
330
0
340
0
340
0
 94
        0
  0
MLINESTYLE
  5
458DA
102
{ACAD_REACTORS
330
458D9
102
}
100
AcDbMlineStyle
  2
STANDARD
 70
     0
  3

 62
   256
 51
90.0
 52
90.0
 71
     2
 49
0.5
 62
   256
  6
BYLAYER
 49
-0.5
 62
   256
  6
BYLAYER
  0
ACAD_PROXY_OBJECT
  5
458FA
102
{ACAD_REACTORS
330
458F9
102
}
100
AcDbProxyObject
 90
      499
 91
      502
 93
        0
 94
        0
  0
XRECORD
  5
461F6
102
{ACAD_REACTORS
330
461EC
102
}
100
AcDbXrecord
 90
        0
  0
XRECORD
  5
461FA
102
{ACAD_REACTORS
330
461EC
102
}
100
AcDbXrecord
1000
DSTYLE
1002
{
1070
   276
 70
     2
1070
   277
 70
     5
1002
}
  0
XRECORD
  5
461F7
102
{ACAD_REACTORS
330
461EC
102
}
100
AcDbXrecord
  1
{6E0CF4B8-225E-11D4-A150-00A0CC3303EC}
  0
XRECORD
  5
461EF
102
{ACAD_REACTORS
330
461EC
102
}
100
AcDbXrecord
  1

  0
XRECORD
  5
461F5
102
{ACAD_REACTORS
330
461EC
102
}
100
AcDbXrecord
 90
        0
  0
XRECORD
  5
461F1
102
{ACAD_REACTORS
330
461EC
102
}
100
AcDbXrecord
340
458FB
  0
XRECORD
  5
461F4
102
{ACAD_REACTORS
330
461EC
102
}
100
AcDbXrecord
 90
    14877
  0
XRECORD
  5
461F2
102
{ACAD_REACTORS
330
461EC
102
}
100
AcDbXrecord
340
458FC
  0
XRECORD
  5
461F3
102
{ACAD_REACTORS
330
461EC
102
}
100
AcDbXrecord
340
458F9
  0
XRECORD
  5
461F9
102
{ACAD_REACTORS
330
461EC
102
}
100
AcDbXrecord
 40
0.0
  0
XRECORD
  5
461FD
102
{ACAD_REACTORS
330
461EC
102
}
100
AcDbXrecord
340
0
  0
XRECORD
  5
46203
102
{ACAD_REACTORS
330
461EC
102
}
100
AcDbXrecord
 10
0.0
 20
0.0
 30
0.0
  0
XRECORD
  5
461FF
102
{ACAD_REACTORS
330
461EC
102
}
100
AcDbXrecord
 10
0.0
 20
0.0
 30
0.0
  0
XRECORD
  5
46202
102
{ACAD_REACTORS
330
461EC
102
}
100
AcDbXrecord
 10
0.0
 20
0.0
 30
0.0
  0
XRECORD
  5
46200
102
{ACAD_REACTORS
330
461EC
102
}
100
AcDbXrecord
 10
0.0
 20
0.0
 30
0.0
  0
XRECORD
  5
46201
102
{ACAD_REACTORS
330
461EC
102
}
100
AcDbXrecord
 10
0.0
 20
0.0
 30
0.0
  0
XRECORD
  5
461FE
102
{ACAD_REACTORS
330
461EC
102
}
100
AcDbXrecord
 10
0.0
 20
0.0
 30
0.0
  0
XRECORD
  5
461FB
102
{ACAD_REACTORS
330
461EC
102
}
100
AcDbXrecord
340
0
  0
XRECORD
  5
461FC
102
{ACAD_REACTORS
330
461EC
102
}
100
AcDbXrecord
 70
     0
  0
XRECORD
  5
461F0
102
{ACAD_REACTORS
330
461EC
102
}
100
AcDbXrecord
  1

  0
XRECORD
  5
461ED
102
{ACAD_REACTORS
330
461EC
102
}
100
AcDbXrecord
 90
        1
  0
XRECORD
  5
461EE
102
{ACAD_REACTORS
330
461EC
102
}
100
AcDbXrecord
 90
       70
  0
XRECORD
  5
46206
102
{ACAD_REACTORS
330
461EC
102
}
100
AcDbXrecord
340
0
  0
XRECORD
  5
4620C
102
{ACAD_REACTORS
330
461EC
102
}
100
AcDbXrecord
 10
0.0
 20
0.0
 30
0.0
  0
XRECORD
  5
46208
102
{ACAD_REACTORS
330
461EC
102
}
100
AcDbXrecord
 10
0.0
 20
0.0
 30
0.0
  0
XRECORD
  5
4620B
102
{ACAD_REACTORS
330
461EC
102
}
100
AcDbXrecord
 10
0.0
 20
0.0
 30
0.0
  0
XRECORD
  5
46209
102
{ACAD_REACTORS
330
461EC
102
}
100
AcDbXrecord
 10
0.0
 20
0.0
 30
0.0
  0
XRECORD
  5
4620A
102
{ACAD_REACTORS
330
461EC
102
}
100
AcDbXrecord
 10
0.0
 20
0.0
 30
0.0
  0
XRECORD
  5
46207
102
{ACAD_REACTORS
330
461EC
102
}
100
AcDbXrecord
 10
0.0
 20
0.0
 30
0.0
  0
XRECORD
  5
46204
102
{ACAD_REACTORS
330
461EC
102
}
100
AcDbXrecord
340
0
  0
XRECORD
  5
46205
102
{ACAD_REACTORS
330
461EC
102
}
100
AcDbXrecord
 70
     1
  0
XRECORD
  5
461F8
102
{ACAD_REACTORS
330
461EC
102
}
100
AcDbXrecord
  1
{363D536B-D61D-49FE-A5CB-6BF7BDD2DEAA}
  0
DICTIONARYVAR
  5
458E2
102
{ACAD_REACTORS
330
458E1
102
}
100
DictionaryVariables
280
     0
  1
0
  0
XRECORD
  5
46214
102
{ACAD_REACTORS
330
46213
102
}
100
AcDbXrecord
102
EXTNAMES
  1
LAYOUT1
  2
Layout1
  1
MODEL
  2
Model
  0
ENDSEC
  0
EOF
