  0
SECTION
  2
HEADER
  9
$ACADVER
  1
AC1014
  9
$ACADMAINTVER
 70
     8
  9
$DWGCODEPAGE
  3
ANSI_1252
  9
$INSBASE
 10
0.0
 20
0.0
 30
0.0
  9
$EXTMIN
 10
-0.063645
 20
-6.584923
 30
0.0
  9
$EXTMAX
 10
5.451025
 20
1.427941
 30
5.8
  9
$LIMMIN
 10
0.0
 20
0.0
  9
$LIMMAX
 10
12.0
 20
9.0
  9
$ORTHOMODE
 70
     0
  9
$REGENMODE
 70
     1
  9
$FILLMODE
 70
     1
  9
$QTEXTMODE
 70
     0
  9
$MIRRTEXT
 70
     1
  9
$DRAGMODE
 70
     2
  9
$LTSCALE
 40
1.0
  9
$OSMODE
 70
    37
  9
$ATTMODE
 70
     1
  9
$TEXTSIZE
 40
0.12
  9
$TRACEWID
 40
0.05
  9
$TEXTSTYLE
  7
STANDARD
  9
$CLAYER
  8
0
  9
$CELTYPE
  6
BYLAYER
  9
$CECOLOR
 62
   256
  9
$CELTSCALE
 40
1.0
  9
$DELOBJ
 70
     1
  9
$DISPSILH
 70
     0
  9
$DIMSCALE
 40
1.0
  9
$DIMASZ
 40
0.18
  9
$DIMEXO
 40
0.0625
  9
$DIMDLI
 40
0.375
  9
$DIMRND
 40
0.0
  9
$DIMDLE
 40
0.0
  9
$DIMEXE
 40
0.18
  9
$DIMTP
 40
0.0
  9
$DIMTM
 40
0.0
  9
$DIMTXT
 40
0.18
  9
$DIMCEN
 40
0.09
  9
$DIMTSZ
 40
0.0
  9
$DIMTOL
 70
     0
  9
$DIMLIM
 70
     0
  9
$DIMTIH
 70
     0
  9
$DIMTOH
 70
     1
  9
$DIMSE1
 70
     0
  9
$DIMSE2
 70
     0
  9
$DIMTAD
 70
     0
  9
$DIMZIN
 70
     4
  9
$DIMBLK
  1

  9
$DIMASO
 70
     1
  9
$DIMSHO
 70
     1
  9
$DIMPOST
  1

  9
$DIMAPOST
  1

  9
$DIMALT
 70
     1
  9
$DIMALTD
 70
     1
  9
$DIMALTF
 40
25.4
  9
$DIMLFAC
 40
1.0
  9
$DIMTOFL
 70
     0
  9
$DIMTVP
 40
0.0
  9
$DIMTIX
 70
     0
  9
$DIMSOXD
 70
     0
  9
$DIMSAH
 70
     0
  9
$DIMBLK1
  1

  9
$DIMBLK2
  1

  9
$DIMSTYLE
  2
ABECAD_3D
  9
$DIMCLRD
 70
     0
  9
$DIMCLRE
 70
     0
  9
$DIMCLRT
 70
     0
  9
$DIMTFAC
 40
1.5
  9
$DIMGAP
 40
0.09
  9
$DIMJUST
 70
     0
  9
$DIMSD1
 70
     0
  9
$DIMSD2
 70
     0
  9
$DIMTOLJ
 70
     1
  9
$DIMTZIN
 70
     4
  9
$DIMALTZ
 70
     4
  9
$DIMALTTZ
 70
     4
  9
$DIMFIT
 70
     3
  9
$DIMUPT
 70
     0
  9
$DIMUNIT
 70
     7
  9
$DIMDEC
 70
     6
  9
$DIMTDEC
 70
     6
  9
$DIMALTU
 70
     2
  9
$DIMALTTD
 70
     1
  9
$DIMTXSTY
  7
STANDARD
  9
$DIMAUNIT
 70
     0
  9
$LUNITS
 70
     2
  9
$LUPREC
 70
     4
  9
$SKETCHINC
 40
0.1
  9
$FILLETRAD
 40
0.0
  9
$AUNITS
 70
     0
  9
$AUPREC
 70
     0
  9
$MENU
  1
ACAD
  9
$ELEVATION
 40
0.0
  9
$PELEVATION
 40
0.0
  9
$THICKNESS
 40
0.0
  9
$LIMCHECK
 70
     0
  9
$BLIPMODE
 70
     0
  9
$CHAMFERA
 40
0.0
  9
$CHAMFERB
 40
0.0
  9
$CHAMFERC
 40
0.0
  9
$CHAMFERD
 40
0.0
  9
$SKPOLY
 70
     0
  9
$TDCREATE
 40
2451670.444776967
  9
$TDUPDATE
 40
2452010.483889699
  9
$TDINDWG
 40
0.0078109954
  9
$TDUSRTIMER
 40
0.0078109954
  9
$USRTIMER
 70
     1
  9
$ANGBASE
 50
0.0
  9
$ANGDIR
 70
     0
  9
$PDMODE
 70
     3
  9
$PDSIZE
 40
0.09
  9
$PLINEWID
 40
0.0
  9
$COORDS
 70
     1
  9
$SPLFRAME
 70
     1
  9
$SPLINETYPE
 70
     6
  9
$SPLINESEGS
 70
     8
  9
$ATTDIA
 70
     0
  9
$ATTREQ
 70
     1
  9
$HANDLING
 70
     1
  9
$HANDSEED
  5
45CF4
  9
$SURFTAB1
 70
     6
  9
$SURFTAB2
 70
     6
  9
$SURFTYPE
 70
     6
  9
$SURFU
 70
     6
  9
$SURFV
 70
     6
  9
$UCSNAME
  2

  9
$UCSORG
 10
0.0
 20
0.0
 30
0.0
  9
$UCSXDIR
 10
1.0
 20
0.0
 30
0.0
  9
$UCSYDIR
 10
0.0
 20
1.0
 30
0.0
  9
$PUCSNAME
  2

  9
$PUCSORG
 10
0.0
 20
0.0
 30
0.0
  9
$PUCSXDIR
 10
1.0
 20
0.0
 30
0.0
  9
$PUCSYDIR
 10
0.0
 20
1.0
 30
0.0
  9
$USERI1
 70
     0
  9
$USERI2
 70
     0
  9
$USERI3
 70
     0
  9
$USERI4
 70
     0
  9
$USERI5
 70
     0
  9
$USERR1
 40
0.0
  9
$USERR2
 40
0.0
  9
$USERR3
 40
0.0
  9
$USERR4
 40
0.0
  9
$USERR5
 40
0.0
  9
$WORLDVIEW
 70
     1
  9
$SHADEDGE
 70
     3
  9
$SHADEDIF
 70
    70
  9
$TILEMODE
 70
     1
  9
$MAXACTVP
 70
    16
  9
$PINSBASE
 10
0.0
 20
0.0
 30
0.0
  9
$PLIMCHECK
 70
     0
  9
$PEXTMIN
 10
1.000000E+20
 20
1.000000E+20
 30
1.000000E+20
  9
$PEXTMAX
 10
-1.000000E+20
 20
-1.000000E+20
 30
-1.000000E+20
  9
$PLIMMIN
 10
0.0
 20
0.0
  9
$PLIMMAX
 10
12.0
 20
9.0
  9
$UNITMODE
 70
     0
  9
$VISRETAIN
 70
     0
  9
$PLINEGEN
 70
     0
  9
$PSLTSCALE
 70
     1
  9
$TREEDEPTH
 70
  3020
  9
$PICKSTYLE
 70
     1
  9
$CMLSTYLE
  2
STANDARD
  9
$CMLJUST
 70
     0
  9
$CMLSCALE
 40
1.0
  9
$PROXYGRAPHICS
 70
     1
  9
$MEASUREMENT
 70
     0
  0
ENDSEC
  0
SECTION
  2
CLASSES
  0
CLASS
  1
DICTIONARYVAR
  2
AcDbDictionaryVar
  3
"AutoCAD"
 90
        0
280
     0
281
     0
  0
CLASS
  1
ACDBDICTIONARYWDFLT
  2
AcDbDictionaryWithDefault
  3
AutoCAD 2000
 90
        0
280
     0
281
     0
  0
CLASS
  1
ACDBPLACEHOLDER
  2
AcDbPlaceHolder
  3
AutoCAD 2000
 90
        0
280
     0
281
     0
  0
CLASS
  1
LAYOUT
  2
AcDbLayout
  3
AutoCAD 2000
 90
        0
280
     0
281
     0
  0
CLASS
  1
LONG_TRANSACTION
  2
AcDbLongTransaction
  3
AutoCAD 2000
 90
        0
280
     0
281
     0
  0
CLASS
  1
LWPOLYLINE
  2
AcDbPolyline
  3
"AutoCAD"
 90
        0
280
     0
281
     1
  0
CLASS
  1
HATCH
  2
AcDbHatch
  3
"ACAD_SEDONA"
 90
        0
280
     0
281
     1
  0
CLASS
  1
XRECORD
  2
AcDbXrecord
  3
"<Built In>"
 90
        0
280
     0
281
     0
  0
CLASS
  1
LONG_TRANSACTION
  2
AcDbLongTransaction
  3
AutoCAD 2000
 90
        0
280
     0
281
     0
  0
CLASS
  1
LWPOLYLINE
  2
AcDbPolyline
  3
"AutoCAD"
 90
        0
280
     0
281
     1
  0
CLASS
  1
HATCH
  2
AcDbHatch
  3
"ACAD_SEDONA"
 90
        0
280
     0
281
     1
  0
CLASS
  1
XRECORD
  2
AcDbXrecord
  3
"<Built In>"
 90
        0
280
     0
281
     0
  0
CLASS
  1
LONG_TRANSACTION
  2
AcDbLongTransaction
  3
AutoCAD 2000
 90
        0
280
     0
281
     0
  0
CLASS
  1
LWPOLYLINE
  2
AcDbPolyline
  3
"AutoCAD"
 90
        0
280
     0
281
     1
  0
CLASS
  1
HATCH
  2
AcDbHatch
  3
"ACAD_SEDONA"
 90
        0
280
     0
281
     1
  0
CLASS
  1
XRECORD
  2
AcDbXrecord
  3
"<Built In>"
 90
        0
280
     0
281
     0
  0
CLASS
  1
LONG_TRANSACTION
  2
AcDbLongTransaction
  3
AutoCAD 2000
 90
        0
280
     0
281
     0
  0
CLASS
  1
LWPOLYLINE
  2
AcDbPolyline
  3
"AutoCAD"
 90
        0
280
     0
281
     1
  0
CLASS
  1
HATCH
  2
AcDbHatch
  3
"ACAD_SEDONA"
 90
        0
280
     0
281
     1
  0
CLASS
  1
XRECORD
  2
AcDbXrecord
  3
"<Built In>"
 90
        0
280
     0
281
     0
  0
CLASS
  1
LONG_TRANSACTION
  2
AcDbLongTransaction
  3
AutoCAD 2000
 90
        0
280
     0
281
     0
  0
CLASS
  1
LWPOLYLINE
  2
AcDbPolyline
  3
"AutoCAD"
 90
        0
280
     0
281
     1
  0
CLASS
  1
HATCH
  2
AcDbHatch
  3
"ACAD_SEDONA"
 90
        0
280
     0
281
     1
  0
CLASS
  1
XRECORD
  2
AcDbXrecord
  3
"<Built In>"
 90
        0
280
     0
281
     0
  0
ENDSEC
  0
SECTION
  2
TABLES
  0
TABLE
  2
VPORT
  5
458C7
100
AcDbSymbolTable
 70
     1
  0
VPORT
  5
45CBF
102
{ACAD_XDICTIONARY
360
45CC4
102
}
100
AcDbSymbolTableRecord
100
AcDbViewportTableRecord
  2
*ACTIVE
 70
     0
 10
0.0
 20
0.0
 11
1.0
 21
1.0
 12
2.693915
 22
-2.57835
 13
0.0
 23
0.0
 14
0.25
 24
0.25
 15
0.25
 25
0.25
 16
0.0
 26
0.0
 36
1.0
 17
0.0
 27
0.0
 37
0.0
 40
8.148789
 41
1.960674
 42
50.0
 43
0.0
 44
0.0
 50
0.0
 51
0.0
 71
     0
 72
 20000
 73
     1
 74
     1
 75
     0
 76
     0
 77
     0
 78
     0
  0
ENDTAB
  0
TABLE
  2
LTYPE
  5
458C4
100
AcDbSymbolTable
 70
     1
  0
LTYPE
  5
458D0
100
AcDbSymbolTableRecord
100
AcDbLinetypeTableRecord
  2
BYBLOCK
 70
     0
  3

 72
    65
 73
     0
 40
0.0
  0
LTYPE
  5
458D1
100
AcDbSymbolTableRecord
100
AcDbLinetypeTableRecord
  2
BYLAYER
 70
     0
  3

 72
    65
 73
     0
 40
0.0
  0
LTYPE
  5
458D2
100
AcDbSymbolTableRecord
100
AcDbLinetypeTableRecord
  2
CONTINUOUS
 70
     0
  3
Solid line
 72
    65
 73
     0
 40
0.0
  0
ENDTAB
  0
TABLE
  2
LAYER
  5
458C1
100
AcDbSymbolTable
 70
     7
  0
LAYER
  5
458CD
100
AcDbSymbolTableRecord
100
AcDbLayerTableRecord
  2
0
 70
     0
 62
     7
  6
CONTINUOUS
  0
LAYER
  5
458EA
100
AcDbSymbolTableRecord
100
AcDbLayerTableRecord
  2
DIMS-MTG-HOLES
 70
     0
 62
     1
  6
CONTINUOUS
  0
LAYER
  5
458EB
100
AcDbSymbolTableRecord
100
AcDbLayerTableRecord
  2
ATTRIBUTES
 70
     0
 62
     7
  6
CONTINUOUS
  0
LAYER
  5
45949
102
{ACAD_XDICTIONARY
360
45CEF
102
}
100
AcDbSymbolTableRecord
100
AcDbLayerTableRecord
  2
AREA1
 70
     0
 62
    -7
  6
CONTINUOUS
  0
LAYER
  5
4594A
100
AcDbSymbolTableRecord
100
AcDbLayerTableRecord
  2
SCALE
 70
     0
 62
    -7
  6
CONTINUOUS
  0
LAYER
  5
45C03
102
{ACAD_XDICTIONARY
360
45CC2
102
}
100
AcDbSymbolTableRecord
100
AcDbLayerTableRecord
  2
DEFPOINTS
 70
     0
 62
    -7
  6
CONTINUOUS
  0
LAYER
  5
45C54
100
AcDbSymbolTableRecord
100
AcDbLayerTableRecord
  2
SNAP_POINTS
 70
     0
 62
    -1
  6
CONTINUOUS
  0
ENDTAB
  0
TABLE
  2
STYLE
  5
458C2
100
AcDbSymbolTable
 70
     1
  0
STYLE
  5
458CE
100
AcDbSymbolTableRecord
100
AcDbTextStyleTableRecord
  2
STANDARD
 70
     0
 40
0.0
 41
1.0
 50
0.0
 71
     0
 42
0.12
  3
txt
  4

  0
ENDTAB
  0
TABLE
  2
VIEW
  5
458C5
100
AcDbSymbolTable
 70
     0
  0
ENDTAB
  0
TABLE
  2
UCS
  5
458C6
100
AcDbSymbolTable
 70
     0
  0
ENDTAB
  0
TABLE
  2
APPID
  5
458C8
100
AcDbSymbolTable
 70
     1
  0
APPID
  5
458CF
100
AcDbSymbolTableRecord
100
AcDbRegAppTableRecord
  2
ACAD
 70
     0
  0
ENDTAB
  0
TABLE
  2
DIMSTYLE
  5
458C9
100
AcDbSymbolTable
 70
     2
  0
DIMSTYLE
105
458F1
102
{ACAD_XDICTIONARY
360
45CE9
102
}
100
AcDbSymbolTableRecord
100
AcDbDimStyleTableRecord
  2
ABECAD
 70
     0
  3

  4

  5

  6

  7

 40
1.0
 41
0.18
 42
0.0625
 43
0.375
 44
0.18
 45
0.0
 46
0.0
 47
0.0
 48
0.0
140
0.18
141
0.09
142
0.0
143
25.4
144
1.0
145
0.0
146
1.5
147
0.09
 71
     0
 72
     0
 73
     0
 74
     1
 75
     0
 76
     0
 77
     0
 78
     4
170
     1
171
     1
172
     0
173
     0
174
     0
175
     0
176
     0
177
     0
178
     0
270
     7
271
     6
272
     6
273
     2
274
     1
340
458CE
275
     0
280
     0
281
     0
282
     0
283
     1
284
     4
285
     4
286
     4
287
     3
288
     0
  0
DIMSTYLE
105
458F6
102
{ACAD_XDICTIONARY
360
45CEB
102
}
102
{ACAD_REACTORS
330
45C02
330
45C11
102
}
100
AcDbSymbolTableRecord
100
AcDbDimStyleTableRecord
  2
ABECAD_3D
 70
     0
  3

  4

  5

  6

  7

 40
1.0
 41
0.18
 42
0.0625
 43
0.375
 44
0.18
 45
0.0
 46
0.0
 47
0.0
 48
0.0
140
0.18
141
0.09
142
0.0
143
25.4
144
1.0
145
0.0
146
1.5
147
0.09
 71
     0
 72
     0
 73
     0
 74
     1
 75
     0
 76
     0
 77
     0
 78
     4
170
     1
171
     1
172
     0
173
     0
174
     0
175
     0
176
     0
177
     0
178
     0
270
     7
271
     6
272
     6
273
     2
274
     1
340
458CE
275
     0
280
     0
281
     0
282
     0
283
     1
284
     4
285
     4
286
     4
287
     3
288
     0
  0
ENDTAB
  0
TABLE
  2
BLOCK_RECORD
  5
458C0
100
AcDbSymbolTable
 70
     3
  0
BLOCK_RECORD
  5
458D6
102
{ACAD_XDICTIONARY
360
4592C
102
}
100
AcDbSymbolTableRecord
100
AcDbBlockTableRecord
  2
*MODEL_SPACE
  0
BLOCK_RECORD
  5
458D3
102
{ACAD_XDICTIONARY
360
4592A
102
}
100
AcDbSymbolTableRecord
100
AcDbBlockTableRecord
  2
*PAPER_SPACE
  0
BLOCK_RECORD
  5
4593B
102
{ACAD_XDICTIONARY
360
45CC0
102
}
100
AcDbSymbolTableRecord
100
AcDbBlockTableRecord
  2
SCALE
  0
BLOCK_RECORD
  5
45C04
100
AcDbSymbolTableRecord
100
AcDbBlockTableRecord
  2
*D1
  0
BLOCK_RECORD
  5
45C12
100
AcDbSymbolTableRecord
100
AcDbBlockTableRecord
  2
*D2
  0
ENDTAB
  0
ENDSEC
  0
SECTION
  2
BLOCKS
  0
BLOCK
  5
458DF
100
AcDbEntity
  8
0
100
AcDbBlockBegin
  2
*MODEL_SPACE
 70
     0
 10
0.0
 20
0.0
 30
0.0
  3
*MODEL_SPACE
  1

  0
ENDBLK
  5
458E0
100
AcDbEntity
  8
0
100
AcDbBlockEnd
  0
BLOCK
  5
458DD
100
AcDbEntity
 67
     1
  8
0
100
AcDbBlockBegin
  2
*PAPER_SPACE
 70
     0
 10
0.0
 20
0.0
 30
0.0
  3
*PAPER_SPACE
  1

  0
ENDBLK
  5
458DE
100
AcDbEntity
 67
     1
  8
0
100
AcDbBlockEnd
  0
BLOCK
  5
45947
100
AcDbEntity
  8
0
100
AcDbBlockBegin
  2
SCALE
 70
     0
 10
0.0
 20
0.0
 30
0.0
  3
SCALE
  1

  0
LWPOLYLINE
  5
4595C
100
AcDbEntity
  8
SCALE
100
AcDbPolyline
 90
        4
 70
     1
 43
0.0
 10
0.0
 20
0.0
 10
1.135629
 20
0.0
 10
1.135629
 20
-0.84161
 10
0.0
 20
-0.84161
  0
LINE
  5
4595D
100
AcDbEntity
  8
SCALE
100
AcDbLine
 10
0.057999
 20
-0.380078
 30
0.0
 11
1.057999
 21
-0.380078
 31
0.0
  0
LINE
  5
4595E
100
AcDbEntity
  8
SCALE
100
AcDbLine
 10
0.057999
 20
-0.480078
 30
0.0
 11
0.057999
 21
-0.280078
 31
0.0
  0
TEXT
  5
4595F
100
AcDbEntity
  8
SCALE
100
AcDbText
 10
0.117421
 20
-0.634339
 30
0.0
 40
0.0625
  1
[10mm]
100
AcDbText
  0
LINE
  5
45960
100
AcDbEntity
  8
SCALE
100
AcDbLine
 10
0.057999
 20
-0.680078
 30
0.0
 11
0.451699
 21
-0.680078
 31
0.0
  0
LINE
  5
45961
100
AcDbEntity
  8
SCALE
100
AcDbLine
 10
0.057999
 20
-0.780078
 30
0.0
 11
0.057999
 21
-0.580078
 31
0.0
  0
LINE
  5
45962
100
AcDbEntity
  8
SCALE
100
AcDbLine
 10
0.451699
 20
-0.780078
 30
0.0
 11
0.451699
 21
-0.580078
 31
0.0
  0
TEXT
  5
45963
100
AcDbEntity
  8
SCALE
100
AcDbText
 10
0.059529
 20
-0.105201
 30
0.0
 40
0.0625
  1
SCALE:
100
AcDbText
  0
TEXT
  5
45964
100
AcDbEntity
  8
SCALE
100
AcDbText
 10
0.421282
 20
-0.31103
 30
0.0
 40
0.0625
  1
1 Inch
100
AcDbText
  0
LINE
  5
45965
100
AcDbEntity
  8
SCALE
100
AcDbLine
 10
1.057999
 20
-0.480078
 30
0.0
 11
1.057999
 21
-0.280078
 31
0.0
  0
LINE
  5
45966
100
AcDbEntity
  8
SCALE
100
AcDbLine
 10
1.057999
 20
-0.380078
 30
0.0
 11
1.057999
 21
-0.480078
 31
0.0
  0
ENDBLK
  5
45948
100
AcDbEntity
  8
0
100
AcDbBlockEnd
  0
BLOCK
  5
45C0F
100
AcDbEntity
  8
0
100
AcDbBlockBegin
  2
*D1
 70
     1
 10
0.0
 20
0.0
 30
0.0
  3
*D1
  1

  0
LINE
  5
45C05
100
AcDbEntity
  8
AREA1
 62
     0
100
AcDbLine
 10
4.2125
 20
-5.5
 30
0.0
 11
5.451025
 21
-5.5
 31
0.0
1001
ACAD
1000
RTLwPs
1070
   158
  0
LINE
  5
45C06
100
AcDbEntity
  8
AREA1
 62
     0
100
AcDbLine
 10
4.2125
 20
0.0
 30
0.0
 11
5.451025
 21
0.0
 31
0.0
1001
ACAD
1000
RTLwPs
1070
   158
  0
LINE
  5
45C07
100
AcDbEntity
  8
AREA1
 62
     0
100
AcDbLine
 10
5.271025
 20
-5.32
 30
0.0
 11
5.271025
 21
-3.8
 31
0.0
1001
ACAD
1000
RTLwPs
1070
   158
  0
LINE
  5
45C08
100
AcDbEntity
  8
AREA1
 62
     0
100
AcDbLine
 10
5.271025
 20
-0.18
 30
0.0
 11
5.271025
 21
-1.7
 31
0.0
1001
ACAD
1000
RTLwPs
1070
   158
  0
SOLID
  5
45C09
100
AcDbEntity
  8
AREA1
 62
     0
100
AcDbTrace
 10
5.241025
 20
-5.32
 30
0.0
 11
5.301025
 21
-5.32
 31
0.0
 12
5.271025
 22
-5.5
 32
0.0
 13
5.271025
 23
-5.5
 33
0.0
  0
SOLID
  5
45C0A
100
AcDbEntity
  8
AREA1
 62
     0
100
AcDbTrace
 10
5.241025
 20
-0.18
 30
0.0
 11
5.301025
 21
-0.18
 31
0.0
 12
5.271025
 22
0.0
 32
0.0
 13
5.271025
 23
0.0
 33
0.0
  0
MTEXT
  5
45C0B
100
AcDbEntity
  8
AREA1
 62
     0
100
AcDbMText
 10
5.271025
 20
-2.75
 30
0.0
 40
0.18
 41
0.0
 71
     5
 72
     1
  1
\A1;5 1/2 [139.7]
 11
0.0
 21
1.0
 31
0.0
1001
ACAD
1000
MTEXTBEGIN
1070
    73
1070
     1
1070
    44
1040
1.0
1070
    74
1070
     0
1000
MTEXTEND
1000
MTEXTBEGIN
1070
    73
1070
     1
1070
    44
1040
1.0
1070
    74
1070
     0
1000
MTEXTEND
1000
MTEXTBEGIN
1070
    73
1070
     1
1070
    44
1040
1.0
1070
    74
1070
     0
1000
MTEXTEND
1000
MTEXTBEGIN
1070
    73
1070
     1
1070
    44
1040
1.0
1070
    74
1070
     0
1000
MTEXTEND
  0
POINT
  5
45C0C
100
AcDbEntity
  8
DEFPOINTS
 62
     0
100
AcDbPoint
 10
4.15
 20
-5.5
 30
0.0
  0
POINT
  5
45C0D
100
AcDbEntity
  8
DEFPOINTS
 62
     0
100
AcDbPoint
 10
4.15
 20
0.0
 30
0.0
  0
POINT
  5
45C0E
100
AcDbEntity
  8
DEFPOINTS
 62
     0
100
AcDbPoint
 10
5.271025
 20
0.0
 30
0.0
  0
ENDBLK
  5
45C10
100
AcDbEntity
  8
0
100
AcDbBlockEnd
  0
BLOCK
  5
45C1D
100
AcDbEntity
  8
0
100
AcDbBlockBegin
  2
*D2
 70
     1
 10
0.0
 20
0.0
 30
0.0
  3
*D2
  1

  0
LINE
  5
45C13
100
AcDbEntity
  8
AREA1
 62
     0
100
AcDbLine
 10
0.0
 20
0.0625
 30
0.0
 11
0.0
 21
1.427941
 31
0.0
1001
ACAD
1000
RTLwPs
1070
   158
  0
LINE
  5
45C14
100
AcDbEntity
  8
AREA1
 62
     0
100
AcDbLine
 10
4.15
 20
0.0625
 30
0.0
 11
4.15
 21
1.427941
 31
0.0
1001
ACAD
1000
RTLwPs
1070
   158
  0
LINE
  5
45C15
100
AcDbEntity
  8
AREA1
 62
     0
100
AcDbLine
 10
0.18
 20
1.247941
 30
0.0
 11
0.92
 21
1.247941
 31
0.0
1001
ACAD
1000
RTLwPs
1070
   158
  0
LINE
  5
45C16
100
AcDbEntity
  8
AREA1
 62
     0
100
AcDbLine
 10
3.97
 20
1.247941
 30
0.0
 11
3.23
 21
1.247941
 31
0.0
1001
ACAD
1000
RTLwPs
1070
   158
  0
SOLID
  5
45C17
100
AcDbEntity
  8
AREA1
 62
     0
100
AcDbTrace
 10
0.18
 20
1.277941
 30
0.0
 11
0.18
 21
1.217941
 31
0.0
 12
0.0
 22
1.247941
 32
0.0
 13
0.0
 23
1.247941
 33
0.0
  0
SOLID
  5
45C18
100
AcDbEntity
  8
AREA1
 62
     0
100
AcDbTrace
 10
3.97
 20
1.277941
 30
0.0
 11
3.97
 21
1.217941
 31
0.0
 12
4.15
 22
1.247941
 32
0.0
 13
4.15
 23
1.247941
 33
0.0
  0
MTEXT
  5
45C19
100
AcDbEntity
  8
AREA1
 62
     0
100
AcDbMText
 10
2.075
 20
1.247941
 30
0.0
 40
0.18
 41
0.0
 71
     5
 72
     1
  1
\A1;4 5/32 [105.4]
1001
ACAD
1000
MTEXTBEGIN
1070
    73
1070
     1
1070
    44
1040
1.0
1070
    74
1070
     0
1000
MTEXTEND
1000
MTEXTBEGIN
1070
    73
1070
     1
1070
    44
1040
1.0
1070
    74
1070
     0
1000
MTEXTEND
1000
MTEXTBEGIN
1070
    73
1070
     1
1070
    44
1040
1.0
1070
    74
1070
     0
1000
MTEXTEND
1000
MTEXTBEGIN
1070
    73
1070
     1
1070
    44
1040
1.0
1070
    74
1070
     0
1000
MTEXTEND
  0
POINT
  5
45C1A
100
AcDbEntity
  8
DEFPOINTS
 62
     0
100
AcDbPoint
 10
0.0
 20
0.0
 30
0.0
  0
POINT
  5
45C1B
100
AcDbEntity
  8
DEFPOINTS
 62
     0
100
AcDbPoint
 10
4.15
 20
0.0
 30
0.0
  0
POINT
  5
45C1C
100
AcDbEntity
  8
DEFPOINTS
 62
     0
100
AcDbPoint
 10
4.15
 20
1.247941
 30
0.0
  0
ENDBLK
  5
45C1E
100
AcDbEntity
  8
0
100
AcDbBlockEnd
  0
ENDSEC
  0
SECTION
  2
ENTITIES
  0
ATTDEF
  5
1
100
AcDbEntity
  8
ATTRIBUTES
100
AcDbText
 10
0.092368
 20
-3.794384
 30
0.0
 40
0.09375
  1
ALLEN-BRADLEY
100
AcDbAttributeDefinition
  3
MANUFACTURER NAME?
  2
AC_VND_LABEL
 70
     1
  0
ATTDEF
  5
2
100
AcDbEntity
  8
ATTRIBUTES
100
AcDbText
 10
0.092368
 20
-3.989697
 30
0.0
 40
0.09375
  1
1746-P4
100
AcDbAttributeDefinition
  3
CATALOG NUMBER?
  2
AC_PART_NO
 70
     1
  0
ATTDEF
  5
3
100
AcDbEntity
  8
ATTRIBUTES
100
AcDbText
 10
0.092368
 20
-4.185009
 30
0.0
 40
0.09375
  1
1746-P4:POWER SUPPLY - CHASSIS-MOUNT (120/220V AC, 10A WITH USER POWER)
100
AcDbAttributeDefinition
  3
PART DESCRIPTION?
  2
AC_DESCRIPTION
 70
     1
  0
ATTDEF
  5
4
100
AcDbEntity
  8
ATTRIBUTES
100
AcDbText
 10
0.092368
 20
-4.380322
 30
0.0
 40
0.09375
  1

100
AcDbAttributeDefinition
  3
DEVICE ID?
  2
DEVICE_ID
 70
     1
  0
ATTDEF
  5
5
100
AcDbEntity
  8
ATTRIBUTES
100
AcDbText
 10
0.092368
 20
-4.575634
 30
0.0
 40
0.09375
  1

100
AcDbAttributeDefinition
  3
CUSTOMER PART NUMBER?
  2
AC_CPART_NO
 70
     1
  0
ATTDEF
  5
6
100
AcDbEntity
  8
ATTRIBUTES
100
AcDbText
 10
0.092368
 20
-4.770947
 30
0.0
 40
0.09375
  1

100
AcDbAttributeDefinition
  3
CUSTOMER NOTE?
  2
AC_NOTE
 70
     1
  0
ATTDEF
  5
7
100
AcDbEntity
  8
ATTRIBUTES
100
AcDbText
 10
0.092368
 20
-4.966259
 30
0.0
 40
0.09375
  1

100
AcDbAttributeDefinition
  3
FASTENER DATA?
  2
FASTENER
 70
     1
  0
ATTDEF
  5
8
100
AcDbEntity
  8
ATTRIBUTES
100
AcDbText
 10
0.092368
 20
-5.161572
 30
0.0
 40
0.09375
  1
INCH
100
AcDbAttributeDefinition
  3
UNIT OF SCALE?
  2
AC_SCALE_UNIT
 70
     1
  0
ATTDEF
  5
9
100
AcDbEntity
  8
ATTRIBUTES
100
AcDbText
 10
0.092368
 20
-5.356884
 30
0.0
 40
0.09375
  1
0
100
AcDbAttributeDefinition
  3
VIEW CODE?
  2
AC_VIEW_CODE
 70
     1
  0
INSERT
  5
45967
100
AcDbEntity
  8
SCALE
100
AcDbBlockReference
  2
SCALE
 10
0.014833
 20
-5.743314
 30
0.0
  0
POLYLINE
  5
45AC0
100
AcDbEntity
  8
0
100
AcDbPolygonMesh
 66
     1
 10
0.0
 20
0.0
 30
0.0
 70
    16
 71
     6
 72
     3
  0
VERTEX
  5
45AC1
100
AcDbEntity
  8
0
100
AcDbVertex
100
AcDbPolygonMeshVertex
 10
4.15
 20
-5.5
 30
5.325
 70
    64
  0
VERTEX
  5
45AC2
100
AcDbEntity
  8
0
100
AcDbVertex
100
AcDbPolygonMeshVertex
 10
4.15
 20
-5.5
 30
0.0
 70
    64
  0
VERTEX
  5
45AC3
100
AcDbEntity
  8
0
100
AcDbVertex
100
AcDbPolygonMeshVertex
 10
4.15
 20
-5.5
 30
0.0
 70
    64
  0
VERTEX
  5
45AC4
100
AcDbEntity
  8
0
100
AcDbVertex
100
AcDbPolygonMeshVertex
 10
0.0
 20
-5.5
 30
5.325
 70
    64
  0
VERTEX
  5
45AC5
100
AcDbEntity
  8
0
100
AcDbVertex
100
AcDbPolygonMeshVertex
 10
0.0
 20
-5.5
 30
0.0
 70
    64
  0
VERTEX
  5
45AC6
100
AcDbEntity
  8
0
100
AcDbVertex
100
AcDbPolygonMeshVertex
 10
0.0
 20
-5.5
 30
0.0
 70
    64
  0
VERTEX
  5
45AC7
100
AcDbEntity
  8
0
100
AcDbVertex
100
AcDbPolygonMeshVertex
 10
0.0
 20
0.0
 30
5.325
 70
    64
  0
VERTEX
  5
45AC8
100
AcDbEntity
  8
0
100
AcDbVertex
100
AcDbPolygonMeshVertex
 10
0.0
 20
0.0
 30
0.0
 70
    64
  0
VERTEX
  5
45AC9
100
AcDbEntity
  8
0
100
AcDbVertex
100
AcDbPolygonMeshVertex
 10
0.0
 20
-5.5
 30
0.0
 70
    64
  0
VERTEX
  5
45ACA
100
AcDbEntity
  8
0
100
AcDbVertex
100
AcDbPolygonMeshVertex
 10
4.15
 20
0.0
 30
5.325
 70
    64
  0
VERTEX
  5
45ACB
100
AcDbEntity
  8
0
100
AcDbVertex
100
AcDbPolygonMeshVertex
 10
4.15
 20
0.0
 30
0.0
 70
    64
  0
VERTEX
  5
45ACC
100
AcDbEntity
  8
0
100
AcDbVertex
100
AcDbPolygonMeshVertex
 10
4.15
 20
-5.5
 30
0.0
 70
    64
  0
VERTEX
  5
45ACD
100
AcDbEntity
  8
0
100
AcDbVertex
100
AcDbPolygonMeshVertex
 10
4.15
 20
0.0
 30
5.325
 70
    64
  0
VERTEX
  5
45ACE
100
AcDbEntity
  8
0
100
AcDbVertex
100
AcDbPolygonMeshVertex
 10
4.15
 20
0.0
 30
5.325
 70
    64
  0
VERTEX
  5
45ACF
100
AcDbEntity
  8
0
100
AcDbVertex
100
AcDbPolygonMeshVertex
 10
4.15
 20
-5.5
 30
5.325
 70
    64
  0
VERTEX
  5
45AD0
100
AcDbEntity
  8
0
100
AcDbVertex
100
AcDbPolygonMeshVertex
 10
0.0
 20
0.0
 30
5.325
 70
    64
  0
VERTEX
  5
45AD1
100
AcDbEntity
  8
0
100
AcDbVertex
100
AcDbPolygonMeshVertex
 10
0.0
 20
0.0
 30
5.325
 70
    64
  0
VERTEX
  5
45AD2
100
AcDbEntity
  8
0
100
AcDbVertex
100
AcDbPolygonMeshVertex
 10
0.0
 20
-5.5
 30
5.325
 70
    64
  0
SEQEND
  5
45AD3
100
AcDbEntity
  8
0
  0
TEXT
  5
45AD5
100
AcDbEntity
  8
0
100
AcDbText
 10
1.844552
 20
-2.568769
 30
5.330199
 40
0.09
  1
85-132 VAC
100
AcDbText
  0
TEXT
  5
45AD6
100
AcDbEntity
  8
0
100
AcDbText
 10
1.846803
 20
-2.922278
 30
5.330199
 40
0.09
  1
JUMPER
100
AcDbText
  0
TEXT
  5
45AD7
100
AcDbEntity
  8
0
100
AcDbText
 10
1.846803
 20
-4.633712
 30
5.330199
 40
0.09
  1
L2-NEUTRAL
100
AcDbText
  0
TEXT
  5
45AD8
100
AcDbEntity
  8
0
100
AcDbText
 10
1.315584
 20
-3.953973
 30
5.330199
 40
0.09
  1
L1-85-132/170-265
100
AcDbText
  0
3DFACE
  5
45AD9
100
AcDbEntity
  8
0
100
AcDbFace
 10
4.15
 20
0.0
 30
5.7
 11
4.15
 21
-1.251082
 31
5.7
 12
0.0
 22
-1.251082
 32
5.7
 13
0.0
 23
0.0
 33
5.7
  0
3DFACE
  5
45ADA
100
AcDbEntity
  8
0
100
AcDbFace
 10
4.15
 20
0.0
 30
5.7
 11
4.15
 21
0.0
 31
5.7
 12
0.0
 22
0.0
 32
5.7
 13
0.0
 23
0.0
 33
5.7
  0
3DFACE
  5
45ADB
100
AcDbEntity
  8
0
100
AcDbFace
 10
0.0
 20
0.0
 30
5.325
 11
0.0
 21
-1.251082
 31
5.325
 12
4.15
 22
-1.251082
 32
5.325
 13
4.15
 23
0.0
 33
5.325
  0
3DFACE
  5
45ADC
100
AcDbEntity
  8
0
100
AcDbFace
 10
0.0
 20
0.0
 30
5.7
 11
0.0
 21
0.0
 31
5.325
 12
4.15
 22
0.0
 32
5.325
 13
4.15
 23
0.0
 33
5.7
  0
3DFACE
  5
45ADD
100
AcDbEntity
  8
0
100
AcDbFace
 10
4.15
 20
-1.251082
 30
5.325
 11
4.15
 21
-1.251082
 31
5.325
 12
0.0
 22
-1.251082
 32
5.325
 13
0.0
 23
-1.251082
 33
5.325
  0
3DFACE
  5
45ADE
100
AcDbEntity
  8
0
100
AcDbFace
 10
4.15
 20
-1.251082
 30
5.7
 11
4.15
 21
-1.251082
 31
5.325
 12
0.0
 22
-1.251082
 32
5.325
 13
0.0
 23
-1.251082
 33
5.7
  0
3DFACE
  5
45ADF
100
AcDbEntity
  8
0
100
AcDbFace
 10
0.0
 20
-5.5
 30
5.7
 11
0.0
 21
-5.5
 31
5.325
 12
4.15
 22
-5.5
 32
5.325
 13
4.148812
 23
-5.5
 33
5.7
  0
TEXT
  5
45AE0
100
AcDbEntity
  8
0
100
AcDbText
 10
1.502411
 20
-1.563463
 30
5.330199
 40
0.09
  1
PWR OUT +24 VDC
100
AcDbText
  0
TEXT
  5
45AE1
100
AcDbEntity
  8
0
100
AcDbText
 10
1.502411
 20
-1.909389
 30
5.330199
 40
0.09
  1
PWR OUT COMMON
100
AcDbText
  0
TEXT
  5
45AE2
100
AcDbEntity
  8
0
100
AcDbText
 10
1.846803
 20
-5.339802
 30
5.330199
 40
0.09
  1
CHASSIS GND
100
AcDbText
  0
TEXT
  5
45AE3
100
AcDbEntity
  8
0
100
AcDbText
 10
1.846803
 20
-3.254795
 30
5.330199
 40
0.09
  1
170-265 VAC
100
AcDbText
  0
3DFACE
  5
45AE4
100
AcDbEntity
  8
0
100
AcDbFace
 10
0.0
 20
-1.251082
 30
5.325
 11
0.0
 21
-1.251082
 31
5.7
 12
0.0
 22
-5.5
 32
5.7
 13
0.0
 23
-5.5
 33
5.325
  0
3DFACE
  5
45AE5
100
AcDbEntity
  8
0
100
AcDbFace
 10
0.0
 20
-1.251082
 30
5.325
 11
0.0
 21
-1.251082
 31
5.325
 12
0.0
 22
-1.251082
 32
5.325
 13
0.0
 23
0.0
 33
5.325
  0
3DFACE
  5
45AE6
100
AcDbEntity
  8
0
100
AcDbFace
 10
0.0
 20
-1.251082
 30
5.7
 11
0.0
 21
-1.251082
 31
5.325
 12
0.0
 22
0.0
 32
5.325
 13
0.0
 23
0.0
 33
5.7
  0
LINE
  5
45AE7
100
AcDbEntity
  8
0
100
AcDbLine
 10
3.036243
 20
-1.30532
 30
5.31
 11
3.036243
 21
-5.440221
 31
5.31
  0
LINE
  5
45AE8
100
AcDbEntity
  8
0
100
AcDbLine
 10
3.510643
 20
-5.440221
 30
5.31
 11
3.510643
 21
-1.30532
 31
5.31
  0
LINE
  5
45AE9
100
AcDbEntity
  8
0
100
AcDbLine
 10
2.911449
 20
-1.291098
 30
5.325
 11
2.911449
 21
-5.453689
 31
5.325
  0
LINE
  5
45AEA
100
AcDbEntity
  8
0
100
AcDbLine
 10
3.631519
 20
-5.453689
 30
5.325
 11
3.631519
 21
-1.291098
 31
5.325
  0
3DFACE
  5
45AEB
100
AcDbEntity
  8
0
100
AcDbFace
 10
4.15
 20
-1.251082
 30
5.7
 11
4.15
 21
-1.251082
 31
5.325
 12
4.15
 22
-5.5
 32
5.325
 13
4.148812
 23
-5.5
 33
5.7
  0
CIRCLE
  5
45AEC
100
AcDbEntity
  8
0
100
AcDbCircle
 39
0.06
 10
3.368591
 20
-3.210096
 30
5.385
 40
0.102574
  0
POLYLINE
  5
45AED
100
AcDbEntity
  8
0
100
AcDbPolygonMesh
 66
     1
 10
0.0
 20
0.0
 30
0.0
 70
    16
 71
     6
 72
     3
  0
VERTEX
  5
45AEE
100
AcDbEntity
  8
0
100
AcDbVertex
100
AcDbPolygonMeshVertex
 10
3.510616
 20
-3.363043
 30
5.385
 70
    64
  0
VERTEX
  5
45AEF
100
AcDbEntity
  8
0
100
AcDbVertex
100
AcDbPolygonMeshVertex
 10
3.510616
 20
-3.363043
 30
5.325
 70
    64
  0
VERTEX
  5
45AF0
100
AcDbEntity
  8
0
100
AcDbVertex
100
AcDbPolygonMeshVertex
 10
3.510616
 20
-3.363043
 30
5.325
 70
    64
  0
VERTEX
  5
45AF1
100
AcDbEntity
  8
0
100
AcDbVertex
100
AcDbPolygonMeshVertex
 10
3.198616
 20
-3.363043
 30
5.385
 70
    64
  0
VERTEX
  5
45AF2
100
AcDbEntity
  8
0
100
AcDbVertex
100
AcDbPolygonMeshVertex
 10
3.198616
 20
-3.363043
 30
5.325
 70
    64
  0
VERTEX
  5
45AF3
100
AcDbEntity
  8
0
100
AcDbVertex
100
AcDbPolygonMeshVertex
 10
3.198616
 20
-3.363043
 30
5.325
 70
    64
  0
VERTEX
  5
45AF4
100
AcDbEntity
  8
0
100
AcDbVertex
100
AcDbPolygonMeshVertex
 10
3.198616
 20
-3.051043
 30
5.385
 70
    64
  0
VERTEX
  5
45AF5
100
AcDbEntity
  8
0
100
AcDbVertex
100
AcDbPolygonMeshVertex
 10
3.198616
 20
-3.051043
 30
5.325
 70
    64
  0
VERTEX
  5
45AF6
100
AcDbEntity
  8
0
100
AcDbVertex
100
AcDbPolygonMeshVertex
 10
3.198616
 20
-3.363043
 30
5.325
 70
    64
  0
VERTEX
  5
45AF7
100
AcDbEntity
  8
0
100
AcDbVertex
100
AcDbPolygonMeshVertex
 10
3.510616
 20
-3.051043
 30
5.385
 70
    64
  0
VERTEX
  5
45AF8
100
AcDbEntity
  8
0
100
AcDbVertex
100
AcDbPolygonMeshVertex
 10
3.510616
 20
-3.051043
 30
5.325
 70
    64
  0
VERTEX
  5
45AF9
100
AcDbEntity
  8
0
100
AcDbVertex
100
AcDbPolygonMeshVertex
 10
3.510616
 20
-3.363043
 30
5.325
 70
    64
  0
VERTEX
  5
45AFA
100
AcDbEntity
  8
0
100
AcDbVertex
100
AcDbPolygonMeshVertex
 10
3.510616
 20
-3.051043
 30
5.385
 70
    64
  0
VERTEX
  5
45AFB
100
AcDbEntity
  8
0
100
AcDbVertex
100
AcDbPolygonMeshVertex
 10
3.510616
 20
-3.051043
 30
5.385
 70
    64
  0
VERTEX
  5
45AFC
100
AcDbEntity
  8
0
100
AcDbVertex
100
AcDbPolygonMeshVertex
 10
3.510616
 20
-3.363043
 30
5.385
 70
    64
  0
VERTEX
  5
45AFD
100
AcDbEntity
  8
0
100
AcDbVertex
100
AcDbPolygonMeshVertex
 10
3.198616
 20
-3.051043
 30
5.385
 70
    64
  0
VERTEX
  5
45AFE
100
AcDbEntity
  8
0
100
AcDbVertex
100
AcDbPolygonMeshVertex
 10
3.198616
 20
-3.051043
 30
5.385
 70
    64
  0
VERTEX
  5
45AFF
100
AcDbEntity
  8
0
100
AcDbVertex
100
AcDbPolygonMeshVertex
 10
3.198616
 20
-3.363043
 30
5.385
 70
    64
  0
SEQEND
  5
45B00
100
AcDbEntity
  8
0
  0
POLYLINE
  5
45B01
100
AcDbEntity
  8
0
100
AcDbPolygonMesh
 66
     1
 10
0.0
 20
0.0
 30
0.0
 70
    16
 71
     6
 72
     3
  0
VERTEX
  5
45B02
100
AcDbEntity
  8
0
100
AcDbVertex
100
AcDbPolygonMeshVertex
 10
3.510643
 20
-5.421958
 30
5.385
 70
    64
  0
VERTEX
  5
45B03
100
AcDbEntity
  8
0
100
AcDbVertex
100
AcDbPolygonMeshVertex
 10
3.510643
 20
-5.421958
 30
5.325
 70
    64
  0
VERTEX
  5
45B04
100
AcDbEntity
  8
0
100
AcDbVertex
100
AcDbPolygonMeshVertex
 10
3.510643
 20
-5.421958
 30
5.325
 70
    64
  0
VERTEX
  5
45B05
100
AcDbEntity
  8
0
100
AcDbVertex
100
AcDbPolygonMeshVertex
 10
3.198643
 20
-5.421958
 30
5.385
 70
    64
  0
VERTEX
  5
45B06
100
AcDbEntity
  8
0
100
AcDbVertex
100
AcDbPolygonMeshVertex
 10
3.198643
 20
-5.421958
 30
5.325
 70
    64
  0
VERTEX
  5
45B07
100
AcDbEntity
  8
0
100
AcDbVertex
100
AcDbPolygonMeshVertex
 10
3.198643
 20
-5.421958
 30
5.325
 70
    64
  0
VERTEX
  5
45B08
100
AcDbEntity
  8
0
100
AcDbVertex
100
AcDbPolygonMeshVertex
 10
3.198643
 20
-5.109958
 30
5.385
 70
    64
  0
VERTEX
  5
45B09
100
AcDbEntity
  8
0
100
AcDbVertex
100
AcDbPolygonMeshVertex
 10
3.198643
 20
-5.109958
 30
5.325
 70
    64
  0
VERTEX
  5
45B0A
100
AcDbEntity
  8
0
100
AcDbVertex
100
AcDbPolygonMeshVertex
 10
3.198643
 20
-5.421958
 30
5.325
 70
    64
  0
VERTEX
  5
45B0B
100
AcDbEntity
  8
0
100
AcDbVertex
100
AcDbPolygonMeshVertex
 10
3.510643
 20
-5.109958
 30
5.385
 70
    64
  0
VERTEX
  5
45B0C
100
AcDbEntity
  8
0
100
AcDbVertex
100
AcDbPolygonMeshVertex
 10
3.510643
 20
-5.109958
 30
5.325
 70
    64
  0
VERTEX
  5
45B0D
100
AcDbEntity
  8
0
100
AcDbVertex
100
AcDbPolygonMeshVertex
 10
3.510643
 20
-5.421958
 30
5.325
 70
    64
  0
VERTEX
  5
45B0E
100
AcDbEntity
  8
0
100
AcDbVertex
100
AcDbPolygonMeshVertex
 10
3.510643
 20
-5.109958
 30
5.385
 70
    64
  0
VERTEX
  5
45B0F
100
AcDbEntity
  8
0
100
AcDbVertex
100
AcDbPolygonMeshVertex
 10
3.510643
 20
-5.109958
 30
5.385
 70
    64
  0
VERTEX
  5
45B10
100
AcDbEntity
  8
0
100
AcDbVertex
100
AcDbPolygonMeshVertex
 10
3.510643
 20
-5.421958
 30
5.385
 70
    64
  0
VERTEX
  5
45B11
100
AcDbEntity
  8
0
100
AcDbVertex
100
AcDbPolygonMeshVertex
 10
3.198643
 20
-5.109958
 30
5.385
 70
    64
  0
VERTEX
  5
45B12
100
AcDbEntity
  8
0
100
AcDbVertex
100
AcDbPolygonMeshVertex
 10
3.198643
 20
-5.109958
 30
5.385
 70
    64
  0
VERTEX
  5
45B13
100
AcDbEntity
  8
0
100
AcDbVertex
100
AcDbPolygonMeshVertex
 10
3.198643
 20
-5.421958
 30
5.385
 70
    64
  0
SEQEND
  5
45B14
100
AcDbEntity
  8
0
  0
LINE
  5
45B15
100
AcDbEntity
  8
0
100
AcDbLine
 10
3.036243
 20
-5.440221
 30
5.31
 11
3.510643
 21
-5.440221
 31
5.31
  0
LINE
  5
45B16
100
AcDbEntity
  8
0
100
AcDbLine
 10
2.911449
 20
-5.453689
 30
5.325
 11
3.631519
 21
-5.453689
 31
5.325
  0
CIRCLE
  5
45B17
100
AcDbEntity
  8
0
100
AcDbCircle
 39
0.06
 10
3.368618
 20
-5.269011
 30
5.385
 40
0.102574
  0
POLYLINE
  5
45B18
100
AcDbEntity
  8
0
100
AcDbPolygonMesh
 66
     1
 10
0.0
 20
0.0
 30
0.0
 70
    16
 71
     6
 72
     3
  0
VERTEX
  5
45B19
100
AcDbEntity
  8
0
100
AcDbVertex
100
AcDbPolygonMeshVertex
 10
3.510643
 20
-4.385109
 30
5.385
 70
    64
  0
VERTEX
  5
45B1A
100
AcDbEntity
  8
0
100
AcDbVertex
100
AcDbPolygonMeshVertex
 10
3.510643
 20
-4.385109
 30
5.325
 70
    64
  0
VERTEX
  5
45B1B
100
AcDbEntity
  8
0
100
AcDbVertex
100
AcDbPolygonMeshVertex
 10
3.510643
 20
-4.385109
 30
5.325
 70
    64
  0
VERTEX
  5
45B1C
100
AcDbEntity
  8
0
100
AcDbVertex
100
AcDbPolygonMeshVertex
 10
3.198643
 20
-4.385109
 30
5.385
 70
    64
  0
VERTEX
  5
45B1D
100
AcDbEntity
  8
0
100
AcDbVertex
100
AcDbPolygonMeshVertex
 10
3.198643
 20
-4.385109
 30
5.325
 70
    64
  0
VERTEX
  5
45B1E
100
AcDbEntity
  8
0
100
AcDbVertex
100
AcDbPolygonMeshVertex
 10
3.198643
 20
-4.385109
 30
5.325
 70
    64
  0
VERTEX
  5
45B1F
100
AcDbEntity
  8
0
100
AcDbVertex
100
AcDbPolygonMeshVertex
 10
3.198643
 20
-4.073109
 30
5.385
 70
    64
  0
VERTEX
  5
45B20
100
AcDbEntity
  8
0
100
AcDbVertex
100
AcDbPolygonMeshVertex
 10
3.198643
 20
-4.073109
 30
5.325
 70
    64
  0
VERTEX
  5
45B21
100
AcDbEntity
  8
0
100
AcDbVertex
100
AcDbPolygonMeshVertex
 10
3.198643
 20
-4.385109
 30
5.325
 70
    64
  0
VERTEX
  5
45B22
100
AcDbEntity
  8
0
100
AcDbVertex
100
AcDbPolygonMeshVertex
 10
3.510643
 20
-4.073109
 30
5.385
 70
    64
  0
VERTEX
  5
45B23
100
AcDbEntity
  8
0
100
AcDbVertex
100
AcDbPolygonMeshVertex
 10
3.510643
 20
-4.073109
 30
5.325
 70
    64
  0
VERTEX
  5
45B24
100
AcDbEntity
  8
0
100
AcDbVertex
100
AcDbPolygonMeshVertex
 10
3.510643
 20
-4.385109
 30
5.325
 70
    64
  0
VERTEX
  5
45B25
100
AcDbEntity
  8
0
100
AcDbVertex
100
AcDbPolygonMeshVertex
 10
3.510643
 20
-4.073109
 30
5.385
 70
    64
  0
VERTEX
  5
45B26
100
AcDbEntity
  8
0
100
AcDbVertex
100
AcDbPolygonMeshVertex
 10
3.510643
 20
-4.073109
 30
5.385
 70
    64
  0
VERTEX
  5
45B27
100
AcDbEntity
  8
0
100
AcDbVertex
100
AcDbPolygonMeshVertex
 10
3.510643
 20
-4.385109
 30
5.385
 70
    64
  0
VERTEX
  5
45B28
100
AcDbEntity
  8
0
100
AcDbVertex
100
AcDbPolygonMeshVertex
 10
3.198643
 20
-4.073109
 30
5.385
 70
    64
  0
VERTEX
  5
45B29
100
AcDbEntity
  8
0
100
AcDbVertex
100
AcDbPolygonMeshVertex
 10
3.198643
 20
-4.073109
 30
5.385
 70
    64
  0
VERTEX
  5
45B2A
100
AcDbEntity
  8
0
100
AcDbVertex
100
AcDbPolygonMeshVertex
 10
3.198643
 20
-4.385109
 30
5.385
 70
    64
  0
SEQEND
  5
45B2B
100
AcDbEntity
  8
0
  0
POLYLINE
  5
45B2C
100
AcDbEntity
  8
0
100
AcDbPolygonMesh
 66
     1
 10
0.0
 20
0.0
 30
0.0
 70
    16
 71
     6
 72
     3
  0
VERTEX
  5
45B2D
100
AcDbEntity
  8
0
100
AcDbVertex
100
AcDbPolygonMeshVertex
 10
3.510643
 20
-4.72677
 30
5.385
 70
    64
  0
VERTEX
  5
45B2E
100
AcDbEntity
  8
0
100
AcDbVertex
100
AcDbPolygonMeshVertex
 10
3.510643
 20
-4.72677
 30
5.325
 70
    64
  0
VERTEX
  5
45B2F
100
AcDbEntity
  8
0
100
AcDbVertex
100
AcDbPolygonMeshVertex
 10
3.510643
 20
-4.72677
 30
5.325
 70
    64
  0
VERTEX
  5
45B30
100
AcDbEntity
  8
0
100
AcDbVertex
100
AcDbPolygonMeshVertex
 10
3.198643
 20
-4.72677
 30
5.385
 70
    64
  0
VERTEX
  5
45B31
100
AcDbEntity
  8
0
100
AcDbVertex
100
AcDbPolygonMeshVertex
 10
3.198643
 20
-4.72677
 30
5.325
 70
    64
  0
VERTEX
  5
45B32
100
AcDbEntity
  8
0
100
AcDbVertex
100
AcDbPolygonMeshVertex
 10
3.198643
 20
-4.72677
 30
5.325
 70
    64
  0
VERTEX
  5
45B33
100
AcDbEntity
  8
0
100
AcDbVertex
100
AcDbPolygonMeshVertex
 10
3.198643
 20
-4.41477
 30
5.385
 70
    64
  0
VERTEX
  5
45B34
100
AcDbEntity
  8
0
100
AcDbVertex
100
AcDbPolygonMeshVertex
 10
3.198643
 20
-4.41477
 30
5.325
 70
    64
  0
VERTEX
  5
45B35
100
AcDbEntity
  8
0
100
AcDbVertex
100
AcDbPolygonMeshVertex
 10
3.198643
 20
-4.72677
 30
5.325
 70
    64
  0
VERTEX
  5
45B36
100
AcDbEntity
  8
0
100
AcDbVertex
100
AcDbPolygonMeshVertex
 10
3.510643
 20
-4.41477
 30
5.385
 70
    64
  0
VERTEX
  5
45B37
100
AcDbEntity
  8
0
100
AcDbVertex
100
AcDbPolygonMeshVertex
 10
3.510643
 20
-4.41477
 30
5.325
 70
    64
  0
VERTEX
  5
45B38
100
AcDbEntity
  8
0
100
AcDbVertex
100
AcDbPolygonMeshVertex
 10
3.510643
 20
-4.72677
 30
5.325
 70
    64
  0
VERTEX
  5
45B39
100
AcDbEntity
  8
0
100
AcDbVertex
100
AcDbPolygonMeshVertex
 10
3.510643
 20
-4.41477
 30
5.385
 70
    64
  0
VERTEX
  5
45B3A
100
AcDbEntity
  8
0
100
AcDbVertex
100
AcDbPolygonMeshVertex
 10
3.510643
 20
-4.41477
 30
5.385
 70
    64
  0
VERTEX
  5
45B3B
100
AcDbEntity
  8
0
100
AcDbVertex
100
AcDbPolygonMeshVertex
 10
3.510643
 20
-4.72677
 30
5.385
 70
    64
  0
VERTEX
  5
45B3C
100
AcDbEntity
  8
0
100
AcDbVertex
100
AcDbPolygonMeshVertex
 10
3.198643
 20
-4.41477
 30
5.385
 70
    64
  0
VERTEX
  5
45B3D
100
AcDbEntity
  8
0
100
AcDbVertex
100
AcDbPolygonMeshVertex
 10
3.198643
 20
-4.41477
 30
5.385
 70
    64
  0
VERTEX
  5
45B3E
100
AcDbEntity
  8
0
100
AcDbVertex
100
AcDbPolygonMeshVertex
 10
3.198643
 20
-4.72677
 30
5.385
 70
    64
  0
SEQEND
  5
45B3F
100
AcDbEntity
  8
0
  0
CIRCLE
  5
45B40
100
AcDbEntity
  8
0
100
AcDbCircle
 39
0.06
 10
3.368618
 20
-4.573823
 30
5.385
 40
0.102574
  0
POLYLINE
  5
45B41
100
AcDbEntity
  8
0
100
AcDbPolygonMesh
 66
     1
 10
0.0
 20
0.0
 30
0.0
 70
    16
 71
     6
 72
     3
  0
VERTEX
  5
45B42
100
AcDbEntity
  8
0
100
AcDbVertex
100
AcDbPolygonMeshVertex
 10
3.510643
 20
-5.071398
 30
5.385
 70
    64
  0
VERTEX
  5
45B43
100
AcDbEntity
  8
0
100
AcDbVertex
100
AcDbPolygonMeshVertex
 10
3.510643
 20
-5.071398
 30
5.325
 70
    64
  0
VERTEX
  5
45B44
100
AcDbEntity
  8
0
100
AcDbVertex
100
AcDbPolygonMeshVertex
 10
3.510643
 20
-5.071398
 30
5.325
 70
    64
  0
VERTEX
  5
45B45
100
AcDbEntity
  8
0
100
AcDbVertex
100
AcDbPolygonMeshVertex
 10
3.198643
 20
-5.071398
 30
5.385
 70
    64
  0
VERTEX
  5
45B46
100
AcDbEntity
  8
0
100
AcDbVertex
100
AcDbPolygonMeshVertex
 10
3.198643
 20
-5.071398
 30
5.325
 70
    64
  0
VERTEX
  5
45B47
100
AcDbEntity
  8
0
100
AcDbVertex
100
AcDbPolygonMeshVertex
 10
3.198643
 20
-5.071398
 30
5.325
 70
    64
  0
VERTEX
  5
45B48
100
AcDbEntity
  8
0
100
AcDbVertex
100
AcDbPolygonMeshVertex
 10
3.198643
 20
-4.759398
 30
5.385
 70
    64
  0
VERTEX
  5
45B49
100
AcDbEntity
  8
0
100
AcDbVertex
100
AcDbPolygonMeshVertex
 10
3.198643
 20
-4.759398
 30
5.325
 70
    64
  0
VERTEX
  5
45B4A
100
AcDbEntity
  8
0
100
AcDbVertex
100
AcDbPolygonMeshVertex
 10
3.198643
 20
-5.071398
 30
5.325
 70
    64
  0
VERTEX
  5
45B4B
100
AcDbEntity
  8
0
100
AcDbVertex
100
AcDbPolygonMeshVertex
 10
3.510643
 20
-4.759398
 30
5.385
 70
    64
  0
VERTEX
  5
45B4C
100
AcDbEntity
  8
0
100
AcDbVertex
100
AcDbPolygonMeshVertex
 10
3.510643
 20
-4.759398
 30
5.325
 70
    64
  0
VERTEX
  5
45B4D
100
AcDbEntity
  8
0
100
AcDbVertex
100
AcDbPolygonMeshVertex
 10
3.510643
 20
-5.071398
 30
5.325
 70
    64
  0
VERTEX
  5
45B4E
100
AcDbEntity
  8
0
100
AcDbVertex
100
AcDbPolygonMeshVertex
 10
3.510643
 20
-4.759398
 30
5.385
 70
    64
  0
VERTEX
  5
45B4F
100
AcDbEntity
  8
0
100
AcDbVertex
100
AcDbPolygonMeshVertex
 10
3.510643
 20
-4.759398
 30
5.385
 70
    64
  0
VERTEX
  5
45B50
100
AcDbEntity
  8
0
100
AcDbVertex
100
AcDbPolygonMeshVertex
 10
3.510643
 20
-5.071398
 30
5.385
 70
    64
  0
VERTEX
  5
45B51
100
AcDbEntity
  8
0
100
AcDbVertex
100
AcDbPolygonMeshVertex
 10
3.198643
 20
-4.759398
 30
5.385
 70
    64
  0
VERTEX
  5
45B52
100
AcDbEntity
  8
0
100
AcDbVertex
100
AcDbPolygonMeshVertex
 10
3.198643
 20
-4.759398
 30
5.385
 70
    64
  0
VERTEX
  5
45B53
100
AcDbEntity
  8
0
100
AcDbVertex
100
AcDbPolygonMeshVertex
 10
3.198643
 20
-5.071398
 30
5.385
 70
    64
  0
SEQEND
  5
45B54
100
AcDbEntity
  8
0
  0
POLYLINE
  5
45B55
100
AcDbEntity
  8
0
100
AcDbPolygonMesh
 66
     1
 10
0.0
 20
0.0
 30
0.0
 70
    16
 71
     6
 72
     3
  0
VERTEX
  5
45B56
100
AcDbEntity
  8
0
100
AcDbVertex
100
AcDbPolygonMeshVertex
 10
3.510571
 20
-3.713661
 30
5.385
 70
    64
  0
VERTEX
  5
45B57
100
AcDbEntity
  8
0
100
AcDbVertex
100
AcDbPolygonMeshVertex
 10
3.510571
 20
-3.713661
 30
5.325
 70
    64
  0
VERTEX
  5
45B58
100
AcDbEntity
  8
0
100
AcDbVertex
100
AcDbPolygonMeshVertex
 10
3.510571
 20
-3.713661
 30
5.325
 70
    64
  0
VERTEX
  5
45B59
100
AcDbEntity
  8
0
100
AcDbVertex
100
AcDbPolygonMeshVertex
 10
3.198571
 20
-3.713661
 30
5.385
 70
    64
  0
VERTEX
  5
45B5A
100
AcDbEntity
  8
0
100
AcDbVertex
100
AcDbPolygonMeshVertex
 10
3.198571
 20
-3.713661
 30
5.325
 70
    64
  0
VERTEX
  5
45B5B
100
AcDbEntity
  8
0
100
AcDbVertex
100
AcDbPolygonMeshVertex
 10
3.198571
 20
-3.713661
 30
5.325
 70
    64
  0
VERTEX
  5
45B5C
100
AcDbEntity
  8
0
100
AcDbVertex
100
AcDbPolygonMeshVertex
 10
3.198571
 20
-3.401661
 30
5.385
 70
    64
  0
VERTEX
  5
45B5D
100
AcDbEntity
  8
0
100
AcDbVertex
100
AcDbPolygonMeshVertex
 10
3.198571
 20
-3.401661
 30
5.325
 70
    64
  0
VERTEX
  5
45B5E
100
AcDbEntity
  8
0
100
AcDbVertex
100
AcDbPolygonMeshVertex
 10
3.198571
 20
-3.713661
 30
5.325
 70
    64
  0
VERTEX
  5
45B5F
100
AcDbEntity
  8
0
100
AcDbVertex
100
AcDbPolygonMeshVertex
 10
3.510571
 20
-3.401661
 30
5.385
 70
    64
  0
VERTEX
  5
45B60
100
AcDbEntity
  8
0
100
AcDbVertex
100
AcDbPolygonMeshVertex
 10
3.510571
 20
-3.401661
 30
5.325
 70
    64
  0
VERTEX
  5
45B61
100
AcDbEntity
  8
0
100
AcDbVertex
100
AcDbPolygonMeshVertex
 10
3.510571
 20
-3.713661
 30
5.325
 70
    64
  0
VERTEX
  5
45B62
100
AcDbEntity
  8
0
100
AcDbVertex
100
AcDbPolygonMeshVertex
 10
3.510571
 20
-3.401661
 30
5.385
 70
    64
  0
VERTEX
  5
45B63
100
AcDbEntity
  8
0
100
AcDbVertex
100
AcDbPolygonMeshVertex
 10
3.510571
 20
-3.401661
 30
5.385
 70
    64
  0
VERTEX
  5
45B64
100
AcDbEntity
  8
0
100
AcDbVertex
100
AcDbPolygonMeshVertex
 10
3.510571
 20
-3.713661
 30
5.385
 70
    64
  0
VERTEX
  5
45B65
100
AcDbEntity
  8
0
100
AcDbVertex
100
AcDbPolygonMeshVertex
 10
3.198571
 20
-3.401661
 30
5.385
 70
    64
  0
VERTEX
  5
45B66
100
AcDbEntity
  8
0
100
AcDbVertex
100
AcDbPolygonMeshVertex
 10
3.198571
 20
-3.401661
 30
5.385
 70
    64
  0
VERTEX
  5
45B67
100
AcDbEntity
  8
0
100
AcDbVertex
100
AcDbPolygonMeshVertex
 10
3.198571
 20
-3.713661
 30
5.385
 70
    64
  0
SEQEND
  5
45B68
100
AcDbEntity
  8
0
  0
CIRCLE
  5
45B69
100
AcDbEntity
  8
0
100
AcDbCircle
 39
0.06
 10
3.368618
 20
-3.896432
 30
5.385
 40
0.102574
  0
POLYLINE
  5
45B6A
100
AcDbEntity
  8
0
100
AcDbPolygonMesh
 66
     1
 10
0.0
 20
0.0
 30
0.0
 70
    16
 71
     6
 72
     3
  0
VERTEX
  5
45B6B
100
AcDbEntity
  8
0
100
AcDbVertex
100
AcDbPolygonMeshVertex
 10
3.510643
 20
-4.04938
 30
5.385
 70
    64
  0
VERTEX
  5
45B6C
100
AcDbEntity
  8
0
100
AcDbVertex
100
AcDbPolygonMeshVertex
 10
3.510643
 20
-4.04938
 30
5.325
 70
    64
  0
VERTEX
  5
45B6D
100
AcDbEntity
  8
0
100
AcDbVertex
100
AcDbPolygonMeshVertex
 10
3.510643
 20
-4.04938
 30
5.325
 70
    64
  0
VERTEX
  5
45B6E
100
AcDbEntity
  8
0
100
AcDbVertex
100
AcDbPolygonMeshVertex
 10
3.198643
 20
-4.04938
 30
5.385
 70
    64
  0
VERTEX
  5
45B6F
100
AcDbEntity
  8
0
100
AcDbVertex
100
AcDbPolygonMeshVertex
 10
3.198643
 20
-4.04938
 30
5.325
 70
    64
  0
VERTEX
  5
45B70
100
AcDbEntity
  8
0
100
AcDbVertex
100
AcDbPolygonMeshVertex
 10
3.198643
 20
-4.04938
 30
5.325
 70
    64
  0
VERTEX
  5
45B71
100
AcDbEntity
  8
0
100
AcDbVertex
100
AcDbPolygonMeshVertex
 10
3.198643
 20
-3.73738
 30
5.385
 70
    64
  0
VERTEX
  5
45B72
100
AcDbEntity
  8
0
100
AcDbVertex
100
AcDbPolygonMeshVertex
 10
3.198643
 20
-3.73738
 30
5.325
 70
    64
  0
VERTEX
  5
45B73
100
AcDbEntity
  8
0
100
AcDbVertex
100
AcDbPolygonMeshVertex
 10
3.198643
 20
-4.04938
 30
5.325
 70
    64
  0
VERTEX
  5
45B74
100
AcDbEntity
  8
0
100
AcDbVertex
100
AcDbPolygonMeshVertex
 10
3.510643
 20
-3.73738
 30
5.385
 70
    64
  0
VERTEX
  5
45B75
100
AcDbEntity
  8
0
100
AcDbVertex
100
AcDbPolygonMeshVertex
 10
3.510643
 20
-3.73738
 30
5.325
 70
    64
  0
VERTEX
  5
45B76
100
AcDbEntity
  8
0
100
AcDbVertex
100
AcDbPolygonMeshVertex
 10
3.510643
 20
-4.04938
 30
5.325
 70
    64
  0
VERTEX
  5
45B77
100
AcDbEntity
  8
0
100
AcDbVertex
100
AcDbPolygonMeshVertex
 10
3.510643
 20
-3.73738
 30
5.385
 70
    64
  0
VERTEX
  5
45B78
100
AcDbEntity
  8
0
100
AcDbVertex
100
AcDbPolygonMeshVertex
 10
3.510643
 20
-3.73738
 30
5.385
 70
    64
  0
VERTEX
  5
45B79
100
AcDbEntity
  8
0
100
AcDbVertex
100
AcDbPolygonMeshVertex
 10
3.510643
 20
-4.04938
 30
5.385
 70
    64
  0
VERTEX
  5
45B7A
100
AcDbEntity
  8
0
100
AcDbVertex
100
AcDbPolygonMeshVertex
 10
3.198643
 20
-3.73738
 30
5.385
 70
    64
  0
VERTEX
  5
45B7B
100
AcDbEntity
  8
0
100
AcDbVertex
100
AcDbPolygonMeshVertex
 10
3.198643
 20
-3.73738
 30
5.385
 70
    64
  0
VERTEX
  5
45B7C
100
AcDbEntity
  8
0
100
AcDbVertex
100
AcDbPolygonMeshVertex
 10
3.198643
 20
-4.04938
 30
5.385
 70
    64
  0
SEQEND
  5
45B7D
100
AcDbEntity
  8
0
  0
TEXT
  5
45B7E
100
AcDbEntity
  8
0
100
AcDbText
 10
3.442557
 20
-0.356339
 30
5.714672
 40
0.125
  1
POWER
100
AcDbText
  0
TEXT
  5
45B7F
100
AcDbEntity
  8
0
100
AcDbText
 10
3.676809
 20
-1.772902
 30
5.330199
 40
0.09
  1
POWER
100
AcDbText
  0
TEXT
  5
45B80
100
AcDbEntity
  8
0
100
AcDbText
 10
3.717326
 20
-1.59746
 30
5.330199
 40
0.09
  1
USER
100
AcDbText
  0
POLYLINE
  5
45B81
100
AcDbEntity
  8
0
100
AcDbPolygonMesh
 66
     1
 10
0.0
 20
0.0
 30
0.0
 70
    16
 71
     6
 72
     3
  0
VERTEX
  5
45B82
100
AcDbEntity
  8
0
100
AcDbVertex
100
AcDbPolygonMeshVertex
 10
3.510616
 20
-2.326193
 30
5.385
 70
    64
  0
VERTEX
  5
45B83
100
AcDbEntity
  8
0
100
AcDbVertex
100
AcDbPolygonMeshVertex
 10
3.510616
 20
-2.326193
 30
5.325
 70
    64
  0
VERTEX
  5
45B84
100
AcDbEntity
  8
0
100
AcDbVertex
100
AcDbPolygonMeshVertex
 10
3.510616
 20
-2.326193
 30
5.325
 70
    64
  0
VERTEX
  5
45B85
100
AcDbEntity
  8
0
100
AcDbVertex
100
AcDbPolygonMeshVertex
 10
3.198616
 20
-2.326193
 30
5.385
 70
    64
  0
VERTEX
  5
45B86
100
AcDbEntity
  8
0
100
AcDbVertex
100
AcDbPolygonMeshVertex
 10
3.198616
 20
-2.326193
 30
5.325
 70
    64
  0
VERTEX
  5
45B87
100
AcDbEntity
  8
0
100
AcDbVertex
100
AcDbPolygonMeshVertex
 10
3.198616
 20
-2.326193
 30
5.325
 70
    64
  0
VERTEX
  5
45B88
100
AcDbEntity
  8
0
100
AcDbVertex
100
AcDbPolygonMeshVertex
 10
3.198616
 20
-2.014193
 30
5.385
 70
    64
  0
VERTEX
  5
45B89
100
AcDbEntity
  8
0
100
AcDbVertex
100
AcDbPolygonMeshVertex
 10
3.198616
 20
-2.014193
 30
5.325
 70
    64
  0
VERTEX
  5
45B8A
100
AcDbEntity
  8
0
100
AcDbVertex
100
AcDbPolygonMeshVertex
 10
3.198616
 20
-2.326193
 30
5.325
 70
    64
  0
VERTEX
  5
45B8B
100
AcDbEntity
  8
0
100
AcDbVertex
100
AcDbPolygonMeshVertex
 10
3.510616
 20
-2.014193
 30
5.385
 70
    64
  0
VERTEX
  5
45B8C
100
AcDbEntity
  8
0
100
AcDbVertex
100
AcDbPolygonMeshVertex
 10
3.510616
 20
-2.014193
 30
5.325
 70
    64
  0
VERTEX
  5
45B8D
100
AcDbEntity
  8
0
100
AcDbVertex
100
AcDbPolygonMeshVertex
 10
3.510616
 20
-2.326193
 30
5.325
 70
    64
  0
VERTEX
  5
45B8E
100
AcDbEntity
  8
0
100
AcDbVertex
100
AcDbPolygonMeshVertex
 10
3.510616
 20
-2.014193
 30
5.385
 70
    64
  0
VERTEX
  5
45B8F
100
AcDbEntity
  8
0
100
AcDbVertex
100
AcDbPolygonMeshVertex
 10
3.510616
 20
-2.014193
 30
5.385
 70
    64
  0
VERTEX
  5
45B90
100
AcDbEntity
  8
0
100
AcDbVertex
100
AcDbPolygonMeshVertex
 10
3.510616
 20
-2.326193
 30
5.385
 70
    64
  0
VERTEX
  5
45B91
100
AcDbEntity
  8
0
100
AcDbVertex
100
AcDbPolygonMeshVertex
 10
3.198616
 20
-2.014193
 30
5.385
 70
    64
  0
VERTEX
  5
45B92
100
AcDbEntity
  8
0
100
AcDbVertex
100
AcDbPolygonMeshVertex
 10
3.198616
 20
-2.014193
 30
5.385
 70
    64
  0
VERTEX
  5
45B93
100
AcDbEntity
  8
0
100
AcDbVertex
100
AcDbPolygonMeshVertex
 10
3.198616
 20
-2.326193
 30
5.385
 70
    64
  0
SEQEND
  5
45B94
100
AcDbEntity
  8
0
  0
CIRCLE
  5
45B95
100
AcDbEntity
  8
0
100
AcDbCircle
 39
0.06
 10
3.368591
 20
-2.514908
 30
5.385
 40
0.102574
  0
POLYLINE
  5
45B96
100
AcDbEntity
  8
0
100
AcDbPolygonMesh
 66
     1
 10
0.0
 20
0.0
 30
0.0
 70
    16
 71
     6
 72
     3
  0
VERTEX
  5
45B97
100
AcDbEntity
  8
0
100
AcDbVertex
100
AcDbPolygonMeshVertex
 10
3.510616
 20
-2.667855
 30
5.385
 70
    64
  0
VERTEX
  5
45B98
100
AcDbEntity
  8
0
100
AcDbVertex
100
AcDbPolygonMeshVertex
 10
3.510616
 20
-2.667855
 30
5.325
 70
    64
  0
VERTEX
  5
45B99
100
AcDbEntity
  8
0
100
AcDbVertex
100
AcDbPolygonMeshVertex
 10
3.510616
 20
-2.667855
 30
5.325
 70
    64
  0
VERTEX
  5
45B9A
100
AcDbEntity
  8
0
100
AcDbVertex
100
AcDbPolygonMeshVertex
 10
3.198616
 20
-2.667855
 30
5.385
 70
    64
  0
VERTEX
  5
45B9B
100
AcDbEntity
  8
0
100
AcDbVertex
100
AcDbPolygonMeshVertex
 10
3.198616
 20
-2.667855
 30
5.325
 70
    64
  0
VERTEX
  5
45B9C
100
AcDbEntity
  8
0
100
AcDbVertex
100
AcDbPolygonMeshVertex
 10
3.198616
 20
-2.667855
 30
5.325
 70
    64
  0
VERTEX
  5
45B9D
100
AcDbEntity
  8
0
100
AcDbVertex
100
AcDbPolygonMeshVertex
 10
3.198616
 20
-2.355855
 30
5.385
 70
    64
  0
VERTEX
  5
45B9E
100
AcDbEntity
  8
0
100
AcDbVertex
100
AcDbPolygonMeshVertex
 10
3.198616
 20
-2.355855
 30
5.325
 70
    64
  0
VERTEX
  5
45B9F
100
AcDbEntity
  8
0
100
AcDbVertex
100
AcDbPolygonMeshVertex
 10
3.198616
 20
-2.667855
 30
5.325
 70
    64
  0
VERTEX
  5
45BA0
100
AcDbEntity
  8
0
100
AcDbVertex
100
AcDbPolygonMeshVertex
 10
3.510616
 20
-2.355855
 30
5.385
 70
    64
  0
VERTEX
  5
45BA1
100
AcDbEntity
  8
0
100
AcDbVertex
100
AcDbPolygonMeshVertex
 10
3.510616
 20
-2.355855
 30
5.325
 70
    64
  0
VERTEX
  5
45BA2
100
AcDbEntity
  8
0
100
AcDbVertex
100
AcDbPolygonMeshVertex
 10
3.510616
 20
-2.667855
 30
5.325
 70
    64
  0
VERTEX
  5
45BA3
100
AcDbEntity
  8
0
100
AcDbVertex
100
AcDbPolygonMeshVertex
 10
3.510616
 20
-2.355855
 30
5.385
 70
    64
  0
VERTEX
  5
45BA4
100
AcDbEntity
  8
0
100
AcDbVertex
100
AcDbPolygonMeshVertex
 10
3.510616
 20
-2.355855
 30
5.385
 70
    64
  0
VERTEX
  5
45BA5
100
AcDbEntity
  8
0
100
AcDbVertex
100
AcDbPolygonMeshVertex
 10
3.510616
 20
-2.667855
 30
5.385
 70
    64
  0
VERTEX
  5
45BA6
100
AcDbEntity
  8
0
100
AcDbVertex
100
AcDbPolygonMeshVertex
 10
3.198616
 20
-2.355855
 30
5.385
 70
    64
  0
VERTEX
  5
45BA7
100
AcDbEntity
  8
0
100
AcDbVertex
100
AcDbPolygonMeshVertex
 10
3.198616
 20
-2.355855
 30
5.385
 70
    64
  0
VERTEX
  5
45BA8
100
AcDbEntity
  8
0
100
AcDbVertex
100
AcDbPolygonMeshVertex
 10
3.198616
 20
-2.667855
 30
5.385
 70
    64
  0
SEQEND
  5
45BA9
100
AcDbEntity
  8
0
  0
CIRCLE
  5
45BAA
100
AcDbEntity
  8
0
100
AcDbCircle
 39
0.06
 10
3.368591
 20
-2.859535
 30
5.385
 40
0.102574
  0
POLYLINE
  5
45BAB
100
AcDbEntity
  8
0
100
AcDbPolygonMesh
 66
     1
 10
0.0
 20
0.0
 30
0.0
 70
    16
 71
     6
 72
     3
  0
VERTEX
  5
45BAC
100
AcDbEntity
  8
0
100
AcDbVertex
100
AcDbPolygonMeshVertex
 10
3.510616
 20
-3.012483
 30
5.385
 70
    64
  0
VERTEX
  5
45BAD
100
AcDbEntity
  8
0
100
AcDbVertex
100
AcDbPolygonMeshVertex
 10
3.510616
 20
-3.012483
 30
5.325
 70
    64
  0
VERTEX
  5
45BAE
100
AcDbEntity
  8
0
100
AcDbVertex
100
AcDbPolygonMeshVertex
 10
3.510616
 20
-3.012483
 30
5.325
 70
    64
  0
VERTEX
  5
45BAF
100
AcDbEntity
  8
0
100
AcDbVertex
100
AcDbPolygonMeshVertex
 10
3.198616
 20
-3.012483
 30
5.385
 70
    64
  0
VERTEX
  5
45BB0
100
AcDbEntity
  8
0
100
AcDbVertex
100
AcDbPolygonMeshVertex
 10
3.198616
 20
-3.012483
 30
5.325
 70
    64
  0
VERTEX
  5
45BB1
100
AcDbEntity
  8
0
100
AcDbVertex
100
AcDbPolygonMeshVertex
 10
3.198616
 20
-3.012483
 30
5.325
 70
    64
  0
VERTEX
  5
45BB2
100
AcDbEntity
  8
0
100
AcDbVertex
100
AcDbPolygonMeshVertex
 10
3.198616
 20
-2.700483
 30
5.385
 70
    64
  0
VERTEX
  5
45BB3
100
AcDbEntity
  8
0
100
AcDbVertex
100
AcDbPolygonMeshVertex
 10
3.198616
 20
-2.700483
 30
5.325
 70
    64
  0
VERTEX
  5
45BB4
100
AcDbEntity
  8
0
100
AcDbVertex
100
AcDbPolygonMeshVertex
 10
3.198616
 20
-3.012483
 30
5.325
 70
    64
  0
VERTEX
  5
45BB5
100
AcDbEntity
  8
0
100
AcDbVertex
100
AcDbPolygonMeshVertex
 10
3.510616
 20
-2.700483
 30
5.385
 70
    64
  0
VERTEX
  5
45BB6
100
AcDbEntity
  8
0
100
AcDbVertex
100
AcDbPolygonMeshVertex
 10
3.510616
 20
-2.700483
 30
5.325
 70
    64
  0
VERTEX
  5
45BB7
100
AcDbEntity
  8
0
100
AcDbVertex
100
AcDbPolygonMeshVertex
 10
3.510616
 20
-3.012483
 30
5.325
 70
    64
  0
VERTEX
  5
45BB8
100
AcDbEntity
  8
0
100
AcDbVertex
100
AcDbPolygonMeshVertex
 10
3.510616
 20
-2.700483
 30
5.385
 70
    64
  0
VERTEX
  5
45BB9
100
AcDbEntity
  8
0
100
AcDbVertex
100
AcDbPolygonMeshVertex
 10
3.510616
 20
-2.700483
 30
5.385
 70
    64
  0
VERTEX
  5
45BBA
100
AcDbEntity
  8
0
100
AcDbVertex
100
AcDbPolygonMeshVertex
 10
3.510616
 20
-3.012483
 30
5.385
 70
    64
  0
VERTEX
  5
45BBB
100
AcDbEntity
  8
0
100
AcDbVertex
100
AcDbPolygonMeshVertex
 10
3.198616
 20
-2.700483
 30
5.385
 70
    64
  0
VERTEX
  5
45BBC
100
AcDbEntity
  8
0
100
AcDbVertex
100
AcDbPolygonMeshVertex
 10
3.198616
 20
-2.700483
 30
5.385
 70
    64
  0
VERTEX
  5
45BBD
100
AcDbEntity
  8
0
100
AcDbVertex
100
AcDbPolygonMeshVertex
 10
3.198616
 20
-3.012483
 30
5.385
 70
    64
  0
SEQEND
  5
45BBE
100
AcDbEntity
  8
0
  0
LINE
  5
45BBF
100
AcDbEntity
  8
0
100
AcDbLine
 10
3.510643
 20
-1.30532
 30
5.31
 11
3.036243
 21
-1.30532
 31
5.31
  0
LINE
  5
45BC0
100
AcDbEntity
  8
0
100
AcDbLine
 10
3.631519
 20
-1.291098
 30
5.325
 11
2.911449
 21
-1.291098
 31
5.325
  0
CIRCLE
  5
45BC1
100
AcDbEntity
  8
0
100
AcDbCircle
 39
0.06
 10
3.368591
 20
-1.525517
 30
5.385
 40
0.102574
  0
POLYLINE
  5
45BC2
100
AcDbEntity
  8
0
100
AcDbPolygonMesh
 66
     1
 10
0.0
 20
0.0
 30
0.0
 70
    16
 71
     6
 72
     3
  0
VERTEX
  5
45BC3
100
AcDbEntity
  8
0
100
AcDbVertex
100
AcDbPolygonMeshVertex
 10
3.510616
 20
-1.678464
 30
5.385
 70
    64
  0
VERTEX
  5
45BC4
100
AcDbEntity
  8
0
100
AcDbVertex
100
AcDbPolygonMeshVertex
 10
3.510616
 20
-1.678464
 30
5.325
 70
    64
  0
VERTEX
  5
45BC5
100
AcDbEntity
  8
0
100
AcDbVertex
100
AcDbPolygonMeshVertex
 10
3.510616
 20
-1.678464
 30
5.325
 70
    64
  0
VERTEX
  5
45BC6
100
AcDbEntity
  8
0
100
AcDbVertex
100
AcDbPolygonMeshVertex
 10
3.198616
 20
-1.678464
 30
5.385
 70
    64
  0
VERTEX
  5
45BC7
100
AcDbEntity
  8
0
100
AcDbVertex
100
AcDbPolygonMeshVertex
 10
3.198616
 20
-1.678464
 30
5.325
 70
    64
  0
VERTEX
  5
45BC8
100
AcDbEntity
  8
0
100
AcDbVertex
100
AcDbPolygonMeshVertex
 10
3.198616
 20
-1.678464
 30
5.325
 70
    64
  0
VERTEX
  5
45BC9
100
AcDbEntity
  8
0
100
AcDbVertex
100
AcDbPolygonMeshVertex
 10
3.198616
 20
-1.366464
 30
5.385
 70
    64
  0
VERTEX
  5
45BCA
100
AcDbEntity
  8
0
100
AcDbVertex
100
AcDbPolygonMeshVertex
 10
3.198616
 20
-1.366464
 30
5.325
 70
    64
  0
VERTEX
  5
45BCB
100
AcDbEntity
  8
0
100
AcDbVertex
100
AcDbPolygonMeshVertex
 10
3.198616
 20
-1.678464
 30
5.325
 70
    64
  0
VERTEX
  5
45BCC
100
AcDbEntity
  8
0
100
AcDbVertex
100
AcDbPolygonMeshVertex
 10
3.510616
 20
-1.366464
 30
5.385
 70
    64
  0
VERTEX
  5
45BCD
100
AcDbEntity
  8
0
100
AcDbVertex
100
AcDbPolygonMeshVertex
 10
3.510616
 20
-1.366464
 30
5.325
 70
    64
  0
VERTEX
  5
45BCE
100
AcDbEntity
  8
0
100
AcDbVertex
100
AcDbPolygonMeshVertex
 10
3.510616
 20
-1.678464
 30
5.325
 70
    64
  0
VERTEX
  5
45BCF
100
AcDbEntity
  8
0
100
AcDbVertex
100
AcDbPolygonMeshVertex
 10
3.510616
 20
-1.366464
 30
5.385
 70
    64
  0
VERTEX
  5
45BD0
100
AcDbEntity
  8
0
100
AcDbVertex
100
AcDbPolygonMeshVertex
 10
3.510616
 20
-1.366464
 30
5.385
 70
    64
  0
VERTEX
  5
45BD1
100
AcDbEntity
  8
0
100
AcDbVertex
100
AcDbPolygonMeshVertex
 10
3.510616
 20
-1.678464
 30
5.385
 70
    64
  0
VERTEX
  5
45BD2
100
AcDbEntity
  8
0
100
AcDbVertex
100
AcDbPolygonMeshVertex
 10
3.198616
 20
-1.366464
 30
5.385
 70
    64
  0
VERTEX
  5
45BD3
100
AcDbEntity
  8
0
100
AcDbVertex
100
AcDbPolygonMeshVertex
 10
3.198616
 20
-1.366464
 30
5.385
 70
    64
  0
VERTEX
  5
45BD4
100
AcDbEntity
  8
0
100
AcDbVertex
100
AcDbPolygonMeshVertex
 10
3.198616
 20
-1.678464
 30
5.385
 70
    64
  0
SEQEND
  5
45BD5
100
AcDbEntity
  8
0
  0
CIRCLE
  5
45BD6
100
AcDbEntity
  8
0
100
AcDbCircle
 39
0.06
 10
3.368591
 20
-1.837517
 30
5.385
 40
0.102574
  0
POLYLINE
  5
45BD7
100
AcDbEntity
  8
0
100
AcDbPolygonMesh
 66
     1
 10
0.0
 20
0.0
 30
0.0
 70
    16
 71
     6
 72
     3
  0
VERTEX
  5
45BD8
100
AcDbEntity
  8
0
100
AcDbVertex
100
AcDbPolygonMeshVertex
 10
3.510616
 20
-1.990464
 30
5.385
 70
    64
  0
VERTEX
  5
45BD9
100
AcDbEntity
  8
0
100
AcDbVertex
100
AcDbPolygonMeshVertex
 10
3.510616
 20
-1.990464
 30
5.325
 70
    64
  0
VERTEX
  5
45BDA
100
AcDbEntity
  8
0
100
AcDbVertex
100
AcDbPolygonMeshVertex
 10
3.510616
 20
-1.990464
 30
5.325
 70
    64
  0
VERTEX
  5
45BDB
100
AcDbEntity
  8
0
100
AcDbVertex
100
AcDbPolygonMeshVertex
 10
3.198616
 20
-1.990464
 30
5.385
 70
    64
  0
VERTEX
  5
45BDC
100
AcDbEntity
  8
0
100
AcDbVertex
100
AcDbPolygonMeshVertex
 10
3.198616
 20
-1.990464
 30
5.325
 70
    64
  0
VERTEX
  5
45BDD
100
AcDbEntity
  8
0
100
AcDbVertex
100
AcDbPolygonMeshVertex
 10
3.198616
 20
-1.990464
 30
5.325
 70
    64
  0
VERTEX
  5
45BDE
100
AcDbEntity
  8
0
100
AcDbVertex
100
AcDbPolygonMeshVertex
 10
3.198616
 20
-1.678464
 30
5.385
 70
    64
  0
VERTEX
  5
45BDF
100
AcDbEntity
  8
0
100
AcDbVertex
100
AcDbPolygonMeshVertex
 10
3.198616
 20
-1.678464
 30
5.325
 70
    64
  0
VERTEX
  5
45BE0
100
AcDbEntity
  8
0
100
AcDbVertex
100
AcDbPolygonMeshVertex
 10
3.198616
 20
-1.990464
 30
5.325
 70
    64
  0
VERTEX
  5
45BE1
100
AcDbEntity
  8
0
100
AcDbVertex
100
AcDbPolygonMeshVertex
 10
3.510616
 20
-1.678464
 30
5.385
 70
    64
  0
VERTEX
  5
45BE2
100
AcDbEntity
  8
0
100
AcDbVertex
100
AcDbPolygonMeshVertex
 10
3.510616
 20
-1.678464
 30
5.325
 70
    64
  0
VERTEX
  5
45BE3
100
AcDbEntity
  8
0
100
AcDbVertex
100
AcDbPolygonMeshVertex
 10
3.510616
 20
-1.990464
 30
5.325
 70
    64
  0
VERTEX
  5
45BE4
100
AcDbEntity
  8
0
100
AcDbVertex
100
AcDbPolygonMeshVertex
 10
3.510616
 20
-1.678464
 30
5.385
 70
    64
  0
VERTEX
  5
45BE5
100
AcDbEntity
  8
0
100
AcDbVertex
100
AcDbPolygonMeshVertex
 10
3.510616
 20
-1.678464
 30
5.385
 70
    64
  0
VERTEX
  5
45BE6
100
AcDbEntity
  8
0
100
AcDbVertex
100
AcDbPolygonMeshVertex
 10
3.510616
 20
-1.990464
 30
5.385
 70
    64
  0
VERTEX
  5
45BE7
100
AcDbEntity
  8
0
100
AcDbVertex
100
AcDbPolygonMeshVertex
 10
3.198616
 20
-1.678464
 30
5.385
 70
    64
  0
VERTEX
  5
45BE8
100
AcDbEntity
  8
0
100
AcDbVertex
100
AcDbPolygonMeshVertex
 10
3.198616
 20
-1.678464
 30
5.385
 70
    64
  0
VERTEX
  5
45BE9
100
AcDbEntity
  8
0
100
AcDbVertex
100
AcDbPolygonMeshVertex
 10
3.198616
 20
-1.990464
 30
5.385
 70
    64
  0
SEQEND
  5
45BEA
100
AcDbEntity
  8
0
  0
POLYLINE
  5
45BEB
100
AcDbEntity
  8
0
100
AcDbPolygonMesh
 66
     1
 10
0.0
 20
0.0
 30
0.0
 70
    16
 71
     6
 72
     3
  0
VERTEX
  5
45BEC
100
AcDbEntity
  8
0
100
AcDbVertex
100
AcDbPolygonMeshVertex
 10
3.335492
 20
-0.342254
 30
5.8
 70
    64
  0
VERTEX
  5
45BED
100
AcDbEntity
  8
0
100
AcDbVertex
100
AcDbPolygonMeshVertex
 10
3.335492
 20
-0.342254
 30
5.7
 70
    64
  0
VERTEX
  5
45BEE
100
AcDbEntity
  8
0
100
AcDbVertex
100
AcDbPolygonMeshVertex
 10
3.335492
 20
-0.342254
 30
5.7
 70
    64
  0
VERTEX
  5
45BEF
100
AcDbEntity
  8
0
100
AcDbVertex
100
AcDbPolygonMeshVertex
 10
3.160492
 20
-0.342254
 30
5.8
 70
    64
  0
VERTEX
  5
45BF0
100
AcDbEntity
  8
0
100
AcDbVertex
100
AcDbPolygonMeshVertex
 10
3.160492
 20
-0.342254
 30
5.7
 70
    64
  0
VERTEX
  5
45BF1
100
AcDbEntity
  8
0
100
AcDbVertex
100
AcDbPolygonMeshVertex
 10
3.160492
 20
-0.342254
 30
5.7
 70
    64
  0
VERTEX
  5
45BF2
100
AcDbEntity
  8
0
100
AcDbVertex
100
AcDbPolygonMeshVertex
 10
3.160492
 20
-0.242254
 30
5.8
 70
    64
  0
VERTEX
  5
45BF3
100
AcDbEntity
  8
0
100
AcDbVertex
100
AcDbPolygonMeshVertex
 10
3.160492
 20
-0.242254
 30
5.7
 70
    64
  0
VERTEX
  5
45BF4
100
AcDbEntity
  8
0
100
AcDbVertex
100
AcDbPolygonMeshVertex
 10
3.160492
 20
-0.342254
 30
5.7
 70
    64
  0
VERTEX
  5
45BF5
100
AcDbEntity
  8
0
100
AcDbVertex
100
AcDbPolygonMeshVertex
 10
3.335492
 20
-0.242254
 30
5.8
 70
    64
  0
VERTEX
  5
45BF6
100
AcDbEntity
  8
0
100
AcDbVertex
100
AcDbPolygonMeshVertex
 10
3.335492
 20
-0.242254
 30
5.7
 70
    64
  0
VERTEX
  5
45BF7
100
AcDbEntity
  8
0
100
AcDbVertex
100
AcDbPolygonMeshVertex
 10
3.335492
 20
-0.342254
 30
5.7
 70
    64
  0
VERTEX
  5
45BF8
100
AcDbEntity
  8
0
100
AcDbVertex
100
AcDbPolygonMeshVertex
 10
3.335492
 20
-0.242254
 30
5.8
 70
    64
  0
VERTEX
  5
45BF9
100
AcDbEntity
  8
0
100
AcDbVertex
100
AcDbPolygonMeshVertex
 10
3.335492
 20
-0.242254
 30
5.8
 70
    64
  0
VERTEX
  5
45BFA
100
AcDbEntity
  8
0
100
AcDbVertex
100
AcDbPolygonMeshVertex
 10
3.335492
 20
-0.342254
 30
5.8
 70
    64
  0
VERTEX
  5
45BFB
100
AcDbEntity
  8
0
100
AcDbVertex
100
AcDbPolygonMeshVertex
 10
3.160492
 20
-0.242254
 30
5.8
 70
    64
  0
VERTEX
  5
45BFC
100
AcDbEntity
  8
0
100
AcDbVertex
100
AcDbPolygonMeshVertex
 10
3.160492
 20
-0.242254
 30
5.8
 70
    64
  0
VERTEX
  5
45BFD
100
AcDbEntity
  8
0
100
AcDbVertex
100
AcDbPolygonMeshVertex
 10
3.160492
 20
-0.342254
 30
5.8
 70
    64
  0
SEQEND
  5
45BFE
100
AcDbEntity
  8
0
  0
3DFACE
  5
45BFF
100
AcDbEntity
  8
0
100
AcDbFace
 10
4.15
 20
0.0
 30
5.325
 11
4.15
 21
-1.251082
 31
5.325
 12
4.15
 22
-1.251082
 32
5.7
 13
4.15
 23
0.0
 33
5.7
  0
3DFACE
  5
45C00
100
AcDbEntity
  8
0
100
AcDbFace
 10
4.15
 20
0.0
 30
5.7
 11
4.15
 21
0.0
 31
5.325
 12
4.15
 22
0.0
 32
5.7
 13
4.15
 23
0.0
 33
5.7
  0
POINT
  5
45C01
100
AcDbEntity
  8
SNAP_POINTS
100
AcDbPoint
 10
0.0
 20
0.0
 30
0.0
  0
DIMENSION
  5
45C02
100
AcDbEntity
  8
AREA1
100
AcDbDimension
  2
*D1
 10
5.271025
 20
0.0
 30
0.0
 11
5.271025
 21
-2.75
 31
0.0
 70
    32
  3
ABECAD_3D
100
AcDbAlignedDimension
 13
4.15
 23
-5.5
 33
0.0
 14
4.15
 24
0.0
 34
0.0
 50
90.0
100
AcDbRotatedDimension
  0
DIMENSION
  5
45C11
100
AcDbEntity
  8
AREA1
100
AcDbDimension
  2
*D2
 10
4.15
 20
1.247941
 30
0.0
 11
2.075
 21
1.247941
 31
0.0
 70
    32
  3
ABECAD_3D
100
AcDbAlignedDimension
 13
0.0
 23
0.0
 33
0.0
 14
4.15
 24
0.0
 34
0.0
100
AcDbRotatedDimension
  0
ENDSEC
  0
SECTION
  2
OBJECTS
  0
DICTIONARY
  5
458CB
100
AcDbDictionary
  3
ACAD_GROUP
350
458CC
  3
ACAD_LAYOUT
350
458FB
  3
ACAD_MLINESTYLE
350
458D9
  3
ACAD_PLOTSETTINGS
350
458FC
  3
ACAD_PLOTSTYLENAME
350
458F9
  3
ACDBHEADERROUNDTRIPXREC
350
45CC6
  3
ACDBVARIABLEDICTIONARY
350
458E1
  3
DWGPROPS
350
45901
  0
DICTIONARY
  5
45CC4
100
AcDbDictionary
280
     1
  3
ACAD_XREC_ROUNDTRIP
360
45CC5
  0
DICTIONARY
  5
45CEF
100
AcDbDictionary
280
     1
  3
ACAD_XREC_ROUNDTRIP
360
45CF0
  0
DICTIONARY
  5
45CC2
100
AcDbDictionary
280
     1
  3
ACAD_XREC_ROUNDTRIP
360
45CC3
  0
DICTIONARY
  5
45CE9
100
AcDbDictionary
280
     1
  3
ACAD_XREC_ROUNDTRIP
360
45CEA
  0
DICTIONARY
  5
45CEB
100
AcDbDictionary
280
     1
  3
ACAD_XREC_ROUNDTRIP
360
45CEC
  0
DICTIONARY
  5
4592C
100
AcDbDictionary
280
     1
  3
ACAD_LAYOUTSELFREF
360
45CE8
  0
DICTIONARY
  5
4592A
100
AcDbDictionary
280
     1
  3
ACAD_LAYOUTSELFREF
360
45CE7
  0
DICTIONARY
  5
45CC0
100
AcDbDictionary
280
     1
  3
ACAD_XREC_ROUNDTRIP
360
45CC1
  0
DICTIONARY
  5
458CC
102
{ACAD_REACTORS
330
458CB
102
}
100
AcDbDictionary
  0
DICTIONARY
  5
458FB
102
{ACAD_XDICTIONARY
360
45CED
102
}
102
{ACAD_REACTORS
330
458CB
102
}
100
AcDbDictionary
  3
LAYOUT1
350
458FE
  3
MODEL
350
458FD
  0
DICTIONARY
  5
458D9
102
{ACAD_REACTORS
330
458CB
102
}
100
AcDbDictionary
  3
STANDARD
350
458DA
  0
DICTIONARY
  5
458FC
102
{ACAD_REACTORS
330
458CB
102
}
100
AcDbDictionary
  0
ACAD_PROXY_OBJECT
  5
458F9
102
{ACAD_REACTORS
330
458CB
102
}
100
AcDbProxyObject
 90
      499
 91
      501
 93
       86
310
405010041939BDC9B585B0
350
458FA
340
458FA
 94
        0
  0
DICTIONARY
  5
45CC6
102
{ACAD_REACTORS
330
458CB
102
}
100
AcDbDictionary
  3
CEPSNTYPE
350
45CD0
  3
DIMSTYLEDATA
350
45CD4
  3
FINGERPRINTGUID
350
45CD1
  3
HYPERLINKBASE
350
45CC9
  3
INSUNITS
350
45CCF
  3
LAYOUTDICT
350
45CCB
  3
LWETCUNION
350
45CCE
  3
PLOTSETDICT
350
45CCC
  3
PLOTSTYLNAMDICT
350
45CCD
  3
PSVPSCALE
350
45CD3
  3
PUCSBASE
350
45CD7
  3
PUCSORGBACK
350
45CDD
  3
PUCSORGBOTTOM
350
45CD9
  3
PUCSORGFRONT
350
45CDC
  3
PUCSORGLEFT
350
45CDA
  3
PUCSORGRIGHT
350
45CDB
  3
PUCSORGTOP
350
45CD8
  3
PUCSORTHOREF
350
45CD5
  3
PUCSORTHOVIEW
350
45CD6
  3
STYLESHEET
350
45CCA
  3
TSTACKALIGN
350
45CC7
  3
TSTACKSIZE
350
45CC8
  3
UCSBASE
350
45CE0
  3
UCSORGBACK
350
45CE6
  3
UCSORGBOTTOM
350
45CE2
  3
UCSORGFRONT
350
45CE5
  3
UCSORGLEFT
350
45CE3
  3
UCSORGRIGHT
350
45CE4
  3
UCSORGTOP
350
45CE1
  3
UCSORTHOREF
350
45CDE
  3
UCSORTHOVIEW
350
45CDF
  3
VERSIONGUID
350
45CD2
  0
DICTIONARY
  5
458E1
102
{ACAD_REACTORS
330
458CB
102
}
100
AcDbDictionary
  3
DIMADEC
350
458E2
  0
XRECORD
  5
45901
102
{ACAD_REACTORS
330
458CB
102
}
100
AcDbXrecord
  1
DWGPROPS COOKIE
  2

  3

  4

  6

  7

  8
colin
  9

300
=
301
=
302
=
303
=
304
=
305
=
306
=
307
=
308
=
309
=
 40
0.000599
 41
2451670.444777
 42
2451670.445376
  1

 90
        0
  0
XRECORD
  5
45CC5
102
{ACAD_REACTORS
330
45CC4
102
}
100
AcDbXrecord
102
EXTNAMES
  1
*ACTIVE
  2
*Active
102
UCS
 74
     0
 71
     1
 10
0.0
 20
0.0
 30
0.0
 10
1.0
 20
0.0
 30
0.0
 10
0.0
 20
1.0
 30
0.0
146
0.0
 79
     1
102
VIEW
281
     0
  0
XRECORD
  5
45CF0
102
{ACAD_REACTORS
330
45CEF
102
}
100
AcDbXrecord
102
PLOTBIT
280
     0
  0
XRECORD
  5
45CC3
102
{ACAD_REACTORS
330
45CC2
102
}
100
AcDbXrecord
102
EXTNAMES
  1
DEFPOINTS
  2
Defpoints
102
PLOTBIT
280
     0
  0
XRECORD
  5
45CEA
102
{ACAD_REACTORS
330
45CE9
102
}
100
AcDbXrecord
102
ACADR14ROUNDTRIP
1000
DSTYLE
1002
{
1070
   276
 70
     2
1070
   277
 70
     5
1002
}
  0
XRECORD
  5
45CEC
102
{ACAD_REACTORS
330
45CEB
102
}
100
AcDbXrecord
102
ACADR14ROUNDTRIP
1000
DSTYLE
1002
{
1070
   276
 70
     2
1070
   277
 70
     5
1002
}
  0
XRECORD
  5
45CE8
102
{ACAD_REACTORS
330
4592C
102
}
100
AcDbXrecord
340
458D6
  0
XRECORD
  5
45CE7
102
{ACAD_REACTORS
330
4592A
102
}
100
AcDbXrecord
340
458D3
  0
XRECORD
  5
45CC1
102
{ACAD_REACTORS
330
45CC0
102
}
100
AcDbXrecord
102
EXTNAMES
  1
SCALE
  2
scale
  0
DICTIONARY
  5
45CED
100
AcDbDictionary
280
     1
  3
ACAD_XREC_ROUNDTRIP
360
45CEE
  0
ACAD_PROXY_OBJECT
  5
458FE
102
{ACAD_REACTORS
330
458FB
102
}
100
AcDbProxyObject
 90
      499
 91
      503
 93
     1348
310
91D4850204C617365724A65742035303030205365726965732050434C20362C00AAAAAA416AA547D11959985D5B1D08148C4D081C195B88185CDCDA59DB9B595B9D1CCB98DD1891069074C61796F75743140501A800000000000000000000000000000000000000000000A1000000000000008902A6A6A10232D5E076BC551
310
0408CB5781DAF154410232D5E076BC5510408CB5781DAF15C410232D5E076BC5710408CB5781DAF15C40
330
458D3
330
0
340
0
340
0
 94
        0
  0
ACAD_PROXY_OBJECT
  5
458FD
102
{ACAD_REACTORS
330
458FB
102
}
100
AcDbProxyObject
 90
      499
 91
      503
 93
      924
310
91D4850204C617365724A65742035303030205365726965732050434C20362C01AAAAAAAAA547D11959985D5B1D08148C4D081C195B88185CDCDA59DB9B595B9D1CCB98DD18A69054D6F64656C901A800000000000000000000000000000000000000000000A1000000000000008902A6A6AAAA0
330
458D6
330
0
340
0
340
0
 94
        0
  0
MLINESTYLE
  5
458DA
102
{ACAD_REACTORS
330
458D9
102
}
100
AcDbMlineStyle
  2
STANDARD
 70
     0
  3

 62
   256
 51
90.0
 52
90.0
 71
     2
 49
0.5
 62
   256
  6
BYLAYER
 49
-0.5
 62
   256
  6
BYLAYER
  0
ACAD_PROXY_OBJECT
  5
458FA
102
{ACAD_REACTORS
330
458F9
102
}
100
AcDbProxyObject
 90
      499
 91
      502
 93
        0
 94
        0
  0
XRECORD
  5
45CD0
102
{ACAD_REACTORS
330
45CC6
102
}
100
AcDbXrecord
 90
        0
  0
XRECORD
  5
45CD4
102
{ACAD_REACTORS
330
45CC6
102
}
100
AcDbXrecord
1000
DSTYLE
1002
{
1070
   276
 70
     2
1070
   277
 70
     5
1002
}
  0
XRECORD
  5
45CD1
102
{ACAD_REACTORS
330
45CC6
102
}
100
AcDbXrecord
  1
{6E0CF4B8-225E-11D4-A150-00A0CC3303EC}
  0
XRECORD
  5
45CC9
102
{ACAD_REACTORS
330
45CC6
102
}
100
AcDbXrecord
  1

  0
XRECORD
  5
45CCF
102
{ACAD_REACTORS
330
45CC6
102
}
100
AcDbXrecord
 90
        0
  0
XRECORD
  5
45CCB
102
{ACAD_REACTORS
330
45CC6
102
}
100
AcDbXrecord
340
458FB
  0
XRECORD
  5
45CCE
102
{ACAD_REACTORS
330
45CC6
102
}
100
AcDbXrecord
 90
    14877
  0
XRECORD
  5
45CCC
102
{ACAD_REACTORS
330
45CC6
102
}
100
AcDbXrecord
340
458FC
  0
XRECORD
  5
45CCD
102
{ACAD_REACTORS
330
45CC6
102
}
100
AcDbXrecord
340
458F9
  0
XRECORD
  5
45CD3
102
{ACAD_REACTORS
330
45CC6
102
}
100
AcDbXrecord
 40
0.0
  0
XRECORD
  5
45CD7
102
{ACAD_REACTORS
330
45CC6
102
}
100
AcDbXrecord
340
0
  0
XRECORD
  5
45CDD
102
{ACAD_REACTORS
330
45CC6
102
}
100
AcDbXrecord
 10
0.0
 20
0.0
 30
0.0
  0
XRECORD
  5
45CD9
102
{ACAD_REACTORS
330
45CC6
102
}
100
AcDbXrecord
 10
0.0
 20
0.0
 30
0.0
  0
XRECORD
  5
45CDC
102
{ACAD_REACTORS
330
45CC6
102
}
100
AcDbXrecord
 10
0.0
 20
0.0
 30
0.0
  0
XRECORD
  5
45CDA
102
{ACAD_REACTORS
330
45CC6
102
}
100
AcDbXrecord
 10
0.0
 20
0.0
 30
0.0
  0
XRECORD
  5
45CDB
102
{ACAD_REACTORS
330
45CC6
102
}
100
AcDbXrecord
 10
0.0
 20
0.0
 30
0.0
  0
XRECORD
  5
45CD8
102
{ACAD_REACTORS
330
45CC6
102
}
100
AcDbXrecord
 10
0.0
 20
0.0
 30
0.0
  0
XRECORD
  5
45CD5
102
{ACAD_REACTORS
330
45CC6
102
}
100
AcDbXrecord
340
0
  0
XRECORD
  5
45CD6
102
{ACAD_REACTORS
330
45CC6
102
}
100
AcDbXrecord
 70
     0
  0
XRECORD
  5
45CCA
102
{ACAD_REACTORS
330
45CC6
102
}
100
AcDbXrecord
  1

  0
XRECORD
  5
45CC7
102
{ACAD_REACTORS
330
45CC6
102
}
100
AcDbXrecord
 90
        1
  0
XRECORD
  5
45CC8
102
{ACAD_REACTORS
330
45CC6
102
}
100
AcDbXrecord
 90
       70
  0
XRECORD
  5
45CE0
102
{ACAD_REACTORS
330
45CC6
102
}
100
AcDbXrecord
340
0
  0
XRECORD
  5
45CE6
102
{ACAD_REACTORS
330
45CC6
102
}
100
AcDbXrecord
 10
0.0
 20
0.0
 30
0.0
  0
XRECORD
  5
45CE2
102
{ACAD_REACTORS
330
45CC6
102
}
100
AcDbXrecord
 10
0.0
 20
0.0
 30
0.0
  0
XRECORD
  5
45CE5
102
{ACAD_REACTORS
330
45CC6
102
}
100
AcDbXrecord
 10
0.0
 20
0.0
 30
0.0
  0
XRECORD
  5
45CE3
102
{ACAD_REACTORS
330
45CC6
102
}
100
AcDbXrecord
 10
0.0
 20
0.0
 30
0.0
  0
XRECORD
  5
45CE4
102
{ACAD_REACTORS
330
45CC6
102
}
100
AcDbXrecord
 10
0.0
 20
0.0
 30
0.0
  0
XRECORD
  5
45CE1
102
{ACAD_REACTORS
330
45CC6
102
}
100
AcDbXrecord
 10
0.0
 20
0.0
 30
0.0
  0
XRECORD
  5
45CDE
102
{ACAD_REACTORS
330
45CC6
102
}
100
AcDbXrecord
340
0
  0
XRECORD
  5
45CDF
102
{ACAD_REACTORS
330
45CC6
102
}
100
AcDbXrecord
 70
     1
  0
XRECORD
  5
45CD2
102
{ACAD_REACTORS
330
45CC6
102
}
100
AcDbXrecord
  1
{AB622C64-2F54-483A-AFD8-348F80C4A159}
  0
DICTIONARYVAR
  5
458E2
102
{ACAD_REACTORS
330
458E1
102
}
100
DictionaryVariables
280
     0
  1
0
  0
XRECORD
  5
45CEE
102
{ACAD_REACTORS
330
45CED
102
}
100
AcDbXrecord
102
EXTNAMES
  1
LAYOUT1
  2
Layout1
  1
MODEL
  2
Model
  0
ENDSEC
  0
EOF
