  0
SECTION
  2
HEADER
  9
$ACADVER
  1
AC1015
  9
$ACADMAINTVER
 70
     6
  9
$DWGCODEPAGE
  3
ANSI_1252
  9
$INSBASE
 10
250.6249123083243
 20
-75.72846822318595
 30
68.93289195470919
  9
$EXTMIN
 10
138.5240132392853
 20
-240.0664682231859
 30
68.92405523408196
  9
$EXTMAX
 10
394.9785336831336
 20
-45.92499524881543
 30
213.9668919547091
  9
$LIMMIN
 10
0.0
 20
0.0
  9
$LIMMAX
 10
12.0
 20
9.0
  9
$ORTHOMODE
 70
     1
  9
$REGENMODE
 70
     1
  9
$FILLMODE
 70
     1
  9
$QTEXTMODE
 70
     0
  9
$MIRRTEXT
 70
     1
  9
$LTSCALE
 40
1.0
  9
$ATTMODE
 70
     1
  9
$TEXTSIZE
 40
0.12
  9
$TRACEWID
 40
0.05
  9
$TEXTSTYLE
  7
STANDARD
  9
$CLAYER
  8
AREA2
  9
$CELTYPE
  6
BYLAYER
  9
$CECOLOR
 62
   256
  9
$CELTSCALE
 40
1.0
  9
$DISPSILH
 70
     0
  9
$DIMSCALE
 40
1.0
  9
$DIMASZ
 40
4.572
  9
$DIMEXO
 40
1.587499999999999
  9
$DIMDLI
 40
9.525
  9
$DIMRND
 40
0.0
  9
$DIMDLE
 40
0.0
  9
$DIMEXE
 40
4.572
  9
$DIMTP
 40
0.0
  9
$DIMTM
 40
0.0
  9
$DIMTXT
 40
4.572
  9
$DIMCEN
 40
2.286
  9
$DIMTSZ
 40
0.0
  9
$DIMTOL
 70
     0
  9
$DIMLIM
 70
     0
  9
$DIMTIH
 70
     0
  9
$DIMTOH
 70
     1
  9
$DIMSE1
 70
     0
  9
$DIMSE2
 70
     0
  9
$DIMTAD
 70
     0
  9
$DIMZIN
 70
     4
  9
$DIMBLK
  1

  9
$DIMASO
 70
     1
  9
$DIMSHO
 70
     1
  9
$DIMPOST
  1

  9
$DIMAPOST
  1

  9
$DIMALT
 70
     1
  9
$DIMALTD
 70
     6
  9
$DIMALTF
 40
0.03937
  9
$DIMLFAC
 40
1.0
  9
$DIMTOFL
 70
     0
  9
$DIMTVP
 40
0.0
  9
$DIMTIX
 70
     0
  9
$DIMSOXD
 70
     0
  9
$DIMSAH
 70
     0
  9
$DIMBLK1
  1

  9
$DIMBLK2
  1

  9
$DIMSTYLE
  2
ABECAD_3D
  9
$DIMCLRD
 70
     0
  9
$DIMCLRE
 70
     0
  9
$DIMCLRT
 70
     0
  9
$DIMTFAC
 40
1.5
  9
$DIMGAP
 40
2.286
  9
$DIMJUST
 70
     0
  9
$DIMSD1
 70
     0
  9
$DIMSD2
 70
     0
  9
$DIMTOLJ
 70
     1
  9
$DIMTZIN
 70
     4
  9
$DIMALTZ
 70
     4
  9
$DIMALTTZ
 70
     4
  9
$DIMUPT
 70
     1
  9
$DIMDEC
 70
     2
  9
$DIMTDEC
 70
     2
  9
$DIMALTU
 70
     7
  9
$DIMALTTD
 70
     6
  9
$DIMTXSTY
  7
STANDARD
  9
$DIMAUNIT
 70
     0
  9
$DIMADEC
 70
     0
  9
$DIMALTRND
 40
0.0
  9
$DIMAZIN
 70
     0
  9
$DIMDSEP
 70
    46
  9
$DIMATFIT
 70
     2
  9
$DIMFRAC
 70
     2
  9
$DIMLDRBLK
  1

  9
$DIMLUNIT
 70
     2
  9
$DIMLWD
 70
    -2
  9
$DIMLWE
 70
    -2
  9
$DIMTMOVE
 70
     2
  9
$LUNITS
 70
     2
  9
$LUPREC
 70
     4
  9
$SKETCHINC
 40
0.1
  9
$FILLETRAD
 40
0.0
  9
$AUNITS
 70
     0
  9
$AUPREC
 70
     0
  9
$MENU
  1
ACAD
  9
$ELEVATION
 40
0.0
  9
$PELEVATION
 40
0.0
  9
$THICKNESS
 40
0.0
  9
$LIMCHECK
 70
     0
  9
$CHAMFERA
 40
0.0
  9
$CHAMFERB
 40
0.0
  9
$CHAMFERC
 40
0.0
  9
$CHAMFERD
 40
0.0
  9
$SKPOLY
 70
     0
  9
$TDCREATE
 40
2451760.387179051
  9
$TDUCREATE
 40
2451760.637179051
  9
$TDUPDATE
 40
2453396.572671724
  9
$TDUUPDATE
 40
2453396.822671724
  9
$TDINDWG
 40
0.3723703704
  9
$TDUSRTIMER
 40
0.3723703704
  9
$USRTIMER
 70
     1
  9
$ANGBASE
 50
0.0
  9
$ANGDIR
 70
     0
  9
$PDMODE
 70
     3
  9
$PDSIZE
 40
2.5
  9
$PLINEWID
 40
0.0
  9
$SPLFRAME
 70
     1
  9
$SPLINETYPE
 70
     6
  9
$SPLINESEGS
 70
     8
  9
$HANDSEED
  5
48F79
  9
$SURFTAB1
 70
     6
  9
$SURFTAB2
 70
     6
  9
$SURFTYPE
 70
     6
  9
$SURFU
 70
     6
  9
$SURFV
 70
     6
  9
$UCSBASE
  2

  9
$UCSNAME
  2

  9
$UCSORG
 10
250.6249123083243
 20
-75.72846822318595
 30
68.93289195470919
  9
$UCSXDIR
 10
1.0
 20
0.0
 30
0.0
  9
$UCSYDIR
 10
0.0
 20
1.0
 30
0.0
  9
$UCSORTHOREF
  2

  9
$UCSORTHOVIEW
 70
     1
  9
$UCSORGTOP
 10
250.6249123083243
 20
-75.72846822318595
 30
68.93289195470919
  9
$UCSORGBOTTOM
 10
0.0
 20
0.0
 30
0.0
  9
$UCSORGLEFT
 10
0.0
 20
0.0
 30
0.0
  9
$UCSORGRIGHT
 10
44.57293710473379
 20
-10.57239502465733
 30
3.810000000000003
  9
$UCSORGFRONT
 10
0.0
 20
0.0
 30
0.0
  9
$UCSORGBACK
 10
192.2229589652336
 20
-89.51032395673729
 30
62.63919116730763
  9
$PUCSBASE
  2

  9
$PUCSNAME
  2

  9
$PUCSORG
 10
0.0
 20
0.0
 30
0.0
  9
$PUCSXDIR
 10
1.0
 20
0.0
 30
0.0
  9
$PUCSYDIR
 10
0.0
 20
1.0
 30
0.0
  9
$PUCSORTHOREF
  2

  9
$PUCSORTHOVIEW
 70
     0
  9
$PUCSORGTOP
 10
0.0
 20
0.0
 30
0.0
  9
$PUCSORGBOTTOM
 10
0.0
 20
0.0
 30
0.0
  9
$PUCSORGLEFT
 10
0.0
 20
0.0
 30
0.0
  9
$PUCSORGRIGHT
 10
0.0
 20
0.0
 30
0.0
  9
$PUCSORGFRONT
 10
0.0
 20
0.0
 30
0.0
  9
$PUCSORGBACK
 10
0.0
 20
0.0
 30
0.0
  9
$USERI1
 70
     0
  9
$USERI2
 70
     0
  9
$USERI3
 70
     0
  9
$USERI4
 70
     0
  9
$USERI5
 70
     0
  9
$USERR1
 40
0.0
  9
$USERR2
 40
0.0
  9
$USERR3
 40
0.0
  9
$USERR4
 40
0.0
  9
$USERR5
 40
0.0
  9
$WORLDVIEW
 70
     1
  9
$SHADEDGE
 70
     3
  9
$SHADEDIF
 70
    70
  9
$TILEMODE
 70
     1
  9
$MAXACTVP
 70
    16
  9
$PINSBASE
 10
0.0
 20
0.0
 30
0.0
  9
$PLIMCHECK
 70
     0
  9
$PEXTMIN
 10
25.69999999999998
 20
19.5
 30
0.0
  9
$PEXTMAX
 10
231.3
 20
175.5
 30
0.0
  9
$PLIMMIN
 10
-20.0
 20
-7.5
  9
$PLIMMAX
 10
277.0
 20
202.4999999999999
  9
$UNITMODE
 70
     0
  9
$VISRETAIN
 70
     0
  9
$PLINEGEN
 70
     0
  9
$PSLTSCALE
 70
     1
  9
$TREEDEPTH
 70
  3020
  9
$CMLSTYLE
  2
STANDARD
  9
$CMLJUST
 70
     0
  9
$CMLSCALE
 40
1.0
  9
$PROXYGRAPHICS
 70
     1
  9
$MEASUREMENT
 70
     1
  9
$CELWEIGHT
370
    -1
  9
$ENDCAPS
280
     0
  9
$JOINSTYLE
280
     0
  9
$LWDISPLAY
290
     0
  9
$INSUNITS
 70
     0
  9
$HYPERLINKBASE
  1

  9
$STYLESHEET
  1

  9
$XEDIT
290
     1
  9
$CEPSNTYPE
380
     0
  9
$PSTYLEMODE
290
     1
  9
$FINGERPRINTGUID
  2
{6E0CF4B8-225E-11D4-A150-00A0CC3303EC}
  9
$VERSIONGUID
  2
{A4298261-99C7-4AE0-A347-FC91989F7E79}
  9
$EXTNAMES
290
     1
  9
$PSVPSCALE
 40
0.0
  9
$OLESTARTUP
290
     0
  0
ENDSEC
  0
SECTION
  2
CLASSES
  0
CLASS
  1
DICTIONARYVAR
  2
AcDbDictionaryVar
  3
AutoCAD 2000
 90
        0
280
     0
281
     0
  0
CLASS
  1
ACDBDICTIONARYWDFLT
  2
AcDbDictionaryWithDefault
  3
AutoCAD 2000
 90
        0
280
     0
281
     0
  0
CLASS
  1
ACDBPLACEHOLDER
  2
AcDbPlaceHolder
  3
AutoCAD 2000
 90
        0
280
     0
281
     0
  0
CLASS
  1
LAYOUT
  2
AcDbLayout
  3
AutoCAD 2000
 90
        0
280
     0
281
     0
  0
CLASS
  1
LONG_TRANSACTION
  2
AcDbLongTransaction
  3
AutoCAD 2000
 90
    32768
280
     0
281
     0
  0
CLASS
  1
LWPOLYLINE
  2
AcDbPolyline
  3
AutoCAD 2000
 90
    32768
280
     0
281
     1
  0
CLASS
  1
HATCH
  2
AcDbHatch
  3
AutoCAD 2000
 90
    32768
280
     0
281
     1
  0
CLASS
  1
XRECORD
  2
AcDbXrecord
  3
AutoCAD 2000
 90
    32768
280
     0
281
     0
  0
CLASS
  1
LONG_TRANSACTION
  2
AcDbLongTransaction
  3
AutoCAD 2000
 90
    32768
280
     0
281
     0
  0
CLASS
  1
LWPOLYLINE
  2
AcDbPolyline
  3
AutoCAD 2000
 90
    32768
280
     0
281
     1
  0
CLASS
  1
HATCH
  2
AcDbHatch
  3
AutoCAD 2000
 90
    32768
280
     0
281
     1
  0
CLASS
  1
XRECORD
  2
AcDbXrecord
  3
AutoCAD 2000
 90
    32768
280
     0
281
     0
  0
CLASS
  1
TABLESTYLE
  2
AcDbTableStyle
  3
ObjectDBX Classes
 90
     2047
280
     0
281
     0
  0
CLASS
  1
SORTENTSTABLE
  2
AcDbSortentsTable
  3
AutoCAD 2000
 90
        0
280
     0
281
     0
  0
ENDSEC
  0
SECTION
  2
TABLES
  0
TABLE
  2
VPORT
  5
458C7
330
0
100
AcDbSymbolTable
 70
     2
  0
VPORT
  5
48F57
330
458C7
100
AcDbSymbolTableRecord
100
AcDbViewportTableRecord
  2
*Active
 70
     0
 10
0.0
 20
0.0
 11
1.0
 21
1.0
 12
68.50764771151125
 22
-66.24203885767897
 13
0.0
 23
0.0
 14
0.25
 24
0.25
 15
0.25
 25
0.25
 16
0.0
 26
0.0
 36
1.0
 17
201.064464698385
 27
-92.49580868504356
 37
108.8490819687086
 40
351.576249501376
 41
1.792393026941362
 42
50.0
 43
0.0
 44
0.0
 50
0.0
 51
0.0
 71
     0
 72
 20000
 73
     1
 74
     1
 75
     0
 76
     0
 77
     0
 78
     0
281
     2
 65
     1
110
250.6249123083243
120
-75.72846822318595
130
68.93289195470919
111
1.0
121
0.0
131
0.0
112
0.0
122
1.0
132
0.0
 79
     1
146
0.0
  0
ENDTAB
  0
TABLE
  2
LTYPE
  5
458C4
330
0
100
AcDbSymbolTable
 70
     1
  0
LTYPE
  5
458D0
330
458C4
100
AcDbSymbolTableRecord
100
AcDbLinetypeTableRecord
  2
BYBLOCK
 70
     0
  3

 72
    65
 73
     0
 40
0.0
  0
LTYPE
  5
458D1
330
458C4
100
AcDbSymbolTableRecord
100
AcDbLinetypeTableRecord
  2
BYLAYER
 70
     0
  3

 72
    65
 73
     0
 40
0.0
  0
LTYPE
  5
458D2
330
458C4
100
AcDbSymbolTableRecord
100
AcDbLinetypeTableRecord
  2
CONTINUOUS
 70
     0
  3
Solid line
 72
    65
 73
     0
 40
0.0
  0
ENDTAB
  0
TABLE
  2
LAYER
  5
458C1
102
{ACAD_XDICTIONARY
360
46C21
102
}
330
0
100
AcDbSymbolTable
 70
     8
  0
LAYER
  5
458CD
330
458C1
100
AcDbSymbolTableRecord
100
AcDbLayerTableRecord
  2
0
 70
     0
 62
     7
  6
CONTINUOUS
370
    -3
390
458FA
  0
LAYER
  5
458EA
330
458C1
100
AcDbSymbolTableRecord
100
AcDbLayerTableRecord
  2
DIMS-MTG-HOLES
 70
     0
 62
    -1
  6
CONTINUOUS
370
    -3
390
458FA
  0
LAYER
  5
458EB
330
458C1
100
AcDbSymbolTableRecord
100
AcDbLayerTableRecord
  2
ATTRIBUTES
 70
     0
 62
     7
  6
CONTINUOUS
370
    -3
390
458FA
  0
LAYER
  5
4593F
330
458C1
100
AcDbSymbolTableRecord
100
AcDbLayerTableRecord
  2
AREA1
 70
     0
 62
    -7
  6
CONTINUOUS
290
     0
370
    -3
390
458FA
  0
LAYER
  5
45946
330
458C1
100
AcDbSymbolTableRecord
100
AcDbLayerTableRecord
  2
Defpoints
 70
     0
 62
     7
  6
CONTINUOUS
290
     0
370
    -3
390
458FA
  0
LAYER
  5
45972
330
458C1
100
AcDbSymbolTableRecord
100
AcDbLayerTableRecord
  2
SCALE
 70
     0
 62
    -7
  6
CONTINUOUS
370
    -3
390
458FA
  0
LAYER
  5
4597A
330
458C1
100
AcDbSymbolTableRecord
100
AcDbLayerTableRecord
  2
SNAP_POINTS
 70
     0
 62
    -1
  6
CONTINUOUS
370
    -3
390
458FA
  0
LAYER
  5
459D2
330
458C1
100
AcDbSymbolTableRecord
100
AcDbLayerTableRecord
  2
AREA2
 70
     0
 62
    -7
  6
CONTINUOUS
370
    -3
390
458FA
  0
ENDTAB
  0
TABLE
  2
STYLE
  5
458C2
330
0
100
AcDbSymbolTable
 70
     1
  0
STYLE
  5
458CE
330
458C2
100
AcDbSymbolTableRecord
100
AcDbTextStyleTableRecord
  2
STANDARD
 70
     0
 40
0.0
 41
1.0
 50
0.0
 71
     0
 42
0.12
  3
txt
  4

  0
ENDTAB
  0
TABLE
  2
VIEW
  5
458C5
330
0
100
AcDbSymbolTable
 70
     0
  0
ENDTAB
  0
TABLE
  2
UCS
  5
458C6
330
0
100
AcDbSymbolTable
 70
     0
  0
ENDTAB
  0
TABLE
  2
APPID
  5
458C8
330
0
100
AcDbSymbolTable
 70
     2
  0
APPID
  5
458CF
330
458C8
100
AcDbSymbolTableRecord
100
AcDbRegAppTableRecord
  2
ACAD
 70
     0
  0
APPID
  5
46C1B
330
458C8
100
AcDbSymbolTableRecord
100
AcDbRegAppTableRecord
  2
ACAD_PSEXT
 70
     0
  0
ENDTAB
  0
TABLE
  2
DIMSTYLE
  5
458C9
330
0
100
AcDbSymbolTable
 70
     2
100
AcDbDimStyleTable
 71
     1
340
458F6
  0
DIMSTYLE
105
458F6
102
{ACAD_REACTORS
330
48E5E
330
48E5D
330
48EC3
102
}
330
458C9
100
AcDbSymbolTableRecord
100
AcDbDimStyleTableRecord
  2
ABECAD_3D
 70
     0
 41
4.572
 42
1.587499999999999
 43
9.525
 44
4.572
 73
     0
 78
     4
140
4.572
141
2.286
143
0.03937
146
1.5
147
2.286
170
     1
171
     6
271
     2
272
     2
273
     7
274
     6
276
     2
279
     2
284
     4
285
     4
286
     4
288
     1
289
     2
340
458CE
  0
DIMSTYLE
105
459E0
330
458C9
100
AcDbSymbolTableRecord
100
AcDbDimStyleTableRecord
  2
Standard
 70
     0
340
458CE
  0
ENDTAB
  0
TABLE
  2
BLOCK_RECORD
  5
458C0
330
0
100
AcDbSymbolTable
 70
     3
  0
BLOCK_RECORD
  5
458D6
102
{ACAD_XDICTIONARY
360
45930
102
}
330
458C0
100
AcDbSymbolTableRecord
100
AcDbBlockTableRecord
  2
*MODEL_SPACE
340
458FD
  0
BLOCK_RECORD
  5
458D3
102
{ACAD_XDICTIONARY
360
4592E
102
}
330
458C0
100
AcDbSymbolTableRecord
100
AcDbBlockTableRecord
  2
*PAPER_SPACE
340
458FE
  0
BLOCK_RECORD
  5
48E5F
330
458C0
100
AcDbSymbolTableRecord
100
AcDbBlockTableRecord
  2
*D0
340
0
  0
BLOCK_RECORD
  5
48E6C
330
458C0
100
AcDbSymbolTableRecord
100
AcDbBlockTableRecord
  2
*D1
340
0
  0
BLOCK_RECORD
  5
48EC4
330
458C0
100
AcDbSymbolTableRecord
100
AcDbBlockTableRecord
  2
*D2
340
0
  0
ENDTAB
  0
ENDSEC
  0
SECTION
  2
BLOCKS
  0
BLOCK
  5
458DF
330
458D6
100
AcDbEntity
  8
0
100
AcDbBlockBegin
  2
*MODEL_SPACE
 70
     0
 10
0.0
 20
0.0
 30
0.0
  3
*MODEL_SPACE
  1

  0
ENDBLK
  5
458E0
330
458D6
100
AcDbEntity
  8
0
100
AcDbBlockEnd
  0
BLOCK
  5
458DD
330
458D3
100
AcDbEntity
 67
     1
  8
0
100
AcDbBlockBegin
  2
*PAPER_SPACE
 70
     0
 10
0.0
 20
0.0
 30
0.0
  3
*PAPER_SPACE
  1

  0
ENDBLK
  5
458DE
330
458D3
100
AcDbEntity
 67
     1
  8
0
100
AcDbBlockEnd
  0
BLOCK
  5
48E6A
330
48E5F
100
AcDbEntity
  8
0
100
AcDbBlockBegin
  2
*D0
 70
     1
 10
0.0
 20
0.0
 30
0.0
  3
*D0
  1

  0
LINE
  5
48F21
330
48E5F
100
AcDbEntity
  8
AREA1
 62
     0
370
    -2
100
AcDbLine
 10
327.8282123083243
 20
-240.0664682231859
 30
0.0
 11
394.9785336831335
 21
-240.0664682231859
 31
0.0
  0
LINE
  5
48F22
330
48E5F
100
AcDbEntity
  8
AREA1
 62
     0
370
    -2
100
AcDbLine
 10
330.3682123083241
 20
-69.12446822318597
 30
0.0
 11
394.9785336831336
 21
-69.12446822318599
 31
0.0
  0
LINE
  5
48F23
330
48E5F
100
AcDbEntity
  8
AREA1
 62
     0
370
    -2
100
AcDbLine
 10
390.4065336831335
 20
-235.4944682231859
 30
0.0
 11
390.4065336831335
 21
-188.5044682231859
 31
0.0
  0
LINE
  5
48F24
330
48E5F
100
AcDbEntity
  8
AREA1
 62
     0
370
    -2
100
AcDbLine
 10
390.4065336831336
 20
-73.69646822318599
 30
0.0
 11
390.4065336831336
 21
-120.6864682231859
 31
0.0
  0
SOLID
  5
48F25
330
48E5F
100
AcDbEntity
  8
AREA1
 62
     0
100
AcDbTrace
 10
389.6445336831335
 20
-235.4944682231859
 30
0.0
 11
391.1685336831335
 21
-235.4944682231859
 31
0.0
 12
390.4065336831335
 22
-240.0664682231859
 32
0.0
 13
390.4065336831335
 23
-240.0664682231859
 33
0.0
  0
SOLID
  5
48F26
330
48E5F
100
AcDbEntity
  8
AREA1
 62
     0
100
AcDbTrace
 10
389.6445336831336
 20
-73.69646822318599
 30
0.0
 11
391.1685336831336
 21
-73.69646822318599
 31
0.0
 12
390.4065336831336
 22
-69.12446822318599
 32
0.0
 13
390.4065336831336
 23
-69.12446822318599
 33
0.0
  0
MTEXT
  5
48F27
330
48E5F
100
AcDbEntity
  8
AREA1
 62
     0
100
AcDbMText
 10
390.4065336831336
 20
-154.5954682231859
 30
0.0
 40
4.572
 41
0.0
 71
     5
 72
     1
  1
\A1;170.94 [6 47/64]
 11
0.0000000000000001
 21
1.0
 31
0.0
 73
     1
 44
1.0
  0
POINT
  5
48F28
330
48E5F
100
AcDbEntity
  8
Defpoints
 62
     0
100
AcDbPoint
 10
326.2407123083243
 20
-240.0664682231859
 30
0.0
  0
POINT
  5
48F29
330
48E5F
100
AcDbEntity
  8
Defpoints
 62
     0
100
AcDbPoint
 10
328.7807123083241
 20
-69.12446822318597
 30
0.0
  0
POINT
  5
48F2A
330
48E5F
100
AcDbEntity
  8
Defpoints
 62
     0
100
AcDbPoint
 10
390.4065336831336
 20
-69.12446822318599
 30
0.0
  0
ENDBLK
  5
48E6B
330
48E5F
100
AcDbEntity
  8
0
100
AcDbBlockEnd
  0
BLOCK
  5
48E77
330
48E6C
100
AcDbEntity
  8
0
100
AcDbBlockBegin
  2
*D1
 70
     1
 10
0.0
 20
0.0
 30
0.0
  3
*D1
  1

  0
LINE
  5
48E97
330
48E6C
100
AcDbEntity
  8
AREA1
 62
     0
370
    -2
100
AcDbLine
 10
185.3469123083243
 20
-84.55496822318597
 30
0.0
 11
185.3469123083243
 21
-45.92499524881543
 31
0.0
  0
LINE
  5
48E98
330
48E6C
100
AcDbEntity
  8
AREA1
 62
     0
370
    -2
100
AcDbLine
 10
365.6869123083243
 20
-94.71496822318599
 30
0.0
 11
365.6869123083243
 21
-45.92499524881543
 31
0.0
  0
LINE
  5
48E99
330
48E6C
100
AcDbEntity
  8
AREA1
 62
     0
370
    -2
100
AcDbLine
 10
189.9189123083243
 20
-50.49699524881543
 30
0.0
 11
243.8939123083243
 21
-50.49699524881543
 31
0.0
  0
LINE
  5
48E9A
330
48E6C
100
AcDbEntity
  8
AREA1
 62
     0
370
    -2
100
AcDbLine
 10
361.1149123083242
 20
-50.49699524881543
 30
0.0
 11
307.1399123083243
 21
-50.49699524881543
 31
0.0
  0
SOLID
  5
48E9B
330
48E6C
100
AcDbEntity
  8
AREA1
 62
     0
100
AcDbTrace
 10
189.9189123083243
 20
-49.73499524881543
 30
0.0
 11
189.9189123083243
 21
-51.25899524881543
 31
0.0
 12
185.3469123083243
 22
-50.49699524881543
 32
0.0
 13
185.3469123083243
 23
-50.49699524881543
 33
0.0
  0
SOLID
  5
48E9C
330
48E6C
100
AcDbEntity
  8
AREA1
 62
     0
100
AcDbTrace
 10
361.1149123083242
 20
-49.73499524881543
 30
0.0
 11
361.1149123083242
 21
-51.25899524881543
 31
0.0
 12
365.6869123083243
 22
-50.49699524881543
 32
0.0
 13
365.6869123083243
 23
-50.49699524881543
 33
0.0
  0
MTEXT
  5
48E9D
330
48E6C
100
AcDbEntity
  8
AREA1
 62
     0
100
AcDbMText
 10
275.5169123083243
 20
-50.49699524881543
 30
0.0
 40
4.572
 41
0.0
 71
     5
 72
     1
  1
\A1;180.34 [7 3/32]
 73
     1
 44
1.0
  0
POINT
  5
48E9E
330
48E6C
100
AcDbEntity
  8
Defpoints
 62
     0
100
AcDbPoint
 10
185.3469123083243
 20
-86.14246822318596
 30
0.0
  0
POINT
  5
48E9F
330
48E6C
100
AcDbEntity
  8
Defpoints
 62
     0
100
AcDbPoint
 10
365.6869123083243
 20
-96.302468223186
 30
0.0
  0
POINT
  5
48EA0
330
48E6C
100
AcDbEntity
  8
Defpoints
 62
     0
100
AcDbPoint
 10
365.6869123083243
 20
-50.49699524881543
 30
0.0
  0
ENDBLK
  5
48E78
330
48E6C
100
AcDbEntity
  8
0
100
AcDbBlockEnd
  0
BLOCK
  5
48ECF
330
48EC4
100
AcDbEntity
  8
0
100
AcDbBlockBegin
  2
*D2
 70
     1
 10
0.0
 20
0.0
 30
0.0
  3
*D2
  1

  0
LINE
  5
48F40
330
48EC4
100
AcDbEntity
  8
AREA2
 62
     0
370
    -2
100
AcDbLine
 10
367.2744123083243
 20
213.9668919547091
 30
0.0
 11
381.5981172367137
 21
213.9668919547091
 31
0.0
  0
LINE
  5
48F41
330
48EC4
100
AcDbEntity
  8
AREA2
 62
     0
370
    -2
100
AcDbLine
 10
357.1144123083243
 20
68.93289195470919
 30
0.0
 11
381.5981172367136
 21
68.93289195470919
 31
0.0
  0
LINE
  5
48F42
330
48EC4
100
AcDbEntity
  8
AREA2
 62
     0
370
    -2
100
AcDbLine
 10
377.0261172367137
 20
209.3948919547091
 30
0.0
 11
377.0261172367137
 21
170.5006363138189
 31
0.0
  0
LINE
  5
48F43
330
48EC4
100
AcDbEntity
  8
AREA2
 62
     0
370
    -2
100
AcDbLine
 10
377.0261172367136
 20
73.50489195470919
 30
0.0
 11
377.0261172367136
 21
102.6826363138189
 31
0.0
  0
MTEXT
  5
48F44
330
48EC4
100
AcDbEntity
  8
AREA2
 62
     0
100
AcDbMText
 10
377.0261172367137
 20
136.591636313819
 30
0.0
 40
4.572
 41
0.0
 71
     5
 72
     1
  1
\A1;145.03 [5 45/64]
 11
0.0000000000000001
 21
1.0
 31
0.0
 73
     1
 44
1.0
  0
SOLID
  5
48F45
330
48EC4
100
AcDbEntity
  8
AREA2
 62
     0
100
AcDbTrace
 10
376.2641172367137
 20
209.3948919547091
 30
0.0
 11
377.7881172367137
 21
209.3948919547091
 31
0.0
 12
377.0261172367137
 22
213.9668919547091
 32
0.0
 13
377.0261172367137
 23
213.9668919547091
 33
0.0
  0
SOLID
  5
48F46
330
48EC4
100
AcDbEntity
  8
AREA2
 62
     0
100
AcDbTrace
 10
376.2641172367136
 20
73.50489195470919
 30
0.0
 11
377.7881172367136
 21
73.50489195470919
 31
0.0
 12
377.0261172367136
 22
68.93289195470919
 32
0.0
 13
377.0261172367136
 23
68.93289195470919
 33
0.0
  0
POINT
  5
48F47
330
48EC4
100
AcDbEntity
  8
Defpoints
 62
     0
100
AcDbPoint
 10
365.6869123083243
 20
213.9668919547091
 30
96.30246822318596
  0
POINT
  5
48F48
330
48EC4
100
AcDbEntity
  8
Defpoints
 62
     0
100
AcDbPoint
 10
355.5269123083243
 20
68.93289195470919
 30
86.14246822318593
  0
POINT
  5
48F49
330
48EC4
100
AcDbEntity
  8
Defpoints
 62
     0
100
AcDbPoint
 10
377.0261172367136
 20
68.93289195470919
 30
0.0
  0
ENDBLK
  5
48ED0
330
48EC4
100
AcDbEntity
  8
0
100
AcDbBlockEnd
  0
ENDSEC
  0
SECTION
  2
ENTITIES
  0
LINE
  5
45967
330
458D6
100
AcDbEntity
  8
SCALE
100
AcDbLine
 10
140.2299639677775
 20
-111.1156835367836
 30
68.93289195470919
 11
165.6299639677774
 21
-111.1156835367836
 31
68.93289195470919
  0
LINE
  5
45968
330
458D6
100
AcDbEntity
  8
SCALE
100
AcDbLine
 10
165.6299639677774
 20
-113.6556835367836
 30
68.93289195470919
 11
165.6299639677774
 21
-108.5756835367835
 31
68.93289195470919
  0
LINE
  5
4596A
330
458D6
100
AcDbEntity
  8
SCALE
100
AcDbLine
 10
140.2299639677775
 20
-113.6556835367836
 30
68.93289195470919
 11
140.2299639677775
 21
-108.5756835367835
 31
68.93289195470919
  0
LINE
  5
4596B
330
458D6
100
AcDbEntity
  8
SCALE
100
AcDbLine
 10
140.2299639677775
 20
-105.9292597994903
 30
68.93289195470919
 11
140.2299639677775
 21
-100.8492597994903
 31
68.93289195470919
  0
LINE
  5
4596C
330
458D6
100
AcDbEntity
  8
SCALE
100
AcDbLine
 10
150.2299439677775
 20
-105.9292597994903
 30
68.93289195470919
 11
150.2299439677775
 21
-100.8492597994903
 31
68.93289195470919
  0
LINE
  5
4596D
330
458D6
100
AcDbEntity
  8
SCALE
100
AcDbLine
 10
140.2299639677775
 20
-103.3892597994903
 30
68.93289195470919
 11
150.2299439677775
 21
-103.3892597994903
 31
68.93289195470919
  0
TEXT
  5
4596E
330
458D6
100
AcDbEntity
  8
SCALE
100
AcDbText
 10
141.7392867085514
 20
-102.2274728095278
 30
68.93289195470919
 40
1.587499999999999
  1
10 mm
100
AcDbText
  0
TEXT
  5
4596F
330
458D6
100
AcDbEntity
  8
SCALE
100
AcDbText
 10
147.8278567008655
 20
-109.3618466743043
 30
68.93289195470919
 40
1.587499999999999
  1
[1 Inch]
100
AcDbText
  0
TEXT
  5
45970
330
458D6
100
AcDbEntity
  8
SCALE
100
AcDbText
 10
140.0360480479068
 20
-97.85572218463851
 30
68.93289195470919
 40
1.587499999999999
  1
SCALE:
100
AcDbText
  0
ATTDEF
  5
470D4
330
458D6
100
AcDbEntity
  8
ATTRIBUTES
 62
     0
100
AcDbText
 10
223.8081700889033
 20
-169.8084895007541
 30
68.92405523408196
 40
1.099112283096765
  1
0
100
AcDbAttributeDefinition
  3
VIEW CODE?
  2
AC_VIEW_CODE
 70
     1
  0
ATTDEF
  5
470D5
330
458D6
100
AcDbEntity
  8
ATTRIBUTES
 62
     0
100
AcDbText
 10
223.8081700889033
 20
-167.5186722443024
 30
68.92405523408196
 40
1.099112283096765
  1
INCH
100
AcDbAttributeDefinition
  3
UNIT OF SCALE?
  2
AC_SCALE_UNIT
 70
     1
  0
ATTDEF
  5
470D6
330
458D6
100
AcDbEntity
  8
ATTRIBUTES
 62
     0
100
AcDbText
 10
223.8081700889033
 20
-165.2288549878508
 30
68.92523753103116
 40
1.099112283096765
  1

100
AcDbAttributeDefinition
  3
FASTENER DATA?
  2
FASTENER
 70
     1
  0
ATTDEF
  5
470D7
330
458D6
100
AcDbEntity
  8
ATTRIBUTES
 62
     0
100
AcDbText
 10
223.8081700889033
 20
-162.9390377313991
 30
68.92523753103116
 40
1.099112283096765
  1

100
AcDbAttributeDefinition
  3
CUSTOMER NOTE?
  2
AC_NOTE
 70
     1
  0
ATTDEF
  5
470D8
330
458D6
100
AcDbEntity
  8
ATTRIBUTES
 62
     0
100
AcDbText
 10
223.8081700889033
 20
-160.6492204749478
 30
68.92405523408196
 40
1.099112283096765
  1

100
AcDbAttributeDefinition
  3
CUSTOMER PART NUMBER?
  2
AC_CPART_NO
 70
     1
  0
ATTDEF
  5
470D9
330
458D6
100
AcDbEntity
  8
ATTRIBUTES
 62
     0
100
AcDbText
 10
223.8081700889033
 20
-158.3594032184961
 30
68.92523753103116
 40
1.099112283096765
  1

100
AcDbAttributeDefinition
  3
DEVICE ID?
  2
DEVICE_ID
 70
     1
  0
ATTDEF
  5
470DA
330
458D6
100
AcDbEntity
  8
ATTRIBUTES
 62
     0
100
AcDbText
 10
223.8081700889033
 20
-156.0695859620445
 30
68.92405523408196
 40
1.099112283096765
  1
ControlLogix 4 Slot Chassis
100
AcDbAttributeDefinition
  3
PART DESCRIPTION?
  2
AC_DESCRIPTION
 70
     1
  0
ATTDEF
  5
470DB
330
458D6
100
AcDbEntity
  8
ATTRIBUTES
 62
     0
100
AcDbText
 10
223.8081700889033
 20
-153.7797687055928
 30
68.92405523408196
 40
1.099112283096765
  1
1756-A4
100
AcDbAttributeDefinition
  3
CATALOG NUMBER?
  2
AC_PART_NO
 70
     1
  0
ATTDEF
  5
470DC
330
458D6
100
AcDbEntity
  8
ATTRIBUTES
 62
     0
100
AcDbText
 10
223.8081700889033
 20
-151.4899514491411
 30
68.92405523408196
 40
1.099112283096765
  1
ALLEN-BRADLEY
100
AcDbAttributeDefinition
  3
MANUFACTURER NAME?
  2
AC_VND_LABEL
 70
     1
  0
POLYLINE
  5
48AAE
330
458D6
100
AcDbEntity
  8
0
100
AcDbPolygonMesh
 66
     1
 10
0.0
 20
0.0
 30
0.0
 70
    16
 71
     6
 72
     3
  0
VERTEX
  5
48AAF
330
48AAE
100
AcDbEntity
  8
0
100
AcDbVertex
100
AcDbPolygonMeshVertex
 10
309.5516726455334
 20
-142.0218999127756
 30
79.72789195470918
 70
    64
  0
VERTEX
  5
48AB0
330
48AAE
100
AcDbEntity
  8
0
100
AcDbVertex
100
AcDbPolygonMeshVertex
 10
309.5516726455334
 20
-142.0218999127756
 30
70.20289195470913
 70
    64
  0
VERTEX
  5
48AB1
330
48AAE
100
AcDbEntity
  8
0
100
AcDbVertex
100
AcDbPolygonMeshVertex
 10
309.5516726455334
 20
-142.0218999127756
 30
70.20289195470913
 70
    64
  0
VERTEX
  5
48AB2
330
48AAE
100
AcDbEntity
  8
0
100
AcDbVertex
100
AcDbPolygonMeshVertex
 10
299.3922840476703
 20
-142.0218999127756
 30
79.72789195470918
 70
    64
  0
VERTEX
  5
48AB3
330
48AAE
100
AcDbEntity
  8
0
100
AcDbVertex
100
AcDbPolygonMeshVertex
 10
299.3922840476703
 20
-142.0218999127756
 30
70.20289195470913
 70
    64
  0
VERTEX
  5
48AB4
330
48AAE
100
AcDbEntity
  8
0
100
AcDbVertex
100
AcDbPolygonMeshVertex
 10
299.3922840476703
 20
-142.0218999127756
 30
70.20289195470913
 70
    64
  0
VERTEX
  5
48AB5
330
48AAE
100
AcDbEntity
  8
0
100
AcDbVertex
100
AcDbPolygonMeshVertex
 10
299.3922840476703
 20
-101.3824464023128
 30
79.72789195470918
 70
    64
  0
VERTEX
  5
48AB6
330
48AAE
100
AcDbEntity
  8
0
100
AcDbVertex
100
AcDbPolygonMeshVertex
 10
299.3922840476703
 20
-101.3824464023128
 30
70.20289195470913
 70
    64
  0
VERTEX
  5
48AB7
330
48AAE
100
AcDbEntity
  8
0
100
AcDbVertex
100
AcDbPolygonMeshVertex
 10
299.3922840476703
 20
-142.0218999127756
 30
70.20289195470913
 70
    64
  0
VERTEX
  5
48AB8
330
48AAE
100
AcDbEntity
  8
0
100
AcDbVertex
100
AcDbPolygonMeshVertex
 10
309.5516726455334
 20
-101.3824464023128
 30
79.72789195470918
 70
    64
  0
VERTEX
  5
48AB9
330
48AAE
100
AcDbEntity
  8
0
100
AcDbVertex
100
AcDbPolygonMeshVertex
 10
309.5516726455334
 20
-101.3824464023128
 30
70.20289195470913
 70
    64
  0
VERTEX
  5
48ABA
330
48AAE
100
AcDbEntity
  8
0
100
AcDbVertex
100
AcDbPolygonMeshVertex
 10
309.5516726455334
 20
-142.0218999127756
 30
70.20289195470913
 70
    64
  0
VERTEX
  5
48ABB
330
48AAE
100
AcDbEntity
  8
0
100
AcDbVertex
100
AcDbPolygonMeshVertex
 10
309.5516726455334
 20
-101.3824464023128
 30
79.72789195470918
 70
    64
  0
VERTEX
  5
48ABC
330
48AAE
100
AcDbEntity
  8
0
100
AcDbVertex
100
AcDbPolygonMeshVertex
 10
309.5516726455334
 20
-101.3824464023128
 30
79.72789195470918
 70
    64
  0
VERTEX
  5
48ABD
330
48AAE
100
AcDbEntity
  8
0
100
AcDbVertex
100
AcDbPolygonMeshVertex
 10
309.5516726455334
 20
-142.0218999127756
 30
79.72789195470918
 70
    64
  0
VERTEX
  5
48ABE
330
48AAE
100
AcDbEntity
  8
0
100
AcDbVertex
100
AcDbPolygonMeshVertex
 10
299.3922840476703
 20
-101.3824464023128
 30
79.72789195470918
 70
    64
  0
VERTEX
  5
48ABF
330
48AAE
100
AcDbEntity
  8
0
100
AcDbVertex
100
AcDbPolygonMeshVertex
 10
299.3922840476703
 20
-101.3824464023128
 30
79.72789195470918
 70
    64
  0
VERTEX
  5
48AC0
330
48AAE
100
AcDbEntity
  8
0
100
AcDbVertex
100
AcDbPolygonMeshVertex
 10
299.3922840476703
 20
-142.0218999127756
 30
79.72789195470918
 70
    64
  0
SEQEND
  5
48AC1
330
48AAE
100
AcDbEntity
  8
0
  0
POLYLINE
  5
48AC2
330
458D6
100
AcDbEntity
  8
0
100
AcDbPolygonMesh
 66
     1
 10
0.0
 20
0.0
 30
0.0
 70
    16
 71
     6
 72
     3
  0
VERTEX
  5
48AC3
330
48AC2
100
AcDbEntity
  8
0
100
AcDbVertex
100
AcDbPolygonMeshVertex
 10
355.5269123083243
 20
-86.14246822318595
 30
166.7228919547091
 70
    64
  0
VERTEX
  5
48AC4
330
48AC2
100
AcDbEntity
  8
0
100
AcDbVertex
100
AcDbPolygonMeshVertex
 10
355.5269123083243
 20
-86.14246822318595
 30
68.93289195470919
 70
    64
  0
VERTEX
  5
48AC5
330
48AC2
100
AcDbEntity
  8
0
100
AcDbVertex
100
AcDbPolygonMeshVertex
 10
355.5269123083243
 20
-86.14246822318595
 30
68.93289195470919
 70
    64
  0
VERTEX
  5
48AC6
330
48AC2
100
AcDbEntity
  8
0
100
AcDbVertex
100
AcDbPolygonMeshVertex
 10
185.3469123083243
 20
-86.14246822318595
 30
166.7228919547091
 70
    64
  0
VERTEX
  5
48AC7
330
48AC2
100
AcDbEntity
  8
0
100
AcDbVertex
100
AcDbPolygonMeshVertex
 10
185.3469123083243
 20
-86.14246822318595
 30
68.93289195470919
 70
    64
  0
VERTEX
  5
48AC8
330
48AC2
100
AcDbEntity
  8
0
100
AcDbVertex
100
AcDbPolygonMeshVertex
 10
185.3469123083243
 20
-86.14246822318595
 30
68.93289195470919
 70
    64
  0
VERTEX
  5
48AC9
330
48AC2
100
AcDbEntity
  8
0
100
AcDbVertex
100
AcDbPolygonMeshVertex
 10
185.3469123083243
 20
-87.165870476766
 30
166.7228919547091
 70
    64
  0
VERTEX
  5
48ACA
330
48AC2
100
AcDbEntity
  8
0
100
AcDbVertex
100
AcDbPolygonMeshVertex
 10
185.3469123083243
 20
-87.165870476766
 30
68.93289195470919
 70
    64
  0
VERTEX
  5
48ACB
330
48AC2
100
AcDbEntity
  8
0
100
AcDbVertex
100
AcDbPolygonMeshVertex
 10
185.3469123083243
 20
-86.14246822318595
 30
68.93289195470919
 70
    64
  0
VERTEX
  5
48ACC
330
48AC2
100
AcDbEntity
  8
0
100
AcDbVertex
100
AcDbPolygonMeshVertex
 10
355.5269123083243
 20
-87.165870476766
 30
166.7228919547091
 70
    64
  0
VERTEX
  5
48ACD
330
48AC2
100
AcDbEntity
  8
0
100
AcDbVertex
100
AcDbPolygonMeshVertex
 10
355.5269123083243
 20
-87.165870476766
 30
68.93289195470919
 70
    64
  0
VERTEX
  5
48ACE
330
48AC2
100
AcDbEntity
  8
0
100
AcDbVertex
100
AcDbPolygonMeshVertex
 10
355.5269123083243
 20
-86.14246822318595
 30
68.93289195470919
 70
    64
  0
VERTEX
  5
48ACF
330
48AC2
100
AcDbEntity
  8
0
100
AcDbVertex
100
AcDbPolygonMeshVertex
 10
355.5269123083243
 20
-87.165870476766
 30
166.7228919547091
 70
    64
  0
VERTEX
  5
48AD0
330
48AC2
100
AcDbEntity
  8
0
100
AcDbVertex
100
AcDbPolygonMeshVertex
 10
355.5269123083243
 20
-87.165870476766
 30
166.7228919547091
 70
    64
  0
VERTEX
  5
48AD1
330
48AC2
100
AcDbEntity
  8
0
100
AcDbVertex
100
AcDbPolygonMeshVertex
 10
355.5269123083243
 20
-86.14246822318595
 30
166.7228919547091
 70
    64
  0
VERTEX
  5
48AD2
330
48AC2
100
AcDbEntity
  8
0
100
AcDbVertex
100
AcDbPolygonMeshVertex
 10
185.3469123083243
 20
-87.165870476766
 30
166.7228919547091
 70
    64
  0
VERTEX
  5
48AD3
330
48AC2
100
AcDbEntity
  8
0
100
AcDbVertex
100
AcDbPolygonMeshVertex
 10
185.3469123083243
 20
-87.165870476766
 30
166.7228919547091
 70
    64
  0
VERTEX
  5
48AD4
330
48AC2
100
AcDbEntity
  8
0
100
AcDbVertex
100
AcDbPolygonMeshVertex
 10
185.3469123083243
 20
-86.14246822318595
 30
166.7228919547091
 70
    64
  0
SEQEND
  5
48AD5
330
48AC2
100
AcDbEntity
  8
0
  0
POLYLINE
  5
48AD6
330
458D6
100
AcDbEntity
  8
0
100
AcDbPolygonMesh
 66
     1
 10
0.0
 20
0.0
 30
0.0
 70
    16
 71
     6
 72
     3
  0
VERTEX
  5
48AD7
330
48AD6
100
AcDbEntity
  8
0
100
AcDbVertex
100
AcDbPolygonMeshVertex
 10
355.5269123083243
 20
-225.0730659696059
 30
69.94891891958663
 70
    64
  0
VERTEX
  5
48AD8
330
48AD6
100
AcDbEntity
  8
0
100
AcDbVertex
100
AcDbPolygonMeshVertex
 10
355.5269123083243
 20
-225.0730659696059
 30
68.93289195470919
 70
    64
  0
VERTEX
  5
48AD9
330
48AD6
100
AcDbEntity
  8
0
100
AcDbVertex
100
AcDbPolygonMeshVertex
 10
355.5269123083243
 20
-225.0730659696059
 30
68.93289195470919
 70
    64
  0
VERTEX
  5
48ADA
330
48AD6
100
AcDbEntity
  8
0
100
AcDbVertex
100
AcDbPolygonMeshVertex
 10
185.3469123083243
 20
-225.0730659696059
 30
69.94891891958663
 70
    64
  0
VERTEX
  5
48ADB
330
48AD6
100
AcDbEntity
  8
0
100
AcDbVertex
100
AcDbPolygonMeshVertex
 10
185.3469123083243
 20
-225.0730659696059
 30
68.93289195470919
 70
    64
  0
VERTEX
  5
48ADC
330
48AD6
100
AcDbEntity
  8
0
100
AcDbVertex
100
AcDbPolygonMeshVertex
 10
185.3469123083243
 20
-225.0730659696059
 30
68.93289195470919
 70
    64
  0
VERTEX
  5
48ADD
330
48AD6
100
AcDbEntity
  8
0
100
AcDbVertex
100
AcDbPolygonMeshVertex
 10
185.3469123083243
 20
-87.15846822318594
 30
69.94891891958663
 70
    64
  0
VERTEX
  5
48ADE
330
48AD6
100
AcDbEntity
  8
0
100
AcDbVertex
100
AcDbPolygonMeshVertex
 10
185.3469123083243
 20
-87.15846822318594
 30
68.93289195470919
 70
    64
  0
VERTEX
  5
48ADF
330
48AD6
100
AcDbEntity
  8
0
100
AcDbVertex
100
AcDbPolygonMeshVertex
 10
185.3469123083243
 20
-225.0730659696059
 30
68.93289195470919
 70
    64
  0
VERTEX
  5
48AE0
330
48AD6
100
AcDbEntity
  8
0
100
AcDbVertex
100
AcDbPolygonMeshVertex
 10
355.5269123083243
 20
-87.15846822318594
 30
69.94891891958663
 70
    64
  0
VERTEX
  5
48AE1
330
48AD6
100
AcDbEntity
  8
0
100
AcDbVertex
100
AcDbPolygonMeshVertex
 10
355.5269123083243
 20
-87.15846822318594
 30
68.93289195470919
 70
    64
  0
VERTEX
  5
48AE2
330
48AD6
100
AcDbEntity
  8
0
100
AcDbVertex
100
AcDbPolygonMeshVertex
 10
355.5269123083243
 20
-225.0730659696059
 30
68.93289195470919
 70
    64
  0
VERTEX
  5
48AE3
330
48AD6
100
AcDbEntity
  8
0
100
AcDbVertex
100
AcDbPolygonMeshVertex
 10
355.5269123083243
 20
-87.15846822318594
 30
69.94891891958663
 70
    64
  0
VERTEX
  5
48AE4
330
48AD6
100
AcDbEntity
  8
0
100
AcDbVertex
100
AcDbPolygonMeshVertex
 10
355.5269123083243
 20
-87.15846822318594
 30
69.94891891958663
 70
    64
  0
VERTEX
  5
48AE5
330
48AD6
100
AcDbEntity
  8
0
100
AcDbVertex
100
AcDbPolygonMeshVertex
 10
355.5269123083243
 20
-225.0730659696059
 30
69.94891891958663
 70
    64
  0
VERTEX
  5
48AE6
330
48AD6
100
AcDbEntity
  8
0
100
AcDbVertex
100
AcDbPolygonMeshVertex
 10
185.3469123083243
 20
-87.15846822318594
 30
69.94891891958663
 70
    64
  0
VERTEX
  5
48AE7
330
48AD6
100
AcDbEntity
  8
0
100
AcDbVertex
100
AcDbPolygonMeshVertex
 10
185.3469123083243
 20
-87.15846822318594
 30
69.94891891958663
 70
    64
  0
VERTEX
  5
48AE8
330
48AD6
100
AcDbEntity
  8
0
100
AcDbVertex
100
AcDbPolygonMeshVertex
 10
185.3469123083243
 20
-225.0730659696059
 30
69.94891891958663
 70
    64
  0
SEQEND
  5
48AE9
330
48AD6
100
AcDbEntity
  8
0
  0
POLYLINE
  5
48AEA
330
458D6
100
AcDbEntity
  8
0
100
AcDbPolygonMesh
 66
     1
 10
0.0
 20
0.0
 30
0.0
 70
    16
 71
     6
 72
     3
  0
VERTEX
  5
48AEB
330
48AEA
100
AcDbEntity
  8
0
100
AcDbVertex
100
AcDbPolygonMeshVertex
 10
355.5269123083243
 20
-226.0964682231859
 30
166.7228919547091
 70
    64
  0
VERTEX
  5
48AEC
330
48AEA
100
AcDbEntity
  8
0
100
AcDbVertex
100
AcDbPolygonMeshVertex
 10
355.5269123083243
 20
-226.0964682231859
 30
68.93289195470919
 70
    64
  0
VERTEX
  5
48AED
330
48AEA
100
AcDbEntity
  8
0
100
AcDbVertex
100
AcDbPolygonMeshVertex
 10
355.5269123083243
 20
-226.0964682231859
 30
68.93289195470919
 70
    64
  0
VERTEX
  5
48AEE
330
48AEA
100
AcDbEntity
  8
0
100
AcDbVertex
100
AcDbPolygonMeshVertex
 10
185.3469123083243
 20
-226.0964682231859
 30
166.7228919547091
 70
    64
  0
VERTEX
  5
48AEF
330
48AEA
100
AcDbEntity
  8
0
100
AcDbVertex
100
AcDbPolygonMeshVertex
 10
185.3469123083243
 20
-226.0964682231859
 30
68.93289195470919
 70
    64
  0
VERTEX
  5
48AF0
330
48AEA
100
AcDbEntity
  8
0
100
AcDbVertex
100
AcDbPolygonMeshVertex
 10
185.3469123083243
 20
-226.0964682231859
 30
68.93289195470919
 70
    64
  0
VERTEX
  5
48AF1
330
48AEA
100
AcDbEntity
  8
0
100
AcDbVertex
100
AcDbPolygonMeshVertex
 10
185.3469123083243
 20
-225.0730659696059
 30
166.7228919547091
 70
    64
  0
VERTEX
  5
48AF2
330
48AEA
100
AcDbEntity
  8
0
100
AcDbVertex
100
AcDbPolygonMeshVertex
 10
185.3469123083243
 20
-225.0730659696059
 30
68.93289195470919
 70
    64
  0
VERTEX
  5
48AF3
330
48AEA
100
AcDbEntity
  8
0
100
AcDbVertex
100
AcDbPolygonMeshVertex
 10
185.3469123083243
 20
-226.0964682231859
 30
68.93289195470919
 70
    64
  0
VERTEX
  5
48AF4
330
48AEA
100
AcDbEntity
  8
0
100
AcDbVertex
100
AcDbPolygonMeshVertex
 10
355.5269123083243
 20
-225.0730659696059
 30
166.7228919547091
 70
    64
  0
VERTEX
  5
48AF5
330
48AEA
100
AcDbEntity
  8
0
100
AcDbVertex
100
AcDbPolygonMeshVertex
 10
355.5269123083243
 20
-225.0730659696059
 30
68.93289195470919
 70
    64
  0
VERTEX
  5
48AF6
330
48AEA
100
AcDbEntity
  8
0
100
AcDbVertex
100
AcDbPolygonMeshVertex
 10
355.5269123083243
 20
-226.0964682231859
 30
68.93289195470919
 70
    64
  0
VERTEX
  5
48AF7
330
48AEA
100
AcDbEntity
  8
0
100
AcDbVertex
100
AcDbPolygonMeshVertex
 10
355.5269123083243
 20
-225.0730659696059
 30
166.7228919547091
 70
    64
  0
VERTEX
  5
48AF8
330
48AEA
100
AcDbEntity
  8
0
100
AcDbVertex
100
AcDbPolygonMeshVertex
 10
355.5269123083243
 20
-225.0730659696059
 30
166.7228919547091
 70
    64
  0
VERTEX
  5
48AF9
330
48AEA
100
AcDbEntity
  8
0
100
AcDbVertex
100
AcDbPolygonMeshVertex
 10
355.5269123083243
 20
-226.0964682231859
 30
166.7228919547091
 70
    64
  0
VERTEX
  5
48AFA
330
48AEA
100
AcDbEntity
  8
0
100
AcDbVertex
100
AcDbPolygonMeshVertex
 10
185.3469123083243
 20
-225.0730659696059
 30
166.7228919547091
 70
    64
  0
VERTEX
  5
48AFB
330
48AEA
100
AcDbEntity
  8
0
100
AcDbVertex
100
AcDbPolygonMeshVertex
 10
185.3469123083243
 20
-225.0730659696059
 30
166.7228919547091
 70
    64
  0
VERTEX
  5
48AFC
330
48AEA
100
AcDbEntity
  8
0
100
AcDbVertex
100
AcDbPolygonMeshVertex
 10
185.3469123083243
 20
-226.0964682231859
 30
166.7228919547091
 70
    64
  0
SEQEND
  5
48AFD
330
48AEA
100
AcDbEntity
  8
0
  0
POLYLINE
  5
48AFE
330
458D6
100
AcDbEntity
  8
0
100
AcDbPolygonMesh
 66
     1
 10
0.0
 20
0.0
 30
0.0
 70
    16
 71
     6
 72
     3
  0
VERTEX
  5
48AFF
330
48AFE
100
AcDbEntity
  8
0
100
AcDbVertex
100
AcDbPolygonMeshVertex
 10
242.5731123083243
 20
-86.14246822318596
 30
69.94889195470915
 70
    64
  0
VERTEX
  5
48B00
330
48AFE
100
AcDbEntity
  8
0
100
AcDbVertex
100
AcDbPolygonMeshVertex
 10
242.5731123083243
 20
-86.14246822318596
 30
68.93289195470919
 70
    64
  0
VERTEX
  5
48B01
330
48AFE
100
AcDbEntity
  8
0
100
AcDbVertex
100
AcDbPolygonMeshVertex
 10
242.5731123083243
 20
-86.14246822318596
 30
68.93289195470919
 70
    64
  0
VERTEX
  5
48B02
330
48AFE
100
AcDbEntity
  8
0
100
AcDbVertex
100
AcDbPolygonMeshVertex
 10
242.5731123083243
 20
-69.12446822318599
 30
69.94889195470915
 70
    64
  0
VERTEX
  5
48B03
330
48AFE
100
AcDbEntity
  8
0
100
AcDbVertex
100
AcDbPolygonMeshVertex
 10
242.5731123083243
 20
-69.12446822318599
 30
68.93289195470919
 70
    64
  0
VERTEX
  5
48B04
330
48AFE
100
AcDbEntity
  8
0
100
AcDbVertex
100
AcDbPolygonMeshVertex
 10
242.5731123083243
 20
-69.12446822318599
 30
68.93289195470919
 70
    64
  0
VERTEX
  5
48B05
330
48AFE
100
AcDbEntity
  8
0
100
AcDbVertex
100
AcDbPolygonMeshVertex
 10
258.6767123083241
 20
-69.12446822318599
 30
69.94889195470915
 70
    64
  0
VERTEX
  5
48B06
330
48AFE
100
AcDbEntity
  8
0
100
AcDbVertex
100
AcDbPolygonMeshVertex
 10
258.6767123083241
 20
-69.12446822318599
 30
68.93289195470919
 70
    64
  0
VERTEX
  5
48B07
330
48AFE
100
AcDbEntity
  8
0
100
AcDbVertex
100
AcDbPolygonMeshVertex
 10
242.5731123083243
 20
-69.12446822318599
 30
68.93289195470919
 70
    64
  0
VERTEX
  5
48B08
330
48AFE
100
AcDbEntity
  8
0
100
AcDbVertex
100
AcDbPolygonMeshVertex
 10
258.6767123083241
 20
-86.14246822318596
 30
69.94889195470915
 70
    64
  0
VERTEX
  5
48B09
330
48AFE
100
AcDbEntity
  8
0
100
AcDbVertex
100
AcDbPolygonMeshVertex
 10
258.6767123083241
 20
-86.14246822318596
 30
68.93289195470919
 70
    64
  0
VERTEX
  5
48B0A
330
48AFE
100
AcDbEntity
  8
0
100
AcDbVertex
100
AcDbPolygonMeshVertex
 10
242.5731123083243
 20
-86.14246822318596
 30
68.93289195470919
 70
    64
  0
VERTEX
  5
48B0B
330
48AFE
100
AcDbEntity
  8
0
100
AcDbVertex
100
AcDbPolygonMeshVertex
 10
258.6767123083241
 20
-86.14246822318596
 30
69.94889195470915
 70
    64
  0
VERTEX
  5
48B0C
330
48AFE
100
AcDbEntity
  8
0
100
AcDbVertex
100
AcDbPolygonMeshVertex
 10
258.6767123083241
 20
-86.14246822318596
 30
69.94889195470915
 70
    64
  0
VERTEX
  5
48B0D
330
48AFE
100
AcDbEntity
  8
0
100
AcDbVertex
100
AcDbPolygonMeshVertex
 10
242.5731123083243
 20
-86.14246822318596
 30
69.94889195470915
 70
    64
  0
VERTEX
  5
48B0E
330
48AFE
100
AcDbEntity
  8
0
100
AcDbVertex
100
AcDbPolygonMeshVertex
 10
258.6767123083241
 20
-69.12446822318599
 30
69.94889195470915
 70
    64
  0
VERTEX
  5
48B0F
330
48AFE
100
AcDbEntity
  8
0
100
AcDbVertex
100
AcDbPolygonMeshVertex
 10
258.6767123083241
 20
-69.12446822318599
 30
69.94889195470915
 70
    64
  0
VERTEX
  5
48B10
330
48AFE
100
AcDbEntity
  8
0
100
AcDbVertex
100
AcDbPolygonMeshVertex
 10
242.5731123083243
 20
-69.12446822318599
 30
69.94889195470915
 70
    64
  0
SEQEND
  5
48B11
330
48AFE
100
AcDbEntity
  8
0
  0
POLYLINE
  5
48B12
330
458D6
100
AcDbEntity
  8
0
100
AcDbPolygonMesh
 66
     1
 10
0.0
 20
0.0
 30
0.0
 70
    16
 71
     6
 72
     3
  0
VERTEX
  5
48B13
330
48B12
100
AcDbEntity
  8
0
100
AcDbVertex
100
AcDbPolygonMeshVertex
 10
194.6809036942104
 20
-87.97189894399833
 30
146.4028919547091
 70
    64
  0
VERTEX
  5
48B14
330
48B12
100
AcDbEntity
  8
0
100
AcDbVertex
100
AcDbPolygonMeshVertex
 10
194.6809036942104
 20
-87.97189894399833
 30
70.20289195470919
 70
    64
  0
VERTEX
  5
48B15
330
48B12
100
AcDbEntity
  8
0
100
AcDbVertex
100
AcDbPolygonMeshVertex
 10
194.6809036942104
 20
-87.97189894399833
 30
70.20289195470919
 70
    64
  0
VERTEX
  5
48B16
330
48B12
100
AcDbEntity
  8
0
100
AcDbVertex
100
AcDbPolygonMeshVertex
 10
192.1409036942104
 20
-87.97189894399833
 30
146.4028919547091
 70
    64
  0
VERTEX
  5
48B17
330
48B12
100
AcDbEntity
  8
0
100
AcDbVertex
100
AcDbPolygonMeshVertex
 10
192.1409036942104
 20
-87.97189894399833
 30
70.20289195470919
 70
    64
  0
VERTEX
  5
48B18
330
48B12
100
AcDbEntity
  8
0
100
AcDbVertex
100
AcDbPolygonMeshVertex
 10
192.1409036942104
 20
-87.97189894399833
 30
70.20289195470919
 70
    64
  0
VERTEX
  5
48B19
330
48B12
100
AcDbEntity
  8
0
100
AcDbVertex
100
AcDbPolygonMeshVertex
 10
192.1409036942104
 20
-93.05189894399836
 30
146.4028919547091
 70
    64
  0
VERTEX
  5
48B1A
330
48B12
100
AcDbEntity
  8
0
100
AcDbVertex
100
AcDbPolygonMeshVertex
 10
192.1409036942104
 20
-93.05189894399836
 30
70.20289195470919
 70
    64
  0
VERTEX
  5
48B1B
330
48B12
100
AcDbEntity
  8
0
100
AcDbVertex
100
AcDbPolygonMeshVertex
 10
192.1409036942104
 20
-87.97189894399833
 30
70.20289195470919
 70
    64
  0
VERTEX
  5
48B1C
330
48B12
100
AcDbEntity
  8
0
100
AcDbVertex
100
AcDbPolygonMeshVertex
 10
194.6809036942104
 20
-93.05189894399836
 30
146.4028919547091
 70
    64
  0
VERTEX
  5
48B1D
330
48B12
100
AcDbEntity
  8
0
100
AcDbVertex
100
AcDbPolygonMeshVertex
 10
194.6809036942104
 20
-93.05189894399836
 30
70.20289195470919
 70
    64
  0
VERTEX
  5
48B1E
330
48B12
100
AcDbEntity
  8
0
100
AcDbVertex
100
AcDbPolygonMeshVertex
 10
194.6809036942104
 20
-87.97189894399833
 30
70.20289195470919
 70
    64
  0
VERTEX
  5
48B1F
330
48B12
100
AcDbEntity
  8
0
100
AcDbVertex
100
AcDbPolygonMeshVertex
 10
194.6809036942104
 20
-93.05189894399836
 30
146.4028919547091
 70
    64
  0
VERTEX
  5
48B20
330
48B12
100
AcDbEntity
  8
0
100
AcDbVertex
100
AcDbPolygonMeshVertex
 10
194.6809036942104
 20
-93.05189894399836
 30
146.4028919547091
 70
    64
  0
VERTEX
  5
48B21
330
48B12
100
AcDbEntity
  8
0
100
AcDbVertex
100
AcDbPolygonMeshVertex
 10
194.6809036942104
 20
-87.97189894399833
 30
146.4028919547091
 70
    64
  0
VERTEX
  5
48B22
330
48B12
100
AcDbEntity
  8
0
100
AcDbVertex
100
AcDbPolygonMeshVertex
 10
192.1409036942104
 20
-93.05189894399836
 30
146.4028919547091
 70
    64
  0
VERTEX
  5
48B23
330
48B12
100
AcDbEntity
  8
0
100
AcDbVertex
100
AcDbPolygonMeshVertex
 10
192.1409036942104
 20
-93.05189894399836
 30
146.4028919547091
 70
    64
  0
VERTEX
  5
48B24
330
48B12
100
AcDbEntity
  8
0
100
AcDbVertex
100
AcDbPolygonMeshVertex
 10
192.1409036942104
 20
-87.97189894399833
 30
146.4028919547091
 70
    64
  0
SEQEND
  5
48B25
330
48B12
100
AcDbEntity
  8
0
  0
POLYLINE
  5
48B26
330
458D6
100
AcDbEntity
  8
0
100
AcDbPolygonMesh
 66
     1
 10
0.0
 20
0.0
 30
0.0
 70
    16
 71
     6
 72
     3
  0
VERTEX
  5
48B27
330
48B26
100
AcDbEntity
  8
0
100
AcDbVertex
100
AcDbPolygonMeshVertex
 10
199.5069036942103
 20
-87.97189894399833
 30
146.4028919547091
 70
    64
  0
VERTEX
  5
48B28
330
48B26
100
AcDbEntity
  8
0
100
AcDbVertex
100
AcDbPolygonMeshVertex
 10
199.5069036942103
 20
-87.97189894399833
 30
70.20289195470917
 70
    64
  0
VERTEX
  5
48B29
330
48B26
100
AcDbEntity
  8
0
100
AcDbVertex
100
AcDbPolygonMeshVertex
 10
199.5069036942103
 20
-87.97189894399833
 30
70.20289195470917
 70
    64
  0
VERTEX
  5
48B2A
330
48B26
100
AcDbEntity
  8
0
100
AcDbVertex
100
AcDbPolygonMeshVertex
 10
196.9669036942104
 20
-87.97189894399833
 30
146.4028919547091
 70
    64
  0
VERTEX
  5
48B2B
330
48B26
100
AcDbEntity
  8
0
100
AcDbVertex
100
AcDbPolygonMeshVertex
 10
196.9669036942104
 20
-87.97189894399833
 30
70.20289195470917
 70
    64
  0
VERTEX
  5
48B2C
330
48B26
100
AcDbEntity
  8
0
100
AcDbVertex
100
AcDbPolygonMeshVertex
 10
196.9669036942104
 20
-87.97189894399833
 30
70.20289195470917
 70
    64
  0
VERTEX
  5
48B2D
330
48B26
100
AcDbEntity
  8
0
100
AcDbVertex
100
AcDbPolygonMeshVertex
 10
196.9669036942104
 20
-93.05189894399836
 30
146.4028919547091
 70
    64
  0
VERTEX
  5
48B2E
330
48B26
100
AcDbEntity
  8
0
100
AcDbVertex
100
AcDbPolygonMeshVertex
 10
196.9669036942104
 20
-93.05189894399836
 30
70.20289195470917
 70
    64
  0
VERTEX
  5
48B2F
330
48B26
100
AcDbEntity
  8
0
100
AcDbVertex
100
AcDbPolygonMeshVertex
 10
196.9669036942104
 20
-87.97189894399833
 30
70.20289195470917
 70
    64
  0
VERTEX
  5
48B30
330
48B26
100
AcDbEntity
  8
0
100
AcDbVertex
100
AcDbPolygonMeshVertex
 10
199.5069036942103
 20
-93.05189894399836
 30
146.4028919547091
 70
    64
  0
VERTEX
  5
48B31
330
48B26
100
AcDbEntity
  8
0
100
AcDbVertex
100
AcDbPolygonMeshVertex
 10
199.5069036942103
 20
-93.05189894399836
 30
70.20289195470917
 70
    64
  0
VERTEX
  5
48B32
330
48B26
100
AcDbEntity
  8
0
100
AcDbVertex
100
AcDbPolygonMeshVertex
 10
199.5069036942103
 20
-87.97189894399833
 30
70.20289195470917
 70
    64
  0
VERTEX
  5
48B33
330
48B26
100
AcDbEntity
  8
0
100
AcDbVertex
100
AcDbPolygonMeshVertex
 10
199.5069036942103
 20
-93.05189894399836
 30
146.4028919547091
 70
    64
  0
VERTEX
  5
48B34
330
48B26
100
AcDbEntity
  8
0
100
AcDbVertex
100
AcDbPolygonMeshVertex
 10
199.5069036942103
 20
-93.05189894399836
 30
146.4028919547091
 70
    64
  0
VERTEX
  5
48B35
330
48B26
100
AcDbEntity
  8
0
100
AcDbVertex
100
AcDbPolygonMeshVertex
 10
199.5069036942103
 20
-87.97189894399833
 30
146.4028919547091
 70
    64
  0
VERTEX
  5
48B36
330
48B26
100
AcDbEntity
  8
0
100
AcDbVertex
100
AcDbPolygonMeshVertex
 10
196.9669036942104
 20
-93.05189894399836
 30
146.4028919547091
 70
    64
  0
VERTEX
  5
48B37
330
48B26
100
AcDbEntity
  8
0
100
AcDbVertex
100
AcDbPolygonMeshVertex
 10
196.9669036942104
 20
-93.05189894399836
 30
146.4028919547091
 70
    64
  0
VERTEX
  5
48B38
330
48B26
100
AcDbEntity
  8
0
100
AcDbVertex
100
AcDbPolygonMeshVertex
 10
196.9669036942104
 20
-87.97189894399833
 30
146.4028919547091
 70
    64
  0
SEQEND
  5
48B39
330
48B26
100
AcDbEntity
  8
0
  0
POLYLINE
  5
48B3A
330
458D6
100
AcDbEntity
  8
0
100
AcDbPolygonMesh
 66
     1
 10
0.0
 20
0.0
 30
0.0
 70
    16
 71
     6
 72
     3
  0
VERTEX
  5
48B3B
330
48B3A
100
AcDbEntity
  8
0
100
AcDbVertex
100
AcDbPolygonMeshVertex
 10
196.9669036942104
 20
-87.97189894399833
 30
146.4028919547091
 70
    64
  0
VERTEX
  5
48B3C
330
48B3A
100
AcDbEntity
  8
0
100
AcDbVertex
100
AcDbPolygonMeshVertex
 10
196.9669036942104
 20
-87.97189894399833
 30
70.20289195470917
 70
    64
  0
VERTEX
  5
48B3D
330
48B3A
100
AcDbEntity
  8
0
100
AcDbVertex
100
AcDbPolygonMeshVertex
 10
196.9669036942104
 20
-87.97189894399833
 30
70.20289195470917
 70
    64
  0
VERTEX
  5
48B3E
330
48B3A
100
AcDbEntity
  8
0
100
AcDbVertex
100
AcDbPolygonMeshVertex
 10
194.6809036942104
 20
-87.97189894399833
 30
146.4028919547091
 70
    64
  0
VERTEX
  5
48B3F
330
48B3A
100
AcDbEntity
  8
0
100
AcDbVertex
100
AcDbPolygonMeshVertex
 10
194.6809036942104
 20
-87.97189894399833
 30
70.20289195470917
 70
    64
  0
VERTEX
  5
48B40
330
48B3A
100
AcDbEntity
  8
0
100
AcDbVertex
100
AcDbPolygonMeshVertex
 10
194.6809036942104
 20
-87.97189894399833
 30
70.20289195470917
 70
    64
  0
VERTEX
  5
48B41
330
48B3A
100
AcDbEntity
  8
0
100
AcDbVertex
100
AcDbPolygonMeshVertex
 10
194.6809036942104
 20
-89.87689894399835
 30
146.4028919547091
 70
    64
  0
VERTEX
  5
48B42
330
48B3A
100
AcDbEntity
  8
0
100
AcDbVertex
100
AcDbPolygonMeshVertex
 10
194.6809036942104
 20
-89.87689894399835
 30
70.20289195470917
 70
    64
  0
VERTEX
  5
48B43
330
48B3A
100
AcDbEntity
  8
0
100
AcDbVertex
100
AcDbPolygonMeshVertex
 10
194.6809036942104
 20
-87.97189894399833
 30
70.20289195470917
 70
    64
  0
VERTEX
  5
48B44
330
48B3A
100
AcDbEntity
  8
0
100
AcDbVertex
100
AcDbPolygonMeshVertex
 10
196.9669036942104
 20
-89.87689894399835
 30
146.4028919547091
 70
    64
  0
VERTEX
  5
48B45
330
48B3A
100
AcDbEntity
  8
0
100
AcDbVertex
100
AcDbPolygonMeshVertex
 10
196.9669036942104
 20
-89.87689894399835
 30
70.20289195470917
 70
    64
  0
VERTEX
  5
48B46
330
48B3A
100
AcDbEntity
  8
0
100
AcDbVertex
100
AcDbPolygonMeshVertex
 10
196.9669036942104
 20
-87.97189894399833
 30
70.20289195470917
 70
    64
  0
VERTEX
  5
48B47
330
48B3A
100
AcDbEntity
  8
0
100
AcDbVertex
100
AcDbPolygonMeshVertex
 10
196.9669036942104
 20
-89.87689894399835
 30
146.4028919547091
 70
    64
  0
VERTEX
  5
48B48
330
48B3A
100
AcDbEntity
  8
0
100
AcDbVertex
100
AcDbPolygonMeshVertex
 10
196.9669036942104
 20
-89.87689894399835
 30
146.4028919547091
 70
    64
  0
VERTEX
  5
48B49
330
48B3A
100
AcDbEntity
  8
0
100
AcDbVertex
100
AcDbPolygonMeshVertex
 10
196.9669036942104
 20
-87.97189894399833
 30
146.4028919547091
 70
    64
  0
VERTEX
  5
48B4A
330
48B3A
100
AcDbEntity
  8
0
100
AcDbVertex
100
AcDbPolygonMeshVertex
 10
194.6809036942104
 20
-89.87689894399835
 30
146.4028919547091
 70
    64
  0
VERTEX
  5
48B4B
330
48B3A
100
AcDbEntity
  8
0
100
AcDbVertex
100
AcDbPolygonMeshVertex
 10
194.6809036942104
 20
-89.87689894399835
 30
146.4028919547091
 70
    64
  0
VERTEX
  5
48B4C
330
48B3A
100
AcDbEntity
  8
0
100
AcDbVertex
100
AcDbPolygonMeshVertex
 10
194.6809036942104
 20
-87.97189894399833
 30
146.4028919547091
 70
    64
  0
SEQEND
  5
48B4D
330
48B3A
100
AcDbEntity
  8
0
  0
POLYLINE
  5
48B4E
330
458D6
100
AcDbEntity
  8
0
100
AcDbPolygonMesh
 66
     1
 10
0.0
 20
0.0
 30
0.0
 70
    16
 71
     6
 72
     3
  0
VERTEX
  5
48B4F
330
48B4E
100
AcDbEntity
  8
0
100
AcDbVertex
100
AcDbPolygonMeshVertex
 10
239.7027498389728
 20
-87.97189894399862
 30
146.4028919547091
 70
    64
  0
VERTEX
  5
48B50
330
48B4E
100
AcDbEntity
  8
0
100
AcDbVertex
100
AcDbPolygonMeshVertex
 10
239.7027498389728
 20
-87.97189894399862
 30
70.2028919547092
 70
    64
  0
VERTEX
  5
48B51
330
48B4E
100
AcDbEntity
  8
0
100
AcDbVertex
100
AcDbPolygonMeshVertex
 10
239.7027498389728
 20
-87.97189894399862
 30
70.2028919547092
 70
    64
  0
VERTEX
  5
48B52
330
48B4E
100
AcDbEntity
  8
0
100
AcDbVertex
100
AcDbPolygonMeshVertex
 10
237.1627498389728
 20
-87.97189894399862
 30
146.4028919547091
 70
    64
  0
VERTEX
  5
48B53
330
48B4E
100
AcDbEntity
  8
0
100
AcDbVertex
100
AcDbPolygonMeshVertex
 10
237.1627498389728
 20
-87.97189894399862
 30
70.2028919547092
 70
    64
  0
VERTEX
  5
48B54
330
48B4E
100
AcDbEntity
  8
0
100
AcDbVertex
100
AcDbPolygonMeshVertex
 10
237.1627498389728
 20
-87.97189894399862
 30
70.2028919547092
 70
    64
  0
VERTEX
  5
48B55
330
48B4E
100
AcDbEntity
  8
0
100
AcDbVertex
100
AcDbPolygonMeshVertex
 10
237.1627498389728
 20
-93.05189894399864
 30
146.4028919547091
 70
    64
  0
VERTEX
  5
48B56
330
48B4E
100
AcDbEntity
  8
0
100
AcDbVertex
100
AcDbPolygonMeshVertex
 10
237.1627498389728
 20
-93.05189894399864
 30
70.2028919547092
 70
    64
  0
VERTEX
  5
48B57
330
48B4E
100
AcDbEntity
  8
0
100
AcDbVertex
100
AcDbPolygonMeshVertex
 10
237.1627498389728
 20
-87.97189894399862
 30
70.2028919547092
 70
    64
  0
VERTEX
  5
48B58
330
48B4E
100
AcDbEntity
  8
0
100
AcDbVertex
100
AcDbPolygonMeshVertex
 10
239.7027498389728
 20
-93.05189894399864
 30
146.4028919547091
 70
    64
  0
VERTEX
  5
48B59
330
48B4E
100
AcDbEntity
  8
0
100
AcDbVertex
100
AcDbPolygonMeshVertex
 10
239.7027498389728
 20
-93.05189894399864
 30
70.2028919547092
 70
    64
  0
VERTEX
  5
48B5A
330
48B4E
100
AcDbEntity
  8
0
100
AcDbVertex
100
AcDbPolygonMeshVertex
 10
239.7027498389728
 20
-87.97189894399862
 30
70.2028919547092
 70
    64
  0
VERTEX
  5
48B5B
330
48B4E
100
AcDbEntity
  8
0
100
AcDbVertex
100
AcDbPolygonMeshVertex
 10
239.7027498389728
 20
-93.05189894399864
 30
146.4028919547091
 70
    64
  0
VERTEX
  5
48B5C
330
48B4E
100
AcDbEntity
  8
0
100
AcDbVertex
100
AcDbPolygonMeshVertex
 10
239.7027498389728
 20
-93.05189894399864
 30
146.4028919547091
 70
    64
  0
VERTEX
  5
48B5D
330
48B4E
100
AcDbEntity
  8
0
100
AcDbVertex
100
AcDbPolygonMeshVertex
 10
239.7027498389728
 20
-87.97189894399862
 30
146.4028919547091
 70
    64
  0
VERTEX
  5
48B5E
330
48B4E
100
AcDbEntity
  8
0
100
AcDbVertex
100
AcDbPolygonMeshVertex
 10
237.1627498389728
 20
-93.05189894399864
 30
146.4028919547091
 70
    64
  0
VERTEX
  5
48B5F
330
48B4E
100
AcDbEntity
  8
0
100
AcDbVertex
100
AcDbPolygonMeshVertex
 10
237.1627498389728
 20
-93.05189894399864
 30
146.4028919547091
 70
    64
  0
VERTEX
  5
48B60
330
48B4E
100
AcDbEntity
  8
0
100
AcDbVertex
100
AcDbPolygonMeshVertex
 10
237.1627498389728
 20
-87.97189894399862
 30
146.4028919547091
 70
    64
  0
SEQEND
  5
48B61
330
48B4E
100
AcDbEntity
  8
0
  0
POLYLINE
  5
48B62
330
458D6
100
AcDbEntity
  8
0
100
AcDbPolygonMesh
 66
     1
 10
0.0
 20
0.0
 30
0.0
 70
    16
 71
     6
 72
     3
  0
VERTEX
  5
48B63
330
48B62
100
AcDbEntity
  8
0
100
AcDbVertex
100
AcDbPolygonMeshVertex
 10
244.5287498389727
 20
-87.97189894399862
 30
146.4028919547091
 70
    64
  0
VERTEX
  5
48B64
330
48B62
100
AcDbEntity
  8
0
100
AcDbVertex
100
AcDbPolygonMeshVertex
 10
244.5287498389727
 20
-87.97189894399862
 30
70.20289195470919
 70
    64
  0
VERTEX
  5
48B65
330
48B62
100
AcDbEntity
  8
0
100
AcDbVertex
100
AcDbPolygonMeshVertex
 10
244.5287498389727
 20
-87.97189894399862
 30
70.20289195470919
 70
    64
  0
VERTEX
  5
48B66
330
48B62
100
AcDbEntity
  8
0
100
AcDbVertex
100
AcDbPolygonMeshVertex
 10
241.9887498389728
 20
-87.97189894399862
 30
146.4028919547091
 70
    64
  0
VERTEX
  5
48B67
330
48B62
100
AcDbEntity
  8
0
100
AcDbVertex
100
AcDbPolygonMeshVertex
 10
241.9887498389728
 20
-87.97189894399862
 30
70.20289195470919
 70
    64
  0
VERTEX
  5
48B68
330
48B62
100
AcDbEntity
  8
0
100
AcDbVertex
100
AcDbPolygonMeshVertex
 10
241.9887498389728
 20
-87.97189894399862
 30
70.20289195470919
 70
    64
  0
VERTEX
  5
48B69
330
48B62
100
AcDbEntity
  8
0
100
AcDbVertex
100
AcDbPolygonMeshVertex
 10
241.9887498389728
 20
-93.05189894399864
 30
146.4028919547091
 70
    64
  0
VERTEX
  5
48B6A
330
48B62
100
AcDbEntity
  8
0
100
AcDbVertex
100
AcDbPolygonMeshVertex
 10
241.9887498389728
 20
-93.05189894399864
 30
70.20289195470919
 70
    64
  0
VERTEX
  5
48B6B
330
48B62
100
AcDbEntity
  8
0
100
AcDbVertex
100
AcDbPolygonMeshVertex
 10
241.9887498389728
 20
-87.97189894399862
 30
70.20289195470919
 70
    64
  0
VERTEX
  5
48B6C
330
48B62
100
AcDbEntity
  8
0
100
AcDbVertex
100
AcDbPolygonMeshVertex
 10
244.5287498389727
 20
-93.05189894399864
 30
146.4028919547091
 70
    64
  0
VERTEX
  5
48B6D
330
48B62
100
AcDbEntity
  8
0
100
AcDbVertex
100
AcDbPolygonMeshVertex
 10
244.5287498389727
 20
-93.05189894399864
 30
70.20289195470919
 70
    64
  0
VERTEX
  5
48B6E
330
48B62
100
AcDbEntity
  8
0
100
AcDbVertex
100
AcDbPolygonMeshVertex
 10
244.5287498389727
 20
-87.97189894399862
 30
70.20289195470919
 70
    64
  0
VERTEX
  5
48B6F
330
48B62
100
AcDbEntity
  8
0
100
AcDbVertex
100
AcDbPolygonMeshVertex
 10
244.5287498389727
 20
-93.05189894399864
 30
146.4028919547091
 70
    64
  0
VERTEX
  5
48B70
330
48B62
100
AcDbEntity
  8
0
100
AcDbVertex
100
AcDbPolygonMeshVertex
 10
244.5287498389727
 20
-93.05189894399864
 30
146.4028919547091
 70
    64
  0
VERTEX
  5
48B71
330
48B62
100
AcDbEntity
  8
0
100
AcDbVertex
100
AcDbPolygonMeshVertex
 10
244.5287498389727
 20
-87.97189894399862
 30
146.4028919547091
 70
    64
  0
VERTEX
  5
48B72
330
48B62
100
AcDbEntity
  8
0
100
AcDbVertex
100
AcDbPolygonMeshVertex
 10
241.9887498389728
 20
-93.05189894399864
 30
146.4028919547091
 70
    64
  0
VERTEX
  5
48B73
330
48B62
100
AcDbEntity
  8
0
100
AcDbVertex
100
AcDbPolygonMeshVertex
 10
241.9887498389728
 20
-93.05189894399864
 30
146.4028919547091
 70
    64
  0
VERTEX
  5
48B74
330
48B62
100
AcDbEntity
  8
0
100
AcDbVertex
100
AcDbPolygonMeshVertex
 10
241.9887498389728
 20
-87.97189894399862
 30
146.4028919547091
 70
    64
  0
SEQEND
  5
48B75
330
48B62
100
AcDbEntity
  8
0
  0
POLYLINE
  5
48B76
330
458D6
100
AcDbEntity
  8
0
100
AcDbPolygonMesh
 66
     1
 10
0.0
 20
0.0
 30
0.0
 70
    16
 71
     6
 72
     3
  0
VERTEX
  5
48B77
330
48B76
100
AcDbEntity
  8
0
100
AcDbVertex
100
AcDbPolygonMeshVertex
 10
241.9887498389728
 20
-87.97189894399862
 30
146.4028919547091
 70
    64
  0
VERTEX
  5
48B78
330
48B76
100
AcDbEntity
  8
0
100
AcDbVertex
100
AcDbPolygonMeshVertex
 10
241.9887498389728
 20
-87.97189894399862
 30
70.20289195470919
 70
    64
  0
VERTEX
  5
48B79
330
48B76
100
AcDbEntity
  8
0
100
AcDbVertex
100
AcDbPolygonMeshVertex
 10
241.9887498389728
 20
-87.97189894399862
 30
70.20289195470919
 70
    64
  0
VERTEX
  5
48B7A
330
48B76
100
AcDbEntity
  8
0
100
AcDbVertex
100
AcDbPolygonMeshVertex
 10
239.7027498389728
 20
-87.97189894399862
 30
146.4028919547091
 70
    64
  0
VERTEX
  5
48B7B
330
48B76
100
AcDbEntity
  8
0
100
AcDbVertex
100
AcDbPolygonMeshVertex
 10
239.7027498389728
 20
-87.97189894399862
 30
70.20289195470919
 70
    64
  0
VERTEX
  5
48B7C
330
48B76
100
AcDbEntity
  8
0
100
AcDbVertex
100
AcDbPolygonMeshVertex
 10
239.7027498389728
 20
-87.97189894399862
 30
70.20289195470919
 70
    64
  0
VERTEX
  5
48B7D
330
48B76
100
AcDbEntity
  8
0
100
AcDbVertex
100
AcDbPolygonMeshVertex
 10
239.7027498389728
 20
-89.87689894399862
 30
146.4028919547091
 70
    64
  0
VERTEX
  5
48B7E
330
48B76
100
AcDbEntity
  8
0
100
AcDbVertex
100
AcDbPolygonMeshVertex
 10
239.7027498389728
 20
-89.87689894399862
 30
70.20289195470919
 70
    64
  0
VERTEX
  5
48B7F
330
48B76
100
AcDbEntity
  8
0
100
AcDbVertex
100
AcDbPolygonMeshVertex
 10
239.7027498389728
 20
-87.97189894399862
 30
70.20289195470919
 70
    64
  0
VERTEX
  5
48B80
330
48B76
100
AcDbEntity
  8
0
100
AcDbVertex
100
AcDbPolygonMeshVertex
 10
241.9887498389728
 20
-89.87689894399862
 30
146.4028919547091
 70
    64
  0
VERTEX
  5
48B81
330
48B76
100
AcDbEntity
  8
0
100
AcDbVertex
100
AcDbPolygonMeshVertex
 10
241.9887498389728
 20
-89.87689894399862
 30
70.20289195470919
 70
    64
  0
VERTEX
  5
48B82
330
48B76
100
AcDbEntity
  8
0
100
AcDbVertex
100
AcDbPolygonMeshVertex
 10
241.9887498389728
 20
-87.97189894399862
 30
70.20289195470919
 70
    64
  0
VERTEX
  5
48B83
330
48B76
100
AcDbEntity
  8
0
100
AcDbVertex
100
AcDbPolygonMeshVertex
 10
241.9887498389728
 20
-89.87689894399862
 30
146.4028919547091
 70
    64
  0
VERTEX
  5
48B84
330
48B76
100
AcDbEntity
  8
0
100
AcDbVertex
100
AcDbPolygonMeshVertex
 10
241.9887498389728
 20
-89.87689894399862
 30
146.4028919547091
 70
    64
  0
VERTEX
  5
48B85
330
48B76
100
AcDbEntity
  8
0
100
AcDbVertex
100
AcDbPolygonMeshVertex
 10
241.9887498389728
 20
-87.97189894399862
 30
146.4028919547091
 70
    64
  0
VERTEX
  5
48B86
330
48B76
100
AcDbEntity
  8
0
100
AcDbVertex
100
AcDbPolygonMeshVertex
 10
239.7027498389728
 20
-89.87689894399862
 30
146.4028919547091
 70
    64
  0
VERTEX
  5
48B87
330
48B76
100
AcDbEntity
  8
0
100
AcDbVertex
100
AcDbPolygonMeshVertex
 10
239.7027498389728
 20
-89.87689894399862
 30
146.4028919547091
 70
    64
  0
VERTEX
  5
48B88
330
48B76
100
AcDbEntity
  8
0
100
AcDbVertex
100
AcDbPolygonMeshVertex
 10
239.7027498389728
 20
-87.97189894399862
 30
146.4028919547091
 70
    64
  0
SEQEND
  5
48B89
330
48B76
100
AcDbEntity
  8
0
  0
POLYLINE
  5
48B8A
330
458D6
100
AcDbEntity
  8
0
100
AcDbPolygonMesh
 66
     1
 10
0.0
 20
0.0
 30
0.0
 70
    16
 71
     6
 72
     3
  0
VERTEX
  5
48B8B
330
48B8A
100
AcDbEntity
  8
0
100
AcDbVertex
100
AcDbPolygonMeshVertex
 10
274.6277498389728
 20
-87.97189894399862
 30
146.4028919547091
 70
    64
  0
VERTEX
  5
48B8C
330
48B8A
100
AcDbEntity
  8
0
100
AcDbVertex
100
AcDbPolygonMeshVertex
 10
274.6277498389728
 20
-87.97189894399862
 30
70.2028919547092
 70
    64
  0
VERTEX
  5
48B8D
330
48B8A
100
AcDbEntity
  8
0
100
AcDbVertex
100
AcDbPolygonMeshVertex
 10
274.6277498389728
 20
-87.97189894399862
 30
70.2028919547092
 70
    64
  0
VERTEX
  5
48B8E
330
48B8A
100
AcDbEntity
  8
0
100
AcDbVertex
100
AcDbPolygonMeshVertex
 10
272.0877498389728
 20
-87.97189894399862
 30
146.4028919547091
 70
    64
  0
VERTEX
  5
48B8F
330
48B8A
100
AcDbEntity
  8
0
100
AcDbVertex
100
AcDbPolygonMeshVertex
 10
272.0877498389728
 20
-87.97189894399862
 30
70.2028919547092
 70
    64
  0
VERTEX
  5
48B90
330
48B8A
100
AcDbEntity
  8
0
100
AcDbVertex
100
AcDbPolygonMeshVertex
 10
272.0877498389728
 20
-87.97189894399862
 30
70.2028919547092
 70
    64
  0
VERTEX
  5
48B91
330
48B8A
100
AcDbEntity
  8
0
100
AcDbVertex
100
AcDbPolygonMeshVertex
 10
272.0877498389728
 20
-93.05189894399864
 30
146.4028919547091
 70
    64
  0
VERTEX
  5
48B92
330
48B8A
100
AcDbEntity
  8
0
100
AcDbVertex
100
AcDbPolygonMeshVertex
 10
272.0877498389728
 20
-93.05189894399864
 30
70.2028919547092
 70
    64
  0
VERTEX
  5
48B93
330
48B8A
100
AcDbEntity
  8
0
100
AcDbVertex
100
AcDbPolygonMeshVertex
 10
272.0877498389728
 20
-87.97189894399862
 30
70.2028919547092
 70
    64
  0
VERTEX
  5
48B94
330
48B8A
100
AcDbEntity
  8
0
100
AcDbVertex
100
AcDbPolygonMeshVertex
 10
274.6277498389728
 20
-93.05189894399864
 30
146.4028919547091
 70
    64
  0
VERTEX
  5
48B95
330
48B8A
100
AcDbEntity
  8
0
100
AcDbVertex
100
AcDbPolygonMeshVertex
 10
274.6277498389728
 20
-93.05189894399864
 30
70.2028919547092
 70
    64
  0
VERTEX
  5
48B96
330
48B8A
100
AcDbEntity
  8
0
100
AcDbVertex
100
AcDbPolygonMeshVertex
 10
274.6277498389728
 20
-87.97189894399862
 30
70.2028919547092
 70
    64
  0
VERTEX
  5
48B97
330
48B8A
100
AcDbEntity
  8
0
100
AcDbVertex
100
AcDbPolygonMeshVertex
 10
274.6277498389728
 20
-93.05189894399864
 30
146.4028919547091
 70
    64
  0
VERTEX
  5
48B98
330
48B8A
100
AcDbEntity
  8
0
100
AcDbVertex
100
AcDbPolygonMeshVertex
 10
274.6277498389728
 20
-93.05189894399864
 30
146.4028919547091
 70
    64
  0
VERTEX
  5
48B99
330
48B8A
100
AcDbEntity
  8
0
100
AcDbVertex
100
AcDbPolygonMeshVertex
 10
274.6277498389728
 20
-87.97189894399862
 30
146.4028919547091
 70
    64
  0
VERTEX
  5
48B9A
330
48B8A
100
AcDbEntity
  8
0
100
AcDbVertex
100
AcDbPolygonMeshVertex
 10
272.0877498389728
 20
-93.05189894399864
 30
146.4028919547091
 70
    64
  0
VERTEX
  5
48B9B
330
48B8A
100
AcDbEntity
  8
0
100
AcDbVertex
100
AcDbPolygonMeshVertex
 10
272.0877498389728
 20
-93.05189894399864
 30
146.4028919547091
 70
    64
  0
VERTEX
  5
48B9C
330
48B8A
100
AcDbEntity
  8
0
100
AcDbVertex
100
AcDbPolygonMeshVertex
 10
272.0877498389728
 20
-87.97189894399862
 30
146.4028919547091
 70
    64
  0
SEQEND
  5
48B9D
330
48B8A
100
AcDbEntity
  8
0
  0
POLYLINE
  5
48B9E
330
458D6
100
AcDbEntity
  8
0
100
AcDbPolygonMesh
 66
     1
 10
0.0
 20
0.0
 30
0.0
 70
    16
 71
     6
 72
     3
  0
VERTEX
  5
48B9F
330
48B9E
100
AcDbEntity
  8
0
100
AcDbVertex
100
AcDbPolygonMeshVertex
 10
279.4537498389728
 20
-87.97189894399862
 30
146.4028919547091
 70
    64
  0
VERTEX
  5
48BA0
330
48B9E
100
AcDbEntity
  8
0
100
AcDbVertex
100
AcDbPolygonMeshVertex
 10
279.4537498389728
 20
-87.97189894399862
 30
70.20289195470919
 70
    64
  0
VERTEX
  5
48BA1
330
48B9E
100
AcDbEntity
  8
0
100
AcDbVertex
100
AcDbPolygonMeshVertex
 10
279.4537498389728
 20
-87.97189894399862
 30
70.20289195470919
 70
    64
  0
VERTEX
  5
48BA2
330
48B9E
100
AcDbEntity
  8
0
100
AcDbVertex
100
AcDbPolygonMeshVertex
 10
276.9137498389728
 20
-87.97189894399862
 30
146.4028919547091
 70
    64
  0
VERTEX
  5
48BA3
330
48B9E
100
AcDbEntity
  8
0
100
AcDbVertex
100
AcDbPolygonMeshVertex
 10
276.9137498389728
 20
-87.97189894399862
 30
70.20289195470919
 70
    64
  0
VERTEX
  5
48BA4
330
48B9E
100
AcDbEntity
  8
0
100
AcDbVertex
100
AcDbPolygonMeshVertex
 10
276.9137498389728
 20
-87.97189894399862
 30
70.20289195470919
 70
    64
  0
VERTEX
  5
48BA5
330
48B9E
100
AcDbEntity
  8
0
100
AcDbVertex
100
AcDbPolygonMeshVertex
 10
276.9137498389728
 20
-93.05189894399864
 30
146.4028919547091
 70
    64
  0
VERTEX
  5
48BA6
330
48B9E
100
AcDbEntity
  8
0
100
AcDbVertex
100
AcDbPolygonMeshVertex
 10
276.9137498389728
 20
-93.05189894399864
 30
70.20289195470919
 70
    64
  0
VERTEX
  5
48BA7
330
48B9E
100
AcDbEntity
  8
0
100
AcDbVertex
100
AcDbPolygonMeshVertex
 10
276.9137498389728
 20
-87.97189894399862
 30
70.20289195470919
 70
    64
  0
VERTEX
  5
48BA8
330
48B9E
100
AcDbEntity
  8
0
100
AcDbVertex
100
AcDbPolygonMeshVertex
 10
279.4537498389728
 20
-93.05189894399864
 30
146.4028919547091
 70
    64
  0
VERTEX
  5
48BA9
330
48B9E
100
AcDbEntity
  8
0
100
AcDbVertex
100
AcDbPolygonMeshVertex
 10
279.4537498389728
 20
-93.05189894399864
 30
70.20289195470919
 70
    64
  0
VERTEX
  5
48BAA
330
48B9E
100
AcDbEntity
  8
0
100
AcDbVertex
100
AcDbPolygonMeshVertex
 10
279.4537498389728
 20
-87.97189894399862
 30
70.20289195470919
 70
    64
  0
VERTEX
  5
48BAB
330
48B9E
100
AcDbEntity
  8
0
100
AcDbVertex
100
AcDbPolygonMeshVertex
 10
279.4537498389728
 20
-93.05189894399864
 30
146.4028919547091
 70
    64
  0
VERTEX
  5
48BAC
330
48B9E
100
AcDbEntity
  8
0
100
AcDbVertex
100
AcDbPolygonMeshVertex
 10
279.4537498389728
 20
-93.05189894399864
 30
146.4028919547091
 70
    64
  0
VERTEX
  5
48BAD
330
48B9E
100
AcDbEntity
  8
0
100
AcDbVertex
100
AcDbPolygonMeshVertex
 10
279.4537498389728
 20
-87.97189894399862
 30
146.4028919547091
 70
    64
  0
VERTEX
  5
48BAE
330
48B9E
100
AcDbEntity
  8
0
100
AcDbVertex
100
AcDbPolygonMeshVertex
 10
276.9137498389728
 20
-93.05189894399864
 30
146.4028919547091
 70
    64
  0
VERTEX
  5
48BAF
330
48B9E
100
AcDbEntity
  8
0
100
AcDbVertex
100
AcDbPolygonMeshVertex
 10
276.9137498389728
 20
-93.05189894399864
 30
146.4028919547091
 70
    64
  0
VERTEX
  5
48BB0
330
48B9E
100
AcDbEntity
  8
0
100
AcDbVertex
100
AcDbPolygonMeshVertex
 10
276.9137498389728
 20
-87.97189894399862
 30
146.4028919547091
 70
    64
  0
SEQEND
  5
48BB1
330
48B9E
100
AcDbEntity
  8
0
  0
POLYLINE
  5
48BB2
330
458D6
100
AcDbEntity
  8
0
100
AcDbPolygonMesh
 66
     1
 10
0.0
 20
0.0
 30
0.0
 70
    16
 71
     6
 72
     3
  0
VERTEX
  5
48BB3
330
48BB2
100
AcDbEntity
  8
0
100
AcDbVertex
100
AcDbPolygonMeshVertex
 10
276.9137498389728
 20
-87.97189894399862
 30
146.4028919547091
 70
    64
  0
VERTEX
  5
48BB4
330
48BB2
100
AcDbEntity
  8
0
100
AcDbVertex
100
AcDbPolygonMeshVertex
 10
276.9137498389728
 20
-87.97189894399862
 30
70.20289195470919
 70
    64
  0
VERTEX
  5
48BB5
330
48BB2
100
AcDbEntity
  8
0
100
AcDbVertex
100
AcDbPolygonMeshVertex
 10
276.9137498389728
 20
-87.97189894399862
 30
70.20289195470919
 70
    64
  0
VERTEX
  5
48BB6
330
48BB2
100
AcDbEntity
  8
0
100
AcDbVertex
100
AcDbPolygonMeshVertex
 10
274.6277498389728
 20
-87.97189894399862
 30
146.4028919547091
 70
    64
  0
VERTEX
  5
48BB7
330
48BB2
100
AcDbEntity
  8
0
100
AcDbVertex
100
AcDbPolygonMeshVertex
 10
274.6277498389728
 20
-87.97189894399862
 30
70.20289195470919
 70
    64
  0
VERTEX
  5
48BB8
330
48BB2
100
AcDbEntity
  8
0
100
AcDbVertex
100
AcDbPolygonMeshVertex
 10
274.6277498389728
 20
-87.97189894399862
 30
70.20289195470919
 70
    64
  0
VERTEX
  5
48BB9
330
48BB2
100
AcDbEntity
  8
0
100
AcDbVertex
100
AcDbPolygonMeshVertex
 10
274.6277498389728
 20
-89.87689894399862
 30
146.4028919547091
 70
    64
  0
VERTEX
  5
48BBA
330
48BB2
100
AcDbEntity
  8
0
100
AcDbVertex
100
AcDbPolygonMeshVertex
 10
274.6277498389728
 20
-89.87689894399862
 30
70.20289195470919
 70
    64
  0
VERTEX
  5
48BBB
330
48BB2
100
AcDbEntity
  8
0
100
AcDbVertex
100
AcDbPolygonMeshVertex
 10
274.6277498389728
 20
-87.97189894399862
 30
70.20289195470919
 70
    64
  0
VERTEX
  5
48BBC
330
48BB2
100
AcDbEntity
  8
0
100
AcDbVertex
100
AcDbPolygonMeshVertex
 10
276.9137498389728
 20
-89.87689894399862
 30
146.4028919547091
 70
    64
  0
VERTEX
  5
48BBD
330
48BB2
100
AcDbEntity
  8
0
100
AcDbVertex
100
AcDbPolygonMeshVertex
 10
276.9137498389728
 20
-89.87689894399862
 30
70.20289195470919
 70
    64
  0
VERTEX
  5
48BBE
330
48BB2
100
AcDbEntity
  8
0
100
AcDbVertex
100
AcDbPolygonMeshVertex
 10
276.9137498389728
 20
-87.97189894399862
 30
70.20289195470919
 70
    64
  0
VERTEX
  5
48BBF
330
48BB2
100
AcDbEntity
  8
0
100
AcDbVertex
100
AcDbPolygonMeshVertex
 10
276.9137498389728
 20
-89.87689894399862
 30
146.4028919547091
 70
    64
  0
VERTEX
  5
48BC0
330
48BB2
100
AcDbEntity
  8
0
100
AcDbVertex
100
AcDbPolygonMeshVertex
 10
276.9137498389728
 20
-89.87689894399862
 30
146.4028919547091
 70
    64
  0
VERTEX
  5
48BC1
330
48BB2
100
AcDbEntity
  8
0
100
AcDbVertex
100
AcDbPolygonMeshVertex
 10
276.9137498389728
 20
-87.97189894399862
 30
146.4028919547091
 70
    64
  0
VERTEX
  5
48BC2
330
48BB2
100
AcDbEntity
  8
0
100
AcDbVertex
100
AcDbPolygonMeshVertex
 10
274.6277498389728
 20
-89.87689894399862
 30
146.4028919547091
 70
    64
  0
VERTEX
  5
48BC3
330
48BB2
100
AcDbEntity
  8
0
100
AcDbVertex
100
AcDbPolygonMeshVertex
 10
274.6277498389728
 20
-89.87689894399862
 30
146.4028919547091
 70
    64
  0
VERTEX
  5
48BC4
330
48BB2
100
AcDbEntity
  8
0
100
AcDbVertex
100
AcDbPolygonMeshVertex
 10
274.6277498389728
 20
-87.97189894399862
 30
146.4028919547091
 70
    64
  0
SEQEND
  5
48BC5
330
48BB2
100
AcDbEntity
  8
0
  0
POLYLINE
  5
48BC6
330
458D6
100
AcDbEntity
  8
0
100
AcDbPolygonMesh
 66
     1
 10
0.0
 20
0.0
 30
0.0
 70
    16
 71
     6
 72
     3
  0
VERTEX
  5
48BC7
330
48BC6
100
AcDbEntity
  8
0
100
AcDbVertex
100
AcDbPolygonMeshVertex
 10
210.4203617118931
 20
-225.0804682231859
 30
166.7220887174904
 70
    64
  0
VERTEX
  5
48BC8
330
48BC6
100
AcDbEntity
  8
0
100
AcDbVertex
100
AcDbPolygonMeshVertex
 10
210.4203617118931
 20
-225.0804682231859
 30
70.20289195470863
 70
    64
  0
VERTEX
  5
48BC9
330
48BC6
100
AcDbEntity
  8
0
100
AcDbVertex
100
AcDbPolygonMeshVertex
 10
210.4203617118931
 20
-225.0804682231859
 30
70.20289195470863
 70
    64
  0
VERTEX
  5
48BCA
330
48BC6
100
AcDbEntity
  8
0
100
AcDbVertex
100
AcDbPolygonMeshVertex
 10
200.2603617118931
 20
-225.0804682231859
 30
166.7220887174904
 70
    64
  0
VERTEX
  5
48BCB
330
48BC6
100
AcDbEntity
  8
0
100
AcDbVertex
100
AcDbPolygonMeshVertex
 10
200.2603617118931
 20
-225.0804682231859
 30
70.20289195470863
 70
    64
  0
VERTEX
  5
48BCC
330
48BC6
100
AcDbEntity
  8
0
100
AcDbVertex
100
AcDbPolygonMeshVertex
 10
200.2603617118931
 20
-225.0804682231859
 30
70.20289195470863
 70
    64
  0
VERTEX
  5
48BCD
330
48BC6
100
AcDbEntity
  8
0
100
AcDbVertex
100
AcDbPolygonMeshVertex
 10
200.2603617118931
 20
-87.15846822318594
 30
166.7220887174904
 70
    64
  0
VERTEX
  5
48BCE
330
48BC6
100
AcDbEntity
  8
0
100
AcDbVertex
100
AcDbPolygonMeshVertex
 10
200.2603617118931
 20
-87.15846822318594
 30
70.20289195470863
 70
    64
  0
VERTEX
  5
48BCF
330
48BC6
100
AcDbEntity
  8
0
100
AcDbVertex
100
AcDbPolygonMeshVertex
 10
200.2603617118931
 20
-225.0804682231859
 30
70.20289195470863
 70
    64
  0
VERTEX
  5
48BD0
330
48BC6
100
AcDbEntity
  8
0
100
AcDbVertex
100
AcDbPolygonMeshVertex
 10
210.4203617118931
 20
-87.15846822318594
 30
166.7220887174904
 70
    64
  0
VERTEX
  5
48BD1
330
48BC6
100
AcDbEntity
  8
0
100
AcDbVertex
100
AcDbPolygonMeshVertex
 10
210.4203617118931
 20
-87.15846822318594
 30
70.20289195470863
 70
    64
  0
VERTEX
  5
48BD2
330
48BC6
100
AcDbEntity
  8
0
100
AcDbVertex
100
AcDbPolygonMeshVertex
 10
210.4203617118931
 20
-225.0804682231859
 30
70.20289195470863
 70
    64
  0
VERTEX
  5
48BD3
330
48BC6
100
AcDbEntity
  8
0
100
AcDbVertex
100
AcDbPolygonMeshVertex
 10
210.4203617118931
 20
-87.15846822318594
 30
166.7220887174904
 70
    64
  0
VERTEX
  5
48BD4
330
48BC6
100
AcDbEntity
  8
0
100
AcDbVertex
100
AcDbPolygonMeshVertex
 10
210.4203617118931
 20
-87.15846822318594
 30
166.7220887174904
 70
    64
  0
VERTEX
  5
48BD5
330
48BC6
100
AcDbEntity
  8
0
100
AcDbVertex
100
AcDbPolygonMeshVertex
 10
210.4203617118931
 20
-225.0804682231859
 30
166.7220887174904
 70
    64
  0
VERTEX
  5
48BD6
330
48BC6
100
AcDbEntity
  8
0
100
AcDbVertex
100
AcDbPolygonMeshVertex
 10
200.2603617118931
 20
-87.15846822318594
 30
166.7220887174904
 70
    64
  0
VERTEX
  5
48BD7
330
48BC6
100
AcDbEntity
  8
0
100
AcDbVertex
100
AcDbPolygonMeshVertex
 10
200.2603617118931
 20
-87.15846822318594
 30
166.7220887174904
 70
    64
  0
VERTEX
  5
48BD8
330
48BC6
100
AcDbEntity
  8
0
100
AcDbVertex
100
AcDbPolygonMeshVertex
 10
200.2603617118931
 20
-225.0804682231859
 30
166.7220887174904
 70
    64
  0
SEQEND
  5
48BD9
330
48BC6
100
AcDbEntity
  8
0
  0
POLYLINE
  5
48BDA
330
458D6
100
AcDbEntity
  8
0
100
AcDbPolygonMesh
 66
     1
 10
0.0
 20
0.0
 30
0.0
 70
    16
 71
     6
 72
     3
  0
VERTEX
  5
48BDB
330
48BDA
100
AcDbEntity
  8
0
100
AcDbVertex
100
AcDbPolygonMeshVertex
 10
196.9669036942104
 20
-224.2670375023735
 30
146.4028919547091
 70
    64
  0
VERTEX
  5
48BDC
330
48BDA
100
AcDbEntity
  8
0
100
AcDbVertex
100
AcDbPolygonMeshVertex
 10
196.9669036942104
 20
-224.2670375023735
 30
70.20289195470917
 70
    64
  0
VERTEX
  5
48BDD
330
48BDA
100
AcDbEntity
  8
0
100
AcDbVertex
100
AcDbPolygonMeshVertex
 10
196.9669036942104
 20
-224.2670375023735
 30
70.20289195470917
 70
    64
  0
VERTEX
  5
48BDE
330
48BDA
100
AcDbEntity
  8
0
100
AcDbVertex
100
AcDbPolygonMeshVertex
 10
194.6809036942104
 20
-224.2670375023735
 30
146.4028919547091
 70
    64
  0
VERTEX
  5
48BDF
330
48BDA
100
AcDbEntity
  8
0
100
AcDbVertex
100
AcDbPolygonMeshVertex
 10
194.6809036942104
 20
-224.2670375023735
 30
70.20289195470917
 70
    64
  0
VERTEX
  5
48BE0
330
48BDA
100
AcDbEntity
  8
0
100
AcDbVertex
100
AcDbPolygonMeshVertex
 10
194.6809036942104
 20
-224.2670375023735
 30
70.20289195470917
 70
    64
  0
VERTEX
  5
48BE1
330
48BDA
100
AcDbEntity
  8
0
100
AcDbVertex
100
AcDbPolygonMeshVertex
 10
194.6809036942104
 20
-222.3620375023735
 30
146.4028919547091
 70
    64
  0
VERTEX
  5
48BE2
330
48BDA
100
AcDbEntity
  8
0
100
AcDbVertex
100
AcDbPolygonMeshVertex
 10
194.6809036942104
 20
-222.3620375023735
 30
70.20289195470917
 70
    64
  0
VERTEX
  5
48BE3
330
48BDA
100
AcDbEntity
  8
0
100
AcDbVertex
100
AcDbPolygonMeshVertex
 10
194.6809036942104
 20
-224.2670375023735
 30
70.20289195470917
 70
    64
  0
VERTEX
  5
48BE4
330
48BDA
100
AcDbEntity
  8
0
100
AcDbVertex
100
AcDbPolygonMeshVertex
 10
196.9669036942104
 20
-222.3620375023735
 30
146.4028919547091
 70
    64
  0
VERTEX
  5
48BE5
330
48BDA
100
AcDbEntity
  8
0
100
AcDbVertex
100
AcDbPolygonMeshVertex
 10
196.9669036942104
 20
-222.3620375023735
 30
70.20289195470917
 70
    64
  0
VERTEX
  5
48BE6
330
48BDA
100
AcDbEntity
  8
0
100
AcDbVertex
100
AcDbPolygonMeshVertex
 10
196.9669036942104
 20
-224.2670375023735
 30
70.20289195470917
 70
    64
  0
VERTEX
  5
48BE7
330
48BDA
100
AcDbEntity
  8
0
100
AcDbVertex
100
AcDbPolygonMeshVertex
 10
196.9669036942104
 20
-222.3620375023735
 30
146.4028919547091
 70
    64
  0
VERTEX
  5
48BE8
330
48BDA
100
AcDbEntity
  8
0
100
AcDbVertex
100
AcDbPolygonMeshVertex
 10
196.9669036942104
 20
-222.3620375023735
 30
146.4028919547091
 70
    64
  0
VERTEX
  5
48BE9
330
48BDA
100
AcDbEntity
  8
0
100
AcDbVertex
100
AcDbPolygonMeshVertex
 10
196.9669036942104
 20
-224.2670375023735
 30
146.4028919547091
 70
    64
  0
VERTEX
  5
48BEA
330
48BDA
100
AcDbEntity
  8
0
100
AcDbVertex
100
AcDbPolygonMeshVertex
 10
194.6809036942104
 20
-222.3620375023735
 30
146.4028919547091
 70
    64
  0
VERTEX
  5
48BEB
330
48BDA
100
AcDbEntity
  8
0
100
AcDbVertex
100
AcDbPolygonMeshVertex
 10
194.6809036942104
 20
-222.3620375023735
 30
146.4028919547091
 70
    64
  0
VERTEX
  5
48BEC
330
48BDA
100
AcDbEntity
  8
0
100
AcDbVertex
100
AcDbPolygonMeshVertex
 10
194.6809036942104
 20
-224.2670375023735
 30
146.4028919547091
 70
    64
  0
SEQEND
  5
48BED
330
48BDA
100
AcDbEntity
  8
0
  0
POLYLINE
  5
48BEE
330
458D6
100
AcDbEntity
  8
0
100
AcDbPolygonMesh
 66
     1
 10
0.0
 20
0.0
 30
0.0
 70
    16
 71
     6
 72
     3
  0
VERTEX
  5
48BEF
330
48BEE
100
AcDbEntity
  8
0
100
AcDbVertex
100
AcDbPolygonMeshVertex
 10
199.5069036942103
 20
-224.2670375023735
 30
146.4028919547091
 70
    64
  0
VERTEX
  5
48BF0
330
48BEE
100
AcDbEntity
  8
0
100
AcDbVertex
100
AcDbPolygonMeshVertex
 10
199.5069036942103
 20
-224.2670375023735
 30
70.20289195470917
 70
    64
  0
VERTEX
  5
48BF1
330
48BEE
100
AcDbEntity
  8
0
100
AcDbVertex
100
AcDbPolygonMeshVertex
 10
199.5069036942103
 20
-224.2670375023735
 30
70.20289195470917
 70
    64
  0
VERTEX
  5
48BF2
330
48BEE
100
AcDbEntity
  8
0
100
AcDbVertex
100
AcDbPolygonMeshVertex
 10
196.9669036942104
 20
-224.2670375023735
 30
146.4028919547091
 70
    64
  0
VERTEX
  5
48BF3
330
48BEE
100
AcDbEntity
  8
0
100
AcDbVertex
100
AcDbPolygonMeshVertex
 10
196.9669036942104
 20
-224.2670375023735
 30
70.20289195470917
 70
    64
  0
VERTEX
  5
48BF4
330
48BEE
100
AcDbEntity
  8
0
100
AcDbVertex
100
AcDbPolygonMeshVertex
 10
196.9669036942104
 20
-224.2670375023735
 30
70.20289195470917
 70
    64
  0
VERTEX
  5
48BF5
330
48BEE
100
AcDbEntity
  8
0
100
AcDbVertex
100
AcDbPolygonMeshVertex
 10
196.9669036942104
 20
-219.1870375023735
 30
146.4028919547091
 70
    64
  0
VERTEX
  5
48BF6
330
48BEE
100
AcDbEntity
  8
0
100
AcDbVertex
100
AcDbPolygonMeshVertex
 10
196.9669036942104
 20
-219.1870375023735
 30
70.20289195470917
 70
    64
  0
VERTEX
  5
48BF7
330
48BEE
100
AcDbEntity
  8
0
100
AcDbVertex
100
AcDbPolygonMeshVertex
 10
196.9669036942104
 20
-224.2670375023735
 30
70.20289195470917
 70
    64
  0
VERTEX
  5
48BF8
330
48BEE
100
AcDbEntity
  8
0
100
AcDbVertex
100
AcDbPolygonMeshVertex
 10
199.5069036942103
 20
-219.1870375023735
 30
146.4028919547091
 70
    64
  0
VERTEX
  5
48BF9
330
48BEE
100
AcDbEntity
  8
0
100
AcDbVertex
100
AcDbPolygonMeshVertex
 10
199.5069036942103
 20
-219.1870375023735
 30
70.20289195470917
 70
    64
  0
VERTEX
  5
48BFA
330
48BEE
100
AcDbEntity
  8
0
100
AcDbVertex
100
AcDbPolygonMeshVertex
 10
199.5069036942103
 20
-224.2670375023735
 30
70.20289195470917
 70
    64
  0
VERTEX
  5
48BFB
330
48BEE
100
AcDbEntity
  8
0
100
AcDbVertex
100
AcDbPolygonMeshVertex
 10
199.5069036942103
 20
-219.1870375023735
 30
146.4028919547091
 70
    64
  0
VERTEX
  5
48BFC
330
48BEE
100
AcDbEntity
  8
0
100
AcDbVertex
100
AcDbPolygonMeshVertex
 10
199.5069036942103
 20
-219.1870375023735
 30
146.4028919547091
 70
    64
  0
VERTEX
  5
48BFD
330
48BEE
100
AcDbEntity
  8
0
100
AcDbVertex
100
AcDbPolygonMeshVertex
 10
199.5069036942103
 20
-224.2670375023735
 30
146.4028919547091
 70
    64
  0
VERTEX
  5
48BFE
330
48BEE
100
AcDbEntity
  8
0
100
AcDbVertex
100
AcDbPolygonMeshVertex
 10
196.9669036942104
 20
-219.1870375023735
 30
146.4028919547091
 70
    64
  0
VERTEX
  5
48BFF
330
48BEE
100
AcDbEntity
  8
0
100
AcDbVertex
100
AcDbPolygonMeshVertex
 10
196.9669036942104
 20
-219.1870375023735
 30
146.4028919547091
 70
    64
  0
VERTEX
  5
48C00
330
48BEE
100
AcDbEntity
  8
0
100
AcDbVertex
100
AcDbPolygonMeshVertex
 10
196.9669036942104
 20
-224.2670375023735
 30
146.4028919547091
 70
    64
  0
SEQEND
  5
48C01
330
48BEE
100
AcDbEntity
  8
0
  0
POLYLINE
  5
48C02
330
458D6
100
AcDbEntity
  8
0
100
AcDbPolygonMesh
 66
     1
 10
0.0
 20
0.0
 30
0.0
 70
    16
 71
     6
 72
     3
  0
VERTEX
  5
48C03
330
48C02
100
AcDbEntity
  8
0
100
AcDbVertex
100
AcDbPolygonMeshVertex
 10
194.6809036942104
 20
-224.2670375023735
 30
146.4028919547091
 70
    64
  0
VERTEX
  5
48C04
330
48C02
100
AcDbEntity
  8
0
100
AcDbVertex
100
AcDbPolygonMeshVertex
 10
194.6809036942104
 20
-224.2670375023735
 30
70.20289195470919
 70
    64
  0
VERTEX
  5
48C05
330
48C02
100
AcDbEntity
  8
0
100
AcDbVertex
100
AcDbPolygonMeshVertex
 10
194.6809036942104
 20
-224.2670375023735
 30
70.20289195470919
 70
    64
  0
VERTEX
  5
48C06
330
48C02
100
AcDbEntity
  8
0
100
AcDbVertex
100
AcDbPolygonMeshVertex
 10
192.1409036942104
 20
-224.2670375023735
 30
146.4028919547091
 70
    64
  0
VERTEX
  5
48C07
330
48C02
100
AcDbEntity
  8
0
100
AcDbVertex
100
AcDbPolygonMeshVertex
 10
192.1409036942104
 20
-224.2670375023735
 30
70.20289195470919
 70
    64
  0
VERTEX
  5
48C08
330
48C02
100
AcDbEntity
  8
0
100
AcDbVertex
100
AcDbPolygonMeshVertex
 10
192.1409036942104
 20
-224.2670375023735
 30
70.20289195470919
 70
    64
  0
VERTEX
  5
48C09
330
48C02
100
AcDbEntity
  8
0
100
AcDbVertex
100
AcDbPolygonMeshVertex
 10
192.1409036942104
 20
-219.1870375023735
 30
146.4028919547091
 70
    64
  0
VERTEX
  5
48C0A
330
48C02
100
AcDbEntity
  8
0
100
AcDbVertex
100
AcDbPolygonMeshVertex
 10
192.1409036942104
 20
-219.1870375023735
 30
70.20289195470919
 70
    64
  0
VERTEX
  5
48C0B
330
48C02
100
AcDbEntity
  8
0
100
AcDbVertex
100
AcDbPolygonMeshVertex
 10
192.1409036942104
 20
-224.2670375023735
 30
70.20289195470919
 70
    64
  0
VERTEX
  5
48C0C
330
48C02
100
AcDbEntity
  8
0
100
AcDbVertex
100
AcDbPolygonMeshVertex
 10
194.6809036942104
 20
-219.1870375023735
 30
146.4028919547091
 70
    64
  0
VERTEX
  5
48C0D
330
48C02
100
AcDbEntity
  8
0
100
AcDbVertex
100
AcDbPolygonMeshVertex
 10
194.6809036942104
 20
-219.1870375023735
 30
70.20289195470919
 70
    64
  0
VERTEX
  5
48C0E
330
48C02
100
AcDbEntity
  8
0
100
AcDbVertex
100
AcDbPolygonMeshVertex
 10
194.6809036942104
 20
-224.2670375023735
 30
70.20289195470919
 70
    64
  0
VERTEX
  5
48C0F
330
48C02
100
AcDbEntity
  8
0
100
AcDbVertex
100
AcDbPolygonMeshVertex
 10
194.6809036942104
 20
-219.1870375023735
 30
146.4028919547091
 70
    64
  0
VERTEX
  5
48C10
330
48C02
100
AcDbEntity
  8
0
100
AcDbVertex
100
AcDbPolygonMeshVertex
 10
194.6809036942104
 20
-219.1870375023735
 30
146.4028919547091
 70
    64
  0
VERTEX
  5
48C11
330
48C02
100
AcDbEntity
  8
0
100
AcDbVertex
100
AcDbPolygonMeshVertex
 10
194.6809036942104
 20
-224.2670375023735
 30
146.4028919547091
 70
    64
  0
VERTEX
  5
48C12
330
48C02
100
AcDbEntity
  8
0
100
AcDbVertex
100
AcDbPolygonMeshVertex
 10
192.1409036942104
 20
-219.1870375023735
 30
146.4028919547091
 70
    64
  0
VERTEX
  5
48C13
330
48C02
100
AcDbEntity
  8
0
100
AcDbVertex
100
AcDbPolygonMeshVertex
 10
192.1409036942104
 20
-219.1870375023735
 30
146.4028919547091
 70
    64
  0
VERTEX
  5
48C14
330
48C02
100
AcDbEntity
  8
0
100
AcDbVertex
100
AcDbPolygonMeshVertex
 10
192.1409036942104
 20
-224.2670375023735
 30
146.4028919547091
 70
    64
  0
SEQEND
  5
48C15
330
48C02
100
AcDbEntity
  8
0
  0
POLYLINE
  5
48C16
330
458D6
100
AcDbEntity
  8
0
100
AcDbPolygonMesh
 66
     1
 10
0.0
 20
0.0
 30
0.0
 70
    16
 71
     6
 72
     3
  0
VERTEX
  5
48C17
330
48C16
100
AcDbEntity
  8
0
100
AcDbVertex
100
AcDbPolygonMeshVertex
 10
241.9887498389728
 20
-224.2670375023732
 30
146.4028919547091
 70
    64
  0
VERTEX
  5
48C18
330
48C16
100
AcDbEntity
  8
0
100
AcDbVertex
100
AcDbPolygonMeshVertex
 10
241.9887498389728
 20
-224.2670375023732
 30
70.20289195470919
 70
    64
  0
VERTEX
  5
48C19
330
48C16
100
AcDbEntity
  8
0
100
AcDbVertex
100
AcDbPolygonMeshVertex
 10
241.9887498389728
 20
-224.2670375023732
 30
70.20289195470919
 70
    64
  0
VERTEX
  5
48C1A
330
48C16
100
AcDbEntity
  8
0
100
AcDbVertex
100
AcDbPolygonMeshVertex
 10
239.7027498389728
 20
-224.2670375023732
 30
146.4028919547091
 70
    64
  0
VERTEX
  5
48C1B
330
48C16
100
AcDbEntity
  8
0
100
AcDbVertex
100
AcDbPolygonMeshVertex
 10
239.7027498389728
 20
-224.2670375023732
 30
70.20289195470919
 70
    64
  0
VERTEX
  5
48C1C
330
48C16
100
AcDbEntity
  8
0
100
AcDbVertex
100
AcDbPolygonMeshVertex
 10
239.7027498389728
 20
-224.2670375023732
 30
70.20289195470919
 70
    64
  0
VERTEX
  5
48C1D
330
48C16
100
AcDbEntity
  8
0
100
AcDbVertex
100
AcDbPolygonMeshVertex
 10
239.7027498389728
 20
-222.3620375023732
 30
146.4028919547091
 70
    64
  0
VERTEX
  5
48C1E
330
48C16
100
AcDbEntity
  8
0
100
AcDbVertex
100
AcDbPolygonMeshVertex
 10
239.7027498389728
 20
-222.3620375023732
 30
70.20289195470919
 70
    64
  0
VERTEX
  5
48C1F
330
48C16
100
AcDbEntity
  8
0
100
AcDbVertex
100
AcDbPolygonMeshVertex
 10
239.7027498389728
 20
-224.2670375023732
 30
70.20289195470919
 70
    64
  0
VERTEX
  5
48C20
330
48C16
100
AcDbEntity
  8
0
100
AcDbVertex
100
AcDbPolygonMeshVertex
 10
241.9887498389728
 20
-222.3620375023732
 30
146.4028919547091
 70
    64
  0
VERTEX
  5
48C21
330
48C16
100
AcDbEntity
  8
0
100
AcDbVertex
100
AcDbPolygonMeshVertex
 10
241.9887498389728
 20
-222.3620375023732
 30
70.20289195470919
 70
    64
  0
VERTEX
  5
48C22
330
48C16
100
AcDbEntity
  8
0
100
AcDbVertex
100
AcDbPolygonMeshVertex
 10
241.9887498389728
 20
-224.2670375023732
 30
70.20289195470919
 70
    64
  0
VERTEX
  5
48C23
330
48C16
100
AcDbEntity
  8
0
100
AcDbVertex
100
AcDbPolygonMeshVertex
 10
241.9887498389728
 20
-222.3620375023732
 30
146.4028919547091
 70
    64
  0
VERTEX
  5
48C24
330
48C16
100
AcDbEntity
  8
0
100
AcDbVertex
100
AcDbPolygonMeshVertex
 10
241.9887498389728
 20
-222.3620375023732
 30
146.4028919547091
 70
    64
  0
VERTEX
  5
48C25
330
48C16
100
AcDbEntity
  8
0
100
AcDbVertex
100
AcDbPolygonMeshVertex
 10
241.9887498389728
 20
-224.2670375023732
 30
146.4028919547091
 70
    64
  0
VERTEX
  5
48C26
330
48C16
100
AcDbEntity
  8
0
100
AcDbVertex
100
AcDbPolygonMeshVertex
 10
239.7027498389728
 20
-222.3620375023732
 30
146.4028919547091
 70
    64
  0
VERTEX
  5
48C27
330
48C16
100
AcDbEntity
  8
0
100
AcDbVertex
100
AcDbPolygonMeshVertex
 10
239.7027498389728
 20
-222.3620375023732
 30
146.4028919547091
 70
    64
  0
VERTEX
  5
48C28
330
48C16
100
AcDbEntity
  8
0
100
AcDbVertex
100
AcDbPolygonMeshVertex
 10
239.7027498389728
 20
-224.2670375023732
 30
146.4028919547091
 70
    64
  0
SEQEND
  5
48C29
330
48C16
100
AcDbEntity
  8
0
  0
POLYLINE
  5
48C2A
330
458D6
100
AcDbEntity
  8
0
100
AcDbPolygonMesh
 66
     1
 10
0.0
 20
0.0
 30
0.0
 70
    16
 71
     6
 72
     3
  0
VERTEX
  5
48C2B
330
48C2A
100
AcDbEntity
  8
0
100
AcDbVertex
100
AcDbPolygonMeshVertex
 10
244.5287498389727
 20
-224.2670375023732
 30
146.4028919547091
 70
    64
  0
VERTEX
  5
48C2C
330
48C2A
100
AcDbEntity
  8
0
100
AcDbVertex
100
AcDbPolygonMeshVertex
 10
244.5287498389727
 20
-224.2670375023732
 30
70.20289195470919
 70
    64
  0
VERTEX
  5
48C2D
330
48C2A
100
AcDbEntity
  8
0
100
AcDbVertex
100
AcDbPolygonMeshVertex
 10
244.5287498389727
 20
-224.2670375023732
 30
70.20289195470919
 70
    64
  0
VERTEX
  5
48C2E
330
48C2A
100
AcDbEntity
  8
0
100
AcDbVertex
100
AcDbPolygonMeshVertex
 10
241.9887498389728
 20
-224.2670375023732
 30
146.4028919547091
 70
    64
  0
VERTEX
  5
48C2F
330
48C2A
100
AcDbEntity
  8
0
100
AcDbVertex
100
AcDbPolygonMeshVertex
 10
241.9887498389728
 20
-224.2670375023732
 30
70.20289195470919
 70
    64
  0
VERTEX
  5
48C30
330
48C2A
100
AcDbEntity
  8
0
100
AcDbVertex
100
AcDbPolygonMeshVertex
 10
241.9887498389728
 20
-224.2670375023732
 30
70.20289195470919
 70
    64
  0
VERTEX
  5
48C31
330
48C2A
100
AcDbEntity
  8
0
100
AcDbVertex
100
AcDbPolygonMeshVertex
 10
241.9887498389728
 20
-219.1870375023733
 30
146.4028919547091
 70
    64
  0
VERTEX
  5
48C32
330
48C2A
100
AcDbEntity
  8
0
100
AcDbVertex
100
AcDbPolygonMeshVertex
 10
241.9887498389728
 20
-219.1870375023733
 30
70.20289195470919
 70
    64
  0
VERTEX
  5
48C33
330
48C2A
100
AcDbEntity
  8
0
100
AcDbVertex
100
AcDbPolygonMeshVertex
 10
241.9887498389728
 20
-224.2670375023732
 30
70.20289195470919
 70
    64
  0
VERTEX
  5
48C34
330
48C2A
100
AcDbEntity
  8
0
100
AcDbVertex
100
AcDbPolygonMeshVertex
 10
244.5287498389727
 20
-219.1870375023733
 30
146.4028919547091
 70
    64
  0
VERTEX
  5
48C35
330
48C2A
100
AcDbEntity
  8
0
100
AcDbVertex
100
AcDbPolygonMeshVertex
 10
244.5287498389727
 20
-219.1870375023733
 30
70.20289195470919
 70
    64
  0
VERTEX
  5
48C36
330
48C2A
100
AcDbEntity
  8
0
100
AcDbVertex
100
AcDbPolygonMeshVertex
 10
244.5287498389727
 20
-224.2670375023732
 30
70.20289195470919
 70
    64
  0
VERTEX
  5
48C37
330
48C2A
100
AcDbEntity
  8
0
100
AcDbVertex
100
AcDbPolygonMeshVertex
 10
244.5287498389727
 20
-219.1870375023733
 30
146.4028919547091
 70
    64
  0
VERTEX
  5
48C38
330
48C2A
100
AcDbEntity
  8
0
100
AcDbVertex
100
AcDbPolygonMeshVertex
 10
244.5287498389727
 20
-219.1870375023733
 30
146.4028919547091
 70
    64
  0
VERTEX
  5
48C39
330
48C2A
100
AcDbEntity
  8
0
100
AcDbVertex
100
AcDbPolygonMeshVertex
 10
244.5287498389727
 20
-224.2670375023732
 30
146.4028919547091
 70
    64
  0
VERTEX
  5
48C3A
330
48C2A
100
AcDbEntity
  8
0
100
AcDbVertex
100
AcDbPolygonMeshVertex
 10
241.9887498389728
 20
-219.1870375023733
 30
146.4028919547091
 70
    64
  0
VERTEX
  5
48C3B
330
48C2A
100
AcDbEntity
  8
0
100
AcDbVertex
100
AcDbPolygonMeshVertex
 10
241.9887498389728
 20
-219.1870375023733
 30
146.4028919547091
 70
    64
  0
VERTEX
  5
48C3C
330
48C2A
100
AcDbEntity
  8
0
100
AcDbVertex
100
AcDbPolygonMeshVertex
 10
241.9887498389728
 20
-224.2670375023732
 30
146.4028919547091
 70
    64
  0
SEQEND
  5
48C3D
330
48C2A
100
AcDbEntity
  8
0
  0
POLYLINE
  5
48C3E
330
458D6
100
AcDbEntity
  8
0
100
AcDbPolygonMesh
 66
     1
 10
0.0
 20
0.0
 30
0.0
 70
    16
 71
     6
 72
     3
  0
VERTEX
  5
48C3F
330
48C3E
100
AcDbEntity
  8
0
100
AcDbVertex
100
AcDbPolygonMeshVertex
 10
239.7027498389728
 20
-224.2670375023732
 30
146.4028919547091
 70
    64
  0
VERTEX
  5
48C40
330
48C3E
100
AcDbEntity
  8
0
100
AcDbVertex
100
AcDbPolygonMeshVertex
 10
239.7027498389728
 20
-224.2670375023732
 30
70.2028919547092
 70
    64
  0
VERTEX
  5
48C41
330
48C3E
100
AcDbEntity
  8
0
100
AcDbVertex
100
AcDbPolygonMeshVertex
 10
239.7027498389728
 20
-224.2670375023732
 30
70.2028919547092
 70
    64
  0
VERTEX
  5
48C42
330
48C3E
100
AcDbEntity
  8
0
100
AcDbVertex
100
AcDbPolygonMeshVertex
 10
237.1627498389728
 20
-224.2670375023732
 30
146.4028919547091
 70
    64
  0
VERTEX
  5
48C43
330
48C3E
100
AcDbEntity
  8
0
100
AcDbVertex
100
AcDbPolygonMeshVertex
 10
237.1627498389728
 20
-224.2670375023732
 30
70.2028919547092
 70
    64
  0
VERTEX
  5
48C44
330
48C3E
100
AcDbEntity
  8
0
100
AcDbVertex
100
AcDbPolygonMeshVertex
 10
237.1627498389728
 20
-224.2670375023732
 30
70.2028919547092
 70
    64
  0
VERTEX
  5
48C45
330
48C3E
100
AcDbEntity
  8
0
100
AcDbVertex
100
AcDbPolygonMeshVertex
 10
237.1627498389728
 20
-219.1870375023733
 30
146.4028919547091
 70
    64
  0
VERTEX
  5
48C46
330
48C3E
100
AcDbEntity
  8
0
100
AcDbVertex
100
AcDbPolygonMeshVertex
 10
237.1627498389728
 20
-219.1870375023733
 30
70.2028919547092
 70
    64
  0
VERTEX
  5
48C47
330
48C3E
100
AcDbEntity
  8
0
100
AcDbVertex
100
AcDbPolygonMeshVertex
 10
237.1627498389728
 20
-224.2670375023732
 30
70.2028919547092
 70
    64
  0
VERTEX
  5
48C48
330
48C3E
100
AcDbEntity
  8
0
100
AcDbVertex
100
AcDbPolygonMeshVertex
 10
239.7027498389728
 20
-219.1870375023733
 30
146.4028919547091
 70
    64
  0
VERTEX
  5
48C49
330
48C3E
100
AcDbEntity
  8
0
100
AcDbVertex
100
AcDbPolygonMeshVertex
 10
239.7027498389728
 20
-219.1870375023733
 30
70.2028919547092
 70
    64
  0
VERTEX
  5
48C4A
330
48C3E
100
AcDbEntity
  8
0
100
AcDbVertex
100
AcDbPolygonMeshVertex
 10
239.7027498389728
 20
-224.2670375023732
 30
70.2028919547092
 70
    64
  0
VERTEX
  5
48C4B
330
48C3E
100
AcDbEntity
  8
0
100
AcDbVertex
100
AcDbPolygonMeshVertex
 10
239.7027498389728
 20
-219.1870375023733
 30
146.4028919547091
 70
    64
  0
VERTEX
  5
48C4C
330
48C3E
100
AcDbEntity
  8
0
100
AcDbVertex
100
AcDbPolygonMeshVertex
 10
239.7027498389728
 20
-219.1870375023733
 30
146.4028919547091
 70
    64
  0
VERTEX
  5
48C4D
330
48C3E
100
AcDbEntity
  8
0
100
AcDbVertex
100
AcDbPolygonMeshVertex
 10
239.7027498389728
 20
-224.2670375023732
 30
146.4028919547091
 70
    64
  0
VERTEX
  5
48C4E
330
48C3E
100
AcDbEntity
  8
0
100
AcDbVertex
100
AcDbPolygonMeshVertex
 10
237.1627498389728
 20
-219.1870375023733
 30
146.4028919547091
 70
    64
  0
VERTEX
  5
48C4F
330
48C3E
100
AcDbEntity
  8
0
100
AcDbVertex
100
AcDbPolygonMeshVertex
 10
237.1627498389728
 20
-219.1870375023733
 30
146.4028919547091
 70
    64
  0
VERTEX
  5
48C50
330
48C3E
100
AcDbEntity
  8
0
100
AcDbVertex
100
AcDbPolygonMeshVertex
 10
237.1627498389728
 20
-224.2670375023732
 30
146.4028919547091
 70
    64
  0
SEQEND
  5
48C51
330
48C3E
100
AcDbEntity
  8
0
  0
POLYLINE
  5
48C52
330
458D6
100
AcDbEntity
  8
0
100
AcDbPolygonMesh
 66
     1
 10
0.0
 20
0.0
 30
0.0
 70
    16
 71
     6
 72
     3
  0
VERTEX
  5
48C53
330
48C52
100
AcDbEntity
  8
0
100
AcDbVertex
100
AcDbPolygonMeshVertex
 10
276.9137498389728
 20
-224.2670375023732
 30
146.4028919547091
 70
    64
  0
VERTEX
  5
48C54
330
48C52
100
AcDbEntity
  8
0
100
AcDbVertex
100
AcDbPolygonMeshVertex
 10
276.9137498389728
 20
-224.2670375023732
 30
70.20289195470919
 70
    64
  0
VERTEX
  5
48C55
330
48C52
100
AcDbEntity
  8
0
100
AcDbVertex
100
AcDbPolygonMeshVertex
 10
276.9137498389728
 20
-224.2670375023732
 30
70.20289195470919
 70
    64
  0
VERTEX
  5
48C56
330
48C52
100
AcDbEntity
  8
0
100
AcDbVertex
100
AcDbPolygonMeshVertex
 10
274.6277498389728
 20
-224.2670375023732
 30
146.4028919547091
 70
    64
  0
VERTEX
  5
48C57
330
48C52
100
AcDbEntity
  8
0
100
AcDbVertex
100
AcDbPolygonMeshVertex
 10
274.6277498389728
 20
-224.2670375023732
 30
70.20289195470919
 70
    64
  0
VERTEX
  5
48C58
330
48C52
100
AcDbEntity
  8
0
100
AcDbVertex
100
AcDbPolygonMeshVertex
 10
274.6277498389728
 20
-224.2670375023732
 30
70.20289195470919
 70
    64
  0
VERTEX
  5
48C59
330
48C52
100
AcDbEntity
  8
0
100
AcDbVertex
100
AcDbPolygonMeshVertex
 10
274.6277498389728
 20
-222.3620375023732
 30
146.4028919547091
 70
    64
  0
VERTEX
  5
48C5A
330
48C52
100
AcDbEntity
  8
0
100
AcDbVertex
100
AcDbPolygonMeshVertex
 10
274.6277498389728
 20
-222.3620375023732
 30
70.20289195470919
 70
    64
  0
VERTEX
  5
48C5B
330
48C52
100
AcDbEntity
  8
0
100
AcDbVertex
100
AcDbPolygonMeshVertex
 10
274.6277498389728
 20
-224.2670375023732
 30
70.20289195470919
 70
    64
  0
VERTEX
  5
48C5C
330
48C52
100
AcDbEntity
  8
0
100
AcDbVertex
100
AcDbPolygonMeshVertex
 10
276.9137498389728
 20
-222.3620375023732
 30
146.4028919547091
 70
    64
  0
VERTEX
  5
48C5D
330
48C52
100
AcDbEntity
  8
0
100
AcDbVertex
100
AcDbPolygonMeshVertex
 10
276.9137498389728
 20
-222.3620375023732
 30
70.20289195470919
 70
    64
  0
VERTEX
  5
48C5E
330
48C52
100
AcDbEntity
  8
0
100
AcDbVertex
100
AcDbPolygonMeshVertex
 10
276.9137498389728
 20
-224.2670375023732
 30
70.20289195470919
 70
    64
  0
VERTEX
  5
48C5F
330
48C52
100
AcDbEntity
  8
0
100
AcDbVertex
100
AcDbPolygonMeshVertex
 10
276.9137498389728
 20
-222.3620375023732
 30
146.4028919547091
 70
    64
  0
VERTEX
  5
48C60
330
48C52
100
AcDbEntity
  8
0
100
AcDbVertex
100
AcDbPolygonMeshVertex
 10
276.9137498389728
 20
-222.3620375023732
 30
146.4028919547091
 70
    64
  0
VERTEX
  5
48C61
330
48C52
100
AcDbEntity
  8
0
100
AcDbVertex
100
AcDbPolygonMeshVertex
 10
276.9137498389728
 20
-224.2670375023732
 30
146.4028919547091
 70
    64
  0
VERTEX
  5
48C62
330
48C52
100
AcDbEntity
  8
0
100
AcDbVertex
100
AcDbPolygonMeshVertex
 10
274.6277498389728
 20
-222.3620375023732
 30
146.4028919547091
 70
    64
  0
VERTEX
  5
48C63
330
48C52
100
AcDbEntity
  8
0
100
AcDbVertex
100
AcDbPolygonMeshVertex
 10
274.6277498389728
 20
-222.3620375023732
 30
146.4028919547091
 70
    64
  0
VERTEX
  5
48C64
330
48C52
100
AcDbEntity
  8
0
100
AcDbVertex
100
AcDbPolygonMeshVertex
 10
274.6277498389728
 20
-224.2670375023732
 30
146.4028919547091
 70
    64
  0
SEQEND
  5
48C65
330
48C52
100
AcDbEntity
  8
0
  0
POLYLINE
  5
48C66
330
458D6
100
AcDbEntity
  8
0
100
AcDbPolygonMesh
 66
     1
 10
0.0
 20
0.0
 30
0.0
 70
    16
 71
     6
 72
     3
  0
VERTEX
  5
48C67
330
48C66
100
AcDbEntity
  8
0
100
AcDbVertex
100
AcDbPolygonMeshVertex
 10
279.4537498389728
 20
-224.2670375023732
 30
146.4028919547091
 70
    64
  0
VERTEX
  5
48C68
330
48C66
100
AcDbEntity
  8
0
100
AcDbVertex
100
AcDbPolygonMeshVertex
 10
279.4537498389728
 20
-224.2670375023732
 30
70.20289195470919
 70
    64
  0
VERTEX
  5
48C69
330
48C66
100
AcDbEntity
  8
0
100
AcDbVertex
100
AcDbPolygonMeshVertex
 10
279.4537498389728
 20
-224.2670375023732
 30
70.20289195470919
 70
    64
  0
VERTEX
  5
48C6A
330
48C66
100
AcDbEntity
  8
0
100
AcDbVertex
100
AcDbPolygonMeshVertex
 10
276.9137498389728
 20
-224.2670375023732
 30
146.4028919547091
 70
    64
  0
VERTEX
  5
48C6B
330
48C66
100
AcDbEntity
  8
0
100
AcDbVertex
100
AcDbPolygonMeshVertex
 10
276.9137498389728
 20
-224.2670375023732
 30
70.20289195470919
 70
    64
  0
VERTEX
  5
48C6C
330
48C66
100
AcDbEntity
  8
0
100
AcDbVertex
100
AcDbPolygonMeshVertex
 10
276.9137498389728
 20
-224.2670375023732
 30
70.20289195470919
 70
    64
  0
VERTEX
  5
48C6D
330
48C66
100
AcDbEntity
  8
0
100
AcDbVertex
100
AcDbPolygonMeshVertex
 10
276.9137498389728
 20
-219.1870375023733
 30
146.4028919547091
 70
    64
  0
VERTEX
  5
48C6E
330
48C66
100
AcDbEntity
  8
0
100
AcDbVertex
100
AcDbPolygonMeshVertex
 10
276.9137498389728
 20
-219.1870375023733
 30
70.20289195470919
 70
    64
  0
VERTEX
  5
48C6F
330
48C66
100
AcDbEntity
  8
0
100
AcDbVertex
100
AcDbPolygonMeshVertex
 10
276.9137498389728
 20
-224.2670375023732
 30
70.20289195470919
 70
    64
  0
VERTEX
  5
48C70
330
48C66
100
AcDbEntity
  8
0
100
AcDbVertex
100
AcDbPolygonMeshVertex
 10
279.4537498389728
 20
-219.1870375023733
 30
146.4028919547091
 70
    64
  0
VERTEX
  5
48C71
330
48C66
100
AcDbEntity
  8
0
100
AcDbVertex
100
AcDbPolygonMeshVertex
 10
279.4537498389728
 20
-219.1870375023733
 30
70.20289195470919
 70
    64
  0
VERTEX
  5
48C72
330
48C66
100
AcDbEntity
  8
0
100
AcDbVertex
100
AcDbPolygonMeshVertex
 10
279.4537498389728
 20
-224.2670375023732
 30
70.20289195470919
 70
    64
  0
VERTEX
  5
48C73
330
48C66
100
AcDbEntity
  8
0
100
AcDbVertex
100
AcDbPolygonMeshVertex
 10
279.4537498389728
 20
-219.1870375023733
 30
146.4028919547091
 70
    64
  0
VERTEX
  5
48C74
330
48C66
100
AcDbEntity
  8
0
100
AcDbVertex
100
AcDbPolygonMeshVertex
 10
279.4537498389728
 20
-219.1870375023733
 30
146.4028919547091
 70
    64
  0
VERTEX
  5
48C75
330
48C66
100
AcDbEntity
  8
0
100
AcDbVertex
100
AcDbPolygonMeshVertex
 10
279.4537498389728
 20
-224.2670375023732
 30
146.4028919547091
 70
    64
  0
VERTEX
  5
48C76
330
48C66
100
AcDbEntity
  8
0
100
AcDbVertex
100
AcDbPolygonMeshVertex
 10
276.9137498389728
 20
-219.1870375023733
 30
146.4028919547091
 70
    64
  0
VERTEX
  5
48C77
330
48C66
100
AcDbEntity
  8
0
100
AcDbVertex
100
AcDbPolygonMeshVertex
 10
276.9137498389728
 20
-219.1870375023733
 30
146.4028919547091
 70
    64
  0
VERTEX
  5
48C78
330
48C66
100
AcDbEntity
  8
0
100
AcDbVertex
100
AcDbPolygonMeshVertex
 10
276.9137498389728
 20
-224.2670375023732
 30
146.4028919547091
 70
    64
  0
SEQEND
  5
48C79
330
48C66
100
AcDbEntity
  8
0
  0
POLYLINE
  5
48C7A
330
458D6
100
AcDbEntity
  8
0
100
AcDbPolygonMesh
 66
     1
 10
0.0
 20
0.0
 30
0.0
 70
    16
 71
     6
 72
     3
  0
VERTEX
  5
48C7B
330
48C7A
100
AcDbEntity
  8
0
100
AcDbVertex
100
AcDbPolygonMeshVertex
 10
274.6277498389728
 20
-224.2670375023732
 30
146.4028919547091
 70
    64
  0
VERTEX
  5
48C7C
330
48C7A
100
AcDbEntity
  8
0
100
AcDbVertex
100
AcDbPolygonMeshVertex
 10
274.6277498389728
 20
-224.2670375023732
 30
70.2028919547092
 70
    64
  0
VERTEX
  5
48C7D
330
48C7A
100
AcDbEntity
  8
0
100
AcDbVertex
100
AcDbPolygonMeshVertex
 10
274.6277498389728
 20
-224.2670375023732
 30
70.2028919547092
 70
    64
  0
VERTEX
  5
48C7E
330
48C7A
100
AcDbEntity
  8
0
100
AcDbVertex
100
AcDbPolygonMeshVertex
 10
272.0877498389728
 20
-224.2670375023732
 30
146.4028919547091
 70
    64
  0
VERTEX
  5
48C7F
330
48C7A
100
AcDbEntity
  8
0
100
AcDbVertex
100
AcDbPolygonMeshVertex
 10
272.0877498389728
 20
-224.2670375023732
 30
70.2028919547092
 70
    64
  0
VERTEX
  5
48C80
330
48C7A
100
AcDbEntity
  8
0
100
AcDbVertex
100
AcDbPolygonMeshVertex
 10
272.0877498389728
 20
-224.2670375023732
 30
70.2028919547092
 70
    64
  0
VERTEX
  5
48C81
330
48C7A
100
AcDbEntity
  8
0
100
AcDbVertex
100
AcDbPolygonMeshVertex
 10
272.0877498389728
 20
-219.1870375023733
 30
146.4028919547091
 70
    64
  0
VERTEX
  5
48C82
330
48C7A
100
AcDbEntity
  8
0
100
AcDbVertex
100
AcDbPolygonMeshVertex
 10
272.0877498389728
 20
-219.1870375023733
 30
70.2028919547092
 70
    64
  0
VERTEX
  5
48C83
330
48C7A
100
AcDbEntity
  8
0
100
AcDbVertex
100
AcDbPolygonMeshVertex
 10
272.0877498389728
 20
-224.2670375023732
 30
70.2028919547092
 70
    64
  0
VERTEX
  5
48C84
330
48C7A
100
AcDbEntity
  8
0
100
AcDbVertex
100
AcDbPolygonMeshVertex
 10
274.6277498389728
 20
-219.1870375023733
 30
146.4028919547091
 70
    64
  0
VERTEX
  5
48C85
330
48C7A
100
AcDbEntity
  8
0
100
AcDbVertex
100
AcDbPolygonMeshVertex
 10
274.6277498389728
 20
-219.1870375023733
 30
70.2028919547092
 70
    64
  0
VERTEX
  5
48C86
330
48C7A
100
AcDbEntity
  8
0
100
AcDbVertex
100
AcDbPolygonMeshVertex
 10
274.6277498389728
 20
-224.2670375023732
 30
70.2028919547092
 70
    64
  0
VERTEX
  5
48C87
330
48C7A
100
AcDbEntity
  8
0
100
AcDbVertex
100
AcDbPolygonMeshVertex
 10
274.6277498389728
 20
-219.1870375023733
 30
146.4028919547091
 70
    64
  0
VERTEX
  5
48C88
330
48C7A
100
AcDbEntity
  8
0
100
AcDbVertex
100
AcDbPolygonMeshVertex
 10
274.6277498389728
 20
-219.1870375023733
 30
146.4028919547091
 70
    64
  0
VERTEX
  5
48C89
330
48C7A
100
AcDbEntity
  8
0
100
AcDbVertex
100
AcDbPolygonMeshVertex
 10
274.6277498389728
 20
-224.2670375023732
 30
146.4028919547091
 70
    64
  0
VERTEX
  5
48C8A
330
48C7A
100
AcDbEntity
  8
0
100
AcDbVertex
100
AcDbPolygonMeshVertex
 10
272.0877498389728
 20
-219.1870375023733
 30
146.4028919547091
 70
    64
  0
VERTEX
  5
48C8B
330
48C7A
100
AcDbEntity
  8
0
100
AcDbVertex
100
AcDbPolygonMeshVertex
 10
272.0877498389728
 20
-219.1870375023733
 30
146.4028919547091
 70
    64
  0
VERTEX
  5
48C8C
330
48C7A
100
AcDbEntity
  8
0
100
AcDbVertex
100
AcDbPolygonMeshVertex
 10
272.0877498389728
 20
-224.2670375023732
 30
146.4028919547091
 70
    64
  0
SEQEND
  5
48C8D
330
48C7A
100
AcDbEntity
  8
0
  0
POLYLINE
  5
48C8E
330
458D6
100
AcDbEntity
  8
0
100
AcDbPolygonMesh
 66
     1
 10
0.0
 20
0.0
 30
0.0
 70
    16
 71
     6
 72
     3
  0
VERTEX
  5
48C8F
330
48C8E
100
AcDbEntity
  8
0
100
AcDbVertex
100
AcDbPolygonMeshVertex
 10
239.7016726455334
 20
-142.0218999127754
 30
79.72789195470923
 70
    64
  0
VERTEX
  5
48C90
330
48C8E
100
AcDbEntity
  8
0
100
AcDbVertex
100
AcDbPolygonMeshVertex
 10
239.7016726455334
 20
-142.0218999127754
 30
70.20289195470919
 70
    64
  0
VERTEX
  5
48C91
330
48C8E
100
AcDbEntity
  8
0
100
AcDbVertex
100
AcDbPolygonMeshVertex
 10
239.7016726455334
 20
-142.0218999127754
 30
70.20289195470919
 70
    64
  0
VERTEX
  5
48C92
330
48C8E
100
AcDbEntity
  8
0
100
AcDbVertex
100
AcDbPolygonMeshVertex
 10
229.5422840476704
 20
-142.0218999127754
 30
79.72789195470923
 70
    64
  0
VERTEX
  5
48C93
330
48C8E
100
AcDbEntity
  8
0
100
AcDbVertex
100
AcDbPolygonMeshVertex
 10
229.5422840476704
 20
-142.0218999127754
 30
70.20289195470919
 70
    64
  0
VERTEX
  5
48C94
330
48C8E
100
AcDbEntity
  8
0
100
AcDbVertex
100
AcDbPolygonMeshVertex
 10
229.5422840476704
 20
-142.0218999127754
 30
70.20289195470919
 70
    64
  0
VERTEX
  5
48C95
330
48C8E
100
AcDbEntity
  8
0
100
AcDbVertex
100
AcDbPolygonMeshVertex
 10
229.5422840476704
 20
-101.3824464023126
 30
79.72789195470923
 70
    64
  0
VERTEX
  5
48C96
330
48C8E
100
AcDbEntity
  8
0
100
AcDbVertex
100
AcDbPolygonMeshVertex
 10
229.5422840476704
 20
-101.3824464023126
 30
70.20289195470919
 70
    64
  0
VERTEX
  5
48C97
330
48C8E
100
AcDbEntity
  8
0
100
AcDbVertex
100
AcDbPolygonMeshVertex
 10
229.5422840476704
 20
-142.0218999127754
 30
70.20289195470919
 70
    64
  0
VERTEX
  5
48C98
330
48C8E
100
AcDbEntity
  8
0
100
AcDbVertex
100
AcDbPolygonMeshVertex
 10
239.7016726455334
 20
-101.3824464023126
 30
79.72789195470923
 70
    64
  0
VERTEX
  5
48C99
330
48C8E
100
AcDbEntity
  8
0
100
AcDbVertex
100
AcDbPolygonMeshVertex
 10
239.7016726455334
 20
-101.3824464023126
 30
70.20289195470919
 70
    64
  0
VERTEX
  5
48C9A
330
48C8E
100
AcDbEntity
  8
0
100
AcDbVertex
100
AcDbPolygonMeshVertex
 10
239.7016726455334
 20
-142.0218999127754
 30
70.20289195470919
 70
    64
  0
VERTEX
  5
48C9B
330
48C8E
100
AcDbEntity
  8
0
100
AcDbVertex
100
AcDbPolygonMeshVertex
 10
239.7016726455334
 20
-101.3824464023126
 30
79.72789195470923
 70
    64
  0
VERTEX
  5
48C9C
330
48C8E
100
AcDbEntity
  8
0
100
AcDbVertex
100
AcDbPolygonMeshVertex
 10
239.7016726455334
 20
-101.3824464023126
 30
79.72789195470923
 70
    64
  0
VERTEX
  5
48C9D
330
48C8E
100
AcDbEntity
  8
0
100
AcDbVertex
100
AcDbPolygonMeshVertex
 10
239.7016726455334
 20
-142.0218999127754
 30
79.72789195470923
 70
    64
  0
VERTEX
  5
48C9E
330
48C8E
100
AcDbEntity
  8
0
100
AcDbVertex
100
AcDbPolygonMeshVertex
 10
229.5422840476704
 20
-101.3824464023126
 30
79.72789195470923
 70
    64
  0
VERTEX
  5
48C9F
330
48C8E
100
AcDbEntity
  8
0
100
AcDbVertex
100
AcDbPolygonMeshVertex
 10
229.5422840476704
 20
-101.3824464023126
 30
79.72789195470923
 70
    64
  0
VERTEX
  5
48CA0
330
48C8E
100
AcDbEntity
  8
0
100
AcDbVertex
100
AcDbPolygonMeshVertex
 10
229.5422840476704
 20
-142.0218999127754
 30
79.72789195470923
 70
    64
  0
SEQEND
  5
48CA1
330
48C8E
100
AcDbEntity
  8
0
  0
LINE
  5
48CA2
330
458D6
100
AcDbEntity
  8
0
100
AcDbLine
 10
185.3469123083243
 20
-225.0804682231859
 30
69.9488919547092
 11
185.3469123083243
 21
-225.073093331382
 31
68.94037550053591
  0
POINT
  5
48CA3
330
458D6
100
AcDbEntity
  8
SNAP_POINTS
100
AcDbPoint
 10
195.8239036942104
 20
-222.3620375023735
 30
70.20289195470917
  0
POLYLINE
  5
48CA4
330
458D6
100
AcDbEntity
  8
0
100
AcDbPolygonMesh
 66
     1
 10
0.0
 20
0.0
 30
0.0
 70
    16
 71
     6
 72
     3
  0
VERTEX
  5
48CA5
330
48CA4
100
AcDbEntity
  8
0
100
AcDbVertex
100
AcDbPolygonMeshVertex
 10
194.6813402584929
 20
-142.0218999127756
 30
79.72789195470912
 70
    64
  0
VERTEX
  5
48CA6
330
48CA4
100
AcDbEntity
  8
0
100
AcDbVertex
100
AcDbPolygonMeshVertex
 10
194.6813402584929
 20
-142.0218999127756
 30
70.20289195470913
 70
    64
  0
VERTEX
  5
48CA7
330
48CA4
100
AcDbEntity
  8
0
100
AcDbVertex
100
AcDbPolygonMeshVertex
 10
194.6813402584929
 20
-142.0218999127756
 30
70.20289195470913
 70
    64
  0
VERTEX
  5
48CA8
330
48CA4
100
AcDbEntity
  8
0
100
AcDbVertex
100
AcDbPolygonMeshVertex
 10
185.4363516606299
 20
-142.0218999127756
 30
79.72789195470912
 70
    64
  0
VERTEX
  5
48CA9
330
48CA4
100
AcDbEntity
  8
0
100
AcDbVertex
100
AcDbPolygonMeshVertex
 10
185.4363516606299
 20
-142.0218999127756
 30
70.20289195470913
 70
    64
  0
VERTEX
  5
48CAA
330
48CA4
100
AcDbEntity
  8
0
100
AcDbVertex
100
AcDbPolygonMeshVertex
 10
185.4363516606299
 20
-142.0218999127756
 30
70.20289195470913
 70
    64
  0
VERTEX
  5
48CAB
330
48CA4
100
AcDbEntity
  8
0
100
AcDbVertex
100
AcDbPolygonMeshVertex
 10
185.4363516606299
 20
-101.3824464023127
 30
79.72789195470912
 70
    64
  0
VERTEX
  5
48CAC
330
48CA4
100
AcDbEntity
  8
0
100
AcDbVertex
100
AcDbPolygonMeshVertex
 10
185.4363516606299
 20
-101.3824464023127
 30
70.20289195470913
 70
    64
  0
VERTEX
  5
48CAD
330
48CA4
100
AcDbEntity
  8
0
100
AcDbVertex
100
AcDbPolygonMeshVertex
 10
185.4363516606299
 20
-142.0218999127756
 30
70.20289195470913
 70
    64
  0
VERTEX
  5
48CAE
330
48CA4
100
AcDbEntity
  8
0
100
AcDbVertex
100
AcDbPolygonMeshVertex
 10
194.6813402584929
 20
-101.3824464023127
 30
79.72789195470912
 70
    64
  0
VERTEX
  5
48CAF
330
48CA4
100
AcDbEntity
  8
0
100
AcDbVertex
100
AcDbPolygonMeshVertex
 10
194.6813402584929
 20
-101.3824464023127
 30
70.20289195470913
 70
    64
  0
VERTEX
  5
48CB0
330
48CA4
100
AcDbEntity
  8
0
100
AcDbVertex
100
AcDbPolygonMeshVertex
 10
194.6813402584929
 20
-142.0218999127756
 30
70.20289195470913
 70
    64
  0
VERTEX
  5
48CB1
330
48CA4
100
AcDbEntity
  8
0
100
AcDbVertex
100
AcDbPolygonMeshVertex
 10
194.6813402584929
 20
-101.3824464023127
 30
79.72789195470912
 70
    64
  0
VERTEX
  5
48CB2
330
48CA4
100
AcDbEntity
  8
0
100
AcDbVertex
100
AcDbPolygonMeshVertex
 10
194.6813402584929
 20
-101.3824464023127
 30
79.72789195470912
 70
    64
  0
VERTEX
  5
48CB3
330
48CA4
100
AcDbEntity
  8
0
100
AcDbVertex
100
AcDbPolygonMeshVertex
 10
194.6813402584929
 20
-142.0218999127756
 30
79.72789195470912
 70
    64
  0
VERTEX
  5
48CB4
330
48CA4
100
AcDbEntity
  8
0
100
AcDbVertex
100
AcDbPolygonMeshVertex
 10
185.4363516606299
 20
-101.3824464023127
 30
79.72789195470912
 70
    64
  0
VERTEX
  5
48CB5
330
48CA4
100
AcDbEntity
  8
0
100
AcDbVertex
100
AcDbPolygonMeshVertex
 10
185.4363516606299
 20
-101.3824464023127
 30
79.72789195470912
 70
    64
  0
VERTEX
  5
48CB6
330
48CA4
100
AcDbEntity
  8
0
100
AcDbVertex
100
AcDbPolygonMeshVertex
 10
185.4363516606299
 20
-142.0218999127756
 30
79.72789195470912
 70
    64
  0
SEQEND
  5
48CB7
330
48CA4
100
AcDbEntity
  8
0
  0
LINE
  5
48CB8
330
458D6
100
AcDbEntity
  8
0
100
AcDbLine
 10
185.3469123083243
 20
-87.15846822318594
 30
69.9488919547092
 11
185.3469123083243
 21
-87.15846822318594
 31
68.93289195470919
  0
POLYLINE
  5
48CB9
330
458D6
100
AcDbEntity
  8
0
100
AcDbPolygonMesh
 66
     1
 10
0.0
 20
0.0
 30
0.0
 70
    16
 71
     6
 72
     3
  0
VERTEX
  5
48CBA
330
48CB9
100
AcDbEntity
  8
0
100
AcDbVertex
100
AcDbPolygonMeshVertex
 10
256.1367123083243
 20
-240.0664682231859
 30
69.94889195470914
 70
    64
  0
VERTEX
  5
48CBB
330
48CB9
100
AcDbEntity
  8
0
100
AcDbVertex
100
AcDbPolygonMeshVertex
 10
256.1367123083243
 20
-240.0664682231859
 30
68.93289195470919
 70
    64
  0
VERTEX
  5
48CBC
330
48CB9
100
AcDbEntity
  8
0
100
AcDbVertex
100
AcDbPolygonMeshVertex
 10
256.1367123083243
 20
-240.0664682231859
 30
68.93289195470919
 70
    64
  0
VERTEX
  5
48CBD
330
48CB9
100
AcDbEntity
  8
0
100
AcDbVertex
100
AcDbPolygonMeshVertex
 10
245.1131123083243
 20
-240.0664682231859
 30
69.94889195470914
 70
    64
  0
VERTEX
  5
48CBE
330
48CB9
100
AcDbEntity
  8
0
100
AcDbVertex
100
AcDbPolygonMeshVertex
 10
245.1131123083243
 20
-240.0664682231859
 30
68.93289195470919
 70
    64
  0
VERTEX
  5
48CBF
330
48CB9
100
AcDbEntity
  8
0
100
AcDbVertex
100
AcDbPolygonMeshVertex
 10
245.1131123083243
 20
-240.0664682231859
 30
68.93289195470919
 70
    64
  0
VERTEX
  5
48CC0
330
48CB9
100
AcDbEntity
  8
0
100
AcDbVertex
100
AcDbPolygonMeshVertex
 10
245.1131123083243
 20
-226.0964682231859
 30
69.94889195470914
 70
    64
  0
VERTEX
  5
48CC1
330
48CB9
100
AcDbEntity
  8
0
100
AcDbVertex
100
AcDbPolygonMeshVertex
 10
245.1131123083243
 20
-226.0964682231859
 30
68.93289195470919
 70
    64
  0
VERTEX
  5
48CC2
330
48CB9
100
AcDbEntity
  8
0
100
AcDbVertex
100
AcDbPolygonMeshVertex
 10
245.1131123083243
 20
-240.0664682231859
 30
68.93289195470919
 70
    64
  0
VERTEX
  5
48CC3
330
48CB9
100
AcDbEntity
  8
0
100
AcDbVertex
100
AcDbPolygonMeshVertex
 10
256.1367123083243
 20
-226.0964682231859
 30
69.94889195470914
 70
    64
  0
VERTEX
  5
48CC4
330
48CB9
100
AcDbEntity
  8
0
100
AcDbVertex
100
AcDbPolygonMeshVertex
 10
256.1367123083243
 20
-226.0964682231859
 30
68.93289195470919
 70
    64
  0
VERTEX
  5
48CC5
330
48CB9
100
AcDbEntity
  8
0
100
AcDbVertex
100
AcDbPolygonMeshVertex
 10
256.1367123083243
 20
-240.0664682231859
 30
68.93289195470919
 70
    64
  0
VERTEX
  5
48CC6
330
48CB9
100
AcDbEntity
  8
0
100
AcDbVertex
100
AcDbPolygonMeshVertex
 10
256.1367123083243
 20
-226.0964682231859
 30
69.94889195470914
 70
    64
  0
VERTEX
  5
48CC7
330
48CB9
100
AcDbEntity
  8
0
100
AcDbVertex
100
AcDbPolygonMeshVertex
 10
256.1367123083243
 20
-226.0964682231859
 30
69.94889195470914
 70
    64
  0
VERTEX
  5
48CC8
330
48CB9
100
AcDbEntity
  8
0
100
AcDbVertex
100
AcDbPolygonMeshVertex
 10
256.1367123083243
 20
-240.0664682231859
 30
69.94889195470914
 70
    64
  0
VERTEX
  5
48CC9
330
48CB9
100
AcDbEntity
  8
0
100
AcDbVertex
100
AcDbPolygonMeshVertex
 10
245.1131123083243
 20
-226.0964682231859
 30
69.94889195470914
 70
    64
  0
VERTEX
  5
48CCA
330
48CB9
100
AcDbEntity
  8
0
100
AcDbVertex
100
AcDbPolygonMeshVertex
 10
245.1131123083243
 20
-226.0964682231859
 30
69.94889195470914
 70
    64
  0
VERTEX
  5
48CCB
330
48CB9
100
AcDbEntity
  8
0
100
AcDbVertex
100
AcDbPolygonMeshVertex
 10
245.1131123083243
 20
-240.0664682231859
 30
69.94889195470914
 70
    64
  0
SEQEND
  5
48CCC
330
48CB9
100
AcDbEntity
  8
0
  0
CIRCLE
  5
48CCD
330
458D6
100
AcDbEntity
  8
0
100
AcDbCircle
 39
1.016
 10
250.6249123083243
 20
-233.7164682231859
 30
68.93289195470919
 40
2.755899999999993
  0
POINT
  5
48CCE
330
458D6
100
AcDbEntity
  8
SNAP_POINTS
100
AcDbPoint
 10
240.8457498389728
 20
-222.3620375023732
 30
70.20289195470919
  0
POINT
  5
48CCF
330
458D6
100
AcDbEntity
  8
SNAP_POINTS
100
AcDbPoint
 10
275.7707498389728
 20
-222.3620375023732
 30
70.20289195470919
  0
POLYLINE
  5
48CD0
330
458D6
100
AcDbEntity
  8
0
100
AcDbPolygonMesh
 66
     1
 10
0.0
 20
0.0
 30
0.0
 70
    16
 71
     6
 72
     3
  0
VERTEX
  5
48CD1
330
48CD0
100
AcDbEntity
  8
0
100
AcDbVertex
100
AcDbPolygonMeshVertex
 10
274.6266726455333
 20
-142.0218999127753
 30
79.7278919547092
 70
    64
  0
VERTEX
  5
48CD2
330
48CD0
100
AcDbEntity
  8
0
100
AcDbVertex
100
AcDbPolygonMeshVertex
 10
274.6266726455333
 20
-142.0218999127753
 30
70.20289195470915
 70
    64
  0
VERTEX
  5
48CD3
330
48CD0
100
AcDbEntity
  8
0
100
AcDbVertex
100
AcDbPolygonMeshVertex
 10
274.6266726455333
 20
-142.0218999127753
 30
70.20289195470915
 70
    64
  0
VERTEX
  5
48CD4
330
48CD0
100
AcDbEntity
  8
0
100
AcDbVertex
100
AcDbPolygonMeshVertex
 10
264.4672840476704
 20
-142.0218999127753
 30
79.7278919547092
 70
    64
  0
VERTEX
  5
48CD5
330
48CD0
100
AcDbEntity
  8
0
100
AcDbVertex
100
AcDbPolygonMeshVertex
 10
264.4672840476704
 20
-142.0218999127753
 30
70.20289195470915
 70
    64
  0
VERTEX
  5
48CD6
330
48CD0
100
AcDbEntity
  8
0
100
AcDbVertex
100
AcDbPolygonMeshVertex
 10
264.4672840476704
 20
-142.0218999127753
 30
70.20289195470915
 70
    64
  0
VERTEX
  5
48CD7
330
48CD0
100
AcDbEntity
  8
0
100
AcDbVertex
100
AcDbPolygonMeshVertex
 10
264.4672840476704
 20
-101.3824464023126
 30
79.7278919547092
 70
    64
  0
VERTEX
  5
48CD8
330
48CD0
100
AcDbEntity
  8
0
100
AcDbVertex
100
AcDbPolygonMeshVertex
 10
264.4672840476704
 20
-101.3824464023126
 30
70.20289195470915
 70
    64
  0
VERTEX
  5
48CD9
330
48CD0
100
AcDbEntity
  8
0
100
AcDbVertex
100
AcDbPolygonMeshVertex
 10
264.4672840476704
 20
-142.0218999127753
 30
70.20289195470915
 70
    64
  0
VERTEX
  5
48CDA
330
48CD0
100
AcDbEntity
  8
0
100
AcDbVertex
100
AcDbPolygonMeshVertex
 10
274.6266726455333
 20
-101.3824464023126
 30
79.7278919547092
 70
    64
  0
VERTEX
  5
48CDB
330
48CD0
100
AcDbEntity
  8
0
100
AcDbVertex
100
AcDbPolygonMeshVertex
 10
274.6266726455333
 20
-101.3824464023126
 30
70.20289195470915
 70
    64
  0
VERTEX
  5
48CDC
330
48CD0
100
AcDbEntity
  8
0
100
AcDbVertex
100
AcDbPolygonMeshVertex
 10
274.6266726455333
 20
-142.0218999127753
 30
70.20289195470915
 70
    64
  0
VERTEX
  5
48CDD
330
48CD0
100
AcDbEntity
  8
0
100
AcDbVertex
100
AcDbPolygonMeshVertex
 10
274.6266726455333
 20
-101.3824464023126
 30
79.7278919547092
 70
    64
  0
VERTEX
  5
48CDE
330
48CD0
100
AcDbEntity
  8
0
100
AcDbVertex
100
AcDbPolygonMeshVertex
 10
274.6266726455333
 20
-101.3824464023126
 30
79.7278919547092
 70
    64
  0
VERTEX
  5
48CDF
330
48CD0
100
AcDbEntity
  8
0
100
AcDbVertex
100
AcDbPolygonMeshVertex
 10
274.6266726455333
 20
-142.0218999127753
 30
79.7278919547092
 70
    64
  0
VERTEX
  5
48CE0
330
48CD0
100
AcDbEntity
  8
0
100
AcDbVertex
100
AcDbPolygonMeshVertex
 10
264.4672840476704
 20
-101.3824464023126
 30
79.7278919547092
 70
    64
  0
VERTEX
  5
48CE1
330
48CD0
100
AcDbEntity
  8
0
100
AcDbVertex
100
AcDbPolygonMeshVertex
 10
264.4672840476704
 20
-101.3824464023126
 30
79.7278919547092
 70
    64
  0
VERTEX
  5
48CE2
330
48CD0
100
AcDbEntity
  8
0
100
AcDbVertex
100
AcDbPolygonMeshVertex
 10
264.4672840476704
 20
-142.0218999127753
 30
79.7278919547092
 70
    64
  0
SEQEND
  5
48CE3
330
48CD0
100
AcDbEntity
  8
0
  0
ARC
  5
48CE4
330
458D6
100
AcDbEntity
  8
0
100
AcDbCircle
 39
1.016
 10
250.6249123083243
 20
-75.72846822318595
 30
68.93289195470919
 40
2.7559
100
AcDbArc
 50
356.7827327525335
 51
183.2172672474664
  0
ARC
  5
48CE5
330
458D6
100
AcDbEntity
  8
0
100
AcDbCircle
 39
1.016
 10
250.6249123083243
 20
-80.64433728345049
 30
68.93289195470919
 40
5.499100000000003
100
AcDbArc
 50
120.0241420378333
 51
59.97585796216662
  0
LINE
  5
48CE6
330
458D6
100
AcDbEntity
  8
0
100
AcDbLine
 10
245.1131123083242
 20
-69.12446822318603
 30
69.94889195470915
 11
242.5731123083244
 21
-69.12446822318603
 31
69.94889195470915
  0
LINE
  5
48CE7
330
458D6
100
AcDbEntity
  8
0
100
AcDbLine
 10
245.1131123083241
 20
-69.12446822318599
 30
68.93289195470919
 11
242.5731123083243
 21
-69.12446822318599
 31
68.93289195470919
  0
LINE
  5
48CE8
330
458D6
100
AcDbEntity
  8
0
100
AcDbLine
 10
258.6767123083241
 20
-69.12446822318597
 30
68.93289195470919
 11
256.1367123083242
 21
-69.12446822318597
 31
68.93289195470919
  0
POLYLINE
  5
48CE9
330
458D6
100
AcDbEntity
  8
0
100
AcDbPolygonMesh
 66
     1
 10
0.0
 20
0.0
 30
0.0
 70
    16
 71
     6
 72
     3
  0
VERTEX
  5
48CEA
330
48CE9
100
AcDbEntity
  8
0
100
AcDbVertex
100
AcDbPolygonMeshVertex
 10
312.6771123083242
 20
-86.14246822318595
 30
69.94889195470915
 70
    64
  0
VERTEX
  5
48CEB
330
48CE9
100
AcDbEntity
  8
0
100
AcDbVertex
100
AcDbPolygonMeshVertex
 10
312.6771123083242
 20
-86.14246822318595
 30
68.93289195470919
 70
    64
  0
VERTEX
  5
48CEC
330
48CE9
100
AcDbEntity
  8
0
100
AcDbVertex
100
AcDbPolygonMeshVertex
 10
312.6771123083242
 20
-86.14246822318595
 30
68.93289195470919
 70
    64
  0
VERTEX
  5
48CED
330
48CE9
100
AcDbEntity
  8
0
100
AcDbVertex
100
AcDbPolygonMeshVertex
 10
312.6771123083242
 20
-69.12446822318597
 30
69.94889195470915
 70
    64
  0
VERTEX
  5
48CEE
330
48CE9
100
AcDbEntity
  8
0
100
AcDbVertex
100
AcDbPolygonMeshVertex
 10
312.6771123083242
 20
-69.12446822318597
 30
68.93289195470919
 70
    64
  0
VERTEX
  5
48CEF
330
48CE9
100
AcDbEntity
  8
0
100
AcDbVertex
100
AcDbPolygonMeshVertex
 10
312.6771123083242
 20
-69.12446822318597
 30
68.93289195470919
 70
    64
  0
VERTEX
  5
48CF0
330
48CE9
100
AcDbEntity
  8
0
100
AcDbVertex
100
AcDbPolygonMeshVertex
 10
328.7807123083241
 20
-69.12446822318597
 30
69.94889195470915
 70
    64
  0
VERTEX
  5
48CF1
330
48CE9
100
AcDbEntity
  8
0
100
AcDbVertex
100
AcDbPolygonMeshVertex
 10
328.7807123083241
 20
-69.12446822318597
 30
68.93289195470919
 70
    64
  0
VERTEX
  5
48CF2
330
48CE9
100
AcDbEntity
  8
0
100
AcDbVertex
100
AcDbPolygonMeshVertex
 10
312.6771123083242
 20
-69.12446822318597
 30
68.93289195470919
 70
    64
  0
VERTEX
  5
48CF3
330
48CE9
100
AcDbEntity
  8
0
100
AcDbVertex
100
AcDbPolygonMeshVertex
 10
328.7807123083241
 20
-86.14246822318595
 30
69.94889195470915
 70
    64
  0
VERTEX
  5
48CF4
330
48CE9
100
AcDbEntity
  8
0
100
AcDbVertex
100
AcDbPolygonMeshVertex
 10
328.7807123083241
 20
-86.14246822318595
 30
68.93289195470919
 70
    64
  0
VERTEX
  5
48CF5
330
48CE9
100
AcDbEntity
  8
0
100
AcDbVertex
100
AcDbPolygonMeshVertex
 10
312.6771123083242
 20
-86.14246822318595
 30
68.93289195470919
 70
    64
  0
VERTEX
  5
48CF6
330
48CE9
100
AcDbEntity
  8
0
100
AcDbVertex
100
AcDbPolygonMeshVertex
 10
328.7807123083241
 20
-86.14246822318595
 30
69.94889195470915
 70
    64
  0
VERTEX
  5
48CF7
330
48CE9
100
AcDbEntity
  8
0
100
AcDbVertex
100
AcDbPolygonMeshVertex
 10
328.7807123083241
 20
-86.14246822318595
 30
69.94889195470915
 70
    64
  0
VERTEX
  5
48CF8
330
48CE9
100
AcDbEntity
  8
0
100
AcDbVertex
100
AcDbPolygonMeshVertex
 10
312.6771123083242
 20
-86.14246822318595
 30
69.94889195470915
 70
    64
  0
VERTEX
  5
48CF9
330
48CE9
100
AcDbEntity
  8
0
100
AcDbVertex
100
AcDbPolygonMeshVertex
 10
328.7807123083241
 20
-69.12446822318597
 30
69.94889195470915
 70
    64
  0
VERTEX
  5
48CFA
330
48CE9
100
AcDbEntity
  8
0
100
AcDbVertex
100
AcDbPolygonMeshVertex
 10
328.7807123083241
 20
-69.12446822318597
 30
69.94889195470915
 70
    64
  0
VERTEX
  5
48CFB
330
48CE9
100
AcDbEntity
  8
0
100
AcDbVertex
100
AcDbPolygonMeshVertex
 10
312.6771123083242
 20
-69.12446822318597
 30
69.94889195470915
 70
    64
  0
SEQEND
  5
48CFC
330
48CE9
100
AcDbEntity
  8
0
  0
POLYLINE
  5
48CFD
330
458D6
100
AcDbEntity
  8
0
100
AcDbPolygonMesh
 66
     1
 10
0.0
 20
0.0
 30
0.0
 70
    16
 71
     6
 72
     3
  0
VERTEX
  5
48CFE
330
48CFD
100
AcDbEntity
  8
0
100
AcDbVertex
100
AcDbPolygonMeshVertex
 10
355.5269123083243
 20
-226.0964682231859
 30
213.9668919547091
 70
    64
  0
VERTEX
  5
48CFF
330
48CFD
100
AcDbEntity
  8
0
100
AcDbVertex
100
AcDbPolygonMeshVertex
 10
355.5269123083243
 20
-226.0964682231859
 30
68.93289195470919
 70
    64
  0
VERTEX
  5
48D00
330
48CFD
100
AcDbEntity
  8
0
100
AcDbVertex
100
AcDbPolygonMeshVertex
 10
355.5269123083243
 20
-226.0964682231859
 30
68.93289195470919
 70
    64
  0
VERTEX
  5
48D01
330
48CFD
100
AcDbEntity
  8
0
100
AcDbVertex
100
AcDbPolygonMeshVertex
 10
355.5269123083243
 20
-215.9364682231859
 30
213.9668919547091
 70
    64
  0
VERTEX
  5
48D02
330
48CFD
100
AcDbEntity
  8
0
100
AcDbVertex
100
AcDbPolygonMeshVertex
 10
355.5269123083243
 20
-215.9364682231859
 30
68.93289195470919
 70
    64
  0
VERTEX
  5
48D03
330
48CFD
100
AcDbEntity
  8
0
100
AcDbVertex
100
AcDbPolygonMeshVertex
 10
355.5269123083243
 20
-215.9364682231859
 30
68.93289195470919
 70
    64
  0
VERTEX
  5
48D04
330
48CFD
100
AcDbEntity
  8
0
100
AcDbVertex
100
AcDbPolygonMeshVertex
 10
365.6869123083243
 20
-215.9364682231859
 30
213.9668919547091
 70
    64
  0
VERTEX
  5
48D05
330
48CFD
100
AcDbEntity
  8
0
100
AcDbVertex
100
AcDbPolygonMeshVertex
 10
365.6869123083243
 20
-215.9364682231859
 30
68.93289195470919
 70
    64
  0
VERTEX
  5
48D06
330
48CFD
100
AcDbEntity
  8
0
100
AcDbVertex
100
AcDbPolygonMeshVertex
 10
355.5269123083243
 20
-215.9364682231859
 30
68.93289195470919
 70
    64
  0
VERTEX
  5
48D07
330
48CFD
100
AcDbEntity
  8
0
100
AcDbVertex
100
AcDbPolygonMeshVertex
 10
355.5269123083243
 20
-226.0964682231859
 30
213.9668919547091
 70
    64
  0
VERTEX
  5
48D08
330
48CFD
100
AcDbEntity
  8
0
100
AcDbVertex
100
AcDbPolygonMeshVertex
 10
355.5269123083243
 20
-226.0964682231859
 30
68.93289195470919
 70
    64
  0
VERTEX
  5
48D09
330
48CFD
100
AcDbEntity
  8
0
100
AcDbVertex
100
AcDbPolygonMeshVertex
 10
355.5269123083243
 20
-226.0964682231859
 30
68.93289195470919
 70
    64
  0
VERTEX
  5
48D0A
330
48CFD
100
AcDbEntity
  8
0
100
AcDbVertex
100
AcDbPolygonMeshVertex
 10
355.5269123083243
 20
-226.0964682231859
 30
213.9668919547091
 70
    64
  0
VERTEX
  5
48D0B
330
48CFD
100
AcDbEntity
  8
0
100
AcDbVertex
100
AcDbPolygonMeshVertex
 10
355.5269123083243
 20
-226.0964682231859
 30
213.9668919547091
 70
    64
  0
VERTEX
  5
48D0C
330
48CFD
100
AcDbEntity
  8
0
100
AcDbVertex
100
AcDbPolygonMeshVertex
 10
355.5269123083243
 20
-226.0964682231859
 30
213.9668919547091
 70
    64
  0
VERTEX
  5
48D0D
330
48CFD
100
AcDbEntity
  8
0
100
AcDbVertex
100
AcDbPolygonMeshVertex
 10
365.6869123083243
 20
-215.9364682231859
 30
213.9668919547091
 70
    64
  0
VERTEX
  5
48D0E
330
48CFD
100
AcDbEntity
  8
0
100
AcDbVertex
100
AcDbPolygonMeshVertex
 10
365.6869123083243
 20
-215.9364682231859
 30
213.9668919547091
 70
    64
  0
VERTEX
  5
48D0F
330
48CFD
100
AcDbEntity
  8
0
100
AcDbVertex
100
AcDbPolygonMeshVertex
 10
355.5269123083243
 20
-215.9364682231859
 30
213.9668919547091
 70
    64
  0
SEQEND
  5
48D10
330
48CFD
100
AcDbEntity
  8
0
  0
POLYLINE
  5
48D11
330
458D6
100
AcDbEntity
  8
0
100
AcDbPolygonMesh
 66
     1
 10
0.0
 20
0.0
 30
0.0
 70
    16
 71
     6
 72
     3
  0
VERTEX
  5
48D12
330
48D11
100
AcDbEntity
  8
0
100
AcDbVertex
100
AcDbPolygonMeshVertex
 10
365.6869123083243
 20
-96.302468223186
 30
213.9668919547091
 70
    64
  0
VERTEX
  5
48D13
330
48D11
100
AcDbEntity
  8
0
100
AcDbVertex
100
AcDbPolygonMeshVertex
 10
365.6869123083243
 20
-96.302468223186
 30
68.93289195470919
 70
    64
  0
VERTEX
  5
48D14
330
48D11
100
AcDbEntity
  8
0
100
AcDbVertex
100
AcDbPolygonMeshVertex
 10
365.6869123083243
 20
-96.302468223186
 30
68.93289195470919
 70
    64
  0
VERTEX
  5
48D15
330
48D11
100
AcDbEntity
  8
0
100
AcDbVertex
100
AcDbPolygonMeshVertex
 10
355.5269123083243
 20
-96.302468223186
 30
213.9668919547091
 70
    64
  0
VERTEX
  5
48D16
330
48D11
100
AcDbEntity
  8
0
100
AcDbVertex
100
AcDbPolygonMeshVertex
 10
355.5269123083243
 20
-96.302468223186
 30
68.93289195470919
 70
    64
  0
VERTEX
  5
48D17
330
48D11
100
AcDbEntity
  8
0
100
AcDbVertex
100
AcDbPolygonMeshVertex
 10
355.5269123083243
 20
-96.302468223186
 30
68.93289195470919
 70
    64
  0
VERTEX
  5
48D18
330
48D11
100
AcDbEntity
  8
0
100
AcDbVertex
100
AcDbPolygonMeshVertex
 10
355.5269123083243
 20
-86.14246822318595
 30
213.9668919547091
 70
    64
  0
VERTEX
  5
48D19
330
48D11
100
AcDbEntity
  8
0
100
AcDbVertex
100
AcDbPolygonMeshVertex
 10
355.5269123083243
 20
-86.14246822318595
 30
68.93289195470919
 70
    64
  0
VERTEX
  5
48D1A
330
48D11
100
AcDbEntity
  8
0
100
AcDbVertex
100
AcDbPolygonMeshVertex
 10
355.5269123083243
 20
-96.302468223186
 30
68.93289195470919
 70
    64
  0
VERTEX
  5
48D1B
330
48D11
100
AcDbEntity
  8
0
100
AcDbVertex
100
AcDbPolygonMeshVertex
 10
365.6869123083243
 20
-96.302468223186
 30
213.9668919547091
 70
    64
  0
VERTEX
  5
48D1C
330
48D11
100
AcDbEntity
  8
0
100
AcDbVertex
100
AcDbPolygonMeshVertex
 10
365.6869123083243
 20
-96.302468223186
 30
68.93289195470919
 70
    64
  0
VERTEX
  5
48D1D
330
48D11
100
AcDbEntity
  8
0
100
AcDbVertex
100
AcDbPolygonMeshVertex
 10
365.6869123083243
 20
-96.302468223186
 30
68.93289195470919
 70
    64
  0
VERTEX
  5
48D1E
330
48D11
100
AcDbEntity
  8
0
100
AcDbVertex
100
AcDbPolygonMeshVertex
 10
365.6869123083243
 20
-96.302468223186
 30
213.9668919547091
 70
    64
  0
VERTEX
  5
48D1F
330
48D11
100
AcDbEntity
  8
0
100
AcDbVertex
100
AcDbPolygonMeshVertex
 10
365.6869123083243
 20
-96.302468223186
 30
213.9668919547091
 70
    64
  0
VERTEX
  5
48D20
330
48D11
100
AcDbEntity
  8
0
100
AcDbVertex
100
AcDbPolygonMeshVertex
 10
365.6869123083243
 20
-96.302468223186
 30
213.9668919547091
 70
    64
  0
VERTEX
  5
48D21
330
48D11
100
AcDbEntity
  8
0
100
AcDbVertex
100
AcDbPolygonMeshVertex
 10
355.5269123083243
 20
-86.14246822318595
 30
213.9668919547091
 70
    64
  0
VERTEX
  5
48D22
330
48D11
100
AcDbEntity
  8
0
100
AcDbVertex
100
AcDbPolygonMeshVertex
 10
355.5269123083243
 20
-86.14246822318595
 30
213.9668919547091
 70
    64
  0
VERTEX
  5
48D23
330
48D11
100
AcDbEntity
  8
0
100
AcDbVertex
100
AcDbPolygonMeshVertex
 10
355.5269123083243
 20
-96.302468223186
 30
213.9668919547091
 70
    64
  0
SEQEND
  5
48D24
330
48D11
100
AcDbEntity
  8
0
  0
POLYLINE
  5
48D25
330
458D6
100
AcDbEntity
  8
0
100
AcDbPolygonMesh
 66
     1
 10
0.0
 20
0.0
 30
0.0
 70
    16
 71
     6
 72
     3
  0
VERTEX
  5
48D26
330
48D25
100
AcDbEntity
  8
0
100
AcDbVertex
100
AcDbPolygonMeshVertex
 10
309.5527498389728
 20
-87.97189894399833
 30
146.4028919547091
 70
    64
  0
VERTEX
  5
48D27
330
48D25
100
AcDbEntity
  8
0
100
AcDbVertex
100
AcDbPolygonMeshVertex
 10
309.5527498389728
 20
-87.97189894399833
 30
70.20289195470919
 70
    64
  0
VERTEX
  5
48D28
330
48D25
100
AcDbEntity
  8
0
100
AcDbVertex
100
AcDbPolygonMeshVertex
 10
309.5527498389728
 20
-87.97189894399833
 30
70.20289195470919
 70
    64
  0
VERTEX
  5
48D29
330
48D25
100
AcDbEntity
  8
0
100
AcDbVertex
100
AcDbPolygonMeshVertex
 10
307.0127498389727
 20
-87.97189894399833
 30
146.4028919547091
 70
    64
  0
VERTEX
  5
48D2A
330
48D25
100
AcDbEntity
  8
0
100
AcDbVertex
100
AcDbPolygonMeshVertex
 10
307.0127498389727
 20
-87.97189894399833
 30
70.20289195470919
 70
    64
  0
VERTEX
  5
48D2B
330
48D25
100
AcDbEntity
  8
0
100
AcDbVertex
100
AcDbPolygonMeshVertex
 10
307.0127498389727
 20
-87.97189894399833
 30
70.20289195470919
 70
    64
  0
VERTEX
  5
48D2C
330
48D25
100
AcDbEntity
  8
0
100
AcDbVertex
100
AcDbPolygonMeshVertex
 10
307.0127498389727
 20
-93.05189894399836
 30
146.4028919547091
 70
    64
  0
VERTEX
  5
48D2D
330
48D25
100
AcDbEntity
  8
0
100
AcDbVertex
100
AcDbPolygonMeshVertex
 10
307.0127498389727
 20
-93.05189894399836
 30
70.20289195470919
 70
    64
  0
VERTEX
  5
48D2E
330
48D25
100
AcDbEntity
  8
0
100
AcDbVertex
100
AcDbPolygonMeshVertex
 10
307.0127498389727
 20
-87.97189894399833
 30
70.20289195470919
 70
    64
  0
VERTEX
  5
48D2F
330
48D25
100
AcDbEntity
  8
0
100
AcDbVertex
100
AcDbPolygonMeshVertex
 10
309.5527498389728
 20
-93.05189894399836
 30
146.4028919547091
 70
    64
  0
VERTEX
  5
48D30
330
48D25
100
AcDbEntity
  8
0
100
AcDbVertex
100
AcDbPolygonMeshVertex
 10
309.5527498389728
 20
-93.05189894399836
 30
70.20289195470919
 70
    64
  0
VERTEX
  5
48D31
330
48D25
100
AcDbEntity
  8
0
100
AcDbVertex
100
AcDbPolygonMeshVertex
 10
309.5527498389728
 20
-87.97189894399833
 30
70.20289195470919
 70
    64
  0
VERTEX
  5
48D32
330
48D25
100
AcDbEntity
  8
0
100
AcDbVertex
100
AcDbPolygonMeshVertex
 10
309.5527498389728
 20
-93.05189894399836
 30
146.4028919547091
 70
    64
  0
VERTEX
  5
48D33
330
48D25
100
AcDbEntity
  8
0
100
AcDbVertex
100
AcDbPolygonMeshVertex
 10
309.5527498389728
 20
-93.05189894399836
 30
146.4028919547091
 70
    64
  0
VERTEX
  5
48D34
330
48D25
100
AcDbEntity
  8
0
100
AcDbVertex
100
AcDbPolygonMeshVertex
 10
309.5527498389728
 20
-87.97189894399833
 30
146.4028919547091
 70
    64
  0
VERTEX
  5
48D35
330
48D25
100
AcDbEntity
  8
0
100
AcDbVertex
100
AcDbPolygonMeshVertex
 10
307.0127498389727
 20
-93.05189894399836
 30
146.4028919547091
 70
    64
  0
VERTEX
  5
48D36
330
48D25
100
AcDbEntity
  8
0
100
AcDbVertex
100
AcDbPolygonMeshVertex
 10
307.0127498389727
 20
-93.05189894399836
 30
146.4028919547091
 70
    64
  0
VERTEX
  5
48D37
330
48D25
100
AcDbEntity
  8
0
100
AcDbVertex
100
AcDbPolygonMeshVertex
 10
307.0127498389727
 20
-87.97189894399833
 30
146.4028919547091
 70
    64
  0
SEQEND
  5
48D38
330
48D25
100
AcDbEntity
  8
0
  0
POLYLINE
  5
48D39
330
458D6
100
AcDbEntity
  8
0
100
AcDbPolygonMesh
 66
     1
 10
0.0
 20
0.0
 30
0.0
 70
    16
 71
     6
 72
     3
  0
VERTEX
  5
48D3A
330
48D39
100
AcDbEntity
  8
0
100
AcDbVertex
100
AcDbPolygonMeshVertex
 10
314.3787498389727
 20
-87.97189894399833
 30
146.4028919547091
 70
    64
  0
VERTEX
  5
48D3B
330
48D39
100
AcDbEntity
  8
0
100
AcDbVertex
100
AcDbPolygonMeshVertex
 10
314.3787498389727
 20
-87.97189894399833
 30
70.20289195470917
 70
    64
  0
VERTEX
  5
48D3C
330
48D39
100
AcDbEntity
  8
0
100
AcDbVertex
100
AcDbPolygonMeshVertex
 10
314.3787498389727
 20
-87.97189894399833
 30
70.20289195470917
 70
    64
  0
VERTEX
  5
48D3D
330
48D39
100
AcDbEntity
  8
0
100
AcDbVertex
100
AcDbPolygonMeshVertex
 10
311.8387498389728
 20
-87.97189894399833
 30
146.4028919547091
 70
    64
  0
VERTEX
  5
48D3E
330
48D39
100
AcDbEntity
  8
0
100
AcDbVertex
100
AcDbPolygonMeshVertex
 10
311.8387498389728
 20
-87.97189894399833
 30
70.20289195470917
 70
    64
  0
VERTEX
  5
48D3F
330
48D39
100
AcDbEntity
  8
0
100
AcDbVertex
100
AcDbPolygonMeshVertex
 10
311.8387498389728
 20
-87.97189894399833
 30
70.20289195470917
 70
    64
  0
VERTEX
  5
48D40
330
48D39
100
AcDbEntity
  8
0
100
AcDbVertex
100
AcDbPolygonMeshVertex
 10
311.8387498389728
 20
-93.05189894399836
 30
146.4028919547091
 70
    64
  0
VERTEX
  5
48D41
330
48D39
100
AcDbEntity
  8
0
100
AcDbVertex
100
AcDbPolygonMeshVertex
 10
311.8387498389728
 20
-93.05189894399836
 30
70.20289195470917
 70
    64
  0
VERTEX
  5
48D42
330
48D39
100
AcDbEntity
  8
0
100
AcDbVertex
100
AcDbPolygonMeshVertex
 10
311.8387498389728
 20
-87.97189894399833
 30
70.20289195470917
 70
    64
  0
VERTEX
  5
48D43
330
48D39
100
AcDbEntity
  8
0
100
AcDbVertex
100
AcDbPolygonMeshVertex
 10
314.3787498389727
 20
-93.05189894399836
 30
146.4028919547091
 70
    64
  0
VERTEX
  5
48D44
330
48D39
100
AcDbEntity
  8
0
100
AcDbVertex
100
AcDbPolygonMeshVertex
 10
314.3787498389727
 20
-93.05189894399836
 30
70.20289195470917
 70
    64
  0
VERTEX
  5
48D45
330
48D39
100
AcDbEntity
  8
0
100
AcDbVertex
100
AcDbPolygonMeshVertex
 10
314.3787498389727
 20
-87.97189894399833
 30
70.20289195470917
 70
    64
  0
VERTEX
  5
48D46
330
48D39
100
AcDbEntity
  8
0
100
AcDbVertex
100
AcDbPolygonMeshVertex
 10
314.3787498389727
 20
-93.05189894399836
 30
146.4028919547091
 70
    64
  0
VERTEX
  5
48D47
330
48D39
100
AcDbEntity
  8
0
100
AcDbVertex
100
AcDbPolygonMeshVertex
 10
314.3787498389727
 20
-93.05189894399836
 30
146.4028919547091
 70
    64
  0
VERTEX
  5
48D48
330
48D39
100
AcDbEntity
  8
0
100
AcDbVertex
100
AcDbPolygonMeshVertex
 10
314.3787498389727
 20
-87.97189894399833
 30
146.4028919547091
 70
    64
  0
VERTEX
  5
48D49
330
48D39
100
AcDbEntity
  8
0
100
AcDbVertex
100
AcDbPolygonMeshVertex
 10
311.8387498389728
 20
-93.05189894399836
 30
146.4028919547091
 70
    64
  0
VERTEX
  5
48D4A
330
48D39
100
AcDbEntity
  8
0
100
AcDbVertex
100
AcDbPolygonMeshVertex
 10
311.8387498389728
 20
-93.05189894399836
 30
146.4028919547091
 70
    64
  0
VERTEX
  5
48D4B
330
48D39
100
AcDbEntity
  8
0
100
AcDbVertex
100
AcDbPolygonMeshVertex
 10
311.8387498389728
 20
-87.97189894399833
 30
146.4028919547091
 70
    64
  0
SEQEND
  5
48D4C
330
48D39
100
AcDbEntity
  8
0
  0
POLYLINE
  5
48D4D
330
458D6
100
AcDbEntity
  8
0
100
AcDbPolygonMesh
 66
     1
 10
0.0
 20
0.0
 30
0.0
 70
    16
 71
     6
 72
     3
  0
VERTEX
  5
48D4E
330
48D4D
100
AcDbEntity
  8
0
100
AcDbVertex
100
AcDbPolygonMeshVertex
 10
311.8387498389728
 20
-87.97189894399833
 30
146.4028919547091
 70
    64
  0
VERTEX
  5
48D4F
330
48D4D
100
AcDbEntity
  8
0
100
AcDbVertex
100
AcDbPolygonMeshVertex
 10
311.8387498389728
 20
-87.97189894399833
 30
70.20289195470917
 70
    64
  0
VERTEX
  5
48D50
330
48D4D
100
AcDbEntity
  8
0
100
AcDbVertex
100
AcDbPolygonMeshVertex
 10
311.8387498389728
 20
-87.97189894399833
 30
70.20289195470917
 70
    64
  0
VERTEX
  5
48D51
330
48D4D
100
AcDbEntity
  8
0
100
AcDbVertex
100
AcDbPolygonMeshVertex
 10
309.5527498389728
 20
-87.97189894399833
 30
146.4028919547091
 70
    64
  0
VERTEX
  5
48D52
330
48D4D
100
AcDbEntity
  8
0
100
AcDbVertex
100
AcDbPolygonMeshVertex
 10
309.5527498389728
 20
-87.97189894399833
 30
70.20289195470917
 70
    64
  0
VERTEX
  5
48D53
330
48D4D
100
AcDbEntity
  8
0
100
AcDbVertex
100
AcDbPolygonMeshVertex
 10
309.5527498389728
 20
-87.97189894399833
 30
70.20289195470917
 70
    64
  0
VERTEX
  5
48D54
330
48D4D
100
AcDbEntity
  8
0
100
AcDbVertex
100
AcDbPolygonMeshVertex
 10
309.5527498389728
 20
-89.87689894399835
 30
146.4028919547091
 70
    64
  0
VERTEX
  5
48D55
330
48D4D
100
AcDbEntity
  8
0
100
AcDbVertex
100
AcDbPolygonMeshVertex
 10
309.5527498389728
 20
-89.87689894399835
 30
70.20289195470917
 70
    64
  0
VERTEX
  5
48D56
330
48D4D
100
AcDbEntity
  8
0
100
AcDbVertex
100
AcDbPolygonMeshVertex
 10
309.5527498389728
 20
-87.97189894399833
 30
70.20289195470917
 70
    64
  0
VERTEX
  5
48D57
330
48D4D
100
AcDbEntity
  8
0
100
AcDbVertex
100
AcDbPolygonMeshVertex
 10
311.8387498389728
 20
-89.87689894399835
 30
146.4028919547091
 70
    64
  0
VERTEX
  5
48D58
330
48D4D
100
AcDbEntity
  8
0
100
AcDbVertex
100
AcDbPolygonMeshVertex
 10
311.8387498389728
 20
-89.87689894399835
 30
70.20289195470917
 70
    64
  0
VERTEX
  5
48D59
330
48D4D
100
AcDbEntity
  8
0
100
AcDbVertex
100
AcDbPolygonMeshVertex
 10
311.8387498389728
 20
-87.97189894399833
 30
70.20289195470917
 70
    64
  0
VERTEX
  5
48D5A
330
48D4D
100
AcDbEntity
  8
0
100
AcDbVertex
100
AcDbPolygonMeshVertex
 10
311.8387498389728
 20
-89.87689894399835
 30
146.4028919547091
 70
    64
  0
VERTEX
  5
48D5B
330
48D4D
100
AcDbEntity
  8
0
100
AcDbVertex
100
AcDbPolygonMeshVertex
 10
311.8387498389728
 20
-89.87689894399835
 30
146.4028919547091
 70
    64
  0
VERTEX
  5
48D5C
330
48D4D
100
AcDbEntity
  8
0
100
AcDbVertex
100
AcDbPolygonMeshVertex
 10
311.8387498389728
 20
-87.97189894399833
 30
146.4028919547091
 70
    64
  0
VERTEX
  5
48D5D
330
48D4D
100
AcDbEntity
  8
0
100
AcDbVertex
100
AcDbPolygonMeshVertex
 10
309.5527498389728
 20
-89.87689894399835
 30
146.4028919547091
 70
    64
  0
VERTEX
  5
48D5E
330
48D4D
100
AcDbEntity
  8
0
100
AcDbVertex
100
AcDbPolygonMeshVertex
 10
309.5527498389728
 20
-89.87689894399835
 30
146.4028919547091
 70
    64
  0
VERTEX
  5
48D5F
330
48D4D
100
AcDbEntity
  8
0
100
AcDbVertex
100
AcDbPolygonMeshVertex
 10
309.5527498389728
 20
-87.97189894399833
 30
146.4028919547091
 70
    64
  0
SEQEND
  5
48D60
330
48D4D
100
AcDbEntity
  8
0
  0
POLYLINE
  5
48D61
330
458D6
100
AcDbEntity
  8
0
100
AcDbPolygonMesh
 66
     1
 10
0.0
 20
0.0
 30
0.0
 70
    16
 71
     6
 72
     3
  0
VERTEX
  5
48D62
330
48D61
100
AcDbEntity
  8
0
100
AcDbVertex
100
AcDbPolygonMeshVertex
 10
346.7637498389728
 20
-87.97189894399835
 30
146.4028919547091
 70
    64
  0
VERTEX
  5
48D63
330
48D61
100
AcDbEntity
  8
0
100
AcDbVertex
100
AcDbPolygonMeshVertex
 10
346.7637498389728
 20
-87.97189894399835
 30
70.20289195470913
 70
    64
  0
VERTEX
  5
48D64
330
48D61
100
AcDbEntity
  8
0
100
AcDbVertex
100
AcDbPolygonMeshVertex
 10
346.7637498389728
 20
-87.97189894399835
 30
70.20289195470913
 70
    64
  0
VERTEX
  5
48D65
330
48D61
100
AcDbEntity
  8
0
100
AcDbVertex
100
AcDbPolygonMeshVertex
 10
344.4777498389728
 20
-87.97189894399835
 30
146.4028919547091
 70
    64
  0
VERTEX
  5
48D66
330
48D61
100
AcDbEntity
  8
0
100
AcDbVertex
100
AcDbPolygonMeshVertex
 10
344.4777498389728
 20
-87.97189894399835
 30
70.20289195470913
 70
    64
  0
VERTEX
  5
48D67
330
48D61
100
AcDbEntity
  8
0
100
AcDbVertex
100
AcDbPolygonMeshVertex
 10
344.4777498389728
 20
-87.97189894399835
 30
70.20289195470913
 70
    64
  0
VERTEX
  5
48D68
330
48D61
100
AcDbEntity
  8
0
100
AcDbVertex
100
AcDbPolygonMeshVertex
 10
344.4777498389728
 20
-89.87689894399835
 30
146.4028919547091
 70
    64
  0
VERTEX
  5
48D69
330
48D61
100
AcDbEntity
  8
0
100
AcDbVertex
100
AcDbPolygonMeshVertex
 10
344.4777498389728
 20
-89.87689894399835
 30
70.20289195470913
 70
    64
  0
VERTEX
  5
48D6A
330
48D61
100
AcDbEntity
  8
0
100
AcDbVertex
100
AcDbPolygonMeshVertex
 10
344.4777498389728
 20
-87.97189894399835
 30
70.20289195470913
 70
    64
  0
VERTEX
  5
48D6B
330
48D61
100
AcDbEntity
  8
0
100
AcDbVertex
100
AcDbPolygonMeshVertex
 10
346.7637498389728
 20
-89.87689894399835
 30
146.4028919547091
 70
    64
  0
VERTEX
  5
48D6C
330
48D61
100
AcDbEntity
  8
0
100
AcDbVertex
100
AcDbPolygonMeshVertex
 10
346.7637498389728
 20
-89.87689894399835
 30
70.20289195470913
 70
    64
  0
VERTEX
  5
48D6D
330
48D61
100
AcDbEntity
  8
0
100
AcDbVertex
100
AcDbPolygonMeshVertex
 10
346.7637498389728
 20
-87.97189894399835
 30
70.20289195470913
 70
    64
  0
VERTEX
  5
48D6E
330
48D61
100
AcDbEntity
  8
0
100
AcDbVertex
100
AcDbPolygonMeshVertex
 10
346.7637498389728
 20
-89.87689894399835
 30
146.4028919547091
 70
    64
  0
VERTEX
  5
48D6F
330
48D61
100
AcDbEntity
  8
0
100
AcDbVertex
100
AcDbPolygonMeshVertex
 10
346.7637498389728
 20
-89.87689894399835
 30
146.4028919547091
 70
    64
  0
VERTEX
  5
48D70
330
48D61
100
AcDbEntity
  8
0
100
AcDbVertex
100
AcDbPolygonMeshVertex
 10
346.7637498389728
 20
-87.97189894399835
 30
146.4028919547091
 70
    64
  0
VERTEX
  5
48D71
330
48D61
100
AcDbEntity
  8
0
100
AcDbVertex
100
AcDbPolygonMeshVertex
 10
344.4777498389728
 20
-89.87689894399835
 30
146.4028919547091
 70
    64
  0
VERTEX
  5
48D72
330
48D61
100
AcDbEntity
  8
0
100
AcDbVertex
100
AcDbPolygonMeshVertex
 10
344.4777498389728
 20
-89.87689894399835
 30
146.4028919547091
 70
    64
  0
VERTEX
  5
48D73
330
48D61
100
AcDbEntity
  8
0
100
AcDbVertex
100
AcDbPolygonMeshVertex
 10
344.4777498389728
 20
-87.97189894399835
 30
146.4028919547091
 70
    64
  0
SEQEND
  5
48D74
330
48D61
100
AcDbEntity
  8
0
  0
POLYLINE
  5
48D75
330
458D6
100
AcDbEntity
  8
0
100
AcDbPolygonMesh
 66
     1
 10
0.0
 20
0.0
 30
0.0
 70
    16
 71
     6
 72
     3
  0
VERTEX
  5
48D76
330
48D75
100
AcDbEntity
  8
0
100
AcDbVertex
100
AcDbPolygonMeshVertex
 10
349.3037498389728
 20
-87.97189894399835
 30
146.4028919547091
 70
    64
  0
VERTEX
  5
48D77
330
48D75
100
AcDbEntity
  8
0
100
AcDbVertex
100
AcDbPolygonMeshVertex
 10
349.3037498389728
 20
-87.97189894399835
 30
70.20289195470915
 70
    64
  0
VERTEX
  5
48D78
330
48D75
100
AcDbEntity
  8
0
100
AcDbVertex
100
AcDbPolygonMeshVertex
 10
349.3037498389728
 20
-87.97189894399835
 30
70.20289195470915
 70
    64
  0
VERTEX
  5
48D79
330
48D75
100
AcDbEntity
  8
0
100
AcDbVertex
100
AcDbPolygonMeshVertex
 10
346.7637498389728
 20
-87.97189894399835
 30
146.4028919547091
 70
    64
  0
VERTEX
  5
48D7A
330
48D75
100
AcDbEntity
  8
0
100
AcDbVertex
100
AcDbPolygonMeshVertex
 10
346.7637498389728
 20
-87.97189894399835
 30
70.20289195470915
 70
    64
  0
VERTEX
  5
48D7B
330
48D75
100
AcDbEntity
  8
0
100
AcDbVertex
100
AcDbPolygonMeshVertex
 10
346.7637498389728
 20
-87.97189894399835
 30
70.20289195470915
 70
    64
  0
VERTEX
  5
48D7C
330
48D75
100
AcDbEntity
  8
0
100
AcDbVertex
100
AcDbPolygonMeshVertex
 10
346.7637498389728
 20
-93.05189894399836
 30
146.4028919547091
 70
    64
  0
VERTEX
  5
48D7D
330
48D75
100
AcDbEntity
  8
0
100
AcDbVertex
100
AcDbPolygonMeshVertex
 10
346.7637498389728
 20
-93.05189894399836
 30
70.20289195470915
 70
    64
  0
VERTEX
  5
48D7E
330
48D75
100
AcDbEntity
  8
0
100
AcDbVertex
100
AcDbPolygonMeshVertex
 10
346.7637498389728
 20
-87.97189894399835
 30
70.20289195470915
 70
    64
  0
VERTEX
  5
48D7F
330
48D75
100
AcDbEntity
  8
0
100
AcDbVertex
100
AcDbPolygonMeshVertex
 10
349.3037498389728
 20
-93.05189894399836
 30
146.4028919547091
 70
    64
  0
VERTEX
  5
48D80
330
48D75
100
AcDbEntity
  8
0
100
AcDbVertex
100
AcDbPolygonMeshVertex
 10
349.3037498389728
 20
-93.05189894399836
 30
70.20289195470915
 70
    64
  0
VERTEX
  5
48D81
330
48D75
100
AcDbEntity
  8
0
100
AcDbVertex
100
AcDbPolygonMeshVertex
 10
349.3037498389728
 20
-87.97189894399835
 30
70.20289195470915
 70
    64
  0
VERTEX
  5
48D82
330
48D75
100
AcDbEntity
  8
0
100
AcDbVertex
100
AcDbPolygonMeshVertex
 10
349.3037498389728
 20
-93.05189894399836
 30
146.4028919547091
 70
    64
  0
VERTEX
  5
48D83
330
48D75
100
AcDbEntity
  8
0
100
AcDbVertex
100
AcDbPolygonMeshVertex
 10
349.3037498389728
 20
-93.05189894399836
 30
146.4028919547091
 70
    64
  0
VERTEX
  5
48D84
330
48D75
100
AcDbEntity
  8
0
100
AcDbVertex
100
AcDbPolygonMeshVertex
 10
349.3037498389728
 20
-87.97189894399835
 30
146.4028919547091
 70
    64
  0
VERTEX
  5
48D85
330
48D75
100
AcDbEntity
  8
0
100
AcDbVertex
100
AcDbPolygonMeshVertex
 10
346.7637498389728
 20
-93.05189894399836
 30
146.4028919547091
 70
    64
  0
VERTEX
  5
48D86
330
48D75
100
AcDbEntity
  8
0
100
AcDbVertex
100
AcDbPolygonMeshVertex
 10
346.7637498389728
 20
-93.05189894399836
 30
146.4028919547091
 70
    64
  0
VERTEX
  5
48D87
330
48D75
100
AcDbEntity
  8
0
100
AcDbVertex
100
AcDbPolygonMeshVertex
 10
346.7637498389728
 20
-87.97189894399835
 30
146.4028919547091
 70
    64
  0
SEQEND
  5
48D88
330
48D75
100
AcDbEntity
  8
0
  0
POLYLINE
  5
48D89
330
458D6
100
AcDbEntity
  8
0
100
AcDbPolygonMesh
 66
     1
 10
0.0
 20
0.0
 30
0.0
 70
    16
 71
     6
 72
     3
  0
VERTEX
  5
48D8A
330
48D89
100
AcDbEntity
  8
0
100
AcDbVertex
100
AcDbPolygonMeshVertex
 10
344.4777498389728
 20
-87.97189894399835
 30
146.4028919547091
 70
    64
  0
VERTEX
  5
48D8B
330
48D89
100
AcDbEntity
  8
0
100
AcDbVertex
100
AcDbPolygonMeshVertex
 10
344.4777498389728
 20
-87.97189894399835
 30
70.20289195470915
 70
    64
  0
VERTEX
  5
48D8C
330
48D89
100
AcDbEntity
  8
0
100
AcDbVertex
100
AcDbPolygonMeshVertex
 10
344.4777498389728
 20
-87.97189894399835
 30
70.20289195470915
 70
    64
  0
VERTEX
  5
48D8D
330
48D89
100
AcDbEntity
  8
0
100
AcDbVertex
100
AcDbPolygonMeshVertex
 10
341.9377498389728
 20
-87.97189894399835
 30
146.4028919547091
 70
    64
  0
VERTEX
  5
48D8E
330
48D89
100
AcDbEntity
  8
0
100
AcDbVertex
100
AcDbPolygonMeshVertex
 10
341.9377498389728
 20
-87.97189894399835
 30
70.20289195470915
 70
    64
  0
VERTEX
  5
48D8F
330
48D89
100
AcDbEntity
  8
0
100
AcDbVertex
100
AcDbPolygonMeshVertex
 10
341.9377498389728
 20
-87.97189894399835
 30
70.20289195470915
 70
    64
  0
VERTEX
  5
48D90
330
48D89
100
AcDbEntity
  8
0
100
AcDbVertex
100
AcDbPolygonMeshVertex
 10
341.9377498389728
 20
-93.05189894399836
 30
146.4028919547091
 70
    64
  0
VERTEX
  5
48D91
330
48D89
100
AcDbEntity
  8
0
100
AcDbVertex
100
AcDbPolygonMeshVertex
 10
341.9377498389728
 20
-93.05189894399836
 30
70.20289195470915
 70
    64
  0
VERTEX
  5
48D92
330
48D89
100
AcDbEntity
  8
0
100
AcDbVertex
100
AcDbPolygonMeshVertex
 10
341.9377498389728
 20
-87.97189894399835
 30
70.20289195470915
 70
    64
  0
VERTEX
  5
48D93
330
48D89
100
AcDbEntity
  8
0
100
AcDbVertex
100
AcDbPolygonMeshVertex
 10
344.4777498389728
 20
-93.05189894399836
 30
146.4028919547091
 70
    64
  0
VERTEX
  5
48D94
330
48D89
100
AcDbEntity
  8
0
100
AcDbVertex
100
AcDbPolygonMeshVertex
 10
344.4777498389728
 20
-93.05189894399836
 30
70.20289195470915
 70
    64
  0
VERTEX
  5
48D95
330
48D89
100
AcDbEntity
  8
0
100
AcDbVertex
100
AcDbPolygonMeshVertex
 10
344.4777498389728
 20
-87.97189894399835
 30
70.20289195470915
 70
    64
  0
VERTEX
  5
48D96
330
48D89
100
AcDbEntity
  8
0
100
AcDbVertex
100
AcDbPolygonMeshVertex
 10
344.4777498389728
 20
-93.05189894399836
 30
146.4028919547091
 70
    64
  0
VERTEX
  5
48D97
330
48D89
100
AcDbEntity
  8
0
100
AcDbVertex
100
AcDbPolygonMeshVertex
 10
344.4777498389728
 20
-93.05189894399836
 30
146.4028919547091
 70
    64
  0
VERTEX
  5
48D98
330
48D89
100
AcDbEntity
  8
0
100
AcDbVertex
100
AcDbPolygonMeshVertex
 10
344.4777498389728
 20
-87.97189894399835
 30
146.4028919547091
 70
    64
  0
VERTEX
  5
48D99
330
48D89
100
AcDbEntity
  8
0
100
AcDbVertex
100
AcDbPolygonMeshVertex
 10
341.9377498389728
 20
-93.05189894399836
 30
146.4028919547091
 70
    64
  0
VERTEX
  5
48D9A
330
48D89
100
AcDbEntity
  8
0
100
AcDbVertex
100
AcDbPolygonMeshVertex
 10
341.9377498389728
 20
-93.05189894399836
 30
146.4028919547091
 70
    64
  0
VERTEX
  5
48D9B
330
48D89
100
AcDbEntity
  8
0
100
AcDbVertex
100
AcDbPolygonMeshVertex
 10
341.9377498389728
 20
-87.97189894399835
 30
146.4028919547091
 70
    64
  0
SEQEND
  5
48D9C
330
48D89
100
AcDbEntity
  8
0
  0
POLYLINE
  5
48D9D
330
458D6
100
AcDbEntity
  8
0
100
AcDbPolygonMesh
 66
     1
 10
0.0
 20
0.0
 30
0.0
 70
    16
 71
     6
 72
     3
  0
VERTEX
  5
48D9E
330
48D9D
100
AcDbEntity
  8
0
100
AcDbVertex
100
AcDbPolygonMeshVertex
 10
365.6869123083243
 20
-215.9364682231859
 30
213.9668919547091
 70
    64
  0
VERTEX
  5
48D9F
330
48D9D
100
AcDbEntity
  8
0
100
AcDbVertex
100
AcDbPolygonMeshVertex
 10
365.6869123083243
 20
-215.9364682231859
 30
68.93289195470919
 70
    64
  0
VERTEX
  5
48DA0
330
48D9D
100
AcDbEntity
  8
0
100
AcDbVertex
100
AcDbPolygonMeshVertex
 10
365.6869123083243
 20
-215.9364682231859
 30
68.93289195470919
 70
    64
  0
VERTEX
  5
48DA1
330
48D9D
100
AcDbEntity
  8
0
100
AcDbVertex
100
AcDbPolygonMeshVertex
 10
355.5269123083243
 20
-215.9364682231859
 30
213.9668919547091
 70
    64
  0
VERTEX
  5
48DA2
330
48D9D
100
AcDbEntity
  8
0
100
AcDbVertex
100
AcDbPolygonMeshVertex
 10
355.5269123083243
 20
-215.9364682231859
 30
68.93289195470919
 70
    64
  0
VERTEX
  5
48DA3
330
48D9D
100
AcDbEntity
  8
0
100
AcDbVertex
100
AcDbPolygonMeshVertex
 10
355.5269123083243
 20
-215.9364682231859
 30
68.93289195470919
 70
    64
  0
VERTEX
  5
48DA4
330
48D9D
100
AcDbEntity
  8
0
100
AcDbVertex
100
AcDbPolygonMeshVertex
 10
355.5269123083243
 20
-96.30246822318595
 30
213.9668919547091
 70
    64
  0
VERTEX
  5
48DA5
330
48D9D
100
AcDbEntity
  8
0
100
AcDbVertex
100
AcDbPolygonMeshVertex
 10
355.5269123083243
 20
-96.30246822318595
 30
68.93289195470919
 70
    64
  0
VERTEX
  5
48DA6
330
48D9D
100
AcDbEntity
  8
0
100
AcDbVertex
100
AcDbPolygonMeshVertex
 10
355.5269123083243
 20
-215.9364682231859
 30
68.93289195470919
 70
    64
  0
VERTEX
  5
48DA7
330
48D9D
100
AcDbEntity
  8
0
100
AcDbVertex
100
AcDbPolygonMeshVertex
 10
365.6869123083243
 20
-96.30246822318595
 30
213.9668919547091
 70
    64
  0
VERTEX
  5
48DA8
330
48D9D
100
AcDbEntity
  8
0
100
AcDbVertex
100
AcDbPolygonMeshVertex
 10
365.6869123083243
 20
-96.30246822318595
 30
68.93289195470919
 70
    64
  0
VERTEX
  5
48DA9
330
48D9D
100
AcDbEntity
  8
0
100
AcDbVertex
100
AcDbPolygonMeshVertex
 10
365.6869123083243
 20
-215.9364682231859
 30
68.93289195470919
 70
    64
  0
VERTEX
  5
48DAA
330
48D9D
100
AcDbEntity
  8
0
100
AcDbVertex
100
AcDbPolygonMeshVertex
 10
365.6869123083243
 20
-96.30246822318595
 30
213.9668919547091
 70
    64
  0
VERTEX
  5
48DAB
330
48D9D
100
AcDbEntity
  8
0
100
AcDbVertex
100
AcDbPolygonMeshVertex
 10
365.6869123083243
 20
-96.30246822318595
 30
213.9668919547091
 70
    64
  0
VERTEX
  5
48DAC
330
48D9D
100
AcDbEntity
  8
0
100
AcDbVertex
100
AcDbPolygonMeshVertex
 10
365.6869123083243
 20
-215.9364682231859
 30
213.9668919547091
 70
    64
  0
VERTEX
  5
48DAD
330
48D9D
100
AcDbEntity
  8
0
100
AcDbVertex
100
AcDbPolygonMeshVertex
 10
355.5269123083243
 20
-96.30246822318595
 30
213.9668919547091
 70
    64
  0
VERTEX
  5
48DAE
330
48D9D
100
AcDbEntity
  8
0
100
AcDbVertex
100
AcDbPolygonMeshVertex
 10
355.5269123083243
 20
-96.30246822318595
 30
213.9668919547091
 70
    64
  0
VERTEX
  5
48DAF
330
48D9D
100
AcDbEntity
  8
0
100
AcDbVertex
100
AcDbPolygonMeshVertex
 10
355.5269123083243
 20
-215.9364682231859
 30
213.9668919547091
 70
    64
  0
SEQEND
  5
48DB0
330
48D9D
100
AcDbEntity
  8
0
  0
POLYLINE
  5
48DB1
330
458D6
100
AcDbEntity
  8
0
100
AcDbPolygonMesh
 66
     1
 10
0.0
 20
0.0
 30
0.0
 70
    16
 71
     6
 72
     3
  0
VERTEX
  5
48DB2
330
48DB1
100
AcDbEntity
  8
0
100
AcDbVertex
100
AcDbPolygonMeshVertex
 10
344.4777498389728
 20
-224.2670375023735
 30
146.4028919547091
 70
    64
  0
VERTEX
  5
48DB3
330
48DB1
100
AcDbEntity
  8
0
100
AcDbVertex
100
AcDbPolygonMeshVertex
 10
344.4777498389728
 20
-224.2670375023735
 30
70.20289195470915
 70
    64
  0
VERTEX
  5
48DB4
330
48DB1
100
AcDbEntity
  8
0
100
AcDbVertex
100
AcDbPolygonMeshVertex
 10
344.4777498389728
 20
-224.2670375023735
 30
70.20289195470915
 70
    64
  0
VERTEX
  5
48DB5
330
48DB1
100
AcDbEntity
  8
0
100
AcDbVertex
100
AcDbPolygonMeshVertex
 10
341.9377498389728
 20
-224.2670375023735
 30
146.4028919547091
 70
    64
  0
VERTEX
  5
48DB6
330
48DB1
100
AcDbEntity
  8
0
100
AcDbVertex
100
AcDbPolygonMeshVertex
 10
341.9377498389728
 20
-224.2670375023735
 30
70.20289195470915
 70
    64
  0
VERTEX
  5
48DB7
330
48DB1
100
AcDbEntity
  8
0
100
AcDbVertex
100
AcDbPolygonMeshVertex
 10
341.9377498389728
 20
-224.2670375023735
 30
70.20289195470915
 70
    64
  0
VERTEX
  5
48DB8
330
48DB1
100
AcDbEntity
  8
0
100
AcDbVertex
100
AcDbPolygonMeshVertex
 10
341.9377498389728
 20
-219.1870375023735
 30
146.4028919547091
 70
    64
  0
VERTEX
  5
48DB9
330
48DB1
100
AcDbEntity
  8
0
100
AcDbVertex
100
AcDbPolygonMeshVertex
 10
341.9377498389728
 20
-219.1870375023735
 30
70.20289195470915
 70
    64
  0
VERTEX
  5
48DBA
330
48DB1
100
AcDbEntity
  8
0
100
AcDbVertex
100
AcDbPolygonMeshVertex
 10
341.9377498389728
 20
-224.2670375023735
 30
70.20289195470915
 70
    64
  0
VERTEX
  5
48DBB
330
48DB1
100
AcDbEntity
  8
0
100
AcDbVertex
100
AcDbPolygonMeshVertex
 10
344.4777498389728
 20
-219.1870375023735
 30
146.4028919547091
 70
    64
  0
VERTEX
  5
48DBC
330
48DB1
100
AcDbEntity
  8
0
100
AcDbVertex
100
AcDbPolygonMeshVertex
 10
344.4777498389728
 20
-219.1870375023735
 30
70.20289195470915
 70
    64
  0
VERTEX
  5
48DBD
330
48DB1
100
AcDbEntity
  8
0
100
AcDbVertex
100
AcDbPolygonMeshVertex
 10
344.4777498389728
 20
-224.2670375023735
 30
70.20289195470915
 70
    64
  0
VERTEX
  5
48DBE
330
48DB1
100
AcDbEntity
  8
0
100
AcDbVertex
100
AcDbPolygonMeshVertex
 10
344.4777498389728
 20
-219.1870375023735
 30
146.4028919547091
 70
    64
  0
VERTEX
  5
48DBF
330
48DB1
100
AcDbEntity
  8
0
100
AcDbVertex
100
AcDbPolygonMeshVertex
 10
344.4777498389728
 20
-219.1870375023735
 30
146.4028919547091
 70
    64
  0
VERTEX
  5
48DC0
330
48DB1
100
AcDbEntity
  8
0
100
AcDbVertex
100
AcDbPolygonMeshVertex
 10
344.4777498389728
 20
-224.2670375023735
 30
146.4028919547091
 70
    64
  0
VERTEX
  5
48DC1
330
48DB1
100
AcDbEntity
  8
0
100
AcDbVertex
100
AcDbPolygonMeshVertex
 10
341.9377498389728
 20
-219.1870375023735
 30
146.4028919547091
 70
    64
  0
VERTEX
  5
48DC2
330
48DB1
100
AcDbEntity
  8
0
100
AcDbVertex
100
AcDbPolygonMeshVertex
 10
341.9377498389728
 20
-219.1870375023735
 30
146.4028919547091
 70
    64
  0
VERTEX
  5
48DC3
330
48DB1
100
AcDbEntity
  8
0
100
AcDbVertex
100
AcDbPolygonMeshVertex
 10
341.9377498389728
 20
-224.2670375023735
 30
146.4028919547091
 70
    64
  0
SEQEND
  5
48DC4
330
48DB1
100
AcDbEntity
  8
0
  0
POLYLINE
  5
48DC5
330
458D6
100
AcDbEntity
  8
0
100
AcDbPolygonMesh
 66
     1
 10
0.0
 20
0.0
 30
0.0
 70
    16
 71
     6
 72
     3
  0
VERTEX
  5
48DC6
330
48DC5
100
AcDbEntity
  8
0
100
AcDbVertex
100
AcDbPolygonMeshVertex
 10
349.3037498389728
 20
-224.2670375023735
 30
146.4028919547091
 70
    64
  0
VERTEX
  5
48DC7
330
48DC5
100
AcDbEntity
  8
0
100
AcDbVertex
100
AcDbPolygonMeshVertex
 10
349.3037498389728
 20
-224.2670375023735
 30
70.20289195470915
 70
    64
  0
VERTEX
  5
48DC8
330
48DC5
100
AcDbEntity
  8
0
100
AcDbVertex
100
AcDbPolygonMeshVertex
 10
349.3037498389728
 20
-224.2670375023735
 30
70.20289195470915
 70
    64
  0
VERTEX
  5
48DC9
330
48DC5
100
AcDbEntity
  8
0
100
AcDbVertex
100
AcDbPolygonMeshVertex
 10
346.7637498389728
 20
-224.2670375023735
 30
146.4028919547091
 70
    64
  0
VERTEX
  5
48DCA
330
48DC5
100
AcDbEntity
  8
0
100
AcDbVertex
100
AcDbPolygonMeshVertex
 10
346.7637498389728
 20
-224.2670375023735
 30
70.20289195470915
 70
    64
  0
VERTEX
  5
48DCB
330
48DC5
100
AcDbEntity
  8
0
100
AcDbVertex
100
AcDbPolygonMeshVertex
 10
346.7637498389728
 20
-224.2670375023735
 30
70.20289195470915
 70
    64
  0
VERTEX
  5
48DCC
330
48DC5
100
AcDbEntity
  8
0
100
AcDbVertex
100
AcDbPolygonMeshVertex
 10
346.7637498389728
 20
-219.1870375023735
 30
146.4028919547091
 70
    64
  0
VERTEX
  5
48DCD
330
48DC5
100
AcDbEntity
  8
0
100
AcDbVertex
100
AcDbPolygonMeshVertex
 10
346.7637498389728
 20
-219.1870375023735
 30
70.20289195470915
 70
    64
  0
VERTEX
  5
48DCE
330
48DC5
100
AcDbEntity
  8
0
100
AcDbVertex
100
AcDbPolygonMeshVertex
 10
346.7637498389728
 20
-224.2670375023735
 30
70.20289195470915
 70
    64
  0
VERTEX
  5
48DCF
330
48DC5
100
AcDbEntity
  8
0
100
AcDbVertex
100
AcDbPolygonMeshVertex
 10
349.3037498389728
 20
-219.1870375023735
 30
146.4028919547091
 70
    64
  0
VERTEX
  5
48DD0
330
48DC5
100
AcDbEntity
  8
0
100
AcDbVertex
100
AcDbPolygonMeshVertex
 10
349.3037498389728
 20
-219.1870375023735
 30
70.20289195470915
 70
    64
  0
VERTEX
  5
48DD1
330
48DC5
100
AcDbEntity
  8
0
100
AcDbVertex
100
AcDbPolygonMeshVertex
 10
349.3037498389728
 20
-224.2670375023735
 30
70.20289195470915
 70
    64
  0
VERTEX
  5
48DD2
330
48DC5
100
AcDbEntity
  8
0
100
AcDbVertex
100
AcDbPolygonMeshVertex
 10
349.3037498389728
 20
-219.1870375023735
 30
146.4028919547091
 70
    64
  0
VERTEX
  5
48DD3
330
48DC5
100
AcDbEntity
  8
0
100
AcDbVertex
100
AcDbPolygonMeshVertex
 10
349.3037498389728
 20
-219.1870375023735
 30
146.4028919547091
 70
    64
  0
VERTEX
  5
48DD4
330
48DC5
100
AcDbEntity
  8
0
100
AcDbVertex
100
AcDbPolygonMeshVertex
 10
349.3037498389728
 20
-224.2670375023735
 30
146.4028919547091
 70
    64
  0
VERTEX
  5
48DD5
330
48DC5
100
AcDbEntity
  8
0
100
AcDbVertex
100
AcDbPolygonMeshVertex
 10
346.7637498389728
 20
-219.1870375023735
 30
146.4028919547091
 70
    64
  0
VERTEX
  5
48DD6
330
48DC5
100
AcDbEntity
  8
0
100
AcDbVertex
100
AcDbPolygonMeshVertex
 10
346.7637498389728
 20
-219.1870375023735
 30
146.4028919547091
 70
    64
  0
VERTEX
  5
48DD7
330
48DC5
100
AcDbEntity
  8
0
100
AcDbVertex
100
AcDbPolygonMeshVertex
 10
346.7637498389728
 20
-224.2670375023735
 30
146.4028919547091
 70
    64
  0
SEQEND
  5
48DD8
330
48DC5
100
AcDbEntity
  8
0
  0
POLYLINE
  5
48DD9
330
458D6
100
AcDbEntity
  8
0
100
AcDbPolygonMesh
 66
     1
 10
0.0
 20
0.0
 30
0.0
 70
    16
 71
     6
 72
     3
  0
VERTEX
  5
48DDA
330
48DD9
100
AcDbEntity
  8
0
100
AcDbVertex
100
AcDbPolygonMeshVertex
 10
346.7637498389728
 20
-224.2670375023735
 30
146.4028919547091
 70
    64
  0
VERTEX
  5
48DDB
330
48DD9
100
AcDbEntity
  8
0
100
AcDbVertex
100
AcDbPolygonMeshVertex
 10
346.7637498389728
 20
-224.2670375023735
 30
70.20289195470913
 70
    64
  0
VERTEX
  5
48DDC
330
48DD9
100
AcDbEntity
  8
0
100
AcDbVertex
100
AcDbPolygonMeshVertex
 10
346.7637498389728
 20
-224.2670375023735
 30
70.20289195470913
 70
    64
  0
VERTEX
  5
48DDD
330
48DD9
100
AcDbEntity
  8
0
100
AcDbVertex
100
AcDbPolygonMeshVertex
 10
344.4777498389728
 20
-224.2670375023735
 30
146.4028919547091
 70
    64
  0
VERTEX
  5
48DDE
330
48DD9
100
AcDbEntity
  8
0
100
AcDbVertex
100
AcDbPolygonMeshVertex
 10
344.4777498389728
 20
-224.2670375023735
 30
70.20289195470913
 70
    64
  0
VERTEX
  5
48DDF
330
48DD9
100
AcDbEntity
  8
0
100
AcDbVertex
100
AcDbPolygonMeshVertex
 10
344.4777498389728
 20
-224.2670375023735
 30
70.20289195470913
 70
    64
  0
VERTEX
  5
48DE0
330
48DD9
100
AcDbEntity
  8
0
100
AcDbVertex
100
AcDbPolygonMeshVertex
 10
344.4777498389728
 20
-222.3620375023735
 30
146.4028919547091
 70
    64
  0
VERTEX
  5
48DE1
330
48DD9
100
AcDbEntity
  8
0
100
AcDbVertex
100
AcDbPolygonMeshVertex
 10
344.4777498389728
 20
-222.3620375023735
 30
70.20289195470913
 70
    64
  0
VERTEX
  5
48DE2
330
48DD9
100
AcDbEntity
  8
0
100
AcDbVertex
100
AcDbPolygonMeshVertex
 10
344.4777498389728
 20
-224.2670375023735
 30
70.20289195470913
 70
    64
  0
VERTEX
  5
48DE3
330
48DD9
100
AcDbEntity
  8
0
100
AcDbVertex
100
AcDbPolygonMeshVertex
 10
346.7637498389728
 20
-222.3620375023735
 30
146.4028919547091
 70
    64
  0
VERTEX
  5
48DE4
330
48DD9
100
AcDbEntity
  8
0
100
AcDbVertex
100
AcDbPolygonMeshVertex
 10
346.7637498389728
 20
-222.3620375023735
 30
70.20289195470913
 70
    64
  0
VERTEX
  5
48DE5
330
48DD9
100
AcDbEntity
  8
0
100
AcDbVertex
100
AcDbPolygonMeshVertex
 10
346.7637498389728
 20
-224.2670375023735
 30
70.20289195470913
 70
    64
  0
VERTEX
  5
48DE6
330
48DD9
100
AcDbEntity
  8
0
100
AcDbVertex
100
AcDbPolygonMeshVertex
 10
346.7637498389728
 20
-222.3620375023735
 30
146.4028919547091
 70
    64
  0
VERTEX
  5
48DE7
330
48DD9
100
AcDbEntity
  8
0
100
AcDbVertex
100
AcDbPolygonMeshVertex
 10
346.7637498389728
 20
-222.3620375023735
 30
146.4028919547091
 70
    64
  0
VERTEX
  5
48DE8
330
48DD9
100
AcDbEntity
  8
0
100
AcDbVertex
100
AcDbPolygonMeshVertex
 10
346.7637498389728
 20
-224.2670375023735
 30
146.4028919547091
 70
    64
  0
VERTEX
  5
48DE9
330
48DD9
100
AcDbEntity
  8
0
100
AcDbVertex
100
AcDbPolygonMeshVertex
 10
344.4777498389728
 20
-222.3620375023735
 30
146.4028919547091
 70
    64
  0
VERTEX
  5
48DEA
330
48DD9
100
AcDbEntity
  8
0
100
AcDbVertex
100
AcDbPolygonMeshVertex
 10
344.4777498389728
 20
-222.3620375023735
 30
146.4028919547091
 70
    64
  0
VERTEX
  5
48DEB
330
48DD9
100
AcDbEntity
  8
0
100
AcDbVertex
100
AcDbPolygonMeshVertex
 10
344.4777498389728
 20
-224.2670375023735
 30
146.4028919547091
 70
    64
  0
SEQEND
  5
48DEC
330
48DD9
100
AcDbEntity
  8
0
  0
POLYLINE
  5
48DED
330
458D6
100
AcDbEntity
  8
0
100
AcDbPolygonMesh
 66
     1
 10
0.0
 20
0.0
 30
0.0
 70
    16
 71
     6
 72
     3
  0
VERTEX
  5
48DEE
330
48DED
100
AcDbEntity
  8
0
100
AcDbVertex
100
AcDbPolygonMeshVertex
 10
311.8387498389728
 20
-224.2670375023735
 30
146.4028919547091
 70
    64
  0
VERTEX
  5
48DEF
330
48DED
100
AcDbEntity
  8
0
100
AcDbVertex
100
AcDbPolygonMeshVertex
 10
311.8387498389728
 20
-224.2670375023735
 30
70.20289195470917
 70
    64
  0
VERTEX
  5
48DF0
330
48DED
100
AcDbEntity
  8
0
100
AcDbVertex
100
AcDbPolygonMeshVertex
 10
311.8387498389728
 20
-224.2670375023735
 30
70.20289195470917
 70
    64
  0
VERTEX
  5
48DF1
330
48DED
100
AcDbEntity
  8
0
100
AcDbVertex
100
AcDbPolygonMeshVertex
 10
309.5527498389728
 20
-224.2670375023735
 30
146.4028919547091
 70
    64
  0
VERTEX
  5
48DF2
330
48DED
100
AcDbEntity
  8
0
100
AcDbVertex
100
AcDbPolygonMeshVertex
 10
309.5527498389728
 20
-224.2670375023735
 30
70.20289195470917
 70
    64
  0
VERTEX
  5
48DF3
330
48DED
100
AcDbEntity
  8
0
100
AcDbVertex
100
AcDbPolygonMeshVertex
 10
309.5527498389728
 20
-224.2670375023735
 30
70.20289195470917
 70
    64
  0
VERTEX
  5
48DF4
330
48DED
100
AcDbEntity
  8
0
100
AcDbVertex
100
AcDbPolygonMeshVertex
 10
309.5527498389728
 20
-222.3620375023735
 30
146.4028919547091
 70
    64
  0
VERTEX
  5
48DF5
330
48DED
100
AcDbEntity
  8
0
100
AcDbVertex
100
AcDbPolygonMeshVertex
 10
309.5527498389728
 20
-222.3620375023735
 30
70.20289195470917
 70
    64
  0
VERTEX
  5
48DF6
330
48DED
100
AcDbEntity
  8
0
100
AcDbVertex
100
AcDbPolygonMeshVertex
 10
309.5527498389728
 20
-224.2670375023735
 30
70.20289195470917
 70
    64
  0
VERTEX
  5
48DF7
330
48DED
100
AcDbEntity
  8
0
100
AcDbVertex
100
AcDbPolygonMeshVertex
 10
311.8387498389728
 20
-222.3620375023735
 30
146.4028919547091
 70
    64
  0
VERTEX
  5
48DF8
330
48DED
100
AcDbEntity
  8
0
100
AcDbVertex
100
AcDbPolygonMeshVertex
 10
311.8387498389728
 20
-222.3620375023735
 30
70.20289195470917
 70
    64
  0
VERTEX
  5
48DF9
330
48DED
100
AcDbEntity
  8
0
100
AcDbVertex
100
AcDbPolygonMeshVertex
 10
311.8387498389728
 20
-224.2670375023735
 30
70.20289195470917
 70
    64
  0
VERTEX
  5
48DFA
330
48DED
100
AcDbEntity
  8
0
100
AcDbVertex
100
AcDbPolygonMeshVertex
 10
311.8387498389728
 20
-222.3620375023735
 30
146.4028919547091
 70
    64
  0
VERTEX
  5
48DFB
330
48DED
100
AcDbEntity
  8
0
100
AcDbVertex
100
AcDbPolygonMeshVertex
 10
311.8387498389728
 20
-222.3620375023735
 30
146.4028919547091
 70
    64
  0
VERTEX
  5
48DFC
330
48DED
100
AcDbEntity
  8
0
100
AcDbVertex
100
AcDbPolygonMeshVertex
 10
311.8387498389728
 20
-224.2670375023735
 30
146.4028919547091
 70
    64
  0
VERTEX
  5
48DFD
330
48DED
100
AcDbEntity
  8
0
100
AcDbVertex
100
AcDbPolygonMeshVertex
 10
309.5527498389728
 20
-222.3620375023735
 30
146.4028919547091
 70
    64
  0
VERTEX
  5
48DFE
330
48DED
100
AcDbEntity
  8
0
100
AcDbVertex
100
AcDbPolygonMeshVertex
 10
309.5527498389728
 20
-222.3620375023735
 30
146.4028919547091
 70
    64
  0
VERTEX
  5
48DFF
330
48DED
100
AcDbEntity
  8
0
100
AcDbVertex
100
AcDbPolygonMeshVertex
 10
309.5527498389728
 20
-224.2670375023735
 30
146.4028919547091
 70
    64
  0
SEQEND
  5
48E00
330
48DED
100
AcDbEntity
  8
0
  0
POLYLINE
  5
48E01
330
458D6
100
AcDbEntity
  8
0
100
AcDbPolygonMesh
 66
     1
 10
0.0
 20
0.0
 30
0.0
 70
    16
 71
     6
 72
     3
  0
VERTEX
  5
48E02
330
48E01
100
AcDbEntity
  8
0
100
AcDbVertex
100
AcDbPolygonMeshVertex
 10
314.3787498389727
 20
-224.2670375023735
 30
146.4028919547091
 70
    64
  0
VERTEX
  5
48E03
330
48E01
100
AcDbEntity
  8
0
100
AcDbVertex
100
AcDbPolygonMeshVertex
 10
314.3787498389727
 20
-224.2670375023735
 30
70.20289195470917
 70
    64
  0
VERTEX
  5
48E04
330
48E01
100
AcDbEntity
  8
0
100
AcDbVertex
100
AcDbPolygonMeshVertex
 10
314.3787498389727
 20
-224.2670375023735
 30
70.20289195470917
 70
    64
  0
VERTEX
  5
48E05
330
48E01
100
AcDbEntity
  8
0
100
AcDbVertex
100
AcDbPolygonMeshVertex
 10
311.8387498389728
 20
-224.2670375023735
 30
146.4028919547091
 70
    64
  0
VERTEX
  5
48E06
330
48E01
100
AcDbEntity
  8
0
100
AcDbVertex
100
AcDbPolygonMeshVertex
 10
311.8387498389728
 20
-224.2670375023735
 30
70.20289195470917
 70
    64
  0
VERTEX
  5
48E07
330
48E01
100
AcDbEntity
  8
0
100
AcDbVertex
100
AcDbPolygonMeshVertex
 10
311.8387498389728
 20
-224.2670375023735
 30
70.20289195470917
 70
    64
  0
VERTEX
  5
48E08
330
48E01
100
AcDbEntity
  8
0
100
AcDbVertex
100
AcDbPolygonMeshVertex
 10
311.8387498389728
 20
-219.1870375023735
 30
146.4028919547091
 70
    64
  0
VERTEX
  5
48E09
330
48E01
100
AcDbEntity
  8
0
100
AcDbVertex
100
AcDbPolygonMeshVertex
 10
311.8387498389728
 20
-219.1870375023735
 30
70.20289195470917
 70
    64
  0
VERTEX
  5
48E0A
330
48E01
100
AcDbEntity
  8
0
100
AcDbVertex
100
AcDbPolygonMeshVertex
 10
311.8387498389728
 20
-224.2670375023735
 30
70.20289195470917
 70
    64
  0
VERTEX
  5
48E0B
330
48E01
100
AcDbEntity
  8
0
100
AcDbVertex
100
AcDbPolygonMeshVertex
 10
314.3787498389727
 20
-219.1870375023735
 30
146.4028919547091
 70
    64
  0
VERTEX
  5
48E0C
330
48E01
100
AcDbEntity
  8
0
100
AcDbVertex
100
AcDbPolygonMeshVertex
 10
314.3787498389727
 20
-219.1870375023735
 30
70.20289195470917
 70
    64
  0
VERTEX
  5
48E0D
330
48E01
100
AcDbEntity
  8
0
100
AcDbVertex
100
AcDbPolygonMeshVertex
 10
314.3787498389727
 20
-224.2670375023735
 30
70.20289195470917
 70
    64
  0
VERTEX
  5
48E0E
330
48E01
100
AcDbEntity
  8
0
100
AcDbVertex
100
AcDbPolygonMeshVertex
 10
314.3787498389727
 20
-219.1870375023735
 30
146.4028919547091
 70
    64
  0
VERTEX
  5
48E0F
330
48E01
100
AcDbEntity
  8
0
100
AcDbVertex
100
AcDbPolygonMeshVertex
 10
314.3787498389727
 20
-219.1870375023735
 30
146.4028919547091
 70
    64
  0
VERTEX
  5
48E10
330
48E01
100
AcDbEntity
  8
0
100
AcDbVertex
100
AcDbPolygonMeshVertex
 10
314.3787498389727
 20
-224.2670375023735
 30
146.4028919547091
 70
    64
  0
VERTEX
  5
48E11
330
48E01
100
AcDbEntity
  8
0
100
AcDbVertex
100
AcDbPolygonMeshVertex
 10
311.8387498389728
 20
-219.1870375023735
 30
146.4028919547091
 70
    64
  0
VERTEX
  5
48E12
330
48E01
100
AcDbEntity
  8
0
100
AcDbVertex
100
AcDbPolygonMeshVertex
 10
311.8387498389728
 20
-219.1870375023735
 30
146.4028919547091
 70
    64
  0
VERTEX
  5
48E13
330
48E01
100
AcDbEntity
  8
0
100
AcDbVertex
100
AcDbPolygonMeshVertex
 10
311.8387498389728
 20
-224.2670375023735
 30
146.4028919547091
 70
    64
  0
SEQEND
  5
48E14
330
48E01
100
AcDbEntity
  8
0
  0
POLYLINE
  5
48E15
330
458D6
100
AcDbEntity
  8
0
100
AcDbPolygonMesh
 66
     1
 10
0.0
 20
0.0
 30
0.0
 70
    16
 71
     6
 72
     3
  0
VERTEX
  5
48E16
330
48E15
100
AcDbEntity
  8
0
100
AcDbVertex
100
AcDbPolygonMeshVertex
 10
309.5527498389728
 20
-224.2670375023735
 30
146.4028919547091
 70
    64
  0
VERTEX
  5
48E17
330
48E15
100
AcDbEntity
  8
0
100
AcDbVertex
100
AcDbPolygonMeshVertex
 10
309.5527498389728
 20
-224.2670375023735
 30
70.20289195470919
 70
    64
  0
VERTEX
  5
48E18
330
48E15
100
AcDbEntity
  8
0
100
AcDbVertex
100
AcDbPolygonMeshVertex
 10
309.5527498389728
 20
-224.2670375023735
 30
70.20289195470919
 70
    64
  0
VERTEX
  5
48E19
330
48E15
100
AcDbEntity
  8
0
100
AcDbVertex
100
AcDbPolygonMeshVertex
 10
307.0127498389727
 20
-224.2670375023735
 30
146.4028919547091
 70
    64
  0
VERTEX
  5
48E1A
330
48E15
100
AcDbEntity
  8
0
100
AcDbVertex
100
AcDbPolygonMeshVertex
 10
307.0127498389727
 20
-224.2670375023735
 30
70.20289195470919
 70
    64
  0
VERTEX
  5
48E1B
330
48E15
100
AcDbEntity
  8
0
100
AcDbVertex
100
AcDbPolygonMeshVertex
 10
307.0127498389727
 20
-224.2670375023735
 30
70.20289195470919
 70
    64
  0
VERTEX
  5
48E1C
330
48E15
100
AcDbEntity
  8
0
100
AcDbVertex
100
AcDbPolygonMeshVertex
 10
307.0127498389727
 20
-219.1870375023735
 30
146.4028919547091
 70
    64
  0
VERTEX
  5
48E1D
330
48E15
100
AcDbEntity
  8
0
100
AcDbVertex
100
AcDbPolygonMeshVertex
 10
307.0127498389727
 20
-219.1870375023735
 30
70.20289195470919
 70
    64
  0
VERTEX
  5
48E1E
330
48E15
100
AcDbEntity
  8
0
100
AcDbVertex
100
AcDbPolygonMeshVertex
 10
307.0127498389727
 20
-224.2670375023735
 30
70.20289195470919
 70
    64
  0
VERTEX
  5
48E1F
330
48E15
100
AcDbEntity
  8
0
100
AcDbVertex
100
AcDbPolygonMeshVertex
 10
309.5527498389728
 20
-219.1870375023735
 30
146.4028919547091
 70
    64
  0
VERTEX
  5
48E20
330
48E15
100
AcDbEntity
  8
0
100
AcDbVertex
100
AcDbPolygonMeshVertex
 10
309.5527498389728
 20
-219.1870375023735
 30
70.20289195470919
 70
    64
  0
VERTEX
  5
48E21
330
48E15
100
AcDbEntity
  8
0
100
AcDbVertex
100
AcDbPolygonMeshVertex
 10
309.5527498389728
 20
-224.2670375023735
 30
70.20289195470919
 70
    64
  0
VERTEX
  5
48E22
330
48E15
100
AcDbEntity
  8
0
100
AcDbVertex
100
AcDbPolygonMeshVertex
 10
309.5527498389728
 20
-219.1870375023735
 30
146.4028919547091
 70
    64
  0
VERTEX
  5
48E23
330
48E15
100
AcDbEntity
  8
0
100
AcDbVertex
100
AcDbPolygonMeshVertex
 10
309.5527498389728
 20
-219.1870375023735
 30
146.4028919547091
 70
    64
  0
VERTEX
  5
48E24
330
48E15
100
AcDbEntity
  8
0
100
AcDbVertex
100
AcDbPolygonMeshVertex
 10
309.5527498389728
 20
-224.2670375023735
 30
146.4028919547091
 70
    64
  0
VERTEX
  5
48E25
330
48E15
100
AcDbEntity
  8
0
100
AcDbVertex
100
AcDbPolygonMeshVertex
 10
307.0127498389727
 20
-219.1870375023735
 30
146.4028919547091
 70
    64
  0
VERTEX
  5
48E26
330
48E15
100
AcDbEntity
  8
0
100
AcDbVertex
100
AcDbPolygonMeshVertex
 10
307.0127498389727
 20
-219.1870375023735
 30
146.4028919547091
 70
    64
  0
VERTEX
  5
48E27
330
48E15
100
AcDbEntity
  8
0
100
AcDbVertex
100
AcDbPolygonMeshVertex
 10
307.0127498389727
 20
-224.2670375023735
 30
146.4028919547091
 70
    64
  0
SEQEND
  5
48E28
330
48E15
100
AcDbEntity
  8
0
  0
POLYLINE
  5
48E29
330
458D6
100
AcDbEntity
  8
0
100
AcDbPolygonMesh
 66
     1
 10
0.0
 20
0.0
 30
0.0
 70
    16
 71
     6
 72
     3
  0
VERTEX
  5
48E2A
330
48E29
100
AcDbEntity
  8
0
100
AcDbVertex
100
AcDbPolygonMeshVertex
 10
326.2407123083243
 20
-240.0664682231859
 30
69.94889195470914
 70
    64
  0
VERTEX
  5
48E2B
330
48E29
100
AcDbEntity
  8
0
100
AcDbVertex
100
AcDbPolygonMeshVertex
 10
326.2407123083243
 20
-240.0664682231859
 30
68.93289195470919
 70
    64
  0
VERTEX
  5
48E2C
330
48E29
100
AcDbEntity
  8
0
100
AcDbVertex
100
AcDbPolygonMeshVertex
 10
326.2407123083243
 20
-240.0664682231859
 30
68.93289195470919
 70
    64
  0
VERTEX
  5
48E2D
330
48E29
100
AcDbEntity
  8
0
100
AcDbVertex
100
AcDbPolygonMeshVertex
 10
315.2171123083242
 20
-240.0664682231859
 30
69.94889195470914
 70
    64
  0
VERTEX
  5
48E2E
330
48E29
100
AcDbEntity
  8
0
100
AcDbVertex
100
AcDbPolygonMeshVertex
 10
315.2171123083242
 20
-240.0664682231859
 30
68.93289195470919
 70
    64
  0
VERTEX
  5
48E2F
330
48E29
100
AcDbEntity
  8
0
100
AcDbVertex
100
AcDbPolygonMeshVertex
 10
315.2171123083242
 20
-240.0664682231859
 30
68.93289195470919
 70
    64
  0
VERTEX
  5
48E30
330
48E29
100
AcDbEntity
  8
0
100
AcDbVertex
100
AcDbPolygonMeshVertex
 10
315.2171123083242
 20
-226.0964682231859
 30
69.94889195470914
 70
    64
  0
VERTEX
  5
48E31
330
48E29
100
AcDbEntity
  8
0
100
AcDbVertex
100
AcDbPolygonMeshVertex
 10
315.2171123083242
 20
-226.0964682231859
 30
68.93289195470919
 70
    64
  0
VERTEX
  5
48E32
330
48E29
100
AcDbEntity
  8
0
100
AcDbVertex
100
AcDbPolygonMeshVertex
 10
315.2171123083242
 20
-240.0664682231859
 30
68.93289195470919
 70
    64
  0
VERTEX
  5
48E33
330
48E29
100
AcDbEntity
  8
0
100
AcDbVertex
100
AcDbPolygonMeshVertex
 10
326.2407123083243
 20
-226.0964682231859
 30
69.94889195470914
 70
    64
  0
VERTEX
  5
48E34
330
48E29
100
AcDbEntity
  8
0
100
AcDbVertex
100
AcDbPolygonMeshVertex
 10
326.2407123083243
 20
-226.0964682231859
 30
68.93289195470919
 70
    64
  0
VERTEX
  5
48E35
330
48E29
100
AcDbEntity
  8
0
100
AcDbVertex
100
AcDbPolygonMeshVertex
 10
326.2407123083243
 20
-240.0664682231859
 30
68.93289195470919
 70
    64
  0
VERTEX
  5
48E36
330
48E29
100
AcDbEntity
  8
0
100
AcDbVertex
100
AcDbPolygonMeshVertex
 10
326.2407123083243
 20
-226.0964682231859
 30
69.94889195470914
 70
    64
  0
VERTEX
  5
48E37
330
48E29
100
AcDbEntity
  8
0
100
AcDbVertex
100
AcDbPolygonMeshVertex
 10
326.2407123083243
 20
-226.0964682231859
 30
69.94889195470914
 70
    64
  0
VERTEX
  5
48E38
330
48E29
100
AcDbEntity
  8
0
100
AcDbVertex
100
AcDbPolygonMeshVertex
 10
326.2407123083243
 20
-240.0664682231859
 30
69.94889195470914
 70
    64
  0
VERTEX
  5
48E39
330
48E29
100
AcDbEntity
  8
0
100
AcDbVertex
100
AcDbPolygonMeshVertex
 10
315.2171123083242
 20
-226.0964682231859
 30
69.94889195470914
 70
    64
  0
VERTEX
  5
48E3A
330
48E29
100
AcDbEntity
  8
0
100
AcDbVertex
100
AcDbPolygonMeshVertex
 10
315.2171123083242
 20
-226.0964682231859
 30
69.94889195470914
 70
    64
  0
VERTEX
  5
48E3B
330
48E29
100
AcDbEntity
  8
0
100
AcDbVertex
100
AcDbPolygonMeshVertex
 10
315.2171123083242
 20
-240.0664682231859
 30
69.94889195470914
 70
    64
  0
SEQEND
  5
48E3C
330
48E29
100
AcDbEntity
  8
0
  0
CIRCLE
  5
48E3D
330
458D6
100
AcDbEntity
  8
0
100
AcDbCircle
 39
1.016
 10
320.7289123083242
 20
-233.7164682231859
 30
68.93289195470919
 40
2.755899999999993
  0
POINT
  5
48E3E
330
458D6
100
AcDbEntity
  8
SNAP_POINTS
100
AcDbPoint
 10
310.6957498389728
 20
-222.3620375023735
 30
70.20289195470917
  0
POINT
  5
48E3F
330
458D6
100
AcDbEntity
  8
SNAP_POINTS
100
AcDbPoint
 10
345.6207498389728
 20
-222.3620375023735
 30
70.20289195470913
  0
POLYLINE
  5
48E40
330
458D6
100
AcDbEntity
  8
0
100
AcDbPolygonMesh
 66
     1
 10
0.0
 20
0.0
 30
0.0
 70
    16
 71
     6
 72
     3
  0
VERTEX
  5
48E41
330
48E40
100
AcDbEntity
  8
0
100
AcDbVertex
100
AcDbPolygonMeshVertex
 10
344.4766726455334
 20
-142.0218999127756
 30
79.72789195470915
 70
    64
  0
VERTEX
  5
48E42
330
48E40
100
AcDbEntity
  8
0
100
AcDbVertex
100
AcDbPolygonMeshVertex
 10
344.4766726455334
 20
-142.0218999127756
 30
70.2028919547091
 70
    64
  0
VERTEX
  5
48E43
330
48E40
100
AcDbEntity
  8
0
100
AcDbVertex
100
AcDbPolygonMeshVertex
 10
344.4766726455334
 20
-142.0218999127756
 30
70.2028919547091
 70
    64
  0
VERTEX
  5
48E44
330
48E40
100
AcDbEntity
  8
0
100
AcDbVertex
100
AcDbPolygonMeshVertex
 10
334.3172840476704
 20
-142.0218999127756
 30
79.72789195470915
 70
    64
  0
VERTEX
  5
48E45
330
48E40
100
AcDbEntity
  8
0
100
AcDbVertex
100
AcDbPolygonMeshVertex
 10
334.3172840476704
 20
-142.0218999127756
 30
70.2028919547091
 70
    64
  0
VERTEX
  5
48E46
330
48E40
100
AcDbEntity
  8
0
100
AcDbVertex
100
AcDbPolygonMeshVertex
 10
334.3172840476704
 20
-142.0218999127756
 30
70.2028919547091
 70
    64
  0
VERTEX
  5
48E47
330
48E40
100
AcDbEntity
  8
0
100
AcDbVertex
100
AcDbPolygonMeshVertex
 10
334.3172840476704
 20
-101.3824464023128
 30
79.72789195470915
 70
    64
  0
VERTEX
  5
48E48
330
48E40
100
AcDbEntity
  8
0
100
AcDbVertex
100
AcDbPolygonMeshVertex
 10
334.3172840476704
 20
-101.3824464023128
 30
70.2028919547091
 70
    64
  0
VERTEX
  5
48E49
330
48E40
100
AcDbEntity
  8
0
100
AcDbVertex
100
AcDbPolygonMeshVertex
 10
334.3172840476704
 20
-142.0218999127756
 30
70.2028919547091
 70
    64
  0
VERTEX
  5
48E4A
330
48E40
100
AcDbEntity
  8
0
100
AcDbVertex
100
AcDbPolygonMeshVertex
 10
344.4766726455334
 20
-101.3824464023128
 30
79.72789195470915
 70
    64
  0
VERTEX
  5
48E4B
330
48E40
100
AcDbEntity
  8
0
100
AcDbVertex
100
AcDbPolygonMeshVertex
 10
344.4766726455334
 20
-101.3824464023128
 30
70.2028919547091
 70
    64
  0
VERTEX
  5
48E4C
330
48E40
100
AcDbEntity
  8
0
100
AcDbVertex
100
AcDbPolygonMeshVertex
 10
344.4766726455334
 20
-142.0218999127756
 30
70.2028919547091
 70
    64
  0
VERTEX
  5
48E4D
330
48E40
100
AcDbEntity
  8
0
100
AcDbVertex
100
AcDbPolygonMeshVertex
 10
344.4766726455334
 20
-101.3824464023128
 30
79.72789195470915
 70
    64
  0
VERTEX
  5
48E4E
330
48E40
100
AcDbEntity
  8
0
100
AcDbVertex
100
AcDbPolygonMeshVertex
 10
344.4766726455334
 20
-101.3824464023128
 30
79.72789195470915
 70
    64
  0
VERTEX
  5
48E4F
330
48E40
100
AcDbEntity
  8
0
100
AcDbVertex
100
AcDbPolygonMeshVertex
 10
344.4766726455334
 20
-142.0218999127756
 30
79.72789195470915
 70
    64
  0
VERTEX
  5
48E50
330
48E40
100
AcDbEntity
  8
0
100
AcDbVertex
100
AcDbPolygonMeshVertex
 10
334.3172840476704
 20
-101.3824464023128
 30
79.72789195470915
 70
    64
  0
VERTEX
  5
48E51
330
48E40
100
AcDbEntity
  8
0
100
AcDbVertex
100
AcDbPolygonMeshVertex
 10
334.3172840476704
 20
-101.3824464023128
 30
79.72789195470915
 70
    64
  0
VERTEX
  5
48E52
330
48E40
100
AcDbEntity
  8
0
100
AcDbVertex
100
AcDbPolygonMeshVertex
 10
334.3172840476704
 20
-142.0218999127756
 30
79.72789195470915
 70
    64
  0
SEQEND
  5
48E53
330
48E40
100
AcDbEntity
  8
0
  0
ARC
  5
48E54
330
458D6
100
AcDbEntity
  8
0
100
AcDbCircle
 39
1.016
 10
320.7289123083242
 20
-75.72846822318592
 30
68.93289195470919
 40
2.7559
100
AcDbArc
 50
356.7827327525335
 51
183.2172672474664
  0
ARC
  5
48E55
330
458D6
100
AcDbEntity
  8
0
100
AcDbCircle
 39
1.016
 10
320.7289123083242
 20
-80.64433728345049
 30
68.93289195470919
 40
5.499100000000003
100
AcDbArc
 50
120.0241420378333
 51
59.97585796216662
  0
LINE
  5
48E56
330
458D6
100
AcDbEntity
  8
0
100
AcDbLine
 10
315.2171123083241
 20
-69.12446822318597
 30
68.93289195470919
 11
312.6771123083242
 21
-69.12446822318597
 31
68.93289195470919
  0
LINE
  5
48E57
330
458D6
100
AcDbEntity
  8
0
100
AcDbLine
 10
315.2171123083242
 20
-69.12446822318599
 30
69.94889195470915
 11
312.6771123083244
 21
-69.12446822318599
 31
69.94889195470915
  0
LINE
  5
48E58
330
458D6
100
AcDbEntity
  8
0
100
AcDbLine
 10
328.7807123083241
 20
-69.12446822318594
 30
68.93289195470919
 11
326.2407123083243
 21
-69.12446822318594
 31
68.93289195470919
  0
POINT
  5
48E59
330
458D6
100
AcDbEntity
  8
DIMS-MTG-HOLES
100
AcDbPoint
 10
250.6249123083243
 20
-75.72846822318595
 30
68.93289195470919
  0
POINT
  5
48E5A
330
458D6
100
AcDbEntity
  8
DIMS-MTG-HOLES
100
AcDbPoint
 10
320.7289123083242
 20
-75.72846822318592
 30
68.93289195470919
  0
POINT
  5
48E5B
330
458D6
100
AcDbEntity
  8
DIMS-MTG-HOLES
100
AcDbPoint
 10
250.6249123083243
 20
-233.7164682231859
 30
68.93289195470919
  0
POINT
  5
48E5C
330
458D6
100
AcDbEntity
  8
DIMS-MTG-HOLES
100
AcDbPoint
 10
320.7289123083242
 20
-233.7164682231859
 30
68.93289195470919
  0
DIMENSION
  5
48E5D
330
458D6
100
AcDbEntity
  8
AREA1
100
AcDbDimension
  2
*D0
 10
390.4065336831336
 20
-69.12446822318599
 30
68.93289195470919
 11
390.4065336831336
 21
-154.5954682231859
 31
68.93289195470919
 70
    32
 71
     5
 42
170.942
  3
ABECAD_3D
100
AcDbAlignedDimension
 13
326.2407123083243
 23
-240.0664682231859
 33
68.93289195470919
 14
328.7807123083241
 24
-69.12446822318597
 34
68.93289195470919
 50
90.0
100
AcDbRotatedDimension
  0
DIMENSION
  5
48E5E
330
458D6
100
AcDbEntity
  8
AREA1
100
AcDbDimension
  2
*D1
 10
365.6869123083243
 20
-50.49699524881543
 30
68.93289195470919
 11
275.5169123083243
 21
-50.49699524881543
 31
68.93289195470919
 70
    32
 71
     5
 42
180.3399999999999
  3
ABECAD_3D
100
AcDbAlignedDimension
 13
185.3469123083243
 23
-86.14246822318596
 33
68.93289195470919
 14
365.6869123083243
 24
-96.302468223186
 34
68.93289195470919
100
AcDbRotatedDimension
  0
LWPOLYLINE
  5
48EB7
330
458D6
100
AcDbEntity
  8
SCALE
100
AcDbPolyline
 90
        4
 70
     1
 43
0.0
 38
68.93289195470919
 10
138.5240132392853
 20
-95.1836117699012
 10
167.3689852556514
 20
-95.1836117699012
 10
167.3689852556514
 20
-116.5604947660627
 10
138.5240132392853
 20
-116.5604947660627
  0
DIMENSION
  5
48EC3
330
458D6
100
AcDbEntity
  8
AREA2
100
AcDbDimension
  2
*D2
 10
377.0261172367136
 20
-69.12446822318599
 30
68.93289195470919
 11
377.0261172367137
 21
136.591636313819
 31
69.12446822318599
 70
   160
 71
     5
 42
145.0339999999999
210
0.0
220
-1.0
230
0.0
  3
ABECAD_3D
100
AcDbAlignedDimension
 13
365.6869123083243
 23
-165.4269364463719
 33
213.9668919547091
 14
355.5269123083243
 24
-155.2669364463719
 34
68.93289195470919
 50
90.0
100
AcDbRotatedDimension
  0
VIEWPORT
  5
46C1A
102
{ACAD_XDICTIONARY
360
48F50
102
}
330
458D3
100
AcDbEntity
 67
     1
  8
0
100
AcDbViewport
 10
128.4999999999999
 20
97.5
 30
0.0
 40
387.188875192604
 41
222.18
 68
     1
 69
     1
 12
128.4999999999999
 22
97.5
 13
0.0
 23
0.0
 14
0.5
 24
0.5
 15
0.5
 25
0.5
 16
0.0
 26
0.0
 36
1.0
 17
0.0
 27
0.0
 37
0.0
 42
50.0
 43
0.0
 44
0.0
 45
222.18
 50
0.0
 51
0.0
 72
 20000
 90
    32800
  1

281
     0
 71
     1
 74
     0
110
0.0
120
0.0
130
0.0
111
1.0
121
0.0
131
0.0
112
0.0
122
1.0
132
0.0
 79
     0
146
0.0
  0
VIEWPORT
  5
46C1D
102
{ACAD_XDICTIONARY
360
48F52
102
}
330
458D3
100
AcDbEntity
 67
     1
  8
AREA2
100
AcDbViewport
 10
128.4999999999999
 20
97.5
 30
0.0
 40
205.6
 41
156.0
 68
     2
 69
     2
 12
47.25261187405334
 22
-75.52941672286826
 13
0.0
 23
0.0
 14
0.25
 24
0.25
 15
0.25
 25
0.25
 16
0.0
 26
0.0
 36
1.0
 17
173.0092768357412
 27
-35.18855593766625
 37
-31.8205626843539
 42
50.0
 43
0.0
 44
0.0
 45
125.2784013534381
 50
0.0
 51
0.0
 72
 20000
 90
    32800
  1

281
     0
 71
     1
 74
     0
110
250.6249123083243
120
-75.72846822318595
130
68.93289195470919
111
1.0
121
0.0
131
0.0
112
0.0
122
1.0
132
0.0
 79
     1
146
0.0
  0
ENDSEC
  0
SECTION
  2
OBJECTS
  0
DICTIONARY
  5
458CB
330
0
100
AcDbDictionary
281
     1
  3
ACAD_COLOR
350
459D8
  3
ACAD_GROUP
350
458CC
  3
ACAD_LAYOUT
350
458FB
  3
ACAD_MATERIAL
350
459D7
  3
ACAD_MLINESTYLE
350
458D9
  3
ACAD_PLOTSETTINGS
350
458FC
  3
ACAD_PLOTSTYLENAME
350
458F9
  3
ACAD_TABLESTYLE
350
46AA4
  3
ACDBHEADERROUNDTRIPXREC
350
48F58
  3
ACDBVARIABLEDICTIONARY
350
458E1
  3
BNS_VARIABLES
350
46C0A
  3
DWGPROPS
350
48F4B
  0
DICTIONARY
  5
46C21
330
458C1
100
AcDbDictionary
280
     1
281
     1
  3
ACAD_LAYERSTATES
360
46C22
  0
DICTIONARY
  5
45930
330
458D6
100
AcDbDictionary
280
     1
281
     1
  3
ACAD_LAYOUTSELFREF
360
46A97
  3
ACAD_SORTENTS
360
46C15
  0
DICTIONARY
  5
4592E
330
458D3
100
AcDbDictionary
280
     1
281
     1
  3
ACAD_LAYOUTSELFREF
360
46A96
  0
DICTIONARY
  5
48F50
330
46C1A
100
AcDbDictionary
280
     1
281
     1
  3
ACAD_XREC_ROUNDTRIP
360
48F51
  0
DICTIONARY
  5
48F52
330
46C1D
100
AcDbDictionary
280
     1
281
     1
  3
ACAD_XREC_ROUNDTRIP
360
48F53
  0
DICTIONARY
  5
459D8
102
{ACAD_REACTORS
330
458CB
102
}
330
458CB
100
AcDbDictionary
281
     1
  0
DICTIONARY
  5
458CC
102
{ACAD_REACTORS
330
458CB
102
}
330
458CB
100
AcDbDictionary
281
     1
  0
DICTIONARY
  5
458FB
102
{ACAD_REACTORS
330
458CB
102
}
330
458CB
100
AcDbDictionary
281
     1
  3
Layout1
350
458FE
  3
Model
350
458FD
  0
DICTIONARY
  5
459D7
102
{ACAD_REACTORS
330
458CB
102
}
330
458CB
100
AcDbDictionary
281
     1
  0
DICTIONARY
  5
458D9
102
{ACAD_REACTORS
330
458CB
102
}
330
458CB
100
AcDbDictionary
281
     1
  3
STANDARD
350
458DA
  0
DICTIONARY
  5
458FC
102
{ACAD_REACTORS
330
458CB
102
}
330
458CB
100
AcDbDictionary
281
     1
  0
ACDBDICTIONARYWDFLT
  5
458F9
102
{ACAD_REACTORS
330
458CB
102
}
330
458CB
100
AcDbDictionary
281
     1
  3
Normal
350
458FA
100
AcDbDictionaryWithDefault
340
458FA
  0
DICTIONARY
  5
46AA4
102
{ACAD_REACTORS
330
458CB
102
}
330
458CB
100
AcDbDictionary
281
     1
  3
Standard
350
46AA5
  0
DICTIONARY
  5
48F58
102
{ACAD_REACTORS
330
458CB
102
}
330
458CB
100
AcDbDictionary
281
     1
  3
CEPSNTYPE
350
48F62
  3
DIMSTYLEDATA
350
48F66
  3
FINGERPRINTGUID
350
48F63
  3
HYPERLINKBASE
350
48F5B
  3
INSUNITS
350
48F61
  3
LAYOUTDICT
350
48F5D
  3
LWETCUNION
350
48F60
  3
PLOTSETDICT
350
48F5E
  3
PLOTSTYLNAMDICT
350
48F5F
  3
PSVPSCALE
350
48F65
  3
PUCSBASE
350
48F69
  3
PUCSORGBACK
350
48F6F
  3
PUCSORGBOTTOM
350
48F6B
  3
PUCSORGFRONT
350
48F6E
  3
PUCSORGLEFT
350
48F6C
  3
PUCSORGRIGHT
350
48F6D
  3
PUCSORGTOP
350
48F6A
  3
PUCSORTHOREF
350
48F67
  3
PUCSORTHOVIEW
350
48F68
  3
STYLESHEET
350
48F5C
  3
TSTACKALIGN
350
48F59
  3
TSTACKSIZE
350
48F5A
  3
UCSBASE
350
48F72
  3
UCSORGBACK
350
48F78
  3
UCSORGBOTTOM
350
48F74
  3
UCSORGFRONT
350
48F77
  3
UCSORGLEFT
350
48F75
  3
UCSORGRIGHT
350
48F76
  3
UCSORGTOP
350
48F73
  3
UCSORTHOREF
350
48F70
  3
UCSORTHOVIEW
350
48F71
  3
VERSIONGUID
350
48F64
  0
DICTIONARY
  5
458E1
102
{ACAD_REACTORS
330
458CB
102
}
330
458CB
100
AcDbDictionary
281
     1
  3
CTABLESTYLE
350
46C3C
  3
DIMADEC
350
458E2
  3
DIMASSOC
350
46A5A
  3
PROJECTNAME
350
46A5B
  0
DICTIONARY
  5
46C0A
102
{ACAD_REACTORS
330
458CB
102
}
330
458CB
100
AcDbDictionary
281
     1
  3
ACET-OVERKILL-FUZZ
350
48EAD
  3
ACET-OVERKILL-NO-ENDTOEND
350
48EB0
  3
ACET-OVERKILL-NO-PARTIAL
350
48EAF
  3
ACET-OVERKILL-NO-PLINES
350
48EAE
  0
XRECORD
  5
48F4B
102
{ACAD_REACTORS
330
458CB
102
}
330
458CB
100
AcDbXrecord
280
     1
  1
DWGPROPS COOKIE
  2

  3

  4

  6

  7

  8
colin
  9

300
=
301
=
302
=
303
=
304
=
305
=
306
=
307
=
308
=
309
=
 40
0.3723602893518518
 41
2451760.387179051
 42
2453346.635626551
  1

 90
        0
  0
DICTIONARY
  5
46C22
102
{ACAD_REACTORS
330
46C21
102
}
330
46C21
100
AcDbDictionary
281
     1
  0
XRECORD
  5
46A97
102
{ACAD_REACTORS
330
45930
102
}
330
45930
100
AcDbXrecord
280
     1
340
458D6
  0
SORTENTSTABLE
  5
46C15
102
{ACAD_REACTORS
330
45930
102
}
330
45930
100
AcDbSortentsTable
330
458D6
331
48E15
  5
48E58
331
48CA3
  5
48CE6
331
48D4D
  5
48E15
331
48C66
  5
48CCF
331
48CE7
  5
48D89
331
48C2A
  5
48CB9
331
48E59
  5
48EAB
331
48E40
  5
48E5D
331
48CCE
  5
48D11
331
4596B
  5
4596B
331
48D89
  5
48E3E
331
48B62
  5
48C2A
331
48B9E
  5
48C66
331
48E29
  5
48E59
331
48C7A
  5
48CD0
331
48AD6
  5
48B9E
331
48D61
  5
48E29
331
48CA4
  5
48CE7
331
48E54
  5
48E5E
331
48CE8
  5
48D9D
331
48D9D
  5
48E3F
331
48E5A
  5
48EB3
331
48CCF
  5
48D25
331
470D8
  5
48B12
331
48BEE
  5
48CA3
331
4596C
  5
4596C
331
48BB2
  5
48C7A
331
48D11
  5
48DD9
331
48AEA
  5
48BB2
331
48DB1
  5
48E40
331
48B26
  5
48BEE
331
48E55
  5
48EA7
331
48CE9
  5
48DB1
331
45967
  5
45967
331
48CD0
  5
48D39
331
48E5B
  5
48EB4
331
48C02
  5
48CA4
331
470D9
  5
48B26
331
4596D
  5
4596D
331
48DED
  5
48E56
331
470D4
  5
48AC2
331
48D25
  5
48DED
331
48C3E
  5
48CCD
331
48B76
  5
48C3E
331
48B3A
  5
48C02
331
48E56
  5
48EA8
331
48CE4
  5
48D4D
331
48E3D
  5
48E5A
331
48E5C
  5
48EB5
331
45968
  5
45968
331
48CB8
  5
48CE8
331
470DA
  5
48B3A
331
4596E
  5
4596E
331
48D39
  5
48E01
331
48C52
  5
48CCE
331
470D5
  5
48AD6
331
48AAE
  5
48B76
331
48B8A
  5
48C52
331
48D75
  5
48E3D
331
48C8E
  5
48CE4
331
48BC6
  5
48C8E
331
48E57
  5
48EA9
331
48CE5
  5
48D61
331
48AFE
  5
48BC6
331
48E3E
  5
48E5B
331
470DB
  5
48B4E
331
48CB9
  5
48CE9
331
48E5D
  5
48EB6
331
48AC2
  5
48B8A
331
4596F
  5
4596F
331
470D6
  5
48AEA
331
48DC5
  5
48E54
331
48CA2
  5
48CE5
331
48EB7
  5
483A9
331
48E01
  5
48E57
331
48BDA
  5
48CA2
331
48B12
  5
48BDA
331
48CE6
  5
48D75
331
48E58
  5
48EAA
331
48E3F
  5
48E5C
331
48CCD
  5
48CFD
331
470DC
  5
48B62
331
48CFD
  5
48DC5
331
48C16
  5
48CB8
331
48E5E
  5
48EB7
331
4596A
  5
4596A
331
45970
  5
45970
331
48B4E
  5
48C16
331
48DD9
  5
48E55
331
470D7
  5
48AFE
  0
XRECORD
  5
46A96
102
{ACAD_REACTORS
330
4592E
102
}
330
4592E
100
AcDbXrecord
280
     1
340
458D3
  0
XRECORD
  5
48F51
102
{ACAD_REACTORS
330
48F50
102
}
330
48F50
100
AcDbXrecord
280
     1
102
SHADEPLOT
 70
     0
  0
XRECORD
  5
48F53
102
{ACAD_REACTORS
330
48F52
102
}
330
48F52
100
AcDbXrecord
280
     1
102
SHADEPLOT
 70
     0
  0
LAYOUT
  5
458FE
102
{ACAD_XDICTIONARY
360
46C24
102
}
102
{ACAD_REACTORS
330
458FB
102
}
330
458FB
100
AcDbPlotSettings
  1

  2
none_device
  4
ISO_A4_(210.00_x_297.00_MM)
  6

 40
7.5
 41
20.0
 42
7.5
 43
20.0
 44
210.0
 45
297.0
 46
0.0
 47
0.0
 48
0.0
 49
0.0
140
0.0
141
0.0
142
1.0
143
1.0
 70
   688
 72
     1
 73
     1
 74
     5
  7
Default R14 pen assignments.ctb
 75
    16
147
1.0
148
0.0
149
0.0
100
AcDbLayout
  1
Layout1
 70
     1
 71
     1
 10
-20.0
 20
-7.5
 11
277.0
 21
202.4999999999999
 12
0.0
 22
0.0
 32
0.0
 14
25.69999999999998
 24
19.5
 34
0.0
 15
231.3
 25
175.5
 35
0.0
146
0.0
 13
0.0
 23
0.0
 33
0.0
 16
1.0
 26
0.0
 36
0.0
 17
0.0
 27
1.0
 37
0.0
 76
     0
330
458D3
331
46C1A
1001
ACAD_PSEXT
1000
None
1000
None
1000
Not applicable
1000
The layout will not be plotted unless a new plotter configuration name is selected.
1070
     0
  0
LAYOUT
  5
458FD
102
{ACAD_XDICTIONARY
360
48F4D
102
}
102
{ACAD_REACTORS
330
458FB
102
}
330
458FB
100
AcDbPlotSettings
  1

  2
HP LaserJet 5000 Series PCL 6
  4

  6

 40
0.0
 41
0.0
 42
0.0
 43
0.0
 44
0.0
 45
0.0
 46
0.0
 47
0.0
 48
0.0
 49
0.0
140
0.0
141
0.0
142
1.0
143
1.0
 70
  1712
 72
     0
 73
     0
 74
     0
  7
Default R14 pen assignments.ctb
 75
     0
147
1.0
148
0.0
149
0.0
100
AcDbLayout
  1
Model
 70
     1
 71
     0
 10
0.0
 20
0.0
 11
12.0
 21
9.0
 12
0.0
 22
0.0
 32
0.0
 14
0.0
 24
0.0
 34
0.0
 15
0.0
 25
0.0
 35
0.0
146
0.0
 13
0.0
 23
0.0
 33
0.0
 16
1.0
 26
0.0
 36
0.0
 17
0.0
 27
1.0
 37
0.0
 76
     0
330
458D6
  0
MLINESTYLE
  5
458DA
102
{ACAD_REACTORS
330
458D9
102
}
330
458D9
100
AcDbMlineStyle
  2
STANDARD
 70
     0
  3

 62
   256
 51
90.0
 52
90.0
 71
     2
 49
0.5
 62
   256
  6
BYLAYER
 49
-0.5
 62
   256
  6
BYLAYER
  0
ACDBPLACEHOLDER
  5
458FA
102
{ACAD_REACTORS
330
458F9
102
}
330
458F9
  0
ACAD_PROXY_OBJECT
  5
46AA5
102
{ACAD_REACTORS
330
46AA4
102
}
330
46AA4
100
AcDbProxyObject
 90
      499
 91
      512
 95
   851991
 70
     0
 93
     1841
310
4214DD185B99185C9928000000000000F83F0000000000003E0FC00000000000004901028000000C1008070000C3001FDFF8000000C1003FBFF000000182007F7FE00000030400FEFFC00000060801FDFF8000000C1003FBFF000000182000000000000000C2020B0000001820100E000186003FBFF000000182007F7FE000
310
00030400FEFFC00000060801FDFF8000000C1003FBFF000000182007F7FE0000003040000000000000012404160000003040201C00030C007F7FE00000030400FEFFC00000060801FDFF8000000C1003FBFF000000182007F7FE00000030400FEFFC00000060804D
340
458CE
340
458CE
340
458CE
 94
        0
  0
XRECORD
  5
48F62
102
{ACAD_REACTORS
330
48F58
102
}
330
48F58
100
AcDbXrecord
280
     1
 90
        0
  0
XRECORD
  5
48F66
102
{ACAD_REACTORS
330
48F58
102
}
330
48F58
100
AcDbXrecord
280
     1
1000
DSTYLE
1002
{
1070
   276
 70
     2
1070
   279
 70
     2
1070
   289
 70
     2
1002
}
  0
XRECORD
  5
48F63
102
{ACAD_REACTORS
330
48F58
102
}
330
48F58
100
AcDbXrecord
280
     1
  1
{6E0CF4B8-225E-11D4-A150-00A0CC3303EC}
  0
XRECORD
  5
48F5B
102
{ACAD_REACTORS
330
48F58
102
}
330
48F58
100
AcDbXrecord
280
     1
  1

  0
XRECORD
  5
48F61
102
{ACAD_REACTORS
330
48F58
102
}
330
48F58
100
AcDbXrecord
280
     1
 90
        0
  0
XRECORD
  5
48F5D
102
{ACAD_REACTORS
330
48F58
102
}
330
48F58
100
AcDbXrecord
280
     1
340
458FB
  0
XRECORD
  5
48F60
102
{ACAD_REACTORS
330
48F58
102
}
330
48F58
100
AcDbXrecord
280
     1
 90
    14877
  0
XRECORD
  5
48F5E
102
{ACAD_REACTORS
330
48F58
102
}
330
48F58
100
AcDbXrecord
280
     1
340
458FC
  0
XRECORD
  5
48F5F
102
{ACAD_REACTORS
330
48F58
102
}
330
48F58
100
AcDbXrecord
280
     1
340
458F9
  0
XRECORD
  5
48F65
102
{ACAD_REACTORS
330
48F58
102
}
330
48F58
100
AcDbXrecord
280
     1
 40
0.0
  0
XRECORD
  5
48F69
102
{ACAD_REACTORS
330
48F58
102
}
330
48F58
100
AcDbXrecord
280
     1
340
0
  0
XRECORD
  5
48F6F
102
{ACAD_REACTORS
330
48F58
102
}
330
48F58
100
AcDbXrecord
280
     1
 10
0.0
 20
0.0
 30
0.0
  0
XRECORD
  5
48F6B
102
{ACAD_REACTORS
330
48F58
102
}
330
48F58
100
AcDbXrecord
280
     1
 10
0.0
 20
0.0
 30
0.0
  0
XRECORD
  5
48F6E
102
{ACAD_REACTORS
330
48F58
102
}
330
48F58
100
AcDbXrecord
280
     1
 10
0.0
 20
0.0
 30
0.0
  0
XRECORD
  5
48F6C
102
{ACAD_REACTORS
330
48F58
102
}
330
48F58
100
AcDbXrecord
280
     1
 10
0.0
 20
0.0
 30
0.0
  0
XRECORD
  5
48F6D
102
{ACAD_REACTORS
330
48F58
102
}
330
48F58
100
AcDbXrecord
280
     1
 10
0.0
 20
0.0
 30
0.0
  0
XRECORD
  5
48F6A
102
{ACAD_REACTORS
330
48F58
102
}
330
48F58
100
AcDbXrecord
280
     1
 10
0.0
 20
0.0
 30
0.0
  0
XRECORD
  5
48F67
102
{ACAD_REACTORS
330
48F58
102
}
330
48F58
100
AcDbXrecord
280
     1
340
0
  0
XRECORD
  5
48F68
102
{ACAD_REACTORS
330
48F58
102
}
330
48F58
100
AcDbXrecord
280
     1
 70
     0
  0
XRECORD
  5
48F5C
102
{ACAD_REACTORS
330
48F58
102
}
330
48F58
100
AcDbXrecord
280
     1
  1

  0
XRECORD
  5
48F59
102
{ACAD_REACTORS
330
48F58
102
}
330
48F58
100
AcDbXrecord
280
     1
 90
        1
  0
XRECORD
  5
48F5A
102
{ACAD_REACTORS
330
48F58
102
}
330
48F58
100
AcDbXrecord
280
     1
 90
       70
  0
XRECORD
  5
48F72
102
{ACAD_REACTORS
330
48F58
102
}
330
48F58
100
AcDbXrecord
280
     1
340
0
  0
XRECORD
  5
48F78
102
{ACAD_REACTORS
330
48F58
102
}
330
48F58
100
AcDbXrecord
280
     1
 10
192.2229589652336
 20
-89.51032395673729
 30
62.63919116730763
  0
XRECORD
  5
48F74
102
{ACAD_REACTORS
330
48F58
102
}
330
48F58
100
AcDbXrecord
280
     1
 10
0.0
 20
0.0
 30
0.0
  0
XRECORD
  5
48F77
102
{ACAD_REACTORS
330
48F58
102
}
330
48F58
100
AcDbXrecord
280
     1
 10
0.0
 20
0.0
 30
0.0
  0
XRECORD
  5
48F75
102
{ACAD_REACTORS
330
48F58
102
}
330
48F58
100
AcDbXrecord
280
     1
 10
0.0
 20
0.0
 30
0.0
  0
XRECORD
  5
48F76
102
{ACAD_REACTORS
330
48F58
102
}
330
48F58
100
AcDbXrecord
280
     1
 10
44.57293710473379
 20
-10.57239502465733
 30
3.810000000000003
  0
XRECORD
  5
48F73
102
{ACAD_REACTORS
330
48F58
102
}
330
48F58
100
AcDbXrecord
280
     1
 10
250.6249123083243
 20
-75.72846822318595
 30
68.93289195470919
  0
XRECORD
  5
48F70
102
{ACAD_REACTORS
330
48F58
102
}
330
48F58
100
AcDbXrecord
280
     1
340
0
  0
XRECORD
  5
48F71
102
{ACAD_REACTORS
330
48F58
102
}
330
48F58
100
AcDbXrecord
280
     1
 70
     1
  0
XRECORD
  5
48F64
102
{ACAD_REACTORS
330
48F58
102
}
330
48F58
100
AcDbXrecord
280
     1
  1
{A4298261-99C7-4AE0-A347-FC91989F7E79}
  0
DICTIONARYVAR
  5
46C3C
102
{ACAD_REACTORS
330
458E1
102
}
330
458E1
100
DictionaryVariables
280
     0
  1
STANDARD
  0
DICTIONARYVAR
  5
458E2
102
{ACAD_REACTORS
330
458E1
102
}
330
458E1
100
DictionaryVariables
280
     0
  1
0
  0
DICTIONARYVAR
  5
46A5A
102
{ACAD_REACTORS
330
458E1
102
}
330
458E1
100
DictionaryVariables
280
     0
  1
1
  0
DICTIONARYVAR
  5
46A5B
102
{ACAD_REACTORS
330
458E1
102
}
330
458E1
100
DictionaryVariables
280
     0
  1

  0
XRECORD
  5
48EAD
102
{ACAD_REACTORS
330
46C0A
102
}
330
46C0A
100
AcDbXrecord
280
     1
 40
0.000001
  0
XRECORD
  5
48EB0
102
{ACAD_REACTORS
330
46C0A
102
}
330
46C0A
100
AcDbXrecord
280
     1
 70
     0
  0
XRECORD
  5
48EAF
102
{ACAD_REACTORS
330
46C0A
102
}
330
46C0A
100
AcDbXrecord
280
     1
 70
     0
  0
XRECORD
  5
48EAE
102
{ACAD_REACTORS
330
46C0A
102
}
330
46C0A
100
AcDbXrecord
280
     1
 70
     0
  0
DICTIONARY
  5
46C24
330
458FE
100
AcDbDictionary
280
     1
281
     1
  3
ACAD_XREC_ROUNDTRIP
360
48F4F
  3
ADSK_XREC_LAYOUTTHUMBNAIL
360
46C25
  0
DICTIONARY
  5
48F4D
330
458FD
100
AcDbDictionary
280
     1
281
     1
  3
ACAD_XREC_ROUNDTRIP
360
48F4E
  0
XRECORD
  5
48F4F
102
{ACAD_REACTORS
330
46C24
102
}
330
46C24
100
AcDbXrecord
280
     1
102
SHADEPLOT
 70
     0
102
SHADEPLOTRESLEVEL
 70
     2
102
SHADEPLOTCUSTOMDPI
 70
   300
  0
XRECORD
  5
46C25
102
{ACAD_REACTORS
330
46C24
102
}
330
46C24
100
AcDbXrecord
280
     1
310
28000000B40000007F00000001000800000000004C59000000000000000000000001000000000000FFFFFF0000000000FFFFFF000000000000000000000000000000000000000000000000000000000000000000330000006600000099000000CC000000FF00000000330000333300006633000099330000CC330000FF3300
310
0000660000336600006666000099660000CC660000FF66000000990000339900006699000099990000CC990000FF99000000CC000033CC000066CC000099CC0000CCCC0000FFCC000000FF000033FF000066FF000099FF0000CCFF0000FFFF000000003300330033006600330099003300CC003300FF003300003333003333
310
33006633330099333300CC333300FF33330000663300336633006666330099663300CC663300FF66330000993300339933006699330099993300CC993300FF99330000CC330033CC330066CC330099CC3300CCCC3300FFCC330000FF330033FF330066FF330099FF3300CCFF3300FFFF330000006600330066006600660099
310
006600CC006600FF00660000336600333366006633660099336600CC336600FF33660000666600336666006666660099666600CC666600FF66660000996600339966006699660099996600CC996600FF99660000CC660033CC660066CC660099CC6600CCCC6600FFCC660000FF660033FF660066FF660099FF6600CCFF6600
310
FFFF660000009900330099006600990099009900CC009900FF00990000339900333399006633990099339900CC339900FF33990000669900336699006666990099669900CC669900FF66990000999900339999006699990099999900CC999900FF99990000CC990033CC990066CC990099CC9900CCCC9900FFCC990000FF99
310
0033FF990066FF990099FF9900CCFF9900FFFF99000000CC003300CC006600CC009900CC00CC00CC00FF00CC000033CC003333CC006633CC009933CC00CC33CC00FF33CC000066CC003366CC006666CC009966CC00CC66CC00FF66CC000099CC003399CC006699CC009999CC00CC99CC00FF99CC0000CCCC0033CCCC0066CC
310
CC0099CCCC00CCCCCC00FFCCCC0000FFCC0033FFCC0066FFCC0099FFCC00CCFFCC00FFFFCC000000FF003300FF006600FF009900FF00CC00FF00FF00FF000033FF003333FF006633FF009933FF00CC33FF00FF33FF000066FF003366FF006666FF009966FF00CC66FF00FF66FF000099FF003399FF006699FF009999FF00CC
310
99FF00FF99FF0000CCFF0033CCFF0066CCFF0099CCFF00CCCCFF00FFCCFF0000FFFF0033FFFF0066FFFF0099FFFF00CCFFFF00FFFFFF00000000000D0D0D001A1A1A00282828003535350043434300505050005D5D5D006B6B6B00787878008686860093939300A1A1A100AEAEAE00BBBBBB00C9C9C900D6D6D600E4E4E400
310
F1F1F100FFFFFF0000000000000000000000000000000000000000000000000000000000000000000000000000000000E2E2E2E2E2E2E2E2E2E2E2E2E2E2E2E2E2E2E2E2E2E2E2E2E2E2E2E2E2E2E2E2E2E2E2E2E2E2E2E2E2E2E2E2E2E2E2E2E2E2E2E2E2E2E2E2E2E2E2E2E2E2E2E2E2E2E2E2E2E2E2E2E2E2E2E2E2E2E2
310
E2E2E2E2E2E2E2E2E2E2E2E2E2E2E2E2E2E2E2E2E2E2E2E2E2E2E2E2E2E2E2E2E2E2E2E2E2E2E2E2E2E2E2E2E2E2E2E2E2E2E2E2E2E2E2E2E2E2E2E2E2E2E2E2E2E2E2E2E2E2E2E2E2E2E2E2E2E2E2E2E2E2E2E2E2E2E2E2E2E2E2E2E2E2E2E2E2E2E2E2E2E2F5F5F5F5F5F5F5F5F5F5F5F5F5F5F5F5F5F5F5F5F5F5F5F5F5
310
F5F5F5F5F5F5F5F5F5F5F5F5F5F5F5F5F5F5F5F5F5F5F5F5F5F5F5F5F5F5F5F5F5F5F5F5F5F5F5F5F5F5F5F5F5F5F5F5F5F5F5F5F5F5F5F5F5F5F5F5F5F5F5F5F5F5F5F5F5F5F5F5F5F5F5F5F5F5F5F5F5F5F5F5F5F5F5F5F5F5F5F5F5F5F5F5F5F5F5F5F5F5F5F5F5F5F5F5F5F5F5F5F5F5F5F5F5F5F5F5F5F5F5F5F5F5F5
310
F5F5F5F5F5F5F5F5F5F5F5F5F5F5F5F5F5F5F5F5F5F5F5F5F5E2E2E2F5F5F5F5F5F5F5F5F5F5F5F5F5F5F5F5F5F5F5F5F5F5F5F5F5F5F5F5F5F5F5F5F5F5F5F5F5F5F5F5F5F5F5F5F5F5F5F5F5F5F5F5F5F5F5F5F5F5F5F5F5F5F5F5F5F5F5F5F5F5F5F5F5F5F5F5F5F5F5F5F5F5F5F5F5F5F5F5F5F5F5F5F5F5F5F5F5F5F5
310
F5F5F5F5F5F5F5F5F5F5F5F5F5F5F5F5F5F5F5F5F5F5F5F5F5F5F5F5F5F5F5F5F5F5F5F5F5F5F5F5F5F5F5F5F5F5F5F5F5F5F5F5F5F5F5F5F5F5F5F5F5F5F5F5F5F5F5F5F5F5F5F5F5F5F5F5F5F5E2E2E2F5F5F5F5F5F5F5F5F5F5F5F5F5F5F5F5F5F5F5F5F5F5F5F5F5F5F5F5F5F5F5F5F5F5F5F5F5F5F5F5F5F5F5F5F5F5
310
F5F5F5F5F5F5F5F5F5F5F5F5F5F5F5F5F5F5F5F5F5F5F5F5F5F5F5F5F5F5F5F5F5F5F5F5F5F5F5F5F5F5F5F5F5F5F5F5F5F5F5F5F5F5F5F5F5F5F5F5F5F5F5F5F5F5F5F5F5F5F5F5F5F5F5F5F5F5F5F5F5F5F5F5F5F5F5F5F5F5F5F5F5F5F5F5F5F5F5F5F5F5F5F5F5F5F5F5F5F5F5F5F5F5F5F5F5F5F5F5F5F5F5F5F5F5F5
310
F5F5F5F5E2E2E2F5F5F5F5F5F5F5F5F5F5F5F5F5F5F5F5F5F5F5F5F5F5F5F5F5F5F5F5F5F5F5F5F5F5F5F5F5F5F5F5F5F5F5F5F5F5F5F5F5F5F5F5F5F5F5F5F5F5F5F5F5F5F5F5F5F5F5F5F5F5F5F5F5F5F5F5F5F5F5F5F5F5F5F5F5F5F5F5F5F5F5F5F5F5F5F5F5F5F5F5F5F5F5F5F5F5F5F5F5F5F5F5F5F5F5F5F5F5F5F5
310
F5F5F5F5F5F5F5F5F5F5F5F5F5F5F5F5F5F5F5F5F5F5F5F5F5F5F5F5F5F5F5F5F5F5F5F5F5F5F5F5F5F5F5F5F5F5F5F5F5F5F5F5F5F5F5F5F5E2E2E2F5F5F5F5F5F5F5F5F5F5F5E2E2E2E2E2E2E2E2E2F5F5F5F5F5F5F5F5F5E2E2E2E2E2E2E2E2E2E2E2E2E2E2E2E2F5F5F5F5F5F5F5F5F5F5E2E2E2E2E2E2E2E2E2E2E2E2
310
E2E2E2E2F5F5F5F5F5F5F5F5F5E2E2E2E2E2E2E2E2E2E2E2E2E2E2E2E2E2F5F5F5F5F5F5F5F5F5E2E2E2E2E2E2E2E2E2E2E2E2E2E2E2E2F5F5F5F5F5F5F5F5F5F5E2E2E2E2E2E2E2E2E2E2E2E2E2E2E2E2F5F5F5F5F5F5F5F5F5E2E2E2E2E2E2E2E2E2F5F5F5F5F5F5F5F5F5F5F5E2E2E2F5F5F5F5F5F5F5F5F5F5F5E2F5F5
310
F5F5F5F5F5F5F5F5F5F5F5F5F5F5F5F5F5F5F5F5F5F5F5F5F5F5F5F5F5F5F5F5F5F5F5F5F5F5F5F5F5F5F5F5F5F5F5F5F5F5F5F5F5F5F5F5F5F5F5F5F5F5F5F5F5F5F5F5F5F5F5F5F5F5F5F5F5F5F5F5F5F5F5F5F5F5F5F5F5F5F5F5F5F5F5F5F5F5F5F5F5F5F5F5F5F5F5F5F5F5F5F5F5F5F5F5F5F5F5F5F5F5F5F5F5F5F5
310
F5F5F5F5F5F5F5F5F5F5F5F5F5F5F5F5F5F5F5F5F5F5F5F5E2F5F5F5F5F5F5F5F5F5F5F5E2E2E2F5F5F5F5F5F5F5F5F5F5F5E2F5F5F5F5F5F5F5F5F5F5F5F5F5F5F5F5F5F5F5F5F5F5F5F5F5F5F5F5F5F5F5F5F5F5F5F5F5F5F5F5F5F5F5F5F5F5F5F5F5F5F5F5F5F5F5F5F5F5F5F5F5F5F5F5F5F5F5F5F5F5F5F5F5F5F5F5
310
F5F5F5F5F5F5F5F5F5F5F5F5F5F5F5F5F5F5F5F5F5F5F5F5F5F5F5F5F5F5F5F5F5F5F5F5F5F5F5F5F5F5F5F5F5F5F5F5F5F5F5F5F5F5F5F5F5F5F5F5F5F5F5F5F5F5F5F5F5F5F5F5F5F5F5F5F5E2F5F5F5F5F5F5F5F5F5F5F5E2E2E2F5F5F5F5F5F5F5F5F5F5F5E2F5F5F5F5F5F5F5F5F5F5F5F5F5F5F5F5F5F5F5F5F5F5F5
310
F5F5F5F5F5F5F5F5F5F5F5F5F5F5F5F5F5F5F5F5F5F5F5F5F5F5F5F5F5F5F5F5F5F5F5F5F5F5F5F5F5F5F5F5F5F5F5F5F5F5F5F5F5F5F5F5F5F5F5F5F5F5F5F5F5F5F5F5F5F5F5F5F5F5F5F5F5F5F5F5F5F5F5F5F5F5F5F5F5F5F5F5F5F5F5F5F5F5F5F5F5F5F5F5F5F5F5F5F5F5F5F5F5F5F5F5F5F5F5F5F5F5F5F5F5F5F5
310
F5F5F5E2F5F5F5F5F5F5F5F5F5F5F5E2E2E2F5F5F5F5F5F5F5F5F5F5F5E2F5F5F5F5F5F5F5F5F5F5F5F5F5F5F5F5F5F5F5F5F5F5F5F5F5F5F5F5F5F5F5F5F5F5F5F5F5F5F5F5F5F5F5F5F5F5F5F5F5F5F5F5F5F5F5F5F5F5F5F5F5F5F5F5F5F5F5F5F5F5F5F5F5F5F5F5F5F5F5F5F5F5F5F5F5F5F5F5F5F5F5F5F5F5F5F5F5
310
F5F5F5F5F5F5F5F5F5F5F5F5F5F5F5F5F5F5F5F5F5F5F5F5F5F5F5F5F5F5F5F5F5F5F5F5F5F5F5F5F5F5F5F5F5F5F5F5F5F5F5F5F5F5F5F5E2F5F5F5F5F5F5F5F5F5F5F5E2E2E2F5F5F5F5F5F5F5F5F5F5F5E2F5F5F5F5F5F5F5F5F5F5F5F5F5F5F5F5F5F5F5F5F5F5F5F5F5F5F5F5F5F5F5F5F5F5F5F5F5F5F5F5F5F5F5F5
310
F5F5F5F5F5F5F5F5F5F5F5F5F5F5F5F5F5F5F5F5F5F5F5F5F5F5F5F5F5F5F5F5F5F5F5F5F5F5F5F5F5F5F5F5F5F5F5F5F5F5F5F5F5F5F5F5F5F5F5F5F5F5F5F5F5F5F5F5F5F5F5F5F5F5F5F5F5F5F5F5F5F5F5F5F5F5F5F5F5F5F5F5F5F5F5F5F5F5F5F5F5F5F5F5F5F5F5F5F5E2F5F5F5F5F5F5F5F5F5F5F5E2E2E2F5F5F5
310
F5F5F5F5F5F5F5F5E2F5F5F5F5F5F5F5F5F5F5F5F5F5F5F5F5F5F5F5F5F5F5F5F5F5F5F5F5F5F5F5F5F5F5F5F5F5F5F5F5F5F5F5F5F5F5F5F5F5F5F5F5F5F5F5F5F5F5F5F5F5F5F5F5F5F5F5F5F5F5F5F5F5F5F5F5F5F5F5F5F5F5F5F5F5F5F5F5F5F5F5F5F5F5F5F5F5F5F5F5F5F5F5F5F5F5F5F5F5F5F5F5F5F5F5F5F5F5
310
F5F5F5F5F5F5F5F5F5F5F5F5F5F5F5F5F5F5F5F5F5F5F5F5F5F5F5F5F5F5F5F5F5F5F5E2F5F5F5F5F5F5F5F5F5F5F5E2E2E2F5F5F5F5F5F5F5F5F5F5F5E2F5F5F5F5F5F5F5F5F5F5F5F5F5F5F5F5F5F5F5F5F5F5F5F5F5F5F5F5F5F5F5F5F5F5F5F5F5F5F5F5F5F5F5F5F5F5F5F5F5F5F5F5F5F5F5F5F5F5F5F5F5F5F5F5F5
310
F5F5F5F5F5F5F5F5F5F5F5F5F5F5F5F5F5F5F5F5F5F5F5F5F5F5F5F5F5F5F5F5F5F5F5F5F5F5F5F5F5F5F5F5F5F5F5F5F5F5F5F5F5F5F5F5F5F5F5F5F5F5F5F5F5F5F5F5F5F5F5F5F5F5F5F5F5F5F5F5F5F5F5F5F5F5F5F5E2F5F5F5F5F5F5F5F5F5F5F5E2E2E2F5F5F5F5F5F5F5F5F5F5F5F5F5F5F5F5F5F5F5F5F5F5F5F5
310
F5F5F5F5F5F5F5F5F5F5F5F5F5F5F5F5F5F5F5F5F5F5F5F5F5F5F5F5F5F5F5F5F5F5F5F5F5F5F5F5F5F5F5F5F5F5F5F5F5F5F5F5F5F5F5F5F5F5F5F5F5F5F5F5F5F5F5F5F5F5F5F5F5F5F5F5F5F5F5F5F5F5F5F5F5F5F5F5F5F5F5F5F5F5F5F5F5F5F5F5F5F5F5F5F5F5F5F5F5F5F5F5F5F5F5F5F5F5F5F5F5F5F5F5F5F5F5
310
F5F5F5F5F5F5F5F5F5F5F5F5F5F5F5F5F5F5F5F5F5F5F5F5F5F5E2E2E2F5F5F5F5F5F5F5F5F5F5F5F5F5F5F5F5F5F5F5F5F5F5F5F5F5F5F5F5F5F5F5F5F5F5F5F5F5F5F5F5F5F5F5F5F5F5F5F5F5F5F5F5F5F5F5F5F5F5F5F5F5F5F5F5F5F5F5F5F5F5F5F5F5F5F5F5F5F5F5F5F5F5F5F5F5F5F5F5F5F5F5F5F5F5F5F5F5F5
310
F5F5F5F5F5F5F5F5F5F5F5F5F5F5F5F5F5F5F5F5F5F5F5F5F5F5F5F5F5F5F5F5F5F5F5F5F5F5F5F5F5F5F5F5F5F5F5F5F5F5F5F5F5F5F5F5F5F5F5F5F5F5F5F5F5F5F5F5F5F5F5F5F5F5F5F5F5F5F5E2E2E2F5F5F5F5F5F5F5F5F5F5F5F5F5F5F5F5F5F5F5F5F5F5F5F5F5F5F5F5F5F5F5F5F5F5F5F5F5F5F5F5F5F5F5F5F5
310
F5F5F5F5F5F5F5F5F5F5F5F5F5F5F5F5F5F5F5F5F5F5F5F5F5F5F5F5F5F5F5F5F5F5F5F5F5F5F5F5F5F5F5F5F5F5F5F5F5F5F5F5F5F5F5F5F5F5F5F5F5F5F5F5F5F5F5F5F5F5F5F5F5F5F5F5F5F5F5F5F5F5F5F5F5F5F5F5F5F5F5F5F5F5F5F5F5F5F5F5F5F5F5F5F5F5F5F5F5F5F5F5F5F5F5F5F5F5F5F5F5F5F5F5F5F5F5
310
F5F5F5F5F5E2E2E2F5F5F5F5F5F5F5F5F5F5F5F5F5F5F5F5F5F5F5F5F5F5F5F5F5F5E2E2E2E2E2E2E2E2E2E2E2E2E2E2E2E2E2E2E2E2E2E2E2E2E2E2E2E2E2E2E2E2E2E2E2E2E2E2E2E2E2E2E2E2E2E2E2E2E2E2E2E2E2E2E2E2E2E2E2E2E2E2E2E2E2E2E2E2E2E2E2E2E2E2E2E2E2E2E2E2E2E2E2E2E2E2E2E2E2E2E2E2E2
310
E2E2E2E2E2E2E2E2E2E2E2E2E2E2E2E2E2E2E2E2E2E2E2E2E2E2E2E2E2E2E2E2F5F5F5F5F5F5F5F5F5F5F5F5F5F5F5F5F5F5F5F5F5F5F5F5F5F5E2E2E2F5F5F5F5F5F5F5F5F5F5F5F5F5F5F5F5F5F5F5F5F5F5F5F5F5F5E2F5F5F5F5F5F5F5F5F5F5F5F5F5F5F5F5F5F5F5F5F5F5F5F5F5F5F5F5F5F5F5F5F5F5F5F5F5F5F5
310
F5F5F5F5F5F5F5F5F5F5F5F5F5F5F5F5F5F5F5F5F5F5F5F5F5F5F5F5F5F5F5F5F5F5F5F5F5F5F5F5F5F5F5F5F5F5F5F5F5F5F5F5F5F5F5F5F5F5F5F5F5F5F5F5F5F5F5F5F5F5F5F5F5F5F5F5F5F5F5F5F5F5F5F5E2F5F5F5F5F5F5F5F5F5F5F5F5F5F5F5F5F5F5F5F5F5F5F5F5F5F5E2E2E2F5F5F5F5F5F5F5F5F5F5F5F5F5
310
F5F5F5F5F5F5F5F5F5F5F5F5F5E2F5F5F5F5F5F5F5F5F5F5F5F5F5F5F5F5F5F5F5F5F5F5F5F5F5F5F5F5F5F5F5F5F5F5F5F5F5F5F5F5F5F5F5F5F5F5F5F5F5F5F5F5F5F5F5F5F5F5F5F5F5F5F5F5F5F5F5F5F5F5F5F5F5F5F5F5F5F5F5F5F5F5F5F5F5F5F5F5F5F5F5F5F5F5F5F5F5F5F5F5F5F5F5F5F5F5F5F5F5F5F5F5F5
310
F5F5F5F5F5F5F5F5F5F5E2F5F5F5F5F5F5F5F5F5F5F5F5F5F5F5F5F5F5F5F5F5F5F5F5F5F5E2E2E2F5F5F5F5F5F5F5F5F5F5F5F5F5F5F5F5F5F5F5F5F5F5F5F5F5F5E2F5F5F5F5F5F5F5F5F5F5F5F5F5F5F5F5F5F5F5F5F5F5F5F5F5F5F5F5F5F5F5F5F5F5F5F5F5F5F5F5F5F5F5F5F5F5F5F5F5F5F5F5F5F5F5F5F5F5F5F5
310
F5F5F5F5F5F5F5F5F5F5F5F5F5F5F5F5F5F5F5F5F5F5F5F5F5F5F5F5F5F5F5F5F5F5F5F5F5F5F5F5F5F5F5F5F5F5F5F5F5F5F5F5F5F5F5F5F5F5F5F5F5F5F5E2F5F5F5F5F5F5F5F5F5F5F5F5F5F5F5F5F5F5F5F5F5F5F5F5F5F5E2E2E2F5F5F5F5F5F5F5F5F5F5F5F5F5F5F5F5F5F5F5F5F5F5F5F5F5F5E2F5F5F5F5F5F5F5
310
F5F5F5F5F5F5F5F5F5F5F5F5F5F5F5F5F5F5F5F5F5F5F5F5F5F5F5F5F5F5F5F5F5F5F5F5F5F5F5F5F5F5F5F5F5F5F5F5F5F5F5F5F5F5F5F5F5F5F5F5F5F5F5F5F5F5F5F5F5F5F5F5F5F5F5F5F5F5F5F5F5F5F5F5F5F5F5F5F5F5F5F5F5F5F5F5F5F5F5F5F5F5F5F5F5F5F5F5F5F5F5F5F5F5F5F5E2F5F5F5F5F5F5F5F5F5F5
310
F5F5F5F5F5F5F5F5F5F5F5F5F5F5F5F5E2E2E2F5F5F5F5F5F5F5F5F5F5F5E2F5F5F5F5F5F5F5F5F5F5F5F5F5F5E2F5F5F5F5F5F5F5F5F5F5F5F5F5F5F5F5F5F5F5F5F5F5F5F5F5F5F5F5F5F5F5F5F5F5F5F5F5F5F5F5F5F5F5F5F5F5F5F5F5F5F5F5F5F5F5F5F5F5F5F5F5F5F5F5F5F5F5F5F5F5F5F5F5F5F5F5F5F5F5F5F5
310
F5F5F5F5F5F5F5F5F5F5F5F5F5F5F5F5F5F5F5F5F5F5F5F5F5F5F5F5F5F5F5F5F5F5F5F5F5F5F5F5F5F5E2F5F5F5F5F5F5F5F5F5F5F5F5F5F5E2F5F5F5F5F5F5F5F5F5F5F5E2E2E2F5F5F5F5F5F5F5F5F5F5F5E2F5F5F5F5F5F5F5F5F5F5F5F5F5F5E2F5F5F5F5F5F5F5F5F5F5F5F5F5F5F5F5F5F5F5F5F5F5F5F5F5F5F5F5
310
F5F5F5F5F5F5F5F5F5F5F5F5F5F5F5F5F5F5F5F5F5F5F5F5F5F5F5F5F5F5F5F5F5F5F5F5F5F5F5F5F5F5F5F5F5F5F5F5F5F5F5F5F5F5F5F5F5F5F5F5F5F5F5F5F5F5F5F5F5F5F5F5F5F5F5F5F5F5F5F5F5F5F5F5F5F5F5F5F5F5F5F5F5F5F5E2F5F5F5F5F5F5F5F5F5F5F5F5F5F5E2F5F5F5F5F5F5F5F5F5F5F5E2E2E2F5F5
310
F5F5F5F5F5F5F5F5F5E2F5F5F5F5F5F5F5F5F5F5F5F5F5F5E2F5F5F5F5F5F5F5F5F5F5F5F5F5F5F5F5F5F5F5F5F5F5F5F5F5F5F5F5F5F5F5F5F5F5F5F5F5F5F5F5F5F5F5F5F5F5F5F5F5F5F5F5F5F5F5F5F5F5F5F5F5F5F5F5F5F5F5F5F5F5F5F5F5F5F5F5F5F5F5F5F5F5F5F5F5F5F5F5F5F5F5F5F5F5F5F5F5F5F5F5F5F5
310
F5F5F5F5F5F5F5F5F5F5F5F5F5F5F5F5F5F5F5F5F5E2F5F5F5F5F5F5F5F5F5F5F5F5F5F5E2F5F5F5F5F5F5F5F5F5F5F5E2E2E2F5F5F5F5F5F5F5F5F5F5F5E2F5F5F5F5F5F5F5F5F5F5F5F5F5F5E2F5F5F5F5F5F5F5F5F5F5F5F5F5F5F5F5F5F5F5F5F5F5F5F5F5F5F5F5F5F5F5F5F5F5F5F5F5F5F5F5F5F5F5F5F5F5F5F5F5
310
F5F5F5F5F5F5F5F5F5F5F5F5F5F5F5F5F5F5F5F5F5F5F5F5F5F5F5F5F5F5F5F5F5F5F5F5F5F5F5F5F5F5F5F5F5F5F5F5F5F5F5F5F5F5F5F5F5F5F5F5F5F5F5F5F5F5F5F5F5F5F5F5F5F5E2F5F5F5F5F5F5F5F5F5F5F5F5F5F5E2F5F5F5F5F5F5F5F5F5F5F5E2E2E2F5F5F5F5F5F5F5F5F5F5F5E2F5F5F5F5F5F5F5F5F5F5F5
310
F5F5F5E2F5F5F5F5F5F5F5F5F5F5F5F5F5F5F5F5F5F5F5F5F5F5F5F5F5F5F5F5F5F5F5F5F5F5F5F5F5F5F5F5F5F5F5F5F5F5F5F5F5F5F5F5F5F5F5F5F5F5F5F5F5F5F5F5F5F5F5F5F5F5F5F5F5F5F5F5F5F5F5F5F5F5F5F5F5F5F5F5F5F5F5F5F5F5F5F5F5F5F5F5F5F5F5F5F5F5F5F5F5F5F5F5F5F5F5F5F5F5F5F5F5F5F5
310
E2F5F5F5F5F5F5F5F5F5F5F5F5F5F5E2F5F5F5F5F5F5F5F5F5F5F5E2E2E2F5F5F5F5F5F5F5F5F5F5F5E2F5F5F5F5F5F5F5F5F5F5F5F5F5F5E2F5F5F5F5F5F5F5F5F5F5F5F5F5F5F5F5F5F5F5F5F5F5F5F5F5F5F5F5F5F5F5F5F5F5F5F5F5F5F5F5F5F5F5F5F5F5F5F5F5F5F5F5F5F5F5F5F5F5F5F5F5F5F5F5F5F5F5F5F5F5
310
F5F5F5F5F5F5F5F5F5F5F5F5F5F5F5F5F5F5F5F5F5F5F5F5F5F5F5F5F5F5F5F5F5F5F5F5F5F5F5F5F5F5F5F5F5F5F5F5F5F5F5F5F5E2F5F5F5F5F5F5F5F5F5F5F5F5F5F5E2F5F5F5F5F5F5F5F5F5F5F5E2E2E2F5F5F5F5F5F5F5F5F5F5F5E2F5F5F5F5F5F5F5F5F5F5F5F5F5F5E2F5F5F5F5F5F5F5F5F5F5F5F5F5F5F5F5F5
310
F5F5F5F5F5F5F5F5F5F5F5F5F5F5F5F5F5F5F5F5F5F5F5F5F5F5F5F5F5F5F5F5F5F5F5F5F5F5F5F5F5F5F5F5F5F5F5F5F5F5F5F5F5F5F5F5F5F5F5F5F5F5F5F5F5F5F5F5F5F5F5F5F5F5F5F5F5F5F5F5F5F5F5F5F5F5F5F5F5F5F5F5F5F5F5F5F5F5F5F5F5F5F5F5F5F5E2F5F5F5F5F5F5F5F5F5F5F5F5F5F5E2F5F5F5F5F5
310
F5F5F5F5F5F5E2E2E2F5F5F5F5F5F5F5F5F5F5F5E2F5F5F5F5F5F5F5F5F5F5F5F5F5F5E2F5F5F5F5F5F5F5F5F5F5F5F5F5F5F5F5F5F5F5F5F5F5F5F5F5F5F5F5F5F5F5F5F5F5F5F5F5F5F5F5F5F5F5F5F5F5F5F5F5F5F5F5F5F5F5F5F5F5F5F5F5F5F5F5F5F5F5F5F5F5F5F5F5F5F5F5F5F5F5F5F5F5F5F5F5F5F5F5F5F5F5
310
F5F5F5F5F5F5F5F5F5F5F5F5F5F5F5F5F5F5F5F5F5F5F5F5F5F5F5F5F5F5F5F5E2F5F5F5F5F5F5F5F5F5F5F5F5F5F5E2F5F5F5F5F5F5F5F5F5F5F5E2E2E2F5F5F5F5F5F5F5F5F5F5F5E2F5F5F5F5F5F5F5F5F5F5F5F5F5F5E2F5F5F5F5F5F5F5F5F5F5F5F5F5F5F5F5F5F5F5F5F5F5F5F5F5F5F5F5F5F5F5F5F5F5F5F5F5F5
310
F5F5F5F5F5F5F5F5F5F5F5F5F5F5F5F5F5F5F5F5F5F5F5F5F5F5F5F5F5F5F5F5F5F5F5F5F5F5F5F5F5F5F5F5F5F5F5F5F5F5F5F5F5F5F5F5F5F5F5F5F5F5F5F5F5F5F5F5F5F5F5F5F5F5F5F5F5F5F5F5F5F5F5F5F5E2F5F5F5F5F5F5F5F5F5F5F5F5F5F5E2F5F5F5F5F5F5F5F5F5F5F5E2E2E2F5F5F5F5F5F5F5F5F5F5F5E2
310
F5F5F5F5F5F5F5F5F5F5F5F5F5F5E2F5F5F5F5F5F5F5F5F5F5F5F5F5F5F5F5F5F5F5F5F5F5F5F5F5F5F5F5F5F5F5F5F5F5F5F5F5F5F5F5F5F5F5F5F5F5F5F5F5F5F5F5F5F5F5F5F5F5F5F5F5F5F5F5F5F5F5F5F5F5F5F5F5F5F5F5F5F5F5F5F5F5F5F5F5F5F5F5F5F5F5F5F5F5F5F5F5F5F5F5F5F5F5F5F5F5F5F5F5F5F5F5
310
F5F5F5F5F5F5F5F5F5F5F5E2F5F5F5F5F5F5F5F5F5F5F5F5F5F5E2F5F5F5F5F5F5F5F5F5F5F5E2E2E2F5F5F5F5F5F5F5F5F5F5F5E2F5F5F5F5F5F5F5F5F5F5F5F5F5F5E2F5F5F5F5F5F5F5F5F5F5F5F5F5F5F5F5F5F5F5F5F5F5F5F5F5F5F5F5F5F5F5F5F5F5F5F5F5F5F5F5F5F5F5F5F5F5F5F5F5F5F5F5F5F5F5F5F5F5F5
310
F5F5F5F5F5F5F5F5F5F5F5F5F5F5F5F5F5F5F5F5F5F5F5F5F5F5F5F5F5F5F5F5F5F5F5F5F5F5F5F5F5F5F5F5F5F5F5F5F5F5F5F5F5F5F5F5F5F5F5F5F5F5F5F5E2F5F5F5F5F5F5F5F5F5F5F5F5F5F5E2F5F5F5F5F5F5F5F5F5F5F5E2E2E2F5F5F5F5F5F5F5F5F5F5F5E2F5F5F5F5F5F5F5F5F5F5F5F5F5F5E2F5F5F5F5F5F5
310
F5F5F5F5F5F5F5F5F5F5F5F5F5F5F5F5F5F5F5F5F5F5F5F5E2E2E2E2E2E2E2E2E2E2E2E2E2E2E2E2E2E2E2E2E2E2E2E2E2E2E2E2E2E2E2E2E2E2E2E2E2E2E2E2E2E2E2E2E2E2E2E2E2E2E2E2E2E2E2E2E2E2E2E2E2E2E2E2E2E2E2E2E2E2E2E2E2E2E2E2E2E2E2E2E2E2E2E2E2E2E2E2E2E2E2E2E2E2F5F5F5F5F5F5F5F5F5
310
F5F5F5F5F5E2F5F5F5F5F5F5F5F5F5F5F5E2E2E2F5F5F5F5F5F5F5F5F5F5F5E2F5F5F5F5F5F5F5F5F5F5F5F5F5F5E2F5F5F5F5F5F5F5F5F5F5F5F5F5F5F5F5F5F5F5F5F5F5F5F5F5F5F5F5F5E2E2E2E2E2E2E2E2E2E2E2E2E2E2E2E2E2E2E2E2E2E2E2E2E2E2E2E2E2E2E2E2E2E2E2E2E2E2E2E2E2E2E2E2E2E2E2E2E2E2E2
310
E2E2E2E2E2E2E2E2E2E2E2E2E2E2E2E2E2E2E2E2E2E2E2E2E2E2E2E2E2E2E2E2F5F5F5F5F5F5E2E2F5F5F5E2F5F5F5F5F5F5F5F5F5F5F5F5F5F5E2F5F5F5F5F5F5F5F5F5F5F5E2E2E2F5F5F5F5F5F5F5F5F5F5F5E2F5F5F5F5F5F5F5F5F5F5F5F5F5F5E2F5F5F5F5F5F5F5F5F5F5F5F5F5F5F5F5F5F5F5F5F5F5F5F5F5F5F5
310
F5F5E2E2E2E2E2E2E2F5E2E2E2E2E2E2E2E2E2F5F5E2E2F5F5F5F5F5F5F5F5E2F5F5F5F5F5F5F5F5F5F5F5F5F5F5F5F5F5F5F5F5F5F5F5F5F5F5F5F5F5E2F5F5F5F5F5F5F5F5F5F5E2F5F5F5F5F5F5F5F5E2E2E2E2F5F5F5F5F5F5E2E2F5F5F5E2F5F5F5F5F5F5F5F5F5F5F5F5F5F5E2F5F5F5F5F5F5F5F5F5F5F5E2E2E2F5
310
F5F5F5F5F5F5F5F5F5F5E2F5F5F5F5F5F5F5F5F5F5F5F5F5F5E2F5F5F5F5F5F5F5F5F5F5F5F5F5F5F5F5F5F5F5F5F5F5F5F5F5F5F5F5E2E2E2E2E2E2E2E2E2E2E2E2E2E2E2E2E2E2E2E2E2E2E2E2E2E2E2E2E2E2E2E2E2E2E2E2E2E2E2E2E2E2E2E2E2E2E2E2E2E2E2E2E2E2E2E2E2E2E2E2E2E2E2E2E2E2E2E2E2E2E2E2E2
310
E2E2E2E2E2E2E2E2E2E2E2F5F5F5F5F5F5E2F5F5F5F5E2F5F5F5F5F5F5F5F5F5F5F5F5F5F5E2F5F5F5F5F5F5F5F5F5F5F5E2E2E2F5F5F5F5F5F5F5F5F5F5F5F5F5F5F5F5F5F5F5F5F5F5F5F5F5F5E2F5F5F5F5F5F5F5F5F5F5F5F5F5F5F5F5F5F5F5F5F5F5F5F5F5F5F5F5E2E2E2E2E2F5E2E2E2F5F5F5E2E2E2F5F5F5E2E2
310
E2F5E2E2F5F5F5F5F5F5E2F5F5F5F5F5F5F5F5F5F5F5F5F5F5F5F5F5F5F5F5F5F5F5F5F5F5F5F5F5E2F5F5F5F5F5F5F5F5F5F5F5F5F5F5F5F5F5F5F5E2E2E2E2F5F5F5F5F5F5E2F5F5F5F5E2F5F5F5F5F5F5F5F5F5F5F5F5F5F5F5F5F5F5F5F5F5F5F5F5F5F5E2E2E2F5F5F5F5F5F5F5F5F5F5F5F5F5F5F5F5F5F5F5F5F5F5
310
F5F5F5F5E2F5F5F5F5F5F5F5F5F5F5F5F5F5F5F5F5F5F5F5F5F5F5F5F5F5F5F5F5E2E2E2E2E2E2E2E2E2F5F5F5F5E2E2E2E2E2F5E2E2E2F5E2E2E2E2E2F5F5E2F5E2E2E2E2E2E2F5F5F5F5F5F5F5F5F5F5F5F5F5F5F5F5F5F5F5F5F5F5E2F5F5F5F5F5F5F5F5F5F5F5F5F5F5F5F5F5F5F5E2E2E2E2F5F5F5F5F5F5E2F5F5F5
310
F5E2F5F5F5F5F5F5F5F5F5F5F5F5F5F5F5F5F5F5F5F5F5F5F5F5F5F5E2E2E2F5F5F5F5F5F5F5F5F5F5F5F5F5F5F5F5F5F5F5F5F5F5F5F5F5F5E2F5F5F5F5F5F5F5F5F5F5F5F5F5F5F5F5F5F5F5F5F5F5F5F5F5F5F5F5E2E2E2E2E2E2E2E2E2F5F5F5F5E2F5F5F5E2E2E2E2E2E2E2E2F5F5E2E2F5E2F5E2F5F5F5F5E2F5F5F5
310
F5F5F5F5F5F5F5F5F5F5F5F5F5F5F5F5F5F5F5E2F5F5F5F5F5F5F5F5F5F5F5F5F5F5F5F5F5F5F5E2E2E2E2F5F5F5F5F5F5E2F5F5F5F5E2F5F5F5F5F5F5F5F5F5F5F5F5F5F5F5F5F5F5F5F5F5F5F5F5F5F5E2E2E2F5F5F5F5F5F5F5F5F5F5F5F5F5F5F5F5F5F5F5F5F5F5F5F5F5F5E2F5F5F5F5F5F5F5F5F5F5F5F5F5F5F5F5
310
F5F5F5F5F5F5F5F5F5F5F5F5E2E2E2E2E2E2E2E2E2F5F5F5F5E2E2E2E2E2F5E2E2E2E2E2E2E2E2F5E2E2E2F5E2E2E2E2E2E2F5F5F5F5F5F5F5F5F5F5F5F5F5F5F5F5F5F5F5F5F5F5E2F5F5F5F5F5F5F5F5F5F5F5F5F5F5F5F5F5F5F5E2E2E2E2F5F5F5F5F5F5E2F5F5F5F5E2F5F5F5F5F5F5F5F5F5F5F5F5F5F5F5F5F5F5F5
310
F5F5F5F5F5F5F5E2E2E2F5F5F5F5F5F5F5F5F5F5F5F5F5F5F5F5F5F5F5F5F5F5F5F5F5F5E2F5F5F5F5F5F5F5F5F5F5F5F5F5F5F5F5F5F5F5F5F5F5F5F5F5F5F5F5E2E2E2E2E2E2E2E2E2E2F5F5E2E2E2E2E2E2E2F5E2E2E2E2E2E2E2E2F5E2E2F5E2E2E2E2E2E2F5F5F5F5F5F5F5F5F5F5F5F5F5F5F5F5F5F5F5F5F5F5E2F5
310
F5F5F5F5F5F5F5F5F5F5F5F5F5F5F5F5F5F5E2E2E2E2F5F5F5F5F5F5E2F5F5F5F5E2F5F5F5F5F5F5F5F5F5F5F5F5F5F5F5F5F5F5F5F5F5F5F5F5F5F5E2E2E2F5F5F5F5F5F5F5F5F5F5F5F5F5F5F5F5F5F5F5F5F5F5F5F5F5F5E2F5F5F5F5F5F5F5F5F5F5F5F5F5F5F5F5F5F5F5F5F5F5F5F5F5F5F5F5E2E2E2E2E2F5F5F5E2
310
E2F5F5F5E2F5F5F5E2E2F5E2F5E2E2E2E2E2E2E2E2E2F5E2E2F5F5E2E2F5F5F5F5F5F5F5F5F5F5F5F5F5F5F5F5F5F5F5F5F5F5E2F5F5F5F5F5F5F5F5F5F5F5F5F5F5F5F5F5F5F5E2E2E2E2F5F5F5F5F5F5E2F5F5F5F5E2F5F5F5F5F5F5F5F5F5F5F5F5F5F5F5F5F5F5F5F5F5F5F5F5F5F5E2E2E2F5F5F5F5F5F5F5F5F5F5F5
310
F5F5F5F5F5F5F5F5F5F5F5F5F5F5F5E2F5F5F5F5F5F5F5F5F5F5F5F5F5F5F5F5F5F5F5F5F5F5F5F5F5F5F5F5E2E2E2E2E2F5F5F5E2F5F5F5F5E2F5F5F5E2F5F5E2F5E2E2E2E2E2E2E2E2E2F5E2E2F5F5E2E2F5F5F5F5F5F5F5F5F5F5F5F5F5F5F5F5F5F5F5F5F5F5E2F5F5F5F5F5F5F5F5F5F5F5F5F5F5F5F5F5F5F5E2E2E2
310
E2F5F5F5F5F5F5F5F5F5F5F5E2F5F5F5F5F5F5F5F5F5F5F5F5F5F5F5F5F5F5F5F5F5F5F5F5F5F5E2E2E2F5F5F5F5F5F5F5F5F5F5F5F5F5F5F5F5F5F5F5F5F5F5F5F5F5F5E2F5F5F5F5F5F5F5F5F5F5F5F5F5F5F5F5F5F5F5F5F5F5F5F5F5F5F5F5E2E2E2E2E2F5F5F5E2E2E2F5BEE2BEE2F5E2E2E2E2E2E2E2E2E2F5E2F5E2
310
E2F5E2E2F5F5E2E2F5F5F5F5F5F5F5F5F5F5F5F5F5F5F5F5F5F5F5F5F5F5E2F5F5F5F5F5F5F5F5F5F5F5F5F5F5F5F5F5F5F5E2E2E2E2F5F5F5F5F5E2F5E2E2F5F5E2F5F5F5F5F5F5F5F5F5F5F5F5F5F5F5F5F5F5F5F5F5F5F5F5F5F5E2E2E2F5F5F5F5F5F5F5F5F5F5F5E2F5F5F5F5F5F5F5F5F5F5F5F5F5F5E2F5F5F5F5F5
310
F5F5F5F5F5F5F5F5F5F5F5F5F5F5F5F5F5F5F5F5F5F5F5E2E2E2E2E2E2E2E2E2E2E2E2E2BEE2E2E2E2F5E2E2E2E2E2E2E2E2E2F5E2E2F5E2E2E2E2E2E2F5F5F5F5F5F5F5F5F5F5F5F5F5F5F5F5F5F5F5F5F5F5E2F5F5F5F5F5F5F5F5F5F5F5F5F5F5F5F5F5F5F5E2E2E2E2F5F5F5F5F5E2E2F5F5F5F5E2F5F5F5F5F5F5F5F5
310
F5F5F5F5F5F5E2F5F5F5F5F5F5F5F5F5F5F5E2E2E2F5F5F5F5F5F5F5F5F5F5F5E2F5F5F5F5F5F5F5F5F5F5F5F5F5F5E2F5F5F5F5F5F5F5F5F5F5F5F5F5F5F5F5F5F5F5F5F5F5F5F5F5F5F5F5E2E2E2E2E2E2E2E2E2F5F5E2BEE2BEE2E2E2E2E2F5E2E2E2E2E2F5F5E2E2E2F5E2E2E2E2E2E2F5F5F5F5F5F5F5F5F5F5F5F5F5
310
F5F5F5F5F5F5F5F5F5E2F5F5F5F5F5F5F5F5F5F5F5F5F5F5F5F5F5F5F5E2E2E2E2F5F5F5F5F5E2F5F5E2F5F5E2F5F5F5F5F5F5F5F5F5F5F5F5F5F5E2F5F5F5F5F5F5F5F5F5F5F5E2E2E2F5F5F5F5F5F5F5F5F5F5F5E2F5F5F5F5F5F5F5F5F5F5F5F5F5F5E2F5F5F5F5F5F5F5F5F5F5F5F5F5F5F5F5F5F5F5F5F5F5F5F5F5F5
310
F5F5E2E2E2E2E2E2E2E2E2F5F5E2E2E2E2E2E2E2F5F5F5F5E2E2E2E2E2E2E2F5E2F5E2E2E2E2E2E2F5F5F5F5F5F5F5F5F5F5F5F5F5F5F5F5F5F5F5F5F5F5E2F5F5F5F5F5F5F5F5F5F5F5F5F5F5F5F5F5F5F5E2E2E2E2F5F5F5F5F5E2E2E2E2F5F5E2F5F5F5F5F5F5F5F5F5F5F5F5F5F5E2F5F5F5F5F5F5F5F5F5F5F5E2E2E2
310
F5F5F5F5F5F5F5F5F5F5F5E2F5F5F5F5F5F5F5F5F5F5F5F5F5F5E2F5F5F5F5F5F5F5F5F5F5F5F5F5F5F5F5F5F5F5F5F5F5F5F5F5F5F5F5E2E2E2E2E2F5F5F5F5F5F5F5E2F5F5F5F5F5F5F5F5F5E2E2E2E2F5F5F5F5E2F5F5F5F5F5F5F5F5F5F5F5F5F5F5F5F5F5F5F5F5F5F5F5F5F5F5F5F5F5E2F5F5F5F5F5F5F5F5F5F5F5
310
F5F5F5F5F5F5F5F5E2E2E2E2F5F5F5F5F5F5F5E2E2F5F5E2F5F5F5F5F5F5F5F5F5F5F5F5F5F5E2F5F5F5F5F5F5F5F5F5F5F5E2E2E2F5F5F5F5F5F5F5F5F5F5F5E2F5F5F5F5F5F5F5F5F5F5F5F5F5F5E2F5F5F5F5F5F5F5F5F5F5F5F5F5F5F5F5F5F5F5F5F5F5F5F5F5F5F5F5E2E2E2E2E2F5F5F5E2E2F5F5E2E2F5F5F5E2E2
310
F5F5F5E2E2E2F5F5F5F5F5E2F5F5F5F5F5F5F5F5F5F5F5F5F5F5F5F5F5F5F5F5F5F5F5F5F5F5F5F5F5E2F5F5F5F5F5F5F5F5F5F5F5F5F5F5F5F5F5F5F5E2E2E2E2F5F5F5F5F5F5E2E2E2F5F5E2F5F5F5F5F5F5F5F5F5F5F5F5F5F5E2F5F5F5F5F5F5F5F5F5F5F5E2E2E2F5F5F5F5F5F5F5F5F5F5F5E2F5F5F5F5F5F5F5F5F5
310
F5F5F5F5F5E2F5F5F5F5F5F5F5F5F5F5F5F5F5F5F5F5F5F5F5F5F5F5F5F5F5F5F5F5E2E2E2E2E2E2F5F5E2E2F5F5F5E2F5F5F5E2E2F5F5E2E2F5E2F5F5F5F5F5E2F5F5F5F5F5F5F5F5F5F5F5F5F5F5F5F5F5F5F5F5F5F5F5F5F5F5F5F5F5E2F5F5F5F5F5F5F5F5F5F5F5F5F5F5F5F5F5F5F5E2E2E2E2F5F5F5F5F5E2E2F5E2
310
F5F5E2F5F5F5F5F5F5F5F5F5F5F5F5F5F5E2F5F5F5F5F5F5F5F5F5F5F5E2E2E2F5F5F5F5F5F5F5F5F5F5F5E2F5F5F5F5F5F5F5F5F5F5F5F5F5F5E2F5F5F5F5F5F5F5F5F5F5F5F5F5F5F5F5F5F5F5F5F5F5F5F5F5F5F5F5E2E2E2E2E2E2E2E2F5F5F5F5F5F5F5F5F5F5E2E2E2E2E2F5E2F5F5F5F5F5E2F5F5F5F5F5F5F5F5F5
310
F5F5F5F5F5F5F5F5F5F5F5F5E2E2E2F5F5F5F5F5E2F5F5F5F5F5F5F5F5F5F5F5F5F5F5F5F5F5F5F5E2E2E2E2F5F5F5F5F5E2E2E2F5F5F5E2F5F5F5F5F5F5F5F5F5F5F5F5F5F5E2F5F5F5F5F5F5F5F5F5F5F5E2E2E2F5F5F5F5F5F5F5F5F5F5F5E2F5F5F5F5F5F5F5F5F5F5F5F5F5F5E2F5F5F5F5F5F5F5F5F5F5F5F5F5F5F5
310
F5F5F5F5F5F5F5F5F5F5F5F5F5E2E2E2E2E2E2E2E2F5F5F5F5F5F5F5F5F5F5F5E2E2E2F5E2E2F5F5F5F5F5E2F5F5F5F5F5F5F5F5F5F5F5F5F5F5F5F5F5F5F5F5F5E2E2F5F5F5F5F5F5E2F5F5F5F5F5F5F5F5F5F5F5F5F5F5F5F5F5F5F5E2E2E2E2F5F5F5F5F5E2F5F5E2F5F5E2F5F5F5F5F5F5F5F5F5F5F5F5F5F5E2F5F5F5
310
F5F5F5F5F5F5F5F5E2E2E2F5F5F5F5F5F5F5F5F5F5F5E2F5F5F5F5F5F5F5F5F5F5F5F5F5F5E2F5F5F5F5F5F5F5F5F5F5F5F5F5F5F5F5F5F5F5F5F5F5F5F5F5F5F5F5E2E2E2E2E2F5E2E2E2F5F5F5E2E2E2F5F5F5E2E2E2F5E2E2F5F5F5F5F5F5E2F5F5F5F5F5F5F5F5F5F5F5F5F5F5F5F5F5F5F5F5F5E2E2E2F5F5F5F5F5E2
310
F5F5F5F5F5F5F5F5F5F5F5F5F5F5F5F5F5F5F5E2E2E2E2F5F5F5F5F5E2E2E2F5F5F5E2F5F5F5F5F5F5F5F5F5F5F5F5F5F5E2F5F5F5F5F5F5F5F5F5F5F5E2E2E2F5F5F5F5F5F5F5F5F5F5F5E2F5F5F5F5F5F5F5F5F5F5F5F5F5F5E2F5F5F5F5F5F5F5F5F5F5F5F5F5F5F5F5F5F5F5F5F5F5F5F5F5F5F5F5E2E2E2E2E2E2F5E2
310
E2E2E2F5E2E2E2F5E2E2E2E2F5E2E2F5F5F5F5F5F5F5E2F5F5F5F5F5F5F5F5F5F5F5F5F5F5F5F5F5F5F5F5F5E2E2E2F5F5F5F5F5E2F5F5F5F5F5F5F5F5F5F5F5F5F5F5F5F5F5F5F5E2E2E2E2F5F5F5F5F5F5F5F5F5F5F5E2F5F5F5F5F5F5F5F5F5F5F5F5F5F5E2F5F5F5F5F5F5F5F5F5F5F5E2E2E2F5F5F5F5F5F5F5F5F5F5
310
F5E2F5F5F5F5F5F5F5F5F5F5F5F5F5F5E2F5F5F5F5F5F5F5F5F5F5F5F5F5F5F5F5F5F5F5F5F5F5F5F5F5F5F5F5E2E2E2E2E2E2E2F5F5E2E2E2E2E2E2E2E2E2F5F5E2E2F5F5F5F5F5F5F5F5E2F5F5F5F5F5F5F5F5F5F5F5F5F5F5F5F5F5F5F5F5F5F5F5F5F5F5F5F5F5E2F5F5F5F5F5F5F5F5F5F5F5F5F5F5F5F5F5F5F5E2E2
310
E2E2F5F5F5F5F5F5F5F5F5F5F5E2F5F5F5F5F5F5F5F5F5F5F5F5F5F5E2F5F5F5F5F5F5F5F5F5F5F5E2E2E2F5F5F5F5F5F5F5F5F5F5F5E2F5F5F5F5F5F5F5F5F5F5F5F5F5F5E2F5F5F5F5F5F5F5F5F5F5F5F5F5F5F5F5F5F5F5F5F5F5F5F5F5F5F5F5E2E2E2E2E2E2E2E2E2E2E2F5F5F5F5E2E2E2E2E2E2F5F5F5F5F5F5F5F5
310
F5E2F5F5F5F5F5F5F5F5F5F5F5F5F5F5F5F5F5F5F5F5F5F5F5F5F5F5F5F5F5E2F5F5F5F5F5F5F5F5F5F5F5F5F5F5F5F5F5F5F5E2E2E2E2F5F5F5F5F5E2E2E2E2F5F5E2F5F5F5F5F5F5F5F5F5F5F5F5F5F5E2F5F5F5F5F5F5F5F5F5F5F5E2E2E2F5F5F5F5F5F5F5F5F5F5F5E2F5F5F5F5F5F5F5F5F5F5F5F5F5F5E2F5F5F5F5
310
F5F5F5F5F5F5F5F5F5F5F5F5F5F5F5F5F5F5F5F5F5F5F5F5E2E2E2E2E2E2E2E2E2E2E2F5F5F5F5E2F5F5F5F5F5F5F5F5F5F5F5F5F5F5E2F5F5F5F5F5F5F5F5F5F5F5F5F5F5F5F5F5F5F5F5F5F5F5F5F5F5F5F5F5E2F5E2E2E2E2E2E2F5F5F5F5F5F5F5F5F5F5F5F5E2E2E2E2F5F5F5F5F5E2F5F5E2F5F5E2F5F5F5F5F5F5F5
310
F5F5F5F5F5F5F5E2F5F5F5F5F5F5F5F5F5F5F5E2E2E2F5F5F5F5F5F5F5F5F5F5F5E2F5F5F5F5F5F5F5F5F5F5F5F5F5F5E2F5F5F5F5F5F5F5F5F5F5F5F5F5F5F5F5F5F5F5F5F5F5F5F5F5F5F5F5E2E2E2E2E2E2E2E2E2E2E2F5F5F5F5E2E2E2E2E2E2E2E2E2E2E2E2E2E2E2E2F5F5F5F5F5F5F5F5F5F5F5F5F5F5F5F5F5F5F5
310
F5F5F5F5F5F5F5F5F5F5E2E2E2E2E2E2E2E2F5F5F5F5F5F5F5F5F5F5F5F5E2E2E2E2F5F5F5F5F5E2E2E2E2F5F5E2F5F5F5F5F5F5F5F5F5F5F5F5F5F5E2F5F5F5F5F5F5F5F5F5F5F5E2E2E2F5F5F5F5F5F5F5F5F5F5F5E2F5F5F5F5F5F5F5F5F5F5F5F5F5F5E2F5F5F5F5F5F5F5F5F5F5F5F5F5F5F5F5F5F5F5F5F5F5F5F5F5
310
F5F5F5E2E2E2E2E2E2F5E2E2E2E2F5F5F5F5E2E2F5F5E2E2F5F5F5F5F5F5F5F5E2E2F5F5F5F5F5F5F5F5F5F5F5F5F5F5F5F5F5F5F5F5F5F5F5F5F5F5F5F5F5E2F5F5E2F5F5E2E2F5F5F5F5F5F5F5F5F5F5F5F5E2E2E2E2F5F5F5F5F5E2E2F5E2F5F5E2F5F5F5F5F5F5F5F5F5F5F5F5F5F5E2F5F5F5F5F5F5F5F5F5F5F5E2E2
310
E2F5F5F5F5F5F5F5F5F5F5F5F5F5F5F5F5F5F5F5F5F5F5F5F5F5F5E2E2E2E2E2E2E2E2E2E2E2E2E2E2E2E2E2E2E2E2E2E2E2E2F5F5F5F5F5E2E2E2E2E2E2E2E2E2E2E2F5F5F5F5E2E2E2E2E2E2E2E2E2E2E2E2E2E2E2E2F5F5F5F5F5F5F5F5F5F5F5F5F5F5F5F5F5F5F5F5F5F5F5F5F5F5F5F5F5E2E2E2E2E2E2E2E2F5F5F5
310
F5F5F5F5F5F5F5F5F5E2E2E2E2F5F5F5F5F5E2E2F5E2F5F5E2F5F5F5F5F5F5F5F5F5F5F5F5F5F5F5F5F5F5F5F5F5F5F5F5F5F5E2E2E2F5F5F5F5F5F5F5F5F5F5F5F5F5F5F5F5F5F5F5F5F5F5F5F5F5F5E2E2F5F5F5F5F5F5F5F5F5F5F5F5F5F5F5F5F5F5F5F5F5E2F5F5F5F5F5E2E2E2E2E2E2E2E2E2E2E2F5F5F5F5E2F5F5
310
F5F5F5F5F5F5F5F5F5F5F5F5E2F5F5F5F5F5F5F5F5F5F5F5F5F5F5F5F5F5F5F5F5F5F5F5F5F5F5F5F5F5E2F5E2E2E2E2E2E2F5F5F5F5F5F5F5F5F5F5F5F5E2E2E2E2F5F5F5F5F5F5F5F5F5F5F5E2F5F5F5F5F5F5F5F5F5F5F5F5F5F5F5F5F5F5F5F5F5F5F5F5F5F5E2E2E2F5F5F5F5F5F5F5F5F5F5F5F5F5F5F5F5F5F5F5F5
310
F5F5F5F5F5F5E2E2F5E2F5F5F5F5F5F5F5F5F5F5F5F5F5F5F5F5F5E2F5E2F5F5F5F5F5E2E2E2E2E2E2E2E2E2E2E2F5F5F5F5E2E2E2E2E2E2F5F5F5F5F5F5F5F5F5E2F5F5F5F5F5F5F5F5F5F5F5F5F5F5F5F5F5F5F5F5F5F5F5F5F5F5F5F5F5E2F5F5F5F5F5F5F5F5F5F5F5F5F5F5F5F5F5F5F5E2E2E2E2F5F5F5F5F5F5F5F5
310
F5F5F5E2F5F5F5F5F5F5F5F5F5F5F5F5F5F5F5F5F5F5F5F5F5F5F5F5F5F5E2E2E2F5F5F5F5F5F5F5F5F5F5F5F5F5F5F5F5F5F5F5F5F5F5F5F5F5F5E2E2F5E2F5F5F5F5F5F5F5F5F5F5F5F5F5F5F5F5F5E2F5E2F5F5F5F5F5E2E2E2E2E2E2E2E2E2E2E2E2E2E2E2E2E2E2F5F5E2E2F5F5F5F5F5F5F5F5E2F5F5F5F5F5F5F5F5
310
F5F5F5F5F5F5F5F5F5F5F5F5F5F5F5F5F5F5F5F5F5E2F5F5F5F5F5F5F5F5F5F5F5F5F5F5F5F5F5F5F5E2E2E2E2F5F5F5F5F5E2E2E2E2F5F5E2F5F5F5F5F5F5F5F5F5F5F5F5F5F5F5F5F5F5F5F5F5F5F5F5F5F5E2E2E2F5F5F5F5F5F5F5F5F5F5F5F5F5F5F5F5F5F5F5F5F5F5F5F5F5F5E2E2F5E2E2E2E2E2E2E2E2E2E2E2E2
310
E2E2E2E2E2E2E2F5E2F5F5F5F5F5E2E2E2E2E2E2F5E2E2E2E2F5E2E2E2E2E2E2E2E2F5E2E2F5F5F5F5F5F5F5E2F5F5F5F5F5F5F5F5F5F5F5F5F5F5F5F5F5F5F5F5F5F5F5F5F5F5F5F5F5E2F5F5F5F5F5F5F5F5F5F5F5F5F5F5F5F5F5F5F5E2E2E2E2F5F5F5F5F5F5F5F5E2F5F5E2F5F5F5F5F5F5F5F5F5F5F5F5F5F5F5F5F5
310
F5F5F5F5F5F5F5F5F5E2E2E2F5F5F5F5F5F5F5F5F5F5F5F5F5F5F5F5F5F5F5F5F5F5F5F5F5F5E2E2F5E2F5F5F5F5E2E2F5E2E2E2E2E2E2F5F5F5F5E2F5E2F5F5F5F5F5E2E2E2E2E2F5E2E2E2F5F5F5E2E2E2F5F5F5E2E2E2F5E2E2F5F5F5F5F5F5E2F5F5F5F5F5F5F5F5F5F5F5F5F5F5F5F5F5F5F5F5F5F5F5F5F5F5F5F5F5
310
E2F5F5F5F5F5F5F5F5F5F5F5F5F5F5F5F5F5F5F5E2E2E2E2F5F5F5F5F5E2F5E2E2F5F5E2F5F5F5F5F5F5F5F5F5F5F5F5F5F5F5F5F5F5F5F5F5F5F5F5F5F5E2E2E2F5F5F5F5F5F5F5F5F5F5F5F5F5F5F5F5F5F5F5F5F5F5F5F5F5F5E2E2F5E2F5F5F5F5E2E2F5E2E2E2E2E2E2F5F5F5F5E2F5E2F5F5F5F5F5E2E2E2E2E2E2E2
310
E2F5F5F5F5F5F5F5F5F5F5F5E2E2E2F5E2E2F5F5F5F5F5E2F5F5F5F5F5F5F5F5F5F5F5F5F5F5F5F5F5F5F5F5F5F5F5F5F5F5F5F5F5E2F5F5F5F5F5F5F5F5F5F5F5F5F5F5F5F5F5F5F5E2E2E2E2F5F5F5F5F5E2E2E2E2F5F5E2F5F5F5F5F5F5F5F5F5F5F5F5F5F5F5F5F5F5F5F5F5F5F5F5F5F5E2E2E2F5F5F5F5F5F5F5F5F5
310
F5F5F5F5F5F5F5F5F5F5F5F5F5F5F5F5F5E2E2F5F5F5F5F5F5F5F5F5F5F5F5F5F5F5F5F5F5F5F5F5E2F5F5F5F5F5E2E2E2E2E2E2E2E2F5F5F5F5F5F5F5F5F5F5E2E2E2E2E2F5E2F5F5F5F5F5E2F5F5F5F5F5F5F5F5F5F5F5F5F5F5F5F5F5F5F5F5F5F5F5F5F5F5F5F5F5E2F5F5F5F5F5F5F5F5F5F5F5F5F5F5F5F5F5F5F5E2
310
E2E2E2F5F5F5F5F5F5F5F5E2F5F5E2F5F5F5F5F5F5F5F5F5F5F5F5F5F5F5F5F5F5F5F5F5F5F5F5F5F5E2E2E2F5F5F5F5F5F5F5F5F5F5F5F5F5F5F5F5F5F5F5F5F5F5F5F5F5F5E2E2F5E2F5F5F5F5F5F5E2F5F5F5F5F5F5F5F5F5F5F5F5E2F5F5F5F5F5E2E2E2E2E2E2F5F5E2F5F5F5F5E2F5F5F5E2E2F5F5E2E2F5E2F5F5F5
310
F5F5E2F5F5F5F5F5F5F5F5F5F5F5F5F5F5F5F5F5F5F5F5F5F5F5F5F5F5F5F5F5E2F5F5F5F5F5F5F5F5F5F5F5F5F5F5F5F5F5F5F5E2E2E2E2F5F5F5F5F5F5E2E2F5F5F5E2F5F5F5F5F5F5F5F5F5F5F5F5F5F5F5F5F5F5F5F5F5F5F5F5F5F5E2E2E2F5F5F5F5F5F5F5F5F5F5F5E2F5F5F5F5F5F5F5F5F5F5F5F5F5F5E2E2F5E2
310
E2E2E2E2E2E2E2F5F5F5F5F5F5F5F5F5F5F5F5E2F5F5F5F5F5E2E2E2E2E2F5F5F5E2E2F5F5E2E2F5F5F5E2E2F5F5F5E2E2E2F5F5F5F5F5E2F5F5F5F5F5F5F5F5F5F5F5F5F5F5F5F5F5F5F5F5F5F5F5F5F5F5F5F5F5E2F5F5F5F5F5F5F5F5F5F5F5F5F5F5F5F5F5F5F5E2E2E2E2F5F5F5F5F5E2F5F5F5F5F5E2F5F5F5F5F5F5
310
F5F5F5F5F5F5F5F5E2F5F5F5F5F5F5F5F5F5F5F5E2E2E2F5F5F5F5F5F5F5F5F5F5F5E2F5F5F5F5F5F5F5F5F5F5F5F5F5F5E2E2F5E2E2E2F5E2E2E2E2F5F5F5F5F5F5F5F5F5F5F5F5E2F5F5F5F5F5E2E2E2E2E2F5F5F5E2F5E2E2F5E2E2E2E2E2E2F5F5F5E2E2E2F5F5F5F5F5E2F5F5F5F5F5F5F5F5F5F5F5F5F5F5F5F5F5F5
310
F5F5F5F5F5F5F5F5F5F5F5E2F5F5F5F5F5F5F5F5F5F5F5F5F5F5F5F5F5F5F5E2E2E2E2F5F5F5F5F5E2E2E2E2F5F5E2F5F5F5F5F5F5F5F5F5F5F5F5F5F5E2F5F5F5F5F5F5F5F5F5F5F5E2E2E2F5F5F5F5F5F5F5F5F5F5F5E2F5F5F5F5F5F5F5F5F5F5F5F5F5F5E2E2F5E2E2E2F5E2E2E2E2F5F5F5F5F5F5F5F5F5F5F5F5E2F5
310
F5F5F5F5E2E2E2E2E2F5F5F5F5F5E2F5E2F5E2F5E2F5F5F5F5F5E2E2E2F5F5F5F5F5E2F5F5F5F5F5F5F5F5F5F5F5F5F5F5F5F5F5F5F5F5F5F5F5F5F5F5F5F5F5E2F5F5F5F5F5F5F5F5F5F5F5F5F5F5F5F5F5F5F5E2E2E2E2F5F5F5F5F5F5F5F5E2F5F5E2F5F5F5F5F5F5F5F5F5F5F5F5F5F5E2F5F5F5F5F5F5F5F5F5F5F5E2
310
E2E2F5F5F5F5F5F5F5F5F5F5F5E2F5F5F5F5F5F5F5F5F5F5F5F5F5F5E2E2F5F5F5F5F5F5F5F5F5F5F5F5F5F5F5F5F5F5F5F5F5E2F5F5F5F5F5E2E2E2E2E2E2F5F5F5F5E2E2BEF5BEE2E2F5F5F5F5F5F5E2E2F5F5F5F5F5E2F5F5F5F5F5F5F5F5F5F5F5F5F5F5F5F5F5F5F5F5F5F5F5F5F5F5F5F5F5E2F5F5F5F5F5F5F5F5F5
310
F5F5F5F5F5F5F5F5F5F5E2E2E2E2F5F5F5F5F5E2E2E2E2F5F5E2F5F5F5F5F5F5F5F5F5F5F5F5F5F5E2F5F5F5F5F5F5F5F5F5F5F5E2E2E2F5F5F5F5F5F5F5F5F5F5F5E2F5F5F5F5F5F5F5F5F5F5F5F5F5F5E2E2F5E2E2E2E2E2E2F5F5F5F5F5F5F5F5F5F5F5F5F5F5E2F5F5F5F5F5E2E2E2E2E2E2F5F5E2E2F5F5E2BEF5F5F5
310
E2E2F5F5F5F5E2E2F5F5F5F5F5E2F5F5F5F5F5F5F5F5F5F5F5F5F5F5F5F5F5F5F5F5F5F5F5F5F5F5F5F5F5E2F5F5F5F5F5F5F5F5F5F5F5F5F5F5F5F5F5F5F5E2E2E2E2F5F5F5F5F5E2E2E2E2F5F5E2F5F5F5F5F5F5F5F5F5F5F5F5F5F5E2F5F5F5F5F5F5F5F5F5F5F5E2E2E2F5F5F5F5F5F5F5F5F5F5F5E2F5F5F5F5F5F5F5
310
F5F5F5F5F5F5F5E2E2F5E2E2E2E2E2E2F5F5F5F5F5F5F5F5F5F5F5F5F5F5E2F5F5F5F5F5E2E2E2E2E2E2F5F5E2E2F5F5BEE2BEF5F5E2E2F5F5E2E2E2E2F5F5F5F5F5E2F5F5F5F5F5F5F5F5F5F5F5F5F5F5F5F5F5F5F5F5F5F5F5F5F5F5F5F5F5E2F5F5F5F5F5F5F5F5F5F5F5F5F5F5F5F5F5F5F5E2E2E2E2F5F5F5F5F5E2F5
310
F5E2F5F5E2F5F5F5F5F5F5F5F5F5F5F5F5F5F5E2F5F5F5F5F5F5F5F5F5F5F5E2E2E2F5F5F5F5F5F5F5F5F5F5F5E2F5F5F5F5F5F5F5F5F5F5F5F5F5F5E2E2E2E2E2E2E2E2E2E2E2E2E2E2E2E2E2E2E2E2E2E2E2E2F5F5F5F5F5E2E2E2E2E2F5F5F5F5F5F5F5F5F5F5F5F5F5F5F5F5E2E2E2E2F5F5F5F5F5E2F5F5F5F5F5F5F5
310
F5F5F5F5F5F5F5F5F5F5F5F5F5F5F5F5F5F5F5F5F5F5E2F5F5F5F5F5F5F5F5F5F5F5F5F5F5F5F5F5F5F5E2E2E2E2F5F5F5F5F5E2E2E2E2F5F5E2F5F5F5F5F5F5F5F5F5F5F5F5F5F5E2F5F5F5F5F5F5F5F5F5F5F5E2E2E2F5F5F5F5F5F5F5F5F5F5F5E2F5F5F5F5F5F5F5F5F5F5F5F5F5F5E2F5F5F5F5F5F5F5F5F5F5F5F5F5
310
F5F5F5F5F5F5F5F5F5F5F5F5F5F5F5E2E2E2E2E2F5F5F5F5E2E2F5F5F5E2F5F5F5F5F5F5E2E2E2E2F5F5F5F5F5E2E2F5F5F5E2E2F5F5F5E2E2F5F5F5E2E2F5F5F5F5E2F5F5F5F5E2F5F5F5E2E2F5F5F5F5E2F5F5F5F5E2F5F5F5F5E2F5F5F5E2E2E2E2F5F5F5F5F5F5F5F5F5F5F5E2F5F5F5F5F5F5F5F5F5F5F5F5F5F5E2F5
310
F5F5F5F5F5F5F5F5F5F5E2E2E2F5F5F5F5F5F5F5F5F5F5F5E2F5F5F5F5F5F5F5F5F5F5F5F5F5F5E2F5F5F5F5F5F5F5F5F5F5F5F5F5F5F5F5F5F5F5F5F5F5F5F5F5F5F5F5E2E2E2E2E2F5F5F5F5E2E2F5F5F5E2E2F5F5F5F5F5F5E2E2E2F5F5F5F5E2E2E2F5F5E2E2E2E2F5E2E2E2E2F5E2E2E2E2F5E2E2E2E2F5E2E2E2E2F5
310
E2E2E2E2F5E2E2E2E2F5F5E2E2E2F5F5E2E2E2F5F5E2E2E2E2F5F5F5F5F5F5E2F5F5F5F5E2F5F5F5F5F5F5F5F5F5F5F5F5F5F5E2F5F5F5F5F5F5F5F5F5F5F5E2E2E2F5F5F5F5F5F5F5F5F5F5F5E2F5F5F5F5F5F5F5F5F5F5F5F5F5F5E2F5F5F5F5F5F5F5F5F5F5F5F5F5F5F5F5F5F5F5F5F5F5F5F5F5F5F5F5E2E2E2E2E2E2
310
F5F5F5F5F5F5F5F5F5F5F5F5F5F5F5E2E2F5E2F5F5F5F5E2E2E2F5F5E2E2E2E2F5E2E2E2E2F5E2E2E2E2F5E2E2E2E2F5E2E2E2E2F5E2E2E2E2F5E2E2E2E2F5E2E2E2E2F5E2E2E2E2F5F5E2E2E2E2F5F5F5F5F5F5E2F5F5F5F5E2F5F5F5F5F5F5F5F5F5F5F5F5F5F5E2F5F5F5F5F5F5F5F5F5F5F5E2E2E2F5F5F5F5F5F5F5F5
310
F5F5F5E2F5F5F5F5F5F5F5F5F5F5F5F5F5F5E2F5F5F5F5F5F5F5F5F5F5F5F5F5F5F5F5F5F5F5F5F5F5F5F5F5F5F5F5E2E2E2E2E2E2E2E2F5F5F5F5F5F5F5F5F5F5E2E2E2E2E2F5E2F5F5F5F5E2E2E2F5F5E2E2E2F5F5E2E2E2F5F5E2E2E2F5F5E2E2E2F5F5E2E2E2F5F5E2E2E2E2F5E2E2E2E2F5E2E2E2E2F5E2E2E2E2F5F5
310
E2E2E2E2F5F5F5F5F5F5E2F5F5F5F5E2F5F5F5F5F5F5F5F5F5F5F5F5F5F5E2F5F5F5F5F5F5F5F5F5F5F5E2E2E2F5F5F5F5F5F5F5F5F5F5F5E2F5F5F5F5F5F5F5F5F5F5F5F5F5F5E2F5F5F5F5F5F5F5F5F5F5F5F5F5F5F5F5F5F5F5F5F5F5F5F5F5F5F5F5E2E2E2E2E2E2E2E2F5F5F5F5F5F5F5F5F5F5F5E2E2E2F5E2E2F5F5
310
F5F5F5E2F5F5F5F5F5F5F5F5F5F5F5F5F5F5F5F5F5F5F5F5F5F5F5F5F5F5F5F5F5E2F5F5F5F5F5F5F5F5F5F5F5F5F5F5F5F5F5F5F5E2E2E2E2F5F5F5F5F5F5E2F5F5F5F5E2F5F5F5F5F5F5F5F5F5F5F5F5F5F5E2F5F5F5F5F5F5F5F5F5F5F5E2E2E2F5F5F5F5F5F5F5F5F5F5F5E2F5F5F5F5F5F5F5F5F5F5F5F5F5F5E2F5F5
310
F5F5F5F5F5F5F5F5F5F5F5F5F5F5F5F5F5F5F5F5F5F5F5F5F5F5E2E2E2E2E2F5E2E2E2F5F5F5E2E2E2F5F5F5E2E2E2F5E2E2F5F5F5F5F5F5E2F5F5F5F5F5F5F5F5F5F5F5F5F5F5F5F5F5F5F5F5F5F5F5F5F5F5F5F5F5E2F5F5F5F5F5F5F5F5F5F5F5F5F5F5F5F5F5F5F5E2E2E2E2F5F5F5F5F5F5E2F5F5F5F5E2F5F5F5F5F5
310
F5F5F5F5F5F5F5F5F5E2F5F5F5F5F5F5F5F5F5F5F5E2E2E2F5F5F5F5F5F5F5F5F5F5F5E2F5F5F5F5F5F5F5F5F5F5F5F5F5F5E2F5F5F5F5F5F5F5F5F5F5F5F5F5F5F5F5F5F5F5F5F5F5F5F5F5F5F5F5E2E2E2E2E2E2E2E2E2E2E2E2E2E2E2E2E2E2E2E2E2E2E2E2E2E2E2E2E2E2E2E2E2E2E2E2E2E2E2E2E2E2E2E2E2E2E2E2
310
E2E2E2E2E2E2E2E2E2E2E2E2E2E2E2E2E2E2E2E2E2E2E2E2E2E2E2E2E2E2E2E2E2E2E2E2F5F5F5F5F5F5E2F5F5F5F5E2F5F5F5F5F5F5F5F5F5F5F5F5F5F5E2F5F5F5F5F5F5F5F5F5F5F5E2E2E2F5F5F5F5F5F5F5F5F5F5F5E2F5F5F5F5F5F5F5F5F5F5F5F5F5F5E2F5F5F5F5F5F5F5F5F5F5F5F5F5F5F5F5F5F5F5F5F5F5F5
310
F5F5F5F5F5E2E2E2E2E2E2E2F5F5E2E2E2E2E2E2E2E2E2F5F5E2E2F5F5F5F5F5F5F5F5E2F5F5F5F5F5F5F5F5F5F5F5F5F5F5F5F5F5F5F5F5F5F5F5F5F5F5F5F5F5E2F5F5F5F5F5F5F5F5F5F5E2F5F5F5F5F5E2E2E2E2E2E2E2F5F5F5F5F5F5E2E2F5F5F5E2F5F5F5F5F5F5F5F5F5F5F5F5F5F5E2F5F5F5F5F5F5F5F5F5F5F5
310
E2E2E2F5F5F5F5F5F5F5F5F5F5F5F5F5F5F5F5F5F5F5F5F5F5F5F5F5F5E2F5F5F5F5F5F5F5F5F5F5F5F5F5F5F5F5F5F5F5F5F5F5F5F5F5F5F5F5E2E2E2E2E2E2E2E2E2E2E2E2E2E2E2E2E2E2E2E2E2E2E2E2E2E2E2E2E2E2E2E2E2E2E2E2E2E2E2E2E2E2E2E2E2E2E2E2E2E2E2E2E2E2E2E2E2E2E2E2E2E2E2E2E2E2E2E2E2
310
E2E2E2E2E2E2E2E2E2E2E2E2E2E2E2F5F5F5F5F5F5E2E2F5F5F5E2F5F5F5F5F5F5F5F5F5F5F5F5F5F5F5F5F5F5F5F5F5F5F5F5F5F5E2E2E2F5F5F5F5F5F5F5F5F5F5F5F5F5F5F5F5F5F5F5F5F5F5F5F5F5F5E2F5F5F5F5F5F5F5F5F5F5F5F5F5F5F5F5F5F5F5F5F5F5F5F5F5F5F5F5E2F5E2E2E2E2E2E2E2E2E2E2E2E2E2E2
310
E2E2E2E2E2E2E2E2E2E2E2E2E2E2E2E2E2E2E2E2E2E2E2E2E2E2E2E2E2E2E2E2E2E2E2E2E2E2E2E2E2E2E2E2E2E2E2E2E2E2E2E2E2E2E2E2E2E2E2E2E2E2E2E2E2E2E2E2E2E2E2E2E2E2E2E2E2E2E2E2F5F5F5F5F5F5F5F5F5F5F5F5F5F5F5F5F5F5F5F5F5F5F5F5F5F5E2E2E2F5F5F5F5F5F5F5F5F5F5F5F5F5F5F5F5F5F5
310
F5F5F5F5F5F5F5F5E2F5F5F5F5F5F5F5F5F5F5F5F5F5F5F5F5F5F5F5F5F5F5F5F5F5F5F5F5E2F5F5F5F5F5F5F5F5F5F5F5F5F5F5F5F5F5F5F5F5F5F5F5F5F5F5F5F5F5F5F5F5F5F5F5F5F5F5F5F5F5F5F5F5F5F5F5F5F5F5F5F5F5F5F5F5F5F5F5F5F5F5F5F5F5F5F5F5F5F5F5F5F5F5F5F5F5F5F5F5F5F5E2F5F5F5F5F5F5
310
F5F5F5F5F5E2F5F5F5F5F5F5F5F5F5F5F5F5F5F5F5F5F5F5F5F5F5F5F5F5F5F5E2E2E2F5F5F5F5F5F5F5F5F5F5F5F5F5F5F5F5F5F5F5F5F5F5F5F5F5F5E2F5F5F5F5F5F5F5F5F5F5F5F5F5F5F5F5F5F5F5F5F5F5F5F5F5F5F5F5E2F5F5F5F5F5F5F5F5F5F5F5F5F5F5F5F5F5F5F5F5F5F5F5F5F5F5F5F5F5F5F5F5F5F5F5F5
310
F5F5F5F5F5F5F5F5F5F5F5F5F5F5F5F5F5F5F5F5F5F5F5F5F5F5F5F5F5F5F5F5F5F5F5F5F5F5F5F5F5F5F5F5F5F5E2F5F5F5F5F5F5F5F5F5F5F5E2F5F5F5F5F5F5F5F5F5F5F5F5F5F5F5F5F5F5F5F5F5F5F5F5F5F5E2E2E2F5F5F5F5F5F5F5F5F5F5F5F5F5F5F5F5F5F5F5F5F5F5F5F5F5F5E2F5F5F5F5F5F5F5F5F5F5F5F5
310
F5F5F5F5F5F5F5F5F5F5F5F5F5F5F5F5E2F5F5F5F5F5F5F5F5F5F5F5F5F5F5F5F5F5F5F5F5F5F5F5F5F5F5F5F5F5F5F5F5F5F5F5F5F5F5F5F5F5F5F5F5F5F5F5F5F5F5F5F5F5F5F5F5F5F5F5F5F5F5F5F5F5F5F5F5F5F5F5F5F5F5F5F5F5F5F5F5F5F5E2F5F5F5F5F5F5F5F5F5F5F5E2F5F5F5F5F5F5F5F5F5F5F5F5F5F5F5
310
F5F5F5F5F5F5F5F5F5F5F5E2E2E2F5F5F5F5F5F5F5F5F5F5F5F5F5F5F5F5F5F5F5F5F5F5F5F5F5F5E2F5F5F5F5F5F5F5F5F5F5F5F5F5F5F5F5F5F5F5F5F5F5F5F5F5F5F5F5E2F5F5F5F5F5F5F5F5F5F5F5F5F5F5F5F5F5F5F5F5F5F5F5F5F5F5F5F5F5F5F5F5F5F5F5F5F5F5F5F5F5F5F5F5F5F5F5F5F5F5F5F5F5F5F5F5F5
310
F5F5F5F5F5F5F5F5F5F5F5F5F5F5F5F5F5F5F5F5F5F5F5F5F5E2F5F5F5F5F5F5F5F5F5F5F5E2F5F5F5F5F5F5F5F5F5F5F5F5F5F5F5F5F5F5F5F5F5F5F5F5F5F5E2E2E2F5F5F5F5F5F5F5F5F5F5F5F5F5F5F5F5F5F5F5F5F5F5F5F5F5F5E2F5F5F5F5F5F5F5F5F5F5F5F5F5F5F5F5F5F5F5F5F5F5F5F5F5F5F5F5E2F5F5F5F5
310
F5F5F5F5F5F5F5F5F5F5F5F5F5F5F5F5F5F5F5F5F5F5F5F5F5F5F5F5F5F5F5F5F5F5F5F5F5F5F5F5F5F5F5F5F5F5F5F5F5F5F5F5F5F5F5F5F5F5F5F5F5F5F5F5F5F5F5F5F5F5F5F5F5F5F5F5F5F5E2F5F5F5F5F5F5F5F5F5F5F5E2F5F5F5F5F5F5F5F5F5F5F5F5F5F5F5F5F5F5F5F5F5F5F5F5F5F5E2E2E2F5F5F5F5F5F5F5
310
F5F5F5F5F5F5F5F5F5F5F5F5F5F5F5F5F5F5F5E2F5F5F5F5F5F5F5F5F5F5F5F5F5F5F5F5F5F5F5F5F5F5F5F5F5F5F5F5E2F5F5F5F5F5F5F5F5F5F5F5F5F5F5F5F5F5F5F5F5F5F5F5F5E2E2E2E2E2E2E2E2E2E2E2F5F5F5E2F5F5E2F5F5E2E2E2E2E2E2E2F5E2E2E2F5E2E2E2F5F5F5F5F5F5F5F5F5F5F5F5F5F5F5F5F5F5F5
310
F5F5F5F5E2F5F5F5F5F5F5F5F5F5F5F5E2F5F5F5F5F5F5F5F5F5F5F5F5F5F5F5F5F5F5F5F5F5F5F5F5F5F5E2E2E2F5F5F5F5F5F5F5F5F5F5F5E2F5F5F5F5F5F5F5F5F5F5F5F5F5F5E2F5F5F5F5F5F5F5F5F5F5F5F5F5F5F5F5F5F5F5F5F5F5F5F5F5F5F5F5E2E2E2E2E2E2E2E2E2E2E2E2E2E2E2E2E2E2E2E2E2E2E2E2F5F5
310
E2E2F5E2F5E2E2E2E2E2F5F5F5E2E2E2E2F5F5E2E2E2E2E2E2F5E2E2E2E2E2E2E2E2F5E2E2E2E2E2E2E2E2E2E2E2E2E2E2E2E2E2E2E2E2E2E2E2F5F5F5F5F5F5F5F5F5F5F5E2F5F5F5F5F5F5F5F5F5F5F5F5F5F5E2F5F5F5F5F5F5F5F5F5F5F5E2E2E2F5F5F5F5F5F5F5F5F5F5F5E2F5F5F5F5F5F5F5F5F5F5F5F5F5F5E2F5
310
F5F5F5F5F5F5F5F5F5F5F5F5F5F5F5F5F5F5F5F5F5F5F5F5F5F5F5E2F5F5F5F5F5F5F5F5F5F5F5F5F5F5F5F5F5F5F5F5F5F5F5F5E2E2E2F5E2F5F5E2F5E2E2F5F5F5E2F5E2E2F5F5E2E2E2E2E2E2F5E2F5E2E2F5E2E2E2F5F5F5F5F5F5F5F5F5F5F5F5F5F5F5F5F5F5F5F5F5F5F5E2F5F5F5F5F5F5F5F5F5F5F5E2F5F5F5F5
310
F5F5F5F5F5F5F5F5F5F5E2F5F5F5F5F5F5F5F5F5F5F5E2E2E2F5F5F5F5F5F5F5F5F5F5F5E2F5F5F5F5F5F5F5F5F5F5F5F5F5F5E2F5F5F5F5F5F5F5F5F5F5F5F5F5F5F5F5F5F5F5F5F5F5F5F5F5F5F5F5E2F5F5F5F5F5F5F5F5F5F5F5F5F5F5F5F5F5F5F5F5F5F5F5F5F5F5F5F5F5F5F5F5F5F5F5F5F5F5F5F5F5F5F5F5F5F5
310
F5F5F5F5F5F5F5F5F5F5F5F5F5F5F5F5F5F5F5F5F5F5F5F5F5F5F5F5F5F5F5F5F5F5F5F5E2F5F5F5F5F5F5F5F5F5F5F5E2F5F5F5F5F5F5F5F5F5F5F5F5F5F5E2F5F5F5F5F5F5F5F5F5F5F5E2E2E2F5F5F5F5F5F5F5F5F5F5F5E2F5F5F5F5F5F5F5F5F5F5F5F5F5F5E2F5F5F5F5F5F5F5F5F5F5F5F5F5F5F5F5F5F5F5F5F5F5
310
F5F5F5F5F5F5E2F5F5F5F5F5F5F5F5F5F5F5F5F5F5F5F5F5F5F5F5F5F5F5F5F5F5F5F5F5F5F5F5F5F5F5F5F5F5F5F5F5F5F5F5F5F5F5F5F5F5F5F5F5F5F5F5F5F5F5F5F5F5F5F5F5F5F5F5F5F5F5F5F5F5F5F5F5F5F5F5F5F5E2F5F5F5F5F5F5F5F5F5F5F5E2F5F5F5F5F5F5F5F5F5F5F5F5F5F5E2F5F5F5F5F5F5F5F5F5F5
310
F5E2E2E2F5F5F5F5F5F5F5F5F5F5F5E2F5F5F5F5F5F5F5F5F5F5F5F5F5F5E2F5F5F5F5F5F5F5F5F5F5F5F5F5F5F5F5F5F5F5F5F5F5F5F5F5F5F5F5F5F5F5F5F5F5F5F5F5F5F5F5F5F5F5F5F5F5F5F5F5F5F5F5F5F5F5F5F5F5F5F5F5F5F5F5F5F5F5F5F5F5F5F5F5F5F5F5F5F5F5F5F5F5F5F5F5F5F5F5F5F5F5F5F5F5F5F5
310
F5F5F5F5F5F5F5F5F5F5F5F5F5F5F5F5F5F5F5F5F5F5F5F5F5F5F5E2F5F5F5F5F5F5F5F5F5F5F5F5F5F5E2F5F5F5F5F5F5F5F5F5F5F5E2E2E2F5F5F5F5F5F5F5F5F5F5F5E2F5F5F5F5F5F5F5F5F5F5F5F5F5F5E2F5F5F5F5F5F5F5F5F5F5F5F5F5F5F5F5F5F5F5F5F5F5F5F5F5F5F5F5F5F5F5F5F5F5F5F5F5F5F5F5F5F5F5
310
F5F5F5F5F5F5F5F5F5F5F5F5F5F5F5F5F5F5F5F5F5F5F5F5F5F5F5F5F5F5F5F5F5F5F5F5F5F5F5F5F5F5F5F5F5F5F5F5F5F5F5F5F5F5F5F5F5F5F5F5F5F5F5F5F5F5F5F5F5F5F5F5F5F5F5F5F5F5F5F5E2F5F5F5F5F5F5F5F5F5F5F5F5F5F5E2F5F5F5F5F5F5F5F5F5F5F5E2E2E2F5F5F5F5F5F5F5F5F5F5F5E2F5F5F5F5F5
310
F5F5F5F5F5F5F5F5F5E2F5F5F5F5F5F5F5F5F5F5F5F5F5F5F5F5F5F5F5F5F5F5F5F5F5F5F5F5F5F5F5F5F5F5F5F5F5F5F5F5F5F5F5F5F5F5F5F5F5F5F5F5F5F5F5F5F5F5F5F5F5F5F5F5F5F5F5F5F5F5F5F5F5F5F5F5F5F5F5F5F5F5F5F5F5F5F5F5F5F5F5F5F5F5F5F5F5F5F5F5F5F5F5F5F5F5F5F5F5F5F5F5F5F5F5F5F5
310
F5F5F5F5F5F5E2F5F5F5F5F5F5F5F5F5F5F5F5F5F5E2F5F5F5F5F5F5F5F5F5F5F5E2E2E2F5F5F5F5F5F5F5F5F5F5F5E2F5F5F5F5F5F5F5F5F5F5F5F5F5F5E2F5F5F5F5F5F5F5F5F5F5F5F5F5F5F5F5F5F5F5F5F5F5F5F5F5F5F5F5F5F5F5F5F5F5F5F5F5F5F5F5F5F5F5F5F5F5F5F5F5F5F5F5F5F5F5F5F5F5F5F5F5F5F5F5
310
F5F5F5F5F5F5F5F5F5F5F5F5F5F5F5F5F5F5F5F5F5F5F5F5F5F5F5F5F5F5F5F5F5F5F5F5F5F5F5F5F5F5F5F5F5F5F5F5F5F5F5F5F5F5F5F5F5F5F5E2F5F5F5F5F5F5F5F5F5F5F5F5F5F5E2F5F5F5F5F5F5F5F5F5F5F5E2E2E2F5F5F5F5F5F5F5F5F5F5F5E2F5F5F5F5F5F5F5F5F5F5F5F5F5F5E2F5F5F5F5F5F5F5F5F5F5F5
310
F5F5F5F5F5F5F5F5F5F5F5F5F5F5F5F5F5F5F5F5F5F5F5F5F5F5F5F5F5F5F5F5F5F5F5F5F5F5F5F5F5F5F5F5F5F5F5F5F5F5F5F5F5F5F5F5F5F5F5F5F5F5F5F5F5F5F5F5F5F5F5F5F5F5F5F5F5F5F5F5F5F5F5F5F5F5F5F5F5F5F5F5F5F5F5F5F5F5F5F5F5F5F5F5F5F5F5F5F5F5F5F5E2F5F5F5F5F5F5F5F5F5F5F5F5F5F5
310
E2F5F5F5F5F5F5F5F5F5F5F5E2E2E2F5F5F5F5F5F5F5F5F5F5F5E2F5F5F5F5F5F5F5F5F5F5F5F5F5F5E2F5F5F5F5F5F5F5F5F5F5F5F5F5F5F5F5F5F5F5F5F5F5F5F5F5F5F5F5F5F5F5F5F5F5F5F5F5F5F5F5F5F5F5F5F5F5F5F5F5F5F5F5F5F5F5F5F5F5F5F5F5F5F5F5F5F5F5F5F5F5F5F5F5F5F5F5F5F5F5F5F5F5F5F5F5
310
F5F5F5F5F5F5F5F5F5F5F5F5F5F5F5F5F5F5F5F5F5F5F5F5F5F5F5F5F5F5F5F5F5F5F5F5F5F5E2F5F5F5F5F5F5F5F5F5F5F5F5F5F5E2F5F5F5F5F5F5F5F5F5F5F5E2E2E2F5F5F5F5F5F5F5F5F5F5F5E2F5F5F5F5F5F5F5F5F5F5F5F5F5F5E2F5F5F5F5F5F5F5F5F5F5F5F5F5F5F5F5F5F5F5F5F5F5F5F5F5F5F5F5F5F5F5F5
310
F5F5F5F5F5F5F5F5F5F5F5F5F5F5F5F5F5F5F5F5F5F5F5F5F5F5F5F5F5F5F5F5F5F5F5F5F5F5F5F5F5F5F5F5F5F5F5F5F5F5F5F5F5F5F5F5F5F5F5F5F5F5F5F5F5F5F5F5F5F5F5F5F5F5F5F5F5F5F5F5F5F5F5F5F5F5F5F5F5F5F5E2F5F5F5F5F5F5F5F5F5F5F5F5F5F5E2F5F5F5F5F5F5F5F5F5F5F5E2E2E2F5F5F5F5F5F5
310
F5F5F5F5F5E2F5F5F5F5F5F5F5F5F5F5F5F5F5F5E2F5F5F5F5F5F5F5F5F5F5F5F5F5F5F5F5F5F5F5F5F5F5F5F5F5F5F5F5F5F5F5F5F5F5F5F5F5F5F5F5F5F5F5F5F5F5F5F5F5F5F5F5F5F5F5F5F5F5F5F5F5F5F5F5F5F5F5F5F5F5F5F5F5F5F5F5F5F5F5F5F5F5F5F5F5F5F5F5F5F5F5F5F5F5F5F5F5F5F5F5F5F5F5F5F5F5
310
F5F5F5F5F5F5F5F5F5F5F5F5F5F5F5F5F5E2F5F5F5F5F5F5F5F5F5F5F5F5F5F5E2F5F5F5F5F5F5F5F5F5F5F5E2E2E2F5F5F5F5F5F5F5F5F5F5F5E2F5F5F5F5F5F5F5F5F5F5F5F5F5F5E2F5F5F5F5F5F5F5F5F5F5F5F5F5F5F5F5F5F5F5F5F5F5F5F5F5F5F5F5F5F5F5F5F5F5F5F5F5F5F5F5F5F5F5F5F5F5F5F5F5F5F5F5F5
310
F5F5F5F5F5F5F5F5F5F5F5F5F5F5F5F5F5F5F5F5F5F5F5F5F5F5F5F5F5F5F5F5F5F5F5F5F5F5F5F5F5F5F5F5F5F5F5F5F5F5F5F5F5F5F5F5F5F5F5F5F5F5F5F5F5F5F5F5F5F5E2F5F5F5F5F5F5F5F5F5F5F5F5F5F5E2F5F5F5F5F5F5F5F5F5F5F5E2E2E2F5F5F5F5F5F5F5F5F5F5F5E2F5F5F5F5F5F5F5F5F5F5F5F5F5F5E2
310
F5F5F5F5F5F5F5F5F5F5F5F5F5F5F5F5F5F5F5F5F5F5F5F5F5F5F5F5F5F5F5F5F5F5F5F5F5F5F5F5F5F5F5F5F5F5F5F5F5F5F5F5F5F5F5F5F5F5F5F5F5F5F5F5F5F5F5F5F5F5F5F5F5F5F5F5F5F5F5F5F5F5F5F5F5F5F5F5F5F5F5F5F5F5F5F5F5F5F5F5F5F5F5F5F5F5F5F5F5F5F5F5F5F5F5F5F5F5F5F5F5F5F5E2F5F5F5
310
F5F5F5F5F5F5F5F5F5F5F5E2F5F5F5F5F5F5F5F5F5F5F5E2E2E2F5F5F5F5F5F5F5F5F5F5F5E2F5F5F5F5F5F5F5F5F5F5F5F5F5F5E2F5F5F5F5F5F5F5F5F5F5F5F5F5F5F5F5F5F5F5F5F5F5F5F5F5F5F5F5F5F5F5F5F5F5F5F5F5F5F5F5F5F5F5F5F5F5F5F5F5F5F5F5F5F5F5F5F5F5F5F5F5F5F5F5F5F5F5F5F5F5F5F5F5F5
310
F5F5F5F5F5F5F5F5F5F5F5F5F5F5F5F5F5F5F5F5F5F5F5F5F5F5F5F5F5F5F5F5F5F5F5F5F5F5F5F5F5F5F5F5F5F5F5F5F5E2F5F5F5F5F5F5F5F5F5F5F5F5F5F5E2F5F5F5F5F5F5F5F5F5F5F5E2E2E2F5F5F5F5F5F5F5F5F5F5F5F5F5F5F5F5F5F5F5F5F5F5F5F5F5F5E2F5F5F5F5F5F5F5F5F5F5F5F5F5F5F5F5F5F5F5F5F5
310
F5F5F5F5F5F5F5F5F5F5F5F5F5F5F5F5F5F5F5F5F5F5F5F5F5F5F5F5F5F5F5F5F5F5F5F5F5F5F5F5F5F5F5F5F5F5F5F5F5F5F5F5F5F5F5F5F5F5F5F5F5F5F5F5F5F5F5F5F5F5F5F5F5F5F5F5F5F5F5F5F5F5F5F5F5F5F5F5F5F5F5F5F5F5F5F5F5F5F5F5F5F5E2F5F5F5F5F5F5F5F5F5F5F5F5F5F5F5F5F5F5F5F5F5F5F5F5
310
F5F5E2E2E2F5F5F5F5F5F5F5F5F5F5F5F5F5F5F5F5F5F5F5F5F5F5F5F5F5F5E2F5F5F5F5F5F5F5F5F5F5F5F5F5F5F5F5F5F5F5F5F5F5F5F5F5F5F5F5F5F5F5F5F5F5F5F5F5F5F5F5F5F5F5F5F5F5F5F5F5F5F5F5F5F5F5F5F5F5F5F5F5F5F5F5F5F5F5F5F5F5F5F5F5F5F5F5F5F5F5F5F5F5F5F5F5F5F5F5F5F5F5F5F5F5F5
310
F5F5F5F5F5F5F5F5F5F5F5F5F5F5F5F5F5F5F5F5F5F5F5F5F5F5F5F5E2F5F5F5F5F5F5F5F5F5F5F5F5F5F5F5F5F5F5F5F5F5F5F5F5F5F5E2E2E2F5F5F5F5F5F5F5F5F5F5F5F5F5F5F5F5F5F5F5F5F5F5F5F5F5F5E2F5F5F5F5F5F5F5F5F5F5F5F5F5F5F5F5F5F5F5F5F5F5F5F5F5F5F5F5F5F5F5F5F5F5F5F5F5F5F5F5F5F5
310
F5F5F5F5F5F5F5F5F5F5F5F5F5F5F5F5F5F5F5F5F5F5F5F5F5F5F5F5F5F5F5F5F5F5F5F5F5F5F5F5F5F5F5F5F5F5F5F5F5F5F5F5F5F5F5F5F5F5F5F5F5F5F5F5F5F5F5F5F5F5F5F5F5F5F5F5F5F5F5F5F5E2F5F5F5F5F5F5F5F5F5F5F5F5F5F5F5F5F5F5F5F5F5F5F5F5F5F5E2E2E2F5F5F5F5F5F5F5F5F5F5F5F5F5F5F5F5
310
F5F5F5F5F5F5F5F5F5F5E2F5F5F5F5F5F5F5F5F5F5F5F5F5F5F5F5F5F5F5F5F5F5F5F5F5F5F5F5F5F5F5F5F5F5F5F5F5F5F5F5F5F5F5F5F5F5F5F5F5F5F5F5F5F5F5F5F5F5F5F5F5F5F5F5F5F5F5F5F5F5F5F5F5F5F5F5F5F5F5F5F5F5F5F5F5F5F5F5F5F5F5F5F5F5F5F5F5F5F5F5F5F5F5F5F5F5F5F5F5F5F5F5F5F5F5F5
310
F5F5F5F5F5F5F5E2F5F5F5F5F5F5F5F5F5F5F5F5F5F5F5F5F5F5F5F5F5F5F5F5F5F5E2E2E2F5F5F5F5F5F5F5F5F5F5F5F5F5F5F5F5F5F5F5F5F5F5F5F5F5F5E2E2E2E2E2E2E2E2E2E2E2E2E2E2E2E2E2E2E2E2E2E2E2E2E2E2E2E2E2E2E2E2E2E2E2E2E2E2E2E2E2E2E2E2E2E2E2E2E2E2E2E2E2E2E2E2E2E2E2E2E2E2E2E2
310
E2E2E2E2E2E2E2E2E2E2E2E2E2E2E2E2E2E2E2E2E2E2E2E2E2E2E2E2E2E2E2E2E2E2E2E2E2E2E2E2E2E2E2E2E2E2E2E2E2E2E2E2E2E2E2E2E2E2E2E2E2F5F5F5F5F5F5F5F5F5F5F5F5F5F5F5F5F5F5F5F5F5F5F5F5F5F5E2E2E2F5F5F5F5F5F5F5F5F5F5F5F5F5F5F5F5F5F5F5F5F5F5F5F5F5F5F5F5F5F5F5F5F5F5F5F5F5
310
F5F5F5F5F5F5F5F5F5F5F5F5F5F5F5F5F5F5F5F5F5F5F5F5F5F5F5F5F5F5F5F5F5F5F5F5F5F5F5F5F5F5F5F5F5F5F5F5F5F5F5F5F5F5F5F5F5F5F5F5F5F5F5F5F5F5F5F5F5F5F5F5F5F5F5F5F5F5F5F5F5F5F5F5F5F5F5F5F5F5F5F5F5F5F5F5F5F5F5F5F5F5F5F5F5F5F5F5F5F5F5F5F5F5F5F5F5F5F5F5F5F5F5F5F5F5F5
310
F5F5F5F5F5F5F5F5F5F5F5F5F5E2E2E2F5F5F5F5F5F5F5F5F5F5F5F5F5F5F5F5F5F5F5F5F5F5F5F5F5F5F5F5F5F5F5F5F5F5F5F5F5F5F5F5F5F5F5F5F5F5F5F5F5F5F5F5F5F5F5F5F5F5F5F5F5F5F5F5F5F5F5F5F5F5F5F5F5F5F5F5F5F5F5F5F5F5F5F5F5F5F5F5F5F5F5F5F5F5F5F5F5F5F5F5F5F5F5F5F5F5F5F5F5F5F5
310
F5F5F5F5F5F5F5F5F5F5F5F5F5F5F5F5F5F5F5F5F5F5F5F5F5F5F5F5F5F5F5F5F5F5F5F5F5F5F5F5F5F5F5F5F5F5F5F5F5F5F5F5F5F5F5F5F5F5F5F5F5F5F5F5F5F5E2E2E2F5F5F5F5F5F5F5F5F5F5F5F5F5F5F5F5F5F5F5F5F5F5F5F5F5F5F5F5F5F5F5F5F5F5F5F5F5F5F5F5F5F5F5F5F5F5F5F5F5F5F5F5F5F5F5F5F5F5
310
F5F5F5F5F5F5F5F5F5F5F5F5F5F5F5F5F5F5F5F5F5F5F5F5F5F5F5F5F5F5F5F5F5F5F5F5F5F5F5F5F5F5F5F5F5F5F5F5F5F5F5F5F5F5F5F5F5F5F5F5F5F5F5F5F5F5F5F5F5F5F5F5F5F5F5F5F5F5F5F5F5F5F5F5F5F5F5F5F5F5F5F5F5F5F5F5F5F5F5F5F5F5F5F5F5F5F5F5F5F5F5F5F5F5F5F5F5F5F5E2E2E2F5F5F5F5F5
310
F5F5F5F5F5F5E2F5F5F5F5F5F5F5F5F5F5F5F5F5F5F5F5F5F5F5F5F5F5F5F5F5F5F5F5F5F5F5F5F5F5F5F5F5F5F5F5F5F5F5F5F5F5F5F5F5F5F5F5F5F5F5F5F5F5F5F5F5F5F5F5F5F5F5F5F5F5F5F5F5F5F5F5F5F5F5F5F5F5F5F5F5F5F5F5F5F5F5F5F5F5F5F5F5F5F5F5F5F5F5F5F5F5F5F5F5F5F5F5F5F5F5F5F5F5F5F5
310
F5F5F5F5F5F5F5F5F5F5F5F5F5F5F5F5F5F5F5F5F5F5F5F5F5F5F5F5F5F5F5F5F5E2F5F5F5F5F5F5F5F5F5F5F5E2E2E2F5F5F5F5F5F5F5F5F5F5F5E2F5F5F5F5F5F5F5F5F5F5F5F5F5F5F5F5F5F5F5F5F5F5F5F5F5F5F5F5F5F5F5F5F5F5F5F5F5F5F5F5F5F5F5F5F5F5F5F5F5F5F5F5F5F5F5F5F5F5F5F5F5F5F5F5F5F5F5
310
F5F5F5F5F5F5F5F5F5F5F5F5F5F5F5F5F5F5F5F5F5F5F5F5F5F5F5F5F5F5F5F5F5F5F5F5F5F5F5F5F5F5F5F5F5F5F5F5F5F5F5F5F5F5F5F5F5F5F5F5F5F5F5F5F5F5F5F5F5F5F5F5F5F5F5F5F5F5F5F5F5F5F5F5F5F5E2F5F5F5F5F5F5F5F5F5F5F5E2E2E2F5F5F5F5F5F5F5F5F5F5F5E2F5F5F5F5F5F5F5F5F5F5F5F5F5F5
310
F5F5F5F5F5F5F5F5F5F5F5F5F5F5F5F5F5F5F5F5F5F5F5F5F5F5F5F5F5F5F5F5F5F5F5F5F5F5F5F5F5F5F5F5F5F5F5F5F5F5F5F5F5F5F5F5F5F5F5F5F5F5F5F5F5F5F5F5F5F5F5F5F5F5F5F5F5F5F5F5F5F5F5F5F5F5F5F5F5F5F5F5F5F5F5F5F5F5F5F5F5F5F5F5F5F5F5F5F5F5F5F5F5F5F5F5F5F5F5F5F5F5F5F5F5F5F5
310
F5F5F5F5F5F5F5F5F5F5F5F5E2F5F5F5F5F5F5F5F5F5F5F5E2E2E2F5F5F5F5F5F5F5F5F5F5F5E2F5F5F5F5F5F5F5F5F5F5F5F5F5F5F5F5F5F5F5F5F5F5F5F5F5F5F5F5F5F5F5F5F5F5F5F5F5F5F5F5F5F5F5F5F5F5F5F5F5F5F5F5F5F5F5F5F5F5F5F5F5F5F5F5F5F5F5F5F5F5F5F5F5F5F5F5F5F5F5F5F5F5F5F5F5F5F5F5
310
F5F5F5F5F5F5F5F5F5F5F5F5F5F5F5F5F5F5F5F5F5F5F5F5F5F5F5F5F5F5F5F5F5F5F5F5F5F5F5F5F5F5F5F5F5F5F5F5F5F5F5F5F5F5F5F5F5F5F5F5F5F5F5F5F5E2F5F5F5F5F5F5F5F5F5F5F5E2E2E2F5F5F5F5F5F5F5F5F5F5F5E2F5F5F5F5F5F5F5F5F5F5F5F5F5F5F5F5F5F5F5F5F5F5F5F5F5F5F5F5F5F5F5F5F5F5F5
310
F5F5F5F5F5F5F5F5F5F5F5F5F5F5F5F5F5F5F5F5F5F5F5F5F5F5F5F5F5F5F5F5F5F5F5F5F5F5F5F5F5F5F5F5F5F5F5F5F5F5F5F5F5F5F5F5F5F5F5F5F5F5F5F5F5F5F5F5F5F5F5F5F5F5F5F5F5F5F5F5F5F5F5F5F5F5F5F5F5F5F5F5F5F5F5F5F5F5F5F5F5F5F5F5F5F5F5F5F5F5F5F5F5F5F5F5F5F5E2F5F5F5F5F5F5F5F5
310
F5F5F5E2E2E2F5F5F5F5F5F5F5F5F5F5F5E2F5F5F5F5F5F5F5F5F5F5F5F5F5F5F5F5F5F5F5F5F5F5F5F5F5F5F5F5F5F5F5F5F5F5F5F5F5F5F5F5F5F5F5F5F5F5F5F5F5F5F5F5F5F5F5F5F5F5F5F5F5F5F5F5F5F5F5F5F5F5F5F5F5F5F5F5F5F5F5F5F5F5F5F5F5F5F5F5F5F5F5F5F5F5F5F5F5F5F5F5F5F5F5F5F5F5F5F5F5
310
F5F5F5F5F5F5F5F5F5F5F5F5F5F5F5F5F5F5F5F5F5F5F5F5F5F5F5F5F5F5F5F5F5F5F5F5F5F5F5F5F5F5F5F5E2F5F5F5F5F5F5F5F5F5F5F5E2E2E2F5F5F5F5F5F5F5F5F5F5F5E2F5F5F5F5F5F5F5F5F5F5F5F5F5F5F5F5F5F5F5F5F5F5F5F5F5F5F5F5F5F5F5F5F5F5F5F5F5F5F5F5F5F5F5F5F5F5F5F5F5F5F5F5F5F5F5F5
310
F5F5F5F5F5F5F5F5F5F5F5F5F5F5F5F5F5F5F5F5F5F5F5F5F5F5F5F5F5F5F5F5F5F5F5F5F5F5F5F5F5F5F5F5F5F5F5F5F5F5F5F5F5F5F5F5F5F5F5F5F5F5F5F5F5F5F5F5F5F5F5F5F5F5F5F5F5F5F5F5F5F5F5F5F5F5F5F5F5F5F5F5F5F5F5F5F5E2F5F5F5F5F5F5F5F5F5F5F5E2E2E2F5F5F5F5F5F5F5F5F5F5F5E2E2E2E2
310
E2E2E2E2E2F5F5F5F5F5F5F5F5F5E2E2E2E2E2E2E2E2E2E2E2E2E2E2E2E2F5F5F5F5F5F5F5F5F5F5E2E2E2E2E2E2E2E2E2E2E2E2E2E2E2E2F5F5F5F5F5F5F5F5F5E2E2E2E2E2E2E2E2E2E2E2E2E2E2E2E2E2F5F5F5F5F5F5F5F5F5E2E2E2E2E2E2E2E2E2E2E2E2E2E2E2E2F5F5F5F5F5F5F5F5F5F5E2E2E2E2E2E2E2E2E2E2
310
E2E2E2E2E2E2F5F5F5F5F5F5F5F5F5E2E2E2E2E2E2E2E2E2F5F5F5F5F5F5F5F5F5F5F5E2E2E2F5F5F5F5F5F5F5F5F5F5F5F5F5F5F5F5F5F5F5F5F5F5F5F5F5F5F5F5F5F5F5F5F5F5F5F5F5F5F5F5F5F5F5F5F5F5F5F5F5F5F5F5F5F5F5F5F5F5F5F5F5F5F5F5F5F5F5F5F5F5F5F5F5F5F5F5F5F5F5F5F5F5F5F5F5F5F5F5F5
310
F5F5F5F5F5F5F5F5F5F5F5F5F5F5F5F5F5F5F5F5F5F5F5F5F5F5F5F5F5F5F5F5F5F5F5F5F5F5F5F5F5F5F5F5F5F5F5F5F5F5F5F5F5F5F5F5F5F5F5F5F5F5F5F5F5F5F5F5F5F5F5F5F5F5F5F5F5F5F5F5F5F5F5F5F5F5F5F5E2E2E2F5F5F5F5F5F5F5F5F5F5F5F5F5F5F5F5F5F5F5F5F5F5F5F5F5F5F5F5F5F5F5F5F5F5F5F5
310
F5F5F5F5F5F5F5F5F5F5F5F5F5F5F5F5F5F5F5F5F5F5F5F5F5F5F5F5F5F5F5F5F5F5F5F5F5F5F5F5F5F5F5F5F5F5F5F5F5F5F5F5F5F5F5F5F5F5F5F5F5F5F5F5F5F5F5F5F5F5F5F5F5F5F5F5F5F5F5F5F5F5F5F5F5F5F5F5F5F5F5F5F5F5F5F5F5F5F5F5F5F5F5F5F5F5F5F5F5F5F5F5F5F5F5F5F5F5F5F5F5F5F5F5F5F5F5
310
F5F5F5F5F5F5F5F5F5F5F5F5F5F5E2E2E2F5F5F5F5F5F5F5F5F5F5F5F5F5F5F5F5F5F5F5F5F5F5F5F5F5F5F5F5F5F5F5F5F5F5F5F5F5F5F5F5F5F5F5F5F5F5F5F5F5F5F5F5F5F5F5F5F5F5F5F5F5F5F5F5F5F5F5F5F5F5F5F5F5F5F5F5F5F5F5F5F5F5F5F5F5F5F5F5F5F5F5F5F5F5F5F5F5F5F5F5F5F5F5F5F5F5F5F5F5F5
310
F5F5F5F5F5F5F5F5F5F5F5F5F5F5F5F5F5F5F5F5F5F5F5F5F5F5F5F5F5F5F5F5F5F5F5F5F5F5F5F5F5F5F5F5F5F5F5F5F5F5F5F5F5F5F5F5F5F5F5F5F5F5F5F5F5F5F5E2E2E2F5F5F5F5F5F5F5F5F5F5F5F5F5F5F5F5F5F5F5F5F5F5F5F5F5F5F5F5F5F5F5F5F5F5F5F5F5F5F5F5F5F5F5F5F5F5F5F5F5F5F5F5F5F5F5F5F5
310
F5F5F5F5F5F5F5F5F5F5F5F5F5F5F5F5F5F5F5F5F5F5F5F5F5F5F5F5F5F5F5F5F5F5F5F5F5F5F5F5F5F5F5F5F5F5F5F5F5F5F5F5F5F5F5F5F5F5F5F5F5F5F5F5F5F5F5F5F5F5F5F5F5F5F5F5F5F5F5F5F5F5F5F5F5F5F5F5F5F5F5F5F5F5F5F5F5F5F5F5F5F5F5F5F5F5F5F5F5F5F5F5F5F5F5F5F5F5F5F5E2EFE2E2E2E2E2
310
E2E2E2E2E2E2E2E2E2E2E2E2E2E2E2E2E2E2E2E2E2E2E2E2E2E2E2E2E2E2E2E2E2E2E2E2E2E2E2E2E2E2E2E2E2E2E2E2E2E2E2E2E2E2E2E2E2E2E2E2E2E2E2E2E2E2E2E2E2E2E2E2E2E2E2E2E2E2E2E2E2E2E2E2E2E2E2E2E2E2E2E2E2E2E2E2E2E2E2E2E2E2E2E2E2E2E2E2E2E2E2E2E2E2E2E2E2E2E2E2E2E2E2E2E2E2E2
310
E2E2E2E2E2E2E2E2E2E2E2E2E2E2E2E2E2E2E2E2E2E2E2E2E2E2E2E2E2E2E2E2E2E2E2E2E2E2E2E2E2E2E2E2E2E2E2EF
  0
XRECORD
  5
48F4E
102
{ACAD_REACTORS
330
48F4D
102
}
330
48F4D
100
AcDbXrecord
280
     1
102
SHADEPLOT
 70
     0
102
SHADEPLOTRESLEVEL
 70
     2
102
SHADEPLOTCUSTOMDPI
 70
   300
  0
ENDSEC
  0
EOF
