  0
SECTION
  2
HEADER
  9
$ACADVER
  1
AC1015
  9
$ACADMAINTVER
 70
     6
  9
$DWGCODEPAGE
  3
ANSI_1252
  9
$INSBASE
 10
-1035.807646340615
 20
953.1915430818369
 30
-353.7508268814058
  9
$EXTMIN
 10
-1147.908545409654
 20
788.8535430818369
 30
-353.7596636020331
  9
$EXTMAX
 10
-893.7760249658063
 20
980.6730160562073
 30
-208.7168268814059
  9
$LIMMIN
 10
0.0
 20
0.0
  9
$LIMMAX
 10
12.0
 20
9.0
  9
$ORTHOMODE
 70
     1
  9
$REGENMODE
 70
     1
  9
$FILLMODE
 70
     1
  9
$QTEXTMODE
 70
     0
  9
$MIRRTEXT
 70
     0
  9
$LTSCALE
 40
1.0
  9
$ATTMODE
 70
     1
  9
$TEXTSIZE
 40
0.2
  9
$TRACEWID
 40
0.05
  9
$TEXTSTYLE
  7
Standard
  9
$CLAYER
  8
0
  9
$CELTYPE
  6
ByLayer
  9
$CECOLOR
 62
   256
  9
$CELTSCALE
 40
1.0
  9
$DISPSILH
 70
     0
  9
$DIMSCALE
 40
1.0
  9
$DIMASZ
 40
0.18
  9
$DIMEXO
 40
0.0625
  9
$DIMDLI
 40
0.38
  9
$DIMRND
 40
0.0
  9
$DIMDLE
 40
0.0
  9
$DIMEXE
 40
0.18
  9
$DIMTP
 40
0.0
  9
$DIMTM
 40
0.0
  9
$DIMTXT
 40
0.18
  9
$DIMCEN
 40
0.09
  9
$DIMTSZ
 40
0.0
  9
$DIMTOL
 70
     0
  9
$DIMLIM
 70
     0
  9
$DIMTIH
 70
     1
  9
$DIMTOH
 70
     1
  9
$DIMSE1
 70
     0
  9
$DIMSE2
 70
     0
  9
$DIMTAD
 70
     0
  9
$DIMZIN
 70
     0
  9
$DIMBLK
  1

  9
$DIMASO
 70
     1
  9
$DIMSHO
 70
     1
  9
$DIMPOST
  1

  9
$DIMAPOST
  1

  9
$DIMALT
 70
     0
  9
$DIMALTD
 70
     2
  9
$DIMALTF
 40
25.4
  9
$DIMLFAC
 40
1.0
  9
$DIMTOFL
 70
     0
  9
$DIMTVP
 40
0.0
  9
$DIMTIX
 70
     0
  9
$DIMSOXD
 70
     0
  9
$DIMSAH
 70
     0
  9
$DIMBLK1
  1

  9
$DIMBLK2
  1

  9
$DIMSTYLE
  2
Standard
  9
$DIMCLRD
 70
     0
  9
$DIMCLRE
 70
     0
  9
$DIMCLRT
 70
     0
  9
$DIMTFAC
 40
1.0
  9
$DIMGAP
 40
0.09
  9
$DIMJUST
 70
     0
  9
$DIMSD1
 70
     0
  9
$DIMSD2
 70
     0
  9
$DIMTOLJ
 70
     1
  9
$DIMTZIN
 70
     0
  9
$DIMALTZ
 70
     0
  9
$DIMALTTZ
 70
     0
  9
$DIMUPT
 70
     0
  9
$DIMDEC
 70
     4
  9
$DIMTDEC
 70
     4
  9
$DIMALTU
 70
     2
  9
$DIMALTTD
 70
     2
  9
$DIMTXSTY
  7
Standard
  9
$DIMAUNIT
 70
     0
  9
$DIMADEC
 70
     0
  9
$DIMALTRND
 40
0.0
  9
$DIMAZIN
 70
     0
  9
$DIMDSEP
 70
    46
  9
$DIMATFIT
 70
     3
  9
$DIMFRAC
 70
     0
  9
$DIMLDRBLK
  1

  9
$DIMLUNIT
 70
     2
  9
$DIMLWD
 70
    -2
  9
$DIMLWE
 70
    -2
  9
$DIMTMOVE
 70
     0
  9
$LUNITS
 70
     2
  9
$LUPREC
 70
     4
  9
$SKETCHINC
 40
0.1
  9
$FILLETRAD
 40
0.0
  9
$AUNITS
 70
     0
  9
$AUPREC
 70
     0
  9
$MENU
  1
.
  9
$ELEVATION
 40
0.0
  9
$PELEVATION
 40
0.0
  9
$THICKNESS
 40
0.0
  9
$LIMCHECK
 70
     0
  9
$CHAMFERA
 40
0.0
  9
$CHAMFERB
 40
0.0
  9
$CHAMFERC
 40
0.0
  9
$CHAMFERD
 40
0.0
  9
$SKPOLY
 70
     0
  9
$TDCREATE
 40
2452863.553326435
  9
$TDUCREATE
 40
2452863.803326435
  9
$TDUPDATE
 40
2453396.581689502
  9
$TDUUPDATE
 40
2453396.831689502
  9
$TDINDWG
 40
0.5105356134
  9
$TDUSRTIMER
 40
0.5105356134
  9
$USRTIMER
 70
     1
  9
$ANGBASE
 50
0.0
  9
$ANGDIR
 70
     0
  9
$PDMODE
 70
     3
  9
$PDSIZE
 40
2.5
  9
$PLINEWID
 40
0.0
  9
$SPLFRAME
 70
     0
  9
$SPLINETYPE
 70
     6
  9
$SPLINESEGS
 70
     8
  9
$HANDSEED
  5
5285
  9
$SURFTAB1
 70
     6
  9
$SURFTAB2
 70
     6
  9
$SURFTYPE
 70
     6
  9
$SURFU
 70
     6
  9
$SURFV
 70
     6
  9
$UCSBASE
  2

  9
$UCSNAME
  2

  9
$UCSORG
 10
0.0
 20
0.0
 30
0.0
  9
$UCSXDIR
 10
1.0
 20
0.0
 30
0.0
  9
$UCSYDIR
 10
0.0
 20
0.0
 30
1.0
  9
$UCSORTHOREF
  2

  9
$UCSORTHOVIEW
 70
     3
  9
$UCSORGTOP
 10
-1035.807646340615
 20
953.1915430818369
 30
-353.7508268814058
  9
$UCSORGBOTTOM
 10
0.0
 20
0.0
 30
0.0
  9
$UCSORGLEFT
 10
0.0
 20
0.0
 30
0.0
  9
$UCSORGRIGHT
 10
0.0
 20
0.0
 30
0.0
  9
$UCSORGFRONT
 10
0.0
 20
0.0
 30
0.0
  9
$UCSORGBACK
 10
-370.7376209952446
 20
574.4931739166871
 30
-146.9521510172783
  9
$PUCSBASE
  2

  9
$PUCSNAME
  2

  9
$PUCSORG
 10
0.0
 20
0.0
 30
0.0
  9
$PUCSXDIR
 10
1.0
 20
0.0
 30
0.0
  9
$PUCSYDIR
 10
0.0
 20
1.0
 30
0.0
  9
$PUCSORTHOREF
  2

  9
$PUCSORTHOVIEW
 70
     0
  9
$PUCSORGTOP
 10
0.0
 20
0.0
 30
0.0
  9
$PUCSORGBOTTOM
 10
0.0
 20
0.0
 30
0.0
  9
$PUCSORGLEFT
 10
0.0
 20
0.0
 30
0.0
  9
$PUCSORGRIGHT
 10
0.0
 20
0.0
 30
0.0
  9
$PUCSORGFRONT
 10
0.0
 20
0.0
 30
0.0
  9
$PUCSORGBACK
 10
0.0
 20
0.0
 30
0.0
  9
$USERI1
 70
     0
  9
$USERI2
 70
     0
  9
$USERI3
 70
     0
  9
$USERI4
 70
     0
  9
$USERI5
 70
     0
  9
$USERR1
 40
0.0
  9
$USERR2
 40
0.0
  9
$USERR3
 40
0.0
  9
$USERR4
 40
0.0
  9
$USERR5
 40
0.0
  9
$WORLDVIEW
 70
     1
  9
$SHADEDGE
 70
     3
  9
$SHADEDIF
 70
    70
  9
$TILEMODE
 70
     0
  9
$MAXACTVP
 70
    48
  9
$PINSBASE
 10
0.0
 20
0.0
 30
0.0
  9
$PLIMCHECK
 70
     0
  9
$PEXTMIN
 10
0.0226429257092988
 20
0.0040681204654334
 30
0.0
  9
$PEXTMAX
 10
10.55573210096327
 20
8.074637622092751
 30
0.0
  9
$PLIMMIN
 10
-0.2112501249538632
 20
-0.2112499935420479
  9
$PLIMMAX
 10
10.78874963475024
 20
8.288749766162061
  9
$UNITMODE
 70
     0
  9
$VISRETAIN
 70
     1
  9
$PLINEGEN
 70
     0
  9
$PSLTSCALE
 70
     1
  9
$TREEDEPTH
 70
  3020
  9
$CMLSTYLE
  2
Standard
  9
$CMLJUST
 70
     0
  9
$CMLSCALE
 40
1.0
  9
$PROXYGRAPHICS
 70
     1
  9
$MEASUREMENT
 70
     0
  9
$CELWEIGHT
370
    -1
  9
$ENDCAPS
280
     0
  9
$JOINSTYLE
280
     0
  9
$LWDISPLAY
290
     0
  9
$INSUNITS
 70
     1
  9
$HYPERLINKBASE
  1

  9
$STYLESHEET
  1

  9
$XEDIT
290
     1
  9
$CEPSNTYPE
380
     0
  9
$PSTYLEMODE
290
     1
  9
$FINGERPRINTGUID
  2
{FDEAD576-A652-11D2-9A35-0060089B3A3F}
  9
$VERSIONGUID
  2
{008875C6-01C0-4CB2-A4D2-BAB072C54819}
  9
$EXTNAMES
290
     1
  9
$PSVPSCALE
 40
0.0
  9
$OLESTARTUP
290
     0
  0
ENDSEC
  0
SECTION
  2
CLASSES
  0
CLASS
  1
ACDBDICTIONARYWDFLT
  2
AcDbDictionaryWithDefault
  3
AutoCAD 2000
 90
        0
280
     0
281
     0
  0
CLASS
  1
ACDBPLACEHOLDER
  2
AcDbPlaceHolder
  3
AutoCAD 2000
 90
        0
280
     0
281
     0
  0
CLASS
  1
LAYOUT
  2
AcDbLayout
  3
AutoCAD 2000
 90
        0
280
     0
281
     0
  0
CLASS
  1
DICTIONARYVAR
  2
AcDbDictionaryVar
  3
AutoCAD 2000
 90
        0
280
     0
281
     0
  0
CLASS
  1
LWPOLYLINE
  2
AcDbPolyline
  3
AutoCAD 2000
 90
    32768
280
     0
281
     1
  0
CLASS
  1
XRECORD
  2
AcDbXrecord
  3
AutoCAD 2000
 90
    32768
280
     0
281
     0
  0
CLASS
  1
TABLESTYLE
  2
AcDbTableStyle
  3
ObjectDBX Classes
 90
     2047
280
     0
281
     0
  0
CLASS
  1
SORTENTSTABLE
  2
AcDbSortentsTable
  3
AutoCAD 2000
 90
        0
280
     0
281
     0
  0
ENDSEC
  0
SECTION
  2
TABLES
  0
TABLE
  2
VPORT
  5
8
330
0
100
AcDbSymbolTable
 70
     1
  0
VPORT
  5
524C
330
8
100
AcDbSymbolTableRecord
100
AcDbViewportTableRecord
  2
*Active
 70
     0
 10
0.0
 20
0.0
 11
1.0
 21
1.0
 12
-452.4324252394214
 22
186.0842246413148
 13
0.0
 23
0.0
 14
0.5
 24
0.5
 15
0.5
 25
0.5
 16
0.0
 26
0.0
 36
1.0
 17
-550.0843784145534
 27
684.7278046039871
 37
-217.0327285871065
 40
300.2415747139692
 41
1.778301886792452
 42
50.0
 43
0.0
 44
0.0
 50
0.0
 51
0.0
 71
     0
 72
  1000
 73
     1
 74
     2
 75
     0
 76
     0
 77
     0
 78
     0
281
     2
 65
     1
110
-1035.807646340615
120
953.1915430818369
130
-353.7508268814058
111
1.0
121
0.0
131
0.0
112
0.0
122
1.0
132
0.0
 79
     1
146
0.0
  0
ENDTAB
  0
TABLE
  2
LTYPE
  5
5
330
0
100
AcDbSymbolTable
 70
     1
  0
LTYPE
  5
14
330
5
100
AcDbSymbolTableRecord
100
AcDbLinetypeTableRecord
  2
ByBlock
 70
     0
  3

 72
    65
 73
     0
 40
0.0
  0
LTYPE
  5
15
330
5
100
AcDbSymbolTableRecord
100
AcDbLinetypeTableRecord
  2
ByLayer
 70
     0
  3

 72
    65
 73
     0
 40
0.0
  0
LTYPE
  5
16
330
5
100
AcDbSymbolTableRecord
100
AcDbLinetypeTableRecord
  2
Continuous
 70
     0
  3
Solid line
 72
    65
 73
     0
 40
0.0
  0
ENDTAB
  0
TABLE
  2
LAYER
  5
2
102
{ACAD_XDICTIONARY
360
39AB
102
}
330
0
100
AcDbSymbolTable
 70
     8
  0
LAYER
  5
10
330
2
100
AcDbSymbolTableRecord
100
AcDbLayerTableRecord
  2
0
 70
     0
 62
     7
  6
Continuous
370
    -3
390
F
  0
LAYER
  5
98E
330
2
100
AcDbSymbolTableRecord
100
AcDbLayerTableRecord
  2
AREA1
 70
     0
 62
     7
  6
Continuous
370
    -3
390
F
  0
LAYER
  5
98F
330
2
100
AcDbSymbolTableRecord
100
AcDbLayerTableRecord
  2
AREA2
 70
     0
 62
     7
  6
Continuous
370
    -3
390
F
  0
LAYER
  5
990
330
2
100
AcDbSymbolTableRecord
100
AcDbLayerTableRecord
  2
DEFPOINTS
 70
     0
 62
     7
  6
Continuous
290
     0
370
    -3
390
F
  0
LAYER
  5
991
330
2
100
AcDbSymbolTableRecord
100
AcDbLayerTableRecord
  2
SCALE
 70
     0
 62
    -7
  6
Continuous
370
    -3
390
F
  0
LAYER
  5
992
330
2
100
AcDbSymbolTableRecord
100
AcDbLayerTableRecord
  2
SNAP_POINTS
 70
     0
 62
    -1
  6
Continuous
370
    -3
390
F
  0
LAYER
  5
993
330
2
100
AcDbSymbolTableRecord
100
AcDbLayerTableRecord
  2
ATTRIBUTES
 70
     0
 62
    -7
  6
Continuous
370
    -3
390
F
  0
LAYER
  5
1722
330
2
100
AcDbSymbolTableRecord
100
AcDbLayerTableRecord
  2
DIMS-MTG-HOLES
 70
     0
 62
    -1
  6
Continuous
370
    -3
390
F
  0
ENDTAB
  0
TABLE
  2
STYLE
  5
3
330
0
100
AcDbSymbolTable
 70
     1
  0
STYLE
  5
11
330
3
100
AcDbSymbolTableRecord
100
AcDbTextStyleTableRecord
  2
Standard
 70
     0
 40
0.0
 41
1.0
 50
0.0
 71
     0
 42
0.2
  3
txt
  4

  0
ENDTAB
  0
TABLE
  2
VIEW
  5
6
330
0
100
AcDbSymbolTable
 70
     0
  0
ENDTAB
  0
TABLE
  2
UCS
  5
7
330
0
100
AcDbSymbolTable
 70
     0
  0
ENDTAB
  0
TABLE
  2
APPID
  5
9
330
0
100
AcDbSymbolTable
 70
     2
  0
APPID
  5
12
330
9
100
AcDbSymbolTableRecord
100
AcDbRegAppTableRecord
  2
ACAD
 70
     0
  0
APPID
  5
3B9D
330
9
100
AcDbSymbolTableRecord
100
AcDbRegAppTableRecord
  2
ACAD_PSEXT
 70
     0
  0
ENDTAB
  0
TABLE
  2
DIMSTYLE
  5
A
330
0
100
AcDbSymbolTable
 70
     2
100
AcDbDimStyleTable
 71
     0
  0
DIMSTYLE
105
27
330
A
100
AcDbSymbolTableRecord
100
AcDbDimStyleTableRecord
  2
Standard
 70
     0
340
11
  0
DIMSTYLE
105
995
102
{ACAD_REACTORS
330
51A2
330
51A3
330
51A4
102
}
330
A
100
AcDbSymbolTableRecord
100
AcDbDimStyleTableRecord
  2
ABECAD_3D
 70
     0
 41
4.572
 42
1.587499999999999
 43
9.525
 44
2.0
 73
     0
 78
     4
140
4.572
141
2.286
143
0.03937
146
1.5
147
2.286
170
     1
171
     6
271
     2
272
     2
273
     7
274
     6
276
     2
279
     2
284
     4
285
     4
286
     4
289
     2
340
11
  0
ENDTAB
  0
TABLE
  2
BLOCK_RECORD
  5
1
330
0
100
AcDbSymbolTable
 70
     3
  0
BLOCK_RECORD
  5
1F
102
{ACAD_XDICTIONARY
360
3379
102
}
330
1
100
AcDbSymbolTableRecord
100
AcDbBlockTableRecord
  2
*Model_Space
340
22
  0
BLOCK_RECORD
  5
89
102
{ACAD_XDICTIONARY
360
337B
102
}
330
1
100
AcDbSymbolTableRecord
100
AcDbBlockTableRecord
  2
*Paper_Space
340
8A
  0
BLOCK_RECORD
  5
51A5
330
1
100
AcDbSymbolTableRecord
100
AcDbBlockTableRecord
  2
*D0
340
0
  0
BLOCK_RECORD
  5
51B2
330
1
100
AcDbSymbolTableRecord
100
AcDbBlockTableRecord
  2
*D1
340
0
  0
BLOCK_RECORD
  5
51BF
330
1
100
AcDbSymbolTableRecord
100
AcDbBlockTableRecord
  2
*D2
340
0
  0
ENDTAB
  0
ENDSEC
  0
SECTION
  2
BLOCKS
  0
BLOCK
  5
20
330
1F
100
AcDbEntity
  8
0
100
AcDbBlockBegin
  2
*Model_Space
 70
     0
 10
0.0
 20
0.0
 30
0.0
  3
*Model_Space
  1

  0
ENDBLK
  5
21
330
1F
100
AcDbEntity
  8
0
100
AcDbBlockEnd
  0
BLOCK
  5
8B
330
89
100
AcDbEntity
 67
     1
  8
0
100
AcDbBlockBegin
  2
*Paper_Space
 70
     0
 10
0.0
 20
0.0
 30
0.0
  3
*Paper_Space
  1

  0
ENDBLK
  5
8C
330
89
100
AcDbEntity
 67
     1
  8
0
100
AcDbBlockEnd
  0
BLOCK
  5
51B0
330
51A5
100
AcDbEntity
  8
0
100
AcDbBlockBegin
  2
*D0
 70
     1
 10
0.0
 20
0.0
 30
0.0
  3
*D0
  1

  0
LINE
  5
5237
330
51A5
100
AcDbEntity
  8
AREA1
 62
     0
370
    -2
100
AcDbLine
 10
-958.6043463406154
 20
788.8535430818369
 30
0.0
 11
-894.0260249658061
 21
788.8535430818369
 31
0.0
  0
LINE
  5
5238
330
51A5
100
AcDbEntity
  8
AREA1
 62
     0
370
    -2
100
AcDbLine
 10
-956.0643463406155
 20
959.795543081837
 30
0.0
 11
-894.0260249658061
 21
959.795543081837
 31
0.0
  0
LINE
  5
5239
330
51A5
100
AcDbEntity
  8
AREA1
 62
     0
370
    -2
100
AcDbLine
 10
-896.0260249658061
 20
793.3535430818369
 30
0.0
 11
-896.0260249658061
 21
840.9135430818368
 31
0.0
  0
LINE
  5
523A
330
51A5
100
AcDbEntity
  8
AREA1
 62
     0
370
    -2
100
AcDbLine
 10
-896.0260249658061
 20
955.295543081837
 30
0.0
 11
-896.0260249658061
 21
907.735543081837
 31
0.0
  0
SOLID
  5
523B
330
51A5
100
AcDbEntity
  8
AREA1
 62
     0
100
AcDbTrace
 10
-896.7760249658061
 20
793.3535430818369
 30
0.0
 11
-895.276024965806
 21
793.3535430818369
 31
0.0
 12
-896.0260249658061
 22
788.8535430818369
 32
0.0
 13
-896.0260249658061
 23
788.8535430818369
 33
0.0
  0
SOLID
  5
523C
330
51A5
100
AcDbEntity
  8
AREA1
 62
     0
100
AcDbTrace
 10
-896.7760249658061
 20
955.295543081837
 30
0.0
 11
-895.276024965806
 21
955.295543081837
 31
0.0
 12
-896.0260249658061
 22
959.795543081837
 32
0.0
 13
-896.0260249658061
 23
959.795543081837
 33
0.0
  0
MTEXT
  5
523D
330
51A5
100
AcDbEntity
  8
AREA1
 62
     0
100
AcDbMText
 10
-896.0260249658063
 20
874.3245430818367
 30
0.0
 40
4.5
 41
0.0
 71
     5
 72
     1
  1
\A1;170.94 [6 47/64]
 11
0.0000000000000001
 21
1.0
 31
0.0
 73
     1
 44
1.0
  0
POINT
  5
523E
330
51A5
100
AcDbEntity
  8
DEFPOINTS
 62
     0
100
AcDbPoint
 10
-960.1918463406153
 20
788.8535430818369
 30
0.0
  0
POINT
  5
523F
330
51A5
100
AcDbEntity
  8
DEFPOINTS
 62
     0
100
AcDbPoint
 10
-957.6518463406156
 20
959.795543081837
 30
0.0
  0
POINT
  5
5240
330
51A5
100
AcDbEntity
  8
DEFPOINTS
 62
     0
100
AcDbPoint
 10
-896.0260249658061
 20
959.795543081837
 30
0.0
  0
ENDBLK
  5
51B1
330
51A5
100
AcDbEntity
  8
0
100
AcDbBlockEnd
  0
BLOCK
  5
51BD
330
51B2
100
AcDbEntity
  8
0
100
AcDbBlockBegin
  2
*D1
 70
     1
 10
0.0
 20
0.0
 30
0.0
  3
*D1
  1

  0
LINE
  5
522D
330
51B2
100
AcDbEntity
  8
AREA1
 62
     0
370
    -2
100
AcDbLine
 10
-1101.085646340615
 20
944.3650430818369
 30
0.0
 11
-1101.085646340615
 21
980.4230160562074
 31
0.0
  0
LINE
  5
522E
330
51B2
100
AcDbEntity
  8
AREA1
 62
     0
370
    -2
100
AcDbLine
 10
-920.7456463406154
 20
934.2050430818368
 30
0.0
 11
-920.7456463406154
 21
980.4230160562074
 31
0.0
  0
LINE
  5
522F
330
51B2
100
AcDbEntity
  8
AREA1
 62
     0
370
    -2
100
AcDbLine
 10
-1096.585646340615
 20
978.4230160562074
 30
0.0
 11
-1042.076646340615
 21
978.4230160562074
 31
0.0
  0
LINE
  5
5230
330
51B2
100
AcDbEntity
  8
AREA1
 62
     0
370
    -2
100
AcDbLine
 10
-925.2456463406154
 20
978.4230160562074
 30
0.0
 11
-979.7546463406154
 21
978.4230160562074
 31
0.0
  0
SOLID
  5
5231
330
51B2
100
AcDbEntity
  8
AREA1
 62
     0
100
AcDbTrace
 10
-1096.585646340615
 20
979.1730160562075
 30
0.0
 11
-1096.585646340615
 21
977.6730160562074
 31
0.0
 12
-1101.085646340615
 22
978.4230160562074
 32
0.0
 13
-1101.085646340615
 23
978.4230160562074
 33
0.0
  0
SOLID
  5
5232
330
51B2
100
AcDbEntity
  8
AREA1
 62
     0
100
AcDbTrace
 10
-925.2456463406154
 20
979.1730160562075
 30
0.0
 11
-925.2456463406154
 21
977.6730160562074
 31
0.0
 12
-920.7456463406154
 22
978.4230160562074
 32
0.0
 13
-920.7456463406154
 23
978.4230160562074
 33
0.0
  0
MTEXT
  5
5233
330
51B2
100
AcDbEntity
  8
AREA1
 62
     0
100
AcDbMText
 10
-1010.915646340615
 20
978.4230160562074
 30
0.0
 40
4.5
 41
0.0
 71
     5
 72
     1
  1
\A1;180.34 [7 3/32]
 73
     1
 44
1.0
  0
POINT
  5
5234
330
51B2
100
AcDbEntity
  8
DEFPOINTS
 62
     0
100
AcDbPoint
 10
-1101.085646340615
 20
942.7775430818369
 30
0.0
  0
POINT
  5
5235
330
51B2
100
AcDbEntity
  8
DEFPOINTS
 62
     0
100
AcDbPoint
 10
-920.7456463406154
 20
932.6175430818368
 30
0.0
  0
POINT
  5
5236
330
51B2
100
AcDbEntity
  8
DEFPOINTS
 62
     0
100
AcDbPoint
 10
-920.7456463406154
 20
978.4230160562074
 30
0.0
  0
ENDBLK
  5
51BE
330
51B2
100
AcDbEntity
  8
0
100
AcDbBlockEnd
  0
BLOCK
  5
51CA
330
51BF
100
AcDbEntity
  8
0
100
AcDbBlockBegin
  2
*D2
 70
     1
 10
0.0
 20
0.0
 30
0.0
  3
*D2
  1

  0
LINE
  5
5223
330
51BF
100
AcDbEntity
  8
AREA2
 62
     0
370
    -2
100
AcDbLine
 10
-919.1581463406153
 20
-208.7168268814059
 30
0.0
 11
-907.4064414122259
 21
-208.7168268814059
 31
0.0
  0
LINE
  5
5224
330
51BF
100
AcDbEntity
  8
AREA2
 62
     0
370
    -2
100
AcDbLine
 10
-929.3181463406153
 20
-353.7508268814058
 30
0.0
 11
-907.4064414122259
 21
-353.7508268814058
 31
0.0
  0
LINE
  5
5225
330
51BF
100
AcDbEntity
  8
AREA2
 62
     0
370
    -2
100
AcDbLine
 10
-909.4064414122259
 20
-213.2168268814059
 30
0.0
 11
-909.4064414122259
 21
-252.6810825222959
 31
0.0
  0
LINE
  5
5226
330
51BF
100
AcDbEntity
  8
AREA2
 62
     0
370
    -2
100
AcDbLine
 10
-909.4064414122261
 20
-349.2508268814058
 30
0.0
 11
-909.4064414122261
 21
-319.5030825222959
 31
0.0
  0
MTEXT
  5
5227
330
51BF
100
AcDbEntity
  8
AREA2
 62
     0
100
AcDbMText
 10
-909.4064414122259
 20
-286.0920825222961
 30
0.0
 40
4.5
 41
0.0
 71
     5
 72
     1
  1
\A1;145.03 [5 45/64]
 11
0.0000000000000001
 21
1.0
 31
0.0
 73
     1
 44
1.0
  0
SOLID
  5
5228
330
51BF
100
AcDbEntity
  8
AREA2
 62
     0
100
AcDbTrace
 10
-910.1564414122259
 20
-213.2168268814059
 30
0.0
 11
-908.6564414122259
 21
-213.2168268814059
 31
0.0
 12
-909.4064414122259
 22
-208.7168268814059
 32
0.0
 13
-909.4064414122259
 23
-208.7168268814059
 33
0.0
  0
SOLID
  5
5229
330
51BF
100
AcDbEntity
  8
AREA2
 62
     0
100
AcDbTrace
 10
-910.1564414122261
 20
-349.2508268814058
 30
0.0
 11
-908.6564414122261
 21
-349.2508268814058
 31
0.0
 12
-909.4064414122261
 22
-353.7508268814058
 32
0.0
 13
-909.4064414122261
 23
-353.7508268814058
 33
0.0
  0
POINT
  5
522A
330
51BF
100
AcDbEntity
  8
DEFPOINTS
 62
     0
100
AcDbPoint
 10
-920.7456463406154
 20
-208.7168268814059
 30
96.302468223186
  0
POINT
  5
522B
330
51BF
100
AcDbEntity
  8
DEFPOINTS
 62
     0
100
AcDbPoint
 10
-930.9056463406152
 20
-353.7508268814058
 30
86.14246822318591
  0
POINT
  5
522C
330
51BF
100
AcDbEntity
  8
DEFPOINTS
 62
     0
100
AcDbPoint
 10
-909.4064414122261
 20
-353.7508268814058
 30
0.0
  0
ENDBLK
  5
51CB
330
51BF
100
AcDbEntity
  8
0
100
AcDbBlockEnd
  0
ENDSEC
  0
SECTION
  2
ENTITIES
  0
LINE
  5
4DE0
330
1F
100
AcDbEntity
  8
SCALE
100
AcDbLine
 10
-1146.202594681162
 20
917.8043277682393
 30
-353.7508268814058
 11
-1120.802594681162
 21
917.8043277682393
 31
-353.7508268814058
  0
LINE
  5
4DE1
330
1F
100
AcDbEntity
  8
SCALE
100
AcDbLine
 10
-1120.802594681162
 20
915.2643277682393
 30
-353.7508268814058
 11
-1120.802594681162
 21
920.3443277682392
 31
-353.7508268814058
  0
LINE
  5
4DE2
330
1F
100
AcDbEntity
  8
SCALE
100
AcDbLine
 10
-1146.202594681162
 20
915.2643277682393
 30
-353.7508268814058
 11
-1146.202594681162
 21
920.3443277682392
 31
-353.7508268814058
  0
LINE
  5
4DE3
330
1F
100
AcDbEntity
  8
SCALE
100
AcDbLine
 10
-1146.202594681162
 20
922.9907515055325
 30
-353.7508268814058
 11
-1146.202594681162
 21
928.0707515055324
 31
-353.7508268814058
  0
LINE
  5
4DE4
330
1F
100
AcDbEntity
  8
SCALE
100
AcDbLine
 10
-1136.202614681162
 20
922.9907515055325
 30
-353.7508268814058
 11
-1136.202614681162
 21
928.0707515055324
 31
-353.7508268814058
  0
LINE
  5
4DE5
330
1F
100
AcDbEntity
  8
SCALE
100
AcDbLine
 10
-1146.202594681162
 20
925.5307515055324
 30
-353.7508268814058
 11
-1136.202614681162
 21
925.5307515055324
 31
-353.7508268814058
  0
TEXT
  5
4DE6
330
1F
100
AcDbEntity
  8
SCALE
100
AcDbText
 10
-1144.693271940388
 20
926.692538495495
 30
-353.7508268814058
 40
1.587499999999999
  1
10 mm
100
AcDbText
  0
TEXT
  5
4DE7
330
1F
100
AcDbEntity
  8
SCALE
100
AcDbText
 10
-1138.604701948074
 20
919.5581646307186
 30
-353.7508268814058
 40
1.587499999999999
  1
[1 Inch]
100
AcDbText
  0
TEXT
  5
4DE8
330
1F
100
AcDbEntity
  8
SCALE
100
AcDbText
 10
-1146.396510601032
 20
931.0642891203844
 30
-353.7508268814058
 40
1.587499999999999
  1
SCALE:
100
AcDbText
  0
ATTDEF
  5
4DEA
330
1F
100
AcDbEntity
  8
ATTRIBUTES
 62
     0
100
AcDbText
 10
-1062.624388560036
 20
859.1115218042686
 30
-353.7596636020331
 40
1.099112283096765
  1
0
100
AcDbAttributeDefinition
  3
VIEW CODE?
  2
AC_VIEW_CODE
 70
     1
  0
ATTDEF
  5
4DEB
330
1F
100
AcDbEntity
  8
ATTRIBUTES
 62
     0
100
AcDbText
 10
-1062.624388560036
 20
861.4013390607203
 30
-353.7596636020331
 40
1.099112283096765
  1
INCH
100
AcDbAttributeDefinition
  3
UNIT OF SCALE?
  2
AC_SCALE_UNIT
 70
     1
  0
ATTDEF
  5
4DEC
330
1F
100
AcDbEntity
  8
ATTRIBUTES
 62
     0
100
AcDbText
 10
-1062.624388560036
 20
863.691156317172
 30
-353.7584813050839
 40
1.099112283096765
  1

100
AcDbAttributeDefinition
  3
FASTENER DATA?
  2
FASTENER
 70
     1
  0
ATTDEF
  5
4DED
330
1F
100
AcDbEntity
  8
ATTRIBUTES
 62
     0
100
AcDbText
 10
-1062.624388560036
 20
865.9809735736237
 30
-353.7584813050839
 40
1.099112283096765
  1

100
AcDbAttributeDefinition
  3
CUSTOMER NOTE?
  2
AC_NOTE
 70
     1
  0
ATTDEF
  5
4DEE
330
1F
100
AcDbEntity
  8
ATTRIBUTES
 62
     0
100
AcDbText
 10
-1062.624388560036
 20
868.270790830075
 30
-353.7596636020331
 40
1.099112283096765
  1

100
AcDbAttributeDefinition
  3
CUSTOMER PART NUMBER?
  2
AC_CPART_NO
 70
     1
  0
ATTDEF
  5
4DEF
330
1F
100
AcDbEntity
  8
ATTRIBUTES
 62
     0
100
AcDbText
 10
-1062.624388560036
 20
870.5606080865267
 30
-353.7584813050839
 40
1.099112283096765
  1

100
AcDbAttributeDefinition
  3
DEVICE ID?
  2
DEVICE_ID
 70
     1
  0
ATTDEF
  5
4DF0
330
1F
100
AcDbEntity
  8
ATTRIBUTES
 62
     0
100
AcDbText
 10
-1062.624388560036
 20
872.8504253429784
 30
-353.7596636020331
 40
1.099112283096765
  1
ControlLogix 4 Slot Chassis
100
AcDbAttributeDefinition
  3
PART DESCRIPTION?
  2
AC_DESCRIPTION
 70
     1
  0
ATTDEF
  5
4DF1
330
1F
100
AcDbEntity
  8
ATTRIBUTES
 62
     0
100
AcDbText
 10
-1062.624388560036
 20
875.1402425994299
 30
-353.7596636020331
 40
1.099112283096765
  1
1756-A4
100
AcDbAttributeDefinition
  3
CATALOG NUMBER?
  2
AC_PART_NO
 70
     1
  0
ATTDEF
  5
4DF2
330
1F
100
AcDbEntity
  8
ATTRIBUTES
 62
     0
100
AcDbText
 10
-1062.624388560036
 20
877.4300598558816
 30
-353.7596636020331
 40
1.099112283096765
  1
ALLEN-BRADLEY
100
AcDbAttributeDefinition
  3
MANUFACTURER NAME?
  2
AC_VND_LABEL
 70
     1
  0
POLYLINE
  5
4DF3
330
1F
100
AcDbEntity
  8
0
100
AcDbPolygonMesh
 66
     1
 10
0.0
 20
0.0
 30
0.0
 70
    16
 71
     6
 72
     3
  0
VERTEX
  5
4DF4
330
4DF3
100
AcDbEntity
  8
0
100
AcDbVertex
100
AcDbPolygonMeshVertex
 10
-976.8808860034061
 20
886.8981113922473
 30
-342.9558268814058
 70
    64
  0
VERTEX
  5
4DF5
330
4DF3
100
AcDbEntity
  8
0
100
AcDbVertex
100
AcDbPolygonMeshVertex
 10
-976.8808860034061
 20
886.8981113922473
 30
-352.4808268814059
 70
    64
  0
VERTEX
  5
4DF6
330
4DF3
100
AcDbEntity
  8
0
100
AcDbVertex
100
AcDbPolygonMeshVertex
 10
-976.8808860034061
 20
886.8981113922473
 30
-352.4808268814059
 70
    64
  0
VERTEX
  5
4DF7
330
4DF3
100
AcDbEntity
  8
0
100
AcDbVertex
100
AcDbPolygonMeshVertex
 10
-987.0402746012693
 20
886.8981113922473
 30
-342.9558268814058
 70
    64
  0
VERTEX
  5
4DF8
330
4DF3
100
AcDbEntity
  8
0
100
AcDbVertex
100
AcDbPolygonMeshVertex
 10
-987.0402746012693
 20
886.8981113922473
 30
-352.4808268814059
 70
    64
  0
VERTEX
  5
4DF9
330
4DF3
100
AcDbEntity
  8
0
100
AcDbVertex
100
AcDbPolygonMeshVertex
 10
-987.0402746012693
 20
886.8981113922473
 30
-352.4808268814059
 70
    64
  0
VERTEX
  5
4DFA
330
4DF3
100
AcDbEntity
  8
0
100
AcDbVertex
100
AcDbPolygonMeshVertex
 10
-987.0402746012693
 20
927.53756490271
 30
-342.9558268814058
 70
    64
  0
VERTEX
  5
4DFB
330
4DF3
100
AcDbEntity
  8
0
100
AcDbVertex
100
AcDbPolygonMeshVertex
 10
-987.0402746012693
 20
927.53756490271
 30
-352.4808268814059
 70
    64
  0
VERTEX
  5
4DFC
330
4DF3
100
AcDbEntity
  8
0
100
AcDbVertex
100
AcDbPolygonMeshVertex
 10
-987.0402746012693
 20
886.8981113922473
 30
-352.4808268814059
 70
    64
  0
VERTEX
  5
4DFD
330
4DF3
100
AcDbEntity
  8
0
100
AcDbVertex
100
AcDbPolygonMeshVertex
 10
-976.8808860034061
 20
927.53756490271
 30
-342.9558268814058
 70
    64
  0
VERTEX
  5
4DFE
330
4DF3
100
AcDbEntity
  8
0
100
AcDbVertex
100
AcDbPolygonMeshVertex
 10
-976.8808860034061
 20
927.53756490271
 30
-352.4808268814059
 70
    64
  0
VERTEX
  5
4DFF
330
4DF3
100
AcDbEntity
  8
0
100
AcDbVertex
100
AcDbPolygonMeshVertex
 10
-976.8808860034061
 20
886.8981113922473
 30
-352.4808268814059
 70
    64
  0
VERTEX
  5
4E00
330
4DF3
100
AcDbEntity
  8
0
100
AcDbVertex
100
AcDbPolygonMeshVertex
 10
-976.8808860034061
 20
927.53756490271
 30
-342.9558268814058
 70
    64
  0
VERTEX
  5
4E01
330
4DF3
100
AcDbEntity
  8
0
100
AcDbVertex
100
AcDbPolygonMeshVertex
 10
-976.8808860034061
 20
927.53756490271
 30
-342.9558268814058
 70
    64
  0
VERTEX
  5
4E02
330
4DF3
100
AcDbEntity
  8
0
100
AcDbVertex
100
AcDbPolygonMeshVertex
 10
-976.8808860034061
 20
886.8981113922473
 30
-342.9558268814058
 70
    64
  0
VERTEX
  5
4E03
330
4DF3
100
AcDbEntity
  8
0
100
AcDbVertex
100
AcDbPolygonMeshVertex
 10
-987.0402746012693
 20
927.53756490271
 30
-342.9558268814058
 70
    64
  0
VERTEX
  5
4E04
330
4DF3
100
AcDbEntity
  8
0
100
AcDbVertex
100
AcDbPolygonMeshVertex
 10
-987.0402746012693
 20
927.53756490271
 30
-342.9558268814058
 70
    64
  0
VERTEX
  5
4E05
330
4DF3
100
AcDbEntity
  8
0
100
AcDbVertex
100
AcDbPolygonMeshVertex
 10
-987.0402746012693
 20
886.8981113922473
 30
-342.9558268814058
 70
    64
  0
SEQEND
  5
4E06
330
4DF3
100
AcDbEntity
  8
0
  0
POLYLINE
  5
4E07
330
1F
100
AcDbEntity
  8
0
100
AcDbPolygonMesh
 66
     1
 10
0.0
 20
0.0
 30
0.0
 70
    16
 71
     6
 72
     3
  0
VERTEX
  5
4E08
330
4E07
100
AcDbEntity
  8
0
100
AcDbVertex
100
AcDbPolygonMeshVertex
 10
-930.9056463406152
 20
942.7775430818369
 30
-255.9608268814058
 70
    64
  0
VERTEX
  5
4E09
330
4E07
100
AcDbEntity
  8
0
100
AcDbVertex
100
AcDbPolygonMeshVertex
 10
-930.9056463406152
 20
942.7775430818369
 30
-353.7508268814058
 70
    64
  0
VERTEX
  5
4E0A
330
4E07
100
AcDbEntity
  8
0
100
AcDbVertex
100
AcDbPolygonMeshVertex
 10
-930.9056463406152
 20
942.7775430818369
 30
-353.7508268814058
 70
    64
  0
VERTEX
  5
4E0B
330
4E07
100
AcDbEntity
  8
0
100
AcDbVertex
100
AcDbPolygonMeshVertex
 10
-1101.085646340615
 20
942.7775430818369
 30
-255.9608268814058
 70
    64
  0
VERTEX
  5
4E0C
330
4E07
100
AcDbEntity
  8
0
100
AcDbVertex
100
AcDbPolygonMeshVertex
 10
-1101.085646340615
 20
942.7775430818369
 30
-353.7508268814058
 70
    64
  0
VERTEX
  5
4E0D
330
4E07
100
AcDbEntity
  8
0
100
AcDbVertex
100
AcDbPolygonMeshVertex
 10
-1101.085646340615
 20
942.7775430818369
 30
-353.7508268814058
 70
    64
  0
VERTEX
  5
4E0E
330
4E07
100
AcDbEntity
  8
0
100
AcDbVertex
100
AcDbPolygonMeshVertex
 10
-1101.085646340615
 20
941.754140828257
 30
-255.9608268814058
 70
    64
  0
VERTEX
  5
4E0F
330
4E07
100
AcDbEntity
  8
0
100
AcDbVertex
100
AcDbPolygonMeshVertex
 10
-1101.085646340615
 20
941.754140828257
 30
-353.7508268814058
 70
    64
  0
VERTEX
  5
4E10
330
4E07
100
AcDbEntity
  8
0
100
AcDbVertex
100
AcDbPolygonMeshVertex
 10
-1101.085646340615
 20
942.7775430818369
 30
-353.7508268814058
 70
    64
  0
VERTEX
  5
4E11
330
4E07
100
AcDbEntity
  8
0
100
AcDbVertex
100
AcDbPolygonMeshVertex
 10
-930.9056463406152
 20
941.754140828257
 30
-255.9608268814058
 70
    64
  0
VERTEX
  5
4E12
330
4E07
100
AcDbEntity
  8
0
100
AcDbVertex
100
AcDbPolygonMeshVertex
 10
-930.9056463406152
 20
941.754140828257
 30
-353.7508268814058
 70
    64
  0
VERTEX
  5
4E13
330
4E07
100
AcDbEntity
  8
0
100
AcDbVertex
100
AcDbPolygonMeshVertex
 10
-930.9056463406152
 20
942.7775430818369
 30
-353.7508268814058
 70
    64
  0
VERTEX
  5
4E14
330
4E07
100
AcDbEntity
  8
0
100
AcDbVertex
100
AcDbPolygonMeshVertex
 10
-930.9056463406152
 20
941.754140828257
 30
-255.9608268814058
 70
    64
  0
VERTEX
  5
4E15
330
4E07
100
AcDbEntity
  8
0
100
AcDbVertex
100
AcDbPolygonMeshVertex
 10
-930.9056463406152
 20
941.754140828257
 30
-255.9608268814058
 70
    64
  0
VERTEX
  5
4E16
330
4E07
100
AcDbEntity
  8
0
100
AcDbVertex
100
AcDbPolygonMeshVertex
 10
-930.9056463406152
 20
942.7775430818369
 30
-255.9608268814058
 70
    64
  0
VERTEX
  5
4E17
330
4E07
100
AcDbEntity
  8
0
100
AcDbVertex
100
AcDbPolygonMeshVertex
 10
-1101.085646340615
 20
941.754140828257
 30
-255.9608268814058
 70
    64
  0
VERTEX
  5
4E18
330
4E07
100
AcDbEntity
  8
0
100
AcDbVertex
100
AcDbPolygonMeshVertex
 10
-1101.085646340615
 20
941.754140828257
 30
-255.9608268814058
 70
    64
  0
VERTEX
  5
4E19
330
4E07
100
AcDbEntity
  8
0
100
AcDbVertex
100
AcDbPolygonMeshVertex
 10
-1101.085646340615
 20
942.7775430818369
 30
-255.9608268814058
 70
    64
  0
SEQEND
  5
4E1A
330
4E07
100
AcDbEntity
  8
0
  0
POLYLINE
  5
4E1B
330
1F
100
AcDbEntity
  8
0
100
AcDbPolygonMesh
 66
     1
 10
0.0
 20
0.0
 30
0.0
 70
    16
 71
     6
 72
     3
  0
VERTEX
  5
4E1C
330
4E1B
100
AcDbEntity
  8
0
100
AcDbVertex
100
AcDbPolygonMeshVertex
 10
-930.9056463406152
 20
803.8469453354169
 30
-352.7347999165284
 70
    64
  0
VERTEX
  5
4E1D
330
4E1B
100
AcDbEntity
  8
0
100
AcDbVertex
100
AcDbPolygonMeshVertex
 10
-930.9056463406152
 20
803.8469453354169
 30
-353.7508268814058
 70
    64
  0
VERTEX
  5
4E1E
330
4E1B
100
AcDbEntity
  8
0
100
AcDbVertex
100
AcDbPolygonMeshVertex
 10
-930.9056463406152
 20
803.8469453354169
 30
-353.7508268814058
 70
    64
  0
VERTEX
  5
4E1F
330
4E1B
100
AcDbEntity
  8
0
100
AcDbVertex
100
AcDbPolygonMeshVertex
 10
-1101.085646340615
 20
803.8469453354169
 30
-352.7347999165284
 70
    64
  0
VERTEX
  5
4E20
330
4E1B
100
AcDbEntity
  8
0
100
AcDbVertex
100
AcDbPolygonMeshVertex
 10
-1101.085646340615
 20
803.8469453354169
 30
-353.7508268814058
 70
    64
  0
VERTEX
  5
4E21
330
4E1B
100
AcDbEntity
  8
0
100
AcDbVertex
100
AcDbPolygonMeshVertex
 10
-1101.085646340615
 20
803.8469453354169
 30
-353.7508268814058
 70
    64
  0
VERTEX
  5
4E22
330
4E1B
100
AcDbEntity
  8
0
100
AcDbVertex
100
AcDbPolygonMeshVertex
 10
-1101.085646340615
 20
941.761543081837
 30
-352.7347999165284
 70
    64
  0
VERTEX
  5
4E23
330
4E1B
100
AcDbEntity
  8
0
100
AcDbVertex
100
AcDbPolygonMeshVertex
 10
-1101.085646340615
 20
941.761543081837
 30
-353.7508268814058
 70
    64
  0
VERTEX
  5
4E24
330
4E1B
100
AcDbEntity
  8
0
100
AcDbVertex
100
AcDbPolygonMeshVertex
 10
-1101.085646340615
 20
803.8469453354169
 30
-353.7508268814058
 70
    64
  0
VERTEX
  5
4E25
330
4E1B
100
AcDbEntity
  8
0
100
AcDbVertex
100
AcDbPolygonMeshVertex
 10
-930.9056463406152
 20
941.761543081837
 30
-352.7347999165284
 70
    64
  0
VERTEX
  5
4E26
330
4E1B
100
AcDbEntity
  8
0
100
AcDbVertex
100
AcDbPolygonMeshVertex
 10
-930.9056463406152
 20
941.761543081837
 30
-353.7508268814058
 70
    64
  0
VERTEX
  5
4E27
330
4E1B
100
AcDbEntity
  8
0
100
AcDbVertex
100
AcDbPolygonMeshVertex
 10
-930.9056463406152
 20
803.8469453354169
 30
-353.7508268814058
 70
    64
  0
VERTEX
  5
4E28
330
4E1B
100
AcDbEntity
  8
0
100
AcDbVertex
100
AcDbPolygonMeshVertex
 10
-930.9056463406152
 20
941.761543081837
 30
-352.7347999165284
 70
    64
  0
VERTEX
  5
4E29
330
4E1B
100
AcDbEntity
  8
0
100
AcDbVertex
100
AcDbPolygonMeshVertex
 10
-930.9056463406152
 20
941.761543081837
 30
-352.7347999165284
 70
    64
  0
VERTEX
  5
4E2A
330
4E1B
100
AcDbEntity
  8
0
100
AcDbVertex
100
AcDbPolygonMeshVertex
 10
-930.9056463406152
 20
803.8469453354169
 30
-352.7347999165284
 70
    64
  0
VERTEX
  5
4E2B
330
4E1B
100
AcDbEntity
  8
0
100
AcDbVertex
100
AcDbPolygonMeshVertex
 10
-1101.085646340615
 20
941.761543081837
 30
-352.7347999165284
 70
    64
  0
VERTEX
  5
4E2C
330
4E1B
100
AcDbEntity
  8
0
100
AcDbVertex
100
AcDbPolygonMeshVertex
 10
-1101.085646340615
 20
941.761543081837
 30
-352.7347999165284
 70
    64
  0
VERTEX
  5
4E2D
330
4E1B
100
AcDbEntity
  8
0
100
AcDbVertex
100
AcDbPolygonMeshVertex
 10
-1101.085646340615
 20
803.8469453354169
 30
-352.7347999165284
 70
    64
  0
SEQEND
  5
4E2E
330
4E1B
100
AcDbEntity
  8
0
  0
POLYLINE
  5
4E2F
330
1F
100
AcDbEntity
  8
0
100
AcDbPolygonMesh
 66
     1
 10
0.0
 20
0.0
 30
0.0
 70
    16
 71
     6
 72
     3
  0
VERTEX
  5
4E30
330
4E2F
100
AcDbEntity
  8
0
100
AcDbVertex
100
AcDbPolygonMeshVertex
 10
-930.9056463406152
 20
802.8235430818369
 30
-255.9608268814058
 70
    64
  0
VERTEX
  5
4E31
330
4E2F
100
AcDbEntity
  8
0
100
AcDbVertex
100
AcDbPolygonMeshVertex
 10
-930.9056463406152
 20
802.8235430818369
 30
-353.7508268814058
 70
    64
  0
VERTEX
  5
4E32
330
4E2F
100
AcDbEntity
  8
0
100
AcDbVertex
100
AcDbPolygonMeshVertex
 10
-930.9056463406152
 20
802.8235430818369
 30
-353.7508268814058
 70
    64
  0
VERTEX
  5
4E33
330
4E2F
100
AcDbEntity
  8
0
100
AcDbVertex
100
AcDbPolygonMeshVertex
 10
-1101.085646340615
 20
802.8235430818369
 30
-255.9608268814058
 70
    64
  0
VERTEX
  5
4E34
330
4E2F
100
AcDbEntity
  8
0
100
AcDbVertex
100
AcDbPolygonMeshVertex
 10
-1101.085646340615
 20
802.8235430818369
 30
-353.7508268814058
 70
    64
  0
VERTEX
  5
4E35
330
4E2F
100
AcDbEntity
  8
0
100
AcDbVertex
100
AcDbPolygonMeshVertex
 10
-1101.085646340615
 20
802.8235430818369
 30
-353.7508268814058
 70
    64
  0
VERTEX
  5
4E36
330
4E2F
100
AcDbEntity
  8
0
100
AcDbVertex
100
AcDbPolygonMeshVertex
 10
-1101.085646340615
 20
803.8469453354169
 30
-255.9608268814058
 70
    64
  0
VERTEX
  5
4E37
330
4E2F
100
AcDbEntity
  8
0
100
AcDbVertex
100
AcDbPolygonMeshVertex
 10
-1101.085646340615
 20
803.8469453354169
 30
-353.7508268814058
 70
    64
  0
VERTEX
  5
4E38
330
4E2F
100
AcDbEntity
  8
0
100
AcDbVertex
100
AcDbPolygonMeshVertex
 10
-1101.085646340615
 20
802.8235430818369
 30
-353.7508268814058
 70
    64
  0
VERTEX
  5
4E39
330
4E2F
100
AcDbEntity
  8
0
100
AcDbVertex
100
AcDbPolygonMeshVertex
 10
-930.9056463406152
 20
803.8469453354169
 30
-255.9608268814058
 70
    64
  0
VERTEX
  5
4E3A
330
4E2F
100
AcDbEntity
  8
0
100
AcDbVertex
100
AcDbPolygonMeshVertex
 10
-930.9056463406152
 20
803.8469453354169
 30
-353.7508268814058
 70
    64
  0
VERTEX
  5
4E3B
330
4E2F
100
AcDbEntity
  8
0
100
AcDbVertex
100
AcDbPolygonMeshVertex
 10
-930.9056463406152
 20
802.8235430818369
 30
-353.7508268814058
 70
    64
  0
VERTEX
  5
4E3C
330
4E2F
100
AcDbEntity
  8
0
100
AcDbVertex
100
AcDbPolygonMeshVertex
 10
-930.9056463406152
 20
803.8469453354169
 30
-255.9608268814058
 70
    64
  0
VERTEX
  5
4E3D
330
4E2F
100
AcDbEntity
  8
0
100
AcDbVertex
100
AcDbPolygonMeshVertex
 10
-930.9056463406152
 20
803.8469453354169
 30
-255.9608268814058
 70
    64
  0
VERTEX
  5
4E3E
330
4E2F
100
AcDbEntity
  8
0
100
AcDbVertex
100
AcDbPolygonMeshVertex
 10
-930.9056463406152
 20
802.8235430818369
 30
-255.9608268814058
 70
    64
  0
VERTEX
  5
4E3F
330
4E2F
100
AcDbEntity
  8
0
100
AcDbVertex
100
AcDbPolygonMeshVertex
 10
-1101.085646340615
 20
803.8469453354169
 30
-255.9608268814058
 70
    64
  0
VERTEX
  5
4E40
330
4E2F
100
AcDbEntity
  8
0
100
AcDbVertex
100
AcDbPolygonMeshVertex
 10
-1101.085646340615
 20
803.8469453354169
 30
-255.9608268814058
 70
    64
  0
VERTEX
  5
4E41
330
4E2F
100
AcDbEntity
  8
0
100
AcDbVertex
100
AcDbPolygonMeshVertex
 10
-1101.085646340615
 20
802.8235430818369
 30
-255.9608268814058
 70
    64
  0
SEQEND
  5
4E42
330
4E2F
100
AcDbEntity
  8
0
  0
POLYLINE
  5
4E43
330
1F
100
AcDbEntity
  8
0
100
AcDbPolygonMesh
 66
     1
 10
0.0
 20
0.0
 30
0.0
 70
    16
 71
     6
 72
     3
  0
VERTEX
  5
4E44
330
4E43
100
AcDbEntity
  8
0
100
AcDbVertex
100
AcDbPolygonMeshVertex
 10
-1043.859446340615
 20
942.7775430818369
 30
-352.7348268814059
 70
    64
  0
VERTEX
  5
4E45
330
4E43
100
AcDbEntity
  8
0
100
AcDbVertex
100
AcDbPolygonMeshVertex
 10
-1043.859446340615
 20
942.7775430818369
 30
-353.7508268814058
 70
    64
  0
VERTEX
  5
4E46
330
4E43
100
AcDbEntity
  8
0
100
AcDbVertex
100
AcDbPolygonMeshVertex
 10
-1043.859446340615
 20
942.7775430818369
 30
-353.7508268814058
 70
    64
  0
VERTEX
  5
4E47
330
4E43
100
AcDbEntity
  8
0
100
AcDbVertex
100
AcDbPolygonMeshVertex
 10
-1043.859446340615
 20
959.795543081837
 30
-352.7348268814059
 70
    64
  0
VERTEX
  5
4E48
330
4E43
100
AcDbEntity
  8
0
100
AcDbVertex
100
AcDbPolygonMeshVertex
 10
-1043.859446340615
 20
959.795543081837
 30
-353.7508268814058
 70
    64
  0
VERTEX
  5
4E49
330
4E43
100
AcDbEntity
  8
0
100
AcDbVertex
100
AcDbPolygonMeshVertex
 10
-1043.859446340615
 20
959.795543081837
 30
-353.7508268814058
 70
    64
  0
VERTEX
  5
4E4A
330
4E43
100
AcDbEntity
  8
0
100
AcDbVertex
100
AcDbPolygonMeshVertex
 10
-1027.755846340615
 20
959.795543081837
 30
-352.7348268814059
 70
    64
  0
VERTEX
  5
4E4B
330
4E43
100
AcDbEntity
  8
0
100
AcDbVertex
100
AcDbPolygonMeshVertex
 10
-1027.755846340615
 20
959.795543081837
 30
-353.7508268814058
 70
    64
  0
VERTEX
  5
4E4C
330
4E43
100
AcDbEntity
  8
0
100
AcDbVertex
100
AcDbPolygonMeshVertex
 10
-1043.859446340615
 20
959.795543081837
 30
-353.7508268814058
 70
    64
  0
VERTEX
  5
4E4D
330
4E43
100
AcDbEntity
  8
0
100
AcDbVertex
100
AcDbPolygonMeshVertex
 10
-1027.755846340615
 20
942.7775430818369
 30
-352.7348268814059
 70
    64
  0
VERTEX
  5
4E4E
330
4E43
100
AcDbEntity
  8
0
100
AcDbVertex
100
AcDbPolygonMeshVertex
 10
-1027.755846340615
 20
942.7775430818369
 30
-353.7508268814058
 70
    64
  0
VERTEX
  5
4E4F
330
4E43
100
AcDbEntity
  8
0
100
AcDbVertex
100
AcDbPolygonMeshVertex
 10
-1043.859446340615
 20
942.7775430818369
 30
-353.7508268814058
 70
    64
  0
VERTEX
  5
4E50
330
4E43
100
AcDbEntity
  8
0
100
AcDbVertex
100
AcDbPolygonMeshVertex
 10
-1027.755846340615
 20
942.7775430818369
 30
-352.7348268814059
 70
    64
  0
VERTEX
  5
4E51
330
4E43
100
AcDbEntity
  8
0
100
AcDbVertex
100
AcDbPolygonMeshVertex
 10
-1027.755846340615
 20
942.7775430818369
 30
-352.7348268814059
 70
    64
  0
VERTEX
  5
4E52
330
4E43
100
AcDbEntity
  8
0
100
AcDbVertex
100
AcDbPolygonMeshVertex
 10
-1043.859446340615
 20
942.7775430818369
 30
-352.7348268814059
 70
    64
  0
VERTEX
  5
4E53
330
4E43
100
AcDbEntity
  8
0
100
AcDbVertex
100
AcDbPolygonMeshVertex
 10
-1027.755846340615
 20
959.795543081837
 30
-352.7348268814059
 70
    64
  0
VERTEX
  5
4E54
330
4E43
100
AcDbEntity
  8
0
100
AcDbVertex
100
AcDbPolygonMeshVertex
 10
-1027.755846340615
 20
959.795543081837
 30
-352.7348268814059
 70
    64
  0
VERTEX
  5
4E55
330
4E43
100
AcDbEntity
  8
0
100
AcDbVertex
100
AcDbPolygonMeshVertex
 10
-1043.859446340615
 20
959.795543081837
 30
-352.7348268814059
 70
    64
  0
SEQEND
  5
4E56
330
4E43
100
AcDbEntity
  8
0
  0
POLYLINE
  5
4E57
330
1F
100
AcDbEntity
  8
0
100
AcDbPolygonMesh
 66
     1
 10
0.0
 20
0.0
 30
0.0
 70
    16
 71
     6
 72
     3
  0
VERTEX
  5
4E58
330
4E57
100
AcDbEntity
  8
0
100
AcDbVertex
100
AcDbPolygonMeshVertex
 10
-1091.751654954729
 20
940.9481123610246
 30
-276.2808268814059
 70
    64
  0
VERTEX
  5
4E59
330
4E57
100
AcDbEntity
  8
0
100
AcDbVertex
100
AcDbPolygonMeshVertex
 10
-1091.751654954729
 20
940.9481123610246
 30
-352.4808268814059
 70
    64
  0
VERTEX
  5
4E5A
330
4E57
100
AcDbEntity
  8
0
100
AcDbVertex
100
AcDbPolygonMeshVertex
 10
-1091.751654954729
 20
940.9481123610246
 30
-352.4808268814059
 70
    64
  0
VERTEX
  5
4E5B
330
4E57
100
AcDbEntity
  8
0
100
AcDbVertex
100
AcDbPolygonMeshVertex
 10
-1094.291654954729
 20
940.9481123610246
 30
-276.2808268814059
 70
    64
  0
VERTEX
  5
4E5C
330
4E57
100
AcDbEntity
  8
0
100
AcDbVertex
100
AcDbPolygonMeshVertex
 10
-1094.291654954729
 20
940.9481123610246
 30
-352.4808268814059
 70
    64
  0
VERTEX
  5
4E5D
330
4E57
100
AcDbEntity
  8
0
100
AcDbVertex
100
AcDbPolygonMeshVertex
 10
-1094.291654954729
 20
940.9481123610246
 30
-352.4808268814059
 70
    64
  0
VERTEX
  5
4E5E
330
4E57
100
AcDbEntity
  8
0
100
AcDbVertex
100
AcDbPolygonMeshVertex
 10
-1094.291654954729
 20
935.8681123610244
 30
-276.2808268814059
 70
    64
  0
VERTEX
  5
4E5F
330
4E57
100
AcDbEntity
  8
0
100
AcDbVertex
100
AcDbPolygonMeshVertex
 10
-1094.291654954729
 20
935.8681123610244
 30
-352.4808268814059
 70
    64
  0
VERTEX
  5
4E60
330
4E57
100
AcDbEntity
  8
0
100
AcDbVertex
100
AcDbPolygonMeshVertex
 10
-1094.291654954729
 20
940.9481123610246
 30
-352.4808268814059
 70
    64
  0
VERTEX
  5
4E61
330
4E57
100
AcDbEntity
  8
0
100
AcDbVertex
100
AcDbPolygonMeshVertex
 10
-1091.751654954729
 20
935.8681123610244
 30
-276.2808268814059
 70
    64
  0
VERTEX
  5
4E62
330
4E57
100
AcDbEntity
  8
0
100
AcDbVertex
100
AcDbPolygonMeshVertex
 10
-1091.751654954729
 20
935.8681123610244
 30
-352.4808268814059
 70
    64
  0
VERTEX
  5
4E63
330
4E57
100
AcDbEntity
  8
0
100
AcDbVertex
100
AcDbPolygonMeshVertex
 10
-1091.751654954729
 20
940.9481123610246
 30
-352.4808268814059
 70
    64
  0
VERTEX
  5
4E64
330
4E57
100
AcDbEntity
  8
0
100
AcDbVertex
100
AcDbPolygonMeshVertex
 10
-1091.751654954729
 20
935.8681123610244
 30
-276.2808268814059
 70
    64
  0
VERTEX
  5
4E65
330
4E57
100
AcDbEntity
  8
0
100
AcDbVertex
100
AcDbPolygonMeshVertex
 10
-1091.751654954729
 20
935.8681123610244
 30
-276.2808268814059
 70
    64
  0
VERTEX
  5
4E66
330
4E57
100
AcDbEntity
  8
0
100
AcDbVertex
100
AcDbPolygonMeshVertex
 10
-1091.751654954729
 20
940.9481123610246
 30
-276.2808268814059
 70
    64
  0
VERTEX
  5
4E67
330
4E57
100
AcDbEntity
  8
0
100
AcDbVertex
100
AcDbPolygonMeshVertex
 10
-1094.291654954729
 20
935.8681123610244
 30
-276.2808268814059
 70
    64
  0
VERTEX
  5
4E68
330
4E57
100
AcDbEntity
  8
0
100
AcDbVertex
100
AcDbPolygonMeshVertex
 10
-1094.291654954729
 20
935.8681123610244
 30
-276.2808268814059
 70
    64
  0
VERTEX
  5
4E69
330
4E57
100
AcDbEntity
  8
0
100
AcDbVertex
100
AcDbPolygonMeshVertex
 10
-1094.291654954729
 20
940.9481123610246
 30
-276.2808268814059
 70
    64
  0
SEQEND
  5
4E6A
330
4E57
100
AcDbEntity
  8
0
  0
POLYLINE
  5
4E6B
330
1F
100
AcDbEntity
  8
0
100
AcDbPolygonMesh
 66
     1
 10
0.0
 20
0.0
 30
0.0
 70
    16
 71
     6
 72
     3
  0
VERTEX
  5
4E6C
330
4E6B
100
AcDbEntity
  8
0
100
AcDbVertex
100
AcDbPolygonMeshVertex
 10
-1086.925654954729
 20
940.9481123610246
 30
-276.2808268814059
 70
    64
  0
VERTEX
  5
4E6D
330
4E6B
100
AcDbEntity
  8
0
100
AcDbVertex
100
AcDbPolygonMeshVertex
 10
-1086.925654954729
 20
940.9481123610246
 30
-352.4808268814059
 70
    64
  0
VERTEX
  5
4E6E
330
4E6B
100
AcDbEntity
  8
0
100
AcDbVertex
100
AcDbPolygonMeshVertex
 10
-1086.925654954729
 20
940.9481123610246
 30
-352.4808268814059
 70
    64
  0
VERTEX
  5
4E6F
330
4E6B
100
AcDbEntity
  8
0
100
AcDbVertex
100
AcDbPolygonMeshVertex
 10
-1089.465654954729
 20
940.9481123610246
 30
-276.2808268814059
 70
    64
  0
VERTEX
  5
4E70
330
4E6B
100
AcDbEntity
  8
0
100
AcDbVertex
100
AcDbPolygonMeshVertex
 10
-1089.465654954729
 20
940.9481123610246
 30
-352.4808268814059
 70
    64
  0
VERTEX
  5
4E71
330
4E6B
100
AcDbEntity
  8
0
100
AcDbVertex
100
AcDbPolygonMeshVertex
 10
-1089.465654954729
 20
940.9481123610246
 30
-352.4808268814059
 70
    64
  0
VERTEX
  5
4E72
330
4E6B
100
AcDbEntity
  8
0
100
AcDbVertex
100
AcDbPolygonMeshVertex
 10
-1089.465654954729
 20
935.8681123610244
 30
-276.2808268814059
 70
    64
  0
VERTEX
  5
4E73
330
4E6B
100
AcDbEntity
  8
0
100
AcDbVertex
100
AcDbPolygonMeshVertex
 10
-1089.465654954729
 20
935.8681123610244
 30
-352.4808268814059
 70
    64
  0
VERTEX
  5
4E74
330
4E6B
100
AcDbEntity
  8
0
100
AcDbVertex
100
AcDbPolygonMeshVertex
 10
-1089.465654954729
 20
940.9481123610246
 30
-352.4808268814059
 70
    64
  0
VERTEX
  5
4E75
330
4E6B
100
AcDbEntity
  8
0
100
AcDbVertex
100
AcDbPolygonMeshVertex
 10
-1086.925654954729
 20
935.8681123610244
 30
-276.2808268814059
 70
    64
  0
VERTEX
  5
4E76
330
4E6B
100
AcDbEntity
  8
0
100
AcDbVertex
100
AcDbPolygonMeshVertex
 10
-1086.925654954729
 20
935.8681123610244
 30
-352.4808268814059
 70
    64
  0
VERTEX
  5
4E77
330
4E6B
100
AcDbEntity
  8
0
100
AcDbVertex
100
AcDbPolygonMeshVertex
 10
-1086.925654954729
 20
940.9481123610246
 30
-352.4808268814059
 70
    64
  0
VERTEX
  5
4E78
330
4E6B
100
AcDbEntity
  8
0
100
AcDbVertex
100
AcDbPolygonMeshVertex
 10
-1086.925654954729
 20
935.8681123610244
 30
-276.2808268814059
 70
    64
  0
VERTEX
  5
4E79
330
4E6B
100
AcDbEntity
  8
0
100
AcDbVertex
100
AcDbPolygonMeshVertex
 10
-1086.925654954729
 20
935.8681123610244
 30
-276.2808268814059
 70
    64
  0
VERTEX
  5
4E7A
330
4E6B
100
AcDbEntity
  8
0
100
AcDbVertex
100
AcDbPolygonMeshVertex
 10
-1086.925654954729
 20
940.9481123610246
 30
-276.2808268814059
 70
    64
  0
VERTEX
  5
4E7B
330
4E6B
100
AcDbEntity
  8
0
100
AcDbVertex
100
AcDbPolygonMeshVertex
 10
-1089.465654954729
 20
935.8681123610244
 30
-276.2808268814059
 70
    64
  0
VERTEX
  5
4E7C
330
4E6B
100
AcDbEntity
  8
0
100
AcDbVertex
100
AcDbPolygonMeshVertex
 10
-1089.465654954729
 20
935.8681123610244
 30
-276.2808268814059
 70
    64
  0
VERTEX
  5
4E7D
330
4E6B
100
AcDbEntity
  8
0
100
AcDbVertex
100
AcDbPolygonMeshVertex
 10
-1089.465654954729
 20
940.9481123610246
 30
-276.2808268814059
 70
    64
  0
SEQEND
  5
4E7E
330
4E6B
100
AcDbEntity
  8
0
  0
POLYLINE
  5
4E7F
330
1F
100
AcDbEntity
  8
0
100
AcDbPolygonMesh
 66
     1
 10
0.0
 20
0.0
 30
0.0
 70
    16
 71
     6
 72
     3
  0
VERTEX
  5
4E80
330
4E7F
100
AcDbEntity
  8
0
100
AcDbVertex
100
AcDbPolygonMeshVertex
 10
-1089.465654954729
 20
940.9481123610246
 30
-276.2808268814059
 70
    64
  0
VERTEX
  5
4E81
330
4E7F
100
AcDbEntity
  8
0
100
AcDbVertex
100
AcDbPolygonMeshVertex
 10
-1089.465654954729
 20
940.9481123610246
 30
-352.4808268814059
 70
    64
  0
VERTEX
  5
4E82
330
4E7F
100
AcDbEntity
  8
0
100
AcDbVertex
100
AcDbPolygonMeshVertex
 10
-1089.465654954729
 20
940.9481123610246
 30
-352.4808268814059
 70
    64
  0
VERTEX
  5
4E83
330
4E7F
100
AcDbEntity
  8
0
100
AcDbVertex
100
AcDbPolygonMeshVertex
 10
-1091.751654954729
 20
940.9481123610246
 30
-276.2808268814059
 70
    64
  0
VERTEX
  5
4E84
330
4E7F
100
AcDbEntity
  8
0
100
AcDbVertex
100
AcDbPolygonMeshVertex
 10
-1091.751654954729
 20
940.9481123610246
 30
-352.4808268814059
 70
    64
  0
VERTEX
  5
4E85
330
4E7F
100
AcDbEntity
  8
0
100
AcDbVertex
100
AcDbPolygonMeshVertex
 10
-1091.751654954729
 20
940.9481123610246
 30
-352.4808268814059
 70
    64
  0
VERTEX
  5
4E86
330
4E7F
100
AcDbEntity
  8
0
100
AcDbVertex
100
AcDbPolygonMeshVertex
 10
-1091.751654954729
 20
939.0431123610245
 30
-276.2808268814059
 70
    64
  0
VERTEX
  5
4E87
330
4E7F
100
AcDbEntity
  8
0
100
AcDbVertex
100
AcDbPolygonMeshVertex
 10
-1091.751654954729
 20
939.0431123610245
 30
-352.4808268814059
 70
    64
  0
VERTEX
  5
4E88
330
4E7F
100
AcDbEntity
  8
0
100
AcDbVertex
100
AcDbPolygonMeshVertex
 10
-1091.751654954729
 20
940.9481123610246
 30
-352.4808268814059
 70
    64
  0
VERTEX
  5
4E89
330
4E7F
100
AcDbEntity
  8
0
100
AcDbVertex
100
AcDbPolygonMeshVertex
 10
-1089.465654954729
 20
939.0431123610245
 30
-276.2808268814059
 70
    64
  0
VERTEX
  5
4E8A
330
4E7F
100
AcDbEntity
  8
0
100
AcDbVertex
100
AcDbPolygonMeshVertex
 10
-1089.465654954729
 20
939.0431123610245
 30
-352.4808268814059
 70
    64
  0
VERTEX
  5
4E8B
330
4E7F
100
AcDbEntity
  8
0
100
AcDbVertex
100
AcDbPolygonMeshVertex
 10
-1089.465654954729
 20
940.9481123610246
 30
-352.4808268814059
 70
    64
  0
VERTEX
  5
4E8C
330
4E7F
100
AcDbEntity
  8
0
100
AcDbVertex
100
AcDbPolygonMeshVertex
 10
-1089.465654954729
 20
939.0431123610245
 30
-276.2808268814059
 70
    64
  0
VERTEX
  5
4E8D
330
4E7F
100
AcDbEntity
  8
0
100
AcDbVertex
100
AcDbPolygonMeshVertex
 10
-1089.465654954729
 20
939.0431123610245
 30
-276.2808268814059
 70
    64
  0
VERTEX
  5
4E8E
330
4E7F
100
AcDbEntity
  8
0
100
AcDbVertex
100
AcDbPolygonMeshVertex
 10
-1089.465654954729
 20
940.9481123610246
 30
-276.2808268814059
 70
    64
  0
VERTEX
  5
4E8F
330
4E7F
100
AcDbEntity
  8
0
100
AcDbVertex
100
AcDbPolygonMeshVertex
 10
-1091.751654954729
 20
939.0431123610245
 30
-276.2808268814059
 70
    64
  0
VERTEX
  5
4E90
330
4E7F
100
AcDbEntity
  8
0
100
AcDbVertex
100
AcDbPolygonMeshVertex
 10
-1091.751654954729
 20
939.0431123610245
 30
-276.2808268814059
 70
    64
  0
VERTEX
  5
4E91
330
4E7F
100
AcDbEntity
  8
0
100
AcDbVertex
100
AcDbPolygonMeshVertex
 10
-1091.751654954729
 20
940.9481123610246
 30
-276.2808268814059
 70
    64
  0
SEQEND
  5
4E92
330
4E7F
100
AcDbEntity
  8
0
  0
POLYLINE
  5
4E93
330
1F
100
AcDbEntity
  8
0
100
AcDbPolygonMesh
 66
     1
 10
0.0
 20
0.0
 30
0.0
 70
    16
 71
     6
 72
     3
  0
VERTEX
  5
4E94
330
4E93
100
AcDbEntity
  8
0
100
AcDbVertex
100
AcDbPolygonMeshVertex
 10
-1046.729808809967
 20
940.9481123610243
 30
-276.2808268814059
 70
    64
  0
VERTEX
  5
4E95
330
4E93
100
AcDbEntity
  8
0
100
AcDbVertex
100
AcDbPolygonMeshVertex
 10
-1046.729808809967
 20
940.9481123610243
 30
-352.4808268814058
 70
    64
  0
VERTEX
  5
4E96
330
4E93
100
AcDbEntity
  8
0
100
AcDbVertex
100
AcDbPolygonMeshVertex
 10
-1046.729808809967
 20
940.9481123610243
 30
-352.4808268814058
 70
    64
  0
VERTEX
  5
4E97
330
4E93
100
AcDbEntity
  8
0
100
AcDbVertex
100
AcDbPolygonMeshVertex
 10
-1049.269808809967
 20
940.9481123610243
 30
-276.2808268814059
 70
    64
  0
VERTEX
  5
4E98
330
4E93
100
AcDbEntity
  8
0
100
AcDbVertex
100
AcDbPolygonMeshVertex
 10
-1049.269808809967
 20
940.9481123610243
 30
-352.4808268814058
 70
    64
  0
VERTEX
  5
4E99
330
4E93
100
AcDbEntity
  8
0
100
AcDbVertex
100
AcDbPolygonMeshVertex
 10
-1049.269808809967
 20
940.9481123610243
 30
-352.4808268814058
 70
    64
  0
VERTEX
  5
4E9A
330
4E93
100
AcDbEntity
  8
0
100
AcDbVertex
100
AcDbPolygonMeshVertex
 10
-1049.269808809967
 20
935.8681123610242
 30
-276.2808268814059
 70
    64
  0
VERTEX
  5
4E9B
330
4E93
100
AcDbEntity
  8
0
100
AcDbVertex
100
AcDbPolygonMeshVertex
 10
-1049.269808809967
 20
935.8681123610242
 30
-352.4808268814058
 70
    64
  0
VERTEX
  5
4E9C
330
4E93
100
AcDbEntity
  8
0
100
AcDbVertex
100
AcDbPolygonMeshVertex
 10
-1049.269808809967
 20
940.9481123610243
 30
-352.4808268814058
 70
    64
  0
VERTEX
  5
4E9D
330
4E93
100
AcDbEntity
  8
0
100
AcDbVertex
100
AcDbPolygonMeshVertex
 10
-1046.729808809967
 20
935.8681123610242
 30
-276.2808268814059
 70
    64
  0
VERTEX
  5
4E9E
330
4E93
100
AcDbEntity
  8
0
100
AcDbVertex
100
AcDbPolygonMeshVertex
 10
-1046.729808809967
 20
935.8681123610242
 30
-352.4808268814058
 70
    64
  0
VERTEX
  5
4E9F
330
4E93
100
AcDbEntity
  8
0
100
AcDbVertex
100
AcDbPolygonMeshVertex
 10
-1046.729808809967
 20
940.9481123610243
 30
-352.4808268814058
 70
    64
  0
VERTEX
  5
4EA0
330
4E93
100
AcDbEntity
  8
0
100
AcDbVertex
100
AcDbPolygonMeshVertex
 10
-1046.729808809967
 20
935.8681123610242
 30
-276.2808268814059
 70
    64
  0
VERTEX
  5
4EA1
330
4E93
100
AcDbEntity
  8
0
100
AcDbVertex
100
AcDbPolygonMeshVertex
 10
-1046.729808809967
 20
935.8681123610242
 30
-276.2808268814059
 70
    64
  0
VERTEX
  5
4EA2
330
4E93
100
AcDbEntity
  8
0
100
AcDbVertex
100
AcDbPolygonMeshVertex
 10
-1046.729808809967
 20
940.9481123610243
 30
-276.2808268814059
 70
    64
  0
VERTEX
  5
4EA3
330
4E93
100
AcDbEntity
  8
0
100
AcDbVertex
100
AcDbPolygonMeshVertex
 10
-1049.269808809967
 20
935.8681123610242
 30
-276.2808268814059
 70
    64
  0
VERTEX
  5
4EA4
330
4E93
100
AcDbEntity
  8
0
100
AcDbVertex
100
AcDbPolygonMeshVertex
 10
-1049.269808809967
 20
935.8681123610242
 30
-276.2808268814059
 70
    64
  0
VERTEX
  5
4EA5
330
4E93
100
AcDbEntity
  8
0
100
AcDbVertex
100
AcDbPolygonMeshVertex
 10
-1049.269808809967
 20
940.9481123610243
 30
-276.2808268814059
 70
    64
  0
SEQEND
  5
4EA6
330
4E93
100
AcDbEntity
  8
0
  0
POLYLINE
  5
4EA7
330
1F
100
AcDbEntity
  8
0
100
AcDbPolygonMesh
 66
     1
 10
0.0
 20
0.0
 30
0.0
 70
    16
 71
     6
 72
     3
  0
VERTEX
  5
4EA8
330
4EA7
100
AcDbEntity
  8
0
100
AcDbVertex
100
AcDbPolygonMeshVertex
 10
-1041.903808809966
 20
940.9481123610243
 30
-276.2808268814059
 70
    64
  0
VERTEX
  5
4EA9
330
4EA7
100
AcDbEntity
  8
0
100
AcDbVertex
100
AcDbPolygonMeshVertex
 10
-1041.903808809966
 20
940.9481123610243
 30
-352.4808268814059
 70
    64
  0
VERTEX
  5
4EAA
330
4EA7
100
AcDbEntity
  8
0
100
AcDbVertex
100
AcDbPolygonMeshVertex
 10
-1041.903808809966
 20
940.9481123610243
 30
-352.4808268814059
 70
    64
  0
VERTEX
  5
4EAB
330
4EA7
100
AcDbEntity
  8
0
100
AcDbVertex
100
AcDbPolygonMeshVertex
 10
-1044.443808809967
 20
940.9481123610243
 30
-276.2808268814059
 70
    64
  0
VERTEX
  5
4EAC
330
4EA7
100
AcDbEntity
  8
0
100
AcDbVertex
100
AcDbPolygonMeshVertex
 10
-1044.443808809967
 20
940.9481123610243
 30
-352.4808268814059
 70
    64
  0
VERTEX
  5
4EAD
330
4EA7
100
AcDbEntity
  8
0
100
AcDbVertex
100
AcDbPolygonMeshVertex
 10
-1044.443808809967
 20
940.9481123610243
 30
-352.4808268814059
 70
    64
  0
VERTEX
  5
4EAE
330
4EA7
100
AcDbEntity
  8
0
100
AcDbVertex
100
AcDbPolygonMeshVertex
 10
-1044.443808809967
 20
935.8681123610242
 30
-276.2808268814059
 70
    64
  0
VERTEX
  5
4EAF
330
4EA7
100
AcDbEntity
  8
0
100
AcDbVertex
100
AcDbPolygonMeshVertex
 10
-1044.443808809967
 20
935.8681123610242
 30
-352.4808268814059
 70
    64
  0
VERTEX
  5
4EB0
330
4EA7
100
AcDbEntity
  8
0
100
AcDbVertex
100
AcDbPolygonMeshVertex
 10
-1044.443808809967
 20
940.9481123610243
 30
-352.4808268814059
 70
    64
  0
VERTEX
  5
4EB1
330
4EA7
100
AcDbEntity
  8
0
100
AcDbVertex
100
AcDbPolygonMeshVertex
 10
-1041.903808809966
 20
935.8681123610242
 30
-276.2808268814059
 70
    64
  0
VERTEX
  5
4EB2
330
4EA7
100
AcDbEntity
  8
0
100
AcDbVertex
100
AcDbPolygonMeshVertex
 10
-1041.903808809966
 20
935.8681123610242
 30
-352.4808268814059
 70
    64
  0
VERTEX
  5
4EB3
330
4EA7
100
AcDbEntity
  8
0
100
AcDbVertex
100
AcDbPolygonMeshVertex
 10
-1041.903808809966
 20
940.9481123610243
 30
-352.4808268814059
 70
    64
  0
VERTEX
  5
4EB4
330
4EA7
100
AcDbEntity
  8
0
100
AcDbVertex
100
AcDbPolygonMeshVertex
 10
-1041.903808809966
 20
935.8681123610242
 30
-276.2808268814059
 70
    64
  0
VERTEX
  5
4EB5
330
4EA7
100
AcDbEntity
  8
0
100
AcDbVertex
100
AcDbPolygonMeshVertex
 10
-1041.903808809966
 20
935.8681123610242
 30
-276.2808268814059
 70
    64
  0
VERTEX
  5
4EB6
330
4EA7
100
AcDbEntity
  8
0
100
AcDbVertex
100
AcDbPolygonMeshVertex
 10
-1041.903808809966
 20
940.9481123610243
 30
-276.2808268814059
 70
    64
  0
VERTEX
  5
4EB7
330
4EA7
100
AcDbEntity
  8
0
100
AcDbVertex
100
AcDbPolygonMeshVertex
 10
-1044.443808809967
 20
935.8681123610242
 30
-276.2808268814059
 70
    64
  0
VERTEX
  5
4EB8
330
4EA7
100
AcDbEntity
  8
0
100
AcDbVertex
100
AcDbPolygonMeshVertex
 10
-1044.443808809967
 20
935.8681123610242
 30
-276.2808268814059
 70
    64
  0
VERTEX
  5
4EB9
330
4EA7
100
AcDbEntity
  8
0
100
AcDbVertex
100
AcDbPolygonMeshVertex
 10
-1044.443808809967
 20
940.9481123610243
 30
-276.2808268814059
 70
    64
  0
SEQEND
  5
4EBA
330
4EA7
100
AcDbEntity
  8
0
  0
POLYLINE
  5
4EBB
330
1F
100
AcDbEntity
  8
0
100
AcDbPolygonMesh
 66
     1
 10
0.0
 20
0.0
 30
0.0
 70
    16
 71
     6
 72
     3
  0
VERTEX
  5
4EBC
330
4EBB
100
AcDbEntity
  8
0
100
AcDbVertex
100
AcDbPolygonMeshVertex
 10
-1044.443808809967
 20
940.9481123610243
 30
-276.2808268814059
 70
    64
  0
VERTEX
  5
4EBD
330
4EBB
100
AcDbEntity
  8
0
100
AcDbVertex
100
AcDbPolygonMeshVertex
 10
-1044.443808809967
 20
940.9481123610243
 30
-352.4808268814059
 70
    64
  0
VERTEX
  5
4EBE
330
4EBB
100
AcDbEntity
  8
0
100
AcDbVertex
100
AcDbPolygonMeshVertex
 10
-1044.443808809967
 20
940.9481123610243
 30
-352.4808268814059
 70
    64
  0
VERTEX
  5
4EBF
330
4EBB
100
AcDbEntity
  8
0
100
AcDbVertex
100
AcDbPolygonMeshVertex
 10
-1046.729808809967
 20
940.9481123610243
 30
-276.2808268814059
 70
    64
  0
VERTEX
  5
4EC0
330
4EBB
100
AcDbEntity
  8
0
100
AcDbVertex
100
AcDbPolygonMeshVertex
 10
-1046.729808809967
 20
940.9481123610243
 30
-352.4808268814059
 70
    64
  0
VERTEX
  5
4EC1
330
4EBB
100
AcDbEntity
  8
0
100
AcDbVertex
100
AcDbPolygonMeshVertex
 10
-1046.729808809967
 20
940.9481123610243
 30
-352.4808268814059
 70
    64
  0
VERTEX
  5
4EC2
330
4EBB
100
AcDbEntity
  8
0
100
AcDbVertex
100
AcDbPolygonMeshVertex
 10
-1046.729808809967
 20
939.0431123610243
 30
-276.2808268814059
 70
    64
  0
VERTEX
  5
4EC3
330
4EBB
100
AcDbEntity
  8
0
100
AcDbVertex
100
AcDbPolygonMeshVertex
 10
-1046.729808809967
 20
939.0431123610243
 30
-352.4808268814059
 70
    64
  0
VERTEX
  5
4EC4
330
4EBB
100
AcDbEntity
  8
0
100
AcDbVertex
100
AcDbPolygonMeshVertex
 10
-1046.729808809967
 20
940.9481123610243
 30
-352.4808268814059
 70
    64
  0
VERTEX
  5
4EC5
330
4EBB
100
AcDbEntity
  8
0
100
AcDbVertex
100
AcDbPolygonMeshVertex
 10
-1044.443808809967
 20
939.0431123610243
 30
-276.2808268814059
 70
    64
  0
VERTEX
  5
4EC6
330
4EBB
100
AcDbEntity
  8
0
100
AcDbVertex
100
AcDbPolygonMeshVertex
 10
-1044.443808809967
 20
939.0431123610243
 30
-352.4808268814059
 70
    64
  0
VERTEX
  5
4EC7
330
4EBB
100
AcDbEntity
  8
0
100
AcDbVertex
100
AcDbPolygonMeshVertex
 10
-1044.443808809967
 20
940.9481123610243
 30
-352.4808268814059
 70
    64
  0
VERTEX
  5
4EC8
330
4EBB
100
AcDbEntity
  8
0
100
AcDbVertex
100
AcDbPolygonMeshVertex
 10
-1044.443808809967
 20
939.0431123610243
 30
-276.2808268814059
 70
    64
  0
VERTEX
  5
4EC9
330
4EBB
100
AcDbEntity
  8
0
100
AcDbVertex
100
AcDbPolygonMeshVertex
 10
-1044.443808809967
 20
939.0431123610243
 30
-276.2808268814059
 70
    64
  0
VERTEX
  5
4ECA
330
4EBB
100
AcDbEntity
  8
0
100
AcDbVertex
100
AcDbPolygonMeshVertex
 10
-1044.443808809967
 20
940.9481123610243
 30
-276.2808268814059
 70
    64
  0
VERTEX
  5
4ECB
330
4EBB
100
AcDbEntity
  8
0
100
AcDbVertex
100
AcDbPolygonMeshVertex
 10
-1046.729808809967
 20
939.0431123610243
 30
-276.2808268814059
 70
    64
  0
VERTEX
  5
4ECC
330
4EBB
100
AcDbEntity
  8
0
100
AcDbVertex
100
AcDbPolygonMeshVertex
 10
-1046.729808809967
 20
939.0431123610243
 30
-276.2808268814059
 70
    64
  0
VERTEX
  5
4ECD
330
4EBB
100
AcDbEntity
  8
0
100
AcDbVertex
100
AcDbPolygonMeshVertex
 10
-1046.729808809967
 20
940.9481123610243
 30
-276.2808268814059
 70
    64
  0
SEQEND
  5
4ECE
330
4EBB
100
AcDbEntity
  8
0
  0
POLYLINE
  5
4ECF
330
1F
100
AcDbEntity
  8
0
100
AcDbPolygonMesh
 66
     1
 10
0.0
 20
0.0
 30
0.0
 70
    16
 71
     6
 72
     3
  0
VERTEX
  5
4ED0
330
4ECF
100
AcDbEntity
  8
0
100
AcDbVertex
100
AcDbPolygonMeshVertex
 10
-1011.804808809966
 20
940.9481123610243
 30
-276.2808268814059
 70
    64
  0
VERTEX
  5
4ED1
330
4ECF
100
AcDbEntity
  8
0
100
AcDbVertex
100
AcDbPolygonMeshVertex
 10
-1011.804808809966
 20
940.9481123610243
 30
-352.4808268814058
 70
    64
  0
VERTEX
  5
4ED2
330
4ECF
100
AcDbEntity
  8
0
100
AcDbVertex
100
AcDbPolygonMeshVertex
 10
-1011.804808809966
 20
940.9481123610243
 30
-352.4808268814058
 70
    64
  0
VERTEX
  5
4ED3
330
4ECF
100
AcDbEntity
  8
0
100
AcDbVertex
100
AcDbPolygonMeshVertex
 10
-1014.344808809966
 20
940.9481123610243
 30
-276.2808268814059
 70
    64
  0
VERTEX
  5
4ED4
330
4ECF
100
AcDbEntity
  8
0
100
AcDbVertex
100
AcDbPolygonMeshVertex
 10
-1014.344808809966
 20
940.9481123610243
 30
-352.4808268814058
 70
    64
  0
VERTEX
  5
4ED5
330
4ECF
100
AcDbEntity
  8
0
100
AcDbVertex
100
AcDbPolygonMeshVertex
 10
-1014.344808809966
 20
940.9481123610243
 30
-352.4808268814058
 70
    64
  0
VERTEX
  5
4ED6
330
4ECF
100
AcDbEntity
  8
0
100
AcDbVertex
100
AcDbPolygonMeshVertex
 10
-1014.344808809966
 20
935.8681123610242
 30
-276.2808268814059
 70
    64
  0
VERTEX
  5
4ED7
330
4ECF
100
AcDbEntity
  8
0
100
AcDbVertex
100
AcDbPolygonMeshVertex
 10
-1014.344808809966
 20
935.8681123610242
 30
-352.4808268814058
 70
    64
  0
VERTEX
  5
4ED8
330
4ECF
100
AcDbEntity
  8
0
100
AcDbVertex
100
AcDbPolygonMeshVertex
 10
-1014.344808809966
 20
940.9481123610243
 30
-352.4808268814058
 70
    64
  0
VERTEX
  5
4ED9
330
4ECF
100
AcDbEntity
  8
0
100
AcDbVertex
100
AcDbPolygonMeshVertex
 10
-1011.804808809966
 20
935.8681123610242
 30
-276.2808268814059
 70
    64
  0
VERTEX
  5
4EDA
330
4ECF
100
AcDbEntity
  8
0
100
AcDbVertex
100
AcDbPolygonMeshVertex
 10
-1011.804808809966
 20
935.8681123610242
 30
-352.4808268814058
 70
    64
  0
VERTEX
  5
4EDB
330
4ECF
100
AcDbEntity
  8
0
100
AcDbVertex
100
AcDbPolygonMeshVertex
 10
-1011.804808809966
 20
940.9481123610243
 30
-352.4808268814058
 70
    64
  0
VERTEX
  5
4EDC
330
4ECF
100
AcDbEntity
  8
0
100
AcDbVertex
100
AcDbPolygonMeshVertex
 10
-1011.804808809966
 20
935.8681123610242
 30
-276.2808268814059
 70
    64
  0
VERTEX
  5
4EDD
330
4ECF
100
AcDbEntity
  8
0
100
AcDbVertex
100
AcDbPolygonMeshVertex
 10
-1011.804808809966
 20
935.8681123610242
 30
-276.2808268814059
 70
    64
  0
VERTEX
  5
4EDE
330
4ECF
100
AcDbEntity
  8
0
100
AcDbVertex
100
AcDbPolygonMeshVertex
 10
-1011.804808809966
 20
940.9481123610243
 30
-276.2808268814059
 70
    64
  0
VERTEX
  5
4EDF
330
4ECF
100
AcDbEntity
  8
0
100
AcDbVertex
100
AcDbPolygonMeshVertex
 10
-1014.344808809966
 20
935.8681123610242
 30
-276.2808268814059
 70
    64
  0
VERTEX
  5
4EE0
330
4ECF
100
AcDbEntity
  8
0
100
AcDbVertex
100
AcDbPolygonMeshVertex
 10
-1014.344808809966
 20
935.8681123610242
 30
-276.2808268814059
 70
    64
  0
VERTEX
  5
4EE1
330
4ECF
100
AcDbEntity
  8
0
100
AcDbVertex
100
AcDbPolygonMeshVertex
 10
-1014.344808809966
 20
940.9481123610243
 30
-276.2808268814059
 70
    64
  0
SEQEND
  5
4EE2
330
4ECF
100
AcDbEntity
  8
0
  0
POLYLINE
  5
4EE3
330
1F
100
AcDbEntity
  8
0
100
AcDbPolygonMesh
 66
     1
 10
0.0
 20
0.0
 30
0.0
 70
    16
 71
     6
 72
     3
  0
VERTEX
  5
4EE4
330
4EE3
100
AcDbEntity
  8
0
100
AcDbVertex
100
AcDbPolygonMeshVertex
 10
-1006.978808809966
 20
940.9481123610243
 30
-276.2808268814059
 70
    64
  0
VERTEX
  5
4EE5
330
4EE3
100
AcDbEntity
  8
0
100
AcDbVertex
100
AcDbPolygonMeshVertex
 10
-1006.978808809966
 20
940.9481123610243
 30
-352.4808268814059
 70
    64
  0
VERTEX
  5
4EE6
330
4EE3
100
AcDbEntity
  8
0
100
AcDbVertex
100
AcDbPolygonMeshVertex
 10
-1006.978808809966
 20
940.9481123610243
 30
-352.4808268814059
 70
    64
  0
VERTEX
  5
4EE7
330
4EE3
100
AcDbEntity
  8
0
100
AcDbVertex
100
AcDbPolygonMeshVertex
 10
-1009.518808809967
 20
940.9481123610243
 30
-276.2808268814059
 70
    64
  0
VERTEX
  5
4EE8
330
4EE3
100
AcDbEntity
  8
0
100
AcDbVertex
100
AcDbPolygonMeshVertex
 10
-1009.518808809967
 20
940.9481123610243
 30
-352.4808268814059
 70
    64
  0
VERTEX
  5
4EE9
330
4EE3
100
AcDbEntity
  8
0
100
AcDbVertex
100
AcDbPolygonMeshVertex
 10
-1009.518808809967
 20
940.9481123610243
 30
-352.4808268814059
 70
    64
  0
VERTEX
  5
4EEA
330
4EE3
100
AcDbEntity
  8
0
100
AcDbVertex
100
AcDbPolygonMeshVertex
 10
-1009.518808809967
 20
935.8681123610242
 30
-276.2808268814059
 70
    64
  0
VERTEX
  5
4EEB
330
4EE3
100
AcDbEntity
  8
0
100
AcDbVertex
100
AcDbPolygonMeshVertex
 10
-1009.518808809967
 20
935.8681123610242
 30
-352.4808268814059
 70
    64
  0
VERTEX
  5
4EEC
330
4EE3
100
AcDbEntity
  8
0
100
AcDbVertex
100
AcDbPolygonMeshVertex
 10
-1009.518808809967
 20
940.9481123610243
 30
-352.4808268814059
 70
    64
  0
VERTEX
  5
4EED
330
4EE3
100
AcDbEntity
  8
0
100
AcDbVertex
100
AcDbPolygonMeshVertex
 10
-1006.978808809966
 20
935.8681123610242
 30
-276.2808268814059
 70
    64
  0
VERTEX
  5
4EEE
330
4EE3
100
AcDbEntity
  8
0
100
AcDbVertex
100
AcDbPolygonMeshVertex
 10
-1006.978808809966
 20
935.8681123610242
 30
-352.4808268814059
 70
    64
  0
VERTEX
  5
4EEF
330
4EE3
100
AcDbEntity
  8
0
100
AcDbVertex
100
AcDbPolygonMeshVertex
 10
-1006.978808809966
 20
940.9481123610243
 30
-352.4808268814059
 70
    64
  0
VERTEX
  5
4EF0
330
4EE3
100
AcDbEntity
  8
0
100
AcDbVertex
100
AcDbPolygonMeshVertex
 10
-1006.978808809966
 20
935.8681123610242
 30
-276.2808268814059
 70
    64
  0
VERTEX
  5
4EF1
330
4EE3
100
AcDbEntity
  8
0
100
AcDbVertex
100
AcDbPolygonMeshVertex
 10
-1006.978808809966
 20
935.8681123610242
 30
-276.2808268814059
 70
    64
  0
VERTEX
  5
4EF2
330
4EE3
100
AcDbEntity
  8
0
100
AcDbVertex
100
AcDbPolygonMeshVertex
 10
-1006.978808809966
 20
940.9481123610243
 30
-276.2808268814059
 70
    64
  0
VERTEX
  5
4EF3
330
4EE3
100
AcDbEntity
  8
0
100
AcDbVertex
100
AcDbPolygonMeshVertex
 10
-1009.518808809967
 20
935.8681123610242
 30
-276.2808268814059
 70
    64
  0
VERTEX
  5
4EF4
330
4EE3
100
AcDbEntity
  8
0
100
AcDbVertex
100
AcDbPolygonMeshVertex
 10
-1009.518808809967
 20
935.8681123610242
 30
-276.2808268814059
 70
    64
  0
VERTEX
  5
4EF5
330
4EE3
100
AcDbEntity
  8
0
100
AcDbVertex
100
AcDbPolygonMeshVertex
 10
-1009.518808809967
 20
940.9481123610243
 30
-276.2808268814059
 70
    64
  0
SEQEND
  5
4EF6
330
4EE3
100
AcDbEntity
  8
0
  0
POLYLINE
  5
4EF7
330
1F
100
AcDbEntity
  8
0
100
AcDbPolygonMesh
 66
     1
 10
0.0
 20
0.0
 30
0.0
 70
    16
 71
     6
 72
     3
  0
VERTEX
  5
4EF8
330
4EF7
100
AcDbEntity
  8
0
100
AcDbVertex
100
AcDbPolygonMeshVertex
 10
-1009.518808809967
 20
940.9481123610243
 30
-276.2808268814059
 70
    64
  0
VERTEX
  5
4EF9
330
4EF7
100
AcDbEntity
  8
0
100
AcDbVertex
100
AcDbPolygonMeshVertex
 10
-1009.518808809967
 20
940.9481123610243
 30
-352.4808268814059
 70
    64
  0
VERTEX
  5
4EFA
330
4EF7
100
AcDbEntity
  8
0
100
AcDbVertex
100
AcDbPolygonMeshVertex
 10
-1009.518808809967
 20
940.9481123610243
 30
-352.4808268814059
 70
    64
  0
VERTEX
  5
4EFB
330
4EF7
100
AcDbEntity
  8
0
100
AcDbVertex
100
AcDbPolygonMeshVertex
 10
-1011.804808809966
 20
940.9481123610243
 30
-276.2808268814059
 70
    64
  0
VERTEX
  5
4EFC
330
4EF7
100
AcDbEntity
  8
0
100
AcDbVertex
100
AcDbPolygonMeshVertex
 10
-1011.804808809966
 20
940.9481123610243
 30
-352.4808268814059
 70
    64
  0
VERTEX
  5
4EFD
330
4EF7
100
AcDbEntity
  8
0
100
AcDbVertex
100
AcDbPolygonMeshVertex
 10
-1011.804808809966
 20
940.9481123610243
 30
-352.4808268814059
 70
    64
  0
VERTEX
  5
4EFE
330
4EF7
100
AcDbEntity
  8
0
100
AcDbVertex
100
AcDbPolygonMeshVertex
 10
-1011.804808809966
 20
939.0431123610243
 30
-276.2808268814059
 70
    64
  0
VERTEX
  5
4EFF
330
4EF7
100
AcDbEntity
  8
0
100
AcDbVertex
100
AcDbPolygonMeshVertex
 10
-1011.804808809966
 20
939.0431123610243
 30
-352.4808268814059
 70
    64
  0
VERTEX
  5
4F00
330
4EF7
100
AcDbEntity
  8
0
100
AcDbVertex
100
AcDbPolygonMeshVertex
 10
-1011.804808809966
 20
940.9481123610243
 30
-352.4808268814059
 70
    64
  0
VERTEX
  5
4F01
330
4EF7
100
AcDbEntity
  8
0
100
AcDbVertex
100
AcDbPolygonMeshVertex
 10
-1009.518808809967
 20
939.0431123610243
 30
-276.2808268814059
 70
    64
  0
VERTEX
  5
4F02
330
4EF7
100
AcDbEntity
  8
0
100
AcDbVertex
100
AcDbPolygonMeshVertex
 10
-1009.518808809967
 20
939.0431123610243
 30
-352.4808268814059
 70
    64
  0
VERTEX
  5
4F03
330
4EF7
100
AcDbEntity
  8
0
100
AcDbVertex
100
AcDbPolygonMeshVertex
 10
-1009.518808809967
 20
940.9481123610243
 30
-352.4808268814059
 70
    64
  0
VERTEX
  5
4F04
330
4EF7
100
AcDbEntity
  8
0
100
AcDbVertex
100
AcDbPolygonMeshVertex
 10
-1009.518808809967
 20
939.0431123610243
 30
-276.2808268814059
 70
    64
  0
VERTEX
  5
4F05
330
4EF7
100
AcDbEntity
  8
0
100
AcDbVertex
100
AcDbPolygonMeshVertex
 10
-1009.518808809967
 20
939.0431123610243
 30
-276.2808268814059
 70
    64
  0
VERTEX
  5
4F06
330
4EF7
100
AcDbEntity
  8
0
100
AcDbVertex
100
AcDbPolygonMeshVertex
 10
-1009.518808809967
 20
940.9481123610243
 30
-276.2808268814059
 70
    64
  0
VERTEX
  5
4F07
330
4EF7
100
AcDbEntity
  8
0
100
AcDbVertex
100
AcDbPolygonMeshVertex
 10
-1011.804808809966
 20
939.0431123610243
 30
-276.2808268814059
 70
    64
  0
VERTEX
  5
4F08
330
4EF7
100
AcDbEntity
  8
0
100
AcDbVertex
100
AcDbPolygonMeshVertex
 10
-1011.804808809966
 20
939.0431123610243
 30
-276.2808268814059
 70
    64
  0
VERTEX
  5
4F09
330
4EF7
100
AcDbEntity
  8
0
100
AcDbVertex
100
AcDbPolygonMeshVertex
 10
-1011.804808809966
 20
940.9481123610243
 30
-276.2808268814059
 70
    64
  0
SEQEND
  5
4F0A
330
4EF7
100
AcDbEntity
  8
0
  0
POLYLINE
  5
4F0B
330
1F
100
AcDbEntity
  8
0
100
AcDbPolygonMesh
 66
     1
 10
0.0
 20
0.0
 30
0.0
 70
    16
 71
     6
 72
     3
  0
VERTEX
  5
4F0C
330
4F0B
100
AcDbEntity
  8
0
100
AcDbVertex
100
AcDbPolygonMeshVertex
 10
-1076.012196937046
 20
803.8395430818368
 30
-255.9616301186246
 70
    64
  0
VERTEX
  5
4F0D
330
4F0B
100
AcDbEntity
  8
0
100
AcDbVertex
100
AcDbPolygonMeshVertex
 10
-1076.012196937046
 20
803.8395430818368
 30
-352.4808268814064
 70
    64
  0
VERTEX
  5
4F0E
330
4F0B
100
AcDbEntity
  8
0
100
AcDbVertex
100
AcDbPolygonMeshVertex
 10
-1076.012196937046
 20
803.8395430818368
 30
-352.4808268814064
 70
    64
  0
VERTEX
  5
4F0F
330
4F0B
100
AcDbEntity
  8
0
100
AcDbVertex
100
AcDbPolygonMeshVertex
 10
-1086.172196937046
 20
803.8395430818368
 30
-255.9616301186246
 70
    64
  0
VERTEX
  5
4F10
330
4F0B
100
AcDbEntity
  8
0
100
AcDbVertex
100
AcDbPolygonMeshVertex
 10
-1086.172196937046
 20
803.8395430818368
 30
-352.4808268814064
 70
    64
  0
VERTEX
  5
4F11
330
4F0B
100
AcDbEntity
  8
0
100
AcDbVertex
100
AcDbPolygonMeshVertex
 10
-1086.172196937046
 20
803.8395430818368
 30
-352.4808268814064
 70
    64
  0
VERTEX
  5
4F12
330
4F0B
100
AcDbEntity
  8
0
100
AcDbVertex
100
AcDbPolygonMeshVertex
 10
-1086.172196937046
 20
941.761543081837
 30
-255.9616301186246
 70
    64
  0
VERTEX
  5
4F13
330
4F0B
100
AcDbEntity
  8
0
100
AcDbVertex
100
AcDbPolygonMeshVertex
 10
-1086.172196937046
 20
941.761543081837
 30
-352.4808268814064
 70
    64
  0
VERTEX
  5
4F14
330
4F0B
100
AcDbEntity
  8
0
100
AcDbVertex
100
AcDbPolygonMeshVertex
 10
-1086.172196937046
 20
803.8395430818368
 30
-352.4808268814064
 70
    64
  0
VERTEX
  5
4F15
330
4F0B
100
AcDbEntity
  8
0
100
AcDbVertex
100
AcDbPolygonMeshVertex
 10
-1076.012196937046
 20
941.761543081837
 30
-255.9616301186246
 70
    64
  0
VERTEX
  5
4F16
330
4F0B
100
AcDbEntity
  8
0
100
AcDbVertex
100
AcDbPolygonMeshVertex
 10
-1076.012196937046
 20
941.761543081837
 30
-352.4808268814064
 70
    64
  0
VERTEX
  5
4F17
330
4F0B
100
AcDbEntity
  8
0
100
AcDbVertex
100
AcDbPolygonMeshVertex
 10
-1076.012196937046
 20
803.8395430818368
 30
-352.4808268814064
 70
    64
  0
VERTEX
  5
4F18
330
4F0B
100
AcDbEntity
  8
0
100
AcDbVertex
100
AcDbPolygonMeshVertex
 10
-1076.012196937046
 20
941.761543081837
 30
-255.9616301186246
 70
    64
  0
VERTEX
  5
4F19
330
4F0B
100
AcDbEntity
  8
0
100
AcDbVertex
100
AcDbPolygonMeshVertex
 10
-1076.012196937046
 20
941.761543081837
 30
-255.9616301186246
 70
    64
  0
VERTEX
  5
4F1A
330
4F0B
100
AcDbEntity
  8
0
100
AcDbVertex
100
AcDbPolygonMeshVertex
 10
-1076.012196937046
 20
803.8395430818368
 30
-255.9616301186246
 70
    64
  0
VERTEX
  5
4F1B
330
4F0B
100
AcDbEntity
  8
0
100
AcDbVertex
100
AcDbPolygonMeshVertex
 10
-1086.172196937046
 20
941.761543081837
 30
-255.9616301186246
 70
    64
  0
VERTEX
  5
4F1C
330
4F0B
100
AcDbEntity
  8
0
100
AcDbVertex
100
AcDbPolygonMeshVertex
 10
-1086.172196937046
 20
941.761543081837
 30
-255.9616301186246
 70
    64
  0
VERTEX
  5
4F1D
330
4F0B
100
AcDbEntity
  8
0
100
AcDbVertex
100
AcDbPolygonMeshVertex
 10
-1086.172196937046
 20
803.8395430818368
 30
-255.9616301186246
 70
    64
  0
SEQEND
  5
4F1E
330
4F0B
100
AcDbEntity
  8
0
  0
POLYLINE
  5
4F1F
330
1F
100
AcDbEntity
  8
0
100
AcDbPolygonMesh
 66
     1
 10
0.0
 20
0.0
 30
0.0
 70
    16
 71
     6
 72
     3
  0
VERTEX
  5
4F20
330
4F1F
100
AcDbEntity
  8
0
100
AcDbVertex
100
AcDbPolygonMeshVertex
 10
-1089.465654954729
 20
804.6529738026492
 30
-276.2808268814059
 70
    64
  0
VERTEX
  5
4F21
330
4F1F
100
AcDbEntity
  8
0
100
AcDbVertex
100
AcDbPolygonMeshVertex
 10
-1089.465654954729
 20
804.6529738026492
 30
-352.4808268814059
 70
    64
  0
VERTEX
  5
4F22
330
4F1F
100
AcDbEntity
  8
0
100
AcDbVertex
100
AcDbPolygonMeshVertex
 10
-1089.465654954729
 20
804.6529738026492
 30
-352.4808268814059
 70
    64
  0
VERTEX
  5
4F23
330
4F1F
100
AcDbEntity
  8
0
100
AcDbVertex
100
AcDbPolygonMeshVertex
 10
-1091.751654954729
 20
804.6529738026492
 30
-276.2808268814059
 70
    64
  0
VERTEX
  5
4F24
330
4F1F
100
AcDbEntity
  8
0
100
AcDbVertex
100
AcDbPolygonMeshVertex
 10
-1091.751654954729
 20
804.6529738026492
 30
-352.4808268814059
 70
    64
  0
VERTEX
  5
4F25
330
4F1F
100
AcDbEntity
  8
0
100
AcDbVertex
100
AcDbPolygonMeshVertex
 10
-1091.751654954729
 20
804.6529738026492
 30
-352.4808268814059
 70
    64
  0
VERTEX
  5
4F26
330
4F1F
100
AcDbEntity
  8
0
100
AcDbVertex
100
AcDbPolygonMeshVertex
 10
-1091.751654954729
 20
806.5579738026494
 30
-276.2808268814059
 70
    64
  0
VERTEX
  5
4F27
330
4F1F
100
AcDbEntity
  8
0
100
AcDbVertex
100
AcDbPolygonMeshVertex
 10
-1091.751654954729
 20
806.5579738026494
 30
-352.4808268814059
 70
    64
  0
VERTEX
  5
4F28
330
4F1F
100
AcDbEntity
  8
0
100
AcDbVertex
100
AcDbPolygonMeshVertex
 10
-1091.751654954729
 20
804.6529738026492
 30
-352.4808268814059
 70
    64
  0
VERTEX
  5
4F29
330
4F1F
100
AcDbEntity
  8
0
100
AcDbVertex
100
AcDbPolygonMeshVertex
 10
-1089.465654954729
 20
806.5579738026494
 30
-276.2808268814059
 70
    64
  0
VERTEX
  5
4F2A
330
4F1F
100
AcDbEntity
  8
0
100
AcDbVertex
100
AcDbPolygonMeshVertex
 10
-1089.465654954729
 20
806.5579738026494
 30
-352.4808268814059
 70
    64
  0
VERTEX
  5
4F2B
330
4F1F
100
AcDbEntity
  8
0
100
AcDbVertex
100
AcDbPolygonMeshVertex
 10
-1089.465654954729
 20
804.6529738026492
 30
-352.4808268814059
 70
    64
  0
VERTEX
  5
4F2C
330
4F1F
100
AcDbEntity
  8
0
100
AcDbVertex
100
AcDbPolygonMeshVertex
 10
-1089.465654954729
 20
806.5579738026494
 30
-276.2808268814059
 70
    64
  0
VERTEX
  5
4F2D
330
4F1F
100
AcDbEntity
  8
0
100
AcDbVertex
100
AcDbPolygonMeshVertex
 10
-1089.465654954729
 20
806.5579738026494
 30
-276.2808268814059
 70
    64
  0
VERTEX
  5
4F2E
330
4F1F
100
AcDbEntity
  8
0
100
AcDbVertex
100
AcDbPolygonMeshVertex
 10
-1089.465654954729
 20
804.6529738026492
 30
-276.2808268814059
 70
    64
  0
VERTEX
  5
4F2F
330
4F1F
100
AcDbEntity
  8
0
100
AcDbVertex
100
AcDbPolygonMeshVertex
 10
-1091.751654954729
 20
806.5579738026494
 30
-276.2808268814059
 70
    64
  0
VERTEX
  5
4F30
330
4F1F
100
AcDbEntity
  8
0
100
AcDbVertex
100
AcDbPolygonMeshVertex
 10
-1091.751654954729
 20
806.5579738026494
 30
-276.2808268814059
 70
    64
  0
VERTEX
  5
4F31
330
4F1F
100
AcDbEntity
  8
0
100
AcDbVertex
100
AcDbPolygonMeshVertex
 10
-1091.751654954729
 20
804.6529738026492
 30
-276.2808268814059
 70
    64
  0
SEQEND
  5
4F32
330
4F1F
100
AcDbEntity
  8
0
  0
POLYLINE
  5
4F33
330
1F
100
AcDbEntity
  8
0
100
AcDbPolygonMesh
 66
     1
 10
0.0
 20
0.0
 30
0.0
 70
    16
 71
     6
 72
     3
  0
VERTEX
  5
4F34
330
4F33
100
AcDbEntity
  8
0
100
AcDbVertex
100
AcDbPolygonMeshVertex
 10
-1086.925654954729
 20
804.6529738026492
 30
-276.2808268814059
 70
    64
  0
VERTEX
  5
4F35
330
4F33
100
AcDbEntity
  8
0
100
AcDbVertex
100
AcDbPolygonMeshVertex
 10
-1086.925654954729
 20
804.6529738026492
 30
-352.4808268814059
 70
    64
  0
VERTEX
  5
4F36
330
4F33
100
AcDbEntity
  8
0
100
AcDbVertex
100
AcDbPolygonMeshVertex
 10
-1086.925654954729
 20
804.6529738026492
 30
-352.4808268814059
 70
    64
  0
VERTEX
  5
4F37
330
4F33
100
AcDbEntity
  8
0
100
AcDbVertex
100
AcDbPolygonMeshVertex
 10
-1089.465654954729
 20
804.6529738026492
 30
-276.2808268814059
 70
    64
  0
VERTEX
  5
4F38
330
4F33
100
AcDbEntity
  8
0
100
AcDbVertex
100
AcDbPolygonMeshVertex
 10
-1089.465654954729
 20
804.6529738026492
 30
-352.4808268814059
 70
    64
  0
VERTEX
  5
4F39
330
4F33
100
AcDbEntity
  8
0
100
AcDbVertex
100
AcDbPolygonMeshVertex
 10
-1089.465654954729
 20
804.6529738026492
 30
-352.4808268814059
 70
    64
  0
VERTEX
  5
4F3A
330
4F33
100
AcDbEntity
  8
0
100
AcDbVertex
100
AcDbPolygonMeshVertex
 10
-1089.465654954729
 20
809.7329738026493
 30
-276.2808268814059
 70
    64
  0
VERTEX
  5
4F3B
330
4F33
100
AcDbEntity
  8
0
100
AcDbVertex
100
AcDbPolygonMeshVertex
 10
-1089.465654954729
 20
809.7329738026493
 30
-352.4808268814059
 70
    64
  0
VERTEX
  5
4F3C
330
4F33
100
AcDbEntity
  8
0
100
AcDbVertex
100
AcDbPolygonMeshVertex
 10
-1089.465654954729
 20
804.6529738026492
 30
-352.4808268814059
 70
    64
  0
VERTEX
  5
4F3D
330
4F33
100
AcDbEntity
  8
0
100
AcDbVertex
100
AcDbPolygonMeshVertex
 10
-1086.925654954729
 20
809.7329738026493
 30
-276.2808268814059
 70
    64
  0
VERTEX
  5
4F3E
330
4F33
100
AcDbEntity
  8
0
100
AcDbVertex
100
AcDbPolygonMeshVertex
 10
-1086.925654954729
 20
809.7329738026493
 30
-352.4808268814059
 70
    64
  0
VERTEX
  5
4F3F
330
4F33
100
AcDbEntity
  8
0
100
AcDbVertex
100
AcDbPolygonMeshVertex
 10
-1086.925654954729
 20
804.6529738026492
 30
-352.4808268814059
 70
    64
  0
VERTEX
  5
4F40
330
4F33
100
AcDbEntity
  8
0
100
AcDbVertex
100
AcDbPolygonMeshVertex
 10
-1086.925654954729
 20
809.7329738026493
 30
-276.2808268814059
 70
    64
  0
VERTEX
  5
4F41
330
4F33
100
AcDbEntity
  8
0
100
AcDbVertex
100
AcDbPolygonMeshVertex
 10
-1086.925654954729
 20
809.7329738026493
 30
-276.2808268814059
 70
    64
  0
VERTEX
  5
4F42
330
4F33
100
AcDbEntity
  8
0
100
AcDbVertex
100
AcDbPolygonMeshVertex
 10
-1086.925654954729
 20
804.6529738026492
 30
-276.2808268814059
 70
    64
  0
VERTEX
  5
4F43
330
4F33
100
AcDbEntity
  8
0
100
AcDbVertex
100
AcDbPolygonMeshVertex
 10
-1089.465654954729
 20
809.7329738026493
 30
-276.2808268814059
 70
    64
  0
VERTEX
  5
4F44
330
4F33
100
AcDbEntity
  8
0
100
AcDbVertex
100
AcDbPolygonMeshVertex
 10
-1089.465654954729
 20
809.7329738026493
 30
-276.2808268814059
 70
    64
  0
VERTEX
  5
4F45
330
4F33
100
AcDbEntity
  8
0
100
AcDbVertex
100
AcDbPolygonMeshVertex
 10
-1089.465654954729
 20
804.6529738026492
 30
-276.2808268814059
 70
    64
  0
SEQEND
  5
4F46
330
4F33
100
AcDbEntity
  8
0
  0
POLYLINE
  5
4F47
330
1F
100
AcDbEntity
  8
0
100
AcDbPolygonMesh
 66
     1
 10
0.0
 20
0.0
 30
0.0
 70
    16
 71
     6
 72
     3
  0
VERTEX
  5
4F48
330
4F47
100
AcDbEntity
  8
0
100
AcDbVertex
100
AcDbPolygonMeshVertex
 10
-1091.751654954729
 20
804.6529738026492
 30
-276.2808268814059
 70
    64
  0
VERTEX
  5
4F49
330
4F47
100
AcDbEntity
  8
0
100
AcDbVertex
100
AcDbPolygonMeshVertex
 10
-1091.751654954729
 20
804.6529738026492
 30
-352.4808268814059
 70
    64
  0
VERTEX
  5
4F4A
330
4F47
100
AcDbEntity
  8
0
100
AcDbVertex
100
AcDbPolygonMeshVertex
 10
-1091.751654954729
 20
804.6529738026492
 30
-352.4808268814059
 70
    64
  0
VERTEX
  5
4F4B
330
4F47
100
AcDbEntity
  8
0
100
AcDbVertex
100
AcDbPolygonMeshVertex
 10
-1094.291654954729
 20
804.6529738026492
 30
-276.2808268814059
 70
    64
  0
VERTEX
  5
4F4C
330
4F47
100
AcDbEntity
  8
0
100
AcDbVertex
100
AcDbPolygonMeshVertex
 10
-1094.291654954729
 20
804.6529738026492
 30
-352.4808268814059
 70
    64
  0
VERTEX
  5
4F4D
330
4F47
100
AcDbEntity
  8
0
100
AcDbVertex
100
AcDbPolygonMeshVertex
 10
-1094.291654954729
 20
804.6529738026492
 30
-352.4808268814059
 70
    64
  0
VERTEX
  5
4F4E
330
4F47
100
AcDbEntity
  8
0
100
AcDbVertex
100
AcDbPolygonMeshVertex
 10
-1094.291654954729
 20
809.7329738026493
 30
-276.2808268814059
 70
    64
  0
VERTEX
  5
4F4F
330
4F47
100
AcDbEntity
  8
0
100
AcDbVertex
100
AcDbPolygonMeshVertex
 10
-1094.291654954729
 20
809.7329738026493
 30
-352.4808268814059
 70
    64
  0
VERTEX
  5
4F50
330
4F47
100
AcDbEntity
  8
0
100
AcDbVertex
100
AcDbPolygonMeshVertex
 10
-1094.291654954729
 20
804.6529738026492
 30
-352.4808268814059
 70
    64
  0
VERTEX
  5
4F51
330
4F47
100
AcDbEntity
  8
0
100
AcDbVertex
100
AcDbPolygonMeshVertex
 10
-1091.751654954729
 20
809.7329738026493
 30
-276.2808268814059
 70
    64
  0
VERTEX
  5
4F52
330
4F47
100
AcDbEntity
  8
0
100
AcDbVertex
100
AcDbPolygonMeshVertex
 10
-1091.751654954729
 20
809.7329738026493
 30
-352.4808268814059
 70
    64
  0
VERTEX
  5
4F53
330
4F47
100
AcDbEntity
  8
0
100
AcDbVertex
100
AcDbPolygonMeshVertex
 10
-1091.751654954729
 20
804.6529738026492
 30
-352.4808268814059
 70
    64
  0
VERTEX
  5
4F54
330
4F47
100
AcDbEntity
  8
0
100
AcDbVertex
100
AcDbPolygonMeshVertex
 10
-1091.751654954729
 20
809.7329738026493
 30
-276.2808268814059
 70
    64
  0
VERTEX
  5
4F55
330
4F47
100
AcDbEntity
  8
0
100
AcDbVertex
100
AcDbPolygonMeshVertex
 10
-1091.751654954729
 20
809.7329738026493
 30
-276.2808268814059
 70
    64
  0
VERTEX
  5
4F56
330
4F47
100
AcDbEntity
  8
0
100
AcDbVertex
100
AcDbPolygonMeshVertex
 10
-1091.751654954729
 20
804.6529738026492
 30
-276.2808268814059
 70
    64
  0
VERTEX
  5
4F57
330
4F47
100
AcDbEntity
  8
0
100
AcDbVertex
100
AcDbPolygonMeshVertex
 10
-1094.291654954729
 20
809.7329738026493
 30
-276.2808268814059
 70
    64
  0
VERTEX
  5
4F58
330
4F47
100
AcDbEntity
  8
0
100
AcDbVertex
100
AcDbPolygonMeshVertex
 10
-1094.291654954729
 20
809.7329738026493
 30
-276.2808268814059
 70
    64
  0
VERTEX
  5
4F59
330
4F47
100
AcDbEntity
  8
0
100
AcDbVertex
100
AcDbPolygonMeshVertex
 10
-1094.291654954729
 20
804.6529738026492
 30
-276.2808268814059
 70
    64
  0
SEQEND
  5
4F5A
330
4F47
100
AcDbEntity
  8
0
  0
POLYLINE
  5
4F5B
330
1F
100
AcDbEntity
  8
0
100
AcDbPolygonMesh
 66
     1
 10
0.0
 20
0.0
 30
0.0
 70
    16
 71
     6
 72
     3
  0
VERTEX
  5
4F5C
330
4F5B
100
AcDbEntity
  8
0
100
AcDbVertex
100
AcDbPolygonMeshVertex
 10
-1044.443808809967
 20
804.6529738026496
 30
-276.2808268814059
 70
    64
  0
VERTEX
  5
4F5D
330
4F5B
100
AcDbEntity
  8
0
100
AcDbVertex
100
AcDbPolygonMeshVertex
 10
-1044.443808809967
 20
804.6529738026496
 30
-352.4808268814059
 70
    64
  0
VERTEX
  5
4F5E
330
4F5B
100
AcDbEntity
  8
0
100
AcDbVertex
100
AcDbPolygonMeshVertex
 10
-1044.443808809967
 20
804.6529738026496
 30
-352.4808268814059
 70
    64
  0
VERTEX
  5
4F5F
330
4F5B
100
AcDbEntity
  8
0
100
AcDbVertex
100
AcDbPolygonMeshVertex
 10
-1046.729808809967
 20
804.6529738026496
 30
-276.2808268814059
 70
    64
  0
VERTEX
  5
4F60
330
4F5B
100
AcDbEntity
  8
0
100
AcDbVertex
100
AcDbPolygonMeshVertex
 10
-1046.729808809967
 20
804.6529738026496
 30
-352.4808268814059
 70
    64
  0
VERTEX
  5
4F61
330
4F5B
100
AcDbEntity
  8
0
100
AcDbVertex
100
AcDbPolygonMeshVertex
 10
-1046.729808809967
 20
804.6529738026496
 30
-352.4808268814059
 70
    64
  0
VERTEX
  5
4F62
330
4F5B
100
AcDbEntity
  8
0
100
AcDbVertex
100
AcDbPolygonMeshVertex
 10
-1046.729808809967
 20
806.5579738026496
 30
-276.2808268814059
 70
    64
  0
VERTEX
  5
4F63
330
4F5B
100
AcDbEntity
  8
0
100
AcDbVertex
100
AcDbPolygonMeshVertex
 10
-1046.729808809967
 20
806.5579738026496
 30
-352.4808268814059
 70
    64
  0
VERTEX
  5
4F64
330
4F5B
100
AcDbEntity
  8
0
100
AcDbVertex
100
AcDbPolygonMeshVertex
 10
-1046.729808809967
 20
804.6529738026496
 30
-352.4808268814059
 70
    64
  0
VERTEX
  5
4F65
330
4F5B
100
AcDbEntity
  8
0
100
AcDbVertex
100
AcDbPolygonMeshVertex
 10
-1044.443808809967
 20
806.5579738026496
 30
-276.2808268814059
 70
    64
  0
VERTEX
  5
4F66
330
4F5B
100
AcDbEntity
  8
0
100
AcDbVertex
100
AcDbPolygonMeshVertex
 10
-1044.443808809967
 20
806.5579738026496
 30
-352.4808268814059
 70
    64
  0
VERTEX
  5
4F67
330
4F5B
100
AcDbEntity
  8
0
100
AcDbVertex
100
AcDbPolygonMeshVertex
 10
-1044.443808809967
 20
804.6529738026496
 30
-352.4808268814059
 70
    64
  0
VERTEX
  5
4F68
330
4F5B
100
AcDbEntity
  8
0
100
AcDbVertex
100
AcDbPolygonMeshVertex
 10
-1044.443808809967
 20
806.5579738026496
 30
-276.2808268814059
 70
    64
  0
VERTEX
  5
4F69
330
4F5B
100
AcDbEntity
  8
0
100
AcDbVertex
100
AcDbPolygonMeshVertex
 10
-1044.443808809967
 20
806.5579738026496
 30
-276.2808268814059
 70
    64
  0
VERTEX
  5
4F6A
330
4F5B
100
AcDbEntity
  8
0
100
AcDbVertex
100
AcDbPolygonMeshVertex
 10
-1044.443808809967
 20
804.6529738026496
 30
-276.2808268814059
 70
    64
  0
VERTEX
  5
4F6B
330
4F5B
100
AcDbEntity
  8
0
100
AcDbVertex
100
AcDbPolygonMeshVertex
 10
-1046.729808809967
 20
806.5579738026496
 30
-276.2808268814059
 70
    64
  0
VERTEX
  5
4F6C
330
4F5B
100
AcDbEntity
  8
0
100
AcDbVertex
100
AcDbPolygonMeshVertex
 10
-1046.729808809967
 20
806.5579738026496
 30
-276.2808268814059
 70
    64
  0
VERTEX
  5
4F6D
330
4F5B
100
AcDbEntity
  8
0
100
AcDbVertex
100
AcDbPolygonMeshVertex
 10
-1046.729808809967
 20
804.6529738026496
 30
-276.2808268814059
 70
    64
  0
SEQEND
  5
4F6E
330
4F5B
100
AcDbEntity
  8
0
  0
POLYLINE
  5
4F6F
330
1F
100
AcDbEntity
  8
0
100
AcDbPolygonMesh
 66
     1
 10
0.0
 20
0.0
 30
0.0
 70
    16
 71
     6
 72
     3
  0
VERTEX
  5
4F70
330
4F6F
100
AcDbEntity
  8
0
100
AcDbVertex
100
AcDbPolygonMeshVertex
 10
-1041.903808809966
 20
804.6529738026496
 30
-276.2808268814059
 70
    64
  0
VERTEX
  5
4F71
330
4F6F
100
AcDbEntity
  8
0
100
AcDbVertex
100
AcDbPolygonMeshVertex
 10
-1041.903808809966
 20
804.6529738026496
 30
-352.4808268814059
 70
    64
  0
VERTEX
  5
4F72
330
4F6F
100
AcDbEntity
  8
0
100
AcDbVertex
100
AcDbPolygonMeshVertex
 10
-1041.903808809966
 20
804.6529738026496
 30
-352.4808268814059
 70
    64
  0
VERTEX
  5
4F73
330
4F6F
100
AcDbEntity
  8
0
100
AcDbVertex
100
AcDbPolygonMeshVertex
 10
-1044.443808809967
 20
804.6529738026496
 30
-276.2808268814059
 70
    64
  0
VERTEX
  5
4F74
330
4F6F
100
AcDbEntity
  8
0
100
AcDbVertex
100
AcDbPolygonMeshVertex
 10
-1044.443808809967
 20
804.6529738026496
 30
-352.4808268814059
 70
    64
  0
VERTEX
  5
4F75
330
4F6F
100
AcDbEntity
  8
0
100
AcDbVertex
100
AcDbPolygonMeshVertex
 10
-1044.443808809967
 20
804.6529738026496
 30
-352.4808268814059
 70
    64
  0
VERTEX
  5
4F76
330
4F6F
100
AcDbEntity
  8
0
100
AcDbVertex
100
AcDbPolygonMeshVertex
 10
-1044.443808809967
 20
809.7329738026497
 30
-276.2808268814059
 70
    64
  0
VERTEX
  5
4F77
330
4F6F
100
AcDbEntity
  8
0
100
AcDbVertex
100
AcDbPolygonMeshVertex
 10
-1044.443808809967
 20
809.7329738026497
 30
-352.4808268814059
 70
    64
  0
VERTEX
  5
4F78
330
4F6F
100
AcDbEntity
  8
0
100
AcDbVertex
100
AcDbPolygonMeshVertex
 10
-1044.443808809967
 20
804.6529738026496
 30
-352.4808268814059
 70
    64
  0
VERTEX
  5
4F79
330
4F6F
100
AcDbEntity
  8
0
100
AcDbVertex
100
AcDbPolygonMeshVertex
 10
-1041.903808809966
 20
809.7329738026497
 30
-276.2808268814059
 70
    64
  0
VERTEX
  5
4F7A
330
4F6F
100
AcDbEntity
  8
0
100
AcDbVertex
100
AcDbPolygonMeshVertex
 10
-1041.903808809966
 20
809.7329738026497
 30
-352.4808268814059
 70
    64
  0
VERTEX
  5
4F7B
330
4F6F
100
AcDbEntity
  8
0
100
AcDbVertex
100
AcDbPolygonMeshVertex
 10
-1041.903808809966
 20
804.6529738026496
 30
-352.4808268814059
 70
    64
  0
VERTEX
  5
4F7C
330
4F6F
100
AcDbEntity
  8
0
100
AcDbVertex
100
AcDbPolygonMeshVertex
 10
-1041.903808809966
 20
809.7329738026497
 30
-276.2808268814059
 70
    64
  0
VERTEX
  5
4F7D
330
4F6F
100
AcDbEntity
  8
0
100
AcDbVertex
100
AcDbPolygonMeshVertex
 10
-1041.903808809966
 20
809.7329738026497
 30
-276.2808268814059
 70
    64
  0
VERTEX
  5
4F7E
330
4F6F
100
AcDbEntity
  8
0
100
AcDbVertex
100
AcDbPolygonMeshVertex
 10
-1041.903808809966
 20
804.6529738026496
 30
-276.2808268814059
 70
    64
  0
VERTEX
  5
4F7F
330
4F6F
100
AcDbEntity
  8
0
100
AcDbVertex
100
AcDbPolygonMeshVertex
 10
-1044.443808809967
 20
809.7329738026497
 30
-276.2808268814059
 70
    64
  0
VERTEX
  5
4F80
330
4F6F
100
AcDbEntity
  8
0
100
AcDbVertex
100
AcDbPolygonMeshVertex
 10
-1044.443808809967
 20
809.7329738026497
 30
-276.2808268814059
 70
    64
  0
VERTEX
  5
4F81
330
4F6F
100
AcDbEntity
  8
0
100
AcDbVertex
100
AcDbPolygonMeshVertex
 10
-1044.443808809967
 20
804.6529738026496
 30
-276.2808268814059
 70
    64
  0
SEQEND
  5
4F82
330
4F6F
100
AcDbEntity
  8
0
  0
POLYLINE
  5
4F83
330
1F
100
AcDbEntity
  8
0
100
AcDbPolygonMesh
 66
     1
 10
0.0
 20
0.0
 30
0.0
 70
    16
 71
     6
 72
     3
  0
VERTEX
  5
4F84
330
4F83
100
AcDbEntity
  8
0
100
AcDbVertex
100
AcDbPolygonMeshVertex
 10
-1046.729808809967
 20
804.6529738026496
 30
-276.2808268814059
 70
    64
  0
VERTEX
  5
4F85
330
4F83
100
AcDbEntity
  8
0
100
AcDbVertex
100
AcDbPolygonMeshVertex
 10
-1046.729808809967
 20
804.6529738026496
 30
-352.4808268814058
 70
    64
  0
VERTEX
  5
4F86
330
4F83
100
AcDbEntity
  8
0
100
AcDbVertex
100
AcDbPolygonMeshVertex
 10
-1046.729808809967
 20
804.6529738026496
 30
-352.4808268814058
 70
    64
  0
VERTEX
  5
4F87
330
4F83
100
AcDbEntity
  8
0
100
AcDbVertex
100
AcDbPolygonMeshVertex
 10
-1049.269808809967
 20
804.6529738026496
 30
-276.2808268814059
 70
    64
  0
VERTEX
  5
4F88
330
4F83
100
AcDbEntity
  8
0
100
AcDbVertex
100
AcDbPolygonMeshVertex
 10
-1049.269808809967
 20
804.6529738026496
 30
-352.4808268814058
 70
    64
  0
VERTEX
  5
4F89
330
4F83
100
AcDbEntity
  8
0
100
AcDbVertex
100
AcDbPolygonMeshVertex
 10
-1049.269808809967
 20
804.6529738026496
 30
-352.4808268814058
 70
    64
  0
VERTEX
  5
4F8A
330
4F83
100
AcDbEntity
  8
0
100
AcDbVertex
100
AcDbPolygonMeshVertex
 10
-1049.269808809967
 20
809.7329738026497
 30
-276.2808268814059
 70
    64
  0
VERTEX
  5
4F8B
330
4F83
100
AcDbEntity
  8
0
100
AcDbVertex
100
AcDbPolygonMeshVertex
 10
-1049.269808809967
 20
809.7329738026497
 30
-352.4808268814058
 70
    64
  0
VERTEX
  5
4F8C
330
4F83
100
AcDbEntity
  8
0
100
AcDbVertex
100
AcDbPolygonMeshVertex
 10
-1049.269808809967
 20
804.6529738026496
 30
-352.4808268814058
 70
    64
  0
VERTEX
  5
4F8D
330
4F83
100
AcDbEntity
  8
0
100
AcDbVertex
100
AcDbPolygonMeshVertex
 10
-1046.729808809967
 20
809.7329738026497
 30
-276.2808268814059
 70
    64
  0
VERTEX
  5
4F8E
330
4F83
100
AcDbEntity
  8
0
100
AcDbVertex
100
AcDbPolygonMeshVertex
 10
-1046.729808809967
 20
809.7329738026497
 30
-352.4808268814058
 70
    64
  0
VERTEX
  5
4F8F
330
4F83
100
AcDbEntity
  8
0
100
AcDbVertex
100
AcDbPolygonMeshVertex
 10
-1046.729808809967
 20
804.6529738026496
 30
-352.4808268814058
 70
    64
  0
VERTEX
  5
4F90
330
4F83
100
AcDbEntity
  8
0
100
AcDbVertex
100
AcDbPolygonMeshVertex
 10
-1046.729808809967
 20
809.7329738026497
 30
-276.2808268814059
 70
    64
  0
VERTEX
  5
4F91
330
4F83
100
AcDbEntity
  8
0
100
AcDbVertex
100
AcDbPolygonMeshVertex
 10
-1046.729808809967
 20
809.7329738026497
 30
-276.2808268814059
 70
    64
  0
VERTEX
  5
4F92
330
4F83
100
AcDbEntity
  8
0
100
AcDbVertex
100
AcDbPolygonMeshVertex
 10
-1046.729808809967
 20
804.6529738026496
 30
-276.2808268814059
 70
    64
  0
VERTEX
  5
4F93
330
4F83
100
AcDbEntity
  8
0
100
AcDbVertex
100
AcDbPolygonMeshVertex
 10
-1049.269808809967
 20
809.7329738026497
 30
-276.2808268814059
 70
    64
  0
VERTEX
  5
4F94
330
4F83
100
AcDbEntity
  8
0
100
AcDbVertex
100
AcDbPolygonMeshVertex
 10
-1049.269808809967
 20
809.7329738026497
 30
-276.2808268814059
 70
    64
  0
VERTEX
  5
4F95
330
4F83
100
AcDbEntity
  8
0
100
AcDbVertex
100
AcDbPolygonMeshVertex
 10
-1049.269808809967
 20
804.6529738026496
 30
-276.2808268814059
 70
    64
  0
SEQEND
  5
4F96
330
4F83
100
AcDbEntity
  8
0
  0
POLYLINE
  5
4F97
330
1F
100
AcDbEntity
  8
0
100
AcDbPolygonMesh
 66
     1
 10
0.0
 20
0.0
 30
0.0
 70
    16
 71
     6
 72
     3
  0
VERTEX
  5
4F98
330
4F97
100
AcDbEntity
  8
0
100
AcDbVertex
100
AcDbPolygonMeshVertex
 10
-1009.518808809967
 20
804.6529738026496
 30
-276.2808268814059
 70
    64
  0
VERTEX
  5
4F99
330
4F97
100
AcDbEntity
  8
0
100
AcDbVertex
100
AcDbPolygonMeshVertex
 10
-1009.518808809967
 20
804.6529738026496
 30
-352.4808268814059
 70
    64
  0
VERTEX
  5
4F9A
330
4F97
100
AcDbEntity
  8
0
100
AcDbVertex
100
AcDbPolygonMeshVertex
 10
-1009.518808809967
 20
804.6529738026496
 30
-352.4808268814059
 70
    64
  0
VERTEX
  5
4F9B
330
4F97
100
AcDbEntity
  8
0
100
AcDbVertex
100
AcDbPolygonMeshVertex
 10
-1011.804808809966
 20
804.6529738026496
 30
-276.2808268814059
 70
    64
  0
VERTEX
  5
4F9C
330
4F97
100
AcDbEntity
  8
0
100
AcDbVertex
100
AcDbPolygonMeshVertex
 10
-1011.804808809966
 20
804.6529738026496
 30
-352.4808268814059
 70
    64
  0
VERTEX
  5
4F9D
330
4F97
100
AcDbEntity
  8
0
100
AcDbVertex
100
AcDbPolygonMeshVertex
 10
-1011.804808809966
 20
804.6529738026496
 30
-352.4808268814059
 70
    64
  0
VERTEX
  5
4F9E
330
4F97
100
AcDbEntity
  8
0
100
AcDbVertex
100
AcDbPolygonMeshVertex
 10
-1011.804808809966
 20
806.5579738026496
 30
-276.2808268814059
 70
    64
  0
VERTEX
  5
4F9F
330
4F97
100
AcDbEntity
  8
0
100
AcDbVertex
100
AcDbPolygonMeshVertex
 10
-1011.804808809966
 20
806.5579738026496
 30
-352.4808268814059
 70
    64
  0
VERTEX
  5
4FA0
330
4F97
100
AcDbEntity
  8
0
100
AcDbVertex
100
AcDbPolygonMeshVertex
 10
-1011.804808809966
 20
804.6529738026496
 30
-352.4808268814059
 70
    64
  0
VERTEX
  5
4FA1
330
4F97
100
AcDbEntity
  8
0
100
AcDbVertex
100
AcDbPolygonMeshVertex
 10
-1009.518808809967
 20
806.5579738026496
 30
-276.2808268814059
 70
    64
  0
VERTEX
  5
4FA2
330
4F97
100
AcDbEntity
  8
0
100
AcDbVertex
100
AcDbPolygonMeshVertex
 10
-1009.518808809967
 20
806.5579738026496
 30
-352.4808268814059
 70
    64
  0
VERTEX
  5
4FA3
330
4F97
100
AcDbEntity
  8
0
100
AcDbVertex
100
AcDbPolygonMeshVertex
 10
-1009.518808809967
 20
804.6529738026496
 30
-352.4808268814059
 70
    64
  0
VERTEX
  5
4FA4
330
4F97
100
AcDbEntity
  8
0
100
AcDbVertex
100
AcDbPolygonMeshVertex
 10
-1009.518808809967
 20
806.5579738026496
 30
-276.2808268814059
 70
    64
  0
VERTEX
  5
4FA5
330
4F97
100
AcDbEntity
  8
0
100
AcDbVertex
100
AcDbPolygonMeshVertex
 10
-1009.518808809967
 20
806.5579738026496
 30
-276.2808268814059
 70
    64
  0
VERTEX
  5
4FA6
330
4F97
100
AcDbEntity
  8
0
100
AcDbVertex
100
AcDbPolygonMeshVertex
 10
-1009.518808809967
 20
804.6529738026496
 30
-276.2808268814059
 70
    64
  0
VERTEX
  5
4FA7
330
4F97
100
AcDbEntity
  8
0
100
AcDbVertex
100
AcDbPolygonMeshVertex
 10
-1011.804808809966
 20
806.5579738026496
 30
-276.2808268814059
 70
    64
  0
VERTEX
  5
4FA8
330
4F97
100
AcDbEntity
  8
0
100
AcDbVertex
100
AcDbPolygonMeshVertex
 10
-1011.804808809966
 20
806.5579738026496
 30
-276.2808268814059
 70
    64
  0
VERTEX
  5
4FA9
330
4F97
100
AcDbEntity
  8
0
100
AcDbVertex
100
AcDbPolygonMeshVertex
 10
-1011.804808809966
 20
804.6529738026496
 30
-276.2808268814059
 70
    64
  0
SEQEND
  5
4FAA
330
4F97
100
AcDbEntity
  8
0
  0
POLYLINE
  5
4FAB
330
1F
100
AcDbEntity
  8
0
100
AcDbPolygonMesh
 66
     1
 10
0.0
 20
0.0
 30
0.0
 70
    16
 71
     6
 72
     3
  0
VERTEX
  5
4FAC
330
4FAB
100
AcDbEntity
  8
0
100
AcDbVertex
100
AcDbPolygonMeshVertex
 10
-1006.978808809966
 20
804.6529738026496
 30
-276.2808268814059
 70
    64
  0
VERTEX
  5
4FAD
330
4FAB
100
AcDbEntity
  8
0
100
AcDbVertex
100
AcDbPolygonMeshVertex
 10
-1006.978808809966
 20
804.6529738026496
 30
-352.4808268814059
 70
    64
  0
VERTEX
  5
4FAE
330
4FAB
100
AcDbEntity
  8
0
100
AcDbVertex
100
AcDbPolygonMeshVertex
 10
-1006.978808809966
 20
804.6529738026496
 30
-352.4808268814059
 70
    64
  0
VERTEX
  5
4FAF
330
4FAB
100
AcDbEntity
  8
0
100
AcDbVertex
100
AcDbPolygonMeshVertex
 10
-1009.518808809967
 20
804.6529738026496
 30
-276.2808268814059
 70
    64
  0
VERTEX
  5
4FB0
330
4FAB
100
AcDbEntity
  8
0
100
AcDbVertex
100
AcDbPolygonMeshVertex
 10
-1009.518808809967
 20
804.6529738026496
 30
-352.4808268814059
 70
    64
  0
VERTEX
  5
4FB1
330
4FAB
100
AcDbEntity
  8
0
100
AcDbVertex
100
AcDbPolygonMeshVertex
 10
-1009.518808809967
 20
804.6529738026496
 30
-352.4808268814059
 70
    64
  0
VERTEX
  5
4FB2
330
4FAB
100
AcDbEntity
  8
0
100
AcDbVertex
100
AcDbPolygonMeshVertex
 10
-1009.518808809967
 20
809.7329738026497
 30
-276.2808268814059
 70
    64
  0
VERTEX
  5
4FB3
330
4FAB
100
AcDbEntity
  8
0
100
AcDbVertex
100
AcDbPolygonMeshVertex
 10
-1009.518808809967
 20
809.7329738026497
 30
-352.4808268814059
 70
    64
  0
VERTEX
  5
4FB4
330
4FAB
100
AcDbEntity
  8
0
100
AcDbVertex
100
AcDbPolygonMeshVertex
 10
-1009.518808809967
 20
804.6529738026496
 30
-352.4808268814059
 70
    64
  0
VERTEX
  5
4FB5
330
4FAB
100
AcDbEntity
  8
0
100
AcDbVertex
100
AcDbPolygonMeshVertex
 10
-1006.978808809966
 20
809.7329738026497
 30
-276.2808268814059
 70
    64
  0
VERTEX
  5
4FB6
330
4FAB
100
AcDbEntity
  8
0
100
AcDbVertex
100
AcDbPolygonMeshVertex
 10
-1006.978808809966
 20
809.7329738026497
 30
-352.4808268814059
 70
    64
  0
VERTEX
  5
4FB7
330
4FAB
100
AcDbEntity
  8
0
100
AcDbVertex
100
AcDbPolygonMeshVertex
 10
-1006.978808809966
 20
804.6529738026496
 30
-352.4808268814059
 70
    64
  0
VERTEX
  5
4FB8
330
4FAB
100
AcDbEntity
  8
0
100
AcDbVertex
100
AcDbPolygonMeshVertex
 10
-1006.978808809966
 20
809.7329738026497
 30
-276.2808268814059
 70
    64
  0
VERTEX
  5
4FB9
330
4FAB
100
AcDbEntity
  8
0
100
AcDbVertex
100
AcDbPolygonMeshVertex
 10
-1006.978808809966
 20
809.7329738026497
 30
-276.2808268814059
 70
    64
  0
VERTEX
  5
4FBA
330
4FAB
100
AcDbEntity
  8
0
100
AcDbVertex
100
AcDbPolygonMeshVertex
 10
-1006.978808809966
 20
804.6529738026496
 30
-276.2808268814059
 70
    64
  0
VERTEX
  5
4FBB
330
4FAB
100
AcDbEntity
  8
0
100
AcDbVertex
100
AcDbPolygonMeshVertex
 10
-1009.518808809967
 20
809.7329738026497
 30
-276.2808268814059
 70
    64
  0
VERTEX
  5
4FBC
330
4FAB
100
AcDbEntity
  8
0
100
AcDbVertex
100
AcDbPolygonMeshVertex
 10
-1009.518808809967
 20
809.7329738026497
 30
-276.2808268814059
 70
    64
  0
VERTEX
  5
4FBD
330
4FAB
100
AcDbEntity
  8
0
100
AcDbVertex
100
AcDbPolygonMeshVertex
 10
-1009.518808809967
 20
804.6529738026496
 30
-276.2808268814059
 70
    64
  0
SEQEND
  5
4FBE
330
4FAB
100
AcDbEntity
  8
0
  0
POLYLINE
  5
4FBF
330
1F
100
AcDbEntity
  8
0
100
AcDbPolygonMesh
 66
     1
 10
0.0
 20
0.0
 30
0.0
 70
    16
 71
     6
 72
     3
  0
VERTEX
  5
4FC0
330
4FBF
100
AcDbEntity
  8
0
100
AcDbVertex
100
AcDbPolygonMeshVertex
 10
-1011.804808809966
 20
804.6529738026496
 30
-276.2808268814059
 70
    64
  0
VERTEX
  5
4FC1
330
4FBF
100
AcDbEntity
  8
0
100
AcDbVertex
100
AcDbPolygonMeshVertex
 10
-1011.804808809966
 20
804.6529738026496
 30
-352.4808268814058
 70
    64
  0
VERTEX
  5
4FC2
330
4FBF
100
AcDbEntity
  8
0
100
AcDbVertex
100
AcDbPolygonMeshVertex
 10
-1011.804808809966
 20
804.6529738026496
 30
-352.4808268814058
 70
    64
  0
VERTEX
  5
4FC3
330
4FBF
100
AcDbEntity
  8
0
100
AcDbVertex
100
AcDbPolygonMeshVertex
 10
-1014.344808809966
 20
804.6529738026496
 30
-276.2808268814059
 70
    64
  0
VERTEX
  5
4FC4
330
4FBF
100
AcDbEntity
  8
0
100
AcDbVertex
100
AcDbPolygonMeshVertex
 10
-1014.344808809966
 20
804.6529738026496
 30
-352.4808268814058
 70
    64
  0
VERTEX
  5
4FC5
330
4FBF
100
AcDbEntity
  8
0
100
AcDbVertex
100
AcDbPolygonMeshVertex
 10
-1014.344808809966
 20
804.6529738026496
 30
-352.4808268814058
 70
    64
  0
VERTEX
  5
4FC6
330
4FBF
100
AcDbEntity
  8
0
100
AcDbVertex
100
AcDbPolygonMeshVertex
 10
-1014.344808809966
 20
809.7329738026497
 30
-276.2808268814059
 70
    64
  0
VERTEX
  5
4FC7
330
4FBF
100
AcDbEntity
  8
0
100
AcDbVertex
100
AcDbPolygonMeshVertex
 10
-1014.344808809966
 20
809.7329738026497
 30
-352.4808268814058
 70
    64
  0
VERTEX
  5
4FC8
330
4FBF
100
AcDbEntity
  8
0
100
AcDbVertex
100
AcDbPolygonMeshVertex
 10
-1014.344808809966
 20
804.6529738026496
 30
-352.4808268814058
 70
    64
  0
VERTEX
  5
4FC9
330
4FBF
100
AcDbEntity
  8
0
100
AcDbVertex
100
AcDbPolygonMeshVertex
 10
-1011.804808809966
 20
809.7329738026497
 30
-276.2808268814059
 70
    64
  0
VERTEX
  5
4FCA
330
4FBF
100
AcDbEntity
  8
0
100
AcDbVertex
100
AcDbPolygonMeshVertex
 10
-1011.804808809966
 20
809.7329738026497
 30
-352.4808268814058
 70
    64
  0
VERTEX
  5
4FCB
330
4FBF
100
AcDbEntity
  8
0
100
AcDbVertex
100
AcDbPolygonMeshVertex
 10
-1011.804808809966
 20
804.6529738026496
 30
-352.4808268814058
 70
    64
  0
VERTEX
  5
4FCC
330
4FBF
100
AcDbEntity
  8
0
100
AcDbVertex
100
AcDbPolygonMeshVertex
 10
-1011.804808809966
 20
809.7329738026497
 30
-276.2808268814059
 70
    64
  0
VERTEX
  5
4FCD
330
4FBF
100
AcDbEntity
  8
0
100
AcDbVertex
100
AcDbPolygonMeshVertex
 10
-1011.804808809966
 20
809.7329738026497
 30
-276.2808268814059
 70
    64
  0
VERTEX
  5
4FCE
330
4FBF
100
AcDbEntity
  8
0
100
AcDbVertex
100
AcDbPolygonMeshVertex
 10
-1011.804808809966
 20
804.6529738026496
 30
-276.2808268814059
 70
    64
  0
VERTEX
  5
4FCF
330
4FBF
100
AcDbEntity
  8
0
100
AcDbVertex
100
AcDbPolygonMeshVertex
 10
-1014.344808809966
 20
809.7329738026497
 30
-276.2808268814059
 70
    64
  0
VERTEX
  5
4FD0
330
4FBF
100
AcDbEntity
  8
0
100
AcDbVertex
100
AcDbPolygonMeshVertex
 10
-1014.344808809966
 20
809.7329738026497
 30
-276.2808268814059
 70
    64
  0
VERTEX
  5
4FD1
330
4FBF
100
AcDbEntity
  8
0
100
AcDbVertex
100
AcDbPolygonMeshVertex
 10
-1014.344808809966
 20
804.6529738026496
 30
-276.2808268814059
 70
    64
  0
SEQEND
  5
4FD2
330
4FBF
100
AcDbEntity
  8
0
  0
POLYLINE
  5
4FD3
330
1F
100
AcDbEntity
  8
0
100
AcDbPolygonMesh
 66
     1
 10
0.0
 20
0.0
 30
0.0
 70
    16
 71
     6
 72
     3
  0
VERTEX
  5
4FD4
330
4FD3
100
AcDbEntity
  8
0
100
AcDbVertex
100
AcDbPolygonMeshVertex
 10
-1046.730886003406
 20
886.8981113922474
 30
-342.9558268814058
 70
    64
  0
VERTEX
  5
4FD5
330
4FD3
100
AcDbEntity
  8
0
100
AcDbVertex
100
AcDbPolygonMeshVertex
 10
-1046.730886003406
 20
886.8981113922474
 30
-352.4808268814059
 70
    64
  0
VERTEX
  5
4FD6
330
4FD3
100
AcDbEntity
  8
0
100
AcDbVertex
100
AcDbPolygonMeshVertex
 10
-1046.730886003406
 20
886.8981113922474
 30
-352.4808268814059
 70
    64
  0
VERTEX
  5
4FD7
330
4FD3
100
AcDbEntity
  8
0
100
AcDbVertex
100
AcDbPolygonMeshVertex
 10
-1056.890274601269
 20
886.8981113922474
 30
-342.9558268814058
 70
    64
  0
VERTEX
  5
4FD8
330
4FD3
100
AcDbEntity
  8
0
100
AcDbVertex
100
AcDbPolygonMeshVertex
 10
-1056.890274601269
 20
886.8981113922474
 30
-352.4808268814059
 70
    64
  0
VERTEX
  5
4FD9
330
4FD3
100
AcDbEntity
  8
0
100
AcDbVertex
100
AcDbPolygonMeshVertex
 10
-1056.890274601269
 20
886.8981113922474
 30
-352.4808268814059
 70
    64
  0
VERTEX
  5
4FDA
330
4FD3
100
AcDbEntity
  8
0
100
AcDbVertex
100
AcDbPolygonMeshVertex
 10
-1056.890274601269
 20
927.5375649027102
 30
-342.9558268814058
 70
    64
  0
VERTEX
  5
4FDB
330
4FD3
100
AcDbEntity
  8
0
100
AcDbVertex
100
AcDbPolygonMeshVertex
 10
-1056.890274601269
 20
927.5375649027102
 30
-352.4808268814059
 70
    64
  0
VERTEX
  5
4FDC
330
4FD3
100
AcDbEntity
  8
0
100
AcDbVertex
100
AcDbPolygonMeshVertex
 10
-1056.890274601269
 20
886.8981113922474
 30
-352.4808268814059
 70
    64
  0
VERTEX
  5
4FDD
330
4FD3
100
AcDbEntity
  8
0
100
AcDbVertex
100
AcDbPolygonMeshVertex
 10
-1046.730886003406
 20
927.5375649027102
 30
-342.9558268814058
 70
    64
  0
VERTEX
  5
4FDE
330
4FD3
100
AcDbEntity
  8
0
100
AcDbVertex
100
AcDbPolygonMeshVertex
 10
-1046.730886003406
 20
927.5375649027102
 30
-352.4808268814059
 70
    64
  0
VERTEX
  5
4FDF
330
4FD3
100
AcDbEntity
  8
0
100
AcDbVertex
100
AcDbPolygonMeshVertex
 10
-1046.730886003406
 20
886.8981113922474
 30
-352.4808268814059
 70
    64
  0
VERTEX
  5
4FE0
330
4FD3
100
AcDbEntity
  8
0
100
AcDbVertex
100
AcDbPolygonMeshVertex
 10
-1046.730886003406
 20
927.5375649027102
 30
-342.9558268814058
 70
    64
  0
VERTEX
  5
4FE1
330
4FD3
100
AcDbEntity
  8
0
100
AcDbVertex
100
AcDbPolygonMeshVertex
 10
-1046.730886003406
 20
927.5375649027102
 30
-342.9558268814058
 70
    64
  0
VERTEX
  5
4FE2
330
4FD3
100
AcDbEntity
  8
0
100
AcDbVertex
100
AcDbPolygonMeshVertex
 10
-1046.730886003406
 20
886.8981113922474
 30
-342.9558268814058
 70
    64
  0
VERTEX
  5
4FE3
330
4FD3
100
AcDbEntity
  8
0
100
AcDbVertex
100
AcDbPolygonMeshVertex
 10
-1056.890274601269
 20
927.5375649027102
 30
-342.9558268814058
 70
    64
  0
VERTEX
  5
4FE4
330
4FD3
100
AcDbEntity
  8
0
100
AcDbVertex
100
AcDbPolygonMeshVertex
 10
-1056.890274601269
 20
927.5375649027102
 30
-342.9558268814058
 70
    64
  0
VERTEX
  5
4FE5
330
4FD3
100
AcDbEntity
  8
0
100
AcDbVertex
100
AcDbPolygonMeshVertex
 10
-1056.890274601269
 20
886.8981113922474
 30
-342.9558268814058
 70
    64
  0
SEQEND
  5
4FE6
330
4FD3
100
AcDbEntity
  8
0
  0
LINE
  5
4FE7
330
1F
100
AcDbEntity
  8
0
100
AcDbLine
 10
-1101.085646340615
 20
803.8395430818368
 30
-352.7348268814058
 11
-1101.085646340615
 21
803.8469179736408
 31
-353.7433433355792
  0
POINT
  5
4FE8
330
1F
100
AcDbEntity
  8
SNAP_POINTS
100
AcDbPoint
 10
-1090.608654954729
 20
806.5579738026494
 30
-352.4808268814059
  0
POLYLINE
  5
4FE9
330
1F
100
AcDbEntity
  8
0
100
AcDbPolygonMesh
 66
     1
 10
0.0
 20
0.0
 30
0.0
 70
    16
 71
     6
 72
     3
  0
VERTEX
  5
4FEA
330
4FE9
100
AcDbEntity
  8
0
100
AcDbVertex
100
AcDbPolygonMeshVertex
 10
-1091.751218390446
 20
886.8981113922473
 30
-342.955826881406
 70
    64
  0
VERTEX
  5
4FEB
330
4FE9
100
AcDbEntity
  8
0
100
AcDbVertex
100
AcDbPolygonMeshVertex
 10
-1091.751218390446
 20
886.8981113922473
 30
-352.4808268814059
 70
    64
  0
VERTEX
  5
4FEC
330
4FE9
100
AcDbEntity
  8
0
100
AcDbVertex
100
AcDbPolygonMeshVertex
 10
-1091.751218390446
 20
886.8981113922473
 30
-352.4808268814059
 70
    64
  0
VERTEX
  5
4FED
330
4FE9
100
AcDbEntity
  8
0
100
AcDbVertex
100
AcDbPolygonMeshVertex
 10
-1100.996206988309
 20
886.8981113922473
 30
-342.955826881406
 70
    64
  0
VERTEX
  5
4FEE
330
4FE9
100
AcDbEntity
  8
0
100
AcDbVertex
100
AcDbPolygonMeshVertex
 10
-1100.996206988309
 20
886.8981113922473
 30
-352.4808268814059
 70
    64
  0
VERTEX
  5
4FEF
330
4FE9
100
AcDbEntity
  8
0
100
AcDbVertex
100
AcDbPolygonMeshVertex
 10
-1100.996206988309
 20
886.8981113922473
 30
-352.4808268814059
 70
    64
  0
VERTEX
  5
4FF0
330
4FE9
100
AcDbEntity
  8
0
100
AcDbVertex
100
AcDbPolygonMeshVertex
 10
-1100.996206988309
 20
927.53756490271
 30
-342.955826881406
 70
    64
  0
VERTEX
  5
4FF1
330
4FE9
100
AcDbEntity
  8
0
100
AcDbVertex
100
AcDbPolygonMeshVertex
 10
-1100.996206988309
 20
927.53756490271
 30
-352.4808268814059
 70
    64
  0
VERTEX
  5
4FF2
330
4FE9
100
AcDbEntity
  8
0
100
AcDbVertex
100
AcDbPolygonMeshVertex
 10
-1100.996206988309
 20
886.8981113922473
 30
-352.4808268814059
 70
    64
  0
VERTEX
  5
4FF3
330
4FE9
100
AcDbEntity
  8
0
100
AcDbVertex
100
AcDbPolygonMeshVertex
 10
-1091.751218390446
 20
927.53756490271
 30
-342.955826881406
 70
    64
  0
VERTEX
  5
4FF4
330
4FE9
100
AcDbEntity
  8
0
100
AcDbVertex
100
AcDbPolygonMeshVertex
 10
-1091.751218390446
 20
927.53756490271
 30
-352.4808268814059
 70
    64
  0
VERTEX
  5
4FF5
330
4FE9
100
AcDbEntity
  8
0
100
AcDbVertex
100
AcDbPolygonMeshVertex
 10
-1091.751218390446
 20
886.8981113922473
 30
-352.4808268814059
 70
    64
  0
VERTEX
  5
4FF6
330
4FE9
100
AcDbEntity
  8
0
100
AcDbVertex
100
AcDbPolygonMeshVertex
 10
-1091.751218390446
 20
927.53756490271
 30
-342.955826881406
 70
    64
  0
VERTEX
  5
4FF7
330
4FE9
100
AcDbEntity
  8
0
100
AcDbVertex
100
AcDbPolygonMeshVertex
 10
-1091.751218390446
 20
927.53756490271
 30
-342.955826881406
 70
    64
  0
VERTEX
  5
4FF8
330
4FE9
100
AcDbEntity
  8
0
100
AcDbVertex
100
AcDbPolygonMeshVertex
 10
-1091.751218390446
 20
886.8981113922473
 30
-342.955826881406
 70
    64
  0
VERTEX
  5
4FF9
330
4FE9
100
AcDbEntity
  8
0
100
AcDbVertex
100
AcDbPolygonMeshVertex
 10
-1100.996206988309
 20
927.53756490271
 30
-342.955826881406
 70
    64
  0
VERTEX
  5
4FFA
330
4FE9
100
AcDbEntity
  8
0
100
AcDbVertex
100
AcDbPolygonMeshVertex
 10
-1100.996206988309
 20
927.53756490271
 30
-342.955826881406
 70
    64
  0
VERTEX
  5
4FFB
330
4FE9
100
AcDbEntity
  8
0
100
AcDbVertex
100
AcDbPolygonMeshVertex
 10
-1100.996206988309
 20
886.8981113922473
 30
-342.955826881406
 70
    64
  0
SEQEND
  5
4FFC
330
4FE9
100
AcDbEntity
  8
0
  0
LINE
  5
4FFD
330
1F
100
AcDbEntity
  8
0
100
AcDbLine
 10
-1101.085646340615
 20
941.761543081837
 30
-352.7348268814058
 11
-1101.085646340615
 21
941.761543081837
 31
-353.7508268814058
  0
POLYLINE
  5
4FFE
330
1F
100
AcDbEntity
  8
0
100
AcDbPolygonMesh
 66
     1
 10
0.0
 20
0.0
 30
0.0
 70
    16
 71
     6
 72
     3
  0
VERTEX
  5
4FFF
330
4FFE
100
AcDbEntity
  8
0
100
AcDbVertex
100
AcDbPolygonMeshVertex
 10
-1030.295846340615
 20
788.8535430818369
 30
-352.7348268814059
 70
    64
  0
VERTEX
  5
5000
330
4FFE
100
AcDbEntity
  8
0
100
AcDbVertex
100
AcDbPolygonMeshVertex
 10
-1030.295846340615
 20
788.8535430818369
 30
-353.7508268814058
 70
    64
  0
VERTEX
  5
5001
330
4FFE
100
AcDbEntity
  8
0
100
AcDbVertex
100
AcDbPolygonMeshVertex
 10
-1030.295846340615
 20
788.8535430818369
 30
-353.7508268814058
 70
    64
  0
VERTEX
  5
5002
330
4FFE
100
AcDbEntity
  8
0
100
AcDbVertex
100
AcDbPolygonMeshVertex
 10
-1041.319446340615
 20
788.8535430818369
 30
-352.7348268814059
 70
    64
  0
VERTEX
  5
5003
330
4FFE
100
AcDbEntity
  8
0
100
AcDbVertex
100
AcDbPolygonMeshVertex
 10
-1041.319446340615
 20
788.8535430818369
 30
-353.7508268814058
 70
    64
  0
VERTEX
  5
5004
330
4FFE
100
AcDbEntity
  8
0
100
AcDbVertex
100
AcDbPolygonMeshVertex
 10
-1041.319446340615
 20
788.8535430818369
 30
-353.7508268814058
 70
    64
  0
VERTEX
  5
5005
330
4FFE
100
AcDbEntity
  8
0
100
AcDbVertex
100
AcDbPolygonMeshVertex
 10
-1041.319446340615
 20
802.8235430818369
 30
-352.7348268814059
 70
    64
  0
VERTEX
  5
5006
330
4FFE
100
AcDbEntity
  8
0
100
AcDbVertex
100
AcDbPolygonMeshVertex
 10
-1041.319446340615
 20
802.8235430818369
 30
-353.7508268814058
 70
    64
  0
VERTEX
  5
5007
330
4FFE
100
AcDbEntity
  8
0
100
AcDbVertex
100
AcDbPolygonMeshVertex
 10
-1041.319446340615
 20
788.8535430818369
 30
-353.7508268814058
 70
    64
  0
VERTEX
  5
5008
330
4FFE
100
AcDbEntity
  8
0
100
AcDbVertex
100
AcDbPolygonMeshVertex
 10
-1030.295846340615
 20
802.8235430818369
 30
-352.7348268814059
 70
    64
  0
VERTEX
  5
5009
330
4FFE
100
AcDbEntity
  8
0
100
AcDbVertex
100
AcDbPolygonMeshVertex
 10
-1030.295846340615
 20
802.8235430818369
 30
-353.7508268814058
 70
    64
  0
VERTEX
  5
500A
330
4FFE
100
AcDbEntity
  8
0
100
AcDbVertex
100
AcDbPolygonMeshVertex
 10
-1030.295846340615
 20
788.8535430818369
 30
-353.7508268814058
 70
    64
  0
VERTEX
  5
500B
330
4FFE
100
AcDbEntity
  8
0
100
AcDbVertex
100
AcDbPolygonMeshVertex
 10
-1030.295846340615
 20
802.8235430818369
 30
-352.7348268814059
 70
    64
  0
VERTEX
  5
500C
330
4FFE
100
AcDbEntity
  8
0
100
AcDbVertex
100
AcDbPolygonMeshVertex
 10
-1030.295846340615
 20
802.8235430818369
 30
-352.7348268814059
 70
    64
  0
VERTEX
  5
500D
330
4FFE
100
AcDbEntity
  8
0
100
AcDbVertex
100
AcDbPolygonMeshVertex
 10
-1030.295846340615
 20
788.8535430818369
 30
-352.7348268814059
 70
    64
  0
VERTEX
  5
500E
330
4FFE
100
AcDbEntity
  8
0
100
AcDbVertex
100
AcDbPolygonMeshVertex
 10
-1041.319446340615
 20
802.8235430818369
 30
-352.7348268814059
 70
    64
  0
VERTEX
  5
500F
330
4FFE
100
AcDbEntity
  8
0
100
AcDbVertex
100
AcDbPolygonMeshVertex
 10
-1041.319446340615
 20
802.8235430818369
 30
-352.7348268814059
 70
    64
  0
VERTEX
  5
5010
330
4FFE
100
AcDbEntity
  8
0
100
AcDbVertex
100
AcDbPolygonMeshVertex
 10
-1041.319446340615
 20
788.8535430818369
 30
-352.7348268814059
 70
    64
  0
SEQEND
  5
5011
330
4FFE
100
AcDbEntity
  8
0
  0
CIRCLE
  5
5012
330
1F
100
AcDbEntity
  8
0
100
AcDbCircle
 39
1.016
 10
-1035.807646340615
 20
795.2035430818369
 30
-353.7508268814058
 40
2.755899999999993
  0
POINT
  5
5013
330
1F
100
AcDbEntity
  8
SNAP_POINTS
100
AcDbPoint
 10
-1045.586808809966
 20
806.5579738026496
 30
-352.4808268814059
  0
POINT
  5
5014
330
1F
100
AcDbEntity
  8
SNAP_POINTS
100
AcDbPoint
 10
-1010.661808809967
 20
806.5579738026496
 30
-352.4808268814059
  0
POLYLINE
  5
5015
330
1F
100
AcDbEntity
  8
0
100
AcDbPolygonMesh
 66
     1
 10
0.0
 20
0.0
 30
0.0
 70
    16
 71
     6
 72
     3
  0
VERTEX
  5
5016
330
5015
100
AcDbEntity
  8
0
100
AcDbVertex
100
AcDbPolygonMeshVertex
 10
-1011.805886003406
 20
886.8981113922474
 30
-342.9558268814058
 70
    64
  0
VERTEX
  5
5017
330
5015
100
AcDbEntity
  8
0
100
AcDbVertex
100
AcDbPolygonMeshVertex
 10
-1011.805886003406
 20
886.8981113922474
 30
-352.4808268814059
 70
    64
  0
VERTEX
  5
5018
330
5015
100
AcDbEntity
  8
0
100
AcDbVertex
100
AcDbPolygonMeshVertex
 10
-1011.805886003406
 20
886.8981113922474
 30
-352.4808268814059
 70
    64
  0
VERTEX
  5
5019
330
5015
100
AcDbEntity
  8
0
100
AcDbVertex
100
AcDbPolygonMeshVertex
 10
-1021.965274601269
 20
886.8981113922474
 30
-342.9558268814058
 70
    64
  0
VERTEX
  5
501A
330
5015
100
AcDbEntity
  8
0
100
AcDbVertex
100
AcDbPolygonMeshVertex
 10
-1021.965274601269
 20
886.8981113922474
 30
-352.4808268814059
 70
    64
  0
VERTEX
  5
501B
330
5015
100
AcDbEntity
  8
0
100
AcDbVertex
100
AcDbPolygonMeshVertex
 10
-1021.965274601269
 20
886.8981113922474
 30
-352.4808268814059
 70
    64
  0
VERTEX
  5
501C
330
5015
100
AcDbEntity
  8
0
100
AcDbVertex
100
AcDbPolygonMeshVertex
 10
-1021.965274601269
 20
927.5375649027102
 30
-342.9558268814058
 70
    64
  0
VERTEX
  5
501D
330
5015
100
AcDbEntity
  8
0
100
AcDbVertex
100
AcDbPolygonMeshVertex
 10
-1021.965274601269
 20
927.5375649027102
 30
-352.4808268814059
 70
    64
  0
VERTEX
  5
501E
330
5015
100
AcDbEntity
  8
0
100
AcDbVertex
100
AcDbPolygonMeshVertex
 10
-1021.965274601269
 20
886.8981113922474
 30
-352.4808268814059
 70
    64
  0
VERTEX
  5
501F
330
5015
100
AcDbEntity
  8
0
100
AcDbVertex
100
AcDbPolygonMeshVertex
 10
-1011.805886003406
 20
927.5375649027102
 30
-342.9558268814058
 70
    64
  0
VERTEX
  5
5020
330
5015
100
AcDbEntity
  8
0
100
AcDbVertex
100
AcDbPolygonMeshVertex
 10
-1011.805886003406
 20
927.5375649027102
 30
-352.4808268814059
 70
    64
  0
VERTEX
  5
5021
330
5015
100
AcDbEntity
  8
0
100
AcDbVertex
100
AcDbPolygonMeshVertex
 10
-1011.805886003406
 20
886.8981113922474
 30
-352.4808268814059
 70
    64
  0
VERTEX
  5
5022
330
5015
100
AcDbEntity
  8
0
100
AcDbVertex
100
AcDbPolygonMeshVertex
 10
-1011.805886003406
 20
927.5375649027102
 30
-342.9558268814058
 70
    64
  0
VERTEX
  5
5023
330
5015
100
AcDbEntity
  8
0
100
AcDbVertex
100
AcDbPolygonMeshVertex
 10
-1011.805886003406
 20
927.5375649027102
 30
-342.9558268814058
 70
    64
  0
VERTEX
  5
5024
330
5015
100
AcDbEntity
  8
0
100
AcDbVertex
100
AcDbPolygonMeshVertex
 10
-1011.805886003406
 20
886.8981113922474
 30
-342.9558268814058
 70
    64
  0
VERTEX
  5
5025
330
5015
100
AcDbEntity
  8
0
100
AcDbVertex
100
AcDbPolygonMeshVertex
 10
-1021.965274601269
 20
927.5375649027102
 30
-342.9558268814058
 70
    64
  0
VERTEX
  5
5026
330
5015
100
AcDbEntity
  8
0
100
AcDbVertex
100
AcDbPolygonMeshVertex
 10
-1021.965274601269
 20
927.5375649027102
 30
-342.9558268814058
 70
    64
  0
VERTEX
  5
5027
330
5015
100
AcDbEntity
  8
0
100
AcDbVertex
100
AcDbPolygonMeshVertex
 10
-1021.965274601269
 20
886.8981113922474
 30
-342.9558268814058
 70
    64
  0
SEQEND
  5
5028
330
5015
100
AcDbEntity
  8
0
  0
ARC
  5
5029
330
1F
100
AcDbEntity
  8
0
100
AcDbCircle
 39
1.016
 10
-1035.807646340615
 20
953.1915430818369
 30
-353.7508268814058
 40
2.7559
100
AcDbArc
 50
356.7827327525303
 51
183.217267247463
  0
ARC
  5
502A
330
1F
100
AcDbEntity
  8
0
100
AcDbCircle
 39
1.016
 10
-1035.807646340615
 20
948.2756740215723
 30
-353.7508268814058
 40
5.499100000000003
100
AcDbArc
 50
120.0241420378339
 51
59.97585796216604
  0
LINE
  5
502B
330
1F
100
AcDbEntity
  8
0
100
AcDbLine
 10
-1041.319446340615
 20
959.7955430818368
 30
-352.7348268814059
 11
-1043.859446340615
 21
959.7955430818368
 31
-352.7348268814059
  0
LINE
  5
502C
330
1F
100
AcDbEntity
  8
0
100
AcDbLine
 10
-1041.319446340615
 20
959.795543081837
 30
-353.7508268814058
 11
-1043.859446340615
 21
959.795543081837
 31
-353.7508268814058
  0
LINE
  5
502D
330
1F
100
AcDbEntity
  8
0
100
AcDbLine
 10
-1027.755846340615
 20
959.795543081837
 30
-353.7508268814058
 11
-1030.295846340615
 21
959.795543081837
 31
-353.7508268814058
  0
POLYLINE
  5
502E
330
1F
100
AcDbEntity
  8
0
100
AcDbPolygonMesh
 66
     1
 10
0.0
 20
0.0
 30
0.0
 70
    16
 71
     6
 72
     3
  0
VERTEX
  5
502F
330
502E
100
AcDbEntity
  8
0
100
AcDbVertex
100
AcDbPolygonMeshVertex
 10
-973.7554463406153
 20
942.7775430818369
 30
-352.7348268814059
 70
    64
  0
VERTEX
  5
5030
330
502E
100
AcDbEntity
  8
0
100
AcDbVertex
100
AcDbPolygonMeshVertex
 10
-973.7554463406153
 20
942.7775430818369
 30
-353.7508268814058
 70
    64
  0
VERTEX
  5
5031
330
502E
100
AcDbEntity
  8
0
100
AcDbVertex
100
AcDbPolygonMeshVertex
 10
-973.7554463406153
 20
942.7775430818369
 30
-353.7508268814058
 70
    64
  0
VERTEX
  5
5032
330
502E
100
AcDbEntity
  8
0
100
AcDbVertex
100
AcDbPolygonMeshVertex
 10
-973.7554463406153
 20
959.795543081837
 30
-352.7348268814059
 70
    64
  0
VERTEX
  5
5033
330
502E
100
AcDbEntity
  8
0
100
AcDbVertex
100
AcDbPolygonMeshVertex
 10
-973.7554463406153
 20
959.795543081837
 30
-353.7508268814058
 70
    64
  0
VERTEX
  5
5034
330
502E
100
AcDbEntity
  8
0
100
AcDbVertex
100
AcDbPolygonMeshVertex
 10
-973.7554463406153
 20
959.795543081837
 30
-353.7508268814058
 70
    64
  0
VERTEX
  5
5035
330
502E
100
AcDbEntity
  8
0
100
AcDbVertex
100
AcDbPolygonMeshVertex
 10
-957.6518463406156
 20
959.795543081837
 30
-352.7348268814059
 70
    64
  0
VERTEX
  5
5036
330
502E
100
AcDbEntity
  8
0
100
AcDbVertex
100
AcDbPolygonMeshVertex
 10
-957.6518463406156
 20
959.795543081837
 30
-353.7508268814058
 70
    64
  0
VERTEX
  5
5037
330
502E
100
AcDbEntity
  8
0
100
AcDbVertex
100
AcDbPolygonMeshVertex
 10
-973.7554463406153
 20
959.795543081837
 30
-353.7508268814058
 70
    64
  0
VERTEX
  5
5038
330
502E
100
AcDbEntity
  8
0
100
AcDbVertex
100
AcDbPolygonMeshVertex
 10
-957.6518463406156
 20
942.7775430818369
 30
-352.7348268814059
 70
    64
  0
VERTEX
  5
5039
330
502E
100
AcDbEntity
  8
0
100
AcDbVertex
100
AcDbPolygonMeshVertex
 10
-957.6518463406156
 20
942.7775430818369
 30
-353.7508268814058
 70
    64
  0
VERTEX
  5
503A
330
502E
100
AcDbEntity
  8
0
100
AcDbVertex
100
AcDbPolygonMeshVertex
 10
-973.7554463406153
 20
942.7775430818369
 30
-353.7508268814058
 70
    64
  0
VERTEX
  5
503B
330
502E
100
AcDbEntity
  8
0
100
AcDbVertex
100
AcDbPolygonMeshVertex
 10
-957.6518463406156
 20
942.7775430818369
 30
-352.7348268814059
 70
    64
  0
VERTEX
  5
503C
330
502E
100
AcDbEntity
  8
0
100
AcDbVertex
100
AcDbPolygonMeshVertex
 10
-957.6518463406156
 20
942.7775430818369
 30
-352.7348268814059
 70
    64
  0
VERTEX
  5
503D
330
502E
100
AcDbEntity
  8
0
100
AcDbVertex
100
AcDbPolygonMeshVertex
 10
-973.7554463406153
 20
942.7775430818369
 30
-352.7348268814059
 70
    64
  0
VERTEX
  5
503E
330
502E
100
AcDbEntity
  8
0
100
AcDbVertex
100
AcDbPolygonMeshVertex
 10
-957.6518463406156
 20
959.795543081837
 30
-352.7348268814059
 70
    64
  0
VERTEX
  5
503F
330
502E
100
AcDbEntity
  8
0
100
AcDbVertex
100
AcDbPolygonMeshVertex
 10
-957.6518463406156
 20
959.795543081837
 30
-352.7348268814059
 70
    64
  0
VERTEX
  5
5040
330
502E
100
AcDbEntity
  8
0
100
AcDbVertex
100
AcDbPolygonMeshVertex
 10
-973.7554463406153
 20
959.795543081837
 30
-352.7348268814059
 70
    64
  0
SEQEND
  5
5041
330
502E
100
AcDbEntity
  8
0
  0
POLYLINE
  5
5042
330
1F
100
AcDbEntity
  8
0
100
AcDbPolygonMesh
 66
     1
 10
0.0
 20
0.0
 30
0.0
 70
    16
 71
     6
 72
     3
  0
VERTEX
  5
5043
330
5042
100
AcDbEntity
  8
0
100
AcDbVertex
100
AcDbPolygonMeshVertex
 10
-930.9056463406152
 20
802.8235430818369
 30
-208.7168268814059
 70
    64
  0
VERTEX
  5
5044
330
5042
100
AcDbEntity
  8
0
100
AcDbVertex
100
AcDbPolygonMeshVertex
 10
-930.9056463406152
 20
802.8235430818369
 30
-353.7508268814058
 70
    64
  0
VERTEX
  5
5045
330
5042
100
AcDbEntity
  8
0
100
AcDbVertex
100
AcDbPolygonMeshVertex
 10
-930.9056463406152
 20
802.8235430818369
 30
-353.7508268814058
 70
    64
  0
VERTEX
  5
5046
330
5042
100
AcDbEntity
  8
0
100
AcDbVertex
100
AcDbPolygonMeshVertex
 10
-930.9056463406152
 20
812.9835430818369
 30
-208.7168268814059
 70
    64
  0
VERTEX
  5
5047
330
5042
100
AcDbEntity
  8
0
100
AcDbVertex
100
AcDbPolygonMeshVertex
 10
-930.9056463406152
 20
812.9835430818369
 30
-353.7508268814058
 70
    64
  0
VERTEX
  5
5048
330
5042
100
AcDbEntity
  8
0
100
AcDbVertex
100
AcDbPolygonMeshVertex
 10
-930.9056463406152
 20
812.9835430818369
 30
-353.7508268814058
 70
    64
  0
VERTEX
  5
5049
330
5042
100
AcDbEntity
  8
0
100
AcDbVertex
100
AcDbPolygonMeshVertex
 10
-920.7456463406154
 20
812.9835430818369
 30
-208.7168268814059
 70
    64
  0
VERTEX
  5
504A
330
5042
100
AcDbEntity
  8
0
100
AcDbVertex
100
AcDbPolygonMeshVertex
 10
-920.7456463406154
 20
812.9835430818369
 30
-353.7508268814058
 70
    64
  0
VERTEX
  5
504B
330
5042
100
AcDbEntity
  8
0
100
AcDbVertex
100
AcDbPolygonMeshVertex
 10
-930.9056463406152
 20
812.9835430818369
 30
-353.7508268814058
 70
    64
  0
VERTEX
  5
504C
330
5042
100
AcDbEntity
  8
0
100
AcDbVertex
100
AcDbPolygonMeshVertex
 10
-930.9056463406152
 20
802.8235430818369
 30
-208.7168268814059
 70
    64
  0
VERTEX
  5
504D
330
5042
100
AcDbEntity
  8
0
100
AcDbVertex
100
AcDbPolygonMeshVertex
 10
-930.9056463406152
 20
802.8235430818369
 30
-353.7508268814058
 70
    64
  0
VERTEX
  5
504E
330
5042
100
AcDbEntity
  8
0
100
AcDbVertex
100
AcDbPolygonMeshVertex
 10
-930.9056463406152
 20
802.8235430818369
 30
-353.7508268814058
 70
    64
  0
VERTEX
  5
504F
330
5042
100
AcDbEntity
  8
0
100
AcDbVertex
100
AcDbPolygonMeshVertex
 10
-930.9056463406152
 20
802.8235430818369
 30
-208.7168268814059
 70
    64
  0
VERTEX
  5
5050
330
5042
100
AcDbEntity
  8
0
100
AcDbVertex
100
AcDbPolygonMeshVertex
 10
-930.9056463406152
 20
802.8235430818369
 30
-208.7168268814059
 70
    64
  0
VERTEX
  5
5051
330
5042
100
AcDbEntity
  8
0
100
AcDbVertex
100
AcDbPolygonMeshVertex
 10
-930.9056463406152
 20
802.8235430818369
 30
-208.7168268814059
 70
    64
  0
VERTEX
  5
5052
330
5042
100
AcDbEntity
  8
0
100
AcDbVertex
100
AcDbPolygonMeshVertex
 10
-920.7456463406154
 20
812.9835430818369
 30
-208.7168268814059
 70
    64
  0
VERTEX
  5
5053
330
5042
100
AcDbEntity
  8
0
100
AcDbVertex
100
AcDbPolygonMeshVertex
 10
-920.7456463406154
 20
812.9835430818369
 30
-208.7168268814059
 70
    64
  0
VERTEX
  5
5054
330
5042
100
AcDbEntity
  8
0
100
AcDbVertex
100
AcDbPolygonMeshVertex
 10
-930.9056463406152
 20
812.9835430818369
 30
-208.7168268814059
 70
    64
  0
SEQEND
  5
5055
330
5042
100
AcDbEntity
  8
0
  0
POLYLINE
  5
5056
330
1F
100
AcDbEntity
  8
0
100
AcDbPolygonMesh
 66
     1
 10
0.0
 20
0.0
 30
0.0
 70
    16
 71
     6
 72
     3
  0
VERTEX
  5
5057
330
5056
100
AcDbEntity
  8
0
100
AcDbVertex
100
AcDbPolygonMeshVertex
 10
-920.7456463406154
 20
932.6175430818368
 30
-208.7168268814059
 70
    64
  0
VERTEX
  5
5058
330
5056
100
AcDbEntity
  8
0
100
AcDbVertex
100
AcDbPolygonMeshVertex
 10
-920.7456463406154
 20
932.6175430818368
 30
-353.7508268814058
 70
    64
  0
VERTEX
  5
5059
330
5056
100
AcDbEntity
  8
0
100
AcDbVertex
100
AcDbPolygonMeshVertex
 10
-920.7456463406154
 20
932.6175430818368
 30
-353.7508268814058
 70
    64
  0
VERTEX
  5
505A
330
5056
100
AcDbEntity
  8
0
100
AcDbVertex
100
AcDbPolygonMeshVertex
 10
-930.9056463406152
 20
932.6175430818368
 30
-208.7168268814059
 70
    64
  0
VERTEX
  5
505B
330
5056
100
AcDbEntity
  8
0
100
AcDbVertex
100
AcDbPolygonMeshVertex
 10
-930.9056463406152
 20
932.6175430818368
 30
-353.7508268814058
 70
    64
  0
VERTEX
  5
505C
330
5056
100
AcDbEntity
  8
0
100
AcDbVertex
100
AcDbPolygonMeshVertex
 10
-930.9056463406152
 20
932.6175430818368
 30
-353.7508268814058
 70
    64
  0
VERTEX
  5
505D
330
5056
100
AcDbEntity
  8
0
100
AcDbVertex
100
AcDbPolygonMeshVertex
 10
-930.9056463406152
 20
942.7775430818369
 30
-208.7168268814059
 70
    64
  0
VERTEX
  5
505E
330
5056
100
AcDbEntity
  8
0
100
AcDbVertex
100
AcDbPolygonMeshVertex
 10
-930.9056463406152
 20
942.7775430818369
 30
-353.7508268814058
 70
    64
  0
VERTEX
  5
505F
330
5056
100
AcDbEntity
  8
0
100
AcDbVertex
100
AcDbPolygonMeshVertex
 10
-930.9056463406152
 20
932.6175430818368
 30
-353.7508268814058
 70
    64
  0
VERTEX
  5
5060
330
5056
100
AcDbEntity
  8
0
100
AcDbVertex
100
AcDbPolygonMeshVertex
 10
-920.7456463406154
 20
932.6175430818368
 30
-208.7168268814059
 70
    64
  0
VERTEX
  5
5061
330
5056
100
AcDbEntity
  8
0
100
AcDbVertex
100
AcDbPolygonMeshVertex
 10
-920.7456463406154
 20
932.6175430818368
 30
-353.7508268814058
 70
    64
  0
VERTEX
  5
5062
330
5056
100
AcDbEntity
  8
0
100
AcDbVertex
100
AcDbPolygonMeshVertex
 10
-920.7456463406154
 20
932.6175430818368
 30
-353.7508268814058
 70
    64
  0
VERTEX
  5
5063
330
5056
100
AcDbEntity
  8
0
100
AcDbVertex
100
AcDbPolygonMeshVertex
 10
-920.7456463406154
 20
932.6175430818368
 30
-208.7168268814059
 70
    64
  0
VERTEX
  5
5064
330
5056
100
AcDbEntity
  8
0
100
AcDbVertex
100
AcDbPolygonMeshVertex
 10
-920.7456463406154
 20
932.6175430818368
 30
-208.7168268814059
 70
    64
  0
VERTEX
  5
5065
330
5056
100
AcDbEntity
  8
0
100
AcDbVertex
100
AcDbPolygonMeshVertex
 10
-920.7456463406154
 20
932.6175430818368
 30
-208.7168268814059
 70
    64
  0
VERTEX
  5
5066
330
5056
100
AcDbEntity
  8
0
100
AcDbVertex
100
AcDbPolygonMeshVertex
 10
-930.9056463406152
 20
942.7775430818369
 30
-208.7168268814059
 70
    64
  0
VERTEX
  5
5067
330
5056
100
AcDbEntity
  8
0
100
AcDbVertex
100
AcDbPolygonMeshVertex
 10
-930.9056463406152
 20
942.7775430818369
 30
-208.7168268814059
 70
    64
  0
VERTEX
  5
5068
330
5056
100
AcDbEntity
  8
0
100
AcDbVertex
100
AcDbPolygonMeshVertex
 10
-930.9056463406152
 20
932.6175430818368
 30
-208.7168268814059
 70
    64
  0
SEQEND
  5
5069
330
5056
100
AcDbEntity
  8
0
  0
POLYLINE
  5
506A
330
1F
100
AcDbEntity
  8
0
100
AcDbPolygonMesh
 66
     1
 10
0.0
 20
0.0
 30
0.0
 70
    16
 71
     6
 72
     3
  0
VERTEX
  5
506B
330
506A
100
AcDbEntity
  8
0
100
AcDbVertex
100
AcDbPolygonMeshVertex
 10
-976.8798088099668
 20
940.9481123610246
 30
-276.2808268814059
 70
    64
  0
VERTEX
  5
506C
330
506A
100
AcDbEntity
  8
0
100
AcDbVertex
100
AcDbPolygonMeshVertex
 10
-976.8798088099668
 20
940.9481123610246
 30
-352.4808268814059
 70
    64
  0
VERTEX
  5
506D
330
506A
100
AcDbEntity
  8
0
100
AcDbVertex
100
AcDbPolygonMeshVertex
 10
-976.8798088099668
 20
940.9481123610246
 30
-352.4808268814059
 70
    64
  0
VERTEX
  5
506E
330
506A
100
AcDbEntity
  8
0
100
AcDbVertex
100
AcDbPolygonMeshVertex
 10
-979.4198088099669
 20
940.9481123610246
 30
-276.2808268814059
 70
    64
  0
VERTEX
  5
506F
330
506A
100
AcDbEntity
  8
0
100
AcDbVertex
100
AcDbPolygonMeshVertex
 10
-979.4198088099669
 20
940.9481123610246
 30
-352.4808268814059
 70
    64
  0
VERTEX
  5
5070
330
506A
100
AcDbEntity
  8
0
100
AcDbVertex
100
AcDbPolygonMeshVertex
 10
-979.4198088099669
 20
940.9481123610246
 30
-352.4808268814059
 70
    64
  0
VERTEX
  5
5071
330
506A
100
AcDbEntity
  8
0
100
AcDbVertex
100
AcDbPolygonMeshVertex
 10
-979.4198088099669
 20
935.8681123610244
 30
-276.2808268814059
 70
    64
  0
VERTEX
  5
5072
330
506A
100
AcDbEntity
  8
0
100
AcDbVertex
100
AcDbPolygonMeshVertex
 10
-979.4198088099669
 20
935.8681123610244
 30
-352.4808268814059
 70
    64
  0
VERTEX
  5
5073
330
506A
100
AcDbEntity
  8
0
100
AcDbVertex
100
AcDbPolygonMeshVertex
 10
-979.4198088099669
 20
940.9481123610246
 30
-352.4808268814059
 70
    64
  0
VERTEX
  5
5074
330
506A
100
AcDbEntity
  8
0
100
AcDbVertex
100
AcDbPolygonMeshVertex
 10
-976.8798088099668
 20
935.8681123610244
 30
-276.2808268814059
 70
    64
  0
VERTEX
  5
5075
330
506A
100
AcDbEntity
  8
0
100
AcDbVertex
100
AcDbPolygonMeshVertex
 10
-976.8798088099668
 20
935.8681123610244
 30
-352.4808268814059
 70
    64
  0
VERTEX
  5
5076
330
506A
100
AcDbEntity
  8
0
100
AcDbVertex
100
AcDbPolygonMeshVertex
 10
-976.8798088099668
 20
940.9481123610246
 30
-352.4808268814059
 70
    64
  0
VERTEX
  5
5077
330
506A
100
AcDbEntity
  8
0
100
AcDbVertex
100
AcDbPolygonMeshVertex
 10
-976.8798088099668
 20
935.8681123610244
 30
-276.2808268814059
 70
    64
  0
VERTEX
  5
5078
330
506A
100
AcDbEntity
  8
0
100
AcDbVertex
100
AcDbPolygonMeshVertex
 10
-976.8798088099668
 20
935.8681123610244
 30
-276.2808268814059
 70
    64
  0
VERTEX
  5
5079
330
506A
100
AcDbEntity
  8
0
100
AcDbVertex
100
AcDbPolygonMeshVertex
 10
-976.8798088099668
 20
940.9481123610246
 30
-276.2808268814059
 70
    64
  0
VERTEX
  5
507A
330
506A
100
AcDbEntity
  8
0
100
AcDbVertex
100
AcDbPolygonMeshVertex
 10
-979.4198088099669
 20
935.8681123610244
 30
-276.2808268814059
 70
    64
  0
VERTEX
  5
507B
330
506A
100
AcDbEntity
  8
0
100
AcDbVertex
100
AcDbPolygonMeshVertex
 10
-979.4198088099669
 20
935.8681123610244
 30
-276.2808268814059
 70
    64
  0
VERTEX
  5
507C
330
506A
100
AcDbEntity
  8
0
100
AcDbVertex
100
AcDbPolygonMeshVertex
 10
-979.4198088099669
 20
940.9481123610246
 30
-276.2808268814059
 70
    64
  0
SEQEND
  5
507D
330
506A
100
AcDbEntity
  8
0
  0
POLYLINE
  5
507E
330
1F
100
AcDbEntity
  8
0
100
AcDbPolygonMesh
 66
     1
 10
0.0
 20
0.0
 30
0.0
 70
    16
 71
     6
 72
     3
  0
VERTEX
  5
507F
330
507E
100
AcDbEntity
  8
0
100
AcDbVertex
100
AcDbPolygonMeshVertex
 10
-972.0538088099669
 20
940.9481123610246
 30
-276.2808268814059
 70
    64
  0
VERTEX
  5
5080
330
507E
100
AcDbEntity
  8
0
100
AcDbVertex
100
AcDbPolygonMeshVertex
 10
-972.0538088099669
 20
940.9481123610246
 30
-352.4808268814059
 70
    64
  0
VERTEX
  5
5081
330
507E
100
AcDbEntity
  8
0
100
AcDbVertex
100
AcDbPolygonMeshVertex
 10
-972.0538088099669
 20
940.9481123610246
 30
-352.4808268814059
 70
    64
  0
VERTEX
  5
5082
330
507E
100
AcDbEntity
  8
0
100
AcDbVertex
100
AcDbPolygonMeshVertex
 10
-974.5938088099668
 20
940.9481123610246
 30
-276.2808268814059
 70
    64
  0
VERTEX
  5
5083
330
507E
100
AcDbEntity
  8
0
100
AcDbVertex
100
AcDbPolygonMeshVertex
 10
-974.5938088099668
 20
940.9481123610246
 30
-352.4808268814059
 70
    64
  0
VERTEX
  5
5084
330
507E
100
AcDbEntity
  8
0
100
AcDbVertex
100
AcDbPolygonMeshVertex
 10
-974.5938088099668
 20
940.9481123610246
 30
-352.4808268814059
 70
    64
  0
VERTEX
  5
5085
330
507E
100
AcDbEntity
  8
0
100
AcDbVertex
100
AcDbPolygonMeshVertex
 10
-974.5938088099668
 20
935.8681123610244
 30
-276.2808268814059
 70
    64
  0
VERTEX
  5
5086
330
507E
100
AcDbEntity
  8
0
100
AcDbVertex
100
AcDbPolygonMeshVertex
 10
-974.5938088099668
 20
935.8681123610244
 30
-352.4808268814059
 70
    64
  0
VERTEX
  5
5087
330
507E
100
AcDbEntity
  8
0
100
AcDbVertex
100
AcDbPolygonMeshVertex
 10
-974.5938088099668
 20
940.9481123610246
 30
-352.4808268814059
 70
    64
  0
VERTEX
  5
5088
330
507E
100
AcDbEntity
  8
0
100
AcDbVertex
100
AcDbPolygonMeshVertex
 10
-972.0538088099669
 20
935.8681123610244
 30
-276.2808268814059
 70
    64
  0
VERTEX
  5
5089
330
507E
100
AcDbEntity
  8
0
100
AcDbVertex
100
AcDbPolygonMeshVertex
 10
-972.0538088099669
 20
935.8681123610244
 30
-352.4808268814059
 70
    64
  0
VERTEX
  5
508A
330
507E
100
AcDbEntity
  8
0
100
AcDbVertex
100
AcDbPolygonMeshVertex
 10
-972.0538088099669
 20
940.9481123610246
 30
-352.4808268814059
 70
    64
  0
VERTEX
  5
508B
330
507E
100
AcDbEntity
  8
0
100
AcDbVertex
100
AcDbPolygonMeshVertex
 10
-972.0538088099669
 20
935.8681123610244
 30
-276.2808268814059
 70
    64
  0
VERTEX
  5
508C
330
507E
100
AcDbEntity
  8
0
100
AcDbVertex
100
AcDbPolygonMeshVertex
 10
-972.0538088099669
 20
935.8681123610244
 30
-276.2808268814059
 70
    64
  0
VERTEX
  5
508D
330
507E
100
AcDbEntity
  8
0
100
AcDbVertex
100
AcDbPolygonMeshVertex
 10
-972.0538088099669
 20
940.9481123610246
 30
-276.2808268814059
 70
    64
  0
VERTEX
  5
508E
330
507E
100
AcDbEntity
  8
0
100
AcDbVertex
100
AcDbPolygonMeshVertex
 10
-974.5938088099668
 20
935.8681123610244
 30
-276.2808268814059
 70
    64
  0
VERTEX
  5
508F
330
507E
100
AcDbEntity
  8
0
100
AcDbVertex
100
AcDbPolygonMeshVertex
 10
-974.5938088099668
 20
935.8681123610244
 30
-276.2808268814059
 70
    64
  0
VERTEX
  5
5090
330
507E
100
AcDbEntity
  8
0
100
AcDbVertex
100
AcDbPolygonMeshVertex
 10
-974.5938088099668
 20
940.9481123610246
 30
-276.2808268814059
 70
    64
  0
SEQEND
  5
5091
330
507E
100
AcDbEntity
  8
0
  0
POLYLINE
  5
5092
330
1F
100
AcDbEntity
  8
0
100
AcDbPolygonMesh
 66
     1
 10
0.0
 20
0.0
 30
0.0
 70
    16
 71
     6
 72
     3
  0
VERTEX
  5
5093
330
5092
100
AcDbEntity
  8
0
100
AcDbVertex
100
AcDbPolygonMeshVertex
 10
-974.5938088099668
 20
940.9481123610246
 30
-276.2808268814059
 70
    64
  0
VERTEX
  5
5094
330
5092
100
AcDbEntity
  8
0
100
AcDbVertex
100
AcDbPolygonMeshVertex
 10
-974.5938088099668
 20
940.9481123610246
 30
-352.4808268814059
 70
    64
  0
VERTEX
  5
5095
330
5092
100
AcDbEntity
  8
0
100
AcDbVertex
100
AcDbPolygonMeshVertex
 10
-974.5938088099668
 20
940.9481123610246
 30
-352.4808268814059
 70
    64
  0
VERTEX
  5
5096
330
5092
100
AcDbEntity
  8
0
100
AcDbVertex
100
AcDbPolygonMeshVertex
 10
-976.8798088099668
 20
940.9481123610246
 30
-276.2808268814059
 70
    64
  0
VERTEX
  5
5097
330
5092
100
AcDbEntity
  8
0
100
AcDbVertex
100
AcDbPolygonMeshVertex
 10
-976.8798088099668
 20
940.9481123610246
 30
-352.4808268814059
 70
    64
  0
VERTEX
  5
5098
330
5092
100
AcDbEntity
  8
0
100
AcDbVertex
100
AcDbPolygonMeshVertex
 10
-976.8798088099668
 20
940.9481123610246
 30
-352.4808268814059
 70
    64
  0
VERTEX
  5
5099
330
5092
100
AcDbEntity
  8
0
100
AcDbVertex
100
AcDbPolygonMeshVertex
 10
-976.8798088099668
 20
939.0431123610245
 30
-276.2808268814059
 70
    64
  0
VERTEX
  5
509A
330
5092
100
AcDbEntity
  8
0
100
AcDbVertex
100
AcDbPolygonMeshVertex
 10
-976.8798088099668
 20
939.0431123610245
 30
-352.4808268814059
 70
    64
  0
VERTEX
  5
509B
330
5092
100
AcDbEntity
  8
0
100
AcDbVertex
100
AcDbPolygonMeshVertex
 10
-976.8798088099668
 20
940.9481123610246
 30
-352.4808268814059
 70
    64
  0
VERTEX
  5
509C
330
5092
100
AcDbEntity
  8
0
100
AcDbVertex
100
AcDbPolygonMeshVertex
 10
-974.5938088099668
 20
939.0431123610245
 30
-276.2808268814059
 70
    64
  0
VERTEX
  5
509D
330
5092
100
AcDbEntity
  8
0
100
AcDbVertex
100
AcDbPolygonMeshVertex
 10
-974.5938088099668
 20
939.0431123610245
 30
-352.4808268814059
 70
    64
  0
VERTEX
  5
509E
330
5092
100
AcDbEntity
  8
0
100
AcDbVertex
100
AcDbPolygonMeshVertex
 10
-974.5938088099668
 20
940.9481123610246
 30
-352.4808268814059
 70
    64
  0
VERTEX
  5
509F
330
5092
100
AcDbEntity
  8
0
100
AcDbVertex
100
AcDbPolygonMeshVertex
 10
-974.5938088099668
 20
939.0431123610245
 30
-276.2808268814059
 70
    64
  0
VERTEX
  5
50A0
330
5092
100
AcDbEntity
  8
0
100
AcDbVertex
100
AcDbPolygonMeshVertex
 10
-974.5938088099668
 20
939.0431123610245
 30
-276.2808268814059
 70
    64
  0
VERTEX
  5
50A1
330
5092
100
AcDbEntity
  8
0
100
AcDbVertex
100
AcDbPolygonMeshVertex
 10
-974.5938088099668
 20
940.9481123610246
 30
-276.2808268814059
 70
    64
  0
VERTEX
  5
50A2
330
5092
100
AcDbEntity
  8
0
100
AcDbVertex
100
AcDbPolygonMeshVertex
 10
-976.8798088099668
 20
939.0431123610245
 30
-276.2808268814059
 70
    64
  0
VERTEX
  5
50A3
330
5092
100
AcDbEntity
  8
0
100
AcDbVertex
100
AcDbPolygonMeshVertex
 10
-976.8798088099668
 20
939.0431123610245
 30
-276.2808268814059
 70
    64
  0
VERTEX
  5
50A4
330
5092
100
AcDbEntity
  8
0
100
AcDbVertex
100
AcDbPolygonMeshVertex
 10
-976.8798088099668
 20
940.9481123610246
 30
-276.2808268814059
 70
    64
  0
SEQEND
  5
50A5
330
5092
100
AcDbEntity
  8
0
  0
POLYLINE
  5
50A6
330
1F
100
AcDbEntity
  8
0
100
AcDbPolygonMesh
 66
     1
 10
0.0
 20
0.0
 30
0.0
 70
    16
 71
     6
 72
     3
  0
VERTEX
  5
50A7
330
50A6
100
AcDbEntity
  8
0
100
AcDbVertex
100
AcDbPolygonMeshVertex
 10
-939.6688088099669
 20
940.9481123610245
 30
-276.2808268814059
 70
    64
  0
VERTEX
  5
50A8
330
50A6
100
AcDbEntity
  8
0
100
AcDbVertex
100
AcDbPolygonMeshVertex
 10
-939.6688088099669
 20
940.9481123610245
 30
-352.4808268814059
 70
    64
  0
VERTEX
  5
50A9
330
50A6
100
AcDbEntity
  8
0
100
AcDbVertex
100
AcDbPolygonMeshVertex
 10
-939.6688088099669
 20
940.9481123610245
 30
-352.4808268814059
 70
    64
  0
VERTEX
  5
50AA
330
50A6
100
AcDbEntity
  8
0
100
AcDbVertex
100
AcDbPolygonMeshVertex
 10
-941.9548088099668
 20
940.9481123610245
 30
-276.2808268814059
 70
    64
  0
VERTEX
  5
50AB
330
50A6
100
AcDbEntity
  8
0
100
AcDbVertex
100
AcDbPolygonMeshVertex
 10
-941.9548088099668
 20
940.9481123610245
 30
-352.4808268814059
 70
    64
  0
VERTEX
  5
50AC
330
50A6
100
AcDbEntity
  8
0
100
AcDbVertex
100
AcDbPolygonMeshVertex
 10
-941.9548088099668
 20
940.9481123610245
 30
-352.4808268814059
 70
    64
  0
VERTEX
  5
50AD
330
50A6
100
AcDbEntity
  8
0
100
AcDbVertex
100
AcDbPolygonMeshVertex
 10
-941.9548088099668
 20
939.0431123610245
 30
-276.2808268814059
 70
    64
  0
VERTEX
  5
50AE
330
50A6
100
AcDbEntity
  8
0
100
AcDbVertex
100
AcDbPolygonMeshVertex
 10
-941.9548088099668
 20
939.0431123610245
 30
-352.4808268814059
 70
    64
  0
VERTEX
  5
50AF
330
50A6
100
AcDbEntity
  8
0
100
AcDbVertex
100
AcDbPolygonMeshVertex
 10
-941.9548088099668
 20
940.9481123610245
 30
-352.4808268814059
 70
    64
  0
VERTEX
  5
50B0
330
50A6
100
AcDbEntity
  8
0
100
AcDbVertex
100
AcDbPolygonMeshVertex
 10
-939.6688088099669
 20
939.0431123610245
 30
-276.2808268814059
 70
    64
  0
VERTEX
  5
50B1
330
50A6
100
AcDbEntity
  8
0
100
AcDbVertex
100
AcDbPolygonMeshVertex
 10
-939.6688088099669
 20
939.0431123610245
 30
-352.4808268814059
 70
    64
  0
VERTEX
  5
50B2
330
50A6
100
AcDbEntity
  8
0
100
AcDbVertex
100
AcDbPolygonMeshVertex
 10
-939.6688088099669
 20
940.9481123610245
 30
-352.4808268814059
 70
    64
  0
VERTEX
  5
50B3
330
50A6
100
AcDbEntity
  8
0
100
AcDbVertex
100
AcDbPolygonMeshVertex
 10
-939.6688088099669
 20
939.0431123610245
 30
-276.2808268814059
 70
    64
  0
VERTEX
  5
50B4
330
50A6
100
AcDbEntity
  8
0
100
AcDbVertex
100
AcDbPolygonMeshVertex
 10
-939.6688088099669
 20
939.0431123610245
 30
-276.2808268814059
 70
    64
  0
VERTEX
  5
50B5
330
50A6
100
AcDbEntity
  8
0
100
AcDbVertex
100
AcDbPolygonMeshVertex
 10
-939.6688088099669
 20
940.9481123610245
 30
-276.2808268814059
 70
    64
  0
VERTEX
  5
50B6
330
50A6
100
AcDbEntity
  8
0
100
AcDbVertex
100
AcDbPolygonMeshVertex
 10
-941.9548088099668
 20
939.0431123610245
 30
-276.2808268814059
 70
    64
  0
VERTEX
  5
50B7
330
50A6
100
AcDbEntity
  8
0
100
AcDbVertex
100
AcDbPolygonMeshVertex
 10
-941.9548088099668
 20
939.0431123610245
 30
-276.2808268814059
 70
    64
  0
VERTEX
  5
50B8
330
50A6
100
AcDbEntity
  8
0
100
AcDbVertex
100
AcDbPolygonMeshVertex
 10
-941.9548088099668
 20
940.9481123610245
 30
-276.2808268814059
 70
    64
  0
SEQEND
  5
50B9
330
50A6
100
AcDbEntity
  8
0
  0
POLYLINE
  5
50BA
330
1F
100
AcDbEntity
  8
0
100
AcDbPolygonMesh
 66
     1
 10
0.0
 20
0.0
 30
0.0
 70
    16
 71
     6
 72
     3
  0
VERTEX
  5
50BB
330
50BA
100
AcDbEntity
  8
0
100
AcDbVertex
100
AcDbPolygonMeshVertex
 10
-937.1288088099667
 20
940.9481123610245
 30
-276.2808268814059
 70
    64
  0
VERTEX
  5
50BC
330
50BA
100
AcDbEntity
  8
0
100
AcDbVertex
100
AcDbPolygonMeshVertex
 10
-937.1288088099667
 20
940.9481123610245
 30
-352.4808268814059
 70
    64
  0
VERTEX
  5
50BD
330
50BA
100
AcDbEntity
  8
0
100
AcDbVertex
100
AcDbPolygonMeshVertex
 10
-937.1288088099667
 20
940.9481123610245
 30
-352.4808268814059
 70
    64
  0
VERTEX
  5
50BE
330
50BA
100
AcDbEntity
  8
0
100
AcDbVertex
100
AcDbPolygonMeshVertex
 10
-939.6688088099669
 20
940.9481123610245
 30
-276.2808268814059
 70
    64
  0
VERTEX
  5
50BF
330
50BA
100
AcDbEntity
  8
0
100
AcDbVertex
100
AcDbPolygonMeshVertex
 10
-939.6688088099669
 20
940.9481123610245
 30
-352.4808268814059
 70
    64
  0
VERTEX
  5
50C0
330
50BA
100
AcDbEntity
  8
0
100
AcDbVertex
100
AcDbPolygonMeshVertex
 10
-939.6688088099669
 20
940.9481123610245
 30
-352.4808268814059
 70
    64
  0
VERTEX
  5
50C1
330
50BA
100
AcDbEntity
  8
0
100
AcDbVertex
100
AcDbPolygonMeshVertex
 10
-939.6688088099669
 20
935.8681123610244
 30
-276.2808268814059
 70
    64
  0
VERTEX
  5
50C2
330
50BA
100
AcDbEntity
  8
0
100
AcDbVertex
100
AcDbPolygonMeshVertex
 10
-939.6688088099669
 20
935.8681123610244
 30
-352.4808268814059
 70
    64
  0
VERTEX
  5
50C3
330
50BA
100
AcDbEntity
  8
0
100
AcDbVertex
100
AcDbPolygonMeshVertex
 10
-939.6688088099669
 20
940.9481123610245
 30
-352.4808268814059
 70
    64
  0
VERTEX
  5
50C4
330
50BA
100
AcDbEntity
  8
0
100
AcDbVertex
100
AcDbPolygonMeshVertex
 10
-937.1288088099667
 20
935.8681123610244
 30
-276.2808268814059
 70
    64
  0
VERTEX
  5
50C5
330
50BA
100
AcDbEntity
  8
0
100
AcDbVertex
100
AcDbPolygonMeshVertex
 10
-937.1288088099667
 20
935.8681123610244
 30
-352.4808268814059
 70
    64
  0
VERTEX
  5
50C6
330
50BA
100
AcDbEntity
  8
0
100
AcDbVertex
100
AcDbPolygonMeshVertex
 10
-937.1288088099667
 20
940.9481123610245
 30
-352.4808268814059
 70
    64
  0
VERTEX
  5
50C7
330
50BA
100
AcDbEntity
  8
0
100
AcDbVertex
100
AcDbPolygonMeshVertex
 10
-937.1288088099667
 20
935.8681123610244
 30
-276.2808268814059
 70
    64
  0
VERTEX
  5
50C8
330
50BA
100
AcDbEntity
  8
0
100
AcDbVertex
100
AcDbPolygonMeshVertex
 10
-937.1288088099667
 20
935.8681123610244
 30
-276.2808268814059
 70
    64
  0
VERTEX
  5
50C9
330
50BA
100
AcDbEntity
  8
0
100
AcDbVertex
100
AcDbPolygonMeshVertex
 10
-937.1288088099667
 20
940.9481123610245
 30
-276.2808268814059
 70
    64
  0
VERTEX
  5
50CA
330
50BA
100
AcDbEntity
  8
0
100
AcDbVertex
100
AcDbPolygonMeshVertex
 10
-939.6688088099669
 20
935.8681123610244
 30
-276.2808268814059
 70
    64
  0
VERTEX
  5
50CB
330
50BA
100
AcDbEntity
  8
0
100
AcDbVertex
100
AcDbPolygonMeshVertex
 10
-939.6688088099669
 20
935.8681123610244
 30
-276.2808268814059
 70
    64
  0
VERTEX
  5
50CC
330
50BA
100
AcDbEntity
  8
0
100
AcDbVertex
100
AcDbPolygonMeshVertex
 10
-939.6688088099669
 20
940.9481123610245
 30
-276.2808268814059
 70
    64
  0
SEQEND
  5
50CD
330
50BA
100
AcDbEntity
  8
0
  0
POLYLINE
  5
50CE
330
1F
100
AcDbEntity
  8
0
100
AcDbPolygonMesh
 66
     1
 10
0.0
 20
0.0
 30
0.0
 70
    16
 71
     6
 72
     3
  0
VERTEX
  5
50CF
330
50CE
100
AcDbEntity
  8
0
100
AcDbVertex
100
AcDbPolygonMeshVertex
 10
-941.9548088099668
 20
940.9481123610245
 30
-276.2808268814059
 70
    64
  0
VERTEX
  5
50D0
330
50CE
100
AcDbEntity
  8
0
100
AcDbVertex
100
AcDbPolygonMeshVertex
 10
-941.9548088099668
 20
940.9481123610245
 30
-352.4808268814059
 70
    64
  0
VERTEX
  5
50D1
330
50CE
100
AcDbEntity
  8
0
100
AcDbVertex
100
AcDbPolygonMeshVertex
 10
-941.9548088099668
 20
940.9481123610245
 30
-352.4808268814059
 70
    64
  0
VERTEX
  5
50D2
330
50CE
100
AcDbEntity
  8
0
100
AcDbVertex
100
AcDbPolygonMeshVertex
 10
-944.4948088099668
 20
940.9481123610245
 30
-276.2808268814059
 70
    64
  0
VERTEX
  5
50D3
330
50CE
100
AcDbEntity
  8
0
100
AcDbVertex
100
AcDbPolygonMeshVertex
 10
-944.4948088099668
 20
940.9481123610245
 30
-352.4808268814059
 70
    64
  0
VERTEX
  5
50D4
330
50CE
100
AcDbEntity
  8
0
100
AcDbVertex
100
AcDbPolygonMeshVertex
 10
-944.4948088099668
 20
940.9481123610245
 30
-352.4808268814059
 70
    64
  0
VERTEX
  5
50D5
330
50CE
100
AcDbEntity
  8
0
100
AcDbVertex
100
AcDbPolygonMeshVertex
 10
-944.4948088099668
 20
935.8681123610244
 30
-276.2808268814059
 70
    64
  0
VERTEX
  5
50D6
330
50CE
100
AcDbEntity
  8
0
100
AcDbVertex
100
AcDbPolygonMeshVertex
 10
-944.4948088099668
 20
935.8681123610244
 30
-352.4808268814059
 70
    64
  0
VERTEX
  5
50D7
330
50CE
100
AcDbEntity
  8
0
100
AcDbVertex
100
AcDbPolygonMeshVertex
 10
-944.4948088099668
 20
940.9481123610245
 30
-352.4808268814059
 70
    64
  0
VERTEX
  5
50D8
330
50CE
100
AcDbEntity
  8
0
100
AcDbVertex
100
AcDbPolygonMeshVertex
 10
-941.9548088099668
 20
935.8681123610244
 30
-276.2808268814059
 70
    64
  0
VERTEX
  5
50D9
330
50CE
100
AcDbEntity
  8
0
100
AcDbVertex
100
AcDbPolygonMeshVertex
 10
-941.9548088099668
 20
935.8681123610244
 30
-352.4808268814059
 70
    64
  0
VERTEX
  5
50DA
330
50CE
100
AcDbEntity
  8
0
100
AcDbVertex
100
AcDbPolygonMeshVertex
 10
-941.9548088099668
 20
940.9481123610245
 30
-352.4808268814059
 70
    64
  0
VERTEX
  5
50DB
330
50CE
100
AcDbEntity
  8
0
100
AcDbVertex
100
AcDbPolygonMeshVertex
 10
-941.9548088099668
 20
935.8681123610244
 30
-276.2808268814059
 70
    64
  0
VERTEX
  5
50DC
330
50CE
100
AcDbEntity
  8
0
100
AcDbVertex
100
AcDbPolygonMeshVertex
 10
-941.9548088099668
 20
935.8681123610244
 30
-276.2808268814059
 70
    64
  0
VERTEX
  5
50DD
330
50CE
100
AcDbEntity
  8
0
100
AcDbVertex
100
AcDbPolygonMeshVertex
 10
-941.9548088099668
 20
940.9481123610245
 30
-276.2808268814059
 70
    64
  0
VERTEX
  5
50DE
330
50CE
100
AcDbEntity
  8
0
100
AcDbVertex
100
AcDbPolygonMeshVertex
 10
-944.4948088099668
 20
935.8681123610244
 30
-276.2808268814059
 70
    64
  0
VERTEX
  5
50DF
330
50CE
100
AcDbEntity
  8
0
100
AcDbVertex
100
AcDbPolygonMeshVertex
 10
-944.4948088099668
 20
935.8681123610244
 30
-276.2808268814059
 70
    64
  0
VERTEX
  5
50E0
330
50CE
100
AcDbEntity
  8
0
100
AcDbVertex
100
AcDbPolygonMeshVertex
 10
-944.4948088099668
 20
940.9481123610245
 30
-276.2808268814059
 70
    64
  0
SEQEND
  5
50E1
330
50CE
100
AcDbEntity
  8
0
  0
POLYLINE
  5
50E2
330
1F
100
AcDbEntity
  8
0
100
AcDbPolygonMesh
 66
     1
 10
0.0
 20
0.0
 30
0.0
 70
    16
 71
     6
 72
     3
  0
VERTEX
  5
50E3
330
50E2
100
AcDbEntity
  8
0
100
AcDbVertex
100
AcDbPolygonMeshVertex
 10
-920.7456463406154
 20
812.9835430818369
 30
-208.7168268814059
 70
    64
  0
VERTEX
  5
50E4
330
50E2
100
AcDbEntity
  8
0
100
AcDbVertex
100
AcDbPolygonMeshVertex
 10
-920.7456463406154
 20
812.9835430818369
 30
-353.7508268814058
 70
    64
  0
VERTEX
  5
50E5
330
50E2
100
AcDbEntity
  8
0
100
AcDbVertex
100
AcDbPolygonMeshVertex
 10
-920.7456463406154
 20
812.9835430818369
 30
-353.7508268814058
 70
    64
  0
VERTEX
  5
50E6
330
50E2
100
AcDbEntity
  8
0
100
AcDbVertex
100
AcDbPolygonMeshVertex
 10
-930.9056463406152
 20
812.9835430818369
 30
-208.7168268814059
 70
    64
  0
VERTEX
  5
50E7
330
50E2
100
AcDbEntity
  8
0
100
AcDbVertex
100
AcDbPolygonMeshVertex
 10
-930.9056463406152
 20
812.9835430818369
 30
-353.7508268814058
 70
    64
  0
VERTEX
  5
50E8
330
50E2
100
AcDbEntity
  8
0
100
AcDbVertex
100
AcDbPolygonMeshVertex
 10
-930.9056463406152
 20
812.9835430818369
 30
-353.7508268814058
 70
    64
  0
VERTEX
  5
50E9
330
50E2
100
AcDbEntity
  8
0
100
AcDbVertex
100
AcDbPolygonMeshVertex
 10
-930.9056463406152
 20
932.617543081837
 30
-208.7168268814059
 70
    64
  0
VERTEX
  5
50EA
330
50E2
100
AcDbEntity
  8
0
100
AcDbVertex
100
AcDbPolygonMeshVertex
 10
-930.9056463406152
 20
932.617543081837
 30
-353.7508268814058
 70
    64
  0
VERTEX
  5
50EB
330
50E2
100
AcDbEntity
  8
0
100
AcDbVertex
100
AcDbPolygonMeshVertex
 10
-930.9056463406152
 20
812.9835430818369
 30
-353.7508268814058
 70
    64
  0
VERTEX
  5
50EC
330
50E2
100
AcDbEntity
  8
0
100
AcDbVertex
100
AcDbPolygonMeshVertex
 10
-920.7456463406154
 20
932.617543081837
 30
-208.7168268814059
 70
    64
  0
VERTEX
  5
50ED
330
50E2
100
AcDbEntity
  8
0
100
AcDbVertex
100
AcDbPolygonMeshVertex
 10
-920.7456463406154
 20
932.617543081837
 30
-353.7508268814058
 70
    64
  0
VERTEX
  5
50EE
330
50E2
100
AcDbEntity
  8
0
100
AcDbVertex
100
AcDbPolygonMeshVertex
 10
-920.7456463406154
 20
812.9835430818369
 30
-353.7508268814058
 70
    64
  0
VERTEX
  5
50EF
330
50E2
100
AcDbEntity
  8
0
100
AcDbVertex
100
AcDbPolygonMeshVertex
 10
-920.7456463406154
 20
932.617543081837
 30
-208.7168268814059
 70
    64
  0
VERTEX
  5
50F0
330
50E2
100
AcDbEntity
  8
0
100
AcDbVertex
100
AcDbPolygonMeshVertex
 10
-920.7456463406154
 20
932.617543081837
 30
-208.7168268814059
 70
    64
  0
VERTEX
  5
50F1
330
50E2
100
AcDbEntity
  8
0
100
AcDbVertex
100
AcDbPolygonMeshVertex
 10
-920.7456463406154
 20
812.9835430818369
 30
-208.7168268814059
 70
    64
  0
VERTEX
  5
50F2
330
50E2
100
AcDbEntity
  8
0
100
AcDbVertex
100
AcDbPolygonMeshVertex
 10
-930.9056463406152
 20
932.617543081837
 30
-208.7168268814059
 70
    64
  0
VERTEX
  5
50F3
330
50E2
100
AcDbEntity
  8
0
100
AcDbVertex
100
AcDbPolygonMeshVertex
 10
-930.9056463406152
 20
932.617543081837
 30
-208.7168268814059
 70
    64
  0
VERTEX
  5
50F4
330
50E2
100
AcDbEntity
  8
0
100
AcDbVertex
100
AcDbPolygonMeshVertex
 10
-930.9056463406152
 20
812.9835430818369
 30
-208.7168268814059
 70
    64
  0
SEQEND
  5
50F5
330
50E2
100
AcDbEntity
  8
0
  0
POLYLINE
  5
50F6
330
1F
100
AcDbEntity
  8
0
100
AcDbPolygonMesh
 66
     1
 10
0.0
 20
0.0
 30
0.0
 70
    16
 71
     6
 72
     3
  0
VERTEX
  5
50F7
330
50F6
100
AcDbEntity
  8
0
100
AcDbVertex
100
AcDbPolygonMeshVertex
 10
-941.9548088099668
 20
804.6529738026494
 30
-276.2808268814059
 70
    64
  0
VERTEX
  5
50F8
330
50F6
100
AcDbEntity
  8
0
100
AcDbVertex
100
AcDbPolygonMeshVertex
 10
-941.9548088099668
 20
804.6529738026494
 30
-352.4808268814059
 70
    64
  0
VERTEX
  5
50F9
330
50F6
100
AcDbEntity
  8
0
100
AcDbVertex
100
AcDbPolygonMeshVertex
 10
-941.9548088099668
 20
804.6529738026494
 30
-352.4808268814059
 70
    64
  0
VERTEX
  5
50FA
330
50F6
100
AcDbEntity
  8
0
100
AcDbVertex
100
AcDbPolygonMeshVertex
 10
-944.4948088099668
 20
804.6529738026494
 30
-276.2808268814059
 70
    64
  0
VERTEX
  5
50FB
330
50F6
100
AcDbEntity
  8
0
100
AcDbVertex
100
AcDbPolygonMeshVertex
 10
-944.4948088099668
 20
804.6529738026494
 30
-352.4808268814059
 70
    64
  0
VERTEX
  5
50FC
330
50F6
100
AcDbEntity
  8
0
100
AcDbVertex
100
AcDbPolygonMeshVertex
 10
-944.4948088099668
 20
804.6529738026494
 30
-352.4808268814059
 70
    64
  0
VERTEX
  5
50FD
330
50F6
100
AcDbEntity
  8
0
100
AcDbVertex
100
AcDbPolygonMeshVertex
 10
-944.4948088099668
 20
809.7329738026495
 30
-276.2808268814059
 70
    64
  0
VERTEX
  5
50FE
330
50F6
100
AcDbEntity
  8
0
100
AcDbVertex
100
AcDbPolygonMeshVertex
 10
-944.4948088099668
 20
809.7329738026495
 30
-352.4808268814059
 70
    64
  0
VERTEX
  5
50FF
330
50F6
100
AcDbEntity
  8
0
100
AcDbVertex
100
AcDbPolygonMeshVertex
 10
-944.4948088099668
 20
804.6529738026494
 30
-352.4808268814059
 70
    64
  0
VERTEX
  5
5100
330
50F6
100
AcDbEntity
  8
0
100
AcDbVertex
100
AcDbPolygonMeshVertex
 10
-941.9548088099668
 20
809.7329738026495
 30
-276.2808268814059
 70
    64
  0
VERTEX
  5
5101
330
50F6
100
AcDbEntity
  8
0
100
AcDbVertex
100
AcDbPolygonMeshVertex
 10
-941.9548088099668
 20
809.7329738026495
 30
-352.4808268814059
 70
    64
  0
VERTEX
  5
5102
330
50F6
100
AcDbEntity
  8
0
100
AcDbVertex
100
AcDbPolygonMeshVertex
 10
-941.9548088099668
 20
804.6529738026494
 30
-352.4808268814059
 70
    64
  0
VERTEX
  5
5103
330
50F6
100
AcDbEntity
  8
0
100
AcDbVertex
100
AcDbPolygonMeshVertex
 10
-941.9548088099668
 20
809.7329738026495
 30
-276.2808268814059
 70
    64
  0
VERTEX
  5
5104
330
50F6
100
AcDbEntity
  8
0
100
AcDbVertex
100
AcDbPolygonMeshVertex
 10
-941.9548088099668
 20
809.7329738026495
 30
-276.2808268814059
 70
    64
  0
VERTEX
  5
5105
330
50F6
100
AcDbEntity
  8
0
100
AcDbVertex
100
AcDbPolygonMeshVertex
 10
-941.9548088099668
 20
804.6529738026494
 30
-276.2808268814059
 70
    64
  0
VERTEX
  5
5106
330
50F6
100
AcDbEntity
  8
0
100
AcDbVertex
100
AcDbPolygonMeshVertex
 10
-944.4948088099668
 20
809.7329738026495
 30
-276.2808268814059
 70
    64
  0
VERTEX
  5
5107
330
50F6
100
AcDbEntity
  8
0
100
AcDbVertex
100
AcDbPolygonMeshVertex
 10
-944.4948088099668
 20
809.7329738026495
 30
-276.2808268814059
 70
    64
  0
VERTEX
  5
5108
330
50F6
100
AcDbEntity
  8
0
100
AcDbVertex
100
AcDbPolygonMeshVertex
 10
-944.4948088099668
 20
804.6529738026494
 30
-276.2808268814059
 70
    64
  0
SEQEND
  5
5109
330
50F6
100
AcDbEntity
  8
0
  0
POLYLINE
  5
510A
330
1F
100
AcDbEntity
  8
0
100
AcDbPolygonMesh
 66
     1
 10
0.0
 20
0.0
 30
0.0
 70
    16
 71
     6
 72
     3
  0
VERTEX
  5
510B
330
510A
100
AcDbEntity
  8
0
100
AcDbVertex
100
AcDbPolygonMeshVertex
 10
-937.1288088099667
 20
804.6529738026494
 30
-276.2808268814059
 70
    64
  0
VERTEX
  5
510C
330
510A
100
AcDbEntity
  8
0
100
AcDbVertex
100
AcDbPolygonMeshVertex
 10
-937.1288088099667
 20
804.6529738026494
 30
-352.4808268814059
 70
    64
  0
VERTEX
  5
510D
330
510A
100
AcDbEntity
  8
0
100
AcDbVertex
100
AcDbPolygonMeshVertex
 10
-937.1288088099667
 20
804.6529738026494
 30
-352.4808268814059
 70
    64
  0
VERTEX
  5
510E
330
510A
100
AcDbEntity
  8
0
100
AcDbVertex
100
AcDbPolygonMeshVertex
 10
-939.6688088099669
 20
804.6529738026494
 30
-276.2808268814059
 70
    64
  0
VERTEX
  5
510F
330
510A
100
AcDbEntity
  8
0
100
AcDbVertex
100
AcDbPolygonMeshVertex
 10
-939.6688088099669
 20
804.6529738026494
 30
-352.4808268814059
 70
    64
  0
VERTEX
  5
5110
330
510A
100
AcDbEntity
  8
0
100
AcDbVertex
100
AcDbPolygonMeshVertex
 10
-939.6688088099669
 20
804.6529738026494
 30
-352.4808268814059
 70
    64
  0
VERTEX
  5
5111
330
510A
100
AcDbEntity
  8
0
100
AcDbVertex
100
AcDbPolygonMeshVertex
 10
-939.6688088099669
 20
809.7329738026495
 30
-276.2808268814059
 70
    64
  0
VERTEX
  5
5112
330
510A
100
AcDbEntity
  8
0
100
AcDbVertex
100
AcDbPolygonMeshVertex
 10
-939.6688088099669
 20
809.7329738026495
 30
-352.4808268814059
 70
    64
  0
VERTEX
  5
5113
330
510A
100
AcDbEntity
  8
0
100
AcDbVertex
100
AcDbPolygonMeshVertex
 10
-939.6688088099669
 20
804.6529738026494
 30
-352.4808268814059
 70
    64
  0
VERTEX
  5
5114
330
510A
100
AcDbEntity
  8
0
100
AcDbVertex
100
AcDbPolygonMeshVertex
 10
-937.1288088099667
 20
809.7329738026495
 30
-276.2808268814059
 70
    64
  0
VERTEX
  5
5115
330
510A
100
AcDbEntity
  8
0
100
AcDbVertex
100
AcDbPolygonMeshVertex
 10
-937.1288088099667
 20
809.7329738026495
 30
-352.4808268814059
 70
    64
  0
VERTEX
  5
5116
330
510A
100
AcDbEntity
  8
0
100
AcDbVertex
100
AcDbPolygonMeshVertex
 10
-937.1288088099667
 20
804.6529738026494
 30
-352.4808268814059
 70
    64
  0
VERTEX
  5
5117
330
510A
100
AcDbEntity
  8
0
100
AcDbVertex
100
AcDbPolygonMeshVertex
 10
-937.1288088099667
 20
809.7329738026495
 30
-276.2808268814059
 70
    64
  0
VERTEX
  5
5118
330
510A
100
AcDbEntity
  8
0
100
AcDbVertex
100
AcDbPolygonMeshVertex
 10
-937.1288088099667
 20
809.7329738026495
 30
-276.2808268814059
 70
    64
  0
VERTEX
  5
5119
330
510A
100
AcDbEntity
  8
0
100
AcDbVertex
100
AcDbPolygonMeshVertex
 10
-937.1288088099667
 20
804.6529738026494
 30
-276.2808268814059
 70
    64
  0
VERTEX
  5
511A
330
510A
100
AcDbEntity
  8
0
100
AcDbVertex
100
AcDbPolygonMeshVertex
 10
-939.6688088099669
 20
809.7329738026495
 30
-276.2808268814059
 70
    64
  0
VERTEX
  5
511B
330
510A
100
AcDbEntity
  8
0
100
AcDbVertex
100
AcDbPolygonMeshVertex
 10
-939.6688088099669
 20
809.7329738026495
 30
-276.2808268814059
 70
    64
  0
VERTEX
  5
511C
330
510A
100
AcDbEntity
  8
0
100
AcDbVertex
100
AcDbPolygonMeshVertex
 10
-939.6688088099669
 20
804.6529738026494
 30
-276.2808268814059
 70
    64
  0
SEQEND
  5
511D
330
510A
100
AcDbEntity
  8
0
  0
POLYLINE
  5
511E
330
1F
100
AcDbEntity
  8
0
100
AcDbPolygonMesh
 66
     1
 10
0.0
 20
0.0
 30
0.0
 70
    16
 71
     6
 72
     3
  0
VERTEX
  5
511F
330
511E
100
AcDbEntity
  8
0
100
AcDbVertex
100
AcDbPolygonMeshVertex
 10
-939.6688088099669
 20
804.6529738026494
 30
-276.2808268814059
 70
    64
  0
VERTEX
  5
5120
330
511E
100
AcDbEntity
  8
0
100
AcDbVertex
100
AcDbPolygonMeshVertex
 10
-939.6688088099669
 20
804.6529738026494
 30
-352.4808268814059
 70
    64
  0
VERTEX
  5
5121
330
511E
100
AcDbEntity
  8
0
100
AcDbVertex
100
AcDbPolygonMeshVertex
 10
-939.6688088099669
 20
804.6529738026494
 30
-352.4808268814059
 70
    64
  0
VERTEX
  5
5122
330
511E
100
AcDbEntity
  8
0
100
AcDbVertex
100
AcDbPolygonMeshVertex
 10
-941.9548088099668
 20
804.6529738026494
 30
-276.2808268814059
 70
    64
  0
VERTEX
  5
5123
330
511E
100
AcDbEntity
  8
0
100
AcDbVertex
100
AcDbPolygonMeshVertex
 10
-941.9548088099668
 20
804.6529738026494
 30
-352.4808268814059
 70
    64
  0
VERTEX
  5
5124
330
511E
100
AcDbEntity
  8
0
100
AcDbVertex
100
AcDbPolygonMeshVertex
 10
-941.9548088099668
 20
804.6529738026494
 30
-352.4808268814059
 70
    64
  0
VERTEX
  5
5125
330
511E
100
AcDbEntity
  8
0
100
AcDbVertex
100
AcDbPolygonMeshVertex
 10
-941.9548088099668
 20
806.5579738026494
 30
-276.2808268814059
 70
    64
  0
VERTEX
  5
5126
330
511E
100
AcDbEntity
  8
0
100
AcDbVertex
100
AcDbPolygonMeshVertex
 10
-941.9548088099668
 20
806.5579738026494
 30
-352.4808268814059
 70
    64
  0
VERTEX
  5
5127
330
511E
100
AcDbEntity
  8
0
100
AcDbVertex
100
AcDbPolygonMeshVertex
 10
-941.9548088099668
 20
804.6529738026494
 30
-352.4808268814059
 70
    64
  0
VERTEX
  5
5128
330
511E
100
AcDbEntity
  8
0
100
AcDbVertex
100
AcDbPolygonMeshVertex
 10
-939.6688088099669
 20
806.5579738026494
 30
-276.2808268814059
 70
    64
  0
VERTEX
  5
5129
330
511E
100
AcDbEntity
  8
0
100
AcDbVertex
100
AcDbPolygonMeshVertex
 10
-939.6688088099669
 20
806.5579738026494
 30
-352.4808268814059
 70
    64
  0
VERTEX
  5
512A
330
511E
100
AcDbEntity
  8
0
100
AcDbVertex
100
AcDbPolygonMeshVertex
 10
-939.6688088099669
 20
804.6529738026494
 30
-352.4808268814059
 70
    64
  0
VERTEX
  5
512B
330
511E
100
AcDbEntity
  8
0
100
AcDbVertex
100
AcDbPolygonMeshVertex
 10
-939.6688088099669
 20
806.5579738026494
 30
-276.2808268814059
 70
    64
  0
VERTEX
  5
512C
330
511E
100
AcDbEntity
  8
0
100
AcDbVertex
100
AcDbPolygonMeshVertex
 10
-939.6688088099669
 20
806.5579738026494
 30
-276.2808268814059
 70
    64
  0
VERTEX
  5
512D
330
511E
100
AcDbEntity
  8
0
100
AcDbVertex
100
AcDbPolygonMeshVertex
 10
-939.6688088099669
 20
804.6529738026494
 30
-276.2808268814059
 70
    64
  0
VERTEX
  5
512E
330
511E
100
AcDbEntity
  8
0
100
AcDbVertex
100
AcDbPolygonMeshVertex
 10
-941.9548088099668
 20
806.5579738026494
 30
-276.2808268814059
 70
    64
  0
VERTEX
  5
512F
330
511E
100
AcDbEntity
  8
0
100
AcDbVertex
100
AcDbPolygonMeshVertex
 10
-941.9548088099668
 20
806.5579738026494
 30
-276.2808268814059
 70
    64
  0
VERTEX
  5
5130
330
511E
100
AcDbEntity
  8
0
100
AcDbVertex
100
AcDbPolygonMeshVertex
 10
-941.9548088099668
 20
804.6529738026494
 30
-276.2808268814059
 70
    64
  0
SEQEND
  5
5131
330
511E
100
AcDbEntity
  8
0
  0
POLYLINE
  5
5132
330
1F
100
AcDbEntity
  8
0
100
AcDbPolygonMesh
 66
     1
 10
0.0
 20
0.0
 30
0.0
 70
    16
 71
     6
 72
     3
  0
VERTEX
  5
5133
330
5132
100
AcDbEntity
  8
0
100
AcDbVertex
100
AcDbPolygonMeshVertex
 10
-974.5938088099668
 20
804.6529738026492
 30
-276.2808268814059
 70
    64
  0
VERTEX
  5
5134
330
5132
100
AcDbEntity
  8
0
100
AcDbVertex
100
AcDbPolygonMeshVertex
 10
-974.5938088099668
 20
804.6529738026492
 30
-352.4808268814059
 70
    64
  0
VERTEX
  5
5135
330
5132
100
AcDbEntity
  8
0
100
AcDbVertex
100
AcDbPolygonMeshVertex
 10
-974.5938088099668
 20
804.6529738026492
 30
-352.4808268814059
 70
    64
  0
VERTEX
  5
5136
330
5132
100
AcDbEntity
  8
0
100
AcDbVertex
100
AcDbPolygonMeshVertex
 10
-976.8798088099668
 20
804.6529738026492
 30
-276.2808268814059
 70
    64
  0
VERTEX
  5
5137
330
5132
100
AcDbEntity
  8
0
100
AcDbVertex
100
AcDbPolygonMeshVertex
 10
-976.8798088099668
 20
804.6529738026492
 30
-352.4808268814059
 70
    64
  0
VERTEX
  5
5138
330
5132
100
AcDbEntity
  8
0
100
AcDbVertex
100
AcDbPolygonMeshVertex
 10
-976.8798088099668
 20
804.6529738026492
 30
-352.4808268814059
 70
    64
  0
VERTEX
  5
5139
330
5132
100
AcDbEntity
  8
0
100
AcDbVertex
100
AcDbPolygonMeshVertex
 10
-976.8798088099668
 20
806.5579738026494
 30
-276.2808268814059
 70
    64
  0
VERTEX
  5
513A
330
5132
100
AcDbEntity
  8
0
100
AcDbVertex
100
AcDbPolygonMeshVertex
 10
-976.8798088099668
 20
806.5579738026494
 30
-352.4808268814059
 70
    64
  0
VERTEX
  5
513B
330
5132
100
AcDbEntity
  8
0
100
AcDbVertex
100
AcDbPolygonMeshVertex
 10
-976.8798088099668
 20
804.6529738026492
 30
-352.4808268814059
 70
    64
  0
VERTEX
  5
513C
330
5132
100
AcDbEntity
  8
0
100
AcDbVertex
100
AcDbPolygonMeshVertex
 10
-974.5938088099668
 20
806.5579738026494
 30
-276.2808268814059
 70
    64
  0
VERTEX
  5
513D
330
5132
100
AcDbEntity
  8
0
100
AcDbVertex
100
AcDbPolygonMeshVertex
 10
-974.5938088099668
 20
806.5579738026494
 30
-352.4808268814059
 70
    64
  0
VERTEX
  5
513E
330
5132
100
AcDbEntity
  8
0
100
AcDbVertex
100
AcDbPolygonMeshVertex
 10
-974.5938088099668
 20
804.6529738026492
 30
-352.4808268814059
 70
    64
  0
VERTEX
  5
513F
330
5132
100
AcDbEntity
  8
0
100
AcDbVertex
100
AcDbPolygonMeshVertex
 10
-974.5938088099668
 20
806.5579738026494
 30
-276.2808268814059
 70
    64
  0
VERTEX
  5
5140
330
5132
100
AcDbEntity
  8
0
100
AcDbVertex
100
AcDbPolygonMeshVertex
 10
-974.5938088099668
 20
806.5579738026494
 30
-276.2808268814059
 70
    64
  0
VERTEX
  5
5141
330
5132
100
AcDbEntity
  8
0
100
AcDbVertex
100
AcDbPolygonMeshVertex
 10
-974.5938088099668
 20
804.6529738026492
 30
-276.2808268814059
 70
    64
  0
VERTEX
  5
5142
330
5132
100
AcDbEntity
  8
0
100
AcDbVertex
100
AcDbPolygonMeshVertex
 10
-976.8798088099668
 20
806.5579738026494
 30
-276.2808268814059
 70
    64
  0
VERTEX
  5
5143
330
5132
100
AcDbEntity
  8
0
100
AcDbVertex
100
AcDbPolygonMeshVertex
 10
-976.8798088099668
 20
806.5579738026494
 30
-276.2808268814059
 70
    64
  0
VERTEX
  5
5144
330
5132
100
AcDbEntity
  8
0
100
AcDbVertex
100
AcDbPolygonMeshVertex
 10
-976.8798088099668
 20
804.6529738026492
 30
-276.2808268814059
 70
    64
  0
SEQEND
  5
5145
330
5132
100
AcDbEntity
  8
0
  0
POLYLINE
  5
5146
330
1F
100
AcDbEntity
  8
0
100
AcDbPolygonMesh
 66
     1
 10
0.0
 20
0.0
 30
0.0
 70
    16
 71
     6
 72
     3
  0
VERTEX
  5
5147
330
5146
100
AcDbEntity
  8
0
100
AcDbVertex
100
AcDbPolygonMeshVertex
 10
-972.0538088099669
 20
804.6529738026492
 30
-276.2808268814059
 70
    64
  0
VERTEX
  5
5148
330
5146
100
AcDbEntity
  8
0
100
AcDbVertex
100
AcDbPolygonMeshVertex
 10
-972.0538088099669
 20
804.6529738026492
 30
-352.4808268814059
 70
    64
  0
VERTEX
  5
5149
330
5146
100
AcDbEntity
  8
0
100
AcDbVertex
100
AcDbPolygonMeshVertex
 10
-972.0538088099669
 20
804.6529738026492
 30
-352.4808268814059
 70
    64
  0
VERTEX
  5
514A
330
5146
100
AcDbEntity
  8
0
100
AcDbVertex
100
AcDbPolygonMeshVertex
 10
-974.5938088099668
 20
804.6529738026492
 30
-276.2808268814059
 70
    64
  0
VERTEX
  5
514B
330
5146
100
AcDbEntity
  8
0
100
AcDbVertex
100
AcDbPolygonMeshVertex
 10
-974.5938088099668
 20
804.6529738026492
 30
-352.4808268814059
 70
    64
  0
VERTEX
  5
514C
330
5146
100
AcDbEntity
  8
0
100
AcDbVertex
100
AcDbPolygonMeshVertex
 10
-974.5938088099668
 20
804.6529738026492
 30
-352.4808268814059
 70
    64
  0
VERTEX
  5
514D
330
5146
100
AcDbEntity
  8
0
100
AcDbVertex
100
AcDbPolygonMeshVertex
 10
-974.5938088099668
 20
809.7329738026493
 30
-276.2808268814059
 70
    64
  0
VERTEX
  5
514E
330
5146
100
AcDbEntity
  8
0
100
AcDbVertex
100
AcDbPolygonMeshVertex
 10
-974.5938088099668
 20
809.7329738026493
 30
-352.4808268814059
 70
    64
  0
VERTEX
  5
514F
330
5146
100
AcDbEntity
  8
0
100
AcDbVertex
100
AcDbPolygonMeshVertex
 10
-974.5938088099668
 20
804.6529738026492
 30
-352.4808268814059
 70
    64
  0
VERTEX
  5
5150
330
5146
100
AcDbEntity
  8
0
100
AcDbVertex
100
AcDbPolygonMeshVertex
 10
-972.0538088099669
 20
809.7329738026493
 30
-276.2808268814059
 70
    64
  0
VERTEX
  5
5151
330
5146
100
AcDbEntity
  8
0
100
AcDbVertex
100
AcDbPolygonMeshVertex
 10
-972.0538088099669
 20
809.7329738026493
 30
-352.4808268814059
 70
    64
  0
VERTEX
  5
5152
330
5146
100
AcDbEntity
  8
0
100
AcDbVertex
100
AcDbPolygonMeshVertex
 10
-972.0538088099669
 20
804.6529738026492
 30
-352.4808268814059
 70
    64
  0
VERTEX
  5
5153
330
5146
100
AcDbEntity
  8
0
100
AcDbVertex
100
AcDbPolygonMeshVertex
 10
-972.0538088099669
 20
809.7329738026493
 30
-276.2808268814059
 70
    64
  0
VERTEX
  5
5154
330
5146
100
AcDbEntity
  8
0
100
AcDbVertex
100
AcDbPolygonMeshVertex
 10
-972.0538088099669
 20
809.7329738026493
 30
-276.2808268814059
 70
    64
  0
VERTEX
  5
5155
330
5146
100
AcDbEntity
  8
0
100
AcDbVertex
100
AcDbPolygonMeshVertex
 10
-972.0538088099669
 20
804.6529738026492
 30
-276.2808268814059
 70
    64
  0
VERTEX
  5
5156
330
5146
100
AcDbEntity
  8
0
100
AcDbVertex
100
AcDbPolygonMeshVertex
 10
-974.5938088099668
 20
809.7329738026493
 30
-276.2808268814059
 70
    64
  0
VERTEX
  5
5157
330
5146
100
AcDbEntity
  8
0
100
AcDbVertex
100
AcDbPolygonMeshVertex
 10
-974.5938088099668
 20
809.7329738026493
 30
-276.2808268814059
 70
    64
  0
VERTEX
  5
5158
330
5146
100
AcDbEntity
  8
0
100
AcDbVertex
100
AcDbPolygonMeshVertex
 10
-974.5938088099668
 20
804.6529738026492
 30
-276.2808268814059
 70
    64
  0
SEQEND
  5
5159
330
5146
100
AcDbEntity
  8
0
  0
POLYLINE
  5
515A
330
1F
100
AcDbEntity
  8
0
100
AcDbPolygonMesh
 66
     1
 10
0.0
 20
0.0
 30
0.0
 70
    16
 71
     6
 72
     3
  0
VERTEX
  5
515B
330
515A
100
AcDbEntity
  8
0
100
AcDbVertex
100
AcDbPolygonMeshVertex
 10
-976.8798088099668
 20
804.6529738026492
 30
-276.2808268814059
 70
    64
  0
VERTEX
  5
515C
330
515A
100
AcDbEntity
  8
0
100
AcDbVertex
100
AcDbPolygonMeshVertex
 10
-976.8798088099668
 20
804.6529738026492
 30
-352.4808268814059
 70
    64
  0
VERTEX
  5
515D
330
515A
100
AcDbEntity
  8
0
100
AcDbVertex
100
AcDbPolygonMeshVertex
 10
-976.8798088099668
 20
804.6529738026492
 30
-352.4808268814059
 70
    64
  0
VERTEX
  5
515E
330
515A
100
AcDbEntity
  8
0
100
AcDbVertex
100
AcDbPolygonMeshVertex
 10
-979.4198088099669
 20
804.6529738026492
 30
-276.2808268814059
 70
    64
  0
VERTEX
  5
515F
330
515A
100
AcDbEntity
  8
0
100
AcDbVertex
100
AcDbPolygonMeshVertex
 10
-979.4198088099669
 20
804.6529738026492
 30
-352.4808268814059
 70
    64
  0
VERTEX
  5
5160
330
515A
100
AcDbEntity
  8
0
100
AcDbVertex
100
AcDbPolygonMeshVertex
 10
-979.4198088099669
 20
804.6529738026492
 30
-352.4808268814059
 70
    64
  0
VERTEX
  5
5161
330
515A
100
AcDbEntity
  8
0
100
AcDbVertex
100
AcDbPolygonMeshVertex
 10
-979.4198088099669
 20
809.7329738026493
 30
-276.2808268814059
 70
    64
  0
VERTEX
  5
5162
330
515A
100
AcDbEntity
  8
0
100
AcDbVertex
100
AcDbPolygonMeshVertex
 10
-979.4198088099669
 20
809.7329738026493
 30
-352.4808268814059
 70
    64
  0
VERTEX
  5
5163
330
515A
100
AcDbEntity
  8
0
100
AcDbVertex
100
AcDbPolygonMeshVertex
 10
-979.4198088099669
 20
804.6529738026492
 30
-352.4808268814059
 70
    64
  0
VERTEX
  5
5164
330
515A
100
AcDbEntity
  8
0
100
AcDbVertex
100
AcDbPolygonMeshVertex
 10
-976.8798088099668
 20
809.7329738026493
 30
-276.2808268814059
 70
    64
  0
VERTEX
  5
5165
330
515A
100
AcDbEntity
  8
0
100
AcDbVertex
100
AcDbPolygonMeshVertex
 10
-976.8798088099668
 20
809.7329738026493
 30
-352.4808268814059
 70
    64
  0
VERTEX
  5
5166
330
515A
100
AcDbEntity
  8
0
100
AcDbVertex
100
AcDbPolygonMeshVertex
 10
-976.8798088099668
 20
804.6529738026492
 30
-352.4808268814059
 70
    64
  0
VERTEX
  5
5167
330
515A
100
AcDbEntity
  8
0
100
AcDbVertex
100
AcDbPolygonMeshVertex
 10
-976.8798088099668
 20
809.7329738026493
 30
-276.2808268814059
 70
    64
  0
VERTEX
  5
5168
330
515A
100
AcDbEntity
  8
0
100
AcDbVertex
100
AcDbPolygonMeshVertex
 10
-976.8798088099668
 20
809.7329738026493
 30
-276.2808268814059
 70
    64
  0
VERTEX
  5
5169
330
515A
100
AcDbEntity
  8
0
100
AcDbVertex
100
AcDbPolygonMeshVertex
 10
-976.8798088099668
 20
804.6529738026492
 30
-276.2808268814059
 70
    64
  0
VERTEX
  5
516A
330
515A
100
AcDbEntity
  8
0
100
AcDbVertex
100
AcDbPolygonMeshVertex
 10
-979.4198088099669
 20
809.7329738026493
 30
-276.2808268814059
 70
    64
  0
VERTEX
  5
516B
330
515A
100
AcDbEntity
  8
0
100
AcDbVertex
100
AcDbPolygonMeshVertex
 10
-979.4198088099669
 20
809.7329738026493
 30
-276.2808268814059
 70
    64
  0
VERTEX
  5
516C
330
515A
100
AcDbEntity
  8
0
100
AcDbVertex
100
AcDbPolygonMeshVertex
 10
-979.4198088099669
 20
804.6529738026492
 30
-276.2808268814059
 70
    64
  0
SEQEND
  5
516D
330
515A
100
AcDbEntity
  8
0
  0
POLYLINE
  5
516E
330
1F
100
AcDbEntity
  8
0
100
AcDbPolygonMesh
 66
     1
 10
0.0
 20
0.0
 30
0.0
 70
    16
 71
     6
 72
     3
  0
VERTEX
  5
516F
330
516E
100
AcDbEntity
  8
0
100
AcDbVertex
100
AcDbPolygonMeshVertex
 10
-960.1918463406153
 20
788.8535430818369
 30
-352.7348268814059
 70
    64
  0
VERTEX
  5
5170
330
516E
100
AcDbEntity
  8
0
100
AcDbVertex
100
AcDbPolygonMeshVertex
 10
-960.1918463406153
 20
788.8535430818369
 30
-353.7508268814058
 70
    64
  0
VERTEX
  5
5171
330
516E
100
AcDbEntity
  8
0
100
AcDbVertex
100
AcDbPolygonMeshVertex
 10
-960.1918463406153
 20
788.8535430818369
 30
-353.7508268814058
 70
    64
  0
VERTEX
  5
5172
330
516E
100
AcDbEntity
  8
0
100
AcDbVertex
100
AcDbPolygonMeshVertex
 10
-971.2154463406154
 20
788.8535430818369
 30
-352.7348268814059
 70
    64
  0
VERTEX
  5
5173
330
516E
100
AcDbEntity
  8
0
100
AcDbVertex
100
AcDbPolygonMeshVertex
 10
-971.2154463406154
 20
788.8535430818369
 30
-353.7508268814058
 70
    64
  0
VERTEX
  5
5174
330
516E
100
AcDbEntity
  8
0
100
AcDbVertex
100
AcDbPolygonMeshVertex
 10
-971.2154463406154
 20
788.8535430818369
 30
-353.7508268814058
 70
    64
  0
VERTEX
  5
5175
330
516E
100
AcDbEntity
  8
0
100
AcDbVertex
100
AcDbPolygonMeshVertex
 10
-971.2154463406154
 20
802.8235430818369
 30
-352.7348268814059
 70
    64
  0
VERTEX
  5
5176
330
516E
100
AcDbEntity
  8
0
100
AcDbVertex
100
AcDbPolygonMeshVertex
 10
-971.2154463406154
 20
802.8235430818369
 30
-353.7508268814058
 70
    64
  0
VERTEX
  5
5177
330
516E
100
AcDbEntity
  8
0
100
AcDbVertex
100
AcDbPolygonMeshVertex
 10
-971.2154463406154
 20
788.8535430818369
 30
-353.7508268814058
 70
    64
  0
VERTEX
  5
5178
330
516E
100
AcDbEntity
  8
0
100
AcDbVertex
100
AcDbPolygonMeshVertex
 10
-960.1918463406153
 20
802.8235430818369
 30
-352.7348268814059
 70
    64
  0
VERTEX
  5
5179
330
516E
100
AcDbEntity
  8
0
100
AcDbVertex
100
AcDbPolygonMeshVertex
 10
-960.1918463406153
 20
802.8235430818369
 30
-353.7508268814058
 70
    64
  0
VERTEX
  5
517A
330
516E
100
AcDbEntity
  8
0
100
AcDbVertex
100
AcDbPolygonMeshVertex
 10
-960.1918463406153
 20
788.8535430818369
 30
-353.7508268814058
 70
    64
  0
VERTEX
  5
517B
330
516E
100
AcDbEntity
  8
0
100
AcDbVertex
100
AcDbPolygonMeshVertex
 10
-960.1918463406153
 20
802.8235430818369
 30
-352.7348268814059
 70
    64
  0
VERTEX
  5
517C
330
516E
100
AcDbEntity
  8
0
100
AcDbVertex
100
AcDbPolygonMeshVertex
 10
-960.1918463406153
 20
802.8235430818369
 30
-352.7348268814059
 70
    64
  0
VERTEX
  5
517D
330
516E
100
AcDbEntity
  8
0
100
AcDbVertex
100
AcDbPolygonMeshVertex
 10
-960.1918463406153
 20
788.8535430818369
 30
-352.7348268814059
 70
    64
  0
VERTEX
  5
517E
330
516E
100
AcDbEntity
  8
0
100
AcDbVertex
100
AcDbPolygonMeshVertex
 10
-971.2154463406154
 20
802.8235430818369
 30
-352.7348268814059
 70
    64
  0
VERTEX
  5
517F
330
516E
100
AcDbEntity
  8
0
100
AcDbVertex
100
AcDbPolygonMeshVertex
 10
-971.2154463406154
 20
802.8235430818369
 30
-352.7348268814059
 70
    64
  0
VERTEX
  5
5180
330
516E
100
AcDbEntity
  8
0
100
AcDbVertex
100
AcDbPolygonMeshVertex
 10
-971.2154463406154
 20
788.8535430818369
 30
-352.7348268814059
 70
    64
  0
SEQEND
  5
5181
330
516E
100
AcDbEntity
  8
0
  0
CIRCLE
  5
5182
330
1F
100
AcDbEntity
  8
0
100
AcDbCircle
 39
1.016
 10
-965.7036463406154
 20
795.2035430818369
 30
-353.7508268814058
 40
2.755899999999993
  0
POINT
  5
5183
330
1F
100
AcDbEntity
  8
SNAP_POINTS
100
AcDbPoint
 10
-975.7368088099669
 20
806.5579738026494
 30
-352.4808268814059
  0
POINT
  5
5184
330
1F
100
AcDbEntity
  8
SNAP_POINTS
100
AcDbPoint
 10
-940.8118088099667
 20
806.5579738026494
 30
-352.4808268814059
  0
POLYLINE
  5
5185
330
1F
100
AcDbEntity
  8
0
100
AcDbPolygonMesh
 66
     1
 10
0.0
 20
0.0
 30
0.0
 70
    16
 71
     6
 72
     3
  0
VERTEX
  5
5186
330
5185
100
AcDbEntity
  8
0
100
AcDbVertex
100
AcDbPolygonMeshVertex
 10
-941.9558860034062
 20
886.8981113922473
 30
-342.9558268814059
 70
    64
  0
VERTEX
  5
5187
330
5185
100
AcDbEntity
  8
0
100
AcDbVertex
100
AcDbPolygonMeshVertex
 10
-941.9558860034062
 20
886.8981113922473
 30
-352.4808268814059
 70
    64
  0
VERTEX
  5
5188
330
5185
100
AcDbEntity
  8
0
100
AcDbVertex
100
AcDbPolygonMeshVertex
 10
-941.9558860034062
 20
886.8981113922473
 30
-352.4808268814059
 70
    64
  0
VERTEX
  5
5189
330
5185
100
AcDbEntity
  8
0
100
AcDbVertex
100
AcDbPolygonMeshVertex
 10
-952.1152746012692
 20
886.8981113922473
 30
-342.9558268814059
 70
    64
  0
VERTEX
  5
518A
330
5185
100
AcDbEntity
  8
0
100
AcDbVertex
100
AcDbPolygonMeshVertex
 10
-952.1152746012692
 20
886.8981113922473
 30
-352.4808268814059
 70
    64
  0
VERTEX
  5
518B
330
5185
100
AcDbEntity
  8
0
100
AcDbVertex
100
AcDbPolygonMeshVertex
 10
-952.1152746012692
 20
886.8981113922473
 30
-352.4808268814059
 70
    64
  0
VERTEX
  5
518C
330
5185
100
AcDbEntity
  8
0
100
AcDbVertex
100
AcDbPolygonMeshVertex
 10
-952.1152746012692
 20
927.53756490271
 30
-342.9558268814059
 70
    64
  0
VERTEX
  5
518D
330
5185
100
AcDbEntity
  8
0
100
AcDbVertex
100
AcDbPolygonMeshVertex
 10
-952.1152746012692
 20
927.53756490271
 30
-352.4808268814059
 70
    64
  0
VERTEX
  5
518E
330
5185
100
AcDbEntity
  8
0
100
AcDbVertex
100
AcDbPolygonMeshVertex
 10
-952.1152746012692
 20
886.8981113922473
 30
-352.4808268814059
 70
    64
  0
VERTEX
  5
518F
330
5185
100
AcDbEntity
  8
0
100
AcDbVertex
100
AcDbPolygonMeshVertex
 10
-941.9558860034062
 20
927.53756490271
 30
-342.9558268814059
 70
    64
  0
VERTEX
  5
5190
330
5185
100
AcDbEntity
  8
0
100
AcDbVertex
100
AcDbPolygonMeshVertex
 10
-941.9558860034062
 20
927.53756490271
 30
-352.4808268814059
 70
    64
  0
VERTEX
  5
5191
330
5185
100
AcDbEntity
  8
0
100
AcDbVertex
100
AcDbPolygonMeshVertex
 10
-941.9558860034062
 20
886.8981113922473
 30
-352.4808268814059
 70
    64
  0
VERTEX
  5
5192
330
5185
100
AcDbEntity
  8
0
100
AcDbVertex
100
AcDbPolygonMeshVertex
 10
-941.9558860034062
 20
927.53756490271
 30
-342.9558268814059
 70
    64
  0
VERTEX
  5
5193
330
5185
100
AcDbEntity
  8
0
100
AcDbVertex
100
AcDbPolygonMeshVertex
 10
-941.9558860034062
 20
927.53756490271
 30
-342.9558268814059
 70
    64
  0
VERTEX
  5
5194
330
5185
100
AcDbEntity
  8
0
100
AcDbVertex
100
AcDbPolygonMeshVertex
 10
-941.9558860034062
 20
886.8981113922473
 30
-342.9558268814059
 70
    64
  0
VERTEX
  5
5195
330
5185
100
AcDbEntity
  8
0
100
AcDbVertex
100
AcDbPolygonMeshVertex
 10
-952.1152746012692
 20
927.53756490271
 30
-342.9558268814059
 70
    64
  0
VERTEX
  5
5196
330
5185
100
AcDbEntity
  8
0
100
AcDbVertex
100
AcDbPolygonMeshVertex
 10
-952.1152746012692
 20
927.53756490271
 30
-342.9558268814059
 70
    64
  0
VERTEX
  5
5197
330
5185
100
AcDbEntity
  8
0
100
AcDbVertex
100
AcDbPolygonMeshVertex
 10
-952.1152746012692
 20
886.8981113922473
 30
-342.9558268814059
 70
    64
  0
SEQEND
  5
5198
330
5185
100
AcDbEntity
  8
0
  0
ARC
  5
5199
330
1F
100
AcDbEntity
  8
0
100
AcDbCircle
 39
1.016
 10
-965.7036463406154
 20
953.1915430818369
 30
-353.7508268814058
 40
2.7559
100
AcDbArc
 50
356.7827327525303
 51
183.217267247463
  0
ARC
  5
519A
330
1F
100
AcDbEntity
  8
0
100
AcDbCircle
 39
1.016
 10
-965.7036463406154
 20
948.2756740215723
 30
-353.7508268814058
 40
5.499100000000003
100
AcDbArc
 50
120.0241420378339
 51
59.97585796216604
  0
LINE
  5
519B
330
1F
100
AcDbEntity
  8
0
100
AcDbLine
 10
-971.2154463406154
 20
959.795543081837
 30
-353.7508268814058
 11
-973.7554463406153
 21
959.795543081837
 31
-353.7508268814058
  0
LINE
  5
519C
330
1F
100
AcDbEntity
  8
0
100
AcDbLine
 10
-971.2154463406154
 20
959.795543081837
 30
-352.7348268814059
 11
-973.7554463406151
 21
959.795543081837
 31
-352.7348268814059
  0
LINE
  5
519D
330
1F
100
AcDbEntity
  8
0
100
AcDbLine
 10
-957.6518463406156
 20
959.795543081837
 30
-353.7508268814058
 11
-960.1918463406153
 21
959.795543081837
 31
-353.7508268814058
  0
POINT
  5
519E
330
1F
100
AcDbEntity
  8
DIMS-MTG-HOLES
100
AcDbPoint
 10
-1035.807646340615
 20
953.1915430818369
 30
-353.7508268814058
  0
POINT
  5
519F
330
1F
100
AcDbEntity
  8
DIMS-MTG-HOLES
100
AcDbPoint
 10
-965.7036463406154
 20
953.1915430818369
 30
-353.7508268814058
  0
POINT
  5
51A0
330
1F
100
AcDbEntity
  8
DIMS-MTG-HOLES
100
AcDbPoint
 10
-1035.807646340615
 20
795.2035430818369
 30
-353.7508268814058
  0
POINT
  5
51A1
330
1F
100
AcDbEntity
  8
DIMS-MTG-HOLES
100
AcDbPoint
 10
-965.7036463406154
 20
795.2035430818369
 30
-353.7508268814058
  0
DIMENSION
  5
51A2
330
1F
100
AcDbEntity
  8
AREA1
100
AcDbDimension
  2
*D0
 10
-896.0260249658061
 20
959.795543081837
 30
-353.7508268814058
 11
-896.0260249658063
 21
874.3245430818367
 31
-353.7508268814058
 70
    32
 71
     5
 42
170.942
  3
ABECAD_3D
100
AcDbAlignedDimension
 13
-960.1918463406153
 23
788.8535430818369
 33
-353.7508268814058
 14
-957.6518463406156
 24
959.795543081837
 34
-353.7508268814058
 50
90.0
100
AcDbRotatedDimension
1001
ACAD
1000
DSTYLE
1002
{
1070
   140
1040
4.5
1070
    41
1040
4.5
1002
}
  0
DIMENSION
  5
51A3
330
1F
100
AcDbEntity
  8
AREA1
100
AcDbDimension
  2
*D1
 10
-920.7456463406154
 20
978.4230160562074
 30
-353.7508268814058
 11
-1010.915646340615
 21
978.4230160562074
 31
-353.7508268814058
 70
    32
 71
     5
 42
180.3399999999999
  3
ABECAD_3D
100
AcDbAlignedDimension
 13
-1101.085646340615
 23
942.7775430818369
 33
-353.7508268814058
 14
-920.7456463406154
 24
932.6175430818368
 34
-353.7508268814058
100
AcDbRotatedDimension
1001
ACAD
1000
DSTYLE
1002
{
1070
   140
1040
4.5
1070
    41
1040
4.5
1002
}
  0
DIMENSION
  5
51A4
330
1F
100
AcDbEntity
  8
AREA2
100
AcDbDimension
  2
*D2
 10
-909.4064414122261
 20
959.795543081837
 30
-353.7508268814058
 11
-909.4064414122259
 21
-286.0920825222961
 31
-959.795543081837
 70
   160
 71
     5
 42
145.034
210
0.0
220
-1.0
230
0.0
  3
ABECAD_3D
100
AcDbAlignedDimension
 13
-920.7456463406154
 23
863.493074858651
 33
-208.7168268814059
 14
-930.9056463406152
 24
873.653074858651
 34
-353.7508268814058
 50
90.0
100
AcDbRotatedDimension
1001
ACAD
1000
DSTYLE
1002
{
1070
   140
1040
4.5
1070
    41
1040
4.5
1002
}
  0
LWPOLYLINE
  5
524B
330
1F
100
AcDbEntity
  8
SCALE
100
AcDbPolyline
 90
        4
 70
     1
 43
0.0
 38
-353.7508268814058
 10
-1147.908545409654
 20
933.7363995351216
 10
-1119.063573393288
 20
933.7363995351216
 10
-1119.063573393288
 20
912.3595165389602
 10
-1147.908545409654
 20
912.3595165389602
  0
VIEWPORT
  5
9C
102
{ACAD_XDICTIONARY
360
525A
102
}
330
89
100
AcDbEntity
 67
     1
  8
0
100
AcDbViewport
 10
5.346584865904822
 20
4.039352871279092
 30
0.0
 40
14.60188649343555
 41
8.146587424719569
 68
     1
 69
     1
 12
5.346584865904822
 22
4.039352871279092
 13
0.0
 23
0.0
 14
0.5
 24
0.5
 15
0.5
 25
0.5
 16
0.0
 26
0.0
 36
1.0
 17
0.0
 27
0.0
 37
0.0
 42
50.0
 43
0.0
 44
0.0
 45
8.146587424719569
 50
0.0
 51
0.0
 72
  1000
 90
    32800
  1

281
     0
 71
     1
 74
     0
110
0.0
120
0.0
130
0.0
111
1.0
121
0.0
131
0.0
112
0.0
122
1.0
132
0.0
 79
     0
146
0.0
  0
VIEWPORT
  5
960
102
{ACAD_XDICTIONARY
360
525C
102
}
330
89
100
AcDbEntity
 67
     1
  8
0
100
AcDbViewport
 10
2.655279694450206
 20
5.852377852791363
 30
0.0
 40
5.265273537481815
 41
4.444519538602776
 68
     4
 69
     2
 12
-1006.392440228101
 22
882.9052405217554
 13
0.0
 23
0.0
 14
0.5
 24
0.5
 15
0.5
 25
0.5
 16
0.0
 26
0.0
 36
1.0
 17
0.0
 27
0.0
 37
0.0
 42
50.0
 43
0.0
 44
0.0
 45
217.6896269502174
 50
0.0
 51
0.0
 72
  1000
341
98F
 90
    32832
  1

281
     2
 71
     1
 74
     0
110
0.0
120
0.0
130
0.0
111
1.0
121
0.0
131
0.0
112
0.0
122
1.0
132
0.0
 79
     0
146
0.0
  0
VIEWPORT
  5
962
102
{ACAD_XDICTIONARY
360
525E
102
}
330
89
100
AcDbEntity
 67
     1
  8
0
100
AcDbViewport
 10
2.655279694450205
 20
1.817093101977704
 30
0.0
 40
5.265273537481814
 41
3.626049963024541
 68
     3
 69
     3
 12
-1006.393205779353
 22
-282.4859669497689
 13
0.0
 23
0.0
 14
0.5
 24
0.5
 15
0.5
 25
0.5
 16
0.0
 26
-1.0
 36
0.0
 17
0.0
 27
0.0
 37
0.0
 42
50.0
 43
0.0
 44
0.0
 45
177.6031160420202
 50
0.0
 51
0.0
 72
  1000
341
98E
 90
    32832
  1

281
     2
 71
     1
 74
     0
110
0.0
120
0.0
130
0.0
111
1.0
121
0.0
131
0.0
112
0.0
122
1.0
132
0.0
 79
     0
146
0.0
  0
VIEWPORT
  5
964
102
{ACAD_XDICTIONARY
360
5260
102
}
330
89
100
AcDbEntity
 67
     1
  8
0
100
AcDbViewport
 10
7.921824282077195
 20
3.626879553828967
 30
0.0
 40
5.26781563777216
 41
7.245622866727068
 68
     2
 69
     4
 12
-1348.738450012106
 22
-190.2037545433785
 13
0.0
 23
0.0
 14
0.5
 24
0.5
 15
0.5
 25
0.5
 16
-1.0
 26
-1.0
 36
1.0
 17
0.0
 27
0.0
 37
0.0
 42
50.0
 43
0.0
 44
0.0
 45
491.8470388648363
 50
0.0
 51
0.0
 72
  1000
341
98E
341
98F
 90
    32832
  1

281
     2
 71
     1
 74
     0
110
0.0
120
0.0
130
0.0
111
1.0
121
0.0
131
0.0
112
0.0
122
0.0
132
1.0
 79
     3
146
0.0
  0
TEXT
  5
965
330
89
100
AcDbEntity
 67
     1
  8
0
100
AcDbText
 10
5.403435234597253
 20
7.727515017556658
 30
0.0
 40
0.203125
  1
1756-A4
100
AcDbText
  0
TEXT
  5
966
330
89
100
AcDbEntity
 67
     1
  8
0
100
AcDbText
 10
5.403435234597253
 20
7.394181684223325
 30
0.0
 40
0.203125
  1
ControlLogix 4 Slot Chassis
100
AcDbText
  0
ENDSEC
  0
SECTION
  2
OBJECTS
  0
DICTIONARY
  5
C
330
0
100
AcDbDictionary
281
     1
  3
ACAD_COLOR
350
73
  3
ACAD_GROUP
350
D
  3
ACAD_LAYOUT
350
1A
  3
ACAD_MATERIAL
350
72
  3
ACAD_MLINESTYLE
350
17
  3
ACAD_PLOTSETTINGS
350
19
  3
ACAD_PLOTSTYLENAME
350
E
  3
ACAD_TABLESTYLE
350
399E
  3
ACDBHEADERROUNDTRIPXREC
350
5265
  3
AcDbVariableDictionary
350
66
  3
BNS_VARIABLES
350
3B4D
  0
DICTIONARY
  5
39AB
330
2
100
AcDbDictionary
280
     1
281
     1
  3
ACAD_LAYERSTATES
360
39AC
  0
DICTIONARY
  5
3379
330
1F
100
AcDbDictionary
280
     1
281
     1
  3
ACAD_LAYOUTSELFREF
360
33B2
  3
ACAD_SORTENTS
360
3B58
  0
DICTIONARY
  5
337B
330
89
100
AcDbDictionary
280
     1
281
     1
  3
ACAD_LAYOUTSELFREF
360
33B5
  0
DICTIONARY
  5
525A
330
9C
100
AcDbDictionary
280
     1
281
     1
  3
ACAD_XREC_ROUNDTRIP
360
525B
  0
DICTIONARY
  5
525C
330
960
100
AcDbDictionary
280
     1
281
     1
  3
ACAD_XREC_ROUNDTRIP
360
525D
  0
DICTIONARY
  5
525E
330
962
100
AcDbDictionary
280
     1
281
     1
  3
ACAD_XREC_ROUNDTRIP
360
525F
  0
DICTIONARY
  5
5260
330
964
100
AcDbDictionary
280
     1
281
     1
  3
ACAD_XREC_ROUNDTRIP
360
5261
  0
DICTIONARY
  5
73
102
{ACAD_REACTORS
330
C
102
}
330
C
100
AcDbDictionary
281
     1
  0
DICTIONARY
  5
D
102
{ACAD_REACTORS
330
C
102
}
330
C
100
AcDbDictionary
281
     1
  0
DICTIONARY
  5
1A
102
{ACAD_REACTORS
330
C
102
}
330
C
100
AcDbDictionary
281
     1
  3
Model
350
22
  3
Viewports
350
8A
  0
DICTIONARY
  5
72
102
{ACAD_REACTORS
330
C
102
}
330
C
100
AcDbDictionary
281
     1
  0
DICTIONARY
  5
17
102
{ACAD_REACTORS
330
C
102
}
330
C
100
AcDbDictionary
281
     1
  3
Standard
350
18
  0
DICTIONARY
  5
19
102
{ACAD_REACTORS
330
C
102
}
330
C
100
AcDbDictionary
281
     1
  0
ACDBDICTIONARYWDFLT
  5
E
102
{ACAD_REACTORS
330
C
102
}
330
C
100
AcDbDictionary
281
     1
  3
Normal
350
F
100
AcDbDictionaryWithDefault
340
F
  0
DICTIONARY
  5
399E
102
{ACAD_REACTORS
330
C
102
}
330
C
100
AcDbDictionary
281
     1
  3
Standard
350
399F
  0
DICTIONARY
  5
5265
102
{ACAD_REACTORS
330
C
102
}
330
C
100
AcDbDictionary
281
     1
  3
CEPSNTYPE
350
526F
  3
FINGERPRINTGUID
350
5270
  3
HYPERLINKBASE
350
5268
  3
INSUNITS
350
526E
  3
LAYOUTDICT
350
526A
  3
LWETCUNION
350
526D
  3
PLOTSETDICT
350
526B
  3
PLOTSTYLNAMDICT
350
526C
  3
PSVPSCALE
350
5272
  3
PUCSBASE
350
5275
  3
PUCSORGBACK
350
527B
  3
PUCSORGBOTTOM
350
5277
  3
PUCSORGFRONT
350
527A
  3
PUCSORGLEFT
350
5278
  3
PUCSORGRIGHT
350
5279
  3
PUCSORGTOP
350
5276
  3
PUCSORTHOREF
350
5273
  3
PUCSORTHOVIEW
350
5274
  3
STYLESHEET
350
5269
  3
TSTACKALIGN
350
5266
  3
TSTACKSIZE
350
5267
  3
UCSBASE
350
527E
  3
UCSORGBACK
350
5284
  3
UCSORGBOTTOM
350
5280
  3
UCSORGFRONT
350
5283
  3
UCSORGLEFT
350
5281
  3
UCSORGRIGHT
350
5282
  3
UCSORGTOP
350
527F
  3
UCSORTHOREF
350
527C
  3
UCSORTHOVIEW
350
527D
  3
VERSIONGUID
350
5271
  0
DICTIONARY
  5
66
102
{ACAD_REACTORS
330
C
102
}
330
C
100
AcDbDictionary
281
     1
  3
CTABLESTYLE
350
3B6C
  3
DIMASSOC
350
67
  3
HIDETEXT
350
6B
  3
PROJECTNAME
350
33C5
  0
DICTIONARY
  5
3B4D
102
{ACAD_REACTORS
330
C
102
}
330
C
100
AcDbDictionary
281
     1
  3
ACET-OVERKILL-FUZZ
350
5250
  3
ACET-OVERKILL-NO-ENDTOEND
350
5253
  3
ACET-OVERKILL-NO-PARTIAL
350
5252
  3
ACET-OVERKILL-NO-PLINES
350
5251
  0
DICTIONARY
  5
39AC
102
{ACAD_REACTORS
330
39AB
102
}
330
39AB
100
AcDbDictionary
281
     1
  0
XRECORD
  5
33B2
102
{ACAD_REACTORS
330
3379
102
}
330
3379
100
AcDbXrecord
280
     1
340
1F
  0
SORTENTSTABLE
  5
3B58
102
{ACAD_REACTORS
330
3379
102
}
330
3379
100
AcDbSortentsTable
330
1F
331
5012
  5
5042
331
4EF7
  5
4FBF
331
4DE0
  5
4DE0
331
4E6B
  5
4F33
331
51A2
  5
5249
331
4DF0
  5
4E7F
331
4F47
  5
4FE9
331
4EBB
  5
4F83
331
4E2F
  5
4EF7
331
519D
  5
51F3
331
502D
  5
50E2
331
4DEB
  5
4E1B
331
4F0B
  5
4FD3
331
511E
  5
519A
331
4FE9
  5
502C
331
4DE6
  5
4DE6
331
4FD3
  5
5029
331
5013
  5
5056
331
5182
  5
519F
331
4E07
  5
4ECF
331
4DE1
  5
4DE1
331
4F97
  5
5013
331
4FFD
  5
502D
331
51A3
  5
524A
331
4DF1
  5
4E93
331
4E57
  5
4F1F
331
5146
  5
519C
331
519E
  5
51F4
331
50BA
  5
5182
331
502E
  5
50F6
331
4DEC
  5
4E2F
331
4E1B
  5
4EE3
331
510A
  5
5199
331
5199
  5
51A3
331
507E
  5
5146
331
4DE7
  5
4DE7
331
5029
  5
5092
331
5014
  5
506A
331
4FBF
  5
5015
331
5183
  5
51A0
331
4DE2
  5
4DE2
331
4FFE
  5
502E
331
51A4
  5
524B
331
4F6F
  5
4FFE
331
4DF2
  5
4EA7
331
4F83
  5
5012
331
4EE3
  5
4FAB
331
5056
  5
511E
331
519F
  5
51F5
331
4DED
  5
4E43
331
4F33
  5
4FE8
331
4EA7
  5
4F6F
331
519A
  5
51A4
331
502A
  5
50A6
331
4DE8
  5
4DE8
331
506A
  5
5132
331
5015
  5
507E
331
5184
  5
51A1
331
4DE3
  5
4DE3
331
516E
  5
519E
331
4E7F
  5
4F47
331
4DF3
  5
4EBB
331
4ECF
  5
4F97
331
4E43
  5
4F0B
331
51A0
  5
5247
331
4DEE
  5
4E57
331
5132
  5
519B
331
4E93
  5
4F5B
331
50A6
  5
516E
331
519B
  5
51F1
331
502B
  5
50BA
331
4FE7
  5
502A
331
50F6
  5
5185
331
5185
  5
51A2
331
4DE4
  5
4DE4
331
4FAB
  5
5014
331
515A
  5
519D
331
51A1
  5
5248
331
4F5B
  5
4FFD
331
4DEF
  5
4E6B
331
50CE
  5
5183
331
5042
  5
510A
331
519C
  5
51F2
331
4F1F
  5
4FE7
331
5092
  5
515A
331
502C
  5
50CE
331
4DEA
  5
4E07
331
4FE8
  5
502B
331
50E2
  5
5184
331
524B
  5
4DF0
331
4DE5
  5
4DE5
  0
XRECORD
  5
33B5
102
{ACAD_REACTORS
330
337B
102
}
330
337B
100
AcDbXrecord
280
     1
340
89
  0
XRECORD
  5
525B
102
{ACAD_REACTORS
330
525A
102
}
330
525A
100
AcDbXrecord
280
     1
102
SHADEPLOT
 70
     0
  0
XRECORD
  5
525D
102
{ACAD_REACTORS
330
525C
102
}
330
525C
100
AcDbXrecord
280
     1
102
SHADEPLOT
 70
     0
  0
XRECORD
  5
525F
102
{ACAD_REACTORS
330
525E
102
}
330
525E
100
AcDbXrecord
280
     1
102
SHADEPLOT
 70
     0
  0
XRECORD
  5
5261
102
{ACAD_REACTORS
330
5260
102
}
330
5260
100
AcDbXrecord
280
     1
102
SHADEPLOT
 70
     0
  0
LAYOUT
  5
22
102
{ACAD_XDICTIONARY
360
5257
102
}
102
{ACAD_REACTORS
330
1A
102
}
330
1A
100
AcDbPlotSettings
  1

  2
none_device
  4
ANSI_A_(8.50_x_11.00_Inches)
  6

 40
6.349999904632568
 41
19.04999923706054
 42
6.350006103515625
 43
19.04998779296875
 44
215.8999938964843
 45
279.3999938964843
 46
0.0
 47
0.0
 48
0.0
 49
0.0
140
0.0
141
0.0
142
1.0
143
2.584895464708373
 70
 11952
 72
     0
 73
     1
 74
     0
  7

 75
     0
147
0.3868628397755418
148
0.0
149
0.0
100
AcDbLayout
  1
Model
 70
     1
 71
     0
 10
0.0
 20
0.0
 11
12.0
 21
9.0
 12
0.0
 22
0.0
 32
0.0
 14
0.0
 24
0.0
 34
0.0
 15
0.0
 25
0.0
 35
0.0
146
0.0
 13
0.0
 23
0.0
 33
0.0
 16
1.0
 26
0.0
 36
0.0
 17
0.0
 27
1.0
 37
0.0
 76
     0
330
1F
  0
LAYOUT
  5
8A
102
{ACAD_XDICTIONARY
360
39AE
102
}
102
{ACAD_REACTORS
330
1A
102
}
330
1A
100
AcDbPlotSettings
  1

  2
\\Usmkevprnt002\USMKEPD0178
  4
Letter
  6

 40
5.365749835968017
 41
5.408084392547607
 42
5.4080810546875
 43
5.365753173828125
 44
215.8999938964843
 45
279.3999938964843
 46
0.0
 47
0.0
 48
0.0
 49
0.0
140
0.0
141
0.0
142
1.0
143
1.0
 70
   688
 72
     0
 73
     1
 74
     5
  7

 75
    16
147
1.0
148
0.0
149
0.0
100
AcDbLayout
  1
Viewports
 70
     1
 71
     1
 10
-0.2112501249538632
 20
-0.2112499935420479
 11
10.78874963475024
 21
8.288749766162061
 12
0.0
 22
0.0
 32
0.0
 14
0.0226429257092988
 24
0.0040681204654334
 34
0.0
 15
10.55573210096327
 25
8.074637622092751
 35
0.0
146
0.0
 13
0.0
 23
0.0
 33
0.0
 16
1.0
 26
0.0
 36
0.0
 17
0.0
 27
1.0
 37
0.0
 76
     0
330
89
331
9C
  0
MLINESTYLE
  5
18
102
{ACAD_REACTORS
330
17
102
}
330
17
100
AcDbMlineStyle
  2
STANDARD
 70
     0
  3

 62
   256
 51
90.0
 52
90.0
 71
     2
 49
0.5
 62
   256
  6
BYLAYER
 49
-0.5
 62
   256
  6
BYLAYER
  0
ACDBPLACEHOLDER
  5
F
102
{ACAD_REACTORS
330
E
102
}
330
E
  0
ACAD_PROXY_OBJECT
  5
399F
102
{ACAD_REACTORS
330
399E
102
}
330
399E
100
AcDbProxyObject
 90
      499
 91
      506
 95
   851991
 70
     0
 93
     1841
310
4214DD185B99185C9928B81E85EB51B8AE3F2E07A17AD46E2B8FC02B5E8DC0F42B1CFD028000000C1008070000C3001FDFF8000000C1003FBFF000000182007F7FE00000030400FEFFC00000060801FDFF8000000C1003FBFF00000018200000000000000681FA0B0000001820100E000186003FBFF000000182007F7FE000
310
00030400FEFFC00000060801FDFF8000000C1003FBFF000000182007F7FE000000304000AD7A3703D0AC73F4160000003040201C00030C007F7FE00000030400FEFFC00000060801FDFF8000000C1003FBFF000000182007F7FE00000030400FEFFC000000608000
340
11
340
11
340
11
 94
        0
  0
XRECORD
  5
526F
102
{ACAD_REACTORS
330
5265
102
}
330
5265
100
AcDbXrecord
280
     1
 90
        0
  0
XRECORD
  5
5270
102
{ACAD_REACTORS
330
5265
102
}
330
5265
100
AcDbXrecord
280
     1
  1
{FDEAD576-A652-11D2-9A35-0060089B3A3F}
  0
XRECORD
  5
5268
102
{ACAD_REACTORS
330
5265
102
}
330
5265
100
AcDbXrecord
280
     1
  1

  0
XRECORD
  5
526E
102
{ACAD_REACTORS
330
5265
102
}
330
5265
100
AcDbXrecord
280
     1
 90
        1
  0
XRECORD
  5
526A
102
{ACAD_REACTORS
330
5265
102
}
330
5265
100
AcDbXrecord
280
     1
340
1A
  0
XRECORD
  5
526D
102
{ACAD_REACTORS
330
5265
102
}
330
5265
100
AcDbXrecord
280
     1
 90
    10781
  0
XRECORD
  5
526B
102
{ACAD_REACTORS
330
5265
102
}
330
5265
100
AcDbXrecord
280
     1
340
19
  0
XRECORD
  5
526C
102
{ACAD_REACTORS
330
5265
102
}
330
5265
100
AcDbXrecord
280
     1
340
E
  0
XRECORD
  5
5272
102
{ACAD_REACTORS
330
5265
102
}
330
5265
100
AcDbXrecord
280
     1
 40
0.0
  0
XRECORD
  5
5275
102
{ACAD_REACTORS
330
5265
102
}
330
5265
100
AcDbXrecord
280
     1
340
0
  0
XRECORD
  5
527B
102
{ACAD_REACTORS
330
5265
102
}
330
5265
100
AcDbXrecord
280
     1
 10
0.0
 20
0.0
 30
0.0
  0
XRECORD
  5
5277
102
{ACAD_REACTORS
330
5265
102
}
330
5265
100
AcDbXrecord
280
     1
 10
0.0
 20
0.0
 30
0.0
  0
XRECORD
  5
527A
102
{ACAD_REACTORS
330
5265
102
}
330
5265
100
AcDbXrecord
280
     1
 10
0.0
 20
0.0
 30
0.0
  0
XRECORD
  5
5278
102
{ACAD_REACTORS
330
5265
102
}
330
5265
100
AcDbXrecord
280
     1
 10
0.0
 20
0.0
 30
0.0
  0
XRECORD
  5
5279
102
{ACAD_REACTORS
330
5265
102
}
330
5265
100
AcDbXrecord
280
     1
 10
0.0
 20
0.0
 30
0.0
  0
XRECORD
  5
5276
102
{ACAD_REACTORS
330
5265
102
}
330
5265
100
AcDbXrecord
280
     1
 10
0.0
 20
0.0
 30
0.0
  0
XRECORD
  5
5273
102
{ACAD_REACTORS
330
5265
102
}
330
5265
100
AcDbXrecord
280
     1
340
0
  0
XRECORD
  5
5274
102
{ACAD_REACTORS
330
5265
102
}
330
5265
100
AcDbXrecord
280
     1
 70
     0
  0
XRECORD
  5
5269
102
{ACAD_REACTORS
330
5265
102
}
330
5265
100
AcDbXrecord
280
     1
  1

  0
XRECORD
  5
5266
102
{ACAD_REACTORS
330
5265
102
}
330
5265
100
AcDbXrecord
280
     1
 90
        1
  0
XRECORD
  5
5267
102
{ACAD_REACTORS
330
5265
102
}
330
5265
100
AcDbXrecord
280
     1
 90
       70
  0
XRECORD
  5
527E
102
{ACAD_REACTORS
330
5265
102
}
330
5265
100
AcDbXrecord
280
     1
340
0
  0
XRECORD
  5
5284
102
{ACAD_REACTORS
330
5265
102
}
330
5265
100
AcDbXrecord
280
     1
 10
-370.7376209952446
 20
574.4931739166871
 30
-146.9521510172783
  0
XRECORD
  5
5280
102
{ACAD_REACTORS
330
5265
102
}
330
5265
100
AcDbXrecord
280
     1
 10
0.0
 20
0.0
 30
0.0
  0
XRECORD
  5
5283
102
{ACAD_REACTORS
330
5265
102
}
330
5265
100
AcDbXrecord
280
     1
 10
0.0
 20
0.0
 30
0.0
  0
XRECORD
  5
5281
102
{ACAD_REACTORS
330
5265
102
}
330
5265
100
AcDbXrecord
280
     1
 10
0.0
 20
0.0
 30
0.0
  0
XRECORD
  5
5282
102
{ACAD_REACTORS
330
5265
102
}
330
5265
100
AcDbXrecord
280
     1
 10
0.0
 20
0.0
 30
0.0
  0
XRECORD
  5
527F
102
{ACAD_REACTORS
330
5265
102
}
330
5265
100
AcDbXrecord
280
     1
 10
-1035.807646340615
 20
953.1915430818369
 30
-353.7508268814058
  0
XRECORD
  5
527C
102
{ACAD_REACTORS
330
5265
102
}
330
5265
100
AcDbXrecord
280
     1
340
0
  0
XRECORD
  5
527D
102
{ACAD_REACTORS
330
5265
102
}
330
5265
100
AcDbXrecord
280
     1
 70
     3
  0
XRECORD
  5
5271
102
{ACAD_REACTORS
330
5265
102
}
330
5265
100
AcDbXrecord
280
     1
  1
{008875C6-01C0-4CB2-A4D2-BAB072C54819}
  0
DICTIONARYVAR
  5
3B6C
102
{ACAD_REACTORS
330
66
102
}
330
66
100
DictionaryVariables
280
     0
  1
STANDARD
  0
DICTIONARYVAR
  5
67
102
{ACAD_REACTORS
330
66
102
}
330
66
100
DictionaryVariables
280
     0
  1
2
  0
DICTIONARYVAR
  5
6B
102
{ACAD_REACTORS
330
66
102
}
330
66
100
DictionaryVariables
280
     0
  1
1
  0
DICTIONARYVAR
  5
33C5
102
{ACAD_REACTORS
330
66
102
}
330
66
100
DictionaryVariables
280
     0
  1

  0
XRECORD
  5
5250
102
{ACAD_REACTORS
330
3B4D
102
}
330
3B4D
100
AcDbXrecord
280
     1
 40
0.000001
  0
XRECORD
  5
5253
102
{ACAD_REACTORS
330
3B4D
102
}
330
3B4D
100
AcDbXrecord
280
     1
 70
     0
  0
XRECORD
  5
5252
102
{ACAD_REACTORS
330
3B4D
102
}
330
3B4D
100
AcDbXrecord
280
     1
 70
     0
  0
XRECORD
  5
5251
102
{ACAD_REACTORS
330
3B4D
102
}
330
3B4D
100
AcDbXrecord
280
     1
 70
     0
  0
DICTIONARY
  5
5257
330
22
100
AcDbDictionary
280
     1
281
     1
  3
ACAD_XREC_ROUNDTRIP
360
5258
  0
DICTIONARY
  5
39AE
330
8A
100
AcDbDictionary
280
     1
281
     1
  3
ACAD_XREC_ROUNDTRIP
360
5259
  3
ADSK_XREC_LAYOUTTHUMBNAIL
360
39AF
  0
XRECORD
  5
5258
102
{ACAD_REACTORS
330
5257
102
}
330
5257
100
AcDbXrecord
280
     1
102
SHADEPLOT
 70
     0
102
SHADEPLOTRESLEVEL
 70
     2
102
SHADEPLOTCUSTOMDPI
 70
   300
  0
XRECORD
  5
5259
102
{ACAD_REACTORS
330
39AE
102
}
330
39AE
100
AcDbXrecord
280
     1
102
SHADEPLOT
 70
     1
102
SHADEPLOTRESLEVEL
 70
     2
102
SHADEPLOTCUSTOMDPI
 70
   300
  0
XRECORD
  5
39AF
102
{ACAD_REACTORS
330
39AE
102
}
330
39AE
100
AcDbXrecord
280
     1
310
28000000B40000008B0000000100080000000000BC61000000000000000000000001000000000000FFFFFF0000000000FFFFFF000000000000000000000000000000000000000000000000000000000000000000330000006600000099000000CC000000FF00000000330000333300006633000099330000CC330000FF3300
310
0000660000336600006666000099660000CC660000FF66000000990000339900006699000099990000CC990000FF99000000CC000033CC000066CC000099CC0000CCCC0000FFCC000000FF000033FF000066FF000099FF0000CCFF0000FFFF000000003300330033006600330099003300CC003300FF003300003333003333
310
33006633330099333300CC333300FF33330000663300336633006666330099663300CC663300FF66330000993300339933006699330099993300CC993300FF99330000CC330033CC330066CC330099CC3300CCCC3300FFCC330000FF330033FF330066FF330099FF3300CCFF3300FFFF330000006600330066006600660099
310
006600CC006600FF00660000336600333366006633660099336600CC336600FF33660000666600336666006666660099666600CC666600FF66660000996600339966006699660099996600CC996600FF99660000CC660033CC660066CC660099CC6600CCCC6600FFCC660000FF660033FF660066FF660099FF6600CCFF6600
310
FFFF660000009900330099006600990099009900CC009900FF00990000339900333399006633990099339900CC339900FF33990000669900336699006666990099669900CC669900FF66990000999900339999006699990099999900CC999900FF99990000CC990033CC990066CC990099CC9900CCCC9900FFCC990000FF99
310
0033FF990066FF990099FF9900CCFF9900FFFF99000000CC003300CC006600CC009900CC00CC00CC00FF00CC000033CC003333CC006633CC009933CC00CC33CC00FF33CC000066CC003366CC006666CC009966CC00CC66CC00FF66CC000099CC003399CC006699CC009999CC00CC99CC00FF99CC0000CCCC0033CCCC0066CC
310
CC0099CCCC00CCCCCC00FFCCCC0000FFCC0033FFCC0066FFCC0099FFCC00CCFFCC00FFFFCC000000FF003300FF006600FF009900FF00CC00FF00FF00FF000033FF003333FF006633FF009933FF00CC33FF00FF33FF000066FF003366FF006666FF009966FF00CC66FF00FF66FF000099FF003399FF006699FF009999FF00CC
310
99FF00FF99FF0000CCFF0033CCFF0066CCFF0099CCFF00CCCCFF00FFCCFF0000FFFF0033FFFF0066FFFF0099FFFF00CCFFFF00FFFFFF00000000000D0D0D001A1A1A00282828003535350043434300505050005D5D5D006B6B6B00787878008686860093939300A1A1A100AEAEAE00BBBBBB00C9C9C900D6D6D600E4E4E400
310
F1F1F100FFFFFF0000000000000000000000000000000000000000000000000000000000000000000000000000000000E2E2E2E2E2E2E2E2E2E2E2E2E2E2E2E2E2E2E2E2E2E2E2E2E2E2E2E2E2E2E2E2E2E2E2E2E2E2E2E2E2E2E2E2E2E2E2E2E2E2E2E2E2E2E2E2E2E2E2E2E2E2E2E2E2E2E2E2E2E2E2E2E2E2E2E2E2E2E2
310
E2E2E2E2E2E2E2E2E2E2E2E2E2E2E2E2E2E2E2E2E2E2E2E2E2E2E2E2E2E2E2E2E2E2E2E2E2E2E2E2E2E2E2E2E2E2E2E2E2E2E2E2E2E2E2E2E2E2E2E2E2E2E2E2E2E2E2E2E2E2E2E2E2E2E2E2E2E2E2E2E2E2E2E2E2E2E2E2E2E2E2E2E2E2E2E2E2E2E2E2E2E2F5F5F5F5F5F5F5F5F5F5F5F5F5F5F5F5F5F5F5F5F5F5F5F5F5
310
F5F5F5F5F5F5F5F5F5F5F5F5F5F5F5F5F5F5F5F5F5F5F5F5F5F5F5F5F5F5F5F5F5F5F5F5F5F5F5F5F5F5F5F5F5F5F5F5F5F5F5F5F5F5F5F5F5F5F5F5F5F5F5F5F5F5F5F5F5F5F5F5F5F5F5F5F5F5F5F5F5F5F5F5F5F5F5F5F5F5F5F5F5F5F5F5F5F5F5F5F5F5F5F5F5F5F5F5F5F5F5F5F5F5F5F5F5F5F5F5F5F5F5F5F5F5F5
310
F5F5F5F5F5F5F5F5F5F5F5F5F5F5F5F5F5F5F5F5F5F5F5F5F5E2E2E2F5F5F5F5F5F5F5F5F5F5F5F5F5F5F5F5F5F5F5F5F5F5F5F5F5F5F5F5F5F5F5F5F5F5F5F5F5F5F5F5F5F5F5F5F5F5F5F5F5F5F5F5F5F5F5F5F5F5F5F5F5F5F5F5F5F5F5F5F5F5F5F5F5F5F5F5F5F5F5F5F5F5F5F5F5F5F5F5F5F5F5F5F5F5F5F5F5F5F5
310
F5F5F5F5F5F5F5F5F5F5F5F5F5F5F5F5F5F5F5F5F5F5F5F5F5F5F5F5F5F5F5F5F5F5F5F5F5F5F5F5F5F5F5F5F5F5F5F5F5F5F5F5F5F5F5F5F5F5F5F5F5F5F5F5F5F5F5F5F5F5F5F5F5F5F5F5F5F5E2E2E2F5F5F5F5F5F5F5F5F5F5F5F5F5F5F5F5F5F5F5F5F5F5F5F5F5F5F5F5F5F5F5F5F5F5F5F5F5F5F5F5F5F5F5F5F5F5
310
F5F5F5F5F5F5F5F5F5F5F5F5F5F5F5F5F5F5F5F5F5F5F5F5F5F5F5F5F5F5F5F5F5F5F5F5F5F5F5F5F5F5F5F5F5F5F5F5F5F5F5F5F5F5F5F5F5F5F5F5F5F5F5F5F5F5F5F5F5F5F5F5F5F5F5F5F5F5F5F5F5F5F5F5F5F5F5F5F5F5F5F5F5F5F5F5F5F5F5F5F5F5F5F5F5F5F5F5F5F5F5F5F5F5F5F5F5F5F5F5F5F5F5F5F5F5F5
310
F5F5F5F5E2E2E2F5F5F5E2E2E2E2E2E2E2E2E2E2E2E2E2E2E2E2E2E2E2E2E2E2E2E2E2E2E2E2E2E2E2E2E2E2E2E2E2E2E2E2E2E2E2E2E2E2E2E2E2E2E2E2E2E2E2E2E2E2E2E2E2E2E2E2E2E2E2E2E2E2E2E2E2E2E2E2E2E2E2E2E2E2E2E2E2E2E2E2E2E2E2E2E2E2E2E2E2E2E2E2E2E2E2E2E2E2E2E2E2E2E2E2E2E2E2E2E2
310
E2E2E2E2E2E2E2E2E2E2E2E2E2E2E2E2E2E2E2E2E2E2E2E2E2E2E2E2E2E2E2E2E2E2E2E2E2E2E2E2E2E2E2E2E2E2E2E2E2E2E2E2E2E2F5F5F5E2E2E2F5F5F5E2F5F5F5F5F5F5F5F5F5F5F5F5F5F5F5F5F5F5F5F5F5F5F5F5F5F5F5F5F5F5F5F5F5F5F5F5F5F5F5F5F5F5F5F5F5F5F5F5F5F5F5F5F5F5F5F5F5F5F5F5F5F5F5
310
F5F5F5F5F5F5F5F5F5F5F5F5F5F5F5F5F5F5F5F5F5E2F5F5F5F5F5F5F5F5F5F5F5F5F5F5F5F5F5F5F5F5F5F5F5F5F5F5F5F5F5F5F5F5F5F5F5F5F5F5F5F5F5F5F5F5F5F5F5F5F5F5F5F5F5F5F5F5F5F5F5F5F5F5F5F5F5F5F5F5F5F5F5F5F5F5F5F5F5F5F5F5F5F5F5F5E2F5F5F5E2E2E2F5F5F5E2F5F5F5F5F5F5F5F5F5F5
310
F5F5F5F5F5F5F5F5F5F5F5F5F5F5F5F5F5F5F5F5F5F5F5F5F5F5F5F5F5F5F5F5F5F5F5F5F5F5F5F5F5F5F5F5F5F5F5F5F5F5F5F5F5F5F5F5F5F5F5F5F5F5F5F5F5F5F5F5F5F5F5F5F5F5E2F5F5F5F5F5F5F5F5F5F5F5F5F5F5F5F5F5F5F5F5F5F5F5F5F5F5F5F5F5F5F5F5F5F5F5F5F5F5F5F5F5F5F5F5F5F5F5F5F5F5F5F5
310
F5F5F5F5F5F5F5F5F5F5F5F5F5F5F5F5F5F5F5F5F5F5F5F5F5F5F5F5F5F5F5F5E2F5F5F5E2E2E2F5F5F5E2F5F5F5F5F5F5F5F5F5F5F5F5F5F5F5F5F5F5F5F5F5F5F5F5F5F5F5F5F5F5F5F5F5F5F5F5F5F5F5F5F5F5F5F5F5F5F5F5F5F5F5F5F5F5F5F5F5F5F5F5F5F5F5F5F5F5F5F5F5F5F5F5F5F5F5F5F5F5F5F5F5F5F5F5
310
E2F5F5F5F5F5F5F5F5F5F5F5F5F5F5F5F5F5F5F5F5F5F5F5F5F5F5F5F5F5F5F5F5F5F5F5F5F5F5F5F5F5F5F5F5F5F5F5F5F5F5F5F5F5F5F5F5F5F5F5F5F5F5F5F5F5F5F5F5F5F5F5F5F5F5F5F5F5F5F5F5F5F5F5F5E2F5F5F5E2E2E2F5F5F5E2F5F5F5F5F5F5F5F5F5F5F5F5F5F5F5F5F5F5F5F5F5F5F5F5F5F5F5F5F5F5F5
310
F5F5F5F5F5F5F5F5F5F5F5F5F5F5F5F5F5F5F5F5F5F5F5F5F5F5F5F5F5F5F5F5F5F5F5F5F5F5F5F5F5F5F5F5F5F5F5F5F5F5F5F5F5E2F5F5F5F5F5F5F5F5F5F5F5F5F5F5F5F5F5F5F5F5F5F5F5F5F5F5F5F5F5F5F5F5F5F5F5F5F5F5F5F5F5F5F5F5F5F5F5F5F5F5F5F5F5F5F5F5F5F5F5F5F5F5F5F5F5F5F5F5F5F5F5F5F5
310
F5F5F5F5F5F5F5F5F5F5F5E2F5F5F5E2E2E2F5F5F5E2F5F5F5F5F5F5F5F5F5F5F5F5F5F5F5F5F5F5F5F5F5F5F5F5F5F5F5F5F5F5F5F5F5F5F5F5F5F5F5F5F5F5F5F5F5F5F5F5F5F5F5F5F5F5F5F5F5F5F5F5F5F5F5F5F5F5F5F5F5F5F5F5F5F5F5F5F5F5F5F5F5F5F5F5E2F5F5F5F5F5F5F5F5F5F5F5F5F5F5F5F5F5F5F5F5
310
F5F5F5F5F5F5F5F5F5F5F5F5F5F5F5F5F5F5F5F5F5F5F5F5F5F5F5F5F5F5F5F5F5F5F5F5F5F5F5F5F5F5F5F5F5F5F5F5F5F5F5F5F5F5F5F5F5F5F5F5F5F5F5F5E2F5F5F5E2E2E2F5F5F5E2E2E2E2E2E2E2E2E2E2E2F5F5F5F5F5E2E2E2E2E2E2E2E2E2E2E2E2E2E2E2E2E2E2E2E2E2BEBEE2E2E2E2E2E2E2E2E2E2E2E2E2E2
310
E2E2E2E2E2E2E2BEBEE2E2E2E2E2E2E2E2E2E2E2E2E2E2E2E2E2E2E2F5F5F5F5E2F5F5F5F5F5F5F5F5F5F5F5F5F5F5F5F5F5F5F5F5F5F5F5F5F5F5F5F5F5F5F5F5F5F5F5F5F5F5F5F5F5F5F5F5F5F5F5F5F5F5F5F5F5F5F5F5F5F5F5F5F5F5F5F5F5F5F5F5F5F5F5F5F5F5F5F5F5F5F5F5F5F5F5F5E2F5F5F5E2E2E2F5F5F5
310
E2F5F5F5F5F5F5F5F5F5F5F5F5F5F5F5E2E2E2E2BEE2E2E2E2E2E2E2E2E2E2E2E2E2BEE2E2E2E2E2E2E2E2E2E2E2BEE2E2E2E2E2E2E2E2E2E2E2E2E2E2E2E2E2E2E2E2E2E2E2E2E2E2F5F5F5E2F5F5E2E2F5F5F5F5E2F5F5F5F5F5F5F5F5F5F5F5F5F5F5F5F5F5F5F5F5F5F5F5F5F5F5F5F5F5F5F5F5F5F5F5F5F5F5F5F5F5
310
F5F5F5F5F5F5F5F5F5F5F5F5F5F5F5F5F5F5F5F5F5F5F5F5F5F5F5F5F5F5F5F5F5F5F5F5F5F5F5F5F5F5F5E2F5F5F5E2E2E2F5F5F5E2F5F5F5F5F5F5F5F5F5F5F5F5F5F5F5E2F5E2E2E2E2F5F5E2F5F5F5F5F5F5E2F5E2E2E2E2F5F5F5F5F5E2F5F5E2E2E2F5F5F5F5F5F5E2F5E2E2E2E2F5F5F5F5F5E2F5F5E2E2E2F5E2F5
310
F5F5E2F5F5E2E2F5F5F5F5E2F5F5F5F5F5F5F5F5F5F5F5F5F5F5F5F5F5F5F5F5F5F5F5F5F5F5F5F5F5F5F5F5F5F5F5F5F5F5F5F5F5F5F5F5F5F5F5F5F5F5F5F5F5F5F5F5F5F5F5F5F5F5F5F5F5F5F5F5F5F5F5F5F5F5F5F5F5F5F5F5F5F5F5F5E2F5F5F5E2E2E2F5F5F5E2F5F5F5F5F5F5F5F5F5F5F5F5F5F5F5E2F5E2E2E2
310
E2F5F5E2F5F5F5F5F5F5E2F5E2E2E2E2F5F5F5F5F5E2F5F5E2E2E2F5F5F5F5F5F5E2F5E2E2E2E2F5F5F5F5F5E2F5F5E2E2E2F5E2F5F5F5E2F5F5E2F5F5F5F5F5E2F5F5F5F5F5F5F5F5F5F5F5F5F5F5F5F5F5F5F5F5F5F5F5F5F5F5F5F5F5F5F5F5F5F5F5F5F5F5F5F5F5F5F5F5F5F5F5F5F5F5F5F5F5F5F5F5F5F5F5F5F5F5
310
F5F5F5F5F5F5F5F5F5F5F5F5F5F5F5F5F5F5F5F5F5F5E2F5F5F5E2E2E2F5F5F5E2F5F5F5F5F5F5F5F5F5F5F5F5F5F5F5E2E2E2E2E2E2F5F5E2F5F5F5F5F5F5E2E2E2E2E2E2F5F5F5F5F5E2E2E2E2E2E2F5F5F5F5F5F5E2E2E2E2E2E2F5F5F5F5F5E2E2E2E2E2E2F5E2F5F5F5E2F5F5E2F5F5F5F5F5E2F5F5F5F5F5F5F5F5F5
310
F5F5F5F5F5F5F5F5F5F5F5F5F5F5F5F5F5F5F5F5F5F5F5F5F5F5F5F5F5F5F5F5F5F5F5F5F5F5F5F5F5F5F5F5F5F5F5F5F5F5F5F5F5F5F5F5F5F5F5F5F5F5F5F5F5F5F5F5F5F5F5F5F5F5F5E2F5F5F5E2E2E2F5F5F5E2F5F5F5F5F5F5F5F5F5F5F5F5F5F5F5E2F5E2E2E2E2F5F5E2F5F5F5F5F5F5F5F5E2E2E2E2F5F5F5F5F5
310
F5F5F5E2E2E2F5F5F5F5F5F5F5F5E2E2E2E2F5F5F5F5F5F5F5F5E2E2E2F5E2F5F5F5E2F5F5E2F5F5F5F5F5E2F5F5F5F5F5F5F5F5F5F5F5F5F5F5F5F5F5F5F5F5F5F5F5F5F5F5F5F5F5F5F5F5F5F5F5F5F5F5F5F5F5F5F5F5F5F5F5F5F5F5F5F5F5F5F5F5F5F5F5F5F5F5F5F5F5F5F5F5F5F5F5F5F5F5F5F5F5F5F5F5F5F5F5
310
F5E2F5F5F5E2E2E2F5F5F5E2F5F5F5F5F5F5F5F5F5F5F5F5F5F5F5E2F5E2E2E2E2F5F5E2F5F5F5F5F5F5F5F5E2E2E2E2F5F5F5F5F5F5F5F5E2E2E2F5F5F5F5F5F5F5F5E2E2E2E2F5F5F5F5F5F5F5F5E2E2E2F5E2F5F5F5E2F5F5E2F5F5F5F5F5E2F5F5F5F5F5F5F5F5F5F5F5F5F5F5F5F5F5F5F5F5F5F5F5F5F5F5F5F5F5F5
310
F5F5F5F5F5F5F5F5F5F5F5F5F5F5F5F5F5F5F5F5F5F5F5F5F5F5F5F5F5F5F5F5F5F5F5F5F5F5F5F5F5F5F5F5F5F5F5F5F5F5F5F5F5F5E2F5F5F5E2E2E2F5F5F5E2F5F5F5F5F5F5F5F5F5F5F5F5F5F5F5E2F5E2E2E2E2F5F5E2F5F5F5F5F5F5F5F5E2E2E2E2F5F5F5F5F5F5F5F5E2E2E2F5F5F5F5F5F5F5F5E2E2E2E2F5F5F5
310
F5F5F5F5F5E2E2E2F5E2F5F5F5E2F5F5E2F5F5F5F5F5E2F5F5F5F5F5F5F5F5F5F5F5F5F5F5F5F5F5F5F5F5F5F5F5F5F5F5F5F5F5F5F5F5F5F5F5F5F5F5F5F5F5F5F5F5F5F5F5F5F5F5F5F5F5F5F5F5F5F5F5F5F5F5F5F5F5F5F5F5F5F5F5F5F5F5F5F5F5F5F5F5F5F5F5F5E2F5F5F5E2E2E2F5F5F5E2F5F5F5F5F5F5F5F5F5
310
F5F5F5F5F5F5E2F5E2E2E2E2F5F5E2F5F5F5F5F5F5F5F5E2E2E2E2F5F5F5F5F5F5F5F5E2E2E2F5F5F5F5F5F5F5F5E2E2E2E2F5F5F5F5F5F5F5F5E2E2E2F5E2F5F5F5E2F5F5E2F5F5F5F5F5E2F5F5F5F5F5F5F5F5F5F5F5F5F5F5F5F5F5F5F5F5F5F5F5F5F5F5F5F5F5F5F5F5F5F5F5F5F5F5F5F5F5F5F5F5F5F5F5F5F5F5F5
310
F5F5F5F5F5F5F5F5F5F5F5F5F5F5F5F5F5F5F5F5F5F5F5F5F5F5F5F5F5F5F5F5F5E2F5F5F5E2E2E2F5F5F5E2F5F5F5F5F5F5F5F5F5F5F5F5F5F5F5E2F5E2E2E2E2F5F5E2F5F5F5F5F5F5F5F5E2E2E2E2F5F5F5F5F5F5F5F5E2E2E2F5F5F5F5F5F5F5F5E2E2E2E2F5F5F5F5F5F5F5F5E2E2E2F5E2F5F5F5E2F5F5E2F5F5F5F5
310
F5E2F5F5F5F5F5F5F5F5F5F5F5F5F5F5F5F5F5F5F5F5F5F5F5F5F5F5F5F5F5F5F5F5F5F5F5F5F5F5F5F5F5F5F5F5F5F5F5F5F5F5F5F5F5F5F5F5F5F5F5F5F5F5F5F5F5F5F5F5F5F5F5F5F5F5F5F5F5F5F5F5F5F5F5F5E2F5F5F5E2E2E2F5F5F5E2F5F5F5F5F5F5F5F5F5F5F5F5F5F5F5E2F5E2E2E2E2F5F5E2F5F5F5F5F5F5
310
F5F5E2E2E2E2F5F5F5F5F5F5F5F5E2E2E2F5F5F5F5F5F5F5F5E2E2E2E2F5F5F5F5F5F5F5F5E2E2E2F5E2F5F5F5E2F5F5E2F5F5F5F5F5E2F5F5F5F5F5F5F5F5F5F5F5F5F5F5F5F5F5F5F5F5F5F5F5F5F5F5F5F5F5F5F5F5F5F5F5F5F5F5F5F5F5F5F5F5F5F5F5F5F5F5F5F5F5F5F5F5F5F5F5F5F5F5F5F5F5F5F5F5F5F5F5F5
310
F5F5F5F5F5F5F5F5F5F5F5F5E2F5F5F5E2E2E2F5F5F5E2F5F5F5F5F5F5F5F5F5F5F5F5F5F5F5E2F5E2E2E2E2F5F5E2F5F5F5F5F5F5F5F5E2E2E2E2F5F5F5F5F5F5F5F5E2E2E2F5F5F5F5F5F5F5F5E2E2E2E2F5F5F5F5F5F5F5F5E2E2E2F5E2F5F5F5E2F5F5E2F5F5F5F5F5E2F5F5F5F5F5F5F5F5F5F5F5F5F5F5F5F5F5F5F5
310
F5F5F5F5F5F5F5F5F5F5F5F5F5F5F5F5F5F5F5F5F5F5F5F5F5F5F5F5F5F5F5F5F5F5F5F5F5F5F5F5F5F5F5F5F5F5F5F5F5F5F5F5F5F5F5F5F5F5F5F5F5F5F5F5F5E2F5F5F5E2E2E2F5F5F5E2F5F5F5F5F5F5F5F5F5F5F5F5F5F5F5E2F5E2E2E2E2F5F5E2F5F5F5F5F5F5F5F5E2E2E2E2F5F5F5F5F5F5F5F5E2E2E2F5F5F5F5
310
F5F5F5F5E2E2E2E2F5F5F5F5F5F5F5F5E2E2E2F5E2F5F5F5E2F5F5E2E2F5F5F5F5E2F5F5F5F5F5F5F5F5F5F5F5F5F5F5F5F5F5F5F5F5F5F5F5F5F5F5F5F5F5F5F5F5F5F5F5F5F5F5F5F5F5F5F5F5F5F5F5F5F5F5F5F5F5F5F5F5F5F5F5F5F5F5F5F5F5F5F5F5F5F5F5F5F5F5F5F5F5F5F5F5F5F5F5F5E2F5F5F5E2E2E2F5F5
310
F5E2F5F5F5F5F5F5F5F5F5F5F5F5F5F5F5E2F5E2E2E2E2F5F5E2F5F5F5F5F5F5F5F5E2E2E2E2F5F5F5F5F5F5F5F5E2E2E2F5F5F5F5F5F5F5F5E2E2E2E2F5F5F5F5F5F5F5F5E2E2E2F5E2F5F5F5E2F5F5E2E2F5F5F5F5E2F5F5F5F5F5F5F5F5F5F5F5F5F5F5F5F5F5F5F5F5F5F5F5F5F5F5F5F5F5F5F5F5F5F5F5F5F5F5F5F5
310
F5F5F5F5F5F5F5F5F5F5F5F5F5F5F5F5F5F5F5F5F5F5F5F5F5F5F5F5F5F5F5F5F5F5F5F5F5F5F5F5F5F5F5F5E2F5F5F5E2E2E2F5F5F5E2F5F5F5F5F5F5F5F5F5F5F5F5F5F5F5E2F5E2E2E2E2F5F5E2F5F5F5F5F5F5F5F5E2E2E2E2F5F5F5F5F5F5F5F5E2E2E2F5F5F5F5F5F5F5F5E2E2E2E2F5F5F5F5F5F5F5F5E2E2E2F5E2
310
F5F5F5E2F5F5E2E2F5F5F5F5E2F5F5F5F5F5F5F5F5F5F5F5F5F5F5F5F5F5F5F5F5F5F5F5F5F5F5F5F5F5F5F5F5F5F5F5F5F5F5F5F5F5F5F5F5F5F5F5F5F5F5F5F5F5F5F5F5F5F5F5F5F5F5F5F5F5F5F5F5F5F5F5F5F5F5F5F5F5F5F5F5F5F5F5F5E2F5F5F5E2E2E2F5F5F5E2F5F5F5F5F5F5F5F5F5F5F5F5F5F5F5E2F5E2E2
310
E2E2F5F5E2F5F5F5F5F5F5F5F5E2E2E2E2F5F5F5F5F5F5F5F5E2E2E2F5F5F5F5F5F5F5F5E2E2E2E2F5F5F5F5F5F5F5F5E2E2E2F5E2F5F5F5E2F5F5E2E2F5F5F5F5E2F5F5F5F5F5F5F5F5F5F5F5F5F5F5F5F5F5F5F5F5F5F5F5F5F5F5F5F5F5F5F5F5F5F5F5F5F5F5F5F5F5F5F5F5F5F5F5F5F5F5F5F5F5F5F5F5F5F5F5F5F5
310
F5F5F5F5F5F5F5F5F5F5F5F5F5F5F5F5F5F5F5F5F5F5F5E2F5F5F5E2E2E2F5F5F5E2F5F5F5F5F5F5F5F5F5F5F5F5F5F5F5E2F5E2E2E2E2F5F5E2F5F5F5F5F5F5F5F5E2E2E2E2F5F5F5F5F5F5F5F5E2E2E2F5F5F5F5F5F5F5F5E2E2E2E2F5F5F5F5F5F5F5F5E2E2E2F5E2F5F5F5E2F5F5E2E2F5F5F5F5E2F5F5F5F5F5F5F5F5
310
F5F5F5F5F5F5F5F5F5F5F5F5F5F5F5F5F5F5F5F5F5F5F5F5F5F5F5F5F5F5F5F5F5F5F5F5F5F5F5F5F5F5F5F5F5F5F5F5F5F5F5F5F5F5F5F5F5F5F5F5F5F5F5F5F5F5F5F5F5F5F5F5F5F5F5F5E2F5F5F5E2E2E2F5F5F5E2F5F5F5F5F5F5F5F5F5F5F5F5F5F5F5E2F5E2E2E2E2F5F5E2F5F5F5F5F5F5F5F5E2E2E2E2F5F5F5F5
310
F5F5F5F5E2E2E2F5F5F5F5F5F5F5F5E2E2E2E2F5F5F5F5F5F5F5F5E2E2E2F5E2F5F5F5E2F5F5E2E2F5F5F5F5E2F5F5F5F5F5F5F5F5F5F5F5F5F5F5F5F5F5F5F5F5F5F5F5F5F5F5F5F5F5F5F5F5F5F5F5F5F5F5F5F5F5F5F5F5F5F5F5F5F5F5F5F5F5F5F5F5F5F5F5F5F5F5F5F5F5F5F5F5F5F5F5F5F5F5F5F5F5F5F5F5F5F5
310
F5F5E2F5F5F5E2E2E2F5F5F5E2F5F5F5F5F5F5F5F5F5F5F5F5F5F5F5E2F5E2E2E2E2F5F5E2F5F5F5F5F5F5F5F5E2E2E2E2F5F5F5F5F5F5F5F5E2E2E2F5F5F5F5F5F5F5F5E2E2E2E2F5F5F5F5F5F5F5F5E2E2E2F5E2F5F5F5E2F5F5E2E2F5F5F5F5E2F5F5F5F5F5F5F5F5F5F5F5F5F5F5F5F5F5F5F5F5F5F5F5F5F5F5F5F5F5
310
F5F5F5F5F5F5F5F5F5F5F5F5F5F5E2E2E2E2E2F5F5F5F5F5F5F5F5F5F5F5F5F5F5F5F5F5F5F5F5F5F5F5F5F5F5F5F5F5F5F5F5F5F5F5F5E2F5F5F5E2E2E2F5F5F5E2F5F5F5F5F5F5F5F5F5F5F5F5F5F5F5E2F5E2E2E2E2F5F5E2F5F5F5F5F5F5F5F5E2E2E2E2F5F5F5F5F5F5F5F5E2E2E2F5F5F5F5F5F5F5F5E2E2E2E2F5F5
310
F5F5F5F5F5F5E2E2E2F5E2F5F5F5E2F5F5E2E2F5F5F5F5E2F5F5F5F5F5F5F5F5F5F5F5F5F5F5F5F5F5F5F5F5F5F5F5F5F5F5F5F5F5F5F5F5F5F5F5F5F5F5F5F5F5E2E2E2E2E2E2E2E2E2F5F5F5F5F5F5F5F5F5F5F5F5F5F5F5F5F5F5F5F5F5F5F5F5F5F5F5F5F5F5F5F5F5F5E2F5F5F5E2E2E2F5F5F5E2F5F5F5F5F5F5F5F5
310
F5F5F5F5F5F5F5E2F5E2E2E2E2F5F5E2F5F5F5F5F5F5F5F5E2E2E2E2F5F5F5F5F5F5F5F5E2E2E2F5F5F5F5F5F5F5F5E2E2E2E2F5F5F5F5F5F5F5F5E2E2E2F5E2F5F5F5E2F5F5F5F5F5F5F5F5E2F5F5F5F5F5F5F5F5F5F5F5F5F5F5F5F5F5F5F5F5F5F5F5F5F5F5F5F5F5F5F5F5F5F5F5E2F5F5F5E2E2E2E2E2F5E2E2E2F5F5
310
E2E2F5F5F5F5F5F5F5F5F5F5F5F5F5F5F5F5F5F5F5F5F5F5F5F5F5F5F5F5F5F5F5F5E2F5F5F5E2E2E2F5F5F5E2F5F5F5F5F5F5F5F5F5F5F5F5F5F5F5E2F5E2E2E2E2F5F5E2F5F5F5F5F5F5F5F5E2E2E2E2F5F5F5F5F5F5F5F5E2E2E2F5F5F5F5F5F5F5F5E2E2E2E2F5F5F5F5F5F5F5F5E2E2E2F5E2F5F5F5E2F5F5E2E2F5F5
310
F5F5E2F5F5F5F5F5F5F5F5F5F5F5F5F5F5F5F5F5F5F5F5F5F5F5F5F5F5F5F5F5F5F5F5F5E2E2BEE2E2E2F5F5E2E2E2F5E2F5E2E2E2F5F5E2F5F5F5F5F5F5F5F5F5F5F5F5F5F5F5F5F5F5F5F5F5F5F5F5F5F5F5F5F5F5F5E2F5F5F5E2E2E2F5F5F5E2F5F5F5F5F5F5F5F5F5F5F5F5F5F5F5E2F5E2E2E2E2F5F5E2F5F5F5F5F5
310
F5F5F5E2E2E2E2F5F5F5F5F5F5F5F5E2E2E2F5F5F5F5F5F5F5F5E2E2E2E2F5F5F5F5F5F5F5F5E2E2E2F5E2F5F5F5E2F5F5E2E2F5F5F5F5E2F5F5F5F5F5F5F5F5F5F5F5F5F5F5F5F5F5F5F5F5F5F5F5F5F5F5F5F5F5F5F5F5F5F5E2E2E2E2F5F5F5E2E2E2F5E2F5E2F5F5E2E2F5E2E2F5F5F5F5F5F5F5F5F5F5F5F5F5F5F5F5
310
F5F5F5F5F5F5F5F5F5F5F5F5F5E2F5F5F5E2E2E2F5F5F5E2F5F5F5F5F5F5F5F5F5F5F5F5F5F5F5E2F5E2E2E2E2F5F5E2F5F5F5F5F5F5F5F5E2E2E2E2F5F5F5F5F5F5F5F5E2E2E2F5F5F5F5F5F5F5F5E2E2E2E2F5F5F5F5F5F5F5F5E2E2E2F5E2F5F5F5E2F5F5E2E2F5F5F5F5E2F5F5F5F5F5F5F5F5F5F5F5F5F5F5F5F5F5F5
310
F5F5F5F5F5F5F5F5F5F5F5F5F5F5F5F5E2E2E2E2F5F5F5E2E2E2F5E2F5E2F5F5F5E2E2F5F5E2E2F5F5F5F5F5F5F5F5F5F5F5F5F5F5F5F5F5F5F5F5F5F5F5F5F5F5F5E2F5F5F5E2E2E2F5F5F5E2F5F5F5F5F5F5F5F5F5F5F5F5F5F5F5E2F5E2E2E2E2F5F5E2F5F5F5F5F5F5F5F5E2E2E2E2F5F5F5F5F5F5F5F5E2E2E2F5F5F5
310
F5F5F5F5F5E2E2E2E2F5F5F5F5F5F5F5F5E2E2E2F5E2F5F5F5E2F5F5F5F5F5F5F5F5E2F5F5F5F5F5F5F5F5F5F5F5F5F5F5F5F5F5F5F5F5F5F5F5F5F5F5F5F5F5F5F5F5F5E2E2E2E2E2F5F5F5E2E2E2F5E2F5E2F5F5F5F5F5E2E2F5F5E2F5F5F5F5F5F5F5F5F5F5F5F5F5F5F5F5F5F5F5F5F5F5F5F5F5F5E2F5F5F5E2E2E2F5
310
F5F5E2F5F5F5F5F5F5F5F5F5F5F5F5F5F5F5E2F5E2E2E2E2F5F5E2F5F5F5F5F5F5F5F5E2E2E2E2F5F5F5F5F5F5F5F5E2E2E2F5F5F5F5F5F5F5F5E2E2E2E2F5F5F5F5F5F5F5F5E2E2E2F5E2F5F5F5E2F5F5F5E2F5F5F5F5E2F5F5F5F5F5F5F5F5F5F5F5F5F5F5F5F5F5F5F5F5F5F5F5F5F5F5F5F5F5F5F5E2E2F5E2E2E2E2F5
310
F5F5E2E2E2F5E2F5E2F5F5F5F5F5F5F5E2E2F5E2E2F5F5F5F5F5F5F5F5F5F5F5F5F5F5F5F5F5F5F5F5F5F5F5F5E2F5F5F5E2E2E2F5F5F5E2F5F5F5F5F5F5F5F5F5F5F5F5F5F5F5E2F5E2E2E2E2F5F5E2F5F5F5F5F5F5F5F5E2E2E2E2F5F5F5F5F5F5F5F5E2E2E2F5F5F5F5F5F5F5F5E2E2E2E2F5F5F5F5F5F5F5F5E2E2E2F5
310
E2F5F5F5E2F5F5E2E2F5F5F5F5E2F5F5F5F5F5F5F5F5F5F5F5F5F5F5F5F5F5F5F5F5F5F5F5F5F5F5F5F5F5E2E2F5F5F5E2E2E2E2F5F5F5E2E2E2F5E2F5E2F5F5F5F5F5F5F5F5E2E2E2F5E2E2F5F5F5F5F5F5F5F5F5F5F5F5F5F5F5F5F5F5F5F5F5F5E2F5F5F5E2E2E2F5F5F5E2F5F5F5F5F5F5F5F5F5F5F5F5F5F5F5E2F5F5
310
F5F5E2F5F5E2F5F5F5F5F5F5F5F5F5F5F5F5F5F5F5F5F5F5F5F5F5F5F5F5F5F5F5F5F5F5F5F5F5F5F5F5F5F5F5F5F5F5F5F5F5F5F5E2F5F5F5E2F5F5E2E2F5F5F5F5E2F5F5F5F5F5F5F5F5F5F5F5F5F5F5F5F5F5F5F5F5F5F5E2F5F5F5F5E2BEBEE2F5F5F5E2E2E2E2F5F5F5E2E2E2F5E2F5E2F5F5F5F5F5F5F5F5F5F5E2E2
310
E2F5E2E2F5F5F5F5F5F5F5F5F5F5F5F5F5F5F5F5F5F5F5F5E2F5F5F5E2E2E2F5F5F5E2F5F5F5F5F5F5F5F5F5F5F5F5F5F5F5E2F5F5F5F5E2F5F5E2F5F5F5F5F5F5F5F5F5F5F5F5F5F5F5F5F5F5F5F5F5F5F5F5F5F5F5F5F5F5F5F5F5F5F5F5F5F5F5F5F5F5F5F5F5F5F5E2F5F5F5E2F5F5E2E2F5F5F5F5E2F5F5F5F5F5F5F5
310
F5F5F5F5F5F5F5F5F5F5F5F5F5E2E2E2E2F5F5E2E2E2BEE2F5F5F5E2E2E2E2F5F5F5E2E2E2F5E2F5E2F5F5F5F5F5F5F5F5F5F5F5F5E2E2F5F5E2F5F5F5F5F5F5F5F5F5F5F5F5F5F5F5F5F5F5F5E2F5F5F5E2E2E2F5F5F5E2F5F5F5F5F5F5F5F5F5F5F5F5F5F5F5E2F5F5F5F5E2F5F5E2F5F5F5F5F5F5F5F5F5F5F5F5F5F5F5
310
F5F5F5F5F5F5F5F5F5F5F5F5F5F5F5F5F5F5F5F5F5F5F5F5F5F5F5F5F5F5F5F5E2F5F5F5E2F5F5E2F5F5F5F5F5E2F5F5F5F5F5F5F5F5F5F5F5F5F5F5F5F5F5F5F5F5E2E2E2E2E2E2F5F5E2E2E2F5F5F5E2E2E2E2F5F5F5E2E2E2F5E2F5E2F5F5F5F5F5F5F5F5F5E2F5F5F5F5E2E2F5E2E2F5F5F5F5F5F5F5F5F5F5F5F5F5F5
310
F5F5F5E2F5F5F5E2E2E2F5F5F5E2F5F5F5F5F5F5F5F5F5F5F5F5F5F5F5E2F5F5F5F5E2F5F5E2F5F5F5F5F5F5F5F5F5F5F5F5F5F5F5F5F5F5F5F5F5F5F5F5F5F5F5F5F5F5F5F5F5F5F5F5F5F5F5F5F5F5F5F5F5F5F5E2F5F5F5E2F5F5E2E2F5F5F5F5E2F5F5F5F5F5F5F5F5F5F5F5F5F5F5F5F5F5F5F5F5F5E2E2E2F5F5F5F5
310
E2E2E2F5F5F5E2E2E2E2F5F5F5E2E2E2F5E2F5E2F5F5F5F5F5F5F5E2E2E2E2E2F5F5F5E2E2E2F5E2E2F5F5F5F5F5F5F5F5F5F5F5F5F5F5F5E2F5F5F5E2E2E2F5F5F5E2F5F5F5F5F5F5F5F5F5F5F5F5F5F5F5E2F5F5F5F5E2F5F5E2F5F5F5F5F5F5F5F5F5F5F5F5F5F5F5F5F5F5F5F5F5F5F5F5F5F5F5F5F5F5F5F5F5F5F5F5
310
F5F5F5F5F5F5F5F5F5F5F5E2F5F5F5E2F5F5E2E2F5F5F5F5E2F5F5F5F5F5F5F5F5F5F5F5F5F5F5F5F5F5F5F5F5F5BEBEBEF5F5F5F5E2E2E2F5F5F5E2E2E2E2F5F5F5E2E2E2F5E2F5E2F5F5F5F5F5F5F5E2E2E2F5F5E2E2F5F5F5E2E2E2F5E2F5F5F5F5F5F5F5F5F5F5F5F5F5F5E2F5F5F5E2E2E2F5F5F5E2F5F5F5F5F5F5F5
310
F5F5F5F5F5F5F5F5E2F5F5F5F5E2F5F5E2F5F5F5F5F5F5F5F5F5F5F5F5F5F5F5F5F5F5F5F5F5F5F5F5F5F5F5F5F5F5F5F5F5F5F5F5F5F5F5F5F5F5F5F5F5F5F5E2F5F5F5E2F5F5E2E2F5F5F5F5E2F5F5F5F5F5F5F5F5F5F5F5F5F5F5F5F5F5F5F5E2E2E2BEE2F5F5F5F5E2E2E2F5F5F5E2E2E2E2F5F5F5E2E2E2F5E2F5E2F5
310
F5E2F5F5F5F5E2E2F5E2E2F5F5E2E2F5F5F5E2E2E2F5F5F5F5F5F5F5F5F5F5F5F5F5F5E2F5F5F5E2E2E2F5F5F5E2F5F5F5F5F5F5F5F5F5F5F5F5F5F5F5E2E2E2E2E2E2E2E2E2E2E2E2E2E2E2E2E2E2E2E2E2E2E2E2E2E2E2E2E2E2E2E2E2E2E2E2E2E2E2E2E2E2E2E2E2E2E2E2E2E2E2E2E2E2E2E2E2F5F5F5E2F5F5E2E2F5
310
F5F5F5E2F5F5F5F5F5F5F5F5F5F5F5F5F5F5F5F5F5E2E2F5F5E2E2E2F5F5F5F5E2E2E2F5F5F5E2E2E2E2F5F5F5E2E2E2F5E2F5E2F5E2E2E2E2F5F5F5E2E2F5F5E2E2F5F5E2F5F5E2E2E2F5F5F5F5F5F5F5F5F5F5F5F5F5F5E2F5F5F5E2E2E2F5F5F5E2F5F5F5F5F5F5F5F5F5F5F5F5F5F5F5F5F5F5F5F5F5F5F5F5F5F5F5F5
310
F5F5F5F5F5F5F5F5F5F5F5F5F5F5F5F5F5F5F5F5F5F5F5F5F5F5F5F5F5F5F5F5F5F5F5F5F5F5F5F5F5F5F5E2F5F5F5E2F5F5E2F5F5F5F5F5E2F5F5F5F5F5F5F5F5F5F5F5F5F5F5F5F5E2F5F5F5F5E2E2E2F5F5F5F5E2E2E2F5F5F5E2E2E2E2F5F5F5E2E2E2F5E2F5E2E2F5E2F5F5E2F5F5F5F5E2E2F5F5E2E2E2F5E2E2E2E2
310
F5F5F5F5F5F5F5F5F5F5F5F5F5F5E2F5F5F5E2E2E2F5F5F5E2F5F5F5F5F5F5F5F5F5F5F5F5F5F5F5F5F5F5F5F5F5F5F5F5F5F5F5F5F5F5F5F5F5F5F5F5F5F5F5F5F5F5F5F5F5F5F5F5F5F5F5F5F5F5F5F5F5F5F5F5F5F5F5F5F5F5F5F5F5F5F5E2F5F5F5E2F5F5E2F5F5F5F5F5E2F5F5F5F5F5F5F5F5F5F5F5F5F5F5E2E2E2
310
E2E2F5F5E2E2E2F5F5F5F5E2E2E2F5F5F5E2E2E2E2F5F5F5E2E2E2F5E2F5E2E2E2E2F5F5F5E2E2F5F5F5F5E2E2F5E2E2E2E2E2E2E2F5F5F5F5F5F5F5F5F5F5F5F5F5F5E2F5F5F5E2E2E2F5F5F5E2F5F5F5F5F5F5F5F5F5F5F5F5F5F5F5F5F5F5F5F5F5F5F5F5F5F5F5F5F5F5F5F5F5F5F5F5F5F5F5F5F5F5F5F5F5F5F5F5F5
310
F5F5F5F5F5F5F5F5F5F5F5F5F5F5F5F5F5F5F5F5F5F5E2F5F5F5E2F5F5E2F5F5F5F5F5E2F5F5F5F5F5F5F5F5F5F5F5F5E2BEBEE2E2F5F5E2E2E2E2E2F5F5F5F5E2E2E2F5F5F5E2E2E2E2F5F5F5E2E2E2E2E2F5E2E2E2F5E2E2F5F5F5E2E2F5F5F5F5E2E2E2F5E2E2E2E2F5F5F5F5F5F5F5F5F5F5F5F5F5F5E2F5F5F5E2E2E2
310
F5F5F5E2F5F5F5F5F5F5F5F5F5F5F5F5F5F5F5F5F5F5F5F5F5F5F5F5F5F5F5F5F5F5F5F5F5F5F5F5F5F5F5F5F5F5F5F5F5F5F5F5F5F5F5F5F5F5F5F5F5F5F5F5F5F5F5F5F5F5F5F5F5F5F5E2F5F5F5E2F5F5E2F5F5F5F5F5E2F5F5F5F5F5F5F5F5F5F5F5E2F5E2E2E2E2E2E2F5F5E2E2E2F5F5F5F5E2E2E2E2E2F5E2E2E2E2
310
F5F5F5E2E2E2E2E2E2E2F5E2E2F5F5E2E2F5F5F5E2F5E2F5E2E2E2E2E2E2E2E2F5F5F5F5F5F5F5F5F5F5F5F5F5F5E2F5F5F5E2E2E2F5F5F5E2F5F5F5F5F5F5F5F5F5F5F5F5F5F5F5F5F5F5F5F5F5F5F5F5F5F5F5F5F5F5F5F5F5F5F5F5F5F5F5F5F5F5F5F5F5F5F5F5F5F5F5F5F5F5F5F5F5F5F5F5F5F5F5F5F5F5F5F5F5F5
310
F5E2F5F5F5E2F5F5E2F5F5F5F5F5E2F5F5F5F5F5F5F5F5F5F5F5E2E2E2E2E2E2F5F5E2E2E2E2E2F5F5F5F5E2E2E2E2E2E2E2E2E2E2F5F5F5F5E2E2E2E2F5E2F5F5F5E2E2F5F5E2E2E2E2E2E2E2E2E2BEBEE2E2E2E2F5F5F5F5F5F5F5F5F5F5F5F5F5F5E2F5F5F5E2E2E2F5F5F5E2F5F5F5F5F5F5F5F5F5F5F5F5F5F5F5F5F5
310
F5F5F5F5F5F5F5F5F5F5F5F5F5F5F5F5F5F5F5F5F5F5F5F5F5F5F5F5F5F5F5F5F5F5F5F5F5F5F5F5F5F5F5F5F5F5F5F5F5F5F5F5F5F5E2F5F5F5E2F5F5E2F5F5F5F5F5E2F5F5F5F5F5F5F5F5F5F5F5E2F5E2E2E2E2F5F5F5F5E2E2E2E2E2F5F5E2E2E2E2E2E2E2E2E2E2F5F5F5F5E2E2F5E2E2E2E2F5F5F5F5E2E2F5E2E2E2
310
E2E2E2E2E2E2BEE2E2E2E2F5F5F5F5F5F5F5F5F5F5F5F5F5F5E2F5F5F5E2E2E2F5F5F5E2F5F5F5F5F5F5F5F5F5F5F5F5F5F5F5F5F5F5F5F5F5F5F5F5F5F5F5F5F5F5F5F5F5F5F5F5F5F5F5F5F5F5F5F5F5F5F5F5F5F5F5F5F5F5F5F5F5F5F5F5F5F5F5F5F5F5F5F5F5F5F5E2F5F5F5E2F5F5E2F5F5F5F5F5E2F5F5F5F5F5F5
310
F5F5F5F5F5E2F5E2E2E2E2E2F5F5F5E2E2E2F5F5E2E2E2E2E2E2E2E2E2E2E2E2F5F5F5E2E2E2E2E2E2E2F5E2E2F5F5F5F5E2E2E2E2E2E2E2F5F5E2E2E2E2E2E2F5F5F5F5F5F5F5F5F5F5F5F5F5F5E2F5F5F5E2E2E2F5F5F5E2F5F5F5F5F5F5F5F5F5F5F5F5F5F5F5F5F5F5F5F5F5F5F5F5F5F5F5F5F5F5F5F5F5F5F5F5F5F5
310
F5F5F5F5F5F5F5F5F5F5F5F5F5F5F5F5F5F5F5F5F5F5F5F5F5F5F5F5F5F5F5F5F5E2F5F5F5E2F5F5E2F5F5F5F5F5E2F5F5F5F5F5F5F5F5F5F5F5E2F5E2E2E2E2F5E2F5F5E2E2E2E2E2F5F5E2E2E2F5E2F5F5E2E2E2E2E2E2F5F5E2F5E2F5E2E2F5F5E2F5E2E2E2E2F5F5E2E2E2F5F5F5F5E2E2E2E2F5F5F5F5F5F5F5F5F5F5
310
F5F5F5F5E2F5F5F5E2E2E2F5F5F5E2F5F5F5F5F5F5F5F5F5F5F5F5F5F5F5F5F5F5F5F5F5F5F5F5F5F5F5F5F5F5F5F5F5F5F5F5F5F5F5F5F5F5F5F5F5F5F5F5F5F5F5F5F5F5F5F5F5F5F5F5F5F5F5F5F5F5F5F5F5F5F5E2F5F5F5E2F5F5E2F5F5F5F5F5E2F5F5F5F5F5F5F5F5F5F5F5E2F5E2E2E2E2F5F5E2E2E2E2E2F5F5E2
310
E2E2E2E2F5F5F5F5E2E2E2E2F5E2E2F5E2F5E2E2E2F5E2E2E2E2E2E2E2F5F5F5E2E2E2F5F5F5F5E2E2E2E2F5F5F5F5F5F5F5F5F5F5F5F5F5F5E2F5F5F5E2E2E2F5F5F5E2F5F5F5F5F5F5F5F5F5F5F5F5F5F5F5F5F5F5F5F5F5F5F5F5F5F5F5F5F5F5F5F5F5F5F5F5F5F5F5F5F5F5F5F5F5F5F5F5F5F5F5F5F5F5F5F5F5F5F5
310
F5F5F5F5F5F5F5F5F5F5F5F5E2F5F5F5E2F5F5E2F5F5F5F5F5E2F5F5F5F5F5F5F5F5F5F5F5E2F5E2E2E2E2F5F5F5F5E2E2E2F5F5F5E2E2E2E2E2E2F5F5E2E2E2E2E2F5F5E2E2F5E2F5E2E2E2F5E2E2E2E2E2F5F5F5E2E2E2F5F5F5F5E2E2E2E2F5F5F5F5F5F5F5F5F5F5F5F5F5F5E2F5F5F5E2E2E2F5F5F5E2F5F5F5F5F5F5
310
F5F5F5F5F5F5F5F5F5F5F5F5F5F5F5F5F5F5F5F5F5F5F5F5F5F5F5F5F5F5F5F5F5F5F5F5F5F5F5F5F5F5F5F5F5F5F5F5F5F5F5F5F5F5F5F5F5F5F5F5F5F5F5F5F5E2F5F5F5E2F5F5E2F5F5F5F5F5E2F5F5F5F5F5F5F5F5F5F5F5E2F5E2E2E2E2F5F5F5F5E2E2E2E2F5F5F5E2E2E2F5F5E2E2E2E2E2F5E2E2F5F5E2E2E2F5E2
310
F5E2E2E2E2E2E2E2F5F5F5E2E2E2F5F5F5F5E2E2E2E2F5F5F5F5F5F5F5F5F5F5F5F5F5F5E2F5F5F5E2E2E2F5F5F5E2F5F5F5F5F5F5F5F5F5F5F5F5F5F5F5F5F5F5F5F5F5F5F5F5F5F5F5F5F5F5F5F5F5F5F5F5F5F5F5F5F5F5F5F5F5F5F5F5F5F5F5F5F5F5F5F5F5F5F5F5F5F5F5F5F5F5F5F5F5F5F5E2F5F5F5E2F5F5E2F5
310
F5F5F5F5E2F5F5F5F5F5F5F5F5F5F5F5E2F5E2E2E2E2F5F5F5F5E2E2E2E2E2F5F5F5E2F5E2E2E2F5E2F5F5E2E2F5E2E2E2E2E2E2E2E2E2E2E2E2E2E2E2F5F5F5E2E2E2F5F5F5F5E2E2E2E2F5F5F5F5F5F5F5F5F5F5F5F5F5F5E2F5F5F5E2E2E2F5F5F5E2F5F5F5F5F5F5F5F5F5F5F5F5F5F5F5F5F5F5F5F5F5F5F5F5F5F5F5
310
F5F5F5F5F5F5F5F5F5F5F5F5F5F5F5F5F5F5F5F5F5F5F5F5F5F5F5F5F5F5F5F5F5F5F5F5F5F5F5F5F5F5F5F5E2F5F5F5E2F5F5E2F5F5F5F5F5E2F5F5F5F5F5F5F5F5F5F5F5E2F5E2E2E2E2F5F5F5F5E2E2E2F5F5E2E2E2E2E2E2E2E2F5F5E2E2F5E2E2F5F5E2E2E2E2E2E2E2E2E2E2E2E2E2F5F5F5E2E2E2F5F5F5F5E2E2E2
310
E2F5F5F5F5F5F5F5F5F5F5F5F5F5F5E2F5F5F5E2E2E2F5F5F5E2F5F5F5F5F5F5F5F5F5F5F5F5F5F5F5F5F5F5F5F5F5F5F5F5F5F5F5F5F5F5F5F5F5F5F5F5F5F5F5F5F5F5F5F5F5F5F5F5F5F5F5F5F5F5F5F5F5F5F5F5F5F5F5F5F5F5F5F5F5F5F5E2F5F5F5E2F5F5E2E2F5F5F5F5E2F5F5F5F5F5F5F5F5F5F5F5E2F5E2E2E2
310
E2F5F5F5F5E2E2E2F5F5F5E2E2E2E2F5E2E2E2E2F5F5E2E2F5E2E2E2F5E2E2E2E2E2E2E2E2E2E2E2F5F5F5E2E2E2F5F5F5F5E2E2E2E2F5F5F5F5F5F5F5F5F5F5F5F5F5F5E2F5F5F5E2E2E2F5F5F5E2F5F5F5F5F5F5F5F5F5F5F5F5F5F5F5F5F5F5F5F5F5F5F5F5F5F5F5F5F5F5F5F5F5F5F5F5F5F5F5F5F5F5F5F5F5F5F5F5
310
F5F5F5F5F5F5F5F5F5F5F5F5F5F5F5F5F5F5F5F5F5F5F5E2F5F5F5E2F5F5E2E2F5F5F5F5E2F5F5F5F5F5F5F5F5F5F5F5E2F5E2E2E2E2F5F5F5F5E2E2E2F5F5F5E2E2F5E2E2F5F5E2E2E2E2F5F5E2E2F5E2E2E2E2E2E2F5F5E2E2E2E2E2F5F5F5E2E2E2F5F5F5F5E2E2E2E2F5F5F5F5F5F5F5F5F5F5F5F5F5F5E2F5F5F5E2E2
310
E2F5F5F5E2F5F5F5F5F5F5F5F5F5F5F5F5F5F5F5F5F5F5F5F5F5F5F5F5F5F5F5F5F5F5F5F5F5F5F5F5F5F5F5F5F5F5F5F5F5F5F5F5F5F5F5F5F5F5F5F5F5F5F5F5F5F5F5F5F5F5F5F5F5F5F5E2E2E2E2E2E2E2E2E2F5F5F5F5E2F5F5F5F5F5F5F5F5F5F5F5E2F5E2E2E2E2F5F5F5F5F5E2F5F5F5E2E2E2E2F5E2E2E2F5F5E2
310
F5E2E2F5F5E2E2F5E2E2E2E2F5F5F5E2E2E2E2F5F5F5E2E2E2F5F5F5F5E2E2E2E2F5F5F5F5F5F5F5F5F5F5F5F5F5F5E2F5F5F5E2E2E2F5F5F5E2F5F5F5F5F5F5F5F5F5F5F5F5F5F5F5F5F5F5F5F5F5F5F5F5F5F5F5F5F5F5F5F5F5F5F5F5F5F5F5F5F5F5F5F5F5F5F5F5F5F5F5F5F5F5F5F5F5F5F5F5F5F5F5F5F5F5F5F5F5
310
F5F5F5F5F5F5F5F5F5F5F5F5F5F5F5E2F5F5F5F5F5F5F5F5F5F5F5E2F5E2E2E2E2F5F5F5F5F5F5F5E2E2F5F5E2F5E2E2F5E2E2E2E2F5E2E2E2E2E2E2E2E2E2E2E2F5F5F5E2E2E2E2F5F5F5E2E2E2F5F5F5F5E2E2E2E2F5F5F5F5F5F5F5F5F5F5F5F5F5F5E2F5F5F5E2E2E2F5F5F5E2F5F5F5F5F5F5F5F5F5F5F5F5F5F5F5F5
310
F5F5F5F5F5F5F5F5F5F5F5F5F5F5F5F5F5F5F5F5F5F5F5F5F5F5F5F5F5F5F5F5F5F5F5F5F5F5F5F5F5F5F5F5F5F5F5F5F5F5F5F5F5F5F5F5F5F5F5F5F5F5F5F5F5F5F5F5E2F5F5F5F5F5F5F5F5F5F5F5E2F5E2E2E2E2F5F5F5F5F5E2E2F5F5F5E2E2E2E2F5E2E2E2E2E2E2E2E2E2F5E2F5E2E2E2E2E2E2F5F5E2E2E2E2F5F5
310
F5E2E2E2F5F5F5F5E2E2E2E2F5F5F5F5F5F5F5F5F5F5F5F5F5F5E2F5F5F5E2E2E2F5F5F5E2F5F5F5F5F5F5F5F5F5F5F5F5F5F5F5F5F5F5F5F5F5F5F5F5F5F5F5F5F5F5F5F5F5F5F5F5F5F5F5F5F5F5F5F5F5F5F5F5F5F5F5F5F5F5F5F5F5F5F5F5F5F5F5F5F5F5F5F5F5F5F5F5F5F5F5F5F5F5F5F5F5F5F5F5E2F5F5F5F5F5
310
F5F5F5F5F5F5E2F5E2E2E2E2F5F5F5F5E2F5F5F5E2E2E2E2F5F5E2F5F5E2E2F5E2E2E2E2F5E2F5F5F5E2E2E2F5E2E2E2E2E2E2F5F5F5E2E2E2F5F5F5F5F5F5E2E2F5F5F5F5F5F5F5F5F5F5F5F5F5F5E2F5F5F5E2E2E2F5F5F5E2F5F5F5F5F5F5F5F5F5F5F5F5F5F5F5F5F5F5F5F5F5F5F5F5F5F5F5F5F5F5F5F5F5F5F5F5F5
310
F5F5F5F5F5F5F5F5F5F5F5F5F5F5F5F5F5F5F5F5F5F5F5F5F5F5F5F5F5F5F5F5F5F5F5F5F5F5F5F5F5F5F5F5F5F5F5E2F5F5F5F5F5F5F5F5F5F5F5E2F5E2E2E2E2F5F5E2E2F5F5F5E2E2E2E2E2F5F5F5E2F5F5F5F5E2E2E2E2F5E2F5F5F5E2E2E2E2F5F5E2E2E2E2F5F5F5E2E2E2F5F5F5F5F5F5E2E2F5F5F5F5F5F5F5F5F5
310
F5F5F5F5F5E2F5F5F5E2E2E2F5F5F5E2F5F5F5F5F5F5F5F5F5F5F5F5F5F5F5F5F5F5F5F5F5F5F5F5F5F5F5F5F5F5F5F5F5F5F5F5F5F5F5F5F5F5F5F5F5F5F5F5F5F5F5F5F5F5F5F5F5F5F5F5F5F5F5F5F5F5F5F5F5F5F5F5F5F5F5F5F5F5F5F5F5F5F5F5E2F5F5F5F5F5F5F5F5F5F5F5E2F5F5E2F5E2E2E2F5F5F5F5E2E2E2
310
F5E2E2F5E2E2F5F5F5F5F5E2E2E2E2F5E2F5F5F5E2E2E2F5E2E2E2E2E2E2F5F5F5E2E2E2F5F5F5F5F5F5E2E2F5F5F5F5F5F5F5F5F5F5F5F5F5F5E2F5F5F5E2E2E2F5F5F5E2E2E2E2E2E2E2E2E2E2E2E2E2E2E2E2E2E2E2E2E2E2E2E2E2E2E2E2E2E2E2E2E2E2E2E2E2E2E2E2E2E2E2E2E2E2E2E2E2E2E2E2E2E2E2E2E2E2E2
310
E2E2E2E2E2E2E2E2E2E2E2E2E2E2E2E2E2E2E2E2E2E2E2E2E2E2E2F5F5F5F5F5F5F5F5F5F5F5E2F5F5E2F5E2F5F5F5F5F5F5F5E2E2E2E2E2E2F5F5F5F5F5F5F5E2E2E2E2F5E2F5F5F5E2E2E2F5F5F5E2E2E2E2E2F5F5E2E2E2F5F5F5F5F5E2E2E2F5F5F5F5F5F5F5F5F5F5F5F5F5F5E2F5F5F5E2E2E2F5F5F5E2F5F5F5F5F5
310
F5F5F5F5F5F5F5F5F5F5F5F5F5F5F5F5F5F5F5F5F5F5F5F5F5F5F5F5F5F5F5F5F5F5F5F5F5F5F5F5F5F5F5F5F5F5F5F5F5F5F5F5F5F5F5F5F5F5F5F5F5F5F5F5F5F5F5F5F5F5F5F5F5F5F5F5F5F5F5E2F5F5F5F5F5F5F5F5F5F5F5E2F5F5E2E2F5E2E2F5F5F5F5F5F5F5E2E2F5F5F5F5F5F5F5F5F5E2E2E2E2F5E2F5F5F5E2
310
E2E2F5F5F5E2E2E2E2F5E2F5F5F5F5F5F5F5E2E2E2E2E2F5F5F5F5F5F5F5F5F5F5F5F5F5F5E2F5F5F5E2E2E2F5F5F5E2F5F5F5F5F5F5F5F5F5F5F5F5F5F5F5F5F5F5F5F5F5F5F5F5F5F5F5F5F5F5F5F5F5F5F5F5F5F5F5F5F5F5F5F5F5F5F5F5F5F5F5F5F5F5F5F5F5F5F5F5F5F5F5F5F5F5F5F5F5F5F5F5F5F5F5F5F5F5F5
310
F5F5F5F5F5E2F5F5F5F5F5F5F5F5F5F5F5E2E2E2F5E2E2F5F5E2E2F5F5F5F5F5F5F5F5F5F5F5F5F5F5F5F5E2E2E2E2F5E2F5F5F5E2E2E2F5F5F5E2E2E2E2E2F5E2E2F5F5F5F5E2E2E2F5E2E2F5F5F5F5F5F5F5F5F5F5F5F5F5F5E2F5F5F5E2E2E2F5F5F5E2F5F5F5F5F5F5F5F5F5F5F5F5F5F5F5F5F5F5F5F5F5F5F5F5F5F5
310
F5F5F5F5F5F5F5F5F5E2E2E2E2F5F5F5F5F5F5F5F5F5F5F5F5F5F5F5F5F5F5F5E2E2E2E2E2E2E2E2E2E2E2E2E2E2E2E2E2E2E2E2E2E2E2E2E2E2E2F5F5F5F5F5F5F5F5F5F5F5E2F5F5F5F5F5E2E2F5F5E2E2F5F5F5F5F5F5F5F5F5F5F5F5F5F5E2E2E2E2F5E2F5F5F5E2E2E2F5F5F5E2E2E2E2F5E2E2F5E2E2E2E2E2F5F5F5
310
E2E2F5F5F5F5F5F5F5F5F5F5F5F5F5F5E2F5F5F5E2E2E2F5F5F5E2F5F5F5F5F5F5F5F5F5F5F5F5F5F5F5F5F5F5F5F5F5F5F5F5F5F5F5F5F5F5F5F5F5F5F5E2BEBEE2F5F5F5F5F5F5F5F5F5F5F5F5F5F5F5F5F5F5F5E2BEBEE2E2F5F5F5F5F5F5F5F5F5F5F5F5F5F5F5F5F5F5F5F5E2E2F5F5F5F5F5F5F5F5F5F5F5F5F5F5F5
310
F5F5F5F5E2E2F5F5E2F5F5F5F5F5F5F5F5F5F5F5F5F5E2E2E2E2F5E2F5F5F5E2E2E2F5F5F5F5E2E2F5F5F5F5E2E2E2E2E2F5F5F5F5E2E2F5F5F5F5F5F5F5F5F5F5F5F5F5F5E2F5F5F5E2E2E2F5F5F5E2F5F5F5F5F5F5F5F5F5F5F5F5F5F5F5F5F5F5F5F5F5F5F5F5F5F5F5F5F5F5F5F5F5F5F5E2BEBEE2F5F5F5F5F5F5F5F5
310
F5F5F5F5F5F5F5F5F5F5F5E2BEBEE2E2F5F5F5F5F5F5F5F5F5F5F5F5F5F5F5F5F5F5F5F5E2E2F5F5F5F5F5F5F5F5F5F5F5F5F5F5F5F5F5F5F5F5F5E2F5F5E2E2F5F5F5F5F5F5F5F5F5F5F5E2E2E2E2F5E2F5F5F5E2E2E2F5F5F5F5F5F5F5F5F5F5E2E2E2F5F5E2F5F5F5E2E2F5F5F5F5F5F5F5F5F5F5F5F5F5F5E2F5F5F5E2
310
E2E2F5F5F5E2F5F5F5F5F5F5F5F5F5F5F5F5F5F5F5F5F5F5F5F5F5F5F5F5F5F5F5F5F5F5F5F5F5F5F5E2E2E2E2F5F5F5F5F5F5F5F5F5F5F5F5F5F5F5F5F5F5F5E2E2E2F5E2F5F5F5F5F5F5F5F5F5F5F5F5F5F5F5F5F5F5F5F5E2E2F5F5F5F5F5F5F5F5F5F5F5F5F5F5F5F5F5F5F5F5F5F5E2E2F5F5E2E2F5F5F5F5F5F5F5F5
310
F5E2E2E2E2F5E2F5F5F5E2E2E2F5F5F5F5F5F5F5F5E2E2E2F5F5E2E2F5E2E2F5E2E2F5F5F5F5F5F5F5F5F5F5F5F5F5F5E2F5F5F5E2E2E2F5F5F5E2F5F5F5F5F5F5F5F5F5F5F5F5F5F5F5E2E2E2E2E2E2E2E2E2E2E2E2E2E2E2E2E2E2E2E2E2E2E2E2E2E2E2E2E2E2E2E2E2E2E2E2E2E2E2E2E2E2E2E2E2E2E2E2E2E2E2E2E2
310
E2E2E2E2F5F5F5F5F5F5F5F5F5F5F5E2E2F5F5F5F5F5F5F5F5F5F5F5F5F5F5F5F5F5F5F5F5F5F5F5F5E2E2F5F5E2F5F5F5F5F5F5F5F5E2E2E2E2F5E2F5F5F5E2E2E2F5F5F5F5F5F5E2E2E2F5F5F5F5F5F5E2E2F5E2E2E2F5F5F5F5F5F5F5F5F5F5F5F5F5F5E2F5F5F5E2E2E2F5F5F5E2F5F5F5F5F5F5F5F5F5F5F5F5F5F5F5
310
E2E2E2BEBEE2E2E2E2E2E2E2E2E2E2E2E2E2BEBEE2E2E2E2E2E2E2E2E2BEBEE2E2E2E2E2E2E2E2E2E2E2E2E2E2E2E2E2E2E2E2E2E2E2E2E2E2E2F5F5F5F5F5F5F5F5F5F5E2E2F5F5F5F5F5F5F5F5F5F5F5F5F5F5F5F5F5F5F5F5F5F5F5F5F5F5E2E2F5E2E2F5F5F5F5F5F5E2E2E2E2F5E2F5F5F5F5E2F5F5F5F5F5E2E2E2F5
310
F5F5F5F5F5F5F5F5F5E2E2E2E2F5F5F5F5F5F5F5F5F5F5F5F5F5F5E2F5F5F5E2E2E2F5F5F5E2F5F5F5F5F5F5F5F5F5F5F5F5F5F5F5E2F5E2BEBEE2F5F5E2F5F5F5F5F5F5F5F5E2BEBEE2F5F5F5F5F5F5F5F5BEBEE2F5F5F5F5F5F5F5F5E2E2E2E2F5F5F5F5F5F5F5F5E2E2E2F5E2F5E2F5F5F5F5F5F5F5F5F5E2E2F5F5F5F5
310
F5F5F5F5F5F5F5F5F5F5F5F5F5F5F5F5F5F5F5F5F5F5F5E2E2F5F5E2E2F5F5F5F5E2E2E2E2F5E2F5F5F5F5F5F5F5F5F5E2E2F5F5F5F5F5F5F5F5F5F5F5F5F5F5E2E2F5F5F5F5F5F5F5F5F5F5F5F5F5F5E2F5F5F5E2E2E2F5F5F5E2F5F5F5F5F5F5F5F5F5F5F5F5F5F5F5E2F5E2E2E2E2F5F5E2F5F5F5F5F5F5F5F5E2E2E2E2
310
F5F5F5F5F5F5F5F5E2E2E2F5F5F5F5F5F5F5F5E2E2E2E2F5F5F5F5F5F5F5F5E2E2E2F5E2F5F5E2F5F5F5F5F5F5F5F5E2E2F5F5F5F5F5F5F5F5F5F5F5F5F5F5F5F5F5F5F5F5F5F5F5F5F5F5F5F5F5E2E2F5F5E2E2F5F5E2E2E2E2F5E2F5F5F5F5F5F5F5E2E2E2F5F5F5F5F5F5F5F5F5F5F5F5F5F5F5F5E2F5F5F5F5F5F5F5F5
310
F5F5F5F5F5F5E2F5F5F5E2E2E2F5F5F5E2F5F5F5F5F5F5F5F5F5F5F5F5F5F5F5E2F5F5F5F5E2F5F5E2F5F5F5F5F5F5F5F5F5F5F5F5F5F5F5F5F5F5F5F5F5F5F5F5F5F5F5F5F5F5F5F5F5F5F5F5F5F5F5F5F5F5F5F5F5F5F5E2E2E2E2E2F5F5F5F5F5F5F5E2E2F5F5F5F5F5F5F5F5F5F5F5F5F5F5F5F5F5F5F5F5F5F5F5F5F5
310
F5F5F5F5F5F5E2E2F5F5E2F5E2E2E2E2F5E2F5F5F5F5F5E2E2E2F5F5F5F5F5F5F5F5F5F5F5F5F5F5F5F5F5F5F5F5F5F5F5F5F5F5F5F5F5F5F5F5F5E2F5F5F5E2E2E2F5F5F5E2F5F5F5F5F5F5F5F5F5F5F5F5F5F5F5E2F5F5F5F5E2F5F5E2F5F5F5F5F5F5F5F5F5F5F5F5F5F5F5F5F5F5F5F5F5F5F5F5F5F5F5F5F5F5F5F5F5
310
F5F5F5F5F5F5F5F5F5F5F5F5F5F5E2F5F5F5E2F5F5F5F5F5F5F5E2E2F5F5F5F5F5F5F5F5F5F5F5F5F5F5F5F5F5F5F5F5F5F5F5F5F5F5F5F5F5F5F5F5F5E2F5F5E2E2E2E2E2F5E2F5F5F5F5E2E2F5F5F5F5F5F5F5F5F5F5F5F5F5F5F5F5F5F5F5F5F5F5F5F5F5F5F5F5F5F5F5F5F5F5F5E2F5F5F5E2E2E2F5F5F5E2F5F5F5F5
310
F5F5F5F5F5F5F5F5F5F5F5E2F5F5F5F5E2F5F5E2F5F5F5F5F5F5F5F5F5F5F5F5F5F5F5F5F5F5F5F5F5F5F5F5F5F5F5F5F5F5F5F5F5F5F5F5F5F5F5F5F5F5F5F5F5F5F5E2F5F5F5E2F5F5F5F5F5F5F5E2E2F5F5F5F5F5F5F5F5F5F5F5F5F5F5F5F5F5F5F5F5F5F5F5F5F5F5F5F5F5F5F5F5F5F5E2E2F5E2E2E2E2F5E2F5F5E2
310
E2F5F5F5F5F5F5F5F5F5F5F5F5F5F5F5F5F5F5F5F5F5F5F5F5F5F5F5F5F5F5F5F5F5F5F5F5F5E2F5F5F5E2E2E2F5F5F5E2F5F5F5F5F5F5F5F5F5F5F5F5F5F5F5E2F5F5F5F5E2F5F5E2F5F5F5F5F5F5F5F5F5F5F5F5F5F5F5F5F5F5F5F5F5F5F5F5F5F5F5F5F5F5F5F5F5F5F5F5F5F5F5F5F5F5F5F5F5F5F5E2F5F5F5E2F5F5
310
F5F5F5F5F5E2E2F5F5F5F5F5F5F5F5F5F5F5F5F5F5F5F5F5F5F5F5F5F5F5F5F5F5F5F5F5F5F5F5F5F5F5F5E2E2F5F5E2E2E2E2E2E2F5F5F5F5F5F5F5F5F5F5F5F5F5F5F5F5F5F5F5F5F5F5F5F5F5F5F5F5F5F5F5F5F5F5F5F5F5F5E2F5F5F5E2E2E2F5F5F5E2F5F5F5F5F5F5F5F5F5F5F5F5F5F5F5E2F5F5F5F5E2F5F5E2F5
310
F5F5F5F5F5F5F5F5F5F5F5F5F5F5F5F5F5F5F5F5F5F5F5F5F5F5F5F5F5F5F5F5F5F5F5F5F5F5F5F5F5F5F5F5F5F5E2F5F5F5E2F5F5F5F5F5F5F5E2E2F5F5F5F5F5F5F5F5F5F5F5F5F5F5F5F5F5F5F5F5F5F5F5F5F5F5F5F5F5F5F5F5F5F5F5F5F5E2E2E2E2F5E2E2F5F5F5F5F5F5F5F5F5F5F5F5F5F5F5F5F5F5F5F5F5F5F5
310
F5F5F5F5F5F5F5F5F5F5F5F5F5F5F5F5F5E2F5F5F5E2E2E2F5F5F5E2F5F5F5F5F5F5F5F5F5F5F5F5F5F5F5E2F5F5F5F5E2F5F5E2F5F5F5F5F5F5F5F5F5F5F5F5F5F5F5F5F5F5F5F5F5F5F5F5F5F5F5F5F5F5F5F5F5F5F5F5F5F5F5F5F5F5F5F5F5F5F5E2F5F5F5E2F5F5F5F5F5F5F5E2E2F5F5F5F5F5F5F5F5F5F5F5F5F5F5
310
F5F5F5F5F5F5F5F5F5F5F5F5F5F5F5F5F5F5F5F5F5F5F5E2F5F5E2E2F5F5F5F5F5F5F5F5F5F5F5F5F5F5F5F5F5F5F5F5F5F5F5F5F5F5F5F5F5F5F5F5F5F5F5F5F5F5F5F5F5F5E2F5F5F5E2E2E2F5F5F5E2F5F5F5F5F5F5F5F5F5F5F5F5F5F5F5E2F5F5F5F5E2F5F5E2F5F5F5F5F5F5F5F5F5F5F5F5F5F5F5F5F5F5F5F5F5F5
310
F5F5F5F5F5F5F5F5F5F5F5F5F5F5F5F5F5F5F5F5F5F5F5F5F5E2F5F5F5E2F5F5F5F5F5F5F5E2E2F5F5F5F5F5F5F5F5F5F5F5F5F5F5F5F5F5F5F5F5F5F5F5F5F5F5F5F5F5F5F5F5F5F5F5F5F5E2E2E2F5F5F5F5F5F5F5F5F5F5F5F5F5F5F5F5F5F5F5F5F5F5F5F5F5F5F5F5F5F5F5F5F5F5F5F5F5F5F5F5F5F5F5F5E2F5F5F5
310
E2E2E2F5F5F5E2F5F5F5F5F5F5F5F5F5F5F5F5F5F5F5E2F5F5F5F5E2F5F5E2F5F5F5F5F5F5F5F5F5F5F5F5F5F5F5F5F5F5F5F5F5F5F5F5F5F5F5F5F5F5F5F5F5F5F5F5F5F5F5F5F5F5F5F5F5F5F5E2F5F5F5E2F5F5F5F5F5F5F5E2E2F5F5F5F5F5F5F5F5F5F5F5F5F5F5F5F5F5F5F5F5F5F5F5F5F5F5F5F5F5F5F5F5F5F5F5
310
F5F5E2F5F5F5F5F5F5F5F5F5F5F5F5F5F5F5F5F5F5F5F5F5F5F5F5F5F5F5F5F5F5F5F5F5F5F5F5F5F5F5F5F5F5F5F5F5F5E2F5F5F5E2E2E2F5F5F5E2F5F5F5F5F5F5F5F5F5F5F5F5F5F5F5E2F5F5F5F5E2F5F5E2F5F5F5F5F5F5F5F5F5F5F5F5F5F5F5F5F5F5F5F5F5F5F5F5F5F5F5F5F5F5F5F5F5F5F5F5F5F5F5F5F5F5F5
310
F5F5F5F5E2F5F5F5E2F5F5F5F5F5F5F5E2E2F5F5F5F5F5F5F5F5F5F5F5F5F5F5F5F5F5F5F5F5F5F5F5F5F5F5F5F5F5F5F5F5F5F5F5F5F5F5F5F5F5F5F5F5F5F5F5F5F5F5F5F5F5F5F5F5F5F5F5F5F5F5F5F5F5F5F5F5F5F5F5F5F5F5F5F5F5F5F5F5F5F5F5F5E2F5F5F5E2E2E2F5F5F5E2F5F5F5F5F5F5F5F5F5F5F5F5F5F5
310
F5E2F5F5F5F5E2F5F5E2F5F5F5F5F5F5F5F5F5F5F5F5F5F5F5F5F5F5F5F5F5F5F5F5F5F5F5F5F5F5F5F5F5F5F5F5F5F5F5F5F5F5F5F5F5F5F5E2F5F5F5E2F5F5F5F5F5F5F5E2E2F5F5F5F5F5F5F5F5F5F5F5F5F5F5F5F5F5F5F5F5F5F5F5F5F5F5F5F5F5F5F5F5F5F5F5F5F5F5F5F5F5F5F5F5F5F5F5F5F5F5F5F5F5F5F5F5
310
F5F5F5F5F5F5F5F5F5F5F5F5F5F5F5F5F5F5F5F5F5F5F5F5F5F5F5F5E2F5F5F5E2E2E2F5F5F5E2F5F5F5F5F5F5F5F5F5F5F5F5F5F5F5E2F5F5F5F5E2F5F5E2F5F5F5F5F5F5F5F5F5F5F5F5F5F5F5F5F5F5F5F5F5F5F5F5F5F5F5F5F5F5F5F5F5F5F5F5F5F5F5F5F5F5F5F5F5F5F5E2F5F5F5E2F5F5F5F5F5F5E2E2E2F5F5F5
310
F5F5F5F5F5F5F5F5F5F5F5F5F5F5F5F5F5F5F5F5F5F5F5F5F5F5F5F5F5F5F5F5F5F5F5F5F5F5F5F5F5F5F5F5F5F5F5F5F5F5F5F5F5F5F5F5F5F5F5F5F5F5F5F5F5F5F5F5F5F5F5F5F5F5F5F5F5F5F5F5F5E2F5F5F5E2E2E2F5F5F5E2F5F5F5F5F5F5F5F5F5F5F5F5F5F5F5E2F5F5F5F5E2F5F5E2F5F5F5F5F5F5F5F5F5F5F5
310
F5F5F5F5F5F5F5F5F5F5F5F5F5F5F5F5F5F5F5F5F5F5F5F5F5F5F5F5F5F5F5F5F5F5F5F5E2F5F5F5E2F5F5F5F5F5F5E2F5E2F5F5F5F5F5F5F5F5F5F5F5F5F5F5F5F5F5F5F5F5F5F5F5F5F5F5F5F5F5F5F5F5F5F5F5F5F5F5F5F5F5F5F5F5F5F5F5F5F5F5F5F5F5F5F5F5F5F5F5F5F5F5F5F5F5F5F5F5F5F5F5F5F5F5F5F5F5
310
F5F5F5F5F5F5F5E2F5F5F5E2E2E2F5F5F5E2F5F5F5F5F5F5F5F5F5F5F5F5F5F5F5E2F5F5F5F5E2F5F5E2F5F5F5F5F5F5F5F5F5F5F5F5F5F5F5F5F5F5F5F5F5F5F5F5F5F5F5F5F5F5F5F5F5F5F5F5F5F5F5F5F5F5F5F5F5F5F5E2F5F5F5E2F5F5F5F5F5F5E2E2E2F5F5F5F5F5F5F5F5F5F5F5F5F5F5F5F5F5F5F5F5F5F5F5F5
310
F5F5F5F5F5F5F5F5F5F5F5F5F5F5F5F5F5F5F5F5F5F5F5F5F5F5F5F5F5F5F5F5F5F5F5F5F5F5F5F5F5F5F5F5F5F5F5F5F5F5F5F5F5F5F5F5F5F5F5F5E2F5F5F5E2E2E2F5F5F5E2F5F5F5F5F5F5F5F5F5F5F5F5F5F5F5E2F5F5F5F5E2F5F5E2F5F5F5F5F5F5F5F5F5F5F5F5F5F5F5F5F5F5F5F5F5F5F5F5F5F5F5F5F5F5F5F5
310
F5F5F5F5F5F5F5F5F5F5F5F5F5F5F5E2F5F5F5E2F5F5F5F5F5F5E2E2E2F5F5F5F5F5F5F5F5F5F5F5F5F5F5F5F5F5F5F5F5F5F5F5F5F5F5F5F5F5F5F5F5F5F5F5F5F5F5F5F5F5F5F5F5F5F5F5F5F5F5F5F5F5F5F5F5F5F5F5F5F5F5F5F5F5F5F5F5F5F5F5F5F5F5F5F5F5F5F5F5F5F5F5F5E2F5F5F5E2E2E2F5F5F5E2F5F5F5
310
F5F5F5F5F5F5F5F5F5F5F5F5E2F5F5F5F5E2F5F5E2F5F5F5F5F5F5F5F5F5F5F5F5F5F5F5F5F5F5F5F5F5F5F5F5F5F5F5F5F5F5F5F5F5F5F5F5F5F5F5F5F5F5F5F5F5F5F5E2F5F5F5E2F5F5F5F5F5F5E2E2E2F5F5F5F5F5F5F5F5F5F5F5F5F5F5F5F5F5F5F5F5F5F5F5F5F5F5F5F5F5F5F5F5F5F5F5F5F5F5F5F5F5F5F5F5F5
310
F5F5F5F5F5F5F5F5F5F5F5F5F5F5F5F5F5F5F5F5F5F5F5F5F5F5F5F5F5F5F5F5F5F5F5F5F5F5F5E2F5F5F5E2E2E2F5F5F5E2F5F5F5F5F5F5F5F5F5F5F5F5F5F5F5E2F5F5F5F5E2F5F5E2F5F5F5F5E2E2E2E2E2F5F5F5F5F5F5F5F5F5F5F5F5F5F5F5F5F5F5F5F5F5F5F5F5F5F5F5F5F5F5F5F5F5F5F5F5F5F5E2F5F5F5E2F5
310
F5F5F5F5F5E2E2E2F5F5F5F5F5F5F5F5F5F5F5F5F5F5F5F5F5F5F5F5F5F5F5F5F5F5F5F5F5F5F5F5F5F5F5F5F5F5F5F5F5F5F5F5F5F5F5F5F5F5F5F5F5F5F5F5F5F5F5F5F5F5F5F5F5F5F5F5F5F5F5F5F5F5F5F5F5F5F5F5F5F5F5F5E2F5F5F5E2E2E2F5F5F5E2F5F5F5F5F5F5F5F5F5F5F5F5F5F5F5E2F5F5F5F5E2F5F5E2
310
F5F5F5F5E2E2E2E2E2F5F5F5F5F5F5F5F5F5F5F5F5F5F5F5F5F5F5F5F5F5F5F5F5F5F5F5F5F5F5F5F5F5F5F5F5F5F5E2F5F5F5E2F5F5F5F5F5F5E2E2E2F5F5F5F5F5F5F5F5F5F5F5F5F5F5F5F5F5F5F5F5F5F5F5F5F5F5F5F5F5F5F5F5F5F5F5F5F5F5F5F5F5F5F5F5F5F5F5F5F5F5F5F5F5F5F5F5F5F5F5F5F5F5F5F5F5F5
310
F5F5F5F5F5F5F5F5F5F5F5F5F5F5F5F5F5F5E2F5F5F5E2E2E2F5F5F5E2F5F5F5F5F5F5F5F5F5F5F5F5F5F5F5E2F5F5F5F5E2F5F5E2F5F5F5F5E2E2E2F5F5F5F5F5F5F5F5F5F5F5F5F5F5F5F5F5F5F5F5F5F5F5F5F5F5F5F5F5F5F5F5F5F5F5F5F5F5F5F5E2F5F5F5E2F5F5F5F5F5F5F5F5E2F5F5F5F5F5F5F5F5F5F5F5F5F5
310
F5F5F5F5F5F5F5F5F5F5F5F5F5F5F5F5F5F5F5F5F5F5F5F5F5F5F5F5F5F5F5F5F5F5F5F5F5F5F5F5F5F5F5F5F5F5F5F5F5F5F5F5F5F5F5F5F5F5F5F5F5F5F5F5F5F5F5F5F5F5F5E2F5F5F5E2E2E2F5F5F5E2F5F5F5F5F5F5F5F5F5F5F5F5F5F5F5E2F5F5F5F5E2F5F5E2F5F5F5F5E2E2E2E2E2F5F5F5F5F5F5F5F5F5F5F5F5
310
F5F5F5F5F5F5F5F5F5F5F5F5F5F5F5F5F5F5F5F5F5F5F5F5F5F5E2F5F5F5E2F5F5F5F5F5F5E2E2E2F5F5F5F5F5F5F5F5F5F5F5F5F5F5F5F5F5F5F5F5F5F5F5F5F5F5F5F5F5F5F5F5F5F5F5F5F5F5F5F5F5F5F5F5F5F5F5F5F5F5F5F5F5F5F5F5F5F5F5F5F5F5F5F5F5F5F5F5F5F5F5F5F5F5F5F5F5F5F5F5F5F5F5F5E2F5F5
310
F5E2E2E2F5F5F5E2F5F5F5F5F5F5F5F5F5F5F5F5F5F5F5E2F5F5F5F5E2F5F5E2F5F5F5F5E2E2E2E2F5F5F5F5F5F5F5F5F5F5F5F5F5F5F5F5F5F5F5F5F5F5F5F5F5F5F5F5F5F5F5F5F5F5F5F5F5F5F5E2F5F5F5E2F5F5F5F5F5F5E2E2E2F5F5F5F5F5F5F5F5F5F5F5F5F5F5F5F5F5F5F5F5F5F5F5F5F5F5F5F5F5F5F5F5F5F5
310
F5F5F5F5F5F5F5F5F5F5F5F5F5F5F5F5F5F5F5F5F5F5F5F5F5F5F5F5F5F5F5F5F5F5F5F5F5F5F5F5F5F5F5F5F5F5F5F5F5F5E2F5F5F5E2E2E2F5F5F5E2F5F5F5F5F5F5F5F5F5F5F5F5F5F5F5E2F5F5F5F5E2F5F5E2F5F5F5F5E2E2E2E2E2F5F5F5F5F5F5F5F5F5F5F5F5F5F5F5F5F5F5F5F5F5F5F5F5F5F5F5F5F5F5F5F5F5
310
F5F5F5F5F5E2F5F5F5E2F5F5F5F5F5F5E2E2E2F5F5F5F5F5F5F5F5F5F5F5F5F5F5F5F5F5F5F5F5F5F5F5F5F5F5F5F5F5F5F5F5F5F5F5F5F5F5F5F5F5F5F5F5F5F5F5F5F5F5F5F5F5F5F5F5F5F5F5F5F5F5F5F5F5F5F5F5F5F5F5F5F5F5F5F5F5F5F5F5F5F5F5F5E2F5F5F5E2E2E2F5F5F5E2F5F5F5F5F5F5F5F5F5F5F5F5F5
310
F5F5E2F5F5F5F5E2F5F5E2F5F5F5F5E2E2E2E2E2F5F5F5F5F5F5F5F5F5F5F5F5F5F5F5F5F5F5F5F5F5F5F5F5F5F5F5F5F5F5F5F5F5F5F5F5F5F5E2F5F5F5E2F5F5F5F5F5F5F5F5E2F5F5F5F5F5F5F5F5F5F5F5F5F5F5F5F5F5F5F5F5F5F5F5F5F5F5F5F5F5F5F5F5F5F5F5F5F5F5F5F5F5F5F5F5F5F5F5F5F5F5F5F5F5F5F5
310
F5F5F5F5F5F5F5F5F5F5F5F5F5F5F5F5F5F5F5F5F5F5F5F5F5F5F5F5F5E2F5F5F5E2E2E2F5F5F5E2F5F5F5F5F5F5F5F5F5F5F5F5F5F5F5E2F5F5F5F5E2F5F5E2F5F5F5F5F5F5F5F5F5F5F5F5F5F5F5F5F5F5F5F5F5F5F5F5F5F5F5F5F5F5F5F5F5F5F5F5F5F5F5F5F5F5F5F5F5F5F5E2F5F5F5E2F5F5F5F5F5F5F5E2E2F5F5
310
F5F5F5F5F5F5F5F5F5F5F5F5F5F5F5F5F5F5F5F5F5F5F5F5F5F5F5F5F5F5F5F5F5F5F5F5F5F5F5F5F5F5F5F5F5F5F5F5F5F5F5F5F5F5F5F5F5F5F5F5F5F5F5F5F5F5F5F5F5F5F5F5F5F5F5F5F5F5F5F5F5F5E2F5F5F5E2E2E2F5F5F5E2F5F5F5F5F5F5F5F5F5F5F5F5F5F5F5E2F5F5F5F5E2F5F5E2F5F5F5F5F5F5F5F5F5F5
310
F5F5F5F5F5F5F5F5F5F5F5F5F5F5F5F5F5F5F5F5F5F5F5F5F5F5F5F5F5F5F5F5F5F5F5F5F5E2F5F5F5E2F5F5F5F5F5F5E2E2E2F5F5F5F5F5F5F5F5F5F5F5F5F5F5F5F5F5F5F5F5F5F5F5F5F5F5F5F5F5F5F5F5F5F5F5F5F5F5F5F5F5F5F5F5F5F5F5F5F5F5F5F5F5F5F5F5F5F5F5F5F5F5F5F5F5F5F5F5F5F5F5F5F5F5F5F5
310
F5F5F5F5F5F5F5F5E2F5F5F5E2E2E2F5F5F5E2F5F5F5F5F5F5F5F5F5F5F5F5F5F5F5E2E2E2E2F5E2F5F5E2F5F5F5F5F5F5E2E2E2E2F5F5F5F5F5F5F5E2E2E2E2F5F5F5F5F5F5F5F5E2E2E2E2F5F5F5F5F5F5F5E2E2E2E2E2F5F5E2F5F5F5E2F5F5F5F5F5F5E2F5E2F5F5F5F5F5F5F5F5F5F5F5F5F5F5F5F5F5F5F5F5F5F5F5
310
F5F5F5F5F5F5F5F5F5F5F5F5F5F5F5F5F5F5F5F5F5F5F5F5F5F5F5F5F5F5F5F5F5F5F5F5F5F5F5F5F5F5F5F5F5F5F5F5F5F5F5F5F5F5F5F5F5F5F5F5F5E2F5F5F5E2E2E2F5F5F5E2F5F5F5F5F5F5F5F5F5F5F5F5F5F5F5E2F5F5E2F5E2F5F5E2F5F5F5F5F5F5E2F5F5E2F5F5F5F5F5F5F5E2F5F5E2F5F5F5F5F5F5F5F5E2F5
310
F5E2F5F5F5F5F5F5F5E2F5F5F5E2F5F5E2F5F5F5E2F5F5F5F5F5F5E2E2E2F5F5F5F5F5F5F5F5F5F5F5F5F5F5F5F5F5F5F5F5F5F5F5F5F5F5F5F5F5F5F5F5F5F5F5F5F5F5F5F5F5F5F5F5F5F5F5F5F5F5F5F5F5F5F5F5F5F5F5F5F5F5F5F5F5F5F5F5F5F5F5F5F5F5F5F5F5F5F5F5F5F5F5F5E2F5F5F5E2E2E2F5F5F5E2F5F5
310
F5F5F5F5F5F5F5F5F5F5F5F5F5E2F5F5E2F5E2F5F5E2F5F5F5F5F5F5E2F5F5E2F5F5F5F5F5F5F5E2F5F5E2F5F5F5F5F5F5F5F5E2F5F5E2F5F5F5F5F5F5F5E2F5F5F5E2F5F5E2F5F5F5E2F5F5F5F5F5F5E2E2E2F5F5F5F5F5F5F5F5F5F5F5F5F5F5F5F5F5F5F5F5F5F5F5F5F5F5F5F5F5F5F5F5F5F5F5F5F5F5F5F5F5F5F5F5
310
F5F5F5F5F5F5F5F5F5F5F5F5F5F5F5F5F5F5F5F5F5F5F5F5F5F5F5F5F5F5F5F5F5F5F5F5F5F5F5F5E2F5F5F5E2E2E2F5F5F5E2F5F5F5F5F5F5F5F5F5F5F5F5F5F5F5E2F5F5E2F5E2F5F5E2F5F5F5F5F5F5E2F5F5E2F5F5F5F5F5F5F5E2F5F5E2F5F5F5F5F5F5F5F5E2F5F5E2F5F5F5F5F5F5F5E2F5F5F5E2F5F5E2F5F5F5E2
310
F5F5F5F5F5F5E2E2E2F5F5F5F5F5F5F5F5F5F5F5F5F5F5F5F5F5F5F5F5F5F5F5F5F5F5F5F5F5F5F5F5F5F5F5F5F5F5F5F5F5F5F5F5F5F5F5F5F5F5F5F5F5F5F5F5F5F5F5F5F5F5F5F5F5F5F5F5F5F5F5F5F5F5F5F5F5F5F5F5F5F5F5F5E2F5F5F5E2E2E2F5F5F5E2F5F5F5F5F5F5F5F5F5F5F5F5F5F5F5E2F5F5E2F5E2F5F5
310
E2F5F5F5F5F5F5E2F5F5E2F5F5F5F5F5F5F5E2F5F5E2F5F5F5F5F5F5F5F5E2F5F5E2F5F5F5F5F5F5F5E2F5F5F5E2F5F5E2F5F5F5E2F5F5F5F5F5F5E2E2E2F5F5F5F5F5F5F5F5F5F5F5F5F5F5F5F5F5F5F5F5F5F5F5F5F5F5F5F5F5F5F5F5F5F5F5F5F5F5F5F5F5F5F5F5F5F5F5F5F5F5F5F5F5F5F5F5F5F5F5F5F5F5F5F5F5
310
F5F5F5F5F5F5F5F5F5F5F5F5F5F5F5F5F5F5F5E2F5F5F5E2E2E2F5F5F5E2F5F5F5F5F5F5F5F5F5F5F5F5F5F5F5E2F5F5E2F5E2F5F5E2F5F5F5F5F5F5E2F5F5E2F5F5F5F5F5F5F5E2F5F5E2F5F5F5F5F5F5F5F5E2F5F5E2F5F5F5F5F5F5F5E2F5F5F5E2F5F5E2F5F5F5E2F5F5F5F5F5F5E2E2E2F5F5F5F5F5F5F5F5F5F5F5F5
310
F5F5F5F5F5F5F5F5F5F5F5F5F5F5F5F5F5F5F5F5F5F5F5F5F5F5F5F5F5F5F5F5F5F5F5F5F5F5F5F5F5F5F5F5F5F5F5F5F5F5F5F5F5F5F5F5F5F5F5F5F5F5F5F5F5F5F5F5F5F5F5F5E2F5F5F5E2E2E2F5F5F5E2F5F5F5F5F5F5F5F5F5F5F5F5F5F5F5E2F5F5E2F5E2F5F5E2F5F5F5F5F5F5E2F5F5E2F5F5F5F5F5F5F5E2F5F5
310
E2F5F5F5F5F5F5F5F5E2F5F5E2F5F5F5F5F5F5F5E2F5F5F5E2F5F5E2F5F5F5E2F5F5F5F5F5F5E2E2E2F5F5F5F5F5F5F5F5F5F5F5F5F5F5F5F5F5F5F5F5F5F5F5F5F5F5F5F5F5F5F5F5F5F5F5F5F5F5F5F5F5F5F5F5F5F5F5F5F5F5F5F5F5F5F5F5F5F5F5F5F5F5F5F5F5F5F5F5F5F5F5F5F5F5F5F5F5F5F5F5F5F5F5F5E2F5
310
F5F5E2E2E2F5F5F5E2F5F5F5F5F5F5F5F5F5F5F5F5F5F5F5E2F5F5E2F5E2F5F5E2F5F5F5F5F5F5E2F5F5E2F5F5F5F5F5F5F5E2F5F5E2F5F5F5F5F5F5F5F5E2F5F5E2F5F5F5F5F5F5F5E2F5F5F5E2F5F5E2F5F5F5E2F5F5F5F5F5F5F5E2E2F5F5F5F5F5F5F5F5F5F5F5F5F5F5F5F5F5F5F5F5F5F5F5F5F5F5F5F5F5F5F5F5F5
310
F5F5F5F5F5F5F5F5F5F5F5F5F5F5F5F5F5F5F5F5F5F5F5F5F5F5F5F5F5F5F5F5F5F5F5F5F5F5F5F5F5F5F5F5F5F5F5F5F5F5F5E2F5F5F5E2E2E2F5F5F5E2F5F5F5F5F5F5F5F5F5F5F5F5F5F5F5E2F5F5E2F5E2F5F5E2F5F5F5F5F5F5E2F5F5E2F5F5F5F5F5F5F5E2F5F5E2F5F5F5F5F5F5F5F5E2F5F5E2F5F5F5F5F5F5F5E2
310
F5F5F5E2F5F5E2F5F5F5E2F5F5F5F5F5F5F5E2E2F5F5F5F5F5F5F5F5F5F5F5F5F5F5F5F5F5F5F5F5F5F5F5F5F5F5F5F5F5F5F5F5F5F5F5F5F5F5F5F5F5F5F5F5F5F5F5F5F5F5F5F5F5F5F5F5F5F5F5F5F5F5F5F5F5F5F5F5F5F5F5F5F5F5F5F5F5F5F5F5F5F5F5F5E2F5F5F5E2E2E2F5F5F5E2E2E2E2E2E2E2E2E2E2E2F5F5
310
F5F5F5E2F5F5E2F5E2F5F5E2F5F5F5F5F5F5E2F5F5E2F5F5F5F5F5F5F5E2F5F5E2F5F5F5F5F5F5F5F5E2F5F5E2F5F5F5F5F5F5F5E2F5F5F5E2F5F5E2F5F5F5E2F5F5F5F5F5F5F5E2E2F5F5F5F5F5F5F5F5F5F5F5F5F5F5F5F5F5F5F5F5F5F5F5F5F5F5F5F5F5F5F5F5F5F5F5F5F5F5F5F5F5F5F5F5F5F5F5F5F5F5F5F5F5F5
310
F5F5F5F5F5F5F5F5F5F5F5F5F5F5F5F5F5F5F5F5F5F5F5F5F5F5F5F5F5F5E2F5F5F5E2E2E2F5F5F5E2E2E2E2E2E2E2E2E2E2E2F5F5F5F5F5E2F5F5E2F5E2F5F5E2F5F5F5F5F5F5E2F5F5E2F5F5F5F5F5F5F5E2F5F5E2F5F5F5F5F5F5F5F5E2F5F5E2F5F5F5F5F5F5F5E2F5F5F5E2F5F5E2F5F5F5E2F5F5F5F5F5F5F5E2E2F5
310
F5F5F5F5F5F5F5F5F5F5F5F5F5F5F5F5F5F5F5F5F5F5F5F5F5F5F5F5F5F5F5F5F5F5F5F5F5F5F5F5F5F5F5F5F5F5F5F5F5F5F5F5F5F5F5F5F5F5F5F5F5F5F5F5F5F5F5F5F5F5F5F5F5F5F5F5F5F5F5F5F5F5F5E2F5F5F5E2E2E2F5F5F5E2E2F5E2E2E2E2E2F5E2E2F5F5F5F5F5E2F5F5E2F5E2F5F5E2F5F5F5F5F5F5E2F5F5
310
E2F5F5F5F5F5F5F5E2F5F5E2F5F5F5F5F5F5F5F5E2F5F5E2F5F5F5F5F5F5F5E2F5F5F5E2F5F5E2F5F5F5E2F5F5F5F5F5F5F5E2E2F5F5F5F5F5F5F5F5F5F5F5F5F5F5F5F5F5F5F5F5F5F5F5F5F5F5F5F5F5F5F5F5F5F5F5F5F5F5F5F5F5F5F5F5F5F5F5F5F5F5F5F5F5F5F5F5F5F5F5F5F5F5F5F5F5F5F5F5F5F5F5F5F5F5F5
310
F5F5F5F5F5F5F5F5F5E2F5F5F5E2E2E2F5F5F5E2E2F5E2E2E2E2E2F5F5E2F5F5F5F5F5E2F5F5E2F5E2F5F5E2F5F5F5F5F5F5E2F5F5E2F5F5F5F5F5F5F5E2F5F5E2F5F5F5F5F5F5F5F5E2F5F5E2F5F5F5F5F5F5F5E2F5F5F5E2F5F5E2F5F5F5E2F5F5F5F5F5F5F5E2E2F5F5F5F5F5F5F5F5F5F5F5F5F5F5F5F5F5F5F5F5F5F5
310
F5F5F5F5F5F5F5F5F5F5F5F5F5F5F5F5F5F5F5F5F5F5F5F5F5F5F5F5F5F5F5F5F5F5F5F5F5F5F5F5F5F5F5F5F5F5F5F5F5F5F5F5F5F5F5F5F5F5F5F5F5F5E2F5F5F5E2E2E2F5F5F5E2E2E2E2E2F5F5F5F5F5E2F5F5F5F5F5E2F5F5E2F5E2F5F5E2F5F5F5F5F5F5E2F5F5E2F5F5F5F5F5F5F5E2F5F5E2F5F5F5F5F5F5F5F5E2
310
F5F5E2F5F5F5F5F5F5F5E2F5F5F5E2F5F5E2F5F5F5E2F5F5F5F5F5F5F5E2E2F5F5F5F5F5F5F5F5F5F5F5F5F5F5F5F5F5F5F5F5F5F5F5F5F5F5F5F5F5F5F5F5F5F5F5F5F5F5F5F5F5F5F5F5F5F5F5F5F5F5F5F5F5F5F5F5F5F5F5F5F5F5F5F5F5F5F5F5F5F5F5F5F5F5F5F5F5F5F5F5F5F5F5F5E2F5F5F5E2E2E2F5F5F5E2E2
310
E2E2E2F5F5F5F5F5E2F5F5F5F5F5E2E2E2E2F5E2F5F5E2F5F5F5F5F5F5E2E2E2E2F5F5F5F5F5F5F5E2E2E2E2F5F5F5F5F5F5F5F5E2E2E2E2F5F5F5F5F5F5F5E2E2E2E2E2F5F5E2F5F5F5E2F5F5F5F5F5F5F5E2E2F5F5F5F5F5F5F5F5F5F5F5F5F5F5F5F5F5F5F5F5F5F5F5F5F5F5F5F5F5F5F5F5F5F5F5F5F5F5F5F5F5F5F5
310
F5F5F5F5F5F5F5F5F5F5F5F5F5F5F5F5F5F5F5F5F5F5F5F5F5F5F5F5F5F5F5F5F5F5F5F5F5F5F5F5F5E2F5F5F5E2E2E2F5F5F5E2E2E2E2E2F5F5F5F5F5E2F5F5F5F5F5E2F5F5F5F5E2F5F5E2F5F5F5F5F5F5F5F5F5F5F5F5F5F5F5F5F5F5F5F5F5F5F5F5F5F5F5F5F5F5F5F5F5F5F5F5F5F5F5F5F5F5F5F5F5F5F5E2E2E2E2
310
E2F5F5F5F5F5F5F5E2E2F5F5F5F5F5F5F5F5F5F5F5F5F5F5F5F5F5F5F5F5F5F5F5F5F5F5F5F5F5F5F5F5F5F5F5F5F5F5F5F5F5F5F5F5F5F5F5F5F5F5F5F5F5F5F5F5F5F5F5F5F5F5F5F5F5F5F5F5F5F5F5F5F5F5F5F5F5F5F5F5F5F5F5F5E2F5F5F5E2E2E2F5F5F5E2E2E2E2E2E2E2E2E2E2E2F5F5F5F5F5E2F5E2E2E2E2F5
310
F5E2F5F5F5F5F5F5F5F5E2E2E2E2F5F5F5F5F5F5F5F5E2E2E2F5F5F5F5F5F5F5F5E2E2E2E2F5F5F5F5F5F5F5F5E2E2E2F5E2F5F5E2E2F5F5F5F5F5F5F5E2E2F5F5F5F5F5F5F5F5F5F5F5F5F5F5F5F5F5F5F5F5F5F5F5F5F5F5F5F5F5F5F5F5F5F5F5F5F5F5F5F5F5F5F5F5F5F5F5F5F5F5F5F5F5F5F5F5F5F5F5F5F5F5F5F5
310
F5F5F5F5F5F5F5F5F5F5F5F5F5F5F5F5F5F5F5F5E2F5F5F5E2E2E2F5F5F5E2F5F5F5F5F5F5F5F5F5F5F5F5F5F5F5E2F5E2E2E2E2F5F5E2F5F5F5F5F5F5F5F5E2E2E2E2F5F5F5F5F5F5F5F5E2E2E2F5F5F5F5F5F5F5F5E2E2E2E2F5F5F5F5F5F5F5F5E2E2E2F5E2F5E2F5E2F5F5F5F5F5F5F5E2E2F5F5F5F5F5F5F5F5F5F5F5
310
F5F5F5F5F5F5F5F5F5F5F5F5F5F5F5F5F5F5F5F5F5F5F5F5F5F5F5F5F5F5F5F5F5F5F5F5F5F5F5F5F5F5F5F5F5F5F5F5F5F5F5F5F5F5F5F5F5F5F5F5F5F5F5F5F5F5F5F5F5F5F5F5F5E2F5F5F5E2E2E2F5F5F5E2F5F5F5F5F5F5F5F5F5F5F5F5F5F5F5E2E2E2E2E2E2E2E2E2E2E2E2E2E2E2E2E2E2E2E2E2E2E2E2E2E2E2E2
310
E2E2E2E2E2E2E2E2E2E2E2E2E2E2E2E2E2E2E2E2E2E2E2E2E2E2E2E2E2E2F5F5E2F5F5F5F5F5F5F5E2E2F5F5F5F5F5F5F5F5F5F5F5F5F5F5F5F5F5F5F5F5F5F5F5F5F5F5F5F5F5F5F5F5F5F5F5F5F5F5F5F5F5F5F5F5F5F5F5F5F5F5F5F5F5F5F5F5F5F5F5F5F5F5F5F5F5F5F5F5F5F5F5F5F5F5F5F5F5F5F5F5F5F5F5F5E2
310
F5F5F5E2E2E2F5F5F5E2F5F5F5F5F5F5F5F5F5F5F5F5F5F5F5E2E2E2E2E2E2E2E2E2E2E2E2E2E2E2E2E2E2E2E2E2E2E2E2E2E2E2E2E2E2E2E2E2E2E2E2E2E2E2E2E2E2E2E2E2E2E2E2E2E2E2E2E2E2E2E2E2F5F5F5E2F5F5F5F5F5F5F5E2E2F5F5F5F5F5F5F5F5F5F5F5F5F5F5F5F5F5F5F5F5F5F5F5F5F5F5F5F5F5F5F5F5
310
F5F5F5F5F5F5F5F5F5F5F5F5F5F5F5F5F5F5F5F5F5F5F5F5F5F5F5F5F5F5F5F5F5F5F5F5F5F5F5F5F5F5F5F5F5F5F5F5F5F5F5F5E2F5F5F5E2E2E2F5F5F5E2F5F5F5F5F5F5F5F5F5F5F5F5F5F5F5E2F5F5F5F5F5F5F5F5F5F5F5F5F5F5F5F5F5F5E2E2F5F5E2E2F5F5F5F5F5F5F5F5F5F5F5F5F5F5F5F5F5E2E2F5F5E2E2F5
310
F5F5F5F5F5F5F5F5F5F5F5E2F5F5F5F5F5F5F5E2E2F5F5F5F5F5F5F5F5F5F5F5F5F5F5F5F5F5F5F5F5F5F5F5F5F5F5F5F5F5F5F5F5F5F5F5F5F5F5F5F5F5F5F5F5F5F5F5F5F5F5F5F5F5F5F5F5F5F5F5F5F5F5F5F5F5F5F5F5F5F5F5F5F5F5F5F5F5F5F5F5F5F5F5F5E2F5F5F5E2E2E2F5F5F5E2F5F5F5F5F5F5F5F5F5F5F5
310
F5F5F5F5E2F5F5F5F5F5F5F5F5F5F5F5F5F5F5F5F5F5F5E2E2F5F5E2E2F5F5F5F5F5F5F5F5F5F5F5F5F5F5F5F5F5E2E2F5F5E2E2F5F5F5F5F5F5F5F5F5F5F5F5E2F5F5F5F5F5F5F5E2E2E2E2E2E2E2E2E2E2E2E2E2E2E2E2E2E2E2E2E2E2E2E2E2E2E2E2E2E2E2E2E2E2E2E2E2E2E2E2E2E2E2E2E2E2E2E2E2E2E2E2E2E2E2
310
E2E2E2E2E2E2E2E2E2E2E2E2E2E2E2E2E2E2E2E2E2E2E2E2E2E2E2E2E2E2E2E2F5F5F5E2E2E2F5F5F5E2F5F5F5F5F5F5F5F5F5F5F5F5F5F5F5E2F5F5F5F5F5F5F5F5F5F5F5F5F5F5F5F5F5F5E2E2BEBEE2E2F5F5F5F5F5F5F5F5F5F5F5F5F5F5F5F5F5E2E2BEBEE2E2F5F5F5F5F5F5F5F5F5F5F5F5E2F5F5F5F5F5F5F5E2E2
310
F5F5F5F5F5F5F5F5F5F5F5F5F5F5F5F5F5F5F5F5F5F5F5F5F5F5F5F5F5E2E2F5F5F5F5F5F5F5F5F5F5F5F5F5F5F5F5F5F5F5F5F5F5F5F5F5F5F5F5F5F5F5F5F5F5F5F5F5F5F5F5F5F5F5F5F5F5F5F5F5F5F5F5F5F5F5F5F5E2E2E2F5F5F5E2F5F5F5F5F5F5F5F5F5F5F5F5F5F5F5E2F5F5F5F5F5F5F5F5F5F5F5F5F5F5F5F5
310
F5F5E2F5BEBEF5E2F5F5F5F5F5F5F5F5F5F5F5F5F5F5F5F5F5E2F5BEBEE2E2F5F5F5F5F5F5F5F5F5F5F5F5E2F5F5F5F5F5F5F5E2E2F5E2E2F5F5E2E2E2F5F5E2F5E2F5E2F5F5F5E2E2F5E2E2E2E2F5E2E2F5E2E2E2E2E2F5E2F5F5F5F5F5E2F5F5F5F5F5E2E2F5E2F5E2E2F5F5E2F5F5F5F5E2E2E2E2F5E2F5E2E2E2E2E2F5
310
E2E2E2E2E2E2E2F5F5F5F5F5F5F5E2E2E2F5F5F5E2F5F5F5F5F5F5F5F5F5F5F5F5F5F5F5E2F5F5F5F5F5F5F5F5F5F5F5F5F5F5F5F5F5F5E2E2E2E2E2E2F5F5F5F5F5F5F5F5F5F5F5F5F5F5F5F5F5E2E2E2E2E2E2E2E2E2E2E2E2E2E2E2E2E2E2E2E2E2E2E2E2E2E2E2E2F5E2F5E2E2F5E2E2F5F5E2F5E2E2E2F5F5E2F5E2F5
310
E2E2F5F5E2F5F5E2E2F5E2E2F5E2F5F5F5F5F5E2E2E2F5F5F5E2F5E2E2F5E2F5E2F5E2F5E2F5F5F5E2F5E2E2F5E2E2F5E2F5E2E2E2F5E2E2E2F5E2E2E2F5F5F5F5F5F5E2E2E2F5F5F5E2F5F5F5F5F5F5F5F5F5F5F5F5F5F5F5E2F5F5F5F5F5F5F5F5F5F5F5F5F5F5F5F5F5F5F5F5F5F5F5F5F5F5F5F5F5F5F5F5F5F5F5F5F5
310
F5F5F5F5F5F5F5F5F5F5F5F5F5F5F5F5F5F5F5F5F5F5E2F5F5F5F5F5F5F5F5E2F5E2F5F5E2E2E2E2E2E2E2E2E2E2E2E2E2E2E2E2F5E2E2F5F5E2E2E2E2E2E2E2E2E2F5E2F5F5F5F5F5E2F5F5F5F5F5E2F5E2F5E2E2E2E2E2E2E2F5F5F5E2F5F5E2E2E2E2E2E2F5E2E2E2E2E2E2E2E2E2E2E2F5F5F5F5F5F5E2E2E2F5F5F5E2
310
F5F5F5F5F5F5F5F5F5F5F5F5F5F5F5E2F5F5F5F5F5F5F5F5F5F5F5F5F5F5F5F5F5F5F5F5F5F5F5F5F5F5F5F5F5F5F5F5F5F5F5F5F5F5F5F5F5F5F5F5F5F5F5F5F5F5F5F5F5F5F5F5F5F5F5E2F5F5F5F5F5F5F5F5E2F5E2E2E2F5F5F5F5F5F5F5F5E2F5F5F5F5F5F5F5F5E2E2F5F5F5F5F5F5F5F5F5E2F5F5F5F5F5F5F5F5E2
310
F5F5F5F5E2E2E2E2F5F5F5F5F5E2F5F5F5F5F5E2E2E2E2F5F5F5F5F5F5F5F5F5F5F5F5E2F5F5F5F5F5F5E2F5F5F5E2E2E2F5F5F5E2F5F5F5F5F5F5F5F5F5F5F5F5F5F5F5E2F5F5F5F5F5F5F5F5F5F5F5F5F5F5F5F5F5F5F5F5F5F5F5F5F5F5F5F5F5F5F5F5F5F5F5F5F5F5F5F5F5F5F5F5F5F5F5F5F5F5F5F5F5F5F5F5F5F5
310
F5E2F5F5F5F5F5F5F5F5E2F5F5F5F5F5F5F5F5F5F5F5F5F5F5F5F5F5F5F5F5F5F5F5F5F5F5F5F5F5F5F5F5F5F5F5F5F5F5F5F5F5F5F5F5F5F5F5F5F5F5F5F5F5F5F5F5F5F5F5F5F5F5F5F5F5F5F5F5F5F5F5F5F5F5F5F5F5F5F5F5F5F5F5F5E2F5F5F5E2E2E2F5F5F5E2F5F5F5F5F5F5F5F5F5F5F5F5F5F5F5E2F5F5F5F5F5
310
F5F5F5F5F5F5F5F5F5F5F5F5F5F5F5F5F5F5F5F5F5F5F5F5F5F5F5F5F5F5F5F5F5F5F5F5F5F5F5F5F5F5F5F5F5F5F5F5F5F5F5F5F5F5E2F5F5F5F5F5F5F5F5E2F5F5F5F5F5F5F5F5F5F5F5F5F5F5F5F5F5F5F5F5F5F5F5F5F5F5F5F5F5F5F5F5F5F5F5F5F5F5F5F5F5F5F5F5F5F5F5F5F5F5F5F5F5F5F5F5F5F5F5F5F5F5F5
310
F5F5F5F5F5F5F5F5F5F5F5F5F5F5F5F5F5F5F5F5F5E2F5F5F5E2E2E2F5F5F5E2F5F5F5F5F5F5F5F5F5F5F5F5F5F5F5E2F5F5F5F5F5F5F5F5F5F5F5F5F5F5F5F5F5F5F5F5F5F5F5F5F5F5F5F5F5F5F5F5F5F5F5F5F5F5F5F5F5F5F5F5F5F5F5F5F5F5F5F5F5F5F5F5F5F5F5E2F5F5F5F5F5F5F5F5E2F5E2E2F5E2F5E2E2E2F5
310
E2E2E2F5F5F5E2F5E2F5F5E2F5F5F5F5F5F5F5F5F5F5F5F5F5F5F5F5F5F5F5F5F5F5F5F5F5F5F5F5F5F5F5F5F5F5F5F5F5F5F5F5F5F5F5F5F5F5F5F5F5F5F5F5F5F5F5F5F5F5F5F5F5F5E2F5F5F5E2E2E2F5F5F5E2F5F5F5F5F5F5F5F5F5F5F5F5F5F5F5E2E2E2E2E2E2E2E2E2E2E2E2E2E2E2E2E2E2E2E2E2E2E2E2E2E2E2
310
E2F5E2E2F5F5E2E2F5E2E2E2E2E2E2E2E2E2E2E2E2E2E2E2E2E2E2E2E2E2E2E2E2E2F5F5F5F5F5F5F5F5E2F5E2F5F5E2F5F5F5E2F5E2E2E2E2E2E2E2E2E2E2E2E2E2F5F5F5F5F5F5F5F5F5F5F5F5F5F5F5F5F5F5F5F5F5F5F5F5F5F5F5F5F5F5F5F5F5F5F5F5F5F5F5F5F5F5F5F5F5F5F5F5F5F5F5F5F5F5F5F5F5F5F5F5F5
310
E2F5F5F5E2E2E2F5F5F5E2F5F5F5F5F5F5F5F5F5F5F5F5F5F5F5E2E2F5F5F5F5F5F5F5F5F5F5F5F5F5F5F5F5F5F5E2E2E2E2E2E2F5E2F5E2E2E2F5E2E2E2E2E2E2E2E2F5F5F5F5F5F5F5F5F5F5F5F5F5F5F5F5F5E2E2E2F5F5F5F5F5F5F5F5E2F5E2F5F5F5E2E2E2E2F5E2F5F5F5F5F5F5E2E2F5E2E2F5F5F5F5F5F5F5F5F5
310
F5F5F5F5F5F5F5F5F5F5F5F5F5F5F5F5F5F5F5F5F5F5F5F5F5F5F5F5F5F5F5F5F5F5F5F5F5F5F5F5F5F5F5F5F5F5F5F5F5F5F5F5F5E2F5F5F5E2E2E2F5F5F5E2F5F5F5F5F5F5F5F5F5F5F5F5F5F5F5F5F5F5F5F5F5F5F5F5F5F5F5F5F5F5F5F5F5F5F5F5F5F5F5F5F5F5F5F5F5F5F5F5F5F5F5F5F5F5F5F5F5F5F5F5F5F5F5
310
F5F5F5F5F5F5F5F5F5F5F5F5F5F5F5F5F5F5F5F5F5E2F5E2F5E2E2E2E2E2E2F5F5E2F5F5F5F5F5E2F5F5F5E2F5F5F5F5F5F5F5F5F5F5F5F5F5F5F5F5F5F5F5F5F5F5F5F5F5F5F5F5F5F5F5F5F5F5F5F5F5F5F5F5F5F5F5F5F5F5F5F5F5F5F5F5F5F5F5F5F5F5F5F5F5F5E2F5F5F5E2E2E2F5F5F5E2F5F5F5F5F5F5F5F5F5F5
310
F5F5F5F5F5F5F5F5F5F5F5F5F5F5F5F5F5F5F5F5F5F5F5F5F5F5F5F5F5F5F5F5F5F5F5F5F5F5F5F5F5F5F5F5F5F5F5F5F5F5F5F5F5F5F5F5F5F5F5F5F5F5F5F5F5F5F5F5F5F5F5F5F5F5E2F5F5F5F5F5F5F5F5F5F5F5F5F5F5F5F5F5F5F5F5F5F5F5F5F5F5F5F5F5F5F5F5F5F5F5F5F5F5F5F5F5F5F5F5F5F5F5F5F5F5F5F5
310
F5F5F5F5F5F5F5F5F5F5F5F5F5F5F5F5F5F5F5F5F5F5F5F5F5F5F5F5F5F5F5F5E2F5F5F5E2E2E2F5F5F5E2E2E2E2E2E2E2E2E2E2E2E2E2E2E2E2E2E2E2E2E2E2E2E2E2E2E2E2E2E2E2E2E2E2E2E2E2E2E2E2E2E2E2E2E2E2E2E2E2E2E2E2E2E2E2E2E2E2E2E2E2E2E2E2E2E2E2E2E2E2E2E2E2E2E2E2E2E2E2E2E2E2E2E2E2
310
E2F5F5F5F5E2E2E2E2E2E2E2E2E2E2E2E2E2E2E2F5F5F5F5F5F5F5F5F5E2E2E2E2E2E2E2E2E2E2E2E2E2E2E2E2F5F5F5F5F5F5F5F5E2E2E2E2E2E2E2E2E2E2E2E2E2E2E2E2F5F5F5F5F5F5F5F5F5E2E2E2E2E2E2E2E2F5F5F5E2E2E2F5F5F5F5F5F5F5F5F5F5F5F5F5F5F5F5F5F5F5F5F5F5F5F5F5F5F5F5F5F5F5F5F5F5F5
310
F5F5F5F5F5F5F5F5F5F5F5F5F5F5F5F5F5F5F5F5F5F5F5F5F5F5F5F5F5F5F5F5F5F5F5F5F5F5F5F5F5F5F5F5F5F5F5F5F5F5F5F5F5F5F5F5F5F5F5F5F5F5F5F5F5F5F5F5F5F5F5F5F5F5F5F5F5F5F5F5F5F5F5F5F5F5F5F5F5F5F5F5F5F5F5F5F5F5F5F5F5F5F5F5F5F5F5F5F5F5F5F5F5F5F5F5F5F5F5F5F5F5F5F5F5F5F5
310
F5F5F5F5F5F5F5F5F5F5F5F5F5F5F5E2E2E2F5F5F5F5F5F5F5F5F5F5F5F5F5F5F5F5F5F5F5F5F5F5F5F5F5F5F5F5F5F5F5F5F5F5F5F5F5F5F5F5F5F5F5F5F5F5F5F5F5F5F5F5F5F5F5F5F5F5F5F5F5F5F5F5F5F5F5F5F5F5F5F5F5F5F5F5F5F5F5F5F5F5F5F5F5F5F5F5F5F5F5F5F5F5F5F5F5F5F5F5F5F5F5F5F5F5F5F5F5
310
F5F5F5F5F5F5F5F5F5F5F5F5F5F5F5F5F5F5F5F5F5F5F5F5F5F5F5F5F5F5F5F5F5F5F5F5F5F5F5F5F5F5F5F5F5F5F5F5F5F5F5F5F5F5F5F5F5F5F5F5F5F5F5F5F5F5F5F5E2EFE2F5F5F5F5F5F5F5F5F5F5F5F5F5F5F5F5F5F5F5F5F5F5F5F5F5F5F5F5F5F5F5F5F5F5F5F5F5F5F5F5F5F5F5F5F5F5F5F5F5F5F5F5F5F5F5F5
310
F5F5F5F5F5F5F5F5F5F5F5F5F5F5F5F5F5F5F5F5F5F5F5F5F5F5F5F5F5F5F5F5F5F5F5F5F5F5F5F5F5F5F5F5F5F5F5F5F5F5F5F5F5F5F5F5F5F5F5F5F5F5F5F5F5F5F5F5F5F5F5F5F5F5F5F5F5F5F5F5F5F5F5F5F5F5F5F5F5F5F5F5F5F5F5F5F5F5F5F5F5F5F5F5F5F5F5F5F5F5F5F5F5F5F5F5F5F5F5F5F5E2EFE2E2E2E2
310
E2E2E2E2E2E2E2E2E2E2E2E2E2E2E2E2E2E2E2E2E2E2E2E2E2E2E2E2E2E2E2E2E2E2E2E2E2E2E2E2E2E2E2E2E2E2E2E2E2E2E2E2E2E2E2E2E2E2E2E2E2E2E2E2E2E2E2E2E2E2E2E2E2E2E2E2E2E2E2E2E2E2E2E2E2E2E2E2E2E2E2E2E2E2E2E2E2E2E2E2E2E2E2E2E2E2E2E2E2E2E2E2E2E2E2E2E2E2E2E2E2E2E2E2E2E2E2
310
E2E2E2E2E2E2E2E2E2E2E2E2E2E2E2E2E2E2E2E2E2E2E2E2E2E2E2E2E2E2E2E2E2E2E2E2E2E2E2E2E2E2E2E2E2E2E2E2EF
  0
ENDSEC
  0
EOF
