  0
SECTION
  2
HEADER
  9
$ACADVER
  1
AC1015
  9
$ACADMAINTVER
 70
     6
  9
$DWGCODEPAGE
  3
ANSI_1252
  9
$INSBASE
 10
-1636.12654385908
 20
1719.785366981574
 30
-360.9847947002422
  9
$EXTMIN
 10
-1751.902044628282
 20
1555.447366981574
 30
-360.9847947002423
  9
$EXTMAX
 10
-1382.666295188922
 20
1754.912974618593
 30
-215.9507947002422
  9
$LIMMIN
 10
0.0
 20
0.0
  9
$LIMMAX
 10
12.0
 20
9.0
  9
$ORTHOMODE
 70
     1
  9
$REGENMODE
 70
     1
  9
$FILLMODE
 70
     1
  9
$QTEXTMODE
 70
     0
  9
$MIRRTEXT
 70
     0
  9
$LTSCALE
 40
1.0
  9
$ATTMODE
 70
     1
  9
$TEXTSIZE
 40
0.2
  9
$TRACEWID
 40
0.05
  9
$TEXTSTYLE
  7
Standard
  9
$CLAYER
  8
0
  9
$CELTYPE
  6
ByLayer
  9
$CECOLOR
 62
   256
  9
$CELTSCALE
 40
1.0
  9
$DISPSILH
 70
     0
  9
$DIMSCALE
 40
1.0
  9
$DIMASZ
 40
0.18
  9
$DIMEXO
 40
0.0625
  9
$DIMDLI
 40
0.38
  9
$DIMRND
 40
0.0
  9
$DIMDLE
 40
0.0
  9
$DIMEXE
 40
0.18
  9
$DIMTP
 40
0.0
  9
$DIMTM
 40
0.0
  9
$DIMTXT
 40
0.18
  9
$DIMCEN
 40
0.09
  9
$DIMTSZ
 40
0.0
  9
$DIMTOL
 70
     0
  9
$DIMLIM
 70
     0
  9
$DIMTIH
 70
     1
  9
$DIMTOH
 70
     1
  9
$DIMSE1
 70
     0
  9
$DIMSE2
 70
     0
  9
$DIMTAD
 70
     0
  9
$DIMZIN
 70
     0
  9
$DIMBLK
  1

  9
$DIMASO
 70
     1
  9
$DIMSHO
 70
     1
  9
$DIMPOST
  1

  9
$DIMAPOST
  1

  9
$DIMALT
 70
     0
  9
$DIMALTD
 70
     2
  9
$DIMALTF
 40
25.4
  9
$DIMLFAC
 40
1.0
  9
$DIMTOFL
 70
     0
  9
$DIMTVP
 40
0.0
  9
$DIMTIX
 70
     0
  9
$DIMSOXD
 70
     0
  9
$DIMSAH
 70
     0
  9
$DIMBLK1
  1

  9
$DIMBLK2
  1

  9
$DIMSTYLE
  2
Standard
  9
$DIMCLRD
 70
     0
  9
$DIMCLRE
 70
     0
  9
$DIMCLRT
 70
     0
  9
$DIMTFAC
 40
1.0
  9
$DIMGAP
 40
0.09
  9
$DIMJUST
 70
     0
  9
$DIMSD1
 70
     0
  9
$DIMSD2
 70
     0
  9
$DIMTOLJ
 70
     1
  9
$DIMTZIN
 70
     0
  9
$DIMALTZ
 70
     0
  9
$DIMALTTZ
 70
     0
  9
$DIMUPT
 70
     0
  9
$DIMDEC
 70
     4
  9
$DIMTDEC
 70
     4
  9
$DIMALTU
 70
     2
  9
$DIMALTTD
 70
     2
  9
$DIMTXSTY
  7
Standard
  9
$DIMAUNIT
 70
     0
  9
$DIMADEC
 70
     0
  9
$DIMALTRND
 40
0.0
  9
$DIMAZIN
 70
     0
  9
$DIMDSEP
 70
    46
  9
$DIMATFIT
 70
     3
  9
$DIMFRAC
 70
     0
  9
$DIMLDRBLK
  1

  9
$DIMLUNIT
 70
     2
  9
$DIMLWD
 70
    -2
  9
$DIMLWE
 70
    -2
  9
$DIMTMOVE
 70
     0
  9
$LUNITS
 70
     2
  9
$LUPREC
 70
     4
  9
$SKETCHINC
 40
0.1
  9
$FILLETRAD
 40
0.0
  9
$AUNITS
 70
     0
  9
$AUPREC
 70
     0
  9
$MENU
  1
.
  9
$ELEVATION
 40
0.0
  9
$PELEVATION
 40
0.0
  9
$THICKNESS
 40
0.0
  9
$LIMCHECK
 70
     0
  9
$CHAMFERA
 40
0.0
  9
$CHAMFERB
 40
0.0
  9
$CHAMFERC
 40
0.0
  9
$CHAMFERD
 40
0.0
  9
$SKPOLY
 70
     0
  9
$TDCREATE
 40
2452863.553326435
  9
$TDUCREATE
 40
2452863.803326435
  9
$TDUPDATE
 40
2453396.581696342
  9
$TDUUPDATE
 40
2453396.831696342
  9
$TDINDWG
 40
1.4448895023
  9
$TDUSRTIMER
 40
1.4448895023
  9
$USRTIMER
 70
     1
  9
$ANGBASE
 50
0.0
  9
$ANGDIR
 70
     0
  9
$PDMODE
 70
     3
  9
$PDSIZE
 40
2.5
  9
$PLINEWID
 40
0.0
  9
$SPLFRAME
 70
     0
  9
$SPLINETYPE
 70
     6
  9
$SPLINESEGS
 70
     8
  9
$HANDSEED
  5
830C
  9
$SURFTAB1
 70
     6
  9
$SURFTAB2
 70
     6
  9
$SURFTYPE
 70
     6
  9
$SURFU
 70
     6
  9
$SURFV
 70
     6
  9
$UCSBASE
  2

  9
$UCSNAME
  2

  9
$UCSORG
 10
0.0
 20
0.0
 30
0.0
  9
$UCSXDIR
 10
1.0
 20
0.0
 30
0.0
  9
$UCSYDIR
 10
0.0
 20
0.0
 30
1.0
  9
$UCSORTHOREF
  2

  9
$UCSORTHOVIEW
 70
     3
  9
$UCSORGTOP
 10
-1636.12654385908
 20
1719.785366981574
 30
-360.9847947002422
  9
$UCSORGBOTTOM
 10
0.0
 20
0.0
 30
0.0
  9
$UCSORGLEFT
 10
0.0
 20
0.0
 30
0.0
  9
$UCSORGRIGHT
 10
0.0
 20
0.0
 30
0.0
  9
$UCSORGFRONT
 10
0.0
 20
0.0
 30
0.0
  9
$UCSORGBACK
 10
-370.7376209952446
 20
574.4931739166871
 30
-146.9521510172783
  9
$PUCSBASE
  2

  9
$PUCSNAME
  2

  9
$PUCSORG
 10
0.0
 20
0.0
 30
0.0
  9
$PUCSXDIR
 10
1.0
 20
0.0
 30
0.0
  9
$PUCSYDIR
 10
0.0
 20
1.0
 30
0.0
  9
$PUCSORTHOREF
  2

  9
$PUCSORTHOVIEW
 70
     0
  9
$PUCSORGTOP
 10
0.0
 20
0.0
 30
0.0
  9
$PUCSORGBOTTOM
 10
0.0
 20
0.0
 30
0.0
  9
$PUCSORGLEFT
 10
0.0
 20
0.0
 30
0.0
  9
$PUCSORGRIGHT
 10
0.0
 20
0.0
 30
0.0
  9
$PUCSORGFRONT
 10
0.0
 20
0.0
 30
0.0
  9
$PUCSORGBACK
 10
0.0
 20
0.0
 30
0.0
  9
$USERI1
 70
     0
  9
$USERI2
 70
     0
  9
$USERI3
 70
     0
  9
$USERI4
 70
     0
  9
$USERI5
 70
     0
  9
$USERR1
 40
0.0
  9
$USERR2
 40
0.0
  9
$USERR3
 40
0.0
  9
$USERR4
 40
0.0
  9
$USERR5
 40
0.0
  9
$WORLDVIEW
 70
     1
  9
$SHADEDGE
 70
     3
  9
$SHADEDIF
 70
    70
  9
$TILEMODE
 70
     0
  9
$MAXACTVP
 70
    48
  9
$PINSBASE
 10
0.0
 20
0.0
 30
0.0
  9
$PLIMCHECK
 70
     0
  9
$PEXTMIN
 10
0.0226429257092988
 20
0.0040681204654334
 30
0.0
  9
$PEXTMAX
 10
10.55573210096327
 20
8.074637622092751
 30
0.0
  9
$PLIMMIN
 10
-0.2112501249538632
 20
-0.2112499935420479
  9
$PLIMMAX
 10
10.78874963475024
 20
8.288749766162061
  9
$UNITMODE
 70
     0
  9
$VISRETAIN
 70
     1
  9
$PLINEGEN
 70
     0
  9
$PSLTSCALE
 70
     1
  9
$TREEDEPTH
 70
  3020
  9
$CMLSTYLE
  2
Standard
  9
$CMLJUST
 70
     0
  9
$CMLSCALE
 40
1.0
  9
$PROXYGRAPHICS
 70
     1
  9
$MEASUREMENT
 70
     0
  9
$CELWEIGHT
370
    -1
  9
$ENDCAPS
280
     0
  9
$JOINSTYLE
280
     0
  9
$LWDISPLAY
290
     0
  9
$INSUNITS
 70
     1
  9
$HYPERLINKBASE
  1

  9
$STYLESHEET
  1

  9
$XEDIT
290
     1
  9
$CEPSNTYPE
380
     0
  9
$PSTYLEMODE
290
     1
  9
$FINGERPRINTGUID
  2
{FDEAD576-A652-11D2-9A35-0060089B3A3F}
  9
$VERSIONGUID
  2
{D8A8B957-BB4D-4F40-9656-75888A716136}
  9
$EXTNAMES
290
     1
  9
$PSVPSCALE
 40
0.0
  9
$OLESTARTUP
290
     0
  0
ENDSEC
  0
SECTION
  2
CLASSES
  0
CLASS
  1
ACDBDICTIONARYWDFLT
  2
AcDbDictionaryWithDefault
  3
AutoCAD 2000
 90
        0
280
     0
281
     0
  0
CLASS
  1
ACDBPLACEHOLDER
  2
AcDbPlaceHolder
  3
AutoCAD 2000
 90
        0
280
     0
281
     0
  0
CLASS
  1
LAYOUT
  2
AcDbLayout
  3
AutoCAD 2000
 90
        0
280
     0
281
     0
  0
CLASS
  1
DICTIONARYVAR
  2
AcDbDictionaryVar
  3
AutoCAD 2000
 90
        0
280
     0
281
     0
  0
CLASS
  1
LWPOLYLINE
  2
AcDbPolyline
  3
AutoCAD 2000
 90
    32768
280
     0
281
     1
  0
CLASS
  1
XRECORD
  2
AcDbXrecord
  3
AutoCAD 2000
 90
    32768
280
     0
281
     0
  0
CLASS
  1
TABLESTYLE
  2
AcDbTableStyle
  3
ObjectDBX Classes
 90
     2047
280
     0
281
     0
  0
CLASS
  1
SORTENTSTABLE
  2
AcDbSortentsTable
  3
AutoCAD 2000
 90
        0
280
     0
281
     0
  0
ENDSEC
  0
SECTION
  2
TABLES
  0
TABLE
  2
VPORT
  5
8
330
0
100
AcDbSymbolTable
 70
     1
  0
VPORT
  5
82DA
330
8
100
AcDbSymbolTableRecord
100
AcDbViewportTableRecord
  2
*Active
 70
     0
 10
0.0
 20
0.0
 11
1.0
 21
1.0
 12
-1008.866853304403
 22
964.0420310476681
 13
0.0
 23
0.0
 14
0.5
 24
0.5
 15
0.5
 25
0.5
 16
0.0
 26
0.0
 36
1.0
 17
-550.0843784145534
 27
684.7278046039871
 37
-217.0327285871065
 40
363.064536575545
 41
1.778301886792452
 42
50.0
 43
0.0
 44
0.0
 50
0.0
 51
0.0
 71
     0
 72
  1000
 73
     1
 74
     2
 75
     0
 76
     0
 77
     0
 78
     0
281
     2
 65
     1
110
-1636.12654385908
120
1719.785366981574
130
-360.9847947002422
111
1.0
121
0.0
131
0.0
112
0.0
122
1.0
132
0.0
 79
     1
146
0.0
  0
ENDTAB
  0
TABLE
  2
LTYPE
  5
5
330
0
100
AcDbSymbolTable
 70
     1
  0
LTYPE
  5
14
330
5
100
AcDbSymbolTableRecord
100
AcDbLinetypeTableRecord
  2
ByBlock
 70
     0
  3

 72
    65
 73
     0
 40
0.0
  0
LTYPE
  5
15
330
5
100
AcDbSymbolTableRecord
100
AcDbLinetypeTableRecord
  2
ByLayer
 70
     0
  3

 72
    65
 73
     0
 40
0.0
  0
LTYPE
  5
16
330
5
100
AcDbSymbolTableRecord
100
AcDbLinetypeTableRecord
  2
Continuous
 70
     0
  3
Solid line
 72
    65
 73
     0
 40
0.0
  0
ENDTAB
  0
TABLE
  2
LAYER
  5
2
102
{ACAD_XDICTIONARY
360
39AB
102
}
330
0
100
AcDbSymbolTable
 70
     8
  0
LAYER
  5
10
330
2
100
AcDbSymbolTableRecord
100
AcDbLayerTableRecord
  2
0
 70
     0
 62
     7
  6
Continuous
370
    -3
390
F
  0
LAYER
  5
98E
330
2
100
AcDbSymbolTableRecord
100
AcDbLayerTableRecord
  2
AREA1
 70
     0
 62
     7
  6
Continuous
370
    -3
390
F
  0
LAYER
  5
98F
330
2
100
AcDbSymbolTableRecord
100
AcDbLayerTableRecord
  2
AREA2
 70
     0
 62
     7
  6
Continuous
370
    -3
390
F
  0
LAYER
  5
990
330
2
100
AcDbSymbolTableRecord
100
AcDbLayerTableRecord
  2
DEFPOINTS
 70
     0
 62
     7
  6
Continuous
290
     0
370
    -3
390
F
  0
LAYER
  5
991
330
2
100
AcDbSymbolTableRecord
100
AcDbLayerTableRecord
  2
SCALE
 70
     0
 62
    -7
  6
Continuous
370
    -3
390
F
  0
LAYER
  5
992
330
2
100
AcDbSymbolTableRecord
100
AcDbLayerTableRecord
  2
SNAP_POINTS
 70
     0
 62
    -1
  6
Continuous
370
    -3
390
F
  0
LAYER
  5
993
330
2
100
AcDbSymbolTableRecord
100
AcDbLayerTableRecord
  2
ATTRIBUTES
 70
     0
 62
    -7
  6
Continuous
370
    -3
390
F
  0
LAYER
  5
1722
330
2
100
AcDbSymbolTableRecord
100
AcDbLayerTableRecord
  2
DIMS-MTG-HOLES
 70
     0
 62
    -1
  6
Continuous
370
    -3
390
F
  0
ENDTAB
  0
TABLE
  2
STYLE
  5
3
330
0
100
AcDbSymbolTable
 70
     1
  0
STYLE
  5
11
330
3
100
AcDbSymbolTableRecord
100
AcDbTextStyleTableRecord
  2
Standard
 70
     0
 40
0.0
 41
1.0
 50
0.0
 71
     0
 42
0.2
  3
txt
  4

  0
ENDTAB
  0
TABLE
  2
VIEW
  5
6
330
0
100
AcDbSymbolTable
 70
     0
  0
ENDTAB
  0
TABLE
  2
UCS
  5
7
330
0
100
AcDbSymbolTable
 70
     0
  0
ENDTAB
  0
TABLE
  2
APPID
  5
9
330
0
100
AcDbSymbolTable
 70
     2
  0
APPID
  5
12
330
9
100
AcDbSymbolTableRecord
100
AcDbRegAppTableRecord
  2
ACAD
 70
     0
  0
APPID
  5
3B9D
330
9
100
AcDbSymbolTableRecord
100
AcDbRegAppTableRecord
  2
ACAD_PSEXT
 70
     0
  0
ENDTAB
  0
TABLE
  2
DIMSTYLE
  5
A
330
0
100
AcDbSymbolTable
 70
     2
100
AcDbDimStyleTable
 71
     1
340
27
  0
DIMSTYLE
105
27
330
A
100
AcDbSymbolTableRecord
100
AcDbDimStyleTableRecord
  2
Standard
 70
     0
340
11
  0
DIMSTYLE
105
995
102
{ACAD_REACTORS
330
8271
330
8272
330
8273
102
}
330
A
100
AcDbSymbolTableRecord
100
AcDbDimStyleTableRecord
  2
ABECAD_3D
 70
     0
 41
4.572
 42
1.587499999999999
 43
9.525
 44
2.0
 73
     0
 78
     4
140
4.572
141
2.286
143
0.03937
146
1.5
147
2.286
170
     1
171
     6
271
     2
272
     2
273
     7
274
     6
276
     2
279
     2
284
     4
285
     4
286
     4
289
     2
340
11
  0
ENDTAB
  0
TABLE
  2
BLOCK_RECORD
  5
1
330
0
100
AcDbSymbolTable
 70
     3
  0
BLOCK_RECORD
  5
1F
102
{ACAD_XDICTIONARY
360
3379
102
}
330
1
100
AcDbSymbolTableRecord
100
AcDbBlockTableRecord
  2
*Model_Space
340
22
  0
BLOCK_RECORD
  5
89
102
{ACAD_XDICTIONARY
360
337B
102
}
330
1
100
AcDbSymbolTableRecord
100
AcDbBlockTableRecord
  2
*Paper_Space
340
8A
  0
BLOCK_RECORD
  5
8274
330
1
100
AcDbSymbolTableRecord
100
AcDbBlockTableRecord
  2
*D0
340
0
  0
BLOCK_RECORD
  5
8281
330
1
100
AcDbSymbolTableRecord
100
AcDbBlockTableRecord
  2
*D1
340
0
  0
BLOCK_RECORD
  5
828E
330
1
100
AcDbSymbolTableRecord
100
AcDbBlockTableRecord
  2
*D2
340
0
  0
ENDTAB
  0
ENDSEC
  0
SECTION
  2
BLOCKS
  0
BLOCK
  5
20
330
1F
100
AcDbEntity
  8
0
100
AcDbBlockBegin
  2
*Model_Space
 70
     0
 10
0.0
 20
0.0
 30
0.0
  3
*Model_Space
  1

  0
ENDBLK
  5
21
330
1F
100
AcDbEntity
  8
0
100
AcDbBlockEnd
  0
BLOCK
  5
8B
330
89
100
AcDbEntity
 67
     1
  8
0
100
AcDbBlockBegin
  2
*Paper_Space
 70
     0
 10
0.0
 20
0.0
 30
0.0
  3
*Paper_Space
  1

  0
ENDBLK
  5
8C
330
89
100
AcDbEntity
 67
     1
  8
0
100
AcDbBlockEnd
  0
BLOCK
  5
827F
330
8274
100
AcDbEntity
  8
0
100
AcDbBlockBegin
  2
*D0
 70
     1
 10
0.0
 20
0.0
 30
0.0
  3
*D0
  1

  0
LINE
  5
829B
330
8274
100
AcDbEntity
  8
AREA1
 62
     0
370
    -2
100
AcDbLine
 10
-1451.48124385908
 20
1726.389366981574
 30
0.0
 11
-1384.416295188922
 21
1726.389366981574
 31
0.0
  0
LINE
  5
829C
330
8274
100
AcDbEntity
  8
AREA1
 62
     0
370
    -2
100
AcDbLine
 10
-1454.02124385908
 20
1555.447366981574
 30
0.0
 11
-1384.416295188922
 21
1555.447366981574
 31
0.0
  0
LINE
  5
829D
330
8274
100
AcDbEntity
  8
AREA1
 62
     0
370
    -2
100
AcDbLine
 10
-1386.416295188922
 20
1718.889366981574
 30
0.0
 11
-1386.416295188922
 21
1695.079366981574
 31
0.0
  0
LINE
  5
829E
330
8274
100
AcDbEntity
  8
AREA1
 62
     0
370
    -2
100
AcDbLine
 10
-1386.416295188922
 20
1562.947366981574
 30
0.0
 11
-1386.416295188922
 21
1586.757366981574
 31
0.0
  0
SOLID
  5
829F
330
8274
100
AcDbEntity
  8
AREA1
 62
     0
100
AcDbTrace
 10
-1387.666295188922
 20
1718.889366981574
 30
0.0
 11
-1385.166295188922
 21
1718.889366981574
 31
0.0
 12
-1386.416295188922
 22
1726.389366981574
 32
0.0
 13
-1386.416295188922
 23
1726.389366981574
 33
0.0
  0
SOLID
  5
82A0
330
8274
100
AcDbEntity
  8
AREA1
 62
     0
100
AcDbTrace
 10
-1387.666295188922
 20
1562.947366981574
 30
0.0
 11
-1385.166295188922
 21
1562.947366981574
 31
0.0
 12
-1386.416295188922
 22
1555.447366981574
 32
0.0
 13
-1386.416295188922
 23
1555.447366981574
 33
0.0
  0
MTEXT
  5
82A1
330
8274
100
AcDbEntity
  8
AREA1
 62
     0
100
AcDbMText
 10
-1386.416295188922
 20
1640.918366981574
 30
0.0
 40
7.5
 41
0.0
 71
     5
 72
     1
  1
\A1;170.94 [6 47/64]
 11
0.0000000000000001
 21
1.0
 31
0.0
 73
     1
 44
1.0
  0
POINT
  5
82A2
330
8274
100
AcDbEntity
  8
DEFPOINTS
 62
     0
100
AcDbPoint
 10
-1453.06874385908
 20
1726.389366981574
 30
0.0
  0
POINT
  5
82A3
330
8274
100
AcDbEntity
  8
DEFPOINTS
 62
     0
100
AcDbPoint
 10
-1455.60874385908
 20
1555.447366981574
 30
0.0
  0
POINT
  5
82A4
330
8274
100
AcDbEntity
  8
DEFPOINTS
 62
     0
100
AcDbPoint
 10
-1386.416295188922
 20
1555.447366981574
 30
0.0
  0
ENDBLK
  5
8280
330
8274
100
AcDbEntity
  8
0
100
AcDbBlockEnd
  0
BLOCK
  5
828C
330
8281
100
AcDbEntity
  8
0
100
AcDbBlockBegin
  2
*D1
 70
     1
 10
0.0
 20
0.0
 30
0.0
  3
*D1
  1

  0
LINE
  5
82A5
330
8281
100
AcDbEntity
  8
AREA1
 62
     0
370
    -2
100
AcDbLine
 10
-1701.40454385908
 20
1710.958866981574
 30
0.0
 11
-1701.40454385908
 21
1753.162974618593
 31
0.0
  0
LINE
  5
82A6
330
8281
100
AcDbEntity
  8
AREA1
 62
     0
370
    -2
100
AcDbLine
 10
-1416.16254385908
 20
1700.798866981574
 30
0.0
 11
-1416.16254385908
 21
1753.162974618593
 31
0.0
  0
LINE
  5
82A7
330
8281
100
AcDbEntity
  8
AREA1
 62
     0
370
    -2
100
AcDbLine
 10
-1693.90454385908
 20
1751.162974618593
 30
0.0
 11
-1614.81954385908
 21
1751.162974618593
 31
0.0
  0
LINE
  5
82A8
330
8281
100
AcDbEntity
  8
AREA1
 62
     0
370
    -2
100
AcDbLine
 10
-1423.66254385908
 20
1751.162974618593
 30
0.0
 11
-1502.74754385908
 21
1751.162974618593
 31
0.0
  0
SOLID
  5
82A9
330
8281
100
AcDbEntity
  8
AREA1
 62
     0
100
AcDbTrace
 10
-1693.90454385908
 20
1752.412974618593
 30
0.0
 11
-1693.90454385908
 21
1749.912974618593
 31
0.0
 12
-1701.40454385908
 22
1751.162974618593
 32
0.0
 13
-1701.40454385908
 23
1751.162974618593
 33
0.0
  0
SOLID
  5
82AA
330
8281
100
AcDbEntity
  8
AREA1
 62
     0
100
AcDbTrace
 10
-1423.66254385908
 20
1752.412974618593
 30
0.0
 11
-1423.66254385908
 21
1749.912974618593
 31
0.0
 12
-1416.16254385908
 22
1751.162974618593
 32
0.0
 13
-1416.16254385908
 23
1751.162974618593
 33
0.0
  0
MTEXT
  5
82AB
330
8281
100
AcDbEntity
  8
AREA1
 62
     0
100
AcDbMText
 10
-1558.78354385908
 20
1751.162974618593
 30
0.0
 40
7.5
 41
0.0
 71
     5
 72
     1
  1
\A1;285.24 [11 15/64]
 73
     1
 44
1.0
  0
POINT
  5
82AC
330
8281
100
AcDbEntity
  8
DEFPOINTS
 62
     0
100
AcDbPoint
 10
-1701.40454385908
 20
1709.371366981574
 30
0.0
  0
POINT
  5
82AD
330
8281
100
AcDbEntity
  8
DEFPOINTS
 62
     0
100
AcDbPoint
 10
-1416.16254385908
 20
1699.211366981574
 30
0.0
  0
POINT
  5
82AE
330
8281
100
AcDbEntity
  8
DEFPOINTS
 62
     0
100
AcDbPoint
 10
-1416.16254385908
 20
1751.162974618593
 30
0.0
  0
ENDBLK
  5
828D
330
8281
100
AcDbEntity
  8
0
100
AcDbBlockEnd
  0
BLOCK
  5
8299
330
828E
100
AcDbEntity
  8
0
100
AcDbBlockBegin
  2
*D2
 70
     1
 10
0.0
 20
0.0
 30
0.0
  3
*D2
  1

  0
LINE
  5
82AF
330
828E
100
AcDbEntity
  8
AREA2
 62
     0
370
    -2
100
AcDbLine
 10
-1414.57504385908
 20
-215.9507947002422
 30
0.0
 11
-1404.004449377858
 21
-215.9507947002422
 31
0.0
  0
LINE
  5
82B0
330
828E
100
AcDbEntity
  8
AREA2
 62
     0
370
    -2
100
AcDbLine
 10
-1454.02124385908
 20
-360.9847947002422
 30
0.0
 11
-1404.004449377858
 21
-360.9847947002423
 31
0.0
  0
LINE
  5
82B1
330
828E
100
AcDbEntity
  8
AREA2
 62
     0
370
    -2
100
AcDbLine
 10
-1406.004449377857
 20
-223.4507947002422
 30
0.0
 11
-1406.004449377857
 21
-234.963620494169
 31
0.0
  0
LINE
  5
82B2
330
828E
100
AcDbEntity
  8
AREA2
 62
     0
370
    -2
100
AcDbLine
 10
-1406.004449377857
 20
-353.4847947002423
 30
0.0
 11
-1406.004449377857
 21
-343.285620494169
 31
0.0
  0
MTEXT
  5
82B3
330
828E
100
AcDbEntity
  8
AREA2
 62
     0
100
AcDbMText
 10
-1406.004449377857
 20
-289.1246204941692
 30
0.0
 40
7.5
 41
0.0
 71
     5
 72
     1
  1
\A1;145.03 [5 45/64]
 11
0.0000000000000001
 21
1.0
 31
0.0
 73
     1
 44
1.0
  0
SOLID
  5
82B4
330
828E
100
AcDbEntity
  8
AREA2
 62
     0
100
AcDbTrace
 10
-1407.254449377857
 20
-223.4507947002422
 30
0.0
 11
-1404.754449377857
 21
-223.4507947002422
 31
0.0
 12
-1406.004449377857
 22
-215.9507947002422
 32
0.0
 13
-1406.004449377857
 23
-215.9507947002422
 33
0.0
  0
SOLID
  5
82B5
330
828E
100
AcDbEntity
  8
AREA2
 62
     0
100
AcDbTrace
 10
-1407.254449377857
 20
-353.4847947002423
 30
0.0
 11
-1404.754449377857
 21
-353.4847947002423
 31
0.0
 12
-1406.004449377857
 22
-360.9847947002423
 32
0.0
 13
-1406.004449377857
 23
-360.9847947002423
 33
0.0
  0
POINT
  5
82B6
330
828E
100
AcDbEntity
  8
DEFPOINTS
 62
     0
100
AcDbPoint
 10
-1416.16254385908
 20
-215.9507947002422
 30
146.8120000000001
  0
POINT
  5
82B7
330
828E
100
AcDbEntity
  8
DEFPOINTS
 62
     0
100
AcDbPoint
 10
-1455.60874385908
 20
-360.9847947002422
 30
156.9719999999999
  0
POINT
  5
82B8
330
828E
100
AcDbEntity
  8
DEFPOINTS
 62
     0
100
AcDbPoint
 10
-1406.004449377857
 20
-360.9847947002423
 30
0.0
  0
ENDBLK
  5
829A
330
828E
100
AcDbEntity
  8
0
100
AcDbBlockEnd
  0
ENDSEC
  0
SECTION
  2
ENTITIES
  0
LINE
  5
7CE2
330
1F
100
AcDbEntity
  8
SCALE
100
AcDbLine
 10
-1750.19609389979
 20
1676.942093241107
 30
-360.9847947002422
 11
-1724.79609389979
 21
1676.942093241107
 31
-360.9847947002422
  0
LINE
  5
7CE3
330
1F
100
AcDbEntity
  8
SCALE
100
AcDbLine
 10
-1724.79609389979
 20
1674.402093241107
 30
-360.9847947002422
 11
-1724.79609389979
 21
1679.482093241107
 31
-360.9847947002422
  0
LINE
  5
7CE4
330
1F
100
AcDbEntity
  8
SCALE
100
AcDbLine
 10
-1750.19609389979
 20
1674.402093241107
 30
-360.9847947002422
 11
-1750.19609389979
 21
1679.482093241107
 31
-360.9847947002422
  0
LINE
  5
7CE5
330
1F
100
AcDbEntity
  8
SCALE
100
AcDbLine
 10
-1750.19609389979
 20
1682.128516978401
 30
-360.9847947002422
 11
-1750.19609389979
 21
1687.2085169784
 31
-360.9847947002422
  0
LINE
  5
7CE6
330
1F
100
AcDbEntity
  8
SCALE
100
AcDbLine
 10
-1740.19611389979
 20
1682.128516978401
 30
-360.9847947002422
 11
-1740.19611389979
 21
1687.2085169784
 31
-360.9847947002422
  0
LINE
  5
7CE7
330
1F
100
AcDbEntity
  8
SCALE
100
AcDbLine
 10
-1750.19609389979
 20
1684.6685169784
 30
-360.9847947002422
 11
-1740.19611389979
 21
1684.6685169784
 31
-360.9847947002422
  0
TEXT
  5
7CE8
330
1F
100
AcDbEntity
  8
SCALE
100
AcDbText
 10
-1748.686771159016
 20
1685.830303968363
 30
-360.9847947002422
 40
1.587499999999999
  1
10 mm
100
AcDbText
  0
TEXT
  5
7CE9
330
1F
100
AcDbEntity
  8
SCALE
100
AcDbText
 10
-1742.598201166702
 20
1678.695930103587
 30
-360.9847947002422
 40
1.587499999999999
  1
[1 Inch]
100
AcDbText
  0
TEXT
  5
7CEA
330
1F
100
AcDbEntity
  8
SCALE
100
AcDbText
 10
-1750.390009819661
 20
1690.202054593252
 30
-360.9847947002422
 40
1.587499999999999
  1
SCALE:
100
AcDbText
  0
ATTDEF
  5
7CEC
330
1F
100
AcDbEntity
  8
ATTRIBUTES
 62
     0
100
AcDbText
 10
-1673.410623852687
 20
1618.249287277137
 30
-360.941552856788
 40
1.099112283096765
  1
0
100
AcDbAttributeDefinition
  3
VIEW CODE?
  2
AC_VIEW_CODE
 70
     1
  0
ATTDEF
  5
7CED
330
1F
100
AcDbEntity
  8
ATTRIBUTES
 62
     0
100
AcDbText
 10
-1673.410623852687
 20
1620.539104533589
 30
-360.941552856788
 40
1.099112283096765
  1
INCH
100
AcDbAttributeDefinition
  3
UNIT OF SCALE?
  2
AC_SCALE_UNIT
 70
     1
  0
ATTDEF
  5
7CEE
330
1F
100
AcDbEntity
  8
ATTRIBUTES
 62
     0
100
AcDbText
 10
-1673.410623852687
 20
1622.82892179004
 30
-360.9403705598388
 40
1.099112283096765
  1

100
AcDbAttributeDefinition
  3
FASTENER DATA?
  2
FASTENER
 70
     1
  0
ATTDEF
  5
7CEF
330
1F
100
AcDbEntity
  8
ATTRIBUTES
 62
     0
100
AcDbText
 10
-1673.410623852687
 20
1625.118739046492
 30
-360.9403705598388
 40
1.099112283096765
  1

100
AcDbAttributeDefinition
  3
CUSTOMER NOTE?
  2
AC_NOTE
 70
     1
  0
ATTDEF
  5
7CF0
330
1F
100
AcDbEntity
  8
ATTRIBUTES
 62
     0
100
AcDbText
 10
-1673.410623852687
 20
1627.408556302943
 30
-360.941552856788
 40
1.099112283096765
  1

100
AcDbAttributeDefinition
  3
CUSTOMER PART NUMBER?
  2
AC_CPART_NO
 70
     1
  0
ATTDEF
  5
7CF1
330
1F
100
AcDbEntity
  8
ATTRIBUTES
 62
     0
100
AcDbText
 10
-1673.410623852687
 20
1629.698373559395
 30
-360.9403705598388
 40
1.099112283096765
  1

100
AcDbAttributeDefinition
  3
DEVICE ID?
  2
DEVICE_ID
 70
     1
  0
ATTDEF
  5
7CF2
330
1F
100
AcDbEntity
  8
ATTRIBUTES
 62
     0
100
AcDbText
 10
-1673.410623852687
 20
1631.988190815846
 30
-360.941552856788
 40
1.099112283096765
  1
ControlLogix 7 Slot Chassis
100
AcDbAttributeDefinition
  3
PART DESCRIPTION?
  2
AC_DESCRIPTION
 70
     1
  0
ATTDEF
  5
7CF3
330
1F
100
AcDbEntity
  8
ATTRIBUTES
 62
     0
100
AcDbText
 10
-1673.410623852687
 20
1634.278008072298
 30
-360.941552856788
 40
1.099112283096765
  1
1756-A7
100
AcDbAttributeDefinition
  3
CATALOG NUMBER?
  2
AC_PART_NO
 70
     1
  0
ATTDEF
  5
7CF4
330
1F
100
AcDbEntity
  8
ATTRIBUTES
 62
     0
100
AcDbText
 10
-1673.410623852687
 20
1636.56782532875
 30
-360.941552856788
 40
1.099112283096765
  1
ALLEN-BRADLEY
100
AcDbAttributeDefinition
  3
MANUFACTURER NAME?
  2
AC_VND_LABEL
 70
     1
  0
POLYLINE
  5
7CF5
330
1F
100
AcDbEntity
  8
0
100
AcDbPolygonMesh
 66
     1
 10
0.0
 20
0.0
 30
0.0
 70
    16
 71
     6
 72
     3
  0
VERTEX
  5
7CF6
330
7CF5
100
AcDbEntity
  8
0
100
AcDbVertex
100
AcDbPolygonMeshVertex
 10
-1426.32254385908
 20
1570.440769235154
 30
-359.9687677353648
 70
    64
  0
VERTEX
  5
7CF7
330
7CF5
100
AcDbEntity
  8
0
100
AcDbVertex
100
AcDbPolygonMeshVertex
 10
-1426.32254385908
 20
1570.440769235154
 30
-360.9847947002422
 70
    64
  0
VERTEX
  5
7CF8
330
7CF5
100
AcDbEntity
  8
0
100
AcDbVertex
100
AcDbPolygonMeshVertex
 10
-1426.32254385908
 20
1570.440769235154
 30
-360.9847947002422
 70
    64
  0
VERTEX
  5
7CF9
330
7CF5
100
AcDbEntity
  8
0
100
AcDbVertex
100
AcDbPolygonMeshVertex
 10
-1701.40454385908
 20
1570.440769235154
 30
-359.9687677353648
 70
    64
  0
VERTEX
  5
7CFA
330
7CF5
100
AcDbEntity
  8
0
100
AcDbVertex
100
AcDbPolygonMeshVertex
 10
-1701.40454385908
 20
1570.440769235154
 30
-360.9847947002422
 70
    64
  0
VERTEX
  5
7CFB
330
7CF5
100
AcDbEntity
  8
0
100
AcDbVertex
100
AcDbPolygonMeshVertex
 10
-1701.40454385908
 20
1570.440769235154
 30
-360.9847947002422
 70
    64
  0
VERTEX
  5
7CFC
330
7CF5
100
AcDbEntity
  8
0
100
AcDbVertex
100
AcDbPolygonMeshVertex
 10
-1701.40454385908
 20
1708.355366981574
 30
-359.9687677353648
 70
    64
  0
VERTEX
  5
7CFD
330
7CF5
100
AcDbEntity
  8
0
100
AcDbVertex
100
AcDbPolygonMeshVertex
 10
-1701.40454385908
 20
1708.355366981574
 30
-360.9847947002422
 70
    64
  0
VERTEX
  5
7CFE
330
7CF5
100
AcDbEntity
  8
0
100
AcDbVertex
100
AcDbPolygonMeshVertex
 10
-1701.40454385908
 20
1570.440769235154
 30
-360.9847947002422
 70
    64
  0
VERTEX
  5
7CFF
330
7CF5
100
AcDbEntity
  8
0
100
AcDbVertex
100
AcDbPolygonMeshVertex
 10
-1426.32254385908
 20
1708.355366981574
 30
-359.9687677353648
 70
    64
  0
VERTEX
  5
7D00
330
7CF5
100
AcDbEntity
  8
0
100
AcDbVertex
100
AcDbPolygonMeshVertex
 10
-1426.32254385908
 20
1708.355366981574
 30
-360.9847947002422
 70
    64
  0
VERTEX
  5
7D01
330
7CF5
100
AcDbEntity
  8
0
100
AcDbVertex
100
AcDbPolygonMeshVertex
 10
-1426.32254385908
 20
1570.440769235154
 30
-360.9847947002422
 70
    64
  0
VERTEX
  5
7D02
330
7CF5
100
AcDbEntity
  8
0
100
AcDbVertex
100
AcDbPolygonMeshVertex
 10
-1426.32254385908
 20
1708.355366981574
 30
-359.9687677353648
 70
    64
  0
VERTEX
  5
7D03
330
7CF5
100
AcDbEntity
  8
0
100
AcDbVertex
100
AcDbPolygonMeshVertex
 10
-1426.32254385908
 20
1708.355366981574
 30
-359.9687677353648
 70
    64
  0
VERTEX
  5
7D04
330
7CF5
100
AcDbEntity
  8
0
100
AcDbVertex
100
AcDbPolygonMeshVertex
 10
-1426.32254385908
 20
1570.440769235154
 30
-359.9687677353648
 70
    64
  0
VERTEX
  5
7D05
330
7CF5
100
AcDbEntity
  8
0
100
AcDbVertex
100
AcDbPolygonMeshVertex
 10
-1701.40454385908
 20
1708.355366981574
 30
-359.9687677353648
 70
    64
  0
VERTEX
  5
7D06
330
7CF5
100
AcDbEntity
  8
0
100
AcDbVertex
100
AcDbPolygonMeshVertex
 10
-1701.40454385908
 20
1708.355366981574
 30
-359.9687677353648
 70
    64
  0
VERTEX
  5
7D07
330
7CF5
100
AcDbEntity
  8
0
100
AcDbVertex
100
AcDbPolygonMeshVertex
 10
-1701.40454385908
 20
1570.440769235154
 30
-359.9687677353648
 70
    64
  0
SEQEND
  5
7D08
330
7CF5
100
AcDbEntity
  8
0
  0
POLYLINE
  5
7D09
330
1F
100
AcDbEntity
  8
0
100
AcDbPolygonMesh
 66
     1
 10
0.0
 20
0.0
 30
0.0
 70
    16
 71
     6
 72
     3
  0
VERTEX
  5
7D0A
330
7D09
100
AcDbEntity
  8
0
100
AcDbVertex
100
AcDbPolygonMeshVertex
 10
-1426.32254385908
 20
1709.371366981574
 30
-263.1947947002422
 70
    64
  0
VERTEX
  5
7D0B
330
7D09
100
AcDbEntity
  8
0
100
AcDbVertex
100
AcDbPolygonMeshVertex
 10
-1426.32254385908
 20
1709.371366981574
 30
-360.9847947002422
 70
    64
  0
VERTEX
  5
7D0C
330
7D09
100
AcDbEntity
  8
0
100
AcDbVertex
100
AcDbPolygonMeshVertex
 10
-1426.32254385908
 20
1709.371366981574
 30
-360.9847947002422
 70
    64
  0
VERTEX
  5
7D0D
330
7D09
100
AcDbEntity
  8
0
100
AcDbVertex
100
AcDbPolygonMeshVertex
 10
-1701.40454385908
 20
1709.371366981574
 30
-263.1947947002422
 70
    64
  0
VERTEX
  5
7D0E
330
7D09
100
AcDbEntity
  8
0
100
AcDbVertex
100
AcDbPolygonMeshVertex
 10
-1701.40454385908
 20
1709.371366981574
 30
-360.9847947002422
 70
    64
  0
VERTEX
  5
7D0F
330
7D09
100
AcDbEntity
  8
0
100
AcDbVertex
100
AcDbPolygonMeshVertex
 10
-1701.40454385908
 20
1709.371366981574
 30
-360.9847947002422
 70
    64
  0
VERTEX
  5
7D10
330
7D09
100
AcDbEntity
  8
0
100
AcDbVertex
100
AcDbPolygonMeshVertex
 10
-1701.40454385908
 20
1708.347964727994
 30
-263.1947947002422
 70
    64
  0
VERTEX
  5
7D11
330
7D09
100
AcDbEntity
  8
0
100
AcDbVertex
100
AcDbPolygonMeshVertex
 10
-1701.40454385908
 20
1708.347964727994
 30
-360.9847947002422
 70
    64
  0
VERTEX
  5
7D12
330
7D09
100
AcDbEntity
  8
0
100
AcDbVertex
100
AcDbPolygonMeshVertex
 10
-1701.40454385908
 20
1709.371366981574
 30
-360.9847947002422
 70
    64
  0
VERTEX
  5
7D13
330
7D09
100
AcDbEntity
  8
0
100
AcDbVertex
100
AcDbPolygonMeshVertex
 10
-1426.32254385908
 20
1708.347964727994
 30
-263.1947947002422
 70
    64
  0
VERTEX
  5
7D14
330
7D09
100
AcDbEntity
  8
0
100
AcDbVertex
100
AcDbPolygonMeshVertex
 10
-1426.32254385908
 20
1708.347964727994
 30
-360.9847947002422
 70
    64
  0
VERTEX
  5
7D15
330
7D09
100
AcDbEntity
  8
0
100
AcDbVertex
100
AcDbPolygonMeshVertex
 10
-1426.32254385908
 20
1709.371366981574
 30
-360.9847947002422
 70
    64
  0
VERTEX
  5
7D16
330
7D09
100
AcDbEntity
  8
0
100
AcDbVertex
100
AcDbPolygonMeshVertex
 10
-1426.32254385908
 20
1708.347964727994
 30
-263.1947947002422
 70
    64
  0
VERTEX
  5
7D17
330
7D09
100
AcDbEntity
  8
0
100
AcDbVertex
100
AcDbPolygonMeshVertex
 10
-1426.32254385908
 20
1708.347964727994
 30
-263.1947947002422
 70
    64
  0
VERTEX
  5
7D18
330
7D09
100
AcDbEntity
  8
0
100
AcDbVertex
100
AcDbPolygonMeshVertex
 10
-1426.32254385908
 20
1709.371366981574
 30
-263.1947947002422
 70
    64
  0
VERTEX
  5
7D19
330
7D09
100
AcDbEntity
  8
0
100
AcDbVertex
100
AcDbPolygonMeshVertex
 10
-1701.40454385908
 20
1708.347964727994
 30
-263.1947947002422
 70
    64
  0
VERTEX
  5
7D1A
330
7D09
100
AcDbEntity
  8
0
100
AcDbVertex
100
AcDbPolygonMeshVertex
 10
-1701.40454385908
 20
1708.347964727994
 30
-263.1947947002422
 70
    64
  0
VERTEX
  5
7D1B
330
7D09
100
AcDbEntity
  8
0
100
AcDbVertex
100
AcDbPolygonMeshVertex
 10
-1701.40454385908
 20
1709.371366981574
 30
-263.1947947002422
 70
    64
  0
SEQEND
  5
7D1C
330
7D09
100
AcDbEntity
  8
0
  0
POLYLINE
  5
7D1D
330
1F
100
AcDbEntity
  8
0
100
AcDbPolygonMesh
 66
     1
 10
0.0
 20
0.0
 30
0.0
 70
    16
 71
     6
 72
     3
  0
VERTEX
  5
7D1E
330
7D1D
100
AcDbEntity
  8
0
100
AcDbVertex
100
AcDbPolygonMeshVertex
 10
-1426.32254385908
 20
1569.417366981574
 30
-263.1947947002422
 70
    64
  0
VERTEX
  5
7D1F
330
7D1D
100
AcDbEntity
  8
0
100
AcDbVertex
100
AcDbPolygonMeshVertex
 10
-1426.32254385908
 20
1569.417366981574
 30
-360.9847947002422
 70
    64
  0
VERTEX
  5
7D20
330
7D1D
100
AcDbEntity
  8
0
100
AcDbVertex
100
AcDbPolygonMeshVertex
 10
-1426.32254385908
 20
1569.417366981574
 30
-360.9847947002422
 70
    64
  0
VERTEX
  5
7D21
330
7D1D
100
AcDbEntity
  8
0
100
AcDbVertex
100
AcDbPolygonMeshVertex
 10
-1701.40454385908
 20
1569.417366981574
 30
-263.1947947002422
 70
    64
  0
VERTEX
  5
7D22
330
7D1D
100
AcDbEntity
  8
0
100
AcDbVertex
100
AcDbPolygonMeshVertex
 10
-1701.40454385908
 20
1569.417366981574
 30
-360.9847947002422
 70
    64
  0
VERTEX
  5
7D23
330
7D1D
100
AcDbEntity
  8
0
100
AcDbVertex
100
AcDbPolygonMeshVertex
 10
-1701.40454385908
 20
1569.417366981574
 30
-360.9847947002422
 70
    64
  0
VERTEX
  5
7D24
330
7D1D
100
AcDbEntity
  8
0
100
AcDbVertex
100
AcDbPolygonMeshVertex
 10
-1701.40454385908
 20
1570.440769235154
 30
-263.1947947002422
 70
    64
  0
VERTEX
  5
7D25
330
7D1D
100
AcDbEntity
  8
0
100
AcDbVertex
100
AcDbPolygonMeshVertex
 10
-1701.40454385908
 20
1570.440769235154
 30
-360.9847947002422
 70
    64
  0
VERTEX
  5
7D26
330
7D1D
100
AcDbEntity
  8
0
100
AcDbVertex
100
AcDbPolygonMeshVertex
 10
-1701.40454385908
 20
1569.417366981574
 30
-360.9847947002422
 70
    64
  0
VERTEX
  5
7D27
330
7D1D
100
AcDbEntity
  8
0
100
AcDbVertex
100
AcDbPolygonMeshVertex
 10
-1426.32254385908
 20
1570.440769235154
 30
-263.1947947002422
 70
    64
  0
VERTEX
  5
7D28
330
7D1D
100
AcDbEntity
  8
0
100
AcDbVertex
100
AcDbPolygonMeshVertex
 10
-1426.32254385908
 20
1570.440769235154
 30
-360.9847947002422
 70
    64
  0
VERTEX
  5
7D29
330
7D1D
100
AcDbEntity
  8
0
100
AcDbVertex
100
AcDbPolygonMeshVertex
 10
-1426.32254385908
 20
1569.417366981574
 30
-360.9847947002422
 70
    64
  0
VERTEX
  5
7D2A
330
7D1D
100
AcDbEntity
  8
0
100
AcDbVertex
100
AcDbPolygonMeshVertex
 10
-1426.32254385908
 20
1570.440769235154
 30
-263.1947947002422
 70
    64
  0
VERTEX
  5
7D2B
330
7D1D
100
AcDbEntity
  8
0
100
AcDbVertex
100
AcDbPolygonMeshVertex
 10
-1426.32254385908
 20
1570.440769235154
 30
-263.1947947002422
 70
    64
  0
VERTEX
  5
7D2C
330
7D1D
100
AcDbEntity
  8
0
100
AcDbVertex
100
AcDbPolygonMeshVertex
 10
-1426.32254385908
 20
1569.417366981574
 30
-263.1947947002422
 70
    64
  0
VERTEX
  5
7D2D
330
7D1D
100
AcDbEntity
  8
0
100
AcDbVertex
100
AcDbPolygonMeshVertex
 10
-1701.40454385908
 20
1570.440769235154
 30
-263.1947947002422
 70
    64
  0
VERTEX
  5
7D2E
330
7D1D
100
AcDbEntity
  8
0
100
AcDbVertex
100
AcDbPolygonMeshVertex
 10
-1701.40454385908
 20
1570.440769235154
 30
-263.1947947002422
 70
    64
  0
VERTEX
  5
7D2F
330
7D1D
100
AcDbEntity
  8
0
100
AcDbVertex
100
AcDbPolygonMeshVertex
 10
-1701.40454385908
 20
1569.417366981574
 30
-263.1947947002422
 70
    64
  0
SEQEND
  5
7D30
330
7D1D
100
AcDbEntity
  8
0
  0
POLYLINE
  5
7D31
330
1F
100
AcDbEntity
  8
0
100
AcDbPolygonMesh
 66
     1
 10
0.0
 20
0.0
 30
0.0
 70
    16
 71
     6
 72
     3
  0
VERTEX
  5
7D32
330
7D31
100
AcDbEntity
  8
0
100
AcDbVertex
100
AcDbPolygonMeshVertex
 10
-1426.32254385908
 20
1709.371366981574
 30
-263.1947947002422
 70
    64
  0
VERTEX
  5
7D33
330
7D31
100
AcDbEntity
  8
0
100
AcDbVertex
100
AcDbPolygonMeshVertex
 10
-1426.32254385908
 20
1709.371366981574
 30
-360.9847947002422
 70
    64
  0
VERTEX
  5
7D34
330
7D31
100
AcDbEntity
  8
0
100
AcDbVertex
100
AcDbPolygonMeshVertex
 10
-1426.32254385908
 20
1709.371366981574
 30
-360.9847947002422
 70
    64
  0
VERTEX
  5
7D35
330
7D31
100
AcDbEntity
  8
0
100
AcDbVertex
100
AcDbPolygonMeshVertex
 10
-1596.50254385908
 20
1709.371366981574
 30
-263.1947947002422
 70
    64
  0
VERTEX
  5
7D36
330
7D31
100
AcDbEntity
  8
0
100
AcDbVertex
100
AcDbPolygonMeshVertex
 10
-1596.50254385908
 20
1709.371366981574
 30
-360.9847947002422
 70
    64
  0
VERTEX
  5
7D37
330
7D31
100
AcDbEntity
  8
0
100
AcDbVertex
100
AcDbPolygonMeshVertex
 10
-1596.50254385908
 20
1709.371366981574
 30
-360.9847947002422
 70
    64
  0
VERTEX
  5
7D38
330
7D31
100
AcDbEntity
  8
0
100
AcDbVertex
100
AcDbPolygonMeshVertex
 10
-1596.50254385908
 20
1708.347964727994
 30
-263.1947947002422
 70
    64
  0
VERTEX
  5
7D39
330
7D31
100
AcDbEntity
  8
0
100
AcDbVertex
100
AcDbPolygonMeshVertex
 10
-1596.50254385908
 20
1708.347964727994
 30
-360.9847947002422
 70
    64
  0
VERTEX
  5
7D3A
330
7D31
100
AcDbEntity
  8
0
100
AcDbVertex
100
AcDbPolygonMeshVertex
 10
-1596.50254385908
 20
1709.371366981574
 30
-360.9847947002422
 70
    64
  0
VERTEX
  5
7D3B
330
7D31
100
AcDbEntity
  8
0
100
AcDbVertex
100
AcDbPolygonMeshVertex
 10
-1426.32254385908
 20
1708.347964727994
 30
-263.1947947002422
 70
    64
  0
VERTEX
  5
7D3C
330
7D31
100
AcDbEntity
  8
0
100
AcDbVertex
100
AcDbPolygonMeshVertex
 10
-1426.32254385908
 20
1708.347964727994
 30
-360.9847947002422
 70
    64
  0
VERTEX
  5
7D3D
330
7D31
100
AcDbEntity
  8
0
100
AcDbVertex
100
AcDbPolygonMeshVertex
 10
-1426.32254385908
 20
1709.371366981574
 30
-360.9847947002422
 70
    64
  0
VERTEX
  5
7D3E
330
7D31
100
AcDbEntity
  8
0
100
AcDbVertex
100
AcDbPolygonMeshVertex
 10
-1426.32254385908
 20
1708.347964727994
 30
-263.1947947002422
 70
    64
  0
VERTEX
  5
7D3F
330
7D31
100
AcDbEntity
  8
0
100
AcDbVertex
100
AcDbPolygonMeshVertex
 10
-1426.32254385908
 20
1708.347964727994
 30
-263.1947947002422
 70
    64
  0
VERTEX
  5
7D40
330
7D31
100
AcDbEntity
  8
0
100
AcDbVertex
100
AcDbPolygonMeshVertex
 10
-1426.32254385908
 20
1709.371366981574
 30
-263.1947947002422
 70
    64
  0
VERTEX
  5
7D41
330
7D31
100
AcDbEntity
  8
0
100
AcDbVertex
100
AcDbPolygonMeshVertex
 10
-1596.50254385908
 20
1708.347964727994
 30
-263.1947947002422
 70
    64
  0
VERTEX
  5
7D42
330
7D31
100
AcDbEntity
  8
0
100
AcDbVertex
100
AcDbPolygonMeshVertex
 10
-1596.50254385908
 20
1708.347964727994
 30
-263.1947947002422
 70
    64
  0
VERTEX
  5
7D43
330
7D31
100
AcDbEntity
  8
0
100
AcDbVertex
100
AcDbPolygonMeshVertex
 10
-1596.50254385908
 20
1709.371366981574
 30
-263.1947947002422
 70
    64
  0
SEQEND
  5
7D44
330
7D31
100
AcDbEntity
  8
0
  0
POLYLINE
  5
7D45
330
1F
100
AcDbEntity
  8
0
100
AcDbPolygonMesh
 66
     1
 10
0.0
 20
0.0
 30
0.0
 70
    16
 71
     6
 72
     3
  0
VERTEX
  5
7D46
330
7D45
100
AcDbEntity
  8
0
100
AcDbVertex
100
AcDbPolygonMeshVertex
 10
-1644.17834385908
 20
1709.371366981574
 30
-359.9687947002423
 70
    64
  0
VERTEX
  5
7D47
330
7D45
100
AcDbEntity
  8
0
100
AcDbVertex
100
AcDbPolygonMeshVertex
 10
-1644.17834385908
 20
1709.371366981574
 30
-360.9847947002422
 70
    64
  0
VERTEX
  5
7D48
330
7D45
100
AcDbEntity
  8
0
100
AcDbVertex
100
AcDbPolygonMeshVertex
 10
-1644.17834385908
 20
1709.371366981574
 30
-360.9847947002422
 70
    64
  0
VERTEX
  5
7D49
330
7D45
100
AcDbEntity
  8
0
100
AcDbVertex
100
AcDbPolygonMeshVertex
 10
-1644.17834385908
 20
1726.389366981574
 30
-359.9687947002423
 70
    64
  0
VERTEX
  5
7D4A
330
7D45
100
AcDbEntity
  8
0
100
AcDbVertex
100
AcDbPolygonMeshVertex
 10
-1644.17834385908
 20
1726.389366981574
 30
-360.9847947002422
 70
    64
  0
VERTEX
  5
7D4B
330
7D45
100
AcDbEntity
  8
0
100
AcDbVertex
100
AcDbPolygonMeshVertex
 10
-1644.17834385908
 20
1726.389366981574
 30
-360.9847947002422
 70
    64
  0
VERTEX
  5
7D4C
330
7D45
100
AcDbEntity
  8
0
100
AcDbVertex
100
AcDbPolygonMeshVertex
 10
-1628.07474385908
 20
1726.389366981574
 30
-359.9687947002423
 70
    64
  0
VERTEX
  5
7D4D
330
7D45
100
AcDbEntity
  8
0
100
AcDbVertex
100
AcDbPolygonMeshVertex
 10
-1628.07474385908
 20
1726.389366981574
 30
-360.9847947002422
 70
    64
  0
VERTEX
  5
7D4E
330
7D45
100
AcDbEntity
  8
0
100
AcDbVertex
100
AcDbPolygonMeshVertex
 10
-1644.17834385908
 20
1726.389366981574
 30
-360.9847947002422
 70
    64
  0
VERTEX
  5
7D4F
330
7D45
100
AcDbEntity
  8
0
100
AcDbVertex
100
AcDbPolygonMeshVertex
 10
-1628.07474385908
 20
1709.371366981574
 30
-359.9687947002423
 70
    64
  0
VERTEX
  5
7D50
330
7D45
100
AcDbEntity
  8
0
100
AcDbVertex
100
AcDbPolygonMeshVertex
 10
-1628.07474385908
 20
1709.371366981574
 30
-360.9847947002422
 70
    64
  0
VERTEX
  5
7D51
330
7D45
100
AcDbEntity
  8
0
100
AcDbVertex
100
AcDbPolygonMeshVertex
 10
-1644.17834385908
 20
1709.371366981574
 30
-360.9847947002422
 70
    64
  0
VERTEX
  5
7D52
330
7D45
100
AcDbEntity
  8
0
100
AcDbVertex
100
AcDbPolygonMeshVertex
 10
-1628.07474385908
 20
1709.371366981574
 30
-359.9687947002423
 70
    64
  0
VERTEX
  5
7D53
330
7D45
100
AcDbEntity
  8
0
100
AcDbVertex
100
AcDbPolygonMeshVertex
 10
-1628.07474385908
 20
1709.371366981574
 30
-359.9687947002423
 70
    64
  0
VERTEX
  5
7D54
330
7D45
100
AcDbEntity
  8
0
100
AcDbVertex
100
AcDbPolygonMeshVertex
 10
-1644.17834385908
 20
1709.371366981574
 30
-359.9687947002423
 70
    64
  0
VERTEX
  5
7D55
330
7D45
100
AcDbEntity
  8
0
100
AcDbVertex
100
AcDbPolygonMeshVertex
 10
-1628.07474385908
 20
1726.389366981574
 30
-359.9687947002423
 70
    64
  0
VERTEX
  5
7D56
330
7D45
100
AcDbEntity
  8
0
100
AcDbVertex
100
AcDbPolygonMeshVertex
 10
-1628.07474385908
 20
1726.389366981574
 30
-359.9687947002423
 70
    64
  0
VERTEX
  5
7D57
330
7D45
100
AcDbEntity
  8
0
100
AcDbVertex
100
AcDbPolygonMeshVertex
 10
-1644.17834385908
 20
1726.389366981574
 30
-359.9687947002423
 70
    64
  0
SEQEND
  5
7D58
330
7D45
100
AcDbEntity
  8
0
  0
POLYLINE
  5
7D59
330
1F
100
AcDbEntity
  8
0
100
AcDbPolygonMesh
 66
     1
 10
0.0
 20
0.0
 30
0.0
 70
    16
 71
     6
 72
     3
  0
VERTEX
  5
7D5A
330
7D59
100
AcDbEntity
  8
0
100
AcDbVertex
100
AcDbPolygonMeshVertex
 10
-1531.22454385908
 20
1709.371366981574
 30
-263.1947947002422
 70
    64
  0
VERTEX
  5
7D5B
330
7D59
100
AcDbEntity
  8
0
100
AcDbVertex
100
AcDbPolygonMeshVertex
 10
-1531.22454385908
 20
1709.371366981574
 30
-360.9847947002422
 70
    64
  0
VERTEX
  5
7D5C
330
7D59
100
AcDbEntity
  8
0
100
AcDbVertex
100
AcDbPolygonMeshVertex
 10
-1531.22454385908
 20
1709.371366981574
 30
-360.9847947002422
 70
    64
  0
VERTEX
  5
7D5D
330
7D59
100
AcDbEntity
  8
0
100
AcDbVertex
100
AcDbPolygonMeshVertex
 10
-1701.40454385908
 20
1709.371366981574
 30
-263.1947947002422
 70
    64
  0
VERTEX
  5
7D5E
330
7D59
100
AcDbEntity
  8
0
100
AcDbVertex
100
AcDbPolygonMeshVertex
 10
-1701.40454385908
 20
1709.371366981574
 30
-360.9847947002422
 70
    64
  0
VERTEX
  5
7D5F
330
7D59
100
AcDbEntity
  8
0
100
AcDbVertex
100
AcDbPolygonMeshVertex
 10
-1701.40454385908
 20
1709.371366981574
 30
-360.9847947002422
 70
    64
  0
VERTEX
  5
7D60
330
7D59
100
AcDbEntity
  8
0
100
AcDbVertex
100
AcDbPolygonMeshVertex
 10
-1701.40454385908
 20
1708.347964727994
 30
-263.1947947002422
 70
    64
  0
VERTEX
  5
7D61
330
7D59
100
AcDbEntity
  8
0
100
AcDbVertex
100
AcDbPolygonMeshVertex
 10
-1701.40454385908
 20
1708.347964727994
 30
-360.9847947002422
 70
    64
  0
VERTEX
  5
7D62
330
7D59
100
AcDbEntity
  8
0
100
AcDbVertex
100
AcDbPolygonMeshVertex
 10
-1701.40454385908
 20
1709.371366981574
 30
-360.9847947002422
 70
    64
  0
VERTEX
  5
7D63
330
7D59
100
AcDbEntity
  8
0
100
AcDbVertex
100
AcDbPolygonMeshVertex
 10
-1531.22454385908
 20
1708.347964727994
 30
-263.1947947002422
 70
    64
  0
VERTEX
  5
7D64
330
7D59
100
AcDbEntity
  8
0
100
AcDbVertex
100
AcDbPolygonMeshVertex
 10
-1531.22454385908
 20
1708.347964727994
 30
-360.9847947002422
 70
    64
  0
VERTEX
  5
7D65
330
7D59
100
AcDbEntity
  8
0
100
AcDbVertex
100
AcDbPolygonMeshVertex
 10
-1531.22454385908
 20
1709.371366981574
 30
-360.9847947002422
 70
    64
  0
VERTEX
  5
7D66
330
7D59
100
AcDbEntity
  8
0
100
AcDbVertex
100
AcDbPolygonMeshVertex
 10
-1531.22454385908
 20
1708.347964727994
 30
-263.1947947002422
 70
    64
  0
VERTEX
  5
7D67
330
7D59
100
AcDbEntity
  8
0
100
AcDbVertex
100
AcDbPolygonMeshVertex
 10
-1531.22454385908
 20
1708.347964727994
 30
-263.1947947002422
 70
    64
  0
VERTEX
  5
7D68
330
7D59
100
AcDbEntity
  8
0
100
AcDbVertex
100
AcDbPolygonMeshVertex
 10
-1531.22454385908
 20
1709.371366981574
 30
-263.1947947002422
 70
    64
  0
VERTEX
  5
7D69
330
7D59
100
AcDbEntity
  8
0
100
AcDbVertex
100
AcDbPolygonMeshVertex
 10
-1701.40454385908
 20
1708.347964727994
 30
-263.1947947002422
 70
    64
  0
VERTEX
  5
7D6A
330
7D59
100
AcDbEntity
  8
0
100
AcDbVertex
100
AcDbPolygonMeshVertex
 10
-1701.40454385908
 20
1708.347964727994
 30
-263.1947947002422
 70
    64
  0
VERTEX
  5
7D6B
330
7D59
100
AcDbEntity
  8
0
100
AcDbVertex
100
AcDbPolygonMeshVertex
 10
-1701.40454385908
 20
1709.371366981574
 30
-263.1947947002422
 70
    64
  0
SEQEND
  5
7D6C
330
7D59
100
AcDbEntity
  8
0
  0
POLYLINE
  5
7D6D
330
1F
100
AcDbEntity
  8
0
100
AcDbPolygonMesh
 66
     1
 10
0.0
 20
0.0
 30
0.0
 70
    16
 71
     6
 72
     3
  0
VERTEX
  5
7D6E
330
7D6D
100
AcDbEntity
  8
0
100
AcDbVertex
100
AcDbPolygonMeshVertex
 10
-1692.070552473194
 20
1571.246797702386
 30
-283.5147947002423
 70
    64
  0
VERTEX
  5
7D6F
330
7D6D
100
AcDbEntity
  8
0
100
AcDbVertex
100
AcDbPolygonMeshVertex
 10
-1692.070552473194
 20
1571.246797702386
 30
-359.7147947002422
 70
    64
  0
VERTEX
  5
7D70
330
7D6D
100
AcDbEntity
  8
0
100
AcDbVertex
100
AcDbPolygonMeshVertex
 10
-1692.070552473194
 20
1571.246797702386
 30
-359.7147947002422
 70
    64
  0
VERTEX
  5
7D71
330
7D6D
100
AcDbEntity
  8
0
100
AcDbVertex
100
AcDbPolygonMeshVertex
 10
-1694.610552473194
 20
1571.246797702386
 30
-283.5147947002423
 70
    64
  0
VERTEX
  5
7D72
330
7D6D
100
AcDbEntity
  8
0
100
AcDbVertex
100
AcDbPolygonMeshVertex
 10
-1694.610552473194
 20
1571.246797702386
 30
-359.7147947002422
 70
    64
  0
VERTEX
  5
7D73
330
7D6D
100
AcDbEntity
  8
0
100
AcDbVertex
100
AcDbPolygonMeshVertex
 10
-1694.610552473194
 20
1571.246797702386
 30
-359.7147947002422
 70
    64
  0
VERTEX
  5
7D74
330
7D6D
100
AcDbEntity
  8
0
100
AcDbVertex
100
AcDbPolygonMeshVertex
 10
-1694.610552473194
 20
1576.326797702387
 30
-283.5147947002423
 70
    64
  0
VERTEX
  5
7D75
330
7D6D
100
AcDbEntity
  8
0
100
AcDbVertex
100
AcDbPolygonMeshVertex
 10
-1694.610552473194
 20
1576.326797702387
 30
-359.7147947002422
 70
    64
  0
VERTEX
  5
7D76
330
7D6D
100
AcDbEntity
  8
0
100
AcDbVertex
100
AcDbPolygonMeshVertex
 10
-1694.610552473194
 20
1571.246797702386
 30
-359.7147947002422
 70
    64
  0
VERTEX
  5
7D77
330
7D6D
100
AcDbEntity
  8
0
100
AcDbVertex
100
AcDbPolygonMeshVertex
 10
-1692.070552473194
 20
1576.326797702387
 30
-283.5147947002423
 70
    64
  0
VERTEX
  5
7D78
330
7D6D
100
AcDbEntity
  8
0
100
AcDbVertex
100
AcDbPolygonMeshVertex
 10
-1692.070552473194
 20
1576.326797702387
 30
-359.7147947002422
 70
    64
  0
VERTEX
  5
7D79
330
7D6D
100
AcDbEntity
  8
0
100
AcDbVertex
100
AcDbPolygonMeshVertex
 10
-1692.070552473194
 20
1571.246797702386
 30
-359.7147947002422
 70
    64
  0
VERTEX
  5
7D7A
330
7D6D
100
AcDbEntity
  8
0
100
AcDbVertex
100
AcDbPolygonMeshVertex
 10
-1692.070552473194
 20
1576.326797702387
 30
-283.5147947002423
 70
    64
  0
VERTEX
  5
7D7B
330
7D6D
100
AcDbEntity
  8
0
100
AcDbVertex
100
AcDbPolygonMeshVertex
 10
-1692.070552473194
 20
1576.326797702387
 30
-283.5147947002423
 70
    64
  0
VERTEX
  5
7D7C
330
7D6D
100
AcDbEntity
  8
0
100
AcDbVertex
100
AcDbPolygonMeshVertex
 10
-1692.070552473194
 20
1571.246797702386
 30
-283.5147947002423
 70
    64
  0
VERTEX
  5
7D7D
330
7D6D
100
AcDbEntity
  8
0
100
AcDbVertex
100
AcDbPolygonMeshVertex
 10
-1694.610552473194
 20
1576.326797702387
 30
-283.5147947002423
 70
    64
  0
VERTEX
  5
7D7E
330
7D6D
100
AcDbEntity
  8
0
100
AcDbVertex
100
AcDbPolygonMeshVertex
 10
-1694.610552473194
 20
1576.326797702387
 30
-283.5147947002423
 70
    64
  0
VERTEX
  5
7D7F
330
7D6D
100
AcDbEntity
  8
0
100
AcDbVertex
100
AcDbPolygonMeshVertex
 10
-1694.610552473194
 20
1571.246797702386
 30
-283.5147947002423
 70
    64
  0
SEQEND
  5
7D80
330
7D6D
100
AcDbEntity
  8
0
  0
POLYLINE
  5
7D81
330
1F
100
AcDbEntity
  8
0
100
AcDbPolygonMesh
 66
     1
 10
0.0
 20
0.0
 30
0.0
 70
    16
 71
     6
 72
     3
  0
VERTEX
  5
7D82
330
7D81
100
AcDbEntity
  8
0
100
AcDbVertex
100
AcDbPolygonMeshVertex
 10
-1687.244552473194
 20
1571.246797702386
 30
-283.5147947002423
 70
    64
  0
VERTEX
  5
7D83
330
7D81
100
AcDbEntity
  8
0
100
AcDbVertex
100
AcDbPolygonMeshVertex
 10
-1687.244552473194
 20
1571.246797702386
 30
-359.7147947002422
 70
    64
  0
VERTEX
  5
7D84
330
7D81
100
AcDbEntity
  8
0
100
AcDbVertex
100
AcDbPolygonMeshVertex
 10
-1687.244552473194
 20
1571.246797702386
 30
-359.7147947002422
 70
    64
  0
VERTEX
  5
7D85
330
7D81
100
AcDbEntity
  8
0
100
AcDbVertex
100
AcDbPolygonMeshVertex
 10
-1689.784552473194
 20
1571.246797702386
 30
-283.5147947002423
 70
    64
  0
VERTEX
  5
7D86
330
7D81
100
AcDbEntity
  8
0
100
AcDbVertex
100
AcDbPolygonMeshVertex
 10
-1689.784552473194
 20
1571.246797702386
 30
-359.7147947002422
 70
    64
  0
VERTEX
  5
7D87
330
7D81
100
AcDbEntity
  8
0
100
AcDbVertex
100
AcDbPolygonMeshVertex
 10
-1689.784552473194
 20
1571.246797702386
 30
-359.7147947002422
 70
    64
  0
VERTEX
  5
7D88
330
7D81
100
AcDbEntity
  8
0
100
AcDbVertex
100
AcDbPolygonMeshVertex
 10
-1689.784552473194
 20
1576.326797702387
 30
-283.5147947002423
 70
    64
  0
VERTEX
  5
7D89
330
7D81
100
AcDbEntity
  8
0
100
AcDbVertex
100
AcDbPolygonMeshVertex
 10
-1689.784552473194
 20
1576.326797702387
 30
-359.7147947002422
 70
    64
  0
VERTEX
  5
7D8A
330
7D81
100
AcDbEntity
  8
0
100
AcDbVertex
100
AcDbPolygonMeshVertex
 10
-1689.784552473194
 20
1571.246797702386
 30
-359.7147947002422
 70
    64
  0
VERTEX
  5
7D8B
330
7D81
100
AcDbEntity
  8
0
100
AcDbVertex
100
AcDbPolygonMeshVertex
 10
-1687.244552473194
 20
1576.326797702387
 30
-283.5147947002423
 70
    64
  0
VERTEX
  5
7D8C
330
7D81
100
AcDbEntity
  8
0
100
AcDbVertex
100
AcDbPolygonMeshVertex
 10
-1687.244552473194
 20
1576.326797702387
 30
-359.7147947002422
 70
    64
  0
VERTEX
  5
7D8D
330
7D81
100
AcDbEntity
  8
0
100
AcDbVertex
100
AcDbPolygonMeshVertex
 10
-1687.244552473194
 20
1571.246797702386
 30
-359.7147947002422
 70
    64
  0
VERTEX
  5
7D8E
330
7D81
100
AcDbEntity
  8
0
100
AcDbVertex
100
AcDbPolygonMeshVertex
 10
-1687.244552473194
 20
1576.326797702387
 30
-283.5147947002423
 70
    64
  0
VERTEX
  5
7D8F
330
7D81
100
AcDbEntity
  8
0
100
AcDbVertex
100
AcDbPolygonMeshVertex
 10
-1687.244552473194
 20
1576.326797702387
 30
-283.5147947002423
 70
    64
  0
VERTEX
  5
7D90
330
7D81
100
AcDbEntity
  8
0
100
AcDbVertex
100
AcDbPolygonMeshVertex
 10
-1687.244552473194
 20
1571.246797702386
 30
-283.5147947002423
 70
    64
  0
VERTEX
  5
7D91
330
7D81
100
AcDbEntity
  8
0
100
AcDbVertex
100
AcDbPolygonMeshVertex
 10
-1689.784552473194
 20
1576.326797702387
 30
-283.5147947002423
 70
    64
  0
VERTEX
  5
7D92
330
7D81
100
AcDbEntity
  8
0
100
AcDbVertex
100
AcDbPolygonMeshVertex
 10
-1689.784552473194
 20
1576.326797702387
 30
-283.5147947002423
 70
    64
  0
VERTEX
  5
7D93
330
7D81
100
AcDbEntity
  8
0
100
AcDbVertex
100
AcDbPolygonMeshVertex
 10
-1689.784552473194
 20
1571.246797702386
 30
-283.5147947002423
 70
    64
  0
SEQEND
  5
7D94
330
7D81
100
AcDbEntity
  8
0
  0
POLYLINE
  5
7D95
330
1F
100
AcDbEntity
  8
0
100
AcDbPolygonMesh
 66
     1
 10
0.0
 20
0.0
 30
0.0
 70
    16
 71
     6
 72
     3
  0
VERTEX
  5
7D96
330
7D95
100
AcDbEntity
  8
0
100
AcDbVertex
100
AcDbPolygonMeshVertex
 10
-1689.784552473194
 20
1571.246797702386
 30
-283.5147947002423
 70
    64
  0
VERTEX
  5
7D97
330
7D95
100
AcDbEntity
  8
0
100
AcDbVertex
100
AcDbPolygonMeshVertex
 10
-1689.784552473194
 20
1571.246797702386
 30
-359.7147947002422
 70
    64
  0
VERTEX
  5
7D98
330
7D95
100
AcDbEntity
  8
0
100
AcDbVertex
100
AcDbPolygonMeshVertex
 10
-1689.784552473194
 20
1571.246797702386
 30
-359.7147947002422
 70
    64
  0
VERTEX
  5
7D99
330
7D95
100
AcDbEntity
  8
0
100
AcDbVertex
100
AcDbPolygonMeshVertex
 10
-1692.070552473194
 20
1571.246797702386
 30
-283.5147947002423
 70
    64
  0
VERTEX
  5
7D9A
330
7D95
100
AcDbEntity
  8
0
100
AcDbVertex
100
AcDbPolygonMeshVertex
 10
-1692.070552473194
 20
1571.246797702386
 30
-359.7147947002422
 70
    64
  0
VERTEX
  5
7D9B
330
7D95
100
AcDbEntity
  8
0
100
AcDbVertex
100
AcDbPolygonMeshVertex
 10
-1692.070552473194
 20
1571.246797702386
 30
-359.7147947002422
 70
    64
  0
VERTEX
  5
7D9C
330
7D95
100
AcDbEntity
  8
0
100
AcDbVertex
100
AcDbPolygonMeshVertex
 10
-1692.070552473194
 20
1573.151797702387
 30
-283.5147947002423
 70
    64
  0
VERTEX
  5
7D9D
330
7D95
100
AcDbEntity
  8
0
100
AcDbVertex
100
AcDbPolygonMeshVertex
 10
-1692.070552473194
 20
1573.151797702387
 30
-359.7147947002422
 70
    64
  0
VERTEX
  5
7D9E
330
7D95
100
AcDbEntity
  8
0
100
AcDbVertex
100
AcDbPolygonMeshVertex
 10
-1692.070552473194
 20
1571.246797702386
 30
-359.7147947002422
 70
    64
  0
VERTEX
  5
7D9F
330
7D95
100
AcDbEntity
  8
0
100
AcDbVertex
100
AcDbPolygonMeshVertex
 10
-1689.784552473194
 20
1573.151797702387
 30
-283.5147947002423
 70
    64
  0
VERTEX
  5
7DA0
330
7D95
100
AcDbEntity
  8
0
100
AcDbVertex
100
AcDbPolygonMeshVertex
 10
-1689.784552473194
 20
1573.151797702387
 30
-359.7147947002422
 70
    64
  0
VERTEX
  5
7DA1
330
7D95
100
AcDbEntity
  8
0
100
AcDbVertex
100
AcDbPolygonMeshVertex
 10
-1689.784552473194
 20
1571.246797702386
 30
-359.7147947002422
 70
    64
  0
VERTEX
  5
7DA2
330
7D95
100
AcDbEntity
  8
0
100
AcDbVertex
100
AcDbPolygonMeshVertex
 10
-1689.784552473194
 20
1573.151797702387
 30
-283.5147947002423
 70
    64
  0
VERTEX
  5
7DA3
330
7D95
100
AcDbEntity
  8
0
100
AcDbVertex
100
AcDbPolygonMeshVertex
 10
-1689.784552473194
 20
1573.151797702387
 30
-283.5147947002423
 70
    64
  0
VERTEX
  5
7DA4
330
7D95
100
AcDbEntity
  8
0
100
AcDbVertex
100
AcDbPolygonMeshVertex
 10
-1689.784552473194
 20
1571.246797702386
 30
-283.5147947002423
 70
    64
  0
VERTEX
  5
7DA5
330
7D95
100
AcDbEntity
  8
0
100
AcDbVertex
100
AcDbPolygonMeshVertex
 10
-1692.070552473194
 20
1573.151797702387
 30
-283.5147947002423
 70
    64
  0
VERTEX
  5
7DA6
330
7D95
100
AcDbEntity
  8
0
100
AcDbVertex
100
AcDbPolygonMeshVertex
 10
-1692.070552473194
 20
1573.151797702387
 30
-283.5147947002423
 70
    64
  0
VERTEX
  5
7DA7
330
7D95
100
AcDbEntity
  8
0
100
AcDbVertex
100
AcDbPolygonMeshVertex
 10
-1692.070552473194
 20
1571.246797702386
 30
-283.5147947002423
 70
    64
  0
SEQEND
  5
7DA8
330
7D95
100
AcDbEntity
  8
0
  0
POLYLINE
  5
7DA9
330
1F
100
AcDbEntity
  8
0
100
AcDbPolygonMesh
 66
     1
 10
0.0
 20
0.0
 30
0.0
 70
    16
 71
     6
 72
     3
  0
VERTEX
  5
7DAA
330
7DA9
100
AcDbEntity
  8
0
100
AcDbVertex
100
AcDbPolygonMeshVertex
 10
-1647.048706328431
 20
1571.246797702386
 30
-283.5147947002423
 70
    64
  0
VERTEX
  5
7DAB
330
7DA9
100
AcDbEntity
  8
0
100
AcDbVertex
100
AcDbPolygonMeshVertex
 10
-1647.048706328431
 20
1571.246797702386
 30
-359.7147947002422
 70
    64
  0
VERTEX
  5
7DAC
330
7DA9
100
AcDbEntity
  8
0
100
AcDbVertex
100
AcDbPolygonMeshVertex
 10
-1647.048706328431
 20
1571.246797702386
 30
-359.7147947002422
 70
    64
  0
VERTEX
  5
7DAD
330
7DA9
100
AcDbEntity
  8
0
100
AcDbVertex
100
AcDbPolygonMeshVertex
 10
-1649.588706328431
 20
1571.246797702386
 30
-283.5147947002423
 70
    64
  0
VERTEX
  5
7DAE
330
7DA9
100
AcDbEntity
  8
0
100
AcDbVertex
100
AcDbPolygonMeshVertex
 10
-1649.588706328431
 20
1571.246797702386
 30
-359.7147947002422
 70
    64
  0
VERTEX
  5
7DAF
330
7DA9
100
AcDbEntity
  8
0
100
AcDbVertex
100
AcDbPolygonMeshVertex
 10
-1649.588706328431
 20
1571.246797702386
 30
-359.7147947002422
 70
    64
  0
VERTEX
  5
7DB0
330
7DA9
100
AcDbEntity
  8
0
100
AcDbVertex
100
AcDbPolygonMeshVertex
 10
-1649.588706328431
 20
1576.326797702386
 30
-283.5147947002423
 70
    64
  0
VERTEX
  5
7DB1
330
7DA9
100
AcDbEntity
  8
0
100
AcDbVertex
100
AcDbPolygonMeshVertex
 10
-1649.588706328431
 20
1576.326797702386
 30
-359.7147947002422
 70
    64
  0
VERTEX
  5
7DB2
330
7DA9
100
AcDbEntity
  8
0
100
AcDbVertex
100
AcDbPolygonMeshVertex
 10
-1649.588706328431
 20
1571.246797702386
 30
-359.7147947002422
 70
    64
  0
VERTEX
  5
7DB3
330
7DA9
100
AcDbEntity
  8
0
100
AcDbVertex
100
AcDbPolygonMeshVertex
 10
-1647.048706328431
 20
1576.326797702386
 30
-283.5147947002423
 70
    64
  0
VERTEX
  5
7DB4
330
7DA9
100
AcDbEntity
  8
0
100
AcDbVertex
100
AcDbPolygonMeshVertex
 10
-1647.048706328431
 20
1576.326797702386
 30
-359.7147947002422
 70
    64
  0
VERTEX
  5
7DB5
330
7DA9
100
AcDbEntity
  8
0
100
AcDbVertex
100
AcDbPolygonMeshVertex
 10
-1647.048706328431
 20
1571.246797702386
 30
-359.7147947002422
 70
    64
  0
VERTEX
  5
7DB6
330
7DA9
100
AcDbEntity
  8
0
100
AcDbVertex
100
AcDbPolygonMeshVertex
 10
-1647.048706328431
 20
1576.326797702386
 30
-283.5147947002423
 70
    64
  0
VERTEX
  5
7DB7
330
7DA9
100
AcDbEntity
  8
0
100
AcDbVertex
100
AcDbPolygonMeshVertex
 10
-1647.048706328431
 20
1576.326797702386
 30
-283.5147947002423
 70
    64
  0
VERTEX
  5
7DB8
330
7DA9
100
AcDbEntity
  8
0
100
AcDbVertex
100
AcDbPolygonMeshVertex
 10
-1647.048706328431
 20
1571.246797702386
 30
-283.5147947002423
 70
    64
  0
VERTEX
  5
7DB9
330
7DA9
100
AcDbEntity
  8
0
100
AcDbVertex
100
AcDbPolygonMeshVertex
 10
-1649.588706328431
 20
1576.326797702386
 30
-283.5147947002423
 70
    64
  0
VERTEX
  5
7DBA
330
7DA9
100
AcDbEntity
  8
0
100
AcDbVertex
100
AcDbPolygonMeshVertex
 10
-1649.588706328431
 20
1576.326797702386
 30
-283.5147947002423
 70
    64
  0
VERTEX
  5
7DBB
330
7DA9
100
AcDbEntity
  8
0
100
AcDbVertex
100
AcDbPolygonMeshVertex
 10
-1649.588706328431
 20
1571.246797702386
 30
-283.5147947002423
 70
    64
  0
SEQEND
  5
7DBC
330
7DA9
100
AcDbEntity
  8
0
  0
POLYLINE
  5
7DBD
330
1F
100
AcDbEntity
  8
0
100
AcDbPolygonMesh
 66
     1
 10
0.0
 20
0.0
 30
0.0
 70
    16
 71
     6
 72
     3
  0
VERTEX
  5
7DBE
330
7DBD
100
AcDbEntity
  8
0
100
AcDbVertex
100
AcDbPolygonMeshVertex
 10
-1642.222706328431
 20
1571.246797702386
 30
-283.5147947002423
 70
    64
  0
VERTEX
  5
7DBF
330
7DBD
100
AcDbEntity
  8
0
100
AcDbVertex
100
AcDbPolygonMeshVertex
 10
-1642.222706328431
 20
1571.246797702386
 30
-359.7147947002422
 70
    64
  0
VERTEX
  5
7DC0
330
7DBD
100
AcDbEntity
  8
0
100
AcDbVertex
100
AcDbPolygonMeshVertex
 10
-1642.222706328431
 20
1571.246797702386
 30
-359.7147947002422
 70
    64
  0
VERTEX
  5
7DC1
330
7DBD
100
AcDbEntity
  8
0
100
AcDbVertex
100
AcDbPolygonMeshVertex
 10
-1644.762706328432
 20
1571.246797702386
 30
-283.5147947002423
 70
    64
  0
VERTEX
  5
7DC2
330
7DBD
100
AcDbEntity
  8
0
100
AcDbVertex
100
AcDbPolygonMeshVertex
 10
-1644.762706328432
 20
1571.246797702386
 30
-359.7147947002422
 70
    64
  0
VERTEX
  5
7DC3
330
7DBD
100
AcDbEntity
  8
0
100
AcDbVertex
100
AcDbPolygonMeshVertex
 10
-1644.762706328432
 20
1571.246797702386
 30
-359.7147947002422
 70
    64
  0
VERTEX
  5
7DC4
330
7DBD
100
AcDbEntity
  8
0
100
AcDbVertex
100
AcDbPolygonMeshVertex
 10
-1644.762706328432
 20
1576.326797702386
 30
-283.5147947002423
 70
    64
  0
VERTEX
  5
7DC5
330
7DBD
100
AcDbEntity
  8
0
100
AcDbVertex
100
AcDbPolygonMeshVertex
 10
-1644.762706328432
 20
1576.326797702386
 30
-359.7147947002422
 70
    64
  0
VERTEX
  5
7DC6
330
7DBD
100
AcDbEntity
  8
0
100
AcDbVertex
100
AcDbPolygonMeshVertex
 10
-1644.762706328432
 20
1571.246797702386
 30
-359.7147947002422
 70
    64
  0
VERTEX
  5
7DC7
330
7DBD
100
AcDbEntity
  8
0
100
AcDbVertex
100
AcDbPolygonMeshVertex
 10
-1642.222706328431
 20
1576.326797702386
 30
-283.5147947002423
 70
    64
  0
VERTEX
  5
7DC8
330
7DBD
100
AcDbEntity
  8
0
100
AcDbVertex
100
AcDbPolygonMeshVertex
 10
-1642.222706328431
 20
1576.326797702386
 30
-359.7147947002422
 70
    64
  0
VERTEX
  5
7DC9
330
7DBD
100
AcDbEntity
  8
0
100
AcDbVertex
100
AcDbPolygonMeshVertex
 10
-1642.222706328431
 20
1571.246797702386
 30
-359.7147947002422
 70
    64
  0
VERTEX
  5
7DCA
330
7DBD
100
AcDbEntity
  8
0
100
AcDbVertex
100
AcDbPolygonMeshVertex
 10
-1642.222706328431
 20
1576.326797702386
 30
-283.5147947002423
 70
    64
  0
VERTEX
  5
7DCB
330
7DBD
100
AcDbEntity
  8
0
100
AcDbVertex
100
AcDbPolygonMeshVertex
 10
-1642.222706328431
 20
1576.326797702386
 30
-283.5147947002423
 70
    64
  0
VERTEX
  5
7DCC
330
7DBD
100
AcDbEntity
  8
0
100
AcDbVertex
100
AcDbPolygonMeshVertex
 10
-1642.222706328431
 20
1571.246797702386
 30
-283.5147947002423
 70
    64
  0
VERTEX
  5
7DCD
330
7DBD
100
AcDbEntity
  8
0
100
AcDbVertex
100
AcDbPolygonMeshVertex
 10
-1644.762706328432
 20
1576.326797702386
 30
-283.5147947002423
 70
    64
  0
VERTEX
  5
7DCE
330
7DBD
100
AcDbEntity
  8
0
100
AcDbVertex
100
AcDbPolygonMeshVertex
 10
-1644.762706328432
 20
1576.326797702386
 30
-283.5147947002423
 70
    64
  0
VERTEX
  5
7DCF
330
7DBD
100
AcDbEntity
  8
0
100
AcDbVertex
100
AcDbPolygonMeshVertex
 10
-1644.762706328432
 20
1571.246797702386
 30
-283.5147947002423
 70
    64
  0
SEQEND
  5
7DD0
330
7DBD
100
AcDbEntity
  8
0
  0
POLYLINE
  5
7DD1
330
1F
100
AcDbEntity
  8
0
100
AcDbPolygonMesh
 66
     1
 10
0.0
 20
0.0
 30
0.0
 70
    16
 71
     6
 72
     3
  0
VERTEX
  5
7DD2
330
7DD1
100
AcDbEntity
  8
0
100
AcDbVertex
100
AcDbPolygonMeshVertex
 10
-1644.762706328432
 20
1571.246797702386
 30
-283.5147947002423
 70
    64
  0
VERTEX
  5
7DD3
330
7DD1
100
AcDbEntity
  8
0
100
AcDbVertex
100
AcDbPolygonMeshVertex
 10
-1644.762706328432
 20
1571.246797702386
 30
-359.7147947002422
 70
    64
  0
VERTEX
  5
7DD4
330
7DD1
100
AcDbEntity
  8
0
100
AcDbVertex
100
AcDbPolygonMeshVertex
 10
-1644.762706328432
 20
1571.246797702386
 30
-359.7147947002422
 70
    64
  0
VERTEX
  5
7DD5
330
7DD1
100
AcDbEntity
  8
0
100
AcDbVertex
100
AcDbPolygonMeshVertex
 10
-1647.048706328431
 20
1571.246797702386
 30
-283.5147947002423
 70
    64
  0
VERTEX
  5
7DD6
330
7DD1
100
AcDbEntity
  8
0
100
AcDbVertex
100
AcDbPolygonMeshVertex
 10
-1647.048706328431
 20
1571.246797702386
 30
-359.7147947002422
 70
    64
  0
VERTEX
  5
7DD7
330
7DD1
100
AcDbEntity
  8
0
100
AcDbVertex
100
AcDbPolygonMeshVertex
 10
-1647.048706328431
 20
1571.246797702386
 30
-359.7147947002422
 70
    64
  0
VERTEX
  5
7DD8
330
7DD1
100
AcDbEntity
  8
0
100
AcDbVertex
100
AcDbPolygonMeshVertex
 10
-1647.048706328431
 20
1573.151797702386
 30
-283.5147947002423
 70
    64
  0
VERTEX
  5
7DD9
330
7DD1
100
AcDbEntity
  8
0
100
AcDbVertex
100
AcDbPolygonMeshVertex
 10
-1647.048706328431
 20
1573.151797702386
 30
-359.7147947002422
 70
    64
  0
VERTEX
  5
7DDA
330
7DD1
100
AcDbEntity
  8
0
100
AcDbVertex
100
AcDbPolygonMeshVertex
 10
-1647.048706328431
 20
1571.246797702386
 30
-359.7147947002422
 70
    64
  0
VERTEX
  5
7DDB
330
7DD1
100
AcDbEntity
  8
0
100
AcDbVertex
100
AcDbPolygonMeshVertex
 10
-1644.762706328432
 20
1573.151797702386
 30
-283.5147947002423
 70
    64
  0
VERTEX
  5
7DDC
330
7DD1
100
AcDbEntity
  8
0
100
AcDbVertex
100
AcDbPolygonMeshVertex
 10
-1644.762706328432
 20
1573.151797702386
 30
-359.7147947002422
 70
    64
  0
VERTEX
  5
7DDD
330
7DD1
100
AcDbEntity
  8
0
100
AcDbVertex
100
AcDbPolygonMeshVertex
 10
-1644.762706328432
 20
1571.246797702386
 30
-359.7147947002422
 70
    64
  0
VERTEX
  5
7DDE
330
7DD1
100
AcDbEntity
  8
0
100
AcDbVertex
100
AcDbPolygonMeshVertex
 10
-1644.762706328432
 20
1573.151797702386
 30
-283.5147947002423
 70
    64
  0
VERTEX
  5
7DDF
330
7DD1
100
AcDbEntity
  8
0
100
AcDbVertex
100
AcDbPolygonMeshVertex
 10
-1644.762706328432
 20
1573.151797702386
 30
-283.5147947002423
 70
    64
  0
VERTEX
  5
7DE0
330
7DD1
100
AcDbEntity
  8
0
100
AcDbVertex
100
AcDbPolygonMeshVertex
 10
-1644.762706328432
 20
1571.246797702386
 30
-283.5147947002423
 70
    64
  0
VERTEX
  5
7DE1
330
7DD1
100
AcDbEntity
  8
0
100
AcDbVertex
100
AcDbPolygonMeshVertex
 10
-1647.048706328431
 20
1573.151797702386
 30
-283.5147947002423
 70
    64
  0
VERTEX
  5
7DE2
330
7DD1
100
AcDbEntity
  8
0
100
AcDbVertex
100
AcDbPolygonMeshVertex
 10
-1647.048706328431
 20
1573.151797702386
 30
-283.5147947002423
 70
    64
  0
VERTEX
  5
7DE3
330
7DD1
100
AcDbEntity
  8
0
100
AcDbVertex
100
AcDbPolygonMeshVertex
 10
-1647.048706328431
 20
1571.246797702386
 30
-283.5147947002423
 70
    64
  0
SEQEND
  5
7DE4
330
7DD1
100
AcDbEntity
  8
0
  0
POLYLINE
  5
7DE5
330
1F
100
AcDbEntity
  8
0
100
AcDbPolygonMesh
 66
     1
 10
0.0
 20
0.0
 30
0.0
 70
    16
 71
     6
 72
     3
  0
VERTEX
  5
7DE6
330
7DE5
100
AcDbEntity
  8
0
100
AcDbVertex
100
AcDbPolygonMeshVertex
 10
-1612.123706328431
 20
1571.246797702386
 30
-283.5147947002423
 70
    64
  0
VERTEX
  5
7DE7
330
7DE5
100
AcDbEntity
  8
0
100
AcDbVertex
100
AcDbPolygonMeshVertex
 10
-1612.123706328431
 20
1571.246797702386
 30
-359.7147947002422
 70
    64
  0
VERTEX
  5
7DE8
330
7DE5
100
AcDbEntity
  8
0
100
AcDbVertex
100
AcDbPolygonMeshVertex
 10
-1612.123706328431
 20
1571.246797702386
 30
-359.7147947002422
 70
    64
  0
VERTEX
  5
7DE9
330
7DE5
100
AcDbEntity
  8
0
100
AcDbVertex
100
AcDbPolygonMeshVertex
 10
-1614.663706328432
 20
1571.246797702386
 30
-283.5147947002423
 70
    64
  0
VERTEX
  5
7DEA
330
7DE5
100
AcDbEntity
  8
0
100
AcDbVertex
100
AcDbPolygonMeshVertex
 10
-1614.663706328432
 20
1571.246797702386
 30
-359.7147947002422
 70
    64
  0
VERTEX
  5
7DEB
330
7DE5
100
AcDbEntity
  8
0
100
AcDbVertex
100
AcDbPolygonMeshVertex
 10
-1614.663706328432
 20
1571.246797702386
 30
-359.7147947002422
 70
    64
  0
VERTEX
  5
7DEC
330
7DE5
100
AcDbEntity
  8
0
100
AcDbVertex
100
AcDbPolygonMeshVertex
 10
-1614.663706328432
 20
1576.326797702387
 30
-283.5147947002423
 70
    64
  0
VERTEX
  5
7DED
330
7DE5
100
AcDbEntity
  8
0
100
AcDbVertex
100
AcDbPolygonMeshVertex
 10
-1614.663706328432
 20
1576.326797702387
 30
-359.7147947002422
 70
    64
  0
VERTEX
  5
7DEE
330
7DE5
100
AcDbEntity
  8
0
100
AcDbVertex
100
AcDbPolygonMeshVertex
 10
-1614.663706328432
 20
1571.246797702386
 30
-359.7147947002422
 70
    64
  0
VERTEX
  5
7DEF
330
7DE5
100
AcDbEntity
  8
0
100
AcDbVertex
100
AcDbPolygonMeshVertex
 10
-1612.123706328431
 20
1576.326797702387
 30
-283.5147947002423
 70
    64
  0
VERTEX
  5
7DF0
330
7DE5
100
AcDbEntity
  8
0
100
AcDbVertex
100
AcDbPolygonMeshVertex
 10
-1612.123706328431
 20
1576.326797702387
 30
-359.7147947002422
 70
    64
  0
VERTEX
  5
7DF1
330
7DE5
100
AcDbEntity
  8
0
100
AcDbVertex
100
AcDbPolygonMeshVertex
 10
-1612.123706328431
 20
1571.246797702386
 30
-359.7147947002422
 70
    64
  0
VERTEX
  5
7DF2
330
7DE5
100
AcDbEntity
  8
0
100
AcDbVertex
100
AcDbPolygonMeshVertex
 10
-1612.123706328431
 20
1576.326797702387
 30
-283.5147947002423
 70
    64
  0
VERTEX
  5
7DF3
330
7DE5
100
AcDbEntity
  8
0
100
AcDbVertex
100
AcDbPolygonMeshVertex
 10
-1612.123706328431
 20
1576.326797702387
 30
-283.5147947002423
 70
    64
  0
VERTEX
  5
7DF4
330
7DE5
100
AcDbEntity
  8
0
100
AcDbVertex
100
AcDbPolygonMeshVertex
 10
-1612.123706328431
 20
1571.246797702386
 30
-283.5147947002423
 70
    64
  0
VERTEX
  5
7DF5
330
7DE5
100
AcDbEntity
  8
0
100
AcDbVertex
100
AcDbPolygonMeshVertex
 10
-1614.663706328432
 20
1576.326797702387
 30
-283.5147947002423
 70
    64
  0
VERTEX
  5
7DF6
330
7DE5
100
AcDbEntity
  8
0
100
AcDbVertex
100
AcDbPolygonMeshVertex
 10
-1614.663706328432
 20
1576.326797702387
 30
-283.5147947002423
 70
    64
  0
VERTEX
  5
7DF7
330
7DE5
100
AcDbEntity
  8
0
100
AcDbVertex
100
AcDbPolygonMeshVertex
 10
-1614.663706328432
 20
1571.246797702386
 30
-283.5147947002423
 70
    64
  0
SEQEND
  5
7DF8
330
7DE5
100
AcDbEntity
  8
0
  0
POLYLINE
  5
7DF9
330
1F
100
AcDbEntity
  8
0
100
AcDbPolygonMesh
 66
     1
 10
0.0
 20
0.0
 30
0.0
 70
    16
 71
     6
 72
     3
  0
VERTEX
  5
7DFA
330
7DF9
100
AcDbEntity
  8
0
100
AcDbVertex
100
AcDbPolygonMeshVertex
 10
-1607.297706328432
 20
1571.246797702386
 30
-283.5147947002423
 70
    64
  0
VERTEX
  5
7DFB
330
7DF9
100
AcDbEntity
  8
0
100
AcDbVertex
100
AcDbPolygonMeshVertex
 10
-1607.297706328432
 20
1571.246797702386
 30
-359.7147947002422
 70
    64
  0
VERTEX
  5
7DFC
330
7DF9
100
AcDbEntity
  8
0
100
AcDbVertex
100
AcDbPolygonMeshVertex
 10
-1607.297706328432
 20
1571.246797702386
 30
-359.7147947002422
 70
    64
  0
VERTEX
  5
7DFD
330
7DF9
100
AcDbEntity
  8
0
100
AcDbVertex
100
AcDbPolygonMeshVertex
 10
-1609.837706328432
 20
1571.246797702386
 30
-283.5147947002423
 70
    64
  0
VERTEX
  5
7DFE
330
7DF9
100
AcDbEntity
  8
0
100
AcDbVertex
100
AcDbPolygonMeshVertex
 10
-1609.837706328432
 20
1571.246797702386
 30
-359.7147947002422
 70
    64
  0
VERTEX
  5
7DFF
330
7DF9
100
AcDbEntity
  8
0
100
AcDbVertex
100
AcDbPolygonMeshVertex
 10
-1609.837706328432
 20
1571.246797702386
 30
-359.7147947002422
 70
    64
  0
VERTEX
  5
7E00
330
7DF9
100
AcDbEntity
  8
0
100
AcDbVertex
100
AcDbPolygonMeshVertex
 10
-1609.837706328432
 20
1576.326797702387
 30
-283.5147947002423
 70
    64
  0
VERTEX
  5
7E01
330
7DF9
100
AcDbEntity
  8
0
100
AcDbVertex
100
AcDbPolygonMeshVertex
 10
-1609.837706328432
 20
1576.326797702387
 30
-359.7147947002422
 70
    64
  0
VERTEX
  5
7E02
330
7DF9
100
AcDbEntity
  8
0
100
AcDbVertex
100
AcDbPolygonMeshVertex
 10
-1609.837706328432
 20
1571.246797702386
 30
-359.7147947002422
 70
    64
  0
VERTEX
  5
7E03
330
7DF9
100
AcDbEntity
  8
0
100
AcDbVertex
100
AcDbPolygonMeshVertex
 10
-1607.297706328432
 20
1576.326797702387
 30
-283.5147947002423
 70
    64
  0
VERTEX
  5
7E04
330
7DF9
100
AcDbEntity
  8
0
100
AcDbVertex
100
AcDbPolygonMeshVertex
 10
-1607.297706328432
 20
1576.326797702387
 30
-359.7147947002422
 70
    64
  0
VERTEX
  5
7E05
330
7DF9
100
AcDbEntity
  8
0
100
AcDbVertex
100
AcDbPolygonMeshVertex
 10
-1607.297706328432
 20
1571.246797702386
 30
-359.7147947002422
 70
    64
  0
VERTEX
  5
7E06
330
7DF9
100
AcDbEntity
  8
0
100
AcDbVertex
100
AcDbPolygonMeshVertex
 10
-1607.297706328432
 20
1576.326797702387
 30
-283.5147947002423
 70
    64
  0
VERTEX
  5
7E07
330
7DF9
100
AcDbEntity
  8
0
100
AcDbVertex
100
AcDbPolygonMeshVertex
 10
-1607.297706328432
 20
1576.326797702387
 30
-283.5147947002423
 70
    64
  0
VERTEX
  5
7E08
330
7DF9
100
AcDbEntity
  8
0
100
AcDbVertex
100
AcDbPolygonMeshVertex
 10
-1607.297706328432
 20
1571.246797702386
 30
-283.5147947002423
 70
    64
  0
VERTEX
  5
7E09
330
7DF9
100
AcDbEntity
  8
0
100
AcDbVertex
100
AcDbPolygonMeshVertex
 10
-1609.837706328432
 20
1576.326797702387
 30
-283.5147947002423
 70
    64
  0
VERTEX
  5
7E0A
330
7DF9
100
AcDbEntity
  8
0
100
AcDbVertex
100
AcDbPolygonMeshVertex
 10
-1609.837706328432
 20
1576.326797702387
 30
-283.5147947002423
 70
    64
  0
VERTEX
  5
7E0B
330
7DF9
100
AcDbEntity
  8
0
100
AcDbVertex
100
AcDbPolygonMeshVertex
 10
-1609.837706328432
 20
1571.246797702386
 30
-283.5147947002423
 70
    64
  0
SEQEND
  5
7E0C
330
7DF9
100
AcDbEntity
  8
0
  0
POLYLINE
  5
7E0D
330
1F
100
AcDbEntity
  8
0
100
AcDbPolygonMesh
 66
     1
 10
0.0
 20
0.0
 30
0.0
 70
    16
 71
     6
 72
     3
  0
VERTEX
  5
7E0E
330
7E0D
100
AcDbEntity
  8
0
100
AcDbVertex
100
AcDbPolygonMeshVertex
 10
-1609.837706328432
 20
1571.246797702386
 30
-283.5147947002423
 70
    64
  0
VERTEX
  5
7E0F
330
7E0D
100
AcDbEntity
  8
0
100
AcDbVertex
100
AcDbPolygonMeshVertex
 10
-1609.837706328432
 20
1571.246797702386
 30
-359.7147947002422
 70
    64
  0
VERTEX
  5
7E10
330
7E0D
100
AcDbEntity
  8
0
100
AcDbVertex
100
AcDbPolygonMeshVertex
 10
-1609.837706328432
 20
1571.246797702386
 30
-359.7147947002422
 70
    64
  0
VERTEX
  5
7E11
330
7E0D
100
AcDbEntity
  8
0
100
AcDbVertex
100
AcDbPolygonMeshVertex
 10
-1612.123706328431
 20
1571.246797702386
 30
-283.5147947002423
 70
    64
  0
VERTEX
  5
7E12
330
7E0D
100
AcDbEntity
  8
0
100
AcDbVertex
100
AcDbPolygonMeshVertex
 10
-1612.123706328431
 20
1571.246797702386
 30
-359.7147947002422
 70
    64
  0
VERTEX
  5
7E13
330
7E0D
100
AcDbEntity
  8
0
100
AcDbVertex
100
AcDbPolygonMeshVertex
 10
-1612.123706328431
 20
1571.246797702386
 30
-359.7147947002422
 70
    64
  0
VERTEX
  5
7E14
330
7E0D
100
AcDbEntity
  8
0
100
AcDbVertex
100
AcDbPolygonMeshVertex
 10
-1612.123706328431
 20
1573.151797702387
 30
-283.5147947002423
 70
    64
  0
VERTEX
  5
7E15
330
7E0D
100
AcDbEntity
  8
0
100
AcDbVertex
100
AcDbPolygonMeshVertex
 10
-1612.123706328431
 20
1573.151797702387
 30
-359.7147947002422
 70
    64
  0
VERTEX
  5
7E16
330
7E0D
100
AcDbEntity
  8
0
100
AcDbVertex
100
AcDbPolygonMeshVertex
 10
-1612.123706328431
 20
1571.246797702386
 30
-359.7147947002422
 70
    64
  0
VERTEX
  5
7E17
330
7E0D
100
AcDbEntity
  8
0
100
AcDbVertex
100
AcDbPolygonMeshVertex
 10
-1609.837706328432
 20
1573.151797702387
 30
-283.5147947002423
 70
    64
  0
VERTEX
  5
7E18
330
7E0D
100
AcDbEntity
  8
0
100
AcDbVertex
100
AcDbPolygonMeshVertex
 10
-1609.837706328432
 20
1573.151797702387
 30
-359.7147947002422
 70
    64
  0
VERTEX
  5
7E19
330
7E0D
100
AcDbEntity
  8
0
100
AcDbVertex
100
AcDbPolygonMeshVertex
 10
-1609.837706328432
 20
1571.246797702386
 30
-359.7147947002422
 70
    64
  0
VERTEX
  5
7E1A
330
7E0D
100
AcDbEntity
  8
0
100
AcDbVertex
100
AcDbPolygonMeshVertex
 10
-1609.837706328432
 20
1573.151797702387
 30
-283.5147947002423
 70
    64
  0
VERTEX
  5
7E1B
330
7E0D
100
AcDbEntity
  8
0
100
AcDbVertex
100
AcDbPolygonMeshVertex
 10
-1609.837706328432
 20
1573.151797702387
 30
-283.5147947002423
 70
    64
  0
VERTEX
  5
7E1C
330
7E0D
100
AcDbEntity
  8
0
100
AcDbVertex
100
AcDbPolygonMeshVertex
 10
-1609.837706328432
 20
1571.246797702386
 30
-283.5147947002423
 70
    64
  0
VERTEX
  5
7E1D
330
7E0D
100
AcDbEntity
  8
0
100
AcDbVertex
100
AcDbPolygonMeshVertex
 10
-1612.123706328431
 20
1573.151797702387
 30
-283.5147947002423
 70
    64
  0
VERTEX
  5
7E1E
330
7E0D
100
AcDbEntity
  8
0
100
AcDbVertex
100
AcDbPolygonMeshVertex
 10
-1612.123706328431
 20
1573.151797702387
 30
-283.5147947002423
 70
    64
  0
VERTEX
  5
7E1F
330
7E0D
100
AcDbEntity
  8
0
100
AcDbVertex
100
AcDbPolygonMeshVertex
 10
-1612.123706328431
 20
1571.246797702386
 30
-283.5147947002423
 70
    64
  0
SEQEND
  5
7E20
330
7E0D
100
AcDbEntity
  8
0
  0
POLYLINE
  5
7E21
330
1F
100
AcDbEntity
  8
0
100
AcDbPolygonMesh
 66
     1
 10
0.0
 20
0.0
 30
0.0
 70
    16
 71
     6
 72
     3
  0
VERTEX
  5
7E22
330
7E21
100
AcDbEntity
  8
0
100
AcDbVertex
100
AcDbPolygonMeshVertex
 10
-1577.197929529174
 20
1571.246166189468
 30
-283.5147947002423
 70
    64
  0
VERTEX
  5
7E23
330
7E21
100
AcDbEntity
  8
0
100
AcDbVertex
100
AcDbPolygonMeshVertex
 10
-1577.197929529174
 20
1571.246166189468
 30
-359.7147947002422
 70
    64
  0
VERTEX
  5
7E24
330
7E21
100
AcDbEntity
  8
0
100
AcDbVertex
100
AcDbPolygonMeshVertex
 10
-1577.197929529174
 20
1571.246166189468
 30
-359.7147947002422
 70
    64
  0
VERTEX
  5
7E25
330
7E21
100
AcDbEntity
  8
0
100
AcDbVertex
100
AcDbPolygonMeshVertex
 10
-1579.737929529174
 20
1571.246166189468
 30
-283.5147947002423
 70
    64
  0
VERTEX
  5
7E26
330
7E21
100
AcDbEntity
  8
0
100
AcDbVertex
100
AcDbPolygonMeshVertex
 10
-1579.737929529174
 20
1571.246166189468
 30
-359.7147947002422
 70
    64
  0
VERTEX
  5
7E27
330
7E21
100
AcDbEntity
  8
0
100
AcDbVertex
100
AcDbPolygonMeshVertex
 10
-1579.737929529174
 20
1571.246166189468
 30
-359.7147947002422
 70
    64
  0
VERTEX
  5
7E28
330
7E21
100
AcDbEntity
  8
0
100
AcDbVertex
100
AcDbPolygonMeshVertex
 10
-1579.737929529174
 20
1576.326166189468
 30
-283.5147947002423
 70
    64
  0
VERTEX
  5
7E29
330
7E21
100
AcDbEntity
  8
0
100
AcDbVertex
100
AcDbPolygonMeshVertex
 10
-1579.737929529174
 20
1576.326166189468
 30
-359.7147947002422
 70
    64
  0
VERTEX
  5
7E2A
330
7E21
100
AcDbEntity
  8
0
100
AcDbVertex
100
AcDbPolygonMeshVertex
 10
-1579.737929529174
 20
1571.246166189468
 30
-359.7147947002422
 70
    64
  0
VERTEX
  5
7E2B
330
7E21
100
AcDbEntity
  8
0
100
AcDbVertex
100
AcDbPolygonMeshVertex
 10
-1577.197929529174
 20
1576.326166189468
 30
-283.5147947002423
 70
    64
  0
VERTEX
  5
7E2C
330
7E21
100
AcDbEntity
  8
0
100
AcDbVertex
100
AcDbPolygonMeshVertex
 10
-1577.197929529174
 20
1576.326166189468
 30
-359.7147947002422
 70
    64
  0
VERTEX
  5
7E2D
330
7E21
100
AcDbEntity
  8
0
100
AcDbVertex
100
AcDbPolygonMeshVertex
 10
-1577.197929529174
 20
1571.246166189468
 30
-359.7147947002422
 70
    64
  0
VERTEX
  5
7E2E
330
7E21
100
AcDbEntity
  8
0
100
AcDbVertex
100
AcDbPolygonMeshVertex
 10
-1577.197929529174
 20
1576.326166189468
 30
-283.5147947002423
 70
    64
  0
VERTEX
  5
7E2F
330
7E21
100
AcDbEntity
  8
0
100
AcDbVertex
100
AcDbPolygonMeshVertex
 10
-1577.197929529174
 20
1576.326166189468
 30
-283.5147947002423
 70
    64
  0
VERTEX
  5
7E30
330
7E21
100
AcDbEntity
  8
0
100
AcDbVertex
100
AcDbPolygonMeshVertex
 10
-1577.197929529174
 20
1571.246166189468
 30
-283.5147947002423
 70
    64
  0
VERTEX
  5
7E31
330
7E21
100
AcDbEntity
  8
0
100
AcDbVertex
100
AcDbPolygonMeshVertex
 10
-1579.737929529174
 20
1576.326166189468
 30
-283.5147947002423
 70
    64
  0
VERTEX
  5
7E32
330
7E21
100
AcDbEntity
  8
0
100
AcDbVertex
100
AcDbPolygonMeshVertex
 10
-1579.737929529174
 20
1576.326166189468
 30
-283.5147947002423
 70
    64
  0
VERTEX
  5
7E33
330
7E21
100
AcDbEntity
  8
0
100
AcDbVertex
100
AcDbPolygonMeshVertex
 10
-1579.737929529174
 20
1571.246166189468
 30
-283.5147947002423
 70
    64
  0
SEQEND
  5
7E34
330
7E21
100
AcDbEntity
  8
0
  0
POLYLINE
  5
7E35
330
1F
100
AcDbEntity
  8
0
100
AcDbPolygonMesh
 66
     1
 10
0.0
 20
0.0
 30
0.0
 70
    16
 71
     6
 72
     3
  0
VERTEX
  5
7E36
330
7E35
100
AcDbEntity
  8
0
100
AcDbVertex
100
AcDbPolygonMeshVertex
 10
-1572.371929529174
 20
1571.246166189468
 30
-283.5147947002423
 70
    64
  0
VERTEX
  5
7E37
330
7E35
100
AcDbEntity
  8
0
100
AcDbVertex
100
AcDbPolygonMeshVertex
 10
-1572.371929529174
 20
1571.246166189468
 30
-359.7147947002422
 70
    64
  0
VERTEX
  5
7E38
330
7E35
100
AcDbEntity
  8
0
100
AcDbVertex
100
AcDbPolygonMeshVertex
 10
-1572.371929529174
 20
1571.246166189468
 30
-359.7147947002422
 70
    64
  0
VERTEX
  5
7E39
330
7E35
100
AcDbEntity
  8
0
100
AcDbVertex
100
AcDbPolygonMeshVertex
 10
-1574.911929529174
 20
1571.246166189468
 30
-283.5147947002423
 70
    64
  0
VERTEX
  5
7E3A
330
7E35
100
AcDbEntity
  8
0
100
AcDbVertex
100
AcDbPolygonMeshVertex
 10
-1574.911929529174
 20
1571.246166189468
 30
-359.7147947002422
 70
    64
  0
VERTEX
  5
7E3B
330
7E35
100
AcDbEntity
  8
0
100
AcDbVertex
100
AcDbPolygonMeshVertex
 10
-1574.911929529174
 20
1571.246166189468
 30
-359.7147947002422
 70
    64
  0
VERTEX
  5
7E3C
330
7E35
100
AcDbEntity
  8
0
100
AcDbVertex
100
AcDbPolygonMeshVertex
 10
-1574.911929529174
 20
1576.326166189468
 30
-283.5147947002423
 70
    64
  0
VERTEX
  5
7E3D
330
7E35
100
AcDbEntity
  8
0
100
AcDbVertex
100
AcDbPolygonMeshVertex
 10
-1574.911929529174
 20
1576.326166189468
 30
-359.7147947002422
 70
    64
  0
VERTEX
  5
7E3E
330
7E35
100
AcDbEntity
  8
0
100
AcDbVertex
100
AcDbPolygonMeshVertex
 10
-1574.911929529174
 20
1571.246166189468
 30
-359.7147947002422
 70
    64
  0
VERTEX
  5
7E3F
330
7E35
100
AcDbEntity
  8
0
100
AcDbVertex
100
AcDbPolygonMeshVertex
 10
-1572.371929529174
 20
1576.326166189468
 30
-283.5147947002423
 70
    64
  0
VERTEX
  5
7E40
330
7E35
100
AcDbEntity
  8
0
100
AcDbVertex
100
AcDbPolygonMeshVertex
 10
-1572.371929529174
 20
1576.326166189468
 30
-359.7147947002422
 70
    64
  0
VERTEX
  5
7E41
330
7E35
100
AcDbEntity
  8
0
100
AcDbVertex
100
AcDbPolygonMeshVertex
 10
-1572.371929529174
 20
1571.246166189468
 30
-359.7147947002422
 70
    64
  0
VERTEX
  5
7E42
330
7E35
100
AcDbEntity
  8
0
100
AcDbVertex
100
AcDbPolygonMeshVertex
 10
-1572.371929529174
 20
1576.326166189468
 30
-283.5147947002423
 70
    64
  0
VERTEX
  5
7E43
330
7E35
100
AcDbEntity
  8
0
100
AcDbVertex
100
AcDbPolygonMeshVertex
 10
-1572.371929529174
 20
1576.326166189468
 30
-283.5147947002423
 70
    64
  0
VERTEX
  5
7E44
330
7E35
100
AcDbEntity
  8
0
100
AcDbVertex
100
AcDbPolygonMeshVertex
 10
-1572.371929529174
 20
1571.246166189468
 30
-283.5147947002423
 70
    64
  0
VERTEX
  5
7E45
330
7E35
100
AcDbEntity
  8
0
100
AcDbVertex
100
AcDbPolygonMeshVertex
 10
-1574.911929529174
 20
1576.326166189468
 30
-283.5147947002423
 70
    64
  0
VERTEX
  5
7E46
330
7E35
100
AcDbEntity
  8
0
100
AcDbVertex
100
AcDbPolygonMeshVertex
 10
-1574.911929529174
 20
1576.326166189468
 30
-283.5147947002423
 70
    64
  0
VERTEX
  5
7E47
330
7E35
100
AcDbEntity
  8
0
100
AcDbVertex
100
AcDbPolygonMeshVertex
 10
-1574.911929529174
 20
1571.246166189468
 30
-283.5147947002423
 70
    64
  0
SEQEND
  5
7E48
330
7E35
100
AcDbEntity
  8
0
  0
POLYLINE
  5
7E49
330
1F
100
AcDbEntity
  8
0
100
AcDbPolygonMesh
 66
     1
 10
0.0
 20
0.0
 30
0.0
 70
    16
 71
     6
 72
     3
  0
VERTEX
  5
7E4A
330
7E49
100
AcDbEntity
  8
0
100
AcDbVertex
100
AcDbPolygonMeshVertex
 10
-1574.911929529174
 20
1571.246166189468
 30
-283.5147947002423
 70
    64
  0
VERTEX
  5
7E4B
330
7E49
100
AcDbEntity
  8
0
100
AcDbVertex
100
AcDbPolygonMeshVertex
 10
-1574.911929529174
 20
1571.246166189468
 30
-359.7147947002422
 70
    64
  0
VERTEX
  5
7E4C
330
7E49
100
AcDbEntity
  8
0
100
AcDbVertex
100
AcDbPolygonMeshVertex
 10
-1574.911929529174
 20
1571.246166189468
 30
-359.7147947002422
 70
    64
  0
VERTEX
  5
7E4D
330
7E49
100
AcDbEntity
  8
0
100
AcDbVertex
100
AcDbPolygonMeshVertex
 10
-1577.197929529174
 20
1571.246166189468
 30
-283.5147947002423
 70
    64
  0
VERTEX
  5
7E4E
330
7E49
100
AcDbEntity
  8
0
100
AcDbVertex
100
AcDbPolygonMeshVertex
 10
-1577.197929529174
 20
1571.246166189468
 30
-359.7147947002422
 70
    64
  0
VERTEX
  5
7E4F
330
7E49
100
AcDbEntity
  8
0
100
AcDbVertex
100
AcDbPolygonMeshVertex
 10
-1577.197929529174
 20
1571.246166189468
 30
-359.7147947002422
 70
    64
  0
VERTEX
  5
7E50
330
7E49
100
AcDbEntity
  8
0
100
AcDbVertex
100
AcDbPolygonMeshVertex
 10
-1577.197929529174
 20
1573.151166189468
 30
-283.5147947002423
 70
    64
  0
VERTEX
  5
7E51
330
7E49
100
AcDbEntity
  8
0
100
AcDbVertex
100
AcDbPolygonMeshVertex
 10
-1577.197929529174
 20
1573.151166189468
 30
-359.7147947002422
 70
    64
  0
VERTEX
  5
7E52
330
7E49
100
AcDbEntity
  8
0
100
AcDbVertex
100
AcDbPolygonMeshVertex
 10
-1577.197929529174
 20
1571.246166189468
 30
-359.7147947002422
 70
    64
  0
VERTEX
  5
7E53
330
7E49
100
AcDbEntity
  8
0
100
AcDbVertex
100
AcDbPolygonMeshVertex
 10
-1574.911929529174
 20
1573.151166189468
 30
-283.5147947002423
 70
    64
  0
VERTEX
  5
7E54
330
7E49
100
AcDbEntity
  8
0
100
AcDbVertex
100
AcDbPolygonMeshVertex
 10
-1574.911929529174
 20
1573.151166189468
 30
-359.7147947002422
 70
    64
  0
VERTEX
  5
7E55
330
7E49
100
AcDbEntity
  8
0
100
AcDbVertex
100
AcDbPolygonMeshVertex
 10
-1574.911929529174
 20
1571.246166189468
 30
-359.7147947002422
 70
    64
  0
VERTEX
  5
7E56
330
7E49
100
AcDbEntity
  8
0
100
AcDbVertex
100
AcDbPolygonMeshVertex
 10
-1574.911929529174
 20
1573.151166189468
 30
-283.5147947002423
 70
    64
  0
VERTEX
  5
7E57
330
7E49
100
AcDbEntity
  8
0
100
AcDbVertex
100
AcDbPolygonMeshVertex
 10
-1574.911929529174
 20
1573.151166189468
 30
-283.5147947002423
 70
    64
  0
VERTEX
  5
7E58
330
7E49
100
AcDbEntity
  8
0
100
AcDbVertex
100
AcDbPolygonMeshVertex
 10
-1574.911929529174
 20
1571.246166189468
 30
-283.5147947002423
 70
    64
  0
VERTEX
  5
7E59
330
7E49
100
AcDbEntity
  8
0
100
AcDbVertex
100
AcDbPolygonMeshVertex
 10
-1577.197929529174
 20
1573.151166189468
 30
-283.5147947002423
 70
    64
  0
VERTEX
  5
7E5A
330
7E49
100
AcDbEntity
  8
0
100
AcDbVertex
100
AcDbPolygonMeshVertex
 10
-1577.197929529174
 20
1573.151166189468
 30
-283.5147947002423
 70
    64
  0
VERTEX
  5
7E5B
330
7E49
100
AcDbEntity
  8
0
100
AcDbVertex
100
AcDbPolygonMeshVertex
 10
-1577.197929529174
 20
1571.246166189468
 30
-283.5147947002423
 70
    64
  0
SEQEND
  5
7E5C
330
7E49
100
AcDbEntity
  8
0
  0
POLYLINE
  5
7E5D
330
1F
100
AcDbEntity
  8
0
100
AcDbPolygonMesh
 66
     1
 10
0.0
 20
0.0
 30
0.0
 70
    16
 71
     6
 72
     3
  0
VERTEX
  5
7E5E
330
7E5D
100
AcDbEntity
  8
0
100
AcDbVertex
100
AcDbPolygonMeshVertex
 10
-1542.272711428491
 20
1571.245298586124
 30
-283.5147947002423
 70
    64
  0
VERTEX
  5
7E5F
330
7E5D
100
AcDbEntity
  8
0
100
AcDbVertex
100
AcDbPolygonMeshVertex
 10
-1542.272711428491
 20
1571.245298586124
 30
-359.7147947002422
 70
    64
  0
VERTEX
  5
7E60
330
7E5D
100
AcDbEntity
  8
0
100
AcDbVertex
100
AcDbPolygonMeshVertex
 10
-1542.272711428491
 20
1571.245298586124
 30
-359.7147947002422
 70
    64
  0
VERTEX
  5
7E61
330
7E5D
100
AcDbEntity
  8
0
100
AcDbVertex
100
AcDbPolygonMeshVertex
 10
-1544.812711428491
 20
1571.245298586124
 30
-283.5147947002423
 70
    64
  0
VERTEX
  5
7E62
330
7E5D
100
AcDbEntity
  8
0
100
AcDbVertex
100
AcDbPolygonMeshVertex
 10
-1544.812711428491
 20
1571.245298586124
 30
-359.7147947002422
 70
    64
  0
VERTEX
  5
7E63
330
7E5D
100
AcDbEntity
  8
0
100
AcDbVertex
100
AcDbPolygonMeshVertex
 10
-1544.812711428491
 20
1571.245298586124
 30
-359.7147947002422
 70
    64
  0
VERTEX
  5
7E64
330
7E5D
100
AcDbEntity
  8
0
100
AcDbVertex
100
AcDbPolygonMeshVertex
 10
-1544.812711428491
 20
1576.325298586124
 30
-283.5147947002423
 70
    64
  0
VERTEX
  5
7E65
330
7E5D
100
AcDbEntity
  8
0
100
AcDbVertex
100
AcDbPolygonMeshVertex
 10
-1544.812711428491
 20
1576.325298586124
 30
-359.7147947002422
 70
    64
  0
VERTEX
  5
7E66
330
7E5D
100
AcDbEntity
  8
0
100
AcDbVertex
100
AcDbPolygonMeshVertex
 10
-1544.812711428491
 20
1571.245298586124
 30
-359.7147947002422
 70
    64
  0
VERTEX
  5
7E67
330
7E5D
100
AcDbEntity
  8
0
100
AcDbVertex
100
AcDbPolygonMeshVertex
 10
-1542.272711428491
 20
1576.325298586124
 30
-283.5147947002423
 70
    64
  0
VERTEX
  5
7E68
330
7E5D
100
AcDbEntity
  8
0
100
AcDbVertex
100
AcDbPolygonMeshVertex
 10
-1542.272711428491
 20
1576.325298586124
 30
-359.7147947002422
 70
    64
  0
VERTEX
  5
7E69
330
7E5D
100
AcDbEntity
  8
0
100
AcDbVertex
100
AcDbPolygonMeshVertex
 10
-1542.272711428491
 20
1571.245298586124
 30
-359.7147947002422
 70
    64
  0
VERTEX
  5
7E6A
330
7E5D
100
AcDbEntity
  8
0
100
AcDbVertex
100
AcDbPolygonMeshVertex
 10
-1542.272711428491
 20
1576.325298586124
 30
-283.5147947002423
 70
    64
  0
VERTEX
  5
7E6B
330
7E5D
100
AcDbEntity
  8
0
100
AcDbVertex
100
AcDbPolygonMeshVertex
 10
-1542.272711428491
 20
1576.325298586124
 30
-283.5147947002423
 70
    64
  0
VERTEX
  5
7E6C
330
7E5D
100
AcDbEntity
  8
0
100
AcDbVertex
100
AcDbPolygonMeshVertex
 10
-1542.272711428491
 20
1571.245298586124
 30
-283.5147947002423
 70
    64
  0
VERTEX
  5
7E6D
330
7E5D
100
AcDbEntity
  8
0
100
AcDbVertex
100
AcDbPolygonMeshVertex
 10
-1544.812711428491
 20
1576.325298586124
 30
-283.5147947002423
 70
    64
  0
VERTEX
  5
7E6E
330
7E5D
100
AcDbEntity
  8
0
100
AcDbVertex
100
AcDbPolygonMeshVertex
 10
-1544.812711428491
 20
1576.325298586124
 30
-283.5147947002423
 70
    64
  0
VERTEX
  5
7E6F
330
7E5D
100
AcDbEntity
  8
0
100
AcDbVertex
100
AcDbPolygonMeshVertex
 10
-1544.812711428491
 20
1571.245298586124
 30
-283.5147947002423
 70
    64
  0
SEQEND
  5
7E70
330
7E5D
100
AcDbEntity
  8
0
  0
POLYLINE
  5
7E71
330
1F
100
AcDbEntity
  8
0
100
AcDbPolygonMesh
 66
     1
 10
0.0
 20
0.0
 30
0.0
 70
    16
 71
     6
 72
     3
  0
VERTEX
  5
7E72
330
7E71
100
AcDbEntity
  8
0
100
AcDbVertex
100
AcDbPolygonMeshVertex
 10
-1537.446711428491
 20
1571.245298586124
 30
-283.5147947002423
 70
    64
  0
VERTEX
  5
7E73
330
7E71
100
AcDbEntity
  8
0
100
AcDbVertex
100
AcDbPolygonMeshVertex
 10
-1537.446711428491
 20
1571.245298586124
 30
-359.7147947002422
 70
    64
  0
VERTEX
  5
7E74
330
7E71
100
AcDbEntity
  8
0
100
AcDbVertex
100
AcDbPolygonMeshVertex
 10
-1537.446711428491
 20
1571.245298586124
 30
-359.7147947002422
 70
    64
  0
VERTEX
  5
7E75
330
7E71
100
AcDbEntity
  8
0
100
AcDbVertex
100
AcDbPolygonMeshVertex
 10
-1539.986711428491
 20
1571.245298586124
 30
-283.5147947002423
 70
    64
  0
VERTEX
  5
7E76
330
7E71
100
AcDbEntity
  8
0
100
AcDbVertex
100
AcDbPolygonMeshVertex
 10
-1539.986711428491
 20
1571.245298586124
 30
-359.7147947002422
 70
    64
  0
VERTEX
  5
7E77
330
7E71
100
AcDbEntity
  8
0
100
AcDbVertex
100
AcDbPolygonMeshVertex
 10
-1539.986711428491
 20
1571.245298586124
 30
-359.7147947002422
 70
    64
  0
VERTEX
  5
7E78
330
7E71
100
AcDbEntity
  8
0
100
AcDbVertex
100
AcDbPolygonMeshVertex
 10
-1539.986711428491
 20
1576.325298586124
 30
-283.5147947002423
 70
    64
  0
VERTEX
  5
7E79
330
7E71
100
AcDbEntity
  8
0
100
AcDbVertex
100
AcDbPolygonMeshVertex
 10
-1539.986711428491
 20
1576.325298586124
 30
-359.7147947002422
 70
    64
  0
VERTEX
  5
7E7A
330
7E71
100
AcDbEntity
  8
0
100
AcDbVertex
100
AcDbPolygonMeshVertex
 10
-1539.986711428491
 20
1571.245298586124
 30
-359.7147947002422
 70
    64
  0
VERTEX
  5
7E7B
330
7E71
100
AcDbEntity
  8
0
100
AcDbVertex
100
AcDbPolygonMeshVertex
 10
-1537.446711428491
 20
1576.325298586124
 30
-283.5147947002423
 70
    64
  0
VERTEX
  5
7E7C
330
7E71
100
AcDbEntity
  8
0
100
AcDbVertex
100
AcDbPolygonMeshVertex
 10
-1537.446711428491
 20
1576.325298586124
 30
-359.7147947002422
 70
    64
  0
VERTEX
  5
7E7D
330
7E71
100
AcDbEntity
  8
0
100
AcDbVertex
100
AcDbPolygonMeshVertex
 10
-1537.446711428491
 20
1571.245298586124
 30
-359.7147947002422
 70
    64
  0
VERTEX
  5
7E7E
330
7E71
100
AcDbEntity
  8
0
100
AcDbVertex
100
AcDbPolygonMeshVertex
 10
-1537.446711428491
 20
1576.325298586124
 30
-283.5147947002423
 70
    64
  0
VERTEX
  5
7E7F
330
7E71
100
AcDbEntity
  8
0
100
AcDbVertex
100
AcDbPolygonMeshVertex
 10
-1537.446711428491
 20
1576.325298586124
 30
-283.5147947002423
 70
    64
  0
VERTEX
  5
7E80
330
7E71
100
AcDbEntity
  8
0
100
AcDbVertex
100
AcDbPolygonMeshVertex
 10
-1537.446711428491
 20
1571.245298586124
 30
-283.5147947002423
 70
    64
  0
VERTEX
  5
7E81
330
7E71
100
AcDbEntity
  8
0
100
AcDbVertex
100
AcDbPolygonMeshVertex
 10
-1539.986711428491
 20
1576.325298586124
 30
-283.5147947002423
 70
    64
  0
VERTEX
  5
7E82
330
7E71
100
AcDbEntity
  8
0
100
AcDbVertex
100
AcDbPolygonMeshVertex
 10
-1539.986711428491
 20
1576.325298586124
 30
-283.5147947002423
 70
    64
  0
VERTEX
  5
7E83
330
7E71
100
AcDbEntity
  8
0
100
AcDbVertex
100
AcDbPolygonMeshVertex
 10
-1539.986711428491
 20
1571.245298586124
 30
-283.5147947002423
 70
    64
  0
SEQEND
  5
7E84
330
7E71
100
AcDbEntity
  8
0
  0
POLYLINE
  5
7E85
330
1F
100
AcDbEntity
  8
0
100
AcDbPolygonMesh
 66
     1
 10
0.0
 20
0.0
 30
0.0
 70
    16
 71
     6
 72
     3
  0
VERTEX
  5
7E86
330
7E85
100
AcDbEntity
  8
0
100
AcDbVertex
100
AcDbPolygonMeshVertex
 10
-1539.986711428491
 20
1571.245298586124
 30
-283.5147947002423
 70
    64
  0
VERTEX
  5
7E87
330
7E85
100
AcDbEntity
  8
0
100
AcDbVertex
100
AcDbPolygonMeshVertex
 10
-1539.986711428491
 20
1571.245298586124
 30
-359.7147947002422
 70
    64
  0
VERTEX
  5
7E88
330
7E85
100
AcDbEntity
  8
0
100
AcDbVertex
100
AcDbPolygonMeshVertex
 10
-1539.986711428491
 20
1571.245298586124
 30
-359.7147947002422
 70
    64
  0
VERTEX
  5
7E89
330
7E85
100
AcDbEntity
  8
0
100
AcDbVertex
100
AcDbPolygonMeshVertex
 10
-1542.272711428491
 20
1571.245298586124
 30
-283.5147947002423
 70
    64
  0
VERTEX
  5
7E8A
330
7E85
100
AcDbEntity
  8
0
100
AcDbVertex
100
AcDbPolygonMeshVertex
 10
-1542.272711428491
 20
1571.245298586124
 30
-359.7147947002422
 70
    64
  0
VERTEX
  5
7E8B
330
7E85
100
AcDbEntity
  8
0
100
AcDbVertex
100
AcDbPolygonMeshVertex
 10
-1542.272711428491
 20
1571.245298586124
 30
-359.7147947002422
 70
    64
  0
VERTEX
  5
7E8C
330
7E85
100
AcDbEntity
  8
0
100
AcDbVertex
100
AcDbPolygonMeshVertex
 10
-1542.272711428491
 20
1573.150298586124
 30
-283.5147947002423
 70
    64
  0
VERTEX
  5
7E8D
330
7E85
100
AcDbEntity
  8
0
100
AcDbVertex
100
AcDbPolygonMeshVertex
 10
-1542.272711428491
 20
1573.150298586124
 30
-359.7147947002422
 70
    64
  0
VERTEX
  5
7E8E
330
7E85
100
AcDbEntity
  8
0
100
AcDbVertex
100
AcDbPolygonMeshVertex
 10
-1542.272711428491
 20
1571.245298586124
 30
-359.7147947002422
 70
    64
  0
VERTEX
  5
7E8F
330
7E85
100
AcDbEntity
  8
0
100
AcDbVertex
100
AcDbPolygonMeshVertex
 10
-1539.986711428491
 20
1573.150298586124
 30
-283.5147947002423
 70
    64
  0
VERTEX
  5
7E90
330
7E85
100
AcDbEntity
  8
0
100
AcDbVertex
100
AcDbPolygonMeshVertex
 10
-1539.986711428491
 20
1573.150298586124
 30
-359.7147947002422
 70
    64
  0
VERTEX
  5
7E91
330
7E85
100
AcDbEntity
  8
0
100
AcDbVertex
100
AcDbPolygonMeshVertex
 10
-1539.986711428491
 20
1571.245298586124
 30
-359.7147947002422
 70
    64
  0
VERTEX
  5
7E92
330
7E85
100
AcDbEntity
  8
0
100
AcDbVertex
100
AcDbPolygonMeshVertex
 10
-1539.986711428491
 20
1573.150298586124
 30
-283.5147947002423
 70
    64
  0
VERTEX
  5
7E93
330
7E85
100
AcDbEntity
  8
0
100
AcDbVertex
100
AcDbPolygonMeshVertex
 10
-1539.986711428491
 20
1573.150298586124
 30
-283.5147947002423
 70
    64
  0
VERTEX
  5
7E94
330
7E85
100
AcDbEntity
  8
0
100
AcDbVertex
100
AcDbPolygonMeshVertex
 10
-1539.986711428491
 20
1571.245298586124
 30
-283.5147947002423
 70
    64
  0
VERTEX
  5
7E95
330
7E85
100
AcDbEntity
  8
0
100
AcDbVertex
100
AcDbPolygonMeshVertex
 10
-1542.272711428491
 20
1573.150298586124
 30
-283.5147947002423
 70
    64
  0
VERTEX
  5
7E96
330
7E85
100
AcDbEntity
  8
0
100
AcDbVertex
100
AcDbPolygonMeshVertex
 10
-1542.272711428491
 20
1573.150298586124
 30
-283.5147947002423
 70
    64
  0
VERTEX
  5
7E97
330
7E85
100
AcDbEntity
  8
0
100
AcDbVertex
100
AcDbPolygonMeshVertex
 10
-1542.272711428491
 20
1571.245298586124
 30
-283.5147947002423
 70
    64
  0
SEQEND
  5
7E98
330
7E85
100
AcDbEntity
  8
0
  0
POLYLINE
  5
7E99
330
1F
100
AcDbEntity
  8
0
100
AcDbPolygonMesh
 66
     1
 10
0.0
 20
0.0
 30
0.0
 70
    16
 71
     6
 72
     3
  0
VERTEX
  5
7E9A
330
7E99
100
AcDbEntity
  8
0
100
AcDbVertex
100
AcDbPolygonMeshVertex
 10
-1689.784552473194
 20
1707.541936260762
 30
-283.5147947002423
 70
    64
  0
VERTEX
  5
7E9B
330
7E99
100
AcDbEntity
  8
0
100
AcDbVertex
100
AcDbPolygonMeshVertex
 10
-1689.784552473194
 20
1707.541936260762
 30
-359.7147947002422
 70
    64
  0
VERTEX
  5
7E9C
330
7E99
100
AcDbEntity
  8
0
100
AcDbVertex
100
AcDbPolygonMeshVertex
 10
-1689.784552473194
 20
1707.541936260762
 30
-359.7147947002422
 70
    64
  0
VERTEX
  5
7E9D
330
7E99
100
AcDbEntity
  8
0
100
AcDbVertex
100
AcDbPolygonMeshVertex
 10
-1692.070552473194
 20
1707.541936260762
 30
-283.5147947002423
 70
    64
  0
VERTEX
  5
7E9E
330
7E99
100
AcDbEntity
  8
0
100
AcDbVertex
100
AcDbPolygonMeshVertex
 10
-1692.070552473194
 20
1707.541936260762
 30
-359.7147947002422
 70
    64
  0
VERTEX
  5
7E9F
330
7E99
100
AcDbEntity
  8
0
100
AcDbVertex
100
AcDbPolygonMeshVertex
 10
-1692.070552473194
 20
1707.541936260762
 30
-359.7147947002422
 70
    64
  0
VERTEX
  5
7EA0
330
7E99
100
AcDbEntity
  8
0
100
AcDbVertex
100
AcDbPolygonMeshVertex
 10
-1692.070552473194
 20
1705.636936260762
 30
-283.5147947002423
 70
    64
  0
VERTEX
  5
7EA1
330
7E99
100
AcDbEntity
  8
0
100
AcDbVertex
100
AcDbPolygonMeshVertex
 10
-1692.070552473194
 20
1705.636936260762
 30
-359.7147947002422
 70
    64
  0
VERTEX
  5
7EA2
330
7E99
100
AcDbEntity
  8
0
100
AcDbVertex
100
AcDbPolygonMeshVertex
 10
-1692.070552473194
 20
1707.541936260762
 30
-359.7147947002422
 70
    64
  0
VERTEX
  5
7EA3
330
7E99
100
AcDbEntity
  8
0
100
AcDbVertex
100
AcDbPolygonMeshVertex
 10
-1689.784552473194
 20
1705.636936260762
 30
-283.5147947002423
 70
    64
  0
VERTEX
  5
7EA4
330
7E99
100
AcDbEntity
  8
0
100
AcDbVertex
100
AcDbPolygonMeshVertex
 10
-1689.784552473194
 20
1705.636936260762
 30
-359.7147947002422
 70
    64
  0
VERTEX
  5
7EA5
330
7E99
100
AcDbEntity
  8
0
100
AcDbVertex
100
AcDbPolygonMeshVertex
 10
-1689.784552473194
 20
1707.541936260762
 30
-359.7147947002422
 70
    64
  0
VERTEX
  5
7EA6
330
7E99
100
AcDbEntity
  8
0
100
AcDbVertex
100
AcDbPolygonMeshVertex
 10
-1689.784552473194
 20
1705.636936260762
 30
-283.5147947002423
 70
    64
  0
VERTEX
  5
7EA7
330
7E99
100
AcDbEntity
  8
0
100
AcDbVertex
100
AcDbPolygonMeshVertex
 10
-1689.784552473194
 20
1705.636936260762
 30
-283.5147947002423
 70
    64
  0
VERTEX
  5
7EA8
330
7E99
100
AcDbEntity
  8
0
100
AcDbVertex
100
AcDbPolygonMeshVertex
 10
-1689.784552473194
 20
1707.541936260762
 30
-283.5147947002423
 70
    64
  0
VERTEX
  5
7EA9
330
7E99
100
AcDbEntity
  8
0
100
AcDbVertex
100
AcDbPolygonMeshVertex
 10
-1692.070552473194
 20
1705.636936260762
 30
-283.5147947002423
 70
    64
  0
VERTEX
  5
7EAA
330
7E99
100
AcDbEntity
  8
0
100
AcDbVertex
100
AcDbPolygonMeshVertex
 10
-1692.070552473194
 20
1705.636936260762
 30
-283.5147947002423
 70
    64
  0
VERTEX
  5
7EAB
330
7E99
100
AcDbEntity
  8
0
100
AcDbVertex
100
AcDbPolygonMeshVertex
 10
-1692.070552473194
 20
1707.541936260762
 30
-283.5147947002423
 70
    64
  0
SEQEND
  5
7EAC
330
7E99
100
AcDbEntity
  8
0
  0
POLYLINE
  5
7EAD
330
1F
100
AcDbEntity
  8
0
100
AcDbPolygonMesh
 66
     1
 10
0.0
 20
0.0
 30
0.0
 70
    16
 71
     6
 72
     3
  0
VERTEX
  5
7EAE
330
7EAD
100
AcDbEntity
  8
0
100
AcDbVertex
100
AcDbPolygonMeshVertex
 10
-1687.244552473194
 20
1707.541936260762
 30
-283.5147947002423
 70
    64
  0
VERTEX
  5
7EAF
330
7EAD
100
AcDbEntity
  8
0
100
AcDbVertex
100
AcDbPolygonMeshVertex
 10
-1687.244552473194
 20
1707.541936260762
 30
-359.7147947002422
 70
    64
  0
VERTEX
  5
7EB0
330
7EAD
100
AcDbEntity
  8
0
100
AcDbVertex
100
AcDbPolygonMeshVertex
 10
-1687.244552473194
 20
1707.541936260762
 30
-359.7147947002422
 70
    64
  0
VERTEX
  5
7EB1
330
7EAD
100
AcDbEntity
  8
0
100
AcDbVertex
100
AcDbPolygonMeshVertex
 10
-1689.784552473194
 20
1707.541936260762
 30
-283.5147947002423
 70
    64
  0
VERTEX
  5
7EB2
330
7EAD
100
AcDbEntity
  8
0
100
AcDbVertex
100
AcDbPolygonMeshVertex
 10
-1689.784552473194
 20
1707.541936260762
 30
-359.7147947002422
 70
    64
  0
VERTEX
  5
7EB3
330
7EAD
100
AcDbEntity
  8
0
100
AcDbVertex
100
AcDbPolygonMeshVertex
 10
-1689.784552473194
 20
1707.541936260762
 30
-359.7147947002422
 70
    64
  0
VERTEX
  5
7EB4
330
7EAD
100
AcDbEntity
  8
0
100
AcDbVertex
100
AcDbPolygonMeshVertex
 10
-1689.784552473194
 20
1702.461936260761
 30
-283.5147947002423
 70
    64
  0
VERTEX
  5
7EB5
330
7EAD
100
AcDbEntity
  8
0
100
AcDbVertex
100
AcDbPolygonMeshVertex
 10
-1689.784552473194
 20
1702.461936260761
 30
-359.7147947002422
 70
    64
  0
VERTEX
  5
7EB6
330
7EAD
100
AcDbEntity
  8
0
100
AcDbVertex
100
AcDbPolygonMeshVertex
 10
-1689.784552473194
 20
1707.541936260762
 30
-359.7147947002422
 70
    64
  0
VERTEX
  5
7EB7
330
7EAD
100
AcDbEntity
  8
0
100
AcDbVertex
100
AcDbPolygonMeshVertex
 10
-1687.244552473194
 20
1702.461936260761
 30
-283.5147947002423
 70
    64
  0
VERTEX
  5
7EB8
330
7EAD
100
AcDbEntity
  8
0
100
AcDbVertex
100
AcDbPolygonMeshVertex
 10
-1687.244552473194
 20
1702.461936260761
 30
-359.7147947002422
 70
    64
  0
VERTEX
  5
7EB9
330
7EAD
100
AcDbEntity
  8
0
100
AcDbVertex
100
AcDbPolygonMeshVertex
 10
-1687.244552473194
 20
1707.541936260762
 30
-359.7147947002422
 70
    64
  0
VERTEX
  5
7EBA
330
7EAD
100
AcDbEntity
  8
0
100
AcDbVertex
100
AcDbPolygonMeshVertex
 10
-1687.244552473194
 20
1702.461936260761
 30
-283.5147947002423
 70
    64
  0
VERTEX
  5
7EBB
330
7EAD
100
AcDbEntity
  8
0
100
AcDbVertex
100
AcDbPolygonMeshVertex
 10
-1687.244552473194
 20
1702.461936260761
 30
-283.5147947002423
 70
    64
  0
VERTEX
  5
7EBC
330
7EAD
100
AcDbEntity
  8
0
100
AcDbVertex
100
AcDbPolygonMeshVertex
 10
-1687.244552473194
 20
1707.541936260762
 30
-283.5147947002423
 70
    64
  0
VERTEX
  5
7EBD
330
7EAD
100
AcDbEntity
  8
0
100
AcDbVertex
100
AcDbPolygonMeshVertex
 10
-1689.784552473194
 20
1702.461936260761
 30
-283.5147947002423
 70
    64
  0
VERTEX
  5
7EBE
330
7EAD
100
AcDbEntity
  8
0
100
AcDbVertex
100
AcDbPolygonMeshVertex
 10
-1689.784552473194
 20
1702.461936260761
 30
-283.5147947002423
 70
    64
  0
VERTEX
  5
7EBF
330
7EAD
100
AcDbEntity
  8
0
100
AcDbVertex
100
AcDbPolygonMeshVertex
 10
-1689.784552473194
 20
1707.541936260762
 30
-283.5147947002423
 70
    64
  0
SEQEND
  5
7EC0
330
7EAD
100
AcDbEntity
  8
0
  0
POLYLINE
  5
7EC1
330
1F
100
AcDbEntity
  8
0
100
AcDbPolygonMesh
 66
     1
 10
0.0
 20
0.0
 30
0.0
 70
    16
 71
     6
 72
     3
  0
VERTEX
  5
7EC2
330
7EC1
100
AcDbEntity
  8
0
100
AcDbVertex
100
AcDbPolygonMeshVertex
 10
-1692.070552473194
 20
1707.541936260762
 30
-283.5147947002423
 70
    64
  0
VERTEX
  5
7EC3
330
7EC1
100
AcDbEntity
  8
0
100
AcDbVertex
100
AcDbPolygonMeshVertex
 10
-1692.070552473194
 20
1707.541936260762
 30
-359.7147947002422
 70
    64
  0
VERTEX
  5
7EC4
330
7EC1
100
AcDbEntity
  8
0
100
AcDbVertex
100
AcDbPolygonMeshVertex
 10
-1692.070552473194
 20
1707.541936260762
 30
-359.7147947002422
 70
    64
  0
VERTEX
  5
7EC5
330
7EC1
100
AcDbEntity
  8
0
100
AcDbVertex
100
AcDbPolygonMeshVertex
 10
-1694.610552473194
 20
1707.541936260762
 30
-283.5147947002423
 70
    64
  0
VERTEX
  5
7EC6
330
7EC1
100
AcDbEntity
  8
0
100
AcDbVertex
100
AcDbPolygonMeshVertex
 10
-1694.610552473194
 20
1707.541936260762
 30
-359.7147947002422
 70
    64
  0
VERTEX
  5
7EC7
330
7EC1
100
AcDbEntity
  8
0
100
AcDbVertex
100
AcDbPolygonMeshVertex
 10
-1694.610552473194
 20
1707.541936260762
 30
-359.7147947002422
 70
    64
  0
VERTEX
  5
7EC8
330
7EC1
100
AcDbEntity
  8
0
100
AcDbVertex
100
AcDbPolygonMeshVertex
 10
-1694.610552473194
 20
1702.461936260761
 30
-283.5147947002423
 70
    64
  0
VERTEX
  5
7EC9
330
7EC1
100
AcDbEntity
  8
0
100
AcDbVertex
100
AcDbPolygonMeshVertex
 10
-1694.610552473194
 20
1702.461936260761
 30
-359.7147947002422
 70
    64
  0
VERTEX
  5
7ECA
330
7EC1
100
AcDbEntity
  8
0
100
AcDbVertex
100
AcDbPolygonMeshVertex
 10
-1694.610552473194
 20
1707.541936260762
 30
-359.7147947002422
 70
    64
  0
VERTEX
  5
7ECB
330
7EC1
100
AcDbEntity
  8
0
100
AcDbVertex
100
AcDbPolygonMeshVertex
 10
-1692.070552473194
 20
1702.461936260761
 30
-283.5147947002423
 70
    64
  0
VERTEX
  5
7ECC
330
7EC1
100
AcDbEntity
  8
0
100
AcDbVertex
100
AcDbPolygonMeshVertex
 10
-1692.070552473194
 20
1702.461936260761
 30
-359.7147947002422
 70
    64
  0
VERTEX
  5
7ECD
330
7EC1
100
AcDbEntity
  8
0
100
AcDbVertex
100
AcDbPolygonMeshVertex
 10
-1692.070552473194
 20
1707.541936260762
 30
-359.7147947002422
 70
    64
  0
VERTEX
  5
7ECE
330
7EC1
100
AcDbEntity
  8
0
100
AcDbVertex
100
AcDbPolygonMeshVertex
 10
-1692.070552473194
 20
1702.461936260761
 30
-283.5147947002423
 70
    64
  0
VERTEX
  5
7ECF
330
7EC1
100
AcDbEntity
  8
0
100
AcDbVertex
100
AcDbPolygonMeshVertex
 10
-1692.070552473194
 20
1702.461936260761
 30
-283.5147947002423
 70
    64
  0
VERTEX
  5
7ED0
330
7EC1
100
AcDbEntity
  8
0
100
AcDbVertex
100
AcDbPolygonMeshVertex
 10
-1692.070552473194
 20
1707.541936260762
 30
-283.5147947002423
 70
    64
  0
VERTEX
  5
7ED1
330
7EC1
100
AcDbEntity
  8
0
100
AcDbVertex
100
AcDbPolygonMeshVertex
 10
-1694.610552473194
 20
1702.461936260761
 30
-283.5147947002423
 70
    64
  0
VERTEX
  5
7ED2
330
7EC1
100
AcDbEntity
  8
0
100
AcDbVertex
100
AcDbPolygonMeshVertex
 10
-1694.610552473194
 20
1702.461936260761
 30
-283.5147947002423
 70
    64
  0
VERTEX
  5
7ED3
330
7EC1
100
AcDbEntity
  8
0
100
AcDbVertex
100
AcDbPolygonMeshVertex
 10
-1694.610552473194
 20
1707.541936260762
 30
-283.5147947002423
 70
    64
  0
SEQEND
  5
7ED4
330
7EC1
100
AcDbEntity
  8
0
  0
POLYLINE
  5
7ED5
330
1F
100
AcDbEntity
  8
0
100
AcDbPolygonMesh
 66
     1
 10
0.0
 20
0.0
 30
0.0
 70
    16
 71
     6
 72
     3
  0
VERTEX
  5
7ED6
330
7ED5
100
AcDbEntity
  8
0
100
AcDbVertex
100
AcDbPolygonMeshVertex
 10
-1644.775890933669
 20
1707.541936260762
 30
-283.5147947002423
 70
    64
  0
VERTEX
  5
7ED7
330
7ED5
100
AcDbEntity
  8
0
100
AcDbVertex
100
AcDbPolygonMeshVertex
 10
-1644.775890933669
 20
1707.541936260762
 30
-359.7147947002422
 70
    64
  0
VERTEX
  5
7ED8
330
7ED5
100
AcDbEntity
  8
0
100
AcDbVertex
100
AcDbPolygonMeshVertex
 10
-1644.775890933669
 20
1707.541936260762
 30
-359.7147947002422
 70
    64
  0
VERTEX
  5
7ED9
330
7ED5
100
AcDbEntity
  8
0
100
AcDbVertex
100
AcDbPolygonMeshVertex
 10
-1647.061890933669
 20
1707.541936260762
 30
-283.5147947002423
 70
    64
  0
VERTEX
  5
7EDA
330
7ED5
100
AcDbEntity
  8
0
100
AcDbVertex
100
AcDbPolygonMeshVertex
 10
-1647.061890933669
 20
1707.541936260762
 30
-359.7147947002422
 70
    64
  0
VERTEX
  5
7EDB
330
7ED5
100
AcDbEntity
  8
0
100
AcDbVertex
100
AcDbPolygonMeshVertex
 10
-1647.061890933669
 20
1707.541936260762
 30
-359.7147947002422
 70
    64
  0
VERTEX
  5
7EDC
330
7ED5
100
AcDbEntity
  8
0
100
AcDbVertex
100
AcDbPolygonMeshVertex
 10
-1647.061890933669
 20
1705.636936260762
 30
-283.5147947002423
 70
    64
  0
VERTEX
  5
7EDD
330
7ED5
100
AcDbEntity
  8
0
100
AcDbVertex
100
AcDbPolygonMeshVertex
 10
-1647.061890933669
 20
1705.636936260762
 30
-359.7147947002422
 70
    64
  0
VERTEX
  5
7EDE
330
7ED5
100
AcDbEntity
  8
0
100
AcDbVertex
100
AcDbPolygonMeshVertex
 10
-1647.061890933669
 20
1707.541936260762
 30
-359.7147947002422
 70
    64
  0
VERTEX
  5
7EDF
330
7ED5
100
AcDbEntity
  8
0
100
AcDbVertex
100
AcDbPolygonMeshVertex
 10
-1644.775890933669
 20
1705.636936260762
 30
-283.5147947002423
 70
    64
  0
VERTEX
  5
7EE0
330
7ED5
100
AcDbEntity
  8
0
100
AcDbVertex
100
AcDbPolygonMeshVertex
 10
-1644.775890933669
 20
1705.636936260762
 30
-359.7147947002422
 70
    64
  0
VERTEX
  5
7EE1
330
7ED5
100
AcDbEntity
  8
0
100
AcDbVertex
100
AcDbPolygonMeshVertex
 10
-1644.775890933669
 20
1707.541936260762
 30
-359.7147947002422
 70
    64
  0
VERTEX
  5
7EE2
330
7ED5
100
AcDbEntity
  8
0
100
AcDbVertex
100
AcDbPolygonMeshVertex
 10
-1644.775890933669
 20
1705.636936260762
 30
-283.5147947002423
 70
    64
  0
VERTEX
  5
7EE3
330
7ED5
100
AcDbEntity
  8
0
100
AcDbVertex
100
AcDbPolygonMeshVertex
 10
-1644.775890933669
 20
1705.636936260762
 30
-283.5147947002423
 70
    64
  0
VERTEX
  5
7EE4
330
7ED5
100
AcDbEntity
  8
0
100
AcDbVertex
100
AcDbPolygonMeshVertex
 10
-1644.775890933669
 20
1707.541936260762
 30
-283.5147947002423
 70
    64
  0
VERTEX
  5
7EE5
330
7ED5
100
AcDbEntity
  8
0
100
AcDbVertex
100
AcDbPolygonMeshVertex
 10
-1647.061890933669
 20
1705.636936260762
 30
-283.5147947002423
 70
    64
  0
VERTEX
  5
7EE6
330
7ED5
100
AcDbEntity
  8
0
100
AcDbVertex
100
AcDbPolygonMeshVertex
 10
-1647.061890933669
 20
1705.636936260762
 30
-283.5147947002423
 70
    64
  0
VERTEX
  5
7EE7
330
7ED5
100
AcDbEntity
  8
0
100
AcDbVertex
100
AcDbPolygonMeshVertex
 10
-1647.061890933669
 20
1707.541936260762
 30
-283.5147947002423
 70
    64
  0
SEQEND
  5
7EE8
330
7ED5
100
AcDbEntity
  8
0
  0
POLYLINE
  5
7EE9
330
1F
100
AcDbEntity
  8
0
100
AcDbPolygonMesh
 66
     1
 10
0.0
 20
0.0
 30
0.0
 70
    16
 71
     6
 72
     3
  0
VERTEX
  5
7EEA
330
7EE9
100
AcDbEntity
  8
0
100
AcDbVertex
100
AcDbPolygonMeshVertex
 10
-1642.235890933669
 20
1707.541936260762
 30
-283.5147947002423
 70
    64
  0
VERTEX
  5
7EEB
330
7EE9
100
AcDbEntity
  8
0
100
AcDbVertex
100
AcDbPolygonMeshVertex
 10
-1642.235890933669
 20
1707.541936260762
 30
-359.7147947002422
 70
    64
  0
VERTEX
  5
7EEC
330
7EE9
100
AcDbEntity
  8
0
100
AcDbVertex
100
AcDbPolygonMeshVertex
 10
-1642.235890933669
 20
1707.541936260762
 30
-359.7147947002422
 70
    64
  0
VERTEX
  5
7EED
330
7EE9
100
AcDbEntity
  8
0
100
AcDbVertex
100
AcDbPolygonMeshVertex
 10
-1644.775890933669
 20
1707.541936260762
 30
-283.5147947002423
 70
    64
  0
VERTEX
  5
7EEE
330
7EE9
100
AcDbEntity
  8
0
100
AcDbVertex
100
AcDbPolygonMeshVertex
 10
-1644.775890933669
 20
1707.541936260762
 30
-359.7147947002422
 70
    64
  0
VERTEX
  5
7EEF
330
7EE9
100
AcDbEntity
  8
0
100
AcDbVertex
100
AcDbPolygonMeshVertex
 10
-1644.775890933669
 20
1707.541936260762
 30
-359.7147947002422
 70
    64
  0
VERTEX
  5
7EF0
330
7EE9
100
AcDbEntity
  8
0
100
AcDbVertex
100
AcDbPolygonMeshVertex
 10
-1644.775890933669
 20
1702.461936260761
 30
-283.5147947002423
 70
    64
  0
VERTEX
  5
7EF1
330
7EE9
100
AcDbEntity
  8
0
100
AcDbVertex
100
AcDbPolygonMeshVertex
 10
-1644.775890933669
 20
1702.461936260761
 30
-359.7147947002422
 70
    64
  0
VERTEX
  5
7EF2
330
7EE9
100
AcDbEntity
  8
0
100
AcDbVertex
100
AcDbPolygonMeshVertex
 10
-1644.775890933669
 20
1707.541936260762
 30
-359.7147947002422
 70
    64
  0
VERTEX
  5
7EF3
330
7EE9
100
AcDbEntity
  8
0
100
AcDbVertex
100
AcDbPolygonMeshVertex
 10
-1642.235890933669
 20
1702.461936260761
 30
-283.5147947002423
 70
    64
  0
VERTEX
  5
7EF4
330
7EE9
100
AcDbEntity
  8
0
100
AcDbVertex
100
AcDbPolygonMeshVertex
 10
-1642.235890933669
 20
1702.461936260761
 30
-359.7147947002422
 70
    64
  0
VERTEX
  5
7EF5
330
7EE9
100
AcDbEntity
  8
0
100
AcDbVertex
100
AcDbPolygonMeshVertex
 10
-1642.235890933669
 20
1707.541936260762
 30
-359.7147947002422
 70
    64
  0
VERTEX
  5
7EF6
330
7EE9
100
AcDbEntity
  8
0
100
AcDbVertex
100
AcDbPolygonMeshVertex
 10
-1642.235890933669
 20
1702.461936260761
 30
-283.5147947002423
 70
    64
  0
VERTEX
  5
7EF7
330
7EE9
100
AcDbEntity
  8
0
100
AcDbVertex
100
AcDbPolygonMeshVertex
 10
-1642.235890933669
 20
1702.461936260761
 30
-283.5147947002423
 70
    64
  0
VERTEX
  5
7EF8
330
7EE9
100
AcDbEntity
  8
0
100
AcDbVertex
100
AcDbPolygonMeshVertex
 10
-1642.235890933669
 20
1707.541936260762
 30
-283.5147947002423
 70
    64
  0
VERTEX
  5
7EF9
330
7EE9
100
AcDbEntity
  8
0
100
AcDbVertex
100
AcDbPolygonMeshVertex
 10
-1644.775890933669
 20
1702.461936260761
 30
-283.5147947002423
 70
    64
  0
VERTEX
  5
7EFA
330
7EE9
100
AcDbEntity
  8
0
100
AcDbVertex
100
AcDbPolygonMeshVertex
 10
-1644.775890933669
 20
1702.461936260761
 30
-283.5147947002423
 70
    64
  0
VERTEX
  5
7EFB
330
7EE9
100
AcDbEntity
  8
0
100
AcDbVertex
100
AcDbPolygonMeshVertex
 10
-1644.775890933669
 20
1707.541936260762
 30
-283.5147947002423
 70
    64
  0
SEQEND
  5
7EFC
330
7EE9
100
AcDbEntity
  8
0
  0
POLYLINE
  5
7EFD
330
1F
100
AcDbEntity
  8
0
100
AcDbPolygonMesh
 66
     1
 10
0.0
 20
0.0
 30
0.0
 70
    16
 71
     6
 72
     3
  0
VERTEX
  5
7EFE
330
7EFD
100
AcDbEntity
  8
0
100
AcDbVertex
100
AcDbPolygonMeshVertex
 10
-1647.061890933669
 20
1707.541936260762
 30
-283.5147947002423
 70
    64
  0
VERTEX
  5
7EFF
330
7EFD
100
AcDbEntity
  8
0
100
AcDbVertex
100
AcDbPolygonMeshVertex
 10
-1647.061890933669
 20
1707.541936260762
 30
-359.7147947002422
 70
    64
  0
VERTEX
  5
7F00
330
7EFD
100
AcDbEntity
  8
0
100
AcDbVertex
100
AcDbPolygonMeshVertex
 10
-1647.061890933669
 20
1707.541936260762
 30
-359.7147947002422
 70
    64
  0
VERTEX
  5
7F01
330
7EFD
100
AcDbEntity
  8
0
100
AcDbVertex
100
AcDbPolygonMeshVertex
 10
-1649.601890933669
 20
1707.541936260762
 30
-283.5147947002423
 70
    64
  0
VERTEX
  5
7F02
330
7EFD
100
AcDbEntity
  8
0
100
AcDbVertex
100
AcDbPolygonMeshVertex
 10
-1649.601890933669
 20
1707.541936260762
 30
-359.7147947002422
 70
    64
  0
VERTEX
  5
7F03
330
7EFD
100
AcDbEntity
  8
0
100
AcDbVertex
100
AcDbPolygonMeshVertex
 10
-1649.601890933669
 20
1707.541936260762
 30
-359.7147947002422
 70
    64
  0
VERTEX
  5
7F04
330
7EFD
100
AcDbEntity
  8
0
100
AcDbVertex
100
AcDbPolygonMeshVertex
 10
-1649.601890933669
 20
1702.461936260761
 30
-283.5147947002423
 70
    64
  0
VERTEX
  5
7F05
330
7EFD
100
AcDbEntity
  8
0
100
AcDbVertex
100
AcDbPolygonMeshVertex
 10
-1649.601890933669
 20
1702.461936260761
 30
-359.7147947002422
 70
    64
  0
VERTEX
  5
7F06
330
7EFD
100
AcDbEntity
  8
0
100
AcDbVertex
100
AcDbPolygonMeshVertex
 10
-1649.601890933669
 20
1707.541936260762
 30
-359.7147947002422
 70
    64
  0
VERTEX
  5
7F07
330
7EFD
100
AcDbEntity
  8
0
100
AcDbVertex
100
AcDbPolygonMeshVertex
 10
-1647.061890933669
 20
1702.461936260761
 30
-283.5147947002423
 70
    64
  0
VERTEX
  5
7F08
330
7EFD
100
AcDbEntity
  8
0
100
AcDbVertex
100
AcDbPolygonMeshVertex
 10
-1647.061890933669
 20
1702.461936260761
 30
-359.7147947002422
 70
    64
  0
VERTEX
  5
7F09
330
7EFD
100
AcDbEntity
  8
0
100
AcDbVertex
100
AcDbPolygonMeshVertex
 10
-1647.061890933669
 20
1707.541936260762
 30
-359.7147947002422
 70
    64
  0
VERTEX
  5
7F0A
330
7EFD
100
AcDbEntity
  8
0
100
AcDbVertex
100
AcDbPolygonMeshVertex
 10
-1647.061890933669
 20
1702.461936260761
 30
-283.5147947002423
 70
    64
  0
VERTEX
  5
7F0B
330
7EFD
100
AcDbEntity
  8
0
100
AcDbVertex
100
AcDbPolygonMeshVertex
 10
-1647.061890933669
 20
1702.461936260761
 30
-283.5147947002423
 70
    64
  0
VERTEX
  5
7F0C
330
7EFD
100
AcDbEntity
  8
0
100
AcDbVertex
100
AcDbPolygonMeshVertex
 10
-1647.061890933669
 20
1707.541936260762
 30
-283.5147947002423
 70
    64
  0
VERTEX
  5
7F0D
330
7EFD
100
AcDbEntity
  8
0
100
AcDbVertex
100
AcDbPolygonMeshVertex
 10
-1649.601890933669
 20
1702.461936260761
 30
-283.5147947002423
 70
    64
  0
VERTEX
  5
7F0E
330
7EFD
100
AcDbEntity
  8
0
100
AcDbVertex
100
AcDbPolygonMeshVertex
 10
-1649.601890933669
 20
1702.461936260761
 30
-283.5147947002423
 70
    64
  0
VERTEX
  5
7F0F
330
7EFD
100
AcDbEntity
  8
0
100
AcDbVertex
100
AcDbPolygonMeshVertex
 10
-1649.601890933669
 20
1707.541936260762
 30
-283.5147947002423
 70
    64
  0
SEQEND
  5
7F10
330
7EFD
100
AcDbEntity
  8
0
  0
POLYLINE
  5
7F11
330
1F
100
AcDbEntity
  8
0
100
AcDbPolygonMesh
 66
     1
 10
0.0
 20
0.0
 30
0.0
 70
    16
 71
     6
 72
     3
  0
VERTEX
  5
7F12
330
7F11
100
AcDbEntity
  8
0
100
AcDbVertex
100
AcDbPolygonMeshVertex
 10
-1609.802851250116
 20
1707.541936260762
 30
-283.5147947002423
 70
    64
  0
VERTEX
  5
7F13
330
7F11
100
AcDbEntity
  8
0
100
AcDbVertex
100
AcDbPolygonMeshVertex
 10
-1609.802851250116
 20
1707.541936260762
 30
-359.7147947002422
 70
    64
  0
VERTEX
  5
7F14
330
7F11
100
AcDbEntity
  8
0
100
AcDbVertex
100
AcDbPolygonMeshVertex
 10
-1609.802851250116
 20
1707.541936260762
 30
-359.7147947002422
 70
    64
  0
VERTEX
  5
7F15
330
7F11
100
AcDbEntity
  8
0
100
AcDbVertex
100
AcDbPolygonMeshVertex
 10
-1612.088851250116
 20
1707.541936260762
 30
-283.5147947002423
 70
    64
  0
VERTEX
  5
7F16
330
7F11
100
AcDbEntity
  8
0
100
AcDbVertex
100
AcDbPolygonMeshVertex
 10
-1612.088851250116
 20
1707.541936260762
 30
-359.7147947002422
 70
    64
  0
VERTEX
  5
7F17
330
7F11
100
AcDbEntity
  8
0
100
AcDbVertex
100
AcDbPolygonMeshVertex
 10
-1612.088851250116
 20
1707.541936260762
 30
-359.7147947002422
 70
    64
  0
VERTEX
  5
7F18
330
7F11
100
AcDbEntity
  8
0
100
AcDbVertex
100
AcDbPolygonMeshVertex
 10
-1612.088851250116
 20
1705.636936260762
 30
-283.5147947002423
 70
    64
  0
VERTEX
  5
7F19
330
7F11
100
AcDbEntity
  8
0
100
AcDbVertex
100
AcDbPolygonMeshVertex
 10
-1612.088851250116
 20
1705.636936260762
 30
-359.7147947002422
 70
    64
  0
VERTEX
  5
7F1A
330
7F11
100
AcDbEntity
  8
0
100
AcDbVertex
100
AcDbPolygonMeshVertex
 10
-1612.088851250116
 20
1707.541936260762
 30
-359.7147947002422
 70
    64
  0
VERTEX
  5
7F1B
330
7F11
100
AcDbEntity
  8
0
100
AcDbVertex
100
AcDbPolygonMeshVertex
 10
-1609.802851250116
 20
1705.636936260762
 30
-283.5147947002423
 70
    64
  0
VERTEX
  5
7F1C
330
7F11
100
AcDbEntity
  8
0
100
AcDbVertex
100
AcDbPolygonMeshVertex
 10
-1609.802851250116
 20
1705.636936260762
 30
-359.7147947002422
 70
    64
  0
VERTEX
  5
7F1D
330
7F11
100
AcDbEntity
  8
0
100
AcDbVertex
100
AcDbPolygonMeshVertex
 10
-1609.802851250116
 20
1707.541936260762
 30
-359.7147947002422
 70
    64
  0
VERTEX
  5
7F1E
330
7F11
100
AcDbEntity
  8
0
100
AcDbVertex
100
AcDbPolygonMeshVertex
 10
-1609.802851250116
 20
1705.636936260762
 30
-283.5147947002423
 70
    64
  0
VERTEX
  5
7F1F
330
7F11
100
AcDbEntity
  8
0
100
AcDbVertex
100
AcDbPolygonMeshVertex
 10
-1609.802851250116
 20
1705.636936260762
 30
-283.5147947002423
 70
    64
  0
VERTEX
  5
7F20
330
7F11
100
AcDbEntity
  8
0
100
AcDbVertex
100
AcDbPolygonMeshVertex
 10
-1609.802851250116
 20
1707.541936260762
 30
-283.5147947002423
 70
    64
  0
VERTEX
  5
7F21
330
7F11
100
AcDbEntity
  8
0
100
AcDbVertex
100
AcDbPolygonMeshVertex
 10
-1612.088851250116
 20
1705.636936260762
 30
-283.5147947002423
 70
    64
  0
VERTEX
  5
7F22
330
7F11
100
AcDbEntity
  8
0
100
AcDbVertex
100
AcDbPolygonMeshVertex
 10
-1612.088851250116
 20
1705.636936260762
 30
-283.5147947002423
 70
    64
  0
VERTEX
  5
7F23
330
7F11
100
AcDbEntity
  8
0
100
AcDbVertex
100
AcDbPolygonMeshVertex
 10
-1612.088851250116
 20
1707.541936260762
 30
-283.5147947002423
 70
    64
  0
SEQEND
  5
7F24
330
7F11
100
AcDbEntity
  8
0
  0
POLYLINE
  5
7F25
330
1F
100
AcDbEntity
  8
0
100
AcDbPolygonMesh
 66
     1
 10
0.0
 20
0.0
 30
0.0
 70
    16
 71
     6
 72
     3
  0
VERTEX
  5
7F26
330
7F25
100
AcDbEntity
  8
0
100
AcDbVertex
100
AcDbPolygonMeshVertex
 10
-1607.262851250116
 20
1707.541936260762
 30
-283.5147947002423
 70
    64
  0
VERTEX
  5
7F27
330
7F25
100
AcDbEntity
  8
0
100
AcDbVertex
100
AcDbPolygonMeshVertex
 10
-1607.262851250116
 20
1707.541936260762
 30
-359.7147947002422
 70
    64
  0
VERTEX
  5
7F28
330
7F25
100
AcDbEntity
  8
0
100
AcDbVertex
100
AcDbPolygonMeshVertex
 10
-1607.262851250116
 20
1707.541936260762
 30
-359.7147947002422
 70
    64
  0
VERTEX
  5
7F29
330
7F25
100
AcDbEntity
  8
0
100
AcDbVertex
100
AcDbPolygonMeshVertex
 10
-1609.802851250116
 20
1707.541936260762
 30
-283.5147947002423
 70
    64
  0
VERTEX
  5
7F2A
330
7F25
100
AcDbEntity
  8
0
100
AcDbVertex
100
AcDbPolygonMeshVertex
 10
-1609.802851250116
 20
1707.541936260762
 30
-359.7147947002422
 70
    64
  0
VERTEX
  5
7F2B
330
7F25
100
AcDbEntity
  8
0
100
AcDbVertex
100
AcDbPolygonMeshVertex
 10
-1609.802851250116
 20
1707.541936260762
 30
-359.7147947002422
 70
    64
  0
VERTEX
  5
7F2C
330
7F25
100
AcDbEntity
  8
0
100
AcDbVertex
100
AcDbPolygonMeshVertex
 10
-1609.802851250116
 20
1702.461936260761
 30
-283.5147947002423
 70
    64
  0
VERTEX
  5
7F2D
330
7F25
100
AcDbEntity
  8
0
100
AcDbVertex
100
AcDbPolygonMeshVertex
 10
-1609.802851250116
 20
1702.461936260761
 30
-359.7147947002422
 70
    64
  0
VERTEX
  5
7F2E
330
7F25
100
AcDbEntity
  8
0
100
AcDbVertex
100
AcDbPolygonMeshVertex
 10
-1609.802851250116
 20
1707.541936260762
 30
-359.7147947002422
 70
    64
  0
VERTEX
  5
7F2F
330
7F25
100
AcDbEntity
  8
0
100
AcDbVertex
100
AcDbPolygonMeshVertex
 10
-1607.262851250116
 20
1702.461936260761
 30
-283.5147947002423
 70
    64
  0
VERTEX
  5
7F30
330
7F25
100
AcDbEntity
  8
0
100
AcDbVertex
100
AcDbPolygonMeshVertex
 10
-1607.262851250116
 20
1702.461936260761
 30
-359.7147947002422
 70
    64
  0
VERTEX
  5
7F31
330
7F25
100
AcDbEntity
  8
0
100
AcDbVertex
100
AcDbPolygonMeshVertex
 10
-1607.262851250116
 20
1707.541936260762
 30
-359.7147947002422
 70
    64
  0
VERTEX
  5
7F32
330
7F25
100
AcDbEntity
  8
0
100
AcDbVertex
100
AcDbPolygonMeshVertex
 10
-1607.262851250116
 20
1702.461936260761
 30
-283.5147947002423
 70
    64
  0
VERTEX
  5
7F33
330
7F25
100
AcDbEntity
  8
0
100
AcDbVertex
100
AcDbPolygonMeshVertex
 10
-1607.262851250116
 20
1702.461936260761
 30
-283.5147947002423
 70
    64
  0
VERTEX
  5
7F34
330
7F25
100
AcDbEntity
  8
0
100
AcDbVertex
100
AcDbPolygonMeshVertex
 10
-1607.262851250116
 20
1707.541936260762
 30
-283.5147947002423
 70
    64
  0
VERTEX
  5
7F35
330
7F25
100
AcDbEntity
  8
0
100
AcDbVertex
100
AcDbPolygonMeshVertex
 10
-1609.802851250116
 20
1702.461936260761
 30
-283.5147947002423
 70
    64
  0
VERTEX
  5
7F36
330
7F25
100
AcDbEntity
  8
0
100
AcDbVertex
100
AcDbPolygonMeshVertex
 10
-1609.802851250116
 20
1702.461936260761
 30
-283.5147947002423
 70
    64
  0
VERTEX
  5
7F37
330
7F25
100
AcDbEntity
  8
0
100
AcDbVertex
100
AcDbPolygonMeshVertex
 10
-1609.802851250116
 20
1707.541936260762
 30
-283.5147947002423
 70
    64
  0
SEQEND
  5
7F38
330
7F25
100
AcDbEntity
  8
0
  0
POLYLINE
  5
7F39
330
1F
100
AcDbEntity
  8
0
100
AcDbPolygonMesh
 66
     1
 10
0.0
 20
0.0
 30
0.0
 70
    16
 71
     6
 72
     3
  0
VERTEX
  5
7F3A
330
7F39
100
AcDbEntity
  8
0
100
AcDbVertex
100
AcDbPolygonMeshVertex
 10
-1612.088851250116
 20
1707.541936260762
 30
-283.5147947002423
 70
    64
  0
VERTEX
  5
7F3B
330
7F39
100
AcDbEntity
  8
0
100
AcDbVertex
100
AcDbPolygonMeshVertex
 10
-1612.088851250116
 20
1707.541936260762
 30
-359.7147947002422
 70
    64
  0
VERTEX
  5
7F3C
330
7F39
100
AcDbEntity
  8
0
100
AcDbVertex
100
AcDbPolygonMeshVertex
 10
-1612.088851250116
 20
1707.541936260762
 30
-359.7147947002422
 70
    64
  0
VERTEX
  5
7F3D
330
7F39
100
AcDbEntity
  8
0
100
AcDbVertex
100
AcDbPolygonMeshVertex
 10
-1614.628851250116
 20
1707.541936260762
 30
-283.5147947002423
 70
    64
  0
VERTEX
  5
7F3E
330
7F39
100
AcDbEntity
  8
0
100
AcDbVertex
100
AcDbPolygonMeshVertex
 10
-1614.628851250116
 20
1707.541936260762
 30
-359.7147947002422
 70
    64
  0
VERTEX
  5
7F3F
330
7F39
100
AcDbEntity
  8
0
100
AcDbVertex
100
AcDbPolygonMeshVertex
 10
-1614.628851250116
 20
1707.541936260762
 30
-359.7147947002422
 70
    64
  0
VERTEX
  5
7F40
330
7F39
100
AcDbEntity
  8
0
100
AcDbVertex
100
AcDbPolygonMeshVertex
 10
-1614.628851250116
 20
1702.461936260761
 30
-283.5147947002423
 70
    64
  0
VERTEX
  5
7F41
330
7F39
100
AcDbEntity
  8
0
100
AcDbVertex
100
AcDbPolygonMeshVertex
 10
-1614.628851250116
 20
1702.461936260761
 30
-359.7147947002422
 70
    64
  0
VERTEX
  5
7F42
330
7F39
100
AcDbEntity
  8
0
100
AcDbVertex
100
AcDbPolygonMeshVertex
 10
-1614.628851250116
 20
1707.541936260762
 30
-359.7147947002422
 70
    64
  0
VERTEX
  5
7F43
330
7F39
100
AcDbEntity
  8
0
100
AcDbVertex
100
AcDbPolygonMeshVertex
 10
-1612.088851250116
 20
1702.461936260761
 30
-283.5147947002423
 70
    64
  0
VERTEX
  5
7F44
330
7F39
100
AcDbEntity
  8
0
100
AcDbVertex
100
AcDbPolygonMeshVertex
 10
-1612.088851250116
 20
1702.461936260761
 30
-359.7147947002422
 70
    64
  0
VERTEX
  5
7F45
330
7F39
100
AcDbEntity
  8
0
100
AcDbVertex
100
AcDbPolygonMeshVertex
 10
-1612.088851250116
 20
1707.541936260762
 30
-359.7147947002422
 70
    64
  0
VERTEX
  5
7F46
330
7F39
100
AcDbEntity
  8
0
100
AcDbVertex
100
AcDbPolygonMeshVertex
 10
-1612.088851250116
 20
1702.461936260761
 30
-283.5147947002423
 70
    64
  0
VERTEX
  5
7F47
330
7F39
100
AcDbEntity
  8
0
100
AcDbVertex
100
AcDbPolygonMeshVertex
 10
-1612.088851250116
 20
1702.461936260761
 30
-283.5147947002423
 70
    64
  0
VERTEX
  5
7F48
330
7F39
100
AcDbEntity
  8
0
100
AcDbVertex
100
AcDbPolygonMeshVertex
 10
-1612.088851250116
 20
1707.541936260762
 30
-283.5147947002423
 70
    64
  0
VERTEX
  5
7F49
330
7F39
100
AcDbEntity
  8
0
100
AcDbVertex
100
AcDbPolygonMeshVertex
 10
-1614.628851250116
 20
1702.461936260761
 30
-283.5147947002423
 70
    64
  0
VERTEX
  5
7F4A
330
7F39
100
AcDbEntity
  8
0
100
AcDbVertex
100
AcDbPolygonMeshVertex
 10
-1614.628851250116
 20
1702.461936260761
 30
-283.5147947002423
 70
    64
  0
VERTEX
  5
7F4B
330
7F39
100
AcDbEntity
  8
0
100
AcDbVertex
100
AcDbPolygonMeshVertex
 10
-1614.628851250116
 20
1707.541936260762
 30
-283.5147947002423
 70
    64
  0
SEQEND
  5
7F4C
330
7F39
100
AcDbEntity
  8
0
  0
POLYLINE
  5
7F4D
330
1F
100
AcDbEntity
  8
0
100
AcDbPolygonMesh
 66
     1
 10
0.0
 20
0.0
 30
0.0
 70
    16
 71
     6
 72
     3
  0
VERTEX
  5
7F4E
330
7F4D
100
AcDbEntity
  8
0
100
AcDbVertex
100
AcDbPolygonMeshVertex
 10
-1574.877074450858
 20
1707.541304747843
 30
-283.5147947002423
 70
    64
  0
VERTEX
  5
7F4F
330
7F4D
100
AcDbEntity
  8
0
100
AcDbVertex
100
AcDbPolygonMeshVertex
 10
-1574.877074450858
 20
1707.541304747843
 30
-359.7147947002422
 70
    64
  0
VERTEX
  5
7F50
330
7F4D
100
AcDbEntity
  8
0
100
AcDbVertex
100
AcDbPolygonMeshVertex
 10
-1574.877074450858
 20
1707.541304747843
 30
-359.7147947002422
 70
    64
  0
VERTEX
  5
7F51
330
7F4D
100
AcDbEntity
  8
0
100
AcDbVertex
100
AcDbPolygonMeshVertex
 10
-1577.163074450858
 20
1707.541304747843
 30
-283.5147947002423
 70
    64
  0
VERTEX
  5
7F52
330
7F4D
100
AcDbEntity
  8
0
100
AcDbVertex
100
AcDbPolygonMeshVertex
 10
-1577.163074450858
 20
1707.541304747843
 30
-359.7147947002422
 70
    64
  0
VERTEX
  5
7F53
330
7F4D
100
AcDbEntity
  8
0
100
AcDbVertex
100
AcDbPolygonMeshVertex
 10
-1577.163074450858
 20
1707.541304747843
 30
-359.7147947002422
 70
    64
  0
VERTEX
  5
7F54
330
7F4D
100
AcDbEntity
  8
0
100
AcDbVertex
100
AcDbPolygonMeshVertex
 10
-1577.163074450858
 20
1705.636304747843
 30
-283.5147947002423
 70
    64
  0
VERTEX
  5
7F55
330
7F4D
100
AcDbEntity
  8
0
100
AcDbVertex
100
AcDbPolygonMeshVertex
 10
-1577.163074450858
 20
1705.636304747843
 30
-359.7147947002422
 70
    64
  0
VERTEX
  5
7F56
330
7F4D
100
AcDbEntity
  8
0
100
AcDbVertex
100
AcDbPolygonMeshVertex
 10
-1577.163074450858
 20
1707.541304747843
 30
-359.7147947002422
 70
    64
  0
VERTEX
  5
7F57
330
7F4D
100
AcDbEntity
  8
0
100
AcDbVertex
100
AcDbPolygonMeshVertex
 10
-1574.877074450858
 20
1705.636304747843
 30
-283.5147947002423
 70
    64
  0
VERTEX
  5
7F58
330
7F4D
100
AcDbEntity
  8
0
100
AcDbVertex
100
AcDbPolygonMeshVertex
 10
-1574.877074450858
 20
1705.636304747843
 30
-359.7147947002422
 70
    64
  0
VERTEX
  5
7F59
330
7F4D
100
AcDbEntity
  8
0
100
AcDbVertex
100
AcDbPolygonMeshVertex
 10
-1574.877074450858
 20
1707.541304747843
 30
-359.7147947002422
 70
    64
  0
VERTEX
  5
7F5A
330
7F4D
100
AcDbEntity
  8
0
100
AcDbVertex
100
AcDbPolygonMeshVertex
 10
-1574.877074450858
 20
1705.636304747843
 30
-283.5147947002423
 70
    64
  0
VERTEX
  5
7F5B
330
7F4D
100
AcDbEntity
  8
0
100
AcDbVertex
100
AcDbPolygonMeshVertex
 10
-1574.877074450858
 20
1705.636304747843
 30
-283.5147947002423
 70
    64
  0
VERTEX
  5
7F5C
330
7F4D
100
AcDbEntity
  8
0
100
AcDbVertex
100
AcDbPolygonMeshVertex
 10
-1574.877074450858
 20
1707.541304747843
 30
-283.5147947002423
 70
    64
  0
VERTEX
  5
7F5D
330
7F4D
100
AcDbEntity
  8
0
100
AcDbVertex
100
AcDbPolygonMeshVertex
 10
-1577.163074450858
 20
1705.636304747843
 30
-283.5147947002423
 70
    64
  0
VERTEX
  5
7F5E
330
7F4D
100
AcDbEntity
  8
0
100
AcDbVertex
100
AcDbPolygonMeshVertex
 10
-1577.163074450858
 20
1705.636304747843
 30
-283.5147947002423
 70
    64
  0
VERTEX
  5
7F5F
330
7F4D
100
AcDbEntity
  8
0
100
AcDbVertex
100
AcDbPolygonMeshVertex
 10
-1577.163074450858
 20
1707.541304747843
 30
-283.5147947002423
 70
    64
  0
SEQEND
  5
7F60
330
7F4D
100
AcDbEntity
  8
0
  0
POLYLINE
  5
7F61
330
1F
100
AcDbEntity
  8
0
100
AcDbPolygonMesh
 66
     1
 10
0.0
 20
0.0
 30
0.0
 70
    16
 71
     6
 72
     3
  0
VERTEX
  5
7F62
330
7F61
100
AcDbEntity
  8
0
100
AcDbVertex
100
AcDbPolygonMeshVertex
 10
-1572.337074450858
 20
1707.541304747843
 30
-283.5147947002423
 70
    64
  0
VERTEX
  5
7F63
330
7F61
100
AcDbEntity
  8
0
100
AcDbVertex
100
AcDbPolygonMeshVertex
 10
-1572.337074450858
 20
1707.541304747843
 30
-359.7147947002422
 70
    64
  0
VERTEX
  5
7F64
330
7F61
100
AcDbEntity
  8
0
100
AcDbVertex
100
AcDbPolygonMeshVertex
 10
-1572.337074450858
 20
1707.541304747843
 30
-359.7147947002422
 70
    64
  0
VERTEX
  5
7F65
330
7F61
100
AcDbEntity
  8
0
100
AcDbVertex
100
AcDbPolygonMeshVertex
 10
-1574.877074450858
 20
1707.541304747843
 30
-283.5147947002423
 70
    64
  0
VERTEX
  5
7F66
330
7F61
100
AcDbEntity
  8
0
100
AcDbVertex
100
AcDbPolygonMeshVertex
 10
-1574.877074450858
 20
1707.541304747843
 30
-359.7147947002422
 70
    64
  0
VERTEX
  5
7F67
330
7F61
100
AcDbEntity
  8
0
100
AcDbVertex
100
AcDbPolygonMeshVertex
 10
-1574.877074450858
 20
1707.541304747843
 30
-359.7147947002422
 70
    64
  0
VERTEX
  5
7F68
330
7F61
100
AcDbEntity
  8
0
100
AcDbVertex
100
AcDbPolygonMeshVertex
 10
-1574.877074450858
 20
1702.461304747843
 30
-283.5147947002423
 70
    64
  0
VERTEX
  5
7F69
330
7F61
100
AcDbEntity
  8
0
100
AcDbVertex
100
AcDbPolygonMeshVertex
 10
-1574.877074450858
 20
1702.461304747843
 30
-359.7147947002422
 70
    64
  0
VERTEX
  5
7F6A
330
7F61
100
AcDbEntity
  8
0
100
AcDbVertex
100
AcDbPolygonMeshVertex
 10
-1574.877074450858
 20
1707.541304747843
 30
-359.7147947002422
 70
    64
  0
VERTEX
  5
7F6B
330
7F61
100
AcDbEntity
  8
0
100
AcDbVertex
100
AcDbPolygonMeshVertex
 10
-1572.337074450858
 20
1702.461304747843
 30
-283.5147947002423
 70
    64
  0
VERTEX
  5
7F6C
330
7F61
100
AcDbEntity
  8
0
100
AcDbVertex
100
AcDbPolygonMeshVertex
 10
-1572.337074450858
 20
1702.461304747843
 30
-359.7147947002422
 70
    64
  0
VERTEX
  5
7F6D
330
7F61
100
AcDbEntity
  8
0
100
AcDbVertex
100
AcDbPolygonMeshVertex
 10
-1572.337074450858
 20
1707.541304747843
 30
-359.7147947002422
 70
    64
  0
VERTEX
  5
7F6E
330
7F61
100
AcDbEntity
  8
0
100
AcDbVertex
100
AcDbPolygonMeshVertex
 10
-1572.337074450858
 20
1702.461304747843
 30
-283.5147947002423
 70
    64
  0
VERTEX
  5
7F6F
330
7F61
100
AcDbEntity
  8
0
100
AcDbVertex
100
AcDbPolygonMeshVertex
 10
-1572.337074450858
 20
1702.461304747843
 30
-283.5147947002423
 70
    64
  0
VERTEX
  5
7F70
330
7F61
100
AcDbEntity
  8
0
100
AcDbVertex
100
AcDbPolygonMeshVertex
 10
-1572.337074450858
 20
1707.541304747843
 30
-283.5147947002423
 70
    64
  0
VERTEX
  5
7F71
330
7F61
100
AcDbEntity
  8
0
100
AcDbVertex
100
AcDbPolygonMeshVertex
 10
-1574.877074450858
 20
1702.461304747843
 30
-283.5147947002423
 70
    64
  0
VERTEX
  5
7F72
330
7F61
100
AcDbEntity
  8
0
100
AcDbVertex
100
AcDbPolygonMeshVertex
 10
-1574.877074450858
 20
1702.461304747843
 30
-283.5147947002423
 70
    64
  0
VERTEX
  5
7F73
330
7F61
100
AcDbEntity
  8
0
100
AcDbVertex
100
AcDbPolygonMeshVertex
 10
-1574.877074450858
 20
1707.541304747843
 30
-283.5147947002423
 70
    64
  0
SEQEND
  5
7F74
330
7F61
100
AcDbEntity
  8
0
  0
POLYLINE
  5
7F75
330
1F
100
AcDbEntity
  8
0
100
AcDbPolygonMesh
 66
     1
 10
0.0
 20
0.0
 30
0.0
 70
    16
 71
     6
 72
     3
  0
VERTEX
  5
7F76
330
7F75
100
AcDbEntity
  8
0
100
AcDbVertex
100
AcDbPolygonMeshVertex
 10
-1577.163074450858
 20
1707.541304747843
 30
-283.5147947002423
 70
    64
  0
VERTEX
  5
7F77
330
7F75
100
AcDbEntity
  8
0
100
AcDbVertex
100
AcDbPolygonMeshVertex
 10
-1577.163074450858
 20
1707.541304747843
 30
-359.7147947002422
 70
    64
  0
VERTEX
  5
7F78
330
7F75
100
AcDbEntity
  8
0
100
AcDbVertex
100
AcDbPolygonMeshVertex
 10
-1577.163074450858
 20
1707.541304747843
 30
-359.7147947002422
 70
    64
  0
VERTEX
  5
7F79
330
7F75
100
AcDbEntity
  8
0
100
AcDbVertex
100
AcDbPolygonMeshVertex
 10
-1579.703074450858
 20
1707.541304747843
 30
-283.5147947002423
 70
    64
  0
VERTEX
  5
7F7A
330
7F75
100
AcDbEntity
  8
0
100
AcDbVertex
100
AcDbPolygonMeshVertex
 10
-1579.703074450858
 20
1707.541304747843
 30
-359.7147947002422
 70
    64
  0
VERTEX
  5
7F7B
330
7F75
100
AcDbEntity
  8
0
100
AcDbVertex
100
AcDbPolygonMeshVertex
 10
-1579.703074450858
 20
1707.541304747843
 30
-359.7147947002422
 70
    64
  0
VERTEX
  5
7F7C
330
7F75
100
AcDbEntity
  8
0
100
AcDbVertex
100
AcDbPolygonMeshVertex
 10
-1579.703074450858
 20
1702.461304747843
 30
-283.5147947002423
 70
    64
  0
VERTEX
  5
7F7D
330
7F75
100
AcDbEntity
  8
0
100
AcDbVertex
100
AcDbPolygonMeshVertex
 10
-1579.703074450858
 20
1702.461304747843
 30
-359.7147947002422
 70
    64
  0
VERTEX
  5
7F7E
330
7F75
100
AcDbEntity
  8
0
100
AcDbVertex
100
AcDbPolygonMeshVertex
 10
-1579.703074450858
 20
1707.541304747843
 30
-359.7147947002422
 70
    64
  0
VERTEX
  5
7F7F
330
7F75
100
AcDbEntity
  8
0
100
AcDbVertex
100
AcDbPolygonMeshVertex
 10
-1577.163074450858
 20
1702.461304747843
 30
-283.5147947002423
 70
    64
  0
VERTEX
  5
7F80
330
7F75
100
AcDbEntity
  8
0
100
AcDbVertex
100
AcDbPolygonMeshVertex
 10
-1577.163074450858
 20
1702.461304747843
 30
-359.7147947002422
 70
    64
  0
VERTEX
  5
7F81
330
7F75
100
AcDbEntity
  8
0
100
AcDbVertex
100
AcDbPolygonMeshVertex
 10
-1577.163074450858
 20
1707.541304747843
 30
-359.7147947002422
 70
    64
  0
VERTEX
  5
7F82
330
7F75
100
AcDbEntity
  8
0
100
AcDbVertex
100
AcDbPolygonMeshVertex
 10
-1577.163074450858
 20
1702.461304747843
 30
-283.5147947002423
 70
    64
  0
VERTEX
  5
7F83
330
7F75
100
AcDbEntity
  8
0
100
AcDbVertex
100
AcDbPolygonMeshVertex
 10
-1577.163074450858
 20
1702.461304747843
 30
-283.5147947002423
 70
    64
  0
VERTEX
  5
7F84
330
7F75
100
AcDbEntity
  8
0
100
AcDbVertex
100
AcDbPolygonMeshVertex
 10
-1577.163074450858
 20
1707.541304747843
 30
-283.5147947002423
 70
    64
  0
VERTEX
  5
7F85
330
7F75
100
AcDbEntity
  8
0
100
AcDbVertex
100
AcDbPolygonMeshVertex
 10
-1579.703074450858
 20
1702.461304747843
 30
-283.5147947002423
 70
    64
  0
VERTEX
  5
7F86
330
7F75
100
AcDbEntity
  8
0
100
AcDbVertex
100
AcDbPolygonMeshVertex
 10
-1579.703074450858
 20
1702.461304747843
 30
-283.5147947002423
 70
    64
  0
VERTEX
  5
7F87
330
7F75
100
AcDbEntity
  8
0
100
AcDbVertex
100
AcDbPolygonMeshVertex
 10
-1579.703074450858
 20
1707.541304747843
 30
-283.5147947002423
 70
    64
  0
SEQEND
  5
7F88
330
7F75
100
AcDbEntity
  8
0
  0
POLYLINE
  5
7F89
330
1F
100
AcDbEntity
  8
0
100
AcDbPolygonMesh
 66
     1
 10
0.0
 20
0.0
 30
0.0
 70
    16
 71
     6
 72
     3
  0
VERTEX
  5
7F8A
330
7F89
100
AcDbEntity
  8
0
100
AcDbVertex
100
AcDbPolygonMeshVertex
 10
-1539.951856350176
 20
1707.540437144499
 30
-283.5147947002423
 70
    64
  0
VERTEX
  5
7F8B
330
7F89
100
AcDbEntity
  8
0
100
AcDbVertex
100
AcDbPolygonMeshVertex
 10
-1539.951856350176
 20
1707.540437144499
 30
-359.7147947002422
 70
    64
  0
VERTEX
  5
7F8C
330
7F89
100
AcDbEntity
  8
0
100
AcDbVertex
100
AcDbPolygonMeshVertex
 10
-1539.951856350176
 20
1707.540437144499
 30
-359.7147947002422
 70
    64
  0
VERTEX
  5
7F8D
330
7F89
100
AcDbEntity
  8
0
100
AcDbVertex
100
AcDbPolygonMeshVertex
 10
-1542.237856350176
 20
1707.540437144499
 30
-283.5147947002423
 70
    64
  0
VERTEX
  5
7F8E
330
7F89
100
AcDbEntity
  8
0
100
AcDbVertex
100
AcDbPolygonMeshVertex
 10
-1542.237856350176
 20
1707.540437144499
 30
-359.7147947002422
 70
    64
  0
VERTEX
  5
7F8F
330
7F89
100
AcDbEntity
  8
0
100
AcDbVertex
100
AcDbPolygonMeshVertex
 10
-1542.237856350176
 20
1707.540437144499
 30
-359.7147947002422
 70
    64
  0
VERTEX
  5
7F90
330
7F89
100
AcDbEntity
  8
0
100
AcDbVertex
100
AcDbPolygonMeshVertex
 10
-1542.237856350176
 20
1705.635437144499
 30
-283.5147947002423
 70
    64
  0
VERTEX
  5
7F91
330
7F89
100
AcDbEntity
  8
0
100
AcDbVertex
100
AcDbPolygonMeshVertex
 10
-1542.237856350176
 20
1705.635437144499
 30
-359.7147947002422
 70
    64
  0
VERTEX
  5
7F92
330
7F89
100
AcDbEntity
  8
0
100
AcDbVertex
100
AcDbPolygonMeshVertex
 10
-1542.237856350176
 20
1707.540437144499
 30
-359.7147947002422
 70
    64
  0
VERTEX
  5
7F93
330
7F89
100
AcDbEntity
  8
0
100
AcDbVertex
100
AcDbPolygonMeshVertex
 10
-1539.951856350176
 20
1705.635437144499
 30
-283.5147947002423
 70
    64
  0
VERTEX
  5
7F94
330
7F89
100
AcDbEntity
  8
0
100
AcDbVertex
100
AcDbPolygonMeshVertex
 10
-1539.951856350176
 20
1705.635437144499
 30
-359.7147947002422
 70
    64
  0
VERTEX
  5
7F95
330
7F89
100
AcDbEntity
  8
0
100
AcDbVertex
100
AcDbPolygonMeshVertex
 10
-1539.951856350176
 20
1707.540437144499
 30
-359.7147947002422
 70
    64
  0
VERTEX
  5
7F96
330
7F89
100
AcDbEntity
  8
0
100
AcDbVertex
100
AcDbPolygonMeshVertex
 10
-1539.951856350176
 20
1705.635437144499
 30
-283.5147947002423
 70
    64
  0
VERTEX
  5
7F97
330
7F89
100
AcDbEntity
  8
0
100
AcDbVertex
100
AcDbPolygonMeshVertex
 10
-1539.951856350176
 20
1705.635437144499
 30
-283.5147947002423
 70
    64
  0
VERTEX
  5
7F98
330
7F89
100
AcDbEntity
  8
0
100
AcDbVertex
100
AcDbPolygonMeshVertex
 10
-1539.951856350176
 20
1707.540437144499
 30
-283.5147947002423
 70
    64
  0
VERTEX
  5
7F99
330
7F89
100
AcDbEntity
  8
0
100
AcDbVertex
100
AcDbPolygonMeshVertex
 10
-1542.237856350176
 20
1705.635437144499
 30
-283.5147947002423
 70
    64
  0
VERTEX
  5
7F9A
330
7F89
100
AcDbEntity
  8
0
100
AcDbVertex
100
AcDbPolygonMeshVertex
 10
-1542.237856350176
 20
1705.635437144499
 30
-283.5147947002423
 70
    64
  0
VERTEX
  5
7F9B
330
7F89
100
AcDbEntity
  8
0
100
AcDbVertex
100
AcDbPolygonMeshVertex
 10
-1542.237856350176
 20
1707.540437144499
 30
-283.5147947002423
 70
    64
  0
SEQEND
  5
7F9C
330
7F89
100
AcDbEntity
  8
0
  0
POLYLINE
  5
7F9D
330
1F
100
AcDbEntity
  8
0
100
AcDbPolygonMesh
 66
     1
 10
0.0
 20
0.0
 30
0.0
 70
    16
 71
     6
 72
     3
  0
VERTEX
  5
7F9E
330
7F9D
100
AcDbEntity
  8
0
100
AcDbVertex
100
AcDbPolygonMeshVertex
 10
-1537.411856350176
 20
1707.540437144499
 30
-283.5147947002423
 70
    64
  0
VERTEX
  5
7F9F
330
7F9D
100
AcDbEntity
  8
0
100
AcDbVertex
100
AcDbPolygonMeshVertex
 10
-1537.411856350176
 20
1707.540437144499
 30
-359.7147947002422
 70
    64
  0
VERTEX
  5
7FA0
330
7F9D
100
AcDbEntity
  8
0
100
AcDbVertex
100
AcDbPolygonMeshVertex
 10
-1537.411856350176
 20
1707.540437144499
 30
-359.7147947002422
 70
    64
  0
VERTEX
  5
7FA1
330
7F9D
100
AcDbEntity
  8
0
100
AcDbVertex
100
AcDbPolygonMeshVertex
 10
-1539.951856350176
 20
1707.540437144499
 30
-283.5147947002423
 70
    64
  0
VERTEX
  5
7FA2
330
7F9D
100
AcDbEntity
  8
0
100
AcDbVertex
100
AcDbPolygonMeshVertex
 10
-1539.951856350176
 20
1707.540437144499
 30
-359.7147947002422
 70
    64
  0
VERTEX
  5
7FA3
330
7F9D
100
AcDbEntity
  8
0
100
AcDbVertex
100
AcDbPolygonMeshVertex
 10
-1539.951856350176
 20
1707.540437144499
 30
-359.7147947002422
 70
    64
  0
VERTEX
  5
7FA4
330
7F9D
100
AcDbEntity
  8
0
100
AcDbVertex
100
AcDbPolygonMeshVertex
 10
-1539.951856350176
 20
1702.460437144499
 30
-283.5147947002423
 70
    64
  0
VERTEX
  5
7FA5
330
7F9D
100
AcDbEntity
  8
0
100
AcDbVertex
100
AcDbPolygonMeshVertex
 10
-1539.951856350176
 20
1702.460437144499
 30
-359.7147947002422
 70
    64
  0
VERTEX
  5
7FA6
330
7F9D
100
AcDbEntity
  8
0
100
AcDbVertex
100
AcDbPolygonMeshVertex
 10
-1539.951856350176
 20
1707.540437144499
 30
-359.7147947002422
 70
    64
  0
VERTEX
  5
7FA7
330
7F9D
100
AcDbEntity
  8
0
100
AcDbVertex
100
AcDbPolygonMeshVertex
 10
-1537.411856350176
 20
1702.460437144499
 30
-283.5147947002423
 70
    64
  0
VERTEX
  5
7FA8
330
7F9D
100
AcDbEntity
  8
0
100
AcDbVertex
100
AcDbPolygonMeshVertex
 10
-1537.411856350176
 20
1702.460437144499
 30
-359.7147947002422
 70
    64
  0
VERTEX
  5
7FA9
330
7F9D
100
AcDbEntity
  8
0
100
AcDbVertex
100
AcDbPolygonMeshVertex
 10
-1537.411856350176
 20
1707.540437144499
 30
-359.7147947002422
 70
    64
  0
VERTEX
  5
7FAA
330
7F9D
100
AcDbEntity
  8
0
100
AcDbVertex
100
AcDbPolygonMeshVertex
 10
-1537.411856350176
 20
1702.460437144499
 30
-283.5147947002423
 70
    64
  0
VERTEX
  5
7FAB
330
7F9D
100
AcDbEntity
  8
0
100
AcDbVertex
100
AcDbPolygonMeshVertex
 10
-1537.411856350176
 20
1702.460437144499
 30
-283.5147947002423
 70
    64
  0
VERTEX
  5
7FAC
330
7F9D
100
AcDbEntity
  8
0
100
AcDbVertex
100
AcDbPolygonMeshVertex
 10
-1537.411856350176
 20
1707.540437144499
 30
-283.5147947002423
 70
    64
  0
VERTEX
  5
7FAD
330
7F9D
100
AcDbEntity
  8
0
100
AcDbVertex
100
AcDbPolygonMeshVertex
 10
-1539.951856350176
 20
1702.460437144499
 30
-283.5147947002423
 70
    64
  0
VERTEX
  5
7FAE
330
7F9D
100
AcDbEntity
  8
0
100
AcDbVertex
100
AcDbPolygonMeshVertex
 10
-1539.951856350176
 20
1702.460437144499
 30
-283.5147947002423
 70
    64
  0
VERTEX
  5
7FAF
330
7F9D
100
AcDbEntity
  8
0
100
AcDbVertex
100
AcDbPolygonMeshVertex
 10
-1539.951856350176
 20
1707.540437144499
 30
-283.5147947002423
 70
    64
  0
SEQEND
  5
7FB0
330
7F9D
100
AcDbEntity
  8
0
  0
POLYLINE
  5
7FB1
330
1F
100
AcDbEntity
  8
0
100
AcDbPolygonMesh
 66
     1
 10
0.0
 20
0.0
 30
0.0
 70
    16
 71
     6
 72
     3
  0
VERTEX
  5
7FB2
330
7FB1
100
AcDbEntity
  8
0
100
AcDbVertex
100
AcDbPolygonMeshVertex
 10
-1542.237856350176
 20
1707.540437144499
 30
-283.5147947002423
 70
    64
  0
VERTEX
  5
7FB3
330
7FB1
100
AcDbEntity
  8
0
100
AcDbVertex
100
AcDbPolygonMeshVertex
 10
-1542.237856350176
 20
1707.540437144499
 30
-359.7147947002422
 70
    64
  0
VERTEX
  5
7FB4
330
7FB1
100
AcDbEntity
  8
0
100
AcDbVertex
100
AcDbPolygonMeshVertex
 10
-1542.237856350176
 20
1707.540437144499
 30
-359.7147947002422
 70
    64
  0
VERTEX
  5
7FB5
330
7FB1
100
AcDbEntity
  8
0
100
AcDbVertex
100
AcDbPolygonMeshVertex
 10
-1544.777856350176
 20
1707.540437144499
 30
-283.5147947002423
 70
    64
  0
VERTEX
  5
7FB6
330
7FB1
100
AcDbEntity
  8
0
100
AcDbVertex
100
AcDbPolygonMeshVertex
 10
-1544.777856350176
 20
1707.540437144499
 30
-359.7147947002422
 70
    64
  0
VERTEX
  5
7FB7
330
7FB1
100
AcDbEntity
  8
0
100
AcDbVertex
100
AcDbPolygonMeshVertex
 10
-1544.777856350176
 20
1707.540437144499
 30
-359.7147947002422
 70
    64
  0
VERTEX
  5
7FB8
330
7FB1
100
AcDbEntity
  8
0
100
AcDbVertex
100
AcDbPolygonMeshVertex
 10
-1544.777856350176
 20
1702.460437144499
 30
-283.5147947002423
 70
    64
  0
VERTEX
  5
7FB9
330
7FB1
100
AcDbEntity
  8
0
100
AcDbVertex
100
AcDbPolygonMeshVertex
 10
-1544.777856350176
 20
1702.460437144499
 30
-359.7147947002422
 70
    64
  0
VERTEX
  5
7FBA
330
7FB1
100
AcDbEntity
  8
0
100
AcDbVertex
100
AcDbPolygonMeshVertex
 10
-1544.777856350176
 20
1707.540437144499
 30
-359.7147947002422
 70
    64
  0
VERTEX
  5
7FBB
330
7FB1
100
AcDbEntity
  8
0
100
AcDbVertex
100
AcDbPolygonMeshVertex
 10
-1542.237856350176
 20
1702.460437144499
 30
-283.5147947002423
 70
    64
  0
VERTEX
  5
7FBC
330
7FB1
100
AcDbEntity
  8
0
100
AcDbVertex
100
AcDbPolygonMeshVertex
 10
-1542.237856350176
 20
1702.460437144499
 30
-359.7147947002422
 70
    64
  0
VERTEX
  5
7FBD
330
7FB1
100
AcDbEntity
  8
0
100
AcDbVertex
100
AcDbPolygonMeshVertex
 10
-1542.237856350176
 20
1707.540437144499
 30
-359.7147947002422
 70
    64
  0
VERTEX
  5
7FBE
330
7FB1
100
AcDbEntity
  8
0
100
AcDbVertex
100
AcDbPolygonMeshVertex
 10
-1542.237856350176
 20
1702.460437144499
 30
-283.5147947002423
 70
    64
  0
VERTEX
  5
7FBF
330
7FB1
100
AcDbEntity
  8
0
100
AcDbVertex
100
AcDbPolygonMeshVertex
 10
-1542.237856350176
 20
1702.460437144499
 30
-283.5147947002423
 70
    64
  0
VERTEX
  5
7FC0
330
7FB1
100
AcDbEntity
  8
0
100
AcDbVertex
100
AcDbPolygonMeshVertex
 10
-1542.237856350176
 20
1707.540437144499
 30
-283.5147947002423
 70
    64
  0
VERTEX
  5
7FC1
330
7FB1
100
AcDbEntity
  8
0
100
AcDbVertex
100
AcDbPolygonMeshVertex
 10
-1544.777856350176
 20
1702.460437144499
 30
-283.5147947002423
 70
    64
  0
VERTEX
  5
7FC2
330
7FB1
100
AcDbEntity
  8
0
100
AcDbVertex
100
AcDbPolygonMeshVertex
 10
-1544.777856350176
 20
1702.460437144499
 30
-283.5147947002423
 70
    64
  0
VERTEX
  5
7FC3
330
7FB1
100
AcDbEntity
  8
0
100
AcDbVertex
100
AcDbPolygonMeshVertex
 10
-1544.777856350176
 20
1707.540437144499
 30
-283.5147947002423
 70
    64
  0
SEQEND
  5
7FC4
330
7FB1
100
AcDbEntity
  8
0
  0
POLYLINE
  5
7FC5
330
1F
100
AcDbEntity
  8
0
100
AcDbPolygonMesh
 66
     1
 10
0.0
 20
0.0
 30
0.0
 70
    16
 71
     6
 72
     3
  0
VERTEX
  5
7FC6
330
7FC5
100
AcDbEntity
  8
0
100
AcDbVertex
100
AcDbPolygonMeshVertex
 10
-1676.331094455511
 20
1570.433366981574
 30
-263.1955979374609
 70
    64
  0
VERTEX
  5
7FC7
330
7FC5
100
AcDbEntity
  8
0
100
AcDbVertex
100
AcDbPolygonMeshVertex
 10
-1676.331094455511
 20
1570.433366981574
 30
-359.7147947002428
 70
    64
  0
VERTEX
  5
7FC8
330
7FC5
100
AcDbEntity
  8
0
100
AcDbVertex
100
AcDbPolygonMeshVertex
 10
-1676.331094455511
 20
1570.433366981574
 30
-359.7147947002428
 70
    64
  0
VERTEX
  5
7FC9
330
7FC5
100
AcDbEntity
  8
0
100
AcDbVertex
100
AcDbPolygonMeshVertex
 10
-1686.491094455511
 20
1570.433366981574
 30
-263.1955979374609
 70
    64
  0
VERTEX
  5
7FCA
330
7FC5
100
AcDbEntity
  8
0
100
AcDbVertex
100
AcDbPolygonMeshVertex
 10
-1686.491094455511
 20
1570.433366981574
 30
-359.7147947002428
 70
    64
  0
VERTEX
  5
7FCB
330
7FC5
100
AcDbEntity
  8
0
100
AcDbVertex
100
AcDbPolygonMeshVertex
 10
-1686.491094455511
 20
1570.433366981574
 30
-359.7147947002428
 70
    64
  0
VERTEX
  5
7FCC
330
7FC5
100
AcDbEntity
  8
0
100
AcDbVertex
100
AcDbPolygonMeshVertex
 10
-1686.491094455511
 20
1708.355366981574
 30
-263.1955979374609
 70
    64
  0
VERTEX
  5
7FCD
330
7FC5
100
AcDbEntity
  8
0
100
AcDbVertex
100
AcDbPolygonMeshVertex
 10
-1686.491094455511
 20
1708.355366981574
 30
-359.7147947002428
 70
    64
  0
VERTEX
  5
7FCE
330
7FC5
100
AcDbEntity
  8
0
100
AcDbVertex
100
AcDbPolygonMeshVertex
 10
-1686.491094455511
 20
1570.433366981574
 30
-359.7147947002428
 70
    64
  0
VERTEX
  5
7FCF
330
7FC5
100
AcDbEntity
  8
0
100
AcDbVertex
100
AcDbPolygonMeshVertex
 10
-1676.331094455511
 20
1708.355366981574
 30
-263.1955979374609
 70
    64
  0
VERTEX
  5
7FD0
330
7FC5
100
AcDbEntity
  8
0
100
AcDbVertex
100
AcDbPolygonMeshVertex
 10
-1676.331094455511
 20
1708.355366981574
 30
-359.7147947002428
 70
    64
  0
VERTEX
  5
7FD1
330
7FC5
100
AcDbEntity
  8
0
100
AcDbVertex
100
AcDbPolygonMeshVertex
 10
-1676.331094455511
 20
1570.433366981574
 30
-359.7147947002428
 70
    64
  0
VERTEX
  5
7FD2
330
7FC5
100
AcDbEntity
  8
0
100
AcDbVertex
100
AcDbPolygonMeshVertex
 10
-1676.331094455511
 20
1708.355366981574
 30
-263.1955979374609
 70
    64
  0
VERTEX
  5
7FD3
330
7FC5
100
AcDbEntity
  8
0
100
AcDbVertex
100
AcDbPolygonMeshVertex
 10
-1676.331094455511
 20
1708.355366981574
 30
-263.1955979374609
 70
    64
  0
VERTEX
  5
7FD4
330
7FC5
100
AcDbEntity
  8
0
100
AcDbVertex
100
AcDbPolygonMeshVertex
 10
-1676.331094455511
 20
1570.433366981574
 30
-263.1955979374609
 70
    64
  0
VERTEX
  5
7FD5
330
7FC5
100
AcDbEntity
  8
0
100
AcDbVertex
100
AcDbPolygonMeshVertex
 10
-1686.491094455511
 20
1708.355366981574
 30
-263.1955979374609
 70
    64
  0
VERTEX
  5
7FD6
330
7FC5
100
AcDbEntity
  8
0
100
AcDbVertex
100
AcDbPolygonMeshVertex
 10
-1686.491094455511
 20
1708.355366981574
 30
-263.1955979374609
 70
    64
  0
VERTEX
  5
7FD7
330
7FC5
100
AcDbEntity
  8
0
100
AcDbVertex
100
AcDbPolygonMeshVertex
 10
-1686.491094455511
 20
1570.433366981574
 30
-263.1955979374609
 70
    64
  0
SEQEND
  5
7FD8
330
7FC5
100
AcDbEntity
  8
0
  0
ARC
  5
7FD9
330
1F
100
AcDbEntity
  8
0
100
AcDbCircle
 39
1.016
 10
-1636.12654385908
 20
1719.785366981574
 30
-360.9847947002422
 40
2.7559
100
AcDbArc
 50
356.7827327525368
 51
183.217267247463
  0
ARC
  5
7FDA
330
1F
100
AcDbEntity
  8
0
100
AcDbCircle
 39
1.016
 10
-1636.12654385908
 20
1714.86949792131
 30
-360.9847947002422
 40
5.499100000000003
100
AcDbArc
 50
120.0241420378283
 51
59.97585796217167
  0
POLYLINE
  5
7FDB
330
1F
100
AcDbEntity
  8
0
100
AcDbPolygonMesh
 66
     1
 10
0.0
 20
0.0
 30
0.0
 70
    16
 71
     6
 72
     3
  0
VERTEX
  5
7FDC
330
7FDB
100
AcDbEntity
  8
0
100
AcDbVertex
100
AcDbPolygonMeshVertex
 10
-1630.61474385908
 20
1555.447366981574
 30
-359.9687947002423
 70
    64
  0
VERTEX
  5
7FDD
330
7FDB
100
AcDbEntity
  8
0
100
AcDbVertex
100
AcDbPolygonMeshVertex
 10
-1630.61474385908
 20
1555.447366981574
 30
-360.9847947002422
 70
    64
  0
VERTEX
  5
7FDE
330
7FDB
100
AcDbEntity
  8
0
100
AcDbVertex
100
AcDbPolygonMeshVertex
 10
-1630.61474385908
 20
1555.447366981574
 30
-360.9847947002422
 70
    64
  0
VERTEX
  5
7FDF
330
7FDB
100
AcDbEntity
  8
0
100
AcDbVertex
100
AcDbPolygonMeshVertex
 10
-1641.63834385908
 20
1555.447366981574
 30
-359.9687947002423
 70
    64
  0
VERTEX
  5
7FE0
330
7FDB
100
AcDbEntity
  8
0
100
AcDbVertex
100
AcDbPolygonMeshVertex
 10
-1641.63834385908
 20
1555.447366981574
 30
-360.9847947002422
 70
    64
  0
VERTEX
  5
7FE1
330
7FDB
100
AcDbEntity
  8
0
100
AcDbVertex
100
AcDbPolygonMeshVertex
 10
-1641.63834385908
 20
1555.447366981574
 30
-360.9847947002422
 70
    64
  0
VERTEX
  5
7FE2
330
7FDB
100
AcDbEntity
  8
0
100
AcDbVertex
100
AcDbPolygonMeshVertex
 10
-1641.63834385908
 20
1569.417366981574
 30
-359.9687947002423
 70
    64
  0
VERTEX
  5
7FE3
330
7FDB
100
AcDbEntity
  8
0
100
AcDbVertex
100
AcDbPolygonMeshVertex
 10
-1641.63834385908
 20
1569.417366981574
 30
-360.9847947002422
 70
    64
  0
VERTEX
  5
7FE4
330
7FDB
100
AcDbEntity
  8
0
100
AcDbVertex
100
AcDbPolygonMeshVertex
 10
-1641.63834385908
 20
1555.447366981574
 30
-360.9847947002422
 70
    64
  0
VERTEX
  5
7FE5
330
7FDB
100
AcDbEntity
  8
0
100
AcDbVertex
100
AcDbPolygonMeshVertex
 10
-1630.61474385908
 20
1569.417366981574
 30
-359.9687947002423
 70
    64
  0
VERTEX
  5
7FE6
330
7FDB
100
AcDbEntity
  8
0
100
AcDbVertex
100
AcDbPolygonMeshVertex
 10
-1630.61474385908
 20
1569.417366981574
 30
-360.9847947002422
 70
    64
  0
VERTEX
  5
7FE7
330
7FDB
100
AcDbEntity
  8
0
100
AcDbVertex
100
AcDbPolygonMeshVertex
 10
-1630.61474385908
 20
1555.447366981574
 30
-360.9847947002422
 70
    64
  0
VERTEX
  5
7FE8
330
7FDB
100
AcDbEntity
  8
0
100
AcDbVertex
100
AcDbPolygonMeshVertex
 10
-1630.61474385908
 20
1569.417366981574
 30
-359.9687947002423
 70
    64
  0
VERTEX
  5
7FE9
330
7FDB
100
AcDbEntity
  8
0
100
AcDbVertex
100
AcDbPolygonMeshVertex
 10
-1630.61474385908
 20
1569.417366981574
 30
-359.9687947002423
 70
    64
  0
VERTEX
  5
7FEA
330
7FDB
100
AcDbEntity
  8
0
100
AcDbVertex
100
AcDbPolygonMeshVertex
 10
-1630.61474385908
 20
1555.447366981574
 30
-359.9687947002423
 70
    64
  0
VERTEX
  5
7FEB
330
7FDB
100
AcDbEntity
  8
0
100
AcDbVertex
100
AcDbPolygonMeshVertex
 10
-1641.63834385908
 20
1569.417366981574
 30
-359.9687947002423
 70
    64
  0
VERTEX
  5
7FEC
330
7FDB
100
AcDbEntity
  8
0
100
AcDbVertex
100
AcDbPolygonMeshVertex
 10
-1641.63834385908
 20
1569.417366981574
 30
-359.9687947002423
 70
    64
  0
VERTEX
  5
7FED
330
7FDB
100
AcDbEntity
  8
0
100
AcDbVertex
100
AcDbPolygonMeshVertex
 10
-1641.63834385908
 20
1555.447366981574
 30
-359.9687947002423
 70
    64
  0
SEQEND
  5
7FEE
330
7FDB
100
AcDbEntity
  8
0
  0
CIRCLE
  5
7FEF
330
1F
100
AcDbEntity
  8
0
100
AcDbCircle
 39
1.016
 10
-1636.12654385908
 20
1561.797366981574
 30
-360.9847947002422
 40
2.755899999999993
  0
POINT
  5
7FF0
330
1F
100
AcDbEntity
  8
SNAP_POINTS
100
AcDbPoint
 10
-1690.927552473194
 20
1573.786797702387
 30
-359.7147947002422
  0
POINT
  5
7FF1
330
1F
100
AcDbEntity
  8
SNAP_POINTS
100
AcDbPoint
 10
-1645.905706328431
 20
1573.151797702386
 30
-359.7147947002422
  0
POLYLINE
  5
7FF2
330
1F
100
AcDbEntity
  8
0
100
AcDbPolygonMesh
 66
     1
 10
0.0
 20
0.0
 30
0.0
 70
    16
 71
     6
 72
     3
  0
VERTEX
  5
7FF3
330
7FF2
100
AcDbEntity
  8
0
100
AcDbVertex
100
AcDbPolygonMeshVertex
 10
-1692.070396579311
 20
1653.491303779066
 30
-350.1897947002423
 70
    64
  0
VERTEX
  5
7FF4
330
7FF2
100
AcDbEntity
  8
0
100
AcDbVertex
100
AcDbPolygonMeshVertex
 10
-1692.070396579311
 20
1653.491303779066
 30
-359.7147947002423
 70
    64
  0
VERTEX
  5
7FF5
330
7FF2
100
AcDbEntity
  8
0
100
AcDbVertex
100
AcDbPolygonMeshVertex
 10
-1692.070396579311
 20
1653.491303779066
 30
-359.7147947002423
 70
    64
  0
VERTEX
  5
7FF6
330
7FF2
100
AcDbEntity
  8
0
100
AcDbVertex
100
AcDbPolygonMeshVertex
 10
-1701.404285177175
 20
1653.491303779066
 30
-350.1897947002423
 70
    64
  0
VERTEX
  5
7FF7
330
7FF2
100
AcDbEntity
  8
0
100
AcDbVertex
100
AcDbPolygonMeshVertex
 10
-1701.404285177175
 20
1653.491303779066
 30
-359.7147947002423
 70
    64
  0
VERTEX
  5
7FF8
330
7FF2
100
AcDbEntity
  8
0
100
AcDbVertex
100
AcDbPolygonMeshVertex
 10
-1701.404285177175
 20
1653.491303779066
 30
-359.7147947002423
 70
    64
  0
VERTEX
  5
7FF9
330
7FF2
100
AcDbEntity
  8
0
100
AcDbVertex
100
AcDbPolygonMeshVertex
 10
-1701.404285177175
 20
1694.130757289529
 30
-350.1897947002423
 70
    64
  0
VERTEX
  5
7FFA
330
7FF2
100
AcDbEntity
  8
0
100
AcDbVertex
100
AcDbPolygonMeshVertex
 10
-1701.404285177175
 20
1694.130757289529
 30
-359.7147947002423
 70
    64
  0
VERTEX
  5
7FFB
330
7FF2
100
AcDbEntity
  8
0
100
AcDbVertex
100
AcDbPolygonMeshVertex
 10
-1701.404285177175
 20
1653.491303779066
 30
-359.7147947002423
 70
    64
  0
VERTEX
  5
7FFC
330
7FF2
100
AcDbEntity
  8
0
100
AcDbVertex
100
AcDbPolygonMeshVertex
 10
-1692.070396579311
 20
1694.130757289529
 30
-350.1897947002423
 70
    64
  0
VERTEX
  5
7FFD
330
7FF2
100
AcDbEntity
  8
0
100
AcDbVertex
100
AcDbPolygonMeshVertex
 10
-1692.070396579311
 20
1694.130757289529
 30
-359.7147947002423
 70
    64
  0
VERTEX
  5
7FFE
330
7FF2
100
AcDbEntity
  8
0
100
AcDbVertex
100
AcDbPolygonMeshVertex
 10
-1692.070396579311
 20
1653.491303779066
 30
-359.7147947002423
 70
    64
  0
VERTEX
  5
7FFF
330
7FF2
100
AcDbEntity
  8
0
100
AcDbVertex
100
AcDbPolygonMeshVertex
 10
-1692.070396579311
 20
1694.130757289529
 30
-350.1897947002423
 70
    64
  0
VERTEX
  5
8000
330
7FF2
100
AcDbEntity
  8
0
100
AcDbVertex
100
AcDbPolygonMeshVertex
 10
-1692.070396579311
 20
1694.130757289529
 30
-350.1897947002423
 70
    64
  0
VERTEX
  5
8001
330
7FF2
100
AcDbEntity
  8
0
100
AcDbVertex
100
AcDbPolygonMeshVertex
 10
-1692.070396579311
 20
1653.491303779066
 30
-350.1897947002423
 70
    64
  0
VERTEX
  5
8002
330
7FF2
100
AcDbEntity
  8
0
100
AcDbVertex
100
AcDbPolygonMeshVertex
 10
-1701.404285177175
 20
1694.130757289529
 30
-350.1897947002423
 70
    64
  0
VERTEX
  5
8003
330
7FF2
100
AcDbEntity
  8
0
100
AcDbVertex
100
AcDbPolygonMeshVertex
 10
-1701.404285177175
 20
1694.130757289529
 30
-350.1897947002423
 70
    64
  0
VERTEX
  5
8004
330
7FF2
100
AcDbEntity
  8
0
100
AcDbVertex
100
AcDbPolygonMeshVertex
 10
-1701.404285177175
 20
1653.491303779066
 30
-350.1897947002423
 70
    64
  0
SEQEND
  5
8005
330
7FF2
100
AcDbEntity
  8
0
  0
POLYLINE
  5
8006
330
1F
100
AcDbEntity
  8
0
100
AcDbPolygonMesh
 66
     1
 10
0.0
 20
0.0
 30
0.0
 70
    16
 71
     6
 72
     3
  0
VERTEX
  5
8007
330
8006
100
AcDbEntity
  8
0
100
AcDbVertex
100
AcDbPolygonMeshVertex
 10
-1646.922783521871
 20
1653.491935291985
 30
-350.1897947002421
 70
    64
  0
VERTEX
  5
8008
330
8006
100
AcDbEntity
  8
0
100
AcDbVertex
100
AcDbPolygonMeshVertex
 10
-1646.922783521871
 20
1653.491935291985
 30
-359.7147947002422
 70
    64
  0
VERTEX
  5
8009
330
8006
100
AcDbEntity
  8
0
100
AcDbVertex
100
AcDbPolygonMeshVertex
 10
-1646.922783521871
 20
1653.491935291985
 30
-359.7147947002422
 70
    64
  0
VERTEX
  5
800A
330
8006
100
AcDbEntity
  8
0
100
AcDbVertex
100
AcDbPolygonMeshVertex
 10
-1657.082172119734
 20
1653.491935291985
 30
-350.1897947002421
 70
    64
  0
VERTEX
  5
800B
330
8006
100
AcDbEntity
  8
0
100
AcDbVertex
100
AcDbPolygonMeshVertex
 10
-1657.082172119734
 20
1653.491935291985
 30
-359.7147947002422
 70
    64
  0
VERTEX
  5
800C
330
8006
100
AcDbEntity
  8
0
100
AcDbVertex
100
AcDbPolygonMeshVertex
 10
-1657.082172119734
 20
1653.491935291985
 30
-359.7147947002422
 70
    64
  0
VERTEX
  5
800D
330
8006
100
AcDbEntity
  8
0
100
AcDbVertex
100
AcDbPolygonMeshVertex
 10
-1657.082172119734
 20
1694.131388802447
 30
-350.1897947002421
 70
    64
  0
VERTEX
  5
800E
330
8006
100
AcDbEntity
  8
0
100
AcDbVertex
100
AcDbPolygonMeshVertex
 10
-1657.082172119734
 20
1694.131388802447
 30
-359.7147947002422
 70
    64
  0
VERTEX
  5
800F
330
8006
100
AcDbEntity
  8
0
100
AcDbVertex
100
AcDbPolygonMeshVertex
 10
-1657.082172119734
 20
1653.491935291985
 30
-359.7147947002422
 70
    64
  0
VERTEX
  5
8010
330
8006
100
AcDbEntity
  8
0
100
AcDbVertex
100
AcDbPolygonMeshVertex
 10
-1646.922783521871
 20
1694.131388802447
 30
-350.1897947002421
 70
    64
  0
VERTEX
  5
8011
330
8006
100
AcDbEntity
  8
0
100
AcDbVertex
100
AcDbPolygonMeshVertex
 10
-1646.922783521871
 20
1694.131388802447
 30
-359.7147947002422
 70
    64
  0
VERTEX
  5
8012
330
8006
100
AcDbEntity
  8
0
100
AcDbVertex
100
AcDbPolygonMeshVertex
 10
-1646.922783521871
 20
1653.491935291985
 30
-359.7147947002422
 70
    64
  0
VERTEX
  5
8013
330
8006
100
AcDbEntity
  8
0
100
AcDbVertex
100
AcDbPolygonMeshVertex
 10
-1646.922783521871
 20
1694.131388802447
 30
-350.1897947002421
 70
    64
  0
VERTEX
  5
8014
330
8006
100
AcDbEntity
  8
0
100
AcDbVertex
100
AcDbPolygonMeshVertex
 10
-1646.922783521871
 20
1694.131388802447
 30
-350.1897947002421
 70
    64
  0
VERTEX
  5
8015
330
8006
100
AcDbEntity
  8
0
100
AcDbVertex
100
AcDbPolygonMeshVertex
 10
-1646.922783521871
 20
1653.491935291985
 30
-350.1897947002421
 70
    64
  0
VERTEX
  5
8016
330
8006
100
AcDbEntity
  8
0
100
AcDbVertex
100
AcDbPolygonMeshVertex
 10
-1657.082172119734
 20
1694.131388802447
 30
-350.1897947002421
 70
    64
  0
VERTEX
  5
8017
330
8006
100
AcDbEntity
  8
0
100
AcDbVertex
100
AcDbPolygonMeshVertex
 10
-1657.082172119734
 20
1694.131388802447
 30
-350.1897947002421
 70
    64
  0
VERTEX
  5
8018
330
8006
100
AcDbEntity
  8
0
100
AcDbVertex
100
AcDbPolygonMeshVertex
 10
-1657.082172119734
 20
1653.491935291985
 30
-350.1897947002421
 70
    64
  0
SEQEND
  5
8019
330
8006
100
AcDbEntity
  8
0
  0
POINT
  5
801A
330
1F
100
AcDbEntity
  8
SNAP_POINTS
100
AcDbPoint
 10
-1610.980706328432
 20
1573.151797702387
 30
-359.7147947002422
  0
POINT
  5
801B
330
1F
100
AcDbEntity
  8
SNAP_POINTS
100
AcDbPoint
 10
-1576.054929529174
 20
1573.151166189468
 30
-359.7147947002422
  0
POINT
  5
801C
330
1F
100
AcDbEntity
  8
SNAP_POINTS
100
AcDbPoint
 10
-1541.129711428491
 20
1573.150298586124
 30
-359.7147947002422
  0
POLYLINE
  5
801D
330
1F
100
AcDbEntity
  8
0
100
AcDbPolygonMesh
 66
     1
 10
0.0
 20
0.0
 30
0.0
 70
    16
 71
     6
 72
     3
  0
VERTEX
  5
801E
330
801D
100
AcDbEntity
  8
0
100
AcDbVertex
100
AcDbPolygonMeshVertex
 10
-1577.072783521871
 20
1653.491935291985
 30
-350.1897947002422
 70
    64
  0
VERTEX
  5
801F
330
801D
100
AcDbEntity
  8
0
100
AcDbVertex
100
AcDbPolygonMeshVertex
 10
-1577.072783521871
 20
1653.491935291985
 30
-359.7147947002422
 70
    64
  0
VERTEX
  5
8020
330
801D
100
AcDbEntity
  8
0
100
AcDbVertex
100
AcDbPolygonMeshVertex
 10
-1577.072783521871
 20
1653.491935291985
 30
-359.7147947002422
 70
    64
  0
VERTEX
  5
8021
330
801D
100
AcDbEntity
  8
0
100
AcDbVertex
100
AcDbPolygonMeshVertex
 10
-1587.232172119734
 20
1653.491935291985
 30
-350.1897947002422
 70
    64
  0
VERTEX
  5
8022
330
801D
100
AcDbEntity
  8
0
100
AcDbVertex
100
AcDbPolygonMeshVertex
 10
-1587.232172119734
 20
1653.491935291985
 30
-359.7147947002422
 70
    64
  0
VERTEX
  5
8023
330
801D
100
AcDbEntity
  8
0
100
AcDbVertex
100
AcDbPolygonMeshVertex
 10
-1587.232172119734
 20
1653.491935291985
 30
-359.7147947002422
 70
    64
  0
VERTEX
  5
8024
330
801D
100
AcDbEntity
  8
0
100
AcDbVertex
100
AcDbPolygonMeshVertex
 10
-1587.232172119734
 20
1694.131388802447
 30
-350.1897947002422
 70
    64
  0
VERTEX
  5
8025
330
801D
100
AcDbEntity
  8
0
100
AcDbVertex
100
AcDbPolygonMeshVertex
 10
-1587.232172119734
 20
1694.131388802447
 30
-359.7147947002422
 70
    64
  0
VERTEX
  5
8026
330
801D
100
AcDbEntity
  8
0
100
AcDbVertex
100
AcDbPolygonMeshVertex
 10
-1587.232172119734
 20
1653.491935291985
 30
-359.7147947002422
 70
    64
  0
VERTEX
  5
8027
330
801D
100
AcDbEntity
  8
0
100
AcDbVertex
100
AcDbPolygonMeshVertex
 10
-1577.072783521871
 20
1694.131388802447
 30
-350.1897947002422
 70
    64
  0
VERTEX
  5
8028
330
801D
100
AcDbEntity
  8
0
100
AcDbVertex
100
AcDbPolygonMeshVertex
 10
-1577.072783521871
 20
1694.131388802447
 30
-359.7147947002422
 70
    64
  0
VERTEX
  5
8029
330
801D
100
AcDbEntity
  8
0
100
AcDbVertex
100
AcDbPolygonMeshVertex
 10
-1577.072783521871
 20
1653.491935291985
 30
-359.7147947002422
 70
    64
  0
VERTEX
  5
802A
330
801D
100
AcDbEntity
  8
0
100
AcDbVertex
100
AcDbPolygonMeshVertex
 10
-1577.072783521871
 20
1694.131388802447
 30
-350.1897947002422
 70
    64
  0
VERTEX
  5
802B
330
801D
100
AcDbEntity
  8
0
100
AcDbVertex
100
AcDbPolygonMeshVertex
 10
-1577.072783521871
 20
1694.131388802447
 30
-350.1897947002422
 70
    64
  0
VERTEX
  5
802C
330
801D
100
AcDbEntity
  8
0
100
AcDbVertex
100
AcDbPolygonMeshVertex
 10
-1577.072783521871
 20
1653.491935291985
 30
-350.1897947002422
 70
    64
  0
VERTEX
  5
802D
330
801D
100
AcDbEntity
  8
0
100
AcDbVertex
100
AcDbPolygonMeshVertex
 10
-1587.232172119734
 20
1694.131388802447
 30
-350.1897947002422
 70
    64
  0
VERTEX
  5
802E
330
801D
100
AcDbEntity
  8
0
100
AcDbVertex
100
AcDbPolygonMeshVertex
 10
-1587.232172119734
 20
1694.131388802447
 30
-350.1897947002422
 70
    64
  0
VERTEX
  5
802F
330
801D
100
AcDbEntity
  8
0
100
AcDbVertex
100
AcDbPolygonMeshVertex
 10
-1587.232172119734
 20
1653.491935291985
 30
-350.1897947002422
 70
    64
  0
SEQEND
  5
8030
330
801D
100
AcDbEntity
  8
0
  0
POLYLINE
  5
8031
330
1F
100
AcDbEntity
  8
0
100
AcDbPolygonMesh
 66
     1
 10
0.0
 20
0.0
 30
0.0
 70
    16
 71
     6
 72
     3
  0
VERTEX
  5
8032
330
8031
100
AcDbEntity
  8
0
100
AcDbVertex
100
AcDbPolygonMeshVertex
 10
-1611.997783521871
 20
1653.491935291985
 30
-350.1897947002422
 70
    64
  0
VERTEX
  5
8033
330
8031
100
AcDbEntity
  8
0
100
AcDbVertex
100
AcDbPolygonMeshVertex
 10
-1611.997783521871
 20
1653.491935291985
 30
-359.7147947002422
 70
    64
  0
VERTEX
  5
8034
330
8031
100
AcDbEntity
  8
0
100
AcDbVertex
100
AcDbPolygonMeshVertex
 10
-1611.997783521871
 20
1653.491935291985
 30
-359.7147947002422
 70
    64
  0
VERTEX
  5
8035
330
8031
100
AcDbEntity
  8
0
100
AcDbVertex
100
AcDbPolygonMeshVertex
 10
-1622.157172119734
 20
1653.491935291985
 30
-350.1897947002422
 70
    64
  0
VERTEX
  5
8036
330
8031
100
AcDbEntity
  8
0
100
AcDbVertex
100
AcDbPolygonMeshVertex
 10
-1622.157172119734
 20
1653.491935291985
 30
-359.7147947002422
 70
    64
  0
VERTEX
  5
8037
330
8031
100
AcDbEntity
  8
0
100
AcDbVertex
100
AcDbPolygonMeshVertex
 10
-1622.157172119734
 20
1653.491935291985
 30
-359.7147947002422
 70
    64
  0
VERTEX
  5
8038
330
8031
100
AcDbEntity
  8
0
100
AcDbVertex
100
AcDbPolygonMeshVertex
 10
-1622.157172119734
 20
1694.131388802447
 30
-350.1897947002422
 70
    64
  0
VERTEX
  5
8039
330
8031
100
AcDbEntity
  8
0
100
AcDbVertex
100
AcDbPolygonMeshVertex
 10
-1622.157172119734
 20
1694.131388802447
 30
-359.7147947002422
 70
    64
  0
VERTEX
  5
803A
330
8031
100
AcDbEntity
  8
0
100
AcDbVertex
100
AcDbPolygonMeshVertex
 10
-1622.157172119734
 20
1653.491935291985
 30
-359.7147947002422
 70
    64
  0
VERTEX
  5
803B
330
8031
100
AcDbEntity
  8
0
100
AcDbVertex
100
AcDbPolygonMeshVertex
 10
-1611.997783521871
 20
1694.131388802447
 30
-350.1897947002422
 70
    64
  0
VERTEX
  5
803C
330
8031
100
AcDbEntity
  8
0
100
AcDbVertex
100
AcDbPolygonMeshVertex
 10
-1611.997783521871
 20
1694.131388802447
 30
-359.7147947002422
 70
    64
  0
VERTEX
  5
803D
330
8031
100
AcDbEntity
  8
0
100
AcDbVertex
100
AcDbPolygonMeshVertex
 10
-1611.997783521871
 20
1653.491935291985
 30
-359.7147947002422
 70
    64
  0
VERTEX
  5
803E
330
8031
100
AcDbEntity
  8
0
100
AcDbVertex
100
AcDbPolygonMeshVertex
 10
-1611.997783521871
 20
1694.131388802447
 30
-350.1897947002422
 70
    64
  0
VERTEX
  5
803F
330
8031
100
AcDbEntity
  8
0
100
AcDbVertex
100
AcDbPolygonMeshVertex
 10
-1611.997783521871
 20
1694.131388802447
 30
-350.1897947002422
 70
    64
  0
VERTEX
  5
8040
330
8031
100
AcDbEntity
  8
0
100
AcDbVertex
100
AcDbPolygonMeshVertex
 10
-1611.997783521871
 20
1653.491935291985
 30
-350.1897947002422
 70
    64
  0
VERTEX
  5
8041
330
8031
100
AcDbEntity
  8
0
100
AcDbVertex
100
AcDbPolygonMeshVertex
 10
-1622.157172119734
 20
1694.131388802447
 30
-350.1897947002422
 70
    64
  0
VERTEX
  5
8042
330
8031
100
AcDbEntity
  8
0
100
AcDbVertex
100
AcDbPolygonMeshVertex
 10
-1622.157172119734
 20
1694.131388802447
 30
-350.1897947002422
 70
    64
  0
VERTEX
  5
8043
330
8031
100
AcDbEntity
  8
0
100
AcDbVertex
100
AcDbPolygonMeshVertex
 10
-1622.157172119734
 20
1653.491935291985
 30
-350.1897947002422
 70
    64
  0
SEQEND
  5
8044
330
8031
100
AcDbEntity
  8
0
  0
POLYLINE
  5
8045
330
1F
100
AcDbEntity
  8
0
100
AcDbPolygonMesh
 66
     1
 10
0.0
 20
0.0
 30
0.0
 70
    16
 71
     6
 72
     3
  0
VERTEX
  5
8046
330
8045
100
AcDbEntity
  8
0
100
AcDbVertex
100
AcDbPolygonMeshVertex
 10
-1542.147783521871
 20
1653.491935291985
 30
-350.1897947002422
 70
    64
  0
VERTEX
  5
8047
330
8045
100
AcDbEntity
  8
0
100
AcDbVertex
100
AcDbPolygonMeshVertex
 10
-1542.147783521871
 20
1653.491935291985
 30
-359.7147947002422
 70
    64
  0
VERTEX
  5
8048
330
8045
100
AcDbEntity
  8
0
100
AcDbVertex
100
AcDbPolygonMeshVertex
 10
-1542.147783521871
 20
1653.491935291985
 30
-359.7147947002422
 70
    64
  0
VERTEX
  5
8049
330
8045
100
AcDbEntity
  8
0
100
AcDbVertex
100
AcDbPolygonMeshVertex
 10
-1552.307172119734
 20
1653.491935291985
 30
-350.1897947002422
 70
    64
  0
VERTEX
  5
804A
330
8045
100
AcDbEntity
  8
0
100
AcDbVertex
100
AcDbPolygonMeshVertex
 10
-1552.307172119734
 20
1653.491935291985
 30
-359.7147947002422
 70
    64
  0
VERTEX
  5
804B
330
8045
100
AcDbEntity
  8
0
100
AcDbVertex
100
AcDbPolygonMeshVertex
 10
-1552.307172119734
 20
1653.491935291985
 30
-359.7147947002422
 70
    64
  0
VERTEX
  5
804C
330
8045
100
AcDbEntity
  8
0
100
AcDbVertex
100
AcDbPolygonMeshVertex
 10
-1552.307172119734
 20
1694.131388802447
 30
-350.1897947002422
 70
    64
  0
VERTEX
  5
804D
330
8045
100
AcDbEntity
  8
0
100
AcDbVertex
100
AcDbPolygonMeshVertex
 10
-1552.307172119734
 20
1694.131388802447
 30
-359.7147947002422
 70
    64
  0
VERTEX
  5
804E
330
8045
100
AcDbEntity
  8
0
100
AcDbVertex
100
AcDbPolygonMeshVertex
 10
-1552.307172119734
 20
1653.491935291985
 30
-359.7147947002422
 70
    64
  0
VERTEX
  5
804F
330
8045
100
AcDbEntity
  8
0
100
AcDbVertex
100
AcDbPolygonMeshVertex
 10
-1542.147783521871
 20
1694.131388802447
 30
-350.1897947002422
 70
    64
  0
VERTEX
  5
8050
330
8045
100
AcDbEntity
  8
0
100
AcDbVertex
100
AcDbPolygonMeshVertex
 10
-1542.147783521871
 20
1694.131388802447
 30
-359.7147947002422
 70
    64
  0
VERTEX
  5
8051
330
8045
100
AcDbEntity
  8
0
100
AcDbVertex
100
AcDbPolygonMeshVertex
 10
-1542.147783521871
 20
1653.491935291985
 30
-359.7147947002422
 70
    64
  0
VERTEX
  5
8052
330
8045
100
AcDbEntity
  8
0
100
AcDbVertex
100
AcDbPolygonMeshVertex
 10
-1542.147783521871
 20
1694.131388802447
 30
-350.1897947002422
 70
    64
  0
VERTEX
  5
8053
330
8045
100
AcDbEntity
  8
0
100
AcDbVertex
100
AcDbPolygonMeshVertex
 10
-1542.147783521871
 20
1694.131388802447
 30
-350.1897947002422
 70
    64
  0
VERTEX
  5
8054
330
8045
100
AcDbEntity
  8
0
100
AcDbVertex
100
AcDbPolygonMeshVertex
 10
-1542.147783521871
 20
1653.491935291985
 30
-350.1897947002422
 70
    64
  0
VERTEX
  5
8055
330
8045
100
AcDbEntity
  8
0
100
AcDbVertex
100
AcDbPolygonMeshVertex
 10
-1552.307172119734
 20
1694.131388802447
 30
-350.1897947002422
 70
    64
  0
VERTEX
  5
8056
330
8045
100
AcDbEntity
  8
0
100
AcDbVertex
100
AcDbPolygonMeshVertex
 10
-1552.307172119734
 20
1694.131388802447
 30
-350.1897947002422
 70
    64
  0
VERTEX
  5
8057
330
8045
100
AcDbEntity
  8
0
100
AcDbVertex
100
AcDbPolygonMeshVertex
 10
-1552.307172119734
 20
1653.491935291985
 30
-350.1897947002422
 70
    64
  0
SEQEND
  5
8058
330
8045
100
AcDbEntity
  8
0
  0
LINE
  5
8059
330
1F
100
AcDbEntity
  8
0
100
AcDbLine
 10
-1641.63834385908
 20
1726.389366981574
 30
-360.9847947002422
 11
-1644.17834385908
 21
1726.389366981574
 31
-360.9847947002422
  0
LINE
  5
805A
330
1F
100
AcDbEntity
  8
0
100
AcDbLine
 10
-1641.63834385908
 20
1726.389366981574
 30
-359.9687947002423
 11
-1644.17834385908
 21
1726.389366981574
 31
-359.9687947002423
  0
LINE
  5
805B
330
1F
100
AcDbEntity
  8
0
100
AcDbLine
 10
-1628.07474385908
 20
1726.389366981574
 30
-360.9847947002422
 11
-1630.61474385908
 21
1726.389366981574
 31
-360.9847947002422
  0
POLYLINE
  5
805C
330
1F
100
AcDbEntity
  8
0
100
AcDbPolygonMesh
 66
     1
 10
0.0
 20
0.0
 30
0.0
 70
    16
 71
     6
 72
     3
  0
VERTEX
  5
805D
330
805C
100
AcDbEntity
  8
0
100
AcDbVertex
100
AcDbPolygonMeshVertex
 10
-1469.17234385908
 20
1709.371366981574
 30
-359.9687947002423
 70
    64
  0
VERTEX
  5
805E
330
805C
100
AcDbEntity
  8
0
100
AcDbVertex
100
AcDbPolygonMeshVertex
 10
-1469.17234385908
 20
1709.371366981574
 30
-360.9847947002422
 70
    64
  0
VERTEX
  5
805F
330
805C
100
AcDbEntity
  8
0
100
AcDbVertex
100
AcDbPolygonMeshVertex
 10
-1469.17234385908
 20
1709.371366981574
 30
-360.9847947002422
 70
    64
  0
VERTEX
  5
8060
330
805C
100
AcDbEntity
  8
0
100
AcDbVertex
100
AcDbPolygonMeshVertex
 10
-1469.17234385908
 20
1726.389366981574
 30
-359.9687947002423
 70
    64
  0
VERTEX
  5
8061
330
805C
100
AcDbEntity
  8
0
100
AcDbVertex
100
AcDbPolygonMeshVertex
 10
-1469.17234385908
 20
1726.389366981574
 30
-360.9847947002422
 70
    64
  0
VERTEX
  5
8062
330
805C
100
AcDbEntity
  8
0
100
AcDbVertex
100
AcDbPolygonMeshVertex
 10
-1469.17234385908
 20
1726.389366981574
 30
-360.9847947002422
 70
    64
  0
VERTEX
  5
8063
330
805C
100
AcDbEntity
  8
0
100
AcDbVertex
100
AcDbPolygonMeshVertex
 10
-1453.06874385908
 20
1726.389366981574
 30
-359.9687947002423
 70
    64
  0
VERTEX
  5
8064
330
805C
100
AcDbEntity
  8
0
100
AcDbVertex
100
AcDbPolygonMeshVertex
 10
-1453.06874385908
 20
1726.389366981574
 30
-360.9847947002422
 70
    64
  0
VERTEX
  5
8065
330
805C
100
AcDbEntity
  8
0
100
AcDbVertex
100
AcDbPolygonMeshVertex
 10
-1469.17234385908
 20
1726.389366981574
 30
-360.9847947002422
 70
    64
  0
VERTEX
  5
8066
330
805C
100
AcDbEntity
  8
0
100
AcDbVertex
100
AcDbPolygonMeshVertex
 10
-1453.06874385908
 20
1709.371366981574
 30
-359.9687947002423
 70
    64
  0
VERTEX
  5
8067
330
805C
100
AcDbEntity
  8
0
100
AcDbVertex
100
AcDbPolygonMeshVertex
 10
-1453.06874385908
 20
1709.371366981574
 30
-360.9847947002422
 70
    64
  0
VERTEX
  5
8068
330
805C
100
AcDbEntity
  8
0
100
AcDbVertex
100
AcDbPolygonMeshVertex
 10
-1469.17234385908
 20
1709.371366981574
 30
-360.9847947002422
 70
    64
  0
VERTEX
  5
8069
330
805C
100
AcDbEntity
  8
0
100
AcDbVertex
100
AcDbPolygonMeshVertex
 10
-1453.06874385908
 20
1709.371366981574
 30
-359.9687947002423
 70
    64
  0
VERTEX
  5
806A
330
805C
100
AcDbEntity
  8
0
100
AcDbVertex
100
AcDbPolygonMeshVertex
 10
-1453.06874385908
 20
1709.371366981574
 30
-359.9687947002423
 70
    64
  0
VERTEX
  5
806B
330
805C
100
AcDbEntity
  8
0
100
AcDbVertex
100
AcDbPolygonMeshVertex
 10
-1469.17234385908
 20
1709.371366981574
 30
-359.9687947002423
 70
    64
  0
VERTEX
  5
806C
330
805C
100
AcDbEntity
  8
0
100
AcDbVertex
100
AcDbPolygonMeshVertex
 10
-1453.06874385908
 20
1726.389366981574
 30
-359.9687947002423
 70
    64
  0
VERTEX
  5
806D
330
805C
100
AcDbEntity
  8
0
100
AcDbVertex
100
AcDbPolygonMeshVertex
 10
-1453.06874385908
 20
1726.389366981574
 30
-359.9687947002423
 70
    64
  0
VERTEX
  5
806E
330
805C
100
AcDbEntity
  8
0
100
AcDbVertex
100
AcDbPolygonMeshVertex
 10
-1469.17234385908
 20
1726.389366981574
 30
-359.9687947002423
 70
    64
  0
SEQEND
  5
806F
330
805C
100
AcDbEntity
  8
0
  0
POLYLINE
  5
8070
330
1F
100
AcDbEntity
  8
0
100
AcDbPolygonMesh
 66
     1
 10
0.0
 20
0.0
 30
0.0
 70
    16
 71
     6
 72
     3
  0
VERTEX
  5
8071
330
8070
100
AcDbEntity
  8
0
100
AcDbVertex
100
AcDbPolygonMeshVertex
 10
-1426.32254385908
 20
1569.417366981574
 30
-215.9507947002422
 70
    64
  0
VERTEX
  5
8072
330
8070
100
AcDbEntity
  8
0
100
AcDbVertex
100
AcDbPolygonMeshVertex
 10
-1426.32254385908
 20
1569.417366981574
 30
-360.9847947002422
 70
    64
  0
VERTEX
  5
8073
330
8070
100
AcDbEntity
  8
0
100
AcDbVertex
100
AcDbPolygonMeshVertex
 10
-1426.32254385908
 20
1569.417366981574
 30
-360.9847947002422
 70
    64
  0
VERTEX
  5
8074
330
8070
100
AcDbEntity
  8
0
100
AcDbVertex
100
AcDbPolygonMeshVertex
 10
-1426.32254385908
 20
1579.577366981574
 30
-215.9507947002422
 70
    64
  0
VERTEX
  5
8075
330
8070
100
AcDbEntity
  8
0
100
AcDbVertex
100
AcDbPolygonMeshVertex
 10
-1426.32254385908
 20
1579.577366981574
 30
-360.9847947002422
 70
    64
  0
VERTEX
  5
8076
330
8070
100
AcDbEntity
  8
0
100
AcDbVertex
100
AcDbPolygonMeshVertex
 10
-1426.32254385908
 20
1579.577366981574
 30
-360.9847947002422
 70
    64
  0
VERTEX
  5
8077
330
8070
100
AcDbEntity
  8
0
100
AcDbVertex
100
AcDbPolygonMeshVertex
 10
-1416.16254385908
 20
1579.577366981574
 30
-215.9507947002422
 70
    64
  0
VERTEX
  5
8078
330
8070
100
AcDbEntity
  8
0
100
AcDbVertex
100
AcDbPolygonMeshVertex
 10
-1416.16254385908
 20
1579.577366981574
 30
-360.9847947002422
 70
    64
  0
VERTEX
  5
8079
330
8070
100
AcDbEntity
  8
0
100
AcDbVertex
100
AcDbPolygonMeshVertex
 10
-1426.32254385908
 20
1579.577366981574
 30
-360.9847947002422
 70
    64
  0
VERTEX
  5
807A
330
8070
100
AcDbEntity
  8
0
100
AcDbVertex
100
AcDbPolygonMeshVertex
 10
-1426.32254385908
 20
1569.417366981574
 30
-215.9507947002422
 70
    64
  0
VERTEX
  5
807B
330
8070
100
AcDbEntity
  8
0
100
AcDbVertex
100
AcDbPolygonMeshVertex
 10
-1426.32254385908
 20
1569.417366981574
 30
-360.9847947002422
 70
    64
  0
VERTEX
  5
807C
330
8070
100
AcDbEntity
  8
0
100
AcDbVertex
100
AcDbPolygonMeshVertex
 10
-1426.32254385908
 20
1569.417366981574
 30
-360.9847947002422
 70
    64
  0
VERTEX
  5
807D
330
8070
100
AcDbEntity
  8
0
100
AcDbVertex
100
AcDbPolygonMeshVertex
 10
-1426.32254385908
 20
1569.417366981574
 30
-215.9507947002422
 70
    64
  0
VERTEX
  5
807E
330
8070
100
AcDbEntity
  8
0
100
AcDbVertex
100
AcDbPolygonMeshVertex
 10
-1426.32254385908
 20
1569.417366981574
 30
-215.9507947002422
 70
    64
  0
VERTEX
  5
807F
330
8070
100
AcDbEntity
  8
0
100
AcDbVertex
100
AcDbPolygonMeshVertex
 10
-1426.32254385908
 20
1569.417366981574
 30
-215.9507947002422
 70
    64
  0
VERTEX
  5
8080
330
8070
100
AcDbEntity
  8
0
100
AcDbVertex
100
AcDbPolygonMeshVertex
 10
-1416.16254385908
 20
1579.577366981574
 30
-215.9507947002422
 70
    64
  0
VERTEX
  5
8081
330
8070
100
AcDbEntity
  8
0
100
AcDbVertex
100
AcDbPolygonMeshVertex
 10
-1416.16254385908
 20
1579.577366981574
 30
-215.9507947002422
 70
    64
  0
VERTEX
  5
8082
330
8070
100
AcDbEntity
  8
0
100
AcDbVertex
100
AcDbPolygonMeshVertex
 10
-1426.32254385908
 20
1579.577366981574
 30
-215.9507947002422
 70
    64
  0
SEQEND
  5
8083
330
8070
100
AcDbEntity
  8
0
  0
POLYLINE
  5
8084
330
1F
100
AcDbEntity
  8
0
100
AcDbPolygonMesh
 66
     1
 10
0.0
 20
0.0
 30
0.0
 70
    16
 71
     6
 72
     3
  0
VERTEX
  5
8085
330
8084
100
AcDbEntity
  8
0
100
AcDbVertex
100
AcDbPolygonMeshVertex
 10
-1416.16254385908
 20
1699.211366981574
 30
-215.9507947002422
 70
    64
  0
VERTEX
  5
8086
330
8084
100
AcDbEntity
  8
0
100
AcDbVertex
100
AcDbPolygonMeshVertex
 10
-1416.16254385908
 20
1699.211366981574
 30
-360.9847947002422
 70
    64
  0
VERTEX
  5
8087
330
8084
100
AcDbEntity
  8
0
100
AcDbVertex
100
AcDbPolygonMeshVertex
 10
-1416.16254385908
 20
1699.211366981574
 30
-360.9847947002422
 70
    64
  0
VERTEX
  5
8088
330
8084
100
AcDbEntity
  8
0
100
AcDbVertex
100
AcDbPolygonMeshVertex
 10
-1426.32254385908
 20
1699.211366981574
 30
-215.9507947002422
 70
    64
  0
VERTEX
  5
8089
330
8084
100
AcDbEntity
  8
0
100
AcDbVertex
100
AcDbPolygonMeshVertex
 10
-1426.32254385908
 20
1699.211366981574
 30
-360.9847947002422
 70
    64
  0
VERTEX
  5
808A
330
8084
100
AcDbEntity
  8
0
100
AcDbVertex
100
AcDbPolygonMeshVertex
 10
-1426.32254385908
 20
1699.211366981574
 30
-360.9847947002422
 70
    64
  0
VERTEX
  5
808B
330
8084
100
AcDbEntity
  8
0
100
AcDbVertex
100
AcDbPolygonMeshVertex
 10
-1426.32254385908
 20
1709.371366981574
 30
-215.9507947002422
 70
    64
  0
VERTEX
  5
808C
330
8084
100
AcDbEntity
  8
0
100
AcDbVertex
100
AcDbPolygonMeshVertex
 10
-1426.32254385908
 20
1709.371366981574
 30
-360.9847947002422
 70
    64
  0
VERTEX
  5
808D
330
8084
100
AcDbEntity
  8
0
100
AcDbVertex
100
AcDbPolygonMeshVertex
 10
-1426.32254385908
 20
1699.211366981574
 30
-360.9847947002422
 70
    64
  0
VERTEX
  5
808E
330
8084
100
AcDbEntity
  8
0
100
AcDbVertex
100
AcDbPolygonMeshVertex
 10
-1416.16254385908
 20
1699.211366981574
 30
-215.9507947002422
 70
    64
  0
VERTEX
  5
808F
330
8084
100
AcDbEntity
  8
0
100
AcDbVertex
100
AcDbPolygonMeshVertex
 10
-1416.16254385908
 20
1699.211366981574
 30
-360.9847947002422
 70
    64
  0
VERTEX
  5
8090
330
8084
100
AcDbEntity
  8
0
100
AcDbVertex
100
AcDbPolygonMeshVertex
 10
-1416.16254385908
 20
1699.211366981574
 30
-360.9847947002422
 70
    64
  0
VERTEX
  5
8091
330
8084
100
AcDbEntity
  8
0
100
AcDbVertex
100
AcDbPolygonMeshVertex
 10
-1416.16254385908
 20
1699.211366981574
 30
-215.9507947002422
 70
    64
  0
VERTEX
  5
8092
330
8084
100
AcDbEntity
  8
0
100
AcDbVertex
100
AcDbPolygonMeshVertex
 10
-1416.16254385908
 20
1699.211366981574
 30
-215.9507947002422
 70
    64
  0
VERTEX
  5
8093
330
8084
100
AcDbEntity
  8
0
100
AcDbVertex
100
AcDbPolygonMeshVertex
 10
-1416.16254385908
 20
1699.211366981574
 30
-215.9507947002422
 70
    64
  0
VERTEX
  5
8094
330
8084
100
AcDbEntity
  8
0
100
AcDbVertex
100
AcDbPolygonMeshVertex
 10
-1426.32254385908
 20
1709.371366981574
 30
-215.9507947002422
 70
    64
  0
VERTEX
  5
8095
330
8084
100
AcDbEntity
  8
0
100
AcDbVertex
100
AcDbPolygonMeshVertex
 10
-1426.32254385908
 20
1709.371366981574
 30
-215.9507947002422
 70
    64
  0
VERTEX
  5
8096
330
8084
100
AcDbEntity
  8
0
100
AcDbVertex
100
AcDbPolygonMeshVertex
 10
-1426.32254385908
 20
1699.211366981574
 30
-215.9507947002422
 70
    64
  0
SEQEND
  5
8097
330
8084
100
AcDbEntity
  8
0
  0
POLYLINE
  5
8098
330
1F
100
AcDbEntity
  8
0
100
AcDbPolygonMesh
 66
     1
 10
0.0
 20
0.0
 30
0.0
 70
    16
 71
     6
 72
     3
  0
VERTEX
  5
8099
330
8098
100
AcDbEntity
  8
0
100
AcDbVertex
100
AcDbPolygonMeshVertex
 10
-1416.16254385908
 20
1579.577366981574
 30
-215.9507947002422
 70
    64
  0
VERTEX
  5
809A
330
8098
100
AcDbEntity
  8
0
100
AcDbVertex
100
AcDbPolygonMeshVertex
 10
-1416.16254385908
 20
1579.577366981574
 30
-360.9847947002422
 70
    64
  0
VERTEX
  5
809B
330
8098
100
AcDbEntity
  8
0
100
AcDbVertex
100
AcDbPolygonMeshVertex
 10
-1416.16254385908
 20
1579.577366981574
 30
-360.9847947002422
 70
    64
  0
VERTEX
  5
809C
330
8098
100
AcDbEntity
  8
0
100
AcDbVertex
100
AcDbPolygonMeshVertex
 10
-1426.32254385908
 20
1579.577366981574
 30
-215.9507947002422
 70
    64
  0
VERTEX
  5
809D
330
8098
100
AcDbEntity
  8
0
100
AcDbVertex
100
AcDbPolygonMeshVertex
 10
-1426.32254385908
 20
1579.577366981574
 30
-360.9847947002422
 70
    64
  0
VERTEX
  5
809E
330
8098
100
AcDbEntity
  8
0
100
AcDbVertex
100
AcDbPolygonMeshVertex
 10
-1426.32254385908
 20
1579.577366981574
 30
-360.9847947002422
 70
    64
  0
VERTEX
  5
809F
330
8098
100
AcDbEntity
  8
0
100
AcDbVertex
100
AcDbPolygonMeshVertex
 10
-1426.32254385908
 20
1699.211366981574
 30
-215.9507947002422
 70
    64
  0
VERTEX
  5
80A0
330
8098
100
AcDbEntity
  8
0
100
AcDbVertex
100
AcDbPolygonMeshVertex
 10
-1426.32254385908
 20
1699.211366981574
 30
-360.9847947002422
 70
    64
  0
VERTEX
  5
80A1
330
8098
100
AcDbEntity
  8
0
100
AcDbVertex
100
AcDbPolygonMeshVertex
 10
-1426.32254385908
 20
1579.577366981574
 30
-360.9847947002422
 70
    64
  0
VERTEX
  5
80A2
330
8098
100
AcDbEntity
  8
0
100
AcDbVertex
100
AcDbPolygonMeshVertex
 10
-1416.16254385908
 20
1699.211366981574
 30
-215.9507947002422
 70
    64
  0
VERTEX
  5
80A3
330
8098
100
AcDbEntity
  8
0
100
AcDbVertex
100
AcDbPolygonMeshVertex
 10
-1416.16254385908
 20
1699.211366981574
 30
-360.9847947002422
 70
    64
  0
VERTEX
  5
80A4
330
8098
100
AcDbEntity
  8
0
100
AcDbVertex
100
AcDbPolygonMeshVertex
 10
-1416.16254385908
 20
1579.577366981574
 30
-360.9847947002422
 70
    64
  0
VERTEX
  5
80A5
330
8098
100
AcDbEntity
  8
0
100
AcDbVertex
100
AcDbPolygonMeshVertex
 10
-1416.16254385908
 20
1699.211366981574
 30
-215.9507947002422
 70
    64
  0
VERTEX
  5
80A6
330
8098
100
AcDbEntity
  8
0
100
AcDbVertex
100
AcDbPolygonMeshVertex
 10
-1416.16254385908
 20
1699.211366981574
 30
-215.9507947002422
 70
    64
  0
VERTEX
  5
80A7
330
8098
100
AcDbEntity
  8
0
100
AcDbVertex
100
AcDbPolygonMeshVertex
 10
-1416.16254385908
 20
1579.577366981574
 30
-215.9507947002422
 70
    64
  0
VERTEX
  5
80A8
330
8098
100
AcDbEntity
  8
0
100
AcDbVertex
100
AcDbPolygonMeshVertex
 10
-1426.32254385908
 20
1699.211366981574
 30
-215.9507947002422
 70
    64
  0
VERTEX
  5
80A9
330
8098
100
AcDbEntity
  8
0
100
AcDbVertex
100
AcDbPolygonMeshVertex
 10
-1426.32254385908
 20
1699.211366981574
 30
-215.9507947002422
 70
    64
  0
VERTEX
  5
80AA
330
8098
100
AcDbEntity
  8
0
100
AcDbVertex
100
AcDbPolygonMeshVertex
 10
-1426.32254385908
 20
1579.577366981574
 30
-215.9507947002422
 70
    64
  0
SEQEND
  5
80AB
330
8098
100
AcDbEntity
  8
0
  0
POLYLINE
  5
80AC
330
1F
100
AcDbEntity
  8
0
100
AcDbPolygonMesh
 66
     1
 10
0.0
 20
0.0
 30
0.0
 70
    16
 71
     6
 72
     3
  0
VERTEX
  5
80AD
330
80AC
100
AcDbEntity
  8
0
100
AcDbVertex
100
AcDbPolygonMeshVertex
 10
-1507.343873448399
 20
1571.246102588271
 30
-283.5147947002423
 70
    64
  0
VERTEX
  5
80AE
330
80AC
100
AcDbEntity
  8
0
100
AcDbVertex
100
AcDbPolygonMeshVertex
 10
-1507.343873448399
 20
1571.246102588271
 30
-359.7147947002422
 70
    64
  0
VERTEX
  5
80AF
330
80AC
100
AcDbEntity
  8
0
100
AcDbVertex
100
AcDbPolygonMeshVertex
 10
-1507.343873448399
 20
1571.246102588271
 30
-359.7147947002422
 70
    64
  0
VERTEX
  5
80B0
330
80AC
100
AcDbEntity
  8
0
100
AcDbVertex
100
AcDbPolygonMeshVertex
 10
-1509.883873448399
 20
1571.246102588271
 30
-283.5147947002423
 70
    64
  0
VERTEX
  5
80B1
330
80AC
100
AcDbEntity
  8
0
100
AcDbVertex
100
AcDbPolygonMeshVertex
 10
-1509.883873448399
 20
1571.246102588271
 30
-359.7147947002422
 70
    64
  0
VERTEX
  5
80B2
330
80AC
100
AcDbEntity
  8
0
100
AcDbVertex
100
AcDbPolygonMeshVertex
 10
-1509.883873448399
 20
1571.246102588271
 30
-359.7147947002422
 70
    64
  0
VERTEX
  5
80B3
330
80AC
100
AcDbEntity
  8
0
100
AcDbVertex
100
AcDbPolygonMeshVertex
 10
-1509.883873448399
 20
1576.326102588271
 30
-283.5147947002423
 70
    64
  0
VERTEX
  5
80B4
330
80AC
100
AcDbEntity
  8
0
100
AcDbVertex
100
AcDbPolygonMeshVertex
 10
-1509.883873448399
 20
1576.326102588271
 30
-359.7147947002422
 70
    64
  0
VERTEX
  5
80B5
330
80AC
100
AcDbEntity
  8
0
100
AcDbVertex
100
AcDbPolygonMeshVertex
 10
-1509.883873448399
 20
1571.246102588271
 30
-359.7147947002422
 70
    64
  0
VERTEX
  5
80B6
330
80AC
100
AcDbEntity
  8
0
100
AcDbVertex
100
AcDbPolygonMeshVertex
 10
-1507.343873448399
 20
1576.326102588271
 30
-283.5147947002423
 70
    64
  0
VERTEX
  5
80B7
330
80AC
100
AcDbEntity
  8
0
100
AcDbVertex
100
AcDbPolygonMeshVertex
 10
-1507.343873448399
 20
1576.326102588271
 30
-359.7147947002422
 70
    64
  0
VERTEX
  5
80B8
330
80AC
100
AcDbEntity
  8
0
100
AcDbVertex
100
AcDbPolygonMeshVertex
 10
-1507.343873448399
 20
1571.246102588271
 30
-359.7147947002422
 70
    64
  0
VERTEX
  5
80B9
330
80AC
100
AcDbEntity
  8
0
100
AcDbVertex
100
AcDbPolygonMeshVertex
 10
-1507.343873448399
 20
1576.326102588271
 30
-283.5147947002423
 70
    64
  0
VERTEX
  5
80BA
330
80AC
100
AcDbEntity
  8
0
100
AcDbVertex
100
AcDbPolygonMeshVertex
 10
-1507.343873448399
 20
1576.326102588271
 30
-283.5147947002423
 70
    64
  0
VERTEX
  5
80BB
330
80AC
100
AcDbEntity
  8
0
100
AcDbVertex
100
AcDbPolygonMeshVertex
 10
-1507.343873448399
 20
1571.246102588271
 30
-283.5147947002423
 70
    64
  0
VERTEX
  5
80BC
330
80AC
100
AcDbEntity
  8
0
100
AcDbVertex
100
AcDbPolygonMeshVertex
 10
-1509.883873448399
 20
1576.326102588271
 30
-283.5147947002423
 70
    64
  0
VERTEX
  5
80BD
330
80AC
100
AcDbEntity
  8
0
100
AcDbVertex
100
AcDbPolygonMeshVertex
 10
-1509.883873448399
 20
1576.326102588271
 30
-283.5147947002423
 70
    64
  0
VERTEX
  5
80BE
330
80AC
100
AcDbEntity
  8
0
100
AcDbVertex
100
AcDbPolygonMeshVertex
 10
-1509.883873448399
 20
1571.246102588271
 30
-283.5147947002423
 70
    64
  0
SEQEND
  5
80BF
330
80AC
100
AcDbEntity
  8
0
  0
POLYLINE
  5
80C0
330
1F
100
AcDbEntity
  8
0
100
AcDbPolygonMesh
 66
     1
 10
0.0
 20
0.0
 30
0.0
 70
    16
 71
     6
 72
     3
  0
VERTEX
  5
80C1
330
80C0
100
AcDbEntity
  8
0
100
AcDbVertex
100
AcDbPolygonMeshVertex
 10
-1502.517873448399
 20
1571.246102588271
 30
-283.5147947002423
 70
    64
  0
VERTEX
  5
80C2
330
80C0
100
AcDbEntity
  8
0
100
AcDbVertex
100
AcDbPolygonMeshVertex
 10
-1502.517873448399
 20
1571.246102588271
 30
-359.7147947002422
 70
    64
  0
VERTEX
  5
80C3
330
80C0
100
AcDbEntity
  8
0
100
AcDbVertex
100
AcDbPolygonMeshVertex
 10
-1502.517873448399
 20
1571.246102588271
 30
-359.7147947002422
 70
    64
  0
VERTEX
  5
80C4
330
80C0
100
AcDbEntity
  8
0
100
AcDbVertex
100
AcDbPolygonMeshVertex
 10
-1505.057873448399
 20
1571.246102588271
 30
-283.5147947002423
 70
    64
  0
VERTEX
  5
80C5
330
80C0
100
AcDbEntity
  8
0
100
AcDbVertex
100
AcDbPolygonMeshVertex
 10
-1505.057873448399
 20
1571.246102588271
 30
-359.7147947002422
 70
    64
  0
VERTEX
  5
80C6
330
80C0
100
AcDbEntity
  8
0
100
AcDbVertex
100
AcDbPolygonMeshVertex
 10
-1505.057873448399
 20
1571.246102588271
 30
-359.7147947002422
 70
    64
  0
VERTEX
  5
80C7
330
80C0
100
AcDbEntity
  8
0
100
AcDbVertex
100
AcDbPolygonMeshVertex
 10
-1505.057873448399
 20
1576.326102588271
 30
-283.5147947002423
 70
    64
  0
VERTEX
  5
80C8
330
80C0
100
AcDbEntity
  8
0
100
AcDbVertex
100
AcDbPolygonMeshVertex
 10
-1505.057873448399
 20
1576.326102588271
 30
-359.7147947002422
 70
    64
  0
VERTEX
  5
80C9
330
80C0
100
AcDbEntity
  8
0
100
AcDbVertex
100
AcDbPolygonMeshVertex
 10
-1505.057873448399
 20
1571.246102588271
 30
-359.7147947002422
 70
    64
  0
VERTEX
  5
80CA
330
80C0
100
AcDbEntity
  8
0
100
AcDbVertex
100
AcDbPolygonMeshVertex
 10
-1502.517873448399
 20
1576.326102588271
 30
-283.5147947002423
 70
    64
  0
VERTEX
  5
80CB
330
80C0
100
AcDbEntity
  8
0
100
AcDbVertex
100
AcDbPolygonMeshVertex
 10
-1502.517873448399
 20
1576.326102588271
 30
-359.7147947002422
 70
    64
  0
VERTEX
  5
80CC
330
80C0
100
AcDbEntity
  8
0
100
AcDbVertex
100
AcDbPolygonMeshVertex
 10
-1502.517873448399
 20
1571.246102588271
 30
-359.7147947002422
 70
    64
  0
VERTEX
  5
80CD
330
80C0
100
AcDbEntity
  8
0
100
AcDbVertex
100
AcDbPolygonMeshVertex
 10
-1502.517873448399
 20
1576.326102588271
 30
-283.5147947002423
 70
    64
  0
VERTEX
  5
80CE
330
80C0
100
AcDbEntity
  8
0
100
AcDbVertex
100
AcDbPolygonMeshVertex
 10
-1502.517873448399
 20
1576.326102588271
 30
-283.5147947002423
 70
    64
  0
VERTEX
  5
80CF
330
80C0
100
AcDbEntity
  8
0
100
AcDbVertex
100
AcDbPolygonMeshVertex
 10
-1502.517873448399
 20
1571.246102588271
 30
-283.5147947002423
 70
    64
  0
VERTEX
  5
80D0
330
80C0
100
AcDbEntity
  8
0
100
AcDbVertex
100
AcDbPolygonMeshVertex
 10
-1505.057873448399
 20
1576.326102588271
 30
-283.5147947002423
 70
    64
  0
VERTEX
  5
80D1
330
80C0
100
AcDbEntity
  8
0
100
AcDbVertex
100
AcDbPolygonMeshVertex
 10
-1505.057873448399
 20
1576.326102588271
 30
-283.5147947002423
 70
    64
  0
VERTEX
  5
80D2
330
80C0
100
AcDbEntity
  8
0
100
AcDbVertex
100
AcDbPolygonMeshVertex
 10
-1505.057873448399
 20
1571.246102588271
 30
-283.5147947002423
 70
    64
  0
SEQEND
  5
80D3
330
80C0
100
AcDbEntity
  8
0
  0
POLYLINE
  5
80D4
330
1F
100
AcDbEntity
  8
0
100
AcDbPolygonMesh
 66
     1
 10
0.0
 20
0.0
 30
0.0
 70
    16
 71
     6
 72
     3
  0
VERTEX
  5
80D5
330
80D4
100
AcDbEntity
  8
0
100
AcDbVertex
100
AcDbPolygonMeshVertex
 10
-1505.057873448399
 20
1571.246102588271
 30
-283.5147947002423
 70
    64
  0
VERTEX
  5
80D6
330
80D4
100
AcDbEntity
  8
0
100
AcDbVertex
100
AcDbPolygonMeshVertex
 10
-1505.057873448399
 20
1571.246102588271
 30
-359.7147947002422
 70
    64
  0
VERTEX
  5
80D7
330
80D4
100
AcDbEntity
  8
0
100
AcDbVertex
100
AcDbPolygonMeshVertex
 10
-1505.057873448399
 20
1571.246102588271
 30
-359.7147947002422
 70
    64
  0
VERTEX
  5
80D8
330
80D4
100
AcDbEntity
  8
0
100
AcDbVertex
100
AcDbPolygonMeshVertex
 10
-1507.343873448399
 20
1571.246102588271
 30
-283.5147947002423
 70
    64
  0
VERTEX
  5
80D9
330
80D4
100
AcDbEntity
  8
0
100
AcDbVertex
100
AcDbPolygonMeshVertex
 10
-1507.343873448399
 20
1571.246102588271
 30
-359.7147947002422
 70
    64
  0
VERTEX
  5
80DA
330
80D4
100
AcDbEntity
  8
0
100
AcDbVertex
100
AcDbPolygonMeshVertex
 10
-1507.343873448399
 20
1571.246102588271
 30
-359.7147947002422
 70
    64
  0
VERTEX
  5
80DB
330
80D4
100
AcDbEntity
  8
0
100
AcDbVertex
100
AcDbPolygonMeshVertex
 10
-1507.343873448399
 20
1573.151102588271
 30
-283.5147947002423
 70
    64
  0
VERTEX
  5
80DC
330
80D4
100
AcDbEntity
  8
0
100
AcDbVertex
100
AcDbPolygonMeshVertex
 10
-1507.343873448399
 20
1573.151102588271
 30
-359.7147947002422
 70
    64
  0
VERTEX
  5
80DD
330
80D4
100
AcDbEntity
  8
0
100
AcDbVertex
100
AcDbPolygonMeshVertex
 10
-1507.343873448399
 20
1571.246102588271
 30
-359.7147947002422
 70
    64
  0
VERTEX
  5
80DE
330
80D4
100
AcDbEntity
  8
0
100
AcDbVertex
100
AcDbPolygonMeshVertex
 10
-1505.057873448399
 20
1573.151102588271
 30
-283.5147947002423
 70
    64
  0
VERTEX
  5
80DF
330
80D4
100
AcDbEntity
  8
0
100
AcDbVertex
100
AcDbPolygonMeshVertex
 10
-1505.057873448399
 20
1573.151102588271
 30
-359.7147947002422
 70
    64
  0
VERTEX
  5
80E0
330
80D4
100
AcDbEntity
  8
0
100
AcDbVertex
100
AcDbPolygonMeshVertex
 10
-1505.057873448399
 20
1571.246102588271
 30
-359.7147947002422
 70
    64
  0
VERTEX
  5
80E1
330
80D4
100
AcDbEntity
  8
0
100
AcDbVertex
100
AcDbPolygonMeshVertex
 10
-1505.057873448399
 20
1573.151102588271
 30
-283.5147947002423
 70
    64
  0
VERTEX
  5
80E2
330
80D4
100
AcDbEntity
  8
0
100
AcDbVertex
100
AcDbPolygonMeshVertex
 10
-1505.057873448399
 20
1573.151102588271
 30
-283.5147947002423
 70
    64
  0
VERTEX
  5
80E3
330
80D4
100
AcDbEntity
  8
0
100
AcDbVertex
100
AcDbPolygonMeshVertex
 10
-1505.057873448399
 20
1571.246102588271
 30
-283.5147947002423
 70
    64
  0
VERTEX
  5
80E4
330
80D4
100
AcDbEntity
  8
0
100
AcDbVertex
100
AcDbPolygonMeshVertex
 10
-1507.343873448399
 20
1573.151102588271
 30
-283.5147947002423
 70
    64
  0
VERTEX
  5
80E5
330
80D4
100
AcDbEntity
  8
0
100
AcDbVertex
100
AcDbPolygonMeshVertex
 10
-1507.343873448399
 20
1573.151102588271
 30
-283.5147947002423
 70
    64
  0
VERTEX
  5
80E6
330
80D4
100
AcDbEntity
  8
0
100
AcDbVertex
100
AcDbPolygonMeshVertex
 10
-1507.343873448399
 20
1571.246102588271
 30
-283.5147947002423
 70
    64
  0
SEQEND
  5
80E7
330
80D4
100
AcDbEntity
  8
0
  0
POLYLINE
  5
80E8
330
1F
100
AcDbEntity
  8
0
100
AcDbPolygonMesh
 66
     1
 10
0.0
 20
0.0
 30
0.0
 70
    16
 71
     6
 72
     3
  0
VERTEX
  5
80E9
330
80E8
100
AcDbEntity
  8
0
100
AcDbVertex
100
AcDbPolygonMeshVertex
 10
-1472.296706328431
 20
1571.246797702386
 30
-283.5147947002423
 70
    64
  0
VERTEX
  5
80EA
330
80E8
100
AcDbEntity
  8
0
100
AcDbVertex
100
AcDbPolygonMeshVertex
 10
-1472.296706328431
 20
1571.246797702386
 30
-359.7147947002422
 70
    64
  0
VERTEX
  5
80EB
330
80E8
100
AcDbEntity
  8
0
100
AcDbVertex
100
AcDbPolygonMeshVertex
 10
-1472.296706328431
 20
1571.246797702386
 30
-359.7147947002422
 70
    64
  0
VERTEX
  5
80EC
330
80E8
100
AcDbEntity
  8
0
100
AcDbVertex
100
AcDbPolygonMeshVertex
 10
-1474.836706328431
 20
1571.246797702386
 30
-283.5147947002423
 70
    64
  0
VERTEX
  5
80ED
330
80E8
100
AcDbEntity
  8
0
100
AcDbVertex
100
AcDbPolygonMeshVertex
 10
-1474.836706328431
 20
1571.246797702386
 30
-359.7147947002422
 70
    64
  0
VERTEX
  5
80EE
330
80E8
100
AcDbEntity
  8
0
100
AcDbVertex
100
AcDbPolygonMeshVertex
 10
-1474.836706328431
 20
1571.246797702386
 30
-359.7147947002422
 70
    64
  0
VERTEX
  5
80EF
330
80E8
100
AcDbEntity
  8
0
100
AcDbVertex
100
AcDbPolygonMeshVertex
 10
-1474.836706328431
 20
1576.326797702386
 30
-283.5147947002423
 70
    64
  0
VERTEX
  5
80F0
330
80E8
100
AcDbEntity
  8
0
100
AcDbVertex
100
AcDbPolygonMeshVertex
 10
-1474.836706328431
 20
1576.326797702386
 30
-359.7147947002422
 70
    64
  0
VERTEX
  5
80F1
330
80E8
100
AcDbEntity
  8
0
100
AcDbVertex
100
AcDbPolygonMeshVertex
 10
-1474.836706328431
 20
1571.246797702386
 30
-359.7147947002422
 70
    64
  0
VERTEX
  5
80F2
330
80E8
100
AcDbEntity
  8
0
100
AcDbVertex
100
AcDbPolygonMeshVertex
 10
-1472.296706328431
 20
1576.326797702386
 30
-283.5147947002423
 70
    64
  0
VERTEX
  5
80F3
330
80E8
100
AcDbEntity
  8
0
100
AcDbVertex
100
AcDbPolygonMeshVertex
 10
-1472.296706328431
 20
1576.326797702386
 30
-359.7147947002422
 70
    64
  0
VERTEX
  5
80F4
330
80E8
100
AcDbEntity
  8
0
100
AcDbVertex
100
AcDbPolygonMeshVertex
 10
-1472.296706328431
 20
1571.246797702386
 30
-359.7147947002422
 70
    64
  0
VERTEX
  5
80F5
330
80E8
100
AcDbEntity
  8
0
100
AcDbVertex
100
AcDbPolygonMeshVertex
 10
-1472.296706328431
 20
1576.326797702386
 30
-283.5147947002423
 70
    64
  0
VERTEX
  5
80F6
330
80E8
100
AcDbEntity
  8
0
100
AcDbVertex
100
AcDbPolygonMeshVertex
 10
-1472.296706328431
 20
1576.326797702386
 30
-283.5147947002423
 70
    64
  0
VERTEX
  5
80F7
330
80E8
100
AcDbEntity
  8
0
100
AcDbVertex
100
AcDbPolygonMeshVertex
 10
-1472.296706328431
 20
1571.246797702386
 30
-283.5147947002423
 70
    64
  0
VERTEX
  5
80F8
330
80E8
100
AcDbEntity
  8
0
100
AcDbVertex
100
AcDbPolygonMeshVertex
 10
-1474.836706328431
 20
1576.326797702386
 30
-283.5147947002423
 70
    64
  0
VERTEX
  5
80F9
330
80E8
100
AcDbEntity
  8
0
100
AcDbVertex
100
AcDbPolygonMeshVertex
 10
-1474.836706328431
 20
1576.326797702386
 30
-283.5147947002423
 70
    64
  0
VERTEX
  5
80FA
330
80E8
100
AcDbEntity
  8
0
100
AcDbVertex
100
AcDbPolygonMeshVertex
 10
-1474.836706328431
 20
1571.246797702386
 30
-283.5147947002423
 70
    64
  0
SEQEND
  5
80FB
330
80E8
100
AcDbEntity
  8
0
  0
POLYLINE
  5
80FC
330
1F
100
AcDbEntity
  8
0
100
AcDbPolygonMesh
 66
     1
 10
0.0
 20
0.0
 30
0.0
 70
    16
 71
     6
 72
     3
  0
VERTEX
  5
80FD
330
80FC
100
AcDbEntity
  8
0
100
AcDbVertex
100
AcDbPolygonMeshVertex
 10
-1467.470706328431
 20
1571.246797702386
 30
-283.5147947002423
 70
    64
  0
VERTEX
  5
80FE
330
80FC
100
AcDbEntity
  8
0
100
AcDbVertex
100
AcDbPolygonMeshVertex
 10
-1467.470706328431
 20
1571.246797702386
 30
-359.7147947002422
 70
    64
  0
VERTEX
  5
80FF
330
80FC
100
AcDbEntity
  8
0
100
AcDbVertex
100
AcDbPolygonMeshVertex
 10
-1467.470706328431
 20
1571.246797702386
 30
-359.7147947002422
 70
    64
  0
VERTEX
  5
8100
330
80FC
100
AcDbEntity
  8
0
100
AcDbVertex
100
AcDbPolygonMeshVertex
 10
-1470.010706328431
 20
1571.246797702386
 30
-283.5147947002423
 70
    64
  0
VERTEX
  5
8101
330
80FC
100
AcDbEntity
  8
0
100
AcDbVertex
100
AcDbPolygonMeshVertex
 10
-1470.010706328431
 20
1571.246797702386
 30
-359.7147947002422
 70
    64
  0
VERTEX
  5
8102
330
80FC
100
AcDbEntity
  8
0
100
AcDbVertex
100
AcDbPolygonMeshVertex
 10
-1470.010706328431
 20
1571.246797702386
 30
-359.7147947002422
 70
    64
  0
VERTEX
  5
8103
330
80FC
100
AcDbEntity
  8
0
100
AcDbVertex
100
AcDbPolygonMeshVertex
 10
-1470.010706328431
 20
1576.326797702386
 30
-283.5147947002423
 70
    64
  0
VERTEX
  5
8104
330
80FC
100
AcDbEntity
  8
0
100
AcDbVertex
100
AcDbPolygonMeshVertex
 10
-1470.010706328431
 20
1576.326797702386
 30
-359.7147947002422
 70
    64
  0
VERTEX
  5
8105
330
80FC
100
AcDbEntity
  8
0
100
AcDbVertex
100
AcDbPolygonMeshVertex
 10
-1470.010706328431
 20
1571.246797702386
 30
-359.7147947002422
 70
    64
  0
VERTEX
  5
8106
330
80FC
100
AcDbEntity
  8
0
100
AcDbVertex
100
AcDbPolygonMeshVertex
 10
-1467.470706328431
 20
1576.326797702386
 30
-283.5147947002423
 70
    64
  0
VERTEX
  5
8107
330
80FC
100
AcDbEntity
  8
0
100
AcDbVertex
100
AcDbPolygonMeshVertex
 10
-1467.470706328431
 20
1576.326797702386
 30
-359.7147947002422
 70
    64
  0
VERTEX
  5
8108
330
80FC
100
AcDbEntity
  8
0
100
AcDbVertex
100
AcDbPolygonMeshVertex
 10
-1467.470706328431
 20
1571.246797702386
 30
-359.7147947002422
 70
    64
  0
VERTEX
  5
8109
330
80FC
100
AcDbEntity
  8
0
100
AcDbVertex
100
AcDbPolygonMeshVertex
 10
-1467.470706328431
 20
1576.326797702386
 30
-283.5147947002423
 70
    64
  0
VERTEX
  5
810A
330
80FC
100
AcDbEntity
  8
0
100
AcDbVertex
100
AcDbPolygonMeshVertex
 10
-1467.470706328431
 20
1576.326797702386
 30
-283.5147947002423
 70
    64
  0
VERTEX
  5
810B
330
80FC
100
AcDbEntity
  8
0
100
AcDbVertex
100
AcDbPolygonMeshVertex
 10
-1467.470706328431
 20
1571.246797702386
 30
-283.5147947002423
 70
    64
  0
VERTEX
  5
810C
330
80FC
100
AcDbEntity
  8
0
100
AcDbVertex
100
AcDbPolygonMeshVertex
 10
-1470.010706328431
 20
1576.326797702386
 30
-283.5147947002423
 70
    64
  0
VERTEX
  5
810D
330
80FC
100
AcDbEntity
  8
0
100
AcDbVertex
100
AcDbPolygonMeshVertex
 10
-1470.010706328431
 20
1576.326797702386
 30
-283.5147947002423
 70
    64
  0
VERTEX
  5
810E
330
80FC
100
AcDbEntity
  8
0
100
AcDbVertex
100
AcDbPolygonMeshVertex
 10
-1470.010706328431
 20
1571.246797702386
 30
-283.5147947002423
 70
    64
  0
SEQEND
  5
810F
330
80FC
100
AcDbEntity
  8
0
  0
POLYLINE
  5
8110
330
1F
100
AcDbEntity
  8
0
100
AcDbPolygonMesh
 66
     1
 10
0.0
 20
0.0
 30
0.0
 70
    16
 71
     6
 72
     3
  0
VERTEX
  5
8111
330
8110
100
AcDbEntity
  8
0
100
AcDbVertex
100
AcDbPolygonMeshVertex
 10
-1470.010706328431
 20
1571.246797702386
 30
-283.5147947002423
 70
    64
  0
VERTEX
  5
8112
330
8110
100
AcDbEntity
  8
0
100
AcDbVertex
100
AcDbPolygonMeshVertex
 10
-1470.010706328431
 20
1571.246797702386
 30
-359.7147947002422
 70
    64
  0
VERTEX
  5
8113
330
8110
100
AcDbEntity
  8
0
100
AcDbVertex
100
AcDbPolygonMeshVertex
 10
-1470.010706328431
 20
1571.246797702386
 30
-359.7147947002422
 70
    64
  0
VERTEX
  5
8114
330
8110
100
AcDbEntity
  8
0
100
AcDbVertex
100
AcDbPolygonMeshVertex
 10
-1472.296706328431
 20
1571.246797702386
 30
-283.5147947002423
 70
    64
  0
VERTEX
  5
8115
330
8110
100
AcDbEntity
  8
0
100
AcDbVertex
100
AcDbPolygonMeshVertex
 10
-1472.296706328431
 20
1571.246797702386
 30
-359.7147947002422
 70
    64
  0
VERTEX
  5
8116
330
8110
100
AcDbEntity
  8
0
100
AcDbVertex
100
AcDbPolygonMeshVertex
 10
-1472.296706328431
 20
1571.246797702386
 30
-359.7147947002422
 70
    64
  0
VERTEX
  5
8117
330
8110
100
AcDbEntity
  8
0
100
AcDbVertex
100
AcDbPolygonMeshVertex
 10
-1472.296706328431
 20
1573.151797702386
 30
-283.5147947002423
 70
    64
  0
VERTEX
  5
8118
330
8110
100
AcDbEntity
  8
0
100
AcDbVertex
100
AcDbPolygonMeshVertex
 10
-1472.296706328431
 20
1573.151797702386
 30
-359.7147947002422
 70
    64
  0
VERTEX
  5
8119
330
8110
100
AcDbEntity
  8
0
100
AcDbVertex
100
AcDbPolygonMeshVertex
 10
-1472.296706328431
 20
1571.246797702386
 30
-359.7147947002422
 70
    64
  0
VERTEX
  5
811A
330
8110
100
AcDbEntity
  8
0
100
AcDbVertex
100
AcDbPolygonMeshVertex
 10
-1470.010706328431
 20
1573.151797702386
 30
-283.5147947002423
 70
    64
  0
VERTEX
  5
811B
330
8110
100
AcDbEntity
  8
0
100
AcDbVertex
100
AcDbPolygonMeshVertex
 10
-1470.010706328431
 20
1573.151797702386
 30
-359.7147947002422
 70
    64
  0
VERTEX
  5
811C
330
8110
100
AcDbEntity
  8
0
100
AcDbVertex
100
AcDbPolygonMeshVertex
 10
-1470.010706328431
 20
1571.246797702386
 30
-359.7147947002422
 70
    64
  0
VERTEX
  5
811D
330
8110
100
AcDbEntity
  8
0
100
AcDbVertex
100
AcDbPolygonMeshVertex
 10
-1470.010706328431
 20
1573.151797702386
 30
-283.5147947002423
 70
    64
  0
VERTEX
  5
811E
330
8110
100
AcDbEntity
  8
0
100
AcDbVertex
100
AcDbPolygonMeshVertex
 10
-1470.010706328431
 20
1573.151797702386
 30
-283.5147947002423
 70
    64
  0
VERTEX
  5
811F
330
8110
100
AcDbEntity
  8
0
100
AcDbVertex
100
AcDbPolygonMeshVertex
 10
-1470.010706328431
 20
1571.246797702386
 30
-283.5147947002423
 70
    64
  0
VERTEX
  5
8120
330
8110
100
AcDbEntity
  8
0
100
AcDbVertex
100
AcDbPolygonMeshVertex
 10
-1472.296706328431
 20
1573.151797702386
 30
-283.5147947002423
 70
    64
  0
VERTEX
  5
8121
330
8110
100
AcDbEntity
  8
0
100
AcDbVertex
100
AcDbPolygonMeshVertex
 10
-1472.296706328431
 20
1573.151797702386
 30
-283.5147947002423
 70
    64
  0
VERTEX
  5
8122
330
8110
100
AcDbEntity
  8
0
100
AcDbVertex
100
AcDbPolygonMeshVertex
 10
-1472.296706328431
 20
1571.246797702386
 30
-283.5147947002423
 70
    64
  0
SEQEND
  5
8123
330
8110
100
AcDbEntity
  8
0
  0
POLYLINE
  5
8124
330
1F
100
AcDbEntity
  8
0
100
AcDbPolygonMesh
 66
     1
 10
0.0
 20
0.0
 30
0.0
 70
    16
 71
     6
 72
     3
  0
VERTEX
  5
8125
330
8124
100
AcDbEntity
  8
0
100
AcDbVertex
100
AcDbPolygonMeshVertex
 10
-1437.371706328431
 20
1571.246797702386
 30
-283.5147947002423
 70
    64
  0
VERTEX
  5
8126
330
8124
100
AcDbEntity
  8
0
100
AcDbVertex
100
AcDbPolygonMeshVertex
 10
-1437.371706328431
 20
1571.246797702386
 30
-359.7147947002422
 70
    64
  0
VERTEX
  5
8127
330
8124
100
AcDbEntity
  8
0
100
AcDbVertex
100
AcDbPolygonMeshVertex
 10
-1437.371706328431
 20
1571.246797702386
 30
-359.7147947002422
 70
    64
  0
VERTEX
  5
8128
330
8124
100
AcDbEntity
  8
0
100
AcDbVertex
100
AcDbPolygonMeshVertex
 10
-1439.911706328431
 20
1571.246797702386
 30
-283.5147947002423
 70
    64
  0
VERTEX
  5
8129
330
8124
100
AcDbEntity
  8
0
100
AcDbVertex
100
AcDbPolygonMeshVertex
 10
-1439.911706328431
 20
1571.246797702386
 30
-359.7147947002422
 70
    64
  0
VERTEX
  5
812A
330
8124
100
AcDbEntity
  8
0
100
AcDbVertex
100
AcDbPolygonMeshVertex
 10
-1439.911706328431
 20
1571.246797702386
 30
-359.7147947002422
 70
    64
  0
VERTEX
  5
812B
330
8124
100
AcDbEntity
  8
0
100
AcDbVertex
100
AcDbPolygonMeshVertex
 10
-1439.911706328431
 20
1576.326797702386
 30
-283.5147947002423
 70
    64
  0
VERTEX
  5
812C
330
8124
100
AcDbEntity
  8
0
100
AcDbVertex
100
AcDbPolygonMeshVertex
 10
-1439.911706328431
 20
1576.326797702386
 30
-359.7147947002422
 70
    64
  0
VERTEX
  5
812D
330
8124
100
AcDbEntity
  8
0
100
AcDbVertex
100
AcDbPolygonMeshVertex
 10
-1439.911706328431
 20
1571.246797702386
 30
-359.7147947002422
 70
    64
  0
VERTEX
  5
812E
330
8124
100
AcDbEntity
  8
0
100
AcDbVertex
100
AcDbPolygonMeshVertex
 10
-1437.371706328431
 20
1576.326797702386
 30
-283.5147947002423
 70
    64
  0
VERTEX
  5
812F
330
8124
100
AcDbEntity
  8
0
100
AcDbVertex
100
AcDbPolygonMeshVertex
 10
-1437.371706328431
 20
1576.326797702386
 30
-359.7147947002422
 70
    64
  0
VERTEX
  5
8130
330
8124
100
AcDbEntity
  8
0
100
AcDbVertex
100
AcDbPolygonMeshVertex
 10
-1437.371706328431
 20
1571.246797702386
 30
-359.7147947002422
 70
    64
  0
VERTEX
  5
8131
330
8124
100
AcDbEntity
  8
0
100
AcDbVertex
100
AcDbPolygonMeshVertex
 10
-1437.371706328431
 20
1576.326797702386
 30
-283.5147947002423
 70
    64
  0
VERTEX
  5
8132
330
8124
100
AcDbEntity
  8
0
100
AcDbVertex
100
AcDbPolygonMeshVertex
 10
-1437.371706328431
 20
1576.326797702386
 30
-283.5147947002423
 70
    64
  0
VERTEX
  5
8133
330
8124
100
AcDbEntity
  8
0
100
AcDbVertex
100
AcDbPolygonMeshVertex
 10
-1437.371706328431
 20
1571.246797702386
 30
-283.5147947002423
 70
    64
  0
VERTEX
  5
8134
330
8124
100
AcDbEntity
  8
0
100
AcDbVertex
100
AcDbPolygonMeshVertex
 10
-1439.911706328431
 20
1576.326797702386
 30
-283.5147947002423
 70
    64
  0
VERTEX
  5
8135
330
8124
100
AcDbEntity
  8
0
100
AcDbVertex
100
AcDbPolygonMeshVertex
 10
-1439.911706328431
 20
1576.326797702386
 30
-283.5147947002423
 70
    64
  0
VERTEX
  5
8136
330
8124
100
AcDbEntity
  8
0
100
AcDbVertex
100
AcDbPolygonMeshVertex
 10
-1439.911706328431
 20
1571.246797702386
 30
-283.5147947002423
 70
    64
  0
SEQEND
  5
8137
330
8124
100
AcDbEntity
  8
0
  0
POLYLINE
  5
8138
330
1F
100
AcDbEntity
  8
0
100
AcDbPolygonMesh
 66
     1
 10
0.0
 20
0.0
 30
0.0
 70
    16
 71
     6
 72
     3
  0
VERTEX
  5
8139
330
8138
100
AcDbEntity
  8
0
100
AcDbVertex
100
AcDbPolygonMeshVertex
 10
-1432.545706328431
 20
1571.246797702386
 30
-283.5147947002423
 70
    64
  0
VERTEX
  5
813A
330
8138
100
AcDbEntity
  8
0
100
AcDbVertex
100
AcDbPolygonMeshVertex
 10
-1432.545706328431
 20
1571.246797702386
 30
-359.7147947002422
 70
    64
  0
VERTEX
  5
813B
330
8138
100
AcDbEntity
  8
0
100
AcDbVertex
100
AcDbPolygonMeshVertex
 10
-1432.545706328431
 20
1571.246797702386
 30
-359.7147947002422
 70
    64
  0
VERTEX
  5
813C
330
8138
100
AcDbEntity
  8
0
100
AcDbVertex
100
AcDbPolygonMeshVertex
 10
-1435.085706328431
 20
1571.246797702386
 30
-283.5147947002423
 70
    64
  0
VERTEX
  5
813D
330
8138
100
AcDbEntity
  8
0
100
AcDbVertex
100
AcDbPolygonMeshVertex
 10
-1435.085706328431
 20
1571.246797702386
 30
-359.7147947002422
 70
    64
  0
VERTEX
  5
813E
330
8138
100
AcDbEntity
  8
0
100
AcDbVertex
100
AcDbPolygonMeshVertex
 10
-1435.085706328431
 20
1571.246797702386
 30
-359.7147947002422
 70
    64
  0
VERTEX
  5
813F
330
8138
100
AcDbEntity
  8
0
100
AcDbVertex
100
AcDbPolygonMeshVertex
 10
-1435.085706328431
 20
1576.326797702386
 30
-283.5147947002423
 70
    64
  0
VERTEX
  5
8140
330
8138
100
AcDbEntity
  8
0
100
AcDbVertex
100
AcDbPolygonMeshVertex
 10
-1435.085706328431
 20
1576.326797702386
 30
-359.7147947002422
 70
    64
  0
VERTEX
  5
8141
330
8138
100
AcDbEntity
  8
0
100
AcDbVertex
100
AcDbPolygonMeshVertex
 10
-1435.085706328431
 20
1571.246797702386
 30
-359.7147947002422
 70
    64
  0
VERTEX
  5
8142
330
8138
100
AcDbEntity
  8
0
100
AcDbVertex
100
AcDbPolygonMeshVertex
 10
-1432.545706328431
 20
1576.326797702386
 30
-283.5147947002423
 70
    64
  0
VERTEX
  5
8143
330
8138
100
AcDbEntity
  8
0
100
AcDbVertex
100
AcDbPolygonMeshVertex
 10
-1432.545706328431
 20
1576.326797702386
 30
-359.7147947002422
 70
    64
  0
VERTEX
  5
8144
330
8138
100
AcDbEntity
  8
0
100
AcDbVertex
100
AcDbPolygonMeshVertex
 10
-1432.545706328431
 20
1571.246797702386
 30
-359.7147947002422
 70
    64
  0
VERTEX
  5
8145
330
8138
100
AcDbEntity
  8
0
100
AcDbVertex
100
AcDbPolygonMeshVertex
 10
-1432.545706328431
 20
1576.326797702386
 30
-283.5147947002423
 70
    64
  0
VERTEX
  5
8146
330
8138
100
AcDbEntity
  8
0
100
AcDbVertex
100
AcDbPolygonMeshVertex
 10
-1432.545706328431
 20
1576.326797702386
 30
-283.5147947002423
 70
    64
  0
VERTEX
  5
8147
330
8138
100
AcDbEntity
  8
0
100
AcDbVertex
100
AcDbPolygonMeshVertex
 10
-1432.545706328431
 20
1571.246797702386
 30
-283.5147947002423
 70
    64
  0
VERTEX
  5
8148
330
8138
100
AcDbEntity
  8
0
100
AcDbVertex
100
AcDbPolygonMeshVertex
 10
-1435.085706328431
 20
1576.326797702386
 30
-283.5147947002423
 70
    64
  0
VERTEX
  5
8149
330
8138
100
AcDbEntity
  8
0
100
AcDbVertex
100
AcDbPolygonMeshVertex
 10
-1435.085706328431
 20
1576.326797702386
 30
-283.5147947002423
 70
    64
  0
VERTEX
  5
814A
330
8138
100
AcDbEntity
  8
0
100
AcDbVertex
100
AcDbPolygonMeshVertex
 10
-1435.085706328431
 20
1571.246797702386
 30
-283.5147947002423
 70
    64
  0
SEQEND
  5
814B
330
8138
100
AcDbEntity
  8
0
  0
POLYLINE
  5
814C
330
1F
100
AcDbEntity
  8
0
100
AcDbPolygonMesh
 66
     1
 10
0.0
 20
0.0
 30
0.0
 70
    16
 71
     6
 72
     3
  0
VERTEX
  5
814D
330
814C
100
AcDbEntity
  8
0
100
AcDbVertex
100
AcDbPolygonMeshVertex
 10
-1435.085706328431
 20
1571.246797702386
 30
-283.5147947002423
 70
    64
  0
VERTEX
  5
814E
330
814C
100
AcDbEntity
  8
0
100
AcDbVertex
100
AcDbPolygonMeshVertex
 10
-1435.085706328431
 20
1571.246797702386
 30
-359.7147947002422
 70
    64
  0
VERTEX
  5
814F
330
814C
100
AcDbEntity
  8
0
100
AcDbVertex
100
AcDbPolygonMeshVertex
 10
-1435.085706328431
 20
1571.246797702386
 30
-359.7147947002422
 70
    64
  0
VERTEX
  5
8150
330
814C
100
AcDbEntity
  8
0
100
AcDbVertex
100
AcDbPolygonMeshVertex
 10
-1437.371706328431
 20
1571.246797702386
 30
-283.5147947002423
 70
    64
  0
VERTEX
  5
8151
330
814C
100
AcDbEntity
  8
0
100
AcDbVertex
100
AcDbPolygonMeshVertex
 10
-1437.371706328431
 20
1571.246797702386
 30
-359.7147947002422
 70
    64
  0
VERTEX
  5
8152
330
814C
100
AcDbEntity
  8
0
100
AcDbVertex
100
AcDbPolygonMeshVertex
 10
-1437.371706328431
 20
1571.246797702386
 30
-359.7147947002422
 70
    64
  0
VERTEX
  5
8153
330
814C
100
AcDbEntity
  8
0
100
AcDbVertex
100
AcDbPolygonMeshVertex
 10
-1437.371706328431
 20
1573.151797702386
 30
-283.5147947002423
 70
    64
  0
VERTEX
  5
8154
330
814C
100
AcDbEntity
  8
0
100
AcDbVertex
100
AcDbPolygonMeshVertex
 10
-1437.371706328431
 20
1573.151797702386
 30
-359.7147947002422
 70
    64
  0
VERTEX
  5
8155
330
814C
100
AcDbEntity
  8
0
100
AcDbVertex
100
AcDbPolygonMeshVertex
 10
-1437.371706328431
 20
1571.246797702386
 30
-359.7147947002422
 70
    64
  0
VERTEX
  5
8156
330
814C
100
AcDbEntity
  8
0
100
AcDbVertex
100
AcDbPolygonMeshVertex
 10
-1435.085706328431
 20
1573.151797702386
 30
-283.5147947002423
 70
    64
  0
VERTEX
  5
8157
330
814C
100
AcDbEntity
  8
0
100
AcDbVertex
100
AcDbPolygonMeshVertex
 10
-1435.085706328431
 20
1573.151797702386
 30
-359.7147947002422
 70
    64
  0
VERTEX
  5
8158
330
814C
100
AcDbEntity
  8
0
100
AcDbVertex
100
AcDbPolygonMeshVertex
 10
-1435.085706328431
 20
1571.246797702386
 30
-359.7147947002422
 70
    64
  0
VERTEX
  5
8159
330
814C
100
AcDbEntity
  8
0
100
AcDbVertex
100
AcDbPolygonMeshVertex
 10
-1435.085706328431
 20
1573.151797702386
 30
-283.5147947002423
 70
    64
  0
VERTEX
  5
815A
330
814C
100
AcDbEntity
  8
0
100
AcDbVertex
100
AcDbPolygonMeshVertex
 10
-1435.085706328431
 20
1573.151797702386
 30
-283.5147947002423
 70
    64
  0
VERTEX
  5
815B
330
814C
100
AcDbEntity
  8
0
100
AcDbVertex
100
AcDbPolygonMeshVertex
 10
-1435.085706328431
 20
1571.246797702386
 30
-283.5147947002423
 70
    64
  0
VERTEX
  5
815C
330
814C
100
AcDbEntity
  8
0
100
AcDbVertex
100
AcDbPolygonMeshVertex
 10
-1437.371706328431
 20
1573.151797702386
 30
-283.5147947002423
 70
    64
  0
VERTEX
  5
815D
330
814C
100
AcDbEntity
  8
0
100
AcDbVertex
100
AcDbPolygonMeshVertex
 10
-1437.371706328431
 20
1573.151797702386
 30
-283.5147947002423
 70
    64
  0
VERTEX
  5
815E
330
814C
100
AcDbEntity
  8
0
100
AcDbVertex
100
AcDbPolygonMeshVertex
 10
-1437.371706328431
 20
1571.246797702386
 30
-283.5147947002423
 70
    64
  0
SEQEND
  5
815F
330
814C
100
AcDbEntity
  8
0
  0
POLYLINE
  5
8160
330
1F
100
AcDbEntity
  8
0
100
AcDbPolygonMesh
 66
     1
 10
0.0
 20
0.0
 30
0.0
 70
    16
 71
     6
 72
     3
  0
VERTEX
  5
8161
330
8160
100
AcDbEntity
  8
0
100
AcDbVertex
100
AcDbPolygonMeshVertex
 10
-1505.023018370083
 20
1707.541241146647
 30
-283.5147947002423
 70
    64
  0
VERTEX
  5
8162
330
8160
100
AcDbEntity
  8
0
100
AcDbVertex
100
AcDbPolygonMeshVertex
 10
-1505.023018370083
 20
1707.541241146647
 30
-359.7147947002422
 70
    64
  0
VERTEX
  5
8163
330
8160
100
AcDbEntity
  8
0
100
AcDbVertex
100
AcDbPolygonMeshVertex
 10
-1505.023018370083
 20
1707.541241146647
 30
-359.7147947002422
 70
    64
  0
VERTEX
  5
8164
330
8160
100
AcDbEntity
  8
0
100
AcDbVertex
100
AcDbPolygonMeshVertex
 10
-1507.309018370083
 20
1707.541241146647
 30
-283.5147947002423
 70
    64
  0
VERTEX
  5
8165
330
8160
100
AcDbEntity
  8
0
100
AcDbVertex
100
AcDbPolygonMeshVertex
 10
-1507.309018370083
 20
1707.541241146647
 30
-359.7147947002422
 70
    64
  0
VERTEX
  5
8166
330
8160
100
AcDbEntity
  8
0
100
AcDbVertex
100
AcDbPolygonMeshVertex
 10
-1507.309018370083
 20
1707.541241146647
 30
-359.7147947002422
 70
    64
  0
VERTEX
  5
8167
330
8160
100
AcDbEntity
  8
0
100
AcDbVertex
100
AcDbPolygonMeshVertex
 10
-1507.309018370083
 20
1705.636241146646
 30
-283.5147947002423
 70
    64
  0
VERTEX
  5
8168
330
8160
100
AcDbEntity
  8
0
100
AcDbVertex
100
AcDbPolygonMeshVertex
 10
-1507.309018370083
 20
1705.636241146646
 30
-359.7147947002422
 70
    64
  0
VERTEX
  5
8169
330
8160
100
AcDbEntity
  8
0
100
AcDbVertex
100
AcDbPolygonMeshVertex
 10
-1507.309018370083
 20
1707.541241146647
 30
-359.7147947002422
 70
    64
  0
VERTEX
  5
816A
330
8160
100
AcDbEntity
  8
0
100
AcDbVertex
100
AcDbPolygonMeshVertex
 10
-1505.023018370083
 20
1705.636241146646
 30
-283.5147947002423
 70
    64
  0
VERTEX
  5
816B
330
8160
100
AcDbEntity
  8
0
100
AcDbVertex
100
AcDbPolygonMeshVertex
 10
-1505.023018370083
 20
1705.636241146646
 30
-359.7147947002422
 70
    64
  0
VERTEX
  5
816C
330
8160
100
AcDbEntity
  8
0
100
AcDbVertex
100
AcDbPolygonMeshVertex
 10
-1505.023018370083
 20
1707.541241146647
 30
-359.7147947002422
 70
    64
  0
VERTEX
  5
816D
330
8160
100
AcDbEntity
  8
0
100
AcDbVertex
100
AcDbPolygonMeshVertex
 10
-1505.023018370083
 20
1705.636241146646
 30
-283.5147947002423
 70
    64
  0
VERTEX
  5
816E
330
8160
100
AcDbEntity
  8
0
100
AcDbVertex
100
AcDbPolygonMeshVertex
 10
-1505.023018370083
 20
1705.636241146646
 30
-283.5147947002423
 70
    64
  0
VERTEX
  5
816F
330
8160
100
AcDbEntity
  8
0
100
AcDbVertex
100
AcDbPolygonMeshVertex
 10
-1505.023018370083
 20
1707.541241146647
 30
-283.5147947002423
 70
    64
  0
VERTEX
  5
8170
330
8160
100
AcDbEntity
  8
0
100
AcDbVertex
100
AcDbPolygonMeshVertex
 10
-1507.309018370083
 20
1705.636241146646
 30
-283.5147947002423
 70
    64
  0
VERTEX
  5
8171
330
8160
100
AcDbEntity
  8
0
100
AcDbVertex
100
AcDbPolygonMeshVertex
 10
-1507.309018370083
 20
1705.636241146646
 30
-283.5147947002423
 70
    64
  0
VERTEX
  5
8172
330
8160
100
AcDbEntity
  8
0
100
AcDbVertex
100
AcDbPolygonMeshVertex
 10
-1507.309018370083
 20
1707.541241146647
 30
-283.5147947002423
 70
    64
  0
SEQEND
  5
8173
330
8160
100
AcDbEntity
  8
0
  0
POLYLINE
  5
8174
330
1F
100
AcDbEntity
  8
0
100
AcDbPolygonMesh
 66
     1
 10
0.0
 20
0.0
 30
0.0
 70
    16
 71
     6
 72
     3
  0
VERTEX
  5
8175
330
8174
100
AcDbEntity
  8
0
100
AcDbVertex
100
AcDbPolygonMeshVertex
 10
-1502.483018370083
 20
1707.541241146647
 30
-283.5147947002423
 70
    64
  0
VERTEX
  5
8176
330
8174
100
AcDbEntity
  8
0
100
AcDbVertex
100
AcDbPolygonMeshVertex
 10
-1502.483018370083
 20
1707.541241146647
 30
-359.7147947002422
 70
    64
  0
VERTEX
  5
8177
330
8174
100
AcDbEntity
  8
0
100
AcDbVertex
100
AcDbPolygonMeshVertex
 10
-1502.483018370083
 20
1707.541241146647
 30
-359.7147947002422
 70
    64
  0
VERTEX
  5
8178
330
8174
100
AcDbEntity
  8
0
100
AcDbVertex
100
AcDbPolygonMeshVertex
 10
-1505.023018370083
 20
1707.541241146647
 30
-283.5147947002423
 70
    64
  0
VERTEX
  5
8179
330
8174
100
AcDbEntity
  8
0
100
AcDbVertex
100
AcDbPolygonMeshVertex
 10
-1505.023018370083
 20
1707.541241146647
 30
-359.7147947002422
 70
    64
  0
VERTEX
  5
817A
330
8174
100
AcDbEntity
  8
0
100
AcDbVertex
100
AcDbPolygonMeshVertex
 10
-1505.023018370083
 20
1707.541241146647
 30
-359.7147947002422
 70
    64
  0
VERTEX
  5
817B
330
8174
100
AcDbEntity
  8
0
100
AcDbVertex
100
AcDbPolygonMeshVertex
 10
-1505.023018370083
 20
1702.461241146646
 30
-283.5147947002423
 70
    64
  0
VERTEX
  5
817C
330
8174
100
AcDbEntity
  8
0
100
AcDbVertex
100
AcDbPolygonMeshVertex
 10
-1505.023018370083
 20
1702.461241146646
 30
-359.7147947002422
 70
    64
  0
VERTEX
  5
817D
330
8174
100
AcDbEntity
  8
0
100
AcDbVertex
100
AcDbPolygonMeshVertex
 10
-1505.023018370083
 20
1707.541241146647
 30
-359.7147947002422
 70
    64
  0
VERTEX
  5
817E
330
8174
100
AcDbEntity
  8
0
100
AcDbVertex
100
AcDbPolygonMeshVertex
 10
-1502.483018370083
 20
1702.461241146646
 30
-283.5147947002423
 70
    64
  0
VERTEX
  5
817F
330
8174
100
AcDbEntity
  8
0
100
AcDbVertex
100
AcDbPolygonMeshVertex
 10
-1502.483018370083
 20
1702.461241146646
 30
-359.7147947002422
 70
    64
  0
VERTEX
  5
8180
330
8174
100
AcDbEntity
  8
0
100
AcDbVertex
100
AcDbPolygonMeshVertex
 10
-1502.483018370083
 20
1707.541241146647
 30
-359.7147947002422
 70
    64
  0
VERTEX
  5
8181
330
8174
100
AcDbEntity
  8
0
100
AcDbVertex
100
AcDbPolygonMeshVertex
 10
-1502.483018370083
 20
1702.461241146646
 30
-283.5147947002423
 70
    64
  0
VERTEX
  5
8182
330
8174
100
AcDbEntity
  8
0
100
AcDbVertex
100
AcDbPolygonMeshVertex
 10
-1502.483018370083
 20
1702.461241146646
 30
-283.5147947002423
 70
    64
  0
VERTEX
  5
8183
330
8174
100
AcDbEntity
  8
0
100
AcDbVertex
100
AcDbPolygonMeshVertex
 10
-1502.483018370083
 20
1707.541241146647
 30
-283.5147947002423
 70
    64
  0
VERTEX
  5
8184
330
8174
100
AcDbEntity
  8
0
100
AcDbVertex
100
AcDbPolygonMeshVertex
 10
-1505.023018370083
 20
1702.461241146646
 30
-283.5147947002423
 70
    64
  0
VERTEX
  5
8185
330
8174
100
AcDbEntity
  8
0
100
AcDbVertex
100
AcDbPolygonMeshVertex
 10
-1505.023018370083
 20
1702.461241146646
 30
-283.5147947002423
 70
    64
  0
VERTEX
  5
8186
330
8174
100
AcDbEntity
  8
0
100
AcDbVertex
100
AcDbPolygonMeshVertex
 10
-1505.023018370083
 20
1707.541241146647
 30
-283.5147947002423
 70
    64
  0
SEQEND
  5
8187
330
8174
100
AcDbEntity
  8
0
  0
POLYLINE
  5
8188
330
1F
100
AcDbEntity
  8
0
100
AcDbPolygonMesh
 66
     1
 10
0.0
 20
0.0
 30
0.0
 70
    16
 71
     6
 72
     3
  0
VERTEX
  5
8189
330
8188
100
AcDbEntity
  8
0
100
AcDbVertex
100
AcDbPolygonMeshVertex
 10
-1507.309018370083
 20
1707.541241146647
 30
-283.5147947002423
 70
    64
  0
VERTEX
  5
818A
330
8188
100
AcDbEntity
  8
0
100
AcDbVertex
100
AcDbPolygonMeshVertex
 10
-1507.309018370083
 20
1707.541241146647
 30
-359.7147947002422
 70
    64
  0
VERTEX
  5
818B
330
8188
100
AcDbEntity
  8
0
100
AcDbVertex
100
AcDbPolygonMeshVertex
 10
-1507.309018370083
 20
1707.541241146647
 30
-359.7147947002422
 70
    64
  0
VERTEX
  5
818C
330
8188
100
AcDbEntity
  8
0
100
AcDbVertex
100
AcDbPolygonMeshVertex
 10
-1509.849018370083
 20
1707.541241146647
 30
-283.5147947002423
 70
    64
  0
VERTEX
  5
818D
330
8188
100
AcDbEntity
  8
0
100
AcDbVertex
100
AcDbPolygonMeshVertex
 10
-1509.849018370083
 20
1707.541241146647
 30
-359.7147947002422
 70
    64
  0
VERTEX
  5
818E
330
8188
100
AcDbEntity
  8
0
100
AcDbVertex
100
AcDbPolygonMeshVertex
 10
-1509.849018370083
 20
1707.541241146647
 30
-359.7147947002422
 70
    64
  0
VERTEX
  5
818F
330
8188
100
AcDbEntity
  8
0
100
AcDbVertex
100
AcDbPolygonMeshVertex
 10
-1509.849018370083
 20
1702.461241146646
 30
-283.5147947002423
 70
    64
  0
VERTEX
  5
8190
330
8188
100
AcDbEntity
  8
0
100
AcDbVertex
100
AcDbPolygonMeshVertex
 10
-1509.849018370083
 20
1702.461241146646
 30
-359.7147947002422
 70
    64
  0
VERTEX
  5
8191
330
8188
100
AcDbEntity
  8
0
100
AcDbVertex
100
AcDbPolygonMeshVertex
 10
-1509.849018370083
 20
1707.541241146647
 30
-359.7147947002422
 70
    64
  0
VERTEX
  5
8192
330
8188
100
AcDbEntity
  8
0
100
AcDbVertex
100
AcDbPolygonMeshVertex
 10
-1507.309018370083
 20
1702.461241146646
 30
-283.5147947002423
 70
    64
  0
VERTEX
  5
8193
330
8188
100
AcDbEntity
  8
0
100
AcDbVertex
100
AcDbPolygonMeshVertex
 10
-1507.309018370083
 20
1702.461241146646
 30
-359.7147947002422
 70
    64
  0
VERTEX
  5
8194
330
8188
100
AcDbEntity
  8
0
100
AcDbVertex
100
AcDbPolygonMeshVertex
 10
-1507.309018370083
 20
1707.541241146647
 30
-359.7147947002422
 70
    64
  0
VERTEX
  5
8195
330
8188
100
AcDbEntity
  8
0
100
AcDbVertex
100
AcDbPolygonMeshVertex
 10
-1507.309018370083
 20
1702.461241146646
 30
-283.5147947002423
 70
    64
  0
VERTEX
  5
8196
330
8188
100
AcDbEntity
  8
0
100
AcDbVertex
100
AcDbPolygonMeshVertex
 10
-1507.309018370083
 20
1702.461241146646
 30
-283.5147947002423
 70
    64
  0
VERTEX
  5
8197
330
8188
100
AcDbEntity
  8
0
100
AcDbVertex
100
AcDbPolygonMeshVertex
 10
-1507.309018370083
 20
1707.541241146647
 30
-283.5147947002423
 70
    64
  0
VERTEX
  5
8198
330
8188
100
AcDbEntity
  8
0
100
AcDbVertex
100
AcDbPolygonMeshVertex
 10
-1509.849018370083
 20
1702.461241146646
 30
-283.5147947002423
 70
    64
  0
VERTEX
  5
8199
330
8188
100
AcDbEntity
  8
0
100
AcDbVertex
100
AcDbPolygonMeshVertex
 10
-1509.849018370083
 20
1702.461241146646
 30
-283.5147947002423
 70
    64
  0
VERTEX
  5
819A
330
8188
100
AcDbEntity
  8
0
100
AcDbVertex
100
AcDbPolygonMeshVertex
 10
-1509.849018370083
 20
1707.541241146647
 30
-283.5147947002423
 70
    64
  0
SEQEND
  5
819B
330
8188
100
AcDbEntity
  8
0
  0
POLYLINE
  5
819C
330
1F
100
AcDbEntity
  8
0
100
AcDbPolygonMesh
 66
     1
 10
0.0
 20
0.0
 30
0.0
 70
    16
 71
     6
 72
     3
  0
VERTEX
  5
819D
330
819C
100
AcDbEntity
  8
0
100
AcDbVertex
100
AcDbPolygonMeshVertex
 10
-1470.029209891717
 20
1707.541936260762
 30
-283.5147947002423
 70
    64
  0
VERTEX
  5
819E
330
819C
100
AcDbEntity
  8
0
100
AcDbVertex
100
AcDbPolygonMeshVertex
 10
-1470.029209891717
 20
1707.541936260762
 30
-359.7147947002422
 70
    64
  0
VERTEX
  5
819F
330
819C
100
AcDbEntity
  8
0
100
AcDbVertex
100
AcDbPolygonMeshVertex
 10
-1470.029209891717
 20
1707.541936260762
 30
-359.7147947002422
 70
    64
  0
VERTEX
  5
81A0
330
819C
100
AcDbEntity
  8
0
100
AcDbVertex
100
AcDbPolygonMeshVertex
 10
-1472.315209891718
 20
1707.541936260762
 30
-283.5147947002423
 70
    64
  0
VERTEX
  5
81A1
330
819C
100
AcDbEntity
  8
0
100
AcDbVertex
100
AcDbPolygonMeshVertex
 10
-1472.315209891718
 20
1707.541936260762
 30
-359.7147947002422
 70
    64
  0
VERTEX
  5
81A2
330
819C
100
AcDbEntity
  8
0
100
AcDbVertex
100
AcDbPolygonMeshVertex
 10
-1472.315209891718
 20
1707.541936260762
 30
-359.7147947002422
 70
    64
  0
VERTEX
  5
81A3
330
819C
100
AcDbEntity
  8
0
100
AcDbVertex
100
AcDbPolygonMeshVertex
 10
-1472.315209891718
 20
1705.636936260761
 30
-283.5147947002423
 70
    64
  0
VERTEX
  5
81A4
330
819C
100
AcDbEntity
  8
0
100
AcDbVertex
100
AcDbPolygonMeshVertex
 10
-1472.315209891718
 20
1705.636936260761
 30
-359.7147947002422
 70
    64
  0
VERTEX
  5
81A5
330
819C
100
AcDbEntity
  8
0
100
AcDbVertex
100
AcDbPolygonMeshVertex
 10
-1472.315209891718
 20
1707.541936260762
 30
-359.7147947002422
 70
    64
  0
VERTEX
  5
81A6
330
819C
100
AcDbEntity
  8
0
100
AcDbVertex
100
AcDbPolygonMeshVertex
 10
-1470.029209891717
 20
1705.636936260761
 30
-283.5147947002423
 70
    64
  0
VERTEX
  5
81A7
330
819C
100
AcDbEntity
  8
0
100
AcDbVertex
100
AcDbPolygonMeshVertex
 10
-1470.029209891717
 20
1705.636936260761
 30
-359.7147947002422
 70
    64
  0
VERTEX
  5
81A8
330
819C
100
AcDbEntity
  8
0
100
AcDbVertex
100
AcDbPolygonMeshVertex
 10
-1470.029209891717
 20
1707.541936260762
 30
-359.7147947002422
 70
    64
  0
VERTEX
  5
81A9
330
819C
100
AcDbEntity
  8
0
100
AcDbVertex
100
AcDbPolygonMeshVertex
 10
-1470.029209891717
 20
1705.636936260761
 30
-283.5147947002423
 70
    64
  0
VERTEX
  5
81AA
330
819C
100
AcDbEntity
  8
0
100
AcDbVertex
100
AcDbPolygonMeshVertex
 10
-1470.029209891717
 20
1705.636936260761
 30
-283.5147947002423
 70
    64
  0
VERTEX
  5
81AB
330
819C
100
AcDbEntity
  8
0
100
AcDbVertex
100
AcDbPolygonMeshVertex
 10
-1470.029209891717
 20
1707.541936260762
 30
-283.5147947002423
 70
    64
  0
VERTEX
  5
81AC
330
819C
100
AcDbEntity
  8
0
100
AcDbVertex
100
AcDbPolygonMeshVertex
 10
-1472.315209891718
 20
1705.636936260761
 30
-283.5147947002423
 70
    64
  0
VERTEX
  5
81AD
330
819C
100
AcDbEntity
  8
0
100
AcDbVertex
100
AcDbPolygonMeshVertex
 10
-1472.315209891718
 20
1705.636936260761
 30
-283.5147947002423
 70
    64
  0
VERTEX
  5
81AE
330
819C
100
AcDbEntity
  8
0
100
AcDbVertex
100
AcDbPolygonMeshVertex
 10
-1472.315209891718
 20
1707.541936260762
 30
-283.5147947002423
 70
    64
  0
SEQEND
  5
81AF
330
819C
100
AcDbEntity
  8
0
  0
POLYLINE
  5
81B0
330
1F
100
AcDbEntity
  8
0
100
AcDbPolygonMesh
 66
     1
 10
0.0
 20
0.0
 30
0.0
 70
    16
 71
     6
 72
     3
  0
VERTEX
  5
81B1
330
81B0
100
AcDbEntity
  8
0
100
AcDbVertex
100
AcDbPolygonMeshVertex
 10
-1467.489209891717
 20
1707.541936260762
 30
-283.5147947002423
 70
    64
  0
VERTEX
  5
81B2
330
81B0
100
AcDbEntity
  8
0
100
AcDbVertex
100
AcDbPolygonMeshVertex
 10
-1467.489209891717
 20
1707.541936260762
 30
-359.7147947002422
 70
    64
  0
VERTEX
  5
81B3
330
81B0
100
AcDbEntity
  8
0
100
AcDbVertex
100
AcDbPolygonMeshVertex
 10
-1467.489209891717
 20
1707.541936260762
 30
-359.7147947002422
 70
    64
  0
VERTEX
  5
81B4
330
81B0
100
AcDbEntity
  8
0
100
AcDbVertex
100
AcDbPolygonMeshVertex
 10
-1470.029209891717
 20
1707.541936260762
 30
-283.5147947002423
 70
    64
  0
VERTEX
  5
81B5
330
81B0
100
AcDbEntity
  8
0
100
AcDbVertex
100
AcDbPolygonMeshVertex
 10
-1470.029209891717
 20
1707.541936260762
 30
-359.7147947002422
 70
    64
  0
VERTEX
  5
81B6
330
81B0
100
AcDbEntity
  8
0
100
AcDbVertex
100
AcDbPolygonMeshVertex
 10
-1470.029209891717
 20
1707.541936260762
 30
-359.7147947002422
 70
    64
  0
VERTEX
  5
81B7
330
81B0
100
AcDbEntity
  8
0
100
AcDbVertex
100
AcDbPolygonMeshVertex
 10
-1470.029209891717
 20
1702.461936260761
 30
-283.5147947002423
 70
    64
  0
VERTEX
  5
81B8
330
81B0
100
AcDbEntity
  8
0
100
AcDbVertex
100
AcDbPolygonMeshVertex
 10
-1470.029209891717
 20
1702.461936260761
 30
-359.7147947002422
 70
    64
  0
VERTEX
  5
81B9
330
81B0
100
AcDbEntity
  8
0
100
AcDbVertex
100
AcDbPolygonMeshVertex
 10
-1470.029209891717
 20
1707.541936260762
 30
-359.7147947002422
 70
    64
  0
VERTEX
  5
81BA
330
81B0
100
AcDbEntity
  8
0
100
AcDbVertex
100
AcDbPolygonMeshVertex
 10
-1467.489209891717
 20
1702.461936260761
 30
-283.5147947002423
 70
    64
  0
VERTEX
  5
81BB
330
81B0
100
AcDbEntity
  8
0
100
AcDbVertex
100
AcDbPolygonMeshVertex
 10
-1467.489209891717
 20
1702.461936260761
 30
-359.7147947002422
 70
    64
  0
VERTEX
  5
81BC
330
81B0
100
AcDbEntity
  8
0
100
AcDbVertex
100
AcDbPolygonMeshVertex
 10
-1467.489209891717
 20
1707.541936260762
 30
-359.7147947002422
 70
    64
  0
VERTEX
  5
81BD
330
81B0
100
AcDbEntity
  8
0
100
AcDbVertex
100
AcDbPolygonMeshVertex
 10
-1467.489209891717
 20
1702.461936260761
 30
-283.5147947002423
 70
    64
  0
VERTEX
  5
81BE
330
81B0
100
AcDbEntity
  8
0
100
AcDbVertex
100
AcDbPolygonMeshVertex
 10
-1467.489209891717
 20
1702.461936260761
 30
-283.5147947002423
 70
    64
  0
VERTEX
  5
81BF
330
81B0
100
AcDbEntity
  8
0
100
AcDbVertex
100
AcDbPolygonMeshVertex
 10
-1467.489209891717
 20
1707.541936260762
 30
-283.5147947002423
 70
    64
  0
VERTEX
  5
81C0
330
81B0
100
AcDbEntity
  8
0
100
AcDbVertex
100
AcDbPolygonMeshVertex
 10
-1470.029209891717
 20
1702.461936260761
 30
-283.5147947002423
 70
    64
  0
VERTEX
  5
81C1
330
81B0
100
AcDbEntity
  8
0
100
AcDbVertex
100
AcDbPolygonMeshVertex
 10
-1470.029209891717
 20
1702.461936260761
 30
-283.5147947002423
 70
    64
  0
VERTEX
  5
81C2
330
81B0
100
AcDbEntity
  8
0
100
AcDbVertex
100
AcDbPolygonMeshVertex
 10
-1470.029209891717
 20
1707.541936260762
 30
-283.5147947002423
 70
    64
  0
SEQEND
  5
81C3
330
81B0
100
AcDbEntity
  8
0
  0
POLYLINE
  5
81C4
330
1F
100
AcDbEntity
  8
0
100
AcDbPolygonMesh
 66
     1
 10
0.0
 20
0.0
 30
0.0
 70
    16
 71
     6
 72
     3
  0
VERTEX
  5
81C5
330
81C4
100
AcDbEntity
  8
0
100
AcDbVertex
100
AcDbPolygonMeshVertex
 10
-1472.315209891718
 20
1707.541936260762
 30
-283.5147947002423
 70
    64
  0
VERTEX
  5
81C6
330
81C4
100
AcDbEntity
  8
0
100
AcDbVertex
100
AcDbPolygonMeshVertex
 10
-1472.315209891718
 20
1707.541936260762
 30
-359.7147947002422
 70
    64
  0
VERTEX
  5
81C7
330
81C4
100
AcDbEntity
  8
0
100
AcDbVertex
100
AcDbPolygonMeshVertex
 10
-1472.315209891718
 20
1707.541936260762
 30
-359.7147947002422
 70
    64
  0
VERTEX
  5
81C8
330
81C4
100
AcDbEntity
  8
0
100
AcDbVertex
100
AcDbPolygonMeshVertex
 10
-1474.855209891718
 20
1707.541936260762
 30
-283.5147947002423
 70
    64
  0
VERTEX
  5
81C9
330
81C4
100
AcDbEntity
  8
0
100
AcDbVertex
100
AcDbPolygonMeshVertex
 10
-1474.855209891718
 20
1707.541936260762
 30
-359.7147947002422
 70
    64
  0
VERTEX
  5
81CA
330
81C4
100
AcDbEntity
  8
0
100
AcDbVertex
100
AcDbPolygonMeshVertex
 10
-1474.855209891718
 20
1707.541936260762
 30
-359.7147947002422
 70
    64
  0
VERTEX
  5
81CB
330
81C4
100
AcDbEntity
  8
0
100
AcDbVertex
100
AcDbPolygonMeshVertex
 10
-1474.855209891718
 20
1702.461936260761
 30
-283.5147947002423
 70
    64
  0
VERTEX
  5
81CC
330
81C4
100
AcDbEntity
  8
0
100
AcDbVertex
100
AcDbPolygonMeshVertex
 10
-1474.855209891718
 20
1702.461936260761
 30
-359.7147947002422
 70
    64
  0
VERTEX
  5
81CD
330
81C4
100
AcDbEntity
  8
0
100
AcDbVertex
100
AcDbPolygonMeshVertex
 10
-1474.855209891718
 20
1707.541936260762
 30
-359.7147947002422
 70
    64
  0
VERTEX
  5
81CE
330
81C4
100
AcDbEntity
  8
0
100
AcDbVertex
100
AcDbPolygonMeshVertex
 10
-1472.315209891718
 20
1702.461936260761
 30
-283.5147947002423
 70
    64
  0
VERTEX
  5
81CF
330
81C4
100
AcDbEntity
  8
0
100
AcDbVertex
100
AcDbPolygonMeshVertex
 10
-1472.315209891718
 20
1702.461936260761
 30
-359.7147947002422
 70
    64
  0
VERTEX
  5
81D0
330
81C4
100
AcDbEntity
  8
0
100
AcDbVertex
100
AcDbPolygonMeshVertex
 10
-1472.315209891718
 20
1707.541936260762
 30
-359.7147947002422
 70
    64
  0
VERTEX
  5
81D1
330
81C4
100
AcDbEntity
  8
0
100
AcDbVertex
100
AcDbPolygonMeshVertex
 10
-1472.315209891718
 20
1702.461936260761
 30
-283.5147947002423
 70
    64
  0
VERTEX
  5
81D2
330
81C4
100
AcDbEntity
  8
0
100
AcDbVertex
100
AcDbPolygonMeshVertex
 10
-1472.315209891718
 20
1702.461936260761
 30
-283.5147947002423
 70
    64
  0
VERTEX
  5
81D3
330
81C4
100
AcDbEntity
  8
0
100
AcDbVertex
100
AcDbPolygonMeshVertex
 10
-1472.315209891718
 20
1707.541936260762
 30
-283.5147947002423
 70
    64
  0
VERTEX
  5
81D4
330
81C4
100
AcDbEntity
  8
0
100
AcDbVertex
100
AcDbPolygonMeshVertex
 10
-1474.855209891718
 20
1702.461936260761
 30
-283.5147947002423
 70
    64
  0
VERTEX
  5
81D5
330
81C4
100
AcDbEntity
  8
0
100
AcDbVertex
100
AcDbPolygonMeshVertex
 10
-1474.855209891718
 20
1702.461936260761
 30
-283.5147947002423
 70
    64
  0
VERTEX
  5
81D6
330
81C4
100
AcDbEntity
  8
0
100
AcDbVertex
100
AcDbPolygonMeshVertex
 10
-1474.855209891718
 20
1707.541936260762
 30
-283.5147947002423
 70
    64
  0
SEQEND
  5
81D7
330
81C4
100
AcDbEntity
  8
0
  0
POLYLINE
  5
81D8
330
1F
100
AcDbEntity
  8
0
100
AcDbPolygonMesh
 66
     1
 10
0.0
 20
0.0
 30
0.0
 70
    16
 71
     6
 72
     3
  0
VERTEX
  5
81D9
330
81D8
100
AcDbEntity
  8
0
100
AcDbVertex
100
AcDbPolygonMeshVertex
 10
-1435.075263841733
 20
1707.541936260762
 30
-283.5147947002423
 70
    64
  0
VERTEX
  5
81DA
330
81D8
100
AcDbEntity
  8
0
100
AcDbVertex
100
AcDbPolygonMeshVertex
 10
-1435.075263841733
 20
1707.541936260762
 30
-359.7147947002422
 70
    64
  0
VERTEX
  5
81DB
330
81D8
100
AcDbEntity
  8
0
100
AcDbVertex
100
AcDbPolygonMeshVertex
 10
-1435.075263841733
 20
1707.541936260762
 30
-359.7147947002422
 70
    64
  0
VERTEX
  5
81DC
330
81D8
100
AcDbEntity
  8
0
100
AcDbVertex
100
AcDbPolygonMeshVertex
 10
-1437.361263841733
 20
1707.541936260762
 30
-283.5147947002423
 70
    64
  0
VERTEX
  5
81DD
330
81D8
100
AcDbEntity
  8
0
100
AcDbVertex
100
AcDbPolygonMeshVertex
 10
-1437.361263841733
 20
1707.541936260762
 30
-359.7147947002422
 70
    64
  0
VERTEX
  5
81DE
330
81D8
100
AcDbEntity
  8
0
100
AcDbVertex
100
AcDbPolygonMeshVertex
 10
-1437.361263841733
 20
1707.541936260762
 30
-359.7147947002422
 70
    64
  0
VERTEX
  5
81DF
330
81D8
100
AcDbEntity
  8
0
100
AcDbVertex
100
AcDbPolygonMeshVertex
 10
-1437.361263841733
 20
1705.636936260762
 30
-283.5147947002423
 70
    64
  0
VERTEX
  5
81E0
330
81D8
100
AcDbEntity
  8
0
100
AcDbVertex
100
AcDbPolygonMeshVertex
 10
-1437.361263841733
 20
1705.636936260762
 30
-359.7147947002422
 70
    64
  0
VERTEX
  5
81E1
330
81D8
100
AcDbEntity
  8
0
100
AcDbVertex
100
AcDbPolygonMeshVertex
 10
-1437.361263841733
 20
1707.541936260762
 30
-359.7147947002422
 70
    64
  0
VERTEX
  5
81E2
330
81D8
100
AcDbEntity
  8
0
100
AcDbVertex
100
AcDbPolygonMeshVertex
 10
-1435.075263841733
 20
1705.636936260762
 30
-283.5147947002423
 70
    64
  0
VERTEX
  5
81E3
330
81D8
100
AcDbEntity
  8
0
100
AcDbVertex
100
AcDbPolygonMeshVertex
 10
-1435.075263841733
 20
1705.636936260762
 30
-359.7147947002422
 70
    64
  0
VERTEX
  5
81E4
330
81D8
100
AcDbEntity
  8
0
100
AcDbVertex
100
AcDbPolygonMeshVertex
 10
-1435.075263841733
 20
1707.541936260762
 30
-359.7147947002422
 70
    64
  0
VERTEX
  5
81E5
330
81D8
100
AcDbEntity
  8
0
100
AcDbVertex
100
AcDbPolygonMeshVertex
 10
-1435.075263841733
 20
1705.636936260762
 30
-283.5147947002423
 70
    64
  0
VERTEX
  5
81E6
330
81D8
100
AcDbEntity
  8
0
100
AcDbVertex
100
AcDbPolygonMeshVertex
 10
-1435.075263841733
 20
1705.636936260762
 30
-283.5147947002423
 70
    64
  0
VERTEX
  5
81E7
330
81D8
100
AcDbEntity
  8
0
100
AcDbVertex
100
AcDbPolygonMeshVertex
 10
-1435.075263841733
 20
1707.541936260762
 30
-283.5147947002423
 70
    64
  0
VERTEX
  5
81E8
330
81D8
100
AcDbEntity
  8
0
100
AcDbVertex
100
AcDbPolygonMeshVertex
 10
-1437.361263841733
 20
1705.636936260762
 30
-283.5147947002423
 70
    64
  0
VERTEX
  5
81E9
330
81D8
100
AcDbEntity
  8
0
100
AcDbVertex
100
AcDbPolygonMeshVertex
 10
-1437.361263841733
 20
1705.636936260762
 30
-283.5147947002423
 70
    64
  0
VERTEX
  5
81EA
330
81D8
100
AcDbEntity
  8
0
100
AcDbVertex
100
AcDbPolygonMeshVertex
 10
-1437.361263841733
 20
1707.541936260762
 30
-283.5147947002423
 70
    64
  0
SEQEND
  5
81EB
330
81D8
100
AcDbEntity
  8
0
  0
POLYLINE
  5
81EC
330
1F
100
AcDbEntity
  8
0
100
AcDbPolygonMesh
 66
     1
 10
0.0
 20
0.0
 30
0.0
 70
    16
 71
     6
 72
     3
  0
VERTEX
  5
81ED
330
81EC
100
AcDbEntity
  8
0
100
AcDbVertex
100
AcDbPolygonMeshVertex
 10
-1432.535263841733
 20
1707.541936260762
 30
-283.5147947002423
 70
    64
  0
VERTEX
  5
81EE
330
81EC
100
AcDbEntity
  8
0
100
AcDbVertex
100
AcDbPolygonMeshVertex
 10
-1432.535263841733
 20
1707.541936260762
 30
-359.7147947002422
 70
    64
  0
VERTEX
  5
81EF
330
81EC
100
AcDbEntity
  8
0
100
AcDbVertex
100
AcDbPolygonMeshVertex
 10
-1432.535263841733
 20
1707.541936260762
 30
-359.7147947002422
 70
    64
  0
VERTEX
  5
81F0
330
81EC
100
AcDbEntity
  8
0
100
AcDbVertex
100
AcDbPolygonMeshVertex
 10
-1435.075263841733
 20
1707.541936260762
 30
-283.5147947002423
 70
    64
  0
VERTEX
  5
81F1
330
81EC
100
AcDbEntity
  8
0
100
AcDbVertex
100
AcDbPolygonMeshVertex
 10
-1435.075263841733
 20
1707.541936260762
 30
-359.7147947002422
 70
    64
  0
VERTEX
  5
81F2
330
81EC
100
AcDbEntity
  8
0
100
AcDbVertex
100
AcDbPolygonMeshVertex
 10
-1435.075263841733
 20
1707.541936260762
 30
-359.7147947002422
 70
    64
  0
VERTEX
  5
81F3
330
81EC
100
AcDbEntity
  8
0
100
AcDbVertex
100
AcDbPolygonMeshVertex
 10
-1435.075263841733
 20
1702.461936260761
 30
-283.5147947002423
 70
    64
  0
VERTEX
  5
81F4
330
81EC
100
AcDbEntity
  8
0
100
AcDbVertex
100
AcDbPolygonMeshVertex
 10
-1435.075263841733
 20
1702.461936260761
 30
-359.7147947002422
 70
    64
  0
VERTEX
  5
81F5
330
81EC
100
AcDbEntity
  8
0
100
AcDbVertex
100
AcDbPolygonMeshVertex
 10
-1435.075263841733
 20
1707.541936260762
 30
-359.7147947002422
 70
    64
  0
VERTEX
  5
81F6
330
81EC
100
AcDbEntity
  8
0
100
AcDbVertex
100
AcDbPolygonMeshVertex
 10
-1432.535263841733
 20
1702.461936260761
 30
-283.5147947002423
 70
    64
  0
VERTEX
  5
81F7
330
81EC
100
AcDbEntity
  8
0
100
AcDbVertex
100
AcDbPolygonMeshVertex
 10
-1432.535263841733
 20
1702.461936260761
 30
-359.7147947002422
 70
    64
  0
VERTEX
  5
81F8
330
81EC
100
AcDbEntity
  8
0
100
AcDbVertex
100
AcDbPolygonMeshVertex
 10
-1432.535263841733
 20
1707.541936260762
 30
-359.7147947002422
 70
    64
  0
VERTEX
  5
81F9
330
81EC
100
AcDbEntity
  8
0
100
AcDbVertex
100
AcDbPolygonMeshVertex
 10
-1432.535263841733
 20
1702.461936260761
 30
-283.5147947002423
 70
    64
  0
VERTEX
  5
81FA
330
81EC
100
AcDbEntity
  8
0
100
AcDbVertex
100
AcDbPolygonMeshVertex
 10
-1432.535263841733
 20
1702.461936260761
 30
-283.5147947002423
 70
    64
  0
VERTEX
  5
81FB
330
81EC
100
AcDbEntity
  8
0
100
AcDbVertex
100
AcDbPolygonMeshVertex
 10
-1432.535263841733
 20
1707.541936260762
 30
-283.5147947002423
 70
    64
  0
VERTEX
  5
81FC
330
81EC
100
AcDbEntity
  8
0
100
AcDbVertex
100
AcDbPolygonMeshVertex
 10
-1435.075263841733
 20
1702.461936260761
 30
-283.5147947002423
 70
    64
  0
VERTEX
  5
81FD
330
81EC
100
AcDbEntity
  8
0
100
AcDbVertex
100
AcDbPolygonMeshVertex
 10
-1435.075263841733
 20
1702.461936260761
 30
-283.5147947002423
 70
    64
  0
VERTEX
  5
81FE
330
81EC
100
AcDbEntity
  8
0
100
AcDbVertex
100
AcDbPolygonMeshVertex
 10
-1435.075263841733
 20
1707.541936260762
 30
-283.5147947002423
 70
    64
  0
SEQEND
  5
81FF
330
81EC
100
AcDbEntity
  8
0
  0
POLYLINE
  5
8200
330
1F
100
AcDbEntity
  8
0
100
AcDbPolygonMesh
 66
     1
 10
0.0
 20
0.0
 30
0.0
 70
    16
 71
     6
 72
     3
  0
VERTEX
  5
8201
330
8200
100
AcDbEntity
  8
0
100
AcDbVertex
100
AcDbPolygonMeshVertex
 10
-1437.361263841733
 20
1707.541936260762
 30
-283.5147947002423
 70
    64
  0
VERTEX
  5
8202
330
8200
100
AcDbEntity
  8
0
100
AcDbVertex
100
AcDbPolygonMeshVertex
 10
-1437.361263841733
 20
1707.541936260762
 30
-359.7147947002422
 70
    64
  0
VERTEX
  5
8203
330
8200
100
AcDbEntity
  8
0
100
AcDbVertex
100
AcDbPolygonMeshVertex
 10
-1437.361263841733
 20
1707.541936260762
 30
-359.7147947002422
 70
    64
  0
VERTEX
  5
8204
330
8200
100
AcDbEntity
  8
0
100
AcDbVertex
100
AcDbPolygonMeshVertex
 10
-1439.901263841733
 20
1707.541936260762
 30
-283.5147947002423
 70
    64
  0
VERTEX
  5
8205
330
8200
100
AcDbEntity
  8
0
100
AcDbVertex
100
AcDbPolygonMeshVertex
 10
-1439.901263841733
 20
1707.541936260762
 30
-359.7147947002422
 70
    64
  0
VERTEX
  5
8206
330
8200
100
AcDbEntity
  8
0
100
AcDbVertex
100
AcDbPolygonMeshVertex
 10
-1439.901263841733
 20
1707.541936260762
 30
-359.7147947002422
 70
    64
  0
VERTEX
  5
8207
330
8200
100
AcDbEntity
  8
0
100
AcDbVertex
100
AcDbPolygonMeshVertex
 10
-1439.901263841733
 20
1702.461936260761
 30
-283.5147947002423
 70
    64
  0
VERTEX
  5
8208
330
8200
100
AcDbEntity
  8
0
100
AcDbVertex
100
AcDbPolygonMeshVertex
 10
-1439.901263841733
 20
1702.461936260761
 30
-359.7147947002422
 70
    64
  0
VERTEX
  5
8209
330
8200
100
AcDbEntity
  8
0
100
AcDbVertex
100
AcDbPolygonMeshVertex
 10
-1439.901263841733
 20
1707.541936260762
 30
-359.7147947002422
 70
    64
  0
VERTEX
  5
820A
330
8200
100
AcDbEntity
  8
0
100
AcDbVertex
100
AcDbPolygonMeshVertex
 10
-1437.361263841733
 20
1702.461936260761
 30
-283.5147947002423
 70
    64
  0
VERTEX
  5
820B
330
8200
100
AcDbEntity
  8
0
100
AcDbVertex
100
AcDbPolygonMeshVertex
 10
-1437.361263841733
 20
1702.461936260761
 30
-359.7147947002422
 70
    64
  0
VERTEX
  5
820C
330
8200
100
AcDbEntity
  8
0
100
AcDbVertex
100
AcDbPolygonMeshVertex
 10
-1437.361263841733
 20
1707.541936260762
 30
-359.7147947002422
 70
    64
  0
VERTEX
  5
820D
330
8200
100
AcDbEntity
  8
0
100
AcDbVertex
100
AcDbPolygonMeshVertex
 10
-1437.361263841733
 20
1702.461936260761
 30
-283.5147947002423
 70
    64
  0
VERTEX
  5
820E
330
8200
100
AcDbEntity
  8
0
100
AcDbVertex
100
AcDbPolygonMeshVertex
 10
-1437.361263841733
 20
1702.461936260761
 30
-283.5147947002423
 70
    64
  0
VERTEX
  5
820F
330
8200
100
AcDbEntity
  8
0
100
AcDbVertex
100
AcDbPolygonMeshVertex
 10
-1437.361263841733
 20
1707.541936260762
 30
-283.5147947002423
 70
    64
  0
VERTEX
  5
8210
330
8200
100
AcDbEntity
  8
0
100
AcDbVertex
100
AcDbPolygonMeshVertex
 10
-1439.901263841733
 20
1702.461936260761
 30
-283.5147947002423
 70
    64
  0
VERTEX
  5
8211
330
8200
100
AcDbEntity
  8
0
100
AcDbVertex
100
AcDbPolygonMeshVertex
 10
-1439.901263841733
 20
1702.461936260761
 30
-283.5147947002423
 70
    64
  0
VERTEX
  5
8212
330
8200
100
AcDbEntity
  8
0
100
AcDbVertex
100
AcDbPolygonMeshVertex
 10
-1439.901263841733
 20
1707.541936260762
 30
-283.5147947002423
 70
    64
  0
SEQEND
  5
8213
330
8200
100
AcDbEntity
  8
0
  0
POINT
  5
8214
330
1F
100
AcDbEntity
  8
SNAP_POINTS
100
AcDbPoint
 10
-1506.200873448399
 20
1573.151102588271
 30
-359.7147947002422
  0
POINT
  5
8215
330
1F
100
AcDbEntity
  8
SNAP_POINTS
100
AcDbPoint
 10
-1471.153706328431
 20
1573.151797702386
 30
-359.7147947002422
  0
POLYLINE
  5
8216
330
1F
100
AcDbEntity
  8
0
100
AcDbPolygonMesh
 66
     1
 10
0.0
 20
0.0
 30
0.0
 70
    16
 71
     6
 72
     3
  0
VERTEX
  5
8217
330
8216
100
AcDbEntity
  8
0
100
AcDbVertex
100
AcDbPolygonMeshVertex
 10
-1455.60874385908
 20
1555.447366981574
 30
-359.9687947002423
 70
    64
  0
VERTEX
  5
8218
330
8216
100
AcDbEntity
  8
0
100
AcDbVertex
100
AcDbPolygonMeshVertex
 10
-1455.60874385908
 20
1555.447366981574
 30
-360.9847947002422
 70
    64
  0
VERTEX
  5
8219
330
8216
100
AcDbEntity
  8
0
100
AcDbVertex
100
AcDbPolygonMeshVertex
 10
-1455.60874385908
 20
1555.447366981574
 30
-360.9847947002422
 70
    64
  0
VERTEX
  5
821A
330
8216
100
AcDbEntity
  8
0
100
AcDbVertex
100
AcDbPolygonMeshVertex
 10
-1466.63234385908
 20
1555.447366981574
 30
-359.9687947002423
 70
    64
  0
VERTEX
  5
821B
330
8216
100
AcDbEntity
  8
0
100
AcDbVertex
100
AcDbPolygonMeshVertex
 10
-1466.63234385908
 20
1555.447366981574
 30
-360.9847947002422
 70
    64
  0
VERTEX
  5
821C
330
8216
100
AcDbEntity
  8
0
100
AcDbVertex
100
AcDbPolygonMeshVertex
 10
-1466.63234385908
 20
1555.447366981574
 30
-360.9847947002422
 70
    64
  0
VERTEX
  5
821D
330
8216
100
AcDbEntity
  8
0
100
AcDbVertex
100
AcDbPolygonMeshVertex
 10
-1466.63234385908
 20
1569.417366981574
 30
-359.9687947002423
 70
    64
  0
VERTEX
  5
821E
330
8216
100
AcDbEntity
  8
0
100
AcDbVertex
100
AcDbPolygonMeshVertex
 10
-1466.63234385908
 20
1569.417366981574
 30
-360.9847947002422
 70
    64
  0
VERTEX
  5
821F
330
8216
100
AcDbEntity
  8
0
100
AcDbVertex
100
AcDbPolygonMeshVertex
 10
-1466.63234385908
 20
1555.447366981574
 30
-360.9847947002422
 70
    64
  0
VERTEX
  5
8220
330
8216
100
AcDbEntity
  8
0
100
AcDbVertex
100
AcDbPolygonMeshVertex
 10
-1455.60874385908
 20
1569.417366981574
 30
-359.9687947002423
 70
    64
  0
VERTEX
  5
8221
330
8216
100
AcDbEntity
  8
0
100
AcDbVertex
100
AcDbPolygonMeshVertex
 10
-1455.60874385908
 20
1569.417366981574
 30
-360.9847947002422
 70
    64
  0
VERTEX
  5
8222
330
8216
100
AcDbEntity
  8
0
100
AcDbVertex
100
AcDbPolygonMeshVertex
 10
-1455.60874385908
 20
1555.447366981574
 30
-360.9847947002422
 70
    64
  0
VERTEX
  5
8223
330
8216
100
AcDbEntity
  8
0
100
AcDbVertex
100
AcDbPolygonMeshVertex
 10
-1455.60874385908
 20
1569.417366981574
 30
-359.9687947002423
 70
    64
  0
VERTEX
  5
8224
330
8216
100
AcDbEntity
  8
0
100
AcDbVertex
100
AcDbPolygonMeshVertex
 10
-1455.60874385908
 20
1569.417366981574
 30
-359.9687947002423
 70
    64
  0
VERTEX
  5
8225
330
8216
100
AcDbEntity
  8
0
100
AcDbVertex
100
AcDbPolygonMeshVertex
 10
-1455.60874385908
 20
1555.447366981574
 30
-359.9687947002423
 70
    64
  0
VERTEX
  5
8226
330
8216
100
AcDbEntity
  8
0
100
AcDbVertex
100
AcDbPolygonMeshVertex
 10
-1466.63234385908
 20
1569.417366981574
 30
-359.9687947002423
 70
    64
  0
VERTEX
  5
8227
330
8216
100
AcDbEntity
  8
0
100
AcDbVertex
100
AcDbPolygonMeshVertex
 10
-1466.63234385908
 20
1569.417366981574
 30
-359.9687947002423
 70
    64
  0
VERTEX
  5
8228
330
8216
100
AcDbEntity
  8
0
100
AcDbVertex
100
AcDbPolygonMeshVertex
 10
-1466.63234385908
 20
1555.447366981574
 30
-359.9687947002423
 70
    64
  0
SEQEND
  5
8229
330
8216
100
AcDbEntity
  8
0
  0
CIRCLE
  5
822A
330
1F
100
AcDbEntity
  8
0
100
AcDbCircle
 39
1.016
 10
-1461.12054385908
 20
1561.797366981574
 30
-360.9847947002422
 40
2.755899999999993
  0
POINT
  5
822B
330
1F
100
AcDbEntity
  8
SNAP_POINTS
100
AcDbPoint
 10
-1436.228706328431
 20
1573.151797702386
 30
-359.7147947002422
  0
POLYLINE
  5
822C
330
1F
100
AcDbEntity
  8
0
100
AcDbPolygonMesh
 66
     1
 10
0.0
 20
0.0
 30
0.0
 70
    16
 71
     6
 72
     3
  0
VERTEX
  5
822D
330
822C
100
AcDbEntity
  8
0
100
AcDbVertex
100
AcDbPolygonMeshVertex
 10
-1472.297783521871
 20
1653.491935291984
 30
-350.1897947002423
 70
    64
  0
VERTEX
  5
822E
330
822C
100
AcDbEntity
  8
0
100
AcDbVertex
100
AcDbPolygonMeshVertex
 10
-1472.297783521871
 20
1653.491935291984
 30
-359.7147947002423
 70
    64
  0
VERTEX
  5
822F
330
822C
100
AcDbEntity
  8
0
100
AcDbVertex
100
AcDbPolygonMeshVertex
 10
-1472.297783521871
 20
1653.491935291984
 30
-359.7147947002423
 70
    64
  0
VERTEX
  5
8230
330
822C
100
AcDbEntity
  8
0
100
AcDbVertex
100
AcDbPolygonMeshVertex
 10
-1482.457172119734
 20
1653.491935291984
 30
-350.1897947002423
 70
    64
  0
VERTEX
  5
8231
330
822C
100
AcDbEntity
  8
0
100
AcDbVertex
100
AcDbPolygonMeshVertex
 10
-1482.457172119734
 20
1653.491935291984
 30
-359.7147947002423
 70
    64
  0
VERTEX
  5
8232
330
822C
100
AcDbEntity
  8
0
100
AcDbVertex
100
AcDbPolygonMeshVertex
 10
-1482.457172119734
 20
1653.491935291984
 30
-359.7147947002423
 70
    64
  0
VERTEX
  5
8233
330
822C
100
AcDbEntity
  8
0
100
AcDbVertex
100
AcDbPolygonMeshVertex
 10
-1482.457172119734
 20
1694.131388802447
 30
-350.1897947002423
 70
    64
  0
VERTEX
  5
8234
330
822C
100
AcDbEntity
  8
0
100
AcDbVertex
100
AcDbPolygonMeshVertex
 10
-1482.457172119734
 20
1694.131388802447
 30
-359.7147947002423
 70
    64
  0
VERTEX
  5
8235
330
822C
100
AcDbEntity
  8
0
100
AcDbVertex
100
AcDbPolygonMeshVertex
 10
-1482.457172119734
 20
1653.491935291984
 30
-359.7147947002423
 70
    64
  0
VERTEX
  5
8236
330
822C
100
AcDbEntity
  8
0
100
AcDbVertex
100
AcDbPolygonMeshVertex
 10
-1472.297783521871
 20
1694.131388802447
 30
-350.1897947002423
 70
    64
  0
VERTEX
  5
8237
330
822C
100
AcDbEntity
  8
0
100
AcDbVertex
100
AcDbPolygonMeshVertex
 10
-1472.297783521871
 20
1694.131388802447
 30
-359.7147947002423
 70
    64
  0
VERTEX
  5
8238
330
822C
100
AcDbEntity
  8
0
100
AcDbVertex
100
AcDbPolygonMeshVertex
 10
-1472.297783521871
 20
1653.491935291984
 30
-359.7147947002423
 70
    64
  0
VERTEX
  5
8239
330
822C
100
AcDbEntity
  8
0
100
AcDbVertex
100
AcDbPolygonMeshVertex
 10
-1472.297783521871
 20
1694.131388802447
 30
-350.1897947002423
 70
    64
  0
VERTEX
  5
823A
330
822C
100
AcDbEntity
  8
0
100
AcDbVertex
100
AcDbPolygonMeshVertex
 10
-1472.297783521871
 20
1694.131388802447
 30
-350.1897947002423
 70
    64
  0
VERTEX
  5
823B
330
822C
100
AcDbEntity
  8
0
100
AcDbVertex
100
AcDbPolygonMeshVertex
 10
-1472.297783521871
 20
1653.491935291984
 30
-350.1897947002423
 70
    64
  0
VERTEX
  5
823C
330
822C
100
AcDbEntity
  8
0
100
AcDbVertex
100
AcDbPolygonMeshVertex
 10
-1482.457172119734
 20
1694.131388802447
 30
-350.1897947002423
 70
    64
  0
VERTEX
  5
823D
330
822C
100
AcDbEntity
  8
0
100
AcDbVertex
100
AcDbPolygonMeshVertex
 10
-1482.457172119734
 20
1694.131388802447
 30
-350.1897947002423
 70
    64
  0
VERTEX
  5
823E
330
822C
100
AcDbEntity
  8
0
100
AcDbVertex
100
AcDbPolygonMeshVertex
 10
-1482.457172119734
 20
1653.491935291984
 30
-350.1897947002423
 70
    64
  0
SEQEND
  5
823F
330
822C
100
AcDbEntity
  8
0
  0
POLYLINE
  5
8240
330
1F
100
AcDbEntity
  8
0
100
AcDbPolygonMesh
 66
     1
 10
0.0
 20
0.0
 30
0.0
 70
    16
 71
     6
 72
     3
  0
VERTEX
  5
8241
330
8240
100
AcDbEntity
  8
0
100
AcDbVertex
100
AcDbPolygonMeshVertex
 10
-1507.222783521871
 20
1653.491935291985
 30
-350.1897947002422
 70
    64
  0
VERTEX
  5
8242
330
8240
100
AcDbEntity
  8
0
100
AcDbVertex
100
AcDbPolygonMeshVertex
 10
-1507.222783521871
 20
1653.491935291985
 30
-359.7147947002423
 70
    64
  0
VERTEX
  5
8243
330
8240
100
AcDbEntity
  8
0
100
AcDbVertex
100
AcDbPolygonMeshVertex
 10
-1507.222783521871
 20
1653.491935291985
 30
-359.7147947002423
 70
    64
  0
VERTEX
  5
8244
330
8240
100
AcDbEntity
  8
0
100
AcDbVertex
100
AcDbPolygonMeshVertex
 10
-1517.382172119734
 20
1653.491935291985
 30
-350.1897947002422
 70
    64
  0
VERTEX
  5
8245
330
8240
100
AcDbEntity
  8
0
100
AcDbVertex
100
AcDbPolygonMeshVertex
 10
-1517.382172119734
 20
1653.491935291985
 30
-359.7147947002423
 70
    64
  0
VERTEX
  5
8246
330
8240
100
AcDbEntity
  8
0
100
AcDbVertex
100
AcDbPolygonMeshVertex
 10
-1517.382172119734
 20
1653.491935291985
 30
-359.7147947002423
 70
    64
  0
VERTEX
  5
8247
330
8240
100
AcDbEntity
  8
0
100
AcDbVertex
100
AcDbPolygonMeshVertex
 10
-1517.382172119734
 20
1694.131388802447
 30
-350.1897947002422
 70
    64
  0
VERTEX
  5
8248
330
8240
100
AcDbEntity
  8
0
100
AcDbVertex
100
AcDbPolygonMeshVertex
 10
-1517.382172119734
 20
1694.131388802447
 30
-359.7147947002423
 70
    64
  0
VERTEX
  5
8249
330
8240
100
AcDbEntity
  8
0
100
AcDbVertex
100
AcDbPolygonMeshVertex
 10
-1517.382172119734
 20
1653.491935291985
 30
-359.7147947002423
 70
    64
  0
VERTEX
  5
824A
330
8240
100
AcDbEntity
  8
0
100
AcDbVertex
100
AcDbPolygonMeshVertex
 10
-1507.222783521871
 20
1694.131388802447
 30
-350.1897947002422
 70
    64
  0
VERTEX
  5
824B
330
8240
100
AcDbEntity
  8
0
100
AcDbVertex
100
AcDbPolygonMeshVertex
 10
-1507.222783521871
 20
1694.131388802447
 30
-359.7147947002423
 70
    64
  0
VERTEX
  5
824C
330
8240
100
AcDbEntity
  8
0
100
AcDbVertex
100
AcDbPolygonMeshVertex
 10
-1507.222783521871
 20
1653.491935291985
 30
-359.7147947002423
 70
    64
  0
VERTEX
  5
824D
330
8240
100
AcDbEntity
  8
0
100
AcDbVertex
100
AcDbPolygonMeshVertex
 10
-1507.222783521871
 20
1694.131388802447
 30
-350.1897947002422
 70
    64
  0
VERTEX
  5
824E
330
8240
100
AcDbEntity
  8
0
100
AcDbVertex
100
AcDbPolygonMeshVertex
 10
-1507.222783521871
 20
1694.131388802447
 30
-350.1897947002422
 70
    64
  0
VERTEX
  5
824F
330
8240
100
AcDbEntity
  8
0
100
AcDbVertex
100
AcDbPolygonMeshVertex
 10
-1507.222783521871
 20
1653.491935291985
 30
-350.1897947002422
 70
    64
  0
VERTEX
  5
8250
330
8240
100
AcDbEntity
  8
0
100
AcDbVertex
100
AcDbPolygonMeshVertex
 10
-1517.382172119734
 20
1694.131388802447
 30
-350.1897947002422
 70
    64
  0
VERTEX
  5
8251
330
8240
100
AcDbEntity
  8
0
100
AcDbVertex
100
AcDbPolygonMeshVertex
 10
-1517.382172119734
 20
1694.131388802447
 30
-350.1897947002422
 70
    64
  0
VERTEX
  5
8252
330
8240
100
AcDbEntity
  8
0
100
AcDbVertex
100
AcDbPolygonMeshVertex
 10
-1517.382172119734
 20
1653.491935291985
 30
-350.1897947002422
 70
    64
  0
SEQEND
  5
8253
330
8240
100
AcDbEntity
  8
0
  0
POLYLINE
  5
8254
330
1F
100
AcDbEntity
  8
0
100
AcDbPolygonMesh
 66
     1
 10
0.0
 20
0.0
 30
0.0
 70
    16
 71
     6
 72
     3
  0
VERTEX
  5
8255
330
8254
100
AcDbEntity
  8
0
100
AcDbVertex
100
AcDbPolygonMeshVertex
 10
-1437.372783521871
 20
1653.491935291984
 30
-350.1897947002423
 70
    64
  0
VERTEX
  5
8256
330
8254
100
AcDbEntity
  8
0
100
AcDbVertex
100
AcDbPolygonMeshVertex
 10
-1437.372783521871
 20
1653.491935291984
 30
-359.7147947002424
 70
    64
  0
VERTEX
  5
8257
330
8254
100
AcDbEntity
  8
0
100
AcDbVertex
100
AcDbPolygonMeshVertex
 10
-1437.372783521871
 20
1653.491935291984
 30
-359.7147947002424
 70
    64
  0
VERTEX
  5
8258
330
8254
100
AcDbEntity
  8
0
100
AcDbVertex
100
AcDbPolygonMeshVertex
 10
-1447.532172119734
 20
1653.491935291984
 30
-350.1897947002423
 70
    64
  0
VERTEX
  5
8259
330
8254
100
AcDbEntity
  8
0
100
AcDbVertex
100
AcDbPolygonMeshVertex
 10
-1447.532172119734
 20
1653.491935291984
 30
-359.7147947002424
 70
    64
  0
VERTEX
  5
825A
330
8254
100
AcDbEntity
  8
0
100
AcDbVertex
100
AcDbPolygonMeshVertex
 10
-1447.532172119734
 20
1653.491935291984
 30
-359.7147947002424
 70
    64
  0
VERTEX
  5
825B
330
8254
100
AcDbEntity
  8
0
100
AcDbVertex
100
AcDbPolygonMeshVertex
 10
-1447.532172119734
 20
1694.131388802447
 30
-350.1897947002423
 70
    64
  0
VERTEX
  5
825C
330
8254
100
AcDbEntity
  8
0
100
AcDbVertex
100
AcDbPolygonMeshVertex
 10
-1447.532172119734
 20
1694.131388802447
 30
-359.7147947002424
 70
    64
  0
VERTEX
  5
825D
330
8254
100
AcDbEntity
  8
0
100
AcDbVertex
100
AcDbPolygonMeshVertex
 10
-1447.532172119734
 20
1653.491935291984
 30
-359.7147947002424
 70
    64
  0
VERTEX
  5
825E
330
8254
100
AcDbEntity
  8
0
100
AcDbVertex
100
AcDbPolygonMeshVertex
 10
-1437.372783521871
 20
1694.131388802447
 30
-350.1897947002423
 70
    64
  0
VERTEX
  5
825F
330
8254
100
AcDbEntity
  8
0
100
AcDbVertex
100
AcDbPolygonMeshVertex
 10
-1437.372783521871
 20
1694.131388802447
 30
-359.7147947002424
 70
    64
  0
VERTEX
  5
8260
330
8254
100
AcDbEntity
  8
0
100
AcDbVertex
100
AcDbPolygonMeshVertex
 10
-1437.372783521871
 20
1653.491935291984
 30
-359.7147947002424
 70
    64
  0
VERTEX
  5
8261
330
8254
100
AcDbEntity
  8
0
100
AcDbVertex
100
AcDbPolygonMeshVertex
 10
-1437.372783521871
 20
1694.131388802447
 30
-350.1897947002423
 70
    64
  0
VERTEX
  5
8262
330
8254
100
AcDbEntity
  8
0
100
AcDbVertex
100
AcDbPolygonMeshVertex
 10
-1437.372783521871
 20
1694.131388802447
 30
-350.1897947002423
 70
    64
  0
VERTEX
  5
8263
330
8254
100
AcDbEntity
  8
0
100
AcDbVertex
100
AcDbPolygonMeshVertex
 10
-1437.372783521871
 20
1653.491935291984
 30
-350.1897947002423
 70
    64
  0
VERTEX
  5
8264
330
8254
100
AcDbEntity
  8
0
100
AcDbVertex
100
AcDbPolygonMeshVertex
 10
-1447.532172119734
 20
1694.131388802447
 30
-350.1897947002423
 70
    64
  0
VERTEX
  5
8265
330
8254
100
AcDbEntity
  8
0
100
AcDbVertex
100
AcDbPolygonMeshVertex
 10
-1447.532172119734
 20
1694.131388802447
 30
-350.1897947002423
 70
    64
  0
VERTEX
  5
8266
330
8254
100
AcDbEntity
  8
0
100
AcDbVertex
100
AcDbPolygonMeshVertex
 10
-1447.532172119734
 20
1653.491935291984
 30
-350.1897947002423
 70
    64
  0
SEQEND
  5
8267
330
8254
100
AcDbEntity
  8
0
  0
ARC
  5
8268
330
1F
100
AcDbEntity
  8
0
100
AcDbCircle
 39
1.016
 10
-1461.12054385908
 20
1714.86949792131
 30
-360.9847947002422
 40
5.499100000000003
100
AcDbArc
 50
120.0241420378283
 51
59.97585796217167
  0
ARC
  5
8269
330
1F
100
AcDbEntity
  8
0
100
AcDbCircle
 39
1.016
 10
-1461.12054385908
 20
1719.785366981574
 30
-360.9847947002422
 40
2.7559
100
AcDbArc
 50
356.7827327525368
 51
183.217267247463
  0
LINE
  5
826A
330
1F
100
AcDbEntity
  8
0
100
AcDbLine
 10
-1466.63234385908
 20
1726.389366981574
 30
-360.9847947002422
 11
-1469.17234385908
 21
1726.389366981574
 31
-360.9847947002422
  0
LINE
  5
826B
330
1F
100
AcDbEntity
  8
0
100
AcDbLine
 10
-1466.63234385908
 20
1726.389366981574
 30
-359.9687947002423
 11
-1469.17234385908
 21
1726.389366981574
 31
-359.9687947002423
  0
LINE
  5
826C
330
1F
100
AcDbEntity
  8
0
100
AcDbLine
 10
-1453.06874385908
 20
1726.389366981574
 30
-360.9847947002422
 11
-1455.60874385908
 21
1726.389366981574
 31
-360.9847947002422
  0
POINT
  5
826D
330
1F
100
AcDbEntity
  8
DIMS-MTG-HOLES
100
AcDbPoint
 10
-1636.12654385908
 20
1719.785366981574
 30
-360.9847947002422
  0
POINT
  5
826E
330
1F
100
AcDbEntity
  8
DIMS-MTG-HOLES
100
AcDbPoint
 10
-1461.12054385908
 20
1719.785366981574
 30
-360.9847947002422
  0
POINT
  5
826F
330
1F
100
AcDbEntity
  8
DIMS-MTG-HOLES
100
AcDbPoint
 10
-1636.12654385908
 20
1561.797366981574
 30
-360.9847947002422
  0
POINT
  5
8270
330
1F
100
AcDbEntity
  8
DIMS-MTG-HOLES
100
AcDbPoint
 10
-1461.12054385908
 20
1561.797366981574
 30
-360.9847947002422
  0
DIMENSION
  5
8271
330
1F
100
AcDbEntity
  8
AREA1
100
AcDbDimension
  2
*D0
 10
-1386.416295188922
 20
1555.447366981574
 30
-360.9847947002422
 11
-1386.416295188922
 21
1640.918366981574
 31
-360.9847947002422
 70
    32
 71
     5
 42
170.942
  3
ABECAD_3D
100
AcDbAlignedDimension
 13
-1453.06874385908
 23
1726.389366981574
 33
-360.9847947002422
 14
-1455.60874385908
 24
1555.447366981574
 34
-360.9847947002422
 50
90.0
100
AcDbRotatedDimension
1001
ACAD
1000
DSTYLE
1002
{
1070
   140
1040
7.5
1070
    41
1040
7.5
1002
}
  0
DIMENSION
  5
8272
330
1F
100
AcDbEntity
  8
AREA1
100
AcDbDimension
  2
*D1
 10
-1416.16254385908
 20
1751.162974618593
 30
-360.9847947002422
 11
-1558.78354385908
 21
1751.162974618593
 31
-360.9847947002422
 70
    32
 71
     5
 42
285.2419999999999
  3
ABECAD_3D
100
AcDbAlignedDimension
 13
-1701.40454385908
 23
1709.371366981574
 33
-360.9847947002422
 14
-1416.16254385908
 24
1699.211366981574
 34
-360.9847947002422
100
AcDbRotatedDimension
1001
ACAD
1000
DSTYLE
1002
{
1070
   140
1040
7.5
1070
    41
1040
7.5
1002
}
  0
DIMENSION
  5
8273
330
1F
100
AcDbEntity
  8
AREA2
100
AcDbDimension
  2
*D2
 10
-1406.004449377857
 20
1726.389366981574
 30
-360.9847947002423
 11
-1406.004449377857
 21
-289.1246204941692
 31
-1726.389366981574
 70
   160
 71
     5
 42
145.034
210
0.0
220
-1.0
230
0.0
  3
ABECAD_3D
100
AcDbAlignedDimension
 13
-1416.16254385908
 23
1579.577366981574
 33
-215.9507947002422
 14
-1455.60874385908
 24
1569.417366981574
 34
-360.9847947002422
 50
90.0
100
AcDbRotatedDimension
1001
ACAD
1000
DSTYLE
1002
{
1070
   140
1040
7.5
1070
    41
1040
7.5
1002
}
  0
LWPOLYLINE
  5
82D9
330
1F
100
AcDbEntity
  8
SCALE
100
AcDbPolyline
 90
        4
 70
     1
 43
0.0
 38
-360.9847947002422
 10
-1751.902044628282
 20
1692.87416500799
 10
-1723.057072611917
 20
1692.87416500799
 10
-1723.057072611917
 20
1671.497282011828
 10
-1751.902044628282
 20
1671.497282011828
  0
VIEWPORT
  5
9C
102
{ACAD_XDICTIONARY
360
82E1
102
}
330
89
100
AcDbEntity
 67
     1
  8
0
100
AcDbViewport
 10
5.346584865904822
 20
4.039352871279092
 30
0.0
 40
14.60188649343555
 41
8.146587424719569
 68
     1
 69
     1
 12
5.346584865904822
 22
4.039352871279092
 13
0.0
 23
0.0
 14
0.5
 24
0.5
 15
0.5
 25
0.5
 16
0.0
 26
0.0
 36
1.0
 17
0.0
 27
0.0
 37
0.0
 42
50.0
 43
0.0
 44
0.0
 45
8.146587424719569
 50
0.0
 51
0.0
 72
  1000
 90
    32800
  1

281
     0
 71
     1
 74
     0
110
0.0
120
0.0
130
0.0
111
1.0
121
0.0
131
0.0
112
0.0
122
1.0
132
0.0
 79
     0
146
0.0
  0
VIEWPORT
  5
960
102
{ACAD_XDICTIONARY
360
82E3
102
}
330
89
100
AcDbEntity
 67
     1
  8
0
100
AcDbViewport
 10
2.655279694450206
 20
5.929105335616895
 30
0.0
 40
5.265273537481815
 41
4.29106457295171
 68
     4
 69
     2
 12
-1548.141810453034
 22
1647.888799399556
 13
0.0
 23
0.0
 14
0.5
 24
0.5
 15
0.5
 25
0.5
 16
0.0
 26
0.0
 36
1.0
 17
0.0
 27
0.0
 37
0.0
 42
50.0
 43
0.0
 44
0.0
 45
305.3232996904047
 50
0.0
 51
0.0
 72
  1000
341
98F
 90
    34880
  1

281
     2
 71
     1
 74
     0
110
0.0
120
0.0
130
0.0
111
1.0
121
0.0
131
0.0
112
0.0
122
1.0
132
0.0
 79
     0
146
0.0
  0
VIEWPORT
  5
962
102
{ACAD_XDICTIONARY
360
82E5
102
}
330
89
100
AcDbEntity
 67
     1
  8
0
100
AcDbViewport
 10
2.655279694450205
 20
1.893820584803237
 30
0.0
 40
5.265273537481814
 41
3.779504928675607
 68
     3
 69
     3
 12
-1548.140440428289
 22
-288.4677947002422
 13
0.0
 23
0.0
 14
0.5
 24
0.5
 15
0.5
 25
0.5
 16
0.0
 26
-1.0
 36
0.0
 17
0.0
 27
0.0
 37
0.0
 42
50.0
 43
0.0
 44
0.0
 45
268.9265593224712
 50
0.0
 51
0.0
 72
  1000
341
98E
 90
    34880
  1

281
     2
 71
     1
 74
     0
110
0.0
120
0.0
130
0.0
111
1.0
121
0.0
131
0.0
112
0.0
122
1.0
132
0.0
 79
     0
146
0.0
  0
VIEWPORT
  5
964
102
{ACAD_XDICTIONARY
360
82E7
102
}
330
89
100
AcDbEntity
 67
     1
  8
0
100
AcDbViewport
 10
7.921824282077195
 20
3.626879553828967
 30
0.0
 40
5.26781563777216
 41
7.245622866727068
 68
     2
 69
     4
 12
-2273.40288243006
 22
-84.96435721678144
 13
0.0
 23
0.0
 14
0.5
 24
0.5
 15
0.5
 25
0.5
 16
-1.0
 26
-1.0
 36
1.0
 17
0.0
 27
0.0
 37
0.0
 42
50.0
 43
0.0
 44
0.0
 45
631.0985940362483
 50
0.0
 51
0.0
 72
  1000
341
98E
341
98F
 90
    34880
  1

281
     2
 71
     1
 74
     0
110
0.0
120
0.0
130
0.0
111
1.0
121
0.0
131
0.0
112
0.0
122
0.0
132
1.0
 79
     3
146
0.0
  0
TEXT
  5
965
330
89
100
AcDbEntity
 67
     1
  8
0
100
AcDbText
 10
5.403435234597253
 20
7.727515017556658
 30
0.0
 40
0.203125
  1
1756-A7
100
AcDbText
  0
TEXT
  5
966
330
89
100
AcDbEntity
 67
     1
  8
0
100
AcDbText
 10
5.403435234597253
 20
7.394181684223325
 30
0.0
 40
0.203125
  1
ControlLogix 7 Slot Chassis
100
AcDbText
  0
ENDSEC
  0
SECTION
  2
OBJECTS
  0
DICTIONARY
  5
C
330
0
100
AcDbDictionary
281
     1
  3
ACAD_COLOR
350
73
  3
ACAD_GROUP
350
D
  3
ACAD_LAYOUT
350
1A
  3
ACAD_MATERIAL
350
72
  3
ACAD_MLINESTYLE
350
17
  3
ACAD_PLOTSETTINGS
350
19
  3
ACAD_PLOTSTYLENAME
350
E
  3
ACAD_TABLESTYLE
350
399E
  3
ACDBHEADERROUNDTRIPXREC
350
82EC
  3
AcDbVariableDictionary
350
66
  3
BNS_VARIABLES
350
3B4D
  0
DICTIONARY
  5
39AB
330
2
100
AcDbDictionary
280
     1
281
     1
  3
ACAD_LAYERSTATES
360
39AC
  0
DICTIONARY
  5
3379
330
1F
100
AcDbDictionary
280
     1
281
     1
  3
ACAD_LAYOUTSELFREF
360
33B2
  3
ACAD_SORTENTS
360
3B58
  0
DICTIONARY
  5
337B
330
89
100
AcDbDictionary
280
     1
281
     1
  3
ACAD_LAYOUTSELFREF
360
33B5
  0
DICTIONARY
  5
82E1
330
9C
100
AcDbDictionary
280
     1
281
     1
  3
ACAD_XREC_ROUNDTRIP
360
82E2
  0
DICTIONARY
  5
82E3
330
960
100
AcDbDictionary
280
     1
281
     1
  3
ACAD_XREC_ROUNDTRIP
360
82E4
  0
DICTIONARY
  5
82E5
330
962
100
AcDbDictionary
280
     1
281
     1
  3
ACAD_XREC_ROUNDTRIP
360
82E6
  0
DICTIONARY
  5
82E7
330
964
100
AcDbDictionary
280
     1
281
     1
  3
ACAD_XREC_ROUNDTRIP
360
82E8
  0
DICTIONARY
  5
73
102
{ACAD_REACTORS
330
C
102
}
330
C
100
AcDbDictionary
281
     1
  0
DICTIONARY
  5
D
102
{ACAD_REACTORS
330
C
102
}
330
C
100
AcDbDictionary
281
     1
  0
DICTIONARY
  5
1A
102
{ACAD_REACTORS
330
C
102
}
330
C
100
AcDbDictionary
281
     1
  3
Model
350
22
  3
Viewports
350
8A
  0
DICTIONARY
  5
72
102
{ACAD_REACTORS
330
C
102
}
330
C
100
AcDbDictionary
281
     1
  0
DICTIONARY
  5
17
102
{ACAD_REACTORS
330
C
102
}
330
C
100
AcDbDictionary
281
     1
  3
Standard
350
18
  0
DICTIONARY
  5
19
102
{ACAD_REACTORS
330
C
102
}
330
C
100
AcDbDictionary
281
     1
  0
ACDBDICTIONARYWDFLT
  5
E
102
{ACAD_REACTORS
330
C
102
}
330
C
100
AcDbDictionary
281
     1
  3
Normal
350
F
100
AcDbDictionaryWithDefault
340
F
  0
DICTIONARY
  5
399E
102
{ACAD_REACTORS
330
C
102
}
330
C
100
AcDbDictionary
281
     1
  3
Standard
350
399F
  0
DICTIONARY
  5
82EC
102
{ACAD_REACTORS
330
C
102
}
330
C
100
AcDbDictionary
281
     1
  3
CEPSNTYPE
350
82F6
  3
FINGERPRINTGUID
350
82F7
  3
HYPERLINKBASE
350
82EF
  3
INSUNITS
350
82F5
  3
LAYOUTDICT
350
82F1
  3
LWETCUNION
350
82F4
  3
PLOTSETDICT
350
82F2
  3
PLOTSTYLNAMDICT
350
82F3
  3
PSVPSCALE
350
82F9
  3
PUCSBASE
350
82FC
  3
PUCSORGBACK
350
8302
  3
PUCSORGBOTTOM
350
82FE
  3
PUCSORGFRONT
350
8301
  3
PUCSORGLEFT
350
82FF
  3
PUCSORGRIGHT
350
8300
  3
PUCSORGTOP
350
82FD
  3
PUCSORTHOREF
350
82FA
  3
PUCSORTHOVIEW
350
82FB
  3
STYLESHEET
350
82F0
  3
TSTACKALIGN
350
82ED
  3
TSTACKSIZE
350
82EE
  3
UCSBASE
350
8305
  3
UCSORGBACK
350
830B
  3
UCSORGBOTTOM
350
8307
  3
UCSORGFRONT
350
830A
  3
UCSORGLEFT
350
8308
  3
UCSORGRIGHT
350
8309
  3
UCSORGTOP
350
8306
  3
UCSORTHOREF
350
8303
  3
UCSORTHOVIEW
350
8304
  3
VERSIONGUID
350
82F8
  0
DICTIONARY
  5
66
102
{ACAD_REACTORS
330
C
102
}
330
C
100
AcDbDictionary
281
     1
  3
CTABLESTYLE
350
3B6C
  3
DIMASSOC
350
67
  3
HIDETEXT
350
6B
  3
PROJECTNAME
350
33C5
  0
DICTIONARY
  5
3B4D
102
{ACAD_REACTORS
330
C
102
}
330
C
100
AcDbDictionary
281
     1
  3
ACET-OVERKILL-FUZZ
350
82CF
  3
ACET-OVERKILL-NO-ENDTOEND
350
82D2
  3
ACET-OVERKILL-NO-PARTIAL
350
82D1
  3
ACET-OVERKILL-NO-PLINES
350
82D0
  0
DICTIONARY
  5
39AC
102
{ACAD_REACTORS
330
39AB
102
}
330
39AB
100
AcDbDictionary
281
     1
  0
XRECORD
  5
33B2
102
{ACAD_REACTORS
330
3379
102
}
330
3379
100
AcDbXrecord
280
     1
340
1F
  0
SORTENTSTABLE
  5
3B58
102
{ACAD_REACTORS
330
3379
102
}
330
3379
100
AcDbSortentsTable
330
1F
331
805A
  5
80FC
331
7F25
  5
7FDA
331
80D4
  5
819C
331
7CE6
  5
7CE6
331
8268
  5
8272
331
7CF5
  5
7DBD
331
7EC1
  5
7F89
331
805B
  5
8110
331
81EC
  5
8268
331
7FD9
  5
801C
331
8188
  5
822A
331
7CE7
  5
7CE7
331
8269
  5
8273
331
7E21
  5
7EE9
331
8254
  5
8271
331
7EAD
  5
7F75
331
805C
  5
8124
331
801A
  5
8070
331
81D8
  5
8254
331
7FDA
  5
801D
331
7CE8
  5
7CE8
331
826A
  5
82C0
331
8174
  5
8216
331
7FC5
  5
801B
331
8045
  5
80D4
331
7E0D
  5
7ED5
331
7F61
  5
7FF0
331
8110
  5
81D8
331
801B
  5
8084
331
7DA9
  5
7E71
331
7FDB
  5
8031
331
7CE9
  5
7CE9
331
826B
  5
82C1
331
8031
  5
80C0
331
8160
  5
8215
331
801C
  5
8098
331
80FC
  5
81C4
331
7F4D
  5
7FEF
331
7D95
  5
7E5D
331
826C
  5
82C2
331
7CEA
  5
7CEA
331
7EE9
  5
7FB1
331
8098
  5
8160
331
8214
  5
826A
331
7D31
  5
7DF9
331
801D
  5
80AC
331
81B0
  5
822C
331
826D
  5
82C3
331
7E49
  5
7F11
331
80E8
  5
81B0
331
822A
  5
826D
331
8084
  5
814C
331
7ED5
  5
7F9D
331
8215
  5
826B
331
7D1D
  5
7DE5
331
826E
  5
82C4
331
7CEC
  5
7D09
331
819C
  5
822B
331
822B
  5
826E
331
7E35
  5
7EFD
331
8216
  5
826C
331
8138
  5
8200
331
8070
  5
8138
331
7DD1
  5
7E99
331
7CED
  5
7D1D
331
826F
  5
82D5
331
822C
  5
826F
331
8124
  5
81EC
331
7DBD
  5
7E85
331
7F89
  5
7FF2
331
7CEE
  5
7D31
331
8270
  5
82D6
331
80C0
  5
8188
331
7D59
  5
7E21
331
7E71
  5
7F39
331
7CEF
  5
7D45
331
8271
  5
82D7
331
7F75
  5
7FF1
331
80AC
  5
8174
331
7D45
  5
7E0D
331
7FEF
  5
8045
331
7F11
  5
7FD9
331
7CF0
  5
7D59
331
8272
  5
82D8
331
7E5D
  5
7F25
331
7DF9
  5
7EC1
331
7FF0
  5
8059
331
7EFD
  5
7FC5
331
7CE2
  5
7CE2
331
7CF1
  5
7D6D
331
8273
  5
82D9
331
8240
  5
8270
331
7E99
  5
7F61
331
8006
  5
805C
331
82D9
  5
7CF2
331
81C4
  5
8240
331
7FF1
  5
805A
331
7DE5
  5
7EAD
331
7FB1
  5
801A
331
7CE3
  5
7CE3
331
7CF2
  5
7D81
331
7D81
  5
7E49
331
7E85
  5
7F4D
331
7FF2
  5
805B
331
7CE4
  5
7CE4
331
7CF3
  5
7D95
331
7F9D
  5
8006
331
814C
  5
8214
331
8059
  5
80E8
331
7D6D
  5
7E35
331
7F39
  5
7FDB
331
7D09
  5
7DD1
331
7CE5
  5
7CE5
331
7CF4
  5
7DA9
331
8200
  5
8269
  0
XRECORD
  5
33B5
102
{ACAD_REACTORS
330
337B
102
}
330
337B
100
AcDbXrecord
280
     1
340
89
  0
XRECORD
  5
82E2
102
{ACAD_REACTORS
330
82E1
102
}
330
82E1
100
AcDbXrecord
280
     1
102
SHADEPLOT
 70
     0
  0
XRECORD
  5
82E4
102
{ACAD_REACTORS
330
82E3
102
}
330
82E3
100
AcDbXrecord
280
     1
102
SHADEPLOT
 70
     2
  0
XRECORD
  5
82E6
102
{ACAD_REACTORS
330
82E5
102
}
330
82E5
100
AcDbXrecord
280
     1
102
SHADEPLOT
 70
     2
  0
XRECORD
  5
82E8
102
{ACAD_REACTORS
330
82E7
102
}
330
82E7
100
AcDbXrecord
280
     1
102
SHADEPLOT
 70
     2
  0
LAYOUT
  5
22
102
{ACAD_XDICTIONARY
360
82DE
102
}
102
{ACAD_REACTORS
330
1A
102
}
330
1A
100
AcDbPlotSettings
  1

  2
none_device
  4
ANSI_A_(8.50_x_11.00_Inches)
  6

 40
6.349999904632568
 41
19.04999923706054
 42
6.350006103515625
 43
19.04998779296875
 44
215.8999938964843
 45
279.3999938964843
 46
0.0
 47
0.0
 48
0.0
 49
0.0
140
0.0
141
0.0
142
1.0
143
2.584895464708373
 70
 11952
 72
     0
 73
     1
 74
     0
  7

 75
     0
147
0.3868628397755418
148
0.0
149
0.0
100
AcDbLayout
  1
Model
 70
     1
 71
     0
 10
0.0
 20
0.0
 11
12.0
 21
9.0
 12
0.0
 22
0.0
 32
0.0
 14
0.0
 24
0.0
 34
0.0
 15
0.0
 25
0.0
 35
0.0
146
0.0
 13
0.0
 23
0.0
 33
0.0
 16
1.0
 26
0.0
 36
0.0
 17
0.0
 27
1.0
 37
0.0
 76
     0
330
1F
  0
LAYOUT
  5
8A
102
{ACAD_XDICTIONARY
360
39AE
102
}
102
{ACAD_REACTORS
330
1A
102
}
330
1A
100
AcDbPlotSettings
  1

  2
\\Usmkevprnt002\USMKEPD0178
  4
Letter
  6

 40
5.365749835968017
 41
5.408084392547607
 42
5.4080810546875
 43
5.365753173828125
 44
215.8999938964843
 45
279.3999938964843
 46
0.0
 47
0.0
 48
0.0
 49
0.0
140
0.0
141
0.0
142
1.0
143
1.0
 70
   688
 72
     0
 73
     1
 74
     5
  7

 75
    16
147
1.0
148
0.0
149
0.0
100
AcDbLayout
  1
Viewports
 70
     1
 71
     1
 10
-0.2112501249538632
 20
-0.2112499935420479
 11
10.78874963475024
 21
8.288749766162061
 12
0.0
 22
0.0
 32
0.0
 14
0.0226429257092988
 24
0.0040681204654334
 34
0.0
 15
10.55573210096327
 25
8.074637622092751
 35
0.0
146
0.0
 13
0.0
 23
0.0
 33
0.0
 16
1.0
 26
0.0
 36
0.0
 17
0.0
 27
1.0
 37
0.0
 76
     0
330
89
331
9C
  0
MLINESTYLE
  5
18
102
{ACAD_REACTORS
330
17
102
}
330
17
100
AcDbMlineStyle
  2
STANDARD
 70
     0
  3

 62
   256
 51
90.0
 52
90.0
 71
     2
 49
0.5
 62
   256
  6
BYLAYER
 49
-0.5
 62
   256
  6
BYLAYER
  0
ACDBPLACEHOLDER
  5
F
102
{ACAD_REACTORS
330
E
102
}
330
E
  0
ACAD_PROXY_OBJECT
  5
399F
102
{ACAD_REACTORS
330
399E
102
}
330
399E
100
AcDbProxyObject
 90
      499
 91
      506
 95
   851991
 70
     0
 93
     1841
310
4214DD185B99185C9928B81E85EB51B8AE3F2E07A17AD46E2B8FC02B5E8DC0F42B1CFD028000000C1008070000C3001FDFF8000000C1003FBFF000000182007F7FE00000030400FEFFC00000060801FDFF8000000C1003FBFF00000018200000000000000681FA0B0000001820100E000186003FBFF000000182007F7FE000
310
00030400FEFFC00000060801FDFF8000000C1003FBFF000000182007F7FE000000304000AD7A3703D0AC73F4160000003040201C00030C007F7FE00000030400FEFFC00000060801FDFF8000000C1003FBFF000000182007F7FE00000030400FEFFC000000608004
340
11
340
11
340
11
 94
        0
  0
XRECORD
  5
82F6
102
{ACAD_REACTORS
330
82EC
102
}
330
82EC
100
AcDbXrecord
280
     1
 90
        0
  0
XRECORD
  5
82F7
102
{ACAD_REACTORS
330
82EC
102
}
330
82EC
100
AcDbXrecord
280
     1
  1
{FDEAD576-A652-11D2-9A35-0060089B3A3F}
  0
XRECORD
  5
82EF
102
{ACAD_REACTORS
330
82EC
102
}
330
82EC
100
AcDbXrecord
280
     1
  1

  0
XRECORD
  5
82F5
102
{ACAD_REACTORS
330
82EC
102
}
330
82EC
100
AcDbXrecord
280
     1
 90
        1
  0
XRECORD
  5
82F1
102
{ACAD_REACTORS
330
82EC
102
}
330
82EC
100
AcDbXrecord
280
     1
340
1A
  0
XRECORD
  5
82F4
102
{ACAD_REACTORS
330
82EC
102
}
330
82EC
100
AcDbXrecord
280
     1
 90
    10781
  0
XRECORD
  5
82F2
102
{ACAD_REACTORS
330
82EC
102
}
330
82EC
100
AcDbXrecord
280
     1
340
19
  0
XRECORD
  5
82F3
102
{ACAD_REACTORS
330
82EC
102
}
330
82EC
100
AcDbXrecord
280
     1
340
E
  0
XRECORD
  5
82F9
102
{ACAD_REACTORS
330
82EC
102
}
330
82EC
100
AcDbXrecord
280
     1
 40
0.0
  0
XRECORD
  5
82FC
102
{ACAD_REACTORS
330
82EC
102
}
330
82EC
100
AcDbXrecord
280
     1
340
0
  0
XRECORD
  5
8302
102
{ACAD_REACTORS
330
82EC
102
}
330
82EC
100
AcDbXrecord
280
     1
 10
0.0
 20
0.0
 30
0.0
  0
XRECORD
  5
82FE
102
{ACAD_REACTORS
330
82EC
102
}
330
82EC
100
AcDbXrecord
280
     1
 10
0.0
 20
0.0
 30
0.0
  0
XRECORD
  5
8301
102
{ACAD_REACTORS
330
82EC
102
}
330
82EC
100
AcDbXrecord
280
     1
 10
0.0
 20
0.0
 30
0.0
  0
XRECORD
  5
82FF
102
{ACAD_REACTORS
330
82EC
102
}
330
82EC
100
AcDbXrecord
280
     1
 10
0.0
 20
0.0
 30
0.0
  0
XRECORD
  5
8300
102
{ACAD_REACTORS
330
82EC
102
}
330
82EC
100
AcDbXrecord
280
     1
 10
0.0
 20
0.0
 30
0.0
  0
XRECORD
  5
82FD
102
{ACAD_REACTORS
330
82EC
102
}
330
82EC
100
AcDbXrecord
280
     1
 10
0.0
 20
0.0
 30
0.0
  0
XRECORD
  5
82FA
102
{ACAD_REACTORS
330
82EC
102
}
330
82EC
100
AcDbXrecord
280
     1
340
0
  0
XRECORD
  5
82FB
102
{ACAD_REACTORS
330
82EC
102
}
330
82EC
100
AcDbXrecord
280
     1
 70
     0
  0
XRECORD
  5
82F0
102
{ACAD_REACTORS
330
82EC
102
}
330
82EC
100
AcDbXrecord
280
     1
  1

  0
XRECORD
  5
82ED
102
{ACAD_REACTORS
330
82EC
102
}
330
82EC
100
AcDbXrecord
280
     1
 90
        1
  0
XRECORD
  5
82EE
102
{ACAD_REACTORS
330
82EC
102
}
330
82EC
100
AcDbXrecord
280
     1
 90
       70
  0
XRECORD
  5
8305
102
{ACAD_REACTORS
330
82EC
102
}
330
82EC
100
AcDbXrecord
280
     1
340
0
  0
XRECORD
  5
830B
102
{ACAD_REACTORS
330
82EC
102
}
330
82EC
100
AcDbXrecord
280
     1
 10
-370.7376209952446
 20
574.4931739166871
 30
-146.9521510172783
  0
XRECORD
  5
8307
102
{ACAD_REACTORS
330
82EC
102
}
330
82EC
100
AcDbXrecord
280
     1
 10
0.0
 20
0.0
 30
0.0
  0
XRECORD
  5
830A
102
{ACAD_REACTORS
330
82EC
102
}
330
82EC
100
AcDbXrecord
280
     1
 10
0.0
 20
0.0
 30
0.0
  0
XRECORD
  5
8308
102
{ACAD_REACTORS
330
82EC
102
}
330
82EC
100
AcDbXrecord
280
     1
 10
0.0
 20
0.0
 30
0.0
  0
XRECORD
  5
8309
102
{ACAD_REACTORS
330
82EC
102
}
330
82EC
100
AcDbXrecord
280
     1
 10
0.0
 20
0.0
 30
0.0
  0
XRECORD
  5
8306
102
{ACAD_REACTORS
330
82EC
102
}
330
82EC
100
AcDbXrecord
280
     1
 10
-1636.12654385908
 20
1719.785366981574
 30
-360.9847947002422
  0
XRECORD
  5
8303
102
{ACAD_REACTORS
330
82EC
102
}
330
82EC
100
AcDbXrecord
280
     1
340
0
  0
XRECORD
  5
8304
102
{ACAD_REACTORS
330
82EC
102
}
330
82EC
100
AcDbXrecord
280
     1
 70
     3
  0
XRECORD
  5
82F8
102
{ACAD_REACTORS
330
82EC
102
}
330
82EC
100
AcDbXrecord
280
     1
  1
{D8A8B957-BB4D-4F40-9656-75888A716136}
  0
DICTIONARYVAR
  5
3B6C
102
{ACAD_REACTORS
330
66
102
}
330
66
100
DictionaryVariables
280
     0
  1
STANDARD
  0
DICTIONARYVAR
  5
67
102
{ACAD_REACTORS
330
66
102
}
330
66
100
DictionaryVariables
280
     0
  1
2
  0
DICTIONARYVAR
  5
6B
102
{ACAD_REACTORS
330
66
102
}
330
66
100
DictionaryVariables
280
     0
  1
1
  0
DICTIONARYVAR
  5
33C5
102
{ACAD_REACTORS
330
66
102
}
330
66
100
DictionaryVariables
280
     0
  1

  0
XRECORD
  5
82CF
102
{ACAD_REACTORS
330
3B4D
102
}
330
3B4D
100
AcDbXrecord
280
     1
 40
0.000001
  0
XRECORD
  5
82D2
102
{ACAD_REACTORS
330
3B4D
102
}
330
3B4D
100
AcDbXrecord
280
     1
 70
     0
  0
XRECORD
  5
82D1
102
{ACAD_REACTORS
330
3B4D
102
}
330
3B4D
100
AcDbXrecord
280
     1
 70
     0
  0
XRECORD
  5
82D0
102
{ACAD_REACTORS
330
3B4D
102
}
330
3B4D
100
AcDbXrecord
280
     1
 70
     0
  0
DICTIONARY
  5
82DE
330
22
100
AcDbDictionary
280
     1
281
     1
  3
ACAD_XREC_ROUNDTRIP
360
82DF
  0
DICTIONARY
  5
39AE
330
8A
100
AcDbDictionary
280
     1
281
     1
  3
ACAD_XREC_ROUNDTRIP
360
82E0
  3
ADSK_XREC_LAYOUTTHUMBNAIL
360
39AF
  0
XRECORD
  5
82DF
102
{ACAD_REACTORS
330
82DE
102
}
330
82DE
100
AcDbXrecord
280
     1
102
SHADEPLOT
 70
     0
102
SHADEPLOTRESLEVEL
 70
     2
102
SHADEPLOTCUSTOMDPI
 70
   300
  0
XRECORD
  5
82E0
102
{ACAD_REACTORS
330
39AE
102
}
330
39AE
100
AcDbXrecord
280
     1
102
SHADEPLOT
 70
     1
102
SHADEPLOTRESLEVEL
 70
     2
102
SHADEPLOTCUSTOMDPI
 70
   300
  0
XRECORD
  5
39AF
102
{ACAD_REACTORS
330
39AE
102
}
330
39AE
100
AcDbXrecord
280
     1
310
28000000B40000008B0000000100080000000000BC61000000000000000000000001000000000000FFFFFF0000000000FFFFFF000000000000000000000000000000000000000000000000000000000000000000330000006600000099000000CC000000FF00000000330000333300006633000099330000CC330000FF3300
310
0000660000336600006666000099660000CC660000FF66000000990000339900006699000099990000CC990000FF99000000CC000033CC000066CC000099CC0000CCCC0000FFCC000000FF000033FF000066FF000099FF0000CCFF0000FFFF000000003300330033006600330099003300CC003300FF003300003333003333
310
33006633330099333300CC333300FF33330000663300336633006666330099663300CC663300FF66330000993300339933006699330099993300CC993300FF99330000CC330033CC330066CC330099CC3300CCCC3300FFCC330000FF330033FF330066FF330099FF3300CCFF3300FFFF330000006600330066006600660099
310
006600CC006600FF00660000336600333366006633660099336600CC336600FF33660000666600336666006666660099666600CC666600FF66660000996600339966006699660099996600CC996600FF99660000CC660033CC660066CC660099CC6600CCCC6600FFCC660000FF660033FF660066FF660099FF6600CCFF6600
310
FFFF660000009900330099006600990099009900CC009900FF00990000339900333399006633990099339900CC339900FF33990000669900336699006666990099669900CC669900FF66990000999900339999006699990099999900CC999900FF99990000CC990033CC990066CC990099CC9900CCCC9900FFCC990000FF99
310
0033FF990066FF990099FF9900CCFF9900FFFF99000000CC003300CC006600CC009900CC00CC00CC00FF00CC000033CC003333CC006633CC009933CC00CC33CC00FF33CC000066CC003366CC006666CC009966CC00CC66CC00FF66CC000099CC003399CC006699CC009999CC00CC99CC00FF99CC0000CCCC0033CCCC0066CC
310
CC0099CCCC00CCCCCC00FFCCCC0000FFCC0033FFCC0066FFCC0099FFCC00CCFFCC00FFFFCC000000FF003300FF006600FF009900FF00CC00FF00FF00FF000033FF003333FF006633FF009933FF00CC33FF00FF33FF000066FF003366FF006666FF009966FF00CC66FF00FF66FF000099FF003399FF006699FF009999FF00CC
310
99FF00FF99FF0000CCFF0033CCFF0066CCFF0099CCFF00CCCCFF00FFCCFF0000FFFF0033FFFF0066FFFF0099FFFF00CCFFFF00FFFFFF00000000000D0D0D001A1A1A00282828003535350043434300505050005D5D5D006B6B6B00787878008686860093939300A1A1A100AEAEAE00BBBBBB00C9C9C900D6D6D600E4E4E400
310
F1F1F100FFFFFF0000000000000000000000000000000000000000000000000000000000000000000000000000000000E2E2E2E2E2E2E2E2E2E2E2E2E2E2E2E2E2E2E2E2E2E2E2E2E2E2E2E2E2E2E2E2E2E2E2E2E2E2E2E2E2E2E2E2E2E2E2E2E2E2E2E2E2E2E2E2E2E2E2E2E2E2E2E2E2E2E2E2E2E2E2E2E2E2E2E2E2E2E2
310
E2E2E2E2E2E2E2E2E2E2E2E2E2E2E2E2E2E2E2E2E2E2E2E2E2E2E2E2E2E2E2E2E2E2E2E2E2E2E2E2E2E2E2E2E2E2E2E2E2E2E2E2E2E2E2E2E2E2E2E2E2E2E2E2E2E2E2E2E2E2E2E2E2E2E2E2E2E2E2E2E2E2E2E2E2E2E2E2E2E2E2E2E2E2E2E2E2E2E2E2E2E2F5F5F5F5F5F5F5F5F5F5F5F5F5F5F5F5F5F5F5F5F5F5F5F5F5
310
F5F5F5F5F5F5F5F5F5F5F5F5F5F5F5F5F5F5F5F5F5F5F5F5F5F5F5F5F5F5F5F5F5F5F5F5F5F5F5F5F5F5F5F5F5F5F5F5F5F5F5F5F5F5F5F5F5F5F5F5F5F5F5F5F5F5F5F5F5F5F5F5F5F5F5F5F5F5F5F5F5F5F5F5F5F5F5F5F5F5F5F5F5F5F5F5F5F5F5F5F5F5F5F5F5F5F5F5F5F5F5F5F5F5F5F5F5F5F5F5F5F5F5F5F5F5F5
310
F5F5F5F5F5F5F5F5F5F5F5F5F5F5F5F5F5F5F5F5F5F5F5F5F5E2E2E2F5F5F5F5F5F5F5F5F5F5F5F5F5F5F5F5F5F5F5F5F5F5F5F5F5F5F5F5F5F5F5F5F5F5F5F5F5F5F5F5F5F5F5F5F5F5F5F5F5F5F5F5F5F5F5F5F5F5F5F5F5F5F5F5F5F5F5F5F5F5F5F5F5F5F5F5F5F5F5F5F5F5F5F5F5F5F5F5F5F5F5F5F5F5F5F5F5F5F5
310
F5F5F5F5F5F5F5F5F5F5F5F5F5F5F5F5F5F5F5F5F5F5F5F5F5F5F5F5F5F5F5F5F5F5F5F5F5F5F5F5F5F5F5F5F5F5F5F5F5F5F5F5F5F5F5F5F5F5F5F5F5F5F5F5F5F5F5F5F5F5F5F5F5F5F5F5F5F5E2E2E2F5F5F5F5F5F5F5F5F5F5F5F5F5F5F5F5F5F5F5F5F5F5F5F5F5F5F5F5F5F5F5F5F5F5F5F5F5F5F5F5F5F5F5F5F5F5
310
F5F5F5F5F5F5F5F5F5F5F5F5F5F5F5F5F5F5F5F5F5F5F5F5F5F5F5F5F5F5F5F5F5F5F5F5F5F5F5F5F5F5F5F5F5F5F5F5F5F5F5F5F5F5F5F5F5F5F5F5F5F5F5F5F5F5F5F5F5F5F5F5F5F5F5F5F5F5F5F5F5F5F5F5F5F5F5F5F5F5F5F5F5F5F5F5F5F5F5F5F5F5F5F5F5F5F5F5F5F5F5F5F5F5F5F5F5F5F5F5F5F5F5F5F5F5F5
310
F5F5F5F5E2E2E2F5F5F5E2E2E2E2E2E2E2E2E2E2E2E2E2E2E2E2E2E2E2E2E2E2E2E2E2E2E2E2E2E2E2E2E2E2E2E2E2E2E2E2E2E2E2E2E2E2E2E2E2E2E2E2E2E2E2E2E2E2E2E2E2E2E2E2E2E2E2E2E2E2E2E2E2E2E2E2E2E2E2E2E2E2E2E2E2E2E2E2E2E2E2E2E2E2E2E2E2E2E2E2E2E2E2E2E2E2E2E2E2E2E2E2E2E2E2E2E2
310
E2E2E2E2E2E2E2E2E2E2E2E2E2E2E2E2E2E2E2E2E2E2E2E2E2E2E2E2E2E2E2E2E2E2E2E2E2E2E2E2E2E2E2E2E2E2E2E2E2E2E2E2E2E2F5F5F5E2E2E2F5F5F5E2F5F5F5F5F5F5F5F5F5F5F5F5F5F5F5F5F5F5F5F5F5F5F5F5F5F5F5F5F5F5F5F5F5F5F5F5F5F5F5F5F5F5F5F5F5F5F5F5F5F5F5F5F5F5F5F5F5F5F5F5F5F5F5
310
F5F5F5F5F5F5F5F5F5F5F5F5F5F5F5F5F5F5F5F5F5E2F5F5F5F5F5F5F5F5F5F5F5F5F5F5F5F5F5F5F5F5F5F5F5F5F5F5F5F5F5F5F5F5F5F5F5F5F5F5F5F5F5F5F5F5F5F5F5F5F5F5F5F5F5F5F5F5F5F5F5F5F5F5F5F5F5F5F5F5F5F5F5F5F5F5F5F5F5F5F5F5F5F5F5F5E2F5F5F5E2E2E2F5F5F5E2F5F5F5F5F5F5F5F5F5F5
310
F5F5F5F5F5F5F5F5F5F5F5F5F5F5F5F5F5F5F5F5F5F5F5F5F5F5F5F5F5F5F5F5F5F5F5F5F5F5F5F5F5F5F5F5F5F5F5F5F5F5F5F5F5F5F5F5F5F5F5F5F5F5F5F5F5F5F5F5F5F5F5F5F5F5E2F5F5F5F5F5F5F5F5F5F5F5F5F5F5F5F5F5F5F5F5F5F5F5F5F5F5F5F5F5F5F5F5F5F5F5F5F5F5F5F5F5F5F5F5F5F5F5F5F5F5F5F5
310
F5F5F5F5F5F5F5F5F5F5F5F5F5F5F5F5F5F5F5F5F5F5F5F5F5F5F5F5F5F5F5F5E2F5F5F5E2E2E2F5F5F5E2F5F5F5F5F5F5F5F5F5F5F5F5F5F5F5F5F5F5F5F5F5F5F5F5F5F5F5F5F5F5F5F5F5F5F5F5F5F5F5F5F5F5F5F5F5F5F5F5F5F5F5F5F5F5F5F5F5F5F5F5F5F5F5F5F5F5F5F5F5F5F5F5F5F5F5F5F5F5F5F5F5F5F5F5
310
E2F5F5F5F5F5F5F5F5F5F5F5F5F5F5F5F5F5F5F5F5F5F5F5F5F5F5F5F5F5F5F5F5F5F5F5F5F5F5F5F5F5F5F5F5F5F5F5F5F5F5F5F5F5F5F5F5F5F5F5F5F5F5F5F5F5F5F5F5F5F5F5F5F5F5F5F5F5F5F5F5F5F5F5F5E2F5F5F5E2E2E2F5F5F5E2F5F5F5F5F5F5F5F5F5F5F5F5F5F5F5F5F5F5F5F5F5F5F5F5F5F5F5F5F5F5F5
310
F5F5F5F5F5F5F5F5F5F5F5F5F5F5F5F5F5F5F5F5F5F5F5F5F5F5F5F5F5F5F5F5F5F5F5F5F5F5F5F5F5F5F5F5F5F5F5F5F5F5F5F5F5E2F5F5F5F5F5F5F5F5F5F5F5F5F5F5F5F5F5F5F5F5F5F5F5F5F5F5F5F5F5F5F5F5F5F5F5F5F5F5F5F5F5F5F5F5F5F5F5F5F5F5F5F5F5F5F5F5F5F5F5F5F5F5F5F5F5F5F5F5F5F5F5F5F5
310
F5F5F5F5F5F5F5F5F5F5F5E2F5F5F5E2E2E2F5F5F5E2F5F5F5F5F5F5F5F5F5F5F5F5F5F5F5F5F5F5F5F5F5F5F5F5F5F5F5F5F5F5F5F5F5F5F5F5F5F5F5F5F5F5F5F5F5F5F5F5F5F5F5F5F5F5F5F5F5F5F5F5F5F5F5F5F5F5F5F5F5F5F5F5F5F5F5F5F5F5F5F5F5F5F5F5E2F5F5F5F5F5F5F5F5F5F5F5F5F5F5F5F5F5F5F5F5
310
F5F5F5F5F5F5F5F5F5F5F5F5F5F5F5F5F5F5F5F5F5F5F5F5F5F5F5F5F5F5F5F5F5F5F5F5F5F5F5F5F5F5F5F5F5F5F5F5F5F5F5F5F5F5F5F5F5F5F5F5F5F5F5F5E2F5F5F5E2E2E2F5F5F5E2F5F5F5F5F5F5F5F5F5F5F5F5F5F5F5F5F5F5F5F5F5F5F5F5F5F5F5F5F5F5F5F5F5F5F5F5F5F5F5F5F5F5F5F5F5F5F5F5F5F5F5F5
310
F5F5F5F5F5F5F5F5F5F5F5F5F5F5F5F5F5F5F5F5F5F5F5F5F5F5F5F5F5F5F5F5E2F5F5F5F5F5F5F5F5F5F5F5F5F5F5F5F5F5F5F5F5F5F5F5F5F5F5F5F5F5F5F5F5F5F5F5F5F5F5F5F5F5F5F5F5F5F5F5F5F5F5F5F5F5F5F5F5F5F5F5F5F5F5F5F5F5F5F5F5F5F5F5F5F5F5F5F5F5F5F5F5F5F5F5F5E2F5F5F5E2E2E2F5F5F5
310
E2F5F5F5F5F5F5F5F5F5F5F5F5F5F5F5F5F5F5F5F5F5F5F5F5F5F5F5F5F5F5F5F5F5F5F5F5F5F5F5F5F5F5F5F5F5F5F5F5F5F5F5F5F5F5F5F5F5F5F5F5F5F5F5F5F5F5F5F5F5F5F5F5F5F5F5F5F5F5F5F5F5F5F5F5E2F5F5F5F5F5F5F5F5F5F5F5F5F5F5F5F5F5F5F5F5F5F5F5F5F5F5F5F5F5F5F5F5F5F5F5F5F5F5F5F5F5
310
F5F5F5F5F5F5F5F5F5F5F5F5F5F5F5F5F5F5F5F5F5F5F5F5F5F5F5F5F5F5F5F5F5F5F5F5F5F5F5F5F5F5F5E2F5F5F5E2E2E2F5F5F5E2F5F5F5F5F5F5F5F5F5F5F5F5F5F5F5F5F5F5F5F5F5F5F5F5F5F5F5F5F5F5F5F5F5F5F5F5F5F5F5F5F5F5F5F5F5F5F5F5F5F5F5F5F5F5F5F5F5F5F5F5F5F5F5F5F5F5F5F5F5F5F5F5F5
310
F5F5F5F5F5F5F5F5F5F5F5E2F5F5F5F5F5F5F5F5F5F5F5F5F5F5F5F5F5F5F5F5F5F5F5F5F5F5F5F5F5F5F5F5F5F5F5F5F5F5F5F5F5F5F5F5F5F5F5F5F5F5F5F5F5F5F5F5F5F5F5F5F5F5F5F5F5F5F5F5F5F5F5F5F5F5F5F5F5F5F5F5F5F5F5F5E2F5F5F5E2E2E2F5F5F5E2F5F5F5F5F5F5F5F5F5F5F5F5F5F5F5F5F5F5F5F5
310
F5F5F5F5F5F5F5F5F5F5F5F5F5F5F5F5F5F5F5F5F5F5F5F5F5F5F5F5F5F5F5F5F5F5F5F5F5F5F5F5F5F5F5F5F5F5F5F5F5F5F5F5F5F5F5F5F5F5F5F5F5F5F5F5E2F5F5F5F5F5F5F5F5F5F5F5F5F5F5F5F5F5F5F5F5F5F5F5F5F5F5F5F5F5F5F5F5F5F5E2F5F5F5F5F5F5F5F5F5F5F5F5F5F5F5F5F5F5F5F5F5F5F5F5F5F5F5
310
F5F5F5F5F5F5F5F5F5F5F5F5F5F5F5F5F5F5F5F5F5F5E2F5F5F5E2E2E2F5F5F5E2F5F5F5F5F5F5F5F5F5F5F5F5F5F5F5F5F5F5F5F5F5F5F5F5F5F5F5F5F5F5F5F5F5F5F5F5F5F5F5F5F5F5F5F5F5F5F5F5F5F5F5F5F5F5F5F5F5F5F5F5F5F5F5F5F5F5F5F5F5F5F5F5F5F5F5F5F5F5F5F5F5F5F5F5E2F5F5F5F5F5F5F5F5F5
310
F5F5F5F5F5F5F5F5F5F5F5F5F5F5F5F5F5F5F5F5F5F5F5F5F5E2BEE2F5F5F5F5F5F5F5F5F5F5F5F5F5F5F5F5F5F5F5F5F5F5F5F5F5F5F5F5F5F5F5F5F5F5F5F5F5F5F5F5F5F5F5F5F5F5F5E2F5F5F5E2E2E2F5F5F5E2F5F5F5F5F5F5F5F5F5F5F5F5F5F5F5F5F5F5F5F5F5F5F5F5F5F5F5F5F5F5F5F5F5F5F5F5F5F5F5F5F5
310
F5F5F5F5F5F5F5F5F5F5F5F5F5F5F5F5F5F5F5F5F5F5F5F5F5F5F5F5F5F5F5F5F5F5F5F5F5F5F5F5F5F5F5E2F5F5F5F5F5F5F5F5F5F5F5F5F5F5F5F5F5F5F5F5F5F5F5F5F5F5F5F5F5F5F5F5E2E2BEBEE2E2E2F5F5F5F5F5F5F5F5F5F5F5F5F5F5F5F5F5F5F5F5F5F5F5F5F5F5F5F5F5F5F5F5F5F5F5F5F5F5F5F5F5F5F5F5
310
F5E2F5F5F5E2E2E2F5F5F5E2F5F5F5F5F5F5F5F5F5F5F5F5F5F5F5F5F5F5F5F5F5F5F5F5F5F5F5F5F5F5F5F5F5F5F5F5F5F5F5F5F5F5F5F5F5F5F5F5F5F5F5F5F5F5F5F5F5F5F5F5F5F5F5F5F5F5F5F5F5F5F5F5F5F5F5F5F5F5F5F5F5F5F5F5E2F5F5F5F5F5F5F5F5F5F5F5F5F5F5F5F5F5F5F5F5F5F5F5F5F5F5F5F5F5F5
310
E2E2F5F5E2E2E2E2E2E2E2F5F5F5F5F5F5F5F5F5F5F5F5F5F5F5F5F5F5F5F5F5F5F5F5F5F5F5F5F5F5F5F5F5F5F5F5F5F5F5F5F5F5F5E2F5F5F5E2E2E2F5F5F5E2F5F5F5F5F5F5F5F5F5F5F5F5F5F5F5F5F5F5F5F5F5F5F5F5F5F5F5F5F5F5F5F5F5F5F5F5F5F5F5F5F5F5F5F5F5F5F5F5F5F5F5F5F5F5F5F5F5F5F5F5F5F5
310
F5F5F5F5F5F5F5F5F5F5F5F5F5F5F5F5F5F5F5F5F5F5E2F5F5F5F5F5F5F5F5F5F5F5F5F5F5E2F5F5F5F5F5F5F5F5F5F5F5F5F5E2E2F5F5E2E2E2E2E2E2F5E2E2E2F5F5E2F5F5F5F5F5F5F5F5F5F5F5F5F5F5F5F5F5F5F5F5F5F5F5F5F5F5F5F5F5F5F5F5F5F5F5F5F5F5F5E2F5F5F5E2E2E2F5F5F5E2E2E2E2E2E2E2E2F5F5
310
F5F5E2E2E2BEE2E2E2E2E2E2E2E2E2E2BEBEE2E2E2E2E2BEE2E2E2E2E2E2E2BEE2E2E2E2E2E2E2BEE2E2E2E2E2E2E2BEE2E2E2E2E2E2E2E2BEBEE2E2E2E2E2E2E2E2E2E2E2E2E2F5F5F5F5E2F5F5F5F5F5F5F5F5F5F5F5F5E2E2E2E2E2F5F5F5F5F5F5F5F5F5E2E2F5F5E2E2F5E2E2E2E2E2F5F5E2BEE2BEBEE2F5F5F5F5F5
310
F5F5F5F5F5F5F5F5F5F5F5F5F5F5F5F5F5F5F5F5F5F5F5F5F5F5F5F5F5F5F5F5F5E2F5F5F5E2E2E2F5F5F5E2F5F5F5F5F5F5F5F5F5F5F5E2E2E2E2F5F5E2F5F5F5E2F5E2E2F5F5F5F5E2F5E2E2F5F5E2F5E2F5E2E2F5F5F5F5E2F5E2E2F5E2F5F5E2F5E2E2F5F5F5F5E2F5E2E2F5F5F5F5E2F5E2E2F5E2F5E2F5E2E2F5F5F5
310
F5E2F5F5F5F5F5F5F5F5F5F5F5E2E2E2E2E2E2E2F5F5F5F5F5F5F5E2F5F5E2E2F5E2E2F5E2E2E2E2F5F5E2E2E2E2E2E2F5F5F5F5F5F5F5F5F5F5F5F5F5F5F5F5F5F5F5F5F5F5F5F5F5F5F5F5F5F5F5F5F5F5F5F5F5F5E2F5F5F5E2E2E2F5F5F5E2F5F5F5F5F5F5F5F5F5F5F5E2E2E2E2F5F5E2F5F5F5E2E2E2E2F5F5F5F5E2
310
E2E2E2F5F5E2F5E2E2E2E2F5F5F5F5E2E2E2E2F5E2F5F5E2E2E2E2F5F5F5F5E2E2E2E2F5F5F5F5E2E2E2E2F5E2F5E2F5E2E2F5F5F5F5E2F5F5F5F5F5F5F5F5F5F5F5F5E2E2F5F5F5E2E2F5F5F5F5E2E2F5F5E2F5E2E2E2E2E2E2E2E2E2F5F5E2E2E2F5E2E2E2F5F5F5F5F5F5F5F5F5F5F5F5F5F5F5F5F5F5F5F5F5F5F5F5F5
310
F5F5F5F5F5F5F5F5F5F5F5F5E2F5F5F5E2E2E2F5F5F5E2F5F5F5F5F5F5F5F5F5F5F5E2E2E2E2F5F5E2F5F5F5F5F5E2E2F5F5F5F5F5F5E2E2F5F5E2F5F5F5E2E2F5F5F5F5F5F5E2E2F5E2F5F5F5F5E2E2F5F5F5F5F5F5E2E2F5F5F5F5F5F5E2E2F5E2F5E2F5E2F5F5F5F5F5E2F5F5F5F5F5F5F5F5F5F5F5F5F5F5E2E2E2F5F5
310
F5F5E2E2E2E2E2E2F5E2E2E2E2E2E2E2E2E2E2F5F5E2E2E2F5F5BEBEE2E2F5F5F5F5F5F5F5F5F5F5F5F5F5F5F5F5F5F5F5F5F5F5F5F5F5F5F5F5F5F5F5F5F5F5F5E2F5F5F5E2E2E2F5F5F5E2F5F5F5F5F5F5F5F5F5F5F5E2E2E2E2F5F5E2F5F5F5F5F5E2E2F5F5F5F5F5F5E2E2F5F5E2F5F5F5E2E2F5F5F5F5F5F5E2E2F5E2
310
F5F5F5F5E2E2F5F5F5F5F5F5E2E2F5F5F5F5F5F5E2E2F5E2F5E2F5E2E2F5F5F5F5E2F5F5F5F5F5F5F5F5F5F5F5F5F5F5F5F5F5F5F5E2E2F5E2E2E2F5E2E2F5F5E2E2F5F5E2E2E2E2F5F5E2E2E2F5F5E2E2E2E2E2E2F5F5F5F5F5F5F5F5F5F5F5F5F5F5F5F5F5F5F5F5F5F5F5F5F5F5F5F5F5F5F5F5F5E2F5F5F5E2E2E2F5F5
310
F5E2F5F5F5F5F5F5F5F5F5F5F5E2E2E2E2F5F5E2F5F5F5F5F5E2E2F5F5F5F5F5F5E2E2F5F5E2F5F5F5E2E2F5F5F5F5F5F5E2E2F5E2F5F5F5F5E2E2F5F5F5F5F5F5E2E2F5F5F5F5F5F5E2E2F5E2F5E2E2E2E2F5F5F5F5E2F5F5F5F5F5F5F5F5F5F5F5F5F5F5F5F5F5E2E2F5E2E2E2E2E2E2F5F5F5E2F5F5F5F5E2E2E2E2F5F5
310
E2E2E2F5F5E2E2F5F5E2BEBEE2F5F5F5F5F5F5F5F5F5F5F5F5F5F5F5F5F5F5F5F5F5F5F5F5F5F5F5F5F5F5F5E2F5F5F5E2E2E2F5F5F5E2F5F5F5F5F5F5F5F5F5F5F5E2E2E2E2F5F5E2F5F5F5F5F5E2E2F5F5F5F5F5F5E2E2F5F5E2F5F5F5E2E2F5F5F5F5F5F5E2E2F5E2F5F5F5F5E2E2F5F5F5F5F5F5E2E2F5F5F5F5F5F5E2
310
E2F5E2F5E2E2E2E2F5F5F5F5E2F5F5F5F5F5F5F5F5F5F5F5F5F5F5F5F5E2F5E2E2E2E2E2E2F5F5F5E2E2E2E2F5F5F5E2E2E2E2F5F5E2E2E2F5F5E2E2F5F5E2BEE2E2E2F5F5F5F5F5F5F5F5F5F5F5F5F5F5F5F5F5F5F5F5F5F5F5F5F5F5F5F5F5F5E2F5F5F5E2E2E2F5F5F5E2F5F5F5F5F5F5F5F5F5F5F5E2E2E2E2F5F5E2F5
310
F5F5F5F5E2E2F5F5F5F5F5F5E2E2F5F5E2F5F5F5E2E2F5F5F5F5F5F5E2E2F5E2F5F5F5F5E2E2F5F5F5F5F5F5E2E2F5F5F5F5F5F5E2E2F5E2F5E2E2E2E2F5F5F5F5E2F5F5F5F5F5F5F5F5F5F5F5F5F5F5F5F5E2E2E2E2E2E2F5F5F5E2E2F5E2E2E2F5F5F5E2E2E2E2F5F5E2E2E2F5F5E2E2F5F5E2E2E2E2E2E2E2F5F5F5F5F5
310
F5F5F5F5F5F5F5F5F5F5F5F5F5F5F5F5F5F5F5F5F5F5F5E2F5F5F5E2E2E2F5F5F5E2F5F5F5F5F5F5F5F5F5F5F5E2E2E2E2F5F5E2F5F5F5F5F5E2E2F5F5F5F5F5F5E2E2F5F5E2F5F5F5E2E2F5F5F5F5F5F5E2E2F5E2F5F5F5F5E2E2F5F5F5F5F5F5E2E2F5F5F5F5F5F5E2E2F5E2F5E2E2E2E2F5F5F5F5E2F5F5F5F5F5F5F5F5
310
F5F5F5F5F5F5F5F5E2E2E2E2E2F5F5F5E2F5E2E2E2F5E2F5F5F5E2E2E2E2F5F5E2E2E2F5F5E2E2F5F5E2E2E2F5F5BEBEE2E2F5F5F5F5F5F5F5F5F5F5F5F5F5F5F5F5F5F5F5F5F5F5F5F5F5F5E2F5F5F5E2E2E2F5F5F5E2F5F5F5F5F5F5F5F5F5F5F5E2E2E2E2F5F5E2F5F5F5F5F5E2E2F5F5F5F5F5F5E2E2F5F5E2F5F5F5E2
310
E2F5F5F5F5F5F5E2E2F5E2F5F5F5F5E2E2F5F5F5F5F5F5E2E2F5F5F5F5F5F5E2E2F5E2F5E2F5F5E2F5F5F5F5E2F5F5F5F5F5F5F5F5F5F5F5F5F5F5F5F5E2E2E2E2F5E2E2F5E2E2E2F5E2E2F5F5E2E2E2E2E2E2F5F5E2E2E2F5F5E2E2F5F5E2E2E2F5F5E2E2E2E2E2F5F5F5F5F5F5F5F5F5F5F5F5F5F5F5F5F5F5F5F5F5F5F5
310
F5F5E2F5F5F5E2E2E2F5F5F5E2F5F5F5F5F5F5F5F5F5F5F5E2E2E2E2F5F5E2F5F5F5F5F5E2E2F5F5F5F5F5F5E2E2F5F5E2F5F5F5E2E2F5F5F5F5F5F5E2E2F5E2F5F5F5F5E2E2F5F5F5F5F5F5E2E2F5F5F5F5F5F5E2E2F5E2F5E2E2E2E2F5F5F5F5E2F5F5F5F5F5F5F5F5F5F5F5F5F5F5F5F5E2E2E2E2F5F5E2E2E2E2E2E2F5
310
F5E2E2E2E2E2E2E2E2F5F5E2E2E2F5F5E2E2F5F5E2E2E2F5F5E2E2E2F5E2BEE2F5F5F5F5F5F5F5F5F5F5F5F5F5F5F5F5F5F5F5F5F5F5F5E2F5F5F5E2E2E2F5F5F5E2F5F5F5F5F5F5F5F5F5F5F5E2E2E2E2F5F5E2F5F5F5F5F5E2E2F5F5F5F5F5F5E2E2F5F5E2F5F5F5E2E2F5F5F5F5F5F5E2E2F5E2F5F5F5F5E2E2F5F5F5F5
310
F5F5E2E2F5F5F5F5F5F5E2E2F5E2F5E2E2E2E2F5F5F5F5E2F5F5F5F5F5F5F5F5F5F5F5F5F5F5F5F5E2E2E2E2F5F5E2E2E2E2F5F5E2E2F5E2E2E2E2E2E2E2E2E2E2E2E2F5F5E2E2F5F5E2E2E2F5F5E2E2E2F5E2BEBEE2E2F5F5F5F5F5F5F5F5F5F5F5F5F5F5F5F5F5F5F5F5F5E2F5F5F5E2E2E2F5F5F5E2F5F5F5F5F5F5F5F5
310
F5F5F5E2E2E2E2F5F5E2F5F5F5F5F5E2E2F5F5F5F5F5F5E2E2F5F5E2F5F5F5E2E2F5F5F5F5F5F5E2E2F5E2F5F5F5F5E2E2F5F5F5F5F5F5E2E2F5F5F5F5F5F5E2E2F5E2F5E2E2E2E2F5F5F5F5E2F5F5F5F5F5F5F5F5F5F5F5F5F5F5F5F5E2E2E2E2F5E2BEBEE2E2E2E2E2E2E2E2E2F5E2E2E2E2E2E2E2E2E2F5F5E2E2F5F5E2
310
E2E2F5F5E2E2E2F5E2E2E2E2E2E2E2F5F5E2F5F5F5F5F5F5F5F5F5F5F5F5F5F5F5F5E2F5F5F5E2E2E2F5F5F5E2F5F5F5F5F5F5F5F5F5F5F5E2E2E2E2F5F5E2F5F5F5F5F5E2E2F5F5F5F5F5F5E2E2F5F5E2F5F5F5E2E2F5F5F5F5F5F5E2E2F5E2F5F5F5F5E2E2F5F5F5F5F5F5E2E2F5F5F5F5F5F5E2E2F5E2F5E2F5F5F5F5F5
310
F5F5E2F5F5F5F5F5F5F5F5F5F5F5F5F5F5F5F5E2E2E2E2F5F5E2E2E2F5F5E2E2E2E2F5E2E2E2E2E2E2F5E2E2F5F5E2F5E2E2F5F5E2E2E2F5F5E2E2E2F5E2E2E2F5F5E2BEE2BEBEE2F5F5F5F5F5F5F5F5F5F5F5F5F5F5F5E2F5F5F5E2E2E2F5F5F5E2F5F5F5F5F5F5F5F5F5F5F5E2E2E2E2F5F5E2F5F5F5F5F5E2E2F5F5F5F5
310
F5F5E2E2F5F5E2F5F5F5E2E2F5F5F5F5F5F5E2E2F5E2F5F5F5F5E2E2F5F5F5F5F5F5E2E2F5F5F5F5F5F5E2E2F5E2F5E2E2E2E2F5F5F5F5E2F5F5F5F5F5F5F5F5F5F5F5F5F5F5F5F5E2E2E2E2F5F5F5E2E2F5F5E2E2E2E2E2F5E2E2E2F5E2E2F5E2E2E2E2E2E2E2F5F5E2E2E2F5F5E2E2E2F5E2E2E2F5F5E2BEE2E2E2F5F5F5
310
F5F5F5F5F5F5F5F5F5F5F5F5F5E2F5F5F5E2E2E2F5F5F5E2F5F5F5F5F5F5F5F5F5F5F5E2E2E2E2F5F5E2F5F5F5F5F5E2E2F5F5F5F5F5F5E2E2F5F5E2F5F5F5E2E2F5F5F5F5F5F5E2E2F5E2F5F5F5F5E2E2F5F5F5F5F5F5E2E2F5F5F5F5F5F5E2E2F5E2F5E2E2F5E2F5F5F5F5E2F5F5F5F5F5F5F5F5F5F5F5F5F5F5F5F5E2E2
310
E2E2F5F5F5E2E2F5F5E2E2E2E2E2E2E2E2E2E2F5F5E2E2F5E2E2E2E2E2F5F5E2E2E2F5F5E2E2E2F5E2E2E2F5F5E2E2E2E2E2E2E2F5F5F5F5F5F5F5F5F5F5F5F5F5F5E2F5F5F5E2E2E2F5F5F5E2F5F5F5F5F5F5F5F5F5F5F5E2E2E2E2F5F5E2F5F5F5F5F5E2E2F5F5F5F5F5F5E2E2F5F5E2F5F5F5E2E2F5F5F5F5F5F5E2E2F5
310
E2F5F5F5F5E2E2F5F5F5F5F5F5E2E2F5F5F5F5F5F5E2E2F5E2F5E2E2E2E2F5F5F5F5E2F5F5F5F5F5F5F5F5F5F5F5F5F5F5F5F5E2E2E2E2F5F5F5E2E2F5F5E2E2E2E2E2E2E2E2F5F5E2E2F5E2E2E2F5E2E2F5E2F5E2E2E2F5F5E2E2E2F5E2E2E2F5F5E2E2E2F5F5BEBEE2F5F5F5F5F5F5F5F5F5F5F5F5F5E2F5F5F5E2E2E2F5
310
F5F5E2F5F5F5F5F5F5F5F5F5F5F5E2E2E2E2F5F5E2F5F5F5F5F5E2E2F5F5F5F5F5F5E2E2F5F5E2F5F5F5E2E2F5F5F5F5F5F5E2E2F5E2F5F5F5F5E2E2F5F5F5F5F5F5E2E2F5F5F5F5F5F5E2E2F5E2F5E2E2E2E2F5F5F5F5E2F5F5F5F5F5F5F5F5F5F5F5F5F5F5F5F5E2E2E2E2F5F5F5E2E2F5E2E2E2E2E2F5E2E2E2E2F5E2E2
310
E2E2F5E2E2F5E2E2E2E2E2E2E2F5F5E2E2E2F5E2E2E2F5F5E2E2E2F5F5E2E2E2F5F5F5F5F5F5F5F5F5F5F5F5F5E2F5F5F5E2E2E2F5F5F5E2F5F5F5F5F5F5F5F5F5F5F5E2E2E2E2F5F5E2F5F5F5F5F5E2E2F5F5F5F5F5F5E2E2F5F5E2F5F5F5E2E2F5F5F5F5F5F5E2E2F5E2F5F5F5F5E2E2F5F5F5F5F5F5E2E2F5F5F5F5F5F5
310
E2E2F5E2F5E2F5F5F5F5F5F5F5E2F5F5F5F5F5F5F5F5F5F5F5F5F5F5F5F5E2E2E2E2F5F5F5E2E2E2F5E2E2E2E2F5E2E2E2F5E2E2E2E2E2E2F5E2E2F5E2E2E2E2E2F5F5F5E2E2E2F5E2E2E2F5F5E2E2E2E2E2E2E2E2F5F5F5F5F5F5F5F5F5F5F5F5F5E2F5F5F5E2E2E2F5F5F5E2F5F5F5F5F5F5F5F5F5F5F5E2F5F5E2F5F5E2
310
F5F5F5F5F5F5F5F5F5F5F5F5F5F5F5F5F5E2F5F5F5F5F5F5F5F5F5F5F5F5F5F5E2F5F5F5F5F5F5F5F5F5F5F5F5F5F5F5F5F5F5F5F5F5F5F5E2F5E2F5F5E2F5F5F5F5E2F5F5F5F5F5F5F5F5F5F5F5F5F5F5F5F5E2E2E2E2F5F5F5E2E2E2E2E2E2E2E2F5E2E2E2F5F5E2E2E2F5F5E2F5E2E2E2E2E2E2E2F5E2E2E2E2E2F5E2E2
310
E2F5F5E2E2E2E2E2E2E2E2F5F5F5F5F5F5F5F5F5F5F5F5F5E2F5F5F5E2E2E2F5F5F5E2F5F5F5F5F5F5F5F5F5F5F5E2F5F5E2F5F5E2F5F5F5F5F5F5F5F5F5F5F5F5F5F5F5F5F5E2F5F5F5F5F5F5F5F5F5F5F5F5F5F5E2F5F5F5F5F5F5F5F5F5F5F5F5F5F5F5F5F5F5F5F5F5F5F5E2F5E2E2E2E2F5F5F5F5E2F5F5F5F5F5F5F5
310
F5F5F5F5F5F5F5F5F5E2F5E2E2F5E2E2E2E2F5F5E2E2E2E2F5E2E2E2F5F5E2E2F5E2E2E2E2E2E2E2F5F5F5E2E2E2E2E2E2E2F5E2E2E2F5F5E2E2E2E2E2E2E2E2F5F5F5F5F5F5F5F5F5F5F5F5F5E2F5F5F5E2E2E2F5F5F5E2F5F5F5F5F5F5F5F5F5F5F5E2F5F5E2F5F5E2F5F5F5F5F5F5F5F5F5F5F5F5F5F5F5F5F5E2F5F5F5
310
F5F5F5F5F5F5F5F5F5F5F5E2F5F5F5F5F5F5F5F5F5F5F5F5F5F5F5F5F5F5F5F5F5F5F5E2F5E2E2E2E2F5F5F5F5E2F5F5F5F5F5F5F5F5F5F5F5F5F5F5F5F5E2F5E2E2E2F5E2E2E2F5F5E2E2E2E2F5E2E2E2F5F5E2E2F5F5E2E2E2E2F5F5F5E2E2E2E2E2E2F5F5F5E2E2E2E2E2E2E2E2E2F5F5E2E2E2F5F5F5F5F5F5F5F5F5F5
310
F5F5F5E2F5F5F5E2E2E2F5F5F5E2F5F5F5F5F5F5F5F5F5F5F5E2E2E2E2E2E2E2E2E2E2E2E2E2E2E2E2E2E2E2E2E2E2E2E2E2E2E2E2E2E2E2E2E2E2E2E2E2E2E2E2E2E2E2E2E2E2E2E2E2E2E2E2E2E2E2E2E2E2E2E2E2E2E2E2F5E2E2E2E2F5F5F5F5E2F5F5F5F5F5F5F5F5F5F5F5F5F5F5F5F5F5E2E2E2E2E2F5E2E2F5F5E2
310
E2E2E2F5E2E2E2F5F5E2E2F5F5E2E2E2E2F5F5E2E2E2F5E2E2F5E2E2E2E2E2E2E2E2F5E2E2E2F5F5E2E2E2F5F5F5F5F5F5F5F5F5F5F5F5F5E2F5F5F5E2E2E2F5F5F5E2F5F5F5F5F5F5F5F5F5F5F5F5F5F5F5F5F5F5F5F5F5F5F5F5F5F5F5F5F5F5F5F5F5F5F5F5F5F5F5F5F5F5F5F5F5F5F5F5F5F5F5F5F5F5F5F5F5F5F5F5
310
F5F5F5F5F5F5F5F5F5F5F5F5F5F5E2F5E2F5E2F5F5F5F5F5E2F5F5F5F5F5F5F5F5F5F5F5F5F5F5F5F5F5F5F5E2E2F5F5F5F5F5F5E2E2E2E2F5E2E2E2F5F5E2E2F5F5E2E2E2F5E2E2E2E2E2E2F5F5E2E2F5E2E2E2E2E2E2E2E2E2E2F5F5E2E2E2F5F5F5F5F5F5F5F5F5F5F5F5F5E2F5F5F5E2E2E2F5F5F5E2F5F5F5F5F5F5F5
310
F5F5F5F5F5F5F5F5F5F5F5F5F5F5F5F5F5F5F5F5F5F5F5F5F5F5F5F5F5F5F5F5F5F5F5F5F5F5F5F5F5F5F5F5F5F5F5F5F5F5F5F5F5F5F5F5F5F5F5F5F5F5F5F5F5F5F5E2F5E2E2E2E2F5F5F5F5E2F5F5F5F5F5F5F5F5F5F5F5F5F5F5F5F5F5F5F5F5F5E2E2F5F5F5F5E2E2E2E2F5E2E2E2F5F5E2E2F5F5E2E2E2F5F5E2E2E2
310
F5F5E2E2F5E2E2E2E2E2F5E2F5F5E2E2E2F5F5E2E2E2F5F5F5F5F5F5F5F5F5F5F5F5F5E2F5F5F5E2E2E2F5F5F5E2F5F5F5F5F5F5F5F5F5F5F5F5F5F5F5F5F5F5F5F5F5F5F5F5F5F5F5F5F5F5F5F5F5F5F5F5F5F5F5F5F5F5F5F5F5F5F5F5F5F5F5F5F5F5F5F5F5F5F5F5F5F5F5F5F5F5F5F5F5F5F5F5F5F5E2F5E2E2E2E2F5
310
F5F5F5E2F5F5F5F5F5F5F5F5F5F5F5F5F5F5F5F5F5F5F5F5F5F5E2E2F5F5F5F5E2F5E2F5E2E2E2F5F5E2E2F5F5E2E2E2E2E2BEE2E2E2F5E2E2E2E2E2E2E2E2E2E2F5F5E2E2E2F5F5E2E2E2F5F5F5F5F5F5F5F5F5F5F5F5F5E2F5F5F5E2E2E2F5F5F5E2F5F5F5F5F5F5F5F5F5F5F5F5F5F5F5F5F5F5F5F5F5F5F5F5F5F5F5F5
310
F5F5F5F5F5F5F5F5F5F5F5F5F5F5F5F5F5F5F5F5F5F5F5F5F5F5F5F5F5F5F5F5F5F5F5F5F5F5F5F5F5F5F5F5F5F5E2F5E2F5F5E2F5F5F5F5E2F5F5F5F5F5F5F5F5F5F5F5F5F5F5F5F5F5F5F5F5F5F5F5F5E2E2F5F5F5F5E2F5E2E2E2F5F5E2E2F5F5E2E2E2F5E2E2E2F5F5E2E2E2E2E2E2E2E2F5F5F5E2E2F5E2F5F5F5E2E2
310
E2F5F5F5F5F5F5F5F5F5F5F5F5F5E2F5F5F5E2E2E2F5F5F5E2F5F5F5F5F5F5F5F5F5F5F5F5F5F5F5F5F5F5F5F5F5F5F5F5F5F5F5F5F5F5F5F5F5F5F5F5F5F5F5F5F5F5F5F5F5F5F5F5F5F5F5F5F5F5F5F5F5F5F5F5F5F5F5F5F5F5F5F5F5F5F5F5F5F5E2F5E2E2E2E2F5F5F5F5E2F5F5F5F5F5F5F5F5F5F5F5F5F5F5F5F5F5
310
F5F5F5F5F5F5F5F5F5E2E2F5F5E2F5E2E2E2F5F5E2E2F5F5E2E2E2F5F5E2E2F5F5E2E2E2E2E2E2F5F5F5F5F5F5F5E2E2F5F5F5E2E2E2F5F5F5F5F5F5F5F5F5F5F5F5F5E2F5F5F5E2E2E2F5F5F5E2F5F5F5F5F5F5F5F5F5F5F5F5F5F5F5F5F5F5F5F5F5F5F5F5F5F5F5F5F5F5F5F5F5F5F5F5F5F5F5F5F5F5F5F5F5F5F5F5F5
310
F5F5F5F5F5F5F5F5F5F5F5F5F5F5F5F5F5F5F5F5F5F5F5F5F5E2F5E2E2E2E2F5F5F5F5E2F5F5F5F5F5F5F5F5F5F5F5F5F5F5F5F5F5F5F5F5F5F5F5F5F5F5F5E2E2F5E2F5F5E2F5F5F5E2E2F5F5E2E2E2F5F5E2E2F5F5E2E2E2E2F5E2F5F5F5F5F5F5F5F5E2E2F5F5E2E2E2F5F5F5F5F5F5F5F5F5F5F5F5F5E2F5F5F5E2E2E2
310
F5F5F5E2F5F5F5F5F5F5F5F5F5F5F5F5F5F5F5F5F5F5F5F5F5F5F5F5F5F5F5F5F5F5F5F5F5F5F5F5F5F5F5F5F5F5F5F5F5F5F5F5F5F5F5F5F5F5F5F5F5F5F5F5F5F5F5F5F5F5F5F5F5F5F5F5F5F5E2F5E2F5E2F5F5F5F5F5E2F5F5F5F5F5F5F5F5F5F5F5F5F5F5F5F5F5F5F5F5F5F5F5F5F5F5F5F5F5E2E2F5F5F5F5F5F5E2
310
E2F5F5E2E2E2F5F5E2E2F5F5E2E2E2E2F5E2F5F5F5F5F5F5F5F5F5F5E2E2F5E2E2F5F5F5F5F5F5F5F5F5F5F5F5F5E2F5F5F5E2E2E2F5F5F5E2F5F5F5F5F5F5F5F5F5F5F5F5F5F5F5F5F5F5F5F5F5F5F5F5F5F5F5F5F5F5F5F5F5F5F5F5F5F5F5F5F5F5F5F5F5F5F5F5F5F5F5F5F5F5F5F5F5F5F5F5F5F5F5F5F5F5F5F5F5F5
310
F5F5F5F5E2F5E2F5E2F5F5F5F5F5E2F5F5F5F5F5F5F5F5F5F5F5F5F5F5F5F5F5F5F5F5F5F5F5F5F5F5F5F5F5F5F5E2E2F5F5F5F5E2E2F5F5E2E2E2F5F5E2E2F5F5E2E2E2E2F5E2F5F5F5F5F5F5F5F5F5F5F5F5E2E2E2F5F5F5F5F5F5F5F5F5F5F5F5F5E2F5F5F5E2E2E2F5F5F5E2F5F5F5F5F5F5F5F5F5F5F5F5F5F5F5F5F5
310
F5F5F5F5F5F5F5F5F5F5F5F5F5F5F5F5F5F5F5F5F5F5F5F5F5F5F5F5F5F5F5F5F5F5F5F5F5F5F5F5F5F5F5F5F5F5F5F5F5F5F5F5F5F5F5F5F5E2F5E2F5E2E2F5F5F5F5E2F5F5F5F5F5F5F5F5F5F5F5F5F5F5F5F5F5F5F5F5F5F5F5F5F5F5F5F5F5F5F5F5F5E2E2F5F5F5E2F5F5E2E2E2F5F5E2E2F5F5E2E2E2E2F5E2F5F5F5
310
F5F5F5F5F5F5F5F5F5F5E2E2F5F5F5F5F5F5F5F5F5F5F5F5F5E2F5F5F5E2E2E2F5F5F5E2F5F5F5F5F5F5F5F5F5F5F5F5F5F5F5F5F5F5F5F5F5F5F5F5F5F5F5F5F5F5F5F5F5F5F5F5F5F5F5F5F5F5F5F5F5F5F5F5F5F5F5F5F5F5F5F5F5F5F5F5F5F5F5F5F5F5F5F5F5F5F5F5F5F5E2F5E2F5E2E2F5F5F5F5E2F5F5F5F5F5F5
310
F5F5F5F5F5F5F5F5F5F5F5F5F5F5F5F5F5F5F5F5F5F5F5F5F5F5F5F5E2E2F5F5E2F5F5E2E2E2F5F5E2E2F5F5E2E2E2E2F5E2F5F5F5F5F5F5F5F5F5F5F5F5F5E2E2F5F5F5F5F5F5F5F5F5F5F5F5F5E2F5F5F5E2E2E2F5F5F5E2F5F5F5F5F5F5F5F5F5F5F5F5F5F5F5F5F5F5F5F5F5F5F5F5F5F5F5F5F5F5F5F5F5F5F5F5F5F5
310
F5F5F5F5F5F5F5F5F5F5F5F5F5F5F5F5F5F5F5F5F5F5F5F5F5F5F5F5F5F5F5F5F5F5F5F5E2E2E2E2E2E2F5F5F5F5E2F5F5F5F5F5F5F5F5F5F5F5F5F5F5F5F5F5F5F5F5F5F5F5F5F5F5F5F5F5F5F5F5F5F5F5F5E2E2E2F5F5F5E2F5F5F5E2E2F5F5E2E2E2E2F5E2F5F5F5F5F5F5F5F5F5F5F5F5F5E2E2F5F5F5F5F5F5F5F5F5
310
F5F5F5F5E2F5F5F5E2E2E2F5F5F5E2F5F5F5F5F5F5F5F5F5F5F5F5F5F5F5F5F5F5F5F5F5F5F5F5F5F5F5F5F5F5F5F5F5F5F5F5F5F5F5F5F5F5F5F5F5F5F5F5F5F5F5F5F5F5F5F5F5F5F5F5F5F5F5F5F5F5F5F5F5F5F5F5F5F5F5F5F5F5F5F5F5F5F5F5E2F5F5F5F5F5F5F5F5F5F5F5F5F5F5F5F5F5F5F5F5F5F5F5F5F5F5F5
310
F5F5F5F5F5F5F5F5F5F5F5E2E2F5F5F5F5F5F5E2E2F5F5E2E2E2E2F5E2F5F5F5F5F5F5F5F5F5F5F5F5F5E2E2F5F5F5F5F5F5F5F5F5F5F5F5F5E2F5F5F5E2E2E2F5F5F5E2F5F5F5F5F5F5F5F5F5F5F5F5F5F5F5F5F5F5F5F5F5F5F5F5F5F5F5F5F5F5F5F5F5F5F5F5F5F5F5F5F5F5F5F5F5F5F5F5F5F5F5F5F5F5F5F5F5F5F5
310
F5F5F5F5F5F5F5F5F5F5F5F5F5F5F5F5F5F5F5F5F5F5F5F5F5E2F5F5F5F5F5F5F5F5F5F5F5F5F5F5F5F5F5F5F5F5F5F5F5F5F5F5F5F5F5F5F5F5F5F5F5F5F5F5F5F5E2E2F5F5F5F5E2E2F5F5E2E2E2E2F5E2F5F5F5F5F5F5F5F5F5F5F5F5F5E2E2F5F5F5F5F5F5F5F5F5F5F5F5F5E2F5F5F5E2E2E2F5F5F5E2F5F5F5F5F5F5
310
F5F5F5F5F5F5F5F5F5F5F5F5F5F5F5F5F5F5F5F5F5F5F5F5F5F5F5F5F5F5F5F5F5F5F5F5F5F5F5F5F5F5F5F5F5F5F5F5F5F5F5F5F5F5F5F5F5F5F5F5F5F5F5F5F5F5F5F5F5F5F5F5F5F5F5F5F5F5E2F5F5F5F5F5F5F5F5F5F5F5F5F5F5F5F5F5F5F5F5F5F5F5F5F5F5F5F5F5F5F5F5F5F5F5F5F5F5F5F5F5E2E2F5F5F5F5F5
310
F5F5E2E2E2E2F5E2F5F5F5F5F5F5F5F5F5F5F5F5F5E2E2F5F5F5F5F5F5F5F5F5F5F5F5F5E2F5F5F5E2E2E2F5F5F5E2F5F5F5F5F5F5F5F5F5F5F5F5F5F5F5F5F5F5F5F5F5F5F5F5F5F5F5F5F5F5F5F5F5F5F5F5F5F5F5F5F5F5F5F5F5F5F5F5F5F5F5F5F5F5F5F5F5F5F5F5F5F5F5F5F5F5F5F5F5F5F5F5F5F5F5F5F5F5F5F5
310
F5F5F5F5E2F5F5F5F5F5F5F5F5F5F5F5F5F5F5F5F5F5F5F5F5F5F5F5F5F5F5F5F5F5F5F5F5F5F5F5F5F5F5F5F5F5F5F5E2E2F5F5F5F5F5E2E2E2E2F5E2F5F5F5F5F5F5F5F5F5F5F5F5F5E2E2F5F5F5F5F5F5F5F5F5F5F5F5F5E2F5F5F5E2E2E2F5F5F5E2F5F5F5F5F5F5F5F5F5F5F5F5F5F5F5F5F5F5F5F5F5F5F5F5F5F5F5
310
F5F5F5F5F5F5F5F5F5F5F5F5F5F5F5F5F5F5F5F5F5F5F5F5F5F5F5F5F5F5F5F5F5F5F5F5F5F5F5F5F5F5F5F5F5F5F5F5F5F5F5F5F5F5F5F5F5E2F5F5F5F5F5F5F5F5F5F5F5F5F5F5F5F5F5F5F5F5F5F5F5F5F5F5F5F5F5F5F5F5F5F5F5F5F5F5F5F5F5F5F5F5F5E2E2F5F5F5E2E2E2E2F5E2F5F5F5F5F5F5F5F5F5F5F5F5F5
310
E2E2F5F5F5F5F5F5F5F5F5F5F5F5F5E2F5F5F5E2E2E2F5F5F5E2F5F5F5F5F5F5F5F5F5F5F5F5F5F5F5F5F5F5F5F5F5F5F5F5F5F5F5F5F5F5F5F5F5F5F5F5F5F5F5F5F5F5F5F5F5F5F5F5F5F5F5F5F5F5F5F5F5F5F5F5F5F5F5F5F5F5F5F5F5F5F5F5F5F5F5F5F5F5F5F5F5F5F5F5E2F5F5F5F5F5F5F5F5F5F5F5F5F5F5F5F5
310
F5F5F5F5F5F5F5F5F5F5F5F5F5F5F5F5F5F5F5F5F5F5F5F5F5F5F5F5F5F5E2E2F5F5F5F5E2E2F5E2F5F5F5F5F5F5F5F5F5F5F5F5F5E2E2F5F5F5F5F5F5F5F5F5F5F5F5F5E2F5F5F5E2E2E2F5F5F5E2F5F5F5F5F5F5F5F5F5F5F5F5F5F5F5F5F5F5F5F5F5F5F5F5F5F5F5F5F5F5F5F5F5F5F5F5F5F5F5F5F5F5F5F5F5F5F5F5
310
F5F5F5F5F5F5F5F5F5F5F5F5F5F5F5F5F5F5F5F5F5F5F5F5F5F5F5F5F5F5F5F5F5F5F5F5E2F5F5F5F5F5F5F5F5F5F5F5F5F5F5F5F5F5F5F5F5F5F5F5F5F5F5F5F5F5F5F5F5F5F5F5F5F5F5F5F5F5F5F5F5F5F5F5F5E2E2F5F5E2E2F5E2F5F5F5F5F5F5F5F5F5F5F5E2E2F5E2F5F5F5F5F5F5F5F5F5F5F5F5F5E2F5F5F5E2E2
310
E2F5F5F5E2F5F5F5F5F5F5F5F5F5F5F5F5F5F5F5F5F5F5F5F5F5F5F5F5F5F5F5F5F5F5F5F5F5F5F5F5F5F5F5F5F5F5F5F5F5F5F5F5F5F5F5F5F5F5F5F5F5F5F5F5F5F5F5F5F5F5F5F5F5F5F5F5F5F5F5F5F5F5F5F5F5F5F5F5E2F5F5F5F5F5F5F5F5F5F5F5F5F5F5F5F5F5F5F5F5F5F5F5F5F5F5F5F5F5F5F5F5F5F5F5F5F5
310
F5F5F5F5F5F5F5F5F5F5F5F5F5E2E2E2E2F5E2F5F5F5F5F5F5F5F5F5E2E2F5E2E2F5F5F5F5F5F5F5F5F5F5F5F5F5F5E2F5F5F5E2E2E2F5F5F5E2F5F5F5F5F5F5F5F5F5F5F5F5F5F5F5F5F5F5F5F5F5F5F5F5F5F5F5F5F5F5F5F5F5F5F5F5F5F5F5F5F5F5F5F5F5F5F5F5F5F5F5F5F5F5F5F5F5F5F5F5F5F5F5F5F5F5F5F5F5
310
F5F5F5F5F5F5F5F5F5F5F5F5F5F5F5E2F5F5F5F5F5F5F5F5F5F5F5F5F5F5F5F5F5F5F5F5F5F5F5F5F5F5F5F5F5F5F5F5F5F5F5F5F5F5F5F5F5F5F5F5F5F5F5F5F5F5F5F5E2E2F5E2F5F5F5F5F5F5F5E2E2F5E2E2F5F5F5F5F5F5F5F5F5F5F5F5F5F5F5F5E2F5F5F5E2E2E2F5F5F5E2F5F5F5F5F5F5F5F5F5F5F5F5F5F5F5F5
310
F5F5F5F5F5F5F5F5F5F5F5F5F5F5F5F5F5F5F5F5F5F5F5F5F5F5F5F5F5F5F5F5F5F5F5F5F5F5F5F5F5F5F5F5F5F5F5F5F5F5F5F5F5F5F5F5F5F5F5F5F5F5F5F5F5F5F5F5E2F5F5F5F5F5F5F5F5F5F5F5F5F5F5F5F5F5F5F5F5F5F5F5F5F5F5F5F5F5F5F5F5F5F5F5F5F5F5F5F5F5F5F5F5F5F5F5F5F5F5F5F5E2E2F5E2F5F5
310
F5F5F5E2E2F5F5E2F5F5F5F5F5F5F5F5F5F5F5F5F5F5F5F5F5F5E2F5F5F5E2E2E2F5F5F5E2F5F5F5F5F5F5F5F5F5F5F5F5F5F5F5F5F5F5F5F5F5F5F5F5F5F5F5F5F5F5F5F5F5F5F5F5F5F5F5F5F5F5F5F5F5F5F5F5F5F5F5F5F5F5F5F5F5F5F5F5F5F5F5F5F5F5F5F5F5F5F5F5F5F5F5F5F5F5F5F5F5F5F5F5E2F5F5F5F5F5
310
F5F5F5F5F5F5F5F5F5F5F5F5F5F5F5F5F5F5F5F5F5F5F5F5F5F5F5F5F5F5F5F5F5F5F5F5F5F5F5F5F5F5F5F5F5F5F5E2E2F5E2F5F5F5F5E2E2F5E2E2F5F5F5F5F5F5F5F5F5F5F5F5F5F5F5F5F5F5F5E2F5F5F5E2E2E2F5F5F5E2F5F5F5F5F5F5F5F5F5F5F5F5F5F5F5F5F5F5F5F5F5F5F5F5F5F5F5F5F5F5F5F5F5F5F5F5F5
310
F5F5F5F5F5F5F5F5F5F5F5F5F5F5F5F5F5F5F5F5F5F5F5F5F5F5F5F5F5F5F5F5F5F5F5F5F5F5F5F5F5F5F5F5F5F5F5E2F5F5F5F5F5F5F5F5F5F5F5F5F5F5F5F5F5F5F5F5F5F5F5F5F5F5F5F5F5F5F5F5F5F5F5F5F5F5F5F5F5F5F5F5F5F5F5F5F5F5F5F5E2E2F5E2F5F5E2E2F5E2E2F5F5F5F5F5F5F5F5F5F5F5F5F5F5F5F5
310
F5F5F5F5F5E2F5F5F5E2E2E2F5F5F5E2F5F5F5F5F5F5F5F5F5F5F5F5F5F5F5F5F5F5F5F5F5F5F5F5F5F5F5F5F5F5F5F5F5F5F5F5F5F5F5F5F5F5F5F5F5F5F5F5F5F5F5F5F5F5F5F5F5F5F5F5F5F5F5F5F5F5F5F5F5F5F5F5F5F5F5F5F5F5F5F5F5F5F5F5E2F5F5F5F5F5F5F5F5F5F5F5F5F5F5F5F5F5F5F5F5F5F5F5F5F5F5
310
F5F5F5F5F5F5F5F5F5F5F5F5F5F5F5F5F5F5F5F5F5F5F5F5F5F5E2E2F5E2E2E2F5F5E2F5F5F5F5F5F5F5F5F5F5F5F5F5F5F5F5F5F5F5F5F5F5F5E2F5F5F5E2E2E2F5F5F5E2E2E2E2E2E2E2E2E2E2E2E2E2E2E2E2E2E2E2E2E2E2E2E2E2E2E2E2E2E2E2E2E2E2E2E2E2E2E2E2E2E2E2E2E2E2E2E2E2E2E2E2E2E2E2E2E2E2E2
310
E2E2E2E2E2E2E2E2E2E2E2E2E2E2E2E2E2E2E2E2E2E2E2E2E2E2E2F5F5F5F5F5F5F5F5F5F5F5F5F5F5F5F5F5F5F5F5F5F5F5F5F5F5F5F5F5F5F5F5F5F5F5F5F5F5F5F5F5F5F5F5F5F5F5F5F5F5F5F5E2E2E2E2F5F5E2E2F5F5F5F5F5F5F5F5F5F5F5F5F5F5F5F5F5F5F5F5F5F5F5F5E2F5F5F5E2E2E2F5F5F5E2F5F5F5F5F5
310
F5F5F5F5F5F5F5F5F5F5F5F5F5F5F5F5F5F5F5F5F5F5F5F5F5F5F5F5F5F5F5F5F5F5F5F5F5F5F5F5F5F5F5F5F5F5F5F5F5F5F5F5F5F5F5F5F5F5F5F5F5F5F5F5F5F5F5F5F5F5F5F5F5F5F5F5F5F5F5E2F5F5F5F5F5F5F5F5F5F5F5F5F5F5F5F5F5F5F5F5F5F5F5F5F5F5F5F5F5F5F5F5F5F5F5F5F5F5F5F5F5F5F5F5F5F5F5
310
F5F5F5F5F5E2E2F5E2E2E2F5F5F5F5F5F5F5F5F5F5F5F5F5F5F5F5F5F5F5F5F5F5F5F5F5F5E2F5F5F5E2E2E2F5F5F5E2F5F5F5F5F5F5F5F5F5F5F5F5F5F5F5F5F5F5F5F5F5F5F5F5F5F5F5F5F5F5F5F5F5F5F5F5F5F5F5F5F5F5F5F5F5F5F5F5F5F5F5F5F5F5F5F5F5F5F5F5F5F5F5F5F5F5F5F5F5F5F5F5F5F5F5F5F5F5F5
310
F5F5F5F5F5E2F5F5F5F5F5F5F5F5F5F5F5F5F5F5F5F5F5F5F5F5F5F5F5F5F5F5F5F5F5F5F5F5F5F5F5F5F5F5F5F5F5F5F5F5F5F5F5F5F5F5F5F5E2E2E2E2F5F5F5F5F5F5F5F5F5F5F5F5F5F5F5F5F5F5F5F5F5F5F5F5F5F5F5F5E2F5F5F5E2E2E2F5F5F5E2F5F5F5F5F5F5F5F5F5F5F5F5F5F5F5F5F5F5F5F5F5F5F5F5F5F5
310
F5F5F5F5F5F5F5F5F5F5F5F5F5F5F5F5F5F5F5F5F5F5F5F5F5F5F5F5F5F5F5F5F5F5F5F5F5F5F5F5F5F5F5F5F5F5F5F5F5F5F5F5F5F5F5F5F5F5E2F5F5F5F5F5F5F5F5F5F5F5F5F5F5F5F5F5F5F5F5F5F5F5F5F5F5F5F5F5F5F5F5F5F5F5F5F5F5F5F5F5F5F5F5F5F5F5F5F5F5F5F5F5F5F5F5F5F5F5F5F5F5F5F5F5F5F5F5
310
F5F5F5F5F5F5F5F5F5F5F5F5F5F5F5F5E2F5F5F5E2E2E2F5F5F5E2F5F5F5F5F5F5F5F5F5F5F5F5F5F5F5F5F5F5F5F5F5F5F5F5F5F5F5F5F5F5F5F5F5F5F5F5F5F5F5F5F5F5F5F5F5F5F5F5F5F5F5F5F5F5F5F5F5F5F5F5F5F5F5F5F5F5F5F5F5F5F5F5F5F5F5F5F5F5F5F5F5F5F5F5E2F5F5F5F5F5F5F5F5F5F5F5F5F5F5F5
310
F5F5F5F5F5F5F5F5F5F5F5F5F5F5F5F5F5F5F5F5F5F5F5F5F5F5F5F5F5F5F5F5F5F5F5F5F5F5F5F5F5F5F5F5F5F5F5F5F5F5F5F5F5F5F5F5F5F5F5F5F5F5F5F5F5F5F5F5F5E2F5F5F5E2E2E2F5F5F5E2F5F5F5F5F5F5F5F5F5F5F5F5F5F5F5F5F5F5F5F5F5F5F5F5F5F5F5F5F5F5F5F5F5F5F5F5F5F5F5F5F5F5F5F5F5F5F5
310
F5F5F5F5F5F5F5F5F5F5F5F5F5F5F5F5F5F5F5F5F5F5F5F5F5F5F5F5F5F5F5F5F5F5F5F5F5E2F5F5F5F5F5F5F5F5F5F5F5F5F5F5F5F5F5F5F5F5F5F5F5F5F5F5F5F5F5F5F5F5F5F5F5F5F5F5F5F5F5F5F5F5F5F5F5F5F5F5F5F5F5F5F5F5F5F5F5F5F5F5F5F5F5F5F5F5F5F5F5F5F5F5F5F5F5F5F5F5F5F5F5F5E2F5F5F5E2
310
E2E2F5F5F5E2F5F5F5F5F5F5F5F5F5F5F5F5F5F5F5F5F5F5F5F5F5F5F5F5F5F5F5F5F5F5F5F5F5F5F5F5F5F5F5F5F5F5F5F5F5F5F5F5F5F5F5F5F5F5F5F5F5F5F5F5F5F5F5F5F5F5F5F5F5F5F5F5F5F5F5F5F5F5F5F5F5F5F5F5E2F5F5F5F5F5F5F5F5F5F5F5F5F5F5F5F5F5F5F5F5F5F5F5F5F5F5F5F5F5F5F5F5F5F5F5F5
310
F5F5F5F5F5F5F5F5F5F5F5F5F5F5F5F5F5F5F5F5F5F5F5F5F5F5F5F5F5F5F5F5F5F5F5F5F5F5F5F5F5F5F5F5F5F5F5F5E2F5F5F5E2E2E2F5F5F5E2F5F5F5F5F5F5F5F5F5F5F5F5F5F5F5F5F5F5F5F5F5F5F5F5F5F5F5F5F5F5F5F5F5F5F5F5F5F5F5F5F5F5F5F5F5F5F5F5F5F5F5F5F5F5F5F5F5F5F5F5F5F5F5F5F5F5F5F5
310
F5F5F5F5F5F5F5F5F5F5F5F5F5F5F5F5E2F5F5F5F5F5F5F5F5F5F5F5F5F5F5F5F5F5F5F5F5F5F5F5F5F5F5F5F5F5F5F5F5F5F5F5F5F5F5F5F5F5F5F5F5F5F5F5F5F5F5F5F5F5F5F5F5F5F5F5F5F5F5F5F5F5F5F5F5F5F5F5F5F5F5F5F5F5F5F5F5F5F5F5F5E2F5F5F5E2E2E2F5F5F5E2F5F5F5F5F5F5F5F5F5F5F5F5F5F5F5
310
F5F5F5F5F5F5F5F5F5F5F5F5F5F5F5F5F5F5F5F5F5F5F5F5F5F5F5F5F5F5F5F5F5F5F5F5F5F5F5F5F5F5F5F5F5F5F5F5F5F5F5F5F5F5F5F5F5F5F5F5F5F5F5F5F5F5F5F5F5E2F5F5F5F5F5F5F5F5F5F5F5F5F5F5F5F5F5F5F5F5F5F5F5F5F5F5F5F5F5F5F5F5F5F5F5F5F5F5F5F5F5F5F5F5F5F5F5F5F5F5F5F5F5F5F5F5F5
310
F5F5F5F5F5F5F5F5F5F5F5F5F5F5F5F5F5F5F5F5F5F5F5F5F5F5F5E2F5F5F5E2E2E2F5F5F5E2F5F5F5F5F5F5F5F5F5F5F5F5F5F5F5F5F5F5F5F5F5F5F5F5F5F5F5F5F5F5F5F5F5F5F5F5F5F5F5F5F5F5F5F5F5F5F5F5F5F5F5F5F5F5F5F5F5F5F5F5F5F5F5F5F5F5F5F5F5F5F5F5F5F5F5F5F5F5F5F5F5F5F5F5E2F5F5F5F5
310
F5F5F5F5F5F5F5F5F5F5F5F5F5F5F5F5F5F5F5F5F5F5F5F5F5F5F5F5F5F5F5F5F5F5F5F5F5F5F5F5F5F5F5F5F5F5F5F5F5F5F5F5F5F5F5F5F5F5F5F5F5F5F5F5F5F5F5F5F5F5F5F5F5F5F5F5F5F5F5F5E2F5F5F5E2E2E2F5F5F5E2F5F5F5F5F5F5F5F5F5F5F5F5F5F5F5F5F5F5F5F5F5F5F5F5F5F5F5F5F5F5F5F5F5F5F5F5
310
F5F5F5F5F5F5F5F5F5F5F5F5F5F5F5F5F5F5F5F5F5F5F5F5F5F5F5F5F5F5F5F5F5F5F5F5F5F5F5F5F5F5F5F5F5F5F5F5E2F5F5F5F5F5F5F5F5F5F5F5F5F5F5F5F5F5F5F5F5F5F5F5F5F5F5F5F5F5F5F5F5F5F5F5F5F5F5F5F5F5F5F5F5F5F5F5F5F5F5F5F5F5F5F5F5F5F5F5F5F5F5F5F5F5F5F5F5F5F5F5F5F5F5F5F5F5F5
310
F5F5F5F5F5F5E2F5F5F5E2E2E2F5F5F5E2F5F5F5F5F5F5F5F5F5F5F5F5F5F5F5F5F5F5F5F5F5F5F5F5F5F5F5F5F5F5F5F5F5F5F5F5F5F5F5F5F5F5F5F5F5F5F5F5F5F5F5F5F5F5F5F5F5F5F5F5F5F5F5F5F5F5F5F5F5F5F5F5F5F5F5F5F5F5F5F5F5F5F5F5E2F5F5F5F5F5F5F5F5F5F5F5F5F5F5F5F5F5F5F5F5F5F5F5F5F5
310
F5F5F5F5F5F5F5F5F5F5F5F5F5F5F5F5F5F5F5F5F5F5F5F5F5F5F5F5F5F5F5F5F5F5F5F5F5F5F5F5F5F5F5F5F5F5F5F5F5F5F5F5F5F5F5F5F5F5F5E2F5F5F5E2E2E2F5F5F5E2F5F5F5F5F5F5F5F5F5F5F5F5F5F5F5F5F5F5F5F5F5F5F5F5F5E2E2E2F5F5F5F5F5F5F5F5F5F5F5F5F5F5F5F5F5F5F5F5F5F5F5F5F5F5F5F5F5
310
F5F5F5F5F5F5F5E2E2E2E2E2E2E2E2E2E2E2E2E2E2E2E2E2E2E2E2E2F5F5F5F5F5F5F5F5F5F5F5F5F5F5F5F5F5F5F5F5F5F5F5F5F5F5F5F5F5F5F5F5F5F5F5F5F5F5F5F5F5F5F5F5F5F5F5F5F5F5F5F5F5F5F5F5F5F5F5F5F5F5F5F5F5F5F5F5F5F5F5F5F5F5F5F5F5F5F5F5F5F5F5F5E2F5F5F5E2E2E2F5F5F5E2F5F5F5F5
310
F5F5F5F5F5F5F5F5F5F5F5F5F5F5F5F5F5F5F5F5F5BEBEE2F5F5F5F5F5F5F5F5F5F5F5F5F5F5F5F5F5F5F5F5F5F5F5F5F5F5F5F5F5F5F5F5F5F5F5F5E2BEBEE2F5F5F5F5F5F5F5F5F5F5F5F5F5F5F5E2E2F5F5F5F5F5F5F5F5F5F5F5F5F5F5F5F5F5F5F5F5F5F5F5F5F5F5F5F5F5F5F5F5F5F5F5F5F5F5F5F5F5F5F5F5F5F5
310
F5F5F5F5F5F5F5F5F5F5F5F5F5F5F5F5F5F5F5F5F5F5F5F5F5F5F5F5F5F5F5F5F5F5F5F5F5F5E2F5F5F5E2E2E2F5F5F5E2F5F5F5F5F5F5F5F5F5F5F5F5F5F5F5F5F5F5F5F5F5F5F5F5F5BEBEE2F5F5F5F5F5F5F5F5F5F5F5F5F5F5F5F5F5F5F5F5F5F5F5F5F5F5F5F5F5F5F5F5F5F5F5F5E2BEBEE2F5F5F5F5F5F5F5F5F5F5
310
F5F5F5F5E2E2E2F5F5F5F5F5F5F5F5F5F5F5F5F5F5F5F5F5F5F5F5F5F5F5F5F5F5F5F5F5F5F5F5F5F5F5F5F5F5F5F5F5F5F5F5F5F5F5F5F5F5F5F5F5F5F5F5F5F5F5F5F5F5F5F5F5F5F5F5F5F5F5F5F5F5F5F5F5F5F5F5F5F5F5F5E2F5F5F5E2E2E2F5F5F5E2F5F5F5F5F5F5F5F5F5F5F5E2E2E2E2E2E2E2E2E2E2E2E2BEBE
310
E2E2E2E2E2E2BEBEE2E2E2E2E2E2BEBEE2E2E2E2E2E2BEBEE2E2E2E2E2E2BEBEE2E2E2E2E2E2BEE2E2E2E2E2E2E2BEBEE2E2F5F5F5F5F5F5F5F5E2E2F5F5F5F5F5F5F5F5F5F5F5F5F5F5F5F5F5F5F5F5F5F5F5F5F5F5F5F5F5F5F5F5F5F5F5F5F5F5F5F5F5F5F5F5F5F5F5F5F5F5F5F5F5F5F5F5F5F5F5F5F5F5F5F5F5F5F5
310
F5F5F5F5F5F5F5F5F5F5F5F5F5F5F5F5F5E2F5F5F5E2E2E2F5F5F5E2F5F5F5F5F5F5F5F5F5F5F5E2E2BEBEF5F5E2F5F5F5F5F5BEBEF5F5F5F5F5F5BEBEF5F5F5F5F5F5BEBEF5F5F5F5F5F5BEBEF5F5F5F5F5F5BEBEF5F5F5F5F5F5BEBEF5F5F5F5F5F5BEBEF5E2E2F5F5F5F5F5F5F5E2E2F5F5F5F5F5F5F5F5F5F5F5F5F5F5
310
F5F5F5F5F5F5F5F5F5F5F5F5F5F5F5F5F5F5F5F5F5F5F5F5F5F5F5F5F5F5F5F5F5F5F5F5F5F5F5F5F5F5F5F5F5F5F5F5F5F5F5F5F5F5F5F5F5F5F5F5F5F5F5F5F5F5F5F5F5F5E2F5F5F5E2E2E2F5F5F5E2F5F5F5F5F5F5F5F5F5F5F5E2E2E2E2F5F5E2F5F5F5F5F5E2E2F5F5F5F5F5F5E2E2F5F5F5F5F5F5E2E2F5F5F5F5F5
310
F5E2E2F5F5F5F5F5F5E2E2F5F5F5F5F5F5E2E2F5F5F5F5F5F5E2E2F5E2E2E2F5F5F5F5F5F5E2E2F5F5F5F5F5F5F5F5F5F5F5F5F5F5F5F5F5F5F5F5F5F5F5F5F5F5F5F5F5F5F5F5F5F5F5F5F5F5F5F5F5F5F5F5F5F5F5F5F5F5F5F5F5F5F5F5F5F5F5F5F5F5F5F5F5F5F5F5F5F5F5F5F5F5F5F5F5F5F5F5F5F5F5F5E2F5F5F5
310
E2E2E2F5F5F5E2F5F5F5F5F5F5F5F5F5F5F5E2F5F5E2F5F5E2F5F5F5F5F5F5F5F5F5F5F5F5F5F5F5F5F5F5F5F5F5F5F5F5F5F5F5F5F5F5F5F5F5F5F5F5F5F5F5F5F5F5F5F5F5F5F5F5F5F5F5F5F5F5F5F5E2F5E2F5F5F5F5F5F5E2E2F5F5F5F5F5F5F5F5F5F5F5F5F5F5F5F5F5F5F5F5F5F5F5F5F5F5F5F5F5F5F5F5F5F5F5
310
F5F5F5F5F5F5F5F5F5F5F5F5F5F5F5F5F5F5F5F5F5F5F5F5F5F5F5F5F5F5F5F5F5F5F5F5F5F5F5F5F5F5F5F5F5F5F5F5F5E2F5F5F5E2E2E2F5F5F5E2F5F5F5F5F5F5F5F5F5F5F5E2F5F5E2F5F5E2F5F5F5F5F5F5F5F5F5F5F5F5F5F5F5F5F5F5F5F5F5F5F5F5F5F5F5F5F5F5F5F5F5F5F5F5F5F5F5F5F5F5F5F5F5F5F5F5F5
310
F5F5F5F5F5F5F5E2F5E2F5F5F5F5F5E2E2E2F5F5F5F5F5F5F5F5F5F5F5F5F5F5F5F5F5F5F5F5F5F5F5F5F5F5F5F5F5F5F5F5F5F5F5F5F5F5F5F5F5F5F5F5F5F5F5F5F5F5F5F5F5F5F5F5F5F5F5F5F5F5F5F5F5F5F5F5F5F5F5F5F5F5F5F5F5F5F5F5F5F5F5F5E2F5F5F5E2E2E2F5F5F5E2F5F5F5F5F5F5F5F5F5F5F5E2F5F5
310
E2F5F5E2F5F5F5F5F5F5F5F5F5F5F5F5F5F5F5F5F5F5F5F5F5F5F5F5F5F5F5F5F5F5F5F5F5F5F5F5F5F5F5F5F5F5F5F5F5F5F5F5F5F5F5F5F5F5F5F5E2F5E2F5F5F5F5F5E2E2E2F5F5F5F5F5F5F5F5F5F5F5F5F5F5F5F5F5F5F5F5F5F5F5F5F5F5F5F5F5F5F5F5F5F5F5F5F5F5F5F5F5F5F5F5F5F5F5F5F5F5F5F5F5F5F5F5
310
F5F5F5F5F5F5F5F5F5F5F5F5F5F5F5F5F5F5F5F5F5F5F5F5F5F5F5F5E2F5F5F5E2E2E2F5F5F5E2F5F5F5F5F5F5F5F5F5F5F5E2F5F5E2F5F5E2F5F5F5F5F5F5F5F5F5F5F5F5F5F5F5F5F5F5F5F5F5F5F5F5F5F5F5F5F5F5F5F5F5F5F5F5F5F5F5F5F5F5F5F5F5F5F5F5F5F5F5F5F5F5F5F5E2F5E2F5F5F5F5F5E2F5E2F5F5F5
310
F5F5F5F5F5F5F5F5F5F5F5F5F5F5F5F5F5F5F5F5F5F5F5F5F5F5F5F5F5F5F5F5F5F5F5F5F5F5F5F5F5F5F5F5F5F5F5F5F5F5F5F5F5F5F5F5F5F5F5F5F5F5F5F5F5F5F5F5F5F5F5F5F5F5F5F5F5F5F5F5F5E2F5F5F5E2E2E2F5F5F5E2F5F5F5F5F5F5F5F5F5F5F5E2F5F5E2F5F5E2F5F5F5F5F5F5F5F5F5F5F5F5F5F5F5F5F5
310
F5F5F5F5F5F5F5F5F5F5F5F5F5F5F5F5F5F5F5F5F5F5F5F5F5F5F5F5F5F5F5F5F5F5F5F5F5F5F5E2F5E2F5F5F5F5F5E2E2E2F5F5F5F5F5F5F5F5F5F5F5F5F5F5F5F5F5F5F5F5F5F5F5F5F5F5F5F5F5F5F5F5F5F5F5F5F5F5F5F5F5F5F5F5F5F5F5F5F5F5F5F5F5F5F5F5F5F5F5F5F5F5F5F5F5F5F5F5F5F5F5F5F5F5F5F5F5
310
F5F5F5F5F5F5F5E2F5F5F5E2E2E2F5F5F5E2F5F5F5F5F5F5F5F5F5F5F5E2F5F5E2F5F5E2F5F5F5F5F5F5F5F5F5F5F5F5F5F5F5F5F5F5F5F5F5F5F5F5F5F5F5F5F5F5F5F5F5F5F5F5F5F5F5F5F5F5F5F5F5F5F5F5F5F5F5F5F5F5F5F5E2F5E2F5F5F5F5F5E2E2E2F5F5F5F5F5F5F5F5F5F5F5F5F5F5F5F5F5F5F5F5F5F5F5F5
310
F5F5F5F5F5F5F5F5F5F5F5F5F5F5F5F5F5F5F5F5F5F5F5F5F5F5F5F5F5F5F5F5F5F5F5F5F5F5F5F5F5F5F5F5F5F5F5F5F5F5F5F5F5F5F5F5F5F5F5F5E2F5F5F5E2E2E2F5F5F5E2F5F5F5F5F5F5F5F5F5F5F5E2F5F5E2F5F5E2F5F5F5F5F5F5F5F5F5F5F5F5F5F5F5F5F5F5F5F5F5F5F5F5F5F5F5F5F5F5F5F5F5F5F5F5F5F5
310
F5F5F5F5F5F5F5F5F5F5F5F5F5F5F5F5F5F5E2F5E2F5F5F5F5F5E2E2E2F5F5F5F5F5F5F5F5F5F5F5F5F5F5F5F5F5F5F5F5F5F5F5F5F5F5F5F5F5F5F5F5F5F5F5F5F5F5F5F5F5F5F5F5F5F5F5F5F5F5F5F5F5F5F5F5F5F5F5F5F5F5F5F5F5F5F5F5F5F5F5F5F5F5F5F5F5F5F5F5F5F5F5F5E2F5F5F5E2E2E2F5F5F5E2F5F5F5
310
F5F5F5F5F5F5F5F5E2F5F5E2F5F5E2F5F5F5F5F5F5F5F5F5F5F5F5F5F5F5F5F5F5F5F5F5F5F5F5F5F5F5F5F5F5F5F5F5F5F5F5F5F5F5F5F5F5F5F5F5F5F5F5F5F5F5F5F5F5F5F5E2F5E2F5F5F5F5F5E2E2E2F5F5F5F5F5F5F5F5F5F5F5F5F5F5F5F5F5F5F5F5F5F5F5F5F5F5F5F5F5F5F5F5F5F5F5F5F5F5F5F5F5F5F5F5F5
310
F5F5F5F5F5F5F5F5F5F5F5F5F5F5F5F5F5F5F5F5F5F5F5F5F5F5F5F5F5F5F5F5F5F5F5F5F5F5F5E2F5F5F5E2E2E2F5F5F5E2F5F5F5F5F5F5F5F5F5F5F5E2F5F5E2F5F5E2E2E2E2F5F5F5F5F5F5F5F5F5F5F5F5F5F5F5F5F5F5F5F5F5F5F5F5F5F5F5F5F5F5F5F5F5F5F5F5F5F5F5F5F5F5F5F5F5F5F5F5F5F5F5F5F5E2F5E2
310
F5F5F5F5F5F5E2E2F5F5F5F5F5F5F5F5F5F5F5F5F5F5F5F5F5F5F5F5F5F5F5F5F5F5F5F5F5F5F5F5F5F5F5F5F5F5F5F5F5F5F5F5F5F5F5F5F5F5F5F5F5F5F5F5F5F5F5F5F5F5F5F5F5F5F5F5F5F5F5F5F5F5F5F5F5F5F5F5F5F5F5F5E2F5F5F5E2E2E2F5F5F5E2F5F5F5F5F5F5F5F5F5F5F5E2F5F5E2F5F5E2E2E2E2F5F5F5
310
F5F5F5F5F5F5F5F5F5F5F5F5F5F5F5F5F5F5F5F5F5F5F5F5F5F5F5F5F5F5F5F5F5F5F5F5F5F5F5F5F5F5F5F5F5F5F5F5F5F5E2F5E2F5F5F5F5F5E2E2E2F5F5F5F5F5F5F5F5F5F5F5F5F5F5F5F5F5F5F5F5F5F5F5F5F5F5F5F5F5F5F5F5F5F5F5F5F5F5F5F5F5F5F5F5F5F5F5F5F5F5F5F5F5F5F5F5F5F5F5F5F5F5F5F5F5F5
310
F5F5F5F5F5F5F5F5F5F5F5F5F5F5F5F5F5F5E2F5F5F5E2E2E2F5F5F5E2F5F5F5F5F5F5F5F5F5F5F5E2F5F5E2F5F5E2E2E2E2F5F5F5F5F5F5F5F5F5F5F5F5F5F5F5F5F5F5F5F5F5F5F5F5F5F5F5F5F5F5F5F5F5F5F5F5F5F5F5F5F5F5F5F5F5F5F5F5F5F5F5F5F5E2F5E2F5F5F5F5F5F5F5E2F5F5F5F5F5F5F5F5F5F5F5F5F5
310
F5F5F5F5F5F5F5F5F5F5F5F5F5F5F5F5F5F5F5F5F5F5F5F5F5F5F5F5F5F5F5F5F5F5F5F5F5F5F5F5F5F5F5F5F5F5F5F5F5F5F5F5F5F5F5F5F5F5F5F5F5F5F5F5F5F5F5F5F5F5F5E2F5F5F5E2E2E2F5F5F5E2F5F5F5F5F5F5F5F5F5F5F5E2F5F5E2F5F5E2E2E2E2E2F5F5F5F5F5F5F5F5F5F5F5F5F5F5F5F5F5F5F5F5F5F5F5
310
F5F5F5F5F5F5F5F5F5F5F5F5F5F5F5F5F5F5F5F5F5F5F5F5F5F5F5F5F5E2F5E2F5F5F5F5F5E2E2E2F5F5F5F5F5F5F5F5F5F5F5F5F5F5F5F5F5F5F5F5F5F5F5F5F5F5F5F5F5F5F5F5F5F5F5F5F5F5F5F5F5F5F5F5F5F5F5F5F5F5F5F5F5F5F5F5F5F5F5F5F5F5F5F5F5F5F5F5F5F5F5F5F5F5F5F5F5F5F5F5F5F5F5F5E2F5F5
310
F5E2E2E2F5F5F5E2F5F5F5F5F5F5F5F5F5F5F5E2F5F5E2F5F5E2E2E2E2F5F5F5F5F5F5F5F5F5F5F5F5F5F5F5F5F5F5F5F5F5F5F5F5F5F5F5F5F5F5F5F5F5F5F5F5F5F5F5F5F5F5F5F5F5F5F5F5F5F5F5F5F5E2F5E2F5F5F5F5F5E2F5E2F5F5F5F5F5F5F5F5F5F5F5F5F5F5F5F5F5F5F5F5F5F5F5F5F5F5F5F5F5F5F5F5F5F5
310
F5F5F5F5F5F5F5F5F5F5F5F5F5F5F5F5F5F5F5F5F5F5F5F5F5F5F5F5F5F5F5F5F5F5F5F5F5F5F5F5F5F5F5F5F5F5F5F5F5F5E2F5F5F5E2E2E2F5F5F5E2F5F5F5F5F5F5F5F5F5F5F5E2F5F5E2F5F5E2E2E2E2F5F5F5F5F5F5F5F5F5F5F5F5F5F5F5F5F5F5F5F5F5F5F5F5F5F5F5F5F5F5F5F5F5F5F5F5F5F5F5F5F5F5F5F5F5
310
F5F5F5F5F5F5F5F5E2F5E2F5F5F5F5F5E2E2E2F5F5F5F5F5F5F5F5F5F5F5F5F5F5F5F5F5F5F5F5F5F5F5F5F5F5F5F5F5F5F5F5F5F5F5F5F5F5F5F5F5F5F5F5F5F5F5F5F5F5F5F5F5F5F5F5F5F5F5F5F5F5F5F5F5F5F5F5F5F5F5F5F5F5F5F5F5F5F5F5F5F5F5F5E2F5F5F5E2E2E2F5F5F5E2F5F5F5F5F5F5F5F5F5F5F5E2F5
310
F5E2F5F5E2F5F5F5F5F5F5F5F5F5F5F5F5F5F5F5F5F5F5F5F5F5F5F5F5F5F5F5F5F5F5F5F5F5F5F5F5F5F5F5F5F5F5F5F5F5F5F5F5F5F5F5F5F5F5F5F5E2F5E2F5F5F5F5F5F5E2E2F5F5F5F5F5F5F5F5F5F5F5F5F5F5F5F5F5F5F5F5F5F5F5F5F5F5F5F5F5F5F5F5F5F5F5F5F5F5F5F5F5F5F5F5F5F5F5F5F5F5F5F5F5F5F5
310
F5F5F5F5F5F5F5F5F5F5F5F5F5F5F5F5F5F5F5F5F5F5F5F5F5F5F5F5F5E2F5F5F5E2E2E2F5F5F5E2F5F5F5F5F5F5F5F5F5F5F5E2F5F5E2F5F5E2F5F5F5F5F5F5F5F5F5F5F5F5F5F5F5F5F5F5F5F5F5F5F5F5F5F5F5F5F5F5F5F5F5F5F5F5F5F5F5F5F5F5F5F5F5F5F5F5F5F5F5F5F5F5F5F5E2F5E2F5F5F5F5F5F5F5E2F5F5
310
F5F5F5F5F5F5F5F5F5F5F5F5F5F5F5F5F5F5F5F5F5F5F5F5F5F5F5F5F5F5F5F5F5F5F5F5F5F5F5F5F5F5F5F5F5F5F5F5F5F5F5F5F5F5F5F5F5F5F5F5F5F5F5F5F5F5F5F5F5F5F5F5F5F5F5F5F5F5F5F5F5F5E2F5F5F5E2E2E2F5F5F5E2F5F5F5F5F5F5F5F5F5F5F5E2E2E2E2F5F5E2F5F5F5E2E2E2F5F5F5F5F5E2E2E2F5F5
310
F5F5F5E2E2E2F5F5F5F5F5E2E2E2F5F5F5F5F5E2E2E2F5F5F5F5F5E2E2E2F5F5F5F5F5E2E2E2F5F5E2F5E2F5F5F5F5F5F5E2E2F5F5F5F5F5F5F5F5F5F5F5F5F5F5F5F5F5F5F5F5F5F5F5F5F5F5F5F5F5F5F5F5F5F5F5F5F5F5F5F5F5F5F5F5F5F5F5F5F5F5F5F5F5F5F5F5F5F5F5F5F5F5F5F5F5F5F5F5F5F5F5F5F5F5F5F5
310
F5F5F5F5F5F5F5F5E2F5F5F5E2E2E2F5F5F5E2F5F5F5F5F5F5F5F5F5F5F5E2F5E2E2F5F5E2F5F5F5E2F5E2F5F5F5F5F5E2F5E2F5F5F5F5F5E2F5E2F5F5F5F5F5E2F5E2F5F5F5F5F5E2F5E2F5F5F5F5F5E2F5E2F5F5F5F5F5E2F5E2F5F5E2F5E2F5F5F5F5F5E2E2E2F5F5F5F5F5F5F5F5F5F5F5F5F5F5F5F5F5F5F5F5F5F5F5
310
F5F5F5F5F5F5F5F5F5F5F5F5F5F5F5F5F5F5F5F5F5F5F5F5F5F5F5F5F5F5F5F5F5F5F5F5F5F5F5F5F5F5F5F5F5F5F5F5F5F5F5F5F5F5F5F5F5F5F5F5F5E2F5F5F5E2E2E2F5F5F5E2F5F5F5F5F5F5F5F5F5F5F5E2F5E2E2F5F5E2F5F5F5E2F5E2F5F5F5F5F5E2F5E2F5F5F5F5F5E2F5E2F5F5F5F5F5E2F5E2F5F5F5F5F5E2F5
310
E2F5F5F5F5F5E2F5E2F5F5F5F5F5E2F5E2F5F5E2F5E2F5F5F5F5F5E2F5E2F5F5F5F5F5F5F5F5F5F5F5F5F5F5F5F5F5F5F5F5F5F5F5F5F5F5F5F5F5F5F5F5F5F5F5F5F5F5F5F5F5F5F5F5F5F5F5F5F5F5F5F5F5F5F5F5F5F5F5F5F5F5F5F5F5F5F5F5F5F5F5F5F5F5F5F5F5F5F5F5F5F5F5F5E2F5F5F5E2E2E2F5F5F5E2F5F5
310
F5F5F5F5F5F5F5F5F5E2F5E2E2F5F5E2F5F5F5E2F5E2F5F5F5F5F5E2F5E2F5F5F5F5F5E2F5E2F5F5F5F5F5E2F5E2F5F5F5F5F5E2F5E2F5F5F5F5F5E2F5E2F5F5F5F5F5E2F5E2F5F5E2F5E2F5F5F5F5F5E2E2E2F5F5F5F5F5F5F5F5F5F5F5F5F5F5F5F5F5F5F5F5F5F5F5F5F5F5F5F5F5F5F5F5F5F5F5F5F5F5F5F5F5F5F5F5
310
F5F5F5F5F5F5F5F5F5F5F5F5F5F5F5F5F5F5F5F5F5F5F5F5F5F5F5F5F5F5F5F5F5F5F5F5F5F5F5F5E2F5F5F5E2E2E2F5F5F5E2E2E2E2E2E2E2E2F5F5F5F5E2F5E2E2F5F5E2F5F5F5E2F5E2F5F5F5F5F5E2F5E2F5F5F5F5F5E2F5E2F5F5F5F5F5E2F5E2F5F5F5F5F5E2F5E2F5F5F5F5F5E2F5E2F5F5F5F5F5E2F5E2F5F5E2F5
310
E2F5F5F5F5F5F5E2E2F5F5F5F5F5F5F5F5F5F5F5F5F5F5F5F5F5F5F5F5F5F5F5F5F5F5F5F5F5F5F5F5F5F5F5F5F5F5F5F5F5F5F5F5F5F5F5F5F5F5F5F5F5F5F5F5F5F5F5F5F5F5F5F5F5F5F5F5F5F5F5F5F5F5F5F5F5F5F5F5F5F5F5F5E2F5F5F5E2E2E2F5F5F5E2E2E2E2E2E2E2E2F5F5F5F5E2F5E2E2F5F5E2F5F5F5E2F5
310
E2F5F5F5F5F5E2F5E2F5F5F5F5F5E2F5E2F5F5F5F5F5E2F5E2F5F5F5F5F5E2F5E2F5F5F5F5F5E2F5E2F5F5F5F5F5E2F5E2F5F5E2F5E2F5F5F5F5F5E2E2E2F5F5F5F5F5F5F5F5F5F5F5F5F5F5F5F5F5F5F5F5F5F5F5F5F5F5F5F5F5F5F5F5F5F5F5F5F5F5F5F5F5F5F5F5F5F5F5F5F5F5F5F5F5F5F5F5F5F5F5F5F5F5F5F5F5
310
F5F5F5F5F5F5F5F5F5F5F5F5F5F5F5F5F5F5F5E2F5F5F5E2E2E2F5F5F5E2E2F5E2E2E2F5E2F5F5F5F5E2F5E2E2F5F5E2F5F5F5E2F5E2F5F5F5F5F5E2F5E2F5F5F5F5F5E2F5E2F5F5F5F5F5E2F5E2F5F5F5F5F5E2F5E2F5F5F5F5F5E2F5E2F5F5F5F5F5E2F5E2F5F5E2F5E2F5F5F5F5F5E2E2E2F5F5F5F5F5F5F5F5F5F5F5F5
310
F5F5F5F5F5F5F5F5F5F5F5F5F5F5F5F5F5F5F5F5F5F5F5F5F5F5F5F5F5F5F5F5F5F5F5F5F5F5F5F5F5F5F5F5F5F5F5F5F5F5F5F5F5F5F5F5F5F5F5F5F5F5F5F5F5F5F5F5F5F5F5F5E2F5F5F5E2E2E2F5F5F5E2E2E2E2F5F5F5E2F5F5F5F5E2F5E2E2F5F5E2F5F5F5E2F5E2F5F5F5F5F5E2F5E2F5F5F5F5F5E2F5E2F5F5F5F5
310
F5E2F5E2F5F5F5F5F5E2F5E2F5F5F5F5F5E2F5E2F5F5F5F5F5E2F5E2F5F5E2F5E2F5F5F5F5F5F5E2E2F5F5F5F5F5F5F5F5F5F5F5F5F5F5F5F5F5F5F5F5F5F5F5F5F5F5F5F5F5F5F5F5F5F5F5F5F5F5F5F5F5F5F5F5F5F5F5F5F5F5F5F5F5F5F5F5F5F5F5F5F5F5F5F5F5F5F5F5F5F5F5F5F5F5F5F5F5F5F5F5F5F5F5F5E2F5
310
F5F5E2E2E2F5F5F5E2E2E2E2F5F5F5E2F5F5F5F5E2F5E2E2F5F5E2F5F5F5E2F5E2F5F5F5F5F5E2F5E2F5F5F5F5F5E2F5E2F5F5F5F5F5E2F5E2F5F5F5F5F5E2F5E2F5F5F5F5F5E2F5E2F5F5F5F5F5E2F5E2F5F5E2F5E2F5F5F5F5F5E2E2E2F5F5F5F5F5F5F5F5F5F5F5F5F5F5F5F5F5F5F5F5F5F5F5F5F5F5F5F5F5F5F5F5F5
310
F5F5F5F5F5F5F5F5F5F5F5F5F5F5F5F5F5F5F5F5F5F5F5F5F5F5F5F5F5F5F5F5F5F5F5F5F5F5F5F5F5F5F5F5F5F5F5F5F5F5F5E2F5F5F5E2E2E2F5F5F5E2E2E2E2E2E2E2E2F5F5F5F5E2E2E2E2F5F5E2F5F5F5E2E2E2F5F5F5F5F5E2E2E2F5F5F5F5F5E2E2E2F5F5F5F5F5E2E2E2F5F5F5F5F5E2E2E2F5F5F5F5F5E2E2E2F5
310
F5F5F5F5E2E2E2F5F5E2F5E2F5F5F5F5F5E2E2E2F5F5F5F5F5F5F5F5F5F5F5F5F5F5F5F5F5F5F5F5F5F5F5F5F5F5F5F5F5F5F5F5F5F5F5F5F5F5F5F5F5F5F5F5F5F5F5F5F5F5F5F5F5F5F5F5F5F5F5F5F5F5F5F5F5F5F5F5F5F5F5F5F5F5F5F5F5F5F5F5F5F5F5F5E2F5F5F5E2E2E2F5F5F5E2F5F5F5F5F5F5F5F5F5F5F5E2
310
F5F5E2F5F5E2F5F5F5F5F5F5F5F5F5F5F5F5F5F5F5F5F5F5F5F5F5F5F5F5F5F5F5F5F5F5F5F5F5F5F5F5F5F5F5F5F5F5F5F5F5F5F5F5F5F5F5F5F5F5F5F5E2F5E2F5F5F5F5F5F5E2E2F5F5F5F5F5F5F5F5F5F5F5F5F5F5F5F5F5F5F5F5F5F5F5F5F5F5F5F5F5F5F5F5F5F5F5F5F5F5F5F5F5F5F5F5F5F5F5F5F5F5F5F5F5F5
310
F5F5F5F5F5F5F5F5F5F5F5F5F5F5F5F5F5F5F5F5F5F5F5F5F5F5F5F5F5F5E2F5F5F5E2E2E2F5F5F5E2F5F5F5F5F5F5F5F5F5F5F5E2E2E2E2F5F5E2F5F5F5F5F5E2E2F5F5F5F5F5F5E2E2F5F5F5F5F5F5E2E2F5F5F5F5F5F5E2E2F5F5F5F5F5F5E2E2F5F5F5F5F5F5E2E2F5F5F5F5F5F5E2E2F5E2E2E2F5F5F5F5F5F5E2E2F5
310
F5F5F5F5F5F5F5F5F5F5F5F5F5F5F5F5F5F5F5F5F5F5F5F5F5F5F5F5F5F5F5F5F5F5F5F5F5F5F5F5F5F5F5F5F5F5F5F5F5F5F5F5F5F5F5F5F5F5F5F5F5F5F5F5F5F5F5F5F5F5F5F5F5F5F5F5F5F5F5F5F5F5F5E2F5F5F5E2E2E2F5F5F5E2F5F5F5F5F5F5F5F5F5F5F5E2E2E2E2F5F5E2F5F5F5F5F5E2E2F5F5F5F5F5F5E2E2
310
F5F5F5F5F5F5E2E2F5F5F5F5F5F5E2E2F5F5F5F5F5F5E2E2F5F5F5F5F5F5E2E2F5F5F5F5F5F5E2E2F5E2E2E2F5F5F5F5F5F5E2E2F5F5F5F5F5F5F5F5F5F5F5F5F5F5F5F5F5F5F5F5F5F5F5F5F5F5F5F5F5F5F5F5F5F5F5F5F5F5F5F5F5F5F5F5F5F5F5F5F5F5F5F5F5F5F5F5F5F5F5F5F5F5F5F5F5F5F5F5F5F5F5F5F5F5F5
310
F5F5F5F5F5F5F5F5F5E2F5F5F5E2E2E2F5F5F5E2F5F5F5F5F5F5F5F5F5F5F5E2E2E2E2E2E2E2E2E2E2E2E2E2E2E2E2E2E2E2E2E2E2E2E2E2E2E2E2E2E2E2E2E2E2E2E2E2E2E2E2E2E2E2E2E2E2E2E2E2E2E2E2E2E2E2E2E2E2E2E2E2E2E2E2F5E2F5F5F5F5F5F5E2E2F5F5F5F5F5F5F5F5F5F5F5F5F5F5F5F5F5F5F5F5F5F5
310
F5F5F5F5F5F5F5F5F5F5F5F5F5F5F5F5F5F5F5F5F5F5F5F5F5F5F5F5F5F5F5F5F5F5F5F5F5F5F5F5F5F5F5F5F5F5F5F5F5F5F5F5F5F5F5F5F5F5F5F5F5F5E2F5F5F5E2E2E2F5F5F5E2F5F5F5F5F5F5F5F5F5F5F5E2F5F5F5F5F5F5F5F5F5F5F5F5E2E2F5E2E2F5F5F5F5F5F5F5F5F5F5F5F5F5F5F5F5F5F5F5F5F5F5F5F5F5
310
F5F5F5F5F5F5F5F5F5F5E2E2F5E2E2F5F5F5F5F5F5F5E2F5F5F5F5F5F5E2E2F5F5F5F5F5F5F5F5F5F5F5F5F5F5F5F5F5F5F5F5F5F5F5F5F5F5F5F5F5F5F5F5F5F5F5F5F5F5F5F5F5F5F5F5F5F5F5F5F5F5F5F5F5F5F5F5F5F5F5F5F5F5F5F5F5F5F5F5F5F5F5F5F5F5F5F5F5F5F5F5F5F5F5F5E2F5F5F5E2E2E2F5F5F5E2F5
310
F5F5F5F5F5F5F5F5F5F5E2F5F5F5F5F5F5F5F5F5F5F5F5E2BEBEE2E2F5F5F5F5F5F5F5F5F5F5F5F5F5F5F5F5F5F5F5F5F5F5F5F5F5F5F5F5F5F5F5F5F5F5F5E2BEBEE2E2F5F5F5F5F5F5F5E2F5F5F5F5F5E2E2E2F5F5F5F5F5F5F5F5F5F5F5F5F5F5F5F5F5F5F5F5F5F5F5F5F5F5F5F5F5F5F5F5F5F5F5F5F5F5F5F5F5F5F5
310
F5F5F5F5F5F5F5F5F5F5F5F5F5F5F5F5F5F5F5F5F5F5F5F5F5F5F5F5F5F5F5F5F5F5F5F5F5F5F5F5F5E2F5F5F5E2E2E2F5F5F5E2F5F5F5F5F5F5F5F5F5F5F5E2F5F5F5F5F5F5F5F5F5F5F5F5E2BEBEF5E2F5F5F5F5F5F5F5F5F5F5F5F5F5F5F5F5F5F5F5F5F5F5F5F5F5F5F5F5F5F5F5F5F5F5F5E2BEBEF5E2F5F5F5F5F5F5
310
F5E2F5F5F5F5F5F5E2E2F5F5F5F5F5F5F5F5F5F5F5F5F5F5F5F5F5F5F5F5F5F5F5F5F5F5F5F5F5F5F5F5F5F5F5F5F5F5F5F5F5F5F5F5F5F5F5F5F5F5F5F5F5F5F5F5F5F5F5F5F5F5F5F5F5F5F5F5F5F5F5F5F5F5F5F5F5F5F5F5F5F5F5F5E2F5F5F5E2E2E2F5F5F5E2F5F5F5F5F5F5F5F5F5F5F5E2F5F5F5F5F5F5F5F5F5F5
310
F5F5E2E2E2E2E2F5F5F5F5F5F5F5F5F5F5F5F5F5F5F5F5F5F5F5F5F5F5F5F5F5F5F5F5F5F5F5F5F5F5F5E2E2E2E2E2E2E2E2E2E2E2E2E2E2E2E2E2E2E2E2E2F5F5F5F5F5F5F5F5F5F5F5F5F5F5F5F5F5F5F5F5F5F5F5F5F5F5F5F5F5F5F5F5F5F5F5F5F5F5F5F5F5F5F5F5F5F5F5F5F5F5F5F5F5F5F5F5F5F5F5F5F5F5F5F5
310
F5F5F5F5F5F5F5F5F5F5F5F5F5F5F5F5F5F5F5F5E2F5F5F5E2E2E2F5F5F5E2F5F5F5F5F5F5F5F5F5F5F5E2F5F5F5F5F5F5F5F5F5F5F5F5F5F5F5F5F5F5F5F5F5F5F5F5F5F5F5F5F5F5F5F5F5F5F5F5F5F5F5F5F5F5F5F5F5F5F5F5F5F5F5F5F5F5F5F5F5F5F5F5F5F5F5F5E2F5F5F5F5F5F5F5E2F5F5F5F5F5F5F5F5F5F5F5
310
F5F5F5F5F5F5F5F5F5F5F5F5F5F5F5F5F5F5F5F5F5F5F5F5F5F5F5F5F5F5F5F5F5F5F5F5F5F5F5F5F5F5F5F5F5F5F5F5F5F5F5F5F5F5F5F5F5F5F5F5F5F5F5F5F5F5F5F5F5F5F5F5F5E2F5F5F5E2E2E2F5F5F5E2F5F5F5F5F5F5F5F5F5F5F5E2F5F5F5F5F5F5F5F5F5F5F5F5F5F5F5F5F5F5F5F5F5F5F5F5F5F5F5F5F5F5F5
310
F5F5F5F5F5F5F5F5F5F5F5F5F5F5F5F5F5F5F5F5F5F5F5F5F5F5F5F5F5F5F5F5F5E2F5F5F5F5F5F5F5E2F5F5F5F5F5F5F5F5F5F5F5F5F5F5F5F5F5F5F5F5F5F5F5F5F5F5F5F5F5F5F5F5F5F5F5F5F5F5F5F5F5F5F5F5F5F5F5F5F5F5F5F5F5F5F5F5F5F5F5F5F5F5F5F5F5F5F5F5F5F5F5F5F5F5F5F5F5F5F5F5F5F5F5F5E2
310
F5F5F5E2E2E2F5F5F5E2F5F5F5F5F5F5F5F5F5F5F5E2F5F5F5F5F5F5F5F5F5F5F5F5F5F5F5F5F5F5F5F5F5F5F5F5F5F5F5F5F5F5F5F5F5F5F5F5F5F5F5F5F5F5F5F5F5F5F5F5F5F5F5F5F5F5F5F5F5F5F5F5F5F5F5F5E2F5F5F5F5F5F5F5E2F5F5F5F5F5F5F5F5F5F5F5F5F5F5F5F5F5F5F5F5F5F5F5F5F5F5F5F5F5F5F5F5
310
F5F5F5F5F5F5F5F5F5F5F5F5F5F5F5F5F5F5F5F5F5F5F5F5F5F5F5F5F5F5F5F5F5F5F5F5F5F5F5F5F5F5F5F5F5F5F5F5F5F5F5F5E2F5F5F5E2E2E2F5F5F5E2F5F5F5F5F5F5F5F5F5F5F5E2F5F5F5F5F5F5F5F5F5F5F5F5F5F5F5F5F5F5F5E2E2E2E2E2E2E2E2E2F5F5E2E2E2E2F5E2E2E2E2F5E2E2E2E2E2F5F5F5F5F5F5F5
310
F5F5F5F5F5F5F5F5F5F5F5F5E2F5F5F5F5F5F5F5E2F5F5F5F5F5F5F5F5F5F5F5F5F5F5F5F5F5F5F5F5F5F5F5F5F5F5F5F5F5F5F5F5F5F5F5F5F5F5F5F5F5F5F5F5F5F5F5F5F5F5F5F5F5F5F5F5F5F5F5F5F5F5F5F5F5F5F5F5F5F5F5F5F5F5F5F5F5F5F5F5F5F5F5F5E2F5F5F5E2E2E2F5F5F5E2F5F5F5F5F5F5F5F5F5F5F5
310
E2E2E2E2E2E2E2E2E2E2E2E2E2E2E2E2E2E2E2E2E2E2E2E2E2E2E2E2E2E2F5E2E2F5E2F5E2E2E2F5E2E2E2E2E2E2E2E2E2E2E2E2E2E2E2E2E2E2E2E2E2E2E2E2E2E2F5F5F5F5F5F5F5E2E2E2E2E2E2E2E2E2E2E2E2E2E2E2E2E2E2E2E2E2E2E2E2E2E2E2E2E2E2E2E2E2E2E2E2E2E2E2E2E2E2E2E2E2E2E2E2E2E2E2E2E2E2
310
E2E2E2E2E2E2E2E2E2E2E2E2E2E2E2E2E2E2E2E2E2E2E2E2E2E2E2E2E2E2E2E2F5F5F5E2E2E2F5F5F5E2F5F5F5F5F5F5F5F5F5F5F5E2E2E2F5F5F5F5F5F5F5F5F5F5F5F5F5F5F5F5F5E2E2E2E2E2E2E2E2E2F5F5E2E2E2E2F5E2E2E2F5E2E2E2E2E2E2F5F5F5F5F5F5F5F5F5F5F5F5F5F5F5F5F5E2E2E2F5F5F5F5F5F5F5E2
310
F5F5F5F5F5F5F5F5F5F5F5F5F5F5F5F5F5F5F5F5F5F5F5F5F5F5F5F5F5E2E2F5F5F5F5F5F5F5F5F5F5F5F5F5F5F5F5F5F5F5F5F5F5F5F5F5F5F5F5F5F5F5F5F5F5F5F5F5F5F5F5F5F5F5F5F5F5F5F5F5F5F5F5F5F5F5F5F5E2E2E2F5F5F5E2F5F5F5F5F5F5F5F5F5F5F5F5F5F5F5F5F5F5F5F5F5F5F5F5F5F5F5F5F5F5F5F5
310
F5F5F5F5F5F5F5F5F5F5F5F5F5F5F5F5F5F5F5F5F5F5F5F5F5F5F5F5F5F5F5F5F5F5F5F5F5F5F5F5F5F5F5F5F5F5F5F5F5F5F5F5E2F5E2E2F5F5E2E2E2F5F5E2F5E2F5E2F5F5F5E2E2F5E2E2E2E2F5E2E2F5E2E2E2E2E2F5E2F5F5F5F5E2F5F5F5F5F5F5E2E2F5E2F5E2E2F5F5E2F5F5F5F5E2E2E2E2F5E2F5E2E2E2E2E2F5
310
E2E2E2E2E2E2E2F5F5F5F5F5F5F5E2E2E2F5F5F5E2F5F5F5F5F5F5F5F5F5F5F5F5F5F5F5F5F5F5F5F5F5F5F5F5F5F5F5F5F5F5F5F5F5F5F5F5F5F5F5F5F5F5F5F5F5F5F5F5F5F5F5F5F5F5F5F5F5F5F5F5F5F5F5F5F5F5F5F5F5F5F5F5F5F5F5F5F5F5F5F5F5F5F5F5E2F5E2F5E2E2F5E2E2F5F5E2F5E2E2E2F5F5E2F5E2F5
310
E2E2F5F5E2F5F5E2E2F5E2E2F5E2F5F5F5F5F5F5E2F5F5F5F5E2F5E2E2F5E2F5E2F5E2F5E2F5F5F5E2F5E2E2F5E2E2F5E2F5E2E2E2F5E2E2E2F5E2E2E2F5F5F5F5F5F5E2E2E2F5F5F5E2F5F5F5F5F5F5F5F5F5F5F5F5F5F5F5F5F5F5F5F5F5F5F5F5F5F5F5F5F5F5F5F5F5F5F5F5F5F5F5F5F5F5F5F5F5F5F5F5F5F5F5F5F5
310
F5F5F5F5F5F5F5F5F5F5F5F5F5F5F5F5F5F5F5F5F5F5F5F5F5F5F5F5F5F5F5E2F5E2F5F5E2E2E2E2E2E2E2E2E2E2E2E2E2E2E2E2F5E2E2F5F5E2E2E2E2E2E2E2E2E2F5E2F5F5F5F5F5E2F5F5F5F5F5E2F5E2F5E2E2E2E2E2E2E2F5F5F5E2F5F5E2E2E2E2E2E2F5E2E2E2E2E2E2E2E2E2E2E2F5F5F5F5F5F5E2E2E2F5F5F5E2
310
F5F5F5F5F5F5F5F5F5F5F5F5F5F5F5F5F5F5F5F5F5F5F5F5F5F5F5F5F5F5F5F5F5F5F5F5F5F5F5F5F5F5F5F5F5F5F5F5F5F5F5F5F5F5F5F5F5F5F5F5F5F5F5F5F5F5F5F5F5F5F5F5F5F5F5F5F5F5F5F5F5F5F5F5E2F5E2E2E2F5F5F5F5F5F5F5F5E2F5F5F5F5F5F5F5F5E2E2F5F5F5F5F5F5F5F5F5E2F5F5F5F5F5F5F5E2E2
310
E2F5F5F5E2E2E2E2F5F5F5F5F5E2F5F5F5F5F5E2E2E2E2F5F5F5F5F5F5F5F5F5F5F5F5E2F5F5F5F5F5F5E2F5F5F5E2E2E2F5F5F5E2F5F5F5F5F5F5F5F5F5F5F5F5F5F5F5F5F5F5F5F5F5F5F5F5F5F5F5F5F5F5F5F5F5F5F5F5F5F5F5F5F5F5F5F5F5F5F5F5F5F5F5F5F5F5F5F5F5F5F5F5F5F5F5F5F5F5F5F5F5F5F5F5F5F5
310
F5F5F5F5F5F5F5F5F5F5E2F5F5F5F5F5F5F5F5F5F5F5F5F5F5F5F5F5F5F5F5F5F5F5F5F5F5F5F5F5F5F5F5F5F5F5F5F5F5F5F5F5F5F5F5F5F5F5F5F5F5F5F5F5F5F5F5F5F5F5F5F5F5F5F5F5F5F5F5F5F5F5F5F5F5F5F5F5F5F5F5F5F5F5F5E2F5F5F5E2E2E2F5F5F5E2F5F5F5F5F5F5F5F5F5F5F5F5F5F5F5F5F5F5F5F5F5
310
F5F5F5F5F5F5F5F5F5F5F5F5F5F5F5F5F5F5F5F5F5F5F5F5F5F5F5F5F5F5F5F5F5F5F5F5F5F5F5F5F5F5F5F5F5F5F5F5F5F5F5F5F5F5F5F5F5F5F5F5F5F5F5E2F5F5F5F5F5F5F5F5F5F5F5F5F5F5F5F5F5F5F5F5F5F5F5F5F5F5F5F5F5F5F5F5F5F5F5F5F5F5F5F5F5F5F5F5F5F5F5F5F5F5F5F5F5F5F5F5F5F5F5F5F5F5F5
310
F5F5F5F5F5F5F5F5F5F5F5F5F5F5F5F5F5F5F5F5F5E2F5F5F5E2E2E2F5F5F5E2F5F5F5F5F5F5F5F5F5F5F5F5F5F5F5F5F5F5F5F5F5F5F5F5F5F5F5F5F5F5F5F5F5F5F5F5F5F5F5F5F5F5F5F5F5F5F5F5F5F5F5F5F5F5F5F5F5F5F5F5F5F5F5F5F5F5F5F5F5F5F5F5F5F5F5F5F5F5F5F5F5F5F5F5E2F5E2E2F5E2F5E2E2E2F5
310
E2E2E2F5F5F5E2F5E2F5E2F5F5F5F5F5F5F5F5F5F5F5F5F5F5F5F5F5F5F5F5F5F5F5F5F5F5F5F5F5F5F5F5F5F5F5F5F5F5F5F5F5F5F5F5F5F5F5F5F5F5F5F5F5F5F5F5F5F5F5F5F5F5F5E2F5F5F5E2E2E2F5F5F5E2F5F5F5F5F5F5F5F5F5F5F5F5F5F5F5F5F5F5F5F5F5F5F5F5F5F5F5F5F5F5F5F5F5F5F5F5F5F5F5F5F5F5
310
F5F5F5F5F5F5F5F5F5F5F5F5F5F5F5F5F5F5F5F5F5F5F5F5F5F5F5F5F5F5F5F5F5F5F5F5F5F5F5F5F5F5E2F5E2F5F5E2F5F5F5E2F5E2E2E2E2E2E2E2E2E2F5F5E2F5F5F5F5F5F5F5F5F5F5F5F5F5F5F5F5F5F5F5F5F5F5F5F5F5F5F5F5F5F5F5F5F5F5F5F5F5F5F5F5F5F5F5F5F5F5F5F5F5F5F5F5F5F5F5F5F5F5F5F5F5F5
310
E2F5F5F5E2E2E2F5F5F5E2F5F5F5F5F5F5F5F5F5F5F5F5F5F5F5F5F5F5F5F5F5F5F5F5F5F5F5F5F5F5F5F5F5F5F5F5F5F5F5F5F5F5F5F5F5F5F5F5F5F5F5F5F5F5F5F5F5F5F5F5F5F5F5F5F5F5F5F5F5F5F5F5F5F5F5F5F5F5F5F5F5F5F5F5E2F5E2F5F5F5E2E2E2E2F5E2F5F5F5F5F5F5E2E2F5F5E2F5F5F5F5F5F5F5F5F5
310
F5F5F5F5F5F5F5F5F5F5F5F5F5F5F5F5F5F5F5F5F5F5F5F5F5F5F5F5F5F5F5F5F5F5F5F5F5F5F5F5F5F5F5F5F5F5F5F5F5F5F5F5F5E2F5F5F5E2E2E2F5F5F5E2F5F5F5F5F5F5F5F5F5F5F5F5F5F5F5F5F5F5F5F5F5F5F5F5F5F5F5F5F5F5F5F5F5F5F5F5F5F5F5F5F5F5F5F5F5F5F5F5F5F5F5F5F5F5F5F5F5F5F5F5F5F5F5
310
F5F5F5F5F5F5F5F5F5F5F5F5F5F5F5F5F5F5F5F5F5E2F5E2F5E2E2E2E2E2E2F5F5E2F5F5F5F5F5E2F5E2E2E2E2F5F5F5F5F5F5F5F5F5F5F5F5F5F5F5F5F5F5F5F5F5F5F5F5F5F5F5F5F5F5F5F5F5F5F5F5F5F5F5F5F5F5F5F5F5F5F5F5F5F5F5F5F5F5F5F5F5F5F5F5F5E2F5F5F5E2E2E2F5F5F5E2F5F5F5F5F5F5F5F5F5F5
310
F5F5F5F5F5F5F5F5F5F5F5F5F5F5F5F5F5F5F5F5F5F5F5F5F5F5F5F5F5F5F5F5F5F5F5F5F5F5F5F5F5F5F5F5F5F5F5F5F5F5F5F5F5F5F5F5F5F5F5F5F5F5F5F5F5F5F5F5F5F5F5F5F5F5E2F5F5F5F5F5F5F5F5F5F5F5F5F5F5F5F5F5F5F5F5F5F5F5F5F5F5F5F5F5F5F5F5F5F5F5F5F5F5F5F5F5F5F5F5F5F5F5F5F5F5F5F5
310
F5F5F5F5F5F5F5F5F5F5F5F5F5F5F5F5F5F5F5F5F5F5F5F5F5F5F5F5F5F5F5F5E2F5F5F5E2E2E2F5F5F5E2E2E2E2E2E2E2E2E2E2E2E2E2E2E2E2E2E2E2E2E2E2E2E2E2E2E2E2E2E2E2E2E2E2E2E2E2E2E2E2E2E2E2E2E2E2E2E2E2E2E2E2E2E2E2E2E2E2E2E2E2E2E2E2E2E2E2E2E2E2E2E2E2E2E2E2E2E2E2E2E2E2E2E2E2
310
E2F5F5F5F5E2E2E2E2E2E2E2E2E2E2E2E2E2E2E2F5F5F5F5F5F5F5F5F5E2E2E2E2E2E2E2E2E2E2E2E2E2E2E2E2F5F5F5F5F5F5F5F5E2E2E2E2E2E2E2E2E2E2E2E2E2E2E2E2F5F5F5F5F5F5F5F5F5E2E2E2E2E2E2E2E2F5F5F5E2E2E2F5F5F5F5F5F5F5F5F5F5F5F5F5F5F5F5F5F5F5F5F5F5F5F5F5F5F5F5F5F5F5F5F5F5F5
310
F5F5F5F5F5F5F5F5F5F5F5F5F5F5F5F5F5F5F5F5F5F5F5F5F5F5F5F5F5F5F5F5F5F5F5F5F5F5F5F5F5F5F5F5F5F5F5F5F5F5F5F5F5F5F5F5F5F5F5F5F5F5F5F5F5F5F5F5F5F5F5F5F5F5F5F5F5F5F5F5F5F5F5F5F5F5F5F5F5F5F5F5F5F5F5F5F5F5F5F5F5F5F5F5F5F5F5F5F5F5F5F5F5F5F5F5F5F5F5F5F5F5F5F5F5F5F5
310
F5F5F5F5F5F5F5F5F5F5F5F5F5F5F5E2E2E2F5F5F5F5F5F5F5F5F5F5F5F5F5F5F5F5F5F5F5F5F5F5F5F5F5F5F5F5F5F5F5F5F5F5F5F5F5F5F5F5F5F5F5F5F5F5F5F5F5F5F5F5F5F5F5F5F5F5F5F5F5F5F5F5F5F5F5F5F5F5F5F5F5F5F5F5F5F5F5F5F5F5F5F5F5F5F5F5F5F5F5F5F5F5F5F5F5F5F5F5F5F5F5F5F5F5F5F5F5
310
F5F5F5F5F5F5F5F5F5F5F5F5F5F5F5F5F5F5F5F5F5F5F5F5F5F5F5F5F5F5F5F5F5F5F5F5F5F5F5F5F5F5F5F5F5F5F5F5F5F5F5F5F5F5F5F5F5F5F5F5F5F5F5F5F5F5F5F5E2EFE2F5F5F5F5F5F5F5F5F5F5F5F5F5F5F5F5F5F5F5F5F5F5F5F5F5F5F5F5F5F5F5F5F5F5F5F5F5F5F5F5F5F5F5F5F5F5F5F5F5F5F5F5F5F5F5F5
310
F5F5F5F5F5F5F5F5F5F5F5F5F5F5F5F5F5F5F5F5F5F5F5F5F5F5F5F5F5F5F5F5F5F5F5F5F5F5F5F5F5F5F5F5F5F5F5F5F5F5F5F5F5F5F5F5F5F5F5F5F5F5F5F5F5F5F5F5F5F5F5F5F5F5F5F5F5F5F5F5F5F5F5F5F5F5F5F5F5F5F5F5F5F5F5F5F5F5F5F5F5F5F5F5F5F5F5F5F5F5F5F5F5F5F5F5F5F5F5F5F5E2EFE2E2E2E2
310
E2E2E2E2E2E2E2E2E2E2E2E2E2E2E2E2E2E2E2E2E2E2E2E2E2E2E2E2E2E2E2E2E2E2E2E2E2E2E2E2E2E2E2E2E2E2E2E2E2E2E2E2E2E2E2E2E2E2E2E2E2E2E2E2E2E2E2E2E2E2E2E2E2E2E2E2E2E2E2E2E2E2E2E2E2E2E2E2E2E2E2E2E2E2E2E2E2E2E2E2E2E2E2E2E2E2E2E2E2E2E2E2E2E2E2E2E2E2E2E2E2E2E2E2E2E2E2
310
E2E2E2E2E2E2E2E2E2E2E2E2E2E2E2E2E2E2E2E2E2E2E2E2E2E2E2E2E2E2E2E2E2E2E2E2E2E2E2E2E2E2E2E2E2E2E2E2EF
  0
ENDSEC
  0
EOF
