  0
SECTION
  2
HEADER
  9
$ACADVER
  1
AC1014
  9
$ACADMAINTVER
 70
     9
  9
$DWGCODEPAGE
  3
ANSI_1252
  9
$INSBASE
 10
-197.3349873117944
 20
267.386350928837
 30
48.98340490584314
  9
$EXTMIN
 10
-254.2286108888885
 20
127.686350928837
 30
48.98340490584314
  9
$EXTMAX
 10
-80.09366321750793
 20
281.504747358044
 30
194.1366040394529
  9
$LIMMIN
 10
0.0
 20
0.0
  9
$LIMMAX
 10
12.0
 20
9.0
  9
$ORTHOMODE
 70
     0
  9
$REGENMODE
 70
     1
  9
$FILLMODE
 70
     1
  9
$QTEXTMODE
 70
     0
  9
$MIRRTEXT
 70
     1
  9
$DRAGMODE
 70
     2
  9
$LTSCALE
 40
1.0
  9
$OSMODE
 70
    37
  9
$ATTMODE
 70
     1
  9
$TEXTSIZE
 40
0.12
  9
$TRACEWID
 40
0.05
  9
$TEXTSTYLE
  7
STANDARD
  9
$CLAYER
  8
AREA2
  9
$CELTYPE
  6
BYLAYER
  9
$CECOLOR
 62
   256
  9
$CELTSCALE
 40
1.0
  9
$DELOBJ
 70
     1
  9
$DISPSILH
 70
     0
  9
$DIMSCALE
 40
1.0
  9
$DIMASZ
 40
4.572
  9
$DIMEXO
 40
1.587499999999999
  9
$DIMDLI
 40
9.525
  9
$DIMRND
 40
0.0
  9
$DIMDLE
 40
0.0
  9
$DIMEXE
 40
4.572
  9
$DIMTP
 40
0.0
  9
$DIMTM
 40
0.0
  9
$DIMTXT
 40
4.572
  9
$DIMCEN
 40
2.286
  9
$DIMTSZ
 40
0.0
  9
$DIMTOL
 70
     0
  9
$DIMLIM
 70
     0
  9
$DIMTIH
 70
     0
  9
$DIMTOH
 70
     1
  9
$DIMSE1
 70
     0
  9
$DIMSE2
 70
     0
  9
$DIMTAD
 70
     0
  9
$DIMZIN
 70
     4
  9
$DIMBLK
  1

  9
$DIMASO
 70
     1
  9
$DIMSHO
 70
     1
  9
$DIMPOST
  1

  9
$DIMAPOST
  1

  9
$DIMALT
 70
     1
  9
$DIMALTD
 70
     6
  9
$DIMALTF
 40
0.03937
  9
$DIMLFAC
 40
1.0
  9
$DIMTOFL
 70
     0
  9
$DIMTVP
 40
0.0
  9
$DIMTIX
 70
     0
  9
$DIMSOXD
 70
     0
  9
$DIMSAH
 70
     0
  9
$DIMBLK1
  1

  9
$DIMBLK2
  1

  9
$DIMSTYLE
  2
ABECAD_3D
  9
$DIMCLRD
 70
     0
  9
$DIMCLRE
 70
     0
  9
$DIMCLRT
 70
     0
  9
$DIMTFAC
 40
1.5
  9
$DIMGAP
 40
2.286
  9
$DIMJUST
 70
     0
  9
$DIMSD1
 70
     0
  9
$DIMSD2
 70
     0
  9
$DIMTOLJ
 70
     1
  9
$DIMTZIN
 70
     4
  9
$DIMALTZ
 70
     4
  9
$DIMALTTZ
 70
     4
  9
$DIMFIT
 70
     5
  9
$DIMUPT
 70
     1
  9
$DIMUNIT
 70
     2
  9
$DIMDEC
 70
     2
  9
$DIMTDEC
 70
     2
  9
$DIMALTU
 70
     7
  9
$DIMALTTD
 70
     6
  9
$DIMTXSTY
  7
STANDARD
  9
$DIMAUNIT
 70
     0
  9
$LUNITS
 70
     2
  9
$LUPREC
 70
     4
  9
$SKETCHINC
 40
0.1
  9
$FILLETRAD
 40
0.0
  9
$AUNITS
 70
     0
  9
$AUPREC
 70
     0
  9
$MENU
  1
ACAD
  9
$ELEVATION
 40
0.0
  9
$PELEVATION
 40
0.0
  9
$THICKNESS
 40
0.0
  9
$LIMCHECK
 70
     0
  9
$BLIPMODE
 70
     0
  9
$CHAMFERA
 40
0.0
  9
$CHAMFERB
 40
0.0
  9
$CHAMFERC
 40
0.0
  9
$CHAMFERD
 40
0.0
  9
$SKPOLY
 70
     0
  9
$TDCREATE
 40
2453042.595653843
  9
$TDUPDATE
 40
2453208.668508946
  9
$TDINDWG
 40
0.4486694792
  9
$TDUSRTIMER
 40
0.4486694792
  9
$USRTIMER
 70
     1
  9
$ANGBASE
 50
0.0
  9
$ANGDIR
 70
     0
  9
$PDMODE
 70
     3
  9
$PDSIZE
 40
2.5
  9
$PLINEWID
 40
0.0
  9
$COORDS
 70
     1
  9
$SPLFRAME
 70
     1
  9
$SPLINETYPE
 70
     6
  9
$SPLINESEGS
 70
     8
  9
$ATTDIA
 70
     0
  9
$ATTREQ
 70
     1
  9
$HANDLING
 70
 22529
  9
$HANDSEED
  5
474F6
  9
$SURFTAB1
 70
     6
  9
$SURFTAB2
 70
     6
  9
$SURFTYPE
 70
     6
  9
$SURFU
 70
     6
  9
$SURFV
 70
     6
  9
$UCSNAME
  2

  9
$UCSORG
 10
-197.3349873117944
 20
267.386350928837
 30
48.98340490584314
  9
$UCSXDIR
 10
1.0
 20
0.0
 30
0.0
  9
$UCSYDIR
 10
0.0
 20
1.0
 30
0.0
  9
$PUCSNAME
  2

  9
$PUCSORG
 10
0.0
 20
0.0
 30
0.0
  9
$PUCSXDIR
 10
1.0
 20
0.0
 30
0.0
  9
$PUCSYDIR
 10
0.0
 20
1.0
 30
0.0
  9
$USERI1
 70
     0
  9
$USERI2
 70
     0
  9
$USERI3
 70
     0
  9
$USERI4
 70
     0
  9
$USERI5
 70
     0
  9
$USERR1
 40
0.0
  9
$USERR2
 40
0.0
  9
$USERR3
 40
0.0
  9
$USERR4
 40
0.0
  9
$USERR5
 40
0.0
  9
$WORLDVIEW
 70
     1
  9
$SHADEDGE
 70
     3
  9
$SHADEDIF
 70
    70
  9
$TILEMODE
 70
     1
  9
$MAXACTVP
 70
    16
  9
$PINSBASE
 10
0.0
 20
0.0
 30
0.0
  9
$PLIMCHECK
 70
     0
  9
$PEXTMIN
 10
1.000000000000000E+20
 20
1.000000000000000E+20
 30
1.000000000000000E+20
  9
$PEXTMAX
 10
-1.000000000000000E+20
 20
-1.000000000000000E+20
 30
-1.000000000000000E+20
  9
$PLIMMIN
 10
0.0
 20
0.0
  9
$PLIMMAX
 10
12.0
 20
9.0
  9
$UNITMODE
 70
     0
  9
$VISRETAIN
 70
     0
  9
$PLINEGEN
 70
     0
  9
$PSLTSCALE
 70
     1
  9
$TREEDEPTH
 70
  3020
  9
$PICKSTYLE
 70
     1
  9
$CMLSTYLE
  2
STANDARD
  9
$CMLJUST
 70
     0
  9
$CMLSCALE
 40
1.0
  9
$PROXYGRAPHICS
 70
     1
  9
$MEASUREMENT
 70
     1
  0
ENDSEC
  0
SECTION
  2
CLASSES
  0
CLASS
  1
DICTIONARYVAR
  2
AcDbDictionaryVar
  3
AutoCAD 2000
 90
        0
280
     0
281
     0
  0
CLASS
  1
ACDBDICTIONARYWDFLT
  2
AcDbDictionaryWithDefault
  3
AutoCAD 2000
 90
        0
280
     0
281
     0
  0
CLASS
  1
ACDBPLACEHOLDER
  2
AcDbPlaceHolder
  3
AutoCAD 2000
 90
        0
280
     0
281
     0
  0
CLASS
  1
LAYOUT
  2
AcDbLayout
  3
AutoCAD 2000
 90
        0
280
     0
281
     0
  0
CLASS
  1
LONG_TRANSACTION
  2
AcDbLongTransaction
  3
AutoCAD 2000
 90
        0
280
     0
281
     0
  0
CLASS
  1
LWPOLYLINE
  2
AcDbPolyline
  3
AutoCAD 2000
 90
        0
280
     0
281
     1
  0
CLASS
  1
HATCH
  2
AcDbHatch
  3
AutoCAD 2000
 90
        0
280
     0
281
     1
  0
CLASS
  1
XRECORD
  2
AcDbXrecord
  3
AutoCAD 2000
 90
        0
280
     0
281
     0
  0
CLASS
  1
LONG_TRANSACTION
  2
AcDbLongTransaction
  3
AutoCAD 2000
 90
        0
280
     0
281
     0
  0
CLASS
  1
LWPOLYLINE
  2
AcDbPolyline
  3
AutoCAD 2000
 90
        0
280
     0
281
     1
  0
CLASS
  1
HATCH
  2
AcDbHatch
  3
AutoCAD 2000
 90
        0
280
     0
281
     1
  0
CLASS
  1
XRECORD
  2
AcDbXrecord
  3
AutoCAD 2000
 90
        0
280
     0
281
     0
  0
CLASS
  1
TABLESTYLE
  2
AcDbTableStyle
  3
ObjectDBX Classes
 90
     2047
280
     0
281
     0
  0
CLASS
  1
SORTENTSTABLE
  2
AcDbSortentsTable
  3
AutoCAD 2000
 90
        0
280
     0
281
     0
  0
CLASS
  1
ACAD_PROXY_OBJECT_WRAPPER
  2
AcDbProxyObjectWrapper
  3
AutoCAD 2000
 90
        0
280
     0
281
     0
  0
CLASS
  1
LONG_TRANSACTION
  2
AcDbLongTransaction
  3
AutoCAD 2000
 90
        0
280
     0
281
     0
  0
CLASS
  1
LWPOLYLINE
  2
AcDbPolyline
  3
AutoCAD 2000
 90
        0
280
     0
281
     1
  0
CLASS
  1
HATCH
  2
AcDbHatch
  3
AutoCAD 2000
 90
        0
280
     0
281
     1
  0
CLASS
  1
XRECORD
  2
AcDbXrecord
  3
AutoCAD 2000
 90
        0
280
     0
281
     0
  0
ENDSEC
  0
SECTION
  2
TABLES
  0
TABLE
  2
VPORT
  5
458C7
330
0
100
AcDbSymbolTable
 70
     2
  0
VPORT
  5
474D2
330
458C7
100
AcDbSymbolTableRecord
100
AcDbViewportTableRecord
  2
*ACTIVE
 70
     0
 10
0.0
 20
0.0
 11
1.0
 21
1.0
 12
-85.29049368001532
 22
62.05196776340372
 13
0.0
 23
0.0
 14
0.25
 24
0.25
 15
0.25
 25
0.25
 16
0.0
 26
0.0
 36
1.0
 17
-74.79971231176112
 27
149.1525322605569
 37
148.3327724527218
 40
218.9567784972843
 41
1.83009708737864
 42
50.0
 43
0.0
 44
0.0
 50
0.0
 51
0.0
 71
     0
 72
 20000
 73
     1
 74
     1
 75
     0
 76
     0
 77
     0
 78
     0
  0
ENDTAB
  0
TABLE
  2
LTYPE
  5
458C4
330
0
100
AcDbSymbolTable
 70
     1
  0
LTYPE
  5
458D0
330
458C4
100
AcDbSymbolTableRecord
100
AcDbLinetypeTableRecord
  2
BYBLOCK
 70
     0
  3

 72
    65
 73
     0
 40
0.0
  0
LTYPE
  5
458D1
330
458C4
100
AcDbSymbolTableRecord
100
AcDbLinetypeTableRecord
  2
BYLAYER
 70
     0
  3

 72
    65
 73
     0
 40
0.0
  0
LTYPE
  5
458D2
330
458C4
100
AcDbSymbolTableRecord
100
AcDbLinetypeTableRecord
  2
CONTINUOUS
 70
     0
  3
Solid line
 72
    65
 73
     0
 40
0.0
  0
ENDTAB
  0
TABLE
  2
LAYER
  5
458C1
330
0
100
AcDbSymbolTable
 70
     8
  0
LAYER
  5
458CD
330
458C1
100
AcDbSymbolTableRecord
100
AcDbLayerTableRecord
  2
0
 70
     0
 62
     7
  6
CONTINUOUS
  0
LAYER
  5
458EA
330
458C1
100
AcDbSymbolTableRecord
100
AcDbLayerTableRecord
  2
DIMS-MTG-HOLES
 70
     0
 62
    -1
  6
CONTINUOUS
  0
LAYER
  5
458EB
330
458C1
100
AcDbSymbolTableRecord
100
AcDbLayerTableRecord
  2
ATTRIBUTES
 70
     0
 62
     7
  6
CONTINUOUS
  0
LAYER
  5
4593F
330
458C1
100
AcDbSymbolTableRecord
100
AcDbLayerTableRecord
  2
AREA1
 70
     0
 62
    -7
  6
CONTINUOUS
  0
LAYER
  5
45946
330
458C1
100
AcDbSymbolTableRecord
100
AcDbLayerTableRecord
  2
DEFPOINTS
 70
     0
 62
     7
  6
CONTINUOUS
  0
LAYER
  5
45972
330
458C1
100
AcDbSymbolTableRecord
100
AcDbLayerTableRecord
  2
SCALE
 70
     0
 62
    -7
  6
CONTINUOUS
  0
LAYER
  5
4597A
330
458C1
100
AcDbSymbolTableRecord
100
AcDbLayerTableRecord
  2
SNAP_POINTS
 70
     0
 62
    -1
  6
CONTINUOUS
  0
LAYER
  5
459D2
330
458C1
100
AcDbSymbolTableRecord
100
AcDbLayerTableRecord
  2
AREA2
 70
     0
 62
    -7
  6
CONTINUOUS
  0
ENDTAB
  0
TABLE
  2
STYLE
  5
458C2
330
0
100
AcDbSymbolTable
 70
     1
  0
STYLE
  5
458CE
330
458C2
100
AcDbSymbolTableRecord
100
AcDbTextStyleTableRecord
  2
STANDARD
 70
     0
 40
0.0
 41
1.0
 50
0.0
 71
     0
 42
0.12
  3
txt
  4

  0
ENDTAB
  0
TABLE
  2
VIEW
  5
458C5
330
0
100
AcDbSymbolTable
 70
     0
  0
ENDTAB
  0
TABLE
  2
UCS
  5
458C6
330
0
100
AcDbSymbolTable
 70
     0
  0
ENDTAB
  0
TABLE
  2
APPID
  5
458C8
330
0
100
AcDbSymbolTable
 70
     1
  0
APPID
  5
458CF
330
458C8
100
AcDbSymbolTableRecord
100
AcDbRegAppTableRecord
  2
ACAD
 70
     0
  0
ENDTAB
  0
TABLE
  2
DIMSTYLE
  5
458C9
330
0
100
AcDbSymbolTable
 70
     2
  0
DIMSTYLE
105
458F6
102
{ACAD_REACTORS
330
47427
330
47428
330
47491
102
}
330
458C9
100
AcDbSymbolTableRecord
100
AcDbDimStyleTableRecord
  2
ABECAD_3D
 70
     0
  3

  4

  5

  6

  7

 40
1.0
 41
4.572
 42
1.587499999999999
 43
9.525
 44
4.572
 45
0.0
 46
0.0
 47
0.0
 48
0.0
140
4.572
141
2.286
142
0.0
143
0.03937
144
1.0
145
0.0
146
1.5
147
2.286
 71
     0
 72
     0
 73
     0
 74
     1
 75
     0
 76
     0
 77
     0
 78
     4
170
     1
171
     6
172
     0
173
     0
174
     0
175
     0
176
     0
177
     0
178
     0
270
     2
271
     2
272
     2
273
     7
274
     6
340
458CE
275
     0
280
     0
281
     0
282
     0
283
     1
284
     4
285
     4
286
     4
287
     5
288
     1
  0
DIMSTYLE
105
459E0
330
458C9
100
AcDbSymbolTableRecord
100
AcDbDimStyleTableRecord
  2
STANDARD
 70
     0
  3

  4

  5

  6

  7

 40
1.0
 41
0.18
 42
0.0625
 43
0.38
 44
0.18
 45
0.0
 46
0.0
 47
0.0
 48
0.0
140
0.18
141
0.09
142
0.0
143
25.4
144
1.0
145
0.0
146
1.0
147
0.09
 71
     0
 72
     0
 73
     1
 74
     1
 75
     0
 76
     0
 77
     0
 78
     0
170
     0
171
     2
172
     0
173
     0
174
     0
175
     0
176
     0
177
     0
178
     0
270
     2
271
     4
272
     4
273
     2
274
     2
340
458CE
275
     0
280
     0
281
     0
282
     0
283
     1
284
     0
285
     0
286
     0
287
     3
288
     0
  0
ENDTAB
  0
TABLE
  2
BLOCK_RECORD
  5
458C0
330
0
100
AcDbSymbolTable
 70
     3
  0
BLOCK_RECORD
  5
458D6
102
{ACAD_XDICTIONARY
360
45930
102
}
330
458C0
100
AcDbSymbolTableRecord
100
AcDbBlockTableRecord
  2
*MODEL_SPACE
  0
BLOCK_RECORD
  5
458D3
102
{ACAD_XDICTIONARY
360
4592E
102
}
330
458C0
100
AcDbSymbolTableRecord
100
AcDbBlockTableRecord
  2
*PAPER_SPACE
  0
BLOCK_RECORD
  5
47429
330
458C0
100
AcDbSymbolTableRecord
100
AcDbBlockTableRecord
  2
*D0
  0
BLOCK_RECORD
  5
47436
330
458C0
100
AcDbSymbolTableRecord
100
AcDbBlockTableRecord
  2
*D1
  0
BLOCK_RECORD
  5
47492
330
458C0
100
AcDbSymbolTableRecord
100
AcDbBlockTableRecord
  2
*D2
  0
ENDTAB
  0
ENDSEC
  0
SECTION
  2
BLOCKS
  0
BLOCK
  5
458DF
330
458D6
100
AcDbEntity
  8
0
100
AcDbBlockBegin
  2
*MODEL_SPACE
 70
     0
 10
0.0
 20
0.0
 30
0.0
  3
*MODEL_SPACE
  1

  0
ENDBLK
  5
458E0
330
458D6
100
AcDbEntity
  8
0
100
AcDbBlockEnd
  0
BLOCK
  5
458DD
330
458D3
100
AcDbEntity
 67
     1
  8
0
100
AcDbBlockBegin
  2
*PAPER_SPACE
 70
     0
 10
0.0
 20
0.0
 30
0.0
  3
*PAPER_SPACE
  1

  0
ENDBLK
  5
458DE
330
458D3
100
AcDbEntity
 67
     1
  8
0
100
AcDbBlockEnd
  0
BLOCK
  5
47434
330
47429
100
AcDbEntity
  8
0
100
AcDbBlockBegin
  2
*D0
 70
     1
 10
0.0
 20
0.0
 30
0.0
  3
*D0
  1

  0
LINE
  5
47475
330
47429
100
AcDbEntity
  8
AREA1
 62
     0
100
AcDbLine
 10
-94.14748731179324
 20
127.6863509288373
 30
0.0
 11
-80.09366321750794
 21
127.6863509288373
 31
0.0
  0
LINE
  5
47476
330
47429
100
AcDbEntity
  8
AREA1
 62
     0
100
AcDbLine
 10
-94.14748731179324
 20
267.3863509288371
 30
0.0
 11
-80.09366321750793
 21
267.3863509288371
 31
0.0
  0
LINE
  5
47477
330
47429
100
AcDbEntity
  8
AREA1
 62
     0
100
AcDbLine
 10
-84.66566321750795
 20
132.2583509288373
 30
0.0
 11
-84.66566321750795
 21
168.9613509288372
 31
0.0
  0
LINE
  5
47478
330
47429
100
AcDbEntity
  8
AREA1
 62
     0
100
AcDbLine
 10
-84.66566321750793
 20
262.8143509288371
 30
0.0
 11
-84.66566321750793
 21
226.1113509288372
 31
0.0
  0
SOLID
  5
47479
330
47429
100
AcDbEntity
  8
AREA1
 62
     0
100
AcDbTrace
 10
-85.42766321750795
 20
132.2583509288373
 30
0.0
 11
-83.90366321750795
 21
132.2583509288373
 31
0.0
 12
-84.66566321750795
 22
127.6863509288373
 32
0.0
 13
-84.66566321750795
 23
127.6863509288373
 33
0.0
  0
SOLID
  5
4747A
330
47429
100
AcDbEntity
  8
AREA1
 62
     0
100
AcDbTrace
 10
-85.42766321750793
 20
262.8143509288371
 30
0.0
 11
-83.90366321750793
 21
262.8143509288371
 31
0.0
 12
-84.66566321750793
 22
267.3863509288371
 32
0.0
 13
-84.66566321750793
 23
267.3863509288371
 33
0.0
  0
MTEXT
  5
4747B
330
47429
100
AcDbEntity
  8
AREA1
 62
     0
100
AcDbMText
 10
-84.66566321750796
 20
197.5363509288372
 30
0.0
 40
4.572
 41
0.0
 71
     5
 72
     1
  1
\A1;139.70 [5 1/2]
 11
0.0000000000000001
 21
1.0
 31
0.0
1001
ACAD
1000
MTEXTBEGIN
1070
    73
1070
     1
1070
    44
1040
1.0
1070
    74
1070
     0
1000
MTEXTEND
  0
POINT
  5
4747C
330
47429
100
AcDbEntity
  8
DEFPOINTS
 62
     0
100
AcDbPoint
 10
-95.73498731179325
 20
127.6863509288373
 30
0.0
  0
POINT
  5
4747D
330
47429
100
AcDbEntity
  8
DEFPOINTS
 62
     0
100
AcDbPoint
 10
-95.73498731179325
 20
267.3863509288371
 30
0.0
  0
POINT
  5
4747E
330
47429
100
AcDbEntity
  8
DEFPOINTS
 62
     0
100
AcDbPoint
 10
-84.66566321750793
 20
267.3863509288371
 30
0.0
  0
ENDBLK
  5
47435
330
47429
100
AcDbEntity
  8
0
100
AcDbBlockEnd
  0
BLOCK
  5
47441
330
47436
100
AcDbEntity
  8
0
100
AcDbBlockBegin
  2
*D1
 70
     1
 10
0.0
 20
0.0
 30
0.0
  3
*D1
  1

  0
LINE
  5
4746B
330
47436
100
AcDbEntity
  8
AREA1
 62
     0
100
AcDbLine
 10
-207.4949873117934
 20
258.8138509288372
 30
0.0
 11
-207.4949873117934
 21
281.504747358044
 31
0.0
  0
LINE
  5
4746C
330
47436
100
AcDbEntity
  8
AREA1
 62
     0
100
AcDbLine
 10
-95.73498731179325
 20
268.9738509288371
 30
0.0
 11
-95.73498731179325
 21
281.504747358044
 31
0.0
  0
LINE
  5
4746D
330
47436
100
AcDbEntity
  8
AREA1
 62
     0
100
AcDbLine
 10
-202.9229873117934
 20
276.932747358044
 30
0.0
 11
-183.6189873117933
 21
276.932747358044
 31
0.0
  0
LINE
  5
4746E
330
47436
100
AcDbEntity
  8
AREA1
 62
     0
100
AcDbLine
 10
-100.3069873117932
 20
276.932747358044
 30
0.0
 11
-119.6109873117933
 21
276.932747358044
 31
0.0
  0
SOLID
  5
4746F
330
47436
100
AcDbEntity
  8
AREA1
 62
     0
100
AcDbTrace
 10
-202.9229873117934
 20
277.694747358044
 30
0.0
 11
-202.9229873117934
 21
276.170747358044
 31
0.0
 12
-207.4949873117934
 22
276.932747358044
 32
0.0
 13
-207.4949873117934
 23
276.932747358044
 33
0.0
  0
SOLID
  5
47470
330
47436
100
AcDbEntity
  8
AREA1
 62
     0
100
AcDbTrace
 10
-100.3069873117932
 20
277.694747358044
 30
0.0
 11
-100.3069873117932
 21
276.170747358044
 31
0.0
 12
-95.73498731179325
 22
276.932747358044
 32
0.0
 13
-95.73498731179325
 23
276.932747358044
 33
0.0
  0
MTEXT
  5
47471
330
47436
100
AcDbEntity
  8
AREA1
 62
     0
100
AcDbMText
 10
-151.6149873117933
 20
276.932747358044
 30
0.0
 40
4.572
 41
0.0
 71
     5
 72
     1
  1
\A1;111.76 [4 13/32]
1001
ACAD
1000
MTEXTBEGIN
1070
    73
1070
     1
1070
    44
1040
1.0
1070
    74
1070
     0
1000
MTEXTEND
  0
POINT
  5
47472
330
47436
100
AcDbEntity
  8
DEFPOINTS
 62
     0
100
AcDbPoint
 10
-207.4949873117934
 20
257.2263509288372
 30
0.0
  0
POINT
  5
47473
330
47436
100
AcDbEntity
  8
DEFPOINTS
 62
     0
100
AcDbPoint
 10
-95.73498731179325
 20
267.3863509288371
 30
0.0
  0
POINT
  5
47474
330
47436
100
AcDbEntity
  8
DEFPOINTS
 62
     0
100
AcDbPoint
 10
-95.73498731179325
 20
276.932747358044
 30
0.0
  0
ENDBLK
  5
47442
330
47436
100
AcDbEntity
  8
0
100
AcDbBlockEnd
  0
BLOCK
  5
4749D
330
47492
100
AcDbEntity
  8
0
100
AcDbBlockBegin
  2
*D2
 70
     1
 10
0.0
 20
0.0
 30
0.0
  3
*D2
  1

  0
LINE
  5
474AA
330
47492
100
AcDbEntity
  8
AREA2
 62
     0
100
AcDbLine
 10
-96.3687801976283
 20
194.1366040394529
 30
0.0
 11
-80.28158029512564
 21
194.1366040394529
 31
0.0
  0
LINE
  5
474AB
330
47492
100
AcDbEntity
  8
AREA2
 62
     0
100
AcDbLine
 10
-94.14748731179368
 20
48.98340490584314
 30
0.0
 11
-80.28158029512566
 21
48.98340490584314
 31
0.0
  0
LINE
  5
474AC
330
47492
100
AcDbEntity
  8
AREA2
 62
     0
100
AcDbLine
 10
-84.85358029512564
 20
189.5646040394529
 30
0.0
 11
-84.85358029512566
 21
155.4010539410182
 31
0.0
  0
LINE
  5
474AD
330
47492
100
AcDbEntity
  8
AREA2
 62
     0
100
AcDbLine
 10
-84.85358029512566
 20
53.55540490584314
 30
0.0
 11
-84.85358029512566
 21
88.34505394101817
 31
0.0
  0
MTEXT
  5
474AE
330
47492
100
AcDbEntity
  8
AREA2
 62
     0
100
AcDbMText
 10
-84.85358029512566
 20
121.8730539410181
 30
0.0
 40
4.572
 41
0.0
 71
     5
 72
     1
  1
\A1;145.15 [5 23/32]
 11
0.0000000000000001
 21
1.0
 31
0.0
1001
ACAD
1000
MTEXTBEGIN
1070
    73
1070
     1
1070
    44
1040
1.0
1070
    74
1070
     0
1000
MTEXTEND
  0
SOLID
  5
474AF
330
47492
100
AcDbEntity
  8
AREA2
 62
     0
100
AcDbTrace
 10
-85.61558029512564
 20
189.5646040394529
 30
0.0
 11
-84.09158029512564
 21
189.5646040394529
 31
0.0
 12
-84.85358029512564
 22
194.1366040394529
 32
0.0
 13
-84.85358029512564
 23
194.1366040394529
 33
0.0
  0
SOLID
  5
474B0
330
47492
100
AcDbEntity
  8
AREA2
 62
     0
100
AcDbTrace
 10
-85.61558029512566
 20
53.55540490584314
 30
0.0
 11
-84.09158029512566
 21
53.55540490584314
 31
0.0
 12
-84.85358029512566
 22
48.98340490584314
 32
0.0
 13
-84.85358029512566
 23
48.98340490584314
 33
0.0
  0
POINT
  5
474B1
330
47492
100
AcDbEntity
  8
DEFPOINTS
 62
     0
100
AcDbPoint
 10
-97.9562801976283
 20
194.1366040394529
 30
0.0
  0
POINT
  5
474B2
330
47492
100
AcDbEntity
  8
DEFPOINTS
 62
     0
100
AcDbPoint
 10
-95.73498731179368
 20
48.98340490584314
 30
0.0000000000000568
  0
POINT
  5
474B3
330
47492
100
AcDbEntity
  8
DEFPOINTS
 62
     0
100
AcDbPoint
 10
-84.85358029512566
 20
48.98340490584314
 30
0.0
  0
ENDBLK
  5
4749E
330
47492
100
AcDbEntity
  8
0
100
AcDbBlockEnd
  0
ENDSEC
  0
SECTION
  2
ENTITIES
  0
LINE
  5
46C1B
330
458D6
100
AcDbEntity
  8
SCALE
100
AcDbLine
 10
-252.7554448175287
 20
246.5856430044695
 30
48.98340490584314
 11
-227.3554448175287
 21
246.5856430044695
 31
48.98340490584314
  0
TEXT
  5
46C1D
330
458D6
100
AcDbEntity
  8
SCALE
100
AcDbText
 10
-243.5280569100374
 20
248.3394798669487
 30
48.98340490584314
 40
1.587499999999999
  1
1 Inch
100
AcDbText
  0
LINE
  5
46C1E
330
458D6
100
AcDbEntity
  8
SCALE
100
AcDbLine
 10
-242.7554648175287
 20
236.4256430044695
 30
48.98340490584314
 11
-242.7554648175287
 21
241.5056430044695
 31
48.98340490584314
  0
LINE
  5
46C1F
330
458D6
100
AcDbEntity
  8
SCALE
100
AcDbLine
 10
-252.7554448175287
 20
236.4256430044695
 30
48.98340490584314
 11
-252.7554448175287
 21
241.5056430044695
 31
48.98340490584314
  0
LINE
  5
46C20
330
458D6
100
AcDbEntity
  8
SCALE
100
AcDbLine
 10
-252.7554448175287
 20
244.0456430044695
 30
48.98340490584314
 11
-252.7554448175287
 21
249.1256430044695
 31
48.98340490584314
  0
TEXT
  5
46C21
330
458D6
100
AcDbEntity
  8
SCALE
100
AcDbText
 10
-251.2461220767549
 20
240.127429994432
 30
48.98340490584314
 40
1.587499999999999
  1
[10mm]
100
AcDbText
  0
LINE
  5
46C22
330
458D6
100
AcDbEntity
  8
SCALE
100
AcDbLine
 10
-252.7554448175287
 20
238.9656430044695
 30
48.98340490584314
 11
-242.7554648175287
 21
238.9656430044695
 31
48.98340490584314
  0
TEXT
  5
46C23
330
458D6
100
AcDbEntity
  8
SCALE
100
AcDbText
 10
-252.716576080267
 20
253.5675218848193
 30
48.98340490584314
 40
1.587499999999999
  1
SCALE:
100
AcDbText
  0
LINE
  5
46C24
330
458D6
100
AcDbEntity
  8
SCALE
100
AcDbLine
 10
-227.3554448175287
 20
244.0456430044695
 30
48.98340490584314
 11
-227.3554448175287
 21
249.1256430044695
 31
48.98340490584314
  0
ATTDEF
  5
46CE5
330
458D6
100
AcDbEntity
  8
ATTRIBUTES
100
AcDbText
 10
-193.1876723040819
 20
129.8947770696977
 30
49.00340968082282
 40
0.6096
  1
0
100
AcDbAttributeDefinition
  3
VIEW CODE?
  2
AC_VIEW_CODE
 70
     1
  0
ATTDEF
  5
46CE6
330
458D6
100
AcDbEntity
  8
ATTRIBUTES
100
AcDbText
 10
-193.1876723040819
 20
131.1647770696976
 30
49.00340968082282
 40
0.6096
  1
INCH
100
AcDbAttributeDefinition
  3
UNIT OF SCALE?
  2
AC_SCALE_UNIT
 70
     1
  0
ATTDEF
  5
46CE7
330
458D6
100
AcDbEntity
  8
ATTRIBUTES
100
AcDbText
 10
-193.1876723040819
 20
132.4347770696975
 30
49.00340968082282
 40
0.6096
  1

100
AcDbAttributeDefinition
  3
FASTENER DATA?
  2
FASTENER
 70
     1
  0
ATTDEF
  5
46CE8
330
458D6
100
AcDbEntity
  8
ATTRIBUTES
100
AcDbText
 10
-193.1876723040819
 20
133.7047770696975
 30
49.00340968082282
 40
0.6096
  1

100
AcDbAttributeDefinition
  3
CUSTOMER NOTE?
  2
AC_NOTE
 70
     1
  0
ATTDEF
  5
46CE9
330
458D6
100
AcDbEntity
  8
ATTRIBUTES
100
AcDbText
 10
-193.1876723040819
 20
134.9747770696974
 30
49.00340968082282
 40
0.6096
  1

100
AcDbAttributeDefinition
  3
CUSTOMER PART NUMBER?
  2
AC_CPART_NO
 70
     1
  0
ATTDEF
  5
46CEA
330
458D6
100
AcDbEntity
  8
ATTRIBUTES
100
AcDbText
 10
-193.1876723040819
 20
136.2447770696977
 30
49.00340968082282
 40
0.6096
  1

100
AcDbAttributeDefinition
  3
DEVICE ID?
  2
DEVICE_ID
 70
     1
  0
ATTDEF
  5
46CEB
330
458D6
100
AcDbEntity
  8
ATTRIBUTES
100
AcDbText
 10
-193.1876723040819
 20
137.5147770696976
 30
49.00340968082282
 40
0.6096
  1
ControlLogix Power Supply
100
AcDbAttributeDefinition
  3
PART DESCRIPTION?
  2
AC_DESCRIPTION
 70
     1
  0
ATTDEF
  5
46CEC
330
458D6
100
AcDbEntity
  8
ATTRIBUTES
100
AcDbText
 10
-193.1876723040819
 20
138.7847770696975
 30
49.00340968082282
 40
0.6096
  1
1756-P*7*
100
AcDbAttributeDefinition
  3
CATALOG NUMBER?
  2
AC_PART_NO
 70
     1
  0
ATTDEF
  5
46CED
330
458D6
100
AcDbEntity
  8
ATTRIBUTES
100
AcDbText
 10
-193.1876723040819
 20
140.0547770696974
 30
49.00340968082282
 40
0.6096
  1
ALLEN-BRADLEY
100
AcDbAttributeDefinition
  3
MANUFACTURER NAME?
  2
AC_VND_LABEL
 70
     1
  0
POLYLINE
  5
473A8
330
458D6
100
AcDbEntity
  8
0
100
AcDbPolygonMesh
 66
     1
 10
0.0
 20
0.0
 30
0.0
 70
    16
 71
     6
 72
     3
  0
VERTEX
  5
473A9
330
473A8
100
AcDbEntity
  8
0
100
AcDbVertex
100
AcDbPolygonMeshVertex
 10
-197.3349873117944
 20
137.8463509288368
 30
193.7634049058432
 70
    64
  0
VERTEX
  5
473AA
330
473A8
100
AcDbEntity
  8
0
100
AcDbVertex
100
AcDbPolygonMeshVertex
 10
-197.3349873117944
 20
137.8463509288368
 30
48.98340490584314
 70
    64
  0
VERTEX
  5
473AB
330
473A8
100
AcDbEntity
  8
0
100
AcDbVertex
100
AcDbPolygonMeshVertex
 10
-197.3349873117944
 20
137.8463509288368
 30
48.98340490584314
 70
    64
  0
VERTEX
  5
473AC
330
473A8
100
AcDbEntity
  8
0
100
AcDbVertex
100
AcDbPolygonMeshVertex
 10
-207.4949873117938
 20
137.8463509288368
 30
193.7634049058432
 70
    64
  0
VERTEX
  5
473AD
330
473A8
100
AcDbEntity
  8
0
100
AcDbVertex
100
AcDbPolygonMeshVertex
 10
-207.4949873117938
 20
137.8463509288368
 30
48.98340490584314
 70
    64
  0
VERTEX
  5
473AE
330
473A8
100
AcDbEntity
  8
0
100
AcDbVertex
100
AcDbPolygonMeshVertex
 10
-207.4949873117938
 20
137.8463509288368
 30
48.98340490584314
 70
    64
  0
VERTEX
  5
473AF
330
473A8
100
AcDbEntity
  8
0
100
AcDbVertex
100
AcDbPolygonMeshVertex
 10
-207.4949873117938
 20
257.2263509288369
 30
193.7634049058432
 70
    64
  0
VERTEX
  5
473B0
330
473A8
100
AcDbEntity
  8
0
100
AcDbVertex
100
AcDbPolygonMeshVertex
 10
-207.4949873117938
 20
257.2263509288369
 30
48.98340490584314
 70
    64
  0
VERTEX
  5
473B1
330
473A8
100
AcDbEntity
  8
0
100
AcDbVertex
100
AcDbPolygonMeshVertex
 10
-207.4949873117938
 20
137.8463509288368
 30
48.98340490584314
 70
    64
  0
VERTEX
  5
473B2
330
473A8
100
AcDbEntity
  8
0
100
AcDbVertex
100
AcDbPolygonMeshVertex
 10
-197.3349873117944
 20
257.2263509288369
 30
193.7634049058432
 70
    64
  0
VERTEX
  5
473B3
330
473A8
100
AcDbEntity
  8
0
100
AcDbVertex
100
AcDbPolygonMeshVertex
 10
-197.3349873117944
 20
257.2263509288369
 30
48.98340490584314
 70
    64
  0
VERTEX
  5
473B4
330
473A8
100
AcDbEntity
  8
0
100
AcDbVertex
100
AcDbPolygonMeshVertex
 10
-197.3349873117944
 20
137.8463509288368
 30
48.98340490584314
 70
    64
  0
VERTEX
  5
473B5
330
473A8
100
AcDbEntity
  8
0
100
AcDbVertex
100
AcDbPolygonMeshVertex
 10
-197.3349873117944
 20
257.2263509288369
 30
193.7634049058432
 70
    64
  0
VERTEX
  5
473B6
330
473A8
100
AcDbEntity
  8
0
100
AcDbVertex
100
AcDbPolygonMeshVertex
 10
-197.3349873117944
 20
257.2263509288369
 30
193.7634049058432
 70
    64
  0
VERTEX
  5
473B7
330
473A8
100
AcDbEntity
  8
0
100
AcDbVertex
100
AcDbPolygonMeshVertex
 10
-197.3349873117944
 20
137.8463509288368
 30
193.7634049058432
 70
    64
  0
VERTEX
  5
473B8
330
473A8
100
AcDbEntity
  8
0
100
AcDbVertex
100
AcDbPolygonMeshVertex
 10
-207.4949873117938
 20
257.2263509288369
 30
193.7634049058432
 70
    64
  0
VERTEX
  5
473B9
330
473A8
100
AcDbEntity
  8
0
100
AcDbVertex
100
AcDbPolygonMeshVertex
 10
-207.4949873117938
 20
257.2263509288369
 30
193.7634049058432
 70
    64
  0
VERTEX
  5
473BA
330
473A8
100
AcDbEntity
  8
0
100
AcDbVertex
100
AcDbPolygonMeshVertex
 10
-207.4949873117938
 20
137.8463509288368
 30
193.7634049058432
 70
    64
  0
SEQEND
  5
473BB
330
473A8
100
AcDbEntity
  8
0
  0
3DFACE
  5
473BC
330
458D6
100
AcDbEntity
  8
0
100
AcDbFace
 10
-95.73498731179368
 20
267.386350928837
 30
193.7634049058432
 11
-95.73498731179368
 21
127.6868113966737
 31
193.7634049058432
 12
-197.3349873117944
 22
127.6868113966737
 32
193.7634049058432
 13
-197.3349873117944
 23
267.386350928837
 33
193.7634049058432
  0
3DFACE
  5
473BD
330
458D6
100
AcDbEntity
  8
0
100
AcDbFace
 10
-95.73498731179368
 20
267.386350928837
 30
184.2384049058432
 11
-95.73498731179368
 21
127.6868113966737
 31
184.2384049058432
 12
-95.73498731179368
 22
127.6868113966737
 32
193.7634049058432
 13
-95.73498731179368
 23
267.386350928837
 33
193.7634049058432
  0
3DFACE
  5
473BE
330
458D6
100
AcDbEntity
  8
0
100
AcDbFace
 10
-197.3349873117944
 20
267.386350928837
 30
184.2384049058432
 11
-197.3349873117944
 21
127.6868113966737
 31
184.2384049058432
 12
-95.73498731179368
 22
127.6868113966737
 32
184.2384049058432
 13
-95.73498731179368
 23
267.386350928837
 33
184.2384049058432
  0
3DFACE
  5
473BF
330
458D6
100
AcDbEntity
  8
0
100
AcDbFace
 10
-197.3349873117944
 20
127.6868113966737
 30
184.2384049058432
 11
-197.3349873117944
 21
127.6868113966737
 31
184.2384049058432
 12
-197.3349873117944
 22
127.6868113966737
 32
184.2384049058432
 13
-197.3349873117944
 23
267.386350928837
 33
184.2384049058432
  0
3DFACE
  5
473C0
330
458D6
100
AcDbEntity
  8
0
100
AcDbFace
 10
-197.3349873117944
 20
127.6868113966737
 30
193.7634049058432
 11
-197.3349873117944
 21
127.6868113966737
 31
184.2384049058432
 12
-197.3349873117944
 22
267.386350928837
 32
184.2384049058432
 13
-197.3349873117944
 23
267.386350928837
 33
193.7634049058432
  0
POLYLINE
  5
473C1
330
458D6
100
AcDbEntity
  8
0
100
AcDbPolygonMesh
 66
     1
 10
0.0
 20
0.0
 30
0.0
 70
    16
 71
     6
 72
     3
  0
VERTEX
  5
473C2
330
473C1
100
AcDbEntity
  8
0
100
AcDbVertex
100
AcDbPolygonMeshVertex
 10
-95.73498731179368
 20
127.686350928837
 30
184.2384049058432
 70
    64
  0
VERTEX
  5
473C3
330
473C1
100
AcDbEntity
  8
0
100
AcDbVertex
100
AcDbPolygonMeshVertex
 10
-95.73498731179368
 20
127.686350928837
 30
48.98340490584314
 70
    64
  0
VERTEX
  5
473C4
330
473C1
100
AcDbEntity
  8
0
100
AcDbVertex
100
AcDbPolygonMeshVertex
 10
-95.73498731179368
 20
127.686350928837
 30
48.98340490584314
 70
    64
  0
VERTEX
  5
473C5
330
473C1
100
AcDbEntity
  8
0
100
AcDbVertex
100
AcDbPolygonMeshVertex
 10
-197.3349873117944
 20
127.686350928837
 30
184.2384049058432
 70
    64
  0
VERTEX
  5
473C6
330
473C1
100
AcDbEntity
  8
0
100
AcDbVertex
100
AcDbPolygonMeshVertex
 10
-197.3349873117944
 20
127.686350928837
 30
48.98340490584314
 70
    64
  0
VERTEX
  5
473C7
330
473C1
100
AcDbEntity
  8
0
100
AcDbVertex
100
AcDbPolygonMeshVertex
 10
-197.3349873117944
 20
127.686350928837
 30
48.98340490584314
 70
    64
  0
VERTEX
  5
473C8
330
473C1
100
AcDbEntity
  8
0
100
AcDbVertex
100
AcDbPolygonMeshVertex
 10
-197.3349873117944
 20
267.386350928837
 30
184.2384049058432
 70
    64
  0
VERTEX
  5
473C9
330
473C1
100
AcDbEntity
  8
0
100
AcDbVertex
100
AcDbPolygonMeshVertex
 10
-197.3349873117944
 20
267.386350928837
 30
48.98340490584314
 70
    64
  0
VERTEX
  5
473CA
330
473C1
100
AcDbEntity
  8
0
100
AcDbVertex
100
AcDbPolygonMeshVertex
 10
-197.3349873117944
 20
127.686350928837
 30
48.98340490584314
 70
    64
  0
VERTEX
  5
473CB
330
473C1
100
AcDbEntity
  8
0
100
AcDbVertex
100
AcDbPolygonMeshVertex
 10
-95.73498731179368
 20
267.386350928837
 30
184.2384049058432
 70
    64
  0
VERTEX
  5
473CC
330
473C1
100
AcDbEntity
  8
0
100
AcDbVertex
100
AcDbPolygonMeshVertex
 10
-95.73498731179368
 20
267.386350928837
 30
48.98340490584314
 70
    64
  0
VERTEX
  5
473CD
330
473C1
100
AcDbEntity
  8
0
100
AcDbVertex
100
AcDbPolygonMeshVertex
 10
-95.73498731179368
 20
127.686350928837
 30
48.98340490584314
 70
    64
  0
VERTEX
  5
473CE
330
473C1
100
AcDbEntity
  8
0
100
AcDbVertex
100
AcDbPolygonMeshVertex
 10
-95.73498731179368
 20
267.386350928837
 30
184.2384049058432
 70
    64
  0
VERTEX
  5
473CF
330
473C1
100
AcDbEntity
  8
0
100
AcDbVertex
100
AcDbPolygonMeshVertex
 10
-95.73498731179368
 20
267.386350928837
 30
184.2384049058432
 70
    64
  0
VERTEX
  5
473D0
330
473C1
100
AcDbEntity
  8
0
100
AcDbVertex
100
AcDbPolygonMeshVertex
 10
-95.73498731179368
 20
127.686350928837
 30
184.2384049058432
 70
    64
  0
VERTEX
  5
473D1
330
473C1
100
AcDbEntity
  8
0
100
AcDbVertex
100
AcDbPolygonMeshVertex
 10
-197.3349873117944
 20
267.386350928837
 30
184.2384049058432
 70
    64
  0
VERTEX
  5
473D2
330
473C1
100
AcDbEntity
  8
0
100
AcDbVertex
100
AcDbPolygonMeshVertex
 10
-197.3349873117944
 20
267.386350928837
 30
184.2384049058432
 70
    64
  0
VERTEX
  5
473D3
330
473C1
100
AcDbEntity
  8
0
100
AcDbVertex
100
AcDbPolygonMeshVertex
 10
-197.3349873117944
 20
127.686350928837
 30
184.2384049058432
 70
    64
  0
SEQEND
  5
473D4
330
473C1
100
AcDbEntity
  8
0
  0
POLYLINE
  5
473D5
330
458D6
100
AcDbEntity
  8
0
100
AcDbPolygonMesh
 66
     1
 10
0.0
 20
0.0
 30
0.0
 70
    16
 71
     6
 72
     3
  0
VERTEX
  5
473D6
330
473D5
100
AcDbEntity
  8
0
100
AcDbVertex
100
AcDbPolygonMeshVertex
 10
-197.3349873117944
 20
127.686350928837
 30
193.7634049058432
 70
    64
  0
VERTEX
  5
473D7
330
473D5
100
AcDbEntity
  8
0
100
AcDbVertex
100
AcDbPolygonMeshVertex
 10
-197.3349873117944
 20
127.686350928837
 30
48.98340490584314
 70
    64
  0
VERTEX
  5
473D8
330
473D5
100
AcDbEntity
  8
0
100
AcDbVertex
100
AcDbPolygonMeshVertex
 10
-197.3349873117944
 20
127.686350928837
 30
48.98340490584314
 70
    64
  0
VERTEX
  5
473D9
330
473D5
100
AcDbEntity
  8
0
100
AcDbVertex
100
AcDbPolygonMeshVertex
 10
-207.4949873117938
 20
137.8463509288368
 30
193.7634049058432
 70
    64
  0
VERTEX
  5
473DA
330
473D5
100
AcDbEntity
  8
0
100
AcDbVertex
100
AcDbPolygonMeshVertex
 10
-207.4949873117938
 20
137.8463509288368
 30
48.98340490584314
 70
    64
  0
VERTEX
  5
473DB
330
473D5
100
AcDbEntity
  8
0
100
AcDbVertex
100
AcDbPolygonMeshVertex
 10
-207.4949873117938
 20
137.8463509288368
 30
48.98340490584314
 70
    64
  0
VERTEX
  5
473DC
330
473D5
100
AcDbEntity
  8
0
100
AcDbVertex
100
AcDbPolygonMeshVertex
 10
-207.4949873117938
 20
137.8463509288368
 30
193.7634049058432
 70
    64
  0
VERTEX
  5
473DD
330
473D5
100
AcDbEntity
  8
0
100
AcDbVertex
100
AcDbPolygonMeshVertex
 10
-207.4949873117938
 20
137.8463509288368
 30
48.98340490584314
 70
    64
  0
VERTEX
  5
473DE
330
473D5
100
AcDbEntity
  8
0
100
AcDbVertex
100
AcDbPolygonMeshVertex
 10
-207.4949873117938
 20
137.8463509288368
 30
48.98340490584314
 70
    64
  0
VERTEX
  5
473DF
330
473D5
100
AcDbEntity
  8
0
100
AcDbVertex
100
AcDbPolygonMeshVertex
 10
-197.3349873117944
 20
137.8463509288368
 30
193.7634049058432
 70
    64
  0
VERTEX
  5
473E0
330
473D5
100
AcDbEntity
  8
0
100
AcDbVertex
100
AcDbPolygonMeshVertex
 10
-197.3349873117944
 20
137.8463509288368
 30
48.98340490584314
 70
    64
  0
VERTEX
  5
473E1
330
473D5
100
AcDbEntity
  8
0
100
AcDbVertex
100
AcDbPolygonMeshVertex
 10
-197.3349873117944
 20
127.686350928837
 30
48.98340490584314
 70
    64
  0
VERTEX
  5
473E2
330
473D5
100
AcDbEntity
  8
0
100
AcDbVertex
100
AcDbPolygonMeshVertex
 10
-197.3349873117944
 20
137.8463509288368
 30
193.7634049058432
 70
    64
  0
VERTEX
  5
473E3
330
473D5
100
AcDbEntity
  8
0
100
AcDbVertex
100
AcDbPolygonMeshVertex
 10
-197.3349873117944
 20
137.8463509288368
 30
193.7634049058432
 70
    64
  0
VERTEX
  5
473E4
330
473D5
100
AcDbEntity
  8
0
100
AcDbVertex
100
AcDbPolygonMeshVertex
 10
-197.3349873117944
 20
127.686350928837
 30
193.7634049058432
 70
    64
  0
VERTEX
  5
473E5
330
473D5
100
AcDbEntity
  8
0
100
AcDbVertex
100
AcDbPolygonMeshVertex
 10
-207.4949873117938
 20
137.8463509288368
 30
193.7634049058432
 70
    64
  0
VERTEX
  5
473E6
330
473D5
100
AcDbEntity
  8
0
100
AcDbVertex
100
AcDbPolygonMeshVertex
 10
-207.4949873117938
 20
137.8463509288368
 30
193.7634049058432
 70
    64
  0
VERTEX
  5
473E7
330
473D5
100
AcDbEntity
  8
0
100
AcDbVertex
100
AcDbPolygonMeshVertex
 10
-207.4949873117938
 20
137.8463509288368
 30
193.7634049058432
 70
    64
  0
SEQEND
  5
473E8
330
473D5
100
AcDbEntity
  8
0
  0
LINE
  5
473EA
330
458D6
100
AcDbEntity
  8
0
100
AcDbLine
 10
-95.73390960774814
 20
136.5247254362239
 30
193.7634049058432
 11
-181.1541096077481
 21
136.5247254362239
 31
193.7634049058432
  0
LINE
  5
473EB
330
458D6
100
AcDbEntity
  8
0
100
AcDbLine
 10
-95.73390960774814
 20
144.652725436224
 30
193.7634049058432
 11
-181.1541096077481
 21
144.652725436224
 31
193.7634049058432
  0
LINE
  5
473EC
330
458D6
100
AcDbEntity
  8
0
100
AcDbLine
 10
-95.73390960774814
 20
152.7807254362239
 30
193.7634049058432
 11
-181.1541096077481
 21
152.7807254362239
 31
193.7634049058432
  0
LINE
  5
473ED
330
458D6
100
AcDbEntity
  8
0
100
AcDbLine
 10
-95.73390960774814
 20
168.528725436224
 30
193.7634049058432
 11
-181.1541096077481
 21
168.528725436224
 31
193.7634049058432
  0
LINE
  5
473EE
330
458D6
100
AcDbEntity
  8
0
100
AcDbLine
 10
-95.73390960774814
 20
176.6567254362239
 30
193.7634049058432
 11
-181.1541096077481
 21
176.6567254362239
 31
193.7634049058432
  0
LINE
  5
473EF
330
458D6
100
AcDbEntity
  8
0
100
AcDbLine
 10
-95.73390960774814
 20
184.784725436224
 30
193.7634049058432
 11
-181.1541096077481
 21
184.784725436224
 31
193.7634049058432
  0
LINE
  5
473F0
330
458D6
100
AcDbEntity
  8
0
100
AcDbLine
 10
-95.73390960774814
 20
159.6387254362242
 30
193.7634049058432
 11
-181.1541096077481
 21
159.6387254362242
 31
193.7634049058432
  0
LINE
  5
473F1
330
458D6
100
AcDbEntity
  8
0
100
AcDbLine
 10
-95.73390960774814
 20
161.6707254362241
 30
193.7634049058432
 11
-181.1541096077481
 21
161.6707254362241
 31
193.7634049058432
  0
3DFACE
  5
473F2
330
458D6
100
AcDbEntity
  8
0
100
AcDbFace
 10
-95.73498731179368
 20
127.6868113966737
 30
184.2384049058432
 11
-95.73498731179368
 21
127.6868113966737
 31
184.2384049058432
 12
-197.3349873117944
 22
127.6868113966737
 32
184.2384049058432
 13
-197.3349873117944
 23
127.6868113966737
 33
184.2384049058432
  0
3DFACE
  5
473F3
330
458D6
100
AcDbEntity
  8
0
100
AcDbFace
 10
-95.73498731179368
 20
127.6868113966737
 30
193.7634049058432
 11
-95.73498731179368
 21
127.6868113966737
 31
184.2384049058432
 12
-197.3349873117944
 22
127.6868113966737
 32
184.2384049058432
 13
-197.3349873117944
 23
127.6868113966737
 33
193.7634049058432
  0
POLYLINE
  5
473F4
330
458D6
100
AcDbEntity
  8
0
100
AcDbPolygonMesh
 66
     1
 10
0.0
 20
0.0
 30
0.0
 70
    16
 71
     6
 72
     3
  0
VERTEX
  5
473F5
330
473F4
100
AcDbEntity
  8
0
100
AcDbVertex
100
AcDbPolygonMeshVertex
 10
-197.3349873117944
 20
257.2263509288369
 30
193.7634049058432
 70
    64
  0
VERTEX
  5
473F6
330
473F4
100
AcDbEntity
  8
0
100
AcDbVertex
100
AcDbPolygonMeshVertex
 10
-197.3349873117944
 20
257.2263509288369
 30
48.98340490584314
 70
    64
  0
VERTEX
  5
473F7
330
473F4
100
AcDbEntity
  8
0
100
AcDbVertex
100
AcDbPolygonMeshVertex
 10
-197.3349873117944
 20
257.2263509288369
 30
48.98340490584314
 70
    64
  0
VERTEX
  5
473F8
330
473F4
100
AcDbEntity
  8
0
100
AcDbVertex
100
AcDbPolygonMeshVertex
 10
-207.4949873117938
 20
257.2263509288369
 30
193.7634049058432
 70
    64
  0
VERTEX
  5
473F9
330
473F4
100
AcDbEntity
  8
0
100
AcDbVertex
100
AcDbPolygonMeshVertex
 10
-207.4949873117938
 20
257.2263509288369
 30
48.98340490584314
 70
    64
  0
VERTEX
  5
473FA
330
473F4
100
AcDbEntity
  8
0
100
AcDbVertex
100
AcDbPolygonMeshVertex
 10
-207.4949873117938
 20
257.2263509288369
 30
48.98340490584314
 70
    64
  0
VERTEX
  5
473FB
330
473F4
100
AcDbEntity
  8
0
100
AcDbVertex
100
AcDbPolygonMeshVertex
 10
-207.4949873117938
 20
257.2263509288369
 30
193.7634049058432
 70
    64
  0
VERTEX
  5
473FC
330
473F4
100
AcDbEntity
  8
0
100
AcDbVertex
100
AcDbPolygonMeshVertex
 10
-207.4949873117938
 20
257.2263509288369
 30
48.98340490584314
 70
    64
  0
VERTEX
  5
473FD
330
473F4
100
AcDbEntity
  8
0
100
AcDbVertex
100
AcDbPolygonMeshVertex
 10
-207.4949873117938
 20
257.2263509288369
 30
48.98340490584314
 70
    64
  0
VERTEX
  5
473FE
330
473F4
100
AcDbEntity
  8
0
100
AcDbVertex
100
AcDbPolygonMeshVertex
 10
-197.3349873117944
 20
267.386350928837
 30
193.7634049058432
 70
    64
  0
VERTEX
  5
473FF
330
473F4
100
AcDbEntity
  8
0
100
AcDbVertex
100
AcDbPolygonMeshVertex
 10
-197.3349873117944
 20
267.386350928837
 30
48.98340490584314
 70
    64
  0
VERTEX
  5
47400
330
473F4
100
AcDbEntity
  8
0
100
AcDbVertex
100
AcDbPolygonMeshVertex
 10
-197.3349873117944
 20
257.2263509288369
 30
48.98340490584314
 70
    64
  0
VERTEX
  5
47401
330
473F4
100
AcDbEntity
  8
0
100
AcDbVertex
100
AcDbPolygonMeshVertex
 10
-197.3349873117944
 20
267.386350928837
 30
193.7634049058432
 70
    64
  0
VERTEX
  5
47402
330
473F4
100
AcDbEntity
  8
0
100
AcDbVertex
100
AcDbPolygonMeshVertex
 10
-197.3349873117944
 20
267.386350928837
 30
193.7634049058432
 70
    64
  0
VERTEX
  5
47403
330
473F4
100
AcDbEntity
  8
0
100
AcDbVertex
100
AcDbPolygonMeshVertex
 10
-197.3349873117944
 20
257.2263509288369
 30
193.7634049058432
 70
    64
  0
VERTEX
  5
47404
330
473F4
100
AcDbEntity
  8
0
100
AcDbVertex
100
AcDbPolygonMeshVertex
 10
-207.4949873117938
 20
257.2263509288369
 30
193.7634049058432
 70
    64
  0
VERTEX
  5
47405
330
473F4
100
AcDbEntity
  8
0
100
AcDbVertex
100
AcDbPolygonMeshVertex
 10
-207.4949873117938
 20
257.2263509288369
 30
193.7634049058432
 70
    64
  0
VERTEX
  5
47406
330
473F4
100
AcDbEntity
  8
0
100
AcDbVertex
100
AcDbPolygonMeshVertex
 10
-207.4949873117938
 20
257.2263509288369
 30
193.7634049058432
 70
    64
  0
SEQEND
  5
47407
330
473F4
100
AcDbEntity
  8
0
  0
LINE
  5
4740A
330
458D6
100
AcDbEntity
  8
0
100
AcDbLine
 10
-95.73390960774814
 20
192.9127254362239
 30
193.7634049058432
 11
-181.1541096077481
 21
192.9127254362239
 31
193.7634049058432
  0
LINE
  5
4740B
330
458D6
100
AcDbEntity
  8
0
100
AcDbLine
 10
-95.73390960774814
 20
201.040725436224
 30
193.7634049058432
 11
-181.1541096077481
 21
201.040725436224
 31
193.7634049058432
  0
LINE
  5
4740C
330
458D6
100
AcDbEntity
  8
0
100
AcDbLine
 10
-95.73390960774814
 20
209.1687254362239
 30
193.7634049058432
 11
-181.1541096077481
 21
209.1687254362239
 31
193.7634049058432
  0
LINE
  5
4740D
330
458D6
100
AcDbEntity
  8
0
100
AcDbLine
 10
-95.73390960774814
 20
217.296725436224
 30
193.763404905843
 11
-181.1541096077481
 21
217.296725436224
 31
193.763404905843
  0
LINE
  5
4740E
330
458D6
100
AcDbEntity
  8
0
100
AcDbLine
 10
-95.73390960774814
 20
225.4247254362239
 30
193.763404905843
 11
-181.1541096077481
 21
225.4247254362239
 31
193.763404905843
  0
3DFACE
  5
4740F
330
458D6
100
AcDbEntity
  8
0
100
AcDbFace
 10
-95.73498731179368
 20
267.386350928837
 30
193.7634049058432
 11
-95.73498731179368
 21
267.386350928837
 31
193.7634049058432
 12
-197.3349873117944
 22
267.386350928837
 32
193.7634049058432
 13
-197.3349873117944
 23
267.386350928837
 33
193.7634049058432
  0
3DFACE
  5
47410
330
458D6
100
AcDbEntity
  8
0
100
AcDbFace
 10
-197.3349873117944
 20
267.386350928837
 30
193.7634049058432
 11
-197.3349873117944
 21
267.386350928837
 31
184.2384049058432
 12
-95.73498731179368
 22
267.386350928837
 32
184.2384049058432
 13
-95.73498731179368
 23
267.386350928837
 33
193.7634049058432
  0
POLYLINE
  5
47411
330
458D6
100
AcDbEntity
  8
0
100
AcDbPolygonMesh
 66
     1
 10
0.0
 20
0.0
 30
0.0
 70
    16
 71
     6
 72
     3
  0
VERTEX
  5
47412
330
47411
100
AcDbEntity
  8
0
100
AcDbVertex
100
AcDbPolygonMeshVertex
 10
-116.4234936493489
 20
258.6930951223989
 30
194.0174049058431
 70
    64
  0
VERTEX
  5
47413
330
47411
100
AcDbEntity
  8
0
100
AcDbVertex
100
AcDbPolygonMeshVertex
 10
-116.4234936493489
 20
258.6930951223989
 30
193.7634049058432
 70
    64
  0
VERTEX
  5
47414
330
47411
100
AcDbEntity
  8
0
100
AcDbVertex
100
AcDbPolygonMeshVertex
 10
-116.4234936493489
 20
258.6930951223989
 30
193.7634049058432
 70
    64
  0
VERTEX
  5
47415
330
47411
100
AcDbEntity
  8
0
100
AcDbVertex
100
AcDbPolygonMeshVertex
 10
-120.8684936493485
 20
258.6930951223989
 30
194.0174049058431
 70
    64
  0
VERTEX
  5
47416
330
47411
100
AcDbEntity
  8
0
100
AcDbVertex
100
AcDbPolygonMeshVertex
 10
-120.8684936493485
 20
258.6930951223989
 30
193.7634049058432
 70
    64
  0
VERTEX
  5
47417
330
47411
100
AcDbEntity
  8
0
100
AcDbVertex
100
AcDbPolygonMeshVertex
 10
-120.8684936493485
 20
258.6930951223989
 30
193.7634049058432
 70
    64
  0
VERTEX
  5
47418
330
47411
100
AcDbEntity
  8
0
100
AcDbVertex
100
AcDbPolygonMeshVertex
 10
-120.8684936493485
 20
261.2330951223988
 30
194.0174049058431
 70
    64
  0
VERTEX
  5
47419
330
47411
100
AcDbEntity
  8
0
100
AcDbVertex
100
AcDbPolygonMeshVertex
 10
-120.8684936493485
 20
261.2330951223988
 30
193.7634049058432
 70
    64
  0
VERTEX
  5
4741A
330
47411
100
AcDbEntity
  8
0
100
AcDbVertex
100
AcDbPolygonMeshVertex
 10
-120.8684936493485
 20
258.6930951223989
 30
193.7634049058432
 70
    64
  0
VERTEX
  5
4741B
330
47411
100
AcDbEntity
  8
0
100
AcDbVertex
100
AcDbPolygonMeshVertex
 10
-116.4234936493489
 20
261.2330951223988
 30
194.0174049058431
 70
    64
  0
VERTEX
  5
4741C
330
47411
100
AcDbEntity
  8
0
100
AcDbVertex
100
AcDbPolygonMeshVertex
 10
-116.4234936493489
 20
261.2330951223988
 30
193.7634049058432
 70
    64
  0
VERTEX
  5
4741D
330
47411
100
AcDbEntity
  8
0
100
AcDbVertex
100
AcDbPolygonMeshVertex
 10
-116.4234936493489
 20
258.6930951223989
 30
193.7634049058432
 70
    64
  0
VERTEX
  5
4741E
330
47411
100
AcDbEntity
  8
0
100
AcDbVertex
100
AcDbPolygonMeshVertex
 10
-116.4234936493489
 20
261.2330951223988
 30
194.0174049058431
 70
    64
  0
VERTEX
  5
4741F
330
47411
100
AcDbEntity
  8
0
100
AcDbVertex
100
AcDbPolygonMeshVertex
 10
-116.4234936493489
 20
261.2330951223988
 30
194.0174049058431
 70
    64
  0
VERTEX
  5
47420
330
47411
100
AcDbEntity
  8
0
100
AcDbVertex
100
AcDbPolygonMeshVertex
 10
-116.4234936493489
 20
258.6930951223989
 30
194.0174049058431
 70
    64
  0
VERTEX
  5
47421
330
47411
100
AcDbEntity
  8
0
100
AcDbVertex
100
AcDbPolygonMeshVertex
 10
-120.8684936493485
 20
261.2330951223988
 30
194.0174049058431
 70
    64
  0
VERTEX
  5
47422
330
47411
100
AcDbEntity
  8
0
100
AcDbVertex
100
AcDbPolygonMeshVertex
 10
-120.8684936493485
 20
261.2330951223988
 30
194.0174049058431
 70
    64
  0
VERTEX
  5
47423
330
47411
100
AcDbEntity
  8
0
100
AcDbVertex
100
AcDbPolygonMeshVertex
 10
-120.8684936493485
 20
258.6930951223989
 30
194.0174049058431
 70
    64
  0
SEQEND
  5
47424
330
47411
100
AcDbEntity
  8
0
  0
TEXT
  5
47425
330
458D6
100
AcDbEntity
  8
0
100
AcDbText
 10
-113.704042399763
 20
258.3353319030214
 30
194.1360699869238
 40
3.174999999999999
  1
POWER
100
AcDbText
  0
3DFACE
  5
47426
330
458D6
100
AcDbEntity
  8
0
100
AcDbFace
 10
-95.73498731179368
 20
267.386350928837
 30
193.7634049058432
 11
-95.73498731179368
 21
267.386350928837
 31
184.2384049058432
 12
-95.73498731179368
 22
267.386350928837
 32
193.7634049058432
 13
-95.73498731179368
 23
267.386350928837
 33
193.7634049058432
  0
DIMENSION
  5
47427
330
458D6
100
AcDbEntity
  8
AREA1
100
AcDbDimension
  2
*D0
 10
-84.66566321750793
 20
267.3863509288371
 30
48.98340490584314
 11
-84.66566321750796
 21
197.5363509288372
 31
48.98340490584314
 70
    32
  3
ABECAD_3D
100
AcDbAlignedDimension
 13
-95.73498731179325
 23
127.6863509288373
 33
48.98340490584314
 14
-95.73498731179325
 24
267.3863509288371
 34
48.98340490584314
 50
90.0
100
AcDbRotatedDimension
  0
DIMENSION
  5
47428
330
458D6
100
AcDbEntity
  8
AREA1
100
AcDbDimension
  2
*D1
 10
-95.73498731179325
 20
276.932747358044
 30
48.98340490584314
 11
-151.6149873117933
 21
276.932747358044
 31
48.98340490584314
 70
    32
  3
ABECAD_3D
100
AcDbAlignedDimension
 13
-207.4949873117934
 23
257.2263509288372
 33
48.98340490584314
 14
-95.73498731179325
 24
267.3863509288371
 34
48.98340490584314
100
AcDbRotatedDimension
  0
POINT
  5
4747F
330
458D6
100
AcDbEntity
  8
SNAP_POINTS
100
AcDbPoint
 10
-197.3349873117944
 20
267.386350928837
 30
48.98340490584314
  0
DIMENSION
  5
47491
330
458D6
100
AcDbEntity
  8
AREA2
100
AcDbDimension
  2
*D2
 10
-84.85358029512566
 20
267.3863509288371
 30
48.98340490584314
 11
-84.85358029512566
 21
121.8730539410181
 31
-267.3863509288371
 70
   160
210
0.0
220
-1.0
230
0.0
  3
ABECAD_3D
100
AcDbAlignedDimension
 13
-97.9562801976283
 23
267.3863509288371
 33
194.1366040394529
 14
-95.73498731179368
 24
267.386350928837
 34
48.98340490584314
 50
90.0
100
AcDbRotatedDimension
  0
LWPOLYLINE
  5
474C2
330
458D6
100
AcDbEntity
  8
SCALE
100
AcDbPolyline
 90
        4
 70
     1
 43
0.0
 38
48.98340490584314
 10
-254.2286108888885
 20
256.2396322995565
 10
-225.3836388725224
 20
256.2396322995565
 10
-225.3836388725224
 20
234.862749303395
 10
-254.2286108888885
 20
234.862749303395
  0
LWPOLYLINE
  5
474C3
330
458D6
100
AcDbEntity
  8
0
100
AcDbPolyline
 90
        3
 70
     0
 43
0.0
 38
193.7634049058431
 10
-197.3349873117945
 20
247.2982912334978
 42
-0.0620152200008424
 10
-140.9161452235943
 20
240.2701520144978
 42
0.0641880030417005
 10
-95.73390960774805
 20
235.5847254362243
  0
LWPOLYLINE
  5
474C4
330
458D6
100
AcDbEntity
  8
0
100
AcDbPolyline
 90
        3
 70
     0
 43
0.0
 38
193.7634049058431
 10
-197.3349873117945
 20
245.2662912334976
 42
-0.0620152200008424
 10
-140.9161452235943
 20
238.2381520144976
 42
0.0641880030417005
 10
-95.73390960774805
 20
233.5527254362241
  0
ENDSEC
  0
SECTION
  2
OBJECTS
  0
DICTIONARY
  5
458CB
330
0
100
AcDbDictionary
  3
ACAD_COLOR
350
459D8
  3
ACAD_GROUP
350
458CC
  3
ACAD_LAYOUT
350
458FB
  3
ACAD_MATERIAL
350
459D7
  3
ACAD_MLINESTYLE
350
458D9
  3
ACAD_PLOTSETTINGS
350
458FC
  3
ACAD_PLOTSTYLENAME
350
458F9
  3
ACAD_TABLESTYLE
350
46C32
  3
ACDBHEADERROUNDTRIPXREC
350
474D3
  3
ACDBVARIABLEDICTIONARY
350
458E1
  3
BNS_VARIABLES
350
46D80
  3
DWGPROPS
350
474C8
  0
DICTIONARY
  5
45930
330
458D6
100
AcDbDictionary
280
     1
  3
ACAD_LAYOUTSELFREF
360
474F5
  3
ACAD_SORTENTS
360
46D8B
  0
DICTIONARY
  5
4592E
330
458D3
100
AcDbDictionary
280
     1
  3
ACAD_LAYOUTSELFREF
360
474F4
  0
DICTIONARY
  5
459D8
102
{ACAD_REACTORS
330
458CB
102
}
330
458CB
100
AcDbDictionary
  0
DICTIONARY
  5
458CC
102
{ACAD_REACTORS
330
458CB
102
}
330
458CB
100
AcDbDictionary
  0
DICTIONARY
  5
458FB
102
{ACAD_REACTORS
330
458CB
102
}
330
458CB
100
AcDbDictionary
  0
DICTIONARY
  5
459D7
102
{ACAD_REACTORS
330
458CB
102
}
330
458CB
100
AcDbDictionary
  0
DICTIONARY
  5
458D9
102
{ACAD_REACTORS
330
458CB
102
}
330
458CB
100
AcDbDictionary
  3
STANDARD
350
458DA
  0
DICTIONARY
  5
458FC
102
{ACAD_REACTORS
330
458CB
102
}
330
458CB
100
AcDbDictionary
  0
ACDBDICTIONARYWDFLT
  5
458F9
102
{ACAD_REACTORS
330
458CB
102
}
330
458CB
100
AcDbDictionary
281
     1
  3
Normal
350
458FA
100
AcDbDictionaryWithDefault
340
458FA
  0
DICTIONARY
  5
46C32
102
{ACAD_REACTORS
330
458CB
102
}
330
458CB
100
AcDbDictionary
  3
STANDARD
350
46C33
  0
DICTIONARY
  5
474D3
102
{ACAD_REACTORS
330
458CB
102
}
330
458CB
100
AcDbDictionary
  3
CEPSNTYPE
350
474DD
  3
DIMSTYLEDATA
350
474E1
  3
FINGERPRINTGUID
350
474DE
  3
HYPERLINKBASE
350
474D6
  3
INSUNITS
350
474DC
  3
LAYOUTDICT
350
474D8
  3
LWETCUNION
350
474DB
  3
PLOTSETDICT
350
474D9
  3
PLOTSTYLNAMDICT
350
474DA
  3
PSVPSCALE
350
474E0
  3
PUCSBASE
350
474E4
  3
PUCSORGBACK
350
474EA
  3
PUCSORGBOTTOM
350
474E6
  3
PUCSORGFRONT
350
474E9
  3
PUCSORGLEFT
350
474E7
  3
PUCSORGRIGHT
350
474E8
  3
PUCSORGTOP
350
474E5
  3
PUCSORTHOREF
350
474E2
  3
PUCSORTHOVIEW
350
474E3
  3
STYLESHEET
350
474D7
  3
TSTACKALIGN
350
474D4
  3
TSTACKSIZE
350
474D5
  3
UCSBASE
350
474ED
  3
UCSORGBACK
350
474F3
  3
UCSORGBOTTOM
350
474EF
  3
UCSORGFRONT
350
474F2
  3
UCSORGLEFT
350
474F0
  3
UCSORGRIGHT
350
474F1
  3
UCSORGTOP
350
474EE
  3
UCSORTHOREF
350
474EB
  3
UCSORTHOVIEW
350
474EC
  3
VERSIONGUID
350
474DF
  0
DICTIONARY
  5
458E1
102
{ACAD_REACTORS
330
458CB
102
}
330
458CB
100
AcDbDictionary
  3
CTABLESTYLE
350
46D8E
  3
DIMADEC
350
458E2
  3
DIMASSOC
350
472D7
  3
PROJECTNAME
350
472D8
  0
DICTIONARY
  5
46D80
102
{ACAD_REACTORS
330
458CB
102
}
330
458CB
100
AcDbDictionary
  3
ACET-OVERKILL-FUZZ
350
474B4
  3
ACET-OVERKILL-NO-ENDTOEND
350
474B7
  3
ACET-OVERKILL-NO-PARTIAL
350
474B6
  3
ACET-OVERKILL-NO-PLINES
350
474B5
  0
XRECORD
  5
474C8
102
{ACAD_REACTORS
330
458CB
102
}
330
458CB
100
AcDbXrecord
  1
DWGPROPS COOKIE
  2

  3

  4

  6

  7

  8
colin
  9

300
=
301
=
302
=
303
=
304
=
305
=
306
=
307
=
308
=
309
=
 40
0.4486602083333333
 41
2453042.595653843
 42
2453194.657530127
  1

 90
        0
  0
XRECORD
  5
474F5
102
{ACAD_REACTORS
330
45930
102
}
330
45930
100
AcDbXrecord
340
458D6
  0
SORTENTSTABLE
  5
46D8B
102
{ACAD_REACTORS
330
45930
102
}
330
45930
100
AcDbSortentsTable
330
458D6
331
473BF
  5
473F0
331
4740D
  5
474BA
331
4740B
  5
47490
331
46C23
  5
47111
331
473BD
  5
473EE
331
46C21
  5
4710F
331
46C1F
  5
4710D
331
47491
  5
474C4
331
46C1D
  5
4710B
331
4747F
  5
474C3
331
46C1B
  5
46C1B
331
46CE6
  5
473BD
331
474C4
  5
4748D
331
47428
  5
474C2
331
474C2
  5
47107
331
473F3
  5
47487
331
47426
  5
474C0
331
46CEC
  5
473EA
331
473F1
  5
4747F
331
46CEA
  5
473C1
331
473EF
  5
4740E
331
473ED
  5
4740C
331
46CE8
  5
473BF
331
473EB
  5
4740A
331
47410
  5
474BD
331
473C0
  5
473F1
331
4740E
  5
474BB
331
46C24
  5
473A8
331
473BE
  5
473EF
331
4740C
  5
47491
331
473BC
  5
473ED
331
4740A
  5
4748F
331
46C22
  5
47110
331
46C20
  5
4710E
331
473D5
  5
473F3
331
46C1E
  5
4710C
331
46CE7
  5
473BE
331
474C3
  5
4748A
331
46CE5
  5
473BC
331
473F4
  5
47488
331
47427
  5
474C1
331
46CED
  5
473EB
331
473F2
  5
47486
331
47425
  5
474BF
331
46CEB
  5
473D5
331
473F0
  5
47428
331
473A8
  5
473EC
331
46CE9
  5
473C0
331
473EE
  5
4740D
331
473EC
  5
4740B
331
47411
  5
474BE
331
473EA
  5
473F4
331
473C1
  5
473F2
331
4740F
  5
474BC
  0
XRECORD
  5
474F4
102
{ACAD_REACTORS
330
4592E
102
}
330
4592E
100
AcDbXrecord
340
458D3
  0
MLINESTYLE
  5
458DA
102
{ACAD_REACTORS
330
458D9
102
}
330
458D9
100
AcDbMlineStyle
  2
STANDARD
 70
     0
  3

 62
   256
 51
90.0
 52
90.0
 71
     2
 49
0.5
 62
   256
  6
BYLAYER
 49
-0.5
 62
   256
  6
BYLAYER
  0
ACDBPLACEHOLDER
  5
458FA
102
{ACAD_REACTORS
330
458F9
102
}
330
458F9
100
AcDbPlaceHolder
280
     0
  0
ACAD_PROXY_OBJECT
  5
46C33
102
{ACAD_REACTORS
330
46C32
102
}
330
46C32
100
AcDbProxyObject
 90
      499
 91
      514
 93
     1849
310
4214DD185B99185C992420000000000000F83F0000000000003E0FC00000000000004901028000000C1008070000C3001FDFF8000000C1003FBFF000000182007F7FE00000030400FEFFC00000060801FDFF8000000C1003FBFF000000182000000000000000C2020B0000001820100E000186003FBFF000000182007F7FE0
310
0000030400FEFFC00000060801FDFF8000000C1003FBFF000000182007F7FE0000003040000000000000012404160000003040201C00030C007F7FE00000030400FEFFC00000060801FDFF8000000C1003FBFF000000182007F7FE00000030400FEFFC00000060804D
340
458CE
340
458CE
340
458CE
 94
        0
1001
ACAD
1000
AcRTDxfName
1000
TABLESTYLE
1000
AcRTDxfName
1000
TABLESTYLE
1000
AcadProxyRoundTripData
1071
      512
1071
  2555929
1070
     0
  0
XRECORD
  5
474DD
102
{ACAD_REACTORS
330
474D3
102
}
330
474D3
100
AcDbXrecord
 90
        0
  0
XRECORD
  5
474E1
102
{ACAD_REACTORS
330
474D3
102
}
330
474D3
100
AcDbXrecord
1000
DSTYLE
1002
{
1070
   276
 70
     2
1070
   279
 70
     2
1070
   289
 70
     2
1002
}
  0
XRECORD
  5
474DE
102
{ACAD_REACTORS
330
474D3
102
}
330
474D3
100
AcDbXrecord
  1
{6E0CF4B8-225E-11D4-A150-00A0CC3303EC}
  0
XRECORD
  5
474D6
102
{ACAD_REACTORS
330
474D3
102
}
330
474D3
100
AcDbXrecord
  1

  0
XRECORD
  5
474DC
102
{ACAD_REACTORS
330
474D3
102
}
330
474D3
100
AcDbXrecord
 90
        0
  0
XRECORD
  5
474D8
102
{ACAD_REACTORS
330
474D3
102
}
330
474D3
100
AcDbXrecord
340
458FB
  0
XRECORD
  5
474DB
102
{ACAD_REACTORS
330
474D3
102
}
330
474D3
100
AcDbXrecord
 90
    14877
  0
XRECORD
  5
474D9
102
{ACAD_REACTORS
330
474D3
102
}
330
474D3
100
AcDbXrecord
340
458FC
  0
XRECORD
  5
474DA
102
{ACAD_REACTORS
330
474D3
102
}
330
474D3
100
AcDbXrecord
340
458F9
  0
XRECORD
  5
474E0
102
{ACAD_REACTORS
330
474D3
102
}
330
474D3
100
AcDbXrecord
 40
0.0
  0
XRECORD
  5
474E4
102
{ACAD_REACTORS
330
474D3
102
}
330
474D3
100
AcDbXrecord
340
0
  0
XRECORD
  5
474EA
102
{ACAD_REACTORS
330
474D3
102
}
330
474D3
100
AcDbXrecord
 10
0.0
 20
0.0
 30
0.0
  0
XRECORD
  5
474E6
102
{ACAD_REACTORS
330
474D3
102
}
330
474D3
100
AcDbXrecord
 10
0.0
 20
0.0
 30
0.0
  0
XRECORD
  5
474E9
102
{ACAD_REACTORS
330
474D3
102
}
330
474D3
100
AcDbXrecord
 10
0.0
 20
0.0
 30
0.0
  0
XRECORD
  5
474E7
102
{ACAD_REACTORS
330
474D3
102
}
330
474D3
100
AcDbXrecord
 10
0.0
 20
0.0
 30
0.0
  0
XRECORD
  5
474E8
102
{ACAD_REACTORS
330
474D3
102
}
330
474D3
100
AcDbXrecord
 10
0.0
 20
0.0
 30
0.0
  0
XRECORD
  5
474E5
102
{ACAD_REACTORS
330
474D3
102
}
330
474D3
100
AcDbXrecord
 10
0.0
 20
0.0
 30
0.0
  0
XRECORD
  5
474E2
102
{ACAD_REACTORS
330
474D3
102
}
330
474D3
100
AcDbXrecord
340
0
  0
XRECORD
  5
474E3
102
{ACAD_REACTORS
330
474D3
102
}
330
474D3
100
AcDbXrecord
 70
     0
  0
XRECORD
  5
474D7
102
{ACAD_REACTORS
330
474D3
102
}
330
474D3
100
AcDbXrecord
  1

  0
XRECORD
  5
474D4
102
{ACAD_REACTORS
330
474D3
102
}
330
474D3
100
AcDbXrecord
 90
        1
  0
XRECORD
  5
474D5
102
{ACAD_REACTORS
330
474D3
102
}
330
474D3
100
AcDbXrecord
 90
       70
  0
XRECORD
  5
474ED
102
{ACAD_REACTORS
330
474D3
102
}
330
474D3
100
AcDbXrecord
340
0
  0
XRECORD
  5
474F3
102
{ACAD_REACTORS
330
474D3
102
}
330
474D3
100
AcDbXrecord
 10
0.0
 20
0.0
 30
0.0
  0
XRECORD
  5
474EF
102
{ACAD_REACTORS
330
474D3
102
}
330
474D3
100
AcDbXrecord
 10
0.0
 20
0.0
 30
0.0
  0
XRECORD
  5
474F2
102
{ACAD_REACTORS
330
474D3
102
}
330
474D3
100
AcDbXrecord
 10
0.0
 20
0.0
 30
0.0
  0
XRECORD
  5
474F0
102
{ACAD_REACTORS
330
474D3
102
}
330
474D3
100
AcDbXrecord
 10
0.0
 20
0.0
 30
0.0
  0
XRECORD
  5
474F1
102
{ACAD_REACTORS
330
474D3
102
}
330
474D3
100
AcDbXrecord
 10
44.57293710473379
 20
-10.57239502465733
 30
3.810000000000003
  0
XRECORD
  5
474EE
102
{ACAD_REACTORS
330
474D3
102
}
330
474D3
100
AcDbXrecord
 10
-197.3349873117944
 20
267.386350928837
 30
48.98340490584314
  0
XRECORD
  5
474EB
102
{ACAD_REACTORS
330
474D3
102
}
330
474D3
100
AcDbXrecord
340
0
  0
XRECORD
  5
474EC
102
{ACAD_REACTORS
330
474D3
102
}
330
474D3
100
AcDbXrecord
 70
     1
  0
XRECORD
  5
474DF
102
{ACAD_REACTORS
330
474D3
102
}
330
474D3
100
AcDbXrecord
  1
{2A55B23D-DBFD-4ED1-819A-61B048F43197}
  0
DICTIONARYVAR
  5
46D8E
102
{ACAD_REACTORS
330
458E1
102
}
330
458E1
100
DictionaryVariables
280
     0
  1
STANDARD
  0
DICTIONARYVAR
  5
458E2
102
{ACAD_REACTORS
330
458E1
102
}
330
458E1
100
DictionaryVariables
280
     0
  1
0
  0
DICTIONARYVAR
  5
472D7
102
{ACAD_REACTORS
330
458E1
102
}
330
458E1
100
DictionaryVariables
280
     0
  1
1
  0
DICTIONARYVAR
  5
472D8
102
{ACAD_REACTORS
330
458E1
102
}
330
458E1
100
DictionaryVariables
280
     0
  1

  0
XRECORD
  5
474B4
102
{ACAD_REACTORS
330
46D80
102
}
330
46D80
100
AcDbXrecord
 40
0.000001
  0
XRECORD
  5
474B7
102
{ACAD_REACTORS
330
46D80
102
}
330
46D80
100
AcDbXrecord
 70
     0
  0
XRECORD
  5
474B6
102
{ACAD_REACTORS
330
46D80
102
}
330
46D80
100
AcDbXrecord
 70
     0
  0
XRECORD
  5
474B5
102
{ACAD_REACTORS
330
46D80
102
}
330
46D80
100
AcDbXrecord
 70
     0
  0
ENDSEC
  0
EOF
