  0
SECTION
  2
HEADER
  9
$ACADVER
  1
AC1014
  9
$ACADMAINTVER
 70
     9
  9
$DWGCODEPAGE
  3
ANSI_1252
  9
$INSBASE
 10
1354.597869433535
 20
-170.0101226137964
 30
-410.2597379663721
  9
$EXTMIN
 10
1297.704245856441
 20
-309.7101226137964
 30
-410.2597379663721
  9
$EXTMAX
 10
1469.553193527821
 20
-158.1777261845894
 30
-265.1065388327622
  9
$LIMMIN
 10
0.0
 20
0.0
  9
$LIMMAX
 10
12.0
 20
9.0
  9
$ORTHOMODE
 70
     1
  9
$REGENMODE
 70
     1
  9
$FILLMODE
 70
     1
  9
$QTEXTMODE
 70
     0
  9
$MIRRTEXT
 70
     0
  9
$DRAGMODE
 70
     2
  9
$LTSCALE
 40
1.0
  9
$OSMODE
 70
    37
  9
$ATTMODE
 70
     1
  9
$TEXTSIZE
 40
0.2
  9
$TRACEWID
 40
0.05
  9
$TEXTSTYLE
  7
STANDARD
  9
$CLAYER
  8
0
  9
$CELTYPE
  6
BYLAYER
  9
$CECOLOR
 62
   256
  9
$CELTSCALE
 40
1.0
  9
$DELOBJ
 70
     1
  9
$DISPSILH
 70
     0
  9
$DIMSCALE
 40
1.0
  9
$DIMASZ
 40
0.18
  9
$DIMEXO
 40
0.0625
  9
$DIMDLI
 40
0.38
  9
$DIMRND
 40
0.0
  9
$DIMDLE
 40
0.0
  9
$DIMEXE
 40
0.18
  9
$DIMTP
 40
0.0
  9
$DIMTM
 40
0.0
  9
$DIMTXT
 40
0.18
  9
$DIMCEN
 40
0.09
  9
$DIMTSZ
 40
0.0
  9
$DIMTOL
 70
     0
  9
$DIMLIM
 70
     0
  9
$DIMTIH
 70
     1
  9
$DIMTOH
 70
     1
  9
$DIMSE1
 70
     0
  9
$DIMSE2
 70
     0
  9
$DIMTAD
 70
     0
  9
$DIMZIN
 70
     0
  9
$DIMBLK
  1

  9
$DIMASO
 70
     1
  9
$DIMSHO
 70
     1
  9
$DIMPOST
  1

  9
$DIMAPOST
  1

  9
$DIMALT
 70
     0
  9
$DIMALTD
 70
     2
  9
$DIMALTF
 40
25.4
  9
$DIMLFAC
 40
1.0
  9
$DIMTOFL
 70
     0
  9
$DIMTVP
 40
0.0
  9
$DIMTIX
 70
     0
  9
$DIMSOXD
 70
     0
  9
$DIMSAH
 70
     0
  9
$DIMBLK1
  1

  9
$DIMBLK2
  1

  9
$DIMSTYLE
  2
STANDARD
  9
$DIMCLRD
 70
     0
  9
$DIMCLRE
 70
     0
  9
$DIMCLRT
 70
     0
  9
$DIMTFAC
 40
1.0
  9
$DIMGAP
 40
0.09
  9
$DIMJUST
 70
     0
  9
$DIMSD1
 70
     0
  9
$DIMSD2
 70
     0
  9
$DIMTOLJ
 70
     1
  9
$DIMTZIN
 70
     0
  9
$DIMALTZ
 70
     0
  9
$DIMALTTZ
 70
     0
  9
$DIMFIT
 70
     3
  9
$DIMUPT
 70
     0
  9
$DIMUNIT
 70
     2
  9
$DIMDEC
 70
     4
  9
$DIMTDEC
 70
     4
  9
$DIMALTU
 70
     2
  9
$DIMALTTD
 70
     2
  9
$DIMTXSTY
  7
STANDARD
  9
$DIMAUNIT
 70
     0
  9
$LUNITS
 70
     2
  9
$LUPREC
 70
     4
  9
$SKETCHINC
 40
0.1
  9
$FILLETRAD
 40
0.0
  9
$AUNITS
 70
     0
  9
$AUPREC
 70
     0
  9
$MENU
  1
.
  9
$ELEVATION
 40
0.0
  9
$PELEVATION
 40
0.0
  9
$THICKNESS
 40
0.0
  9
$LIMCHECK
 70
     0
  9
$BLIPMODE
 70
     0
  9
$CHAMFERA
 40
0.0
  9
$CHAMFERB
 40
0.0
  9
$CHAMFERC
 40
0.0
  9
$CHAMFERD
 40
0.0
  9
$SKPOLY
 70
     0
  9
$TDCREATE
 40
2452863.594993102
  9
$TDUPDATE
 40
2453208.670354352
  9
$TDINDWG
 40
0.5812460648
  9
$TDUSRTIMER
 40
0.5812460648
  9
$USRTIMER
 70
     1
  9
$ANGBASE
 50
0.0
  9
$ANGDIR
 70
     0
  9
$PDMODE
 70
     3
  9
$PDSIZE
 40
2.5
  9
$PLINEWID
 40
0.0
  9
$COORDS
 70
     1
  9
$SPLFRAME
 70
     0
  9
$SPLINETYPE
 70
     6
  9
$SPLINESEGS
 70
     8
  9
$ATTDIA
 70
     0
  9
$ATTREQ
 70
     1
  9
$HANDLING
 70
 22529
  9
$HANDSEED
  5
97B4
  9
$SURFTAB1
 70
     6
  9
$SURFTAB2
 70
     6
  9
$SURFTYPE
 70
     6
  9
$SURFU
 70
     6
  9
$SURFV
 70
     6
  9
$UCSNAME
  2

  9
$UCSORG
 10
0.0
 20
0.0
 30
0.0
  9
$UCSXDIR
 10
1.0
 20
0.0
 30
0.0
  9
$UCSYDIR
 10
0.0
 20
0.0
 30
1.0
  9
$PUCSNAME
  2

  9
$PUCSORG
 10
0.0
 20
0.0
 30
0.0
  9
$PUCSXDIR
 10
1.0
 20
0.0
 30
0.0
  9
$PUCSYDIR
 10
0.0
 20
1.0
 30
0.0
  9
$USERI1
 70
     0
  9
$USERI2
 70
     0
  9
$USERI3
 70
     0
  9
$USERI4
 70
     0
  9
$USERI5
 70
     0
  9
$USERR1
 40
0.0
  9
$USERR2
 40
0.0
  9
$USERR3
 40
0.0
  9
$USERR4
 40
0.0
  9
$USERR5
 40
0.0
  9
$WORLDVIEW
 70
     1
  9
$SHADEDGE
 70
     3
  9
$SHADEDIF
 70
    70
  9
$TILEMODE
 70
     0
  9
$MAXACTVP
 70
    48
  9
$PINSBASE
 10
0.0
 20
0.0
 30
0.0
  9
$PLIMCHECK
 70
     0
  9
$PEXTMIN
 10
0.0226429257092988
 20
0.0040681204654334
 30
0.0
  9
$PEXTMAX
 10
10.55573210096327
 20
8.074637622092751
 30
0.0
  9
$PLIMMIN
 10
-0.2112501249538632
 20
-0.2112499935420479
  9
$PLIMMAX
 10
10.78874963475024
 20
8.288749766162061
  9
$UNITMODE
 70
     0
  9
$VISRETAIN
 70
     1
  9
$PLINEGEN
 70
     0
  9
$PSLTSCALE
 70
     1
  9
$TREEDEPTH
 70
  3020
  9
$PICKSTYLE
 70
     1
  9
$CMLSTYLE
  2
STANDARD
  9
$CMLJUST
 70
     0
  9
$CMLSCALE
 40
1.0
  9
$PROXYGRAPHICS
 70
     1
  9
$MEASUREMENT
 70
     0
  0
ENDSEC
  0
SECTION
  2
CLASSES
  0
CLASS
  1
ACDBDICTIONARYWDFLT
  2
AcDbDictionaryWithDefault
  3
AutoCAD 2000
 90
        0
280
     0
281
     0
  0
CLASS
  1
ACDBPLACEHOLDER
  2
AcDbPlaceHolder
  3
AutoCAD 2000
 90
        0
280
     0
281
     0
  0
CLASS
  1
LAYOUT
  2
AcDbLayout
  3
AutoCAD 2000
 90
        0
280
     0
281
     0
  0
CLASS
  1
DICTIONARYVAR
  2
AcDbDictionaryVar
  3
AutoCAD 2000
 90
        0
280
     0
281
     0
  0
CLASS
  1
LWPOLYLINE
  2
AcDbPolyline
  3
AutoCAD 2000
 90
        0
280
     0
281
     1
  0
CLASS
  1
XRECORD
  2
AcDbXrecord
  3
AutoCAD 2000
 90
        0
280
     0
281
     0
  0
CLASS
  1
TABLESTYLE
  2
AcDbTableStyle
  3
ObjectDBX Classes
 90
     2047
280
     0
281
     0
  0
CLASS
  1
SORTENTSTABLE
  2
AcDbSortentsTable
  3
AutoCAD 2000
 90
        0
280
     0
281
     0
  0
CLASS
  1
ACAD_PROXY_OBJECT_WRAPPER
  2
AcDbProxyObjectWrapper
  3
AutoCAD 2000
 90
        0
280
     0
281
     0
  0
CLASS
  1
LONG_TRANSACTION
  2
AcDbLongTransaction
  3
AutoCAD 2000
 90
        0
280
     0
281
     0
  0
CLASS
  1
LWPOLYLINE
  2
AcDbPolyline
  3
AutoCAD 2000
 90
        0
280
     0
281
     1
  0
CLASS
  1
HATCH
  2
AcDbHatch
  3
AutoCAD 2000
 90
        0
280
     0
281
     1
  0
CLASS
  1
XRECORD
  2
AcDbXrecord
  3
AutoCAD 2000
 90
        0
280
     0
281
     0
  0
ENDSEC
  0
SECTION
  2
TABLES
  0
TABLE
  2
VPORT
  5
8
330
0
100
AcDbSymbolTable
 70
     1
  0
VPORT
  5
974C
330
8
100
AcDbSymbolTableRecord
100
AcDbViewportTableRecord
  2
*ACTIVE
 70
     0
 10
0.0
 20
0.0
 11
1.0
 21
1.0
 12
1377.44715974979
 22
-288.2441619461479
 13
0.0
 23
0.0
 14
0.5
 24
0.5
 15
0.5
 25
0.5
 16
0.0
 26
0.0
 36
1.0
 17
23.99189063136194
 27
58.93406701316578
 37
-79.23627321392476
 40
279.1608249773404
 41
1.742681047765793
 42
50.0
 43
0.0
 44
0.0
 50
0.0
 51
0.0
 71
     0
 72
  1000
 73
     1
 74
     2
 75
     0
 76
     0
 77
     0
 78
     0
  0
ENDTAB
  0
TABLE
  2
LTYPE
  5
5
330
0
100
AcDbSymbolTable
 70
     1
  0
LTYPE
  5
14
330
5
100
AcDbSymbolTableRecord
100
AcDbLinetypeTableRecord
  2
BYBLOCK
 70
     0
  3

 72
    65
 73
     0
 40
0.0
  0
LTYPE
  5
15
330
5
100
AcDbSymbolTableRecord
100
AcDbLinetypeTableRecord
  2
BYLAYER
 70
     0
  3

 72
    65
 73
     0
 40
0.0
  0
LTYPE
  5
16
330
5
100
AcDbSymbolTableRecord
100
AcDbLinetypeTableRecord
  2
CONTINUOUS
 70
     0
  3
Solid line
 72
    65
 73
     0
 40
0.0
  0
ENDTAB
  0
TABLE
  2
LAYER
  5
2
102
{ACAD_XDICTIONARY
360
3D71
102
}
330
0
100
AcDbSymbolTable
 70
     8
  0
LAYER
  5
10
330
2
100
AcDbSymbolTableRecord
100
AcDbLayerTableRecord
  2
0
 70
     0
 62
     7
  6
CONTINUOUS
  0
LAYER
  5
98E
330
2
100
AcDbSymbolTableRecord
100
AcDbLayerTableRecord
  2
AREA1
 70
     0
 62
     7
  6
CONTINUOUS
  0
LAYER
  5
98F
330
2
100
AcDbSymbolTableRecord
100
AcDbLayerTableRecord
  2
AREA2
 70
     0
 62
     7
  6
CONTINUOUS
  0
LAYER
  5
990
330
2
100
AcDbSymbolTableRecord
100
AcDbLayerTableRecord
  2
DEFPOINTS
 70
     0
 62
     7
  6
CONTINUOUS
  0
LAYER
  5
991
330
2
100
AcDbSymbolTableRecord
100
AcDbLayerTableRecord
  2
SCALE
 70
     0
 62
    -7
  6
CONTINUOUS
  0
LAYER
  5
992
330
2
100
AcDbSymbolTableRecord
100
AcDbLayerTableRecord
  2
SNAP_POINTS
 70
     0
 62
    -1
  6
CONTINUOUS
  0
LAYER
  5
993
330
2
100
AcDbSymbolTableRecord
100
AcDbLayerTableRecord
  2
ATTRIBUTES
 70
     0
 62
    -7
  6
CONTINUOUS
  0
LAYER
  5
1722
330
2
100
AcDbSymbolTableRecord
100
AcDbLayerTableRecord
  2
DIMS-MTG-HOLES
 70
     0
 62
    -1
  6
CONTINUOUS
  0
ENDTAB
  0
TABLE
  2
STYLE
  5
3
330
0
100
AcDbSymbolTable
 70
     1
  0
STYLE
  5
11
330
3
100
AcDbSymbolTableRecord
100
AcDbTextStyleTableRecord
  2
STANDARD
 70
     0
 40
0.0
 41
1.0
 50
0.0
 71
     0
 42
0.2
  3
txt
  4

  0
ENDTAB
  0
TABLE
  2
VIEW
  5
6
330
0
100
AcDbSymbolTable
 70
     0
  0
ENDTAB
  0
TABLE
  2
UCS
  5
7
330
0
100
AcDbSymbolTable
 70
     0
  0
ENDTAB
  0
TABLE
  2
APPID
  5
9
330
0
100
AcDbSymbolTable
 70
     2
  0
APPID
  5
12
330
9
100
AcDbSymbolTableRecord
100
AcDbRegAppTableRecord
  2
ACAD
 70
     0
  0
APPID
  5
9754
330
9
100
AcDbSymbolTableRecord
100
AcDbRegAppTableRecord
  2
ACAD_DSTYLE_DIMTEXT_FILL
 70
     0
  0
ENDTAB
  0
TABLE
  2
DIMSTYLE
  5
A
330
0
100
AcDbSymbolTable
 70
     2
  0
DIMSTYLE
105
27
330
A
100
AcDbSymbolTableRecord
100
AcDbDimStyleTableRecord
  2
STANDARD
 70
     0
  3

  4

  5

  6

  7

 40
1.0
 41
0.18
 42
0.0625
 43
0.38
 44
0.18
 45
0.0
 46
0.0
 47
0.0
 48
0.0
140
0.18
141
0.09
142
0.0
143
25.4
144
1.0
145
0.0
146
1.0
147
0.09
 71
     0
 72
     0
 73
     1
 74
     1
 75
     0
 76
     0
 77
     0
 78
     0
170
     0
171
     2
172
     0
173
     0
174
     0
175
     0
176
     0
177
     0
178
     0
270
     2
271
     4
272
     4
273
     2
274
     2
340
11
275
     0
280
     0
281
     0
282
     0
283
     1
284
     0
285
     0
286
     0
287
     3
288
     0
  0
DIMSTYLE
105
995
102
{ACAD_REACTORS
330
96D5
330
96D6
330
96D8
102
}
330
A
100
AcDbSymbolTableRecord
100
AcDbDimStyleTableRecord
  2
ABECAD_3D
 70
     0
  3

  4

  5

  6

  7

 40
1.0
 41
4.572
 42
1.587499999999999
 43
9.525
 44
2.0
 45
0.0
 46
0.0
 47
0.0
 48
0.0
140
4.572
141
2.286
142
0.0
143
0.03937
144
1.0
145
0.0
146
1.5
147
2.286
 71
     0
 72
     0
 73
     0
 74
     1
 75
     0
 76
     0
 77
     0
 78
     4
170
     1
171
     6
172
     0
173
     0
174
     0
175
     0
176
     0
177
     0
178
     0
270
     2
271
     2
272
     2
273
     7
274
     6
340
11
275
     0
280
     0
281
     0
282
     0
283
     1
284
     4
285
     4
286
     4
287
     5
288
     0
  0
ENDTAB
  0
TABLE
  2
BLOCK_RECORD
  5
1
330
0
100
AcDbSymbolTable
 70
     3
  0
BLOCK_RECORD
  5
1F
102
{ACAD_XDICTIONARY
360
4957
102
}
330
1
100
AcDbSymbolTableRecord
100
AcDbBlockTableRecord
  2
*MODEL_SPACE
  0
BLOCK_RECORD
  5
89
102
{ACAD_XDICTIONARY
360
4959
102
}
330
1
100
AcDbSymbolTableRecord
100
AcDbBlockTableRecord
  2
*PAPER_SPACE
  0
BLOCK_RECORD
  5
96D9
330
1
100
AcDbSymbolTableRecord
100
AcDbBlockTableRecord
  2
*D0
  0
BLOCK_RECORD
  5
96E6
330
1
100
AcDbSymbolTableRecord
100
AcDbBlockTableRecord
  2
*D1
  0
BLOCK_RECORD
  5
96F3
330
1
100
AcDbSymbolTableRecord
100
AcDbBlockTableRecord
  2
*D2
  0
ENDTAB
  0
ENDSEC
  0
SECTION
  2
BLOCKS
  0
BLOCK
  5
20
330
1F
100
AcDbEntity
  8
0
100
AcDbBlockBegin
  2
*MODEL_SPACE
 70
     0
 10
0.0
 20
0.0
 30
0.0
  3
*MODEL_SPACE
  1

  0
ENDBLK
  5
21
330
1F
100
AcDbEntity
  8
0
100
AcDbBlockEnd
  0
BLOCK
  5
8B
330
89
100
AcDbEntity
 67
     1
  8
0
100
AcDbBlockBegin
  2
*PAPER_SPACE
 70
     0
 10
0.0
 20
0.0
 30
0.0
  3
*PAPER_SPACE
  1

  0
ENDBLK
  5
8C
330
89
100
AcDbEntity
 67
     1
  8
0
100
AcDbBlockEnd
  0
BLOCK
  5
96E4
330
96D9
100
AcDbEntity
  8
0
100
AcDbBlockBegin
  2
*D0
 70
     1
 10
0.0
 20
0.0
 30
0.0
  3
*D0
  1

  0
LINE
  5
9700
330
96D9
100
AcDbEntity
  8
AREA1
 62
     0
100
AcDbLine
 10
1457.785369433536
 20
-309.7101226137962
 30
0.0
 11
1469.267193527821
 21
-309.7101226137962
 31
0.0
  0
LINE
  5
9701
330
96D9
100
AcDbEntity
  8
AREA1
 62
     0
100
AcDbLine
 10
1457.785369433536
 20
-170.0101226137963
 30
0.0
 11
1469.267193527821
 21
-170.0101226137963
 31
0.0
  0
LINE
  5
9702
330
96D9
100
AcDbEntity
  8
AREA1
 62
     0
100
AcDbLine
 10
1467.267193527821
 20
-305.1381226137962
 30
0.0
 11
1467.267193527821
 21
-268.4351226137962
 31
0.0
  0
LINE
  5
9703
330
96D9
100
AcDbEntity
  8
AREA1
 62
     0
100
AcDbLine
 10
1467.267193527821
 20
-174.5821226137963
 30
0.0
 11
1467.267193527821
 21
-211.2851226137962
 31
0.0
  0
SOLID
  5
9704
330
96D9
100
AcDbEntity
  8
AREA1
 62
     0
100
AcDbTrace
 10
1466.505193527821
 20
-305.1381226137962
 30
0.0
 11
1468.029193527821
 21
-305.1381226137962
 31
0.0
 12
1467.267193527821
 22
-309.7101226137962
 32
0.0
 13
1467.267193527821
 23
-309.7101226137962
 33
0.0
  0
SOLID
  5
9705
330
96D9
100
AcDbEntity
  8
AREA1
 62
     0
100
AcDbTrace
 10
1466.505193527821
 20
-174.5821226137963
 30
0.0
 11
1468.029193527821
 21
-174.5821226137963
 31
0.0
 12
1467.267193527821
 22
-170.0101226137963
 32
0.0
 13
1467.267193527821
 23
-170.0101226137963
 33
0.0
  0
MTEXT
  5
9706
330
96D9
100
AcDbEntity
  8
AREA1
 62
     0
100
AcDbMText
 10
1467.267193527821
 20
-239.860122613796
 30
0.0
 40
4.572
 41
0.0
 71
     5
 72
     1
  1
\A1;139.70 [5 1/2]
 11
0.0000000000000001
 21
1.0
 31
0.0
1001
ACAD
1000
MTEXTBEGIN
1070
    73
1070
     1
1070
    44
1040
1.0
1070
    74
1070
     0
1000
MTEXTEND
  0
POINT
  5
9707
330
96D9
100
AcDbEntity
  8
DEFPOINTS
 62
     0
100
AcDbPoint
 10
1456.197869433536
 20
-309.7101226137962
 30
0.0
  0
POINT
  5
9708
330
96D9
100
AcDbEntity
  8
DEFPOINTS
 62
     0
100
AcDbPoint
 10
1456.197869433536
 20
-170.0101226137963
 30
0.0
  0
POINT
  5
9709
330
96D9
100
AcDbEntity
  8
DEFPOINTS
 62
     0
100
AcDbPoint
 10
1467.267193527821
 20
-170.0101226137963
 30
0.0
  0
ENDBLK
  5
96E5
330
96D9
100
AcDbEntity
  8
0
100
AcDbBlockEnd
  0
BLOCK
  5
96F1
330
96E6
100
AcDbEntity
  8
0
100
AcDbBlockBegin
  2
*D1
 70
     1
 10
0.0
 20
0.0
 30
0.0
  3
*D1
  1

  0
LINE
  5
970A
330
96E6
100
AcDbEntity
  8
AREA1
 62
     0
100
AcDbLine
 10
1344.437869433536
 20
-178.5826226137962
 30
0.0
 11
1344.437869433536
 21
-158.4637261845894
 31
0.0
  0
LINE
  5
970B
330
96E6
100
AcDbEntity
  8
AREA1
 62
     0
100
AcDbLine
 10
1456.197869433536
 20
-168.4226226137963
 30
0.0
 11
1456.197869433536
 21
-158.4637261845894
 31
0.0
  0
LINE
  5
970C
330
96E6
100
AcDbEntity
  8
AREA1
 62
     0
100
AcDbLine
 10
1349.009869433536
 20
-160.4637261845894
 30
0.0
 11
1368.313869433536
 21
-160.4637261845894
 31
0.0
  0
LINE
  5
970D
330
96E6
100
AcDbEntity
  8
AREA1
 62
     0
100
AcDbLine
 10
1451.625869433536
 20
-160.4637261845894
 30
0.0
 11
1432.321869433536
 21
-160.4637261845894
 31
0.0
  0
SOLID
  5
970E
330
96E6
100
AcDbEntity
  8
AREA1
 62
     0
100
AcDbTrace
 10
1349.009869433536
 20
-159.7017261845894
 30
0.0
 11
1349.009869433536
 21
-161.2257261845894
 31
0.0
 12
1344.437869433536
 22
-160.4637261845894
 32
0.0
 13
1344.437869433536
 23
-160.4637261845894
 33
0.0
  0
SOLID
  5
970F
330
96E6
100
AcDbEntity
  8
AREA1
 62
     0
100
AcDbTrace
 10
1451.625869433536
 20
-159.7017261845894
 30
0.0
 11
1451.625869433536
 21
-161.2257261845894
 31
0.0
 12
1456.197869433536
 22
-160.4637261845894
 32
0.0
 13
1456.197869433536
 23
-160.4637261845894
 33
0.0
  0
MTEXT
  5
9710
330
96E6
100
AcDbEntity
  8
AREA1
 62
     0
100
AcDbMText
 10
1400.317869433536
 20
-160.4637261845894
 30
0.0
 40
4.572
 41
0.0
 71
     5
 72
     1
  1
\A1;111.76 [4 13/32]
1001
ACAD
1000
MTEXTBEGIN
1070
    73
1070
     1
1070
    44
1040
1.0
1070
    74
1070
     0
1000
MTEXTEND
  0
POINT
  5
9711
330
96E6
100
AcDbEntity
  8
DEFPOINTS
 62
     0
100
AcDbPoint
 10
1344.437869433536
 20
-180.1701226137962
 30
0.0
  0
POINT
  5
9712
330
96E6
100
AcDbEntity
  8
DEFPOINTS
 62
     0
100
AcDbPoint
 10
1456.197869433536
 20
-170.0101226137963
 30
0.0
  0
POINT
  5
9713
330
96E6
100
AcDbEntity
  8
DEFPOINTS
 62
     0
100
AcDbPoint
 10
1456.197869433536
 20
-160.4637261845894
 30
0.0
  0
ENDBLK
  5
96F2
330
96E6
100
AcDbEntity
  8
0
100
AcDbBlockEnd
  0
BLOCK
  5
96FE
330
96F3
100
AcDbEntity
  8
0
100
AcDbBlockBegin
  2
*D2
 70
     1
 10
0.0
 20
0.0
 30
0.0
  3
*D2
  1

  0
LINE
  5
9714
330
96F3
100
AcDbEntity
  8
AREA2
 62
     0
100
AcDbLine
 10
1455.564076547701
 20
-265.1065388327622
 30
0.0
 11
1469.079276450203
 21
-265.1065388327622
 31
0.0
  0
LINE
  5
9715
330
96F3
100
AcDbEntity
  8
AREA2
 62
     0
100
AcDbLine
 10
1457.785369433536
 20
-410.2597379663721
 30
0.0
 11
1469.079276450203
 21
-410.2597379663721
 31
0.0
  0
LINE
  5
9716
330
96F3
100
AcDbEntity
  8
AREA2
 62
     0
100
AcDbLine
 10
1467.079276450204
 20
-269.6785388327622
 30
0.0
 11
1467.079276450204
 21
-303.8420889311972
 31
0.0
  0
LINE
  5
9717
330
96F3
100
AcDbEntity
  8
AREA2
 62
     0
100
AcDbLine
 10
1467.079276450204
 20
-405.687737966372
 30
0.0
 11
1467.079276450204
 21
-370.8980889311973
 31
0.0
  0
MTEXT
  5
9718
330
96F3
100
AcDbEntity
  8
AREA2
 62
     0
100
AcDbMText
 10
1467.079276450204
 20
-337.370088931197
 30
0.0
 40
4.572
 41
0.0
 71
     5
 72
     1
  1
\A1;145.15 [5 23/32]
 11
0.0000000000000001
 21
1.0
 31
0.0
1001
ACAD
1000
MTEXTBEGIN
1070
    73
1070
     1
1070
    44
1040
1.0
1070
    74
1070
     0
1000
MTEXTEND
  0
SOLID
  5
9719
330
96F3
100
AcDbEntity
  8
AREA2
 62
     0
100
AcDbTrace
 10
1466.317276450204
 20
-269.6785388327622
 30
0.0
 11
1467.841276450204
 21
-269.6785388327622
 31
0.0
 12
1467.079276450204
 22
-265.1065388327622
 32
0.0
 13
1467.079276450204
 23
-265.1065388327622
 33
0.0
  0
SOLID
  5
971A
330
96F3
100
AcDbEntity
  8
AREA2
 62
     0
100
AcDbTrace
 10
1466.317276450204
 20
-405.687737966372
 30
0.0
 11
1467.841276450204
 21
-405.687737966372
 31
0.0
 12
1467.079276450204
 22
-410.2597379663721
 32
0.0
 13
1467.079276450204
 23
-410.2597379663721
 33
0.0
  0
POINT
  5
971B
330
96F3
100
AcDbEntity
  8
DEFPOINTS
 62
     0
100
AcDbPoint
 10
1453.976576547701
 20
-265.1065388327622
 30
0.0
  0
POINT
  5
971C
330
96F3
100
AcDbEntity
  8
DEFPOINTS
 62
     0
100
AcDbPoint
 10
1456.197869433536
 20
-410.2597379663721
 30
0.0000000000000568
  0
POINT
  5
971D
330
96F3
100
AcDbEntity
  8
DEFPOINTS
 62
     0
100
AcDbPoint
 10
1467.079276450204
 20
-410.2597379663721
 30
0.0
  0
ENDBLK
  5
96FF
330
96F3
100
AcDbEntity
  8
0
100
AcDbBlockEnd
  0
ENDSEC
  0
SECTION
  2
ENTITIES
  0
LINE
  5
9644
330
1F
100
AcDbEntity
  8
SCALE
100
AcDbLine
 10
1299.177411927801
 20
-190.8108305381639
 30
-410.2597379663721
 11
1324.5774119278
 21
-190.8108305381639
 31
-410.2597379663721
  0
TEXT
  5
9646
330
1F
100
AcDbEntity
  8
SCALE
100
AcDbText
 10
1308.404799835292
 20
-189.0569936756847
 30
-410.2597379663721
 40
1.587499999999999
  1
1 Inch
100
AcDbText
  0
LINE
  5
9647
330
1F
100
AcDbEntity
  8
SCALE
100
AcDbLine
 10
1309.177391927801
 20
-200.9708305381639
 30
-410.2597379663721
 11
1309.177391927801
 21
-195.8908305381639
 31
-410.2597379663721
  0
LINE
  5
9648
330
1F
100
AcDbEntity
  8
SCALE
100
AcDbLine
 10
1299.177411927801
 20
-200.9708305381639
 30
-410.2597379663721
 11
1299.177411927801
 21
-195.8908305381639
 31
-410.2597379663721
  0
LINE
  5
9649
330
1F
100
AcDbEntity
  8
SCALE
100
AcDbLine
 10
1299.177411927801
 20
-193.3508305381639
 30
-410.2597379663721
 11
1299.177411927801
 21
-188.2708305381639
 31
-410.2597379663721
  0
TEXT
  5
964A
330
1F
100
AcDbEntity
  8
SCALE
100
AcDbText
 10
1300.686734668574
 20
-197.2690435482014
 30
-410.2597379663721
 40
1.587499999999999
  1
[10mm]
100
AcDbText
  0
LINE
  5
964B
330
1F
100
AcDbEntity
  8
SCALE
100
AcDbLine
 10
1299.177411927801
 20
-198.4308305381639
 30
-410.2597379663721
 11
1309.177391927801
 21
-198.4308305381639
 31
-410.2597379663721
  0
TEXT
  5
964C
330
1F
100
AcDbEntity
  8
SCALE
100
AcDbText
 10
1299.216280665062
 20
-183.8289516578142
 30
-410.2597379663721
 40
1.587499999999999
  1
SCALE:
100
AcDbText
  0
LINE
  5
964D
330
1F
100
AcDbEntity
  8
SCALE
100
AcDbLine
 10
1324.5774119278
 20
-193.3508305381639
 30
-410.2597379663721
 11
1324.5774119278
 21
-188.2708305381639
 31
-410.2597379663721
  0
ATTDEF
  5
964E
330
1F
100
AcDbEntity
  8
ATTRIBUTES
100
AcDbText
 10
1358.745184441247
 20
-307.5016964729357
 30
-410.2397331913924
 40
0.6096
  1
0
100
AcDbAttributeDefinition
  3
VIEW CODE?
  2
AC_VIEW_CODE
 70
     1
  0
ATTDEF
  5
964F
330
1F
100
AcDbEntity
  8
ATTRIBUTES
100
AcDbText
 10
1358.745184441247
 20
-306.2316964729358
 30
-410.2397331913924
 40
0.6096
  1
INCH
100
AcDbAttributeDefinition
  3
UNIT OF SCALE?
  2
AC_SCALE_UNIT
 70
     1
  0
ATTDEF
  5
9650
330
1F
100
AcDbEntity
  8
ATTRIBUTES
100
AcDbText
 10
1358.745184441247
 20
-304.9616964729359
 30
-410.2397331913924
 40
0.6096
  1

100
AcDbAttributeDefinition
  3
FASTENER DATA?
  2
FASTENER
 70
     1
  0
ATTDEF
  5
9651
330
1F
100
AcDbEntity
  8
ATTRIBUTES
100
AcDbText
 10
1358.745184441247
 20
-303.6916964729359
 30
-410.2397331913924
 40
0.6096
  1

100
AcDbAttributeDefinition
  3
CUSTOMER NOTE?
  2
AC_NOTE
 70
     1
  0
ATTDEF
  5
9652
330
1F
100
AcDbEntity
  8
ATTRIBUTES
100
AcDbText
 10
1358.745184441247
 20
-302.4216964729361
 30
-410.2397331913924
 40
0.6096
  1

100
AcDbAttributeDefinition
  3
CUSTOMER PART NUMBER?
  2
AC_CPART_NO
 70
     1
  0
ATTDEF
  5
9653
330
1F
100
AcDbEntity
  8
ATTRIBUTES
100
AcDbText
 10
1358.745184441247
 20
-301.1516964729358
 30
-410.2397331913924
 40
0.6096
  1

100
AcDbAttributeDefinition
  3
DEVICE ID?
  2
DEVICE_ID
 70
     1
  0
ATTDEF
  5
9654
330
1F
100
AcDbEntity
  8
ATTRIBUTES
100
AcDbText
 10
1358.745184441247
 20
-299.8816964729359
 30
-410.2397331913924
 40
0.6096
  1
ControlLogix Power Supply
100
AcDbAttributeDefinition
  3
PART DESCRIPTION?
  2
AC_DESCRIPTION
 70
     1
  0
ATTDEF
  5
9655
330
1F
100
AcDbEntity
  8
ATTRIBUTES
100
AcDbText
 10
1358.745184441247
 20
-298.6116964729359
 30
-410.2397331913924
 40
0.6096
  1
1756-P*7*
100
AcDbAttributeDefinition
  3
CATALOG NUMBER?
  2
AC_PART_NO
 70
     1
  0
ATTDEF
  5
9656
330
1F
100
AcDbEntity
  8
ATTRIBUTES
100
AcDbText
 10
1358.745184441247
 20
-297.341696472936
 30
-410.2397331913924
 40
0.6096
  1
ALLEN-BRADLEY
100
AcDbAttributeDefinition
  3
MANUFACTURER NAME?
  2
AC_VND_LABEL
 70
     1
  0
POLYLINE
  5
9657
330
1F
100
AcDbEntity
  8
0
100
AcDbPolygonMesh
 66
     1
 10
0.0
 20
0.0
 30
0.0
 70
    16
 71
     6
 72
     3
  0
VERTEX
  5
9658
330
9657
100
AcDbEntity
  8
0
100
AcDbVertex
100
AcDbPolygonMeshVertex
 10
1354.597869433535
 20
-299.5501226137966
 30
-265.4797379663719
 70
    64
  0
VERTEX
  5
9659
330
9657
100
AcDbEntity
  8
0
100
AcDbVertex
100
AcDbPolygonMeshVertex
 10
1354.597869433535
 20
-299.5501226137966
 30
-410.2597379663721
 70
    64
  0
VERTEX
  5
965A
330
9657
100
AcDbEntity
  8
0
100
AcDbVertex
100
AcDbPolygonMeshVertex
 10
1354.597869433535
 20
-299.5501226137966
 30
-410.2597379663721
 70
    64
  0
VERTEX
  5
965B
330
9657
100
AcDbEntity
  8
0
100
AcDbVertex
100
AcDbPolygonMeshVertex
 10
1344.437869433535
 20
-299.5501226137966
 30
-265.4797379663719
 70
    64
  0
VERTEX
  5
965C
330
9657
100
AcDbEntity
  8
0
100
AcDbVertex
100
AcDbPolygonMeshVertex
 10
1344.437869433535
 20
-299.5501226137966
 30
-410.2597379663721
 70
    64
  0
VERTEX
  5
965D
330
9657
100
AcDbEntity
  8
0
100
AcDbVertex
100
AcDbPolygonMeshVertex
 10
1344.437869433535
 20
-299.5501226137966
 30
-410.2597379663721
 70
    64
  0
VERTEX
  5
965E
330
9657
100
AcDbEntity
  8
0
100
AcDbVertex
100
AcDbPolygonMeshVertex
 10
1344.437869433535
 20
-180.1701226137965
 30
-265.4797379663719
 70
    64
  0
VERTEX
  5
965F
330
9657
100
AcDbEntity
  8
0
100
AcDbVertex
100
AcDbPolygonMeshVertex
 10
1344.437869433535
 20
-180.1701226137965
 30
-410.2597379663721
 70
    64
  0
VERTEX
  5
9660
330
9657
100
AcDbEntity
  8
0
100
AcDbVertex
100
AcDbPolygonMeshVertex
 10
1344.437869433535
 20
-299.5501226137966
 30
-410.2597379663721
 70
    64
  0
VERTEX
  5
9661
330
9657
100
AcDbEntity
  8
0
100
AcDbVertex
100
AcDbPolygonMeshVertex
 10
1354.597869433535
 20
-180.1701226137965
 30
-265.4797379663719
 70
    64
  0
VERTEX
  5
9662
330
9657
100
AcDbEntity
  8
0
100
AcDbVertex
100
AcDbPolygonMeshVertex
 10
1354.597869433535
 20
-180.1701226137965
 30
-410.2597379663721
 70
    64
  0
VERTEX
  5
9663
330
9657
100
AcDbEntity
  8
0
100
AcDbVertex
100
AcDbPolygonMeshVertex
 10
1354.597869433535
 20
-299.5501226137966
 30
-410.2597379663721
 70
    64
  0
VERTEX
  5
9664
330
9657
100
AcDbEntity
  8
0
100
AcDbVertex
100
AcDbPolygonMeshVertex
 10
1354.597869433535
 20
-180.1701226137965
 30
-265.4797379663719
 70
    64
  0
VERTEX
  5
9665
330
9657
100
AcDbEntity
  8
0
100
AcDbVertex
100
AcDbPolygonMeshVertex
 10
1354.597869433535
 20
-180.1701226137965
 30
-265.4797379663719
 70
    64
  0
VERTEX
  5
9666
330
9657
100
AcDbEntity
  8
0
100
AcDbVertex
100
AcDbPolygonMeshVertex
 10
1354.597869433535
 20
-299.5501226137966
 30
-265.4797379663719
 70
    64
  0
VERTEX
  5
9667
330
9657
100
AcDbEntity
  8
0
100
AcDbVertex
100
AcDbPolygonMeshVertex
 10
1344.437869433535
 20
-180.1701226137965
 30
-265.4797379663719
 70
    64
  0
VERTEX
  5
9668
330
9657
100
AcDbEntity
  8
0
100
AcDbVertex
100
AcDbPolygonMeshVertex
 10
1344.437869433535
 20
-180.1701226137965
 30
-265.4797379663719
 70
    64
  0
VERTEX
  5
9669
330
9657
100
AcDbEntity
  8
0
100
AcDbVertex
100
AcDbPolygonMeshVertex
 10
1344.437869433535
 20
-299.5501226137966
 30
-265.4797379663719
 70
    64
  0
SEQEND
  5
966A
330
9657
100
AcDbEntity
  8
0
  0
3DFACE
  5
966B
330
1F
100
AcDbEntity
  8
0
100
AcDbFace
 10
1456.197869433536
 20
-170.0101226137964
 30
-265.4797379663719
 11
1456.197869433536
 21
-309.7096621459598
 31
-265.4797379663719
 12
1354.597869433535
 22
-309.7096621459598
 32
-265.4797379663719
 13
1354.597869433535
 23
-170.0101226137964
 33
-265.4797379663719
  0
3DFACE
  5
966C
330
1F
100
AcDbEntity
  8
0
100
AcDbFace
 10
1456.197869433536
 20
-170.0101226137964
 30
-275.004737966372
 11
1456.197869433536
 21
-309.7096621459598
 31
-275.004737966372
 12
1456.197869433536
 22
-309.7096621459598
 32
-265.4797379663719
 13
1456.197869433536
 23
-170.0101226137964
 33
-265.4797379663719
  0
3DFACE
  5
966D
330
1F
100
AcDbEntity
  8
0
100
AcDbFace
 10
1354.597869433535
 20
-170.0101226137964
 30
-275.004737966372
 11
1354.597869433535
 21
-309.7096621459598
 31
-275.004737966372
 12
1456.197869433536
 22
-309.7096621459598
 32
-275.004737966372
 13
1456.197869433536
 23
-170.0101226137964
 33
-275.004737966372
  0
3DFACE
  5
966E
330
1F
100
AcDbEntity
  8
0
100
AcDbFace
 10
1354.597869433535
 20
-309.7096621459598
 30
-275.004737966372
 11
1354.597869433535
 21
-309.7096621459598
 31
-275.004737966372
 12
1354.597869433535
 22
-309.7096621459598
 32
-275.004737966372
 13
1354.597869433535
 23
-170.0101226137964
 33
-275.004737966372
  0
3DFACE
  5
966F
330
1F
100
AcDbEntity
  8
0
100
AcDbFace
 10
1354.597869433535
 20
-309.7096621459598
 30
-265.4797379663719
 11
1354.597869433535
 21
-309.7096621459598
 31
-275.004737966372
 12
1354.597869433535
 22
-170.0101226137964
 32
-275.004737966372
 13
1354.597869433535
 23
-170.0101226137964
 33
-265.4797379663719
  0
POLYLINE
  5
9670
330
1F
100
AcDbEntity
  8
0
100
AcDbPolygonMesh
 66
     1
 10
0.0
 20
0.0
 30
0.0
 70
    16
 71
     6
 72
     3
  0
VERTEX
  5
9671
330
9670
100
AcDbEntity
  8
0
100
AcDbVertex
100
AcDbPolygonMeshVertex
 10
1456.197869433536
 20
-309.7101226137964
 30
-275.004737966372
 70
    64
  0
VERTEX
  5
9672
330
9670
100
AcDbEntity
  8
0
100
AcDbVertex
100
AcDbPolygonMeshVertex
 10
1456.197869433536
 20
-309.7101226137964
 30
-410.2597379663721
 70
    64
  0
VERTEX
  5
9673
330
9670
100
AcDbEntity
  8
0
100
AcDbVertex
100
AcDbPolygonMeshVertex
 10
1456.197869433536
 20
-309.7101226137964
 30
-410.2597379663721
 70
    64
  0
VERTEX
  5
9674
330
9670
100
AcDbEntity
  8
0
100
AcDbVertex
100
AcDbPolygonMeshVertex
 10
1354.597869433535
 20
-309.7101226137964
 30
-275.004737966372
 70
    64
  0
VERTEX
  5
9675
330
9670
100
AcDbEntity
  8
0
100
AcDbVertex
100
AcDbPolygonMeshVertex
 10
1354.597869433535
 20
-309.7101226137964
 30
-410.2597379663721
 70
    64
  0
VERTEX
  5
9676
330
9670
100
AcDbEntity
  8
0
100
AcDbVertex
100
AcDbPolygonMeshVertex
 10
1354.597869433535
 20
-309.7101226137964
 30
-410.2597379663721
 70
    64
  0
VERTEX
  5
9677
330
9670
100
AcDbEntity
  8
0
100
AcDbVertex
100
AcDbPolygonMeshVertex
 10
1354.597869433535
 20
-170.0101226137964
 30
-275.004737966372
 70
    64
  0
VERTEX
  5
9678
330
9670
100
AcDbEntity
  8
0
100
AcDbVertex
100
AcDbPolygonMeshVertex
 10
1354.597869433535
 20
-170.0101226137964
 30
-410.2597379663721
 70
    64
  0
VERTEX
  5
9679
330
9670
100
AcDbEntity
  8
0
100
AcDbVertex
100
AcDbPolygonMeshVertex
 10
1354.597869433535
 20
-309.7101226137964
 30
-410.2597379663721
 70
    64
  0
VERTEX
  5
967A
330
9670
100
AcDbEntity
  8
0
100
AcDbVertex
100
AcDbPolygonMeshVertex
 10
1456.197869433536
 20
-170.0101226137964
 30
-275.004737966372
 70
    64
  0
VERTEX
  5
967B
330
9670
100
AcDbEntity
  8
0
100
AcDbVertex
100
AcDbPolygonMeshVertex
 10
1456.197869433536
 20
-170.0101226137964
 30
-410.2597379663721
 70
    64
  0
VERTEX
  5
967C
330
9670
100
AcDbEntity
  8
0
100
AcDbVertex
100
AcDbPolygonMeshVertex
 10
1456.197869433536
 20
-309.7101226137964
 30
-410.2597379663721
 70
    64
  0
VERTEX
  5
967D
330
9670
100
AcDbEntity
  8
0
100
AcDbVertex
100
AcDbPolygonMeshVertex
 10
1456.197869433536
 20
-170.0101226137964
 30
-275.004737966372
 70
    64
  0
VERTEX
  5
967E
330
9670
100
AcDbEntity
  8
0
100
AcDbVertex
100
AcDbPolygonMeshVertex
 10
1456.197869433536
 20
-170.0101226137964
 30
-275.004737966372
 70
    64
  0
VERTEX
  5
967F
330
9670
100
AcDbEntity
  8
0
100
AcDbVertex
100
AcDbPolygonMeshVertex
 10
1456.197869433536
 20
-309.7101226137964
 30
-275.004737966372
 70
    64
  0
VERTEX
  5
9680
330
9670
100
AcDbEntity
  8
0
100
AcDbVertex
100
AcDbPolygonMeshVertex
 10
1354.597869433535
 20
-170.0101226137964
 30
-275.004737966372
 70
    64
  0
VERTEX
  5
9681
330
9670
100
AcDbEntity
  8
0
100
AcDbVertex
100
AcDbPolygonMeshVertex
 10
1354.597869433535
 20
-170.0101226137964
 30
-275.004737966372
 70
    64
  0
VERTEX
  5
9682
330
9670
100
AcDbEntity
  8
0
100
AcDbVertex
100
AcDbPolygonMeshVertex
 10
1354.597869433535
 20
-309.7101226137964
 30
-275.004737966372
 70
    64
  0
SEQEND
  5
9683
330
9670
100
AcDbEntity
  8
0
  0
POLYLINE
  5
9684
330
1F
100
AcDbEntity
  8
0
100
AcDbPolygonMesh
 66
     1
 10
0.0
 20
0.0
 30
0.0
 70
    16
 71
     6
 72
     3
  0
VERTEX
  5
9685
330
9684
100
AcDbEntity
  8
0
100
AcDbVertex
100
AcDbPolygonMeshVertex
 10
1354.597869433535
 20
-309.7101226137964
 30
-265.4797379663719
 70
    64
  0
VERTEX
  5
9686
330
9684
100
AcDbEntity
  8
0
100
AcDbVertex
100
AcDbPolygonMeshVertex
 10
1354.597869433535
 20
-309.7101226137964
 30
-410.2597379663721
 70
    64
  0
VERTEX
  5
9687
330
9684
100
AcDbEntity
  8
0
100
AcDbVertex
100
AcDbPolygonMeshVertex
 10
1354.597869433535
 20
-309.7101226137964
 30
-410.2597379663721
 70
    64
  0
VERTEX
  5
9688
330
9684
100
AcDbEntity
  8
0
100
AcDbVertex
100
AcDbPolygonMeshVertex
 10
1344.437869433535
 20
-299.5501226137966
 30
-265.4797379663719
 70
    64
  0
VERTEX
  5
9689
330
9684
100
AcDbEntity
  8
0
100
AcDbVertex
100
AcDbPolygonMeshVertex
 10
1344.437869433535
 20
-299.5501226137966
 30
-410.2597379663721
 70
    64
  0
VERTEX
  5
968A
330
9684
100
AcDbEntity
  8
0
100
AcDbVertex
100
AcDbPolygonMeshVertex
 10
1344.437869433535
 20
-299.5501226137966
 30
-410.2597379663721
 70
    64
  0
VERTEX
  5
968B
330
9684
100
AcDbEntity
  8
0
100
AcDbVertex
100
AcDbPolygonMeshVertex
 10
1344.437869433535
 20
-299.5501226137966
 30
-265.4797379663719
 70
    64
  0
VERTEX
  5
968C
330
9684
100
AcDbEntity
  8
0
100
AcDbVertex
100
AcDbPolygonMeshVertex
 10
1344.437869433535
 20
-299.5501226137966
 30
-410.2597379663721
 70
    64
  0
VERTEX
  5
968D
330
9684
100
AcDbEntity
  8
0
100
AcDbVertex
100
AcDbPolygonMeshVertex
 10
1344.437869433535
 20
-299.5501226137966
 30
-410.2597379663721
 70
    64
  0
VERTEX
  5
968E
330
9684
100
AcDbEntity
  8
0
100
AcDbVertex
100
AcDbPolygonMeshVertex
 10
1354.597869433535
 20
-299.5501226137966
 30
-265.4797379663719
 70
    64
  0
VERTEX
  5
968F
330
9684
100
AcDbEntity
  8
0
100
AcDbVertex
100
AcDbPolygonMeshVertex
 10
1354.597869433535
 20
-299.5501226137966
 30
-410.2597379663721
 70
    64
  0
VERTEX
  5
9690
330
9684
100
AcDbEntity
  8
0
100
AcDbVertex
100
AcDbPolygonMeshVertex
 10
1354.597869433535
 20
-309.7101226137964
 30
-410.2597379663721
 70
    64
  0
VERTEX
  5
9691
330
9684
100
AcDbEntity
  8
0
100
AcDbVertex
100
AcDbPolygonMeshVertex
 10
1354.597869433535
 20
-299.5501226137966
 30
-265.4797379663719
 70
    64
  0
VERTEX
  5
9692
330
9684
100
AcDbEntity
  8
0
100
AcDbVertex
100
AcDbPolygonMeshVertex
 10
1354.597869433535
 20
-299.5501226137966
 30
-265.4797379663719
 70
    64
  0
VERTEX
  5
9693
330
9684
100
AcDbEntity
  8
0
100
AcDbVertex
100
AcDbPolygonMeshVertex
 10
1354.597869433535
 20
-309.7101226137964
 30
-265.4797379663719
 70
    64
  0
VERTEX
  5
9694
330
9684
100
AcDbEntity
  8
0
100
AcDbVertex
100
AcDbPolygonMeshVertex
 10
1344.437869433535
 20
-299.5501226137966
 30
-265.4797379663719
 70
    64
  0
VERTEX
  5
9695
330
9684
100
AcDbEntity
  8
0
100
AcDbVertex
100
AcDbPolygonMeshVertex
 10
1344.437869433535
 20
-299.5501226137966
 30
-265.4797379663719
 70
    64
  0
VERTEX
  5
9696
330
9684
100
AcDbEntity
  8
0
100
AcDbVertex
100
AcDbPolygonMeshVertex
 10
1344.437869433535
 20
-299.5501226137966
 30
-265.4797379663719
 70
    64
  0
SEQEND
  5
9697
330
9684
100
AcDbEntity
  8
0
  0
LINE
  5
9698
330
1F
100
AcDbEntity
  8
0
100
AcDbLine
 10
1456.198947137581
 20
-300.8717481064095
 30
-265.4797379663719
 11
1370.778747137581
 21
-300.8717481064095
 31
-265.4797379663719
  0
LINE
  5
9699
330
1F
100
AcDbEntity
  8
0
100
AcDbLine
 10
1456.198947137581
 20
-292.7437481064093
 30
-265.4797379663719
 11
1370.778747137581
 21
-292.7437481064093
 31
-265.4797379663719
  0
LINE
  5
969A
330
1F
100
AcDbEntity
  8
0
100
AcDbLine
 10
1456.198947137581
 20
-284.6157481064095
 30
-265.4797379663719
 11
1370.778747137581
 21
-284.6157481064095
 31
-265.4797379663719
  0
LINE
  5
969B
330
1F
100
AcDbEntity
  8
0
100
AcDbLine
 10
1456.198947137581
 20
-268.8677481064094
 30
-265.4797379663719
 11
1370.778747137581
 21
-268.8677481064094
 31
-265.4797379663719
  0
LINE
  5
969C
330
1F
100
AcDbEntity
  8
0
100
AcDbLine
 10
1456.198947137581
 20
-260.7397481064095
 30
-265.4797379663719
 11
1370.778747137581
 21
-260.7397481064095
 31
-265.4797379663719
  0
LINE
  5
969D
330
1F
100
AcDbEntity
  8
0
100
AcDbLine
 10
1456.198947137581
 20
-252.6117481064094
 30
-265.4797379663719
 11
1370.778747137581
 21
-252.6117481064094
 31
-265.4797379663719
  0
LINE
  5
969E
330
1F
100
AcDbEntity
  8
0
100
AcDbLine
 10
1456.198947137581
 20
-277.7577481064092
 30
-265.4797379663719
 11
1370.778747137581
 21
-277.7577481064092
 31
-265.4797379663719
  0
LINE
  5
969F
330
1F
100
AcDbEntity
  8
0
100
AcDbLine
 10
1456.198947137581
 20
-275.7257481064093
 30
-265.4797379663719
 11
1370.778747137581
 21
-275.7257481064093
 31
-265.4797379663719
  0
3DFACE
  5
96A0
330
1F
100
AcDbEntity
  8
0
100
AcDbFace
 10
1456.197869433536
 20
-309.7096621459598
 30
-275.004737966372
 11
1456.197869433536
 21
-309.7096621459598
 31
-275.004737966372
 12
1354.597869433535
 22
-309.7096621459598
 32
-275.004737966372
 13
1354.597869433535
 23
-309.7096621459598
 33
-275.004737966372
  0
3DFACE
  5
96A1
330
1F
100
AcDbEntity
  8
0
100
AcDbFace
 10
1456.197869433536
 20
-309.7096621459598
 30
-265.4797379663719
 11
1456.197869433536
 21
-309.7096621459598
 31
-275.004737966372
 12
1354.597869433535
 22
-309.7096621459598
 32
-275.004737966372
 13
1354.597869433535
 23
-309.7096621459598
 33
-265.4797379663719
  0
POLYLINE
  5
96A2
330
1F
100
AcDbEntity
  8
0
100
AcDbPolygonMesh
 66
     1
 10
0.0
 20
0.0
 30
0.0
 70
    16
 71
     6
 72
     3
  0
VERTEX
  5
96A3
330
96A2
100
AcDbEntity
  8
0
100
AcDbVertex
100
AcDbPolygonMeshVertex
 10
1354.597869433535
 20
-180.1701226137965
 30
-265.4797379663719
 70
    64
  0
VERTEX
  5
96A4
330
96A2
100
AcDbEntity
  8
0
100
AcDbVertex
100
AcDbPolygonMeshVertex
 10
1354.597869433535
 20
-180.1701226137965
 30
-410.2597379663721
 70
    64
  0
VERTEX
  5
96A5
330
96A2
100
AcDbEntity
  8
0
100
AcDbVertex
100
AcDbPolygonMeshVertex
 10
1354.597869433535
 20
-180.1701226137965
 30
-410.2597379663721
 70
    64
  0
VERTEX
  5
96A6
330
96A2
100
AcDbEntity
  8
0
100
AcDbVertex
100
AcDbPolygonMeshVertex
 10
1344.437869433535
 20
-180.1701226137965
 30
-265.4797379663719
 70
    64
  0
VERTEX
  5
96A7
330
96A2
100
AcDbEntity
  8
0
100
AcDbVertex
100
AcDbPolygonMeshVertex
 10
1344.437869433535
 20
-180.1701226137965
 30
-410.2597379663721
 70
    64
  0
VERTEX
  5
96A8
330
96A2
100
AcDbEntity
  8
0
100
AcDbVertex
100
AcDbPolygonMeshVertex
 10
1344.437869433535
 20
-180.1701226137965
 30
-410.2597379663721
 70
    64
  0
VERTEX
  5
96A9
330
96A2
100
AcDbEntity
  8
0
100
AcDbVertex
100
AcDbPolygonMeshVertex
 10
1344.437869433535
 20
-180.1701226137965
 30
-265.4797379663719
 70
    64
  0
VERTEX
  5
96AA
330
96A2
100
AcDbEntity
  8
0
100
AcDbVertex
100
AcDbPolygonMeshVertex
 10
1344.437869433535
 20
-180.1701226137965
 30
-410.2597379663721
 70
    64
  0
VERTEX
  5
96AB
330
96A2
100
AcDbEntity
  8
0
100
AcDbVertex
100
AcDbPolygonMeshVertex
 10
1344.437869433535
 20
-180.1701226137965
 30
-410.2597379663721
 70
    64
  0
VERTEX
  5
96AC
330
96A2
100
AcDbEntity
  8
0
100
AcDbVertex
100
AcDbPolygonMeshVertex
 10
1354.597869433535
 20
-170.0101226137964
 30
-265.4797379663719
 70
    64
  0
VERTEX
  5
96AD
330
96A2
100
AcDbEntity
  8
0
100
AcDbVertex
100
AcDbPolygonMeshVertex
 10
1354.597869433535
 20
-170.0101226137964
 30
-410.2597379663721
 70
    64
  0
VERTEX
  5
96AE
330
96A2
100
AcDbEntity
  8
0
100
AcDbVertex
100
AcDbPolygonMeshVertex
 10
1354.597869433535
 20
-180.1701226137965
 30
-410.2597379663721
 70
    64
  0
VERTEX
  5
96AF
330
96A2
100
AcDbEntity
  8
0
100
AcDbVertex
100
AcDbPolygonMeshVertex
 10
1354.597869433535
 20
-170.0101226137964
 30
-265.4797379663719
 70
    64
  0
VERTEX
  5
96B0
330
96A2
100
AcDbEntity
  8
0
100
AcDbVertex
100
AcDbPolygonMeshVertex
 10
1354.597869433535
 20
-170.0101226137964
 30
-265.4797379663719
 70
    64
  0
VERTEX
  5
96B1
330
96A2
100
AcDbEntity
  8
0
100
AcDbVertex
100
AcDbPolygonMeshVertex
 10
1354.597869433535
 20
-180.1701226137965
 30
-265.4797379663719
 70
    64
  0
VERTEX
  5
96B2
330
96A2
100
AcDbEntity
  8
0
100
AcDbVertex
100
AcDbPolygonMeshVertex
 10
1344.437869433535
 20
-180.1701226137965
 30
-265.4797379663719
 70
    64
  0
VERTEX
  5
96B3
330
96A2
100
AcDbEntity
  8
0
100
AcDbVertex
100
AcDbPolygonMeshVertex
 10
1344.437869433535
 20
-180.1701226137965
 30
-265.4797379663719
 70
    64
  0
VERTEX
  5
96B4
330
96A2
100
AcDbEntity
  8
0
100
AcDbVertex
100
AcDbPolygonMeshVertex
 10
1344.437869433535
 20
-180.1701226137965
 30
-265.4797379663719
 70
    64
  0
SEQEND
  5
96B5
330
96A2
100
AcDbEntity
  8
0
  0
LINE
  5
96B8
330
1F
100
AcDbEntity
  8
0
100
AcDbLine
 10
1456.198947137581
 20
-244.4837481064096
 30
-265.4797379663719
 11
1370.778747137581
 21
-244.4837481064096
 31
-265.4797379663719
  0
LINE
  5
96B9
330
1F
100
AcDbEntity
  8
0
100
AcDbLine
 10
1456.198947137581
 20
-236.3557481064094
 30
-265.4797379663719
 11
1370.778747137581
 21
-236.3557481064094
 31
-265.4797379663719
  0
LINE
  5
96BA
330
1F
100
AcDbEntity
  8
0
100
AcDbLine
 10
1456.198947137581
 20
-228.2277481064096
 30
-265.4797379663719
 11
1370.778747137581
 21
-228.2277481064096
 31
-265.4797379663719
  0
LINE
  5
96BB
330
1F
100
AcDbEntity
  8
0
100
AcDbLine
 10
1456.198947137581
 20
-220.0997481064093
 30
-265.4797379663722
 11
1370.778747137581
 21
-220.0997481064093
 31
-265.4797379663722
  0
LINE
  5
96BC
330
1F
100
AcDbEntity
  8
0
100
AcDbLine
 10
1456.198947137581
 20
-211.9717481064095
 30
-265.4797379663722
 11
1370.778747137581
 21
-211.9717481064095
 31
-265.4797379663722
  0
3DFACE
  5
96BD
330
1F
100
AcDbEntity
  8
0
100
AcDbFace
 10
1456.197869433536
 20
-170.0101226137964
 30
-265.4797379663719
 11
1456.197869433536
 21
-170.0101226137964
 31
-265.4797379663719
 12
1354.597869433535
 22
-170.0101226137964
 32
-265.4797379663719
 13
1354.597869433535
 23
-170.0101226137964
 33
-265.4797379663719
  0
3DFACE
  5
96BE
330
1F
100
AcDbEntity
  8
0
100
AcDbFace
 10
1354.597869433535
 20
-170.0101226137964
 30
-265.4797379663719
 11
1354.597869433535
 21
-170.0101226137964
 31
-275.004737966372
 12
1456.197869433536
 22
-170.0101226137964
 32
-275.004737966372
 13
1456.197869433536
 23
-170.0101226137964
 33
-265.4797379663719
  0
POLYLINE
  5
96BF
330
1F
100
AcDbEntity
  8
0
100
AcDbPolygonMesh
 66
     1
 10
0.0
 20
0.0
 30
0.0
 70
    16
 71
     6
 72
     3
  0
VERTEX
  5
96C0
330
96BF
100
AcDbEntity
  8
0
100
AcDbVertex
100
AcDbPolygonMeshVertex
 10
1435.50936309598
 20
-178.7033784202345
 30
-265.225737966372
 70
    64
  0
VERTEX
  5
96C1
330
96BF
100
AcDbEntity
  8
0
100
AcDbVertex
100
AcDbPolygonMeshVertex
 10
1435.50936309598
 20
-178.7033784202345
 30
-265.4797379663719
 70
    64
  0
VERTEX
  5
96C2
330
96BF
100
AcDbEntity
  8
0
100
AcDbVertex
100
AcDbPolygonMeshVertex
 10
1435.50936309598
 20
-178.7033784202345
 30
-265.4797379663719
 70
    64
  0
VERTEX
  5
96C3
330
96BF
100
AcDbEntity
  8
0
100
AcDbVertex
100
AcDbPolygonMeshVertex
 10
1431.064363095981
 20
-178.7033784202345
 30
-265.225737966372
 70
    64
  0
VERTEX
  5
96C4
330
96BF
100
AcDbEntity
  8
0
100
AcDbVertex
100
AcDbPolygonMeshVertex
 10
1431.064363095981
 20
-178.7033784202345
 30
-265.4797379663719
 70
    64
  0
VERTEX
  5
96C5
330
96BF
100
AcDbEntity
  8
0
100
AcDbVertex
100
AcDbPolygonMeshVertex
 10
1431.064363095981
 20
-178.7033784202345
 30
-265.4797379663719
 70
    64
  0
VERTEX
  5
96C6
330
96BF
100
AcDbEntity
  8
0
100
AcDbVertex
100
AcDbPolygonMeshVertex
 10
1431.064363095981
 20
-176.1633784202346
 30
-265.225737966372
 70
    64
  0
VERTEX
  5
96C7
330
96BF
100
AcDbEntity
  8
0
100
AcDbVertex
100
AcDbPolygonMeshVertex
 10
1431.064363095981
 20
-176.1633784202346
 30
-265.4797379663719
 70
    64
  0
VERTEX
  5
96C8
330
96BF
100
AcDbEntity
  8
0
100
AcDbVertex
100
AcDbPolygonMeshVertex
 10
1431.064363095981
 20
-178.7033784202345
 30
-265.4797379663719
 70
    64
  0
VERTEX
  5
96C9
330
96BF
100
AcDbEntity
  8
0
100
AcDbVertex
100
AcDbPolygonMeshVertex
 10
1435.50936309598
 20
-176.1633784202346
 30
-265.225737966372
 70
    64
  0
VERTEX
  5
96CA
330
96BF
100
AcDbEntity
  8
0
100
AcDbVertex
100
AcDbPolygonMeshVertex
 10
1435.50936309598
 20
-176.1633784202346
 30
-265.4797379663719
 70
    64
  0
VERTEX
  5
96CB
330
96BF
100
AcDbEntity
  8
0
100
AcDbVertex
100
AcDbPolygonMeshVertex
 10
1435.50936309598
 20
-178.7033784202345
 30
-265.4797379663719
 70
    64
  0
VERTEX
  5
96CC
330
96BF
100
AcDbEntity
  8
0
100
AcDbVertex
100
AcDbPolygonMeshVertex
 10
1435.50936309598
 20
-176.1633784202346
 30
-265.225737966372
 70
    64
  0
VERTEX
  5
96CD
330
96BF
100
AcDbEntity
  8
0
100
AcDbVertex
100
AcDbPolygonMeshVertex
 10
1435.50936309598
 20
-176.1633784202346
 30
-265.225737966372
 70
    64
  0
VERTEX
  5
96CE
330
96BF
100
AcDbEntity
  8
0
100
AcDbVertex
100
AcDbPolygonMeshVertex
 10
1435.50936309598
 20
-178.7033784202345
 30
-265.225737966372
 70
    64
  0
VERTEX
  5
96CF
330
96BF
100
AcDbEntity
  8
0
100
AcDbVertex
100
AcDbPolygonMeshVertex
 10
1431.064363095981
 20
-176.1633784202346
 30
-265.225737966372
 70
    64
  0
VERTEX
  5
96D0
330
96BF
100
AcDbEntity
  8
0
100
AcDbVertex
100
AcDbPolygonMeshVertex
 10
1431.064363095981
 20
-176.1633784202346
 30
-265.225737966372
 70
    64
  0
VERTEX
  5
96D1
330
96BF
100
AcDbEntity
  8
0
100
AcDbVertex
100
AcDbPolygonMeshVertex
 10
1431.064363095981
 20
-178.7033784202345
 30
-265.225737966372
 70
    64
  0
SEQEND
  5
96D2
330
96BF
100
AcDbEntity
  8
0
  0
TEXT
  5
96D3
330
1F
100
AcDbEntity
  8
0
100
AcDbText
 10
1438.228814345566
 20
-179.061141639612
 30
-265.1070728852913
 40
3.174999999999999
  1
POWER
100
AcDbText
  0
3DFACE
  5
96D4
330
1F
100
AcDbEntity
  8
0
100
AcDbFace
 10
1456.197869433536
 20
-170.0101226137964
 30
-265.4797379663719
 11
1456.197869433536
 21
-170.0101226137964
 31
-275.004737966372
 12
1456.197869433536
 22
-170.0101226137964
 32
-265.4797379663719
 13
1456.197869433536
 23
-170.0101226137964
 33
-265.4797379663719
  0
DIMENSION
  5
96D5
330
1F
100
AcDbEntity
  8
AREA1
100
AcDbDimension
  2
*D0
 10
1467.267193527821
 20
-170.0101226137963
 30
-410.2597379663721
 11
1467.267193527821
 21
-239.860122613796
 31
-410.2597379663721
 70
    32
  3
ABECAD_3D
100
AcDbAlignedDimension
 13
1456.197869433536
 23
-309.7101226137962
 33
-410.2597379663721
 14
1456.197869433536
 24
-170.0101226137963
 34
-410.2597379663721
 50
90.0
100
AcDbRotatedDimension
  0
DIMENSION
  5
96D6
330
1F
100
AcDbEntity
  8
AREA1
100
AcDbDimension
  2
*D1
 10
1456.197869433536
 20
-160.4637261845894
 30
-410.2597379663721
 11
1400.317869433536
 21
-160.4637261845894
 31
-410.2597379663721
 70
    32
  3
ABECAD_3D
100
AcDbAlignedDimension
 13
1344.437869433536
 23
-180.1701226137962
 33
-410.2597379663721
 14
1456.197869433536
 24
-170.0101226137963
 34
-410.2597379663721
100
AcDbRotatedDimension
  0
POINT
  5
96D7
330
1F
100
AcDbEntity
  8
SNAP_POINTS
100
AcDbPoint
 10
1354.597869433535
 20
-170.0101226137964
 30
-410.2597379663721
  0
DIMENSION
  5
96D8
330
1F
100
AcDbEntity
  8
AREA2
100
AcDbDimension
  2
*D2
 10
1467.079276450204
 20
-170.0101226137963
 30
-410.2597379663721
 11
1467.079276450204
 21
-337.370088931197
 31
170.0101226137963
 70
   160
210
0.0
220
-1.0
230
0.0
  3
ABECAD_3D
100
AcDbAlignedDimension
 13
1453.976576547701
 23
-170.0101226137963
 33
-265.1065388327622
 14
1456.197869433536
 24
-170.0101226137964
 34
-410.2597379663721
 50
90.0
100
AcDbRotatedDimension
  0
LWPOLYLINE
  5
9749
330
1F
100
AcDbEntity
  8
SCALE
100
AcDbPolyline
 90
        4
 70
     1
 43
0.0
 38
-410.2597379663721
 10
1297.704245856441
 20
-181.1568412430769
 10
1326.549217872807
 20
-181.1568412430769
 10
1326.549217872807
 20
-202.5337242392384
 10
1297.704245856441
 20
-202.5337242392384
  0
LWPOLYLINE
  5
974A
330
1F
100
AcDbEntity
  8
0
100
AcDbPolyline
 90
        3
 70
     0
 43
0.0
 38
-265.4797379663721
 10
1354.597869433535
 20
-190.0981823091356
 42
-0.0620152200008424
 10
1411.016711521735
 20
-197.1263215281356
 42
0.0641880030417005
 10
1456.198947137581
 20
-201.8117481064091
  0
LWPOLYLINE
  5
974B
330
1F
100
AcDbEntity
  8
0
100
AcDbPolyline
 90
        3
 70
     0
 43
0.0
 38
-265.4797379663721
 10
1354.597869433535
 20
-192.1301823091358
 42
-0.0620152200008424
 10
1411.016711521735
 20
-199.1583215281358
 42
0.0641880030417005
 10
1456.198947137581
 20
-203.8437481064093
  0
VIEWPORT
  5
9C
102
{ACAD_XDICTIONARY
360
9786
102
}
330
89
100
AcDbEntity
 67
     1
  8
0
100
AcDbViewport
 10
5.645192265992928
 20
4.039352871279092
 30
0.0
 40
14.90626351446195
 41
8.145067066257723
 68
     1
 69
     1
1001
ACAD
1000
MVIEW
1002
{
1070
    16
1010
0.0
1020
0.0
1030
0.0
1010
0.0
1020
0.0
1030
1.0
1040
0.0
1040
8.145067066257723
1040
5.645192265992928
1040
4.039352871279092
1040
50.0
1040
0.0
1040
0.0
1070
     0
1070
  1000
1070
     1
1070
     1
1070
     0
1070
     0
1070
     0
1070
     0
1040
0.0
1040
0.0
1040
0.0
1040
0.5
1040
0.5
1040
0.5
1040
0.5
1070
     0
1002
{
1002
}
1002
}
  0
VIEWPORT
  5
960
102
{ACAD_XDICTIONARY
360
9788
102
}
330
89
100
AcDbEntity
 67
     1
  8
0
100
AcDbViewport
 10
2.655279694450206
 20
5.934819244257328
 30
0.0
 40
5.265273537481815
 41
4.279636755670847
 68
     2
 69
     2
1001
ACAD
1000
MVIEW
1002
{
1070
    16
1010
0.0
1020
0.0
1030
0.0
1010
0.0
1020
0.0
1030
1.0
1040
0.0
1040
173.9274868175538
1040
1401.35665222352
1040
-237.6392279149551
1040
50.0
1040
0.0
1040
0.0
1070
     0
1070
  1000
1070
     1
1070
     2
1070
     0
1070
     0
1070
     0
1070
     0
1040
0.0
1040
0.0
1040
0.0
1040
0.5
1040
0.5
1040
0.5
1040
0.5
1070
     0
1002
{
1003
AREA2
1002
}
1002
}
  0
VIEWPORT
  5
962
102
{ACAD_XDICTIONARY
360
978A
102
}
330
89
100
AcDbEntity
 67
     1
  8
0
100
AcDbViewport
 10
2.655279694450205
 20
1.899534493443668
 30
0.0
 40
5.265273537481814
 41
3.790932745956471
 68
     3
 69
     3
1001
ACAD
1000
MVIEW
1002
{
1070
    16
1010
0.0
1020
0.0
1030
0.0
1010
0.0
1020
-1.0
1030
0.0
1040
0.0
1040
158.3896367936836
1040
1401.619544100227
1040
-336.9291245672722
1040
50.0
1040
0.0
1040
0.0
1070
     0
1070
  1000
1070
     1
1070
     2
1070
     0
1070
     0
1070
     0
1070
     0
1040
0.0
1040
0.0
1040
0.0
1040
0.5
1040
0.5
1040
0.5
1040
0.5
1070
     0
1002
{
1003
AREA1
1002
}
1002
}
  0
VIEWPORT
  5
964
102
{ACAD_XDICTIONARY
360
978C
102
}
330
89
100
AcDbEntity
 67
     1
  8
0
100
AcDbViewport
 10
7.921824282077194
 20
3.630944076967782
 30
0.0
 40
5.26781563777216
 41
7.253751913004698
 68
     4
 69
     4
1001
ACAD
1000
MVIEW
1002
{
1070
    16
1010
0.0
1020
0.0
1030
0.0
1010
1.0
1020
-1.0
1030
1.0
1040
0.0
1040
403.7136706882681
1040
812.1989418517129
1040
-859.9885938407625
1040
50.0
1040
0.0
1040
0.0
1070
     0
1070
  1000
1070
     1
1070
     2
1070
     0
1070
     0
1070
     0
1070
     0
1040
0.0
1040
0.0
1040
0.0
1040
0.5
1040
0.5
1040
0.5
1040
0.5
1070
     0
1002
{
1003
AREA1
1003
AREA2
1002
}
1002
}
  0
TEXT
  5
965
330
89
100
AcDbEntity
 67
     1
  8
0
100
AcDbText
 10
5.478669782259466
 20
7.727515017556658
 30
0.0
 40
0.203125
  1
1756-P*7*
100
AcDbText
  0
TEXT
  5
966
330
89
100
AcDbEntity
 67
     1
  8
0
100
AcDbText
 10
5.478669782259466
 20
7.394181684223325
 30
0.0
 40
0.203125
  1
ControlLogix Power Supply
100
AcDbText
  0
TEXT
  5
344A
330
89
100
AcDbEntity
 67
     1
  8
0
100
AcDbText
 10
5.479838180965032
 20
7.031294393421783
 30
0.0
 40
0.203125
  1

100
AcDbText
  0
TEXT
  5
4AF1
330
89
100
AcDbEntity
 67
     1
  8
0
100
AcDbText
 10
5.471696873791991
 20
7.086824167356024
 30
0.0
 40
0.203125
  1

100
AcDbText
  0
ENDSEC
  0
SECTION
  2
OBJECTS
  0
DICTIONARY
  5
C
330
0
100
AcDbDictionary
  3
ACAD_COLOR
350
73
  3
ACAD_GROUP
350
D
  3
ACAD_LAYOUT
350
1A
  3
ACAD_MATERIAL
350
72
  3
ACAD_MLINESTYLE
350
17
  3
ACAD_PLOTSETTINGS
350
19
  3
ACAD_PLOTSTYLENAME
350
E
  3
ACAD_TABLESTYLE
350
4B00
  3
ACDBHEADERROUNDTRIPXREC
350
9792
  3
ACDBVARIABLEDICTIONARY
350
66
  3
BNS_VARIABLES
350
6AFC
  0
DICTIONARY
  5
3D71
330
2
100
AcDbDictionary
280
     1
  3
ACAD_LAYERSTATES
360
3D72
  0
DICTIONARY
  5
4957
330
1F
100
AcDbDictionary
280
     1
  3
ACAD_LAYOUTSELFREF
360
97B2
  3
ACAD_SORTENTS
360
6B07
  0
DICTIONARY
  5
4959
330
89
100
AcDbDictionary
280
     1
  3
ACAD_LAYOUTSELFREF
360
97B3
  0
DICTIONARY
  5
9786
330
9C
100
AcDbDictionary
280
     1
  3
ACAD_XREC_ROUNDTRIP
360
9787
  0
DICTIONARY
  5
9788
330
960
100
AcDbDictionary
280
     1
  3
ACAD_XREC_ROUNDTRIP
360
9789
  0
DICTIONARY
  5
978A
330
962
100
AcDbDictionary
280
     1
  3
ACAD_XREC_ROUNDTRIP
360
978B
  0
DICTIONARY
  5
978C
330
964
100
AcDbDictionary
280
     1
  3
ACAD_XREC_ROUNDTRIP
360
978D
  0
DICTIONARY
  5
73
102
{ACAD_REACTORS
330
C
102
}
330
C
100
AcDbDictionary
  0
DICTIONARY
  5
D
102
{ACAD_REACTORS
330
C
102
}
330
C
100
AcDbDictionary
  0
DICTIONARY
  5
1A
102
{ACAD_REACTORS
330
C
102
}
330
C
100
AcDbDictionary
  0
DICTIONARY
  5
72
102
{ACAD_REACTORS
330
C
102
}
330
C
100
AcDbDictionary
  0
DICTIONARY
  5
17
102
{ACAD_REACTORS
330
C
102
}
330
C
100
AcDbDictionary
  3
STANDARD
350
18
  0
DICTIONARY
  5
19
102
{ACAD_REACTORS
330
C
102
}
330
C
100
AcDbDictionary
  0
ACDBDICTIONARYWDFLT
  5
E
102
{ACAD_REACTORS
330
C
102
}
330
C
100
AcDbDictionary
281
     1
  3
Normal
350
F
100
AcDbDictionaryWithDefault
340
F
  0
DICTIONARY
  5
4B00
102
{ACAD_REACTORS
330
C
102
}
330
C
100
AcDbDictionary
  3
STANDARD
350
4B01
  0
DICTIONARY
  5
9792
102
{ACAD_REACTORS
330
C
102
}
330
C
100
AcDbDictionary
  3
CEPSNTYPE
350
979C
  3
FINGERPRINTGUID
350
979D
  3
HYPERLINKBASE
350
9795
  3
INSUNITS
350
979B
  3
LAYOUTDICT
350
9797
  3
LWETCUNION
350
979A
  3
PLOTSETDICT
350
9798
  3
PLOTSTYLNAMDICT
350
9799
  3
PSVPSCALE
350
979F
  3
PUCSBASE
350
97A2
  3
PUCSORGBACK
350
97A8
  3
PUCSORGBOTTOM
350
97A4
  3
PUCSORGFRONT
350
97A7
  3
PUCSORGLEFT
350
97A5
  3
PUCSORGRIGHT
350
97A6
  3
PUCSORGTOP
350
97A3
  3
PUCSORTHOREF
350
97A0
  3
PUCSORTHOVIEW
350
97A1
  3
STYLESHEET
350
9796
  3
TSTACKALIGN
350
9793
  3
TSTACKSIZE
350
9794
  3
UCSBASE
350
97AB
  3
UCSORGBACK
350
97B1
  3
UCSORGBOTTOM
350
97AD
  3
UCSORGFRONT
350
97B0
  3
UCSORGLEFT
350
97AE
  3
UCSORGRIGHT
350
97AF
  3
UCSORGTOP
350
97AC
  3
UCSORTHOREF
350
97A9
  3
UCSORTHOVIEW
350
97AA
  3
VERSIONGUID
350
979E
  0
DICTIONARY
  5
66
102
{ACAD_REACTORS
330
C
102
}
330
C
100
AcDbDictionary
  3
CTABLESTYLE
350
6B11
  3
DIMASSOC
350
67
  3
HIDETEXT
350
6B
  3
PROJECTNAME
350
4955
  0
DICTIONARY
  5
6AFC
102
{ACAD_REACTORS
330
C
102
}
330
C
100
AcDbDictionary
  3
ACET-OVERKILL-FUZZ
350
9775
  3
ACET-OVERKILL-NO-ENDTOEND
350
9778
  3
ACET-OVERKILL-NO-PARTIAL
350
9777
  3
ACET-OVERKILL-NO-PLINES
350
9776
  0
DICTIONARY
  5
3D72
102
{ACAD_REACTORS
330
3D71
102
}
330
3D71
100
AcDbDictionary
  0
XRECORD
  5
97B2
102
{ACAD_REACTORS
330
4957
102
}
330
4957
100
AcDbXrecord
340
1F
  0
SORTENTSTABLE
  5
6B07
102
{ACAD_REACTORS
330
4957
102
}
330
4957
100
AcDbSortentsTable
330
1F
331
9648
  5
9652
331
96D6
  5
9749
331
96D4
  5
9747
331
96D8
  5
974B
331
9684
  5
96A1
331
969F
  5
96D7
331
9657
  5
969A
331
969D
  5
96BC
331
9655
  5
9698
331
969B
  5
96BA
331
9647
  5
9651
331
9699
  5
96B8
331
9653
  5
9670
331
9651
  5
966E
331
96BE
  5
9744
331
9670
  5
96A0
331
974A
  5
9727
331
96A1
  5
9724
331
966E
  5
969E
331
964F
  5
966C
331
96BC
  5
9742
331
966C
  5
969C
331
964D
  5
9657
331
96BA
  5
972E
331
96B8
  5
972C
331
964B
  5
9655
331
9649
  5
9653
331
96D7
  5
974A
331
96D5
  5
9748
331
96D3
  5
9746
331
969E
  5
96D6
331
9656
  5
9699
331
969C
  5
96BB
331
969A
  5
96B9
331
9654
  5
9684
331
9698
  5
96A2
331
96BF
  5
9745
331
9646
  5
9650
331
9652
  5
966F
331
96A2
  5
9725
331
9650
  5
966D
331
974B
  5
972A
331
96BD
  5
9743
331
9644
  5
9644
331
966F
  5
969F
331
9749
  5
964C
331
966D
  5
969D
331
964E
  5
966B
331
96A0
  5
96D8
331
96BB
  5
9741
331
966B
  5
969B
331
964C
  5
9656
331
96B9
  5
972D
331
964A
  5
9654
  0
XRECORD
  5
97B3
102
{ACAD_REACTORS
330
4959
102
}
330
4959
100
AcDbXrecord
340
89
  0
XRECORD
  5
9787
102
{ACAD_REACTORS
330
9786
102
}
330
9786
100
AcDbXrecord
102
SHADEPLOT
 70
     0
  0
XRECORD
  5
9789
102
{ACAD_REACTORS
330
9788
102
}
330
9788
100
AcDbXrecord
102
SHADEPLOT
 70
     0
  0
XRECORD
  5
978B
102
{ACAD_REACTORS
330
978A
102
}
330
978A
100
AcDbXrecord
102
SHADEPLOT
 70
     0
  0
XRECORD
  5
978D
102
{ACAD_REACTORS
330
978C
102
}
330
978C
100
AcDbXrecord
102
SHADEPLOT
 70
     0
  0
MLINESTYLE
  5
18
102
{ACAD_REACTORS
330
17
102
}
330
17
100
AcDbMlineStyle
  2
STANDARD
 70
     0
  3

 62
   256
 51
90.0
 52
90.0
 71
     2
 49
0.5
 62
   256
  6
BYLAYER
 49
-0.5
 62
   256
  6
BYLAYER
  0
ACDBPLACEHOLDER
  5
F
102
{ACAD_REACTORS
330
E
102
}
330
E
100
AcDbPlaceHolder
280
     0
  0
ACAD_PROXY_OBJECT
  5
4B01
102
{ACAD_REACTORS
330
4B00
102
}
330
4B00
100
AcDbProxyObject
 90
      499
 91
      508
 93
     1841
310
4214DD185B99185C9928B81E85EB51B8AE3F2E07A17AD46E2B8FC02B5E8DC0F42B1CFD028000000C1008070000C3001FDFF8000000C1003FBFF000000182007F7FE00000030400FEFFC00000060801FDFF8000000C1003FBFF00000018200000000000000681FA0B0000001820100E000186003FBFF000000182007F7FE000
310
00030400FEFFC00000060801FDFF8000000C1003FBFF000000182007F7FE000000304000AD7A3703D0AC73F4160000003040201C00030C007F7FE00000030400FEFFC00000060801FDFF8000000C1003FBFF000000182007F7FE00000030400FEFFC000000608000
340
11
340
11
340
11
 94
        0
1001
ACAD
1000
AcRTDxfName
1000
TABLESTYLE
1000
AcRTDxfName
1000
TABLESTYLE
1000
AcadProxyRoundTripData
1071
      506
1071
  2555929
1070
     0
  0
XRECORD
  5
979C
102
{ACAD_REACTORS
330
9792
102
}
330
9792
100
AcDbXrecord
 90
        0
  0
XRECORD
  5
979D
102
{ACAD_REACTORS
330
9792
102
}
330
9792
100
AcDbXrecord
  1
{FDEAD576-A652-11D2-9A35-0060089B3A3F}
  0
XRECORD
  5
9795
102
{ACAD_REACTORS
330
9792
102
}
330
9792
100
AcDbXrecord
  1

  0
XRECORD
  5
979B
102
{ACAD_REACTORS
330
9792
102
}
330
9792
100
AcDbXrecord
 90
        1
  0
XRECORD
  5
9797
102
{ACAD_REACTORS
330
9792
102
}
330
9792
100
AcDbXrecord
340
1A
  0
XRECORD
  5
979A
102
{ACAD_REACTORS
330
9792
102
}
330
9792
100
AcDbXrecord
 90
    10781
  0
XRECORD
  5
9798
102
{ACAD_REACTORS
330
9792
102
}
330
9792
100
AcDbXrecord
340
19
  0
XRECORD
  5
9799
102
{ACAD_REACTORS
330
9792
102
}
330
9792
100
AcDbXrecord
340
E
  0
XRECORD
  5
979F
102
{ACAD_REACTORS
330
9792
102
}
330
9792
100
AcDbXrecord
 40
0.0
  0
XRECORD
  5
97A2
102
{ACAD_REACTORS
330
9792
102
}
330
9792
100
AcDbXrecord
340
0
  0
XRECORD
  5
97A8
102
{ACAD_REACTORS
330
9792
102
}
330
9792
100
AcDbXrecord
 10
0.0
 20
0.0
 30
0.0
  0
XRECORD
  5
97A4
102
{ACAD_REACTORS
330
9792
102
}
330
9792
100
AcDbXrecord
 10
0.0
 20
0.0
 30
0.0
  0
XRECORD
  5
97A7
102
{ACAD_REACTORS
330
9792
102
}
330
9792
100
AcDbXrecord
 10
0.0
 20
0.0
 30
0.0
  0
XRECORD
  5
97A5
102
{ACAD_REACTORS
330
9792
102
}
330
9792
100
AcDbXrecord
 10
0.0
 20
0.0
 30
0.0
  0
XRECORD
  5
97A6
102
{ACAD_REACTORS
330
9792
102
}
330
9792
100
AcDbXrecord
 10
0.0
 20
0.0
 30
0.0
  0
XRECORD
  5
97A3
102
{ACAD_REACTORS
330
9792
102
}
330
9792
100
AcDbXrecord
 10
0.0
 20
0.0
 30
0.0
  0
XRECORD
  5
97A0
102
{ACAD_REACTORS
330
9792
102
}
330
9792
100
AcDbXrecord
340
0
  0
XRECORD
  5
97A1
102
{ACAD_REACTORS
330
9792
102
}
330
9792
100
AcDbXrecord
 70
     0
  0
XRECORD
  5
9796
102
{ACAD_REACTORS
330
9792
102
}
330
9792
100
AcDbXrecord
  1

  0
XRECORD
  5
9793
102
{ACAD_REACTORS
330
9792
102
}
330
9792
100
AcDbXrecord
 90
        1
  0
XRECORD
  5
9794
102
{ACAD_REACTORS
330
9792
102
}
330
9792
100
AcDbXrecord
 90
       70
  0
XRECORD
  5
97AB
102
{ACAD_REACTORS
330
9792
102
}
330
9792
100
AcDbXrecord
340
0
  0
XRECORD
  5
97B1
102
{ACAD_REACTORS
330
9792
102
}
330
9792
100
AcDbXrecord
 10
0.0
 20
0.0
 30
0.0
  0
XRECORD
  5
97AD
102
{ACAD_REACTORS
330
9792
102
}
330
9792
100
AcDbXrecord
 10
0.0
 20
0.0
 30
0.0
  0
XRECORD
  5
97B0
102
{ACAD_REACTORS
330
9792
102
}
330
9792
100
AcDbXrecord
 10
0.0
 20
0.0
 30
0.0
  0
XRECORD
  5
97AE
102
{ACAD_REACTORS
330
9792
102
}
330
9792
100
AcDbXrecord
 10
0.0
 20
0.0
 30
0.0
  0
XRECORD
  5
97AF
102
{ACAD_REACTORS
330
9792
102
}
330
9792
100
AcDbXrecord
 10
0.0
 20
0.0
 30
0.0
  0
XRECORD
  5
97AC
102
{ACAD_REACTORS
330
9792
102
}
330
9792
100
AcDbXrecord
 10
1354.597869433535
 20
-170.0101226137964
 30
-410.2597379663721
  0
XRECORD
  5
97A9
102
{ACAD_REACTORS
330
9792
102
}
330
9792
100
AcDbXrecord
340
0
  0
XRECORD
  5
97AA
102
{ACAD_REACTORS
330
9792
102
}
330
9792
100
AcDbXrecord
 70
     3
  0
XRECORD
  5
979E
102
{ACAD_REACTORS
330
9792
102
}
330
9792
100
AcDbXrecord
  1
{FE7C7F91-7B58-4B93-B086-F2062FFA6CEE}
  0
DICTIONARYVAR
  5
6B11
102
{ACAD_REACTORS
330
66
102
}
330
66
100
DictionaryVariables
280
     0
  1
STANDARD
  0
DICTIONARYVAR
  5
67
102
{ACAD_REACTORS
330
66
102
}
330
66
100
DictionaryVariables
280
     0
  1
2
  0
DICTIONARYVAR
  5
6B
102
{ACAD_REACTORS
330
66
102
}
330
66
100
DictionaryVariables
280
     0
  1
1
  0
DICTIONARYVAR
  5
4955
102
{ACAD_REACTORS
330
66
102
}
330
66
100
DictionaryVariables
280
     0
  1

  0
XRECORD
  5
9775
102
{ACAD_REACTORS
330
6AFC
102
}
330
6AFC
100
AcDbXrecord
 40
0.000001
  0
XRECORD
  5
9778
102
{ACAD_REACTORS
330
6AFC
102
}
330
6AFC
100
AcDbXrecord
 70
     0
  0
XRECORD
  5
9777
102
{ACAD_REACTORS
330
6AFC
102
}
330
6AFC
100
AcDbXrecord
 70
     0
  0
XRECORD
  5
9776
102
{ACAD_REACTORS
330
6AFC
102
}
330
6AFC
100
AcDbXrecord
 70
     0
  0
ENDSEC
  0
EOF
