  0
SECTION
  2
HEADER
  9
$ACADVER
  1
AC1014
  9
$ACADMAINTVER
 70
     8
  9
$DWGCODEPAGE
  3
ANSI_1252
  9
$INSBASE
 10
0.0
 20
0.0
 30
0.0
  9
$EXTMIN
 10
-0.063645
 20
-5.139339
 30
0.0
  9
$EXTMAX
 10
3.793
 20
0.8923
 30
0.612
  9
$LIMMIN
 10
0.0
 20
0.0
  9
$LIMMAX
 10
12.0
 20
9.0
  9
$ORTHOMODE
 70
     0
  9
$REGENMODE
 70
     1
  9
$FILLMODE
 70
     1
  9
$QTEXTMODE
 70
     0
  9
$MIRRTEXT
 70
     1
  9
$DRAGMODE
 70
     2
  9
$LTSCALE
 40
1.0
  9
$OSMODE
 70
    37
  9
$ATTMODE
 70
     1
  9
$TEXTSIZE
 40
0.12
  9
$TRACEWID
 40
0.05
  9
$TEXTSTYLE
  7
STANDARD
  9
$CLAYER
  8
0
  9
$CELTYPE
  6
BYLAYER
  9
$CECOLOR
 62
   256
  9
$CELTSCALE
 40
1.0
  9
$DELOBJ
 70
     1
  9
$DISPSILH
 70
     0
  9
$DIMSCALE
 40
1.0
  9
$DIMASZ
 40
0.18
  9
$DIMEXO
 40
0.0625
  9
$DIMDLI
 40
0.375
  9
$DIMRND
 40
0.0
  9
$DIMDLE
 40
0.0
  9
$DIMEXE
 40
0.18
  9
$DIMTP
 40
0.0
  9
$DIMTM
 40
0.0
  9
$DIMTXT
 40
0.18
  9
$DIMCEN
 40
0.09
  9
$DIMTSZ
 40
0.0
  9
$DIMTOL
 70
     0
  9
$DIMLIM
 70
     0
  9
$DIMTIH
 70
     0
  9
$DIMTOH
 70
     1
  9
$DIMSE1
 70
     0
  9
$DIMSE2
 70
     0
  9
$DIMTAD
 70
     0
  9
$DIMZIN
 70
     4
  9
$DIMBLK
  1

  9
$DIMASO
 70
     1
  9
$DIMSHO
 70
     1
  9
$DIMPOST
  1

  9
$DIMAPOST
  1

  9
$DIMALT
 70
     1
  9
$DIMALTD
 70
     1
  9
$DIMALTF
 40
25.4
  9
$DIMLFAC
 40
1.0
  9
$DIMTOFL
 70
     0
  9
$DIMTVP
 40
0.0
  9
$DIMTIX
 70
     0
  9
$DIMSOXD
 70
     0
  9
$DIMSAH
 70
     0
  9
$DIMBLK1
  1

  9
$DIMBLK2
  1

  9
$DIMSTYLE
  2
ABECAD_3D
  9
$DIMCLRD
 70
     0
  9
$DIMCLRE
 70
     0
  9
$DIMCLRT
 70
     0
  9
$DIMTFAC
 40
1.5
  9
$DIMGAP
 40
0.09
  9
$DIMJUST
 70
     0
  9
$DIMSD1
 70
     0
  9
$DIMSD2
 70
     0
  9
$DIMTOLJ
 70
     1
  9
$DIMTZIN
 70
     4
  9
$DIMALTZ
 70
     4
  9
$DIMALTTZ
 70
     4
  9
$DIMFIT
 70
     3
  9
$DIMUPT
 70
     0
  9
$DIMUNIT
 70
     7
  9
$DIMDEC
 70
     6
  9
$DIMTDEC
 70
     6
  9
$DIMALTU
 70
     2
  9
$DIMALTTD
 70
     1
  9
$DIMTXSTY
  7
STANDARD
  9
$DIMAUNIT
 70
     0
  9
$LUNITS
 70
     2
  9
$LUPREC
 70
     4
  9
$SKETCHINC
 40
0.1
  9
$FILLETRAD
 40
0.0
  9
$AUNITS
 70
     0
  9
$AUPREC
 70
     0
  9
$MENU
  1
ACAD
  9
$ELEVATION
 40
0.0
  9
$PELEVATION
 40
0.0
  9
$THICKNESS
 40
0.0
  9
$LIMCHECK
 70
     0
  9
$BLIPMODE
 70
     0
  9
$CHAMFERA
 40
0.0
  9
$CHAMFERB
 40
0.0
  9
$CHAMFERC
 40
0.0
  9
$CHAMFERD
 40
0.0
  9
$SKPOLY
 70
     0
  9
$TDCREATE
 40
2451737.737590162
  9
$TDUPDATE
 40
2452010.484138889
  9
$TDINDWG
 40
0.0053781250
  9
$TDUSRTIMER
 40
0.0053730324
  9
$USRTIMER
 70
     1
  9
$ANGBASE
 50
0.0
  9
$ANGDIR
 70
     0
  9
$PDMODE
 70
     3
  9
$PDSIZE
 40
0.09
  9
$PLINEWID
 40
0.0
  9
$COORDS
 70
     1
  9
$SPLFRAME
 70
     1
  9
$SPLINETYPE
 70
     6
  9
$SPLINESEGS
 70
     8
  9
$ATTDIA
 70
     0
  9
$ATTREQ
 70
     1
  9
$HANDLING
 70
     1
  9
$HANDSEED
  5
45A8C
  9
$SURFTAB1
 70
     6
  9
$SURFTAB2
 70
     6
  9
$SURFTYPE
 70
     6
  9
$SURFU
 70
     6
  9
$SURFV
 70
     6
  9
$UCSNAME
  2

  9
$UCSORG
 10
0.0
 20
0.0
 30
0.0
  9
$UCSXDIR
 10
1.0
 20
0.0
 30
0.0
  9
$UCSYDIR
 10
0.0
 20
1.0
 30
0.0
  9
$PUCSNAME
  2

  9
$PUCSORG
 10
0.0
 20
0.0
 30
0.0
  9
$PUCSXDIR
 10
1.0
 20
0.0
 30
0.0
  9
$PUCSYDIR
 10
0.0
 20
1.0
 30
0.0
  9
$USERI1
 70
     0
  9
$USERI2
 70
     0
  9
$USERI3
 70
     0
  9
$USERI4
 70
     0
  9
$USERI5
 70
     0
  9
$USERR1
 40
0.0
  9
$USERR2
 40
0.0
  9
$USERR3
 40
0.0
  9
$USERR4
 40
0.0
  9
$USERR5
 40
0.0
  9
$WORLDVIEW
 70
     1
  9
$SHADEDGE
 70
     3
  9
$SHADEDIF
 70
    70
  9
$TILEMODE
 70
     1
  9
$MAXACTVP
 70
    16
  9
$PINSBASE
 10
0.0
 20
0.0
 30
0.0
  9
$PLIMCHECK
 70
     0
  9
$PEXTMIN
 10
1.000000E+20
 20
1.000000E+20
 30
1.000000E+20
  9
$PEXTMAX
 10
-1.000000E+20
 20
-1.000000E+20
 30
-1.000000E+20
  9
$PLIMMIN
 10
0.0
 20
0.0
  9
$PLIMMAX
 10
12.0
 20
9.0
  9
$UNITMODE
 70
     0
  9
$VISRETAIN
 70
     0
  9
$PLINEGEN
 70
     0
  9
$PSLTSCALE
 70
     1
  9
$TREEDEPTH
 70
  3020
  9
$PICKSTYLE
 70
     1
  9
$CMLSTYLE
  2
STANDARD
  9
$CMLJUST
 70
     0
  9
$CMLSCALE
 40
1.0
  9
$PROXYGRAPHICS
 70
     1
  9
$MEASUREMENT
 70
     0
  0
ENDSEC
  0
SECTION
  2
CLASSES
  0
CLASS
  1
DICTIONARYVAR
  2
AcDbDictionaryVar
  3
"AutoCAD"
 90
        0
280
     0
281
     0
  0
CLASS
  1
ACDBDICTIONARYWDFLT
  2
AcDbDictionaryWithDefault
  3
AutoCAD 2000
 90
        0
280
     0
281
     0
  0
CLASS
  1
ACDBPLACEHOLDER
  2
AcDbPlaceHolder
  3
AutoCAD 2000
 90
        0
280
     0
281
     0
  0
CLASS
  1
LAYOUT
  2
AcDbLayout
  3
AutoCAD 2000
 90
        0
280
     0
281
     0
  0
CLASS
  1
LONG_TRANSACTION
  2
AcDbLongTransaction
  3
AutoCAD 2000
 90
        0
280
     0
281
     0
  0
CLASS
  1
LWPOLYLINE
  2
AcDbPolyline
  3
"AutoCAD"
 90
        0
280
     0
281
     1
  0
CLASS
  1
HATCH
  2
AcDbHatch
  3
"ACAD_SEDONA"
 90
        0
280
     0
281
     1
  0
CLASS
  1
XRECORD
  2
AcDbXrecord
  3
"<Built In>"
 90
        0
280
     0
281
     0
  0
CLASS
  1
LONG_TRANSACTION
  2
AcDbLongTransaction
  3
AutoCAD 2000
 90
        0
280
     0
281
     0
  0
CLASS
  1
LWPOLYLINE
  2
AcDbPolyline
  3
"AutoCAD"
 90
        0
280
     0
281
     1
  0
CLASS
  1
HATCH
  2
AcDbHatch
  3
"ACAD_SEDONA"
 90
        0
280
     0
281
     1
  0
CLASS
  1
XRECORD
  2
AcDbXrecord
  3
"<Built In>"
 90
        0
280
     0
281
     0
  0
CLASS
  1
LONG_TRANSACTION
  2
AcDbLongTransaction
  3
AutoCAD 2000
 90
        0
280
     0
281
     0
  0
CLASS
  1
LWPOLYLINE
  2
AcDbPolyline
  3
"AutoCAD"
 90
        0
280
     0
281
     1
  0
CLASS
  1
HATCH
  2
AcDbHatch
  3
"ACAD_SEDONA"
 90
        0
280
     0
281
     1
  0
CLASS
  1
XRECORD
  2
AcDbXrecord
  3
"<Built In>"
 90
        0
280
     0
281
     0
  0
CLASS
  1
LONG_TRANSACTION
  2
AcDbLongTransaction
  3
AutoCAD 2000
 90
        0
280
     0
281
     0
  0
CLASS
  1
LWPOLYLINE
  2
AcDbPolyline
  3
"AutoCAD"
 90
        0
280
     0
281
     1
  0
CLASS
  1
HATCH
  2
AcDbHatch
  3
"ACAD_SEDONA"
 90
        0
280
     0
281
     1
  0
CLASS
  1
XRECORD
  2
AcDbXrecord
  3
"<Built In>"
 90
        0
280
     0
281
     0
  0
ENDSEC
  0
SECTION
  2
TABLES
  0
TABLE
  2
VPORT
  5
458C7
100
AcDbSymbolTable
 70
     1
  0
VPORT
  5
45A57
102
{ACAD_XDICTIONARY
360
45A5C
102
}
100
AcDbSymbolTableRecord
100
AcDbViewportTableRecord
  2
*ACTIVE
 70
     0
 10
0.0
 20
0.0
 11
1.0
 21
1.0
 12
1.86465
 22
-2.123597
 13
0.0
 23
0.0
 14
0.25
 24
0.25
 15
0.25
 25
0.25
 16
0.0
 26
0.0
 36
1.0
 17
0.0
 27
0.0
 37
0.0
 40
6.133731
 41
1.960674
 42
50.0
 43
0.0
 44
0.0
 50
0.0
 51
0.0
 71
     0
 72
 20000
 73
     1
 74
     1
 75
     0
 76
     0
 77
     0
 78
     0
  0
ENDTAB
  0
TABLE
  2
LTYPE
  5
458C4
100
AcDbSymbolTable
 70
     1
  0
LTYPE
  5
458D0
100
AcDbSymbolTableRecord
100
AcDbLinetypeTableRecord
  2
BYBLOCK
 70
     0
  3

 72
    65
 73
     0
 40
0.0
  0
LTYPE
  5
458D1
100
AcDbSymbolTableRecord
100
AcDbLinetypeTableRecord
  2
BYLAYER
 70
     0
  3

 72
    65
 73
     0
 40
0.0
  0
LTYPE
  5
458D2
100
AcDbSymbolTableRecord
100
AcDbLinetypeTableRecord
  2
CONTINUOUS
 70
     0
  3
Solid line
 72
    65
 73
     0
 40
0.0
  0
ENDTAB
  0
TABLE
  2
LAYER
  5
458C1
100
AcDbSymbolTable
 70
     7
  0
LAYER
  5
458CD
100
AcDbSymbolTableRecord
100
AcDbLayerTableRecord
  2
0
 70
     0
 62
     7
  6
CONTINUOUS
  0
LAYER
  5
458EA
100
AcDbSymbolTableRecord
100
AcDbLayerTableRecord
  2
DIMS-MTG-HOLES
 70
     0
 62
     1
  6
CONTINUOUS
  0
LAYER
  5
458EB
100
AcDbSymbolTableRecord
100
AcDbLayerTableRecord
  2
ATTRIBUTES
 70
     0
 62
     7
  6
CONTINUOUS
  0
LAYER
  5
4593B
102
{ACAD_XDICTIONARY
360
45A87
102
}
100
AcDbSymbolTableRecord
100
AcDbLayerTableRecord
  2
AREA1
 70
     0
 62
    -7
  6
CONTINUOUS
  0
LAYER
  5
45940
102
{ACAD_XDICTIONARY
360
45A5A
102
}
100
AcDbSymbolTableRecord
100
AcDbLayerTableRecord
  2
DEFPOINTS
 70
     0
 62
    -7
  6
CONTINUOUS
  0
LAYER
  5
45954
100
AcDbSymbolTableRecord
100
AcDbLayerTableRecord
  2
SCALE
 70
     0
 62
    -7
  6
CONTINUOUS
  0
LAYER
  5
4597B
100
AcDbSymbolTableRecord
100
AcDbLayerTableRecord
  2
SNAP_POINTS
 70
     0
 62
    -1
  6
CONTINUOUS
  0
ENDTAB
  0
TABLE
  2
STYLE
  5
458C2
100
AcDbSymbolTable
 70
     1
  0
STYLE
  5
458CE
100
AcDbSymbolTableRecord
100
AcDbTextStyleTableRecord
  2
STANDARD
 70
     0
 40
0.0
 41
1.0
 50
0.0
 71
     0
 42
0.12
  3
txt
  4

  0
ENDTAB
  0
TABLE
  2
VIEW
  5
458C5
100
AcDbSymbolTable
 70
     0
  0
ENDTAB
  0
TABLE
  2
UCS
  5
458C6
100
AcDbSymbolTable
 70
     0
  0
ENDTAB
  0
TABLE
  2
APPID
  5
458C8
100
AcDbSymbolTable
 70
     1
  0
APPID
  5
458CF
100
AcDbSymbolTableRecord
100
AcDbRegAppTableRecord
  2
ACAD
 70
     0
  0
ENDTAB
  0
TABLE
  2
DIMSTYLE
  5
458C9
100
AcDbSymbolTable
 70
     2
  0
DIMSTYLE
105
458F1
102
{ACAD_XDICTIONARY
360
45A81
102
}
100
AcDbSymbolTableRecord
100
AcDbDimStyleTableRecord
  2
ABECAD
 70
     0
  3

  4

  5

  6

  7

 40
1.0
 41
0.18
 42
0.0625
 43
0.375
 44
0.18
 45
0.0
 46
0.0
 47
0.0
 48
0.0
140
0.18
141
0.09
142
0.0
143
25.4
144
1.0
145
0.0
146
1.5
147
0.09
 71
     0
 72
     0
 73
     0
 74
     1
 75
     0
 76
     0
 77
     0
 78
     4
170
     1
171
     1
172
     0
173
     0
174
     0
175
     0
176
     0
177
     0
178
     0
270
     7
271
     6
272
     6
273
     2
274
     1
340
458CE
275
     0
280
     0
281
     0
282
     0
283
     1
284
     4
285
     4
286
     4
287
     3
288
     0
  0
DIMSTYLE
105
458F6
102
{ACAD_XDICTIONARY
360
45A83
102
}
102
{ACAD_REACTORS
330
459CD
330
459DB
102
}
100
AcDbSymbolTableRecord
100
AcDbDimStyleTableRecord
  2
ABECAD_3D
 70
     0
  3

  4

  5

  6

  7

 40
1.0
 41
0.18
 42
0.0625
 43
0.375
 44
0.18
 45
0.0
 46
0.0
 47
0.0
 48
0.0
140
0.18
141
0.09
142
0.0
143
25.4
144
1.0
145
0.0
146
1.5
147
0.09
 71
     0
 72
     0
 73
     0
 74
     1
 75
     0
 76
     0
 77
     0
 78
     4
170
     1
171
     1
172
     0
173
     0
174
     0
175
     0
176
     0
177
     0
178
     0
270
     7
271
     6
272
     6
273
     2
274
     1
340
458CE
275
     0
280
     0
281
     0
282
     0
283
     1
284
     4
285
     4
286
     4
287
     3
288
     0
  0
ENDTAB
  0
TABLE
  2
BLOCK_RECORD
  5
458C0
100
AcDbSymbolTable
 70
     3
  0
BLOCK_RECORD
  5
458D6
102
{ACAD_XDICTIONARY
360
4592C
102
}
100
AcDbSymbolTableRecord
100
AcDbBlockTableRecord
  2
*MODEL_SPACE
  0
BLOCK_RECORD
  5
458D3
102
{ACAD_XDICTIONARY
360
4592A
102
}
100
AcDbSymbolTableRecord
100
AcDbBlockTableRecord
  2
*PAPER_SPACE
  0
BLOCK_RECORD
  5
45941
102
{ACAD_XDICTIONARY
360
45A58
102
}
100
AcDbSymbolTableRecord
100
AcDbBlockTableRecord
  2
SCALE
1001
ACAD
1000
DesignCenter Data
1002
{
1070
     1
1070
     1
1002
}
  0
BLOCK_RECORD
  5
459CE
100
AcDbSymbolTableRecord
100
AcDbBlockTableRecord
  2
*D1
  0
BLOCK_RECORD
  5
459DC
100
AcDbSymbolTableRecord
100
AcDbBlockTableRecord
  2
*D2
  0
ENDTAB
  0
ENDSEC
  0
SECTION
  2
BLOCKS
  0
BLOCK
  5
458DF
100
AcDbEntity
  8
0
100
AcDbBlockBegin
  2
*MODEL_SPACE
 70
     0
 10
0.0
 20
0.0
 30
0.0
  3
*MODEL_SPACE
  1

  0
ENDBLK
  5
458E0
100
AcDbEntity
  8
0
100
AcDbBlockEnd
  0
BLOCK
  5
458DD
100
AcDbEntity
 67
     1
  8
0
100
AcDbBlockBegin
  2
*PAPER_SPACE
 70
     0
 10
0.0
 20
0.0
 30
0.0
  3
*PAPER_SPACE
  1

  0
ENDBLK
  5
458DE
100
AcDbEntity
 67
     1
  8
0
100
AcDbBlockEnd
  0
BLOCK
  5
4594D
100
AcDbEntity
  8
0
100
AcDbBlockBegin
  2
SCALE
 70
     0
 10
0.0
 20
0.0
 30
0.0
  3
SCALE
  1

  0
LINE
  5
4596A
100
AcDbEntity
  8
SCALE
100
AcDbLine
 10
0.057999
 20
-0.380078
 30
0.0
 11
1.057999
 21
-0.380078
 31
0.0
  0
LWPOLYLINE
  5
4596B
100
AcDbEntity
  8
SCALE
100
AcDbPolyline
 90
        4
 70
     1
 43
0.0
 10
0.0
 20
0.0
 10
1.135629
 20
0.0
 10
1.135629
 20
-0.84161
 10
0.0
 20
-0.84161
  0
LINE
  5
4596C
100
AcDbEntity
  8
SCALE
100
AcDbLine
 10
0.057999
 20
-0.480078
 30
0.0
 11
0.057999
 21
-0.280078
 31
0.0
  0
TEXT
  5
4596D
100
AcDbEntity
  8
SCALE
100
AcDbText
 10
0.117421
 20
-0.634339
 30
0.0
 40
0.0625
  1
[10mm]
100
AcDbText
  0
LINE
  5
4596E
100
AcDbEntity
  8
SCALE
100
AcDbLine
 10
0.057999
 20
-0.680078
 30
0.0
 11
0.451699
 21
-0.680078
 31
0.0
  0
LINE
  5
4596F
100
AcDbEntity
  8
SCALE
100
AcDbLine
 10
0.057999
 20
-0.780078
 30
0.0
 11
0.057999
 21
-0.580078
 31
0.0
  0
LINE
  5
45970
100
AcDbEntity
  8
SCALE
100
AcDbLine
 10
0.451699
 20
-0.780078
 30
0.0
 11
0.451699
 21
-0.580078
 31
0.0
  0
TEXT
  5
45971
100
AcDbEntity
  8
SCALE
100
AcDbText
 10
0.059529
 20
-0.105201
 30
0.0
 40
0.0625
  1
SCALE:
100
AcDbText
  0
TEXT
  5
45972
100
AcDbEntity
  8
SCALE
100
AcDbText
 10
0.421282
 20
-0.31103
 30
0.0
 40
0.0625
  1
1 Inch
100
AcDbText
  0
LINE
  5
45973
100
AcDbEntity
  8
SCALE
100
AcDbLine
 10
1.057999
 20
-0.380078
 30
0.0
 11
1.057999
 21
-0.480078
 31
0.0
  0
LINE
  5
45974
100
AcDbEntity
  8
SCALE
100
AcDbLine
 10
1.057999
 20
-0.480078
 30
0.0
 11
1.057999
 21
-0.280078
 31
0.0
  0
ENDBLK
  5
4594E
100
AcDbEntity
  8
0
100
AcDbBlockEnd
  0
BLOCK
  5
459D9
100
AcDbEntity
  8
0
100
AcDbBlockBegin
  2
*D1
 70
     1
 10
0.0
 20
0.0
 30
0.0
  3
*D1
  1

  0
LINE
  5
459CF
100
AcDbEntity
  8
AREA1
 62
     0
100
AcDbLine
 10
1.4255
 20
-4.168
 30
0.0
 11
2.329847
 21
-4.168
 31
0.0
1001
ACAD
1000
RTLwPs
1070
   158
  0
LINE
  5
459D0
100
AcDbEntity
  8
AREA1
 62
     0
100
AcDbLine
 10
1.4255
 20
0.0
 30
0.0
 11
2.329847
 21
0.0
 31
0.0
1001
ACAD
1000
RTLwPs
1070
   158
  0
LINE
  5
459D1
100
AcDbEntity
  8
AREA1
 62
     0
100
AcDbLine
 10
2.149847
 20
-3.988
 30
0.0
 11
2.149847
 21
-3.269
 31
0.0
1001
ACAD
1000
RTLwPs
1070
   158
  0
LINE
  5
459D2
100
AcDbEntity
  8
AREA1
 62
     0
100
AcDbLine
 10
2.149847
 20
-0.18
 30
0.0
 11
2.149847
 21
-0.899
 31
0.0
1001
ACAD
1000
RTLwPs
1070
   158
  0
SOLID
  5
459D3
100
AcDbEntity
  8
AREA1
 62
     0
100
AcDbTrace
 10
2.119847
 20
-3.988
 30
0.0
 11
2.179847
 21
-3.988
 31
0.0
 12
2.149847
 22
-4.168
 32
0.0
 13
2.149847
 23
-4.168
 33
0.0
  0
SOLID
  5
459D4
100
AcDbEntity
  8
AREA1
 62
     0
100
AcDbTrace
 10
2.119847
 20
-0.18
 30
0.0
 11
2.179847
 21
-0.18
 31
0.0
 12
2.149847
 22
0.0
 32
0.0
 13
2.149847
 23
0.0
 33
0.0
  0
MTEXT
  5
459D5
100
AcDbEntity
  8
AREA1
 62
     0
100
AcDbMText
 10
2.149847
 20
-2.084
 30
0.0
 40
0.18
 41
0.0
 71
     5
 72
     1
  1
\A1;4 11/64 [105.9]
 11
0.0
 21
1.0
 31
0.0
1001
ACAD
1000
MTEXTBEGIN
1070
    73
1070
     1
1070
    44
1040
1.0
1070
    74
1070
     0
1000
MTEXTEND
1000
MTEXTBEGIN
1070
    73
1070
     1
1070
    44
1040
1.0
1070
    74
1070
     0
1000
MTEXTEND
1000
MTEXTBEGIN
1070
    73
1070
     1
1070
    44
1040
1.0
1070
    74
1070
     0
1000
MTEXTEND
  0
POINT
  5
459D6
100
AcDbEntity
  8
DEFPOINTS
 62
     0
100
AcDbPoint
 10
1.363
 20
-4.168
 30
0.0
  0
POINT
  5
459D7
100
AcDbEntity
  8
DEFPOINTS
 62
     0
100
AcDbPoint
 10
1.363
 20
0.0
 30
0.0
  0
POINT
  5
459D8
100
AcDbEntity
  8
DEFPOINTS
 62
     0
100
AcDbPoint
 10
2.149847
 20
0.0
 30
0.0
  0
ENDBLK
  5
459DA
100
AcDbEntity
  8
0
100
AcDbBlockEnd
  0
BLOCK
  5
459E7
100
AcDbEntity
  8
0
100
AcDbBlockBegin
  2
*D2
 70
     1
 10
0.0
 20
0.0
 30
0.0
  3
*D2
  1

  0
LINE
  5
459DD
100
AcDbEntity
  8
AREA1
 62
     0
100
AcDbLine
 10
0.0
 20
0.0625
 30
0.0
 11
0.0
 21
0.8923
 31
0.0
1001
ACAD
1000
RTLwPs
1070
   158
  0
LINE
  5
459DE
100
AcDbEntity
  8
AREA1
 62
     0
100
AcDbLine
 10
1.363
 20
0.0625
 30
0.0
 11
1.363
 21
0.8923
 31
0.0
1001
ACAD
1000
RTLwPs
1070
   158
  0
LINE
  5
459DF
100
AcDbEntity
  8
AREA1
 62
     0
100
AcDbLine
 10
0.18
 20
0.7123
 30
0.0
 11
1.183
 21
0.7123
 31
0.0
1001
ACAD
1000
RTLwPs
1070
   158
  0
LINE
  5
459E0
100
AcDbEntity
  8
AREA1
 62
     0
100
AcDbLine
 10
1.363
 20
0.7123
 30
0.0
 11
1.543
 21
0.7123
 31
0.0
1001
ACAD
1000
RTLwPs
1070
   158
  0
SOLID
  5
459E1
100
AcDbEntity
  8
AREA1
 62
     0
100
AcDbTrace
 10
0.18
 20
0.7423
 30
0.0
 11
0.18
 21
0.6823
 31
0.0
 12
0.0
 22
0.7123
 32
0.0
 13
0.0
 23
0.7123
 33
0.0
  0
SOLID
  5
459E2
100
AcDbEntity
  8
AREA1
 62
     0
100
AcDbTrace
 10
1.183
 20
0.7423
 30
0.0
 11
1.183
 21
0.6823
 31
0.0
 12
1.363
 22
0.7123
 32
0.0
 13
1.363
 23
0.7123
 33
0.0
  0
MTEXT
  5
459E3
100
AcDbEntity
  8
AREA1
 62
     0
100
AcDbMText
 10
2.713
 20
0.7123
 30
0.0
 40
0.18
 41
0.0
 71
     5
 72
     1
  1
\A1;1 23/64 [34.6]
1001
ACAD
1000
MTEXTBEGIN
1070
    73
1070
     1
1070
    44
1040
1.0
1070
    74
1070
     0
1000
MTEXTEND
1000
MTEXTBEGIN
1070
    73
1070
     1
1070
    44
1040
1.0
1070
    74
1070
     0
1000
MTEXTEND
1000
MTEXTBEGIN
1070
    73
1070
     1
1070
    44
1040
1.0
1070
    74
1070
     0
1000
MTEXTEND
  0
POINT
  5
459E4
100
AcDbEntity
  8
DEFPOINTS
 62
     0
100
AcDbPoint
 10
0.0
 20
0.0
 30
0.0
  0
POINT
  5
459E5
100
AcDbEntity
  8
DEFPOINTS
 62
     0
100
AcDbPoint
 10
1.363
 20
0.0
 30
0.0
  0
POINT
  5
459E6
100
AcDbEntity
  8
DEFPOINTS
 62
     0
100
AcDbPoint
 10
1.363
 20
0.7123
 30
0.0
  0
ENDBLK
  5
459E8
100
AcDbEntity
  8
0
100
AcDbBlockEnd
  0
ENDSEC
  0
SECTION
  2
ENTITIES
  0
ATTDEF
  5
1
100
AcDbEntity
  8
ATTRIBUTES
100
AcDbText
 10
0.090345
 20
-2.68328
 30
0.0
 40
0.084375
  1
ALLEN-BRADLEY
100
AcDbAttributeDefinition
  3
MANUFACTURER NAME?
  2
AC_VND_LABEL
 70
     1
  0
ATTDEF
  5
2
100
AcDbEntity
  8
ATTRIBUTES
100
AcDbText
 10
0.090345
 20
-2.859061
 30
0.0
 40
0.084375
  1
1756-TBE
100
AcDbAttributeDefinition
  3
CATALOG NUMBER?
  2
AC_PART_NO
 70
     1
  0
ATTDEF
  5
3
100
AcDbEntity
  8
ATTRIBUTES
100
AcDbText
 10
0.090345
 20
-3.034842
 30
0.0
 40
0.084375
  1
1756-TBE:EXTENDED TERMINAL BLOCK
100
AcDbAttributeDefinition
  3
PART DESCRIPTION?
  2
AC_DESCRIPTION
 70
     1
  0
ATTDEF
  5
4
100
AcDbEntity
  8
ATTRIBUTES
100
AcDbText
 10
0.090345
 20
-3.210623
 30
0.0
 40
0.084375
  1

100
AcDbAttributeDefinition
  3
DEVICE ID?
  2
DEVICE_ID
 70
     1
  0
ATTDEF
  5
5
100
AcDbEntity
  8
ATTRIBUTES
100
AcDbText
 10
0.090345
 20
-3.386405
 30
0.0
 40
0.084375
  1

100
AcDbAttributeDefinition
  3
CUSTOMER PART NUMBER?
  2
AC_CPART_NO
 70
     1
  0
ATTDEF
  5
6
100
AcDbEntity
  8
ATTRIBUTES
100
AcDbText
 10
0.090345
 20
-3.562186
 30
0.0
 40
0.084375
  1

100
AcDbAttributeDefinition
  3
CUSTOMER NOTE?
  2
AC_NOTE
 70
     1
  0
ATTDEF
  5
7
100
AcDbEntity
  8
ATTRIBUTES
100
AcDbText
 10
0.090345
 20
-3.737967
 30
0.0
 40
0.084375
  1

100
AcDbAttributeDefinition
  3
FASTENER DATA?
  2
FASTENER
 70
     1
  0
ATTDEF
  5
8
100
AcDbEntity
  8
ATTRIBUTES
100
AcDbText
 10
0.090345
 20
-3.913748
 30
0.0
 40
0.084375
  1
INCH
100
AcDbAttributeDefinition
  3
UNIT OF SCALE?
  2
AC_SCALE_UNIT
 70
     1
  0
ATTDEF
  5
9
100
AcDbEntity
  8
ATTRIBUTES
100
AcDbText
 10
0.090345
 20
-4.08953
 30
0.0
 40
0.084375
  1
0
100
AcDbAttributeDefinition
  3
VIEW CODE?
  2
AC_VIEW_CODE
 70
     1
  0
INSERT
  5
45975
100
AcDbEntity
  8
SCALE
100
AcDbBlockReference
  2
SCALE
 10
0.008938
 20
-4.29773
 30
0.0
  0
3DFACE
  5
459B4
100
AcDbEntity
  8
0
100
AcDbFace
 10
0.0
 20
-4.168
 30
0.0
 11
0.0
 21
-4.168
 31
0.612
 12
1.363
 22
-4.168
 32
0.612
 13
1.363
 23
-4.168
 33
0.0
  0
3DFACE
  5
459B5
100
AcDbEntity
  8
0
100
AcDbFace
 10
1.363
 20
-4.168
 30
0.612
 11
1.363
 21
-4.168
 31
0.0
 12
0.0
 22
-4.168
 32
0.0
 13
0.0
 23
-4.168
 33
0.612
  0
3DFACE
  5
459B6
100
AcDbEntity
  8
0
100
AcDbFace
 10
0.0
 20
-4.168
 30
0.0
 11
0.0
 21
0.0
 31
0.0
 12
0.0
 22
0.0
 32
0.612
 13
0.0
 23
-4.168
 33
0.612
  0
3DFACE
  5
459B7
100
AcDbEntity
  8
0
100
AcDbFace
 10
0.0
 20
0.0
 30
0.612
 11
0.0
 21
-4.168
 31
0.612
 12
0.0
 22
-4.168
 32
0.0
 13
0.0
 23
0.0
 33
0.0
  0
LINE
  5
459B8
100
AcDbEntity
  8
0
100
AcDbLine
 39
-0.612
 10
1.363
 20
-4.168
 30
0.612
 11
0.0
 21
-4.168
 31
0.612
  0
LINE
  5
459B9
100
AcDbEntity
  8
0
100
AcDbLine
 39
-0.612
 10
0.0
 20
-4.168
 30
0.612
 11
0.0
 21
0.0
 31
0.612
  0
LINE
  5
459BA
100
AcDbEntity
  8
0
100
AcDbLine
 39
-0.612
 10
1.363
 20
-4.168
 30
0.612
 11
1.363
 21
0.0
 31
0.612
  0
LINE
  5
459BB
100
AcDbEntity
  8
0
100
AcDbLine
 39
-0.612
 10
0.0
 20
0.0
 30
0.612
 11
1.363
 21
0.0
 31
0.612
  0
3DFACE
  5
459BC
100
AcDbEntity
  8
0
100
AcDbFace
 10
1.363
 20
-4.168
 30
0.0
 11
0.0
 21
-4.168
 31
0.0
 12
0.0
 22
0.0
 32
0.0
 13
1.363
 23
0.0
 33
0.0
  0
3DFACE
  5
459BD
100
AcDbEntity
  8
0
100
AcDbFace
 10
0.0
 20
0.0
 30
0.0
 11
1.363
 21
0.0
 31
0.0
 12
1.363
 22
-4.168
 32
0.0
 13
0.0
 23
-4.168
 33
0.0
  0
POINT
  5
459BE
100
AcDbEntity
  8
SNAP_POINTS
100
AcDbPoint
 10
0.0
 20
0.0
 30
0.0
  0
3DFACE
  5
459BF
100
AcDbEntity
  8
0
100
AcDbFace
 10
0.0
 20
-4.168
 30
0.612
 11
0.0
 21
0.0
 31
0.612
 12
1.363
 22
0.0
 32
0.612
 13
1.363
 23
-4.168
 33
0.612
  0
3DFACE
  5
459C0
100
AcDbEntity
  8
0
100
AcDbFace
 10
1.363
 20
0.0
 30
0.612
 11
1.363
 21
-4.168
 31
0.612
 12
0.0
 22
-4.168
 32
0.612
 13
0.0
 23
0.0
 33
0.612
  0
LINE
  5
459C1
100
AcDbEntity
  8
0
100
AcDbLine
 10
1.363
 20
-2.293
 30
0.612
 11
0.0
 21
-2.293
 31
0.612
  0
LINE
  5
459C2
100
AcDbEntity
  8
0
100
AcDbLine
 10
1.363
 20
-2.6055
 30
0.612
 11
0.0
 21
-2.6055
 31
0.612
  0
LINE
  5
459C3
100
AcDbEntity
  8
0
100
AcDbLine
 10
1.363
 20
-2.918
 30
0.612
 11
0.0
 21
-2.918
 31
0.612
  0
LINE
  5
459C4
100
AcDbEntity
  8
0
100
AcDbLine
 10
1.363
 20
-3.2305
 30
0.612
 11
0.0
 21
-3.2305
 31
0.612
  0
LINE
  5
459C5
100
AcDbEntity
  8
0
100
AcDbLine
 10
1.363
 20
-3.543
 30
0.612
 11
0.0
 21
-3.543
 31
0.612
  0
LINE
  5
459C6
100
AcDbEntity
  8
0
100
AcDbLine
 10
1.363
 20
-3.8555
 30
0.612
 11
0.0
 21
-3.8555
 31
0.612
  0
LINE
  5
459C7
100
AcDbEntity
  8
0
100
AcDbLine
 10
1.363
 20
-0.418
 30
0.612
 11
0.0
 21
-0.418
 31
0.612
  0
LINE
  5
459C8
100
AcDbEntity
  8
0
100
AcDbLine
 10
1.363
 20
-0.7305
 30
0.612
 11
0.0
 21
-0.7305
 31
0.612
  0
LINE
  5
459C9
100
AcDbEntity
  8
0
100
AcDbLine
 10
1.363
 20
-1.043
 30
0.612
 11
0.0
 21
-1.043
 31
0.612
  0
LINE
  5
459CA
100
AcDbEntity
  8
0
100
AcDbLine
 10
1.363
 20
-1.3555
 30
0.612
 11
0.0
 21
-1.3555
 31
0.612
  0
LINE
  5
459CB
100
AcDbEntity
  8
0
100
AcDbLine
 10
1.363
 20
-1.668
 30
0.612
 11
0.0
 21
-1.668
 31
0.612
  0
LINE
  5
459CC
100
AcDbEntity
  8
0
100
AcDbLine
 10
1.363
 20
-1.9805
 30
0.612
 11
0.0
 21
-1.9805
 31
0.612
  0
DIMENSION
  5
459CD
100
AcDbEntity
  8
AREA1
100
AcDbDimension
  2
*D1
 10
2.149847
 20
0.0
 30
0.0
 11
2.149847
 21
-2.084
 31
0.0
 70
    32
  3
ABECAD_3D
100
AcDbAlignedDimension
 13
1.363
 23
-4.168
 33
0.0
 14
1.363
 24
0.0
 34
0.0
 50
90.0
100
AcDbRotatedDimension
  0
DIMENSION
  5
459DB
100
AcDbEntity
  8
AREA1
100
AcDbDimension
  2
*D2
 10
1.363
 20
0.7123
 30
0.0
 11
2.713
 21
0.7123
 31
0.0
 70
    32
  3
ABECAD_3D
100
AcDbAlignedDimension
 13
0.0
 23
0.0
 33
0.0
 14
1.363
 24
0.0
 34
0.0
100
AcDbRotatedDimension
  0
ENDSEC
  0
SECTION
  2
OBJECTS
  0
DICTIONARY
  5
458CB
100
AcDbDictionary
  3
ACAD_GROUP
350
458CC
  3
ACAD_LAYOUT
350
458FB
  3
ACAD_MLINESTYLE
350
458D9
  3
ACAD_PLOTSETTINGS
350
458FC
  3
ACAD_PLOTSTYLENAME
350
458F9
  3
ACDBHEADERROUNDTRIPXREC
350
45A5E
  3
ACDBVARIABLEDICTIONARY
350
458E1
  3
DWGPROPS
350
45901
  0
DICTIONARY
  5
45A5C
100
AcDbDictionary
280
     1
  3
ACAD_XREC_ROUNDTRIP
360
45A5D
  0
DICTIONARY
  5
45A87
100
AcDbDictionary
280
     1
  3
ACAD_XREC_ROUNDTRIP
360
45A88
  0
DICTIONARY
  5
45A5A
100
AcDbDictionary
280
     1
  3
ACAD_XREC_ROUNDTRIP
360
45A5B
  0
DICTIONARY
  5
45A81
100
AcDbDictionary
280
     1
  3
ACAD_XREC_ROUNDTRIP
360
45A82
  0
DICTIONARY
  5
45A83
100
AcDbDictionary
280
     1
  3
ACAD_XREC_ROUNDTRIP
360
45A84
  0
DICTIONARY
  5
4592C
100
AcDbDictionary
280
     1
  3
ACAD_LAYOUTSELFREF
360
45A80
  0
DICTIONARY
  5
4592A
100
AcDbDictionary
280
     1
  3
ACAD_LAYOUTSELFREF
360
45A7F
  0
DICTIONARY
  5
45A58
100
AcDbDictionary
280
     1
  3
ACAD_XREC_ROUNDTRIP
360
45A59
  0
DICTIONARY
  5
458CC
102
{ACAD_REACTORS
330
458CB
102
}
100
AcDbDictionary
  0
DICTIONARY
  5
458FB
102
{ACAD_XDICTIONARY
360
45A85
102
}
102
{ACAD_REACTORS
330
458CB
102
}
100
AcDbDictionary
  3
LAYOUT1
350
458FE
  3
MODEL
350
458FD
  0
DICTIONARY
  5
458D9
102
{ACAD_REACTORS
330
458CB
102
}
100
AcDbDictionary
  3
STANDARD
350
458DA
  0
DICTIONARY
  5
458FC
102
{ACAD_REACTORS
330
458CB
102
}
100
AcDbDictionary
  0
ACAD_PROXY_OBJECT
  5
458F9
102
{ACAD_REACTORS
330
458CB
102
}
100
AcDbProxyObject
 90
      499
 91
      501
 93
       86
310
405010041939BDC9B585B0
350
458FA
340
458FA
 94
        0
  0
DICTIONARY
  5
45A5E
102
{ACAD_REACTORS
330
458CB
102
}
100
AcDbDictionary
  3
CEPSNTYPE
350
45A68
  3
DIMSTYLEDATA
350
45A6C
  3
FINGERPRINTGUID
350
45A69
  3
HYPERLINKBASE
350
45A61
  3
INSUNITS
350
45A67
  3
LAYOUTDICT
350
45A63
  3
LWETCUNION
350
45A66
  3
PLOTSETDICT
350
45A64
  3
PLOTSTYLNAMDICT
350
45A65
  3
PSVPSCALE
350
45A6B
  3
PUCSBASE
350
45A6F
  3
PUCSORGBACK
350
45A75
  3
PUCSORGBOTTOM
350
45A71
  3
PUCSORGFRONT
350
45A74
  3
PUCSORGLEFT
350
45A72
  3
PUCSORGRIGHT
350
45A73
  3
PUCSORGTOP
350
45A70
  3
PUCSORTHOREF
350
45A6D
  3
PUCSORTHOVIEW
350
45A6E
  3
STYLESHEET
350
45A62
  3
TSTACKALIGN
350
45A5F
  3
TSTACKSIZE
350
45A60
  3
UCSBASE
350
45A78
  3
UCSORGBACK
350
45A7E
  3
UCSORGBOTTOM
350
45A7A
  3
UCSORGFRONT
350
45A7D
  3
UCSORGLEFT
350
45A7B
  3
UCSORGRIGHT
350
45A7C
  3
UCSORGTOP
350
45A79
  3
UCSORTHOREF
350
45A76
  3
UCSORTHOVIEW
350
45A77
  3
VERSIONGUID
350
45A6A
  0
DICTIONARY
  5
458E1
102
{ACAD_REACTORS
330
458CB
102
}
100
AcDbDictionary
  3
DIMADEC
350
458E2
  0
XRECORD
  5
45901
102
{ACAD_REACTORS
330
458CB
102
}
100
AcDbXrecord
  1
DWGPROPS COOKIE
  2

  3

  4

  6

  7

  8
colin
  9

300
=
301
=
302
=
303
=
304
=
305
=
306
=
307
=
308
=
309
=
 40
0.000599
 41
2451670.444777
 42
2451670.445376
  1

 90
        0
  0
XRECORD
  5
45A5D
102
{ACAD_REACTORS
330
45A5C
102
}
100
AcDbXrecord
102
EXTNAMES
  1
*ACTIVE
  2
*Active
102
UCS
 74
     0
 71
     1
 10
0.0
 20
0.0
 30
0.0
 10
1.0
 20
0.0
 30
0.0
 10
0.0
 20
1.0
 30
0.0
146
0.0
 79
     1
102
VIEW
281
     0
  0
XRECORD
  5
45A88
102
{ACAD_REACTORS
330
45A87
102
}
100
AcDbXrecord
102
PLOTBIT
280
     0
  0
XRECORD
  5
45A5B
102
{ACAD_REACTORS
330
45A5A
102
}
100
AcDbXrecord
102
EXTNAMES
  1
DEFPOINTS
  2
Defpoints
102
PLOTBIT
280
     0
  0
XRECORD
  5
45A82
102
{ACAD_REACTORS
330
45A81
102
}
100
AcDbXrecord
102
ACADR14ROUNDTRIP
1000
DSTYLE
1002
{
1070
   276
 70
     2
1070
   277
 70
     5
1002
}
  0
XRECORD
  5
45A84
102
{ACAD_REACTORS
330
45A83
102
}
100
AcDbXrecord
102
ACADR14ROUNDTRIP
1000
DSTYLE
1002
{
1070
   276
 70
     2
1070
   277
 70
     5
1002
}
  0
XRECORD
  5
45A80
102
{ACAD_REACTORS
330
4592C
102
}
100
AcDbXrecord
340
458D6
  0
XRECORD
  5
45A7F
102
{ACAD_REACTORS
330
4592A
102
}
100
AcDbXrecord
340
458D3
  0
XRECORD
  5
45A59
102
{ACAD_REACTORS
330
45A58
102
}
100
AcDbXrecord
102
EXTNAMES
  1
SCALE
  2
scale
  0
DICTIONARY
  5
45A85
100
AcDbDictionary
280
     1
  3
ACAD_XREC_ROUNDTRIP
360
45A86
  0
ACAD_PROXY_OBJECT
  5
458FE
102
{ACAD_REACTORS
330
458FB
102
}
100
AcDbProxyObject
 90
      499
 91
      503
 93
     1348
310
91D4850204C617365724A65742035303030205365726965732050434C20362C00AAAAAA416AA547D11959985D5B1D08148C4D081C195B88185CDCDA59DB9B595B9D1CCB98DD1891069074C61796F75743140501A800000000000000000000000000000000000000000000A1000000000000008902A6A6A10232D5E076BC551
310
0408CB5781DAF154410232D5E076BC5510408CB5781DAF15C410232D5E076BC5710408CB5781DAF15C40
330
458D3
330
0
340
0
340
0
 94
        0
  0
ACAD_PROXY_OBJECT
  5
458FD
102
{ACAD_REACTORS
330
458FB
102
}
100
AcDbProxyObject
 90
      499
 91
      503
 93
      924
310
91D4850204C617365724A65742035303030205365726965732050434C20362C01AAAAAAAAA547D11959985D5B1D08148C4D081C195B88185CDCDA59DB9B595B9D1CCB98DD18A69054D6F64656C901A800000000000000000000000000000000000000000000A1000000000000008902A6A6AAAAF
330
458D6
330
0
340
0
340
0
 94
        0
  0
MLINESTYLE
  5
458DA
102
{ACAD_REACTORS
330
458D9
102
}
100
AcDbMlineStyle
  2
STANDARD
 70
     0
  3

 62
   256
 51
90.0
 52
90.0
 71
     2
 49
0.5
 62
   256
  6
BYLAYER
 49
-0.5
 62
   256
  6
BYLAYER
  0
ACAD_PROXY_OBJECT
  5
458FA
102
{ACAD_REACTORS
330
458F9
102
}
100
AcDbProxyObject
 90
      499
 91
      502
 93
        0
 94
        0
  0
XRECORD
  5
45A68
102
{ACAD_REACTORS
330
45A5E
102
}
100
AcDbXrecord
 90
        0
  0
XRECORD
  5
45A6C
102
{ACAD_REACTORS
330
45A5E
102
}
100
AcDbXrecord
1000
DSTYLE
1002
{
1070
   276
 70
     2
1070
   277
 70
     5
1002
}
  0
XRECORD
  5
45A69
102
{ACAD_REACTORS
330
45A5E
102
}
100
AcDbXrecord
  1
{6E0CF4B8-225E-11D4-A150-00A0CC3303EC}
  0
XRECORD
  5
45A61
102
{ACAD_REACTORS
330
45A5E
102
}
100
AcDbXrecord
  1

  0
XRECORD
  5
45A67
102
{ACAD_REACTORS
330
45A5E
102
}
100
AcDbXrecord
 90
        0
  0
XRECORD
  5
45A63
102
{ACAD_REACTORS
330
45A5E
102
}
100
AcDbXrecord
340
458FB
  0
XRECORD
  5
45A66
102
{ACAD_REACTORS
330
45A5E
102
}
100
AcDbXrecord
 90
    14877
  0
XRECORD
  5
45A64
102
{ACAD_REACTORS
330
45A5E
102
}
100
AcDbXrecord
340
458FC
  0
XRECORD
  5
45A65
102
{ACAD_REACTORS
330
45A5E
102
}
100
AcDbXrecord
340
458F9
  0
XRECORD
  5
45A6B
102
{ACAD_REACTORS
330
45A5E
102
}
100
AcDbXrecord
 40
0.0
  0
XRECORD
  5
45A6F
102
{ACAD_REACTORS
330
45A5E
102
}
100
AcDbXrecord
340
0
  0
XRECORD
  5
45A75
102
{ACAD_REACTORS
330
45A5E
102
}
100
AcDbXrecord
 10
0.0
 20
0.0
 30
0.0
  0
XRECORD
  5
45A71
102
{ACAD_REACTORS
330
45A5E
102
}
100
AcDbXrecord
 10
0.0
 20
0.0
 30
0.0
  0
XRECORD
  5
45A74
102
{ACAD_REACTORS
330
45A5E
102
}
100
AcDbXrecord
 10
0.0
 20
0.0
 30
0.0
  0
XRECORD
  5
45A72
102
{ACAD_REACTORS
330
45A5E
102
}
100
AcDbXrecord
 10
0.0
 20
0.0
 30
0.0
  0
XRECORD
  5
45A73
102
{ACAD_REACTORS
330
45A5E
102
}
100
AcDbXrecord
 10
0.0
 20
0.0
 30
0.0
  0
XRECORD
  5
45A70
102
{ACAD_REACTORS
330
45A5E
102
}
100
AcDbXrecord
 10
0.0
 20
0.0
 30
0.0
  0
XRECORD
  5
45A6D
102
{ACAD_REACTORS
330
45A5E
102
}
100
AcDbXrecord
340
0
  0
XRECORD
  5
45A6E
102
{ACAD_REACTORS
330
45A5E
102
}
100
AcDbXrecord
 70
     0
  0
XRECORD
  5
45A62
102
{ACAD_REACTORS
330
45A5E
102
}
100
AcDbXrecord
  1

  0
XRECORD
  5
45A5F
102
{ACAD_REACTORS
330
45A5E
102
}
100
AcDbXrecord
 90
        1
  0
XRECORD
  5
45A60
102
{ACAD_REACTORS
330
45A5E
102
}
100
AcDbXrecord
 90
       70
  0
XRECORD
  5
45A78
102
{ACAD_REACTORS
330
45A5E
102
}
100
AcDbXrecord
340
0
  0
XRECORD
  5
45A7E
102
{ACAD_REACTORS
330
45A5E
102
}
100
AcDbXrecord
 10
0.0
 20
0.0
 30
0.0
  0
XRECORD
  5
45A7A
102
{ACAD_REACTORS
330
45A5E
102
}
100
AcDbXrecord
 10
0.0
 20
0.0
 30
0.0
  0
XRECORD
  5
45A7D
102
{ACAD_REACTORS
330
45A5E
102
}
100
AcDbXrecord
 10
0.0
 20
0.0
 30
0.0
  0
XRECORD
  5
45A7B
102
{ACAD_REACTORS
330
45A5E
102
}
100
AcDbXrecord
 10
0.0
 20
0.0
 30
0.0
  0
XRECORD
  5
45A7C
102
{ACAD_REACTORS
330
45A5E
102
}
100
AcDbXrecord
 10
0.0
 20
0.0
 30
0.0
  0
XRECORD
  5
45A79
102
{ACAD_REACTORS
330
45A5E
102
}
100
AcDbXrecord
 10
0.0
 20
0.0
 30
0.0
  0
XRECORD
  5
45A76
102
{ACAD_REACTORS
330
45A5E
102
}
100
AcDbXrecord
340
0
  0
XRECORD
  5
45A77
102
{ACAD_REACTORS
330
45A5E
102
}
100
AcDbXrecord
 70
     1
  0
XRECORD
  5
45A6A
102
{ACAD_REACTORS
330
45A5E
102
}
100
AcDbXrecord
  1
{1AC93EBF-6EAC-41EA-803D-CC60F47C83B7}
  0
DICTIONARYVAR
  5
458E2
102
{ACAD_REACTORS
330
458E1
102
}
100
DictionaryVariables
280
     0
  1
0
  0
XRECORD
  5
45A86
102
{ACAD_REACTORS
330
45A85
102
}
100
AcDbXrecord
102
EXTNAMES
  1
LAYOUT1
  2
Layout1
  1
MODEL
  2
Model
  0
ENDSEC
  0
EOF
