  0
SECTION
  2
HEADER
  9
$ACADVER
  1
AC1014
  9
$ACADMAINTVER
 70
     8
  9
$DWGCODEPAGE
  3
ANSI_1252
  9
$INSBASE
 10
0.0
 20
0.0
 30
0.0
  9
$EXTMIN
 10
-0.733112
 20
-2.906465
 30
0.0
  9
$EXTMAX
 10
1.86
 20
1.146191
 30
1.06
  9
$LIMMIN
 10
0.0
 20
0.0
  9
$LIMMAX
 10
12.0
 20
9.0
  9
$ORTHOMODE
 70
     0
  9
$REGENMODE
 70
     1
  9
$FILLMODE
 70
     1
  9
$QTEXTMODE
 70
     0
  9
$MIRRTEXT
 70
     1
  9
$DRAGMODE
 70
     2
  9
$LTSCALE
 40
1.0
  9
$OSMODE
 70
    37
  9
$ATTMODE
 70
     1
  9
$TEXTSIZE
 40
0.12
  9
$TRACEWID
 40
0.05
  9
$TEXTSTYLE
  7
STANDARD
  9
$CLAYER
  8
0
  9
$CELTYPE
  6
BYLAYER
  9
$CECOLOR
 62
   256
  9
$CELTSCALE
 40
1.0
  9
$DELOBJ
 70
     1
  9
$DISPSILH
 70
     0
  9
$DIMSCALE
 40
1.0
  9
$DIMASZ
 40
0.18
  9
$DIMEXO
 40
0.0625
  9
$DIMDLI
 40
0.375
  9
$DIMRND
 40
0.0
  9
$DIMDLE
 40
0.0
  9
$DIMEXE
 40
0.18
  9
$DIMTP
 40
0.0
  9
$DIMTM
 40
0.0
  9
$DIMTXT
 40
0.125
  9
$DIMCEN
 40
0.09
  9
$DIMTSZ
 40
0.0
  9
$DIMTOL
 70
     0
  9
$DIMLIM
 70
     0
  9
$DIMTIH
 70
     0
  9
$DIMTOH
 70
     1
  9
$DIMSE1
 70
     0
  9
$DIMSE2
 70
     0
  9
$DIMTAD
 70
     0
  9
$DIMZIN
 70
     4
  9
$DIMBLK
  1

  9
$DIMASO
 70
     1
  9
$DIMSHO
 70
     1
  9
$DIMPOST
  1

  9
$DIMAPOST
  1

  9
$DIMALT
 70
     1
  9
$DIMALTD
 70
     2
  9
$DIMALTF
 40
25.4
  9
$DIMLFAC
 40
1.0
  9
$DIMTOFL
 70
     0
  9
$DIMTVP
 40
0.0
  9
$DIMTIX
 70
     0
  9
$DIMSOXD
 70
     0
  9
$DIMSAH
 70
     0
  9
$DIMBLK1
  1

  9
$DIMBLK2
  1

  9
$DIMSTYLE
  2
ABECAD_3D
  9
$DIMCLRD
 70
     0
  9
$DIMCLRE
 70
     0
  9
$DIMCLRT
 70
     0
  9
$DIMTFAC
 40
1.5
  9
$DIMGAP
 40
0.09
  9
$DIMJUST
 70
     0
  9
$DIMSD1
 70
     0
  9
$DIMSD2
 70
     0
  9
$DIMTOLJ
 70
     1
  9
$DIMTZIN
 70
     4
  9
$DIMALTZ
 70
     4
  9
$DIMALTTZ
 70
     4
  9
$DIMFIT
 70
     5
  9
$DIMUPT
 70
     1
  9
$DIMUNIT
 70
     7
  9
$DIMDEC
 70
     6
  9
$DIMTDEC
 70
     6
  9
$DIMALTU
 70
     2
  9
$DIMALTTD
 70
     2
  9
$DIMTXSTY
  7
STANDARD
  9
$DIMAUNIT
 70
     0
  9
$LUNITS
 70
     2
  9
$LUPREC
 70
     4
  9
$SKETCHINC
 40
0.1
  9
$FILLETRAD
 40
0.0
  9
$AUNITS
 70
     0
  9
$AUPREC
 70
     0
  9
$MENU
  1
ACAD
  9
$ELEVATION
 40
0.0
  9
$PELEVATION
 40
0.0
  9
$THICKNESS
 40
0.0
  9
$LIMCHECK
 70
     0
  9
$BLIPMODE
 70
     0
  9
$CHAMFERA
 40
0.0
  9
$CHAMFERB
 40
0.0
  9
$CHAMFERC
 40
0.0
  9
$CHAMFERD
 40
0.0
  9
$SKPOLY
 70
     0
  9
$TDCREATE
 40
2451726.438389120
  9
$TDUPDATE
 40
2452010.484557870
  9
$TDINDWG
 40
0.1912942130
  9
$TDUSRTIMER
 40
0.1912942130
  9
$USRTIMER
 70
     1
  9
$ANGBASE
 50
0.0
  9
$ANGDIR
 70
     0
  9
$PDMODE
 70
     3
  9
$PDSIZE
 40
0.09
  9
$PLINEWID
 40
0.0
  9
$COORDS
 70
     1
  9
$SPLFRAME
 70
     1
  9
$SPLINETYPE
 70
     6
  9
$SPLINESEGS
 70
     8
  9
$ATTDIA
 70
     0
  9
$ATTREQ
 70
     1
  9
$HANDLING
 70
     1
  9
$HANDSEED
  5
4EF1D
  9
$SURFTAB1
 70
     6
  9
$SURFTAB2
 70
     6
  9
$SURFTYPE
 70
     6
  9
$SURFU
 70
     6
  9
$SURFV
 70
     6
  9
$UCSNAME
  2

  9
$UCSORG
 10
0.0
 20
0.0
 30
0.0
  9
$UCSXDIR
 10
1.0
 20
0.0
 30
0.0
  9
$UCSYDIR
 10
0.0
 20
1.0
 30
0.0
  9
$PUCSNAME
  2

  9
$PUCSORG
 10
0.0
 20
0.0
 30
0.0
  9
$PUCSXDIR
 10
1.0
 20
0.0
 30
0.0
  9
$PUCSYDIR
 10
0.0
 20
1.0
 30
0.0
  9
$USERI1
 70
     0
  9
$USERI2
 70
     0
  9
$USERI3
 70
     0
  9
$USERI4
 70
     0
  9
$USERI5
 70
     0
  9
$USERR1
 40
0.0
  9
$USERR2
 40
0.0
  9
$USERR3
 40
0.0
  9
$USERR4
 40
0.0
  9
$USERR5
 40
0.0
  9
$WORLDVIEW
 70
     1
  9
$SHADEDGE
 70
     3
  9
$SHADEDIF
 70
    70
  9
$TILEMODE
 70
     1
  9
$MAXACTVP
 70
    16
  9
$PINSBASE
 10
0.0
 20
0.0
 30
0.0
  9
$PLIMCHECK
 70
     0
  9
$PEXTMIN
 10
1.000000E+20
 20
1.000000E+20
 30
1.000000E+20
  9
$PEXTMAX
 10
-1.000000E+20
 20
-1.000000E+20
 30
-1.000000E+20
  9
$PLIMMIN
 10
0.0
 20
0.0
  9
$PLIMMAX
 10
12.0
 20
9.0
  9
$UNITMODE
 70
     0
  9
$VISRETAIN
 70
     0
  9
$PLINEGEN
 70
     0
  9
$PSLTSCALE
 70
     1
  9
$TREEDEPTH
 70
  3020
  9
$PICKSTYLE
 70
     1
  9
$CMLSTYLE
  2
STANDARD
  9
$CMLJUST
 70
     0
  9
$CMLSCALE
 40
1.0
  9
$PROXYGRAPHICS
 70
     1
  9
$MEASUREMENT
 70
     0
  0
ENDSEC
  0
SECTION
  2
CLASSES
  0
CLASS
  1
DICTIONARYVAR
  2
AcDbDictionaryVar
  3
"AutoCAD"
 90
        0
280
     0
281
     0
  0
CLASS
  1
ACDBDICTIONARYWDFLT
  2
AcDbDictionaryWithDefault
  3
AutoCAD 2000
 90
        0
280
     0
281
     0
  0
CLASS
  1
ACDBPLACEHOLDER
  2
AcDbPlaceHolder
  3
AutoCAD 2000
 90
        0
280
     0
281
     0
  0
CLASS
  1
LAYOUT
  2
AcDbLayout
  3
AutoCAD 2000
 90
        0
280
     0
281
     0
  0
CLASS
  1
LONG_TRANSACTION
  2
AcDbLongTransaction
  3
AutoCAD 2000
 90
        0
280
     0
281
     0
  0
CLASS
  1
LWPOLYLINE
  2
AcDbPolyline
  3
"AutoCAD"
 90
        0
280
     0
281
     1
  0
CLASS
  1
HATCH
  2
AcDbHatch
  3
"ACAD_SEDONA"
 90
        0
280
     0
281
     1
  0
CLASS
  1
XRECORD
  2
AcDbXrecord
  3
"<Built In>"
 90
        0
280
     0
281
     0
  0
CLASS
  1
LONG_TRANSACTION
  2
AcDbLongTransaction
  3
AutoCAD 2000
 90
        0
280
     0
281
     0
  0
CLASS
  1
LWPOLYLINE
  2
AcDbPolyline
  3
"AutoCAD"
 90
        0
280
     0
281
     1
  0
CLASS
  1
HATCH
  2
AcDbHatch
  3
"ACAD_SEDONA"
 90
        0
280
     0
281
     1
  0
CLASS
  1
XRECORD
  2
AcDbXrecord
  3
"<Built In>"
 90
        0
280
     0
281
     0
  0
CLASS
  1
LONG_TRANSACTION
  2
AcDbLongTransaction
  3
AutoCAD 2000
 90
        0
280
     0
281
     0
  0
CLASS
  1
LWPOLYLINE
  2
AcDbPolyline
  3
"AutoCAD"
 90
        0
280
     0
281
     1
  0
CLASS
  1
HATCH
  2
AcDbHatch
  3
"ACAD_SEDONA"
 90
        0
280
     0
281
     1
  0
CLASS
  1
XRECORD
  2
AcDbXrecord
  3
"<Built In>"
 90
        0
280
     0
281
     0
  0
CLASS
  1
LONG_TRANSACTION
  2
AcDbLongTransaction
  3
AutoCAD 2000
 90
        0
280
     0
281
     0
  0
CLASS
  1
LWPOLYLINE
  2
AcDbPolyline
  3
"AutoCAD"
 90
        0
280
     0
281
     1
  0
CLASS
  1
HATCH
  2
AcDbHatch
  3
"ACAD_SEDONA"
 90
        0
280
     0
281
     1
  0
CLASS
  1
XRECORD
  2
AcDbXrecord
  3
"<Built In>"
 90
        0
280
     0
281
     0
  0
CLASS
  1
LONG_TRANSACTION
  2
AcDbLongTransaction
  3
AutoCAD 2000
 90
        0
280
     0
281
     0
  0
CLASS
  1
LWPOLYLINE
  2
AcDbPolyline
  3
"AutoCAD"
 90
        0
280
     0
281
     1
  0
CLASS
  1
HATCH
  2
AcDbHatch
  3
"ACAD_SEDONA"
 90
        0
280
     0
281
     1
  0
CLASS
  1
XRECORD
  2
AcDbXrecord
  3
"<Built In>"
 90
        0
280
     0
281
     0
  0
CLASS
  1
LONG_TRANSACTION
  2
AcDbLongTransaction
  3
AutoCAD 2000
 90
        0
280
     0
281
     0
  0
CLASS
  1
LWPOLYLINE
  2
AcDbPolyline
  3
"AutoCAD"
 90
        0
280
     0
281
     1
  0
CLASS
  1
HATCH
  2
AcDbHatch
  3
"ACAD_SEDONA"
 90
        0
280
     0
281
     1
  0
CLASS
  1
XRECORD
  2
AcDbXrecord
  3
"<Built In>"
 90
        0
280
     0
281
     0
  0
CLASS
  1
LONG_TRANSACTION
  2
AcDbLongTransaction
  3
AutoCAD 2000
 90
        0
280
     0
281
     0
  0
CLASS
  1
LWPOLYLINE
  2
AcDbPolyline
  3
"AutoCAD"
 90
        0
280
     0
281
     1
  0
CLASS
  1
HATCH
  2
AcDbHatch
  3
"ACAD_SEDONA"
 90
        0
280
     0
281
     1
  0
CLASS
  1
XRECORD
  2
AcDbXrecord
  3
"<Built In>"
 90
        0
280
     0
281
     0
  0
CLASS
  1
LONG_TRANSACTION
  2
AcDbLongTransaction
  3
AutoCAD 2000
 90
        0
280
     0
281
     0
  0
CLASS
  1
LWPOLYLINE
  2
AcDbPolyline
  3
"AutoCAD"
 90
        0
280
     0
281
     1
  0
CLASS
  1
HATCH
  2
AcDbHatch
  3
"ACAD_SEDONA"
 90
        0
280
     0
281
     1
  0
CLASS
  1
XRECORD
  2
AcDbXrecord
  3
"<Built In>"
 90
        0
280
     0
281
     0
  0
CLASS
  1
LONG_TRANSACTION
  2
AcDbLongTransaction
  3
AutoCAD 2000
 90
        0
280
     0
281
     0
  0
CLASS
  1
LWPOLYLINE
  2
AcDbPolyline
  3
"AutoCAD"
 90
        0
280
     0
281
     1
  0
CLASS
  1
HATCH
  2
AcDbHatch
  3
"ACAD_SEDONA"
 90
        0
280
     0
281
     1
  0
CLASS
  1
XRECORD
  2
AcDbXrecord
  3
"<Built In>"
 90
        0
280
     0
281
     0
  0
CLASS
  1
LONG_TRANSACTION
  2
AcDbLongTransaction
  3
AutoCAD 2000
 90
        0
280
     0
281
     0
  0
CLASS
  1
LWPOLYLINE
  2
AcDbPolyline
  3
"AutoCAD"
 90
        0
280
     0
281
     1
  0
CLASS
  1
HATCH
  2
AcDbHatch
  3
"ACAD_SEDONA"
 90
        0
280
     0
281
     1
  0
CLASS
  1
XRECORD
  2
AcDbXrecord
  3
"<Built In>"
 90
        0
280
     0
281
     0
  0
CLASS
  1
LONG_TRANSACTION
  2
AcDbLongTransaction
  3
AutoCAD 2000
 90
        0
280
     0
281
     0
  0
CLASS
  1
LWPOLYLINE
  2
AcDbPolyline
  3
"AutoCAD"
 90
        0
280
     0
281
     1
  0
CLASS
  1
HATCH
  2
AcDbHatch
  3
"ACAD_SEDONA"
 90
        0
280
     0
281
     1
  0
CLASS
  1
XRECORD
  2
AcDbXrecord
  3
"<Built In>"
 90
        0
280
     0
281
     0
  0
CLASS
  1
LONG_TRANSACTION
  2
AcDbLongTransaction
  3
AutoCAD 2000
 90
        0
280
     0
281
     0
  0
CLASS
  1
LWPOLYLINE
  2
AcDbPolyline
  3
"AutoCAD"
 90
        0
280
     0
281
     1
  0
CLASS
  1
HATCH
  2
AcDbHatch
  3
"ACAD_SEDONA"
 90
        0
280
     0
281
     1
  0
CLASS
  1
XRECORD
  2
AcDbXrecord
  3
"<Built In>"
 90
        0
280
     0
281
     0
  0
ENDSEC
  0
SECTION
  2
TABLES
  0
TABLE
  2
VPORT
  5
458C7
100
AcDbSymbolTable
 70
     1
  0
VPORT
  5
4EEEC
102
{ACAD_XDICTIONARY
360
4EEEF
102
}
100
AcDbSymbolTableRecord
100
AcDbViewportTableRecord
  2
*ACTIVE
 70
     0
 10
0.0
 20
0.0
 11
1.0
 21
1.0
 12
-0.000046
 22
-0.000071
 13
0.0
 23
0.0
 14
0.25
 24
0.25
 15
0.25
 25
0.25
 16
0.0
 26
0.0
 36
1.0
 17
0.563444
 27
-0.880137
 37
1.686493
 40
4.121363
 41
1.960674
 42
50.0
 43
0.0
 44
0.0
 50
0.0
 51
0.0
 71
     0
 72
 20000
 73
     1
 74
     1
 75
     0
 76
     0
 77
     0
 78
     0
  0
ENDTAB
  0
TABLE
  2
LTYPE
  5
458C4
100
AcDbSymbolTable
 70
     1
  0
LTYPE
  5
458D0
100
AcDbSymbolTableRecord
100
AcDbLinetypeTableRecord
  2
BYBLOCK
 70
     0
  3

 72
    65
 73
     0
 40
0.0
  0
LTYPE
  5
458D1
100
AcDbSymbolTableRecord
100
AcDbLinetypeTableRecord
  2
BYLAYER
 70
     0
  3

 72
    65
 73
     0
 40
0.0
  0
LTYPE
  5
458D2
100
AcDbSymbolTableRecord
100
AcDbLinetypeTableRecord
  2
CONTINUOUS
 70
     0
  3
Solid line
 72
    65
 73
     0
 40
0.0
  0
ENDTAB
  0
TABLE
  2
LAYER
  5
458C1
100
AcDbSymbolTable
 70
     7
  0
LAYER
  5
458CD
100
AcDbSymbolTableRecord
100
AcDbLayerTableRecord
  2
0
 70
     0
 62
     7
  6
CONTINUOUS
  0
LAYER
  5
458EA
100
AcDbSymbolTableRecord
100
AcDbLayerTableRecord
  2
DIMS-MTG-HOLES
 70
     0
 62
     1
  6
CONTINUOUS
  0
LAYER
  5
458EB
100
AcDbSymbolTableRecord
100
AcDbLayerTableRecord
  2
ATTRIBUTES
 70
     0
 62
     7
  6
CONTINUOUS
  0
LAYER
  5
4593B
102
{ACAD_XDICTIONARY
360
4EF18
102
}
100
AcDbSymbolTableRecord
100
AcDbLayerTableRecord
  2
AREA1
 70
     0
 62
    -7
  6
CONTINUOUS
  0
LAYER
  5
45940
102
{ACAD_XDICTIONARY
360
4EEED
102
}
100
AcDbSymbolTableRecord
100
AcDbLayerTableRecord
  2
DEFPOINTS
 70
     0
 62
    -7
  6
CONTINUOUS
  0
LAYER
  5
45954
100
AcDbSymbolTableRecord
100
AcDbLayerTableRecord
  2
SCALE
 70
     0
 62
    -7
  6
CONTINUOUS
  0
LAYER
  5
4D59A
100
AcDbSymbolTableRecord
100
AcDbLayerTableRecord
  2
SNAP_POINTS
 70
     0
 62
    -1
  6
CONTINUOUS
  0
ENDTAB
  0
TABLE
  2
STYLE
  5
458C2
100
AcDbSymbolTable
 70
     1
  0
STYLE
  5
458CE
100
AcDbSymbolTableRecord
100
AcDbTextStyleTableRecord
  2
STANDARD
 70
     0
 40
0.0
 41
1.0
 50
0.0
 71
     0
 42
0.12
  3
txt
  4

  0
ENDTAB
  0
TABLE
  2
VIEW
  5
458C5
100
AcDbSymbolTable
 70
     0
  0
ENDTAB
  0
TABLE
  2
UCS
  5
458C6
100
AcDbSymbolTable
 70
     0
  0
ENDTAB
  0
TABLE
  2
APPID
  5
458C8
100
AcDbSymbolTable
 70
     1
  0
APPID
  5
458CF
100
AcDbSymbolTableRecord
100
AcDbRegAppTableRecord
  2
ACAD
 70
     0
  0
ENDTAB
  0
TABLE
  2
DIMSTYLE
  5
458C9
100
AcDbSymbolTable
 70
     1
  0
DIMSTYLE
105
458F6
102
{ACAD_XDICTIONARY
360
4EF14
102
}
102
{ACAD_REACTORS
330
4EDCD
330
4EDDB
102
}
100
AcDbSymbolTableRecord
100
AcDbDimStyleTableRecord
  2
ABECAD_3D
 70
     0
  3

  4

  5

  6

  7

 40
1.0
 41
0.18
 42
0.0625
 43
0.375
 44
0.18
 45
0.0
 46
0.0
 47
0.0
 48
0.0
140
0.125
141
0.09
142
0.0
143
25.4
144
1.0
145
0.0
146
1.5
147
0.09
 71
     0
 72
     0
 73
     0
 74
     1
 75
     0
 76
     0
 77
     0
 78
     4
170
     1
171
     2
172
     0
173
     0
174
     0
175
     0
176
     0
177
     0
178
     0
270
     7
271
     6
272
     6
273
     2
274
     2
340
458CE
275
     0
280
     0
281
     0
282
     0
283
     1
284
     4
285
     4
286
     4
287
     5
288
     1
  0
ENDTAB
  0
TABLE
  2
BLOCK_RECORD
  5
458C0
100
AcDbSymbolTable
 70
     2
  0
BLOCK_RECORD
  5
458D6
102
{ACAD_XDICTIONARY
360
4592C
102
}
100
AcDbSymbolTableRecord
100
AcDbBlockTableRecord
  2
*MODEL_SPACE
  0
BLOCK_RECORD
  5
458D3
102
{ACAD_XDICTIONARY
360
4592A
102
}
100
AcDbSymbolTableRecord
100
AcDbBlockTableRecord
  2
*PAPER_SPACE
  0
BLOCK_RECORD
  5
4EDCE
100
AcDbSymbolTableRecord
100
AcDbBlockTableRecord
  2
*D0
  0
BLOCK_RECORD
  5
4EDDC
100
AcDbSymbolTableRecord
100
AcDbBlockTableRecord
  2
*D1
  0
ENDTAB
  0
ENDSEC
  0
SECTION
  2
BLOCKS
  0
BLOCK
  5
458DF
100
AcDbEntity
  8
0
100
AcDbBlockBegin
  2
*MODEL_SPACE
 70
     0
 10
0.0
 20
0.0
 30
0.0
  3
*MODEL_SPACE
  1

  0
ENDBLK
  5
458E0
100
AcDbEntity
  8
0
100
AcDbBlockEnd
  0
BLOCK
  5
458DD
100
AcDbEntity
 67
     1
  8
0
100
AcDbBlockBegin
  2
*PAPER_SPACE
 70
     0
 10
0.0
 20
0.0
 30
0.0
  3
*PAPER_SPACE
  1

  0
ENDBLK
  5
458DE
100
AcDbEntity
 67
     1
  8
0
100
AcDbBlockEnd
  0
BLOCK
  5
4EDD9
100
AcDbEntity
  8
0
100
AcDbBlockBegin
  2
*D0
 70
     1
 10
0.0
 20
0.0
 30
0.0
  3
*D0
  1

  0
LINE
  5
4EDCF
100
AcDbEntity
  8
AREA1
 62
     0
100
AcDbLine
 10
-0.0625
 20
0.583437
 30
0.0
 11
-0.733112
 21
0.583438
 31
0.0
1001
ACAD
1000
RTLwPs
1070
   158
  0
LINE
  5
4EDD0
100
AcDbEntity
  8
AREA1
 62
     0
100
AcDbLine
 10
-0.0625
 20
-1.963438
 30
0.0
 11
-0.733112
 21
-1.963438
 31
0.0
1001
ACAD
1000
RTLwPs
1070
   158
  0
LINE
  5
4EDD1
100
AcDbEntity
  8
AREA1
 62
     0
100
AcDbLine
 10
-0.553112
 20
0.403438
 30
0.0
 11
-0.553112
 21
0.246798
 31
0.0
1001
ACAD
1000
RTLwPs
1070
   158
  0
LINE
  5
4EDD2
100
AcDbEntity
  8
AREA1
 62
     0
100
AcDbLine
 10
-0.553112
 20
-1.783438
 30
0.0
 11
-0.553112
 21
-1.599868
 31
0.0
1001
ACAD
1000
RTLwPs
1070
   158
  0
MTEXT
  5
4EDD3
100
AcDbEntity
  8
AREA1
 62
     0
100
AcDbMText
 10
-0.553112
 20
-0.676535
 30
0.0
 40
0.125
 41
0.0
 71
     5
 72
     1
  1
\A1;2 35/64 [64.69]
 11
0.0
 21
1.0
 31
0.0
1001
ACAD
1000
MTEXTBEGIN
1070
    73
1070
     1
1070
    44
1040
1.0
1070
    74
1070
     0
1000
MTEXTEND
1000
MTEXTBEGIN
1070
    73
1070
     1
1070
    44
1040
1.0
1070
    74
1070
     0
1000
MTEXTEND
1000
MTEXTBEGIN
1070
    73
1070
     1
1070
    44
1040
1.0
1070
    74
1070
     0
1000
MTEXTEND
  0
SOLID
  5
4EDD4
100
AcDbEntity
  8
AREA1
 62
     0
100
AcDbTrace
 10
-0.583112
 20
0.403438
 30
0.0
 11
-0.523112
 21
0.403438
 31
0.0
 12
-0.553112
 22
0.583438
 32
0.0
 13
-0.553112
 23
0.583438
 33
0.0
  0
SOLID
  5
4EDD5
100
AcDbEntity
  8
AREA1
 62
     0
100
AcDbTrace
 10
-0.583112
 20
-1.783438
 30
0.0
 11
-0.523112
 21
-1.783438
 31
0.0
 12
-0.553112
 22
-1.963438
 32
0.0
 13
-0.553112
 23
-1.963438
 33
0.0
  0
POINT
  5
4EDD6
100
AcDbEntity
  8
DEFPOINTS
 62
     0
100
AcDbPoint
 10
0.0
 20
0.583437
 30
0.0
  0
POINT
  5
4EDD7
100
AcDbEntity
  8
DEFPOINTS
 62
     0
100
AcDbPoint
 10
0.0
 20
-1.963438
 30
0.0
  0
POINT
  5
4EDD8
100
AcDbEntity
  8
DEFPOINTS
 62
     0
100
AcDbPoint
 10
-0.553112
 20
-1.963438
 30
0.0
  0
ENDBLK
  5
4EDDA
100
AcDbEntity
  8
0
100
AcDbBlockEnd
  0
BLOCK
  5
4EDE7
100
AcDbEntity
  8
0
100
AcDbBlockBegin
  2
*D1
 70
     1
 10
0.0
 20
0.0
 30
0.0
  3
*D1
  1

  0
LINE
  5
4EDDD
100
AcDbEntity
  8
AREA1
 62
     0
100
AcDbLine
 10
0.0
 20
0.645937
 30
0.0
 11
0.0
 21
1.146191
 31
0.0
1001
ACAD
1000
RTLwPs
1070
   158
  0
LINE
  5
4EDDE
100
AcDbEntity
  8
AREA1
 62
     0
100
AcDbLine
 10
1.5
 20
0.645937
 30
0.0
 11
1.5
 21
1.146191
 31
0.0
1001
ACAD
1000
RTLwPs
1070
   158
  0
LINE
  5
4EDDF
100
AcDbEntity
  8
AREA1
 62
     0
100
AcDbLine
 10
-0.18
 20
0.966191
 30
0.0
 11
-0.36
 21
0.966191
 31
0.0
1001
ACAD
1000
RTLwPs
1070
   158
  0
LINE
  5
4EDE0
100
AcDbEntity
  8
AREA1
 62
     0
100
AcDbLine
 10
1.68
 20
0.966191
 30
0.0
 11
1.86
 21
0.966191
 31
0.0
1001
ACAD
1000
RTLwPs
1070
   158
  0
MTEXT
  5
4EDE1
100
AcDbEntity
  8
AREA1
 62
     0
100
AcDbMText
 10
0.740639
 20
0.966191
 30
0.0
 40
0.125
 41
0.0
 71
     5
 72
     1
  1
\A1;1 1/2 [38.10]
1001
ACAD
1000
MTEXTBEGIN
1070
    73
1070
     1
1070
    44
1040
1.0
1070
    74
1070
     0
1000
MTEXTEND
1000
MTEXTBEGIN
1070
    73
1070
     1
1070
    44
1040
1.0
1070
    74
1070
     0
1000
MTEXTEND
1000
MTEXTBEGIN
1070
    73
1070
     1
1070
    44
1040
1.0
1070
    74
1070
     0
1000
MTEXTEND
  0
SOLID
  5
4EDE2
100
AcDbEntity
  8
AREA1
 62
     0
100
AcDbTrace
 10
-0.18
 20
0.996191
 30
0.0
 11
-0.18
 21
0.936191
 31
0.0
 12
0.0
 22
0.966191
 32
0.0
 13
0.0
 23
0.966191
 33
0.0
  0
SOLID
  5
4EDE3
100
AcDbEntity
  8
AREA1
 62
     0
100
AcDbTrace
 10
1.68
 20
0.996191
 30
0.0
 11
1.68
 21
0.936191
 31
0.0
 12
1.5
 22
0.966191
 32
0.0
 13
1.5
 23
0.966191
 33
0.0
  0
POINT
  5
4EDE4
100
AcDbEntity
  8
DEFPOINTS
 62
     0
100
AcDbPoint
 10
0.0
 20
0.583437
 30
0.0
  0
POINT
  5
4EDE5
100
AcDbEntity
  8
DEFPOINTS
 62
     0
100
AcDbPoint
 10
1.5
 20
0.583437
 30
0.0
  0
POINT
  5
4EDE6
100
AcDbEntity
  8
DEFPOINTS
 62
     0
100
AcDbPoint
 10
1.5
 20
0.966191
 30
0.0
  0
ENDBLK
  5
4EDE8
100
AcDbEntity
  8
0
100
AcDbBlockEnd
  0
ENDSEC
  0
SECTION
  2
ENTITIES
  0
DIMENSION
  5
4EDCD
100
AcDbEntity
  8
AREA1
100
AcDbDimension
  2
*D0
 10
-0.553112
 20
-1.963438
 30
0.0
 11
-0.553112
 21
-0.676535
 31
0.0
 70
   160
  3
ABECAD_3D
100
AcDbAlignedDimension
 13
0.0
 23
0.583437
 33
0.0
 14
0.0
 24
-1.963438
 34
0.0
 50
90.0
100
AcDbRotatedDimension
  0
DIMENSION
  5
4EDDB
100
AcDbEntity
  8
AREA1
100
AcDbDimension
  2
*D1
 10
1.5
 20
0.966191
 30
0.0
 11
0.740639
 21
0.966191
 31
0.0
 70
   160
  3
ABECAD_3D
100
AcDbAlignedDimension
 13
0.0
 23
0.583437
 33
0.0
 14
1.5
 24
0.583437
 34
0.0
100
AcDbRotatedDimension
  0
LWPOLYLINE
  5
4EDF8
100
AcDbEntity
  8
SCALE
100
AcDbPolyline
 90
        4
 70
     1
 43
0.0
 10
0.188499
 20
-2.064856
 10
1.324128
 20
-2.064856
 10
1.324128
 20
-2.906465
 10
0.188499
 20
-2.906465
  0
LINE
  5
4EDF9
100
AcDbEntity
  8
SCALE
100
AcDbLine
 10
0.246498
 20
-2.444934
 30
0.0
 11
1.246498
 21
-2.444934
 31
0.0
  0
LINE
  5
4EDFA
100
AcDbEntity
  8
SCALE
100
AcDbLine
 10
0.246498
 20
-2.744934
 30
0.0
 11
0.640198
 21
-2.744934
 31
0.0
  0
LINE
  5
4EDFB
100
AcDbEntity
  8
SCALE
100
AcDbLine
 10
0.246498
 20
-2.544934
 30
0.0
 11
0.246498
 21
-2.344934
 31
0.0
  0
TEXT
  5
4EDFC
100
AcDbEntity
  8
SCALE
100
AcDbText
 10
0.302474
 20
-2.697249
 30
0.0
 40
0.0625
  1
[10mm]
100
AcDbText
  0
LINE
  5
4EDFD
100
AcDbEntity
  8
SCALE
100
AcDbLine
 10
0.246498
 20
-2.844934
 30
0.0
 11
0.246498
 21
-2.644934
 31
0.0
  0
TEXT
  5
4EDFE
100
AcDbEntity
  8
SCALE
100
AcDbText
 10
0.248028
 20
-2.170057
 30
0.0
 40
0.0625
  1
SCALE:
100
AcDbText
  0
LINE
  5
4EDFF
100
AcDbEntity
  8
SCALE
100
AcDbLine
 10
0.640198
 20
-2.844934
 30
0.0
 11
0.640198
 21
-2.644934
 31
0.0
  0
TEXT
  5
4EE00
100
AcDbEntity
  8
SCALE
100
AcDbText
 10
0.609781
 20
-2.375885
 30
0.0
 40
0.0625
  1
1 Inch
100
AcDbText
  0
LINE
  5
4EE01
100
AcDbEntity
  8
SCALE
100
AcDbLine
 10
1.246498
 20
-2.444934
 30
0.0
 11
1.246498
 21
-2.544934
 31
0.0
  0
LINE
  5
4EE02
100
AcDbEntity
  8
SCALE
100
AcDbLine
 10
1.246498
 20
-2.544934
 30
0.0
 11
1.246498
 21
-2.344934
 31
0.0
  0
ARC
  5
4EE03
100
AcDbEntity
  8
0
100
AcDbCircle
 10
0.75
 20
-0.785
 30
1.06
 40
0.04
100
AcDbArc
 50
167.846848
 51
12.153442
  0
ARC
  5
4EE04
100
AcDbEntity
  8
0
100
AcDbCircle
 10
0.75
 20
-0.69
 30
1.06
 40
0.095
100
AcDbArc
 50
294.306335
 51
245.694153
  0
CIRCLE
  5
4EE05
100
AcDbEntity
  8
0
100
AcDbCircle
 10
0.16
 20
-0.69
 30
0.0
 40
0.056
  0
CIRCLE
  5
4EE06
100
AcDbEntity
  8
0
100
AcDbCircle
 10
0.21967
 20
-1.22033
 30
1.06
 40
0.05
  0
CIRCLE
  5
4EE07
100
AcDbEntity
  8
0
100
AcDbCircle
 10
0.555886
 20
-1.414444
 30
1.06
 40
0.05
  0
LINE
  5
4EE08
100
AcDbEntity
  8
0
100
AcDbLine
 10
0.682825
 20
-0.757175
 30
1.06
 11
0.481299
 21
-0.958701
 31
1.06
  0
LINE
  5
4EE09
100
AcDbEntity
  8
0
100
AcDbLine
 10
0.655
 20
-0.69
 30
1.06
 11
0.37
 21
-0.69
 31
1.06
  0
CIRCLE
  5
4EE0A
100
AcDbEntity
  8
0
100
AcDbCircle
 10
0.565224
 20
-0.766537
 30
1.06
 40
0.03
  0
LINE
  5
4EE0B
100
AcDbEntity
  8
0
100
AcDbLine
 10
0.75
 20
-0.825
 30
1.06
 11
0.75
 21
-1.07
 31
1.06
  0
CIRCLE
  5
4EE0C
100
AcDbEntity
  8
0
100
AcDbCircle
 10
0.673463
 20
-0.874776
 30
1.06
 40
0.03
  0
CIRCLE
  5
4EE0D
100
AcDbEntity
  8
0
100
AcDbCircle
 10
0.21967
 20
-0.15967
 30
1.06
 40
0.05
  0
LINE
  5
4EE0E
100
AcDbEntity
  8
0
100
AcDbLine
 10
0.682825
 20
-0.622825
 30
1.06
 11
0.481299
 21
-0.421299
 31
1.06
  0
CIRCLE
  5
4EE0F
100
AcDbEntity
  8
0
100
AcDbCircle
 10
0.555886
 20
0.034444
 30
1.06
 40
0.05
  0
CIRCLE
  5
4EE10
100
AcDbEntity
  8
0
100
AcDbCircle
 10
0.565224
 20
-0.613463
 30
1.06
 40
0.03
  0
LINE
  5
4EE11
100
AcDbEntity
  8
0
100
AcDbLine
 10
0.75
 20
-0.595
 30
1.06
 11
0.75
 21
-0.31
 31
1.06
  0
CIRCLE
  5
4EE12
100
AcDbEntity
  8
0
100
AcDbCircle
 10
0.673463
 20
-0.505224
 30
1.06
 40
0.03
  0
CIRCLE
  5
4EE13
100
AcDbEntity
  8
0
100
AcDbCircle
 10
1.34
 20
-0.69
 30
0.0
 40
0.056
  0
CIRCLE
  5
4EE14
100
AcDbEntity
  8
0
100
AcDbCircle
 10
0.944114
 20
-1.414444
 30
1.06
 40
0.05
  0
LINE
  5
4EE15
100
AcDbEntity
  8
0
100
AcDbLine
 10
0.817175
 20
-0.757175
 30
1.06
 11
1.018701
 21
-0.958701
 31
1.06
  0
LINE
  5
4EE16
100
AcDbEntity
  8
0
100
AcDbLine
 10
0.845
 20
-0.69
 30
1.06
 11
1.13
 21
-0.69
 31
1.06
  0
CIRCLE
  5
4EE17
100
AcDbEntity
  8
0
100
AcDbCircle
 10
0.826537
 20
-0.874776
 30
1.06
 40
0.03
  0
CIRCLE
  5
4EE18
100
AcDbEntity
  8
0
100
AcDbCircle
 10
0.934776
 20
-0.766537
 30
1.06
 40
0.03
  0
CIRCLE
  5
4EE19
100
AcDbEntity
  8
0
100
AcDbCircle
 10
1.28033
 20
-1.22033
 30
1.06
 40
0.05
  0
LINE
  5
4EE1A
100
AcDbEntity
  8
0
100
AcDbLine
 10
0.817175
 20
-0.622825
 30
1.06
 11
1.018701
 21
-0.421299
 31
1.06
  0
CIRCLE
  5
4EE1B
100
AcDbEntity
  8
0
100
AcDbCircle
 10
0.944114
 20
0.034444
 30
1.06
 40
0.05
  0
CIRCLE
  5
4EE1C
100
AcDbEntity
  8
0
100
AcDbCircle
 10
0.826537
 20
-0.505224
 30
1.06
 40
0.03
  0
CIRCLE
  5
4EE1D
100
AcDbEntity
  8
0
100
AcDbCircle
 10
0.934776
 20
-0.613463
 30
1.06
 40
0.03
  0
CIRCLE
  5
4EE1E
100
AcDbEntity
  8
0
100
AcDbCircle
 10
1.28033
 20
-0.15967
 30
1.06
 40
0.05
  0
TEXT
  5
4EE1F
100
AcDbEntity
  8
0
100
AcDbText
 10
0.922553
 20
-1.340915
 30
1.06
 40
0.10968
  1
1
100
AcDbText
  0
TEXT
  5
4EE20
100
AcDbEntity
  8
0
100
AcDbText
 10
1.240199
 20
-1.148493
 30
1.06
 40
0.10968
  1
2
100
AcDbText
  0
TEXT
  5
4EE21
100
AcDbEntity
  8
0
100
AcDbText
 10
1.244324
 20
-0.333451
 30
1.06
 40
0.10968
  1
3
100
AcDbText
  0
TEXT
  5
4EE22
100
AcDbEntity
  8
0
100
AcDbText
 10
0.897802
 20
-0.132783
 30
1.06
 40
0.10968
  1
4
100
AcDbText
  0
TEXT
  5
4EE23
100
AcDbEntity
  8
0
100
AcDbText
 10
0.522402
 20
-0.134158
 30
1.06
 40
0.10968
  1
5
100
AcDbText
  0
TEXT
  5
4EE24
100
AcDbEntity
  8
0
100
AcDbText
 10
0.180005
 20
-0.337575
 30
1.06
 40
0.10968
  1
6
100
AcDbText
  0
TEXT
  5
4EE25
100
AcDbEntity
  8
0
100
AcDbText
 10
0.192381
 20
-1.155366
 30
1.06
 40
0.10968
  1
7
100
AcDbText
  0
TEXT
  5
4EE26
100
AcDbEntity
  8
0
100
AcDbText
 10
0.518277
 20
-1.342289
 30
1.06
 40
0.10968
  1
8
100
AcDbText
  0
POLYLINE
  5
4EE27
100
AcDbEntity
  8
0
100
AcDbPolygonMesh
 66
     1
 10
0.0
 20
0.0
 30
0.0
 70
    16
 71
     6
 72
     3
  0
VERTEX
  5
4EE28
100
AcDbEntity
  8
0
100
AcDbVertex
100
AcDbPolygonMeshVertex
 10
1.5
 20
-1.963438
 30
1.06
 70
    64
  0
VERTEX
  5
4EE29
100
AcDbEntity
  8
0
100
AcDbVertex
100
AcDbPolygonMeshVertex
 10
1.5
 20
-1.963438
 30
0.0
 70
    64
  0
VERTEX
  5
4EE2A
100
AcDbEntity
  8
0
100
AcDbVertex
100
AcDbPolygonMeshVertex
 10
1.5
 20
-1.963438
 30
0.0
 70
    64
  0
VERTEX
  5
4EE2B
100
AcDbEntity
  8
0
100
AcDbVertex
100
AcDbPolygonMeshVertex
 10
0.0
 20
-1.963438
 30
1.06
 70
    64
  0
VERTEX
  5
4EE2C
100
AcDbEntity
  8
0
100
AcDbVertex
100
AcDbPolygonMeshVertex
 10
0.0
 20
-1.963438
 30
0.0
 70
    64
  0
VERTEX
  5
4EE2D
100
AcDbEntity
  8
0
100
AcDbVertex
100
AcDbPolygonMeshVertex
 10
0.0
 20
-1.963438
 30
0.0
 70
    64
  0
VERTEX
  5
4EE2E
100
AcDbEntity
  8
0
100
AcDbVertex
100
AcDbPolygonMeshVertex
 10
0.0
 20
0.583437
 30
1.06
 70
    64
  0
VERTEX
  5
4EE2F
100
AcDbEntity
  8
0
100
AcDbVertex
100
AcDbPolygonMeshVertex
 10
0.0
 20
0.583437
 30
0.0
 70
    64
  0
VERTEX
  5
4EE30
100
AcDbEntity
  8
0
100
AcDbVertex
100
AcDbPolygonMeshVertex
 10
0.0
 20
-1.963438
 30
0.0
 70
    64
  0
VERTEX
  5
4EE31
100
AcDbEntity
  8
0
100
AcDbVertex
100
AcDbPolygonMeshVertex
 10
1.5
 20
0.583437
 30
1.06
 70
    64
  0
VERTEX
  5
4EE32
100
AcDbEntity
  8
0
100
AcDbVertex
100
AcDbPolygonMeshVertex
 10
1.5
 20
0.583437
 30
0.0
 70
    64
  0
VERTEX
  5
4EE33
100
AcDbEntity
  8
0
100
AcDbVertex
100
AcDbPolygonMeshVertex
 10
1.5
 20
-1.963438
 30
0.0
 70
    64
  0
VERTEX
  5
4EE34
100
AcDbEntity
  8
0
100
AcDbVertex
100
AcDbPolygonMeshVertex
 10
1.5
 20
0.583437
 30
1.06
 70
    64
  0
VERTEX
  5
4EE35
100
AcDbEntity
  8
0
100
AcDbVertex
100
AcDbPolygonMeshVertex
 10
1.5
 20
0.583437
 30
1.06
 70
    64
  0
VERTEX
  5
4EE36
100
AcDbEntity
  8
0
100
AcDbVertex
100
AcDbPolygonMeshVertex
 10
1.5
 20
-1.963438
 30
1.06
 70
    64
  0
VERTEX
  5
4EE37
100
AcDbEntity
  8
0
100
AcDbVertex
100
AcDbPolygonMeshVertex
 10
0.0
 20
0.583437
 30
1.06
 70
    64
  0
VERTEX
  5
4EE38
100
AcDbEntity
  8
0
100
AcDbVertex
100
AcDbPolygonMeshVertex
 10
0.0
 20
0.583437
 30
1.06
 70
    64
  0
VERTEX
  5
4EE39
100
AcDbEntity
  8
0
100
AcDbVertex
100
AcDbPolygonMeshVertex
 10
0.0
 20
-1.963438
 30
1.06
 70
    64
  0
SEQEND
  5
4EE3A
100
AcDbEntity
  8
0
  0
ATTDEF
  5
4EE3B
100
AcDbEntity
  8
ATTRIBUTES
100
AcDbText
 10
0.039636
 20
0.477426
 30
0.0
 40
0.084441
  1
ALLEN-BRADLEY
100
AcDbAttributeDefinition
  3
MANUFACTURER NAME?
  2
AC_VND_LABEL
 70
     1
  0
ATTDEF
  5
4EE3C
100
AcDbEntity
  8
ATTRIBUTES
100
AcDbText
 10
0.039636
 20
0.301506
 30
0.0
 40
0.084441
  1
700-HN100
100
AcDbAttributeDefinition
  3
CATALOG NUMBER?
  2
AC_PART_NO
 70
     1
  0
ATTDEF
  5
4EE3D
100
AcDbEntity
  8
ATTRIBUTES
100
AcDbText
 10
0.039636
 20
0.125587
 30
0.0
 40
0.084441
  1
CONTROL RELAY; GENERAL PURPOSE SOCKET; 8 PIN
100
AcDbAttributeDefinition
  3
PART DESCRIPTION?
  2
AC_DESCRIPTION
 70
     1
  0
ATTDEF
  5
4EE3E
100
AcDbEntity
  8
ATTRIBUTES
100
AcDbText
 10
0.039636
 20
-0.050333
 30
0.0
 40
0.084441
  1

100
AcDbAttributeDefinition
  3
DEVICE ID?
  2
DEVICE_ID
 70
     1
  0
ATTDEF
  5
4EE3F
100
AcDbEntity
  8
ATTRIBUTES
100
AcDbText
 10
0.039636
 20
-0.226252
 30
0.0
 40
0.084441
  1

100
AcDbAttributeDefinition
  3
CUSTOMER PART NUMBER?
  2
AC_CPART_NO
 70
     1
  0
ATTDEF
  5
4EE40
100
AcDbEntity
  8
ATTRIBUTES
100
AcDbText
 10
0.043763
 20
-0.391607
 30
0.0
 40
0.084441
  1

100
AcDbAttributeDefinition
  3
CUSTOMER NOTE?
  2
AC_NOTE
 70
     1
  0
ATTDEF
  5
4EE41
100
AcDbEntity
  8
ATTRIBUTES
100
AcDbText
 10
0.043763
 20
-0.567526
 30
0.0
 40
0.084441
  1
2, #4-40 M3
100
AcDbAttributeDefinition
  3
FASTENER DATA?
  2
FASTENER
 70
     1
  0
ATTDEF
  5
4EE42
100
AcDbEntity
  8
ATTRIBUTES
100
AcDbText
 10
0.043763
 20
-0.743446
 30
0.0
 40
0.084441
  1
INCH
100
AcDbAttributeDefinition
  3
UNIT OF SCALE?
  2
AC_SCALE_UNIT
 70
     1
  0
ATTDEF
  5
4EE43
100
AcDbEntity
  8
ATTRIBUTES
100
AcDbText
 10
0.043763
 20
-0.919365
 30
0.0
 40
0.084441
  1
0
100
AcDbAttributeDefinition
  3
VIEW CODE?
  2
AC_VIEW_CODE
 70
     1
  0
POLYLINE
  5
4EE44
100
AcDbEntity
  8
0
100
AcDbPolygonMesh
 66
     1
 10
0.0
 20
0.0
 30
0.0
 70
    16
 71
     6
 72
     3
  0
VERTEX
  5
4EE45
100
AcDbEntity
  8
0
100
AcDbVertex
100
AcDbPolygonMeshVertex
 10
1.5
 20
-1.38
 30
0.187
 70
    64
  0
VERTEX
  5
4EE46
100
AcDbEntity
  8
0
100
AcDbVertex
100
AcDbPolygonMeshVertex
 10
1.5
 20
-1.38
 30
0.0
 70
    64
  0
VERTEX
  5
4EE47
100
AcDbEntity
  8
0
100
AcDbVertex
100
AcDbPolygonMeshVertex
 10
1.5
 20
-1.38
 30
0.0
 70
    64
  0
VERTEX
  5
4EE48
100
AcDbEntity
  8
0
100
AcDbVertex
100
AcDbPolygonMeshVertex
 10
0.0
 20
-1.38
 30
0.187
 70
    64
  0
VERTEX
  5
4EE49
100
AcDbEntity
  8
0
100
AcDbVertex
100
AcDbPolygonMeshVertex
 10
0.0
 20
-1.38
 30
0.0
 70
    64
  0
VERTEX
  5
4EE4A
100
AcDbEntity
  8
0
100
AcDbVertex
100
AcDbPolygonMeshVertex
 10
0.0
 20
-1.38
 30
0.0
 70
    64
  0
VERTEX
  5
4EE4B
100
AcDbEntity
  8
0
100
AcDbVertex
100
AcDbPolygonMeshVertex
 10
0.0
 20
0.0
 30
0.187
 70
    64
  0
VERTEX
  5
4EE4C
100
AcDbEntity
  8
0
100
AcDbVertex
100
AcDbPolygonMeshVertex
 10
0.0
 20
0.0
 30
0.0
 70
    64
  0
VERTEX
  5
4EE4D
100
AcDbEntity
  8
0
100
AcDbVertex
100
AcDbPolygonMeshVertex
 10
0.0
 20
-1.38
 30
0.0
 70
    64
  0
VERTEX
  5
4EE4E
100
AcDbEntity
  8
0
100
AcDbVertex
100
AcDbPolygonMeshVertex
 10
1.5
 20
0.0
 30
0.187
 70
    64
  0
VERTEX
  5
4EE4F
100
AcDbEntity
  8
0
100
AcDbVertex
100
AcDbPolygonMeshVertex
 10
1.5
 20
0.0
 30
0.0
 70
    64
  0
VERTEX
  5
4EE50
100
AcDbEntity
  8
0
100
AcDbVertex
100
AcDbPolygonMeshVertex
 10
1.5
 20
-1.38
 30
0.0
 70
    64
  0
VERTEX
  5
4EE51
100
AcDbEntity
  8
0
100
AcDbVertex
100
AcDbPolygonMeshVertex
 10
1.5
 20
0.0
 30
0.187
 70
    64
  0
VERTEX
  5
4EE52
100
AcDbEntity
  8
0
100
AcDbVertex
100
AcDbPolygonMeshVertex
 10
1.5
 20
0.0
 30
0.187
 70
    64
  0
VERTEX
  5
4EE53
100
AcDbEntity
  8
0
100
AcDbVertex
100
AcDbPolygonMeshVertex
 10
1.5
 20
-1.38
 30
0.187
 70
    64
  0
VERTEX
  5
4EE54
100
AcDbEntity
  8
0
100
AcDbVertex
100
AcDbPolygonMeshVertex
 10
0.0
 20
0.0
 30
0.187
 70
    64
  0
VERTEX
  5
4EE55
100
AcDbEntity
  8
0
100
AcDbVertex
100
AcDbPolygonMeshVertex
 10
0.0
 20
0.0
 30
0.187
 70
    64
  0
VERTEX
  5
4EE56
100
AcDbEntity
  8
0
100
AcDbVertex
100
AcDbPolygonMeshVertex
 10
0.0
 20
-1.38
 30
0.187
 70
    64
  0
SEQEND
  5
4EE57
100
AcDbEntity
  8
0
  0
POINT
  5
4EE58
100
AcDbEntity
  8
SNAP_POINTS
100
AcDbPoint
 10
0.0
 20
0.0
 30
0.0
  0
POINT
  5
4EE59
100
AcDbEntity
  8
SNAP_POINTS
100
AcDbPoint
 10
0.75
 20
-0.69
 30
1.06
  0
POINT
  5
4EE5A
100
AcDbEntity
  8
DIMS-MTG-HOLES
100
AcDbPoint
 10
0.16
 20
-0.69
 30
0.0
  0
POINT
  5
4EE5B
100
AcDbEntity
  8
DIMS-MTG-HOLES
100
AcDbPoint
 10
1.34
 20
-0.69
 30
0.0
  0
ENDSEC
  0
SECTION
  2
OBJECTS
  0
DICTIONARY
  5
458CB
100
AcDbDictionary
  3
ACAD_GROUP
350
458CC
  3
ACAD_LAYOUT
350
458FB
  3
ACAD_MLINESTYLE
350
458D9
  3
ACAD_PLOTSETTINGS
350
458FC
  3
ACAD_PLOTSTYLENAME
350
458F9
  3
ACDBHEADERROUNDTRIPXREC
350
4EEF1
  3
ACDBVARIABLEDICTIONARY
350
458E1
  3
DWGPROPS
350
45901
  0
DICTIONARY
  5
4EEEF
100
AcDbDictionary
280
     1
  3
ACAD_XREC_ROUNDTRIP
360
4EEF0
  0
DICTIONARY
  5
4EF18
100
AcDbDictionary
280
     1
  3
ACAD_XREC_ROUNDTRIP
360
4EF19
  0
DICTIONARY
  5
4EEED
100
AcDbDictionary
280
     1
  3
ACAD_XREC_ROUNDTRIP
360
4EEEE
  0
DICTIONARY
  5
4EF14
100
AcDbDictionary
280
     1
  3
ACAD_XREC_ROUNDTRIP
360
4EF15
  0
DICTIONARY
  5
4592C
100
AcDbDictionary
280
     1
  3
ACAD_LAYOUTSELFREF
360
4EF13
  0
DICTIONARY
  5
4592A
100
AcDbDictionary
280
     1
  3
ACAD_LAYOUTSELFREF
360
4EF12
  0
DICTIONARY
  5
458CC
102
{ACAD_REACTORS
330
458CB
102
}
100
AcDbDictionary
  0
DICTIONARY
  5
458FB
102
{ACAD_XDICTIONARY
360
4EF16
102
}
102
{ACAD_REACTORS
330
458CB
102
}
100
AcDbDictionary
  3
LAYOUT1
350
458FE
  3
MODEL
350
458FD
  0
DICTIONARY
  5
458D9
102
{ACAD_REACTORS
330
458CB
102
}
100
AcDbDictionary
  3
STANDARD
350
458DA
  0
DICTIONARY
  5
458FC
102
{ACAD_REACTORS
330
458CB
102
}
100
AcDbDictionary
  0
ACAD_PROXY_OBJECT
  5
458F9
102
{ACAD_REACTORS
330
458CB
102
}
100
AcDbProxyObject
 90
      499
 91
      501
 93
       86
310
405010041939BDC9B585B0
350
458FA
340
458FA
 94
        0
  0
DICTIONARY
  5
4EEF1
102
{ACAD_REACTORS
330
458CB
102
}
100
AcDbDictionary
  3
CEPSNTYPE
350
4EEFB
  3
DIMSTYLEDATA
350
4EEFF
  3
FINGERPRINTGUID
350
4EEFC
  3
HYPERLINKBASE
350
4EEF4
  3
INSUNITS
350
4EEFA
  3
LAYOUTDICT
350
4EEF6
  3
LWETCUNION
350
4EEF9
  3
PLOTSETDICT
350
4EEF7
  3
PLOTSTYLNAMDICT
350
4EEF8
  3
PSVPSCALE
350
4EEFE
  3
PUCSBASE
350
4EF02
  3
PUCSORGBACK
350
4EF08
  3
PUCSORGBOTTOM
350
4EF04
  3
PUCSORGFRONT
350
4EF07
  3
PUCSORGLEFT
350
4EF05
  3
PUCSORGRIGHT
350
4EF06
  3
PUCSORGTOP
350
4EF03
  3
PUCSORTHOREF
350
4EF00
  3
PUCSORTHOVIEW
350
4EF01
  3
STYLESHEET
350
4EEF5
  3
TSTACKALIGN
350
4EEF2
  3
TSTACKSIZE
350
4EEF3
  3
UCSBASE
350
4EF0B
  3
UCSORGBACK
350
4EF11
  3
UCSORGBOTTOM
350
4EF0D
  3
UCSORGFRONT
350
4EF10
  3
UCSORGLEFT
350
4EF0E
  3
UCSORGRIGHT
350
4EF0F
  3
UCSORGTOP
350
4EF0C
  3
UCSORTHOREF
350
4EF09
  3
UCSORTHOVIEW
350
4EF0A
  3
VERSIONGUID
350
4EEFD
  0
DICTIONARY
  5
458E1
102
{ACAD_REACTORS
330
458CB
102
}
100
AcDbDictionary
  3
DIMADEC
350
458E2
  0
XRECORD
  5
45901
102
{ACAD_REACTORS
330
458CB
102
}
100
AcDbXrecord
  1
DWGPROPS COOKIE
  2

  3

  4

  6

  7

  8
colin
  9

300
=
301
=
302
=
303
=
304
=
305
=
306
=
307
=
308
=
309
=
 40
0.000599
 41
2451670.444777
 42
2451670.445376
  1

 90
        0
  0
XRECORD
  5
4EEF0
102
{ACAD_REACTORS
330
4EEEF
102
}
100
AcDbXrecord
102
EXTNAMES
  1
*ACTIVE
  2
*Active
102
UCS
 74
     0
 71
     1
 10
0.0
 20
0.0
 30
0.0
 10
1.0
 20
0.0
 30
0.0
 10
0.0
 20
1.0
 30
0.0
146
0.0
 79
     1
102
VIEW
281
     1
  0
XRECORD
  5
4EF19
102
{ACAD_REACTORS
330
4EF18
102
}
100
AcDbXrecord
102
PLOTBIT
280
     0
  0
XRECORD
  5
4EEEE
102
{ACAD_REACTORS
330
4EEED
102
}
100
AcDbXrecord
102
EXTNAMES
  1
DEFPOINTS
  2
Defpoints
102
PLOTBIT
280
     0
  0
XRECORD
  5
4EF15
102
{ACAD_REACTORS
330
4EF14
102
}
100
AcDbXrecord
102
ACADR14ROUNDTRIP
1000
DSTYLE
1002
{
1070
   276
 70
     2
1070
   277
 70
     5
1070
   279
 70
     2
1002
}
  0
XRECORD
  5
4EF13
102
{ACAD_REACTORS
330
4592C
102
}
100
AcDbXrecord
340
458D6
  0
XRECORD
  5
4EF12
102
{ACAD_REACTORS
330
4592A
102
}
100
AcDbXrecord
340
458D3
  0
DICTIONARY
  5
4EF16
100
AcDbDictionary
280
     1
  3
ACAD_XREC_ROUNDTRIP
360
4EF17
  0
ACAD_PROXY_OBJECT
  5
458FE
102
{ACAD_REACTORS
330
458FB
102
}
100
AcDbProxyObject
 90
      499
 91
      503
 93
     1348
310
91D4850204C617365724A65742035303030205365726965732050434C20362C00AAAAAA416AA547D11959985D5B1D08148C4D081C195B88185CDCDA59DB9B595B9D1CCB98DD1891069074C61796F75743140501A800000000000000000000000000000000000000000000A1000000000000008902A6A6A10232D5E076BC551
310
0408CB5781DAF154410232D5E076BC5510408CB5781DAF15C410232D5E076BC5710408CB5781DAF15C40
330
458D3
330
0
340
0
340
0
 94
        0
  0
ACAD_PROXY_OBJECT
  5
458FD
102
{ACAD_REACTORS
330
458FB
102
}
100
AcDbProxyObject
 90
      499
 91
      503
 93
      924
310
91D4850204C617365724A65742035303030205365726965732050434C20362C01AAAAAAAAA547D11959985D5B1D08148C4D081C195B88185CDCDA59DB9B595B9D1CCB98DD18A69054D6F64656C901A800000000000000000000000000000000000000000000A1000000000000008902A6A6AAAA8
330
458D6
330
0
340
0
340
0
 94
        0
  0
MLINESTYLE
  5
458DA
102
{ACAD_REACTORS
330
458D9
102
}
100
AcDbMlineStyle
  2
STANDARD
 70
     0
  3

 62
   256
 51
90.0
 52
90.0
 71
     2
 49
0.5
 62
   256
  6
BYLAYER
 49
-0.5
 62
   256
  6
BYLAYER
  0
ACAD_PROXY_OBJECT
  5
458FA
102
{ACAD_REACTORS
330
458F9
102
}
100
AcDbProxyObject
 90
      499
 91
      502
 93
        0
 94
        0
  0
XRECORD
  5
4EEFB
102
{ACAD_REACTORS
330
4EEF1
102
}
100
AcDbXrecord
 90
        0
  0
XRECORD
  5
4EEFF
102
{ACAD_REACTORS
330
4EEF1
102
}
100
AcDbXrecord
1000
DSTYLE
1002
{
1070
   276
 70
     2
1070
   277
 70
     5
1070
   279
 70
     2
1002
}
  0
XRECORD
  5
4EEFC
102
{ACAD_REACTORS
330
4EEF1
102
}
100
AcDbXrecord
  1
{6E0CF4B8-225E-11D4-A150-00A0CC3303EC}
  0
XRECORD
  5
4EEF4
102
{ACAD_REACTORS
330
4EEF1
102
}
100
AcDbXrecord
  1

  0
XRECORD
  5
4EEFA
102
{ACAD_REACTORS
330
4EEF1
102
}
100
AcDbXrecord
 90
        0
  0
XRECORD
  5
4EEF6
102
{ACAD_REACTORS
330
4EEF1
102
}
100
AcDbXrecord
340
458FB
  0
XRECORD
  5
4EEF9
102
{ACAD_REACTORS
330
4EEF1
102
}
100
AcDbXrecord
 90
    14877
  0
XRECORD
  5
4EEF7
102
{ACAD_REACTORS
330
4EEF1
102
}
100
AcDbXrecord
340
458FC
  0
XRECORD
  5
4EEF8
102
{ACAD_REACTORS
330
4EEF1
102
}
100
AcDbXrecord
340
458F9
  0
XRECORD
  5
4EEFE
102
{ACAD_REACTORS
330
4EEF1
102
}
100
AcDbXrecord
 40
0.0
  0
XRECORD
  5
4EF02
102
{ACAD_REACTORS
330
4EEF1
102
}
100
AcDbXrecord
340
0
  0
XRECORD
  5
4EF08
102
{ACAD_REACTORS
330
4EEF1
102
}
100
AcDbXrecord
 10
0.0
 20
0.0
 30
0.0
  0
XRECORD
  5
4EF04
102
{ACAD_REACTORS
330
4EEF1
102
}
100
AcDbXrecord
 10
0.0
 20
0.0
 30
0.0
  0
XRECORD
  5
4EF07
102
{ACAD_REACTORS
330
4EEF1
102
}
100
AcDbXrecord
 10
0.0
 20
0.0
 30
0.0
  0
XRECORD
  5
4EF05
102
{ACAD_REACTORS
330
4EEF1
102
}
100
AcDbXrecord
 10
0.0
 20
0.0
 30
0.0
  0
XRECORD
  5
4EF06
102
{ACAD_REACTORS
330
4EEF1
102
}
100
AcDbXrecord
 10
0.0
 20
0.0
 30
0.0
  0
XRECORD
  5
4EF03
102
{ACAD_REACTORS
330
4EEF1
102
}
100
AcDbXrecord
 10
0.0
 20
0.0
 30
0.0
  0
XRECORD
  5
4EF00
102
{ACAD_REACTORS
330
4EEF1
102
}
100
AcDbXrecord
340
0
  0
XRECORD
  5
4EF01
102
{ACAD_REACTORS
330
4EEF1
102
}
100
AcDbXrecord
 70
     0
  0
XRECORD
  5
4EEF5
102
{ACAD_REACTORS
330
4EEF1
102
}
100
AcDbXrecord
  1

  0
XRECORD
  5
4EEF2
102
{ACAD_REACTORS
330
4EEF1
102
}
100
AcDbXrecord
 90
        1
  0
XRECORD
  5
4EEF3
102
{ACAD_REACTORS
330
4EEF1
102
}
100
AcDbXrecord
 90
       70
  0
XRECORD
  5
4EF0B
102
{ACAD_REACTORS
330
4EEF1
102
}
100
AcDbXrecord
340
0
  0
XRECORD
  5
4EF11
102
{ACAD_REACTORS
330
4EEF1
102
}
100
AcDbXrecord
 10
0.0
 20
0.0
 30
0.0
  0
XRECORD
  5
4EF0D
102
{ACAD_REACTORS
330
4EEF1
102
}
100
AcDbXrecord
 10
0.0
 20
0.0
 30
0.0
  0
XRECORD
  5
4EF10
102
{ACAD_REACTORS
330
4EEF1
102
}
100
AcDbXrecord
 10
0.0
 20
0.0
 30
0.0
  0
XRECORD
  5
4EF0E
102
{ACAD_REACTORS
330
4EEF1
102
}
100
AcDbXrecord
 10
0.0
 20
0.0
 30
0.0
  0
XRECORD
  5
4EF0F
102
{ACAD_REACTORS
330
4EEF1
102
}
100
AcDbXrecord
 10
0.0
 20
0.0
 30
0.0
  0
XRECORD
  5
4EF0C
102
{ACAD_REACTORS
330
4EEF1
102
}
100
AcDbXrecord
 10
0.0
 20
0.0
 30
0.0
  0
XRECORD
  5
4EF09
102
{ACAD_REACTORS
330
4EEF1
102
}
100
AcDbXrecord
340
0
  0
XRECORD
  5
4EF0A
102
{ACAD_REACTORS
330
4EEF1
102
}
100
AcDbXrecord
 70
     1
  0
XRECORD
  5
4EEFD
102
{ACAD_REACTORS
330
4EEF1
102
}
100
AcDbXrecord
  1
{911BAF15-C2BD-4150-8EA1-FB6EA2DA04BC}
  0
DICTIONARYVAR
  5
458E2
102
{ACAD_REACTORS
330
458E1
102
}
100
DictionaryVariables
280
     0
  1
0
  0
XRECORD
  5
4EF17
102
{ACAD_REACTORS
330
4EF16
102
}
100
AcDbXrecord
102
EXTNAMES
  1
LAYOUT1
  2
Layout1
  1
MODEL
  2
Model
  0
ENDSEC
  0
EOF
