  0
SECTION
  2
HEADER
  9
$ACADVER
  1
AC1014
  9
$ACADMAINTVER
 70
     8
  9
$DWGCODEPAGE
  3
ANSI_1252
  9
$INSBASE
 10
0.0
 20
0.0
 30
0.0
  9
$EXTMIN
 10
-0.979304
 20
-2.906465
 30
-0.09212
  9
$EXTMAX
 10
1.655639
 20
1.370139
 30
1.381213
  9
$LIMMIN
 10
0.0
 20
0.0
  9
$LIMMAX
 10
12.0
 20
9.0
  9
$ORTHOMODE
 70
     0
  9
$REGENMODE
 70
     1
  9
$FILLMODE
 70
     1
  9
$QTEXTMODE
 70
     0
  9
$MIRRTEXT
 70
     1
  9
$DRAGMODE
 70
     2
  9
$LTSCALE
 40
1.0
  9
$OSMODE
 70
    37
  9
$ATTMODE
 70
     0
  9
$TEXTSIZE
 40
0.2
  9
$TRACEWID
 40
0.05
  9
$TEXTSTYLE
  7
STANDARD
  9
$CLAYER
  8
0
  9
$CELTYPE
  6
BYLAYER
  9
$CECOLOR
 62
   256
  9
$CELTSCALE
 40
1.0
  9
$DELOBJ
 70
     1
  9
$DISPSILH
 70
     0
  9
$DIMSCALE
 40
0.0
  9
$DIMASZ
 40
0.18
  9
$DIMEXO
 40
0.0625
  9
$DIMDLI
 40
0.375
  9
$DIMRND
 40
0.0
  9
$DIMDLE
 40
0.0
  9
$DIMEXE
 40
0.18
  9
$DIMTP
 40
0.0
  9
$DIMTM
 40
0.0
  9
$DIMTXT
 40
0.13
  9
$DIMCEN
 40
0.09
  9
$DIMTSZ
 40
0.0
  9
$DIMTOL
 70
     0
  9
$DIMLIM
 70
     0
  9
$DIMTIH
 70
     0
  9
$DIMTOH
 70
     1
  9
$DIMSE1
 70
     0
  9
$DIMSE2
 70
     0
  9
$DIMTAD
 70
     0
  9
$DIMZIN
 70
     4
  9
$DIMBLK
  1

  9
$DIMASO
 70
     1
  9
$DIMSHO
 70
     1
  9
$DIMPOST
  1

  9
$DIMAPOST
  1

  9
$DIMALT
 70
     1
  9
$DIMALTD
 70
     2
  9
$DIMALTF
 40
25.4
  9
$DIMLFAC
 40
1.0
  9
$DIMTOFL
 70
     0
  9
$DIMTVP
 40
0.0
  9
$DIMTIX
 70
     0
  9
$DIMSOXD
 70
     0
  9
$DIMSAH
 70
     0
  9
$DIMBLK1
  1

  9
$DIMBLK2
  1

  9
$DIMSTYLE
  2
ABECAD_3V
  9
$DIMCLRD
 70
     0
  9
$DIMCLRE
 70
     0
  9
$DIMCLRT
 70
     0
  9
$DIMTFAC
 40
1.5
  9
$DIMGAP
 40
0.09
  9
$DIMJUST
 70
     0
  9
$DIMSD1
 70
     0
  9
$DIMSD2
 70
     0
  9
$DIMTOLJ
 70
     1
  9
$DIMTZIN
 70
     4
  9
$DIMALTZ
 70
     4
  9
$DIMALTTZ
 70
     4
  9
$DIMFIT
 70
     5
  9
$DIMUPT
 70
     1
  9
$DIMUNIT
 70
     7
  9
$DIMDEC
 70
     6
  9
$DIMTDEC
 70
     6
  9
$DIMALTU
 70
     2
  9
$DIMALTTD
 70
     2
  9
$DIMTXSTY
  7
STANDARD
  9
$DIMAUNIT
 70
     0
  9
$LUNITS
 70
     2
  9
$LUPREC
 70
     6
  9
$SKETCHINC
 40
0.1
  9
$FILLETRAD
 40
0.0
  9
$AUNITS
 70
     0
  9
$AUPREC
 70
     0
  9
$MENU
  1
acad
  9
$ELEVATION
 40
0.0
  9
$PELEVATION
 40
0.0
  9
$THICKNESS
 40
0.0
  9
$LIMCHECK
 70
     0
  9
$BLIPMODE
 70
     0
  9
$CHAMFERA
 40
0.0
  9
$CHAMFERB
 40
0.0
  9
$CHAMFERC
 40
0.0
  9
$CHAMFERD
 40
0.0
  9
$SKPOLY
 70
     0
  9
$TDCREATE
 40
2451726.438362384
  9
$TDUPDATE
 40
2452010.731510879
  9
$TDINDWG
 40
0.2128658565
  9
$TDUSRTIMER
 40
0.2128658565
  9
$USRTIMER
 70
     1
  9
$ANGBASE
 50
0.0
  9
$ANGDIR
 70
     0
  9
$PDMODE
 70
     3
  9
$PDSIZE
 40
0.18
  9
$PLINEWID
 40
0.0
  9
$COORDS
 70
     1
  9
$SPLFRAME
 70
     0
  9
$SPLINETYPE
 70
     6
  9
$SPLINESEGS
 70
     8
  9
$ATTDIA
 70
     0
  9
$ATTREQ
 70
     1
  9
$HANDLING
 70
     1
  9
$HANDSEED
  5
BD7A
  9
$SURFTAB1
 70
     6
  9
$SURFTAB2
 70
     6
  9
$SURFTYPE
 70
     6
  9
$SURFU
 70
     6
  9
$SURFV
 70
     6
  9
$UCSNAME
  2

  9
$UCSORG
 10
0.0
 20
0.0
 30
0.0
  9
$UCSXDIR
 10
1.0
 20
0.0
 30
0.0
  9
$UCSYDIR
 10
0.0
 20
0.0
 30
1.0
  9
$PUCSNAME
  2

  9
$PUCSORG
 10
0.0
 20
0.0
 30
0.0
  9
$PUCSXDIR
 10
1.0
 20
0.0
 30
0.0
  9
$PUCSYDIR
 10
0.0
 20
1.0
 30
0.0
  9
$USERI1
 70
     0
  9
$USERI2
 70
     0
  9
$USERI3
 70
     0
  9
$USERI4
 70
     0
  9
$USERI5
 70
     0
  9
$USERR1
 40
0.0
  9
$USERR2
 40
0.0
  9
$USERR3
 40
0.0
  9
$USERR4
 40
0.0
  9
$USERR5
 40
0.0
  9
$WORLDVIEW
 70
     1
  9
$SHADEDGE
 70
     3
  9
$SHADEDIF
 70
    70
  9
$TILEMODE
 70
     0
  9
$MAXACTVP
 70
    16
  9
$PINSBASE
 10
0.0
 20
0.0
 30
0.0
  9
$PLIMCHECK
 70
     0
  9
$PEXTMIN
 10
0.0
 20
0.0
 30
0.0
  9
$PEXTMAX
 10
10.0
 20
7.5
 30
0.0
  9
$PLIMMIN
 10
-0.187029
 20
-0.186938
  9
$PLIMMAX
 10
10.187518
 20
7.829757
  9
$UNITMODE
 70
     0
  9
$VISRETAIN
 70
     0
  9
$PLINEGEN
 70
     0
  9
$PSLTSCALE
 70
     1
  9
$TREEDEPTH
 70
  3020
  9
$PICKSTYLE
 70
     1
  9
$CMLSTYLE
  2
STANDARD
  9
$CMLJUST
 70
     0
  9
$CMLSCALE
 40
1.0
  9
$PROXYGRAPHICS
 70
     1
  9
$MEASUREMENT
 70
     0
  0
ENDSEC
  0
SECTION
  2
CLASSES
  0
CLASS
  1
DICTIONARYVAR
  2
AcDbDictionaryVar
  3
"AutoCAD"
 90
        0
280
     0
281
     0
  0
CLASS
  1
ACDBDICTIONARYWDFLT
  2
AcDbDictionaryWithDefault
  3
AutoCAD 2000
 90
        0
280
     0
281
     0
  0
CLASS
  1
ACDBPLACEHOLDER
  2
AcDbPlaceHolder
  3
AutoCAD 2000
 90
        0
280
     0
281
     0
  0
CLASS
  1
LAYOUT
  2
AcDbLayout
  3
AutoCAD 2000
 90
        0
280
     0
281
     0
  0
CLASS
  1
LONG_TRANSACTION
  2
AcDbLongTransaction
  3
AutoCAD 2000
 90
        0
280
     0
281
     0
  0
CLASS
  1
LWPOLYLINE
  2
AcDbPolyline
  3
"AutoCAD"
 90
        0
280
     0
281
     1
  0
CLASS
  1
HATCH
  2
AcDbHatch
  3
"ACAD_SEDONA"
 90
        0
280
     0
281
     1
  0
CLASS
  1
XRECORD
  2
AcDbXrecord
  3
"<Built In>"
 90
        0
280
     0
281
     0
  0
CLASS
  1
LONG_TRANSACTION
  2
AcDbLongTransaction
  3
AutoCAD 2000
 90
        0
280
     0
281
     0
  0
CLASS
  1
LWPOLYLINE
  2
AcDbPolyline
  3
"AutoCAD"
 90
        0
280
     0
281
     1
  0
CLASS
  1
HATCH
  2
AcDbHatch
  3
"ACAD_SEDONA"
 90
        0
280
     0
281
     1
  0
CLASS
  1
XRECORD
  2
AcDbXrecord
  3
"<Built In>"
 90
        0
280
     0
281
     0
  0
CLASS
  1
LONG_TRANSACTION
  2
AcDbLongTransaction
  3
AutoCAD 2000
 90
        0
280
     0
281
     0
  0
CLASS
  1
LWPOLYLINE
  2
AcDbPolyline
  3
"AutoCAD"
 90
        0
280
     0
281
     1
  0
CLASS
  1
HATCH
  2
AcDbHatch
  3
"ACAD_SEDONA"
 90
        0
280
     0
281
     1
  0
CLASS
  1
XRECORD
  2
AcDbXrecord
  3
"<Built In>"
 90
        0
280
     0
281
     0
  0
CLASS
  1
LONG_TRANSACTION
  2
AcDbLongTransaction
  3
AutoCAD 2000
 90
        0
280
     0
281
     0
  0
CLASS
  1
LWPOLYLINE
  2
AcDbPolyline
  3
"AutoCAD"
 90
        0
280
     0
281
     1
  0
CLASS
  1
HATCH
  2
AcDbHatch
  3
"ACAD_SEDONA"
 90
        0
280
     0
281
     1
  0
CLASS
  1
XRECORD
  2
AcDbXrecord
  3
"<Built In>"
 90
        0
280
     0
281
     0
  0
CLASS
  1
LONG_TRANSACTION
  2
AcDbLongTransaction
  3
AutoCAD 2000
 90
        0
280
     0
281
     0
  0
CLASS
  1
LWPOLYLINE
  2
AcDbPolyline
  3
"AutoCAD"
 90
        0
280
     0
281
     1
  0
CLASS
  1
HATCH
  2
AcDbHatch
  3
"ACAD_SEDONA"
 90
        0
280
     0
281
     1
  0
CLASS
  1
XRECORD
  2
AcDbXrecord
  3
"<Built In>"
 90
        0
280
     0
281
     0
  0
CLASS
  1
LONG_TRANSACTION
  2
AcDbLongTransaction
  3
AutoCAD 2000
 90
        0
280
     0
281
     0
  0
CLASS
  1
LWPOLYLINE
  2
AcDbPolyline
  3
"AutoCAD"
 90
        0
280
     0
281
     1
  0
CLASS
  1
HATCH
  2
AcDbHatch
  3
"ACAD_SEDONA"
 90
        0
280
     0
281
     1
  0
CLASS
  1
XRECORD
  2
AcDbXrecord
  3
"<Built In>"
 90
        0
280
     0
281
     0
  0
CLASS
  1
LONG_TRANSACTION
  2
AcDbLongTransaction
  3
AutoCAD 2000
 90
        0
280
     0
281
     0
  0
CLASS
  1
LWPOLYLINE
  2
AcDbPolyline
  3
"AutoCAD"
 90
        0
280
     0
281
     1
  0
CLASS
  1
HATCH
  2
AcDbHatch
  3
"ACAD_SEDONA"
 90
        0
280
     0
281
     1
  0
CLASS
  1
XRECORD
  2
AcDbXrecord
  3
"<Built In>"
 90
        0
280
     0
281
     0
  0
CLASS
  1
LONG_TRANSACTION
  2
AcDbLongTransaction
  3
AutoCAD 2000
 90
        0
280
     0
281
     0
  0
CLASS
  1
LWPOLYLINE
  2
AcDbPolyline
  3
"AutoCAD"
 90
        0
280
     0
281
     1
  0
CLASS
  1
HATCH
  2
AcDbHatch
  3
"ACAD_SEDONA"
 90
        0
280
     0
281
     1
  0
CLASS
  1
XRECORD
  2
AcDbXrecord
  3
"<Built In>"
 90
        0
280
     0
281
     0
  0
CLASS
  1
LONG_TRANSACTION
  2
AcDbLongTransaction
  3
AutoCAD 2000
 90
        0
280
     0
281
     0
  0
CLASS
  1
LWPOLYLINE
  2
AcDbPolyline
  3
"AutoCAD"
 90
        0
280
     0
281
     1
  0
CLASS
  1
HATCH
  2
AcDbHatch
  3
"ACAD_SEDONA"
 90
        0
280
     0
281
     1
  0
CLASS
  1
XRECORD
  2
AcDbXrecord
  3
"<Built In>"
 90
        0
280
     0
281
     0
  0
CLASS
  1
LONG_TRANSACTION
  2
AcDbLongTransaction
  3
AutoCAD 2000
 90
        0
280
     0
281
     0
  0
CLASS
  1
LWPOLYLINE
  2
AcDbPolyline
  3
"AutoCAD"
 90
        0
280
     0
281
     1
  0
CLASS
  1
HATCH
  2
AcDbHatch
  3
"ACAD_SEDONA"
 90
        0
280
     0
281
     1
  0
CLASS
  1
XRECORD
  2
AcDbXrecord
  3
"<Built In>"
 90
        0
280
     0
281
     0
  0
CLASS
  1
LONG_TRANSACTION
  2
AcDbLongTransaction
  3
AutoCAD 2000
 90
        0
280
     0
281
     0
  0
CLASS
  1
LWPOLYLINE
  2
AcDbPolyline
  3
"AutoCAD"
 90
        0
280
     0
281
     1
  0
CLASS
  1
HATCH
  2
AcDbHatch
  3
"ACAD_SEDONA"
 90
        0
280
     0
281
     1
  0
CLASS
  1
XRECORD
  2
AcDbXrecord
  3
"<Built In>"
 90
        0
280
     0
281
     0
  0
CLASS
  1
LONG_TRANSACTION
  2
AcDbLongTransaction
  3
AutoCAD 2000
 90
        0
280
     0
281
     0
  0
CLASS
  1
LWPOLYLINE
  2
AcDbPolyline
  3
"AutoCAD"
 90
        0
280
     0
281
     1
  0
CLASS
  1
HATCH
  2
AcDbHatch
  3
"ACAD_SEDONA"
 90
        0
280
     0
281
     1
  0
CLASS
  1
XRECORD
  2
AcDbXrecord
  3
"<Built In>"
 90
        0
280
     0
281
     0
  0
CLASS
  1
LONG_TRANSACTION
  2
AcDbLongTransaction
  3
AutoCAD 2000
 90
        0
280
     0
281
     0
  0
CLASS
  1
LWPOLYLINE
  2
AcDbPolyline
  3
"AutoCAD"
 90
        0
280
     0
281
     1
  0
CLASS
  1
HATCH
  2
AcDbHatch
  3
"ACAD_SEDONA"
 90
        0
280
     0
281
     1
  0
CLASS
  1
XRECORD
  2
AcDbXrecord
  3
"<Built In>"
 90
        0
280
     0
281
     0
  0
CLASS
  1
LONG_TRANSACTION
  2
AcDbLongTransaction
  3
AutoCAD 2000
 90
        0
280
     0
281
     0
  0
CLASS
  1
LWPOLYLINE
  2
AcDbPolyline
  3
"AutoCAD"
 90
        0
280
     0
281
     1
  0
CLASS
  1
HATCH
  2
AcDbHatch
  3
"ACAD_SEDONA"
 90
        0
280
     0
281
     1
  0
CLASS
  1
XRECORD
  2
AcDbXrecord
  3
"<Built In>"
 90
        0
280
     0
281
     0
  0
ENDSEC
  0
SECTION
  2
TABLES
  0
TABLE
  2
VPORT
  5
469
100
AcDbSymbolTable
 70
     1
  0
VPORT
  5
BD08
102
{ACAD_XDICTIONARY
360
BD42
102
}
100
AcDbSymbolTableRecord
100
AcDbViewportTableRecord
  2
*ACTIVE
 70
     0
 10
0.0
 20
0.0
 11
1.0
 21
1.0
 12
0.422566
 22
-1.611518
 13
0.0
 23
0.0
 14
1.0
 24
1.0
 15
0.0
 25
0.0
 16
0.0
 26
0.0
 36
1.0
 17
-0.084399
 27
0.843356
 37
0.0
 40
4.325573
 41
1.82218
 42
50.0
 43
0.0
 44
0.0
 50
0.0
 51
0.0
 71
     0
 72
   100
 73
     1
 74
     1
 75
     0
 76
     0
 77
     0
 78
     0
  0
ENDTAB
  0
TABLE
  2
LTYPE
  5
466
100
AcDbSymbolTable
 70
     1
  0
LTYPE
  5
472
100
AcDbSymbolTableRecord
100
AcDbLinetypeTableRecord
  2
BYBLOCK
 70
     0
  3

 72
    65
 73
     0
 40
0.0
  0
LTYPE
  5
473
100
AcDbSymbolTableRecord
100
AcDbLinetypeTableRecord
  2
BYLAYER
 70
     0
  3

 72
    65
 73
     0
 40
0.0
  0
LTYPE
  5
474
100
AcDbSymbolTableRecord
100
AcDbLinetypeTableRecord
  2
CONTINUOUS
 70
     0
  3
Solid line
 72
    65
 73
     0
 40
0.0
  0
ENDTAB
  0
TABLE
  2
LAYER
  5
463
100
AcDbSymbolTable
 70
     8
  0
LAYER
  5
46F
100
AcDbSymbolTableRecord
100
AcDbLayerTableRecord
  2
0
 70
     0
 62
     7
  6
CONTINUOUS
  0
LAYER
  5
485
100
AcDbSymbolTableRecord
100
AcDbLayerTableRecord
  2
AREA1
 70
     0
 62
     7
  6
CONTINUOUS
  0
LAYER
  5
486
100
AcDbSymbolTableRecord
100
AcDbLayerTableRecord
  2
AREA2
 70
     0
 62
     7
  6
CONTINUOUS
  0
LAYER
  5
494
102
{ACAD_XDICTIONARY
360
BD6F
102
}
100
AcDbSymbolTableRecord
100
AcDbLayerTableRecord
  2
DEFPOINTS
 70
     0
 62
    -7
  6
CONTINUOUS
  0
LAYER
  5
495
100
AcDbSymbolTableRecord
100
AcDbLayerTableRecord
  2
DIMS-MTG-HOLES
 70
     0
 62
    -1
  6
CONTINUOUS
  0
LAYER
  5
4E6
100
AcDbSymbolTableRecord
100
AcDbLayerTableRecord
  2
SCALE
 70
     0
 62
    -7
  6
CONTINUOUS
  0
LAYER
  5
4ED
100
AcDbSymbolTableRecord
100
AcDbLayerTableRecord
  2
SNAP_POINTS
 70
     0
 62
    -1
  6
CONTINUOUS
  0
LAYER
  5
4F1
100
AcDbSymbolTableRecord
100
AcDbLayerTableRecord
  2
ATTRIBUTES
 70
     0
 62
    -7
  6
CONTINUOUS
  0
ENDTAB
  0
TABLE
  2
STYLE
  5
464
100
AcDbSymbolTable
 70
     1
  0
STYLE
  5
470
100
AcDbSymbolTableRecord
100
AcDbTextStyleTableRecord
  2
STANDARD
 70
     0
 40
0.0
 41
1.0
 50
0.0
 71
     0
 42
0.2
  3
txt
  4

  0
ENDTAB
  0
TABLE
  2
VIEW
  5
467
100
AcDbSymbolTable
 70
     0
  0
ENDTAB
  0
TABLE
  2
UCS
  5
468
100
AcDbSymbolTable
 70
     0
  0
ENDTAB
  0
TABLE
  2
APPID
  5
46A
100
AcDbSymbolTable
 70
     2
  0
APPID
  5
471
100
AcDbSymbolTableRecord
100
AcDbRegAppTableRecord
  2
ACAD
 70
     0
  0
APPID
  5
47E
100
AcDbSymbolTableRecord
100
AcDbRegAppTableRecord
  2
AVE_RENDER
 70
     0
  0
ENDTAB
  0
TABLE
  2
DIMSTYLE
  5
46B
100
AcDbSymbolTable
 70
     2
  0
DIMSTYLE
105
49A
102
{ACAD_XDICTIONARY
360
BD71
102
}
102
{ACAD_REACTORS
330
BCDF
102
}
100
AcDbSymbolTableRecord
100
AcDbDimStyleTableRecord
  2
ABECAD_3V
 70
     0
  3

  4

  5

  6

  7

 40
0.0
 41
0.18
 42
0.0625
 43
0.375
 44
0.18
 45
0.0
 46
0.0
 47
0.0
 48
0.0
140
0.13
141
0.09
142
0.0
143
25.4
144
1.0
145
0.0
146
1.5
147
0.09
 71
     0
 72
     0
 73
     0
 74
     1
 75
     0
 76
     0
 77
     0
 78
     4
170
     1
171
     2
172
     0
173
     0
174
     0
175
     0
176
     0
177
     0
178
     0
270
     7
271
     6
272
     6
273
     2
274
     2
340
470
275
     0
280
     0
281
     0
282
     0
283
     1
284
     4
285
     4
286
     4
287
     5
288
     1
  0
DIMSTYLE
105
512
102
{ACAD_XDICTIONARY
360
BD75
102
}
102
{ACAD_REACTORS
330
BC4F
330
BC50
102
}
100
AcDbSymbolTableRecord
100
AcDbDimStyleTableRecord
  2
ABECAD_3D
 70
     0
  3

  4

  5

  6

  7

 40
1.0
 41
0.18
 42
0.0625
 43
0.375
 44
0.18
 45
0.0
 46
0.0
 47
0.0
 48
0.0
140
0.18
141
0.09
142
0.0
143
25.4
144
1.0
145
0.0
146
1.5
147
0.09
 71
     0
 72
     0
 73
     0
 74
     1
 75
     0
 76
     0
 77
     0
 78
     4
170
     1
171
     2
172
     0
173
     0
174
     0
175
     0
176
     0
177
     0
178
     0
270
     7
271
     6
272
     6
273
     2
274
     2
340
470
275
     0
280
     0
281
     0
282
     0
283
     1
284
     4
285
     4
286
     4
287
     5
288
     1
  0
ENDTAB
  0
TABLE
  2
BLOCK_RECORD
  5
462
100
AcDbSymbolTable
 70
     3
  0
BLOCK_RECORD
  5
478
102
{ACAD_XDICTIONARY
360
4D2
102
}
100
AcDbSymbolTableRecord
100
AcDbBlockTableRecord
  2
*MODEL_SPACE
  0
BLOCK_RECORD
  5
475
102
{ACAD_XDICTIONARY
360
4D0
102
}
100
AcDbSymbolTableRecord
100
AcDbBlockTableRecord
  2
*PAPER_SPACE
  0
BLOCK_RECORD
  5
BCB5
100
AcDbSymbolTableRecord
100
AcDbBlockTableRecord
  2
*D0
  0
BLOCK_RECORD
  5
BCC1
100
AcDbSymbolTableRecord
100
AcDbBlockTableRecord
  2
*D1
  0
BLOCK_RECORD
  5
BCE0
100
AcDbSymbolTableRecord
100
AcDbBlockTableRecord
  2
*D2
  0
ENDTAB
  0
ENDSEC
  0
SECTION
  2
BLOCKS
  0
BLOCK
  5
48B
100
AcDbEntity
  8
0
100
AcDbBlockBegin
  2
*MODEL_SPACE
 70
     0
 10
0.0
 20
0.0
 30
0.0
  3
*MODEL_SPACE
  1

  0
ENDBLK
  5
48C
100
AcDbEntity
  8
0
100
AcDbBlockEnd
  0
BLOCK
  5
489
100
AcDbEntity
 67
     1
  8
0
100
AcDbBlockBegin
  2
*PAPER_SPACE
 70
     0
 10
0.0
 20
0.0
 30
0.0
  3
*PAPER_SPACE
  1

  0
ENDBLK
  5
48A
100
AcDbEntity
 67
     1
  8
0
100
AcDbBlockEnd
  0
BLOCK
  5
BCBF
100
AcDbEntity
  8
0
100
AcDbBlockBegin
  2
*D0
 70
     1
 10
0.0
 20
0.0
 30
0.0
  3
*D0
  1

  0
LINE
  5
BCF5
100
AcDbEntity
  8
AREA1
 62
     0
100
AcDbLine
 10
-0.0625
 20
0.583437
 30
0.0
 11
-0.733112
 21
0.583438
 31
0.0
1001
ACAD
1000
RTLwPs
1070
   158
  0
LINE
  5
BCF6
100
AcDbEntity
  8
AREA1
 62
     0
100
AcDbLine
 10
-0.0625
 20
-1.963438
 30
0.0
 11
-0.733112
 21
-1.963438
 31
0.0
1001
ACAD
1000
RTLwPs
1070
   158
  0
LINE
  5
BCF7
100
AcDbEntity
  8
AREA1
 62
     0
100
AcDbLine
 10
-0.553112
 20
0.403438
 30
0.0
 11
-0.553112
 21
-1.783438
 31
0.0
1001
ACAD
1000
RTLwPs
1070
   158
  0
MTEXT
  5
BCF8
100
AcDbEntity
  8
AREA1
 62
     0
100
AcDbMText
 10
-0.889304
 20
-0.676535
 30
0.0
 40
0.18
 41
0.0
 71
     5
 72
     1
  1
\A1;2 35/64 [64.69]
 11
0.0
 21
1.0
 31
0.0
1001
ACAD
1000
MTEXTBEGIN
1070
    73
1070
     1
1070
    44
1040
1.0
1070
    74
1070
     0
1000
MTEXTEND
1000
MTEXTBEGIN
1070
    73
1070
     1
1070
    44
1040
1.0
1070
    74
1070
     0
1000
MTEXTEND
  0
SOLID
  5
BCF9
100
AcDbEntity
  8
AREA1
 62
     0
100
AcDbTrace
 10
-0.583112
 20
0.403438
 30
0.0
 11
-0.523112
 21
0.403438
 31
0.0
 12
-0.553112
 22
0.583438
 32
0.0
 13
-0.553112
 23
0.583438
 33
0.0
  0
SOLID
  5
BCFA
100
AcDbEntity
  8
AREA1
 62
     0
100
AcDbTrace
 10
-0.583112
 20
-1.783438
 30
0.0
 11
-0.523112
 21
-1.783438
 31
0.0
 12
-0.553112
 22
-1.963438
 32
0.0
 13
-0.553112
 23
-1.963438
 33
0.0
  0
POINT
  5
BCFB
100
AcDbEntity
  8
DEFPOINTS
 62
     0
100
AcDbPoint
 10
0.0
 20
0.583437
 30
0.0
  0
POINT
  5
BCFC
100
AcDbEntity
  8
DEFPOINTS
 62
     0
100
AcDbPoint
 10
0.0
 20
-1.963438
 30
0.0
  0
POINT
  5
BCFD
100
AcDbEntity
  8
DEFPOINTS
 62
     0
100
AcDbPoint
 10
-0.553112
 20
-1.963438
 30
0.0
  0
ENDBLK
  5
BCC0
100
AcDbEntity
  8
0
100
AcDbBlockEnd
  0
BLOCK
  5
BCCB
100
AcDbEntity
  8
0
100
AcDbBlockBegin
  2
*D1
 70
     1
 10
0.0
 20
0.0
 30
0.0
  3
*D1
  1

  0
LINE
  5
BCFE
100
AcDbEntity
  8
AREA1
 62
     0
100
AcDbLine
 10
0.0
 20
0.645937
 30
0.0
 11
0.0
 21
1.146191
 31
0.0
1001
ACAD
1000
RTLwPs
1070
   158
  0
LINE
  5
BCFF
100
AcDbEntity
  8
AREA1
 62
     0
100
AcDbLine
 10
1.5
 20
0.645937
 30
0.0
 11
1.5
 21
1.146191
 31
0.0
1001
ACAD
1000
RTLwPs
1070
   158
  0
LINE
  5
BD00
100
AcDbEntity
  8
AREA1
 62
     0
100
AcDbLine
 10
0.18
 20
0.966191
 30
0.0
 11
1.32
 21
0.966191
 31
0.0
1001
ACAD
1000
RTLwPs
1070
   158
  0
MTEXT
  5
BD01
100
AcDbEntity
  8
AREA1
 62
     0
100
AcDbMText
 10
0.740639
 20
1.280139
 30
0.0
 40
0.18
 41
0.0
 71
     5
 72
     1
  1
\A1;1 1/2 [38.10]
1001
ACAD
1000
MTEXTBEGIN
1070
    73
1070
     1
1070
    44
1040
1.0
1070
    74
1070
     0
1000
MTEXTEND
1000
MTEXTBEGIN
1070
    73
1070
     1
1070
    44
1040
1.0
1070
    74
1070
     0
1000
MTEXTEND
  0
SOLID
  5
BD02
100
AcDbEntity
  8
AREA1
 62
     0
100
AcDbTrace
 10
0.18
 20
0.996191
 30
0.0
 11
0.18
 21
0.936191
 31
0.0
 12
0.0
 22
0.966191
 32
0.0
 13
0.0
 23
0.966191
 33
0.0
  0
SOLID
  5
BD03
100
AcDbEntity
  8
AREA1
 62
     0
100
AcDbTrace
 10
1.32
 20
0.996191
 30
0.0
 11
1.32
 21
0.936191
 31
0.0
 12
1.5
 22
0.966191
 32
0.0
 13
1.5
 23
0.966191
 33
0.0
  0
POINT
  5
BD04
100
AcDbEntity
  8
DEFPOINTS
 62
     0
100
AcDbPoint
 10
0.0
 20
0.583437
 30
0.0
  0
POINT
  5
BD05
100
AcDbEntity
  8
DEFPOINTS
 62
     0
100
AcDbPoint
 10
1.5
 20
0.583437
 30
0.0
  0
POINT
  5
BD06
100
AcDbEntity
  8
DEFPOINTS
 62
     0
100
AcDbPoint
 10
1.5
 20
0.966191
 30
0.0
  0
ENDBLK
  5
BCCC
100
AcDbEntity
  8
0
100
AcDbBlockEnd
  0
BLOCK
  5
BCEA
100
AcDbEntity
  8
0
100
AcDbBlockBegin
  2
*D2
 70
     1
 10
0.0
 20
0.0
 30
0.0
  3
*D2
  1

  0
LINE
  5
BCEC
100
AcDbEntity
  8
AREA2
 62
     0
100
AcDbLine
 10
-0.0625
 20
1.06
 30
0.0
 11
-0.475901
 21
1.06
 31
0.0
1001
ACAD
1000
RTLwPs
1070
   158
  0
LINE
  5
BCED
100
AcDbEntity
  8
AREA2
 62
     0
100
AcDbLine
 10
-0.0625
 20
0.0
 30
0.0
 11
-0.475901
 21
0.0
 31
0.0
1001
ACAD
1000
RTLwPs
1070
   158
  0
LINE
  5
BCEE
100
AcDbEntity
  8
AREA2
 62
     0
100
AcDbLine
 10
-0.295901
 20
0.88
 30
0.0
 11
-0.295901
 21
0.18
 31
0.0
1001
ACAD
1000
RTLwPs
1070
   158
  0
MTEXT
  5
BCEF
100
AcDbEntity
  8
AREA2
 62
     0
100
AcDbMText
 10
-0.576232
 20
0.644547
 30
0.0
 40
0.13
 41
0.0
 71
     5
 72
     1
  1
\A1;1 1/16 [26.92]
 11
0.0
 21
1.0
 31
0.0
1001
ACAD
1000
MTEXTBEGIN
1070
    73
1070
     1
1070
    44
1040
1.0
1070
    74
1070
     0
1000
MTEXTEND
1000
MTEXTBEGIN
1070
    73
1070
     1
1070
    44
1040
1.0
1070
    74
1070
     0
1000
MTEXTEND
  0
SOLID
  5
BCF0
100
AcDbEntity
  8
AREA2
 62
     0
100
AcDbTrace
 10
-0.325901
 20
0.88
 30
0.0
 11
-0.265901
 21
0.88
 31
0.0
 12
-0.295901
 22
1.06
 32
0.0
 13
-0.295901
 23
1.06
 33
0.0
  0
SOLID
  5
BCF1
100
AcDbEntity
  8
AREA2
 62
     0
100
AcDbTrace
 10
-0.325901
 20
0.18
 30
0.0
 11
-0.265901
 21
0.18
 31
0.0
 12
-0.295901
 22
0.0
 32
0.0
 13
-0.295901
 23
0.0
 33
0.0
  0
POINT
  5
BCF2
100
AcDbEntity
  8
DEFPOINTS
 62
     0
100
AcDbPoint
 10
0.0
 20
1.06
 30
-0.583437
  0
POINT
  5
BCF3
100
AcDbEntity
  8
DEFPOINTS
 62
     0
100
AcDbPoint
 10
0.0
 20
0.0
 30
0.0
  0
POINT
  5
BCF4
100
AcDbEntity
  8
DEFPOINTS
 62
     0
100
AcDbPoint
 10
-0.295901
 20
0.0
 30
0.0
  0
ENDBLK
  5
BCEB
100
AcDbEntity
  8
0
100
AcDbBlockEnd
  0
ENDSEC
  0
SECTION
  2
ENTITIES
  0
DIMENSION
  5
BC4F
100
AcDbEntity
  8
AREA1
100
AcDbDimension
  2
*D0
 10
-0.553112
 20
-1.963438
 30
0.0
 11
-0.889304
 21
-0.676535
 31
0.0
 70
   160
  3
ABECAD_3D
100
AcDbAlignedDimension
 13
0.0
 23
0.583437
 33
0.0
 14
0.0
 24
-1.963438
 34
0.0
 50
90.0
100
AcDbRotatedDimension
  0
DIMENSION
  5
BC50
100
AcDbEntity
  8
AREA1
100
AcDbDimension
  2
*D1
 10
1.5
 20
0.966191
 30
0.0
 11
0.740639
 21
1.280139
 31
0.0
 70
   160
  3
ABECAD_3D
100
AcDbAlignedDimension
 13
0.0
 23
0.583437
 33
0.0
 14
1.5
 24
0.583437
 34
0.0
100
AcDbRotatedDimension
  0
LWPOLYLINE
  5
BC51
100
AcDbEntity
  8
SCALE
100
AcDbPolyline
 90
        4
 70
     1
 43
0.0
 10
0.188499
 20
-2.064856
 10
1.324128
 20
-2.064856
 10
1.324128
 20
-2.906465
 10
0.188499
 20
-2.906465
  0
LINE
  5
BC52
100
AcDbEntity
  8
SCALE
100
AcDbLine
 10
0.246498
 20
-2.444934
 30
0.0
 11
1.246498
 21
-2.444934
 31
0.0
  0
LINE
  5
BC53
100
AcDbEntity
  8
SCALE
100
AcDbLine
 10
0.246498
 20
-2.744934
 30
0.0
 11
0.640198
 21
-2.744934
 31
0.0
  0
LINE
  5
BC54
100
AcDbEntity
  8
SCALE
100
AcDbLine
 10
0.246498
 20
-2.544934
 30
0.0
 11
0.246498
 21
-2.344934
 31
0.0
  0
TEXT
  5
BC55
100
AcDbEntity
  8
SCALE
100
AcDbText
 10
0.302474
 20
-2.697249
 30
0.0
 40
0.0625
  1
[10mm]
100
AcDbText
  0
LINE
  5
BC56
100
AcDbEntity
  8
SCALE
100
AcDbLine
 10
0.246498
 20
-2.844934
 30
0.0
 11
0.246498
 21
-2.644934
 31
0.0
  0
TEXT
  5
BC57
100
AcDbEntity
  8
SCALE
100
AcDbText
 10
0.248028
 20
-2.170057
 30
0.0
 40
0.0625
  1
SCALE:
100
AcDbText
  0
LINE
  5
BC58
100
AcDbEntity
  8
SCALE
100
AcDbLine
 10
0.640198
 20
-2.844934
 30
0.0
 11
0.640198
 21
-2.644934
 31
0.0
  0
TEXT
  5
BC59
100
AcDbEntity
  8
SCALE
100
AcDbText
 10
0.609781
 20
-2.375885
 30
0.0
 40
0.0625
  1
1 Inch
100
AcDbText
  0
LINE
  5
BC5A
100
AcDbEntity
  8
SCALE
100
AcDbLine
 10
1.246498
 20
-2.444934
 30
0.0
 11
1.246498
 21
-2.544934
 31
0.0
  0
LINE
  5
BC5B
100
AcDbEntity
  8
SCALE
100
AcDbLine
 10
1.246498
 20
-2.544934
 30
0.0
 11
1.246498
 21
-2.344934
 31
0.0
  0
ARC
  5
BC5C
100
AcDbEntity
  8
0
100
AcDbCircle
 10
0.75
 20
-0.785
 30
1.06
 40
0.04
100
AcDbArc
 50
167.846848
 51
12.153442
  0
ARC
  5
BC5D
100
AcDbEntity
  8
0
100
AcDbCircle
 10
0.75
 20
-0.69
 30
1.06
 40
0.095
100
AcDbArc
 50
294.306335
 51
245.694153
  0
CIRCLE
  5
BC5E
100
AcDbEntity
  8
0
100
AcDbCircle
 10
0.16
 20
-0.69
 30
0.0
 40
0.056
  0
CIRCLE
  5
BC5F
100
AcDbEntity
  8
0
100
AcDbCircle
 10
0.21967
 20
-1.22033
 30
1.06
 40
0.05
  0
CIRCLE
  5
BC60
100
AcDbEntity
  8
0
100
AcDbCircle
 10
0.555886
 20
-1.414444
 30
1.06
 40
0.05
  0
LINE
  5
BC61
100
AcDbEntity
  8
0
100
AcDbLine
 10
0.682825
 20
-0.757175
 30
1.06
 11
0.481299
 21
-0.958701
 31
1.06
  0
LINE
  5
BC62
100
AcDbEntity
  8
0
100
AcDbLine
 10
0.655
 20
-0.69
 30
1.06
 11
0.37
 21
-0.69
 31
1.06
  0
CIRCLE
  5
BC63
100
AcDbEntity
  8
0
100
AcDbCircle
 10
0.565224
 20
-0.766537
 30
1.06
 40
0.03
  0
LINE
  5
BC64
100
AcDbEntity
  8
0
100
AcDbLine
 10
0.75
 20
-0.825
 30
1.06
 11
0.75
 21
-1.07
 31
1.06
  0
CIRCLE
  5
BC65
100
AcDbEntity
  8
0
100
AcDbCircle
 10
0.673463
 20
-0.874776
 30
1.06
 40
0.03
  0
CIRCLE
  5
BC66
100
AcDbEntity
  8
0
100
AcDbCircle
 10
0.21967
 20
-0.15967
 30
1.06
 40
0.05
  0
LINE
  5
BC67
100
AcDbEntity
  8
0
100
AcDbLine
 10
0.682825
 20
-0.622825
 30
1.06
 11
0.481299
 21
-0.421299
 31
1.06
  0
CIRCLE
  5
BC68
100
AcDbEntity
  8
0
100
AcDbCircle
 10
0.555886
 20
0.034444
 30
1.06
 40
0.05
  0
CIRCLE
  5
BC69
100
AcDbEntity
  8
0
100
AcDbCircle
 10
0.565224
 20
-0.613463
 30
1.06
 40
0.03
  0
LINE
  5
BC6A
100
AcDbEntity
  8
0
100
AcDbLine
 10
0.75
 20
-0.595
 30
1.06
 11
0.75
 21
-0.31
 31
1.06
  0
CIRCLE
  5
BC6B
100
AcDbEntity
  8
0
100
AcDbCircle
 10
0.673463
 20
-0.505224
 30
1.06
 40
0.03
  0
CIRCLE
  5
BC6C
100
AcDbEntity
  8
0
100
AcDbCircle
 10
1.34
 20
-0.69
 30
0.0
 40
0.056
  0
CIRCLE
  5
BC6D
100
AcDbEntity
  8
0
100
AcDbCircle
 10
0.944114
 20
-1.414444
 30
1.06
 40
0.05
  0
LINE
  5
BC6E
100
AcDbEntity
  8
0
100
AcDbLine
 10
0.817175
 20
-0.757175
 30
1.06
 11
1.018701
 21
-0.958701
 31
1.06
  0
LINE
  5
BC6F
100
AcDbEntity
  8
0
100
AcDbLine
 10
0.845
 20
-0.69
 30
1.06
 11
1.13
 21
-0.69
 31
1.06
  0
CIRCLE
  5
BC70
100
AcDbEntity
  8
0
100
AcDbCircle
 10
0.826537
 20
-0.874776
 30
1.06
 40
0.03
  0
CIRCLE
  5
BC71
100
AcDbEntity
  8
0
100
AcDbCircle
 10
0.934776
 20
-0.766537
 30
1.06
 40
0.03
  0
CIRCLE
  5
BC72
100
AcDbEntity
  8
0
100
AcDbCircle
 10
1.28033
 20
-1.22033
 30
1.06
 40
0.05
  0
LINE
  5
BC73
100
AcDbEntity
  8
0
100
AcDbLine
 10
0.817175
 20
-0.622825
 30
1.06
 11
1.018701
 21
-0.421299
 31
1.06
  0
CIRCLE
  5
BC74
100
AcDbEntity
  8
0
100
AcDbCircle
 10
0.944114
 20
0.034444
 30
1.06
 40
0.05
  0
CIRCLE
  5
BC75
100
AcDbEntity
  8
0
100
AcDbCircle
 10
0.826537
 20
-0.505224
 30
1.06
 40
0.03
  0
CIRCLE
  5
BC76
100
AcDbEntity
  8
0
100
AcDbCircle
 10
0.934776
 20
-0.613463
 30
1.06
 40
0.03
  0
CIRCLE
  5
BC77
100
AcDbEntity
  8
0
100
AcDbCircle
 10
1.28033
 20
-0.15967
 30
1.06
 40
0.05
  0
TEXT
  5
BC78
100
AcDbEntity
  8
0
100
AcDbText
 10
0.922553
 20
-1.340915
 30
1.06
 40
0.10968
  1
1
100
AcDbText
  0
TEXT
  5
BC79
100
AcDbEntity
  8
0
100
AcDbText
 10
1.240199
 20
-1.148493
 30
1.06
 40
0.10968
  1
2
100
AcDbText
  0
TEXT
  5
BC7A
100
AcDbEntity
  8
0
100
AcDbText
 10
1.244324
 20
-0.333451
 30
1.06
 40
0.10968
  1
3
100
AcDbText
  0
TEXT
  5
BC7B
100
AcDbEntity
  8
0
100
AcDbText
 10
0.897802
 20
-0.132783
 30
1.06
 40
0.10968
  1
4
100
AcDbText
  0
TEXT
  5
BC7C
100
AcDbEntity
  8
0
100
AcDbText
 10
0.522402
 20
-0.134158
 30
1.06
 40
0.10968
  1
5
100
AcDbText
  0
TEXT
  5
BC7D
100
AcDbEntity
  8
0
100
AcDbText
 10
0.180005
 20
-0.337575
 30
1.06
 40
0.10968
  1
6
100
AcDbText
  0
TEXT
  5
BC7E
100
AcDbEntity
  8
0
100
AcDbText
 10
0.192381
 20
-1.155366
 30
1.06
 40
0.10968
  1
7
100
AcDbText
  0
TEXT
  5
BC7F
100
AcDbEntity
  8
0
100
AcDbText
 10
0.518277
 20
-1.342289
 30
1.06
 40
0.10968
  1
8
100
AcDbText
  0
POLYLINE
  5
BC80
100
AcDbEntity
  8
0
100
AcDbPolygonMesh
 66
     1
 10
0.0
 20
0.0
 30
0.0
 70
    16
 71
     6
 72
     3
  0
VERTEX
  5
BC81
100
AcDbEntity
  8
0
100
AcDbVertex
100
AcDbPolygonMeshVertex
 10
1.5
 20
-1.963438
 30
1.06
 70
    64
  0
VERTEX
  5
BC82
100
AcDbEntity
  8
0
100
AcDbVertex
100
AcDbPolygonMeshVertex
 10
1.5
 20
-1.963438
 30
0.0
 70
    64
  0
VERTEX
  5
BC83
100
AcDbEntity
  8
0
100
AcDbVertex
100
AcDbPolygonMeshVertex
 10
1.5
 20
-1.963438
 30
0.0
 70
    64
  0
VERTEX
  5
BC84
100
AcDbEntity
  8
0
100
AcDbVertex
100
AcDbPolygonMeshVertex
 10
0.0
 20
-1.963438
 30
1.06
 70
    64
  0
VERTEX
  5
BC85
100
AcDbEntity
  8
0
100
AcDbVertex
100
AcDbPolygonMeshVertex
 10
0.0
 20
-1.963438
 30
0.0
 70
    64
  0
VERTEX
  5
BC86
100
AcDbEntity
  8
0
100
AcDbVertex
100
AcDbPolygonMeshVertex
 10
0.0
 20
-1.963438
 30
0.0
 70
    64
  0
VERTEX
  5
BC87
100
AcDbEntity
  8
0
100
AcDbVertex
100
AcDbPolygonMeshVertex
 10
0.0
 20
0.583437
 30
1.06
 70
    64
  0
VERTEX
  5
BC88
100
AcDbEntity
  8
0
100
AcDbVertex
100
AcDbPolygonMeshVertex
 10
0.0
 20
0.583437
 30
0.0
 70
    64
  0
VERTEX
  5
BC89
100
AcDbEntity
  8
0
100
AcDbVertex
100
AcDbPolygonMeshVertex
 10
0.0
 20
-1.963438
 30
0.0
 70
    64
  0
VERTEX
  5
BC8A
100
AcDbEntity
  8
0
100
AcDbVertex
100
AcDbPolygonMeshVertex
 10
1.5
 20
0.583437
 30
1.06
 70
    64
  0
VERTEX
  5
BC8B
100
AcDbEntity
  8
0
100
AcDbVertex
100
AcDbPolygonMeshVertex
 10
1.5
 20
0.583437
 30
0.0
 70
    64
  0
VERTEX
  5
BC8C
100
AcDbEntity
  8
0
100
AcDbVertex
100
AcDbPolygonMeshVertex
 10
1.5
 20
-1.963438
 30
0.0
 70
    64
  0
VERTEX
  5
BC8D
100
AcDbEntity
  8
0
100
AcDbVertex
100
AcDbPolygonMeshVertex
 10
1.5
 20
0.583437
 30
1.06
 70
    64
  0
VERTEX
  5
BC8E
100
AcDbEntity
  8
0
100
AcDbVertex
100
AcDbPolygonMeshVertex
 10
1.5
 20
0.583437
 30
1.06
 70
    64
  0
VERTEX
  5
BC8F
100
AcDbEntity
  8
0
100
AcDbVertex
100
AcDbPolygonMeshVertex
 10
1.5
 20
-1.963438
 30
1.06
 70
    64
  0
VERTEX
  5
BC90
100
AcDbEntity
  8
0
100
AcDbVertex
100
AcDbPolygonMeshVertex
 10
0.0
 20
0.583437
 30
1.06
 70
    64
  0
VERTEX
  5
BC91
100
AcDbEntity
  8
0
100
AcDbVertex
100
AcDbPolygonMeshVertex
 10
0.0
 20
0.583437
 30
1.06
 70
    64
  0
VERTEX
  5
BC92
100
AcDbEntity
  8
0
100
AcDbVertex
100
AcDbPolygonMeshVertex
 10
0.0
 20
-1.963438
 30
1.06
 70
    64
  0
SEQEND
  5
BC93
100
AcDbEntity
  8
0
  0
ATTDEF
  5
BC94
100
AcDbEntity
  8
ATTRIBUTES
100
AcDbText
 10
0.039636
 20
0.477426
 30
0.0
 40
0.084441
  1
ALLEN-BRADLEY
100
AcDbAttributeDefinition
  3
MANUFACTURER NAME?
  2
AC_VND_LABEL
 70
     1
  0
ATTDEF
  5
BC95
100
AcDbEntity
  8
ATTRIBUTES
100
AcDbText
 10
0.039636
 20
0.301506
 30
0.0
 40
0.084441
  1
700-HN100
100
AcDbAttributeDefinition
  3
CATALOG NUMBER?
  2
AC_PART_NO
 70
     1
  0
ATTDEF
  5
BC96
100
AcDbEntity
  8
ATTRIBUTES
100
AcDbText
 10
0.039636
 20
0.125587
 30
0.0
 40
0.084441
  1
CONTROL RELAY; GENERAL PURPOSE SOCKET; 8 PIN
100
AcDbAttributeDefinition
  3
PART DESCRIPTION?
  2
AC_DESCRIPTION
 70
     1
  0
ATTDEF
  5
BC97
100
AcDbEntity
  8
ATTRIBUTES
100
AcDbText
 10
0.039636
 20
-0.050333
 30
0.0
 40
0.084441
  1

100
AcDbAttributeDefinition
  3
DEVICE ID?
  2
DEVICE_ID
 70
     1
  0
ATTDEF
  5
BC98
100
AcDbEntity
  8
ATTRIBUTES
100
AcDbText
 10
0.039636
 20
-0.226252
 30
0.0
 40
0.084441
  1

100
AcDbAttributeDefinition
  3
CUSTOMER PART NUMBER?
  2
AC_CPART_NO
 70
     1
  0
ATTDEF
  5
BC99
100
AcDbEntity
  8
ATTRIBUTES
100
AcDbText
 10
0.043763
 20
-1.350923
 30
0.0
 40
0.084441
  1

100
AcDbAttributeDefinition
  3
CUSTOMER NOTE?
  2
AC_NOTE
 70
     1
  0
ATTDEF
  5
BC9A
100
AcDbEntity
  8
ATTRIBUTES
100
AcDbText
 10
0.043763
 20
-1.526843
 30
0.0
 40
0.084441
  1
2, #4-40 M3
100
AcDbAttributeDefinition
  3
FASTENER DATA?
  2
FASTENER
 70
     1
  0
ATTDEF
  5
BC9B
100
AcDbEntity
  8
ATTRIBUTES
100
AcDbText
 10
0.043763
 20
-1.702762
 30
0.0
 40
0.084441
  1
INCH
100
AcDbAttributeDefinition
  3
UNIT OF SCALE?
  2
AC_SCALE_UNIT
 70
     1
  0
ATTDEF
  5
BC9C
100
AcDbEntity
  8
ATTRIBUTES
100
AcDbText
 10
0.043763
 20
-1.878682
 30
0.0
 40
0.084441
  1
0
100
AcDbAttributeDefinition
  3
VIEW CODE?
  2
AC_VIEW_CODE
 70
     1
  0
POLYLINE
  5
BC9D
100
AcDbEntity
  8
0
100
AcDbPolygonMesh
 66
     1
 10
0.0
 20
0.0
 30
0.0
 70
    16
 71
     6
 72
     3
  0
VERTEX
  5
BC9E
100
AcDbEntity
  8
0
100
AcDbVertex
100
AcDbPolygonMeshVertex
 10
1.5
 20
-1.38
 30
0.187
 70
    64
  0
VERTEX
  5
BC9F
100
AcDbEntity
  8
0
100
AcDbVertex
100
AcDbPolygonMeshVertex
 10
1.5
 20
-1.38
 30
0.0
 70
    64
  0
VERTEX
  5
BCA0
100
AcDbEntity
  8
0
100
AcDbVertex
100
AcDbPolygonMeshVertex
 10
1.5
 20
-1.38
 30
0.0
 70
    64
  0
VERTEX
  5
BCA1
100
AcDbEntity
  8
0
100
AcDbVertex
100
AcDbPolygonMeshVertex
 10
0.0
 20
-1.38
 30
0.187
 70
    64
  0
VERTEX
  5
BCA2
100
AcDbEntity
  8
0
100
AcDbVertex
100
AcDbPolygonMeshVertex
 10
0.0
 20
-1.38
 30
0.0
 70
    64
  0
VERTEX
  5
BCA3
100
AcDbEntity
  8
0
100
AcDbVertex
100
AcDbPolygonMeshVertex
 10
0.0
 20
-1.38
 30
0.0
 70
    64
  0
VERTEX
  5
BCA4
100
AcDbEntity
  8
0
100
AcDbVertex
100
AcDbPolygonMeshVertex
 10
0.0
 20
0.0
 30
0.187
 70
    64
  0
VERTEX
  5
BCA5
100
AcDbEntity
  8
0
100
AcDbVertex
100
AcDbPolygonMeshVertex
 10
0.0
 20
0.0
 30
0.0
 70
    64
  0
VERTEX
  5
BCA6
100
AcDbEntity
  8
0
100
AcDbVertex
100
AcDbPolygonMeshVertex
 10
0.0
 20
-1.38
 30
0.0
 70
    64
  0
VERTEX
  5
BCA7
100
AcDbEntity
  8
0
100
AcDbVertex
100
AcDbPolygonMeshVertex
 10
1.5
 20
0.0
 30
0.187
 70
    64
  0
VERTEX
  5
BCA8
100
AcDbEntity
  8
0
100
AcDbVertex
100
AcDbPolygonMeshVertex
 10
1.5
 20
0.0
 30
0.0
 70
    64
  0
VERTEX
  5
BCA9
100
AcDbEntity
  8
0
100
AcDbVertex
100
AcDbPolygonMeshVertex
 10
1.5
 20
-1.38
 30
0.0
 70
    64
  0
VERTEX
  5
BCAA
100
AcDbEntity
  8
0
100
AcDbVertex
100
AcDbPolygonMeshVertex
 10
1.5
 20
0.0
 30
0.187
 70
    64
  0
VERTEX
  5
BCAB
100
AcDbEntity
  8
0
100
AcDbVertex
100
AcDbPolygonMeshVertex
 10
1.5
 20
0.0
 30
0.187
 70
    64
  0
VERTEX
  5
BCAC
100
AcDbEntity
  8
0
100
AcDbVertex
100
AcDbPolygonMeshVertex
 10
1.5
 20
-1.38
 30
0.187
 70
    64
  0
VERTEX
  5
BCAD
100
AcDbEntity
  8
0
100
AcDbVertex
100
AcDbPolygonMeshVertex
 10
0.0
 20
0.0
 30
0.187
 70
    64
  0
VERTEX
  5
BCAE
100
AcDbEntity
  8
0
100
AcDbVertex
100
AcDbPolygonMeshVertex
 10
0.0
 20
0.0
 30
0.187
 70
    64
  0
VERTEX
  5
BCAF
100
AcDbEntity
  8
0
100
AcDbVertex
100
AcDbPolygonMeshVertex
 10
0.0
 20
-1.38
 30
0.187
 70
    64
  0
SEQEND
  5
BCB0
100
AcDbEntity
  8
0
  0
POINT
  5
BCB1
100
AcDbEntity
  8
DIMS-MTG-HOLES
100
AcDbPoint
 10
0.0
 20
0.0
 30
0.0
  0
POINT
  5
BCB2
100
AcDbEntity
  8
DIMS-MTG-HOLES
100
AcDbPoint
 10
0.75
 20
-0.69
 30
1.06
  0
POINT
  5
BCB3
100
AcDbEntity
  8
DIMS-MTG-HOLES
100
AcDbPoint
 10
0.16
 20
-0.69
 30
0.0
  0
POINT
  5
BCB4
100
AcDbEntity
  8
DIMS-MTG-HOLES
100
AcDbPoint
 10
1.34
 20
-0.69
 30
0.0
  0
DIMENSION
  5
BCDF
100
AcDbEntity
  8
AREA2
100
AcDbDimension
  2
*D2
 10
-0.295901
 20
0.0
 30
0.0
 11
-0.576232
 21
0.644547
 31
0.0
 70
   160
210
0.0
220
-1.0
230
0.0
  3
ABECAD_3V
100
AcDbAlignedDimension
 13
0.0
 23
0.583437
 33
1.06
 14
0.0
 24
0.0
 34
0.0
 50
90.0
100
AcDbRotatedDimension
1001
ACAD
1000
DSTYLE
1002
{
1070
    40
1040
1.0
1002
}
  0
VIEWPORT
  5
2C
102
{ACAD_XDICTIONARY
360
BD65
102
}
100
AcDbEntity
 67
     1
  8
0
100
AcDbViewport
 10
4.999849
 20
3.750155
 30
0.0
 40
15.434
 41
7.617554
 68
     1
 69
     1
1001
ACAD
1000
MVIEW
1002
{
1070
    16
1010
0.0
1020
0.0
1030
0.0
1010
0.0
1020
0.0
1030
1.0
1040
0.0
1040
7.617554
1040
4.999849
1040
3.750155
1040
50.0
1040
0.0
1040
0.0
1070
     0
1070
   100
1070
     1
1070
     1
1070
     0
1070
     0
1070
     0
1070
     0
1040
0.0
1040
0.0
1040
0.0
1040
1.0
1040
1.0
1040
0.0
1040
0.0
1070
     0
1002
{
1002
}
1002
}
  0
VIEWPORT
  5
2D
102
{ACAD_XDICTIONARY
360
BD67
102
}
100
AcDbEntity
 67
     1
  8
0
100
AcDbViewport
 10
2.5
 20
5.625
 30
0.0
 40
5.0
 41
3.75
 68
     3
 69
     2
1001
ACAD
1000
MVIEW
1002
{
1070
    16
1010
0.0
1020
0.0
1030
0.0
1010
0.0
1020
0.0
1030
1.0
1040
0.0
1040
3.724502
1040
0.391767
1040
-0.338918
1040
50.0
1040
0.0
1040
0.0
1070
     0
1070
   100
1070
     1
1070
     0
1070
     0
1070
     0
1070
     0
1070
     0
1040
0.0
1040
0.0
1040
0.0
1040
1.0
1040
1.0
1040
0.0
1040
0.0
1070
     0
1002
{
1003
AREA2
1002
}
1002
}
  0
VIEWPORT
  5
2E
102
{ACAD_XDICTIONARY
360
BD69
102
}
100
AcDbEntity
 67
     1
  8
0
100
AcDbViewport
 10
2.5
 20
1.875
 30
0.0
 40
5.0
 41
3.75
 68
     2
 69
     3
1001
ACAD
1000
MVIEW
1002
{
1070
    16
1010
0.0
1020
0.0
1030
0.0
1010
0.0
1020
-1.0
1030
0.0
1040
0.0
1040
3.774352
1040
0.384337
1040
0.644547
1040
50.0
1040
0.0
1040
0.0
1070
     0
1070
   100
1070
     1
1070
     0
1070
     0
1070
     0
1070
     0
1070
     0
1040
0.0
1040
0.0
1040
0.0
1040
1.0
1040
1.0
1040
0.0
1040
0.0
1070
     0
1002
{
1003
AREA1
1002
}
1002
}
  0
VIEWPORT
  5
2F
102
{ACAD_XDICTIONARY
360
BD6B
102
}
100
AcDbEntity
 67
     1
  8
0
100
AcDbViewport
 10
7.5
 20
3.75
 30
0.0
 40
5.0
 41
7.5
 68
     4
 69
     4
1001
ACAD
1000
MVIEW
1002
{
1070
    16
1010
0.0
1020
0.0
1030
0.0
1010
-1.0
1020
-1.0
1030
1.0
1040
0.0
1040
7.465726
1040
0.782294
1040
0.350725
1040
50.0
1040
0.0
1040
0.0
1070
     0
1070
   100
1070
     1
1070
     0
1070
     0
1070
     0
1070
     0
1070
     0
1040
0.0
1040
0.0
1040
0.0
1040
1.0
1040
1.0
1040
0.0
1040
0.0
1070
     0
1002
{
1003
AREA1
1003
AREA2
1002
}
1002
}
  0
TEXT
  5
42D
100
AcDbEntity
 67
     1
  8
0
100
AcDbText
 10
5.253785
 20
7.092701
 30
0.0
 40
0.2
  1
700-HN100
100
AcDbText
  0
TEXT
  5
431
100
AcDbEntity
 67
     1
  8
0
100
AcDbText
 10
5.253785
 20
6.759368
 30
0.0
 40
0.2
  1
CONTROL RELAY; GENERAL 
100
AcDbText
1001
ACAD
1000
R13OBJECT
1002
{
1005
42D
1002
}
  0
TEXT
  5
BD09
100
AcDbEntity
 67
     1
  8
0
100
AcDbText
 10
5.253785
 20
6.40835
 30
0.0
 40
0.2
  1
PURPOSE SOCKET; 8 PIN
100
AcDbText
1001
ACAD
1000
R13OBJECT
1002
{
1005
42D
1002
}
  0
ENDSEC
  0
SECTION
  2
OBJECTS
  0
DICTIONARY
  5
46D
100
AcDbDictionary
  3
ACAD_GROUP
350
46E
  3
ACAD_LAYOUT
350
49E
  3
ACAD_MLINESTYLE
350
47B
  3
ACAD_PLOTSETTINGS
350
49F
  3
ACAD_PLOTSTYLENAME
350
49C
  3
ACDBHEADERROUNDTRIPXREC
350
BD44
  3
ACDBVARIABLEDICTIONARY
350
48D
  0
DICTIONARY
  5
BD42
100
AcDbDictionary
280
     1
  3
ACAD_XREC_ROUNDTRIP
360
BD43
  0
DICTIONARY
  5
BD6F
100
AcDbDictionary
280
     1
  3
ACAD_XREC_ROUNDTRIP
360
BD70
  0
DICTIONARY
  5
BD71
100
AcDbDictionary
280
     1
  3
ACAD_XREC_ROUNDTRIP
360
BD72
  0
DICTIONARY
  5
BD75
100
AcDbDictionary
280
     1
  3
ACAD_XREC_ROUNDTRIP
360
BD76
  0
DICTIONARY
  5
4D2
100
AcDbDictionary
280
     1
  3
ACAD_LAYOUTSELFREF
360
BD6E
  0
DICTIONARY
  5
4D0
100
AcDbDictionary
280
     1
  3
ACAD_LAYOUTSELFREF
360
BD6D
  0
DICTIONARY
  5
BD65
100
AcDbDictionary
280
     1
  3
ACAD_XREC_ROUNDTRIP
360
BD66
  0
DICTIONARY
  5
BD67
100
AcDbDictionary
280
     1
  3
ACAD_XREC_ROUNDTRIP
360
BD68
  0
DICTIONARY
  5
BD69
100
AcDbDictionary
280
     1
  3
ACAD_XREC_ROUNDTRIP
360
BD6A
  0
DICTIONARY
  5
BD6B
100
AcDbDictionary
280
     1
  3
ACAD_XREC_ROUNDTRIP
360
BD6C
  0
DICTIONARY
  5
46E
102
{ACAD_REACTORS
330
46D
102
}
100
AcDbDictionary
  0
DICTIONARY
  5
49E
102
{ACAD_XDICTIONARY
360
BD73
102
}
102
{ACAD_REACTORS
330
46D
102
}
100
AcDbDictionary
  3
LAYOUT1
350
4A1
  3
MODEL
350
4A0
  0
DICTIONARY
  5
47B
102
{ACAD_REACTORS
330
46D
102
}
100
AcDbDictionary
  3
STANDARD
350
47C
  0
DICTIONARY
  5
49F
102
{ACAD_REACTORS
330
46D
102
}
100
AcDbDictionary
  0
ACAD_PROXY_OBJECT
  5
49C
102
{ACAD_REACTORS
330
46D
102
}
100
AcDbProxyObject
 90
      499
 91
      501
 93
       86
310
405010041939BDC9B585B0
350
49D
340
49D
 94
        0
  0
DICTIONARY
  5
BD44
102
{ACAD_REACTORS
330
46D
102
}
100
AcDbDictionary
  3
CEPSNTYPE
350
BD4E
  3
DIMSTYLEDATA
350
BD52
  3
FINGERPRINTGUID
350
BD4F
  3
HYPERLINKBASE
350
BD47
  3
INSUNITS
350
BD4D
  3
LAYOUTDICT
350
BD49
  3
LWETCUNION
350
BD4C
  3
PLOTSETDICT
350
BD4A
  3
PLOTSTYLNAMDICT
350
BD4B
  3
PSVPSCALE
350
BD51
  3
PUCSBASE
350
BD55
  3
PUCSORGBACK
350
BD5B
  3
PUCSORGBOTTOM
350
BD57
  3
PUCSORGFRONT
350
BD5A
  3
PUCSORGLEFT
350
BD58
  3
PUCSORGRIGHT
350
BD59
  3
PUCSORGTOP
350
BD56
  3
PUCSORTHOREF
350
BD53
  3
PUCSORTHOVIEW
350
BD54
  3
STYLESHEET
350
BD48
  3
TSTACKALIGN
350
BD45
  3
TSTACKSIZE
350
BD46
  3
UCSBASE
350
BD5E
  3
UCSORGBACK
350
BD64
  3
UCSORGBOTTOM
350
BD60
  3
UCSORGFRONT
350
BD63
  3
UCSORGLEFT
350
BD61
  3
UCSORGRIGHT
350
BD62
  3
UCSORGTOP
350
BD5F
  3
UCSORTHOREF
350
BD5C
  3
UCSORTHOVIEW
350
BD5D
  3
VERSIONGUID
350
BD50
  0
DICTIONARY
  5
48D
102
{ACAD_REACTORS
330
46D
102
}
100
AcDbDictionary
  3
DIMADEC
350
48E
  0
XRECORD
  5
BD43
102
{ACAD_REACTORS
330
BD42
102
}
100
AcDbXrecord
102
EXTNAMES
  1
*ACTIVE
  2
*Active
102
UCS
 74
     0
 71
     1
 10
0.0
 20
0.0
 30
0.0
 10
1.0
 20
0.0
 30
0.0
 10
0.0
 20
1.0
 30
0.0
146
0.0
 79
     1
102
VIEW
281
     1
  0
XRECORD
  5
BD70
102
{ACAD_REACTORS
330
BD6F
102
}
100
AcDbXrecord
102
PLOTBIT
280
     0
  0
XRECORD
  5
BD72
102
{ACAD_REACTORS
330
BD71
102
}
100
AcDbXrecord
102
ACADR14ROUNDTRIP
1000
DSTYLE
1002
{
1070
   276
 70
     2
1070
   277
 70
     5
1070
   279
 70
     2
1002
}
  0
XRECORD
  5
BD76
102
{ACAD_REACTORS
330
BD75
102
}
100
AcDbXrecord
102
ACADR14ROUNDTRIP
1000
DSTYLE
1002
{
1070
   276
 70
     2
1070
   277
 70
     5
1070
   279
 70
     2
1070
   289
 70
     2
1002
}
  0
XRECORD
  5
BD6E
102
{ACAD_REACTORS
330
4D2
102
}
100
AcDbXrecord
340
478
  0
XRECORD
  5
BD6D
102
{ACAD_REACTORS
330
4D0
102
}
100
AcDbXrecord
340
475
  0
XRECORD
  5
BD66
102
{ACAD_REACTORS
330
BD65
102
}
100
AcDbXrecord
102
UCS
 74
     0
 71
     1
 10
0.0
 20
0.0
 30
0.0
 10
1.0
 20
0.0
 30
0.0
 10
0.0
 20
1.0
 30
0.0
146
0.0
 79
     0
102
VIEW
281
     0
102
NEWVIEWCONTROL
280
     4
  0
XRECORD
  5
BD68
102
{ACAD_REACTORS
330
BD67
102
}
100
AcDbXrecord
102
UCS
 74
     0
 71
     1
 10
0.0
 20
0.0
 30
0.0
 10
1.0
 20
0.0
 30
0.0
 10
0.0
 20
1.0
 30
0.0
146
0.0
 79
     1
102
VIEW
281
     0
102
NEWVIEWCONTROL
280
     4
  0
XRECORD
  5
BD6A
102
{ACAD_REACTORS
330
BD69
102
}
100
AcDbXrecord
102
UCS
 74
     0
 71
     1
 10
0.0
 20
0.0
 30
0.0
 10
1.0
 20
0.0
 30
0.0
 10
0.0
 20
0.0
 30
1.0
146
0.0
 79
     3
102
VIEW
281
     0
102
NEWVIEWCONTROL
280
     4
  0
XRECORD
  5
BD6C
102
{ACAD_REACTORS
330
BD6B
102
}
100
AcDbXrecord
102
UCS
 74
     0
 71
     1
 10
0.0
 20
0.0
 30
0.0
 10
1.0
 20
0.0
 30
0.0
 10
0.0
 20
1.0
 30
0.0
146
0.0
 79
     0
102
VIEW
281
     0
102
NEWVIEWCONTROL
280
     4
  0
DICTIONARY
  5
BD73
100
AcDbDictionary
280
     1
  3
ACAD_XREC_ROUNDTRIP
360
BD74
  0
ACAD_PROXY_OBJECT
  5
4A1
102
{ACAD_REACTORS
330
49E
102
}
100
AcDbProxyObject
 90
      499
 91
      503
 93
     2044
310
91D4850204C617365724A65742035303030205365726965732050434C20362C008000000C0BB1B1440000000102F06C510000000000BC1B1440000000002E06C5100000000C0CCFC6A4000000018199D9C501064C6574746572A901406AA427D84144352EEE3F47D11959985D5B1D08148C4D081C195B88185CDCDA59DB9B5
310
95B9D1CCB98DD18A30EDE3B1BBFDBC0FC1D572C8D6D0C833F1A2B3054E9249F0FD074C61796F75743140501A97D7DB4AA43C31EFF91E46EBA53B71EFD1B32A15809809100B2537F8EAD447D02A6A6A00200C0093BD106FC0000F06EE366FABE00201F20307FD62FC4424FF2920002440160B7F435600079000000004000C06
310
23E0
330
475
330
2C
340
0
340
0
 94
        0
  0
ACAD_PROXY_OBJECT
  5
4A0
102
{ACAD_REACTORS
330
49E
102
}
100
AcDbProxyObject
 90
      499
 91
      503
 93
      924
310
91D4850204C617365724A65742035303030205365726965732050434C20362C01AAAAAAAAA547D11959985D5B1D08148C4D081C195B88185CDCDA59DB9B595B9D1CCB98DD18A69054D6F64656C901A800000000000000000000000000000000000000000000A1000000000000008902A6A6AAAA0
330
478
330
0
340
0
340
0
 94
        0
  0
MLINESTYLE
  5
47C
102
{ACAD_REACTORS
330
47B
102
}
100
AcDbMlineStyle
  2
STANDARD
 70
     0
  3

 62
   256
 51
90.0
 52
90.0
 71
     2
 49
0.5
 62
   256
  6
BYLAYER
 49
-0.5
 62
   256
  6
BYLAYER
  0
ACAD_PROXY_OBJECT
  5
49D
102
{ACAD_REACTORS
330
49C
102
}
100
AcDbProxyObject
 90
      499
 91
      502
 93
        0
 94
        0
  0
XRECORD
  5
BD4E
102
{ACAD_REACTORS
330
BD44
102
}
100
AcDbXrecord
 90
        0
  0
XRECORD
  5
BD52
102
{ACAD_REACTORS
330
BD44
102
}
100
AcDbXrecord
1000
DSTYLE
1002
{
1070
   276
 70
     2
1070
   277
 70
     5
1070
   279
 70
     2
1002
}
  0
XRECORD
  5
BD4F
102
{ACAD_REACTORS
330
BD44
102
}
100
AcDbXrecord
  1
{6E0CF4B5-225E-11D4-A150-00A0CC3303EC}
  0
XRECORD
  5
BD47
102
{ACAD_REACTORS
330
BD44
102
}
100
AcDbXrecord
  1

  0
XRECORD
  5
BD4D
102
{ACAD_REACTORS
330
BD44
102
}
100
AcDbXrecord
 90
        0
  0
XRECORD
  5
BD49
102
{ACAD_REACTORS
330
BD44
102
}
100
AcDbXrecord
340
49E
  0
XRECORD
  5
BD4C
102
{ACAD_REACTORS
330
BD44
102
}
100
AcDbXrecord
 90
    14877
  0
XRECORD
  5
BD4A
102
{ACAD_REACTORS
330
BD44
102
}
100
AcDbXrecord
340
49F
  0
XRECORD
  5
BD4B
102
{ACAD_REACTORS
330
BD44
102
}
100
AcDbXrecord
340
49C
  0
XRECORD
  5
BD51
102
{ACAD_REACTORS
330
BD44
102
}
100
AcDbXrecord
 40
0.0
  0
XRECORD
  5
BD55
102
{ACAD_REACTORS
330
BD44
102
}
100
AcDbXrecord
340
0
  0
XRECORD
  5
BD5B
102
{ACAD_REACTORS
330
BD44
102
}
100
AcDbXrecord
 10
0.0
 20
0.0
 30
0.0
  0
XRECORD
  5
BD57
102
{ACAD_REACTORS
330
BD44
102
}
100
AcDbXrecord
 10
0.0
 20
0.0
 30
0.0
  0
XRECORD
  5
BD5A
102
{ACAD_REACTORS
330
BD44
102
}
100
AcDbXrecord
 10
0.0
 20
0.0
 30
0.0
  0
XRECORD
  5
BD58
102
{ACAD_REACTORS
330
BD44
102
}
100
AcDbXrecord
 10
0.0
 20
0.0
 30
0.0
  0
XRECORD
  5
BD59
102
{ACAD_REACTORS
330
BD44
102
}
100
AcDbXrecord
 10
0.0
 20
0.0
 30
0.0
  0
XRECORD
  5
BD56
102
{ACAD_REACTORS
330
BD44
102
}
100
AcDbXrecord
 10
0.0
 20
0.0
 30
0.0
  0
XRECORD
  5
BD53
102
{ACAD_REACTORS
330
BD44
102
}
100
AcDbXrecord
340
0
  0
XRECORD
  5
BD54
102
{ACAD_REACTORS
330
BD44
102
}
100
AcDbXrecord
 70
     0
  0
XRECORD
  5
BD48
102
{ACAD_REACTORS
330
BD44
102
}
100
AcDbXrecord
  1

  0
XRECORD
  5
BD45
102
{ACAD_REACTORS
330
BD44
102
}
100
AcDbXrecord
 90
        1
  0
XRECORD
  5
BD46
102
{ACAD_REACTORS
330
BD44
102
}
100
AcDbXrecord
 90
       70
  0
XRECORD
  5
BD5E
102
{ACAD_REACTORS
330
BD44
102
}
100
AcDbXrecord
340
0
  0
XRECORD
  5
BD64
102
{ACAD_REACTORS
330
BD44
102
}
100
AcDbXrecord
 10
0.0
 20
0.0
 30
0.0
  0
XRECORD
  5
BD60
102
{ACAD_REACTORS
330
BD44
102
}
100
AcDbXrecord
 10
0.0
 20
0.0
 30
0.0
  0
XRECORD
  5
BD63
102
{ACAD_REACTORS
330
BD44
102
}
100
AcDbXrecord
 10
0.0
 20
0.0
 30
0.0
  0
XRECORD
  5
BD61
102
{ACAD_REACTORS
330
BD44
102
}
100
AcDbXrecord
 10
0.0
 20
0.0
 30
0.0
  0
XRECORD
  5
BD62
102
{ACAD_REACTORS
330
BD44
102
}
100
AcDbXrecord
 10
0.0
 20
0.0
 30
0.0
  0
XRECORD
  5
BD5F
102
{ACAD_REACTORS
330
BD44
102
}
100
AcDbXrecord
 10
0.0
 20
0.0
 30
0.0
  0
XRECORD
  5
BD5C
102
{ACAD_REACTORS
330
BD44
102
}
100
AcDbXrecord
340
0
  0
XRECORD
  5
BD5D
102
{ACAD_REACTORS
330
BD44
102
}
100
AcDbXrecord
 70
     3
  0
XRECORD
  5
BD50
102
{ACAD_REACTORS
330
BD44
102
}
100
AcDbXrecord
  1
{52F319F0-73F9-4C73-98DE-8C4173E32B1E}
  0
DICTIONARYVAR
  5
48E
102
{ACAD_REACTORS
330
48D
102
}
100
DictionaryVariables
280
     0
  1
0
  0
XRECORD
  5
BD74
102
{ACAD_REACTORS
330
BD73
102
}
100
AcDbXrecord
102
EXTNAMES
  1
LAYOUT1
  2
Layout1
  1
MODEL
  2
Model
  0
ENDSEC
  0
EOF
