  0
SECTION
  2
HEADER
  9
$ACADVER
  1
AC1014
  9
$ACADMAINTVER
 70
     8
  9
$DWGCODEPAGE
  3
ANSI_1252
  9
$INSBASE
 10
0.0
 20
0.0
 30
0.0
  9
$EXTMIN
 10
-0.854619
 20
-3.500306
 30
0.0
  9
$EXTMAX
 10
0.922494
 20
1.731354
 30
2.4625
  9
$LIMMIN
 10
0.0
 20
0.0
  9
$LIMMAX
 10
12.0
 20
9.0
  9
$ORTHOMODE
 70
     0
  9
$REGENMODE
 70
     1
  9
$FILLMODE
 70
     1
  9
$QTEXTMODE
 70
     0
  9
$MIRRTEXT
 70
     1
  9
$DRAGMODE
 70
     2
  9
$LTSCALE
 40
1.0
  9
$OSMODE
 70
    37
  9
$ATTMODE
 70
     1
  9
$TEXTSIZE
 40
0.12
  9
$TRACEWID
 40
0.05
  9
$TEXTSTYLE
  7
STANDARD
  9
$CLAYER
  8
0
  9
$CELTYPE
  6
BYLAYER
  9
$CECOLOR
 62
   256
  9
$CELTSCALE
 40
1.0
  9
$DELOBJ
 70
     1
  9
$DISPSILH
 70
     0
  9
$DIMSCALE
 40
1.0
  9
$DIMASZ
 40
0.18
  9
$DIMEXO
 40
0.0625
  9
$DIMDLI
 40
0.375
  9
$DIMRND
 40
0.0
  9
$DIMDLE
 40
0.0
  9
$DIMEXE
 40
0.18
  9
$DIMTP
 40
0.0
  9
$DIMTM
 40
0.0
  9
$DIMTXT
 40
0.125
  9
$DIMCEN
 40
0.09
  9
$DIMTSZ
 40
0.0
  9
$DIMTOL
 70
     0
  9
$DIMLIM
 70
     0
  9
$DIMTIH
 70
     0
  9
$DIMTOH
 70
     1
  9
$DIMSE1
 70
     0
  9
$DIMSE2
 70
     0
  9
$DIMTAD
 70
     0
  9
$DIMZIN
 70
     4
  9
$DIMBLK
  1

  9
$DIMASO
 70
     1
  9
$DIMSHO
 70
     1
  9
$DIMPOST
  1

  9
$DIMAPOST
  1

  9
$DIMALT
 70
     1
  9
$DIMALTD
 70
     2
  9
$DIMALTF
 40
25.4
  9
$DIMLFAC
 40
1.0
  9
$DIMTOFL
 70
     0
  9
$DIMTVP
 40
0.0
  9
$DIMTIX
 70
     0
  9
$DIMSOXD
 70
     0
  9
$DIMSAH
 70
     0
  9
$DIMBLK1
  1

  9
$DIMBLK2
  1

  9
$DIMSTYLE
  2
ABECAD_3D
  9
$DIMCLRD
 70
     0
  9
$DIMCLRE
 70
     0
  9
$DIMCLRT
 70
     0
  9
$DIMTFAC
 40
1.5
  9
$DIMGAP
 40
0.09
  9
$DIMJUST
 70
     0
  9
$DIMSD1
 70
     0
  9
$DIMSD2
 70
     0
  9
$DIMTOLJ
 70
     1
  9
$DIMTZIN
 70
     4
  9
$DIMALTZ
 70
     4
  9
$DIMALTTZ
 70
     4
  9
$DIMFIT
 70
     5
  9
$DIMUPT
 70
     1
  9
$DIMUNIT
 70
     7
  9
$DIMDEC
 70
     6
  9
$DIMTDEC
 70
     6
  9
$DIMALTU
 70
     2
  9
$DIMALTTD
 70
     2
  9
$DIMTXSTY
  7
STANDARD
  9
$DIMAUNIT
 70
     0
  9
$LUNITS
 70
     2
  9
$LUPREC
 70
     4
  9
$SKETCHINC
 40
0.1
  9
$FILLETRAD
 40
0.0
  9
$AUNITS
 70
     0
  9
$AUPREC
 70
     0
  9
$MENU
  1
ACAD
  9
$ELEVATION
 40
0.0
  9
$PELEVATION
 40
0.0
  9
$THICKNESS
 40
0.0
  9
$LIMCHECK
 70
     0
  9
$BLIPMODE
 70
     0
  9
$CHAMFERA
 40
0.0
  9
$CHAMFERB
 40
0.0
  9
$CHAMFERC
 40
0.0
  9
$CHAMFERD
 40
0.0
  9
$SKPOLY
 70
     0
  9
$TDCREATE
 40
2451726.438389120
  9
$TDUPDATE
 40
2452010.484606828
  9
$TDINDWG
 40
0.2175765046
  9
$TDUSRTIMER
 40
0.2175765046
  9
$USRTIMER
 70
     1
  9
$ANGBASE
 50
0.0
  9
$ANGDIR
 70
     0
  9
$PDMODE
 70
     3
  9
$PDSIZE
 40
0.09
  9
$PLINEWID
 40
0.0
  9
$COORDS
 70
     1
  9
$SPLFRAME
 70
     1
  9
$SPLINETYPE
 70
     6
  9
$SPLINESEGS
 70
     8
  9
$ATTDIA
 70
     0
  9
$ATTREQ
 70
     1
  9
$HANDLING
 70
     1
  9
$HANDSEED
  5
4FBB1
  9
$SURFTAB1
 70
     6
  9
$SURFTAB2
 70
     6
  9
$SURFTYPE
 70
     6
  9
$SURFU
 70
     6
  9
$SURFV
 70
     6
  9
$UCSNAME
  2

  9
$UCSORG
 10
0.0
 20
0.0
 30
0.0
  9
$UCSXDIR
 10
1.0
 20
0.0
 30
0.0
  9
$UCSYDIR
 10
0.0
 20
1.0
 30
0.0
  9
$PUCSNAME
  2

  9
$PUCSORG
 10
0.0
 20
0.0
 30
0.0
  9
$PUCSXDIR
 10
1.0
 20
0.0
 30
0.0
  9
$PUCSYDIR
 10
0.0
 20
1.0
 30
0.0
  9
$USERI1
 70
     0
  9
$USERI2
 70
     0
  9
$USERI3
 70
     0
  9
$USERI4
 70
     0
  9
$USERI5
 70
     0
  9
$USERR1
 40
0.0
  9
$USERR2
 40
0.0
  9
$USERR3
 40
0.0
  9
$USERR4
 40
0.0
  9
$USERR5
 40
0.0
  9
$WORLDVIEW
 70
     1
  9
$SHADEDGE
 70
     3
  9
$SHADEDIF
 70
    70
  9
$TILEMODE
 70
     1
  9
$MAXACTVP
 70
    16
  9
$PINSBASE
 10
0.0
 20
0.0
 30
0.0
  9
$PLIMCHECK
 70
     0
  9
$PEXTMIN
 10
1.000000E+20
 20
1.000000E+20
 30
1.000000E+20
  9
$PEXTMAX
 10
-1.000000E+20
 20
-1.000000E+20
 30
-1.000000E+20
  9
$PLIMMIN
 10
0.0
 20
0.0
  9
$PLIMMAX
 10
12.0
 20
9.0
  9
$UNITMODE
 70
     0
  9
$VISRETAIN
 70
     0
  9
$PLINEGEN
 70
     0
  9
$PSLTSCALE
 70
     1
  9
$TREEDEPTH
 70
  3020
  9
$PICKSTYLE
 70
     1
  9
$CMLSTYLE
  2
STANDARD
  9
$CMLJUST
 70
     0
  9
$CMLSCALE
 40
1.0
  9
$PROXYGRAPHICS
 70
     1
  9
$MEASUREMENT
 70
     0
  0
ENDSEC
  0
SECTION
  2
CLASSES
  0
CLASS
  1
DICTIONARYVAR
  2
AcDbDictionaryVar
  3
"AutoCAD"
 90
        0
280
     0
281
     0
  0
CLASS
  1
ACDBDICTIONARYWDFLT
  2
AcDbDictionaryWithDefault
  3
AutoCAD 2000
 90
        0
280
     0
281
     0
  0
CLASS
  1
ACDBPLACEHOLDER
  2
AcDbPlaceHolder
  3
AutoCAD 2000
 90
        0
280
     0
281
     0
  0
CLASS
  1
LAYOUT
  2
AcDbLayout
  3
AutoCAD 2000
 90
        0
280
     0
281
     0
  0
CLASS
  1
LONG_TRANSACTION
  2
AcDbLongTransaction
  3
AutoCAD 2000
 90
        0
280
     0
281
     0
  0
CLASS
  1
LWPOLYLINE
  2
AcDbPolyline
  3
"AutoCAD"
 90
        0
280
     0
281
     1
  0
CLASS
  1
HATCH
  2
AcDbHatch
  3
"ACAD_SEDONA"
 90
        0
280
     0
281
     1
  0
CLASS
  1
XRECORD
  2
AcDbXrecord
  3
"<Built In>"
 90
        0
280
     0
281
     0
  0
CLASS
  1
LONG_TRANSACTION
  2
AcDbLongTransaction
  3
AutoCAD 2000
 90
        0
280
     0
281
     0
  0
CLASS
  1
LWPOLYLINE
  2
AcDbPolyline
  3
"AutoCAD"
 90
        0
280
     0
281
     1
  0
CLASS
  1
HATCH
  2
AcDbHatch
  3
"ACAD_SEDONA"
 90
        0
280
     0
281
     1
  0
CLASS
  1
XRECORD
  2
AcDbXrecord
  3
"<Built In>"
 90
        0
280
     0
281
     0
  0
CLASS
  1
LONG_TRANSACTION
  2
AcDbLongTransaction
  3
AutoCAD 2000
 90
        0
280
     0
281
     0
  0
CLASS
  1
LWPOLYLINE
  2
AcDbPolyline
  3
"AutoCAD"
 90
        0
280
     0
281
     1
  0
CLASS
  1
HATCH
  2
AcDbHatch
  3
"ACAD_SEDONA"
 90
        0
280
     0
281
     1
  0
CLASS
  1
XRECORD
  2
AcDbXrecord
  3
"<Built In>"
 90
        0
280
     0
281
     0
  0
CLASS
  1
LONG_TRANSACTION
  2
AcDbLongTransaction
  3
AutoCAD 2000
 90
        0
280
     0
281
     0
  0
CLASS
  1
LWPOLYLINE
  2
AcDbPolyline
  3
"AutoCAD"
 90
        0
280
     0
281
     1
  0
CLASS
  1
HATCH
  2
AcDbHatch
  3
"ACAD_SEDONA"
 90
        0
280
     0
281
     1
  0
CLASS
  1
XRECORD
  2
AcDbXrecord
  3
"<Built In>"
 90
        0
280
     0
281
     0
  0
CLASS
  1
LONG_TRANSACTION
  2
AcDbLongTransaction
  3
AutoCAD 2000
 90
        0
280
     0
281
     0
  0
CLASS
  1
LWPOLYLINE
  2
AcDbPolyline
  3
"AutoCAD"
 90
        0
280
     0
281
     1
  0
CLASS
  1
HATCH
  2
AcDbHatch
  3
"ACAD_SEDONA"
 90
        0
280
     0
281
     1
  0
CLASS
  1
XRECORD
  2
AcDbXrecord
  3
"<Built In>"
 90
        0
280
     0
281
     0
  0
CLASS
  1
LONG_TRANSACTION
  2
AcDbLongTransaction
  3
AutoCAD 2000
 90
        0
280
     0
281
     0
  0
CLASS
  1
LWPOLYLINE
  2
AcDbPolyline
  3
"AutoCAD"
 90
        0
280
     0
281
     1
  0
CLASS
  1
HATCH
  2
AcDbHatch
  3
"ACAD_SEDONA"
 90
        0
280
     0
281
     1
  0
CLASS
  1
XRECORD
  2
AcDbXrecord
  3
"<Built In>"
 90
        0
280
     0
281
     0
  0
CLASS
  1
LONG_TRANSACTION
  2
AcDbLongTransaction
  3
AutoCAD 2000
 90
        0
280
     0
281
     0
  0
CLASS
  1
LWPOLYLINE
  2
AcDbPolyline
  3
"AutoCAD"
 90
        0
280
     0
281
     1
  0
CLASS
  1
HATCH
  2
AcDbHatch
  3
"ACAD_SEDONA"
 90
        0
280
     0
281
     1
  0
CLASS
  1
XRECORD
  2
AcDbXrecord
  3
"<Built In>"
 90
        0
280
     0
281
     0
  0
CLASS
  1
LONG_TRANSACTION
  2
AcDbLongTransaction
  3
AutoCAD 2000
 90
        0
280
     0
281
     0
  0
CLASS
  1
LWPOLYLINE
  2
AcDbPolyline
  3
"AutoCAD"
 90
        0
280
     0
281
     1
  0
CLASS
  1
HATCH
  2
AcDbHatch
  3
"ACAD_SEDONA"
 90
        0
280
     0
281
     1
  0
CLASS
  1
XRECORD
  2
AcDbXrecord
  3
"<Built In>"
 90
        0
280
     0
281
     0
  0
CLASS
  1
LONG_TRANSACTION
  2
AcDbLongTransaction
  3
AutoCAD 2000
 90
        0
280
     0
281
     0
  0
CLASS
  1
LWPOLYLINE
  2
AcDbPolyline
  3
"AutoCAD"
 90
        0
280
     0
281
     1
  0
CLASS
  1
HATCH
  2
AcDbHatch
  3
"ACAD_SEDONA"
 90
        0
280
     0
281
     1
  0
CLASS
  1
XRECORD
  2
AcDbXrecord
  3
"<Built In>"
 90
        0
280
     0
281
     0
  0
CLASS
  1
LONG_TRANSACTION
  2
AcDbLongTransaction
  3
AutoCAD 2000
 90
        0
280
     0
281
     0
  0
CLASS
  1
LWPOLYLINE
  2
AcDbPolyline
  3
"AutoCAD"
 90
        0
280
     0
281
     1
  0
CLASS
  1
HATCH
  2
AcDbHatch
  3
"ACAD_SEDONA"
 90
        0
280
     0
281
     1
  0
CLASS
  1
XRECORD
  2
AcDbXrecord
  3
"<Built In>"
 90
        0
280
     0
281
     0
  0
CLASS
  1
LONG_TRANSACTION
  2
AcDbLongTransaction
  3
AutoCAD 2000
 90
        0
280
     0
281
     0
  0
CLASS
  1
LWPOLYLINE
  2
AcDbPolyline
  3
"AutoCAD"
 90
        0
280
     0
281
     1
  0
CLASS
  1
HATCH
  2
AcDbHatch
  3
"ACAD_SEDONA"
 90
        0
280
     0
281
     1
  0
CLASS
  1
XRECORD
  2
AcDbXrecord
  3
"<Built In>"
 90
        0
280
     0
281
     0
  0
CLASS
  1
LONG_TRANSACTION
  2
AcDbLongTransaction
  3
AutoCAD 2000
 90
        0
280
     0
281
     0
  0
CLASS
  1
LWPOLYLINE
  2
AcDbPolyline
  3
"AutoCAD"
 90
        0
280
     0
281
     1
  0
CLASS
  1
HATCH
  2
AcDbHatch
  3
"ACAD_SEDONA"
 90
        0
280
     0
281
     1
  0
CLASS
  1
XRECORD
  2
AcDbXrecord
  3
"<Built In>"
 90
        0
280
     0
281
     0
  0
ENDSEC
  0
SECTION
  2
TABLES
  0
TABLE
  2
VPORT
  5
458C7
100
AcDbSymbolTable
 70
     1
  0
VPORT
  5
4FB80
102
{ACAD_XDICTIONARY
360
4FB83
102
}
100
AcDbSymbolTableRecord
100
AcDbViewportTableRecord
  2
*ACTIVE
 70
     0
 10
0.0
 20
0.0
 11
1.0
 21
1.0
 12
-0.529424
 22
-0.004081
 13
0.0
 23
0.0
 14
0.25
 24
0.25
 15
0.25
 25
0.25
 16
0.0
 26
0.0
 36
1.0
 17
0.563444
 27
-0.880137
 37
1.686493
 40
5.320888
 41
1.960674
 42
50.0
 43
0.0
 44
0.0
 50
0.0
 51
0.0
 71
     0
 72
 20000
 73
     1
 74
     1
 75
     0
 76
     0
 77
     0
 78
     0
  0
ENDTAB
  0
TABLE
  2
LTYPE
  5
458C4
100
AcDbSymbolTable
 70
     1
  0
LTYPE
  5
458D0
100
AcDbSymbolTableRecord
100
AcDbLinetypeTableRecord
  2
BYBLOCK
 70
     0
  3

 72
    65
 73
     0
 40
0.0
  0
LTYPE
  5
458D1
100
AcDbSymbolTableRecord
100
AcDbLinetypeTableRecord
  2
BYLAYER
 70
     0
  3

 72
    65
 73
     0
 40
0.0
  0
LTYPE
  5
458D2
100
AcDbSymbolTableRecord
100
AcDbLinetypeTableRecord
  2
CONTINUOUS
 70
     0
  3
Solid line
 72
    65
 73
     0
 40
0.0
  0
ENDTAB
  0
TABLE
  2
LAYER
  5
458C1
100
AcDbSymbolTable
 70
     7
  0
LAYER
  5
458CD
100
AcDbSymbolTableRecord
100
AcDbLayerTableRecord
  2
0
 70
     0
 62
     7
  6
CONTINUOUS
  0
LAYER
  5
458EA
100
AcDbSymbolTableRecord
100
AcDbLayerTableRecord
  2
DIMS-MTG-HOLES
 70
     0
 62
     1
  6
CONTINUOUS
  0
LAYER
  5
458EB
100
AcDbSymbolTableRecord
100
AcDbLayerTableRecord
  2
ATTRIBUTES
 70
     0
 62
     7
  6
CONTINUOUS
  0
LAYER
  5
4593B
102
{ACAD_XDICTIONARY
360
4FBAC
102
}
100
AcDbSymbolTableRecord
100
AcDbLayerTableRecord
  2
AREA1
 70
     0
 62
    -7
  6
CONTINUOUS
  0
LAYER
  5
45940
102
{ACAD_XDICTIONARY
360
4FB81
102
}
100
AcDbSymbolTableRecord
100
AcDbLayerTableRecord
  2
DEFPOINTS
 70
     0
 62
    -7
  6
CONTINUOUS
  0
LAYER
  5
45954
100
AcDbSymbolTableRecord
100
AcDbLayerTableRecord
  2
SCALE
 70
     0
 62
    -7
  6
CONTINUOUS
  0
LAYER
  5
4D59A
100
AcDbSymbolTableRecord
100
AcDbLayerTableRecord
  2
SNAP_POINTS
 70
     0
 62
    -1
  6
CONTINUOUS
  0
ENDTAB
  0
TABLE
  2
STYLE
  5
458C2
100
AcDbSymbolTable
 70
     1
  0
STYLE
  5
458CE
100
AcDbSymbolTableRecord
100
AcDbTextStyleTableRecord
  2
STANDARD
 70
     0
 40
0.0
 41
1.0
 50
0.0
 71
     0
 42
0.12
  3
txt
  4

  0
ENDTAB
  0
TABLE
  2
VIEW
  5
458C5
100
AcDbSymbolTable
 70
     0
  0
ENDTAB
  0
TABLE
  2
UCS
  5
458C6
100
AcDbSymbolTable
 70
     0
  0
ENDTAB
  0
TABLE
  2
APPID
  5
458C8
100
AcDbSymbolTable
 70
     1
  0
APPID
  5
458CF
100
AcDbSymbolTableRecord
100
AcDbRegAppTableRecord
  2
ACAD
 70
     0
  0
ENDTAB
  0
TABLE
  2
DIMSTYLE
  5
458C9
100
AcDbSymbolTable
 70
     1
  0
DIMSTYLE
105
458F6
102
{ACAD_XDICTIONARY
360
4FBA8
102
}
102
{ACAD_REACTORS
330
4FAE0
330
4FAEE
102
}
100
AcDbSymbolTableRecord
100
AcDbDimStyleTableRecord
  2
ABECAD_3D
 70
     0
  3

  4

  5

  6

  7

 40
1.0
 41
0.18
 42
0.0625
 43
0.375
 44
0.18
 45
0.0
 46
0.0
 47
0.0
 48
0.0
140
0.125
141
0.09
142
0.0
143
25.4
144
1.0
145
0.0
146
1.5
147
0.09
 71
     0
 72
     0
 73
     0
 74
     1
 75
     0
 76
     0
 77
     0
 78
     4
170
     1
171
     2
172
     0
173
     0
174
     0
175
     0
176
     0
177
     0
178
     0
270
     7
271
     6
272
     6
273
     2
274
     2
340
458CE
275
     0
280
     0
281
     0
282
     0
283
     1
284
     4
285
     4
286
     4
287
     5
288
     1
  0
ENDTAB
  0
TABLE
  2
BLOCK_RECORD
  5
458C0
100
AcDbSymbolTable
 70
     2
  0
BLOCK_RECORD
  5
458D6
102
{ACAD_XDICTIONARY
360
4592C
102
}
100
AcDbSymbolTableRecord
100
AcDbBlockTableRecord
  2
*MODEL_SPACE
  0
BLOCK_RECORD
  5
458D3
102
{ACAD_XDICTIONARY
360
4592A
102
}
100
AcDbSymbolTableRecord
100
AcDbBlockTableRecord
  2
*PAPER_SPACE
  0
BLOCK_RECORD
  5
4FAE1
100
AcDbSymbolTableRecord
100
AcDbBlockTableRecord
  2
*D0
  0
BLOCK_RECORD
  5
4FAEF
100
AcDbSymbolTableRecord
100
AcDbBlockTableRecord
  2
*D1
  0
ENDTAB
  0
ENDSEC
  0
SECTION
  2
BLOCKS
  0
BLOCK
  5
458DF
100
AcDbEntity
  8
0
100
AcDbBlockBegin
  2
*MODEL_SPACE
 70
     0
 10
0.0
 20
0.0
 30
0.0
  3
*MODEL_SPACE
  1

  0
ENDBLK
  5
458E0
100
AcDbEntity
  8
0
100
AcDbBlockEnd
  0
BLOCK
  5
458DD
100
AcDbEntity
 67
     1
  8
0
100
AcDbBlockBegin
  2
*PAPER_SPACE
 70
     0
 10
0.0
 20
0.0
 30
0.0
  3
*PAPER_SPACE
  1

  0
ENDBLK
  5
458DE
100
AcDbEntity
 67
     1
  8
0
100
AcDbBlockEnd
  0
BLOCK
  5
4FAEC
100
AcDbEntity
  8
0
100
AcDbBlockBegin
  2
*D0
 70
     1
 10
0.0
 20
0.0
 30
0.0
  3
*D0
  1

  0
LINE
  5
4FAE2
100
AcDbEntity
  8
AREA1
 62
     0
100
AcDbLine
 10
-0.0625
 20
0.98
 30
0.0
 11
-0.854619
 21
0.98
 31
0.0
1001
ACAD
1000
RTLwPs
1070
   158
  0
LINE
  5
4FAE3
100
AcDbEntity
  8
AREA1
 62
     0
100
AcDbLine
 10
0.06
 20
-2.51625
 30
0.0
 11
-0.854619
 21
-2.51625
 31
0.0
1001
ACAD
1000
RTLwPs
1070
   158
  0
LINE
  5
4FAE4
100
AcDbEntity
  8
AREA1
 62
     0
100
AcDbLine
 10
-0.674619
 20
0.8
 30
0.0
 11
-0.674619
 21
-0.055177
 31
0.0
1001
ACAD
1000
RTLwPs
1070
   158
  0
LINE
  5
4FAE5
100
AcDbEntity
  8
AREA1
 62
     0
100
AcDbLine
 10
-0.674619
 20
-2.33625
 30
0.0
 11
-0.674619
 21
-1.589344
 31
0.0
1001
ACAD
1000
RTLwPs
1070
   158
  0
MTEXT
  5
4FAE6
100
AcDbEntity
  8
AREA1
 62
     0
100
AcDbMText
 10
-0.674619
 20
-0.82226
 30
0.0
 40
0.125
 41
0.0
 71
     5
 72
     1
  1
\A1;3 1/2 [88.80]
 11
0.0
 21
1.0
 31
0.0
1001
ACAD
1000
MTEXTBEGIN
1070
    73
1070
     1
1070
    44
1040
1.0
1070
    74
1070
     0
1000
MTEXTEND
1000
MTEXTBEGIN
1070
    73
1070
     1
1070
    44
1040
1.0
1070
    74
1070
     0
1000
MTEXTEND
1000
MTEXTBEGIN
1070
    73
1070
     1
1070
    44
1040
1.0
1070
    74
1070
     0
1000
MTEXTEND
  0
SOLID
  5
4FAE7
100
AcDbEntity
  8
AREA1
 62
     0
100
AcDbTrace
 10
-0.704619
 20
0.8
 30
0.0
 11
-0.644619
 21
0.8
 31
0.0
 12
-0.674619
 22
0.98
 32
0.0
 13
-0.674619
 23
0.98
 33
0.0
  0
SOLID
  5
4FAE8
100
AcDbEntity
  8
AREA1
 62
     0
100
AcDbTrace
 10
-0.704619
 20
-2.33625
 30
0.0
 11
-0.644619
 21
-2.33625
 31
0.0
 12
-0.674619
 22
-2.51625
 32
0.0
 13
-0.674619
 23
-2.51625
 33
0.0
  0
POINT
  5
4FAE9
100
AcDbEntity
  8
DEFPOINTS
 62
     0
100
AcDbPoint
 10
0.0
 20
0.98
 30
0.0
  0
POINT
  5
4FAEA
100
AcDbEntity
  8
DEFPOINTS
 62
     0
100
AcDbPoint
 10
0.1225
 20
-2.51625
 30
0.0
  0
POINT
  5
4FAEB
100
AcDbEntity
  8
DEFPOINTS
 62
     0
100
AcDbPoint
 10
-0.674619
 20
-2.51625
 30
0.0
  0
ENDBLK
  5
4FAED
100
AcDbEntity
  8
0
100
AcDbBlockEnd
  0
BLOCK
  5
4FAF9
100
AcDbEntity
  8
0
100
AcDbBlockBegin
  2
*D1
 70
     1
 10
0.0
 20
0.0
 30
0.0
  3
*D1
  1

  0
LINE
  5
4FAFB
100
AcDbEntity
  8
AREA1
 62
     0
100
AcDbLine
 10
0.0
 20
1.0425
 30
0.0
 11
0.0
 21
1.508728
 31
0.0
1001
ACAD
1000
RTLwPs
1070
   158
  0
LINE
  5
4FAFC
100
AcDbEntity
  8
AREA1
 62
     0
100
AcDbLine
 10
0.625
 20
1.0425
 30
0.0
 11
0.625
 21
1.508728
 31
0.0
1001
ACAD
1000
RTLwPs
1070
   158
  0
LINE
  5
4FAFD
100
AcDbEntity
  8
AREA1
 62
     0
100
AcDbLine
 10
0.18
 20
1.328728
 30
0.0
 11
0.445
 21
1.328728
 31
0.0
1001
ACAD
1000
RTLwPs
1070
   158
  0
MTEXT
  5
4FAFE
100
AcDbEntity
  8
AREA1
 62
     0
100
AcDbMText
 10
0.283422
 20
1.668854
 30
0.0
 40
0.125
 41
0.0
 71
     5
 72
     1
  1
\A1;5/8 [15.88]
1001
ACAD
1000
MTEXTBEGIN
1070
    73
1070
     1
1070
    44
1040
1.0
1070
    74
1070
     0
1000
MTEXTEND
1000
MTEXTBEGIN
1070
    73
1070
     1
1070
    44
1040
1.0
1070
    74
1070
     0
1000
MTEXTEND
1000
MTEXTBEGIN
1070
    73
1070
     1
1070
    44
1040
1.0
1070
    74
1070
     0
1000
MTEXTEND
  0
SOLID
  5
4FAFF
100
AcDbEntity
  8
AREA1
 62
     0
100
AcDbTrace
 10
0.18
 20
1.358728
 30
0.0
 11
0.18
 21
1.298728
 31
0.0
 12
0.0
 22
1.328728
 32
0.0
 13
0.0
 23
1.328728
 33
0.0
  0
SOLID
  5
4FB00
100
AcDbEntity
  8
AREA1
 62
     0
100
AcDbTrace
 10
0.445
 20
1.358728
 30
0.0
 11
0.445
 21
1.298728
 31
0.0
 12
0.625
 22
1.328728
 32
0.0
 13
0.625
 23
1.328728
 33
0.0
  0
POINT
  5
4FB01
100
AcDbEntity
  8
DEFPOINTS
 62
     0
100
AcDbPoint
 10
0.0
 20
0.98
 30
0.0
  0
POINT
  5
4FB02
100
AcDbEntity
  8
DEFPOINTS
 62
     0
100
AcDbPoint
 10
0.625
 20
0.98
 30
0.0
  0
POINT
  5
4FB03
100
AcDbEntity
  8
DEFPOINTS
 62
     0
100
AcDbPoint
 10
0.625
 20
1.328728
 30
0.0
  0
ENDBLK
  5
4FAFA
100
AcDbEntity
  8
0
100
AcDbBlockEnd
  0
ENDSEC
  0
SECTION
  2
ENTITIES
  0
CIRCLE
  5
4F9D4
100
AcDbEntity
  8
0
100
AcDbCircle
 10
0.3125
 20
-0.84
 30
1.2125
 40
0.075
  0
CIRCLE
  5
4F9D5
100
AcDbEntity
  8
0
100
AcDbCircle
 10
0.3125
 20
-0.84
 30
0.0
 40
0.075
  0
LINE
  5
4F9D6
100
AcDbEntity
  8
0
100
AcDbLine
 10
0.0
 20
-1.579
 30
1.2125
 11
0.625
 21
-1.579
 31
1.2125
  0
LINE
  5
4F9D7
100
AcDbEntity
  8
0
100
AcDbLine
 10
0.1525
 20
-1.549
 30
1.2125
 11
0.4725
 21
-1.549
 31
1.2125
  0
CIRCLE
  5
4F9D8
100
AcDbEntity
  8
0
100
AcDbCircle
 10
0.199856
 20
-1.784303
 30
1.375
 40
0.109375
  0
3DFACE
  5
4F9D9
100
AcDbEntity
  8
0
100
AcDbFace
 10
0.4725
 20
-1.269
 30
2.010736
 11
0.4725
 21
-1.269
 31
1.9625
 12
0.1525
 22
-1.269
 32
1.9625
 13
0.1525
 23
-1.269
 33
2.010736
 70
    14
  0
LINE
  5
4F9DA
100
AcDbEntity
  8
0
100
AcDbLine
 10
0.1525
 20
-1.369
 30
1.7125
 11
0.4725
 21
-1.369
 31
1.7125
  0
LINE
  5
4F9DB
100
AcDbEntity
  8
0
100
AcDbLine
 10
0.1525
 20
-1.369
 30
1.9625
 11
0.4725
 21
-1.369
 31
1.9625
  0
LINE
  5
4F9DC
100
AcDbEntity
  8
0
100
AcDbLine
 10
0.1525
 20
-1.269
 30
1.9625
 11
0.4725
 21
-1.269
 31
1.9625
  0
3DFACE
  5
4F9DD
100
AcDbEntity
  8
0
100
AcDbFace
 10
0.1525
 20
-1.269
 30
2.010736
 11
0.1525
 21
-1.467699
 31
2.194862
 12
0.4725
 22
-1.467699
 32
2.194862
 13
0.4725
 23
-1.269001
 33
2.010736
 70
    14
  0
3DFACE
  5
4F9DE
100
AcDbEntity
  8
0
100
AcDbFace
 10
0.1525
 20
-1.467699
 30
2.194862
 11
0.1525
 21
-1.509574
 31
2.4625
 12
0.4725
 22
-1.509574
 32
2.4625
 13
0.4725
 23
-1.467699
 33
2.194862
 70
    14
  0
LINE
  5
4F9DF
100
AcDbEntity
  8
0
100
AcDbLine
 10
0.1525
 20
-1.467699
 30
2.194862
 11
0.4725
 21
-1.467699
 31
2.194862
  0
LINE
  5
4F9E0
100
AcDbEntity
  8
0
100
AcDbLine
 10
0.1525
 20
-1.509574
 30
2.4625
 11
0.4725
 21
-1.509574
 31
2.4625
  0
LINE
  5
4F9E1
100
AcDbEntity
  8
0
100
AcDbLine
 10
0.1525
 20
-1.549
 30
2.4625
 11
0.4725
 21
-1.549
 31
2.4625
  0
3DFACE
  5
4F9E2
100
AcDbEntity
  8
0
100
AcDbFace
 10
0.1525
 20
-1.509574
 30
2.4625
 11
0.1525
 21
-1.549
 31
2.4625
 12
0.4725
 22
-1.549
 32
2.4625
 13
0.4725
 23
-1.509574
 33
2.4625
 70
    14
  0
LINE
  5
4F9E3
100
AcDbEntity
  8
0
100
AcDbLine
 10
0.1525
 20
-1.269001
 30
2.010736
 11
0.4725
 21
-1.269001
 31
2.010736
  0
LINE
  5
4F9E4
100
AcDbEntity
  8
0
100
AcDbLine
 10
0.0
 20
-1.579
 30
1.375
 11
0.0
 21
-1.579
 31
1.2125
  0
LINE
  5
4F9E5
100
AcDbEntity
  8
0
100
AcDbLine
 10
0.1525
 20
-1.269
 30
2.010736
 11
0.1525
 21
-1.269
 31
1.9625
  0
LINE
  5
4F9E6
100
AcDbEntity
  8
0
100
AcDbLine
 10
0.1525
 20
-1.269
 30
1.9625
 11
0.1525
 21
-1.369
 31
1.9625
  0
LINE
  5
4F9E7
100
AcDbEntity
  8
0
100
AcDbLine
 10
0.1525
 20
-1.509574
 30
2.4625
 11
0.1525
 21
-1.467699
 31
2.194862
  0
LINE
  5
4F9E8
100
AcDbEntity
  8
0
100
AcDbLine
 10
0.1525
 20
-1.549
 30
2.4625
 11
0.1525
 21
-1.509574
 31
2.4625
  0
LINE
  5
4F9E9
100
AcDbEntity
  8
0
100
AcDbLine
 10
0.4725
 20
-1.299
 30
1.7125
 11
0.4725
 21
-1.299
 31
1.2125
  0
CIRCLE
  5
4F9EA
100
AcDbEntity
  8
0
100
AcDbCircle
 10
0.471547
 20
-2.150736
 30
0.8125
 40
0.109375
  0
LINE
  5
4F9EB
100
AcDbEntity
  8
0
100
AcDbLine
 10
0.4725
 20
-1.269
 30
2.010736
 11
0.4725
 21
-1.269
 31
1.9625
  0
LINE
  5
4F9EC
100
AcDbEntity
  8
0
100
AcDbLine
 10
0.4725
 20
-1.269
 30
1.9625
 11
0.4725
 21
-1.369
 31
1.9625
  0
LINE
  5
4F9ED
100
AcDbEntity
  8
0
100
AcDbLine
 10
0.4725
 20
-1.509574
 30
2.4625
 11
0.4725
 21
-1.467699
 31
2.194862
  0
LINE
  5
4F9EE
100
AcDbEntity
  8
0
100
AcDbLine
 10
0.4725
 20
-1.549
 30
2.4625
 11
0.4725
 21
-1.509574
 31
2.4625
  0
CIRCLE
  5
4F9EF
100
AcDbEntity
  8
0
100
AcDbCircle
 10
0.471547
 20
0.387157
 30
1.3125
 40
0.109375
  0
TEXT
  5
4F9F0
100
AcDbEntity
  8
0
100
AcDbText
 10
0.174973
 20
0.26741
 30
1.375
 40
0.083026
  1

100
AcDbText
  0
TEXT
  5
4F9F1
100
AcDbEntity
  8
0
100
AcDbText
 10
0.421556
 20
-0.144011
 30
1.8725
 40
0.083026
  1

100
AcDbText
  0
TEXT
  5
4F9F2
100
AcDbEntity
  8
0
100
AcDbText
 10
0.328791
 20
-1.702147
 30
1.375
 40
0.083026
  1
8(+)
100
AcDbText
  0
TEXT
  5
4F9F3
100
AcDbEntity
  8
0
100
AcDbText
 10
0.077976
 20
-2.091719
 30
0.8125
 40
0.083026
  1
1(-)
100
AcDbText
  0
TEXT
  5
4F9F4
100
AcDbEntity
  8
0
100
AcDbText
 10
0.324558
 20
-1.936018
 30
1.375
 40
0.083026
  1
(A1)
100
AcDbText
  0
TEXT
  5
4F9F5
100
AcDbEntity
  8
0
100
AcDbText
 10
0.060112
 20
-2.308953
 30
0.8125
 40
0.083026
  1
(A2)
100
AcDbText
  0
POLYLINE
  5
4F9F6
100
AcDbEntity
  8
0
100
AcDbPolygonMesh
 66
     1
 10
0.0
 20
0.0
 30
0.0
 70
    16
 71
     6
 72
     3
  0
VERTEX
  5
4F9F7
100
AcDbEntity
  8
0
100
AcDbVertex
100
AcDbPolygonMeshVertex
 10
0.625
 20
-2.36
 30
0.8125
 70
    64
  0
VERTEX
  5
4F9F8
100
AcDbEntity
  8
0
100
AcDbVertex
100
AcDbPolygonMeshVertex
 10
0.625
 20
-2.36
 30
0.0
 70
    64
  0
VERTEX
  5
4F9F9
100
AcDbEntity
  8
0
100
AcDbVertex
100
AcDbPolygonMeshVertex
 10
0.625
 20
-2.36
 30
0.0
 70
    64
  0
VERTEX
  5
4F9FA
100
AcDbEntity
  8
0
100
AcDbVertex
100
AcDbPolygonMeshVertex
 10
0.0
 20
-2.36
 30
0.8125
 70
    64
  0
VERTEX
  5
4F9FB
100
AcDbEntity
  8
0
100
AcDbVertex
100
AcDbPolygonMeshVertex
 10
0.0
 20
-2.36
 30
0.0
 70
    64
  0
VERTEX
  5
4F9FC
100
AcDbEntity
  8
0
100
AcDbVertex
100
AcDbPolygonMeshVertex
 10
0.0
 20
-2.36
 30
0.0
 70
    64
  0
VERTEX
  5
4F9FD
100
AcDbEntity
  8
0
100
AcDbVertex
100
AcDbPolygonMeshVertex
 10
0.0
 20
0.98
 30
0.8125
 70
    64
  0
VERTEX
  5
4F9FE
100
AcDbEntity
  8
0
100
AcDbVertex
100
AcDbPolygonMeshVertex
 10
0.0
 20
0.98
 30
0.0
 70
    64
  0
VERTEX
  5
4F9FF
100
AcDbEntity
  8
0
100
AcDbVertex
100
AcDbPolygonMeshVertex
 10
0.0
 20
-2.36
 30
0.0
 70
    64
  0
VERTEX
  5
4FA00
100
AcDbEntity
  8
0
100
AcDbVertex
100
AcDbPolygonMeshVertex
 10
0.625
 20
0.98
 30
0.8125
 70
    64
  0
VERTEX
  5
4FA01
100
AcDbEntity
  8
0
100
AcDbVertex
100
AcDbPolygonMeshVertex
 10
0.625
 20
0.98
 30
0.0
 70
    64
  0
VERTEX
  5
4FA02
100
AcDbEntity
  8
0
100
AcDbVertex
100
AcDbPolygonMeshVertex
 10
0.625
 20
-2.36
 30
0.0
 70
    64
  0
VERTEX
  5
4FA03
100
AcDbEntity
  8
0
100
AcDbVertex
100
AcDbPolygonMeshVertex
 10
0.625
 20
0.98
 30
0.8125
 70
    64
  0
VERTEX
  5
4FA04
100
AcDbEntity
  8
0
100
AcDbVertex
100
AcDbPolygonMeshVertex
 10
0.625
 20
0.98
 30
0.8125
 70
    64
  0
VERTEX
  5
4FA05
100
AcDbEntity
  8
0
100
AcDbVertex
100
AcDbPolygonMeshVertex
 10
0.625
 20
-2.36
 30
0.8125
 70
    64
  0
VERTEX
  5
4FA06
100
AcDbEntity
  8
0
100
AcDbVertex
100
AcDbPolygonMeshVertex
 10
0.0
 20
0.98
 30
0.8125
 70
    64
  0
VERTEX
  5
4FA07
100
AcDbEntity
  8
0
100
AcDbVertex
100
AcDbPolygonMeshVertex
 10
0.0
 20
0.98
 30
0.8125
 70
    64
  0
VERTEX
  5
4FA08
100
AcDbEntity
  8
0
100
AcDbVertex
100
AcDbPolygonMeshVertex
 10
0.0
 20
-2.36
 30
0.8125
 70
    64
  0
SEQEND
  5
4FA09
100
AcDbEntity
  8
0
  0
LINE
  5
4FA0A
100
AcDbEntity
  8
0
100
AcDbLine
 10
0.0
 20
-1.579
 30
1.2125
 11
0.0
 21
-1.579
 31
0.8125
  0
LINE
  5
4FA0B
100
AcDbEntity
  8
0
100
AcDbLine
 10
0.0
 20
-1.579
 30
0.8125
 11
0.625
 21
-1.579
 31
0.8125
  0
LINE
  5
4FA0C
100
AcDbEntity
  8
0
100
AcDbLine
 10
0.0
 20
-0.201
 30
1.2125
 11
0.0
 21
-0.201
 31
0.8125
  0
LINE
  5
4FA0D
100
AcDbEntity
  8
0
100
AcDbLine
 10
0.0
 20
0.199
 30
1.3125
 11
0.0
 21
0.199
 31
0.8125
  0
POLYLINE
  5
4FA0E
100
AcDbEntity
  8
0
100
AcDbPolygonMesh
 66
     1
 10
0.0
 20
0.0
 30
0.0
 70
    16
 71
     6
 72
     3
  0
VERTEX
  5
4FA0F
100
AcDbEntity
  8
0
100
AcDbVertex
100
AcDbPolygonMeshVertex
 10
0.625
 20
-1.579
 30
1.2125
 70
    64
  0
VERTEX
  5
4FA10
100
AcDbEntity
  8
0
100
AcDbVertex
100
AcDbPolygonMeshVertex
 10
0.625
 20
-1.579
 30
0.8125
 70
    64
  0
VERTEX
  5
4FA11
100
AcDbEntity
  8
0
100
AcDbVertex
100
AcDbPolygonMeshVertex
 10
0.625
 20
-1.579
 30
0.8125
 70
    64
  0
VERTEX
  5
4FA12
100
AcDbEntity
  8
0
100
AcDbVertex
100
AcDbPolygonMeshVertex
 10
0.0
 20
-1.579
 30
1.2125
 70
    64
  0
VERTEX
  5
4FA13
100
AcDbEntity
  8
0
100
AcDbVertex
100
AcDbPolygonMeshVertex
 10
0.0
 20
-1.579
 30
0.8125
 70
    64
  0
VERTEX
  5
4FA14
100
AcDbEntity
  8
0
100
AcDbVertex
100
AcDbPolygonMeshVertex
 10
0.0
 20
-1.579
 30
0.8125
 70
    64
  0
VERTEX
  5
4FA15
100
AcDbEntity
  8
0
100
AcDbVertex
100
AcDbPolygonMeshVertex
 10
0.0
 20
-0.201
 30
1.2125
 70
    64
  0
VERTEX
  5
4FA16
100
AcDbEntity
  8
0
100
AcDbVertex
100
AcDbPolygonMeshVertex
 10
0.0
 20
-0.201
 30
0.8125
 70
    64
  0
VERTEX
  5
4FA17
100
AcDbEntity
  8
0
100
AcDbVertex
100
AcDbPolygonMeshVertex
 10
0.0
 20
-1.579
 30
0.8125
 70
    64
  0
VERTEX
  5
4FA18
100
AcDbEntity
  8
0
100
AcDbVertex
100
AcDbPolygonMeshVertex
 10
0.625
 20
-0.201
 30
1.2125
 70
    64
  0
VERTEX
  5
4FA19
100
AcDbEntity
  8
0
100
AcDbVertex
100
AcDbPolygonMeshVertex
 10
0.625
 20
-0.201
 30
0.8125
 70
    64
  0
VERTEX
  5
4FA1A
100
AcDbEntity
  8
0
100
AcDbVertex
100
AcDbPolygonMeshVertex
 10
0.625
 20
-1.579
 30
0.8125
 70
    64
  0
VERTEX
  5
4FA1B
100
AcDbEntity
  8
0
100
AcDbVertex
100
AcDbPolygonMeshVertex
 10
0.625
 20
-0.201
 30
1.2125
 70
    64
  0
VERTEX
  5
4FA1C
100
AcDbEntity
  8
0
100
AcDbVertex
100
AcDbPolygonMeshVertex
 10
0.625
 20
-0.201
 30
1.2125
 70
    64
  0
VERTEX
  5
4FA1D
100
AcDbEntity
  8
0
100
AcDbVertex
100
AcDbPolygonMeshVertex
 10
0.625
 20
-1.579
 30
1.2125
 70
    64
  0
VERTEX
  5
4FA1E
100
AcDbEntity
  8
0
100
AcDbVertex
100
AcDbPolygonMeshVertex
 10
0.0
 20
-0.201
 30
1.2125
 70
    64
  0
VERTEX
  5
4FA1F
100
AcDbEntity
  8
0
100
AcDbVertex
100
AcDbPolygonMeshVertex
 10
0.0
 20
-0.201
 30
1.2125
 70
    64
  0
VERTEX
  5
4FA20
100
AcDbEntity
  8
0
100
AcDbVertex
100
AcDbPolygonMeshVertex
 10
0.0
 20
-1.579
 30
1.2125
 70
    64
  0
SEQEND
  5
4FA21
100
AcDbEntity
  8
0
  0
POLYLINE
  5
4FA22
100
AcDbEntity
  8
0
100
AcDbPolygonMesh
 66
     1
 10
0.0
 20
0.0
 30
0.0
 70
    16
 71
     6
 72
     3
  0
VERTEX
  5
4FA23
100
AcDbEntity
  8
0
100
AcDbVertex
100
AcDbPolygonMeshVertex
 10
0.625
 20
-1.985
 30
1.375
 70
    64
  0
VERTEX
  5
4FA24
100
AcDbEntity
  8
0
100
AcDbVertex
100
AcDbPolygonMeshVertex
 10
0.625
 20
-1.985
 30
0.8125
 70
    64
  0
VERTEX
  5
4FA25
100
AcDbEntity
  8
0
100
AcDbVertex
100
AcDbPolygonMeshVertex
 10
0.625
 20
-1.985
 30
0.8125
 70
    64
  0
VERTEX
  5
4FA26
100
AcDbEntity
  8
0
100
AcDbVertex
100
AcDbPolygonMeshVertex
 10
0.0
 20
-1.985
 30
1.375
 70
    64
  0
VERTEX
  5
4FA27
100
AcDbEntity
  8
0
100
AcDbVertex
100
AcDbPolygonMeshVertex
 10
0.0
 20
-1.985
 30
0.8125
 70
    64
  0
VERTEX
  5
4FA28
100
AcDbEntity
  8
0
100
AcDbVertex
100
AcDbPolygonMeshVertex
 10
0.0
 20
-1.985
 30
0.8125
 70
    64
  0
VERTEX
  5
4FA29
100
AcDbEntity
  8
0
100
AcDbVertex
100
AcDbPolygonMeshVertex
 10
0.0
 20
-1.579
 30
1.375
 70
    64
  0
VERTEX
  5
4FA2A
100
AcDbEntity
  8
0
100
AcDbVertex
100
AcDbPolygonMeshVertex
 10
0.0
 20
-1.579
 30
0.8125
 70
    64
  0
VERTEX
  5
4FA2B
100
AcDbEntity
  8
0
100
AcDbVertex
100
AcDbPolygonMeshVertex
 10
0.0
 20
-1.985
 30
0.8125
 70
    64
  0
VERTEX
  5
4FA2C
100
AcDbEntity
  8
0
100
AcDbVertex
100
AcDbPolygonMeshVertex
 10
0.625
 20
-1.579
 30
1.375
 70
    64
  0
VERTEX
  5
4FA2D
100
AcDbEntity
  8
0
100
AcDbVertex
100
AcDbPolygonMeshVertex
 10
0.625
 20
-1.579
 30
0.8125
 70
    64
  0
VERTEX
  5
4FA2E
100
AcDbEntity
  8
0
100
AcDbVertex
100
AcDbPolygonMeshVertex
 10
0.625
 20
-1.985
 30
0.8125
 70
    64
  0
VERTEX
  5
4FA2F
100
AcDbEntity
  8
0
100
AcDbVertex
100
AcDbPolygonMeshVertex
 10
0.625
 20
-1.579
 30
1.375
 70
    64
  0
VERTEX
  5
4FA30
100
AcDbEntity
  8
0
100
AcDbVertex
100
AcDbPolygonMeshVertex
 10
0.625
 20
-1.579
 30
1.375
 70
    64
  0
VERTEX
  5
4FA31
100
AcDbEntity
  8
0
100
AcDbVertex
100
AcDbPolygonMeshVertex
 10
0.625
 20
-1.985
 30
1.375
 70
    64
  0
VERTEX
  5
4FA32
100
AcDbEntity
  8
0
100
AcDbVertex
100
AcDbPolygonMeshVertex
 10
0.0
 20
-1.579
 30
1.375
 70
    64
  0
VERTEX
  5
4FA33
100
AcDbEntity
  8
0
100
AcDbVertex
100
AcDbPolygonMeshVertex
 10
0.0
 20
-1.579
 30
1.375
 70
    64
  0
VERTEX
  5
4FA34
100
AcDbEntity
  8
0
100
AcDbVertex
100
AcDbPolygonMeshVertex
 10
0.0
 20
-1.985
 30
1.375
 70
    64
  0
SEQEND
  5
4FA35
100
AcDbEntity
  8
0
  0
POLYLINE
  5
4FA36
100
AcDbEntity
  8
0
100
AcDbPolygonMesh
 66
     1
 10
0.0
 20
0.0
 30
0.0
 70
    16
 71
     6
 72
     3
  0
VERTEX
  5
4FA37
100
AcDbEntity
  8
0
100
AcDbVertex
100
AcDbPolygonMeshVertex
 10
0.625
 20
-0.201
 30
1.8725
 70
    64
  0
VERTEX
  5
4FA38
100
AcDbEntity
  8
0
100
AcDbVertex
100
AcDbPolygonMeshVertex
 10
0.625
 20
-0.201
 30
0.8125
 70
    64
  0
VERTEX
  5
4FA39
100
AcDbEntity
  8
0
100
AcDbVertex
100
AcDbPolygonMeshVertex
 10
0.625
 20
-0.201
 30
0.8125
 70
    64
  0
VERTEX
  5
4FA3A
100
AcDbEntity
  8
0
100
AcDbVertex
100
AcDbPolygonMeshVertex
 10
0.0
 20
-0.201
 30
1.8725
 70
    64
  0
VERTEX
  5
4FA3B
100
AcDbEntity
  8
0
100
AcDbVertex
100
AcDbPolygonMeshVertex
 10
0.0
 20
-0.201
 30
0.8125
 70
    64
  0
VERTEX
  5
4FA3C
100
AcDbEntity
  8
0
100
AcDbVertex
100
AcDbPolygonMeshVertex
 10
0.0
 20
-0.201
 30
0.8125
 70
    64
  0
VERTEX
  5
4FA3D
100
AcDbEntity
  8
0
100
AcDbVertex
100
AcDbPolygonMeshVertex
 10
0.0
 20
0.199
 30
1.8725
 70
    64
  0
VERTEX
  5
4FA3E
100
AcDbEntity
  8
0
100
AcDbVertex
100
AcDbPolygonMeshVertex
 10
0.0
 20
0.199
 30
0.8125
 70
    64
  0
VERTEX
  5
4FA3F
100
AcDbEntity
  8
0
100
AcDbVertex
100
AcDbPolygonMeshVertex
 10
0.0
 20
-0.201
 30
0.8125
 70
    64
  0
VERTEX
  5
4FA40
100
AcDbEntity
  8
0
100
AcDbVertex
100
AcDbPolygonMeshVertex
 10
0.625
 20
0.199
 30
1.8725
 70
    64
  0
VERTEX
  5
4FA41
100
AcDbEntity
  8
0
100
AcDbVertex
100
AcDbPolygonMeshVertex
 10
0.625
 20
0.199
 30
0.8125
 70
    64
  0
VERTEX
  5
4FA42
100
AcDbEntity
  8
0
100
AcDbVertex
100
AcDbPolygonMeshVertex
 10
0.625
 20
-0.201
 30
0.8125
 70
    64
  0
VERTEX
  5
4FA43
100
AcDbEntity
  8
0
100
AcDbVertex
100
AcDbPolygonMeshVertex
 10
0.625
 20
0.199
 30
1.8725
 70
    64
  0
VERTEX
  5
4FA44
100
AcDbEntity
  8
0
100
AcDbVertex
100
AcDbPolygonMeshVertex
 10
0.625
 20
0.199
 30
1.8725
 70
    64
  0
VERTEX
  5
4FA45
100
AcDbEntity
  8
0
100
AcDbVertex
100
AcDbPolygonMeshVertex
 10
0.625
 20
-0.201
 30
1.8725
 70
    64
  0
VERTEX
  5
4FA46
100
AcDbEntity
  8
0
100
AcDbVertex
100
AcDbPolygonMeshVertex
 10
0.0
 20
0.199
 30
1.8725
 70
    64
  0
VERTEX
  5
4FA47
100
AcDbEntity
  8
0
100
AcDbVertex
100
AcDbPolygonMeshVertex
 10
0.0
 20
0.199
 30
1.8725
 70
    64
  0
VERTEX
  5
4FA48
100
AcDbEntity
  8
0
100
AcDbVertex
100
AcDbPolygonMeshVertex
 10
0.0
 20
-0.201
 30
1.8725
 70
    64
  0
SEQEND
  5
4FA49
100
AcDbEntity
  8
0
  0
POLYLINE
  5
4FA4A
100
AcDbEntity
  8
0
100
AcDbPolygonMesh
 66
     1
 10
0.0
 20
0.0
 30
0.0
 70
    16
 71
     6
 72
     3
  0
VERTEX
  5
4FA4B
100
AcDbEntity
  8
0
100
AcDbVertex
100
AcDbPolygonMeshVertex
 10
0.625
 20
0.199
 30
1.3125
 70
    64
  0
VERTEX
  5
4FA4C
100
AcDbEntity
  8
0
100
AcDbVertex
100
AcDbPolygonMeshVertex
 10
0.625
 20
0.199
 30
0.8125
 70
    64
  0
VERTEX
  5
4FA4D
100
AcDbEntity
  8
0
100
AcDbVertex
100
AcDbPolygonMeshVertex
 10
0.625
 20
0.199
 30
0.8125
 70
    64
  0
VERTEX
  5
4FA4E
100
AcDbEntity
  8
0
100
AcDbVertex
100
AcDbPolygonMeshVertex
 10
0.0
 20
0.199
 30
1.3125
 70
    64
  0
VERTEX
  5
4FA4F
100
AcDbEntity
  8
0
100
AcDbVertex
100
AcDbPolygonMeshVertex
 10
0.0
 20
0.199
 30
0.8125
 70
    64
  0
VERTEX
  5
4FA50
100
AcDbEntity
  8
0
100
AcDbVertex
100
AcDbPolygonMeshVertex
 10
0.0
 20
0.199
 30
0.8125
 70
    64
  0
VERTEX
  5
4FA51
100
AcDbEntity
  8
0
100
AcDbVertex
100
AcDbPolygonMeshVertex
 10
0.0
 20
0.605
 30
1.3125
 70
    64
  0
VERTEX
  5
4FA52
100
AcDbEntity
  8
0
100
AcDbVertex
100
AcDbPolygonMeshVertex
 10
0.0
 20
0.605
 30
0.8125
 70
    64
  0
VERTEX
  5
4FA53
100
AcDbEntity
  8
0
100
AcDbVertex
100
AcDbPolygonMeshVertex
 10
0.0
 20
0.199
 30
0.8125
 70
    64
  0
VERTEX
  5
4FA54
100
AcDbEntity
  8
0
100
AcDbVertex
100
AcDbPolygonMeshVertex
 10
0.625
 20
0.605
 30
1.3125
 70
    64
  0
VERTEX
  5
4FA55
100
AcDbEntity
  8
0
100
AcDbVertex
100
AcDbPolygonMeshVertex
 10
0.625
 20
0.605
 30
0.8125
 70
    64
  0
VERTEX
  5
4FA56
100
AcDbEntity
  8
0
100
AcDbVertex
100
AcDbPolygonMeshVertex
 10
0.625
 20
0.199
 30
0.8125
 70
    64
  0
VERTEX
  5
4FA57
100
AcDbEntity
  8
0
100
AcDbVertex
100
AcDbPolygonMeshVertex
 10
0.625
 20
0.605
 30
1.3125
 70
    64
  0
VERTEX
  5
4FA58
100
AcDbEntity
  8
0
100
AcDbVertex
100
AcDbPolygonMeshVertex
 10
0.625
 20
0.605
 30
1.3125
 70
    64
  0
VERTEX
  5
4FA59
100
AcDbEntity
  8
0
100
AcDbVertex
100
AcDbPolygonMeshVertex
 10
0.625
 20
0.199
 30
1.3125
 70
    64
  0
VERTEX
  5
4FA5A
100
AcDbEntity
  8
0
100
AcDbVertex
100
AcDbPolygonMeshVertex
 10
0.0
 20
0.605
 30
1.3125
 70
    64
  0
VERTEX
  5
4FA5B
100
AcDbEntity
  8
0
100
AcDbVertex
100
AcDbPolygonMeshVertex
 10
0.0
 20
0.605
 30
1.3125
 70
    64
  0
VERTEX
  5
4FA5C
100
AcDbEntity
  8
0
100
AcDbVertex
100
AcDbPolygonMeshVertex
 10
0.0
 20
0.199
 30
1.3125
 70
    64
  0
SEQEND
  5
4FA5D
100
AcDbEntity
  8
0
  0
POLYLINE
  5
4FA5E
100
AcDbEntity
  8
0
100
AcDbPolygonMesh
 66
     1
 10
0.0
 20
0.0
 30
0.0
 70
    16
 71
     6
 72
     3
  0
VERTEX
  5
4FA5F
100
AcDbEntity
  8
0
100
AcDbVertex
100
AcDbPolygonMeshVertex
 10
0.5025
 20
-2.51625
 30
0.125
 70
    64
  0
VERTEX
  5
4FA60
100
AcDbEntity
  8
0
100
AcDbVertex
100
AcDbPolygonMeshVertex
 10
0.5025
 20
-2.51625
 30
0.0
 70
    64
  0
VERTEX
  5
4FA61
100
AcDbEntity
  8
0
100
AcDbVertex
100
AcDbPolygonMeshVertex
 10
0.5025
 20
-2.51625
 30
0.0
 70
    64
  0
VERTEX
  5
4FA62
100
AcDbEntity
  8
0
100
AcDbVertex
100
AcDbPolygonMeshVertex
 10
0.1225
 20
-2.51625
 30
0.125
 70
    64
  0
VERTEX
  5
4FA63
100
AcDbEntity
  8
0
100
AcDbVertex
100
AcDbPolygonMeshVertex
 10
0.1225
 20
-2.51625
 30
0.0
 70
    64
  0
VERTEX
  5
4FA64
100
AcDbEntity
  8
0
100
AcDbVertex
100
AcDbPolygonMeshVertex
 10
0.1225
 20
-2.51625
 30
0.0
 70
    64
  0
VERTEX
  5
4FA65
100
AcDbEntity
  8
0
100
AcDbVertex
100
AcDbPolygonMeshVertex
 10
0.1225
 20
-2.36
 30
0.125
 70
    64
  0
VERTEX
  5
4FA66
100
AcDbEntity
  8
0
100
AcDbVertex
100
AcDbPolygonMeshVertex
 10
0.1225
 20
-2.36
 30
0.0
 70
    64
  0
VERTEX
  5
4FA67
100
AcDbEntity
  8
0
100
AcDbVertex
100
AcDbPolygonMeshVertex
 10
0.1225
 20
-2.51625
 30
0.0
 70
    64
  0
VERTEX
  5
4FA68
100
AcDbEntity
  8
0
100
AcDbVertex
100
AcDbPolygonMeshVertex
 10
0.5025
 20
-2.36
 30
0.125
 70
    64
  0
VERTEX
  5
4FA69
100
AcDbEntity
  8
0
100
AcDbVertex
100
AcDbPolygonMeshVertex
 10
0.5025
 20
-2.36
 30
0.0
 70
    64
  0
VERTEX
  5
4FA6A
100
AcDbEntity
  8
0
100
AcDbVertex
100
AcDbPolygonMeshVertex
 10
0.5025
 20
-2.51625
 30
0.0
 70
    64
  0
VERTEX
  5
4FA6B
100
AcDbEntity
  8
0
100
AcDbVertex
100
AcDbPolygonMeshVertex
 10
0.5025
 20
-2.36
 30
0.125
 70
    64
  0
VERTEX
  5
4FA6C
100
AcDbEntity
  8
0
100
AcDbVertex
100
AcDbPolygonMeshVertex
 10
0.5025
 20
-2.36
 30
0.125
 70
    64
  0
VERTEX
  5
4FA6D
100
AcDbEntity
  8
0
100
AcDbVertex
100
AcDbPolygonMeshVertex
 10
0.5025
 20
-2.51625
 30
0.125
 70
    64
  0
VERTEX
  5
4FA6E
100
AcDbEntity
  8
0
100
AcDbVertex
100
AcDbPolygonMeshVertex
 10
0.1225
 20
-2.36
 30
0.125
 70
    64
  0
VERTEX
  5
4FA6F
100
AcDbEntity
  8
0
100
AcDbVertex
100
AcDbPolygonMeshVertex
 10
0.1225
 20
-2.36
 30
0.125
 70
    64
  0
VERTEX
  5
4FA70
100
AcDbEntity
  8
0
100
AcDbVertex
100
AcDbPolygonMeshVertex
 10
0.1225
 20
-2.51625
 30
0.125
 70
    64
  0
SEQEND
  5
4FA71
100
AcDbEntity
  8
0
  0
LINE
  5
4FA72
100
AcDbEntity
  8
0
100
AcDbLine
 10
0.1525
 20
-1.369
 30
1.7125
 11
0.1525
 21
-1.549
 31
1.7125
  0
LINE
  5
4FA73
100
AcDbEntity
  8
0
100
AcDbLine
 10
0.1525
 20
-1.369
 30
1.9625
 11
0.1525
 21
-1.549
 31
1.9625
  0
POLYLINE
  5
4FA74
100
AcDbEntity
  8
0
100
AcDbPolygonMesh
 66
     1
 10
0.0
 20
0.0
 30
0.0
 70
    16
 71
     6
 72
     3
  0
VERTEX
  5
4FA75
100
AcDbEntity
  8
0
100
AcDbVertex
100
AcDbPolygonMeshVertex
 10
0.4725
 20
-1.549
 30
1.7125
 70
    64
  0
VERTEX
  5
4FA76
100
AcDbEntity
  8
0
100
AcDbVertex
100
AcDbPolygonMeshVertex
 10
0.4725
 20
-1.549
 30
1.2125
 70
    64
  0
VERTEX
  5
4FA77
100
AcDbEntity
  8
0
100
AcDbVertex
100
AcDbPolygonMeshVertex
 10
0.4725
 20
-1.549
 30
1.2125
 70
    64
  0
VERTEX
  5
4FA78
100
AcDbEntity
  8
0
100
AcDbVertex
100
AcDbPolygonMeshVertex
 10
0.1525
 20
-1.549
 30
1.7125
 70
    64
  0
VERTEX
  5
4FA79
100
AcDbEntity
  8
0
100
AcDbVertex
100
AcDbPolygonMeshVertex
 10
0.1525
 20
-1.549
 30
1.2125
 70
    64
  0
VERTEX
  5
4FA7A
100
AcDbEntity
  8
0
100
AcDbVertex
100
AcDbPolygonMeshVertex
 10
0.1525
 20
-1.549
 30
1.2125
 70
    64
  0
VERTEX
  5
4FA7B
100
AcDbEntity
  8
0
100
AcDbVertex
100
AcDbPolygonMeshVertex
 10
0.1525
 20
-1.299
 30
1.7125
 70
    64
  0
VERTEX
  5
4FA7C
100
AcDbEntity
  8
0
100
AcDbVertex
100
AcDbPolygonMeshVertex
 10
0.1525
 20
-1.299
 30
1.2125
 70
    64
  0
VERTEX
  5
4FA7D
100
AcDbEntity
  8
0
100
AcDbVertex
100
AcDbPolygonMeshVertex
 10
0.1525
 20
-1.549
 30
1.2125
 70
    64
  0
VERTEX
  5
4FA7E
100
AcDbEntity
  8
0
100
AcDbVertex
100
AcDbPolygonMeshVertex
 10
0.4725
 20
-1.299
 30
1.7125
 70
    64
  0
VERTEX
  5
4FA7F
100
AcDbEntity
  8
0
100
AcDbVertex
100
AcDbPolygonMeshVertex
 10
0.4725
 20
-1.299
 30
1.2125
 70
    64
  0
VERTEX
  5
4FA80
100
AcDbEntity
  8
0
100
AcDbVertex
100
AcDbPolygonMeshVertex
 10
0.4725
 20
-1.549
 30
1.2125
 70
    64
  0
VERTEX
  5
4FA81
100
AcDbEntity
  8
0
100
AcDbVertex
100
AcDbPolygonMeshVertex
 10
0.4725
 20
-1.299
 30
1.7125
 70
    64
  0
VERTEX
  5
4FA82
100
AcDbEntity
  8
0
100
AcDbVertex
100
AcDbPolygonMeshVertex
 10
0.4725
 20
-1.299
 30
1.7125
 70
    64
  0
VERTEX
  5
4FA83
100
AcDbEntity
  8
0
100
AcDbVertex
100
AcDbPolygonMeshVertex
 10
0.4725
 20
-1.549
 30
1.7125
 70
    64
  0
VERTEX
  5
4FA84
100
AcDbEntity
  8
0
100
AcDbVertex
100
AcDbPolygonMeshVertex
 10
0.1525
 20
-1.299
 30
1.7125
 70
    64
  0
VERTEX
  5
4FA85
100
AcDbEntity
  8
0
100
AcDbVertex
100
AcDbPolygonMeshVertex
 10
0.1525
 20
-1.299
 30
1.7125
 70
    64
  0
VERTEX
  5
4FA86
100
AcDbEntity
  8
0
100
AcDbVertex
100
AcDbPolygonMeshVertex
 10
0.1525
 20
-1.549
 30
1.7125
 70
    64
  0
SEQEND
  5
4FA87
100
AcDbEntity
  8
0
  0
POLYLINE
  5
4FA88
100
AcDbEntity
  8
0
100
AcDbPolygonMesh
 66
     1
 10
0.0
 20
0.0
 30
0.0
 70
    16
 71
     6
 72
     3
  0
VERTEX
  5
4FA89
100
AcDbEntity
  8
0
100
AcDbVertex
100
AcDbPolygonMeshVertex
 10
0.4725
 20
-1.549
 30
1.9625
 70
    64
  0
VERTEX
  5
4FA8A
100
AcDbEntity
  8
0
100
AcDbVertex
100
AcDbPolygonMeshVertex
 10
0.4725
 20
-1.549
 30
1.7125
 70
    64
  0
VERTEX
  5
4FA8B
100
AcDbEntity
  8
0
100
AcDbVertex
100
AcDbPolygonMeshVertex
 10
0.4725
 20
-1.549
 30
1.7125
 70
    64
  0
VERTEX
  5
4FA8C
100
AcDbEntity
  8
0
100
AcDbVertex
100
AcDbPolygonMeshVertex
 10
0.1525
 20
-1.549
 30
1.9625
 70
    64
  0
VERTEX
  5
4FA8D
100
AcDbEntity
  8
0
100
AcDbVertex
100
AcDbPolygonMeshVertex
 10
0.1525
 20
-1.549
 30
1.7125
 70
    64
  0
VERTEX
  5
4FA8E
100
AcDbEntity
  8
0
100
AcDbVertex
100
AcDbPolygonMeshVertex
 10
0.1525
 20
-1.549
 30
1.7125
 70
    64
  0
VERTEX
  5
4FA8F
100
AcDbEntity
  8
0
100
AcDbVertex
100
AcDbPolygonMeshVertex
 10
0.1525
 20
-1.369
 30
1.9625
 70
    64
  0
VERTEX
  5
4FA90
100
AcDbEntity
  8
0
100
AcDbVertex
100
AcDbPolygonMeshVertex
 10
0.1525
 20
-1.369
 30
1.7125
 70
    64
  0
VERTEX
  5
4FA91
100
AcDbEntity
  8
0
100
AcDbVertex
100
AcDbPolygonMeshVertex
 10
0.1525
 20
-1.549
 30
1.7125
 70
    64
  0
VERTEX
  5
4FA92
100
AcDbEntity
  8
0
100
AcDbVertex
100
AcDbPolygonMeshVertex
 10
0.4725
 20
-1.369
 30
1.9625
 70
    64
  0
VERTEX
  5
4FA93
100
AcDbEntity
  8
0
100
AcDbVertex
100
AcDbPolygonMeshVertex
 10
0.4725
 20
-1.369
 30
1.7125
 70
    64
  0
VERTEX
  5
4FA94
100
AcDbEntity
  8
0
100
AcDbVertex
100
AcDbPolygonMeshVertex
 10
0.4725
 20
-1.549
 30
1.7125
 70
    64
  0
VERTEX
  5
4FA95
100
AcDbEntity
  8
0
100
AcDbVertex
100
AcDbPolygonMeshVertex
 10
0.4725
 20
-1.369
 30
1.9625
 70
    64
  0
VERTEX
  5
4FA96
100
AcDbEntity
  8
0
100
AcDbVertex
100
AcDbPolygonMeshVertex
 10
0.4725
 20
-1.369
 30
1.9625
 70
    64
  0
VERTEX
  5
4FA97
100
AcDbEntity
  8
0
100
AcDbVertex
100
AcDbPolygonMeshVertex
 10
0.4725
 20
-1.549
 30
1.9625
 70
    64
  0
VERTEX
  5
4FA98
100
AcDbEntity
  8
0
100
AcDbVertex
100
AcDbPolygonMeshVertex
 10
0.1525
 20
-1.369
 30
1.9625
 70
    64
  0
VERTEX
  5
4FA99
100
AcDbEntity
  8
0
100
AcDbVertex
100
AcDbPolygonMeshVertex
 10
0.1525
 20
-1.369
 30
1.9625
 70
    64
  0
VERTEX
  5
4FA9A
100
AcDbEntity
  8
0
100
AcDbVertex
100
AcDbPolygonMeshVertex
 10
0.1525
 20
-1.549
 30
1.9625
 70
    64
  0
SEQEND
  5
4FA9B
100
AcDbEntity
  8
0
  0
LINE
  5
4FA9C
100
AcDbEntity
  8
0
100
AcDbLine
 10
0.4725
 20
-1.549
 30
2.4625
 11
0.4725
 21
-1.549
 31
1.9625
  0
LINE
  5
4FA9D
100
AcDbEntity
  8
0
100
AcDbLine
 10
0.1525
 20
-1.549
 30
2.4625
 11
0.1525
 21
-1.549
 31
1.9625
  0
3DFACE
  5
4FA9E
100
AcDbEntity
  8
0
100
AcDbFace
 10
0.1525
 20
-1.549
 30
1.9625
 11
0.1525
 21
-1.269
 31
1.9625
 12
0.1525
 22
-1.269001
 32
2.010736
 13
0.1525
 23
-1.467699
 33
2.194862
 70
    15
  0
3DFACE
  5
4FA9F
100
AcDbEntity
  8
0
100
AcDbFace
 10
0.1525
 20
-1.467699
 30
2.194862
 11
0.1525
 21
-1.509574
 31
2.4625
 12
0.1525
 22
-1.549
 32
2.4625
 13
0.1525
 23
-1.549
 33
1.9625
 70
    15
  0
3DFACE
  5
4FAA0
100
AcDbEntity
  8
0
100
AcDbFace
 10
0.4725
 20
-1.549
 30
1.9625
 11
0.4725
 21
-1.269
 31
1.9625
 12
0.4725
 22
-1.269001
 32
2.010736
 13
0.4725
 23
-1.467699
 33
2.194862
 70
    15
  0
3DFACE
  5
4FAA1
100
AcDbEntity
  8
0
100
AcDbFace
 10
0.4725
 20
-1.467699
 30
2.194862
 11
0.4725
 21
-1.509574
 31
2.4625
 12
0.4725
 22
-1.549
 32
2.4625
 13
0.4725
 23
-1.549
 33
1.9625
 70
    15
  0
3DFACE
  5
4FAA2
100
AcDbEntity
  8
0
100
AcDbFace
 10
0.1525
 20
-1.549
 30
2.4625
 11
0.4725
 21
-1.549
 31
2.4625
 12
0.4725
 22
-1.549
 32
1.9625
 13
0.1525
 23
-1.549
 33
1.9625
 70
    15
  0
3DFACE
  5
4FAA3
100
AcDbEntity
  8
0
100
AcDbFace
 10
0.4725
 20
-1.467699
 30
2.194862
 11
0.1525
 21
-1.467699
 31
2.194862
 12
0.1525
 22
-1.509574
 32
2.4625
 13
0.4725
 23
-1.509574
 33
2.4625
 70
    15
  0
3DFACE
  5
4FAA4
100
AcDbEntity
  8
0
100
AcDbFace
 10
0.1525
 20
-1.467699
 30
2.194862
 11
0.4725
 21
-1.467699
 31
2.194862
 12
0.4725
 22
-1.269001
 32
2.010736
 13
0.1525
 23
-1.269
 33
2.010736
 70
    15
  0
3DFACE
  5
4FAA5
100
AcDbEntity
  8
0
100
AcDbFace
 10
0.4725
 20
-1.269
 30
1.9625
 11
0.4725
 21
-1.269001
 31
2.010736
 12
0.1525
 22
-1.269
 32
2.010736
 13
0.1525
 23
-1.269
 33
1.9625
 70
    15
  0
3DFACE
  5
4FAA6
100
AcDbEntity
  8
0
100
AcDbFace
 10
0.1525
 20
-1.549
 30
2.4625
 11
0.4725
 21
-1.549
 31
2.4625
 12
0.4725
 22
-1.509574
 32
2.4625
 13
0.1525
 23
-1.509574
 33
2.4625
 70
    15
  0
3DFACE
  5
4FAA7
100
AcDbEntity
  8
0
100
AcDbFace
 10
0.4725
 20
-1.369
 30
1.9625
 11
0.4725
 21
-1.269
 31
1.9625
 12
0.1525
 22
-1.269
 32
1.9625
 13
0.1525
 23
-1.369
 33
1.9625
 70
    15
  0
CIRCLE
  5
4FAA8
100
AcDbEntity
  8
0
100
AcDbCircle
 10
0.153453
 20
0.387157
 30
1.3125
 40
0.109375
  0
CIRCLE
  5
4FAA9
100
AcDbEntity
  8
0
100
AcDbCircle
 10
0.471547
 20
0.7925
 30
0.8125
 40
0.109375
  0
CIRCLE
  5
4FAAA
100
AcDbEntity
  8
0
100
AcDbCircle
 10
0.153453
 20
0.7925
 30
0.8125
 40
0.109375
  0
CIRCLE
  5
4FAAB
100
AcDbEntity
  8
0
100
AcDbCircle
 10
0.468278
 20
0.007151
 30
1.8725
 40
0.109375
  0
CIRCLE
  5
4FAAC
100
AcDbEntity
  8
0
100
AcDbCircle
 10
0.150184
 20
0.007151
 30
1.8725
 40
0.109375
  0
TEXT
  5
4FAAD
100
AcDbEntity
  8
0
100
AcDbText
 10
0.0329
 20
0.912373
 30
0.8125
 40
0.045
  1
21
100
AcDbText
  0
TEXT
  5
4FAAE
100
AcDbEntity
  8
0
100
AcDbText
 10
0.542285
 20
0.914469
 30
0.8125
 40
0.045
  1
11
100
AcDbText
  0
TEXT
  5
4FAAF
100
AcDbEntity
  8
0
100
AcDbText
 10
0.037092
 20
0.623233
 30
0.8125
 40
0.045
  1
6
100
AcDbText
  0
TEXT
  5
4FAB0
100
AcDbEntity
  8
0
100
AcDbText
 10
0.556959
 20
0.625329
 30
0.8125
 40
0.045
  1
3
100
AcDbText
  0
TEXT
  5
4FAB1
100
AcDbEntity
  8
0
100
AcDbText
 10
0.517477
 20
0.522543
 30
1.375
 40
0.045
  1
12
100
AcDbText
  0
TEXT
  5
4FAB2
100
AcDbEntity
  8
0
100
AcDbText
 10
0.534247
 20
0.216641
 30
1.375
 40
0.045
  1
2
100
AcDbText
  0
TEXT
  5
4FAB3
100
AcDbEntity
  8
0
100
AcDbText
 10
0.037439
 20
0.214546
 30
1.375
 40
0.045
  1
7
100
AcDbText
  0
TEXT
  5
4FAB4
100
AcDbEntity
  8
0
100
AcDbText
 10
0.03115
 20
0.522543
 30
1.375
 40
0.045
  1
22
100
AcDbText
  0
TEXT
  5
4FAB5
100
AcDbEntity
  8
0
100
AcDbText
 10
0.545049
 20
-0.181783
 30
1.8725
 40
0.045
  1
4
100
AcDbText
  0
TEXT
  5
4FAB6
100
AcDbEntity
  8
0
100
AcDbText
 10
0.521991
 20
0.1325
 30
1.8725
 40
0.045
  1
14
100
AcDbText
  0
TEXT
  5
4FAB7
100
AcDbEntity
  8
0
100
AcDbText
 10
0.031471
 20
0.1325
 30
1.8725
 40
0.045
  1
24
100
AcDbText
  0
TEXT
  5
4FAB8
100
AcDbEntity
  8
0
100
AcDbText
 10
0.035664
 20
-0.183878
 30
1.8725
 40
0.045
  1
5
100
AcDbText
  0
LINE
  5
4FAB9
100
AcDbEntity
  8
0
100
AcDbLine
 10
0.376788
 20
-0.495558
 30
1.2125
 11
0.505208
 21
-0.495558
 31
1.2125
  0
LINE
  5
4FABA
100
AcDbEntity
  8
0
100
AcDbLine
 10
0.376788
 20
-0.328771
 30
1.2125
 11
0.505208
 21
-0.328771
 31
1.2125
  0
LINE
  5
4FABB
100
AcDbEntity
  8
0
100
AcDbLine
 10
0.376788
 20
-0.649515
 30
1.2125
 11
0.505208
 21
-0.649515
 31
1.2125
  0
LINE
  5
4FABC
100
AcDbEntity
  8
0
100
AcDbLine
 10
0.248212
 20
-0.495558
 30
1.2125
 11
0.119792
 21
-0.495558
 31
1.2125
  0
LINE
  5
4FABD
100
AcDbEntity
  8
0
100
AcDbLine
 10
0.248212
 20
-0.328771
 30
1.2125
 11
0.119792
 21
-0.328771
 31
1.2125
  0
LINE
  5
4FABE
100
AcDbEntity
  8
0
100
AcDbLine
 10
0.248212
 20
-0.649515
 30
1.2125
 11
0.119792
 21
-0.649515
 31
1.2125
  0
LINE
  5
4FABF
100
AcDbEntity
  8
0
100
AcDbLine
 10
0.466604
 20
-1.066262
 30
1.2125
 11
0.466604
 21
-1.194682
 31
1.2125
  0
LINE
  5
4FAC0
100
AcDbEntity
  8
0
100
AcDbLine
 10
0.158396
 20
-1.066262
 30
1.2125
 11
0.158396
 21
-1.194682
 31
1.2125
  0
ATTDEF
  5
4FAC1
100
AcDbEntity
  8
ATTRIBUTES
100
AcDbText
 10
0.006373
 20
-0.279377
 30
0.0
 40
0.046923
  1
ALLEN-BRADLEY
100
AcDbAttributeDefinition
  3
Manufacturer name
  2
AC_VND_LABEL
 70
     1
  0
ATTDEF
  5
4FAC2
100
AcDbEntity
  8
ATTRIBUTES
100
AcDbText
 10
0.006373
 20
-0.349723
 30
0.0
 40
0.046923
  1
700-HN122
100
AcDbAttributeDefinition
  3
Manufacturer part number
  2
AC_PART_NO
 70
     1
  0
ATTDEF
  5
4FAC3
100
AcDbEntity
  8
ATTRIBUTES
100
AcDbText
 10
0.006373
 20
-0.420069
 30
0.0
 40
0.046923
  1
CONTROL RELAY; GENERAL PURPOSE SOCKET; MINI 8 BLADE
100
AcDbAttributeDefinition
  3
Manufacturer part description
  2
AC_DESCRIPTION
 70
     1
  0
ATTDEF
  5
4FAC4
100
AcDbEntity
  8
ATTRIBUTES
100
AcDbText
 10
0.006373
 20
-0.490415
 30
0.0
 40
0.046923
  1

100
AcDbAttributeDefinition
  3
Device ID
  2
DEVICE_ID
 70
     1
  0
ATTDEF
  5
4FAC5
100
AcDbEntity
  8
ATTRIBUTES
100
AcDbText
 10
0.006373
 20
-0.560761
 30
0.0
 40
0.046923
  1

100
AcDbAttributeDefinition
  3
Customer part number
  2
AC_CPART_NO
 70
     1
  0
ATTDEF
  5
4FAC6
100
AcDbEntity
  8
ATTRIBUTES
100
AcDbText
 10
0.006373
 20
-0.631107
 30
0.0
 40
0.046923
  1

100
AcDbAttributeDefinition
  3
Customer note
  2
AC_NOTE
 70
     1
  0
ATTDEF
  5
4FAC7
100
AcDbEntity
  8
ATTRIBUTES
100
AcDbText
 10
0.006373
 20
-0.701453
 30
0.0
 40
0.046923
  1

100
AcDbAttributeDefinition
  3
Fastener Data
  2
FASTENER
 70
     1
  0
ATTDEF
  5
4FAC8
100
AcDbEntity
  8
ATTRIBUTES
100
AcDbText
 10
0.006373
 20
-0.771799
 30
0.0
 40
0.046923
  1
INCH
100
AcDbAttributeDefinition
  3
Unit of scale (meter, mm, or inch)
  2
AC_SCALE_UNIT
 70
     1
  0
ATTDEF
  5
4FAC9
100
AcDbEntity
  8
ATTRIBUTES
100
AcDbText
 10
0.006373
 20
-0.842145
 30
0.0
 40
0.046923
  1
0
100
AcDbAttributeDefinition
  3
View code (top, front, right, etc.)
  2
AC_VIEW_CODE
 70
     1
  0
POLYLINE
  5
4FACA
100
AcDbEntity
  8
0
100
AcDbPolygonMesh
 66
     1
 10
0.0
 20
0.0
 30
0.0
 70
    16
 71
     6
 72
     3
  0
VERTEX
  5
4FACB
100
AcDbEntity
  8
0
100
AcDbVertex
100
AcDbPolygonMeshVertex
 10
0.625
 20
-1.38
 30
0.187
 70
    64
  0
VERTEX
  5
4FACC
100
AcDbEntity
  8
0
100
AcDbVertex
100
AcDbPolygonMeshVertex
 10
0.625
 20
-1.38
 30
0.0
 70
    64
  0
VERTEX
  5
4FACD
100
AcDbEntity
  8
0
100
AcDbVertex
100
AcDbPolygonMeshVertex
 10
0.625
 20
-1.38
 30
0.0
 70
    64
  0
VERTEX
  5
4FACE
100
AcDbEntity
  8
0
100
AcDbVertex
100
AcDbPolygonMeshVertex
 10
0.0
 20
-1.38
 30
0.187
 70
    64
  0
VERTEX
  5
4FACF
100
AcDbEntity
  8
0
100
AcDbVertex
100
AcDbPolygonMeshVertex
 10
0.0
 20
-1.38
 30
0.0
 70
    64
  0
VERTEX
  5
4FAD0
100
AcDbEntity
  8
0
100
AcDbVertex
100
AcDbPolygonMeshVertex
 10
0.0
 20
-1.38
 30
0.0
 70
    64
  0
VERTEX
  5
4FAD1
100
AcDbEntity
  8
0
100
AcDbVertex
100
AcDbPolygonMeshVertex
 10
0.0
 20
0.0
 30
0.187
 70
    64
  0
VERTEX
  5
4FAD2
100
AcDbEntity
  8
0
100
AcDbVertex
100
AcDbPolygonMeshVertex
 10
0.0
 20
0.0
 30
0.0
 70
    64
  0
VERTEX
  5
4FAD3
100
AcDbEntity
  8
0
100
AcDbVertex
100
AcDbPolygonMeshVertex
 10
0.0
 20
-1.38
 30
0.0
 70
    64
  0
VERTEX
  5
4FAD4
100
AcDbEntity
  8
0
100
AcDbVertex
100
AcDbPolygonMeshVertex
 10
0.625
 20
0.0
 30
0.187
 70
    64
  0
VERTEX
  5
4FAD5
100
AcDbEntity
  8
0
100
AcDbVertex
100
AcDbPolygonMeshVertex
 10
0.625
 20
0.0
 30
0.0
 70
    64
  0
VERTEX
  5
4FAD6
100
AcDbEntity
  8
0
100
AcDbVertex
100
AcDbPolygonMeshVertex
 10
0.625
 20
-1.38
 30
0.0
 70
    64
  0
VERTEX
  5
4FAD7
100
AcDbEntity
  8
0
100
AcDbVertex
100
AcDbPolygonMeshVertex
 10
0.625
 20
0.0
 30
0.187
 70
    64
  0
VERTEX
  5
4FAD8
100
AcDbEntity
  8
0
100
AcDbVertex
100
AcDbPolygonMeshVertex
 10
0.625
 20
0.0
 30
0.187
 70
    64
  0
VERTEX
  5
4FAD9
100
AcDbEntity
  8
0
100
AcDbVertex
100
AcDbPolygonMeshVertex
 10
0.625
 20
-1.38
 30
0.187
 70
    64
  0
VERTEX
  5
4FADA
100
AcDbEntity
  8
0
100
AcDbVertex
100
AcDbPolygonMeshVertex
 10
0.0
 20
0.0
 30
0.187
 70
    64
  0
VERTEX
  5
4FADB
100
AcDbEntity
  8
0
100
AcDbVertex
100
AcDbPolygonMeshVertex
 10
0.0
 20
0.0
 30
0.187
 70
    64
  0
VERTEX
  5
4FADC
100
AcDbEntity
  8
0
100
AcDbVertex
100
AcDbPolygonMeshVertex
 10
0.0
 20
-1.38
 30
0.187
 70
    64
  0
SEQEND
  5
4FADD
100
AcDbEntity
  8
0
  0
POINT
  5
4FADE
100
AcDbEntity
  8
SNAP_POINTS
100
AcDbPoint
 10
0.0
 20
0.0
 30
0.0
  0
POINT
  5
4FADF
100
AcDbEntity
  8
SNAP_POINTS
100
AcDbPoint
 10
0.3125
 20
-0.84
 30
0.0
  0
DIMENSION
  5
4FAE0
100
AcDbEntity
  8
AREA1
100
AcDbDimension
  2
*D0
 10
-0.674619
 20
-2.51625
 30
0.0
 11
-0.674619
 21
-0.82226
 31
0.0
 70
   160
  3
ABECAD_3D
100
AcDbAlignedDimension
 13
0.0
 23
0.98
 33
0.0
 14
0.1225
 24
-2.51625
 34
0.0
 50
90.0
100
AcDbRotatedDimension
  0
DIMENSION
  5
4FAEE
100
AcDbEntity
  8
AREA1
100
AcDbDimension
  2
*D1
 10
0.625
 20
1.328728
 30
0.0
 11
0.283422
 21
1.668854
 31
0.0
 70
   160
  3
ABECAD_3D
100
AcDbAlignedDimension
 13
0.0
 23
0.98
 33
0.0
 14
0.625
 24
0.98
 34
0.0
100
AcDbRotatedDimension
  0
LWPOLYLINE
  5
4FB13
100
AcDbEntity
  8
SCALE
100
AcDbPolyline
 90
        4
 70
     1
 43
0.0
 10
-0.213134
 20
-2.658697
 10
0.922494
 20
-2.658697
 10
0.922494
 20
-3.500306
 10
-0.213134
 20
-3.500306
  0
LINE
  5
4FB14
100
AcDbEntity
  8
SCALE
100
AcDbLine
 10
-0.155136
 20
-3.038775
 30
0.0
 11
0.844864
 21
-3.038775
 31
0.0
  0
LINE
  5
4FB15
100
AcDbEntity
  8
SCALE
100
AcDbLine
 10
-0.155136
 20
-3.338775
 30
0.0
 11
0.238564
 21
-3.338775
 31
0.0
  0
LINE
  5
4FB16
100
AcDbEntity
  8
SCALE
100
AcDbLine
 10
-0.155136
 20
-3.138775
 30
0.0
 11
-0.155136
 21
-2.938775
 31
0.0
  0
TEXT
  5
4FB17
100
AcDbEntity
  8
SCALE
100
AcDbText
 10
-0.09916
 20
-3.29109
 30
0.0
 40
0.0625
  1
[10mm]
100
AcDbText
  0
LINE
  5
4FB18
100
AcDbEntity
  8
SCALE
100
AcDbLine
 10
-0.155136
 20
-3.438775
 30
0.0
 11
-0.155136
 21
-3.238775
 31
0.0
  0
TEXT
  5
4FB19
100
AcDbEntity
  8
SCALE
100
AcDbText
 10
-0.153606
 20
-2.763898
 30
0.0
 40
0.0625
  1
SCALE:
100
AcDbText
  0
LINE
  5
4FB1A
100
AcDbEntity
  8
SCALE
100
AcDbLine
 10
0.238564
 20
-3.438775
 30
0.0
 11
0.238564
 21
-3.238775
 31
0.0
  0
TEXT
  5
4FB1B
100
AcDbEntity
  8
SCALE
100
AcDbText
 10
0.208147
 20
-2.969726
 30
0.0
 40
0.0625
  1
1 Inch
100
AcDbText
  0
LINE
  5
4FB1C
100
AcDbEntity
  8
SCALE
100
AcDbLine
 10
0.844864
 20
-3.038775
 30
0.0
 11
0.844864
 21
-3.138775
 31
0.0
  0
LINE
  5
4FB1D
100
AcDbEntity
  8
SCALE
100
AcDbLine
 10
0.844864
 20
-3.138775
 30
0.0
 11
0.844864
 21
-2.938775
 31
0.0
  0
ENDSEC
  0
SECTION
  2
OBJECTS
  0
DICTIONARY
  5
458CB
100
AcDbDictionary
  3
ACAD_GROUP
350
458CC
  3
ACAD_LAYOUT
350
458FB
  3
ACAD_MLINESTYLE
350
458D9
  3
ACAD_PLOTSETTINGS
350
458FC
  3
ACAD_PLOTSTYLENAME
350
458F9
  3
ACDBHEADERROUNDTRIPXREC
350
4FB85
  3
ACDBVARIABLEDICTIONARY
350
458E1
  3
DWGPROPS
350
45901
  0
DICTIONARY
  5
4FB83
100
AcDbDictionary
280
     1
  3
ACAD_XREC_ROUNDTRIP
360
4FB84
  0
DICTIONARY
  5
4FBAC
100
AcDbDictionary
280
     1
  3
ACAD_XREC_ROUNDTRIP
360
4FBAD
  0
DICTIONARY
  5
4FB81
100
AcDbDictionary
280
     1
  3
ACAD_XREC_ROUNDTRIP
360
4FB82
  0
DICTIONARY
  5
4FBA8
100
AcDbDictionary
280
     1
  3
ACAD_XREC_ROUNDTRIP
360
4FBA9
  0
DICTIONARY
  5
4592C
100
AcDbDictionary
280
     1
  3
ACAD_LAYOUTSELFREF
360
4FBA7
  0
DICTIONARY
  5
4592A
100
AcDbDictionary
280
     1
  3
ACAD_LAYOUTSELFREF
360
4FBA6
  0
DICTIONARY
  5
458CC
102
{ACAD_REACTORS
330
458CB
102
}
100
AcDbDictionary
  0
DICTIONARY
  5
458FB
102
{ACAD_XDICTIONARY
360
4FBAA
102
}
102
{ACAD_REACTORS
330
458CB
102
}
100
AcDbDictionary
  3
LAYOUT1
350
458FE
  3
MODEL
350
458FD
  0
DICTIONARY
  5
458D9
102
{ACAD_REACTORS
330
458CB
102
}
100
AcDbDictionary
  3
STANDARD
350
458DA
  0
DICTIONARY
  5
458FC
102
{ACAD_REACTORS
330
458CB
102
}
100
AcDbDictionary
  0
ACAD_PROXY_OBJECT
  5
458F9
102
{ACAD_REACTORS
330
458CB
102
}
100
AcDbProxyObject
 90
      499
 91
      501
 93
       86
310
405010041939BDC9B585B1
350
458FA
340
458FA
 94
        0
  0
DICTIONARY
  5
4FB85
102
{ACAD_REACTORS
330
458CB
102
}
100
AcDbDictionary
  3
CEPSNTYPE
350
4FB8F
  3
DIMSTYLEDATA
350
4FB93
  3
FINGERPRINTGUID
350
4FB90
  3
HYPERLINKBASE
350
4FB88
  3
INSUNITS
350
4FB8E
  3
LAYOUTDICT
350
4FB8A
  3
LWETCUNION
350
4FB8D
  3
PLOTSETDICT
350
4FB8B
  3
PLOTSTYLNAMDICT
350
4FB8C
  3
PSVPSCALE
350
4FB92
  3
PUCSBASE
350
4FB96
  3
PUCSORGBACK
350
4FB9C
  3
PUCSORGBOTTOM
350
4FB98
  3
PUCSORGFRONT
350
4FB9B
  3
PUCSORGLEFT
350
4FB99
  3
PUCSORGRIGHT
350
4FB9A
  3
PUCSORGTOP
350
4FB97
  3
PUCSORTHOREF
350
4FB94
  3
PUCSORTHOVIEW
350
4FB95
  3
STYLESHEET
350
4FB89
  3
TSTACKALIGN
350
4FB86
  3
TSTACKSIZE
350
4FB87
  3
UCSBASE
350
4FB9F
  3
UCSORGBACK
350
4FBA5
  3
UCSORGBOTTOM
350
4FBA1
  3
UCSORGFRONT
350
4FBA4
  3
UCSORGLEFT
350
4FBA2
  3
UCSORGRIGHT
350
4FBA3
  3
UCSORGTOP
350
4FBA0
  3
UCSORTHOREF
350
4FB9D
  3
UCSORTHOVIEW
350
4FB9E
  3
VERSIONGUID
350
4FB91
  0
DICTIONARY
  5
458E1
102
{ACAD_REACTORS
330
458CB
102
}
100
AcDbDictionary
  3
DIMADEC
350
458E2
  0
XRECORD
  5
45901
102
{ACAD_REACTORS
330
458CB
102
}
100
AcDbXrecord
  1
DWGPROPS COOKIE
  2

  3

  4

  6

  7

  8
colin
  9

300
=
301
=
302
=
303
=
304
=
305
=
306
=
307
=
308
=
309
=
 40
0.000599
 41
2451670.444777
 42
2451670.445376
  1

 90
        0
  0
XRECORD
  5
4FB84
102
{ACAD_REACTORS
330
4FB83
102
}
100
AcDbXrecord
102
EXTNAMES
  1
*ACTIVE
  2
*Active
102
UCS
 74
     0
 71
     1
 10
0.0
 20
0.0
 30
0.0
 10
1.0
 20
0.0
 30
0.0
 10
0.0
 20
1.0
 30
0.0
146
0.0
 79
     1
102
VIEW
281
     1
  0
XRECORD
  5
4FBAD
102
{ACAD_REACTORS
330
4FBAC
102
}
100
AcDbXrecord
102
PLOTBIT
280
     0
  0
XRECORD
  5
4FB82
102
{ACAD_REACTORS
330
4FB81
102
}
100
AcDbXrecord
102
EXTNAMES
  1
DEFPOINTS
  2
Defpoints
102
PLOTBIT
280
     0
  0
XRECORD
  5
4FBA9
102
{ACAD_REACTORS
330
4FBA8
102
}
100
AcDbXrecord
102
ACADR14ROUNDTRIP
1000
DSTYLE
1002
{
1070
   276
 70
     2
1070
   277
 70
     5
1070
   279
 70
     2
1002
}
  0
XRECORD
  5
4FBA7
102
{ACAD_REACTORS
330
4592C
102
}
100
AcDbXrecord
340
458D6
  0
XRECORD
  5
4FBA6
102
{ACAD_REACTORS
330
4592A
102
}
100
AcDbXrecord
340
458D3
  0
DICTIONARY
  5
4FBAA
100
AcDbDictionary
280
     1
  3
ACAD_XREC_ROUNDTRIP
360
4FBAB
  0
ACAD_PROXY_OBJECT
  5
458FE
102
{ACAD_REACTORS
330
458FB
102
}
100
AcDbProxyObject
 90
      499
 91
      503
 93
     1348
310
91D4850204C617365724A65742035303030205365726965732050434C20362C00AAAAAA416AA547D11959985D5B1D08148C4D081C195B88185CDCDA59DB9B595B9D1CCB98DD1891069074C61796F75743140501A800000000000000000000000000000000000000000000A1000000000000008902A6A6A10232D5E076BC551
310
0408CB5781DAF154410232D5E076BC5510408CB5781DAF15C410232D5E076BC5710408CB5781DAF15C40
330
458D3
330
0
340
0
340
0
 94
        0
  0
ACAD_PROXY_OBJECT
  5
458FD
102
{ACAD_REACTORS
330
458FB
102
}
100
AcDbProxyObject
 90
      499
 91
      503
 93
      924
310
91D4850204C617365724A65742035303030205365726965732050434C20362C01AAAAAAAAA547D11959985D5B1D08148C4D081C195B88185CDCDA59DB9B595B9D1CCB98DD18A69054D6F64656C901A800000000000000000000000000000000000000000000A1000000000000008902A6A6AAAA1
330
458D6
330
0
340
0
340
0
 94
        0
  0
MLINESTYLE
  5
458DA
102
{ACAD_REACTORS
330
458D9
102
}
100
AcDbMlineStyle
  2
STANDARD
 70
     0
  3

 62
   256
 51
90.0
 52
90.0
 71
     2
 49
0.5
 62
   256
  6
BYLAYER
 49
-0.5
 62
   256
  6
BYLAYER
  0
ACAD_PROXY_OBJECT
  5
458FA
102
{ACAD_REACTORS
330
458F9
102
}
100
AcDbProxyObject
 90
      499
 91
      502
 93
        0
 94
        0
  0
XRECORD
  5
4FB8F
102
{ACAD_REACTORS
330
4FB85
102
}
100
AcDbXrecord
 90
        0
  0
XRECORD
  5
4FB93
102
{ACAD_REACTORS
330
4FB85
102
}
100
AcDbXrecord
1000
DSTYLE
1002
{
1070
   276
 70
     2
1070
   277
 70
     5
1070
   279
 70
     2
1002
}
  0
XRECORD
  5
4FB90
102
{ACAD_REACTORS
330
4FB85
102
}
100
AcDbXrecord
  1
{6E0CF4B8-225E-11D4-A150-00A0CC3303EC}
  0
XRECORD
  5
4FB88
102
{ACAD_REACTORS
330
4FB85
102
}
100
AcDbXrecord
  1

  0
XRECORD
  5
4FB8E
102
{ACAD_REACTORS
330
4FB85
102
}
100
AcDbXrecord
 90
        0
  0
XRECORD
  5
4FB8A
102
{ACAD_REACTORS
330
4FB85
102
}
100
AcDbXrecord
340
458FB
  0
XRECORD
  5
4FB8D
102
{ACAD_REACTORS
330
4FB85
102
}
100
AcDbXrecord
 90
    14877
  0
XRECORD
  5
4FB8B
102
{ACAD_REACTORS
330
4FB85
102
}
100
AcDbXrecord
340
458FC
  0
XRECORD
  5
4FB8C
102
{ACAD_REACTORS
330
4FB85
102
}
100
AcDbXrecord
340
458F9
  0
XRECORD
  5
4FB92
102
{ACAD_REACTORS
330
4FB85
102
}
100
AcDbXrecord
 40
0.0
  0
XRECORD
  5
4FB96
102
{ACAD_REACTORS
330
4FB85
102
}
100
AcDbXrecord
340
0
  0
XRECORD
  5
4FB9C
102
{ACAD_REACTORS
330
4FB85
102
}
100
AcDbXrecord
 10
0.0
 20
0.0
 30
0.0
  0
XRECORD
  5
4FB98
102
{ACAD_REACTORS
330
4FB85
102
}
100
AcDbXrecord
 10
0.0
 20
0.0
 30
0.0
  0
XRECORD
  5
4FB9B
102
{ACAD_REACTORS
330
4FB85
102
}
100
AcDbXrecord
 10
0.0
 20
0.0
 30
0.0
  0
XRECORD
  5
4FB99
102
{ACAD_REACTORS
330
4FB85
102
}
100
AcDbXrecord
 10
0.0
 20
0.0
 30
0.0
  0
XRECORD
  5
4FB9A
102
{ACAD_REACTORS
330
4FB85
102
}
100
AcDbXrecord
 10
0.0
 20
0.0
 30
0.0
  0
XRECORD
  5
4FB97
102
{ACAD_REACTORS
330
4FB85
102
}
100
AcDbXrecord
 10
0.0
 20
0.0
 30
0.0
  0
XRECORD
  5
4FB94
102
{ACAD_REACTORS
330
4FB85
102
}
100
AcDbXrecord
340
0
  0
XRECORD
  5
4FB95
102
{ACAD_REACTORS
330
4FB85
102
}
100
AcDbXrecord
 70
     0
  0
XRECORD
  5
4FB89
102
{ACAD_REACTORS
330
4FB85
102
}
100
AcDbXrecord
  1

  0
XRECORD
  5
4FB86
102
{ACAD_REACTORS
330
4FB85
102
}
100
AcDbXrecord
 90
        1
  0
XRECORD
  5
4FB87
102
{ACAD_REACTORS
330
4FB85
102
}
100
AcDbXrecord
 90
       70
  0
XRECORD
  5
4FB9F
102
{ACAD_REACTORS
330
4FB85
102
}
100
AcDbXrecord
340
0
  0
XRECORD
  5
4FBA5
102
{ACAD_REACTORS
330
4FB85
102
}
100
AcDbXrecord
 10
0.0
 20
0.0
 30
0.0
  0
XRECORD
  5
4FBA1
102
{ACAD_REACTORS
330
4FB85
102
}
100
AcDbXrecord
 10
0.0
 20
0.0
 30
0.0
  0
XRECORD
  5
4FBA4
102
{ACAD_REACTORS
330
4FB85
102
}
100
AcDbXrecord
 10
0.0
 20
0.0
 30
0.0
  0
XRECORD
  5
4FBA2
102
{ACAD_REACTORS
330
4FB85
102
}
100
AcDbXrecord
 10
0.0
 20
0.0
 30
0.0
  0
XRECORD
  5
4FBA3
102
{ACAD_REACTORS
330
4FB85
102
}
100
AcDbXrecord
 10
0.0
 20
0.0
 30
0.0
  0
XRECORD
  5
4FBA0
102
{ACAD_REACTORS
330
4FB85
102
}
100
AcDbXrecord
 10
0.0
 20
0.0
 30
0.0
  0
XRECORD
  5
4FB9D
102
{ACAD_REACTORS
330
4FB85
102
}
100
AcDbXrecord
340
0
  0
XRECORD
  5
4FB9E
102
{ACAD_REACTORS
330
4FB85
102
}
100
AcDbXrecord
 70
     1
  0
XRECORD
  5
4FB91
102
{ACAD_REACTORS
330
4FB85
102
}
100
AcDbXrecord
  1
{74C57B11-0BF0-4E08-8CEF-42398DB24C6C}
  0
DICTIONARYVAR
  5
458E2
102
{ACAD_REACTORS
330
458E1
102
}
100
DictionaryVariables
280
     0
  1
0
  0
XRECORD
  5
4FBAB
102
{ACAD_REACTORS
330
4FBAA
102
}
100
AcDbXrecord
102
EXTNAMES
  1
LAYOUT1
  2
Layout1
  1
MODEL
  2
Model
  0
ENDSEC
  0
EOF
