  0
SECTION
  2
HEADER
  9
$ACADVER
  1
AC1014
  9
$ACADMAINTVER
 70
     8
  9
$DWGCODEPAGE
  3
ANSI_1252
  9
$INSBASE
 10
0.0
 20
0.0
 30
0.0
  9
$EXTMIN
 10
-0.854619
 20
-3.500306
 30
0.0
  9
$EXTMAX
 10
1.093422
 20
1.758854
 30
2.4625
  9
$LIMMIN
 10
0.0
 20
0.0
  9
$LIMMAX
 10
12.0
 20
9.0
  9
$ORTHOMODE
 70
     0
  9
$REGENMODE
 70
     1
  9
$FILLMODE
 70
     1
  9
$QTEXTMODE
 70
     0
  9
$MIRRTEXT
 70
     1
  9
$DRAGMODE
 70
     2
  9
$LTSCALE
 40
1.0
  9
$OSMODE
 70
    37
  9
$ATTMODE
 70
     0
  9
$TEXTSIZE
 40
0.2
  9
$TRACEWID
 40
0.05
  9
$TEXTSTYLE
  7
STANDARD
  9
$CLAYER
  8
0
  9
$CELTYPE
  6
BYLAYER
  9
$CECOLOR
 62
   256
  9
$CELTSCALE
 40
1.0
  9
$DELOBJ
 70
     1
  9
$DISPSILH
 70
     0
  9
$DIMSCALE
 40
0.0
  9
$DIMASZ
 40
0.18
  9
$DIMEXO
 40
0.0625
  9
$DIMDLI
 40
0.375
  9
$DIMRND
 40
0.0
  9
$DIMDLE
 40
0.0
  9
$DIMEXE
 40
0.18
  9
$DIMTP
 40
0.0
  9
$DIMTM
 40
0.0
  9
$DIMTXT
 40
0.13
  9
$DIMCEN
 40
0.09
  9
$DIMTSZ
 40
0.0
  9
$DIMTOL
 70
     0
  9
$DIMLIM
 70
     0
  9
$DIMTIH
 70
     0
  9
$DIMTOH
 70
     1
  9
$DIMSE1
 70
     0
  9
$DIMSE2
 70
     0
  9
$DIMTAD
 70
     0
  9
$DIMZIN
 70
     4
  9
$DIMBLK
  1

  9
$DIMASO
 70
     1
  9
$DIMSHO
 70
     1
  9
$DIMPOST
  1

  9
$DIMAPOST
  1

  9
$DIMALT
 70
     1
  9
$DIMALTD
 70
     2
  9
$DIMALTF
 40
25.4
  9
$DIMLFAC
 40
1.0
  9
$DIMTOFL
 70
     0
  9
$DIMTVP
 40
0.0
  9
$DIMTIX
 70
     0
  9
$DIMSOXD
 70
     0
  9
$DIMSAH
 70
     0
  9
$DIMBLK1
  1

  9
$DIMBLK2
  1

  9
$DIMSTYLE
  2
ABECAD_3V
  9
$DIMCLRD
 70
     0
  9
$DIMCLRE
 70
     0
  9
$DIMCLRT
 70
     0
  9
$DIMTFAC
 40
1.5
  9
$DIMGAP
 40
0.09
  9
$DIMJUST
 70
     0
  9
$DIMSD1
 70
     0
  9
$DIMSD2
 70
     0
  9
$DIMTOLJ
 70
     1
  9
$DIMTZIN
 70
     4
  9
$DIMALTZ
 70
     4
  9
$DIMALTTZ
 70
     4
  9
$DIMFIT
 70
     5
  9
$DIMUPT
 70
     1
  9
$DIMUNIT
 70
     7
  9
$DIMDEC
 70
     6
  9
$DIMTDEC
 70
     6
  9
$DIMALTU
 70
     2
  9
$DIMALTTD
 70
     2
  9
$DIMTXSTY
  7
STANDARD
  9
$DIMAUNIT
 70
     0
  9
$LUNITS
 70
     2
  9
$LUPREC
 70
     6
  9
$SKETCHINC
 40
0.1
  9
$FILLETRAD
 40
0.0
  9
$AUNITS
 70
     0
  9
$AUPREC
 70
     0
  9
$MENU
  1
acad
  9
$ELEVATION
 40
0.0
  9
$PELEVATION
 40
0.0
  9
$THICKNESS
 40
0.0
  9
$LIMCHECK
 70
     0
  9
$BLIPMODE
 70
     0
  9
$CHAMFERA
 40
0.0
  9
$CHAMFERB
 40
0.0
  9
$CHAMFERC
 40
0.0
  9
$CHAMFERD
 40
0.0
  9
$SKPOLY
 70
     0
  9
$TDCREATE
 40
2451726.438362384
  9
$TDUPDATE
 40
2452010.731470255
  9
$TDINDWG
 40
0.2395302083
  9
$TDUSRTIMER
 40
0.2395302083
  9
$USRTIMER
 70
     1
  9
$ANGBASE
 50
0.0
  9
$ANGDIR
 70
     0
  9
$PDMODE
 70
     3
  9
$PDSIZE
 40
0.18
  9
$PLINEWID
 40
0.0
  9
$COORDS
 70
     1
  9
$SPLFRAME
 70
     0
  9
$SPLINETYPE
 70
     6
  9
$SPLINESEGS
 70
     8
  9
$ATTDIA
 70
     0
  9
$ATTREQ
 70
     1
  9
$HANDLING
 70
     1
  9
$HANDSEED
  5
CBB8
  9
$SURFTAB1
 70
     6
  9
$SURFTAB2
 70
     6
  9
$SURFTYPE
 70
     6
  9
$SURFU
 70
     6
  9
$SURFV
 70
     6
  9
$UCSNAME
  2

  9
$UCSORG
 10
0.0
 20
0.0
 30
0.0
  9
$UCSXDIR
 10
1.0
 20
0.0
 30
0.0
  9
$UCSYDIR
 10
0.0
 20
1.0
 30
0.0
  9
$PUCSNAME
  2

  9
$PUCSORG
 10
0.0
 20
0.0
 30
0.0
  9
$PUCSXDIR
 10
1.0
 20
0.0
 30
0.0
  9
$PUCSYDIR
 10
0.0
 20
1.0
 30
0.0
  9
$USERI1
 70
     0
  9
$USERI2
 70
     0
  9
$USERI3
 70
     0
  9
$USERI4
 70
     0
  9
$USERI5
 70
     0
  9
$USERR1
 40
0.0
  9
$USERR2
 40
0.0
  9
$USERR3
 40
0.0
  9
$USERR4
 40
0.0
  9
$USERR5
 40
0.0
  9
$WORLDVIEW
 70
     1
  9
$SHADEDGE
 70
     3
  9
$SHADEDIF
 70
    70
  9
$TILEMODE
 70
     0
  9
$MAXACTVP
 70
    16
  9
$PINSBASE
 10
0.0
 20
0.0
 30
0.0
  9
$PLIMCHECK
 70
     0
  9
$PEXTMIN
 10
0.0
 20
0.0
 30
0.0
  9
$PEXTMAX
 10
10.0
 20
7.5
 30
0.0
  9
$PLIMMIN
 10
-0.187029
 20
-0.186938
  9
$PLIMMAX
 10
10.187518
 20
7.829757
  9
$UNITMODE
 70
     0
  9
$VISRETAIN
 70
     0
  9
$PLINEGEN
 70
     0
  9
$PSLTSCALE
 70
     1
  9
$TREEDEPTH
 70
  3020
  9
$PICKSTYLE
 70
     1
  9
$CMLSTYLE
  2
STANDARD
  9
$CMLJUST
 70
     0
  9
$CMLSCALE
 40
1.0
  9
$PROXYGRAPHICS
 70
     1
  9
$MEASUREMENT
 70
     0
  0
ENDSEC
  0
SECTION
  2
CLASSES
  0
CLASS
  1
DICTIONARYVAR
  2
AcDbDictionaryVar
  3
"AutoCAD"
 90
        0
280
     0
281
     0
  0
CLASS
  1
ACDBDICTIONARYWDFLT
  2
AcDbDictionaryWithDefault
  3
AutoCAD 2000
 90
        0
280
     0
281
     0
  0
CLASS
  1
ACDBPLACEHOLDER
  2
AcDbPlaceHolder
  3
AutoCAD 2000
 90
        0
280
     0
281
     0
  0
CLASS
  1
LAYOUT
  2
AcDbLayout
  3
AutoCAD 2000
 90
        0
280
     0
281
     0
  0
CLASS
  1
LONG_TRANSACTION
  2
AcDbLongTransaction
  3
AutoCAD 2000
 90
        0
280
     0
281
     0
  0
CLASS
  1
LWPOLYLINE
  2
AcDbPolyline
  3
"AutoCAD"
 90
        0
280
     0
281
     1
  0
CLASS
  1
HATCH
  2
AcDbHatch
  3
"ACAD_SEDONA"
 90
        0
280
     0
281
     1
  0
CLASS
  1
XRECORD
  2
AcDbXrecord
  3
"<Built In>"
 90
        0
280
     0
281
     0
  0
CLASS
  1
LONG_TRANSACTION
  2
AcDbLongTransaction
  3
AutoCAD 2000
 90
        0
280
     0
281
     0
  0
CLASS
  1
LWPOLYLINE
  2
AcDbPolyline
  3
"AutoCAD"
 90
        0
280
     0
281
     1
  0
CLASS
  1
HATCH
  2
AcDbHatch
  3
"ACAD_SEDONA"
 90
        0
280
     0
281
     1
  0
CLASS
  1
XRECORD
  2
AcDbXrecord
  3
"<Built In>"
 90
        0
280
     0
281
     0
  0
CLASS
  1
LONG_TRANSACTION
  2
AcDbLongTransaction
  3
AutoCAD 2000
 90
        0
280
     0
281
     0
  0
CLASS
  1
LWPOLYLINE
  2
AcDbPolyline
  3
"AutoCAD"
 90
        0
280
     0
281
     1
  0
CLASS
  1
HATCH
  2
AcDbHatch
  3
"ACAD_SEDONA"
 90
        0
280
     0
281
     1
  0
CLASS
  1
XRECORD
  2
AcDbXrecord
  3
"<Built In>"
 90
        0
280
     0
281
     0
  0
CLASS
  1
LONG_TRANSACTION
  2
AcDbLongTransaction
  3
AutoCAD 2000
 90
        0
280
     0
281
     0
  0
CLASS
  1
LWPOLYLINE
  2
AcDbPolyline
  3
"AutoCAD"
 90
        0
280
     0
281
     1
  0
CLASS
  1
HATCH
  2
AcDbHatch
  3
"ACAD_SEDONA"
 90
        0
280
     0
281
     1
  0
CLASS
  1
XRECORD
  2
AcDbXrecord
  3
"<Built In>"
 90
        0
280
     0
281
     0
  0
CLASS
  1
LONG_TRANSACTION
  2
AcDbLongTransaction
  3
AutoCAD 2000
 90
        0
280
     0
281
     0
  0
CLASS
  1
LWPOLYLINE
  2
AcDbPolyline
  3
"AutoCAD"
 90
        0
280
     0
281
     1
  0
CLASS
  1
HATCH
  2
AcDbHatch
  3
"ACAD_SEDONA"
 90
        0
280
     0
281
     1
  0
CLASS
  1
XRECORD
  2
AcDbXrecord
  3
"<Built In>"
 90
        0
280
     0
281
     0
  0
CLASS
  1
LONG_TRANSACTION
  2
AcDbLongTransaction
  3
AutoCAD 2000
 90
        0
280
     0
281
     0
  0
CLASS
  1
LWPOLYLINE
  2
AcDbPolyline
  3
"AutoCAD"
 90
        0
280
     0
281
     1
  0
CLASS
  1
HATCH
  2
AcDbHatch
  3
"ACAD_SEDONA"
 90
        0
280
     0
281
     1
  0
CLASS
  1
XRECORD
  2
AcDbXrecord
  3
"<Built In>"
 90
        0
280
     0
281
     0
  0
CLASS
  1
LONG_TRANSACTION
  2
AcDbLongTransaction
  3
AutoCAD 2000
 90
        0
280
     0
281
     0
  0
CLASS
  1
LWPOLYLINE
  2
AcDbPolyline
  3
"AutoCAD"
 90
        0
280
     0
281
     1
  0
CLASS
  1
HATCH
  2
AcDbHatch
  3
"ACAD_SEDONA"
 90
        0
280
     0
281
     1
  0
CLASS
  1
XRECORD
  2
AcDbXrecord
  3
"<Built In>"
 90
        0
280
     0
281
     0
  0
CLASS
  1
LONG_TRANSACTION
  2
AcDbLongTransaction
  3
AutoCAD 2000
 90
        0
280
     0
281
     0
  0
CLASS
  1
LWPOLYLINE
  2
AcDbPolyline
  3
"AutoCAD"
 90
        0
280
     0
281
     1
  0
CLASS
  1
HATCH
  2
AcDbHatch
  3
"ACAD_SEDONA"
 90
        0
280
     0
281
     1
  0
CLASS
  1
XRECORD
  2
AcDbXrecord
  3
"<Built In>"
 90
        0
280
     0
281
     0
  0
CLASS
  1
LONG_TRANSACTION
  2
AcDbLongTransaction
  3
AutoCAD 2000
 90
        0
280
     0
281
     0
  0
CLASS
  1
LWPOLYLINE
  2
AcDbPolyline
  3
"AutoCAD"
 90
        0
280
     0
281
     1
  0
CLASS
  1
HATCH
  2
AcDbHatch
  3
"ACAD_SEDONA"
 90
        0
280
     0
281
     1
  0
CLASS
  1
XRECORD
  2
AcDbXrecord
  3
"<Built In>"
 90
        0
280
     0
281
     0
  0
CLASS
  1
LONG_TRANSACTION
  2
AcDbLongTransaction
  3
AutoCAD 2000
 90
        0
280
     0
281
     0
  0
CLASS
  1
LWPOLYLINE
  2
AcDbPolyline
  3
"AutoCAD"
 90
        0
280
     0
281
     1
  0
CLASS
  1
HATCH
  2
AcDbHatch
  3
"ACAD_SEDONA"
 90
        0
280
     0
281
     1
  0
CLASS
  1
XRECORD
  2
AcDbXrecord
  3
"<Built In>"
 90
        0
280
     0
281
     0
  0
CLASS
  1
LONG_TRANSACTION
  2
AcDbLongTransaction
  3
AutoCAD 2000
 90
        0
280
     0
281
     0
  0
CLASS
  1
LWPOLYLINE
  2
AcDbPolyline
  3
"AutoCAD"
 90
        0
280
     0
281
     1
  0
CLASS
  1
HATCH
  2
AcDbHatch
  3
"ACAD_SEDONA"
 90
        0
280
     0
281
     1
  0
CLASS
  1
XRECORD
  2
AcDbXrecord
  3
"<Built In>"
 90
        0
280
     0
281
     0
  0
CLASS
  1
LONG_TRANSACTION
  2
AcDbLongTransaction
  3
AutoCAD 2000
 90
        0
280
     0
281
     0
  0
CLASS
  1
LWPOLYLINE
  2
AcDbPolyline
  3
"AutoCAD"
 90
        0
280
     0
281
     1
  0
CLASS
  1
HATCH
  2
AcDbHatch
  3
"ACAD_SEDONA"
 90
        0
280
     0
281
     1
  0
CLASS
  1
XRECORD
  2
AcDbXrecord
  3
"<Built In>"
 90
        0
280
     0
281
     0
  0
CLASS
  1
LONG_TRANSACTION
  2
AcDbLongTransaction
  3
AutoCAD 2000
 90
        0
280
     0
281
     0
  0
CLASS
  1
LWPOLYLINE
  2
AcDbPolyline
  3
"AutoCAD"
 90
        0
280
     0
281
     1
  0
CLASS
  1
HATCH
  2
AcDbHatch
  3
"ACAD_SEDONA"
 90
        0
280
     0
281
     1
  0
CLASS
  1
XRECORD
  2
AcDbXrecord
  3
"<Built In>"
 90
        0
280
     0
281
     0
  0
CLASS
  1
LONG_TRANSACTION
  2
AcDbLongTransaction
  3
AutoCAD 2000
 90
        0
280
     0
281
     0
  0
CLASS
  1
LWPOLYLINE
  2
AcDbPolyline
  3
"AutoCAD"
 90
        0
280
     0
281
     1
  0
CLASS
  1
HATCH
  2
AcDbHatch
  3
"ACAD_SEDONA"
 90
        0
280
     0
281
     1
  0
CLASS
  1
XRECORD
  2
AcDbXrecord
  3
"<Built In>"
 90
        0
280
     0
281
     0
  0
CLASS
  1
LONG_TRANSACTION
  2
AcDbLongTransaction
  3
AutoCAD 2000
 90
        0
280
     0
281
     0
  0
CLASS
  1
LWPOLYLINE
  2
AcDbPolyline
  3
"AutoCAD"
 90
        0
280
     0
281
     1
  0
CLASS
  1
HATCH
  2
AcDbHatch
  3
"ACAD_SEDONA"
 90
        0
280
     0
281
     1
  0
CLASS
  1
XRECORD
  2
AcDbXrecord
  3
"<Built In>"
 90
        0
280
     0
281
     0
  0
ENDSEC
  0
SECTION
  2
TABLES
  0
TABLE
  2
VPORT
  5
469
100
AcDbSymbolTable
 70
     1
  0
VPORT
  5
CB0F
102
{ACAD_XDICTIONARY
360
CB80
102
}
100
AcDbSymbolTableRecord
100
AcDbViewportTableRecord
  2
*ACTIVE
 70
     0
 10
0.0
 20
0.0
 11
1.0
 21
1.0
 12
0.2038
 22
-1.714082
 13
0.0
 23
0.0
 14
1.0
 24
1.0
 15
0.0
 25
0.0
 16
0.0
 26
0.0
 36
1.0
 17
-0.084399
 27
0.843356
 37
0.0
 40
5.31938
 41
1.82218
 42
50.0
 43
0.0
 44
0.0
 50
0.0
 51
0.0
 71
     0
 72
   100
 73
     1
 74
     1
 75
     0
 76
     0
 77
     0
 78
     0
  0
ENDTAB
  0
TABLE
  2
LTYPE
  5
466
100
AcDbSymbolTable
 70
     1
  0
LTYPE
  5
472
100
AcDbSymbolTableRecord
100
AcDbLinetypeTableRecord
  2
BYBLOCK
 70
     0
  3

 72
    65
 73
     0
 40
0.0
  0
LTYPE
  5
473
100
AcDbSymbolTableRecord
100
AcDbLinetypeTableRecord
  2
BYLAYER
 70
     0
  3

 72
    65
 73
     0
 40
0.0
  0
LTYPE
  5
474
100
AcDbSymbolTableRecord
100
AcDbLinetypeTableRecord
  2
CONTINUOUS
 70
     0
  3
Solid line
 72
    65
 73
     0
 40
0.0
  0
ENDTAB
  0
TABLE
  2
LAYER
  5
463
100
AcDbSymbolTable
 70
     8
  0
LAYER
  5
46F
100
AcDbSymbolTableRecord
100
AcDbLayerTableRecord
  2
0
 70
     0
 62
     7
  6
CONTINUOUS
  0
LAYER
  5
485
100
AcDbSymbolTableRecord
100
AcDbLayerTableRecord
  2
AREA1
 70
     0
 62
     7
  6
CONTINUOUS
  0
LAYER
  5
486
100
AcDbSymbolTableRecord
100
AcDbLayerTableRecord
  2
AREA2
 70
     0
 62
     7
  6
CONTINUOUS
  0
LAYER
  5
494
102
{ACAD_XDICTIONARY
360
CBAD
102
}
100
AcDbSymbolTableRecord
100
AcDbLayerTableRecord
  2
DEFPOINTS
 70
     0
 62
    -7
  6
CONTINUOUS
  0
LAYER
  5
495
100
AcDbSymbolTableRecord
100
AcDbLayerTableRecord
  2
DIMS-MTG-HOLES
 70
     0
 62
    -1
  6
CONTINUOUS
  0
LAYER
  5
4E6
100
AcDbSymbolTableRecord
100
AcDbLayerTableRecord
  2
SCALE
 70
     0
 62
    -7
  6
CONTINUOUS
  0
LAYER
  5
4ED
100
AcDbSymbolTableRecord
100
AcDbLayerTableRecord
  2
SNAP_POINTS
 70
     0
 62
    -1
  6
CONTINUOUS
  0
LAYER
  5
4F1
100
AcDbSymbolTableRecord
100
AcDbLayerTableRecord
  2
ATTRIBUTES
 70
     0
 62
    -7
  6
CONTINUOUS
  0
ENDTAB
  0
TABLE
  2
STYLE
  5
464
100
AcDbSymbolTable
 70
     1
  0
STYLE
  5
470
100
AcDbSymbolTableRecord
100
AcDbTextStyleTableRecord
  2
STANDARD
 70
     0
 40
0.0
 41
1.0
 50
0.0
 71
     0
 42
0.2
  3
txt
  4

  0
ENDTAB
  0
TABLE
  2
VIEW
  5
467
100
AcDbSymbolTable
 70
     0
  0
ENDTAB
  0
TABLE
  2
UCS
  5
468
100
AcDbSymbolTable
 70
     0
  0
ENDTAB
  0
TABLE
  2
APPID
  5
46A
100
AcDbSymbolTable
 70
     2
  0
APPID
  5
471
100
AcDbSymbolTableRecord
100
AcDbRegAppTableRecord
  2
ACAD
 70
     0
  0
APPID
  5
47E
100
AcDbSymbolTableRecord
100
AcDbRegAppTableRecord
  2
AVE_RENDER
 70
     0
  0
ENDTAB
  0
TABLE
  2
DIMSTYLE
  5
46B
100
AcDbSymbolTable
 70
     2
  0
DIMSTYLE
105
49A
102
{ACAD_XDICTIONARY
360
CBAF
102
}
102
{ACAD_REACTORS
330
CB01
102
}
100
AcDbSymbolTableRecord
100
AcDbDimStyleTableRecord
  2
ABECAD_3V
 70
     0
  3

  4

  5

  6

  7

 40
0.0
 41
0.18
 42
0.0625
 43
0.375
 44
0.18
 45
0.0
 46
0.0
 47
0.0
 48
0.0
140
0.13
141
0.09
142
0.0
143
25.4
144
1.0
145
0.0
146
1.5
147
0.09
 71
     0
 72
     0
 73
     0
 74
     1
 75
     0
 76
     0
 77
     0
 78
     4
170
     1
171
     2
172
     0
173
     0
174
     0
175
     0
176
     0
177
     0
178
     0
270
     7
271
     6
272
     6
273
     2
274
     2
340
470
275
     0
280
     0
281
     0
282
     0
283
     1
284
     4
285
     4
286
     4
287
     5
288
     1
  0
DIMSTYLE
105
512
102
{ACAD_XDICTIONARY
360
CBB3
102
}
102
{ACAD_REACTORS
330
CAC8
330
CAC9
102
}
100
AcDbSymbolTableRecord
100
AcDbDimStyleTableRecord
  2
ABECAD_3D
 70
     0
  3

  4

  5

  6

  7

 40
1.0
 41
0.18
 42
0.0625
 43
0.375
 44
0.18
 45
0.0
 46
0.0
 47
0.0
 48
0.0
140
0.18
141
0.09
142
0.0
143
25.4
144
1.0
145
0.0
146
1.5
147
0.09
 71
     0
 72
     0
 73
     0
 74
     1
 75
     0
 76
     0
 77
     0
 78
     4
170
     1
171
     2
172
     0
173
     0
174
     0
175
     0
176
     0
177
     0
178
     0
270
     7
271
     6
272
     6
273
     2
274
     2
340
470
275
     0
280
     0
281
     0
282
     0
283
     1
284
     4
285
     4
286
     4
287
     5
288
     1
  0
ENDTAB
  0
TABLE
  2
BLOCK_RECORD
  5
462
100
AcDbSymbolTable
 70
     3
  0
BLOCK_RECORD
  5
478
102
{ACAD_XDICTIONARY
360
4D2
102
}
100
AcDbSymbolTableRecord
100
AcDbBlockTableRecord
  2
*MODEL_SPACE
  0
BLOCK_RECORD
  5
475
102
{ACAD_XDICTIONARY
360
4D0
102
}
100
AcDbSymbolTableRecord
100
AcDbBlockTableRecord
  2
*PAPER_SPACE
  0
BLOCK_RECORD
  5
CAD5
100
AcDbSymbolTableRecord
100
AcDbBlockTableRecord
  2
*D0
  0
BLOCK_RECORD
  5
CAE2
100
AcDbSymbolTableRecord
100
AcDbBlockTableRecord
  2
*D1
  0
BLOCK_RECORD
  5
CB02
100
AcDbSymbolTableRecord
100
AcDbBlockTableRecord
  2
*D2
  0
ENDTAB
  0
ENDSEC
  0
SECTION
  2
BLOCKS
  0
BLOCK
  5
48B
100
AcDbEntity
  8
0
100
AcDbBlockBegin
  2
*MODEL_SPACE
 70
     0
 10
0.0
 20
0.0
 30
0.0
  3
*MODEL_SPACE
  1

  0
ENDBLK
  5
48C
100
AcDbEntity
  8
0
100
AcDbBlockEnd
  0
BLOCK
  5
489
100
AcDbEntity
 67
     1
  8
0
100
AcDbBlockBegin
  2
*PAPER_SPACE
 70
     0
 10
0.0
 20
0.0
 30
0.0
  3
*PAPER_SPACE
  1

  0
ENDBLK
  5
48A
100
AcDbEntity
 67
     1
  8
0
100
AcDbBlockEnd
  0
BLOCK
  5
CAE0
100
AcDbEntity
  8
0
100
AcDbBlockBegin
  2
*D0
 70
     1
 10
0.0
 20
0.0
 30
0.0
  3
*D0
  1

  0
LINE
  5
CAEE
100
AcDbEntity
  8
AREA1
 62
     0
100
AcDbLine
 10
-0.0625
 20
0.98
 30
0.0
 11
-0.854619
 21
0.98
 31
0.0
1001
ACAD
1000
RTLwPs
1070
   158
  0
LINE
  5
CAEF
100
AcDbEntity
  8
AREA1
 62
     0
100
AcDbLine
 10
0.06
 20
-2.51625
 30
0.0
 11
-0.854619
 21
-2.51625
 31
0.0
1001
ACAD
1000
RTLwPs
1070
   158
  0
LINE
  5
CAF0
100
AcDbEntity
  8
AREA1
 62
     0
100
AcDbLine
 10
-0.674619
 20
0.8
 30
0.0
 11
-0.674619
 21
0.24274
 31
0.0
1001
ACAD
1000
RTLwPs
1070
   158
  0
LINE
  5
CAF1
100
AcDbEntity
  8
AREA1
 62
     0
100
AcDbLine
 10
-0.674619
 20
-2.33625
 30
0.0
 11
-0.674619
 21
-1.88726
 31
0.0
1001
ACAD
1000
RTLwPs
1070
   158
  0
MTEXT
  5
CAF2
100
AcDbEntity
  8
AREA1
 62
     0
100
AcDbMText
 10
-0.674619
 20
-0.82226
 30
0.0
 40
0.18
 41
0.0
 71
     5
 72
     1
  1
\A1;3 1/2 [88.80]
 11
0.0
 21
1.0
 31
0.0
1001
ACAD
1000
MTEXTBEGIN
1070
    73
1070
     1
1070
    44
1040
1.0
1070
    74
1070
     0
1000
MTEXTEND
1000
MTEXTBEGIN
1070
    73
1070
     1
1070
    44
1040
1.0
1070
    74
1070
     0
1000
MTEXTEND
1000
MTEXTBEGIN
1070
    73
1070
     1
1070
    44
1040
1.0
1070
    74
1070
     0
1000
MTEXTEND
  0
SOLID
  5
CAF3
100
AcDbEntity
  8
AREA1
 62
     0
100
AcDbTrace
 10
-0.704619
 20
0.8
 30
0.0
 11
-0.644619
 21
0.8
 31
0.0
 12
-0.674619
 22
0.98
 32
0.0
 13
-0.674619
 23
0.98
 33
0.0
  0
SOLID
  5
CAF4
100
AcDbEntity
  8
AREA1
 62
     0
100
AcDbTrace
 10
-0.704619
 20
-2.33625
 30
0.0
 11
-0.644619
 21
-2.33625
 31
0.0
 12
-0.674619
 22
-2.51625
 32
0.0
 13
-0.674619
 23
-2.51625
 33
0.0
  0
POINT
  5
CAF5
100
AcDbEntity
  8
DEFPOINTS
 62
     0
100
AcDbPoint
 10
0.0
 20
0.98
 30
0.0
  0
POINT
  5
CAF6
100
AcDbEntity
  8
DEFPOINTS
 62
     0
100
AcDbPoint
 10
0.1225
 20
-2.51625
 30
0.0
  0
POINT
  5
CAF7
100
AcDbEntity
  8
DEFPOINTS
 62
     0
100
AcDbPoint
 10
-0.674619
 20
-2.51625
 30
0.0
  0
ENDBLK
  5
CAE1
100
AcDbEntity
  8
0
100
AcDbBlockEnd
  0
BLOCK
  5
CAEC
100
AcDbEntity
  8
0
100
AcDbBlockBegin
  2
*D1
 70
     1
 10
0.0
 20
0.0
 30
0.0
  3
*D1
  1

  0
LINE
  5
CAF8
100
AcDbEntity
  8
AREA1
 62
     0
100
AcDbLine
 10
0.0
 20
1.0425
 30
0.0
 11
0.0
 21
1.508728
 31
0.0
1001
ACAD
1000
RTLwPs
1070
   158
  0
LINE
  5
CAF9
100
AcDbEntity
  8
AREA1
 62
     0
100
AcDbLine
 10
0.625
 20
1.0425
 30
0.0
 11
0.625
 21
1.508728
 31
0.0
1001
ACAD
1000
RTLwPs
1070
   158
  0
LINE
  5
CAFA
100
AcDbEntity
  8
AREA1
 62
     0
100
AcDbLine
 10
0.18
 20
1.328728
 30
0.0
 11
0.445
 21
1.328728
 31
0.0
1001
ACAD
1000
RTLwPs
1070
   158
  0
MTEXT
  5
CAFB
100
AcDbEntity
  8
AREA1
 62
     0
100
AcDbMText
 10
0.283422
 20
1.668854
 30
0.0
 40
0.18
 41
0.0
 71
     5
 72
     1
  1
\A1;5/8 [15.88]
1001
ACAD
1000
MTEXTBEGIN
1070
    73
1070
     1
1070
    44
1040
1.0
1070
    74
1070
     0
1000
MTEXTEND
1000
MTEXTBEGIN
1070
    73
1070
     1
1070
    44
1040
1.0
1070
    74
1070
     0
1000
MTEXTEND
1000
MTEXTBEGIN
1070
    73
1070
     1
1070
    44
1040
1.0
1070
    74
1070
     0
1000
MTEXTEND
  0
SOLID
  5
CAFC
100
AcDbEntity
  8
AREA1
 62
     0
100
AcDbTrace
 10
0.18
 20
1.358728
 30
0.0
 11
0.18
 21
1.298728
 31
0.0
 12
0.0
 22
1.328728
 32
0.0
 13
0.0
 23
1.328728
 33
0.0
  0
SOLID
  5
CAFD
100
AcDbEntity
  8
AREA1
 62
     0
100
AcDbTrace
 10
0.445
 20
1.358728
 30
0.0
 11
0.445
 21
1.298728
 31
0.0
 12
0.625
 22
1.328728
 32
0.0
 13
0.625
 23
1.328728
 33
0.0
  0
POINT
  5
CAFE
100
AcDbEntity
  8
DEFPOINTS
 62
     0
100
AcDbPoint
 10
0.0
 20
0.98
 30
0.0
  0
POINT
  5
CAFF
100
AcDbEntity
  8
DEFPOINTS
 62
     0
100
AcDbPoint
 10
0.625
 20
0.98
 30
0.0
  0
POINT
  5
CB00
100
AcDbEntity
  8
DEFPOINTS
 62
     0
100
AcDbPoint
 10
0.625
 20
1.328728
 30
0.0
  0
ENDBLK
  5
CAED
100
AcDbEntity
  8
0
100
AcDbBlockEnd
  0
BLOCK
  5
CB0D
100
AcDbEntity
  8
0
100
AcDbBlockBegin
  2
*D2
 70
     1
 10
0.0
 20
0.0
 30
0.0
  3
*D2
  1

  0
LINE
  5
CB03
100
AcDbEntity
  8
AREA2
 62
     0
100
AcDbLine
 10
0.09
 20
2.4625
 30
0.0
 11
-0.781335
 21
2.4625
 31
0.0
1001
ACAD
1000
RTLwPs
1070
   158
  0
LINE
  5
CB04
100
AcDbEntity
  8
AREA2
 62
     0
100
AcDbLine
 10
-0.0625
 20
0.0
 30
0.0
 11
-0.781335
 21
0.0
 31
0.0
1001
ACAD
1000
RTLwPs
1070
   158
  0
LINE
  5
CB05
100
AcDbEntity
  8
AREA2
 62
     0
100
AcDbLine
 10
-0.601335
 20
2.2825
 30
0.0
 11
-0.601335
 21
2.178133
 31
0.0
1001
ACAD
1000
RTLwPs
1070
   158
  0
LINE
  5
CB06
100
AcDbEntity
  8
AREA2
 62
     0
100
AcDbLine
 10
-0.601335
 20
0.18
 30
0.0
 11
-0.601335
 21
0.308133
 31
0.0
1001
ACAD
1000
RTLwPs
1070
   158
  0
MTEXT
  5
CB07
100
AcDbEntity
  8
AREA2
 62
     0
100
AcDbMText
 10
-0.601335
 20
1.243133
 30
0.0
 40
0.13
 41
0.0
 71
     5
 72
     1
  1
\A1;2 15/32 [62.55]
 11
0.0
 21
1.0
 31
0.0
1001
ACAD
1000
MTEXTBEGIN
1070
    73
1070
     1
1070
    44
1040
1.0
1070
    74
1070
     0
1000
MTEXTEND
1000
MTEXTBEGIN
1070
    73
1070
     1
1070
    44
1040
1.0
1070
    74
1070
     0
1000
MTEXTEND
1000
MTEXTBEGIN
1070
    73
1070
     1
1070
    44
1040
1.0
1070
    74
1070
     0
1000
MTEXTEND
  0
SOLID
  5
CB08
100
AcDbEntity
  8
AREA2
 62
     0
100
AcDbTrace
 10
-0.631335
 20
2.2825
 30
0.0
 11
-0.571335
 21
2.2825
 31
0.0
 12
-0.601335
 22
2.4625
 32
0.0
 13
-0.601335
 23
2.4625
 33
0.0
  0
SOLID
  5
CB09
100
AcDbEntity
  8
AREA2
 62
     0
100
AcDbTrace
 10
-0.631335
 20
0.18
 30
0.0
 11
-0.571335
 21
0.18
 31
0.0
 12
-0.601335
 22
0.0
 32
0.0
 13
-0.601335
 23
0.0
 33
0.0
  0
POINT
  5
CB0A
100
AcDbEntity
  8
DEFPOINTS
 62
     0
100
AcDbPoint
 10
0.1525
 20
2.4625
 30
1.509574
  0
POINT
  5
CB0B
100
AcDbEntity
  8
DEFPOINTS
 62
     0
100
AcDbPoint
 10
0.0
 20
0.0
 30
0.0
  0
POINT
  5
CB0C
100
AcDbEntity
  8
DEFPOINTS
 62
     0
100
AcDbPoint
 10
-0.601335
 20
0.0
 30
0.0
  0
ENDBLK
  5
CB0E
100
AcDbEntity
  8
0
100
AcDbBlockEnd
  0
ENDSEC
  0
SECTION
  2
ENTITIES
  0
CIRCLE
  5
C9BC
100
AcDbEntity
  8
0
100
AcDbCircle
 10
0.3125
 20
-0.84
 30
1.2125
 40
0.075
  0
CIRCLE
  5
C9BD
100
AcDbEntity
  8
0
100
AcDbCircle
 10
0.3125
 20
-0.84
 30
0.0
 40
0.075
  0
LINE
  5
C9BE
100
AcDbEntity
  8
0
100
AcDbLine
 10
0.0
 20
-1.579
 30
1.2125
 11
0.625
 21
-1.579
 31
1.2125
  0
LINE
  5
C9BF
100
AcDbEntity
  8
0
100
AcDbLine
 10
0.1525
 20
-1.549
 30
1.2125
 11
0.4725
 21
-1.549
 31
1.2125
  0
CIRCLE
  5
C9C0
100
AcDbEntity
  8
0
100
AcDbCircle
 10
0.199856
 20
-1.784303
 30
1.375
 40
0.109375
  0
3DFACE
  5
C9C1
100
AcDbEntity
  8
0
100
AcDbFace
 10
0.4725
 20
-1.269
 30
2.010736
 11
0.4725
 21
-1.269
 31
1.9625
 12
0.1525
 22
-1.269
 32
1.9625
 13
0.1525
 23
-1.269
 33
2.010736
 70
    14
  0
LINE
  5
C9C2
100
AcDbEntity
  8
0
100
AcDbLine
 10
0.1525
 20
-1.369
 30
1.7125
 11
0.4725
 21
-1.369
 31
1.7125
  0
LINE
  5
C9C3
100
AcDbEntity
  8
0
100
AcDbLine
 10
0.1525
 20
-1.369
 30
1.9625
 11
0.4725
 21
-1.369
 31
1.9625
  0
LINE
  5
C9C4
100
AcDbEntity
  8
0
100
AcDbLine
 10
0.1525
 20
-1.269
 30
1.9625
 11
0.4725
 21
-1.269
 31
1.9625
  0
3DFACE
  5
C9C5
100
AcDbEntity
  8
0
100
AcDbFace
 10
0.1525
 20
-1.269
 30
2.010736
 11
0.1525
 21
-1.467699
 31
2.194862
 12
0.4725
 22
-1.467699
 32
2.194862
 13
0.4725
 23
-1.269001
 33
2.010736
 70
    14
  0
3DFACE
  5
C9C6
100
AcDbEntity
  8
0
100
AcDbFace
 10
0.1525
 20
-1.467699
 30
2.194862
 11
0.1525
 21
-1.509574
 31
2.4625
 12
0.4725
 22
-1.509574
 32
2.4625
 13
0.4725
 23
-1.467699
 33
2.194862
 70
    14
  0
LINE
  5
C9C7
100
AcDbEntity
  8
0
100
AcDbLine
 10
0.1525
 20
-1.467699
 30
2.194862
 11
0.4725
 21
-1.467699
 31
2.194862
  0
LINE
  5
C9C8
100
AcDbEntity
  8
0
100
AcDbLine
 10
0.1525
 20
-1.509574
 30
2.4625
 11
0.4725
 21
-1.509574
 31
2.4625
  0
LINE
  5
C9C9
100
AcDbEntity
  8
0
100
AcDbLine
 10
0.1525
 20
-1.549
 30
2.4625
 11
0.4725
 21
-1.549
 31
2.4625
  0
3DFACE
  5
C9CA
100
AcDbEntity
  8
0
100
AcDbFace
 10
0.1525
 20
-1.509574
 30
2.4625
 11
0.1525
 21
-1.549
 31
2.4625
 12
0.4725
 22
-1.549
 32
2.4625
 13
0.4725
 23
-1.509574
 33
2.4625
 70
    14
  0
LINE
  5
C9CB
100
AcDbEntity
  8
0
100
AcDbLine
 10
0.1525
 20
-1.269001
 30
2.010736
 11
0.4725
 21
-1.269001
 31
2.010736
  0
LINE
  5
C9CC
100
AcDbEntity
  8
0
100
AcDbLine
 10
0.0
 20
-1.579
 30
1.375
 11
0.0
 21
-1.579
 31
1.2125
  0
LINE
  5
C9CD
100
AcDbEntity
  8
0
100
AcDbLine
 10
0.1525
 20
-1.269
 30
2.010736
 11
0.1525
 21
-1.269
 31
1.9625
  0
LINE
  5
C9CE
100
AcDbEntity
  8
0
100
AcDbLine
 10
0.1525
 20
-1.269
 30
1.9625
 11
0.1525
 21
-1.369
 31
1.9625
  0
LINE
  5
C9CF
100
AcDbEntity
  8
0
100
AcDbLine
 10
0.1525
 20
-1.509574
 30
2.4625
 11
0.1525
 21
-1.467699
 31
2.194862
  0
LINE
  5
C9D0
100
AcDbEntity
  8
0
100
AcDbLine
 10
0.1525
 20
-1.549
 30
2.4625
 11
0.1525
 21
-1.509574
 31
2.4625
  0
LINE
  5
C9D1
100
AcDbEntity
  8
0
100
AcDbLine
 10
0.4725
 20
-1.299
 30
1.7125
 11
0.4725
 21
-1.299
 31
1.2125
  0
CIRCLE
  5
C9D2
100
AcDbEntity
  8
0
100
AcDbCircle
 10
0.471547
 20
-2.150736
 30
0.8125
 40
0.109375
  0
LINE
  5
C9D3
100
AcDbEntity
  8
0
100
AcDbLine
 10
0.4725
 20
-1.269
 30
2.010736
 11
0.4725
 21
-1.269
 31
1.9625
  0
LINE
  5
C9D4
100
AcDbEntity
  8
0
100
AcDbLine
 10
0.4725
 20
-1.269
 30
1.9625
 11
0.4725
 21
-1.369
 31
1.9625
  0
LINE
  5
C9D5
100
AcDbEntity
  8
0
100
AcDbLine
 10
0.4725
 20
-1.509574
 30
2.4625
 11
0.4725
 21
-1.467699
 31
2.194862
  0
LINE
  5
C9D6
100
AcDbEntity
  8
0
100
AcDbLine
 10
0.4725
 20
-1.549
 30
2.4625
 11
0.4725
 21
-1.509574
 31
2.4625
  0
CIRCLE
  5
C9D7
100
AcDbEntity
  8
0
100
AcDbCircle
 10
0.471547
 20
0.387157
 30
1.3125
 40
0.109375
  0
TEXT
  5
C9D8
100
AcDbEntity
  8
0
100
AcDbText
 10
0.174973
 20
0.26741
 30
1.375
 40
0.083026
  1

100
AcDbText
  0
TEXT
  5
C9D9
100
AcDbEntity
  8
0
100
AcDbText
 10
0.421556
 20
-0.144011
 30
1.8725
 40
0.083026
  1

100
AcDbText
  0
TEXT
  5
C9DA
100
AcDbEntity
  8
0
100
AcDbText
 10
0.328791
 20
-1.702147
 30
1.375
 40
0.083026
  1
8(+)
100
AcDbText
  0
TEXT
  5
C9DB
100
AcDbEntity
  8
0
100
AcDbText
 10
0.077976
 20
-2.091719
 30
0.8125
 40
0.083026
  1
1(-)
100
AcDbText
  0
TEXT
  5
C9DC
100
AcDbEntity
  8
0
100
AcDbText
 10
0.324558
 20
-1.936018
 30
1.375
 40
0.083026
  1
(A1)
100
AcDbText
  0
TEXT
  5
C9DD
100
AcDbEntity
  8
0
100
AcDbText
 10
0.060112
 20
-2.308953
 30
0.8125
 40
0.083026
  1
(A2)
100
AcDbText
  0
POLYLINE
  5
C9DE
100
AcDbEntity
  8
0
100
AcDbPolygonMesh
 66
     1
 10
0.0
 20
0.0
 30
0.0
 70
    16
 71
     6
 72
     3
  0
VERTEX
  5
C9DF
100
AcDbEntity
  8
0
100
AcDbVertex
100
AcDbPolygonMeshVertex
 10
0.625
 20
-2.36
 30
0.8125
 70
    64
  0
VERTEX
  5
C9E0
100
AcDbEntity
  8
0
100
AcDbVertex
100
AcDbPolygonMeshVertex
 10
0.625
 20
-2.36
 30
0.0
 70
    64
  0
VERTEX
  5
C9E1
100
AcDbEntity
  8
0
100
AcDbVertex
100
AcDbPolygonMeshVertex
 10
0.625
 20
-2.36
 30
0.0
 70
    64
  0
VERTEX
  5
C9E2
100
AcDbEntity
  8
0
100
AcDbVertex
100
AcDbPolygonMeshVertex
 10
0.0
 20
-2.36
 30
0.8125
 70
    64
  0
VERTEX
  5
C9E3
100
AcDbEntity
  8
0
100
AcDbVertex
100
AcDbPolygonMeshVertex
 10
0.0
 20
-2.36
 30
0.0
 70
    64
  0
VERTEX
  5
C9E4
100
AcDbEntity
  8
0
100
AcDbVertex
100
AcDbPolygonMeshVertex
 10
0.0
 20
-2.36
 30
0.0
 70
    64
  0
VERTEX
  5
C9E5
100
AcDbEntity
  8
0
100
AcDbVertex
100
AcDbPolygonMeshVertex
 10
0.0
 20
0.98
 30
0.8125
 70
    64
  0
VERTEX
  5
C9E6
100
AcDbEntity
  8
0
100
AcDbVertex
100
AcDbPolygonMeshVertex
 10
0.0
 20
0.98
 30
0.0
 70
    64
  0
VERTEX
  5
C9E7
100
AcDbEntity
  8
0
100
AcDbVertex
100
AcDbPolygonMeshVertex
 10
0.0
 20
-2.36
 30
0.0
 70
    64
  0
VERTEX
  5
C9E8
100
AcDbEntity
  8
0
100
AcDbVertex
100
AcDbPolygonMeshVertex
 10
0.625
 20
0.98
 30
0.8125
 70
    64
  0
VERTEX
  5
C9E9
100
AcDbEntity
  8
0
100
AcDbVertex
100
AcDbPolygonMeshVertex
 10
0.625
 20
0.98
 30
0.0
 70
    64
  0
VERTEX
  5
C9EA
100
AcDbEntity
  8
0
100
AcDbVertex
100
AcDbPolygonMeshVertex
 10
0.625
 20
-2.36
 30
0.0
 70
    64
  0
VERTEX
  5
C9EB
100
AcDbEntity
  8
0
100
AcDbVertex
100
AcDbPolygonMeshVertex
 10
0.625
 20
0.98
 30
0.8125
 70
    64
  0
VERTEX
  5
C9EC
100
AcDbEntity
  8
0
100
AcDbVertex
100
AcDbPolygonMeshVertex
 10
0.625
 20
0.98
 30
0.8125
 70
    64
  0
VERTEX
  5
C9ED
100
AcDbEntity
  8
0
100
AcDbVertex
100
AcDbPolygonMeshVertex
 10
0.625
 20
-2.36
 30
0.8125
 70
    64
  0
VERTEX
  5
C9EE
100
AcDbEntity
  8
0
100
AcDbVertex
100
AcDbPolygonMeshVertex
 10
0.0
 20
0.98
 30
0.8125
 70
    64
  0
VERTEX
  5
C9EF
100
AcDbEntity
  8
0
100
AcDbVertex
100
AcDbPolygonMeshVertex
 10
0.0
 20
0.98
 30
0.8125
 70
    64
  0
VERTEX
  5
C9F0
100
AcDbEntity
  8
0
100
AcDbVertex
100
AcDbPolygonMeshVertex
 10
0.0
 20
-2.36
 30
0.8125
 70
    64
  0
SEQEND
  5
C9F1
100
AcDbEntity
  8
0
  0
LINE
  5
C9F2
100
AcDbEntity
  8
0
100
AcDbLine
 10
0.0
 20
-1.579
 30
1.2125
 11
0.0
 21
-1.579
 31
0.8125
  0
LINE
  5
C9F3
100
AcDbEntity
  8
0
100
AcDbLine
 10
0.0
 20
-1.579
 30
0.8125
 11
0.625
 21
-1.579
 31
0.8125
  0
LINE
  5
C9F4
100
AcDbEntity
  8
0
100
AcDbLine
 10
0.0
 20
-0.201
 30
1.2125
 11
0.0
 21
-0.201
 31
0.8125
  0
LINE
  5
C9F5
100
AcDbEntity
  8
0
100
AcDbLine
 10
0.0
 20
0.199
 30
1.3125
 11
0.0
 21
0.199
 31
0.8125
  0
POLYLINE
  5
C9F6
100
AcDbEntity
  8
0
100
AcDbPolygonMesh
 66
     1
 10
0.0
 20
0.0
 30
0.0
 70
    16
 71
     6
 72
     3
  0
VERTEX
  5
C9F7
100
AcDbEntity
  8
0
100
AcDbVertex
100
AcDbPolygonMeshVertex
 10
0.625
 20
-1.579
 30
1.2125
 70
    64
  0
VERTEX
  5
C9F8
100
AcDbEntity
  8
0
100
AcDbVertex
100
AcDbPolygonMeshVertex
 10
0.625
 20
-1.579
 30
0.8125
 70
    64
  0
VERTEX
  5
C9F9
100
AcDbEntity
  8
0
100
AcDbVertex
100
AcDbPolygonMeshVertex
 10
0.625
 20
-1.579
 30
0.8125
 70
    64
  0
VERTEX
  5
C9FA
100
AcDbEntity
  8
0
100
AcDbVertex
100
AcDbPolygonMeshVertex
 10
0.0
 20
-1.579
 30
1.2125
 70
    64
  0
VERTEX
  5
C9FB
100
AcDbEntity
  8
0
100
AcDbVertex
100
AcDbPolygonMeshVertex
 10
0.0
 20
-1.579
 30
0.8125
 70
    64
  0
VERTEX
  5
C9FC
100
AcDbEntity
  8
0
100
AcDbVertex
100
AcDbPolygonMeshVertex
 10
0.0
 20
-1.579
 30
0.8125
 70
    64
  0
VERTEX
  5
C9FD
100
AcDbEntity
  8
0
100
AcDbVertex
100
AcDbPolygonMeshVertex
 10
0.0
 20
-0.201
 30
1.2125
 70
    64
  0
VERTEX
  5
C9FE
100
AcDbEntity
  8
0
100
AcDbVertex
100
AcDbPolygonMeshVertex
 10
0.0
 20
-0.201
 30
0.8125
 70
    64
  0
VERTEX
  5
C9FF
100
AcDbEntity
  8
0
100
AcDbVertex
100
AcDbPolygonMeshVertex
 10
0.0
 20
-1.579
 30
0.8125
 70
    64
  0
VERTEX
  5
CA00
100
AcDbEntity
  8
0
100
AcDbVertex
100
AcDbPolygonMeshVertex
 10
0.625
 20
-0.201
 30
1.2125
 70
    64
  0
VERTEX
  5
CA01
100
AcDbEntity
  8
0
100
AcDbVertex
100
AcDbPolygonMeshVertex
 10
0.625
 20
-0.201
 30
0.8125
 70
    64
  0
VERTEX
  5
CA02
100
AcDbEntity
  8
0
100
AcDbVertex
100
AcDbPolygonMeshVertex
 10
0.625
 20
-1.579
 30
0.8125
 70
    64
  0
VERTEX
  5
CA03
100
AcDbEntity
  8
0
100
AcDbVertex
100
AcDbPolygonMeshVertex
 10
0.625
 20
-0.201
 30
1.2125
 70
    64
  0
VERTEX
  5
CA04
100
AcDbEntity
  8
0
100
AcDbVertex
100
AcDbPolygonMeshVertex
 10
0.625
 20
-0.201
 30
1.2125
 70
    64
  0
VERTEX
  5
CA05
100
AcDbEntity
  8
0
100
AcDbVertex
100
AcDbPolygonMeshVertex
 10
0.625
 20
-1.579
 30
1.2125
 70
    64
  0
VERTEX
  5
CA06
100
AcDbEntity
  8
0
100
AcDbVertex
100
AcDbPolygonMeshVertex
 10
0.0
 20
-0.201
 30
1.2125
 70
    64
  0
VERTEX
  5
CA07
100
AcDbEntity
  8
0
100
AcDbVertex
100
AcDbPolygonMeshVertex
 10
0.0
 20
-0.201
 30
1.2125
 70
    64
  0
VERTEX
  5
CA08
100
AcDbEntity
  8
0
100
AcDbVertex
100
AcDbPolygonMeshVertex
 10
0.0
 20
-1.579
 30
1.2125
 70
    64
  0
SEQEND
  5
CA09
100
AcDbEntity
  8
0
  0
POLYLINE
  5
CA0A
100
AcDbEntity
  8
0
100
AcDbPolygonMesh
 66
     1
 10
0.0
 20
0.0
 30
0.0
 70
    16
 71
     6
 72
     3
  0
VERTEX
  5
CA0B
100
AcDbEntity
  8
0
100
AcDbVertex
100
AcDbPolygonMeshVertex
 10
0.625
 20
-1.985
 30
1.375
 70
    64
  0
VERTEX
  5
CA0C
100
AcDbEntity
  8
0
100
AcDbVertex
100
AcDbPolygonMeshVertex
 10
0.625
 20
-1.985
 30
0.8125
 70
    64
  0
VERTEX
  5
CA0D
100
AcDbEntity
  8
0
100
AcDbVertex
100
AcDbPolygonMeshVertex
 10
0.625
 20
-1.985
 30
0.8125
 70
    64
  0
VERTEX
  5
CA0E
100
AcDbEntity
  8
0
100
AcDbVertex
100
AcDbPolygonMeshVertex
 10
0.0
 20
-1.985
 30
1.375
 70
    64
  0
VERTEX
  5
CA0F
100
AcDbEntity
  8
0
100
AcDbVertex
100
AcDbPolygonMeshVertex
 10
0.0
 20
-1.985
 30
0.8125
 70
    64
  0
VERTEX
  5
CA10
100
AcDbEntity
  8
0
100
AcDbVertex
100
AcDbPolygonMeshVertex
 10
0.0
 20
-1.985
 30
0.8125
 70
    64
  0
VERTEX
  5
CA11
100
AcDbEntity
  8
0
100
AcDbVertex
100
AcDbPolygonMeshVertex
 10
0.0
 20
-1.579
 30
1.375
 70
    64
  0
VERTEX
  5
CA12
100
AcDbEntity
  8
0
100
AcDbVertex
100
AcDbPolygonMeshVertex
 10
0.0
 20
-1.579
 30
0.8125
 70
    64
  0
VERTEX
  5
CA13
100
AcDbEntity
  8
0
100
AcDbVertex
100
AcDbPolygonMeshVertex
 10
0.0
 20
-1.985
 30
0.8125
 70
    64
  0
VERTEX
  5
CA14
100
AcDbEntity
  8
0
100
AcDbVertex
100
AcDbPolygonMeshVertex
 10
0.625
 20
-1.579
 30
1.375
 70
    64
  0
VERTEX
  5
CA15
100
AcDbEntity
  8
0
100
AcDbVertex
100
AcDbPolygonMeshVertex
 10
0.625
 20
-1.579
 30
0.8125
 70
    64
  0
VERTEX
  5
CA16
100
AcDbEntity
  8
0
100
AcDbVertex
100
AcDbPolygonMeshVertex
 10
0.625
 20
-1.985
 30
0.8125
 70
    64
  0
VERTEX
  5
CA17
100
AcDbEntity
  8
0
100
AcDbVertex
100
AcDbPolygonMeshVertex
 10
0.625
 20
-1.579
 30
1.375
 70
    64
  0
VERTEX
  5
CA18
100
AcDbEntity
  8
0
100
AcDbVertex
100
AcDbPolygonMeshVertex
 10
0.625
 20
-1.579
 30
1.375
 70
    64
  0
VERTEX
  5
CA19
100
AcDbEntity
  8
0
100
AcDbVertex
100
AcDbPolygonMeshVertex
 10
0.625
 20
-1.985
 30
1.375
 70
    64
  0
VERTEX
  5
CA1A
100
AcDbEntity
  8
0
100
AcDbVertex
100
AcDbPolygonMeshVertex
 10
0.0
 20
-1.579
 30
1.375
 70
    64
  0
VERTEX
  5
CA1B
100
AcDbEntity
  8
0
100
AcDbVertex
100
AcDbPolygonMeshVertex
 10
0.0
 20
-1.579
 30
1.375
 70
    64
  0
VERTEX
  5
CA1C
100
AcDbEntity
  8
0
100
AcDbVertex
100
AcDbPolygonMeshVertex
 10
0.0
 20
-1.985
 30
1.375
 70
    64
  0
SEQEND
  5
CA1D
100
AcDbEntity
  8
0
  0
POLYLINE
  5
CA1E
100
AcDbEntity
  8
0
100
AcDbPolygonMesh
 66
     1
 10
0.0
 20
0.0
 30
0.0
 70
    16
 71
     6
 72
     3
  0
VERTEX
  5
CA1F
100
AcDbEntity
  8
0
100
AcDbVertex
100
AcDbPolygonMeshVertex
 10
0.625
 20
-0.201
 30
1.8725
 70
    64
  0
VERTEX
  5
CA20
100
AcDbEntity
  8
0
100
AcDbVertex
100
AcDbPolygonMeshVertex
 10
0.625
 20
-0.201
 30
0.8125
 70
    64
  0
VERTEX
  5
CA21
100
AcDbEntity
  8
0
100
AcDbVertex
100
AcDbPolygonMeshVertex
 10
0.625
 20
-0.201
 30
0.8125
 70
    64
  0
VERTEX
  5
CA22
100
AcDbEntity
  8
0
100
AcDbVertex
100
AcDbPolygonMeshVertex
 10
0.0
 20
-0.201
 30
1.8725
 70
    64
  0
VERTEX
  5
CA23
100
AcDbEntity
  8
0
100
AcDbVertex
100
AcDbPolygonMeshVertex
 10
0.0
 20
-0.201
 30
0.8125
 70
    64
  0
VERTEX
  5
CA24
100
AcDbEntity
  8
0
100
AcDbVertex
100
AcDbPolygonMeshVertex
 10
0.0
 20
-0.201
 30
0.8125
 70
    64
  0
VERTEX
  5
CA25
100
AcDbEntity
  8
0
100
AcDbVertex
100
AcDbPolygonMeshVertex
 10
0.0
 20
0.199
 30
1.8725
 70
    64
  0
VERTEX
  5
CA26
100
AcDbEntity
  8
0
100
AcDbVertex
100
AcDbPolygonMeshVertex
 10
0.0
 20
0.199
 30
0.8125
 70
    64
  0
VERTEX
  5
CA27
100
AcDbEntity
  8
0
100
AcDbVertex
100
AcDbPolygonMeshVertex
 10
0.0
 20
-0.201
 30
0.8125
 70
    64
  0
VERTEX
  5
CA28
100
AcDbEntity
  8
0
100
AcDbVertex
100
AcDbPolygonMeshVertex
 10
0.625
 20
0.199
 30
1.8725
 70
    64
  0
VERTEX
  5
CA29
100
AcDbEntity
  8
0
100
AcDbVertex
100
AcDbPolygonMeshVertex
 10
0.625
 20
0.199
 30
0.8125
 70
    64
  0
VERTEX
  5
CA2A
100
AcDbEntity
  8
0
100
AcDbVertex
100
AcDbPolygonMeshVertex
 10
0.625
 20
-0.201
 30
0.8125
 70
    64
  0
VERTEX
  5
CA2B
100
AcDbEntity
  8
0
100
AcDbVertex
100
AcDbPolygonMeshVertex
 10
0.625
 20
0.199
 30
1.8725
 70
    64
  0
VERTEX
  5
CA2C
100
AcDbEntity
  8
0
100
AcDbVertex
100
AcDbPolygonMeshVertex
 10
0.625
 20
0.199
 30
1.8725
 70
    64
  0
VERTEX
  5
CA2D
100
AcDbEntity
  8
0
100
AcDbVertex
100
AcDbPolygonMeshVertex
 10
0.625
 20
-0.201
 30
1.8725
 70
    64
  0
VERTEX
  5
CA2E
100
AcDbEntity
  8
0
100
AcDbVertex
100
AcDbPolygonMeshVertex
 10
0.0
 20
0.199
 30
1.8725
 70
    64
  0
VERTEX
  5
CA2F
100
AcDbEntity
  8
0
100
AcDbVertex
100
AcDbPolygonMeshVertex
 10
0.0
 20
0.199
 30
1.8725
 70
    64
  0
VERTEX
  5
CA30
100
AcDbEntity
  8
0
100
AcDbVertex
100
AcDbPolygonMeshVertex
 10
0.0
 20
-0.201
 30
1.8725
 70
    64
  0
SEQEND
  5
CA31
100
AcDbEntity
  8
0
  0
POLYLINE
  5
CA32
100
AcDbEntity
  8
0
100
AcDbPolygonMesh
 66
     1
 10
0.0
 20
0.0
 30
0.0
 70
    16
 71
     6
 72
     3
  0
VERTEX
  5
CA33
100
AcDbEntity
  8
0
100
AcDbVertex
100
AcDbPolygonMeshVertex
 10
0.625
 20
0.199
 30
1.3125
 70
    64
  0
VERTEX
  5
CA34
100
AcDbEntity
  8
0
100
AcDbVertex
100
AcDbPolygonMeshVertex
 10
0.625
 20
0.199
 30
0.8125
 70
    64
  0
VERTEX
  5
CA35
100
AcDbEntity
  8
0
100
AcDbVertex
100
AcDbPolygonMeshVertex
 10
0.625
 20
0.199
 30
0.8125
 70
    64
  0
VERTEX
  5
CA36
100
AcDbEntity
  8
0
100
AcDbVertex
100
AcDbPolygonMeshVertex
 10
0.0
 20
0.199
 30
1.3125
 70
    64
  0
VERTEX
  5
CA37
100
AcDbEntity
  8
0
100
AcDbVertex
100
AcDbPolygonMeshVertex
 10
0.0
 20
0.199
 30
0.8125
 70
    64
  0
VERTEX
  5
CA38
100
AcDbEntity
  8
0
100
AcDbVertex
100
AcDbPolygonMeshVertex
 10
0.0
 20
0.199
 30
0.8125
 70
    64
  0
VERTEX
  5
CA39
100
AcDbEntity
  8
0
100
AcDbVertex
100
AcDbPolygonMeshVertex
 10
0.0
 20
0.605
 30
1.3125
 70
    64
  0
VERTEX
  5
CA3A
100
AcDbEntity
  8
0
100
AcDbVertex
100
AcDbPolygonMeshVertex
 10
0.0
 20
0.605
 30
0.8125
 70
    64
  0
VERTEX
  5
CA3B
100
AcDbEntity
  8
0
100
AcDbVertex
100
AcDbPolygonMeshVertex
 10
0.0
 20
0.199
 30
0.8125
 70
    64
  0
VERTEX
  5
CA3C
100
AcDbEntity
  8
0
100
AcDbVertex
100
AcDbPolygonMeshVertex
 10
0.625
 20
0.605
 30
1.3125
 70
    64
  0
VERTEX
  5
CA3D
100
AcDbEntity
  8
0
100
AcDbVertex
100
AcDbPolygonMeshVertex
 10
0.625
 20
0.605
 30
0.8125
 70
    64
  0
VERTEX
  5
CA3E
100
AcDbEntity
  8
0
100
AcDbVertex
100
AcDbPolygonMeshVertex
 10
0.625
 20
0.199
 30
0.8125
 70
    64
  0
VERTEX
  5
CA3F
100
AcDbEntity
  8
0
100
AcDbVertex
100
AcDbPolygonMeshVertex
 10
0.625
 20
0.605
 30
1.3125
 70
    64
  0
VERTEX
  5
CA40
100
AcDbEntity
  8
0
100
AcDbVertex
100
AcDbPolygonMeshVertex
 10
0.625
 20
0.605
 30
1.3125
 70
    64
  0
VERTEX
  5
CA41
100
AcDbEntity
  8
0
100
AcDbVertex
100
AcDbPolygonMeshVertex
 10
0.625
 20
0.199
 30
1.3125
 70
    64
  0
VERTEX
  5
CA42
100
AcDbEntity
  8
0
100
AcDbVertex
100
AcDbPolygonMeshVertex
 10
0.0
 20
0.605
 30
1.3125
 70
    64
  0
VERTEX
  5
CA43
100
AcDbEntity
  8
0
100
AcDbVertex
100
AcDbPolygonMeshVertex
 10
0.0
 20
0.605
 30
1.3125
 70
    64
  0
VERTEX
  5
CA44
100
AcDbEntity
  8
0
100
AcDbVertex
100
AcDbPolygonMeshVertex
 10
0.0
 20
0.199
 30
1.3125
 70
    64
  0
SEQEND
  5
CA45
100
AcDbEntity
  8
0
  0
POLYLINE
  5
CA46
100
AcDbEntity
  8
0
100
AcDbPolygonMesh
 66
     1
 10
0.0
 20
0.0
 30
0.0
 70
    16
 71
     6
 72
     3
  0
VERTEX
  5
CA47
100
AcDbEntity
  8
0
100
AcDbVertex
100
AcDbPolygonMeshVertex
 10
0.5025
 20
-2.51625
 30
0.125
 70
    64
  0
VERTEX
  5
CA48
100
AcDbEntity
  8
0
100
AcDbVertex
100
AcDbPolygonMeshVertex
 10
0.5025
 20
-2.51625
 30
0.0
 70
    64
  0
VERTEX
  5
CA49
100
AcDbEntity
  8
0
100
AcDbVertex
100
AcDbPolygonMeshVertex
 10
0.5025
 20
-2.51625
 30
0.0
 70
    64
  0
VERTEX
  5
CA4A
100
AcDbEntity
  8
0
100
AcDbVertex
100
AcDbPolygonMeshVertex
 10
0.1225
 20
-2.51625
 30
0.125
 70
    64
  0
VERTEX
  5
CA4B
100
AcDbEntity
  8
0
100
AcDbVertex
100
AcDbPolygonMeshVertex
 10
0.1225
 20
-2.51625
 30
0.0
 70
    64
  0
VERTEX
  5
CA4C
100
AcDbEntity
  8
0
100
AcDbVertex
100
AcDbPolygonMeshVertex
 10
0.1225
 20
-2.51625
 30
0.0
 70
    64
  0
VERTEX
  5
CA4D
100
AcDbEntity
  8
0
100
AcDbVertex
100
AcDbPolygonMeshVertex
 10
0.1225
 20
-2.36
 30
0.125
 70
    64
  0
VERTEX
  5
CA4E
100
AcDbEntity
  8
0
100
AcDbVertex
100
AcDbPolygonMeshVertex
 10
0.1225
 20
-2.36
 30
0.0
 70
    64
  0
VERTEX
  5
CA4F
100
AcDbEntity
  8
0
100
AcDbVertex
100
AcDbPolygonMeshVertex
 10
0.1225
 20
-2.51625
 30
0.0
 70
    64
  0
VERTEX
  5
CA50
100
AcDbEntity
  8
0
100
AcDbVertex
100
AcDbPolygonMeshVertex
 10
0.5025
 20
-2.36
 30
0.125
 70
    64
  0
VERTEX
  5
CA51
100
AcDbEntity
  8
0
100
AcDbVertex
100
AcDbPolygonMeshVertex
 10
0.5025
 20
-2.36
 30
0.0
 70
    64
  0
VERTEX
  5
CA52
100
AcDbEntity
  8
0
100
AcDbVertex
100
AcDbPolygonMeshVertex
 10
0.5025
 20
-2.51625
 30
0.0
 70
    64
  0
VERTEX
  5
CA53
100
AcDbEntity
  8
0
100
AcDbVertex
100
AcDbPolygonMeshVertex
 10
0.5025
 20
-2.36
 30
0.125
 70
    64
  0
VERTEX
  5
CA54
100
AcDbEntity
  8
0
100
AcDbVertex
100
AcDbPolygonMeshVertex
 10
0.5025
 20
-2.36
 30
0.125
 70
    64
  0
VERTEX
  5
CA55
100
AcDbEntity
  8
0
100
AcDbVertex
100
AcDbPolygonMeshVertex
 10
0.5025
 20
-2.51625
 30
0.125
 70
    64
  0
VERTEX
  5
CA56
100
AcDbEntity
  8
0
100
AcDbVertex
100
AcDbPolygonMeshVertex
 10
0.1225
 20
-2.36
 30
0.125
 70
    64
  0
VERTEX
  5
CA57
100
AcDbEntity
  8
0
100
AcDbVertex
100
AcDbPolygonMeshVertex
 10
0.1225
 20
-2.36
 30
0.125
 70
    64
  0
VERTEX
  5
CA58
100
AcDbEntity
  8
0
100
AcDbVertex
100
AcDbPolygonMeshVertex
 10
0.1225
 20
-2.51625
 30
0.125
 70
    64
  0
SEQEND
  5
CA59
100
AcDbEntity
  8
0
  0
LINE
  5
CA5A
100
AcDbEntity
  8
0
100
AcDbLine
 10
0.1525
 20
-1.369
 30
1.7125
 11
0.1525
 21
-1.549
 31
1.7125
  0
LINE
  5
CA5B
100
AcDbEntity
  8
0
100
AcDbLine
 10
0.1525
 20
-1.369
 30
1.9625
 11
0.1525
 21
-1.549
 31
1.9625
  0
POLYLINE
  5
CA5C
100
AcDbEntity
  8
0
100
AcDbPolygonMesh
 66
     1
 10
0.0
 20
0.0
 30
0.0
 70
    16
 71
     6
 72
     3
  0
VERTEX
  5
CA5D
100
AcDbEntity
  8
0
100
AcDbVertex
100
AcDbPolygonMeshVertex
 10
0.4725
 20
-1.549
 30
1.7125
 70
    64
  0
VERTEX
  5
CA5E
100
AcDbEntity
  8
0
100
AcDbVertex
100
AcDbPolygonMeshVertex
 10
0.4725
 20
-1.549
 30
1.2125
 70
    64
  0
VERTEX
  5
CA5F
100
AcDbEntity
  8
0
100
AcDbVertex
100
AcDbPolygonMeshVertex
 10
0.4725
 20
-1.549
 30
1.2125
 70
    64
  0
VERTEX
  5
CA60
100
AcDbEntity
  8
0
100
AcDbVertex
100
AcDbPolygonMeshVertex
 10
0.1525
 20
-1.549
 30
1.7125
 70
    64
  0
VERTEX
  5
CA61
100
AcDbEntity
  8
0
100
AcDbVertex
100
AcDbPolygonMeshVertex
 10
0.1525
 20
-1.549
 30
1.2125
 70
    64
  0
VERTEX
  5
CA62
100
AcDbEntity
  8
0
100
AcDbVertex
100
AcDbPolygonMeshVertex
 10
0.1525
 20
-1.549
 30
1.2125
 70
    64
  0
VERTEX
  5
CA63
100
AcDbEntity
  8
0
100
AcDbVertex
100
AcDbPolygonMeshVertex
 10
0.1525
 20
-1.299
 30
1.7125
 70
    64
  0
VERTEX
  5
CA64
100
AcDbEntity
  8
0
100
AcDbVertex
100
AcDbPolygonMeshVertex
 10
0.1525
 20
-1.299
 30
1.2125
 70
    64
  0
VERTEX
  5
CA65
100
AcDbEntity
  8
0
100
AcDbVertex
100
AcDbPolygonMeshVertex
 10
0.1525
 20
-1.549
 30
1.2125
 70
    64
  0
VERTEX
  5
CA66
100
AcDbEntity
  8
0
100
AcDbVertex
100
AcDbPolygonMeshVertex
 10
0.4725
 20
-1.299
 30
1.7125
 70
    64
  0
VERTEX
  5
CA67
100
AcDbEntity
  8
0
100
AcDbVertex
100
AcDbPolygonMeshVertex
 10
0.4725
 20
-1.299
 30
1.2125
 70
    64
  0
VERTEX
  5
CA68
100
AcDbEntity
  8
0
100
AcDbVertex
100
AcDbPolygonMeshVertex
 10
0.4725
 20
-1.549
 30
1.2125
 70
    64
  0
VERTEX
  5
CA69
100
AcDbEntity
  8
0
100
AcDbVertex
100
AcDbPolygonMeshVertex
 10
0.4725
 20
-1.299
 30
1.7125
 70
    64
  0
VERTEX
  5
CA6A
100
AcDbEntity
  8
0
100
AcDbVertex
100
AcDbPolygonMeshVertex
 10
0.4725
 20
-1.299
 30
1.7125
 70
    64
  0
VERTEX
  5
CA6B
100
AcDbEntity
  8
0
100
AcDbVertex
100
AcDbPolygonMeshVertex
 10
0.4725
 20
-1.549
 30
1.7125
 70
    64
  0
VERTEX
  5
CA6C
100
AcDbEntity
  8
0
100
AcDbVertex
100
AcDbPolygonMeshVertex
 10
0.1525
 20
-1.299
 30
1.7125
 70
    64
  0
VERTEX
  5
CA6D
100
AcDbEntity
  8
0
100
AcDbVertex
100
AcDbPolygonMeshVertex
 10
0.1525
 20
-1.299
 30
1.7125
 70
    64
  0
VERTEX
  5
CA6E
100
AcDbEntity
  8
0
100
AcDbVertex
100
AcDbPolygonMeshVertex
 10
0.1525
 20
-1.549
 30
1.7125
 70
    64
  0
SEQEND
  5
CA6F
100
AcDbEntity
  8
0
  0
POLYLINE
  5
CA70
100
AcDbEntity
  8
0
100
AcDbPolygonMesh
 66
     1
 10
0.0
 20
0.0
 30
0.0
 70
    16
 71
     6
 72
     3
  0
VERTEX
  5
CA71
100
AcDbEntity
  8
0
100
AcDbVertex
100
AcDbPolygonMeshVertex
 10
0.4725
 20
-1.549
 30
1.9625
 70
    64
  0
VERTEX
  5
CA72
100
AcDbEntity
  8
0
100
AcDbVertex
100
AcDbPolygonMeshVertex
 10
0.4725
 20
-1.549
 30
1.7125
 70
    64
  0
VERTEX
  5
CA73
100
AcDbEntity
  8
0
100
AcDbVertex
100
AcDbPolygonMeshVertex
 10
0.4725
 20
-1.549
 30
1.7125
 70
    64
  0
VERTEX
  5
CA74
100
AcDbEntity
  8
0
100
AcDbVertex
100
AcDbPolygonMeshVertex
 10
0.1525
 20
-1.549
 30
1.9625
 70
    64
  0
VERTEX
  5
CA75
100
AcDbEntity
  8
0
100
AcDbVertex
100
AcDbPolygonMeshVertex
 10
0.1525
 20
-1.549
 30
1.7125
 70
    64
  0
VERTEX
  5
CA76
100
AcDbEntity
  8
0
100
AcDbVertex
100
AcDbPolygonMeshVertex
 10
0.1525
 20
-1.549
 30
1.7125
 70
    64
  0
VERTEX
  5
CA77
100
AcDbEntity
  8
0
100
AcDbVertex
100
AcDbPolygonMeshVertex
 10
0.1525
 20
-1.369
 30
1.9625
 70
    64
  0
VERTEX
  5
CA78
100
AcDbEntity
  8
0
100
AcDbVertex
100
AcDbPolygonMeshVertex
 10
0.1525
 20
-1.369
 30
1.7125
 70
    64
  0
VERTEX
  5
CA79
100
AcDbEntity
  8
0
100
AcDbVertex
100
AcDbPolygonMeshVertex
 10
0.1525
 20
-1.549
 30
1.7125
 70
    64
  0
VERTEX
  5
CA7A
100
AcDbEntity
  8
0
100
AcDbVertex
100
AcDbPolygonMeshVertex
 10
0.4725
 20
-1.369
 30
1.9625
 70
    64
  0
VERTEX
  5
CA7B
100
AcDbEntity
  8
0
100
AcDbVertex
100
AcDbPolygonMeshVertex
 10
0.4725
 20
-1.369
 30
1.7125
 70
    64
  0
VERTEX
  5
CA7C
100
AcDbEntity
  8
0
100
AcDbVertex
100
AcDbPolygonMeshVertex
 10
0.4725
 20
-1.549
 30
1.7125
 70
    64
  0
VERTEX
  5
CA7D
100
AcDbEntity
  8
0
100
AcDbVertex
100
AcDbPolygonMeshVertex
 10
0.4725
 20
-1.369
 30
1.9625
 70
    64
  0
VERTEX
  5
CA7E
100
AcDbEntity
  8
0
100
AcDbVertex
100
AcDbPolygonMeshVertex
 10
0.4725
 20
-1.369
 30
1.9625
 70
    64
  0
VERTEX
  5
CA7F
100
AcDbEntity
  8
0
100
AcDbVertex
100
AcDbPolygonMeshVertex
 10
0.4725
 20
-1.549
 30
1.9625
 70
    64
  0
VERTEX
  5
CA80
100
AcDbEntity
  8
0
100
AcDbVertex
100
AcDbPolygonMeshVertex
 10
0.1525
 20
-1.369
 30
1.9625
 70
    64
  0
VERTEX
  5
CA81
100
AcDbEntity
  8
0
100
AcDbVertex
100
AcDbPolygonMeshVertex
 10
0.1525
 20
-1.369
 30
1.9625
 70
    64
  0
VERTEX
  5
CA82
100
AcDbEntity
  8
0
100
AcDbVertex
100
AcDbPolygonMeshVertex
 10
0.1525
 20
-1.549
 30
1.9625
 70
    64
  0
SEQEND
  5
CA83
100
AcDbEntity
  8
0
  0
LINE
  5
CA84
100
AcDbEntity
  8
0
100
AcDbLine
 10
0.4725
 20
-1.549
 30
2.4625
 11
0.4725
 21
-1.549
 31
1.9625
  0
LINE
  5
CA85
100
AcDbEntity
  8
0
100
AcDbLine
 10
0.1525
 20
-1.549
 30
2.4625
 11
0.1525
 21
-1.549
 31
1.9625
  0
3DFACE
  5
CA86
100
AcDbEntity
  8
0
100
AcDbFace
 10
0.1525
 20
-1.549
 30
1.9625
 11
0.1525
 21
-1.269
 31
1.9625
 12
0.1525
 22
-1.269001
 32
2.010736
 13
0.1525
 23
-1.467699
 33
2.194862
 70
    15
  0
3DFACE
  5
CA87
100
AcDbEntity
  8
0
100
AcDbFace
 10
0.1525
 20
-1.467699
 30
2.194862
 11
0.1525
 21
-1.509574
 31
2.4625
 12
0.1525
 22
-1.549
 32
2.4625
 13
0.1525
 23
-1.549
 33
1.9625
 70
    15
  0
3DFACE
  5
CA88
100
AcDbEntity
  8
0
100
AcDbFace
 10
0.4725
 20
-1.549
 30
1.9625
 11
0.4725
 21
-1.269
 31
1.9625
 12
0.4725
 22
-1.269001
 32
2.010736
 13
0.4725
 23
-1.467699
 33
2.194862
 70
    15
  0
3DFACE
  5
CA89
100
AcDbEntity
  8
0
100
AcDbFace
 10
0.4725
 20
-1.467699
 30
2.194862
 11
0.4725
 21
-1.509574
 31
2.4625
 12
0.4725
 22
-1.549
 32
2.4625
 13
0.4725
 23
-1.549
 33
1.9625
 70
    15
  0
3DFACE
  5
CA8A
100
AcDbEntity
  8
0
100
AcDbFace
 10
0.1525
 20
-1.549
 30
2.4625
 11
0.4725
 21
-1.549
 31
2.4625
 12
0.4725
 22
-1.549
 32
1.9625
 13
0.1525
 23
-1.549
 33
1.9625
 70
    15
  0
3DFACE
  5
CA8B
100
AcDbEntity
  8
0
100
AcDbFace
 10
0.4725
 20
-1.467699
 30
2.194862
 11
0.1525
 21
-1.467699
 31
2.194862
 12
0.1525
 22
-1.509574
 32
2.4625
 13
0.4725
 23
-1.509574
 33
2.4625
 70
    15
  0
3DFACE
  5
CA8C
100
AcDbEntity
  8
0
100
AcDbFace
 10
0.1525
 20
-1.467699
 30
2.194862
 11
0.4725
 21
-1.467699
 31
2.194862
 12
0.4725
 22
-1.269001
 32
2.010736
 13
0.1525
 23
-1.269
 33
2.010736
 70
    15
  0
3DFACE
  5
CA8D
100
AcDbEntity
  8
0
100
AcDbFace
 10
0.4725
 20
-1.269
 30
1.9625
 11
0.4725
 21
-1.269001
 31
2.010736
 12
0.1525
 22
-1.269
 32
2.010736
 13
0.1525
 23
-1.269
 33
1.9625
 70
    15
  0
3DFACE
  5
CA8E
100
AcDbEntity
  8
0
100
AcDbFace
 10
0.1525
 20
-1.549
 30
2.4625
 11
0.4725
 21
-1.549
 31
2.4625
 12
0.4725
 22
-1.509574
 32
2.4625
 13
0.1525
 23
-1.509574
 33
2.4625
 70
    15
  0
3DFACE
  5
CA8F
100
AcDbEntity
  8
0
100
AcDbFace
 10
0.4725
 20
-1.369
 30
1.9625
 11
0.4725
 21
-1.269
 31
1.9625
 12
0.1525
 22
-1.269
 32
1.9625
 13
0.1525
 23
-1.369
 33
1.9625
 70
    15
  0
CIRCLE
  5
CA90
100
AcDbEntity
  8
0
100
AcDbCircle
 10
0.153453
 20
0.387157
 30
1.3125
 40
0.109375
  0
CIRCLE
  5
CA91
100
AcDbEntity
  8
0
100
AcDbCircle
 10
0.471547
 20
0.7925
 30
0.8125
 40
0.109375
  0
CIRCLE
  5
CA92
100
AcDbEntity
  8
0
100
AcDbCircle
 10
0.153453
 20
0.7925
 30
0.8125
 40
0.109375
  0
CIRCLE
  5
CA93
100
AcDbEntity
  8
0
100
AcDbCircle
 10
0.468278
 20
0.007151
 30
1.8725
 40
0.109375
  0
CIRCLE
  5
CA94
100
AcDbEntity
  8
0
100
AcDbCircle
 10
0.150184
 20
0.007151
 30
1.8725
 40
0.109375
  0
TEXT
  5
CA95
100
AcDbEntity
  8
0
100
AcDbText
 10
0.0329
 20
0.912373
 30
0.8125
 40
0.045
  1
21
100
AcDbText
  0
TEXT
  5
CA96
100
AcDbEntity
  8
0
100
AcDbText
 10
0.542285
 20
0.914469
 30
0.8125
 40
0.045
  1
11
100
AcDbText
  0
TEXT
  5
CA97
100
AcDbEntity
  8
0
100
AcDbText
 10
0.037092
 20
0.623233
 30
0.8125
 40
0.045
  1
6
100
AcDbText
  0
TEXT
  5
CA98
100
AcDbEntity
  8
0
100
AcDbText
 10
0.556959
 20
0.625329
 30
0.8125
 40
0.045
  1
3
100
AcDbText
  0
TEXT
  5
CA99
100
AcDbEntity
  8
0
100
AcDbText
 10
0.517477
 20
0.522543
 30
1.375
 40
0.045
  1
12
100
AcDbText
  0
TEXT
  5
CA9A
100
AcDbEntity
  8
0
100
AcDbText
 10
0.534247
 20
0.216641
 30
1.375
 40
0.045
  1
2
100
AcDbText
  0
TEXT
  5
CA9B
100
AcDbEntity
  8
0
100
AcDbText
 10
0.037439
 20
0.214546
 30
1.375
 40
0.045
  1
7
100
AcDbText
  0
TEXT
  5
CA9C
100
AcDbEntity
  8
0
100
AcDbText
 10
0.03115
 20
0.522543
 30
1.375
 40
0.045
  1
22
100
AcDbText
  0
TEXT
  5
CA9D
100
AcDbEntity
  8
0
100
AcDbText
 10
0.545049
 20
-0.181783
 30
1.8725
 40
0.045
  1
4
100
AcDbText
  0
TEXT
  5
CA9E
100
AcDbEntity
  8
0
100
AcDbText
 10
0.521991
 20
0.1325
 30
1.8725
 40
0.045
  1
14
100
AcDbText
  0
TEXT
  5
CA9F
100
AcDbEntity
  8
0
100
AcDbText
 10
0.031471
 20
0.1325
 30
1.8725
 40
0.045
  1
24
100
AcDbText
  0
TEXT
  5
CAA0
100
AcDbEntity
  8
0
100
AcDbText
 10
0.035664
 20
-0.183878
 30
1.8725
 40
0.045
  1
5
100
AcDbText
  0
LINE
  5
CAA1
100
AcDbEntity
  8
0
100
AcDbLine
 10
0.376788
 20
-0.495558
 30
1.2125
 11
0.505208
 21
-0.495558
 31
1.2125
  0
LINE
  5
CAA2
100
AcDbEntity
  8
0
100
AcDbLine
 10
0.376788
 20
-0.328771
 30
1.2125
 11
0.505208
 21
-0.328771
 31
1.2125
  0
LINE
  5
CAA3
100
AcDbEntity
  8
0
100
AcDbLine
 10
0.376788
 20
-0.649515
 30
1.2125
 11
0.505208
 21
-0.649515
 31
1.2125
  0
LINE
  5
CAA4
100
AcDbEntity
  8
0
100
AcDbLine
 10
0.248212
 20
-0.495558
 30
1.2125
 11
0.119792
 21
-0.495558
 31
1.2125
  0
LINE
  5
CAA5
100
AcDbEntity
  8
0
100
AcDbLine
 10
0.248212
 20
-0.328771
 30
1.2125
 11
0.119792
 21
-0.328771
 31
1.2125
  0
LINE
  5
CAA6
100
AcDbEntity
  8
0
100
AcDbLine
 10
0.248212
 20
-0.649515
 30
1.2125
 11
0.119792
 21
-0.649515
 31
1.2125
  0
LINE
  5
CAA7
100
AcDbEntity
  8
0
100
AcDbLine
 10
0.466604
 20
-1.066262
 30
1.2125
 11
0.466604
 21
-1.194682
 31
1.2125
  0
LINE
  5
CAA8
100
AcDbEntity
  8
0
100
AcDbLine
 10
0.158396
 20
-1.066262
 30
1.2125
 11
0.158396
 21
-1.194682
 31
1.2125
  0
ATTDEF
  5
CAA9
100
AcDbEntity
  8
ATTRIBUTES
100
AcDbText
 10
0.006373
 20
-0.279377
 30
0.0
 40
0.046923
  1
ALLEN-BRADLEY
100
AcDbAttributeDefinition
  3
Manufacturer name
  2
AC_VND_LABEL
 70
     1
  0
ATTDEF
  5
CAAA
100
AcDbEntity
  8
ATTRIBUTES
100
AcDbText
 10
0.006373
 20
-0.349723
 30
0.0
 40
0.046923
  1
700-HN122
100
AcDbAttributeDefinition
  3
Manufacturer part number
  2
AC_PART_NO
 70
     1
  0
ATTDEF
  5
CAAB
100
AcDbEntity
  8
ATTRIBUTES
100
AcDbText
 10
0.006373
 20
-0.420069
 30
0.0
 40
0.046923
  1
CONTROL RELAY; GENERAL PURPOSE SOCKET; MINI 8 BLADE
100
AcDbAttributeDefinition
  3
Manufacturer part description
  2
AC_DESCRIPTION
 70
     1
  0
ATTDEF
  5
CAAC
100
AcDbEntity
  8
ATTRIBUTES
100
AcDbText
 10
0.006373
 20
-0.490415
 30
0.0
 40
0.046923
  1

100
AcDbAttributeDefinition
  3
Device ID
  2
DEVICE_ID
 70
     1
  0
ATTDEF
  5
CAAD
100
AcDbEntity
  8
ATTRIBUTES
100
AcDbText
 10
0.006373
 20
-0.560761
 30
0.0
 40
0.046923
  1

100
AcDbAttributeDefinition
  3
Customer part number
  2
AC_CPART_NO
 70
     1
  0
ATTDEF
  5
CAAE
100
AcDbEntity
  8
ATTRIBUTES
100
AcDbText
 10
0.006373
 20
-0.631107
 30
0.0
 40
0.046923
  1

100
AcDbAttributeDefinition
  3
Customer note
  2
AC_NOTE
 70
     1
  0
ATTDEF
  5
CAAF
100
AcDbEntity
  8
ATTRIBUTES
100
AcDbText
 10
0.006373
 20
-0.701453
 30
0.0
 40
0.046923
  1

100
AcDbAttributeDefinition
  3
Fastener Data
  2
FASTENER
 70
     1
  0
ATTDEF
  5
CAB0
100
AcDbEntity
  8
ATTRIBUTES
100
AcDbText
 10
0.006373
 20
-0.771799
 30
0.0
 40
0.046923
  1
INCH
100
AcDbAttributeDefinition
  3
Unit of scale (meter, mm, or inch)
  2
AC_SCALE_UNIT
 70
     1
  0
ATTDEF
  5
CAB1
100
AcDbEntity
  8
ATTRIBUTES
100
AcDbText
 10
0.006373
 20
-0.842145
 30
0.0
 40
0.046923
  1
0
100
AcDbAttributeDefinition
  3
View code (top, front, right, etc.)
  2
AC_VIEW_CODE
 70
     1
  0
POLYLINE
  5
CAB2
100
AcDbEntity
  8
0
100
AcDbPolygonMesh
 66
     1
 10
0.0
 20
0.0
 30
0.0
 70
    16
 71
     6
 72
     3
  0
VERTEX
  5
CAB3
100
AcDbEntity
  8
0
100
AcDbVertex
100
AcDbPolygonMeshVertex
 10
0.625
 20
-1.38
 30
0.187
 70
    64
  0
VERTEX
  5
CAB4
100
AcDbEntity
  8
0
100
AcDbVertex
100
AcDbPolygonMeshVertex
 10
0.625
 20
-1.38
 30
0.0
 70
    64
  0
VERTEX
  5
CAB5
100
AcDbEntity
  8
0
100
AcDbVertex
100
AcDbPolygonMeshVertex
 10
0.625
 20
-1.38
 30
0.0
 70
    64
  0
VERTEX
  5
CAB6
100
AcDbEntity
  8
0
100
AcDbVertex
100
AcDbPolygonMeshVertex
 10
0.0
 20
-1.38
 30
0.187
 70
    64
  0
VERTEX
  5
CAB7
100
AcDbEntity
  8
0
100
AcDbVertex
100
AcDbPolygonMeshVertex
 10
0.0
 20
-1.38
 30
0.0
 70
    64
  0
VERTEX
  5
CAB8
100
AcDbEntity
  8
0
100
AcDbVertex
100
AcDbPolygonMeshVertex
 10
0.0
 20
-1.38
 30
0.0
 70
    64
  0
VERTEX
  5
CAB9
100
AcDbEntity
  8
0
100
AcDbVertex
100
AcDbPolygonMeshVertex
 10
0.0
 20
0.0
 30
0.187
 70
    64
  0
VERTEX
  5
CABA
100
AcDbEntity
  8
0
100
AcDbVertex
100
AcDbPolygonMeshVertex
 10
0.0
 20
0.0
 30
0.0
 70
    64
  0
VERTEX
  5
CABB
100
AcDbEntity
  8
0
100
AcDbVertex
100
AcDbPolygonMeshVertex
 10
0.0
 20
-1.38
 30
0.0
 70
    64
  0
VERTEX
  5
CABC
100
AcDbEntity
  8
0
100
AcDbVertex
100
AcDbPolygonMeshVertex
 10
0.625
 20
0.0
 30
0.187
 70
    64
  0
VERTEX
  5
CABD
100
AcDbEntity
  8
0
100
AcDbVertex
100
AcDbPolygonMeshVertex
 10
0.625
 20
0.0
 30
0.0
 70
    64
  0
VERTEX
  5
CABE
100
AcDbEntity
  8
0
100
AcDbVertex
100
AcDbPolygonMeshVertex
 10
0.625
 20
-1.38
 30
0.0
 70
    64
  0
VERTEX
  5
CABF
100
AcDbEntity
  8
0
100
AcDbVertex
100
AcDbPolygonMeshVertex
 10
0.625
 20
0.0
 30
0.187
 70
    64
  0
VERTEX
  5
CAC0
100
AcDbEntity
  8
0
100
AcDbVertex
100
AcDbPolygonMeshVertex
 10
0.625
 20
0.0
 30
0.187
 70
    64
  0
VERTEX
  5
CAC1
100
AcDbEntity
  8
0
100
AcDbVertex
100
AcDbPolygonMeshVertex
 10
0.625
 20
-1.38
 30
0.187
 70
    64
  0
VERTEX
  5
CAC2
100
AcDbEntity
  8
0
100
AcDbVertex
100
AcDbPolygonMeshVertex
 10
0.0
 20
0.0
 30
0.187
 70
    64
  0
VERTEX
  5
CAC3
100
AcDbEntity
  8
0
100
AcDbVertex
100
AcDbPolygonMeshVertex
 10
0.0
 20
0.0
 30
0.187
 70
    64
  0
VERTEX
  5
CAC4
100
AcDbEntity
  8
0
100
AcDbVertex
100
AcDbPolygonMeshVertex
 10
0.0
 20
-1.38
 30
0.187
 70
    64
  0
SEQEND
  5
CAC5
100
AcDbEntity
  8
0
  0
POINT
  5
CAC6
100
AcDbEntity
  8
DIMS-MTG-HOLES
100
AcDbPoint
 10
0.0
 20
0.0
 30
0.0
  0
POINT
  5
CAC7
100
AcDbEntity
  8
DIMS-MTG-HOLES
100
AcDbPoint
 10
0.3125
 20
-0.84
 30
0.0
  0
DIMENSION
  5
CAC8
100
AcDbEntity
  8
AREA1
100
AcDbDimension
  2
*D0
 10
-0.674619
 20
-2.51625
 30
0.0
 11
-0.674619
 21
-0.82226
 31
0.0
 70
   160
  3
ABECAD_3D
100
AcDbAlignedDimension
 13
0.0
 23
0.98
 33
0.0
 14
0.1225
 24
-2.51625
 34
0.0
 50
90.0
100
AcDbRotatedDimension
  0
DIMENSION
  5
CAC9
100
AcDbEntity
  8
AREA1
100
AcDbDimension
  2
*D1
 10
0.625
 20
1.328728
 30
0.0
 11
0.283422
 21
1.668854
 31
0.0
 70
   160
  3
ABECAD_3D
100
AcDbAlignedDimension
 13
0.0
 23
0.98
 33
0.0
 14
0.625
 24
0.98
 34
0.0
100
AcDbRotatedDimension
  0
LWPOLYLINE
  5
CACA
100
AcDbEntity
  8
SCALE
100
AcDbPolyline
 90
        4
 70
     1
 43
0.0
 10
-0.213134
 20
-2.658697
 10
0.922494
 20
-2.658697
 10
0.922494
 20
-3.500306
 10
-0.213134
 20
-3.500306
  0
LINE
  5
CACB
100
AcDbEntity
  8
SCALE
100
AcDbLine
 10
-0.155136
 20
-3.038775
 30
0.0
 11
0.844864
 21
-3.038775
 31
0.0
  0
LINE
  5
CACC
100
AcDbEntity
  8
SCALE
100
AcDbLine
 10
-0.155136
 20
-3.338775
 30
0.0
 11
0.238564
 21
-3.338775
 31
0.0
  0
LINE
  5
CACD
100
AcDbEntity
  8
SCALE
100
AcDbLine
 10
-0.155136
 20
-3.138775
 30
0.0
 11
-0.155136
 21
-2.938775
 31
0.0
  0
TEXT
  5
CACE
100
AcDbEntity
  8
SCALE
100
AcDbText
 10
-0.09916
 20
-3.29109
 30
0.0
 40
0.0625
  1
[10mm]
100
AcDbText
  0
LINE
  5
CACF
100
AcDbEntity
  8
SCALE
100
AcDbLine
 10
-0.155136
 20
-3.438775
 30
0.0
 11
-0.155136
 21
-3.238775
 31
0.0
  0
TEXT
  5
CAD0
100
AcDbEntity
  8
SCALE
100
AcDbText
 10
-0.153606
 20
-2.763898
 30
0.0
 40
0.0625
  1
SCALE:
100
AcDbText
  0
LINE
  5
CAD1
100
AcDbEntity
  8
SCALE
100
AcDbLine
 10
0.238564
 20
-3.438775
 30
0.0
 11
0.238564
 21
-3.238775
 31
0.0
  0
TEXT
  5
CAD2
100
AcDbEntity
  8
SCALE
100
AcDbText
 10
0.208147
 20
-2.969726
 30
0.0
 40
0.0625
  1
1 Inch
100
AcDbText
  0
LINE
  5
CAD3
100
AcDbEntity
  8
SCALE
100
AcDbLine
 10
0.844864
 20
-3.038775
 30
0.0
 11
0.844864
 21
-3.138775
 31
0.0
  0
LINE
  5
CAD4
100
AcDbEntity
  8
SCALE
100
AcDbLine
 10
0.844864
 20
-3.138775
 30
0.0
 11
0.844864
 21
-2.938775
 31
0.0
  0
DIMENSION
  5
CB01
100
AcDbEntity
  8
AREA2
100
AcDbDimension
  2
*D2
 10
-0.601335
 20
0.0
 30
0.0
 11
-0.601335
 21
1.243133
 31
0.0
 70
   160
210
0.0
220
-1.0
230
0.0
  3
ABECAD_3V
100
AcDbAlignedDimension
 13
0.1525
 23
-1.509574
 33
2.4625
 14
0.0
 24
0.0
 34
0.0
 50
90.0
100
AcDbRotatedDimension
1001
ACAD
1000
DSTYLE
1002
{
1070
    40
1040
1.0
1002
}
  0
VIEWPORT
  5
2C
102
{ACAD_XDICTIONARY
360
CBA3
102
}
100
AcDbEntity
 67
     1
  8
0
100
AcDbViewport
 10
4.999849
 20
3.750155
 30
0.0
 40
13.400877
 41
7.587914
 68
     1
 69
     1
1001
ACAD
1000
MVIEW
1002
{
1070
    16
1010
0.0
1020
0.0
1030
0.0
1010
0.0
1020
0.0
1030
1.0
1040
0.0
1040
7.587914
1040
4.999849
1040
3.750155
1040
50.0
1040
0.0
1040
0.0
1070
     0
1070
   100
1070
     1
1070
     1
1070
     0
1070
     0
1070
     0
1070
     0
1040
0.0
1040
0.0
1040
0.0
1040
1.0
1040
1.0
1040
0.0
1040
0.0
1070
     0
1002
{
1002
}
1002
}
  0
VIEWPORT
  5
2D
102
{ACAD_XDICTIONARY
360
CBA5
102
}
100
AcDbEntity
 67
     1
  8
0
100
AcDbViewport
 10
2.5
 20
5.625
 30
0.0
 40
5.0
 41
3.75
 68
     3
 69
     2
1001
ACAD
1000
MVIEW
1002
{
1070
    16
1010
0.0
1020
0.0
1030
0.0
1010
0.0
1020
0.0
1030
1.0
1040
0.0
1040
5.17124
1040
0.184474
1040
-0.634118
1040
50.0
1040
0.0
1040
0.0
1070
     0
1070
   100
1070
     1
1070
     0
1070
     0
1070
     0
1070
     0
1070
     0
1040
0.0
1040
0.0
1040
0.0
1040
1.0
1040
1.0
1040
0.0
1040
0.0
1070
     0
1002
{
1003
AREA2
1002
}
1002
}
  0
VIEWPORT
  5
2E
102
{ACAD_XDICTIONARY
360
CBA7
102
}
100
AcDbEntity
 67
     1
  8
0
100
AcDbViewport
 10
2.5
 20
1.875
 30
0.0
 40
5.0
 41
3.75
 68
     2
 69
     3
1001
ACAD
1000
MVIEW
1002
{
1070
    16
1010
0.0
1020
0.0
1030
0.0
1010
0.0
1020
-1.0
1030
0.0
1040
0.0
1040
4.590757
1040
0.184474
1040
1.23125
1040
50.0
1040
0.0
1040
0.0
1070
     0
1070
   100
1070
     1
1070
     0
1070
     0
1070
     0
1070
     0
1070
     0
1040
0.0
1040
0.0
1040
0.0
1040
1.0
1040
1.0
1040
0.0
1040
0.0
1070
     0
1002
{
1003
AREA1
1002
}
1002
}
  0
VIEWPORT
  5
2F
102
{ACAD_XDICTIONARY
360
CBA9
102
}
100
AcDbEntity
 67
     1
  8
0
100
AcDbViewport
 10
7.5
 20
3.75
 30
0.0
 40
5.0
 41
7.5
 68
     4
 69
     4
1001
ACAD
1000
MVIEW
1002
{
1070
    16
1010
0.0
1020
0.0
1030
0.0
1010
-1.0
1020
-1.0
1030
1.0
1040
0.0
1040
7.473997
1040
0.787787
1040
0.701105
1040
50.0
1040
0.0
1040
0.0
1070
     0
1070
   100
1070
     1
1070
     0
1070
     0
1070
     0
1070
     0
1070
     0
1040
0.0
1040
0.0
1040
0.0
1040
1.0
1040
1.0
1040
0.0
1040
0.0
1070
     0
1002
{
1003
AREA1
1003
AREA2
1002
}
1002
}
  0
TEXT
  5
42D
100
AcDbEntity
 67
     1
  8
0
100
AcDbText
 10
5.253785
 20
7.092701
 30
0.0
 40
0.2
  1
700-HN112
100
AcDbText
  0
TEXT
  5
431
100
AcDbEntity
 67
     1
  8
0
100
AcDbText
 10
5.253785
 20
6.759368
 30
0.0
 40
0.2
  1
CONTROL RELAY; GENERAL 
100
AcDbText
1001
ACAD
1000
R13OBJECT
1002
{
1005
42D
1002
}
  0
TEXT
  5
BD09
100
AcDbEntity
 67
     1
  8
0
100
AcDbText
 10
5.253785
 20
6.40835
 30
0.0
 40
0.2
  1
PURPOSE SOCKET; MINI 8
100
AcDbText
1001
ACAD
1000
R13OBJECT
1002
{
1005
42D
1002
}
  0
TEXT
  5
C846
100
AcDbEntity
 67
     1
  8
0
100
AcDbText
 10
5.253785
 20
6.057332
 30
0.0
 40
0.2
  1
BLADE
100
AcDbText
1001
ACAD
1000
R13OBJECT
1002
{
1005
42D
1002
}
  0
ENDSEC
  0
SECTION
  2
OBJECTS
  0
DICTIONARY
  5
46D
100
AcDbDictionary
  3
ACAD_GROUP
350
46E
  3
ACAD_LAYOUT
350
49E
  3
ACAD_MLINESTYLE
350
47B
  3
ACAD_PLOTSETTINGS
350
49F
  3
ACAD_PLOTSTYLENAME
350
49C
  3
ACDBHEADERROUNDTRIPXREC
350
CB82
  3
ACDBVARIABLEDICTIONARY
350
48D
  0
DICTIONARY
  5
CB80
100
AcDbDictionary
280
     1
  3
ACAD_XREC_ROUNDTRIP
360
CB81
  0
DICTIONARY
  5
CBAD
100
AcDbDictionary
280
     1
  3
ACAD_XREC_ROUNDTRIP
360
CBAE
  0
DICTIONARY
  5
CBAF
100
AcDbDictionary
280
     1
  3
ACAD_XREC_ROUNDTRIP
360
CBB0
  0
DICTIONARY
  5
CBB3
100
AcDbDictionary
280
     1
  3
ACAD_XREC_ROUNDTRIP
360
CBB4
  0
DICTIONARY
  5
4D2
100
AcDbDictionary
280
     1
  3
ACAD_LAYOUTSELFREF
360
CBAC
  0
DICTIONARY
  5
4D0
100
AcDbDictionary
280
     1
  3
ACAD_LAYOUTSELFREF
360
CBAB
  0
DICTIONARY
  5
CBA3
100
AcDbDictionary
280
     1
  3
ACAD_XREC_ROUNDTRIP
360
CBA4
  0
DICTIONARY
  5
CBA5
100
AcDbDictionary
280
     1
  3
ACAD_XREC_ROUNDTRIP
360
CBA6
  0
DICTIONARY
  5
CBA7
100
AcDbDictionary
280
     1
  3
ACAD_XREC_ROUNDTRIP
360
CBA8
  0
DICTIONARY
  5
CBA9
100
AcDbDictionary
280
     1
  3
ACAD_XREC_ROUNDTRIP
360
CBAA
  0
DICTIONARY
  5
46E
102
{ACAD_REACTORS
330
46D
102
}
100
AcDbDictionary
  0
DICTIONARY
  5
49E
102
{ACAD_XDICTIONARY
360
CBB1
102
}
102
{ACAD_REACTORS
330
46D
102
}
100
AcDbDictionary
  3
LAYOUT1
350
4A1
  3
MODEL
350
4A0
  0
DICTIONARY
  5
47B
102
{ACAD_REACTORS
330
46D
102
}
100
AcDbDictionary
  3
STANDARD
350
47C
  0
DICTIONARY
  5
49F
102
{ACAD_REACTORS
330
46D
102
}
100
AcDbDictionary
  0
ACAD_PROXY_OBJECT
  5
49C
102
{ACAD_REACTORS
330
46D
102
}
100
AcDbProxyObject
 90
      499
 91
      501
 93
       86
310
405010041939BDC9B585B0
350
49D
340
49D
 94
        0
  0
DICTIONARY
  5
CB82
102
{ACAD_REACTORS
330
46D
102
}
100
AcDbDictionary
  3
CEPSNTYPE
350
CB8C
  3
DIMSTYLEDATA
350
CB90
  3
FINGERPRINTGUID
350
CB8D
  3
HYPERLINKBASE
350
CB85
  3
INSUNITS
350
CB8B
  3
LAYOUTDICT
350
CB87
  3
LWETCUNION
350
CB8A
  3
PLOTSETDICT
350
CB88
  3
PLOTSTYLNAMDICT
350
CB89
  3
PSVPSCALE
350
CB8F
  3
PUCSBASE
350
CB93
  3
PUCSORGBACK
350
CB99
  3
PUCSORGBOTTOM
350
CB95
  3
PUCSORGFRONT
350
CB98
  3
PUCSORGLEFT
350
CB96
  3
PUCSORGRIGHT
350
CB97
  3
PUCSORGTOP
350
CB94
  3
PUCSORTHOREF
350
CB91
  3
PUCSORTHOVIEW
350
CB92
  3
STYLESHEET
350
CB86
  3
TSTACKALIGN
350
CB83
  3
TSTACKSIZE
350
CB84
  3
UCSBASE
350
CB9C
  3
UCSORGBACK
350
CBA2
  3
UCSORGBOTTOM
350
CB9E
  3
UCSORGFRONT
350
CBA1
  3
UCSORGLEFT
350
CB9F
  3
UCSORGRIGHT
350
CBA0
  3
UCSORGTOP
350
CB9D
  3
UCSORTHOREF
350
CB9A
  3
UCSORTHOVIEW
350
CB9B
  3
VERSIONGUID
350
CB8E
  0
DICTIONARY
  5
48D
102
{ACAD_REACTORS
330
46D
102
}
100
AcDbDictionary
  3
DIMADEC
350
48E
  0
XRECORD
  5
CB81
102
{ACAD_REACTORS
330
CB80
102
}
100
AcDbXrecord
102
EXTNAMES
  1
*ACTIVE
  2
*Active
102
UCS
 74
     0
 71
     1
 10
0.0
 20
0.0
 30
0.0
 10
1.0
 20
0.0
 30
0.0
 10
0.0
 20
1.0
 30
0.0
146
0.0
 79
     1
102
VIEW
281
     1
  0
XRECORD
  5
CBAE
102
{ACAD_REACTORS
330
CBAD
102
}
100
AcDbXrecord
102
PLOTBIT
280
     0
  0
XRECORD
  5
CBB0
102
{ACAD_REACTORS
330
CBAF
102
}
100
AcDbXrecord
102
ACADR14ROUNDTRIP
1000
DSTYLE
1002
{
1070
   276
 70
     2
1070
   277
 70
     5
1070
   279
 70
     2
1002
}
  0
XRECORD
  5
CBB4
102
{ACAD_REACTORS
330
CBB3
102
}
100
AcDbXrecord
102
ACADR14ROUNDTRIP
1000
DSTYLE
1002
{
1070
   276
 70
     2
1070
   277
 70
     5
1070
   279
 70
     2
1070
   289
 70
     2
1002
}
  0
XRECORD
  5
CBAC
102
{ACAD_REACTORS
330
4D2
102
}
100
AcDbXrecord
340
478
  0
XRECORD
  5
CBAB
102
{ACAD_REACTORS
330
4D0
102
}
100
AcDbXrecord
340
475
  0
XRECORD
  5
CBA4
102
{ACAD_REACTORS
330
CBA3
102
}
100
AcDbXrecord
102
UCS
 74
     0
 71
     1
 10
0.0
 20
0.0
 30
0.0
 10
1.0
 20
0.0
 30
0.0
 10
0.0
 20
1.0
 30
0.0
146
0.0
 79
     0
102
VIEW
281
     0
102
NEWVIEWCONTROL
280
     4
  0
XRECORD
  5
CBA6
102
{ACAD_REACTORS
330
CBA5
102
}
100
AcDbXrecord
102
UCS
 74
     0
 71
     1
 10
0.0
 20
0.0
 30
0.0
 10
1.0
 20
0.0
 30
0.0
 10
0.0
 20
1.0
 30
0.0
146
0.0
 79
     1
102
VIEW
281
     0
102
NEWVIEWCONTROL
280
     4
  0
XRECORD
  5
CBA8
102
{ACAD_REACTORS
330
CBA7
102
}
100
AcDbXrecord
102
UCS
 74
     0
 71
     1
 10
0.0
 20
0.0
 30
0.0
 10
1.0
 20
0.0
 30
0.0
 10
0.0
 20
0.0
 30
1.0
146
0.0
 79
     3
102
VIEW
281
     0
102
NEWVIEWCONTROL
280
     4
  0
XRECORD
  5
CBAA
102
{ACAD_REACTORS
330
CBA9
102
}
100
AcDbXrecord
102
UCS
 74
     0
 71
     1
 10
0.0
 20
0.0
 30
0.0
 10
1.0
 20
0.0
 30
0.0
 10
0.0
 20
1.0
 30
0.0
146
0.0
 79
     0
102
VIEW
281
     0
102
NEWVIEWCONTROL
280
     4
  0
DICTIONARY
  5
CBB1
100
AcDbDictionary
280
     1
  3
ACAD_XREC_ROUNDTRIP
360
CBB2
  0
ACAD_PROXY_OBJECT
  5
4A1
102
{ACAD_REACTORS
330
49E
102
}
100
AcDbProxyObject
 90
      499
 91
      503
 93
     2044
310
91D4850204C617365724A65742035303030205365726965732050434C20362C008000000C0BB1B1440000000102F06C510000000000BC1B1440000000002E06C5100000000C0CCFC6A4000000018199D9C501064C6574746572A901406AA427D84144352EEE3F47D11959985D5B1D08148C4D081C195B88185CDCDA59DB9B5
310
95B9D1CCB98DD18A30EDE3B1BBFDBC0FC1D572C8D6D0C833F1A2B3054E9249F0FD074C61796F75743140501A97D7DB4AA43C31EFF91E46EBA53B71EFD1B32A15809809100B2537F8EAD447D02A6A6A00200C0093BD106FC0000F06EE366FABE00201F20307FD62FC4424FF2920002440160B7F435600079000000004000C06
310
23E0
330
475
330
2C
340
0
340
0
 94
        0
  0
ACAD_PROXY_OBJECT
  5
4A0
102
{ACAD_REACTORS
330
49E
102
}
100
AcDbProxyObject
 90
      499
 91
      503
 93
      924
310
91D4850204C617365724A65742035303030205365726965732050434C20362C01AAAAAAAAA547D11959985D5B1D08148C4D081C195B88185CDCDA59DB9B595B9D1CCB98DD18A69054D6F64656C901A800000000000000000000000000000000000000000000A1000000000000008902A6A6AAAAF
330
478
330
0
340
0
340
0
 94
        0
  0
MLINESTYLE
  5
47C
102
{ACAD_REACTORS
330
47B
102
}
100
AcDbMlineStyle
  2
STANDARD
 70
     0
  3

 62
   256
 51
90.0
 52
90.0
 71
     2
 49
0.5
 62
   256
  6
BYLAYER
 49
-0.5
 62
   256
  6
BYLAYER
  0
ACAD_PROXY_OBJECT
  5
49D
102
{ACAD_REACTORS
330
49C
102
}
100
AcDbProxyObject
 90
      499
 91
      502
 93
        0
 94
        0
  0
XRECORD
  5
CB8C
102
{ACAD_REACTORS
330
CB82
102
}
100
AcDbXrecord
 90
        0
  0
XRECORD
  5
CB90
102
{ACAD_REACTORS
330
CB82
102
}
100
AcDbXrecord
1000
DSTYLE
1002
{
1070
   276
 70
     2
1070
   277
 70
     5
1070
   279
 70
     2
1002
}
  0
XRECORD
  5
CB8D
102
{ACAD_REACTORS
330
CB82
102
}
100
AcDbXrecord
  1
{6E0CF4B5-225E-11D4-A150-00A0CC3303EC}
  0
XRECORD
  5
CB85
102
{ACAD_REACTORS
330
CB82
102
}
100
AcDbXrecord
  1

  0
XRECORD
  5
CB8B
102
{ACAD_REACTORS
330
CB82
102
}
100
AcDbXrecord
 90
        0
  0
XRECORD
  5
CB87
102
{ACAD_REACTORS
330
CB82
102
}
100
AcDbXrecord
340
49E
  0
XRECORD
  5
CB8A
102
{ACAD_REACTORS
330
CB82
102
}
100
AcDbXrecord
 90
    14877
  0
XRECORD
  5
CB88
102
{ACAD_REACTORS
330
CB82
102
}
100
AcDbXrecord
340
49F
  0
XRECORD
  5
CB89
102
{ACAD_REACTORS
330
CB82
102
}
100
AcDbXrecord
340
49C
  0
XRECORD
  5
CB8F
102
{ACAD_REACTORS
330
CB82
102
}
100
AcDbXrecord
 40
0.0
  0
XRECORD
  5
CB93
102
{ACAD_REACTORS
330
CB82
102
}
100
AcDbXrecord
340
0
  0
XRECORD
  5
CB99
102
{ACAD_REACTORS
330
CB82
102
}
100
AcDbXrecord
 10
0.0
 20
0.0
 30
0.0
  0
XRECORD
  5
CB95
102
{ACAD_REACTORS
330
CB82
102
}
100
AcDbXrecord
 10
0.0
 20
0.0
 30
0.0
  0
XRECORD
  5
CB98
102
{ACAD_REACTORS
330
CB82
102
}
100
AcDbXrecord
 10
0.0
 20
0.0
 30
0.0
  0
XRECORD
  5
CB96
102
{ACAD_REACTORS
330
CB82
102
}
100
AcDbXrecord
 10
0.0
 20
0.0
 30
0.0
  0
XRECORD
  5
CB97
102
{ACAD_REACTORS
330
CB82
102
}
100
AcDbXrecord
 10
0.0
 20
0.0
 30
0.0
  0
XRECORD
  5
CB94
102
{ACAD_REACTORS
330
CB82
102
}
100
AcDbXrecord
 10
0.0
 20
0.0
 30
0.0
  0
XRECORD
  5
CB91
102
{ACAD_REACTORS
330
CB82
102
}
100
AcDbXrecord
340
0
  0
XRECORD
  5
CB92
102
{ACAD_REACTORS
330
CB82
102
}
100
AcDbXrecord
 70
     0
  0
XRECORD
  5
CB86
102
{ACAD_REACTORS
330
CB82
102
}
100
AcDbXrecord
  1

  0
XRECORD
  5
CB83
102
{ACAD_REACTORS
330
CB82
102
}
100
AcDbXrecord
 90
        1
  0
XRECORD
  5
CB84
102
{ACAD_REACTORS
330
CB82
102
}
100
AcDbXrecord
 90
       70
  0
XRECORD
  5
CB9C
102
{ACAD_REACTORS
330
CB82
102
}
100
AcDbXrecord
340
0
  0
XRECORD
  5
CBA2
102
{ACAD_REACTORS
330
CB82
102
}
100
AcDbXrecord
 10
0.0
 20
0.0
 30
0.0
  0
XRECORD
  5
CB9E
102
{ACAD_REACTORS
330
CB82
102
}
100
AcDbXrecord
 10
0.0
 20
0.0
 30
0.0
  0
XRECORD
  5
CBA1
102
{ACAD_REACTORS
330
CB82
102
}
100
AcDbXrecord
 10
0.0
 20
0.0
 30
0.0
  0
XRECORD
  5
CB9F
102
{ACAD_REACTORS
330
CB82
102
}
100
AcDbXrecord
 10
0.0
 20
0.0
 30
0.0
  0
XRECORD
  5
CBA0
102
{ACAD_REACTORS
330
CB82
102
}
100
AcDbXrecord
 10
0.0
 20
0.0
 30
0.0
  0
XRECORD
  5
CB9D
102
{ACAD_REACTORS
330
CB82
102
}
100
AcDbXrecord
 10
0.0
 20
0.0
 30
0.0
  0
XRECORD
  5
CB9A
102
{ACAD_REACTORS
330
CB82
102
}
100
AcDbXrecord
340
0
  0
XRECORD
  5
CB9B
102
{ACAD_REACTORS
330
CB82
102
}
100
AcDbXrecord
 70
     1
  0
XRECORD
  5
CB8E
102
{ACAD_REACTORS
330
CB82
102
}
100
AcDbXrecord
  1
{65AF338E-FCF5-4EE7-9FBE-B21745055DB9}
  0
DICTIONARYVAR
  5
48E
102
{ACAD_REACTORS
330
48D
102
}
100
DictionaryVariables
280
     0
  1
0
  0
XRECORD
  5
CBB2
102
{ACAD_REACTORS
330
CBB1
102
}
100
AcDbXrecord
102
EXTNAMES
  1
LAYOUT1
  2
Layout1
  1
MODEL
  2
Model
  0
ENDSEC
  0
EOF
