  0
SECTION
  2
HEADER
  9
$ACADVER
  1
AC1014
  9
$ACADMAINTVER
 70
     8
  9
$DWGCODEPAGE
  3
ANSI_1252
  9
$INSBASE
 10
0.0
 20
0.0
 30
0.0
  9
$EXTMIN
 10
-1.040542
 20
-2.673948
 30
0.0
  9
$EXTMAX
 10
1.58
 20
1.303738
 30
0.97
  9
$LIMMIN
 10
0.0
 20
0.0
  9
$LIMMAX
 10
12.0
 20
9.0
  9
$ORTHOMODE
 70
     0
  9
$REGENMODE
 70
     1
  9
$FILLMODE
 70
     1
  9
$QTEXTMODE
 70
     0
  9
$MIRRTEXT
 70
     1
  9
$DRAGMODE
 70
     2
  9
$LTSCALE
 40
1.0
  9
$OSMODE
 70
    37
  9
$ATTMODE
 70
     1
  9
$TEXTSIZE
 40
0.12
  9
$TRACEWID
 40
0.05
  9
$TEXTSTYLE
  7
STANDARD
  9
$CLAYER
  8
0
  9
$CELTYPE
  6
BYLAYER
  9
$CECOLOR
 62
   256
  9
$CELTSCALE
 40
1.0
  9
$DELOBJ
 70
     1
  9
$DISPSILH
 70
     0
  9
$DIMSCALE
 40
1.0
  9
$DIMASZ
 40
0.18
  9
$DIMEXO
 40
0.0625
  9
$DIMDLI
 40
0.375
  9
$DIMRND
 40
0.0
  9
$DIMDLE
 40
0.0
  9
$DIMEXE
 40
0.18
  9
$DIMTP
 40
0.0
  9
$DIMTM
 40
0.0
  9
$DIMTXT
 40
0.125
  9
$DIMCEN
 40
0.09
  9
$DIMTSZ
 40
0.0
  9
$DIMTOL
 70
     0
  9
$DIMLIM
 70
     0
  9
$DIMTIH
 70
     0
  9
$DIMTOH
 70
     1
  9
$DIMSE1
 70
     0
  9
$DIMSE2
 70
     0
  9
$DIMTAD
 70
     0
  9
$DIMZIN
 70
     4
  9
$DIMBLK
  1

  9
$DIMASO
 70
     1
  9
$DIMSHO
 70
     1
  9
$DIMPOST
  1

  9
$DIMAPOST
  1

  9
$DIMALT
 70
     1
  9
$DIMALTD
 70
     2
  9
$DIMALTF
 40
25.4
  9
$DIMLFAC
 40
1.0
  9
$DIMTOFL
 70
     0
  9
$DIMTVP
 40
0.0
  9
$DIMTIX
 70
     0
  9
$DIMSOXD
 70
     0
  9
$DIMSAH
 70
     0
  9
$DIMBLK1
  1

  9
$DIMBLK2
  1

  9
$DIMSTYLE
  2
ABECAD_3D
  9
$DIMCLRD
 70
     0
  9
$DIMCLRE
 70
     0
  9
$DIMCLRT
 70
     0
  9
$DIMTFAC
 40
1.5
  9
$DIMGAP
 40
0.09
  9
$DIMJUST
 70
     0
  9
$DIMSD1
 70
     0
  9
$DIMSD2
 70
     0
  9
$DIMTOLJ
 70
     1
  9
$DIMTZIN
 70
     4
  9
$DIMALTZ
 70
     4
  9
$DIMALTTZ
 70
     4
  9
$DIMFIT
 70
     5
  9
$DIMUPT
 70
     1
  9
$DIMUNIT
 70
     7
  9
$DIMDEC
 70
     6
  9
$DIMTDEC
 70
     6
  9
$DIMALTU
 70
     2
  9
$DIMALTTD
 70
     2
  9
$DIMTXSTY
  7
STANDARD
  9
$DIMAUNIT
 70
     0
  9
$LUNITS
 70
     2
  9
$LUPREC
 70
     4
  9
$SKETCHINC
 40
0.1
  9
$FILLETRAD
 40
0.0
  9
$AUNITS
 70
     0
  9
$AUPREC
 70
     0
  9
$MENU
  1
ACAD
  9
$ELEVATION
 40
0.0
  9
$PELEVATION
 40
0.0
  9
$THICKNESS
 40
0.0
  9
$LIMCHECK
 70
     0
  9
$BLIPMODE
 70
     0
  9
$CHAMFERA
 40
0.0
  9
$CHAMFERB
 40
0.0
  9
$CHAMFERC
 40
0.0
  9
$CHAMFERD
 40
0.0
  9
$SKPOLY
 70
     0
  9
$TDCREATE
 40
2451726.438389120
  9
$TDUPDATE
 40
2452010.484615046
  9
$TDINDWG
 40
0.2212776620
  9
$TDUSRTIMER
 40
0.2212776620
  9
$USRTIMER
 70
     1
  9
$ANGBASE
 50
0.0
  9
$ANGDIR
 70
     0
  9
$PDMODE
 70
     3
  9
$PDSIZE
 40
0.09
  9
$PLINEWID
 40
0.0
  9
$COORDS
 70
     1
  9
$SPLFRAME
 70
     1
  9
$SPLINETYPE
 70
     6
  9
$SPLINESEGS
 70
     8
  9
$ATTDIA
 70
     0
  9
$ATTREQ
 70
     1
  9
$HANDLING
 70
     1
  9
$HANDSEED
  5
4FDD8
  9
$SURFTAB1
 70
     6
  9
$SURFTAB2
 70
     6
  9
$SURFTYPE
 70
     6
  9
$SURFU
 70
     6
  9
$SURFV
 70
     6
  9
$UCSNAME
  2

  9
$UCSORG
 10
0.0
 20
0.0
 30
0.0
  9
$UCSXDIR
 10
1.0
 20
0.0
 30
0.0
  9
$UCSYDIR
 10
0.0
 20
1.0
 30
0.0
  9
$PUCSNAME
  2

  9
$PUCSORG
 10
0.0
 20
0.0
 30
0.0
  9
$PUCSXDIR
 10
1.0
 20
0.0
 30
0.0
  9
$PUCSYDIR
 10
0.0
 20
1.0
 30
0.0
  9
$USERI1
 70
     0
  9
$USERI2
 70
     0
  9
$USERI3
 70
     0
  9
$USERI4
 70
     0
  9
$USERI5
 70
     0
  9
$USERR1
 40
0.0
  9
$USERR2
 40
0.0
  9
$USERR3
 40
0.0
  9
$USERR4
 40
0.0
  9
$USERR5
 40
0.0
  9
$WORLDVIEW
 70
     1
  9
$SHADEDGE
 70
     3
  9
$SHADEDIF
 70
    70
  9
$TILEMODE
 70
     1
  9
$MAXACTVP
 70
    16
  9
$PINSBASE
 10
0.0
 20
0.0
 30
0.0
  9
$PLIMCHECK
 70
     0
  9
$PEXTMIN
 10
1.000000E+20
 20
1.000000E+20
 30
1.000000E+20
  9
$PEXTMAX
 10
-1.000000E+20
 20
-1.000000E+20
 30
-1.000000E+20
  9
$PLIMMIN
 10
0.0
 20
0.0
  9
$PLIMMAX
 10
12.0
 20
9.0
  9
$UNITMODE
 70
     0
  9
$VISRETAIN
 70
     0
  9
$PLINEGEN
 70
     0
  9
$PSLTSCALE
 70
     1
  9
$TREEDEPTH
 70
  3020
  9
$PICKSTYLE
 70
     1
  9
$CMLSTYLE
  2
STANDARD
  9
$CMLJUST
 70
     0
  9
$CMLSCALE
 40
1.0
  9
$PROXYGRAPHICS
 70
     1
  9
$MEASUREMENT
 70
     0
  0
ENDSEC
  0
SECTION
  2
CLASSES
  0
CLASS
  1
DICTIONARYVAR
  2
AcDbDictionaryVar
  3
"AutoCAD"
 90
        0
280
     0
281
     0
  0
CLASS
  1
ACDBDICTIONARYWDFLT
  2
AcDbDictionaryWithDefault
  3
AutoCAD 2000
 90
        0
280
     0
281
     0
  0
CLASS
  1
ACDBPLACEHOLDER
  2
AcDbPlaceHolder
  3
AutoCAD 2000
 90
        0
280
     0
281
     0
  0
CLASS
  1
LAYOUT
  2
AcDbLayout
  3
AutoCAD 2000
 90
        0
280
     0
281
     0
  0
CLASS
  1
LONG_TRANSACTION
  2
AcDbLongTransaction
  3
AutoCAD 2000
 90
        0
280
     0
281
     0
  0
CLASS
  1
LWPOLYLINE
  2
AcDbPolyline
  3
"AutoCAD"
 90
        0
280
     0
281
     1
  0
CLASS
  1
HATCH
  2
AcDbHatch
  3
"ACAD_SEDONA"
 90
        0
280
     0
281
     1
  0
CLASS
  1
XRECORD
  2
AcDbXrecord
  3
"<Built In>"
 90
        0
280
     0
281
     0
  0
CLASS
  1
LONG_TRANSACTION
  2
AcDbLongTransaction
  3
AutoCAD 2000
 90
        0
280
     0
281
     0
  0
CLASS
  1
LWPOLYLINE
  2
AcDbPolyline
  3
"AutoCAD"
 90
        0
280
     0
281
     1
  0
CLASS
  1
HATCH
  2
AcDbHatch
  3
"ACAD_SEDONA"
 90
        0
280
     0
281
     1
  0
CLASS
  1
XRECORD
  2
AcDbXrecord
  3
"<Built In>"
 90
        0
280
     0
281
     0
  0
CLASS
  1
LONG_TRANSACTION
  2
AcDbLongTransaction
  3
AutoCAD 2000
 90
        0
280
     0
281
     0
  0
CLASS
  1
LWPOLYLINE
  2
AcDbPolyline
  3
"AutoCAD"
 90
        0
280
     0
281
     1
  0
CLASS
  1
HATCH
  2
AcDbHatch
  3
"ACAD_SEDONA"
 90
        0
280
     0
281
     1
  0
CLASS
  1
XRECORD
  2
AcDbXrecord
  3
"<Built In>"
 90
        0
280
     0
281
     0
  0
CLASS
  1
LONG_TRANSACTION
  2
AcDbLongTransaction
  3
AutoCAD 2000
 90
        0
280
     0
281
     0
  0
CLASS
  1
LWPOLYLINE
  2
AcDbPolyline
  3
"AutoCAD"
 90
        0
280
     0
281
     1
  0
CLASS
  1
HATCH
  2
AcDbHatch
  3
"ACAD_SEDONA"
 90
        0
280
     0
281
     1
  0
CLASS
  1
XRECORD
  2
AcDbXrecord
  3
"<Built In>"
 90
        0
280
     0
281
     0
  0
CLASS
  1
LONG_TRANSACTION
  2
AcDbLongTransaction
  3
AutoCAD 2000
 90
        0
280
     0
281
     0
  0
CLASS
  1
LWPOLYLINE
  2
AcDbPolyline
  3
"AutoCAD"
 90
        0
280
     0
281
     1
  0
CLASS
  1
HATCH
  2
AcDbHatch
  3
"ACAD_SEDONA"
 90
        0
280
     0
281
     1
  0
CLASS
  1
XRECORD
  2
AcDbXrecord
  3
"<Built In>"
 90
        0
280
     0
281
     0
  0
CLASS
  1
LONG_TRANSACTION
  2
AcDbLongTransaction
  3
AutoCAD 2000
 90
        0
280
     0
281
     0
  0
CLASS
  1
LWPOLYLINE
  2
AcDbPolyline
  3
"AutoCAD"
 90
        0
280
     0
281
     1
  0
CLASS
  1
HATCH
  2
AcDbHatch
  3
"ACAD_SEDONA"
 90
        0
280
     0
281
     1
  0
CLASS
  1
XRECORD
  2
AcDbXrecord
  3
"<Built In>"
 90
        0
280
     0
281
     0
  0
CLASS
  1
LONG_TRANSACTION
  2
AcDbLongTransaction
  3
AutoCAD 2000
 90
        0
280
     0
281
     0
  0
CLASS
  1
LWPOLYLINE
  2
AcDbPolyline
  3
"AutoCAD"
 90
        0
280
     0
281
     1
  0
CLASS
  1
HATCH
  2
AcDbHatch
  3
"ACAD_SEDONA"
 90
        0
280
     0
281
     1
  0
CLASS
  1
XRECORD
  2
AcDbXrecord
  3
"<Built In>"
 90
        0
280
     0
281
     0
  0
CLASS
  1
LONG_TRANSACTION
  2
AcDbLongTransaction
  3
AutoCAD 2000
 90
        0
280
     0
281
     0
  0
CLASS
  1
LWPOLYLINE
  2
AcDbPolyline
  3
"AutoCAD"
 90
        0
280
     0
281
     1
  0
CLASS
  1
HATCH
  2
AcDbHatch
  3
"ACAD_SEDONA"
 90
        0
280
     0
281
     1
  0
CLASS
  1
XRECORD
  2
AcDbXrecord
  3
"<Built In>"
 90
        0
280
     0
281
     0
  0
CLASS
  1
LONG_TRANSACTION
  2
AcDbLongTransaction
  3
AutoCAD 2000
 90
        0
280
     0
281
     0
  0
CLASS
  1
LWPOLYLINE
  2
AcDbPolyline
  3
"AutoCAD"
 90
        0
280
     0
281
     1
  0
CLASS
  1
HATCH
  2
AcDbHatch
  3
"ACAD_SEDONA"
 90
        0
280
     0
281
     1
  0
CLASS
  1
XRECORD
  2
AcDbXrecord
  3
"<Built In>"
 90
        0
280
     0
281
     0
  0
CLASS
  1
LONG_TRANSACTION
  2
AcDbLongTransaction
  3
AutoCAD 2000
 90
        0
280
     0
281
     0
  0
CLASS
  1
LWPOLYLINE
  2
AcDbPolyline
  3
"AutoCAD"
 90
        0
280
     0
281
     1
  0
CLASS
  1
HATCH
  2
AcDbHatch
  3
"ACAD_SEDONA"
 90
        0
280
     0
281
     1
  0
CLASS
  1
XRECORD
  2
AcDbXrecord
  3
"<Built In>"
 90
        0
280
     0
281
     0
  0
CLASS
  1
LONG_TRANSACTION
  2
AcDbLongTransaction
  3
AutoCAD 2000
 90
        0
280
     0
281
     0
  0
CLASS
  1
LWPOLYLINE
  2
AcDbPolyline
  3
"AutoCAD"
 90
        0
280
     0
281
     1
  0
CLASS
  1
HATCH
  2
AcDbHatch
  3
"ACAD_SEDONA"
 90
        0
280
     0
281
     1
  0
CLASS
  1
XRECORD
  2
AcDbXrecord
  3
"<Built In>"
 90
        0
280
     0
281
     0
  0
CLASS
  1
LONG_TRANSACTION
  2
AcDbLongTransaction
  3
AutoCAD 2000
 90
        0
280
     0
281
     0
  0
CLASS
  1
LWPOLYLINE
  2
AcDbPolyline
  3
"AutoCAD"
 90
        0
280
     0
281
     1
  0
CLASS
  1
HATCH
  2
AcDbHatch
  3
"ACAD_SEDONA"
 90
        0
280
     0
281
     1
  0
CLASS
  1
XRECORD
  2
AcDbXrecord
  3
"<Built In>"
 90
        0
280
     0
281
     0
  0
ENDSEC
  0
SECTION
  2
TABLES
  0
TABLE
  2
VPORT
  5
458C7
100
AcDbSymbolTable
 70
     1
  0
VPORT
  5
4FDA7
102
{ACAD_XDICTIONARY
360
4FDAA
102
}
100
AcDbSymbolTableRecord
100
AcDbViewportTableRecord
  2
*ACTIVE
 70
     0
 10
0.0
 20
0.0
 11
1.0
 21
1.0
 12
-0.293584
 22
0.195103
 13
0.0
 23
0.0
 14
0.25
 24
0.25
 15
0.25
 25
0.25
 16
0.0
 26
0.0
 36
1.0
 17
0.563444
 27
-0.880137
 37
1.686493
 40
4.045407
 41
1.960674
 42
50.0
 43
0.0
 44
0.0
 50
0.0
 51
0.0
 71
     0
 72
 20000
 73
     1
 74
     1
 75
     0
 76
     0
 77
     0
 78
     0
  0
ENDTAB
  0
TABLE
  2
LTYPE
  5
458C4
100
AcDbSymbolTable
 70
     1
  0
LTYPE
  5
458D0
100
AcDbSymbolTableRecord
100
AcDbLinetypeTableRecord
  2
BYBLOCK
 70
     0
  3

 72
    65
 73
     0
 40
0.0
  0
LTYPE
  5
458D1
100
AcDbSymbolTableRecord
100
AcDbLinetypeTableRecord
  2
BYLAYER
 70
     0
  3

 72
    65
 73
     0
 40
0.0
  0
LTYPE
  5
458D2
100
AcDbSymbolTableRecord
100
AcDbLinetypeTableRecord
  2
CONTINUOUS
 70
     0
  3
Solid line
 72
    65
 73
     0
 40
0.0
  0
ENDTAB
  0
TABLE
  2
LAYER
  5
458C1
100
AcDbSymbolTable
 70
     7
  0
LAYER
  5
458CD
100
AcDbSymbolTableRecord
100
AcDbLayerTableRecord
  2
0
 70
     0
 62
     7
  6
CONTINUOUS
  0
LAYER
  5
458EA
100
AcDbSymbolTableRecord
100
AcDbLayerTableRecord
  2
DIMS-MTG-HOLES
 70
     0
 62
     1
  6
CONTINUOUS
  0
LAYER
  5
458EB
100
AcDbSymbolTableRecord
100
AcDbLayerTableRecord
  2
ATTRIBUTES
 70
     0
 62
     7
  6
CONTINUOUS
  0
LAYER
  5
4593B
102
{ACAD_XDICTIONARY
360
4FDD3
102
}
100
AcDbSymbolTableRecord
100
AcDbLayerTableRecord
  2
AREA1
 70
     0
 62
    -7
  6
CONTINUOUS
  0
LAYER
  5
45940
102
{ACAD_XDICTIONARY
360
4FDA8
102
}
100
AcDbSymbolTableRecord
100
AcDbLayerTableRecord
  2
DEFPOINTS
 70
     0
 62
    -7
  6
CONTINUOUS
  0
LAYER
  5
45954
100
AcDbSymbolTableRecord
100
AcDbLayerTableRecord
  2
SCALE
 70
     0
 62
    -7
  6
CONTINUOUS
  0
LAYER
  5
4D59A
100
AcDbSymbolTableRecord
100
AcDbLayerTableRecord
  2
SNAP_POINTS
 70
     0
 62
    -1
  6
CONTINUOUS
  0
ENDTAB
  0
TABLE
  2
STYLE
  5
458C2
100
AcDbSymbolTable
 70
     1
  0
STYLE
  5
458CE
100
AcDbSymbolTableRecord
100
AcDbTextStyleTableRecord
  2
STANDARD
 70
     0
 40
0.0
 41
1.0
 50
0.0
 71
     0
 42
0.12
  3
txt
  4

  0
ENDTAB
  0
TABLE
  2
VIEW
  5
458C5
100
AcDbSymbolTable
 70
     0
  0
ENDTAB
  0
TABLE
  2
UCS
  5
458C6
100
AcDbSymbolTable
 70
     0
  0
ENDTAB
  0
TABLE
  2
APPID
  5
458C8
100
AcDbSymbolTable
 70
     1
  0
APPID
  5
458CF
100
AcDbSymbolTableRecord
100
AcDbRegAppTableRecord
  2
ACAD
 70
     0
  0
ENDTAB
  0
TABLE
  2
DIMSTYLE
  5
458C9
100
AcDbSymbolTable
 70
     1
  0
DIMSTYLE
105
458F6
102
{ACAD_XDICTIONARY
360
4FDCF
102
}
102
{ACAD_REACTORS
330
4FD07
330
4FD15
102
}
100
AcDbSymbolTableRecord
100
AcDbDimStyleTableRecord
  2
ABECAD_3D
 70
     0
  3

  4

  5

  6

  7

 40
1.0
 41
0.18
 42
0.0625
 43
0.375
 44
0.18
 45
0.0
 46
0.0
 47
0.0
 48
0.0
140
0.125
141
0.09
142
0.0
143
25.4
144
1.0
145
0.0
146
1.5
147
0.09
 71
     0
 72
     0
 73
     0
 74
     1
 75
     0
 76
     0
 77
     0
 78
     4
170
     1
171
     2
172
     0
173
     0
174
     0
175
     0
176
     0
177
     0
178
     0
270
     7
271
     6
272
     6
273
     2
274
     2
340
458CE
275
     0
280
     0
281
     0
282
     0
283
     1
284
     4
285
     4
286
     4
287
     5
288
     1
  0
ENDTAB
  0
TABLE
  2
BLOCK_RECORD
  5
458C0
100
AcDbSymbolTable
 70
     2
  0
BLOCK_RECORD
  5
458D6
102
{ACAD_XDICTIONARY
360
4592C
102
}
100
AcDbSymbolTableRecord
100
AcDbBlockTableRecord
  2
*MODEL_SPACE
  0
BLOCK_RECORD
  5
458D3
102
{ACAD_XDICTIONARY
360
4592A
102
}
100
AcDbSymbolTableRecord
100
AcDbBlockTableRecord
  2
*PAPER_SPACE
  0
BLOCK_RECORD
  5
4FD08
100
AcDbSymbolTableRecord
100
AcDbBlockTableRecord
  2
*D0
  0
BLOCK_RECORD
  5
4FD16
100
AcDbSymbolTableRecord
100
AcDbBlockTableRecord
  2
*D1
  0
ENDTAB
  0
ENDSEC
  0
SECTION
  2
BLOCKS
  0
BLOCK
  5
458DF
100
AcDbEntity
  8
0
100
AcDbBlockBegin
  2
*MODEL_SPACE
 70
     0
 10
0.0
 20
0.0
 30
0.0
  3
*MODEL_SPACE
  1

  0
ENDBLK
  5
458E0
100
AcDbEntity
  8
0
100
AcDbBlockEnd
  0
BLOCK
  5
458DD
100
AcDbEntity
 67
     1
  8
0
100
AcDbBlockBegin
  2
*PAPER_SPACE
 70
     0
 10
0.0
 20
0.0
 30
0.0
  3
*PAPER_SPACE
  1

  0
ENDBLK
  5
458DE
100
AcDbEntity
 67
     1
  8
0
100
AcDbBlockEnd
  0
BLOCK
  5
4FD13
100
AcDbEntity
  8
0
100
AcDbBlockBegin
  2
*D0
 70
     1
 10
0.0
 20
0.0
 30
0.0
  3
*D0
  1

  0
LINE
  5
4FD09
100
AcDbEntity
  8
AREA1
 62
     0
100
AcDbLine
 10
0.6025
 20
0.495
 30
0.0
 11
-1.040542
 21
0.495
 31
0.0
1001
ACAD
1000
RTLwPs
1070
   158
  0
LINE
  5
4FD0A
100
AcDbEntity
  8
AREA1
 62
     0
100
AcDbLine
 10
-0.0625
 20
-1.695
 30
0.0
 11
-1.040542
 21
-1.695
 31
0.0
1001
ACAD
1000
RTLwPs
1070
   158
  0
LINE
  5
4FD0B
100
AcDbEntity
  8
AREA1
 62
     0
100
AcDbLine
 10
-0.860542
 20
0.315
 30
0.0
 11
-0.860542
 21
0.23323
 31
0.0
1001
ACAD
1000
RTLwPs
1070
   158
  0
LINE
  5
4FD0C
100
AcDbEntity
  8
AREA1
 62
     0
100
AcDbLine
 10
-0.860542
 20
-1.515
 30
0.0
 11
-0.860542
 21
-1.44677
 31
0.0
1001
ACAD
1000
RTLwPs
1070
   158
  0
MTEXT
  5
4FD0D
100
AcDbEntity
  8
AREA1
 62
     0
100
AcDbMText
 10
-0.860542
 20
-0.60677
 30
0.0
 40
0.125
 41
0.0
 71
     5
 72
     1
  1
\A1;2 3/16 [55.63]
 11
0.0
 21
1.0
 31
0.0
1001
ACAD
1000
MTEXTBEGIN
1070
    73
1070
     1
1070
    44
1040
1.0
1070
    74
1070
     0
1000
MTEXTEND
1000
MTEXTBEGIN
1070
    73
1070
     1
1070
    44
1040
1.0
1070
    74
1070
     0
1000
MTEXTEND
1000
MTEXTBEGIN
1070
    73
1070
     1
1070
    44
1040
1.0
1070
    74
1070
     0
1000
MTEXTEND
  0
SOLID
  5
4FD0E
100
AcDbEntity
  8
AREA1
 62
     0
100
AcDbTrace
 10
-0.890542
 20
0.315
 30
0.0
 11
-0.830542
 21
0.315
 31
0.0
 12
-0.860542
 22
0.495
 32
0.0
 13
-0.860542
 23
0.495
 33
0.0
  0
SOLID
  5
4FD0F
100
AcDbEntity
  8
AREA1
 62
     0
100
AcDbTrace
 10
-0.890542
 20
-1.515
 30
0.0
 11
-0.830542
 21
-1.515
 31
0.0
 12
-0.860542
 22
-1.695
 32
0.0
 13
-0.860542
 23
-1.695
 33
0.0
  0
POINT
  5
4FD10
100
AcDbEntity
  8
DEFPOINTS
 62
     0
100
AcDbPoint
 10
0.665
 20
0.495
 30
0.0
  0
POINT
  5
4FD11
100
AcDbEntity
  8
DEFPOINTS
 62
     0
100
AcDbPoint
 10
0.0
 20
-1.695
 30
0.0
  0
POINT
  5
4FD12
100
AcDbEntity
  8
DEFPOINTS
 62
     0
100
AcDbPoint
 10
-0.860542
 20
-1.695
 30
0.0
  0
ENDBLK
  5
4FD14
100
AcDbEntity
  8
0
100
AcDbBlockEnd
  0
BLOCK
  5
4FD20
100
AcDbEntity
  8
0
100
AcDbBlockBegin
  2
*D1
 70
     1
 10
0.0
 20
0.0
 30
0.0
  3
*D1
  1

  0
LINE
  5
4FD22
100
AcDbEntity
  8
AREA1
 62
     0
100
AcDbLine
 10
0.0
 20
0.3775
 30
0.0
 11
0.0
 21
1.087991
 31
0.0
1001
ACAD
1000
RTLwPs
1070
   158
  0
LINE
  5
4FD23
100
AcDbEntity
  8
AREA1
 62
     0
100
AcDbLine
 10
1.58
 20
0.3775
 30
0.0
 11
1.58
 21
1.087991
 31
0.0
1001
ACAD
1000
RTLwPs
1070
   158
  0
LINE
  5
4FD24
100
AcDbEntity
  8
AREA1
 62
     0
100
AcDbLine
 10
0.18
 20
0.907991
 30
0.0
 11
1.4
 21
0.907991
 31
0.0
1001
ACAD
1000
RTLwPs
1070
   158
  0
MTEXT
  5
4FD25
100
AcDbEntity
  8
AREA1
 62
     0
100
AcDbMText
 10
0.797024
 20
1.241238
 30
0.0
 40
0.125
 41
0.0
 71
     5
 72
     1
  1
\A1;1 37/64 [40.13]
1001
ACAD
1000
MTEXTBEGIN
1070
    73
1070
     1
1070
    44
1040
1.0
1070
    74
1070
     0
1000
MTEXTEND
1000
MTEXTBEGIN
1070
    73
1070
     1
1070
    44
1040
1.0
1070
    74
1070
     0
1000
MTEXTEND
1000
MTEXTBEGIN
1070
    73
1070
     1
1070
    44
1040
1.0
1070
    74
1070
     0
1000
MTEXTEND
  0
SOLID
  5
4FD26
100
AcDbEntity
  8
AREA1
 62
     0
100
AcDbTrace
 10
0.18
 20
0.937991
 30
0.0
 11
0.18
 21
0.877991
 31
0.0
 12
0.0
 22
0.907991
 32
0.0
 13
0.0
 23
0.907991
 33
0.0
  0
SOLID
  5
4FD27
100
AcDbEntity
  8
AREA1
 62
     0
100
AcDbTrace
 10
1.4
 20
0.937991
 30
0.0
 11
1.4
 21
0.877991
 31
0.0
 12
1.58
 22
0.907991
 32
0.0
 13
1.58
 23
0.907991
 33
0.0
  0
POINT
  5
4FD28
100
AcDbEntity
  8
DEFPOINTS
 62
     0
100
AcDbPoint
 10
0.0
 20
0.315
 30
0.0
  0
POINT
  5
4FD29
100
AcDbEntity
  8
DEFPOINTS
 62
     0
100
AcDbPoint
 10
1.58
 20
0.315
 30
0.0
  0
POINT
  5
4FD2A
100
AcDbEntity
  8
DEFPOINTS
 62
     0
100
AcDbPoint
 10
1.58
 20
0.907991
 30
0.0
  0
ENDBLK
  5
4FD21
100
AcDbEntity
  8
0
100
AcDbBlockEnd
  0
ENDSEC
  0
SECTION
  2
ENTITIES
  0
CIRCLE
  5
4FC31
100
AcDbEntity
  8
0
100
AcDbCircle
 39
0.38
 10
0.79
 20
-0.69
 30
0.59
 40
0.485
  0
ARC
  5
4FC32
100
AcDbEntity
  8
0
100
AcDbCircle
 10
0.79
 20
-0.69
 30
0.97
 40
0.155
100
AcDbArc
 50
287.651459
 51
252.348541
  0
LINE
  5
4FC33
100
AcDbEntity
  8
0
100
AcDbLine
 10
0.837
 20
-0.909
 30
0.97
 11
0.743
 21
-0.909
 31
0.97
  0
CIRCLE
  5
4FC34
100
AcDbEntity
  8
0
100
AcDbCircle
 10
1.104119
 20
-0.559888
 30
0.97
 40
0.045
  0
CIRCLE
  5
4FC35
100
AcDbEntity
  8
0
100
AcDbCircle
 10
1.36
 20
0.06
 30
0.81
 40
0.125
  0
CIRCLE
  5
4FC36
100
AcDbEntity
  8
0
100
AcDbCircle
 10
0.98
 20
0.06
 30
0.81
 40
0.125
  0
LINE
  5
4FC37
100
AcDbEntity
  8
0
100
AcDbLine
 10
0.96607
 20
-0.51393
 30
0.97
 11
1.050922
 21
-0.429078
 31
0.97
  0
CIRCLE
  5
4FC38
100
AcDbEntity
  8
0
100
AcDbCircle
 10
0.920112
 20
-0.375881
 30
0.97
 40
0.045
  0
LINE
  5
4FC39
100
AcDbEntity
  8
0
100
AcDbLine
 10
0.79
 20
-0.441
 30
0.97
 11
0.79
 21
-0.321
 31
0.97
  0
CIRCLE
  5
4FC3A
100
AcDbEntity
  8
0
100
AcDbCircle
 10
1.4375
 20
-0.69
 30
0.15
 40
0.0775
  0
CIRCLE
  5
4FC3B
100
AcDbEntity
  8
0
100
AcDbCircle
 10
1.36
 20
-1.44
 30
0.81
 40
0.125
  0
LINE
  5
4FC3C
100
AcDbEntity
  8
0
100
AcDbLine
 10
0.96607
 20
-0.86607
 30
0.97
 11
1.050922
 21
-0.950922
 31
0.97
  0
LINE
  5
4FC3D
100
AcDbEntity
  8
0
100
AcDbLine
 10
1.039
 20
-0.69
 30
0.97
 11
1.159
 21
-0.69
 31
0.97
  0
CIRCLE
  5
4FC3E
100
AcDbEntity
  8
0
100
AcDbCircle
 10
1.104119
 20
-0.820112
 30
0.97
 40
0.045
  0
LINE
  5
4FC3F
100
AcDbEntity
  8
0
100
AcDbLine
 10
0.79
 20
-0.939
 30
0.97
 11
0.79
 21
-1.059
 31
0.97
  0
LINE
  5
4FC40
100
AcDbEntity
  8
0
100
AcDbLine
 10
0.837
 20
-0.837702
 30
0.97
 11
0.837
 21
-0.909
 31
0.97
  0
CIRCLE
  5
4FC41
100
AcDbEntity
  8
0
100
AcDbCircle
 10
0.920112
 20
-1.004119
 30
0.97
 40
0.045
  0
CIRCLE
  5
4FC42
100
AcDbEntity
  8
0
100
AcDbCircle
 10
0.98
 20
-1.44
 30
0.81
 40
0.125
  0
CIRCLE
  5
4FC43
100
AcDbEntity
  8
0
100
AcDbCircle
 10
0.475881
 20
-0.559888
 30
0.97
 40
0.045
  0
CIRCLE
  5
4FC44
100
AcDbEntity
  8
0
100
AcDbCircle
 10
0.22
 20
0.06
 30
0.81
 40
0.125
  0
CIRCLE
  5
4FC45
100
AcDbEntity
  8
0
100
AcDbCircle
 10
0.6
 20
0.06
 30
0.81
 40
0.125
  0
LINE
  5
4FC46
100
AcDbEntity
  8
0
100
AcDbLine
 10
0.61393
 20
-0.51393
 30
0.97
 11
0.529078
 21
-0.429078
 31
0.97
  0
CIRCLE
  5
4FC47
100
AcDbEntity
  8
0
100
AcDbCircle
 10
0.659888
 20
-0.375881
 30
0.97
 40
0.045
  0
CIRCLE
  5
4FC48
100
AcDbEntity
  8
0
100
AcDbCircle
 10
0.140625
 20
-0.69
 30
0.15
 40
0.0775
  0
CIRCLE
  5
4FC49
100
AcDbEntity
  8
0
100
AcDbCircle
 10
0.22
 20
-1.44
 30
0.81
 40
0.125
  0
LINE
  5
4FC4A
100
AcDbEntity
  8
0
100
AcDbLine
 10
0.61393
 20
-0.86607
 30
0.97
 11
0.529078
 21
-0.950922
 31
0.97
  0
LINE
  5
4FC4B
100
AcDbEntity
  8
0
100
AcDbLine
 10
0.743
 20
-0.909
 30
0.97
 11
0.743
 21
-0.837702
 31
0.97
  0
CIRCLE
  5
4FC4C
100
AcDbEntity
  8
0
100
AcDbCircle
 10
0.659888
 20
-1.004119
 30
0.97
 40
0.045
  0
LINE
  5
4FC4D
100
AcDbEntity
  8
0
100
AcDbLine
 10
0.541
 20
-0.69
 30
0.97
 11
0.421
 21
-0.69
 31
0.97
  0
CIRCLE
  5
4FC4E
100
AcDbEntity
  8
0
100
AcDbCircle
 10
0.475881
 20
-0.820112
 30
0.97
 40
0.045
  0
CIRCLE
  5
4FC4F
100
AcDbEntity
  8
0
100
AcDbCircle
 10
0.6
 20
-1.44
 30
0.81
 40
0.125
  0
TEXT
  5
4FC50
100
AcDbEntity
  8
0
100
AcDbText
 10
1.094044
 20
-1.668477
 30
0.78
 40
0.12
  1
1
100
AcDbText
  0
TEXT
  5
4FC51
100
AcDbEntity
  8
0
100
AcDbText
 10
1.448379
 20
-1.665679
 30
0.78
 40
0.12
  1
2
100
AcDbText
  0
TEXT
  5
4FC52
100
AcDbEntity
  8
0
100
AcDbText
 10
1.465828
 20
-0.166463
 30
0.78
 40
0.12
  1
3
100
AcDbText
  0
TEXT
  5
4FC53
100
AcDbEntity
  8
0
100
AcDbText
 10
1.07112
 20
-0.170885
 30
0.78
 40
0.12
  1
4
100
AcDbText
  0
TEXT
  5
4FC54
100
AcDbEntity
  8
0
100
AcDbText
 10
0.414529
 20
-0.172793
 30
0.78
 40
0.12
  1
5
100
AcDbText
  0
TEXT
  5
4FC55
100
AcDbEntity
  8
0
100
AcDbText
 10
0.04302
 20
-0.171864
 30
0.78
 40
0.12
  1
6
100
AcDbText
  0
TEXT
  5
4FC56
100
AcDbEntity
  8
0
100
AcDbText
 10
0.039127
 20
-1.67064
 30
0.78
 40
0.12
  1
7
100
AcDbText
  0
TEXT
  5
4FC57
100
AcDbEntity
  8
0
100
AcDbText
 10
0.392108
 20
-1.666324
 30
0.78
 40
0.12
  1
8
100
AcDbText
  0
LINE
  5
4FC58
100
AcDbEntity
  8
0
100
AcDbLine
 10
0.0
 20
-1.175
 30
0.59
 11
0.0
 21
-1.695
 31
0.59
  0
POLYLINE
  5
4FC59
100
AcDbEntity
  8
0
100
AcDbPolygonMesh
 66
     1
 10
0.0
 20
0.0
 30
0.0
 70
    16
 71
     6
 72
     3
  0
VERTEX
  5
4FC5A
100
AcDbEntity
  8
0
100
AcDbVertex
100
AcDbPolygonMeshVertex
 10
1.58
 20
-1.695
 30
0.59
 70
    64
  0
VERTEX
  5
4FC5B
100
AcDbEntity
  8
0
100
AcDbVertex
100
AcDbPolygonMeshVertex
 10
1.58
 20
-1.695
 30
0.0
 70
    64
  0
VERTEX
  5
4FC5C
100
AcDbEntity
  8
0
100
AcDbVertex
100
AcDbPolygonMeshVertex
 10
1.58
 20
-1.695
 30
0.0
 70
    64
  0
VERTEX
  5
4FC5D
100
AcDbEntity
  8
0
100
AcDbVertex
100
AcDbPolygonMeshVertex
 10
0.0
 20
-1.695
 30
0.59
 70
    64
  0
VERTEX
  5
4FC5E
100
AcDbEntity
  8
0
100
AcDbVertex
100
AcDbPolygonMeshVertex
 10
0.0
 20
-1.695
 30
0.0
 70
    64
  0
VERTEX
  5
4FC5F
100
AcDbEntity
  8
0
100
AcDbVertex
100
AcDbPolygonMeshVertex
 10
0.0
 20
-1.695
 30
0.0
 70
    64
  0
VERTEX
  5
4FC60
100
AcDbEntity
  8
0
100
AcDbVertex
100
AcDbPolygonMeshVertex
 10
0.0
 20
0.315
 30
0.59
 70
    64
  0
VERTEX
  5
4FC61
100
AcDbEntity
  8
0
100
AcDbVertex
100
AcDbPolygonMeshVertex
 10
0.0
 20
0.315
 30
0.0
 70
    64
  0
VERTEX
  5
4FC62
100
AcDbEntity
  8
0
100
AcDbVertex
100
AcDbPolygonMeshVertex
 10
0.0
 20
-1.695
 30
0.0
 70
    64
  0
VERTEX
  5
4FC63
100
AcDbEntity
  8
0
100
AcDbVertex
100
AcDbPolygonMeshVertex
 10
1.58
 20
0.315
 30
0.59
 70
    64
  0
VERTEX
  5
4FC64
100
AcDbEntity
  8
0
100
AcDbVertex
100
AcDbPolygonMeshVertex
 10
1.58
 20
0.315
 30
0.0
 70
    64
  0
VERTEX
  5
4FC65
100
AcDbEntity
  8
0
100
AcDbVertex
100
AcDbPolygonMeshVertex
 10
1.58
 20
-1.695
 30
0.0
 70
    64
  0
VERTEX
  5
4FC66
100
AcDbEntity
  8
0
100
AcDbVertex
100
AcDbPolygonMeshVertex
 10
1.58
 20
0.315
 30
0.59
 70
    64
  0
VERTEX
  5
4FC67
100
AcDbEntity
  8
0
100
AcDbVertex
100
AcDbPolygonMeshVertex
 10
1.58
 20
0.315
 30
0.59
 70
    64
  0
VERTEX
  5
4FC68
100
AcDbEntity
  8
0
100
AcDbVertex
100
AcDbPolygonMeshVertex
 10
1.58
 20
-1.695
 30
0.59
 70
    64
  0
VERTEX
  5
4FC69
100
AcDbEntity
  8
0
100
AcDbVertex
100
AcDbPolygonMeshVertex
 10
0.0
 20
0.315
 30
0.59
 70
    64
  0
VERTEX
  5
4FC6A
100
AcDbEntity
  8
0
100
AcDbVertex
100
AcDbPolygonMeshVertex
 10
0.0
 20
0.315
 30
0.59
 70
    64
  0
VERTEX
  5
4FC6B
100
AcDbEntity
  8
0
100
AcDbVertex
100
AcDbPolygonMeshVertex
 10
0.0
 20
-1.695
 30
0.59
 70
    64
  0
SEQEND
  5
4FC6C
100
AcDbEntity
  8
0
  0
POLYLINE
  5
4FC6D
100
AcDbEntity
  8
0
100
AcDbPolygonMesh
 66
     1
 10
0.0
 20
0.0
 30
0.0
 70
    16
 71
     6
 72
     3
  0
VERTEX
  5
4FC6E
100
AcDbEntity
  8
0
100
AcDbVertex
100
AcDbPolygonMeshVertex
 10
1.58
 20
-1.695
 30
0.78
 70
    64
  0
VERTEX
  5
4FC6F
100
AcDbEntity
  8
0
100
AcDbVertex
100
AcDbPolygonMeshVertex
 10
1.58
 20
-1.695
 30
0.59
 70
    64
  0
VERTEX
  5
4FC70
100
AcDbEntity
  8
0
100
AcDbVertex
100
AcDbPolygonMeshVertex
 10
1.58
 20
-1.695
 30
0.59
 70
    64
  0
VERTEX
  5
4FC71
100
AcDbEntity
  8
0
100
AcDbVertex
100
AcDbPolygonMeshVertex
 10
0.0
 20
-1.695
 30
0.78
 70
    64
  0
VERTEX
  5
4FC72
100
AcDbEntity
  8
0
100
AcDbVertex
100
AcDbPolygonMeshVertex
 10
0.0
 20
-1.695
 30
0.59
 70
    64
  0
VERTEX
  5
4FC73
100
AcDbEntity
  8
0
100
AcDbVertex
100
AcDbPolygonMeshVertex
 10
0.0
 20
-1.695
 30
0.59
 70
    64
  0
VERTEX
  5
4FC74
100
AcDbEntity
  8
0
100
AcDbVertex
100
AcDbPolygonMeshVertex
 10
0.0
 20
-1.175
 30
0.78
 70
    64
  0
VERTEX
  5
4FC75
100
AcDbEntity
  8
0
100
AcDbVertex
100
AcDbPolygonMeshVertex
 10
0.0
 20
-1.175
 30
0.59
 70
    64
  0
VERTEX
  5
4FC76
100
AcDbEntity
  8
0
100
AcDbVertex
100
AcDbPolygonMeshVertex
 10
0.0
 20
-1.695
 30
0.59
 70
    64
  0
VERTEX
  5
4FC77
100
AcDbEntity
  8
0
100
AcDbVertex
100
AcDbPolygonMeshVertex
 10
1.58
 20
-1.175
 30
0.78
 70
    64
  0
VERTEX
  5
4FC78
100
AcDbEntity
  8
0
100
AcDbVertex
100
AcDbPolygonMeshVertex
 10
1.58
 20
-1.175
 30
0.59
 70
    64
  0
VERTEX
  5
4FC79
100
AcDbEntity
  8
0
100
AcDbVertex
100
AcDbPolygonMeshVertex
 10
1.58
 20
-1.695
 30
0.59
 70
    64
  0
VERTEX
  5
4FC7A
100
AcDbEntity
  8
0
100
AcDbVertex
100
AcDbPolygonMeshVertex
 10
1.58
 20
-1.175
 30
0.78
 70
    64
  0
VERTEX
  5
4FC7B
100
AcDbEntity
  8
0
100
AcDbVertex
100
AcDbPolygonMeshVertex
 10
1.58
 20
-1.175
 30
0.78
 70
    64
  0
VERTEX
  5
4FC7C
100
AcDbEntity
  8
0
100
AcDbVertex
100
AcDbPolygonMeshVertex
 10
1.58
 20
-1.695
 30
0.78
 70
    64
  0
VERTEX
  5
4FC7D
100
AcDbEntity
  8
0
100
AcDbVertex
100
AcDbPolygonMeshVertex
 10
0.0
 20
-1.175
 30
0.78
 70
    64
  0
VERTEX
  5
4FC7E
100
AcDbEntity
  8
0
100
AcDbVertex
100
AcDbPolygonMeshVertex
 10
0.0
 20
-1.175
 30
0.78
 70
    64
  0
VERTEX
  5
4FC7F
100
AcDbEntity
  8
0
100
AcDbVertex
100
AcDbPolygonMeshVertex
 10
0.0
 20
-1.695
 30
0.78
 70
    64
  0
SEQEND
  5
4FC80
100
AcDbEntity
  8
0
  0
POLYLINE
  5
4FC81
100
AcDbEntity
  8
0
100
AcDbPolygonMesh
 66
     1
 10
0.0
 20
0.0
 30
0.0
 70
    16
 71
     6
 72
     3
  0
VERTEX
  5
4FC82
100
AcDbEntity
  8
0
100
AcDbVertex
100
AcDbPolygonMeshVertex
 10
1.58
 20
-0.205
 30
0.78
 70
    64
  0
VERTEX
  5
4FC83
100
AcDbEntity
  8
0
100
AcDbVertex
100
AcDbPolygonMeshVertex
 10
1.58
 20
-0.205
 30
0.59
 70
    64
  0
VERTEX
  5
4FC84
100
AcDbEntity
  8
0
100
AcDbVertex
100
AcDbPolygonMeshVertex
 10
1.58
 20
-0.205
 30
0.59
 70
    64
  0
VERTEX
  5
4FC85
100
AcDbEntity
  8
0
100
AcDbVertex
100
AcDbPolygonMeshVertex
 10
0.0
 20
-0.205
 30
0.78
 70
    64
  0
VERTEX
  5
4FC86
100
AcDbEntity
  8
0
100
AcDbVertex
100
AcDbPolygonMeshVertex
 10
0.0
 20
-0.205
 30
0.59
 70
    64
  0
VERTEX
  5
4FC87
100
AcDbEntity
  8
0
100
AcDbVertex
100
AcDbPolygonMeshVertex
 10
0.0
 20
-0.205
 30
0.59
 70
    64
  0
VERTEX
  5
4FC88
100
AcDbEntity
  8
0
100
AcDbVertex
100
AcDbPolygonMeshVertex
 10
0.0
 20
0.315
 30
0.78
 70
    64
  0
VERTEX
  5
4FC89
100
AcDbEntity
  8
0
100
AcDbVertex
100
AcDbPolygonMeshVertex
 10
0.0
 20
0.315
 30
0.59
 70
    64
  0
VERTEX
  5
4FC8A
100
AcDbEntity
  8
0
100
AcDbVertex
100
AcDbPolygonMeshVertex
 10
0.0
 20
-0.205
 30
0.59
 70
    64
  0
VERTEX
  5
4FC8B
100
AcDbEntity
  8
0
100
AcDbVertex
100
AcDbPolygonMeshVertex
 10
1.58
 20
0.315
 30
0.78
 70
    64
  0
VERTEX
  5
4FC8C
100
AcDbEntity
  8
0
100
AcDbVertex
100
AcDbPolygonMeshVertex
 10
1.58
 20
0.315
 30
0.59
 70
    64
  0
VERTEX
  5
4FC8D
100
AcDbEntity
  8
0
100
AcDbVertex
100
AcDbPolygonMeshVertex
 10
1.58
 20
-0.205
 30
0.59
 70
    64
  0
VERTEX
  5
4FC8E
100
AcDbEntity
  8
0
100
AcDbVertex
100
AcDbPolygonMeshVertex
 10
1.58
 20
0.315
 30
0.78
 70
    64
  0
VERTEX
  5
4FC8F
100
AcDbEntity
  8
0
100
AcDbVertex
100
AcDbPolygonMeshVertex
 10
1.58
 20
0.315
 30
0.78
 70
    64
  0
VERTEX
  5
4FC90
100
AcDbEntity
  8
0
100
AcDbVertex
100
AcDbPolygonMeshVertex
 10
1.58
 20
-0.205
 30
0.78
 70
    64
  0
VERTEX
  5
4FC91
100
AcDbEntity
  8
0
100
AcDbVertex
100
AcDbPolygonMeshVertex
 10
0.0
 20
0.315
 30
0.78
 70
    64
  0
VERTEX
  5
4FC92
100
AcDbEntity
  8
0
100
AcDbVertex
100
AcDbPolygonMeshVertex
 10
0.0
 20
0.315
 30
0.78
 70
    64
  0
VERTEX
  5
4FC93
100
AcDbEntity
  8
0
100
AcDbVertex
100
AcDbPolygonMeshVertex
 10
0.0
 20
-0.205
 30
0.78
 70
    64
  0
SEQEND
  5
4FC94
100
AcDbEntity
  8
0
  0
CIRCLE
  5
4FC95
100
AcDbEntity
  8
0
100
AcDbCircle
 10
0.140625
 20
-0.69
 30
0.59
 40
0.0775
  0
POLYLINE
  5
4FC96
100
AcDbEntity
  8
0
100
AcDbPolygonMesh
 66
     1
 10
0.0
 20
0.0
 30
0.0
 70
    16
 71
     6
 72
     3
  0
VERTEX
  5
4FC97
100
AcDbEntity
  8
0
100
AcDbVertex
100
AcDbPolygonMeshVertex
 10
1.19
 20
0.315
 30
0.13
 70
    64
  0
VERTEX
  5
4FC98
100
AcDbEntity
  8
0
100
AcDbVertex
100
AcDbPolygonMeshVertex
 10
1.19
 20
0.315
 30
0.0
 70
    64
  0
VERTEX
  5
4FC99
100
AcDbEntity
  8
0
100
AcDbVertex
100
AcDbPolygonMeshVertex
 10
1.19
 20
0.315
 30
0.0
 70
    64
  0
VERTEX
  5
4FC9A
100
AcDbEntity
  8
0
100
AcDbVertex
100
AcDbPolygonMeshVertex
 10
0.39
 20
0.315
 30
0.13
 70
    64
  0
VERTEX
  5
4FC9B
100
AcDbEntity
  8
0
100
AcDbVertex
100
AcDbPolygonMeshVertex
 10
0.39
 20
0.315
 30
0.0
 70
    64
  0
VERTEX
  5
4FC9C
100
AcDbEntity
  8
0
100
AcDbVertex
100
AcDbPolygonMeshVertex
 10
0.39
 20
0.315
 30
0.0
 70
    64
  0
VERTEX
  5
4FC9D
100
AcDbEntity
  8
0
100
AcDbVertex
100
AcDbPolygonMeshVertex
 10
0.39
 20
0.375
 30
0.13
 70
    64
  0
VERTEX
  5
4FC9E
100
AcDbEntity
  8
0
100
AcDbVertex
100
AcDbPolygonMeshVertex
 10
0.39
 20
0.375
 30
0.0
 70
    64
  0
VERTEX
  5
4FC9F
100
AcDbEntity
  8
0
100
AcDbVertex
100
AcDbPolygonMeshVertex
 10
0.39
 20
0.315
 30
0.0
 70
    64
  0
VERTEX
  5
4FCA0
100
AcDbEntity
  8
0
100
AcDbVertex
100
AcDbPolygonMeshVertex
 10
1.19
 20
0.375
 30
0.13
 70
    64
  0
VERTEX
  5
4FCA1
100
AcDbEntity
  8
0
100
AcDbVertex
100
AcDbPolygonMeshVertex
 10
1.19
 20
0.375
 30
0.0
 70
    64
  0
VERTEX
  5
4FCA2
100
AcDbEntity
  8
0
100
AcDbVertex
100
AcDbPolygonMeshVertex
 10
1.19
 20
0.315
 30
0.0
 70
    64
  0
VERTEX
  5
4FCA3
100
AcDbEntity
  8
0
100
AcDbVertex
100
AcDbPolygonMeshVertex
 10
1.19
 20
0.375
 30
0.13
 70
    64
  0
VERTEX
  5
4FCA4
100
AcDbEntity
  8
0
100
AcDbVertex
100
AcDbPolygonMeshVertex
 10
1.19
 20
0.375
 30
0.13
 70
    64
  0
VERTEX
  5
4FCA5
100
AcDbEntity
  8
0
100
AcDbVertex
100
AcDbPolygonMeshVertex
 10
1.19
 20
0.315
 30
0.13
 70
    64
  0
VERTEX
  5
4FCA6
100
AcDbEntity
  8
0
100
AcDbVertex
100
AcDbPolygonMeshVertex
 10
0.39
 20
0.375
 30
0.13
 70
    64
  0
VERTEX
  5
4FCA7
100
AcDbEntity
  8
0
100
AcDbVertex
100
AcDbPolygonMeshVertex
 10
0.39
 20
0.375
 30
0.13
 70
    64
  0
VERTEX
  5
4FCA8
100
AcDbEntity
  8
0
100
AcDbVertex
100
AcDbPolygonMeshVertex
 10
0.39
 20
0.315
 30
0.13
 70
    64
  0
SEQEND
  5
4FCA9
100
AcDbEntity
  8
0
  0
POLYLINE
  5
4FCAA
100
AcDbEntity
  8
0
100
AcDbPolygonMesh
 66
     1
 10
0.0
 20
0.0
 30
0.0
 70
    16
 71
     6
 72
     3
  0
VERTEX
  5
4FCAB
100
AcDbEntity
  8
0
100
AcDbVertex
100
AcDbPolygonMeshVertex
 10
1.06
 20
0.375
 30
0.0
 70
    64
  0
VERTEX
  5
4FCAC
100
AcDbEntity
  8
0
100
AcDbVertex
100
AcDbPolygonMeshVertex
 10
1.06
 20
0.375
 30
0.0
 70
    64
  0
VERTEX
  5
4FCAD
100
AcDbEntity
  8
0
100
AcDbVertex
100
AcDbPolygonMeshVertex
 10
1.06
 20
0.375
 30
0.0
 70
    64
  0
VERTEX
  5
4FCAE
100
AcDbEntity
  8
0
100
AcDbVertex
100
AcDbPolygonMeshVertex
 10
0.915
 20
0.495
 30
0.0
 70
    64
  0
VERTEX
  5
4FCAF
100
AcDbEntity
  8
0
100
AcDbVertex
100
AcDbPolygonMeshVertex
 10
0.915
 20
0.375
 30
0.0
 70
    64
  0
VERTEX
  5
4FCB0
100
AcDbEntity
  8
0
100
AcDbVertex
100
AcDbPolygonMeshVertex
 10
0.915
 20
0.375
 30
0.0
 70
    64
  0
VERTEX
  5
4FCB1
100
AcDbEntity
  8
0
100
AcDbVertex
100
AcDbPolygonMeshVertex
 10
0.915
 20
0.495
 30
0.13
 70
    64
  0
VERTEX
  5
4FCB2
100
AcDbEntity
  8
0
100
AcDbVertex
100
AcDbPolygonMeshVertex
 10
0.915
 20
0.375
 30
0.13
 70
    64
  0
VERTEX
  5
4FCB3
100
AcDbEntity
  8
0
100
AcDbVertex
100
AcDbPolygonMeshVertex
 10
0.915
 20
0.375
 30
0.0
 70
    64
  0
VERTEX
  5
4FCB4
100
AcDbEntity
  8
0
100
AcDbVertex
100
AcDbPolygonMeshVertex
 10
1.06
 20
0.375
 30
0.13
 70
    64
  0
VERTEX
  5
4FCB5
100
AcDbEntity
  8
0
100
AcDbVertex
100
AcDbPolygonMeshVertex
 10
1.06
 20
0.375
 30
0.13
 70
    64
  0
VERTEX
  5
4FCB6
100
AcDbEntity
  8
0
100
AcDbVertex
100
AcDbPolygonMeshVertex
 10
1.06
 20
0.375
 30
0.0
 70
    64
  0
VERTEX
  5
4FCB7
100
AcDbEntity
  8
0
100
AcDbVertex
100
AcDbPolygonMeshVertex
 10
1.06
 20
0.375
 30
0.13
 70
    64
  0
VERTEX
  5
4FCB8
100
AcDbEntity
  8
0
100
AcDbVertex
100
AcDbPolygonMeshVertex
 10
1.06
 20
0.375
 30
0.13
 70
    64
  0
VERTEX
  5
4FCB9
100
AcDbEntity
  8
0
100
AcDbVertex
100
AcDbPolygonMeshVertex
 10
1.06
 20
0.375
 30
0.0
 70
    64
  0
VERTEX
  5
4FCBA
100
AcDbEntity
  8
0
100
AcDbVertex
100
AcDbPolygonMeshVertex
 10
0.915
 20
0.495
 30
0.13
 70
    64
  0
VERTEX
  5
4FCBB
100
AcDbEntity
  8
0
100
AcDbVertex
100
AcDbPolygonMeshVertex
 10
0.915
 20
0.495
 30
0.13
 70
    64
  0
VERTEX
  5
4FCBC
100
AcDbEntity
  8
0
100
AcDbVertex
100
AcDbPolygonMeshVertex
 10
0.915
 20
0.495
 30
0.0
 70
    64
  0
SEQEND
  5
4FCBD
100
AcDbEntity
  8
0
  0
POLYLINE
  5
4FCBE
100
AcDbEntity
  8
0
100
AcDbPolygonMesh
 66
     1
 10
0.0
 20
0.0
 30
0.0
 70
    16
 71
     6
 72
     3
  0
VERTEX
  5
4FCBF
100
AcDbEntity
  8
0
100
AcDbVertex
100
AcDbPolygonMeshVertex
 10
0.52
 20
0.375
 30
0.0
 70
    64
  0
VERTEX
  5
4FCC0
100
AcDbEntity
  8
0
100
AcDbVertex
100
AcDbPolygonMeshVertex
 10
0.52
 20
0.375
 30
0.0
 70
    64
  0
VERTEX
  5
4FCC1
100
AcDbEntity
  8
0
100
AcDbVertex
100
AcDbPolygonMeshVertex
 10
0.52
 20
0.375
 30
0.0
 70
    64
  0
VERTEX
  5
4FCC2
100
AcDbEntity
  8
0
100
AcDbVertex
100
AcDbPolygonMeshVertex
 10
0.665
 20
0.495
 30
0.0
 70
    64
  0
VERTEX
  5
4FCC3
100
AcDbEntity
  8
0
100
AcDbVertex
100
AcDbPolygonMeshVertex
 10
0.665
 20
0.375
 30
0.0
 70
    64
  0
VERTEX
  5
4FCC4
100
AcDbEntity
  8
0
100
AcDbVertex
100
AcDbPolygonMeshVertex
 10
0.665
 20
0.375
 30
0.0
 70
    64
  0
VERTEX
  5
4FCC5
100
AcDbEntity
  8
0
100
AcDbVertex
100
AcDbPolygonMeshVertex
 10
0.665
 20
0.495
 30
0.13
 70
    64
  0
VERTEX
  5
4FCC6
100
AcDbEntity
  8
0
100
AcDbVertex
100
AcDbPolygonMeshVertex
 10
0.665
 20
0.375
 30
0.13
 70
    64
  0
VERTEX
  5
4FCC7
100
AcDbEntity
  8
0
100
AcDbVertex
100
AcDbPolygonMeshVertex
 10
0.665
 20
0.375
 30
0.0
 70
    64
  0
VERTEX
  5
4FCC8
100
AcDbEntity
  8
0
100
AcDbVertex
100
AcDbPolygonMeshVertex
 10
0.52
 20
0.375
 30
0.13
 70
    64
  0
VERTEX
  5
4FCC9
100
AcDbEntity
  8
0
100
AcDbVertex
100
AcDbPolygonMeshVertex
 10
0.52
 20
0.375
 30
0.13
 70
    64
  0
VERTEX
  5
4FCCA
100
AcDbEntity
  8
0
100
AcDbVertex
100
AcDbPolygonMeshVertex
 10
0.52
 20
0.375
 30
0.0
 70
    64
  0
VERTEX
  5
4FCCB
100
AcDbEntity
  8
0
100
AcDbVertex
100
AcDbPolygonMeshVertex
 10
0.52
 20
0.375
 30
0.13
 70
    64
  0
VERTEX
  5
4FCCC
100
AcDbEntity
  8
0
100
AcDbVertex
100
AcDbPolygonMeshVertex
 10
0.52
 20
0.375
 30
0.13
 70
    64
  0
VERTEX
  5
4FCCD
100
AcDbEntity
  8
0
100
AcDbVertex
100
AcDbPolygonMeshVertex
 10
0.52
 20
0.375
 30
0.0
 70
    64
  0
VERTEX
  5
4FCCE
100
AcDbEntity
  8
0
100
AcDbVertex
100
AcDbPolygonMeshVertex
 10
0.665
 20
0.495
 30
0.13
 70
    64
  0
VERTEX
  5
4FCCF
100
AcDbEntity
  8
0
100
AcDbVertex
100
AcDbPolygonMeshVertex
 10
0.665
 20
0.495
 30
0.13
 70
    64
  0
VERTEX
  5
4FCD0
100
AcDbEntity
  8
0
100
AcDbVertex
100
AcDbPolygonMeshVertex
 10
0.665
 20
0.495
 30
0.0
 70
    64
  0
SEQEND
  5
4FCD1
100
AcDbEntity
  8
0
  0
POLYLINE
  5
4FCD2
100
AcDbEntity
  8
0
100
AcDbPolygonMesh
 66
     1
 10
0.0
 20
0.0
 30
0.0
 70
    16
 71
     6
 72
     3
  0
VERTEX
  5
4FCD3
100
AcDbEntity
  8
0
100
AcDbVertex
100
AcDbPolygonMeshVertex
 10
0.665
 20
0.375
 30
0.13
 70
    64
  0
VERTEX
  5
4FCD4
100
AcDbEntity
  8
0
100
AcDbVertex
100
AcDbPolygonMeshVertex
 10
0.665
 20
0.375
 30
0.0
 70
    64
  0
VERTEX
  5
4FCD5
100
AcDbEntity
  8
0
100
AcDbVertex
100
AcDbPolygonMeshVertex
 10
0.665
 20
0.375
 30
0.0
 70
    64
  0
VERTEX
  5
4FCD6
100
AcDbEntity
  8
0
100
AcDbVertex
100
AcDbPolygonMeshVertex
 10
0.665
 20
0.495
 30
0.13
 70
    64
  0
VERTEX
  5
4FCD7
100
AcDbEntity
  8
0
100
AcDbVertex
100
AcDbPolygonMeshVertex
 10
0.665
 20
0.495
 30
0.0
 70
    64
  0
VERTEX
  5
4FCD8
100
AcDbEntity
  8
0
100
AcDbVertex
100
AcDbPolygonMeshVertex
 10
0.665
 20
0.495
 30
0.0
 70
    64
  0
VERTEX
  5
4FCD9
100
AcDbEntity
  8
0
100
AcDbVertex
100
AcDbPolygonMeshVertex
 10
0.915
 20
0.495
 30
0.13
 70
    64
  0
VERTEX
  5
4FCDA
100
AcDbEntity
  8
0
100
AcDbVertex
100
AcDbPolygonMeshVertex
 10
0.915
 20
0.495
 30
0.0
 70
    64
  0
VERTEX
  5
4FCDB
100
AcDbEntity
  8
0
100
AcDbVertex
100
AcDbPolygonMeshVertex
 10
0.665
 20
0.495
 30
0.0
 70
    64
  0
VERTEX
  5
4FCDC
100
AcDbEntity
  8
0
100
AcDbVertex
100
AcDbPolygonMeshVertex
 10
0.915
 20
0.375
 30
0.13
 70
    64
  0
VERTEX
  5
4FCDD
100
AcDbEntity
  8
0
100
AcDbVertex
100
AcDbPolygonMeshVertex
 10
0.915
 20
0.375
 30
0.0
 70
    64
  0
VERTEX
  5
4FCDE
100
AcDbEntity
  8
0
100
AcDbVertex
100
AcDbPolygonMeshVertex
 10
0.665
 20
0.375
 30
0.0
 70
    64
  0
VERTEX
  5
4FCDF
100
AcDbEntity
  8
0
100
AcDbVertex
100
AcDbPolygonMeshVertex
 10
0.915
 20
0.375
 30
0.13
 70
    64
  0
VERTEX
  5
4FCE0
100
AcDbEntity
  8
0
100
AcDbVertex
100
AcDbPolygonMeshVertex
 10
0.915
 20
0.375
 30
0.13
 70
    64
  0
VERTEX
  5
4FCE1
100
AcDbEntity
  8
0
100
AcDbVertex
100
AcDbPolygonMeshVertex
 10
0.665
 20
0.375
 30
0.13
 70
    64
  0
VERTEX
  5
4FCE2
100
AcDbEntity
  8
0
100
AcDbVertex
100
AcDbPolygonMeshVertex
 10
0.915
 20
0.495
 30
0.13
 70
    64
  0
VERTEX
  5
4FCE3
100
AcDbEntity
  8
0
100
AcDbVertex
100
AcDbPolygonMeshVertex
 10
0.915
 20
0.495
 30
0.13
 70
    64
  0
VERTEX
  5
4FCE4
100
AcDbEntity
  8
0
100
AcDbVertex
100
AcDbPolygonMeshVertex
 10
0.665
 20
0.495
 30
0.13
 70
    64
  0
SEQEND
  5
4FCE5
100
AcDbEntity
  8
0
  0
ATTDEF
  5
4FCE6
100
AcDbEntity
  8
ATTRIBUTES
100
AcDbText
 10
0.013495
 20
0.17162
 30
0.0
 40
0.12
  1
ALLEN-BRADLEY
100
AcDbAttributeDefinition
  3
Manufacturer name
  2
AC_VND_LABEL
 70
     1
  0
ATTDEF
  5
4FCE7
100
AcDbEntity
  8
ATTRIBUTES
100
AcDbText
 10
0.013495
 20
-0.00828
 30
0.0
 40
0.12
  1
700-HN125
100
AcDbAttributeDefinition
  3
Manufacturer part number
  2
AC_PART_NO
 70
     1
  0
ATTDEF
  5
4FCE8
100
AcDbEntity
  8
ATTRIBUTES
100
AcDbText
 10
0.013495
 20
-0.18818
 30
0.0
 40
0.12
  1
CONTROL RELAY; GENERAL PURPOSE SOCKET; 8 PIN
100
AcDbAttributeDefinition
  3
Manufacturer part description
  2
AC_DESCRIPTION
 70
     1
  0
ATTDEF
  5
4FCE9
100
AcDbEntity
  8
ATTRIBUTES
100
AcDbText
 10
0.013495
 20
-0.36808
 30
0.0
 40
0.12
  1

100
AcDbAttributeDefinition
  3
Device ID
  2
DEVICE_ID
 70
     1
  0
ATTDEF
  5
4FCEA
100
AcDbEntity
  8
ATTRIBUTES
100
AcDbText
 10
0.013495
 20
-0.54798
 30
0.0
 40
0.12
  1

100
AcDbAttributeDefinition
  3
Customer part number
  2
AC_CPART_NO
 70
     1
  0
ATTDEF
  5
4FCEB
100
AcDbEntity
  8
ATTRIBUTES
100
AcDbText
 10
0.02015
 20
-0.944928
 30
0.0
 40
0.12
  1

100
AcDbAttributeDefinition
  3
Customer note
  2
AC_NOTE
 70
     1
  0
ATTDEF
  5
4FCEC
100
AcDbEntity
  8
ATTRIBUTES
100
AcDbText
 10
0.02015
 20
-1.124828
 30
0.0
 40
0.12
  1

100
AcDbAttributeDefinition
  3
Fastener Data
  2
FASTENER
 70
     1
  0
ATTDEF
  5
4FCED
100
AcDbEntity
  8
ATTRIBUTES
100
AcDbText
 10
0.02015
 20
-1.304728
 30
0.0
 40
0.12
  1
INCH
100
AcDbAttributeDefinition
  3
Unit of scale (meter, mm, or inch)
  2
AC_SCALE_UNIT
 70
     1
  0
ATTDEF
  5
4FCEE
100
AcDbEntity
  8
ATTRIBUTES
100
AcDbText
 10
0.02015
 20
-1.484628
 30
0.0
 40
0.12
  1
0
100
AcDbAttributeDefinition
  3
View code (top, front, right, etc.)
  2
AC_VIEW_CODE
 70
     1
  0
POLYLINE
  5
4FCEF
100
AcDbEntity
  8
0
100
AcDbPolygonMesh
 66
     1
 10
0.0
 20
0.0
 30
0.0
 70
    16
 71
     6
 72
     3
  0
VERTEX
  5
4FCF0
100
AcDbEntity
  8
0
100
AcDbVertex
100
AcDbPolygonMeshVertex
 10
1.58
 20
-1.38
 30
0.187
 70
    64
  0
VERTEX
  5
4FCF1
100
AcDbEntity
  8
0
100
AcDbVertex
100
AcDbPolygonMeshVertex
 10
1.58
 20
-1.38
 30
0.0
 70
    64
  0
VERTEX
  5
4FCF2
100
AcDbEntity
  8
0
100
AcDbVertex
100
AcDbPolygonMeshVertex
 10
1.58
 20
-1.38
 30
0.0
 70
    64
  0
VERTEX
  5
4FCF3
100
AcDbEntity
  8
0
100
AcDbVertex
100
AcDbPolygonMeshVertex
 10
0.0
 20
-1.38
 30
0.187
 70
    64
  0
VERTEX
  5
4FCF4
100
AcDbEntity
  8
0
100
AcDbVertex
100
AcDbPolygonMeshVertex
 10
0.0
 20
-1.38
 30
0.0
 70
    64
  0
VERTEX
  5
4FCF5
100
AcDbEntity
  8
0
100
AcDbVertex
100
AcDbPolygonMeshVertex
 10
0.0
 20
-1.38
 30
0.0
 70
    64
  0
VERTEX
  5
4FCF6
100
AcDbEntity
  8
0
100
AcDbVertex
100
AcDbPolygonMeshVertex
 10
0.0
 20
0.0
 30
0.187
 70
    64
  0
VERTEX
  5
4FCF7
100
AcDbEntity
  8
0
100
AcDbVertex
100
AcDbPolygonMeshVertex
 10
0.0
 20
0.0
 30
0.0
 70
    64
  0
VERTEX
  5
4FCF8
100
AcDbEntity
  8
0
100
AcDbVertex
100
AcDbPolygonMeshVertex
 10
0.0
 20
-1.38
 30
0.0
 70
    64
  0
VERTEX
  5
4FCF9
100
AcDbEntity
  8
0
100
AcDbVertex
100
AcDbPolygonMeshVertex
 10
1.58
 20
0.0
 30
0.187
 70
    64
  0
VERTEX
  5
4FCFA
100
AcDbEntity
  8
0
100
AcDbVertex
100
AcDbPolygonMeshVertex
 10
1.58
 20
0.0
 30
0.0
 70
    64
  0
VERTEX
  5
4FCFB
100
AcDbEntity
  8
0
100
AcDbVertex
100
AcDbPolygonMeshVertex
 10
1.58
 20
-1.38
 30
0.0
 70
    64
  0
VERTEX
  5
4FCFC
100
AcDbEntity
  8
0
100
AcDbVertex
100
AcDbPolygonMeshVertex
 10
1.58
 20
0.0
 30
0.187
 70
    64
  0
VERTEX
  5
4FCFD
100
AcDbEntity
  8
0
100
AcDbVertex
100
AcDbPolygonMeshVertex
 10
1.58
 20
0.0
 30
0.187
 70
    64
  0
VERTEX
  5
4FCFE
100
AcDbEntity
  8
0
100
AcDbVertex
100
AcDbPolygonMeshVertex
 10
1.58
 20
-1.38
 30
0.187
 70
    64
  0
VERTEX
  5
4FCFF
100
AcDbEntity
  8
0
100
AcDbVertex
100
AcDbPolygonMeshVertex
 10
0.0
 20
0.0
 30
0.187
 70
    64
  0
VERTEX
  5
4FD00
100
AcDbEntity
  8
0
100
AcDbVertex
100
AcDbPolygonMeshVertex
 10
0.0
 20
0.0
 30
0.187
 70
    64
  0
VERTEX
  5
4FD01
100
AcDbEntity
  8
0
100
AcDbVertex
100
AcDbPolygonMeshVertex
 10
0.0
 20
-1.38
 30
0.187
 70
    64
  0
SEQEND
  5
4FD02
100
AcDbEntity
  8
0
  0
POINT
  5
4FD03
100
AcDbEntity
  8
SNAP_POINTS
100
AcDbPoint
 10
0.0
 20
0.0
 30
0.0
  0
POINT
  5
4FD04
100
AcDbEntity
  8
SNAP_POINTS
100
AcDbPoint
 10
0.79
 20
-0.69
 30
0.97
  0
POINT
  5
4FD05
100
AcDbEntity
  8
DIMS-MTG-HOLES
100
AcDbPoint
 10
0.1425
 20
-0.69
 30
0.0
  0
POINT
  5
4FD06
100
AcDbEntity
  8
DIMS-MTG-HOLES
100
AcDbPoint
 10
1.439375
 20
-0.69
 30
0.0
  0
DIMENSION
  5
4FD07
100
AcDbEntity
  8
AREA1
100
AcDbDimension
  2
*D0
 10
-0.860542
 20
-1.695
 30
0.0
 11
-0.860542
 21
-0.60677
 31
0.0
 70
   160
  3
ABECAD_3D
100
AcDbAlignedDimension
 13
0.665
 23
0.495
 33
0.0
 14
0.0
 24
-1.695
 34
0.0
 50
90.0
100
AcDbRotatedDimension
  0
DIMENSION
  5
4FD15
100
AcDbEntity
  8
AREA1
100
AcDbDimension
  2
*D1
 10
1.58
 20
0.907991
 30
0.0
 11
0.797024
 21
1.241238
 31
0.0
 70
   160
  3
ABECAD_3D
100
AcDbAlignedDimension
 13
0.0
 23
0.315
 33
0.0
 14
1.58
 24
0.315
 34
0.0
100
AcDbRotatedDimension
  0
LWPOLYLINE
  5
4FD3A
100
AcDbEntity
  8
SCALE
100
AcDbPolyline
 90
        4
 70
     1
 43
0.0
 10
0.183135
 20
-1.832338
 10
1.318763
 20
-1.832338
 10
1.318763
 20
-2.673948
 10
0.183135
 20
-2.673948
  0
LINE
  5
4FD3B
100
AcDbEntity
  8
SCALE
100
AcDbLine
 10
0.241133
 20
-2.212416
 30
0.0
 11
1.241133
 21
-2.212416
 31
0.0
  0
LINE
  5
4FD3C
100
AcDbEntity
  8
SCALE
100
AcDbLine
 10
0.241133
 20
-2.512416
 30
0.0
 11
0.634833
 21
-2.512416
 31
0.0
  0
LINE
  5
4FD3D
100
AcDbEntity
  8
SCALE
100
AcDbLine
 10
0.241133
 20
-2.312416
 30
0.0
 11
0.241133
 21
-2.112416
 31
0.0
  0
TEXT
  5
4FD3E
100
AcDbEntity
  8
SCALE
100
AcDbText
 10
0.297109
 20
-2.464731
 30
0.0
 40
0.0625
  1
[10mm]
100
AcDbText
  0
LINE
  5
4FD3F
100
AcDbEntity
  8
SCALE
100
AcDbLine
 10
0.241133
 20
-2.612416
 30
0.0
 11
0.241133
 21
-2.412416
 31
0.0
  0
TEXT
  5
4FD40
100
AcDbEntity
  8
SCALE
100
AcDbText
 10
0.242663
 20
-1.937539
 30
0.0
 40
0.0625
  1
SCALE:
100
AcDbText
  0
LINE
  5
4FD41
100
AcDbEntity
  8
SCALE
100
AcDbLine
 10
0.634833
 20
-2.612416
 30
0.0
 11
0.634833
 21
-2.412416
 31
0.0
  0
TEXT
  5
4FD42
100
AcDbEntity
  8
SCALE
100
AcDbText
 10
0.604416
 20
-2.143368
 30
0.0
 40
0.0625
  1
1 Inch
100
AcDbText
  0
LINE
  5
4FD43
100
AcDbEntity
  8
SCALE
100
AcDbLine
 10
1.241133
 20
-2.212416
 30
0.0
 11
1.241133
 21
-2.312416
 31
0.0
  0
LINE
  5
4FD44
100
AcDbEntity
  8
SCALE
100
AcDbLine
 10
1.241133
 20
-2.312416
 30
0.0
 11
1.241133
 21
-2.112416
 31
0.0
  0
ENDSEC
  0
SECTION
  2
OBJECTS
  0
DICTIONARY
  5
458CB
100
AcDbDictionary
  3
ACAD_GROUP
350
458CC
  3
ACAD_LAYOUT
350
458FB
  3
ACAD_MLINESTYLE
350
458D9
  3
ACAD_PLOTSETTINGS
350
458FC
  3
ACAD_PLOTSTYLENAME
350
458F9
  3
ACDBHEADERROUNDTRIPXREC
350
4FDAC
  3
ACDBVARIABLEDICTIONARY
350
458E1
  3
DWGPROPS
350
45901
  0
DICTIONARY
  5
4FDAA
100
AcDbDictionary
280
     1
  3
ACAD_XREC_ROUNDTRIP
360
4FDAB
  0
DICTIONARY
  5
4FDD3
100
AcDbDictionary
280
     1
  3
ACAD_XREC_ROUNDTRIP
360
4FDD4
  0
DICTIONARY
  5
4FDA8
100
AcDbDictionary
280
     1
  3
ACAD_XREC_ROUNDTRIP
360
4FDA9
  0
DICTIONARY
  5
4FDCF
100
AcDbDictionary
280
     1
  3
ACAD_XREC_ROUNDTRIP
360
4FDD0
  0
DICTIONARY
  5
4592C
100
AcDbDictionary
280
     1
  3
ACAD_LAYOUTSELFREF
360
4FDCE
  0
DICTIONARY
  5
4592A
100
AcDbDictionary
280
     1
  3
ACAD_LAYOUTSELFREF
360
4FDCD
  0
DICTIONARY
  5
458CC
102
{ACAD_REACTORS
330
458CB
102
}
100
AcDbDictionary
  0
DICTIONARY
  5
458FB
102
{ACAD_XDICTIONARY
360
4FDD1
102
}
102
{ACAD_REACTORS
330
458CB
102
}
100
AcDbDictionary
  3
LAYOUT1
350
458FE
  3
MODEL
350
458FD
  0
DICTIONARY
  5
458D9
102
{ACAD_REACTORS
330
458CB
102
}
100
AcDbDictionary
  3
STANDARD
350
458DA
  0
DICTIONARY
  5
458FC
102
{ACAD_REACTORS
330
458CB
102
}
100
AcDbDictionary
  0
ACAD_PROXY_OBJECT
  5
458F9
102
{ACAD_REACTORS
330
458CB
102
}
100
AcDbProxyObject
 90
      499
 91
      501
 93
       86
310
405010041939BDC9B585B0
350
458FA
340
458FA
 94
        0
  0
DICTIONARY
  5
4FDAC
102
{ACAD_REACTORS
330
458CB
102
}
100
AcDbDictionary
  3
CEPSNTYPE
350
4FDB6
  3
DIMSTYLEDATA
350
4FDBA
  3
FINGERPRINTGUID
350
4FDB7
  3
HYPERLINKBASE
350
4FDAF
  3
INSUNITS
350
4FDB5
  3
LAYOUTDICT
350
4FDB1
  3
LWETCUNION
350
4FDB4
  3
PLOTSETDICT
350
4FDB2
  3
PLOTSTYLNAMDICT
350
4FDB3
  3
PSVPSCALE
350
4FDB9
  3
PUCSBASE
350
4FDBD
  3
PUCSORGBACK
350
4FDC3
  3
PUCSORGBOTTOM
350
4FDBF
  3
PUCSORGFRONT
350
4FDC2
  3
PUCSORGLEFT
350
4FDC0
  3
PUCSORGRIGHT
350
4FDC1
  3
PUCSORGTOP
350
4FDBE
  3
PUCSORTHOREF
350
4FDBB
  3
PUCSORTHOVIEW
350
4FDBC
  3
STYLESHEET
350
4FDB0
  3
TSTACKALIGN
350
4FDAD
  3
TSTACKSIZE
350
4FDAE
  3
UCSBASE
350
4FDC6
  3
UCSORGBACK
350
4FDCC
  3
UCSORGBOTTOM
350
4FDC8
  3
UCSORGFRONT
350
4FDCB
  3
UCSORGLEFT
350
4FDC9
  3
UCSORGRIGHT
350
4FDCA
  3
UCSORGTOP
350
4FDC7
  3
UCSORTHOREF
350
4FDC4
  3
UCSORTHOVIEW
350
4FDC5
  3
VERSIONGUID
350
4FDB8
  0
DICTIONARY
  5
458E1
102
{ACAD_REACTORS
330
458CB
102
}
100
AcDbDictionary
  3
DIMADEC
350
458E2
  0
XRECORD
  5
45901
102
{ACAD_REACTORS
330
458CB
102
}
100
AcDbXrecord
  1
DWGPROPS COOKIE
  2

  3

  4

  6

  7

  8
colin
  9

300
=
301
=
302
=
303
=
304
=
305
=
306
=
307
=
308
=
309
=
 40
0.000599
 41
2451670.444777
 42
2451670.445376
  1

 90
        0
  0
XRECORD
  5
4FDAB
102
{ACAD_REACTORS
330
4FDAA
102
}
100
AcDbXrecord
102
EXTNAMES
  1
*ACTIVE
  2
*Active
102
UCS
 74
     0
 71
     1
 10
0.0
 20
0.0
 30
0.0
 10
1.0
 20
0.0
 30
0.0
 10
0.0
 20
1.0
 30
0.0
146
0.0
 79
     1
102
VIEW
281
     1
  0
XRECORD
  5
4FDD4
102
{ACAD_REACTORS
330
4FDD3
102
}
100
AcDbXrecord
102
PLOTBIT
280
     0
  0
XRECORD
  5
4FDA9
102
{ACAD_REACTORS
330
4FDA8
102
}
100
AcDbXrecord
102
EXTNAMES
  1
DEFPOINTS
  2
Defpoints
102
PLOTBIT
280
     0
  0
XRECORD
  5
4FDD0
102
{ACAD_REACTORS
330
4FDCF
102
}
100
AcDbXrecord
102
ACADR14ROUNDTRIP
1000
DSTYLE
1002
{
1070
   276
 70
     2
1070
   277
 70
     5
1070
   279
 70
     2
1002
}
  0
XRECORD
  5
4FDCE
102
{ACAD_REACTORS
330
4592C
102
}
100
AcDbXrecord
340
458D6
  0
XRECORD
  5
4FDCD
102
{ACAD_REACTORS
330
4592A
102
}
100
AcDbXrecord
340
458D3
  0
DICTIONARY
  5
4FDD1
100
AcDbDictionary
280
     1
  3
ACAD_XREC_ROUNDTRIP
360
4FDD2
  0
ACAD_PROXY_OBJECT
  5
458FE
102
{ACAD_REACTORS
330
458FB
102
}
100
AcDbProxyObject
 90
      499
 91
      503
 93
     1348
310
91D4850204C617365724A65742035303030205365726965732050434C20362C00AAAAAA416AA547D11959985D5B1D08148C4D081C195B88185CDCDA59DB9B595B9D1CCB98DD1891069074C61796F75743140501A800000000000000000000000000000000000000000000A1000000000000008902A6A6A10232D5E076BC551
310
0408CB5781DAF154410232D5E076BC5510408CB5781DAF15C410232D5E076BC5710408CB5781DAF15C40
330
458D3
330
0
340
0
340
0
 94
        0
  0
ACAD_PROXY_OBJECT
  5
458FD
102
{ACAD_REACTORS
330
458FB
102
}
100
AcDbProxyObject
 90
      499
 91
      503
 93
      924
310
91D4850204C617365724A65742035303030205365726965732050434C20362C01AAAAAAAAA547D11959985D5B1D08148C4D081C195B88185CDCDA59DB9B595B9D1CCB98DD18A69054D6F64656C901A800000000000000000000000000000000000000000000A1000000000000008902A6A6AAAA1
330
458D6
330
0
340
0
340
0
 94
        0
  0
MLINESTYLE
  5
458DA
102
{ACAD_REACTORS
330
458D9
102
}
100
AcDbMlineStyle
  2
STANDARD
 70
     0
  3

 62
   256
 51
90.0
 52
90.0
 71
     2
 49
0.5
 62
   256
  6
BYLAYER
 49
-0.5
 62
   256
  6
BYLAYER
  0
ACAD_PROXY_OBJECT
  5
458FA
102
{ACAD_REACTORS
330
458F9
102
}
100
AcDbProxyObject
 90
      499
 91
      502
 93
        0
 94
        0
  0
XRECORD
  5
4FDB6
102
{ACAD_REACTORS
330
4FDAC
102
}
100
AcDbXrecord
 90
        0
  0
XRECORD
  5
4FDBA
102
{ACAD_REACTORS
330
4FDAC
102
}
100
AcDbXrecord
1000
DSTYLE
1002
{
1070
   276
 70
     2
1070
   277
 70
     5
1070
   279
 70
     2
1002
}
  0
XRECORD
  5
4FDB7
102
{ACAD_REACTORS
330
4FDAC
102
}
100
AcDbXrecord
  1
{6E0CF4B8-225E-11D4-A150-00A0CC3303EC}
  0
XRECORD
  5
4FDAF
102
{ACAD_REACTORS
330
4FDAC
102
}
100
AcDbXrecord
  1

  0
XRECORD
  5
4FDB5
102
{ACAD_REACTORS
330
4FDAC
102
}
100
AcDbXrecord
 90
        0
  0
XRECORD
  5
4FDB1
102
{ACAD_REACTORS
330
4FDAC
102
}
100
AcDbXrecord
340
458FB
  0
XRECORD
  5
4FDB4
102
{ACAD_REACTORS
330
4FDAC
102
}
100
AcDbXrecord
 90
    14877
  0
XRECORD
  5
4FDB2
102
{ACAD_REACTORS
330
4FDAC
102
}
100
AcDbXrecord
340
458FC
  0
XRECORD
  5
4FDB3
102
{ACAD_REACTORS
330
4FDAC
102
}
100
AcDbXrecord
340
458F9
  0
XRECORD
  5
4FDB9
102
{ACAD_REACTORS
330
4FDAC
102
}
100
AcDbXrecord
 40
0.0
  0
XRECORD
  5
4FDBD
102
{ACAD_REACTORS
330
4FDAC
102
}
100
AcDbXrecord
340
0
  0
XRECORD
  5
4FDC3
102
{ACAD_REACTORS
330
4FDAC
102
}
100
AcDbXrecord
 10
0.0
 20
0.0
 30
0.0
  0
XRECORD
  5
4FDBF
102
{ACAD_REACTORS
330
4FDAC
102
}
100
AcDbXrecord
 10
0.0
 20
0.0
 30
0.0
  0
XRECORD
  5
4FDC2
102
{ACAD_REACTORS
330
4FDAC
102
}
100
AcDbXrecord
 10
0.0
 20
0.0
 30
0.0
  0
XRECORD
  5
4FDC0
102
{ACAD_REACTORS
330
4FDAC
102
}
100
AcDbXrecord
 10
0.0
 20
0.0
 30
0.0
  0
XRECORD
  5
4FDC1
102
{ACAD_REACTORS
330
4FDAC
102
}
100
AcDbXrecord
 10
0.0
 20
0.0
 30
0.0
  0
XRECORD
  5
4FDBE
102
{ACAD_REACTORS
330
4FDAC
102
}
100
AcDbXrecord
 10
0.0
 20
0.0
 30
0.0
  0
XRECORD
  5
4FDBB
102
{ACAD_REACTORS
330
4FDAC
102
}
100
AcDbXrecord
340
0
  0
XRECORD
  5
4FDBC
102
{ACAD_REACTORS
330
4FDAC
102
}
100
AcDbXrecord
 70
     0
  0
XRECORD
  5
4FDB0
102
{ACAD_REACTORS
330
4FDAC
102
}
100
AcDbXrecord
  1

  0
XRECORD
  5
4FDAD
102
{ACAD_REACTORS
330
4FDAC
102
}
100
AcDbXrecord
 90
        1
  0
XRECORD
  5
4FDAE
102
{ACAD_REACTORS
330
4FDAC
102
}
100
AcDbXrecord
 90
       70
  0
XRECORD
  5
4FDC6
102
{ACAD_REACTORS
330
4FDAC
102
}
100
AcDbXrecord
340
0
  0
XRECORD
  5
4FDCC
102
{ACAD_REACTORS
330
4FDAC
102
}
100
AcDbXrecord
 10
0.0
 20
0.0
 30
0.0
  0
XRECORD
  5
4FDC8
102
{ACAD_REACTORS
330
4FDAC
102
}
100
AcDbXrecord
 10
0.0
 20
0.0
 30
0.0
  0
XRECORD
  5
4FDCB
102
{ACAD_REACTORS
330
4FDAC
102
}
100
AcDbXrecord
 10
0.0
 20
0.0
 30
0.0
  0
XRECORD
  5
4FDC9
102
{ACAD_REACTORS
330
4FDAC
102
}
100
AcDbXrecord
 10
0.0
 20
0.0
 30
0.0
  0
XRECORD
  5
4FDCA
102
{ACAD_REACTORS
330
4FDAC
102
}
100
AcDbXrecord
 10
0.0
 20
0.0
 30
0.0
  0
XRECORD
  5
4FDC7
102
{ACAD_REACTORS
330
4FDAC
102
}
100
AcDbXrecord
 10
0.0
 20
0.0
 30
0.0
  0
XRECORD
  5
4FDC4
102
{ACAD_REACTORS
330
4FDAC
102
}
100
AcDbXrecord
340
0
  0
XRECORD
  5
4FDC5
102
{ACAD_REACTORS
330
4FDAC
102
}
100
AcDbXrecord
 70
     1
  0
XRECORD
  5
4FDB8
102
{ACAD_REACTORS
330
4FDAC
102
}
100
AcDbXrecord
  1
{DB1B8118-52A5-4AEC-A3D2-77C476541138}
  0
DICTIONARYVAR
  5
458E2
102
{ACAD_REACTORS
330
458E1
102
}
100
DictionaryVariables
280
     0
  1
0
  0
XRECORD
  5
4FDD2
102
{ACAD_REACTORS
330
4FDD1
102
}
100
AcDbXrecord
102
EXTNAMES
  1
LAYOUT1
  2
Layout1
  1
MODEL
  2
Model
  0
ENDSEC
  0
EOF
