  0
SECTION
  2
HEADER
  9
$ACADVER
  1
AC1014
  9
$ACADMAINTVER
 70
     8
  9
$DWGCODEPAGE
  3
ANSI_1252
  9
$INSBASE
 10
0.0
 20
0.0
 30
0.0
  9
$EXTMIN
 10
-0.694797
 20
-2.877728
 30
0.0
  9
$EXTMAX
 10
1.287827
 20
1.328746
 30
0.9813
  9
$LIMMIN
 10
0.0
 20
0.0
  9
$LIMMAX
 10
12.0
 20
9.0
  9
$ORTHOMODE
 70
     0
  9
$REGENMODE
 70
     1
  9
$FILLMODE
 70
     1
  9
$QTEXTMODE
 70
     0
  9
$MIRRTEXT
 70
     1
  9
$DRAGMODE
 70
     2
  9
$LTSCALE
 40
1.0
  9
$OSMODE
 70
    37
  9
$ATTMODE
 70
     1
  9
$TEXTSIZE
 40
0.12
  9
$TRACEWID
 40
0.05
  9
$TEXTSTYLE
  7
STANDARD
  9
$CLAYER
  8
0
  9
$CELTYPE
  6
BYLAYER
  9
$CECOLOR
 62
   256
  9
$CELTSCALE
 40
1.0
  9
$DELOBJ
 70
     1
  9
$DISPSILH
 70
     0
  9
$DIMSCALE
 40
1.0
  9
$DIMASZ
 40
0.18
  9
$DIMEXO
 40
0.0625
  9
$DIMDLI
 40
0.375
  9
$DIMRND
 40
0.0
  9
$DIMDLE
 40
0.0
  9
$DIMEXE
 40
0.18
  9
$DIMTP
 40
0.0
  9
$DIMTM
 40
0.0
  9
$DIMTXT
 40
0.125
  9
$DIMCEN
 40
0.09
  9
$DIMTSZ
 40
0.0
  9
$DIMTOL
 70
     0
  9
$DIMLIM
 70
     0
  9
$DIMTIH
 70
     0
  9
$DIMTOH
 70
     1
  9
$DIMSE1
 70
     0
  9
$DIMSE2
 70
     0
  9
$DIMTAD
 70
     0
  9
$DIMZIN
 70
     4
  9
$DIMBLK
  1

  9
$DIMASO
 70
     1
  9
$DIMSHO
 70
     1
  9
$DIMPOST
  1

  9
$DIMAPOST
  1

  9
$DIMALT
 70
     1
  9
$DIMALTD
 70
     2
  9
$DIMALTF
 40
25.4
  9
$DIMLFAC
 40
1.0
  9
$DIMTOFL
 70
     0
  9
$DIMTVP
 40
0.0
  9
$DIMTIX
 70
     0
  9
$DIMSOXD
 70
     0
  9
$DIMSAH
 70
     0
  9
$DIMBLK1
  1

  9
$DIMBLK2
  1

  9
$DIMSTYLE
  2
ABECAD_3D
  9
$DIMCLRD
 70
     0
  9
$DIMCLRE
 70
     0
  9
$DIMCLRT
 70
     0
  9
$DIMTFAC
 40
1.5
  9
$DIMGAP
 40
0.09
  9
$DIMJUST
 70
     0
  9
$DIMSD1
 70
     0
  9
$DIMSD2
 70
     0
  9
$DIMTOLJ
 70
     1
  9
$DIMTZIN
 70
     4
  9
$DIMALTZ
 70
     4
  9
$DIMALTTZ
 70
     4
  9
$DIMFIT
 70
     5
  9
$DIMUPT
 70
     1
  9
$DIMUNIT
 70
     7
  9
$DIMDEC
 70
     6
  9
$DIMTDEC
 70
     6
  9
$DIMALTU
 70
     2
  9
$DIMALTTD
 70
     2
  9
$DIMTXSTY
  7
STANDARD
  9
$DIMAUNIT
 70
     0
  9
$LUNITS
 70
     2
  9
$LUPREC
 70
     4
  9
$SKETCHINC
 40
0.1
  9
$FILLETRAD
 40
0.0
  9
$AUNITS
 70
     0
  9
$AUPREC
 70
     0
  9
$MENU
  1
ACAD
  9
$ELEVATION
 40
0.0
  9
$PELEVATION
 40
0.0
  9
$THICKNESS
 40
0.0
  9
$LIMCHECK
 70
     0
  9
$BLIPMODE
 70
     0
  9
$CHAMFERA
 40
0.0
  9
$CHAMFERB
 40
0.0
  9
$CHAMFERC
 40
0.0
  9
$CHAMFERD
 40
0.0
  9
$SKPOLY
 70
     0
  9
$TDCREATE
 40
2451726.438389120
  9
$TDUPDATE
 40
2452010.484640509
  9
$TDINDWG
 40
0.2638734954
  9
$TDUSRTIMER
 40
0.2638734954
  9
$USRTIMER
 70
     1
  9
$ANGBASE
 50
0.0
  9
$ANGDIR
 70
     0
  9
$PDMODE
 70
     3
  9
$PDSIZE
 40
0.09
  9
$PLINEWID
 40
0.0
  9
$COORDS
 70
     1
  9
$SPLFRAME
 70
     1
  9
$SPLINETYPE
 70
     6
  9
$SPLINESEGS
 70
     8
  9
$ATTDIA
 70
     0
  9
$ATTREQ
 70
     1
  9
$HANDLING
 70
     1
  9
$HANDSEED
  5
5041D
  9
$SURFTAB1
 70
     6
  9
$SURFTAB2
 70
     6
  9
$SURFTYPE
 70
     6
  9
$SURFU
 70
     6
  9
$SURFV
 70
     6
  9
$UCSNAME
  2

  9
$UCSORG
 10
0.0
 20
0.0
 30
0.0
  9
$UCSXDIR
 10
1.0
 20
0.0
 30
0.0
  9
$UCSYDIR
 10
0.0
 20
1.0
 30
0.0
  9
$PUCSNAME
  2

  9
$PUCSORG
 10
0.0
 20
0.0
 30
0.0
  9
$PUCSXDIR
 10
1.0
 20
0.0
 30
0.0
  9
$PUCSYDIR
 10
0.0
 20
1.0
 30
0.0
  9
$USERI1
 70
     0
  9
$USERI2
 70
     0
  9
$USERI3
 70
     0
  9
$USERI4
 70
     0
  9
$USERI5
 70
     0
  9
$USERR1
 40
0.0
  9
$USERR2
 40
0.0
  9
$USERR3
 40
0.0
  9
$USERR4
 40
0.0
  9
$USERR5
 40
0.0
  9
$WORLDVIEW
 70
     1
  9
$SHADEDGE
 70
     3
  9
$SHADEDIF
 70
    70
  9
$TILEMODE
 70
     1
  9
$MAXACTVP
 70
    16
  9
$PINSBASE
 10
0.0
 20
0.0
 30
0.0
  9
$PLIMCHECK
 70
     0
  9
$PEXTMIN
 10
1.000000E+20
 20
1.000000E+20
 30
1.000000E+20
  9
$PEXTMAX
 10
-1.000000E+20
 20
-1.000000E+20
 30
-1.000000E+20
  9
$PLIMMIN
 10
0.0
 20
0.0
  9
$PLIMMAX
 10
12.0
 20
9.0
  9
$UNITMODE
 70
     0
  9
$VISRETAIN
 70
     0
  9
$PLINEGEN
 70
     0
  9
$PSLTSCALE
 70
     1
  9
$TREEDEPTH
 70
  3020
  9
$PICKSTYLE
 70
     1
  9
$CMLSTYLE
  2
STANDARD
  9
$CMLJUST
 70
     0
  9
$CMLSCALE
 40
1.0
  9
$PROXYGRAPHICS
 70
     1
  9
$MEASUREMENT
 70
     0
  0
ENDSEC
  0
SECTION
  2
CLASSES
  0
CLASS
  1
DICTIONARYVAR
  2
AcDbDictionaryVar
  3
"AutoCAD"
 90
        0
280
     0
281
     0
  0
CLASS
  1
ACDBDICTIONARYWDFLT
  2
AcDbDictionaryWithDefault
  3
AutoCAD 2000
 90
        0
280
     0
281
     0
  0
CLASS
  1
ACDBPLACEHOLDER
  2
AcDbPlaceHolder
  3
AutoCAD 2000
 90
        0
280
     0
281
     0
  0
CLASS
  1
LAYOUT
  2
AcDbLayout
  3
AutoCAD 2000
 90
        0
280
     0
281
     0
  0
CLASS
  1
LONG_TRANSACTION
  2
AcDbLongTransaction
  3
AutoCAD 2000
 90
        0
280
     0
281
     0
  0
CLASS
  1
LWPOLYLINE
  2
AcDbPolyline
  3
"AutoCAD"
 90
        0
280
     0
281
     1
  0
CLASS
  1
HATCH
  2
AcDbHatch
  3
"ACAD_SEDONA"
 90
        0
280
     0
281
     1
  0
CLASS
  1
XRECORD
  2
AcDbXrecord
  3
"<Built In>"
 90
        0
280
     0
281
     0
  0
CLASS
  1
LONG_TRANSACTION
  2
AcDbLongTransaction
  3
AutoCAD 2000
 90
        0
280
     0
281
     0
  0
CLASS
  1
LWPOLYLINE
  2
AcDbPolyline
  3
"AutoCAD"
 90
        0
280
     0
281
     1
  0
CLASS
  1
HATCH
  2
AcDbHatch
  3
"ACAD_SEDONA"
 90
        0
280
     0
281
     1
  0
CLASS
  1
XRECORD
  2
AcDbXrecord
  3
"<Built In>"
 90
        0
280
     0
281
     0
  0
CLASS
  1
LONG_TRANSACTION
  2
AcDbLongTransaction
  3
AutoCAD 2000
 90
        0
280
     0
281
     0
  0
CLASS
  1
LWPOLYLINE
  2
AcDbPolyline
  3
"AutoCAD"
 90
        0
280
     0
281
     1
  0
CLASS
  1
HATCH
  2
AcDbHatch
  3
"ACAD_SEDONA"
 90
        0
280
     0
281
     1
  0
CLASS
  1
XRECORD
  2
AcDbXrecord
  3
"<Built In>"
 90
        0
280
     0
281
     0
  0
CLASS
  1
LONG_TRANSACTION
  2
AcDbLongTransaction
  3
AutoCAD 2000
 90
        0
280
     0
281
     0
  0
CLASS
  1
LWPOLYLINE
  2
AcDbPolyline
  3
"AutoCAD"
 90
        0
280
     0
281
     1
  0
CLASS
  1
HATCH
  2
AcDbHatch
  3
"ACAD_SEDONA"
 90
        0
280
     0
281
     1
  0
CLASS
  1
XRECORD
  2
AcDbXrecord
  3
"<Built In>"
 90
        0
280
     0
281
     0
  0
CLASS
  1
LONG_TRANSACTION
  2
AcDbLongTransaction
  3
AutoCAD 2000
 90
        0
280
     0
281
     0
  0
CLASS
  1
LWPOLYLINE
  2
AcDbPolyline
  3
"AutoCAD"
 90
        0
280
     0
281
     1
  0
CLASS
  1
HATCH
  2
AcDbHatch
  3
"ACAD_SEDONA"
 90
        0
280
     0
281
     1
  0
CLASS
  1
XRECORD
  2
AcDbXrecord
  3
"<Built In>"
 90
        0
280
     0
281
     0
  0
CLASS
  1
LONG_TRANSACTION
  2
AcDbLongTransaction
  3
AutoCAD 2000
 90
        0
280
     0
281
     0
  0
CLASS
  1
LWPOLYLINE
  2
AcDbPolyline
  3
"AutoCAD"
 90
        0
280
     0
281
     1
  0
CLASS
  1
HATCH
  2
AcDbHatch
  3
"ACAD_SEDONA"
 90
        0
280
     0
281
     1
  0
CLASS
  1
XRECORD
  2
AcDbXrecord
  3
"<Built In>"
 90
        0
280
     0
281
     0
  0
CLASS
  1
LONG_TRANSACTION
  2
AcDbLongTransaction
  3
AutoCAD 2000
 90
        0
280
     0
281
     0
  0
CLASS
  1
LWPOLYLINE
  2
AcDbPolyline
  3
"AutoCAD"
 90
        0
280
     0
281
     1
  0
CLASS
  1
HATCH
  2
AcDbHatch
  3
"ACAD_SEDONA"
 90
        0
280
     0
281
     1
  0
CLASS
  1
XRECORD
  2
AcDbXrecord
  3
"<Built In>"
 90
        0
280
     0
281
     0
  0
CLASS
  1
LONG_TRANSACTION
  2
AcDbLongTransaction
  3
AutoCAD 2000
 90
        0
280
     0
281
     0
  0
CLASS
  1
LWPOLYLINE
  2
AcDbPolyline
  3
"AutoCAD"
 90
        0
280
     0
281
     1
  0
CLASS
  1
HATCH
  2
AcDbHatch
  3
"ACAD_SEDONA"
 90
        0
280
     0
281
     1
  0
CLASS
  1
XRECORD
  2
AcDbXrecord
  3
"<Built In>"
 90
        0
280
     0
281
     0
  0
CLASS
  1
LONG_TRANSACTION
  2
AcDbLongTransaction
  3
AutoCAD 2000
 90
        0
280
     0
281
     0
  0
CLASS
  1
LWPOLYLINE
  2
AcDbPolyline
  3
"AutoCAD"
 90
        0
280
     0
281
     1
  0
CLASS
  1
HATCH
  2
AcDbHatch
  3
"ACAD_SEDONA"
 90
        0
280
     0
281
     1
  0
CLASS
  1
XRECORD
  2
AcDbXrecord
  3
"<Built In>"
 90
        0
280
     0
281
     0
  0
CLASS
  1
LONG_TRANSACTION
  2
AcDbLongTransaction
  3
AutoCAD 2000
 90
        0
280
     0
281
     0
  0
CLASS
  1
LWPOLYLINE
  2
AcDbPolyline
  3
"AutoCAD"
 90
        0
280
     0
281
     1
  0
CLASS
  1
HATCH
  2
AcDbHatch
  3
"ACAD_SEDONA"
 90
        0
280
     0
281
     1
  0
CLASS
  1
XRECORD
  2
AcDbXrecord
  3
"<Built In>"
 90
        0
280
     0
281
     0
  0
CLASS
  1
LONG_TRANSACTION
  2
AcDbLongTransaction
  3
AutoCAD 2000
 90
        0
280
     0
281
     0
  0
CLASS
  1
LWPOLYLINE
  2
AcDbPolyline
  3
"AutoCAD"
 90
        0
280
     0
281
     1
  0
CLASS
  1
HATCH
  2
AcDbHatch
  3
"ACAD_SEDONA"
 90
        0
280
     0
281
     1
  0
CLASS
  1
XRECORD
  2
AcDbXrecord
  3
"<Built In>"
 90
        0
280
     0
281
     0
  0
CLASS
  1
LONG_TRANSACTION
  2
AcDbLongTransaction
  3
AutoCAD 2000
 90
        0
280
     0
281
     0
  0
CLASS
  1
LWPOLYLINE
  2
AcDbPolyline
  3
"AutoCAD"
 90
        0
280
     0
281
     1
  0
CLASS
  1
HATCH
  2
AcDbHatch
  3
"ACAD_SEDONA"
 90
        0
280
     0
281
     1
  0
CLASS
  1
XRECORD
  2
AcDbXrecord
  3
"<Built In>"
 90
        0
280
     0
281
     0
  0
ENDSEC
  0
SECTION
  2
TABLES
  0
TABLE
  2
VPORT
  5
458C7
100
AcDbSymbolTable
 70
     1
  0
VPORT
  5
503EC
102
{ACAD_XDICTIONARY
360
503EF
102
}
100
AcDbSymbolTableRecord
100
AcDbViewportTableRecord
  2
*ACTIVE
 70
     0
 10
0.0
 20
0.0
 11
1.0
 21
1.0
 12
-0.266848
 22
0.105787
 13
0.0
 23
0.0
 14
0.25
 24
0.25
 15
0.25
 25
0.25
 16
0.0
 26
0.0
 36
1.0
 17
0.563444
 27
-0.880137
 37
1.686493
 40
4.278195
 41
1.960674
 42
50.0
 43
0.0
 44
0.0
 50
0.0
 51
0.0
 71
     0
 72
 20000
 73
     1
 74
     1
 75
     0
 76
     0
 77
     0
 78
     0
  0
ENDTAB
  0
TABLE
  2
LTYPE
  5
458C4
100
AcDbSymbolTable
 70
     1
  0
LTYPE
  5
458D0
100
AcDbSymbolTableRecord
100
AcDbLinetypeTableRecord
  2
BYBLOCK
 70
     0
  3

 72
    65
 73
     0
 40
0.0
  0
LTYPE
  5
458D1
100
AcDbSymbolTableRecord
100
AcDbLinetypeTableRecord
  2
BYLAYER
 70
     0
  3

 72
    65
 73
     0
 40
0.0
  0
LTYPE
  5
458D2
100
AcDbSymbolTableRecord
100
AcDbLinetypeTableRecord
  2
CONTINUOUS
 70
     0
  3
Solid line
 72
    65
 73
     0
 40
0.0
  0
ENDTAB
  0
TABLE
  2
LAYER
  5
458C1
100
AcDbSymbolTable
 70
     7
  0
LAYER
  5
458CD
100
AcDbSymbolTableRecord
100
AcDbLayerTableRecord
  2
0
 70
     0
 62
     7
  6
CONTINUOUS
  0
LAYER
  5
458EA
100
AcDbSymbolTableRecord
100
AcDbLayerTableRecord
  2
DIMS-MTG-HOLES
 70
     0
 62
     1
  6
CONTINUOUS
  0
LAYER
  5
458EB
100
AcDbSymbolTableRecord
100
AcDbLayerTableRecord
  2
ATTRIBUTES
 70
     0
 62
     7
  6
CONTINUOUS
  0
LAYER
  5
4593B
102
{ACAD_XDICTIONARY
360
50418
102
}
100
AcDbSymbolTableRecord
100
AcDbLayerTableRecord
  2
AREA1
 70
     0
 62
    -7
  6
CONTINUOUS
  0
LAYER
  5
45940
102
{ACAD_XDICTIONARY
360
503ED
102
}
100
AcDbSymbolTableRecord
100
AcDbLayerTableRecord
  2
DEFPOINTS
 70
     0
 62
    -7
  6
CONTINUOUS
  0
LAYER
  5
45954
100
AcDbSymbolTableRecord
100
AcDbLayerTableRecord
  2
SCALE
 70
     0
 62
    -7
  6
CONTINUOUS
  0
LAYER
  5
4D59A
100
AcDbSymbolTableRecord
100
AcDbLayerTableRecord
  2
SNAP_POINTS
 70
     0
 62
    -1
  6
CONTINUOUS
  0
ENDTAB
  0
TABLE
  2
STYLE
  5
458C2
100
AcDbSymbolTable
 70
     1
  0
STYLE
  5
458CE
100
AcDbSymbolTableRecord
100
AcDbTextStyleTableRecord
  2
STANDARD
 70
     0
 40
0.0
 41
1.0
 50
0.0
 71
     0
 42
0.12
  3
txt
  4

  0
ENDTAB
  0
TABLE
  2
VIEW
  5
458C5
100
AcDbSymbolTable
 70
     0
  0
ENDTAB
  0
TABLE
  2
UCS
  5
458C6
100
AcDbSymbolTable
 70
     0
  0
ENDTAB
  0
TABLE
  2
APPID
  5
458C8
100
AcDbSymbolTable
 70
     1
  0
APPID
  5
458CF
100
AcDbSymbolTableRecord
100
AcDbRegAppTableRecord
  2
ACAD
 70
     0
  0
ENDTAB
  0
TABLE
  2
DIMSTYLE
  5
458C9
100
AcDbSymbolTable
 70
     1
  0
DIMSTYLE
105
458F6
102
{ACAD_XDICTIONARY
360
50414
102
}
102
{ACAD_REACTORS
330
5034C
330
5035A
102
}
100
AcDbSymbolTableRecord
100
AcDbDimStyleTableRecord
  2
ABECAD_3D
 70
     0
  3

  4

  5

  6

  7

 40
1.0
 41
0.18
 42
0.0625
 43
0.375
 44
0.18
 45
0.0
 46
0.0
 47
0.0
 48
0.0
140
0.125
141
0.09
142
0.0
143
25.4
144
1.0
145
0.0
146
1.5
147
0.09
 71
     0
 72
     0
 73
     0
 74
     1
 75
     0
 76
     0
 77
     0
 78
     4
170
     1
171
     2
172
     0
173
     0
174
     0
175
     0
176
     0
177
     0
178
     0
270
     7
271
     6
272
     6
273
     2
274
     2
340
458CE
275
     0
280
     0
281
     0
282
     0
283
     1
284
     4
285
     4
286
     4
287
     5
288
     1
  0
ENDTAB
  0
TABLE
  2
BLOCK_RECORD
  5
458C0
100
AcDbSymbolTable
 70
     2
  0
BLOCK_RECORD
  5
458D6
102
{ACAD_XDICTIONARY
360
4592C
102
}
100
AcDbSymbolTableRecord
100
AcDbBlockTableRecord
  2
*MODEL_SPACE
  0
BLOCK_RECORD
  5
458D3
102
{ACAD_XDICTIONARY
360
4592A
102
}
100
AcDbSymbolTableRecord
100
AcDbBlockTableRecord
  2
*PAPER_SPACE
  0
BLOCK_RECORD
  5
5034D
100
AcDbSymbolTableRecord
100
AcDbBlockTableRecord
  2
*D0
  0
BLOCK_RECORD
  5
5035B
100
AcDbSymbolTableRecord
100
AcDbBlockTableRecord
  2
*D1
  0
ENDTAB
  0
ENDSEC
  0
SECTION
  2
BLOCKS
  0
BLOCK
  5
458DF
100
AcDbEntity
  8
0
100
AcDbBlockBegin
  2
*MODEL_SPACE
 70
     0
 10
0.0
 20
0.0
 30
0.0
  3
*MODEL_SPACE
  1

  0
ENDBLK
  5
458E0
100
AcDbEntity
  8
0
100
AcDbBlockEnd
  0
BLOCK
  5
458DD
100
AcDbEntity
 67
     1
  8
0
100
AcDbBlockBegin
  2
*PAPER_SPACE
 70
     0
 10
0.0
 20
0.0
 30
0.0
  3
*PAPER_SPACE
  1

  0
ENDBLK
  5
458DE
100
AcDbEntity
 67
     1
  8
0
100
AcDbBlockEnd
  0
BLOCK
  5
50358
100
AcDbEntity
  8
0
100
AcDbBlockBegin
  2
*D0
 70
     1
 10
0.0
 20
0.0
 30
0.0
  3
*D0
  1

  0
LINE
  5
5034E
100
AcDbEntity
  8
AREA1
 62
     0
100
AcDbLine
 10
0.31875
 20
0.62875
 30
0.0
 11
-0.694797
 21
0.62875
 31
0.0
1001
ACAD
1000
RTLwPs
1070
   158
  0
LINE
  5
5034F
100
AcDbEntity
  8
AREA1
 62
     0
100
AcDbLine
 10
-0.0625
 20
-1.90875
 30
0.0
 11
-0.694797
 21
-1.90875
 31
0.0
1001
ACAD
1000
RTLwPs
1070
   158
  0
LINE
  5
50350
100
AcDbEntity
  8
AREA1
 62
     0
100
AcDbLine
 10
-0.514797
 20
0.44875
 30
0.0
 11
-0.514797
 21
0.254267
 31
0.0
1001
ACAD
1000
RTLwPs
1070
   158
  0
LINE
  5
50351
100
AcDbEntity
  8
AREA1
 62
     0
100
AcDbLine
 10
-0.514797
 20
-1.72875
 30
0.0
 11
-0.514797
 21
-1.550733
 31
0.0
1001
ACAD
1000
RTLwPs
1070
   158
  0
MTEXT
  5
50352
100
AcDbEntity
  8
AREA1
 62
     0
100
AcDbMText
 10
-0.514797
 20
-0.648233
 30
0.0
 40
0.125
 41
0.0
 71
     5
 72
     1
  1
\A1;2 17/32 [64.45]
 11
0.0
 21
1.0
 31
0.0
1001
ACAD
1000
MTEXTBEGIN
1070
    73
1070
     1
1070
    44
1040
1.0
1070
    74
1070
     0
1000
MTEXTEND
1000
MTEXTBEGIN
1070
    73
1070
     1
1070
    44
1040
1.0
1070
    74
1070
     0
1000
MTEXTEND
1000
MTEXTBEGIN
1070
    73
1070
     1
1070
    44
1040
1.0
1070
    74
1070
     0
1000
MTEXTEND
  0
SOLID
  5
50353
100
AcDbEntity
  8
AREA1
 62
     0
100
AcDbTrace
 10
-0.544797
 20
0.44875
 30
0.0
 11
-0.484797
 21
0.44875
 31
0.0
 12
-0.514797
 22
0.62875
 32
0.0
 13
-0.514797
 23
0.62875
 33
0.0
  0
SOLID
  5
50354
100
AcDbEntity
  8
AREA1
 62
     0
100
AcDbTrace
 10
-0.544797
 20
-1.72875
 30
0.0
 11
-0.484797
 21
-1.72875
 31
0.0
 12
-0.514797
 22
-1.90875
 32
0.0
 13
-0.514797
 23
-1.90875
 33
0.0
  0
POINT
  5
50355
100
AcDbEntity
  8
DEFPOINTS
 62
     0
100
AcDbPoint
 10
0.38125
 20
0.62875
 30
0.0
  0
POINT
  5
50356
100
AcDbEntity
  8
DEFPOINTS
 62
     0
100
AcDbPoint
 10
0.0
 20
-1.90875
 30
0.0
  0
POINT
  5
50357
100
AcDbEntity
  8
DEFPOINTS
 62
     0
100
AcDbPoint
 10
-0.514797
 20
-1.90875
 30
0.0
  0
ENDBLK
  5
50359
100
AcDbEntity
  8
0
100
AcDbBlockEnd
  0
BLOCK
  5
50365
100
AcDbEntity
  8
0
100
AcDbBlockBegin
  2
*D1
 70
     1
 10
0.0
 20
0.0
 30
0.0
  3
*D1
  1

  0
LINE
  5
50367
100
AcDbEntity
  8
AREA1
 62
     0
100
AcDbLine
 10
0.0
 20
0.59125
 30
0.0
 11
0.0
 21
1.123911
 31
0.0
1001
ACAD
1000
RTLwPs
1070
   158
  0
LINE
  5
50368
100
AcDbEntity
  8
AREA1
 62
     0
100
AcDbLine
 10
1.1875
 20
0.59125
 30
0.0
 11
1.1875
 21
1.123911
 31
0.0
1001
ACAD
1000
RTLwPs
1070
   158
  0
LINE
  5
50369
100
AcDbEntity
  8
AREA1
 62
     0
100
AcDbLine
 10
0.18
 20
0.943911
 30
0.0
 11
1.0075
 21
0.943911
 31
0.0
1001
ACAD
1000
RTLwPs
1070
   158
  0
MTEXT
  5
5036A
100
AcDbEntity
  8
AREA1
 62
     0
100
AcDbMText
 10
0.58991
 20
1.266246
 30
0.0
 40
0.125
 41
0.0
 71
     5
 72
     1
  1
\A1;1 3/16 [30.16]
1001
ACAD
1000
MTEXTBEGIN
1070
    73
1070
     1
1070
    44
1040
1.0
1070
    74
1070
     0
1000
MTEXTEND
1000
MTEXTBEGIN
1070
    73
1070
     1
1070
    44
1040
1.0
1070
    74
1070
     0
1000
MTEXTEND
1000
MTEXTBEGIN
1070
    73
1070
     1
1070
    44
1040
1.0
1070
    74
1070
     0
1000
MTEXTEND
  0
SOLID
  5
5036B
100
AcDbEntity
  8
AREA1
 62
     0
100
AcDbTrace
 10
0.18
 20
0.973911
 30
0.0
 11
0.18
 21
0.913911
 31
0.0
 12
0.0
 22
0.943911
 32
0.0
 13
0.0
 23
0.943911
 33
0.0
  0
SOLID
  5
5036C
100
AcDbEntity
  8
AREA1
 62
     0
100
AcDbTrace
 10
1.0075
 20
0.973911
 30
0.0
 11
1.0075
 21
0.913911
 31
0.0
 12
1.1875
 22
0.943911
 32
0.0
 13
1.1875
 23
0.943911
 33
0.0
  0
POINT
  5
5036D
100
AcDbEntity
  8
DEFPOINTS
 62
     0
100
AcDbPoint
 10
0.0
 20
0.52875
 30
0.0
  0
POINT
  5
5036E
100
AcDbEntity
  8
DEFPOINTS
 62
     0
100
AcDbPoint
 10
1.1875
 20
0.52875
 30
0.0
  0
POINT
  5
5036F
100
AcDbEntity
  8
DEFPOINTS
 62
     0
100
AcDbPoint
 10
1.1875
 20
0.943911
 30
0.0
  0
ENDBLK
  5
50366
100
AcDbEntity
  8
0
100
AcDbBlockEnd
  0
ENDSEC
  0
SECTION
  2
ENTITIES
  0
CIRCLE
  5
502A0
100
AcDbEntity
  8
0
100
AcDbCircle
 10
1.032556
 20
0.349674
 30
0.575
 40
0.09375
  0
CIRCLE
  5
502A1
100
AcDbEntity
  8
0
100
AcDbCircle
 10
0.735681
 20
0.349674
 30
0.575
 40
0.09375
  0
CIRCLE
  5
502A2
100
AcDbEntity
  8
0
100
AcDbCircle
 10
0.438806
 20
0.349674
 30
0.575
 40
0.09375
  0
CIRCLE
  5
502A3
100
AcDbEntity
  8
0
100
AcDbCircle
 10
0.141931
 20
0.349674
 30
0.575
 40
0.09375
  0
ARC
  5
502A4
100
AcDbEntity
  8
0
100
AcDbCircle
 10
1.1875
 20
-0.69
 30
0.15
 40
0.0825
100
AcDbArc
 50
90.0
 51
270.0
  0
ARC
  5
502A5
100
AcDbEntity
  8
0
100
AcDbCircle
 10
0.0
 20
-0.69
 30
0.575
 40
0.0825
100
AcDbArc
 50
270.0
 51
90.0
  0
CIRCLE
  5
502A6
100
AcDbEntity
  8
0
100
AcDbCircle
 10
0.735681
 20
-1.729674
 30
0.575
 40
0.09375
  0
CIRCLE
  5
502A7
100
AcDbEntity
  8
0
100
AcDbCircle
 10
0.141931
 20
-1.729674
 30
0.575
 40
0.09375
  0
CIRCLE
  5
502A8
100
AcDbEntity
  8
0
100
AcDbCircle
 10
0.438806
 20
-1.729674
 30
0.575
 40
0.09375
  0
CIRCLE
  5
502A9
100
AcDbEntity
  8
0
100
AcDbCircle
 10
1.032556
 20
-1.729674
 30
0.575
 40
0.09375
  0
LINE
  5
502AA
100
AcDbEntity
  8
0
100
AcDbLine
 10
0.745364
 20
-0.98981
 30
0.9813
 11
0.671372
 21
-0.98981
 31
0.9813
  0
CIRCLE
  5
502AB
100
AcDbEntity
  8
0
100
AcDbCircle
 10
0.735681
 20
-1.3625
 30
0.98125
 40
0.09375
  0
CIRCLE
  5
502AC
100
AcDbEntity
  8
0
100
AcDbCircle
 10
0.438806
 20
-1.3625
 30
0.98125
 40
0.09375
  0
CIRCLE
  5
502AD
100
AcDbEntity
  8
0
100
AcDbCircle
 10
0.141931
 20
-1.3625
 30
0.98125
 40
0.09375
  0
LINE
  5
502AE
100
AcDbEntity
  8
0
100
AcDbLine
 10
0.267431
 20
-0.98981
 30
0.9813
 11
0.341423
 21
-0.98981
 31
0.9813
  0
LINE
  5
502AF
100
AcDbEntity
  8
0
100
AcDbLine
 10
0.445012
 20
-0.98981
 30
0.9813
 11
0.519004
 21
-0.98981
 31
0.9813
  0
CIRCLE
  5
502B0
100
AcDbEntity
  8
0
100
AcDbCircle
 10
1.032556
 20
-1.3625
 30
0.98125
 40
0.09375
  0
LINE
  5
502B1
100
AcDbEntity
  8
0
100
AcDbLine
 10
0.903214
 20
-0.98981
 30
0.9813
 11
0.829222
 21
-0.98981
 31
0.9813
  0
LINE
  5
502B2
100
AcDbEntity
  8
0
100
AcDbLine
 10
0.755778
 20
-0.562707
 30
0.9813
 11
0.681786
 21
-0.562707
 31
0.9813
  0
LINE
  5
502B3
100
AcDbEntity
  8
0
100
AcDbLine
 10
0.277844
 20
-0.299875
 30
0.9813
 11
0.351836
 21
-0.299875
 31
0.9813
  0
LINE
  5
502B4
100
AcDbEntity
  8
0
100
AcDbLine
 10
0.277844
 20
-0.562707
 30
0.9813
 11
0.351836
 21
-0.562707
 31
0.9813
  0
LINE
  5
502B5
100
AcDbEntity
  8
0
100
AcDbLine
 10
0.455425
 20
-0.562707
 30
0.9813
 11
0.529417
 21
-0.562707
 31
0.9813
  0
CIRCLE
  5
502B6
100
AcDbEntity
  8
0
100
AcDbCircle
 10
0.141931
 20
-0.0125
 30
0.98125
 40
0.09375
  0
LINE
  5
502B7
100
AcDbEntity
  8
0
100
AcDbLine
 10
0.913628
 20
-0.562707
 30
0.9813
 11
0.839636
 21
-0.562707
 31
0.9813
  0
LINE
  5
502B8
100
AcDbEntity
  8
0
100
AcDbLine
 10
0.913628
 20
-0.299875
 30
0.9813
 11
0.839636
 21
-0.299875
 31
0.9813
  0
CIRCLE
  5
502B9
100
AcDbEntity
  8
0
100
AcDbCircle
 10
1.032556
 20
-0.0125
 30
0.98125
 40
0.09375
  0
POLYLINE
  5
502BA
100
AcDbEntity
  8
0
100
AcDbPolygonMesh
 66
     1
 10
0.0
 20
0.0
 30
0.0
 70
    16
 71
     6
 72
     3
  0
VERTEX
  5
502BB
100
AcDbEntity
  8
0
100
AcDbVertex
100
AcDbPolygonMeshVertex
 10
1.1875
 20
-1.90875
 30
0.575
 70
    64
  0
VERTEX
  5
502BC
100
AcDbEntity
  8
0
100
AcDbVertex
100
AcDbPolygonMeshVertex
 10
1.1875
 20
-1.90875
 30
0.0
 70
    64
  0
VERTEX
  5
502BD
100
AcDbEntity
  8
0
100
AcDbVertex
100
AcDbPolygonMeshVertex
 10
1.1875
 20
-1.90875
 30
0.0
 70
    64
  0
VERTEX
  5
502BE
100
AcDbEntity
  8
0
100
AcDbVertex
100
AcDbPolygonMeshVertex
 10
0.0
 20
-1.90875
 30
0.575
 70
    64
  0
VERTEX
  5
502BF
100
AcDbEntity
  8
0
100
AcDbVertex
100
AcDbPolygonMeshVertex
 10
0.0
 20
-1.90875
 30
0.0
 70
    64
  0
VERTEX
  5
502C0
100
AcDbEntity
  8
0
100
AcDbVertex
100
AcDbPolygonMeshVertex
 10
0.0
 20
-1.90875
 30
0.0
 70
    64
  0
VERTEX
  5
502C1
100
AcDbEntity
  8
0
100
AcDbVertex
100
AcDbPolygonMeshVertex
 10
0.0
 20
0.52875
 30
0.575
 70
    64
  0
VERTEX
  5
502C2
100
AcDbEntity
  8
0
100
AcDbVertex
100
AcDbPolygonMeshVertex
 10
0.0
 20
0.52875
 30
0.0
 70
    64
  0
VERTEX
  5
502C3
100
AcDbEntity
  8
0
100
AcDbVertex
100
AcDbPolygonMeshVertex
 10
0.0
 20
-1.90875
 30
0.0
 70
    64
  0
VERTEX
  5
502C4
100
AcDbEntity
  8
0
100
AcDbVertex
100
AcDbPolygonMeshVertex
 10
1.1875
 20
0.52875
 30
0.575
 70
    64
  0
VERTEX
  5
502C5
100
AcDbEntity
  8
0
100
AcDbVertex
100
AcDbPolygonMeshVertex
 10
1.1875
 20
0.52875
 30
0.0
 70
    64
  0
VERTEX
  5
502C6
100
AcDbEntity
  8
0
100
AcDbVertex
100
AcDbPolygonMeshVertex
 10
1.1875
 20
-1.90875
 30
0.0
 70
    64
  0
VERTEX
  5
502C7
100
AcDbEntity
  8
0
100
AcDbVertex
100
AcDbPolygonMeshVertex
 10
1.1875
 20
0.52875
 30
0.575
 70
    64
  0
VERTEX
  5
502C8
100
AcDbEntity
  8
0
100
AcDbVertex
100
AcDbPolygonMeshVertex
 10
1.1875
 20
0.52875
 30
0.575
 70
    64
  0
VERTEX
  5
502C9
100
AcDbEntity
  8
0
100
AcDbVertex
100
AcDbPolygonMeshVertex
 10
1.1875
 20
-1.90875
 30
0.575
 70
    64
  0
VERTEX
  5
502CA
100
AcDbEntity
  8
0
100
AcDbVertex
100
AcDbPolygonMeshVertex
 10
0.0
 20
0.52875
 30
0.575
 70
    64
  0
VERTEX
  5
502CB
100
AcDbEntity
  8
0
100
AcDbVertex
100
AcDbPolygonMeshVertex
 10
0.0
 20
0.52875
 30
0.575
 70
    64
  0
VERTEX
  5
502CC
100
AcDbEntity
  8
0
100
AcDbVertex
100
AcDbPolygonMeshVertex
 10
0.0
 20
-1.90875
 30
0.575
 70
    64
  0
SEQEND
  5
502CD
100
AcDbEntity
  8
0
  0
POLYLINE
  5
502CE
100
AcDbEntity
  8
0
100
AcDbPolygonMesh
 66
     1
 10
0.0
 20
0.0
 30
0.0
 70
    16
 71
     6
 72
     3
  0
VERTEX
  5
502CF
100
AcDbEntity
  8
0
100
AcDbVertex
100
AcDbPolygonMeshVertex
 10
1.1875
 20
-1.5625
 30
0.98125
 70
    64
  0
VERTEX
  5
502D0
100
AcDbEntity
  8
0
100
AcDbVertex
100
AcDbPolygonMeshVertex
 10
1.1875
 20
-1.5625
 30
0.575
 70
    64
  0
VERTEX
  5
502D1
100
AcDbEntity
  8
0
100
AcDbVertex
100
AcDbPolygonMeshVertex
 10
1.1875
 20
-1.5625
 30
0.575
 70
    64
  0
VERTEX
  5
502D2
100
AcDbEntity
  8
0
100
AcDbVertex
100
AcDbPolygonMeshVertex
 10
0.0
 20
-1.5625
 30
0.98125
 70
    64
  0
VERTEX
  5
502D3
100
AcDbEntity
  8
0
100
AcDbVertex
100
AcDbPolygonMeshVertex
 10
0.0
 20
-1.5625
 30
0.575
 70
    64
  0
VERTEX
  5
502D4
100
AcDbEntity
  8
0
100
AcDbVertex
100
AcDbPolygonMeshVertex
 10
0.0
 20
-1.5625
 30
0.575
 70
    64
  0
VERTEX
  5
502D5
100
AcDbEntity
  8
0
100
AcDbVertex
100
AcDbPolygonMeshVertex
 10
0.0
 20
-1.1625
 30
0.98125
 70
    64
  0
VERTEX
  5
502D6
100
AcDbEntity
  8
0
100
AcDbVertex
100
AcDbPolygonMeshVertex
 10
0.0
 20
-1.1625
 30
0.575
 70
    64
  0
VERTEX
  5
502D7
100
AcDbEntity
  8
0
100
AcDbVertex
100
AcDbPolygonMeshVertex
 10
0.0
 20
-1.5625
 30
0.575
 70
    64
  0
VERTEX
  5
502D8
100
AcDbEntity
  8
0
100
AcDbVertex
100
AcDbPolygonMeshVertex
 10
1.1875
 20
-1.1625
 30
0.98125
 70
    64
  0
VERTEX
  5
502D9
100
AcDbEntity
  8
0
100
AcDbVertex
100
AcDbPolygonMeshVertex
 10
1.1875
 20
-1.1625
 30
0.575
 70
    64
  0
VERTEX
  5
502DA
100
AcDbEntity
  8
0
100
AcDbVertex
100
AcDbPolygonMeshVertex
 10
1.1875
 20
-1.5625
 30
0.575
 70
    64
  0
VERTEX
  5
502DB
100
AcDbEntity
  8
0
100
AcDbVertex
100
AcDbPolygonMeshVertex
 10
1.1875
 20
-1.1625
 30
0.98125
 70
    64
  0
VERTEX
  5
502DC
100
AcDbEntity
  8
0
100
AcDbVertex
100
AcDbPolygonMeshVertex
 10
1.1875
 20
-1.1625
 30
0.98125
 70
    64
  0
VERTEX
  5
502DD
100
AcDbEntity
  8
0
100
AcDbVertex
100
AcDbPolygonMeshVertex
 10
1.1875
 20
-1.5625
 30
0.98125
 70
    64
  0
VERTEX
  5
502DE
100
AcDbEntity
  8
0
100
AcDbVertex
100
AcDbPolygonMeshVertex
 10
0.0
 20
-1.1625
 30
0.98125
 70
    64
  0
VERTEX
  5
502DF
100
AcDbEntity
  8
0
100
AcDbVertex
100
AcDbPolygonMeshVertex
 10
0.0
 20
-1.1625
 30
0.98125
 70
    64
  0
VERTEX
  5
502E0
100
AcDbEntity
  8
0
100
AcDbVertex
100
AcDbPolygonMeshVertex
 10
0.0
 20
-1.5625
 30
0.98125
 70
    64
  0
SEQEND
  5
502E1
100
AcDbEntity
  8
0
  0
POLYLINE
  5
502E2
100
AcDbEntity
  8
0
100
AcDbPolygonMesh
 66
     1
 10
0.0
 20
0.0
 30
0.0
 70
    16
 71
     6
 72
     3
  0
VERTEX
  5
502E3
100
AcDbEntity
  8
0
100
AcDbVertex
100
AcDbPolygonMeshVertex
 10
0.9875
 20
-1.1625
 30
0.9813
 70
    64
  0
VERTEX
  5
502E4
100
AcDbEntity
  8
0
100
AcDbVertex
100
AcDbPolygonMeshVertex
 10
0.9875
 20
-1.1625
 30
0.575
 70
    64
  0
VERTEX
  5
502E5
100
AcDbEntity
  8
0
100
AcDbVertex
100
AcDbPolygonMeshVertex
 10
0.9875
 20
-1.1625
 30
0.575
 70
    64
  0
VERTEX
  5
502E6
100
AcDbEntity
  8
0
100
AcDbVertex
100
AcDbPolygonMeshVertex
 10
0.2
 20
-1.1625
 30
0.9813
 70
    64
  0
VERTEX
  5
502E7
100
AcDbEntity
  8
0
100
AcDbVertex
100
AcDbPolygonMeshVertex
 10
0.2
 20
-1.1625
 30
0.575
 70
    64
  0
VERTEX
  5
502E8
100
AcDbEntity
  8
0
100
AcDbVertex
100
AcDbPolygonMeshVertex
 10
0.2
 20
-1.1625
 30
0.575
 70
    64
  0
VERTEX
  5
502E9
100
AcDbEntity
  8
0
100
AcDbVertex
100
AcDbPolygonMeshVertex
 10
0.2
 20
-0.2125
 30
0.9813
 70
    64
  0
VERTEX
  5
502EA
100
AcDbEntity
  8
0
100
AcDbVertex
100
AcDbPolygonMeshVertex
 10
0.2
 20
-0.2125
 30
0.575
 70
    64
  0
VERTEX
  5
502EB
100
AcDbEntity
  8
0
100
AcDbVertex
100
AcDbPolygonMeshVertex
 10
0.2
 20
-1.1625
 30
0.575
 70
    64
  0
VERTEX
  5
502EC
100
AcDbEntity
  8
0
100
AcDbVertex
100
AcDbPolygonMeshVertex
 10
0.9875
 20
-0.2125
 30
0.9813
 70
    64
  0
VERTEX
  5
502ED
100
AcDbEntity
  8
0
100
AcDbVertex
100
AcDbPolygonMeshVertex
 10
0.9875
 20
-0.2125
 30
0.575
 70
    64
  0
VERTEX
  5
502EE
100
AcDbEntity
  8
0
100
AcDbVertex
100
AcDbPolygonMeshVertex
 10
0.9875
 20
-1.1625
 30
0.575
 70
    64
  0
VERTEX
  5
502EF
100
AcDbEntity
  8
0
100
AcDbVertex
100
AcDbPolygonMeshVertex
 10
0.9875
 20
-0.2125
 30
0.9813
 70
    64
  0
VERTEX
  5
502F0
100
AcDbEntity
  8
0
100
AcDbVertex
100
AcDbPolygonMeshVertex
 10
0.9875
 20
-0.2125
 30
0.9813
 70
    64
  0
VERTEX
  5
502F1
100
AcDbEntity
  8
0
100
AcDbVertex
100
AcDbPolygonMeshVertex
 10
0.9875
 20
-1.1625
 30
0.9813
 70
    64
  0
VERTEX
  5
502F2
100
AcDbEntity
  8
0
100
AcDbVertex
100
AcDbPolygonMeshVertex
 10
0.2
 20
-0.2125
 30
0.9813
 70
    64
  0
VERTEX
  5
502F3
100
AcDbEntity
  8
0
100
AcDbVertex
100
AcDbPolygonMeshVertex
 10
0.2
 20
-0.2125
 30
0.9813
 70
    64
  0
VERTEX
  5
502F4
100
AcDbEntity
  8
0
100
AcDbVertex
100
AcDbPolygonMeshVertex
 10
0.2
 20
-1.1625
 30
0.9813
 70
    64
  0
SEQEND
  5
502F5
100
AcDbEntity
  8
0
  0
POLYLINE
  5
502F6
100
AcDbEntity
  8
0
100
AcDbPolygonMesh
 66
     1
 10
0.0
 20
0.0
 30
0.0
 70
    16
 71
     6
 72
     3
  0
VERTEX
  5
502F7
100
AcDbEntity
  8
0
100
AcDbVertex
100
AcDbPolygonMeshVertex
 10
1.1875
 20
-0.2125
 30
0.98125
 70
    64
  0
VERTEX
  5
502F8
100
AcDbEntity
  8
0
100
AcDbVertex
100
AcDbPolygonMeshVertex
 10
1.1875
 20
-0.2125
 30
0.575
 70
    64
  0
VERTEX
  5
502F9
100
AcDbEntity
  8
0
100
AcDbVertex
100
AcDbPolygonMeshVertex
 10
1.1875
 20
-0.2125
 30
0.575
 70
    64
  0
VERTEX
  5
502FA
100
AcDbEntity
  8
0
100
AcDbVertex
100
AcDbPolygonMeshVertex
 10
0.0
 20
-0.2125
 30
0.98125
 70
    64
  0
VERTEX
  5
502FB
100
AcDbEntity
  8
0
100
AcDbVertex
100
AcDbPolygonMeshVertex
 10
0.0
 20
-0.2125
 30
0.575
 70
    64
  0
VERTEX
  5
502FC
100
AcDbEntity
  8
0
100
AcDbVertex
100
AcDbPolygonMeshVertex
 10
0.0
 20
-0.2125
 30
0.575
 70
    64
  0
VERTEX
  5
502FD
100
AcDbEntity
  8
0
100
AcDbVertex
100
AcDbPolygonMeshVertex
 10
0.0
 20
0.1825
 30
0.98125
 70
    64
  0
VERTEX
  5
502FE
100
AcDbEntity
  8
0
100
AcDbVertex
100
AcDbPolygonMeshVertex
 10
0.0
 20
0.1825
 30
0.575
 70
    64
  0
VERTEX
  5
502FF
100
AcDbEntity
  8
0
100
AcDbVertex
100
AcDbPolygonMeshVertex
 10
0.0
 20
-0.2125
 30
0.575
 70
    64
  0
VERTEX
  5
50300
100
AcDbEntity
  8
0
100
AcDbVertex
100
AcDbPolygonMeshVertex
 10
1.1875
 20
0.1825
 30
0.98125
 70
    64
  0
VERTEX
  5
50301
100
AcDbEntity
  8
0
100
AcDbVertex
100
AcDbPolygonMeshVertex
 10
1.1875
 20
0.1825
 30
0.575
 70
    64
  0
VERTEX
  5
50302
100
AcDbEntity
  8
0
100
AcDbVertex
100
AcDbPolygonMeshVertex
 10
1.1875
 20
-0.2125
 30
0.575
 70
    64
  0
VERTEX
  5
50303
100
AcDbEntity
  8
0
100
AcDbVertex
100
AcDbPolygonMeshVertex
 10
1.1875
 20
0.1825
 30
0.98125
 70
    64
  0
VERTEX
  5
50304
100
AcDbEntity
  8
0
100
AcDbVertex
100
AcDbPolygonMeshVertex
 10
1.1875
 20
0.1825
 30
0.98125
 70
    64
  0
VERTEX
  5
50305
100
AcDbEntity
  8
0
100
AcDbVertex
100
AcDbPolygonMeshVertex
 10
1.1875
 20
-0.2125
 30
0.98125
 70
    64
  0
VERTEX
  5
50306
100
AcDbEntity
  8
0
100
AcDbVertex
100
AcDbPolygonMeshVertex
 10
0.0
 20
0.1825
 30
0.98125
 70
    64
  0
VERTEX
  5
50307
100
AcDbEntity
  8
0
100
AcDbVertex
100
AcDbPolygonMeshVertex
 10
0.0
 20
0.1825
 30
0.98125
 70
    64
  0
VERTEX
  5
50308
100
AcDbEntity
  8
0
100
AcDbVertex
100
AcDbPolygonMeshVertex
 10
0.0
 20
-0.2125
 30
0.98125
 70
    64
  0
SEQEND
  5
50309
100
AcDbEntity
  8
0
  0
POLYLINE
  5
5030A
100
AcDbEntity
  8
0
100
AcDbPolygonMesh
 66
     1
 10
0.0
 20
0.0
 30
0.0
 70
    16
 71
     6
 72
     3
  0
VERTEX
  5
5030B
100
AcDbEntity
  8
0
100
AcDbVertex
100
AcDbPolygonMeshVertex
 10
0.80625
 20
0.52875
 30
0.125
 70
    64
  0
VERTEX
  5
5030C
100
AcDbEntity
  8
0
100
AcDbVertex
100
AcDbPolygonMeshVertex
 10
0.80625
 20
0.52875
 30
0.0
 70
    64
  0
VERTEX
  5
5030D
100
AcDbEntity
  8
0
100
AcDbVertex
100
AcDbPolygonMeshVertex
 10
0.80625
 20
0.52875
 30
0.0
 70
    64
  0
VERTEX
  5
5030E
100
AcDbEntity
  8
0
100
AcDbVertex
100
AcDbPolygonMeshVertex
 10
0.38125
 20
0.52875
 30
0.125
 70
    64
  0
VERTEX
  5
5030F
100
AcDbEntity
  8
0
100
AcDbVertex
100
AcDbPolygonMeshVertex
 10
0.38125
 20
0.52875
 30
0.0
 70
    64
  0
VERTEX
  5
50310
100
AcDbEntity
  8
0
100
AcDbVertex
100
AcDbPolygonMeshVertex
 10
0.38125
 20
0.52875
 30
0.0
 70
    64
  0
VERTEX
  5
50311
100
AcDbEntity
  8
0
100
AcDbVertex
100
AcDbPolygonMeshVertex
 10
0.38125
 20
0.62875
 30
0.125
 70
    64
  0
VERTEX
  5
50312
100
AcDbEntity
  8
0
100
AcDbVertex
100
AcDbPolygonMeshVertex
 10
0.38125
 20
0.62875
 30
0.0
 70
    64
  0
VERTEX
  5
50313
100
AcDbEntity
  8
0
100
AcDbVertex
100
AcDbPolygonMeshVertex
 10
0.38125
 20
0.52875
 30
0.0
 70
    64
  0
VERTEX
  5
50314
100
AcDbEntity
  8
0
100
AcDbVertex
100
AcDbPolygonMeshVertex
 10
0.80625
 20
0.62875
 30
0.125
 70
    64
  0
VERTEX
  5
50315
100
AcDbEntity
  8
0
100
AcDbVertex
100
AcDbPolygonMeshVertex
 10
0.80625
 20
0.62875
 30
0.0
 70
    64
  0
VERTEX
  5
50316
100
AcDbEntity
  8
0
100
AcDbVertex
100
AcDbPolygonMeshVertex
 10
0.80625
 20
0.52875
 30
0.0
 70
    64
  0
VERTEX
  5
50317
100
AcDbEntity
  8
0
100
AcDbVertex
100
AcDbPolygonMeshVertex
 10
0.80625
 20
0.62875
 30
0.125
 70
    64
  0
VERTEX
  5
50318
100
AcDbEntity
  8
0
100
AcDbVertex
100
AcDbPolygonMeshVertex
 10
0.80625
 20
0.62875
 30
0.125
 70
    64
  0
VERTEX
  5
50319
100
AcDbEntity
  8
0
100
AcDbVertex
100
AcDbPolygonMeshVertex
 10
0.80625
 20
0.52875
 30
0.125
 70
    64
  0
VERTEX
  5
5031A
100
AcDbEntity
  8
0
100
AcDbVertex
100
AcDbPolygonMeshVertex
 10
0.38125
 20
0.62875
 30
0.125
 70
    64
  0
VERTEX
  5
5031B
100
AcDbEntity
  8
0
100
AcDbVertex
100
AcDbPolygonMeshVertex
 10
0.38125
 20
0.62875
 30
0.125
 70
    64
  0
VERTEX
  5
5031C
100
AcDbEntity
  8
0
100
AcDbVertex
100
AcDbPolygonMeshVertex
 10
0.38125
 20
0.52875
 30
0.125
 70
    64
  0
SEQEND
  5
5031D
100
AcDbEntity
  8
0
  0
TEXT
  5
5031E
100
AcDbEntity
  8
0
100
AcDbText
 10
0.082183
 20
-1.533793
 30
0.9812
 40
0.076817
  1
1
100
AcDbText
  0
TEXT
  5
5031F
100
AcDbEntity
  8
0
100
AcDbText
 10
0.336263
 20
-1.53217
 30
0.9812
 40
0.076817
  1
2
100
AcDbText
  0
TEXT
  5
50320
100
AcDbEntity
  8
0
100
AcDbText
 10
0.620433
 20
-1.534551
 30
0.9812
 40
0.076817
  1
3
100
AcDbText
  0
TEXT
  5
50321
100
AcDbEntity
  8
0
100
AcDbText
 10
0.913959
 20
-1.532927
 30
0.9812
 40
0.076817
  1
4
100
AcDbText
  0
TEXT
  5
50322
100
AcDbEntity
  8
0
100
AcDbText
 10
0.034723
 20
-1.891503
 30
0.575
 40
0.076817
  1
5
100
AcDbText
  0
TEXT
  5
50323
100
AcDbEntity
  8
0
100
AcDbText
 10
0.321555
 20
-1.894556
 30
0.575
 40
0.076817
  1
6
100
AcDbText
  0
TEXT
  5
50324
100
AcDbEntity
  8
0
100
AcDbText
 10
0.61976
 20
-1.896937
 30
0.575
 40
0.076817
  1
7
100
AcDbText
  0
TEXT
  5
50325
100
AcDbEntity
  8
0
100
AcDbText
 10
0.93133
 20
-1.894642
 30
0.575
 40
0.076817
  1
8
100
AcDbText
  0
TEXT
  5
50326
100
AcDbEntity
  8
0
100
AcDbText
 10
0.01482
 20
0.201261
 30
0.575
 40
0.076817
  1
9
100
AcDbText
  0
TEXT
  5
50327
100
AcDbEntity
  8
0
100
AcDbText
 10
0.276757
 20
0.199709
 30
0.575
 40
0.076817
  1
10
100
AcDbText
  0
TEXT
  5
50328
100
AcDbEntity
  8
0
100
AcDbText
 10
0.588999
 20
0.201332
 30
0.575
 40
0.076817
  1
11
100
AcDbText
  0
TEXT
  5
50329
100
AcDbEntity
  8
0
100
AcDbText
 10
0.834393
 20
0.198436
 30
0.575
 40
0.076817
  1
12
100
AcDbText
  0
TEXT
  5
5032A
100
AcDbEntity
  8
0
100
AcDbText
 10
0.191194
 20
-0.187039
 30
0.9812
 40
0.076817
  1
13
100
AcDbText
  0
TEXT
  5
5032B
100
AcDbEntity
  8
0
100
AcDbText
 10
0.849102
 20
-0.184743
 30
0.9812
 40
0.076817
  1
14
100
AcDbText
  0
ATTDEF
  5
5032C
100
AcDbEntity
  8
ATTRIBUTES
100
AcDbText
 10
0.05356
 20
0.344957
 30
0.0
 40
0.081
  1
ALLEN-BRADLEY
100
AcDbAttributeDefinition
  3
Manufacturer name
  2
AC_VND_LABEL
 70
     1
  0
ATTDEF
  5
5032D
100
AcDbEntity
  8
ATTRIBUTES
100
AcDbText
 10
0.05356
 20
0.223524
 30
0.0
 40
0.081
  1
700-HN128
100
AcDbAttributeDefinition
  3
Manufacturer part number
  2
AC_PART_NO
 70
     1
  0
ATTDEF
  5
5032E
100
AcDbEntity
  8
ATTRIBUTES
100
AcDbText
 10
0.05356
 20
0.102092
 30
0.0
 40
0.081
  1
CONTROL RELAY; GENERAL PURPOSE SOCKET; MINI 14 BLADE
100
AcDbAttributeDefinition
  3
Manufacturer part description
  2
AC_DESCRIPTION
 70
     1
  0
ATTDEF
  5
5032F
100
AcDbEntity
  8
ATTRIBUTES
100
AcDbText
 10
0.05356
 20
-0.019341
 30
0.0
 40
0.081
  1

100
AcDbAttributeDefinition
  3
Device ID
  2
DEVICE_ID
 70
     1
  0
ATTDEF
  5
50330
100
AcDbEntity
  8
ATTRIBUTES
100
AcDbText
 10
0.05356
 20
-0.140773
 30
0.0
 40
0.081
  1

100
AcDbAttributeDefinition
  3
Customer part number
  2
AC_CPART_NO
 70
     1
  0
ATTDEF
  5
50331
100
AcDbEntity
  8
ATTRIBUTES
100
AcDbText
 10
0.05356
 20
-0.262206
 30
0.0
 40
0.081
  1

100
AcDbAttributeDefinition
  3
Customer note
  2
AC_NOTE
 70
     1
  0
ATTDEF
  5
50332
100
AcDbEntity
  8
ATTRIBUTES
100
AcDbText
 10
0.05356
 20
-0.383638
 30
0.0
 40
0.081
  1

100
AcDbAttributeDefinition
  3
Fastener Data
  2
FASTENER
 70
     1
  0
ATTDEF
  5
50333
100
AcDbEntity
  8
ATTRIBUTES
100
AcDbText
 10
0.05356
 20
-0.505071
 30
0.0
 40
0.081
  1
INCH
100
AcDbAttributeDefinition
  3
Unit of scale (meter, mm, or inch)
  2
AC_SCALE_UNIT
 70
     1
  0
ATTDEF
  5
50334
100
AcDbEntity
  8
ATTRIBUTES
100
AcDbText
 10
0.05356
 20
-0.626503
 30
0.0
 40
0.081
  1
0
100
AcDbAttributeDefinition
  3
View code (top, front, right, etc.)
  2
AC_VIEW_CODE
 70
     1
  0
POLYLINE
  5
50335
100
AcDbEntity
  8
0
100
AcDbPolygonMesh
 66
     1
 10
0.0
 20
0.0
 30
0.0
 70
    16
 71
     6
 72
     3
  0
VERTEX
  5
50336
100
AcDbEntity
  8
0
100
AcDbVertex
100
AcDbPolygonMeshVertex
 10
1.1875
 20
-1.38
 30
0.187
 70
    64
  0
VERTEX
  5
50337
100
AcDbEntity
  8
0
100
AcDbVertex
100
AcDbPolygonMeshVertex
 10
1.1875
 20
-1.38
 30
0.0
 70
    64
  0
VERTEX
  5
50338
100
AcDbEntity
  8
0
100
AcDbVertex
100
AcDbPolygonMeshVertex
 10
1.1875
 20
-1.38
 30
0.0
 70
    64
  0
VERTEX
  5
50339
100
AcDbEntity
  8
0
100
AcDbVertex
100
AcDbPolygonMeshVertex
 10
0.0
 20
-1.38
 30
0.187
 70
    64
  0
VERTEX
  5
5033A
100
AcDbEntity
  8
0
100
AcDbVertex
100
AcDbPolygonMeshVertex
 10
0.0
 20
-1.38
 30
0.0
 70
    64
  0
VERTEX
  5
5033B
100
AcDbEntity
  8
0
100
AcDbVertex
100
AcDbPolygonMeshVertex
 10
0.0
 20
-1.38
 30
0.0
 70
    64
  0
VERTEX
  5
5033C
100
AcDbEntity
  8
0
100
AcDbVertex
100
AcDbPolygonMeshVertex
 10
0.0
 20
0.0
 30
0.187
 70
    64
  0
VERTEX
  5
5033D
100
AcDbEntity
  8
0
100
AcDbVertex
100
AcDbPolygonMeshVertex
 10
0.0
 20
0.0
 30
0.0
 70
    64
  0
VERTEX
  5
5033E
100
AcDbEntity
  8
0
100
AcDbVertex
100
AcDbPolygonMeshVertex
 10
0.0
 20
-1.38
 30
0.0
 70
    64
  0
VERTEX
  5
5033F
100
AcDbEntity
  8
0
100
AcDbVertex
100
AcDbPolygonMeshVertex
 10
1.1875
 20
0.0
 30
0.187
 70
    64
  0
VERTEX
  5
50340
100
AcDbEntity
  8
0
100
AcDbVertex
100
AcDbPolygonMeshVertex
 10
1.1875
 20
0.0
 30
0.0
 70
    64
  0
VERTEX
  5
50341
100
AcDbEntity
  8
0
100
AcDbVertex
100
AcDbPolygonMeshVertex
 10
1.1875
 20
-1.38
 30
0.0
 70
    64
  0
VERTEX
  5
50342
100
AcDbEntity
  8
0
100
AcDbVertex
100
AcDbPolygonMeshVertex
 10
1.1875
 20
0.0
 30
0.187
 70
    64
  0
VERTEX
  5
50343
100
AcDbEntity
  8
0
100
AcDbVertex
100
AcDbPolygonMeshVertex
 10
1.1875
 20
0.0
 30
0.187
 70
    64
  0
VERTEX
  5
50344
100
AcDbEntity
  8
0
100
AcDbVertex
100
AcDbPolygonMeshVertex
 10
1.1875
 20
-1.38
 30
0.187
 70
    64
  0
VERTEX
  5
50345
100
AcDbEntity
  8
0
100
AcDbVertex
100
AcDbPolygonMeshVertex
 10
0.0
 20
0.0
 30
0.187
 70
    64
  0
VERTEX
  5
50346
100
AcDbEntity
  8
0
100
AcDbVertex
100
AcDbPolygonMeshVertex
 10
0.0
 20
0.0
 30
0.187
 70
    64
  0
VERTEX
  5
50347
100
AcDbEntity
  8
0
100
AcDbVertex
100
AcDbPolygonMeshVertex
 10
0.0
 20
-1.38
 30
0.187
 70
    64
  0
SEQEND
  5
50348
100
AcDbEntity
  8
0
  0
POINT
  5
50349
100
AcDbEntity
  8
SNAP_POINTS
100
AcDbPoint
 10
0.0
 20
0.0
 30
0.0
  0
POINT
  5
5034A
100
AcDbEntity
  8
DIMS-MTG-HOLES
100
AcDbPoint
 10
0.0
 20
-0.69
 30
0.15
  0
POINT
  5
5034B
100
AcDbEntity
  8
DIMS-MTG-HOLES
100
AcDbPoint
 10
1.1875
 20
-0.69
 30
0.15
  0
DIMENSION
  5
5034C
100
AcDbEntity
  8
AREA1
100
AcDbDimension
  2
*D0
 10
-0.514797
 20
-1.90875
 30
0.0
 11
-0.514797
 21
-0.648233
 31
0.0
 70
   160
  3
ABECAD_3D
100
AcDbAlignedDimension
 13
0.38125
 23
0.62875
 33
0.0
 14
0.0
 24
-1.90875
 34
0.0
 50
90.0
100
AcDbRotatedDimension
  0
DIMENSION
  5
5035A
100
AcDbEntity
  8
AREA1
100
AcDbDimension
  2
*D1
 10
1.1875
 20
0.943911
 30
0.0
 11
0.58991
 21
1.266246
 31
0.0
 70
   160
  3
ABECAD_3D
100
AcDbAlignedDimension
 13
0.0
 23
0.52875
 33
0.0
 14
1.1875
 24
0.52875
 34
0.0
100
AcDbRotatedDimension
  0
LWPOLYLINE
  5
5037F
100
AcDbEntity
  8
SCALE
100
AcDbPolyline
 90
        4
 70
     1
 43
0.0
 10
0.033327
 20
-2.036118
 10
1.168955
 20
-2.036118
 10
1.168955
 20
-2.877728
 10
0.033327
 20
-2.877728
  0
LINE
  5
50380
100
AcDbEntity
  8
SCALE
100
AcDbLine
 10
0.091325
 20
-2.416196
 30
0.0
 11
1.091325
 21
-2.416196
 31
0.0
  0
LINE
  5
50381
100
AcDbEntity
  8
SCALE
100
AcDbLine
 10
0.091325
 20
-2.716196
 30
0.0
 11
0.485025
 21
-2.716196
 31
0.0
  0
LINE
  5
50382
100
AcDbEntity
  8
SCALE
100
AcDbLine
 10
0.091325
 20
-2.516196
 30
0.0
 11
0.091325
 21
-2.316196
 31
0.0
  0
TEXT
  5
50383
100
AcDbEntity
  8
SCALE
100
AcDbText
 10
0.147301
 20
-2.668511
 30
0.0
 40
0.0625
  1
[10mm]
100
AcDbText
  0
LINE
  5
50384
100
AcDbEntity
  8
SCALE
100
AcDbLine
 10
0.091325
 20
-2.816196
 30
0.0
 11
0.091325
 21
-2.616196
 31
0.0
  0
TEXT
  5
50385
100
AcDbEntity
  8
SCALE
100
AcDbText
 10
0.092855
 20
-2.141319
 30
0.0
 40
0.0625
  1
SCALE:
100
AcDbText
  0
LINE
  5
50386
100
AcDbEntity
  8
SCALE
100
AcDbLine
 10
0.485025
 20
-2.816196
 30
0.0
 11
0.485025
 21
-2.616196
 31
0.0
  0
TEXT
  5
50387
100
AcDbEntity
  8
SCALE
100
AcDbText
 10
0.454608
 20
-2.347148
 30
0.0
 40
0.0625
  1
1 Inch
100
AcDbText
  0
LINE
  5
50388
100
AcDbEntity
  8
SCALE
100
AcDbLine
 10
1.091325
 20
-2.416196
 30
0.0
 11
1.091325
 21
-2.516196
 31
0.0
  0
LINE
  5
50389
100
AcDbEntity
  8
SCALE
100
AcDbLine
 10
1.091325
 20
-2.516196
 30
0.0
 11
1.091325
 21
-2.316196
 31
0.0
  0
ENDSEC
  0
SECTION
  2
OBJECTS
  0
DICTIONARY
  5
458CB
100
AcDbDictionary
  3
ACAD_GROUP
350
458CC
  3
ACAD_LAYOUT
350
458FB
  3
ACAD_MLINESTYLE
350
458D9
  3
ACAD_PLOTSETTINGS
350
458FC
  3
ACAD_PLOTSTYLENAME
350
458F9
  3
ACDBHEADERROUNDTRIPXREC
350
503F1
  3
ACDBVARIABLEDICTIONARY
350
458E1
  3
DWGPROPS
350
45901
  0
DICTIONARY
  5
503EF
100
AcDbDictionary
280
     1
  3
ACAD_XREC_ROUNDTRIP
360
503F0
  0
DICTIONARY
  5
50418
100
AcDbDictionary
280
     1
  3
ACAD_XREC_ROUNDTRIP
360
50419
  0
DICTIONARY
  5
503ED
100
AcDbDictionary
280
     1
  3
ACAD_XREC_ROUNDTRIP
360
503EE
  0
DICTIONARY
  5
50414
100
AcDbDictionary
280
     1
  3
ACAD_XREC_ROUNDTRIP
360
50415
  0
DICTIONARY
  5
4592C
100
AcDbDictionary
280
     1
  3
ACAD_LAYOUTSELFREF
360
50413
  0
DICTIONARY
  5
4592A
100
AcDbDictionary
280
     1
  3
ACAD_LAYOUTSELFREF
360
50412
  0
DICTIONARY
  5
458CC
102
{ACAD_REACTORS
330
458CB
102
}
100
AcDbDictionary
  0
DICTIONARY
  5
458FB
102
{ACAD_XDICTIONARY
360
50416
102
}
102
{ACAD_REACTORS
330
458CB
102
}
100
AcDbDictionary
  3
LAYOUT1
350
458FE
  3
MODEL
350
458FD
  0
DICTIONARY
  5
458D9
102
{ACAD_REACTORS
330
458CB
102
}
100
AcDbDictionary
  3
STANDARD
350
458DA
  0
DICTIONARY
  5
458FC
102
{ACAD_REACTORS
330
458CB
102
}
100
AcDbDictionary
  0
ACAD_PROXY_OBJECT
  5
458F9
102
{ACAD_REACTORS
330
458CB
102
}
100
AcDbProxyObject
 90
      499
 91
      501
 93
       86
310
405010041939BDC9B585B3
350
458FA
340
458FA
 94
        0
  0
DICTIONARY
  5
503F1
102
{ACAD_REACTORS
330
458CB
102
}
100
AcDbDictionary
  3
CEPSNTYPE
350
503FB
  3
DIMSTYLEDATA
350
503FF
  3
FINGERPRINTGUID
350
503FC
  3
HYPERLINKBASE
350
503F4
  3
INSUNITS
350
503FA
  3
LAYOUTDICT
350
503F6
  3
LWETCUNION
350
503F9
  3
PLOTSETDICT
350
503F7
  3
PLOTSTYLNAMDICT
350
503F8
  3
PSVPSCALE
350
503FE
  3
PUCSBASE
350
50402
  3
PUCSORGBACK
350
50408
  3
PUCSORGBOTTOM
350
50404
  3
PUCSORGFRONT
350
50407
  3
PUCSORGLEFT
350
50405
  3
PUCSORGRIGHT
350
50406
  3
PUCSORGTOP
350
50403
  3
PUCSORTHOREF
350
50400
  3
PUCSORTHOVIEW
350
50401
  3
STYLESHEET
350
503F5
  3
TSTACKALIGN
350
503F2
  3
TSTACKSIZE
350
503F3
  3
UCSBASE
350
5040B
  3
UCSORGBACK
350
50411
  3
UCSORGBOTTOM
350
5040D
  3
UCSORGFRONT
350
50410
  3
UCSORGLEFT
350
5040E
  3
UCSORGRIGHT
350
5040F
  3
UCSORGTOP
350
5040C
  3
UCSORTHOREF
350
50409
  3
UCSORTHOVIEW
350
5040A
  3
VERSIONGUID
350
503FD
  0
DICTIONARY
  5
458E1
102
{ACAD_REACTORS
330
458CB
102
}
100
AcDbDictionary
  3
DIMADEC
350
458E2
  0
XRECORD
  5
45901
102
{ACAD_REACTORS
330
458CB
102
}
100
AcDbXrecord
  1
DWGPROPS COOKIE
  2

  3

  4

  6

  7

  8
colin
  9

300
=
301
=
302
=
303
=
304
=
305
=
306
=
307
=
308
=
309
=
 40
0.000599
 41
2451670.444777
 42
2451670.445376
  1

 90
        0
  0
XRECORD
  5
503F0
102
{ACAD_REACTORS
330
503EF
102
}
100
AcDbXrecord
102
EXTNAMES
  1
*ACTIVE
  2
*Active
102
UCS
 74
     0
 71
     1
 10
0.0
 20
0.0
 30
0.0
 10
1.0
 20
0.0
 30
0.0
 10
0.0
 20
1.0
 30
0.0
146
0.0
 79
     1
102
VIEW
281
     1
  0
XRECORD
  5
50419
102
{ACAD_REACTORS
330
50418
102
}
100
AcDbXrecord
102
PLOTBIT
280
     0
  0
XRECORD
  5
503EE
102
{ACAD_REACTORS
330
503ED
102
}
100
AcDbXrecord
102
EXTNAMES
  1
DEFPOINTS
  2
Defpoints
102
PLOTBIT
280
     0
  0
XRECORD
  5
50415
102
{ACAD_REACTORS
330
50414
102
}
100
AcDbXrecord
102
ACADR14ROUNDTRIP
1000
DSTYLE
1002
{
1070
   276
 70
     2
1070
   277
 70
     5
1070
   279
 70
     2
1002
}
  0
XRECORD
  5
50413
102
{ACAD_REACTORS
330
4592C
102
}
100
AcDbXrecord
340
458D6
  0
XRECORD
  5
50412
102
{ACAD_REACTORS
330
4592A
102
}
100
AcDbXrecord
340
458D3
  0
DICTIONARY
  5
50416
100
AcDbDictionary
280
     1
  3
ACAD_XREC_ROUNDTRIP
360
50417
  0
ACAD_PROXY_OBJECT
  5
458FE
102
{ACAD_REACTORS
330
458FB
102
}
100
AcDbProxyObject
 90
      499
 91
      503
 93
     1348
310
91D4850204C617365724A65742035303030205365726965732050434C20362C00AAAAAA416AA547D11959985D5B1D08148C4D081C195B88185CDCDA59DB9B595B9D1CCB98DD1891069074C61796F75743140501A800000000000000000000000000000000000000000000A1000000000000008902A6A6A10232D5E076BC551
310
0408CB5781DAF154410232D5E076BC5510408CB5781DAF15C410232D5E076BC5710408CB5781DAF15C40
330
458D3
330
0
340
0
340
0
 94
        0
  0
ACAD_PROXY_OBJECT
  5
458FD
102
{ACAD_REACTORS
330
458FB
102
}
100
AcDbProxyObject
 90
      499
 91
      503
 93
      924
310
91D4850204C617365724A65742035303030205365726965732050434C20362C01AAAAAAAAA547D11959985D5B1D08148C4D081C195B88185CDCDA59DB9B595B9D1CCB98DD18A69054D6F64656C901A800000000000000000000000000000000000000000000A1000000000000008902A6A6AAAA8
330
458D6
330
0
340
0
340
0
 94
        0
  0
MLINESTYLE
  5
458DA
102
{ACAD_REACTORS
330
458D9
102
}
100
AcDbMlineStyle
  2
STANDARD
 70
     0
  3

 62
   256
 51
90.0
 52
90.0
 71
     2
 49
0.5
 62
   256
  6
BYLAYER
 49
-0.5
 62
   256
  6
BYLAYER
  0
ACAD_PROXY_OBJECT
  5
458FA
102
{ACAD_REACTORS
330
458F9
102
}
100
AcDbProxyObject
 90
      499
 91
      502
 93
        0
 94
        0
  0
XRECORD
  5
503FB
102
{ACAD_REACTORS
330
503F1
102
}
100
AcDbXrecord
 90
        0
  0
XRECORD
  5
503FF
102
{ACAD_REACTORS
330
503F1
102
}
100
AcDbXrecord
1000
DSTYLE
1002
{
1070
   276
 70
     2
1070
   277
 70
     5
1070
   279
 70
     2
1002
}
  0
XRECORD
  5
503FC
102
{ACAD_REACTORS
330
503F1
102
}
100
AcDbXrecord
  1
{6E0CF4B8-225E-11D4-A150-00A0CC3303EC}
  0
XRECORD
  5
503F4
102
{ACAD_REACTORS
330
503F1
102
}
100
AcDbXrecord
  1

  0
XRECORD
  5
503FA
102
{ACAD_REACTORS
330
503F1
102
}
100
AcDbXrecord
 90
        0
  0
XRECORD
  5
503F6
102
{ACAD_REACTORS
330
503F1
102
}
100
AcDbXrecord
340
458FB
  0
XRECORD
  5
503F9
102
{ACAD_REACTORS
330
503F1
102
}
100
AcDbXrecord
 90
    14877
  0
XRECORD
  5
503F7
102
{ACAD_REACTORS
330
503F1
102
}
100
AcDbXrecord
340
458FC
  0
XRECORD
  5
503F8
102
{ACAD_REACTORS
330
503F1
102
}
100
AcDbXrecord
340
458F9
  0
XRECORD
  5
503FE
102
{ACAD_REACTORS
330
503F1
102
}
100
AcDbXrecord
 40
0.0
  0
XRECORD
  5
50402
102
{ACAD_REACTORS
330
503F1
102
}
100
AcDbXrecord
340
0
  0
XRECORD
  5
50408
102
{ACAD_REACTORS
330
503F1
102
}
100
AcDbXrecord
 10
0.0
 20
0.0
 30
0.0
  0
XRECORD
  5
50404
102
{ACAD_REACTORS
330
503F1
102
}
100
AcDbXrecord
 10
0.0
 20
0.0
 30
0.0
  0
XRECORD
  5
50407
102
{ACAD_REACTORS
330
503F1
102
}
100
AcDbXrecord
 10
0.0
 20
0.0
 30
0.0
  0
XRECORD
  5
50405
102
{ACAD_REACTORS
330
503F1
102
}
100
AcDbXrecord
 10
0.0
 20
0.0
 30
0.0
  0
XRECORD
  5
50406
102
{ACAD_REACTORS
330
503F1
102
}
100
AcDbXrecord
 10
0.0
 20
0.0
 30
0.0
  0
XRECORD
  5
50403
102
{ACAD_REACTORS
330
503F1
102
}
100
AcDbXrecord
 10
0.0
 20
0.0
 30
0.0
  0
XRECORD
  5
50400
102
{ACAD_REACTORS
330
503F1
102
}
100
AcDbXrecord
340
0
  0
XRECORD
  5
50401
102
{ACAD_REACTORS
330
503F1
102
}
100
AcDbXrecord
 70
     0
  0
XRECORD
  5
503F5
102
{ACAD_REACTORS
330
503F1
102
}
100
AcDbXrecord
  1

  0
XRECORD
  5
503F2
102
{ACAD_REACTORS
330
503F1
102
}
100
AcDbXrecord
 90
        1
  0
XRECORD
  5
503F3
102
{ACAD_REACTORS
330
503F1
102
}
100
AcDbXrecord
 90
       70
  0
XRECORD
  5
5040B
102
{ACAD_REACTORS
330
503F1
102
}
100
AcDbXrecord
340
0
  0
XRECORD
  5
50411
102
{ACAD_REACTORS
330
503F1
102
}
100
AcDbXrecord
 10
0.0
 20
0.0
 30
0.0
  0
XRECORD
  5
5040D
102
{ACAD_REACTORS
330
503F1
102
}
100
AcDbXrecord
 10
0.0
 20
0.0
 30
0.0
  0
XRECORD
  5
50410
102
{ACAD_REACTORS
330
503F1
102
}
100
AcDbXrecord
 10
0.0
 20
0.0
 30
0.0
  0
XRECORD
  5
5040E
102
{ACAD_REACTORS
330
503F1
102
}
100
AcDbXrecord
 10
0.0
 20
0.0
 30
0.0
  0
XRECORD
  5
5040F
102
{ACAD_REACTORS
330
503F1
102
}
100
AcDbXrecord
 10
0.0
 20
0.0
 30
0.0
  0
XRECORD
  5
5040C
102
{ACAD_REACTORS
330
503F1
102
}
100
AcDbXrecord
 10
0.0
 20
0.0
 30
0.0
  0
XRECORD
  5
50409
102
{ACAD_REACTORS
330
503F1
102
}
100
AcDbXrecord
340
0
  0
XRECORD
  5
5040A
102
{ACAD_REACTORS
330
503F1
102
}
100
AcDbXrecord
 70
     1
  0
XRECORD
  5
503FD
102
{ACAD_REACTORS
330
503F1
102
}
100
AcDbXrecord
  1
{3ECC5E82-8B5A-46E7-8A7A-DB67712B405B}
  0
DICTIONARYVAR
  5
458E2
102
{ACAD_REACTORS
330
458E1
102
}
100
DictionaryVariables
280
     0
  1
0
  0
XRECORD
  5
50417
102
{ACAD_REACTORS
330
50416
102
}
100
AcDbXrecord
102
EXTNAMES
  1
LAYOUT1
  2
Layout1
  1
MODEL
  2
Model
  0
ENDSEC
  0
EOF
