  0
SECTION
  2
HEADER
  9
$ACADVER
  1
AC1015
  9
$ACADMAINTVER
 70
     6
  9
$DWGCODEPAGE
  3
ANSI_1252
  9
$INSBASE
 10
0.0
 20
0.0
 30
0.0
  9
$EXTMIN
 10
737.8765850153374
 20
385.1574443712064
 30
2.583076203291406
  9
$EXTMAX
 10
1105.303318342042
 20
501.7211203375913
 30
4.435197312807821
  9
$LIMMIN
 10
0.0
 20
0.0
  9
$LIMMAX
 10
12.0
 20
9.0
  9
$ORTHOMODE
 70
     0
  9
$REGENMODE
 70
     1
  9
$FILLMODE
 70
     1
  9
$QTEXTMODE
 70
     0
  9
$MIRRTEXT
 70
     1
  9
$LTSCALE
 40
1.0
  9
$ATTMODE
 70
     1
  9
$TEXTSIZE
 40
0.12
  9
$TRACEWID
 40
0.05
  9
$TEXTSTYLE
  7
STANDARD
  9
$CLAYER
  8
AREA1
  9
$CELTYPE
  6
BYLAYER
  9
$CECOLOR
 62
   256
  9
$CELTSCALE
 40
1.0
  9
$DISPSILH
 70
     0
  9
$DIMSCALE
 40
1.0
  9
$DIMASZ
 40
4.572
  9
$DIMEXO
 40
1.587499999999999
  9
$DIMDLI
 40
9.525
  9
$DIMRND
 40
0.0
  9
$DIMDLE
 40
0.0
  9
$DIMEXE
 40
4.572
  9
$DIMTP
 40
0.0
  9
$DIMTM
 40
0.0
  9
$DIMTXT
 40
4.572
  9
$DIMCEN
 40
2.286
  9
$DIMTSZ
 40
0.0
  9
$DIMTOL
 70
     0
  9
$DIMLIM
 70
     0
  9
$DIMTIH
 70
     0
  9
$DIMTOH
 70
     1
  9
$DIMSE1
 70
     0
  9
$DIMSE2
 70
     0
  9
$DIMTAD
 70
     0
  9
$DIMZIN
 70
     4
  9
$DIMBLK
  1

  9
$DIMASO
 70
     1
  9
$DIMSHO
 70
     1
  9
$DIMPOST
  1

  9
$DIMAPOST
  1

  9
$DIMALT
 70
     1
  9
$DIMALTD
 70
     6
  9
$DIMALTF
 40
0.03937
  9
$DIMLFAC
 40
1.0
  9
$DIMTOFL
 70
     0
  9
$DIMTVP
 40
0.0
  9
$DIMTIX
 70
     0
  9
$DIMSOXD
 70
     0
  9
$DIMSAH
 70
     0
  9
$DIMBLK1
  1

  9
$DIMBLK2
  1

  9
$DIMSTYLE
  2
ABECAD_3D
  9
$DIMCLRD
 70
     0
  9
$DIMCLRE
 70
     0
  9
$DIMCLRT
 70
     0
  9
$DIMTFAC
 40
1.5
  9
$DIMGAP
 40
2.286
  9
$DIMJUST
 70
     0
  9
$DIMSD1
 70
     0
  9
$DIMSD2
 70
     0
  9
$DIMTOLJ
 70
     1
  9
$DIMTZIN
 70
     4
  9
$DIMALTZ
 70
     4
  9
$DIMALTTZ
 70
     4
  9
$DIMUPT
 70
     1
  9
$DIMDEC
 70
     2
  9
$DIMTDEC
 70
     2
  9
$DIMALTU
 70
     7
  9
$DIMALTTD
 70
     6
  9
$DIMTXSTY
  7
STANDARD
  9
$DIMAUNIT
 70
     0
  9
$DIMADEC
 70
     0
  9
$DIMALTRND
 40
0.0
  9
$DIMAZIN
 70
     0
  9
$DIMDSEP
 70
    46
  9
$DIMATFIT
 70
     2
  9
$DIMFRAC
 70
     2
  9
$DIMLDRBLK
  1

  9
$DIMLUNIT
 70
     2
  9
$DIMLWD
 70
    -2
  9
$DIMLWE
 70
    -2
  9
$DIMTMOVE
 70
     2
  9
$LUNITS
 70
     2
  9
$LUPREC
 70
     4
  9
$SKETCHINC
 40
0.1
  9
$FILLETRAD
 40
0.0
  9
$AUNITS
 70
     0
  9
$AUPREC
 70
     0
  9
$MENU
  1
ACAD
  9
$ELEVATION
 40
0.0
  9
$PELEVATION
 40
0.0
  9
$THICKNESS
 40
0.0
  9
$LIMCHECK
 70
     0
  9
$CHAMFERA
 40
0.0
  9
$CHAMFERB
 40
0.0
  9
$CHAMFERC
 40
0.0
  9
$CHAMFERD
 40
0.0
  9
$SKPOLY
 70
     0
  9
$TDCREATE
 40
2453042.595653843
  9
$TDUCREATE
 40
2453042.803987176
  9
$TDUPDATE
 40
2453597.755456342
  9
$TDUUPDATE
 40
2453597.963789675
  9
$TDINDWG
 40
0.2848415278
  9
$TDUSRTIMER
 40
0.2848415278
  9
$USRTIMER
 70
     1
  9
$ANGBASE
 50
0.0
  9
$ANGDIR
 70
     0
  9
$PDMODE
 70
     3
  9
$PDSIZE
 40
2.5
  9
$PLINEWID
 40
0.0
  9
$SPLFRAME
 70
     1
  9
$SPLINETYPE
 70
     6
  9
$SPLINESEGS
 70
     8
  9
$HANDSEED
  5
59F3C
  9
$SURFTAB1
 70
     6
  9
$SURFTAB2
 70
     6
  9
$SURFTYPE
 70
     6
  9
$SURFU
 70
     6
  9
$SURFV
 70
     6
  9
$UCSBASE
  2

  9
$UCSNAME
  2

  9
$UCSORG
 10
266.8673580196576
 20
8.203180508612135
 30
3.646124999999996
  9
$UCSXDIR
 10
1.0
 20
0.0
 30
0.0
  9
$UCSYDIR
 10
0.0
 20
1.0
 30
0.0
  9
$UCSORTHOREF
  2

  9
$UCSORTHOVIEW
 70
     1
  9
$UCSORGTOP
 10
266.8673580196576
 20
8.203180508612135
 30
3.646124999999996
  9
$UCSORGBOTTOM
 10
0.0
 20
0.0
 30
0.0
  9
$UCSORGLEFT
 10
0.0
 20
0.0
 30
0.0
  9
$UCSORGRIGHT
 10
44.57293710473379
 20
-10.57239502465733
 30
3.810000000000003
  9
$UCSORGFRONT
 10
0.0
 20
0.0
 30
0.0
  9
$UCSORGBACK
 10
0.0
 20
0.0
 30
0.0
  9
$PUCSBASE
  2

  9
$PUCSNAME
  2

  9
$PUCSORG
 10
0.0
 20
0.0
 30
0.0
  9
$PUCSXDIR
 10
1.0
 20
0.0
 30
0.0
  9
$PUCSYDIR
 10
0.0
 20
1.0
 30
0.0
  9
$PUCSORTHOREF
  2

  9
$PUCSORTHOVIEW
 70
     0
  9
$PUCSORGTOP
 10
0.0
 20
0.0
 30
0.0
  9
$PUCSORGBOTTOM
 10
0.0
 20
0.0
 30
0.0
  9
$PUCSORGLEFT
 10
0.0
 20
0.0
 30
0.0
  9
$PUCSORGRIGHT
 10
0.0
 20
0.0
 30
0.0
  9
$PUCSORGFRONT
 10
0.0
 20
0.0
 30
0.0
  9
$PUCSORGBACK
 10
0.0
 20
0.0
 30
0.0
  9
$USERI1
 70
     0
  9
$USERI2
 70
     0
  9
$USERI3
 70
     0
  9
$USERI4
 70
     0
  9
$USERI5
 70
     0
  9
$USERR1
 40
0.0
  9
$USERR2
 40
0.0
  9
$USERR3
 40
0.0
  9
$USERR4
 40
0.0
  9
$USERR5
 40
0.0
  9
$WORLDVIEW
 70
     1
  9
$SHADEDGE
 70
     3
  9
$SHADEDIF
 70
    70
  9
$TILEMODE
 70
     0
  9
$MAXACTVP
 70
    16
  9
$PINSBASE
 10
0.0
 20
0.0
 30
0.0
  9
$PLIMCHECK
 70
     0
  9
$PEXTMIN
 10
25.88717061955833
 20
19.5
 30
0.0
  9
$PEXTMAX
 10
231.3
 20
192.0586136734827
 30
0.0
  9
$PLIMMIN
 10
8.931840085394117
 20
13.38571885179438
  9
$PLIMMAX
 10
248.0681737907302
 20
198.1728846186557
  9
$UNITMODE
 70
     0
  9
$VISRETAIN
 70
     0
  9
$PLINEGEN
 70
     0
  9
$PSLTSCALE
 70
     1
  9
$TREEDEPTH
 70
  3020
  9
$CMLSTYLE
  2
STANDARD
  9
$CMLJUST
 70
     0
  9
$CMLSCALE
 40
1.0
  9
$PROXYGRAPHICS
 70
     1
  9
$MEASUREMENT
 70
     1
  9
$CELWEIGHT
370
    -1
  9
$ENDCAPS
280
     0
  9
$JOINSTYLE
280
     0
  9
$LWDISPLAY
290
     0
  9
$INSUNITS
 70
     0
  9
$HYPERLINKBASE
  1

  9
$STYLESHEET
  1

  9
$XEDIT
290
     1
  9
$CEPSNTYPE
380
     0
  9
$PSTYLEMODE
290
     1
  9
$FINGERPRINTGUID
  2
{6E0CF4B8-225E-11D4-A150-00A0CC3303EC}
  9
$VERSIONGUID
  2
{B8E9DA93-259A-4FF8-BD3F-5CB790888B0F}
  9
$EXTNAMES
290
     1
  9
$PSVPSCALE
 40
0.0
  9
$OLESTARTUP
290
     0
  0
ENDSEC
  0
SECTION
  2
CLASSES
  0
CLASS
  1
DICTIONARYVAR
  2
AcDbDictionaryVar
  3
AutoCAD 2000
 90
        0
280
     0
281
     0
  0
CLASS
  1
ACDBDICTIONARYWDFLT
  2
AcDbDictionaryWithDefault
  3
AutoCAD 2000
 90
        0
280
     0
281
     0
  0
CLASS
  1
ACDBPLACEHOLDER
  2
AcDbPlaceHolder
  3
AutoCAD 2000
 90
        0
280
     0
281
     0
  0
CLASS
  1
LAYOUT
  2
AcDbLayout
  3
AutoCAD 2000
 90
        0
280
     0
281
     0
  0
CLASS
  1
LONG_TRANSACTION
  2
AcDbLongTransaction
  3
AutoCAD 2000
 90
    32768
280
     0
281
     0
  0
CLASS
  1
LWPOLYLINE
  2
AcDbPolyline
  3
AutoCAD 2000
 90
    32768
280
     0
281
     1
  0
CLASS
  1
HATCH
  2
AcDbHatch
  3
AutoCAD 2000
 90
    32768
280
     0
281
     1
  0
CLASS
  1
XRECORD
  2
AcDbXrecord
  3
AutoCAD 2000
 90
    32768
280
     0
281
     0
  0
CLASS
  1
LONG_TRANSACTION
  2
AcDbLongTransaction
  3
AutoCAD 2000
 90
    32768
280
     0
281
     0
  0
CLASS
  1
LWPOLYLINE
  2
AcDbPolyline
  3
AutoCAD 2000
 90
    32768
280
     0
281
     1
  0
CLASS
  1
HATCH
  2
AcDbHatch
  3
AutoCAD 2000
 90
    32768
280
     0
281
     1
  0
CLASS
  1
XRECORD
  2
AcDbXrecord
  3
AutoCAD 2000
 90
    32768
280
     0
281
     0
  0
CLASS
  1
TABLESTYLE
  2
AcDbTableStyle
  3
ObjectDBX Classes
 90
     2047
280
     0
281
     0
  0
CLASS
  1
SORTENTSTABLE
  2
AcDbSortentsTable
  3
AutoCAD 2000
 90
    32768
280
     0
281
     0
  0
ENDSEC
  0
SECTION
  2
TABLES
  0
TABLE
  2
VPORT
  5
458C7
330
0
100
AcDbSymbolTable
 70
     1
  0
VPORT
  5
59F2D
330
458C7
100
AcDbSymbolTableRecord
100
AcDbViewportTableRecord
  2
*Active
 70
     0
 10
0.0
 20
0.0
 11
1.0
 21
1.0
 12
648.7651126817228
 22
435.1329331301782
 13
0.0
 23
0.0
 14
0.25
 24
0.25
 15
0.25
 25
0.25
 16
0.0
 26
0.0
 36
1.0
 17
272.824838996967
 27
8.306349224220612
 37
23.31369335295995
 40
182.1480055514209
 41
2.029914529914529
 42
50.0
 43
0.0
 44
0.0
 50
0.0
 51
0.0
 71
     0
 72
 20000
 73
     1
 74
     1
 75
     0
 76
     0
 77
     0
 78
     0
281
     0
 65
     1
110
266.8673580196576
120
8.203180508612135
130
3.646124999999996
111
1.0
121
0.0
131
0.0
112
0.0
122
1.0
132
0.0
 79
     1
146
0.0
  0
ENDTAB
  0
TABLE
  2
LTYPE
  5
458C4
330
0
100
AcDbSymbolTable
 70
     4
  0
LTYPE
  5
458D0
330
458C4
100
AcDbSymbolTableRecord
100
AcDbLinetypeTableRecord
  2
BYBLOCK
 70
     0
  3

 72
    65
 73
     0
 40
0.0
  0
LTYPE
  5
458D1
330
458C4
100
AcDbSymbolTableRecord
100
AcDbLinetypeTableRecord
  2
BYLAYER
 70
     0
  3

 72
    65
 73
     0
 40
0.0
  0
LTYPE
  5
458D2
330
458C4
100
AcDbSymbolTableRecord
100
AcDbLinetypeTableRecord
  2
CONTINUOUS
 70
     0
  3
Solid line
 72
    65
 73
     0
 40
0.0
  0
LTYPE
  5
4D249
330
458C4
100
AcDbSymbolTableRecord
100
AcDbLinetypeTableRecord
  2
PHANTOM
 70
     0
  3
______  __  __  ______  __  __  ______  __  __ 
 72
    65
 73
     6
 40
2.5
 49
1.25
 74
     0
 49
-0.25
 74
     0
 49
0.25
 74
     0
 49
-0.25
 74
     0
 49
0.25
 74
     0
 49
-0.25
 74
     0
  0
LTYPE
  5
4DE42
330
458C4
100
AcDbSymbolTableRecord
100
AcDbLinetypeTableRecord
  2
CENTER
 70
     0
  3
____ _ ____ _ ____ _ ____ _ ____ _ ____ _ ____
 72
    65
 73
     4
 40
2.0
 49
1.25
 74
     0
 49
-0.25
 74
     0
 49
0.25
 74
     0
 49
-0.25
 74
     0
  0
LTYPE
  5
4DE43
330
458C4
100
AcDbSymbolTableRecord
100
AcDbLinetypeTableRecord
  2
HIDDEN
 70
     0
  3
Hidden __ __ __ __ __ __ __ __ __ __ __ __ __ _
 72
    65
 73
     2
 40
0.375
 49
0.25
 74
     0
 49
-0.125
 74
     0
  0
ENDTAB
  0
TABLE
  2
LAYER
  5
458C1
102
{ACAD_XDICTIONARY
360
480DB
102
}
330
0
100
AcDbSymbolTable
 70
     8
  0
LAYER
  5
458CD
330
458C1
100
AcDbSymbolTableRecord
100
AcDbLayerTableRecord
  2
0
 70
     0
 62
     7
  6
CONTINUOUS
370
    -3
390
458FA
  0
LAYER
  5
458EB
330
458C1
100
AcDbSymbolTableRecord
100
AcDbLayerTableRecord
  2
ATTRIBUTES
 70
     0
 62
    -7
  6
CONTINUOUS
370
    -3
390
458FA
  0
LAYER
  5
4593F
330
458C1
100
AcDbSymbolTableRecord
100
AcDbLayerTableRecord
  2
AREA1
 70
     0
 62
     7
  6
CONTINUOUS
370
    -3
390
458FA
  0
LAYER
  5
45946
330
458C1
100
AcDbSymbolTableRecord
100
AcDbLayerTableRecord
  2
Defpoints
 70
     0
 62
     7
  6
CONTINUOUS
290
     0
370
    -3
390
458FA
  0
LAYER
  5
45972
330
458C1
100
AcDbSymbolTableRecord
100
AcDbLayerTableRecord
  2
SCALE
 70
     0
 62
    -7
  6
CONTINUOUS
370
    -3
390
458FA
  0
LAYER
  5
46E1B
330
458C1
100
AcDbSymbolTableRecord
100
AcDbLayerTableRecord
  2
OBJECT
 70
     0
 62
     7
  6
CONTINUOUS
370
    -3
390
458FA
  0
LAYER
  5
4DE44
330
458C1
100
AcDbSymbolTableRecord
100
AcDbLayerTableRecord
  2
DIMS
 70
     0
 62
     1
  6
CONTINUOUS
370
    -3
390
458FA
  0
LAYER
  5
56706
330
458C1
100
AcDbSymbolTableRecord
100
AcDbLayerTableRecord
  2
TESTPROBE
 70
     0
 62
     7
  6
CONTINUOUS
370
    -3
390
458FA
  0
ENDTAB
  0
TABLE
  2
STYLE
  5
458C2
330
0
100
AcDbSymbolTable
 70
     3
  0
STYLE
  5
458CE
330
458C2
100
AcDbSymbolTableRecord
100
AcDbTextStyleTableRecord
  2
STANDARD
 70
     0
 40
0.0
 41
1.0
 50
0.0
 71
     0
 42
0.12
  3
txt
  4

  0
STYLE
  5
46E1C
330
458C2
100
AcDbSymbolTableRecord
100
AcDbTextStyleTableRecord
  2
ROMANS
 70
     0
 40
0.0
 41
1.0
 50
0.0
 71
     0
 42
0.125
  3
romans
  4

  0
STYLE
  5
5401D
330
458C2
100
AcDbSymbolTableRecord
100
AcDbTextStyleTableRecord
  2
ROMANC
 70
     0
 40
0.0
 41
1.0
 50
0.0
 71
     0
 42
0.2
  3
romanc
  4

  0
ENDTAB
  0
TABLE
  2
VIEW
  5
458C5
330
0
100
AcDbSymbolTable
 70
     0
  0
ENDTAB
  0
TABLE
  2
UCS
  5
458C6
330
0
100
AcDbSymbolTable
 70
     0
  0
ENDTAB
  0
TABLE
  2
APPID
  5
458C8
330
0
100
AcDbSymbolTable
 70
     7
  0
APPID
  5
458CF
330
458C8
100
AcDbSymbolTableRecord
100
AcDbRegAppTableRecord
  2
ACAD
 70
     0
  0
APPID
  5
480E0
330
458C8
100
AcDbSymbolTableRecord
100
AcDbRegAppTableRecord
  2
ACAD_PSEXT
 70
     0
  0
APPID
  5
4DE46
330
458C8
100
AcDbSymbolTableRecord
100
AcDbRegAppTableRecord
  2
GENIUS_GENODEF_13
 70
     0
  0
APPID
  5
4DE47
330
458C8
100
AcDbSymbolTableRecord
100
AcDbRegAppTableRecord
  2
GENIUS_GENOBJ-N-CEN_13
 70
     0
  0
APPID
  5
4DE48
330
458C8
100
AcDbSymbolTableRecord
100
AcDbRegAppTableRecord
  2
GENIUS_GENOBJ-N-FIL_13
 70
     0
  0
APPID
  5
4DE49
330
458C8
100
AcDbSymbolTableRecord
100
AcDbRegAppTableRecord
  2
GENIUS_GENREC_13
 70
     0
  0
APPID
  5
4DE4A
330
458C8
100
AcDbSymbolTableRecord
100
AcDbRegAppTableRecord
  2
GENIUS_GENOBJ-N-REC_13
 70
     0
  0
ENDTAB
  0
TABLE
  2
DIMSTYLE
  5
458C9
330
0
100
AcDbSymbolTable
 70
     2
100
AcDbDimStyleTable
 71
     1
340
458F6
  0
DIMSTYLE
105
458F6
102
{ACAD_REACTORS
330
59C24
330
59C32
330
59C64
330
59CB1
330
59CBE
330
59CCB
330
59CD9
330
59D0B
330
59D19
330
59D30
330
59D3E
102
}
330
458C9
100
AcDbSymbolTableRecord
100
AcDbDimStyleTableRecord
  2
ABECAD_3D
 70
     0
 41
4.572
 42
1.587499999999999
 43
9.525
 44
4.572
 73
     0
 78
     4
140
4.572
141
2.286
143
0.03937
146
1.5
147
2.286
170
     1
171
     6
271
     2
272
     2
273
     7
274
     6
276
     2
279
     2
284
     4
285
     4
286
     4
288
     1
289
     2
340
458CE
  0
DIMSTYLE
105
459E0
330
458C9
100
AcDbSymbolTableRecord
100
AcDbDimStyleTableRecord
  2
Standard
 70
     0
340
458CE
  0
ENDTAB
  0
TABLE
  2
BLOCK_RECORD
  5
458C0
330
0
100
AcDbSymbolTable
 70
    14
  0
BLOCK_RECORD
  5
458D6
102
{ACAD_XDICTIONARY
360
45930
102
}
330
458C0
100
AcDbSymbolTableRecord
100
AcDbBlockTableRecord
  2
*MODEL_SPACE
340
458FD
  0
BLOCK_RECORD
  5
458D3
102
{ACAD_XDICTIONARY
360
4592E
102
}
330
458C0
100
AcDbSymbolTableRecord
100
AcDbBlockTableRecord
  2
*PAPER_SPACE
340
458FE
  0
BLOCK_RECORD
  5
59C25
330
458C0
100
AcDbSymbolTableRecord
100
AcDbBlockTableRecord
  2
*D3
340
0
  0
BLOCK_RECORD
  5
59C33
330
458C0
100
AcDbSymbolTableRecord
100
AcDbBlockTableRecord
  2
*D4
340
0
  0
BLOCK_RECORD
  5
59C65
330
458C0
100
AcDbSymbolTableRecord
100
AcDbBlockTableRecord
  2
*D5
340
0
  0
BLOCK_RECORD
  5
59CB2
330
458C0
100
AcDbSymbolTableRecord
100
AcDbBlockTableRecord
  2
*D6
340
0
  0
BLOCK_RECORD
  5
59CBF
330
458C0
100
AcDbSymbolTableRecord
100
AcDbBlockTableRecord
  2
*D7
340
0
  0
BLOCK_RECORD
  5
59CCC
330
458C0
100
AcDbSymbolTableRecord
100
AcDbBlockTableRecord
  2
*D8
340
0
  0
BLOCK_RECORD
  5
59CDA
330
458C0
100
AcDbSymbolTableRecord
100
AcDbBlockTableRecord
  2
*D9
340
0
  0
BLOCK_RECORD
  5
59D0C
330
458C0
100
AcDbSymbolTableRecord
100
AcDbBlockTableRecord
  2
*D10
340
0
  0
BLOCK_RECORD
  5
59D1A
330
458C0
100
AcDbSymbolTableRecord
100
AcDbBlockTableRecord
  2
*D11
340
0
  0
BLOCK_RECORD
  5
59D31
330
458C0
100
AcDbSymbolTableRecord
100
AcDbBlockTableRecord
  2
*D12
340
0
  0
BLOCK_RECORD
  5
59D3F
330
458C0
100
AcDbSymbolTableRecord
100
AcDbBlockTableRecord
  2
*D13
340
0
  0
ENDTAB
  0
ENDSEC
  0
SECTION
  2
BLOCKS
  0
BLOCK
  5
458DF
330
458D6
100
AcDbEntity
  8
0
100
AcDbBlockBegin
  2
*MODEL_SPACE
 70
     0
 10
0.0
 20
0.0
 30
0.0
  3
*MODEL_SPACE
  1

  0
ENDBLK
  5
458E0
330
458D6
100
AcDbEntity
  8
0
100
AcDbBlockEnd
  0
BLOCK
  5
458DD
330
458D3
100
AcDbEntity
 67
     1
  8
0
100
AcDbBlockBegin
  2
*PAPER_SPACE
 70
     0
 10
0.0
 20
0.0
 30
0.0
  3
*PAPER_SPACE
  1

  0
ENDBLK
  5
458DE
330
458D3
100
AcDbEntity
 67
     1
  8
0
100
AcDbBlockEnd
  0
BLOCK
  5
59C30
330
59C25
100
AcDbEntity
  8
0
100
AcDbBlockBegin
  2
*D3
 70
     1
 10
0.0
 20
0.0
 30
0.0
  3
*D3
  1

  0
LINE
  5
59E8E
330
59C25
100
AcDbEntity
  8
AREA1
 62
     0
370
    -2
100
AcDbLine
 10
864.6077636218082
 20
472.3103707574981
 30
0.0
 11
810.8547044836157
 21
472.3103707574981
 31
0.0
  0
LINE
  5
59E8F
330
59C25
100
AcDbEntity
  8
AREA1
 62
     0
370
    -2
100
AcDbLine
 10
864.6077636218082
 20
420.0502112365211
 30
0.0
 11
810.8547044836157
 21
420.0502112365211
 31
0.0
  0
LINE
  5
59E90
330
59C25
100
AcDbEntity
  8
AREA1
 62
     0
370
    -2
100
AcDbLine
 10
814.6547044836156
 20
476.1103707574982
 30
0.0
 11
814.6547044836156
 21
479.9103707574982
 31
0.0
  0
LINE
  5
59E91
330
59C25
100
AcDbEntity
  8
AREA1
 62
     0
370
    -2
100
AcDbLine
 10
814.6547044836156
 20
416.2502112365211
 30
0.0
 11
814.6547044836156
 21
412.4502112365211
 31
0.0
  0
MTEXT
  5
59E92
330
59C25
100
AcDbEntity
  8
AREA1
 62
     0
100
AcDbMText
 10
814.6547044836156
 20
446.1802909970096
 30
0.0
 40
3.799999999999999
 41
0.0
 71
     5
 72
     1
  1
\A1;52.26 [2 1/16]
 11
0.0000000000000001
 21
1.0
 31
0.0
 73
     1
 44
1.0
1001
ACAD
1000
MTEXTBEGIN
1070
    73
1070
     1
1070
    44
1040
1.0
1070
    74
1070
     0
1000
MTEXTEND
  0
SOLID
  5
59E93
330
59C25
100
AcDbEntity
  8
AREA1
 62
     0
100
AcDbTrace
 10
814.0213711502823
 20
476.1103707574982
 30
0.0
 11
815.288037816949
 21
476.1103707574982
 31
0.0
 12
814.6547044836156
 22
472.3103707574981
 32
0.0
 13
814.6547044836156
 23
472.3103707574981
 33
0.0
  0
SOLID
  5
59E94
330
59C25
100
AcDbEntity
  8
AREA1
 62
     0
100
AcDbTrace
 10
814.0213711502823
 20
416.2502112365211
 30
0.0
 11
815.288037816949
 21
416.2502112365211
 31
0.0
 12
814.6547044836156
 22
420.0502112365211
 32
0.0
 13
814.6547044836156
 23
420.0502112365211
 33
0.0
  0
POINT
  5
59E95
330
59C25
100
AcDbEntity
  8
Defpoints
 62
     0
100
AcDbPoint
 10
866.1952636218082
 20
472.3103707574981
 30
0.0185880111566275
  0
POINT
  5
59E96
330
59C25
100
AcDbEntity
  8
Defpoints
 62
     0
100
AcDbPoint
 10
866.1952636218082
 20
420.0502112365211
 30
0.0185880111566275
  0
POINT
  5
59E97
330
59C25
100
AcDbEntity
  8
Defpoints
 62
     0
100
AcDbPoint
 10
814.6547044836156
 20
420.0502112365211
 30
0.0
  0
ENDBLK
  5
59C31
330
59C25
100
AcDbEntity
  8
0
100
AcDbBlockEnd
  0
BLOCK
  5
59C3E
330
59C33
100
AcDbEntity
  8
0
100
AcDbBlockBegin
  2
*D4
 70
     1
 10
0.0
 20
0.0
 30
0.0
  3
*D4
  1

  0
LINE
  5
59E26
330
59C33
100
AcDbEntity
  8
AREA1
 62
     0
370
    -2
100
AcDbLine
 10
864.6077636218082
 20
471.5759939236529
 30
0.0
 11
825.8027971866614
 21
471.5759939236529
 31
0.0
  0
LINE
  5
59E27
330
59C33
100
AcDbEntity
  8
AREA1
 62
     0
370
    -2
100
AcDbLine
 10
864.6077636218082
 20
420.7845880703663
 30
0.0
 11
825.8027971866614
 21
420.7845880703663
 31
0.0
  0
LINE
  5
59E28
330
59C33
100
AcDbEntity
  8
AREA1
 62
     0
370
    -2
100
AcDbLine
 10
829.6027971866612
 20
467.7759939236529
 30
0.0
 11
829.6027971866612
 21
462.0829576636761
 31
0.0
  0
LINE
  5
59E29
330
59C33
100
AcDbEntity
  8
AREA1
 62
     0
370
    -2
100
AcDbLine
 10
829.6027971866612
 20
424.5845880703663
 30
0.0
 11
829.6027971866612
 21
430.2776243303428
 31
0.0
  0
MTEXT
  5
59E2A
330
59C33
100
AcDbEntity
  8
AREA1
 62
     0
100
AcDbMText
 10
829.6027971866612
 20
446.1802909970096
 30
0.0
 40
3.799999999999999
 41
0.0
 71
     5
 72
     1
  1
\A1;50.79 [2]
 11
0.0000000000000001
 21
1.0
 31
0.0
 73
     1
 44
1.0
1001
ACAD
1000
MTEXTBEGIN
1070
    73
1070
     1
1070
    44
1040
1.0
1070
    74
1070
     0
1000
MTEXTEND
  0
SOLID
  5
59E2B
330
59C33
100
AcDbEntity
  8
AREA1
 62
     0
100
AcDbTrace
 10
828.969463853328
 20
467.7759939236529
 30
0.0
 11
830.2361305199946
 21
467.7759939236529
 31
0.0
 12
829.6027971866612
 22
471.5759939236529
 32
0.0
 13
829.6027971866612
 23
471.5759939236529
 33
0.0
  0
SOLID
  5
59E2C
330
59C33
100
AcDbEntity
  8
AREA1
 62
     0
100
AcDbTrace
 10
828.969463853328
 20
424.5845880703663
 30
0.0
 11
830.2361305199946
 21
424.5845880703663
 31
0.0
 12
829.6027971866612
 22
420.7845880703663
 32
0.0
 13
829.6027971866612
 23
420.7845880703663
 33
0.0
  0
POINT
  5
59E2D
330
59C33
100
AcDbEntity
  8
Defpoints
 62
     0
100
AcDbPoint
 10
866.1952636218082
 20
471.5759939236529
 30
0.0185880111566275
  0
POINT
  5
59E2E
330
59C33
100
AcDbEntity
  8
Defpoints
 62
     0
100
AcDbPoint
 10
866.1952636218082
 20
420.7845880703663
 30
0.0185880111566275
  0
POINT
  5
59E2F
330
59C33
100
AcDbEntity
  8
Defpoints
 62
     0
100
AcDbPoint
 10
829.6027971866612
 20
420.7845880703663
 30
0.0
  0
ENDBLK
  5
59C3F
330
59C33
100
AcDbEntity
  8
0
100
AcDbBlockEnd
  0
BLOCK
  5
59C6F
330
59C65
100
AcDbEntity
  8
0
100
AcDbBlockBegin
  2
*D5
 70
     1
 10
0.0
 20
0.0
 30
0.0
  3
*D5
  1

  0
LINE
  5
59EA1
330
59C65
100
AcDbEntity
  8
AREA1
 62
     0
370
    -2
100
AcDbLine
 10
888.4202636218079
 20
446.1802909970096
 30
0.0
 11
902.5150648261753
 21
446.1802909970096
 31
0.0
  0
LINE
  5
59EA2
330
59C65
100
AcDbEntity
  8
AREA1
 62
     0
370
    -2
100
AcDbLine
 10
885.2239576366979
 20
399.75500365556
 30
0.0
 11
902.5150648261753
 21
399.7550036555599
 31
0.0
  0
LINE
  5
59EA3
330
59C65
100
AcDbEntity
  8
AREA1
 62
     0
370
    -2
100
AcDbLine
 10
898.7150648261755
 20
442.3802909970095
 30
0.0
 11
898.7150648261755
 21
403.55500365556
 31
0.0
  0
MTEXT
  5
59EA4
330
59C65
100
AcDbEntity
  8
AREA1
 62
     0
100
AcDbMText
 10
906.6163221167776
 20
423.5311938179497
 30
0.0
 40
3.799999999999999
 41
0.0
 71
     5
 72
     1
  1
\A1;46.43 [1 53/64]
 11
0.0000000000000001
 21
1.0
 31
0.0
 73
     1
 44
1.0
1001
ACAD
1000
MTEXTBEGIN
1070
    73
1070
     1
1070
    44
1040
1.0
1070
    74
1070
     0
1000
MTEXTEND
  0
SOLID
  5
59EA5
330
59C65
100
AcDbEntity
  8
AREA1
 62
     0
100
AcDbTrace
 10
898.0817314928421
 20
442.3802909970095
 30
0.0
 11
899.3483981595087
 21
442.3802909970095
 31
0.0
 12
898.7150648261755
 22
446.1802909970096
 32
0.0
 13
898.7150648261755
 23
446.1802909970096
 33
0.0
  0
SOLID
  5
59EA6
330
59C65
100
AcDbEntity
  8
AREA1
 62
     0
100
AcDbTrace
 10
898.0817314928421
 20
403.55500365556
 30
0.0
 11
899.3483981595087
 21
403.55500365556
 31
0.0
 12
898.7150648261755
 22
399.7550036555599
 32
0.0
 13
898.7150648261755
 23
399.7550036555599
 33
0.0
  0
POINT
  5
59EA7
330
59C65
100
AcDbEntity
  8
Defpoints
 62
     0
100
AcDbPoint
 10
886.8327636218079
 20
446.1802909970096
 30
0.0185880111566275
  0
POINT
  5
59EA8
330
59C65
100
AcDbEntity
  8
Defpoints
 62
     0
100
AcDbPoint
 10
883.636457636698
 20
399.75500365556
 30
0.0185880111566275
  0
POINT
  5
59EA9
330
59C65
100
AcDbEntity
  8
Defpoints
 62
     0
100
AcDbPoint
 10
898.7150648261755
 20
399.7550036555599
 30
0.0
  0
ENDBLK
  5
59C70
330
59C65
100
AcDbEntity
  8
0
100
AcDbBlockEnd
  0
BLOCK
  5
59CBC
330
59CB2
100
AcDbEntity
  8
0
100
AcDbBlockBegin
  2
*D6
 70
     1
 10
0.0
 20
0.0
 30
0.0
  3
*D6
  1

  0
LINE
  5
59EB3
330
59CB2
100
AcDbEntity
  8
AREA1
 62
     0
370
    -2
100
AcDbLine
 10
982.9644339252237
 20
462.1755057445026
 30
0.0
 11
953.0452813286657
 21
462.1755057445026
 31
0.0
  0
LINE
  5
59EB4
330
59CB2
100
AcDbEntity
  8
AREA1
 62
     0
370
    -2
100
AcDbLine
 10
982.9644339252237
 20
430.4313418436705
 30
0.0
 11
953.0452813286657
 21
430.4313418436705
 31
0.0
  0
LINE
  5
59EB5
330
59CB2
100
AcDbEntity
  8
AREA1
 62
     0
370
    -2
100
AcDbLine
 10
956.8452813286658
 20
458.3755057445026
 30
0.0
 11
956.8452813286658
 21
434.2313418436705
 31
0.0
  0
MTEXT
  5
59EB6
330
59CB2
100
AcDbEntity
  8
AREA1
 62
     0
100
AcDbMText
 10
949.6807293257276
 20
446.0821775826865
 30
0.0
 40
3.799999999999999
 41
0.0
 71
     5
 72
     1
  1
\A1;31.74 [1 1/4]
 11
0.0000000000000001
 21
1.0
 31
0.0
 73
     1
 44
1.0
1001
ACAD
1000
MTEXTBEGIN
1070
    73
1070
     1
1070
    44
1040
1.0
1070
    74
1070
     0
1000
MTEXTEND
  0
SOLID
  5
59EB7
330
59CB2
100
AcDbEntity
  8
AREA1
 62
     0
100
AcDbTrace
 10
956.2119479953324
 20
458.3755057445026
 30
0.0
 11
957.4786146619992
 21
458.3755057445026
 31
0.0
 12
956.8452813286658
 22
462.1755057445026
 32
0.0
 13
956.8452813286658
 23
462.1755057445026
 33
0.0
  0
SOLID
  5
59EB8
330
59CB2
100
AcDbEntity
  8
AREA1
 62
     0
100
AcDbTrace
 10
956.2119479953324
 20
434.2313418436705
 30
0.0
 11
957.4786146619992
 21
434.2313418436705
 31
0.0
 12
956.8452813286658
 22
430.4313418436705
 32
0.0
 13
956.8452813286658
 23
430.4313418436705
 33
0.0
  0
POINT
  5
59EB9
330
59CB2
100
AcDbEntity
  8
Defpoints
 62
     0
100
AcDbPoint
 10
984.5519339252236
 20
462.1755057445026
 30
-0.4535474722217097
  0
POINT
  5
59EBA
330
59CB2
100
AcDbEntity
  8
Defpoints
 62
     0
100
AcDbPoint
 10
984.5519339252236
 20
430.4313418436705
 30
-0.4535474722217097
  0
POINT
  5
59EBB
330
59CB2
100
AcDbEntity
  8
Defpoints
 62
     0
100
AcDbPoint
 10
956.8452813286658
 20
430.4313418436705
 30
0.0
  0
ENDBLK
  5
59CBD
330
59CB2
100
AcDbEntity
  8
0
100
AcDbBlockEnd
  0
BLOCK
  5
59CC9
330
59CBF
100
AcDbEntity
  8
0
100
AcDbBlockBegin
  2
*D7
 70
     1
 10
0.0
 20
0.0
 30
0.0
  3
*D7
  1

  0
LINE
  5
59EAA
330
59CBF
100
AcDbEntity
  8
AREA1
 62
     0
370
    -2
100
AcDbLine
 10
988.5514300054097
 20
469.7943199918821
 30
0.0
 11
933.3084021732821
 21
469.7943199918821
 31
0.0
  0
LINE
  5
59EAB
330
59CBF
100
AcDbEntity
  8
AREA1
 62
     0
370
    -2
100
AcDbLine
 10
988.5514300054097
 20
422.8125275962925
 30
0.0
 11
933.3084021732821
 21
422.8125275962925
 31
0.0
  0
LINE
  5
59EAC
330
59CBF
100
AcDbEntity
  8
AREA1
 62
     0
370
    -2
100
AcDbLine
 10
937.1084021732819
 20
465.9943199918821
 30
0.0
 11
937.1084021732819
 21
426.6125275962926
 31
0.0
  0
MTEXT
  5
59EAD
330
59CBF
100
AcDbEntity
  8
AREA1
 62
     0
100
AcDbMText
 10
930.5082224973943
 20
445.6982940747902
 30
0.0
 40
3.799999999999999
 41
0.0
 71
     5
 72
     1
  1
\A1;46.98 [1 27/32]
 11
0.0000000000000001
 21
1.0
 31
0.0
 73
     1
 44
1.0
1001
ACAD
1000
MTEXTBEGIN
1070
    73
1070
     1
1070
    44
1040
1.0
1070
    74
1070
     0
1000
MTEXTEND
  0
SOLID
  5
59EAE
330
59CBF
100
AcDbEntity
  8
AREA1
 62
     0
100
AcDbTrace
 10
936.4750688399487
 20
465.9943199918821
 30
0.0
 11
937.7417355066153
 21
465.9943199918821
 31
0.0
 12
937.1084021732819
 22
469.7943199918821
 32
0.0
 13
937.1084021732819
 23
469.7943199918821
 33
0.0
  0
SOLID
  5
59EAF
330
59CBF
100
AcDbEntity
  8
AREA1
 62
     0
100
AcDbTrace
 10
936.4750688399487
 20
426.6125275962926
 30
0.0
 11
937.7417355066153
 21
426.6125275962926
 31
0.0
 12
937.1084021732819
 22
422.8125275962925
 32
0.0
 13
937.1084021732819
 23
422.8125275962925
 33
0.0
  0
POINT
  5
59EB0
330
59CBF
100
AcDbEntity
  8
Defpoints
 62
     0
100
AcDbPoint
 10
990.1389300054097
 20
469.7943199918821
 30
-0.4535474722217097
  0
POINT
  5
59EB1
330
59CBF
100
AcDbEntity
  8
Defpoints
 62
     0
100
AcDbPoint
 10
990.1389300054097
 20
422.8125275962925
 30
-0.4535474722217097
  0
POINT
  5
59EB2
330
59CBF
100
AcDbEntity
  8
Defpoints
 62
     0
100
AcDbPoint
 10
937.1084021732819
 20
422.8125275962925
 30
0.0
  0
ENDBLK
  5
59CCA
330
59CBF
100
AcDbEntity
  8
0
100
AcDbBlockEnd
  0
BLOCK
  5
59CD7
330
59CCC
100
AcDbEntity
  8
0
100
AcDbBlockBegin
  2
*D8
 70
     1
 10
0.0
 20
0.0
 30
0.0
  3
*D8
  1

  0
LINE
  5
59ED9
330
59CCC
100
AcDbEntity
  8
AREA1
 62
     0
370
    -2
100
AcDbLine
 10
990.1389300054097
 20
473.2864872511616
 30
0.0
 11
990.1389300054097
 21
501.7211203375913
 31
0.0
  0
LINE
  5
59EDA
330
59CCC
100
AcDbEntity
  8
AREA1
 62
     0
370
    -2
100
AcDbLine
 10
992.6784863511175
 20
473.2864872511616
 30
0.0
 11
992.6784863511175
 21
501.7211203375913
 31
0.0
  0
LINE
  5
59EDB
330
59CCC
100
AcDbEntity
  8
AREA1
 62
     0
370
    -2
100
AcDbLine
 10
986.3389300054098
 20
497.9211203375913
 30
0.0
 11
982.5389300054096
 21
497.9211203375913
 31
0.0
  0
LINE
  5
59EDC
330
59CCC
100
AcDbEntity
  8
AREA1
 62
     0
370
    -2
100
AcDbLine
 10
996.4784863511175
 20
497.9211203375913
 30
0.0
 11
1000.278486351117
 21
497.9211203375913
 31
0.0
  0
MTEXT
  5
59EDD
330
59CCC
100
AcDbEntity
  8
AREA1
 62
     0
100
AcDbMText
 10
962.0526731257134
 20
497.9615637611429
 30
0.0
 40
3.799999999999999
 41
0.0
 71
     5
 72
     1
  1
\A1;2.54 [3/32]
 73
     1
 44
1.0
1001
ACAD
1000
MTEXTBEGIN
1070
    73
1070
     1
1070
    44
1040
1.0
1070
    74
1070
     0
1000
MTEXTEND
  0
SOLID
  5
59EDE
330
59CCC
100
AcDbEntity
  8
AREA1
 62
     0
100
AcDbTrace
 10
986.3389300054098
 20
498.5544536709246
 30
0.0
 11
986.3389300054098
 21
497.2877870042579
 31
0.0
 12
990.1389300054097
 22
497.9211203375913
 32
0.0
 13
990.1389300054097
 23
497.9211203375913
 33
0.0
  0
SOLID
  5
59EDF
330
59CCC
100
AcDbEntity
  8
AREA1
 62
     0
100
AcDbTrace
 10
996.4784863511175
 20
498.5544536709246
 30
0.0
 11
996.4784863511175
 21
497.2877870042579
 31
0.0
 12
992.6784863511175
 22
497.9211203375913
 32
0.0
 13
992.6784863511175
 23
497.9211203375913
 33
0.0
  0
POINT
  5
59EE0
330
59CCC
100
AcDbEntity
  8
Defpoints
 62
     0
100
AcDbPoint
 10
990.1389300054097
 20
471.6989872511616
 30
-0.4535474722217097
  0
POINT
  5
59EE1
330
59CCC
100
AcDbEntity
  8
Defpoints
 62
     0
100
AcDbPoint
 10
992.6784863511175
 20
471.6989872511616
 30
-0.4535474722217097
  0
POINT
  5
59EE2
330
59CCC
100
AcDbEntity
  8
Defpoints
 62
     0
100
AcDbPoint
 10
992.6784863511175
 20
497.9211203375913
 30
0.0
  0
ENDBLK
  5
59CD8
330
59CCC
100
AcDbEntity
  8
0
100
AcDbBlockEnd
  0
BLOCK
  5
59CE5
330
59CDA
100
AcDbEntity
  8
0
100
AcDbBlockBegin
  2
*D9
 70
     1
 10
0.0
 20
0.0
 30
0.0
  3
*D9
  1

  0
LINE
  5
59ED0
330
59CDA
100
AcDbEntity
  8
AREA1
 62
     0
370
    -2
100
AcDbLine
 10
993.9482645239715
 20
474.048133435285
 30
0.0
 11
993.9482645239715
 21
485.6712118885583
 31
0.0
  0
LINE
  5
59ED1
330
59CDA
100
AcDbEntity
  8
AREA1
 62
     0
370
    -2
100
AcDbLine
 10
1040.708070315274
 20
470.7463383425372
 30
0.0
 11
1040.708070315274
 21
485.6712118885583
 31
0.0
  0
LINE
  5
59ED2
330
59CDA
100
AcDbEntity
  8
AREA1
 62
     0
370
    -2
100
AcDbLine
 10
997.7482645239716
 20
481.8712118885583
 30
0.0
 11
1036.908070315274
 21
481.8712118885583
 31
0.0
  0
MTEXT
  5
59ED3
330
59CDA
100
AcDbEntity
  8
AREA1
 62
     0
100
AcDbMText
 10
1018.549888359773
 20
489.8585817318157
 30
0.0
 40
3.799999999999999
 41
0.0
 71
     5
 72
     1
  1
\A1;46.76 [1 27/32]
 73
     1
 44
1.0
1001
ACAD
1000
MTEXTBEGIN
1070
    73
1070
     1
1070
    44
1040
1.0
1070
    74
1070
     0
1000
MTEXTEND
  0
SOLID
  5
59ED4
330
59CDA
100
AcDbEntity
  8
AREA1
 62
     0
100
AcDbTrace
 10
997.7482645239716
 20
482.5045452218916
 30
0.0
 11
997.7482645239716
 21
481.237878555225
 31
0.0
 12
993.9482645239715
 22
481.8712118885583
 32
0.0
 13
993.9482645239715
 23
481.8712118885583
 33
0.0
  0
SOLID
  5
59ED5
330
59CDA
100
AcDbEntity
  8
AREA1
 62
     0
100
AcDbTrace
 10
1036.908070315274
 20
482.5045452218916
 30
0.0
 11
1036.908070315274
 21
481.237878555225
 31
0.0
 12
1040.708070315274
 22
481.8712118885583
 32
0.0
 13
1040.708070315274
 23
481.8712118885583
 33
0.0
  0
POINT
  5
59ED6
330
59CDA
100
AcDbEntity
  8
Defpoints
 62
     0
100
AcDbPoint
 10
993.9482645239715
 20
472.460633435285
 30
-0.4535474722217097
  0
POINT
  5
59ED7
330
59CDA
100
AcDbEntity
  8
Defpoints
 62
     0
100
AcDbPoint
 10
1040.708070315274
 20
469.1588383425373
 30
-0.4535474722217097
  0
POINT
  5
59ED8
330
59CDA
100
AcDbEntity
  8
Defpoints
 62
     0
100
AcDbPoint
 10
1040.708070315274
 20
481.8712118885583
 30
0.0
  0
ENDBLK
  5
59CE6
330
59CDA
100
AcDbEntity
  8
0
100
AcDbBlockEnd
  0
BLOCK
  5
59D17
330
59D0C
100
AcDbEntity
  8
0
100
AcDbBlockBegin
  2
*D10
 70
     1
 10
0.0
 20
0.0
 30
0.0
  3
*D10
  1

  0
LINE
  5
59E72
330
59D0C
100
AcDbEntity
  8
AREA1
 62
     0
370
    -2
100
AcDbLine
 10
1039.756013969566
 20
471.6983946882448
 30
0.0
 11
1071.435772684125
 21
471.6983946882448
 31
0.0
  0
LINE
  5
59E73
330
59D0C
100
AcDbEntity
  8
AREA1
 62
     0
370
    -2
100
AcDbLine
 10
1005.979914571657
 20
420.9072677740937
 30
0.0
 11
1071.435772684125
 21
420.9072677740937
 31
0.0
  0
LINE
  5
59E74
330
59D0C
100
AcDbEntity
  8
AREA1
 62
     0
370
    -2
100
AcDbLine
 10
1067.635772684125
 20
467.8983946882448
 30
0.0
 11
1067.635772684125
 21
464.7655756193286
 31
0.0
  0
LINE
  5
59E75
330
59D0C
100
AcDbEntity
  8
AREA1
 62
     0
370
    -2
100
AcDbLine
 10
1067.635772684125
 20
424.7072677740938
 30
0.0
 11
1067.635772684125
 21
432.9602422859953
 31
0.0
  0
MTEXT
  5
59E76
330
59D0C
100
AcDbEntity
  8
AREA1
 62
     0
100
AcDbMText
 10
1067.635772684125
 20
448.8629089526622
 30
0.0
 40
3.799999999999999
 41
0.0
 71
     5
 72
     1
  1
\A1;50.79 [2]
 11
0.0000000000000001
 21
1.0
 31
0.0
 73
     1
 44
1.0
1001
ACAD
1000
MTEXTBEGIN
1070
    73
1070
     1
1070
    44
1040
1.0
1070
    74
1070
     0
1000
MTEXTEND
  0
SOLID
  5
59E77
330
59D0C
100
AcDbEntity
  8
AREA1
 62
     0
100
AcDbTrace
 10
1067.002439350792
 20
467.8983946882448
 30
0.0
 11
1068.269106017459
 21
467.8983946882448
 31
0.0
 12
1067.635772684125
 22
471.6983946882448
 32
0.0
 13
1067.635772684125
 23
471.6983946882448
 33
0.0
  0
SOLID
  5
59E78
330
59D0C
100
AcDbEntity
  8
AREA1
 62
     0
100
AcDbTrace
 10
1067.002439350792
 20
424.7072677740938
 30
0.0
 11
1068.269106017459
 21
424.7072677740938
 31
0.0
 12
1067.635772684125
 22
420.9072677740937
 32
0.0
 13
1067.635772684125
 23
420.9072677740937
 33
0.0
  0
POINT
  5
59E79
330
59D0C
100
AcDbEntity
  8
Defpoints
 62
     0
100
AcDbPoint
 10
1038.168513969566
 20
471.6983946882448
 30
-0.4535474722217097
  0
POINT
  5
59E7A
330
59D0C
100
AcDbEntity
  8
Defpoints
 62
     0
100
AcDbPoint
 10
1004.392414571657
 20
420.9072677740937
 30
-0.4535474722217097
  0
POINT
  5
59E7B
330
59D0C
100
AcDbEntity
  8
Defpoints
 62
     0
100
AcDbPoint
 10
1067.635772684125
 20
420.9072677740937
 30
0.0
  0
ENDBLK
  5
59D18
330
59D0C
100
AcDbEntity
  8
0
100
AcDbBlockEnd
  0
BLOCK
  5
59D25
330
59D1A
100
AcDbEntity
  8
0
100
AcDbBlockBegin
  2
*D11
 70
     1
 10
0.0
 20
0.0
 30
0.0
  3
*D11
  1

  0
LINE
  5
59EEC
330
59D1A
100
AcDbEntity
  8
AREA1
 62
     0
370
    -2
100
AcDbLine
 10
970.2680714380363
 20
446.2790375740748
 30
0.0
 11
1056.888048236032
 21
446.2790375740748
 31
0.0
  0
LINE
  5
59EED
330
59D1A
100
AcDbEntity
  8
AREA1
 62
     0
370
    -2
100
AcDbLine
 10
1034.535064069156
 20
385.2296120623956
 30
0.0
 11
1056.888048236032
 21
385.2296120623956
 31
0.0
  0
LINE
  5
59EEE
330
59D1A
100
AcDbEntity
  8
AREA1
 62
     0
370
    -2
100
AcDbLine
 10
1053.088048236032
 20
442.4790375740748
 30
0.0
 11
1053.088048236032
 21
389.0296120623956
 31
0.0
  0
MTEXT
  5
59EEF
330
59D1A
100
AcDbEntity
  8
AREA1
 62
     0
100
AcDbMText
 10
1081.553318342042
 20
406.3243869839964
 30
0.0
 40
3.799999999999999
 41
0.0
 71
     5
 72
     1
  1
\A1;61.05 [2 13/32]
 73
     1
 44
1.0
1001
ACAD
1000
MTEXTBEGIN
1070
    73
1070
     1
1070
    44
1040
1.0
1070
    74
1070
     0
1000
MTEXTEND
  0
SOLID
  5
59EF0
330
59D1A
100
AcDbEntity
  8
AREA1
 62
     0
100
AcDbTrace
 10
1052.454714902699
 20
442.4790375740748
 30
0.0
 11
1053.721381569365
 21
442.4790375740748
 31
0.0
 12
1053.088048236032
 22
446.2790375740748
 32
0.0
 13
1053.088048236032
 23
446.2790375740748
 33
0.0
  0
SOLID
  5
59EF1
330
59D1A
100
AcDbEntity
  8
AREA1
 62
     0
100
AcDbTrace
 10
1052.454714902699
 20
389.0296120623956
 30
0.0
 11
1053.721381569365
 21
389.0296120623956
 31
0.0
 12
1053.088048236032
 22
385.2296120623956
 32
0.0
 13
1053.088048236032
 23
385.2296120623956
 33
0.0
  0
POINT
  5
59EF2
330
59D1A
100
AcDbEntity
  8
Defpoints
 62
     0
100
AcDbPoint
 10
968.6805714380364
 20
446.2790375740748
 30
-0.1089820979395264
  0
POINT
  5
59EF3
330
59D1A
100
AcDbEntity
  8
Defpoints
 62
     0
100
AcDbPoint
 10
1032.947564069156
 20
385.2296120623956
 30
-0.4155690030150363
  0
POINT
  5
59EF4
330
59D1A
100
AcDbEntity
  8
Defpoints
 62
     0
100
AcDbPoint
 10
1053.088048236032
 20
385.2296120623956
 30
0.0
  0
ENDBLK
  5
59D26
330
59D1A
100
AcDbEntity
  8
0
100
AcDbBlockEnd
  0
BLOCK
  5
59D3C
330
59D31
100
AcDbEntity
  8
0
100
AcDbBlockBegin
  2
*D12
 70
     1
 10
0.0
 20
0.0
 30
0.0
  3
*D12
  1

  0
LINE
  5
59EBC
330
59D31
100
AcDbEntity
  8
AREA1
 62
     0
370
    -2
100
AcDbLine
 10
987.5993736597045
 20
419.3203603370116
 30
0.0
 11
987.5993736597045
 21
406.6622143316491
 31
0.0
  0
LINE
  5
59EBD
330
59D31
100
AcDbEntity
  8
AREA1
 62
     0
370
    -2
100
AcDbLine
 10
990.1389300054097
 20
419.3203603370116
 30
0.0
 11
990.1389300054097
 21
406.6622143316491
 31
0.0
  0
LINE
  5
59EBE
330
59D31
100
AcDbEntity
  8
AREA1
 62
     0
370
    -2
100
AcDbLine
 10
983.7993736597045
 20
410.4622143316492
 30
0.0
 11
979.9993736597045
 21
410.4622143316492
 31
0.0
  0
LINE
  5
59EBF
330
59D31
100
AcDbEntity
  8
AREA1
 62
     0
370
    -2
100
AcDbLine
 10
993.9389300054097
 20
410.4622143316492
 30
0.0
 11
997.7389300054097
 21
410.4622143316492
 31
0.0
  0
MTEXT
  5
59EC0
330
59D31
100
AcDbEntity
  8
AREA1
 62
     0
100
AcDbMText
 10
960.1845019153355
 20
410.4533170875787
 30
0.0
 40
3.799999999999999
 41
0.0
 71
     5
 72
     1
  1
\A1;2.54 [3/32]
 73
     1
 44
1.0
1001
ACAD
1000
MTEXTBEGIN
1070
    73
1070
     1
1070
    44
1040
1.0
1070
    74
1070
     0
1000
MTEXTEND
  0
SOLID
  5
59EC1
330
59D31
100
AcDbEntity
  8
AREA1
 62
     0
100
AcDbTrace
 10
983.7993736597045
 20
411.0955476649825
 30
0.0
 11
983.7993736597045
 21
409.8288809983158
 31
0.0
 12
987.5993736597045
 22
410.4622143316492
 32
0.0
 13
987.5993736597045
 23
410.4622143316492
 33
0.0
  0
SOLID
  5
59EC2
330
59D31
100
AcDbEntity
  8
AREA1
 62
     0
100
AcDbTrace
 10
993.9389300054097
 20
411.0955476649825
 30
0.0
 11
993.9389300054097
 21
409.8288809983158
 31
0.0
 12
990.1389300054097
 22
410.4622143316492
 32
0.0
 13
990.1389300054097
 23
410.4622143316492
 33
0.0
  0
POINT
  5
59EC3
330
59D31
100
AcDbEntity
  8
Defpoints
 62
     0
100
AcDbPoint
 10
987.5993736597045
 20
420.9078603370115
 30
-0.4535474722217097
  0
POINT
  5
59EC4
330
59D31
100
AcDbEntity
  8
Defpoints
 62
     0
100
AcDbPoint
 10
990.1389300054097
 20
420.9078603370115
 30
-0.4535474722217097
  0
POINT
  5
59EC5
330
59D31
100
AcDbEntity
  8
Defpoints
 62
     0
100
AcDbPoint
 10
990.1389300054097
 20
410.4622143316492
 30
0.0
  0
ENDBLK
  5
59D3D
330
59D31
100
AcDbEntity
  8
0
100
AcDbBlockEnd
  0
BLOCK
  5
59D4A
330
59D3F
100
AcDbEntity
  8
0
100
AcDbBlockBegin
  2
*D13
 70
     1
 10
0.0
 20
0.0
 30
0.0
  3
*D13
  1

  0
LINE
  5
59EC6
330
59D3F
100
AcDbEntity
  8
AREA1
 62
     0
370
    -2
100
AcDbLine
 10
992.6784863511175
 20
419.3203603370116
 30
0.0
 11
992.6784863511175
 21
394.7308863889216
 31
0.0
  0
LINE
  5
59EC7
330
59D3F
100
AcDbEntity
  8
AREA1
 62
     0
370
    -2
100
AcDbLine
 10
993.9482645239715
 20
418.5587141528882
 30
0.0
 11
993.9482645239715
 21
394.7308863889216
 31
0.0
  0
LINE
  5
59EC8
330
59D3F
100
AcDbEntity
  8
AREA1
 62
     0
370
    -2
100
AcDbLine
 10
988.8784863511174
 20
398.5308863889216
 30
0.0
 11
985.0784863511174
 21
398.5308863889216
 31
0.0
  0
LINE
  5
59EC9
330
59D3F
100
AcDbEntity
  8
AREA1
 62
     0
370
    -2
100
AcDbLine
 10
997.7482645239716
 20
398.5308863889216
 30
0.0
 11
1001.548264523971
 21
398.5308863889216
 31
0.0
  0
MTEXT
  5
59ECA
330
59D3F
100
AcDbEntity
  8
AREA1
 62
     0
100
AcDbMText
 10
966.435689393552
 20
398.2988438094131
 30
0.0
 40
3.799999999999999
 41
0.0
 71
     5
 72
     1
  1
\A1;1.27 [3/64]
 73
     1
 44
1.0
1001
ACAD
1000
MTEXTBEGIN
1070
    73
1070
     1
1070
    44
1040
1.0
1070
    74
1070
     0
1000
MTEXTEND
  0
SOLID
  5
59ECB
330
59D3F
100
AcDbEntity
  8
AREA1
 62
     0
100
AcDbTrace
 10
988.8784863511174
 20
399.1642197222549
 30
0.0
 11
988.8784863511174
 21
397.8975530555883
 31
0.0
 12
992.6784863511175
 22
398.5308863889216
 32
0.0
 13
992.6784863511175
 23
398.5308863889216
 33
0.0
  0
SOLID
  5
59ECC
330
59D3F
100
AcDbEntity
  8
AREA1
 62
     0
100
AcDbTrace
 10
997.7482645239716
 20
399.1642197222549
 30
0.0
 11
997.7482645239716
 21
397.8975530555883
 31
0.0
 12
993.9482645239715
 22
398.5308863889216
 32
0.0
 13
993.9482645239715
 23
398.5308863889216
 33
0.0
  0
POINT
  5
59ECD
330
59D3F
100
AcDbEntity
  8
Defpoints
 62
     0
100
AcDbPoint
 10
992.6784863511175
 20
420.9078603370115
 30
-0.4535474722217097
  0
POINT
  5
59ECE
330
59D3F
100
AcDbEntity
  8
Defpoints
 62
     0
100
AcDbPoint
 10
993.9482645239715
 20
420.1462141528882
 30
-0.4535474722217097
  0
POINT
  5
59ECF
330
59D3F
100
AcDbEntity
  8
Defpoints
 62
     0
100
AcDbPoint
 10
993.9482645239715
 20
398.5308863889216
 30
0.0
  0
ENDBLK
  5
59D4B
330
59D3F
100
AcDbEntity
  8
0
100
AcDbBlockEnd
  0
ENDSEC
  0
SECTION
  2
ENTITIES
  0
ATTDEF
  5
4DDB8
330
458D6
100
AcDbEntity
  8
ATTRIBUTES
100
AcDbText
 10
769.8276802231171
 20
453.4961228775578
 30
3.644056121604464
 40
0.575719985847253
  1
ALLEN-BRADLEY
100
AcDbAttributeDefinition
  3
MANUFACTURER NAME?
  2
AC_VND_LABEL
 70
     1
  0
ATTDEF
  5
4DDB9
330
458D6
100
AcDbEntity
  8
ATTRIBUTES
100
AcDbText
 10
769.8276802231171
 20
452.2967062403761
 30
3.644056121604464
 40
0.575719985847253
  1
845GM-S*
100
AcDbAttributeDefinition
  3
CATALOG NUMBER?
  2
AC_PART_NO
 70
     1
  0
ATTDEF
  5
4DDBA
330
458D6
100
AcDbEntity
  8
ATTRIBUTES
100
AcDbText
 10
769.8276802231171
 20
451.0972896031944
 30
3.644056121604464
 40
0.575719985847253
  1
Single-Turn, Size 20, English Servo
100
AcDbAttributeDefinition
  3
PART DESCRIPTION?
  2
AC_DESCRIPTION
 70
     1
  0
ATTDEF
  5
4DDBB
330
458D6
100
AcDbEntity
  8
ATTRIBUTES
100
AcDbText
 10
769.8276802231171
 20
449.8978729660126
 30
3.644056121604464
 40
0.575719985847253
  1

100
AcDbAttributeDefinition
  3
DEVICE ID?
  2
DEVICE_ID
 70
     1
  0
ATTDEF
  5
4DDBC
330
458D6
100
AcDbEntity
  8
ATTRIBUTES
100
AcDbText
 10
769.8276802231171
 20
448.6984563288309
 30
3.644056121604464
 40
0.575719985847253
  1

100
AcDbAttributeDefinition
  3
CUSTOMER PART NUMBER?
  2
AC_CPART_NO
 70
     1
  0
ATTDEF
  5
4DDBD
330
458D6
100
AcDbEntity
  8
ATTRIBUTES
100
AcDbText
 10
769.8276802231171
 20
447.4990396916486
 30
3.644056121604464
 40
0.575719985847253
  1

100
AcDbAttributeDefinition
  3
CUSTOMER NOTE?
  2
AC_NOTE
 70
     1
  0
ATTDEF
  5
4DDBE
330
458D6
100
AcDbEntity
  8
ATTRIBUTES
100
AcDbText
 10
769.8276802231171
 20
446.2996230544669
 30
3.644056121604464
 40
0.575719985847253
  1

100
AcDbAttributeDefinition
  3
FASTENER DATA?
  2
FASTENER
 70
     1
  0
ATTDEF
  5
4DDBF
330
458D6
100
AcDbEntity
  8
ATTRIBUTES
100
AcDbText
 10
769.8276802231171
 20
445.1002064172852
 30
3.644056121604464
 40
0.575719985847253
  1
INCH
100
AcDbAttributeDefinition
  3
UNIT OF SCALE?
  2
AC_SCALE_UNIT
 70
     1
  0
ATTDEF
  5
4DDC0
330
458D6
100
AcDbEntity
  8
ATTRIBUTES
100
AcDbText
 10
769.8276802231171
 20
443.900789780104
 30
3.644056121604464
 40
0.575719985847253
  1
0
100
AcDbAttributeDefinition
  3
VIEW CODE?
  2
AC_VIEW_CODE
 70
     1
  0
MTEXT
  5
4E0D0
330
458D6
100
AcDbEntity
  8
DIMS
100
AcDbMText
 10
263.4509981022159
 20
543.6346761443502
 30
3.646124999999996
 40
0.125
 41
0.0
 71
     1
 72
     1
  1

  7
ROMANS
 73
     1
 44
1.0
1001
ACAD
1000
MTEXTBEGIN
1070
    73
1070
     1
1070
    44
1040
1.0
1070
    74
1070
     0
1000
MTEXTEND
  0
MTEXT
  5
4E0E6
330
458D6
100
AcDbEntity
  8
DIMS
100
AcDbMText
 10
262.8011374184602
 20
540.1940165057656
 30
3.646124999999996
 40
0.125
 41
0.0
 71
     1
 72
     1
  1

  7
ROMANS
 73
     1
 44
1.0
1001
ACAD
1000
MTEXTBEGIN
1070
    73
1070
     1
1070
    44
1040
1.0
1070
    74
1070
     0
1000
MTEXTEND
  0
LINE
  5
59AAB
330
458D6
100
AcDbEntity
  8
0
 62
     0
100
AcDbLine
 10
969.0833982237215
 20
441.5416946965331
 30
3.192577527778297
 11
968.6802452437778
 21
441.8738605843127
 31
3.881708276342641
  0
LINE
  5
59AAC
330
458D6
100
AcDbEntity
  8
0
 62
     0
100
AcDbLine
 10
968.6802452437778
 20
441.8738605843127
 30
3.881708276342641
 11
968.680897632295
 21
450.684214563837
 31
3.192577527778297
  0
LINE
  5
59AB1
330
458D6
100
AcDbEntity
  8
0
 62
     0
100
AcDbLine
 10
969.0833982237215
 20
441.5416946965331
 30
3.192577527778297
 11
969.0833982237215
 21
444.2557327630792
 31
2.583076203291406
  0
LINE
  5
59AB2
330
458D6
100
AcDbEntity
  8
0
 62
     0
100
AcDbLine
 10
969.0833982237215
 20
451.06515289164
 30
3.192577527778297
 11
969.0833982237215
 21
448.351114825094
 31
2.583076203291406
  0
LINE
  5
59ABF
330
458D6
100
AcDbEntity
  8
0
 62
     0
100
AcDbLine
 10
1040.708070315274
 20
469.1588383425373
 30
3.192577527778286
 11
1040.708070315274
 21
399.8289501047214
 31
3.192577527778286
  0
LINE
  5
59AC0
330
458D6
100
AcDbEntity
  8
0
 62
     0
100
AcDbLine
 10
1004.392414571657
 20
420.9072677740937
 30
3.192577527778286
 11
1004.392414571657
 21
399.8289501047214
 31
3.192577527778286
  0
LINE
  5
59AC5
330
458D6
100
AcDbEntity
  8
0
  6
Continuous
 62
     0
100
AcDbLine
 10
1004.702519850183
 20
399.3001977001936
 30
3.192577527778286
 11
1040.397965036748
 21
399.3001977001936
 31
3.192577527778286
  0
LINE
  5
59AC6
330
458D6
100
AcDbEntity
  8
0
  6
Continuous
 62
     0
100
AcDbLine
 10
1040.397965036748
 20
399.8289501047214
 30
3.192577527778286
 11
1004.702519850183
 21
399.8289501047214
 31
3.192577527778286
  0
LINE
  5
59AC7
330
458D6
100
AcDbEntity
  8
0
  6
Continuous
 62
     0
100
AcDbLine
 10
1005.054201152772
 20
398.1277904478458
 30
3.192577527778286
 11
1040.100078723539
 21
398.1277904478458
 31
3.192577527778286
  0
LINE
  5
59AC8
330
458D6
100
AcDbEntity
  8
0
  6
Continuous
 62
     0
100
AcDbLine
 10
1040.100078723539
 20
399.3185796833724
 30
3.192577527778286
 11
1005.054201152772
 21
399.3185796833724
 31
3.192577527778286
  0
LINE
  5
59AC9
330
458D6
100
AcDbEntity
  8
0
 62
     0
100
AcDbLine
 10
1004.392414571657
 20
399.8289501047214
 30
3.192577527778286
 11
1040.708070315274
 21
399.8289501047214
 31
3.192577527778286
  0
LINE
  5
59ACA
330
458D6
100
AcDbEntity
  8
0
 62
     0
100
AcDbLine
 10
1007.528995814954
 20
399.8289501047214
 30
3.192577527778286
 11
1037.55840308224
 21
399.8289501047214
 31
3.192577527778286
  0
LINE
  5
59ACB
330
458D6
100
AcDbEntity
  8
0
 62
     0
100
AcDbLine
 10
1040.003149325336
 20
399.8289501047214
 30
3.192577527778286
 11
1005.084249571858
 21
399.8289501047214
 31
3.192577527778286
  0
LINE
  5
59ACC
330
458D6
100
AcDbEntity
  8
0
 62
     0
100
AcDbLine
 10
1011.04605219741
 20
399.8289501047214
 30
3.192577527778286
 11
1034.054432689521
 21
399.8289501047214
 31
3.192577527778286
  0
LINE
  5
59ACD
330
458D6
100
AcDbEntity
  8
0
 62
     0
100
AcDbLine
 10
1004.783509112232
 20
399.8289501047214
 30
3.192577527778286
 11
1040.303889784961
 21
399.8289501047214
 31
3.192577527778286
  0
LINE
  5
59ACE
330
458D6
100
AcDbEntity
  8
0
 62
     0
100
AcDbLine
 10
1007.535538809821
 20
399.8289501047214
 30
3.192577527778286
 11
1005.090792567845
 21
399.8289501047214
 31
3.192577527778286
  0
LINE
  5
59ACF
330
458D6
100
AcDbEntity
  8
0
 62
     0
100
AcDbLine
 10
1005.535214927226
 20
399.8289501047214
 30
3.192577527778286
 11
1011.04605219741
 21
399.8289501047214
 31
3.192577527778286
  0
LINE
  5
59AD0
330
458D6
100
AcDbEntity
  8
0
  6
Continuous
 62
     0
100
AcDbLine
 10
1005.054201152772
 20
399.3185796833724
 30
3.192577527778286
 11
1005.054201152772
 21
398.1277904478458
 31
3.192577527778286
  0
LINE
  5
59AD3
330
458D6
100
AcDbEntity
  8
0
  6
Continuous
 62
     0
100
AcDbLine
 10
1004.702519850183
 20
399.8289501047214
 30
3.192577527778286
 11
1004.702519850183
 21
399.3001977001936
 31
3.192577527778286
  0
LWPOLYLINE
  5
59AD4
330
458D6
100
AcDbEntity
  8
0
 62
     0
100
AcDbPolyline
 90
        4
 70
     0
 43
0.0
 38
3.192577527778283
 10
1007.41043095535
 20
398.1079815822879
 10
1007.41043095535
 20
397.4067675852377
 10
1012.888665307305
 20
397.4067675852377
 10
1012.888665307305
 20
398.1079815822879
  0
LWPOLYLINE
  5
59AD5
330
458D6
100
AcDbEntity
  8
0
 62
     0
100
AcDbPolyline
 90
        2
 70
     0
 43
0.0
 38
3.192577527778283
 10
1010.517685479778
 20
397.4067675852377
 10
1010.375251386626
 20
396.8589441500419
  0
LWPOLYLINE
  5
59AD6
330
458D6
100
AcDbEntity
  8
0
 62
     0
100
AcDbPolyline
 90
        2
 70
     0
 43
0.0
 38
3.192577527778283
 10
1010.090383200326
 20
396.8589441500419
 10
1010.232817293474
 20
397.4067675852377
  0
POLYLINE
  5
59AD7
330
458D6
100
AcDbEntity
  8
0
 62
     0
100
AcDb2dPolyline
 66
     1
 10
0.0
 20
0.0
 30
3.192577527778286
 70
     4
 75
     6
  0
VERTEX
  5
59AD8
330
59AD7
100
AcDbEntity
  8
0
 62
     0
100
AcDbVertex
100
AcDb2dVertex
 10
1007.739125016469
 20
396.8589441500423
 30
3.192577527778286
  0
VERTEX
  5
59AD9
330
59AD7
100
AcDbEntity
  8
0
 62
     0
100
AcDbVertex
100
AcDb2dVertex
 10
1007.739125016469
 20
396.256338371327
 30
3.192577527778286
  0
VERTEX
  5
59ADA
330
59AD7
100
AcDbEntity
  8
0
 62
     0
100
AcDbVertex
100
AcDb2dVertex
 10
1007.739125016469
 20
396.256338371327
 30
3.192577527778286
 70
     8
  0
VERTEX
  5
59ADB
330
59AD7
100
AcDbEntity
  8
0
 62
     0
100
AcDbVertex
100
AcDb2dVertex
 10
1007.771994422579
 20
395.9495572476178
 30
3.192577527778286
 70
     8
  0
VERTEX
  5
59ADC
330
59AD7
100
AcDbEntity
  8
0
 62
     0
100
AcDbVertex
100
AcDb2dVertex
 10
1007.835541941063
 20
395.741384342243
 30
3.192577527778286
 70
     8
  0
VERTEX
  5
59ADD
330
59AD7
100
AcDbEntity
  8
0
 62
     0
100
AcDbVertex
100
AcDb2dVertex
 10
1007.934150159397
 20
395.5419766118324
 30
3.192577527778286
 70
     8
  0
VERTEX
  5
59ADE
330
59AD7
100
AcDbEntity
  8
0
 62
     0
100
AcDbVertex
100
AcDb2dVertex
 10
1008.065627783845
 20
395.3579079376069
 30
3.192577527778286
 70
     8
  0
VERTEX
  5
59ADF
330
59AD7
100
AcDbEntity
  8
0
 62
     0
100
AcDbVertex
100
AcDb2dVertex
 10
1008.225592226923
 20
395.1979434945292
 30
3.192577527778286
 70
     8
  0
VERTEX
  5
59AE0
330
59AD7
100
AcDbEntity
  8
0
 62
     0
100
AcDbVertex
100
AcDb2dVertex
 10
1008.409660901147
 20
395.0664658700828
 30
3.192577527778286
 70
     8
  0
VERTEX
  5
59AE1
330
59AD7
100
AcDbEntity
  8
0
 62
     0
100
AcDbVertex
100
AcDb2dVertex
 10
1008.606877337819
 20
394.972240239229
 30
3.192577527778286
 70
     8
  0
VERTEX
  5
59AE2
330
59AD7
100
AcDbEntity
  8
0
 62
     0
100
AcDbVertex
100
AcDb2dVertex
 10
1008.808476361971
 20
394.9108840144872
 30
3.192577527778286
 70
     8
  0
VERTEX
  5
59AE3
330
59AD7
100
AcDbEntity
  8
0
 62
     0
100
AcDbVertex
100
AcDb2dVertex
 10
1009.108683604458
 20
394.8867797833394
 30
3.192577527778286
 70
     8
  0
VERTEX
  5
59AE4
330
59AD7
100
AcDbEntity
  8
0
 62
     0
100
AcDbVertex
100
AcDb2dVertex
 10
1007.752272778914
 20
394.8604842584498
 30
3.192577527778286
 70
    16
  0
VERTEX
  5
59AE5
330
59AD7
100
AcDbEntity
  8
0
 62
     0
100
AcDbVertex
100
AcDb2dVertex
 10
1009.108683604458
 20
394.8867797833394
 30
3.192577527778286
 70
    16
  0
VERTEX
  5
59AE6
330
59AD7
100
AcDbEntity
  8
0
 62
     0
100
AcDbVertex
100
AcDb2dVertex
 10
1009.820854070211
 20
394.8867797833394
 30
3.192577527778286
  0
VERTEX
  5
59AE7
330
59AD7
100
AcDbEntity
  8
0
 62
     0
100
AcDbVertex
100
AcDb2dVertex
 10
1009.820854070211
 20
395.9144965477655
 30
3.192577527778286
  0
VERTEX
  5
59AE8
330
59AD7
100
AcDbEntity
  8
0
 62
     0
100
AcDbVertex
100
AcDb2dVertex
 10
1010.149548131327
 20
395.9144965477655
 30
3.192577527778286
  0
VERTEX
  5
59AE9
330
59AD7
100
AcDbEntity
  8
0
 62
     0
100
AcDbVertex
100
AcDb2dVertex
 10
1010.478242192444
 20
395.9144965477655
 30
3.192577527778286
  0
VERTEX
  5
59AEA
330
59AD7
100
AcDbEntity
  8
0
 62
     0
100
AcDbVertex
100
AcDb2dVertex
 10
1010.478242192444
 20
394.8867797833394
 30
3.192577527778286
  0
VERTEX
  5
59AEB
330
59AD7
100
AcDbEntity
  8
0
 62
     0
100
AcDbVertex
100
AcDb2dVertex
 10
1011.1904126582
 20
394.8867797833394
 30
3.192577527778286
  0
VERTEX
  5
59AEC
330
59AD7
100
AcDbEntity
  8
0
 62
     0
100
AcDbVertex
100
AcDb2dVertex
 10
1011.1904126582
 20
394.8867797833394
 30
3.192577527778286
 70
     8
  0
VERTEX
  5
59AED
330
59AD7
100
AcDbEntity
  8
0
 62
     0
100
AcDbVertex
100
AcDb2dVertex
 10
1011.495002488167
 20
394.9108840144872
 30
3.192577527778286
 70
     8
  0
VERTEX
  5
59AEE
330
59AD7
100
AcDbEntity
  8
0
 62
     0
100
AcDbVertex
100
AcDb2dVertex
 10
1011.7009840998
 20
394.972240239229
 30
3.192577527778286
 70
     8
  0
VERTEX
  5
59AEF
330
59AD7
100
AcDbEntity
  8
0
 62
     0
100
AcDbVertex
100
AcDb2dVertex
 10
1011.900391830212
 20
395.0664658700828
 30
3.192577527778286
 70
     8
  0
VERTEX
  5
59AF0
330
59AD7
100
AcDbEntity
  8
0
 62
     0
100
AcDbVertex
100
AcDb2dVertex
 10
1012.084460504439
 20
395.1979434945292
 30
3.192577527778286
 70
     8
  0
VERTEX
  5
59AF1
330
59AD7
100
AcDbEntity
  8
0
 62
     0
100
AcDbVertex
100
AcDb2dVertex
 10
1012.244424947517
 20
395.3579079376069
 30
3.192577527778286
 70
     8
  0
VERTEX
  5
59AF2
330
59AD7
100
AcDbEntity
  8
0
 62
     0
100
AcDbVertex
100
AcDb2dVertex
 10
1012.375902571962
 20
395.5419766118324
 30
3.192577527778286
 70
     8
  0
VERTEX
  5
59AF3
330
59AD7
100
AcDbEntity
  8
0
 62
     0
100
AcDbVertex
100
AcDb2dVertex
 10
1012.472319496556
 20
395.741384342243
 30
3.192577527778286
 70
     8
  0
VERTEX
  5
59AF4
330
59AD7
100
AcDbEntity
  8
0
 62
     0
100
AcDbVertex
100
AcDb2dVertex
 10
1012.533675721299
 20
395.9495572476178
 30
3.192577527778286
 70
     8
  0
VERTEX
  5
59AF5
330
59AD7
100
AcDbEntity
  8
0
 62
     0
100
AcDbVertex
100
AcDb2dVertex
 10
1012.559971246189
 20
396.256338371327
 30
3.192577527778286
 70
     8
  0
VERTEX
  5
59AF6
330
59AD7
100
AcDbEntity
  8
0
 62
     0
100
AcDbVertex
100
AcDb2dVertex
 10
1012.575310302374
 20
394.8604842584498
 30
3.192577527778286
 70
    16
  0
VERTEX
  5
59AF7
330
59AD7
100
AcDbEntity
  8
0
 62
     0
100
AcDbVertex
100
AcDb2dVertex
 10
1012.559971246189
 20
396.256338371327
 30
3.192577527778286
 70
    16
  0
VERTEX
  5
59AF8
330
59AD7
100
AcDbEntity
  8
0
 62
     0
100
AcDbVertex
100
AcDb2dVertex
 10
1012.559971246189
 20
396.8589441500423
 30
3.192577527778286
  0
VERTEX
  5
59AF9
330
59AD7
100
AcDbEntity
  8
0
 62
     0
100
AcDbVertex
100
AcDb2dVertex
 10
1007.739125016469
 20
396.8589441500423
 30
3.192577527778286
  0
SEQEND
  5
59AFA
330
59AD7
100
AcDbEntity
  8
0
 62
     0
  0
LINE
  5
59AFB
330
458D6
100
AcDbEntity
  8
0
  6
Continuous
 62
     0
100
AcDbLine
 10
1012.316503628576
 20
396.8589441500423
 30
3.192577527778286
 11
1012.316503628576
 21
397.4067675852383
 31
3.192577527778286
  0
LINE
  5
59AFC
330
458D6
100
AcDbEntity
  8
0
  6
Continuous
 62
     0
100
AcDbLine
 10
1008.012343814774
 20
396.8589441500423
 30
3.192577527778286
 11
1008.012343814774
 21
397.4067675852383
 31
3.192577527778286
  0
LINE
  5
59AFD
330
458D6
100
AcDbEntity
  8
0
  6
Continuous
 62
     0
100
AcDbLine
 10
1040.100078723539
 20
398.1277904478458
 30
3.192577527778286
 11
1040.100078723539
 21
399.3185796833724
 31
3.192577527778286
  0
LWPOLYLINE
  5
59AFE
330
458D6
100
AcDbEntity
  8
0
 62
     0
100
AcDbPolyline
 90
        2
 70
     0
 43
0.0
 38
3.192577527778283
 10
1035.335528406764
 20
397.4265764507956
 10
1035.193094313613
 20
396.8787530155998
  0
LWPOLYLINE
  5
59AFF
330
458D6
100
AcDbEntity
  8
0
 62
     0
100
AcDbPolyline
 90
        2
 70
     0
 43
0.0
 38
3.192577527778283
 10
1034.908226127309
 20
396.8787530155998
 10
1035.050660220461
 20
397.4265764507956
  0
POLYLINE
  5
59B00
330
458D6
100
AcDbEntity
  8
0
 62
     0
100
AcDb2dPolyline
 66
     1
 10
0.0
 20
0.0
 30
3.192577527778286
 70
     4
 75
     6
  0
VERTEX
  5
59B01
330
59B00
100
AcDbEntity
  8
0
 62
     0
100
AcDbVertex
100
AcDb2dVertex
 10
1032.556967943453
 20
396.8787530156002
 30
3.192577527778286
  0
VERTEX
  5
59B02
330
59B00
100
AcDbEntity
  8
0
 62
     0
100
AcDbVertex
100
AcDb2dVertex
 10
1032.556967943453
 20
396.2761472368848
 30
3.192577527778286
  0
VERTEX
  5
59B03
330
59B00
100
AcDbEntity
  8
0
 62
     0
100
AcDbVertex
100
AcDb2dVertex
 10
1032.556967943453
 20
396.2761472368848
 30
3.192577527778286
 70
     8
  0
VERTEX
  5
59B04
330
59B00
100
AcDbEntity
  8
0
 62
     0
100
AcDbVertex
100
AcDb2dVertex
 10
1032.589837349563
 20
395.9693661131757
 30
3.192577527778286
 70
     8
  0
VERTEX
  5
59B05
330
59B00
100
AcDbEntity
  8
0
 62
     0
100
AcDbVertex
100
AcDb2dVertex
 10
1032.653384868047
 20
395.7611932078023
 30
3.192577527778286
 70
     8
  0
VERTEX
  5
59B06
330
59B00
100
AcDbEntity
  8
0
 62
     0
100
AcDbVertex
100
AcDb2dVertex
 10
1032.751993086381
 20
395.5617854773903
 30
3.192577527778286
 70
     8
  0
VERTEX
  5
59B07
330
59B00
100
AcDbEntity
  8
0
 62
     0
100
AcDbVertex
100
AcDb2dVertex
 10
1032.88347071083
 20
395.3777168031648
 30
3.192577527778286
 70
     8
  0
VERTEX
  5
59B08
330
59B00
100
AcDbEntity
  8
0
 62
     0
100
AcDbVertex
100
AcDb2dVertex
 10
1033.043435153907
 20
395.2177523600885
 30
3.192577527778286
 70
     8
  0
VERTEX
  5
59B09
330
59B00
100
AcDbEntity
  8
0
 62
     0
100
AcDbVertex
100
AcDb2dVertex
 10
1033.227503828131
 20
395.0862747356407
 30
3.192577527778286
 70
     8
  0
VERTEX
  5
59B0A
330
59B00
100
AcDbEntity
  8
0
 62
     0
100
AcDbVertex
100
AcDb2dVertex
 10
1033.424720264803
 20
394.9920491047869
 30
3.192577527778286
 70
     8
  0
VERTEX
  5
59B0B
330
59B00
100
AcDbEntity
  8
0
 62
     0
100
AcDbVertex
100
AcDb2dVertex
 10
1033.626319288955
 20
394.9306928800451
 30
3.192577527778286
 70
     8
  0
VERTEX
  5
59B0C
330
59B00
100
AcDbEntity
  8
0
 62
     0
100
AcDbVertex
100
AcDb2dVertex
 10
1033.926526531442
 20
394.9065886488972
 30
3.192577527778286
 70
     8
  0
VERTEX
  5
59B0D
330
59B00
100
AcDbEntity
  8
0
 62
     0
100
AcDbVertex
100
AcDb2dVertex
 10
1032.570115705898
 20
394.8802931240077
 30
3.192577527778286
 70
    16
  0
VERTEX
  5
59B0E
330
59B00
100
AcDbEntity
  8
0
 62
     0
100
AcDbVertex
100
AcDb2dVertex
 10
1033.926526531442
 20
394.9065886488972
 30
3.192577527778286
 70
    16
  0
VERTEX
  5
59B0F
330
59B00
100
AcDbEntity
  8
0
 62
     0
100
AcDbVertex
100
AcDb2dVertex
 10
1034.638696997195
 20
394.9065886488972
 30
3.192577527778286
  0
VERTEX
  5
59B10
330
59B00
100
AcDbEntity
  8
0
 62
     0
100
AcDbVertex
100
AcDb2dVertex
 10
1034.638696997195
 20
395.9343054133234
 30
3.192577527778286
  0
VERTEX
  5
59B11
330
59B00
100
AcDbEntity
  8
0
 62
     0
100
AcDbVertex
100
AcDb2dVertex
 10
1034.967391058311
 20
395.9343054133234
 30
3.192577527778286
  0
VERTEX
  5
59B12
330
59B00
100
AcDbEntity
  8
0
 62
     0
100
AcDbVertex
100
AcDb2dVertex
 10
1035.296085119431
 20
395.9343054133234
 30
3.192577527778286
  0
VERTEX
  5
59B13
330
59B00
100
AcDbEntity
  8
0
 62
     0
100
AcDbVertex
100
AcDb2dVertex
 10
1035.296085119431
 20
394.9065886488972
 30
3.192577527778286
  0
VERTEX
  5
59B14
330
59B00
100
AcDbEntity
  8
0
 62
     0
100
AcDbVertex
100
AcDb2dVertex
 10
1036.008255585184
 20
394.9065886488972
 30
3.192577527778286
  0
VERTEX
  5
59B15
330
59B00
100
AcDbEntity
  8
0
 62
     0
100
AcDbVertex
100
AcDb2dVertex
 10
1036.008255585184
 20
394.9065886488972
 30
3.192577527778286
 70
     8
  0
VERTEX
  5
59B16
330
59B00
100
AcDbEntity
  8
0
 62
     0
100
AcDbVertex
100
AcDb2dVertex
 10
1036.312845415151
 20
394.9306928800451
 30
3.192577527778286
 70
     8
  0
VERTEX
  5
59B17
330
59B00
100
AcDbEntity
  8
0
 62
     0
100
AcDbVertex
100
AcDb2dVertex
 10
1036.518827026787
 20
394.9920491047869
 30
3.192577527778286
 70
     8
  0
VERTEX
  5
59B18
330
59B00
100
AcDbEntity
  8
0
 62
     0
100
AcDbVertex
100
AcDb2dVertex
 10
1036.718234757196
 20
395.0862747356407
 30
3.192577527778286
 70
     8
  0
VERTEX
  5
59B19
330
59B00
100
AcDbEntity
  8
0
 62
     0
100
AcDbVertex
100
AcDb2dVertex
 10
1036.902303431423
 20
395.2177523600885
 30
3.192577527778286
 70
     8
  0
VERTEX
  5
59B1A
330
59B00
100
AcDbEntity
  8
0
 62
     0
100
AcDbVertex
100
AcDb2dVertex
 10
1037.062267874501
 20
395.3777168031648
 30
3.192577527778286
 70
     8
  0
VERTEX
  5
59B1B
330
59B00
100
AcDbEntity
  8
0
 62
     0
100
AcDbVertex
100
AcDb2dVertex
 10
1037.193745498946
 20
395.5617854773903
 30
3.192577527778286
 70
     8
  0
VERTEX
  5
59B1C
330
59B00
100
AcDbEntity
  8
0
 62
     0
100
AcDbVertex
100
AcDb2dVertex
 10
1037.29016242354
 20
395.7611932078023
 30
3.192577527778286
 70
     8
  0
VERTEX
  5
59B1D
330
59B00
100
AcDbEntity
  8
0
 62
     0
100
AcDbVertex
100
AcDb2dVertex
 10
1037.351518648283
 20
395.9693661131757
 30
3.192577527778286
 70
     8
  0
VERTEX
  5
59B1E
330
59B00
100
AcDbEntity
  8
0
 62
     0
100
AcDbVertex
100
AcDb2dVertex
 10
1037.377814173173
 20
396.2761472368848
 30
3.192577527778286
 70
     8
  0
VERTEX
  5
59B1F
330
59B00
100
AcDbEntity
  8
0
 62
     0
100
AcDbVertex
100
AcDb2dVertex
 10
1037.393153229358
 20
394.8802931240077
 30
3.192577527778286
 70
    16
  0
VERTEX
  5
59B20
330
59B00
100
AcDbEntity
  8
0
 62
     0
100
AcDbVertex
100
AcDb2dVertex
 10
1037.377814173173
 20
396.2761472368848
 30
3.192577527778286
 70
    16
  0
VERTEX
  5
59B21
330
59B00
100
AcDbEntity
  8
0
 62
     0
100
AcDbVertex
100
AcDb2dVertex
 10
1037.377814173173
 20
396.8787530156002
 30
3.192577527778286
  0
VERTEX
  5
59B22
330
59B00
100
AcDbEntity
  8
0
 62
     0
100
AcDbVertex
100
AcDb2dVertex
 10
1032.556967943453
 20
396.8787530156002
 30
3.192577527778286
  0
SEQEND
  5
59B23
330
59B00
100
AcDbEntity
  8
0
 62
     0
  0
LWPOLYLINE
  5
59B24
330
458D6
100
AcDbEntity
  8
0
 62
     0
100
AcDbPolyline
 90
        4
 70
     0
 43
0.0
 38
3.192577527778283
 10
1032.228273882336
 20
398.1277904478458
 10
1032.228273882336
 20
397.4265764507956
 10
1037.706508234288
 20
397.4265764507956
 10
1037.706508234288
 20
398.1277904478458
  0
LINE
  5
59B25
330
458D6
100
AcDbEntity
  8
0
  6
Continuous
 62
     0
100
AcDbLine
 10
1037.134346555563
 20
396.8787530156002
 30
3.192577527778286
 11
1037.134346555563
 21
397.4265764507961
 31
3.192577527778286
  0
LINE
  5
59B26
330
458D6
100
AcDbEntity
  8
0
  6
Continuous
 62
     0
100
AcDbLine
 10
1032.830186741758
 20
396.8787530156002
 30
3.192577527778286
 11
1032.830186741758
 21
397.4265764507961
 31
3.192577527778286
  0
LINE
  5
59B27
330
458D6
100
AcDbEntity
  8
0
 62
     0
100
AcDbLine
 10
1034.054432689521
 20
399.8289501047214
 30
3.192577527778286
 11
1039.565269959705
 21
399.8289501047214
 31
3.192577527778286
  0
LINE
  5
59B28
330
458D6
100
AcDbEntity
  8
0
  6
Continuous
 62
     0
100
AcDbLine
 10
1040.397965036748
 20
399.3001977001936
 30
3.192577527778286
 11
1040.397965036748
 21
399.8289501047214
 31
3.192577527778286
  0
LINE
  5
59B2C
330
458D6
100
AcDbEntity
  8
0
 62
     0
100
AcDbLine
 10
993.9482645239715
 20
471.6989872511616
 30
3.192577527778286
 11
992.6784863511175
 21
471.6989872511616
 31
3.192577527778286
  0
LINE
  5
59B2D
330
458D6
100
AcDbEntity
  8
0
 62
     0
100
AcDbLine
 10
993.9482645239715
 20
420.9078603370115
 30
3.192577527778286
 11
992.6784863511175
 21
420.9078603370115
 31
3.192577527778286
  0
LINE
  5
59B2E
330
458D6
100
AcDbEntity
  8
0
 62
     0
100
AcDbLine
 10
992.6784863511175
 20
469.7943199918821
 30
3.192577527778286
 11
992.6784863511175
 21
422.8125275962925
 31
3.192577527778286
  0
LINE
  5
59B2F
330
458D6
100
AcDbEntity
  8
0
 62
     0
100
AcDbLine
 10
990.1389300054097
 20
469.7943199918821
 30
3.192577527778286
 11
990.1389300054097
 21
422.8125275962925
 31
3.192577527778286
  0
LINE
  5
59B30
330
458D6
100
AcDbEntity
  8
0
 62
     0
100
AcDbLine
 10
984.5519339252236
 20
455.8266729643362
 30
3.192577527778286
 11
984.5519339252236
 21
436.7801746238369
 31
3.192577527778286
  0
LINE
  5
59B31
330
458D6
100
AcDbEntity
  8
0
 62
     0
100
AcDbLine
 10
987.5993736597045
 20
430.4311966334148
 30
3.192577527778286
 11
987.5993736597045
 21
462.1756509547583
 31
3.192577527778286
  0
LINE
  5
59B37
330
458D6
100
AcDbEntity
  8
0
 62
     0
100
AcDbLine
 10
987.5993736597045
 20
422.0912935941108
 30
3.192577527778286
 11
987.5993736597045
 21
429.2528424890058
 31
3.192577527778286
  0
LINE
  5
59B3D
330
458D6
100
AcDbEntity
  8
0
 62
     0
100
AcDbLine
 10
992.6784863511175
 20
422.8125275962925
 30
3.192577527778286
 11
990.1389300054097
 21
422.8125275962925
 31
3.192577527778286
  0
LINE
  5
59B3E
330
458D6
100
AcDbEntity
  8
0
 62
     0
100
AcDbLine
 10
990.1389300054097
 20
420.9078603370115
 30
3.192577527778286
 11
987.5993736597045
 21
420.9078603370115
 31
3.192577527778286
  0
LINE
  5
59B3F
330
458D6
100
AcDbEntity
  8
0
 62
     0
100
AcDbLine
 10
987.5993736597045
 20
420.9078603370115
 30
3.192577527778286
 11
987.5993736597045
 21
422.088754037765
 31
3.192577527778286
  0
LINE
  5
59B40
330
458D6
100
AcDbEntity
  8
0
 62
     0
100
AcDbLine
 10
990.1389300054097
 20
422.8125275962925
 30
3.192577527778286
 11
990.1389300054097
 21
420.9078603370115
 31
3.192577527778286
  0
LINE
  5
59B41
330
458D6
100
AcDbEntity
  8
0
 62
     0
100
AcDbLine
 10
992.6784863511175
 20
420.9078603370115
 30
3.192577527778286
 11
992.6784863511175
 21
422.8125275962925
 31
3.192577527778286
  0
LINE
  5
59B42
330
458D6
100
AcDbEntity
  8
0
 62
     0
100
AcDbLine
 10
984.5519339252236
 20
436.7801746238369
 30
3.192577527778286
 11
984.5519339252236
 21
430.4313418436705
 31
3.192577527778286
  0
LINE
  5
59B43
330
458D6
100
AcDbEntity
  8
0
 62
     0
100
AcDbLine
 10
984.5519339252236
 20
430.4313418436705
 30
3.192577527778286
 11
987.5993736597045
 21
430.4313418436705
 31
3.192577527778286
  0
LINE
  5
59B44
330
458D6
100
AcDbEntity
  8
0
 62
     0
100
AcDbLine
 10
987.5993736597045
 20
430.4311966334148
 30
3.192577527778286
 11
987.5993736597045
 21
429.2503029326614
 31
3.192577527778286
  0
LINE
  5
59B48
330
458D6
100
AcDbEntity
  8
0
 62
     0
100
AcDbLine
 10
984.5519339252236
 20
455.8266729643362
 30
3.192577527778286
 11
984.5519339252236
 21
462.1755057445026
 31
3.192577527778286
  0
LINE
  5
59B49
330
458D6
100
AcDbEntity
  8
0
 62
     0
100
AcDbLine
 10
968.680897632295
 20
448.351114825094
 30
3.192577527778297
 11
984.5519339252236
 21
448.351114825094
 31
3.192577527778286
  0
LINE
  5
59B4A
330
458D6
100
AcDbEntity
  8
0
 62
     0
100
AcDbLine
 10
984.5519339252236
 20
451.06515289164
 30
3.192577527778297
 11
969.0833982237215
 21
451.06515289164
 31
3.192577527778297
  0
LINE
  5
59B4B
330
458D6
100
AcDbEntity
  8
0
 62
     0
100
AcDbLine
 10
984.5519339252236
 20
444.2557327630792
 30
3.192577527778286
 11
968.680897632295
 21
444.2557327630792
 31
3.192577527778297
  0
LINE
  5
59B4C
330
458D6
100
AcDbEntity
  8
0
 62
     0
100
AcDbLine
 10
984.5519339252236
 20
441.5416946965331
 30
3.192577527778297
 11
969.0833982237215
 21
441.5416946965331
 31
3.192577527778297
  0
LINE
  5
59B4D
330
458D6
100
AcDbEntity
  8
0
 62
     0
100
AcDbLine
 10
968.680897632295
 20
450.684214563837
 30
3.192577527778297
 11
969.0833982237215
 21
451.06515289164
 31
3.192577527778297
  0
LINE
  5
59B4E
330
458D6
100
AcDbEntity
  8
0
 62
     0
100
AcDbLine
 10
987.5993736597045
 20
463.3565446555131
 30
3.192577527778286
 11
987.5993736597045
 21
470.5180935504081
 31
3.192577527778286
  0
LINE
  5
59B4F
330
458D6
100
AcDbEntity
  8
0
 62
     0
100
AcDbLine
 10
984.5519339252236
 20
462.1755057445026
 30
3.192577527778286
 11
987.5993736597045
 21
462.1755057445026
 31
3.192577527778286
  0
LINE
  5
59B50
330
458D6
100
AcDbEntity
  8
0
 62
     0
100
AcDbLine
 10
987.5993736597045
 20
462.1756509547583
 30
3.192577527778286
 11
987.5993736597045
 21
463.3565446555131
 31
3.192577527778286
  0
LINE
  5
59B51
330
458D6
100
AcDbEntity
  8
0
 62
     0
100
AcDbLine
 10
992.6784863511175
 20
470.5180935504081
 30
3.192577527778286
 11
992.6784863511175
 21
469.7943199918821
 31
3.192577527778286
  0
LINE
  5
59B52
330
458D6
100
AcDbEntity
  8
0
 62
     0
100
AcDbLine
 10
992.6784863511175
 20
471.6989872511616
 30
3.192577527778286
 11
992.6784863511175
 21
470.5180935504081
 31
3.192577527778286
  0
LINE
  5
59B53
330
458D6
100
AcDbEntity
  8
0
 62
     0
100
AcDbLine
 10
990.1389300054097
 20
469.7943199918821
 30
3.192577527778286
 11
990.1389300054097
 21
471.6989872511616
 31
3.192577527778286
  0
LINE
  5
59B54
330
458D6
100
AcDbEntity
  8
0
 62
     0
100
AcDbLine
 10
990.1389300054097
 20
471.6989872511616
 30
3.192577527778286
 11
987.5993736597045
 21
471.6989872511616
 31
3.192577527778286
  0
LINE
  5
59B55
330
458D6
100
AcDbEntity
  8
0
 62
     0
100
AcDbLine
 10
987.5993736597045
 20
471.6989872511616
 30
3.192577527778286
 11
987.5993736597045
 21
470.5180935504081
 31
3.192577527778286
  0
LINE
  5
59B56
330
458D6
100
AcDbEntity
  8
0
 62
     0
100
AcDbLine
 10
992.6784863511175
 20
469.7943199918821
 30
3.192577527778286
 11
990.1389300054097
 21
469.7943199918821
 31
3.192577527778286
  0
LINE
  5
59B57
330
458D6
100
AcDbEntity
  8
0
 62
     0
100
AcDbLine
 10
993.9482645239715
 20
462.1755057445026
 30
3.192577527778286
 11
993.9482645239715
 21
430.4313418436705
 31
3.192577527778286
  0
LINE
  5
59B58
330
458D6
100
AcDbEntity
  8
0
 62
     0
100
AcDbLine
 10
1000.298388453523
 20
471.6990053900552
 30
3.192577527778286
 11
1000.298446537623
 21
420.907842198118
 31
3.192577527778286
  0
LINE
  5
59B59
330
458D6
100
AcDbEntity
  8
0
 62
     0
100
AcDbLine
 10
993.9482645239715
 20
462.8368424924366
 30
3.192577527778286
 11
993.9482645239715
 21
429.7700050957366
 31
3.192577527778286
  0
LINE
  5
59B5A
330
458D6
100
AcDbEntity
  8
0
 62
     0
100
AcDbLine
 10
993.9482645239715
 20
462.1756509547583
 30
3.192577527778286
 11
993.9482645239715
 21
430.4311966334148
 31
3.192577527778286
  0
LINE
  5
59B5B
330
458D6
100
AcDbEntity
  8
0
 62
     0
100
AcDbLine
 10
1004.392414571657
 20
425.3045996838862
 30
3.192577527778286
 11
1040.708070315274
 21
425.3045996838862
 31
3.192577527778286
  0
LINE
  5
59B5C
330
458D6
100
AcDbEntity
  8
0
 62
     0
100
AcDbLine
 10
1004.392414571657
 20
420.9072677740937
 30
3.192577527778286
 11
1004.392414571657
 21
425.3045996838862
 31
3.192577527778286
  0
LINE
  5
59B5D
330
458D6
100
AcDbEntity
  8
0
 62
     0
100
AcDbLine
 10
993.9482645239715
 20
430.4313418436705
 30
3.192577527778286
 11
993.9482645239715
 21
422.1778592294539
 31
3.192577527778286
  0
LINE
  5
59B5E
330
458D6
100
AcDbEntity
  8
0
 62
     0
100
AcDbLine
 10
993.9482645239715
 20
427.5843539698767
 30
3.192577527778286
 11
993.9482645239715
 21
423.764861225933
 31
3.192577527778286
  0
LINE
  5
59B5F
330
458D6
100
AcDbEntity
  8
0
 62
     0
100
AcDbLine
 10
993.9482645239715
 20
420.1462141528882
 30
3.192577527778286
 11
1000.297097304137
 21
420.1462141528882
 31
3.192577527778286
  0
LINE
  5
59B61
330
458D6
100
AcDbEntity
  8
0
 62
     0
100
AcDbLine
 10
993.9482645239715
 20
420.1462141528882
 30
3.192577527778286
 11
993.9482645239715
 21
422.1778592294539
 31
3.192577527778286
  0
LINE
  5
59B62
330
458D6
100
AcDbEntity
  8
0
 62
     0
100
AcDbLine
 10
993.9482645239715
 20
423.764861225933
 30
3.192577527778286
 11
993.9482645239715
 21
420.9078603370115
 31
3.192577527778286
  0
LINE
  5
59B63
330
458D6
100
AcDbEntity
  8
0
 62
     0
100
AcDbLine
 10
1000.297097304137
 20
420.1462141528882
 30
3.192577527778286
 11
1000.298446537623
 21
420.907842198118
 31
3.192577527778286
  0
LINE
  5
59B64
330
458D6
100
AcDbEntity
  8
0
 62
     0
100
AcDbLine
 10
1001.218027223626
 20
420.9084528999294
 30
3.192577527778286
 11
1000.298446537623
 21
420.907842198118
 31
3.192577527778286
  0
LINE
  5
59B65
330
458D6
100
AcDbEntity
  8
0
 62
     0
100
AcDbLine
 10
1001.217969139522
 20
420.9072677740937
 30
3.192577527778286
 11
1004.392414571657
 21
420.9072677740937
 31
3.192577527778286
  0
LINE
  5
59B66
330
458D6
100
AcDbEntity
  8
0
 62
     0
100
AcDbLine
 10
1002.708504542334
 20
433.822823426686
 30
3.192577527778286
 11
1004.546397709005
 21
431.739860544706
 31
3.192577527778286
  0
ELLIPSE
  5
59B67
330
458D6
100
AcDbEntity
  8
0
 62
     0
100
AcDbEllipse
 10
1003.369829546244
 20
432.5544671547516
 30
3.192577527778283
 11
-1.431493314791212
 21
0.0
 31
0.0
210
0.0
220
0.0
230
1.0
 40
0.9990395331585894
 41
0.0
 42
6.283185307179586
  0
LINE
  5
59B68
330
458D6
100
AcDbEntity
  8
0
 62
     0
100
AcDbLine
 10
1002.278870826967
 20
433.480389898682
 30
3.192577527778286
 11
1004.157462452352
 21
431.3513017138914
 31
3.192577527778286
  0
LINE
  5
59B69
330
458D6
100
AcDbEntity
  8
0
 62
     0
100
AcDbLine
 10
993.9482645239715
 20
427.5843539698767
 30
3.192577527778286
 11
993.9482645239715
 21
430.4311966334148
 31
3.192577527778286
  0
LINE
  5
59B6A
330
458D6
100
AcDbEntity
  8
0
 62
     0
100
AcDbLine
 10
1001.217969139522
 20
471.6983946882437
 30
3.192577527778286
 11
1038.168513969566
 21
471.6983946882437
 31
3.192577527778286
  0
LINE
  5
59B6B
330
458D6
100
AcDbEntity
  8
0
 62
     0
100
AcDbLine
 10
993.9482645239715
 20
462.1755057445026
 30
3.192577527778286
 11
993.9482645239715
 21
472.460633435285
 31
3.192577527778286
  0
LINE
  5
59B6C
330
458D6
100
AcDbEntity
  8
0
 62
     0
100
AcDbLine
 10
993.9482645239715
 20
468.8419863622416
 30
3.192577527778286
 11
993.9482645239715
 21
465.0326518436797
 31
3.192577527778286
  0
LINE
  5
59B6D
330
458D6
100
AcDbEntity
  8
0
 62
     0
100
AcDbLine
 10
993.9482645239715
 20
465.0326518436797
 30
3.192577527778286
 11
993.9482645239715
 21
462.1756509547583
 31
3.192577527778286
  0
LINE
  5
59B6E
330
458D6
100
AcDbEntity
  8
0
 62
     0
100
AcDbLine
 10
993.948206439871
 20
472.460633435285
 30
3.192577527778286
 11
1000.297039220037
 21
472.460633435285
 31
3.192577527778286
  0
LINE
  5
59B6F
330
458D6
100
AcDbEntity
  8
0
 62
     0
100
AcDbLine
 10
993.9482645239715
 20
468.8419863622416
 30
3.192577527778286
 11
993.9482645239715
 21
471.6989872511616
 31
3.192577527778286
  0
LINE
  5
59B70
330
458D6
100
AcDbEntity
  8
0
 62
     0
100
AcDbLine
 10
1000.297039220037
 20
472.460633435285
 30
3.192577527778286
 11
1000.298388453523
 21
471.6990053900552
 31
3.192577527778286
  0
LINE
  5
59B71
330
458D6
100
AcDbEntity
  8
0
 62
     0
100
AcDbLine
 10
1000.298388453523
 20
471.6990053900552
 30
3.192577527778286
 11
1001.217969139522
 21
471.6983946882437
 31
3.192577527778286
  0
ARC
  5
59B72
330
458D6
100
AcDbEntity
  8
0
 62
     0
100
AcDbCircle
 10
1038.168513969566
 20
469.1588383425373
 30
3.192577527778286
 40
2.539556345707509
100
AcDbArc
 50
0.0
 51
90.0
  0
LINE
  5
59B85
330
458D6
100
AcDbEntity
  8
0
  6
Continuous
 62
     0
100
AcDbLine
 10
848.3662028741351
 20
399.2268041224517
 30
3.664713011156623
 11
884.0243243694841
 21
399.2268041224517
 31
3.664713011156623
  0
LINE
  5
59B86
330
458D6
100
AcDbEntity
  8
0
  6
Continuous
 62
     0
100
AcDbLine
 10
884.0243243694841
 20
399.75500365556
 30
3.664713011156623
 11
848.3662028741351
 21
399.75500365556
 31
3.664713011156623
  0
LINE
  5
59B87
330
458D6
100
AcDbEntity
  8
0
  6
Continuous
 62
     0
100
AcDbLine
 10
848.7175164534972
 20
398.0556227566566
 30
3.664713011156623
 11
883.7267495306562
 21
398.0556227566566
 31
3.664713011156623
  0
LINE
  5
59B88
330
458D6
100
AcDbEntity
  8
0
  6
Continuous
 62
     0
100
AcDbLine
 10
883.7267495306562
 20
399.2451668851547
 30
3.664713011156623
 11
848.7175164534972
 21
399.2451668851547
 31
3.664713011156623
  0
POLYLINE
  5
59B89
330
458D6
100
AcDbEntity
  8
0
 62
     0
100
AcDb2dPolyline
 66
     1
 10
0.0
 20
0.0
 30
3.664713011156623
 70
     4
 75
     6
  0
VERTEX
  5
59B8A
330
59B89
100
AcDbEntity
  8
0
 62
     0
100
AcDbVertex
100
AcDb2dVertex
 10
876.1915259399907
 20
396.8078913366269
 30
3.664713011156623
  0
VERTEX
  5
59B8B
330
59B89
100
AcDbEntity
  8
0
 62
     0
100
AcDbVertex
100
AcDb2dVertex
 10
876.1915259399907
 20
396.2059156515241
 30
3.664713011156623
  0
VERTEX
  5
59B8C
330
59B89
100
AcDbEntity
  8
0
 62
     0
100
AcDbVertex
100
AcDb2dVertex
 10
876.1915259399907
 20
396.2059156515241
 30
3.664713011156623
 70
     8
  0
VERTEX
  5
59B8D
330
59B89
100
AcDbEntity
  8
0
 62
     0
100
AcDbVertex
100
AcDb2dVertex
 10
876.2243609773598
 20
395.8994553027451
 30
3.664713011156623
 70
     8
  0
VERTEX
  5
59B8E
330
59B89
100
AcDbEntity
  8
0
 62
     0
100
AcDbVertex
100
AcDb2dVertex
 10
876.2878420496061
 20
395.691500066073
 30
3.664713011156623
 70
     8
  0
VERTEX
  5
59B8F
330
59B89
100
AcDbEntity
  8
0
 62
     0
100
AcDbVertex
100
AcDb2dVertex
 10
876.3863471617129
 20
395.492300839366
 30
3.664713011156623
 70
     8
  0
VERTEX
  5
59B90
330
59B89
100
AcDbEntity
  8
0
 62
     0
100
AcDbVertex
100
AcDb2dVertex
 10
876.5176873111919
 20
395.3084246300992
 30
3.664713011156623
 70
     8
  0
VERTEX
  5
59B91
330
59B89
100
AcDbEntity
  8
0
 62
     0
100
AcDbVertex
100
AcDb2dVertex
 10
876.6774844930534
 20
395.1486274482347
 30
3.664713011156623
 70
     8
  0
VERTEX
  5
59B92
330
59B89
100
AcDbEntity
  8
0
 62
     0
100
AcDbVertex
100
AcDb2dVertex
 10
876.861360702323
 20
395.0172872987588
 30
3.664713011156623
 70
     8
  0
VERTEX
  5
59B93
330
59B89
100
AcDbEntity
  8
0
 62
     0
100
AcDbVertex
100
AcDb2dVertex
 10
877.058370926537
 20
394.9231601916337
 30
3.664713011156623
 70
     8
  0
VERTEX
  5
59B94
330
59B89
100
AcDbEntity
  8
0
 62
     0
100
AcDbVertex
100
AcDb2dVertex
 10
877.2597591557341
 20
394.8618681218776
 30
3.664713011156623
 70
     8
  0
VERTEX
  5
59B95
330
59B89
100
AcDbEntity
  8
0
 62
     0
100
AcDbVertex
100
AcDb2dVertex
 10
877.5596524970412
 20
394.8377890944738
 30
3.664713011156623
 70
     8
  0
VERTEX
  5
59B96
330
59B89
100
AcDbEntity
  8
0
 62
     0
100
AcDbVertex
100
AcDb2dVertex
 10
876.2046599549378
 20
394.8115210645783
 30
3.664713011156623
 70
    16
  0
VERTEX
  5
59B97
330
59B89
100
AcDbEntity
  8
0
 62
     0
100
AcDbVertex
100
AcDb2dVertex
 10
877.5596524970412
 20
394.8377890944738
 30
3.664713011156623
 70
    16
  0
VERTEX
  5
59B98
330
59B89
100
AcDbEntity
  8
0
 62
     0
100
AcDbVertex
100
AcDb2dVertex
 10
878.271078306709
 20
394.8377890944738
 30
3.664713011156623
  0
VERTEX
  5
59B99
330
59B89
100
AcDbEntity
  8
0
 62
     0
100
AcDbVertex
100
AcDb2dVertex
 10
878.271078306709
 20
395.8644312628845
 30
3.664713011156623
  0
VERTEX
  5
59B9A
330
59B89
100
AcDbEntity
  8
0
 62
     0
100
AcDbVertex
100
AcDb2dVertex
 10
878.5994286803987
 20
395.8644312628845
 30
3.664713011156623
  0
VERTEX
  5
59B9B
330
59B89
100
AcDbEntity
  8
0
 62
     0
100
AcDbVertex
100
AcDb2dVertex
 10
878.9277790540914
 20
395.8644312628845
 30
3.664713011156623
  0
VERTEX
  5
59B9C
330
59B89
100
AcDbEntity
  8
0
 62
     0
100
AcDbVertex
100
AcDb2dVertex
 10
878.9277790540914
 20
394.8377890944738
 30
3.664713011156623
  0
VERTEX
  5
59B9D
330
59B89
100
AcDbEntity
  8
0
 62
     0
100
AcDbVertex
100
AcDb2dVertex
 10
879.6392048637594
 20
394.8377890944738
 30
3.664713011156623
  0
VERTEX
  5
59B9E
330
59B89
100
AcDbEntity
  8
0
 62
     0
100
AcDbVertex
100
AcDb2dVertex
 10
879.6392048637594
 20
394.8377890944738
 30
3.664713011156623
 70
     8
  0
VERTEX
  5
59B9F
330
59B89
100
AcDbEntity
  8
0
 62
     0
100
AcDbVertex
100
AcDb2dVertex
 10
879.9434762100467
 20
394.8618681218776
 30
3.664713011156623
 70
     8
  0
VERTEX
  5
59BA0
330
59B89
100
AcDbEntity
  8
0
 62
     0
100
AcDbVertex
100
AcDb2dVertex
 10
880.1492424442271
 20
394.9231601916337
 30
3.664713011156623
 70
     8
  0
VERTEX
  5
59BA1
330
59B89
100
AcDbEntity
  8
0
 62
     0
100
AcDbVertex
100
AcDb2dVertex
 10
880.3484416709327
 20
395.0172872987588
 30
3.664713011156623
 70
     8
  0
VERTEX
  5
59BA2
330
59B89
100
AcDbEntity
  8
0
 62
     0
100
AcDbVertex
100
AcDb2dVertex
 10
880.5323178802025
 20
395.1486274482347
 30
3.664713011156623
 70
     8
  0
VERTEX
  5
59BA3
330
59B89
100
AcDbEntity
  8
0
 62
     0
100
AcDbVertex
100
AcDb2dVertex
 10
880.692115062064
 20
395.3084246300992
 30
3.664713011156623
 70
     8
  0
VERTEX
  5
59BA4
330
59B89
100
AcDbEntity
  8
0
 62
     0
100
AcDbVertex
100
AcDb2dVertex
 10
880.8234552115429
 20
395.492300839366
 30
3.664713011156623
 70
     8
  0
VERTEX
  5
59BA5
330
59B89
100
AcDbEntity
  8
0
 62
     0
100
AcDbVertex
100
AcDb2dVertex
 10
880.9197713211581
 20
395.691500066073
 30
3.664713011156623
 70
     8
  0
VERTEX
  5
59BA6
330
59B89
100
AcDbEntity
  8
0
 62
     0
100
AcDbVertex
100
AcDb2dVertex
 10
880.9810633909156
 20
395.8994553027451
 30
3.664713011156623
 70
     8
  0
VERTEX
  5
59BA7
330
59B89
100
AcDbEntity
  8
0
 62
     0
100
AcDbVertex
100
AcDb2dVertex
 10
881.0073314208096
 20
396.2059156515241
 30
3.664713011156623
 70
     8
  0
VERTEX
  5
59BA8
330
59B89
100
AcDbEntity
  8
0
 62
     0
100
AcDbVertex
100
AcDb2dVertex
 10
881.0226544382484
 20
394.8115210645783
 30
3.664713011156623
 70
    16
  0
VERTEX
  5
59BA9
330
59B89
100
AcDbEntity
  8
0
 62
     0
100
AcDbVertex
100
AcDb2dVertex
 10
881.0073314208096
 20
396.2059156515241
 30
3.664713011156623
 70
    16
  0
VERTEX
  5
59BAA
330
59B89
100
AcDbEntity
  8
0
 62
     0
100
AcDbVertex
100
AcDb2dVertex
 10
881.0073314208096
 20
396.8078913366269
 30
3.664713011156623
  0
VERTEX
  5
59BAB
330
59B89
100
AcDbEntity
  8
0
 62
     0
100
AcDbVertex
100
AcDb2dVertex
 10
876.1915259399907
 20
396.8078913366269
 30
3.664713011156623
  0
SEQEND
  5
59BAC
330
59B89
100
AcDbEntity
  8
0
 62
     0
  0
LWPOLYLINE
  5
59BAD
330
458D6
100
AcDbEntity
  8
0
 62
     0
100
AcDbPolyline
 90
        4
 70
     0
 43
0.0
 38
3.664713011156621
 10
875.8631755662964
 20
398.0556227566569
 10
875.8631755662964
 20
397.3551419594471
 10
881.3356817945013
 20
397.3551419594471
 10
881.3356817945013
 20
398.0556227566569
  0
LINE
  5
59BAE
330
458D6
100
AcDbEntity
  8
0
 62
     0
100
AcDbLine
 10
851.196259586789
 20
399.75500365556
 30
3.664713011156623
 11
881.1942676568301
 21
399.75500365556
 31
3.664713011156623
  0
LINE
  5
59BAF
330
458D6
100
AcDbEntity
  8
0
 62
     0
100
AcDbLine
 10
883.636457636698
 20
399.75500365556
 30
3.664713011156623
 11
848.7540696069212
 21
399.75500365556
 31
3.664713011156623
  0
LINE
  5
59BB0
330
458D6
100
AcDbEntity
  8
0
 62
     0
100
AcDbLine
 10
848.4471074525997
 20
399.75500365556
 30
3.664713011156623
 11
883.9303474841857
 21
399.75500365556
 31
3.664713011156623
  0
LINE
  5
59BB1
330
458D6
100
AcDbEntity
  8
0
 62
     0
100
AcDbLine
 10
854.7031023290893
 20
399.75500365556
 30
3.664713011156623
 11
877.6874249145299
 21
399.75500365556
 31
3.664713011156623
  0
LINE
  5
59BB2
330
458D6
100
AcDbEntity
  8
0
 62
     0
100
AcDbLine
 10
883.6299214832839
 20
399.75500365556
 30
3.664713011156623
 11
848.7475334535043
 21
399.75500365556
 31
3.664713011156623
  0
LINE
  5
59BB3
330
458D6
100
AcDbEntity
  8
0
 62
     0
100
AcDbLine
 10
851.1897234333721
 20
399.75500365556
 30
3.664713011156623
 11
881.1877315034132
 21
399.75500365556
 31
3.664713011156623
  0
CIRCLE
  5
59BB4
330
458D6
100
AcDbEntity
  8
0
 62
     0
100
AcDbCircle
 10
866.1952636218082
 20
446.1802909970096
 30
3.664713011156623
 40
15.85548586420483
  0
CIRCLE
  5
59BB6
330
458D6
100
AcDbEntity
  8
0
 62
     0
100
AcDbCircle
 10
866.1952636218082
 20
446.1802909970096
 30
3.664713011156623
 40
25.39570292664329
  0
CIRCLE
  5
59BB7
330
458D6
100
AcDbEntity
  8
0
 62
     0
100
AcDbCircle
 10
866.1952636218082
 20
446.1802909970096
 30
3.664713011156623
 40
26.13007976048852
  0
LINE
  5
59BB9
330
458D6
100
AcDbEntity
  8
0
 62
     0
100
AcDbLine
 10
848.7540696069212
 20
399.75500365556
 30
3.664713011156623
 11
848.7540696069212
 21
426.723009079319
 31
3.664713011156623
  0
LWPOLYLINE
  5
59BBA
330
458D6
100
AcDbEntity
  8
0
 62
     0
100
AcDbPolyline
 90
        4
 70
     0
 43
0.0
 38
3.664713011156621
 10
851.0712825469591
 20
398.0358346035438
 10
851.0712825469591
 20
397.335353806334
 10
856.543788775164
 20
397.335353806334
 10
856.543788775164
 20
398.0358346035438
  0
LINE
  5
59BBB
330
458D6
100
AcDbEntity
  8
0
 62
     0
100
AcDbLine
 10
849.1980272727527
 20
399.75500365556
 30
3.664713011156623
 11
854.7031023290893
 21
399.75500365556
 31
3.664713011156623
  0
LINE
  5
59BBC
330
458D6
100
AcDbEntity
  8
0
  6
Continuous
 62
     0
100
AcDbLine
 10
848.3662028741351
 20
399.75500365556
 30
3.664713011156623
 11
848.3662028741351
 21
399.2268041224517
 31
3.664713011156623
  0
LINE
  5
59BBD
330
458D6
100
AcDbEntity
  8
0
  6
Continuous
 62
     0
100
AcDbLine
 10
848.7175164534972
 20
399.2451668851547
 30
3.664713011156623
 11
848.7175164534972
 21
398.0556227566566
 31
3.664713011156623
  0
LWPOLYLINE
  5
59BBE
330
458D6
100
AcDbEntity
  8
0
 62
     0
100
AcDbPolyline
 90
        2
 70
     0
 43
0.0
 38
3.664713011156621
 10
854.1752880795966
 20
397.335353806334
 10
854.0330029176647
 20
396.7881031835143
  0
LWPOLYLINE
  5
59BBF
330
458D6
100
AcDbEntity
  8
0
 62
     0
100
AcDbPolyline
 90
        2
 70
     0
 43
0.0
 38
3.664713011156621
 10
853.7484325937976
 20
396.7881031835143
 10
853.8907177557293
 20
397.335353806334
  0
POLYLINE
  5
59BC0
330
458D6
100
AcDbEntity
  8
0
 62
     0
100
AcDb2dPolyline
 66
     1
 10
0.0
 20
0.0
 30
3.664713011156623
 70
     4
 75
     6
  0
VERTEX
  5
59BC1
330
59BC0
100
AcDbEntity
  8
0
 62
     0
100
AcDbVertex
100
AcDb2dVertex
 10
851.3996329206529
 20
396.7881031835147
 30
3.664713011156623
  0
VERTEX
  5
59BC2
330
59BC0
100
AcDbEntity
  8
0
 62
     0
100
AcDbVertex
100
AcDb2dVertex
 10
851.3996329206529
 20
396.186127498412
 30
3.664713011156623
  0
VERTEX
  5
59BC3
330
59BC0
100
AcDbEntity
  8
0
 62
     0
100
AcDbVertex
100
AcDb2dVertex
 10
851.3996329206529
 20
396.186127498412
 30
3.664713011156623
 70
     8
  0
VERTEX
  5
59BC4
330
59BC0
100
AcDbEntity
  8
0
 62
     0
100
AcDbVertex
100
AcDb2dVertex
 10
851.4324679580218
 20
395.879667149633
 30
3.664713011156623
 70
     8
  0
VERTEX
  5
59BC5
330
59BC0
100
AcDbEntity
  8
0
 62
     0
100
AcDbVertex
100
AcDb2dVertex
 10
851.4959490302711
 20
395.6717119129608
 30
3.664713011156623
 70
     8
  0
VERTEX
  5
59BC6
330
59BC0
100
AcDbEntity
  8
0
 62
     0
100
AcDbVertex
100
AcDb2dVertex
 10
851.5944541423779
 20
395.4725126862539
 30
3.664713011156623
 70
     8
  0
VERTEX
  5
59BC7
330
59BC0
100
AcDbEntity
  8
0
 62
     0
100
AcDbVertex
100
AcDb2dVertex
 10
851.7257942918538
 20
395.288636476987
 30
3.664713011156623
 70
     8
  0
VERTEX
  5
59BC8
330
59BC0
100
AcDbEntity
  8
0
 62
     0
100
AcDbVertex
100
AcDb2dVertex
 10
851.8855914737184
 20
395.1288392951226
 30
3.664713011156623
 70
     8
  0
VERTEX
  5
59BC9
330
59BC0
100
AcDbEntity
  8
0
 62
     0
100
AcDbVertex
100
AcDb2dVertex
 10
852.0694676829851
 20
394.9974991456466
 30
3.664713011156623
 70
     8
  0
VERTEX
  5
59BCA
330
59BC0
100
AcDbEntity
  8
0
 62
     0
100
AcDbVertex
100
AcDb2dVertex
 10
852.2664779072018
 20
394.9033720385216
 30
3.664713011156623
 70
     8
  0
VERTEX
  5
59BCB
330
59BC0
100
AcDbEntity
  8
0
 62
     0
100
AcDbVertex
100
AcDb2dVertex
 10
852.467866136399
 20
394.8420799687655
 30
3.664713011156623
 70
     8
  0
VERTEX
  5
59BCC
330
59BC0
100
AcDbEntity
  8
0
 62
     0
100
AcDbVertex
100
AcDb2dVertex
 10
852.767759477706
 20
394.8180009413602
 30
3.664713011156623
 70
     8
  0
VERTEX
  5
59BCD
330
59BC0
100
AcDbEntity
  8
0
 62
     0
100
AcDbVertex
100
AcDb2dVertex
 10
851.4127669356026
 20
394.7917329114662
 30
3.664713011156623
 70
    16
  0
VERTEX
  5
59BCE
330
59BC0
100
AcDbEntity
  8
0
 62
     0
100
AcDbVertex
100
AcDb2dVertex
 10
852.767759477706
 20
394.8180009413602
 30
3.664713011156623
 70
    16
  0
VERTEX
  5
59BCF
330
59BC0
100
AcDbEntity
  8
0
 62
     0
100
AcDbVertex
100
AcDb2dVertex
 10
853.4791852873711
 20
394.8180009413602
 30
3.664713011156623
  0
VERTEX
  5
59BD0
330
59BC0
100
AcDbEntity
  8
0
 62
     0
100
AcDbVertex
100
AcDb2dVertex
 10
853.4791852873711
 20
395.8446431097724
 30
3.664713011156623
  0
VERTEX
  5
59BD1
330
59BC0
100
AcDbEntity
  8
0
 62
     0
100
AcDbVertex
100
AcDb2dVertex
 10
853.8075356610637
 20
395.8446431097724
 30
3.664713011156623
  0
VERTEX
  5
59BD2
330
59BC0
100
AcDbEntity
  8
0
 62
     0
100
AcDbVertex
100
AcDb2dVertex
 10
854.1358860347564
 20
395.8446431097724
 30
3.664713011156623
  0
VERTEX
  5
59BD3
330
59BC0
100
AcDbEntity
  8
0
 62
     0
100
AcDbVertex
100
AcDb2dVertex
 10
854.1358860347564
 20
394.8180009413602
 30
3.664713011156623
  0
VERTEX
  5
59BD4
330
59BC0
100
AcDbEntity
  8
0
 62
     0
100
AcDbVertex
100
AcDb2dVertex
 10
854.8473118444215
 20
394.8180009413602
 30
3.664713011156623
  0
VERTEX
  5
59BD5
330
59BC0
100
AcDbEntity
  8
0
 62
     0
100
AcDbVertex
100
AcDb2dVertex
 10
854.8473118444215
 20
394.8180009413602
 30
3.664713011156623
 70
     8
  0
VERTEX
  5
59BD6
330
59BC0
100
AcDbEntity
  8
0
 62
     0
100
AcDbVertex
100
AcDb2dVertex
 10
855.1515831907089
 20
394.8420799687655
 30
3.664713011156623
 70
     8
  0
VERTEX
  5
59BD7
330
59BC0
100
AcDbEntity
  8
0
 62
     0
100
AcDbVertex
100
AcDb2dVertex
 10
855.357349424892
 20
394.9033720385216
 30
3.664713011156623
 70
     8
  0
VERTEX
  5
59BD8
330
59BC0
100
AcDbEntity
  8
0
 62
     0
100
AcDbVertex
100
AcDb2dVertex
 10
855.5565486515977
 20
394.9974991456466
 30
3.664713011156623
 70
     8
  0
VERTEX
  5
59BD9
330
59BC0
100
AcDbEntity
  8
0
 62
     0
100
AcDbVertex
100
AcDb2dVertex
 10
855.7404248608646
 20
395.1288392951226
 30
3.664713011156623
 70
     8
  0
VERTEX
  5
59BDA
330
59BC0
100
AcDbEntity
  8
0
 62
     0
100
AcDbVertex
100
AcDb2dVertex
 10
855.900222042729
 20
395.288636476987
 30
3.664713011156623
 70
     8
  0
VERTEX
  5
59BDB
330
59BC0
100
AcDbEntity
  8
0
 62
     0
100
AcDbVertex
100
AcDb2dVertex
 10
856.0315621922049
 20
395.4725126862539
 30
3.664713011156623
 70
     8
  0
VERTEX
  5
59BDC
330
59BC0
100
AcDbEntity
  8
0
 62
     0
100
AcDbVertex
100
AcDb2dVertex
 10
856.1278783018231
 20
395.6717119129608
 30
3.664713011156623
 70
     8
  0
VERTEX
  5
59BDD
330
59BC0
100
AcDbEntity
  8
0
 62
     0
100
AcDbVertex
100
AcDb2dVertex
 10
856.1891703715778
 20
395.879667149633
 30
3.664713011156623
 70
     8
  0
VERTEX
  5
59BDE
330
59BC0
100
AcDbEntity
  8
0
 62
     0
100
AcDbVertex
100
AcDb2dVertex
 10
856.2154384014718
 20
396.186127498412
 30
3.664713011156623
 70
     8
  0
VERTEX
  5
59BDF
330
59BC0
100
AcDbEntity
  8
0
 62
     0
100
AcDbVertex
100
AcDb2dVertex
 10
856.2307614189133
 20
394.7917329114662
 30
3.664713011156623
 70
    16
  0
VERTEX
  5
59BE0
330
59BC0
100
AcDbEntity
  8
0
 62
     0
100
AcDbVertex
100
AcDb2dVertex
 10
856.2154384014718
 20
396.186127498412
 30
3.664713011156623
 70
    16
  0
VERTEX
  5
59BE1
330
59BC0
100
AcDbEntity
  8
0
 62
     0
100
AcDbVertex
100
AcDb2dVertex
 10
856.2154384014718
 20
396.7881031835147
 30
3.664713011156623
  0
VERTEX
  5
59BE2
330
59BC0
100
AcDbEntity
  8
0
 62
     0
100
AcDbVertex
100
AcDb2dVertex
 10
851.3996329206529
 20
396.7881031835147
 30
3.664713011156623
  0
SEQEND
  5
59BE3
330
59BC0
100
AcDbEntity
  8
0
 62
     0
  0
LINE
  5
59BE4
330
458D6
100
AcDbEntity
  8
0
  6
Continuous
 62
     0
100
AcDbLine
 10
855.9722253572436
 20
396.7881031835147
 30
3.664713011156623
 11
855.9722253572436
 21
397.3353538063349
 31
3.664713011156623
  0
LINE
  5
59BE5
330
458D6
100
AcDbEntity
  8
0
  6
Continuous
 62
     0
100
AcDbLine
 10
851.6725660372982
 20
396.7881031835147
 30
3.664713011156623
 11
851.6725660372982
 21
397.3353538063349
 31
3.664713011156623
  0
LINE
  5
59BE6
330
458D6
100
AcDbEntity
  8
0
  6
Continuous
 62
     0
100
AcDbLine
 10
876.464459056636
 20
396.8078913366269
 30
3.664713011156623
 11
876.464459056636
 21
397.355141959447
 31
3.664713011156623
  0
CIRCLE
  5
59BF6
330
458D6
100
AcDbEntity
  8
0
 62
     0
100
AcDbCircle
 10
866.1952636218082
 20
446.1802909970096
 30
3.664713011156623
 40
9.513291518522905
  0
LINE
  5
59BF8
330
458D6
100
AcDbEntity
  8
0
 62
     0
100
AcDbLine
 10
883.636457636698
 20
399.75500365556
 30
3.664713011156623
 11
883.636457636698
 21
426.723009079319
 31
3.664713011156623
  0
LINE
  5
59BFA
330
458D6
100
AcDbEntity
  8
0
  6
Continuous
 62
     0
100
AcDbLine
 10
884.0243243694841
 20
399.2268041224517
 30
3.664713011156623
 11
884.0243243694841
 21
399.75500365556
 31
3.664713011156623
  0
LWPOLYLINE
  5
59BFB
330
458D6
100
AcDbEntity
  8
0
 62
     0
100
AcDbPolyline
 90
        2
 70
     0
 43
0.0
 38
3.664713011156621
 10
878.9671810989339
 20
397.3551419594471
 10
878.8248959369985
 20
396.8078913366273
  0
LWPOLYLINE
  5
59BFC
330
458D6
100
AcDbEntity
  8
0
 62
     0
100
AcDbPolyline
 90
        2
 70
     0
 43
0.0
 38
3.664713011156621
 10
878.5403256131349
 20
396.8078913366273
 10
878.6826107750703
 20
397.3551419594471
  0
LINE
  5
59BFD
330
458D6
100
AcDbEntity
  8
0
  6
Continuous
 62
     0
100
AcDbLine
 10
880.7641183765786
 20
396.8078913366269
 30
3.664713011156623
 11
880.7641183765786
 21
397.355141959447
 31
3.664713011156623
  0
LINE
  5
59BFE
330
458D6
100
AcDbEntity
  8
0
  6
Continuous
 62
     0
100
AcDbLine
 10
883.7267495306562
 20
398.0556227566566
 30
3.664713011156623
 11
883.7267495306562
 21
399.2451668851547
 31
3.664713011156623
  0
LINE
  5
59BFF
330
458D6
100
AcDbEntity
  8
0
 62
     0
100
AcDbLine
 10
877.6874249145299
 20
399.75500365556
 30
3.664713011156623
 11
883.1924999708634
 21
399.75500365556
 31
3.664713011156623
  0
LINE
  5
59C03
330
458D6
100
AcDbEntity
  8
0
 62
     0
100
AcDbLine
 10
884.9577626177214
 20
429.1053011885698
 30
3.664713011156623
 11
884.9367810135339
 21
429.082269892725
 31
3.664713011156623
  0
LINE
  5
59C08
330
458D6
100
AcDbEntity
  8
0
  6
Continuous
 62
     0
100
AcDbLine
 10
1012.064078738821
 20
385.2296120623956
 30
3.321234188890882
 11
1032.947564069156
 21
385.2296120623956
 31
3.230555996984959
  0
LINE
  5
59C09
330
458D6
100
AcDbEntity
  8
0
  6
Continuous
 62
     0
100
AcDbLine
 10
1012.063554802376
 20
395.1830108501998
 30
3.209492845479804
 11
1012.064078738821
 21
385.2296120623956
 31
3.321234188890882
  0
LINE
  5
59C0A
330
458D6
100
AcDbEntity
  8
0
  6
Continuous
 62
     0
100
AcDbLine
 10
1032.947414410254
 20
395.3137731037383
 30
3.198637837883858
 11
1032.947564069156
 21
385.2296120623956
 31
3.230555996984959
  0
LINE
  5
59C0B
330
458D6
100
AcDbEntity
  8
0
  6
Continuous
 62
     0
100
AcDbLine
 10
855.7085478562987
 20
395.1108431590105
 30
3.681628328858141
 11
855.7090717927405
 21
385.1574443712064
 31
3.79336967226922
  0
LINE
  5
59C0C
330
458D6
100
AcDbEntity
  8
0
  6
Continuous
 62
     0
100
AcDbLine
 10
855.7090717927405
 20
385.1574443712064
 30
3.79336967226922
 11
876.5925571230789
 21
385.1574443712064
 31
3.702691480363296
  0
LINE
  5
59C0D
330
458D6
100
AcDbEntity
  8
0
  6
Continuous
 62
     0
100
AcDbLine
 10
876.592407464177
 20
395.2416054125506
 30
3.670773321262196
 11
876.5925571230789
 21
385.1574443712078
 31
3.702691480363296
  0
CIRCLE
  5
59C15
330
458D6
100
AcDbEntity
  8
0
  6
Continuous
 62
     0
100
AcDbCircle
 10
866.1060221022255
 20
387.4850427140078
 30
3.748030576316252
 40
0.9525000000000002
  0
LWPOLYLINE
  5
59C16
330
458D6
100
AcDbEntity
  8
0
  6
Continuous
 62
     0
100
AcDbPolyline
 90
        4
 70
     1
 43
0.0
 38
3.295938364559404
 10
1010.635210130937
 20
386.4827213582405
 10
1012.063960130936
 20
386.4827213582405
 10
1012.063960130936
 20
388.4829713582396
 10
1010.635210130937
 20
388.4829713582396
  0
LINE
  5
59C17
330
458D6
100
AcDbEntity
  8
0
  6
Continuous
 62
     0
100
AcDbLine
 10
1026.571802669521
 20
388.4809624472196
 30
4.435197302807813
 11
1027.167830068501
 21
388.4809624472196
 31
4.435197302807813
  0
LINE
  5
59C18
330
458D6
100
AcDbEntity
  8
0
  6
Continuous
 62
     0
100
AcDbLine
 10
1026.571802669521
 20
386.474391067132
 30
4.435197302807813
 11
1027.167830068501
 21
386.474391067132
 31
4.435197302807813
  0
ELLIPSE
  5
59C19
330
458D6
100
AcDbEntity
  8
0
  6
Continuous
 62
     0
100
AcDbEllipse
 10
1027.1678300685
 20
387.4776767571741
 30
4.435197302807821
 11
0.0
 21
1.003285690043748
 31
0.0
210
0.0
220
0.0
230
1.0
 40
0.6727275966033112
 41
0.0
 42
6.283185307179586
  0
ELLIPSE
  5
59C1A
330
458D6
100
AcDbEntity
  8
0
  6
Continuous
 62
     0
100
AcDbEllipse
 10
1026.57180266952
 20
387.4776767571741
 30
4.435197302807821
 11
0.0
 21
1.003285690043748
 31
0.0
210
0.0
220
0.0
230
1.0
 40
0.6727275966033112
 41
6.283185307179586
 42
9.424777960769379
  0
CIRCLE
  5
59C1C
330
458D6
100
AcDbEntity
  8
0
  6
Continuous
 62
     0
100
AcDbCircle
 10
845.557763621808
 20
446.1802909970096
 30
3.664713011156623
 40
1.904999999999999
  0
CIRCLE
  5
59C1D
330
458D6
100
AcDbEntity
  8
0
  6
Continuous
 62
     0
100
AcDbCircle
 10
866.1952636218082
 20
466.8177909970096
 30
3.664713011156623
 40
1.904999999999999
  0
CIRCLE
  5
59C1E
330
458D6
100
AcDbEntity
  8
0
  6
Continuous
 62
     0
100
AcDbCircle
 10
886.8327636218081
 20
446.1802909970096
 30
3.664713011156623
 40
1.904999999999999
  0
CIRCLE
  5
59C1F
330
458D6
100
AcDbEntity
  8
0
  6
Continuous
 62
     0
100
AcDbCircle
 10
866.1952636218082
 20
425.5427909970096
 30
3.664713011156623
 40
1.904999999999999
  0
CIRCLE
  5
59C22
330
458D6
100
AcDbEntity
  8
0
  6
Continuous
 62
     0
100
AcDbCircle
 10
866.1952636218082
 20
446.1802909970096
 30
3.664713011156623
 40
4.368799999999999
  0
DIMENSION
  5
59C24
330
458D6
100
AcDbEntity
  8
AREA1
100
AcDbDimension
  2
*D3
 10
814.6547044836156
 20
420.0502112365211
 30
3.646124999999996
 11
814.6547044836156
 21
446.1802909970096
 31
3.646124999999996
 70
   160
 71
     5
 42
52.26015952097703
  3
ABECAD_3D
100
AcDbAlignedDimension
 13
866.1952636218082
 23
472.3103707574981
 33
3.664713011156623
 14
866.1952636218082
 24
420.0502112365211
 34
3.664713011156623
 50
90.0
100
AcDbRotatedDimension
1001
ACAD
1000
DSTYLE
1002
{
1070
    44
1040
3.799999999999999
1070
    41
1040
3.799999999999999
1070
   140
1040
3.799999999999999
1002
}
  0
DIMENSION
  5
59C32
330
458D6
100
AcDbEntity
  8
AREA1
100
AcDbDimension
  2
*D4
 10
829.6027971866612
 20
420.7845880703663
 30
3.646124999999996
 11
829.6027971866612
 21
446.1802909970096
 31
3.646124999999996
 70
   160
 71
     5
 42
50.79140585328662
  3
ABECAD_3D
100
AcDbAlignedDimension
 13
866.1952636218082
 23
471.5759939236529
 33
3.664713011156623
 14
866.1952636218082
 24
420.7845880703663
 34
3.664713011156623
 50
90.0
100
AcDbRotatedDimension
1001
ACAD
1000
DSTYLE
1002
{
1070
    44
1040
3.799999999999999
1070
    41
1040
3.799999999999999
1070
   140
1040
3.799999999999999
1002
}
  0
DIMENSION
  5
59C64
330
458D6
100
AcDbEntity
  8
AREA1
100
AcDbDimension
  2
*D5
 10
898.7150648261755
 20
399.7550036555599
 30
3.646124999999996
 11
906.6163221167776
 21
423.5311938179497
 31
3.646124999999996
 70
   160
 71
     5
 42
46.42528734144963
  3
ABECAD_3D
100
AcDbAlignedDimension
 13
886.8327636218079
 23
446.1802909970096
 33
3.664713011156623
 14
883.636457636698
 24
399.75500365556
 34
3.664713011156623
 50
90.0
100
AcDbRotatedDimension
1001
ACAD
1000
DSTYLE
1002
{
1070
    44
1040
3.799999999999999
1070
    41
1040
3.799999999999999
1070
   140
1040
3.799999999999999
1002
}
  0
DIMENSION
  5
59CB1
330
458D6
100
AcDbEntity
  8
AREA1
100
AcDbDimension
  2
*D6
 10
956.8452813286658
 20
430.4313418436705
 30
3.646124999999996
 11
949.6807293257276
 21
446.0821775826865
 31
3.646124999999996
 70
   160
 71
     5
 42
31.74416390083206
  3
ABECAD_3D
100
AcDbAlignedDimension
 13
984.5519339252236
 23
462.1755057445026
 33
3.192577527778286
 14
984.5519339252236
 24
430.4313418436705
 34
3.192577527778286
 50
90.0
100
AcDbRotatedDimension
1001
ACAD
1000
DSTYLE
1002
{
1070
    44
1040
3.799999999999999
1070
    41
1040
3.799999999999999
1070
   140
1040
3.799999999999999
1002
}
  0
DIMENSION
  5
59CBE
330
458D6
100
AcDbEntity
  8
AREA1
100
AcDbDimension
  2
*D7
 10
937.1084021732819
 20
422.8125275962925
 30
3.646124999999996
 11
930.5082224973943
 21
445.6982940747902
 31
3.646124999999996
 70
   160
 71
     5
 42
46.98179239558953
  3
ABECAD_3D
100
AcDbAlignedDimension
 13
990.1389300054097
 23
469.7943199918821
 33
3.192577527778286
 14
990.1389300054097
 24
422.8125275962925
 34
3.192577527778286
 50
90.0
100
AcDbRotatedDimension
1001
ACAD
1000
DSTYLE
1002
{
1070
    44
1040
3.799999999999999
1070
    41
1040
3.799999999999999
1070
   140
1040
3.799999999999999
1002
}
  0
DIMENSION
  5
59CCB
330
458D6
100
AcDbEntity
  8
AREA1
100
AcDbDimension
  2
*D8
 10
992.6784863511175
 20
497.9211203375913
 30
3.646124999999996
 11
962.0526731257134
 21
497.9615637611429
 31
3.646124999999996
 70
   160
 71
     5
 42
2.539556345707751
  3
ABECAD_3D
100
AcDbAlignedDimension
 13
990.1389300054097
 23
471.6989872511616
 33
3.192577527778286
 14
992.6784863511175
 24
471.6989872511616
 34
3.192577527778286
100
AcDbRotatedDimension
1001
ACAD
1000
DSTYLE
1002
{
1070
    44
1040
3.799999999999999
1070
    41
1040
3.799999999999999
1070
   140
1040
3.799999999999999
1002
}
  0
DIMENSION
  5
59CD9
330
458D6
100
AcDbEntity
  8
AREA1
100
AcDbDimension
  2
*D9
 10
1040.708070315274
 20
481.8712118885583
 30
3.646124999999996
 11
1018.549888359773
 21
489.8585817318157
 31
3.646124999999996
 70
   160
 71
     5
 42
46.75980579130305
  3
ABECAD_3D
100
AcDbAlignedDimension
 13
993.9482645239715
 23
472.460633435285
 33
3.192577527778286
 14
1040.708070315274
 24
469.1588383425373
 34
3.192577527778286
100
AcDbRotatedDimension
1001
ACAD
1000
DSTYLE
1002
{
1070
    44
1040
3.799999999999999
1070
    41
1040
3.799999999999999
1070
   140
1040
3.799999999999999
1002
}
  0
DIMENSION
  5
59D0B
330
458D6
100
AcDbEntity
  8
AREA1
100
AcDbDimension
  2
*D10
 10
1067.635772684125
 20
420.9072677740937
 30
3.646124999999996
 11
1067.635772684125
 21
448.8629089526622
 31
3.646124999999996
 70
   160
 71
     5
 42
50.79112691415105
  3
ABECAD_3D
100
AcDbAlignedDimension
 13
1038.168513969566
 23
471.6983946882448
 33
3.192577527778286
 14
1004.392414571657
 24
420.9072677740937
 34
3.192577527778286
 50
90.0
100
AcDbRotatedDimension
1001
ACAD
1000
DSTYLE
1002
{
1070
    44
1040
3.799999999999999
1070
    41
1040
3.799999999999999
1070
   140
1040
3.799999999999999
1002
}
  0
DIMENSION
  5
59D19
330
458D6
100
AcDbEntity
  8
AREA1
100
AcDbDimension
  2
*D11
 10
1053.088048236032
 20
385.2296120623956
 30
3.646124999999996
 11
1081.553318342042
 21
406.3243869839964
 31
3.646124999999996
 70
   160
 71
     5
 42
61.04942551167926
  3
ABECAD_3D
100
AcDbAlignedDimension
 13
968.6805714380364
 23
446.2790375740748
 33
3.537142902060469
 14
1032.947564069156
 24
385.2296120623956
 34
3.230555996984959
 50
90.0
100
AcDbRotatedDimension
1001
ACAD
1000
DSTYLE
1002
{
1070
    44
1040
3.799999999999999
1070
    41
1040
3.799999999999999
1070
   140
1040
3.799999999999999
1002
}
  0
DIMENSION
  5
59D30
330
458D6
100
AcDbEntity
  8
AREA1
100
AcDbDimension
  2
*D12
 10
990.1389300054097
 20
410.4622143316492
 30
3.646124999999996
 11
960.1845019153355
 21
410.4533170875787
 31
3.646124999999996
 70
   160
 71
     5
 42
2.53955634570525
  3
ABECAD_3D
100
AcDbAlignedDimension
 13
987.5993736597045
 23
420.9078603370115
 33
3.192577527778286
 14
990.1389300054097
 24
420.9078603370115
 34
3.192577527778286
100
AcDbRotatedDimension
1001
ACAD
1000
DSTYLE
1002
{
1070
    44
1040
3.799999999999999
1070
    41
1040
3.799999999999999
1070
   140
1040
3.799999999999999
1002
}
  0
DIMENSION
  5
59D3E
330
458D6
100
AcDbEntity
  8
AREA1
100
AcDbDimension
  2
*D13
 10
993.9482645239715
 20
398.5308863889216
 30
3.646124999999996
 11
966.435689393552
 21
398.2988438094131
 31
3.646124999999996
 70
   160
 71
     5
 42
1.269778172854103
  3
ABECAD_3D
100
AcDbAlignedDimension
 13
992.6784863511175
 23
420.9078603370115
 33
3.192577527778286
 14
993.9482645239715
 24
420.1462141528882
 34
3.192577527778286
100
AcDbRotatedDimension
1001
ACAD
1000
DSTYLE
1002
{
1070
    44
1040
3.799999999999999
1070
    41
1040
3.799999999999999
1070
   140
1040
3.799999999999999
1002
}
  0
LINE
  5
59F23
330
458D6
100
AcDbEntity
  8
SCALE
100
AcDbLine
 10
739.5825357438296
 20
442.4754207558943
 30
3.646124999999996
 11
764.9825357438296
 21
442.4754207558943
 31
3.646124999999996
  0
LINE
  5
59F24
330
458D6
100
AcDbEntity
  8
SCALE
100
AcDbLine
 10
764.9825357438296
 20
439.9354207558944
 30
3.646124999999996
 11
764.9825357438296
 21
445.0154207558945
 31
3.646124999999996
  0
LINE
  5
59F25
330
458D6
100
AcDbEntity
  8
SCALE
100
AcDbLine
 10
739.5825357438296
 20
439.9354207558944
 30
3.646124999999996
 11
739.5825357438296
 21
445.0154207558945
 31
3.646124999999996
  0
LINE
  5
59F26
330
458D6
100
AcDbEntity
  8
SCALE
100
AcDbLine
 10
739.5825357438297
 20
447.6618444931877
 30
3.646124999999996
 11
739.5825357438297
 21
452.7418444931876
 31
3.646124999999996
  0
LINE
  5
59F27
330
458D6
100
AcDbEntity
  8
SCALE
100
AcDbLine
 10
749.5825157438298
 20
447.6618444931877
 30
3.646124999999996
 11
749.5825157438298
 21
452.7418444931876
 31
3.646124999999996
  0
LINE
  5
59F28
330
458D6
100
AcDbEntity
  8
SCALE
100
AcDbLine
 10
739.5825357438297
 20
450.2018444931876
 30
3.646124999999996
 11
749.5825157438298
 21
450.2018444931876
 31
3.646124999999996
  0
TEXT
  5
59F29
330
458D6
100
AcDbEntity
  8
SCALE
100
AcDbText
 10
741.0918584846036
 20
451.3636314831502
 30
3.646124999999996
 40
1.587499999999999
  1
10 mm
100
AcDbText
  0
TEXT
  5
59F2A
330
458D6
100
AcDbEntity
  8
SCALE
100
AcDbText
 10
747.1804284769177
 20
444.2292576183737
 30
3.646124999999996
 40
1.587499999999999
  1
[1 Inch]
100
AcDbText
  0
TEXT
  5
59F2B
330
458D6
100
AcDbEntity
  8
SCALE
100
AcDbText
 10
739.3886198239591
 20
455.7353821080395
 30
3.646124999999996
 40
1.587499999999999
  1
SCALE:
100
AcDbText
  0
LWPOLYLINE
  5
59F2C
330
458D6
100
AcDbEntity
  8
SCALE
100
AcDbPolyline
 90
        4
 70
     1
 43
0.0
 38
3.646124999999996
 10
737.8765850153374
 20
458.4074925227768
 10
766.7215570317035
 20
458.4074925227768
 10
766.7215570317035
 20
437.0306095266151
 10
737.8765850153374
 20
437.0306095266151
  0
VIEWPORT
  5
48102
102
{ACAD_XDICTIONARY
360
59F33
102
}
330
458D3
100
AcDbEntity
 67
     1
  8
0
100
AcDbViewport
 10
151.36892712747
 20
113.2877645513726
 30
0.0
 40
366.2235181825348
 41
189.6790584679584
 68
     2
 69
     1
 12
151.36892712747
 22
113.2877645513726
 13
0.0
 23
0.0
 14
0.5
 24
0.5
 15
0.5
 25
0.5
 16
0.0
 26
0.0
 36
1.0
 17
0.0
 27
0.0
 37
0.0
 42
50.0
 43
0.0
 44
0.0
 45
189.6790584679584
 50
0.0
 51
0.0
 72
 20000
 90
    32800
  1

281
     0
 71
     1
 74
     0
110
0.0
120
0.0
130
0.0
111
1.0
121
0.0
131
0.0
112
0.0
122
1.0
132
0.0
 79
     0
146
0.0
  0
VIEWPORT
  5
48104
102
{ACAD_XDICTIONARY
360
59F35
102
}
330
458D3
100
AcDbEntity
 67
     1
  8
AREA1
100
AcDbViewport
 10
128.5935853097791
 20
93.57174786820314
 30
0.0
 40
205.4128293804416
 41
148.1434957364063
 68
     1
 69
     2
 12
682.3658656940936
 22
423.6637325533446
 13
0.0
 23
0.0
 14
0.25
 24
0.25
 15
0.25
 25
0.25
 16
0.0
 26
0.0
 36
1.0
 17
272.824838996967
 27
8.306349224220612
 37
23.31369335295995
 42
50.0
 43
0.0
 44
0.0
 45
228.1274611347858
 50
0.0
 51
0.0
 72
 20000
 90
    32800
  1

281
     0
 71
     1
 74
     0
110
266.8673580196576
120
8.203180508612135
130
3.646124999999996
111
1.0
121
0.0
131
0.0
112
0.0
122
1.0
132
0.0
 79
     1
146
0.0
  0
TEXT
  5
4810E
330
458D3
100
AcDbEntity
 67
     1
  8
0
100
AcDbText
 10
133.2323326534653
 20
186.9455936734827
 30
0.0
 40
5.113019999999999
  1
845GM-S*
100
AcDbText
  0
TEXT
  5
4810F
330
458D3
100
AcDbEntity
 67
     1
  8
0
100
AcDbText
 10
133.2323326534653
 20
178.4238936734827
 30
0.0
 40
5.113
  1
Single-Turn, Size 20
100
AcDbText
  0
TEXT
  5
566D3
330
458D3
100
AcDbEntity
 67
     1
  8
0
100
AcDbText
 10
133.3449136584272
 20
170.2051663405579
 30
0.0
 40
5.113
  1
English Servo
100
AcDbText
  0
ENDSEC
  0
SECTION
  2
OBJECTS
  0
DICTIONARY
  5
458CB
330
0
100
AcDbDictionary
281
     1
  3
ACAD_COLOR
350
459D8
  3
ACAD_GROUP
350
458CC
  3
ACAD_LAYOUT
350
458FB
  3
ACAD_MATERIAL
350
459D7
  3
ACAD_MLINESTYLE
350
458D9
  3
ACAD_PLOTSETTINGS
350
458FC
  3
ACAD_PLOTSTYLENAME
350
458F9
  3
ACAD_TABLESTYLE
350
46C32
  3
ACDBVARIABLEDICTIONARY
350
458E1
  3
DWGPROPS
350
59F2E
  0
DICTIONARY
  5
480DB
330
458C1
100
AcDbDictionary
280
     1
281
     1
  3
ACAD_LAYERFILTERS
360
480DF
  3
ACAD_LAYERSTATES
360
48105
  3
ACLYDICTIONARY
360
480DE
  0
DICTIONARY
  5
45930
330
458D6
100
AcDbDictionary
280
     1
281
     1
  3
ACAD_LAYOUTSELFREF
360
459C8
  0
DICTIONARY
  5
4592E
330
458D3
100
AcDbDictionary
280
     1
281
     1
  3
ACAD_LAYOUTSELFREF
360
459C7
  0
DICTIONARY
  5
59F33
330
48102
100
AcDbDictionary
280
     1
281
     1
  3
ACAD_XREC_ROUNDTRIP
360
59F34
  0
DICTIONARY
  5
59F35
330
48104
100
AcDbDictionary
280
     1
281
     1
  3
ACAD_XREC_ROUNDTRIP
360
59F36
  0
DICTIONARY
  5
459D8
102
{ACAD_REACTORS
330
458CB
102
}
330
458CB
100
AcDbDictionary
281
     1
  0
DICTIONARY
  5
458CC
102
{ACAD_REACTORS
330
458CB
102
}
330
458CB
100
AcDbDictionary
281
     1
  0
DICTIONARY
  5
458FB
102
{ACAD_REACTORS
330
458CB
102
}
330
458CB
100
AcDbDictionary
281
     1
  3
Layout1
350
458FE
  3
Model
350
458FD
  0
DICTIONARY
  5
459D7
102
{ACAD_REACTORS
330
458CB
102
}
330
458CB
100
AcDbDictionary
281
     1
  0
DICTIONARY
  5
458D9
102
{ACAD_REACTORS
330
458CB
102
}
330
458CB
100
AcDbDictionary
281
     1
  3
STANDARD
350
458DA
  0
DICTIONARY
  5
458FC
102
{ACAD_REACTORS
330
458CB
102
}
330
458CB
100
AcDbDictionary
281
     1
  0
ACDBDICTIONARYWDFLT
  5
458F9
102
{ACAD_REACTORS
330
458CB
102
}
330
458CB
100
AcDbDictionary
281
     1
  3
Normal
350
458FA
100
AcDbDictionaryWithDefault
340
458FA
  0
DICTIONARY
  5
46C32
102
{ACAD_REACTORS
330
458CB
102
}
330
458CB
100
AcDbDictionary
281
     1
  3
Standard
350
46C33
  0
DICTIONARY
  5
458E1
102
{ACAD_REACTORS
330
458CB
102
}
330
458CB
100
AcDbDictionary
281
     1
  3
CTABLESTYLE
350
46C39
  3
DIMADEC
350
458E2
  3
DIMASSOC
350
46C46
  3
PROJECTNAME
350
46C47
  0
XRECORD
  5
59F2E
102
{ACAD_REACTORS
330
458CB
102
}
330
458CB
100
AcDbXrecord
280
     1
  1
DWGPROPS COOKIE
  2

  3

  4

  6

  7

  8
TModica
  9

300
=
301
=
302
=
303
=
304
=
305
=
306
=
307
=
308
=
309
=
 40
0.2848367708333333
 41
2453042.595653843
 42
2453597.696459536
  1

 90
        0
  0
DICTIONARY
  5
480DF
102
{ACAD_REACTORS
330
480DB
102
}
330
480DB
100
AcDbDictionary
281
     1
  0
DICTIONARY
  5
48105
102
{ACAD_REACTORS
330
480DB
102
}
330
480DB
100
AcDbDictionary
281
     1
  0
DICTIONARY
  5
480DE
102
{ACAD_REACTORS
330
480DB
102
}
330
480DB
100
AcDbDictionary
281
     1
1001
ACAD
1000
<All
  0
XRECORD
  5
459C8
102
{ACAD_REACTORS
330
45930
102
}
330
45930
100
AcDbXrecord
280
     1
340
458D6
  0
XRECORD
  5
459C7
102
{ACAD_REACTORS
330
4592E
102
}
330
4592E
100
AcDbXrecord
280
     1
340
458D3
  0
XRECORD
  5
59F34
102
{ACAD_REACTORS
330
59F33
102
}
330
59F33
100
AcDbXrecord
280
     1
102
SHADEPLOT
 70
     0
  0
XRECORD
  5
59F36
102
{ACAD_REACTORS
330
59F35
102
}
330
59F35
100
AcDbXrecord
280
     1
102
SHADEPLOT
 70
     0
  0
LAYOUT
  5
458FE
102
{ACAD_XDICTIONARY
360
48133
102
}
102
{ACAD_REACTORS
330
458FB
102
}
330
458FB
100
AcDbPlotSettings
  1

  2
\\usmkevprnt001\USMKEPD0487
  4
Letter
  6

 40
7.143749713897705
 41
5.027085304260253
 42
7.14373779296875
 43
5.027069091796875
 44
215.8999938964843
 45
279.3999938964843
 46
-0.0000000000000113
 47
14.56436523858406
 48
0.0
 49
0.0
140
0.0
141
0.0
142
1.0
143
21.73966717538989
 70
   692
 72
     0
 73
     1
 74
     1
  7
acad.ctb
 75
     0
147
0.0459988642849159
148
-652.7799999999996
149
-495.2999999999999
100
AcDbLayout
  1
Layout1
 70
     1
 71
     1
 10
8.931840085394117
 20
13.38571885179438
 11
248.0681737907302
 21
198.1728846186557
 12
0.0
 22
0.0
 32
0.0
 14
25.88717061955833
 24
19.5
 34
0.0
 15
231.3
 25
192.0586136734827
 35
0.0
146
0.0
 13
0.0
 23
0.0
 33
0.0
 16
1.0
 26
0.0
 36
0.0
 17
0.0
 27
1.0
 37
0.0
 76
     0
330
458D3
331
48104
1001
ACAD_PSEXT
1000
\\usmkevprnt001\USMKEPD0487
1000
RICOH Aficio 2035 PCL 5e
1000
MKE - 7H29
1000
IKON ID: N/A FAX: N/A UNIX: N/A MAINFRAME: R5074
1070
     0
  0
LAYOUT
  5
458FD
102
{ACAD_XDICTIONARY
360
59F30
102
}
102
{ACAD_REACTORS
330
458FB
102
}
330
458FB
100
AcDbPlotSettings
  1

  2
\\usmkevprnt001\USMKEPD0487
  4
Letter
  6

 40
7.143749713897705
 41
5.027085304260253
 42
7.14373779296875
 43
5.027069091796875
 44
215.8999938964843
 45
279.3999938964843
 46
69.08278724492785
 47
0.0
 48
0.0
 49
0.0
140
0.0
141
0.0
142
1.0
143
46.08643047371788
 70
 11956
 72
     0
 73
     1
 74
     1
  7
acad.ctb
 75
     0
147
0.0216983608780524
148
12526.7129110102
149
-10456.17513608382
100
AcDbLayout
  1
Model
 70
     1
 71
     0
 10
0.0
 20
0.0
 11
12.0
 21
9.0
 12
0.0
 22
0.0
 32
0.0
 14
0.0
 24
0.0
 34
0.0
 15
0.0
 25
0.0
 35
0.0
146
0.0
 13
0.0
 23
0.0
 33
0.0
 16
1.0
 26
0.0
 36
0.0
 17
0.0
 27
1.0
 37
0.0
 76
     0
330
458D6
1001
ACAD_PSEXT
1000
\\usmkevprnt001\USMKEPD0487
1000
RICOH Aficio 2035 PCL 5e
1000
MKE - 7H29
1000
IKON ID: N/A FAX: N/A UNIX: N/A MAINFRAME: R5074
1070
     0
  0
MLINESTYLE
  5
458DA
102
{ACAD_REACTORS
330
458D9
102
}
330
458D9
100
AcDbMlineStyle
  2
STANDARD
 70
     0
  3

 62
   256
 51
90.0
 52
90.0
 71
     2
 49
0.5
 62
   256
  6
BYLAYER
 49
-0.5
 62
   256
  6
BYLAYER
  0
ACDBPLACEHOLDER
  5
458FA
102
{ACAD_REACTORS
330
458F9
102
}
330
458F9
  0
ACAD_PROXY_OBJECT
  5
46C33
102
{ACAD_REACTORS
330
46C32
102
}
330
46C32
100
AcDbProxyObject
 90
      499
 91
      512
 95
   393239
 70
     0
 93
     1841
310
4214DD185B99185C9928000000000000F83F0000000000003E0FC00000000000004901028000000C1008070000C3001FDFF8000000C1003FBFF000000182007F7FE00000030400FEFFC00000060801FDFF8000000C1003FBFF000000182000000000000000C2020B0000001820100E000186003FBFF000000182007F7FE000
310
00030400FEFFC00000060801FDFF8000000C1003FBFF000000182007F7FE0000003040000000000000012404160000003040201C00030C007F7FE00000030400FEFFC00000060801FDFF8000000C1003FBFF000000182007F7FE00000030400FEFFC00000060801A
340
458CE
340
458CE
340
458CE
 94
        0
  0
DICTIONARYVAR
  5
46C39
102
{ACAD_REACTORS
330
458E1
102
}
330
458E1
100
DictionaryVariables
280
     0
  1
STANDARD
  0
DICTIONARYVAR
  5
458E2
102
{ACAD_REACTORS
330
458E1
102
}
330
458E1
100
DictionaryVariables
280
     0
  1
0
  0
DICTIONARYVAR
  5
46C46
102
{ACAD_REACTORS
330
458E1
102
}
330
458E1
100
DictionaryVariables
280
     0
  1
1
  0
DICTIONARYVAR
  5
46C47
102
{ACAD_REACTORS
330
458E1
102
}
330
458E1
100
DictionaryVariables
280
     0
  1

  0
DICTIONARY
  5
48133
330
458FE
100
AcDbDictionary
280
     1
281
     1
  3
ACAD_XREC_ROUNDTRIP
360
59F32
  3
ADSK_XREC_LAYOUTTHUMBNAIL
360
48134
  0
DICTIONARY
  5
59F30
330
458FD
100
AcDbDictionary
280
     1
281
     1
  3
ACAD_XREC_ROUNDTRIP
360
59F31
  0
XRECORD
  5
59F32
102
{ACAD_REACTORS
330
48133
102
}
330
48133
100
AcDbXrecord
280
     1
102
SHADEPLOT
 70
     0
102
SHADEPLOTRESLEVEL
 70
     2
102
SHADEPLOTCUSTOMDPI
 70
   300
  0
XRECORD
  5
48134
102
{ACAD_REACTORS
330
48133
102
}
330
48133
100
AcDbXrecord
280
     1
310
28000000B40000008B0000000100080000000000BC61000000000000000000000001000000000000FFFFFF0000000000FFFFFF000000000000000000000000000000000000000000000000000000000000000000330000006600000099000000CC000000FF00000000330000333300006633000099330000CC330000FF3300
310
0000660000336600006666000099660000CC660000FF66000000990000339900006699000099990000CC990000FF99000000CC000033CC000066CC000099CC0000CCCC0000FFCC000000FF000033FF000066FF000099FF0000CCFF0000FFFF000000003300330033006600330099003300CC003300FF003300003333003333
310
33006633330099333300CC333300FF33330000663300336633006666330099663300CC663300FF66330000993300339933006699330099993300CC993300FF99330000CC330033CC330066CC330099CC3300CCCC3300FFCC330000FF330033FF330066FF330099FF3300CCFF3300FFFF330000006600330066006600660099
310
006600CC006600FF00660000336600333366006633660099336600CC336600FF33660000666600336666006666660099666600CC666600FF66660000996600339966006699660099996600CC996600FF99660000CC660033CC660066CC660099CC6600CCCC6600FFCC660000FF660033FF660066FF660099FF6600CCFF6600
310
FFFF660000009900330099006600990099009900CC009900FF00990000339900333399006633990099339900CC339900FF33990000669900336699006666990099669900CC669900FF66990000999900339999006699990099999900CC999900FF99990000CC990033CC990066CC990099CC9900CCCC9900FFCC990000FF99
310
0033FF990066FF990099FF9900CCFF9900FFFF99000000CC003300CC006600CC009900CC00CC00CC00FF00CC000033CC003333CC006633CC009933CC00CC33CC00FF33CC000066CC003366CC006666CC009966CC00CC66CC00FF66CC000099CC003399CC006699CC009999CC00CC99CC00FF99CC0000CCCC0033CCCC0066CC
310
CC0099CCCC00CCCCCC00FFCCCC0000FFCC0033FFCC0066FFCC0099FFCC00CCFFCC00FFFFCC000000FF003300FF006600FF009900FF00CC00FF00FF00FF000033FF003333FF006633FF009933FF00CC33FF00FF33FF000066FF003366FF006666FF009966FF00CC66FF00FF66FF000099FF003399FF006699FF009999FF00CC
310
99FF00FF99FF0000CCFF0033CCFF0066CCFF0099CCFF00CCCCFF00FFCCFF0000FFFF0033FFFF0066FFFF0099FFFF00CCFFFF00FFFFFF00000000000D0D0D001A1A1A00282828003535350043434300505050005D5D5D006B6B6B00787878008686860093939300A1A1A100AEAEAE00BBBBBB00C9C9C900D6D6D600E4E4E400
310
F1F1F100FFFFFF0000000000000000000000000000000000000000000000000000000000000000000000000000000000E2E2E2E2E2E2E2E2E2E2E2E2E2E2E2E2E2E2E2E2E2E2E2E2E2E2E2E2E2E2E2E2E2E2E2E2E2E2E2E2E2E2E2E2E2E2E2E2E2E2E2E2E2E2E2E2E2E2E2E2E2E2E2E2E2E2E2E2E2E2E2E2E2E2E2E2E2E2E2
310
E2E2E2E2E2E2E2E2E2E2E2E2E2E2E2E2E2E2E2E2E2E2E2E2E2E2E2E2E2E2E2E2E2E2E2E2E2E2E2E2E2E2E2E2E2E2E2E2E2E2E2E2E2E2E2E2E2E2E2E2E2E2E2E2E2E2E2E2E2E2E2E2E2E2E2E2E2E2E2E2E2E2E2E2E2E2E2E2E2E2E2E2E2E2E2E2E2E2E2E2E2E2F5F5F5F5F5F5F5F5F5F5F5F5F5F5F5F5F5F5F5F5F5F5F5F5F5
310
F5F5F5F5F5F5F5F5F5F5F5F5F5F5F5F5F5F5F5F5F5F5F5F5F5F5F5F5F5F5F5F5F5F5F5F5F5F5F5F5F5F5F5F5F5F5F5F5F5F5F5F5F5F5F5F5F5F5F5F5F5F5F5F5F5F5F5F5F5F5F5F5F5F5F5F5F5F5F5F5F5F5F5F5F5F5F5F5F5F5F5F5F5F5F5F5F5F5F5F5F5F5F5F5F5F5F5F5F5F5F5F5F5F5F5F5F5F5F5F5F5F5F5F5F5F5F5
310
F5F5F5F5F5F5F5F5F5F5F5F5F5F5F5F5F5F5F5F5F5F5F5F5E2E2E2E2F5F5F5F5F5F5F5F5F5F5F5F5F5F5F5F5F5F5F5F5F5F5F5F5F5F5F5F5F5F5F5F5F5F5F5F5F5F5F5F5F5F5F5F5F5F5F5F5F5F5F5F5F5F5F5F5F5F5F5F5F5F5F5F5F5F5F5F5F5F5F5F5F5F5F5F5F5F5F5F5F5F5F5F5F5F5F5F5F5F5F5F5F5F5F5F5F5F5F5
310
F5F5F5F5F5F5F5F5F5F5F5F5F5F5F5F5F5F5F5F5F5F5F5F5F5F5F5F5F5F5F5F5F5F5F5F5F5F5F5F5F5F5F5F5F5F5F5F5F5F5F5F5F5F5F5F5F5F5F5F5F5F5F5F5F5F5F5F5F5F5F5F5F5F5F5F5F5E2E2E2E2F5F5F5F5F5F5F5F5F5F5F5F5F5F5F5F5F5F5F5F5F5F5F5F5F5F5F5F5F5F5F5F5F5F5F5F5F5F5F5F5F5F5F5F5F5F5
310
F5F5F5F5F5F5F5F5F5F5F5F5F5F5F5F5F5F5F5F5F5F5F5F5F5F5F5F5F5F5F5F5F5F5F5F5F5F5F5F5F5F5F5F5F5F5F5F5F5F5F5F5F5F5F5F5F5F5F5F5F5F5F5F5F5F5F5F5F5F5F5F5F5F5F5F5F5F5F5F5F5F5F5F5F5F5F5F5F5F5F5F5F5F5F5F5F5F5F5F5F5F5F5F5F5F5F5F5F5F5F5F5F5F5F5F5F5F5F5F5F5F5F5F5F5F5F5
310
F5F5F5E2E2E2E2F5F5F5F5F5F5F5F5F5F5F5F5F5F5F5F5F5F5F5F5F5F5F5F5F5F5F5F5F5F5F5F5F5F5F5F5F5F5F5F5F5F5F5F5F5F5F5F5F5F5F5F5F5F5F5F5F5F5F5F5F5F5F5F5F5F5F5F5F5F5F5F5F5F5F5F5F5F5F5F5F5F5F5F5F5F5F5F5F5F5F5F5F5F5F5F5F5F5F5F5F5F5F5F5F5F5F5F5F5F5F5F5F5F5F5F5F5F5F5F5
310
F5F5F5F5F5F5F5F5F5F5F5F5F5F5F5F5F5F5F5F5F5F5F5F5F5F5F5F5F5F5F5F5F5F5F5F5F5F5F5F5F5F5F5F5F5F5F5F5F5F5F5F5F5F5F5F5E2E2E2E2F5F5E2E2E2E2E2E2E2E2F5E2E2E2E2E2E2E2E2E2E2E2E2E2E2E2E2E2E2E2E2E2E2E2E2E2E2E2E2E2E2E2E2E2E2E2E2E2E2E2E2E2E2E2E2E2E2E2E2E2E2E2E2E2E2E2E2
310
E2E2E2E2E2E2E2E2E2E2E2E2E2E2E2E2E2E2E2E2E2E2E2E2E2E2E2E2E2E2E2E2E2E2E2E2E2E2E2E2E2E2E2E2E2E2E2E2E2E2E2E2E2E2E2E2E2E2E2E2E2E2E2E2E2E2E2E2E2E2E2E2E2E2E2E2E2E2E2E2E2E2E2E2E2E2E2E2E2E2E2E2E2E2E2E2E2E2F5E2E2E2E2E2E2E2E2F5F5E2E2E2E2F5F5E2F5F5F5F5F5F5F5F5E2F5F5
310
F5F5F5F5F5F5F5F5F5F5F5F5F5F5F5F5F5F5F5F5F5F5F5F5F5F5F5F5F5F5F5F5F5F5F5F5F5F5F5F5F5F5F5F5F5F5F5F5F5F5F5F5F5F5F5F5F5F5F5F5F5F5F5F5F5F5F5F5F5F5F5F5F5F5F5F5F5F5F5F5F5F5F5F5F5F5F5F5F5F5F5F5F5F5F5F5F5F5F5F5F5F5F5F5F5F5F5F5F5F5F5F5F5F5F5F5F5F5F5F5F5F5F5F5F5F5F5
310
F5F5F5F5F5F5F5F5F5F5F5F5F5F5F5F5F5F5F5F5F5F5F5E2F5F5F5F5F5F5F5F5E2F5F5E2E2E2E2F5F5E2F5F5F5F5F5F5F5F5E2F5F5F5F5F5F5F5F5F5F5F5F5F5F5F5F5F5F5F5F5F5F5F5F5F5F5F5F5F5F5F5F5F5F5F5F5F5F5F5F5F5F5F5F5F5F5F5F5F5F5F5F5F5F5F5F5F5F5F5F5F5F5F5F5F5F5F5F5F5F5F5F5F5F5F5F5
310
F5F5F5F5F5F5F5F5F5F5F5F5F5F5F5F5F5F5F5F5F5F5F5F5F5F5F5F5F5F5F5F5F5F5F5F5F5F5F5F5F5F5F5F5F5F5F5F5F5F5F5F5F5F5F5F5F5F5F5F5F5F5F5F5F5F5F5F5F5F5F5F5F5F5F5F5E2F5F5F5F5F5F5F5F5E2F5F5E2E2E2E2F5F5E2F5F5F5F5F5F5F5F5E2F5F5F5F5F5F5F5F5F5F5F5F5F5F5F5F5F5F5F5F5F5F5F5
310
F5F5F5F5F5F5F5F5F5F5F5F5F5F5F5F5F5F5F5F5F5F5F5F5F5F5F5F5F5F5F5F5F5F5F5F5F5F5F5F5F5F5F5F5F5F5F5F5F5F5F5F5F5F5F5F5F5F5F5F5F5F5F5F5F5F5F5F5F5F5F5F5F5F5F5F5F5F5F5F5F5F5F5F5F5F5F5F5F5F5F5F5F5F5F5F5F5F5F5F5F5F5F5F5F5F5F5F5F5F5F5F5F5F5F5F5F5F5F5F5F5F5F5F5F5F5F5
310
F5F5E2F5F5F5F5F5F5F5F5E2F5F5E2E2E2E2F5F5E2F5F5F5F5F5F5F5F5E2F5F5F5F5F5F5F5F5F5F5F5F5F5F5F5F5F5F5F5F5F5F5F5F5F5F5F5F5F5F5F5F5F5F5F5F5F5F5F5F5F5F5F5F5F5F5F5F5F5F5F5F5F5F5F5F5F5F5F5F5F5F5F5F5F5F5F5F5F5F5F5F5F5F5F5F5F5F5F5F5F5F5F5F5F5F5F5F5F5F5F5F5F5F5F5F5F5
310
F5F5F5F5F5F5F5F5F5F5F5F5F5F5F5F5F5F5F5F5F5F5F5F5F5F5F5F5F5F5F5F5F5F5F5F5F5F5F5F5F5F5F5F5F5F5F5F5F5F5F5F5F5F5F5E2F5F5F5F5F5F5F5F5E2F5F5E2E2E2E2F5F5E2F5F5F5F5F5F5F5F5E2F5F5F5F5F5F5F5F5F5F5F5F5F5F5F5F5F5F5F5F5F5F5F5F5F5F5F5F5F5F5F5F5F5F5F5F5F5F5F5F5F5F5F5F5
310
F5F5F5F5F5F5F5F5F5F5F5F5F5F5F5F5F5F5F5F5F5F5F5F5F5F5F5F5F5F5F5F5F5F5F5F5F5F5F5F5F5F5F5F5F5F5F5F5F5F5F5F5F5F5F5F5F5F5F5F5F5F5F5F5F5F5F5F5F5F5F5F5F5F5F5F5F5F5F5F5F5F5F5F5F5F5F5F5F5F5F5F5F5F5F5F5F5F5F5F5F5F5F5F5F5F5F5F5E2F5F5F5F5F5F5F5F5E2F5F5E2E2E2E2F5F5E2
310
F5F5F5F5F5F5F5F5E2F5F5F5F5F5F5F5F5F5F5F5F5F5F5F5F5F5F5F5F5F5F5F5F5F5F5F5F5F5F5F5F5F5F5F5F5F5F5F5F5F5F5F5F5F5F5F5F5F5F5F5F5F5F5F5F5F5F5F5F5F5F5F5F5F5F5F5F5F5F5F5F5F5F5F5F5F5F5F5F5F5F5F5F5F5F5F5F5F5F5F5F5F5F5F5F5F5F5F5F5F5F5F5F5F5F5F5F5F5F5F5F5F5F5F5F5F5F5
310
F5F5F5F5F5F5F5F5F5F5F5F5F5F5F5F5F5F5F5F5F5F5F5F5F5F5F5F5F5F5F5F5F5F5E2F5F5F5F5F5F5F5F5E2F5F5E2E2E2E2F5F5E2F5F5F5F5F5F5F5F5E2F5F5F5F5F5F5F5F5F5F5F5F5F5F5F5F5F5F5F5F5F5F5F5F5F5F5F5F5F5F5F5F5F5F5F5F5F5F5F5F5F5F5F5F5F5F5F5F5F5F5F5F5F5F5F5F5F5F5F5F5F5F5F5F5F5
310
F5F5F5F5F5F5F5F5F5F5F5F5F5F5F5F5F5F5F5F5F5F5F5F5F5F5F5F5F5F5F5F5F5F5F5F5F5F5F5F5F5F5F5F5F5F5F5F5F5F5F5F5F5F5F5F5F5F5F5F5F5F5F5F5F5F5F5F5F5F5F5F5F5F5F5F5F5F5F5F5F5F5F5F5F5F5F5E2F5F5F5F5F5F5F5F5E2F5F5E2E2E2E2F5F5E2F5F5F5F5F5F5F5F5E2F5F5F5F5F5F5F5F5F5F5F5F5
310
F5F5F5F5F5F5F5F5F5F5F5F5F5F5F5F5F5F5F5F5F5F5F5F5F5F5F5F5F5F5F5F5F5F5F5F5F5F5F5F5F5F5F5F5F5F5F5F5F5F5F5F5F5F5F5F5F5F5F5F5F5F5F5F5F5F5F5F5F5F5F5F5F5F5F5F5F5F5F5F5F5F5F5F5F5F5F5F5F5F5F5F5F5F5F5F5F5F5F5F5F5F5F5F5F5F5F5F5F5F5F5F5F5F5F5F5F5F5F5F5F5F5F5F5F5F5F5
310
F5F5F5F5F5F5F5F5F5F5F5F5F5E2F5F5F5F5F5F5F5F5E2F5F5E2E2E2E2F5F5F5F5F5F5F5F5F5F5F5E2F5F5F5F5F5F5F5F5F5F5F5F5F5F5F5F5F5F5F5F5F5F5F5F5F5F5F5F5F5F5F5F5F5F5F5F5F5F5F5F5F5F5F5F5F5F5F5F5F5F5F5F5F5F5F5F5F5F5F5F5F5F5F5F5F5F5F5F5F5F5F5F5F5F5F5F5F5F5F5F5F5F5F5F5F5F5
310
F5F5F5F5F5F5F5F5F5F5F5F5F5F5F5F5F5F5F5F5F5F5F5F5F5F5F5F5F5F5F5F5F5F5F5F5F5F5F5F5F5F5F5F5F5F5F5F5F5F5F5F5F5F5F5F5F5F5F5F5F5F5F5F5F5F5E2F5F5F5F5F5F5F5F5F5F5F5E2E2E2E2F5F5F5F5F5F5F5F5F5F5F5E2F5F5F5F5F5F5F5F5F5F5F5F5F5F5F5F5F5F5F5F5F5F5F5F5F5F5F5F5F5F5F5F5F5
310
F5F5F5F5F5F5F5F5F5F5F5F5F5F5F5F5F5F5F5F5F5F5F5F5F5F5F5F5F5F5F5F5F5F5F5F5F5F5F5F5F5F5F5F5F5F5F5F5F5F5F5F5F5F5F5F5F5F5F5F5F5F5F5F5F5F5F5F5F5F5F5F5F5F5F5F5F5F5F5F5F5F5F5F5F5F5F5F5F5F5F5F5F5F5F5F5F5F5F5F5F5F5F5F5F5F5F5F5F5F5F5F5F5F5F5F5F5F5F5E2F5F5F5F5F5F5F5
310
F5F5F5F5E2E2E2E2F5F5F5F5F5F5F5F5F5F5F5E2F5F5F5F5F5F5F5F5F5F5F5F5F5F5F5F5F5F5F5F5F5F5F5F5F5F5F5F5F5F5F5F5F5F5F5F5F5F5F5F5F5F5F5F5F5F5F5F5F5F5F5F5F5F5F5F5F5F5F5F5F5F5F5F5F5F5F5F5F5F5F5F5F5F5F5F5F5F5F5F5F5F5F5F5F5F5F5F5F5F5F5F5F5F5F5F5F5F5F5F5F5F5F5F5F5F5F5
310
F5F5F5F5F5F5F5F5F5F5F5F5F5F5F5F5F5F5F5F5F5F5F5F5F5F5F5F5F5F5F5F5F5F5F5F5F5F5F5F5F5F5F5F5F5E2F5F5F5F5F5F5F5F5F5F5F5E2E2E2E2F5F5F5F5F5F5F5F5F5F5F5E2F5F5F5F5F5F5F5F5F5F5F5F5F5F5F5F5F5F5F5F5F5F5F5F5F5F5F5F5F5F5F5F5F5F5F5F5F5F5F5F5F5F5F5F5F5F5F5F5F5F5F5F5F5F5
310
F5F5F5F5F5F5F5F5F5F5F5F5F5F5F5F5F5F5F5F5F5F5F5F5F5F5F5F5F5F5F5F5F5F5F5F5F5F5F5F5F5F5F5F5F5F5F5F5F5F5F5F5F5F5F5F5F5F5F5F5F5F5F5F5F5F5F5F5F5F5F5F5F5F5F5F5F5F5F5F5F5F5F5F5F5F5F5F5F5F5F5F5F5F5F5F5F5F5E2F5F5F5F5F5F5F5F5F5F5F5E2E2E2E2F5F5F5F5F5F5F5F5F5F5F5E2F5
310
F5F5F5F5F5F5F5F5F5F5F5F5F5F5F5F5F5F5F5F5F5F5F5F5F5F5F5F5F5F5F5F5F5F5F5F5F5F5F5F5F5F5F5F5F5F5F5F5F5F5F5F5F5F5F5F5F5F5F5F5F5F5F5F5F5F5F5F5F5F5F5F5F5F5F5F5F5F5F5F5F5F5F5F5F5F5F5F5F5F5F5F5F5F5F5F5F5F5F5F5F5F5F5F5F5F5F5F5F5F5F5F5F5F5F5F5F5F5F5F5F5F5F5F5F5F5F5
310
F5F5F5F5F5F5F5F5F5F5F5F5F5F5F5F5F5F5F5F5F5F5F5F5E2F5F5F5F5F5F5F5F5F5F5F5E2E2E2E2F5F5F5F5F5F5F5F5F5F5F5E2F5F5F5F5F5F5F5F5F5F5F5F5F5F5F5F5F5F5F5F5F5F5F5F5F5F5F5F5F5F5F5F5F5F5F5F5F5F5F5F5F5F5F5F5F5F5F5F5F5F5F5F5F5F5F5F5F5F5F5F5F5F5F5F5F5F5F5F5F5F5F5F5F5F5F5
310
F5F5F5F5F5F5F5F5F5F5F5F5F5F5F5F5F5F5F5F5F5F5F5F5F5F5F5F5F5F5F5F5F5F5F5F5F5F5F5F5F5F5F5F5F5F5F5F5F5F5F5F5F5F5F5F5F5F5F5F5F5F5F5F5F5F5F5F5F5F5F5F5F5F5F5F5F5E2F5F5F5F5F5F5F5F5F5F5F5E2E2E2E2F5F5F5F5F5F5F5F5F5F5F5E2F5F5F5F5F5F5F5F5F5F5F5F5F5F5F5F5F5F5F5F5F5F5
310
F5F5F5F5F5F5F5F5F5F5F5F5F5F5F5F5F5F5F5F5F5F5F5F5F5F5F5F5F5F5F5F5F5F5F5F5F5F5F5F5F5F5F5F5F5F5F5F5F5F5F5F5F5F5F5F5F5F5F5F5F5F5F5F5F5F5F5F5F5F5F5F5F5F5F5F5F5F5F5F5F5F5F5F5F5F5F5F5F5F5F5F5F5F5F5F5F5F5F5F5F5F5F5F5F5F5F5F5F5F5F5F5F5F5F5F5F5F5F5F5F5F5F5F5F5F5F5
310
F5F5F5E2F5F5F5F5F5F5F5F5F5F5F5E2E2E2E2F5F5F5F5F5F5F5F5F5F5F5E2F5F5F5F5F5F5F5F5F5F5F5F5F5F5F5F5F5F5F5F5F5F5F5F5F5F5F5F5F5F5F5F5F5F5F5F5F5F5F5F5F5F5F5F5F5F5F5F5F5F5F5F5F5F5F5F5F5F5F5F5F5F5F5F5F5F5F5F5F5F5F5F5F5F5F5F5F5F5F5F5F5F5F5F5F5F5F5F5F5F5F5F5F5F5F5F5
310
F5F5F5F5F5F5F5F5F5F5F5F5F5F5F5F5F5F5F5F5F5F5F5F5F5F5F5F5F5F5F5F5F5F5F5F5F5F5F5F5F5F5F5F5F5F5F5F5F5F5F5F5F5F5F5F5E2F5F5F5F5F5F5F5F5F5F5F5E2E2E2E2F5F5F5F5F5F5F5F5F5F5F5E2F5F5F5F5F5F5F5F5F5F5F5F5F5F5F5F5F5F5F5F5F5F5F5F5F5F5F5F5F5F5F5F5F5F5F5F5F5F5F5F5F5F5F5
310
F5F5F5F5F5F5F5F5F5F5F5F5F5F5F5F5F5F5F5F5F5F5F5F5F5F5F5F5F5F5F5F5F5F5F5F5F5F5F5F5F5F5F5F5F5F5F5F5F5F5F5F5F5F5F5F5F5F5F5F5F5F5F5F5F5F5F5F5F5F5F5F5F5F5F5F5F5F5F5F5F5F5F5F5F5F5F5F5F5F5F5F5F5F5F5F5F5F5F5F5F5F5F5F5F5F5F5F5F5E2F5F5F5F5F5F5F5F5F5F5F5E2E2E2E2F5F5
310
E2F5F5F5F5F5F5F5F5E2F5F5F5F5F5F5F5F5F5F5F5F5F5F5F5F5F5F5F5F5F5F5F5F5F5F5F5F5F5F5F5F5F5F5F5F5F5F5F5F5F5F5F5F5F5F5F5F5F5F5F5F5F5F5F5F5F5F5F5F5F5F5F5F5F5F5F5F5F5F5F5F5F5F5F5F5F5F5F5F5F5F5F5F5F5F5F5F5F5F5F5F5F5F5F5F5F5F5F5F5F5F5F5F5F5F5F5F5F5F5F5F5F5F5F5F5F5
310
F5F5F5F5F5F5F5F5F5F5F5F5F5F5F5F5F5F5F5F5F5F5F5F5F5F5F5F5F5F5F5F5F5F5F5E2F5F5F5F5F5F5F5F5E2F5F5E2E2E2E2F5F5E2F5F5F5F5F5F5F5F5E2F5F5F5F5F5F5F5F5F5F5F5F5F5F5F5F5F5F5F5F5F5F5F5F5F5F5F5F5F5F5F5F5F5F5F5F5F5F5F5F5F5F5F5F5F5F5F5F5F5F5F5F5F5F5F5F5F5F5F5F5F5F5F5F5
310
F5F5F5F5F5F5F5F5F5F5F5F5F5F5F5F5F5F5F5F5F5F5F5F5F5F5F5F5F5F5F5F5F5F5F5F5F5F5F5F5F5F5F5F5F5F5F5F5F5F5F5F5F5F5F5F5F5F5F5F5F5F5F5F5F5F5F5F5F5F5F5F5F5F5F5F5F5F5F5F5F5F5F5F5F5F5F5F5E2F5F5F5F5F5F5F5F5E2F5F5E2E2E2E2F5F5E2F5F5F5F5F5F5F5F5E2F5F5F5F5F5F5F5F5F5F5F5
310
F5F5F5F5F5F5F5F5F5F5F5F5F5F5F5F5F5F5F5F5F5F5F5F5F5F5F5F5F5F5F5F5F5F5F5F5F5F5F5F5F5F5F5F5F5F5F5F5F5F5F5F5F5F5F5F5F5F5F5F5F5F5F5F5F5F5F5F5F5F5F5F5F5F5F5F5F5F5F5F5F5F5F5F5F5F5F5F5F5F5F5F5F5F5F5F5F5F5F5F5F5F5F5F5F5F5F5F5F5F5F5F5F5F5F5F5F5F5F5F5F5F5F5F5F5F5F5
310
F5F5F5F5F5F5F5F5F5F5F5F5F5F5E2F5F5F5F5F5F5F5F5E2F5F5E2E2E2E2F5F5E2F5F5F5F5F5F5F5F5E2F5F5F5F5F5F5F5F5F5F5F5F5F5F5F5F5F5F5F5F5F5F5F5F5F5F5F5F5F5F5F5F5F5F5F5F5F5F5F5F5F5F5F5F5F5F5F5F5F5F5F5F5F5F5F5F5F5F5F5F5F5F5F5F5F5F5F5F5F5F5F5F5F5F5F5F5F5F5F5F5F5F5F5F5F5
310
F5F5F5F5F5F5F5F5F5F5F5F5F5F5F5F5F5F5F5F5F5F5F5F5F5F5F5F5F5F5F5F5F5F5F5F5F5F5F5F5F5F5F5F5F5F5F5F5F5F5F5F5F5F5F5F5F5F5F5F5F5F5F5F5F5F5F5E2F5F5F5F5F5F5F5F5E2F5F5E2E2E2E2F5F5E2F5F5F5F5F5F5F5F5E2F5F5F5F5F5F5F5F5F5F5F5F5F5F5F5F5F5F5F5F5F5F5F5F5F5F5F5F5F5F5F5F5
310
F5F5F5F5F5F5F5F5F5F5F5F5F5F5F5F5F5F5F5F5F5F5F5F5F5F5F5F5F5F5F5F5F5F5F5F5F5F5F5F5F5F5F5F5F5F5F5F5F5F5F5F5F5F5F5F5F5F5F5F5F5F5F5F5F5F5F5F5F5F5F5F5F5F5F5F5F5F5F5F5F5F5F5F5F5F5F5F5F5F5F5F5F5F5F5F5F5F5F5F5F5F5F5F5F5F5F5F5F5F5F5F5F5F5F5F5F5F5F5F5E2F5F5F5F5F5F5
310
F5F5E2F5F5E2E2E2E2F5F5E2F5F5F5F5F5F5F5F5E2F5F5F5F5F5F5F5F5F5F5F5F5F5F5F5F5F5F5F5F5F5F5F5F5F5F5F5F5F5F5F5F5F5F5F5F5F5F5F5F5F5F5F5F5F5F5F5F5F5F5F5F5F5F5F5F5F5F5F5F5F5F5F5F5F5F5F5F5F5F5F5F5F5F5F5F5F5F5F5F5F5F5F5F5F5F5F5F5F5F5F5F5F5F5F5F5F5F5F5F5F5F5F5F5F5F5
310
F5F5F5F5F5F5F5F5F5F5F5F5F5F5F5F5F5F5F5F5F5F5F5F5F5F5F5F5F5F5F5F5F5F5F5F5F5F5F5F5F5F5F5F5F5F5E2F5F5F5F5F5F5F5F5E2F5F5E2E2E2E2F5F5E2F5F5F5F5F5F5F5F5E2F5F5F5F5F5F5F5F5F5F5F5F5F5F5F5F5F5F5F5F5F5F5F5F5F5F5F5F5F5F5F5F5F5F5F5F5F5F5F5F5F5F5F5F5F5F5F5F5F5F5F5F5F5
310
F5F5F5F5F5F5F5F5F5F5F5F5F5F5F5F5F5F5F5F5F5F5F5F5F5F5F5F5F5F5F5F5F5F5F5F5F5F5F5F5F5F5F5F5F5F5F5F5F5F5F5F5F5F5F5F5F5F5F5F5F5F5F5F5F5F5F5F5F5F5F5F5F5F5F5F5F5F5F5F5F5F5F5F5F5F5F5F5F5F5F5F5F5F5F5F5F5F5F5E2F5F5F5F5F5F5F5F5E2F5F5E2E2E2E2F5F5E2F5F5F5F5F5F5F5F5E2
310
F5F5F5F5F5F5F5F5F5F5F5F5F5F5F5F5F5F5F5F5F5F5F5F5F5F5F5F5F5F5F5F5F5F5F5F5F5F5F5F5F5F5F5F5F5F5F5F5F5F5F5F5F5F5F5F5F5F5F5F5F5F5F5F5F5F5F5F5F5F5F5F5F5F5F5F5F5F5F5F5F5F5F5F5F5F5F5F5F5F5F5F5F5F5F5F5F5F5F5F5F5F5F5F5F5F5F5F5F5F5F5F5F5F5F5F5F5F5F5F5F5F5F5F5F5F5F5
310
F5F5F5F5F5F5F5F5F5F5F5F5F5F5F5F5F5F5F5F5F5F5F5F5F5E2F5F5F5F5F5F5F5F5E2F5F5E2E2E2E2F5F5E2F5F5F5F5F5F5F5F5E2F5F5F5F5F5F5F5F5F5F5F5F5F5F5F5F5F5F5F5F5F5F5F5F5F5F5F5F5F5F5F5F5F5F5F5F5F5F5F5F5F5F5F5F5F5F5F5F5F5F5F5F5F5F5F5F5F5F5F5F5F5F5F5F5F5F5F5F5F5F5F5F5F5F5
310
F5F5F5F5F5F5F5F5F5F5F5F5F5F5F5F5F5F5F5F5F5F5F5F5F5F5F5F5F5F5F5F5F5F5F5F5F5F5F5F5F5F5F5F5F5F5F5F5F5F5F5F5F5F5F5F5F5F5F5F5F5F5F5F5F5F5F5F5F5F5F5F5F5F5F5F5F5F5E2F5F5F5F5F5F5F5F5E2F5F5E2E2E2E2F5F5E2F5F5F5F5F5F5F5F5E2F5F5F5F5F5F5F5F5F5F5F5F5F5F5F5F5F5F5F5F5F5
310
F5F5F5F5F5F5F5F5F5F5F5F5F5F5F5F5F5F5F5F5F5F5F5F5F5F5F5F5F5F5F5F5F5F5F5F5F5F5F5F5F5F5F5F5F5F5F5F5F5F5F5F5F5F5F5F5F5F5F5F5F5F5F5F5F5F5F5F5F5F5F5F5F5F5F5F5F5F5F5F5F5F5F5F5F5F5F5F5F5F5F5F5F5F5F5F5F5F5F5F5F5F5F5F5F5F5F5F5F5F5F5F5F5F5F5F5F5F5F5F5F5F5F5F5F5F5F5
310
F5F5F5F5E2F5F5F5F5F5F5F5F5E2F5F5E2E2E2E2F5F5E2F5F5F5F5F5F5F5F5E2F5F5F5F5F5F5F5F5F5F5F5F5F5F5F5F5F5F5F5F5F5F5F5F5F5F5F5F5F5F5F5F5F5F5F5F5F5F5F5F5F5F5F5F5F5F5F5F5F5F5F5F5F5F5F5F5F5F5F5F5F5F5F5F5F5F5F5F5F5F5F5F5F5F5F5F5F5F5F5F5F5F5F5F5F5F5F5F5F5F5F5F5F5F5F5
310
F5F5F5F5F5F5F5F5F5F5F5F5F5F5F5F5F5F5F5F5F5F5F5F5F5F5F5F5F5F5F5F5F5F5F5F5F5F5F5F5F5F5F5F5F5F5F5F5F5F5F5F5F5F5F5F5F5E2F5F5F5F5F5F5F5F5E2F5F5E2E2E2E2F5F5E2F5F5F5F5F5F5F5F5E2F5F5F5F5F5F5F5F5F5F5F5F5F5F5F5F5F5F5F5F5F5F5F5F5F5F5F5F5F5F5F5F5F5F5F5F5F5F5F5F5F5F5
310
F5F5F5F5F5F5F5F5F5F5F5F5F5F5F5F5F5F5F5F5F5F5F5F5F5F5F5F5F5F5F5F5F5F5F5F5F5F5F5F5F5F5F5F5F5F5F5F5F5F5F5F5F5F5F5F5F5F5F5F5F5F5F5F5F5F5F5F5F5F5F5F5F5F5F5F5F5F5F5F5F5F5F5F5F5F5F5F5F5F5F5F5F5F5F5F5F5F5F5F5F5F5F5F5F5F5F5F5F5F5E2F5F5F5F5F5F5F5F5E2F5F5E2E2E2E2F5
310
F5E2F5F5F5F5F5F5F5F5E2F5F5F5F5F5F5F5F5F5F5F5F5F5F5F5F5F5F5F5F5F5F5F5F5F5F5F5F5F5F5F5F5F5F5F5F5F5F5F5F5F5F5F5F5F5F5F5F5F5F5F5F5F5F5F5F5F5F5F5F5F5F5F5F5F5F5F5F5F5F5F5F5F5F5F5F5F5F5F5F5F5F5F5F5F5F5F5F5F5F5F5F5F5F5F5F5F5F5F5F5F5F5F5F5F5F5F5F5F5F5F5F5F5F5F5F5
310
F5F5F5F5F5F5F5F5F5F5F5F5F5F5F5F5F5F5F5F5F5F5F5F5F5F5F5F5F5F5F5F5F5F5F5F5E2F5F5F5F5F5F5F5F5E2F5F5E2E2E2E2F5F5E2F5F5F5F5F5F5F5F5E2F5F5F5F5F5F5F5F5F5F5F5F5F5F5F5F5F5F5F5F5F5F5F5F5F5F5F5F5F5F5F5F5F5F5F5F5F5F5F5F5F5F5F5F5F5F5F5F5F5F5F5F5F5F5F5F5F5F5F5F5F5F5F5
310
F5F5F5F5F5F5F5F5F5F5F5F5F5F5F5F5F5F5F5F5F5F5F5F5F5F5F5F5F5F5F5F5F5F5F5F5F5F5F5F5F5F5F5F5F5F5F5F5F5F5F5F5F5F5F5F5F5F5F5F5F5F5F5F5F5F5F5F5F5F5F5F5F5F5F5F5F5F5F5F5F5F5F5F5F5F5F5F5F5E2F5F5F5F5F5F5F5F5E2F5F5E2E2E2E2F5F5E2F5F5F5F5F5F5F5F5E2F5F5F5F5F5F5F5F5F5F5
310
F5F5F5F5F5F5F5F5F5F5F5F5F5F5F5F5F5E2E2E2E2E2E2E2E2E2E2E2F5F5F5F5F5F5F5F5F5F5F5F5F5F5F5F5F5F5F5F5F5F5F5F5F5F5F5F5F5F5F5F5F5F5F5F5F5F5F5F5F5F5F5F5F5F5F5F5F5F5F5F5F5F5F5F5F5F5F5F5F5F5F5F5F5E2E2E2E2E2E2E2E2E2E2E2E2E2E2E2E2E2E2E2E2E2E2E2F5F5F5F5F5F5F5F5F5F5F5
310
F5F5F5F5F5F5F5F5F5F5F5F5F5F5F5E2F5F5F5F5F5F5F5F5E2F5F5E2E2E2E2F5F5E2F5F5F5F5F5F5F5F5E2F5F5F5F5F5F5F5F5F5F5F5F5F5F5F5F5F5F5F5F5F5F5F5F5F5F5F5E2F5F5F5F5E2E2F5F5F5E2F5F5F5F5F5F5F5F5F5F5F5F5F5F5F5F5F5F5F5F5F5F5F5F5F5F5F5F5F5F5F5F5F5F5F5F5F5F5F5F5F5F5F5F5F5F5
310
F5F5F5F5F5F5F5F5F5F5F5F5F5F5F5F5F5F5E2E2F5F5F5F5F5F5E2E2F5E2F5F5F5F5F5F5F5F5F5E2F5F5F5F5F5F5F5F5F5F5F5F5F5F5F5F5F5F5F5F5F5F5F5F5F5F5F5F5E2F5F5F5F5F5F5F5F5E2F5F5E2E2E2E2F5F5F5F5F5F5F5F5F5F5F5E2F5F5F5F5F5F5F5F5F5F5F5F5F5F5F5F5F5F5F5F5F5F5F5F5F5F5F5E2F5F5F5
310
F5E2E2F5F5F5E2F5F5F5F5F5F5F5F5F5F5F5F5F5F5F5F5F5F5F5F5F5F5F5F5F5F5F5F5F5F5F5F5F5F5F5F5F5F5F5F5F5F5F5F5F5F5F5F5F5F5F5F5F5F5F5F5F5F5F5F5F5F5F5F5E2E2F5F5F5F5F5F5E2E2F5E2F5F5F5F5F5F5F5F5F5E2F5F5F5F5F5F5F5F5F5F5F5F5F5F5F5F5F5F5F5F5F5F5F5F5F5F5F5F5E2F5F5F5F5F5
310
F5F5F5F5F5F5E2E2E2E2F5F5F5F5F5F5F5F5F5F5F5E2F5F5F5F5F5F5F5F5F5F5F5F5F5F5F5F5F5F5F5F5F5F5F5F5F5F5F5E2F5F5F5F5F5F5F5F5F5E2F5F5F5F5F5F5F5F5F5F5F5F5F5F5F5F5F5F5F5F5F5F5F5F5F5F5F5F5F5F5F5F5F5F5F5F5F5F5F5F5F5F5F5F5F5F5F5F5F5F5F5F5F5F5F5F5F5F5F5F5F5F5F5F5F5E2F5
310
F5F5F5F5F5F5F5F5E2F5F5F5F5F5F5F5F5F5E2F5F5F5F5F5F5F5F5F5F5F5F5F5F5F5F5F5F5F5F5F5F5F5F5F5F5F5F5E2F5F5F5F5F5F5F5F5F5F5F5E2E2E2E2F5F5F5F5F5F5F5F5F5F5F5E2F5F5F5F5F5F5F5F5F5F5F5F5F5F5F5F5F5F5F5F5F5F5F5F5F5F5F5E2F5F5F5F5F5F5F5F5F5E2F5F5F5F5F5F5F5F5F5F5F5F5F5F5
310
F5F5F5F5F5F5F5F5F5F5F5F5F5F5F5F5F5F5F5F5F5F5F5F5F5F5F5F5F5F5F5F5F5F5F5F5F5F5F5F5F5F5F5F5F5F5F5F5F5F5F5E2F5F5F5F5F5F5F5F5F5E2F5F5F5F5F5F5F5F5F5E2F5F5F5F5F5F5F5F5F5F5F5F5F5F5F5F5F5F5F5F5F5F5F5F5F5F5F5F5E2F5F5F5F5F5F5F5F5F5F5F5E2E2E2E2F5F5F5F5F5F5F5F5F5F5F5
310
E2F5F5F5F5F5F5F5F5F5F5F5F5F5F5F5F5F5F5F5F5F5F5F5F5F5E2E2E2F5F5F5F5F5F5F5F5F5E2E2E2F5F5F5F5F5F5F5F5F5F5F5F5F5F5F5F5F5F5F5F5F5F5F5F5F5F5F5F5F5F5F5F5F5F5F5F5F5F5F5F5F5F5F5F5F5F5F5F5F5F5F5F5F5F5E2F5F5F5F5F5F5E2E2E2F5F5F5F5F5F5F5F5F5E2E2E2F5F5F5F5F5F5F5E2F5F5
310
F5F5F5F5F5F5F5F5F5F5F5F5F5F5F5F5F5F5F5F5F5F5F5F5F5F5E2F5F5F5F5F5F5F5F5F5F5F5E2E2E2E2F5F5F5F5F5F5F5F5F5F5F5E2F5F5F5F5F5F5F5F5F5F5F5F5F5F5F5F5F5F5F5F5F5F5F5F5F5E2E2E2E2F5F5F5F5F5F5F5F5E2E2E2E2F5F5F5F5F5F5F5F5F5F5F5F5F5F5F5F5F5F5F5F5F5F5F5F5F5F5F5F5F5F5F5F5
310
E2E2E2E2E2F5F5E2E2E2E2F5E2E2E2E2E2F5F5E2F5E2F5E2F5F5F5F5E2E2E2E2F5F5F5F5F5F5F5F5E2E2E2E2F5F5F5F5F5F5E2F5F5F5F5F5F5F5F5F5F5F5F5F5F5F5F5F5F5F5F5F5F5F5F5F5F5F5F5E2F5F5F5F5F5F5F5F5F5F5F5E2E2E2E2F5F5F5F5F5F5F5F5F5F5F5E2F5F5F5F5F5F5F5F5F5F5F5F5F5F5F5F5F5F5F5F5
310
F5F5F5F5E2E2E2E2E2E2E2E2E2E2E2E2E2E2E2E2E2E2E2E2E2E2E2E2E2E2E2F5E2F5F5F5F5F5F5F5F5F5F5F5F5F5F5F5F5F5F5F5F5E2F5E2E2F5E2F5E2E2E2F5E2E2E2F5E2E2E2E2E2E2E2E2E2E2E2E2E2E2E2E2E2E2E2E2E2E2E2E2E2E2E2E2E2E2F5F5F5F5F5E2F5F5F5F5F5F5F5F5F5F5F5F5F5F5F5F5F5F5F5F5F5F5F5
310
F5F5F5F5F5E2F5F5F5F5F5F5F5F5F5F5F5E2E2E2E2F5F5F5F5F5F5F5F5F5F5F5E2F5F5F5F5F5F5F5F5F5F5F5F5F5F5F5F5F5F5F5F5F5F5F5F5E2F5F5F5F5F5F5F5F5F5F5F5F5F5F5F5F5E2F5F5F5F5F5F5E2F5F5E2E2E2F5F5F5F5F5F5F5F5F5F5F5F5F5F5F5F5F5F5F5E2F5E2E2E2E2F5E2E2E2F5E2F5E2F5E2E2F5F5F5F5
310
E2F5F5F5F5E2F5F5F5F5F5F5F5F5F5F5F5F5F5F5F5F5F5E2F5F5F5F5F5E2F5F5F5F5F5F5F5F5F5F5F5F5F5F5F5F5F5F5F5F5F5F5F5F5F5F5F5F5E2F5F5F5F5F5F5F5F5F5F5F5E2E2E2E2F5F5F5F5F5F5F5F5F5F5F5E2F5F5F5F5F5F5F5F5F5F5F5F5F5F5F5F5F5F5F5F5F5F5F5F5E2F5F5F5F5F5F5F5F5F5F5F5F5F5F5F5F5
310
E2F5F5F5F5F5F5E2F5F5E2E2E2F5F5F5F5F5F5F5F5F5F5F5F5F5F5F5F5F5F5F5F5F5F5F5F5F5F5F5F5F5F5F5F5F5F5F5F5F5F5F5F5E2F5F5F5F5E2F5F5F5F5F5F5F5F5F5F5F5F5F5F5F5F5F5E2F5F5F5F5F5E2F5F5F5F5F5F5F5F5F5F5F5F5F5F5F5F5F5F5F5F5F5F5F5F5F5F5F5F5E2F5F5F5F5F5F5F5F5F5F5F5E2E2E2E2
310
F5F5F5F5F5F5F5F5F5F5F5E2F5F5F5F5F5F5F5F5F5F5F5F5F5F5F5F5F5F5F5F5F5F5F5F5E2F5F5F5F5F5F5F5F5F5F5F5F5F5F5F5F5E2F5F5F5F5F5F5E2F5F5E2E2E2F5F5F5F5F5F5F5F5F5F5F5F5F5F5F5F5F5F5F5F5F5F5F5F5F5F5F5F5F5F5F5F5F5F5F5F5F5F5F5F5E2F5F5F5F5E2F5F5F5F5F5F5F5F5F5F5F5F5F5F5F5
310
F5F5E2F5F5F5F5F5E2F5E2E2E2E2E2E2E2E2F5E2E2E2E2F5E2E2E2E2F5E2E2E2E2E2F5F5F5E2F5F5F5F5F5F5F5F5F5F5F5E2E2E2E2F5F5F5F5F5F5F5F5F5F5F5E2F5F5F5F5F5F5F5F5F5F5F5F5F5F5F5F5F5F5F5F5F5F5F5F5E2F5F5F5F5F5F5F5F5F5F5F5F5F5F5F5F5E2F5F5F5F5F5F5E2F5F5F5E2E2F5F5F5F5F5F5F5F5
310
F5F5F5F5F5F5F5F5F5F5F5F5F5F5F5F5F5F5F5F5F5F5F5F5F5F5F5F5F5E2E2F5E2F5F5F5F5E2F5F5F5F5F5F5F5F5F5F5F5F5F5F5F5F5F5E2F5F5F5F5F5E2F5E2E2E2F5E2E2E2E2F5E2E2E2E2F5E2E2E2E2E2E2E2E2E2E2F5F5F5E2F5F5F5F5F5F5F5F5F5F5F5E2E2E2E2F5F5E2F5F5F5F5F5F5F5F5E2F5F5F5F5F5F5F5F5F5
310
F5F5F5F5F5F5F5F5F5F5F5F5F5F5F5E2F5F5F5F5F5F5F5F5F5F5F5F5F5F5F5F5E2F5F5F5F5F5F5E2F5F5E2E2E2F5F5F5F5F5F5F5F5F5F5F5F5F5F5F5E2E2E2E2E2E2E2F5E2E2E2E2F5E2E2E2E2E2E2F5E2F5E2E2F5E2F5F5F5F5E2F5F5F5F5F5F5F5F5F5F5F5F5F5F5F5F5F5E2F5F5F5F5F5E2F5F5F5F5F5F5F5F5F5F5F5F5
310
F5F5F5F5F5F5F5F5F5F5F5F5F5F5F5F5E2F5F5F5F5F5F5F5F5E2F5F5E2E2E2E2F5F5E2F5F5F5F5F5F5F5F5E2F5F5F5F5F5F5F5F5F5F5F5F5F5F5F5F5F5F5F5F5F5F5F5F5E2F5F5F5F5F5F5F5F5F5F5F5F5F5F5F5F5E2F5F5F5F5F5F5E2F5F5E2F5E2F5F5F5F5F5F5F5F5F5F5F5F5F5F5F5E2E2E2E2E2F5E2F5E2E2E2E2E2E2
310
E2E2E2E2E2E2E2E2E2E2E2E2E2E2F5F5E2F5F5F5F5F5F5F5F5F5F5F5F5F5F5F5F5F5E2F5F5F5F5F5E2F5F5F5F5F5F5F5F5F5F5F5F5F5F5F5F5F5F5F5F5F5F5F5F5F5F5F5F5E2F5F5F5F5F5F5F5F5E2F5F5E2E2E2E2F5F5E2F5F5F5F5F5F5F5F5E2F5F5F5F5F5F5F5E2F5F5F5F5F5F5F5F5F5F5F5F5F5F5F5F5E2F5F5F5F5F5
310
F5F5F5F5F5F5F5F5F5F5F5E2F5F5F5F5F5F5E2F5F5E2E2E2F5F5F5F5F5F5F5F5F5F5F5F5F5F5F5F5F5F5F5F5F5F5F5F5F5F5F5F5F5F5F5F5F5F5F5F5F5E2E2F5E2F5F5F5F5E2F5F5F5F5F5F5F5F5F5F5F5F5F5F5F5F5F5E2F5F5F5F5F5E2F5F5F5F5F5F5F5F5F5F5F5F5F5F5F5F5F5F5F5F5F5F5F5F5F5F5F5F5E2F5F5F5F5
310
F5F5F5F5E2F5F5E2E2E2E2F5F5E2F5F5F5F5F5F5F5F5E2F5F5F5F5F5F5F5E2E2F5F5F5F5F5F5F5F5F5F5F5F5F5F5F5E2F5F5F5F5F5F5F5F5F5F5F5F5F5F5F5F5E2F5F5F5F5F5F5E2F5F5F5F5F5F5F5F5F5F5F5F5F5F5F5F5F5F5F5F5F5F5F5F5F5F5F5F5F5F5F5F5F5F5F5F5F5F5F5F5F5F5E2E2F5E2F5F5F5F5E2F5F5F5F5
310
F5F5F5F5F5F5F5F5F5F5F5F5F5E2F5F5F5F5F5E2F5F5F5F5F5F5F5F5F5F5F5F5F5F5F5F5F5F5F5F5F5F5F5F5F5F5F5F5E2F5F5F5F5F5F5F5F5E2F5F5E2E2E2E2F5F5E2F5F5F5F5F5F5F5F5E2F5F5F5F5F5F5F5E2E2F5F5F5F5F5F5F5F5F5F5F5F5F5F5F5E2F5F5F5F5F5F5F5F5F5F5F5F5F5F5F5F5E2F5F5F5F5F5F5E2F5F5
310
F5F5F5F5F5F5F5F5F5F5F5F5F5F5F5F5F5F5F5F5F5F5F5F5F5F5F5F5F5F5F5F5F5F5F5F5F5F5F5F5E2E2F5E2F5F5F5F5E2F5F5F5F5F5F5F5F5F5F5F5F5F5F5F5F5F5E2F5F5F5F5F5E2F5F5F5F5F5F5F5F5F5F5F5F5F5F5F5F5F5F5F5F5F5F5F5F5F5F5F5F5E2F5F5F5F5F5F5F5F5E2F5F5E2E2E2E2F5F5E2F5F5F5F5F5F5F5
310
F5E2F5F5F5F5F5E2E2E2E2E2E2E2E2E2E2E2E2E2E2E2E2E2E2E2E2E2E2E2E2E2E2E2E2E2E2E2F5F5F5F5F5E2F5F5F5F5F5F5E2F5F5E2E2E2F5F5F5F5F5F5F5F5F5F5F5F5F5F5F5F5F5F5F5F5F5F5F5F5F5F5F5F5F5F5F5F5F5F5F5F5F5E2E2F5E2E2E2E2F5E2F5F5F5F5F5F5F5F5F5F5F5F5F5F5F5F5F5E2F5F5F5F5F5E2F5
310
F5F5F5F5F5F5F5F5F5F5F5F5F5F5F5F5F5F5F5F5F5F5F5F5F5F5F5E2F5F5F5F5F5F5F5F5E2F5F5E2E2E2E2F5F5E2F5F5F5F5F5F5F5F5E2F5F5F5F5F5F5F5F5F5F5F5F5F5E2E2E2E2E2E2E2E2E2E2E2E2E2E2E2E2E2E2E2E2E2E2E2E2E2E2F5F5E2F5F5F5F5F5F5E2F5F5E2E2E2F5F5F5F5F5F5F5F5F5F5E2F5F5F5F5F5F5F5
310
F5F5F5F5F5F5F5F5F5F5F5F5F5F5F5F5F5F5F5E2E2F5E2F5F5E2E2E2E2E2E2E2E2E2E2E2E2E2E2E2E2E2E2E2E2E2E2E2E2E2E2E2E2E2E2E2E2E2E2E2E2F5F5F5F5F5F5F5F5F5F5F5F5F5F5F5F5F5F5F5E2F5F5F5F5F5F5F5F5E2F5F5E2E2E2E2F5F5E2F5F5F5F5F5F5F5F5E2F5F5F5F5F5F5E2E2E2F5F5F5F5F5E2E2F5F5F5
310
F5F5F5F5F5E2E2E2E2F5F5F5E2E2E2F5F5F5E2E2E2F5E2F5F5F5F5F5F5E2F5F5F5F5E2F5F5F5F5F5F5F5F5F5E2E2E2E2E2E2E2E2E2E2E2E2E2E2E2E2E2E2E2E2E2E2E2E2E2E2E2E2E2E2E2E2F5F5E2F5E2F5F5F5F5F5F5F5F5F5F5F5F5F5F5F5F5F5E2F5F5F5F5F5E2F5F5F5F5F5F5E2F5F5F5F5F5F5F5F5F5F5F5F5F5F5F5
310
F5F5F5F5F5F5E2F5F5F5F5F5F5F5F5E2F5F5E2E2E2E2F5F5E2F5F5F5F5F5F5F5F5E2F5F5F5F5F5F5E2E2E2F5F5F5F5F5F5E2F5F5F5F5F5F5F5F5E2E2E2F5F5F5F5E2E2E2F5F5F5F5F5E2E2E2F5F5F5F5F5F5E2F5F5F5F5F5F5F5F5F5F5F5F5F5F5E2E2F5E2E2F5F5F5F5E2E2F5F5F5F5F5F5F5F5F5F5F5F5F5F5F5F5F5E2E2
310
F5E2F5F5E2F5E2E2E2E2E2E2E2E2E2E2E2E2E2E2E2E2E2E2E2F5F5F5F5F5E2F5F5F5F5F5F5E2F5F5F5F5F5F5F5F5F5F5F5F5F5F5F5F5F5F5F5F5F5E2F5F5F5F5F5F5F5F5E2F5F5E2E2E2E2F5F5E2F5F5F5F5F5F5F5F5E2F5F5F5F5F5F5E2E2E2F5F5F5F5F5F5E2F5F5F5F5F5F5F5E2E2F5F5F5F5F5F5F5E2E2F5F5F5F5F5F5
310
E2E2E2F5F5F5F5F5E2F5F5E2E2E2F5F5F5F5F5F5F5F5F5F5E2F5F5E2F5F5F5F5E2E2E2F5F5F5F5F5F5F5F5F5F5F5F5F5F5F5F5E2E2F5E2F5F5E2F5F5F5F5F5F5F5F5F5F5F5F5F5F5F5F5F5F5F5E2F5F5F5F5F5E2F5F5F5F5F5F5E2F5F5F5F5F5F5F5F5F5F5F5F5F5F5F5F5F5F5F5F5F5E2F5F5F5F5F5F5F5F5E2F5F5E2E2E2
310
E2F5F5E2F5F5F5F5F5F5F5F5E2F5F5F5F5F5F5E2E2E2F5F5F5F5F5F5E2F5F5F5F5F5F5E2E2F5F5F5F5F5F5E2E2E2E2E2F5F5F5F5F5F5E2E2F5F5F5F5F5E2F5F5E2E2E2F5F5F5F5F5F5F5F5F5E2E2F5F5E2F5F5F5F5E2E2E2E2E2E2E2E2E2E2E2E2E2E2E2E2E2E2E2E2E2F5E2F5F5E2F5F5F5F5F5F5F5F5F5F5F5F5F5F5F5F5
310
F5F5F5E2F5F5F5F5F5E2F5F5F5F5F5F5E2F5F5F5F5F5F5F5F5F5F5F5F5F5F5F5F5F5F5F5F5F5E2F5F5F5F5F5F5F5F5E2F5F5E2E2E2E2F5F5E2F5F5F5F5F5F5F5F5E2F5F5F5F5F5F5F5E2E2F5F5F5F5F5E2E2F5F5F5F5F5E2E2F5F5F5F5F5E2E2E2F5F5F5F5E2E2F5F5F5F5F5E2E2F5F5F5F5E2F5F5E2F5E2F5F5F5F5F5F5F5
310
F5F5E2E2F5F5E2F5F5F5F5F5E2E2F5E2E2F5F5F5F5F5F5F5F5F5F5F5F5E2E2E2F5E2F5F5E2E2E2E2F5F5F5F5F5F5F5F5F5F5F5F5F5F5F5F5E2F5F5F5F5F5E2F5F5F5F5F5F5E2F5F5F5F5F5F5F5F5F5F5F5F5F5F5F5F5F5F5F5F5F5E2F5F5F5F5F5F5F5F5E2F5F5E2E2E2E2F5F5E2F5F5F5F5F5F5F5F5E2F5F5F5F5F5F5E2E2
310
E2F5F5F5F5F5E2E2F5F5F5F5F5E2E2F5F5F5F5E2E2F5F5F5F5F5F5F5F5E2E2F5F5F5F5E2E2F5F5F5E2F5F5E2E2E2F5F5F5F5F5F5F5F5F5E2E2F5F5E2F5F5F5F5E2F5E2F5E2E2F5F5F5F5F5F5F5F5F5F5F5F5E2E2E2F5E2F5F5E2E2E2E2F5F5F5F5F5F5F5F5F5F5F5F5F5F5F5F5E2F5F5F5F5F5E2F5F5F5F5F5F5F5F5F5F5F5
310
F5F5F5F5F5F5F5F5F5F5F5F5F5F5F5F5F5E2F5F5F5F5F5F5F5F5E2F5F5E2E2E2E2F5F5E2F5F5F5F5F5F5F5F5E2F5F5F5F5F5F5F5E2E2F5F5F5F5F5E2E2F5F5F5F5E2E2F5F5F5F5E2E2F5F5F5E2E2E2E2F5F5F5E2E2F5F5F5E2E2F5F5F5E2F5F5F5F5E2F5F5F5F5F5F5F5F5F5E2E2F5F5E2F5F5F5F5E2E2F5F5E2F5F5F5F5F5
310
F5F5F5F5F5F5F5F5E2E2E2F5E2F5F5E2F5F5F5F5F5F5F5F5F5F5F5F5F5F5F5F5F5F5F5E2F5F5F5F5F5E2F5F5F5F5F5E2E2E2F5F5F5F5F5F5F5F5F5F5F5F5F5F5F5F5F5F5F5F5E2F5F5F5F5F5F5F5F5E2F5F5E2E2E2E2F5F5E2F5F5F5F5F5F5F5F5E2F5F5F5F5F5F5E2E2E2F5F5F5F5F5E2E2F5F5F5F5E2E2F5F5F5E2E2F5F5
310
E2E2E2F5F5E2E2F5F5F5E2F5F5F5F5E2F5F5F5E2F5F5E2E2F5F5F5F5F5F5F5F5F5F5F5F5F5F5E2F5F5F5F5F5E2F5F5E2F5F5F5F5F5F5F5F5F5F5F5F5F5E2E2E2F5E2F5F5E2F5F5F5F5F5F5F5F5F5F5F5F5F5F5F5F5F5F5F5E2F5F5F5F5F5E2F5F5F5F5F5E2E2E2F5F5F5F5F5F5F5F5F5F5F5F5F5F5F5F5F5F5F5F5E2F5F5F5
310
F5F5F5F5F5E2F5F5E2E2E2E2F5F5E2F5F5F5F5F5F5F5F5E2F5F5F5F5F5F5F5F5E2F5F5F5F5F5E2E2F5F5F5F5E2F5F5F5F5E2F5F5E2E2F5F5F5F5F5E2E2F5F5E2E2F5F5F5E2E2F5F5E2F5F5E2E2E2F5F5F5F5F5F5F5F5F5F5F5F5F5E2F5F5F5F5E2E2E2F5E2F5F5F5F5F5F5F5F5F5F5F5F5F5E2E2E2F5E2F5F5E2F5F5F5F5F5
310
F5F5F5F5F5F5F5F5F5F5F5F5F5F5E2F5F5F5F5F5E2F5F5F5F5F5E2E2E2F5F5F5F5F5F5F5F5F5F5F5F5F5F5F5F5F5F5F5F5E2F5F5F5F5F5F5F5F5E2F5F5E2E2E2E2F5F5F5F5F5F5F5F5F5F5F5E2F5F5F5F5F5F5F5F5F5F5F5F5F5F5E2E2F5F5F5F5E2F5F5F5F5E2F5F5E2F5F5E2E2E2E2F5E2E2F5F5E2F5F5F5E2E2F5F5E2F5
310
F5E2E2E2F5F5F5F5F5F5F5F5F5E2E2F5F5E2F5F5F5F5F5F5F5F5E2F5F5F5F5F5E2E2E2E2E2E2E2E2E2E2E2F5E2F5F5E2F5F5F5F5F5F5F5F5F5F5F5F5F5F5F5F5F5F5F5E2F5F5F5F5F5E2F5F5F5F5F5F5F5E2F5F5F5F5F5F5F5F5F5F5F5F5F5F5F5F5F5F5F5F5E2F5F5F5F5F5F5F5F5F5F5F5E2E2E2E2F5F5F5F5F5F5F5F5F5
310
F5F5E2F5F5F5F5F5F5E2E2E2F5F5F5F5F5E2E2F5F5F5F5E2E2E2E2F5E2F5F5E2F5E2E2F5F5E2F5F5E2F5F5E2E2E2E2F5E2F5F5E2F5F5E2E2E2F5F5F5F5F5F5F5F5F5E2E2F5F5E2F5F5F5F5F5F5F5F5E2F5F5F5F5F5E2E2E2E2E2E2E2E2E2E2E2F5E2F5F5E2F5F5F5F5F5F5F5F5F5F5F5F5F5F5F5F5F5F5F5E2F5F5F5F5F5E2
310
F5F5F5F5F5E2F5E2F5F5F5F5F5F5F5F5F5F5F5F5F5F5F5F5F5F5F5F5E2F5F5F5F5F5F5F5F5F5F5F5E2E2E2E2F5F5F5F5F5F5F5F5F5F5F5E2F5F5F5F5F5F5E2E2E2F5F5F5F5F5E2E2F5F5F5F5E2E2E2E2F5E2F5F5E2F5E2F5F5F5E2F5F5E2F5F5E2E2E2E2E2E2E2E2E2E2E2E2E2E2F5F5F5F5F5F5F5F5F5F5F5F5F5E2F5F5F5
310
F5E2E2E2F5E2F5F5F5F5F5E2E2E2E2E2E2E2E2E2E2E2E2E2E2E2E2E2E2E2E2E2E2E2E2E2E2E2E2E2E2E2E2E2E2E2E2E2E2E2E2E2E2E2E2F5F5F5E2E2F5F5F5F5F5F5F5F5F5F5F5F5F5F5F5F5F5F5F5F5F5E2F5F5F5F5F5F5F5F5F5F5F5E2E2E2E2F5F5F5F5F5F5F5F5F5F5F5E2F5F5F5F5F5F5E2E2E2F5F5F5F5F5F5F5F5F5
310
F5F5E2F5E2E2F5E2F5F5E2F5E2E2F5F5E2F5F5E2F5F5E2F5E2E2F5E2F5F5F5F5F5E2E2E2F5F5F5F5F5F5F5F5F5F5F5F5F5E2F5F5F5F5E2E2E2F5E2F5F5F5F5F5E2E2E2E2E2E2E2E2E2E2E2F5E2F5F5E2F5F5F5F5F5F5F5F5F5F5F5F5F5F5F5F5F5F5F5E2F5F5F5F5F5F5F5F5F5F5F5E2E2E2F5F5F5F5F5F5F5F5F5F5F5F5F5
310
F5F5F5F5F5F5F5E2F5F5F5F5F5F5F5F5F5F5F5E2E2E2E2F5F5F5F5F5F5F5F5F5F5F5E2F5F5F5F5F5F5F5F5F5F5F5F5F5F5F5F5F5F5F5F5E2F5F5F5F5E2F5F5E2F5F5E2E2E2E2F5E2E2F5F5E2F5F5F5E2E2F5F5F5F5F5F5F5F5F5F5F5F5F5F5F5F5F5E2E2F5F5E2F5F5F5F5F5F5F5F5E2F5F5F5F5F5E2E2E2E2E2E2E2E2E2E2
310
E2F5E2F5F5E2F5F5F5F5F5F5F5F5F5F5F5F5F5F5F5F5F5F5F5E2F5F5F5F5F5F5F5F5F5F5F5E2E2F5F5F5F5F5F5F5F5F5F5F5F5F5F5F5F5F5F5F5F5F5E2F5F5F5F5F5F5F5F5F5F5F5E2E2E2E2F5F5F5F5F5F5F5F5F5F5F5E2F5F5F5F5F5F5F5F5F5F5F5F5F5F5E2E2F5F5F5F5E2F5F5F5F5E2F5F5F5E2F5F5F5F5F5E2E2F5F5
310
E2E2F5F5F5E2E2F5F5F5F5F5F5F5F5F5F5F5F5F5F5F5F5F5E2E2F5F5E2F5F5F5F5F5F5F5F5E2F5F5F5F5F5F5F5F5F5F5F5F5F5E2E2E2F5E2F5F5E2F5F5F5F5F5F5F5F5F5F5F5F5F5F5F5F5F5F5F5E2F5F5F5F5F5F5F5F5F5F5F5F5F5F5F5F5F5F5F5F5F5F5F5F5F5F5F5F5F5F5F5F5F5F5E2F5F5F5F5F5F5F5F5F5F5F5E2E2
310
E2E2F5F5F5F5F5F5F5F5F5F5F5E2F5F5F5F5F5F5E2E2E2F5F5F5F5F5E2E2F5F5F5F5E2E2F5F5F5F5E2F5F5E2E2E2E2E2E2E2F5F5F5E2F5F5F5F5E2F5F5F5F5F5F5F5F5F5F5F5F5F5F5F5F5F5F5E2E2F5F5E2F5F5F5F5E2E2E2F5E2F5F5F5F5F5F5F5F5F5F5F5F5F5E2E2E2F5E2F5F5E2F5F5F5F5F5F5F5F5F5F5F5F5F5F5F5
310
F5F5F5F5E2F5F5F5F5F5F5F5F5F5F5F5E2E2E2F5F5F5F5F5F5F5F5F5F5F5F5F5F5F5F5F5F5F5F5E2F5F5F5F5F5F5F5F5F5F5F5E2E2E2E2F5F5F5F5F5F5F5F5F5F5F5E2F5F5F5F5F5F5F5F5E2F5F5F5F5F5E2E2F5F5F5F5F5E2F5F5F5F5E2E2F5F5F5F5E2F5F5F5F5F5E2F5F5F5F5E2E2F5F5F5F5F5F5F5F5F5F5F5F5F5F5F5
310
F5F5F5E2E2F5F5E2F5F5F5F5F5F5E2F5E2F5F5F5F5F5F5F5F5F5F5F5F5F5E2E2E2F5E2F5F5E2F5F5F5F5F5F5F5F5F5F5F5F5F5F5F5F5F5F5F5E2F5F5F5F5F5F5F5F5F5F5F5E2E2E2F5F5F5F5F5F5F5F5F5F5F5F5F5F5F5F5F5F5F5F5E2F5F5F5F5F5F5F5F5F5F5F5E2E2E2E2F5F5F5F5F5F5F5F5F5F5F5E2F5F5F5F5F5F5E2
310
E2F5F5F5F5F5F5E2E2F5F5F5F5F5E2E2F5F5F5F5E2E2F5F5F5F5F5F5F5E2E2F5F5F5F5F5E2E2F5F5F5F5F5F5F5F5F5F5F5F5F5F5F5F5F5F5F5E2F5F5E2F5F5F5F5E2E2F5F5E2E2F5F5F5F5F5F5F5F5F5F5F5F5E2E2E2F5E2F5F5E2F5F5F5F5F5F5F5F5F5F5F5F5F5F5F5F5F5F5F5E2F5F5F5F5F5F5F5F5F5F5F5E2E2E2F5F5
310
F5F5F5F5F5F5F5F5F5F5F5F5F5F5F5F5F5F5E2F5F5F5F5F5F5F5F5F5F5F5E2E2E2E2F5F5E2F5F5F5F5F5F5F5F5E2F5F5F5F5F5F5E2E2E2F5F5F5F5F5F5F5F5F5F5F5F5E2E2F5F5F5F5F5E2E2E2E2F5F5E2E2E2F5F5F5F5F5E2E2F5F5F5F5F5F5F5F5F5F5F5F5F5F5F5F5F5F5F5E2E2F5F5E2F5F5F5F5F5E2F5F5E2E2F5F5F5
310
F5F5F5F5F5F5F5F5F5E2E2E2F5E2F5F5E2F5F5F5F5F5F5F5F5F5F5F5F5F5F5F5F5F5F5F5E2F5F5F5F5F5F5F5F5F5F5F5E2E2E2F5F5F5F5F5F5F5F5F5F5F5F5F5F5F5F5F5F5F5F5E2F5F5F5F5F5F5F5F5E2F5F5E2E2E2E2F5F5E2F5F5F5F5F5F5F5F5E2F5F5F5F5F5F5F5E2E2F5F5F5F5F5F5E2F5F5F5F5F5F5E2E2F5F5F5F5
310
F5F5F5E2E2E2F5F5F5F5F5F5F5E2E2F5F5F5F5F5F5F5F5F5F5F5F5F5F5F5F5F5F5F5F5E2E2F5F5E2F5F5F5F5E2E2E2E2E2E2E2E2E2E2E2E2E2E2E2E2E2E2E2E2E2F5E2F5F5E2F5F5F5F5F5F5F5F5F5F5F5F5F5F5F5F5F5F5F5E2F5F5F5F5F5F5F5F5F5F5F5E2E2E2F5F5F5F5F5F5F5F5F5F5F5F5F5F5F5F5F5F5F5F5E2F5F5
310
F5F5F5F5F5F5E2F5F5E2E2E2E2F5F5E2F5F5F5F5F5F5F5F5E2F5F5F5F5F5F5E2E2E2F5F5F5F5F5F5E2F5F5F5F5F5F5F5E2E2F5F5F5F5F5F5E2E2E2F5F5F5F5F5F5E2E2F5F5F5F5F5F5F5F5F5F5F5F5F5F5F5F5F5F5F5F5F5E2E2F5E2E2F5F5F5F5E2E2E2F5F5F5F5F5F5F5F5F5F5F5F5F5F5F5F5E2E2F5E2F5F5E2F5F5F5F5
310
F5F5F5F5F5F5F5F5F5F5F5F5F5F5F5E2F5F5F5F5F5F5F5F5F5F5F5F5E2F5F5F5F5F5F5F5F5F5F5F5F5F5F5F5F5F5F5F5F5F5E2F5F5F5F5F5F5F5F5E2F5F5E2E2E2E2F5F5E2F5F5F5F5F5F5F5F5E2F5F5F5F5F5F5E2F5E2F5F5F5F5F5E2E2F5F5F5F5F5F5F5F5E2E2E2F5F5F5F5E2E2E2F5F5F5F5F5E2E2F5F5F5F5F5F5F5F5
310
F5F5F5F5F5F5F5F5F5F5F5F5F5F5E2E2F5F5E2F5F5F5F5F5F5F5F5F5F5F5F5F5F5F5F5F5F5F5F5F5F5F5E2E2F5E2F5F5E2F5F5F5F5F5F5F5F5F5F5F5F5F5F5F5F5F5F5F5E2F5F5F5F5F5F5F5F5F5F5F5F5E2F5F5F5F5F5F5F5F5F5F5F5F5F5F5F5F5F5F5F5F5F5E2F5F5F5F5F5F5F5F5E2F5F5E2E2E2E2F5F5E2F5F5F5F5F5
310
F5F5F5E2F5F5F5F5F5F5E2E2E2F5F5F5F5F5F5E2F5F5F5F5F5F5F5F5F5E2E2E2E2F5F5F5E2E2F5F5E2E2E2E2F5F5F5F5F5F5F5F5F5F5F5F5F5F5F5F5F5F5F5F5F5F5F5E2E2E2E2E2E2E2E2E2E2E2E2E2E2E2E2E2E2E2E2E2E2E2E2E2E2E2E2E2E2E2E2F5F5E2F5F5F5F5F5F5F5F5F5F5F5F5F5F5F5F5F5F5F5E2F5F5F5F5F5
310
F5F5F5F5F5F5F5E2F5F5F5F5F5F5F5F5F5F5F5F5F5F5F5F5F5F5F5F5F5E2F5F5F5F5F5F5F5F5E2F5F5E2E2E2E2F5F5E2F5F5F5F5F5F5F5F5E2F5F5F5F5F5F5F5F5F5F5F5F5F5E2E2E2E2E2E2E2E2E2E2E2E2E2E2E2E2E2E2E2E2E2E2E2E2E2F5F5F5F5F5F5F5F5F5F5F5F5F5F5F5F5F5F5F5F5F5F5F5F5F5E2E2F5F5F5F5F5
310
F5F5F5F5F5F5F5F5F5F5F5F5F5F5F5F5F5F5F5F5F5E2E2F5E2F5F5E2E2E2E2E2E2E2E2E2E2E2E2E2E2E2E2E2E2E2E2E2E2E2E2E2E2E2E2E2E2E2E2E2E2E2E2F5F5F5F5F5F5F5F5F5F5F5F5F5F5F5F5F5F5F5E2F5F5F5F5F5F5F5F5E2F5F5E2E2E2E2F5F5E2F5F5F5F5F5F5F5F5E2F5F5F5F5F5E2E2E2E2E2E2E2E2E2E2E2E2
310
E2E2E2E2E2E2E2E2E2E2E2E2E2E2E2E2E2F5F5F5F5F5F5F5F5F5F5F5F5F5F5F5F5F5F5F5F5F5F5F5F5F5F5F5F5F5F5F5F5F5F5F5F5F5F5F5F5F5F5F5F5F5F5F5F5F5F5F5F5F5F5F5F5F5F5E2F5E2E2E2E2F5F5F5F5F5F5F5F5F5F5F5F5F5F5F5F5F5F5F5E2F5F5F5F5F5F5F5F5F5F5F5F5F5F5F5F5F5F5F5F5F5F5F5F5F5F5
310
F5F5F5F5F5F5F5F5E2F5F5F5F5F5F5F5F5E2F5F5E2E2E2E2F5F5E2F5F5F5F5F5F5F5F5E2F5F5F5F5F5F5F5E2E2F5F5F5F5F5F5F5F5F5F5F5F5F5F5F5F5F5F5F5F5F5F5F5F5F5F5F5F5F5F5F5F5F5F5F5F5F5F5F5F5F5F5F5F5F5F5F5F5F5F5F5F5F5F5F5F5F5F5F5F5F5F5F5F5F5F5F5F5F5F5F5F5F5F5F5F5F5F5F5F5F5F5
310
F5E2F5E2F5F5F5F5F5F5F5F5F5F5F5F5F5F5F5F5F5F5F5F5F5F5E2F5F5F5F5F5F5F5F5F5F5F5F5F5F5F5F5F5F5F5F5F5F5F5F5F5F5F5F5F5F5F5F5F5F5E2F5F5F5F5F5F5F5F5E2F5F5E2E2E2E2F5F5E2F5F5F5F5F5F5F5F5E2F5F5F5F5F5F5F5E2F5F5F5F5F5F5F5F5F5F5F5F5F5F5F5F5F5F5F5F5F5F5F5F5F5F5F5F5F5F5
310
F5F5F5F5F5F5F5F5F5F5F5F5F5F5F5F5F5F5F5F5F5F5F5F5F5F5F5F5F5F5F5F5F5F5F5F5F5F5F5F5F5F5F5F5F5F5F5F5F5F5F5F5F5F5E2F5E2F5F5F5F5F5F5F5F5F5F5F5F5F5F5F5F5F5F5F5F5F5F5E2F5F5F5F5F5F5F5F5F5F5F5F5F5F5F5F5F5F5F5F5F5F5F5F5F5F5F5F5F5F5F5F5F5F5E2F5F5F5F5F5F5F5F5E2F5F5E2
310
E2E2E2F5F5E2F5F5F5F5F5F5F5F5E2F5F5F5F5F5F5F5E2F5F5F5F5F5F5F5F5F5F5F5F5F5F5F5F5F5F5F5F5F5F5F5F5F5F5F5F5F5F5F5F5F5F5F5F5F5F5F5F5F5F5F5F5F5F5F5F5F5F5F5F5F5F5F5F5F5F5F5F5F5F5F5F5F5F5F5F5F5F5F5F5F5F5F5F5F5F5F5F5F5F5F5F5E2F5E2F5F5F5F5F5F5F5F5F5F5F5F5F5F5F5F5F5
310
F5F5F5F5F5E2F5F5F5F5F5F5F5F5F5F5F5F5F5F5F5F5F5F5F5F5F5F5F5F5F5F5F5F5F5F5F5F5F5F5E2F5F5F5F5F5F5F5F5E2F5F5E2E2E2E2F5F5E2F5F5F5F5F5F5F5F5E2F5F5F5F5F5F5F5F5F5F5F5F5F5F5F5F5F5F5F5F5F5F5F5F5F5F5F5F5F5F5F5F5F5F5F5F5F5F5F5F5F5F5F5F5F5F5F5F5F5F5F5F5F5F5F5F5F5F5F5
310
F5F5F5F5F5F5F5F5F5F5F5F5F5F5F5F5F5F5F5F5F5F5F5F5F5F5F5F5F5F5F5F5F5E2F5E2E2E2E2E2E2E2E2E2E2E2E2E2E2E2E2E2E2E2E2E2E2E2E2F5F5F5F5F5F5F5F5F5F5F5F5F5F5F5F5F5F5F5F5F5F5F5F5F5F5F5F5F5F5F5F5F5F5E2F5F5F5F5F5F5F5F5E2F5F5E2E2E2E2F5F5E2F5F5F5F5F5F5F5F5E2F5F5F5F5F5F5
310
F5F5F5F5F5F5F5F5F5F5F5F5F5F5F5F5F5F5F5F5F5F5F5F5F5F5F5F5F5F5F5F5F5F5F5F5F5F5F5F5F5F5F5F5F5F5F5F5F5F5F5F5F5F5F5F5F5F5F5F5F5F5F5F5F5F5F5F5F5F5F5F5F5F5F5F5F5F5F5F5F5F5F5F5F5F5E2F5E2E2E2F5F5F5F5F5F5F5F5F5F5F5F5F5F5F5F5F5F5E2E2E2F5F5F5F5F5F5F5F5F5F5F5F5F5F5F5
310
F5F5F5F5F5F5F5F5F5F5F5F5F5F5F5F5F5F5F5E2F5F5F5F5F5F5F5F5E2F5F5E2E2E2E2F5F5E2F5F5F5F5F5F5F5F5E2F5F5F5F5F5F5F5F5F5F5F5F5F5F5F5F5F5F5F5F5F5F5F5F5F5F5F5F5F5F5F5F5F5F5F5F5F5F5F5F5F5F5F5F5F5F5F5F5F5F5F5F5F5F5F5F5F5F5F5F5F5F5F5F5F5F5F5F5F5F5F5F5F5F5F5F5F5F5F5F5
310
F5F5F5F5F5F5F5F5F5F5F5F5E2F5E2F5F5F5F5F5F5F5F5F5F5F5F5F5F5F5F5F5F5F5F5F5F5E2F5F5F5F5F5F5F5F5F5F5F5F5F5F5F5F5F5F5F5F5F5F5F5F5F5F5F5F5F5F5F5F5F5F5E2F5F5F5F5F5F5F5F5E2F5F5E2E2E2E2F5F5E2F5F5F5F5F5F5F5F5E2F5F5F5F5F5F5F5F5F5F5F5F5F5F5F5F5F5F5F5F5F5F5F5F5F5F5F5
310
F5F5F5F5F5F5F5F5F5F5F5F5F5F5F5F5F5F5F5F5F5F5F5F5F5F5F5F5F5F5F5F5F5F5F5F5F5F5F5F5F5F5F5F5F5F5F5F5F5F5F5F5F5F5F5F5F5F5F5F5F5F5F5F5F5E2F5E2E2E2E2E2E2E2E2E2F5E2E2E2F5E2E2E2E2E2F5E2E2E2E2E2F5F5F5F5F5F5F5F5F5F5F5F5F5F5F5F5F5F5F5F5F5F5F5F5F5F5F5F5F5F5F5F5F5E2F5
310
F5F5F5F5F5F5F5E2F5F5E2E2E2E2F5F5E2F5F5F5F5F5F5F5F5E2F5F5F5F5F5F5F5F5F5F5F5F5F5F5F5F5F5F5F5F5F5F5F5F5F5F5F5F5F5F5F5F5F5F5F5F5F5F5F5F5F5F5F5F5F5F5F5F5F5F5F5F5F5F5F5F5F5F5F5F5F5F5F5F5F5F5F5F5F5F5F5F5F5F5F5F5F5F5F5F5F5F5F5F5F5F5F5F5F5F5F5F5E2F5E2E2E2E2F5F5E2
310
E2E2F5E2F5E2F5E2E2E2E2F5E2F5E2E2E2E2F5F5F5F5F5F5F5F5F5F5F5F5F5F5F5F5F5F5F5F5F5F5F5F5F5F5F5F5F5F5F5F5F5E2F5F5F5F5F5F5F5F5E2F5F5E2E2E2E2F5F5E2F5F5F5F5F5F5F5F5E2F5F5F5F5F5F5F5F5F5F5F5F5F5F5F5F5F5F5F5F5F5F5F5F5F5F5F5F5F5F5F5F5F5F5F5F5F5F5F5F5F5F5F5F5F5F5F5F5
310
F5F5F5F5F5F5F5F5F5F5F5F5F5F5F5F5F5F5F5F5F5F5F5F5F5F5F5F5F5F5F5F5F5F5F5F5F5F5F5F5F5F5F5F5E2F5E2E2F5E2F5E2E2E2F5F5E2E2E2F5E2E2E2E2F5E2E2E2E2E2E2F5F5F5F5F5F5F5F5F5F5F5F5F5F5F5F5F5F5F5F5F5F5F5F5F5F5F5F5F5F5F5F5F5E2F5F5F5F5F5F5F5F5E2F5F5E2E2E2E2F5F5F5F5F5F5F5
310
F5F5F5F5E2F5F5F5F5F5F5F5F5F5F5F5F5F5F5F5F5F5F5F5F5F5F5F5F5F5F5F5F5F5F5F5F5F5F5F5F5F5F5F5F5F5F5F5F5F5F5F5F5F5F5F5F5F5F5F5F5F5F5F5F5F5F5F5F5F5F5F5F5F5F5F5F5F5F5F5F5F5F5F5F5F5F5F5F5F5F5F5F5F5F5F5F5E2F5E2F5F5F5F5F5F5F5F5F5F5F5F5F5F5F5F5F5F5F5F5F5F5F5F5F5F5F5
310
F5F5F5F5F5F5F5F5F5F5F5F5F5F5F5F5F5F5F5F5F5F5F5F5F5F5F5F5F5F5E2F5F5F5F5F5F5F5F5F5F5F5E2E2E2E2F5F5F5F5F5F5F5F5F5F5F5E2F5F5F5F5F5F5F5F5F5F5F5F5F5F5F5F5F5F5F5F5F5F5F5F5F5F5F5F5F5F5F5F5F5F5F5F5F5F5F5F5F5F5F5F5F5F5F5F5F5F5F5F5F5F5F5F5F5F5F5F5F5F5F5F5F5F5F5F5F5
310
F5E2E2E2E2E2E2F5F5E2E2E2E2F5E2E2E2E2E2F5F5F5F5E2F5E2F5F5F5F5F5F5F5F5F5F5F5F5F5F5F5F5F5F5F5F5F5F5F5F5F5F5F5F5F5F5F5F5F5F5F5F5F5F5F5F5F5F5F5F5F5F5F5F5F5F5F5F5F5F5F5F5F5E2F5F5F5F5F5F5F5F5F5F5F5E2E2E2E2F5F5F5F5F5F5F5F5F5F5F5E2F5F5F5F5F5F5F5F5F5F5F5F5F5F5F5F5
310
F5F5F5F5F5F5F5F5F5F5F5F5F5F5F5F5F5F5F5F5F5F5F5F5F5F5F5F5F5F5F5F5F5F5F5F5F5F5F5F5F5F5F5F5F5F5F5F5F5F5F5F5F5F5E2E2F5E2E2E2E2F5E2F5E2E2E2F5E2E2E2E2F5E2E2E2E2F5E2E2E2E2F5F5F5F5F5F5F5F5F5F5F5F5F5F5F5F5F5F5F5F5F5F5F5F5F5F5F5F5F5F5F5F5F5F5F5F5F5F5F5F5F5F5F5F5F5
310
F5F5F5F5F5F5F5F5F5E2F5F5F5F5F5F5F5F5F5F5F5E2E2E2E2F5F5F5F5F5F5F5F5F5F5F5E2F5F5F5F5F5F5F5F5F5F5F5F5F5F5F5F5F5F5F5F5F5F5F5F5F5F5F5F5F5F5F5F5F5F5F5F5F5F5F5F5F5F5F5F5F5F5F5F5F5F5F5F5F5F5F5F5F5F5F5F5F5F5F5F5F5F5F5F5F5F5E2E2F5E2E2E2F5F5E2E2E2E2F5E2E2E2E2E2F5F5
310
F5F5E2F5E2F5F5F5F5F5F5F5F5F5F5F5F5F5F5F5F5F5F5F5F5F5F5F5F5F5F5F5F5F5F5F5F5F5F5F5F5F5F5F5F5F5F5F5F5F5F5F5F5F5F5F5F5F5F5F5F5F5E2F5F5F5F5F5F5F5F5F5F5F5E2E2E2E2F5F5F5F5F5F5F5F5F5F5F5E2F5F5F5F5F5F5F5F5F5F5F5F5F5F5F5F5F5F5F5F5F5F5F5F5F5F5F5F5F5F5F5F5F5F5F5F5F5
310
F5F5F5F5F5F5F5F5F5F5F5F5F5F5F5F5F5F5F5F5F5F5F5F5F5F5F5F5F5F5F5F5F5F5F5F5F5F5F5F5F5F5F5F5F5F5F5F5F5F5F5F5F5F5F5E2F5E2F5F5F5F5F5F5F5F5F5F5F5F5F5F5F5F5F5F5F5F5F5F5F5F5F5F5F5F5F5F5F5F5F5F5F5F5F5F5F5F5F5F5F5F5F5F5F5F5F5F5F5F5F5F5F5F5F5E2F5F5F5F5F5F5F5F5F5F5F5
310
E2E2E2E2F5F5F5F5F5F5F5F5F5F5F5E2F5F5F5F5F5F5F5F5F5F5F5F5F5F5F5F5F5F5F5F5F5F5F5F5F5F5F5F5F5F5F5F5F5F5F5F5F5F5F5F5F5F5F5F5F5F5F5F5F5F5F5F5F5F5F5F5F5F5F5F5F5F5F5F5F5F5F5F5F5F5F5F5F5F5F5F5F5F5F5F5F5F5F5F5F5F5F5F5F5F5F5F5F5F5F5F5F5F5F5F5F5F5F5F5F5F5F5F5F5F5F5
310
F5F5F5F5F5F5F5F5F5F5F5F5F5F5F5F5F5F5F5F5F5F5F5F5F5F5F5F5F5F5F5F5F5F5F5F5F5F5F5F5F5E2F5F5F5F5F5F5F5F5F5F5F5E2E2E2E2F5F5F5F5F5F5F5F5F5F5F5E2F5F5F5F5F5F5F5F5F5F5F5F5F5F5F5F5F5F5F5F5F5F5F5F5F5F5F5F5F5F5F5F5F5F5F5F5F5F5F5F5F5F5F5F5F5F5F5F5F5F5F5F5F5F5F5F5F5F5
310
F5F5F5F5F5F5F5F5F5F5F5F5F5F5F5F5F5F5F5F5F5F5F5F5F5F5F5F5F5F5F5F5F5F5F5F5F5F5F5F5F5F5F5F5F5F5F5F5F5F5F5F5F5F5F5F5F5F5F5F5F5F5F5F5F5F5F5F5F5F5F5F5F5F5F5F5F5F5F5F5F5F5F5F5F5F5F5F5F5F5F5F5F5F5E2F5F5F5F5F5F5F5F5F5F5F5E2E2E2E2F5F5F5F5F5F5F5F5F5F5F5E2F5F5F5F5F5
310
F5F5F5F5F5F5F5F5F5F5F5F5F5F5F5F5F5F5F5F5F5F5F5F5F5F5F5F5F5F5F5F5F5F5F5F5F5F5F5F5F5F5F5F5F5F5F5F5F5F5F5F5F5F5F5F5F5F5F5F5F5F5F5F5F5F5F5F5F5F5F5F5F5F5F5F5F5F5F5F5F5F5F5F5F5F5F5F5F5F5F5F5F5F5F5F5F5F5F5F5F5F5F5F5F5F5F5F5F5F5F5F5F5F5F5F5F5F5F5F5F5F5F5F5F5F5F5
310
F5F5F5F5F5F5F5F5F5F5F5F5F5F5F5F5F5F5F5F5E2F5F5F5F5F5F5F5F5F5F5F5E2E2E2E2F5F5F5F5F5F5F5F5F5F5F5E2F5F5F5F5F5F5F5F5F5F5F5F5F5F5F5F5F5F5F5F5F5F5F5F5F5F5F5F5F5F5F5F5F5F5F5F5F5F5F5F5F5F5F5F5F5F5F5F5F5F5F5F5F5F5F5F5F5F5F5F5F5F5F5F5F5F5F5F5F5F5F5F5F5F5F5F5F5F5F5
310
F5F5F5F5F5F5F5F5F5F5F5F5F5F5F5F5F5F5F5F5F5F5F5F5F5F5F5F5F5F5F5F5F5F5F5F5F5F5F5F5F5F5F5F5F5F5F5F5F5F5F5F5F5F5F5F5F5F5F5F5F5F5F5F5F5F5F5F5F5F5F5F5F5E2F5F5F5F5F5F5F5F5F5F5F5E2E2E2E2F5F5F5F5F5F5F5F5F5F5F5E2F5F5F5F5F5F5F5F5F5F5F5F5F5F5F5F5F5F5F5F5F5F5F5F5F5F5
310
F5F5F5F5F5F5F5F5F5F5F5F5F5F5F5F5F5F5F5F5F5F5F5F5F5F5F5F5F5F5F5F5F5F5F5F5F5F5F5F5F5F5F5F5F5F5F5F5F5F5F5F5F5F5F5F5F5F5F5F5F5F5F5F5F5F5F5F5F5F5F5F5F5F5F5F5F5F5F5F5F5F5F5F5F5F5F5F5F5F5F5F5F5F5F5F5F5F5F5F5F5F5F5F5F5F5F5F5F5F5F5F5F5F5F5F5F5F5F5F5F5F5F5F5F5F5E2
310
F5F5F5F5F5F5F5F5F5F5F5E2E2E2E2F5F5E2F5F5F5F5F5F5F5F5E2F5F5F5F5F5F5F5F5F5F5F5F5F5F5F5F5F5F5F5F5F5F5F5F5F5F5F5F5F5F5F5F5F5F5F5F5F5F5F5F5F5F5F5F5F5F5F5F5F5F5F5F5F5F5F5F5F5F5F5F5F5F5F5F5F5F5F5F5F5F5F5F5F5F5F5F5F5F5F5F5F5F5F5F5F5F5F5F5F5F5F5F5F5F5F5F5F5F5F5F5
310
F5F5F5F5F5F5F5F5F5F5F5F5F5F5F5F5F5F5F5F5F5F5F5F5F5F5F5F5F5F5F5F5F5F5F5F5F5F5F5F5F5F5F5F5F5F5F5F5F5F5F5F5E2F5F5F5F5F5F5F5F5E2F5F5E2E2E2E2F5F5E2F5F5F5F5F5F5F5F5E2F5F5F5F5F5F5F5F5F5F5F5F5F5F5F5F5F5F5F5F5F5F5F5F5F5F5F5F5F5F5F5F5F5F5F5F5F5F5F5F5F5F5F5F5F5F5F5
310
F5F5F5F5F5F5F5F5F5F5F5F5F5F5F5F5F5F5F5F5F5F5F5F5F5F5F5F5F5F5F5F5F5F5F5F5F5F5F5F5F5F5F5F5F5F5F5F5F5F5F5F5F5F5F5F5F5F5F5F5F5F5F5F5F5F5F5F5F5F5F5F5F5F5F5F5F5F5F5F5F5F5F5F5F5F5F5F5F5F5F5F5F5F5F5F5F5F5F5F5F5F5F5F5F5E2F5F5F5F5F5F5F5F5E2F5F5E2E2E2E2F5F5E2F5F5F5
310
F5F5F5F5F5E2F5F5F5F5F5F5F5F5F5F5F5F5F5F5F5F5F5F5F5F5F5F5F5F5F5F5F5F5F5F5F5F5F5F5F5F5F5F5F5F5F5F5F5F5F5F5F5F5F5F5F5F5F5F5F5F5F5F5F5F5F5F5F5F5F5F5F5F5F5F5F5F5F5F5F5F5F5F5F5F5F5F5F5F5F5F5F5F5F5F5F5F5F5F5F5F5F5F5F5F5F5F5F5F5F5F5F5F5F5F5F5F5F5F5F5F5F5F5F5F5F5
310
F5F5F5F5F5F5F5F5F5F5F5F5F5F5F5F5F5F5F5F5F5F5F5F5F5F5F5F5F5F5F5E2F5F5F5F5F5F5F5F5E2F5F5E2E2E2E2F5F5E2F5F5F5F5F5F5F5F5E2F5F5F5F5F5F5F5F5F5F5F5F5F5F5F5F5F5F5F5F5F5F5F5F5F5F5F5F5F5F5F5F5F5F5F5F5F5F5F5F5F5F5F5F5F5F5F5F5F5F5F5F5F5F5F5F5F5F5F5F5F5F5F5F5F5F5F5F5
310
F5F5F5F5F5F5F5F5F5F5F5F5F5F5F5F5F5F5F5F5F5F5F5F5F5F5F5F5F5F5F5F5F5F5F5F5F5F5F5F5F5F5F5F5F5F5F5F5F5F5F5F5F5F5F5F5F5F5F5F5F5F5F5F5F5F5F5F5F5F5F5F5F5F5F5F5F5F5F5F5F5F5F5F5E2F5F5F5F5F5F5F5F5E2F5F5E2E2E2E2F5F5E2F5F5F5F5F5F5F5F5E2F5F5F5F5F5F5F5F5F5F5F5F5F5F5F5
310
F5F5F5F5F5F5F5F5F5F5F5F5F5F5F5F5F5F5F5F5F5F5F5F5F5F5F5F5F5F5F5F5F5F5F5F5F5F5F5F5F5F5F5F5F5F5F5F5F5F5F5F5F5F5F5F5F5F5F5F5F5F5F5F5F5F5F5F5F5F5F5F5F5F5F5F5F5F5F5F5F5F5F5F5F5F5F5F5F5F5F5F5F5F5F5F5F5F5F5F5F5F5F5F5F5F5F5F5F5F5F5F5F5F5F5F5F5F5F5F5F5F5F5F5F5F5F5
310
F5F5F5F5F5F5F5F5F5F5E2F5F5F5F5F5F5F5F5E2F5F5E2E2E2E2F5F5E2F5F5F5F5F5F5F5F5E2F5F5F5F5F5F5F5F5F5F5F5F5F5F5F5F5F5F5F5F5F5F5F5F5F5F5F5F5F5F5F5F5F5F5F5F5F5F5F5F5F5F5F5F5F5F5F5F5F5F5F5F5F5F5F5F5F5F5F5F5F5F5F5F5F5F5F5F5F5F5F5F5F5F5F5F5F5F5F5F5F5F5F5F5F5F5F5F5F5
310
F5F5F5F5F5F5F5F5F5F5F5F5F5F5F5F5F5F5F5F5F5F5F5F5F5F5F5F5F5F5F5F5F5F5F5F5F5F5F5F5F5F5F5F5F5F5F5F5F5F5F5F5F5F5F5F5F5F5F5F5F5F5F5E2F5F5F5F5F5F5F5F5E2F5F5E2E2E2E2F5F5E2F5F5F5F5F5F5F5F5E2F5F5F5F5F5F5F5F5F5F5F5F5F5F5F5F5F5F5F5F5F5F5F5F5F5F5F5F5F5F5F5F5F5F5F5F5
310
F5F5F5F5F5F5F5F5F5F5F5F5F5F5F5F5F5F5F5F5F5F5F5F5F5F5F5F5F5F5F5F5F5F5F5F5F5F5F5F5F5F5F5F5F5F5F5F5F5F5F5F5F5F5F5F5F5F5F5F5F5F5F5F5F5F5F5F5F5F5F5F5F5F5F5F5F5F5F5F5F5F5F5F5F5F5F5F5F5F5F5F5F5F5F5F5F5F5F5F5F5F5F5F5F5F5F5F5F5F5F5F5F5F5F5F5E2F5F5F5F5F5F5F5F5E2F5
310
F5E2E2E2E2F5F5E2F5F5F5F5F5F5F5F5E2F5F5F5F5F5F5F5F5F5F5F5F5F5F5F5F5F5F5F5F5F5F5F5F5F5F5F5F5F5F5F5F5F5F5F5F5F5F5F5F5F5F5F5F5F5F5F5F5F5F5F5F5F5F5F5F5F5F5F5F5F5F5F5F5F5F5F5F5F5F5F5F5F5F5F5F5F5F5F5F5F5F5F5F5F5F5F5F5F5F5F5F5F5F5F5F5F5F5F5F5F5F5F5F5F5F5F5F5F5F5
310
F5F5F5F5F5F5F5F5F5F5F5F5F5F5F5F5F5F5F5F5F5F5F5F5F5F5F5F5F5F5F5F5F5F5F5F5F5F5F5F5F5F5E2F5F5F5F5F5F5F5F5E2F5F5E2E2E2E2F5F5E2F5F5F5F5F5F5F5F5E2F5F5F5F5F5F5F5F5F5F5F5F5F5F5F5F5F5F5F5F5F5F5F5F5F5F5F5F5F5F5F5F5F5F5F5F5F5F5F5F5F5F5F5F5F5F5F5F5F5F5F5F5F5F5F5F5F5
310
F5F5F5F5F5F5F5F5F5F5F5F5F5F5F5F5F5F5F5F5F5F5F5F5F5F5F5F5F5F5F5F5F5F5F5F5F5F5F5F5F5F5F5F5F5F5F5F5F5F5F5F5F5F5F5F5F5F5F5F5F5F5F5F5F5F5F5F5F5F5F5F5F5F5F5F5F5F5F5F5F5F5F5F5F5F5F5F5F5F5F5F5F5F5F5E2F5F5F5F5F5F5F5F5E2F5F5E2E2E2E2F5F5E2F5F5F5F5F5F5F5F5E2F5F5F5F5
310
F5F5F5F5F5F5F5F5F5F5F5F5F5F5F5F5F5F5F5F5F5F5F5F5F5F5F5F5F5F5F5F5F5F5F5F5F5F5F5F5F5F5F5F5F5F5F5F5F5F5F5F5F5F5F5F5F5F5F5F5F5F5F5F5F5F5F5F5F5F5F5F5F5F5F5F5F5F5F5F5F5F5F5F5F5F5F5F5F5F5F5F5F5F5F5F5F5F5F5F5F5F5F5F5F5F5F5F5F5F5F5F5F5F5F5F5F5F5F5F5F5F5F5F5F5F5F5
310
F5F5F5F5F5F5F5F5F5F5F5F5F5F5F5F5F5F5F5F5F5E2F5F5F5F5F5F5F5F5E2F5F5E2E2E2E2F5F5E2F5F5F5F5F5F5F5F5E2F5F5F5F5F5F5F5F5F5F5F5F5F5F5F5F5F5F5F5F5F5F5F5F5F5F5F5F5F5F5F5F5F5F5F5F5F5F5F5F5F5F5F5F5F5F5F5F5F5F5F5F5F5F5F5F5F5F5F5F5F5F5F5F5F5F5F5F5F5F5F5F5F5F5F5F5F5F5
310
F5F5F5F5F5F5F5F5F5F5F5F5F5F5F5F5F5F5F5F5F5F5F5F5F5F5F5F5F5F5F5F5F5F5F5F5F5F5F5F5F5F5F5F5F5F5F5F5F5F5F5F5F5F5F5F5F5F5F5F5F5F5F5F5F5F5F5F5F5F5F5F5F5F5E2F5F5F5F5F5F5F5F5E2F5F5E2E2E2E2F5F5E2F5F5F5F5F5F5F5F5E2F5F5F5F5F5F5F5F5F5F5F5F5F5F5F5F5F5F5F5F5F5F5F5F5F5
310
F5F5F5F5F5F5F5F5F5F5F5F5F5F5F5F5F5F5F5F5F5F5F5F5F5F5F5F5F5F5F5F5F5F5F5F5F5F5F5F5F5F5F5F5F5F5F5F5F5F5F5F5F5F5F5F5F5F5F5F5F5F5F5F5F5F5F5F5F5F5F5F5F5F5F5F5F5F5F5F5F5F5F5F5F5F5F5F5F5F5F5F5F5F5F5F5F5F5F5F5F5F5F5F5F5F5F5F5F5F5F5F5F5F5F5F5F5F5F5F5F5F5F5F5F5F5F5
310
E2F5F5F5F5F5F5F5F5E2F5F5E2E2E2E2F5F5E2F5F5F5F5F5F5F5F5E2F5F5F5F5F5F5F5F5F5F5F5F5F5F5F5F5F5F5F5F5F5F5F5F5F5F5F5F5F5F5F5F5F5F5F5F5F5F5F5F5F5F5F5F5F5F5F5F5F5F5F5F5F5F5F5F5F5F5F5F5F5F5F5F5F5F5F5F5F5F5F5F5F5F5F5F5F5F5F5F5F5F5F5F5F5F5F5F5F5F5F5F5F5F5F5F5F5F5F5
310
F5F5F5F5F5F5F5F5F5F5F5F5F5F5F5F5F5F5F5F5F5F5F5F5F5F5F5F5F5F5F5F5F5F5F5F5F5F5F5F5F5F5F5F5F5F5F5F5F5F5F5F5F5E2F5F5F5F5F5F5F5F5E2F5F5E2E2E2E2F5F5E2F5F5F5F5F5F5F5F5E2F5F5F5F5F5F5F5F5F5F5F5F5F5F5F5F5F5F5F5F5F5F5F5F5F5F5F5F5F5F5F5F5F5F5F5F5F5F5F5F5F5F5F5F5F5F5
310
F5F5F5F5F5F5F5F5F5F5F5F5F5F5F5F5F5F5F5F5F5F5F5F5F5F5F5F5F5F5F5F5F5F5F5F5F5F5F5F5F5F5F5F5F5F5F5F5F5F5F5F5F5F5F5F5F5F5F5F5F5F5F5F5F5F5F5F5F5F5F5F5F5F5F5F5F5F5F5F5F5F5F5F5F5F5F5F5F5F5F5F5F5F5F5F5F5F5F5F5F5F5F5F5F5F5E2F5F5F5F5F5F5F5F5E2F5F5E2E2E2E2F5F5E2F5F5
310
F5F5F5F5F5F5E2F5F5F5F5F5F5F5F5F5F5F5F5F5F5F5F5F5F5F5F5F5F5F5F5F5F5F5F5F5F5F5F5F5F5F5F5F5F5F5F5F5F5F5F5F5F5F5F5F5F5F5F5F5F5F5F5F5F5F5F5F5F5F5F5F5F5F5F5F5F5F5F5F5F5F5F5F5F5F5F5F5F5F5F5F5F5F5F5F5F5F5F5F5F5F5F5F5F5F5F5F5F5F5F5F5F5F5F5F5F5F5F5F5F5F5F5F5F5F5F5
310
F5F5F5F5F5F5F5F5F5F5F5F5F5F5F5F5F5F5F5F5F5F5F5F5F5F5F5F5F5F5F5F5E2F5F5F5F5F5F5F5F5E2F5F5E2E2E2E2F5F5E2F5F5F5F5F5F5F5F5E2E2E2E2E2E2E2E2E2E2E2E2E2E2E2E2E2E2E2E2E2E2E2E2E2E2E2E2E2E2E2E2E2E2E2E2E2E2E2E2E2E2E2E2E2E2E2E2E2E2E2E2E2E2E2E2E2E2E2E2E2E2E2E2E2E2E2E2
310
E2E2E2E2E2E2E2E2E2E2E2E2E2E2E2E2E2E2E2E2E2E2E2E2E2E2E2E2E2E2E2E2E2E2E2E2E2E2E2E2E2E2E2E2E2E2E2E2E2E2E2E2E2E2E2E2E2E2E2E2E2E2E2E2E2E2E2E2E2E2E2E2E2E2E2E2E2E2E2E2E2E2E2E2E2E2F5F5F5F5F5F5F5F5E2F5F5E2E2E2E2F5F5F5F5F5F5F5F5F5F5F5F5F5F5F5F5F5F5F5F5F5F5F5F5F5F5
310
F5F5F5F5F5F5F5F5F5F5F5F5F5F5F5F5F5F5F5F5F5F5F5F5F5F5F5F5F5F5F5F5F5F5F5F5F5F5F5F5F5F5F5F5F5F5F5F5F5F5F5F5F5F5F5F5F5F5F5F5F5F5F5F5F5F5F5F5F5F5F5F5F5E2E2E2F5F5F5F5F5F5F5F5F5F5F5F5F5F5F5F5F5F5F5F5F5F5F5F5F5F5F5F5F5F5F5F5F5F5F5F5F5F5F5F5F5F5F5F5F5F5F5F5F5F5F5
310
F5F5F5F5F5F5F5F5F5F5F5F5F5F5F5F5F5F5F5F5F5F5F5E2E2E2E2F5F5F5F5F5F5F5F5F5F5F5F5F5F5F5F5F5F5F5F5F5F5F5F5F5F5F5F5F5F5F5F5F5F5F5F5F5F5F5F5F5F5F5F5F5F5F5F5F5F5F5F5F5F5F5F5F5F5F5F5F5F5F5F5F5F5F5F5F5F5F5F5F5F5F5F5F5F5F5F5F5F5F5F5F5F5F5F5F5F5F5E2E2E2E2E2F5E2F5E2
310
E2E2F5E2E2F5E2E2E2E2F5F5E2F5F5F5F5E2E2E2E2E2E2E2F5E2F5F5F5F5E2F5E2E2E2E2F5F5F5F5F5F5F5F5F5F5F5F5F5F5F5F5F5F5F5F5F5F5F5F5F5F5F5F5F5F5F5F5F5F5F5F5F5F5F5F5E2E2E2E2F5F5F5F5F5F5F5F5F5F5F5F5F5F5F5F5F5F5F5F5F5F5F5F5F5F5F5F5F5F5F5F5F5F5F5F5F5F5F5F5F5F5F5F5F5F5F5
310
F5F5F5F5F5F5F5F5F5F5F5F5F5F5F5F5F5F5F5F5F5F5F5F5F5F5F5F5F5F5F5F5F5F5F5F5F5F5F5F5F5F5F5F5E2F5F5F5E2F5E2F5E2F5E2F5E2E2F5E2E2E2E2F5F5E2F5F5F5F5F5F5E2F5E2E2E2F5E2F5F5F5F5E2E2E2F5F5E2F5F5F5F5F5F5F5F5F5F5F5F5F5F5F5F5F5F5F5F5F5F5F5F5F5F5F5F5F5F5F5F5F5F5F5F5F5F5
310
F5F5E2E2E2E2F5F5F5F5F5F5F5F5F5F5F5F5F5F5F5F5F5F5F5F5F5F5F5F5F5F5F5F5F5F5F5F5F5F5F5F5F5F5F5F5F5F5F5F5F5F5F5F5F5F5F5F5F5F5F5F5F5F5F5F5F5F5F5F5F5F5F5F5F5F5F5F5F5F5F5F5F5F5F5F5F5F5F5F5F5F5F5F5F5F5F5E2E2F5F5E2E2E2F5E2E2E2F5E2E2F5E2E2E2E2E2E2E2F5F5F5F5F5E2F5F5
310
E2E2E2F5E2E2E2F5E2F5E2E2E2E2E2F5F5F5F5F5F5F5F5F5F5F5F5F5F5F5F5F5F5F5F5F5F5F5F5F5F5F5F5F5F5F5F5F5F5F5F5F5F5F5F5E2E2E2E2F5F5F5F5F5F5F5F5F5F5F5F5F5F5F5F5F5F5F5F5F5F5F5F5F5F5F5F5F5F5F5F5F5F5F5F5F5F5F5F5F5F5F5F5F5F5F5F5F5F5F5F5F5F5F5F5F5F5F5F5F5F5F5F5F5F5F5F5
310
F5F5F5F5F5F5F5F5F5F5F5F5F5F5F5F5F5F5F5F5F5F5F5E2F5F5F5F5F5F5F5F5F5F5F5E2E2F5F5F5F5E2F5F5F5F5F5F5F5E2F5F5E2F5F5F5F5F5F5F5F5F5F5F5F5F5F5F5F5F5F5F5F5F5F5F5F5F5F5F5F5F5F5F5F5F5F5F5F5F5F5F5F5F5F5F5F5F5F5F5F5F5F5F5F5F5F5F5E2E2E2E2F5F5F5F5F5F5F5F5F5F5F5F5F5F5F5
310
F5F5F5F5F5F5F5F5F5F5F5F5F5F5F5F5F5F5F5F5F5F5F5F5F5F5F5F5F5F5F5F5F5F5F5F5F5F5F5F5F5F5F5F5F5F5F5F5F5F5F5F5F5F5F5F5F5F5F5F5F5F5F5F5F5F5F5F5F5F5F5F5F5F5F5F5E2E2E2E2F5F5F5F5F5F5F5F5E2E2F5F5F5F5E2F5F5F5F5F5F5F5F5E2E2F5F5F5F5F5F5F5F5F5F5F5F5F5F5F5F5F5F5F5F5F5F5
310
F5F5F5F5F5F5F5F5F5F5F5F5F5F5F5F5F5F5F5F5F5F5F5F5F5F5F5F5F5F5F5F5F5F5E2E2E2E2F5F5F5F5F5F5F5F5F5F5F5F5F5F5F5F5F5F5F5F5F5F5F5F5F5F5F5F5F5F5F5F5F5F5F5F5F5F5F5F5F5F5F5F5F5F5F5F5F5F5F5F5F5F5F5F5F5F5F5F5F5F5F5F5F5F5F5F5F5F5F5F5F5F5F5F5F5F5F5F5F5F5F5F5F5F5F5F5F5
310
F5F5F5F5F5F5F5F5F5F5F5E2E2E2F5F5F5F5F5F5F5F5F5F5F5F5F5F5F5F5F5F5F5F5F5F5F5F5F5E2F5F5F5F5F5F5F5F5F5F5F5F5F5F5F5F5F5F5F5F5F5F5F5F5F5F5F5F5F5F5F5F5F5F5F5F5F5F5F5F5F5F5F5F5F5F5F5E2E2E2E2F5F5F5F5F5F5F5F5F5F5F5F5F5F5F5F5F5F5F5F5F5F5F5F5F5F5F5F5F5F5F5F5F5F5F5F5
310
F5F5F5F5F5F5F5F5F5F5F5F5F5F5F5F5F5F5F5F5F5F5F5F5F5F5F5F5F5F5F5F5F5F5F5F5F5F5F5F5F5F5F5F5F5F5F5F5F5F5F5F5F5F5F5F5E2E2F5E2E2F5F5E2F5E2E2F5E2F5E2E2E2F5F5F5F5F5E2F5F5F5E2F5E2E2F5F5F5E2F5E2F5E2F5F5F5F5F5E2E2F5E2E2E2E2E2F5E2E2F5F5F5F5F5E2E2E2F5E2E2F5F5F5F5F5F5
310
F5F5F5F5F5F5F5F5F5F5F5F5F5E2E2E2E2F5F5F5F5F5F5F5F5F5F5F5F5F5F5F5F5F5F5F5F5F5F5F5F5F5F5F5F5F5F5F5F5F5F5F5F5F5F5F5F5F5F5F5F5F5F5F5F5F5F5F5F5F5F5F5F5F5F5F5F5F5F5F5F5F5F5F5F5F5F5F5F5F5F5F5F5F5F5F5F5F5F5F5F5F5F5F5F5F5F5F5E2F5F5E2E2E2F5F5E2E2F5E2F5E2F5E2E2E2F5
310
F5F5F5F5E2F5F5E2F5E2E2E2F5F5F5E2F5E2F5E2F5F5F5F5E2F5F5E2E2F5E2E2F5E2E2E2F5F5F5F5F5E2F5F5E2F5E2F5F5F5F5F5F5F5F5F5F5F5F5F5F5F5F5F5F5F5E2E2E2E2F5F5E2F5F5F5F5F5F5F5F5F5F5F5F5F5F5F5F5F5F5F5F5F5F5F5F5F5F5F5F5F5F5F5F5F5F5F5F5F5F5F5F5F5F5F5F5F5F5F5F5F5F5F5F5F5F5
310
F5F5F5F5F5F5F5F5F5F5F5F5F5F5F5F5F5F5F5F5F5F5F5F5F5F5F5F5F5F5F5F5F5F5F5E2E2F5E2E2E2E2E2E2E2E2F5E2F5E2E2E2E2E2E2E2F5E2F5F5E2F5F5E2E2E2E2F5E2E2E2F5F5F5F5F5F5F5E2E2F5E2E2E2E2E2E2E2E2E2F5F5F5F5E2E2E2E2F5E2F5F5F5F5F5F5F5F5F5F5F5F5F5F5F5F5E2F5F5E2E2E2E2F5F5E2F5
310
F5F5F5F5F5F5F5F5F5F5F5F5F5F5F5F5F5F5F5F5F5F5F5F5F5F5F5F5F5F5F5F5F5F5F5F5F5F5F5F5F5F5F5F5F5F5F5F5F5F5F5F5F5F5F5F5F5F5F5F5F5F5F5F5F5F5F5F5F5F5F5F5F5F5F5F5F5F5F5F5F5F5F5F5F5F5F5E2F5F5E2E2F5F5F5F5F5F5F5F5E2F5F5F5F5F5F5F5F5F5E2F5F5F5F5F5F5F5F5F5F5F5F5F5F5F5F5
310
F5F5F5E2F5F5E2E2F5F5F5F5F5F5F5F5F5F5F5F5E2F5E2E2F5E2F5F5F5F5F5F5F5F5F5F5F5F5F5F5F5F5E2F5F5E2E2E2E2F5F5E2F5F5F5F5F5F5F5F5F5F5F5F5F5F5F5F5F5F5F5F5F5F5F5F5F5F5F5F5F5F5F5F5F5F5F5F5F5F5F5F5F5F5F5F5F5F5F5F5F5F5F5F5F5F5F5F5F5F5F5F5F5F5F5F5F5F5F5F5F5F5F5F5F5F5F5
310
F5F5F5F5F5F5F5F5F5F5F5F5F5F5E2E2F5E2F5F5F5F5F5F5F5F5E2F5F5F5F5F5F5F5F5E2E2E2E2F5F5F5F5F5F5F5F5F5F5F5F5F5F5F5F5F5F5E2E2F5E2F5F5F5F5F5F5F5F5F5F5F5F5E2E2E2F5E2E2F5F5F5F5F5F5F5F5F5F5F5F5F5F5F5F5E2F5F5E2E2E2E2F5F5E2F5F5F5F5F5F5F5F5F5F5F5F5F5F5F5F5F5F5F5F5F5F5
310
F5F5F5F5F5F5F5F5F5F5F5F5F5F5F5F5F5F5F5F5F5F5F5F5F5F5F5F5F5F5F5F5F5F5F5F5F5F5F5F5F5F5F5F5F5F5F5F5F5F5F5F5F5F5F5F5F5F5F5F5F5F5F5F5F5F5F5F5F5F5F5F5F5F5F5F5F5F5F5F5F5F5F5F5F5F5F5F5F5F5F5F5F5F5F5F5F5F5F5F5F5F5F5F5F5F5F5F5F5F5F5F5F5F5F5F5F5F5F5F5F5F5F5F5F5F5F5
310
F5F5F5F5F5F5F5F5F5F5F5F5F5F5F5F5F5F5F5F5F5E2F5F5E2E2E2E2F5F5E2F5F5F5F5F5F5F5F5F5F5F5F5F5F5F5F5F5F5F5F5F5F5F5F5F5F5F5F5F5F5F5F5F5F5F5F5F5F5F5F5F5F5F5F5F5F5F5F5F5F5F5F5F5F5F5F5F5F5F5F5F5F5F5F5F5F5F5F5F5F5F5F5F5F5F5F5F5F5F5F5F5F5F5F5F5F5F5F5F5E2E2F5F5F5E2F5
310
E2E2E2F5E2E2E2E2F5F5E2F5F5F5F5E2E2E2F5F5F5F5F5F5F5F5F5F5F5F5F5F5F5F5F5F5F5F5F5F5F5F5F5F5F5F5F5F5F5F5F5F5F5F5F5F5F5F5F5F5F5F5F5F5F5F5F5F5F5F5F5F5F5F5E2F5F5E2E2E2E2F5F5E2F5F5F5F5F5F5F5F5F5F5F5F5F5F5F5F5F5F5F5F5F5F5F5F5F5F5F5F5F5F5F5F5F5F5F5F5F5F5F5F5F5F5F5
310
F5F5F5F5F5F5F5F5F5F5F5F5F5F5F5F5F5F5F5F5F5F5F5F5F5F5F5F5F5F5F5F5F5F5F5F5F5F5F5F5F5F5F5F5F5E2F5F5E2F5F5E2F5E2F5E2E2F5F5E2E2F5F5E2F5F5F5F5E2F5E2F5E2E2E2F5F5F5F5F5F5F5F5F5F5F5F5F5F5F5F5F5F5F5F5F5F5F5F5F5F5F5F5F5F5F5F5F5F5F5F5F5F5F5F5F5F5F5F5F5F5F5F5F5F5F5F5
310
E2F5F5E2E2E2E2F5F5E2F5F5F5F5F5F5F5F5F5F5F5F5F5F5F5F5F5F5F5F5F5F5F5F5F5F5F5F5F5F5F5F5F5F5F5F5F5F5F5F5F5F5F5F5F5F5F5F5F5F5F5F5F5F5F5F5F5F5F5F5F5F5F5F5F5F5F5F5F5F5F5F5F5F5F5F5F5F5F5F5F5F5F5F5F5F5F5F5E2E2E2E2E2E2E2F5F5F5E2E2F5E2E2E2F5E2E2E2E2E2E2F5E2F5F5E2E2
310
E2F5F5F5F5F5F5F5F5F5F5F5F5F5F5F5F5F5F5F5F5F5F5F5F5F5F5F5F5F5F5F5F5F5F5F5F5F5F5F5F5F5F5F5F5F5F5F5F5F5F5F5F5E2F5F5E2E2E2E2F5F5E2F5F5F5F5F5F5F5F5F5F5F5F5F5F5F5F5F5F5F5F5F5F5F5F5F5F5F5F5F5F5F5F5F5F5F5F5F5F5F5F5F5F5F5F5F5F5F5F5F5F5F5F5F5F5F5F5F5F5F5F5F5F5F5F5
310
F5F5F5F5F5F5F5F5F5F5F5F5F5F5F5F5F5F5F5F5F5F5F5F5E2F5F5E2F5E2E2F5E2E2E2E2F5F5F5E2E2F5E2F5F5F5F5E2F5E2F5E2E2E2F5F5F5F5F5F5F5F5F5F5F5F5F5F5F5F5F5F5F5F5F5F5F5F5F5F5F5F5F5F5F5F5F5F5F5F5F5F5F5F5F5F5F5F5F5F5F5F5F5F5F5F5E2F5F5E2E2E2E2F5F5E2E2E2E2E2E2E2E2F5F5F5F5
310
F5F5F5F5F5E2E2E2E2E2E2E2E2E2E2E2E2E2E2E2E2F5F5F5F5F5F5F5F5F5E2E2E2E2E2E2E2E2E2E2E2E2E2E2E2F5F5F5F5F5F5F5F5F5E2E2E2E2E2E2E2E2E2E2E2E2E2E2E2E2F5F5F5F5F5F5F5F5E2E2E2E2E2E2E2E2E2E2E2E2E2E2E2E2F5E2F5F5F5F5E2E2E2E2E2E2E2E2E2E2E2E2E2E2E2E2E2E2F5F5F5F5F5F5F5F5F5
310
E2E2E2E2E2E2E2E2E2E2E2E2E2E2E2E2F5F5F5F5F5F5F5F5F5E2E2E2E2E2E2E2E2F5F5E2E2E2E2F5F5F5F5F5F5F5F5F5F5F5F5F5F5F5F5F5F5F5F5F5F5F5F5F5F5F5F5F5F5F5F5F5F5F5F5F5F5F5F5F5F5F5F5F5F5F5F5F5F5F5F5F5F5F5F5F5F5F5F5F5F5F5F5F5F5F5F5F5F5F5F5F5F5F5F5F5F5F5F5F5F5F5F5F5F5F5F5
310
F5F5F5F5F5F5F5F5F5F5F5F5F5F5F5F5F5F5F5F5F5F5F5F5F5F5F5F5F5F5F5F5F5F5F5F5F5F5F5F5F5F5F5F5F5F5F5F5F5F5F5F5F5F5F5F5F5F5F5F5F5F5F5F5F5F5F5F5F5F5F5F5F5F5F5F5F5F5F5F5F5F5F5F5F5F5F5F5E2E2E2E2F5F5F5F5F5F5F5F5F5F5F5F5F5F5F5F5F5F5F5F5F5F5F5F5F5F5F5F5F5F5F5F5F5F5F5
310
F5F5F5F5F5F5F5F5F5F5F5F5F5F5F5F5F5F5F5F5F5F5F5F5F5F5F5F5F5F5F5F5F5F5F5F5F5F5F5F5F5F5F5F5F5F5F5F5F5F5F5F5F5F5F5F5F5F5F5F5F5F5F5F5F5F5F5F5F5F5F5F5F5F5F5F5F5F5F5F5F5F5F5F5F5F5F5F5F5F5F5F5F5F5F5F5F5F5F5F5F5F5F5F5F5F5F5F5F5F5F5F5F5F5F5F5F5F5F5F5F5F5F5F5F5F5F5
310
F5F5F5F5F5F5F5F5F5F5F5F5F5F5E2E2E2E2F5F5F5F5F5F5F5F5F5F5F5F5F5F5F5F5F5F5F5F5F5F5F5F5F5F5F5F5F5F5F5F5F5F5F5F5F5F5F5F5F5F5F5F5F5F5F5F5F5F5F5F5F5F5F5F5F5F5F5F5F5F5F5F5F5F5F5F5F5F5F5F5F5F5F5F5F5F5F5F5F5F5F5F5F5F5F5F5F5F5F5F5F5F5F5F5F5F5F5F5F5F5F5F5F5F5F5F5F5
310
F5F5F5F5F5F5F5F5F5F5F5F5F5F5F5F5F5F5F5F5F5F5F5F5F5F5F5F5F5F5F5F5F5F5F5F5F5F5F5F5F5F5F5F5F5F5F5F5F5F5F5F5F5F5F5F5F5F5F5F5F5F5F5F5F5F5F5E2EFEFE2F5F5F5F5F5F5F5F5F5F5F5F5F5F5F5F5F5F5F5F5F5F5F5F5F5F5F5F5F5F5F5F5F5F5F5F5F5F5F5F5F5F5F5F5F5F5F5F5F5F5F5F5F5F5F5F5
310
F5F5F5F5F5F5F5F5F5F5F5F5F5F5F5F5F5F5F5F5F5F5F5F5F5F5F5F5F5F5F5F5F5F5F5F5F5F5F5F5F5F5F5F5F5F5F5F5F5F5F5F5F5F5F5F5F5F5F5F5F5F5F5F5F5F5F5F5F5F5F5F5F5F5F5F5F5F5F5F5F5F5F5F5F5F5F5F5F5F5F5F5F5F5F5F5F5F5F5F5F5F5F5F5F5F5F5F5F5F5F5F5F5F5F5F5F5F5F5F5E2EFEFE2E2E2E2
310
E2E2E2E2E2E2E2E2E2E2E2E2E2E2E2E2E2E2E2E2E2E2E2E2E2E2E2E2E2E2E2E2E2E2E2E2E2E2E2E2E2E2E2E2E2E2E2E2E2E2E2E2E2E2E2E2E2E2E2E2E2E2E2E2E2E2E2E2E2E2E2E2E2E2E2E2E2E2E2E2E2E2E2E2E2E2E2E2E2E2E2E2E2E2E2E2E2E2E2E2E2E2E2E2E2E2E2E2E2E2E2E2E2E2E2E2E2E2E2E2E2E2E2E2E2E2E2
310
E2E2E2E2E2E2E2E2E2E2E2E2E2E2E2E2E2E2E2E2E2E2E2E2E2E2E2E2E2E2E2E2E2E2E2E2E2E2E2E2E2E2E2E2E2E2E2EFEF
  0
XRECORD
  5
59F31
102
{ACAD_REACTORS
330
59F30
102
}
330
59F30
100
AcDbXrecord
280
     1
102
SHADEPLOT
 70
     0
102
SHADEPLOTRESLEVEL
 70
     2
102
SHADEPLOTCUSTOMDPI
 70
   300
  0
ENDSEC
  0
EOF
