  0
SECTION
  2
HEADER
  9
$ACADVER
  1
AC1015
  9
$ACADMAINTVER
 70
     6
  9
$DWGCODEPAGE
  3
ANSI_1252
  9
$INSBASE
 10
0.0
 20
0.0
 30
0.0
  9
$EXTMIN
 10
692.7185583398261
 20
251.7863684547018
 30
3.539568164649253
  9
$EXTMAX
 10
936.4768354691356
 20
517.2963844448437
 30
3.646124999999996
  9
$LIMMIN
 10
0.0
 20
0.0
  9
$LIMMAX
 10
12.0
 20
9.0
  9
$ORTHOMODE
 70
     0
  9
$REGENMODE
 70
     1
  9
$FILLMODE
 70
     1
  9
$QTEXTMODE
 70
     0
  9
$MIRRTEXT
 70
     1
  9
$LTSCALE
 40
1.0
  9
$ATTMODE
 70
     1
  9
$TEXTSIZE
 40
0.12
  9
$TRACEWID
 40
0.05
  9
$TEXTSTYLE
  7
STANDARD
  9
$CLAYER
  8
AREA1
  9
$CELTYPE
  6
BYLAYER
  9
$CECOLOR
 62
   256
  9
$CELTSCALE
 40
1.0
  9
$DISPSILH
 70
     0
  9
$DIMSCALE
 40
1.0
  9
$DIMASZ
 40
4.572
  9
$DIMEXO
 40
1.587499999999999
  9
$DIMDLI
 40
9.525
  9
$DIMRND
 40
0.0
  9
$DIMDLE
 40
0.0
  9
$DIMEXE
 40
4.572
  9
$DIMTP
 40
0.0
  9
$DIMTM
 40
0.0
  9
$DIMTXT
 40
4.572
  9
$DIMCEN
 40
2.286
  9
$DIMTSZ
 40
0.0
  9
$DIMTOL
 70
     0
  9
$DIMLIM
 70
     0
  9
$DIMTIH
 70
     0
  9
$DIMTOH
 70
     1
  9
$DIMSE1
 70
     0
  9
$DIMSE2
 70
     0
  9
$DIMTAD
 70
     0
  9
$DIMZIN
 70
     4
  9
$DIMBLK
  1

  9
$DIMASO
 70
     1
  9
$DIMSHO
 70
     1
  9
$DIMPOST
  1

  9
$DIMAPOST
  1

  9
$DIMALT
 70
     1
  9
$DIMALTD
 70
     6
  9
$DIMALTF
 40
0.03937
  9
$DIMLFAC
 40
1.0
  9
$DIMTOFL
 70
     0
  9
$DIMTVP
 40
0.0
  9
$DIMTIX
 70
     0
  9
$DIMSOXD
 70
     0
  9
$DIMSAH
 70
     0
  9
$DIMBLK1
  1

  9
$DIMBLK2
  1

  9
$DIMSTYLE
  2
ABECAD_3D
  9
$DIMCLRD
 70
     0
  9
$DIMCLRE
 70
     0
  9
$DIMCLRT
 70
     0
  9
$DIMTFAC
 40
1.5
  9
$DIMGAP
 40
2.286
  9
$DIMJUST
 70
     0
  9
$DIMSD1
 70
     0
  9
$DIMSD2
 70
     0
  9
$DIMTOLJ
 70
     1
  9
$DIMTZIN
 70
     4
  9
$DIMALTZ
 70
     4
  9
$DIMALTTZ
 70
     4
  9
$DIMUPT
 70
     1
  9
$DIMDEC
 70
     2
  9
$DIMTDEC
 70
     2
  9
$DIMALTU
 70
     7
  9
$DIMALTTD
 70
     6
  9
$DIMTXSTY
  7
STANDARD
  9
$DIMAUNIT
 70
     0
  9
$DIMADEC
 70
     0
  9
$DIMALTRND
 40
0.0
  9
$DIMAZIN
 70
     0
  9
$DIMDSEP
 70
    46
  9
$DIMATFIT
 70
     2
  9
$DIMFRAC
 70
     2
  9
$DIMLDRBLK
  1

  9
$DIMLUNIT
 70
     2
  9
$DIMLWD
 70
    -2
  9
$DIMLWE
 70
    -2
  9
$DIMTMOVE
 70
     2
  9
$LUNITS
 70
     2
  9
$LUPREC
 70
     4
  9
$SKETCHINC
 40
0.1
  9
$FILLETRAD
 40
0.0
  9
$AUNITS
 70
     0
  9
$AUPREC
 70
     0
  9
$MENU
  1
ACAD
  9
$ELEVATION
 40
0.0
  9
$PELEVATION
 40
0.0
  9
$THICKNESS
 40
0.0
  9
$LIMCHECK
 70
     0
  9
$CHAMFERA
 40
0.0
  9
$CHAMFERB
 40
0.0
  9
$CHAMFERC
 40
0.0
  9
$CHAMFERD
 40
0.0
  9
$SKPOLY
 70
     0
  9
$TDCREATE
 40
2453042.595653843
  9
$TDUCREATE
 40
2453042.803987176
  9
$TDUPDATE
 40
2453597.756087581
  9
$TDUUPDATE
 40
2453597.964420914
  9
$TDINDWG
 40
0.2008289815
  9
$TDUSRTIMER
 40
0.2008289815
  9
$USRTIMER
 70
     1
  9
$ANGBASE
 50
0.0
  9
$ANGDIR
 70
     0
  9
$PDMODE
 70
     3
  9
$PDSIZE
 40
2.5
  9
$PLINEWID
 40
0.0
  9
$SPLFRAME
 70
     1
  9
$SPLINETYPE
 70
     6
  9
$SPLINESEGS
 70
     8
  9
$HANDSEED
  5
58372
  9
$SURFTAB1
 70
     6
  9
$SURFTAB2
 70
     6
  9
$SURFTYPE
 70
     6
  9
$SURFU
 70
     6
  9
$SURFV
 70
     6
  9
$UCSBASE
  2

  9
$UCSNAME
  2

  9
$UCSORG
 10
266.8673580196576
 20
8.203180508612135
 30
3.646124999999996
  9
$UCSXDIR
 10
1.0
 20
0.0
 30
0.0
  9
$UCSYDIR
 10
0.0
 20
1.0
 30
0.0
  9
$UCSORTHOREF
  2

  9
$UCSORTHOVIEW
 70
     1
  9
$UCSORGTOP
 10
266.8673580196576
 20
8.203180508612135
 30
3.646124999999996
  9
$UCSORGBOTTOM
 10
0.0
 20
0.0
 30
0.0
  9
$UCSORGLEFT
 10
0.0
 20
0.0
 30
0.0
  9
$UCSORGRIGHT
 10
44.57293710473379
 20
-10.57239502465733
 30
3.810000000000003
  9
$UCSORGFRONT
 10
0.0
 20
0.0
 30
0.0
  9
$UCSORGBACK
 10
0.0
 20
0.0
 30
0.0
  9
$PUCSBASE
  2

  9
$PUCSNAME
  2

  9
$PUCSORG
 10
0.0
 20
0.0
 30
0.0
  9
$PUCSXDIR
 10
1.0
 20
0.0
 30
0.0
  9
$PUCSYDIR
 10
0.0
 20
1.0
 30
0.0
  9
$PUCSORTHOREF
  2

  9
$PUCSORTHOVIEW
 70
     0
  9
$PUCSORGTOP
 10
0.0
 20
0.0
 30
0.0
  9
$PUCSORGBOTTOM
 10
0.0
 20
0.0
 30
0.0
  9
$PUCSORGLEFT
 10
0.0
 20
0.0
 30
0.0
  9
$PUCSORGRIGHT
 10
0.0
 20
0.0
 30
0.0
  9
$PUCSORGFRONT
 10
0.0
 20
0.0
 30
0.0
  9
$PUCSORGBACK
 10
0.0
 20
0.0
 30
0.0
  9
$USERI1
 70
     0
  9
$USERI2
 70
     0
  9
$USERI3
 70
     0
  9
$USERI4
 70
     0
  9
$USERI5
 70
     0
  9
$USERR1
 40
0.0
  9
$USERR2
 40
0.0
  9
$USERR3
 40
0.0
  9
$USERR4
 40
0.0
  9
$USERR5
 40
0.0
  9
$WORLDVIEW
 70
     1
  9
$SHADEDGE
 70
     3
  9
$SHADEDIF
 70
    70
  9
$TILEMODE
 70
     0
  9
$MAXACTVP
 70
    16
  9
$PINSBASE
 10
0.0
 20
0.0
 30
0.0
  9
$PLIMCHECK
 70
     0
  9
$PEXTMIN
 10
25.88717061955833
 20
19.5
 30
0.0
  9
$PEXTMAX
 10
230.760092029815
 20
192.0586136734827
 30
0.0
  9
$PLIMMIN
 10
8.931840085394117
 20
13.38571885179438
  9
$PLIMMAX
 10
248.0681737907302
 20
198.1728846186557
  9
$UNITMODE
 70
     0
  9
$VISRETAIN
 70
     0
  9
$PLINEGEN
 70
     0
  9
$PSLTSCALE
 70
     1
  9
$TREEDEPTH
 70
  3020
  9
$CMLSTYLE
  2
STANDARD
  9
$CMLJUST
 70
     0
  9
$CMLSCALE
 40
1.0
  9
$PROXYGRAPHICS
 70
     1
  9
$MEASUREMENT
 70
     1
  9
$CELWEIGHT
370
    -1
  9
$ENDCAPS
280
     0
  9
$JOINSTYLE
280
     0
  9
$LWDISPLAY
290
     0
  9
$INSUNITS
 70
     0
  9
$HYPERLINKBASE
  1

  9
$STYLESHEET
  1

  9
$XEDIT
290
     1
  9
$CEPSNTYPE
380
     0
  9
$PSTYLEMODE
290
     1
  9
$FINGERPRINTGUID
  2
{6E0CF4B8-225E-11D4-A150-00A0CC3303EC}
  9
$VERSIONGUID
  2
{C08BA1AD-FC8C-4652-AA78-0E87FF265342}
  9
$EXTNAMES
290
     1
  9
$PSVPSCALE
 40
0.0
  9
$OLESTARTUP
290
     0
  0
ENDSEC
  0
SECTION
  2
CLASSES
  0
CLASS
  1
DICTIONARYVAR
  2
AcDbDictionaryVar
  3
AutoCAD 2000
 90
        0
280
     0
281
     0
  0
CLASS
  1
ACDBDICTIONARYWDFLT
  2
AcDbDictionaryWithDefault
  3
AutoCAD 2000
 90
        0
280
     0
281
     0
  0
CLASS
  1
ACDBPLACEHOLDER
  2
AcDbPlaceHolder
  3
AutoCAD 2000
 90
        0
280
     0
281
     0
  0
CLASS
  1
LAYOUT
  2
AcDbLayout
  3
AutoCAD 2000
 90
        0
280
     0
281
     0
  0
CLASS
  1
LONG_TRANSACTION
  2
AcDbLongTransaction
  3
AutoCAD 2000
 90
    32768
280
     0
281
     0
  0
CLASS
  1
LWPOLYLINE
  2
AcDbPolyline
  3
AutoCAD 2000
 90
    32768
280
     0
281
     1
  0
CLASS
  1
HATCH
  2
AcDbHatch
  3
AutoCAD 2000
 90
    32768
280
     0
281
     1
  0
CLASS
  1
XRECORD
  2
AcDbXrecord
  3
AutoCAD 2000
 90
    32768
280
     0
281
     0
  0
CLASS
  1
LONG_TRANSACTION
  2
AcDbLongTransaction
  3
AutoCAD 2000
 90
    32768
280
     0
281
     0
  0
CLASS
  1
LWPOLYLINE
  2
AcDbPolyline
  3
AutoCAD 2000
 90
    32768
280
     0
281
     1
  0
CLASS
  1
HATCH
  2
AcDbHatch
  3
AutoCAD 2000
 90
    32768
280
     0
281
     1
  0
CLASS
  1
XRECORD
  2
AcDbXrecord
  3
AutoCAD 2000
 90
    32768
280
     0
281
     0
  0
CLASS
  1
TABLESTYLE
  2
AcDbTableStyle
  3
ObjectDBX Classes
 90
     2047
280
     0
281
     0
  0
CLASS
  1
SORTENTSTABLE
  2
AcDbSortentsTable
  3
AutoCAD 2000
 90
    32768
280
     0
281
     0
  0
ENDSEC
  0
SECTION
  2
TABLES
  0
TABLE
  2
VPORT
  5
458C7
330
0
100
AcDbSymbolTable
 70
     1
  0
VPORT
  5
58363
330
458C7
100
AcDbSymbolTableRecord
100
AcDbViewportTableRecord
  2
*Active
 70
     0
 10
0.0
 20
0.0
 11
1.0
 21
1.0
 12
541.7728579075137
 22
376.2931770442952
 13
0.0
 23
0.0
 14
0.25
 24
0.25
 15
0.25
 25
0.25
 16
0.0
 26
0.0
 36
1.0
 17
272.824838996967
 27
8.306349224220612
 37
23.31369335295995
 40
268.7889451332866
 41
2.029914529914529
 42
50.0
 43
0.0
 44
0.0
 50
0.0
 51
0.0
 71
     0
 72
 20000
 73
     1
 74
     1
 75
     0
 76
     0
 77
     0
 78
     0
281
     0
 65
     1
110
266.8673580196576
120
8.203180508612135
130
3.646124999999996
111
1.0
121
0.0
131
0.0
112
0.0
122
1.0
132
0.0
 79
     1
146
0.0
  0
ENDTAB
  0
TABLE
  2
LTYPE
  5
458C4
330
0
100
AcDbSymbolTable
 70
     3
  0
LTYPE
  5
458D0
330
458C4
100
AcDbSymbolTableRecord
100
AcDbLinetypeTableRecord
  2
BYBLOCK
 70
     0
  3

 72
    65
 73
     0
 40
0.0
  0
LTYPE
  5
458D1
330
458C4
100
AcDbSymbolTableRecord
100
AcDbLinetypeTableRecord
  2
BYLAYER
 70
     0
  3

 72
    65
 73
     0
 40
0.0
  0
LTYPE
  5
458D2
330
458C4
100
AcDbSymbolTableRecord
100
AcDbLinetypeTableRecord
  2
CONTINUOUS
 70
     0
  3
Solid line
 72
    65
 73
     0
 40
0.0
  0
LTYPE
  5
4D249
330
458C4
100
AcDbSymbolTableRecord
100
AcDbLinetypeTableRecord
  2
PHANTOM
 70
     0
  3
______  __  __  ______  __  __  ______  __  __ 
 72
    65
 73
     6
 40
2.5
 49
1.25
 74
     0
 49
-0.25
 74
     0
 49
0.25
 74
     0
 49
-0.25
 74
     0
 49
0.25
 74
     0
 49
-0.25
 74
     0
  0
LTYPE
  5
4DE42
330
458C4
100
AcDbSymbolTableRecord
100
AcDbLinetypeTableRecord
  2
CENTER
 70
     0
  3
____ _ ____ _ ____ _ ____ _ ____ _ ____ _ ____
 72
    65
 73
     4
 40
2.0
 49
1.25
 74
     0
 49
-0.25
 74
     0
 49
0.25
 74
     0
 49
-0.25
 74
     0
  0
ENDTAB
  0
TABLE
  2
LAYER
  5
458C1
102
{ACAD_XDICTIONARY
360
480DB
102
}
330
0
100
AcDbSymbolTable
 70
     8
  0
LAYER
  5
458CD
330
458C1
100
AcDbSymbolTableRecord
100
AcDbLayerTableRecord
  2
0
 70
     0
 62
     7
  6
CONTINUOUS
370
    -3
390
458FA
  0
LAYER
  5
458EB
330
458C1
100
AcDbSymbolTableRecord
100
AcDbLayerTableRecord
  2
ATTRIBUTES
 70
     0
 62
    -7
  6
CONTINUOUS
370
    -3
390
458FA
  0
LAYER
  5
4593F
330
458C1
100
AcDbSymbolTableRecord
100
AcDbLayerTableRecord
  2
AREA1
 70
     0
 62
     7
  6
CONTINUOUS
370
    -3
390
458FA
  0
LAYER
  5
45946
330
458C1
100
AcDbSymbolTableRecord
100
AcDbLayerTableRecord
  2
Defpoints
 70
     0
 62
     7
  6
CONTINUOUS
290
     0
370
    -3
390
458FA
  0
LAYER
  5
45972
330
458C1
100
AcDbSymbolTableRecord
100
AcDbLayerTableRecord
  2
SCALE
 70
     0
 62
    -7
  6
CONTINUOUS
370
    -3
390
458FA
  0
LAYER
  5
46E1B
330
458C1
100
AcDbSymbolTableRecord
100
AcDbLayerTableRecord
  2
OBJECT
 70
     0
 62
     7
  6
CONTINUOUS
370
    -3
390
458FA
  0
LAYER
  5
4DE44
330
458C1
100
AcDbSymbolTableRecord
100
AcDbLayerTableRecord
  2
DIMS
 70
     0
 62
     1
  6
CONTINUOUS
370
    -3
390
458FA
  0
LAYER
  5
56706
330
458C1
100
AcDbSymbolTableRecord
100
AcDbLayerTableRecord
  2
TESTPROBE
 70
     0
 62
     7
  6
CONTINUOUS
370
    -3
390
458FA
  0
ENDTAB
  0
TABLE
  2
STYLE
  5
458C2
330
0
100
AcDbSymbolTable
 70
     3
  0
STYLE
  5
458CE
330
458C2
100
AcDbSymbolTableRecord
100
AcDbTextStyleTableRecord
  2
STANDARD
 70
     0
 40
0.0
 41
1.0
 50
0.0
 71
     0
 42
0.12
  3
txt
  4

  0
STYLE
  5
46E1C
330
458C2
100
AcDbSymbolTableRecord
100
AcDbTextStyleTableRecord
  2
ROMANS
 70
     0
 40
0.0
 41
1.0
 50
0.0
 71
     0
 42
0.125
  3
romans
  4

  0
STYLE
  5
5401D
330
458C2
100
AcDbSymbolTableRecord
100
AcDbTextStyleTableRecord
  2
ROMANC
 70
     0
 40
0.0
 41
1.0
 50
0.0
 71
     0
 42
0.2
  3
romanc
  4

  0
ENDTAB
  0
TABLE
  2
VIEW
  5
458C5
330
0
100
AcDbSymbolTable
 70
     0
  0
ENDTAB
  0
TABLE
  2
UCS
  5
458C6
330
0
100
AcDbSymbolTable
 70
     0
  0
ENDTAB
  0
TABLE
  2
APPID
  5
458C8
330
0
100
AcDbSymbolTable
 70
     7
  0
APPID
  5
458CF
330
458C8
100
AcDbSymbolTableRecord
100
AcDbRegAppTableRecord
  2
ACAD
 70
     0
  0
APPID
  5
480E0
330
458C8
100
AcDbSymbolTableRecord
100
AcDbRegAppTableRecord
  2
ACAD_PSEXT
 70
     0
  0
APPID
  5
4DE46
330
458C8
100
AcDbSymbolTableRecord
100
AcDbRegAppTableRecord
  2
GENIUS_GENODEF_13
 70
     0
  0
APPID
  5
4DE47
330
458C8
100
AcDbSymbolTableRecord
100
AcDbRegAppTableRecord
  2
GENIUS_GENOBJ-N-CEN_13
 70
     0
  0
APPID
  5
4DE48
330
458C8
100
AcDbSymbolTableRecord
100
AcDbRegAppTableRecord
  2
GENIUS_GENOBJ-N-FIL_13
 70
     0
  0
APPID
  5
4DE49
330
458C8
100
AcDbSymbolTableRecord
100
AcDbRegAppTableRecord
  2
GENIUS_GENREC_13
 70
     0
  0
APPID
  5
4DE4A
330
458C8
100
AcDbSymbolTableRecord
100
AcDbRegAppTableRecord
  2
GENIUS_GENOBJ-N-REC_13
 70
     0
  0
ENDTAB
  0
TABLE
  2
DIMSTYLE
  5
458C9
330
0
100
AcDbSymbolTable
 70
     2
100
AcDbDimStyleTable
 71
     1
340
458F6
  0
DIMSTYLE
105
458F6
102
{ACAD_REACTORS
330
58296
330
582A4
330
582B2
330
582C0
330
582CE
330
582E9
330
582F6
330
58315
102
}
330
458C9
100
AcDbSymbolTableRecord
100
AcDbDimStyleTableRecord
  2
ABECAD_3D
 70
     0
 41
4.572
 42
1.587499999999999
 43
9.525
 44
4.572
 73
     0
 78
     4
140
4.572
141
2.286
143
0.03937
146
1.5
147
2.286
170
     1
171
     6
271
     2
272
     2
273
     7
274
     6
276
     2
279
     2
284
     4
285
     4
286
     4
288
     1
289
     2
340
458CE
  0
DIMSTYLE
105
459E0
330
458C9
100
AcDbSymbolTableRecord
100
AcDbDimStyleTableRecord
  2
Standard
 70
     0
340
458CE
  0
ENDTAB
  0
TABLE
  2
BLOCK_RECORD
  5
458C0
330
0
100
AcDbSymbolTable
 70
    12
  0
BLOCK_RECORD
  5
458D6
102
{ACAD_XDICTIONARY
360
45930
102
}
330
458C0
100
AcDbSymbolTableRecord
100
AcDbBlockTableRecord
  2
*MODEL_SPACE
340
458FD
  0
BLOCK_RECORD
  5
458D3
102
{ACAD_XDICTIONARY
360
4592E
102
}
330
458C0
100
AcDbSymbolTableRecord
100
AcDbBlockTableRecord
  2
*PAPER_SPACE
340
458FE
  0
BLOCK_RECORD
  5
566F2
330
458C0
100
AcDbSymbolTableRecord
100
AcDbBlockTableRecord
  2
PHILL
340
0
102
{BLKREFS
331
57F50
331
57F52
331
581CD
331
5823F
102
}
  0
BLOCK_RECORD
  5
58297
330
458C0
100
AcDbSymbolTableRecord
100
AcDbBlockTableRecord
  2
*D4
340
0
  0
BLOCK_RECORD
  5
582A5
330
458C0
100
AcDbSymbolTableRecord
100
AcDbBlockTableRecord
  2
*D5
340
0
  0
BLOCK_RECORD
  5
582B3
330
458C0
100
AcDbSymbolTableRecord
100
AcDbBlockTableRecord
  2
*D6
340
0
  0
BLOCK_RECORD
  5
582C1
330
458C0
100
AcDbSymbolTableRecord
100
AcDbBlockTableRecord
  2
*D7
340
0
  0
BLOCK_RECORD
  5
582CF
330
458C0
100
AcDbSymbolTableRecord
100
AcDbBlockTableRecord
  2
*D8
340
0
  0
BLOCK_RECORD
  5
582EA
330
458C0
100
AcDbSymbolTableRecord
100
AcDbBlockTableRecord
  2
*D9
340
0
  0
BLOCK_RECORD
  5
582F7
330
458C0
100
AcDbSymbolTableRecord
100
AcDbBlockTableRecord
  2
*D10
340
0
  0
BLOCK_RECORD
  5
58316
330
458C0
100
AcDbSymbolTableRecord
100
AcDbBlockTableRecord
  2
*D11
340
0
  0
ENDTAB
  0
ENDSEC
  0
SECTION
  2
BLOCKS
  0
BLOCK
  5
458DF
330
458D6
100
AcDbEntity
  8
0
100
AcDbBlockBegin
  2
*MODEL_SPACE
 70
     0
 10
0.0
 20
0.0
 30
0.0
  3
*MODEL_SPACE
  1

  0
ENDBLK
  5
458E0
330
458D6
100
AcDbEntity
  8
0
100
AcDbBlockEnd
  0
BLOCK
  5
458DD
330
458D3
100
AcDbEntity
 67
     1
  8
0
100
AcDbBlockBegin
  2
*PAPER_SPACE
 70
     0
 10
0.0
 20
0.0
 30
0.0
  3
*PAPER_SPACE
  1

  0
ENDBLK
  5
458DE
330
458D3
100
AcDbEntity
 67
     1
  8
0
100
AcDbBlockEnd
  0
BLOCK
  5
566F3
330
566F2
100
AcDbEntity
  8
0
100
AcDbBlockBegin
  2
PHILL
 70
     0
 10
0.0
 20
0.0
 30
0.0
  3
PHILL
  1

  0
ARC
  5
566F4
330
566F2
100
AcDbEntity
  8
TESTPROBE
100
AcDbCircle
 10
-0.0266161468127884
 20
0.0266161468127901
 30
0.0
 40
0.0147336302462335
100
AcDbArc
 50
270.0
 51
0.0
  0
ARC
  5
566F5
330
566F2
100
AcDbEntity
  8
TESTPROBE
100
AcDbCircle
 10
-0.0266161468127884
 20
-0.0266161468127866
 30
0.0
 40
0.0147336302462335
100
AcDbArc
 50
0.0
 51
90.0
  0
LINE
  5
566F6
330
566F2
100
AcDbEntity
  8
TESTPROBE
100
AcDbLine
 10
-0.0930173079744847
 20
0.0118825165665566
 30
0.0
 11
-0.0930173079744847
 21
-0.0118825165665531
 31
0.0
  0
LINE
  5
566F7
330
566F2
100
AcDbEntity
  8
TESTPROBE
100
AcDbLine
 10
-0.0266161468127884
 20
-0.0118825165665531
 30
0.0
 11
-0.0930173079744847
 21
-0.0118825165665531
 31
0.0
  0
LINE
  5
566F8
330
566F2
100
AcDbEntity
  8
TESTPROBE
100
AcDbLine
 10
-0.0266161468127884
 20
0.0118825165665566
 30
0.0
 11
-0.0930173079744847
 21
0.0118825165665566
 31
0.0
  0
LINE
  5
566F9
330
566F2
100
AcDbEntity
  8
TESTPROBE
100
AcDbLine
 10
-0.0118825165665531
 20
0.0930173079744883
 30
0.0
 11
0.0118825165665566
 21
0.0930173079744883
 31
0.0
  0
ARC
  5
566FA
330
566F2
100
AcDbEntity
  8
TESTPROBE
100
AcDbCircle
 10
0.0266161468127884
 20
-0.0266161468127866
 30
0.0
 40
0.0147336302462335
100
AcDbArc
 50
90.0
 51
180.0000000000012
  0
ARC
  5
566FB
330
566F2
100
AcDbEntity
  8
TESTPROBE
100
AcDbCircle
 10
0.0266161468127901
 20
0.0266161468127901
 30
0.0
 40
0.0147336302462335
100
AcDbArc
 50
179.9999999999987
 51
270.0
  0
LINE
  5
566FC
330
566F2
100
AcDbEntity
  8
TESTPROBE
100
AcDbLine
 10
0.0118825165665548
 20
-0.0266161468127866
 30
0.0
 11
0.0118825165665566
 21
-0.0930173079744865
 31
0.0
  0
LINE
  5
566FD
330
566F2
100
AcDbEntity
  8
TESTPROBE
100
AcDbLine
 10
-0.0118825165665548
 20
-0.0266161468127866
 30
0.0
 11
-0.0118825165665531
 21
-0.0930173079744865
 31
0.0
  0
LINE
  5
566FE
330
566F2
100
AcDbEntity
  8
TESTPROBE
100
AcDbLine
 10
0.0930173079744901
 20
-0.0118825165665531
 30
0.0
 11
0.0266161468127884
 21
-0.0118825165665531
 31
0.0
  0
LINE
  5
566FF
330
566F2
100
AcDbEntity
  8
TESTPROBE
100
AcDbLine
 10
0.0930173079744901
 20
0.0118825165665566
 30
0.0
 11
0.0266161468127901
 21
0.0118825165665566
 31
0.0
  0
LINE
  5
56700
330
566F2
100
AcDbEntity
  8
TESTPROBE
100
AcDbLine
 10
0.0118825165665566
 20
0.0930173079744883
 30
0.0
 11
0.0118825165665566
 21
0.0266161468127901
 31
0.0
  0
LINE
  5
56701
330
566F2
100
AcDbEntity
  8
TESTPROBE
100
AcDbLine
 10
-0.0118825165665531
 20
0.0930173079744883
 30
0.0
 11
-0.0118825165665548
 21
0.0266161468127901
 31
0.0
  0
LINE
  5
56702
330
566F2
100
AcDbEntity
  8
TESTPROBE
100
AcDbLine
 10
0.0118825165665566
 20
-0.0930173079744865
 30
0.0
 11
-0.0118825165665531
 21
-0.0930173079744865
 31
0.0
  0
LINE
  5
56703
330
566F2
100
AcDbEntity
  8
TESTPROBE
100
AcDbLine
 10
0.0930173079744901
 20
0.0118825165665566
 30
0.0
 11
0.0930173079744901
 21
-0.0118825165665531
 31
0.0
  0
ENDBLK
  5
56704
330
566F2
100
AcDbEntity
  8
0
100
AcDbBlockEnd
  0
BLOCK
  5
582A2
330
58297
100
AcDbEntity
  8
0
100
AcDbBlockBegin
  2
*D4
 70
     1
 10
0.0
 20
0.0
 30
0.0
  3
*D4
  1

  0
LINE
  5
58298
330
58297
100
AcDbEntity
  8
AREA1
 62
     0
370
    -2
100
AcDbLine
 10
793.2653971387929
 20
467.238336832608
 30
0.0
 11
793.2653971387929
 21
488.6563576503051
 31
0.0
  0
LINE
  5
58299
330
58297
100
AcDbEntity
  8
AREA1
 62
     0
370
    -2
100
AcDbLine
 10
860.0673971387928
 20
467.238336832608
 30
0.0
 11
860.0673971387928
 21
488.6563576503051
 31
0.0
  0
LINE
  5
5829A
330
58297
100
AcDbEntity
  8
AREA1
 62
     0
370
    -2
100
AcDbLine
 10
797.8373971387928
 20
484.0843576503051
 30
0.0
 11
799.1975534556478
 21
484.0843576503051
 31
0.0
  0
LINE
  5
5829B
330
58297
100
AcDbEntity
  8
AREA1
 62
     0
370
    -2
100
AcDbLine
 10
855.4953971387927
 20
484.0843576503051
 30
0.0
 11
854.8235534556479
 21
484.0843576503051
 31
0.0
  0
MTEXT
  5
5829C
330
58297
100
AcDbEntity
  8
AREA1
 62
     0
100
AcDbMText
 10
827.0105534556478
 20
484.0843576503051
 30
0.0
 40
4.572
 41
0.0
 71
     5
 72
     1
  1
\A1;66.80 [2 5/8]
 73
     1
 44
1.0
1001
ACAD
1000
MTEXTBEGIN
1070
    73
1070
     1
1070
    44
1040
1.0
1070
    74
1070
     0
1000
MTEXTEND
  0
SOLID
  5
5829D
330
58297
100
AcDbEntity
  8
AREA1
 62
     0
100
AcDbTrace
 10
797.8373971387928
 20
484.8463576503051
 30
0.0
 11
797.8373971387928
 21
483.3223576503051
 31
0.0
 12
793.2653971387929
 22
484.0843576503051
 32
0.0
 13
793.2653971387929
 23
484.0843576503051
 33
0.0
  0
SOLID
  5
5829E
330
58297
100
AcDbEntity
  8
AREA1
 62
     0
100
AcDbTrace
 10
855.4953971387927
 20
484.8463576503051
 30
0.0
 11
855.4953971387927
 21
483.3223576503051
 31
0.0
 12
860.0673971387928
 22
484.0843576503051
 32
0.0
 13
860.0673971387928
 23
484.0843576503051
 33
0.0
  0
POINT
  5
5829F
330
58297
100
AcDbEntity
  8
Defpoints
 62
     0
100
AcDbPoint
 10
793.2653971387929
 20
465.6508368326081
 30
0.0
  0
POINT
  5
582A0
330
58297
100
AcDbEntity
  8
Defpoints
 62
     0
100
AcDbPoint
 10
860.0673971387928
 20
465.6508368326081
 30
0.0
  0
POINT
  5
582A1
330
58297
100
AcDbEntity
  8
Defpoints
 62
     0
100
AcDbPoint
 10
860.0673971387928
 20
484.0843576503051
 30
0.0
  0
ENDBLK
  5
582A3
330
58297
100
AcDbEntity
  8
0
100
AcDbBlockEnd
  0
BLOCK
  5
582B0
330
582A5
100
AcDbEntity
  8
0
100
AcDbBlockBegin
  2
*D5
 70
     1
 10
0.0
 20
0.0
 30
0.0
  3
*D5
  1

  0
LINE
  5
582A6
330
582A5
100
AcDbEntity
  8
AREA1
 62
     0
370
    -2
100
AcDbLine
 10
783.9943971387927
 20
467.238336832608
 30
0.0
 11
783.9943971387927
 21
502.5475804617632
 31
0.0
  0
LINE
  5
582A7
330
582A5
100
AcDbEntity
  8
AREA1
 62
     0
370
    -2
100
AcDbLine
 10
869.3383971387929
 20
467.238336832608
 30
0.0
 11
869.3383971387929
 21
502.5475804617632
 31
0.0
  0
LINE
  5
582A8
330
582A5
100
AcDbEntity
  8
AREA1
 62
     0
370
    -2
100
AcDbLine
 10
788.5663971387927
 20
497.9755804617632
 30
0.0
 11
795.5444738668801
 21
497.9755804617632
 31
0.0
  0
LINE
  5
582A9
330
582A5
100
AcDbEntity
  8
AREA1
 62
     0
370
    -2
100
AcDbLine
 10
864.7663971387929
 20
497.9755804617632
 30
0.0
 11
861.07647386688
 21
497.9755804617632
 31
0.0
  0
MTEXT
  5
582AA
330
582A5
100
AcDbEntity
  8
AREA1
 62
     0
100
AcDbMText
 10
828.31047386688
 20
497.9755804617632
 30
0.0
 40
4.572
 41
0.0
 71
     5
 72
     1
  1
\A1;85.34 [3 23/64]
 73
     1
 44
1.0
1001
ACAD
1000
MTEXTBEGIN
1070
    73
1070
     1
1070
    44
1040
1.0
1070
    74
1070
     0
1000
MTEXTEND
  0
SOLID
  5
582AB
330
582A5
100
AcDbEntity
  8
AREA1
 62
     0
100
AcDbTrace
 10
788.5663971387927
 20
498.7375804617632
 30
0.0
 11
788.5663971387927
 21
497.2135804617632
 31
0.0
 12
783.9943971387927
 22
497.9755804617632
 32
0.0
 13
783.9943971387927
 23
497.9755804617632
 33
0.0
  0
SOLID
  5
582AC
330
582A5
100
AcDbEntity
  8
AREA1
 62
     0
100
AcDbTrace
 10
864.7663971387929
 20
498.7375804617632
 30
0.0
 11
864.7663971387929
 21
497.2135804617632
 31
0.0
 12
869.3383971387929
 22
497.9755804617632
 32
0.0
 13
869.3383971387929
 23
497.9755804617632
 33
0.0
  0
POINT
  5
582AD
330
582A5
100
AcDbEntity
  8
Defpoints
 62
     0
100
AcDbPoint
 10
783.9943971387927
 20
465.6508368326081
 30
0.0
  0
POINT
  5
582AE
330
582A5
100
AcDbEntity
  8
Defpoints
 62
     0
100
AcDbPoint
 10
869.3383971387929
 20
465.6508368326081
 30
0.0
  0
POINT
  5
582AF
330
582A5
100
AcDbEntity
  8
Defpoints
 62
     0
100
AcDbPoint
 10
869.3383971387929
 20
497.9755804617632
 30
0.0
  0
ENDBLK
  5
582B1
330
582A5
100
AcDbEntity
  8
0
100
AcDbBlockEnd
  0
BLOCK
  5
582BE
330
582B3
100
AcDbEntity
  8
0
100
AcDbBlockBegin
  2
*D6
 70
     1
 10
0.0
 20
0.0
 30
0.0
  3
*D6
  1

  0
LINE
  5
582B4
330
582B3
100
AcDbEntity
  8
AREA1
 62
     0
370
    -2
100
AcDbLine
 10
777.6443971387926
 20
470.5403368326079
 30
0.0
 11
777.6443971387926
 21
517.2963844448437
 31
0.0
  0
LINE
  5
582B5
330
582B3
100
AcDbEntity
  8
AREA1
 62
     0
370
    -2
100
AcDbLine
 10
875.6883971387932
 20
470.5403368326079
 30
0.0
 11
875.6883971387932
 21
517.2963844448437
 31
0.0
  0
LINE
  5
582B6
330
582B3
100
AcDbEntity
  8
AREA1
 62
     0
370
    -2
100
AcDbLine
 10
782.2163971387925
 20
512.7243844448437
 30
0.0
 11
795.4522146542858
 21
512.7243844448437
 31
0.0
  0
LINE
  5
582B7
330
582B3
100
AcDbEntity
  8
AREA1
 62
     0
370
    -2
100
AcDbLine
 10
871.116397138793
 20
512.7243844448437
 30
0.0
 11
860.2222146542858
 21
512.7243844448437
 31
0.0
  0
MTEXT
  5
582B8
330
582B3
100
AcDbEntity
  8
AREA1
 62
     0
100
AcDbMText
 10
827.8372146542858
 20
512.7243844448437
 30
0.0
 40
4.572
 41
0.0
 71
     5
 72
     1
  1
\A1;98.04 [3 55/64]
 73
     1
 44
1.0
1001
ACAD
1000
MTEXTBEGIN
1070
    73
1070
     1
1070
    44
1040
1.0
1070
    74
1070
     0
1000
MTEXTEND
  0
SOLID
  5
582B9
330
582B3
100
AcDbEntity
  8
AREA1
 62
     0
100
AcDbTrace
 10
782.2163971387925
 20
513.4863844448436
 30
0.0
 11
782.2163971387925
 21
511.9623844448437
 31
0.0
 12
777.6443971387926
 22
512.7243844448437
 32
0.0
 13
777.6443971387926
 23
512.7243844448437
 33
0.0
  0
SOLID
  5
582BA
330
582B3
100
AcDbEntity
  8
AREA1
 62
     0
100
AcDbTrace
 10
871.116397138793
 20
513.4863844448436
 30
0.0
 11
871.116397138793
 21
511.9623844448437
 31
0.0
 12
875.6883971387932
 22
512.7243844448437
 32
0.0
 13
875.6883971387932
 23
512.7243844448437
 33
0.0
  0
POINT
  5
582BB
330
582B3
100
AcDbEntity
  8
Defpoints
 62
     0
100
AcDbPoint
 10
777.6443971387926
 20
468.9528368326079
 30
0.0
  0
POINT
  5
582BC
330
582B3
100
AcDbEntity
  8
Defpoints
 62
     0
100
AcDbPoint
 10
875.6883971387932
 20
468.9528368326079
 30
0.0
  0
POINT
  5
582BD
330
582B3
100
AcDbEntity
  8
Defpoints
 62
     0
100
AcDbPoint
 10
875.6883971387932
 20
512.7243844448437
 30
0.0
  0
ENDBLK
  5
582BF
330
582B3
100
AcDbEntity
  8
0
100
AcDbBlockEnd
  0
BLOCK
  5
582CC
330
582C1
100
AcDbEntity
  8
0
100
AcDbBlockBegin
  2
*D7
 70
     1
 10
0.0
 20
0.0
 30
0.0
  3
*D7
  1

  0
LINE
  5
582C2
330
582C1
100
AcDbEntity
  8
AREA1
 62
     0
370
    -2
100
AcDbLine
 10
874.1008971387929
 20
472.1278368326079
 30
0.0
 11
936.4768354691356
 21
472.1278368326078
 31
0.0
  0
LINE
  5
582C3
330
582C1
100
AcDbEntity
  8
AREA1
 62
     0
370
    -2
100
AcDbLine
 10
874.1008971387929
 20
360.875836832608
 30
0.0
 11
936.4768354691356
 21
360.875836832608
 31
0.0
  0
LINE
  5
582C4
330
582C1
100
AcDbEntity
  8
AREA1
 62
     0
370
    -2
100
AcDbLine
 10
931.9048354691355
 20
467.5558368326078
 30
0.0
 11
931.9048354691355
 21
449.6827184907577
 31
0.0
  0
LINE
  5
582C5
330
582C1
100
AcDbEntity
  8
AREA1
 62
     0
370
    -2
100
AcDbLine
 10
931.9048354691355
 20
365.4478368326079
 30
0.0
 11
931.9048354691355
 21
393.2947184907577
 31
0.0
  0
MTEXT
  5
582C6
330
582C1
100
AcDbEntity
  8
AREA1
 62
     0
100
AcDbMText
 10
931.9048354691355
 20
421.4887184907579
 30
0.0
 40
4.572
 41
0.0
 71
     5
 72
     1
  1
\A1;111.25 [4 3/8]
 11
0.0000000000000001
 21
1.0
 31
0.0
 73
     1
 44
1.0
1001
ACAD
1000
MTEXTBEGIN
1070
    73
1070
     1
1070
    44
1040
1.0
1070
    74
1070
     0
1000
MTEXTEND
  0
SOLID
  5
582C7
330
582C1
100
AcDbEntity
  8
AREA1
 62
     0
100
AcDbTrace
 10
931.1428354691356
 20
467.5558368326078
 30
0.0
 11
932.6668354691355
 21
467.5558368326078
 31
0.0
 12
931.9048354691355
 22
472.1278368326078
 32
0.0
 13
931.9048354691355
 23
472.1278368326078
 33
0.0
  0
SOLID
  5
582C8
330
582C1
100
AcDbEntity
  8
AREA1
 62
     0
100
AcDbTrace
 10
931.1428354691356
 20
365.4478368326079
 30
0.0
 11
932.6668354691355
 21
365.4478368326079
 31
0.0
 12
931.9048354691355
 22
360.875836832608
 32
0.0
 13
931.9048354691355
 23
360.875836832608
 33
0.0
  0
POINT
  5
582C9
330
582C1
100
AcDbEntity
  8
Defpoints
 62
     0
100
AcDbPoint
 10
872.5133971387929
 20
472.1278368326079
 30
0.0
  0
POINT
  5
582CA
330
582C1
100
AcDbEntity
  8
Defpoints
 62
     0
100
AcDbPoint
 10
872.5133971387929
 20
360.875836832608
 30
0.0
  0
POINT
  5
582CB
330
582C1
100
AcDbEntity
  8
Defpoints
 62
     0
100
AcDbPoint
 10
931.9048354691355
 20
360.875836832608
 30
0.0
  0
ENDBLK
  5
582CD
330
582C1
100
AcDbEntity
  8
0
100
AcDbBlockEnd
  0
BLOCK
  5
582DA
330
582CF
100
AcDbEntity
  8
0
100
AcDbBlockBegin
  2
*D8
 70
     1
 10
0.0
 20
0.0
 30
0.0
  3
*D8
  1

  0
LINE
  5
582D0
330
582CF
100
AcDbEntity
  8
AREA1
 62
     0
370
    -2
100
AcDbLine
 10
870.925897138793
 20
465.6508368326081
 30
0.0
 11
923.0430522799057
 21
465.650836832608
 31
0.0
  0
LINE
  5
582D1
330
582CF
100
AcDbEntity
  8
AREA1
 62
     0
370
    -2
100
AcDbLine
 10
870.925897138793
 20
367.3528368326079
 30
0.0
 11
923.0430522799057
 21
367.3528368326079
 31
0.0
  0
LINE
  5
582D2
330
582CF
100
AcDbEntity
  8
AREA1
 62
     0
370
    -2
100
AcDbLine
 10
918.4710522799058
 20
461.078836832608
 30
0.0
 11
918.4710522799058
 21
448.9739511238268
 31
0.0
  0
LINE
  5
582D3
330
582CF
100
AcDbEntity
  8
AREA1
 62
     0
370
    -2
100
AcDbLine
 10
918.4710522799058
 20
371.9248368326079
 30
0.0
 11
918.4710522799058
 21
393.3479511238269
 31
0.0
  0
MTEXT
  5
582D4
330
582CF
100
AcDbEntity
  8
AREA1
 62
     0
100
AcDbMText
 10
918.4710522799058
 20
421.160951123827
 30
0.0
 40
4.572
 41
0.0
 71
     5
 72
     1
  1
\A1;98.30 [3 7/8]
 11
0.0000000000000001
 21
1.0
 31
0.0
 73
     1
 44
1.0
1001
ACAD
1000
MTEXTBEGIN
1070
    73
1070
     1
1070
    44
1040
1.0
1070
    74
1070
     0
1000
MTEXTEND
  0
SOLID
  5
582D5
330
582CF
100
AcDbEntity
  8
AREA1
 62
     0
100
AcDbTrace
 10
917.7090522799058
 20
461.078836832608
 30
0.0
 11
919.2330522799057
 21
461.078836832608
 31
0.0
 12
918.4710522799058
 22
465.650836832608
 32
0.0
 13
918.4710522799058
 23
465.650836832608
 33
0.0
  0
SOLID
  5
582D6
330
582CF
100
AcDbEntity
  8
AREA1
 62
     0
100
AcDbTrace
 10
917.7090522799058
 20
371.9248368326079
 30
0.0
 11
919.2330522799057
 21
371.9248368326079
 31
0.0
 12
918.4710522799058
 22
367.3528368326079
 32
0.0
 13
918.4710522799058
 23
367.3528368326079
 33
0.0
  0
POINT
  5
582D7
330
582CF
100
AcDbEntity
  8
Defpoints
 62
     0
100
AcDbPoint
 10
869.3383971387929
 20
465.6508368326081
 30
0.0
  0
POINT
  5
582D8
330
582CF
100
AcDbEntity
  8
Defpoints
 62
     0
100
AcDbPoint
 10
869.3383971387929
 20
367.3528368326079
 30
0.0
  0
POINT
  5
582D9
330
582CF
100
AcDbEntity
  8
Defpoints
 62
     0
100
AcDbPoint
 10
918.4710522799058
 20
367.3528368326079
 30
0.0
  0
ENDBLK
  5
582DB
330
582CF
100
AcDbEntity
  8
0
100
AcDbBlockEnd
  0
BLOCK
  5
582F4
330
582EA
100
AcDbEntity
  8
0
100
AcDbBlockBegin
  2
*D9
 70
     1
 10
0.0
 20
0.0
 30
0.0
  3
*D9
  1

  0
LINE
  5
5830C
330
582EA
100
AcDbEntity
  8
AREA1
 62
     0
370
    -2
100
AcDbLine
 10
779.2318971387928
 20
472.1278368326079
 30
0.0
 11
743.5438120974922
 21
472.1278368326079
 31
0.0
  0
LINE
  5
5830D
330
582EA
100
AcDbEntity
  8
AREA1
 62
     0
370
    -2
100
AcDbLine
 10
755.8765971387933
 20
429.4637364151563
 30
0.0
 11
743.5438120974922
 21
429.4637364151563
 31
0.0
  0
LINE
  5
5830E
330
582EA
100
AcDbEntity
  8
AREA1
 62
     0
370
    -2
100
AcDbLine
 10
748.1158120974921
 20
467.5558368326079
 30
0.0
 11
748.1158120974921
 21
434.0357364151564
 31
0.0
  0
MTEXT
  5
5830F
330
582EA
100
AcDbEntity
  8
AREA1
 62
     0
100
AcDbMText
 10
739.1217263452501
 20
450.3629486611656
 30
0.0
 40
4.572
 41
0.0
 71
     5
 72
     1
  1
\A1;42.66 [1 43/64]
 11
0.0000000000000001
 21
1.0
 31
0.0
 73
     1
 44
1.0
1001
ACAD
1000
MTEXTBEGIN
1070
    73
1070
     1
1070
    44
1040
1.0
1070
    74
1070
     0
1000
MTEXTEND
  0
SOLID
  5
58310
330
582EA
100
AcDbEntity
  8
AREA1
 62
     0
100
AcDbTrace
 10
747.3538120974922
 20
467.5558368326079
 30
0.0
 11
748.877812097492
 21
467.5558368326079
 31
0.0
 12
748.1158120974921
 22
472.1278368326079
 32
0.0
 13
748.1158120974921
 23
472.1278368326079
 33
0.0
  0
SOLID
  5
58311
330
582EA
100
AcDbEntity
  8
AREA1
 62
     0
100
AcDbTrace
 10
747.3538120974922
 20
434.0357364151564
 30
0.0
 11
748.877812097492
 21
434.0357364151564
 31
0.0
 12
748.1158120974921
 22
429.4637364151563
 32
0.0
 13
748.1158120974921
 23
429.4637364151563
 33
0.0
  0
POINT
  5
58312
330
582EA
100
AcDbEntity
  8
Defpoints
 62
     0
100
AcDbPoint
 10
780.8193971387927
 20
472.1278368326079
 30
0.0
  0
POINT
  5
58313
330
582EA
100
AcDbEntity
  8
Defpoints
 62
     0
100
AcDbPoint
 10
757.4640971387934
 20
429.4637364151563
 30
0.0
  0
POINT
  5
58314
330
582EA
100
AcDbEntity
  8
Defpoints
 62
     0
100
AcDbPoint
 10
748.1158120974921
 20
429.4637364151563
 30
0.0
  0
ENDBLK
  5
582F5
330
582EA
100
AcDbEntity
  8
0
100
AcDbBlockEnd
  0
BLOCK
  5
58301
330
582F7
100
AcDbEntity
  8
0
100
AcDbBlockBegin
  2
*D10
 70
     1
 10
0.0
 20
0.0
 30
0.0
  3
*D10
  1

  0
LINE
  5
58303
330
582F7
100
AcDbEntity
  8
AREA1
 62
     0
370
    -2
100
AcDbLine
 10
755.8168208072178
 20
393.9037364151555
 30
0.0
 11
743.1840482566761
 21
393.9037364151555
 31
0.0
  0
LINE
  5
58304
330
582F7
100
AcDbEntity
  8
AREA1
 62
     0
370
    -2
100
AcDbLine
 10
779.2318971387928
 20
360.875836832608
 30
0.0
 11
743.1840482566761
 21
360.875836832608
 31
0.0
  0
LINE
  5
58305
330
582F7
100
AcDbEntity
  8
AREA1
 62
     0
370
    -2
100
AcDbLine
 10
747.7560482566762
 20
389.3317364151554
 30
0.0
 11
747.7560482566762
 21
365.447836832608
 31
0.0
  0
MTEXT
  5
58306
330
582F7
100
AcDbEntity
  8
AREA1
 62
     0
100
AcDbMText
 10
739.1217263452501
 20
378.82888145915
 30
0.0
 40
4.572
 41
0.0
 71
     5
 72
     1
  1
\A1;33.03 [1 19/64]
 11
0.0000000000000001
 21
1.0
 31
0.0
 73
     1
 44
1.0
1001
ACAD
1000
MTEXTBEGIN
1070
    73
1070
     1
1070
    44
1040
1.0
1070
    74
1070
     0
1000
MTEXTEND
  0
SOLID
  5
58307
330
582F7
100
AcDbEntity
  8
AREA1
 62
     0
100
AcDbTrace
 10
746.9940482566762
 20
389.3317364151554
 30
0.0
 11
748.5180482566761
 21
389.3317364151554
 31
0.0
 12
747.7560482566762
 22
393.9037364151555
 32
0.0
 13
747.7560482566762
 23
393.9037364151555
 33
0.0
  0
SOLID
  5
58308
330
582F7
100
AcDbEntity
  8
AREA1
 62
     0
100
AcDbTrace
 10
746.9940482566762
 20
365.447836832608
 30
0.0
 11
748.5180482566761
 21
365.447836832608
 31
0.0
 12
747.7560482566762
 22
360.875836832608
 32
0.0
 13
747.7560482566762
 23
360.875836832608
 33
0.0
  0
POINT
  5
58309
330
582F7
100
AcDbEntity
  8
Defpoints
 62
     0
100
AcDbPoint
 10
757.4043208072177
 20
393.9037364151555
 30
0.0
  0
POINT
  5
5830A
330
582F7
100
AcDbEntity
  8
Defpoints
 62
     0
100
AcDbPoint
 10
780.8193971387927
 20
360.875836832608
 30
0.0
  0
POINT
  5
5830B
330
582F7
100
AcDbEntity
  8
Defpoints
 62
     0
100
AcDbPoint
 10
747.7560482566762
 20
360.875836832608
 30
0.0
  0
ENDBLK
  5
58302
330
582F7
100
AcDbEntity
  8
0
100
AcDbBlockEnd
  0
BLOCK
  5
58320
330
58316
100
AcDbEntity
  8
0
100
AcDbBlockBegin
  2
*D11
 70
     1
 10
0.0
 20
0.0
 30
0.0
  3
*D11
  1

  0
LINE
  5
58322
330
58316
100
AcDbEntity
  8
AREA1
 62
     0
370
    -2
100
AcDbLine
 10
876.0058971387913
 20
306.928755567766
 30
0.0
 11
915.0175996225637
 21
306.928755567766
 31
0.0
  0
LINE
  5
58323
330
58316
100
AcDbEntity
  8
AREA1
 62
     0
370
    -2
100
AcDbLine
 10
876.0058971387913
 20
252.0493940668085
 30
0.0
 11
915.0175996225637
 21
252.0493940668085
 31
0.0
  0
LINE
  5
58324
330
58316
100
AcDbEntity
  8
AREA1
 62
     0
370
    -2
100
AcDbLine
 10
910.4455996225638
 20
302.356755567766
 30
0.0
 11
910.4455996225638
 21
256.6213940668084
 31
0.0
  0
MTEXT
  5
58325
330
58316
100
AcDbEntity
  8
AREA1
 62
     0
100
AcDbMText
 10
919.4396839079265
 20
280.0966680921879
 30
0.0
 40
4.572
 41
0.0
 71
     5
 72
     1
  1
\A1;54.88 [2 5/32]
 11
0.0000000000000001
 21
1.0
 31
0.0
 73
     1
 44
1.0
1001
ACAD
1000
MTEXTBEGIN
1070
    73
1070
     1
1070
    44
1040
1.0
1070
    74
1070
     0
1000
MTEXTEND
  0
SOLID
  5
58326
330
58316
100
AcDbEntity
  8
AREA1
 62
     0
100
AcDbTrace
 10
909.6835996225639
 20
302.356755567766
 30
0.0
 11
911.2075996225637
 21
302.356755567766
 31
0.0
 12
910.4455996225638
 22
306.928755567766
 32
0.0
 13
910.4455996225638
 23
306.928755567766
 33
0.0
  0
SOLID
  5
58327
330
58316
100
AcDbEntity
  8
AREA1
 62
     0
100
AcDbTrace
 10
909.6835996225639
 20
256.6213940668084
 30
0.0
 11
911.2075996225637
 21
256.6213940668084
 31
0.0
 12
910.4455996225636
 22
252.0493940668085
 32
0.0
 13
910.4455996225636
 23
252.0493940668085
 33
0.0
  0
POINT
  5
58328
330
58316
100
AcDbEntity
  8
Defpoints
 62
     0
100
AcDbPoint
 10
874.4183971387913
 20
306.928755567766
 30
0.0
  0
POINT
  5
58329
330
58316
100
AcDbEntity
  8
Defpoints
 62
     0
100
AcDbPoint
 10
874.4183971387913
 20
252.0493940668085
 30
0.0
  0
POINT
  5
5832A
330
58316
100
AcDbEntity
  8
Defpoints
 62
     0
100
AcDbPoint
 10
910.4455996225636
 20
252.0493940668085
 30
0.0
  0
ENDBLK
  5
58321
330
58316
100
AcDbEntity
  8
0
100
AcDbBlockEnd
  0
ENDSEC
  0
SECTION
  2
ENTITIES
  0
ATTDEF
  5
4DDB8
330
458D6
100
AcDbEntity
  8
ATTRIBUTES
100
AcDbText
 10
712.854973044747
 20
447.4401784667817
 30
3.539568164649253
 40
0.575719985847253
  1
ALLEN-BRADLEY
100
AcDbAttributeDefinition
  3
MANUFACTURER NAME?
  2
AC_VND_LABEL
 70
     1
  0
ATTDEF
  5
4DDB9
330
458D6
100
AcDbEntity
  8
ATTRIBUTES
100
AcDbText
 10
712.854973044747
 20
446.2407618296
 30
3.539568164649253
 40
0.575719985847253
  1
1485PT-P2T5-T5
100
AcDbAttributeDefinition
  3
CATALOG NUMBER?
  2
AC_PART_NO
 70
     1
  0
ATTDEF
  5
4DDBA
330
458D6
100
AcDbEntity
  8
ATTRIBUTES
100
AcDbText
 10
712.854973044747
 20
445.0413451924183
 30
3.539568164649253
 40
0.575719985847253
  1
PowerTap, Thick Cable
100
AcDbAttributeDefinition
  3
PART DESCRIPTION?
  2
AC_DESCRIPTION
 70
     1
  0
ATTDEF
  5
4DDBB
330
458D6
100
AcDbEntity
  8
ATTRIBUTES
100
AcDbText
 10
712.854973044747
 20
443.8419285552365
 30
3.539568164649253
 40
0.575719985847253
  1

100
AcDbAttributeDefinition
  3
DEVICE ID?
  2
DEVICE_ID
 70
     1
  0
ATTDEF
  5
4DDBC
330
458D6
100
AcDbEntity
  8
ATTRIBUTES
100
AcDbText
 10
712.854973044747
 20
442.6425119180549
 30
3.539568164649253
 40
0.575719985847253
  1

100
AcDbAttributeDefinition
  3
CUSTOMER PART NUMBER?
  2
AC_CPART_NO
 70
     1
  0
ATTDEF
  5
4DDBD
330
458D6
100
AcDbEntity
  8
ATTRIBUTES
100
AcDbText
 10
712.854973044747
 20
441.4430952808725
 30
3.539568164649253
 40
0.575719985847253
  1

100
AcDbAttributeDefinition
  3
CUSTOMER NOTE?
  2
AC_NOTE
 70
     1
  0
ATTDEF
  5
4DDBE
330
458D6
100
AcDbEntity
  8
ATTRIBUTES
100
AcDbText
 10
712.854973044747
 20
440.2436786436908
 30
3.539568164649253
 40
0.575719985847253
  1

100
AcDbAttributeDefinition
  3
FASTENER DATA?
  2
FASTENER
 70
     1
  0
ATTDEF
  5
4DDBF
330
458D6
100
AcDbEntity
  8
ATTRIBUTES
100
AcDbText
 10
712.854973044747
 20
439.0442620065091
 30
3.539568164649253
 40
0.575719985847253
  1
INCH
100
AcDbAttributeDefinition
  3
UNIT OF SCALE?
  2
AC_SCALE_UNIT
 70
     1
  0
ATTDEF
  5
4DDC0
330
458D6
100
AcDbEntity
  8
ATTRIBUTES
100
AcDbText
 10
712.854973044747
 20
437.8448453693279
 30
3.539568164649253
 40
0.575719985847253
  1
0
100
AcDbAttributeDefinition
  3
VIEW CODE?
  2
AC_VIEW_CODE
 70
     1
  0
MTEXT
  5
4E0D0
330
458D6
100
AcDbEntity
  8
DIMS
100
AcDbMText
 10
263.4509981022159
 20
543.6346761443502
 30
3.646124999999996
 40
0.125
 41
0.0
 71
     1
 72
     1
  1

  7
ROMANS
 73
     1
 44
1.0
1001
ACAD
1000
MTEXTBEGIN
1070
    73
1070
     1
1070
    44
1040
1.0
1070
    74
1070
     0
1000
MTEXTEND
  0
MTEXT
  5
4E0E6
330
458D6
100
AcDbEntity
  8
DIMS
100
AcDbMText
 10
262.8011374184602
 20
540.1940165057656
 30
3.646124999999996
 40
0.125
 41
0.0
 71
     1
 72
     1
  1

  7
ROMANS
 73
     1
 44
1.0
1001
ACAD
1000
MTEXTBEGIN
1070
    73
1070
     1
1070
    44
1040
1.0
1070
    74
1070
     0
1000
MTEXTEND
  0
LINE
  5
57E71
330
458D6
100
AcDbEntity
  8
0
  6
Continuous
 62
     0
100
AcDbLine
 10
875.6883971387932
 20
364.050836832608
 30
3.646124999999996
 11
875.6883971387932
 21
468.9528368326079
 31
3.646124999999996
  0
LINE
  5
57E72
330
458D6
100
AcDbEntity
  8
0
  6
Continuous
 62
     0
100
AcDbLine
 10
777.6443971387926
 20
364.050836832608
 30
3.646124999999996
 11
777.6443971387926
 21
468.9528368326079
 31
3.646124999999996
  0
LINE
  5
57E73
330
458D6
100
AcDbEntity
  8
0
  6
Continuous
 62
     0
100
AcDbLine
 10
872.5133971387929
 20
360.8758368326081
 30
3.646124999999996
 11
780.8193971387927
 21
360.8758368326081
 31
3.646124999999996
  0
ARC
  5
57E74
330
458D6
100
AcDbEntity
  8
0
  6
Continuous
 62
     0
100
AcDbCircle
 10
780.8193971387927
 20
364.050836832608
 30
3.646124999999996
 40
3.174999999999999
100
AcDbArc
 50
180.0
 51
270.0
  0
ARC
  5
57E75
330
458D6
100
AcDbEntity
  8
0
  6
Continuous
 62
     0
100
AcDbCircle
 10
872.5133971387929
 20
364.050836832608
 30
3.646124999999996
 40
3.174999999999999
100
AcDbArc
 50
270.0
 51
0.0
  0
LINE
  5
57E76
330
458D6
100
AcDbEntity
  8
0
  6
Continuous
 62
     0
100
AcDbLine
 10
872.5133971387929
 20
472.1278368326079
 30
3.646124999999996
 11
780.8193971387927
 21
472.1278368326079
 31
3.646124999999996
  0
ARC
  5
57E77
330
458D6
100
AcDbEntity
  8
0
  6
Continuous
 62
     0
100
AcDbCircle
 10
780.8193971387927
 20
468.9528368326079
 30
3.646124999999996
 40
3.174999999999999
100
AcDbArc
 50
90.0
 51
180.0
  0
ARC
  5
57E78
330
458D6
100
AcDbEntity
  8
0
  6
Continuous
 62
     0
100
AcDbCircle
 10
872.5133971387929
 20
468.9528368326079
 30
3.646124999999996
 40
3.174999999999999
100
AcDbArc
 50
0.0
 51
90.0
  0
LINE
  5
57E79
330
458D6
100
AcDbEntity
  8
0
 62
     0
100
AcDbLine
 10
778.9143971387916
 20
252.0493940668085
 30
3.646124999999996
 11
874.4183971387913
 21
252.0493940668085
 31
3.646124999999996
  0
LINE
  5
57E7A
330
458D6
100
AcDbEntity
  8
0
 62
     0
100
AcDbLine
 10
777.6443971387926
 20
297.7693940668087
 30
3.646124999999996
 11
777.6443971387926
 21
253.3193940668088
 31
3.646124999999996
  0
ARC
  5
57E7B
330
458D6
100
AcDbEntity
  8
0
 62
     0
100
AcDbCircle
 10
778.9143971387916
 20
253.3193940668088
 30
3.646124999999996
 40
1.270000000000018
100
AcDbArc
 50
180.0
 51
270.0
  0
LINE
  5
57E7C
330
458D6
100
AcDbEntity
  8
0
 62
     0
100
AcDbLine
 10
875.6883971387932
 20
297.7693940668087
 30
3.646124999999996
 11
875.6883971387932
 21
253.3193940668088
 31
3.646124999999996
  0
ARC
  5
57E7D
330
458D6
100
AcDbEntity
  8
0
 62
     0
100
AcDbCircle
 10
874.4183971387913
 20
253.3193940668088
 30
3.646124999999996
 40
1.27
100
AcDbArc
 50
270.0
 51
0.0
  0
ARC
  5
57E7E
330
458D6
100
AcDbEntity
  8
0
 62
     0
100
AcDbCircle
 10
892.5666971387922
 20
423.2407364151562
 30
3.646124999999996
 40
3.302
100
AcDbArc
 50
270.0
 51
0.0
  0
ARC
  5
57E7F
330
458D6
100
AcDbEntity
  8
0
 62
     0
100
AcDbCircle
 10
889.8152595214165
 20
421.1848400424766
 30
3.646124999999996
 40
2.751438028232276
100
AcDbArc
 50
309.1046213224502
 51
50.89537867754973
  0
LINE
  5
57E80
330
458D6
100
AcDbEntity
  8
0
 62
     0
100
AcDbLine
 10
883.6766971387916
 20
439.8777364151555
 30
3.646124999999996
 11
883.6766971387916
 21
419.0497364151557
 31
3.646124999999996
  0
LINE
  5
57E81
330
458D6
100
AcDbEntity
  8
0
 62
     0
100
AcDbLine
 10
879.2316971387929
 20
439.8777364151555
 30
3.646124999999996
 11
879.2316971387929
 21
419.0497364151557
 31
3.646124999999996
  0
LINE
  5
57E82
330
458D6
100
AcDbEntity
  8
0
 62
     0
100
AcDbLine
 10
875.6883971387932
 20
419.0497364151557
 30
3.646124999999996
 11
879.2316971387929
 21
419.0497364151557
 31
3.646124999999996
  0
LINE
  5
57E83
330
458D6
100
AcDbEntity
  8
0
 62
     0
100
AcDbLine
 10
883.6766971387916
 20
419.0497364151557
 30
3.646124999999996
 11
891.5506971387934
 21
419.0497364151557
 31
3.646124999999996
  0
LINE
  5
57E84
330
458D6
100
AcDbEntity
  8
0
 62
     0
100
AcDbLine
 10
892.5666971387922
 20
419.9387364151563
 30
3.646124999999996
 11
892.2683467545143
 21
419.9387364151563
 31
3.646124999999996
  0
ARC
  5
57E85
330
458D6
100
AcDbEntity
  8
0
 62
     0
100
AcDbCircle
 10
892.5666971387922
 20
435.6867364151565
 30
3.646124999999996
 40
3.302
100
AcDbArc
 50
0.0
 51
90.0
  0
ARC
  5
57E86
330
458D6
100
AcDbEntity
  8
0
 62
     0
100
AcDbCircle
 10
889.8152595214165
 20
437.7426327878345
 30
3.646124999999996
 40
2.751438028232276
100
AcDbArc
 50
309.1046213224502
 51
50.89537867754973
  0
LINE
  5
57E87
330
458D6
100
AcDbEntity
  8
0
 62
     0
100
AcDbLine
 10
880.7556971387917
 20
435.5597364151566
 30
3.646124999999996
 11
881.263697138791
 21
435.5597364151566
 31
3.646124999999996
  0
LINE
  5
57E88
330
458D6
100
AcDbEntity
  8
0
 62
     0
100
AcDbLine
 10
880.7556971387917
 20
423.3677364151561
 30
3.646124999999996
 11
881.263697138791
 21
423.3677364151561
 31
3.646124999999996
  0
LINE
  5
57E89
330
458D6
100
AcDbEntity
  8
0
 62
     0
100
AcDbLine
 10
879.7396971387925
 20
436.4487364151558
 30
3.646124999999996
 11
879.7396971387925
 21
422.4787364151555
 31
3.646124999999996
  0
LINE
  5
57E8A
330
458D6
100
AcDbEntity
  8
0
 62
     0
100
AcDbLine
 10
880.2476971387921
 20
436.4487364151558
 30
3.646124999999996
 11
880.2476971387921
 21
422.4787364151555
 31
3.646124999999996
  0
LINE
  5
57E8B
330
458D6
100
AcDbEntity
  8
0
 62
     0
100
AcDbLine
 10
880.7556971387917
 20
435.5597364151566
 30
3.646124999999996
 11
880.7556971387917
 21
423.3677364151561
 31
3.646124999999996
  0
LINE
  5
57E8C
330
458D6
100
AcDbEntity
  8
0
 62
     0
100
AcDbLine
 10
879.7396971387925
 20
422.4787364151555
 30
3.646124999999996
 11
880.2476971387921
 21
422.4787364151555
 31
3.646124999999996
  0
LINE
  5
57E8D
330
458D6
100
AcDbEntity
  8
0
 62
     0
100
AcDbLine
 10
880.2476971387921
 20
422.4787364151555
 30
3.646124999999996
 11
880.7556971387917
 21
423.3677364151561
 31
3.646124999999996
  0
LINE
  5
57E8E
330
458D6
100
AcDbEntity
  8
0
 62
     0
100
AcDbLine
 10
879.2316971387929
 20
423.3677364151561
 30
3.646124999999996
 11
879.7396971387925
 21
422.4787364151555
 31
3.646124999999996
  0
LINE
  5
57E8F
330
458D6
100
AcDbEntity
  8
0
 62
     0
100
AcDbLine
 10
879.2316971387929
 20
423.3199436697991
 30
3.646124999999996
 11
875.6883971387932
 21
423.3199436697991
 31
3.646124999999996
  0
LINE
  5
57E90
330
458D6
100
AcDbEntity
  8
0
 62
     0
100
AcDbLine
 10
879.2316971387929
 20
425.2535379637768
 30
3.646124999999996
 11
875.6883971387932
 21
425.2535379637768
 31
3.646124999999996
  0
LINE
  5
57E91
330
458D6
100
AcDbEntity
  8
0
 62
     0
100
AcDbLine
 10
879.2316971387929
 20
435.5597364151566
 30
3.646124999999996
 11
879.7396971387925
 21
436.4487364151558
 31
3.646124999999996
  0
LINE
  5
57E92
330
458D6
100
AcDbEntity
  8
0
 62
     0
100
AcDbLine
 10
880.2476971387921
 20
436.4487364151558
 30
3.646124999999996
 11
880.7556971387917
 21
435.5597364151566
 31
3.646124999999996
  0
LINE
  5
57E93
330
458D6
100
AcDbEntity
  8
0
 62
     0
100
AcDbLine
 10
879.7396971387925
 20
436.4487364151558
 30
3.646124999999996
 11
880.2476971387921
 21
436.4487364151558
 31
3.646124999999996
  0
LINE
  5
57E94
330
458D6
100
AcDbEntity
  8
0
 62
     0
100
AcDbLine
 10
879.2316971387929
 20
435.6075291605121
 30
3.646124999999996
 11
875.6883971387932
 21
435.6075291605121
 31
3.646124999999996
  0
LINE
  5
57E95
330
458D6
100
AcDbEntity
  8
0
 62
     0
100
AcDbLine
 10
879.2316971387929
 20
433.6739348665359
 30
3.646124999999996
 11
875.6883971387932
 21
433.6739348665359
 31
3.646124999999996
  0
LINE
  5
57E96
330
458D6
100
AcDbEntity
  8
0
 62
     0
100
AcDbLine
 10
881.263697138791
 20
435.5597364151566
 30
3.646124999999996
 11
881.263697138791
 21
423.3677364151561
 31
3.646124999999996
  0
LINE
  5
57E97
330
458D6
100
AcDbEntity
  8
0
 62
     0
100
AcDbLine
 10
881.7716971387936
 20
436.4487364151558
 30
3.646124999999996
 11
881.7716971387936
 21
422.4787364151555
 31
3.646124999999996
  0
LINE
  5
57E98
330
458D6
100
AcDbEntity
  8
0
 62
     0
100
AcDbLine
 10
882.2796971387932
 20
436.4487364151558
 30
3.646124999999996
 11
882.2796971387932
 21
422.4787364151555
 31
3.646124999999996
  0
LINE
  5
57E99
330
458D6
100
AcDbEntity
  8
0
 62
     0
100
AcDbLine
 10
882.7876971387928
 20
435.5597364151566
 30
3.646124999999996
 11
882.7876971387928
 21
423.3677364151561
 31
3.646124999999996
  0
LINE
  5
57E9A
330
458D6
100
AcDbEntity
  8
0
 62
     0
100
AcDbLine
 10
883.295697138792
 20
435.5597364151566
 30
3.646124999999996
 11
883.295697138792
 21
423.3677364151561
 31
3.646124999999996
  0
LINE
  5
57E9B
330
458D6
100
AcDbEntity
  8
0
 62
     0
100
AcDbLine
 10
892.5666971387922
 20
437.7441364151064
 30
3.646124999999996
 11
892.5666971387922
 21
421.1833364150706
 31
3.646124999999996
  0
ARC
  5
57E9C
330
458D6
100
AcDbEntity
  8
0
 62
     0
100
AcDbCircle
 10
883.3353846387945
 20
429.4637364151563
 30
3.646124999999996
 40
9.231312499998928
100
AcDbArc
 50
332.8656845153003
 51
27.1343154846996
  0
LINE
  5
57E9D
330
458D6
100
AcDbEntity
  8
0
 62
     0
100
AcDbLine
 10
891.5506971387934
 20
423.3199436697991
 30
3.646124999999996
 11
883.6766971387916
 21
423.3199436697991
 31
3.646124999999996
  0
LINE
  5
57E9E
330
458D6
100
AcDbEntity
  8
0
 62
     0
100
AcDbLine
 10
891.5506971387934
 20
425.2535379637768
 30
3.646124999999996
 11
883.6766971387916
 21
425.2535379637768
 31
3.646124999999996
  0
LINE
  5
57E9F
330
458D6
100
AcDbEntity
  8
0
 62
     0
100
AcDbLine
 10
883.295697138792
 20
423.3677364151561
 30
3.646124999999996
 11
883.6766971387916
 21
422.7009864151559
 31
3.646124999999996
  0
LINE
  5
57EA0
330
458D6
100
AcDbEntity
  8
0
 62
     0
100
AcDbLine
 10
882.7876971387928
 20
423.3677364151561
 30
3.646124999999996
 11
883.295697138792
 21
423.3677364151561
 31
3.646124999999996
  0
LINE
  5
57EA1
330
458D6
100
AcDbEntity
  8
0
 62
     0
100
AcDbLine
 10
881.7716971387936
 20
422.4787364151555
 30
3.646124999999996
 11
882.2796971387932
 21
422.4787364151555
 31
3.646124999999996
  0
LINE
  5
57EA2
330
458D6
100
AcDbEntity
  8
0
 62
     0
100
AcDbLine
 10
882.2796971387932
 20
422.4787364151555
 30
3.646124999999996
 11
882.7876971387928
 21
423.3677364151561
 31
3.646124999999996
  0
LINE
  5
57EA3
330
458D6
100
AcDbEntity
  8
0
 62
     0
100
AcDbLine
 10
881.263697138791
 20
423.3677364151561
 30
3.646124999999996
 11
881.7716971387936
 21
422.4787364151555
 31
3.646124999999996
  0
LINE
  5
57EA4
330
458D6
100
AcDbEntity
  8
0
 62
     0
100
AcDbLine
 10
891.5506971387934
 20
425.2535379637768
 30
3.646124999999996
 11
891.5506971387934
 21
423.3199436697991
 31
3.646124999999996
  0
LINE
  5
57EA5
330
458D6
100
AcDbEntity
  8
0
 62
     0
100
AcDbLine
 10
891.5506971387934
 20
433.6739348665359
 30
3.646124999999996
 11
883.6766971387916
 21
433.6739348665359
 31
3.646124999999996
  0
LINE
  5
57EA6
330
458D6
100
AcDbEntity
  8
0
 62
     0
100
AcDbLine
 10
891.5506971387934
 20
435.6075291605121
 30
3.646124999999996
 11
883.6766971387916
 21
435.6075291605121
 31
3.646124999999996
  0
LINE
  5
57EA7
330
458D6
100
AcDbEntity
  8
0
 62
     0
100
AcDbLine
 10
881.263697138791
 20
435.5597364151566
 30
3.646124999999996
 11
881.7716971387936
 21
436.4487364151558
 31
3.646124999999996
  0
LINE
  5
57EA8
330
458D6
100
AcDbEntity
  8
0
 62
     0
100
AcDbLine
 10
882.2796971387932
 20
436.4487364151558
 30
3.646124999999996
 11
882.7876971387928
 21
435.5597364151566
 31
3.646124999999996
  0
LINE
  5
57EA9
330
458D6
100
AcDbEntity
  8
0
 62
     0
100
AcDbLine
 10
881.7716971387936
 20
436.4487364151558
 30
3.646124999999996
 11
882.2796971387932
 21
436.4487364151558
 31
3.646124999999996
  0
LINE
  5
57EAA
330
458D6
100
AcDbEntity
  8
0
 62
     0
100
AcDbLine
 10
882.7876971387928
 20
435.5597364151566
 30
3.646124999999996
 11
883.295697138792
 21
435.5597364151566
 31
3.646124999999996
  0
LINE
  5
57EAB
330
458D6
100
AcDbEntity
  8
0
 62
     0
100
AcDbLine
 10
883.295697138792
 20
435.5597364151566
 30
3.646124999999996
 11
883.6766971387916
 21
436.2264864151567
 31
3.646124999999996
  0
LINE
  5
57EAC
330
458D6
100
AcDbEntity
  8
0
 62
     0
100
AcDbLine
 10
891.5506971387934
 20
435.6075291605121
 30
3.646124999999996
 11
891.5506971387934
 21
433.6739348665359
 31
3.646124999999996
  0
LINE
  5
57EAD
330
458D6
100
AcDbEntity
  8
0
 62
     0
100
AcDbLine
 10
875.6883971387932
 20
439.8777364151555
 30
3.646124999999996
 11
879.2316971387929
 21
439.8777364151555
 31
3.646124999999996
  0
LINE
  5
57EAE
330
458D6
100
AcDbEntity
  8
0
 62
     0
100
AcDbLine
 10
883.6766971387916
 20
439.8777364151555
 30
3.646124999999996
 11
891.5506971387934
 21
439.8777364151555
 31
3.646124999999996
  0
LINE
  5
57EAF
330
458D6
100
AcDbEntity
  8
0
 62
     0
100
AcDbLine
 10
892.5666971387922
 20
438.9887364151563
 30
3.646124999999996
 11
892.2683467545143
 21
438.9887364151563
 31
3.646124999999996
  0
LINE
  5
57EB0
330
458D6
100
AcDbEntity
  8
0
 62
     0
100
AcDbLine
 10
895.8686971387921
 20
435.6867364151565
 30
3.646124999999996
 11
895.8686971387921
 21
423.2407364151562
 31
3.646124999999996
  0
LINE
  5
57EB1
330
458D6
100
AcDbEntity
  8
0
 62
     0
100
AcDbLine
 10
769.656097138791
 20
439.8777364151555
 30
3.646124999999996
 11
761.7820971387923
 21
439.8777364151555
 31
3.646124999999996
  0
LINE
  5
57EB2
330
458D6
100
AcDbEntity
  8
0
 62
     0
100
AcDbLine
 10
761.7820971387923
 20
435.6075291605121
 30
3.646124999999996
 11
769.656097138791
 21
435.6075291605121
 31
3.646124999999996
  0
LINE
  5
57EB3
330
458D6
100
AcDbEntity
  8
0
 62
     0
100
AcDbLine
 10
761.7820971387923
 20
433.6739348665359
 30
3.646124999999996
 11
769.656097138791
 21
433.6739348665359
 31
3.646124999999996
  0
LINE
  5
57EB4
330
458D6
100
AcDbEntity
  8
0
 62
     0
100
AcDbLine
 10
761.7820971387923
 20
425.2535379637768
 30
3.646124999999996
 11
769.656097138791
 21
425.2535379637768
 31
3.646124999999996
  0
LINE
  5
57EB5
330
458D6
100
AcDbEntity
  8
0
 62
     0
100
AcDbLine
 10
761.7820971387923
 20
423.3199436697991
 30
3.646124999999996
 11
769.656097138791
 21
423.3199436697991
 31
3.646124999999996
  0
LINE
  5
57EB6
330
458D6
100
AcDbEntity
  8
0
 62
     0
100
AcDbLine
 10
769.656097138791
 20
419.0497364151557
 30
3.646124999999996
 11
761.7820971387923
 21
419.0497364151557
 31
3.646124999999996
  0
LINE
  5
57EB7
330
458D6
100
AcDbEntity
  8
0
 62
     0
100
AcDbLine
 10
770.0370971387935
 20
435.5597364151566
 30
3.646124999999996
 11
770.0370971387935
 21
423.3677364151561
 31
3.646124999999996
  0
LINE
  5
57EB8
330
458D6
100
AcDbEntity
  8
0
 62
     0
100
AcDbLine
 10
770.545097138793
 20
435.5597364151566
 30
3.646124999999996
 11
770.545097138793
 21
423.3677364151561
 31
3.646124999999996
  0
LINE
  5
57EB9
330
458D6
100
AcDbEntity
  8
0
 62
     0
100
AcDbLine
 10
771.0530971387925
 20
436.4487364151558
 30
3.646124999999996
 11
771.0530971387925
 21
422.4787364151555
 31
3.646124999999996
  0
LINE
  5
57EBA
330
458D6
100
AcDbEntity
  8
0
 62
     0
100
AcDbLine
 10
771.5610971387921
 20
436.4487364151558
 30
3.646124999999996
 11
771.5610971387921
 21
422.4787364151555
 31
3.646124999999996
  0
LINE
  5
57EBB
330
458D6
100
AcDbEntity
  8
0
 62
     0
100
AcDbLine
 10
772.0690971387917
 20
435.5597364151566
 30
3.646124999999996
 11
772.0690971387917
 21
423.3677364151561
 31
3.646124999999996
  0
LINE
  5
57EBC
330
458D6
100
AcDbEntity
  8
0
 62
     0
100
AcDbLine
 10
772.5770971387913
 20
435.5597364151566
 30
3.646124999999996
 11
772.5770971387913
 21
423.3677364151561
 31
3.646124999999996
  0
LINE
  5
57EBD
330
458D6
100
AcDbEntity
  8
0
 62
     0
100
AcDbLine
 10
773.0850971387908
 20
436.4487364151558
 30
3.646124999999996
 11
773.0850971387935
 21
422.4787364151555
 31
3.646124999999996
  0
LINE
  5
57EBE
330
458D6
100
AcDbEntity
  8
0
 62
     0
100
AcDbLine
 10
773.5930971387931
 20
436.4487364151558
 30
3.646124999999996
 11
773.5930971387931
 21
422.4787364151555
 31
3.646124999999996
  0
LINE
  5
57EBF
330
458D6
100
AcDbEntity
  8
0
 62
     0
100
AcDbLine
 10
774.1010971387927
 20
439.8777364151555
 30
3.646124999999996
 11
774.1010971387927
 21
419.0497364151557
 31
3.646124999999996
  0
LINE
  5
57EC0
330
458D6
100
AcDbEntity
  8
0
 62
     0
100
AcDbLine
 10
769.656097138791
 20
439.8777364151555
 30
3.646124999999996
 11
769.656097138791
 21
419.0497364151557
 31
3.646124999999996
  0
LINE
  5
57EC1
330
458D6
100
AcDbEntity
  8
0
 62
     0
100
AcDbLine
 10
774.1010971387927
 20
425.2535379637768
 30
3.646124999999996
 11
777.6443971387926
 21
425.2535379637768
 31
3.646124999999996
  0
LINE
  5
57EC2
330
458D6
100
AcDbEntity
  8
0
 62
     0
100
AcDbLine
 10
774.1010971387927
 20
423.3199436697991
 30
3.646124999999996
 11
777.6443971387926
 21
423.3199436697991
 31
3.646124999999996
  0
LINE
  5
57EC3
330
458D6
100
AcDbEntity
  8
0
 62
     0
100
AcDbLine
 10
777.6443971387926
 20
419.0497364151557
 30
3.646124999999996
 11
774.1010971387927
 21
419.0497364151557
 31
3.646124999999996
  0
LINE
  5
57EC4
330
458D6
100
AcDbEntity
  8
0
 62
     0
100
AcDbLine
 10
770.0370971387935
 20
423.3677364151561
 30
3.646124999999996
 11
769.656097138791
 21
422.7009864151559
 31
3.646124999999996
  0
LINE
  5
57EC5
330
458D6
100
AcDbEntity
  8
0
 62
     0
100
AcDbLine
 10
772.0690971387917
 20
423.3677364151561
 30
3.646124999999996
 11
771.5610971387921
 21
422.4787364151555
 31
3.646124999999996
  0
LINE
  5
57EC6
330
458D6
100
AcDbEntity
  8
0
 62
     0
100
AcDbLine
 10
771.0530971387925
 20
422.4787364151555
 30
3.646124999999996
 11
770.545097138793
 21
423.3677364151561
 31
3.646124999999996
  0
LINE
  5
57EC7
330
458D6
100
AcDbEntity
  8
0
 62
     0
100
AcDbLine
 10
771.5610971387921
 20
422.4787364151555
 30
3.646124999999996
 11
771.0530971387925
 21
422.4787364151555
 31
3.646124999999996
  0
LINE
  5
57EC8
330
458D6
100
AcDbEntity
  8
0
 62
     0
100
AcDbLine
 10
770.545097138793
 20
423.3677364151561
 30
3.646124999999996
 11
770.0370971387935
 21
423.3677364151561
 31
3.646124999999996
  0
LINE
  5
57EC9
330
458D6
100
AcDbEntity
  8
0
 62
     0
100
AcDbLine
 10
774.1010971387927
 20
423.3677364151561
 30
3.646124999999996
 11
773.5930971387931
 21
422.4787364151555
 31
3.646124999999996
  0
LINE
  5
57ECA
330
458D6
100
AcDbEntity
  8
0
 62
     0
100
AcDbLine
 10
773.0850971387935
 20
422.4787364151555
 30
3.646124999999996
 11
772.5770971387913
 21
423.3677364151561
 31
3.646124999999996
  0
LINE
  5
57ECB
330
458D6
100
AcDbEntity
  8
0
 62
     0
100
AcDbLine
 10
773.5930971387931
 20
422.4787364151555
 30
3.646124999999996
 11
773.0850971387935
 21
422.4787364151555
 31
3.646124999999996
  0
LINE
  5
57ECC
330
458D6
100
AcDbEntity
  8
0
 62
     0
100
AcDbLine
 10
772.5770971387913
 20
423.3677364151561
 30
3.646124999999996
 11
772.0690971387917
 21
423.3677364151561
 31
3.646124999999996
  0
LINE
  5
57ECD
330
458D6
100
AcDbEntity
  8
0
 62
     0
100
AcDbLine
 10
777.6443971387926
 20
439.8777364151555
 30
3.646124999999996
 11
774.1010971387927
 21
439.8777364151555
 31
3.646124999999996
  0
LINE
  5
57ECE
330
458D6
100
AcDbEntity
  8
0
 62
     0
100
AcDbLine
 10
774.1010971387927
 20
433.6739348665359
 30
3.646124999999996
 11
777.6443971387926
 21
433.6739348665359
 31
3.646124999999996
  0
LINE
  5
57ECF
330
458D6
100
AcDbEntity
  8
0
 62
     0
100
AcDbLine
 10
774.1010971387927
 20
435.6075291605121
 30
3.646124999999996
 11
777.6443971387926
 21
435.6075291605121
 31
3.646124999999996
  0
LINE
  5
57ED0
330
458D6
100
AcDbEntity
  8
0
 62
     0
100
AcDbLine
 10
771.0530971387925
 20
436.4487364151558
 30
3.646124999999996
 11
770.545097138793
 21
435.5597364151566
 31
3.646124999999996
  0
LINE
  5
57ED1
330
458D6
100
AcDbEntity
  8
0
 62
     0
100
AcDbLine
 10
772.0690971387917
 20
435.5597364151566
 30
3.646124999999996
 11
771.5610971387921
 21
436.4487364151558
 31
3.646124999999996
  0
LINE
  5
57ED2
330
458D6
100
AcDbEntity
  8
0
 62
     0
100
AcDbLine
 10
773.0850971387935
 20
436.4487364151558
 30
3.646124999999996
 11
772.5770971387913
 21
435.5597364151566
 31
3.646124999999996
  0
LINE
  5
57ED3
330
458D6
100
AcDbEntity
  8
0
 62
     0
100
AcDbLine
 10
774.1010971387927
 20
435.5597364151566
 30
3.646124999999996
 11
773.5930971387931
 21
436.4487364151558
 31
3.646124999999996
  0
LINE
  5
57ED4
330
458D6
100
AcDbEntity
  8
0
 62
     0
100
AcDbLine
 10
770.0370971387935
 20
435.5597364151566
 30
3.646124999999996
 11
769.656097138791
 21
436.2264864151567
 31
3.646124999999996
  0
LINE
  5
57ED5
330
458D6
100
AcDbEntity
  8
0
 62
     0
100
AcDbLine
 10
770.545097138793
 20
435.5597364151566
 30
3.646124999999996
 11
770.0370971387935
 21
435.5597364151566
 31
3.646124999999996
  0
LINE
  5
57ED6
330
458D6
100
AcDbEntity
  8
0
 62
     0
100
AcDbLine
 10
772.5770971387913
 20
435.5597364151566
 30
3.646124999999996
 11
772.0690971387917
 21
435.5597364151566
 31
3.646124999999996
  0
LINE
  5
57ED7
330
458D6
100
AcDbEntity
  8
0
 62
     0
100
AcDbLine
 10
771.5610971387921
 20
436.4487364151558
 30
3.646124999999996
 11
771.0530971387925
 21
436.4487364151558
 31
3.646124999999996
  0
LINE
  5
57ED8
330
458D6
100
AcDbEntity
  8
0
 62
     0
100
AcDbLine
 10
773.5930971387931
 20
436.4487364151558
 30
3.646124999999996
 11
773.0850971387935
 21
436.4487364151558
 31
3.646124999999996
  0
LINE
  5
57ED9
330
458D6
100
AcDbEntity
  8
0
 62
     0
100
AcDbLine
 10
757.4640971387934
 20
435.6867364151565
 30
3.646124999999996
 11
757.4640971387934
 21
423.2407364151562
 31
3.646124999999996
  0
ARC
  5
57EDA
330
458D6
100
AcDbEntity
  8
0
 62
     0
100
AcDbCircle
 10
769.9974096387911
 20
429.4637364151563
 30
3.646124999999996
 40
9.231312499998928
100
AcDbArc
 50
152.8656845153004
 51
207.1343154846995
  0
LINE
  5
57EDB
330
458D6
100
AcDbEntity
  8
0
 62
     0
100
AcDbLine
 10
760.7660971387932
 20
437.7441364151064
 30
3.646124999999996
 11
760.7660971387932
 21
421.1833364150706
 31
3.646124999999996
  0
ARC
  5
57EDC
330
458D6
100
AcDbEntity
  8
0
 62
     0
100
AcDbCircle
 10
763.5175347561663
 20
421.1848400424766
 30
3.646124999999996
 40
2.751438028232276
100
AcDbArc
 50
129.1046213224502
 51
230.8953786775497
  0
ARC
  5
57EDD
330
458D6
100
AcDbEntity
  8
0
 62
     0
100
AcDbCircle
 10
760.7660971387932
 20
423.2407364151562
 30
3.646124999999996
 40
3.302
100
AcDbArc
 50
180.0
 51
270.0
  0
LINE
  5
57EDE
330
458D6
100
AcDbEntity
  8
0
 62
     0
100
AcDbLine
 10
761.7820971387923
 20
425.2535379637768
 30
3.646124999999996
 11
761.7820971387923
 21
423.3199436697991
 31
3.646124999999996
  0
LINE
  5
57EDF
330
458D6
100
AcDbEntity
  8
0
 62
     0
100
AcDbLine
 10
760.7660971387932
 20
419.9387364151563
 30
3.646124999999996
 11
761.0644475230712
 21
419.9387364151563
 31
3.646124999999996
  0
ARC
  5
57EE0
330
458D6
100
AcDbEntity
  8
0
 62
     0
100
AcDbCircle
 10
763.5175347561663
 20
437.7426327878345
 30
3.646124999999996
 40
2.751438028232276
100
AcDbArc
 50
129.1046213224502
 51
230.8953786775497
  0
ARC
  5
57EE1
330
458D6
100
AcDbEntity
  8
0
 62
     0
100
AcDbCircle
 10
760.7660971387932
 20
435.6867364151565
 30
3.646124999999996
 40
3.302
100
AcDbArc
 50
90.0
 51
180.0
  0
LINE
  5
57EE2
330
458D6
100
AcDbEntity
  8
0
 62
     0
100
AcDbLine
 10
761.7820971387923
 20
435.6075291605121
 30
3.646124999999996
 11
761.7820971387923
 21
433.6739348665359
 31
3.646124999999996
  0
LINE
  5
57EE3
330
458D6
100
AcDbEntity
  8
0
 62
     0
100
AcDbLine
 10
760.7660971387932
 20
438.9887364151563
 30
3.646124999999996
 11
761.0644475230712
 21
438.9887364151563
 31
3.646124999999996
  0
LINE
  5
57EE4
330
458D6
100
AcDbEntity
  8
0
 62
     0
100
AcDbLine
 10
874.4183971387913
 20
306.928755567766
 30
3.646124999999996
 11
778.9143971387916
 21
306.928755567766
 31
3.646124999999996
  0
LINE
  5
57EE5
330
458D6
100
AcDbEntity
  8
0
 62
     0
100
AcDbLine
 10
875.6883971387932
 20
297.7693940668087
 30
3.646124999999996
 11
875.6883971387932
 21
305.6587555677657
 31
3.646124999999996
  0
LINE
  5
57EE6
330
458D6
100
AcDbEntity
  8
0
 62
     0
100
AcDbLine
 10
777.6443971387926
 20
297.7693940668087
 30
3.646124999999996
 11
777.6443971387926
 21
305.6587555677657
 31
3.646124999999996
  0
ARC
  5
57EE7
330
458D6
100
AcDbEntity
  8
0
 62
     0
100
AcDbCircle
 10
874.4183971387913
 20
305.6587555677657
 30
3.646124999999996
 40
1.27
100
AcDbArc
 50
0.0
 51
90.0
  0
ARC
  5
57EE8
330
458D6
100
AcDbEntity
  8
0
 62
     0
100
AcDbCircle
 10
778.9143971387916
 20
305.6587555677657
 30
3.646124999999996
 40
1.27
100
AcDbArc
 50
90.0
 51
180.0
  0
LINE
  5
57EE9
330
458D6
100
AcDbEntity
  8
0
 62
     0
100
AcDbLine
 10
875.6672428037665
 20
404.3177364151561
 30
3.646124999999996
 11
879.2105428037666
 21
404.3177364151561
 31
3.646124999999996
  0
LINE
  5
57EEA
330
458D6
100
AcDbEntity
  8
0
 62
     0
100
AcDbLine
 10
879.2105428037666
 20
398.113934866535
 30
3.646124999999996
 11
875.6672428037665
 21
398.113934866535
 31
3.646124999999996
  0
LINE
  5
57EEB
330
458D6
100
AcDbEntity
  8
0
 62
     0
100
AcDbLine
 10
879.2105428037666
 20
400.0475291605126
 30
3.646124999999996
 11
875.6672428037665
 21
400.0475291605126
 31
3.646124999999996
  0
LINE
  5
57EEC
330
458D6
100
AcDbEntity
  8
0
 62
     0
100
AcDbLine
 10
879.2105428037666
 20
389.6935379637759
 30
3.646124999999996
 11
875.6672428037665
 21
389.6935379637759
 31
3.646124999999996
  0
LINE
  5
57EED
330
458D6
100
AcDbEntity
  8
0
 62
     0
100
AcDbLine
 10
879.2105428037666
 20
387.7599436697983
 30
3.646124999999996
 11
875.6672428037665
 21
387.7599436697983
 31
3.646124999999996
  0
LINE
  5
57EEE
330
458D6
100
AcDbEntity
  8
0
 62
     0
100
AcDbLine
 10
875.6672428037665
 20
383.4897364151562
 30
3.646124999999996
 11
879.2105428037666
 21
383.4897364151562
 31
3.646124999999996
  0
LINE
  5
57EEF
330
458D6
100
AcDbEntity
  8
0
 62
     0
100
AcDbLine
 10
895.8475428037658
 20
400.1267364151556
 30
3.646124999999996
 11
895.8475428037658
 21
387.6807364151553
 31
3.646124999999996
  0
ARC
  5
57EF0
330
458D6
100
AcDbEntity
  8
0
 62
     0
100
AcDbCircle
 10
883.3142303037682
 20
393.9037364151555
 30
3.646124999999996
 40
9.231312499998928
100
AcDbArc
 50
332.8656845153003
 51
27.1343154846996
  0
LINE
  5
57EF1
330
458D6
100
AcDbEntity
  8
0
 62
     0
100
AcDbLine
 10
892.5455428037659
 20
402.1841364151069
 30
3.646124999999996
 11
892.5455428037659
 21
385.6233364150697
 31
3.646124999999996
  0
LINE
  5
57EF2
330
458D6
100
AcDbEntity
  8
0
 62
     0
100
AcDbLine
 10
883.2745428037657
 20
399.9997364151557
 30
3.646124999999996
 11
883.2745428037657
 21
387.8077364151552
 31
3.646124999999996
  0
LINE
  5
57EF3
330
458D6
100
AcDbEntity
  8
0
 62
     0
100
AcDbLine
 10
882.7665428037661
 20
399.9997364151557
 30
3.646124999999996
 11
882.7665428037661
 21
387.8077364151552
 31
3.646124999999996
  0
LINE
  5
57EF4
330
458D6
100
AcDbEntity
  8
0
 62
     0
100
AcDbLine
 10
882.2585428037669
 20
400.8887364151563
 30
3.646124999999996
 11
882.2585428037669
 21
386.918736415156
 31
3.646124999999996
  0
LINE
  5
57EF5
330
458D6
100
AcDbEntity
  8
0
 62
     0
100
AcDbLine
 10
881.7505428037673
 20
400.8887364151563
 30
3.646124999999996
 11
881.7505428037673
 21
386.918736415156
 31
3.646124999999996
  0
LINE
  5
57EF6
330
458D6
100
AcDbEntity
  8
0
 62
     0
100
AcDbLine
 10
881.2425428037647
 20
399.9997364151557
 30
3.646124999999996
 11
881.2425428037647
 21
387.8077364151552
 31
3.646124999999996
  0
LINE
  5
57EF7
330
458D6
100
AcDbEntity
  8
0
 62
     0
100
AcDbLine
 10
880.7345428037651
 20
399.9997364151557
 30
3.646124999999996
 11
880.7345428037651
 21
387.8077364151552
 31
3.646124999999996
  0
LINE
  5
57EF8
330
458D6
100
AcDbEntity
  8
0
 62
     0
100
AcDbLine
 10
880.2265428037658
 20
400.8887364151563
 30
3.646124999999996
 11
880.2265428037658
 21
386.918736415156
 31
3.646124999999996
  0
LINE
  5
57EF9
330
458D6
100
AcDbEntity
  8
0
 62
     0
100
AcDbLine
 10
879.7185428037662
 20
400.8887364151563
 30
3.646124999999996
 11
879.7185428037662
 21
386.918736415156
 31
3.646124999999996
  0
LINE
  5
57EFA
330
458D6
100
AcDbEntity
  8
0
 62
     0
100
AcDbLine
 10
879.2105428037666
 20
404.3177364151561
 30
3.646124999999996
 11
879.2105428037666
 21
383.4897364151562
 31
3.646124999999996
  0
LINE
  5
57EFB
330
458D6
100
AcDbEntity
  8
0
 62
     0
100
AcDbLine
 10
883.6555428037653
 20
404.3177364151561
 30
3.646124999999996
 11
883.6555428037653
 21
383.4897364151562
 31
3.646124999999996
  0
LINE
  5
57EFC
330
458D6
100
AcDbEntity
  8
0
 62
     0
100
AcDbLine
 10
891.5295428037671
 20
389.6935379637759
 30
3.646124999999996
 11
883.6555428037653
 21
389.6935379637759
 31
3.646124999999996
  0
LINE
  5
57EFD
330
458D6
100
AcDbEntity
  8
0
 62
     0
100
AcDbLine
 10
891.5295428037671
 20
387.7599436697983
 30
3.646124999999996
 11
883.6555428037653
 21
387.7599436697983
 31
3.646124999999996
  0
LINE
  5
57EFE
330
458D6
100
AcDbEntity
  8
0
 62
     0
100
AcDbLine
 10
883.6555428037653
 20
383.4897364151562
 30
3.646124999999996
 11
891.5295428037671
 21
383.4897364151562
 31
3.646124999999996
  0
LINE
  5
57EFF
330
458D6
100
AcDbEntity
  8
0
 62
     0
100
AcDbLine
 10
882.2585428037669
 20
386.918736415156
 30
3.646124999999996
 11
882.7665428037661
 21
387.8077364151552
 31
3.646124999999996
  0
LINE
  5
57F00
330
458D6
100
AcDbEntity
  8
0
 62
     0
100
AcDbLine
 10
881.2425428037647
 20
387.8077364151552
 30
3.646124999999996
 11
881.7505428037673
 21
386.918736415156
 31
3.646124999999996
  0
LINE
  5
57F01
330
458D6
100
AcDbEntity
  8
0
 62
     0
100
AcDbLine
 10
881.7505428037673
 20
386.918736415156
 30
3.646124999999996
 11
882.2585428037669
 21
386.918736415156
 31
3.646124999999996
  0
LINE
  5
57F02
330
458D6
100
AcDbEntity
  8
0
 62
     0
100
AcDbLine
 10
879.2105428037666
 20
387.8077364151552
 30
3.646124999999996
 11
879.7185428037662
 21
386.918736415156
 31
3.646124999999996
  0
LINE
  5
57F03
330
458D6
100
AcDbEntity
  8
0
 62
     0
100
AcDbLine
 10
880.2265428037658
 20
386.918736415156
 30
3.646124999999996
 11
880.7345428037651
 21
387.8077364151552
 31
3.646124999999996
  0
LINE
  5
57F04
330
458D6
100
AcDbEntity
  8
0
 62
     0
100
AcDbLine
 10
879.7185428037662
 20
386.918736415156
 30
3.646124999999996
 11
880.2265428037658
 21
386.918736415156
 31
3.646124999999996
  0
LINE
  5
57F05
330
458D6
100
AcDbEntity
  8
0
 62
     0
100
AcDbLine
 10
880.7345428037651
 20
387.8077364151552
 30
3.646124999999996
 11
881.2425428037647
 21
387.8077364151552
 31
3.646124999999996
  0
LINE
  5
57F06
330
458D6
100
AcDbEntity
  8
0
 62
     0
100
AcDbLine
 10
882.7665428037661
 20
387.8077364151552
 30
3.646124999999996
 11
883.2745428037657
 21
387.8077364151552
 31
3.646124999999996
  0
LINE
  5
57F07
330
458D6
100
AcDbEntity
  8
0
 62
     0
100
AcDbLine
 10
883.2745428037657
 20
387.8077364151552
 30
3.646124999999996
 11
883.6555428037653
 21
387.1409864151551
 31
3.646124999999996
  0
ARC
  5
57F08
330
458D6
100
AcDbEntity
  8
0
 62
     0
100
AcDbCircle
 10
889.7941051863902
 20
385.6248400424773
 30
3.646124999999996
 40
2.751438028232276
100
AcDbArc
 50
309.1046213224502
 51
50.89537867754973
  0
ARC
  5
57F09
330
458D6
100
AcDbEntity
  8
0
 62
     0
100
AcDbCircle
 10
892.5455428037659
 20
387.6807364151553
 30
3.646124999999996
 40
3.302
100
AcDbArc
 50
270.0
 51
0.0
  0
LINE
  5
57F0A
330
458D6
100
AcDbEntity
  8
0
 62
     0
100
AcDbLine
 10
891.5295428037671
 20
389.6935379637759
 30
3.646124999999996
 11
891.5295428037671
 21
387.7599436697983
 31
3.646124999999996
  0
LINE
  5
57F0B
330
458D6
100
AcDbEntity
  8
0
 62
     0
100
AcDbLine
 10
892.5455428037659
 20
384.3787364151555
 30
3.646124999999996
 11
892.247192419488
 21
384.3787364151555
 31
3.646124999999996
  0
LINE
  5
57F0C
330
458D6
100
AcDbEntity
  8
0
 62
     0
100
AcDbLine
 10
883.6555428037653
 20
404.3177364151561
 30
3.646124999999996
 11
891.5295428037671
 21
404.3177364151561
 31
3.646124999999996
  0
LINE
  5
57F0D
330
458D6
100
AcDbEntity
  8
0
 62
     0
100
AcDbLine
 10
891.5295428037671
 20
400.0475291605126
 30
3.646124999999996
 11
883.6555428037653
 21
400.0475291605126
 31
3.646124999999996
  0
LINE
  5
57F0E
330
458D6
100
AcDbEntity
  8
0
 62
     0
100
AcDbLine
 10
891.5295428037671
 20
398.113934866535
 30
3.646124999999996
 11
883.6555428037653
 21
398.113934866535
 31
3.646124999999996
  0
LINE
  5
57F0F
330
458D6
100
AcDbEntity
  8
0
 62
     0
100
AcDbLine
 10
882.2585428037669
 20
400.8887364151563
 30
3.646124999999996
 11
882.7665428037661
 21
399.9997364151557
 31
3.646124999999996
  0
LINE
  5
57F10
330
458D6
100
AcDbEntity
  8
0
 62
     0
100
AcDbLine
 10
881.2425428037647
 20
399.9997364151557
 30
3.646124999999996
 11
881.7505428037673
 21
400.8887364151563
 31
3.646124999999996
  0
LINE
  5
57F11
330
458D6
100
AcDbEntity
  8
0
 62
     0
100
AcDbLine
 10
880.2265428037658
 20
400.8887364151563
 30
3.646124999999996
 11
880.7345428037651
 21
399.9997364151557
 31
3.646124999999996
  0
LINE
  5
57F12
330
458D6
100
AcDbEntity
  8
0
 62
     0
100
AcDbLine
 10
879.2105428037666
 20
399.9997364151557
 30
3.646124999999996
 11
879.7185428037662
 21
400.8887364151563
 31
3.646124999999996
  0
LINE
  5
57F13
330
458D6
100
AcDbEntity
  8
0
 62
     0
100
AcDbLine
 10
880.7345428037651
 20
399.9997364151557
 30
3.646124999999996
 11
881.2425428037647
 21
399.9997364151557
 31
3.646124999999996
  0
LINE
  5
57F14
330
458D6
100
AcDbEntity
  8
0
 62
     0
100
AcDbLine
 10
883.2745428037657
 20
399.9997364151557
 30
3.646124999999996
 11
883.6555428037653
 21
400.6664864151558
 31
3.646124999999996
  0
LINE
  5
57F15
330
458D6
100
AcDbEntity
  8
0
 62
     0
100
AcDbLine
 10
882.7665428037661
 20
399.9997364151557
 30
3.646124999999996
 11
883.2745428037657
 21
399.9997364151557
 31
3.646124999999996
  0
LINE
  5
57F16
330
458D6
100
AcDbEntity
  8
0
 62
     0
100
AcDbLine
 10
881.7505428037673
 20
400.8887364151563
 30
3.646124999999996
 11
882.2585428037669
 21
400.8887364151563
 31
3.646124999999996
  0
LINE
  5
57F17
330
458D6
100
AcDbEntity
  8
0
 62
     0
100
AcDbLine
 10
879.7185428037662
 20
400.8887364151563
 30
3.646124999999996
 11
880.2265428037658
 21
400.8887364151563
 31
3.646124999999996
  0
ARC
  5
57F18
330
458D6
100
AcDbEntity
  8
0
 62
     0
100
AcDbCircle
 10
889.7941051863902
 20
402.1826327878336
 30
3.646124999999996
 40
2.751438028232276
100
AcDbArc
 50
309.1046213224502
 51
50.89537867754973
  0
ARC
  5
57F19
330
458D6
100
AcDbEntity
  8
0
 62
     0
100
AcDbCircle
 10
892.5455428037659
 20
400.1267364151556
 30
3.646124999999996
 40
3.302
100
AcDbArc
 50
0.0
 51
90.0
  0
LINE
  5
57F1A
330
458D6
100
AcDbEntity
  8
0
 62
     0
100
AcDbLine
 10
891.5295428037671
 20
400.0475291605126
 30
3.646124999999996
 11
891.5295428037671
 21
398.113934866535
 31
3.646124999999996
  0
LINE
  5
57F1B
330
458D6
100
AcDbEntity
  8
0
 62
     0
100
AcDbLine
 10
892.5455428037659
 20
403.4287364151555
 30
3.646124999999996
 11
892.247192419488
 21
403.4287364151555
 31
3.646124999999996
  0
LINE
  5
57F1C
330
458D6
100
AcDbEntity
  8
0
 62
     0
100
AcDbLine
 10
769.5963208072182
 20
383.4897364151562
 30
3.646124999999996
 11
761.7223208072167
 21
383.4897364151562
 31
3.646124999999996
  0
LINE
  5
57F1D
330
458D6
100
AcDbEntity
  8
0
 62
     0
100
AcDbLine
 10
761.7223208072167
 20
387.7599436697983
 30
3.646124999999996
 11
769.5963208072182
 21
387.7599436697983
 31
3.646124999999996
  0
LINE
  5
57F1E
330
458D6
100
AcDbEntity
  8
0
 62
     0
100
AcDbLine
 10
761.7223208072167
 20
389.6935379637759
 30
3.646124999999996
 11
769.5963208072182
 21
389.6935379637759
 31
3.646124999999996
  0
LINE
  5
57F1F
330
458D6
100
AcDbEntity
  8
0
 62
     0
100
AcDbLine
 10
761.7223208072167
 20
398.113934866535
 30
3.646124999999996
 11
769.5963208072182
 21
398.113934866535
 31
3.646124999999996
  0
LINE
  5
57F20
330
458D6
100
AcDbEntity
  8
0
 62
     0
100
AcDbLine
 10
761.7223208072167
 20
400.0475291605126
 30
3.646124999999996
 11
769.5963208072182
 21
400.0475291605126
 31
3.646124999999996
  0
LINE
  5
57F21
330
458D6
100
AcDbEntity
  8
0
 62
     0
100
AcDbLine
 10
769.5963208072182
 20
404.3177364151561
 30
3.646124999999996
 11
761.7223208072167
 21
404.3177364151561
 31
3.646124999999996
  0
LINE
  5
57F22
330
458D6
100
AcDbEntity
  8
0
 62
     0
100
AcDbLine
 10
760.7063208072177
 20
402.1841364151069
 30
3.646124999999996
 11
760.7063208072177
 21
385.6233364150697
 31
3.646124999999996
  0
ARC
  5
57F23
330
458D6
100
AcDbEntity
  8
0
 62
     0
100
AcDbCircle
 10
769.9376333072156
 20
393.9037364151555
 30
3.646124999999996
 40
9.231312499998928
100
AcDbArc
 50
152.8656845153004
 51
207.1343154846995
  0
LINE
  5
57F24
330
458D6
100
AcDbEntity
  8
0
 62
     0
100
AcDbLine
 10
757.4043208072177
 20
400.1267364151556
 30
3.646124999999996
 11
757.4043208072177
 21
387.6807364151553
 31
3.646124999999996
  0
ARC
  5
57F25
330
458D6
100
AcDbEntity
  8
0
 62
     0
100
AcDbCircle
 10
760.7063208072177
 20
387.6807364151553
 30
3.646124999999996
 40
3.302
100
AcDbArc
 50
180.0
 51
270.0
  0
ARC
  5
57F26
330
458D6
100
AcDbEntity
  8
0
 62
     0
100
AcDbCircle
 10
763.4577584245936
 20
385.6248400424773
 30
3.646124999999996
 40
2.751438028232276
100
AcDbArc
 50
129.1046213224502
 51
230.8953786775497
  0
LINE
  5
57F27
330
458D6
100
AcDbEntity
  8
0
 62
     0
100
AcDbLine
 10
760.7063208072177
 20
384.3787364151555
 30
3.646124999999996
 11
761.0046711914955
 21
384.3787364151555
 31
3.646124999999996
  0
LINE
  5
57F28
330
458D6
100
AcDbEntity
  8
0
 62
     0
100
AcDbLine
 10
761.7223208072167
 20
389.6935379637759
 30
3.646124999999996
 11
761.7223208072167
 21
387.7599436697983
 31
3.646124999999996
  0
ARC
  5
57F29
330
458D6
100
AcDbEntity
  8
0
 62
     0
100
AcDbCircle
 10
760.7063208072177
 20
400.1267364151556
 30
3.646124999999996
 40
3.302
100
AcDbArc
 50
90.0
 51
180.0
  0
ARC
  5
57F2A
330
458D6
100
AcDbEntity
  8
0
 62
     0
100
AcDbCircle
 10
763.4577584245936
 20
402.1826327878336
 30
3.646124999999996
 40
2.751438028232276
100
AcDbArc
 50
129.1046213224502
 51
230.8953786775497
  0
LINE
  5
57F2B
330
458D6
100
AcDbEntity
  8
0
 62
     0
100
AcDbLine
 10
761.7223208072167
 20
400.0475291605126
 30
3.646124999999996
 11
761.7223208072167
 21
398.113934866535
 31
3.646124999999996
  0
LINE
  5
57F2C
330
458D6
100
AcDbEntity
  8
0
 62
     0
100
AcDbLine
 10
760.7063208072177
 20
403.4287364151555
 30
3.646124999999996
 11
761.0046711914955
 21
403.4287364151555
 31
3.646124999999996
  0
LINE
  5
57F2D
330
458D6
100
AcDbEntity
  8
0
 62
     0
100
AcDbLine
 10
769.5963208072182
 20
404.3177364151561
 30
3.646124999999996
 11
769.5963208072182
 21
383.4897364151562
 31
3.646124999999996
  0
LINE
  5
57F2E
330
458D6
100
AcDbEntity
  8
0
 62
     0
100
AcDbLine
 10
774.041320807217
 20
404.3177364151561
 30
3.646124999999996
 11
774.041320807217
 21
383.4897364151562
 31
3.646124999999996
  0
LINE
  5
57F2F
330
458D6
100
AcDbEntity
  8
0
 62
     0
100
AcDbLine
 10
773.5333208072177
 20
400.8887364151563
 30
3.646124999999996
 11
773.5333208072177
 21
386.918736415156
 31
3.646124999999996
  0
LINE
  5
57F30
330
458D6
100
AcDbEntity
  8
0
 62
     0
100
AcDbLine
 10
773.0253208072181
 20
400.8887364151563
 30
3.646124999999996
 11
773.0253208072181
 21
386.918736415156
 31
3.646124999999996
  0
LINE
  5
57F31
330
458D6
100
AcDbEntity
  8
0
 62
     0
100
AcDbLine
 10
772.5173208072185
 20
399.9997364151557
 30
3.646124999999996
 11
772.5173208072185
 21
387.8077364151552
 31
3.646124999999996
  0
LINE
  5
57F32
330
458D6
100
AcDbEntity
  8
0
 62
     0
100
AcDbLine
 10
772.0093208072162
 20
399.9997364151557
 30
3.646124999999996
 11
772.0093208072162
 21
387.8077364151552
 31
3.646124999999996
  0
LINE
  5
57F33
330
458D6
100
AcDbEntity
  8
0
 62
     0
100
AcDbLine
 10
771.5013208072166
 20
400.8887364151563
 30
3.646124999999996
 11
771.5013208072166
 21
386.918736415156
 31
3.646124999999996
  0
LINE
  5
57F34
330
458D6
100
AcDbEntity
  8
0
 62
     0
100
AcDbLine
 10
770.993320807217
 20
400.8887364151563
 30
3.646124999999996
 11
770.993320807217
 21
386.918736415156
 31
3.646124999999996
  0
LINE
  5
57F35
330
458D6
100
AcDbEntity
  8
0
 62
     0
100
AcDbLine
 10
770.4853208072174
 20
399.9997364151557
 30
3.646124999999996
 11
770.4853208072174
 21
387.8077364151552
 31
3.646124999999996
  0
LINE
  5
57F36
330
458D6
100
AcDbEntity
  8
0
 62
     0
100
AcDbLine
 10
769.977320807218
 20
399.9997364151557
 30
3.646124999999996
 11
769.977320807218
 21
387.8077364151552
 31
3.646124999999996
  0
LINE
  5
57F37
330
458D6
100
AcDbEntity
  8
0
 62
     0
100
AcDbLine
 10
777.5846208072171
 20
383.4897364151562
 30
3.646124999999996
 11
774.041320807217
 21
383.4897364151562
 31
3.646124999999996
  0
LINE
  5
57F38
330
458D6
100
AcDbEntity
  8
0
 62
     0
100
AcDbLine
 10
773.5333208072177
 20
386.918736415156
 30
3.646124999999996
 11
773.0253208072181
 21
386.918736415156
 31
3.646124999999996
  0
LINE
  5
57F39
330
458D6
100
AcDbEntity
  8
0
 62
     0
100
AcDbLine
 10
772.5173208072185
 20
387.8077364151552
 30
3.646124999999996
 11
772.0093208072162
 21
387.8077364151552
 31
3.646124999999996
  0
LINE
  5
57F3A
330
458D6
100
AcDbEntity
  8
0
 62
     0
100
AcDbLine
 10
773.0253208072181
 20
386.918736415156
 30
3.646124999999996
 11
772.5173208072185
 21
387.8077364151552
 31
3.646124999999996
  0
LINE
  5
57F3B
330
458D6
100
AcDbEntity
  8
0
 62
     0
100
AcDbLine
 10
770.4853208072174
 20
387.8077364151552
 30
3.646124999999996
 11
769.977320807218
 21
387.8077364151552
 31
3.646124999999996
  0
LINE
  5
57F3C
330
458D6
100
AcDbEntity
  8
0
 62
     0
100
AcDbLine
 10
771.5013208072166
 20
386.918736415156
 30
3.646124999999996
 11
770.993320807217
 21
386.918736415156
 31
3.646124999999996
  0
LINE
  5
57F3D
330
458D6
100
AcDbEntity
  8
0
 62
     0
100
AcDbLine
 10
770.993320807217
 20
386.918736415156
 30
3.646124999999996
 11
770.4853208072174
 21
387.8077364151552
 31
3.646124999999996
  0
LINE
  5
57F3E
330
458D6
100
AcDbEntity
  8
0
 62
     0
100
AcDbLine
 10
772.0093208072162
 20
387.8077364151552
 30
3.646124999999996
 11
771.5013208072166
 21
386.918736415156
 31
3.646124999999996
  0
LINE
  5
57F3F
330
458D6
100
AcDbEntity
  8
0
 62
     0
100
AcDbLine
 10
769.977320807218
 20
387.8077364151552
 30
3.646124999999996
 11
769.5963208072182
 21
387.1409864151551
 31
3.646124999999996
  0
LINE
  5
57F40
330
458D6
100
AcDbEntity
  8
0
 62
     0
100
AcDbLine
 10
774.041320807217
 20
387.8077364151552
 30
3.646124999999996
 11
773.5333208072177
 21
386.918736415156
 31
3.646124999999996
  0
LINE
  5
57F41
330
458D6
100
AcDbEntity
  8
0
 62
     0
100
AcDbLine
 10
774.041320807217
 20
387.7599436697983
 30
3.646124999999996
 11
777.5846208072171
 21
387.7599436697983
 31
3.646124999999996
  0
LINE
  5
57F42
330
458D6
100
AcDbEntity
  8
0
 62
     0
100
AcDbLine
 10
774.041320807217
 20
389.6935379637759
 30
3.646124999999996
 11
777.5846208072171
 21
389.6935379637759
 31
3.646124999999996
  0
LINE
  5
57F43
330
458D6
100
AcDbEntity
  8
0
 62
     0
100
AcDbLine
 10
774.041320807217
 20
399.9997364151557
 30
3.646124999999996
 11
773.5333208072177
 21
400.8887364151563
 31
3.646124999999996
  0
LINE
  5
57F44
330
458D6
100
AcDbEntity
  8
0
 62
     0
100
AcDbLine
 10
773.0253208072181
 20
400.8887364151563
 30
3.646124999999996
 11
772.5173208072185
 21
399.9997364151557
 31
3.646124999999996
  0
LINE
  5
57F45
330
458D6
100
AcDbEntity
  8
0
 62
     0
100
AcDbLine
 10
772.0093208072162
 20
399.9997364151557
 30
3.646124999999996
 11
771.5013208072166
 21
400.8887364151563
 31
3.646124999999996
  0
LINE
  5
57F46
330
458D6
100
AcDbEntity
  8
0
 62
     0
100
AcDbLine
 10
770.993320807217
 20
400.8887364151563
 30
3.646124999999996
 11
770.4853208072174
 21
399.9997364151557
 31
3.646124999999996
  0
LINE
  5
57F47
330
458D6
100
AcDbEntity
  8
0
 62
     0
100
AcDbLine
 10
772.5173208072185
 20
399.9997364151557
 30
3.646124999999996
 11
772.0093208072162
 21
399.9997364151557
 31
3.646124999999996
  0
LINE
  5
57F48
330
458D6
100
AcDbEntity
  8
0
 62
     0
100
AcDbLine
 10
770.4853208072174
 20
399.9997364151557
 30
3.646124999999996
 11
769.977320807218
 21
399.9997364151557
 31
3.646124999999996
  0
LINE
  5
57F49
330
458D6
100
AcDbEntity
  8
0
 62
     0
100
AcDbLine
 10
769.977320807218
 20
399.9997364151557
 30
3.646124999999996
 11
769.5963208072182
 21
400.6664864151558
 31
3.646124999999996
  0
LINE
  5
57F4A
330
458D6
100
AcDbEntity
  8
0
 62
     0
100
AcDbLine
 10
774.041320807217
 20
400.0475291605126
 30
3.646124999999996
 11
777.5846208072171
 21
400.0475291605126
 31
3.646124999999996
  0
LINE
  5
57F4B
330
458D6
100
AcDbEntity
  8
0
 62
     0
100
AcDbLine
 10
774.041320807217
 20
398.113934866535
 30
3.646124999999996
 11
777.5846208072171
 21
398.113934866535
 31
3.646124999999996
  0
LINE
  5
57F4C
330
458D6
100
AcDbEntity
  8
0
 62
     0
100
AcDbLine
 10
773.5333208072177
 20
400.8887364151563
 30
3.646124999999996
 11
773.0253208072181
 21
400.8887364151563
 31
3.646124999999996
  0
LINE
  5
57F4D
330
458D6
100
AcDbEntity
  8
0
 62
     0
100
AcDbLine
 10
771.5013208072166
 20
400.8887364151563
 30
3.646124999999996
 11
770.993320807217
 21
400.8887364151563
 31
3.646124999999996
  0
LINE
  5
57F4E
330
458D6
100
AcDbEntity
  8
0
 62
     0
100
AcDbLine
 10
777.5846208072171
 20
404.3177364151561
 30
3.646124999999996
 11
774.041320807217
 21
404.3177364151561
 31
3.646124999999996
  0
CIRCLE
  5
57F4F
330
458D6
100
AcDbEntity
  8
0
 62
     0
100
AcDbCircle
 10
783.9943971387927
 20
367.3528368326079
 30
3.646124999999996
 40
3.96875
  0
INSERT
  5
57F50
330
458D6
100
AcDbEntity
  8
0
 62
     0
100
AcDbBlockReference
  2
PHILL
 10
783.9943971387927
 20
367.3528368326079
 30
3.646124999999996
 41
-25.4
 42
25.4
 43
25.4
 50
198.8659412470859
  0
CIRCLE
  5
57F51
330
458D6
100
AcDbEntity
  8
0
 62
     0
100
AcDbCircle
 10
869.3383971387929
 20
367.3528368326079
 30
3.646124999999996
 40
3.96875
  0
INSERT
  5
57F52
330
458D6
100
AcDbEntity
  8
0
 62
     0
100
AcDbBlockReference
  2
PHILL
 10
869.3383971387929
 20
367.3528368326079
 30
3.646124999999996
 41
-25.4
 42
25.4
 43
25.4
 50
180.0
  0
LINE
  5
57F53
330
458D6
100
AcDbEntity
  8
0
 62
     0
100
AcDbLine
 10
769.5963208072182
 20
268.6867404118332
 30
3.646124999999996
 11
761.7223208072167
 21
268.6867404118332
 31
3.646124999999996
  0
LINE
  5
57F54
330
458D6
100
AcDbEntity
  8
0
 62
     0
100
AcDbLine
 10
761.7223208072167
 20
272.9569476664767
 30
3.646124999999996
 11
769.5963208072182
 21
272.9569476664767
 31
3.646124999999996
  0
LINE
  5
57F55
330
458D6
100
AcDbEntity
  8
0
 62
     0
100
AcDbLine
 10
761.7223208072167
 20
274.8905419604543
 30
3.646124999999996
 11
769.5963208072182
 21
274.8905419604543
 31
3.646124999999996
  0
LINE
  5
57F56
330
458D6
100
AcDbEntity
  8
0
 62
     0
100
AcDbLine
 10
761.7223208072167
 20
283.3109388632119
 30
3.646124999999996
 11
769.5963208072182
 21
283.3109388632119
 31
3.646124999999996
  0
LINE
  5
57F57
330
458D6
100
AcDbEntity
  8
0
 62
     0
100
AcDbLine
 10
761.7223208072167
 20
285.2445331571896
 30
3.646124999999996
 11
769.5963208072182
 21
285.2445331571896
 31
3.646124999999996
  0
LINE
  5
57F58
330
458D6
100
AcDbEntity
  8
0
 62
     0
100
AcDbLine
 10
769.5963208072182
 20
289.514740411833
 30
3.646124999999996
 11
761.7223208072167
 21
289.514740411833
 31
3.646124999999996
  0
LINE
  5
57F59
330
458D6
100
AcDbEntity
  8
0
 62
     0
100
AcDbLine
 10
760.7063208072177
 20
288.6257404118324
 30
3.646124999999996
 11
760.7063208072177
 21
269.5757404118324
 31
3.646124999999996
  0
ARC
  5
57F5A
330
458D6
100
AcDbEntity
  8
0
 62
     0
100
AcDbCircle
 10
769.9376333072156
 20
279.1007404118324
 30
3.646124999999996
 40
9.231312499998928
100
AcDbArc
 50
152.8656845153004
 51
207.1343154846995
  0
LINE
  5
57F5B
330
458D6
100
AcDbEntity
  8
0
 62
     0
100
AcDbLine
 10
757.4043208072177
 20
285.3237404118325
 30
3.646124999999996
 11
757.4043208072177
 21
272.8777404118337
 31
3.646124999999996
  0
ARC
  5
57F5C
330
458D6
100
AcDbEntity
  8
0
 62
     0
100
AcDbCircle
 10
760.7063208072177
 20
272.8777404118337
 30
3.646124999999996
 40
3.302
100
AcDbArc
 50
180.0
 51
270.0
  0
ARC
  5
57F5D
330
458D6
100
AcDbEntity
  8
0
 62
     0
100
AcDbCircle
 10
763.4577584245907
 20
270.8218440391542
 30
3.646124999999996
 40
2.751438028232276
100
AcDbArc
 50
129.1046213224502
 51
230.8953786775497
  0
LINE
  5
57F5E
330
458D6
100
AcDbEntity
  8
0
 62
     0
100
AcDbLine
 10
760.7063208072177
 20
269.5757404118324
 30
3.646124999999996
 11
761.0046711914955
 21
269.5757404118324
 31
3.646124999999996
  0
LINE
  5
57F5F
330
458D6
100
AcDbEntity
  8
0
 62
     0
100
AcDbLine
 10
761.7223208072167
 20
274.8905419604543
 30
3.646124999999996
 11
761.7223208072167
 21
272.9569476664767
 31
3.646124999999996
  0
ARC
  5
57F60
330
458D6
100
AcDbEntity
  8
0
 62
     0
100
AcDbCircle
 10
760.7063208072177
 20
285.3237404118325
 30
3.646124999999996
 40
3.302
100
AcDbArc
 50
90.0
 51
180.0
  0
ARC
  5
57F61
330
458D6
100
AcDbEntity
  8
0
 62
     0
100
AcDbCircle
 10
763.4577584245907
 20
287.379636784512
 30
3.646124999999996
 40
2.751438028232276
100
AcDbArc
 50
129.1046213224502
 51
230.8953786775497
  0
LINE
  5
57F62
330
458D6
100
AcDbEntity
  8
0
 62
     0
100
AcDbLine
 10
761.7223208072167
 20
285.2445331571896
 30
3.646124999999996
 11
761.7223208072167
 21
283.3109388632119
 31
3.646124999999996
  0
LINE
  5
57F63
330
458D6
100
AcDbEntity
  8
0
 62
     0
100
AcDbLine
 10
760.7063208072177
 20
288.6257404118324
 30
3.646124999999996
 11
761.0046711914955
 21
288.6257404118324
 31
3.646124999999996
  0
LINE
  5
57F64
330
458D6
100
AcDbEntity
  8
0
 62
     0
100
AcDbLine
 10
769.5963208072182
 20
289.514740411833
 30
3.646124999999996
 11
769.5963208072182
 21
268.6867404118332
 31
3.646124999999996
  0
LINE
  5
57F65
330
458D6
100
AcDbEntity
  8
0
 62
     0
100
AcDbLine
 10
774.041320807217
 20
289.514740411833
 30
3.646124999999996
 11
774.041320807217
 21
268.6867404118332
 31
3.646124999999996
  0
LINE
  5
57F66
330
458D6
100
AcDbEntity
  8
0
 62
     0
100
AcDbLine
 10
773.5333208072177
 20
286.0857404118332
 30
3.646124999999996
 11
773.5333208072177
 21
272.115740411833
 31
3.646124999999996
  0
LINE
  5
57F67
330
458D6
100
AcDbEntity
  8
0
 62
     0
100
AcDbLine
 10
773.0253208072181
 20
286.0857404118332
 30
3.646124999999996
 11
773.0253208072181
 21
272.115740411833
 31
3.646124999999996
  0
LINE
  5
57F68
330
458D6
100
AcDbEntity
  8
0
 62
     0
100
AcDbLine
 10
772.5173208072185
 20
285.1967404118326
 30
3.646124999999996
 11
772.5173208072185
 21
273.0047404118336
 31
3.646124999999996
  0
LINE
  5
57F69
330
458D6
100
AcDbEntity
  8
0
 62
     0
100
AcDbLine
 10
772.0093208072162
 20
285.1967404118326
 30
3.646124999999996
 11
772.0093208072162
 21
273.0047404118336
 31
3.646124999999996
  0
LINE
  5
57F6A
330
458D6
100
AcDbEntity
  8
0
 62
     0
100
AcDbLine
 10
771.5013208072166
 20
286.0857404118332
 30
3.646124999999996
 11
771.5013208072166
 21
272.115740411833
 31
3.646124999999996
  0
LINE
  5
57F6B
330
458D6
100
AcDbEntity
  8
0
 62
     0
100
AcDbLine
 10
770.993320807217
 20
286.0857404118332
 30
3.646124999999996
 11
770.993320807217
 21
272.115740411833
 31
3.646124999999996
  0
LINE
  5
57F6C
330
458D6
100
AcDbEntity
  8
0
 62
     0
100
AcDbLine
 10
770.4853208072174
 20
285.1967404118326
 30
3.646124999999996
 11
770.4853208072174
 21
273.0047404118336
 31
3.646124999999996
  0
LINE
  5
57F6D
330
458D6
100
AcDbEntity
  8
0
 62
     0
100
AcDbLine
 10
769.977320807218
 20
285.1967404118326
 30
3.646124999999996
 11
769.977320807218
 21
273.0047404118336
 31
3.646124999999996
  0
LINE
  5
57F6E
330
458D6
100
AcDbEntity
  8
0
 62
     0
100
AcDbLine
 10
777.5846208072171
 20
268.6867404118332
 30
3.646124999999996
 11
774.041320807217
 21
268.6867404118332
 31
3.646124999999996
  0
LINE
  5
57F6F
330
458D6
100
AcDbEntity
  8
0
 62
     0
100
AcDbLine
 10
773.5333208072177
 20
272.115740411833
 30
3.646124999999996
 11
773.0253208072181
 21
272.115740411833
 31
3.646124999999996
  0
LINE
  5
57F70
330
458D6
100
AcDbEntity
  8
0
 62
     0
100
AcDbLine
 10
772.5173208072185
 20
273.0047404118336
 30
3.646124999999996
 11
772.0093208072162
 21
273.0047404118336
 31
3.646124999999996
  0
LINE
  5
57F71
330
458D6
100
AcDbEntity
  8
0
 62
     0
100
AcDbLine
 10
773.0253208072181
 20
272.115740411833
 30
3.646124999999996
 11
772.5173208072185
 21
273.0047404118336
 31
3.646124999999996
  0
LINE
  5
57F72
330
458D6
100
AcDbEntity
  8
0
 62
     0
100
AcDbLine
 10
770.4853208072174
 20
273.0047404118336
 30
3.646124999999996
 11
769.977320807218
 21
273.0047404118336
 31
3.646124999999996
  0
LINE
  5
57F73
330
458D6
100
AcDbEntity
  8
0
 62
     0
100
AcDbLine
 10
771.5013208072166
 20
272.115740411833
 30
3.646124999999996
 11
770.993320807217
 21
272.115740411833
 31
3.646124999999996
  0
LINE
  5
57F74
330
458D6
100
AcDbEntity
  8
0
 62
     0
100
AcDbLine
 10
770.993320807217
 20
272.115740411833
 30
3.646124999999996
 11
770.4853208072174
 21
273.0047404118336
 31
3.646124999999996
  0
LINE
  5
57F75
330
458D6
100
AcDbEntity
  8
0
 62
     0
100
AcDbLine
 10
772.0093208072162
 20
273.0047404118336
 30
3.646124999999996
 11
771.5013208072166
 21
272.115740411833
 31
3.646124999999996
  0
LINE
  5
57F76
330
458D6
100
AcDbEntity
  8
0
 62
     0
100
AcDbLine
 10
769.977320807218
 20
273.0047404118336
 30
3.646124999999996
 11
769.5963208072182
 21
272.3379904118335
 31
3.646124999999996
  0
LINE
  5
57F77
330
458D6
100
AcDbEntity
  8
0
 62
     0
100
AcDbLine
 10
774.041320807217
 20
273.0047404118336
 30
3.646124999999996
 11
773.5333208072177
 21
272.115740411833
 31
3.646124999999996
  0
LINE
  5
57F78
330
458D6
100
AcDbEntity
  8
0
 62
     0
100
AcDbLine
 10
774.041320807217
 20
272.9569476664767
 30
3.646124999999996
 11
777.5846208072171
 21
272.9569476664767
 31
3.646124999999996
  0
LINE
  5
57F79
330
458D6
100
AcDbEntity
  8
0
 62
     0
100
AcDbLine
 10
774.041320807217
 20
274.8905419604543
 30
3.646124999999996
 11
777.5846208072171
 21
274.8905419604543
 31
3.646124999999996
  0
LINE
  5
57F7A
330
458D6
100
AcDbEntity
  8
0
 62
     0
100
AcDbLine
 10
773.5333208072177
 20
286.0857404118332
 30
3.646124999999996
 11
773.0253208072181
 21
286.0857404118332
 31
3.646124999999996
  0
LINE
  5
57F7B
330
458D6
100
AcDbEntity
  8
0
 62
     0
100
AcDbLine
 10
773.0253208072181
 20
286.0857404118332
 30
3.646124999999996
 11
772.5173208072185
 21
285.1967404118326
 31
3.646124999999996
  0
LINE
  5
57F7C
330
458D6
100
AcDbEntity
  8
0
 62
     0
100
AcDbLine
 10
772.0093208072162
 20
285.1967404118326
 30
3.646124999999996
 11
771.5013208072166
 21
286.0857404118332
 31
3.646124999999996
  0
LINE
  5
57F7D
330
458D6
100
AcDbEntity
  8
0
 62
     0
100
AcDbLine
 10
770.993320807217
 20
286.0857404118332
 30
3.646124999999996
 11
770.4853208072174
 21
285.1967404118326
 31
3.646124999999996
  0
LINE
  5
57F7E
330
458D6
100
AcDbEntity
  8
0
 62
     0
100
AcDbLine
 10
772.5173208072185
 20
285.1967404118326
 30
3.646124999999996
 11
772.0093208072162
 21
285.1967404118326
 31
3.646124999999996
  0
LINE
  5
57F7F
330
458D6
100
AcDbEntity
  8
0
 62
     0
100
AcDbLine
 10
770.4853208072174
 20
285.1967404118326
 30
3.646124999999996
 11
769.977320807218
 21
285.1967404118326
 31
3.646124999999996
  0
LINE
  5
57F80
330
458D6
100
AcDbEntity
  8
0
 62
     0
100
AcDbLine
 10
769.977320807218
 20
285.1967404118326
 30
3.646124999999996
 11
769.5963208072182
 21
285.8634904118328
 31
3.646124999999996
  0
LINE
  5
57F81
330
458D6
100
AcDbEntity
  8
0
 62
     0
100
AcDbLine
 10
771.5013208072166
 20
286.0857404118332
 30
3.646124999999996
 11
770.993320807217
 21
286.0857404118332
 31
3.646124999999996
  0
LINE
  5
57F82
330
458D6
100
AcDbEntity
  8
0
 62
     0
100
AcDbLine
 10
774.041320807217
 20
285.1967404118326
 30
3.646124999999996
 11
773.5333208072177
 21
286.0857404118332
 31
3.646124999999996
  0
LINE
  5
57F83
330
458D6
100
AcDbEntity
  8
0
 62
     0
100
AcDbLine
 10
774.041320807217
 20
285.2445331571896
 30
3.646124999999996
 11
777.5846208072171
 21
285.2445331571896
 31
3.646124999999996
  0
LINE
  5
57F84
330
458D6
100
AcDbEntity
  8
0
 62
     0
100
AcDbLine
 10
774.041320807217
 20
283.3109388632119
 30
3.646124999999996
 11
777.5846208072171
 21
283.3109388632119
 31
3.646124999999996
  0
LINE
  5
57F85
330
458D6
100
AcDbEntity
  8
0
 62
     0
100
AcDbLine
 10
777.5846208072171
 20
289.514740411833
 30
3.646124999999996
 11
774.041320807217
 21
289.514740411833
 31
3.646124999999996
  0
LINE
  5
57F86
330
458D6
100
AcDbEntity
  8
0
 62
     0
100
AcDbLine
 10
875.6672428037665
 20
289.514740411833
 30
3.646124999999996
 11
879.2105428037666
 21
289.514740411833
 31
3.646124999999996
  0
LINE
  5
57F87
330
458D6
100
AcDbEntity
  8
0
 62
     0
100
AcDbLine
 10
879.2105428037666
 20
283.3109388632119
 30
3.646124999999996
 11
875.6672428037665
 21
283.3109388632119
 31
3.646124999999996
  0
LINE
  5
57F88
330
458D6
100
AcDbEntity
  8
0
 62
     0
100
AcDbLine
 10
879.2105428037666
 20
285.2445331571896
 30
3.646124999999996
 11
875.6672428037665
 21
285.2445331571896
 31
3.646124999999996
  0
LINE
  5
57F89
330
458D6
100
AcDbEntity
  8
0
 62
     0
100
AcDbLine
 10
879.2105428037666
 20
274.8905419604543
 30
3.646124999999996
 11
875.6672428037665
 21
274.8905419604543
 31
3.646124999999996
  0
LINE
  5
57F8A
330
458D6
100
AcDbEntity
  8
0
 62
     0
100
AcDbLine
 10
879.2105428037666
 20
272.9569476664767
 30
3.646124999999996
 11
875.6672428037665
 21
272.9569476664767
 31
3.646124999999996
  0
LINE
  5
57F8B
330
458D6
100
AcDbEntity
  8
0
 62
     0
100
AcDbLine
 10
875.6672428037665
 20
268.6867404118332
 30
3.646124999999996
 11
879.2105428037666
 21
268.6867404118332
 31
3.646124999999996
  0
LINE
  5
57F8C
330
458D6
100
AcDbEntity
  8
0
 62
     0
100
AcDbLine
 10
895.8475428037658
 20
285.3237404118325
 30
3.646124999999996
 11
895.8475428037658
 21
272.8777404118337
 31
3.646124999999996
  0
ARC
  5
57F8D
330
458D6
100
AcDbEntity
  8
0
 62
     0
100
AcDbCircle
 10
883.3142303037682
 20
279.1007404118324
 30
3.646124999999996
 40
9.231312499998928
100
AcDbArc
 50
332.8656845153003
 51
27.1343154846996
  0
LINE
  5
57F8E
330
458D6
100
AcDbEntity
  8
0
 62
     0
100
AcDbLine
 10
892.5455428037659
 20
288.6257404118324
 30
3.646124999999996
 11
892.5455428037659
 21
270.8203404117466
 31
3.646124999999996
  0
LINE
  5
57F8F
330
458D6
100
AcDbEntity
  8
0
 62
     0
100
AcDbLine
 10
883.2745428037657
 20
285.1967404118326
 30
3.646124999999996
 11
883.2745428037657
 21
273.0047404118336
 31
3.646124999999996
  0
LINE
  5
57F90
330
458D6
100
AcDbEntity
  8
0
 62
     0
100
AcDbLine
 10
882.7665428037661
 20
285.1967404118326
 30
3.646124999999996
 11
882.7665428037661
 21
273.0047404118336
 31
3.646124999999996
  0
LINE
  5
57F91
330
458D6
100
AcDbEntity
  8
0
 62
     0
100
AcDbLine
 10
882.2585428037669
 20
286.0857404118332
 30
3.646124999999996
 11
882.2585428037669
 21
272.115740411833
 31
3.646124999999996
  0
LINE
  5
57F92
330
458D6
100
AcDbEntity
  8
0
 62
     0
100
AcDbLine
 10
881.7505428037673
 20
286.0857404118332
 30
3.646124999999996
 11
881.7505428037673
 21
272.115740411833
 31
3.646124999999996
  0
LINE
  5
57F93
330
458D6
100
AcDbEntity
  8
0
 62
     0
100
AcDbLine
 10
881.2425428037647
 20
285.1967404118326
 30
3.646124999999996
 11
881.2425428037647
 21
273.0047404118336
 31
3.646124999999996
  0
LINE
  5
57F94
330
458D6
100
AcDbEntity
  8
0
 62
     0
100
AcDbLine
 10
880.7345428037651
 20
285.1967404118326
 30
3.646124999999996
 11
880.7345428037651
 21
273.0047404118336
 31
3.646124999999996
  0
LINE
  5
57F95
330
458D6
100
AcDbEntity
  8
0
 62
     0
100
AcDbLine
 10
880.2265428037658
 20
286.0857404118332
 30
3.646124999999996
 11
880.2265428037658
 21
272.115740411833
 31
3.646124999999996
  0
LINE
  5
57F96
330
458D6
100
AcDbEntity
  8
0
 62
     0
100
AcDbLine
 10
879.7185428037662
 20
286.0857404118332
 30
3.646124999999996
 11
879.7185428037662
 21
272.115740411833
 31
3.646124999999996
  0
LINE
  5
57F97
330
458D6
100
AcDbEntity
  8
0
 62
     0
100
AcDbLine
 10
879.2105428037666
 20
289.514740411833
 30
3.646124999999996
 11
879.2105428037666
 21
268.6867404118332
 31
3.646124999999996
  0
LINE
  5
57F98
330
458D6
100
AcDbEntity
  8
0
 62
     0
100
AcDbLine
 10
883.6555428037653
 20
289.514740411833
 30
3.646124999999996
 11
883.6555428037653
 21
268.6867404118332
 31
3.646124999999996
  0
LINE
  5
57F99
330
458D6
100
AcDbEntity
  8
0
 62
     0
100
AcDbLine
 10
891.5295428037671
 20
274.8905419604543
 30
3.646124999999996
 11
883.6555428037653
 21
274.8905419604543
 31
3.646124999999996
  0
LINE
  5
57F9A
330
458D6
100
AcDbEntity
  8
0
 62
     0
100
AcDbLine
 10
891.5295428037671
 20
272.9569476664767
 30
3.646124999999996
 11
883.6555428037653
 21
272.9569476664767
 31
3.646124999999996
  0
LINE
  5
57F9B
330
458D6
100
AcDbEntity
  8
0
 62
     0
100
AcDbLine
 10
883.6555428037653
 20
268.6867404118332
 30
3.646124999999996
 11
891.5295428037671
 21
268.6867404118332
 31
3.646124999999996
  0
LINE
  5
57F9C
330
458D6
100
AcDbEntity
  8
0
 62
     0
100
AcDbLine
 10
882.2585428037669
 20
272.115740411833
 30
3.646124999999996
 11
882.7665428037661
 21
273.0047404118336
 31
3.646124999999996
  0
LINE
  5
57F9D
330
458D6
100
AcDbEntity
  8
0
 62
     0
100
AcDbLine
 10
881.2425428037647
 20
273.0047404118336
 30
3.646124999999996
 11
881.7505428037673
 21
272.115740411833
 31
3.646124999999996
  0
LINE
  5
57F9E
330
458D6
100
AcDbEntity
  8
0
 62
     0
100
AcDbLine
 10
881.7505428037673
 20
272.115740411833
 30
3.646124999999996
 11
882.2585428037669
 21
272.115740411833
 31
3.646124999999996
  0
LINE
  5
57F9F
330
458D6
100
AcDbEntity
  8
0
 62
     0
100
AcDbLine
 10
879.2105428037666
 20
273.0047404118336
 30
3.646124999999996
 11
879.7185428037662
 21
272.115740411833
 31
3.646124999999996
  0
LINE
  5
57FA0
330
458D6
100
AcDbEntity
  8
0
 62
     0
100
AcDbLine
 10
880.2265428037658
 20
272.115740411833
 30
3.646124999999996
 11
880.7345428037651
 21
273.0047404118336
 31
3.646124999999996
  0
LINE
  5
57FA1
330
458D6
100
AcDbEntity
  8
0
 62
     0
100
AcDbLine
 10
879.7185428037662
 20
272.115740411833
 30
3.646124999999996
 11
880.2265428037658
 21
272.115740411833
 31
3.646124999999996
  0
LINE
  5
57FA2
330
458D6
100
AcDbEntity
  8
0
 62
     0
100
AcDbLine
 10
880.7345428037651
 20
273.0047404118336
 30
3.646124999999996
 11
881.2425428037647
 21
273.0047404118336
 31
3.646124999999996
  0
LINE
  5
57FA3
330
458D6
100
AcDbEntity
  8
0
 62
     0
100
AcDbLine
 10
882.7665428037661
 20
273.0047404118336
 30
3.646124999999996
 11
883.2745428037657
 21
273.0047404118336
 31
3.646124999999996
  0
LINE
  5
57FA4
330
458D6
100
AcDbEntity
  8
0
 62
     0
100
AcDbLine
 10
883.2745428037657
 20
273.0047404118336
 30
3.646124999999996
 11
883.6555428037653
 21
272.3379904118335
 31
3.646124999999996
  0
ARC
  5
57FA5
330
458D6
100
AcDbEntity
  8
0
 62
     0
100
AcDbCircle
 10
889.7941051863902
 20
270.8218440391542
 30
3.646124999999996
 40
2.751438028232276
100
AcDbArc
 50
309.1046213224502
 51
50.89537867754973
  0
ARC
  5
57FA6
330
458D6
100
AcDbEntity
  8
0
 62
     0
100
AcDbCircle
 10
892.5455428037659
 20
272.8777404118337
 30
3.646124999999996
 40
3.302
100
AcDbArc
 50
270.0
 51
0.0
  0
LINE
  5
57FA7
330
458D6
100
AcDbEntity
  8
0
 62
     0
100
AcDbLine
 10
892.5455428037659
 20
269.5757404118324
 30
3.646124999999996
 11
892.247192419488
 21
269.5757404118324
 31
3.646124999999996
  0
LINE
  5
57FA8
330
458D6
100
AcDbEntity
  8
0
 62
     0
100
AcDbLine
 10
891.5295428037671
 20
274.8905419604543
 30
3.646124999999996
 11
891.5295428037671
 21
272.9569476664767
 31
3.646124999999996
  0
LINE
  5
57FA9
330
458D6
100
AcDbEntity
  8
0
 62
     0
100
AcDbLine
 10
883.6555428037653
 20
289.514740411833
 30
3.646124999999996
 11
891.5295428037671
 21
289.514740411833
 31
3.646124999999996
  0
LINE
  5
57FAA
330
458D6
100
AcDbEntity
  8
0
 62
     0
100
AcDbLine
 10
891.5295428037671
 20
285.2445331571896
 30
3.646124999999996
 11
883.6555428037653
 21
285.2445331571896
 31
3.646124999999996
  0
LINE
  5
57FAB
330
458D6
100
AcDbEntity
  8
0
 62
     0
100
AcDbLine
 10
891.5295428037671
 20
283.3109388632119
 30
3.646124999999996
 11
883.6555428037653
 21
283.3109388632119
 31
3.646124999999996
  0
LINE
  5
57FAC
330
458D6
100
AcDbEntity
  8
0
 62
     0
100
AcDbLine
 10
882.2585428037669
 20
286.0857404118332
 30
3.646124999999996
 11
882.7665428037661
 21
285.1967404118326
 31
3.646124999999996
  0
LINE
  5
57FAD
330
458D6
100
AcDbEntity
  8
0
 62
     0
100
AcDbLine
 10
881.2425428037647
 20
285.1967404118326
 30
3.646124999999996
 11
881.7505428037673
 21
286.0857404118332
 31
3.646124999999996
  0
LINE
  5
57FAE
330
458D6
100
AcDbEntity
  8
0
 62
     0
100
AcDbLine
 10
880.2265428037658
 20
286.0857404118332
 30
3.646124999999996
 11
880.7345428037651
 21
285.1967404118326
 31
3.646124999999996
  0
LINE
  5
57FAF
330
458D6
100
AcDbEntity
  8
0
 62
     0
100
AcDbLine
 10
879.2105428037666
 20
285.1967404118326
 30
3.646124999999996
 11
879.7185428037662
 21
286.0857404118332
 31
3.646124999999996
  0
LINE
  5
57FB0
330
458D6
100
AcDbEntity
  8
0
 62
     0
100
AcDbLine
 10
880.7345428037651
 20
285.1967404118326
 30
3.646124999999996
 11
881.2425428037647
 21
285.1967404118326
 31
3.646124999999996
  0
LINE
  5
57FB1
330
458D6
100
AcDbEntity
  8
0
 62
     0
100
AcDbLine
 10
881.7505428037673
 20
286.0857404118332
 30
3.646124999999996
 11
882.2585428037669
 21
286.0857404118332
 31
3.646124999999996
  0
LINE
  5
57FB2
330
458D6
100
AcDbEntity
  8
0
 62
     0
100
AcDbLine
 10
879.7185428037662
 20
286.0857404118332
 30
3.646124999999996
 11
880.2265428037658
 21
286.0857404118332
 31
3.646124999999996
  0
LINE
  5
57FB3
330
458D6
100
AcDbEntity
  8
0
 62
     0
100
AcDbLine
 10
883.2745428037657
 20
285.1967404118326
 30
3.646124999999996
 11
883.6555428037653
 21
285.8634904118328
 31
3.646124999999996
  0
LINE
  5
57FB4
330
458D6
100
AcDbEntity
  8
0
 62
     0
100
AcDbLine
 10
882.7665428037661
 20
285.1967404118326
 30
3.646124999999996
 11
883.2745428037657
 21
285.1967404118326
 31
3.646124999999996
  0
ARC
  5
57FB5
330
458D6
100
AcDbEntity
  8
0
 62
     0
100
AcDbCircle
 10
889.7941051863902
 20
287.379636784512
 30
3.646124999999996
 40
2.751438028232276
100
AcDbArc
 50
309.1046213224502
 51
50.89537867754973
  0
ARC
  5
57FB6
330
458D6
100
AcDbEntity
  8
0
 62
     0
100
AcDbCircle
 10
892.5455428037659
 20
285.3237404118325
 30
3.646124999999996
 40
3.302
100
AcDbArc
 50
0.0
 51
90.0
  0
LINE
  5
57FB7
330
458D6
100
AcDbEntity
  8
0
 62
     0
100
AcDbLine
 10
891.5295428037671
 20
285.2445331571896
 30
3.646124999999996
 11
891.5295428037671
 21
283.3109388632119
 31
3.646124999999996
  0
LINE
  5
57FB8
330
458D6
100
AcDbEntity
  8
0
 62
     0
100
AcDbLine
 10
892.5455428037659
 20
288.6257404118324
 30
3.646124999999996
 11
892.247192419488
 21
288.6257404118324
 31
3.646124999999996
  0
LINE
  5
57FE1
330
458D6
100
AcDbEntity
  8
0
 62
     0
100
AcDbLine
 10
875.6883971387932
 20
297.7847555677657
 30
3.646124999999996
 11
777.6443971387926
 21
297.7847555677657
 31
3.646124999999996
  0
POLYLINE
  5
57FE2
330
458D6
100
AcDbEntity
  8
0
 62
     0
100
AcDb2dPolyline
 66
     1
 10
0.0
 20
0.0
 30
3.646124999999996
 70
     4
 75
     6
  0
VERTEX
  5
57FE3
330
57FE2
100
AcDbEntity
  8
0
 62
     0
100
AcDbVertex
100
AcDb2dVertex
 10
777.7415847143122
 20
374.7917175533172
 30
3.646124999999996
 70
    16
  0
VERTEX
  5
57FE4
330
57FE2
100
AcDbEntity
  8
0
 62
     0
100
AcDbVertex
100
AcDb2dVertex
 10
777.7415847143122
 20
374.7917175533172
 30
3.646124999999996
 70
     8
  0
VERTEX
  5
57FE5
330
57FE2
100
AcDbEntity
  8
0
 62
     0
100
AcDbVertex
100
AcDb2dVertex
 10
778.4224664900175
 20
374.8262689108718
 30
3.646124999999996
 70
     8
  0
VERTEX
  5
57FE6
330
57FE2
100
AcDbEntity
  8
0
 62
     0
100
AcDbVertex
100
AcDb2dVertex
 10
778.9883498260949
 20
374.87434372443
 30
3.646124999999996
 70
     8
  0
VERTEX
  5
57FE7
330
57FE2
100
AcDbEntity
  8
0
 62
     0
100
AcDbVertex
100
AcDb2dVertex
 10
779.4560927805981
 20
374.9336881166344
 30
3.646124999999996
 70
     8
  0
VERTEX
  5
57FE8
330
57FE2
100
AcDbEntity
  8
0
 62
     0
100
AcDbVertex
100
AcDb2dVertex
 10
779.8425534115685
 20
375.0020482101321
 30
3.646124999999996
 70
     8
  0
VERTEX
  5
57FE9
330
57FE2
100
AcDbEntity
  8
0
 62
     0
100
AcDbVertex
100
AcDb2dVertex
 10
780.1645897770606
 20
375.0771701275685
 30
3.646124999999996
 70
     8
  0
VERTEX
  5
57FEA
330
57FE2
100
AcDbEntity
  8
0
 62
     0
100
AcDbVertex
100
AcDb2dVertex
 10
780.4390599351213
 20
375.1567999915893
 30
3.646124999999996
 70
     8
  0
VERTEX
  5
57FEB
330
57FE2
100
AcDbEntity
  8
0
 62
     0
100
AcDbVertex
100
AcDb2dVertex
 10
780.6828219437988
 20
375.2386839248385
 30
3.646124999999996
 70
     8
  0
VERTEX
  5
57FEC
330
57FE2
100
AcDbEntity
  8
0
 62
     0
100
AcDbVertex
100
AcDb2dVertex
 10
780.9127338611438
 20
375.3205680499645
 30
3.646124999999996
 70
     8
  0
VERTEX
  5
57FED
330
57FE2
100
AcDbEntity
  8
0
 62
     0
100
AcDbVertex
100
AcDb2dVertex
 10
781.1429380679851
 20
375.4004019787596
 30
3.646124999999996
 70
     8
  0
VERTEX
  5
57FEE
330
57FE2
100
AcDbEntity
  8
0
 62
     0
100
AcDbVertex
100
AcDb2dVertex
 10
781.3767142362821
 20
375.4769492796256
 30
3.646124999999996
 70
     8
  0
VERTEX
  5
57FEF
330
57FE2
100
AcDbEntity
  8
0
 62
     0
100
AcDbVertex
100
AcDb2dVertex
 10
781.6146263607777
 20
375.5491770101085
 30
3.646124999999996
 70
     8
  0
VERTEX
  5
57FF0
330
57FE2
100
AcDbEntity
  8
0
 62
     0
100
AcDbVertex
100
AcDb2dVertex
 10
781.8572384362092
 20
375.6160522277597
 30
3.646124999999996
 70
     8
  0
VERTEX
  5
57FF1
330
57FE2
100
AcDbEntity
  8
0
 62
     0
100
AcDbVertex
100
AcDb2dVertex
 10
782.105114457317
 20
375.6765419901278
 30
3.646124999999996
 70
     8
  0
VERTEX
  5
57FF2
330
57FE2
100
AcDbEntity
  8
0
 62
     0
100
AcDbVertex
100
AcDb2dVertex
 10
782.3588184188476
 20
375.7296133547615
 30
3.646124999999996
 70
     8
  0
VERTEX
  5
57FF3
330
57FE2
100
AcDbEntity
  8
0
 62
     0
100
AcDbVertex
100
AcDb2dVertex
 10
782.6189143155352
 20
375.7742333792109
 30
3.646124999999996
 70
     8
  0
VERTEX
  5
57FF4
330
57FE2
100
AcDbEntity
  8
0
 62
     0
100
AcDbVertex
100
AcDb2dVertex
 10
782.8859661421258
 20
375.8093691210246
 30
3.646124999999996
 70
     8
  0
VERTEX
  5
57FF5
330
57FE2
100
AcDbEntity
  8
0
 62
     0
100
AcDbVertex
100
AcDb2dVertex
 10
783.1600992308913
 20
375.834128492766
 30
3.646124999999996
 70
     8
  0
VERTEX
  5
57FF6
330
57FE2
100
AcDbEntity
  8
0
 62
     0
100
AcDbVertex
100
AcDb2dVertex
 10
783.4396842642345
 20
375.8481828270624
 30
3.646124999999996
 70
     8
  0
VERTEX
  5
57FF7
330
57FE2
100
AcDbEntity
  8
0
 62
     0
100
AcDbVertex
100
AcDb2dVertex
 10
783.7226532620984
 20
375.8513443115515
 30
3.646124999999996
 70
     8
  0
VERTEX
  5
57FF8
330
57FE2
100
AcDbEntity
  8
0
 62
     0
100
AcDbVertex
100
AcDb2dVertex
 10
784.0069382444169
 20
375.8434251338754
 30
3.646124999999996
 70
     8
  0
VERTEX
  5
57FF9
330
57FE2
100
AcDbEntity
  8
0
 62
     0
100
AcDbVertex
100
AcDb2dVertex
 10
784.2904712311304
 20
375.8242374816747
 30
3.646124999999996
 70
     8
  0
VERTEX
  5
57FFA
330
57FE2
100
AcDbEntity
  8
0
 62
     0
100
AcDbVertex
100
AcDb2dVertex
 10
784.5711842421726
 20
375.7935935425899
 30
3.646124999999996
 70
     8
  0
VERTEX
  5
57FFB
330
57FE2
100
AcDbEntity
  8
0
 62
     0
100
AcDbVertex
100
AcDb2dVertex
 10
784.8470092974896
 20
375.7513055042604
 30
3.646124999999996
 70
     8
  0
VERTEX
  5
57FFC
330
57FE2
100
AcDbEntity
  8
0
 62
     0
100
AcDbVertex
100
AcDb2dVertex
 10
785.1158784170126
 20
375.6971855543265
 30
3.646124999999996
 70
     8
  0
VERTEX
  5
57FFD
330
57FE2
100
AcDbEntity
  8
0
 62
     0
100
AcDbVertex
100
AcDb2dVertex
 10
785.3761622834768
 20
375.6311397859561
 30
3.646124999999996
 70
     8
  0
VERTEX
  5
57FFE
330
57FE2
100
AcDbEntity
  8
0
 62
     0
100
AcDbVertex
100
AcDb2dVertex
 10
785.6279862307906
 20
375.5534499144136
 30
3.646124999999996
 70
     8
  0
VERTEX
  5
57FFF
330
57FE2
100
AcDbEntity
  8
0
 62
     0
100
AcDbVertex
100
AcDb2dVertex
 10
785.8719142556615
 20
375.4644915604907
 30
3.646124999999996
 70
     8
  0
VERTEX
  5
58000
330
57FE2
100
AcDbEntity
  8
0
 62
     0
100
AcDbVertex
100
AcDb2dVertex
 10
786.1085103547901
 20
375.3646403449818
 30
3.646124999999996
 70
     8
  0
VERTEX
  5
58001
330
57FE2
100
AcDbEntity
  8
0
 62
     0
100
AcDbVertex
100
AcDb2dVertex
 10
786.3383385248832
 20
375.2542718886771
 30
3.646124999999996
 70
     8
  0
VERTEX
  5
58002
330
57FE2
100
AcDbEntity
  8
0
 62
     0
100
AcDbVertex
100
AcDb2dVertex
 10
786.561962762645
 20
375.1337618123682
 30
3.646124999999996
 70
     8
  0
VERTEX
  5
58003
330
57FE2
100
AcDbEntity
  8
0
 62
     0
100
AcDbVertex
100
AcDb2dVertex
 10
786.7799470647821
 20
375.0034857368481
 30
3.646124999999996
 70
     8
  0
VERTEX
  5
58004
330
57FE2
100
AcDbEntity
  8
0
 62
     0
100
AcDbVertex
100
AcDb2dVertex
 10
786.9928554279927
 20
374.8638192829084
 30
3.646124999999996
 70
     8
  0
VERTEX
  5
58005
330
57FE2
100
AcDbEntity
  8
0
 62
     0
100
AcDbVertex
100
AcDb2dVertex
 10
787.2011578482279
 20
374.7154197816978
 30
3.646124999999996
 70
     8
  0
VERTEX
  5
58006
330
57FE2
100
AcDbEntity
  8
0
 62
     0
100
AcDbVertex
100
AcDb2dVertex
 10
787.4049483183892
 20
374.5600714057983
 30
3.646124999999996
 70
     8
  0
VERTEX
  5
58007
330
57FE2
100
AcDbEntity
  8
0
 62
     0
100
AcDbVertex
100
AcDb2dVertex
 10
787.6042268306246
 20
374.3998400381476
 30
3.646124999999996
 70
     8
  0
VERTEX
  5
58008
330
57FE2
100
AcDbEntity
  8
0
 62
     0
100
AcDbVertex
100
AcDb2dVertex
 10
787.7989933770802
 20
374.2367915616849
 30
3.646124999999996
 70
     8
  0
VERTEX
  5
58009
330
57FE2
100
AcDbEntity
  8
0
 62
     0
100
AcDbVertex
100
AcDb2dVertex
 10
787.9892479498987
 20
374.0729918593448
 30
3.646124999999996
 70
     8
  0
VERTEX
  5
5800A
330
57FE2
100
AcDbEntity
  8
0
 62
     0
100
AcDbVertex
100
AcDb2dVertex
 10
788.1749905412255
 20
373.9105068140695
 30
3.646124999999996
 70
     8
  0
VERTEX
  5
5800B
330
57FE2
100
AcDbEntity
  8
0
 62
     0
100
AcDbVertex
100
AcDb2dVertex
 10
788.356221143212
 20
373.7514023087936
 30
3.646124999999996
 70
     8
  0
VERTEX
  5
5800C
330
57FE2
100
AcDbEntity
  8
0
 62
     0
100
AcDbVertex
100
AcDb2dVertex
 10
788.5329397479954
 20
373.5977442264592
 30
3.646124999999996
 70
     8
  0
VERTEX
  5
5800D
330
57FE2
100
AcDbEntity
  8
0
 62
     0
100
AcDbVertex
100
AcDb2dVertex
 10
788.7054910143456
 20
373.4512854375837
 30
3.646124999999996
 70
     8
  0
VERTEX
  5
5800E
330
57FE2
100
AcDbEntity
  8
0
 62
     0
100
AcDbVertex
100
AcDb2dVertex
 10
788.8755982674824
 20
373.3125267630167
 30
3.646124999999996
 70
     8
  0
VERTEX
  5
5800F
330
57FE2
100
AcDbEntity
  8
0
 62
     0
100
AcDbVertex
100
AcDb2dVertex
 10
789.0453294992567
 20
373.1816560111932
 30
3.646124999999996
 70
     8
  0
VERTEX
  5
58010
330
57FE2
100
AcDbEntity
  8
0
 62
     0
100
AcDbVertex
100
AcDb2dVertex
 10
789.2167527015035
 20
373.058860990544
 30
3.646124999999996
 70
     8
  0
VERTEX
  5
58011
330
57FE2
100
AcDbEntity
  8
0
 62
     0
100
AcDbVertex
100
AcDb2dVertex
 10
789.3919358660767
 20
372.9443295095027
 30
3.646124999999996
 70
     8
  0
VERTEX
  5
58012
330
57FE2
100
AcDbEntity
  8
0
 62
     0
100
AcDbVertex
100
AcDb2dVertex
 10
789.5729469848117
 20
372.8382493765002
 30
3.646124999999996
 70
     8
  0
VERTEX
  5
58013
330
57FE2
100
AcDbEntity
  8
0
 62
     0
100
AcDbVertex
100
AcDb2dVertex
 10
789.7618540495532
 20
372.7408083999686
 30
3.646124999999996
 70
     8
  0
VERTEX
  5
58014
330
57FE2
100
AcDbEntity
  8
0
 62
     0
100
AcDbVertex
100
AcDb2dVertex
 10
789.9607250521483
 20
372.6521943883415
 30
3.646124999999996
 70
     8
  0
VERTEX
  5
58015
330
57FE2
100
AcDbEntity
  8
0
 62
     0
100
AcDbVertex
100
AcDb2dVertex
 10
790.1711579858747
 20
372.572563848974
 30
3.646124999999996
 70
     8
  0
VERTEX
  5
58016
330
57FE2
100
AcDbEntity
  8
0
 62
     0
100
AcDbVertex
100
AcDb2dVertex
 10
790.3928708497642
 20
372.5019480849055
 30
3.646124999999996
 70
     8
  0
VERTEX
  5
58017
330
57FE2
100
AcDbEntity
  8
0
 62
     0
100
AcDbVertex
100
AcDb2dVertex
 10
790.6251116442811
 20
372.4403470981009
 30
3.646124999999996
 70
     8
  0
VERTEX
  5
58018
330
57FE2
100
AcDbEntity
  8
0
 62
     0
100
AcDbVertex
100
AcDb2dVertex
 10
790.8671283698963
 20
372.3877608905224
 30
3.646124999999996
 70
     8
  0
VERTEX
  5
58019
330
57FE2
100
AcDbEntity
  8
0
 62
     0
100
AcDbVertex
100
AcDb2dVertex
 10
791.1181690270711
 20
372.3441894641365
 30
3.646124999999996
 70
     8
  0
VERTEX
  5
5801A
330
57FE2
100
AcDbEntity
  8
0
 62
     0
100
AcDbVertex
100
AcDb2dVertex
 10
791.3774816162765
 20
372.3096328209039
 30
3.646124999999996
 70
     8
  0
VERTEX
  5
5801B
330
57FE2
100
AcDbEntity
  8
0
 62
     0
100
AcDbVertex
100
AcDb2dVertex
 10
791.6443141379768
 20
372.2840909627911
 30
3.646124999999996
 70
     8
  0
VERTEX
  5
5801C
330
57FE2
100
AcDbEntity
  8
0
 62
     0
100
AcDbVertex
100
AcDb2dVertex
 10
791.9179145926428
 20
372.2675638917588
 30
3.646124999999996
 70
     8
  0
VERTEX
  5
5801D
330
57FE2
100
AcDbEntity
  8
0
 62
     0
100
AcDbVertex
100
AcDb2dVertex
 10
792.1972489850029
 20
372.2598951024169
 30
3.646124999999996
 70
     8
  0
VERTEX
  5
5801E
330
57FE2
100
AcDbEntity
  8
0
 62
     0
100
AcDbVertex
100
AcDb2dVertex
 10
792.4801553368549
 20
372.2603020599597
 30
3.646124999999996
 70
     8
  0
VERTEX
  5
5801F
330
57FE2
100
AcDbEntity
  8
0
 62
     0
100
AcDbVertex
100
AcDb2dVertex
 10
792.7641896742632
 20
372.267845722223
 30
3.646124999999996
 70
     8
  0
VERTEX
  5
58020
330
57FE2
100
AcDbEntity
  8
0
 62
     0
100
AcDbVertex
100
AcDb2dVertex
 10
793.0469080232867
 20
372.281587047046
 30
3.646124999999996
 70
     8
  0
VERTEX
  5
58021
330
57FE2
100
AcDbEntity
  8
0
 62
     0
100
AcDbVertex
100
AcDb2dVertex
 10
793.3258664099898
 20
372.3005869922676
 30
3.646124999999996
 70
     8
  0
VERTEX
  5
58022
330
57FE2
100
AcDbEntity
  8
0
 62
     0
100
AcDbVertex
100
AcDb2dVertex
 10
793.5986208604342
 20
372.323906515724
 30
3.646124999999996
 70
     8
  0
VERTEX
  5
58023
330
57FE2
100
AcDbEntity
  8
0
 62
     0
100
AcDbVertex
100
AcDb2dVertex
 10
793.8627274006819
 20
372.3506065752555
 30
3.646124999999996
 70
     8
  0
VERTEX
  5
58024
330
57FE2
100
AcDbEntity
  8
0
 62
     0
100
AcDbVertex
100
AcDb2dVertex
 10
794.115742056797
 20
372.3797481286983
 30
3.646124999999996
 70
     8
  0
VERTEX
  5
58025
330
57FE2
100
AcDbEntity
  8
0
 62
     0
100
AcDbVertex
100
AcDb2dVertex
 10
794.3560668459672
 20
372.4105173398401
 30
3.646124999999996
 70
     8
  0
VERTEX
  5
58026
330
57FE2
100
AcDbEntity
  8
0
 62
     0
100
AcDbVertex
100
AcDb2dVertex
 10
794.5854877499064
 20
372.4426011962636
 30
3.646124999999996
 70
     8
  0
VERTEX
  5
58027
330
57FE2
100
AcDbEntity
  8
0
 62
     0
100
AcDbVertex
100
AcDb2dVertex
 10
794.806636741454
 20
372.4758118915
 30
3.646124999999996
 70
     8
  0
VERTEX
  5
58028
330
57FE2
100
AcDbEntity
  8
0
 62
     0
100
AcDbVertex
100
AcDb2dVertex
 10
795.0221457934442
 20
372.5099616190796
 30
3.646124999999996
 70
     8
  0
VERTEX
  5
58029
330
57FE2
100
AcDbEntity
  8
0
 62
     0
100
AcDbVertex
100
AcDb2dVertex
 10
795.234646878722
 20
372.5448625725349
 30
3.646124999999996
 70
     8
  0
VERTEX
  5
5802A
330
57FE2
100
AcDbEntity
  8
0
 62
     0
100
AcDbVertex
100
AcDb2dVertex
 10
795.4467719701215
 20
372.5803269453961
 30
3.646124999999996
 70
     8
  0
VERTEX
  5
5802B
330
57FE2
100
AcDbEntity
  8
0
 62
     0
100
AcDbVertex
100
AcDb2dVertex
 10
795.6611530404854
 20
372.6161669311959
 30
3.646124999999996
 70
     8
  0
VERTEX
  5
5802C
330
57FE2
100
AcDbEntity
  8
0
 62
     0
100
AcDbVertex
100
AcDb2dVertex
 10
795.880422062653
 20
372.6521947234629
 30
3.646124999999996
 70
     8
  0
VERTEX
  5
5802D
330
57FE2
100
AcDbEntity
  8
0
 62
     0
100
AcDbVertex
100
AcDb2dVertex
 10
796.1066470147211
 20
372.6875651881808
 30
3.646124999999996
 70
     8
  0
VERTEX
  5
5802E
330
57FE2
100
AcDbEntity
  8
0
 62
     0
100
AcDbVertex
100
AcDb2dVertex
 10
796.3396398958243
 20
372.7188038811325
 30
3.646124999999996
 70
     8
  0
VERTEX
  5
5802F
330
57FE2
100
AcDbEntity
  8
0
 62
     0
100
AcDbVertex
100
AcDb2dVertex
 10
796.5786487103578
 20
372.7417790305492
 30
3.646124999999996
 70
     8
  0
VERTEX
  5
58030
330
57FE2
100
AcDbEntity
  8
0
 62
     0
100
AcDbVertex
100
AcDb2dVertex
 10
796.822921462716
 20
372.7523588646645
 30
3.646124999999996
 70
     8
  0
VERTEX
  5
58031
330
57FE2
100
AcDbEntity
  8
0
 62
     0
100
AcDbVertex
100
AcDb2dVertex
 10
797.0717061572911
 20
372.7464116117124
 30
3.646124999999996
 70
     8
  0
VERTEX
  5
58032
330
57FE2
100
AcDbEntity
  8
0
 62
     0
100
AcDbVertex
100
AcDb2dVertex
 10
797.3242507984807
 20
372.7198054999239
 30
3.646124999999996
 70
     8
  0
VERTEX
  5
58033
330
57FE2
100
AcDbEntity
  8
0
 62
     0
100
AcDbVertex
100
AcDb2dVertex
 10
797.5798033906735
 20
372.6684087575329
 30
3.646124999999996
 70
     8
  0
VERTEX
  5
58034
330
57FE2
100
AcDbEntity
  8
0
 62
     0
100
AcDbVertex
100
AcDb2dVertex
 10
797.8376119382674
 20
372.5880896127717
 30
3.646124999999996
 70
     8
  0
VERTEX
  5
58035
330
57FE2
100
AcDbEntity
  8
0
 62
     0
100
AcDbVertex
100
AcDb2dVertex
 10
798.0965797829683
 20
372.47568663417
 30
3.646124999999996
 70
     8
  0
VERTEX
  5
58036
330
57FE2
100
AcDbEntity
  8
0
 62
     0
100
AcDbVertex
100
AcDb2dVertex
 10
798.3542316157211
 20
372.3319197514309
 30
3.646124999999996
 70
     8
  0
VERTEX
  5
58037
330
57FE2
100
AcDbEntity
  8
0
 62
     0
100
AcDbVertex
100
AcDb2dVertex
 10
798.6077474647877
 20
372.1584792345566
 30
3.646124999999996
 70
     8
  0
VERTEX
  5
58038
330
57FE2
100
AcDbEntity
  8
0
 62
     0
100
AcDbVertex
100
AcDb2dVertex
 10
798.8543073584247
 20
371.9570553535475
 30
3.646124999999996
 70
     8
  0
VERTEX
  5
58039
330
57FE2
100
AcDbEntity
  8
0
 62
     0
100
AcDbVertex
100
AcDb2dVertex
 10
799.0910913248963
 20
371.7293383784038
 30
3.646124999999996
 70
     8
  0
VERTEX
  5
5803A
330
57FE2
100
AcDbEntity
  8
0
 62
     0
100
AcDbVertex
100
AcDb2dVertex
 10
799.315279392456
 20
371.4770185791278
 30
3.646124999999996
 70
     8
  0
VERTEX
  5
5803B
330
57FE2
100
AcDbEntity
  8
0
 62
     0
100
AcDbVertex
100
AcDb2dVertex
 10
799.5240515893658
 20
371.2017862257167
 30
3.646124999999996
 70
     8
  0
VERTEX
  5
5803C
330
57FE2
100
AcDbEntity
  8
0
 62
     0
100
AcDbVertex
100
AcDb2dVertex
 10
799.7145879438876
 20
370.9053315881741
 30
3.646124999999996
 70
     8
  0
VERTEX
  5
5803D
330
57FE2
100
AcDbEntity
  8
0
 62
     0
100
AcDbVertex
100
AcDb2dVertex
 10
799.8850711418101
 20
370.5898770587548
 30
3.646124999999996
 70
     8
  0
VERTEX
  5
5803E
330
57FE2
100
AcDbEntity
  8
0
 62
     0
100
AcDbVertex
100
AcDb2dVertex
 10
800.0376944990744
 20
370.2597735187357
 30
3.646124999999996
 70
     8
  0
VERTEX
  5
5803F
330
57FE2
100
AcDbEntity
  8
0
 62
     0
100
AcDbVertex
100
AcDb2dVertex
 10
800.1756539891484
 20
369.9199039716511
 30
3.646124999999996
 70
     8
  0
VERTEX
  5
58040
330
57FE2
100
AcDbEntity
  8
0
 62
     0
100
AcDbVertex
100
AcDb2dVertex
 10
800.3021455855058
 20
369.5751514210337
 30
3.646124999999996
 70
     8
  0
VERTEX
  5
58041
330
57FE2
100
AcDbEntity
  8
0
 62
     0
100
AcDbVertex
100
AcDb2dVertex
 10
800.4203652616144
 20
369.2303988704163
 30
3.646124999999996
 70
     8
  0
VERTEX
  5
58042
330
57FE2
100
AcDbEntity
  8
0
 62
     0
100
AcDbVertex
100
AcDb2dVertex
 10
800.5335089909451
 20
368.8905293233316
 30
3.646124999999996
 70
     8
  0
VERTEX
  5
58043
330
57FE2
100
AcDbEntity
  8
0
 62
     0
100
AcDbVertex
100
AcDb2dVertex
 10
800.6447727469687
 20
368.560425783314
 30
3.646124999999996
 70
     8
  0
VERTEX
  5
58044
330
57FE2
100
AcDbEntity
  8
0
 62
     0
100
AcDbVertex
100
AcDb2dVertex
 10
800.7573525031586
 20
368.2449712538947
 30
3.646124999999996
 70
     8
  0
VERTEX
  5
58045
330
57FE2
100
AcDbEntity
  8
0
 62
     0
100
AcDbVertex
100
AcDb2dVertex
 10
800.8738802375898
 20
367.9482975071676
 30
3.646124999999996
 70
     8
  0
VERTEX
  5
58046
330
57FE2
100
AcDbEntity
  8
0
 62
     0
100
AcDbVertex
100
AcDb2dVertex
 10
800.9947319467544
 20
367.6715313894753
 30
3.646124999999996
 70
     8
  0
VERTEX
  5
58047
330
57FE2
100
AcDbEntity
  8
0
 62
     0
100
AcDbVertex
100
AcDb2dVertex
 10
801.1197196317505
 20
367.4150485157158
 30
3.646124999999996
 70
     8
  0
VERTEX
  5
58048
330
57FE2
100
AcDbEntity
  8
0
 62
     0
100
AcDbVertex
100
AcDb2dVertex
 10
801.2486552936797
 20
367.1792245007927
 30
3.646124999999996
 70
     8
  0
VERTEX
  5
58049
330
57FE2
100
AcDbEntity
  8
0
 62
     0
100
AcDbVertex
100
AcDb2dVertex
 10
801.3813509336353
 20
366.9644349596068
 30
3.646124999999996
 70
     8
  0
VERTEX
  5
5804A
330
57FE2
100
AcDbEntity
  8
0
 62
     0
100
AcDbVertex
100
AcDb2dVertex
 10
801.5176185527217
 20
366.7710555070574
 30
3.646124999999996
 70
     8
  0
VERTEX
  5
5804B
330
57FE2
100
AcDbEntity
  8
0
 62
     0
100
AcDbVertex
100
AcDb2dVertex
 10
801.6572701520344
 20
366.5994617580469
 30
3.646124999999996
 70
     8
  0
VERTEX
  5
5804C
330
57FE2
100
AcDbEntity
  8
0
 62
     0
100
AcDbVertex
100
AcDb2dVertex
 10
801.8001177326723
 20
366.4500293274775
 30
3.646124999999996
 70
     8
  0
VERTEX
  5
5804D
330
57FE2
100
AcDbEntity
  8
0
 62
     0
100
AcDbVertex
100
AcDb2dVertex
 10
801.9460986276824
 20
366.3223199966539
 30
3.646124999999996
 70
     8
  0
VERTEX
  5
5804E
330
57FE2
100
AcDbEntity
  8
0
 62
     0
100
AcDbVertex
100
AcDb2dVertex
 10
802.09565149789
 20
366.2126402125024
 30
3.646124999999996
 70
     8
  0
VERTEX
  5
5804F
330
57FE2
100
AcDbEntity
  8
0
 62
     0
100
AcDbVertex
100
AcDb2dVertex
 10
802.249340336078
 20
366.1164825883574
 30
3.646124999999996
 70
     8
  0
VERTEX
  5
58050
330
57FE2
100
AcDbEntity
  8
0
 62
     0
100
AcDbVertex
100
AcDb2dVertex
 10
802.4077291350229
 20
366.0293397375478
 30
3.646124999999996
 70
     8
  0
VERTEX
  5
58051
330
57FE2
100
AcDbEntity
  8
0
 62
     0
100
AcDbVertex
100
AcDb2dVertex
 10
802.5713818874985
 20
365.9467042734065
 30
3.646124999999996
 70
     8
  0
VERTEX
  5
58052
330
57FE2
100
AcDbEntity
  8
0
 62
     0
100
AcDbVertex
100
AcDb2dVertex
 10
802.7408625862847
 20
365.8640688092653
 30
3.646124999999996
 70
     8
  0
VERTEX
  5
58053
330
57FE2
100
AcDbEntity
  8
0
 62
     0
100
AcDbVertex
100
AcDb2dVertex
 10
802.9167352241579
 20
365.7769259584556
 30
3.646124999999996
 70
     8
  0
VERTEX
  5
58054
330
57FE2
100
AcDbEntity
  8
0
 62
     0
100
AcDbVertex
100
AcDb2dVertex
 10
803.099563793895
 20
365.6807683343092
 30
3.646124999999996
 70
     8
  0
VERTEX
  5
58055
330
57FE2
100
AcDbEntity
  8
0
 62
     0
100
AcDbVertex
100
AcDb2dVertex
 10
803.2891602952865
 20
365.5720588904533
 30
3.646124999999996
 70
     8
  0
VERTEX
  5
58056
330
57FE2
100
AcDbEntity
  8
0
 62
     0
100
AcDbVertex
100
AcDb2dVertex
 10
803.4823287561728
 20
365.4511419416919
 30
3.646124999999996
 70
     8
  0
VERTEX
  5
58057
330
57FE2
100
AcDbEntity
  8
0
 62
     0
100
AcDbVertex
100
AcDb2dVertex
 10
803.6751212113991
 20
365.3193321431247
 30
3.646124999999996
 70
     8
  0
VERTEX
  5
58058
330
57FE2
100
AcDbEntity
  8
0
 62
     0
100
AcDbVertex
100
AcDb2dVertex
 10
803.8635896958195
 20
365.1779441498514
 30
3.646124999999996
 70
     8
  0
VERTEX
  5
58059
330
57FE2
100
AcDbEntity
  8
0
 62
     0
100
AcDbVertex
100
AcDb2dVertex
 10
804.0437862442827
 20
365.02829261697
 30
3.646124999999996
 70
     8
  0
VERTEX
  5
5805A
330
57FE2
100
AcDbEntity
  8
0
 62
     0
100
AcDbVertex
100
AcDb2dVertex
 10
804.2117628916392
 20
364.8716921995819
 30
3.646124999999996
 70
     8
  0
VERTEX
  5
5805B
330
57FE2
100
AcDbEntity
  8
0
 62
     0
100
AcDbVertex
100
AcDb2dVertex
 10
804.3635716727408
 20
364.7094575527866
 30
3.646124999999996
 70
     8
  0
VERTEX
  5
5805C
330
57FE2
100
AcDbEntity
  8
0
 62
     0
100
AcDbVertex
100
AcDb2dVertex
 10
804.4952646224354
 20
364.5429033316808
 30
3.646124999999996
 70
     8
  0
VERTEX
  5
5805D
330
57FE2
100
AcDbEntity
  8
0
 62
     0
100
AcDbVertex
100
AcDb2dVertex
 10
804.6033794371155
 20
364.373140732395
 30
3.646124999999996
 70
     8
  0
VERTEX
  5
5805E
330
57FE2
100
AcDbEntity
  8
0
 62
     0
100
AcDbVertex
100
AcDb2dVertex
 10
804.6863964593168
 20
364.2004671151719
 30
3.646124999999996
 70
     8
  0
VERTEX
  5
5805F
330
57FE2
100
AcDbEntity
  8
0
 62
     0
100
AcDbVertex
100
AcDb2dVertex
 10
804.7432816931202
 20
364.0249763812796
 30
3.646124999999996
 70
     8
  0
VERTEX
  5
58060
330
57FE2
100
AcDbEntity
  8
0
 62
     0
100
AcDbVertex
100
AcDb2dVertex
 10
804.7730011426057
 20
363.8467624319914
 30
3.646124999999996
 70
     8
  0
VERTEX
  5
58061
330
57FE2
100
AcDbEntity
  8
0
 62
     0
100
AcDbVertex
100
AcDb2dVertex
 10
804.7745208118467
 20
363.6659191685768
 30
3.646124999999996
 70
     8
  0
VERTEX
  5
58062
330
57FE2
100
AcDbEntity
  8
0
 62
     0
100
AcDbVertex
100
AcDb2dVertex
 10
804.7468067049248
 20
363.4825404923063
 30
3.646124999999996
 70
     8
  0
VERTEX
  5
58063
330
57FE2
100
AcDbEntity
  8
0
 62
     0
100
AcDbVertex
100
AcDb2dVertex
 10
804.688824825917
 20
363.2967203044522
 30
3.646124999999996
 70
     8
  0
VERTEX
  5
58064
330
57FE2
100
AcDbEntity
  8
0
 62
     0
100
AcDbVertex
100
AcDb2dVertex
 10
804.599541178899
 20
363.1085525062836
 30
3.646124999999996
 70
     8
  0
VERTEX
  5
58065
330
57FE2
100
AcDbEntity
  8
0
 62
     0
100
AcDbVertex
100
AcDb2dVertex
 10
804.4794257565502
 20
362.9171293596637
 30
3.646124999999996
 70
     8
  0
VERTEX
  5
58066
330
57FE2
100
AcDbEntity
  8
0
 62
     0
100
AcDbVertex
100
AcDb2dVertex
 10
804.3349645059096
 20
362.7175365688171
 30
3.646124999999996
 70
     8
  0
VERTEX
  5
58067
330
57FE2
100
AcDbEntity
  8
0
 62
     0
100
AcDbVertex
100
AcDb2dVertex
 10
804.1741473626226
 20
362.5038581985581
 30
3.646124999999996
 70
     8
  0
VERTEX
  5
58068
330
57FE2
100
AcDbEntity
  8
0
 62
     0
100
AcDbVertex
100
AcDb2dVertex
 10
804.0049642623303
 20
362.2701783137054
 30
3.646124999999996
 70
     8
  0
VERTEX
  5
58069
330
57FE2
100
AcDbEntity
  8
0
 62
     0
100
AcDbVertex
100
AcDb2dVertex
 10
803.8354051406695
 20
362.010580979073
 30
3.646124999999996
 70
     8
  0
VERTEX
  5
5806A
330
57FE2
100
AcDbEntity
  8
0
 62
     0
100
AcDbVertex
100
AcDb2dVertex
 10
803.6734599332847
 20
361.7191502594767
 30
3.646124999999996
 70
     8
  0
VERTEX
  5
5806B
330
57FE2
100
AcDbEntity
  8
0
 62
     0
100
AcDbVertex
100
AcDb2dVertex
 10
803.5271185758125
 20
361.3899702197334
 30
3.646124999999996
 70
     8
  0
VERTEX
  5
5806C
330
57FE2
100
AcDbEntity
  8
0
 62
     0
100
AcDbVertex
100
AcDb2dVertex
 10
803.4043710039
 20
361.0171249246591
 30
3.646124999999996
 70
     8
  0
VERTEX
  5
5806D
330
57FE2
100
AcDbEntity
  8
0
 62
     0
100
AcDbVertex
100
AcDb2dVertex
 10
779.7255856428494
 20
374.8638197855898
 30
3.646124999999996
 70
    16
  0
VERTEX
  5
5806E
330
57FE2
100
AcDbEntity
  8
0
 62
     0
100
AcDbVertex
100
AcDb2dVertex
 10
780.8806488828527
 20
375.3446073617479
 30
3.646124999999996
 70
    16
  0
VERTEX
  5
5806F
330
57FE2
100
AcDbEntity
  8
0
 62
     0
100
AcDbVertex
100
AcDb2dVertex
 10
782.8057536126143
 20
375.9215528552828
 30
3.646124999999996
 70
    16
  0
VERTEX
  5
58070
330
57FE2
100
AcDbEntity
  8
0
 62
     0
100
AcDbVertex
100
AcDb2dVertex
 10
785.2121335194533
 20
375.8253959432688
 30
3.646124999999996
 70
    16
  0
VERTEX
  5
58071
330
57FE2
100
AcDbEntity
  8
0
 62
     0
100
AcDbVertex
100
AcDb2dVertex
 10
787.0409828116517
 20
374.9599766976038
 30
3.646124999999996
 70
    16
  0
VERTEX
  5
58072
330
57FE2
100
AcDbEntity
  8
0
 62
     0
100
AcDbVertex
100
AcDb2dVertex
 10
788.581067801897
 20
373.5176129637652
 30
3.646124999999996
 70
    16
  0
VERTEX
  5
58073
330
57FE2
100
AcDbEntity
  8
0
 62
     0
100
AcDbVertex
100
AcDb2dVertex
 10
789.8323844687354
 20
372.5560368060862
 30
3.646124999999996
 70
    16
  0
VERTEX
  5
58074
330
57FE2
100
AcDbEntity
  8
0
 62
     0
100
AcDbVertex
100
AcDb2dVertex
 10
791.8537446360576
 20
372.171406141942
 30
3.646124999999996
 70
    16
  0
VERTEX
  5
58075
330
57FE2
100
AcDbEntity
  8
0
 62
     0
100
AcDbVertex
100
AcDb2dVertex
 10
794.2601245428964
 20
372.3637219766954
 30
3.646124999999996
 70
    16
  0
VERTEX
  5
58076
330
57FE2
100
AcDbEntity
  8
0
 62
     0
100
AcDbVertex
100
AcDb2dVertex
 10
795.8002095331387
 20
372.6521947234629
 30
3.646124999999996
 70
    16
  0
VERTEX
  5
58077
330
57FE2
100
AcDbEntity
  8
0
 62
     0
100
AcDbVertex
100
AcDb2dVertex
 10
797.8215697004611
 20
372.9406674702303
 30
3.646124999999996
 70
    16
  0
VERTEX
  5
58078
330
57FE2
100
AcDbEntity
  8
0
 62
     0
100
AcDbVertex
100
AcDb2dVertex
 10
799.9391832946185
 20
371.113673072249
 30
3.646124999999996
 70
    16
  0
VERTEX
  5
58079
330
57FE2
100
AcDbEntity
  8
0
 62
     0
100
AcDbVertex
100
AcDb2dVertex
 10
800.7092247843797
 20
368.0366297698198
 30
3.646124999999996
 70
    16
  0
VERTEX
  5
5807A
330
57FE2
100
AcDbEntity
  8
0
 62
     0
100
AcDbVertex
100
AcDb2dVertex
 10
801.7680325868198
 20
366.209635371837
 30
3.646124999999996
 70
    16
  0
VERTEX
  5
5807B
330
57FE2
100
AcDbEntity
  8
0
 62
     0
100
AcDbVertex
100
AcDb2dVertex
 10
803.0193512643837
 20
365.8250047076929
 30
3.646124999999996
 70
    16
  0
VERTEX
  5
5807C
330
57FE2
100
AcDbEntity
  8
0
 62
     0
100
AcDbVertex
100
AcDb2dVertex
 10
804.7519451190243
 20
364.5749558032464
 30
3.646124999999996
 70
    16
  0
VERTEX
  5
5807D
330
57FE2
100
AcDbEntity
  8
0
 62
     0
100
AcDbVertex
100
AcDb2dVertex
 10
804.9444559941452
 20
363.1325920694092
 30
3.646124999999996
 70
    16
  0
VERTEX
  5
5807E
330
57FE2
100
AcDbEntity
  8
0
 62
     0
100
AcDbVertex
100
AcDb2dVertex
 10
803.6931373165817
 20
362.0748579943521
 30
3.646124999999996
 70
    16
  0
VERTEX
  5
5807F
330
57FE2
100
AcDbEntity
  8
0
 62
     0
100
AcDbVertex
100
AcDb2dVertex
 10
803.4043710039
 20
361.0171249246591
 30
3.646124999999996
 70
    16
  0
SEQEND
  5
58080
330
57FE2
100
AcDbEntity
  8
0
 62
     0
  0
ARC
  5
58081
330
458D6
100
AcDbEntity
  8
0
 62
     0
100
AcDbCircle
 10
783.4228971387918
 20
375.2903368326079
 30
3.646124999999996
 40
1.587499999999999
100
AcDbArc
 50
180.0
 51
270.0
  0
ARC
  5
58082
330
458D6
100
AcDbEntity
  8
0
 62
     0
100
AcDbCircle
 10
783.4228971387918
 20
375.2903368326079
 30
3.646124999999996
 40
2.4765
100
AcDbArc
 50
180.0
 51
270.0
  0
LINE
  5
58083
330
458D6
100
AcDbEntity
  8
0
 62
     0
100
AcDbLine
 10
788.3773159983077
 20
373.7028368326079
 30
3.646124999999996
 11
783.4228971387918
 21
373.7028368326079
 31
3.646124999999996
  0
LINE
  5
58084
330
458D6
100
AcDbEntity
  8
0
 62
     0
100
AcDbLine
 10
789.7082251947829
 20
372.8138368326087
 30
3.646124999999996
 11
783.4228971387918
 21
372.8138368326087
 31
3.646124999999996
  0
ARC
  5
58085
330
458D6
100
AcDbEntity
  8
0
 62
     0
100
AcDbCircle
 10
784.3753971387923
 20
367.3528368326079
 30
3.646124999999996
 40
5.08
100
AcDbArc
 50
298.9550243718607
 51
90.0
  0
LINE
  5
58086
330
458D6
100
AcDbEntity
  8
0
 62
     0
100
AcDbLine
 10
802.2185941548734
 20
362.9078368326076
 30
3.646124999999996
 11
786.8347415636353
 21
362.9078368326091
 31
3.646124999999996
  0
CIRCLE
  5
58087
330
458D6
100
AcDbEntity
  8
0
 62
     0
100
AcDbCircle
 10
793.2653971387929
 20
367.3528368326079
 30
3.646124999999996
 40
2.222499999999999
  0
ARC
  5
58088
330
458D6
100
AcDbEntity
  8
0
 62
     0
100
AcDbCircle
 10
793.2653971387929
 20
367.3528368326079
 30
3.646124999999996
 40
5.462269873025481
100
AcDbArc
 50
353.1090052174623
 51
67.30655104306626
  0
ARC
  5
58089
330
458D6
100
AcDbEntity
  8
0
 62
     0
100
AcDbCircle
 10
793.2653971387929
 20
367.3528368326079
 30
3.646124999999996
 40
6.351269873025481
100
AcDbArc
 50
353.1090052174623
 51
56.96332700447445
  0
ARC
  5
5808A
330
458D6
100
AcDbEntity
  8
0
 62
     0
100
AcDbCircle
 10
801.1468190185603
 20
366.4003368326088
 30
3.646124999999996
 40
1.587499999999999
100
AcDbArc
 50
173.1090052174623
 51
270.0
  0
ARC
  5
5808B
330
458D6
100
AcDbEntity
  8
0
 62
     0
100
AcDbCircle
 10
802.2185941548734
 20
366.4003368326088
 30
3.646124999999996
 40
3.4925
100
AcDbArc
 50
195.5248462129185
 51
270.0
  0
ARC
  5
5808C
330
458D6
100
AcDbEntity
  8
0
 62
     0
100
AcDbCircle
 10
801.1468190185603
 20
366.4003368326088
 30
3.646124999999996
 40
2.4765
100
AcDbArc
 50
173.1090052174623
 51
270.0
  0
LINE
  5
5808D
330
458D6
100
AcDbEntity
  8
0
 62
     0
100
AcDbLine
 10
804.2668359706516
 20
364.8128368326088
 30
3.646124999999996
 11
801.1468190185603
 21
364.8128368326088
 31
3.646124999999996
  0
LINE
  5
5808E
330
458D6
100
AcDbEntity
  8
0
 62
     0
100
AcDbLine
 10
804.7601480030804
 20
363.9238368326082
 30
3.646124999999996
 11
801.2018810483629
 21
363.9238368326082
 31
3.646124999999996
  0
LINE
  5
5808F
330
458D6
100
AcDbEntity
  8
0
 62
     0
100
AcDbLine
 10
802.2185941548734
 20
362.9078368326076
 30
3.646124999999996
 11
804.4727000122268
 21
362.9078368326076
 31
3.646124999999996
  0
LINE
  5
58090
330
458D6
100
AcDbEntity
  8
0
 62
     0
100
AcDbLine
 10
852.9479752590248
 20
364.8128368326088
 30
3.646124999999996
 11
849.0659583069341
 21
364.8128368326088
 31
3.646124999999996
  0
LINE
  5
58091
330
458D6
100
AcDbEntity
  8
0
 62
     0
100
AcDbLine
 10
852.8929132292219
 20
363.9238368326082
 30
3.646124999999996
 11
848.572646274505
 21
363.9238368326082
 31
3.646124999999996
  0
LINE
  5
58092
330
458D6
100
AcDbEntity
  8
0
 62
     0
100
AcDbLine
 10
848.8600942653588
 20
362.9078368326076
 30
3.646124999999996
 11
866.4980527139505
 21
362.9078368326091
 31
3.646124999999996
  0
ARC
  5
58093
330
458D6
100
AcDbEntity
  8
0
 62
     0
100
AcDbCircle
 10
851.1142001227092
 20
366.4003368326088
 30
3.646124999999996
 40
3.4925
100
AcDbArc
 50
270.0
 51
0.0
  0
ARC
  5
58094
330
458D6
100
AcDbEntity
  8
0
 62
     0
100
AcDbCircle
 10
852.1859752590254
 20
366.4003368326088
 30
3.646124999999996
 40
2.4765
100
AcDbArc
 50
270.0
 51
6.890994782537673
  0
ARC
  5
58095
330
458D6
100
AcDbEntity
  8
0
 62
     0
100
AcDbCircle
 10
852.1859752590254
 20
366.4003368326088
 30
3.646124999999996
 40
1.587499999999999
100
AcDbArc
 50
270.0
 51
6.890994782537673
  0
ARC
  5
58096
330
458D6
100
AcDbEntity
  8
0
 62
     0
100
AcDbCircle
 10
860.0673971387928
 20
367.3528368326079
 30
3.646124999999996
 40
5.462269873025481
100
AcDbArc
 50
115.616722281141
 51
186.8909947825376
  0
ARC
  5
58097
330
458D6
100
AcDbEntity
  8
0
 62
     0
100
AcDbCircle
 10
860.0673971387928
 20
367.3528368326079
 30
3.646124999999996
 40
6.351269873025481
100
AcDbArc
 50
125.2506119403068
 51
186.8909947825376
  0
CIRCLE
  5
58098
330
458D6
100
AcDbEntity
  8
0
 62
     0
100
AcDbCircle
 10
860.0673971387928
 20
367.3528368326079
 30
3.646124999999996
 40
2.222499999999999
  0
ARC
  5
58099
330
458D6
100
AcDbEntity
  8
0
 62
     0
100
AcDbCircle
 10
868.9573971387932
 20
367.3528368326079
 30
3.646124999999996
 40
5.08
100
AcDbArc
 50
90.0
 51
241.0449756281393
  0
LINE
  5
5809A
330
458D6
100
AcDbEntity
  8
0
 62
     0
100
AcDbLine
 10
863.7125191339876
 20
372.8138368326087
 30
3.646124999999996
 11
869.9098971387911
 21
372.8138368326087
 31
3.646124999999996
  0
LINE
  5
5809B
330
458D6
100
AcDbEntity
  8
0
 62
     0
100
AcDbLine
 10
864.9207191040364
 20
373.7028368326079
 30
3.646124999999996
 11
869.9098971387911
 21
373.7028368326079
 31
3.646124999999996
  0
ARC
  5
5809C
330
458D6
100
AcDbEntity
  8
0
 62
     0
100
AcDbCircle
 10
869.9098971387911
 20
375.2903368326079
 30
3.646124999999996
 40
2.4765
100
AcDbArc
 50
270.0
 51
0.0
  0
ARC
  5
5809D
330
458D6
100
AcDbEntity
  8
0
 62
     0
100
AcDbCircle
 10
869.9098971387911
 20
375.2903368326079
 30
3.646124999999996
 40
1.587499999999999
100
AcDbArc
 50
270.0
 51
0.0
  0
POLYLINE
  5
5809E
330
458D6
100
AcDbEntity
  8
0
 62
     0
100
AcDb2dPolyline
 66
     1
 10
0.0
 20
0.0
 30
3.646124999999996
  0
VERTEX
  5
5809F
330
5809E
100
AcDbEntity
  8
0
 62
     0
100
AcDbVertex
100
AcDb2dVertex
 10
875.5912095632734
 20
374.7917175533172
 30
3.646124999999996
  0
VERTEX
  5
580A0
330
5809E
100
AcDbEntity
  8
0
 62
     0
100
AcDbVertex
100
AcDb2dVertex
 10
874.9103277875683
 20
374.8262689108718
 30
3.646124999999996
  0
VERTEX
  5
580A1
330
5809E
100
AcDbEntity
  8
0
 62
     0
100
AcDbVertex
100
AcDb2dVertex
 10
874.344444451488
 20
374.87434372443
 30
3.646124999999996
  0
VERTEX
  5
580A2
330
5809E
100
AcDbEntity
  8
0
 62
     0
100
AcDbVertex
100
AcDb2dVertex
 10
873.8767014969877
 20
374.9336881166344
 30
3.646124999999996
  0
VERTEX
  5
580A3
330
5809E
100
AcDbEntity
  8
0
 62
     0
100
AcDbVertex
100
AcDb2dVertex
 10
873.4902408660142
 20
375.0020482101321
 30
3.646124999999996
  0
VERTEX
  5
580A4
330
5809E
100
AcDbEntity
  8
0
 62
     0
100
AcDbVertex
100
AcDb2dVertex
 10
873.1682045005223
 20
375.0771701275685
 30
3.646124999999996
  0
VERTEX
  5
580A5
330
5809E
100
AcDbEntity
  8
0
 62
     0
100
AcDbVertex
100
AcDb2dVertex
 10
872.8937343424613
 20
375.1567999915893
 30
3.646124999999996
  0
VERTEX
  5
580A6
330
5809E
100
AcDbEntity
  8
0
 62
     0
100
AcDbVertex
100
AcDb2dVertex
 10
872.6499723337838
 20
375.2386839248385
 30
3.646124999999996
  0
VERTEX
  5
580A7
330
5809E
100
AcDbEntity
  8
0
 62
     0
100
AcDbVertex
100
AcDb2dVertex
 10
872.4200604164391
 20
375.3205680499645
 30
3.646124999999996
  0
VERTEX
  5
580A8
330
5809E
100
AcDbEntity
  8
0
 62
     0
100
AcDbVertex
100
AcDb2dVertex
 10
872.1898562095976
 20
375.4004019787596
 30
3.646124999999996
  0
VERTEX
  5
580A9
330
5809E
100
AcDbEntity
  8
0
 62
     0
100
AcDbVertex
100
AcDb2dVertex
 10
871.9560800413004
 20
375.4769492796256
 30
3.646124999999996
  0
VERTEX
  5
580AA
330
5809E
100
AcDbEntity
  8
0
 62
     0
100
AcDbVertex
100
AcDb2dVertex
 10
871.718167916808
 20
375.5491770101085
 30
3.646124999999996
  0
VERTEX
  5
580AB
330
5809E
100
AcDbEntity
  8
0
 62
     0
100
AcDbVertex
100
AcDb2dVertex
 10
871.4755558413765
 20
375.6160522277597
 30
3.646124999999996
  0
VERTEX
  5
580AC
330
5809E
100
AcDbEntity
  8
0
 62
     0
100
AcDbVertex
100
AcDb2dVertex
 10
871.2276798202656
 20
375.6765419901278
 30
3.646124999999996
  0
VERTEX
  5
580AD
330
5809E
100
AcDbEntity
  8
0
 62
     0
100
AcDbVertex
100
AcDb2dVertex
 10
870.973975858738
 20
375.7296133547615
 30
3.646124999999996
  0
VERTEX
  5
580AE
330
5809E
100
AcDbEntity
  8
0
 62
     0
100
AcDbVertex
100
AcDb2dVertex
 10
870.7138799620476
 20
375.7742333792109
 30
3.646124999999996
  0
VERTEX
  5
580AF
330
5809E
100
AcDbEntity
  8
0
 62
     0
100
AcDbVertex
100
AcDb2dVertex
 10
870.4468281354598
 20
375.8093691210246
 30
3.646124999999996
  0
VERTEX
  5
580B0
330
5809E
100
AcDbEntity
  8
0
 62
     0
100
AcDbVertex
100
AcDb2dVertex
 10
870.1726950466943
 20
375.834128492766
 30
3.646124999999996
  0
VERTEX
  5
580B1
330
5809E
100
AcDbEntity
  8
0
 62
     0
100
AcDbVertex
100
AcDb2dVertex
 10
869.8931100133481
 20
375.8481828270624
 30
3.646124999999996
  0
VERTEX
  5
580B2
330
5809E
100
AcDbEntity
  8
0
 62
     0
100
AcDbVertex
100
AcDb2dVertex
 10
869.6101410154872
 20
375.8513443115515
 30
3.646124999999996
  0
VERTEX
  5
580B3
330
5809E
100
AcDbEntity
  8
0
 62
     0
100
AcDbVertex
100
AcDb2dVertex
 10
869.3258560331686
 20
375.8434251338754
 30
3.646124999999996
  0
VERTEX
  5
580B4
330
5809E
100
AcDbEntity
  8
0
 62
     0
100
AcDbVertex
100
AcDb2dVertex
 10
869.0423230464553
 20
375.8242374816747
 30
3.646124999999996
  0
VERTEX
  5
580B5
330
5809E
100
AcDbEntity
  8
0
 62
     0
100
AcDbVertex
100
AcDb2dVertex
 10
868.7616100354103
 20
375.7935935425899
 30
3.646124999999996
  0
VERTEX
  5
580B6
330
5809E
100
AcDbEntity
  8
0
 62
     0
100
AcDbVertex
100
AcDb2dVertex
 10
868.4857849800961
 20
375.7513055042604
 30
3.646124999999996
  0
VERTEX
  5
580B7
330
5809E
100
AcDbEntity
  8
0
 62
     0
100
AcDbVertex
100
AcDb2dVertex
 10
868.2169158605729
 20
375.6971855543265
 30
3.646124999999996
  0
VERTEX
  5
580B8
330
5809E
100
AcDbEntity
  8
0
 62
     0
100
AcDbVertex
100
AcDb2dVertex
 10
867.9566319941088
 20
375.6311397859561
 30
3.646124999999996
  0
VERTEX
  5
580B9
330
5809E
100
AcDbEntity
  8
0
 62
     0
100
AcDbVertex
100
AcDb2dVertex
 10
867.7048080467951
 20
375.5534499144136
 30
3.646124999999996
  0
VERTEX
  5
580BA
330
5809E
100
AcDbEntity
  8
0
 62
     0
100
AcDbVertex
100
AcDb2dVertex
 10
867.4608800219241
 20
375.4644915604907
 30
3.646124999999996
  0
VERTEX
  5
580BB
330
5809E
100
AcDbEntity
  8
0
 62
     0
100
AcDbVertex
100
AcDb2dVertex
 10
867.2242839227957
 20
375.3646403449818
 30
3.646124999999996
  0
VERTEX
  5
580BC
330
5809E
100
AcDbEntity
  8
0
 62
     0
100
AcDbVertex
100
AcDb2dVertex
 10
866.9944557526996
 20
375.2542718886771
 30
3.646124999999996
  0
VERTEX
  5
580BD
330
5809E
100
AcDbEntity
  8
0
 62
     0
100
AcDbVertex
100
AcDb2dVertex
 10
866.7708315149377
 20
375.1337618123682
 30
3.646124999999996
  0
VERTEX
  5
580BE
330
5809E
100
AcDbEntity
  8
0
 62
     0
100
AcDbVertex
100
AcDb2dVertex
 10
866.5528472128034
 20
375.0034857368481
 30
3.646124999999996
  0
VERTEX
  5
580BF
330
5809E
100
AcDbEntity
  8
0
 62
     0
100
AcDbVertex
100
AcDb2dVertex
 10
866.33993884959
 20
374.8638192829084
 30
3.646124999999996
  0
VERTEX
  5
580C0
330
5809E
100
AcDbEntity
  8
0
 62
     0
100
AcDbVertex
100
AcDb2dVertex
 10
866.1316364293577
 20
374.7154197816978
 30
3.646124999999996
  0
VERTEX
  5
580C1
330
5809E
100
AcDbEntity
  8
0
 62
     0
100
AcDbVertex
100
AcDb2dVertex
 10
865.9278459591938
 20
374.5600714057983
 30
3.646124999999996
  0
VERTEX
  5
580C2
330
5809E
100
AcDbEntity
  8
0
 62
     0
100
AcDbVertex
100
AcDb2dVertex
 10
865.728567446958
 20
374.3998400381476
 30
3.646124999999996
  0
VERTEX
  5
580C3
330
5809E
100
AcDbEntity
  8
0
 62
     0
100
AcDbVertex
100
AcDb2dVertex
 10
865.5338009005054
 20
374.2367915616849
 30
3.646124999999996
  0
VERTEX
  5
580C4
330
5809E
100
AcDbEntity
  8
0
 62
     0
100
AcDbVertex
100
AcDb2dVertex
 10
865.3435463276869
 20
374.0729918593448
 30
3.646124999999996
  0
VERTEX
  5
580C5
330
5809E
100
AcDbEntity
  8
0
 62
     0
100
AcDbVertex
100
AcDb2dVertex
 10
865.1578037363572
 20
373.9105068140695
 30
3.646124999999996
  0
VERTEX
  5
580C6
330
5809E
100
AcDbEntity
  8
0
 62
     0
100
AcDbVertex
100
AcDb2dVertex
 10
864.9765731343736
 20
373.7514023087936
 30
3.646124999999996
  0
VERTEX
  5
580C7
330
5809E
100
AcDbEntity
  8
0
 62
     0
100
AcDbVertex
100
AcDb2dVertex
 10
864.7998545295875
 20
373.5977442264592
 30
3.646124999999996
  0
VERTEX
  5
580C8
330
5809E
100
AcDbEntity
  8
0
 62
     0
100
AcDbVertex
100
AcDb2dVertex
 10
864.6273032632402
 20
373.4512854375837
 30
3.646124999999996
  0
VERTEX
  5
580C9
330
5809E
100
AcDbEntity
  8
0
 62
     0
100
AcDbVertex
100
AcDb2dVertex
 10
864.4571960101002
 20
373.3125267630167
 30
3.646124999999996
  0
VERTEX
  5
580CA
330
5809E
100
AcDbEntity
  8
0
 62
     0
100
AcDbVertex
100
AcDb2dVertex
 10
864.2874647783289
 20
373.1816560111932
 30
3.646124999999996
  0
VERTEX
  5
580CB
330
5809E
100
AcDbEntity
  8
0
 62
     0
100
AcDbVertex
100
AcDb2dVertex
 10
864.1160415760792
 20
373.058860990544
 30
3.646124999999996
  0
VERTEX
  5
580CC
330
5809E
100
AcDbEntity
  8
0
 62
     0
100
AcDbVertex
100
AcDb2dVertex
 10
863.940858411509
 20
372.9443295095027
 30
3.646124999999996
  0
VERTEX
  5
580CD
330
5809E
100
AcDbEntity
  8
0
 62
     0
100
AcDbVertex
100
AcDb2dVertex
 10
863.7598472927738
 20
372.8382493765002
 30
3.646124999999996
  0
VERTEX
  5
580CE
330
5809E
100
AcDbEntity
  8
0
 62
     0
100
AcDbVertex
100
AcDb2dVertex
 10
863.5709402280296
 20
372.7408083999686
 30
3.646124999999996
  0
VERTEX
  5
580CF
330
5809E
100
AcDbEntity
  8
0
 62
     0
100
AcDbVertex
100
AcDb2dVertex
 10
863.3720692254373
 20
372.6521943883415
 30
3.646124999999996
  0
VERTEX
  5
580D0
330
5809E
100
AcDbEntity
  8
0
 62
     0
100
AcDbVertex
100
AcDb2dVertex
 10
863.161636291708
 20
372.572563848974
 30
3.646124999999996
  0
VERTEX
  5
580D1
330
5809E
100
AcDbEntity
  8
0
 62
     0
100
AcDbVertex
100
AcDb2dVertex
 10
862.9399234278187
 20
372.5019480849055
 30
3.646124999999996
  0
SEQEND
  5
580D2
330
5809E
100
AcDbEntity
  8
0
 62
     0
  0
POLYLINE
  5
580D3
330
458D6
100
AcDbEntity
  8
0
 62
     0
100
AcDb2dPolyline
 66
     1
 10
0.0
 20
0.0
 30
3.646124999999996
  0
VERTEX
  5
580D4
330
580D3
100
AcDbEntity
  8
0
 62
     0
100
AcDbVertex
100
AcDb2dVertex
 10
862.7076826333016
 20
372.4403470981009
 30
3.646124999999996
  0
VERTEX
  5
580D5
330
580D3
100
AcDbEntity
  8
0
 62
     0
100
AcDbVertex
100
AcDb2dVertex
 10
862.4656659076896
 20
372.3877608905224
 30
3.646124999999996
  0
VERTEX
  5
580D6
330
580D3
100
AcDbEntity
  8
0
 62
     0
100
AcDbVertex
100
AcDb2dVertex
 10
862.2146252505144
 20
372.3441894641365
 30
3.646124999999996
  0
VERTEX
  5
580D7
330
580D3
100
AcDbEntity
  8
0
 62
     0
100
AcDbVertex
100
AcDb2dVertex
 10
861.9553126613091
 20
372.3096328209039
 30
3.646124999999996
  0
VERTEX
  5
580D8
330
580D3
100
AcDbEntity
  8
0
 62
     0
100
AcDbVertex
100
AcDb2dVertex
 10
861.6884801396059
 20
372.2840909627911
 30
3.646124999999996
  0
VERTEX
  5
580D9
330
580D3
100
AcDbEntity
  8
0
 62
     0
100
AcDbVertex
100
AcDb2dVertex
 10
861.4148796849429
 20
372.2675638917588
 30
3.646124999999996
  0
VERTEX
  5
580DA
330
580D3
100
AcDbEntity
  8
0
 62
     0
100
AcDbVertex
100
AcDb2dVertex
 10
861.1355452925828
 20
372.2598951024169
 30
3.646124999999996
  0
VERTEX
  5
580DB
330
580D3
100
AcDbEntity
  8
0
 62
     0
100
AcDbVertex
100
AcDb2dVertex
 10
860.8526389407279
 20
372.2603020599597
 30
3.646124999999996
  0
VERTEX
  5
580DC
330
580D3
100
AcDbEntity
  8
0
 62
     0
100
AcDbVertex
100
AcDb2dVertex
 10
860.5686046033225
 20
372.267845722223
 30
3.646124999999996
  0
VERTEX
  5
580DD
330
580D3
100
AcDbEntity
  8
0
 62
     0
100
AcDbVertex
100
AcDb2dVertex
 10
860.2858862542962
 20
372.281587047046
 30
3.646124999999996
  0
VERTEX
  5
580DE
330
580D3
100
AcDbEntity
  8
0
 62
     0
100
AcDbVertex
100
AcDb2dVertex
 10
860.0069278675929
 20
372.3005869922676
 30
3.646124999999996
  0
VERTEX
  5
580DF
330
580D3
100
AcDbEntity
  8
0
 62
     0
100
AcDbVertex
100
AcDb2dVertex
 10
859.7341734171514
 20
372.323906515724
 30
3.646124999999996
  0
VERTEX
  5
580E0
330
580D3
100
AcDbEntity
  8
0
 62
     0
100
AcDbVertex
100
AcDb2dVertex
 10
859.4700668769009
 20
372.3506065752555
 30
3.646124999999996
  0
VERTEX
  5
580E1
330
580D3
100
AcDbEntity
  8
0
 62
     0
100
AcDbVertex
100
AcDb2dVertex
 10
859.2170522207887
 20
372.3797481286983
 30
3.646124999999996
  0
VERTEX
  5
580E2
330
580D3
100
AcDbEntity
  8
0
 62
     0
100
AcDbVertex
100
AcDb2dVertex
 10
858.9767274316155
 20
372.4105173398401
 30
3.646124999999996
  0
VERTEX
  5
580E3
330
580D3
100
AcDbEntity
  8
0
 62
     0
100
AcDbVertex
100
AcDb2dVertex
 10
858.7473065276762
 20
372.4426011962636
 30
3.646124999999996
  0
VERTEX
  5
580E4
330
580D3
100
AcDbEntity
  8
0
 62
     0
100
AcDbVertex
100
AcDb2dVertex
 10
858.5261575361316
 20
372.4758118915
 30
3.646124999999996
  0
VERTEX
  5
580E5
330
580D3
100
AcDbEntity
  8
0
 62
     0
100
AcDbVertex
100
AcDb2dVertex
 10
858.3106484841387
 20
372.5099616190796
 30
3.646124999999996
  0
VERTEX
  5
580E6
330
580D3
100
AcDbEntity
  8
0
 62
     0
100
AcDbVertex
100
AcDb2dVertex
 10
858.0981473988636
 20
372.5448625725349
 30
3.646124999999996
  0
VERTEX
  5
580E7
330
580D3
100
AcDbEntity
  8
0
 62
     0
100
AcDbVertex
100
AcDb2dVertex
 10
857.8860223074611
 20
372.5803269453961
 30
3.646124999999996
  0
VERTEX
  5
580E8
330
580D3
100
AcDbEntity
  8
0
 62
     0
100
AcDbVertex
100
AcDb2dVertex
 10
857.6716412370974
 20
372.6161669311959
 30
3.646124999999996
  0
VERTEX
  5
580E9
330
580D3
100
AcDbEntity
  8
0
 62
     0
100
AcDbVertex
100
AcDb2dVertex
 10
857.4523722149326
 20
372.6521947234629
 30
3.646124999999996
  0
VERTEX
  5
580EA
330
580D3
100
AcDbEntity
  8
0
 62
     0
100
AcDbVertex
100
AcDb2dVertex
 10
857.2261472628648
 20
372.6875651881808
 30
3.646124999999996
  0
VERTEX
  5
580EB
330
580D3
100
AcDbEntity
  8
0
 62
     0
100
AcDbVertex
100
AcDb2dVertex
 10
856.9931543817613
 20
372.7188038811325
 30
3.646124999999996
  0
VERTEX
  5
580EC
330
580D3
100
AcDbEntity
  8
0
 62
     0
100
AcDbVertex
100
AcDb2dVertex
 10
856.7541455672248
 20
372.7417790305492
 30
3.646124999999996
  0
VERTEX
  5
580ED
330
580D3
100
AcDbEntity
  8
0
 62
     0
100
AcDbVertex
100
AcDb2dVertex
 10
856.5098728148695
 20
372.7523588646645
 30
3.646124999999996
  0
VERTEX
  5
580EE
330
580D3
100
AcDbEntity
  8
0
 62
     0
100
AcDbVertex
100
AcDb2dVertex
 10
856.2610881202916
 20
372.7464116117124
 30
3.646124999999996
  0
VERTEX
  5
580EF
330
580D3
100
AcDbEntity
  8
0
 62
     0
100
AcDbVertex
100
AcDb2dVertex
 10
856.0085434791048
 20
372.7198054999239
 30
3.646124999999996
  0
VERTEX
  5
580F0
330
580D3
100
AcDbEntity
  8
0
 62
     0
100
AcDbVertex
100
AcDb2dVertex
 10
855.7529908869121
 20
372.6684087575329
 30
3.646124999999996
  0
VERTEX
  5
580F1
330
580D3
100
AcDbEntity
  8
0
 62
     0
100
AcDbVertex
100
AcDb2dVertex
 10
855.4951823393153
 20
372.5880896127717
 30
3.646124999999996
  0
VERTEX
  5
580F2
330
580D3
100
AcDbEntity
  8
0
 62
     0
100
AcDbVertex
100
AcDb2dVertex
 10
855.2362144946172
 20
372.47568663417
 30
3.646124999999996
  0
VERTEX
  5
580F3
330
580D3
100
AcDbEntity
  8
0
 62
     0
100
AcDbVertex
100
AcDb2dVertex
 10
854.9785626618644
 20
372.3319197514309
 30
3.646124999999996
  0
VERTEX
  5
580F4
330
580D3
100
AcDbEntity
  8
0
 62
     0
100
AcDbVertex
100
AcDb2dVertex
 10
854.7250468127979
 20
372.1584792345566
 30
3.646124999999996
  0
VERTEX
  5
580F5
330
580D3
100
AcDbEntity
  8
0
 62
     0
100
AcDbVertex
100
AcDb2dVertex
 10
854.4784869191582
 20
371.9570553535475
 30
3.646124999999996
  0
VERTEX
  5
580F6
330
580D3
100
AcDbEntity
  8
0
 62
     0
100
AcDbVertex
100
AcDb2dVertex
 10
854.2417029526893
 20
371.7293383784038
 30
3.646124999999996
  0
VERTEX
  5
580F7
330
580D3
100
AcDbEntity
  8
0
 62
     0
100
AcDbVertex
100
AcDb2dVertex
 10
854.0175148851297
 20
371.4770185791278
 30
3.646124999999996
  0
VERTEX
  5
580F8
330
580D3
100
AcDbEntity
  8
0
 62
     0
100
AcDbVertex
100
AcDb2dVertex
 10
853.8087426882169
 20
371.2017862257167
 30
3.646124999999996
  0
VERTEX
  5
580F9
330
580D3
100
AcDbEntity
  8
0
 62
     0
100
AcDbVertex
100
AcDb2dVertex
 10
853.618206333698
 20
370.9053315881741
 30
3.646124999999996
  0
VERTEX
  5
580FA
330
580D3
100
AcDbEntity
  8
0
 62
     0
100
AcDbVertex
100
AcDb2dVertex
 10
853.4477231357724
 20
370.5898770587548
 30
3.646124999999996
  0
VERTEX
  5
580FB
330
580D3
100
AcDbEntity
  8
0
 62
     0
100
AcDbVertex
100
AcDb2dVertex
 10
853.2950997785082
 20
370.2597735187357
 30
3.646124999999996
  0
VERTEX
  5
580FC
330
580D3
100
AcDbEntity
  8
0
 62
     0
100
AcDbVertex
100
AcDb2dVertex
 10
853.1571402884342
 20
369.9199039716511
 30
3.646124999999996
  0
VERTEX
  5
580FD
330
580D3
100
AcDbEntity
  8
0
 62
     0
100
AcDbVertex
100
AcDb2dVertex
 10
853.03064869208
 20
369.5751514210337
 30
3.646124999999996
  0
VERTEX
  5
580FE
330
580D3
100
AcDbEntity
  8
0
 62
     0
100
AcDbVertex
100
AcDb2dVertex
 10
852.912429015971
 20
369.2303988704163
 30
3.646124999999996
  0
VERTEX
  5
580FF
330
580D3
100
AcDbEntity
  8
0
 62
     0
100
AcDbVertex
100
AcDb2dVertex
 10
852.7992852866404
 20
368.8905293233316
 30
3.646124999999996
  0
VERTEX
  5
58100
330
580D3
100
AcDbEntity
  8
0
 62
     0
100
AcDbVertex
100
AcDb2dVertex
 10
852.6880215306141
 20
368.560425783314
 30
3.646124999999996
  0
VERTEX
  5
58101
330
580D3
100
AcDbEntity
  8
0
 62
     0
100
AcDbVertex
100
AcDb2dVertex
 10
852.5754417744241
 20
368.2449712538947
 30
3.646124999999996
  0
VERTEX
  5
58102
330
580D3
100
AcDbEntity
  8
0
 62
     0
100
AcDbVertex
100
AcDb2dVertex
 10
852.4589140399957
 20
367.9482975071676
 30
3.646124999999996
  0
VERTEX
  5
58103
330
580D3
100
AcDbEntity
  8
0
 62
     0
100
AcDbVertex
100
AcDb2dVertex
 10
852.3380623308312
 20
367.6715313894753
 30
3.646124999999996
  0
VERTEX
  5
58104
330
580D3
100
AcDbEntity
  8
0
 62
     0
100
AcDbVertex
100
AcDb2dVertex
 10
852.2130746458351
 20
367.4150485157158
 30
3.646124999999996
  0
VERTEX
  5
58105
330
580D3
100
AcDbEntity
  8
0
 62
     0
100
AcDbVertex
100
AcDb2dVertex
 10
852.0841389839059
 20
367.1792245007927
 30
3.646124999999996
  0
VERTEX
  5
58106
330
580D3
100
AcDbEntity
  8
0
 62
     0
100
AcDbVertex
100
AcDb2dVertex
 10
851.9514433439473
 20
366.9644349596068
 30
3.646124999999996
  0
VERTEX
  5
58107
330
580D3
100
AcDbEntity
  8
0
 62
     0
100
AcDbVertex
100
AcDb2dVertex
 10
851.8151757248611
 20
366.7710555070574
 30
3.646124999999996
  0
VERTEX
  5
58108
330
580D3
100
AcDbEntity
  8
0
 62
     0
100
AcDbVertex
100
AcDb2dVertex
 10
851.6755241255484
 20
366.5994617580469
 30
3.646124999999996
  0
VERTEX
  5
58109
330
580D3
100
AcDbEntity
  8
0
 62
     0
100
AcDbVertex
100
AcDb2dVertex
 10
851.5326765449103
 20
366.4500293274775
 30
3.646124999999996
  0
VERTEX
  5
5810A
330
580D3
100
AcDbEntity
  8
0
 62
     0
100
AcDbVertex
100
AcDb2dVertex
 10
851.3866956499033
 20
366.3223199966539
 30
3.646124999999996
  0
VERTEX
  5
5810B
330
580D3
100
AcDbEntity
  8
0
 62
     0
100
AcDbVertex
100
AcDb2dVertex
 10
851.2371427796926
 20
366.2126402125024
 30
3.646124999999996
  0
VERTEX
  5
5810C
330
580D3
100
AcDbEntity
  8
0
 62
     0
100
AcDbVertex
100
AcDb2dVertex
 10
851.0834539415048
 20
366.1164825883574
 30
3.646124999999996
  0
VERTEX
  5
5810D
330
580D3
100
AcDbEntity
  8
0
 62
     0
100
AcDbVertex
100
AcDb2dVertex
 10
850.9250651425627
 20
366.0293397375478
 30
3.646124999999996
  0
VERTEX
  5
5810E
330
580D3
100
AcDbEntity
  8
0
 62
     0
100
AcDbVertex
100
AcDb2dVertex
 10
850.7614123900872
 20
365.9467042734065
 30
3.646124999999996
  0
VERTEX
  5
5810F
330
580D3
100
AcDbEntity
  8
0
 62
     0
100
AcDbVertex
100
AcDb2dVertex
 10
850.591931691301
 20
365.8640688092653
 30
3.646124999999996
  0
VERTEX
  5
58110
330
580D3
100
AcDbEntity
  8
0
 62
     0
100
AcDbVertex
100
AcDb2dVertex
 10
850.4160590534278
 20
365.7769259584556
 30
3.646124999999996
  0
VERTEX
  5
58111
330
580D3
100
AcDbEntity
  8
0
 62
     0
100
AcDbVertex
100
AcDb2dVertex
 10
850.2332304836878
 20
365.6807683343092
 30
3.646124999999996
  0
VERTEX
  5
58112
330
580D3
100
AcDbEntity
  8
0
 62
     0
100
AcDbVertex
100
AcDb2dVertex
 10
850.0436339822963
 20
365.5720588904533
 30
3.646124999999996
  0
VERTEX
  5
58113
330
580D3
100
AcDbEntity
  8
0
 62
     0
100
AcDbVertex
100
AcDb2dVertex
 10
849.8504655214128
 20
365.4511419416919
 30
3.646124999999996
  0
VERTEX
  5
58114
330
580D3
100
AcDbEntity
  8
0
 62
     0
100
AcDbVertex
100
AcDb2dVertex
 10
849.6576730661866
 20
365.3193321431247
 30
3.646124999999996
  0
VERTEX
  5
58115
330
580D3
100
AcDbEntity
  8
0
 62
     0
100
AcDbVertex
100
AcDb2dVertex
 10
849.4692045817659
 20
365.1779441498514
 30
3.646124999999996
  0
VERTEX
  5
58116
330
580D3
100
AcDbEntity
  8
0
 62
     0
100
AcDbVertex
100
AcDb2dVertex
 10
849.2890080333031
 20
365.02829261697
 30
3.646124999999996
  0
VERTEX
  5
58117
330
580D3
100
AcDbEntity
  8
0
 62
     0
100
AcDbVertex
100
AcDb2dVertex
 10
849.1210313859465
 20
364.8716921995819
 30
3.646124999999996
  0
VERTEX
  5
58118
330
580D3
100
AcDbEntity
  8
0
 62
     0
100
AcDbVertex
100
AcDb2dVertex
 10
848.9692226048449
 20
364.7094575527866
 30
3.646124999999996
  0
VERTEX
  5
58119
330
580D3
100
AcDbEntity
  8
0
 62
     0
100
AcDbVertex
100
AcDb2dVertex
 10
848.8375296551474
 20
364.5429033316808
 30
3.646124999999996
  0
VERTEX
  5
5811A
330
580D3
100
AcDbEntity
  8
0
 62
     0
100
AcDbVertex
100
AcDb2dVertex
 10
848.72941484047
 20
364.373140732395
 30
3.646124999999996
  0
VERTEX
  5
5811B
330
580D3
100
AcDbEntity
  8
0
 62
     0
100
AcDbVertex
100
AcDb2dVertex
 10
848.6463978182662
 20
364.2004671151719
 30
3.646124999999996
  0
VERTEX
  5
5811C
330
580D3
100
AcDbEntity
  8
0
 62
     0
100
AcDbVertex
100
AcDb2dVertex
 10
848.5895125844624
 20
364.0249763812796
 30
3.646124999999996
  0
VERTEX
  5
5811D
330
580D3
100
AcDbEntity
  8
0
 62
     0
100
AcDbVertex
100
AcDb2dVertex
 10
848.5597931349797
 20
363.8467624319914
 30
3.646124999999996
  0
VERTEX
  5
5811E
330
580D3
100
AcDbEntity
  8
0
 62
     0
100
AcDbVertex
100
AcDb2dVertex
 10
848.5582734657389
 20
363.6659191685768
 30
3.646124999999996
  0
VERTEX
  5
5811F
330
580D3
100
AcDbEntity
  8
0
 62
     0
100
AcDbVertex
100
AcDb2dVertex
 10
848.5859875726607
 20
363.4825404923063
 30
3.646124999999996
  0
VERTEX
  5
58120
330
580D3
100
AcDbEntity
  8
0
 62
     0
100
AcDbVertex
100
AcDb2dVertex
 10
848.6439694516686
 20
363.2967203044522
 30
3.646124999999996
  0
VERTEX
  5
58121
330
580D3
100
AcDbEntity
  8
0
 62
     0
100
AcDbVertex
100
AcDb2dVertex
 10
848.7332530986837
 20
363.1085525062836
 30
3.646124999999996
  0
VERTEX
  5
58122
330
580D3
100
AcDbEntity
  8
0
 62
     0
100
AcDbVertex
100
AcDb2dVertex
 10
848.8533685210354
 20
362.9171293596637
 30
3.646124999999996
  0
VERTEX
  5
58123
330
580D3
100
AcDbEntity
  8
0
 62
     0
100
AcDbVertex
100
AcDb2dVertex
 10
848.9978297716758
 20
362.7175365688171
 30
3.646124999999996
  0
VERTEX
  5
58124
330
580D3
100
AcDbEntity
  8
0
 62
     0
100
AcDbVertex
100
AcDb2dVertex
 10
849.1586469149602
 20
362.5038581985581
 30
3.646124999999996
  0
VERTEX
  5
58125
330
580D3
100
AcDbEntity
  8
0
 62
     0
100
AcDbVertex
100
AcDb2dVertex
 10
849.3278300152553
 20
362.2701783137054
 30
3.646124999999996
  0
VERTEX
  5
58126
330
580D3
100
AcDbEntity
  8
0
 62
     0
100
AcDbVertex
100
AcDb2dVertex
 10
849.4973891369161
 20
362.010580979073
 30
3.646124999999996
  0
VERTEX
  5
58127
330
580D3
100
AcDbEntity
  8
0
 62
     0
100
AcDbVertex
100
AcDb2dVertex
 10
849.6593343443009
 20
361.7191502594767
 30
3.646124999999996
  0
VERTEX
  5
58128
330
580D3
100
AcDbEntity
  8
0
 62
     0
100
AcDbVertex
100
AcDb2dVertex
 10
849.8056757017705
 20
361.3899702197334
 30
3.646124999999996
  0
VERTEX
  5
58129
330
580D3
100
AcDbEntity
  8
0
 62
     0
100
AcDbVertex
100
AcDb2dVertex
 10
849.9284232736856
 20
361.0171249246591
 30
3.646124999999996
  0
SEQEND
  5
5812A
330
580D3
100
AcDbEntity
  8
0
 62
     0
  0
LINE
  5
5812B
330
458D6
100
AcDbEntity
  8
0
  6
Continuous
 62
     0
100
AcDbLine
 10
872.5133971387929
 20
472.1278368326079
 30
3.646124999999996
 11
780.8193971387927
 21
472.1278368326079
 31
3.646124999999996
  0
LINE
  5
5812C
330
458D6
100
AcDbEntity
  8
0
 62
     0
100
AcDbLine
 10
802.2185941548734
 20
470.0958368326083
 30
3.646124999999996
 11
786.8347415636353
 21
470.0958368326083
 31
3.646124999999996
  0
POLYLINE
  5
5812D
330
458D6
100
AcDbEntity
  8
0
 62
     0
100
AcDb2dPolyline
 66
     1
 10
0.0
 20
0.0
 30
3.646124999999996
 70
     4
 75
     6
  0
VERTEX
  5
5812E
330
5812D
100
AcDbEntity
  8
0
 62
     0
100
AcDbVertex
100
AcDb2dVertex
 10
777.7415847143122
 20
458.2119561118988
 30
3.646124999999996
 70
    16
  0
VERTEX
  5
5812F
330
5812D
100
AcDbEntity
  8
0
 62
     0
100
AcDbVertex
100
AcDb2dVertex
 10
777.7415847143122
 20
458.2119561118988
 30
3.646124999999996
 70
     8
  0
VERTEX
  5
58130
330
5812D
100
AcDbEntity
  8
0
 62
     0
100
AcDbVertex
100
AcDb2dVertex
 10
778.4224664900175
 20
458.1774047543442
 30
3.646124999999996
 70
     8
  0
VERTEX
  5
58131
330
5812D
100
AcDbEntity
  8
0
 62
     0
100
AcDbVertex
100
AcDb2dVertex
 10
778.9883498260949
 20
458.1293299407874
 30
3.646124999999996
 70
     8
  0
VERTEX
  5
58132
330
5812D
100
AcDbEntity
  8
0
 62
     0
100
AcDbVertex
100
AcDb2dVertex
 10
779.4560927805981
 20
458.069985548583
 30
3.646124999999996
 70
     8
  0
VERTEX
  5
58133
330
5812D
100
AcDbEntity
  8
0
 62
     0
100
AcDbVertex
100
AcDb2dVertex
 10
779.8425534115685
 20
458.0016254550853
 30
3.646124999999996
 70
     8
  0
VERTEX
  5
58134
330
5812D
100
AcDbEntity
  8
0
 62
     0
100
AcDbVertex
100
AcDb2dVertex
 10
780.1645897770606
 20
457.9265035376489
 30
3.646124999999996
 70
     8
  0
VERTEX
  5
58135
330
5812D
100
AcDbEntity
  8
0
 62
     0
100
AcDbVertex
100
AcDb2dVertex
 10
780.4390599351213
 20
457.8468736736281
 30
3.646124999999996
 70
     8
  0
VERTEX
  5
58136
330
5812D
100
AcDbEntity
  8
0
 62
     0
100
AcDbVertex
100
AcDb2dVertex
 10
780.6828219437988
 20
457.7649897403775
 30
3.646124999999996
 70
     8
  0
VERTEX
  5
58137
330
5812D
100
AcDbEntity
  8
0
 62
     0
100
AcDbVertex
100
AcDb2dVertex
 10
780.9127338611438
 20
457.683105615253
 30
3.646124999999996
 70
     8
  0
VERTEX
  5
58138
330
5812D
100
AcDbEntity
  8
0
 62
     0
100
AcDbVertex
100
AcDb2dVertex
 10
781.1429380679851
 20
457.6032716864564
 30
3.646124999999996
 70
     8
  0
VERTEX
  5
58139
330
5812D
100
AcDbEntity
  8
0
 62
     0
100
AcDbVertex
100
AcDb2dVertex
 10
781.3767142362821
 20
457.5267243855917
 30
3.646124999999996
 70
     8
  0
VERTEX
  5
5813A
330
5812D
100
AcDbEntity
  8
0
 62
     0
100
AcDbVertex
100
AcDb2dVertex
 10
781.6146263607777
 20
457.4544966551075
 30
3.646124999999996
 70
     8
  0
VERTEX
  5
5813B
330
5812D
100
AcDbEntity
  8
0
 62
     0
100
AcDbVertex
100
AcDb2dVertex
 10
781.8572384362092
 20
457.3876214374563
 30
3.646124999999996
 70
     8
  0
VERTEX
  5
5813C
330
5812D
100
AcDbEntity
  8
0
 62
     0
100
AcDbVertex
100
AcDb2dVertex
 10
782.105114457317
 20
457.3271316750882
 30
3.646124999999996
 70
     8
  0
VERTEX
  5
5813D
330
5812D
100
AcDbEntity
  8
0
 62
     0
100
AcDbVertex
100
AcDb2dVertex
 10
782.3588184188476
 20
457.2740603104545
 30
3.646124999999996
 70
     8
  0
VERTEX
  5
5813E
330
5812D
100
AcDbEntity
  8
0
 62
     0
100
AcDbVertex
100
AcDb2dVertex
 10
782.6189143155352
 20
457.229440286005
 30
3.646124999999996
 70
     8
  0
VERTEX
  5
5813F
330
5812D
100
AcDbEntity
  8
0
 62
     0
100
AcDbVertex
100
AcDb2dVertex
 10
782.8859661421258
 20
457.1943045441927
 30
3.646124999999996
 70
     8
  0
VERTEX
  5
58140
330
5812D
100
AcDbEntity
  8
0
 62
     0
100
AcDbVertex
100
AcDb2dVertex
 10
783.1600992308913
 20
457.16954517245
 30
3.646124999999996
 70
     8
  0
VERTEX
  5
58141
330
5812D
100
AcDbEntity
  8
0
 62
     0
100
AcDbVertex
100
AcDb2dVertex
 10
783.4396842642345
 20
457.155490838155
 30
3.646124999999996
 70
     8
  0
VERTEX
  5
58142
330
5812D
100
AcDbEntity
  8
0
 62
     0
100
AcDbVertex
100
AcDb2dVertex
 10
783.7226532620984
 20
457.1523293536659
 30
3.646124999999996
 70
     8
  0
VERTEX
  5
58143
330
5812D
100
AcDbEntity
  8
0
 62
     0
100
AcDbVertex
100
AcDb2dVertex
 10
784.0069382444169
 20
457.1602485313405
 30
3.646124999999996
 70
     8
  0
VERTEX
  5
58144
330
5812D
100
AcDbEntity
  8
0
 62
     0
100
AcDbVertex
100
AcDb2dVertex
 10
784.2904712311304
 20
457.1794361835413
 30
3.646124999999996
 70
     8
  0
VERTEX
  5
58145
330
5812D
100
AcDbEntity
  8
0
 62
     0
100
AcDbVertex
100
AcDb2dVertex
 10
784.5711842421726
 20
457.2100801226275
 30
3.646124999999996
 70
     8
  0
VERTEX
  5
58146
330
5812D
100
AcDbEntity
  8
0
 62
     0
100
AcDbVertex
100
AcDb2dVertex
 10
784.8470092974896
 20
457.252368160957
 30
3.646124999999996
 70
     8
  0
VERTEX
  5
58147
330
5812D
100
AcDbEntity
  8
0
 62
     0
100
AcDbVertex
100
AcDb2dVertex
 10
785.1158784170126
 20
457.3064881108895
 30
3.646124999999996
 70
     8
  0
VERTEX
  5
58148
330
5812D
100
AcDbEntity
  8
0
 62
     0
100
AcDbVertex
100
AcDb2dVertex
 10
785.3761622834768
 20
457.3725338792614
 30
3.646124999999996
 70
     8
  0
VERTEX
  5
58149
330
5812D
100
AcDbEntity
  8
0
 62
     0
100
AcDbVertex
100
AcDb2dVertex
 10
785.6279862307906
 20
457.4502237508038
 30
3.646124999999996
 70
     8
  0
VERTEX
  5
5814A
330
5812D
100
AcDbEntity
  8
0
 62
     0
100
AcDbVertex
100
AcDb2dVertex
 10
785.8719142556615
 20
457.5391821047253
 30
3.646124999999996
 70
     8
  0
VERTEX
  5
5814B
330
5812D
100
AcDbEntity
  8
0
 62
     0
100
AcDbVertex
100
AcDb2dVertex
 10
786.1085103547901
 20
457.6390333202357
 30
3.646124999999996
 70
     8
  0
VERTEX
  5
5814C
330
5812D
100
AcDbEntity
  8
0
 62
     0
100
AcDbVertex
100
AcDb2dVertex
 10
786.3383385248832
 20
457.7494017765403
 30
3.646124999999996
 70
     8
  0
VERTEX
  5
5814D
330
5812D
100
AcDbEntity
  8
0
 62
     0
100
AcDbVertex
100
AcDb2dVertex
 10
786.561962762645
 20
457.8699118528493
 30
3.646124999999996
 70
     8
  0
VERTEX
  5
5814E
330
5812D
100
AcDbEntity
  8
0
 62
     0
100
AcDbVertex
100
AcDb2dVertex
 10
786.7799470647821
 20
458.0001879283694
 30
3.646124999999996
 70
     8
  0
VERTEX
  5
5814F
330
5812D
100
AcDbEntity
  8
0
 62
     0
100
AcDbVertex
100
AcDb2dVertex
 10
786.9928554279927
 20
458.139854382309
 30
3.646124999999996
 70
     8
  0
VERTEX
  5
58150
330
5812D
100
AcDbEntity
  8
0
 62
     0
100
AcDbVertex
100
AcDb2dVertex
 10
787.2011578482279
 20
458.2882538835182
 30
3.646124999999996
 70
     8
  0
VERTEX
  5
58151
330
5812D
100
AcDbEntity
  8
0
 62
     0
100
AcDbVertex
100
AcDb2dVertex
 10
787.4049483183892
 20
458.4436022594176
 30
3.646124999999996
 70
     8
  0
VERTEX
  5
58152
330
5812D
100
AcDbEntity
  8
0
 62
     0
100
AcDbVertex
100
AcDb2dVertex
 10
787.6042268306246
 20
458.6038336270683
 30
3.646124999999996
 70
     8
  0
VERTEX
  5
58153
330
5812D
100
AcDbEntity
  8
0
 62
     0
100
AcDbVertex
100
AcDb2dVertex
 10
787.7989933770802
 20
458.7668821035325
 30
3.646124999999996
 70
     8
  0
VERTEX
  5
58154
330
5812D
100
AcDbEntity
  8
0
 62
     0
100
AcDbVertex
100
AcDb2dVertex
 10
787.9892479498987
 20
458.9306818058711
 30
3.646124999999996
 70
     8
  0
VERTEX
  5
58155
330
5812D
100
AcDbEntity
  8
0
 62
     0
100
AcDbVertex
100
AcDb2dVertex
 10
788.1749905412255
 20
459.093166851148
 30
3.646124999999996
 70
     8
  0
VERTEX
  5
58156
330
5812D
100
AcDbEntity
  8
0
 62
     0
100
AcDbVertex
100
AcDb2dVertex
 10
788.356221143212
 20
459.2522713564224
 30
3.646124999999996
 70
     8
  0
VERTEX
  5
58157
330
5812D
100
AcDbEntity
  8
0
 62
     0
100
AcDbVertex
100
AcDb2dVertex
 10
788.5329397479954
 20
459.4059294387583
 30
3.646124999999996
 70
     8
  0
VERTEX
  5
58158
330
5812D
100
AcDbEntity
  8
0
 62
     0
100
AcDbVertex
100
AcDb2dVertex
 10
788.7054910143456
 20
459.5523882276337
 30
3.646124999999996
 70
     8
  0
VERTEX
  5
58159
330
5812D
100
AcDbEntity
  8
0
 62
     0
100
AcDbVertex
100
AcDb2dVertex
 10
788.8755982674824
 20
459.6911469021994
 30
3.646124999999996
 70
     8
  0
VERTEX
  5
5815A
330
5812D
100
AcDbEntity
  8
0
 62
     0
100
AcDbVertex
100
AcDb2dVertex
 10
789.0453294992567
 20
459.8220176540228
 30
3.646124999999996
 70
     8
  0
VERTEX
  5
5815B
330
5812D
100
AcDbEntity
  8
0
 62
     0
100
AcDbVertex
100
AcDb2dVertex
 10
789.2167527015035
 20
459.944812674672
 30
3.646124999999996
 70
     8
  0
VERTEX
  5
5815C
330
5812D
100
AcDbEntity
  8
0
 62
     0
100
AcDbVertex
100
AcDb2dVertex
 10
789.3919358660767
 20
460.0593441557147
 30
3.646124999999996
 70
     8
  0
VERTEX
  5
5815D
330
5812D
100
AcDbEntity
  8
0
 62
     0
100
AcDbVertex
100
AcDb2dVertex
 10
789.5729469848117
 20
460.1654242887172
 30
3.646124999999996
 70
     8
  0
VERTEX
  5
5815E
330
5812D
100
AcDbEntity
  8
0
 62
     0
100
AcDbVertex
100
AcDb2dVertex
 10
789.7618540495532
 20
460.2628652652474
 30
3.646124999999996
 70
     8
  0
VERTEX
  5
5815F
330
5812D
100
AcDbEntity
  8
0
 62
     0
100
AcDbVertex
100
AcDb2dVertex
 10
789.9607250521483
 20
460.3514792768745
 30
3.646124999999996
 70
     8
  0
VERTEX
  5
58160
330
5812D
100
AcDbEntity
  8
0
 62
     0
100
AcDbVertex
100
AcDb2dVertex
 10
790.1711579858747
 20
460.4311098162433
 30
3.646124999999996
 70
     8
  0
VERTEX
  5
58161
330
5812D
100
AcDbEntity
  8
0
 62
     0
100
AcDbVertex
100
AcDb2dVertex
 10
790.3928708497642
 20
460.501725580312
 30
3.646124999999996
 70
     8
  0
VERTEX
  5
58162
330
5812D
100
AcDbEntity
  8
0
 62
     0
100
AcDbVertex
100
AcDb2dVertex
 10
790.6251116442811
 20
460.5633265671166
 30
3.646124999999996
 70
     8
  0
VERTEX
  5
58163
330
5812D
100
AcDbEntity
  8
0
 62
     0
100
AcDbVertex
100
AcDb2dVertex
 10
790.8671283698963
 20
460.6159127746936
 30
3.646124999999996
 70
     8
  0
VERTEX
  5
58164
330
5812D
100
AcDbEntity
  8
0
 62
     0
100
AcDbVertex
100
AcDb2dVertex
 10
791.1181690270711
 20
460.6594842010795
 30
3.646124999999996
 70
     8
  0
VERTEX
  5
58165
330
5812D
100
AcDbEntity
  8
0
 62
     0
100
AcDbVertex
100
AcDb2dVertex
 10
791.3774816162765
 20
460.694040844312
 30
3.646124999999996
 70
     8
  0
VERTEX
  5
58166
330
5812D
100
AcDbEntity
  8
0
 62
     0
100
AcDbVertex
100
AcDb2dVertex
 10
791.6443141379768
 20
460.7195827024263
 30
3.646124999999996
 70
     8
  0
VERTEX
  5
58167
330
5812D
100
AcDbEntity
  8
0
 62
     0
100
AcDbVertex
100
AcDb2dVertex
 10
791.9179145926428
 20
460.7361097734586
 30
3.646124999999996
 70
     8
  0
VERTEX
  5
58168
330
5812D
100
AcDbEntity
  8
0
 62
     0
100
AcDbVertex
100
AcDb2dVertex
 10
792.1972489850029
 20
460.743778562799
 30
3.646124999999996
 70
     8
  0
VERTEX
  5
58169
330
5812D
100
AcDbEntity
  8
0
 62
     0
100
AcDbVertex
100
AcDb2dVertex
 10
792.4801553368549
 20
460.7433716052577
 30
3.646124999999996
 70
     8
  0
VERTEX
  5
5816A
330
5812D
100
AcDbEntity
  8
0
 62
     0
100
AcDbVertex
100
AcDb2dVertex
 10
792.7641896742632
 20
460.7358279429944
 30
3.646124999999996
 70
     8
  0
VERTEX
  5
5816B
330
5812D
100
AcDbEntity
  8
0
 62
     0
100
AcDbVertex
100
AcDb2dVertex
 10
793.0469080232867
 20
460.72208661817
 30
3.646124999999996
 70
     8
  0
VERTEX
  5
5816C
330
5812D
100
AcDbEntity
  8
0
 62
     0
100
AcDbVertex
100
AcDb2dVertex
 10
793.3258664099898
 20
460.7030866729498
 30
3.646124999999996
 70
     8
  0
VERTEX
  5
5816D
330
5812D
100
AcDbEntity
  8
0
 62
     0
100
AcDbVertex
100
AcDb2dVertex
 10
793.5986208604342
 20
460.679767149492
 30
3.646124999999996
 70
     8
  0
VERTEX
  5
5816E
330
5812D
100
AcDbEntity
  8
0
 62
     0
100
AcDbVertex
100
AcDb2dVertex
 10
793.8627274006819
 20
460.6530670899619
 30
3.646124999999996
 70
     8
  0
VERTEX
  5
5816F
330
5812D
100
AcDbEntity
  8
0
 62
     0
100
AcDbVertex
100
AcDb2dVertex
 10
794.115742056797
 20
460.6239255365191
 30
3.646124999999996
 70
     8
  0
VERTEX
  5
58170
330
5812D
100
AcDbEntity
  8
0
 62
     0
100
AcDbVertex
100
AcDb2dVertex
 10
794.3560668459672
 20
460.5931563253774
 30
3.646124999999996
 70
     8
  0
VERTEX
  5
58171
330
5812D
100
AcDbEntity
  8
0
 62
     0
100
AcDbVertex
100
AcDb2dVertex
 10
794.5854877499064
 20
460.5610724689539
 30
3.646124999999996
 70
     8
  0
VERTEX
  5
58172
330
5812D
100
AcDbEntity
  8
0
 62
     0
100
AcDbVertex
100
AcDb2dVertex
 10
794.806636741454
 20
460.5278617737174
 30
3.646124999999996
 70
     8
  0
VERTEX
  5
58173
330
5812D
100
AcDbEntity
  8
0
 62
     0
100
AcDbVertex
100
AcDb2dVertex
 10
795.0221457934442
 20
460.4937120461364
 30
3.646124999999996
 70
     8
  0
VERTEX
  5
58174
330
5812D
100
AcDbEntity
  8
0
 62
     0
100
AcDbVertex
100
AcDb2dVertex
 10
795.234646878722
 20
460.4588110926825
 30
3.646124999999996
 70
     8
  0
VERTEX
  5
58175
330
5812D
100
AcDbEntity
  8
0
 62
     0
100
AcDbVertex
100
AcDb2dVertex
 10
795.4467719701215
 20
460.4233467198199
 30
3.646124999999996
 70
     8
  0
VERTEX
  5
58176
330
5812D
100
AcDbEntity
  8
0
 62
     0
100
AcDbVertex
100
AcDb2dVertex
 10
795.6611530404854
 20
460.3875067340215
 30
3.646124999999996
 70
     8
  0
VERTEX
  5
58177
330
5812D
100
AcDbEntity
  8
0
 62
     0
100
AcDbVertex
100
AcDb2dVertex
 10
795.880422062653
 20
460.3514789417531
 30
3.646124999999996
 70
     8
  0
VERTEX
  5
58178
330
5812D
100
AcDbEntity
  8
0
 62
     0
100
AcDbVertex
100
AcDb2dVertex
 10
796.1066470147211
 20
460.3161084770352
 30
3.646124999999996
 70
     8
  0
VERTEX
  5
58179
330
5812D
100
AcDbEntity
  8
0
 62
     0
100
AcDbVertex
100
AcDb2dVertex
 10
796.3396398958243
 20
460.2848697840849
 30
3.646124999999996
 70
     8
  0
VERTEX
  5
5817A
330
5812D
100
AcDbEntity
  8
0
 62
     0
100
AcDbVertex
100
AcDb2dVertex
 10
796.5786487103578
 20
460.2618946346683
 30
3.646124999999996
 70
     8
  0
VERTEX
  5
5817B
330
5812D
100
AcDbEntity
  8
0
 62
     0
100
AcDbVertex
100
AcDb2dVertex
 10
796.822921462716
 20
460.2513148005515
 30
3.646124999999996
 70
     8
  0
VERTEX
  5
5817C
330
5812D
100
AcDbEntity
  8
0
 62
     0
100
AcDbVertex
100
AcDb2dVertex
 10
797.0717061572911
 20
460.257262053505
 30
3.646124999999996
 70
     8
  0
VERTEX
  5
5817D
330
5812D
100
AcDbEntity
  8
0
 62
     0
100
AcDbVertex
100
AcDb2dVertex
 10
797.3242507984807
 20
460.2838681652935
 30
3.646124999999996
 70
     8
  0
VERTEX
  5
5817E
330
5812D
100
AcDbEntity
  8
0
 62
     0
100
AcDbVertex
100
AcDb2dVertex
 10
797.5798033906735
 20
460.3352649076845
 30
3.646124999999996
 70
     8
  0
VERTEX
  5
5817F
330
5812D
100
AcDbEntity
  8
0
 62
     0
100
AcDbVertex
100
AcDb2dVertex
 10
797.8376119382674
 20
460.4155840524442
 30
3.646124999999996
 70
     8
  0
VERTEX
  5
58180
330
5812D
100
AcDbEntity
  8
0
 62
     0
100
AcDbVertex
100
AcDb2dVertex
 10
798.0965797829683
 20
460.5279870310474
 30
3.646124999999996
 70
     8
  0
VERTEX
  5
58181
330
5812D
100
AcDbEntity
  8
0
 62
     0
100
AcDbVertex
100
AcDb2dVertex
 10
798.3542316157211
 20
460.671753913785
 30
3.646124999999996
 70
     8
  0
VERTEX
  5
58182
330
5812D
100
AcDbEntity
  8
0
 62
     0
100
AcDbVertex
100
AcDb2dVertex
 10
798.6077474647877
 20
460.8451944306593
 30
3.646124999999996
 70
     8
  0
VERTEX
  5
58183
330
5812D
100
AcDbEntity
  8
0
 62
     0
100
AcDbVertex
100
AcDb2dVertex
 10
798.8543073584247
 20
461.0466183116685
 30
3.646124999999996
 70
     8
  0
VERTEX
  5
58184
330
5812D
100
AcDbEntity
  8
0
 62
     0
100
AcDbVertex
100
AcDb2dVertex
 10
799.0910913248963
 20
461.2743352868121
 30
3.646124999999996
 70
     8
  0
VERTEX
  5
58185
330
5812D
100
AcDbEntity
  8
0
 62
     0
100
AcDbVertex
100
AcDb2dVertex
 10
799.315279392456
 20
461.5266550860897
 30
3.646124999999996
 70
     8
  0
VERTEX
  5
58186
330
5812D
100
AcDbEntity
  8
0
 62
     0
100
AcDbVertex
100
AcDb2dVertex
 10
799.5240515893658
 20
461.8018874394993
 30
3.646124999999996
 70
     8
  0
VERTEX
  5
58187
330
5812D
100
AcDbEntity
  8
0
 62
     0
100
AcDbVertex
100
AcDb2dVertex
 10
799.7145879438876
 20
462.0983420770433
 30
3.646124999999996
 70
     8
  0
VERTEX
  5
58188
330
5812D
100
AcDbEntity
  8
0
 62
     0
100
AcDbVertex
100
AcDb2dVertex
 10
799.8850711418101
 20
462.4137966064626
 30
3.646124999999996
 70
     8
  0
VERTEX
  5
58189
330
5812D
100
AcDbEntity
  8
0
 62
     0
100
AcDbVertex
100
AcDb2dVertex
 10
800.0376944990744
 20
462.7439001464802
 30
3.646124999999996
 70
     8
  0
VERTEX
  5
5818A
330
5812D
100
AcDbEntity
  8
0
 62
     0
100
AcDbVertex
100
AcDb2dVertex
 10
800.1756539891484
 20
463.0837696935649
 30
3.646124999999996
 70
     8
  0
VERTEX
  5
5818B
330
5812D
100
AcDbEntity
  8
0
 62
     0
100
AcDbVertex
100
AcDb2dVertex
 10
800.3021455855058
 20
463.4285222441823
 30
3.646124999999996
 70
     8
  0
VERTEX
  5
5818C
330
5812D
100
AcDbEntity
  8
0
 62
     0
100
AcDbVertex
100
AcDb2dVertex
 10
800.4203652616144
 20
463.7732747947997
 30
3.646124999999996
 70
     8
  0
VERTEX
  5
5818D
330
5812D
100
AcDbEntity
  8
0
 62
     0
100
AcDbVertex
100
AcDb2dVertex
 10
800.5335089909451
 20
464.1131443418843
 30
3.646124999999996
 70
     8
  0
VERTEX
  5
5818E
330
5812D
100
AcDbEntity
  8
0
 62
     0
100
AcDbVertex
100
AcDb2dVertex
 10
800.6447727469687
 20
464.4432478819034
 30
3.646124999999996
 70
     8
  0
VERTEX
  5
5818F
330
5812D
100
AcDbEntity
  8
0
 62
     0
100
AcDbVertex
100
AcDb2dVertex
 10
800.7573525031586
 20
464.7587024113227
 30
3.646124999999996
 70
     8
  0
VERTEX
  5
58190
330
5812D
100
AcDbEntity
  8
0
 62
     0
100
AcDbVertex
100
AcDb2dVertex
 10
800.8738802375898
 20
465.0553761580484
 30
3.646124999999996
 70
     8
  0
VERTEX
  5
58191
330
5812D
100
AcDbEntity
  8
0
 62
     0
100
AcDbVertex
100
AcDb2dVertex
 10
800.9947319467544
 20
465.3321422757421
 30
3.646124999999996
 70
     8
  0
VERTEX
  5
58192
330
5812D
100
AcDbEntity
  8
0
 62
     0
100
AcDbVertex
100
AcDb2dVertex
 10
801.1197196317505
 20
465.5886251495002
 30
3.646124999999996
 70
     8
  0
VERTEX
  5
58193
330
5812D
100
AcDbEntity
  8
0
 62
     0
100
AcDbVertex
100
AcDb2dVertex
 10
801.2486552936797
 20
465.8244491644233
 30
3.646124999999996
 70
     8
  0
VERTEX
  5
58194
330
5812D
100
AcDbEntity
  8
0
 62
     0
100
AcDbVertex
100
AcDb2dVertex
 10
801.3813509336353
 20
466.0392387056107
 30
3.646124999999996
 70
     8
  0
VERTEX
  5
58195
330
5812D
100
AcDbEntity
  8
0
 62
     0
100
AcDbVertex
100
AcDb2dVertex
 10
801.5176185527217
 20
466.23261815816
 30
3.646124999999996
 70
     8
  0
VERTEX
  5
58196
330
5812D
100
AcDbEntity
  8
0
 62
     0
100
AcDbVertex
100
AcDb2dVertex
 10
801.6572701520344
 20
466.4042119071691
 30
3.646124999999996
 70
     8
  0
VERTEX
  5
58197
330
5812D
100
AcDbEntity
  8
0
 62
     0
100
AcDbVertex
100
AcDb2dVertex
 10
801.8001177326723
 20
466.5536443377399
 30
3.646124999999996
 70
     8
  0
VERTEX
  5
58198
330
5812D
100
AcDbEntity
  8
0
 62
     0
100
AcDbVertex
100
AcDb2dVertex
 10
801.9460986276824
 20
466.6813536685635
 30
3.646124999999996
 70
     8
  0
VERTEX
  5
58199
330
5812D
100
AcDbEntity
  8
0
 62
     0
100
AcDbVertex
100
AcDb2dVertex
 10
802.09565149789
 20
466.7910334527136
 30
3.646124999999996
 70
     8
  0
VERTEX
  5
5819A
330
5812D
100
AcDbEntity
  8
0
 62
     0
100
AcDbVertex
100
AcDb2dVertex
 10
802.249340336078
 20
466.88719107686
 30
3.646124999999996
 70
     8
  0
VERTEX
  5
5819B
330
5812D
100
AcDbEntity
  8
0
 62
     0
100
AcDbVertex
100
AcDb2dVertex
 10
802.4077291350229
 20
466.9743339276696
 30
3.646124999999996
 70
     8
  0
VERTEX
  5
5819C
330
5812D
100
AcDbEntity
  8
0
 62
     0
100
AcDbVertex
100
AcDb2dVertex
 10
802.5713818874985
 20
467.056969391811
 30
3.646124999999996
 70
     8
  0
VERTEX
  5
5819D
330
5812D
100
AcDbEntity
  8
0
 62
     0
100
AcDbVertex
100
AcDb2dVertex
 10
802.7408625862847
 20
467.1396048559522
 30
3.646124999999996
 70
     8
  0
VERTEX
  5
5819E
330
5812D
100
AcDbEntity
  8
0
 62
     0
100
AcDbVertex
100
AcDb2dVertex
 10
802.9167352241579
 20
467.2267477067618
 30
3.646124999999996
 70
     8
  0
VERTEX
  5
5819F
330
5812D
100
AcDbEntity
  8
0
 62
     0
100
AcDbVertex
100
AcDb2dVertex
 10
803.099563793895
 20
467.3229053309068
 30
3.646124999999996
 70
     8
  0
VERTEX
  5
581A0
330
5812D
100
AcDbEntity
  8
0
 62
     0
100
AcDbVertex
100
AcDb2dVertex
 10
803.2891602952865
 20
467.4316147747627
 30
3.646124999999996
 70
     8
  0
VERTEX
  5
581A1
330
5812D
100
AcDbEntity
  8
0
 62
     0
100
AcDbVertex
100
AcDb2dVertex
 10
803.4823287561728
 20
467.5525317235241
 30
3.646124999999996
 70
     8
  0
VERTEX
  5
581A2
330
5812D
100
AcDbEntity
  8
0
 62
     0
100
AcDbVertex
100
AcDb2dVertex
 10
803.6751212113991
 20
467.6843415220913
 30
3.646124999999996
 70
     8
  0
VERTEX
  5
581A3
330
5812D
100
AcDbEntity
  8
0
 62
     0
100
AcDbVertex
100
AcDb2dVertex
 10
803.8635896958195
 20
467.825729515366
 30
3.646124999999996
 70
     8
  0
VERTEX
  5
581A4
330
5812D
100
AcDbEntity
  8
0
 62
     0
100
AcDbVertex
100
AcDb2dVertex
 10
804.0437862442827
 20
467.9753810482459
 30
3.646124999999996
 70
     8
  0
VERTEX
  5
581A5
330
5812D
100
AcDbEntity
  8
0
 62
     0
100
AcDbVertex
100
AcDb2dVertex
 10
804.2117628916392
 20
468.131981465634
 30
3.646124999999996
 70
     8
  0
VERTEX
  5
581A6
330
5812D
100
AcDbEntity
  8
0
 62
     0
100
AcDbVertex
100
AcDb2dVertex
 10
804.3635716727408
 20
468.2942161124309
 30
3.646124999999996
 70
     8
  0
VERTEX
  5
581A7
330
5812D
100
AcDbEntity
  8
0
 62
     0
100
AcDbVertex
100
AcDb2dVertex
 10
804.4952646224354
 20
468.4607703335352
 30
3.646124999999996
 70
     8
  0
VERTEX
  5
581A8
330
5812D
100
AcDbEntity
  8
0
 62
     0
100
AcDbVertex
100
AcDb2dVertex
 10
804.6033794371155
 20
468.630532932821
 30
3.646124999999996
 70
     8
  0
VERTEX
  5
581A9
330
5812D
100
AcDbEntity
  8
0
 62
     0
100
AcDbVertex
100
AcDb2dVertex
 10
804.6863964593168
 20
468.8032065500455
 30
3.646124999999996
 70
     8
  0
VERTEX
  5
581AA
330
5812D
100
AcDbEntity
  8
0
 62
     0
100
AcDbVertex
100
AcDb2dVertex
 10
804.7432816931202
 20
468.9786972839364
 30
3.646124999999996
 70
     8
  0
VERTEX
  5
581AB
330
5812D
100
AcDbEntity
  8
0
 62
     0
100
AcDbVertex
100
AcDb2dVertex
 10
804.7730011426057
 20
469.156911233226
 30
3.646124999999996
 70
     8
  0
VERTEX
  5
581AC
330
5812D
100
AcDbEntity
  8
0
 62
     0
100
AcDbVertex
100
AcDb2dVertex
 10
804.7745208118467
 20
469.3377544966407
 30
3.646124999999996
 70
     8
  0
VERTEX
  5
581AD
330
5812D
100
AcDbEntity
  8
0
 62
     0
100
AcDbVertex
100
AcDb2dVertex
 10
804.7468067049248
 20
469.5211331729097
 30
3.646124999999996
 70
     8
  0
VERTEX
  5
581AE
330
5812D
100
AcDbEntity
  8
0
 62
     0
100
AcDbVertex
100
AcDb2dVertex
 10
804.688824825917
 20
469.7069533607638
 30
3.646124999999996
 70
     8
  0
VERTEX
  5
581AF
330
5812D
100
AcDbEntity
  8
0
 62
     0
100
AcDbVertex
100
AcDb2dVertex
 10
804.599541178899
 20
469.8951211589323
 30
3.646124999999996
 70
     8
  0
VERTEX
  5
581B0
330
5812D
100
AcDbEntity
  8
0
 62
     0
100
AcDbVertex
100
AcDb2dVertex
 10
804.4794257565502
 20
470.0865443055523
 30
3.646124999999996
 70
     8
  0
VERTEX
  5
581B1
330
5812D
100
AcDbEntity
  8
0
 62
     0
100
AcDbVertex
100
AcDb2dVertex
 10
804.3349645059096
 20
470.2861370964003
 30
3.646124999999996
 70
     8
  0
VERTEX
  5
581B2
330
5812D
100
AcDbEntity
  8
0
 62
     0
100
AcDbVertex
100
AcDb2dVertex
 10
804.1741473626226
 20
470.4998154666578
 30
3.646124999999996
 70
     8
  0
VERTEX
  5
581B3
330
5812D
100
AcDbEntity
  8
0
 62
     0
100
AcDbVertex
100
AcDb2dVertex
 10
804.0049642623303
 20
470.7334953515121
 30
3.646124999999996
 70
     8
  0
VERTEX
  5
581B4
330
5812D
100
AcDbEntity
  8
0
 62
     0
100
AcDbVertex
100
AcDb2dVertex
 10
803.8354051406695
 20
470.9930926861444
 30
3.646124999999996
 70
     8
  0
VERTEX
  5
581B5
330
5812D
100
AcDbEntity
  8
0
 62
     0
100
AcDbVertex
100
AcDb2dVertex
 10
803.6734599332847
 20
471.2845234057393
 30
3.646124999999996
 70
     8
  0
VERTEX
  5
581B6
330
5812D
100
AcDbEntity
  8
0
 62
     0
100
AcDbVertex
100
AcDb2dVertex
 10
803.5271185758125
 20
471.6137034454825
 30
3.646124999999996
 70
     8
  0
VERTEX
  5
581B7
330
5812D
100
AcDbEntity
  8
0
 62
     0
100
AcDbVertex
100
AcDb2dVertex
 10
803.4043710039
 20
471.9865487405569
 30
3.646124999999996
 70
     8
  0
VERTEX
  5
581B8
330
5812D
100
AcDbEntity
  8
0
 62
     0
100
AcDbVertex
100
AcDb2dVertex
 10
779.7255856428494
 20
458.1398538796277
 30
3.646124999999996
 70
    16
  0
VERTEX
  5
581B9
330
5812D
100
AcDbEntity
  8
0
 62
     0
100
AcDbVertex
100
AcDb2dVertex
 10
780.8806488828527
 20
457.6590663034695
 30
3.646124999999996
 70
    16
  0
VERTEX
  5
581BA
330
5812D
100
AcDbEntity
  8
0
 62
     0
100
AcDbVertex
100
AcDb2dVertex
 10
782.8057536126143
 20
457.0821208099346
 30
3.646124999999996
 70
    16
  0
VERTEX
  5
581BB
330
5812D
100
AcDbEntity
  8
0
 62
     0
100
AcDbVertex
100
AcDb2dVertex
 10
785.2121335194533
 20
457.1782777219486
 30
3.646124999999996
 70
    16
  0
VERTEX
  5
581BC
330
5812D
100
AcDbEntity
  8
0
 62
     0
100
AcDbVertex
100
AcDb2dVertex
 10
787.0409828116517
 20
458.0436969676136
 30
3.646124999999996
 70
    16
  0
VERTEX
  5
581BD
330
5812D
100
AcDbEntity
  8
0
 62
     0
100
AcDbVertex
100
AcDb2dVertex
 10
788.581067801897
 20
459.4860607014508
 30
3.646124999999996
 70
    16
  0
VERTEX
  5
581BE
330
5812D
100
AcDbEntity
  8
0
 62
     0
100
AcDbVertex
100
AcDb2dVertex
 10
789.8323844687354
 20
460.4476368591298
 30
3.646124999999996
 70
    16
  0
VERTEX
  5
581BF
330
5812D
100
AcDbEntity
  8
0
 62
     0
100
AcDbVertex
100
AcDb2dVertex
 10
791.8537446360576
 20
460.8322675232754
 30
3.646124999999996
 70
    16
  0
VERTEX
  5
581C0
330
5812D
100
AcDbEntity
  8
0
 62
     0
100
AcDbVertex
100
AcDb2dVertex
 10
794.2601245428964
 20
460.6399516885205
 30
3.646124999999996
 70
    16
  0
VERTEX
  5
581C1
330
5812D
100
AcDbEntity
  8
0
 62
     0
100
AcDbVertex
100
AcDb2dVertex
 10
795.8002095331387
 20
460.3514789417531
 30
3.646124999999996
 70
    16
  0
VERTEX
  5
581C2
330
5812D
100
AcDbEntity
  8
0
 62
     0
100
AcDbVertex
100
AcDb2dVertex
 10
797.8215697004611
 20
460.0630061949856
 30
3.646124999999996
 70
    16
  0
VERTEX
  5
581C3
330
5812D
100
AcDbEntity
  8
0
 62
     0
100
AcDbVertex
100
AcDb2dVertex
 10
799.9391832946185
 20
461.8900005929684
 30
3.646124999999996
 70
    16
  0
VERTEX
  5
581C4
330
5812D
100
AcDbEntity
  8
0
 62
     0
100
AcDbVertex
100
AcDb2dVertex
 10
800.7092247843797
 20
464.9670438953976
 30
3.646124999999996
 70
    16
  0
VERTEX
  5
581C5
330
5812D
100
AcDbEntity
  8
0
 62
     0
100
AcDbVertex
100
AcDb2dVertex
 10
801.7680325868198
 20
466.794038293379
 30
3.646124999999996
 70
    16
  0
VERTEX
  5
581C6
330
5812D
100
AcDbEntity
  8
0
 62
     0
100
AcDbVertex
100
AcDb2dVertex
 10
803.0193512643837
 20
467.1786689575231
 30
3.646124999999996
 70
    16
  0
VERTEX
  5
581C7
330
5812D
100
AcDbEntity
  8
0
 62
     0
100
AcDbVertex
100
AcDb2dVertex
 10
804.7519451190243
 20
468.428717861971
 30
3.646124999999996
 70
    16
  0
VERTEX
  5
581C8
330
5812D
100
AcDbEntity
  8
0
 62
     0
100
AcDbVertex
100
AcDb2dVertex
 10
804.9444559941452
 20
469.8710815958082
 30
3.646124999999996
 70
    16
  0
VERTEX
  5
581C9
330
5812D
100
AcDbEntity
  8
0
 62
     0
100
AcDbVertex
100
AcDb2dVertex
 10
803.6931373165817
 20
470.9288156708638
 30
3.646124999999996
 70
    16
  0
VERTEX
  5
581CA
330
5812D
100
AcDbEntity
  8
0
 62
     0
100
AcDbVertex
100
AcDb2dVertex
 10
803.4043710039
 20
471.9865487405569
 30
3.646124999999996
 70
    16
  0
SEQEND
  5
581CB
330
5812D
100
AcDbEntity
  8
0
 62
     0
  0
ARC
  5
581CC
330
458D6
100
AcDbEntity
  8
0
 62
     0
100
AcDbCircle
 10
784.3753971387923
 20
465.6508368326081
 30
3.646124999999996
 40
5.08
100
AcDbArc
 50
270.0
 51
61.04497562813933
  0
INSERT
  5
581CD
330
458D6
100
AcDbEntity
  8
0
 62
     0
100
AcDbBlockReference
  2
PHILL
 10
783.9943971387927
 20
465.6508368326081
 30
3.646124999999996
 41
25.4
 42
25.4
 43
25.4
 50
341.134058752914
  0
CIRCLE
  5
581CE
330
458D6
100
AcDbEntity
  8
0
 62
     0
100
AcDbCircle
 10
783.9943971387927
 20
465.6508368326081
 30
3.646124999999996
 40
3.96875
  0
ARC
  5
581CF
330
458D6
100
AcDbEntity
  8
0
  6
Continuous
 62
     0
100
AcDbCircle
 10
780.8193971387927
 20
468.9528368326079
 30
3.646124999999996
 40
3.174999999999999
100
AcDbArc
 50
90.0
 51
180.0
  0
LINE
  5
581D0
330
458D6
100
AcDbEntity
  8
0
 62
     0
100
AcDbLine
 10
788.3773159983077
 20
459.300836832608
 30
3.646124999999996
 11
783.4228971387918
 21
459.300836832608
 31
3.646124999999996
  0
LINE
  5
581D1
330
458D6
100
AcDbEntity
  8
0
 62
     0
100
AcDbLine
 10
789.7082251947829
 20
460.1898368326087
 30
3.646124999999996
 11
783.4228971387918
 21
460.1898368326087
 31
3.646124999999996
  0
ARC
  5
581D2
330
458D6
100
AcDbEntity
  8
0
 62
     0
100
AcDbCircle
 10
783.4228971387918
 20
457.713336832608
 30
3.646124999999996
 40
1.587499999999999
100
AcDbArc
 50
90.0
 51
180.0
  0
ARC
  5
581D3
330
458D6
100
AcDbEntity
  8
0
 62
     0
100
AcDbCircle
 10
783.4228971387918
 20
457.713336832608
 30
3.646124999999996
 40
2.4765
100
AcDbArc
 50
90.0
 51
180.0
  0
CIRCLE
  5
581D4
330
458D6
100
AcDbEntity
  8
0
 62
     0
100
AcDbCircle
 10
793.2653971387929
 20
465.6508368326081
 30
3.646124999999996
 40
2.222499999999999
  0
ARC
  5
581D5
330
458D6
100
AcDbEntity
  8
0
 62
     0
100
AcDbCircle
 10
793.2653971387929
 20
465.6508368326081
 30
3.646124999999996
 40
5.462269873025481
100
AcDbArc
 50
292.6934489569337
 51
6.890994782537673
  0
ARC
  5
581D6
330
458D6
100
AcDbEntity
  8
0
 62
     0
100
AcDbCircle
 10
793.2653971387929
 20
465.6508368326081
 30
3.646124999999996
 40
6.351269873025481
100
AcDbArc
 50
303.0366729955255
 51
6.890994782537673
  0
ARC
  5
581D7
330
458D6
100
AcDbEntity
  8
0
 62
     0
100
AcDbCircle
 10
801.1468190185603
 20
466.6033368326086
 30
3.646124999999996
 40
1.587499999999999
100
AcDbArc
 50
90.0
 51
186.8909947825376
  0
ARC
  5
581D8
330
458D6
100
AcDbEntity
  8
0
 62
     0
100
AcDbCircle
 10
801.1468190185603
 20
466.6033368326086
 30
3.646124999999996
 40
2.4765
100
AcDbArc
 50
90.0
 51
186.8909947825376
  0
ARC
  5
581D9
330
458D6
100
AcDbEntity
  8
0
 62
     0
100
AcDbCircle
 10
802.2185941548734
 20
466.6033368326086
 30
3.646124999999996
 40
3.4925
100
AcDbArc
 50
90.0
 51
164.4751537870814
  0
LINE
  5
581DA
330
458D6
100
AcDbEntity
  8
0
 62
     0
100
AcDbLine
 10
802.2185941548734
 20
470.0958368326083
 30
3.646124999999996
 11
804.4727000122268
 21
470.0958368326083
 31
3.646124999999996
  0
LINE
  5
581DB
330
458D6
100
AcDbEntity
  8
0
 62
     0
100
AcDbLine
 10
804.2668359706516
 20
468.1908368326086
 30
3.646124999999996
 11
801.1468190185603
 21
468.1908368326086
 31
3.646124999999996
  0
LINE
  5
581DC
330
458D6
100
AcDbEntity
  8
0
 62
     0
100
AcDbLine
 10
804.7601480030804
 20
469.0798368326078
 30
3.646124999999996
 11
801.2018810483629
 21
469.0798368326078
 31
3.646124999999996
  0
ARC
  5
581DD
330
458D6
100
AcDbEntity
  8
0
 62
     0
100
AcDbCircle
 10
851.1142001227092
 20
466.6033368326086
 30
3.646124999999996
 40
3.4925
100
AcDbArc
 50
0.0
 51
90.0
  0
ARC
  5
581DE
330
458D6
100
AcDbEntity
  8
0
 62
     0
100
AcDbCircle
 10
852.1859752590254
 20
466.6033368326086
 30
3.646124999999996
 40
2.4765
100
AcDbArc
 50
353.1090052174623
 51
90.0
  0
ARC
  5
581DF
330
458D6
100
AcDbEntity
  8
0
 62
     0
100
AcDbCircle
 10
860.0673971387928
 20
465.6508368326081
 30
3.646124999999996
 40
5.462269873025481
100
AcDbArc
 50
173.1090052174623
 51
244.3832777188589
  0
ARC
  5
581E0
330
458D6
100
AcDbEntity
  8
0
 62
     0
100
AcDbCircle
 10
860.0673971387928
 20
465.6508368326081
 30
3.646124999999996
 40
6.351269873025481
100
AcDbArc
 50
173.1090052174623
 51
234.7493880596931
  0
LINE
  5
581E1
330
458D6
100
AcDbEntity
  8
0
 62
     0
100
AcDbLine
 10
848.8600942653588
 20
470.0958368326083
 30
3.646124999999996
 11
866.4980527139505
 21
470.0958368326083
 31
3.646124999999996
  0
POLYLINE
  5
581E2
330
458D6
100
AcDbEntity
  8
0
 62
     0
100
AcDb2dPolyline
 66
     1
 10
0.0
 20
0.0
 30
3.646124999999996
  0
VERTEX
  5
581E3
330
581E2
100
AcDbEntity
  8
0
 62
     0
100
AcDbVertex
100
AcDb2dVertex
 10
862.7076826333016
 20
460.5633265671166
 30
3.646124999999996
  0
VERTEX
  5
581E4
330
581E2
100
AcDbEntity
  8
0
 62
     0
100
AcDbVertex
100
AcDb2dVertex
 10
862.4656659076896
 20
460.6159127746936
 30
3.646124999999996
  0
VERTEX
  5
581E5
330
581E2
100
AcDbEntity
  8
0
 62
     0
100
AcDbVertex
100
AcDb2dVertex
 10
862.2146252505144
 20
460.6594842010795
 30
3.646124999999996
  0
VERTEX
  5
581E6
330
581E2
100
AcDbEntity
  8
0
 62
     0
100
AcDbVertex
100
AcDb2dVertex
 10
861.9553126613091
 20
460.694040844312
 30
3.646124999999996
  0
VERTEX
  5
581E7
330
581E2
100
AcDbEntity
  8
0
 62
     0
100
AcDbVertex
100
AcDb2dVertex
 10
861.6884801396059
 20
460.7195827024263
 30
3.646124999999996
  0
VERTEX
  5
581E8
330
581E2
100
AcDbEntity
  8
0
 62
     0
100
AcDbVertex
100
AcDb2dVertex
 10
861.4148796849429
 20
460.7361097734586
 30
3.646124999999996
  0
VERTEX
  5
581E9
330
581E2
100
AcDbEntity
  8
0
 62
     0
100
AcDbVertex
100
AcDb2dVertex
 10
861.1355452925828
 20
460.743778562799
 30
3.646124999999996
  0
VERTEX
  5
581EA
330
581E2
100
AcDbEntity
  8
0
 62
     0
100
AcDbVertex
100
AcDb2dVertex
 10
860.8526389407279
 20
460.7433716052577
 30
3.646124999999996
  0
VERTEX
  5
581EB
330
581E2
100
AcDbEntity
  8
0
 62
     0
100
AcDbVertex
100
AcDb2dVertex
 10
860.5686046033225
 20
460.7358279429944
 30
3.646124999999996
  0
VERTEX
  5
581EC
330
581E2
100
AcDbEntity
  8
0
 62
     0
100
AcDbVertex
100
AcDb2dVertex
 10
860.2858862542962
 20
460.72208661817
 30
3.646124999999996
  0
VERTEX
  5
581ED
330
581E2
100
AcDbEntity
  8
0
 62
     0
100
AcDbVertex
100
AcDb2dVertex
 10
860.0069278675929
 20
460.7030866729498
 30
3.646124999999996
  0
VERTEX
  5
581EE
330
581E2
100
AcDbEntity
  8
0
 62
     0
100
AcDbVertex
100
AcDb2dVertex
 10
859.7341734171514
 20
460.679767149492
 30
3.646124999999996
  0
VERTEX
  5
581EF
330
581E2
100
AcDbEntity
  8
0
 62
     0
100
AcDbVertex
100
AcDb2dVertex
 10
859.4700668769009
 20
460.6530670899619
 30
3.646124999999996
  0
VERTEX
  5
581F0
330
581E2
100
AcDbEntity
  8
0
 62
     0
100
AcDbVertex
100
AcDb2dVertex
 10
859.2170522207887
 20
460.6239255365191
 30
3.646124999999996
  0
VERTEX
  5
581F1
330
581E2
100
AcDbEntity
  8
0
 62
     0
100
AcDbVertex
100
AcDb2dVertex
 10
858.9767274316155
 20
460.5931563253774
 30
3.646124999999996
  0
VERTEX
  5
581F2
330
581E2
100
AcDbEntity
  8
0
 62
     0
100
AcDbVertex
100
AcDb2dVertex
 10
858.7473065276762
 20
460.5610724689539
 30
3.646124999999996
  0
VERTEX
  5
581F3
330
581E2
100
AcDbEntity
  8
0
 62
     0
100
AcDbVertex
100
AcDb2dVertex
 10
858.5261575361316
 20
460.5278617737174
 30
3.646124999999996
  0
VERTEX
  5
581F4
330
581E2
100
AcDbEntity
  8
0
 62
     0
100
AcDbVertex
100
AcDb2dVertex
 10
858.3106484841387
 20
460.4937120461364
 30
3.646124999999996
  0
VERTEX
  5
581F5
330
581E2
100
AcDbEntity
  8
0
 62
     0
100
AcDbVertex
100
AcDb2dVertex
 10
858.0981473988636
 20
460.4588110926825
 30
3.646124999999996
  0
VERTEX
  5
581F6
330
581E2
100
AcDbEntity
  8
0
 62
     0
100
AcDbVertex
100
AcDb2dVertex
 10
857.8860223074611
 20
460.4233467198199
 30
3.646124999999996
  0
VERTEX
  5
581F7
330
581E2
100
AcDbEntity
  8
0
 62
     0
100
AcDbVertex
100
AcDb2dVertex
 10
857.6716412370974
 20
460.3875067340215
 30
3.646124999999996
  0
VERTEX
  5
581F8
330
581E2
100
AcDbEntity
  8
0
 62
     0
100
AcDbVertex
100
AcDb2dVertex
 10
857.4523722149326
 20
460.3514789417531
 30
3.646124999999996
  0
VERTEX
  5
581F9
330
581E2
100
AcDbEntity
  8
0
 62
     0
100
AcDbVertex
100
AcDb2dVertex
 10
857.2261472628648
 20
460.3161084770352
 30
3.646124999999996
  0
VERTEX
  5
581FA
330
581E2
100
AcDbEntity
  8
0
 62
     0
100
AcDbVertex
100
AcDb2dVertex
 10
856.9931543817613
 20
460.2848697840849
 30
3.646124999999996
  0
VERTEX
  5
581FB
330
581E2
100
AcDbEntity
  8
0
 62
     0
100
AcDbVertex
100
AcDb2dVertex
 10
856.7541455672248
 20
460.2618946346683
 30
3.646124999999996
  0
VERTEX
  5
581FC
330
581E2
100
AcDbEntity
  8
0
 62
     0
100
AcDbVertex
100
AcDb2dVertex
 10
856.5098728148695
 20
460.2513148005515
 30
3.646124999999996
  0
VERTEX
  5
581FD
330
581E2
100
AcDbEntity
  8
0
 62
     0
100
AcDbVertex
100
AcDb2dVertex
 10
856.2610881202916
 20
460.257262053505
 30
3.646124999999996
  0
VERTEX
  5
581FE
330
581E2
100
AcDbEntity
  8
0
 62
     0
100
AcDbVertex
100
AcDb2dVertex
 10
856.0085434791048
 20
460.2838681652935
 30
3.646124999999996
  0
VERTEX
  5
581FF
330
581E2
100
AcDbEntity
  8
0
 62
     0
100
AcDbVertex
100
AcDb2dVertex
 10
855.7529908869121
 20
460.3352649076845
 30
3.646124999999996
  0
VERTEX
  5
58200
330
581E2
100
AcDbEntity
  8
0
 62
     0
100
AcDbVertex
100
AcDb2dVertex
 10
855.4951823393153
 20
460.4155840524442
 30
3.646124999999996
  0
VERTEX
  5
58201
330
581E2
100
AcDbEntity
  8
0
 62
     0
100
AcDbVertex
100
AcDb2dVertex
 10
855.2362144946172
 20
460.5279870310474
 30
3.646124999999996
  0
VERTEX
  5
58202
330
581E2
100
AcDbEntity
  8
0
 62
     0
100
AcDbVertex
100
AcDb2dVertex
 10
854.9785626618644
 20
460.671753913785
 30
3.646124999999996
  0
VERTEX
  5
58203
330
581E2
100
AcDbEntity
  8
0
 62
     0
100
AcDbVertex
100
AcDb2dVertex
 10
854.7250468127979
 20
460.8451944306593
 30
3.646124999999996
  0
VERTEX
  5
58204
330
581E2
100
AcDbEntity
  8
0
 62
     0
100
AcDbVertex
100
AcDb2dVertex
 10
854.4784869191582
 20
461.0466183116685
 30
3.646124999999996
  0
VERTEX
  5
58205
330
581E2
100
AcDbEntity
  8
0
 62
     0
100
AcDbVertex
100
AcDb2dVertex
 10
854.2417029526893
 20
461.2743352868121
 30
3.646124999999996
  0
VERTEX
  5
58206
330
581E2
100
AcDbEntity
  8
0
 62
     0
100
AcDbVertex
100
AcDb2dVertex
 10
854.0175148851297
 20
461.5266550860897
 30
3.646124999999996
  0
VERTEX
  5
58207
330
581E2
100
AcDbEntity
  8
0
 62
     0
100
AcDbVertex
100
AcDb2dVertex
 10
853.8087426882169
 20
461.8018874394993
 30
3.646124999999996
  0
VERTEX
  5
58208
330
581E2
100
AcDbEntity
  8
0
 62
     0
100
AcDbVertex
100
AcDb2dVertex
 10
853.618206333698
 20
462.0983420770433
 30
3.646124999999996
  0
VERTEX
  5
58209
330
581E2
100
AcDbEntity
  8
0
 62
     0
100
AcDbVertex
100
AcDb2dVertex
 10
853.4477231357724
 20
462.4137966064626
 30
3.646124999999996
  0
VERTEX
  5
5820A
330
581E2
100
AcDbEntity
  8
0
 62
     0
100
AcDbVertex
100
AcDb2dVertex
 10
853.2950997785082
 20
462.7439001464802
 30
3.646124999999996
  0
VERTEX
  5
5820B
330
581E2
100
AcDbEntity
  8
0
 62
     0
100
AcDbVertex
100
AcDb2dVertex
 10
853.1571402884342
 20
463.0837696935649
 30
3.646124999999996
  0
VERTEX
  5
5820C
330
581E2
100
AcDbEntity
  8
0
 62
     0
100
AcDbVertex
100
AcDb2dVertex
 10
853.03064869208
 20
463.4285222441823
 30
3.646124999999996
  0
VERTEX
  5
5820D
330
581E2
100
AcDbEntity
  8
0
 62
     0
100
AcDbVertex
100
AcDb2dVertex
 10
852.912429015971
 20
463.7732747947997
 30
3.646124999999996
  0
VERTEX
  5
5820E
330
581E2
100
AcDbEntity
  8
0
 62
     0
100
AcDbVertex
100
AcDb2dVertex
 10
852.7992852866404
 20
464.1131443418843
 30
3.646124999999996
  0
VERTEX
  5
5820F
330
581E2
100
AcDbEntity
  8
0
 62
     0
100
AcDbVertex
100
AcDb2dVertex
 10
852.6880215306141
 20
464.4432478819034
 30
3.646124999999996
  0
VERTEX
  5
58210
330
581E2
100
AcDbEntity
  8
0
 62
     0
100
AcDbVertex
100
AcDb2dVertex
 10
852.5754417744241
 20
464.7587024113227
 30
3.646124999999996
  0
VERTEX
  5
58211
330
581E2
100
AcDbEntity
  8
0
 62
     0
100
AcDbVertex
100
AcDb2dVertex
 10
852.4589140399957
 20
465.0553761580484
 30
3.646124999999996
  0
VERTEX
  5
58212
330
581E2
100
AcDbEntity
  8
0
 62
     0
100
AcDbVertex
100
AcDb2dVertex
 10
852.3380623308312
 20
465.3321422757421
 30
3.646124999999996
  0
VERTEX
  5
58213
330
581E2
100
AcDbEntity
  8
0
 62
     0
100
AcDbVertex
100
AcDb2dVertex
 10
852.2130746458351
 20
465.5886251495002
 30
3.646124999999996
  0
VERTEX
  5
58214
330
581E2
100
AcDbEntity
  8
0
 62
     0
100
AcDbVertex
100
AcDb2dVertex
 10
852.0841389839059
 20
465.8244491644233
 30
3.646124999999996
  0
VERTEX
  5
58215
330
581E2
100
AcDbEntity
  8
0
 62
     0
100
AcDbVertex
100
AcDb2dVertex
 10
851.9514433439473
 20
466.0392387056107
 30
3.646124999999996
  0
VERTEX
  5
58216
330
581E2
100
AcDbEntity
  8
0
 62
     0
100
AcDbVertex
100
AcDb2dVertex
 10
851.8151757248611
 20
466.23261815816
 30
3.646124999999996
  0
VERTEX
  5
58217
330
581E2
100
AcDbEntity
  8
0
 62
     0
100
AcDbVertex
100
AcDb2dVertex
 10
851.6755241255484
 20
466.4042119071691
 30
3.646124999999996
  0
VERTEX
  5
58218
330
581E2
100
AcDbEntity
  8
0
 62
     0
100
AcDbVertex
100
AcDb2dVertex
 10
851.5326765449103
 20
466.5536443377399
 30
3.646124999999996
  0
VERTEX
  5
58219
330
581E2
100
AcDbEntity
  8
0
 62
     0
100
AcDbVertex
100
AcDb2dVertex
 10
851.3866956499033
 20
466.6813536685635
 30
3.646124999999996
  0
VERTEX
  5
5821A
330
581E2
100
AcDbEntity
  8
0
 62
     0
100
AcDbVertex
100
AcDb2dVertex
 10
851.2371427796926
 20
466.7910334527136
 30
3.646124999999996
  0
VERTEX
  5
5821B
330
581E2
100
AcDbEntity
  8
0
 62
     0
100
AcDbVertex
100
AcDb2dVertex
 10
851.0834539415048
 20
466.88719107686
 30
3.646124999999996
  0
VERTEX
  5
5821C
330
581E2
100
AcDbEntity
  8
0
 62
     0
100
AcDbVertex
100
AcDb2dVertex
 10
850.9250651425627
 20
466.9743339276696
 30
3.646124999999996
  0
VERTEX
  5
5821D
330
581E2
100
AcDbEntity
  8
0
 62
     0
100
AcDbVertex
100
AcDb2dVertex
 10
850.7614123900872
 20
467.056969391811
 30
3.646124999999996
  0
VERTEX
  5
5821E
330
581E2
100
AcDbEntity
  8
0
 62
     0
100
AcDbVertex
100
AcDb2dVertex
 10
850.591931691301
 20
467.1396048559522
 30
3.646124999999996
  0
VERTEX
  5
5821F
330
581E2
100
AcDbEntity
  8
0
 62
     0
100
AcDbVertex
100
AcDb2dVertex
 10
850.4160590534278
 20
467.2267477067618
 30
3.646124999999996
  0
VERTEX
  5
58220
330
581E2
100
AcDbEntity
  8
0
 62
     0
100
AcDbVertex
100
AcDb2dVertex
 10
850.2332304836878
 20
467.3229053309068
 30
3.646124999999996
  0
VERTEX
  5
58221
330
581E2
100
AcDbEntity
  8
0
 62
     0
100
AcDbVertex
100
AcDb2dVertex
 10
850.0436339822963
 20
467.4316147747627
 30
3.646124999999996
  0
VERTEX
  5
58222
330
581E2
100
AcDbEntity
  8
0
 62
     0
100
AcDbVertex
100
AcDb2dVertex
 10
849.8504655214128
 20
467.5525317235241
 30
3.646124999999996
  0
VERTEX
  5
58223
330
581E2
100
AcDbEntity
  8
0
 62
     0
100
AcDbVertex
100
AcDb2dVertex
 10
849.6576730661866
 20
467.6843415220913
 30
3.646124999999996
  0
VERTEX
  5
58224
330
581E2
100
AcDbEntity
  8
0
 62
     0
100
AcDbVertex
100
AcDb2dVertex
 10
849.4692045817659
 20
467.825729515366
 30
3.646124999999996
  0
VERTEX
  5
58225
330
581E2
100
AcDbEntity
  8
0
 62
     0
100
AcDbVertex
100
AcDb2dVertex
 10
849.2890080333031
 20
467.9753810482459
 30
3.646124999999996
  0
VERTEX
  5
58226
330
581E2
100
AcDbEntity
  8
0
 62
     0
100
AcDbVertex
100
AcDb2dVertex
 10
849.1210313859465
 20
468.131981465634
 30
3.646124999999996
  0
VERTEX
  5
58227
330
581E2
100
AcDbEntity
  8
0
 62
     0
100
AcDbVertex
100
AcDb2dVertex
 10
848.9692226048449
 20
468.2942161124309
 30
3.646124999999996
  0
VERTEX
  5
58228
330
581E2
100
AcDbEntity
  8
0
 62
     0
100
AcDbVertex
100
AcDb2dVertex
 10
848.8375296551474
 20
468.4607703335352
 30
3.646124999999996
  0
VERTEX
  5
58229
330
581E2
100
AcDbEntity
  8
0
 62
     0
100
AcDbVertex
100
AcDb2dVertex
 10
848.72941484047
 20
468.630532932821
 30
3.646124999999996
  0
VERTEX
  5
5822A
330
581E2
100
AcDbEntity
  8
0
 62
     0
100
AcDbVertex
100
AcDb2dVertex
 10
848.6463978182662
 20
468.8032065500455
 30
3.646124999999996
  0
VERTEX
  5
5822B
330
581E2
100
AcDbEntity
  8
0
 62
     0
100
AcDbVertex
100
AcDb2dVertex
 10
848.5895125844624
 20
468.9786972839364
 30
3.646124999999996
  0
VERTEX
  5
5822C
330
581E2
100
AcDbEntity
  8
0
 62
     0
100
AcDbVertex
100
AcDb2dVertex
 10
848.5597931349797
 20
469.156911233226
 30
3.646124999999996
  0
VERTEX
  5
5822D
330
581E2
100
AcDbEntity
  8
0
 62
     0
100
AcDbVertex
100
AcDb2dVertex
 10
848.5582734657389
 20
469.3377544966407
 30
3.646124999999996
  0
VERTEX
  5
5822E
330
581E2
100
AcDbEntity
  8
0
 62
     0
100
AcDbVertex
100
AcDb2dVertex
 10
848.5859875726607
 20
469.5211331729097
 30
3.646124999999996
  0
VERTEX
  5
5822F
330
581E2
100
AcDbEntity
  8
0
 62
     0
100
AcDbVertex
100
AcDb2dVertex
 10
848.6439694516686
 20
469.7069533607638
 30
3.646124999999996
  0
VERTEX
  5
58230
330
581E2
100
AcDbEntity
  8
0
 62
     0
100
AcDbVertex
100
AcDb2dVertex
 10
848.7332530986837
 20
469.8951211589323
 30
3.646124999999996
  0
VERTEX
  5
58231
330
581E2
100
AcDbEntity
  8
0
 62
     0
100
AcDbVertex
100
AcDb2dVertex
 10
848.8533685210354
 20
470.0865443055523
 30
3.646124999999996
  0
VERTEX
  5
58232
330
581E2
100
AcDbEntity
  8
0
 62
     0
100
AcDbVertex
100
AcDb2dVertex
 10
848.9978297716758
 20
470.2861370964003
 30
3.646124999999996
  0
VERTEX
  5
58233
330
581E2
100
AcDbEntity
  8
0
 62
     0
100
AcDbVertex
100
AcDb2dVertex
 10
849.1586469149602
 20
470.4998154666578
 30
3.646124999999996
  0
VERTEX
  5
58234
330
581E2
100
AcDbEntity
  8
0
 62
     0
100
AcDbVertex
100
AcDb2dVertex
 10
849.3278300152553
 20
470.7334953515121
 30
3.646124999999996
  0
VERTEX
  5
58235
330
581E2
100
AcDbEntity
  8
0
 62
     0
100
AcDbVertex
100
AcDb2dVertex
 10
849.4973891369161
 20
470.9930926861444
 30
3.646124999999996
  0
VERTEX
  5
58236
330
581E2
100
AcDbEntity
  8
0
 62
     0
100
AcDbVertex
100
AcDb2dVertex
 10
849.6593343443009
 20
471.2845234057393
 30
3.646124999999996
  0
VERTEX
  5
58237
330
581E2
100
AcDbEntity
  8
0
 62
     0
100
AcDbVertex
100
AcDb2dVertex
 10
849.8056757017705
 20
471.6137034454825
 30
3.646124999999996
  0
VERTEX
  5
58238
330
581E2
100
AcDbEntity
  8
0
 62
     0
100
AcDbVertex
100
AcDb2dVertex
 10
849.9284232736856
 20
471.9865487405569
 30
3.646124999999996
  0
SEQEND
  5
58239
330
581E2
100
AcDbEntity
  8
0
 62
     0
  0
LINE
  5
5823A
330
458D6
100
AcDbEntity
  8
0
 62
     0
100
AcDbLine
 10
852.9479752590248
 20
468.1908368326086
 30
3.646124999999996
 11
849.0659583069341
 21
468.1908368326086
 31
3.646124999999996
  0
LINE
  5
5823B
330
458D6
100
AcDbEntity
  8
0
 62
     0
100
AcDbLine
 10
852.8929132292219
 20
469.0798368326078
 30
3.646124999999996
 11
848.572646274505
 21
469.0798368326078
 31
3.646124999999996
  0
ARC
  5
5823C
330
458D6
100
AcDbEntity
  8
0
 62
     0
100
AcDbCircle
 10
852.1859752590254
 20
466.6033368326086
 30
3.646124999999996
 40
1.587499999999999
100
AcDbArc
 50
353.1090052174623
 51
90.0
  0
CIRCLE
  5
5823D
330
458D6
100
AcDbEntity
  8
0
 62
     0
100
AcDbCircle
 10
860.0673971387928
 20
465.6508368326081
 30
3.646124999999996
 40
2.222499999999999
  0
ARC
  5
5823E
330
458D6
100
AcDbEntity
  8
0
 62
     0
100
AcDbCircle
 10
868.9573971387932
 20
465.6508368326081
 30
3.646124999999996
 40
5.08
100
AcDbArc
 50
118.9550243718606
 51
270.0
  0
INSERT
  5
5823F
330
458D6
100
AcDbEntity
  8
0
 62
     0
100
AcDbBlockReference
  2
PHILL
 10
869.3383971387929
 20
465.6508368326081
 30
3.646124999999996
 41
25.4
 42
25.4
 43
25.4
  0
CIRCLE
  5
58240
330
458D6
100
AcDbEntity
  8
0
 62
     0
100
AcDbCircle
 10
869.3383971387929
 20
465.6508368326081
 30
3.646124999999996
 40
3.96875
  0
ARC
  5
58241
330
458D6
100
AcDbEntity
  8
0
  6
Continuous
 62
     0
100
AcDbCircle
 10
872.5133971387929
 20
468.9528368326079
 30
3.646124999999996
 40
3.174999999999999
100
AcDbArc
 50
0.0
 51
90.0
  0
LINE
  5
58242
330
458D6
100
AcDbEntity
  8
0
 62
     0
100
AcDbLine
 10
863.7125191339876
 20
460.1898368326087
 30
3.646124999999996
 11
869.9098971387911
 21
460.1898368326087
 31
3.646124999999996
  0
LINE
  5
58243
330
458D6
100
AcDbEntity
  8
0
 62
     0
100
AcDbLine
 10
864.9207191040364
 20
459.300836832608
 30
3.646124999999996
 11
869.9098971387911
 21
459.300836832608
 31
3.646124999999996
  0
POLYLINE
  5
58244
330
458D6
100
AcDbEntity
  8
0
 62
     0
100
AcDb2dPolyline
 66
     1
 10
0.0
 20
0.0
 30
3.646124999999996
  0
VERTEX
  5
58245
330
58244
100
AcDbEntity
  8
0
 62
     0
100
AcDbVertex
100
AcDb2dVertex
 10
875.5912095632734
 20
458.2119561118988
 30
3.646124999999996
  0
VERTEX
  5
58246
330
58244
100
AcDbEntity
  8
0
 62
     0
100
AcDbVertex
100
AcDb2dVertex
 10
874.9103277875683
 20
458.1774047543442
 30
3.646124999999996
  0
VERTEX
  5
58247
330
58244
100
AcDbEntity
  8
0
 62
     0
100
AcDbVertex
100
AcDb2dVertex
 10
874.344444451488
 20
458.1293299407874
 30
3.646124999999996
  0
VERTEX
  5
58248
330
58244
100
AcDbEntity
  8
0
 62
     0
100
AcDbVertex
100
AcDb2dVertex
 10
873.8767014969877
 20
458.069985548583
 30
3.646124999999996
  0
VERTEX
  5
58249
330
58244
100
AcDbEntity
  8
0
 62
     0
100
AcDbVertex
100
AcDb2dVertex
 10
873.4902408660142
 20
458.0016254550853
 30
3.646124999999996
  0
VERTEX
  5
5824A
330
58244
100
AcDbEntity
  8
0
 62
     0
100
AcDbVertex
100
AcDb2dVertex
 10
873.1682045005223
 20
457.9265035376489
 30
3.646124999999996
  0
VERTEX
  5
5824B
330
58244
100
AcDbEntity
  8
0
 62
     0
100
AcDbVertex
100
AcDb2dVertex
 10
872.8937343424613
 20
457.8468736736281
 30
3.646124999999996
  0
VERTEX
  5
5824C
330
58244
100
AcDbEntity
  8
0
 62
     0
100
AcDbVertex
100
AcDb2dVertex
 10
872.6499723337838
 20
457.7649897403775
 30
3.646124999999996
  0
VERTEX
  5
5824D
330
58244
100
AcDbEntity
  8
0
 62
     0
100
AcDbVertex
100
AcDb2dVertex
 10
872.4200604164391
 20
457.683105615253
 30
3.646124999999996
  0
VERTEX
  5
5824E
330
58244
100
AcDbEntity
  8
0
 62
     0
100
AcDbVertex
100
AcDb2dVertex
 10
872.1898562095976
 20
457.6032716864564
 30
3.646124999999996
  0
VERTEX
  5
5824F
330
58244
100
AcDbEntity
  8
0
 62
     0
100
AcDbVertex
100
AcDb2dVertex
 10
871.9560800413004
 20
457.5267243855917
 30
3.646124999999996
  0
VERTEX
  5
58250
330
58244
100
AcDbEntity
  8
0
 62
     0
100
AcDbVertex
100
AcDb2dVertex
 10
871.718167916808
 20
457.4544966551075
 30
3.646124999999996
  0
VERTEX
  5
58251
330
58244
100
AcDbEntity
  8
0
 62
     0
100
AcDbVertex
100
AcDb2dVertex
 10
871.4755558413765
 20
457.3876214374563
 30
3.646124999999996
  0
VERTEX
  5
58252
330
58244
100
AcDbEntity
  8
0
 62
     0
100
AcDbVertex
100
AcDb2dVertex
 10
871.2276798202656
 20
457.3271316750882
 30
3.646124999999996
  0
VERTEX
  5
58253
330
58244
100
AcDbEntity
  8
0
 62
     0
100
AcDbVertex
100
AcDb2dVertex
 10
870.973975858738
 20
457.2740603104545
 30
3.646124999999996
  0
VERTEX
  5
58254
330
58244
100
AcDbEntity
  8
0
 62
     0
100
AcDbVertex
100
AcDb2dVertex
 10
870.7138799620476
 20
457.229440286005
 30
3.646124999999996
  0
VERTEX
  5
58255
330
58244
100
AcDbEntity
  8
0
 62
     0
100
AcDbVertex
100
AcDb2dVertex
 10
870.4468281354598
 20
457.1943045441927
 30
3.646124999999996
  0
VERTEX
  5
58256
330
58244
100
AcDbEntity
  8
0
 62
     0
100
AcDbVertex
100
AcDb2dVertex
 10
870.1726950466943
 20
457.16954517245
 30
3.646124999999996
  0
VERTEX
  5
58257
330
58244
100
AcDbEntity
  8
0
 62
     0
100
AcDbVertex
100
AcDb2dVertex
 10
869.8931100133481
 20
457.155490838155
 30
3.646124999999996
  0
VERTEX
  5
58258
330
58244
100
AcDbEntity
  8
0
 62
     0
100
AcDbVertex
100
AcDb2dVertex
 10
869.6101410154872
 20
457.1523293536659
 30
3.646124999999996
  0
VERTEX
  5
58259
330
58244
100
AcDbEntity
  8
0
 62
     0
100
AcDbVertex
100
AcDb2dVertex
 10
869.3258560331686
 20
457.1602485313405
 30
3.646124999999996
  0
VERTEX
  5
5825A
330
58244
100
AcDbEntity
  8
0
 62
     0
100
AcDbVertex
100
AcDb2dVertex
 10
869.0423230464553
 20
457.1794361835413
 30
3.646124999999996
  0
VERTEX
  5
5825B
330
58244
100
AcDbEntity
  8
0
 62
     0
100
AcDbVertex
100
AcDb2dVertex
 10
868.7616100354103
 20
457.2100801226275
 30
3.646124999999996
  0
VERTEX
  5
5825C
330
58244
100
AcDbEntity
  8
0
 62
     0
100
AcDbVertex
100
AcDb2dVertex
 10
868.4857849800961
 20
457.252368160957
 30
3.646124999999996
  0
VERTEX
  5
5825D
330
58244
100
AcDbEntity
  8
0
 62
     0
100
AcDbVertex
100
AcDb2dVertex
 10
868.2169158605729
 20
457.3064881108895
 30
3.646124999999996
  0
VERTEX
  5
5825E
330
58244
100
AcDbEntity
  8
0
 62
     0
100
AcDbVertex
100
AcDb2dVertex
 10
867.9566319941088
 20
457.3725338792614
 30
3.646124999999996
  0
VERTEX
  5
5825F
330
58244
100
AcDbEntity
  8
0
 62
     0
100
AcDbVertex
100
AcDb2dVertex
 10
867.7048080467951
 20
457.4502237508038
 30
3.646124999999996
  0
VERTEX
  5
58260
330
58244
100
AcDbEntity
  8
0
 62
     0
100
AcDbVertex
100
AcDb2dVertex
 10
867.4608800219241
 20
457.5391821047253
 30
3.646124999999996
  0
VERTEX
  5
58261
330
58244
100
AcDbEntity
  8
0
 62
     0
100
AcDbVertex
100
AcDb2dVertex
 10
867.2242839227957
 20
457.6390333202357
 30
3.646124999999996
  0
VERTEX
  5
58262
330
58244
100
AcDbEntity
  8
0
 62
     0
100
AcDbVertex
100
AcDb2dVertex
 10
866.9944557526996
 20
457.7494017765403
 30
3.646124999999996
  0
VERTEX
  5
58263
330
58244
100
AcDbEntity
  8
0
 62
     0
100
AcDbVertex
100
AcDb2dVertex
 10
866.7708315149377
 20
457.8699118528493
 30
3.646124999999996
  0
VERTEX
  5
58264
330
58244
100
AcDbEntity
  8
0
 62
     0
100
AcDbVertex
100
AcDb2dVertex
 10
866.5528472128034
 20
458.0001879283694
 30
3.646124999999996
  0
VERTEX
  5
58265
330
58244
100
AcDbEntity
  8
0
 62
     0
100
AcDbVertex
100
AcDb2dVertex
 10
866.33993884959
 20
458.139854382309
 30
3.646124999999996
  0
VERTEX
  5
58266
330
58244
100
AcDbEntity
  8
0
 62
     0
100
AcDbVertex
100
AcDb2dVertex
 10
866.1316364293577
 20
458.2882538835182
 30
3.646124999999996
  0
VERTEX
  5
58267
330
58244
100
AcDbEntity
  8
0
 62
     0
100
AcDbVertex
100
AcDb2dVertex
 10
865.9278459591938
 20
458.4436022594176
 30
3.646124999999996
  0
VERTEX
  5
58268
330
58244
100
AcDbEntity
  8
0
 62
     0
100
AcDbVertex
100
AcDb2dVertex
 10
865.728567446958
 20
458.6038336270683
 30
3.646124999999996
  0
VERTEX
  5
58269
330
58244
100
AcDbEntity
  8
0
 62
     0
100
AcDbVertex
100
AcDb2dVertex
 10
865.5338009005054
 20
458.7668821035325
 30
3.646124999999996
  0
VERTEX
  5
5826A
330
58244
100
AcDbEntity
  8
0
 62
     0
100
AcDbVertex
100
AcDb2dVertex
 10
865.3435463276869
 20
458.9306818058711
 30
3.646124999999996
  0
VERTEX
  5
5826B
330
58244
100
AcDbEntity
  8
0
 62
     0
100
AcDbVertex
100
AcDb2dVertex
 10
865.1578037363572
 20
459.093166851148
 30
3.646124999999996
  0
VERTEX
  5
5826C
330
58244
100
AcDbEntity
  8
0
 62
     0
100
AcDbVertex
100
AcDb2dVertex
 10
864.9765731343736
 20
459.2522713564224
 30
3.646124999999996
  0
VERTEX
  5
5826D
330
58244
100
AcDbEntity
  8
0
 62
     0
100
AcDbVertex
100
AcDb2dVertex
 10
864.7998545295875
 20
459.4059294387583
 30
3.646124999999996
  0
VERTEX
  5
5826E
330
58244
100
AcDbEntity
  8
0
 62
     0
100
AcDbVertex
100
AcDb2dVertex
 10
864.6273032632402
 20
459.5523882276337
 30
3.646124999999996
  0
VERTEX
  5
5826F
330
58244
100
AcDbEntity
  8
0
 62
     0
100
AcDbVertex
100
AcDb2dVertex
 10
864.4571960101002
 20
459.6911469021994
 30
3.646124999999996
  0
VERTEX
  5
58270
330
58244
100
AcDbEntity
  8
0
 62
     0
100
AcDbVertex
100
AcDb2dVertex
 10
864.2874647783289
 20
459.8220176540228
 30
3.646124999999996
  0
VERTEX
  5
58271
330
58244
100
AcDbEntity
  8
0
 62
     0
100
AcDbVertex
100
AcDb2dVertex
 10
864.1160415760792
 20
459.944812674672
 30
3.646124999999996
  0
VERTEX
  5
58272
330
58244
100
AcDbEntity
  8
0
 62
     0
100
AcDbVertex
100
AcDb2dVertex
 10
863.940858411509
 20
460.0593441557147
 30
3.646124999999996
  0
VERTEX
  5
58273
330
58244
100
AcDbEntity
  8
0
 62
     0
100
AcDbVertex
100
AcDb2dVertex
 10
863.7598472927738
 20
460.1654242887172
 30
3.646124999999996
  0
VERTEX
  5
58274
330
58244
100
AcDbEntity
  8
0
 62
     0
100
AcDbVertex
100
AcDb2dVertex
 10
863.5709402280296
 20
460.2628652652474
 30
3.646124999999996
  0
VERTEX
  5
58275
330
58244
100
AcDbEntity
  8
0
 62
     0
100
AcDbVertex
100
AcDb2dVertex
 10
863.3720692254373
 20
460.3514792768745
 30
3.646124999999996
  0
VERTEX
  5
58276
330
58244
100
AcDbEntity
  8
0
 62
     0
100
AcDbVertex
100
AcDb2dVertex
 10
863.161636291708
 20
460.4311098162433
 30
3.646124999999996
  0
VERTEX
  5
58277
330
58244
100
AcDbEntity
  8
0
 62
     0
100
AcDbVertex
100
AcDb2dVertex
 10
862.9399234278187
 20
460.501725580312
 30
3.646124999999996
  0
SEQEND
  5
58278
330
58244
100
AcDbEntity
  8
0
 62
     0
  0
ARC
  5
58279
330
458D6
100
AcDbEntity
  8
0
 62
     0
100
AcDbCircle
 10
869.9098971387911
 20
457.713336832608
 30
3.646124999999996
 40
1.587499999999999
100
AcDbArc
 50
0.0
 51
90.0
  0
ARC
  5
5827A
330
458D6
100
AcDbEntity
  8
0
 62
     0
100
AcDbCircle
 10
869.9098971387911
 20
457.713336832608
 30
3.646124999999996
 40
2.4765
100
AcDbArc
 50
0.0
 51
90.0
  0
DIMENSION
  5
58296
330
458D6
100
AcDbEntity
  8
AREA1
100
AcDbDimension
  2
*D4
 10
860.0673971387928
 20
484.0843576503051
 30
3.646124999999996
 11
827.0105534556478
 21
484.0843576503051
 31
3.646124999999996
 70
   160
 71
     5
 42
66.80199999999991
  3
ABECAD_3D
100
AcDbAlignedDimension
 13
793.2653971387929
 23
465.6508368326081
 33
3.646124999999996
 14
860.0673971387928
 24
465.6508368326081
 34
3.646124999999996
100
AcDbRotatedDimension
  0
DIMENSION
  5
582A4
330
458D6
100
AcDbEntity
  8
AREA1
100
AcDbDimension
  2
*D5
 10
869.3383971387929
 20
497.9755804617632
 30
3.646124999999996
 11
828.31047386688
 21
497.9755804617632
 31
3.646124999999996
 70
   160
 71
     5
 42
85.34400000000028
  3
ABECAD_3D
100
AcDbAlignedDimension
 13
783.9943971387927
 23
465.6508368326081
 33
3.646124999999996
 14
869.3383971387929
 24
465.6508368326081
 34
3.646124999999996
100
AcDbRotatedDimension
  0
DIMENSION
  5
582B2
330
458D6
100
AcDbEntity
  8
AREA1
100
AcDbDimension
  2
*D6
 10
875.6883971387932
 20
512.7243844448437
 30
3.646124999999996
 11
827.8372146542858
 21
512.7243844448437
 31
3.646124999999996
 70
   160
 71
     5
 42
98.04400000000056
  3
ABECAD_3D
100
AcDbAlignedDimension
 13
777.6443971387926
 23
468.9528368326079
 33
3.646124999999996
 14
875.6883971387932
 24
468.9528368326079
 34
3.646124999999996
100
AcDbRotatedDimension
  0
DIMENSION
  5
582C0
330
458D6
100
AcDbEntity
  8
AREA1
100
AcDbDimension
  2
*D7
 10
931.9048354691355
 20
360.875836832608
 30
3.646124999999996
 11
931.9048354691355
 21
421.4887184907579
 31
3.646124999999996
 70
   160
 71
     5
 42
111.2519999999999
  3
ABECAD_3D
100
AcDbAlignedDimension
 13
872.5133971387929
 23
472.1278368326079
 33
3.646124999999996
 14
872.5133971387929
 24
360.875836832608
 34
3.646124999999996
 50
90.0
100
AcDbRotatedDimension
  0
DIMENSION
  5
582CE
330
458D6
100
AcDbEntity
  8
AREA1
100
AcDbDimension
  2
*D8
 10
918.4710522799058
 20
367.3528368326079
 30
3.646124999999996
 11
918.4710522799058
 21
421.160951123827
 31
3.646124999999996
 70
   160
 71
     5
 42
98.29800000000012
  3
ABECAD_3D
100
AcDbAlignedDimension
 13
869.3383971387929
 23
465.6508368326081
 33
3.646124999999996
 14
869.3383971387929
 24
367.3528368326079
 34
3.646124999999996
 50
90.0
100
AcDbRotatedDimension
  0
DIMENSION
  5
582E9
330
458D6
100
AcDbEntity
  8
AREA1
100
AcDbDimension
  2
*D9
 10
748.1158120974921
 20
429.4637364151563
 30
3.646124999999996
 11
739.1217263452501
 21
450.3629486611656
 31
3.646124999999996
 70
   160
 71
     5
 42
42.6641004174516
  3
ABECAD_3D
100
AcDbAlignedDimension
 13
780.8193971387927
 23
472.1278368326079
 33
3.646124999999996
 14
757.4640971387934
 24
429.4637364151563
 34
3.646124999999996
 50
90.0
100
AcDbRotatedDimension
  0
DIMENSION
  5
582F6
330
458D6
100
AcDbEntity
  8
AREA1
100
AcDbDimension
  2
*D10
 10
747.7560482566762
 20
360.875836832608
 30
3.646124999999996
 11
739.1217263452501
 21
378.82888145915
 31
3.646124999999996
 70
   160
 71
     5
 42
33.02789958254743
  3
ABECAD_3D
100
AcDbAlignedDimension
 13
757.4043208072177
 23
393.9037364151555
 33
3.646124999999996
 14
780.8193971387927
 24
360.875836832608
 34
3.646124999999996
 50
90.0
100
AcDbRotatedDimension
  0
DIMENSION
  5
58315
330
458D6
100
AcDbEntity
  8
AREA1
100
AcDbDimension
  2
*D11
 10
910.4455996225636
 20
252.0493940668085
 30
3.646124999999996
 11
919.4396839079265
 21
280.0966680921879
 31
3.646124999999996
 70
   160
 71
     5
 42
54.87936150095752
  3
ABECAD_3D
100
AcDbAlignedDimension
 13
874.4183971387913
 23
306.928755567766
 33
3.646124999999996
 14
874.4183971387913
 24
252.0493940668085
 34
3.646124999999996
 50
90.0
100
AcDbRotatedDimension
  0
LINE
  5
58359
330
458D6
100
AcDbEntity
  8
SCALE
100
AcDbLine
 10
694.4245090683182
 20
457.3754601026433
 30
3.646124999999996
 11
719.8245090683183
 21
457.3754601026433
 31
3.646124999999996
  0
LINE
  5
5835A
330
458D6
100
AcDbEntity
  8
SCALE
100
AcDbLine
 10
719.8245090683183
 20
454.8354601026432
 30
3.646124999999996
 11
719.8245090683183
 21
459.9154601026434
 31
3.646124999999996
  0
LINE
  5
5835B
330
458D6
100
AcDbEntity
  8
SCALE
100
AcDbLine
 10
694.4245090683182
 20
454.8354601026432
 30
3.646124999999996
 11
694.4245090683182
 21
459.9154601026434
 31
3.646124999999996
  0
LINE
  5
5835C
330
458D6
100
AcDbEntity
  8
SCALE
100
AcDbLine
 10
694.4245090683184
 20
462.5618838399366
 30
3.646124999999996
 11
694.4245090683184
 21
467.6418838399365
 31
3.646124999999996
  0
LINE
  5
5835D
330
458D6
100
AcDbEntity
  8
SCALE
100
AcDbLine
 10
704.4244890683184
 20
462.5618838399366
 30
3.646124999999996
 11
704.4244890683184
 21
467.6418838399365
 31
3.646124999999996
  0
LINE
  5
5835E
330
458D6
100
AcDbEntity
  8
SCALE
100
AcDbLine
 10
694.4245090683184
 20
465.1018838399365
 30
3.646124999999996
 11
704.4244890683184
 21
465.1018838399365
 31
3.646124999999996
  0
TEXT
  5
5835F
330
458D6
100
AcDbEntity
  8
SCALE
100
AcDbText
 10
695.9338318090922
 20
466.2636708298991
 30
3.646124999999996
 40
1.587499999999999
  1
10 mm
100
AcDbText
  0
TEXT
  5
58360
330
458D6
100
AcDbEntity
  8
SCALE
100
AcDbText
 10
702.0224018014064
 20
459.1292969651227
 30
3.646124999999996
 40
1.587499999999999
  1
[1 Inch]
100
AcDbText
  0
TEXT
  5
58361
330
458D6
100
AcDbEntity
  8
SCALE
100
AcDbText
 10
694.2305931484477
 20
470.6354214547884
 30
3.646124999999996
 40
1.587499999999999
  1
SCALE:
100
AcDbText
  0
LWPOLYLINE
  5
58362
330
458D6
100
AcDbEntity
  8
SCALE
100
AcDbPolyline
 90
        4
 70
     1
 43
0.0
 38
3.646124999999996
 10
692.7185583398261
 20
473.3075318695257
 10
721.5635303561921
 20
473.3075318695257
 10
721.5635303561921
 20
451.9306488733641
 10
692.7185583398261
 20
451.9306488733641
  0
VIEWPORT
  5
48102
102
{ACAD_XDICTIONARY
360
58369
102
}
330
458D3
100
AcDbEntity
 67
     1
  8
0
100
AcDbViewport
 10
151.3567685006063
 20
113.2852420318654
 30
0.0
 40
366.0241167019699
 41
189.5757819627291
 68
     2
 69
     1
 12
151.3567685006063
 22
113.2852420318654
 13
0.0
 23
0.0
 14
0.5
 24
0.5
 15
0.5
 25
0.5
 16
0.0
 26
0.0
 36
1.0
 17
0.0
 27
0.0
 37
0.0
 42
50.0
 43
0.0
 44
0.0
 45
189.5757819627291
 50
0.0
 51
0.0
 72
 20000
 90
    32800
  1

281
     0
 71
     1
 74
     0
110
0.0
120
0.0
130
0.0
111
1.0
121
0.0
131
0.0
112
0.0
122
1.0
132
0.0
 79
     0
146
0.0
  0
VIEWPORT
  5
48104
102
{ACAD_XDICTIONARY
360
5836B
102
}
330
458D3
100
AcDbEntity
 67
     1
  8
AREA1
100
AcDbViewport
 10
128.3236313246866
 20
97.25337640240622
 30
0.0
 40
204.8729214102567
 41
155.5067528048124
 68
     1
 69
     2
 12
557.4596828206352
 22
375.9131921765026
 13
0.0
 23
0.0
 14
0.25
 24
0.25
 15
0.25
 25
0.25
 16
0.0
 26
0.0
 36
1.0
 17
272.824838996967
 27
8.306349224220612
 37
23.31369335295995
 42
50.0
 43
0.0
 44
0.0
 45
302.4728138168253
 50
0.0
 51
0.0
 72
 20000
 90
    32800
  1

281
     0
 71
     1
 74
     0
110
266.8673580196576
120
8.203180508612135
130
3.646124999999996
111
1.0
121
0.0
131
0.0
112
0.0
122
1.0
132
0.0
 79
     1
146
0.0
  0
TEXT
  5
4810E
330
458D3
100
AcDbEntity
 67
     1
  8
0
100
AcDbText
 10
133.2323326534653
 20
186.9455936734827
 30
0.0
 40
5.113019999999999
  1
1485PT-P2T5-T5
100
AcDbText
  0
TEXT
  5
4810F
330
458D3
100
AcDbEntity
 67
     1
  8
0
100
AcDbText
 10
133.2323326534653
 20
178.4238936734827
 30
0.0
 40
5.113
  1
PowerTap, Thick Cable
100
AcDbText
  0
ENDSEC
  0
SECTION
  2
OBJECTS
  0
DICTIONARY
  5
458CB
330
0
100
AcDbDictionary
281
     1
  3
ACAD_COLOR
350
459D8
  3
ACAD_GROUP
350
458CC
  3
ACAD_LAYOUT
350
458FB
  3
ACAD_MATERIAL
350
459D7
  3
ACAD_MLINESTYLE
350
458D9
  3
ACAD_PLOTSETTINGS
350
458FC
  3
ACAD_PLOTSTYLENAME
350
458F9
  3
ACAD_TABLESTYLE
350
46C32
  3
ACDBVARIABLEDICTIONARY
350
458E1
  3
DWGPROPS
350
58364
  0
DICTIONARY
  5
480DB
330
458C1
100
AcDbDictionary
280
     1
281
     1
  3
ACAD_LAYERFILTERS
360
480DF
  3
ACAD_LAYERSTATES
360
48105
  3
ACLYDICTIONARY
360
480DE
  0
DICTIONARY
  5
45930
330
458D6
100
AcDbDictionary
280
     1
281
     1
  3
ACAD_LAYOUTSELFREF
360
459C8
  0
DICTIONARY
  5
4592E
330
458D3
100
AcDbDictionary
280
     1
281
     1
  3
ACAD_LAYOUTSELFREF
360
459C7
  0
DICTIONARY
  5
58369
330
48102
100
AcDbDictionary
280
     1
281
     1
  3
ACAD_XREC_ROUNDTRIP
360
5836A
  0
DICTIONARY
  5
5836B
330
48104
100
AcDbDictionary
280
     1
281
     1
  3
ACAD_XREC_ROUNDTRIP
360
5836C
  0
DICTIONARY
  5
459D8
102
{ACAD_REACTORS
330
458CB
102
}
330
458CB
100
AcDbDictionary
281
     1
  0
DICTIONARY
  5
458CC
102
{ACAD_REACTORS
330
458CB
102
}
330
458CB
100
AcDbDictionary
281
     1
  0
DICTIONARY
  5
458FB
102
{ACAD_REACTORS
330
458CB
102
}
330
458CB
100
AcDbDictionary
281
     1
  3
Layout1
350
458FE
  3
Model
350
458FD
  0
DICTIONARY
  5
459D7
102
{ACAD_REACTORS
330
458CB
102
}
330
458CB
100
AcDbDictionary
281
     1
  0
DICTIONARY
  5
458D9
102
{ACAD_REACTORS
330
458CB
102
}
330
458CB
100
AcDbDictionary
281
     1
  3
STANDARD
350
458DA
  0
DICTIONARY
  5
458FC
102
{ACAD_REACTORS
330
458CB
102
}
330
458CB
100
AcDbDictionary
281
     1
  0
ACDBDICTIONARYWDFLT
  5
458F9
102
{ACAD_REACTORS
330
458CB
102
}
330
458CB
100
AcDbDictionary
281
     1
  3
Normal
350
458FA
100
AcDbDictionaryWithDefault
340
458FA
  0
DICTIONARY
  5
46C32
102
{ACAD_REACTORS
330
458CB
102
}
330
458CB
100
AcDbDictionary
281
     1
  3
Standard
350
46C33
  0
DICTIONARY
  5
458E1
102
{ACAD_REACTORS
330
458CB
102
}
330
458CB
100
AcDbDictionary
281
     1
  3
CTABLESTYLE
350
46C39
  3
DIMADEC
350
458E2
  3
DIMASSOC
350
46C46
  3
PROJECTNAME
350
46C47
  0
XRECORD
  5
58364
102
{ACAD_REACTORS
330
458CB
102
}
330
458CB
100
AcDbXrecord
280
     1
  1
DWGPROPS COOKIE
  2

  3

  4

  6

  7

  8
TModica
  9

300
=
301
=
302
=
303
=
304
=
305
=
306
=
307
=
308
=
309
=
 40
0.2008219097222222
 41
2453042.595653843
 42
2453597.711494571
  1

 90
        0
  0
DICTIONARY
  5
480DF
102
{ACAD_REACTORS
330
480DB
102
}
330
480DB
100
AcDbDictionary
281
     1
  0
DICTIONARY
  5
48105
102
{ACAD_REACTORS
330
480DB
102
}
330
480DB
100
AcDbDictionary
281
     1
  0
DICTIONARY
  5
480DE
102
{ACAD_REACTORS
330
480DB
102
}
330
480DB
100
AcDbDictionary
281
     1
1001
ACAD
1000
<All
  0
XRECORD
  5
459C8
102
{ACAD_REACTORS
330
45930
102
}
330
45930
100
AcDbXrecord
280
     1
340
458D6
  0
XRECORD
  5
459C7
102
{ACAD_REACTORS
330
4592E
102
}
330
4592E
100
AcDbXrecord
280
     1
340
458D3
  0
XRECORD
  5
5836A
102
{ACAD_REACTORS
330
58369
102
}
330
58369
100
AcDbXrecord
280
     1
102
SHADEPLOT
 70
     0
  0
XRECORD
  5
5836C
102
{ACAD_REACTORS
330
5836B
102
}
330
5836B
100
AcDbXrecord
280
     1
102
SHADEPLOT
 70
     0
  0
LAYOUT
  5
458FE
102
{ACAD_XDICTIONARY
360
48133
102
}
102
{ACAD_REACTORS
330
458FB
102
}
330
458FB
100
AcDbPlotSettings
  1

  2
\\usmkevprnt001\USMKEPD0487
  4
Letter
  6

 40
7.143749713897705
 41
5.027085304260253
 42
7.14373779296875
 43
5.027069091796875
 44
215.8999938964843
 45
279.3999938964843
 46
-0.0000000000000113
 47
14.56436523858406
 48
0.0
 49
0.0
140
0.0
141
0.0
142
1.0
143
21.73966717538989
 70
   692
 72
     0
 73
     1
 74
     1
  7
acad.ctb
 75
     0
147
0.0459988642849159
148
-652.7799999999996
149
-495.2999999999999
100
AcDbLayout
  1
Layout1
 70
     1
 71
     1
 10
8.931840085394117
 20
13.38571885179438
 11
248.0681737907302
 21
198.1728846186557
 12
0.0
 22
0.0
 32
0.0
 14
25.88717061955833
 24
19.5
 34
0.0
 15
230.760092029815
 25
192.0586136734827
 35
0.0
146
0.0
 13
0.0
 23
0.0
 33
0.0
 16
1.0
 26
0.0
 36
0.0
 17
0.0
 27
1.0
 37
0.0
 76
     0
330
458D3
331
48104
1001
ACAD_PSEXT
1000
\\usmkevprnt001\USMKEPD0487
1000
RICOH Aficio 2035 PCL 5e
1000
MKE - 7H29
1000
IKON ID: N/A FAX: N/A UNIX: N/A MAINFRAME: R5074
1070
     0
  0
LAYOUT
  5
458FD
102
{ACAD_XDICTIONARY
360
58366
102
}
102
{ACAD_REACTORS
330
458FB
102
}
330
458FB
100
AcDbPlotSettings
  1

  2
\\usmkevprnt001\USMKEPD0487
  4
Letter
  6

 40
7.143749713897705
 41
5.027085304260253
 42
7.14373779296875
 43
5.027069091796875
 44
215.8999938964843
 45
279.3999938964843
 46
69.08278724492785
 47
0.0
 48
0.0
 49
0.0
140
0.0
141
0.0
142
1.0
143
46.08643047371788
 70
 11956
 72
     0
 73
     1
 74
     1
  7
acad.ctb
 75
     0
147
0.0216983608780524
148
12526.7129110102
149
-10456.17513608382
100
AcDbLayout
  1
Model
 70
     1
 71
     0
 10
0.0
 20
0.0
 11
12.0
 21
9.0
 12
0.0
 22
0.0
 32
0.0
 14
0.0
 24
0.0
 34
0.0
 15
0.0
 25
0.0
 35
0.0
146
0.0
 13
0.0
 23
0.0
 33
0.0
 16
1.0
 26
0.0
 36
0.0
 17
0.0
 27
1.0
 37
0.0
 76
     0
330
458D6
1001
ACAD_PSEXT
1000
\\usmkevprnt001\USMKEPD0487
1000
RICOH Aficio 2035 PCL 5e
1000
MKE - 7H29
1000
IKON ID: N/A FAX: N/A UNIX: N/A MAINFRAME: R5074
1070
     0
  0
MLINESTYLE
  5
458DA
102
{ACAD_REACTORS
330
458D9
102
}
330
458D9
100
AcDbMlineStyle
  2
STANDARD
 70
     0
  3

 62
   256
 51
90.0
 52
90.0
 71
     2
 49
0.5
 62
   256
  6
BYLAYER
 49
-0.5
 62
   256
  6
BYLAYER
  0
ACDBPLACEHOLDER
  5
458FA
102
{ACAD_REACTORS
330
458F9
102
}
330
458F9
  0
ACAD_PROXY_OBJECT
  5
46C33
102
{ACAD_REACTORS
330
46C32
102
}
330
46C32
100
AcDbProxyObject
 90
      499
 91
      512
 95
   393239
 70
     0
 93
     1841
310
4214DD185B99185C9928000000000000F83F0000000000003E0FC00000000000004901028000000C1008070000C3001FDFF8000000C1003FBFF000000182007F7FE00000030400FEFFC00000060801FDFF8000000C1003FBFF000000182000000000000000C2020B0000001820100E000186003FBFF000000182007F7FE000
310
00030400FEFFC00000060801FDFF8000000C1003FBFF000000182007F7FE0000003040000000000000012404160000003040201C00030C007F7FE00000030400FEFFC00000060801FDFF8000000C1003FBFF000000182007F7FE00000030400FEFFC00000060801A
340
458CE
340
458CE
340
458CE
 94
        0
  0
DICTIONARYVAR
  5
46C39
102
{ACAD_REACTORS
330
458E1
102
}
330
458E1
100
DictionaryVariables
280
     0
  1
STANDARD
  0
DICTIONARYVAR
  5
458E2
102
{ACAD_REACTORS
330
458E1
102
}
330
458E1
100
DictionaryVariables
280
     0
  1
0
  0
DICTIONARYVAR
  5
46C46
102
{ACAD_REACTORS
330
458E1
102
}
330
458E1
100
DictionaryVariables
280
     0
  1
1
  0
DICTIONARYVAR
  5
46C47
102
{ACAD_REACTORS
330
458E1
102
}
330
458E1
100
DictionaryVariables
280
     0
  1

  0
DICTIONARY
  5
48133
330
458FE
100
AcDbDictionary
280
     1
281
     1
  3
ACAD_XREC_ROUNDTRIP
360
58368
  3
ADSK_XREC_LAYOUTTHUMBNAIL
360
48134
  0
DICTIONARY
  5
58366
330
458FD
100
AcDbDictionary
280
     1
281
     1
  3
ACAD_XREC_ROUNDTRIP
360
58367
  0
XRECORD
  5
58368
102
{ACAD_REACTORS
330
48133
102
}
330
48133
100
AcDbXrecord
280
     1
102
SHADEPLOT
 70
     0
102
SHADEPLOTRESLEVEL
 70
     2
102
SHADEPLOTCUSTOMDPI
 70
   300
  0
XRECORD
  5
48134
102
{ACAD_REACTORS
330
48133
102
}
330
48133
100
AcDbXrecord
280
     1
310
28000000B40000008B0000000100080000000000BC61000000000000000000000001000000000000FFFFFF0000000000FFFFFF000000000000000000000000000000000000000000000000000000000000000000330000006600000099000000CC000000FF00000000330000333300006633000099330000CC330000FF3300
310
0000660000336600006666000099660000CC660000FF66000000990000339900006699000099990000CC990000FF99000000CC000033CC000066CC000099CC0000CCCC0000FFCC000000FF000033FF000066FF000099FF0000CCFF0000FFFF000000003300330033006600330099003300CC003300FF003300003333003333
310
33006633330099333300CC333300FF33330000663300336633006666330099663300CC663300FF66330000993300339933006699330099993300CC993300FF99330000CC330033CC330066CC330099CC3300CCCC3300FFCC330000FF330033FF330066FF330099FF3300CCFF3300FFFF330000006600330066006600660099
310
006600CC006600FF00660000336600333366006633660099336600CC336600FF33660000666600336666006666660099666600CC666600FF66660000996600339966006699660099996600CC996600FF99660000CC660033CC660066CC660099CC6600CCCC6600FFCC660000FF660033FF660066FF660099FF6600CCFF6600
310
FFFF660000009900330099006600990099009900CC009900FF00990000339900333399006633990099339900CC339900FF33990000669900336699006666990099669900CC669900FF66990000999900339999006699990099999900CC999900FF99990000CC990033CC990066CC990099CC9900CCCC9900FFCC990000FF99
310
0033FF990066FF990099FF9900CCFF9900FFFF99000000CC003300CC006600CC009900CC00CC00CC00FF00CC000033CC003333CC006633CC009933CC00CC33CC00FF33CC000066CC003366CC006666CC009966CC00CC66CC00FF66CC000099CC003399CC006699CC009999CC00CC99CC00FF99CC0000CCCC0033CCCC0066CC
310
CC0099CCCC00CCCCCC00FFCCCC0000FFCC0033FFCC0066FFCC0099FFCC00CCFFCC00FFFFCC000000FF003300FF006600FF009900FF00CC00FF00FF00FF000033FF003333FF006633FF009933FF00CC33FF00FF33FF000066FF003366FF006666FF009966FF00CC66FF00FF66FF000099FF003399FF006699FF009999FF00CC
310
99FF00FF99FF0000CCFF0033CCFF0066CCFF0099CCFF00CCCCFF00FFCCFF0000FFFF0033FFFF0066FFFF0099FFFF00CCFFFF00FFFFFF00000000000D0D0D001A1A1A00282828003535350043434300505050005D5D5D006B6B6B00787878008686860093939300A1A1A100AEAEAE00BBBBBB00C9C9C900D6D6D600E4E4E400
310
F1F1F100FFFFFF0000000000000000000000000000000000000000000000000000000000000000000000000000000000E2E2E2E2E2E2E2E2E2E2E2E2E2E2E2E2E2E2E2E2E2E2E2E2E2E2E2E2E2E2E2E2E2E2E2E2E2E2E2E2E2E2E2E2E2E2E2E2E2E2E2E2E2E2E2E2E2E2E2E2E2E2E2E2E2E2E2E2E2E2E2E2E2E2E2E2E2E2E2
310
E2E2E2E2E2E2E2E2E2E2E2E2E2E2E2E2E2E2E2E2E2E2E2E2E2E2E2E2E2E2E2E2E2E2E2E2E2E2E2E2E2E2E2E2E2E2E2E2E2E2E2E2E2E2E2E2E2E2E2E2E2E2E2E2E2E2E2E2E2E2E2E2E2E2E2E2E2E2E2E2E2E2E2E2E2E2E2E2E2E2E2E2E2E2E2E2E2E2E2E2E2E2F5F5F5F5F5F5F5F5F5F5F5F5F5F5F5F5F5F5F5F5F5F5F5F5F5
310
F5F5F5F5F5F5F5F5F5F5F5F5F5F5F5F5F5F5F5F5F5F5F5F5F5F5F5F5F5F5F5F5F5F5F5F5F5F5F5F5F5F5F5F5F5F5F5F5F5F5F5F5F5F5F5F5F5F5F5F5F5F5F5F5F5F5F5F5F5F5F5F5F5F5F5F5F5F5F5F5F5F5F5F5F5F5F5F5F5F5F5F5F5F5F5F5F5F5F5F5F5F5F5F5F5F5F5F5F5F5F5F5F5F5F5F5F5F5F5F5F5F5F5F5F5F5F5
310
F5F5F5F5F5F5F5F5F5F5F5F5F5F5F5F5F5F5F5F5F5F5F5F5E2E2E2E2F5F5F5F5F5F5F5F5F5F5F5F5F5F5F5F5F5F5F5F5F5F5F5F5F5F5F5F5F5F5F5F5F5F5F5F5F5F5F5F5F5F5F5F5F5F5F5F5F5F5F5F5F5F5F5F5F5F5F5F5F5F5F5F5F5F5F5F5F5F5F5F5F5F5F5F5F5F5F5F5F5F5F5F5F5F5F5F5F5F5F5F5F5F5F5F5F5F5F5
310
F5F5F5F5F5F5F5F5F5F5F5F5F5F5F5F5F5F5F5F5F5F5F5F5F5F5F5F5F5F5F5F5F5F5F5F5F5F5F5F5F5F5F5F5F5F5F5F5F5F5F5F5F5F5F5F5F5F5F5F5F5F5F5F5F5F5F5F5F5F5F5F5F5F5F5F5F5E2E2E2E2F5F5F5F5F5F5F5F5F5F5F5F5F5F5F5F5F5F5F5F5F5F5F5F5F5F5F5F5F5F5F5F5F5F5F5F5F5F5F5F5F5F5F5F5F5F5
310
F5F5F5F5F5F5F5F5F5F5F5F5F5F5F5F5F5F5F5F5F5F5F5F5F5F5F5F5F5F5F5F5F5F5F5F5F5F5F5F5F5F5F5F5F5F5F5F5F5F5F5F5F5F5F5F5F5F5F5F5F5F5F5F5F5F5F5F5F5F5F5F5F5F5F5F5F5F5F5F5F5F5F5F5F5F5F5F5F5F5F5F5F5F5F5F5F5F5F5F5F5F5F5F5F5F5F5F5F5F5F5F5F5F5F5F5F5F5F5F5F5F5F5F5F5F5F5
310
F5F5F5E2E2E2E2F5F5F5F5F5F5F5F5F5F5F5F5F5F5F5F5F5F5F5F5F5F5F5F5F5F5F5F5F5F5F5F5F5F5F5F5F5F5F5F5F5F5F5F5F5F5F5F5F5F5F5F5F5F5F5F5F5F5F5F5F5F5F5F5F5F5F5F5F5F5F5F5F5F5F5F5F5F5F5F5F5F5F5F5F5F5F5F5F5F5F5F5F5F5F5F5F5F5F5F5F5F5F5F5F5F5F5F5F5F5F5F5F5F5F5F5F5F5F5F5
310
F5F5F5F5F5F5F5F5F5F5F5F5F5F5F5F5F5F5F5F5F5F5F5F5F5F5F5F5F5F5F5F5F5F5F5F5F5F5F5F5F5F5F5F5F5F5F5F5F5F5F5F5F5F5F5F5E2E2E2E2F5F5E2E2E2E2E2E2E2E2F5E2E2E2E2E2E2E2E2E2E2E2E2E2E2E2E2E2E2E2E2E2E2E2E2E2E2E2E2E2E2E2E2E2E2E2E2E2E2E2E2E2E2E2E2E2E2E2E2E2E2E2E2E2E2E2E2
310
E2E2E2E2E2E2E2E2E2E2E2E2E2E2E2E2E2E2E2E2E2E2E2E2E2E2E2E2E2E2E2E2E2E2E2E2E2E2E2E2E2E2E2E2E2E2E2E2E2E2E2E2E2E2E2E2E2E2E2E2E2E2E2E2E2E2E2E2E2E2E2E2E2E2E2E2E2E2E2E2E2E2E2E2E2E2E2E2E2E2E2E2E2E2E2E2E2E2F5E2E2E2E2E2E2E2E2F5F5E2E2E2E2F5F5E2F5F5F5F5F5F5F5F5E2F5F5
310
F5F5F5F5F5F5F5F5F5F5F5F5F5F5F5F5F5F5F5F5F5F5F5F5F5F5F5F5F5F5F5F5F5F5F5F5F5F5F5F5F5F5F5F5F5F5F5F5F5F5F5F5F5F5F5F5F5F5F5F5F5F5F5F5F5F5F5F5F5F5F5F5F5F5F5F5F5F5F5F5F5F5F5F5F5F5F5F5F5F5F5F5F5F5F5F5F5F5F5F5F5F5F5F5F5F5F5F5F5F5F5F5F5F5F5F5F5F5F5F5F5F5F5F5F5F5F5
310
F5F5F5F5F5F5F5F5F5F5F5F5F5F5F5F5F5F5F5F5F5F5F5E2F5F5F5F5F5F5F5F5E2F5F5E2E2E2E2F5F5E2F5F5F5F5F5F5F5F5E2F5F5F5F5F5F5F5F5F5F5F5F5F5F5F5F5F5F5F5F5F5F5F5F5F5F5F5F5F5F5F5F5F5F5F5F5F5F5F5F5F5F5F5F5F5F5F5F5F5F5F5F5F5F5F5F5F5F5F5F5F5F5F5F5F5F5F5F5F5F5F5F5F5F5F5F5
310
F5F5F5F5F5F5F5F5F5F5F5F5F5F5F5F5F5F5F5F5F5F5F5F5F5F5F5F5F5F5F5F5F5F5F5F5F5F5F5F5F5F5F5F5F5F5F5F5F5F5F5F5F5F5F5F5F5F5F5F5F5F5F5F5F5F5F5F5F5F5F5F5F5F5F5F5E2F5F5F5F5F5F5F5F5E2F5F5E2E2E2E2F5F5E2F5F5F5F5F5F5F5F5E2F5F5F5F5F5F5F5F5F5F5F5F5F5F5F5F5F5F5F5F5F5F5F5
310
F5F5F5F5F5F5F5F5F5F5F5F5F5F5F5F5F5F5F5F5F5F5F5F5F5F5F5F5F5F5F5F5F5F5F5F5F5F5F5F5F5F5F5F5F5F5F5F5F5F5F5F5F5F5F5F5F5F5F5F5F5F5F5F5F5F5F5F5F5F5F5F5F5F5F5F5F5F5F5F5F5F5F5F5F5F5F5F5F5F5F5F5F5F5F5F5F5F5F5F5F5F5F5F5F5F5F5F5F5F5F5F5F5F5F5F5F5F5F5F5F5F5F5F5F5F5F5
310
F5F5E2F5F5F5F5F5F5F5F5E2F5F5E2E2E2E2F5F5E2F5F5F5F5F5F5F5F5E2F5F5F5F5F5F5F5F5F5F5F5F5F5F5F5F5F5F5F5F5F5F5F5F5F5F5F5F5F5F5F5F5F5F5F5F5F5F5F5F5F5F5F5F5F5F5F5F5F5F5F5F5F5F5F5F5F5F5F5F5F5F5F5F5F5F5F5F5F5F5F5F5F5F5F5F5F5F5F5F5F5F5F5F5F5F5F5F5F5F5F5F5F5F5F5F5F5
310
F5F5F5F5F5F5F5F5F5F5F5F5F5F5F5F5F5F5F5F5F5F5F5F5F5F5F5F5F5F5F5F5F5F5F5F5F5F5F5F5F5F5F5F5F5F5F5F5F5F5F5F5F5F5F5E2F5F5F5F5F5F5F5F5E2F5F5E2E2E2E2F5F5E2F5F5F5F5F5F5F5F5E2F5F5F5F5F5F5F5F5F5F5F5F5F5F5F5F5F5F5F5F5F5F5F5F5F5F5F5F5F5F5F5F5F5F5F5F5F5F5F5F5F5F5F5F5
310
F5F5F5F5F5F5F5F5F5F5F5F5F5F5F5F5F5F5F5F5F5F5F5F5F5F5F5F5F5F5F5F5F5F5F5F5F5F5F5F5F5F5F5F5F5F5F5F5F5F5F5F5F5F5F5F5F5F5F5F5F5F5F5F5F5F5F5F5F5F5F5F5F5F5F5F5F5F5F5F5F5F5F5F5F5F5F5F5F5F5F5F5F5F5F5F5F5F5F5F5F5F5F5F5F5F5F5F5E2F5F5F5F5F5F5F5F5E2F5F5E2E2E2E2F5F5E2
310
F5F5F5F5F5F5F5F5E2F5F5F5F5F5F5F5F5F5F5F5F5F5F5F5F5F5F5F5F5F5F5F5F5F5F5F5F5F5F5F5F5F5F5F5F5F5F5F5F5F5F5F5F5F5F5F5F5F5F5F5F5F5F5F5F5F5F5F5F5F5F5F5F5F5F5F5F5F5F5F5F5F5F5F5F5F5F5F5F5F5F5F5F5F5F5F5F5F5F5F5F5F5F5F5F5F5F5F5F5F5F5F5F5F5F5F5F5F5F5F5F5F5F5F5F5F5F5
310
F5F5F5F5F5F5F5F5F5F5F5F5F5F5F5F5F5F5F5F5F5F5F5F5F5F5F5F5F5F5F5F5F5F5E2F5F5F5F5F5F5F5F5E2F5F5E2E2E2E2F5F5E2F5F5F5F5F5F5F5F5E2F5F5F5F5F5F5F5F5F5F5F5F5F5F5F5F5F5F5F5F5F5F5F5F5F5F5F5F5F5F5F5F5F5F5F5F5F5F5F5F5F5F5F5F5F5F5F5F5F5F5F5F5F5F5F5E2E2E2E2E2E2E2E2E2E2
310
E2E2E2E2E2E2E2E2E2E2E2E2E2E2E2E2E2E2E2E2E2E2E2E2E2E2E2E2E2E2E2E2E2E2E2E2E2E2E2E2E2E2E2E2E2E2F5F5F5F5F5F5F5F5F5F5F5F5F5F5F5F5F5F5F5F5F5F5F5F5F5F5F5F5F5F5F5F5F5F5F5F5F5F5F5F5F5E2F5F5F5F5F5F5F5F5E2F5F5E2E2E2E2F5F5E2F5F5F5F5F5F5F5F5E2F5F5F5F5F5F5F5F5F5F5F5F5
310
F5F5F5F5F5F5F5F5F5F5F5F5F5F5F5F5F5F5F5F5F5F5F5F5F5F5F5F5F5F5F5F5F5F5F5F5F5F5F5F5F5F5F5E2F5F5F5F5F5F5F5F5F5F5F5F5F5F5F5F5F5F5F5F5F5F5F5F5F5F5F5F5F5F5F5F5F5F5F5F5E2F5F5F5F5F5F5F5F5F5F5F5F5F5E2F5E2E2E2F5F5F5F5F5F5F5F5F5F5F5F5F5F5F5F5F5F5F5F5F5F5F5F5F5F5F5F5
310
F5F5F5F5F5F5F5F5F5F5F5F5F5E2F5F5F5F5F5F5F5F5E2F5F5E2E2E2E2F5F5F5F5F5F5F5F5F5F5F5E2F5F5F5F5F5F5F5F5F5F5F5F5F5F5F5F5F5F5F5F5F5F5F5F5F5F5F5F5F5F5F5F5F5F5F5F5F5F5F5F5F5F5F5F5F5F5F5F5F5F5F5F5F5F5F5E2F5F5F5F5F5F5F5F5F5F5F5F5F5F5F5F5F5F5F5F5F5F5F5F5F5F5F5F5F5F5
310
F5F5F5F5F5F5E2F5F5F5F5F5F5F5F5F5F5F5F5E2E2F5F5E2F5F5F5F5F5F5F5F5F5F5F5F5F5F5F5F5F5F5F5F5F5F5F5F5F5F5F5F5F5F5F5F5F5F5F5F5F5F5F5F5F5F5E2F5F5F5F5F5F5F5F5F5F5F5E2E2E2E2F5F5F5F5F5F5F5F5F5F5F5E2F5F5F5F5F5F5F5F5F5F5F5F5F5F5F5F5F5F5F5F5F5F5F5F5F5F5F5F5F5F5F5F5F5
310
F5F5F5F5F5F5F5F5F5F5F5F5F5F5F5F5F5F5F5F5F5F5E2F5F5F5F5F5F5F5F5F5F5F5F5F5F5F5F5F5F5F5F5F5F5F5F5F5F5F5F5F5F5F5F5F5F5F5F5E2F5F5F5F5F5F5F5F5F5F5F5F5F5E2F5E2E2E2F5F5F5F5F5F5F5F5F5F5F5F5F5F5F5F5F5F5F5F5F5F5F5F5F5F5F5F5F5F5F5F5F5F5F5F5F5F5F5F5F5E2F5F5F5F5F5F5F5
310
F5F5F5F5E2E2E2E2F5F5F5F5F5F5F5F5F5F5F5E2F5F5F5F5F5F5F5F5F5F5F5F5F5F5F5F5F5F5F5F5F5F5F5F5F5F5F5F5F5F5F5F5F5F5F5F5F5F5F5F5F5F5F5F5F5F5F5F5F5F5F5F5F5F5F5E2F5F5F5F5F5F5F5F5F5F5F5F5F5F5F5F5F5F5F5F5F5F5F5F5F5F5F5F5F5F5F5F5F5F5F5F5E2F5F5F5F5F5F5F5F5F5F5F5F5F5E2
310
F5E2E2E2F5F5F5F5F5F5F5F5F5F5F5F5F5F5F5F5F5F5F5F5F5F5F5F5F5F5F5F5F5F5F5F5F5F5F5F5F5F5F5F5F5E2F5F5F5F5F5F5F5F5F5F5F5E2E2E2E2F5F5F5F5F5F5F5F5F5F5F5E2F5F5F5F5F5F5F5F5F5F5F5F5F5F5F5F5F5F5F5F5F5F5F5F5F5F5F5F5F5F5F5F5F5F5F5F5F5F5F5F5F5F5F5F5F5F5F5F5F5F5F5F5F5F5
310
F5E2F5F5F5F5F5F5F5F5F5F5F5F5F5F5F5F5F5F5F5F5F5F5F5F5F5F5F5F5F5F5F5F5F5F5F5F5E2F5F5F5F5F5F5F5F5F5F5F5F5F5E2F5E2E2E2F5F5F5F5F5F5F5F5F5F5F5F5F5F5F5F5F5F5F5F5F5F5F5F5F5F5F5F5F5F5F5F5F5F5F5F5F5F5F5F5F5E2F5F5F5F5F5F5F5F5F5F5F5E2E2E2E2F5F5F5F5F5F5F5F5F5F5F5E2F5
310
F5F5F5F5F5F5F5F5F5F5F5F5F5F5F5F5F5F5F5F5F5F5F5F5F5F5F5F5F5F5F5F5F5F5F5F5F5F5F5F5F5F5F5F5F5F5F5F5E2E2E2E2E2E2E2F5F5F5F5F5F5F5F5F5F5F5F5F5F5F5F5F5F5F5F5F5F5F5F5F5F5F5F5F5F5F5F5F5F5F5F5E2E2E2E2E2E2E2E2F5F5F5F5F5F5E2F5E2E2E2F5F5F5F5F5F5F5F5F5F5F5F5F5F5F5F5F5
310
F5F5F5F5F5F5F5F5F5F5F5F5F5F5F5F5F5F5F5F5F5F5F5F5E2F5F5F5F5F5F5F5F5F5F5F5E2E2E2E2F5F5F5F5F5F5F5F5F5F5F5E2F5F5F5F5F5F5F5F5F5F5F5F5F5F5F5F5F5F5F5F5F5F5F5F5F5F5F5F5F5F5F5F5F5F5F5F5F5F5F5F5F5F5F5F5F5F5F5E2E2E2F5F5E2E2F5E2F5F5F5F5F5F5F5F5F5F5F5F5F5F5F5F5F5F5F5
310
F5F5F5F5F5F5F5F5F5F5F5F5F5F5F5F5F5E2F5E2E2F5F5F5E2E2F5F5F5F5F5E2F5E2E2E2F5F5F5F5F5F5F5F5F5F5F5F5F5F5F5F5F5F5F5F5F5F5F5F5F5F5F5F5F5F5F5F5F5F5F5F5F5F5F5F5F5E2F5F5F5F5F5F5F5F5F5F5F5E2E2E2E2F5F5F5F5F5F5F5F5F5F5F5E2F5F5F5F5F5F5F5F5F5F5F5F5F5F5F5F5F5F5F5F5F5F5
310
F5F5F5F5F5F5F5F5F5F5F5F5F5F5F5F5F5F5F5F5F5F5F5F5F5E2E2E2E2E2E2E2E2E2F5F5F5F5F5F5F5F5F5F5F5F5F5F5F5F5F5F5F5F5F5F5F5F5F5F5F5F5F5F5F5F5F5F5F5F5E2E2E2E2E2E2E2E2E2F5F5F5F5F5E2F5F5F5F5F5F5F5F5F5F5F5F5F5F5F5F5F5F5F5F5F5F5F5F5F5F5F5F5F5F5F5F5F5F5F5F5F5F5F5F5F5F5
310
F5F5F5E2F5F5F5F5F5F5F5F5F5F5F5E2E2E2E2F5F5F5F5F5F5F5F5F5F5F5E2F5F5F5F5F5F5F5F5F5F5F5F5F5F5F5F5F5F5F5F5F5F5F5F5F5F5F5F5F5F5F5F5F5F5F5F5F5F5F5F5F5F5F5F5F5F5F5E2E2E2E2E2E2E2E2E2F5F5F5F5F5F5F5F5F5F5F5F5F5F5F5F5F5F5F5F5F5F5F5F5F5F5F5F5F5F5F5F5F5F5F5F5E2E2E2E2
310
E2E2E2E2E2F5F5F5F5F5E2F5E2E2E2F5F5F5F5F5F5F5F5F5F5F5F5F5F5F5F5F5F5F5F5F5F5F5F5F5F5F5F5F5F5F5F5F5F5F5F5F5F5F5F5F5E2F5F5F5F5F5F5F5F5F5F5F5E2E2E2E2F5F5F5F5F5F5F5F5F5F5F5E2F5F5F5F5F5F5F5F5F5F5F5F5F5F5F5F5F5F5F5F5F5F5F5F5F5F5F5F5F5F5F5F5F5F5F5F5F5F5F5F5F5F5F5
310
F5F5F5F5E2E2F5F5F5E2E2F5E2F5F5F5F5F5F5F5F5F5F5F5F5F5F5F5F5F5F5F5F5F5F5F5F5F5F5F5F5F5F5F5F5F5F5F5F5E2F5E2E2F5F5F5E2E2F5F5F5F5F5E2F5E2E2E2F5F5F5F5F5F5F5F5F5F5F5F5F5F5F5F5F5F5F5F5F5F5F5F5F5F5F5F5F5F5F5F5F5F5F5F5F5F5F5F5F5E2F5F5F5F5F5F5F5F5F5F5F5E2E2E2E2F5F5
310
E2F5F5F5F5F5F5F5F5E2F5F5F5F5F5F5F5F5F5F5F5F5F5F5F5F5F5F5F5F5F5F5F5F5F5F5F5F5F5F5F5F5F5F5F5F5F5F5F5F5F5F5F5F5F5F5F5E2E2E2F5F5E2E2F5E2F5F5F5F5F5F5F5F5F5F5F5F5F5F5F5F5F5F5F5F5F5F5F5F5F5F5F5F5F5F5F5F5F5F5F5F5E2F5E2E2F5F5F5E2E2F5F5F5F5F5E2F5E2E2E2F5F5F5F5F5F5
310
F5F5F5F5F5F5F5F5F5F5F5F5F5F5F5F5F5F5F5F5F5F5F5F5F5F5F5F5F5F5F5F5F5F5F5E2F5F5F5F5F5F5F5F5E2F5F5E2E2E2E2F5F5E2F5F5F5F5F5F5F5F5E2F5F5F5F5F5F5F5F5F5F5F5F5F5F5F5F5F5F5F5F5F5F5F5F5F5F5F5F5F5F5F5F5F5F5F5F5F5F5F5F5F5F5F5F5F5F5F5E2E2E2E2E2E2E2E2E2F5F5F5F5F5F5F5F5
310
F5F5F5F5F5F5F5F5F5F5F5F5F5F5F5F5F5F5F5F5F5F5F5F5F5F5F5F5E2E2E2E2E2E2E2E2E2F5F5F5F5F5E2F5F5E2E2F5F5F5F5F5F5F5F5F5F5F5F5F5F5F5F5F5F5F5F5F5F5F5F5F5F5F5F5F5F5F5F5F5F5F5F5F5F5F5F5F5E2F5F5F5F5F5F5F5F5E2F5F5E2E2E2E2F5F5E2F5F5F5F5F5F5F5F5E2F5F5F5F5F5F5F5F5F5F5F5
310
F5F5F5F5F5F5F5F5F5F5F5F5F5F5F5F5F5F5F5F5F5F5F5F5F5F5F5F5F5F5F5F5F5F5F5F5E2E2E2E2E2E2E2E2E2F5F5F5F5F5F5F5F5F5F5F5F5F5F5F5F5F5F5F5F5F5F5F5F5F5F5F5F5F5F5F5F5F5F5F5F5E2E2E2E2E2E2E2E2E2F5F5F5F5F5E2F5F5F5F5F5F5F5F5F5F5F5F5F5F5F5F5F5F5F5F5F5F5F5F5F5F5F5F5F5F5F5
310
F5F5F5F5F5F5F5F5F5F5F5F5F5F5E2F5F5F5F5F5F5F5F5E2F5F5E2E2E2E2F5F5E2F5F5F5F5F5F5F5F5E2F5F5F5F5F5F5F5F5F5F5F5F5F5F5F5F5F5F5F5F5F5F5F5F5F5F5F5F5F5F5F5F5F5F5F5F5F5F5F5F5F5F5F5F5F5F5F5E2E2E2E2E2E2E2E2E2F5F5F5F5F5F5F5F5F5F5F5F5F5F5F5F5F5F5F5F5F5F5F5F5F5F5F5F5F5
310
F5F5F5F5F5F5F5E2E2E2E2E2E2E2E2E2F5F5F5F5F5E2F5E2E2E2F5F5F5F5F5F5F5F5F5F5F5F5F5F5F5F5F5F5F5F5F5F5F5F5F5F5F5F5F5F5F5F5F5F5F5F5F5F5F5F5F5E2F5F5F5F5F5F5F5F5E2F5F5E2E2E2E2F5F5E2F5F5F5F5F5F5F5F5E2F5F5F5F5F5F5F5F5F5F5F5F5F5F5F5F5F5F5F5F5F5F5F5F5F5F5F5F5F5F5F5F5
310
F5F5F5F5F5F5F5F5F5F5F5F5F5F5F5F5F5F5F5F5F5F5F5E2F5F5F5F5F5F5F5F5F5F5F5F5F5F5F5F5F5F5F5F5F5F5F5F5F5F5F5F5F5F5F5F5F5F5F5F5E2F5F5F5F5F5F5F5F5F5F5F5F5F5E2F5E2E2E2F5F5F5F5F5F5F5F5F5F5F5F5F5F5F5F5F5F5F5F5F5F5F5F5F5F5F5F5F5F5F5F5F5F5F5F5F5F5F5F5F5E2F5F5F5F5F5F5
310
F5F5E2F5F5E2E2E2E2F5F5E2F5F5F5F5F5F5F5F5E2F5F5F5F5F5F5F5F5F5F5F5F5F5F5F5F5F5F5F5F5F5F5F5F5F5F5F5F5F5F5F5F5F5F5F5F5F5F5F5F5F5F5F5F5F5F5F5F5F5F5F5F5F5F5F5E2F5F5F5F5F5F5F5F5F5F5F5F5F5F5F5F5F5F5F5F5F5F5F5F5F5F5F5F5F5F5F5F5F5F5F5F5E2F5F5F5F5F5F5F5F5F5F5F5F5F5
310
E2F5F5F5E2F5F5F5F5F5F5F5F5F5F5F5F5F5F5F5F5F5F5F5F5F5F5F5F5F5F5F5F5F5F5F5F5F5F5F5F5F5F5F5F5F5E2F5F5F5F5F5F5F5F5E2F5F5E2E2E2E2F5F5E2F5F5F5F5F5F5F5F5E2F5F5F5F5F5F5F5F5F5F5F5F5F5F5F5F5F5F5F5F5F5F5F5F5F5F5F5F5F5F5F5F5F5F5F5F5F5F5F5F5F5F5F5F5F5F5F5F5F5F5F5F5F5
310
F5F5E2E2E2E2E2E2E2E2E2E2E2E2E2E2E2E2E2E2E2E2E2E2E2E2E2E2E2E2E2E2E2E2E2E2E2E2E2E2F5F5F5F5F5F5F5F5F5F5F5F5F5E2F5E2E2E2F5F5F5F5F5F5F5F5F5F5F5F5F5F5F5F5F5F5F5F5F5F5F5F5F5F5F5F5F5F5F5F5F5F5F5F5F5F5F5F5F5E2F5F5F5F5F5F5F5F5E2F5F5E2E2E2E2F5F5E2F5F5F5F5F5F5F5F5E2
310
F5F5F5F5F5F5F5F5F5F5F5F5F5F5F5F5F5F5F5F5F5F5F5F5F5F5F5F5F5F5F5F5F5F5F5F5F5F5F5F5F5F5F5F5F5F5F5F5F5F5F5F5F5F5F5E2F5F5F5F5F5F5F5F5F5F5F5F5F5F5F5F5F5F5F5F5F5F5F5F5F5F5F5F5F5F5F5F5F5F5F5F5E2F5F5F5F5F5F5F5F5F5F5F5F5F5E2F5E2E2E2F5F5F5F5F5F5F5F5F5F5F5F5F5F5F5F5
310
F5F5F5F5F5F5F5F5F5F5F5F5F5F5F5F5F5F5F5F5F5F5F5F5F5E2F5F5F5F5F5F5F5F5E2F5F5E2E2E2E2F5F5E2F5F5F5F5F5F5F5F5E2F5F5F5F5F5F5F5F5F5F5F5F5F5F5F5F5F5F5F5F5F5F5F5F5F5F5F5F5F5F5F5F5F5F5F5F5F5F5F5F5F5F5F5F5F5F5F5F5F5F5F5F5F5F5F5E2F5F5F5F5F5F5F5F5F5F5F5F5F5F5F5F5F5F5
310
F5F5F5F5F5F5F5F5F5F5F5F5F5F5F5F5F5F5E2F5F5F5F5F5F5F5F5F5F5F5F5E2E2F5E2E2E2F5F5F5F5F5F5F5F5F5F5F5F5F5F5F5F5F5F5F5F5F5F5F5F5F5F5F5F5F5F5F5F5F5F5F5F5F5F5F5F5F5E2F5F5F5F5F5F5F5F5E2F5F5E2E2E2E2F5F5E2F5F5F5F5F5F5F5F5E2F5F5F5F5F5F5F5F5F5F5F5F5F5F5F5F5F5F5F5F5F5
310
F5F5F5F5F5F5F5F5F5F5F5F5F5F5F5F5F5F5F5F5F5F5F5F5F5F5F5F5F5F5F5F5F5F5E2F5F5F5F5F5F5F5F5F5F5F5F5F5F5F5F5F5F5F5F5F5F5F5F5F5F5F5F5F5F5F5F5F5F5F5F5E2F5F5F5F5F5F5F5F5F5F5F5F5F5E2F5E2E2E2F5F5F5F5F5F5F5F5F5F5F5F5F5F5F5F5F5F5F5F5F5F5F5F5F5F5F5F5F5F5F5F5F5F5F5F5F5
310
F5F5F5F5E2F5F5F5F5F5F5F5F5E2F5F5E2E2E2E2F5F5E2F5F5F5F5F5F5F5F5E2F5F5F5F5F5F5F5F5F5F5F5F5F5F5F5F5F5F5F5F5F5F5F5F5F5F5F5F5F5F5F5F5F5F5F5F5F5F5F5F5F5F5F5F5F5F5F5F5F5F5F5F5F5F5F5E2E2E2E2E2E2E2E2E2E2E2E2E2E2E2E2E2E2E2E2E2E2E2E2E2E2E2E2E2E2E2E2E2E2E2E2E2E2E2E2
310
E2E2E2E2E2E2E2E2E2E2E2E2E2E2E2E2F5F5F5F5F5F5F5F5F5F5F5F5F5F5F5F5F5F5F5F5F5F5F5F5F5F5F5F5F5F5F5F5F5F5F5F5F5F5F5F5F5E2F5F5F5F5F5F5F5F5E2F5F5E2E2E2E2F5F5E2F5F5F5F5F5F5F5F5E2F5F5F5F5F5F5F5F5F5F5F5F5F5F5F5F5F5F5F5F5F5F5F5F5F5F5F5F5F5F5F5F5F5F5F5F5F5F5F5F5F5F5
310
F5F5F5F5F5F5F5F5F5F5F5F5F5F5F5F5F5F5F5F5F5F5F5F5F5F5F5F5F5F5F5F5F5F5F5F5F5F5F5F5F5F5F5F5F5F5F5F5F5F5F5F5F5F5F5F5F5F5F5F5F5F5F5F5F5F5F5F5F5F5F5F5F5F5F5F5F5F5F5F5F5F5F5F5F5F5F5F5F5F5F5F5F5F5F5F5F5F5F5F5F5F5F5F5F5F5F5F5F5F5E2F5F5F5F5F5F5F5F5E2F5F5E2E2E2E2F5
310
F5E2F5F5F5F5F5F5F5F5E2F5F5F5F5F5F5F5F5F5F5F5F5F5F5F5F5F5F5F5F5F5F5F5F5F5F5F5F5F5F5F5F5F5F5F5F5F5F5F5F5F5F5F5F5F5F5F5F5F5F5F5F5F5F5F5F5F5F5F5F5F5F5F5F5F5F5F5F5F5F5F5F5F5F5F5F5F5F5F5F5F5F5F5F5F5F5F5F5F5F5F5F5F5F5F5F5F5F5F5F5F5F5F5F5F5F5F5F5F5F5F5F5F5F5F5F5
310
F5F5F5F5F5F5F5F5F5F5F5F5F5F5F5F5F5F5F5F5F5F5F5F5F5F5F5F5F5F5F5F5F5F5F5F5E2F5F5F5F5F5F5F5F5E2F5F5E2E2E2E2F5F5E2F5F5F5F5F5F5F5F5E2F5F5F5F5F5F5F5F5F5F5F5F5F5F5F5F5F5F5F5F5F5F5F5F5F5F5F5F5F5F5F5F5F5F5F5F5F5F5F5F5F5F5F5F5F5F5F5F5F5F5F5F5F5F5F5F5F5F5F5F5F5F5F5
310
F5F5F5F5F5F5F5F5F5F5F5F5F5F5F5F5F5F5F5F5F5F5F5F5F5F5F5F5F5F5F5F5F5F5F5F5F5F5F5F5F5F5F5F5F5F5F5F5F5F5F5F5F5F5F5F5F5F5F5F5F5F5F5F5F5F5F5F5F5F5F5F5F5F5F5F5F5F5F5F5F5F5F5F5F5F5F5F5F5E2F5F5F5F5F5F5F5F5E2F5F5E2E2E2E2F5F5E2F5F5F5F5F5F5F5F5E2F5F5F5F5F5F5F5F5F5F5
310
F5F5F5F5F5F5F5F5F5F5F5F5F5F5F5F5F5F5F5F5F5F5F5F5F5F5F5F5F5F5F5F5F5F5F5F5F5F5F5F5F5F5F5F5F5F5F5F5F5F5F5F5F5F5F5F5F5F5F5F5F5F5F5F5F5F5F5F5F5F5F5F5F5F5F5F5F5F5F5F5F5F5F5F5F5F5F5F5F5F5F5F5F5F5F5F5F5F5F5F5F5F5F5F5F5F5F5F5F5F5F5F5F5F5F5F5F5F5F5F5F5F5F5F5F5F5F5
310
F5F5F5F5F5F5F5F5F5F5F5F5F5F5F5E2F5F5F5F5F5F5F5F5E2F5F5E2E2E2E2F5F5E2F5F5F5F5F5F5F5F5E2F5F5F5F5F5F5F5F5F5F5F5F5F5F5F5F5F5F5F5F5F5F5F5F5F5F5F5F5F5F5F5F5F5F5F5F5F5F5F5F5F5F5F5F5F5F5F5F5F5F5F5F5F5F5F5F5F5F5F5F5F5F5F5F5F5F5F5F5F5F5F5F5F5F5F5F5F5F5F5F5F5F5F5F5
310
F5F5F5F5F5F5F5F5F5F5F5F5F5F5F5F5F5F5F5F5F5F5F5F5F5F5F5F5F5F5F5F5F5F5F5F5F5F5F5F5F5F5F5F5F5F5F5F5F5F5F5F5F5F5F5F5F5F5F5F5F5F5F5F5F5F5F5F5E2F5F5F5F5F5F5F5F5E2F5F5E2E2E2E2F5F5F5F5F5F5F5F5F5F5F5E2F5F5F5F5F5F5F5F5F5F5F5F5F5F5F5F5F5F5F5F5F5F5F5F5F5F5F5F5F5F5F5
310
F5F5F5F5F5F5F5F5F5F5F5F5F5F5F5F5F5F5F5F5F5F5F5F5F5F5F5F5F5F5F5F5F5F5F5F5F5F5F5F5F5F5F5F5F5F5F5F5F5F5F5F5F5F5F5F5F5F5F5F5F5F5F5F5F5F5F5F5F5F5F5F5F5F5F5F5F5F5F5F5F5F5F5F5F5F5F5F5F5F5F5F5F5F5F5F5F5F5F5F5F5F5F5F5F5F5F5F5F5F5F5F5F5F5F5F5F5F5F5F5F5E2F5F5F5F5F5
310
F5F5F5F5F5F5E2E2E2E2F5F5F5F5F5F5F5F5F5F5F5E2F5F5F5F5F5F5F5F5F5F5F5F5F5F5F5F5F5F5F5F5F5F5F5F5F5F5F5F5F5F5F5F5F5F5F5F5F5F5F5F5F5F5F5F5F5F5F5F5F5F5F5F5F5F5F5F5F5F5F5F5F5F5F5F5F5F5F5F5F5F5F5F5F5F5F5F5F5F5F5F5F5F5F5F5F5F5F5F5F5F5F5F5F5F5F5F5F5F5F5F5F5F5F5F5F5
310
F5F5F5F5F5F5F5F5F5F5F5F5F5F5F5F5F5F5F5F5F5F5F5F5F5F5F5F5F5F5F5F5F5F5F5F5F5F5F5F5F5F5F5F5F5F5F5E2F5F5F5F5F5F5F5F5F5F5F5E2E2E2E2F5F5F5F5F5F5F5F5F5F5F5E2F5F5F5F5F5F5F5F5F5F5F5F5F5F5F5F5F5F5F5F5F5F5F5F5F5F5F5F5F5F5F5F5F5F5F5F5F5F5F5F5F5F5F5F5F5F5F5F5F5F5F5F5
310
F5F5F5F5F5F5F5F5F5F5F5F5F5F5F5F5F5F5F5F5F5F5F5F5F5F5F5F5F5F5F5F5F5F5F5F5F5F5F5F5F5F5F5F5F5F5F5F5F5F5F5F5F5F5F5F5F5F5F5F5F5F5F5F5F5F5F5F5F5F5F5F5F5F5F5F5F5F5F5F5F5F5F5F5F5F5F5F5F5F5F5F5F5F5F5F5F5F5F5F5E2F5F5F5F5F5F5F5F5F5F5F5E2E2E2E2F5F5F5F5F5F5F5F5F5F5F5
310
E2F5F5F5F5F5F5F5F5F5F5F5F5F5F5F5F5F5F5F5F5F5F5F5F5F5F5F5F5F5F5F5F5F5F5F5F5F5F5F5F5F5F5F5F5F5F5F5F5F5F5F5F5F5F5F5F5F5F5F5F5F5F5F5F5F5F5F5F5F5F5F5F5F5F5F5F5F5F5F5F5F5F5F5F5F5F5F5F5F5F5F5F5F5F5F5F5F5F5F5F5F5F5F5F5F5F5F5F5F5F5F5F5F5F5F5F5F5F5F5F5F5F5F5F5F5F5
310
F5F5F5F5F5F5F5F5F5F5F5F5F5F5F5F5F5F5F5F5F5F5F5F5F5F5E2F5F5F5F5F5F5F5F5F5F5F5E2E2E2E2F5F5F5F5F5F5F5F5F5F5F5E2F5F5F5F5F5F5F5F5F5F5F5F5F5F5F5F5F5F5F5F5F5F5F5F5F5F5F5F5F5F5F5F5F5F5F5F5F5F5F5F5F5F5F5F5F5F5F5F5F5F5F5F5F5F5F5F5F5F5F5F5F5F5F5F5F5F5F5F5F5F5F5F5F5
310
F5F5F5F5F5F5F5F5F5F5F5F5F5F5F5F5F5F5F5F5F5F5F5F5F5F5F5F5F5F5F5F5F5F5F5F5F5F5F5F5F5F5F5F5F5F5F5F5F5F5F5F5F5F5F5F5F5F5F5F5F5F5F5F5F5F5F5F5F5F5F5F5F5F5F5F5F5F5F5E2F5F5F5F5F5F5F5F5F5F5F5E2E2E2E2F5F5F5F5F5F5F5F5F5F5F5E2F5F5F5F5F5F5F5F5F5F5F5F5F5F5F5F5F5F5F5F5
310
F5F5F5F5F5F5F5F5F5F5F5F5F5F5F5F5F5F5F5F5F5F5F5F5F5F5F5F5F5F5F5F5F5F5F5F5F5F5F5F5F5F5F5F5F5F5F5F5F5F5F5F5F5F5F5F5F5F5F5F5F5F5F5F5F5F5F5F5F5F5F5F5F5F5F5F5F5F5F5F5F5F5F5F5F5F5F5F5F5F5F5F5F5F5F5F5F5F5F5F5F5F5F5F5F5F5F5F5F5F5F5F5F5F5F5F5F5F5F5F5F5F5F5F5F5F5F5
310
F5F5F5F5F5E2F5F5F5F5F5F5F5F5F5F5F5E2E2E2E2F5F5F5F5F5F5F5F5F5F5F5E2F5F5F5F5F5F5F5F5F5F5F5F5F5F5F5F5F5F5F5F5F5F5F5F5F5F5F5F5F5F5F5F5F5F5F5F5F5F5F5F5F5F5F5F5F5F5F5F5F5F5F5F5F5F5F5F5F5F5F5F5F5F5F5F5F5F5F5F5F5F5F5F5F5F5F5F5F5F5F5F5F5F5F5F5F5F5F5F5F5F5F5F5F5F5
310
F5F5F5F5F5F5F5F5F5F5F5F5F5F5F5F5F5F5F5F5F5F5F5F5F5F5F5F5F5F5F5F5F5F5F5F5F5F5F5F5F5F5F5F5F5F5F5F5F5F5F5F5F5F5F5F5F5F5E2F5F5F5F5F5F5F5F5F5F5F5E2E2E2E2F5F5F5F5F5F5F5F5F5F5F5E2F5F5F5F5F5F5F5F5F5F5F5F5F5F5F5F5F5F5F5F5F5F5F5F5F5F5F5F5F5F5F5F5F5F5F5F5F5F5F5F5F5
310
F5F5F5F5F5F5F5F5F5F5F5F5F5F5F5F5F5F5F5F5F5F5F5F5F5F5F5F5F5F5F5F5F5F5F5F5F5F5F5F5F5F5F5F5F5F5F5F5F5F5F5F5F5F5F5F5F5F5F5F5F5F5F5F5F5F5F5F5F5F5F5F5F5F5F5F5F5F5F5F5F5F5F5F5F5F5F5F5F5F5F5F5F5F5F5F5F5F5F5F5F5F5F5F5F5F5F5F5F5F5F5E2F5F5F5F5F5F5F5F5F5F5F5E2E2E2E2
310
F5F5F5F5F5F5F5F5F5F5F5E2F5F5F5F5F5F5F5F5F5F5F5F5F5F5F5F5F5F5F5F5F5F5F5F5F5F5F5F5F5F5F5F5F5F5F5F5F5F5F5F5F5F5F5F5F5F5F5F5F5F5F5F5F5F5F5F5F5F5F5F5F5F5F5F5F5F5F5F5F5F5F5F5F5F5F5F5F5F5F5F5F5F5F5F5F5F5F5F5F5F5F5F5F5F5F5F5F5F5F5F5F5F5F5F5F5F5F5F5F5F5F5F5F5F5F5
310
F5F5F5F5F5F5F5F5F5F5F5F5F5F5F5F5F5F5F5F5F5F5F5F5F5F5F5F5F5F5F5F5F5F5F5F5F5E2F5F5F5F5F5F5F5F5F5F5F5E2E2E2E2F5F5F5F5F5F5F5F5F5F5F5E2F5F5F5F5F5F5F5F5F5F5F5F5F5F5F5F5F5F5F5F5F5F5F5F5F5F5F5F5F5F5F5F5F5F5F5F5F5F5F5F5F5F5F5F5F5F5F5F5F5F5F5F5F5F5F5F5F5F5F5F5F5F5
310
F5F5F5F5F5F5F5F5F5F5F5F5F5F5F5F5F5F5F5F5F5F5F5F5F5F5F5F5F5F5F5F5F5F5F5F5F5F5F5F5F5F5F5F5F5F5F5F5F5F5F5F5F5F5F5F5F5F5F5F5F5F5F5F5F5F5F5F5F5F5F5F5F5F5F5F5F5F5F5F5F5F5F5F5F5F5F5F5F5F5E2F5F5F5F5F5F5F5F5F5F5F5E2E2E2E2F5F5E2F5F5F5F5F5F5F5F5E2F5F5F5F5F5F5F5F5F5
310
F5F5F5F5F5F5F5F5F5F5F5F5F5F5F5F5F5F5F5F5F5F5F5F5F5F5F5F5F5F5F5F5F5F5F5F5F5F5F5F5F5F5F5F5F5F5F5F5F5F5F5F5F5F5F5F5F5F5F5F5F5F5F5F5F5F5F5F5F5F5F5F5F5F5F5F5F5F5F5F5F5F5F5F5F5F5F5F5F5F5F5F5F5F5F5F5F5F5F5F5F5F5F5F5F5F5F5F5F5F5F5F5F5F5F5F5F5F5F5F5F5F5F5F5F5F5F5
310
F5F5F5F5F5F5F5F5F5F5F5F5F5F5F5F5E2F5F5F5F5F5F5F5F5E2F5F5E2E2E2E2F5F5E2F5F5F5F5F5F5F5F5E2F5F5F5F5F5F5F5F5F5F5F5F5F5F5F5F5F5F5F5F5F5F5F5F5F5F5F5F5F5F5F5F5F5F5F5F5F5F5F5E2E2E2F5F5F5F5F5F5F5F5F5F5F5F5F5F5F5F5F5F5F5F5F5F5F5F5F5F5F5F5F5F5F5F5F5F5F5F5F5F5F5F5F5
310
F5F5F5F5F5F5F5F5F5F5F5F5F5F5F5F5F5F5F5F5F5F5F5F5F5F5F5F5F5F5F5F5F5F5F5F5F5F5F5F5F5F5F5F5F5F5F5F5F5F5F5F5F5F5F5F5F5F5F5F5F5F5F5F5F5F5F5F5F5E2F5F5F5F5F5F5F5F5E2F5F5E2E2E2E2F5F5E2F5F5F5F5F5F5F5F5E2F5F5F5F5F5F5F5F5F5F5F5F5F5F5F5F5F5F5F5F5F5F5F5F5F5F5F5F5F5F5
310
F5F5F5F5F5F5F5F5F5F5E2E2F5F5F5F5F5F5F5F5F5F5F5F5F5F5F5F5F5F5F5F5F5F5F5F5F5F5F5F5F5F5F5F5F5F5F5F5F5F5F5F5F5F5F5F5F5F5F5F5F5F5F5F5F5F5F5F5F5F5F5F5F5F5F5F5F5F5F5F5F5F5F5F5F5F5F5F5F5F5F5F5F5F5F5F5F5F5F5F5F5F5F5F5F5F5F5F5F5F5F5F5F5F5F5F5F5F5F5F5F5F5E2F5F5F5F5
310
F5F5F5F5E2F5F5E2E2E2E2F5F5E2F5F5F5F5F5F5F5F5E2F5F5F5F5F5F5F5F5F5F5F5F5F5F5F5F5F5F5F5F5F5F5F5F5F5F5F5F5F5F5F5F5F5F5F5F5F5F5F5E2E2E2F5F5F5F5F5F5F5F5F5F5F5F5F5F5F5F5F5F5F5F5F5F5F5F5F5F5F5F5F5F5F5F5F5F5F5F5F5F5F5F5F5F5F5F5F5F5F5F5F5F5F5F5F5F5F5F5F5F5F5F5F5F5
310
F5F5F5F5F5F5F5F5F5F5F5F5F5F5F5F5F5F5F5F5F5F5F5F5F5F5F5F5F5F5F5F5F5F5F5F5F5F5F5F5F5F5F5F5F5F5F5F5E2F5F5F5F5F5F5F5F5E2F5F5E2E2E2E2F5F5E2F5F5F5F5F5F5F5F5E2F5F5F5F5F5F5F5F5F5F5F5F5F5F5F5F5F5F5F5F5F5F5F5F5F5F5F5F5F5F5F5F5F5F5F5F5F5F5F5F5F5E2F5F5F5F5F5F5F5F5F5
310
F5F5F5F5F5F5F5F5F5F5F5F5F5F5F5F5F5F5F5F5F5F5F5F5F5F5F5F5F5F5F5F5F5F5F5F5F5F5F5F5F5F5F5F5F5F5F5F5F5F5F5F5F5F5F5F5F5F5F5F5F5F5F5F5F5F5F5F5F5F5F5F5F5F5F5F5F5F5F5F5F5F5F5F5F5F5F5F5F5F5F5F5F5F5F5F5F5F5F5F5F5E2F5F5F5F5F5F5F5F5E2F5F5E2E2E2E2F5F5E2F5F5F5F5F5F5F5
310
F5E2F5F5F5F5F5F5F5F5F5F5F5F5F5F5F5F5F5F5F5F5F5F5F5F5F5F5F5F5F5F5F5F5F5F5F5F5F5F5F5E2E2E2E2E2E2E2E2E2E2E2E2E2E2E2E2E2E2E2E2E2E2E2E2E2E2E2E2E2E2E2E2E2E2E2E2E2E2E2E2E2E2E2E2E2E2E2E2E2E2E2E2E2E2E2E2E2E2E2E2E2E2E2E2E2E2E2E2E2E2E2E2E2E2E2E2E2E2F5F5F5F5F5F5F5F5
310
F5F5F5F5F5F5F5F5F5F5F5F5F5F5F5F5F5F5F5F5F5F5F5F5F5F5F5E2F5F5F5F5F5F5F5F5E2F5F5E2E2E2E2F5F5E2F5F5F5F5F5F5F5F5E2F5F5F5F5F5F5F5F5F5F5F5F5F5F5F5F5F5F5F5F5F5F5F5F5F5F5F5F5F5F5F5F5F5F5F5F5F5F5F5E2E2E2F5E2E2F5F5F5F5F5F5F5F5F5F5E2E2E2E2E2E2E2F5E2E2E2F5F5F5F5F5F5
310
F5F5F5F5F5F5F5F5F5F5E2E2E2F5E2E2E2E2E2E2E2F5F5F5F5F5F5F5F5F5F5F5F5F5F5F5F5F5F5F5F5F5E2F5F5F5F5F5F5F5F5F5F5F5F5F5F5F5F5F5F5F5F5F5F5F5F5F5F5F5F5F5F5F5F5F5F5F5F5F5E2F5F5F5F5F5F5F5F5E2F5F5E2E2E2E2F5F5E2F5F5F5F5F5F5F5F5E2F5F5F5F5F5F5F5F5F5F5F5F5F5F5F5F5F5F5F5
310
F5F5F5F5F5F5F5F5F5F5F5F5F5F5F5F5F5F5F5F5E2E2E2F5E2F5F5F5F5F5F5F5F5F5F5F5E2E2E2E2E2E2E2E2E2E2F5F5F5F5F5F5F5F5F5F5F5F5F5F5F5F5F5F5E2E2F5E2E2E2E2E2E2E2E2E2E2E2E2E2E2E2E2E2E2E2E2E2E2E2E2E2E2F5F5E2F5F5F5F5F5F5F5F5F5F5F5F5F5F5F5F5F5F5F5F5F5F5F5F5F5F5F5F5F5F5F5
310
F5F5F5F5F5F5E2F5F5F5F5F5F5F5F5E2F5F5E2E2E2E2F5F5E2F5F5F5F5F5F5F5F5E2F5F5F5F5F5F5F5F5F5F5F5F5F5F5F5F5F5F5F5F5F5F5F5F5F5F5F5F5F5F5F5F5F5F5F5F5F5F5F5F5F5F5F5E2F5F5F5F5F5F5F5F5F5F5F5E2E2E2E2E2E2E2E2E2E2F5F5F5F5F5F5F5F5F5F5F5F5F5F5F5F5F5F5F5E2E2E2E2E2E2E2E2E2
310
F5F5F5F5F5F5F5F5F5F5F5F5F5F5F5F5E2F5F5F5F5E2F5F5F5F5F5F5F5F5F5F5F5F5F5F5F5F5F5F5F5F5F5F5F5F5F5F5F5F5F5F5F5F5F5F5F5F5F5E2F5F5F5F5F5F5F5F5E2F5F5E2E2E2E2F5F5E2F5F5F5F5F5F5F5F5E2F5F5F5F5F5F5F5F5F5F5F5F5F5F5F5F5F5F5F5F5F5F5F5F5F5F5F5F5F5F5F5F5F5F5F5F5F5F5F5F5
310
F5F5F5E2F5F5F5F5F5F5F5F5F5F5F5E2E2E2E2E2E2E2E2E2F5F5F5F5F5F5F5F5F5F5F5F5F5F5F5F5F5F5F5F5E2E2E2E2E2E2E2E2E2F5F5F5F5F5F5F5F5F5F5F5F5F5F5F5E2E2F5F5F5F5E2F5F5F5F5F5F5F5F5F5F5F5F5F5F5F5F5F5F5F5F5F5F5F5F5F5F5F5F5F5F5F5F5F5F5F5F5F5E2F5F5F5F5F5F5F5F5E2F5F5E2E2E2
310
E2F5F5E2F5F5F5F5F5F5F5F5E2F5F5F5F5F5F5F5F5F5F5F5F5F5F5F5F5F5F5F5F5F5F5F5F5F5F5F5F5F5F5F5F5F5F5F5F5F5F5F5E2E2E2F5E2F5F5F5F5F5F5F5F5F5F5F5E2E2E2E2E2F5F5F5F5F5F5F5F5F5F5F5F5F5F5F5F5F5F5F5F5F5F5F5F5F5F5F5F5E2E2E2E2E2F5F5F5F5F5F5F5F5F5F5F5F5F5F5F5F5E2F5F5F5F5
310
E2F5F5F5F5F5F5F5F5F5F5F5F5F5F5F5F5F5F5F5F5F5F5F5F5F5F5F5F5F5F5F5F5F5F5F5F5F5E2F5F5F5F5F5F5F5F5E2F5F5E2E2E2E2F5F5E2F5F5F5F5F5F5F5F5E2F5F5F5F5F5F5F5F5F5F5F5F5F5F5F5F5F5F5F5F5F5F5F5F5F5F5F5F5F5F5F5F5F5F5F5F5F5F5F5E2E2E2F5E2F5F5F5F5F5F5F5F5F5F5F5E2F5F5F5F5F5
310
F5F5F5F5F5F5F5F5F5F5F5F5F5F5F5F5F5F5F5F5F5F5F5F5F5F5F5F5F5F5F5E2F5F5F5F5F5F5F5F5F5F5F5F5F5F5F5F5E2F5F5F5F5E2F5F5F5F5F5F5F5F5F5F5F5F5F5F5F5F5F5F5F5F5F5F5F5F5F5F5F5F5F5F5F5F5F5F5F5F5F5E2F5F5F5F5F5F5F5F5E2F5F5E2E2E2E2F5F5E2F5F5F5F5F5F5F5F5E2F5F5F5F5F5F5F5F5
310
F5F5F5F5F5F5F5F5F5F5F5F5F5F5F5F5F5F5F5F5F5F5F5F5F5F5F5F5F5F5F5F5F5F5F5E2F5F5F5F5F5F5F5F5F5F5F5E2F5F5F5F5F5F5F5F5F5F5F5F5F5F5F5F5F5F5F5F5F5F5F5F5F5F5F5F5F5F5F5F5F5F5F5F5E2F5F5F5F5F5F5F5F5F5F5F5F5F5F5F5F5E2F5F5F5F5E2F5F5F5F5F5F5F5F5F5F5F5F5F5F5F5F5F5F5F5F5
310
F5F5F5F5F5F5F5F5F5F5F5F5F5F5F5F5F5E2F5F5F5F5F5F5F5F5E2F5F5E2E2E2E2F5F5E2F5F5F5F5F5F5F5F5E2F5F5F5F5F5F5F5F5F5F5F5F5F5F5F5F5F5F5F5F5F5F5F5F5F5F5F5F5F5F5F5F5F5F5F5F5F5F5F5F5F5F5F5E2F5F5F5F5F5E2E2E2E2E2E2E2F5F5F5F5F5F5F5F5F5F5F5F5F5F5F5F5F5F5F5F5F5F5F5F5F5F5
310
F5F5F5F5F5F5F5F5F5F5E2E2E2E2E2E2E2E2F5F5F5F5F5F5F5F5F5E2F5F5F5F5E2F5F5F5F5F5F5F5F5F5F5F5F5F5F5F5F5F5F5F5F5F5F5F5F5F5F5F5F5F5F5F5F5F5F5F5F5F5E2F5F5F5F5F5F5F5F5E2F5F5E2E2E2E2F5F5E2F5F5F5F5F5F5F5F5E2F5F5F5F5F5F5F5F5F5F5F5F5F5F5F5F5F5F5F5F5F5F5F5F5F5F5F5F5F5
310
F5F5F5F5F5F5F5F5F5F5E2E2E2F5E2F5F5F5E2E2F5F5F5E2E2F5E2F5F5F5F5F5F5F5F5F5F5F5F5F5F5F5F5F5F5F5F5F5F5F5F5F5F5F5F5F5F5F5F5F5F5F5F5E2F5E2E2F5F5F5E2E2F5F5F5F5F5F5F5F5E2F5F5F5F5E2F5F5F5F5F5F5F5F5F5F5F5F5F5F5F5F5F5F5F5F5F5F5F5F5F5F5F5F5F5F5F5F5F5F5F5F5F5E2F5F5F5
310
F5F5F5F5F5E2F5F5E2E2E2E2F5F5E2F5F5F5F5F5F5F5F5E2F5F5F5F5F5F5F5F5F5F5F5F5F5F5F5F5F5F5F5F5F5F5F5F5F5F5F5F5F5F5F5F5F5F5F5F5F5F5F5E2E2E2F5E2E2F5F5E2E2E2E2E2E2E2E2E2F5F5F5F5F5F5F5F5F5F5F5F5F5F5F5F5F5F5F5F5F5F5F5F5F5F5F5F5F5F5F5F5F5F5F5F5E2E2E2E2E2E2E2E2E2F5F5
310
F5F5F5F5F5F5E2F5F5F5F5E2F5F5F5F5F5F5F5F5F5F5F5F5F5F5F5F5F5F5F5F5F5F5F5F5F5F5F5F5F5F5F5F5F5F5F5F5F5E2F5F5F5F5F5F5F5F5E2F5F5E2E2E2E2F5F5F5F5F5F5F5F5F5F5F5E2F5F5F5F5F5F5F5F5F5F5F5F5F5F5F5F5F5F5F5F5F5F5F5F5F5F5F5F5F5F5F5F5F5F5F5F5F5F5F5E2E2F5F5E2E2F5F5E2E2E2
310
E2E2E2E2E2E2F5F5F5F5F5F5F5F5F5F5F5F5F5F5F5F5F5F5F5F5F5F5F5F5F5F5F5F5F5F5F5F5F5F5F5F5E2E2E2E2E2E2E2E2E2F5F5F5F5F5F5F5F5E2F5F5F5F5E2F5F5F5F5F5F5F5F5F5F5F5F5F5F5F5F5F5F5F5F5F5F5F5F5F5F5F5F5F5F5F5F5F5F5F5F5F5E2F5F5F5F5F5F5F5F5F5F5F5E2E2E2E2F5F5F5F5F5F5F5F5F5
310
F5F5E2F5F5F5F5F5F5F5F5F5F5F5F5F5F5F5F5F5F5F5F5F5F5F5F5F5F5F5F5F5F5F5F5F5F5F5F5F5F5F5F5F5E2E2E2E2E2E2E2E2F5F5F5E2E2F5E2F5F5F5F5F5F5F5F5F5F5F5F5F5F5F5F5F5F5F5F5F5F5F5F5F5F5F5F5F5F5F5F5F5F5F5F5E2F5E2E2F5F5F5E2E2F5F5F5F5F5F5F5F5E2F5F5F5F5E2F5F5F5F5F5F5F5F5F5
310
F5F5F5F5F5F5F5F5F5F5F5F5F5F5F5F5F5F5F5F5F5F5F5F5F5F5F5F5E2F5F5F5F5F5F5F5F5F5F5F5E2E2E2E2F5F5F5F5F5F5F5F5F5F5F5E2F5F5F5F5F5F5F5F5F5F5F5F5F5F5F5F5F5F5F5F5F5F5F5F5F5F5F5F5F5F5F5F5F5F5F5F5F5F5F5E2E2E2F5F5F5F5F5E2E2E2F5F5E2E2F5E2F5F5F5F5F5F5F5F5F5F5F5F5F5F5F5
310
F5F5F5F5F5F5F5F5F5F5F5F5F5F5F5F5F5F5F5F5F5E2F5E2E2F5F5F5E2E2F5F5F5F5F5F5F5E2E2E2F5F5E2E2E2F5F5F5F5F5F5F5F5F5F5F5F5F5F5F5F5F5F5F5F5F5F5F5F5F5F5F5F5F5F5F5F5F5F5F5F5E2F5F5F5F5F5F5F5F5F5F5F5E2E2E2E2F5F5F5F5F5F5F5F5F5F5F5E2F5F5F5F5F5F5F5F5F5F5F5F5F5F5F5F5F5F5
310
F5F5F5F5F5F5F5F5F5F5F5F5F5F5F5F5F5F5F5F5F5E2E2E2F5F5F5F5F5E2E2E2E2E2E2E2E2E2F5F5F5F5F5F5F5F5F5F5F5F5F5F5F5F5F5F5F5F5F5F5F5F5F5F5F5F5F5F5F5F5F5F5F5F5E2E2E2E2E2E2E2E2E2F5F5F5F5F5F5F5E2E2F5F5F5E2E2E2F5F5F5F5F5F5F5F5F5F5F5F5F5F5F5F5F5F5F5F5F5F5F5F5F5F5F5F5F5
310
F5F5F5F5F5F5F5E2F5F5F5F5F5F5F5F5F5F5F5E2E2E2E2F5F5F5F5F5F5F5F5F5F5F5E2F5F5F5F5F5F5F5F5F5F5F5F5F5F5F5F5F5F5F5F5F5F5F5F5F5F5F5F5F5F5F5F5F5F5F5F5F5F5F5F5E2F5F5F5F5F5F5E2E2E2E2E2E2E2E2E2F5F5F5F5F5F5F5F5F5F5F5F5F5F5F5F5F5F5F5F5F5F5F5F5F5F5F5F5F5F5F5F5F5F5F5F5
310
E2E2E2E2E2E2E2E2E2F5F5F5F5F5F5F5E2E2E2F5F5E2E2E2F5F5F5F5F5F5F5F5F5F5F5F5F5F5F5F5F5F5F5F5F5F5F5F5F5F5F5F5F5F5F5F5F5F5F5F5E2F5F5F5F5F5F5F5F5F5F5F5E2E2E2E2F5F5F5F5F5F5F5F5F5F5F5E2F5F5F5F5F5F5F5F5F5F5F5F5F5F5F5F5F5F5F5F5F5F5F5F5F5F5F5F5F5F5F5F5F5F5F5F5F5F5F5
310
E2E2E2F5F5F5F5F5F5E2E2E2E2E2E2E2E2F5F5F5F5F5F5F5F5F5F5F5F5F5F5F5F5F5F5F5F5F5F5F5F5F5F5F5F5F5F5F5F5F5F5F5F5E2E2E2E2E2E2E2E2E2F5F5F5F5F5F5F5E2E2E2F5F5F5F5E2F5F5F5F5F5F5F5F5F5F5F5F5F5F5F5F5F5F5F5F5F5F5F5F5F5F5F5F5F5F5F5F5F5F5F5F5E2F5F5F5F5F5F5F5F5F5F5F5E2E2
310
E2E2F5F5F5F5F5F5F5F5F5F5F5E2F5F5F5F5F5F5F5F5F5F5F5F5F5F5F5F5F5F5F5F5F5F5F5F5F5F5F5F5F5F5F5F5F5F5F5F5F5F5F5E2E2E2F5F5F5F5F5F5F5F5F5F5F5F5F5E2F5F5F5F5F5F5F5F5F5F5F5F5F5F5F5F5F5F5F5F5F5F5F5F5F5F5F5F5F5F5F5F5F5F5F5F5E2F5F5F5F5F5F5F5F5F5F5F5F5F5F5F5E2E2E2F5F5
310
E2E2E2F5F5F5F5F5F5F5F5F5F5F5F5F5F5F5F5F5F5F5F5F5F5F5F5F5F5F5F5F5F5F5F5F5F5F5F5E2F5F5F5F5F5F5F5F5F5F5F5E2E2E2E2F5F5F5F5F5F5F5F5F5F5F5E2F5F5F5F5F5F5F5F5F5F5F5F5F5F5F5F5F5F5F5F5F5F5F5F5F5F5F5F5F5F5F5F5F5F5F5F5F5F5F5F5F5F5F5F5F5F5F5F5F5F5F5F5F5F5F5E2F5F5F5F5
310
F5F5F5F5F5F5F5F5F5F5F5F5F5F5F5F5F5F5F5F5F5F5F5F5F5F5F5F5F5F5F5F5E2F5F5F5F5F5F5F5F5F5F5F5F5F5F5F5E2E2E2F5F5E2E2E2F5F5F5F5F5F5F5F5F5F5F5F5F5F5F5F5F5F5F5F5F5F5F5F5F5F5F5F5F5F5F5F5F5F5F5F5E2F5F5F5F5F5F5F5F5F5F5F5E2E2E2E2F5F5F5F5F5F5F5F5F5F5F5E2F5F5F5F5F5F5F5
310
F5F5F5F5F5F5F5F5F5F5F5F5F5F5F5F5F5F5F5F5F5F5F5F5F5F5F5F5F5F5F5F5F5F5F5F5F5F5F5F5F5F5F5F5F5F5F5F5E2F5F5F5F5F5F5F5F5F5F5F5F5F5F5F5F5F5F5F5F5F5F5F5F5F5F5F5F5F5F5F5F5F5F5F5F5E2F5F5F5F5F5F5F5F5F5F5F5F5F5F5F5E2E2E2F5F5E2E2E2F5F5F5F5F5F5F5F5F5F5F5F5F5F5F5F5F5F5
310
F5F5F5F5F5F5F5F5F5F5F5F5F5F5F5F5F5F5E2F5F5F5F5F5F5F5F5F5F5F5E2E2E2E2F5F5E2F5F5F5F5F5F5F5F5E2F5F5F5F5F5F5F5F5F5F5F5F5F5F5F5F5F5F5F5F5F5F5F5F5F5F5F5F5F5F5F5F5F5F5F5F5F5F5F5F5F5F5F5F5F5F5F5F5F5F5F5F5F5F5F5E2F5F5F5F5F5F5F5F5F5F5F5F5F5F5F5F5F5F5F5F5F5F5F5F5F5
310
F5F5F5F5F5F5F5F5F5F5F5E2F5F5F5F5F5F5F5F5F5F5F5F5F5F5F5E2E2F5F5F5E2E2E2F5F5F5F5F5F5F5F5F5F5F5F5F5F5F5F5F5F5F5F5F5F5F5F5F5F5F5F5F5F5F5F5F5F5F5F5E2F5F5F5F5F5F5F5F5E2F5F5E2E2E2E2F5F5E2F5F5F5F5F5F5F5F5E2F5F5F5F5F5F5F5F5F5F5F5F5F5F5F5F5F5F5F5F5F5F5F5F5F5F5F5F5
310
F5F5F5F5F5F5F5F5F5F5F5F5F5F5F5F5F5F5F5F5F5F5F5F5F5F5F5E2F5F5F5F5F5F5F5F5F5F5F5F5F5F5F5F5F5F5F5F5F5F5F5F5F5F5F5F5F5F5F5F5F5F5F5F5E2F5F5F5F5F5F5F5F5F5F5F5F5F5F5F5F5F5F5F5F5F5F5F5F5F5F5F5F5F5F5F5F5F5F5F5F5F5F5F5F5F5F5F5F5F5F5F5F5F5F5F5F5F5F5F5F5F5F5F5E2F5F5
310
F5F5F5F5F5F5E2F5F5E2E2E2E2F5F5E2F5F5F5F5F5F5F5F5E2F5F5F5F5F5F5F5F5F5F5F5F5F5F5F5F5F5F5F5F5F5F5F5F5F5F5F5F5F5F5F5F5F5F5F5F5F5F5F5F5E2F5F5F5F5F5F5F5E2E2E2E2E2E2E2E2F5F5F5F5F5F5F5F5F5F5F5F5F5F5F5F5F5F5F5F5F5F5F5F5F5F5F5F5F5F5F5F5F5F5F5F5E2E2E2E2E2E2E2E2E2F5
310
F5F5F5F5F5F5E2E2E2F5F5E2E2E2F5F5F5F5F5F5F5F5F5F5F5F5F5F5F5F5F5F5F5F5F5F5F5F5F5F5F5F5F5F5F5F5F5F5F5F5E2F5F5F5F5F5F5F5F5E2F5F5E2E2E2E2F5F5E2F5F5F5F5F5F5F5F5E2F5F5F5F5F5F5F5F5F5F5F5F5F5F5F5F5F5F5F5F5F5F5F5F5F5F5F5F5F5F5F5F5F5F5F5F5F5F5F5E2E2E2F5F5F5F5F5E2E2
310
E2E2E2E2E2E2E2F5F5F5F5F5F5F5F5F5F5F5F5F5F5F5F5F5F5F5F5F5F5F5F5F5F5F5F5F5F5F5F5F5F5F5F5E2E2E2E2E2E2E2E2E2F5F5F5F5F5F5F5E2E2E2F5F5E2E2E2F5F5F5F5F5F5F5F5F5F5F5F5F5F5F5F5F5F5F5F5F5F5F5F5F5F5F5F5F5F5F5F5F5F5F5F5E2F5F5F5F5F5F5F5F5E2F5F5E2E2E2E2F5F5E2F5F5F5F5F5
310
F5F5F5E2F5F5F5F5F5F5F5F5F5F5F5F5F5F5F5F5F5F5F5F5F5F5F5F5F5F5F5F5F5F5F5F5F5F5F5F5F5F5F5E2E2E2F5F5F5F5F5E2E2E2E2E2E2E2E2E2F5F5F5F5F5F5F5F5F5F5F5F5F5F5F5F5F5F5F5F5F5F5F5F5F5F5F5F5F5F5F5F5F5F5F5F5E2E2E2E2E2E2E2E2E2F5F5F5F5F5F5F5E2E2E2F5F5E2E2E2F5F5F5F5F5F5F5
310
F5F5F5F5F5F5F5F5F5F5F5F5F5F5F5F5F5F5F5F5F5F5F5F5F5F5F5F5F5E2F5F5F5F5F5F5F5F5E2F5F5E2E2E2E2F5F5E2F5F5F5F5F5F5F5F5E2F5F5F5F5F5F5F5F5F5F5F5F5F5F5F5F5F5F5F5F5F5F5F5F5F5F5F5F5F5F5F5F5F5F5F5F5F5F5F5E2E2E2F5F5F5F5F5E2E2E2F5F5E2E2F5E2F5F5F5F5F5F5F5F5F5F5F5F5F5F5
310
F5F5F5F5F5F5F5F5F5F5F5F5F5F5F5F5F5F5F5F5F5F5E2F5E2E2F5F5F5E2E2F5F5F5F5F5F5F5F5F5F5F5F5F5F5F5F5F5F5F5F5F5F5F5F5F5F5F5F5F5F5F5F5F5F5F5F5F5F5F5F5F5F5F5F5F5F5F5F5F5F5F5E2F5F5F5F5F5F5F5F5E2F5F5E2E2E2E2F5F5E2F5F5F5F5F5F5F5F5E2F5F5F5F5F5F5F5F5F5F5F5F5F5F5F5F5F5
310
F5F5F5F5F5F5F5F5F5F5F5F5F5F5F5F5F5F5F5F5F5F5F5F5E2E2E2E2E2E2E2E2F5F5F5E2E2F5E2F5F5F5F5F5F5F5F5F5F5F5F5F5F5F5F5F5F5F5F5F5F5F5F5F5F5F5F5F5F5F5F5F5F5F5F5E2F5E2E2F5F5F5E2E2F5F5F5F5F5F5F5F5F5F5F5F5F5F5F5F5F5F5F5F5F5F5F5F5F5F5F5F5F5F5F5F5F5F5F5F5F5F5F5F5F5F5F5
310
F5F5F5F5F5F5F5F5E2F5F5F5F5F5F5F5F5E2F5F5E2E2E2E2F5F5E2F5F5F5F5F5F5F5F5E2F5F5F5F5F5F5F5F5F5F5F5F5F5F5F5F5F5F5F5F5F5F5F5F5F5F5F5F5F5F5F5F5F5F5F5F5F5F5F5E2E2E2F5F5E2F5F5E2E2E2E2E2E2E2E2E2F5F5F5F5F5F5F5F5F5F5F5F5F5F5F5F5F5F5F5F5F5F5F5F5F5F5F5F5F5F5F5F5F5F5F5
310
F5E2E2E2E2E2E2E2E2E2F5F5F5F5F5F5F5E2F5E2F5F5E2E2E2F5F5F5F5F5F5F5F5F5F5F5F5F5F5F5F5F5F5F5F5F5F5F5F5F5F5F5F5F5F5F5F5F5F5F5F5E2F5F5F5F5F5F5F5F5E2F5F5E2E2E2E2F5F5E2F5F5F5F5F5F5F5F5E2F5F5F5F5F5F5F5F5F5F5F5F5F5F5F5F5F5F5F5F5F5F5F5F5F5F5F5F5F5F5F5F5F5F5F5F5F5F5
310
F5F5E2E2F5E2E2F5F5E2E2E2E2E2E2E2E2E2F5F5F5F5F5F5F5F5F5F5F5F5F5F5F5F5F5F5F5F5F5F5F5F5F5F5F5F5F5F5F5F5F5F5F5F5E2E2E2E2E2E2E2E2E2F5F5F5F5F5F5F5E2E2E2F5F5E2E2E2F5F5F5F5F5F5F5F5F5F5F5F5F5F5F5F5F5F5F5F5F5F5F5F5F5F5F5F5F5F5F5F5F5F5F5F5E2F5F5F5F5F5F5F5F5E2F5F5E2
310
E2E2E2F5F5E2F5F5F5F5F5F5F5F5E2F5F5F5F5F5F5F5F5F5F5F5F5F5F5F5F5F5F5F5F5F5F5F5F5F5F5F5F5F5F5F5F5F5F5F5F5F5F5F5E2E2E2F5F5E2F5F5E2E2E2F5F5E2E2F5E2F5F5F5F5F5F5F5F5F5F5F5F5F5F5F5F5F5F5F5F5F5F5F5F5F5F5F5F5F5F5F5F5F5F5F5F5E2F5E2E2F5F5F5E2E2F5F5F5F5F5F5F5E2E2F5F5
310
F5F5F5E2F5F5F5F5F5F5F5F5F5F5F5F5F5F5F5F5F5F5F5F5F5F5F5F5F5F5F5F5F5F5F5F5F5F5F5F5E2F5F5F5F5F5F5F5F5E2F5F5E2E2E2E2F5F5E2F5F5F5F5F5F5F5F5E2F5F5F5F5F5F5F5F5F5F5F5F5F5F5F5F5F5F5F5F5F5F5F5F5F5F5F5F5F5F5F5F5F5F5F5F5F5F5F5F5F5F5F5F5E2F5F5F5F5E2E2E2E2E2E2E2F5F5F5
310
F5F5F5F5F5F5F5F5F5F5F5F5F5F5F5F5F5F5F5F5F5F5F5F5F5F5F5F5F5F5F5F5F5E2E2E2E2E2E2E2E2F5F5F5F5F5F5F5F5E2E2E2F5F5E2E2E2F5F5F5F5F5F5F5F5F5F5F5F5F5F5F5F5F5F5F5F5F5F5F5F5F5F5F5F5F5F5F5F5F5F5F5F5E2F5F5F5F5F5F5F5F5E2F5F5E2E2E2E2F5F5E2F5F5F5F5F5F5F5F5E2F5F5F5F5F5F5
310
F5F5F5F5F5F5F5F5F5F5F5F5F5F5F5F5F5F5F5F5F5F5F5F5F5F5F5F5F5F5F5F5F5F5F5F5F5F5E2F5F5F5F5F5F5F5F5F5F5E2F5F5F5F5F5F5F5F5F5F5F5F5F5F5F5F5F5F5F5F5F5F5F5F5F5F5F5F5F5F5F5F5F5F5F5F5E2F5F5F5F5F5F5F5F5F5F5F5F5F5F5F5E2E2E2F5F5E2E2E2F5F5F5F5F5F5F5F5F5F5F5F5F5F5F5F5F5
310
F5F5F5F5F5F5F5F5F5F5F5F5F5F5F5F5F5F5F5E2F5F5F5F5F5F5F5F5E2F5F5E2E2E2E2F5F5E2F5F5F5F5F5F5F5F5E2F5F5F5F5F5F5F5F5F5F5F5F5F5F5F5F5F5F5F5F5F5F5F5F5F5F5F5F5F5F5F5F5F5F5F5F5F5F5F5E2E2E2F5F5E2F5F5F5F5F5F5F5F5F5F5E2F5F5F5F5F5F5F5F5F5F5F5F5F5F5F5F5F5F5F5F5F5F5F5F5
310
F5F5F5F5F5F5F5F5F5F5F5F5E2F5F5F5F5F5F5F5F5F5F5F5F5F5F5F5E2E2E2F5F5E2F5E2F5F5F5F5F5F5F5F5F5F5F5F5F5F5F5F5F5F5F5F5F5F5F5F5F5F5F5F5F5F5F5F5F5F5F5F5E2F5F5F5F5F5F5F5F5E2F5F5E2E2E2E2F5F5E2F5F5F5F5F5F5F5F5E2F5F5F5F5F5F5F5F5F5F5F5F5F5F5F5F5F5F5F5F5F5F5F5F5F5F5F5
310
F5F5F5F5F5F5F5F5F5F5F5F5E2E2E2F5F5E2F5F5F5F5F5F5F5F5F5F5E2F5F5F5F5F5F5F5F5F5F5F5F5F5F5F5F5F5F5F5F5F5F5F5F5F5F5F5F5F5F5F5F5F5F5F5F5E2F5F5F5F5F5F5F5F5F5F5F5F5F5F5F5F5E2F5F5F5E2E2E2F5F5F5F5F5F5F5F5F5F5F5F5F5F5F5F5F5F5F5F5F5F5F5F5F5F5F5F5F5F5F5F5F5F5F5F5E2F5
310
F5F5F5F5F5F5F5E2F5F5E2E2E2E2F5F5E2F5F5F5F5F5F5F5F5E2F5F5F5F5F5F5F5F5F5F5F5F5F5F5F5F5F5F5F5F5F5F5F5F5F5F5F5F5F5F5F5F5F5F5F5F5F5F5F5F5F5F5F5F5E2F5F5F5F5F5F5F5F5F5F5E2F5F5F5F5F5F5F5F5F5F5F5F5F5F5F5F5F5F5F5F5F5F5F5F5F5F5F5F5F5F5F5F5F5F5F5F5E2F5F5F5F5F5F5F5F5
310
F5F5F5F5F5F5F5F5E2F5F5F5F5E2F5F5F5F5F5F5F5F5F5F5F5F5F5F5F5F5F5F5F5F5F5F5F5F5F5F5F5F5F5F5F5F5F5F5F5F5F5E2F5F5F5F5F5F5F5F5E2F5F5E2E2E2E2F5F5E2F5F5F5F5F5F5F5F5E2F5F5F5F5F5F5F5F5F5F5F5F5F5F5F5F5F5F5F5F5F5F5F5F5F5F5F5F5F5F5F5F5F5F5F5F5F5F5F5F5F5F5F5F5E2F5F5F5
310
F5F5F5F5F5F5F5E2F5F5F5F5F5F5F5F5F5F5F5F5F5F5F5F5F5F5F5F5F5F5F5F5F5F5F5F5F5F5F5F5F5F5F5F5E2F5F5F5F5F5F5F5F5F5F5F5F5F5F5F5F5E2F5F5F5F5E2F5F5F5F5F5F5F5F5F5F5F5F5F5F5F5F5F5F5F5F5F5F5F5F5F5F5F5F5F5F5F5F5F5F5F5F5F5E2F5F5F5F5F5F5F5F5E2F5F5E2E2E2E2F5F5F5F5F5F5F5
310
F5F5F5F5E2F5F5F5F5F5F5F5F5F5F5F5F5F5F5F5F5F5F5F5F5F5F5F5F5F5F5F5F5F5F5F5F5F5F5F5F5F5F5F5F5E2F5F5F5E2F5F5F5F5F5F5F5F5F5F5E2E2E2E2F5F5F5F5F5F5F5F5F5F5F5F5F5F5F5F5F5F5F5F5F5F5F5F5F5F5F5F5F5F5E2E2E2E2F5F5F5F5F5F5F5F5F5F5F5F5F5F5F5F5E2F5F5F5F5E2F5F5F5F5F5F5F5
310
F5F5F5F5F5F5F5F5F5F5F5F5F5F5F5F5F5F5F5F5F5F5F5F5F5F5F5F5F5F5E2F5F5F5F5F5F5F5F5F5F5F5E2E2E2E2F5F5F5F5F5F5F5F5F5F5F5E2F5F5F5F5F5F5F5F5F5F5F5F5F5F5F5F5F5F5F5F5F5F5F5F5F5F5F5F5F5F5F5F5F5F5F5F5F5F5F5E2E2E2F5F5E2F5F5F5F5F5F5F5F5F5F5E2E2E2E2E2F5F5F5E2F5F5F5F5F5
310
F5F5F5F5F5F5F5F5F5F5F5F5F5F5F5F5F5F5F5E2E2E2E2E2F5F5F5F5F5F5F5F5F5F5F5F5F5F5F5F5E2F5F5F5F5E2F5F5F5F5F5F5F5F5F5F5F5F5F5F5F5F5F5F5F5F5F5F5F5F5F5F5F5F5F5F5F5F5F5F5F5F5F5E2F5F5F5F5F5F5F5F5F5F5F5E2E2E2E2F5F5F5F5F5F5F5F5F5F5F5E2F5F5F5F5F5F5F5F5F5F5F5F5F5F5F5F5
310
F5F5F5F5F5F5F5F5F5F5F5F5F5F5F5F5F5F5F5F5F5F5F5E2E2E2F5F5E2F5F5F5F5F5F5F5F5F5F5E2E2E2E2E2E2E2E2E2F5F5F5F5F5F5F5F5F5F5F5F5F5F5F5F5F5F5F5F5E2E2E2E2E2E2E2E2E2F5F5F5F5F5F5F5F5F5F5F5F5F5F5F5E2E2F5F5F5F5E2F5F5F5F5F5F5F5F5F5F5F5F5F5F5F5F5F5F5F5F5F5F5F5F5F5F5F5F5
310
F5F5F5F5F5F5F5F5F5E2F5F5F5F5F5F5F5F5F5F5F5E2E2E2E2F5F5F5F5F5F5F5F5F5F5F5E2F5F5F5F5F5F5F5F5F5F5F5F5F5F5F5F5F5F5F5F5F5F5F5F5F5F5F5F5F5F5F5F5F5F5F5F5F5F5F5F5E2E2F5F5E2F5F5F5F5F5F5F5F5F5F5E2E2E2E2E2E2E2E2E2E2F5F5F5F5F5F5F5F5F5F5F5F5F5F5F5F5F5F5E2E2E2E2E2E2E2
310
E2E2E2F5F5F5F5F5F5F5F5F5F5F5F5F5F5F5F5E2F5F5F5F5E2F5F5F5F5F5F5F5F5F5F5F5F5F5F5F5F5F5F5F5F5F5F5F5F5F5F5F5F5F5F5F5F5F5F5F5F5F5E2F5F5F5F5F5F5F5F5F5F5F5E2E2E2E2F5F5F5F5F5F5F5F5F5F5F5E2F5F5F5F5F5F5F5F5F5F5F5F5F5F5F5F5F5F5F5F5F5F5F5F5F5F5F5F5F5F5F5F5F5F5F5F5F5
310
F5F5E2E2F5F5E2E2F5F5F5F5F5F5F5F5F5F5E2E2E2E2E2E2E2E2E2E2E2F5F5F5F5F5F5F5F5F5F5F5F5F5F5F5F5E2E2E2F5E2E2E2E2E2E2E2E2E2E2E2E2E2E2E2E2E2E2E2E2E2E2E2E2E2E2F5F5E2F5F5F5F5F5F5F5F5F5F5F5F5F5F5F5F5F5F5F5F5F5F5F5F5F5F5F5F5F5F5F5F5F5F5F5F5F5E2F5F5F5F5F5F5F5F5F5F5F5
310
E2E2E2E2F5F5F5F5F5F5F5F5F5F5F5E2F5F5F5F5F5F5F5F5F5F5F5F5F5F5F5F5F5F5F5F5F5F5F5F5F5F5F5F5F5F5F5F5F5F5F5F5F5F5F5F5E2E2F5F5E2F5F5F5F5F5F5F5F5F5F5E2E2E2E2E2E2E2E2E2E2E2F5F5F5F5F5F5F5F5F5F5F5F5F5F5F5F5E2E2E2E2E2E2E2E2E2E2E2F5F5F5F5F5F5F5F5F5F5F5F5F5F5F5F5F5F5
310
F5F5F5E2F5F5F5F5F5F5F5F5F5F5F5F5F5F5F5F5F5F5F5F5F5F5F5F5F5F5F5F5F5F5F5F5F5F5F5F5F5E2F5F5F5F5F5F5F5F5F5F5F5E2E2E2E2F5F5F5F5F5F5F5F5F5F5F5E2F5F5F5F5F5F5F5F5F5F5F5F5F5F5F5F5F5F5F5F5F5F5F5F5F5F5F5F5F5F5F5F5F5F5F5F5F5F5F5E2E2E2E2E2E2E2E2E2E2E2E2E2E2E2E2E2E2E2
310
E2E2E2E2E2E2E2E2E2E2E2E2E2E2E2E2E2E2E2E2E2E2E2E2E2E2E2E2E2E2E2E2E2E2E2E2E2E2E2E2E2E2E2E2E2E2E2E2E2E2E2E2E2E2E2E2E2E2E2F5F5F5F5F5F5F5F5F5F5F5F5F5F5F5F5F5F5F5F5F5F5F5F5F5F5F5F5F5F5F5F5F5F5F5E2F5F5F5F5F5F5F5F5F5F5F5E2E2E2E2F5F5F5F5F5F5F5F5F5F5F5E2F5F5F5F5F5
310
F5F5F5F5F5F5F5F5F5F5F5F5F5F5F5F5F5F5F5F5F5F5F5F5F5F5F5F5F5F5F5F5F5F5F5E2F5F5F5F5F5F5F5F5F5F5F5F5F5F5E2F5E2F5F5F5E2F5F5F5F5F5F5F5F5F5F5F5F5F5F5F5F5F5F5F5F5F5F5F5F5E2F5F5F5E2F5E2F5F5F5F5F5F5F5F5F5F5F5F5F5F5F5F5F5F5F5F5F5F5F5F5F5F5F5F5F5F5F5F5F5F5F5F5F5F5F5
310
F5F5F5F5F5F5F5F5F5F5F5F5F5F5F5F5F5F5F5F5E2F5F5F5F5F5F5F5F5F5F5F5E2E2E2E2F5F5F5F5F5F5F5F5F5F5F5E2F5F5F5F5F5F5F5F5F5F5F5F5F5F5F5F5F5F5F5F5F5F5F5F5F5F5F5F5F5F5F5F5F5F5F5F5F5F5F5E2E2E2F5F5F5F5F5F5F5F5F5F5F5F5F5E2F5E2F5F5F5E2F5F5F5F5F5F5F5F5F5F5F5F5F5F5F5F5F5
310
F5F5F5F5F5F5F5E2F5F5F5E2F5E2F5F5F5F5F5F5F5F5F5F5F5F5F5F5F5F5F5F5F5F5F5F5F5F5F5F5F5F5F5F5F5F5F5F5F5F5F5F5F5F5F5F5F5F5F5F5F5F5F5F5F5F5F5F5F5F5F5F5F5E2F5F5F5F5F5F5F5F5F5F5F5E2E2E2E2F5F5F5F5F5F5F5F5F5F5F5E2F5F5F5F5F5F5F5F5F5F5F5F5F5F5F5F5F5F5F5F5F5F5F5F5F5F5
310
F5F5F5F5F5F5F5F5F5F5F5F5F5E2E2E2F5F5F5F5F5F5F5F5F5F5F5F5F5E2F5E2F5F5F5E2F5F5F5F5F5F5F5F5F5F5F5F5F5F5F5F5F5F5F5F5F5F5F5F5E2F5F5F5E2F5E2F5F5F5F5F5F5F5F5F5F5F5F5F5F5F5F5F5F5F5F5F5F5F5F5F5F5F5F5F5F5F5F5F5F5F5F5F5F5F5F5F5F5F5F5F5F5F5F5F5F5F5F5F5F5F5F5F5F5F5E2
310
F5F5F5F5F5F5F5F5F5F5F5E2E2E2E2F5F5E2F5F5F5F5F5F5F5F5E2F5F5F5F5F5F5F5F5F5F5F5F5F5F5F5F5F5F5F5F5F5F5F5F5F5F5F5F5F5F5F5F5F5F5F5F5F5F5F5F5F5F5F5F5F5F5F5F5F5F5F5F5F5F5F5E2F5E2F5F5F5E2F5E2E2E2E2E2E2E2E2E2F5E2E2E2F5F5E2E2F5E2E2E2E2E2E2F5F5F5E2F5E2F5F5F5F5F5F5F5
310
F5F5F5F5F5F5F5F5F5F5F5F5F5F5F5F5F5F5F5F5F5F5F5F5F5F5F5F5F5F5F5F5F5F5F5F5F5F5F5F5F5F5F5F5F5F5F5F5F5F5F5F5E2F5F5F5F5F5F5F5F5E2F5F5E2E2E2E2F5F5E2F5F5F5F5F5F5F5F5E2F5F5F5F5F5F5F5F5F5F5F5F5F5F5F5F5F5F5F5F5F5F5F5F5F5F5F5F5F5F5F5F5F5F5F5F5F5F5F5F5F5F5F5F5F5F5F5
310
F5F5F5F5F5F5F5F5E2F5E2F5F5F5E2E2E2E2E2E2E2E2E2E2E2F5E2E2E2F5F5E2E2E2E2E2F5E2E2E2F5F5F5E2F5E2F5F5F5F5F5F5F5F5F5F5F5F5F5F5F5F5F5F5F5F5F5F5F5F5F5F5F5F5F5F5F5F5F5F5F5F5F5F5F5F5F5F5F5F5F5F5F5F5F5F5F5F5F5F5F5F5F5F5F5E2F5F5F5F5F5F5F5F5E2F5F5E2E2E2E2F5F5E2F5F5F5
310
F5F5F5F5F5E2F5F5F5F5F5F5F5F5F5F5F5F5F5F5F5F5F5F5F5F5F5F5F5F5F5F5F5F5F5F5F5F5F5F5F5F5F5F5F5F5F5F5F5F5F5F5F5F5F5F5F5F5F5F5F5E2F5E2F5F5F5E2F5F5F5E2E2E2E2E2E2F5F5E2E2E2F5F5E2E2F5E2E2E2E2F5E2F5F5F5E2F5E2F5F5F5F5F5F5F5F5F5F5F5F5F5F5F5F5F5F5F5F5F5F5F5F5F5F5F5F5
310
F5F5F5F5F5F5F5F5F5F5F5F5F5F5F5F5F5F5F5F5F5F5F5F5F5F5F5F5F5F5F5E2F5F5F5F5F5F5F5F5E2F5F5E2E2E2E2F5F5E2F5F5F5F5F5F5F5F5E2F5F5F5F5F5F5F5F5F5F5F5F5F5F5F5F5F5F5F5F5F5F5F5F5F5F5F5F5F5F5F5F5F5F5F5F5F5F5F5F5F5F5F5F5F5F5F5F5F5F5F5F5F5F5F5E2F5E2F5F5F5F5F5F5F5F5F5F5
310
F5F5F5F5F5F5F5F5F5F5F5F5F5F5F5F5F5F5F5F5F5F5E2F5E2F5F5F5F5F5F5F5F5F5F5F5F5F5F5F5F5F5F5F5F5F5F5F5F5F5F5F5F5F5F5F5F5F5F5F5F5F5F5F5F5F5F5F5F5F5F5F5F5F5F5F5F5F5F5F5F5F5F5F5E2F5F5F5F5F5F5F5F5E2F5F5E2E2E2E2F5F5E2F5F5F5F5F5F5F5F5E2F5F5F5F5F5F5F5F5F5F5F5F5F5F5F5
310
F5F5F5F5F5F5F5F5F5F5F5F5F5F5F5F5F5F5F5F5F5F5F5F5F5F5F5F5F5F5F5F5F5F5F5F5F5F5F5F5E2F5E2F5F5F5F5F5F5F5F5F5F5F5F5F5F5F5F5F5F5F5F5F5F5F5F5F5F5F5F5F5F5F5F5E2F5E2F5F5F5F5F5F5F5F5F5F5F5F5F5F5F5F5F5F5F5F5F5F5F5F5F5F5F5F5F5F5F5F5F5F5F5F5F5F5F5F5F5F5F5F5F5F5F5F5F5
310
F5F5F5F5F5F5F5F5F5F5E2F5F5F5F5F5F5F5F5E2F5F5E2E2E2E2F5F5E2F5F5F5F5F5F5F5F5E2F5F5F5F5F5F5F5F5F5F5F5F5F5F5F5F5F5F5F5F5F5F5F5F5F5F5F5F5F5F5F5F5F5F5F5F5F5F5F5F5F5F5F5F5F5F5F5F5F5F5F5F5F5F5F5E2F5E2F5F5F5F5F5E2E2E2E2E2E2E2F5F5E2E2E2F5F5E2E2E2E2F5E2E2E2E2E2F5F5
310
F5E2F5E2F5F5F5F5F5F5F5F5F5F5F5F5F5F5F5F5F5F5F5F5F5F5F5F5F5F5F5F5F5F5F5F5F5F5F5F5F5F5F5F5F5F5F5F5F5F5F5F5F5F5F5F5F5F5F5F5F5F5F5E2F5F5F5F5F5F5F5F5E2F5F5E2E2E2E2F5F5E2F5F5F5F5F5F5F5F5E2F5F5F5F5F5F5F5F5F5F5F5F5F5F5F5F5F5F5F5F5F5F5F5F5F5F5F5F5F5F5F5F5F5F5F5F5
310
F5F5F5F5F5F5F5F5F5F5F5F5F5F5F5F5F5F5F5E2F5E2E2E2E2E2E2E2E2E2F5E2E2E2E2F5E2F5E2F5F5E2E2E2F5E2E2E2E2E2E2E2E2E2E2F5E2F5F5F5F5F5F5F5F5F5F5F5F5F5F5F5F5F5F5F5F5F5F5F5F5F5F5F5F5F5F5F5F5F5F5F5F5F5F5F5F5F5F5F5F5F5F5F5F5F5F5F5F5F5F5F5F5F5F5F5E2F5F5F5F5F5F5F5F5E2F5
310
F5E2E2E2E2F5F5E2F5F5F5F5F5F5F5F5E2F5F5F5F5F5F5F5F5F5F5F5F5F5F5F5F5F5F5F5F5F5F5F5F5F5F5F5F5F5F5F5F5F5F5F5F5F5F5F5F5F5F5F5F5F5F5F5F5F5F5F5F5F5F5F5E2F5E2F5F5F5F5F5E2E2E2F5E2E2E2F5F5E2E2E2F5F5E2E2E2F5E2E2E2E2E2E2F5F5F5E2F5E2F5F5F5F5F5F5F5F5F5F5F5F5F5F5F5F5F5
310
F5F5F5F5F5F5F5F5F5F5F5F5F5F5F5F5F5F5F5F5F5F5F5F5F5F5F5F5F5F5F5F5F5F5F5F5F5F5F5F5F5F5E2F5F5F5F5F5F5F5F5E2F5F5E2E2E2E2F5F5E2F5F5F5F5F5F5F5F5E2F5F5F5F5F5F5F5F5F5F5F5F5F5F5F5F5F5F5F5F5F5F5F5F5F5F5F5F5F5F5F5F5F5F5F5F5F5F5F5F5F5F5F5F5F5F5F5F5F5F5F5F5F5F5F5E2F5
310
E2F5F5F5F5F5F5F5F5F5F5F5F5F5F5F5F5F5F5F5F5F5F5F5F5F5F5F5F5F5F5F5F5E2F5E2F5F5F5F5F5F5F5F5F5F5F5F5F5F5F5F5F5F5F5F5F5F5F5F5F5F5F5F5F5F5F5F5F5F5F5F5F5F5F5F5F5F5F5F5F5F5F5F5F5F5F5F5F5F5F5F5F5F5F5E2F5F5F5F5F5F5F5F5E2F5F5E2E2E2E2F5F5E2F5F5F5F5F5F5F5F5E2F5F5F5F5
310
F5F5F5F5F5F5F5F5F5F5F5F5F5F5F5F5F5F5F5F5F5F5F5F5F5F5F5F5F5F5F5F5F5F5F5F5F5F5F5F5F5F5F5F5F5F5F5F5F5F5F5E2F5F5F5F5F5F5F5F5F5F5F5F5F5F5F5F5F5F5F5F5F5F5F5F5F5F5F5F5F5F5F5F5F5F5F5F5E2F5F5F5F5F5F5F5F5F5F5F5F5F5F5F5F5F5F5F5F5F5F5F5F5F5F5F5F5F5F5F5F5F5F5F5F5F5F5
310
F5F5F5F5F5F5F5F5F5F5F5F5F5F5F5F5F5F5F5F5F5E2F5F5F5F5F5F5F5F5E2F5F5E2E2E2E2F5F5E2F5F5F5F5F5F5F5F5E2F5F5F5F5F5F5F5F5F5F5F5F5F5F5F5F5F5F5F5F5F5F5F5F5F5F5F5F5F5F5F5F5F5F5F5F5F5F5F5F5F5F5F5F5F5F5F5F5F5F5F5F5F5F5F5E2F5F5F5F5F5F5F5F5F5F5F5F5F5F5F5F5F5F5F5F5F5F5
310
F5F5F5F5F5F5F5F5F5F5F5F5F5F5E2F5F5F5F5F5F5F5F5F5F5F5F5F5F5F5F5F5F5F5F5F5F5F5F5F5F5F5F5F5F5F5F5F5F5F5F5F5F5F5F5F5F5F5F5F5F5F5F5F5F5F5F5F5F5F5F5F5F5F5E2F5F5F5F5F5F5F5F5E2F5F5E2E2E2E2F5F5E2F5F5F5F5F5F5F5F5E2F5F5F5F5F5F5F5F5F5F5F5F5F5F5F5F5F5F5F5F5F5F5F5F5F5
310
F5F5F5F5F5F5F5F5F5F5F5F5F5F5F5F5F5F5F5F5F5F5F5F5F5F5F5F5F5F5E2F5E2F5F5F5F5F5E2E2E2E2E2E2E2F5F5E2E2E2F5E2E2E2E2E2F5E2E2E2E2E2F5F5F5F5E2E2F5F5F5F5F5F5F5F5F5F5F5F5F5F5F5F5F5F5F5F5F5F5F5F5F5F5F5F5F5F5F5F5F5F5F5F5F5F5F5F5F5F5F5F5F5F5F5F5F5F5F5F5F5F5F5F5F5F5F5
310
E2F5F5F5F5F5F5F5F5E2F5F5E2E2E2E2F5F5E2F5F5F5F5F5F5F5F5E2F5F5F5F5F5F5F5F5F5F5F5F5F5F5F5F5F5F5F5F5F5F5F5F5F5F5F5F5F5F5F5F5F5F5F5F5F5F5F5F5F5F5F5F5F5F5F5F5F5F5F5F5F5F5F5E2E2E2E2E2E2E2E2E2E2E2F5E2F5E2F5F5E2E2E2F5E2E2E2E2F5E2E2F5E2E2E2E2E2E2E2E2E2F5F5F5F5F5F5
310
F5F5F5F5F5F5F5F5F5F5F5F5F5F5F5F5F5F5F5F5F5F5F5F5F5F5F5F5F5F5F5F5F5F5F5F5F5F5F5F5F5F5F5F5F5F5F5F5F5F5F5F5F5E2F5F5F5F5F5F5F5F5E2F5F5E2E2E2E2F5F5E2F5F5F5F5F5F5F5F5E2F5F5F5F5F5F5F5F5F5F5F5F5F5F5F5F5F5F5F5F5F5F5F5F5F5F5F5F5F5F5F5F5F5F5F5F5F5F5F5F5F5F5F5F5F5F5
310
F5F5F5F5F5F5F5F5F5E2F5F5F5F5F5F5F5F5F5F5F5F5F5F5F5F5F5F5F5F5F5F5F5F5F5F5F5F5F5F5F5F5F5F5F5F5E2F5F5F5F5F5F5F5F5F5F5F5F5F5F5F5F5F5F5F5F5F5F5F5F5F5F5F5F5F5F5F5F5F5F5F5F5F5F5F5F5F5F5F5F5F5F5F5F5F5F5F5F5F5F5F5F5F5F5F5E2F5F5F5F5F5F5F5F5E2F5F5E2E2E2E2F5F5E2F5F5
310
F5F5F5F5F5F5E2F5F5F5F5F5F5F5F5F5F5F5F5F5F5F5F5F5F5F5F5F5F5F5F5F5F5F5F5F5F5F5F5F5F5F5F5F5F5F5F5F5F5F5F5F5F5F5F5F5F5F5F5F5F5F5F5F5F5F5F5F5F5F5F5F5F5F5F5F5F5F5F5F5F5F5F5F5F5F5F5F5F5F5F5F5F5F5F5F5F5F5F5F5F5F5F5F5F5F5F5F5F5F5F5F5F5F5F5F5F5F5F5F5F5F5F5F5F5F5F5
310
F5F5F5F5F5F5F5F5F5F5F5F5F5F5F5F5F5F5F5F5F5F5F5F5F5F5F5F5F5F5F5F5E2F5F5F5F5F5F5F5F5E2F5F5E2E2E2E2F5F5E2F5F5F5F5F5F5F5F5E2F5F5F5F5F5F5F5F5F5F5F5F5F5F5F5F5F5F5F5F5F5F5F5F5F5F5F5F5F5F5F5F5F5F5F5F5F5F5F5F5F5F5F5F5F5F5F5F5F5F5F5F5F5F5F5F5F5F5F5F5F5F5F5F5F5F5F5
310
F5F5F5F5F5F5F5F5F5F5F5F5F5F5F5F5F5F5F5F5F5F5F5F5F5F5F5F5F5F5F5F5F5F5F5F5F5F5F5F5F5F5F5F5F5F5F5F5F5F5F5F5F5F5F5F5F5F5F5F5F5F5F5F5F5F5F5F5F5F5F5F5F5F5F5F5F5F5F5F5F5F5F5F5F5E2F5F5F5F5F5F5F5F5E2F5F5E2E2E2E2F5F5F5F5F5F5F5F5F5F5F5E2F5F5F5F5F5F5F5F5F5F5F5F5F5F5
310
F5F5F5F5F5F5F5F5F5F5F5F5F5F5F5F5F5F5F5F5F5F5F5F5F5F5F5F5F5F5F5F5F5F5F5F5F5F5F5F5F5F5F5F5F5F5F5F5F5F5F5F5F5F5F5F5F5F5F5F5F5F5F5F5F5F5F5F5F5F5F5F5F5F5F5F5F5F5F5F5F5F5F5F5F5F5F5F5F5F5F5F5F5F5F5F5F5F5F5F5F5F5F5F5F5F5F5F5F5F5F5F5F5F5F5F5F5F5F5F5F5F5F5F5F5F5F5
310
F5F5F5F5F5F5F5F5F5F5F5E2F5F5F5F5F5F5F5F5F5F5F5E2E2E2E2F5F5F5F5F5F5F5F5F5F5F5E2F5F5F5F5F5F5F5F5F5F5F5F5F5F5F5F5F5F5F5F5F5F5F5F5F5F5F5F5F5F5F5F5F5F5F5F5F5F5F5F5F5F5F5F5F5F5F5F5F5F5F5F5F5F5F5F5F5F5F5F5F5F5F5F5F5F5F5F5F5F5F5F5F5F5F5F5F5F5F5F5F5F5F5F5F5F5F5F5
310
F5F5F5F5F5F5F5F5F5F5F5F5F5F5F5F5F5F5F5F5F5F5F5F5F5F5F5F5F5F5F5F5F5F5F5F5F5F5F5F5F5F5F5F5F5F5F5F5F5F5F5F5F5F5F5F5F5F5F5F5F5F5F5F5E2F5F5F5F5F5F5F5F5F5F5F5E2E2E2E2F5F5F5F5F5F5F5F5F5F5F5E2F5F5F5F5F5F5F5F5F5F5F5F5F5F5F5F5F5F5F5F5F5F5F5F5F5F5F5F5F5F5F5F5F5F5F5
310
F5F5F5F5F5F5F5F5F5F5F5F5F5F5F5F5F5F5F5F5F5F5F5F5F5F5F5F5F5F5F5F5F5F5F5F5F5F5F5F5F5F5F5F5F5F5F5F5F5F5F5F5F5F5F5F5F5F5F5F5F5F5F5F5F5F5F5F5F5F5F5F5F5F5F5F5F5F5F5F5F5F5F5F5F5F5F5F5F5F5F5F5F5F5F5F5F5F5F5F5F5F5F5F5F5F5F5F5F5F5F5F5F5F5F5F5F5E2F5F5F5F5F5F5F5F5F5
310
F5F5E2E2E2E2F5F5F5F5F5F5F5F5F5F5F5E2F5F5F5F5F5F5F5F5F5F5F5F5F5F5F5F5F5F5F5F5F5F5F5F5F5F5F5F5F5F5F5F5F5F5F5F5F5F5F5F5F5F5F5F5F5F5F5F5F5F5F5F5F5F5F5F5F5F5F5F5F5F5F5F5F5F5F5F5F5F5F5F5F5F5F5F5F5F5F5F5F5F5F5F5F5F5F5F5F5F5F5F5F5F5F5F5F5F5F5F5F5F5F5F5F5F5F5F5F5
310
F5F5F5F5F5F5F5F5F5F5F5F5F5F5F5F5F5F5F5F5F5F5F5F5F5F5F5F5F5F5F5F5F5F5F5F5F5F5F5F5F5F5F5E2F5F5F5F5F5F5F5F5F5F5F5E2E2E2E2F5F5F5F5F5F5F5F5F5F5F5E2E2E2E2E2E2E2E2E2E2E2E2E2E2E2E2E2E2E2E2E2E2E2E2E2E2E2E2E2E2E2E2E2E2E2E2E2E2E2E2E2E2E2E2E2E2E2E2E2E2E2E2E2E2E2E2E2
310
E2E2E2E2E2E2E2E2E2E2E2E2E2E2E2E2E2E2E2E2E2E2E2E2E2E2E2E2E2E2E2E2E2E2E2E2E2E2E2E2E2E2E2E2E2E2E2E2E2E2E2E2E2E2E2E2E2E2E2E2E2E2E2E2E2E2E2E2E2E2E2E2E2E2E2E2E2E2E2E2E2E2E2E2E2E2E2E2E2E2E2E2E2E2E2E2E2F5F5F5F5F5F5F5F5F5F5F5E2E2E2E2F5F5F5F5F5F5F5F5F5F5F5F5F5F5F5
310
F5F5F5F5F5F5F5F5F5F5F5F5F5F5F5F5F5F5F5F5F5F5F5F5F5F5F5F5F5F5F5F5F5F5F5F5F5F5F5F5F5F5F5F5F5F5F5F5F5F5F5F5F5F5F5F5F5F5F5F5F5F5F5F5F5F5F5F5F5F5F5F5F5F5F5F5F5F5F5F5F5F5F5F5F5F5F5F5F5F5F5F5F5F5F5F5F5F5F5F5F5F5F5F5F5F5F5F5F5F5F5F5F5F5F5F5F5F5F5F5F5F5F5F5F5F5F5
310
F5F5F5F5F5F5F5F5F5F5F5F5F5F5F5F5F5F5F5F5F5F5F5F5F5F5F5F5F5F5F5F5F5F5E2E2E2E2F5F5F5F5F5F5F5F5F5F5F5F5F5F5F5F5F5F5F5F5F5F5F5F5F5F5F5F5F5F5F5F5F5F5F5F5F5F5F5F5F5F5F5F5F5F5F5F5F5F5F5F5F5F5F5F5F5F5F5F5F5F5F5F5F5F5F5F5F5F5F5F5F5F5F5F5F5F5F5F5F5F5F5F5F5F5F5F5F5
310
F5F5F5F5F5F5F5F5F5F5F5F5F5F5F5F5F5F5F5F5F5F5F5F5F5F5F5F5F5E2F5F5E2F5F5F5F5F5F5F5F5F5F5F5F5F5F5F5F5F5F5F5F5F5F5F5F5F5F5F5F5F5F5F5F5F5F5F5F5F5F5F5F5F5F5F5F5F5F5F5F5F5F5F5F5F5F5E2E2E2E2F5F5F5F5F5F5F5F5F5F5F5F5F5F5F5F5F5F5F5F5F5F5F5F5F5F5F5F5F5F5F5F5F5F5F5F5
310
F5F5F5F5F5F5F5F5F5F5F5F5F5F5F5F5F5F5F5F5F5F5F5F5F5F5F5F5F5F5F5F5F5F5F5F5F5F5F5F5F5F5F5F5F5F5F5F5F5F5F5F5F5F5F5E2F5F5F5E2E2E2F5E2F5E2F5E2E2F5E2F5F5F5F5E2F5F5E2E2E2F5E2E2E2F5E2F5F5F5F5F5E2F5F5E2F5E2F5E2F5E2E2E2E2F5E2F5F5F5F5F5E2E2F5F5E2E2E2E2E2E2F5E2F5E2E2
310
E2F5F5F5F5F5F5F5F5F5F5F5F5E2E2E2E2F5F5F5F5F5F5F5F5F5F5F5F5F5F5F5F5F5F5F5F5F5F5F5F5F5F5F5F5F5F5F5F5F5F5F5F5F5F5F5F5F5F5F5F5F5F5F5F5F5F5F5F5F5F5F5F5F5F5F5F5F5F5F5F5F5F5F5F5F5F5F5F5F5F5F5F5F5F5F5F5F5F5F5F5F5F5F5F5F5F5F5E2F5F5F5E2F5E2F5E2E2E2E2E2E2F5E2F5F5F5
310
F5E2F5F5E2F5E2F5E2F5E2F5E2F5F5F5F5F5E2F5F5E2F5E2F5E2E2F5F5F5E2E2F5F5F5F5F5E2F5F5E2E2F5E2F5E2F5F5E2E2F5E2E2E2F5F5F5F5F5F5F5F5F5F5F5F5E2E2E2E2F5F5E2F5F5F5F5F5F5F5F5F5F5F5F5F5F5F5F5F5F5F5F5F5F5F5F5F5F5F5F5F5F5F5F5F5F5F5F5F5F5F5F5F5F5F5F5F5F5F5F5F5F5F5F5F5F5
310
F5F5F5F5F5F5F5F5F5F5F5F5F5F5F5F5F5F5F5F5F5F5F5F5F5F5F5F5F5F5F5F5F5F5E2E2E2E2E2E2E2F5E2E2E2E2E2E2E2E2E2E2E2F5E2F5F5E2E2E2F5E2E2E2F5F5F5F5F5F5F5E2F5F5E2E2E2F5E2E2E2E2E2E2F5E2F5F5F5F5E2F5F5F5E2E2E2F5E2E2E2E2E2F5E2E2E2F5F5F5F5F5F5F5F5F5E2F5F5E2E2E2E2F5F5E2F5
310
F5F5F5F5F5F5F5F5F5F5F5F5F5F5F5F5F5F5F5F5F5F5F5F5F5F5F5F5F5F5F5F5F5F5F5F5F5F5F5F5F5F5F5F5F5F5F5F5F5F5F5F5F5F5F5F5F5F5F5F5F5F5F5F5F5F5F5F5F5F5F5F5F5F5F5F5F5F5F5F5F5F5F5F5F5F5F5E2F5F5E2F5F5F5F5F5F5F5F5F5F5F5F5F5F5F5F5E2F5F5F5F5F5F5F5F5F5F5F5F5F5F5F5F5E2F5F5
310
E2F5F5F5E2F5F5F5F5E2F5F5F5F5F5F5E2F5F5E2F5F5F5F5E2F5F5F5E2F5F5F5F5F5F5F5F5F5F5F5F5F5E2F5F5E2E2E2E2F5F5E2F5F5F5F5F5F5F5F5F5F5F5F5F5F5F5F5F5F5F5F5F5F5F5F5F5F5F5F5F5F5F5F5F5F5F5F5F5F5F5F5F5F5F5F5F5F5F5F5F5F5F5F5F5F5F5F5F5F5F5F5F5F5F5F5F5F5F5F5F5F5F5F5F5F5F5
310
F5F5F5F5F5F5F5F5F5F5F5F5F5E2E2E2F5F5F5F5F5F5F5F5F5F5F5F5F5F5F5F5E2E2E2E2F5F5F5F5F5F5F5F5F5F5F5F5F5E2E2E2E2E2F5F5F5E2F5F5F5F5E2F5F5F5F5F5F5F5E2E2F5F5F5F5F5E2F5F5F5E2F5F5F5F5F5F5F5F5F5F5F5F5F5E2F5F5E2E2E2E2F5F5E2F5F5F5F5F5F5F5F5F5F5F5F5F5F5F5F5F5F5F5F5F5F5
310
F5F5F5F5F5F5F5F5F5F5F5F5F5F5F5F5F5F5F5F5F5F5F5F5F5F5F5F5F5F5F5F5F5F5F5F5F5F5F5F5F5F5F5F5F5F5F5F5F5F5F5F5F5F5F5F5F5F5F5F5F5F5F5F5F5F5F5F5F5F5F5F5F5F5F5F5F5F5F5F5F5F5F5F5F5F5F5F5F5F5F5F5F5F5F5F5F5F5F5F5F5F5F5F5F5F5F5F5F5F5F5F5F5F5F5F5F5F5F5F5F5F5F5F5F5F5F5
310
F5F5F5F5F5F5F5F5F5F5F5F5F5F5F5F5F5F5F5F5F5E2F5F5E2E2E2E2F5F5E2F5F5F5F5F5F5F5F5F5F5F5F5F5F5F5F5F5F5F5F5F5F5F5F5F5F5F5F5F5F5F5F5F5F5F5F5F5F5F5F5F5F5F5F5F5F5F5F5F5F5F5F5F5F5F5F5F5F5F5F5F5F5F5F5F5F5F5F5F5F5F5F5F5F5F5F5F5F5F5F5F5F5F5F5F5F5F5F5E2E2F5F5E2F5F5E2
310
E2F5F5E2E2F5E2F5F5F5F5E2F5F5F5F5F5E2F5F5F5E2E2E2E2F5E2F5F5E2E2E2F5F5F5F5F5F5E2F5F5E2E2F5F5F5F5F5F5F5F5F5F5F5F5F5F5F5F5F5F5F5F5F5F5F5F5F5F5F5F5F5F5F5E2F5F5E2E2E2E2F5F5E2F5F5F5F5F5F5F5F5F5F5F5F5F5F5F5F5F5F5F5F5F5F5F5F5F5F5F5F5F5F5F5F5F5F5F5F5F5F5F5F5F5F5F5
310
F5F5F5F5F5F5F5F5F5F5F5F5F5F5F5F5F5F5F5F5F5F5F5F5F5F5F5F5F5F5F5F5F5F5F5F5F5F5F5F5F5F5F5F5F5F5E2F5F5E2F5E2F5F5E2E2F5F5E2E2F5F5F5F5E2F5F5F5F5F5E2F5F5F5E2F5F5F5F5E2F5F5E2F5E2F5F5F5F5F5F5E2F5E2F5F5E2F5F5F5F5F5F5F5F5F5F5F5F5F5F5F5F5F5F5F5F5F5F5F5F5F5F5F5F5F5F5
310
E2F5F5E2E2E2E2F5F5E2F5F5F5F5F5F5F5F5F5F5F5F5F5F5F5F5F5F5F5F5F5F5F5F5F5F5F5F5F5F5F5F5F5F5F5F5F5F5F5F5F5F5F5F5F5F5F5F5F5F5F5F5F5F5F5F5F5F5F5F5F5F5F5F5F5F5F5F5F5F5F5F5F5F5F5F5F5F5F5F5F5F5F5F5F5F5F5F5F5E2F5E2E2E2E2E2E2E2F5F5F5E2E2E2E2F5F5E2F5F5E2E2E2E2E2E2F5
310
E2E2E2F5F5E2F5F5F5F5E2F5E2E2E2F5F5E2F5F5F5F5E2F5F5F5F5F5F5F5F5F5F5F5F5F5F5F5F5F5F5F5F5F5F5F5F5F5F5F5F5F5F5E2F5F5E2E2E2E2F5F5E2F5F5F5F5F5F5F5F5F5F5F5F5F5F5F5F5F5F5F5F5F5F5F5F5F5F5F5F5F5F5F5F5F5F5F5F5F5F5F5F5F5F5F5F5F5F5F5F5F5F5F5F5F5F5F5F5F5F5F5F5F5F5F5F5
310
F5F5F5F5F5F5F5F5F5F5F5F5F5F5F5F5F5F5F5F5F5F5F5F5E2E2F5F5E2F5E2F5F5E2E2E2E2F5E2F5F5E2F5E2F5F5F5F5F5E2F5F5E2E2F5F5E2F5E2F5F5E2E2E2F5F5F5F5F5F5E2F5E2E2E2F5F5F5F5F5F5F5F5F5F5F5F5F5F5F5F5F5F5F5F5F5F5F5F5F5F5F5F5F5F5F5E2F5F5E2E2E2E2F5F5E2E2E2E2E2E2E2E2F5F5F5F5
310
F5F5F5F5F5E2E2E2E2E2E2E2E2E2E2E2E2E2E2E2E2F5F5F5F5F5F5F5F5F5E2E2E2E2E2E2E2E2E2E2E2E2E2E2E2F5F5F5F5F5F5F5F5F5E2E2E2E2E2E2E2E2E2E2E2E2E2E2E2E2F5F5F5F5F5F5F5F5E2E2E2E2E2E2E2E2E2E2E2E2E2E2E2E2F5E2E2E2F5F5F5F5E2E2E2E2E2E2E2E2E2E2E2E2E2E2E2E2F5F5F5E2E2E2E2E2E2
310
E2E2E2E2E2E2E2E2E2E2E2E2E2E2E2E2F5F5F5F5F5F5F5F5F5E2E2E2E2E2E2E2E2F5F5E2E2E2E2F5F5F5F5F5F5F5F5F5F5F5F5F5F5F5F5F5F5F5F5F5F5F5F5F5F5F5F5F5F5F5F5F5F5F5F5F5F5F5F5F5F5F5F5F5F5F5F5F5F5F5F5F5F5F5F5F5F5F5F5F5F5F5F5F5F5F5F5F5F5F5F5F5F5F5F5F5F5F5F5F5F5F5F5F5F5F5F5
310
F5F5F5F5F5F5F5F5F5F5F5F5F5F5F5F5F5F5F5F5F5F5F5F5F5F5F5F5F5F5F5F5F5F5F5F5F5F5F5F5F5F5F5F5F5F5F5F5F5F5F5F5F5F5F5F5F5F5F5F5F5F5F5F5F5F5F5F5F5F5F5F5F5F5F5F5F5F5F5F5F5F5F5F5F5F5F5F5E2E2E2E2F5F5F5F5F5F5F5F5F5F5F5F5F5F5F5F5F5F5F5F5F5F5F5F5F5F5F5F5F5F5F5F5F5F5F5
310
F5F5F5F5F5F5F5F5F5F5F5F5F5F5F5F5F5F5F5F5F5F5F5F5F5F5F5F5F5F5F5F5F5F5F5F5F5F5F5F5F5F5F5F5F5F5F5F5F5F5F5F5F5F5F5F5F5F5F5F5F5F5F5F5F5F5F5F5F5F5F5F5F5F5F5F5F5F5F5F5F5F5F5F5F5F5F5F5F5F5F5F5F5F5F5F5F5F5F5F5F5F5F5F5F5F5F5F5F5F5F5F5F5F5F5F5F5F5F5F5F5F5F5F5F5F5F5
310
F5F5F5F5F5F5F5F5F5F5F5F5F5F5E2E2E2E2F5F5F5F5F5F5F5F5F5F5F5F5F5F5F5F5F5F5F5F5F5F5F5F5F5F5F5F5F5F5F5F5F5F5F5F5F5F5F5F5F5F5F5F5F5F5F5F5F5F5F5F5F5F5F5F5F5F5F5F5F5F5F5F5F5F5F5F5F5F5F5F5F5F5F5F5F5F5F5F5F5F5F5F5F5F5F5F5F5F5F5F5F5F5F5F5F5F5F5F5F5F5F5F5F5F5F5F5F5
310
F5F5F5F5F5F5F5F5F5F5F5F5F5F5F5F5F5F5F5F5F5F5F5F5F5F5F5F5F5F5F5F5F5F5F5F5F5F5F5F5F5F5F5F5F5F5F5F5F5F5F5F5F5F5F5F5F5F5F5F5F5F5F5F5F5F5F5E2EFEFE2F5F5F5F5F5F5F5F5F5F5F5F5F5F5F5F5F5F5F5F5F5F5F5F5F5F5F5F5F5F5F5F5F5F5F5F5F5F5F5F5F5F5F5F5F5F5F5F5F5F5F5F5F5F5F5F5
310
F5F5F5F5F5F5F5F5F5F5F5F5F5F5F5F5F5F5F5F5F5F5F5F5F5F5F5F5F5F5F5F5F5F5F5F5F5F5F5F5F5F5F5F5F5F5F5F5F5F5F5F5F5F5F5F5F5F5F5F5F5F5F5F5F5F5F5F5F5F5F5F5F5F5F5F5F5F5F5F5F5F5F5F5F5F5F5F5F5F5F5F5F5F5F5F5F5F5F5F5F5F5F5F5F5F5F5F5F5F5F5F5F5F5F5F5F5F5F5F5E2EFEFE2E2E2E2
310
E2E2E2E2E2E2E2E2E2E2E2E2E2E2E2E2E2E2E2E2E2E2E2E2E2E2E2E2E2E2E2E2E2E2E2E2E2E2E2E2E2E2E2E2E2E2E2E2E2E2E2E2E2E2E2E2E2E2E2E2E2E2E2E2E2E2E2E2E2E2E2E2E2E2E2E2E2E2E2E2E2E2E2E2E2E2E2E2E2E2E2E2E2E2E2E2E2E2E2E2E2E2E2E2E2E2E2E2E2E2E2E2E2E2E2E2E2E2E2E2E2E2E2E2E2E2E2
310
E2E2E2E2E2E2E2E2E2E2E2E2E2E2E2E2E2E2E2E2E2E2E2E2E2E2E2E2E2E2E2E2E2E2E2E2E2E2E2E2E2E2E2E2E2E2E2EFEF
  0
XRECORD
  5
58367
102
{ACAD_REACTORS
330
58366
102
}
330
58366
100
AcDbXrecord
280
     1
102
SHADEPLOT
 70
     0
102
SHADEPLOTRESLEVEL
 70
     2
102
SHADEPLOTCUSTOMDPI
 70
   300
  0
ENDSEC
  0
EOF
