  0
SECTION
  2
HEADER
  9
$ACADVER
  1
AC1015
  9
$ACADMAINTVER
 70
     6
  9
$DWGCODEPAGE
  3
ANSI_1252
  9
$INSBASE
 10
-209.0071770307554
 20
127.0553915587403
 30
10.14612499999998
  9
$EXTMIN
 10
-255.635360470113
 20
49.792929860554
 30
-77.45644074570723
  9
$EXTMAX
 10
872.3734734705933
 20
241.792929860554
 30
99.54355925429277
  9
$LIMMIN
 10
0.0
 20
0.0
  9
$LIMMAX
 10
12.0
 20
9.0
  9
$ORTHOMODE
 70
     0
  9
$REGENMODE
 70
     1
  9
$FILLMODE
 70
     1
  9
$QTEXTMODE
 70
     0
  9
$MIRRTEXT
 70
     1
  9
$LTSCALE
 40
1.0
  9
$ATTMODE
 70
     1
  9
$TEXTSIZE
 40
0.12
  9
$TRACEWID
 40
0.05
  9
$TEXTSTYLE
  7
STANDARD
  9
$CLAYER
  8
0
  9
$CELTYPE
  6
BYLAYER
  9
$CECOLOR
 62
   256
  9
$CELTSCALE
 40
1.0
  9
$DISPSILH
 70
     0
  9
$DIMSCALE
 40
1.0
  9
$DIMASZ
 40
4.572
  9
$DIMEXO
 40
1.587499999999999
  9
$DIMDLI
 40
9.525
  9
$DIMRND
 40
0.0
  9
$DIMDLE
 40
0.0
  9
$DIMEXE
 40
4.572
  9
$DIMTP
 40
0.0
  9
$DIMTM
 40
0.0
  9
$DIMTXT
 40
4.572
  9
$DIMCEN
 40
2.286
  9
$DIMTSZ
 40
0.0
  9
$DIMTOL
 70
     0
  9
$DIMLIM
 70
     0
  9
$DIMTIH
 70
     0
  9
$DIMTOH
 70
     1
  9
$DIMSE1
 70
     0
  9
$DIMSE2
 70
     0
  9
$DIMTAD
 70
     0
  9
$DIMZIN
 70
     4
  9
$DIMBLK
  1

  9
$DIMASO
 70
     1
  9
$DIMSHO
 70
     1
  9
$DIMPOST
  1

  9
$DIMAPOST
  1

  9
$DIMALT
 70
     1
  9
$DIMALTD
 70
     6
  9
$DIMALTF
 40
0.03937
  9
$DIMLFAC
 40
1.0
  9
$DIMTOFL
 70
     0
  9
$DIMTVP
 40
0.0
  9
$DIMTIX
 70
     0
  9
$DIMSOXD
 70
     0
  9
$DIMSAH
 70
     0
  9
$DIMBLK1
  1

  9
$DIMBLK2
  1

  9
$DIMSTYLE
  2
ABECAD_3D
  9
$DIMCLRD
 70
     0
  9
$DIMCLRE
 70
     0
  9
$DIMCLRT
 70
     0
  9
$DIMTFAC
 40
1.5
  9
$DIMGAP
 40
2.286
  9
$DIMJUST
 70
     0
  9
$DIMSD1
 70
     0
  9
$DIMSD2
 70
     0
  9
$DIMTOLJ
 70
     1
  9
$DIMTZIN
 70
     4
  9
$DIMALTZ
 70
     4
  9
$DIMALTTZ
 70
     4
  9
$DIMUPT
 70
     1
  9
$DIMDEC
 70
     2
  9
$DIMTDEC
 70
     2
  9
$DIMALTU
 70
     7
  9
$DIMALTTD
 70
     6
  9
$DIMTXSTY
  7
STANDARD
  9
$DIMAUNIT
 70
     0
  9
$DIMADEC
 70
     0
  9
$DIMALTRND
 40
0.0
  9
$DIMAZIN
 70
     0
  9
$DIMDSEP
 70
    46
  9
$DIMATFIT
 70
     2
  9
$DIMFRAC
 70
     2
  9
$DIMLDRBLK
  1

  9
$DIMLUNIT
 70
     2
  9
$DIMLWD
 70
    -2
  9
$DIMLWE
 70
    -2
  9
$DIMTMOVE
 70
     2
  9
$LUNITS
 70
     2
  9
$LUPREC
 70
     4
  9
$SKETCHINC
 40
0.1
  9
$FILLETRAD
 40
0.0
  9
$AUNITS
 70
     0
  9
$AUPREC
 70
     0
  9
$MENU
  1
ACAD
  9
$ELEVATION
 40
0.0
  9
$PELEVATION
 40
0.0
  9
$THICKNESS
 40
0.0
  9
$LIMCHECK
 70
     0
  9
$CHAMFERA
 40
0.0
  9
$CHAMFERB
 40
0.0
  9
$CHAMFERC
 40
0.0
  9
$CHAMFERD
 40
0.0
  9
$SKPOLY
 70
     0
  9
$TDCREATE
 40
2453042.595653843
  9
$TDUCREATE
 40
2453042.803987176
  9
$TDUPDATE
 40
2453579.598105266
  9
$TDUUPDATE
 40
2453579.806438599
  9
$TDINDWG
 40
0.0787267593
  9
$TDUSRTIMER
 40
0.0787267593
  9
$USRTIMER
 70
     1
  9
$ANGBASE
 50
0.0
  9
$ANGDIR
 70
     0
  9
$PDMODE
 70
     3
  9
$PDSIZE
 40
2.5
  9
$PLINEWID
 40
0.0
  9
$SPLFRAME
 70
     1
  9
$SPLINETYPE
 70
     6
  9
$SPLINESEGS
 70
     8
  9
$HANDSEED
  5
473B4
  9
$SURFTAB1
 70
     6
  9
$SURFTAB2
 70
     6
  9
$SURFTYPE
 70
     6
  9
$SURFU
 70
     6
  9
$SURFV
 70
     6
  9
$UCSBASE
  2

  9
$UCSNAME
  2

  9
$UCSORG
 10
-209.0071770307554
 20
128.6553915587403
 30
10.14612499999998
  9
$UCSXDIR
 10
1.0
 20
0.0
 30
0.0
  9
$UCSYDIR
 10
0.0
 20
1.0
 30
0.0
  9
$UCSORTHOREF
  2

  9
$UCSORTHOVIEW
 70
     1
  9
$UCSORGTOP
 10
-209.0071770307554
 20
128.6553915587403
 30
10.14612499999998
  9
$UCSORGBOTTOM
 10
0.0
 20
0.0
 30
0.0
  9
$UCSORGLEFT
 10
0.0
 20
0.0
 30
0.0
  9
$UCSORGRIGHT
 10
44.57293710473379
 20
-10.57239502465733
 30
3.810000000000003
  9
$UCSORGFRONT
 10
-209.0071770307554
 20
128.6553915587403
 30
10.14612499999998
  9
$UCSORGBACK
 10
0.0
 20
0.0
 30
0.0
  9
$PUCSBASE
  2

  9
$PUCSNAME
  2

  9
$PUCSORG
 10
0.0
 20
0.0
 30
0.0
  9
$PUCSXDIR
 10
1.0
 20
0.0
 30
0.0
  9
$PUCSYDIR
 10
0.0
 20
1.0
 30
0.0
  9
$PUCSORTHOREF
  2

  9
$PUCSORTHOVIEW
 70
     0
  9
$PUCSORGTOP
 10
0.0
 20
0.0
 30
0.0
  9
$PUCSORGBOTTOM
 10
0.0
 20
0.0
 30
0.0
  9
$PUCSORGLEFT
 10
0.0
 20
0.0
 30
0.0
  9
$PUCSORGRIGHT
 10
0.0
 20
0.0
 30
0.0
  9
$PUCSORGFRONT
 10
0.0
 20
0.0
 30
0.0
  9
$PUCSORGBACK
 10
0.0
 20
0.0
 30
0.0
  9
$USERI1
 70
     0
  9
$USERI2
 70
     0
  9
$USERI3
 70
     0
  9
$USERI4
 70
     0
  9
$USERI5
 70
     0
  9
$USERR1
 40
0.0
  9
$USERR2
 40
0.0
  9
$USERR3
 40
0.0
  9
$USERR4
 40
0.0
  9
$USERR5
 40
0.0
  9
$WORLDVIEW
 70
     1
  9
$SHADEDGE
 70
     3
  9
$SHADEDIF
 70
    70
  9
$TILEMODE
 70
     1
  9
$MAXACTVP
 70
    16
  9
$PINSBASE
 10
0.0
 20
0.0
 30
0.0
  9
$PLIMCHECK
 70
     0
  9
$PEXTMIN
 10
1.000000000000000E+20
 20
1.000000000000000E+20
 30
1.000000000000000E+20
  9
$PEXTMAX
 10
-1.000000000000000E+20
 20
-1.000000000000000E+20
 30
-1.000000000000000E+20
  9
$PLIMMIN
 10
0.0
 20
0.0
  9
$PLIMMAX
 10
12.0
 20
9.0
  9
$UNITMODE
 70
     0
  9
$VISRETAIN
 70
     0
  9
$PLINEGEN
 70
     0
  9
$PSLTSCALE
 70
     1
  9
$TREEDEPTH
 70
  3020
  9
$CMLSTYLE
  2
STANDARD
  9
$CMLJUST
 70
     0
  9
$CMLSCALE
 40
1.0
  9
$PROXYGRAPHICS
 70
     1
  9
$MEASUREMENT
 70
     1
  9
$CELWEIGHT
370
    -1
  9
$ENDCAPS
280
     0
  9
$JOINSTYLE
280
     0
  9
$LWDISPLAY
290
     0
  9
$INSUNITS
 70
     0
  9
$HYPERLINKBASE
  1

  9
$STYLESHEET
  1

  9
$XEDIT
290
     1
  9
$CEPSNTYPE
380
     0
  9
$PSTYLEMODE
290
     1
  9
$FINGERPRINTGUID
  2
{6E0CF4B8-225E-11D4-A150-00A0CC3303EC}
  9
$VERSIONGUID
  2
{B7345042-A33E-4D90-9EA3-BEC3F2CBBA21}
  9
$EXTNAMES
290
     1
  9
$PSVPSCALE
 40
0.0
  9
$OLESTARTUP
290
     0
  0
ENDSEC
  0
SECTION
  2
CLASSES
  0
CLASS
  1
DICTIONARYVAR
  2
AcDbDictionaryVar
  3
AutoCAD 2000
 90
        0
280
     0
281
     0
  0
CLASS
  1
ACDBDICTIONARYWDFLT
  2
AcDbDictionaryWithDefault
  3
AutoCAD 2000
 90
        0
280
     0
281
     0
  0
CLASS
  1
ACDBPLACEHOLDER
  2
AcDbPlaceHolder
  3
AutoCAD 2000
 90
        0
280
     0
281
     0
  0
CLASS
  1
LAYOUT
  2
AcDbLayout
  3
AutoCAD 2000
 90
        0
280
     0
281
     0
  0
CLASS
  1
LONG_TRANSACTION
  2
AcDbLongTransaction
  3
AutoCAD 2000
 90
    32768
280
     0
281
     0
  0
CLASS
  1
LWPOLYLINE
  2
AcDbPolyline
  3
AutoCAD 2000
 90
    32768
280
     0
281
     1
  0
CLASS
  1
HATCH
  2
AcDbHatch
  3
AutoCAD 2000
 90
    32768
280
     0
281
     1
  0
CLASS
  1
XRECORD
  2
AcDbXrecord
  3
AutoCAD 2000
 90
    32768
280
     0
281
     0
  0
CLASS
  1
LONG_TRANSACTION
  2
AcDbLongTransaction
  3
AutoCAD 2000
 90
    32768
280
     0
281
     0
  0
CLASS
  1
LWPOLYLINE
  2
AcDbPolyline
  3
AutoCAD 2000
 90
    32768
280
     0
281
     1
  0
CLASS
  1
HATCH
  2
AcDbHatch
  3
AutoCAD 2000
 90
    32768
280
     0
281
     1
  0
CLASS
  1
XRECORD
  2
AcDbXrecord
  3
AutoCAD 2000
 90
    32768
280
     0
281
     0
  0
CLASS
  1
TABLESTYLE
  2
AcDbTableStyle
  3
ObjectDBX Classes
 90
     2047
280
     0
281
     0
  0
CLASS
  1
SORTENTSTABLE
  2
AcDbSortentsTable
  3
AutoCAD 2000
 90
        0
280
     0
281
     0
  0
ENDSEC
  0
SECTION
  2
TABLES
  0
TABLE
  2
VPORT
  5
458C7
330
0
100
AcDbSymbolTable
 70
     2
  0
VPORT
  5
473B3
330
458C7
100
AcDbSymbolTableRecord
100
AcDbViewportTableRecord
  2
*Active
 70
     0
 10
0.0
 20
0.0
 11
1.0
 21
1.0
 12
-435.9080633542856
 22
25.21955863625208
 13
0.0
 23
0.0
 14
0.25
 24
0.25
 15
0.25
 25
0.25
 16
0.0
 26
0.0
 36
1.0
 17
744.2771198545258
 27
139.1152686624501
 37
-7.806076107100896
 40
587.9184324671528
 41
1.930753564154786
 42
50.0
 43
0.0
 44
0.0
 50
0.0
 51
0.0
 71
     0
 72
 20000
 73
     1
 74
     1
 75
     0
 76
     0
 77
     0
 78
     0
281
     2
 65
     1
110
-209.0071770307554
120
128.6553915587403
130
10.14612499999998
111
1.0
121
0.0
131
0.0
112
0.0
122
1.0
132
0.0
 79
     1
146
0.0
  0
ENDTAB
  0
TABLE
  2
LTYPE
  5
458C4
330
0
100
AcDbSymbolTable
 70
     1
  0
LTYPE
  5
458D0
330
458C4
100
AcDbSymbolTableRecord
100
AcDbLinetypeTableRecord
  2
BYBLOCK
 70
     0
  3

 72
    65
 73
     0
 40
0.0
  0
LTYPE
  5
458D1
330
458C4
100
AcDbSymbolTableRecord
100
AcDbLinetypeTableRecord
  2
BYLAYER
 70
     0
  3

 72
    65
 73
     0
 40
0.0
  0
LTYPE
  5
458D2
330
458C4
100
AcDbSymbolTableRecord
100
AcDbLinetypeTableRecord
  2
CONTINUOUS
 70
     0
  3
Solid line
 72
    65
 73
     0
 40
0.0
  0
ENDTAB
  0
TABLE
  2
LAYER
  5
458C1
330
0
100
AcDbSymbolTable
 70
     8
  0
LAYER
  5
458CD
330
458C1
100
AcDbSymbolTableRecord
100
AcDbLayerTableRecord
  2
0
 70
     0
 62
     7
  6
CONTINUOUS
370
    -3
390
458FA
  0
LAYER
  5
458EA
330
458C1
100
AcDbSymbolTableRecord
100
AcDbLayerTableRecord
  2
DIMS-MTG-HOLES
 70
     0
 62
    -1
  6
CONTINUOUS
370
    -3
390
458FA
  0
LAYER
  5
458EB
330
458C1
100
AcDbSymbolTableRecord
100
AcDbLayerTableRecord
  2
ATTRIBUTES
 70
     0
 62
     7
  6
CONTINUOUS
370
    -3
390
458FA
  0
LAYER
  5
4593F
330
458C1
100
AcDbSymbolTableRecord
100
AcDbLayerTableRecord
  2
AREA1
 70
     0
 62
    -7
  6
CONTINUOUS
290
     0
370
    -3
390
458FA
  0
LAYER
  5
45946
330
458C1
100
AcDbSymbolTableRecord
100
AcDbLayerTableRecord
  2
Defpoints
 70
     0
 62
     7
  6
CONTINUOUS
290
     0
370
    -3
390
458FA
  0
LAYER
  5
45972
330
458C1
100
AcDbSymbolTableRecord
100
AcDbLayerTableRecord
  2
SCALE
 70
     0
 62
    -7
  6
CONTINUOUS
370
    -3
390
458FA
  0
LAYER
  5
4597A
330
458C1
100
AcDbSymbolTableRecord
100
AcDbLayerTableRecord
  2
SNAP_POINTS
 70
     0
 62
    -1
  6
CONTINUOUS
370
    -3
390
458FA
  0
LAYER
  5
459D2
330
458C1
100
AcDbSymbolTableRecord
100
AcDbLayerTableRecord
  2
AREA2
 70
     0
 62
    -7
  6
CONTINUOUS
370
    -3
390
458FA
  0
ENDTAB
  0
TABLE
  2
STYLE
  5
458C2
330
0
100
AcDbSymbolTable
 70
     1
  0
STYLE
  5
458CE
330
458C2
100
AcDbSymbolTableRecord
100
AcDbTextStyleTableRecord
  2
STANDARD
 70
     0
 40
0.0
 41
1.0
 50
0.0
 71
     0
 42
0.12
  3
txt
  4

  0
ENDTAB
  0
TABLE
  2
VIEW
  5
458C5
330
0
100
AcDbSymbolTable
 70
     0
  0
ENDTAB
  0
TABLE
  2
UCS
  5
458C6
330
0
100
AcDbSymbolTable
 70
     0
  0
ENDTAB
  0
TABLE
  2
APPID
  5
458C8
330
0
100
AcDbSymbolTable
 70
     2
  0
APPID
  5
458CF
330
458C8
100
AcDbSymbolTableRecord
100
AcDbRegAppTableRecord
  2
ACAD
 70
     0
  0
APPID
  5
46D4D
330
458C8
100
AcDbSymbolTableRecord
100
AcDbRegAppTableRecord
  2
ACAD_DSTYLE_DIMTEXT_FILL
 70
     0
  0
ENDTAB
  0
TABLE
  2
DIMSTYLE
  5
458C9
330
0
100
AcDbSymbolTable
 70
     2
100
AcDbDimStyleTable
 71
     1
340
458F6
  0
DIMSTYLE
105
458F6
102
{ACAD_REACTORS
330
471EE
330
471FC
330
47225
102
}
330
458C9
100
AcDbSymbolTableRecord
100
AcDbDimStyleTableRecord
  2
ABECAD_3D
 70
     0
 41
4.572
 42
1.587499999999999
 43
9.525
 44
4.572
 73
     0
 78
     4
140
4.572
141
2.286
143
0.03937
146
1.5
147
2.286
170
     1
171
     6
271
     2
272
     2
273
     7
274
     6
276
     2
279
     2
284
     4
285
     4
286
     4
288
     1
289
     2
340
458CE
  0
DIMSTYLE
105
459E0
330
458C9
100
AcDbSymbolTableRecord
100
AcDbDimStyleTableRecord
  2
Standard
 70
     0
340
458CE
  0
ENDTAB
  0
TABLE
  2
BLOCK_RECORD
  5
458C0
330
0
100
AcDbSymbolTable
 70
     3
  0
BLOCK_RECORD
  5
458D6
102
{ACAD_XDICTIONARY
360
45930
102
}
330
458C0
100
AcDbSymbolTableRecord
100
AcDbBlockTableRecord
  2
*MODEL_SPACE
340
458FD
  0
BLOCK_RECORD
  5
458D3
102
{ACAD_XDICTIONARY
360
4592E
102
}
330
458C0
100
AcDbSymbolTableRecord
100
AcDbBlockTableRecord
  2
*PAPER_SPACE
340
458FE
  0
BLOCK_RECORD
  5
471EF
330
458C0
100
AcDbSymbolTableRecord
100
AcDbBlockTableRecord
  2
*D0
340
0
  0
BLOCK_RECORD
  5
471FD
330
458C0
100
AcDbSymbolTableRecord
100
AcDbBlockTableRecord
  2
*D1
340
0
  0
BLOCK_RECORD
  5
47226
330
458C0
100
AcDbSymbolTableRecord
100
AcDbBlockTableRecord
  2
*D2
340
0
  0
ENDTAB
  0
ENDSEC
  0
SECTION
  2
BLOCKS
  0
BLOCK
  5
458DF
330
458D6
100
AcDbEntity
  8
0
100
AcDbBlockBegin
  2
*MODEL_SPACE
 70
     0
 10
0.0
 20
0.0
 30
0.0
  3
*MODEL_SPACE
  1

  0
ENDBLK
  5
458E0
330
458D6
100
AcDbEntity
  8
0
100
AcDbBlockEnd
  0
BLOCK
  5
458DD
330
458D3
100
AcDbEntity
 67
     1
  8
0
100
AcDbBlockBegin
  2
*PAPER_SPACE
 70
     0
 10
0.0
 20
0.0
 30
0.0
  3
*PAPER_SPACE
  1

  0
ENDBLK
  5
458DE
330
458D3
100
AcDbEntity
 67
     1
  8
0
100
AcDbBlockEnd
  0
BLOCK
  5
471FA
330
471EF
100
AcDbEntity
  8
0
100
AcDbBlockBegin
  2
*D0
 70
     1
 10
0.0
 20
0.0
 30
0.0
  3
*D0
  1

  0
LINE
  5
4734E
330
471EF
100
AcDbEntity
  8
AREA1
 62
     0
370
    -2
100
AcDbLine
 10
-209.0071770307554
 20
172.0553915587403
 30
0.0
 11
-209.0071770307554
 21
210.3769601660942
 31
0.0
  0
LINE
  5
4734F
330
471EF
100
AcDbEntity
  8
AREA1
 62
     0
370
    -2
100
AcDbLine
 10
791.0386622165595
 20
172.0553915587403
 30
0.0
 11
791.0386622165595
 21
210.3769601660942
 31
0.0
  0
LINE
  5
47350
330
471EF
100
AcDbEntity
  8
AREA1
 62
     0
370
    -2
100
AcDbLine
 10
-191.0071770307554
 20
192.3769601660942
 30
0.0
 11
161.015742592902
 21
192.3769601660942
 31
0.0
  0
LINE
  5
47351
330
471EF
100
AcDbEntity
  8
AREA1
 62
     0
370
    -2
100
AcDbLine
 10
773.0386622165594
 20
192.3769601660942
 30
0.0
 11
421.015742592902
 21
192.3769601660942
 31
0.0
  0
MTEXT
  5
47352
330
471EF
100
AcDbEntity
  8
AREA1
 62
     0
100
AcDbMText
 10
291.015742592902
 20
192.3769601660942
 30
0.0
 40
18.0
 41
0.0
 71
     5
 72
     1
  1
\A1;1000.05 [39 3/8]
 73
     1
 44
1.0
1001
ACAD
1000
MTEXTBEGIN
1070
    73
1070
     1
1070
    44
1040
1.0
1070
    74
1070
     0
1000
MTEXTEND
  0
SOLID
  5
47353
330
471EF
100
AcDbEntity
  8
AREA1
 62
     0
100
AcDbTrace
 10
-191.0071770307554
 20
195.3769601660942
 30
0.0
 11
-191.0071770307554
 21
189.3769601660942
 31
0.0
 12
-209.0071770307554
 22
192.3769601660942
 32
0.0
 13
-209.0071770307554
 23
192.3769601660942
 33
0.0
  0
SOLID
  5
47354
330
471EF
100
AcDbEntity
  8
AREA1
 62
     0
100
AcDbTrace
 10
773.0386622165594
 20
195.3769601660942
 30
0.0
 11
773.0386622165594
 21
189.3769601660942
 31
0.0
 12
791.0386622165595
 22
192.3769601660942
 32
0.0
 13
791.0386622165595
 23
192.3769601660942
 33
0.0
  0
POINT
  5
47355
330
471EF
100
AcDbEntity
  8
Defpoints
 62
     0
100
AcDbPoint
 10
-209.0071770307554
 20
162.0553915587403
 30
0.0
  0
POINT
  5
47356
330
471EF
100
AcDbEntity
  8
Defpoints
 62
     0
100
AcDbPoint
 10
791.0386622165595
 20
162.0553915587403
 30
0.0000000000001137
  0
POINT
  5
47357
330
471EF
100
AcDbEntity
  8
Defpoints
 62
     0
100
AcDbPoint
 10
791.0386622165595
 20
192.3769601660942
 30
0.0
  0
ENDBLK
  5
471FB
330
471EF
100
AcDbEntity
  8
0
100
AcDbBlockEnd
  0
BLOCK
  5
47207
330
471FD
100
AcDbEntity
  8
0
100
AcDbBlockBegin
  2
*D1
 70
     1
 10
0.0
 20
0.0
 30
0.0
  3
*D1
  1

  0
LINE
  5
47362
330
471FD
100
AcDbEntity
  8
AREA1
 62
     0
370
    -2
100
AcDbLine
 10
801.0386622165594
 20
162.0553915587403
 30
0.0
 11
832.1979676972542
 21
162.0553915587402
 31
0.0
  0
LINE
  5
47363
330
471FD
100
AcDbEntity
  8
AREA1
 62
     0
370
    -2
100
AcDbLine
 10
801.0386622165595
 20
127.0553915587403
 30
0.0
 11
832.1979676972542
 21
127.0553915587403
 31
0.0
  0
LINE
  5
47364
330
471FD
100
AcDbEntity
  8
AREA1
 62
     0
370
    -2
100
AcDbLine
 10
814.1979676972541
 20
180.0553915587403
 30
0.0
 11
814.1979676972541
 21
198.0553915587403
 31
0.0
  0
LINE
  5
47365
330
471FD
100
AcDbEntity
  8
AREA1
 62
     0
370
    -2
100
AcDbLine
 10
814.1979676972541
 20
109.0553915587403
 30
0.0
 11
814.1979676972541
 21
91.05539155874037
 31
0.0
  0
MTEXT
  5
47366
330
471FD
100
AcDbEntity
  8
AREA1
 62
     0
100
AcDbMText
 10
858.9871287791003
 20
145.7929298605539
 30
0.0
 40
18.0
 41
0.0
 71
     5
 72
     1
  1
\A1;35.00 [1 3/8]
 11
0.0000000000000001
 21
1.0
 31
0.0
 73
     1
 44
1.0
1001
ACAD
1000
MTEXTBEGIN
1070
    73
1070
     1
1070
    44
1040
1.0
1070
    74
1070
     0
1000
MTEXTEND
  0
SOLID
  5
47367
330
471FD
100
AcDbEntity
  8
AREA1
 62
     0
100
AcDbTrace
 10
811.1979676972541
 20
180.0553915587403
 30
0.0
 11
817.1979676972542
 21
180.0553915587403
 31
0.0
 12
814.1979676972541
 22
162.0553915587403
 32
0.0
 13
814.1979676972541
 23
162.0553915587403
 33
0.0
  0
SOLID
  5
47368
330
471FD
100
AcDbEntity
  8
AREA1
 62
     0
100
AcDbTrace
 10
811.1979676972541
 20
109.0553915587403
 30
0.0
 11
817.1979676972542
 21
109.0553915587403
 31
0.0
 12
814.1979676972541
 22
127.0553915587403
 32
0.0
 13
814.1979676972541
 23
127.0553915587403
 33
0.0
  0
POINT
  5
47369
330
471FD
100
AcDbEntity
  8
Defpoints
 62
     0
100
AcDbPoint
 10
791.0386622165595
 20
162.0553915587403
 30
0.0000000000001137
  0
POINT
  5
4736A
330
471FD
100
AcDbEntity
  8
Defpoints
 62
     0
100
AcDbPoint
 10
791.0386622165596
 20
127.0553915587403
 30
0.0000000000001137
  0
POINT
  5
4736B
330
471FD
100
AcDbEntity
  8
Defpoints
 62
     0
100
AcDbPoint
 10
814.1979676972541
 20
127.0553915587403
 30
0.0
  0
ENDBLK
  5
47208
330
471FD
100
AcDbEntity
  8
0
100
AcDbBlockEnd
  0
BLOCK
  5
47231
330
47226
100
AcDbEntity
  8
0
100
AcDbBlockBegin
  2
*D2
 70
     1
 10
0.0
 20
0.0
 30
0.0
  3
*D2
  1

  0
LINE
  5
47380
330
47226
100
AcDbEntity
  8
AREA2
 62
     0
370
    -2
100
AcDbLine
 10
801.0386622165594
 20
11.14612500000009
 30
0.0
 11
841.6082167963939
 21
11.14612500000008
 31
0.0
  0
LINE
  5
47381
330
47226
100
AcDbEntity
  8
AREA2
 62
     0
370
    -2
100
AcDbLine
 10
801.0386622165594
 20
3.646125000000078
 30
0.0
 11
841.6082167963939
 21
3.646125000000067
 31
0.0
  0
LINE
  5
47382
330
47226
100
AcDbEntity
  8
AREA2
 62
     0
370
    -2
100
AcDbLine
 10
823.6082167963939
 20
29.14612500000009
 30
0.0
 11
823.6082167963939
 21
47.14612500000008
 31
0.0
  0
LINE
  5
47383
330
47226
100
AcDbEntity
  8
AREA2
 62
     0
370
    -2
100
AcDbLine
 10
823.6082167963939
 20
-14.35387499999992
 30
0.0
 11
823.6082167963939
 21
-32.35387499999993
 31
0.0
  0
MTEXT
  5
47384
330
47226
100
AcDbEntity
  8
AREA2
 62
     0
100
AcDbMText
 10
863.3734734705933
 20
11.04355925429276
 30
0.0
 40
18.0
 41
0.0
 71
     5
 72
     1
  1
\A1;7.50 [19/64]
 11
0.0000000000000001
 21
1.0
 31
0.0
 73
     1
 44
1.0
1001
ACAD
1000
MTEXTBEGIN
1070
    73
1070
     1
1070
    44
1040
1.0
1070
    74
1070
     0
1000
MTEXTEND
  0
SOLID
  5
47385
330
47226
100
AcDbEntity
  8
AREA2
 62
     0
100
AcDbTrace
 10
820.6082167963938
 20
29.14612500000009
 30
0.0
 11
826.6082167963938
 21
29.14612500000009
 31
0.0
 12
823.6082167963939
 22
11.14612500000008
 32
0.0
 13
823.6082167963939
 23
11.14612500000008
 33
0.0
  0
SOLID
  5
47386
330
47226
100
AcDbEntity
  8
AREA2
 62
     0
100
AcDbTrace
 10
820.6082167963938
 20
-14.35387499999992
 30
0.0
 11
826.6082167963938
 21
-14.35387499999992
 31
0.0
 12
823.6082167963939
 22
3.646125000000072
 32
0.0
 13
823.6082167963939
 23
3.646125000000072
 33
0.0
  0
POINT
  5
47387
330
47226
100
AcDbEntity
  8
Defpoints
 62
     0
100
AcDbPoint
 10
791.0386622165595
 20
11.14612500000009
 30
0.0104205037839051
  0
POINT
  5
47388
330
47226
100
AcDbEntity
  8
Defpoints
 62
     0
100
AcDbPoint
 10
791.0386622165595
 20
3.646125000000081
 30
-4.179158992432149
  0
POINT
  5
47389
330
47226
100
AcDbEntity
  8
Defpoints
 62
     0
100
AcDbPoint
 10
823.6082167963939
 20
3.646125000000072
 30
0.0
  0
ENDBLK
  5
47232
330
47226
100
AcDbEntity
  8
0
100
AcDbBlockEnd
  0
ENDSEC
  0
SECTION
  2
ENTITIES
  0
ATTDEF
  5
46C12
330
458D6
100
AcDbEntity
  8
ATTRIBUTES
100
AcDbText
 10
-206.9270373583537
 20
154.1267559274021
 30
3.646177045898692
 40
0.1437422425689497
  1
ALLEN-BRADLEY
100
AcDbAttributeDefinition
  3
MANUFACTURER NAME?
  2
AC_VND_LABEL
 70
     1
  0
ATTDEF
  5
46C13
330
458D6
100
AcDbEntity
  8
ATTRIBUTES
100
AcDbText
 10
-206.9270373583537
 20
153.8272929220501
 30
3.646177045898692
 40
0.1437422425689497
  1
199-DR1
100
AcDbAttributeDefinition
  3
CATALOG NUMBER?
  2
AC_PART_NO
 70
     1
  0
ATTDEF
  5
46C14
330
458D6
100
AcDbEntity
  8
ATTRIBUTES
100
AcDbText
 10
-206.9270373583537
 20
153.5278299166982
 30
3.646177045898692
 40
0.1437422425689497
  1
DIN Mounting Rail (Zinc Steel); 1m
100
AcDbAttributeDefinition
  3
PART DESCRIPTION?
  2
AC_DESCRIPTION
 70
     1
  0
ATTDEF
  5
46C15
330
458D6
100
AcDbEntity
  8
ATTRIBUTES
100
AcDbText
 10
-206.9270373583537
 20
153.2283669113462
 30
3.646177045898692
 40
0.1437422425689497
  1

100
AcDbAttributeDefinition
  3
DEVICE ID?
  2
DEVICE_ID
 70
     1
  0
ATTDEF
  5
46C16
330
458D6
100
AcDbEntity
  8
ATTRIBUTES
100
AcDbText
 10
-206.9270373583537
 20
152.9289039059942
 30
3.646177045898692
 40
0.1437422425689497
  1

100
AcDbAttributeDefinition
  3
CUSTOMER PART NUMBER?
  2
AC_CPART_NO
 70
     1
  0
ATTDEF
  5
46C17
330
458D6
100
AcDbEntity
  8
ATTRIBUTES
100
AcDbText
 10
-206.9270373583537
 20
152.6294409006421
 30
3.646177045898692
 40
0.1437422425689497
  1

100
AcDbAttributeDefinition
  3
CUSTOMER NOTE?
  2
AC_NOTE
 70
     1
  0
ATTDEF
  5
46C18
330
458D6
100
AcDbEntity
  8
ATTRIBUTES
100
AcDbText
 10
-206.9270373583537
 20
152.3299778952901
 30
3.646177045898692
 40
0.1437422425689497
  1

100
AcDbAttributeDefinition
  3
FASTENER DATA?
  2
FASTENER
 70
     1
  0
ATTDEF
  5
46C19
330
458D6
100
AcDbEntity
  8
ATTRIBUTES
100
AcDbText
 10
-206.9270373583537
 20
152.0305148899382
 30
3.646177045898692
 40
0.1437422425689497
  1
INCH
100
AcDbAttributeDefinition
  3
UNIT OF SCALE?
  2
AC_SCALE_UNIT
 70
     1
  0
ATTDEF
  5
46C1A
330
458D6
100
AcDbEntity
  8
ATTRIBUTES
100
AcDbText
 10
-206.9270373583537
 20
151.7310518845864
 30
3.646177045898692
 40
0.1437422425689497
  1
0
100
AcDbAttributeDefinition
  3
VIEW CODE?
  2
AC_VIEW_CODE
 70
     1
  0
LINE
  5
46C1B
330
458D6
100
AcDbEntity
  8
SCALE
100
AcDbLine
 10
-254.1621943987532
 20
146.2715526138222
 30
3.646124999999967
 11
-228.7621943987532
 21
146.2715526138222
 31
3.646124999999967
  0
TEXT
  5
46C1D
330
458D6
100
AcDbEntity
  8
SCALE
100
AcDbText
 10
-244.9348064912619
 20
148.0253894763014
 30
3.646124999999967
 40
1.587499999999999
  1
1 Inch
100
AcDbText
  0
LINE
  5
46C1E
330
458D6
100
AcDbEntity
  8
SCALE
100
AcDbLine
 10
-244.1622143987532
 20
136.1115526138222
 30
3.646124999999967
 11
-244.1622143987532
 21
141.1915526138222
 31
3.646124999999967
  0
LINE
  5
46C1F
330
458D6
100
AcDbEntity
  8
SCALE
100
AcDbLine
 10
-254.1621943987532
 20
136.1115526138222
 30
3.646124999999967
 11
-254.1621943987532
 21
141.1915526138222
 31
3.646124999999967
  0
LINE
  5
46C20
330
458D6
100
AcDbEntity
  8
SCALE
100
AcDbLine
 10
-254.1621943987532
 20
143.7315526138221
 30
3.646124999999967
 11
-254.1621943987532
 21
148.8115526138222
 31
3.646124999999967
  0
TEXT
  5
46C21
330
458D6
100
AcDbEntity
  8
SCALE
100
AcDbText
 10
-252.6528716579794
 20
139.8133396037847
 30
3.646124999999967
 40
1.587499999999999
  1
[10mm]
100
AcDbText
  0
LINE
  5
46C22
330
458D6
100
AcDbEntity
  8
SCALE
100
AcDbLine
 10
-254.1621943987532
 20
138.6515526138222
 30
3.646124999999967
 11
-244.1622143987532
 21
138.6515526138222
 31
3.646124999999967
  0
TEXT
  5
46C23
330
458D6
100
AcDbEntity
  8
SCALE
100
AcDbText
 10
-254.1233256614915
 20
153.2534314941719
 30
3.646124999999967
 40
1.587499999999999
  1
SCALE:
100
AcDbText
  0
LINE
  5
46C24
330
458D6
100
AcDbEntity
  8
SCALE
100
AcDbLine
 10
-228.7621943987532
 20
143.7315526138221
 30
3.646124999999967
 11
-228.7621943987532
 21
148.8115526138222
 31
3.646124999999967
  0
POINT
  5
46C3C
330
458D6
100
AcDbEntity
  8
SNAP_POINTS
100
AcDbPoint
 10
-209.0071770307554
 20
160.4553915587404
 30
10.14612499999998
  0
POINT
  5
46C3D
330
458D6
100
AcDbEntity
  8
SNAP_POINTS
100
AcDbPoint
 10
-209.0071770307554
 20
128.6553915587403
 30
10.14612499999998
  0
LWPOLYLINE
  5
46C56
330
458D6
100
AcDbEntity
  8
SCALE
100
AcDbPolyline
 90
        4
 70
     1
 43
0.0
 38
3.646124999999965
 10
-255.635360470113
 20
155.9255419089092
 10
-226.7903884537469
 20
155.9255419089092
 10
-226.7903884537469
 20
134.5486589127477
 10
-255.635360470113
 20
134.5486589127477
  0
LINE
  5
471AC
330
458D6
100
AcDbEntity
  8
0
100
AcDbLine
 10
791.0386622165595
 20
132.8345505511725
 30
3.64612500000008
 11
-209.0071770307554
 21
132.8553915587403
 31
3.646124999999983
  0
ARC
  5
471AD
330
458D6
100
AcDbEntity
  8
0
100
AcDbCircle
 10
132.8345505511725
 20
5.446124999999904
 30
791.0386622165595
 40
1.799999999999999
210
1.0
220
-0.0000000000000001
230
0.0000000000000002
100
AcDbArc
 50
180.0
 51
270.0
  0
ARC
  5
471AE
330
458D6
100
AcDbEntity
  8
0
100
AcDbCircle
 10
-132.8553915587403
 20
5.446125000000012
 30
209.0071770307554
 40
1.799999999999999
210
-1.0
220
0.0000000000000001
230
-0.0000000000000002
100
AcDbArc
 50
270.0
 51
0.0
  0
LINE
  5
471AF
330
458D6
100
AcDbEntity
  8
0
100
AcDbLine
 10
791.0386622165595
 20
131.0345505511725
 30
5.44612500000008
 11
-209.0071770307554
 21
131.0553915587403
 31
5.446124999999966
  0
LINE
  5
471B0
330
458D6
100
AcDbEntity
  8
0
100
AcDbLine
 10
791.0386622165595
 20
158.0553915587403
 30
5.44612500000008
 11
-209.0071770307554
 21
158.0553915587403
 31
5.446124999999966
  0
ARC
  5
471B1
330
458D6
100
AcDbEntity
  8
0
100
AcDbCircle
 10
156.2345505511726
 20
5.446124999999904
 30
791.0386622165595
 40
1.799999999999999
210
1.0
220
-0.0000000000000001
230
0.0000000000000002
100
AcDbArc
 50
270.0
 51
0.0
  0
ARC
  5
471B2
330
458D6
100
AcDbEntity
  8
0
100
AcDbCircle
 10
-156.2553915587403
 20
5.446125000000012
 30
209.0071770307554
 40
1.799999999999999
210
-1.0
220
0.0000000000000001
230
-0.0000000000000002
100
AcDbArc
 50
180.0
 51
270.0
  0
LINE
  5
471B3
330
458D6
100
AcDbEntity
  8
0
100
AcDbLine
 10
791.0386622165596
 20
156.2553915587403
 30
3.646125000000097
 11
-209.0071770307554
 21
156.2553915587403
 31
3.646124999999983
  0
ARC
  5
471B4
330
458D6
100
AcDbEntity
  8
0
100
AcDbCircle
 10
-130.2345505511726
 20
9.34612499999991
 30
-791.0386622165595
 40
0.8000000000000005
210
-1.0
220
0.0000000000000001
230
-0.0000000000000002
100
AcDbArc
 50
90.0
 51
180.0
  0
LINE
  5
471B5
330
458D6
100
AcDbEntity
  8
0
100
AcDbLine
 10
-209.0071770307554
 20
130.2553915587403
 30
10.14612499999998
 11
791.0386622165595
 21
130.2345505511725
 31
10.14612500000008
  0
LINE
  5
471B6
330
458D6
100
AcDbEntity
  8
0
100
AcDbLine
 10
-209.0071770307554
 20
131.0553915587403
 30
9.346124999999972
 11
791.0386622165595
 21
131.0553915587404
 31
9.346125000000085
  0
ARC
  5
471B7
330
458D6
100
AcDbEntity
  8
0
100
AcDbCircle
 10
130.2553915587403
 20
9.346125000000018
 30
-209.0071770307554
 40
0.8000000000000012
210
1.0
220
-0.0000000000000001
230
0.0000000000000002
100
AcDbArc
 50
0.0000000000000505
 51
90.00000000000005
  0
ARC
  5
471B8
330
458D6
100
AcDbEntity
  8
0
100
AcDbCircle
 10
-158.8345505511725
 20
9.34612499999991
 30
-791.0386622165595
 40
0.8000000000000012
210
-1.0
220
0.0000000000000001
230
-0.0000000000000002
100
AcDbArc
 50
0.0
 51
90.0
  0
LINE
  5
471B9
330
458D6
100
AcDbEntity
  8
0
100
AcDbLine
 10
-209.0071770307554
 20
158.0553915587403
 30
9.346124999999972
 11
791.0386622165595
 21
158.0553915587403
 31
9.346125000000085
  0
LINE
  5
471BA
330
458D6
100
AcDbEntity
  8
0
100
AcDbLine
 10
-209.0071770307554
 20
158.8553915587404
 30
10.14612499999998
 11
791.0386622165595
 21
158.8553915587403
 31
10.14612500000009
  0
ARC
  5
471BB
330
458D6
100
AcDbEntity
  8
0
100
AcDbCircle
 10
158.8553915587404
 20
9.346125000000018
 30
-209.0071770307554
 40
0.8000000000000005
210
1.0
220
-0.0000000000000001
230
0.0000000000000002
100
AcDbArc
 50
90.0
 51
180.0
  0
LINE
  5
471BC
330
458D6
100
AcDbEntity
  8
0
100
AcDbLine
 10
791.0386622165595
 20
131.0345505511725
 30
9.346125000000085
 11
791.0386622165595
 21
131.0345505511725
 31
5.44612500000008
210
-0.0000000000000001
220
-1.0
230
0.0
  0
LINE
  5
471BD
330
458D6
100
AcDbEntity
  8
0
100
AcDbLine
 10
-209.0071770307554
 20
131.0553915587403
 30
9.346124999999972
 11
791.0386622165595
 21
131.0553915587404
 31
9.346125000000085
210
-0.0000000000000001
220
-1.0
230
0.0
  0
LINE
  5
471BE
330
458D6
100
AcDbEntity
  8
0
100
AcDbLine
 10
791.0386622165595
 20
131.0345505511725
 30
5.44612500000008
 11
-209.0071770307554
 21
131.0553915587403
 31
5.446124999999966
210
-0.0000000000000001
220
-1.0
230
0.0
  0
LINE
  5
471BF
330
458D6
100
AcDbEntity
  8
0
100
AcDbLine
 10
-209.0071770307554
 20
131.0553915587403
 30
5.446124999999966
 11
-209.0071770307554
 21
131.0553915587403
 31
9.346124999999972
210
-0.0000000000000001
220
-1.0
230
0.0
  0
LINE
  5
471C0
330
458D6
100
AcDbEntity
  8
0
100
AcDbLine
 10
791.0386622165596
 20
127.0553915587403
 30
11.14612500000009
 11
791.0386622165595
 21
130.2345505511725
 31
11.14612500000009
210
0.0000000000000002
220
0.0
230
-1.0
  0
LINE
  5
471C1
330
458D6
100
AcDbEntity
  8
0
100
AcDbLine
 10
-209.0071770307554
 20
127.0553915587403
 30
10.14612499999998
 11
791.0386622165596
 21
127.0553915587403
 31
10.14612500000009
210
0.0000000000000002
220
0.0
230
-1.0
  0
LINE
  5
471C2
330
458D6
100
AcDbEntity
  8
0
100
AcDbLine
 10
-209.0071770307554
 20
130.2553915587403
 30
10.14612499999998
 11
790.7926339882251
 21
130.2553915587403
 31
10.14612500000009
210
0.0000000000000002
220
0.0
230
-1.0
  0
LINE
  5
471C3
330
458D6
100
AcDbEntity
  8
0
100
AcDbLine
 10
-209.0071770307554
 20
130.2553915587403
 30
10.14612499999998
 11
-209.0071770307554
 21
127.0553915587403
 31
10.14612499999998
210
0.0000000000000002
220
0.0
230
-1.0
  0
LINE
  5
471C4
330
458D6
100
AcDbEntity
  8
0
100
AcDbLine
 10
-209.0071770307554
 20
127.0553915587403
 30
11.14612499999998
 11
-209.0071770307554
 21
130.2553915587403
 31
11.14612499999998
  0
LINE
  5
471C5
330
458D6
100
AcDbEntity
  8
0
100
AcDbLine
 10
791.0386622165596
 20
127.0553915587403
 30
11.14612500000009
 11
-208.6090605321202
 21
127.0553915587403
 31
11.14612499999998
  0
LINE
  5
471C6
330
458D6
100
AcDbEntity
  8
0
100
AcDbLine
 10
-209.0071770307554
 20
130.2553915587403
 30
11.14612499999998
 11
791.0386622165595
 21
130.2553915587403
 31
11.14612500000009
  0
LINE
  5
471C7
330
458D6
100
AcDbEntity
  8
0
100
AcDbLine
 10
791.0386622165595
 20
130.2345505511725
 30
11.14612500000009
 11
791.0386622165596
 21
127.0553915587403
 31
11.14612500000009
  0
LINE
  5
471C8
330
458D6
100
AcDbEntity
  8
0
100
AcDbLine
 10
-209.0071770307554
 20
132.8553915587403
 30
4.646124999999983
 11
-209.0071770307554
 21
156.2553915587403
 31
4.646124999999983
  0
LINE
  5
471C9
330
458D6
100
AcDbEntity
  8
0
100
AcDbLine
 10
791.0386622165595
 20
132.8553915587403
 30
4.646125000000097
 11
-209.0071770307554
 21
132.8553915587403
 31
4.646124999999983
  0
LINE
  5
471CA
330
458D6
100
AcDbEntity
  8
0
100
AcDbLine
 10
-209.0071770307554
 20
156.2553915587403
 30
4.646124999999983
 11
791.0386622165596
 21
156.2553915587403
 31
4.646125000000097
  0
LINE
  5
471CB
330
458D6
100
AcDbEntity
  8
0
100
AcDbLine
 10
791.0386622165596
 20
156.2553915587403
 30
4.646125000000097
 11
791.0386622165595
 21
132.8345505511725
 31
4.646125000000097
  0
ARC
  5
471CC
330
458D6
100
AcDbEntity
  8
0
100
AcDbCircle
 10
786.1432427180351
 20
144.5449710549564
 30
4.646125000000097
 40
1.999999999999999
100
AcDbArc
 50
270.0
 51
90.0
  0
ARC
  5
471CD
330
458D6
100
AcDbEntity
  8
0
100
AcDbCircle
 10
786.1432427180351
 20
144.5449710549564
 30
4.646125000000097
 40
1.999999999999999
100
AcDbArc
 50
90.0
 51
270.0
  0
ARC
  5
471CE
330
458D6
100
AcDbEntity
  8
0
100
AcDbCircle
 10
-203.0071770307554
 20
144.5553915587403
 30
4.646124999999983
 40
1.999999999999999
100
AcDbArc
 50
270.0
 51
90.0
  0
ARC
  5
471CF
330
458D6
100
AcDbEntity
  8
0
100
AcDbCircle
 10
-203.0071770307554
 20
144.5553915587403
 30
4.646124999999983
 40
1.999999999999999
100
AcDbArc
 50
90.0
 51
270.0
  0
LINE
  5
471D0
330
458D6
100
AcDbEntity
  8
0
100
AcDbLine
 10
791.0386622165595
 20
162.0553915587403
 30
10.14612500000009
 11
791.0386622165595
 21
158.8553915587403
 31
10.14612500000009
  0
LINE
  5
471D1
330
458D6
100
AcDbEntity
  8
0
100
AcDbLine
 10
-209.0071770307554
 20
162.0553915587403
 30
11.14612499999998
 11
791.0386622165595
 21
162.0345505511725
 31
11.14612500000009
  0
LINE
  5
471D2
330
458D6
100
AcDbEntity
  8
0
100
AcDbLine
 10
791.0386622165595
 20
158.8553915587403
 30
11.14612500000009
 11
-209.0071770307554
 21
158.8553915587404
 31
11.14612499999998
  0
LINE
  5
471D3
330
458D6
100
AcDbEntity
  8
0
100
AcDbLine
 10
-209.0071770307554
 20
158.8553915587404
 30
11.14612499999998
 11
-209.0071770307554
 21
162.0553915587403
 31
11.14612499999998
  0
LINE
  5
471D4
330
458D6
100
AcDbEntity
  8
0
100
AcDbLine
 10
-209.0071770307554
 20
162.0553915587403
 30
10.14612499999998
 11
-209.0071770307554
 21
158.8553915587404
 31
10.14612499999998
210
0.0000000000000002
220
0.0
230
-1.0
  0
LINE
  5
471D5
330
458D6
100
AcDbEntity
  8
0
100
AcDbLine
 10
791.0386622165595
 20
162.0553915587403
 30
10.14612500000009
 11
-209.0071770307554
 21
162.0553915587403
 31
10.14612499999998
210
0.0000000000000002
220
0.0
230
-1.0
  0
LINE
  5
471D6
330
458D6
100
AcDbEntity
  8
0
100
AcDbLine
 10
-209.0071770307554
 20
158.8553915587404
 30
10.14612499999998
 11
247.9928229692444
 21
158.8553915587403
 31
10.14612500000009
210
0.0000000000000002
220
0.0
230
-1.0
  0
LINE
  5
471D7
330
458D6
100
AcDbEntity
  8
0
100
AcDbLine
 10
791.0386622165595
 20
162.0345505511725
 30
11.14612500000009
 11
-209.0071770307554
 21
162.0553915587403
 31
11.14612499999998
210
0.0000000000000002
220
0.0
230
-1.0
  0
LINE
  5
471D8
330
458D6
100
AcDbEntity
  8
0
100
AcDbLine
 10
-209.0071770307554
 20
158.0553915587403
 30
9.346124999999972
 11
-209.0071770307554
 21
158.0553915587403
 31
5.446124999999966
210
0.0000000000000001
220
1.0
230
0.0
  0
LINE
  5
471D9
330
458D6
100
AcDbEntity
  8
0
100
AcDbLine
 10
-209.0071770307554
 20
158.0553915587403
 30
9.346124999999972
 11
791.0386622165595
 21
158.0553915587403
 31
9.346125000000085
210
0.0000000000000001
220
1.0
230
0.0
  0
LINE
  5
471DA
330
458D6
100
AcDbEntity
  8
0
100
AcDbLine
 10
247.9928229692444
 20
158.0553915587403
 30
5.44612500000008
 11
-209.0071770307554
 21
158.0553915587403
 31
5.446124999999966
210
0.0000000000000001
220
1.0
230
0.0
  0
LINE
  5
471DB
330
458D6
100
AcDbEntity
  8
0
100
AcDbLine
 10
791.0386622165595
 20
158.0345505511725
 30
5.44612500000008
 11
791.0386622165595
 21
158.0345505511725
 31
9.346125000000085
210
0.0000000000000001
220
1.0
230
0.0
  0
LINE
  5
471DC
330
458D6
100
AcDbEntity
  8
0
100
AcDbLine
 10
791.0386622165595
 20
132.8345505511725
 30
4.646125000000097
 11
791.0386622165596
 21
156.2553915587403
 31
4.646125000000097
210
0.0000000000000002
220
0.0
230
-1.0
  0
LINE
  5
471DD
330
458D6
100
AcDbEntity
  8
0
100
AcDbLine
 10
791.0386622165595
 20
132.8345505511725
 30
3.64612500000008
 11
-209.0071770307554
 21
132.8553915587403
 31
3.646124999999983
210
0.0000000000000002
220
0.0
230
-1.0
  0
LINE
  5
471DE
330
458D6
100
AcDbEntity
  8
0
100
AcDbLine
 10
247.9928229692444
 20
156.2553915587403
 30
3.646125000000097
 11
-209.0071770307554
 21
156.2553915587403
 31
3.646124999999983
210
0.0000000000000002
220
0.0
230
-1.0
  0
LINE
  5
471DF
330
458D6
100
AcDbEntity
  8
0
100
AcDbLine
 10
-209.0071770307554
 20
156.2553915587403
 30
3.646124999999983
 11
-209.0071770307554
 21
132.8553915587403
 31
3.646124999999983
210
0.0000000000000002
220
0.0
230
-1.0
  0
ARC
  5
471E0
330
458D6
100
AcDbEntity
  8
0
100
AcDbCircle
 10
-786.1432427180351
 20
144.5449710549564
 30
-3.646124999999922
 40
1.999999999999999
210
0.0000000000000002
220
0.0
230
-1.0
100
AcDbArc
 50
270.0
 51
90.0
  0
ARC
  5
471E1
330
458D6
100
AcDbEntity
  8
0
100
AcDbCircle
 10
-786.1432427180351
 20
144.5449710549564
 30
-3.646124999999922
 40
1.999999999999999
210
0.0000000000000002
220
0.0
230
-1.0
100
AcDbArc
 50
90.00000000000003
 51
270.0
  0
ARC
  5
471E2
330
458D6
100
AcDbEntity
  8
0
100
AcDbCircle
 10
203.0071770307554
 20
144.5553915587403
 30
-3.646125000000028
 40
1.999999999999999
210
0.0000000000000002
220
0.0
230
-1.0
100
AcDbArc
 50
270.0
 51
90.0
  0
ARC
  5
471E3
330
458D6
100
AcDbEntity
  8
0
100
AcDbCircle
 10
203.0071770307554
 20
144.5553915587403
 30
-3.646125000000028
 40
1.999999999999999
210
0.0000000000000002
220
0.0
230
-1.0
100
AcDbArc
 50
90.0
 51
270.0
  0
LINE
  5
471E7
330
458D6
100
AcDbEntity
  8
0
100
AcDbLine
 10
791.0386622165595
 20
162.0345505511725
 30
11.14612500000009
 11
791.0386622165595
 21
158.8553915587403
 31
11.14612500000009
210
-1.0
220
0.0
230
0.0
  0
LINE
  5
471E8
330
458D6
100
AcDbEntity
  8
0
100
AcDbLine
 10
791.0386622165595
 20
156.2345505511725
 30
3.64612500000008
 11
791.0386622165595
 21
132.8345505511725
 31
3.64612500000008
210
-1.0
220
0.0
230
0.0
  0
LINE
  5
471E9
330
458D6
100
AcDbEntity
  8
0
100
AcDbLine
 10
791.0386622165595
 20
130.2345505511725
 30
10.14612500000008
 11
791.0386622165596
 21
127.0553915587403
 31
10.14612500000009
210
-1.0
220
0.0
230
0.0
  0
DIMENSION
  5
471EE
330
458D6
100
AcDbEntity
  8
AREA1
100
AcDbDimension
  2
*D0
 10
791.0386622165595
 20
192.3769601660942
 30
3.646125000000081
 11
291.015742592902
 21
192.3769601660942
 31
3.646125000000081
 70
   160
 71
     5
 42
1000.045839247315
  3
ABECAD_3D
100
AcDbAlignedDimension
 13
-209.0071770307554
 23
162.0553915587403
 33
3.646125000000081
 14
791.0386622165595
 24
162.0553915587403
 34
3.646125000000195
100
AcDbRotatedDimension
1001
ACAD
1000
DSTYLE
1002
{
1070
    42
1040
10.0
1070
    44
1040
18.0
1070
    41
1040
18.0
1070
   147
1040
10.0
1070
   140
1040
18.0
1002
}
  0
DIMENSION
  5
471FC
330
458D6
100
AcDbEntity
  8
AREA1
100
AcDbDimension
  2
*D1
 10
814.1979676972541
 20
127.0553915587403
 30
3.646125000000081
 11
858.9871287791003
 21
145.7929298605539
 31
3.646125000000081
 70
   160
 71
     5
 42
34.99999999999994
  3
ABECAD_3D
100
AcDbAlignedDimension
 13
791.0386622165595
 23
162.0553915587403
 33
3.646125000000195
 14
791.0386622165596
 24
127.0553915587403
 34
3.646125000000195
 50
90.0
100
AcDbRotatedDimension
1001
ACAD
1000
DSTYLE
1002
{
1070
    42
1040
10.0
1070
    44
1040
18.0
1070
    41
1040
18.0
1070
   147
1040
10.0
1070
   140
1040
18.0
1002
}
  0
DIMENSION
  5
47225
330
458D6
100
AcDbEntity
  8
AREA2
100
AcDbDimension
  2
*D2
 10
823.6082167963939
 20
162.0553915587403
 30
3.646125000000072
 11
863.3734734705933
 21
11.04355925429276
 31
-162.0553915587403
 70
   160
 71
     5
 42
7.500000000000015
210
0.0
220
-1.0
230
0.0
  3
ABECAD_3D
100
AcDbAlignedDimension
 13
791.0386622165595
 23
162.0449710549564
 33
11.14612500000009
 14
791.0386622165595
 24
166.2345505511724
 34
3.646125000000081
 50
90.0
100
AcDbRotatedDimension
1001
ACAD
1000
DSTYLE
1002
{
1070
    42
1040
10.0
1070
    44
1040
18.0
1070
    41
1040
18.0
1070
   147
1040
10.0
1070
   140
1040
18.0
1002
}
  0
3DFACE
  5
473A8
330
458D6
100
AcDbEntity
  8
0
100
AcDbFace
 10
-209.0071770307554
 20
156.2553915587403
 30
4.646124999999983
 11
-209.0071770307554
 21
132.8553915587403
 31
4.646124999999983
 12
791.0386622165595
 22
132.8553915587403
 32
4.646125000000097
 13
791.0386622165596
 23
156.2553915587403
 33
4.646125000000097
  0
ENDSEC
  0
SECTION
  2
OBJECTS
  0
DICTIONARY
  5
458CB
330
0
100
AcDbDictionary
281
     1
  3
ACAD_COLOR
350
459D8
  3
ACAD_GROUP
350
458CC
  3
ACAD_LAYOUT
350
458FB
  3
ACAD_MATERIAL
350
459D7
  3
ACAD_MLINESTYLE
350
458D9
  3
ACAD_PLOTSETTINGS
350
458FC
  3
ACAD_PLOTSTYLENAME
350
458F9
  3
ACAD_TABLESTYLE
350
46C32
  3
ACDBVARIABLEDICTIONARY
350
458E1
  3
BNS_VARIABLES
350
46C3E
  3
DWGPROPS
350
473AA
  0
DICTIONARY
  5
45930
330
458D6
100
AcDbDictionary
280
     1
281
     1
  3
ACAD_LAYOUTSELFREF
360
459C8
  3
ACAD_SORTENTS
360
46C49
  0
DICTIONARY
  5
4592E
330
458D3
100
AcDbDictionary
280
     1
281
     1
  3
ACAD_LAYOUTSELFREF
360
459C7
  0
DICTIONARY
  5
459D8
102
{ACAD_REACTORS
330
458CB
102
}
330
458CB
100
AcDbDictionary
281
     1
  0
DICTIONARY
  5
458CC
102
{ACAD_REACTORS
330
458CB
102
}
330
458CB
100
AcDbDictionary
281
     1
  0
DICTIONARY
  5
458FB
102
{ACAD_REACTORS
330
458CB
102
}
330
458CB
100
AcDbDictionary
281
     1
  3
Layout1
350
458FE
  3
Model
350
458FD
  0
DICTIONARY
  5
459D7
102
{ACAD_REACTORS
330
458CB
102
}
330
458CB
100
AcDbDictionary
281
     1
  0
DICTIONARY
  5
458D9
102
{ACAD_REACTORS
330
458CB
102
}
330
458CB
100
AcDbDictionary
281
     1
  3
STANDARD
350
458DA
  0
DICTIONARY
  5
458FC
102
{ACAD_REACTORS
330
458CB
102
}
330
458CB
100
AcDbDictionary
281
     1
  0
ACDBDICTIONARYWDFLT
  5
458F9
102
{ACAD_REACTORS
330
458CB
102
}
330
458CB
100
AcDbDictionary
281
     1
  3
Normal
350
458FA
100
AcDbDictionaryWithDefault
340
458FA
  0
DICTIONARY
  5
46C32
102
{ACAD_REACTORS
330
458CB
102
}
330
458CB
100
AcDbDictionary
281
     1
  3
Standard
350
46C33
  0
DICTIONARY
  5
458E1
102
{ACAD_REACTORS
330
458CB
102
}
330
458CB
100
AcDbDictionary
281
     1
  3
CTABLESTYLE
350
47052
  3
DIMADEC
350
458E2
  3
DIMASSOC
350
470EB
  3
PROJECTNAME
350
470EC
  0
DICTIONARY
  5
46C3E
102
{ACAD_REACTORS
330
458CB
102
}
330
458CB
100
AcDbDictionary
281
     1
  3
ACET-OVERKILL-FUZZ
350
46C4C
  3
ACET-OVERKILL-NO-ENDTOEND
350
46C4F
  3
ACET-OVERKILL-NO-PARTIAL
350
46C4E
  3
ACET-OVERKILL-NO-PLINES
350
46C4D
  0
XRECORD
  5
473AA
102
{ACAD_REACTORS
330
458CB
102
}
330
458CB
100
AcDbXrecord
280
     1
  1
DWGPROPS COOKIE
  2

  3

  4

  6

  7

  8
colin
  9

300
=
301
=
302
=
303
=
304
=
305
=
306
=
307
=
308
=
309
=
 40
0.0787130787037037
 41
2453042.595653843
 42
2453579.589173611
  1

 90
        0
  0
XRECORD
  5
459C8
102
{ACAD_REACTORS
330
45930
102
}
330
45930
100
AcDbXrecord
280
     1
340
458D6
  0
SORTENTSTABLE
  5
46C49
102
{ACAD_REACTORS
330
45930
102
}
330
45930
100
AcDbSortentsTable
330
458D6
331
46C1F
  5
46C46
331
471BB
  5
471D1
331
471CE
  5
471C0
331
471E0
  5
471A8
331
471AD
  5
471DB
331
46C1B
  5
46C1B
331
471CA
  5
471BC
331
471B7
  5
471D5
331
46C17
  5
46C17
331
471B3
  5
471D9
331
471D8
  5
471AF
331
471C6
  5
471C4
331
46C13
  5
46C13
331
471D4
  5
471AE
331
471C2
  5
471C8
331
46C3C
  5
471DE
331
471D0
  5
471B6
331
46C22
  5
46C4A
331
471BE
  5
471CC
331
471E3
  5
471AD
331
46C1E
  5
46C3D
331
471BA
  5
471D0
331
471CD
  5
471BF
331
471DF
  5
471A7
331
46C1A
  5
46C1A
331
471B6
  5
471D4
331
471AC
  5
471DA
331
471C9
  5
471BB
331
471DB
  5
471B2
331
46C16
  5
46C16
331
471B2
  5
471D8
331
471D7
  5
471B5
331
471C5
  5
471C3
331
46C12
  5
46C12
331
471D3
  5
471B9
331
471C1
  5
471C7
331
46C21
  5
46C48
331
471BD
  5
471CB
331
46C56
  5
471DF
331
471E2
  5
471AC
331
46C1D
  5
46C3C
331
471B9
  5
471CF
331
471AF
  5
471DD
331
471CC
  5
471BE
331
471DE
  5
471A6
331
46C19
  5
46C19
331
471B5
  5
471D3
331
471C8
  5
471BA
331
471DA
  5
471B1
331
46C15
  5
46C15
331
471B1
  5
471D7
331
471D6
  5
471B4
331
471C4
  5
471C2
331
471D2
  5
471B8
331
46C24
  5
46C53
331
471C0
  5
471C6
331
46C20
  5
46C47
331
471BC
  5
471CA
331
471CF
  5
471C1
331
471E1
  5
471AB
331
471B8
  5
471CE
331
471AE
  5
471DC
331
471CB
  5
471BD
331
471DD
  5
46C56
331
46C18
  5
46C18
331
471B4
  5
471D2
331
471D9
  5
471B0
331
471C7
  5
471C5
331
46C14
  5
46C14
331
471B0
  5
471D6
331
471D5
  5
471B3
331
471C3
  5
471C9
331
46C3D
  5
471E0
331
471D1
  5
471B7
331
46C23
  5
46C52
331
471BF
  5
471CD
  0
XRECORD
  5
459C7
102
{ACAD_REACTORS
330
4592E
102
}
330
4592E
100
AcDbXrecord
280
     1
340
458D3
  0
LAYOUT
  5
458FE
102
{ACAD_XDICTIONARY
360
473AE
102
}
102
{ACAD_REACTORS
330
458FB
102
}
330
458FB
100
AcDbPlotSettings
  1

  2
HP LaserJet 5000 Series PCL 6
  4

  6

 40
0.0
 41
0.0
 42
0.0
 43
0.0
 44
0.0
 45
0.0
 46
0.0
 47
0.0
 48
0.0
 49
0.0
140
0.0
141
0.0
142
1.0
143
1.0
 70
   688
 72
     0
 73
     0
 74
     5
  7
Default R14 pen assignments.ctb
 75
    16
147
1.0
148
0.0
149
0.0
100
AcDbLayout
  1
Layout1
 70
     1
 71
     1
 10
0.0
 20
0.0
 11
12.0
 21
9.0
 12
0.0
 22
0.0
 32
0.0
 14
1.000000000000000E+20
 24
1.000000000000000E+20
 34
1.000000000000000E+20
 15
-1.000000000000000E+20
 25
-1.000000000000000E+20
 35
-1.000000000000000E+20
146
0.0
 13
0.0
 23
0.0
 33
0.0
 16
1.0
 26
0.0
 36
0.0
 17
0.0
 27
1.0
 37
0.0
 76
     0
330
458D3
  0
LAYOUT
  5
458FD
102
{ACAD_XDICTIONARY
360
473AC
102
}
102
{ACAD_REACTORS
330
458FB
102
}
330
458FB
100
AcDbPlotSettings
  1

  2
HP LaserJet 5000 Series PCL 6
  4

  6

 40
0.0
 41
0.0
 42
0.0
 43
0.0
 44
0.0
 45
0.0
 46
0.0
 47
0.0
 48
0.0
 49
0.0
140
0.0
141
0.0
142
1.0
143
1.0
 70
  1712
 72
     0
 73
     0
 74
     0
  7
Default R14 pen assignments.ctb
 75
     0
147
1.0
148
0.0
149
0.0
100
AcDbLayout
  1
Model
 70
     1
 71
     0
 10
0.0
 20
0.0
 11
12.0
 21
9.0
 12
0.0
 22
0.0
 32
0.0
 14
0.0
 24
0.0
 34
0.0
 15
0.0
 25
0.0
 35
0.0
146
0.0
 13
0.0
 23
0.0
 33
0.0
 16
1.0
 26
0.0
 36
0.0
 17
0.0
 27
1.0
 37
0.0
 76
     0
330
458D6
  0
MLINESTYLE
  5
458DA
102
{ACAD_REACTORS
330
458D9
102
}
330
458D9
100
AcDbMlineStyle
  2
STANDARD
 70
     0
  3

 62
   256
 51
90.0
 52
90.0
 71
     2
 49
0.5
 62
   256
  6
BYLAYER
 49
-0.5
 62
   256
  6
BYLAYER
  0
ACDBPLACEHOLDER
  5
458FA
102
{ACAD_REACTORS
330
458F9
102
}
330
458F9
  0
ACAD_PROXY_OBJECT
  5
46C33
102
{ACAD_REACTORS
330
46C32
102
}
330
46C32
100
AcDbProxyObject
 90
      499
 91
      512
 95
   393239
 70
     0
 93
     1841
310
4214DD185B99185C9928000000000000F83F0000000000003E0FC00000000000004901028000000C1008070000C3001FDFF8000000C1003FBFF000000182007F7FE00000030400FEFFC00000060801FDFF8000000C1003FBFF000000182000000000000000C2020B0000001820100E000186003FBFF000000182007F7FE000
310
00030400FEFFC00000060801FDFF8000000C1003FBFF000000182007F7FE0000003040000000000000012404160000003040201C00030C007F7FE00000030400FEFFC00000060801FDFF8000000C1003FBFF000000182007F7FE00000030400FEFFC000000608000
340
458CE
340
458CE
340
458CE
 94
        0
  0
DICTIONARYVAR
  5
47052
102
{ACAD_REACTORS
330
458E1
102
}
330
458E1
100
DictionaryVariables
280
     0
  1
STANDARD
  0
DICTIONARYVAR
  5
458E2
102
{ACAD_REACTORS
330
458E1
102
}
330
458E1
100
DictionaryVariables
280
     0
  1
0
  0
DICTIONARYVAR
  5
470EB
102
{ACAD_REACTORS
330
458E1
102
}
330
458E1
100
DictionaryVariables
280
     0
  1
1
  0
DICTIONARYVAR
  5
470EC
102
{ACAD_REACTORS
330
458E1
102
}
330
458E1
100
DictionaryVariables
280
     0
  1

  0
XRECORD
  5
46C4C
102
{ACAD_REACTORS
330
46C3E
102
}
330
46C3E
100
AcDbXrecord
280
     1
 40
0.000001
  0
XRECORD
  5
46C4F
102
{ACAD_REACTORS
330
46C3E
102
}
330
46C3E
100
AcDbXrecord
280
     1
 70
     0
  0
XRECORD
  5
46C4E
102
{ACAD_REACTORS
330
46C3E
102
}
330
46C3E
100
AcDbXrecord
280
     1
 70
     0
  0
XRECORD
  5
46C4D
102
{ACAD_REACTORS
330
46C3E
102
}
330
46C3E
100
AcDbXrecord
280
     1
 70
     0
  0
DICTIONARY
  5
473AE
330
458FE
100
AcDbDictionary
280
     1
281
     1
  3
ACAD_XREC_ROUNDTRIP
360
473AF
  0
DICTIONARY
  5
473AC
330
458FD
100
AcDbDictionary
280
     1
281
     1
  3
ACAD_XREC_ROUNDTRIP
360
473AD
  0
XRECORD
  5
473AF
102
{ACAD_REACTORS
330
473AE
102
}
330
473AE
100
AcDbXrecord
280
     1
102
SHADEPLOT
 70
     0
102
SHADEPLOTRESLEVEL
 70
     2
102
SHADEPLOTCUSTOMDPI
 70
   300
  0
XRECORD
  5
473AD
102
{ACAD_REACTORS
330
473AC
102
}
330
473AC
100
AcDbXrecord
280
     1
102
SHADEPLOT
 70
     0
102
SHADEPLOTRESLEVEL
 70
     2
102
SHADEPLOTCUSTOMDPI
 70
   300
  0
ENDSEC
  0
EOF
