  0
SECTION
  2
HEADER
  9
$ACADVER
  1
AC1014
  9
$ACADMAINTVER
 70
     8
  9
$DWGCODEPAGE
  3
ANSI_1252
  9
$INSBASE
 10
0.0
 20
0.0
 30
0.0
  9
$EXTMIN
 10
-2.085762
 20
-1.392751
 30
0.0
  9
$EXTMAX
 10
1.717
 20
6.06646
 30
5.785
  9
$LIMMIN
 10
0.0
 20
0.0
  9
$LIMMAX
 10
12.0
 20
9.0
  9
$ORTHOMODE
 70
     0
  9
$REGENMODE
 70
     1
  9
$FILLMODE
 70
     1
  9
$QTEXTMODE
 70
     0
  9
$MIRRTEXT
 70
     1
  9
$DRAGMODE
 70
     2
  9
$LTSCALE
 40
1.0
  9
$OSMODE
 70
    37
  9
$ATTMODE
 70
     0
  9
$TEXTSIZE
 40
0.2
  9
$TRACEWID
 40
0.05
  9
$TEXTSTYLE
  7
STANDARD
  9
$CLAYER
  8
0
  9
$CELTYPE
  6
BYLAYER
  9
$CECOLOR
 62
   256
  9
$CELTSCALE
 40
1.0
  9
$DELOBJ
 70
     1
  9
$DISPSILH
 70
     0
  9
$DIMSCALE
 40
0.0
  9
$DIMASZ
 40
0.179688
  9
$DIMEXO
 40
0.0625
  9
$DIMDLI
 40
0.375
  9
$DIMRND
 40
0.0
  9
$DIMDLE
 40
0.0
  9
$DIMEXE
 40
0.179688
  9
$DIMTP
 40
0.0
  9
$DIMTM
 40
0.0
  9
$DIMTXT
 40
0.125
  9
$DIMCEN
 40
0.089844
  9
$DIMTSZ
 40
0.0
  9
$DIMTOL
 70
     0
  9
$DIMLIM
 70
     0
  9
$DIMTIH
 70
     0
  9
$DIMTOH
 70
     0
  9
$DIMSE1
 70
     0
  9
$DIMSE2
 70
     0
  9
$DIMTAD
 70
     0
  9
$DIMZIN
 70
     4
  9
$DIMBLK
  1

  9
$DIMASO
 70
     1
  9
$DIMSHO
 70
     1
  9
$DIMPOST
  1

  9
$DIMAPOST
  1

  9
$DIMALT
 70
     1
  9
$DIMALTD
 70
     1
  9
$DIMALTF
 40
25.4
  9
$DIMLFAC
 40
1.0
  9
$DIMTOFL
 70
     0
  9
$DIMTVP
 40
0.0
  9
$DIMTIX
 70
     1
  9
$DIMSOXD
 70
     0
  9
$DIMSAH
 70
     0
  9
$DIMBLK1
  1

  9
$DIMBLK2
  1

  9
$DIMSTYLE
  2
ABECAD_3V
  9
$DIMCLRD
 70
     0
  9
$DIMCLRE
 70
     0
  9
$DIMCLRT
 70
     0
  9
$DIMTFAC
 40
1.5
  9
$DIMGAP
 40
0.09375
  9
$DIMJUST
 70
     0
  9
$DIMSD1
 70
     0
  9
$DIMSD2
 70
     0
  9
$DIMTOLJ
 70
     1
  9
$DIMTZIN
 70
     4
  9
$DIMALTZ
 70
     4
  9
$DIMALTTZ
 70
     4
  9
$DIMFIT
 70
     5
  9
$DIMUPT
 70
     0
  9
$DIMUNIT
 70
     7
  9
$DIMDEC
 70
     6
  9
$DIMTDEC
 70
     6
  9
$DIMALTU
 70
     2
  9
$DIMALTTD
 70
     1
  9
$DIMTXSTY
  7
STANDARD
  9
$DIMAUNIT
 70
     0
  9
$LUNITS
 70
     5
  9
$LUPREC
 70
     6
  9
$SKETCHINC
 40
0.1
  9
$FILLETRAD
 40
0.0
  9
$AUNITS
 70
     0
  9
$AUPREC
 70
     0
  9
$MENU
  1
acad
  9
$ELEVATION
 40
0.0
  9
$PELEVATION
 40
0.0
  9
$THICKNESS
 40
0.0
  9
$LIMCHECK
 70
     0
  9
$BLIPMODE
 70
     0
  9
$CHAMFERA
 40
0.0
  9
$CHAMFERB
 40
0.0
  9
$CHAMFERC
 40
0.0
  9
$CHAMFERD
 40
0.0
  9
$SKPOLY
 70
     0
  9
$TDCREATE
 40
2451670.441490278
  9
$TDUPDATE
 40
2452010.726874652
  9
$TDINDWG
 40
0.0064752315
  9
$TDUSRTIMER
 40
0.0064752315
  9
$USRTIMER
 70
     1
  9
$ANGBASE
 50
0.0
  9
$ANGDIR
 70
     0
  9
$PDMODE
 70
     2
  9
$PDSIZE
 40
0.0
  9
$PLINEWID
 40
0.0
  9
$COORDS
 70
     1
  9
$SPLFRAME
 70
     0
  9
$SPLINETYPE
 70
     6
  9
$SPLINESEGS
 70
     8
  9
$ATTDIA
 70
     0
  9
$ATTREQ
 70
     1
  9
$HANDLING
 70
     1
  9
$HANDSEED
  5
725
  9
$SURFTAB1
 70
     6
  9
$SURFTAB2
 70
     6
  9
$SURFTYPE
 70
     6
  9
$SURFU
 70
     6
  9
$SURFV
 70
     6
  9
$UCSNAME
  2

  9
$UCSORG
 10
0.0
 20
0.0
 30
0.0
  9
$UCSXDIR
 10
1.0
 20
0.0
 30
0.0
  9
$UCSYDIR
 10
0.0
 20
1.0
 30
0.0
  9
$PUCSNAME
  2

  9
$PUCSORG
 10
0.0
 20
0.0
 30
0.0
  9
$PUCSXDIR
 10
1.0
 20
0.0
 30
0.0
  9
$PUCSYDIR
 10
0.0
 20
1.0
 30
0.0
  9
$USERI1
 70
     0
  9
$USERI2
 70
     0
  9
$USERI3
 70
     0
  9
$USERI4
 70
     0
  9
$USERI5
 70
     0
  9
$USERR1
 40
0.0
  9
$USERR2
 40
0.0
  9
$USERR3
 40
0.0
  9
$USERR4
 40
0.0
  9
$USERR5
 40
0.0
  9
$WORLDVIEW
 70
     1
  9
$SHADEDGE
 70
     3
  9
$SHADEDIF
 70
    70
  9
$TILEMODE
 70
     0
  9
$MAXACTVP
 70
    16
  9
$PINSBASE
 10
0.0
 20
0.0
 30
0.0
  9
$PLIMCHECK
 70
     0
  9
$PEXTMIN
 10
0.0
 20
0.0
 30
0.0
  9
$PEXTMAX
 10
10.0
 20
7.5
 30
0.0
  9
$PLIMMIN
 10
-0.187029
 20
-0.186938
  9
$PLIMMAX
 10
10.187518
 20
7.829757
  9
$UNITMODE
 70
     0
  9
$VISRETAIN
 70
     0
  9
$PLINEGEN
 70
     0
  9
$PSLTSCALE
 70
     1
  9
$TREEDEPTH
 70
  3020
  9
$PICKSTYLE
 70
     1
  9
$CMLSTYLE
  2
STANDARD
  9
$CMLJUST
 70
     0
  9
$CMLSCALE
 40
1.0
  9
$PROXYGRAPHICS
 70
     1
  9
$MEASUREMENT
 70
     0
  0
ENDSEC
  0
SECTION
  2
CLASSES
  0
CLASS
  1
DICTIONARYVAR
  2
AcDbDictionaryVar
  3
"AutoCAD"
 90
        0
280
     0
281
     0
  0
CLASS
  1
ACDBDICTIONARYWDFLT
  2
AcDbDictionaryWithDefault
  3
AutoCAD 2000
 90
        0
280
     0
281
     0
  0
CLASS
  1
ACDBPLACEHOLDER
  2
AcDbPlaceHolder
  3
AutoCAD 2000
 90
        0
280
     0
281
     0
  0
CLASS
  1
LAYOUT
  2
AcDbLayout
  3
AutoCAD 2000
 90
        0
280
     0
281
     0
  0
CLASS
  1
LONG_TRANSACTION
  2
AcDbLongTransaction
  3
AutoCAD 2000
 90
        0
280
     0
281
     0
  0
CLASS
  1
LWPOLYLINE
  2
AcDbPolyline
  3
"AutoCAD"
 90
        0
280
     0
281
     1
  0
CLASS
  1
HATCH
  2
AcDbHatch
  3
"ACAD_SEDONA"
 90
        0
280
     0
281
     1
  0
CLASS
  1
XRECORD
  2
AcDbXrecord
  3
"<Built In>"
 90
        0
280
     0
281
     0
  0
CLASS
  1
LONG_TRANSACTION
  2
AcDbLongTransaction
  3
AutoCAD 2000
 90
        0
280
     0
281
     0
  0
CLASS
  1
LWPOLYLINE
  2
AcDbPolyline
  3
"AutoCAD"
 90
        0
280
     0
281
     1
  0
CLASS
  1
HATCH
  2
AcDbHatch
  3
"ACAD_SEDONA"
 90
        0
280
     0
281
     1
  0
CLASS
  1
XRECORD
  2
AcDbXrecord
  3
"<Built In>"
 90
        0
280
     0
281
     0
  0
CLASS
  1
LONG_TRANSACTION
  2
AcDbLongTransaction
  3
AutoCAD 2000
 90
        0
280
     0
281
     0
  0
CLASS
  1
LWPOLYLINE
  2
AcDbPolyline
  3
"AutoCAD"
 90
        0
280
     0
281
     1
  0
CLASS
  1
HATCH
  2
AcDbHatch
  3
"ACAD_SEDONA"
 90
        0
280
     0
281
     1
  0
CLASS
  1
XRECORD
  2
AcDbXrecord
  3
"<Built In>"
 90
        0
280
     0
281
     0
  0
CLASS
  1
LONG_TRANSACTION
  2
AcDbLongTransaction
  3
AutoCAD 2000
 90
        0
280
     0
281
     0
  0
CLASS
  1
LWPOLYLINE
  2
AcDbPolyline
  3
"AutoCAD"
 90
        0
280
     0
281
     1
  0
CLASS
  1
HATCH
  2
AcDbHatch
  3
"ACAD_SEDONA"
 90
        0
280
     0
281
     1
  0
CLASS
  1
XRECORD
  2
AcDbXrecord
  3
"<Built In>"
 90
        0
280
     0
281
     0
  0
CLASS
  1
LONG_TRANSACTION
  2
AcDbLongTransaction
  3
AutoCAD 2000
 90
        0
280
     0
281
     0
  0
CLASS
  1
LWPOLYLINE
  2
AcDbPolyline
  3
"AutoCAD"
 90
        0
280
     0
281
     1
  0
CLASS
  1
HATCH
  2
AcDbHatch
  3
"ACAD_SEDONA"
 90
        0
280
     0
281
     1
  0
CLASS
  1
XRECORD
  2
AcDbXrecord
  3
"<Built In>"
 90
        0
280
     0
281
     0
  0
CLASS
  1
LONG_TRANSACTION
  2
AcDbLongTransaction
  3
AutoCAD 2000
 90
        0
280
     0
281
     0
  0
CLASS
  1
LWPOLYLINE
  2
AcDbPolyline
  3
"AutoCAD"
 90
        0
280
     0
281
     1
  0
CLASS
  1
HATCH
  2
AcDbHatch
  3
"ACAD_SEDONA"
 90
        0
280
     0
281
     1
  0
CLASS
  1
XRECORD
  2
AcDbXrecord
  3
"<Built In>"
 90
        0
280
     0
281
     0
  0
ENDSEC
  0
SECTION
  2
TABLES
  0
TABLE
  2
VPORT
  5
469
100
AcDbSymbolTable
 70
     1
  0
VPORT
  5
62C
102
{ACAD_XDICTIONARY
360
6EB
102
}
100
AcDbSymbolTableRecord
100
AcDbViewportTableRecord
  2
*ACTIVE
 70
     0
 10
0.0
 20
0.0
 11
1.0
 21
1.0
 12
-0.184381
 22
2.336854
 13
0.0
 23
0.0
 14
1.0
 24
1.0
 15
0.0
 25
0.0
 16
0.0
 26
0.0
 36
1.0
 17
0.0
 27
0.0
 37
0.0
 40
7.615699
 41
2.54386
 42
50.0
 43
0.0
 44
0.0
 50
0.0
 51
0.0
 71
     0
 72
   100
 73
     1
 74
     1
 75
     0
 76
     0
 77
     0
 78
     0
  0
ENDTAB
  0
TABLE
  2
LTYPE
  5
466
100
AcDbSymbolTable
 70
     1
  0
LTYPE
  5
472
100
AcDbSymbolTableRecord
100
AcDbLinetypeTableRecord
  2
BYBLOCK
 70
     0
  3

 72
    65
 73
     0
 40
0.0
  0
LTYPE
  5
473
100
AcDbSymbolTableRecord
100
AcDbLinetypeTableRecord
  2
BYLAYER
 70
     0
  3

 72
    65
 73
     0
 40
0.0
  0
LTYPE
  5
474
100
AcDbSymbolTableRecord
100
AcDbLinetypeTableRecord
  2
CONTINUOUS
 70
     0
  3
Solid line
 72
    65
 73
     0
 40
0.0
  0
ENDTAB
  0
TABLE
  2
LAYER
  5
463
100
AcDbSymbolTable
 70
     8
  0
LAYER
  5
46F
100
AcDbSymbolTableRecord
100
AcDbLayerTableRecord
  2
0
 70
     0
 62
     7
  6
CONTINUOUS
  0
LAYER
  5
485
100
AcDbSymbolTableRecord
100
AcDbLayerTableRecord
  2
AREA1
 70
     0
 62
     7
  6
CONTINUOUS
  0
LAYER
  5
486
100
AcDbSymbolTableRecord
100
AcDbLayerTableRecord
  2
AREA2
 70
     0
 62
     7
  6
CONTINUOUS
  0
LAYER
  5
494
102
{ACAD_XDICTIONARY
360
718
102
}
100
AcDbSymbolTableRecord
100
AcDbLayerTableRecord
  2
DEFPOINTS
 70
     0
 62
    -7
  6
CONTINUOUS
  0
LAYER
  5
495
100
AcDbSymbolTableRecord
100
AcDbLayerTableRecord
  2
DIMS-MTG-HOLES
 70
     0
 62
    -1
  6
CONTINUOUS
  0
LAYER
  5
4E9
100
AcDbSymbolTableRecord
100
AcDbLayerTableRecord
  2
SCALE
 70
     0
 62
    -7
  6
CONTINUOUS
  0
LAYER
  5
4EA
100
AcDbSymbolTableRecord
100
AcDbLayerTableRecord
  2
SNAP_POINTS
 70
     0
 62
    -1
  6
CONTINUOUS
  0
LAYER
  5
56D
100
AcDbSymbolTableRecord
100
AcDbLayerTableRecord
  2
ATTRIBUTES
 70
     0
 62
    -7
  6
CONTINUOUS
  0
ENDTAB
  0
TABLE
  2
STYLE
  5
464
100
AcDbSymbolTable
 70
     1
  0
STYLE
  5
470
100
AcDbSymbolTableRecord
100
AcDbTextStyleTableRecord
  2
STANDARD
 70
     0
 40
0.0
 41
1.0
 50
0.0
 71
     0
 42
0.2
  3
txt
  4

  0
ENDTAB
  0
TABLE
  2
VIEW
  5
467
100
AcDbSymbolTable
 70
     0
  0
ENDTAB
  0
TABLE
  2
UCS
  5
468
100
AcDbSymbolTable
 70
     0
  0
ENDTAB
  0
TABLE
  2
APPID
  5
46A
100
AcDbSymbolTable
 70
     2
  0
APPID
  5
471
100
AcDbSymbolTableRecord
100
AcDbRegAppTableRecord
  2
ACAD
 70
     0
  0
APPID
  5
47E
100
AcDbSymbolTableRecord
100
AcDbRegAppTableRecord
  2
AVE_RENDER
 70
     0
  0
ENDTAB
  0
TABLE
  2
DIMSTYLE
  5
46B
100
AcDbSymbolTable
 70
     3
  0
DIMSTYLE
105
496
102
{ACAD_XDICTIONARY
360
71A
102
}
100
AcDbSymbolTableRecord
100
AcDbDimStyleTableRecord
  2
ABECAD
 70
     0
  3

  4

  5

  6

  7

 40
0.0
 41
0.179688
 42
0.0625
 43
0.375
 44
0.179688
 45
0.0
 46
0.0
 47
0.0
 48
0.0
140
0.125
141
0.089844
142
0.0
143
25.4
144
1.0
145
0.0
146
1.5
147
0.09375
 71
     0
 72
     0
 73
     0
 74
     0
 75
     0
 76
     0
 77
     0
 78
     4
170
     1
171
     1
172
     0
173
     0
174
     1
175
     0
176
     0
177
     0
178
     0
270
     7
271
     6
272
     6
273
     2
274
     1
340
470
275
     0
280
     0
281
     0
282
     0
283
     1
284
     4
285
     4
286
     4
287
     5
288
     0
  0
DIMSTYLE
105
49A
102
{ACAD_XDICTIONARY
360
71C
102
}
102
{ACAD_REACTORS
330
61E
102
}
100
AcDbSymbolTableRecord
100
AcDbDimStyleTableRecord
  2
ABECAD_3V
 70
     0
  3

  4

  5

  6

  7

 40
0.0
 41
0.179688
 42
0.0625
 43
0.375
 44
0.179688
 45
0.0
 46
0.0
 47
0.0
 48
0.0
140
0.125
141
0.089844
142
0.0
143
25.4
144
1.0
145
0.0
146
1.5
147
0.09375
 71
     0
 72
     0
 73
     0
 74
     0
 75
     0
 76
     0
 77
     0
 78
     4
170
     1
171
     1
172
     0
173
     0
174
     1
175
     0
176
     0
177
     0
178
     0
270
     7
271
     6
272
     6
273
     2
274
     1
340
470
275
     0
280
     0
281
     0
282
     0
283
     1
284
     4
285
     4
286
     4
287
     5
288
     0
  0
DIMSTYLE
105
56E
102
{ACAD_XDICTIONARY
360
720
102
}
102
{ACAD_REACTORS
330
60F
330
610
102
}
100
AcDbSymbolTableRecord
100
AcDbDimStyleTableRecord
  2
ABECAD_3D
 70
     0
  3

  4

  5

  6

  7

 40
1.0
 41
0.11
 42
0.0625
 43
0.375
 44
0.11
 45
0.0
 46
0.0
 47
0.0
 48
0.0
140
0.11
141
0.09
142
0.0
143
25.4
144
1.0
145
0.0
146
1.5
147
0.045
 71
     0
 72
     0
 73
     0
 74
     1
 75
     0
 76
     0
 77
     0
 78
     4
170
     1
171
     1
172
     0
173
     0
174
     0
175
     0
176
     0
177
     0
178
     0
270
     7
271
     6
272
     6
273
     2
274
     1
340
470
275
     0
280
     0
281
     0
282
     0
283
     1
284
     4
285
     4
286
     4
287
     3
288
     0
  0
ENDTAB
  0
TABLE
  2
BLOCK_RECORD
  5
462
100
AcDbSymbolTable
 70
     5
  0
BLOCK_RECORD
  5
478
102
{ACAD_XDICTIONARY
360
4D2
102
}
100
AcDbSymbolTableRecord
100
AcDbBlockTableRecord
  2
*MODEL_SPACE
  0
BLOCK_RECORD
  5
475
102
{ACAD_XDICTIONARY
360
4D0
102
}
100
AcDbSymbolTableRecord
100
AcDbBlockTableRecord
  2
*PAPER_SPACE
  0
BLOCK_RECORD
  5
545
102
{ACAD_XDICTIONARY
360
6E7
102
}
100
AcDbSymbolTableRecord
100
AcDbBlockTableRecord
  2
SCALE
1001
ACAD
1000
DesignCenter Data
1002
{
1070
     1
1070
     1
1002
}
  0
BLOCK_RECORD
  5
553
100
AcDbSymbolTableRecord
100
AcDbBlockTableRecord
  2
*D1
  0
BLOCK_RECORD
  5
560
100
AcDbSymbolTableRecord
100
AcDbBlockTableRecord
  2
*D2
  0
BLOCK_RECORD
  5
56F
102
{ACAD_XDICTIONARY
360
6E9
102
}
100
AcDbSymbolTableRecord
100
AcDbBlockTableRecord
  2
ABIOM240
  0
BLOCK_RECORD
  5
61F
100
AcDbSymbolTableRecord
100
AcDbBlockTableRecord
  2
*D4
  0
ENDTAB
  0
ENDSEC
  0
SECTION
  2
BLOCKS
  0
BLOCK
  5
48B
100
AcDbEntity
  8
0
100
AcDbBlockBegin
  2
*MODEL_SPACE
 70
     0
 10
0.0
 20
0.0
 30
0.0
  3
*MODEL_SPACE
  1

  0
ENDBLK
  5
48C
100
AcDbEntity
  8
0
100
AcDbBlockEnd
  0
BLOCK
  5
489
100
AcDbEntity
 67
     1
  8
0
100
AcDbBlockBegin
  2
*PAPER_SPACE
 70
     0
 10
0.0
 20
0.0
 30
0.0
  3
*PAPER_SPACE
  1

  0
ENDBLK
  5
48A
100
AcDbEntity
 67
     1
  8
0
100
AcDbBlockEnd
  0
BLOCK
  5
551
100
AcDbEntity
  8
0
100
AcDbBlockBegin
  2
SCALE
 70
     0
 10
0.0
 20
0.0
 30
0.0
  3
SCALE
  1

  0
LINE
  5
546
100
AcDbEntity
  8
SCALE
100
AcDbLine
 10
0.057999
 20
-0.380078
 30
0.0
 11
1.057999
 21
-0.380078
 31
0.0
  0
LWPOLYLINE
  5
547
100
AcDbEntity
  8
SCALE
100
AcDbPolyline
 90
        4
 70
     1
 43
0.0
 10
0.0
 20
0.0
 10
1.135629
 20
0.0
 10
1.135629
 20
-0.84161
 10
0.0
 20
-0.84161
  0
LINE
  5
548
100
AcDbEntity
  8
SCALE
100
AcDbLine
 10
0.057999
 20
-0.480078
 30
0.0
 11
0.057999
 21
-0.280078
 31
0.0
  0
TEXT
  5
549
100
AcDbEntity
  8
SCALE
100
AcDbText
 10
0.117421
 20
-0.634339
 30
0.0
 40
0.0625
  1
[10mm]
100
AcDbText
  0
LINE
  5
54A
100
AcDbEntity
  8
SCALE
100
AcDbLine
 10
0.057999
 20
-0.680078
 30
0.0
 11
0.451699
 21
-0.680078
 31
0.0
  0
LINE
  5
54B
100
AcDbEntity
  8
SCALE
100
AcDbLine
 10
0.057999
 20
-0.780078
 30
0.0
 11
0.057999
 21
-0.580078
 31
0.0
  0
LINE
  5
54C
100
AcDbEntity
  8
SCALE
100
AcDbLine
 10
0.451699
 20
-0.780078
 30
0.0
 11
0.451699
 21
-0.580078
 31
0.0
  0
TEXT
  5
54D
100
AcDbEntity
  8
SCALE
100
AcDbText
 10
0.059529
 20
-0.105201
 30
0.0
 40
0.0625
  1
SCALE:
100
AcDbText
  0
TEXT
  5
54E
100
AcDbEntity
  8
SCALE
100
AcDbText
 10
0.421282
 20
-0.31103
 30
0.0
 40
0.0625
  1
1 Inch
100
AcDbText
  0
LINE
  5
54F
100
AcDbEntity
  8
SCALE
100
AcDbLine
 10
1.057999
 20
-0.380078
 30
0.0
 11
1.057999
 21
-0.480078
 31
0.0
  0
LINE
  5
550
100
AcDbEntity
  8
SCALE
100
AcDbLine
 10
1.057999
 20
-0.480078
 30
0.0
 11
1.057999
 21
-0.280078
 31
0.0
  0
ENDBLK
  5
552
100
AcDbEntity
  8
0
100
AcDbBlockEnd
  0
BLOCK
  5
55E
100
AcDbEntity
  8
0
100
AcDbBlockBegin
  2
*D1
 70
     1
 10
0.0
 20
0.0
 30
0.0
  3
*D1
  1

  0
LINE
  5
554
100
AcDbEntity
  8
AREA1
 62
     0
100
AcDbLine
 10
0.3045
 20
-0.305
 30
0.0
 11
1.35567
 21
-0.305
 31
0.0
1001
ACAD
1000
RTLwPs
1070
   158
  0
LINE
  5
555
100
AcDbEntity
  8
AREA1
 62
     0
100
AcDbLine
 10
0.3045
 20
5.385
 30
0.0
 11
1.35567
 21
5.385
 31
0.0
1001
ACAD
1000
RTLwPs
1070
   158
  0
LINE
  5
556
100
AcDbEntity
  8
AREA1
 62
     0
100
AcDbLine
 10
1.24567
 20
-0.195
 30
0.0
 11
1.24567
 21
1.835
 31
0.0
1001
ACAD
1000
RTLwPs
1070
   158
  0
LINE
  5
557
100
AcDbEntity
  8
AREA1
 62
     0
100
AcDbLine
 10
1.24567
 20
5.275
 30
0.0
 11
1.24567
 21
3.245
 31
0.0
1001
ACAD
1000
RTLwPs
1070
   158
  0
SOLID
  5
558
100
AcDbEntity
  8
AREA1
 62
     0
100
AcDbTrace
 10
1.227337
 20
-0.195
 30
0.0
 11
1.264004
 21
-0.195
 31
0.0
 12
1.24567
 22
-0.305
 32
0.0
 13
1.24567
 23
-0.305
 33
0.0
  0
SOLID
  5
559
100
AcDbEntity
  8
AREA1
 62
     0
100
AcDbTrace
 10
1.227337
 20
5.275
 30
0.0
 11
1.264004
 21
5.275
 31
0.0
 12
1.24567
 22
5.385
 32
0.0
 13
1.24567
 23
5.385
 33
0.0
  0
MTEXT
  5
55A
100
AcDbEntity
  8
AREA1
 62
     0
100
AcDbMText
 10
1.24567
 20
2.54
 30
0.0
 40
0.11
 41
0.0
 71
     5
 72
     1
  1
\A1;5 11/16 [144.5]
 11
0.0
 21
1.0
 31
0.0
1001
ACAD
1000
MTEXTBEGIN
1070
    73
1070
     1
1070
    44
1040
1.0
1070
    74
1070
     0
1000
MTEXTEND
1000
MTEXTBEGIN
1070
    73
1070
     1
1070
    44
1040
1.0
1070
    74
1070
     0
1000
MTEXTEND
1000
MTEXTBEGIN
1070
    73
1070
     1
1070
    44
1040
1.0
1070
    74
1070
     0
1000
MTEXTEND
1000
MTEXTBEGIN
1070
    73
1070
     1
1070
    44
1040
1.0
1070
    74
1070
     0
1000
MTEXTEND
1000
MTEXTBEGIN
1070
    73
1070
     1
1070
    44
1040
1.0
1070
    74
1070
     0
1000
MTEXTEND
  0
POINT
  5
55B
100
AcDbEntity
  8
DEFPOINTS
 62
     0
100
AcDbPoint
 10
0.242
 20
-0.305
 30
3.668
  0
POINT
  5
55C
100
AcDbEntity
  8
DEFPOINTS
 62
     0
100
AcDbPoint
 10
0.242
 20
5.385
 30
3.668
  0
POINT
  5
55D
100
AcDbEntity
  8
DEFPOINTS
 62
     0
100
AcDbPoint
 10
1.24567
 20
5.385
 30
0.0
  0
ENDBLK
  5
55F
100
AcDbEntity
  8
0
100
AcDbBlockEnd
  0
BLOCK
  5
56B
100
AcDbEntity
  8
0
100
AcDbBlockBegin
  2
*D2
 70
     1
 10
0.0
 20
0.0
 30
0.0
  3
*D2
  1

  0
LINE
  5
561
100
AcDbEntity
  8
AREA1
 62
     0
100
AcDbLine
 10
-1.121
 20
5.4475
 30
0.0
 11
-1.121
 21
6.06646
 31
0.0
1001
ACAD
1000
RTLwPs
1070
   158
  0
LINE
  5
562
100
AcDbEntity
  8
AREA1
 62
     0
100
AcDbLine
 10
0.242
 20
5.4475
 30
0.0
 11
0.242
 21
6.06646
 31
0.0
1001
ACAD
1000
RTLwPs
1070
   158
  0
LINE
  5
563
100
AcDbEntity
  8
AREA1
 62
     0
100
AcDbLine
 10
-1.011
 20
5.95646
 30
0.0
 11
0.132
 21
5.95646
 31
0.0
1001
ACAD
1000
RTLwPs
1070
   158
  0
LINE
  5
564
100
AcDbEntity
  8
AREA1
 62
     0
100
AcDbLine
 10
0.242
 20
5.95646
 30
0.0
 11
0.352
 21
5.95646
 31
0.0
1001
ACAD
1000
RTLwPs
1070
   158
  0
SOLID
  5
565
100
AcDbEntity
  8
AREA1
 62
     0
100
AcDbTrace
 10
-1.011
 20
5.974794
 30
0.0
 11
-1.011
 21
5.938127
 31
0.0
 12
-1.121
 22
5.95646
 32
0.0
 13
-1.121
 23
5.95646
 33
0.0
  0
SOLID
  5
566
100
AcDbEntity
  8
AREA1
 62
     0
100
AcDbTrace
 10
0.132
 20
5.974794
 30
0.0
 11
0.132
 21
5.938127
 31
0.0
 12
0.242
 22
5.95646
 32
0.0
 13
0.242
 23
5.95646
 33
0.0
  0
MTEXT
  5
567
100
AcDbEntity
  8
AREA1
 62
     0
100
AcDbMText
 10
1.057
 20
5.95646
 30
0.0
 40
0.11
 41
0.0
 71
     5
 72
     1
  1
\A1;1 23/64 [34.6]
1001
ACAD
1000
MTEXTBEGIN
1070
    73
1070
     1
1070
    44
1040
1.0
1070
    74
1070
     0
1000
MTEXTEND
1000
MTEXTBEGIN
1070
    73
1070
     1
1070
    44
1040
1.0
1070
    74
1070
     0
1000
MTEXTEND
1000
MTEXTBEGIN
1070
    73
1070
     1
1070
    44
1040
1.0
1070
    74
1070
     0
1000
MTEXTEND
1000
MTEXTBEGIN
1070
    73
1070
     1
1070
    44
1040
1.0
1070
    74
1070
     0
1000
MTEXTEND
1000
MTEXTBEGIN
1070
    73
1070
     1
1070
    44
1040
1.0
1070
    74
1070
     0
1000
MTEXTEND
  0
POINT
  5
568
100
AcDbEntity
  8
DEFPOINTS
 62
     0
100
AcDbPoint
 10
-1.121
 20
5.385
 30
3.668
  0
POINT
  5
569
100
AcDbEntity
  8
DEFPOINTS
 62
     0
100
AcDbPoint
 10
0.242
 20
5.385
 30
3.668
  0
POINT
  5
56A
100
AcDbEntity
  8
DEFPOINTS
 62
     0
100
AcDbPoint
 10
0.242
 20
5.95646
 30
0.0
  0
ENDBLK
  5
56C
100
AcDbEntity
  8
0
100
AcDbBlockEnd
  0
BLOCK
  5
611
100
AcDbEntity
  8
0
100
AcDbBlockBegin
  2
ABIOM240
 70
     2
 10
0.0
 20
0.0
 30
0.0
  3
ABIOM240
  1

  0
ATTDEF
  5
570
100
AcDbEntity
  8
ATTRIBUTES
100
AcDbText
 10
-1.08359
 20
1.300781
 30
0.0
 40
0.09
  1
ALLEN-BRADLEY
100
AcDbAttributeDefinition
  3
MANUFACTURER NAME?
  2
AC_VND_LABEL
 70
     1
  0
ATTDEF
  5
571
100
AcDbEntity
  8
ATTRIBUTES
100
AcDbText
 10
-1.08359
 20
1.113281
 30
0.0
 40
0.09
  1
1756-IT6I
100
AcDbAttributeDefinition
  3
CATALOG NUMBER?
  2
AC_PART_NO
 70
     1
  0
ATTDEF
  5
572
100
AcDbEntity
  8
ATTRIBUTES
100
AcDbText
 10
-1.08359
 20
0.925781
 30
0.0
 40
0.09
  1
1756-IT6I CONTROLLOGIX ISOLATED THERMOCOUPLE/MV INPUT 6 PTS
100
AcDbAttributeDefinition
  3
PART DESCRIPTION?
  2
AC_DESCRIPTION
 70
     1
  0
ATTDEF
  5
573
100
AcDbEntity
  8
ATTRIBUTES
100
AcDbText
 10
-1.08359
 20
0.738281
 30
0.0
 40
0.09
  1

100
AcDbAttributeDefinition
  3
DEVICE ID?
  2
DEVICE_ID
 70
     1
  0
ATTDEF
  5
574
100
AcDbEntity
  8
ATTRIBUTES
100
AcDbText
 10
-1.08359
 20
0.550781
 30
0.0
 40
0.09
  1

100
AcDbAttributeDefinition
  3
CUSTOMER PART NUMBER?
  2
AC_CPART_NO
 70
     1
  0
ATTDEF
  5
575
100
AcDbEntity
  8
ATTRIBUTES
100
AcDbText
 10
-1.08359
 20
0.363281
 30
0.0
 40
0.09
  1

100
AcDbAttributeDefinition
  3
CUSTOMER NOTE?
  2
AC_NOTE
 70
     1
  0
ATTDEF
  5
576
100
AcDbEntity
  8
ATTRIBUTES
100
AcDbText
 10
-1.08359
 20
0.175781
 30
0.0
 40
0.09
  1

100
AcDbAttributeDefinition
  3
FASTENER DATA?
  2
FASTENER
 70
     1
  0
ATTDEF
  5
577
100
AcDbEntity
  8
ATTRIBUTES
100
AcDbText
 10
-1.08359
 20
-0.011719
 30
0.0
 40
0.09
  1
INCH
100
AcDbAttributeDefinition
  3
UNIT OF SCALE?
  2
AC_SCALE_UNIT
 70
     1
  0
ATTDEF
  5
578
100
AcDbEntity
  8
ATTRIBUTES
100
AcDbText
 10
-1.08359
 20
-0.199219
 30
0.0
 40
0.09
  1
0
100
AcDbAttributeDefinition
  3
VIEW CODE?
  2
AC_VIEW_CODE
 70
     1
  0
INSERT
  5
579
100
AcDbEntity
  8
SCALE
100
AcDbBlockReference
  2
SCALE
 10
-1.104649
 20
-0.551142
 30
0.0
  0
POLYLINE
  5
57A
100
AcDbEntity
  8
0
100
AcDbPolygonMesh
 66
     1
 10
0.0
 20
0.0
 30
0.0
 70
    16
 71
     6
 72
     3
  0
VERTEX
  5
57B
100
AcDbEntity
  8
0
100
AcDbVertex
100
AcDbPolygonMeshVertex
 10
0.034
 20
0.0
 30
3.668
 70
    64
  0
VERTEX
  5
57C
100
AcDbEntity
  8
0
100
AcDbVertex
100
AcDbPolygonMeshVertex
 10
0.034
 20
0.0
 30
0.0
 70
    64
  0
VERTEX
  5
57D
100
AcDbEntity
  8
0
100
AcDbVertex
100
AcDbPolygonMeshVertex
 10
0.034
 20
0.0
 30
0.0
 70
    64
  0
VERTEX
  5
57E
100
AcDbEntity
  8
0
100
AcDbVertex
100
AcDbPolygonMeshVertex
 10
-0.034
 20
0.0
 30
3.668
 70
    64
  0
VERTEX
  5
57F
100
AcDbEntity
  8
0
100
AcDbVertex
100
AcDbPolygonMeshVertex
 10
-0.034
 20
0.0
 30
0.0
 70
    64
  0
VERTEX
  5
580
100
AcDbEntity
  8
0
100
AcDbVertex
100
AcDbPolygonMeshVertex
 10
-0.034
 20
0.0
 30
0.0
 70
    64
  0
VERTEX
  5
581
100
AcDbEntity
  8
0
100
AcDbVertex
100
AcDbPolygonMeshVertex
 10
-0.034
 20
5.21595
 30
3.668
 70
    64
  0
VERTEX
  5
582
100
AcDbEntity
  8
0
100
AcDbVertex
100
AcDbPolygonMeshVertex
 10
-0.034
 20
5.21595
 30
0.0
 70
    64
  0
VERTEX
  5
583
100
AcDbEntity
  8
0
100
AcDbVertex
100
AcDbPolygonMeshVertex
 10
-0.034
 20
0.0
 30
0.0
 70
    64
  0
VERTEX
  5
584
100
AcDbEntity
  8
0
100
AcDbVertex
100
AcDbPolygonMeshVertex
 10
0.034
 20
5.21595
 30
3.668
 70
    64
  0
VERTEX
  5
585
100
AcDbEntity
  8
0
100
AcDbVertex
100
AcDbPolygonMeshVertex
 10
0.034
 20
5.21595
 30
0.0
 70
    64
  0
VERTEX
  5
586
100
AcDbEntity
  8
0
100
AcDbVertex
100
AcDbPolygonMeshVertex
 10
0.034
 20
0.0
 30
0.0
 70
    64
  0
VERTEX
  5
587
100
AcDbEntity
  8
0
100
AcDbVertex
100
AcDbPolygonMeshVertex
 10
0.034
 20
5.21595
 30
3.668
 70
    64
  0
VERTEX
  5
588
100
AcDbEntity
  8
0
100
AcDbVertex
100
AcDbPolygonMeshVertex
 10
0.034
 20
5.21595
 30
3.668
 70
    64
  0
VERTEX
  5
589
100
AcDbEntity
  8
0
100
AcDbVertex
100
AcDbPolygonMeshVertex
 10
0.034
 20
0.0
 30
3.668
 70
    64
  0
VERTEX
  5
58A
100
AcDbEntity
  8
0
100
AcDbVertex
100
AcDbPolygonMeshVertex
 10
-0.034
 20
5.21595
 30
3.668
 70
    64
  0
VERTEX
  5
58B
100
AcDbEntity
  8
0
100
AcDbVertex
100
AcDbPolygonMeshVertex
 10
-0.034
 20
5.21595
 30
3.668
 70
    64
  0
VERTEX
  5
58C
100
AcDbEntity
  8
0
100
AcDbVertex
100
AcDbPolygonMeshVertex
 10
-0.034
 20
0.0
 30
3.668
 70
    64
  0
SEQEND
  5
58D
100
AcDbEntity
  8
0
  0
LINE
  5
58E
100
AcDbEntity
  8
0
100
AcDbLine
 10
-1.121
 20
-0.214
 30
5.424972
 11
-1.121
 21
3.954
 31
5.424972
210
0.0
220
-1.0
230
0.0
  0
POLYLINE
  5
58F
100
AcDbEntity
  8
0
100
AcDbPolygonMesh
 66
     1
 10
0.0
 20
0.0
 30
0.0
 70
    16
 71
     6
 72
     3
  0
VERTEX
  5
590
100
AcDbEntity
  8
0
100
AcDbVertex
100
AcDbPolygonMeshVertex
 10
0.242
 20
-0.214
 30
5.66
 70
    64
  0
VERTEX
  5
591
100
AcDbEntity
  8
0
100
AcDbVertex
100
AcDbPolygonMeshVertex
 10
0.242
 20
-0.214
 30
3.668
 70
    64
  0
VERTEX
  5
592
100
AcDbEntity
  8
0
100
AcDbVertex
100
AcDbPolygonMeshVertex
 10
0.242
 20
-0.214
 30
3.668
 70
    64
  0
VERTEX
  5
593
100
AcDbEntity
  8
0
100
AcDbVertex
100
AcDbPolygonMeshVertex
 10
-1.121
 20
-0.214
 30
5.66
 70
    64
  0
VERTEX
  5
594
100
AcDbEntity
  8
0
100
AcDbVertex
100
AcDbPolygonMeshVertex
 10
-1.121
 20
-0.214
 30
3.668
 70
    64
  0
VERTEX
  5
595
100
AcDbEntity
  8
0
100
AcDbVertex
100
AcDbPolygonMeshVertex
 10
-1.121
 20
-0.214
 30
3.668
 70
    64
  0
VERTEX
  5
596
100
AcDbEntity
  8
0
100
AcDbVertex
100
AcDbPolygonMeshVertex
 10
-1.121
 20
5.385
 30
5.66
 70
    64
  0
VERTEX
  5
597
100
AcDbEntity
  8
0
100
AcDbVertex
100
AcDbPolygonMeshVertex
 10
-1.121
 20
5.385
 30
3.668
 70
    64
  0
VERTEX
  5
598
100
AcDbEntity
  8
0
100
AcDbVertex
100
AcDbPolygonMeshVertex
 10
-1.121
 20
-0.214
 30
3.668
 70
    64
  0
VERTEX
  5
599
100
AcDbEntity
  8
0
100
AcDbVertex
100
AcDbPolygonMeshVertex
 10
0.242
 20
5.385
 30
5.66
 70
    64
  0
VERTEX
  5
59A
100
AcDbEntity
  8
0
100
AcDbVertex
100
AcDbPolygonMeshVertex
 10
0.242
 20
5.385
 30
3.668
 70
    64
  0
VERTEX
  5
59B
100
AcDbEntity
  8
0
100
AcDbVertex
100
AcDbPolygonMeshVertex
 10
0.242
 20
-0.214
 30
3.668
 70
    64
  0
VERTEX
  5
59C
100
AcDbEntity
  8
0
100
AcDbVertex
100
AcDbPolygonMeshVertex
 10
0.242
 20
5.385
 30
5.66
 70
    64
  0
VERTEX
  5
59D
100
AcDbEntity
  8
0
100
AcDbVertex
100
AcDbPolygonMeshVertex
 10
0.242
 20
5.385
 30
5.66
 70
    64
  0
VERTEX
  5
59E
100
AcDbEntity
  8
0
100
AcDbVertex
100
AcDbPolygonMeshVertex
 10
0.242
 20
-0.214
 30
5.66
 70
    64
  0
VERTEX
  5
59F
100
AcDbEntity
  8
0
100
AcDbVertex
100
AcDbPolygonMeshVertex
 10
-1.121
 20
5.385
 30
5.66
 70
    64
  0
VERTEX
  5
5A0
100
AcDbEntity
  8
0
100
AcDbVertex
100
AcDbPolygonMeshVertex
 10
-1.121
 20
5.385
 30
5.66
 70
    64
  0
VERTEX
  5
5A1
100
AcDbEntity
  8
0
100
AcDbVertex
100
AcDbPolygonMeshVertex
 10
-1.121
 20
-0.214
 30
5.66
 70
    64
  0
SEQEND
  5
5A2
100
AcDbEntity
  8
0
  0
POINT
  5
5A3
100
AcDbEntity
  8
SNAP_POINTS
100
AcDbPoint
 10
0.0
 20
0.0
 30
0.0
  0
LINE
  5
5A4
100
AcDbEntity
  8
0
100
AcDbLine
 10
0.242
 20
0.134
 30
5.66
 11
-1.121
 21
0.134
 31
5.66
  0
LINE
  5
5A5
100
AcDbEntity
  8
0
100
AcDbLine
 10
0.242
 20
0.454
 30
5.66
 11
-1.121
 21
0.454
 31
5.66
  0
LINE
  5
5A6
100
AcDbEntity
  8
0
100
AcDbLine
 10
0.242
 20
0.774
 30
5.66
 11
-1.121
 21
0.774
 31
5.66
  0
LINE
  5
5A7
100
AcDbEntity
  8
0
100
AcDbLine
 10
0.242
 20
1.394
 30
5.66
 11
-1.121
 21
1.394
 31
5.66
  0
LINE
  5
5A8
100
AcDbEntity
  8
0
100
AcDbLine
 10
0.242
 20
1.714
 30
5.66
 11
-1.121
 21
1.714
 31
5.66
  0
LINE
  5
5A9
100
AcDbEntity
  8
0
100
AcDbLine
 10
0.242
 20
2.034
 30
5.66
 11
-1.121
 21
2.034
 31
5.66
  0
LINE
  5
5AA
100
AcDbEntity
  8
0
100
AcDbLine
 10
0.103792
 20
-0.214
 30
5.424972
 11
-1.121
 21
-0.214
 31
5.424972
210
0.0
220
-1.0
230
0.0
  0
LINE
  5
5AB
100
AcDbEntity
  8
0
100
AcDbLine
 10
0.242
 20
1.044
 30
5.66
 11
-1.121
 21
1.044
 31
5.66
  0
LINE
  5
5AC
100
AcDbEntity
  8
0
100
AcDbLine
 10
0.242
 20
1.124
 30
5.66
 11
-1.121
 21
1.124
 31
5.66
  0
LINE
  5
5AD
100
AcDbEntity
  8
0
100
AcDbLine
 10
-0.12
 20
-0.305
 30
3.718
 11
-0.759
 21
-0.305
 31
3.718
210
0.0
220
-1.0
230
0.0
  0
LINE
  5
5AE
100
AcDbEntity
  8
0
100
AcDbLine
 10
-0.12
 20
-0.305
 30
3.768
 11
-0.759
 21
-0.305
 31
3.768
210
0.0
220
-1.0
230
0.0
  0
LINE
  5
5AF
100
AcDbEntity
  8
0
100
AcDbLine
 10
-0.12
 20
-0.305
 30
3.818
 11
-0.759
 21
-0.305
 31
3.818
210
0.0
220
-1.0
230
0.0
  0
LINE
  5
5B0
100
AcDbEntity
  8
0
100
AcDbLine
 10
-0.12
 20
-0.305
 30
3.868
 11
-0.759
 21
-0.305
 31
3.868
210
0.0
220
-1.0
230
0.0
  0
LINE
  5
5B1
100
AcDbEntity
  8
0
100
AcDbLine
 10
-0.12
 20
-0.305
 30
3.918
 11
-0.759
 21
-0.305
 31
3.918
210
0.0
220
-1.0
230
0.0
  0
LINE
  5
5B2
100
AcDbEntity
  8
0
100
AcDbLine
 10
-0.12
 20
-0.305
 30
3.968
 11
-0.759
 21
-0.305
 31
3.968
210
0.0
220
-1.0
230
0.0
  0
LINE
  5
5B3
100
AcDbEntity
  8
0
100
AcDbLine
 10
-0.12
 20
-0.305
 30
4.018
 11
-0.759
 21
-0.305
 31
4.018
210
0.0
220
-1.0
230
0.0
  0
LINE
  5
5B4
100
AcDbEntity
  8
0
100
AcDbLine
 10
-0.12
 20
-0.305
 30
4.068
 11
-0.759
 21
-0.305
 31
4.068
210
0.0
220
-1.0
230
0.0
  0
LINE
  5
5B5
100
AcDbEntity
  8
0
100
AcDbLine
 10
-0.12
 20
-0.305
 30
4.168
 11
-0.759
 21
-0.305
 31
4.168
210
0.0
220
-1.0
230
0.0
  0
LINE
  5
5B6
100
AcDbEntity
  8
0
100
AcDbLine
 10
-0.12
 20
-0.305
 30
4.118
 11
-0.759
 21
-0.305
 31
4.118
210
0.0
220
-1.0
230
0.0
  0
LINE
  5
5B7
100
AcDbEntity
  8
0
100
AcDbLine
 10
-0.12
 20
-0.305
 30
4.168
 11
-0.759
 21
-0.305
 31
4.168
210
0.0
220
-1.0
230
0.0
  0
LINE
  5
5B8
100
AcDbEntity
  8
0
100
AcDbLine
 10
-0.133397
 20
-0.305
 30
4.218
 11
-0.745603
 21
-0.305
 31
4.218
210
0.0
220
-1.0
230
0.0
  0
LINE
  5
5B9
100
AcDbEntity
  8
0
100
AcDbLine
 10
-0.22
 20
-0.305
 30
4.268
 11
-0.659
 21
-0.305
 31
4.268
210
0.0
220
-1.0
230
0.0
  0
POLYLINE
  5
5BA
100
AcDbEntity
  8
0
100
AcDbPolygonMesh
 66
     1
 10
0.0
 20
0.0
 30
0.0
 70
    16
 71
     6
 72
     3
  0
VERTEX
  5
5BB
100
AcDbEntity
  8
0
100
AcDbVertex
100
AcDbPolygonMeshVertex
 10
0.242
 20
-0.305
 30
4.568
 70
    64
  0
VERTEX
  5
5BC
100
AcDbEntity
  8
0
100
AcDbVertex
100
AcDbPolygonMeshVertex
 10
0.242
 20
-0.305
 30
3.668
 70
    64
  0
VERTEX
  5
5BD
100
AcDbEntity
  8
0
100
AcDbVertex
100
AcDbPolygonMeshVertex
 10
0.242
 20
-0.305
 30
3.668
 70
    64
  0
VERTEX
  5
5BE
100
AcDbEntity
  8
0
100
AcDbVertex
100
AcDbPolygonMeshVertex
 10
-1.121
 20
-0.305
 30
4.568
 70
    64
  0
VERTEX
  5
5BF
100
AcDbEntity
  8
0
100
AcDbVertex
100
AcDbPolygonMeshVertex
 10
-1.121
 20
-0.305
 30
3.668
 70
    64
  0
VERTEX
  5
5C0
100
AcDbEntity
  8
0
100
AcDbVertex
100
AcDbPolygonMeshVertex
 10
-1.121
 20
-0.305
 30
3.668
 70
    64
  0
VERTEX
  5
5C1
100
AcDbEntity
  8
0
100
AcDbVertex
100
AcDbPolygonMeshVertex
 10
-1.121
 20
-0.214
 30
4.568
 70
    64
  0
VERTEX
  5
5C2
100
AcDbEntity
  8
0
100
AcDbVertex
100
AcDbPolygonMeshVertex
 10
-1.121
 20
-0.214
 30
3.668
 70
    64
  0
VERTEX
  5
5C3
100
AcDbEntity
  8
0
100
AcDbVertex
100
AcDbPolygonMeshVertex
 10
-1.121
 20
-0.305
 30
3.668
 70
    64
  0
VERTEX
  5
5C4
100
AcDbEntity
  8
0
100
AcDbVertex
100
AcDbPolygonMeshVertex
 10
0.242
 20
-0.214
 30
4.568
 70
    64
  0
VERTEX
  5
5C5
100
AcDbEntity
  8
0
100
AcDbVertex
100
AcDbPolygonMeshVertex
 10
0.242
 20
-0.214
 30
3.668
 70
    64
  0
VERTEX
  5
5C6
100
AcDbEntity
  8
0
100
AcDbVertex
100
AcDbPolygonMeshVertex
 10
0.242
 20
-0.305
 30
3.668
 70
    64
  0
VERTEX
  5
5C7
100
AcDbEntity
  8
0
100
AcDbVertex
100
AcDbPolygonMeshVertex
 10
0.242
 20
-0.214
 30
4.568
 70
    64
  0
VERTEX
  5
5C8
100
AcDbEntity
  8
0
100
AcDbVertex
100
AcDbPolygonMeshVertex
 10
0.242
 20
-0.214
 30
4.568
 70
    64
  0
VERTEX
  5
5C9
100
AcDbEntity
  8
0
100
AcDbVertex
100
AcDbPolygonMeshVertex
 10
0.242
 20
-0.305
 30
4.568
 70
    64
  0
VERTEX
  5
5CA
100
AcDbEntity
  8
0
100
AcDbVertex
100
AcDbPolygonMeshVertex
 10
-1.121
 20
-0.214
 30
4.568
 70
    64
  0
VERTEX
  5
5CB
100
AcDbEntity
  8
0
100
AcDbVertex
100
AcDbPolygonMeshVertex
 10
-1.121
 20
-0.214
 30
4.568
 70
    64
  0
VERTEX
  5
5CC
100
AcDbEntity
  8
0
100
AcDbVertex
100
AcDbPolygonMeshVertex
 10
-1.121
 20
-0.305
 30
4.568
 70
    64
  0
SEQEND
  5
5CD
100
AcDbEntity
  8
0
  0
LINE
  5
5CE
100
AcDbEntity
  8
0
100
AcDbLine
 10
-0.759
 20
-0.305
 30
4.168
 11
-0.759
 21
-0.305
 31
3.668
210
0.0
220
-1.0
230
0.0
  0
ARC
  5
5CF
100
AcDbEntity
  8
0
100
AcDbCircle
 10
-0.659
 20
4.168
 30
0.305
 40
0.1
210
0.0
220
-1.0
230
0.0
100
AcDbArc
 50
90.0
 51
180.0
  0
LINE
  5
5D0
100
AcDbEntity
  8
0
100
AcDbLine
 10
-0.12
 20
-0.305
 30
3.668
 11
-0.12
 21
-0.305
 31
4.168
210
0.0
220
-1.0
230
0.0
  0
ARC
  5
5D1
100
AcDbEntity
  8
0
100
AcDbCircle
 10
-0.22
 20
4.168
 30
0.305
 40
0.1
210
0.0
220
-1.0
230
0.0
100
AcDbArc
 50
0.0
 51
90.0
  0
CIRCLE
  5
5D2
100
AcDbEntity
  8
0
100
AcDbCircle
 10
0.172287
 20
5.56054
 30
0.214
 40
0.044406
210
0.0
220
-1.0
230
0.0
  0
LINE
  5
5D3
100
AcDbEntity
  8
0
100
AcDbLine
 10
0.103792
 20
-0.214
 30
5.66
 11
0.103792
 21
-0.214
 31
5.424972
210
0.0
220
-1.0
230
0.0
  0
LINE
  5
5D4
100
AcDbEntity
  8
0
100
AcDbLine
 10
0.103792
 20
-0.123
 30
5.66
 11
0.103792
 21
-0.214
 31
5.66
  0
LINE
  5
5D5
100
AcDbEntity
  8
0
100
AcDbLine
 10
0.103792
 20
-0.123
 30
5.66
 11
0.242
 21
-0.123
 31
5.66
  0
TEXT
  5
5D6
100
AcDbEntity
  8
0
  6
CONTINUOUS
 62
     9
100
AcDbText
 10
-0.9815
 20
5.2135
 30
5.66
 40
0.093
  1
Analog Tcm V
100
AcDbText
  0
LINE
  5
5D7
100
AcDbEntity
  8
0
100
AcDbLine
 10
0.242
 20
2.354
 30
5.66
 11
-1.121
 21
2.354
 31
5.66
  0
LINE
  5
5D8
100
AcDbEntity
  8
0
100
AcDbLine
 10
0.242
 20
2.674
 30
5.66
 11
-1.121
 21
2.674
 31
5.66
  0
LINE
  5
5D9
100
AcDbEntity
  8
0
100
AcDbLine
 10
0.242
 20
2.994
 30
5.66
 11
-1.121
 21
2.994
 31
5.66
  0
LINE
  5
5DA
100
AcDbEntity
  8
0
100
AcDbLine
 10
0.242
 20
3.314
 30
5.66
 11
-1.121
 21
3.314
 31
5.66
  0
LINE
  5
5DB
100
AcDbEntity
  8
0
100
AcDbLine
 10
0.242
 20
3.634
 30
5.66
 11
-1.121
 21
3.634
 31
5.66
  0
LINE
  5
5DC
100
AcDbEntity
  8
0
100
AcDbLine
 10
0.242
 20
5.108199
 30
5.66
 11
-1.121
 21
5.108199
 31
5.66
  0
LINE
  5
5DD
100
AcDbEntity
  8
0
100
AcDbLine
 10
0.242
 20
3.954
 30
5.66
 11
-1.121
 21
3.954
 31
5.66
  0
LINE
  5
5DE
100
AcDbEntity
  8
0
100
AcDbLine
 10
0.242
 20
4.034
 30
5.66
 11
-1.121
 21
4.034
 31
5.66
  0
LINE
  5
5DF
100
AcDbEntity
  8
0
100
AcDbLine
 10
-0.22
 20
5.385
 30
4.268
 11
-0.659
 21
5.385
 31
4.268
210
0.0
220
1.0
230
0.0
  0
LINE
  5
5E0
100
AcDbEntity
  8
0
100
AcDbLine
 10
-0.133397
 20
5.385
 30
4.218
 11
-0.745603
 21
5.385
 31
4.218
210
0.0
220
1.0
230
0.0
  0
LINE
  5
5E1
100
AcDbEntity
  8
0
100
AcDbLine
 10
-0.12
 20
5.385
 30
4.168
 11
-0.759
 21
5.385
 31
4.168
210
0.0
220
1.0
230
0.0
  0
LINE
  5
5E2
100
AcDbEntity
  8
0
100
AcDbLine
 10
-0.12
 20
5.385
 30
4.118
 11
-0.759
 21
5.385
 31
4.118
210
0.0
220
1.0
230
0.0
  0
LINE
  5
5E3
100
AcDbEntity
  8
0
100
AcDbLine
 10
-0.12
 20
5.385
 30
4.168
 11
-0.759
 21
5.385
 31
4.168
210
0.0
220
1.0
230
0.0
  0
LINE
  5
5E4
100
AcDbEntity
  8
0
100
AcDbLine
 10
-0.12
 20
5.385
 30
4.068
 11
-0.759
 21
5.385
 31
4.068
210
0.0
220
1.0
230
0.0
  0
LINE
  5
5E5
100
AcDbEntity
  8
0
100
AcDbLine
 10
-0.12
 20
5.385
 30
4.018
 11
-0.759
 21
5.385
 31
4.018
210
0.0
220
1.0
230
0.0
  0
LINE
  5
5E6
100
AcDbEntity
  8
0
100
AcDbLine
 10
-0.12
 20
5.385
 30
3.968
 11
-0.759
 21
5.385
 31
3.968
210
0.0
220
1.0
230
0.0
  0
LINE
  5
5E7
100
AcDbEntity
  8
0
100
AcDbLine
 10
-0.12
 20
5.385
 30
3.918
 11
-0.759
 21
5.385
 31
3.918
210
0.0
220
1.0
230
0.0
  0
LINE
  5
5E8
100
AcDbEntity
  8
0
100
AcDbLine
 10
-0.12
 20
5.385
 30
3.868
 11
-0.759
 21
5.385
 31
3.868
210
0.0
220
1.0
230
0.0
  0
LINE
  5
5E9
100
AcDbEntity
  8
0
100
AcDbLine
 10
-0.12
 20
5.385
 30
3.818
 11
-0.759
 21
5.385
 31
3.818
210
0.0
220
1.0
230
0.0
  0
LINE
  5
5EA
100
AcDbEntity
  8
0
100
AcDbLine
 10
-0.12
 20
5.385
 30
3.768
 11
-0.759
 21
5.385
 31
3.768
210
0.0
220
1.0
230
0.0
  0
LINE
  5
5EB
100
AcDbEntity
  8
0
100
AcDbLine
 10
-0.12
 20
5.385
 30
3.718
 11
-0.759
 21
5.385
 31
3.718
210
0.0
220
1.0
230
0.0
  0
POLYLINE
  5
5EC
100
AcDbEntity
  8
0
100
AcDbPolygonMesh
 66
     1
 10
0.0
 20
0.0
 30
0.0
 70
    16
 71
     6
 72
     3
  0
VERTEX
  5
5ED
100
AcDbEntity
  8
0
100
AcDbVertex
100
AcDbPolygonMeshVertex
 10
0.242
 20
5.385
 30
4.568
 70
    64
  0
VERTEX
  5
5EE
100
AcDbEntity
  8
0
100
AcDbVertex
100
AcDbPolygonMeshVertex
 10
0.242
 20
5.385
 30
3.668
 70
    64
  0
VERTEX
  5
5EF
100
AcDbEntity
  8
0
100
AcDbVertex
100
AcDbPolygonMeshVertex
 10
0.242
 20
5.385
 30
3.668
 70
    64
  0
VERTEX
  5
5F0
100
AcDbEntity
  8
0
100
AcDbVertex
100
AcDbPolygonMeshVertex
 10
-1.121
 20
5.385
 30
4.568
 70
    64
  0
VERTEX
  5
5F1
100
AcDbEntity
  8
0
100
AcDbVertex
100
AcDbPolygonMeshVertex
 10
-1.121
 20
5.385
 30
3.668
 70
    64
  0
VERTEX
  5
5F2
100
AcDbEntity
  8
0
100
AcDbVertex
100
AcDbPolygonMeshVertex
 10
-1.121
 20
5.385
 30
3.668
 70
    64
  0
VERTEX
  5
5F3
100
AcDbEntity
  8
0
100
AcDbVertex
100
AcDbPolygonMeshVertex
 10
-1.121
 20
5.294
 30
4.568
 70
    64
  0
VERTEX
  5
5F4
100
AcDbEntity
  8
0
100
AcDbVertex
100
AcDbPolygonMeshVertex
 10
-1.121
 20
5.294
 30
3.668
 70
    64
  0
VERTEX
  5
5F5
100
AcDbEntity
  8
0
100
AcDbVertex
100
AcDbPolygonMeshVertex
 10
-1.121
 20
5.385
 30
3.668
 70
    64
  0
VERTEX
  5
5F6
100
AcDbEntity
  8
0
100
AcDbVertex
100
AcDbPolygonMeshVertex
 10
0.242
 20
5.294
 30
4.568
 70
    64
  0
VERTEX
  5
5F7
100
AcDbEntity
  8
0
100
AcDbVertex
100
AcDbPolygonMeshVertex
 10
0.242
 20
5.294
 30
3.668
 70
    64
  0
VERTEX
  5
5F8
100
AcDbEntity
  8
0
100
AcDbVertex
100
AcDbPolygonMeshVertex
 10
0.242
 20
5.385
 30
3.668
 70
    64
  0
VERTEX
  5
5F9
100
AcDbEntity
  8
0
100
AcDbVertex
100
AcDbPolygonMeshVertex
 10
0.242
 20
5.294
 30
4.568
 70
    64
  0
VERTEX
  5
5FA
100
AcDbEntity
  8
0
100
AcDbVertex
100
AcDbPolygonMeshVertex
 10
0.242
 20
5.294
 30
4.568
 70
    64
  0
VERTEX
  5
5FB
100
AcDbEntity
  8
0
100
AcDbVertex
100
AcDbPolygonMeshVertex
 10
0.242
 20
5.385
 30
4.568
 70
    64
  0
VERTEX
  5
5FC
100
AcDbEntity
  8
0
100
AcDbVertex
100
AcDbPolygonMeshVertex
 10
-1.121
 20
5.294
 30
4.568
 70
    64
  0
VERTEX
  5
5FD
100
AcDbEntity
  8
0
100
AcDbVertex
100
AcDbPolygonMeshVertex
 10
-1.121
 20
5.294
 30
4.568
 70
    64
  0
VERTEX
  5
5FE
100
AcDbEntity
  8
0
100
AcDbVertex
100
AcDbPolygonMeshVertex
 10
-1.121
 20
5.385
 30
4.568
 70
    64
  0
SEQEND
  5
5FF
100
AcDbEntity
  8
0
  0
LINE
  5
600
100
AcDbEntity
  8
0
100
AcDbLine
 10
-1.121
 20
3.954
 30
5.66
 11
-1.121
 21
3.954
 31
5.424972
210
0.0
220
-1.0
230
0.0
  0
LINE
  5
601
100
AcDbEntity
  8
0
100
AcDbLine
 10
-0.759
 20
5.385
 30
4.168
 11
-0.759
 21
5.385
 31
3.668
210
0.0
220
1.0
230
0.0
  0
ARC
  5
602
100
AcDbEntity
  8
0
100
AcDbCircle
 10
0.659
 20
4.168
 30
5.385
 40
0.1
210
0.0
220
1.0
230
0.0
100
AcDbArc
 50
0.0
 51
90.0
  0
LINE
  5
603
100
AcDbEntity
  8
0
100
AcDbLine
 10
0.103792
 20
4.034
 30
5.66
 11
0.103792
 21
3.954
 31
5.66
  0
LINE
  5
604
100
AcDbEntity
  8
0
100
AcDbLine
 10
0.0545
 20
4.948
 30
5.66
 11
0.0545
 21
4.698
 31
5.66
  0
LINE
  5
605
100
AcDbEntity
  8
0
100
AcDbLine
 10
0.1795
 20
4.948
 30
5.66
 11
0.1795
 21
4.698
 31
5.66
  0
3DFACE
  5
606
100
AcDbEntity
  8
0
100
AcDbFace
 10
0.18
 20
4.698
 30
5.785
 11
0.055
 21
4.698
 31
5.785
 12
0.055
 22
4.823
 32
5.785
 13
0.18
 23
4.823
 33
5.785
  0
LINE
  5
607
100
AcDbEntity
  8
0
100
AcDbLine
 10
0.1795
 20
4.698
 30
5.66
 11
0.0545
 21
4.698
 31
5.66
  0
LINE
  5
608
100
AcDbEntity
  8
0
100
AcDbLine
 39
0.125
 10
0.055
 20
4.698
 30
5.66
 11
0.18
 21
4.698
 31
5.66
  0
LINE
  5
609
100
AcDbEntity
  8
0
100
AcDbLine
 39
0.125
 10
0.055
 20
4.823
 30
5.66
 11
0.18
 21
4.823
 31
5.66
  0
LINE
  5
60A
100
AcDbEntity
  8
0
100
AcDbLine
 39
0.125
 10
0.055
 20
4.823
 30
5.66
 11
0.055
 21
4.698
 31
5.66
  0
LINE
  5
60B
100
AcDbEntity
  8
0
100
AcDbLine
 39
0.125
 10
0.18
 20
4.698
 30
5.66
 11
0.18
 21
4.823
 31
5.66
  0
LINE
  5
60C
100
AcDbEntity
  8
0
100
AcDbLine
 10
0.0545
 20
4.948
 30
5.66
 11
0.1795
 21
4.948
 31
5.66
  0
LINE
  5
60D
100
AcDbEntity
  8
0
100
AcDbLine
 10
-0.12
 20
5.385
 30
3.668
 11
-0.12
 21
5.385
 31
4.168
210
0.0
220
1.0
230
0.0
  0
ARC
  5
60E
100
AcDbEntity
  8
0
100
AcDbCircle
 10
0.22
 20
4.168
 30
5.385
 40
0.1
210
0.0
220
1.0
230
0.0
100
AcDbArc
 50
90.0
 51
180.0
  0
DIMENSION
  5
60F
100
AcDbEntity
  8
AREA1
100
AcDbDimension
  2
*D1
 10
1.24567
 20
5.385
 30
0.0
 11
1.24567
 21
2.54
 31
0.0
 70
    32
  3
ABECAD_3D
100
AcDbAlignedDimension
 13
0.242
 23
-0.305
 33
3.668
 14
0.242
 24
5.385
 34
3.668
 50
90.0
100
AcDbRotatedDimension
  0
DIMENSION
  5
610
100
AcDbEntity
  8
AREA1
100
AcDbDimension
  2
*D2
 10
0.242
 20
5.95646
 30
0.0
 11
1.057
 21
5.95646
 31
0.0
 70
    32
  3
ABECAD_3D
100
AcDbAlignedDimension
 13
-1.121
 23
5.385
 33
3.668
 14
0.242
 24
5.385
 34
3.668
100
AcDbRotatedDimension
  0
ENDBLK
  5
612
100
AcDbEntity
  8
0
100
AcDbBlockEnd
  0
BLOCK
  5
62A
100
AcDbEntity
  8
0
100
AcDbBlockBegin
  2
*D4
 70
     1
 10
0.0
 20
0.0
 30
0.0
  3
*D4
  1

  0
LINE
  5
620
100
AcDbEntity
  8
AREA2
 62
     0
100
AcDbLine
 10
-0.0075
 20
5.785
 30
0.0
 11
-2.085762
 21
5.785
 31
0.0
1001
ACAD
1000
RTLwPs
1070
   158
  0
LINE
  5
621
100
AcDbEntity
  8
AREA2
 62
     0
100
AcDbLine
 10
-0.0965
 20
0.0
 30
0.0
 11
-2.085762
 21
0.0
 31
0.0
1001
ACAD
1000
RTLwPs
1070
   158
  0
LINE
  5
622
100
AcDbEntity
  8
AREA2
 62
     0
100
AcDbLine
 10
-1.906075
 20
5.605313
 30
0.0
 11
-1.906075
 21
3.79875
 31
0.0
1001
ACAD
1000
RTLwPs
1070
   158
  0
LINE
  5
623
100
AcDbEntity
  8
AREA2
 62
     0
100
AcDbLine
 10
-1.906075
 20
0.179688
 30
0.0
 11
-1.906075
 21
1.98625
 31
0.0
1001
ACAD
1000
RTLwPs
1070
   158
  0
SOLID
  5
624
100
AcDbEntity
  8
AREA2
 62
     0
100
AcDbTrace
 10
-1.936023
 20
5.605313
 30
0.0
 11
-1.876127
 21
5.605313
 31
0.0
 12
-1.906075
 22
5.785
 32
0.0
 13
-1.906075
 23
5.785
 33
0.0
  0
SOLID
  5
625
100
AcDbEntity
  8
AREA2
 62
     0
100
AcDbTrace
 10
-1.936023
 20
0.179688
 30
0.0
 11
-1.876127
 21
0.179688
 31
0.0
 12
-1.906075
 22
0.0
 32
0.0
 13
-1.906075
 23
0.0
 33
0.0
  0
MTEXT
  5
626
100
AcDbEntity
  8
AREA2
 62
     0
100
AcDbMText
 10
-1.906075
 20
2.8925
 30
0.0
 40
0.125
 41
0.0
 71
     5
 72
     1
  1
\A1;5 25/32 [146.9]
 11
0.0
 21
1.0
 31
0.0
1001
ACAD
1000
MTEXTBEGIN
1070
    73
1070
     1
1070
    44
1040
1.0
1070
    74
1070
     0
1000
MTEXTEND
1000
MTEXTBEGIN
1070
    73
1070
     1
1070
    44
1040
1.0
1070
    74
1070
     0
1000
MTEXTEND
1000
MTEXTBEGIN
1070
    73
1070
     1
1070
    44
1040
1.0
1070
    74
1070
     0
1000
MTEXTEND
1000
MTEXTBEGIN
1070
    73
1070
     1
1070
    44
1040
1.0
1070
    74
1070
     0
1000
MTEXTEND
  0
POINT
  5
627
100
AcDbEntity
  8
DEFPOINTS
 62
     0
100
AcDbPoint
 10
0.055
 20
5.785
 30
-4.698
  0
POINT
  5
628
100
AcDbEntity
  8
DEFPOINTS
 62
     0
100
AcDbPoint
 10
-0.034
 20
0.0
 30
0.0
  0
POINT
  5
629
100
AcDbEntity
  8
DEFPOINTS
 62
     0
100
AcDbPoint
 10
-1.906075
 20
0.0
 30
0.0
  0
ENDBLK
  5
62B
100
AcDbEntity
  8
0
100
AcDbBlockEnd
  0
ENDSEC
  0
SECTION
  2
ENTITIES
  0
INSERT
  5
613
100
AcDbEntity
  8
0
100
AcDbBlockReference
 66
     1
  2
ABIOM240
 10
0.0
 20
0.0
 30
0.0
  0
ATTRIB
  5
614
100
AcDbEntity
  8
ATTRIBUTES
100
AcDbText
 10
-1.08359
 20
1.300781
 30
0.0
 40
0.09
  1
ALLEN-BRADLEY
100
AcDbAttribute
  2
AC_VND_LABEL
 70
     1
  0
ATTRIB
  5
615
100
AcDbEntity
  8
ATTRIBUTES
100
AcDbText
 10
-1.08359
 20
1.113281
 30
0.0
 40
0.09
  1
1756-IT6I
100
AcDbAttribute
  2
AC_PART_NO
 70
     1
  0
ATTRIB
  5
616
100
AcDbEntity
  8
ATTRIBUTES
100
AcDbText
 10
-1.08359
 20
0.925781
 30
0.0
 40
0.09
  1
1756-IT6I CONTROLLOGIX ISOLATED THERMOCOUPLE/MV INPUT 6 PTS
100
AcDbAttribute
  2
AC_DESCRIPTION
 70
     1
  0
ATTRIB
  5
617
100
AcDbEntity
  8
ATTRIBUTES
100
AcDbText
 10
-1.08359
 20
0.738281
 30
0.0
 40
0.09
  1

100
AcDbAttribute
  2
DEVICE_ID
 70
     1
  0
ATTRIB
  5
618
100
AcDbEntity
  8
ATTRIBUTES
100
AcDbText
 10
-1.08359
 20
0.550781
 30
0.0
 40
0.09
  1

100
AcDbAttribute
  2
AC_CPART_NO
 70
     1
  0
ATTRIB
  5
619
100
AcDbEntity
  8
ATTRIBUTES
100
AcDbText
 10
-1.08359
 20
0.363281
 30
0.0
 40
0.09
  1

100
AcDbAttribute
  2
AC_NOTE
 70
     1
  0
ATTRIB
  5
61A
100
AcDbEntity
  8
ATTRIBUTES
100
AcDbText
 10
-1.08359
 20
0.175781
 30
0.0
 40
0.09
  1

100
AcDbAttribute
  2
FASTENER
 70
     1
  0
ATTRIB
  5
61B
100
AcDbEntity
  8
ATTRIBUTES
100
AcDbText
 10
-1.08359
 20
-0.011719
 30
0.0
 40
0.09
  1
INCH
100
AcDbAttribute
  2
AC_SCALE_UNIT
 70
     1
  0
ATTRIB
  5
61C
100
AcDbEntity
  8
ATTRIBUTES
100
AcDbText
 10
-1.08359
 20
-0.199219
 30
0.0
 40
0.09
  1
0
100
AcDbAttribute
  2
AC_VIEW_CODE
 70
     1
  0
SEQEND
  5
61D
100
AcDbEntity
  8
0
  0
DIMENSION
  5
61E
100
AcDbEntity
  8
AREA2
100
AcDbDimension
  2
*D4
 10
-1.906075
 20
0.0
 30
0.0
 11
-1.906075
 21
2.8925
 31
0.0
 70
    32
210
0.0
220
-1.0
230
0.0
  3
ABECAD_3V
100
AcDbAlignedDimension
 13
0.055
 23
4.698
 33
5.785
 14
-0.034
 24
0.0
 34
0.0
 50
90.0
100
AcDbRotatedDimension
1001
ACAD
1000
DSTYLE
1002
{
1070
    40
1040
1.0
1002
}
  0
VIEWPORT
  5
2C
102
{ACAD_XDICTIONARY
360
70E
102
}
100
AcDbEntity
 67
     1
  8
0
100
AcDbViewport
 10
4.999849
 20
3.750155
 30
0.0
 40
13.643068
 41
7.591459
 68
     1
 69
     1
1001
ACAD
1000
MVIEW
1002
{
1070
    16
1010
0.0
1020
0.0
1030
0.0
1010
0.0
1020
0.0
1030
1.0
1040
0.0
1040
7.591459
1040
4.999849
1040
3.750155
1040
50.0
1040
0.0
1040
0.0
1070
     0
1070
   100
1070
     1
1070
     1
1070
     0
1070
     0
1070
     0
1070
     0
1040
0.0
1040
0.0
1040
0.0
1040
1.0
1040
1.0
1040
0.0
1040
0.0
1070
     0
1002
{
1002
}
1002
}
  0
VIEWPORT
  5
2D
102
{ACAD_XDICTIONARY
360
710
102
}
100
AcDbEntity
 67
     1
  8
0
100
AcDbViewport
 10
2.5
 20
5.625
 30
0.0
 40
5.0
 41
3.75
 68
     4
 69
     2
1001
ACAD
1000
MVIEW
1002
{
1070
    16
1010
0.0
1020
0.0
1030
0.0
1010
0.0
1020
0.0
1030
1.0
1040
0.0
1040
7.798267
1040
-0.184381
1040
2.336854
1040
50.0
1040
0.0
1040
0.0
1070
     0
1070
   100
1070
     1
1070
     0
1070
     0
1070
     0
1070
     0
1070
     0
1040
0.0
1040
0.0
1040
0.0
1040
1.0
1040
1.0
1040
0.0
1040
0.0
1070
     0
1002
{
1003
AREA2
1002
}
1002
}
  0
VIEWPORT
  5
2E
102
{ACAD_XDICTIONARY
360
712
102
}
100
AcDbEntity
 67
     1
  8
0
100
AcDbViewport
 10
2.5
 20
1.875
 30
0.0
 40
5.0
 41
3.75
 68
     3
 69
     3
1001
ACAD
1000
MVIEW
1002
{
1070
    16
1010
0.0
1020
0.0
1030
0.0
1010
0.0
1020
-1.0
1030
0.0
1040
0.0
1040
7.407327
1040
-0.184381
1040
2.8925
1040
50.0
1040
0.0
1040
0.0
1070
     0
1070
   100
1070
     1
1070
     0
1070
     0
1070
     0
1070
     0
1070
     0
1040
0.0
1040
0.0
1040
0.0
1040
1.0
1040
1.0
1040
0.0
1040
0.0
1070
     0
1002
{
1003
AREA1
1002
}
1002
}
  0
VIEWPORT
  5
2F
102
{ACAD_XDICTIONARY
360
714
102
}
100
AcDbEntity
 67
     1
  8
0
100
AcDbViewport
 10
7.5
 20
3.75
 30
0.0
 40
5.0
 41
7.5
 68
     2
 69
     4
1001
ACAD
1000
MVIEW
1002
{
1070
    16
1010
0.0
1020
0.0
1030
0.0
1010
-1.0
1020
-1.0
1030
1.0
1040
0.0
1040
10.607376
1040
-1.859254
1040
4.918545
1040
50.0
1040
0.0
1040
0.0
1070
     0
1070
   100
1070
     1
1070
     0
1070
     0
1070
     0
1070
     0
1070
     0
1040
0.0
1040
0.0
1040
0.0
1040
1.0
1040
1.0
1040
0.0
1040
0.0
1070
     0
1002
{
1003
AREA1
1003
AREA2
1002
}
1002
}
  0
TEXT
  5
42D
100
AcDbEntity
 67
     1
  8
0
100
AcDbText
 10
5.253785
 20
7.092701
 30
0.0
 40
0.2
  1
1756-IT6I
100
AcDbText
  0
TEXT
  5
431
100
AcDbEntity
 67
     1
  8
0
100
AcDbText
 10
5.253785
 20
6.759368
 30
0.0
 40
0.2
  1
1756-IT6I CONTROLLOGIX
100
AcDbText
1001
ACAD
1000
R13OBJECT
1002
{
1005
42D
1002
}
  0
TEXT
  5
52E
100
AcDbEntity
 67
     1
  8
0
100
AcDbText
 10
5.240015
 20
6.436423
 30
0.0
 40
0.2
  1
ISOLATED THERMOCOUPLE/
100
AcDbText
  0
TEXT
  5
52F
100
AcDbEntity
 67
     1
  8
0
100
AcDbText
 10
5.240015
 20
6.10309
 30
0.0
 40
0.2
  1
MV INPUT 6 PTS
100
AcDbText
  0
TEXT
  5
530
100
AcDbEntity
 67
     1
  8
0
100
AcDbText
 10
5.240015
 20
5.769757
 30
0.0
 40
0.2
  1

100
AcDbText
  0
ENDSEC
  0
SECTION
  2
OBJECTS
  0
DICTIONARY
  5
46D
100
AcDbDictionary
  3
ACAD_GROUP
350
46E
  3
ACAD_LAYOUT
350
49E
  3
ACAD_MLINESTYLE
350
47B
  3
ACAD_PLOTSETTINGS
350
49F
  3
ACAD_PLOTSTYLENAME
350
49C
  3
ACDBHEADERROUNDTRIPXREC
350
6ED
  3
ACDBVARIABLEDICTIONARY
350
48D
  0
DICTIONARY
  5
6EB
100
AcDbDictionary
280
     1
  3
ACAD_XREC_ROUNDTRIP
360
6EC
  0
DICTIONARY
  5
718
100
AcDbDictionary
280
     1
  3
ACAD_XREC_ROUNDTRIP
360
719
  0
DICTIONARY
  5
71A
100
AcDbDictionary
280
     1
  3
ACAD_XREC_ROUNDTRIP
360
71B
  0
DICTIONARY
  5
71C
100
AcDbDictionary
280
     1
  3
ACAD_XREC_ROUNDTRIP
360
71D
  0
DICTIONARY
  5
720
100
AcDbDictionary
280
     1
  3
ACAD_XREC_ROUNDTRIP
360
721
  0
DICTIONARY
  5
4D2
100
AcDbDictionary
280
     1
  3
ACAD_LAYOUTSELFREF
360
717
  0
DICTIONARY
  5
4D0
100
AcDbDictionary
280
     1
  3
ACAD_LAYOUTSELFREF
360
716
  0
DICTIONARY
  5
6E7
100
AcDbDictionary
280
     1
  3
ACAD_XREC_ROUNDTRIP
360
6E8
  0
DICTIONARY
  5
6E9
100
AcDbDictionary
280
     1
  3
ACAD_XREC_ROUNDTRIP
360
6EA
  0
DICTIONARY
  5
70E
100
AcDbDictionary
280
     1
  3
ACAD_XREC_ROUNDTRIP
360
70F
  0
DICTIONARY
  5
710
100
AcDbDictionary
280
     1
  3
ACAD_XREC_ROUNDTRIP
360
711
  0
DICTIONARY
  5
712
100
AcDbDictionary
280
     1
  3
ACAD_XREC_ROUNDTRIP
360
713
  0
DICTIONARY
  5
714
100
AcDbDictionary
280
     1
  3
ACAD_XREC_ROUNDTRIP
360
715
  0
DICTIONARY
  5
46E
102
{ACAD_REACTORS
330
46D
102
}
100
AcDbDictionary
  0
DICTIONARY
  5
49E
102
{ACAD_XDICTIONARY
360
71E
102
}
102
{ACAD_REACTORS
330
46D
102
}
100
AcDbDictionary
  3
LAYOUT1
350
4A1
  3
MODEL
350
4A0
  0
DICTIONARY
  5
47B
102
{ACAD_REACTORS
330
46D
102
}
100
AcDbDictionary
  3
STANDARD
350
47C
  0
DICTIONARY
  5
49F
102
{ACAD_REACTORS
330
46D
102
}
100
AcDbDictionary
  0
ACAD_PROXY_OBJECT
  5
49C
102
{ACAD_REACTORS
330
46D
102
}
100
AcDbProxyObject
 90
      499
 91
      501
 93
       86
310
405010041939BDC9B585B0
350
49D
340
49D
 94
        0
  0
DICTIONARY
  5
6ED
102
{ACAD_REACTORS
330
46D
102
}
100
AcDbDictionary
  3
CEPSNTYPE
350
6F7
  3
DIMSTYLEDATA
350
6FB
  3
FINGERPRINTGUID
350
6F8
  3
HYPERLINKBASE
350
6F0
  3
INSUNITS
350
6F6
  3
LAYOUTDICT
350
6F2
  3
LWETCUNION
350
6F5
  3
PLOTSETDICT
350
6F3
  3
PLOTSTYLNAMDICT
350
6F4
  3
PSVPSCALE
350
6FA
  3
PUCSBASE
350
6FE
  3
PUCSORGBACK
350
704
  3
PUCSORGBOTTOM
350
700
  3
PUCSORGFRONT
350
703
  3
PUCSORGLEFT
350
701
  3
PUCSORGRIGHT
350
702
  3
PUCSORGTOP
350
6FF
  3
PUCSORTHOREF
350
6FC
  3
PUCSORTHOVIEW
350
6FD
  3
STYLESHEET
350
6F1
  3
TSTACKALIGN
350
6EE
  3
TSTACKSIZE
350
6EF
  3
UCSBASE
350
707
  3
UCSORGBACK
350
70D
  3
UCSORGBOTTOM
350
709
  3
UCSORGFRONT
350
70C
  3
UCSORGLEFT
350
70A
  3
UCSORGRIGHT
350
70B
  3
UCSORGTOP
350
708
  3
UCSORTHOREF
350
705
  3
UCSORTHOVIEW
350
706
  3
VERSIONGUID
350
6F9
  0
DICTIONARY
  5
48D
102
{ACAD_REACTORS
330
46D
102
}
100
AcDbDictionary
  3
DIMADEC
350
48E
  0
XRECORD
  5
6EC
102
{ACAD_REACTORS
330
6EB
102
}
100
AcDbXrecord
102
EXTNAMES
  1
*ACTIVE
  2
*Active
102
UCS
 74
     0
 71
     1
 10
0.0
 20
0.0
 30
0.0
 10
1.0
 20
0.0
 30
0.0
 10
0.0
 20
1.0
 30
0.0
146
0.0
 79
     1
102
VIEW
281
     0
  0
XRECORD
  5
719
102
{ACAD_REACTORS
330
718
102
}
100
AcDbXrecord
102
PLOTBIT
280
     0
  0
XRECORD
  5
71B
102
{ACAD_REACTORS
330
71A
102
}
100
AcDbXrecord
102
ACADR14ROUNDTRIP
1000
DSTYLE
1002
{
1070
   276
 70
     2
1070
   277
 70
     5
1070
   279
 70
     2
1002
}
  0
XRECORD
  5
71D
102
{ACAD_REACTORS
330
71C
102
}
100
AcDbXrecord
102
ACADR14ROUNDTRIP
1000
DSTYLE
1002
{
1070
   276
 70
     2
1070
   277
 70
     5
1070
   279
 70
     2
1002
}
  0
XRECORD
  5
721
102
{ACAD_REACTORS
330
720
102
}
100
AcDbXrecord
102
ACADR14ROUNDTRIP
1000
DSTYLE
1002
{
1070
   276
 70
     2
1070
   277
 70
     5
1002
}
  0
XRECORD
  5
717
102
{ACAD_REACTORS
330
4D2
102
}
100
AcDbXrecord
340
478
  0
XRECORD
  5
716
102
{ACAD_REACTORS
330
4D0
102
}
100
AcDbXrecord
340
475
  0
XRECORD
  5
6E8
102
{ACAD_REACTORS
330
6E7
102
}
100
AcDbXrecord
102
EXTNAMES
  1
SCALE
  2
scale
  0
XRECORD
  5
6EA
102
{ACAD_REACTORS
330
6E9
102
}
100
AcDbXrecord
102
EXTNAMES
  1
ABIOM240
  2
Abiom240
  0
XRECORD
  5
70F
102
{ACAD_REACTORS
330
70E
102
}
100
AcDbXrecord
102
UCS
 74
     0
 71
     1
 10
0.0
 20
0.0
 30
0.0
 10
1.0
 20
0.0
 30
0.0
 10
0.0
 20
1.0
 30
0.0
146
0.0
 79
     0
102
VIEW
281
     0
102
NEWVIEWCONTROL
280
     4
  0
XRECORD
  5
711
102
{ACAD_REACTORS
330
710
102
}
100
AcDbXrecord
102
UCS
 74
     0
 71
     1
 10
0.0
 20
0.0
 30
0.0
 10
1.0
 20
0.0
 30
0.0
 10
0.0
 20
1.0
 30
0.0
146
0.0
 79
     1
102
VIEW
281
     0
102
NEWVIEWCONTROL
280
     4
  0
XRECORD
  5
713
102
{ACAD_REACTORS
330
712
102
}
100
AcDbXrecord
102
UCS
 74
     0
 71
     1
 10
0.0
 20
0.0
 30
0.0
 10
1.0
 20
0.0
 30
0.0
 10
0.0
 20
0.0
 30
1.0
146
0.0
 79
     3
102
VIEW
281
     0
102
NEWVIEWCONTROL
280
     4
  0
XRECORD
  5
715
102
{ACAD_REACTORS
330
714
102
}
100
AcDbXrecord
102
UCS
 74
     0
 71
     1
 10
0.0
 20
0.0
 30
0.0
 10
1.0
 20
0.0
 30
0.0
 10
0.0
 20
1.0
 30
0.0
146
0.0
 79
     0
102
VIEW
281
     0
102
NEWVIEWCONTROL
280
     4
  0
DICTIONARY
  5
71E
100
AcDbDictionary
280
     1
  3
ACAD_XREC_ROUNDTRIP
360
71F
  0
ACAD_PROXY_OBJECT
  5
4A1
102
{ACAD_REACTORS
330
49E
102
}
100
AcDbProxyObject
 90
      499
 91
      503
 93
     2044
310
91D4850204C617365724A65742035303030205365726965732050434C20362C008000000C0BB1B1440000000102F06C510000000000BC1B1440000000002E06C5100000000C0CCFC6A4000000018199D9C501064C6574746572A901406AA427D84144352EEE3F47D11959985D5B1D08148C4D081C195B88185CDCDA59DB9B5
310
95B9D1CCB98DD18A30EDE3B1BBFDBC0FC1D572C8D6D0C833F1A2B3054E9249F0FD074C61796F75743140501A97D7DB4AA43C31EFF91E46EBA53B71EFD1B32A15809809100B2537F8EAD447D02A6A6A00200C0093BD106FC0000F06EE366FABE0000032E846F6A2F44424FF2920002440160B7F435600079000000D00CEECC5
310
43D0
330
475
330
2C
340
0
340
0
 94
        0
  0
ACAD_PROXY_OBJECT
  5
4A0
102
{ACAD_REACTORS
330
49E
102
}
100
AcDbProxyObject
 90
      499
 91
      503
 93
      924
310
91D4850204C617365724A65742035303030205365726965732050434C20362C01AAAAAAAAA547D11959985D5B1D08148C4D081C195B88185CDCDA59DB9B595B9D1CCB98DD18A69054D6F64656C901A800000000000000000000000000000000000000000000A1000000000000008902A6A6AAAA0
330
478
330
0
340
0
340
0
 94
        0
  0
MLINESTYLE
  5
47C
102
{ACAD_REACTORS
330
47B
102
}
100
AcDbMlineStyle
  2
STANDARD
 70
     0
  3

 62
   256
 51
90.0
 52
90.0
 71
     2
 49
0.5
 62
   256
  6
BYLAYER
 49
-0.5
 62
   256
  6
BYLAYER
  0
ACAD_PROXY_OBJECT
  5
49D
102
{ACAD_REACTORS
330
49C
102
}
100
AcDbProxyObject
 90
      499
 91
      502
 93
        0
 94
        0
  0
XRECORD
  5
6F7
102
{ACAD_REACTORS
330
6ED
102
}
100
AcDbXrecord
 90
        0
  0
XRECORD
  5
6FB
102
{ACAD_REACTORS
330
6ED
102
}
100
AcDbXrecord
1000
DSTYLE
1002
{
1070
   276
 70
     2
1070
   277
 70
     5
1070
   279
 70
     2
1002
}
  0
XRECORD
  5
6F8
102
{ACAD_REACTORS
330
6ED
102
}
100
AcDbXrecord
  1
{6E0CF4B5-225E-11D4-A150-00A0CC3303EC}
  0
XRECORD
  5
6F0
102
{ACAD_REACTORS
330
6ED
102
}
100
AcDbXrecord
  1

  0
XRECORD
  5
6F6
102
{ACAD_REACTORS
330
6ED
102
}
100
AcDbXrecord
 90
        0
  0
XRECORD
  5
6F2
102
{ACAD_REACTORS
330
6ED
102
}
100
AcDbXrecord
340
49E
  0
XRECORD
  5
6F5
102
{ACAD_REACTORS
330
6ED
102
}
100
AcDbXrecord
 90
    14877
  0
XRECORD
  5
6F3
102
{ACAD_REACTORS
330
6ED
102
}
100
AcDbXrecord
340
49F
  0
XRECORD
  5
6F4
102
{ACAD_REACTORS
330
6ED
102
}
100
AcDbXrecord
340
49C
  0
XRECORD
  5
6FA
102
{ACAD_REACTORS
330
6ED
102
}
100
AcDbXrecord
 40
0.0
  0
XRECORD
  5
6FE
102
{ACAD_REACTORS
330
6ED
102
}
100
AcDbXrecord
340
0
  0
XRECORD
  5
704
102
{ACAD_REACTORS
330
6ED
102
}
100
AcDbXrecord
 10
0.0
 20
0.0
 30
0.0
  0
XRECORD
  5
700
102
{ACAD_REACTORS
330
6ED
102
}
100
AcDbXrecord
 10
0.0
 20
0.0
 30
0.0
  0
XRECORD
  5
703
102
{ACAD_REACTORS
330
6ED
102
}
100
AcDbXrecord
 10
0.0
 20
0.0
 30
0.0
  0
XRECORD
  5
701
102
{ACAD_REACTORS
330
6ED
102
}
100
AcDbXrecord
 10
0.0
 20
0.0
 30
0.0
  0
XRECORD
  5
702
102
{ACAD_REACTORS
330
6ED
102
}
100
AcDbXrecord
 10
0.0
 20
0.0
 30
0.0
  0
XRECORD
  5
6FF
102
{ACAD_REACTORS
330
6ED
102
}
100
AcDbXrecord
 10
0.0
 20
0.0
 30
0.0
  0
XRECORD
  5
6FC
102
{ACAD_REACTORS
330
6ED
102
}
100
AcDbXrecord
340
0
  0
XRECORD
  5
6FD
102
{ACAD_REACTORS
330
6ED
102
}
100
AcDbXrecord
 70
     0
  0
XRECORD
  5
6F1
102
{ACAD_REACTORS
330
6ED
102
}
100
AcDbXrecord
  1

  0
XRECORD
  5
6EE
102
{ACAD_REACTORS
330
6ED
102
}
100
AcDbXrecord
 90
        1
  0
XRECORD
  5
6EF
102
{ACAD_REACTORS
330
6ED
102
}
100
AcDbXrecord
 90
       70
  0
XRECORD
  5
707
102
{ACAD_REACTORS
330
6ED
102
}
100
AcDbXrecord
340
0
  0
XRECORD
  5
70D
102
{ACAD_REACTORS
330
6ED
102
}
100
AcDbXrecord
 10
0.0
 20
0.0
 30
0.0
  0
XRECORD
  5
709
102
{ACAD_REACTORS
330
6ED
102
}
100
AcDbXrecord
 10
0.0
 20
0.0
 30
0.0
  0
XRECORD
  5
70C
102
{ACAD_REACTORS
330
6ED
102
}
100
AcDbXrecord
 10
0.0
 20
0.0
 30
0.0
  0
XRECORD
  5
70A
102
{ACAD_REACTORS
330
6ED
102
}
100
AcDbXrecord
 10
0.0
 20
0.0
 30
0.0
  0
XRECORD
  5
70B
102
{ACAD_REACTORS
330
6ED
102
}
100
AcDbXrecord
 10
0.0
 20
0.0
 30
0.0
  0
XRECORD
  5
708
102
{ACAD_REACTORS
330
6ED
102
}
100
AcDbXrecord
 10
0.0
 20
0.0
 30
0.0
  0
XRECORD
  5
705
102
{ACAD_REACTORS
330
6ED
102
}
100
AcDbXrecord
340
0
  0
XRECORD
  5
706
102
{ACAD_REACTORS
330
6ED
102
}
100
AcDbXrecord
 70
     0
  0
XRECORD
  5
6F9
102
{ACAD_REACTORS
330
6ED
102
}
100
AcDbXrecord
  1
{E8FF0208-C890-4511-940C-D5BD5C2136EC}
  0
DICTIONARYVAR
  5
48E
102
{ACAD_REACTORS
330
48D
102
}
100
DictionaryVariables
280
     0
  1
0
  0
XRECORD
  5
71F
102
{ACAD_REACTORS
330
71E
102
}
100
AcDbXrecord
102
EXTNAMES
  1
LAYOUT1
  2
Layout1
  1
MODEL
  2
Model
  0
ENDSEC
  0
EOF
