  0
SECTION
  2
HEADER
  9
$ACADVER
  1
AC1014
  9
$ACADMAINTVER
 70
     8
  9
$DWGCODEPAGE
  3
ANSI_1252
  9
$INSBASE
 10
0.0
 20
0.0
 30
0.0
  9
$EXTMIN
 10
-1.121
 20
-1.392751
 30
0.0
  9
$EXTMAX
 10
1.717
 20
6.000648
 30
5.785
  9
$LIMMIN
 10
0.0
 20
0.0
  9
$LIMMAX
 10
12.0
 20
9.0
  9
$ORTHOMODE
 70
     0
  9
$REGENMODE
 70
     1
  9
$FILLMODE
 70
     1
  9
$QTEXTMODE
 70
     0
  9
$MIRRTEXT
 70
     1
  9
$DRAGMODE
 70
     2
  9
$LTSCALE
 40
1.0
  9
$OSMODE
 70
    37
  9
$ATTMODE
 70
     1
  9
$TEXTSIZE
 40
0.12
  9
$TRACEWID
 40
0.05
  9
$TEXTSTYLE
  7
STANDARD
  9
$CLAYER
  8
0
  9
$CELTYPE
  6
BYLAYER
  9
$CECOLOR
 62
   256
  9
$CELTSCALE
 40
1.0
  9
$DELOBJ
 70
     1
  9
$DISPSILH
 70
     0
  9
$DIMSCALE
 40
1.0
  9
$DIMASZ
 40
0.11
  9
$DIMEXO
 40
0.0625
  9
$DIMDLI
 40
0.375
  9
$DIMRND
 40
0.0
  9
$DIMDLE
 40
0.0
  9
$DIMEXE
 40
0.11
  9
$DIMTP
 40
0.0
  9
$DIMTM
 40
0.0
  9
$DIMTXT
 40
0.11
  9
$DIMCEN
 40
0.09
  9
$DIMTSZ
 40
0.0
  9
$DIMTOL
 70
     0
  9
$DIMLIM
 70
     0
  9
$DIMTIH
 70
     0
  9
$DIMTOH
 70
     1
  9
$DIMSE1
 70
     0
  9
$DIMSE2
 70
     0
  9
$DIMTAD
 70
     0
  9
$DIMZIN
 70
     4
  9
$DIMBLK
  1

  9
$DIMASO
 70
     1
  9
$DIMSHO
 70
     1
  9
$DIMPOST
  1

  9
$DIMAPOST
  1

  9
$DIMALT
 70
     1
  9
$DIMALTD
 70
     1
  9
$DIMALTF
 40
25.4
  9
$DIMLFAC
 40
1.0
  9
$DIMTOFL
 70
     0
  9
$DIMTVP
 40
0.0
  9
$DIMTIX
 70
     0
  9
$DIMSOXD
 70
     0
  9
$DIMSAH
 70
     0
  9
$DIMBLK1
  1

  9
$DIMBLK2
  1

  9
$DIMSTYLE
  2
ABECAD_3D
  9
$DIMCLRD
 70
     0
  9
$DIMCLRE
 70
     0
  9
$DIMCLRT
 70
     0
  9
$DIMTFAC
 40
1.5
  9
$DIMGAP
 40
0.045
  9
$DIMJUST
 70
     0
  9
$DIMSD1
 70
     0
  9
$DIMSD2
 70
     0
  9
$DIMTOLJ
 70
     1
  9
$DIMTZIN
 70
     4
  9
$DIMALTZ
 70
     4
  9
$DIMALTTZ
 70
     4
  9
$DIMFIT
 70
     3
  9
$DIMUPT
 70
     0
  9
$DIMUNIT
 70
     7
  9
$DIMDEC
 70
     6
  9
$DIMTDEC
 70
     6
  9
$DIMALTU
 70
     2
  9
$DIMALTTD
 70
     1
  9
$DIMTXSTY
  7
STANDARD
  9
$DIMAUNIT
 70
     0
  9
$LUNITS
 70
     2
  9
$LUPREC
 70
     4
  9
$SKETCHINC
 40
0.1
  9
$FILLETRAD
 40
0.0
  9
$AUNITS
 70
     0
  9
$AUPREC
 70
     0
  9
$MENU
  1
ACAD
  9
$ELEVATION
 40
0.0
  9
$PELEVATION
 40
0.0
  9
$THICKNESS
 40
0.0
  9
$LIMCHECK
 70
     0
  9
$BLIPMODE
 70
     0
  9
$CHAMFERA
 40
0.0
  9
$CHAMFERB
 40
0.0
  9
$CHAMFERC
 40
0.0
  9
$CHAMFERD
 40
0.0
  9
$SKPOLY
 70
     0
  9
$TDCREATE
 40
2451737.737590162
  9
$TDUPDATE
 40
2452010.488960185
  9
$TDINDWG
 40
0.0062606481
  9
$TDUSRTIMER
 40
0.0062555556
  9
$USRTIMER
 70
     1
  9
$ANGBASE
 50
0.0
  9
$ANGDIR
 70
     0
  9
$PDMODE
 70
     3
  9
$PDSIZE
 40
0.09
  9
$PLINEWID
 40
0.0
  9
$COORDS
 70
     1
  9
$SPLFRAME
 70
     1
  9
$SPLINETYPE
 70
     6
  9
$SPLINESEGS
 70
     8
  9
$ATTDIA
 70
     0
  9
$ATTREQ
 70
     1
  9
$HANDLING
 70
     1
  9
$HANDSEED
  5
45C39
  9
$SURFTAB1
 70
     6
  9
$SURFTAB2
 70
     6
  9
$SURFTYPE
 70
     6
  9
$SURFU
 70
     6
  9
$SURFV
 70
     6
  9
$UCSNAME
  2

  9
$UCSORG
 10
0.0
 20
0.0
 30
0.0
  9
$UCSXDIR
 10
1.0
 20
0.0
 30
0.0
  9
$UCSYDIR
 10
0.0
 20
1.0
 30
0.0
  9
$PUCSNAME
  2

  9
$PUCSORG
 10
0.0
 20
0.0
 30
0.0
  9
$PUCSXDIR
 10
1.0
 20
0.0
 30
0.0
  9
$PUCSYDIR
 10
0.0
 20
1.0
 30
0.0
  9
$USERI1
 70
     0
  9
$USERI2
 70
     0
  9
$USERI3
 70
     0
  9
$USERI4
 70
     0
  9
$USERI5
 70
     0
  9
$USERR1
 40
0.0
  9
$USERR2
 40
0.0
  9
$USERR3
 40
0.0
  9
$USERR4
 40
0.0
  9
$USERR5
 40
0.0
  9
$WORLDVIEW
 70
     1
  9
$SHADEDGE
 70
     3
  9
$SHADEDIF
 70
    70
  9
$TILEMODE
 70
     1
  9
$MAXACTVP
 70
    16
  9
$PINSBASE
 10
0.0
 20
0.0
 30
0.0
  9
$PLIMCHECK
 70
     0
  9
$PEXTMIN
 10
1.000000E+20
 20
1.000000E+20
 30
1.000000E+20
  9
$PEXTMAX
 10
-1.000000E+20
 20
-1.000000E+20
 30
-1.000000E+20
  9
$PLIMMIN
 10
0.0
 20
0.0
  9
$PLIMMAX
 10
12.0
 20
9.0
  9
$UNITMODE
 70
     0
  9
$VISRETAIN
 70
     0
  9
$PLINEGEN
 70
     0
  9
$PSLTSCALE
 70
     1
  9
$TREEDEPTH
 70
  3020
  9
$PICKSTYLE
 70
     1
  9
$CMLSTYLE
  2
STANDARD
  9
$CMLJUST
 70
     0
  9
$CMLSCALE
 40
1.0
  9
$PROXYGRAPHICS
 70
     1
  9
$MEASUREMENT
 70
     0
  0
ENDSEC
  0
SECTION
  2
CLASSES
  0
CLASS
  1
DICTIONARYVAR
  2
AcDbDictionaryVar
  3
"AutoCAD"
 90
        0
280
     0
281
     0
  0
CLASS
  1
ACDBDICTIONARYWDFLT
  2
AcDbDictionaryWithDefault
  3
AutoCAD 2000
 90
        0
280
     0
281
     0
  0
CLASS
  1
ACDBPLACEHOLDER
  2
AcDbPlaceHolder
  3
AutoCAD 2000
 90
        0
280
     0
281
     0
  0
CLASS
  1
LAYOUT
  2
AcDbLayout
  3
AutoCAD 2000
 90
        0
280
     0
281
     0
  0
CLASS
  1
LONG_TRANSACTION
  2
AcDbLongTransaction
  3
AutoCAD 2000
 90
        0
280
     0
281
     0
  0
CLASS
  1
LWPOLYLINE
  2
AcDbPolyline
  3
"AutoCAD"
 90
        0
280
     0
281
     1
  0
CLASS
  1
HATCH
  2
AcDbHatch
  3
"ACAD_SEDONA"
 90
        0
280
     0
281
     1
  0
CLASS
  1
XRECORD
  2
AcDbXrecord
  3
"<Built In>"
 90
        0
280
     0
281
     0
  0
CLASS
  1
LONG_TRANSACTION
  2
AcDbLongTransaction
  3
AutoCAD 2000
 90
        0
280
     0
281
     0
  0
CLASS
  1
LWPOLYLINE
  2
AcDbPolyline
  3
"AutoCAD"
 90
        0
280
     0
281
     1
  0
CLASS
  1
HATCH
  2
AcDbHatch
  3
"ACAD_SEDONA"
 90
        0
280
     0
281
     1
  0
CLASS
  1
XRECORD
  2
AcDbXrecord
  3
"<Built In>"
 90
        0
280
     0
281
     0
  0
CLASS
  1
LONG_TRANSACTION
  2
AcDbLongTransaction
  3
AutoCAD 2000
 90
        0
280
     0
281
     0
  0
CLASS
  1
LWPOLYLINE
  2
AcDbPolyline
  3
"AutoCAD"
 90
        0
280
     0
281
     1
  0
CLASS
  1
HATCH
  2
AcDbHatch
  3
"ACAD_SEDONA"
 90
        0
280
     0
281
     1
  0
CLASS
  1
XRECORD
  2
AcDbXrecord
  3
"<Built In>"
 90
        0
280
     0
281
     0
  0
CLASS
  1
LONG_TRANSACTION
  2
AcDbLongTransaction
  3
AutoCAD 2000
 90
        0
280
     0
281
     0
  0
CLASS
  1
LWPOLYLINE
  2
AcDbPolyline
  3
"AutoCAD"
 90
        0
280
     0
281
     1
  0
CLASS
  1
HATCH
  2
AcDbHatch
  3
"ACAD_SEDONA"
 90
        0
280
     0
281
     1
  0
CLASS
  1
XRECORD
  2
AcDbXrecord
  3
"<Built In>"
 90
        0
280
     0
281
     0
  0
ENDSEC
  0
SECTION
  2
TABLES
  0
TABLE
  2
VPORT
  5
458C7
100
AcDbSymbolTable
 70
     1
  0
VPORT
  5
45C04
102
{ACAD_XDICTIONARY
360
45C09
102
}
100
AcDbSymbolTableRecord
100
AcDbViewportTableRecord
  2
*ACTIVE
 70
     0
 10
0.0
 20
0.0
 11
1.0
 21
1.0
 12
0.298093
 22
2.303846
 13
0.0
 23
0.0
 14
0.25
 24
0.25
 15
0.25
 25
0.25
 16
0.0
 26
0.0
 36
1.0
 17
0.0
 27
0.0
 37
0.0
 40
7.518096
 41
1.960674
 42
50.0
 43
0.0
 44
0.0
 50
0.0
 51
0.0
 71
     0
 72
 20000
 73
     1
 74
     1
 75
     0
 76
     0
 77
     0
 78
     0
  0
ENDTAB
  0
TABLE
  2
LTYPE
  5
458C4
100
AcDbSymbolTable
 70
     1
  0
LTYPE
  5
458D0
100
AcDbSymbolTableRecord
100
AcDbLinetypeTableRecord
  2
BYBLOCK
 70
     0
  3

 72
    65
 73
     0
 40
0.0
  0
LTYPE
  5
458D1
100
AcDbSymbolTableRecord
100
AcDbLinetypeTableRecord
  2
BYLAYER
 70
     0
  3

 72
    65
 73
     0
 40
0.0
  0
LTYPE
  5
458D2
100
AcDbSymbolTableRecord
100
AcDbLinetypeTableRecord
  2
CONTINUOUS
 70
     0
  3
Solid line
 72
    65
 73
     0
 40
0.0
  0
ENDTAB
  0
TABLE
  2
LAYER
  5
458C1
100
AcDbSymbolTable
 70
     7
  0
LAYER
  5
458CD
100
AcDbSymbolTableRecord
100
AcDbLayerTableRecord
  2
0
 70
     0
 62
     7
  6
CONTINUOUS
  0
LAYER
  5
458EA
100
AcDbSymbolTableRecord
100
AcDbLayerTableRecord
  2
DIMS-MTG-HOLES
 70
     0
 62
     1
  6
CONTINUOUS
  0
LAYER
  5
458EB
100
AcDbSymbolTableRecord
100
AcDbLayerTableRecord
  2
ATTRIBUTES
 70
     0
 62
     7
  6
CONTINUOUS
  0
LAYER
  5
4593B
102
{ACAD_XDICTIONARY
360
45C34
102
}
100
AcDbSymbolTableRecord
100
AcDbLayerTableRecord
  2
AREA1
 70
     0
 62
    -7
  6
CONTINUOUS
  0
LAYER
  5
45940
102
{ACAD_XDICTIONARY
360
45C07
102
}
100
AcDbSymbolTableRecord
100
AcDbLayerTableRecord
  2
DEFPOINTS
 70
     0
 62
    -7
  6
CONTINUOUS
  0
LAYER
  5
45954
100
AcDbSymbolTableRecord
100
AcDbLayerTableRecord
  2
SCALE
 70
     0
 62
    -7
  6
CONTINUOUS
  0
LAYER
  5
4597B
100
AcDbSymbolTableRecord
100
AcDbLayerTableRecord
  2
SNAP_POINTS
 70
     0
 62
    -1
  6
CONTINUOUS
  0
ENDTAB
  0
TABLE
  2
STYLE
  5
458C2
100
AcDbSymbolTable
 70
     1
  0
STYLE
  5
458CE
100
AcDbSymbolTableRecord
100
AcDbTextStyleTableRecord
  2
STANDARD
 70
     0
 40
0.0
 41
1.0
 50
0.0
 71
     0
 42
0.12
  3
txt
  4

  0
ENDTAB
  0
TABLE
  2
VIEW
  5
458C5
100
AcDbSymbolTable
 70
     0
  0
ENDTAB
  0
TABLE
  2
UCS
  5
458C6
100
AcDbSymbolTable
 70
     0
  0
ENDTAB
  0
TABLE
  2
APPID
  5
458C8
100
AcDbSymbolTable
 70
     1
  0
APPID
  5
458CF
100
AcDbSymbolTableRecord
100
AcDbRegAppTableRecord
  2
ACAD
 70
     0
  0
ENDTAB
  0
TABLE
  2
DIMSTYLE
  5
458C9
100
AcDbSymbolTable
 70
     2
  0
DIMSTYLE
105
458F1
102
{ACAD_XDICTIONARY
360
45C2E
102
}
100
AcDbSymbolTableRecord
100
AcDbDimStyleTableRecord
  2
ABECAD
 70
     0
  3

  4

  5

  6

  7

 40
1.0
 41
0.18
 42
0.0625
 43
0.375
 44
0.18
 45
0.0
 46
0.0
 47
0.0
 48
0.0
140
0.18
141
0.09
142
0.0
143
25.4
144
1.0
145
0.0
146
1.5
147
0.09
 71
     0
 72
     0
 73
     0
 74
     1
 75
     0
 76
     0
 77
     0
 78
     4
170
     1
171
     1
172
     0
173
     0
174
     0
175
     0
176
     0
177
     0
178
     0
270
     7
271
     6
272
     6
273
     2
274
     1
340
458CE
275
     0
280
     0
281
     0
282
     0
283
     1
284
     4
285
     4
286
     4
287
     3
288
     0
  0
DIMSTYLE
105
458F6
102
{ACAD_XDICTIONARY
360
45C30
102
}
102
{ACAD_REACTORS
330
45B7A
330
45B88
102
}
100
AcDbSymbolTableRecord
100
AcDbDimStyleTableRecord
  2
ABECAD_3D
 70
     0
  3

  4

  5

  6

  7

 40
1.0
 41
0.11
 42
0.0625
 43
0.375
 44
0.11
 45
0.0
 46
0.0
 47
0.0
 48
0.0
140
0.11
141
0.09
142
0.0
143
25.4
144
1.0
145
0.0
146
1.5
147
0.045
 71
     0
 72
     0
 73
     0
 74
     1
 75
     0
 76
     0
 77
     0
 78
     4
170
     1
171
     1
172
     0
173
     0
174
     0
175
     0
176
     0
177
     0
178
     0
270
     7
271
     6
272
     6
273
     2
274
     1
340
458CE
275
     0
280
     0
281
     0
282
     0
283
     1
284
     4
285
     4
286
     4
287
     3
288
     0
  0
ENDTAB
  0
TABLE
  2
BLOCK_RECORD
  5
458C0
100
AcDbSymbolTable
 70
     3
  0
BLOCK_RECORD
  5
458D6
102
{ACAD_XDICTIONARY
360
4592C
102
}
100
AcDbSymbolTableRecord
100
AcDbBlockTableRecord
  2
*MODEL_SPACE
  0
BLOCK_RECORD
  5
458D3
102
{ACAD_XDICTIONARY
360
4592A
102
}
100
AcDbSymbolTableRecord
100
AcDbBlockTableRecord
  2
*PAPER_SPACE
  0
BLOCK_RECORD
  5
45941
102
{ACAD_XDICTIONARY
360
45C05
102
}
100
AcDbSymbolTableRecord
100
AcDbBlockTableRecord
  2
SCALE
1001
ACAD
1000
DesignCenter Data
1002
{
1070
     1
1070
     1
1002
}
  0
BLOCK_RECORD
  5
45B7B
100
AcDbSymbolTableRecord
100
AcDbBlockTableRecord
  2
*D1
  0
BLOCK_RECORD
  5
45B89
100
AcDbSymbolTableRecord
100
AcDbBlockTableRecord
  2
*D2
  0
ENDTAB
  0
ENDSEC
  0
SECTION
  2
BLOCKS
  0
BLOCK
  5
458DF
100
AcDbEntity
  8
0
100
AcDbBlockBegin
  2
*MODEL_SPACE
 70
     0
 10
0.0
 20
0.0
 30
0.0
  3
*MODEL_SPACE
  1

  0
ENDBLK
  5
458E0
100
AcDbEntity
  8
0
100
AcDbBlockEnd
  0
BLOCK
  5
458DD
100
AcDbEntity
 67
     1
  8
0
100
AcDbBlockBegin
  2
*PAPER_SPACE
 70
     0
 10
0.0
 20
0.0
 30
0.0
  3
*PAPER_SPACE
  1

  0
ENDBLK
  5
458DE
100
AcDbEntity
 67
     1
  8
0
100
AcDbBlockEnd
  0
BLOCK
  5
4594D
100
AcDbEntity
  8
0
100
AcDbBlockBegin
  2
SCALE
 70
     0
 10
0.0
 20
0.0
 30
0.0
  3
SCALE
  1

  0
LINE
  5
4596A
100
AcDbEntity
  8
SCALE
100
AcDbLine
 10
0.057999
 20
-0.380078
 30
0.0
 11
1.057999
 21
-0.380078
 31
0.0
  0
LWPOLYLINE
  5
4596B
100
AcDbEntity
  8
SCALE
100
AcDbPolyline
 90
        4
 70
     1
 43
0.0
 10
0.0
 20
0.0
 10
1.135629
 20
0.0
 10
1.135629
 20
-0.84161
 10
0.0
 20
-0.84161
  0
LINE
  5
4596C
100
AcDbEntity
  8
SCALE
100
AcDbLine
 10
0.057999
 20
-0.480078
 30
0.0
 11
0.057999
 21
-0.280078
 31
0.0
  0
TEXT
  5
4596D
100
AcDbEntity
  8
SCALE
100
AcDbText
 10
0.117421
 20
-0.634339
 30
0.0
 40
0.0625
  1
[10mm]
100
AcDbText
  0
LINE
  5
4596E
100
AcDbEntity
  8
SCALE
100
AcDbLine
 10
0.057999
 20
-0.680078
 30
0.0
 11
0.451699
 21
-0.680078
 31
0.0
  0
LINE
  5
4596F
100
AcDbEntity
  8
SCALE
100
AcDbLine
 10
0.057999
 20
-0.780078
 30
0.0
 11
0.057999
 21
-0.580078
 31
0.0
  0
LINE
  5
45970
100
AcDbEntity
  8
SCALE
100
AcDbLine
 10
0.451699
 20
-0.780078
 30
0.0
 11
0.451699
 21
-0.580078
 31
0.0
  0
TEXT
  5
45971
100
AcDbEntity
  8
SCALE
100
AcDbText
 10
0.059529
 20
-0.105201
 30
0.0
 40
0.0625
  1
SCALE:
100
AcDbText
  0
TEXT
  5
45972
100
AcDbEntity
  8
SCALE
100
AcDbText
 10
0.421282
 20
-0.31103
 30
0.0
 40
0.0625
  1
1 Inch
100
AcDbText
  0
LINE
  5
45973
100
AcDbEntity
  8
SCALE
100
AcDbLine
 10
1.057999
 20
-0.380078
 30
0.0
 11
1.057999
 21
-0.480078
 31
0.0
  0
LINE
  5
45974
100
AcDbEntity
  8
SCALE
100
AcDbLine
 10
1.057999
 20
-0.480078
 30
0.0
 11
1.057999
 21
-0.280078
 31
0.0
  0
ENDBLK
  5
4594E
100
AcDbEntity
  8
0
100
AcDbBlockEnd
  0
BLOCK
  5
45B86
100
AcDbEntity
  8
0
100
AcDbBlockBegin
  2
*D1
 70
     1
 10
0.0
 20
0.0
 30
0.0
  3
*D1
  1

  0
LINE
  5
45B7C
100
AcDbEntity
  8
AREA1
 62
     0
100
AcDbLine
 10
0.3045
 20
-0.305
 30
0.0
 11
1.307176
 21
-0.305
 31
0.0
1001
ACAD
1000
RTLwPs
1070
   158
  0
LINE
  5
45B7D
100
AcDbEntity
  8
AREA1
 62
     0
100
AcDbLine
 10
0.3045
 20
5.385
 30
0.0
 11
1.307176
 21
5.385
 31
0.0
1001
ACAD
1000
RTLwPs
1070
   158
  0
LINE
  5
45B7E
100
AcDbEntity
  8
AREA1
 62
     0
100
AcDbLine
 10
1.197176
 20
-0.195
 30
0.0
 11
1.197176
 21
1.835
 31
0.0
1001
ACAD
1000
RTLwPs
1070
   158
  0
LINE
  5
45B7F
100
AcDbEntity
  8
AREA1
 62
     0
100
AcDbLine
 10
1.197176
 20
5.275
 30
0.0
 11
1.197176
 21
3.245
 31
0.0
1001
ACAD
1000
RTLwPs
1070
   158
  0
SOLID
  5
45B80
100
AcDbEntity
  8
AREA1
 62
     0
100
AcDbTrace
 10
1.178843
 20
-0.195
 30
0.0
 11
1.21551
 21
-0.195
 31
0.0
 12
1.197176
 22
-0.305
 32
0.0
 13
1.197176
 23
-0.305
 33
0.0
  0
SOLID
  5
45B81
100
AcDbEntity
  8
AREA1
 62
     0
100
AcDbTrace
 10
1.178843
 20
5.275
 30
0.0
 11
1.21551
 21
5.275
 31
0.0
 12
1.197176
 22
5.385
 32
0.0
 13
1.197176
 23
5.385
 33
0.0
  0
MTEXT
  5
45B82
100
AcDbEntity
  8
AREA1
 62
     0
100
AcDbMText
 10
1.197176
 20
2.54
 30
0.0
 40
0.11
 41
0.0
 71
     5
 72
     1
  1
\A1;5 11/16 [144.5]
 11
0.0
 21
1.0
 31
0.0
1001
ACAD
1000
MTEXTBEGIN
1070
    73
1070
     1
1070
    44
1040
1.0
1070
    74
1070
     0
1000
MTEXTEND
1000
MTEXTBEGIN
1070
    73
1070
     1
1070
    44
1040
1.0
1070
    74
1070
     0
1000
MTEXTEND
1000
MTEXTBEGIN
1070
    73
1070
     1
1070
    44
1040
1.0
1070
    74
1070
     0
1000
MTEXTEND
  0
POINT
  5
45B83
100
AcDbEntity
  8
DEFPOINTS
 62
     0
100
AcDbPoint
 10
0.242
 20
-0.305
 30
3.668
  0
POINT
  5
45B84
100
AcDbEntity
  8
DEFPOINTS
 62
     0
100
AcDbPoint
 10
0.242
 20
5.385
 30
3.668
  0
POINT
  5
45B85
100
AcDbEntity
  8
DEFPOINTS
 62
     0
100
AcDbPoint
 10
1.197176
 20
5.385
 30
0.0
  0
ENDBLK
  5
45B87
100
AcDbEntity
  8
0
100
AcDbBlockEnd
  0
BLOCK
  5
45B94
100
AcDbEntity
  8
0
100
AcDbBlockBegin
  2
*D2
 70
     1
 10
0.0
 20
0.0
 30
0.0
  3
*D2
  1

  0
LINE
  5
45B8A
100
AcDbEntity
  8
AREA1
 62
     0
100
AcDbLine
 10
-1.121
 20
5.4475
 30
0.0
 11
-1.121
 21
6.000648
 31
0.0
1001
ACAD
1000
RTLwPs
1070
   158
  0
LINE
  5
45B8B
100
AcDbEntity
  8
AREA1
 62
     0
100
AcDbLine
 10
0.242
 20
5.4475
 30
0.0
 11
0.242
 21
6.000648
 31
0.0
1001
ACAD
1000
RTLwPs
1070
   158
  0
LINE
  5
45B8C
100
AcDbEntity
  8
AREA1
 62
     0
100
AcDbLine
 10
-1.011
 20
5.890648
 30
0.0
 11
0.132
 21
5.890648
 31
0.0
1001
ACAD
1000
RTLwPs
1070
   158
  0
LINE
  5
45B8D
100
AcDbEntity
  8
AREA1
 62
     0
100
AcDbLine
 10
0.242
 20
5.890648
 30
0.0
 11
0.352
 21
5.890648
 31
0.0
1001
ACAD
1000
RTLwPs
1070
   158
  0
SOLID
  5
45B8E
100
AcDbEntity
  8
AREA1
 62
     0
100
AcDbTrace
 10
-1.011
 20
5.908981
 30
0.0
 11
-1.011
 21
5.872315
 31
0.0
 12
-1.121
 22
5.890648
 32
0.0
 13
-1.121
 23
5.890648
 33
0.0
  0
SOLID
  5
45B8F
100
AcDbEntity
  8
AREA1
 62
     0
100
AcDbTrace
 10
0.132
 20
5.908981
 30
0.0
 11
0.132
 21
5.872315
 31
0.0
 12
0.242
 22
5.890648
 32
0.0
 13
0.242
 23
5.890648
 33
0.0
  0
MTEXT
  5
45B90
100
AcDbEntity
  8
AREA1
 62
     0
100
AcDbMText
 10
1.057
 20
5.890648
 30
0.0
 40
0.11
 41
0.0
 71
     5
 72
     1
  1
\A1;1 23/64 [34.6]
1001
ACAD
1000
MTEXTBEGIN
1070
    73
1070
     1
1070
    44
1040
1.0
1070
    74
1070
     0
1000
MTEXTEND
1000
MTEXTBEGIN
1070
    73
1070
     1
1070
    44
1040
1.0
1070
    74
1070
     0
1000
MTEXTEND
1000
MTEXTBEGIN
1070
    73
1070
     1
1070
    44
1040
1.0
1070
    74
1070
     0
1000
MTEXTEND
  0
POINT
  5
45B91
100
AcDbEntity
  8
DEFPOINTS
 62
     0
100
AcDbPoint
 10
-1.121
 20
5.385
 30
3.668
  0
POINT
  5
45B92
100
AcDbEntity
  8
DEFPOINTS
 62
     0
100
AcDbPoint
 10
0.242
 20
5.385
 30
3.668
  0
POINT
  5
45B93
100
AcDbEntity
  8
DEFPOINTS
 62
     0
100
AcDbPoint
 10
0.242
 20
5.890648
 30
0.0
  0
ENDBLK
  5
45B95
100
AcDbEntity
  8
0
100
AcDbBlockEnd
  0
ENDSEC
  0
SECTION
  2
ENTITIES
  0
ATTDEF
  5
1
100
AcDbEntity
  8
ATTRIBUTES
100
AcDbText
 10
-1.010301
 20
1.410481
 30
0.0
 40
0.09
  1
ALLEN-BRADLEY
100
AcDbAttributeDefinition
  3
MANUFACTURER NAME?
  2
AC_VND_LABEL
 70
     1
  0
ATTDEF
  5
2
100
AcDbEntity
  8
ATTRIBUTES
100
AcDbText
 10
-1.010301
 20
1.222981
 30
0.0
 40
0.09
  1
1756-OB8
100
AcDbAttributeDefinition
  3
CATALOG NUMBER?
  2
AC_PART_NO
 70
     1
  0
ATTDEF
  5
3
100
AcDbEntity
  8
ATTRIBUTES
100
AcDbText
 10
-1.010301
 20
1.035481
 30
0.0
 40
0.09
  1
1756-OB8 CONTROLLOGIX DC (10-30V) 2A OUTPUT 8 PTS
100
AcDbAttributeDefinition
  3
PART DESCRIPTION?
  2
AC_DESCRIPTION
 70
     1
  0
ATTDEF
  5
4
100
AcDbEntity
  8
ATTRIBUTES
100
AcDbText
 10
-1.010301
 20
0.847981
 30
0.0
 40
0.09
  1

100
AcDbAttributeDefinition
  3
DEVICE ID?
  2
DEVICE_ID
 70
     1
  0
ATTDEF
  5
5
100
AcDbEntity
  8
ATTRIBUTES
100
AcDbText
 10
-1.010301
 20
0.660481
 30
0.0
 40
0.09
  1

100
AcDbAttributeDefinition
  3
CUSTOMER PART NUMBER?
  2
AC_CPART_NO
 70
     1
  0
ATTDEF
  5
6
100
AcDbEntity
  8
ATTRIBUTES
100
AcDbText
 10
-1.010301
 20
0.472981
 30
0.0
 40
0.09
  1

100
AcDbAttributeDefinition
  3
CUSTOMER NOTE?
  2
AC_NOTE
 70
     1
  0
ATTDEF
  5
7
100
AcDbEntity
  8
ATTRIBUTES
100
AcDbText
 10
-1.010301
 20
0.285481
 30
0.0
 40
0.09
  1

100
AcDbAttributeDefinition
  3
FASTENER DATA?
  2
FASTENER
 70
     1
  0
ATTDEF
  5
8
100
AcDbEntity
  8
ATTRIBUTES
100
AcDbText
 10
-1.010301
 20
0.097981
 30
0.0
 40
0.09
  1
INCH
100
AcDbAttributeDefinition
  3
UNIT OF SCALE?
  2
AC_SCALE_UNIT
 70
     1
  0
ATTDEF
  5
9
100
AcDbEntity
  8
ATTRIBUTES
100
AcDbText
 10
-1.010301
 20
-0.089519
 30
0.0
 40
0.09
  1
0
100
AcDbAttributeDefinition
  3
VIEW CODE?
  2
AC_VIEW_CODE
 70
     1
  0
INSERT
  5
45975
100
AcDbEntity
  8
SCALE
100
AcDbBlockReference
  2
SCALE
 10
-1.104649
 20
-0.551142
 30
0.0
  0
POLYLINE
  5
45AE4
100
AcDbEntity
  8
0
100
AcDbPolygonMesh
 66
     1
 10
0.0
 20
0.0
 30
0.0
 70
    16
 71
     6
 72
     3
  0
VERTEX
  5
45AE5
100
AcDbEntity
  8
0
100
AcDbVertex
100
AcDbPolygonMeshVertex
 10
0.034
 20
0.0
 30
3.668
 70
    64
  0
VERTEX
  5
45AE6
100
AcDbEntity
  8
0
100
AcDbVertex
100
AcDbPolygonMeshVertex
 10
0.034
 20
0.0
 30
0.0
 70
    64
  0
VERTEX
  5
45AE7
100
AcDbEntity
  8
0
100
AcDbVertex
100
AcDbPolygonMeshVertex
 10
0.034
 20
0.0
 30
0.0
 70
    64
  0
VERTEX
  5
45AE8
100
AcDbEntity
  8
0
100
AcDbVertex
100
AcDbPolygonMeshVertex
 10
-0.034
 20
0.0
 30
3.668
 70
    64
  0
VERTEX
  5
45AE9
100
AcDbEntity
  8
0
100
AcDbVertex
100
AcDbPolygonMeshVertex
 10
-0.034
 20
0.0
 30
0.0
 70
    64
  0
VERTEX
  5
45AEA
100
AcDbEntity
  8
0
100
AcDbVertex
100
AcDbPolygonMeshVertex
 10
-0.034
 20
0.0
 30
0.0
 70
    64
  0
VERTEX
  5
45AEB
100
AcDbEntity
  8
0
100
AcDbVertex
100
AcDbPolygonMeshVertex
 10
-0.034
 20
5.21595
 30
3.668
 70
    64
  0
VERTEX
  5
45AEC
100
AcDbEntity
  8
0
100
AcDbVertex
100
AcDbPolygonMeshVertex
 10
-0.034
 20
5.21595
 30
0.0
 70
    64
  0
VERTEX
  5
45AED
100
AcDbEntity
  8
0
100
AcDbVertex
100
AcDbPolygonMeshVertex
 10
-0.034
 20
0.0
 30
0.0
 70
    64
  0
VERTEX
  5
45AEE
100
AcDbEntity
  8
0
100
AcDbVertex
100
AcDbPolygonMeshVertex
 10
0.034
 20
5.21595
 30
3.668
 70
    64
  0
VERTEX
  5
45AEF
100
AcDbEntity
  8
0
100
AcDbVertex
100
AcDbPolygonMeshVertex
 10
0.034
 20
5.21595
 30
0.0
 70
    64
  0
VERTEX
  5
45AF0
100
AcDbEntity
  8
0
100
AcDbVertex
100
AcDbPolygonMeshVertex
 10
0.034
 20
0.0
 30
0.0
 70
    64
  0
VERTEX
  5
45AF1
100
AcDbEntity
  8
0
100
AcDbVertex
100
AcDbPolygonMeshVertex
 10
0.034
 20
5.21595
 30
3.668
 70
    64
  0
VERTEX
  5
45AF2
100
AcDbEntity
  8
0
100
AcDbVertex
100
AcDbPolygonMeshVertex
 10
0.034
 20
5.21595
 30
3.668
 70
    64
  0
VERTEX
  5
45AF3
100
AcDbEntity
  8
0
100
AcDbVertex
100
AcDbPolygonMeshVertex
 10
0.034
 20
0.0
 30
3.668
 70
    64
  0
VERTEX
  5
45AF4
100
AcDbEntity
  8
0
100
AcDbVertex
100
AcDbPolygonMeshVertex
 10
-0.034
 20
5.21595
 30
3.668
 70
    64
  0
VERTEX
  5
45AF5
100
AcDbEntity
  8
0
100
AcDbVertex
100
AcDbPolygonMeshVertex
 10
-0.034
 20
5.21595
 30
3.668
 70
    64
  0
VERTEX
  5
45AF6
100
AcDbEntity
  8
0
100
AcDbVertex
100
AcDbPolygonMeshVertex
 10
-0.034
 20
0.0
 30
3.668
 70
    64
  0
SEQEND
  5
45AF7
100
AcDbEntity
  8
0
  0
LINE
  5
45AF8
100
AcDbEntity
  8
0
100
AcDbLine
 10
-1.121
 20
-0.214
 30
5.424972
 11
-1.121
 21
3.954
 31
5.424972
210
0.0
220
-1.0
230
0.0
  0
POLYLINE
  5
45AF9
100
AcDbEntity
  8
0
100
AcDbPolygonMesh
 66
     1
 10
0.0
 20
0.0
 30
0.0
 70
    16
 71
     6
 72
     3
  0
VERTEX
  5
45AFA
100
AcDbEntity
  8
0
100
AcDbVertex
100
AcDbPolygonMeshVertex
 10
0.242
 20
-0.214
 30
5.66
 70
    64
  0
VERTEX
  5
45AFB
100
AcDbEntity
  8
0
100
AcDbVertex
100
AcDbPolygonMeshVertex
 10
0.242
 20
-0.214
 30
3.668
 70
    64
  0
VERTEX
  5
45AFC
100
AcDbEntity
  8
0
100
AcDbVertex
100
AcDbPolygonMeshVertex
 10
0.242
 20
-0.214
 30
3.668
 70
    64
  0
VERTEX
  5
45AFD
100
AcDbEntity
  8
0
100
AcDbVertex
100
AcDbPolygonMeshVertex
 10
-1.121
 20
-0.214
 30
5.66
 70
    64
  0
VERTEX
  5
45AFE
100
AcDbEntity
  8
0
100
AcDbVertex
100
AcDbPolygonMeshVertex
 10
-1.121
 20
-0.214
 30
3.668
 70
    64
  0
VERTEX
  5
45AFF
100
AcDbEntity
  8
0
100
AcDbVertex
100
AcDbPolygonMeshVertex
 10
-1.121
 20
-0.214
 30
3.668
 70
    64
  0
VERTEX
  5
45B00
100
AcDbEntity
  8
0
100
AcDbVertex
100
AcDbPolygonMeshVertex
 10
-1.121
 20
5.385
 30
5.66
 70
    64
  0
VERTEX
  5
45B01
100
AcDbEntity
  8
0
100
AcDbVertex
100
AcDbPolygonMeshVertex
 10
-1.121
 20
5.385
 30
3.668
 70
    64
  0
VERTEX
  5
45B02
100
AcDbEntity
  8
0
100
AcDbVertex
100
AcDbPolygonMeshVertex
 10
-1.121
 20
-0.214
 30
3.668
 70
    64
  0
VERTEX
  5
45B03
100
AcDbEntity
  8
0
100
AcDbVertex
100
AcDbPolygonMeshVertex
 10
0.242
 20
5.385
 30
5.66
 70
    64
  0
VERTEX
  5
45B04
100
AcDbEntity
  8
0
100
AcDbVertex
100
AcDbPolygonMeshVertex
 10
0.242
 20
5.385
 30
3.668
 70
    64
  0
VERTEX
  5
45B05
100
AcDbEntity
  8
0
100
AcDbVertex
100
AcDbPolygonMeshVertex
 10
0.242
 20
-0.214
 30
3.668
 70
    64
  0
VERTEX
  5
45B06
100
AcDbEntity
  8
0
100
AcDbVertex
100
AcDbPolygonMeshVertex
 10
0.242
 20
5.385
 30
5.66
 70
    64
  0
VERTEX
  5
45B07
100
AcDbEntity
  8
0
100
AcDbVertex
100
AcDbPolygonMeshVertex
 10
0.242
 20
5.385
 30
5.66
 70
    64
  0
VERTEX
  5
45B08
100
AcDbEntity
  8
0
100
AcDbVertex
100
AcDbPolygonMeshVertex
 10
0.242
 20
-0.214
 30
5.66
 70
    64
  0
VERTEX
  5
45B09
100
AcDbEntity
  8
0
100
AcDbVertex
100
AcDbPolygonMeshVertex
 10
-1.121
 20
5.385
 30
5.66
 70
    64
  0
VERTEX
  5
45B0A
100
AcDbEntity
  8
0
100
AcDbVertex
100
AcDbPolygonMeshVertex
 10
-1.121
 20
5.385
 30
5.66
 70
    64
  0
VERTEX
  5
45B0B
100
AcDbEntity
  8
0
100
AcDbVertex
100
AcDbPolygonMeshVertex
 10
-1.121
 20
-0.214
 30
5.66
 70
    64
  0
SEQEND
  5
45B0C
100
AcDbEntity
  8
0
  0
POINT
  5
45B0D
100
AcDbEntity
  8
SNAP_POINTS
100
AcDbPoint
 10
0.0
 20
0.0
 30
0.0
  0
LINE
  5
45B0E
100
AcDbEntity
  8
0
100
AcDbLine
 10
0.242
 20
0.134
 30
5.66
 11
-1.121
 21
0.134
 31
5.66
  0
LINE
  5
45B0F
100
AcDbEntity
  8
0
100
AcDbLine
 10
0.242
 20
0.454
 30
5.66
 11
-1.121
 21
0.454
 31
5.66
  0
LINE
  5
45B10
100
AcDbEntity
  8
0
100
AcDbLine
 10
0.242
 20
0.774
 30
5.66
 11
-1.121
 21
0.774
 31
5.66
  0
LINE
  5
45B11
100
AcDbEntity
  8
0
100
AcDbLine
 10
0.242
 20
1.394
 30
5.66
 11
-1.121
 21
1.394
 31
5.66
  0
LINE
  5
45B12
100
AcDbEntity
  8
0
100
AcDbLine
 10
0.242
 20
1.714
 30
5.66
 11
-1.121
 21
1.714
 31
5.66
  0
LINE
  5
45B13
100
AcDbEntity
  8
0
100
AcDbLine
 10
0.242
 20
2.034
 30
5.66
 11
-1.121
 21
2.034
 31
5.66
  0
LINE
  5
45B14
100
AcDbEntity
  8
0
100
AcDbLine
 10
0.103792
 20
-0.214
 30
5.424972
 11
-1.121
 21
-0.214
 31
5.424972
210
0.0
220
-1.0
230
0.0
  0
LINE
  5
45B15
100
AcDbEntity
  8
0
100
AcDbLine
 10
0.242
 20
1.044
 30
5.66
 11
-1.121
 21
1.044
 31
5.66
  0
LINE
  5
45B16
100
AcDbEntity
  8
0
100
AcDbLine
 10
0.242
 20
1.124
 30
5.66
 11
-1.121
 21
1.124
 31
5.66
  0
LINE
  5
45B17
100
AcDbEntity
  8
0
100
AcDbLine
 10
-0.12
 20
-0.305
 30
3.718
 11
-0.759
 21
-0.305
 31
3.718
210
0.0
220
-1.0
230
0.0
  0
LINE
  5
45B18
100
AcDbEntity
  8
0
100
AcDbLine
 10
-0.12
 20
-0.305
 30
3.768
 11
-0.759
 21
-0.305
 31
3.768
210
0.0
220
-1.0
230
0.0
  0
LINE
  5
45B19
100
AcDbEntity
  8
0
100
AcDbLine
 10
-0.12
 20
-0.305
 30
3.818
 11
-0.759
 21
-0.305
 31
3.818
210
0.0
220
-1.0
230
0.0
  0
LINE
  5
45B1A
100
AcDbEntity
  8
0
100
AcDbLine
 10
-0.12
 20
-0.305
 30
3.868
 11
-0.759
 21
-0.305
 31
3.868
210
0.0
220
-1.0
230
0.0
  0
LINE
  5
45B1B
100
AcDbEntity
  8
0
100
AcDbLine
 10
-0.12
 20
-0.305
 30
3.918
 11
-0.759
 21
-0.305
 31
3.918
210
0.0
220
-1.0
230
0.0
  0
LINE
  5
45B1C
100
AcDbEntity
  8
0
100
AcDbLine
 10
-0.12
 20
-0.305
 30
3.968
 11
-0.759
 21
-0.305
 31
3.968
210
0.0
220
-1.0
230
0.0
  0
LINE
  5
45B1D
100
AcDbEntity
  8
0
100
AcDbLine
 10
-0.12
 20
-0.305
 30
4.018
 11
-0.759
 21
-0.305
 31
4.018
210
0.0
220
-1.0
230
0.0
  0
LINE
  5
45B1E
100
AcDbEntity
  8
0
100
AcDbLine
 10
-0.12
 20
-0.305
 30
4.068
 11
-0.759
 21
-0.305
 31
4.068
210
0.0
220
-1.0
230
0.0
  0
LINE
  5
45B1F
100
AcDbEntity
  8
0
100
AcDbLine
 10
-0.12
 20
-0.305
 30
4.168
 11
-0.759
 21
-0.305
 31
4.168
210
0.0
220
-1.0
230
0.0
  0
LINE
  5
45B20
100
AcDbEntity
  8
0
100
AcDbLine
 10
-0.12
 20
-0.305
 30
4.118
 11
-0.759
 21
-0.305
 31
4.118
210
0.0
220
-1.0
230
0.0
  0
LINE
  5
45B21
100
AcDbEntity
  8
0
100
AcDbLine
 10
-0.12
 20
-0.305
 30
4.168
 11
-0.759
 21
-0.305
 31
4.168
210
0.0
220
-1.0
230
0.0
  0
LINE
  5
45B22
100
AcDbEntity
  8
0
100
AcDbLine
 10
-0.133397
 20
-0.305
 30
4.218
 11
-0.745603
 21
-0.305
 31
4.218
210
0.0
220
-1.0
230
0.0
  0
LINE
  5
45B23
100
AcDbEntity
  8
0
100
AcDbLine
 10
-0.22
 20
-0.305
 30
4.268
 11
-0.659
 21
-0.305
 31
4.268
210
0.0
220
-1.0
230
0.0
  0
POLYLINE
  5
45B24
100
AcDbEntity
  8
0
100
AcDbPolygonMesh
 66
     1
 10
0.0
 20
0.0
 30
0.0
 70
    16
 71
     6
 72
     3
  0
VERTEX
  5
45B25
100
AcDbEntity
  8
0
100
AcDbVertex
100
AcDbPolygonMeshVertex
 10
0.242
 20
-0.305
 30
4.568
 70
    64
  0
VERTEX
  5
45B26
100
AcDbEntity
  8
0
100
AcDbVertex
100
AcDbPolygonMeshVertex
 10
0.242
 20
-0.305
 30
3.668
 70
    64
  0
VERTEX
  5
45B27
100
AcDbEntity
  8
0
100
AcDbVertex
100
AcDbPolygonMeshVertex
 10
0.242
 20
-0.305
 30
3.668
 70
    64
  0
VERTEX
  5
45B28
100
AcDbEntity
  8
0
100
AcDbVertex
100
AcDbPolygonMeshVertex
 10
-1.121
 20
-0.305
 30
4.568
 70
    64
  0
VERTEX
  5
45B29
100
AcDbEntity
  8
0
100
AcDbVertex
100
AcDbPolygonMeshVertex
 10
-1.121
 20
-0.305
 30
3.668
 70
    64
  0
VERTEX
  5
45B2A
100
AcDbEntity
  8
0
100
AcDbVertex
100
AcDbPolygonMeshVertex
 10
-1.121
 20
-0.305
 30
3.668
 70
    64
  0
VERTEX
  5
45B2B
100
AcDbEntity
  8
0
100
AcDbVertex
100
AcDbPolygonMeshVertex
 10
-1.121
 20
-0.214
 30
4.568
 70
    64
  0
VERTEX
  5
45B2C
100
AcDbEntity
  8
0
100
AcDbVertex
100
AcDbPolygonMeshVertex
 10
-1.121
 20
-0.214
 30
3.668
 70
    64
  0
VERTEX
  5
45B2D
100
AcDbEntity
  8
0
100
AcDbVertex
100
AcDbPolygonMeshVertex
 10
-1.121
 20
-0.305
 30
3.668
 70
    64
  0
VERTEX
  5
45B2E
100
AcDbEntity
  8
0
100
AcDbVertex
100
AcDbPolygonMeshVertex
 10
0.242
 20
-0.214
 30
4.568
 70
    64
  0
VERTEX
  5
45B2F
100
AcDbEntity
  8
0
100
AcDbVertex
100
AcDbPolygonMeshVertex
 10
0.242
 20
-0.214
 30
3.668
 70
    64
  0
VERTEX
  5
45B30
100
AcDbEntity
  8
0
100
AcDbVertex
100
AcDbPolygonMeshVertex
 10
0.242
 20
-0.305
 30
3.668
 70
    64
  0
VERTEX
  5
45B31
100
AcDbEntity
  8
0
100
AcDbVertex
100
AcDbPolygonMeshVertex
 10
0.242
 20
-0.214
 30
4.568
 70
    64
  0
VERTEX
  5
45B32
100
AcDbEntity
  8
0
100
AcDbVertex
100
AcDbPolygonMeshVertex
 10
0.242
 20
-0.214
 30
4.568
 70
    64
  0
VERTEX
  5
45B33
100
AcDbEntity
  8
0
100
AcDbVertex
100
AcDbPolygonMeshVertex
 10
0.242
 20
-0.305
 30
4.568
 70
    64
  0
VERTEX
  5
45B34
100
AcDbEntity
  8
0
100
AcDbVertex
100
AcDbPolygonMeshVertex
 10
-1.121
 20
-0.214
 30
4.568
 70
    64
  0
VERTEX
  5
45B35
100
AcDbEntity
  8
0
100
AcDbVertex
100
AcDbPolygonMeshVertex
 10
-1.121
 20
-0.214
 30
4.568
 70
    64
  0
VERTEX
  5
45B36
100
AcDbEntity
  8
0
100
AcDbVertex
100
AcDbPolygonMeshVertex
 10
-1.121
 20
-0.305
 30
4.568
 70
    64
  0
SEQEND
  5
45B37
100
AcDbEntity
  8
0
  0
LINE
  5
45B38
100
AcDbEntity
  8
0
100
AcDbLine
 10
-0.759
 20
-0.305
 30
4.168
 11
-0.759
 21
-0.305
 31
3.668
210
0.0
220
-1.0
230
0.0
  0
ARC
  5
45B39
100
AcDbEntity
  8
0
100
AcDbCircle
 10
-0.659
 20
4.168
 30
0.305
 40
0.1
210
0.0
220
-1.0
230
0.0
100
AcDbArc
 50
90.0
 51
180.0
  0
LINE
  5
45B3A
100
AcDbEntity
  8
0
100
AcDbLine
 10
-0.12
 20
-0.305
 30
3.668
 11
-0.12
 21
-0.305
 31
4.168
210
0.0
220
-1.0
230
0.0
  0
ARC
  5
45B3B
100
AcDbEntity
  8
0
100
AcDbCircle
 10
-0.22
 20
4.168
 30
0.305
 40
0.1
210
0.0
220
-1.0
230
0.0
100
AcDbArc
 50
0.0
 51
90.0
  0
CIRCLE
  5
45B3C
100
AcDbEntity
  8
0
100
AcDbCircle
 10
0.172287
 20
5.56054
 30
0.214
 40
0.044406
210
0.0
220
-1.0
230
0.0
  0
LINE
  5
45B3D
100
AcDbEntity
  8
0
100
AcDbLine
 10
0.103792
 20
-0.214
 30
5.66
 11
0.103792
 21
-0.214
 31
5.424972
210
0.0
220
-1.0
230
0.0
  0
LINE
  5
45B3E
100
AcDbEntity
  8
0
100
AcDbLine
 10
0.103792
 20
-0.123
 30
5.66
 11
0.103792
 21
-0.214
 31
5.66
  0
LINE
  5
45B3F
100
AcDbEntity
  8
0
100
AcDbLine
 10
0.103792
 20
-0.123
 30
5.66
 11
0.242
 21
-0.123
 31
5.66
  0
TEXT
  5
45B40
100
AcDbEntity
  8
0
  6
CONTINUOUS
 62
     9
100
AcDbText
 10
-0.9215
 20
5.2135
 30
5.66
 40
0.11625
  1
DC Output
 72
     3
 11
0.086
 21
5.2135
 31
5.66
100
AcDbText
  0
LINE
  5
45B41
100
AcDbEntity
  8
0
100
AcDbLine
 10
0.242
 20
2.354
 30
5.66
 11
-1.121
 21
2.354
 31
5.66
  0
LINE
  5
45B42
100
AcDbEntity
  8
0
100
AcDbLine
 10
0.242
 20
2.674
 30
5.66
 11
-1.121
 21
2.674
 31
5.66
  0
LINE
  5
45B43
100
AcDbEntity
  8
0
100
AcDbLine
 10
0.242
 20
2.994
 30
5.66
 11
-1.121
 21
2.994
 31
5.66
  0
LINE
  5
45B44
100
AcDbEntity
  8
0
100
AcDbLine
 10
0.242
 20
3.314
 30
5.66
 11
-1.121
 21
3.314
 31
5.66
  0
LINE
  5
45B45
100
AcDbEntity
  8
0
100
AcDbLine
 10
0.242
 20
3.634
 30
5.66
 11
-1.121
 21
3.634
 31
5.66
  0
LINE
  5
45B46
100
AcDbEntity
  8
0
100
AcDbLine
 10
0.242
 20
5.108199
 30
5.66
 11
-1.121
 21
5.108199
 31
5.66
  0
LINE
  5
45B47
100
AcDbEntity
  8
0
100
AcDbLine
 10
0.242
 20
3.954
 30
5.66
 11
-1.121
 21
3.954
 31
5.66
  0
LINE
  5
45B48
100
AcDbEntity
  8
0
100
AcDbLine
 10
0.242
 20
4.034
 30
5.66
 11
-1.121
 21
4.034
 31
5.66
  0
LINE
  5
45B49
100
AcDbEntity
  8
0
100
AcDbLine
 10
-0.22
 20
5.385
 30
4.268
 11
-0.659
 21
5.385
 31
4.268
210
0.0
220
1.0
230
0.0
  0
LINE
  5
45B4A
100
AcDbEntity
  8
0
100
AcDbLine
 10
-0.133397
 20
5.385
 30
4.218
 11
-0.745603
 21
5.385
 31
4.218
210
0.0
220
1.0
230
0.0
  0
LINE
  5
45B4B
100
AcDbEntity
  8
0
100
AcDbLine
 10
-0.12
 20
5.385
 30
4.168
 11
-0.759
 21
5.385
 31
4.168
210
0.0
220
1.0
230
0.0
  0
LINE
  5
45B4C
100
AcDbEntity
  8
0
100
AcDbLine
 10
-0.12
 20
5.385
 30
4.118
 11
-0.759
 21
5.385
 31
4.118
210
0.0
220
1.0
230
0.0
  0
LINE
  5
45B4D
100
AcDbEntity
  8
0
100
AcDbLine
 10
-0.12
 20
5.385
 30
4.168
 11
-0.759
 21
5.385
 31
4.168
210
0.0
220
1.0
230
0.0
  0
LINE
  5
45B4E
100
AcDbEntity
  8
0
100
AcDbLine
 10
-0.12
 20
5.385
 30
4.068
 11
-0.759
 21
5.385
 31
4.068
210
0.0
220
1.0
230
0.0
  0
LINE
  5
45B4F
100
AcDbEntity
  8
0
100
AcDbLine
 10
-0.12
 20
5.385
 30
4.018
 11
-0.759
 21
5.385
 31
4.018
210
0.0
220
1.0
230
0.0
  0
LINE
  5
45B50
100
AcDbEntity
  8
0
100
AcDbLine
 10
-0.12
 20
5.385
 30
3.968
 11
-0.759
 21
5.385
 31
3.968
210
0.0
220
1.0
230
0.0
  0
LINE
  5
45B51
100
AcDbEntity
  8
0
100
AcDbLine
 10
-0.12
 20
5.385
 30
3.918
 11
-0.759
 21
5.385
 31
3.918
210
0.0
220
1.0
230
0.0
  0
LINE
  5
45B52
100
AcDbEntity
  8
0
100
AcDbLine
 10
-0.12
 20
5.385
 30
3.868
 11
-0.759
 21
5.385
 31
3.868
210
0.0
220
1.0
230
0.0
  0
LINE
  5
45B53
100
AcDbEntity
  8
0
100
AcDbLine
 10
-0.12
 20
5.385
 30
3.818
 11
-0.759
 21
5.385
 31
3.818
210
0.0
220
1.0
230
0.0
  0
LINE
  5
45B54
100
AcDbEntity
  8
0
100
AcDbLine
 10
-0.12
 20
5.385
 30
3.768
 11
-0.759
 21
5.385
 31
3.768
210
0.0
220
1.0
230
0.0
  0
LINE
  5
45B55
100
AcDbEntity
  8
0
100
AcDbLine
 10
-0.12
 20
5.385
 30
3.718
 11
-0.759
 21
5.385
 31
3.718
210
0.0
220
1.0
230
0.0
  0
POLYLINE
  5
45B56
100
AcDbEntity
  8
0
100
AcDbPolygonMesh
 66
     1
 10
0.0
 20
0.0
 30
0.0
 70
    16
 71
     6
 72
     3
  0
VERTEX
  5
45B57
100
AcDbEntity
  8
0
100
AcDbVertex
100
AcDbPolygonMeshVertex
 10
0.242
 20
5.385
 30
4.568
 70
    64
  0
VERTEX
  5
45B58
100
AcDbEntity
  8
0
100
AcDbVertex
100
AcDbPolygonMeshVertex
 10
0.242
 20
5.385
 30
3.668
 70
    64
  0
VERTEX
  5
45B59
100
AcDbEntity
  8
0
100
AcDbVertex
100
AcDbPolygonMeshVertex
 10
0.242
 20
5.385
 30
3.668
 70
    64
  0
VERTEX
  5
45B5A
100
AcDbEntity
  8
0
100
AcDbVertex
100
AcDbPolygonMeshVertex
 10
-1.121
 20
5.385
 30
4.568
 70
    64
  0
VERTEX
  5
45B5B
100
AcDbEntity
  8
0
100
AcDbVertex
100
AcDbPolygonMeshVertex
 10
-1.121
 20
5.385
 30
3.668
 70
    64
  0
VERTEX
  5
45B5C
100
AcDbEntity
  8
0
100
AcDbVertex
100
AcDbPolygonMeshVertex
 10
-1.121
 20
5.385
 30
3.668
 70
    64
  0
VERTEX
  5
45B5D
100
AcDbEntity
  8
0
100
AcDbVertex
100
AcDbPolygonMeshVertex
 10
-1.121
 20
5.294
 30
4.568
 70
    64
  0
VERTEX
  5
45B5E
100
AcDbEntity
  8
0
100
AcDbVertex
100
AcDbPolygonMeshVertex
 10
-1.121
 20
5.294
 30
3.668
 70
    64
  0
VERTEX
  5
45B5F
100
AcDbEntity
  8
0
100
AcDbVertex
100
AcDbPolygonMeshVertex
 10
-1.121
 20
5.385
 30
3.668
 70
    64
  0
VERTEX
  5
45B60
100
AcDbEntity
  8
0
100
AcDbVertex
100
AcDbPolygonMeshVertex
 10
0.242
 20
5.294
 30
4.568
 70
    64
  0
VERTEX
  5
45B61
100
AcDbEntity
  8
0
100
AcDbVertex
100
AcDbPolygonMeshVertex
 10
0.242
 20
5.294
 30
3.668
 70
    64
  0
VERTEX
  5
45B62
100
AcDbEntity
  8
0
100
AcDbVertex
100
AcDbPolygonMeshVertex
 10
0.242
 20
5.385
 30
3.668
 70
    64
  0
VERTEX
  5
45B63
100
AcDbEntity
  8
0
100
AcDbVertex
100
AcDbPolygonMeshVertex
 10
0.242
 20
5.294
 30
4.568
 70
    64
  0
VERTEX
  5
45B64
100
AcDbEntity
  8
0
100
AcDbVertex
100
AcDbPolygonMeshVertex
 10
0.242
 20
5.294
 30
4.568
 70
    64
  0
VERTEX
  5
45B65
100
AcDbEntity
  8
0
100
AcDbVertex
100
AcDbPolygonMeshVertex
 10
0.242
 20
5.385
 30
4.568
 70
    64
  0
VERTEX
  5
45B66
100
AcDbEntity
  8
0
100
AcDbVertex
100
AcDbPolygonMeshVertex
 10
-1.121
 20
5.294
 30
4.568
 70
    64
  0
VERTEX
  5
45B67
100
AcDbEntity
  8
0
100
AcDbVertex
100
AcDbPolygonMeshVertex
 10
-1.121
 20
5.294
 30
4.568
 70
    64
  0
VERTEX
  5
45B68
100
AcDbEntity
  8
0
100
AcDbVertex
100
AcDbPolygonMeshVertex
 10
-1.121
 20
5.385
 30
4.568
 70
    64
  0
SEQEND
  5
45B69
100
AcDbEntity
  8
0
  0
LINE
  5
45B6A
100
AcDbEntity
  8
0
100
AcDbLine
 10
-1.121
 20
3.954
 30
5.66
 11
-1.121
 21
3.954
 31
5.424972
210
0.0
220
-1.0
230
0.0
  0
LINE
  5
45B6B
100
AcDbEntity
  8
0
100
AcDbLine
 10
-0.759
 20
5.385
 30
4.168
 11
-0.759
 21
5.385
 31
3.668
210
0.0
220
1.0
230
0.0
  0
ARC
  5
45B6C
100
AcDbEntity
  8
0
100
AcDbCircle
 10
0.659
 20
4.168
 30
5.385
 40
0.1
210
0.0
220
1.0
230
0.0
100
AcDbArc
 50
0.0
 51
90.0
  0
LINE
  5
45B6D
100
AcDbEntity
  8
0
100
AcDbLine
 10
0.103792
 20
4.034
 30
5.66
 11
0.103792
 21
3.954
 31
5.66
  0
LINE
  5
45B6E
100
AcDbEntity
  8
0
100
AcDbLine
 10
0.0545
 20
4.948
 30
5.66
 11
0.0545
 21
4.698
 31
5.66
  0
LINE
  5
45B6F
100
AcDbEntity
  8
0
100
AcDbLine
 10
0.1795
 20
4.948
 30
5.66
 11
0.1795
 21
4.698
 31
5.66
  0
3DFACE
  5
45B70
100
AcDbEntity
  8
0
100
AcDbFace
 10
0.18
 20
4.698
 30
5.785
 11
0.055
 21
4.698
 31
5.785
 12
0.055
 22
4.823
 32
5.785
 13
0.18
 23
4.823
 33
5.785
  0
LINE
  5
45B71
100
AcDbEntity
  8
0
100
AcDbLine
 10
0.1795
 20
4.698
 30
5.66
 11
0.0545
 21
4.698
 31
5.66
  0
LINE
  5
45B72
100
AcDbEntity
  8
0
100
AcDbLine
 39
0.125
 10
0.055
 20
4.698
 30
5.66
 11
0.18
 21
4.698
 31
5.66
  0
LINE
  5
45B73
100
AcDbEntity
  8
0
100
AcDbLine
 39
0.125
 10
0.055
 20
4.823
 30
5.66
 11
0.18
 21
4.823
 31
5.66
  0
LINE
  5
45B74
100
AcDbEntity
  8
0
100
AcDbLine
 39
0.125
 10
0.055
 20
4.823
 30
5.66
 11
0.055
 21
4.698
 31
5.66
  0
LINE
  5
45B75
100
AcDbEntity
  8
0
100
AcDbLine
 39
0.125
 10
0.18
 20
4.698
 30
5.66
 11
0.18
 21
4.823
 31
5.66
  0
LINE
  5
45B76
100
AcDbEntity
  8
0
100
AcDbLine
 10
0.0545
 20
4.948
 30
5.66
 11
0.1795
 21
4.948
 31
5.66
  0
LINE
  5
45B77
100
AcDbEntity
  8
0
100
AcDbLine
 10
-0.12
 20
5.385
 30
3.668
 11
-0.12
 21
5.385
 31
4.168
210
0.0
220
1.0
230
0.0
  0
ARC
  5
45B78
100
AcDbEntity
  8
0
100
AcDbCircle
 10
0.22
 20
4.168
 30
5.385
 40
0.1
210
0.0
220
1.0
230
0.0
100
AcDbArc
 50
90.0
 51
180.0
  0
DIMENSION
  5
45B7A
100
AcDbEntity
  8
AREA1
100
AcDbDimension
  2
*D1
 10
1.197176
 20
5.385
 30
0.0
 11
1.197176
 21
2.54
 31
0.0
 70
    32
  3
ABECAD_3D
100
AcDbAlignedDimension
 13
0.242
 23
-0.305
 33
3.668
 14
0.242
 24
5.385
 34
3.668
 50
90.0
100
AcDbRotatedDimension
  0
DIMENSION
  5
45B88
100
AcDbEntity
  8
AREA1
100
AcDbDimension
  2
*D2
 10
0.242
 20
5.890648
 30
0.0
 11
1.057
 21
5.890648
 31
0.0
 70
    32
  3
ABECAD_3D
100
AcDbAlignedDimension
 13
-1.121
 23
5.385
 33
3.668
 14
0.242
 24
5.385
 34
3.668
100
AcDbRotatedDimension
  0
ENDSEC
  0
SECTION
  2
OBJECTS
  0
DICTIONARY
  5
458CB
100
AcDbDictionary
  3
ACAD_GROUP
350
458CC
  3
ACAD_LAYOUT
350
458FB
  3
ACAD_MLINESTYLE
350
458D9
  3
ACAD_PLOTSETTINGS
350
458FC
  3
ACAD_PLOTSTYLENAME
350
458F9
  3
ACDBHEADERROUNDTRIPXREC
350
45C0B
  3
ACDBVARIABLEDICTIONARY
350
458E1
  3
DWGPROPS
350
45901
  0
DICTIONARY
  5
45C09
100
AcDbDictionary
280
     1
  3
ACAD_XREC_ROUNDTRIP
360
45C0A
  0
DICTIONARY
  5
45C34
100
AcDbDictionary
280
     1
  3
ACAD_XREC_ROUNDTRIP
360
45C35
  0
DICTIONARY
  5
45C07
100
AcDbDictionary
280
     1
  3
ACAD_XREC_ROUNDTRIP
360
45C08
  0
DICTIONARY
  5
45C2E
100
AcDbDictionary
280
     1
  3
ACAD_XREC_ROUNDTRIP
360
45C2F
  0
DICTIONARY
  5
45C30
100
AcDbDictionary
280
     1
  3
ACAD_XREC_ROUNDTRIP
360
45C31
  0
DICTIONARY
  5
4592C
100
AcDbDictionary
280
     1
  3
ACAD_LAYOUTSELFREF
360
45C2D
  0
DICTIONARY
  5
4592A
100
AcDbDictionary
280
     1
  3
ACAD_LAYOUTSELFREF
360
45C2C
  0
DICTIONARY
  5
45C05
100
AcDbDictionary
280
     1
  3
ACAD_XREC_ROUNDTRIP
360
45C06
  0
DICTIONARY
  5
458CC
102
{ACAD_REACTORS
330
458CB
102
}
100
AcDbDictionary
  0
DICTIONARY
  5
458FB
102
{ACAD_XDICTIONARY
360
45C32
102
}
102
{ACAD_REACTORS
330
458CB
102
}
100
AcDbDictionary
  3
LAYOUT1
350
458FE
  3
MODEL
350
458FD
  0
DICTIONARY
  5
458D9
102
{ACAD_REACTORS
330
458CB
102
}
100
AcDbDictionary
  3
STANDARD
350
458DA
  0
DICTIONARY
  5
458FC
102
{ACAD_REACTORS
330
458CB
102
}
100
AcDbDictionary
  0
ACAD_PROXY_OBJECT
  5
458F9
102
{ACAD_REACTORS
330
458CB
102
}
100
AcDbProxyObject
 90
      499
 91
      501
 93
       86
310
405010041939BDC9B585B1
350
458FA
340
458FA
 94
        0
  0
DICTIONARY
  5
45C0B
102
{ACAD_REACTORS
330
458CB
102
}
100
AcDbDictionary
  3
CEPSNTYPE
350
45C15
  3
DIMSTYLEDATA
350
45C19
  3
FINGERPRINTGUID
350
45C16
  3
HYPERLINKBASE
350
45C0E
  3
INSUNITS
350
45C14
  3
LAYOUTDICT
350
45C10
  3
LWETCUNION
350
45C13
  3
PLOTSETDICT
350
45C11
  3
PLOTSTYLNAMDICT
350
45C12
  3
PSVPSCALE
350
45C18
  3
PUCSBASE
350
45C1C
  3
PUCSORGBACK
350
45C22
  3
PUCSORGBOTTOM
350
45C1E
  3
PUCSORGFRONT
350
45C21
  3
PUCSORGLEFT
350
45C1F
  3
PUCSORGRIGHT
350
45C20
  3
PUCSORGTOP
350
45C1D
  3
PUCSORTHOREF
350
45C1A
  3
PUCSORTHOVIEW
350
45C1B
  3
STYLESHEET
350
45C0F
  3
TSTACKALIGN
350
45C0C
  3
TSTACKSIZE
350
45C0D
  3
UCSBASE
350
45C25
  3
UCSORGBACK
350
45C2B
  3
UCSORGBOTTOM
350
45C27
  3
UCSORGFRONT
350
45C2A
  3
UCSORGLEFT
350
45C28
  3
UCSORGRIGHT
350
45C29
  3
UCSORGTOP
350
45C26
  3
UCSORTHOREF
350
45C23
  3
UCSORTHOVIEW
350
45C24
  3
VERSIONGUID
350
45C17
  0
DICTIONARY
  5
458E1
102
{ACAD_REACTORS
330
458CB
102
}
100
AcDbDictionary
  3
DIMADEC
350
458E2
  0
XRECORD
  5
45901
102
{ACAD_REACTORS
330
458CB
102
}
100
AcDbXrecord
  1
DWGPROPS COOKIE
  2

  3

  4

  6

  7

  8
colin
  9

300
=
301
=
302
=
303
=
304
=
305
=
306
=
307
=
308
=
309
=
 40
0.000599
 41
2451670.444777
 42
2451670.445376
  1

 90
        0
  0
XRECORD
  5
45C0A
102
{ACAD_REACTORS
330
45C09
102
}
100
AcDbXrecord
102
EXTNAMES
  1
*ACTIVE
  2
*Active
102
UCS
 74
     0
 71
     1
 10
0.0
 20
0.0
 30
0.0
 10
1.0
 20
0.0
 30
0.0
 10
0.0
 20
1.0
 30
0.0
146
0.0
 79
     1
102
VIEW
281
     0
  0
XRECORD
  5
45C35
102
{ACAD_REACTORS
330
45C34
102
}
100
AcDbXrecord
102
PLOTBIT
280
     0
  0
XRECORD
  5
45C08
102
{ACAD_REACTORS
330
45C07
102
}
100
AcDbXrecord
102
EXTNAMES
  1
DEFPOINTS
  2
Defpoints
102
PLOTBIT
280
     0
  0
XRECORD
  5
45C2F
102
{ACAD_REACTORS
330
45C2E
102
}
100
AcDbXrecord
102
ACADR14ROUNDTRIP
1000
DSTYLE
1002
{
1070
   276
 70
     2
1070
   277
 70
     5
1002
}
  0
XRECORD
  5
45C31
102
{ACAD_REACTORS
330
45C30
102
}
100
AcDbXrecord
102
ACADR14ROUNDTRIP
1000
DSTYLE
1002
{
1070
   276
 70
     2
1070
   277
 70
     5
1002
}
  0
XRECORD
  5
45C2D
102
{ACAD_REACTORS
330
4592C
102
}
100
AcDbXrecord
340
458D6
  0
XRECORD
  5
45C2C
102
{ACAD_REACTORS
330
4592A
102
}
100
AcDbXrecord
340
458D3
  0
XRECORD
  5
45C06
102
{ACAD_REACTORS
330
45C05
102
}
100
AcDbXrecord
102
EXTNAMES
  1
SCALE
  2
scale
  0
DICTIONARY
  5
45C32
100
AcDbDictionary
280
     1
  3
ACAD_XREC_ROUNDTRIP
360
45C33
  0
ACAD_PROXY_OBJECT
  5
458FE
102
{ACAD_REACTORS
330
458FB
102
}
100
AcDbProxyObject
 90
      499
 91
      503
 93
     1348
310
91D4850204C617365724A65742035303030205365726965732050434C20362C00AAAAAA416AA547D11959985D5B1D08148C4D081C195B88185CDCDA59DB9B595B9D1CCB98DD1891069074C61796F75743140501A800000000000000000000000000000000000000000000A1000000000000008902A6A6A10232D5E076BC551
310
0408CB5781DAF154410232D5E076BC5510408CB5781DAF15C410232D5E076BC5710408CB5781DAF15C40
330
458D3
330
0
340
0
340
0
 94
        0
  0
ACAD_PROXY_OBJECT
  5
458FD
102
{ACAD_REACTORS
330
458FB
102
}
100
AcDbProxyObject
 90
      499
 91
      503
 93
      924
310
91D4850204C617365724A65742035303030205365726965732050434C20362C01AAAAAAAAA547D11959985D5B1D08148C4D081C195B88185CDCDA59DB9B595B9D1CCB98DD18A69054D6F64656C901A800000000000000000000000000000000000000000000A1000000000000008902A6A6AAAA0
330
458D6
330
0
340
0
340
0
 94
        0
  0
MLINESTYLE
  5
458DA
102
{ACAD_REACTORS
330
458D9
102
}
100
AcDbMlineStyle
  2
STANDARD
 70
     0
  3

 62
   256
 51
90.0
 52
90.0
 71
     2
 49
0.5
 62
   256
  6
BYLAYER
 49
-0.5
 62
   256
  6
BYLAYER
  0
ACAD_PROXY_OBJECT
  5
458FA
102
{ACAD_REACTORS
330
458F9
102
}
100
AcDbProxyObject
 90
      499
 91
      502
 93
        0
 94
        0
  0
XRECORD
  5
45C15
102
{ACAD_REACTORS
330
45C0B
102
}
100
AcDbXrecord
 90
        0
  0
XRECORD
  5
45C19
102
{ACAD_REACTORS
330
45C0B
102
}
100
AcDbXrecord
1000
DSTYLE
1002
{
1070
   276
 70
     2
1070
   277
 70
     5
1002
}
  0
XRECORD
  5
45C16
102
{ACAD_REACTORS
330
45C0B
102
}
100
AcDbXrecord
  1
{6E0CF4B8-225E-11D4-A150-00A0CC3303EC}
  0
XRECORD
  5
45C0E
102
{ACAD_REACTORS
330
45C0B
102
}
100
AcDbXrecord
  1

  0
XRECORD
  5
45C14
102
{ACAD_REACTORS
330
45C0B
102
}
100
AcDbXrecord
 90
        0
  0
XRECORD
  5
45C10
102
{ACAD_REACTORS
330
45C0B
102
}
100
AcDbXrecord
340
458FB
  0
XRECORD
  5
45C13
102
{ACAD_REACTORS
330
45C0B
102
}
100
AcDbXrecord
 90
    14877
  0
XRECORD
  5
45C11
102
{ACAD_REACTORS
330
45C0B
102
}
100
AcDbXrecord
340
458FC
  0
XRECORD
  5
45C12
102
{ACAD_REACTORS
330
45C0B
102
}
100
AcDbXrecord
340
458F9
  0
XRECORD
  5
45C18
102
{ACAD_REACTORS
330
45C0B
102
}
100
AcDbXrecord
 40
0.0
  0
XRECORD
  5
45C1C
102
{ACAD_REACTORS
330
45C0B
102
}
100
AcDbXrecord
340
0
  0
XRECORD
  5
45C22
102
{ACAD_REACTORS
330
45C0B
102
}
100
AcDbXrecord
 10
0.0
 20
0.0
 30
0.0
  0
XRECORD
  5
45C1E
102
{ACAD_REACTORS
330
45C0B
102
}
100
AcDbXrecord
 10
0.0
 20
0.0
 30
0.0
  0
XRECORD
  5
45C21
102
{ACAD_REACTORS
330
45C0B
102
}
100
AcDbXrecord
 10
0.0
 20
0.0
 30
0.0
  0
XRECORD
  5
45C1F
102
{ACAD_REACTORS
330
45C0B
102
}
100
AcDbXrecord
 10
0.0
 20
0.0
 30
0.0
  0
XRECORD
  5
45C20
102
{ACAD_REACTORS
330
45C0B
102
}
100
AcDbXrecord
 10
0.0
 20
0.0
 30
0.0
  0
XRECORD
  5
45C1D
102
{ACAD_REACTORS
330
45C0B
102
}
100
AcDbXrecord
 10
0.0
 20
0.0
 30
0.0
  0
XRECORD
  5
45C1A
102
{ACAD_REACTORS
330
45C0B
102
}
100
AcDbXrecord
340
0
  0
XRECORD
  5
45C1B
102
{ACAD_REACTORS
330
45C0B
102
}
100
AcDbXrecord
 70
     0
  0
XRECORD
  5
45C0F
102
{ACAD_REACTORS
330
45C0B
102
}
100
AcDbXrecord
  1

  0
XRECORD
  5
45C0C
102
{ACAD_REACTORS
330
45C0B
102
}
100
AcDbXrecord
 90
        1
  0
XRECORD
  5
45C0D
102
{ACAD_REACTORS
330
45C0B
102
}
100
AcDbXrecord
 90
       70
  0
XRECORD
  5
45C25
102
{ACAD_REACTORS
330
45C0B
102
}
100
AcDbXrecord
340
0
  0
XRECORD
  5
45C2B
102
{ACAD_REACTORS
330
45C0B
102
}
100
AcDbXrecord
 10
0.0
 20
0.0
 30
0.0
  0
XRECORD
  5
45C27
102
{ACAD_REACTORS
330
45C0B
102
}
100
AcDbXrecord
 10
0.0
 20
0.0
 30
0.0
  0
XRECORD
  5
45C2A
102
{ACAD_REACTORS
330
45C0B
102
}
100
AcDbXrecord
 10
0.0
 20
0.0
 30
0.0
  0
XRECORD
  5
45C28
102
{ACAD_REACTORS
330
45C0B
102
}
100
AcDbXrecord
 10
0.0
 20
0.0
 30
0.0
  0
XRECORD
  5
45C29
102
{ACAD_REACTORS
330
45C0B
102
}
100
AcDbXrecord
 10
0.0
 20
0.0
 30
0.0
  0
XRECORD
  5
45C26
102
{ACAD_REACTORS
330
45C0B
102
}
100
AcDbXrecord
 10
0.0
 20
0.0
 30
0.0
  0
XRECORD
  5
45C23
102
{ACAD_REACTORS
330
45C0B
102
}
100
AcDbXrecord
340
0
  0
XRECORD
  5
45C24
102
{ACAD_REACTORS
330
45C0B
102
}
100
AcDbXrecord
 70
     1
  0
XRECORD
  5
45C17
102
{ACAD_REACTORS
330
45C0B
102
}
100
AcDbXrecord
  1
{7722D162-F4B5-42A5-B52E-88202C87276A}
  0
DICTIONARYVAR
  5
458E2
102
{ACAD_REACTORS
330
458E1
102
}
100
DictionaryVariables
280
     0
  1
0
  0
XRECORD
  5
45C33
102
{ACAD_REACTORS
330
45C32
102
}
100
AcDbXrecord
102
EXTNAMES
  1
LAYOUT1
  2
Layout1
  1
MODEL
  2
Model
  0
ENDSEC
  0
EOF
