  0
SECTION
  2
HEADER
  9
$ACADVER
  1
AC1014
  9
$ACADMAINTVER
 70
     8
  9
$DWGCODEPAGE
  3
ANSI_1252
  9
$INSBASE
 10
0.0
 20
0.0
 30
0.0
  9
$EXTMIN
 10
-1.121
 20
-1.392751
 30
0.0
  9
$EXTMAX
 10
1.717
 20
6.244096
 30
5.785
  9
$LIMMIN
 10
0.0
 20
0.0
  9
$LIMMAX
 10
12.0
 20
9.0
  9
$ORTHOMODE
 70
     0
  9
$REGENMODE
 70
     1
  9
$FILLMODE
 70
     1
  9
$QTEXTMODE
 70
     0
  9
$MIRRTEXT
 70
     1
  9
$DRAGMODE
 70
     2
  9
$LTSCALE
 40
1.0
  9
$OSMODE
 70
    37
  9
$ATTMODE
 70
     1
  9
$TEXTSIZE
 40
0.12
  9
$TRACEWID
 40
0.05
  9
$TEXTSTYLE
  7
STANDARD
  9
$CLAYER
  8
0
  9
$CELTYPE
  6
BYLAYER
  9
$CECOLOR
 62
   256
  9
$CELTSCALE
 40
1.0
  9
$DELOBJ
 70
     1
  9
$DISPSILH
 70
     0
  9
$DIMSCALE
 40
1.0
  9
$DIMASZ
 40
0.11
  9
$DIMEXO
 40
0.0625
  9
$DIMDLI
 40
0.375
  9
$DIMRND
 40
0.0
  9
$DIMDLE
 40
0.0
  9
$DIMEXE
 40
0.11
  9
$DIMTP
 40
0.0
  9
$DIMTM
 40
0.0
  9
$DIMTXT
 40
0.11
  9
$DIMCEN
 40
0.09
  9
$DIMTSZ
 40
0.0
  9
$DIMTOL
 70
     0
  9
$DIMLIM
 70
     0
  9
$DIMTIH
 70
     0
  9
$DIMTOH
 70
     1
  9
$DIMSE1
 70
     0
  9
$DIMSE2
 70
     0
  9
$DIMTAD
 70
     0
  9
$DIMZIN
 70
     4
  9
$DIMBLK
  1

  9
$DIMASO
 70
     1
  9
$DIMSHO
 70
     1
  9
$DIMPOST
  1

  9
$DIMAPOST
  1

  9
$DIMALT
 70
     1
  9
$DIMALTD
 70
     1
  9
$DIMALTF
 40
25.4
  9
$DIMLFAC
 40
1.0
  9
$DIMTOFL
 70
     0
  9
$DIMTVP
 40
0.0
  9
$DIMTIX
 70
     0
  9
$DIMSOXD
 70
     0
  9
$DIMSAH
 70
     0
  9
$DIMBLK1
  1

  9
$DIMBLK2
  1

  9
$DIMSTYLE
  2
ABECAD_3D
  9
$DIMCLRD
 70
     0
  9
$DIMCLRE
 70
     0
  9
$DIMCLRT
 70
     0
  9
$DIMTFAC
 40
1.5
  9
$DIMGAP
 40
0.045
  9
$DIMJUST
 70
     0
  9
$DIMSD1
 70
     0
  9
$DIMSD2
 70
     0
  9
$DIMTOLJ
 70
     1
  9
$DIMTZIN
 70
     4
  9
$DIMALTZ
 70
     4
  9
$DIMALTTZ
 70
     4
  9
$DIMFIT
 70
     3
  9
$DIMUPT
 70
     0
  9
$DIMUNIT
 70
     7
  9
$DIMDEC
 70
     6
  9
$DIMTDEC
 70
     6
  9
$DIMALTU
 70
     2
  9
$DIMALTTD
 70
     1
  9
$DIMTXSTY
  7
STANDARD
  9
$DIMAUNIT
 70
     0
  9
$LUNITS
 70
     2
  9
$LUPREC
 70
     4
  9
$SKETCHINC
 40
0.1
  9
$FILLETRAD
 40
0.0
  9
$AUNITS
 70
     0
  9
$AUPREC
 70
     0
  9
$MENU
  1
ACAD
  9
$ELEVATION
 40
0.0
  9
$PELEVATION
 40
0.0
  9
$THICKNESS
 40
0.0
  9
$LIMCHECK
 70
     0
  9
$BLIPMODE
 70
     0
  9
$CHAMFERA
 40
0.0
  9
$CHAMFERB
 40
0.0
  9
$CHAMFERC
 40
0.0
  9
$CHAMFERD
 40
0.0
  9
$SKPOLY
 70
     0
  9
$TDCREATE
 40
2451737.737590162
  9
$TDUPDATE
 40
2452010.488996412
  9
$TDINDWG
 40
0.0048193287
  9
$TDUSRTIMER
 40
0.0048142361
  9
$USRTIMER
 70
     1
  9
$ANGBASE
 50
0.0
  9
$ANGDIR
 70
     0
  9
$PDMODE
 70
     3
  9
$PDSIZE
 40
0.09
  9
$PLINEWID
 40
0.0
  9
$COORDS
 70
     1
  9
$SPLFRAME
 70
     1
  9
$SPLINETYPE
 70
     6
  9
$SPLINESEGS
 70
     8
  9
$ATTDIA
 70
     0
  9
$ATTREQ
 70
     1
  9
$HANDLING
 70
     1
  9
$HANDSEED
  5
45B7C
  9
$SURFTAB1
 70
     6
  9
$SURFTAB2
 70
     6
  9
$SURFTYPE
 70
     6
  9
$SURFU
 70
     6
  9
$SURFV
 70
     6
  9
$UCSNAME
  2

  9
$UCSORG
 10
0.0
 20
0.0
 30
0.0
  9
$UCSXDIR
 10
1.0
 20
0.0
 30
0.0
  9
$UCSYDIR
 10
0.0
 20
1.0
 30
0.0
  9
$PUCSNAME
  2

  9
$PUCSORG
 10
0.0
 20
0.0
 30
0.0
  9
$PUCSXDIR
 10
1.0
 20
0.0
 30
0.0
  9
$PUCSYDIR
 10
0.0
 20
1.0
 30
0.0
  9
$USERI1
 70
     0
  9
$USERI2
 70
     0
  9
$USERI3
 70
     0
  9
$USERI4
 70
     0
  9
$USERI5
 70
     0
  9
$USERR1
 40
0.0
  9
$USERR2
 40
0.0
  9
$USERR3
 40
0.0
  9
$USERR4
 40
0.0
  9
$USERR5
 40
0.0
  9
$WORLDVIEW
 70
     1
  9
$SHADEDGE
 70
     3
  9
$SHADEDIF
 70
    70
  9
$TILEMODE
 70
     1
  9
$MAXACTVP
 70
    16
  9
$PINSBASE
 10
0.0
 20
0.0
 30
0.0
  9
$PLIMCHECK
 70
     0
  9
$PEXTMIN
 10
1.000000E+20
 20
1.000000E+20
 30
1.000000E+20
  9
$PEXTMAX
 10
-1.000000E+20
 20
-1.000000E+20
 30
-1.000000E+20
  9
$PLIMMIN
 10
0.0
 20
0.0
  9
$PLIMMAX
 10
12.0
 20
9.0
  9
$UNITMODE
 70
     0
  9
$VISRETAIN
 70
     0
  9
$PLINEGEN
 70
     0
  9
$PSLTSCALE
 70
     1
  9
$TREEDEPTH
 70
  3020
  9
$PICKSTYLE
 70
     1
  9
$CMLSTYLE
  2
STANDARD
  9
$CMLJUST
 70
     0
  9
$CMLSCALE
 40
1.0
  9
$PROXYGRAPHICS
 70
     1
  9
$MEASUREMENT
 70
     0
  0
ENDSEC
  0
SECTION
  2
CLASSES
  0
CLASS
  1
DICTIONARYVAR
  2
AcDbDictionaryVar
  3
"AutoCAD"
 90
        0
280
     0
281
     0
  0
CLASS
  1
ACDBDICTIONARYWDFLT
  2
AcDbDictionaryWithDefault
  3
AutoCAD 2000
 90
        0
280
     0
281
     0
  0
CLASS
  1
ACDBPLACEHOLDER
  2
AcDbPlaceHolder
  3
AutoCAD 2000
 90
        0
280
     0
281
     0
  0
CLASS
  1
LAYOUT
  2
AcDbLayout
  3
AutoCAD 2000
 90
        0
280
     0
281
     0
  0
CLASS
  1
LONG_TRANSACTION
  2
AcDbLongTransaction
  3
AutoCAD 2000
 90
        0
280
     0
281
     0
  0
CLASS
  1
LWPOLYLINE
  2
AcDbPolyline
  3
"AutoCAD"
 90
        0
280
     0
281
     1
  0
CLASS
  1
HATCH
  2
AcDbHatch
  3
"ACAD_SEDONA"
 90
        0
280
     0
281
     1
  0
CLASS
  1
XRECORD
  2
AcDbXrecord
  3
"<Built In>"
 90
        0
280
     0
281
     0
  0
CLASS
  1
LONG_TRANSACTION
  2
AcDbLongTransaction
  3
AutoCAD 2000
 90
        0
280
     0
281
     0
  0
CLASS
  1
LWPOLYLINE
  2
AcDbPolyline
  3
"AutoCAD"
 90
        0
280
     0
281
     1
  0
CLASS
  1
HATCH
  2
AcDbHatch
  3
"ACAD_SEDONA"
 90
        0
280
     0
281
     1
  0
CLASS
  1
XRECORD
  2
AcDbXrecord
  3
"<Built In>"
 90
        0
280
     0
281
     0
  0
CLASS
  1
LONG_TRANSACTION
  2
AcDbLongTransaction
  3
AutoCAD 2000
 90
        0
280
     0
281
     0
  0
CLASS
  1
LWPOLYLINE
  2
AcDbPolyline
  3
"AutoCAD"
 90
        0
280
     0
281
     1
  0
CLASS
  1
HATCH
  2
AcDbHatch
  3
"ACAD_SEDONA"
 90
        0
280
     0
281
     1
  0
CLASS
  1
XRECORD
  2
AcDbXrecord
  3
"<Built In>"
 90
        0
280
     0
281
     0
  0
CLASS
  1
LONG_TRANSACTION
  2
AcDbLongTransaction
  3
AutoCAD 2000
 90
        0
280
     0
281
     0
  0
CLASS
  1
LWPOLYLINE
  2
AcDbPolyline
  3
"AutoCAD"
 90
        0
280
     0
281
     1
  0
CLASS
  1
HATCH
  2
AcDbHatch
  3
"ACAD_SEDONA"
 90
        0
280
     0
281
     1
  0
CLASS
  1
XRECORD
  2
AcDbXrecord
  3
"<Built In>"
 90
        0
280
     0
281
     0
  0
ENDSEC
  0
SECTION
  2
TABLES
  0
TABLE
  2
VPORT
  5
458C7
100
AcDbSymbolTable
 70
     1
  0
VPORT
  5
45B47
102
{ACAD_XDICTIONARY
360
45B4C
102
}
100
AcDbSymbolTableRecord
100
AcDbViewportTableRecord
  2
*ACTIVE
 70
     0
 10
0.0
 20
0.0
 11
1.0
 21
1.0
 12
0.298093
 22
2.425557
 13
0.0
 23
0.0
 14
0.25
 24
0.25
 15
0.25
 25
0.25
 16
0.0
 26
0.0
 36
1.0
 17
0.0
 27
0.0
 37
0.0
 40
7.765609
 41
1.960674
 42
50.0
 43
0.0
 44
0.0
 50
0.0
 51
0.0
 71
     0
 72
 20000
 73
     1
 74
     1
 75
     0
 76
     0
 77
     0
 78
     0
  0
ENDTAB
  0
TABLE
  2
LTYPE
  5
458C4
100
AcDbSymbolTable
 70
     1
  0
LTYPE
  5
458D0
100
AcDbSymbolTableRecord
100
AcDbLinetypeTableRecord
  2
BYBLOCK
 70
     0
  3

 72
    65
 73
     0
 40
0.0
  0
LTYPE
  5
458D1
100
AcDbSymbolTableRecord
100
AcDbLinetypeTableRecord
  2
BYLAYER
 70
     0
  3

 72
    65
 73
     0
 40
0.0
  0
LTYPE
  5
458D2
100
AcDbSymbolTableRecord
100
AcDbLinetypeTableRecord
  2
CONTINUOUS
 70
     0
  3
Solid line
 72
    65
 73
     0
 40
0.0
  0
ENDTAB
  0
TABLE
  2
LAYER
  5
458C1
100
AcDbSymbolTable
 70
     7
  0
LAYER
  5
458CD
100
AcDbSymbolTableRecord
100
AcDbLayerTableRecord
  2
0
 70
     0
 62
     7
  6
CONTINUOUS
  0
LAYER
  5
458EA
100
AcDbSymbolTableRecord
100
AcDbLayerTableRecord
  2
DIMS-MTG-HOLES
 70
     0
 62
     1
  6
CONTINUOUS
  0
LAYER
  5
458EB
100
AcDbSymbolTableRecord
100
AcDbLayerTableRecord
  2
ATTRIBUTES
 70
     0
 62
     7
  6
CONTINUOUS
  0
LAYER
  5
4593B
102
{ACAD_XDICTIONARY
360
45B77
102
}
100
AcDbSymbolTableRecord
100
AcDbLayerTableRecord
  2
AREA1
 70
     0
 62
    -7
  6
CONTINUOUS
  0
LAYER
  5
45940
102
{ACAD_XDICTIONARY
360
45B4A
102
}
100
AcDbSymbolTableRecord
100
AcDbLayerTableRecord
  2
DEFPOINTS
 70
     0
 62
    -7
  6
CONTINUOUS
  0
LAYER
  5
45954
100
AcDbSymbolTableRecord
100
AcDbLayerTableRecord
  2
SCALE
 70
     0
 62
    -7
  6
CONTINUOUS
  0
LAYER
  5
4597B
100
AcDbSymbolTableRecord
100
AcDbLayerTableRecord
  2
SNAP_POINTS
 70
     0
 62
    -1
  6
CONTINUOUS
  0
ENDTAB
  0
TABLE
  2
STYLE
  5
458C2
100
AcDbSymbolTable
 70
     1
  0
STYLE
  5
458CE
100
AcDbSymbolTableRecord
100
AcDbTextStyleTableRecord
  2
STANDARD
 70
     0
 40
0.0
 41
1.0
 50
0.0
 71
     0
 42
0.12
  3
txt
  4

  0
ENDTAB
  0
TABLE
  2
VIEW
  5
458C5
100
AcDbSymbolTable
 70
     0
  0
ENDTAB
  0
TABLE
  2
UCS
  5
458C6
100
AcDbSymbolTable
 70
     0
  0
ENDTAB
  0
TABLE
  2
APPID
  5
458C8
100
AcDbSymbolTable
 70
     1
  0
APPID
  5
458CF
100
AcDbSymbolTableRecord
100
AcDbRegAppTableRecord
  2
ACAD
 70
     0
  0
ENDTAB
  0
TABLE
  2
DIMSTYLE
  5
458C9
100
AcDbSymbolTable
 70
     2
  0
DIMSTYLE
105
458F1
102
{ACAD_XDICTIONARY
360
45B71
102
}
100
AcDbSymbolTableRecord
100
AcDbDimStyleTableRecord
  2
ABECAD
 70
     0
  3

  4

  5

  6

  7

 40
1.0
 41
0.18
 42
0.0625
 43
0.375
 44
0.18
 45
0.0
 46
0.0
 47
0.0
 48
0.0
140
0.18
141
0.09
142
0.0
143
25.4
144
1.0
145
0.0
146
1.5
147
0.09
 71
     0
 72
     0
 73
     0
 74
     1
 75
     0
 76
     0
 77
     0
 78
     4
170
     1
171
     1
172
     0
173
     0
174
     0
175
     0
176
     0
177
     0
178
     0
270
     7
271
     6
272
     6
273
     2
274
     1
340
458CE
275
     0
280
     0
281
     0
282
     0
283
     1
284
     4
285
     4
286
     4
287
     3
288
     0
  0
DIMSTYLE
105
458F6
102
{ACAD_XDICTIONARY
360
45B73
102
}
102
{ACAD_REACTORS
330
45ABD
330
45ACB
102
}
100
AcDbSymbolTableRecord
100
AcDbDimStyleTableRecord
  2
ABECAD_3D
 70
     0
  3

  4

  5

  6

  7

 40
1.0
 41
0.11
 42
0.0625
 43
0.375
 44
0.11
 45
0.0
 46
0.0
 47
0.0
 48
0.0
140
0.11
141
0.09
142
0.0
143
25.4
144
1.0
145
0.0
146
1.5
147
0.045
 71
     0
 72
     0
 73
     0
 74
     1
 75
     0
 76
     0
 77
     0
 78
     4
170
     1
171
     1
172
     0
173
     0
174
     0
175
     0
176
     0
177
     0
178
     0
270
     7
271
     6
272
     6
273
     2
274
     1
340
458CE
275
     0
280
     0
281
     0
282
     0
283
     1
284
     4
285
     4
286
     4
287
     3
288
     0
  0
ENDTAB
  0
TABLE
  2
BLOCK_RECORD
  5
458C0
100
AcDbSymbolTable
 70
     3
  0
BLOCK_RECORD
  5
458D6
102
{ACAD_XDICTIONARY
360
4592C
102
}
100
AcDbSymbolTableRecord
100
AcDbBlockTableRecord
  2
*MODEL_SPACE
  0
BLOCK_RECORD
  5
458D3
102
{ACAD_XDICTIONARY
360
4592A
102
}
100
AcDbSymbolTableRecord
100
AcDbBlockTableRecord
  2
*PAPER_SPACE
  0
BLOCK_RECORD
  5
45941
102
{ACAD_XDICTIONARY
360
45B48
102
}
100
AcDbSymbolTableRecord
100
AcDbBlockTableRecord
  2
SCALE
1001
ACAD
1000
DesignCenter Data
1002
{
1070
     1
1070
     1
1002
}
  0
BLOCK_RECORD
  5
45ABE
100
AcDbSymbolTableRecord
100
AcDbBlockTableRecord
  2
*D1
  0
BLOCK_RECORD
  5
45ACC
100
AcDbSymbolTableRecord
100
AcDbBlockTableRecord
  2
*D2
  0
ENDTAB
  0
ENDSEC
  0
SECTION
  2
BLOCKS
  0
BLOCK
  5
458DF
100
AcDbEntity
  8
0
100
AcDbBlockBegin
  2
*MODEL_SPACE
 70
     0
 10
0.0
 20
0.0
 30
0.0
  3
*MODEL_SPACE
  1

  0
ENDBLK
  5
458E0
100
AcDbEntity
  8
0
100
AcDbBlockEnd
  0
BLOCK
  5
458DD
100
AcDbEntity
 67
     1
  8
0
100
AcDbBlockBegin
  2
*PAPER_SPACE
 70
     0
 10
0.0
 20
0.0
 30
0.0
  3
*PAPER_SPACE
  1

  0
ENDBLK
  5
458DE
100
AcDbEntity
 67
     1
  8
0
100
AcDbBlockEnd
  0
BLOCK
  5
4594D
100
AcDbEntity
  8
0
100
AcDbBlockBegin
  2
SCALE
 70
     0
 10
0.0
 20
0.0
 30
0.0
  3
SCALE
  1

  0
LINE
  5
4596A
100
AcDbEntity
  8
SCALE
100
AcDbLine
 10
0.057999
 20
-0.380078
 30
0.0
 11
1.057999
 21
-0.380078
 31
0.0
  0
LWPOLYLINE
  5
4596B
100
AcDbEntity
  8
SCALE
100
AcDbPolyline
 90
        4
 70
     1
 43
0.0
 10
0.0
 20
0.0
 10
1.135629
 20
0.0
 10
1.135629
 20
-0.84161
 10
0.0
 20
-0.84161
  0
LINE
  5
4596C
100
AcDbEntity
  8
SCALE
100
AcDbLine
 10
0.057999
 20
-0.480078
 30
0.0
 11
0.057999
 21
-0.280078
 31
0.0
  0
TEXT
  5
4596D
100
AcDbEntity
  8
SCALE
100
AcDbText
 10
0.117421
 20
-0.634339
 30
0.0
 40
0.0625
  1
[10mm]
100
AcDbText
  0
LINE
  5
4596E
100
AcDbEntity
  8
SCALE
100
AcDbLine
 10
0.057999
 20
-0.680078
 30
0.0
 11
0.451699
 21
-0.680078
 31
0.0
  0
LINE
  5
4596F
100
AcDbEntity
  8
SCALE
100
AcDbLine
 10
0.057999
 20
-0.780078
 30
0.0
 11
0.057999
 21
-0.580078
 31
0.0
  0
LINE
  5
45970
100
AcDbEntity
  8
SCALE
100
AcDbLine
 10
0.451699
 20
-0.780078
 30
0.0
 11
0.451699
 21
-0.580078
 31
0.0
  0
TEXT
  5
45971
100
AcDbEntity
  8
SCALE
100
AcDbText
 10
0.059529
 20
-0.105201
 30
0.0
 40
0.0625
  1
SCALE:
100
AcDbText
  0
TEXT
  5
45972
100
AcDbEntity
  8
SCALE
100
AcDbText
 10
0.421282
 20
-0.31103
 30
0.0
 40
0.0625
  1
1 Inch
100
AcDbText
  0
LINE
  5
45973
100
AcDbEntity
  8
SCALE
100
AcDbLine
 10
1.057999
 20
-0.380078
 30
0.0
 11
1.057999
 21
-0.480078
 31
0.0
  0
LINE
  5
45974
100
AcDbEntity
  8
SCALE
100
AcDbLine
 10
1.057999
 20
-0.480078
 30
0.0
 11
1.057999
 21
-0.280078
 31
0.0
  0
ENDBLK
  5
4594E
100
AcDbEntity
  8
0
100
AcDbBlockEnd
  0
BLOCK
  5
45AC9
100
AcDbEntity
  8
0
100
AcDbBlockBegin
  2
*D1
 70
     1
 10
0.0
 20
0.0
 30
0.0
  3
*D1
  1

  0
LINE
  5
45ABF
100
AcDbEntity
  8
AREA1
 62
     0
100
AcDbLine
 10
0.3045
 20
-0.305
 30
0.0
 11
1.35567
 21
-0.305
 31
0.0
1001
ACAD
1000
RTLwPs
1070
   158
  0
LINE
  5
45AC0
100
AcDbEntity
  8
AREA1
 62
     0
100
AcDbLine
 10
0.3045
 20
5.385
 30
0.0
 11
1.35567
 21
5.385
 31
0.0
1001
ACAD
1000
RTLwPs
1070
   158
  0
LINE
  5
45AC1
100
AcDbEntity
  8
AREA1
 62
     0
100
AcDbLine
 10
1.24567
 20
-0.195
 30
0.0
 11
1.24567
 21
1.835
 31
0.0
1001
ACAD
1000
RTLwPs
1070
   158
  0
LINE
  5
45AC2
100
AcDbEntity
  8
AREA1
 62
     0
100
AcDbLine
 10
1.24567
 20
5.275
 30
0.0
 11
1.24567
 21
3.245
 31
0.0
1001
ACAD
1000
RTLwPs
1070
   158
  0
SOLID
  5
45AC3
100
AcDbEntity
  8
AREA1
 62
     0
100
AcDbTrace
 10
1.227337
 20
-0.195
 30
0.0
 11
1.264004
 21
-0.195
 31
0.0
 12
1.24567
 22
-0.305
 32
0.0
 13
1.24567
 23
-0.305
 33
0.0
  0
SOLID
  5
45AC4
100
AcDbEntity
  8
AREA1
 62
     0
100
AcDbTrace
 10
1.227337
 20
5.275
 30
0.0
 11
1.264004
 21
5.275
 31
0.0
 12
1.24567
 22
5.385
 32
0.0
 13
1.24567
 23
5.385
 33
0.0
  0
MTEXT
  5
45AC5
100
AcDbEntity
  8
AREA1
 62
     0
100
AcDbMText
 10
1.24567
 20
2.54
 30
0.0
 40
0.11
 41
0.0
 71
     5
 72
     1
  1
\A1;5 11/16 [144.5]
 11
0.0
 21
1.0
 31
0.0
1001
ACAD
1000
MTEXTBEGIN
1070
    73
1070
     1
1070
    44
1040
1.0
1070
    74
1070
     0
1000
MTEXTEND
1000
MTEXTBEGIN
1070
    73
1070
     1
1070
    44
1040
1.0
1070
    74
1070
     0
1000
MTEXTEND
1000
MTEXTBEGIN
1070
    73
1070
     1
1070
    44
1040
1.0
1070
    74
1070
     0
1000
MTEXTEND
  0
POINT
  5
45AC6
100
AcDbEntity
  8
DEFPOINTS
 62
     0
100
AcDbPoint
 10
0.242
 20
-0.305
 30
3.668
  0
POINT
  5
45AC7
100
AcDbEntity
  8
DEFPOINTS
 62
     0
100
AcDbPoint
 10
0.242
 20
5.385
 30
3.668
  0
POINT
  5
45AC8
100
AcDbEntity
  8
DEFPOINTS
 62
     0
100
AcDbPoint
 10
1.24567
 20
5.385
 30
0.0
  0
ENDBLK
  5
45ACA
100
AcDbEntity
  8
0
100
AcDbBlockEnd
  0
BLOCK
  5
45AD7
100
AcDbEntity
  8
0
100
AcDbBlockBegin
  2
*D2
 70
     1
 10
0.0
 20
0.0
 30
0.0
  3
*D2
  1

  0
LINE
  5
45ACD
100
AcDbEntity
  8
AREA1
 62
     0
100
AcDbLine
 10
-1.121
 20
5.4475
 30
0.0
 11
-1.121
 21
6.244096
 31
0.0
1001
ACAD
1000
RTLwPs
1070
   158
  0
LINE
  5
45ACE
100
AcDbEntity
  8
AREA1
 62
     0
100
AcDbLine
 10
0.242
 20
5.4475
 30
0.0
 11
0.242
 21
6.244096
 31
0.0
1001
ACAD
1000
RTLwPs
1070
   158
  0
LINE
  5
45ACF
100
AcDbEntity
  8
AREA1
 62
     0
100
AcDbLine
 10
-1.011
 20
6.134096
 30
0.0
 11
0.132
 21
6.134096
 31
0.0
1001
ACAD
1000
RTLwPs
1070
   158
  0
LINE
  5
45AD0
100
AcDbEntity
  8
AREA1
 62
     0
100
AcDbLine
 10
0.242
 20
6.134096
 30
0.0
 11
0.352
 21
6.134096
 31
0.0
1001
ACAD
1000
RTLwPs
1070
   158
  0
SOLID
  5
45AD1
100
AcDbEntity
  8
AREA1
 62
     0
100
AcDbTrace
 10
-1.011
 20
6.152429
 30
0.0
 11
-1.011
 21
6.115762
 31
0.0
 12
-1.121
 22
6.134096
 32
0.0
 13
-1.121
 23
6.134096
 33
0.0
  0
SOLID
  5
45AD2
100
AcDbEntity
  8
AREA1
 62
     0
100
AcDbTrace
 10
0.132
 20
6.152429
 30
0.0
 11
0.132
 21
6.115762
 31
0.0
 12
0.242
 22
6.134096
 32
0.0
 13
0.242
 23
6.134096
 33
0.0
  0
MTEXT
  5
45AD3
100
AcDbEntity
  8
AREA1
 62
     0
100
AcDbMText
 10
1.057
 20
6.134096
 30
0.0
 40
0.11
 41
0.0
 71
     5
 72
     1
  1
\A1;1 23/64 [34.6]
1001
ACAD
1000
MTEXTBEGIN
1070
    73
1070
     1
1070
    44
1040
1.0
1070
    74
1070
     0
1000
MTEXTEND
1000
MTEXTBEGIN
1070
    73
1070
     1
1070
    44
1040
1.0
1070
    74
1070
     0
1000
MTEXTEND
1000
MTEXTBEGIN
1070
    73
1070
     1
1070
    44
1040
1.0
1070
    74
1070
     0
1000
MTEXTEND
  0
POINT
  5
45AD4
100
AcDbEntity
  8
DEFPOINTS
 62
     0
100
AcDbPoint
 10
-1.121
 20
5.385
 30
3.668
  0
POINT
  5
45AD5
100
AcDbEntity
  8
DEFPOINTS
 62
     0
100
AcDbPoint
 10
0.242
 20
5.385
 30
3.668
  0
POINT
  5
45AD6
100
AcDbEntity
  8
DEFPOINTS
 62
     0
100
AcDbPoint
 10
0.242
 20
6.134096
 30
0.0
  0
ENDBLK
  5
45AD8
100
AcDbEntity
  8
0
100
AcDbBlockEnd
  0
ENDSEC
  0
SECTION
  2
ENTITIES
  0
ATTDEF
  5
1
100
AcDbEntity
  8
ATTRIBUTES
100
AcDbText
 10
-1.010301
 20
1.337348
 30
0.0
 40
0.09
  1
ALLEN-BRADLEY
100
AcDbAttributeDefinition
  3
MANUFACTURER NAME?
  2
AC_VND_LABEL
 70
     1
  0
ATTDEF
  5
2
100
AcDbEntity
  8
ATTRIBUTES
100
AcDbText
 10
-1.010301
 20
1.149848
 30
0.0
 40
0.09
  1
1756-OF8
100
AcDbAttributeDefinition
  3
CATALOG NUMBER?
  2
AC_PART_NO
 70
     1
  0
ATTDEF
  5
3
100
AcDbEntity
  8
ATTRIBUTES
100
AcDbText
 10
-1.010301
 20
0.962348
 30
0.0
 40
0.09
  1
1756-OF8 CONTROLLOGIX  ANALOG CURRENT/VOLTAGE OUTPUT 8 PTS
100
AcDbAttributeDefinition
  3
PART DESCRIPTION?
  2
AC_DESCRIPTION
 70
     1
  0
ATTDEF
  5
4
100
AcDbEntity
  8
ATTRIBUTES
100
AcDbText
 10
-1.010301
 20
0.774848
 30
0.0
 40
0.09
  1

100
AcDbAttributeDefinition
  3
DEVICE ID?
  2
DEVICE_ID
 70
     1
  0
ATTDEF
  5
5
100
AcDbEntity
  8
ATTRIBUTES
100
AcDbText
 10
-1.010301
 20
0.587348
 30
0.0
 40
0.09
  1

100
AcDbAttributeDefinition
  3
CUSTOMER PART NUMBER?
  2
AC_CPART_NO
 70
     1
  0
ATTDEF
  5
6
100
AcDbEntity
  8
ATTRIBUTES
100
AcDbText
 10
-1.010301
 20
0.399848
 30
0.0
 40
0.09
  1

100
AcDbAttributeDefinition
  3
CUSTOMER NOTE?
  2
AC_NOTE
 70
     1
  0
ATTDEF
  5
7
100
AcDbEntity
  8
ATTRIBUTES
100
AcDbText
 10
-1.010301
 20
0.212348
 30
0.0
 40
0.09
  1

100
AcDbAttributeDefinition
  3
FASTENER DATA?
  2
FASTENER
 70
     1
  0
ATTDEF
  5
8
100
AcDbEntity
  8
ATTRIBUTES
100
AcDbText
 10
-1.010301
 20
0.024848
 30
0.0
 40
0.09
  1
INCH
100
AcDbAttributeDefinition
  3
UNIT OF SCALE?
  2
AC_SCALE_UNIT
 70
     1
  0
ATTDEF
  5
9
100
AcDbEntity
  8
ATTRIBUTES
100
AcDbText
 10
-1.010301
 20
-0.162652
 30
0.0
 40
0.09
  1
0
100
AcDbAttributeDefinition
  3
VIEW CODE?
  2
AC_VIEW_CODE
 70
     1
  0
INSERT
  5
45975
100
AcDbEntity
  8
SCALE
100
AcDbBlockReference
  2
SCALE
 10
-1.104649
 20
-0.551142
 30
0.0
  0
POLYLINE
  5
45A27
100
AcDbEntity
  8
0
100
AcDbPolygonMesh
 66
     1
 10
0.0
 20
0.0
 30
0.0
 70
    16
 71
     6
 72
     3
  0
VERTEX
  5
45A28
100
AcDbEntity
  8
0
100
AcDbVertex
100
AcDbPolygonMeshVertex
 10
0.034
 20
0.0
 30
3.668
 70
    64
  0
VERTEX
  5
45A29
100
AcDbEntity
  8
0
100
AcDbVertex
100
AcDbPolygonMeshVertex
 10
0.034
 20
0.0
 30
0.0
 70
    64
  0
VERTEX
  5
45A2A
100
AcDbEntity
  8
0
100
AcDbVertex
100
AcDbPolygonMeshVertex
 10
0.034
 20
0.0
 30
0.0
 70
    64
  0
VERTEX
  5
45A2B
100
AcDbEntity
  8
0
100
AcDbVertex
100
AcDbPolygonMeshVertex
 10
-0.034
 20
0.0
 30
3.668
 70
    64
  0
VERTEX
  5
45A2C
100
AcDbEntity
  8
0
100
AcDbVertex
100
AcDbPolygonMeshVertex
 10
-0.034
 20
0.0
 30
0.0
 70
    64
  0
VERTEX
  5
45A2D
100
AcDbEntity
  8
0
100
AcDbVertex
100
AcDbPolygonMeshVertex
 10
-0.034
 20
0.0
 30
0.0
 70
    64
  0
VERTEX
  5
45A2E
100
AcDbEntity
  8
0
100
AcDbVertex
100
AcDbPolygonMeshVertex
 10
-0.034
 20
5.21595
 30
3.668
 70
    64
  0
VERTEX
  5
45A2F
100
AcDbEntity
  8
0
100
AcDbVertex
100
AcDbPolygonMeshVertex
 10
-0.034
 20
5.21595
 30
0.0
 70
    64
  0
VERTEX
  5
45A30
100
AcDbEntity
  8
0
100
AcDbVertex
100
AcDbPolygonMeshVertex
 10
-0.034
 20
0.0
 30
0.0
 70
    64
  0
VERTEX
  5
45A31
100
AcDbEntity
  8
0
100
AcDbVertex
100
AcDbPolygonMeshVertex
 10
0.034
 20
5.21595
 30
3.668
 70
    64
  0
VERTEX
  5
45A32
100
AcDbEntity
  8
0
100
AcDbVertex
100
AcDbPolygonMeshVertex
 10
0.034
 20
5.21595
 30
0.0
 70
    64
  0
VERTEX
  5
45A33
100
AcDbEntity
  8
0
100
AcDbVertex
100
AcDbPolygonMeshVertex
 10
0.034
 20
0.0
 30
0.0
 70
    64
  0
VERTEX
  5
45A34
100
AcDbEntity
  8
0
100
AcDbVertex
100
AcDbPolygonMeshVertex
 10
0.034
 20
5.21595
 30
3.668
 70
    64
  0
VERTEX
  5
45A35
100
AcDbEntity
  8
0
100
AcDbVertex
100
AcDbPolygonMeshVertex
 10
0.034
 20
5.21595
 30
3.668
 70
    64
  0
VERTEX
  5
45A36
100
AcDbEntity
  8
0
100
AcDbVertex
100
AcDbPolygonMeshVertex
 10
0.034
 20
0.0
 30
3.668
 70
    64
  0
VERTEX
  5
45A37
100
AcDbEntity
  8
0
100
AcDbVertex
100
AcDbPolygonMeshVertex
 10
-0.034
 20
5.21595
 30
3.668
 70
    64
  0
VERTEX
  5
45A38
100
AcDbEntity
  8
0
100
AcDbVertex
100
AcDbPolygonMeshVertex
 10
-0.034
 20
5.21595
 30
3.668
 70
    64
  0
VERTEX
  5
45A39
100
AcDbEntity
  8
0
100
AcDbVertex
100
AcDbPolygonMeshVertex
 10
-0.034
 20
0.0
 30
3.668
 70
    64
  0
SEQEND
  5
45A3A
100
AcDbEntity
  8
0
  0
LINE
  5
45A3B
100
AcDbEntity
  8
0
100
AcDbLine
 10
-1.121
 20
-0.214
 30
5.424972
 11
-1.121
 21
3.954
 31
5.424972
210
0.0
220
-1.0
230
0.0
  0
POLYLINE
  5
45A3C
100
AcDbEntity
  8
0
100
AcDbPolygonMesh
 66
     1
 10
0.0
 20
0.0
 30
0.0
 70
    16
 71
     6
 72
     3
  0
VERTEX
  5
45A3D
100
AcDbEntity
  8
0
100
AcDbVertex
100
AcDbPolygonMeshVertex
 10
0.242
 20
-0.214
 30
5.66
 70
    64
  0
VERTEX
  5
45A3E
100
AcDbEntity
  8
0
100
AcDbVertex
100
AcDbPolygonMeshVertex
 10
0.242
 20
-0.214
 30
3.668
 70
    64
  0
VERTEX
  5
45A3F
100
AcDbEntity
  8
0
100
AcDbVertex
100
AcDbPolygonMeshVertex
 10
0.242
 20
-0.214
 30
3.668
 70
    64
  0
VERTEX
  5
45A40
100
AcDbEntity
  8
0
100
AcDbVertex
100
AcDbPolygonMeshVertex
 10
-1.121
 20
-0.214
 30
5.66
 70
    64
  0
VERTEX
  5
45A41
100
AcDbEntity
  8
0
100
AcDbVertex
100
AcDbPolygonMeshVertex
 10
-1.121
 20
-0.214
 30
3.668
 70
    64
  0
VERTEX
  5
45A42
100
AcDbEntity
  8
0
100
AcDbVertex
100
AcDbPolygonMeshVertex
 10
-1.121
 20
-0.214
 30
3.668
 70
    64
  0
VERTEX
  5
45A43
100
AcDbEntity
  8
0
100
AcDbVertex
100
AcDbPolygonMeshVertex
 10
-1.121
 20
5.385
 30
5.66
 70
    64
  0
VERTEX
  5
45A44
100
AcDbEntity
  8
0
100
AcDbVertex
100
AcDbPolygonMeshVertex
 10
-1.121
 20
5.385
 30
3.668
 70
    64
  0
VERTEX
  5
45A45
100
AcDbEntity
  8
0
100
AcDbVertex
100
AcDbPolygonMeshVertex
 10
-1.121
 20
-0.214
 30
3.668
 70
    64
  0
VERTEX
  5
45A46
100
AcDbEntity
  8
0
100
AcDbVertex
100
AcDbPolygonMeshVertex
 10
0.242
 20
5.385
 30
5.66
 70
    64
  0
VERTEX
  5
45A47
100
AcDbEntity
  8
0
100
AcDbVertex
100
AcDbPolygonMeshVertex
 10
0.242
 20
5.385
 30
3.668
 70
    64
  0
VERTEX
  5
45A48
100
AcDbEntity
  8
0
100
AcDbVertex
100
AcDbPolygonMeshVertex
 10
0.242
 20
-0.214
 30
3.668
 70
    64
  0
VERTEX
  5
45A49
100
AcDbEntity
  8
0
100
AcDbVertex
100
AcDbPolygonMeshVertex
 10
0.242
 20
5.385
 30
5.66
 70
    64
  0
VERTEX
  5
45A4A
100
AcDbEntity
  8
0
100
AcDbVertex
100
AcDbPolygonMeshVertex
 10
0.242
 20
5.385
 30
5.66
 70
    64
  0
VERTEX
  5
45A4B
100
AcDbEntity
  8
0
100
AcDbVertex
100
AcDbPolygonMeshVertex
 10
0.242
 20
-0.214
 30
5.66
 70
    64
  0
VERTEX
  5
45A4C
100
AcDbEntity
  8
0
100
AcDbVertex
100
AcDbPolygonMeshVertex
 10
-1.121
 20
5.385
 30
5.66
 70
    64
  0
VERTEX
  5
45A4D
100
AcDbEntity
  8
0
100
AcDbVertex
100
AcDbPolygonMeshVertex
 10
-1.121
 20
5.385
 30
5.66
 70
    64
  0
VERTEX
  5
45A4E
100
AcDbEntity
  8
0
100
AcDbVertex
100
AcDbPolygonMeshVertex
 10
-1.121
 20
-0.214
 30
5.66
 70
    64
  0
SEQEND
  5
45A4F
100
AcDbEntity
  8
0
  0
POINT
  5
45A50
100
AcDbEntity
  8
SNAP_POINTS
100
AcDbPoint
 10
0.0
 20
0.0
 30
0.0
  0
LINE
  5
45A51
100
AcDbEntity
  8
0
100
AcDbLine
 10
0.242
 20
0.134
 30
5.66
 11
-1.121
 21
0.134
 31
5.66
  0
LINE
  5
45A52
100
AcDbEntity
  8
0
100
AcDbLine
 10
0.242
 20
0.454
 30
5.66
 11
-1.121
 21
0.454
 31
5.66
  0
LINE
  5
45A53
100
AcDbEntity
  8
0
100
AcDbLine
 10
0.242
 20
0.774
 30
5.66
 11
-1.121
 21
0.774
 31
5.66
  0
LINE
  5
45A54
100
AcDbEntity
  8
0
100
AcDbLine
 10
0.242
 20
1.394
 30
5.66
 11
-1.121
 21
1.394
 31
5.66
  0
LINE
  5
45A55
100
AcDbEntity
  8
0
100
AcDbLine
 10
0.242
 20
1.714
 30
5.66
 11
-1.121
 21
1.714
 31
5.66
  0
LINE
  5
45A56
100
AcDbEntity
  8
0
100
AcDbLine
 10
0.242
 20
2.034
 30
5.66
 11
-1.121
 21
2.034
 31
5.66
  0
LINE
  5
45A57
100
AcDbEntity
  8
0
100
AcDbLine
 10
0.103792
 20
-0.214
 30
5.424972
 11
-1.121
 21
-0.214
 31
5.424972
210
0.0
220
-1.0
230
0.0
  0
LINE
  5
45A58
100
AcDbEntity
  8
0
100
AcDbLine
 10
0.242
 20
1.044
 30
5.66
 11
-1.121
 21
1.044
 31
5.66
  0
LINE
  5
45A59
100
AcDbEntity
  8
0
100
AcDbLine
 10
0.242
 20
1.124
 30
5.66
 11
-1.121
 21
1.124
 31
5.66
  0
LINE
  5
45A5A
100
AcDbEntity
  8
0
100
AcDbLine
 10
-0.12
 20
-0.305
 30
3.718
 11
-0.759
 21
-0.305
 31
3.718
210
0.0
220
-1.0
230
0.0
  0
LINE
  5
45A5B
100
AcDbEntity
  8
0
100
AcDbLine
 10
-0.12
 20
-0.305
 30
3.768
 11
-0.759
 21
-0.305
 31
3.768
210
0.0
220
-1.0
230
0.0
  0
LINE
  5
45A5C
100
AcDbEntity
  8
0
100
AcDbLine
 10
-0.12
 20
-0.305
 30
3.818
 11
-0.759
 21
-0.305
 31
3.818
210
0.0
220
-1.0
230
0.0
  0
LINE
  5
45A5D
100
AcDbEntity
  8
0
100
AcDbLine
 10
-0.12
 20
-0.305
 30
3.868
 11
-0.759
 21
-0.305
 31
3.868
210
0.0
220
-1.0
230
0.0
  0
LINE
  5
45A5E
100
AcDbEntity
  8
0
100
AcDbLine
 10
-0.12
 20
-0.305
 30
3.918
 11
-0.759
 21
-0.305
 31
3.918
210
0.0
220
-1.0
230
0.0
  0
LINE
  5
45A5F
100
AcDbEntity
  8
0
100
AcDbLine
 10
-0.12
 20
-0.305
 30
3.968
 11
-0.759
 21
-0.305
 31
3.968
210
0.0
220
-1.0
230
0.0
  0
LINE
  5
45A60
100
AcDbEntity
  8
0
100
AcDbLine
 10
-0.12
 20
-0.305
 30
4.018
 11
-0.759
 21
-0.305
 31
4.018
210
0.0
220
-1.0
230
0.0
  0
LINE
  5
45A61
100
AcDbEntity
  8
0
100
AcDbLine
 10
-0.12
 20
-0.305
 30
4.068
 11
-0.759
 21
-0.305
 31
4.068
210
0.0
220
-1.0
230
0.0
  0
LINE
  5
45A62
100
AcDbEntity
  8
0
100
AcDbLine
 10
-0.12
 20
-0.305
 30
4.168
 11
-0.759
 21
-0.305
 31
4.168
210
0.0
220
-1.0
230
0.0
  0
LINE
  5
45A63
100
AcDbEntity
  8
0
100
AcDbLine
 10
-0.12
 20
-0.305
 30
4.118
 11
-0.759
 21
-0.305
 31
4.118
210
0.0
220
-1.0
230
0.0
  0
LINE
  5
45A64
100
AcDbEntity
  8
0
100
AcDbLine
 10
-0.12
 20
-0.305
 30
4.168
 11
-0.759
 21
-0.305
 31
4.168
210
0.0
220
-1.0
230
0.0
  0
LINE
  5
45A65
100
AcDbEntity
  8
0
100
AcDbLine
 10
-0.133397
 20
-0.305
 30
4.218
 11
-0.745603
 21
-0.305
 31
4.218
210
0.0
220
-1.0
230
0.0
  0
LINE
  5
45A66
100
AcDbEntity
  8
0
100
AcDbLine
 10
-0.22
 20
-0.305
 30
4.268
 11
-0.659
 21
-0.305
 31
4.268
210
0.0
220
-1.0
230
0.0
  0
POLYLINE
  5
45A67
100
AcDbEntity
  8
0
100
AcDbPolygonMesh
 66
     1
 10
0.0
 20
0.0
 30
0.0
 70
    16
 71
     6
 72
     3
  0
VERTEX
  5
45A68
100
AcDbEntity
  8
0
100
AcDbVertex
100
AcDbPolygonMeshVertex
 10
0.242
 20
-0.305
 30
4.568
 70
    64
  0
VERTEX
  5
45A69
100
AcDbEntity
  8
0
100
AcDbVertex
100
AcDbPolygonMeshVertex
 10
0.242
 20
-0.305
 30
3.668
 70
    64
  0
VERTEX
  5
45A6A
100
AcDbEntity
  8
0
100
AcDbVertex
100
AcDbPolygonMeshVertex
 10
0.242
 20
-0.305
 30
3.668
 70
    64
  0
VERTEX
  5
45A6B
100
AcDbEntity
  8
0
100
AcDbVertex
100
AcDbPolygonMeshVertex
 10
-1.121
 20
-0.305
 30
4.568
 70
    64
  0
VERTEX
  5
45A6C
100
AcDbEntity
  8
0
100
AcDbVertex
100
AcDbPolygonMeshVertex
 10
-1.121
 20
-0.305
 30
3.668
 70
    64
  0
VERTEX
  5
45A6D
100
AcDbEntity
  8
0
100
AcDbVertex
100
AcDbPolygonMeshVertex
 10
-1.121
 20
-0.305
 30
3.668
 70
    64
  0
VERTEX
  5
45A6E
100
AcDbEntity
  8
0
100
AcDbVertex
100
AcDbPolygonMeshVertex
 10
-1.121
 20
-0.214
 30
4.568
 70
    64
  0
VERTEX
  5
45A6F
100
AcDbEntity
  8
0
100
AcDbVertex
100
AcDbPolygonMeshVertex
 10
-1.121
 20
-0.214
 30
3.668
 70
    64
  0
VERTEX
  5
45A70
100
AcDbEntity
  8
0
100
AcDbVertex
100
AcDbPolygonMeshVertex
 10
-1.121
 20
-0.305
 30
3.668
 70
    64
  0
VERTEX
  5
45A71
100
AcDbEntity
  8
0
100
AcDbVertex
100
AcDbPolygonMeshVertex
 10
0.242
 20
-0.214
 30
4.568
 70
    64
  0
VERTEX
  5
45A72
100
AcDbEntity
  8
0
100
AcDbVertex
100
AcDbPolygonMeshVertex
 10
0.242
 20
-0.214
 30
3.668
 70
    64
  0
VERTEX
  5
45A73
100
AcDbEntity
  8
0
100
AcDbVertex
100
AcDbPolygonMeshVertex
 10
0.242
 20
-0.305
 30
3.668
 70
    64
  0
VERTEX
  5
45A74
100
AcDbEntity
  8
0
100
AcDbVertex
100
AcDbPolygonMeshVertex
 10
0.242
 20
-0.214
 30
4.568
 70
    64
  0
VERTEX
  5
45A75
100
AcDbEntity
  8
0
100
AcDbVertex
100
AcDbPolygonMeshVertex
 10
0.242
 20
-0.214
 30
4.568
 70
    64
  0
VERTEX
  5
45A76
100
AcDbEntity
  8
0
100
AcDbVertex
100
AcDbPolygonMeshVertex
 10
0.242
 20
-0.305
 30
4.568
 70
    64
  0
VERTEX
  5
45A77
100
AcDbEntity
  8
0
100
AcDbVertex
100
AcDbPolygonMeshVertex
 10
-1.121
 20
-0.214
 30
4.568
 70
    64
  0
VERTEX
  5
45A78
100
AcDbEntity
  8
0
100
AcDbVertex
100
AcDbPolygonMeshVertex
 10
-1.121
 20
-0.214
 30
4.568
 70
    64
  0
VERTEX
  5
45A79
100
AcDbEntity
  8
0
100
AcDbVertex
100
AcDbPolygonMeshVertex
 10
-1.121
 20
-0.305
 30
4.568
 70
    64
  0
SEQEND
  5
45A7A
100
AcDbEntity
  8
0
  0
LINE
  5
45A7B
100
AcDbEntity
  8
0
100
AcDbLine
 10
-0.759
 20
-0.305
 30
4.168
 11
-0.759
 21
-0.305
 31
3.668
210
0.0
220
-1.0
230
0.0
  0
ARC
  5
45A7C
100
AcDbEntity
  8
0
100
AcDbCircle
 10
-0.659
 20
4.168
 30
0.305
 40
0.1
210
0.0
220
-1.0
230
0.0
100
AcDbArc
 50
90.0
 51
180.0
  0
LINE
  5
45A7D
100
AcDbEntity
  8
0
100
AcDbLine
 10
-0.12
 20
-0.305
 30
3.668
 11
-0.12
 21
-0.305
 31
4.168
210
0.0
220
-1.0
230
0.0
  0
ARC
  5
45A7E
100
AcDbEntity
  8
0
100
AcDbCircle
 10
-0.22
 20
4.168
 30
0.305
 40
0.1
210
0.0
220
-1.0
230
0.0
100
AcDbArc
 50
0.0
 51
90.0
  0
CIRCLE
  5
45A7F
100
AcDbEntity
  8
0
100
AcDbCircle
 10
0.172287
 20
5.56054
 30
0.214
 40
0.044406
210
0.0
220
-1.0
230
0.0
  0
LINE
  5
45A80
100
AcDbEntity
  8
0
100
AcDbLine
 10
0.103792
 20
-0.214
 30
5.66
 11
0.103792
 21
-0.214
 31
5.424972
210
0.0
220
-1.0
230
0.0
  0
LINE
  5
45A81
100
AcDbEntity
  8
0
100
AcDbLine
 10
0.103792
 20
-0.123
 30
5.66
 11
0.103792
 21
-0.214
 31
5.66
  0
LINE
  5
45A82
100
AcDbEntity
  8
0
100
AcDbLine
 10
0.103792
 20
-0.123
 30
5.66
 11
0.242
 21
-0.123
 31
5.66
  0
TEXT
  5
45A83
100
AcDbEntity
  8
0
  6
CONTINUOUS
 62
     9
100
AcDbText
 10
-0.9215
 20
5.2135
 30
5.66
 40
0.082808
  1
Analog Output
 72
     3
 11
0.086
 21
5.2135
 31
5.66
100
AcDbText
  0
LINE
  5
45A84
100
AcDbEntity
  8
0
100
AcDbLine
 10
0.242
 20
2.354
 30
5.66
 11
-1.121
 21
2.354
 31
5.66
  0
LINE
  5
45A85
100
AcDbEntity
  8
0
100
AcDbLine
 10
0.242
 20
2.674
 30
5.66
 11
-1.121
 21
2.674
 31
5.66
  0
LINE
  5
45A86
100
AcDbEntity
  8
0
100
AcDbLine
 10
0.242
 20
2.994
 30
5.66
 11
-1.121
 21
2.994
 31
5.66
  0
LINE
  5
45A87
100
AcDbEntity
  8
0
100
AcDbLine
 10
0.242
 20
3.314
 30
5.66
 11
-1.121
 21
3.314
 31
5.66
  0
LINE
  5
45A88
100
AcDbEntity
  8
0
100
AcDbLine
 10
0.242
 20
3.634
 30
5.66
 11
-1.121
 21
3.634
 31
5.66
  0
LINE
  5
45A89
100
AcDbEntity
  8
0
100
AcDbLine
 10
0.242
 20
5.108199
 30
5.66
 11
-1.121
 21
5.108199
 31
5.66
  0
LINE
  5
45A8A
100
AcDbEntity
  8
0
100
AcDbLine
 10
0.242
 20
3.954
 30
5.66
 11
-1.121
 21
3.954
 31
5.66
  0
LINE
  5
45A8B
100
AcDbEntity
  8
0
100
AcDbLine
 10
0.242
 20
4.034
 30
5.66
 11
-1.121
 21
4.034
 31
5.66
  0
LINE
  5
45A8C
100
AcDbEntity
  8
0
100
AcDbLine
 10
-0.22
 20
5.385
 30
4.268
 11
-0.659
 21
5.385
 31
4.268
210
0.0
220
1.0
230
0.0
  0
LINE
  5
45A8D
100
AcDbEntity
  8
0
100
AcDbLine
 10
-0.133397
 20
5.385
 30
4.218
 11
-0.745603
 21
5.385
 31
4.218
210
0.0
220
1.0
230
0.0
  0
LINE
  5
45A8E
100
AcDbEntity
  8
0
100
AcDbLine
 10
-0.12
 20
5.385
 30
4.168
 11
-0.759
 21
5.385
 31
4.168
210
0.0
220
1.0
230
0.0
  0
LINE
  5
45A8F
100
AcDbEntity
  8
0
100
AcDbLine
 10
-0.12
 20
5.385
 30
4.118
 11
-0.759
 21
5.385
 31
4.118
210
0.0
220
1.0
230
0.0
  0
LINE
  5
45A90
100
AcDbEntity
  8
0
100
AcDbLine
 10
-0.12
 20
5.385
 30
4.168
 11
-0.759
 21
5.385
 31
4.168
210
0.0
220
1.0
230
0.0
  0
LINE
  5
45A91
100
AcDbEntity
  8
0
100
AcDbLine
 10
-0.12
 20
5.385
 30
4.068
 11
-0.759
 21
5.385
 31
4.068
210
0.0
220
1.0
230
0.0
  0
LINE
  5
45A92
100
AcDbEntity
  8
0
100
AcDbLine
 10
-0.12
 20
5.385
 30
4.018
 11
-0.759
 21
5.385
 31
4.018
210
0.0
220
1.0
230
0.0
  0
LINE
  5
45A93
100
AcDbEntity
  8
0
100
AcDbLine
 10
-0.12
 20
5.385
 30
3.968
 11
-0.759
 21
5.385
 31
3.968
210
0.0
220
1.0
230
0.0
  0
LINE
  5
45A94
100
AcDbEntity
  8
0
100
AcDbLine
 10
-0.12
 20
5.385
 30
3.918
 11
-0.759
 21
5.385
 31
3.918
210
0.0
220
1.0
230
0.0
  0
LINE
  5
45A95
100
AcDbEntity
  8
0
100
AcDbLine
 10
-0.12
 20
5.385
 30
3.868
 11
-0.759
 21
5.385
 31
3.868
210
0.0
220
1.0
230
0.0
  0
LINE
  5
45A96
100
AcDbEntity
  8
0
100
AcDbLine
 10
-0.12
 20
5.385
 30
3.818
 11
-0.759
 21
5.385
 31
3.818
210
0.0
220
1.0
230
0.0
  0
LINE
  5
45A97
100
AcDbEntity
  8
0
100
AcDbLine
 10
-0.12
 20
5.385
 30
3.768
 11
-0.759
 21
5.385
 31
3.768
210
0.0
220
1.0
230
0.0
  0
LINE
  5
45A98
100
AcDbEntity
  8
0
100
AcDbLine
 10
-0.12
 20
5.385
 30
3.718
 11
-0.759
 21
5.385
 31
3.718
210
0.0
220
1.0
230
0.0
  0
POLYLINE
  5
45A99
100
AcDbEntity
  8
0
100
AcDbPolygonMesh
 66
     1
 10
0.0
 20
0.0
 30
0.0
 70
    16
 71
     6
 72
     3
  0
VERTEX
  5
45A9A
100
AcDbEntity
  8
0
100
AcDbVertex
100
AcDbPolygonMeshVertex
 10
0.242
 20
5.385
 30
4.568
 70
    64
  0
VERTEX
  5
45A9B
100
AcDbEntity
  8
0
100
AcDbVertex
100
AcDbPolygonMeshVertex
 10
0.242
 20
5.385
 30
3.668
 70
    64
  0
VERTEX
  5
45A9C
100
AcDbEntity
  8
0
100
AcDbVertex
100
AcDbPolygonMeshVertex
 10
0.242
 20
5.385
 30
3.668
 70
    64
  0
VERTEX
  5
45A9D
100
AcDbEntity
  8
0
100
AcDbVertex
100
AcDbPolygonMeshVertex
 10
-1.121
 20
5.385
 30
4.568
 70
    64
  0
VERTEX
  5
45A9E
100
AcDbEntity
  8
0
100
AcDbVertex
100
AcDbPolygonMeshVertex
 10
-1.121
 20
5.385
 30
3.668
 70
    64
  0
VERTEX
  5
45A9F
100
AcDbEntity
  8
0
100
AcDbVertex
100
AcDbPolygonMeshVertex
 10
-1.121
 20
5.385
 30
3.668
 70
    64
  0
VERTEX
  5
45AA0
100
AcDbEntity
  8
0
100
AcDbVertex
100
AcDbPolygonMeshVertex
 10
-1.121
 20
5.294
 30
4.568
 70
    64
  0
VERTEX
  5
45AA1
100
AcDbEntity
  8
0
100
AcDbVertex
100
AcDbPolygonMeshVertex
 10
-1.121
 20
5.294
 30
3.668
 70
    64
  0
VERTEX
  5
45AA2
100
AcDbEntity
  8
0
100
AcDbVertex
100
AcDbPolygonMeshVertex
 10
-1.121
 20
5.385
 30
3.668
 70
    64
  0
VERTEX
  5
45AA3
100
AcDbEntity
  8
0
100
AcDbVertex
100
AcDbPolygonMeshVertex
 10
0.242
 20
5.294
 30
4.568
 70
    64
  0
VERTEX
  5
45AA4
100
AcDbEntity
  8
0
100
AcDbVertex
100
AcDbPolygonMeshVertex
 10
0.242
 20
5.294
 30
3.668
 70
    64
  0
VERTEX
  5
45AA5
100
AcDbEntity
  8
0
100
AcDbVertex
100
AcDbPolygonMeshVertex
 10
0.242
 20
5.385
 30
3.668
 70
    64
  0
VERTEX
  5
45AA6
100
AcDbEntity
  8
0
100
AcDbVertex
100
AcDbPolygonMeshVertex
 10
0.242
 20
5.294
 30
4.568
 70
    64
  0
VERTEX
  5
45AA7
100
AcDbEntity
  8
0
100
AcDbVertex
100
AcDbPolygonMeshVertex
 10
0.242
 20
5.294
 30
4.568
 70
    64
  0
VERTEX
  5
45AA8
100
AcDbEntity
  8
0
100
AcDbVertex
100
AcDbPolygonMeshVertex
 10
0.242
 20
5.385
 30
4.568
 70
    64
  0
VERTEX
  5
45AA9
100
AcDbEntity
  8
0
100
AcDbVertex
100
AcDbPolygonMeshVertex
 10
-1.121
 20
5.294
 30
4.568
 70
    64
  0
VERTEX
  5
45AAA
100
AcDbEntity
  8
0
100
AcDbVertex
100
AcDbPolygonMeshVertex
 10
-1.121
 20
5.294
 30
4.568
 70
    64
  0
VERTEX
  5
45AAB
100
AcDbEntity
  8
0
100
AcDbVertex
100
AcDbPolygonMeshVertex
 10
-1.121
 20
5.385
 30
4.568
 70
    64
  0
SEQEND
  5
45AAC
100
AcDbEntity
  8
0
  0
LINE
  5
45AAD
100
AcDbEntity
  8
0
100
AcDbLine
 10
-1.121
 20
3.954
 30
5.66
 11
-1.121
 21
3.954
 31
5.424972
210
0.0
220
-1.0
230
0.0
  0
LINE
  5
45AAE
100
AcDbEntity
  8
0
100
AcDbLine
 10
-0.759
 20
5.385
 30
4.168
 11
-0.759
 21
5.385
 31
3.668
210
0.0
220
1.0
230
0.0
  0
ARC
  5
45AAF
100
AcDbEntity
  8
0
100
AcDbCircle
 10
0.659
 20
4.168
 30
5.385
 40
0.1
210
0.0
220
1.0
230
0.0
100
AcDbArc
 50
0.0
 51
90.0
  0
LINE
  5
45AB0
100
AcDbEntity
  8
0
100
AcDbLine
 10
0.103792
 20
4.034
 30
5.66
 11
0.103792
 21
3.954
 31
5.66
  0
LINE
  5
45AB1
100
AcDbEntity
  8
0
100
AcDbLine
 10
0.0545
 20
4.948
 30
5.66
 11
0.0545
 21
4.698
 31
5.66
  0
LINE
  5
45AB2
100
AcDbEntity
  8
0
100
AcDbLine
 10
0.1795
 20
4.948
 30
5.66
 11
0.1795
 21
4.698
 31
5.66
  0
3DFACE
  5
45AB3
100
AcDbEntity
  8
0
100
AcDbFace
 10
0.18
 20
4.698
 30
5.785
 11
0.055
 21
4.698
 31
5.785
 12
0.055
 22
4.823
 32
5.785
 13
0.18
 23
4.823
 33
5.785
  0
LINE
  5
45AB4
100
AcDbEntity
  8
0
100
AcDbLine
 10
0.1795
 20
4.698
 30
5.66
 11
0.0545
 21
4.698
 31
5.66
  0
LINE
  5
45AB5
100
AcDbEntity
  8
0
100
AcDbLine
 39
0.125
 10
0.055
 20
4.698
 30
5.66
 11
0.18
 21
4.698
 31
5.66
  0
LINE
  5
45AB6
100
AcDbEntity
  8
0
100
AcDbLine
 39
0.125
 10
0.055
 20
4.823
 30
5.66
 11
0.18
 21
4.823
 31
5.66
  0
LINE
  5
45AB7
100
AcDbEntity
  8
0
100
AcDbLine
 39
0.125
 10
0.055
 20
4.823
 30
5.66
 11
0.055
 21
4.698
 31
5.66
  0
LINE
  5
45AB8
100
AcDbEntity
  8
0
100
AcDbLine
 39
0.125
 10
0.18
 20
4.698
 30
5.66
 11
0.18
 21
4.823
 31
5.66
  0
LINE
  5
45AB9
100
AcDbEntity
  8
0
100
AcDbLine
 10
0.0545
 20
4.948
 30
5.66
 11
0.1795
 21
4.948
 31
5.66
  0
LINE
  5
45ABA
100
AcDbEntity
  8
0
100
AcDbLine
 10
-0.12
 20
5.385
 30
3.668
 11
-0.12
 21
5.385
 31
4.168
210
0.0
220
1.0
230
0.0
  0
ARC
  5
45ABB
100
AcDbEntity
  8
0
100
AcDbCircle
 10
0.22
 20
4.168
 30
5.385
 40
0.1
210
0.0
220
1.0
230
0.0
100
AcDbArc
 50
90.0
 51
180.0
  0
DIMENSION
  5
45ABD
100
AcDbEntity
  8
AREA1
100
AcDbDimension
  2
*D1
 10
1.24567
 20
5.385
 30
0.0
 11
1.24567
 21
2.54
 31
0.0
 70
    32
  3
ABECAD_3D
100
AcDbAlignedDimension
 13
0.242
 23
-0.305
 33
3.668
 14
0.242
 24
5.385
 34
3.668
 50
90.0
100
AcDbRotatedDimension
  0
DIMENSION
  5
45ACB
100
AcDbEntity
  8
AREA1
100
AcDbDimension
  2
*D2
 10
0.242
 20
6.134096
 30
0.0
 11
1.057
 21
6.134096
 31
0.0
 70
    32
  3
ABECAD_3D
100
AcDbAlignedDimension
 13
-1.121
 23
5.385
 33
3.668
 14
0.242
 24
5.385
 34
3.668
100
AcDbRotatedDimension
  0
ENDSEC
  0
SECTION
  2
OBJECTS
  0
DICTIONARY
  5
458CB
100
AcDbDictionary
  3
ACAD_GROUP
350
458CC
  3
ACAD_LAYOUT
350
458FB
  3
ACAD_MLINESTYLE
350
458D9
  3
ACAD_PLOTSETTINGS
350
458FC
  3
ACAD_PLOTSTYLENAME
350
458F9
  3
ACDBHEADERROUNDTRIPXREC
350
45B4E
  3
ACDBVARIABLEDICTIONARY
350
458E1
  3
DWGPROPS
350
45901
  0
DICTIONARY
  5
45B4C
100
AcDbDictionary
280
     1
  3
ACAD_XREC_ROUNDTRIP
360
45B4D
  0
DICTIONARY
  5
45B77
100
AcDbDictionary
280
     1
  3
ACAD_XREC_ROUNDTRIP
360
45B78
  0
DICTIONARY
  5
45B4A
100
AcDbDictionary
280
     1
  3
ACAD_XREC_ROUNDTRIP
360
45B4B
  0
DICTIONARY
  5
45B71
100
AcDbDictionary
280
     1
  3
ACAD_XREC_ROUNDTRIP
360
45B72
  0
DICTIONARY
  5
45B73
100
AcDbDictionary
280
     1
  3
ACAD_XREC_ROUNDTRIP
360
45B74
  0
DICTIONARY
  5
4592C
100
AcDbDictionary
280
     1
  3
ACAD_LAYOUTSELFREF
360
45B70
  0
DICTIONARY
  5
4592A
100
AcDbDictionary
280
     1
  3
ACAD_LAYOUTSELFREF
360
45B6F
  0
DICTIONARY
  5
45B48
100
AcDbDictionary
280
     1
  3
ACAD_XREC_ROUNDTRIP
360
45B49
  0
DICTIONARY
  5
458CC
102
{ACAD_REACTORS
330
458CB
102
}
100
AcDbDictionary
  0
DICTIONARY
  5
458FB
102
{ACAD_XDICTIONARY
360
45B75
102
}
102
{ACAD_REACTORS
330
458CB
102
}
100
AcDbDictionary
  3
LAYOUT1
350
458FE
  3
MODEL
350
458FD
  0
DICTIONARY
  5
458D9
102
{ACAD_REACTORS
330
458CB
102
}
100
AcDbDictionary
  3
STANDARD
350
458DA
  0
DICTIONARY
  5
458FC
102
{ACAD_REACTORS
330
458CB
102
}
100
AcDbDictionary
  0
ACAD_PROXY_OBJECT
  5
458F9
102
{ACAD_REACTORS
330
458CB
102
}
100
AcDbProxyObject
 90
      499
 91
      501
 93
       86
310
405010041939BDC9B585B0
350
458FA
340
458FA
 94
        0
  0
DICTIONARY
  5
45B4E
102
{ACAD_REACTORS
330
458CB
102
}
100
AcDbDictionary
  3
CEPSNTYPE
350
45B58
  3
DIMSTYLEDATA
350
45B5C
  3
FINGERPRINTGUID
350
45B59
  3
HYPERLINKBASE
350
45B51
  3
INSUNITS
350
45B57
  3
LAYOUTDICT
350
45B53
  3
LWETCUNION
350
45B56
  3
PLOTSETDICT
350
45B54
  3
PLOTSTYLNAMDICT
350
45B55
  3
PSVPSCALE
350
45B5B
  3
PUCSBASE
350
45B5F
  3
PUCSORGBACK
350
45B65
  3
PUCSORGBOTTOM
350
45B61
  3
PUCSORGFRONT
350
45B64
  3
PUCSORGLEFT
350
45B62
  3
PUCSORGRIGHT
350
45B63
  3
PUCSORGTOP
350
45B60
  3
PUCSORTHOREF
350
45B5D
  3
PUCSORTHOVIEW
350
45B5E
  3
STYLESHEET
350
45B52
  3
TSTACKALIGN
350
45B4F
  3
TSTACKSIZE
350
45B50
  3
UCSBASE
350
45B68
  3
UCSORGBACK
350
45B6E
  3
UCSORGBOTTOM
350
45B6A
  3
UCSORGFRONT
350
45B6D
  3
UCSORGLEFT
350
45B6B
  3
UCSORGRIGHT
350
45B6C
  3
UCSORGTOP
350
45B69
  3
UCSORTHOREF
350
45B66
  3
UCSORTHOVIEW
350
45B67
  3
VERSIONGUID
350
45B5A
  0
DICTIONARY
  5
458E1
102
{ACAD_REACTORS
330
458CB
102
}
100
AcDbDictionary
  3
DIMADEC
350
458E2
  0
XRECORD
  5
45901
102
{ACAD_REACTORS
330
458CB
102
}
100
AcDbXrecord
  1
DWGPROPS COOKIE
  2

  3

  4

  6

  7

  8
colin
  9

300
=
301
=
302
=
303
=
304
=
305
=
306
=
307
=
308
=
309
=
 40
0.000599
 41
2451670.444777
 42
2451670.445376
  1

 90
        0
  0
XRECORD
  5
45B4D
102
{ACAD_REACTORS
330
45B4C
102
}
100
AcDbXrecord
102
EXTNAMES
  1
*ACTIVE
  2
*Active
102
UCS
 74
     0
 71
     1
 10
0.0
 20
0.0
 30
0.0
 10
1.0
 20
0.0
 30
0.0
 10
0.0
 20
1.0
 30
0.0
146
0.0
 79
     1
102
VIEW
281
     0
  0
XRECORD
  5
45B78
102
{ACAD_REACTORS
330
45B77
102
}
100
AcDbXrecord
102
PLOTBIT
280
     0
  0
XRECORD
  5
45B4B
102
{ACAD_REACTORS
330
45B4A
102
}
100
AcDbXrecord
102
EXTNAMES
  1
DEFPOINTS
  2
Defpoints
102
PLOTBIT
280
     0
  0
XRECORD
  5
45B72
102
{ACAD_REACTORS
330
45B71
102
}
100
AcDbXrecord
102
ACADR14ROUNDTRIP
1000
DSTYLE
1002
{
1070
   276
 70
     2
1070
   277
 70
     5
1002
}
  0
XRECORD
  5
45B74
102
{ACAD_REACTORS
330
45B73
102
}
100
AcDbXrecord
102
ACADR14ROUNDTRIP
1000
DSTYLE
1002
{
1070
   276
 70
     2
1070
   277
 70
     5
1002
}
  0
XRECORD
  5
45B70
102
{ACAD_REACTORS
330
4592C
102
}
100
AcDbXrecord
340
458D6
  0
XRECORD
  5
45B6F
102
{ACAD_REACTORS
330
4592A
102
}
100
AcDbXrecord
340
458D3
  0
XRECORD
  5
45B49
102
{ACAD_REACTORS
330
45B48
102
}
100
AcDbXrecord
102
EXTNAMES
  1
SCALE
  2
scale
  0
DICTIONARY
  5
45B75
100
AcDbDictionary
280
     1
  3
ACAD_XREC_ROUNDTRIP
360
45B76
  0
ACAD_PROXY_OBJECT
  5
458FE
102
{ACAD_REACTORS
330
458FB
102
}
100
AcDbProxyObject
 90
      499
 91
      503
 93
     1348
310
91D4850204C617365724A65742035303030205365726965732050434C20362C00AAAAAA416AA547D11959985D5B1D08148C4D081C195B88185CDCDA59DB9B595B9D1CCB98DD1891069074C61796F75743140501A800000000000000000000000000000000000000000000A1000000000000008902A6A6A10232D5E076BC551
310
0408CB5781DAF154410232D5E076BC5510408CB5781DAF15C410232D5E076BC5710408CB5781DAF15C40
330
458D3
330
0
340
0
340
0
 94
        0
  0
ACAD_PROXY_OBJECT
  5
458FD
102
{ACAD_REACTORS
330
458FB
102
}
100
AcDbProxyObject
 90
      499
 91
      503
 93
      924
310
91D4850204C617365724A65742035303030205365726965732050434C20362C01AAAAAAAAA547D11959985D5B1D08148C4D081C195B88185CDCDA59DB9B595B9D1CCB98DD18A69054D6F64656C901A800000000000000000000000000000000000000000000A1000000000000008902A6A6AAAA4
330
458D6
330
0
340
0
340
0
 94
        0
  0
MLINESTYLE
  5
458DA
102
{ACAD_REACTORS
330
458D9
102
}
100
AcDbMlineStyle
  2
STANDARD
 70
     0
  3

 62
   256
 51
90.0
 52
90.0
 71
     2
 49
0.5
 62
   256
  6
BYLAYER
 49
-0.5
 62
   256
  6
BYLAYER
  0
ACAD_PROXY_OBJECT
  5
458FA
102
{ACAD_REACTORS
330
458F9
102
}
100
AcDbProxyObject
 90
      499
 91
      502
 93
        0
 94
        0
  0
XRECORD
  5
45B58
102
{ACAD_REACTORS
330
45B4E
102
}
100
AcDbXrecord
 90
        0
  0
XRECORD
  5
45B5C
102
{ACAD_REACTORS
330
45B4E
102
}
100
AcDbXrecord
1000
DSTYLE
1002
{
1070
   276
 70
     2
1070
   277
 70
     5
1002
}
  0
XRECORD
  5
45B59
102
{ACAD_REACTORS
330
45B4E
102
}
100
AcDbXrecord
  1
{6E0CF4B8-225E-11D4-A150-00A0CC3303EC}
  0
XRECORD
  5
45B51
102
{ACAD_REACTORS
330
45B4E
102
}
100
AcDbXrecord
  1

  0
XRECORD
  5
45B57
102
{ACAD_REACTORS
330
45B4E
102
}
100
AcDbXrecord
 90
        0
  0
XRECORD
  5
45B53
102
{ACAD_REACTORS
330
45B4E
102
}
100
AcDbXrecord
340
458FB
  0
XRECORD
  5
45B56
102
{ACAD_REACTORS
330
45B4E
102
}
100
AcDbXrecord
 90
    14877
  0
XRECORD
  5
45B54
102
{ACAD_REACTORS
330
45B4E
102
}
100
AcDbXrecord
340
458FC
  0
XRECORD
  5
45B55
102
{ACAD_REACTORS
330
45B4E
102
}
100
AcDbXrecord
340
458F9
  0
XRECORD
  5
45B5B
102
{ACAD_REACTORS
330
45B4E
102
}
100
AcDbXrecord
 40
0.0
  0
XRECORD
  5
45B5F
102
{ACAD_REACTORS
330
45B4E
102
}
100
AcDbXrecord
340
0
  0
XRECORD
  5
45B65
102
{ACAD_REACTORS
330
45B4E
102
}
100
AcDbXrecord
 10
0.0
 20
0.0
 30
0.0
  0
XRECORD
  5
45B61
102
{ACAD_REACTORS
330
45B4E
102
}
100
AcDbXrecord
 10
0.0
 20
0.0
 30
0.0
  0
XRECORD
  5
45B64
102
{ACAD_REACTORS
330
45B4E
102
}
100
AcDbXrecord
 10
0.0
 20
0.0
 30
0.0
  0
XRECORD
  5
45B62
102
{ACAD_REACTORS
330
45B4E
102
}
100
AcDbXrecord
 10
0.0
 20
0.0
 30
0.0
  0
XRECORD
  5
45B63
102
{ACAD_REACTORS
330
45B4E
102
}
100
AcDbXrecord
 10
0.0
 20
0.0
 30
0.0
  0
XRECORD
  5
45B60
102
{ACAD_REACTORS
330
45B4E
102
}
100
AcDbXrecord
 10
0.0
 20
0.0
 30
0.0
  0
XRECORD
  5
45B5D
102
{ACAD_REACTORS
330
45B4E
102
}
100
AcDbXrecord
340
0
  0
XRECORD
  5
45B5E
102
{ACAD_REACTORS
330
45B4E
102
}
100
AcDbXrecord
 70
     0
  0
XRECORD
  5
45B52
102
{ACAD_REACTORS
330
45B4E
102
}
100
AcDbXrecord
  1

  0
XRECORD
  5
45B4F
102
{ACAD_REACTORS
330
45B4E
102
}
100
AcDbXrecord
 90
        1
  0
XRECORD
  5
45B50
102
{ACAD_REACTORS
330
45B4E
102
}
100
AcDbXrecord
 90
       70
  0
XRECORD
  5
45B68
102
{ACAD_REACTORS
330
45B4E
102
}
100
AcDbXrecord
340
0
  0
XRECORD
  5
45B6E
102
{ACAD_REACTORS
330
45B4E
102
}
100
AcDbXrecord
 10
0.0
 20
0.0
 30
0.0
  0
XRECORD
  5
45B6A
102
{ACAD_REACTORS
330
45B4E
102
}
100
AcDbXrecord
 10
0.0
 20
0.0
 30
0.0
  0
XRECORD
  5
45B6D
102
{ACAD_REACTORS
330
45B4E
102
}
100
AcDbXrecord
 10
0.0
 20
0.0
 30
0.0
  0
XRECORD
  5
45B6B
102
{ACAD_REACTORS
330
45B4E
102
}
100
AcDbXrecord
 10
0.0
 20
0.0
 30
0.0
  0
XRECORD
  5
45B6C
102
{ACAD_REACTORS
330
45B4E
102
}
100
AcDbXrecord
 10
0.0
 20
0.0
 30
0.0
  0
XRECORD
  5
45B69
102
{ACAD_REACTORS
330
45B4E
102
}
100
AcDbXrecord
 10
0.0
 20
0.0
 30
0.0
  0
XRECORD
  5
45B66
102
{ACAD_REACTORS
330
45B4E
102
}
100
AcDbXrecord
340
0
  0
XRECORD
  5
45B67
102
{ACAD_REACTORS
330
45B4E
102
}
100
AcDbXrecord
 70
     1
  0
XRECORD
  5
45B5A
102
{ACAD_REACTORS
330
45B4E
102
}
100
AcDbXrecord
  1
{CFC9CE09-92F7-4F44-9DC4-2FF275C0B42C}
  0
DICTIONARYVAR
  5
458E2
102
{ACAD_REACTORS
330
458E1
102
}
100
DictionaryVariables
280
     0
  1
0
  0
XRECORD
  5
45B76
102
{ACAD_REACTORS
330
45B75
102
}
100
AcDbXrecord
102
EXTNAMES
  1
LAYOUT1
  2
Layout1
  1
MODEL
  2
Model
  0
ENDSEC
  0
EOF
