  0
SECTION
  2
HEADER
  9
$ACADVER
  1
AC1014
  9
$ACADMAINTVER
 70
     8
  9
$DWGCODEPAGE
  3
ANSI_1252
  9
$INSBASE
 10
0.0
 20
0.0
 30
0.0
  9
$EXTMIN
 10
-0.92557
 20
-3.311395
 30
0.0
  9
$EXTMAX
 10
2.247289
 20
1.714393
 30
4.11
  9
$LIMMIN
 10
0.0
 20
0.0
  9
$LIMMAX
 10
12.0
 20
9.0
  9
$ORTHOMODE
 70
     0
  9
$REGENMODE
 70
     1
  9
$FILLMODE
 70
     1
  9
$QTEXTMODE
 70
     0
  9
$MIRRTEXT
 70
     1
  9
$DRAGMODE
 70
     2
  9
$LTSCALE
 40
1.0
  9
$OSMODE
 70
    37
  9
$ATTMODE
 70
     0
  9
$TEXTSIZE
 40
0.2
  9
$TRACEWID
 40
0.05
  9
$TEXTSTYLE
  7
STANDARD
  9
$CLAYER
  8
0
  9
$CELTYPE
  6
BYLAYER
  9
$CECOLOR
 62
   256
  9
$CELTSCALE
 40
1.0
  9
$DELOBJ
 70
     1
  9
$DISPSILH
 70
     0
  9
$DIMSCALE
 40
0.0
  9
$DIMASZ
 40
0.18
  9
$DIMEXO
 40
0.0625
  9
$DIMDLI
 40
0.375
  9
$DIMRND
 40
0.0
  9
$DIMDLE
 40
0.0
  9
$DIMEXE
 40
0.18
  9
$DIMTP
 40
0.0
  9
$DIMTM
 40
0.0
  9
$DIMTXT
 40
0.15
  9
$DIMCEN
 40
0.09
  9
$DIMTSZ
 40
0.0
  9
$DIMTOL
 70
     0
  9
$DIMLIM
 70
     0
  9
$DIMTIH
 70
     0
  9
$DIMTOH
 70
     1
  9
$DIMSE1
 70
     0
  9
$DIMSE2
 70
     0
  9
$DIMTAD
 70
     0
  9
$DIMZIN
 70
     4
  9
$DIMBLK
  1

  9
$DIMASO
 70
     1
  9
$DIMSHO
 70
     1
  9
$DIMPOST
  1

  9
$DIMAPOST
  1

  9
$DIMALT
 70
     1
  9
$DIMALTD
 70
     2
  9
$DIMALTF
 40
25.4
  9
$DIMLFAC
 40
1.0
  9
$DIMTOFL
 70
     0
  9
$DIMTVP
 40
0.0
  9
$DIMTIX
 70
     0
  9
$DIMSOXD
 70
     0
  9
$DIMSAH
 70
     0
  9
$DIMBLK1
  1

  9
$DIMBLK2
  1

  9
$DIMSTYLE
  2
ABECAD_3V
  9
$DIMCLRD
 70
     0
  9
$DIMCLRE
 70
     0
  9
$DIMCLRT
 70
     0
  9
$DIMTFAC
 40
1.5
  9
$DIMGAP
 40
0.09
  9
$DIMJUST
 70
     0
  9
$DIMSD1
 70
     0
  9
$DIMSD2
 70
     0
  9
$DIMTOLJ
 70
     1
  9
$DIMTZIN
 70
     4
  9
$DIMALTZ
 70
     4
  9
$DIMALTTZ
 70
     4
  9
$DIMFIT
 70
     5
  9
$DIMUPT
 70
     1
  9
$DIMUNIT
 70
     7
  9
$DIMDEC
 70
     6
  9
$DIMTDEC
 70
     6
  9
$DIMALTU
 70
     2
  9
$DIMALTTD
 70
     2
  9
$DIMTXSTY
  7
STANDARD
  9
$DIMAUNIT
 70
     0
  9
$LUNITS
 70
     2
  9
$LUPREC
 70
     6
  9
$SKETCHINC
 40
0.1
  9
$FILLETRAD
 40
0.0
  9
$AUNITS
 70
     0
  9
$AUPREC
 70
     0
  9
$MENU
  1
acad
  9
$ELEVATION
 40
0.0
  9
$PELEVATION
 40
0.0
  9
$THICKNESS
 40
0.0
  9
$LIMCHECK
 70
     0
  9
$BLIPMODE
 70
     0
  9
$CHAMFERA
 40
0.0
  9
$CHAMFERB
 40
0.0
  9
$CHAMFERC
 40
0.0
  9
$CHAMFERD
 40
0.0
  9
$SKPOLY
 70
     0
  9
$TDCREATE
 40
2451726.438362384
  9
$TDUPDATE
 40
2452010.725894328
  9
$TDINDWG
 40
0.6751179398
  9
$TDUSRTIMER
 40
0.6751179398
  9
$USRTIMER
 70
     1
  9
$ANGBASE
 50
0.0
  9
$ANGDIR
 70
     0
  9
$PDMODE
 70
     3
  9
$PDSIZE
 40
0.18
  9
$PLINEWID
 40
0.0
  9
$COORDS
 70
     1
  9
$SPLFRAME
 70
     0
  9
$SPLINETYPE
 70
     6
  9
$SPLINESEGS
 70
     8
  9
$ATTDIA
 70
     0
  9
$ATTREQ
 70
     1
  9
$HANDLING
 70
     1
  9
$HANDSEED
  5
20378
  9
$SURFTAB1
 70
     6
  9
$SURFTAB2
 70
     6
  9
$SURFTYPE
 70
     6
  9
$SURFU
 70
     6
  9
$SURFV
 70
     6
  9
$UCSNAME
  2

  9
$UCSORG
 10
0.0
 20
0.0
 30
0.0
  9
$UCSXDIR
 10
1.0
 20
0.0
 30
0.0
  9
$UCSYDIR
 10
0.0
 20
1.0
 30
0.0
  9
$PUCSNAME
  2

  9
$PUCSORG
 10
0.0
 20
0.0
 30
0.0
  9
$PUCSXDIR
 10
1.0
 20
0.0
 30
0.0
  9
$PUCSYDIR
 10
0.0
 20
1.0
 30
0.0
  9
$USERI1
 70
     0
  9
$USERI2
 70
     0
  9
$USERI3
 70
     0
  9
$USERI4
 70
     0
  9
$USERI5
 70
     0
  9
$USERR1
 40
0.0
  9
$USERR2
 40
0.0
  9
$USERR3
 40
0.0
  9
$USERR4
 40
0.0
  9
$USERR5
 40
0.0
  9
$WORLDVIEW
 70
     1
  9
$SHADEDGE
 70
     3
  9
$SHADEDIF
 70
    70
  9
$TILEMODE
 70
     0
  9
$MAXACTVP
 70
    16
  9
$PINSBASE
 10
0.0
 20
0.0
 30
0.0
  9
$PLIMCHECK
 70
     0
  9
$PEXTMIN
 10
0.0
 20
0.0
 30
0.0
  9
$PEXTMAX
 10
10.0
 20
7.5
 30
0.0
  9
$PLIMMIN
 10
-0.187029
 20
-0.186938
  9
$PLIMMAX
 10
10.187518
 20
7.829757
  9
$UNITMODE
 70
     0
  9
$VISRETAIN
 70
     0
  9
$PLINEGEN
 70
     0
  9
$PSLTSCALE
 70
     1
  9
$TREEDEPTH
 70
  3020
  9
$PICKSTYLE
 70
     1
  9
$CMLSTYLE
  2
STANDARD
  9
$CMLJUST
 70
     0
  9
$CMLSCALE
 40
1.0
  9
$PROXYGRAPHICS
 70
     1
  9
$MEASUREMENT
 70
     0
  0
ENDSEC
  0
SECTION
  2
CLASSES
  0
CLASS
  1
DICTIONARYVAR
  2
AcDbDictionaryVar
  3
"AutoCAD"
 90
        0
280
     0
281
     0
  0
CLASS
  1
ACDBDICTIONARYWDFLT
  2
AcDbDictionaryWithDefault
  3
AutoCAD 2000
 90
        0
280
     0
281
     0
  0
CLASS
  1
ACDBPLACEHOLDER
  2
AcDbPlaceHolder
  3
AutoCAD 2000
 90
        0
280
     0
281
     0
  0
CLASS
  1
LAYOUT
  2
AcDbLayout
  3
AutoCAD 2000
 90
        0
280
     0
281
     0
  0
CLASS
  1
LONG_TRANSACTION
  2
AcDbLongTransaction
  3
AutoCAD 2000
 90
        0
280
     0
281
     0
  0
CLASS
  1
LWPOLYLINE
  2
AcDbPolyline
  3
"AutoCAD"
 90
        0
280
     0
281
     1
  0
CLASS
  1
HATCH
  2
AcDbHatch
  3
"ACAD_SEDONA"
 90
        0
280
     0
281
     1
  0
CLASS
  1
XRECORD
  2
AcDbXrecord
  3
"<Built In>"
 90
        0
280
     0
281
     0
  0
CLASS
  1
LONG_TRANSACTION
  2
AcDbLongTransaction
  3
AutoCAD 2000
 90
        0
280
     0
281
     0
  0
CLASS
  1
LWPOLYLINE
  2
AcDbPolyline
  3
"AutoCAD"
 90
        0
280
     0
281
     1
  0
CLASS
  1
HATCH
  2
AcDbHatch
  3
"ACAD_SEDONA"
 90
        0
280
     0
281
     1
  0
CLASS
  1
XRECORD
  2
AcDbXrecord
  3
"<Built In>"
 90
        0
280
     0
281
     0
  0
CLASS
  1
LONG_TRANSACTION
  2
AcDbLongTransaction
  3
AutoCAD 2000
 90
        0
280
     0
281
     0
  0
CLASS
  1
LWPOLYLINE
  2
AcDbPolyline
  3
"AutoCAD"
 90
        0
280
     0
281
     1
  0
CLASS
  1
HATCH
  2
AcDbHatch
  3
"ACAD_SEDONA"
 90
        0
280
     0
281
     1
  0
CLASS
  1
XRECORD
  2
AcDbXrecord
  3
"<Built In>"
 90
        0
280
     0
281
     0
  0
CLASS
  1
LONG_TRANSACTION
  2
AcDbLongTransaction
  3
AutoCAD 2000
 90
        0
280
     0
281
     0
  0
CLASS
  1
LWPOLYLINE
  2
AcDbPolyline
  3
"AutoCAD"
 90
        0
280
     0
281
     1
  0
CLASS
  1
HATCH
  2
AcDbHatch
  3
"ACAD_SEDONA"
 90
        0
280
     0
281
     1
  0
CLASS
  1
XRECORD
  2
AcDbXrecord
  3
"<Built In>"
 90
        0
280
     0
281
     0
  0
CLASS
  1
LONG_TRANSACTION
  2
AcDbLongTransaction
  3
AutoCAD 2000
 90
        0
280
     0
281
     0
  0
CLASS
  1
LWPOLYLINE
  2
AcDbPolyline
  3
"AutoCAD"
 90
        0
280
     0
281
     1
  0
CLASS
  1
HATCH
  2
AcDbHatch
  3
"ACAD_SEDONA"
 90
        0
280
     0
281
     1
  0
CLASS
  1
XRECORD
  2
AcDbXrecord
  3
"<Built In>"
 90
        0
280
     0
281
     0
  0
CLASS
  1
LONG_TRANSACTION
  2
AcDbLongTransaction
  3
AutoCAD 2000
 90
        0
280
     0
281
     0
  0
CLASS
  1
LWPOLYLINE
  2
AcDbPolyline
  3
"AutoCAD"
 90
        0
280
     0
281
     1
  0
CLASS
  1
HATCH
  2
AcDbHatch
  3
"ACAD_SEDONA"
 90
        0
280
     0
281
     1
  0
CLASS
  1
XRECORD
  2
AcDbXrecord
  3
"<Built In>"
 90
        0
280
     0
281
     0
  0
CLASS
  1
LONG_TRANSACTION
  2
AcDbLongTransaction
  3
AutoCAD 2000
 90
        0
280
     0
281
     0
  0
CLASS
  1
LWPOLYLINE
  2
AcDbPolyline
  3
"AutoCAD"
 90
        0
280
     0
281
     1
  0
CLASS
  1
HATCH
  2
AcDbHatch
  3
"ACAD_SEDONA"
 90
        0
280
     0
281
     1
  0
CLASS
  1
XRECORD
  2
AcDbXrecord
  3
"<Built In>"
 90
        0
280
     0
281
     0
  0
CLASS
  1
LONG_TRANSACTION
  2
AcDbLongTransaction
  3
AutoCAD 2000
 90
        0
280
     0
281
     0
  0
CLASS
  1
LWPOLYLINE
  2
AcDbPolyline
  3
"AutoCAD"
 90
        0
280
     0
281
     1
  0
CLASS
  1
HATCH
  2
AcDbHatch
  3
"ACAD_SEDONA"
 90
        0
280
     0
281
     1
  0
CLASS
  1
XRECORD
  2
AcDbXrecord
  3
"<Built In>"
 90
        0
280
     0
281
     0
  0
CLASS
  1
LONG_TRANSACTION
  2
AcDbLongTransaction
  3
AutoCAD 2000
 90
        0
280
     0
281
     0
  0
CLASS
  1
LWPOLYLINE
  2
AcDbPolyline
  3
"AutoCAD"
 90
        0
280
     0
281
     1
  0
CLASS
  1
HATCH
  2
AcDbHatch
  3
"ACAD_SEDONA"
 90
        0
280
     0
281
     1
  0
CLASS
  1
XRECORD
  2
AcDbXrecord
  3
"<Built In>"
 90
        0
280
     0
281
     0
  0
CLASS
  1
LONG_TRANSACTION
  2
AcDbLongTransaction
  3
AutoCAD 2000
 90
        0
280
     0
281
     0
  0
CLASS
  1
LWPOLYLINE
  2
AcDbPolyline
  3
"AutoCAD"
 90
        0
280
     0
281
     1
  0
CLASS
  1
HATCH
  2
AcDbHatch
  3
"ACAD_SEDONA"
 90
        0
280
     0
281
     1
  0
CLASS
  1
XRECORD
  2
AcDbXrecord
  3
"<Built In>"
 90
        0
280
     0
281
     0
  0
CLASS
  1
LONG_TRANSACTION
  2
AcDbLongTransaction
  3
AutoCAD 2000
 90
        0
280
     0
281
     0
  0
CLASS
  1
LWPOLYLINE
  2
AcDbPolyline
  3
"AutoCAD"
 90
        0
280
     0
281
     1
  0
CLASS
  1
HATCH
  2
AcDbHatch
  3
"ACAD_SEDONA"
 90
        0
280
     0
281
     1
  0
CLASS
  1
XRECORD
  2
AcDbXrecord
  3
"<Built In>"
 90
        0
280
     0
281
     0
  0
CLASS
  1
LONG_TRANSACTION
  2
AcDbLongTransaction
  3
AutoCAD 2000
 90
        0
280
     0
281
     0
  0
CLASS
  1
LWPOLYLINE
  2
AcDbPolyline
  3
"AutoCAD"
 90
        0
280
     0
281
     1
  0
CLASS
  1
HATCH
  2
AcDbHatch
  3
"ACAD_SEDONA"
 90
        0
280
     0
281
     1
  0
CLASS
  1
XRECORD
  2
AcDbXrecord
  3
"<Built In>"
 90
        0
280
     0
281
     0
  0
CLASS
  1
LONG_TRANSACTION
  2
AcDbLongTransaction
  3
AutoCAD 2000
 90
        0
280
     0
281
     0
  0
CLASS
  1
LWPOLYLINE
  2
AcDbPolyline
  3
"AutoCAD"
 90
        0
280
     0
281
     1
  0
CLASS
  1
HATCH
  2
AcDbHatch
  3
"ACAD_SEDONA"
 90
        0
280
     0
281
     1
  0
CLASS
  1
XRECORD
  2
AcDbXrecord
  3
"<Built In>"
 90
        0
280
     0
281
     0
  0
CLASS
  1
LONG_TRANSACTION
  2
AcDbLongTransaction
  3
AutoCAD 2000
 90
        0
280
     0
281
     0
  0
CLASS
  1
LWPOLYLINE
  2
AcDbPolyline
  3
"AutoCAD"
 90
        0
280
     0
281
     1
  0
CLASS
  1
HATCH
  2
AcDbHatch
  3
"ACAD_SEDONA"
 90
        0
280
     0
281
     1
  0
CLASS
  1
XRECORD
  2
AcDbXrecord
  3
"<Built In>"
 90
        0
280
     0
281
     0
  0
CLASS
  1
LONG_TRANSACTION
  2
AcDbLongTransaction
  3
AutoCAD 2000
 90
        0
280
     0
281
     0
  0
CLASS
  1
LWPOLYLINE
  2
AcDbPolyline
  3
"AutoCAD"
 90
        0
280
     0
281
     1
  0
CLASS
  1
HATCH
  2
AcDbHatch
  3
"ACAD_SEDONA"
 90
        0
280
     0
281
     1
  0
CLASS
  1
XRECORD
  2
AcDbXrecord
  3
"<Built In>"
 90
        0
280
     0
281
     0
  0
CLASS
  1
LONG_TRANSACTION
  2
AcDbLongTransaction
  3
AutoCAD 2000
 90
        0
280
     0
281
     0
  0
CLASS
  1
LWPOLYLINE
  2
AcDbPolyline
  3
"AutoCAD"
 90
        0
280
     0
281
     1
  0
CLASS
  1
HATCH
  2
AcDbHatch
  3
"ACAD_SEDONA"
 90
        0
280
     0
281
     1
  0
CLASS
  1
XRECORD
  2
AcDbXrecord
  3
"<Built In>"
 90
        0
280
     0
281
     0
  0
CLASS
  1
LONG_TRANSACTION
  2
AcDbLongTransaction
  3
AutoCAD 2000
 90
        0
280
     0
281
     0
  0
CLASS
  1
LWPOLYLINE
  2
AcDbPolyline
  3
"AutoCAD"
 90
        0
280
     0
281
     1
  0
CLASS
  1
HATCH
  2
AcDbHatch
  3
"ACAD_SEDONA"
 90
        0
280
     0
281
     1
  0
CLASS
  1
XRECORD
  2
AcDbXrecord
  3
"<Built In>"
 90
        0
280
     0
281
     0
  0
CLASS
  1
LONG_TRANSACTION
  2
AcDbLongTransaction
  3
AutoCAD 2000
 90
        0
280
     0
281
     0
  0
CLASS
  1
LWPOLYLINE
  2
AcDbPolyline
  3
"AutoCAD"
 90
        0
280
     0
281
     1
  0
CLASS
  1
HATCH
  2
AcDbHatch
  3
"ACAD_SEDONA"
 90
        0
280
     0
281
     1
  0
CLASS
  1
XRECORD
  2
AcDbXrecord
  3
"<Built In>"
 90
        0
280
     0
281
     0
  0
CLASS
  1
LONG_TRANSACTION
  2
AcDbLongTransaction
  3
AutoCAD 2000
 90
        0
280
     0
281
     0
  0
CLASS
  1
LWPOLYLINE
  2
AcDbPolyline
  3
"AutoCAD"
 90
        0
280
     0
281
     1
  0
CLASS
  1
HATCH
  2
AcDbHatch
  3
"ACAD_SEDONA"
 90
        0
280
     0
281
     1
  0
CLASS
  1
XRECORD
  2
AcDbXrecord
  3
"<Built In>"
 90
        0
280
     0
281
     0
  0
CLASS
  1
LONG_TRANSACTION
  2
AcDbLongTransaction
  3
AutoCAD 2000
 90
        0
280
     0
281
     0
  0
CLASS
  1
LWPOLYLINE
  2
AcDbPolyline
  3
"AutoCAD"
 90
        0
280
     0
281
     1
  0
CLASS
  1
HATCH
  2
AcDbHatch
  3
"ACAD_SEDONA"
 90
        0
280
     0
281
     1
  0
CLASS
  1
XRECORD
  2
AcDbXrecord
  3
"<Built In>"
 90
        0
280
     0
281
     0
  0
CLASS
  1
LONG_TRANSACTION
  2
AcDbLongTransaction
  3
AutoCAD 2000
 90
        0
280
     0
281
     0
  0
CLASS
  1
LWPOLYLINE
  2
AcDbPolyline
  3
"AutoCAD"
 90
        0
280
     0
281
     1
  0
CLASS
  1
HATCH
  2
AcDbHatch
  3
"ACAD_SEDONA"
 90
        0
280
     0
281
     1
  0
CLASS
  1
XRECORD
  2
AcDbXrecord
  3
"<Built In>"
 90
        0
280
     0
281
     0
  0
CLASS
  1
LONG_TRANSACTION
  2
AcDbLongTransaction
  3
AutoCAD 2000
 90
        0
280
     0
281
     0
  0
CLASS
  1
LWPOLYLINE
  2
AcDbPolyline
  3
"AutoCAD"
 90
        0
280
     0
281
     1
  0
CLASS
  1
HATCH
  2
AcDbHatch
  3
"ACAD_SEDONA"
 90
        0
280
     0
281
     1
  0
CLASS
  1
XRECORD
  2
AcDbXrecord
  3
"<Built In>"
 90
        0
280
     0
281
     0
  0
CLASS
  1
LONG_TRANSACTION
  2
AcDbLongTransaction
  3
AutoCAD 2000
 90
        0
280
     0
281
     0
  0
CLASS
  1
LWPOLYLINE
  2
AcDbPolyline
  3
"AutoCAD"
 90
        0
280
     0
281
     1
  0
CLASS
  1
HATCH
  2
AcDbHatch
  3
"ACAD_SEDONA"
 90
        0
280
     0
281
     1
  0
CLASS
  1
XRECORD
  2
AcDbXrecord
  3
"<Built In>"
 90
        0
280
     0
281
     0
  0
CLASS
  1
LONG_TRANSACTION
  2
AcDbLongTransaction
  3
AutoCAD 2000
 90
        0
280
     0
281
     0
  0
CLASS
  1
LWPOLYLINE
  2
AcDbPolyline
  3
"AutoCAD"
 90
        0
280
     0
281
     1
  0
CLASS
  1
HATCH
  2
AcDbHatch
  3
"ACAD_SEDONA"
 90
        0
280
     0
281
     1
  0
CLASS
  1
XRECORD
  2
AcDbXrecord
  3
"<Built In>"
 90
        0
280
     0
281
     0
  0
CLASS
  1
LONG_TRANSACTION
  2
AcDbLongTransaction
  3
AutoCAD 2000
 90
        0
280
     0
281
     0
  0
CLASS
  1
LWPOLYLINE
  2
AcDbPolyline
  3
"AutoCAD"
 90
        0
280
     0
281
     1
  0
CLASS
  1
HATCH
  2
AcDbHatch
  3
"ACAD_SEDONA"
 90
        0
280
     0
281
     1
  0
CLASS
  1
XRECORD
  2
AcDbXrecord
  3
"<Built In>"
 90
        0
280
     0
281
     0
  0
CLASS
  1
LONG_TRANSACTION
  2
AcDbLongTransaction
  3
AutoCAD 2000
 90
        0
280
     0
281
     0
  0
CLASS
  1
LWPOLYLINE
  2
AcDbPolyline
  3
"AutoCAD"
 90
        0
280
     0
281
     1
  0
CLASS
  1
HATCH
  2
AcDbHatch
  3
"ACAD_SEDONA"
 90
        0
280
     0
281
     1
  0
CLASS
  1
XRECORD
  2
AcDbXrecord
  3
"<Built In>"
 90
        0
280
     0
281
     0
  0
CLASS
  1
LONG_TRANSACTION
  2
AcDbLongTransaction
  3
AutoCAD 2000
 90
        0
280
     0
281
     0
  0
CLASS
  1
LWPOLYLINE
  2
AcDbPolyline
  3
"AutoCAD"
 90
        0
280
     0
281
     1
  0
CLASS
  1
HATCH
  2
AcDbHatch
  3
"ACAD_SEDONA"
 90
        0
280
     0
281
     1
  0
CLASS
  1
XRECORD
  2
AcDbXrecord
  3
"<Built In>"
 90
        0
280
     0
281
     0
  0
CLASS
  1
LONG_TRANSACTION
  2
AcDbLongTransaction
  3
AutoCAD 2000
 90
        0
280
     0
281
     0
  0
CLASS
  1
LWPOLYLINE
  2
AcDbPolyline
  3
"AutoCAD"
 90
        0
280
     0
281
     1
  0
CLASS
  1
HATCH
  2
AcDbHatch
  3
"ACAD_SEDONA"
 90
        0
280
     0
281
     1
  0
CLASS
  1
XRECORD
  2
AcDbXrecord
  3
"<Built In>"
 90
        0
280
     0
281
     0
  0
CLASS
  1
LONG_TRANSACTION
  2
AcDbLongTransaction
  3
AutoCAD 2000
 90
        0
280
     0
281
     0
  0
CLASS
  1
LWPOLYLINE
  2
AcDbPolyline
  3
"AutoCAD"
 90
        0
280
     0
281
     1
  0
CLASS
  1
HATCH
  2
AcDbHatch
  3
"ACAD_SEDONA"
 90
        0
280
     0
281
     1
  0
CLASS
  1
XRECORD
  2
AcDbXrecord
  3
"<Built In>"
 90
        0
280
     0
281
     0
  0
ENDSEC
  0
SECTION
  2
TABLES
  0
TABLE
  2
VPORT
  5
469
100
AcDbSymbolTable
 70
     1
  0
VPORT
  5
2025F
102
{ACAD_XDICTIONARY
360
20340
102
}
100
AcDbSymbolTableRecord
100
AcDbViewportTableRecord
  2
*ACTIVE
 70
     0
 10
0.0
 20
0.0
 11
1.0
 21
1.0
 12
0.745259
 22
-1.641857
 13
0.0
 23
0.0
 14
1.0
 24
1.0
 15
0.0
 25
0.0
 16
0.0
 26
0.0
 36
1.0
 17
-0.084399
 27
0.843356
 37
0.0
 40
5.083335
 41
1.82218
 42
50.0
 43
0.0
 44
0.0
 50
0.0
 51
0.0
 71
     0
 72
   100
 73
     1
 74
     1
 75
     0
 76
     0
 77
     0
 78
     0
  0
ENDTAB
  0
TABLE
  2
LTYPE
  5
466
100
AcDbSymbolTable
 70
     1
  0
LTYPE
  5
472
100
AcDbSymbolTableRecord
100
AcDbLinetypeTableRecord
  2
BYBLOCK
 70
     0
  3

 72
    65
 73
     0
 40
0.0
  0
LTYPE
  5
473
100
AcDbSymbolTableRecord
100
AcDbLinetypeTableRecord
  2
BYLAYER
 70
     0
  3

 72
    65
 73
     0
 40
0.0
  0
LTYPE
  5
474
100
AcDbSymbolTableRecord
100
AcDbLinetypeTableRecord
  2
CONTINUOUS
 70
     0
  3
Solid line
 72
    65
 73
     0
 40
0.0
  0
ENDTAB
  0
TABLE
  2
LAYER
  5
463
100
AcDbSymbolTable
 70
     8
  0
LAYER
  5
46F
100
AcDbSymbolTableRecord
100
AcDbLayerTableRecord
  2
0
 70
     0
 62
     7
  6
CONTINUOUS
  0
LAYER
  5
485
100
AcDbSymbolTableRecord
100
AcDbLayerTableRecord
  2
AREA1
 70
     0
 62
     7
  6
CONTINUOUS
  0
LAYER
  5
486
100
AcDbSymbolTableRecord
100
AcDbLayerTableRecord
  2
AREA2
 70
     0
 62
     7
  6
CONTINUOUS
  0
LAYER
  5
494
102
{ACAD_XDICTIONARY
360
2036D
102
}
100
AcDbSymbolTableRecord
100
AcDbLayerTableRecord
  2
DEFPOINTS
 70
     0
 62
    -7
  6
CONTINUOUS
  0
LAYER
  5
495
100
AcDbSymbolTableRecord
100
AcDbLayerTableRecord
  2
DIMS-MTG-HOLES
 70
     0
 62
    -1
  6
CONTINUOUS
  0
LAYER
  5
4E6
100
AcDbSymbolTableRecord
100
AcDbLayerTableRecord
  2
SCALE
 70
     0
 62
    -7
  6
CONTINUOUS
  0
LAYER
  5
4ED
100
AcDbSymbolTableRecord
100
AcDbLayerTableRecord
  2
SNAP_POINTS
 70
     0
 62
    -1
  6
CONTINUOUS
  0
LAYER
  5
4F1
100
AcDbSymbolTableRecord
100
AcDbLayerTableRecord
  2
ATTRIBUTES
 70
     0
 62
    -7
  6
CONTINUOUS
  0
ENDTAB
  0
TABLE
  2
STYLE
  5
464
100
AcDbSymbolTable
 70
     1
  0
STYLE
  5
470
100
AcDbSymbolTableRecord
100
AcDbTextStyleTableRecord
  2
STANDARD
 70
     0
 40
0.0
 41
1.0
 50
0.0
 71
     0
 42
0.2
  3
txt
  4

  0
ENDTAB
  0
TABLE
  2
VIEW
  5
467
100
AcDbSymbolTable
 70
     0
  0
ENDTAB
  0
TABLE
  2
UCS
  5
468
100
AcDbSymbolTable
 70
     0
  0
ENDTAB
  0
TABLE
  2
APPID
  5
46A
100
AcDbSymbolTable
 70
     2
  0
APPID
  5
471
100
AcDbSymbolTableRecord
100
AcDbRegAppTableRecord
  2
ACAD
 70
     0
  0
APPID
  5
47E
100
AcDbSymbolTableRecord
100
AcDbRegAppTableRecord
  2
AVE_RENDER
 70
     0
  0
ENDTAB
  0
TABLE
  2
DIMSTYLE
  5
46B
100
AcDbSymbolTable
 70
     2
  0
DIMSTYLE
105
49A
102
{ACAD_XDICTIONARY
360
2036F
102
}
102
{ACAD_REACTORS
330
20250
102
}
100
AcDbSymbolTableRecord
100
AcDbDimStyleTableRecord
  2
ABECAD_3V
 70
     0
  3

  4

  5

  6

  7

 40
0.0
 41
0.18
 42
0.0625
 43
0.375
 44
0.18
 45
0.0
 46
0.0
 47
0.0
 48
0.0
140
0.15
141
0.09
142
0.0
143
25.4
144
1.0
145
0.0
146
1.5
147
0.09
 71
     0
 72
     0
 73
     0
 74
     1
 75
     0
 76
     0
 77
     0
 78
     4
170
     1
171
     2
172
     0
173
     0
174
     0
175
     0
176
     0
177
     0
178
     0
270
     7
271
     6
272
     6
273
     2
274
     2
340
470
275
     0
280
     0
281
     0
282
     0
283
     1
284
     4
285
     4
286
     4
287
     5
288
     1
  0
DIMSTYLE
105
512
102
{ACAD_XDICTIONARY
360
20373
102
}
102
{ACAD_REACTORS
330
2020E
330
2020F
102
}
100
AcDbSymbolTableRecord
100
AcDbDimStyleTableRecord
  2
ABECAD_3D
 70
     0
  3

  4

  5

  6

  7

 40
1.0
 41
0.18
 42
0.0625
 43
0.375
 44
0.18
 45
0.0
 46
0.0
 47
0.0
 48
0.0
140
0.18
141
0.09
142
0.0
143
25.4
144
1.0
145
0.0
146
1.5
147
0.09
 71
     0
 72
     0
 73
     0
 74
     1
 75
     0
 76
     0
 77
     0
 78
     4
170
     1
171
     2
172
     0
173
     0
174
     0
175
     0
176
     0
177
     0
178
     0
270
     7
271
     6
272
     6
273
     2
274
     2
340
470
275
     0
280
     0
281
     0
282
     0
283
     1
284
     4
285
     4
286
     4
287
     5
288
     1
  0
ENDTAB
  0
TABLE
  2
BLOCK_RECORD
  5
462
100
AcDbSymbolTable
 70
     3
  0
BLOCK_RECORD
  5
478
102
{ACAD_XDICTIONARY
360
4D2
102
}
100
AcDbSymbolTableRecord
100
AcDbBlockTableRecord
  2
*MODEL_SPACE
  0
BLOCK_RECORD
  5
475
102
{ACAD_XDICTIONARY
360
4D0
102
}
100
AcDbSymbolTableRecord
100
AcDbBlockTableRecord
  2
*PAPER_SPACE
  0
BLOCK_RECORD
  5
2021B
100
AcDbSymbolTableRecord
100
AcDbBlockTableRecord
  2
*D0
  0
BLOCK_RECORD
  5
20228
100
AcDbSymbolTableRecord
100
AcDbBlockTableRecord
  2
*D1
  0
BLOCK_RECORD
  5
20251
100
AcDbSymbolTableRecord
100
AcDbBlockTableRecord
  2
*D2
  0
ENDTAB
  0
ENDSEC
  0
SECTION
  2
BLOCKS
  0
BLOCK
  5
48B
100
AcDbEntity
  8
0
100
AcDbBlockBegin
  2
*MODEL_SPACE
 70
     0
 10
0.0
 20
0.0
 30
0.0
  3
*MODEL_SPACE
  1

  0
ENDBLK
  5
48C
100
AcDbEntity
  8
0
100
AcDbBlockEnd
  0
BLOCK
  5
489
100
AcDbEntity
 67
     1
  8
0
100
AcDbBlockBegin
  2
*PAPER_SPACE
 70
     0
 10
0.0
 20
0.0
 30
0.0
  3
*PAPER_SPACE
  1

  0
ENDBLK
  5
48A
100
AcDbEntity
 67
     1
  8
0
100
AcDbBlockEnd
  0
BLOCK
  5
20226
100
AcDbEntity
  8
0
100
AcDbBlockBegin
  2
*D0
 70
     1
 10
0.0
 20
0.0
 30
0.0
  3
*D0
  1

  0
LINE
  5
20234
100
AcDbEntity
  8
AREA1
 62
     0
100
AcDbLine
 10
0.445
 20
0.838
 30
0.0
 11
-0.776749
 21
0.838
 31
0.0
1001
ACAD
1000
RTLwPs
1070
   158
  0
LINE
  5
20235
100
AcDbEntity
  8
AREA1
 62
     0
100
AcDbLine
 10
0.812
 20
-2.342
 30
0.0
 11
-0.776749
 21
-2.342
 31
0.0
1001
ACAD
1000
RTLwPs
1070
   158
  0
LINE
  5
20236
100
AcDbEntity
  8
AREA1
 62
     0
100
AcDbLine
 10
-0.596749
 20
0.658
 30
0.0
 11
-0.596749
 21
0.314154
 31
0.0
1001
ACAD
1000
RTLwPs
1070
   158
  0
LINE
  5
20237
100
AcDbEntity
  8
AREA1
 62
     0
100
AcDbLine
 10
-0.596749
 20
-2.162
 30
0.0
 11
-0.596749
 21
-1.995846
 31
0.0
1001
ACAD
1000
RTLwPs
1070
   158
  0
MTEXT
  5
20238
100
AcDbEntity
  8
AREA1
 62
     0
100
AcDbMText
 10
-0.596749
 20
-0.840846
 30
0.0
 40
0.18
 41
0.0
 71
     5
 72
     1
  1
\A1;3 3/16 [80.77]
 11
0.0
 21
1.0
 31
0.0
1001
ACAD
1000
MTEXTBEGIN
1070
    73
1070
     1
1070
    44
1040
1.0
1070
    74
1070
     0
1000
MTEXTEND
1000
MTEXTBEGIN
1070
    73
1070
     1
1070
    44
1040
1.0
1070
    74
1070
     0
1000
MTEXTEND
1000
MTEXTBEGIN
1070
    73
1070
     1
1070
    44
1040
1.0
1070
    74
1070
     0
1000
MTEXTEND
1000
MTEXTBEGIN
1070
    73
1070
     1
1070
    44
1040
1.0
1070
    74
1070
     0
1000
MTEXTEND
1000
MTEXTBEGIN
1070
    73
1070
     1
1070
    44
1040
1.0
1070
    74
1070
     0
1000
MTEXTEND
  0
SOLID
  5
20239
100
AcDbEntity
  8
AREA1
 62
     0
100
AcDbTrace
 10
-0.626749
 20
0.658
 30
0.0
 11
-0.566749
 21
0.658
 31
0.0
 12
-0.596749
 22
0.838
 32
0.0
 13
-0.596749
 23
0.838
 33
0.0
  0
SOLID
  5
2023A
100
AcDbEntity
  8
AREA1
 62
     0
100
AcDbTrace
 10
-0.626749
 20
-2.162
 30
0.0
 11
-0.566749
 21
-2.162
 31
0.0
 12
-0.596749
 22
-2.342
 32
0.0
 13
-0.596749
 23
-2.342
 33
0.0
  0
POINT
  5
2023B
100
AcDbEntity
  8
DEFPOINTS
 62
     0
100
AcDbPoint
 10
0.5075
 20
0.838
 30
1.388
  0
POINT
  5
2023C
100
AcDbEntity
  8
DEFPOINTS
 62
     0
100
AcDbPoint
 10
0.8745
 20
-2.342
 30
1.388
  0
POINT
  5
2023D
100
AcDbEntity
  8
DEFPOINTS
 62
     0
100
AcDbPoint
 10
-0.596749
 20
-2.342
 30
0.0
  0
ENDBLK
  5
20227
100
AcDbEntity
  8
0
100
AcDbBlockEnd
  0
BLOCK
  5
20232
100
AcDbEntity
  8
0
100
AcDbBlockBegin
  2
*D1
 70
     1
 10
0.0
 20
0.0
 30
0.0
  3
*D1
  1

  0
LINE
  5
20247
100
AcDbEntity
  8
AREA1
 62
     0
100
AcDbLine
 10
0.0
 20
0.5775
 30
0.0
 11
0.0
 21
1.406405
 31
0.0
1001
ACAD
1000
RTLwPs
1070
   158
  0
LINE
  5
20248
100
AcDbEntity
  8
AREA1
 62
     0
100
AcDbLine
 10
2.12
 20
0.5775
 30
0.0
 11
2.12
 21
1.406405
 31
0.0
1001
ACAD
1000
RTLwPs
1070
   158
  0
LINE
  5
20249
100
AcDbEntity
  8
AREA1
 62
     0
100
AcDbLine
 10
0.18
 20
1.226405
 30
0.0
 11
1.94
 21
1.226405
 31
0.0
1001
ACAD
1000
RTLwPs
1070
   158
  0
MTEXT
  5
2024A
100
AcDbEntity
  8
AREA1
 62
     0
100
AcDbMText
 10
1.054591
 20
1.624393
 30
0.0
 40
0.18
 41
0.0
 71
     5
 72
     1
  1
\A1;2 1/8 [53.85]
1001
ACAD
1000
MTEXTBEGIN
1070
    73
1070
     1
1070
    44
1040
1.0
1070
    74
1070
     0
1000
MTEXTEND
1000
MTEXTBEGIN
1070
    73
1070
     1
1070
    44
1040
1.0
1070
    74
1070
     0
1000
MTEXTEND
1000
MTEXTBEGIN
1070
    73
1070
     1
1070
    44
1040
1.0
1070
    74
1070
     0
1000
MTEXTEND
1000
MTEXTBEGIN
1070
    73
1070
     1
1070
    44
1040
1.0
1070
    74
1070
     0
1000
MTEXTEND
1000
MTEXTBEGIN
1070
    73
1070
     1
1070
    44
1040
1.0
1070
    74
1070
     0
1000
MTEXTEND
  0
SOLID
  5
2024B
100
AcDbEntity
  8
AREA1
 62
     0
100
AcDbTrace
 10
0.18
 20
1.256405
 30
0.0
 11
0.18
 21
1.196405
 31
0.0
 12
0.0
 22
1.226405
 32
0.0
 13
0.0
 23
1.226405
 33
0.0
  0
SOLID
  5
2024C
100
AcDbEntity
  8
AREA1
 62
     0
100
AcDbTrace
 10
1.94
 20
1.256405
 30
0.0
 11
1.94
 21
1.196405
 31
0.0
 12
2.12
 22
1.226405
 32
0.0
 13
2.12
 23
1.226405
 33
0.0
  0
POINT
  5
2024D
100
AcDbEntity
  8
DEFPOINTS
 62
     0
100
AcDbPoint
 10
0.0
 20
0.515
 30
1.641
  0
POINT
  5
2024E
100
AcDbEntity
  8
DEFPOINTS
 62
     0
100
AcDbPoint
 10
2.12
 20
0.515
 30
1.641
  0
POINT
  5
2024F
100
AcDbEntity
  8
DEFPOINTS
 62
     0
100
AcDbPoint
 10
2.12
 20
1.226405
 30
0.0
  0
ENDBLK
  5
20233
100
AcDbEntity
  8
0
100
AcDbBlockEnd
  0
BLOCK
  5
2025C
100
AcDbEntity
  8
0
100
AcDbBlockBegin
  2
*D2
 70
     1
 10
0.0
 20
0.0
 30
0.0
  3
*D2
  1

  0
LINE
  5
20252
100
AcDbEntity
  8
AREA2
 62
     0
100
AcDbLine
 10
0.76
 20
4.11
 30
0.0
 11
-0.92557
 21
4.11
 31
0.0
1001
ACAD
1000
RTLwPs
1070
   158
  0
LINE
  5
20253
100
AcDbEntity
  8
AREA2
 62
     0
100
AcDbLine
 10
-0.0625
 20
0.0
 30
0.0
 11
-0.92557
 21
0.0
 31
0.0
1001
ACAD
1000
RTLwPs
1070
   158
  0
LINE
  5
20254
100
AcDbEntity
  8
AREA2
 62
     0
100
AcDbLine
 10
-0.74557
 20
3.93
 30
0.0
 11
-0.74557
 21
2.992467
 31
0.0
1001
ACAD
1000
RTLwPs
1070
   158
  0
LINE
  5
20255
100
AcDbEntity
  8
AREA2
 62
     0
100
AcDbLine
 10
-0.74557
 20
0.18
 30
0.0
 11
-0.74557
 21
0.887467
 31
0.0
1001
ACAD
1000
RTLwPs
1070
   158
  0
MTEXT
  5
20256
100
AcDbEntity
  8
AREA2
 62
     0
100
AcDbMText
 10
-0.74557
 20
1.939967
 30
0.0
 40
0.15
 41
0.0
 71
     5
 72
     1
  1
\A1;4 7/64 [104.39]
 11
0.0
 21
1.0
 31
0.0
1001
ACAD
1000
MTEXTBEGIN
1070
    73
1070
     1
1070
    44
1040
1.0
1070
    74
1070
     0
1000
MTEXTEND
1000
MTEXTBEGIN
1070
    73
1070
     1
1070
    44
1040
1.0
1070
    74
1070
     0
1000
MTEXTEND
1000
MTEXTBEGIN
1070
    73
1070
     1
1070
    44
1040
1.0
1070
    74
1070
     0
1000
MTEXTEND
1000
MTEXTBEGIN
1070
    73
1070
     1
1070
    44
1040
1.0
1070
    74
1070
     0
1000
MTEXTEND
1000
MTEXTBEGIN
1070
    73
1070
     1
1070
    44
1040
1.0
1070
    74
1070
     0
1000
MTEXTEND
  0
SOLID
  5
20257
100
AcDbEntity
  8
AREA2
 62
     0
100
AcDbTrace
 10
-0.77557
 20
3.93
 30
0.0
 11
-0.71557
 21
3.93
 31
0.0
 12
-0.74557
 22
4.11
 32
0.0
 13
-0.74557
 23
4.11
 33
0.0
  0
SOLID
  5
20258
100
AcDbEntity
  8
AREA2
 62
     0
100
AcDbTrace
 10
-0.77557
 20
0.18
 30
0.0
 11
-0.71557
 21
0.18
 31
0.0
 12
-0.74557
 22
0.0
 32
0.0
 13
-0.74557
 23
0.0
 33
0.0
  0
POINT
  5
20259
100
AcDbEntity
  8
DEFPOINTS
 62
     0
100
AcDbPoint
 10
0.8225
 20
4.11
 30
0.6775
  0
POINT
  5
2025A
100
AcDbEntity
  8
DEFPOINTS
 62
     0
100
AcDbPoint
 10
0.0
 20
0.0
 30
1.806
  0
POINT
  5
2025B
100
AcDbEntity
  8
DEFPOINTS
 62
     0
100
AcDbPoint
 10
-0.74557
 20
0.0
 30
0.0
  0
ENDBLK
  5
2025D
100
AcDbEntity
  8
0
100
AcDbBlockEnd
  0
ENDSEC
  0
SECTION
  2
ENTITIES
  0
ATTDEF
  5
1FEC2
100
AcDbEntity
  8
ATTRIBUTES
100
AcDbText
 10
0.078485
 20
-0.246172
 30
0.0
 40
0.08052
  1
ALLEN-BRADLEY
100
AcDbAttributeDefinition
  3
MANUFACTURER NAME?
  2
AC_VND_LABEL
 70
     1
  0
ATTDEF
  5
1FEC3
100
AcDbEntity
  8
ATTRIBUTES
100
AcDbText
 10
0.078485
 20
-0.413922
 30
0.0
 40
0.08052
  1
100-C43*00
100
AcDbAttributeDefinition
  3
CATALOG NUMBER?
  2
AC_PART_NO
 70
     1
  0
ATTDEF
  5
1FEC4
100
AcDbEntity
  8
ATTRIBUTES
100
AcDbText
 10
0.078485
 20
-0.581673
 30
0.0
 40
0.08052
  1
MCS IEC AC CONTACTOR; 43A
100
AcDbAttributeDefinition
  3
PART DESCRIPTION?
  2
AC_DESCRIPTION
 70
     1
  0
ATTDEF
  5
1FEC5
100
AcDbEntity
  8
ATTRIBUTES
100
AcDbText
 10
0.078485
 20
-0.749424
 30
0.0
 40
0.08052
  1

100
AcDbAttributeDefinition
  3
DEVICE ID?
  2
DEVICE_ID
 70
     1
  0
ATTDEF
  5
1FEC6
100
AcDbEntity
  8
ATTRIBUTES
100
AcDbText
 10
0.078485
 20
-0.917175
 30
0.0
 40
0.08052
  1

100
AcDbAttributeDefinition
  3
CUSTOMER PART NUMBER?
  2
AC_CPART_NO
 70
     1
  0
ATTDEF
  5
1FEC7
100
AcDbEntity
  8
ATTRIBUTES
100
AcDbText
 10
0.078485
 20
-1.084925
 30
0.0
 40
0.08052
  1

100
AcDbAttributeDefinition
  3
CUSTOMER NOTE?
  2
AC_NOTE
 70
     1
  0
ATTDEF
  5
1FEC8
100
AcDbEntity
  8
ATTRIBUTES
100
AcDbText
 10
0.078485
 20
-1.252676
 30
0.0
 40
0.08052
  1

100
AcDbAttributeDefinition
  3
FASTENER DATA?
  2
FASTENER
 70
     1
  0
ATTDEF
  5
1FEC9
100
AcDbEntity
  8
ATTRIBUTES
100
AcDbText
 10
0.078485
 20
-1.420427
 30
0.0
 40
0.08052
  1
INCH
100
AcDbAttributeDefinition
  3
UNIT OF SCALE?
  2
AC_SCALE_UNIT
 70
     1
  0
ATTDEF
  5
1FECA
100
AcDbEntity
  8
ATTRIBUTES
100
AcDbText
 10
0.078485
 20
-1.588178
 30
0.0
 40
0.08052
  1
0
100
AcDbAttributeDefinition
  3
VIEW CODE?
  2
AC_VIEW_CODE
 70
     1
  0
CIRCLE
  5
1FECB
100
AcDbEntity
  8
0
100
AcDbCircle
 10
0.37135
 20
0.180798
 30
3.86
 40
0.138
  0
POLYLINE
  5
1FECC
100
AcDbEntity
  8
0
100
AcDbPolygonMesh
 66
     1
 10
0.0
 20
0.0
 30
0.0
 70
    16
 71
     6
 72
     3
  0
VERTEX
  5
1FECD
100
AcDbEntity
  8
0
100
AcDbVertex
100
AcDbPolygonMeshVertex
 10
1.4455
 20
-1.5045
 30
4.06
 70
    64
  0
VERTEX
  5
1FECE
100
AcDbEntity
  8
0
100
AcDbVertex
100
AcDbPolygonMeshVertex
 10
1.4455
 20
-1.5045
 30
3.86
 70
    64
  0
VERTEX
  5
1FECF
100
AcDbEntity
  8
0
100
AcDbVertex
100
AcDbPolygonMeshVertex
 10
1.4455
 20
-1.5045
 30
3.86
 70
    64
  0
VERTEX
  5
1FED0
100
AcDbEntity
  8
0
100
AcDbVertex
100
AcDbPolygonMeshVertex
 10
0.6745
 20
-1.5045
 30
4.06
 70
    64
  0
VERTEX
  5
1FED1
100
AcDbEntity
  8
0
100
AcDbVertex
100
AcDbPolygonMeshVertex
 10
0.6745
 20
-1.5045
 30
3.86
 70
    64
  0
VERTEX
  5
1FED2
100
AcDbEntity
  8
0
100
AcDbVertex
100
AcDbPolygonMeshVertex
 10
0.6745
 20
-1.5045
 30
3.86
 70
    64
  0
VERTEX
  5
1FED3
100
AcDbEntity
  8
0
100
AcDbVertex
100
AcDbPolygonMeshVertex
 10
0.6745
 20
-1.2225
 30
4.06
 70
    64
  0
VERTEX
  5
1FED4
100
AcDbEntity
  8
0
100
AcDbVertex
100
AcDbPolygonMeshVertex
 10
0.6745
 20
-1.2225
 30
3.86
 70
    64
  0
VERTEX
  5
1FED5
100
AcDbEntity
  8
0
100
AcDbVertex
100
AcDbPolygonMeshVertex
 10
0.6745
 20
-1.5045
 30
3.86
 70
    64
  0
VERTEX
  5
1FED6
100
AcDbEntity
  8
0
100
AcDbVertex
100
AcDbPolygonMeshVertex
 10
1.4455
 20
-1.2225
 30
4.06
 70
    64
  0
VERTEX
  5
1FED7
100
AcDbEntity
  8
0
100
AcDbVertex
100
AcDbPolygonMeshVertex
 10
1.4455
 20
-1.2225
 30
3.86
 70
    64
  0
VERTEX
  5
1FED8
100
AcDbEntity
  8
0
100
AcDbVertex
100
AcDbPolygonMeshVertex
 10
1.4455
 20
-1.5045
 30
3.86
 70
    64
  0
VERTEX
  5
1FED9
100
AcDbEntity
  8
0
100
AcDbVertex
100
AcDbPolygonMeshVertex
 10
1.4455
 20
-1.2225
 30
4.06
 70
    64
  0
VERTEX
  5
1FEDA
100
AcDbEntity
  8
0
100
AcDbVertex
100
AcDbPolygonMeshVertex
 10
1.4455
 20
-1.2225
 30
4.06
 70
    64
  0
VERTEX
  5
1FEDB
100
AcDbEntity
  8
0
100
AcDbVertex
100
AcDbPolygonMeshVertex
 10
1.4455
 20
-1.5045
 30
4.06
 70
    64
  0
VERTEX
  5
1FEDC
100
AcDbEntity
  8
0
100
AcDbVertex
100
AcDbPolygonMeshVertex
 10
0.6745
 20
-1.2225
 30
4.06
 70
    64
  0
VERTEX
  5
1FEDD
100
AcDbEntity
  8
0
100
AcDbVertex
100
AcDbPolygonMeshVertex
 10
0.6745
 20
-1.2225
 30
4.06
 70
    64
  0
VERTEX
  5
1FEDE
100
AcDbEntity
  8
0
100
AcDbVertex
100
AcDbPolygonMeshVertex
 10
0.6745
 20
-1.5045
 30
4.06
 70
    64
  0
SEQEND
  5
1FEDF
100
AcDbEntity
  8
0
  0
POLYLINE
  5
1FEE0
100
AcDbEntity
  8
0
100
AcDbPolygonMesh
 66
     1
 10
0.0
 20
0.0
 30
0.0
 70
    16
 71
     6
 72
     3
  0
VERTEX
  5
1FEE1
100
AcDbEntity
  8
0
100
AcDbVertex
100
AcDbPolygonMeshVertex
 10
1.2455
 20
-2.342
 30
2.062
 70
    64
  0
VERTEX
  5
1FEE2
100
AcDbEntity
  8
0
100
AcDbVertex
100
AcDbPolygonMeshVertex
 10
1.2455
 20
-2.342
 30
1.388
 70
    64
  0
VERTEX
  5
1FEE3
100
AcDbEntity
  8
0
100
AcDbVertex
100
AcDbPolygonMeshVertex
 10
1.2455
 20
-2.342
 30
1.388
 70
    64
  0
VERTEX
  5
1FEE4
100
AcDbEntity
  8
0
100
AcDbVertex
100
AcDbPolygonMeshVertex
 10
0.8745
 20
-2.342
 30
2.062
 70
    64
  0
VERTEX
  5
1FEE5
100
AcDbEntity
  8
0
100
AcDbVertex
100
AcDbPolygonMeshVertex
 10
0.8745
 20
-2.342
 30
1.388
 70
    64
  0
VERTEX
  5
1FEE6
100
AcDbEntity
  8
0
100
AcDbVertex
100
AcDbPolygonMeshVertex
 10
0.8745
 20
-2.342
 30
1.388
 70
    64
  0
VERTEX
  5
1FEE7
100
AcDbEntity
  8
0
100
AcDbVertex
100
AcDbPolygonMeshVertex
 10
0.8745
 20
-2.089
 30
2.062
 70
    64
  0
VERTEX
  5
1FEE8
100
AcDbEntity
  8
0
100
AcDbVertex
100
AcDbPolygonMeshVertex
 10
0.8745
 20
-2.089
 30
1.388
 70
    64
  0
VERTEX
  5
1FEE9
100
AcDbEntity
  8
0
100
AcDbVertex
100
AcDbPolygonMeshVertex
 10
0.8745
 20
-2.342
 30
1.388
 70
    64
  0
VERTEX
  5
1FEEA
100
AcDbEntity
  8
0
100
AcDbVertex
100
AcDbPolygonMeshVertex
 10
1.2455
 20
-2.089
 30
2.062
 70
    64
  0
VERTEX
  5
1FEEB
100
AcDbEntity
  8
0
100
AcDbVertex
100
AcDbPolygonMeshVertex
 10
1.2455
 20
-2.089
 30
1.388
 70
    64
  0
VERTEX
  5
1FEEC
100
AcDbEntity
  8
0
100
AcDbVertex
100
AcDbPolygonMeshVertex
 10
1.2455
 20
-2.342
 30
1.388
 70
    64
  0
VERTEX
  5
1FEED
100
AcDbEntity
  8
0
100
AcDbVertex
100
AcDbPolygonMeshVertex
 10
1.2455
 20
-2.089
 30
2.062
 70
    64
  0
VERTEX
  5
1FEEE
100
AcDbEntity
  8
0
100
AcDbVertex
100
AcDbPolygonMeshVertex
 10
1.2455
 20
-2.089
 30
2.062
 70
    64
  0
VERTEX
  5
1FEEF
100
AcDbEntity
  8
0
100
AcDbVertex
100
AcDbPolygonMeshVertex
 10
1.2455
 20
-2.342
 30
2.062
 70
    64
  0
VERTEX
  5
1FEF0
100
AcDbEntity
  8
0
100
AcDbVertex
100
AcDbPolygonMeshVertex
 10
0.8745
 20
-2.089
 30
2.062
 70
    64
  0
VERTEX
  5
1FEF1
100
AcDbEntity
  8
0
100
AcDbVertex
100
AcDbPolygonMeshVertex
 10
0.8745
 20
-2.089
 30
2.062
 70
    64
  0
VERTEX
  5
1FEF2
100
AcDbEntity
  8
0
100
AcDbVertex
100
AcDbPolygonMeshVertex
 10
0.8745
 20
-2.342
 30
2.062
 70
    64
  0
SEQEND
  5
1FEF3
100
AcDbEntity
  8
0
  0
LWPOLYLINE
  5
1FEF4
100
AcDbEntity
  8
0
100
AcDbPolyline
 90
        4
 70
     1
 43
0.0
 38
2.062
 10
0.9265
 20
-2.141
 10
1.1935
 20
-2.141
 10
1.1935
 20
-2.29
 10
0.9265
 20
-2.29
  0
POLYLINE
  5
1FEF5
100
AcDbEntity
  8
0
100
AcDbPolygonMesh
 66
     1
 10
0.0
 20
0.0
 30
0.0
 70
    16
 71
     6
 72
     3
  0
VERTEX
  5
1FEF6
100
AcDbEntity
  8
0
100
AcDbVertex
100
AcDbPolygonMeshVertex
 10
0.5075
 20
0.838
 30
2.062
 70
    64
  0
VERTEX
  5
1FEF7
100
AcDbEntity
  8
0
100
AcDbVertex
100
AcDbPolygonMeshVertex
 10
0.5075
 20
0.838
 30
1.388
 70
    64
  0
VERTEX
  5
1FEF8
100
AcDbEntity
  8
0
100
AcDbVertex
100
AcDbPolygonMeshVertex
 10
0.5075
 20
0.838
 30
1.388
 70
    64
  0
VERTEX
  5
1FEF9
100
AcDbEntity
  8
0
100
AcDbVertex
100
AcDbPolygonMeshVertex
 10
1.6125
 20
0.838
 30
2.062
 70
    64
  0
VERTEX
  5
1FEFA
100
AcDbEntity
  8
0
100
AcDbVertex
100
AcDbPolygonMeshVertex
 10
1.6125
 20
0.838
 30
1.388
 70
    64
  0
VERTEX
  5
1FEFB
100
AcDbEntity
  8
0
100
AcDbVertex
100
AcDbPolygonMeshVertex
 10
1.6125
 20
0.838
 30
1.388
 70
    64
  0
VERTEX
  5
1FEFC
100
AcDbEntity
  8
0
100
AcDbVertex
100
AcDbPolygonMeshVertex
 10
1.6125
 20
0.401
 30
2.062
 70
    64
  0
VERTEX
  5
1FEFD
100
AcDbEntity
  8
0
100
AcDbVertex
100
AcDbPolygonMeshVertex
 10
1.6125
 20
0.401
 30
1.388
 70
    64
  0
VERTEX
  5
1FEFE
100
AcDbEntity
  8
0
100
AcDbVertex
100
AcDbPolygonMeshVertex
 10
1.6125
 20
0.838
 30
1.388
 70
    64
  0
VERTEX
  5
1FEFF
100
AcDbEntity
  8
0
100
AcDbVertex
100
AcDbPolygonMeshVertex
 10
0.5075
 20
0.401
 30
2.062
 70
    64
  0
VERTEX
  5
1FF00
100
AcDbEntity
  8
0
100
AcDbVertex
100
AcDbPolygonMeshVertex
 10
0.5075
 20
0.401
 30
1.388
 70
    64
  0
VERTEX
  5
1FF01
100
AcDbEntity
  8
0
100
AcDbVertex
100
AcDbPolygonMeshVertex
 10
0.5075
 20
0.838
 30
1.388
 70
    64
  0
VERTEX
  5
1FF02
100
AcDbEntity
  8
0
100
AcDbVertex
100
AcDbPolygonMeshVertex
 10
0.5075
 20
0.401
 30
2.062
 70
    64
  0
VERTEX
  5
1FF03
100
AcDbEntity
  8
0
100
AcDbVertex
100
AcDbPolygonMeshVertex
 10
0.5075
 20
0.401
 30
2.062
 70
    64
  0
VERTEX
  5
1FF04
100
AcDbEntity
  8
0
100
AcDbVertex
100
AcDbPolygonMeshVertex
 10
0.5075
 20
0.838
 30
2.062
 70
    64
  0
VERTEX
  5
1FF05
100
AcDbEntity
  8
0
100
AcDbVertex
100
AcDbPolygonMeshVertex
 10
1.6125
 20
0.401
 30
2.062
 70
    64
  0
VERTEX
  5
1FF06
100
AcDbEntity
  8
0
100
AcDbVertex
100
AcDbPolygonMeshVertex
 10
1.6125
 20
0.401
 30
2.062
 70
    64
  0
VERTEX
  5
1FF07
100
AcDbEntity
  8
0
100
AcDbVertex
100
AcDbPolygonMeshVertex
 10
1.6125
 20
0.838
 30
2.062
 70
    64
  0
SEQEND
  5
1FF08
100
AcDbEntity
  8
0
  0
LINE
  5
1FF09
100
AcDbEntity
  8
0
100
AcDbLine
 10
0.92
 20
0.401
 30
2.062
 11
0.92
 21
0.636
 31
2.062
  0
LINE
  5
1FF0A
100
AcDbEntity
  8
0
100
AcDbLine
 10
1.2
 20
0.636
 30
2.062
 11
0.92
 21
0.636
 31
2.062
  0
LINE
  5
1FF0B
100
AcDbEntity
  8
0
100
AcDbLine
 10
0.8795
 20
0.838
 30
1.841
 11
0.5625
 21
0.838
 31
1.841
  0
LINE
  5
1FF0C
100
AcDbEntity
  8
0
100
AcDbLine
 10
0.8795
 20
0.838
 30
1.641
 11
0.5625
 21
0.838
 31
1.641
  0
LINE
  5
1FF0D
100
AcDbEntity
  8
0
100
AcDbLine
 10
0.8795
 20
0.838
 30
1.841
 11
0.8795
 21
0.838
 31
1.641
  0
CIRCLE
  5
1FF0E
100
AcDbEntity
  8
0
100
AcDbCircle
 10
0.721
 20
0.6195
 30
2.062
 40
0.12
  0
CIRCLE
  5
1FF0F
100
AcDbEntity
  8
0
100
AcDbCircle
 10
1.399
 20
0.6195
 30
2.062
 40
0.12
  0
LINE
  5
1FF10
100
AcDbEntity
  8
0
100
AcDbLine
 10
1.2405
 20
0.838
 30
1.641
 11
1.5575
 21
0.838
 31
1.641
  0
LINE
  5
1FF11
100
AcDbEntity
  8
0
100
AcDbLine
 10
1.2405
 20
0.838
 30
1.841
 11
1.5575
 21
0.838
 31
1.841
  0
LINE
  5
1FF12
100
AcDbEntity
  8
0
100
AcDbLine
 10
1.5575
 20
0.838
 30
1.841
 11
1.5575
 21
0.838
 31
1.641
  0
LINE
  5
1FF13
100
AcDbEntity
  8
0
100
AcDbLine
 10
1.2405
 20
0.838
 30
1.841
 11
1.2405
 21
0.838
 31
1.641
  0
POLYLINE
  5
1FF14
100
AcDbEntity
  8
0
100
AcDb3dPolyline
 66
     1
 10
0.0
 20
0.0
 30
0.0
 70
     8
  0
VERTEX
  5
1FF15
100
AcDbEntity
  8
0
100
AcDbVertex
100
AcDb3dPolylineVertex
 10
2.12
 20
-1.473
 30
0.187
 70
    32
  0
VERTEX
  5
1FF16
100
AcDbEntity
  8
0
100
AcDbVertex
100
AcDb3dPolylineVertex
 10
2.12
 20
-1.473
 30
1.057
 70
    32
  0
VERTEX
  5
1FF17
100
AcDbEntity
  8
0
100
AcDbVertex
100
AcDb3dPolylineVertex
 10
2.12
 20
-1.628
 30
1.057
 70
    32
  0
VERTEX
  5
1FF18
100
AcDbEntity
  8
0
100
AcDbVertex
100
AcDb3dPolylineVertex
 10
2.12
 20
-1.628
 30
0.187
 70
    32
  0
SEQEND
  5
1FF19
100
AcDbEntity
  8
0
  0
POLYLINE
  5
1FF1A
100
AcDbEntity
  8
0
100
AcDb3dPolyline
 66
     1
 10
0.0
 20
0.0
 30
0.0
 70
     8
  0
VERTEX
  5
1FF1B
100
AcDbEntity
  8
0
100
AcDbVertex
100
AcDb3dPolylineVertex
 10
2.12
 20
-0.094
 30
0.187
 70
    32
  0
VERTEX
  5
1FF1C
100
AcDbEntity
  8
0
100
AcDbVertex
100
AcDb3dPolylineVertex
 10
2.12
 20
-0.094
 30
1.057
 70
    32
  0
VERTEX
  5
1FF1D
100
AcDbEntity
  8
0
100
AcDbVertex
100
AcDb3dPolylineVertex
 10
2.12
 20
-0.249
 30
1.057
 70
    32
  0
VERTEX
  5
1FF1E
100
AcDbEntity
  8
0
100
AcDbVertex
100
AcDb3dPolylineVertex
 10
2.12
 20
-0.249
 30
0.187
 70
    32
  0
SEQEND
  5
1FF1F
100
AcDbEntity
  8
0
  0
POLYLINE
  5
1FF20
100
AcDbEntity
  8
0
100
AcDb3dPolyline
 66
     1
 10
0.0
 20
0.0
 30
0.0
 70
     8
  0
VERTEX
  5
1FF21
100
AcDbEntity
  8
0
100
AcDbVertex
100
AcDb3dPolylineVertex
 10
0.0
 20
-0.094
 30
0.187
 70
    32
  0
VERTEX
  5
1FF22
100
AcDbEntity
  8
0
100
AcDbVertex
100
AcDb3dPolylineVertex
 10
0.0
 20
-0.094
 30
1.057
 70
    32
  0
VERTEX
  5
1FF23
100
AcDbEntity
  8
0
100
AcDbVertex
100
AcDb3dPolylineVertex
 10
0.0
 20
-0.249
 30
1.057
 70
    32
  0
VERTEX
  5
1FF24
100
AcDbEntity
  8
0
100
AcDbVertex
100
AcDb3dPolylineVertex
 10
0.0
 20
-0.249
 30
0.187
 70
    32
  0
SEQEND
  5
1FF25
100
AcDbEntity
  8
0
  0
POLYLINE
  5
1FF26
100
AcDbEntity
  8
0
100
AcDb3dPolyline
 66
     1
 10
0.0
 20
0.0
 30
0.0
 70
     8
  0
VERTEX
  5
1FF27
100
AcDbEntity
  8
0
100
AcDbVertex
100
AcDb3dPolylineVertex
 10
0.0
 20
-1.473
 30
0.187
 70
    32
  0
VERTEX
  5
1FF28
100
AcDbEntity
  8
0
100
AcDbVertex
100
AcDb3dPolylineVertex
 10
0.0
 20
-1.473
 30
1.057
 70
    32
  0
VERTEX
  5
1FF29
100
AcDbEntity
  8
0
100
AcDbVertex
100
AcDb3dPolylineVertex
 10
0.0
 20
-1.628
 30
1.057
 70
    32
  0
VERTEX
  5
1FF2A
100
AcDbEntity
  8
0
100
AcDbVertex
100
AcDb3dPolylineVertex
 10
0.0
 20
-1.628
 30
0.187
 70
    32
  0
SEQEND
  5
1FF2B
100
AcDbEntity
  8
0
  0
POLYLINE
  5
1FF2C
100
AcDbEntity
  8
0
100
AcDbPolygonMesh
 66
     1
 10
0.0
 20
0.0
 30
0.0
 70
    16
 71
     6
 72
     3
  0
VERTEX
  5
1FF2D
100
AcDbEntity
  8
0
100
AcDbVertex
100
AcDbPolygonMeshVertex
 10
0.161
 20
0.598
 30
0.187
 70
    64
  0
VERTEX
  5
1FF2E
100
AcDbEntity
  8
0
100
AcDbVertex
100
AcDbPolygonMeshVertex
 10
0.161
 20
0.598
 30
0.0
 70
    64
  0
VERTEX
  5
1FF2F
100
AcDbEntity
  8
0
100
AcDbVertex
100
AcDbPolygonMeshVertex
 10
0.161
 20
0.598
 30
0.0
 70
    64
  0
VERTEX
  5
1FF30
100
AcDbEntity
  8
0
100
AcDbVertex
100
AcDbPolygonMeshVertex
 10
1.041
 20
0.598
 30
0.187
 70
    64
  0
VERTEX
  5
1FF31
100
AcDbEntity
  8
0
100
AcDbVertex
100
AcDbPolygonMeshVertex
 10
1.041
 20
0.598
 30
0.0
 70
    64
  0
VERTEX
  5
1FF32
100
AcDbEntity
  8
0
100
AcDbVertex
100
AcDbPolygonMeshVertex
 10
1.041
 20
0.598
 30
0.0
 70
    64
  0
VERTEX
  5
1FF33
100
AcDbEntity
  8
0
100
AcDbVertex
100
AcDbPolygonMeshVertex
 10
1.041
 20
0.0
 30
0.187
 70
    64
  0
VERTEX
  5
1FF34
100
AcDbEntity
  8
0
100
AcDbVertex
100
AcDbPolygonMeshVertex
 10
1.041
 20
0.0
 30
0.0
 70
    64
  0
VERTEX
  5
1FF35
100
AcDbEntity
  8
0
100
AcDbVertex
100
AcDbPolygonMeshVertex
 10
1.041
 20
0.598
 30
0.0
 70
    64
  0
VERTEX
  5
1FF36
100
AcDbEntity
  8
0
100
AcDbVertex
100
AcDbPolygonMeshVertex
 10
0.161
 20
0.0
 30
0.187
 70
    64
  0
VERTEX
  5
1FF37
100
AcDbEntity
  8
0
100
AcDbVertex
100
AcDbPolygonMeshVertex
 10
0.161
 20
0.0
 30
0.0
 70
    64
  0
VERTEX
  5
1FF38
100
AcDbEntity
  8
0
100
AcDbVertex
100
AcDbPolygonMeshVertex
 10
0.161
 20
0.598
 30
0.0
 70
    64
  0
VERTEX
  5
1FF39
100
AcDbEntity
  8
0
100
AcDbVertex
100
AcDbPolygonMeshVertex
 10
0.161
 20
0.0
 30
0.187
 70
    64
  0
VERTEX
  5
1FF3A
100
AcDbEntity
  8
0
100
AcDbVertex
100
AcDbPolygonMeshVertex
 10
0.161
 20
0.0
 30
0.187
 70
    64
  0
VERTEX
  5
1FF3B
100
AcDbEntity
  8
0
100
AcDbVertex
100
AcDbPolygonMeshVertex
 10
0.161
 20
0.598
 30
0.187
 70
    64
  0
VERTEX
  5
1FF3C
100
AcDbEntity
  8
0
100
AcDbVertex
100
AcDbPolygonMeshVertex
 10
1.041
 20
0.0
 30
0.187
 70
    64
  0
VERTEX
  5
1FF3D
100
AcDbEntity
  8
0
100
AcDbVertex
100
AcDbPolygonMeshVertex
 10
1.041
 20
0.0
 30
0.187
 70
    64
  0
VERTEX
  5
1FF3E
100
AcDbEntity
  8
0
100
AcDbVertex
100
AcDbPolygonMeshVertex
 10
1.041
 20
0.598
 30
0.187
 70
    64
  0
SEQEND
  5
1FF3F
100
AcDbEntity
  8
0
  0
CIRCLE
  5
1FF40
100
AcDbEntity
  8
0
100
AcDbCircle
 10
1.945
 20
0.337
 30
0.316
 40
0.086
  0
POLYLINE
  5
1FF41
100
AcDbEntity
  8
0
100
AcDb3dPolyline
 66
     1
 10
0.0
 20
0.0
 30
0.0
 70
     8
  0
VERTEX
  5
1FF42
100
AcDbEntity
  8
0
100
AcDbVertex
100
AcDb3dPolylineVertex
 10
0.706333
 20
0.401
 30
0.187
 70
    32
  0
VERTEX
  5
1FF43
100
AcDbEntity
  8
0
100
AcDbVertex
100
AcDb3dPolylineVertex
 10
0.706333
 20
0.536
 30
0.187
 70
    32
  0
VERTEX
  5
1FF44
100
AcDbEntity
  8
0
100
AcDbVertex
100
AcDb3dPolylineVertex
 10
0.495667
 20
0.536
 30
0.187
 70
    32
  0
VERTEX
  5
1FF45
100
AcDbEntity
  8
0
100
AcDbVertex
100
AcDb3dPolylineVertex
 10
0.495667
 20
0.401
 30
0.187
 70
    32
  0
SEQEND
  5
1FF46
100
AcDbEntity
  8
0
  0
POLYLINE
  5
1FF47
100
AcDbEntity
  8
0
100
AcDb3dPolyline
 66
     1
 10
0.0
 20
0.0
 30
0.0
 70
     8
  0
VERTEX
  5
1FF48
100
AcDbEntity
  8
0
100
AcDbVertex
100
AcDb3dPolylineVertex
 10
0.433667
 20
0.401
 30
0.187
 70
    32
  0
VERTEX
  5
1FF49
100
AcDbEntity
  8
0
100
AcDbVertex
100
AcDb3dPolylineVertex
 10
0.433667
 20
0.536
 30
0.187
 70
    32
  0
VERTEX
  5
1FF4A
100
AcDbEntity
  8
0
100
AcDbVertex
100
AcDb3dPolylineVertex
 10
0.223
 20
0.536
 30
0.187
 70
    32
  0
VERTEX
  5
1FF4B
100
AcDbEntity
  8
0
100
AcDbVertex
100
AcDb3dPolylineVertex
 10
0.223
 20
0.401
 30
0.187
 70
    32
  0
SEQEND
  5
1FF4C
100
AcDbEntity
  8
0
  0
POLYLINE
  5
1FF4D
100
AcDbEntity
  8
0
100
AcDb3dPolyline
 66
     1
 10
0.0
 20
0.0
 30
0.0
 70
     8
  0
VERTEX
  5
1FF4E
100
AcDbEntity
  8
0
100
AcDbVertex
100
AcDb3dPolylineVertex
 10
0.979
 20
0.401
 30
0.187
 70
    32
  0
VERTEX
  5
1FF4F
100
AcDbEntity
  8
0
100
AcDbVertex
100
AcDb3dPolylineVertex
 10
0.979
 20
0.536
 30
0.187
 70
    32
  0
VERTEX
  5
1FF50
100
AcDbEntity
  8
0
100
AcDbVertex
100
AcDb3dPolylineVertex
 10
0.768333
 20
0.536
 30
0.187
 70
    32
  0
VERTEX
  5
1FF51
100
AcDbEntity
  8
0
100
AcDbVertex
100
AcDb3dPolylineVertex
 10
0.768333
 20
0.401
 30
0.187
 70
    32
  0
SEQEND
  5
1FF52
100
AcDbEntity
  8
0
  0
POLYLINE
  5
1FF53
100
AcDbEntity
  8
0
100
AcDbPolygonMesh
 66
     1
 10
0.0
 20
0.0
 30
0.0
 70
    16
 71
     6
 72
     3
  0
VERTEX
  5
1FF54
100
AcDbEntity
  8
0
100
AcDbVertex
100
AcDbPolygonMeshVertex
 10
0.864
 20
-0.5675
 30
4.071
 70
    64
  0
VERTEX
  5
1FF55
100
AcDbEntity
  8
0
100
AcDbVertex
100
AcDbPolygonMeshVertex
 10
0.864
 20
-0.5675
 30
3.894
 70
    64
  0
VERTEX
  5
1FF56
100
AcDbEntity
  8
0
100
AcDbVertex
100
AcDbPolygonMeshVertex
 10
0.864
 20
-0.5675
 30
3.894
 70
    64
  0
VERTEX
  5
1FF57
100
AcDbEntity
  8
0
100
AcDbVertex
100
AcDbPolygonMeshVertex
 10
0.6945
 20
-0.5675
 30
4.071
 70
    64
  0
VERTEX
  5
1FF58
100
AcDbEntity
  8
0
100
AcDbVertex
100
AcDbPolygonMeshVertex
 10
0.6945
 20
-0.5675
 30
3.894
 70
    64
  0
VERTEX
  5
1FF59
100
AcDbEntity
  8
0
100
AcDbVertex
100
AcDbPolygonMeshVertex
 10
0.6945
 20
-0.5675
 30
3.894
 70
    64
  0
VERTEX
  5
1FF5A
100
AcDbEntity
  8
0
100
AcDbVertex
100
AcDbPolygonMeshVertex
 10
0.6945
 20
-0.2145
 30
4.071
 70
    64
  0
VERTEX
  5
1FF5B
100
AcDbEntity
  8
0
100
AcDbVertex
100
AcDbPolygonMeshVertex
 10
0.6945
 20
-0.2145
 30
3.894
 70
    64
  0
VERTEX
  5
1FF5C
100
AcDbEntity
  8
0
100
AcDbVertex
100
AcDbPolygonMeshVertex
 10
0.6945
 20
-0.5675
 30
3.894
 70
    64
  0
VERTEX
  5
1FF5D
100
AcDbEntity
  8
0
100
AcDbVertex
100
AcDbPolygonMeshVertex
 10
0.864
 20
-0.2145
 30
4.071
 70
    64
  0
VERTEX
  5
1FF5E
100
AcDbEntity
  8
0
100
AcDbVertex
100
AcDbPolygonMeshVertex
 10
0.864
 20
-0.2145
 30
3.894
 70
    64
  0
VERTEX
  5
1FF5F
100
AcDbEntity
  8
0
100
AcDbVertex
100
AcDbPolygonMeshVertex
 10
0.864
 20
-0.5675
 30
3.894
 70
    64
  0
VERTEX
  5
1FF60
100
AcDbEntity
  8
0
100
AcDbVertex
100
AcDbPolygonMeshVertex
 10
0.864
 20
-0.2145
 30
4.071
 70
    64
  0
VERTEX
  5
1FF61
100
AcDbEntity
  8
0
100
AcDbVertex
100
AcDbPolygonMeshVertex
 10
0.864
 20
-0.2145
 30
4.071
 70
    64
  0
VERTEX
  5
1FF62
100
AcDbEntity
  8
0
100
AcDbVertex
100
AcDbPolygonMeshVertex
 10
0.864
 20
-0.5675
 30
4.071
 70
    64
  0
VERTEX
  5
1FF63
100
AcDbEntity
  8
0
100
AcDbVertex
100
AcDbPolygonMeshVertex
 10
0.6945
 20
-0.2145
 30
4.071
 70
    64
  0
VERTEX
  5
1FF64
100
AcDbEntity
  8
0
100
AcDbVertex
100
AcDbPolygonMeshVertex
 10
0.6945
 20
-0.2145
 30
4.071
 70
    64
  0
VERTEX
  5
1FF65
100
AcDbEntity
  8
0
100
AcDbVertex
100
AcDbPolygonMeshVertex
 10
0.6945
 20
-0.5675
 30
4.071
 70
    64
  0
SEQEND
  5
1FF66
100
AcDbEntity
  8
0
  0
POLYLINE
  5
1FF67
100
AcDbEntity
  8
0
100
AcDbPolygonMesh
 66
     1
 10
0.0
 20
0.0
 30
0.0
 70
    16
 71
     6
 72
     3
  0
VERTEX
  5
1FF68
100
AcDbEntity
  8
0
100
AcDbVertex
100
AcDbPolygonMeshVertex
 10
1.4255
 20
-0.5675
 30
3.894
 70
    64
  0
VERTEX
  5
1FF69
100
AcDbEntity
  8
0
100
AcDbVertex
100
AcDbPolygonMeshVertex
 10
1.4255
 20
-0.5675
 30
3.86
 70
    64
  0
VERTEX
  5
1FF6A
100
AcDbEntity
  8
0
100
AcDbVertex
100
AcDbPolygonMeshVertex
 10
1.4255
 20
-0.5675
 30
3.86
 70
    64
  0
VERTEX
  5
1FF6B
100
AcDbEntity
  8
0
100
AcDbVertex
100
AcDbPolygonMeshVertex
 10
0.6945
 20
-0.5675
 30
3.894
 70
    64
  0
VERTEX
  5
1FF6C
100
AcDbEntity
  8
0
100
AcDbVertex
100
AcDbPolygonMeshVertex
 10
0.6945
 20
-0.5675
 30
3.86
 70
    64
  0
VERTEX
  5
1FF6D
100
AcDbEntity
  8
0
100
AcDbVertex
100
AcDbPolygonMeshVertex
 10
0.6945
 20
-0.5675
 30
3.86
 70
    64
  0
VERTEX
  5
1FF6E
100
AcDbEntity
  8
0
100
AcDbVertex
100
AcDbPolygonMeshVertex
 10
0.6945
 20
-0.2145
 30
3.894
 70
    64
  0
VERTEX
  5
1FF6F
100
AcDbEntity
  8
0
100
AcDbVertex
100
AcDbPolygonMeshVertex
 10
0.6945
 20
-0.2145
 30
3.86
 70
    64
  0
VERTEX
  5
1FF70
100
AcDbEntity
  8
0
100
AcDbVertex
100
AcDbPolygonMeshVertex
 10
0.6945
 20
-0.5675
 30
3.86
 70
    64
  0
VERTEX
  5
1FF71
100
AcDbEntity
  8
0
100
AcDbVertex
100
AcDbPolygonMeshVertex
 10
1.4255
 20
-0.2145
 30
3.894
 70
    64
  0
VERTEX
  5
1FF72
100
AcDbEntity
  8
0
100
AcDbVertex
100
AcDbPolygonMeshVertex
 10
1.4255
 20
-0.2145
 30
3.86
 70
    64
  0
VERTEX
  5
1FF73
100
AcDbEntity
  8
0
100
AcDbVertex
100
AcDbPolygonMeshVertex
 10
1.4255
 20
-0.5675
 30
3.86
 70
    64
  0
VERTEX
  5
1FF74
100
AcDbEntity
  8
0
100
AcDbVertex
100
AcDbPolygonMeshVertex
 10
1.4255
 20
-0.2145
 30
3.894
 70
    64
  0
VERTEX
  5
1FF75
100
AcDbEntity
  8
0
100
AcDbVertex
100
AcDbPolygonMeshVertex
 10
1.4255
 20
-0.2145
 30
3.894
 70
    64
  0
VERTEX
  5
1FF76
100
AcDbEntity
  8
0
100
AcDbVertex
100
AcDbPolygonMeshVertex
 10
1.4255
 20
-0.5675
 30
3.894
 70
    64
  0
VERTEX
  5
1FF77
100
AcDbEntity
  8
0
100
AcDbVertex
100
AcDbPolygonMeshVertex
 10
0.6945
 20
-0.2145
 30
3.894
 70
    64
  0
VERTEX
  5
1FF78
100
AcDbEntity
  8
0
100
AcDbVertex
100
AcDbPolygonMeshVertex
 10
0.6945
 20
-0.2145
 30
3.894
 70
    64
  0
VERTEX
  5
1FF79
100
AcDbEntity
  8
0
100
AcDbVertex
100
AcDbPolygonMeshVertex
 10
0.6945
 20
-0.5675
 30
3.894
 70
    64
  0
SEQEND
  5
1FF7A
100
AcDbEntity
  8
0
  0
POLYLINE
  5
1FF7B
100
AcDbEntity
  8
0
100
AcDbPolygonMesh
 66
     1
 10
0.0
 20
0.0
 30
0.0
 70
    16
 71
     6
 72
     3
  0
VERTEX
  5
1FF7C
100
AcDbEntity
  8
0
100
AcDbVertex
100
AcDbPolygonMeshVertex
 10
1.4255
 20
-0.5675
 30
4.071
 70
    64
  0
VERTEX
  5
1FF7D
100
AcDbEntity
  8
0
100
AcDbVertex
100
AcDbPolygonMeshVertex
 10
1.4255
 20
-0.5675
 30
3.894
 70
    64
  0
VERTEX
  5
1FF7E
100
AcDbEntity
  8
0
100
AcDbVertex
100
AcDbPolygonMeshVertex
 10
1.4255
 20
-0.5675
 30
3.894
 70
    64
  0
VERTEX
  5
1FF7F
100
AcDbEntity
  8
0
100
AcDbVertex
100
AcDbPolygonMeshVertex
 10
1.256
 20
-0.5675
 30
4.071
 70
    64
  0
VERTEX
  5
1FF80
100
AcDbEntity
  8
0
100
AcDbVertex
100
AcDbPolygonMeshVertex
 10
1.256
 20
-0.5675
 30
3.894
 70
    64
  0
VERTEX
  5
1FF81
100
AcDbEntity
  8
0
100
AcDbVertex
100
AcDbPolygonMeshVertex
 10
1.256
 20
-0.5675
 30
3.894
 70
    64
  0
VERTEX
  5
1FF82
100
AcDbEntity
  8
0
100
AcDbVertex
100
AcDbPolygonMeshVertex
 10
1.256
 20
-0.2145
 30
4.071
 70
    64
  0
VERTEX
  5
1FF83
100
AcDbEntity
  8
0
100
AcDbVertex
100
AcDbPolygonMeshVertex
 10
1.256
 20
-0.2145
 30
3.894
 70
    64
  0
VERTEX
  5
1FF84
100
AcDbEntity
  8
0
100
AcDbVertex
100
AcDbPolygonMeshVertex
 10
1.256
 20
-0.5675
 30
3.894
 70
    64
  0
VERTEX
  5
1FF85
100
AcDbEntity
  8
0
100
AcDbVertex
100
AcDbPolygonMeshVertex
 10
1.4255
 20
-0.2145
 30
4.071
 70
    64
  0
VERTEX
  5
1FF86
100
AcDbEntity
  8
0
100
AcDbVertex
100
AcDbPolygonMeshVertex
 10
1.4255
 20
-0.2145
 30
3.894
 70
    64
  0
VERTEX
  5
1FF87
100
AcDbEntity
  8
0
100
AcDbVertex
100
AcDbPolygonMeshVertex
 10
1.4255
 20
-0.5675
 30
3.894
 70
    64
  0
VERTEX
  5
1FF88
100
AcDbEntity
  8
0
100
AcDbVertex
100
AcDbPolygonMeshVertex
 10
1.4255
 20
-0.2145
 30
4.071
 70
    64
  0
VERTEX
  5
1FF89
100
AcDbEntity
  8
0
100
AcDbVertex
100
AcDbPolygonMeshVertex
 10
1.4255
 20
-0.2145
 30
4.071
 70
    64
  0
VERTEX
  5
1FF8A
100
AcDbEntity
  8
0
100
AcDbVertex
100
AcDbPolygonMeshVertex
 10
1.4255
 20
-0.5675
 30
4.071
 70
    64
  0
VERTEX
  5
1FF8B
100
AcDbEntity
  8
0
100
AcDbVertex
100
AcDbPolygonMeshVertex
 10
1.256
 20
-0.2145
 30
4.071
 70
    64
  0
VERTEX
  5
1FF8C
100
AcDbEntity
  8
0
100
AcDbVertex
100
AcDbPolygonMeshVertex
 10
1.256
 20
-0.2145
 30
4.071
 70
    64
  0
VERTEX
  5
1FF8D
100
AcDbEntity
  8
0
100
AcDbVertex
100
AcDbPolygonMeshVertex
 10
1.256
 20
-0.5675
 30
4.071
 70
    64
  0
SEQEND
  5
1FF8E
100
AcDbEntity
  8
0
  0
POLYLINE
  5
1FF8F
100
AcDbEntity
  8
0
100
AcDbPolygonMesh
 66
     1
 10
0.0
 20
0.0
 30
0.0
 70
    16
 71
     6
 72
     3
  0
VERTEX
  5
1FF90
100
AcDbEntity
  8
0
100
AcDbVertex
100
AcDbPolygonMeshVertex
 10
0.9575
 20
-1.0225
 30
4.11
 70
    64
  0
VERTEX
  5
1FF91
100
AcDbEntity
  8
0
100
AcDbVertex
100
AcDbPolygonMeshVertex
 10
0.9575
 20
-1.0225
 30
3.894
 70
    64
  0
VERTEX
  5
1FF92
100
AcDbEntity
  8
0
100
AcDbVertex
100
AcDbPolygonMeshVertex
 10
0.9575
 20
-1.0225
 30
3.894
 70
    64
  0
VERTEX
  5
1FF93
100
AcDbEntity
  8
0
100
AcDbVertex
100
AcDbPolygonMeshVertex
 10
0.8225
 20
-1.0225
 30
4.11
 70
    64
  0
VERTEX
  5
1FF94
100
AcDbEntity
  8
0
100
AcDbVertex
100
AcDbPolygonMeshVertex
 10
0.8225
 20
-1.0225
 30
3.894
 70
    64
  0
VERTEX
  5
1FF95
100
AcDbEntity
  8
0
100
AcDbVertex
100
AcDbPolygonMeshVertex
 10
0.8225
 20
-1.0225
 30
3.894
 70
    64
  0
VERTEX
  5
1FF96
100
AcDbEntity
  8
0
100
AcDbVertex
100
AcDbPolygonMeshVertex
 10
0.8225
 20
-0.6775
 30
4.11
 70
    64
  0
VERTEX
  5
1FF97
100
AcDbEntity
  8
0
100
AcDbVertex
100
AcDbPolygonMeshVertex
 10
0.8225
 20
-0.6775
 30
3.894
 70
    64
  0
VERTEX
  5
1FF98
100
AcDbEntity
  8
0
100
AcDbVertex
100
AcDbPolygonMeshVertex
 10
0.8225
 20
-1.0225
 30
3.894
 70
    64
  0
VERTEX
  5
1FF99
100
AcDbEntity
  8
0
100
AcDbVertex
100
AcDbPolygonMeshVertex
 10
0.9575
 20
-0.6775
 30
4.11
 70
    64
  0
VERTEX
  5
1FF9A
100
AcDbEntity
  8
0
100
AcDbVertex
100
AcDbPolygonMeshVertex
 10
0.9575
 20
-0.6775
 30
3.894
 70
    64
  0
VERTEX
  5
1FF9B
100
AcDbEntity
  8
0
100
AcDbVertex
100
AcDbPolygonMeshVertex
 10
0.9575
 20
-1.0225
 30
3.894
 70
    64
  0
VERTEX
  5
1FF9C
100
AcDbEntity
  8
0
100
AcDbVertex
100
AcDbPolygonMeshVertex
 10
0.9575
 20
-0.6775
 30
4.11
 70
    64
  0
VERTEX
  5
1FF9D
100
AcDbEntity
  8
0
100
AcDbVertex
100
AcDbPolygonMeshVertex
 10
0.9575
 20
-0.6775
 30
4.11
 70
    64
  0
VERTEX
  5
1FF9E
100
AcDbEntity
  8
0
100
AcDbVertex
100
AcDbPolygonMeshVertex
 10
0.9575
 20
-1.0225
 30
4.11
 70
    64
  0
VERTEX
  5
1FF9F
100
AcDbEntity
  8
0
100
AcDbVertex
100
AcDbPolygonMeshVertex
 10
0.8225
 20
-0.6775
 30
4.11
 70
    64
  0
VERTEX
  5
1FFA0
100
AcDbEntity
  8
0
100
AcDbVertex
100
AcDbPolygonMeshVertex
 10
0.8225
 20
-0.6775
 30
4.11
 70
    64
  0
VERTEX
  5
1FFA1
100
AcDbEntity
  8
0
100
AcDbVertex
100
AcDbPolygonMeshVertex
 10
0.8225
 20
-1.0225
 30
4.11
 70
    64
  0
SEQEND
  5
1FFA2
100
AcDbEntity
  8
0
  0
POLYLINE
  5
1FFA3
100
AcDbEntity
  8
0
100
AcDbPolygonMesh
 66
     1
 10
0.0
 20
0.0
 30
0.0
 70
    16
 71
     6
 72
     3
  0
VERTEX
  5
1FFA4
100
AcDbEntity
  8
0
100
AcDbVertex
100
AcDbPolygonMeshVertex
 10
1.2975
 20
-1.0225
 30
3.894
 70
    64
  0
VERTEX
  5
1FFA5
100
AcDbEntity
  8
0
100
AcDbVertex
100
AcDbPolygonMeshVertex
 10
1.2975
 20
-1.0225
 30
3.86
 70
    64
  0
VERTEX
  5
1FFA6
100
AcDbEntity
  8
0
100
AcDbVertex
100
AcDbPolygonMeshVertex
 10
1.2975
 20
-1.0225
 30
3.86
 70
    64
  0
VERTEX
  5
1FFA7
100
AcDbEntity
  8
0
100
AcDbVertex
100
AcDbPolygonMeshVertex
 10
0.8225
 20
-1.0225
 30
3.894
 70
    64
  0
VERTEX
  5
1FFA8
100
AcDbEntity
  8
0
100
AcDbVertex
100
AcDbPolygonMeshVertex
 10
0.8225
 20
-1.0225
 30
3.86
 70
    64
  0
VERTEX
  5
1FFA9
100
AcDbEntity
  8
0
100
AcDbVertex
100
AcDbPolygonMeshVertex
 10
0.8225
 20
-1.0225
 30
3.86
 70
    64
  0
VERTEX
  5
1FFAA
100
AcDbEntity
  8
0
100
AcDbVertex
100
AcDbPolygonMeshVertex
 10
0.8225
 20
-0.6775
 30
3.894
 70
    64
  0
VERTEX
  5
1FFAB
100
AcDbEntity
  8
0
100
AcDbVertex
100
AcDbPolygonMeshVertex
 10
0.8225
 20
-0.6775
 30
3.86
 70
    64
  0
VERTEX
  5
1FFAC
100
AcDbEntity
  8
0
100
AcDbVertex
100
AcDbPolygonMeshVertex
 10
0.8225
 20
-1.0225
 30
3.86
 70
    64
  0
VERTEX
  5
1FFAD
100
AcDbEntity
  8
0
100
AcDbVertex
100
AcDbPolygonMeshVertex
 10
1.2975
 20
-0.6775
 30
3.894
 70
    64
  0
VERTEX
  5
1FFAE
100
AcDbEntity
  8
0
100
AcDbVertex
100
AcDbPolygonMeshVertex
 10
1.2975
 20
-0.6775
 30
3.86
 70
    64
  0
VERTEX
  5
1FFAF
100
AcDbEntity
  8
0
100
AcDbVertex
100
AcDbPolygonMeshVertex
 10
1.2975
 20
-1.0225
 30
3.86
 70
    64
  0
VERTEX
  5
1FFB0
100
AcDbEntity
  8
0
100
AcDbVertex
100
AcDbPolygonMeshVertex
 10
1.2975
 20
-0.6775
 30
3.894
 70
    64
  0
VERTEX
  5
1FFB1
100
AcDbEntity
  8
0
100
AcDbVertex
100
AcDbPolygonMeshVertex
 10
1.2975
 20
-0.6775
 30
3.894
 70
    64
  0
VERTEX
  5
1FFB2
100
AcDbEntity
  8
0
100
AcDbVertex
100
AcDbPolygonMeshVertex
 10
1.2975
 20
-1.0225
 30
3.894
 70
    64
  0
VERTEX
  5
1FFB3
100
AcDbEntity
  8
0
100
AcDbVertex
100
AcDbPolygonMeshVertex
 10
0.8225
 20
-0.6775
 30
3.894
 70
    64
  0
VERTEX
  5
1FFB4
100
AcDbEntity
  8
0
100
AcDbVertex
100
AcDbPolygonMeshVertex
 10
0.8225
 20
-0.6775
 30
3.894
 70
    64
  0
VERTEX
  5
1FFB5
100
AcDbEntity
  8
0
100
AcDbVertex
100
AcDbPolygonMeshVertex
 10
0.8225
 20
-1.0225
 30
3.894
 70
    64
  0
SEQEND
  5
1FFB6
100
AcDbEntity
  8
0
  0
POLYLINE
  5
1FFB7
100
AcDbEntity
  8
0
100
AcDbPolygonMesh
 66
     1
 10
0.0
 20
0.0
 30
0.0
 70
    16
 71
     6
 72
     3
  0
VERTEX
  5
1FFB8
100
AcDbEntity
  8
0
100
AcDbVertex
100
AcDbPolygonMeshVertex
 10
1.2975
 20
-1.0225
 30
4.11
 70
    64
  0
VERTEX
  5
1FFB9
100
AcDbEntity
  8
0
100
AcDbVertex
100
AcDbPolygonMeshVertex
 10
1.2975
 20
-1.0225
 30
3.894
 70
    64
  0
VERTEX
  5
1FFBA
100
AcDbEntity
  8
0
100
AcDbVertex
100
AcDbPolygonMeshVertex
 10
1.2975
 20
-1.0225
 30
3.894
 70
    64
  0
VERTEX
  5
1FFBB
100
AcDbEntity
  8
0
100
AcDbVertex
100
AcDbPolygonMeshVertex
 10
1.1625
 20
-1.0225
 30
4.11
 70
    64
  0
VERTEX
  5
1FFBC
100
AcDbEntity
  8
0
100
AcDbVertex
100
AcDbPolygonMeshVertex
 10
1.1625
 20
-1.0225
 30
3.894
 70
    64
  0
VERTEX
  5
1FFBD
100
AcDbEntity
  8
0
100
AcDbVertex
100
AcDbPolygonMeshVertex
 10
1.1625
 20
-1.0225
 30
3.894
 70
    64
  0
VERTEX
  5
1FFBE
100
AcDbEntity
  8
0
100
AcDbVertex
100
AcDbPolygonMeshVertex
 10
1.1625
 20
-0.6775
 30
4.11
 70
    64
  0
VERTEX
  5
1FFBF
100
AcDbEntity
  8
0
100
AcDbVertex
100
AcDbPolygonMeshVertex
 10
1.1625
 20
-0.6775
 30
3.894
 70
    64
  0
VERTEX
  5
1FFC0
100
AcDbEntity
  8
0
100
AcDbVertex
100
AcDbPolygonMeshVertex
 10
1.1625
 20
-1.0225
 30
3.894
 70
    64
  0
VERTEX
  5
1FFC1
100
AcDbEntity
  8
0
100
AcDbVertex
100
AcDbPolygonMeshVertex
 10
1.2975
 20
-0.6775
 30
4.11
 70
    64
  0
VERTEX
  5
1FFC2
100
AcDbEntity
  8
0
100
AcDbVertex
100
AcDbPolygonMeshVertex
 10
1.2975
 20
-0.6775
 30
3.894
 70
    64
  0
VERTEX
  5
1FFC3
100
AcDbEntity
  8
0
100
AcDbVertex
100
AcDbPolygonMeshVertex
 10
1.2975
 20
-1.0225
 30
3.894
 70
    64
  0
VERTEX
  5
1FFC4
100
AcDbEntity
  8
0
100
AcDbVertex
100
AcDbPolygonMeshVertex
 10
1.2975
 20
-0.6775
 30
4.11
 70
    64
  0
VERTEX
  5
1FFC5
100
AcDbEntity
  8
0
100
AcDbVertex
100
AcDbPolygonMeshVertex
 10
1.2975
 20
-0.6775
 30
4.11
 70
    64
  0
VERTEX
  5
1FFC6
100
AcDbEntity
  8
0
100
AcDbVertex
100
AcDbPolygonMeshVertex
 10
1.2975
 20
-1.0225
 30
4.11
 70
    64
  0
VERTEX
  5
1FFC7
100
AcDbEntity
  8
0
100
AcDbVertex
100
AcDbPolygonMeshVertex
 10
1.1625
 20
-0.6775
 30
4.11
 70
    64
  0
VERTEX
  5
1FFC8
100
AcDbEntity
  8
0
100
AcDbVertex
100
AcDbPolygonMeshVertex
 10
1.1625
 20
-0.6775
 30
4.11
 70
    64
  0
VERTEX
  5
1FFC9
100
AcDbEntity
  8
0
100
AcDbVertex
100
AcDbPolygonMeshVertex
 10
1.1625
 20
-1.0225
 30
4.11
 70
    64
  0
SEQEND
  5
1FFCA
100
AcDbEntity
  8
0
  0
TEXT
  5
1FFCB
100
AcDbEntity
  8
0
100
AcDbText
 10
0.11323
 20
0.281116
 30
3.86
 40
0.083465
  1
1
100
AcDbText
  0
TEXT
  5
1FFCC
100
AcDbEntity
  8
0
100
AcDbText
 10
0.569131
 20
0.280274
 30
3.86
 40
0.083465
  1
L1
100
AcDbText
  0
TEXT
  5
1FFCD
100
AcDbEntity
  8
0
100
AcDbText
 10
0.842703
 20
0.279432
 30
3.86
 40
0.083465
  1
3
100
AcDbText
  0
TEXT
  5
1FFCE
100
AcDbEntity
  8
0
100
AcDbText
 10
1.226609
 20
0.280843
 30
3.86
 40
0.083465
  1
L2
100
AcDbText
  0
TEXT
  5
1FFCF
100
AcDbEntity
  8
0
100
AcDbText
 10
1.534202
 20
0.282255
 30
3.86
 40
0.083465
  1
5
100
AcDbText
  0
TEXT
  5
1FFD0
100
AcDbEntity
  8
0
100
AcDbText
 10
1.917519
 20
0.284255
 30
3.86
 40
0.083465
  1
L3
100
AcDbText
  0
TEXT
  5
1FFD1
100
AcDbEntity
  8
0
100
AcDbText
 10
0.10621
 20
-2.064187
 30
3.86
 40
0.083465
  1
2
100
AcDbText
  0
TEXT
  5
1FFD2
100
AcDbEntity
  8
0
100
AcDbText
 10
0.56732
 20
-2.062776
 30
3.86
 40
0.083465
  1
T1
100
AcDbText
  0
TEXT
  5
1FFD3
100
AcDbEntity
  8
0
100
AcDbText
 10
0.843257
 20
-2.060776
 30
3.86
 40
0.083465
  1
4
100
AcDbText
  0
TEXT
  5
1FFD4
100
AcDbEntity
  8
0
100
AcDbText
 10
1.227642
 20
-2.062206
 30
3.86
 40
0.083465
  1
T2
100
AcDbText
  0
TEXT
  5
1FFD5
100
AcDbEntity
  8
0
100
AcDbText
 10
1.539078
 20
-2.063048
 30
3.86
 40
0.083465
  1
6
100
AcDbText
  0
TEXT
  5
1FFD6
100
AcDbEntity
  8
0
100
AcDbText
 10
1.917186
 20
-2.061637
 30
3.86
 40
0.083465
  1
T3
100
AcDbText
  0
CIRCLE
  5
1FFD7
100
AcDbEntity
  8
0
100
AcDbCircle
 10
1.945
 20
0.337
 30
0.0
 40
0.086
  0
POLYLINE
  5
1FFD8
100
AcDbEntity
  8
0
100
AcDb3dPolyline
 66
     1
 10
0.0
 20
0.0
 30
0.0
 70
     8
  0
VERTEX
  5
1FFD9
100
AcDbEntity
  8
0
100
AcDbVertex
100
AcDb3dPolylineVertex
 10
0.979
 20
0.401
 30
0.0
 70
    32
  0
VERTEX
  5
1FFDA
100
AcDbEntity
  8
0
100
AcDbVertex
100
AcDb3dPolylineVertex
 10
0.979
 20
0.536
 30
0.0
 70
    32
  0
VERTEX
  5
1FFDB
100
AcDbEntity
  8
0
100
AcDbVertex
100
AcDb3dPolylineVertex
 10
0.768333
 20
0.536
 30
0.0
 70
    32
  0
VERTEX
  5
1FFDC
100
AcDbEntity
  8
0
100
AcDbVertex
100
AcDb3dPolylineVertex
 10
0.768333
 20
0.401
 30
0.0
 70
    32
  0
SEQEND
  5
1FFDD
100
AcDbEntity
  8
0
  0
POLYLINE
  5
1FFDE
100
AcDbEntity
  8
0
100
AcDb3dPolyline
 66
     1
 10
0.0
 20
0.0
 30
0.0
 70
     8
  0
VERTEX
  5
1FFDF
100
AcDbEntity
  8
0
100
AcDbVertex
100
AcDb3dPolylineVertex
 10
0.706333
 20
0.401
 30
0.0
 70
    32
  0
VERTEX
  5
1FFE0
100
AcDbEntity
  8
0
100
AcDbVertex
100
AcDb3dPolylineVertex
 10
0.706333
 20
0.536
 30
0.0
 70
    32
  0
VERTEX
  5
1FFE1
100
AcDbEntity
  8
0
100
AcDbVertex
100
AcDb3dPolylineVertex
 10
0.495667
 20
0.536
 30
0.0
 70
    32
  0
VERTEX
  5
1FFE2
100
AcDbEntity
  8
0
100
AcDbVertex
100
AcDb3dPolylineVertex
 10
0.495667
 20
0.401
 30
0.0
 70
    32
  0
SEQEND
  5
1FFE3
100
AcDbEntity
  8
0
  0
POLYLINE
  5
1FFE4
100
AcDbEntity
  8
0
100
AcDb3dPolyline
 66
     1
 10
0.0
 20
0.0
 30
0.0
 70
     8
  0
VERTEX
  5
1FFE5
100
AcDbEntity
  8
0
100
AcDbVertex
100
AcDb3dPolylineVertex
 10
0.433667
 20
0.401
 30
0.0
 70
    32
  0
VERTEX
  5
1FFE6
100
AcDbEntity
  8
0
100
AcDbVertex
100
AcDb3dPolylineVertex
 10
0.433667
 20
0.536
 30
0.0
 70
    32
  0
VERTEX
  5
1FFE7
100
AcDbEntity
  8
0
100
AcDbVertex
100
AcDb3dPolylineVertex
 10
0.223
 20
0.536
 30
0.0
 70
    32
  0
VERTEX
  5
1FFE8
100
AcDbEntity
  8
0
100
AcDbVertex
100
AcDb3dPolylineVertex
 10
0.223
 20
0.401
 30
0.0
 70
    32
  0
SEQEND
  5
1FFE9
100
AcDbEntity
  8
0
  0
LINE
  5
1FFEA
100
AcDbEntity
  8
0
100
AcDbLine
 10
0.979
 20
0.401
 30
0.0
 11
0.768333
 21
0.401
 31
0.0
  0
LINE
  5
1FFEB
100
AcDbEntity
  8
0
100
AcDbLine
 10
0.706333
 20
0.401
 30
0.0
 11
0.495667
 21
0.401
 31
0.0
  0
LINE
  5
1FFEC
100
AcDbEntity
  8
0
100
AcDbLine
 10
0.433667
 20
0.401
 30
0.0
 11
0.223
 21
0.401
 31
0.0
  0
POLYLINE
  5
1FFED
100
AcDbEntity
  8
0
100
AcDbPolygonMesh
 66
     1
 10
0.0
 20
0.0
 30
0.0
 70
    16
 71
     6
 72
     3
  0
VERTEX
  5
1FFEE
100
AcDbEntity
  8
0
100
AcDbVertex
100
AcDbPolygonMeshVertex
 10
0.391
 20
-1.806
 30
1.318
 70
    64
  0
VERTEX
  5
1FFEF
100
AcDbEntity
  8
0
100
AcDbVertex
100
AcDbPolygonMeshVertex
 10
0.391
 20
-1.806
 30
0.187
 70
    64
  0
VERTEX
  5
1FFF0
100
AcDbEntity
  8
0
100
AcDbVertex
100
AcDbPolygonMeshVertex
 10
0.391
 20
-1.806
 30
0.187
 70
    64
  0
VERTEX
  5
1FFF1
100
AcDbEntity
  8
0
100
AcDbVertex
100
AcDbPolygonMeshVertex
 10
0.0
 20
-1.806
 30
1.318
 70
    64
  0
VERTEX
  5
1FFF2
100
AcDbEntity
  8
0
100
AcDbVertex
100
AcDbPolygonMeshVertex
 10
0.0
 20
-1.806
 30
0.187
 70
    64
  0
VERTEX
  5
1FFF3
100
AcDbEntity
  8
0
100
AcDbVertex
100
AcDbPolygonMeshVertex
 10
0.0
 20
-1.806
 30
0.187
 70
    64
  0
VERTEX
  5
1FFF4
100
AcDbEntity
  8
0
100
AcDbVertex
100
AcDbPolygonMeshVertex
 10
0.0
 20
0.401
 30
1.318
 70
    64
  0
VERTEX
  5
1FFF5
100
AcDbEntity
  8
0
100
AcDbVertex
100
AcDbPolygonMeshVertex
 10
0.0
 20
0.401
 30
0.187
 70
    64
  0
VERTEX
  5
1FFF6
100
AcDbEntity
  8
0
100
AcDbVertex
100
AcDbPolygonMeshVertex
 10
0.0
 20
-1.806
 30
0.187
 70
    64
  0
VERTEX
  5
1FFF7
100
AcDbEntity
  8
0
100
AcDbVertex
100
AcDbPolygonMeshVertex
 10
0.391
 20
0.401
 30
1.318
 70
    64
  0
VERTEX
  5
1FFF8
100
AcDbEntity
  8
0
100
AcDbVertex
100
AcDbPolygonMeshVertex
 10
0.391
 20
0.401
 30
0.187
 70
    64
  0
VERTEX
  5
1FFF9
100
AcDbEntity
  8
0
100
AcDbVertex
100
AcDbPolygonMeshVertex
 10
0.391
 20
-1.806
 30
0.187
 70
    64
  0
VERTEX
  5
1FFFA
100
AcDbEntity
  8
0
100
AcDbVertex
100
AcDbPolygonMeshVertex
 10
0.391
 20
0.401
 30
1.318
 70
    64
  0
VERTEX
  5
1FFFB
100
AcDbEntity
  8
0
100
AcDbVertex
100
AcDbPolygonMeshVertex
 10
0.391
 20
0.401
 30
1.318
 70
    64
  0
VERTEX
  5
1FFFC
100
AcDbEntity
  8
0
100
AcDbVertex
100
AcDbPolygonMeshVertex
 10
0.391
 20
-1.806
 30
1.318
 70
    64
  0
VERTEX
  5
1FFFD
100
AcDbEntity
  8
0
100
AcDbVertex
100
AcDbPolygonMeshVertex
 10
0.0
 20
0.401
 30
1.318
 70
    64
  0
VERTEX
  5
1FFFE
100
AcDbEntity
  8
0
100
AcDbVertex
100
AcDbPolygonMeshVertex
 10
0.0
 20
0.401
 30
1.318
 70
    64
  0
VERTEX
  5
1FFFF
100
AcDbEntity
  8
0
100
AcDbVertex
100
AcDbPolygonMeshVertex
 10
0.0
 20
-1.806
 30
1.318
 70
    64
  0
SEQEND
  5
20000
100
AcDbEntity
  8
0
  0
POLYLINE
  5
20001
100
AcDbEntity
  8
0
100
AcDbPolygonMesh
 66
     1
 10
0.0
 20
0.0
 30
0.0
 70
    16
 71
     6
 72
     3
  0
VERTEX
  5
20002
100
AcDbEntity
  8
0
100
AcDbVertex
100
AcDbPolygonMeshVertex
 10
2.12
 20
-2.089
 30
1.318
 70
    64
  0
VERTEX
  5
20003
100
AcDbEntity
  8
0
100
AcDbVertex
100
AcDbPolygonMeshVertex
 10
2.12
 20
-2.089
 30
0.187
 70
    64
  0
VERTEX
  5
20004
100
AcDbEntity
  8
0
100
AcDbVertex
100
AcDbPolygonMeshVertex
 10
2.12
 20
-2.089
 30
0.187
 70
    64
  0
VERTEX
  5
20005
100
AcDbEntity
  8
0
100
AcDbVertex
100
AcDbPolygonMeshVertex
 10
1.729
 20
-2.089
 30
1.318
 70
    64
  0
VERTEX
  5
20006
100
AcDbEntity
  8
0
100
AcDbVertex
100
AcDbPolygonMeshVertex
 10
1.729
 20
-2.089
 30
0.187
 70
    64
  0
VERTEX
  5
20007
100
AcDbEntity
  8
0
100
AcDbVertex
100
AcDbPolygonMeshVertex
 10
1.729
 20
-2.089
 30
0.187
 70
    64
  0
VERTEX
  5
20008
100
AcDbEntity
  8
0
100
AcDbVertex
100
AcDbPolygonMeshVertex
 10
1.729
 20
0.118
 30
1.318
 70
    64
  0
VERTEX
  5
20009
100
AcDbEntity
  8
0
100
AcDbVertex
100
AcDbPolygonMeshVertex
 10
1.729
 20
0.118
 30
0.187
 70
    64
  0
VERTEX
  5
2000A
100
AcDbEntity
  8
0
100
AcDbVertex
100
AcDbPolygonMeshVertex
 10
1.729
 20
-2.089
 30
0.187
 70
    64
  0
VERTEX
  5
2000B
100
AcDbEntity
  8
0
100
AcDbVertex
100
AcDbPolygonMeshVertex
 10
2.12
 20
0.118
 30
1.318
 70
    64
  0
VERTEX
  5
2000C
100
AcDbEntity
  8
0
100
AcDbVertex
100
AcDbPolygonMeshVertex
 10
2.12
 20
0.118
 30
0.187
 70
    64
  0
VERTEX
  5
2000D
100
AcDbEntity
  8
0
100
AcDbVertex
100
AcDbPolygonMeshVertex
 10
2.12
 20
-2.089
 30
0.187
 70
    64
  0
VERTEX
  5
2000E
100
AcDbEntity
  8
0
100
AcDbVertex
100
AcDbPolygonMeshVertex
 10
2.12
 20
0.118
 30
1.318
 70
    64
  0
VERTEX
  5
2000F
100
AcDbEntity
  8
0
100
AcDbVertex
100
AcDbPolygonMeshVertex
 10
2.12
 20
0.118
 30
1.318
 70
    64
  0
VERTEX
  5
20010
100
AcDbEntity
  8
0
100
AcDbVertex
100
AcDbPolygonMeshVertex
 10
2.12
 20
-2.089
 30
1.318
 70
    64
  0
VERTEX
  5
20011
100
AcDbEntity
  8
0
100
AcDbVertex
100
AcDbPolygonMeshVertex
 10
1.729
 20
0.118
 30
1.318
 70
    64
  0
VERTEX
  5
20012
100
AcDbEntity
  8
0
100
AcDbVertex
100
AcDbPolygonMeshVertex
 10
1.729
 20
0.118
 30
1.318
 70
    64
  0
VERTEX
  5
20013
100
AcDbEntity
  8
0
100
AcDbVertex
100
AcDbPolygonMeshVertex
 10
1.729
 20
-2.089
 30
1.318
 70
    64
  0
SEQEND
  5
20014
100
AcDbEntity
  8
0
  0
POLYLINE
  5
20015
100
AcDbEntity
  8
0
100
AcDbPolygonMesh
 66
     1
 10
0.0
 20
0.0
 30
0.0
 70
    16
 71
     6
 72
     3
  0
VERTEX
  5
20016
100
AcDbEntity
  8
0
100
AcDbVertex
100
AcDbPolygonMeshVertex
 10
1.729
 20
-2.089
 30
1.318
 70
    64
  0
VERTEX
  5
20017
100
AcDbEntity
  8
0
100
AcDbVertex
100
AcDbPolygonMeshVertex
 10
1.729
 20
-2.089
 30
0.187
 70
    64
  0
VERTEX
  5
20018
100
AcDbEntity
  8
0
100
AcDbVertex
100
AcDbPolygonMeshVertex
 10
1.729
 20
-2.089
 30
0.187
 70
    64
  0
VERTEX
  5
20019
100
AcDbEntity
  8
0
100
AcDbVertex
100
AcDbPolygonMeshVertex
 10
0.391
 20
-2.089
 30
1.318
 70
    64
  0
VERTEX
  5
2001A
100
AcDbEntity
  8
0
100
AcDbVertex
100
AcDbPolygonMeshVertex
 10
0.391
 20
-2.089
 30
0.187
 70
    64
  0
VERTEX
  5
2001B
100
AcDbEntity
  8
0
100
AcDbVertex
100
AcDbPolygonMeshVertex
 10
0.391
 20
-2.089
 30
0.187
 70
    64
  0
VERTEX
  5
2001C
100
AcDbEntity
  8
0
100
AcDbVertex
100
AcDbPolygonMeshVertex
 10
0.391
 20
0.401
 30
1.318
 70
    64
  0
VERTEX
  5
2001D
100
AcDbEntity
  8
0
100
AcDbVertex
100
AcDbPolygonMeshVertex
 10
0.391
 20
0.401
 30
0.187
 70
    64
  0
VERTEX
  5
2001E
100
AcDbEntity
  8
0
100
AcDbVertex
100
AcDbPolygonMeshVertex
 10
0.391
 20
-2.089
 30
0.187
 70
    64
  0
VERTEX
  5
2001F
100
AcDbEntity
  8
0
100
AcDbVertex
100
AcDbPolygonMeshVertex
 10
1.729
 20
0.401
 30
1.318
 70
    64
  0
VERTEX
  5
20020
100
AcDbEntity
  8
0
100
AcDbVertex
100
AcDbPolygonMeshVertex
 10
1.729
 20
0.401
 30
0.187
 70
    64
  0
VERTEX
  5
20021
100
AcDbEntity
  8
0
100
AcDbVertex
100
AcDbPolygonMeshVertex
 10
1.729
 20
-2.089
 30
0.187
 70
    64
  0
VERTEX
  5
20022
100
AcDbEntity
  8
0
100
AcDbVertex
100
AcDbPolygonMeshVertex
 10
1.729
 20
0.401
 30
1.318
 70
    64
  0
VERTEX
  5
20023
100
AcDbEntity
  8
0
100
AcDbVertex
100
AcDbPolygonMeshVertex
 10
1.729
 20
0.401
 30
1.318
 70
    64
  0
VERTEX
  5
20024
100
AcDbEntity
  8
0
100
AcDbVertex
100
AcDbPolygonMeshVertex
 10
1.729
 20
-2.089
 30
1.318
 70
    64
  0
VERTEX
  5
20025
100
AcDbEntity
  8
0
100
AcDbVertex
100
AcDbPolygonMeshVertex
 10
0.391
 20
0.401
 30
1.318
 70
    64
  0
VERTEX
  5
20026
100
AcDbEntity
  8
0
100
AcDbVertex
100
AcDbPolygonMeshVertex
 10
0.391
 20
0.401
 30
1.318
 70
    64
  0
VERTEX
  5
20027
100
AcDbEntity
  8
0
100
AcDbVertex
100
AcDbPolygonMeshVertex
 10
0.391
 20
-2.089
 30
1.318
 70
    64
  0
SEQEND
  5
20028
100
AcDbEntity
  8
0
  0
LWPOLYLINE
  5
20029
100
AcDbEntity
  8
0
100
AcDbPolyline
 90
        4
 70
     1
 43
0.0
 38
1.388
 10
0.9265
 20
-2.141
 10
1.1935
 20
-2.141
 10
1.1935
 20
-2.29
 10
0.9265
 20
-2.29
  0
LINE
  5
2002A
100
AcDbEntity
  8
0
100
AcDbLine
 10
1.2
 20
0.401
 30
2.062
 11
1.2
 21
0.636
 31
2.062
  0
LINE
  5
2002B
100
AcDbEntity
  8
0
100
AcDbLine
 10
0.5625
 20
0.838
 30
1.841
 11
0.5625
 21
0.838
 31
1.641
  0
LINE
  5
2002C
100
AcDbEntity
  8
0
100
AcDbLine
 10
0.36
 20
0.598
 30
0.187
 11
0.161
 21
0.598
 31
0.187
  0
POLYLINE
  5
2002D
100
AcDbEntity
  8
0
100
AcDbPolygonMesh
 66
     1
 10
0.0
 20
0.0
 30
0.0
 70
    16
 71
     6
 72
     3
  0
VERTEX
  5
2002E
100
AcDbEntity
  8
0
100
AcDbVertex
100
AcDbPolygonMeshVertex
 10
1.959
 20
-2.286
 30
0.187
 70
    64
  0
VERTEX
  5
2002F
100
AcDbEntity
  8
0
100
AcDbVertex
100
AcDbPolygonMeshVertex
 10
1.959
 20
-2.286
 30
0.0
 70
    64
  0
VERTEX
  5
20030
100
AcDbEntity
  8
0
100
AcDbVertex
100
AcDbPolygonMeshVertex
 10
1.959
 20
-2.286
 30
0.0
 70
    64
  0
VERTEX
  5
20031
100
AcDbEntity
  8
0
100
AcDbVertex
100
AcDbPolygonMeshVertex
 10
1.079
 20
-2.286
 30
0.187
 70
    64
  0
VERTEX
  5
20032
100
AcDbEntity
  8
0
100
AcDbVertex
100
AcDbPolygonMeshVertex
 10
1.079
 20
-2.286
 30
0.0
 70
    64
  0
VERTEX
  5
20033
100
AcDbEntity
  8
0
100
AcDbVertex
100
AcDbPolygonMeshVertex
 10
1.079
 20
-2.286
 30
0.0
 70
    64
  0
VERTEX
  5
20034
100
AcDbEntity
  8
0
100
AcDbVertex
100
AcDbPolygonMeshVertex
 10
1.079
 20
-1.688
 30
0.187
 70
    64
  0
VERTEX
  5
20035
100
AcDbEntity
  8
0
100
AcDbVertex
100
AcDbPolygonMeshVertex
 10
1.079
 20
-1.688
 30
0.0
 70
    64
  0
VERTEX
  5
20036
100
AcDbEntity
  8
0
100
AcDbVertex
100
AcDbPolygonMeshVertex
 10
1.079
 20
-2.286
 30
0.0
 70
    64
  0
VERTEX
  5
20037
100
AcDbEntity
  8
0
100
AcDbVertex
100
AcDbPolygonMeshVertex
 10
1.959
 20
-1.688
 30
0.187
 70
    64
  0
VERTEX
  5
20038
100
AcDbEntity
  8
0
100
AcDbVertex
100
AcDbPolygonMeshVertex
 10
1.959
 20
-1.688
 30
0.0
 70
    64
  0
VERTEX
  5
20039
100
AcDbEntity
  8
0
100
AcDbVertex
100
AcDbPolygonMeshVertex
 10
1.959
 20
-2.286
 30
0.0
 70
    64
  0
VERTEX
  5
2003A
100
AcDbEntity
  8
0
100
AcDbVertex
100
AcDbPolygonMeshVertex
 10
1.959
 20
-1.688
 30
0.187
 70
    64
  0
VERTEX
  5
2003B
100
AcDbEntity
  8
0
100
AcDbVertex
100
AcDbPolygonMeshVertex
 10
1.959
 20
-1.688
 30
0.187
 70
    64
  0
VERTEX
  5
2003C
100
AcDbEntity
  8
0
100
AcDbVertex
100
AcDbPolygonMeshVertex
 10
1.959
 20
-2.286
 30
0.187
 70
    64
  0
VERTEX
  5
2003D
100
AcDbEntity
  8
0
100
AcDbVertex
100
AcDbPolygonMeshVertex
 10
1.079
 20
-1.688
 30
0.187
 70
    64
  0
VERTEX
  5
2003E
100
AcDbEntity
  8
0
100
AcDbVertex
100
AcDbPolygonMeshVertex
 10
1.079
 20
-1.688
 30
0.187
 70
    64
  0
VERTEX
  5
2003F
100
AcDbEntity
  8
0
100
AcDbVertex
100
AcDbPolygonMeshVertex
 10
1.079
 20
-2.286
 30
0.187
 70
    64
  0
SEQEND
  5
20040
100
AcDbEntity
  8
0
  0
POLYLINE
  5
20041
100
AcDbEntity
  8
0
100
AcDb3dPolyline
 66
     1
 10
0.0
 20
0.0
 30
0.0
 70
     8
  0
VERTEX
  5
20042
100
AcDbEntity
  8
0
100
AcDbVertex
100
AcDb3dPolylineVertex
 10
1.686333
 20
-2.089
 30
0.0
 70
    32
  0
VERTEX
  5
20043
100
AcDbEntity
  8
0
100
AcDbVertex
100
AcDb3dPolylineVertex
 10
1.686333
 20
-2.224
 30
0.0
 70
    32
  0
VERTEX
  5
20044
100
AcDbEntity
  8
0
100
AcDbVertex
100
AcDb3dPolylineVertex
 10
1.897
 20
-2.224
 30
0.0
 70
    32
  0
VERTEX
  5
20045
100
AcDbEntity
  8
0
100
AcDbVertex
100
AcDb3dPolylineVertex
 10
1.897
 20
-2.089
 30
0.0
 70
    32
  0
SEQEND
  5
20046
100
AcDbEntity
  8
0
  0
POLYLINE
  5
20047
100
AcDbEntity
  8
0
100
AcDb3dPolyline
 66
     1
 10
0.0
 20
0.0
 30
0.0
 70
     8
  0
VERTEX
  5
20048
100
AcDbEntity
  8
0
100
AcDbVertex
100
AcDb3dPolylineVertex
 10
1.686333
 20
-2.089
 30
0.187
 70
    32
  0
VERTEX
  5
20049
100
AcDbEntity
  8
0
100
AcDbVertex
100
AcDb3dPolylineVertex
 10
1.686333
 20
-2.224
 30
0.187
 70
    32
  0
VERTEX
  5
2004A
100
AcDbEntity
  8
0
100
AcDbVertex
100
AcDb3dPolylineVertex
 10
1.897
 20
-2.224
 30
0.187
 70
    32
  0
VERTEX
  5
2004B
100
AcDbEntity
  8
0
100
AcDbVertex
100
AcDb3dPolylineVertex
 10
1.897
 20
-2.089
 30
0.187
 70
    32
  0
SEQEND
  5
2004C
100
AcDbEntity
  8
0
  0
LINE
  5
2004D
100
AcDbEntity
  8
0
100
AcDbLine
 10
1.76
 20
-2.286
 30
0.187
 11
1.959
 21
-2.286
 31
0.187
  0
POLYLINE
  5
2004E
100
AcDbEntity
  8
0
100
AcDb3dPolyline
 66
     1
 10
0.0
 20
0.0
 30
0.0
 70
     8
  0
VERTEX
  5
2004F
100
AcDbEntity
  8
0
100
AcDbVertex
100
AcDb3dPolylineVertex
 10
1.413667
 20
-2.089
 30
0.0
 70
    32
  0
VERTEX
  5
20050
100
AcDbEntity
  8
0
100
AcDbVertex
100
AcDb3dPolylineVertex
 10
1.413667
 20
-2.224
 30
0.0
 70
    32
  0
VERTEX
  5
20051
100
AcDbEntity
  8
0
100
AcDbVertex
100
AcDb3dPolylineVertex
 10
1.624333
 20
-2.224
 30
0.0
 70
    32
  0
VERTEX
  5
20052
100
AcDbEntity
  8
0
100
AcDbVertex
100
AcDb3dPolylineVertex
 10
1.624333
 20
-2.089
 30
0.0
 70
    32
  0
SEQEND
  5
20053
100
AcDbEntity
  8
0
  0
POLYLINE
  5
20054
100
AcDbEntity
  8
0
100
AcDb3dPolyline
 66
     1
 10
0.0
 20
0.0
 30
0.0
 70
     8
  0
VERTEX
  5
20055
100
AcDbEntity
  8
0
100
AcDbVertex
100
AcDb3dPolylineVertex
 10
1.413667
 20
-2.089
 30
0.187
 70
    32
  0
VERTEX
  5
20056
100
AcDbEntity
  8
0
100
AcDbVertex
100
AcDb3dPolylineVertex
 10
1.413667
 20
-2.224
 30
0.187
 70
    32
  0
VERTEX
  5
20057
100
AcDbEntity
  8
0
100
AcDbVertex
100
AcDb3dPolylineVertex
 10
1.624333
 20
-2.224
 30
0.187
 70
    32
  0
VERTEX
  5
20058
100
AcDbEntity
  8
0
100
AcDbVertex
100
AcDb3dPolylineVertex
 10
1.624333
 20
-2.089
 30
0.187
 70
    32
  0
SEQEND
  5
20059
100
AcDbEntity
  8
0
  0
LINE
  5
2005A
100
AcDbEntity
  8
0
100
AcDbLine
 10
1.686333
 20
-2.089
 30
0.0
 11
1.897
 21
-2.089
 31
0.0
  0
LINE
  5
2005B
100
AcDbEntity
  8
0
100
AcDbLine
 10
1.413667
 20
-2.089
 30
0.0
 11
1.624333
 21
-2.089
 31
0.0
  0
POLYLINE
  5
2005C
100
AcDbEntity
  8
0
100
AcDb3dPolyline
 66
     1
 10
0.0
 20
0.0
 30
0.0
 70
     8
  0
VERTEX
  5
2005D
100
AcDbEntity
  8
0
100
AcDbVertex
100
AcDb3dPolylineVertex
 10
1.141
 20
-2.089
 30
0.0
 70
    32
  0
VERTEX
  5
2005E
100
AcDbEntity
  8
0
100
AcDbVertex
100
AcDb3dPolylineVertex
 10
1.141
 20
-2.224
 30
0.0
 70
    32
  0
VERTEX
  5
2005F
100
AcDbEntity
  8
0
100
AcDbVertex
100
AcDb3dPolylineVertex
 10
1.351667
 20
-2.224
 30
0.0
 70
    32
  0
VERTEX
  5
20060
100
AcDbEntity
  8
0
100
AcDbVertex
100
AcDb3dPolylineVertex
 10
1.351667
 20
-2.089
 30
0.0
 70
    32
  0
SEQEND
  5
20061
100
AcDbEntity
  8
0
  0
POLYLINE
  5
20062
100
AcDbEntity
  8
0
100
AcDb3dPolyline
 66
     1
 10
0.0
 20
0.0
 30
0.0
 70
     8
  0
VERTEX
  5
20063
100
AcDbEntity
  8
0
100
AcDbVertex
100
AcDb3dPolylineVertex
 10
1.141
 20
-2.089
 30
0.187
 70
    32
  0
VERTEX
  5
20064
100
AcDbEntity
  8
0
100
AcDbVertex
100
AcDb3dPolylineVertex
 10
1.141
 20
-2.224
 30
0.187
 70
    32
  0
VERTEX
  5
20065
100
AcDbEntity
  8
0
100
AcDbVertex
100
AcDb3dPolylineVertex
 10
1.351667
 20
-2.224
 30
0.187
 70
    32
  0
VERTEX
  5
20066
100
AcDbEntity
  8
0
100
AcDbVertex
100
AcDb3dPolylineVertex
 10
1.351667
 20
-2.089
 30
0.187
 70
    32
  0
SEQEND
  5
20067
100
AcDbEntity
  8
0
  0
LINE
  5
20068
100
AcDbEntity
  8
0
100
AcDbLine
 10
1.141
 20
-2.089
 30
0.0
 11
1.351667
 21
-2.089
 31
0.0
  0
CIRCLE
  5
20069
100
AcDbEntity
  8
0
100
AcDbCircle
 10
0.173
 20
-2.025
 30
0.0
 40
0.086
  0
CIRCLE
  5
2006A
100
AcDbEntity
  8
0
100
AcDbCircle
 10
0.173
 20
-2.025
 30
0.316
 40
0.086
  0
POLYLINE
  5
2006B
100
AcDbEntity
  8
0
100
AcDbPolygonMesh
 66
     1
 10
0.0
 20
0.0
 30
0.0
 70
    16
 71
     6
 72
     3
  0
VERTEX
  5
2006C
100
AcDbEntity
  8
0
100
AcDbVertex
100
AcDbPolygonMeshVertex
 10
0.6887
 20
0.515
 30
3.059
 70
    64
  0
VERTEX
  5
2006D
100
AcDbEntity
  8
0
100
AcDbVertex
100
AcDbPolygonMeshVertex
 10
0.6887
 20
0.515
 30
2.447
 70
    64
  0
VERTEX
  5
2006E
100
AcDbEntity
  8
0
100
AcDbVertex
100
AcDbPolygonMeshVertex
 10
0.6887
 20
0.515
 30
2.447
 70
    64
  0
VERTEX
  5
2006F
100
AcDbEntity
  8
0
100
AcDbVertex
100
AcDbPolygonMeshVertex
 10
0.7427
 20
0.515
 30
3.059
 70
    64
  0
VERTEX
  5
20070
100
AcDbEntity
  8
0
100
AcDbVertex
100
AcDbPolygonMeshVertex
 10
0.7427
 20
0.515
 30
2.447
 70
    64
  0
VERTEX
  5
20071
100
AcDbEntity
  8
0
100
AcDbVertex
100
AcDbPolygonMeshVertex
 10
0.7427
 20
0.515
 30
2.447
 70
    64
  0
VERTEX
  5
20072
100
AcDbEntity
  8
0
100
AcDbVertex
100
AcDbPolygonMeshVertex
 10
0.7427
 20
0.401
 30
3.059
 70
    64
  0
VERTEX
  5
20073
100
AcDbEntity
  8
0
100
AcDbVertex
100
AcDbPolygonMeshVertex
 10
0.7427
 20
0.401
 30
2.447
 70
    64
  0
VERTEX
  5
20074
100
AcDbEntity
  8
0
100
AcDbVertex
100
AcDbPolygonMeshVertex
 10
0.7427
 20
0.515
 30
2.447
 70
    64
  0
VERTEX
  5
20075
100
AcDbEntity
  8
0
100
AcDbVertex
100
AcDbPolygonMeshVertex
 10
0.6887
 20
0.401
 30
3.059
 70
    64
  0
VERTEX
  5
20076
100
AcDbEntity
  8
0
100
AcDbVertex
100
AcDbPolygonMeshVertex
 10
0.6887
 20
0.401
 30
2.447
 70
    64
  0
VERTEX
  5
20077
100
AcDbEntity
  8
0
100
AcDbVertex
100
AcDbPolygonMeshVertex
 10
0.6887
 20
0.515
 30
2.447
 70
    64
  0
VERTEX
  5
20078
100
AcDbEntity
  8
0
100
AcDbVertex
100
AcDbPolygonMeshVertex
 10
0.6887
 20
0.401
 30
3.059
 70
    64
  0
VERTEX
  5
20079
100
AcDbEntity
  8
0
100
AcDbVertex
100
AcDbPolygonMeshVertex
 10
0.6887
 20
0.401
 30
3.059
 70
    64
  0
VERTEX
  5
2007A
100
AcDbEntity
  8
0
100
AcDbVertex
100
AcDbPolygonMeshVertex
 10
0.6887
 20
0.515
 30
3.059
 70
    64
  0
VERTEX
  5
2007B
100
AcDbEntity
  8
0
100
AcDbVertex
100
AcDbPolygonMeshVertex
 10
0.7427
 20
0.401
 30
3.059
 70
    64
  0
VERTEX
  5
2007C
100
AcDbEntity
  8
0
100
AcDbVertex
100
AcDbPolygonMeshVertex
 10
0.7427
 20
0.401
 30
3.059
 70
    64
  0
VERTEX
  5
2007D
100
AcDbEntity
  8
0
100
AcDbVertex
100
AcDbPolygonMeshVertex
 10
0.7427
 20
0.515
 30
3.059
 70
    64
  0
SEQEND
  5
2007E
100
AcDbEntity
  8
0
  0
POLYLINE
  5
2007F
100
AcDbEntity
  8
0
100
AcDbPolygonMesh
 66
     1
 10
0.0
 20
0.0
 30
0.0
 70
    16
 71
     6
 72
     3
  0
VERTEX
  5
20080
100
AcDbEntity
  8
0
100
AcDbVertex
100
AcDbPolygonMeshVertex
 10
1.4313
 20
0.515
 30
3.059
 70
    64
  0
VERTEX
  5
20081
100
AcDbEntity
  8
0
100
AcDbVertex
100
AcDbPolygonMeshVertex
 10
1.4313
 20
0.515
 30
2.447
 70
    64
  0
VERTEX
  5
20082
100
AcDbEntity
  8
0
100
AcDbVertex
100
AcDbPolygonMeshVertex
 10
1.4313
 20
0.515
 30
2.447
 70
    64
  0
VERTEX
  5
20083
100
AcDbEntity
  8
0
100
AcDbVertex
100
AcDbPolygonMeshVertex
 10
1.3773
 20
0.515
 30
3.059
 70
    64
  0
VERTEX
  5
20084
100
AcDbEntity
  8
0
100
AcDbVertex
100
AcDbPolygonMeshVertex
 10
1.3773
 20
0.515
 30
2.447
 70
    64
  0
VERTEX
  5
20085
100
AcDbEntity
  8
0
100
AcDbVertex
100
AcDbPolygonMeshVertex
 10
1.3773
 20
0.515
 30
2.447
 70
    64
  0
VERTEX
  5
20086
100
AcDbEntity
  8
0
100
AcDbVertex
100
AcDbPolygonMeshVertex
 10
1.3773
 20
0.401
 30
3.059
 70
    64
  0
VERTEX
  5
20087
100
AcDbEntity
  8
0
100
AcDbVertex
100
AcDbPolygonMeshVertex
 10
1.3773
 20
0.401
 30
2.447
 70
    64
  0
VERTEX
  5
20088
100
AcDbEntity
  8
0
100
AcDbVertex
100
AcDbPolygonMeshVertex
 10
1.3773
 20
0.515
 30
2.447
 70
    64
  0
VERTEX
  5
20089
100
AcDbEntity
  8
0
100
AcDbVertex
100
AcDbPolygonMeshVertex
 10
1.4313
 20
0.401
 30
3.059
 70
    64
  0
VERTEX
  5
2008A
100
AcDbEntity
  8
0
100
AcDbVertex
100
AcDbPolygonMeshVertex
 10
1.4313
 20
0.401
 30
2.447
 70
    64
  0
VERTEX
  5
2008B
100
AcDbEntity
  8
0
100
AcDbVertex
100
AcDbPolygonMeshVertex
 10
1.4313
 20
0.515
 30
2.447
 70
    64
  0
VERTEX
  5
2008C
100
AcDbEntity
  8
0
100
AcDbVertex
100
AcDbPolygonMeshVertex
 10
1.4313
 20
0.401
 30
3.059
 70
    64
  0
VERTEX
  5
2008D
100
AcDbEntity
  8
0
100
AcDbVertex
100
AcDbPolygonMeshVertex
 10
1.4313
 20
0.401
 30
3.059
 70
    64
  0
VERTEX
  5
2008E
100
AcDbEntity
  8
0
100
AcDbVertex
100
AcDbPolygonMeshVertex
 10
1.4313
 20
0.515
 30
3.059
 70
    64
  0
VERTEX
  5
2008F
100
AcDbEntity
  8
0
100
AcDbVertex
100
AcDbPolygonMeshVertex
 10
1.3773
 20
0.401
 30
3.059
 70
    64
  0
VERTEX
  5
20090
100
AcDbEntity
  8
0
100
AcDbVertex
100
AcDbPolygonMeshVertex
 10
1.3773
 20
0.401
 30
3.059
 70
    64
  0
VERTEX
  5
20091
100
AcDbEntity
  8
0
100
AcDbVertex
100
AcDbPolygonMeshVertex
 10
1.3773
 20
0.515
 30
3.059
 70
    64
  0
SEQEND
  5
20092
100
AcDbEntity
  8
0
  0
LINE
  5
20093
100
AcDbEntity
  8
0
100
AcDbLine
 10
0.23635
 20
0.401
 30
2.998
 11
0.50635
 21
0.401
 31
2.998
  0
LINE
  5
20094
100
AcDbEntity
  8
0
100
AcDbLine
 10
0.23635
 20
0.401
 30
2.328
 11
0.50635
 21
0.401
 31
2.328
  0
LINE
  5
20095
100
AcDbEntity
  8
0
100
AcDbLine
 10
0.23635
 20
0.401
 30
2.726
 11
0.50635
 21
0.401
 31
2.726
  0
LINE
  5
20096
100
AcDbEntity
  8
0
100
AcDbLine
 10
0.23635
 20
0.401
 30
2.622
 11
0.50635
 21
0.401
 31
2.622
  0
LINE
  5
20097
100
AcDbEntity
  8
0
100
AcDbLine
 10
0.56835
 20
0.401
 30
2.368461
 11
0.56835
 21
0.401
 31
3.059
  0
LINE
  5
20098
100
AcDbEntity
  8
0
100
AcDbLine
 10
0.17435
 20
0.401
 30
2.3875
 11
0.17435
 21
0.401
 31
3.059
  0
LINE
  5
20099
100
AcDbEntity
  8
0
100
AcDbLine
 10
0.23635
 20
0.401
 30
2.998
 11
0.23635
 21
0.401
 31
2.726
  0
LINE
  5
2009A
100
AcDbEntity
  8
0
100
AcDbLine
 10
0.50635
 20
0.401
 30
2.998
 11
0.50635
 21
0.401
 31
2.726
  0
LINE
  5
2009B
100
AcDbEntity
  8
0
100
AcDbLine
 10
0.23635
 20
0.401
 30
2.622
 11
0.23635
 21
0.401
 31
2.447
  0
LINE
  5
2009C
100
AcDbEntity
  8
0
100
AcDbLine
 10
0.17435
 20
0.401
 30
2.447
 11
0.23635
 21
0.401
 31
2.447
  0
LINE
  5
2009D
100
AcDbEntity
  8
0
100
AcDbLine
 10
0.50635
 20
0.401
 30
2.328
 11
0.56835
 21
0.401
 31
2.368461
  0
LINE
  5
2009E
100
AcDbEntity
  8
0
100
AcDbLine
 10
0.56835
 20
0.401
 30
2.447
 11
0.50635
 21
0.401
 31
2.447
  0
LINE
  5
2009F
100
AcDbEntity
  8
0
100
AcDbLine
 10
0.50635
 20
0.401
 30
2.622
 11
0.50635
 21
0.401
 31
2.447
  0
LINE
  5
200A0
100
AcDbEntity
  8
0
100
AcDbLine
 10
0.23635
 20
0.401
 30
2.328
 11
0.17435
 21
0.401
 31
2.3875
  0
LINE
  5
200A1
100
AcDbEntity
  8
0
100
AcDbLine
 10
0.17435
 20
0.401
 30
3.059
 11
0.56835
 21
0.401
 31
3.059
210
0.0
220
-1.0
230
0.0
  0
LINE
  5
200A2
100
AcDbEntity
  8
0
100
AcDbLine
 10
0.86305
 20
0.401
 30
2.3875
 11
0.86305
 21
0.401
 31
3.059
  0
LINE
  5
200A3
100
AcDbEntity
  8
0
100
AcDbLine
 10
1.25705
 20
0.401
 30
2.368461
 11
1.25705
 21
0.401
 31
3.059
  0
LINE
  5
200A4
100
AcDbEntity
  8
0
100
AcDbLine
 10
0.92505
 20
0.401
 30
2.328
 11
1.19505
 21
0.401
 31
2.328
  0
LINE
  5
200A5
100
AcDbEntity
  8
0
100
AcDbLine
 10
0.92505
 20
0.401
 30
2.622
 11
1.19505
 21
0.401
 31
2.622
  0
LINE
  5
200A6
100
AcDbEntity
  8
0
100
AcDbLine
 10
0.92505
 20
0.401
 30
2.328
 11
0.86305
 21
0.401
 31
2.3875
  0
LINE
  5
200A7
100
AcDbEntity
  8
0
100
AcDbLine
 10
0.92505
 20
0.401
 30
2.622
 11
0.92505
 21
0.401
 31
2.447
  0
LINE
  5
200A8
100
AcDbEntity
  8
0
100
AcDbLine
 10
0.86305
 20
0.401
 30
2.447
 11
0.92505
 21
0.401
 31
2.447
  0
LINE
  5
200A9
100
AcDbEntity
  8
0
100
AcDbLine
 10
1.19505
 20
0.401
 30
2.328
 11
1.25705
 21
0.401
 31
2.368461
  0
LINE
  5
200AA
100
AcDbEntity
  8
0
100
AcDbLine
 10
1.19505
 20
0.401
 30
2.622
 11
1.19505
 21
0.401
 31
2.447
  0
LINE
  5
200AB
100
AcDbEntity
  8
0
100
AcDbLine
 10
1.25705
 20
0.401
 30
2.447
 11
1.19505
 21
0.401
 31
2.447
  0
LINE
  5
200AC
100
AcDbEntity
  8
0
100
AcDbLine
 10
0.86305
 20
0.401
 30
3.059
 11
1.25705
 21
0.401
 31
3.059
210
0.0
220
-1.0
230
0.0
  0
LINE
  5
200AD
100
AcDbEntity
  8
0
100
AcDbLine
 10
0.92505
 20
0.401
 30
2.998
 11
1.19505
 21
0.401
 31
2.998
  0
LINE
  5
200AE
100
AcDbEntity
  8
0
100
AcDbLine
 10
0.92505
 20
0.401
 30
2.726
 11
1.19505
 21
0.401
 31
2.726
  0
LINE
  5
200AF
100
AcDbEntity
  8
0
100
AcDbLine
 10
0.92505
 20
0.401
 30
2.998
 11
0.92505
 21
0.401
 31
2.726
  0
LINE
  5
200B0
100
AcDbEntity
  8
0
100
AcDbLine
 10
1.19505
 20
0.401
 30
2.998
 11
1.19505
 21
0.401
 31
2.726
  0
LINE
  5
200B1
100
AcDbEntity
  8
0
100
AcDbLine
 10
1.94565
 20
0.401
 30
2.368461
 11
1.94565
 21
0.401
 31
3.059
  0
LINE
  5
200B2
100
AcDbEntity
  8
0
100
AcDbLine
 10
1.55165
 20
0.401
 30
2.3875
 11
1.55165
 21
0.401
 31
3.059
  0
LINE
  5
200B3
100
AcDbEntity
  8
0
100
AcDbLine
 10
1.61365
 20
0.401
 30
2.622
 11
1.88365
 21
0.401
 31
2.622
  0
LINE
  5
200B4
100
AcDbEntity
  8
0
100
AcDbLine
 10
1.61365
 20
0.401
 30
2.328
 11
1.88365
 21
0.401
 31
2.328
  0
LINE
  5
200B5
100
AcDbEntity
  8
0
100
AcDbLine
 10
1.61365
 20
0.401
 30
2.328
 11
1.55165
 21
0.401
 31
2.3875
  0
LINE
  5
200B6
100
AcDbEntity
  8
0
100
AcDbLine
 10
1.61365
 20
0.401
 30
2.622
 11
1.61365
 21
0.401
 31
2.447
  0
LINE
  5
200B7
100
AcDbEntity
  8
0
100
AcDbLine
 10
1.55165
 20
0.401
 30
2.447
 11
1.61365
 21
0.401
 31
2.447
  0
LINE
  5
200B8
100
AcDbEntity
  8
0
100
AcDbLine
 10
1.88365
 20
0.401
 30
2.328
 11
1.94565
 21
0.401
 31
2.368461
  0
LINE
  5
200B9
100
AcDbEntity
  8
0
100
AcDbLine
 10
1.88365
 20
0.401
 30
2.622
 11
1.88365
 21
0.401
 31
2.447
  0
LINE
  5
200BA
100
AcDbEntity
  8
0
100
AcDbLine
 10
1.94565
 20
0.401
 30
2.447
 11
1.88365
 21
0.401
 31
2.447
  0
LINE
  5
200BB
100
AcDbEntity
  8
0
100
AcDbLine
 10
1.61365
 20
0.401
 30
2.726
 11
1.88365
 21
0.401
 31
2.726
  0
LINE
  5
200BC
100
AcDbEntity
  8
0
100
AcDbLine
 10
1.61365
 20
0.401
 30
2.998
 11
1.88365
 21
0.401
 31
2.998
  0
LINE
  5
200BD
100
AcDbEntity
  8
0
100
AcDbLine
 10
1.61365
 20
0.401
 30
2.998
 11
1.61365
 21
0.401
 31
2.726
  0
LINE
  5
200BE
100
AcDbEntity
  8
0
100
AcDbLine
 10
1.88365
 20
0.401
 30
2.998
 11
1.88365
 21
0.401
 31
2.726
  0
LINE
  5
200BF
100
AcDbEntity
  8
0
100
AcDbLine
 10
1.55165
 20
0.401
 30
3.059
 11
1.94565
 21
0.401
 31
3.059
210
0.0
220
-1.0
230
0.0
  0
POLYLINE
  5
200C0
100
AcDbEntity
  8
0
100
AcDbPolygonMesh
 66
     1
 10
0.0
 20
0.0
 30
0.0
 70
    16
 71
     6
 72
     3
  0
VERTEX
  5
200C1
100
AcDbEntity
  8
0
100
AcDbVertex
100
AcDbPolygonMeshVertex
 10
2.066
 20
0.515
 30
3.059
 70
    64
  0
VERTEX
  5
200C2
100
AcDbEntity
  8
0
100
AcDbVertex
100
AcDbPolygonMeshVertex
 10
2.066
 20
0.515
 30
1.641
 70
    64
  0
VERTEX
  5
200C3
100
AcDbEntity
  8
0
100
AcDbVertex
100
AcDbPolygonMeshVertex
 10
2.066
 20
0.515
 30
1.641
 70
    64
  0
VERTEX
  5
200C4
100
AcDbEntity
  8
0
100
AcDbVertex
100
AcDbPolygonMeshVertex
 10
2.12
 20
0.515
 30
3.059
 70
    64
  0
VERTEX
  5
200C5
100
AcDbEntity
  8
0
100
AcDbVertex
100
AcDbPolygonMeshVertex
 10
2.12
 20
0.515
 30
1.641
 70
    64
  0
VERTEX
  5
200C6
100
AcDbEntity
  8
0
100
AcDbVertex
100
AcDbPolygonMeshVertex
 10
2.12
 20
0.515
 30
1.641
 70
    64
  0
VERTEX
  5
200C7
100
AcDbEntity
  8
0
100
AcDbVertex
100
AcDbPolygonMeshVertex
 10
2.12
 20
0.401
 30
3.059
 70
    64
  0
VERTEX
  5
200C8
100
AcDbEntity
  8
0
100
AcDbVertex
100
AcDbPolygonMeshVertex
 10
2.12
 20
0.401
 30
1.641
 70
    64
  0
VERTEX
  5
200C9
100
AcDbEntity
  8
0
100
AcDbVertex
100
AcDbPolygonMeshVertex
 10
2.12
 20
0.515
 30
1.641
 70
    64
  0
VERTEX
  5
200CA
100
AcDbEntity
  8
0
100
AcDbVertex
100
AcDbPolygonMeshVertex
 10
2.066
 20
0.401
 30
3.059
 70
    64
  0
VERTEX
  5
200CB
100
AcDbEntity
  8
0
100
AcDbVertex
100
AcDbPolygonMeshVertex
 10
2.066
 20
0.401
 30
1.641
 70
    64
  0
VERTEX
  5
200CC
100
AcDbEntity
  8
0
100
AcDbVertex
100
AcDbPolygonMeshVertex
 10
2.066
 20
0.515
 30
1.641
 70
    64
  0
VERTEX
  5
200CD
100
AcDbEntity
  8
0
100
AcDbVertex
100
AcDbPolygonMeshVertex
 10
2.066
 20
0.401
 30
3.059
 70
    64
  0
VERTEX
  5
200CE
100
AcDbEntity
  8
0
100
AcDbVertex
100
AcDbPolygonMeshVertex
 10
2.066
 20
0.401
 30
3.059
 70
    64
  0
VERTEX
  5
200CF
100
AcDbEntity
  8
0
100
AcDbVertex
100
AcDbPolygonMeshVertex
 10
2.066
 20
0.515
 30
3.059
 70
    64
  0
VERTEX
  5
200D0
100
AcDbEntity
  8
0
100
AcDbVertex
100
AcDbPolygonMeshVertex
 10
2.12
 20
0.401
 30
3.059
 70
    64
  0
VERTEX
  5
200D1
100
AcDbEntity
  8
0
100
AcDbVertex
100
AcDbPolygonMeshVertex
 10
2.12
 20
0.401
 30
3.059
 70
    64
  0
VERTEX
  5
200D2
100
AcDbEntity
  8
0
100
AcDbVertex
100
AcDbPolygonMeshVertex
 10
2.12
 20
0.515
 30
3.059
 70
    64
  0
SEQEND
  5
200D3
100
AcDbEntity
  8
0
  0
POLYLINE
  5
200D4
100
AcDbEntity
  8
0
100
AcDbPolygonMesh
 66
     1
 10
0.0
 20
0.0
 30
0.0
 70
    16
 71
     6
 72
     3
  0
VERTEX
  5
200D5
100
AcDbEntity
  8
0
100
AcDbVertex
100
AcDbPolygonMeshVertex
 10
0.0
 20
0.515
 30
3.059
 70
    64
  0
VERTEX
  5
200D6
100
AcDbEntity
  8
0
100
AcDbVertex
100
AcDbPolygonMeshVertex
 10
0.0
 20
0.515
 30
1.641
 70
    64
  0
VERTEX
  5
200D7
100
AcDbEntity
  8
0
100
AcDbVertex
100
AcDbPolygonMeshVertex
 10
0.0
 20
0.515
 30
1.641
 70
    64
  0
VERTEX
  5
200D8
100
AcDbEntity
  8
0
100
AcDbVertex
100
AcDbPolygonMeshVertex
 10
0.054
 20
0.515
 30
3.059
 70
    64
  0
VERTEX
  5
200D9
100
AcDbEntity
  8
0
100
AcDbVertex
100
AcDbPolygonMeshVertex
 10
0.054
 20
0.515
 30
1.641
 70
    64
  0
VERTEX
  5
200DA
100
AcDbEntity
  8
0
100
AcDbVertex
100
AcDbPolygonMeshVertex
 10
0.054
 20
0.515
 30
1.641
 70
    64
  0
VERTEX
  5
200DB
100
AcDbEntity
  8
0
100
AcDbVertex
100
AcDbPolygonMeshVertex
 10
0.054
 20
0.401
 30
3.059
 70
    64
  0
VERTEX
  5
200DC
100
AcDbEntity
  8
0
100
AcDbVertex
100
AcDbPolygonMeshVertex
 10
0.054
 20
0.401
 30
1.641
 70
    64
  0
VERTEX
  5
200DD
100
AcDbEntity
  8
0
100
AcDbVertex
100
AcDbPolygonMeshVertex
 10
0.054
 20
0.515
 30
1.641
 70
    64
  0
VERTEX
  5
200DE
100
AcDbEntity
  8
0
100
AcDbVertex
100
AcDbPolygonMeshVertex
 10
0.0
 20
0.401
 30
3.059
 70
    64
  0
VERTEX
  5
200DF
100
AcDbEntity
  8
0
100
AcDbVertex
100
AcDbPolygonMeshVertex
 10
0.0
 20
0.401
 30
1.641
 70
    64
  0
VERTEX
  5
200E0
100
AcDbEntity
  8
0
100
AcDbVertex
100
AcDbPolygonMeshVertex
 10
0.0
 20
0.515
 30
1.641
 70
    64
  0
VERTEX
  5
200E1
100
AcDbEntity
  8
0
100
AcDbVertex
100
AcDbPolygonMeshVertex
 10
0.0
 20
0.401
 30
3.059
 70
    64
  0
VERTEX
  5
200E2
100
AcDbEntity
  8
0
100
AcDbVertex
100
AcDbPolygonMeshVertex
 10
0.0
 20
0.401
 30
3.059
 70
    64
  0
VERTEX
  5
200E3
100
AcDbEntity
  8
0
100
AcDbVertex
100
AcDbPolygonMeshVertex
 10
0.0
 20
0.515
 30
3.059
 70
    64
  0
VERTEX
  5
200E4
100
AcDbEntity
  8
0
100
AcDbVertex
100
AcDbPolygonMeshVertex
 10
0.054
 20
0.401
 30
3.059
 70
    64
  0
VERTEX
  5
200E5
100
AcDbEntity
  8
0
100
AcDbVertex
100
AcDbPolygonMeshVertex
 10
0.054
 20
0.401
 30
3.059
 70
    64
  0
VERTEX
  5
200E6
100
AcDbEntity
  8
0
100
AcDbVertex
100
AcDbPolygonMeshVertex
 10
0.054
 20
0.515
 30
3.059
 70
    64
  0
SEQEND
  5
200E7
100
AcDbEntity
  8
0
  0
LINE
  5
200E8
100
AcDbEntity
  8
0
100
AcDbLine
 10
1.55165
 20
-2.089
 30
3.059
 11
1.94565
 21
-2.089
 31
3.059
210
0.0
220
1.0
230
0.0
  0
LINE
  5
200E9
100
AcDbEntity
  8
0
100
AcDbLine
 10
1.55165
 20
-2.089
 30
2.447
 11
1.61365
 21
-2.089
 31
2.447
  0
LINE
  5
200EA
100
AcDbEntity
  8
0
100
AcDbLine
 10
1.55165
 20
-2.089
 30
2.3875
 11
1.55165
 21
-2.089
 31
3.059
  0
LINE
  5
200EB
100
AcDbEntity
  8
0
100
AcDbLine
 10
1.25705
 20
-2.089
 30
2.368461
 11
1.25705
 21
-2.089
 31
3.059
  0
LINE
  5
200EC
100
AcDbEntity
  8
0
100
AcDbLine
 10
0.86305
 20
-2.089
 30
2.3875
 11
0.86305
 21
-2.089
 31
3.059
  0
LINE
  5
200ED
100
AcDbEntity
  8
0
100
AcDbLine
 10
0.17435
 20
-2.089
 30
2.3875
 11
0.17435
 21
-2.089
 31
3.059
  0
LINE
  5
200EE
100
AcDbEntity
  8
0
100
AcDbLine
 10
0.56835
 20
-2.089
 30
2.368461
 11
0.56835
 21
-2.089
 31
3.059
  0
POLYLINE
  5
200EF
100
AcDbEntity
  8
0
100
AcDbPolygonMesh
 66
     1
 10
0.0
 20
0.0
 30
0.0
 70
    16
 71
     6
 72
     3
  0
VERTEX
  5
200F0
100
AcDbEntity
  8
0
100
AcDbVertex
100
AcDbPolygonMeshVertex
 10
1.4313
 20
-2.203
 30
3.059
 70
    64
  0
VERTEX
  5
200F1
100
AcDbEntity
  8
0
100
AcDbVertex
100
AcDbPolygonMeshVertex
 10
1.4313
 20
-2.203
 30
2.447
 70
    64
  0
VERTEX
  5
200F2
100
AcDbEntity
  8
0
100
AcDbVertex
100
AcDbPolygonMeshVertex
 10
1.4313
 20
-2.203
 30
2.447
 70
    64
  0
VERTEX
  5
200F3
100
AcDbEntity
  8
0
100
AcDbVertex
100
AcDbPolygonMeshVertex
 10
1.3773
 20
-2.203
 30
3.059
 70
    64
  0
VERTEX
  5
200F4
100
AcDbEntity
  8
0
100
AcDbVertex
100
AcDbPolygonMeshVertex
 10
1.3773
 20
-2.203
 30
2.447
 70
    64
  0
VERTEX
  5
200F5
100
AcDbEntity
  8
0
100
AcDbVertex
100
AcDbPolygonMeshVertex
 10
1.3773
 20
-2.203
 30
2.447
 70
    64
  0
VERTEX
  5
200F6
100
AcDbEntity
  8
0
100
AcDbVertex
100
AcDbPolygonMeshVertex
 10
1.3773
 20
-2.089
 30
3.059
 70
    64
  0
VERTEX
  5
200F7
100
AcDbEntity
  8
0
100
AcDbVertex
100
AcDbPolygonMeshVertex
 10
1.3773
 20
-2.089
 30
2.447
 70
    64
  0
VERTEX
  5
200F8
100
AcDbEntity
  8
0
100
AcDbVertex
100
AcDbPolygonMeshVertex
 10
1.3773
 20
-2.203
 30
2.447
 70
    64
  0
VERTEX
  5
200F9
100
AcDbEntity
  8
0
100
AcDbVertex
100
AcDbPolygonMeshVertex
 10
1.4313
 20
-2.089
 30
3.059
 70
    64
  0
VERTEX
  5
200FA
100
AcDbEntity
  8
0
100
AcDbVertex
100
AcDbPolygonMeshVertex
 10
1.4313
 20
-2.089
 30
2.447
 70
    64
  0
VERTEX
  5
200FB
100
AcDbEntity
  8
0
100
AcDbVertex
100
AcDbPolygonMeshVertex
 10
1.4313
 20
-2.203
 30
2.447
 70
    64
  0
VERTEX
  5
200FC
100
AcDbEntity
  8
0
100
AcDbVertex
100
AcDbPolygonMeshVertex
 10
1.4313
 20
-2.089
 30
3.059
 70
    64
  0
VERTEX
  5
200FD
100
AcDbEntity
  8
0
100
AcDbVertex
100
AcDbPolygonMeshVertex
 10
1.4313
 20
-2.089
 30
3.059
 70
    64
  0
VERTEX
  5
200FE
100
AcDbEntity
  8
0
100
AcDbVertex
100
AcDbPolygonMeshVertex
 10
1.4313
 20
-2.203
 30
3.059
 70
    64
  0
VERTEX
  5
200FF
100
AcDbEntity
  8
0
100
AcDbVertex
100
AcDbPolygonMeshVertex
 10
1.3773
 20
-2.089
 30
3.059
 70
    64
  0
VERTEX
  5
20100
100
AcDbEntity
  8
0
100
AcDbVertex
100
AcDbPolygonMeshVertex
 10
1.3773
 20
-2.089
 30
3.059
 70
    64
  0
VERTEX
  5
20101
100
AcDbEntity
  8
0
100
AcDbVertex
100
AcDbPolygonMeshVertex
 10
1.3773
 20
-2.203
 30
3.059
 70
    64
  0
SEQEND
  5
20102
100
AcDbEntity
  8
0
  0
POLYLINE
  5
20103
100
AcDbEntity
  8
0
100
AcDbPolygonMesh
 66
     1
 10
0.0
 20
0.0
 30
0.0
 70
    16
 71
     6
 72
     3
  0
VERTEX
  5
20104
100
AcDbEntity
  8
0
100
AcDbVertex
100
AcDbPolygonMeshVertex
 10
0.6887
 20
-2.203
 30
3.059
 70
    64
  0
VERTEX
  5
20105
100
AcDbEntity
  8
0
100
AcDbVertex
100
AcDbPolygonMeshVertex
 10
0.6887
 20
-2.203
 30
2.447
 70
    64
  0
VERTEX
  5
20106
100
AcDbEntity
  8
0
100
AcDbVertex
100
AcDbPolygonMeshVertex
 10
0.6887
 20
-2.203
 30
2.447
 70
    64
  0
VERTEX
  5
20107
100
AcDbEntity
  8
0
100
AcDbVertex
100
AcDbPolygonMeshVertex
 10
0.7427
 20
-2.203
 30
3.059
 70
    64
  0
VERTEX
  5
20108
100
AcDbEntity
  8
0
100
AcDbVertex
100
AcDbPolygonMeshVertex
 10
0.7427
 20
-2.203
 30
2.447
 70
    64
  0
VERTEX
  5
20109
100
AcDbEntity
  8
0
100
AcDbVertex
100
AcDbPolygonMeshVertex
 10
0.7427
 20
-2.203
 30
2.447
 70
    64
  0
VERTEX
  5
2010A
100
AcDbEntity
  8
0
100
AcDbVertex
100
AcDbPolygonMeshVertex
 10
0.7427
 20
-2.089
 30
3.059
 70
    64
  0
VERTEX
  5
2010B
100
AcDbEntity
  8
0
100
AcDbVertex
100
AcDbPolygonMeshVertex
 10
0.7427
 20
-2.089
 30
2.447
 70
    64
  0
VERTEX
  5
2010C
100
AcDbEntity
  8
0
100
AcDbVertex
100
AcDbPolygonMeshVertex
 10
0.7427
 20
-2.203
 30
2.447
 70
    64
  0
VERTEX
  5
2010D
100
AcDbEntity
  8
0
100
AcDbVertex
100
AcDbPolygonMeshVertex
 10
0.6887
 20
-2.089
 30
3.059
 70
    64
  0
VERTEX
  5
2010E
100
AcDbEntity
  8
0
100
AcDbVertex
100
AcDbPolygonMeshVertex
 10
0.6887
 20
-2.089
 30
2.447
 70
    64
  0
VERTEX
  5
2010F
100
AcDbEntity
  8
0
100
AcDbVertex
100
AcDbPolygonMeshVertex
 10
0.6887
 20
-2.203
 30
2.447
 70
    64
  0
VERTEX
  5
20110
100
AcDbEntity
  8
0
100
AcDbVertex
100
AcDbPolygonMeshVertex
 10
0.6887
 20
-2.089
 30
3.059
 70
    64
  0
VERTEX
  5
20111
100
AcDbEntity
  8
0
100
AcDbVertex
100
AcDbPolygonMeshVertex
 10
0.6887
 20
-2.089
 30
3.059
 70
    64
  0
VERTEX
  5
20112
100
AcDbEntity
  8
0
100
AcDbVertex
100
AcDbPolygonMeshVertex
 10
0.6887
 20
-2.203
 30
3.059
 70
    64
  0
VERTEX
  5
20113
100
AcDbEntity
  8
0
100
AcDbVertex
100
AcDbPolygonMeshVertex
 10
0.7427
 20
-2.089
 30
3.059
 70
    64
  0
VERTEX
  5
20114
100
AcDbEntity
  8
0
100
AcDbVertex
100
AcDbPolygonMeshVertex
 10
0.7427
 20
-2.089
 30
3.059
 70
    64
  0
VERTEX
  5
20115
100
AcDbEntity
  8
0
100
AcDbVertex
100
AcDbPolygonMeshVertex
 10
0.7427
 20
-2.203
 30
3.059
 70
    64
  0
SEQEND
  5
20116
100
AcDbEntity
  8
0
  0
LINE
  5
20117
100
AcDbEntity
  8
0
100
AcDbLine
 10
0.23635
 20
-2.089
 30
2.328
 11
0.50635
 21
-2.089
 31
2.328
  0
LINE
  5
20118
100
AcDbEntity
  8
0
100
AcDbLine
 10
0.23635
 20
-2.089
 30
2.622
 11
0.50635
 21
-2.089
 31
2.622
  0
LINE
  5
20119
100
AcDbEntity
  8
0
100
AcDbLine
 10
0.23635
 20
-2.089
 30
2.328
 11
0.17435
 21
-2.089
 31
2.3875
  0
LINE
  5
2011A
100
AcDbEntity
  8
0
100
AcDbLine
 10
0.23635
 20
-2.089
 30
2.622
 11
0.23635
 21
-2.089
 31
2.447
  0
LINE
  5
2011B
100
AcDbEntity
  8
0
100
AcDbLine
 10
0.17435
 20
-2.089
 30
2.447
 11
0.23635
 21
-2.089
 31
2.447
  0
LINE
  5
2011C
100
AcDbEntity
  8
0
100
AcDbLine
 10
0.92505
 20
-2.089
 30
2.622
 11
1.19505
 21
-2.089
 31
2.622
  0
LINE
  5
2011D
100
AcDbEntity
  8
0
100
AcDbLine
 10
0.92505
 20
-2.089
 30
2.328
 11
1.19505
 21
-2.089
 31
2.328
  0
LINE
  5
2011E
100
AcDbEntity
  8
0
100
AcDbLine
 10
0.50635
 20
-2.089
 30
2.328
 11
0.56835
 21
-2.089
 31
2.368461
  0
LINE
  5
2011F
100
AcDbEntity
  8
0
100
AcDbLine
 10
0.92505
 20
-2.089
 30
2.328
 11
0.86305
 21
-2.089
 31
2.3875
  0
LINE
  5
20120
100
AcDbEntity
  8
0
100
AcDbLine
 10
0.50635
 20
-2.089
 30
2.622
 11
0.50635
 21
-2.089
 31
2.447
  0
LINE
  5
20121
100
AcDbEntity
  8
0
100
AcDbLine
 10
0.56835
 20
-2.089
 30
2.447
 11
0.50635
 21
-2.089
 31
2.447
  0
LINE
  5
20122
100
AcDbEntity
  8
0
100
AcDbLine
 10
0.92505
 20
-2.089
 30
2.622
 11
0.92505
 21
-2.089
 31
2.447
  0
LINE
  5
20123
100
AcDbEntity
  8
0
100
AcDbLine
 10
0.86305
 20
-2.089
 30
2.447
 11
0.92505
 21
-2.089
 31
2.447
  0
LINE
  5
20124
100
AcDbEntity
  8
0
100
AcDbLine
 10
1.19505
 20
-2.089
 30
2.328
 11
1.25705
 21
-2.089
 31
2.368461
  0
LINE
  5
20125
100
AcDbEntity
  8
0
100
AcDbLine
 10
1.19505
 20
-2.089
 30
2.622
 11
1.19505
 21
-2.089
 31
2.447
  0
LINE
  5
20126
100
AcDbEntity
  8
0
100
AcDbLine
 10
1.25705
 20
-2.089
 30
2.447
 11
1.19505
 21
-2.089
 31
2.447
  0
LINE
  5
20127
100
AcDbEntity
  8
0
100
AcDbLine
 10
0.17435
 20
-2.089
 30
3.059
 11
0.56835
 21
-2.089
 31
3.059
210
0.0
220
1.0
230
0.0
  0
LINE
  5
20128
100
AcDbEntity
  8
0
100
AcDbLine
 10
0.23635
 20
-2.089
 30
2.998
 11
0.50635
 21
-2.089
 31
2.998
  0
LINE
  5
20129
100
AcDbEntity
  8
0
100
AcDbLine
 10
0.23635
 20
-2.089
 30
2.726
 11
0.50635
 21
-2.089
 31
2.726
  0
LINE
  5
2012A
100
AcDbEntity
  8
0
100
AcDbLine
 10
0.23635
 20
-2.089
 30
2.998
 11
0.23635
 21
-2.089
 31
2.726
  0
LINE
  5
2012B
100
AcDbEntity
  8
0
100
AcDbLine
 10
0.92505
 20
-2.089
 30
2.726
 11
1.19505
 21
-2.089
 31
2.726
  0
LINE
  5
2012C
100
AcDbEntity
  8
0
100
AcDbLine
 10
0.92505
 20
-2.089
 30
2.998
 11
1.19505
 21
-2.089
 31
2.998
  0
LINE
  5
2012D
100
AcDbEntity
  8
0
100
AcDbLine
 10
0.92505
 20
-2.089
 30
2.998
 11
0.92505
 21
-2.089
 31
2.726
  0
LINE
  5
2012E
100
AcDbEntity
  8
0
100
AcDbLine
 10
0.50635
 20
-2.089
 30
2.998
 11
0.50635
 21
-2.089
 31
2.726
  0
LINE
  5
2012F
100
AcDbEntity
  8
0
100
AcDbLine
 10
1.19505
 20
-2.089
 30
2.998
 11
1.19505
 21
-2.089
 31
2.726
  0
LINE
  5
20130
100
AcDbEntity
  8
0
100
AcDbLine
 10
0.86305
 20
-2.089
 30
3.059
 11
1.25705
 21
-2.089
 31
3.059
210
0.0
220
1.0
230
0.0
  0
LINE
  5
20131
100
AcDbEntity
  8
0
100
AcDbLine
 10
1.61365
 20
-2.089
 30
2.622
 11
1.88365
 21
-2.089
 31
2.622
  0
LINE
  5
20132
100
AcDbEntity
  8
0
100
AcDbLine
 10
1.61365
 20
-2.089
 30
2.622
 11
1.61365
 21
-2.089
 31
2.447
  0
LINE
  5
20133
100
AcDbEntity
  8
0
100
AcDbLine
 10
1.88365
 20
-2.089
 30
2.998
 11
1.88365
 21
-2.089
 31
2.726
  0
LINE
  5
20134
100
AcDbEntity
  8
0
100
AcDbLine
 10
1.61365
 20
-2.089
 30
2.998
 11
1.61365
 21
-2.089
 31
2.726
  0
LINE
  5
20135
100
AcDbEntity
  8
0
100
AcDbLine
 10
1.61365
 20
-2.089
 30
2.726
 11
1.88365
 21
-2.089
 31
2.726
  0
LINE
  5
20136
100
AcDbEntity
  8
0
100
AcDbLine
 10
1.61365
 20
-2.089
 30
2.998
 11
1.88365
 21
-2.089
 31
2.998
  0
POLYLINE
  5
20137
100
AcDbEntity
  8
0
100
AcDbPolygonMesh
 66
     1
 10
0.0
 20
0.0
 30
0.0
 70
    16
 71
     6
 72
     3
  0
VERTEX
  5
20138
100
AcDbEntity
  8
0
100
AcDbVertex
100
AcDbPolygonMeshVertex
 10
0.0
 20
-2.203
 30
3.059
 70
    64
  0
VERTEX
  5
20139
100
AcDbEntity
  8
0
100
AcDbVertex
100
AcDbPolygonMeshVertex
 10
0.0
 20
-2.203
 30
1.641
 70
    64
  0
VERTEX
  5
2013A
100
AcDbEntity
  8
0
100
AcDbVertex
100
AcDbPolygonMeshVertex
 10
0.0
 20
-2.203
 30
1.641
 70
    64
  0
VERTEX
  5
2013B
100
AcDbEntity
  8
0
100
AcDbVertex
100
AcDbPolygonMeshVertex
 10
0.054
 20
-2.203
 30
3.059
 70
    64
  0
VERTEX
  5
2013C
100
AcDbEntity
  8
0
100
AcDbVertex
100
AcDbPolygonMeshVertex
 10
0.054
 20
-2.203
 30
1.641
 70
    64
  0
VERTEX
  5
2013D
100
AcDbEntity
  8
0
100
AcDbVertex
100
AcDbPolygonMeshVertex
 10
0.054
 20
-2.203
 30
1.641
 70
    64
  0
VERTEX
  5
2013E
100
AcDbEntity
  8
0
100
AcDbVertex
100
AcDbPolygonMeshVertex
 10
0.054
 20
-2.089
 30
3.059
 70
    64
  0
VERTEX
  5
2013F
100
AcDbEntity
  8
0
100
AcDbVertex
100
AcDbPolygonMeshVertex
 10
0.054
 20
-2.089
 30
1.641
 70
    64
  0
VERTEX
  5
20140
100
AcDbEntity
  8
0
100
AcDbVertex
100
AcDbPolygonMeshVertex
 10
0.054
 20
-2.203
 30
1.641
 70
    64
  0
VERTEX
  5
20141
100
AcDbEntity
  8
0
100
AcDbVertex
100
AcDbPolygonMeshVertex
 10
0.0
 20
-2.089
 30
3.059
 70
    64
  0
VERTEX
  5
20142
100
AcDbEntity
  8
0
100
AcDbVertex
100
AcDbPolygonMeshVertex
 10
0.0
 20
-2.089
 30
1.641
 70
    64
  0
VERTEX
  5
20143
100
AcDbEntity
  8
0
100
AcDbVertex
100
AcDbPolygonMeshVertex
 10
0.0
 20
-2.203
 30
1.641
 70
    64
  0
VERTEX
  5
20144
100
AcDbEntity
  8
0
100
AcDbVertex
100
AcDbPolygonMeshVertex
 10
0.0
 20
-2.089
 30
3.059
 70
    64
  0
VERTEX
  5
20145
100
AcDbEntity
  8
0
100
AcDbVertex
100
AcDbPolygonMeshVertex
 10
0.0
 20
-2.089
 30
3.059
 70
    64
  0
VERTEX
  5
20146
100
AcDbEntity
  8
0
100
AcDbVertex
100
AcDbPolygonMeshVertex
 10
0.0
 20
-2.203
 30
3.059
 70
    64
  0
VERTEX
  5
20147
100
AcDbEntity
  8
0
100
AcDbVertex
100
AcDbPolygonMeshVertex
 10
0.054
 20
-2.089
 30
3.059
 70
    64
  0
VERTEX
  5
20148
100
AcDbEntity
  8
0
100
AcDbVertex
100
AcDbPolygonMeshVertex
 10
0.054
 20
-2.089
 30
3.059
 70
    64
  0
VERTEX
  5
20149
100
AcDbEntity
  8
0
100
AcDbVertex
100
AcDbPolygonMeshVertex
 10
0.054
 20
-2.203
 30
3.059
 70
    64
  0
SEQEND
  5
2014A
100
AcDbEntity
  8
0
  0
LINE
  5
2014B
100
AcDbEntity
  8
0
100
AcDbLine
 10
1.61365
 20
-2.089
 30
2.328
 11
1.55165
 21
-2.089
 31
2.3875
  0
POLYLINE
  5
2014C
100
AcDbEntity
  8
0
100
AcDbPolygonMesh
 66
     1
 10
0.0
 20
0.0
 30
0.0
 70
    16
 71
     6
 72
     3
  0
VERTEX
  5
2014D
100
AcDbEntity
  8
0
100
AcDbVertex
100
AcDbPolygonMeshVertex
 10
2.066
 20
-2.203
 30
3.059
 70
    64
  0
VERTEX
  5
2014E
100
AcDbEntity
  8
0
100
AcDbVertex
100
AcDbPolygonMeshVertex
 10
2.066
 20
-2.203
 30
1.641
 70
    64
  0
VERTEX
  5
2014F
100
AcDbEntity
  8
0
100
AcDbVertex
100
AcDbPolygonMeshVertex
 10
2.066
 20
-2.203
 30
1.641
 70
    64
  0
VERTEX
  5
20150
100
AcDbEntity
  8
0
100
AcDbVertex
100
AcDbPolygonMeshVertex
 10
2.12
 20
-2.203
 30
3.059
 70
    64
  0
VERTEX
  5
20151
100
AcDbEntity
  8
0
100
AcDbVertex
100
AcDbPolygonMeshVertex
 10
2.12
 20
-2.203
 30
1.641
 70
    64
  0
VERTEX
  5
20152
100
AcDbEntity
  8
0
100
AcDbVertex
100
AcDbPolygonMeshVertex
 10
2.12
 20
-2.203
 30
1.641
 70
    64
  0
VERTEX
  5
20153
100
AcDbEntity
  8
0
100
AcDbVertex
100
AcDbPolygonMeshVertex
 10
2.12
 20
-2.089
 30
3.059
 70
    64
  0
VERTEX
  5
20154
100
AcDbEntity
  8
0
100
AcDbVertex
100
AcDbPolygonMeshVertex
 10
2.12
 20
-2.089
 30
1.641
 70
    64
  0
VERTEX
  5
20155
100
AcDbEntity
  8
0
100
AcDbVertex
100
AcDbPolygonMeshVertex
 10
2.12
 20
-2.203
 30
1.641
 70
    64
  0
VERTEX
  5
20156
100
AcDbEntity
  8
0
100
AcDbVertex
100
AcDbPolygonMeshVertex
 10
2.066
 20
-2.089
 30
3.059
 70
    64
  0
VERTEX
  5
20157
100
AcDbEntity
  8
0
100
AcDbVertex
100
AcDbPolygonMeshVertex
 10
2.066
 20
-2.089
 30
1.641
 70
    64
  0
VERTEX
  5
20158
100
AcDbEntity
  8
0
100
AcDbVertex
100
AcDbPolygonMeshVertex
 10
2.066
 20
-2.203
 30
1.641
 70
    64
  0
VERTEX
  5
20159
100
AcDbEntity
  8
0
100
AcDbVertex
100
AcDbPolygonMeshVertex
 10
2.066
 20
-2.089
 30
3.059
 70
    64
  0
VERTEX
  5
2015A
100
AcDbEntity
  8
0
100
AcDbVertex
100
AcDbPolygonMeshVertex
 10
2.066
 20
-2.089
 30
3.059
 70
    64
  0
VERTEX
  5
2015B
100
AcDbEntity
  8
0
100
AcDbVertex
100
AcDbPolygonMeshVertex
 10
2.066
 20
-2.203
 30
3.059
 70
    64
  0
VERTEX
  5
2015C
100
AcDbEntity
  8
0
100
AcDbVertex
100
AcDbPolygonMeshVertex
 10
2.12
 20
-2.089
 30
3.059
 70
    64
  0
VERTEX
  5
2015D
100
AcDbEntity
  8
0
100
AcDbVertex
100
AcDbPolygonMeshVertex
 10
2.12
 20
-2.089
 30
3.059
 70
    64
  0
VERTEX
  5
2015E
100
AcDbEntity
  8
0
100
AcDbVertex
100
AcDbPolygonMeshVertex
 10
2.12
 20
-2.203
 30
3.059
 70
    64
  0
SEQEND
  5
2015F
100
AcDbEntity
  8
0
  0
LINE
  5
20160
100
AcDbEntity
  8
0
100
AcDbLine
 10
1.94565
 20
-2.089
 30
2.368461
 11
1.94565
 21
-2.089
 31
3.059
  0
LINE
  5
20161
100
AcDbEntity
  8
0
100
AcDbLine
 10
1.61365
 20
-2.089
 30
2.328
 11
1.88365
 21
-2.089
 31
2.328
  0
LINE
  5
20162
100
AcDbEntity
  8
0
100
AcDbLine
 10
1.88365
 20
-2.089
 30
2.328
 11
1.94565
 21
-2.089
 31
2.368461
  0
LINE
  5
20163
100
AcDbEntity
  8
0
100
AcDbLine
 10
1.88365
 20
-2.089
 30
2.622
 11
1.88365
 21
-2.089
 31
2.447
  0
LINE
  5
20164
100
AcDbEntity
  8
0
100
AcDbLine
 10
1.94565
 20
-2.089
 30
2.447
 11
1.88365
 21
-2.089
 31
2.447
  0
LINE
  5
20165
100
AcDbEntity
  8
0
100
AcDbLine
 10
0.647723
 20
-2.089
 30
0.0
 11
0.85839
 21
-2.089
 31
0.0
  0
POLYLINE
  5
20166
100
AcDbEntity
  8
0
100
AcDb3dPolyline
 66
     1
 10
0.0
 20
0.0
 30
0.0
 70
     8
  0
VERTEX
  5
20167
100
AcDbEntity
  8
0
100
AcDbVertex
100
AcDb3dPolylineVertex
 10
0.647723
 20
-2.089
 30
0.0
 70
    32
  0
VERTEX
  5
20168
100
AcDbEntity
  8
0
100
AcDbVertex
100
AcDb3dPolylineVertex
 10
0.647723
 20
-2.224
 30
0.0
 70
    32
  0
VERTEX
  5
20169
100
AcDbEntity
  8
0
100
AcDbVertex
100
AcDb3dPolylineVertex
 10
0.85839
 20
-2.224
 30
0.0
 70
    32
  0
VERTEX
  5
2016A
100
AcDbEntity
  8
0
100
AcDbVertex
100
AcDb3dPolylineVertex
 10
0.85839
 20
-2.089
 30
0.0
 70
    32
  0
SEQEND
  5
2016B
100
AcDbEntity
  8
0
  0
POLYLINE
  5
2016C
100
AcDbEntity
  8
0
100
AcDb3dPolyline
 66
     1
 10
0.0
 20
0.0
 30
0.0
 70
     8
  0
VERTEX
  5
2016D
100
AcDbEntity
  8
0
100
AcDbVertex
100
AcDb3dPolylineVertex
 10
0.647723
 20
-2.089
 30
0.187
 70
    32
  0
VERTEX
  5
2016E
100
AcDbEntity
  8
0
100
AcDbVertex
100
AcDb3dPolylineVertex
 10
0.647723
 20
-2.224
 30
0.187
 70
    32
  0
VERTEX
  5
2016F
100
AcDbEntity
  8
0
100
AcDbVertex
100
AcDb3dPolylineVertex
 10
0.85839
 20
-2.224
 30
0.187
 70
    32
  0
VERTEX
  5
20170
100
AcDbEntity
  8
0
100
AcDbVertex
100
AcDb3dPolylineVertex
 10
0.85839
 20
-2.089
 30
0.187
 70
    32
  0
SEQEND
  5
20171
100
AcDbEntity
  8
0
  0
POLYLINE
  5
20172
100
AcDbEntity
  8
0
100
AcDbPolygonMesh
 66
     1
 10
0.0
 20
0.0
 30
0.0
 70
    16
 71
     6
 72
     3
  0
VERTEX
  5
20173
100
AcDbEntity
  8
0
100
AcDbVertex
100
AcDbPolygonMeshVertex
 10
0.92039
 20
-2.286
 30
0.187
 70
    64
  0
VERTEX
  5
20174
100
AcDbEntity
  8
0
100
AcDbVertex
100
AcDbPolygonMeshVertex
 10
0.92039
 20
-2.286
 30
0.0
 70
    64
  0
VERTEX
  5
20175
100
AcDbEntity
  8
0
100
AcDbVertex
100
AcDbPolygonMeshVertex
 10
0.92039
 20
-2.286
 30
0.0
 70
    64
  0
VERTEX
  5
20176
100
AcDbEntity
  8
0
100
AcDbVertex
100
AcDbPolygonMeshVertex
 10
0.313057
 20
-2.286
 30
0.187
 70
    64
  0
VERTEX
  5
20177
100
AcDbEntity
  8
0
100
AcDbVertex
100
AcDbPolygonMeshVertex
 10
0.313057
 20
-2.286
 30
0.0
 70
    64
  0
VERTEX
  5
20178
100
AcDbEntity
  8
0
100
AcDbVertex
100
AcDbPolygonMeshVertex
 10
0.313057
 20
-2.286
 30
0.0
 70
    64
  0
VERTEX
  5
20179
100
AcDbEntity
  8
0
100
AcDbVertex
100
AcDbPolygonMeshVertex
 10
0.313057
 20
-2.224
 30
0.187
 70
    64
  0
VERTEX
  5
2017A
100
AcDbEntity
  8
0
100
AcDbVertex
100
AcDbPolygonMeshVertex
 10
0.313057
 20
-2.224
 30
0.0
 70
    64
  0
VERTEX
  5
2017B
100
AcDbEntity
  8
0
100
AcDbVertex
100
AcDbPolygonMeshVertex
 10
0.313057
 20
-2.286
 30
0.0
 70
    64
  0
VERTEX
  5
2017C
100
AcDbEntity
  8
0
100
AcDbVertex
100
AcDbPolygonMeshVertex
 10
0.92039
 20
-2.224
 30
0.187
 70
    64
  0
VERTEX
  5
2017D
100
AcDbEntity
  8
0
100
AcDbVertex
100
AcDbPolygonMeshVertex
 10
0.92039
 20
-2.224
 30
0.0
 70
    64
  0
VERTEX
  5
2017E
100
AcDbEntity
  8
0
100
AcDbVertex
100
AcDbPolygonMeshVertex
 10
0.92039
 20
-2.286
 30
0.0
 70
    64
  0
VERTEX
  5
2017F
100
AcDbEntity
  8
0
100
AcDbVertex
100
AcDbPolygonMeshVertex
 10
0.92039
 20
-2.224
 30
0.187
 70
    64
  0
VERTEX
  5
20180
100
AcDbEntity
  8
0
100
AcDbVertex
100
AcDbPolygonMeshVertex
 10
0.92039
 20
-2.224
 30
0.187
 70
    64
  0
VERTEX
  5
20181
100
AcDbEntity
  8
0
100
AcDbVertex
100
AcDbPolygonMeshVertex
 10
0.92039
 20
-2.286
 30
0.187
 70
    64
  0
VERTEX
  5
20182
100
AcDbEntity
  8
0
100
AcDbVertex
100
AcDbPolygonMeshVertex
 10
0.313057
 20
-2.224
 30
0.187
 70
    64
  0
VERTEX
  5
20183
100
AcDbEntity
  8
0
100
AcDbVertex
100
AcDbPolygonMeshVertex
 10
0.313057
 20
-2.224
 30
0.187
 70
    64
  0
VERTEX
  5
20184
100
AcDbEntity
  8
0
100
AcDbVertex
100
AcDbPolygonMeshVertex
 10
0.313057
 20
-2.286
 30
0.187
 70
    64
  0
SEQEND
  5
20185
100
AcDbEntity
  8
0
  0
LINE
  5
20186
100
AcDbEntity
  8
0
100
AcDbLine
 10
0.196277
 20
-1.954
 30
0.187
 11
0.196277
 21
-1.954
 31
0.187
  0
POLYLINE
  5
20187
100
AcDbEntity
  8
0
100
AcDbPolygonMesh
 66
     1
 10
0.0
 20
0.0
 30
0.0
 70
    16
 71
     6
 72
     3
  0
VERTEX
  5
20188
100
AcDbEntity
  8
0
100
AcDbVertex
100
AcDbPolygonMeshVertex
 10
0.92039
 20
-2.224
 30
0.187
 70
    64
  0
VERTEX
  5
20189
100
AcDbEntity
  8
0
100
AcDbVertex
100
AcDbPolygonMeshVertex
 10
0.92039
 20
-2.224
 30
0.0
 70
    64
  0
VERTEX
  5
2018A
100
AcDbEntity
  8
0
100
AcDbVertex
100
AcDbPolygonMeshVertex
 10
0.92039
 20
-2.224
 30
0.0
 70
    64
  0
VERTEX
  5
2018B
100
AcDbEntity
  8
0
100
AcDbVertex
100
AcDbPolygonMeshVertex
 10
0.585723
 20
-2.224
 30
0.187
 70
    64
  0
VERTEX
  5
2018C
100
AcDbEntity
  8
0
100
AcDbVertex
100
AcDbPolygonMeshVertex
 10
0.585723
 20
-2.224
 30
0.0
 70
    64
  0
VERTEX
  5
2018D
100
AcDbEntity
  8
0
100
AcDbVertex
100
AcDbPolygonMeshVertex
 10
0.585723
 20
-2.224
 30
0.0
 70
    64
  0
VERTEX
  5
2018E
100
AcDbEntity
  8
0
100
AcDbVertex
100
AcDbPolygonMeshVertex
 10
0.585723
 20
-2.027
 30
0.187
 70
    64
  0
VERTEX
  5
2018F
100
AcDbEntity
  8
0
100
AcDbVertex
100
AcDbPolygonMeshVertex
 10
0.585723
 20
-2.027
 30
0.0
 70
    64
  0
VERTEX
  5
20190
100
AcDbEntity
  8
0
100
AcDbVertex
100
AcDbPolygonMeshVertex
 10
0.585723
 20
-2.224
 30
0.0
 70
    64
  0
VERTEX
  5
20191
100
AcDbEntity
  8
0
100
AcDbVertex
100
AcDbPolygonMeshVertex
 10
0.92039
 20
-2.027
 30
0.187
 70
    64
  0
VERTEX
  5
20192
100
AcDbEntity
  8
0
100
AcDbVertex
100
AcDbPolygonMeshVertex
 10
0.92039
 20
-2.027
 30
0.0
 70
    64
  0
VERTEX
  5
20193
100
AcDbEntity
  8
0
100
AcDbVertex
100
AcDbPolygonMeshVertex
 10
0.92039
 20
-2.224
 30
0.0
 70
    64
  0
VERTEX
  5
20194
100
AcDbEntity
  8
0
100
AcDbVertex
100
AcDbPolygonMeshVertex
 10
0.92039
 20
-2.027
 30
0.187
 70
    64
  0
VERTEX
  5
20195
100
AcDbEntity
  8
0
100
AcDbVertex
100
AcDbPolygonMeshVertex
 10
0.92039
 20
-2.027
 30
0.187
 70
    64
  0
VERTEX
  5
20196
100
AcDbEntity
  8
0
100
AcDbVertex
100
AcDbPolygonMeshVertex
 10
0.92039
 20
-2.224
 30
0.187
 70
    64
  0
VERTEX
  5
20197
100
AcDbEntity
  8
0
100
AcDbVertex
100
AcDbPolygonMeshVertex
 10
0.585723
 20
-2.027
 30
0.187
 70
    64
  0
VERTEX
  5
20198
100
AcDbEntity
  8
0
100
AcDbVertex
100
AcDbPolygonMeshVertex
 10
0.585723
 20
-2.027
 30
0.187
 70
    64
  0
VERTEX
  5
20199
100
AcDbEntity
  8
0
100
AcDbVertex
100
AcDbPolygonMeshVertex
 10
0.585723
 20
-2.224
 30
0.187
 70
    64
  0
SEQEND
  5
2019A
100
AcDbEntity
  8
0
  0
LINE
  5
2019B
100
AcDbEntity
  8
0
100
AcDbLine
 10
0.647723
 20
-2.089
 30
0.187
 11
0.85839
 21
-2.089
 31
0.187
  0
CIRCLE
  5
2019C
100
AcDbEntity
  8
0
100
AcDbCircle
 10
1.06005
 20
0.180798
 30
3.86
 40
0.138
  0
CIRCLE
  5
2019D
100
AcDbEntity
  8
0
100
AcDbCircle
 10
1.74865
 20
0.180798
 30
3.86
 40
0.138
  0
CIRCLE
  5
2019E
100
AcDbEntity
  8
0
100
AcDbCircle
 10
0.37135
 20
-1.868798
 30
3.86
 40
0.138
  0
CIRCLE
  5
2019F
100
AcDbEntity
  8
0
100
AcDbCircle
 10
1.06005
 20
-1.868798
 30
3.86
 40
0.138
  0
CIRCLE
  5
201A0
100
AcDbEntity
  8
0
100
AcDbCircle
 10
1.74865
 20
-1.868798
 30
3.86
 40
0.138
  0
TEXT
  5
201A1
100
AcDbEntity
  8
0
100
AcDbText
 39
0.0
 10
0.533641
 20
0.742654
 30
2.062
 40
0.083465
  1
A1
100
AcDbText
  0
TEXT
  5
201A2
100
AcDbEntity
  8
0
100
AcDbText
 39
0.0
 10
1.454764
 20
0.741812
 30
2.062
 40
0.083465
  1
A2
100
AcDbText
  0
POLYLINE
  5
201A3
100
AcDbEntity
  8
0
100
AcDb3dPolyline
 66
     1
 10
0.0
 20
0.0
 30
0.0
 70
     8
  0
VERTEX
  5
201A4
100
AcDbEntity
  8
0
100
AcDbVertex
100
AcDb3dPolylineVertex
 10
0.0
 20
-0.761
 30
1.592
 70
    32
  0
VERTEX
  5
201A5
100
AcDbEntity
  8
0
100
AcDbVertex
100
AcDb3dPolylineVertex
 10
0.0
 20
-0.761
 30
2.165
 70
    32
  0
VERTEX
  5
201A6
100
AcDbEntity
  8
0
100
AcDbVertex
100
AcDb3dPolylineVertex
 10
0.0
 20
-0.927
 30
2.165
 70
    32
  0
VERTEX
  5
201A7
100
AcDbEntity
  8
0
100
AcDbVertex
100
AcDb3dPolylineVertex
 10
0.0
 20
-0.927
 30
1.592
 70
    32
  0
VERTEX
  5
201A8
100
AcDbEntity
  8
0
100
AcDbVertex
100
AcDb3dPolylineVertex
 10
0.0
 20
-0.761
 30
1.592
 70
    32
  0
SEQEND
  5
201A9
100
AcDbEntity
  8
0
  0
LINE
  5
201AA
100
AcDbEntity
  8
0
100
AcDbLine
 10
0.0
 20
-0.927
 30
1.8785
 11
0.0
 21
-0.761
 31
1.8785
  0
LINE
  5
201AB
100
AcDbEntity
  8
0
100
AcDbLine
 10
0.0
 20
-0.927
 30
2.0685
 11
0.0
 21
-0.761
 31
2.0685
  0
POLYLINE
  5
201AC
100
AcDbEntity
  8
0
100
AcDb3dPolyline
 66
     1
 10
0.0
 20
0.0
 30
0.0
 70
     8
  0
VERTEX
  5
201AD
100
AcDbEntity
  8
0
100
AcDbVertex
100
AcDb3dPolylineVertex
 10
2.12
 20
-0.761
 30
1.592
 70
    32
  0
VERTEX
  5
201AE
100
AcDbEntity
  8
0
100
AcDbVertex
100
AcDb3dPolylineVertex
 10
2.12
 20
-0.761
 30
2.165
 70
    32
  0
VERTEX
  5
201AF
100
AcDbEntity
  8
0
100
AcDbVertex
100
AcDb3dPolylineVertex
 10
2.12
 20
-0.927
 30
2.165
 70
    32
  0
VERTEX
  5
201B0
100
AcDbEntity
  8
0
100
AcDbVertex
100
AcDb3dPolylineVertex
 10
2.12
 20
-0.927
 30
1.592
 70
    32
  0
VERTEX
  5
201B1
100
AcDbEntity
  8
0
100
AcDbVertex
100
AcDb3dPolylineVertex
 10
2.12
 20
-0.761
 30
1.592
 70
    32
  0
SEQEND
  5
201B2
100
AcDbEntity
  8
0
  0
LINE
  5
201B3
100
AcDbEntity
  8
0
100
AcDbLine
 10
2.12
 20
-0.927
 30
1.8785
 11
2.12
 21
-0.761
 31
1.8785
  0
LINE
  5
201B4
100
AcDbEntity
  8
0
100
AcDbLine
 10
2.12
 20
-0.927
 30
2.0685
 11
2.12
 21
-0.761
 31
2.0685
  0
POLYLINE
  5
201B5
100
AcDbEntity
  8
0
100
AcDbPolygonMesh
 66
     1
 10
0.0
 20
0.0
 30
0.0
 70
    16
 71
     6
 72
     3
  0
VERTEX
  5
201B6
100
AcDbEntity
  8
0
100
AcDbVertex
100
AcDbPolygonMeshVertex
 10
0.391
 20
-2.172
 30
0.316
 70
    64
  0
VERTEX
  5
201B7
100
AcDbEntity
  8
0
100
AcDbVertex
100
AcDbPolygonMeshVertex
 10
0.391
 20
-2.172
 30
0.0
 70
    64
  0
VERTEX
  5
201B8
100
AcDbEntity
  8
0
100
AcDbVertex
100
AcDbPolygonMeshVertex
 10
0.391
 20
-2.172
 30
0.0
 70
    64
  0
VERTEX
  5
201B9
100
AcDbEntity
  8
0
100
AcDbVertex
100
AcDbPolygonMeshVertex
 10
0.0
 20
-2.172
 30
0.316
 70
    64
  0
VERTEX
  5
201BA
100
AcDbEntity
  8
0
100
AcDbVertex
100
AcDbPolygonMeshVertex
 10
0.0
 20
-2.172
 30
0.0
 70
    64
  0
VERTEX
  5
201BB
100
AcDbEntity
  8
0
100
AcDbVertex
100
AcDbPolygonMeshVertex
 10
0.0
 20
-2.172
 30
0.0
 70
    64
  0
VERTEX
  5
201BC
100
AcDbEntity
  8
0
100
AcDbVertex
100
AcDbPolygonMeshVertex
 10
0.0
 20
-1.806
 30
0.316
 70
    64
  0
VERTEX
  5
201BD
100
AcDbEntity
  8
0
100
AcDbVertex
100
AcDbPolygonMeshVertex
 10
0.0
 20
-1.806
 30
0.0
 70
    64
  0
VERTEX
  5
201BE
100
AcDbEntity
  8
0
100
AcDbVertex
100
AcDbPolygonMeshVertex
 10
0.0
 20
-2.172
 30
0.0
 70
    64
  0
VERTEX
  5
201BF
100
AcDbEntity
  8
0
100
AcDbVertex
100
AcDbPolygonMeshVertex
 10
0.391
 20
-1.806
 30
0.316
 70
    64
  0
VERTEX
  5
201C0
100
AcDbEntity
  8
0
100
AcDbVertex
100
AcDbPolygonMeshVertex
 10
0.391
 20
-1.806
 30
0.0
 70
    64
  0
VERTEX
  5
201C1
100
AcDbEntity
  8
0
100
AcDbVertex
100
AcDbPolygonMeshVertex
 10
0.391
 20
-2.172
 30
0.0
 70
    64
  0
VERTEX
  5
201C2
100
AcDbEntity
  8
0
100
AcDbVertex
100
AcDbPolygonMeshVertex
 10
0.391
 20
-1.806
 30
0.316
 70
    64
  0
VERTEX
  5
201C3
100
AcDbEntity
  8
0
100
AcDbVertex
100
AcDbPolygonMeshVertex
 10
0.391
 20
-1.806
 30
0.316
 70
    64
  0
VERTEX
  5
201C4
100
AcDbEntity
  8
0
100
AcDbVertex
100
AcDbPolygonMeshVertex
 10
0.391
 20
-2.172
 30
0.316
 70
    64
  0
VERTEX
  5
201C5
100
AcDbEntity
  8
0
100
AcDbVertex
100
AcDbPolygonMeshVertex
 10
0.0
 20
-1.806
 30
0.316
 70
    64
  0
VERTEX
  5
201C6
100
AcDbEntity
  8
0
100
AcDbVertex
100
AcDbPolygonMeshVertex
 10
0.0
 20
-1.806
 30
0.316
 70
    64
  0
VERTEX
  5
201C7
100
AcDbEntity
  8
0
100
AcDbVertex
100
AcDbPolygonMeshVertex
 10
0.0
 20
-2.172
 30
0.316
 70
    64
  0
SEQEND
  5
201C8
100
AcDbEntity
  8
0
  0
POLYLINE
  5
201C9
100
AcDbEntity
  8
0
100
AcDbPolygonMesh
 66
     1
 10
0.0
 20
0.0
 30
0.0
 70
    16
 71
     6
 72
     3
  0
VERTEX
  5
201CA
100
AcDbEntity
  8
0
100
AcDbVertex
100
AcDbPolygonMeshVertex
 10
2.12
 20
0.118
 30
0.316
 70
    64
  0
VERTEX
  5
201CB
100
AcDbEntity
  8
0
100
AcDbVertex
100
AcDbPolygonMeshVertex
 10
2.12
 20
0.118
 30
0.0
 70
    64
  0
VERTEX
  5
201CC
100
AcDbEntity
  8
0
100
AcDbVertex
100
AcDbPolygonMeshVertex
 10
2.12
 20
0.118
 30
0.0
 70
    64
  0
VERTEX
  5
201CD
100
AcDbEntity
  8
0
100
AcDbVertex
100
AcDbPolygonMeshVertex
 10
1.729
 20
0.118
 30
0.316
 70
    64
  0
VERTEX
  5
201CE
100
AcDbEntity
  8
0
100
AcDbVertex
100
AcDbPolygonMeshVertex
 10
1.729
 20
0.118
 30
0.0
 70
    64
  0
VERTEX
  5
201CF
100
AcDbEntity
  8
0
100
AcDbVertex
100
AcDbPolygonMeshVertex
 10
1.729
 20
0.118
 30
0.0
 70
    64
  0
VERTEX
  5
201D0
100
AcDbEntity
  8
0
100
AcDbVertex
100
AcDbPolygonMeshVertex
 10
1.729
 20
0.484
 30
0.316
 70
    64
  0
VERTEX
  5
201D1
100
AcDbEntity
  8
0
100
AcDbVertex
100
AcDbPolygonMeshVertex
 10
1.729
 20
0.484
 30
0.0
 70
    64
  0
VERTEX
  5
201D2
100
AcDbEntity
  8
0
100
AcDbVertex
100
AcDbPolygonMeshVertex
 10
1.729
 20
0.118
 30
0.0
 70
    64
  0
VERTEX
  5
201D3
100
AcDbEntity
  8
0
100
AcDbVertex
100
AcDbPolygonMeshVertex
 10
2.12
 20
0.484
 30
0.316
 70
    64
  0
VERTEX
  5
201D4
100
AcDbEntity
  8
0
100
AcDbVertex
100
AcDbPolygonMeshVertex
 10
2.12
 20
0.484
 30
0.0
 70
    64
  0
VERTEX
  5
201D5
100
AcDbEntity
  8
0
100
AcDbVertex
100
AcDbPolygonMeshVertex
 10
2.12
 20
0.118
 30
0.0
 70
    64
  0
VERTEX
  5
201D6
100
AcDbEntity
  8
0
100
AcDbVertex
100
AcDbPolygonMeshVertex
 10
2.12
 20
0.484
 30
0.316
 70
    64
  0
VERTEX
  5
201D7
100
AcDbEntity
  8
0
100
AcDbVertex
100
AcDbPolygonMeshVertex
 10
2.12
 20
0.484
 30
0.316
 70
    64
  0
VERTEX
  5
201D8
100
AcDbEntity
  8
0
100
AcDbVertex
100
AcDbPolygonMeshVertex
 10
2.12
 20
0.118
 30
0.316
 70
    64
  0
VERTEX
  5
201D9
100
AcDbEntity
  8
0
100
AcDbVertex
100
AcDbPolygonMeshVertex
 10
1.729
 20
0.484
 30
0.316
 70
    64
  0
VERTEX
  5
201DA
100
AcDbEntity
  8
0
100
AcDbVertex
100
AcDbPolygonMeshVertex
 10
1.729
 20
0.484
 30
0.316
 70
    64
  0
VERTEX
  5
201DB
100
AcDbEntity
  8
0
100
AcDbVertex
100
AcDbPolygonMeshVertex
 10
1.729
 20
0.118
 30
0.316
 70
    64
  0
SEQEND
  5
201DC
100
AcDbEntity
  8
0
  0
POLYLINE
  5
201DD
100
AcDbEntity
  8
0
100
AcDbPolygonMesh
 66
     1
 10
0.0
 20
0.0
 30
0.0
 70
    16
 71
     6
 72
     3
  0
VERTEX
  5
201DE
100
AcDbEntity
  8
0
100
AcDbVertex
100
AcDbPolygonMeshVertex
 10
2.12
 20
-2.089
 30
3.86
 70
    64
  0
VERTEX
  5
201DF
100
AcDbEntity
  8
0
100
AcDbVertex
100
AcDbPolygonMeshVertex
 10
2.12
 20
-2.089
 30
1.318
 70
    64
  0
VERTEX
  5
201E0
100
AcDbEntity
  8
0
100
AcDbVertex
100
AcDbPolygonMeshVertex
 10
2.12
 20
-2.089
 30
1.318
 70
    64
  0
VERTEX
  5
201E1
100
AcDbEntity
  8
0
100
AcDbVertex
100
AcDbPolygonMeshVertex
 10
0.0
 20
-2.089
 30
3.86
 70
    64
  0
VERTEX
  5
201E2
100
AcDbEntity
  8
0
100
AcDbVertex
100
AcDbPolygonMeshVertex
 10
0.0
 20
-2.089
 30
1.318
 70
    64
  0
VERTEX
  5
201E3
100
AcDbEntity
  8
0
100
AcDbVertex
100
AcDbPolygonMeshVertex
 10
0.0
 20
-2.089
 30
1.318
 70
    64
  0
VERTEX
  5
201E4
100
AcDbEntity
  8
0
100
AcDbVertex
100
AcDbPolygonMeshVertex
 10
0.0
 20
0.401
 30
3.86
 70
    64
  0
VERTEX
  5
201E5
100
AcDbEntity
  8
0
100
AcDbVertex
100
AcDbPolygonMeshVertex
 10
0.0
 20
0.401
 30
1.318
 70
    64
  0
VERTEX
  5
201E6
100
AcDbEntity
  8
0
100
AcDbVertex
100
AcDbPolygonMeshVertex
 10
0.0
 20
-2.089
 30
1.318
 70
    64
  0
VERTEX
  5
201E7
100
AcDbEntity
  8
0
100
AcDbVertex
100
AcDbPolygonMeshVertex
 10
2.12
 20
0.401
 30
3.86
 70
    64
  0
VERTEX
  5
201E8
100
AcDbEntity
  8
0
100
AcDbVertex
100
AcDbPolygonMeshVertex
 10
2.12
 20
0.401
 30
1.318
 70
    64
  0
VERTEX
  5
201E9
100
AcDbEntity
  8
0
100
AcDbVertex
100
AcDbPolygonMeshVertex
 10
2.12
 20
-2.089
 30
1.318
 70
    64
  0
VERTEX
  5
201EA
100
AcDbEntity
  8
0
100
AcDbVertex
100
AcDbPolygonMeshVertex
 10
2.12
 20
0.401
 30
3.86
 70
    64
  0
VERTEX
  5
201EB
100
AcDbEntity
  8
0
100
AcDbVertex
100
AcDbPolygonMeshVertex
 10
2.12
 20
0.401
 30
3.86
 70
    64
  0
VERTEX
  5
201EC
100
AcDbEntity
  8
0
100
AcDbVertex
100
AcDbPolygonMeshVertex
 10
2.12
 20
-2.089
 30
3.86
 70
    64
  0
VERTEX
  5
201ED
100
AcDbEntity
  8
0
100
AcDbVertex
100
AcDbPolygonMeshVertex
 10
0.0
 20
0.401
 30
3.86
 70
    64
  0
VERTEX
  5
201EE
100
AcDbEntity
  8
0
100
AcDbVertex
100
AcDbPolygonMeshVertex
 10
0.0
 20
0.401
 30
3.86
 70
    64
  0
VERTEX
  5
201EF
100
AcDbEntity
  8
0
100
AcDbVertex
100
AcDbPolygonMeshVertex
 10
0.0
 20
-2.089
 30
3.86
 70
    64
  0
SEQEND
  5
201F0
100
AcDbEntity
  8
0
  0
3DFACE
  5
201F1
100
AcDbEntity
  8
0
100
AcDbFace
 10
2.12
 20
-2.089
 30
1.318
 11
2.12
 21
-2.089
 31
1.318
 12
0.0
 22
-2.089
 32
1.318
 13
0.0
 23
-2.089
 33
1.318
  0
3DFACE
  5
201F2
100
AcDbEntity
  8
0
100
AcDbFace
 10
0.0
 20
-2.089
 30
1.318
 11
0.0
 21
-2.089
 31
1.318
 12
0.0
 22
-2.089
 32
1.318
 13
0.0
 23
0.401
 33
1.318
  0
3DFACE
  5
201F3
100
AcDbEntity
  8
0
100
AcDbFace
 10
0.0
 20
0.401
 30
1.318
 11
0.0
 21
-2.089
 31
1.318
 12
2.12
 22
-2.089
 32
1.318
 13
2.12
 23
0.401
 33
1.318
  0
3DFACE
  5
201F4
100
AcDbEntity
  8
0
100
AcDbFace
 10
2.12
 20
0.401
 30
3.86
 11
2.12
 21
0.401
 31
3.86
 12
0.0
 22
0.401
 32
3.86
 13
0.0
 23
0.401
 33
3.86
  0
3DFACE
  5
201F5
100
AcDbEntity
  8
0
100
AcDbFace
 10
2.12
 20
0.401
 30
3.86
 11
2.12
 21
-2.089
 31
3.86
 12
0.0
 22
-2.089
 32
3.86
 13
0.0
 23
0.401
 33
3.86
  0
POINT
  5
201F6
100
AcDbEntity
  8
SNAP_POINTS
100
AcDbPoint
 10
0.0
 20
-0.894
 30
2.0685
  0
POINT
  5
201F7
100
AcDbEntity
  8
SNAP_POINTS
100
AcDbPoint
 10
2.12
 20
-0.794
 30
2.0685
  0
POINT
  5
201F8
100
AcDbEntity
  8
SNAP_POINTS
100
AcDbPoint
 10
1.06
 20
-0.85
 30
3.894
  0
POINT
  5
201F9
100
AcDbEntity
  8
SNAP_POINTS
100
AcDbPoint
 10
1.729
 20
-2.089
 30
1.318
  0
POINT
  5
201FA
100
AcDbEntity
  8
SNAP_POINTS
100
AcDbPoint
 10
0.0
 20
0.0
 30
0.0
  0
POINT
  5
201FB
100
AcDbEntity
  8
SNAP_POINTS
100
AcDbPoint
 10
0.8795
 20
0.838
 30
1.641
  0
POINT
  5
201FC
100
AcDbEntity
  8
DIMS-MTG-HOLES
100
AcDbPoint
 10
0.173
 20
-2.025
 30
0.0
  0
POINT
  5
201FD
100
AcDbEntity
  8
DIMS-MTG-HOLES
100
AcDbPoint
 10
1.945
 20
0.337
 30
0.0
  0
LWPOLYLINE
  5
201FE
100
AcDbEntity
  8
0
100
AcDbPolyline
 90
        6
 70
     0
 43
0.0
 38
3.86
 10
1.72865
 20
0.317341
 10
1.72865
 20
0.200798
 10
1.66865
 20
0.200798
 10
1.66865
 20
0.160798
 10
1.72865
 20
0.160798
 10
1.72865
 20
0.044255
  0
LWPOLYLINE
  5
201FF
100
AcDbEntity
  8
0
100
AcDbPolyline
 90
        6
 70
     0
 43
0.0
 38
3.86
 10
1.76865
 20
0.317341
 10
1.76865
 20
0.200798
 10
1.82865
 20
0.200798
 10
1.82865
 20
0.160798
 10
1.76865
 20
0.160798
 10
1.76865
 20
0.044255
  0
LWPOLYLINE
  5
20200
100
AcDbEntity
  8
0
100
AcDbPolyline
 90
        6
 70
     0
 43
0.0
 38
3.86
 10
1.04005
 20
0.317341
 10
1.04005
 20
0.200798
 10
0.98005
 20
0.200798
 10
0.98005
 20
0.160798
 10
1.04005
 20
0.160798
 10
1.04005
 20
0.044255
  0
LWPOLYLINE
  5
20201
100
AcDbEntity
  8
0
100
AcDbPolyline
 90
        6
 70
     0
 43
0.0
 38
3.86
 10
1.08005
 20
0.317341
 10
1.08005
 20
0.200798
 10
1.14005
 20
0.200798
 10
1.14005
 20
0.160798
 10
1.08005
 20
0.160798
 10
1.08005
 20
0.044255
  0
LWPOLYLINE
  5
20202
100
AcDbEntity
  8
0
100
AcDbPolyline
 90
        6
 70
     0
 43
0.0
 38
3.86
 10
0.35135
 20
0.317341
 10
0.35135
 20
0.200798
 10
0.29135
 20
0.200798
 10
0.29135
 20
0.160798
 10
0.35135
 20
0.160798
 10
0.35135
 20
0.044255
  0
LWPOLYLINE
  5
20203
100
AcDbEntity
  8
0
100
AcDbPolyline
 90
        6
 70
     0
 43
0.0
 38
3.86
 10
0.39135
 20
0.317341
 10
0.39135
 20
0.200798
 10
0.45135
 20
0.200798
 10
0.45135
 20
0.160798
 10
0.39135
 20
0.160798
 10
0.39135
 20
0.044255
  0
LWPOLYLINE
  5
20204
100
AcDbEntity
  8
0
100
AcDbPolyline
 90
        6
 70
     0
 43
0.0
 38
2.062
 10
1.419
 20
0.737822
 10
1.419
 20
0.6395
 10
1.479
 20
0.6395
 10
1.479
 20
0.5995
 10
1.419
 20
0.5995
 10
1.419
 20
0.501178
  0
LWPOLYLINE
  5
20205
100
AcDbEntity
  8
0
100
AcDbPolyline
 90
        6
 70
     0
 43
0.0
 38
2.062
 10
1.379
 20
0.737822
 10
1.379
 20
0.6395
 10
1.319
 20
0.6395
 10
1.319
 20
0.5995
 10
1.379
 20
0.5995
 10
1.379
 20
0.501178
  0
LWPOLYLINE
  5
20206
100
AcDbEntity
  8
0
100
AcDbPolyline
 90
        6
 70
     0
 43
0.0
 38
2.062
 10
0.741
 20
0.737822
 10
0.741
 20
0.6395
 10
0.801
 20
0.6395
 10
0.801
 20
0.5995
 10
0.741
 20
0.5995
 10
0.741
 20
0.501178
  0
LWPOLYLINE
  5
20207
100
AcDbEntity
  8
0
100
AcDbPolyline
 90
        6
 70
     0
 43
0.0
 38
2.062
 10
0.701
 20
0.737822
 10
0.701
 20
0.6395
 10
0.641
 20
0.6395
 10
0.641
 20
0.5995
 10
0.701
 20
0.5995
 10
0.701
 20
0.501178
  0
LWPOLYLINE
  5
20208
100
AcDbEntity
  8
0
100
AcDbPolyline
 90
        6
 70
     0
 43
0.0
 38
3.86
 10
1.04005
 20
-1.732255
 10
1.04005
 20
-1.848798
 10
0.98005
 20
-1.848798
 10
0.98005
 20
-1.888798
 10
1.04005
 20
-1.888798
 10
1.04005
 20
-2.005341
  0
LWPOLYLINE
  5
20209
100
AcDbEntity
  8
0
100
AcDbPolyline
 90
        6
 70
     0
 43
0.0
 38
3.86
 10
1.08005
 20
-1.732255
 10
1.08005
 20
-1.848798
 10
1.14005
 20
-1.848798
 10
1.14005
 20
-1.888798
 10
1.08005
 20
-1.888798
 10
1.08005
 20
-2.005341
  0
LWPOLYLINE
  5
2020A
100
AcDbEntity
  8
0
100
AcDbPolyline
 90
        6
 70
     0
 43
0.0
 38
3.86
 10
1.72865
 20
-1.732255
 10
1.72865
 20
-1.848798
 10
1.66865
 20
-1.848798
 10
1.66865
 20
-1.888798
 10
1.72865
 20
-1.888798
 10
1.72865
 20
-2.005341
  0
LWPOLYLINE
  5
2020B
100
AcDbEntity
  8
0
100
AcDbPolyline
 90
        6
 70
     0
 43
0.0
 38
3.86
 10
1.76865
 20
-1.732255
 10
1.76865
 20
-1.848798
 10
1.82865
 20
-1.848798
 10
1.82865
 20
-1.888798
 10
1.76865
 20
-1.888798
 10
1.76865
 20
-2.005341
  0
LWPOLYLINE
  5
2020C
100
AcDbEntity
  8
0
100
AcDbPolyline
 90
        6
 70
     0
 43
0.0
 38
3.86
 10
0.35135
 20
-1.732255
 10
0.35135
 20
-1.848798
 10
0.29135
 20
-1.848798
 10
0.29135
 20
-1.888798
 10
0.35135
 20
-1.888798
 10
0.35135
 20
-2.005341
  0
LWPOLYLINE
  5
2020D
100
AcDbEntity
  8
0
100
AcDbPolyline
 90
        6
 70
     0
 43
0.0
 38
3.86
 10
0.39135
 20
-1.732255
 10
0.39135
 20
-1.848798
 10
0.45135
 20
-1.848798
 10
0.45135
 20
-1.888798
 10
0.39135
 20
-1.888798
 10
0.39135
 20
-2.005341
  0
DIMENSION
  5
2020E
100
AcDbEntity
  8
AREA1
100
AcDbDimension
  2
*D0
 10
-0.596749
 20
-2.342
 30
0.0
 11
-0.596749
 21
-0.840846
 31
0.0
 70
   160
  3
ABECAD_3D
100
AcDbAlignedDimension
 13
0.5075
 23
0.838
 33
1.388
 14
0.8745
 24
-2.342
 34
1.388
 50
90.0
100
AcDbRotatedDimension
  0
DIMENSION
  5
2020F
100
AcDbEntity
  8
AREA1
100
AcDbDimension
  2
*D1
 10
2.12
 20
1.226405
 30
0.0
 11
1.054591
 21
1.624393
 31
0.0
 70
   160
  3
ABECAD_3D
100
AcDbAlignedDimension
 13
0.0
 23
0.515
 33
1.641
 14
2.12
 24
0.515
 34
1.641
100
AcDbRotatedDimension
  0
LWPOLYLINE
  5
20210
100
AcDbEntity
  8
SCALE
100
AcDbPolyline
 90
        4
 70
     1
 43
0.0
 10
0.462335
 20
-2.469785
 10
1.597964
 20
-2.469785
 10
1.597964
 20
-3.311395
 10
0.462335
 20
-3.311395
  0
LINE
  5
20211
100
AcDbEntity
  8
SCALE
100
AcDbLine
 10
0.520334
 20
-2.849864
 30
0.0
 11
1.520334
 21
-2.849864
 31
0.0
  0
LINE
  5
20212
100
AcDbEntity
  8
SCALE
100
AcDbLine
 10
0.520334
 20
-3.149864
 30
0.0
 11
0.914034
 21
-3.149864
 31
0.0
  0
LINE
  5
20213
100
AcDbEntity
  8
SCALE
100
AcDbLine
 10
0.520334
 20
-2.949864
 30
0.0
 11
0.520334
 21
-2.749864
 31
0.0
  0
TEXT
  5
20214
100
AcDbEntity
  8
SCALE
100
AcDbText
 10
0.57631
 20
-3.102179
 30
0.0
 40
0.0625
  1
[10mm]
100
AcDbText
  0
LINE
  5
20215
100
AcDbEntity
  8
SCALE
100
AcDbLine
 10
0.520334
 20
-3.249864
 30
0.0
 11
0.520334
 21
-3.049864
 31
0.0
  0
TEXT
  5
20216
100
AcDbEntity
  8
SCALE
100
AcDbText
 10
0.521864
 20
-2.574987
 30
0.0
 40
0.0625
  1
SCALE:
100
AcDbText
  0
LINE
  5
20217
100
AcDbEntity
  8
SCALE
100
AcDbLine
 10
0.914034
 20
-3.249864
 30
0.0
 11
0.914034
 21
-3.049864
 31
0.0
  0
TEXT
  5
20218
100
AcDbEntity
  8
SCALE
100
AcDbText
 10
0.883617
 20
-2.780815
 30
0.0
 40
0.0625
  1
1 Inch
100
AcDbText
  0
LINE
  5
20219
100
AcDbEntity
  8
SCALE
100
AcDbLine
 10
1.520334
 20
-2.849864
 30
0.0
 11
1.520334
 21
-2.949864
 31
0.0
  0
LINE
  5
2021A
100
AcDbEntity
  8
SCALE
100
AcDbLine
 10
1.520334
 20
-2.949864
 30
0.0
 11
1.520334
 21
-2.749864
 31
0.0
  0
DIMENSION
  5
20250
100
AcDbEntity
  8
AREA2
100
AcDbDimension
  2
*D2
 10
-0.74557
 20
0.0
 30
0.0
 11
-0.74557
 21
1.939967
 31
0.0
 70
   160
210
0.0
220
-1.0
230
0.0
  3
ABECAD_3V
100
AcDbAlignedDimension
 13
0.8225
 23
-0.6775
 33
4.11
 14
0.0
 24
-1.806
 34
0.0
 50
90.0
100
AcDbRotatedDimension
1001
ACAD
1000
DSTYLE
1002
{
1070
    40
1040
1.0
1002
}
  0
VIEWPORT
  5
2C
102
{ACAD_XDICTIONARY
360
20363
102
}
100
AcDbEntity
 67
     1
  8
0
100
AcDbViewport
 10
4.999849
 20
3.750155
 30
0.0
 40
14.996891
 41
7.611204
 68
     1
 69
     1
1001
ACAD
1000
MVIEW
1002
{
1070
    16
1010
0.0
1020
0.0
1030
0.0
1010
0.0
1020
0.0
1030
1.0
1040
0.0
1040
7.611204
1040
4.999849
1040
3.750155
1040
50.0
1040
0.0
1040
0.0
1070
     0
1070
   100
1070
     1
1070
     1
1070
     0
1070
     0
1070
     0
1070
     0
1040
0.0
1040
0.0
1040
0.0
1040
1.0
1040
1.0
1040
0.0
1040
0.0
1070
     0
1002
{
1002
}
1002
}
  0
VIEWPORT
  5
2D
102
{ACAD_XDICTIONARY
360
20365
102
}
100
AcDbEntity
 67
     1
  8
0
100
AcDbViewport
 10
2.5
 20
5.625
 30
0.0
 40
5.0
 41
3.75
 68
     2
 69
     2
1001
ACAD
1000
MVIEW
1002
{
1070
    16
1010
0.0
1020
0.0
1030
0.0
1010
0.0
1020
0.0
1030
1.0
1040
0.0
1040
4.277488
1040
0.665746
1040
-0.284628
1040
50.0
1040
0.0
1040
0.0
1070
     0
1070
   100
1070
     1
1070
     0
1070
     0
1070
     0
1070
     0
1070
     0
1040
0.0
1040
0.0
1040
0.0
1040
1.0
1040
1.0
1040
0.0
1040
0.0
1070
     0
1002
{
1003
AREA2
1002
}
1002
}
  0
VIEWPORT
  5
2E
102
{ACAD_XDICTIONARY
360
20367
102
}
100
AcDbEntity
 67
     1
  8
0
100
AcDbViewport
 10
2.5
 20
1.875
 30
0.0
 40
5.0
 41
3.75
 68
     4
 69
     3
1001
ACAD
1000
MVIEW
1002
{
1070
    16
1010
0.0
1020
0.0
1030
0.0
1010
0.0
1020
-1.0
1030
0.0
1040
0.0
1040
4.371805
1040
0.665746
1040
2.053833
1040
50.0
1040
0.0
1040
0.0
1070
     0
1070
   100
1070
     1
1070
     0
1070
     0
1070
     0
1070
     0
1070
     0
1040
0.0
1040
0.0
1040
0.0
1040
1.0
1040
1.0
1040
0.0
1040
0.0
1070
     0
1002
{
1003
AREA1
1002
}
1002
}
  0
VIEWPORT
  5
2F
102
{ACAD_XDICTIONARY
360
20369
102
}
100
AcDbEntity
 67
     1
  8
0
100
AcDbViewport
 10
7.5
 20
3.75
 30
0.0
 40
5.0
 41
7.5
 68
     3
 69
     4
1001
ACAD
1000
MVIEW
1002
{
1070
    16
1010
0.0
1020
0.0
1030
0.0
1010
-1.0
1020
-1.0
1030
1.0
1040
0.0
1040
5.890724
1040
1.330637
1040
1.921071
1040
50.0
1040
0.0
1040
0.0
1070
     0
1070
   100
1070
     1
1070
     0
1070
     0
1070
     0
1070
     0
1070
     0
1040
0.0
1040
0.0
1040
0.0
1040
1.0
1040
1.0
1040
0.0
1040
0.0
1070
     0
1002
{
1003
AREA1
1003
AREA2
1002
}
1002
}
  0
TEXT
  5
42D
100
AcDbEntity
 67
     1
  8
0
100
AcDbText
 10
5.253785
 20
7.092701
 30
0.0
 40
0.2
  1

100
AcDbText
  0
TEXT
  5
431
100
AcDbEntity
 67
     1
  8
0
100
AcDbText
 10
5.253785
 20
6.759368
 30
0.0
 40
0.2
  1

100
AcDbText
1001
ACAD
1000
R13OBJECT
1002
{
1005
42D
1002
}
  0
TEXT
  5
11D16
100
AcDbEntity
 67
     1
  8
AREA2
100
AcDbText
 10
5.101109
 20
7.152637
 30
0.0
 40
0.2
  1
100-C43*00
100
AcDbText
  0
TEXT
  5
11D17
100
AcDbEntity
 67
     1
  8
AREA2
100
AcDbText
 10
5.101109
 20
6.844954
 30
0.0
 40
0.2
  1
MCS IEC AC CONTACTOR; 43A
100
AcDbText
  0
ENDSEC
  0
SECTION
  2
OBJECTS
  0
DICTIONARY
  5
46D
100
AcDbDictionary
  3
ACAD_GROUP
350
46E
  3
ACAD_LAYOUT
350
49E
  3
ACAD_MLINESTYLE
350
47B
  3
ACAD_PLOTSETTINGS
350
49F
  3
ACAD_PLOTSTYLENAME
350
49C
  3
ACDBHEADERROUNDTRIPXREC
350
20342
  3
ACDBVARIABLEDICTIONARY
350
48D
  0
DICTIONARY
  5
20340
100
AcDbDictionary
280
     1
  3
ACAD_XREC_ROUNDTRIP
360
20341
  0
DICTIONARY
  5
2036D
100
AcDbDictionary
280
     1
  3
ACAD_XREC_ROUNDTRIP
360
2036E
  0
DICTIONARY
  5
2036F
100
AcDbDictionary
280
     1
  3
ACAD_XREC_ROUNDTRIP
360
20370
  0
DICTIONARY
  5
20373
100
AcDbDictionary
280
     1
  3
ACAD_XREC_ROUNDTRIP
360
20374
  0
DICTIONARY
  5
4D2
100
AcDbDictionary
280
     1
  3
ACAD_LAYOUTSELFREF
360
2036C
  0
DICTIONARY
  5
4D0
100
AcDbDictionary
280
     1
  3
ACAD_LAYOUTSELFREF
360
2036B
  0
DICTIONARY
  5
20363
100
AcDbDictionary
280
     1
  3
ACAD_XREC_ROUNDTRIP
360
20364
  0
DICTIONARY
  5
20365
100
AcDbDictionary
280
     1
  3
ACAD_XREC_ROUNDTRIP
360
20366
  0
DICTIONARY
  5
20367
100
AcDbDictionary
280
     1
  3
ACAD_XREC_ROUNDTRIP
360
20368
  0
DICTIONARY
  5
20369
100
AcDbDictionary
280
     1
  3
ACAD_XREC_ROUNDTRIP
360
2036A
  0
DICTIONARY
  5
46E
102
{ACAD_REACTORS
330
46D
102
}
100
AcDbDictionary
  0
DICTIONARY
  5
49E
102
{ACAD_XDICTIONARY
360
20371
102
}
102
{ACAD_REACTORS
330
46D
102
}
100
AcDbDictionary
  3
LAYOUT1
350
4A1
  3
MODEL
350
4A0
  0
DICTIONARY
  5
47B
102
{ACAD_REACTORS
330
46D
102
}
100
AcDbDictionary
  3
STANDARD
350
47C
  0
DICTIONARY
  5
49F
102
{ACAD_REACTORS
330
46D
102
}
100
AcDbDictionary
  0
ACAD_PROXY_OBJECT
  5
49C
102
{ACAD_REACTORS
330
46D
102
}
100
AcDbProxyObject
 90
      499
 91
      501
 93
       86
310
405010041939BDC9B585B0
350
49D
340
49D
 94
        0
  0
DICTIONARY
  5
20342
102
{ACAD_REACTORS
330
46D
102
}
100
AcDbDictionary
  3
CEPSNTYPE
350
2034C
  3
DIMSTYLEDATA
350
20350
  3
FINGERPRINTGUID
350
2034D
  3
HYPERLINKBASE
350
20345
  3
INSUNITS
350
2034B
  3
LAYOUTDICT
350
20347
  3
LWETCUNION
350
2034A
  3
PLOTSETDICT
350
20348
  3
PLOTSTYLNAMDICT
350
20349
  3
PSVPSCALE
350
2034F
  3
PUCSBASE
350
20353
  3
PUCSORGBACK
350
20359
  3
PUCSORGBOTTOM
350
20355
  3
PUCSORGFRONT
350
20358
  3
PUCSORGLEFT
350
20356
  3
PUCSORGRIGHT
350
20357
  3
PUCSORGTOP
350
20354
  3
PUCSORTHOREF
350
20351
  3
PUCSORTHOVIEW
350
20352
  3
STYLESHEET
350
20346
  3
TSTACKALIGN
350
20343
  3
TSTACKSIZE
350
20344
  3
UCSBASE
350
2035C
  3
UCSORGBACK
350
20362
  3
UCSORGBOTTOM
350
2035E
  3
UCSORGFRONT
350
20361
  3
UCSORGLEFT
350
2035F
  3
UCSORGRIGHT
350
20360
  3
UCSORGTOP
350
2035D
  3
UCSORTHOREF
350
2035A
  3
UCSORTHOVIEW
350
2035B
  3
VERSIONGUID
350
2034E
  0
DICTIONARY
  5
48D
102
{ACAD_REACTORS
330
46D
102
}
100
AcDbDictionary
  3
DIMADEC
350
48E
  0
XRECORD
  5
20341
102
{ACAD_REACTORS
330
20340
102
}
100
AcDbXrecord
102
EXTNAMES
  1
*ACTIVE
  2
*Active
102
UCS
 74
     0
 71
     1
 10
0.0
 20
0.0
 30
0.0
 10
1.0
 20
0.0
 30
0.0
 10
0.0
 20
1.0
 30
0.0
146
0.0
 79
     1
102
VIEW
281
     1
  0
XRECORD
  5
2036E
102
{ACAD_REACTORS
330
2036D
102
}
100
AcDbXrecord
102
PLOTBIT
280
     0
  0
XRECORD
  5
20370
102
{ACAD_REACTORS
330
2036F
102
}
100
AcDbXrecord
102
ACADR14ROUNDTRIP
1000
DSTYLE
1002
{
1070
   276
 70
     2
1070
   277
 70
     5
1070
   279
 70
     2
1002
}
  0
XRECORD
  5
20374
102
{ACAD_REACTORS
330
20373
102
}
100
AcDbXrecord
102
ACADR14ROUNDTRIP
1000
DSTYLE
1002
{
1070
   276
 70
     2
1070
   277
 70
     5
1070
   279
 70
     2
1070
   289
 70
     2
1002
}
  0
XRECORD
  5
2036C
102
{ACAD_REACTORS
330
4D2
102
}
100
AcDbXrecord
340
478
  0
XRECORD
  5
2036B
102
{ACAD_REACTORS
330
4D0
102
}
100
AcDbXrecord
340
475
  0
XRECORD
  5
20364
102
{ACAD_REACTORS
330
20363
102
}
100
AcDbXrecord
102
UCS
 74
     0
 71
     1
 10
0.0
 20
0.0
 30
0.0
 10
1.0
 20
0.0
 30
0.0
 10
0.0
 20
1.0
 30
0.0
146
0.0
 79
     0
102
VIEW
281
     0
102
NEWVIEWCONTROL
280
     4
  0
XRECORD
  5
20366
102
{ACAD_REACTORS
330
20365
102
}
100
AcDbXrecord
102
UCS
 74
     0
 71
     1
 10
0.0
 20
0.0
 30
0.0
 10
1.0
 20
0.0
 30
0.0
 10
0.0
 20
1.0
 30
0.0
146
0.0
 79
     1
102
VIEW
281
     0
102
NEWVIEWCONTROL
280
     4
  0
XRECORD
  5
20368
102
{ACAD_REACTORS
330
20367
102
}
100
AcDbXrecord
102
UCS
 74
     0
 71
     1
 10
0.0
 20
0.0
 30
0.0
 10
1.0
 20
0.0
 30
0.0
 10
0.0
 20
0.0
 30
1.0
146
0.0
 79
     3
102
VIEW
281
     0
102
NEWVIEWCONTROL
280
     4
  0
XRECORD
  5
2036A
102
{ACAD_REACTORS
330
20369
102
}
100
AcDbXrecord
102
UCS
 74
     0
 71
     1
 10
0.0
 20
0.0
 30
0.0
 10
1.0
 20
0.0
 30
0.0
 10
0.0
 20
1.0
 30
0.0
146
0.0
 79
     0
102
VIEW
281
     0
102
NEWVIEWCONTROL
280
     4
  0
DICTIONARY
  5
20371
100
AcDbDictionary
280
     1
  3
ACAD_XREC_ROUNDTRIP
360
20372
  0
ACAD_PROXY_OBJECT
  5
4A1
102
{ACAD_REACTORS
330
49E
102
}
100
AcDbProxyObject
 90
      499
 91
      503
 93
     2044
310
91D4850204C617365724A65742035303030205365726965732050434C20362C008000000C0BB1B1440000000102F06C510000000000BC1B1440000000002E06C5100000000C0CCFC6A4000000018199D9C501064C6574746572A901406AA427D84144352EEE3F47D11959985D5B1D08148C4D081C195B88185CDCDA59DB9B5
310
95B9D1CCB98DD18A30EDE3B1BBFDBC0FC1D572C8D6D0C833F1A2B3054E9249F0FD074C61796F75743140501A97D7DB4AA43C31EFF91E46EBA53B71EFD1B32A15809809100B2537F8EAD447D02A6A6A00200C0093BD106FC0000F06EE366FABE0000032E846F6A2F44424FF2920002440160B7F435600079000000D00CEECC5
310
43D0
330
475
330
2C
340
0
340
0
 94
        0
  0
ACAD_PROXY_OBJECT
  5
4A0
102
{ACAD_REACTORS
330
49E
102
}
100
AcDbProxyObject
 90
      499
 91
      503
 93
      924
310
91D4850204C617365724A65742035303030205365726965732050434C20362C01AAAAAAAAA547D11959985D5B1D08148C4D081C195B88185CDCDA59DB9B595B9D1CCB98DD18A69054D6F64656C901A800000000000000000000000000000000000000000000A1000000000000008902A6A6AAAA0
330
478
330
0
340
0
340
0
 94
        0
  0
MLINESTYLE
  5
47C
102
{ACAD_REACTORS
330
47B
102
}
100
AcDbMlineStyle
  2
STANDARD
 70
     0
  3

 62
   256
 51
90.0
 52
90.0
 71
     2
 49
0.5
 62
   256
  6
BYLAYER
 49
-0.5
 62
   256
  6
BYLAYER
  0
ACAD_PROXY_OBJECT
  5
49D
102
{ACAD_REACTORS
330
49C
102
}
100
AcDbProxyObject
 90
      499
 91
      502
 93
        0
 94
        0
  0
XRECORD
  5
2034C
102
{ACAD_REACTORS
330
20342
102
}
100
AcDbXrecord
 90
        0
  0
XRECORD
  5
20350
102
{ACAD_REACTORS
330
20342
102
}
100
AcDbXrecord
1000
DSTYLE
1002
{
1070
   276
 70
     2
1070
   277
 70
     5
1070
   279
 70
     2
1002
}
  0
XRECORD
  5
2034D
102
{ACAD_REACTORS
330
20342
102
}
100
AcDbXrecord
  1
{6E0CF4B5-225E-11D4-A150-00A0CC3303EC}
  0
XRECORD
  5
20345
102
{ACAD_REACTORS
330
20342
102
}
100
AcDbXrecord
  1

  0
XRECORD
  5
2034B
102
{ACAD_REACTORS
330
20342
102
}
100
AcDbXrecord
 90
        0
  0
XRECORD
  5
20347
102
{ACAD_REACTORS
330
20342
102
}
100
AcDbXrecord
340
49E
  0
XRECORD
  5
2034A
102
{ACAD_REACTORS
330
20342
102
}
100
AcDbXrecord
 90
    14877
  0
XRECORD
  5
20348
102
{ACAD_REACTORS
330
20342
102
}
100
AcDbXrecord
340
49F
  0
XRECORD
  5
20349
102
{ACAD_REACTORS
330
20342
102
}
100
AcDbXrecord
340
49C
  0
XRECORD
  5
2034F
102
{ACAD_REACTORS
330
20342
102
}
100
AcDbXrecord
 40
0.0
  0
XRECORD
  5
20353
102
{ACAD_REACTORS
330
20342
102
}
100
AcDbXrecord
340
0
  0
XRECORD
  5
20359
102
{ACAD_REACTORS
330
20342
102
}
100
AcDbXrecord
 10
0.0
 20
0.0
 30
0.0
  0
XRECORD
  5
20355
102
{ACAD_REACTORS
330
20342
102
}
100
AcDbXrecord
 10
0.0
 20
0.0
 30
0.0
  0
XRECORD
  5
20358
102
{ACAD_REACTORS
330
20342
102
}
100
AcDbXrecord
 10
0.0
 20
0.0
 30
0.0
  0
XRECORD
  5
20356
102
{ACAD_REACTORS
330
20342
102
}
100
AcDbXrecord
 10
0.0
 20
0.0
 30
0.0
  0
XRECORD
  5
20357
102
{ACAD_REACTORS
330
20342
102
}
100
AcDbXrecord
 10
0.0
 20
0.0
 30
0.0
  0
XRECORD
  5
20354
102
{ACAD_REACTORS
330
20342
102
}
100
AcDbXrecord
 10
0.0
 20
0.0
 30
0.0
  0
XRECORD
  5
20351
102
{ACAD_REACTORS
330
20342
102
}
100
AcDbXrecord
340
0
  0
XRECORD
  5
20352
102
{ACAD_REACTORS
330
20342
102
}
100
AcDbXrecord
 70
     0
  0
XRECORD
  5
20346
102
{ACAD_REACTORS
330
20342
102
}
100
AcDbXrecord
  1

  0
XRECORD
  5
20343
102
{ACAD_REACTORS
330
20342
102
}
100
AcDbXrecord
 90
        1
  0
XRECORD
  5
20344
102
{ACAD_REACTORS
330
20342
102
}
100
AcDbXrecord
 90
       70
  0
XRECORD
  5
2035C
102
{ACAD_REACTORS
330
20342
102
}
100
AcDbXrecord
340
0
  0
XRECORD
  5
20362
102
{ACAD_REACTORS
330
20342
102
}
100
AcDbXrecord
 10
0.0
 20
0.0
 30
0.0
  0
XRECORD
  5
2035E
102
{ACAD_REACTORS
330
20342
102
}
100
AcDbXrecord
 10
0.0
 20
0.0
 30
0.0
  0
XRECORD
  5
20361
102
{ACAD_REACTORS
330
20342
102
}
100
AcDbXrecord
 10
0.0
 20
0.0
 30
0.0
  0
XRECORD
  5
2035F
102
{ACAD_REACTORS
330
20342
102
}
100
AcDbXrecord
 10
0.0
 20
0.0
 30
0.0
  0
XRECORD
  5
20360
102
{ACAD_REACTORS
330
20342
102
}
100
AcDbXrecord
 10
0.0
 20
0.0
 30
0.0
  0
XRECORD
  5
2035D
102
{ACAD_REACTORS
330
20342
102
}
100
AcDbXrecord
 10
0.0
 20
0.0
 30
0.0
  0
XRECORD
  5
2035A
102
{ACAD_REACTORS
330
20342
102
}
100
AcDbXrecord
340
0
  0
XRECORD
  5
2035B
102
{ACAD_REACTORS
330
20342
102
}
100
AcDbXrecord
 70
     1
  0
XRECORD
  5
2034E
102
{ACAD_REACTORS
330
20342
102
}
100
AcDbXrecord
  1
{EA4F422D-B4AA-4ED8-93D2-56B6358E3170}
  0
DICTIONARYVAR
  5
48E
102
{ACAD_REACTORS
330
48D
102
}
100
DictionaryVariables
280
     0
  1
0
  0
XRECORD
  5
20372
102
{ACAD_REACTORS
330
20371
102
}
100
AcDbXrecord
102
EXTNAMES
  1
LAYOUT1
  2
Layout1
  1
MODEL
  2
Model
  0
ENDSEC
  0
EOF
